  0
SECTION
  2
HEADER
  9
$ACADVER
  1
AC1015
  9
$DWGCODEPAGE
  3
ANSI_1252
  9
$EXTMAX
 10
297.0
 20
210.0
 30
0.0
  9
$EXTMIN
 10
0.0
 20
0.0
 30
0.0
  9
$LIMMIN
 10
0.0
 20
0.0
  9
$LIMMAX
 10
297.0
 20
210.0
  9
$VIEWCTR
 10
148.5
 20
105.0
  9
$VIEWSIZE
 40
210.0
  9
$CLAYER
  8
0
  9
$LTSCALE
 40
16.335
  9
$CELTYPE
  6
BYLAYER
  9
$DIMSCALE
 40
1.0
  9
$DIMASZ
 40
3.0
  9
$DIMEXO
 40
1.85625
  9
$DIMDLI
 40
11.286
  9
$DIMEXE
 40
5.346
  9
$DIMCEN
 40
2.673
  9
$DIMLFAC
 40
1.0
  9
$DIMBLK
  1
_FILLED
  9
$DIMTXT
 40
3.0
  9
$DIMTOL
 70
1
  9
$DIMLIM
 70
0
  9
$DIMTFAC
 40
1.0
  9
$DIMTP
 40
0.01
  9
$DIMTM
 40
0.01
  9
$PDMODE
 70
3
  9
$PDSIZE
 40
3.0
  9
$HANDSEED
  5
549
  9
$TILEMODE
 70
1
  9
$MEASUREMENT
 70
1
  9
$INSUNITS
 70
4
  0
ENDSEC
  0
SECTION
  2
CLASSES
  0
CLASS
  1
ACDBDICTIONARYWDFLT
  2
AcDbDictionaryWithDefault
  3
AutoCAD 2000
 90
0
280
0
281
0
  0
CLASS
  1
ACDBPLACEHOLDER
  2
AcDbPlaceHolder
  3
AutoCAD 2000
 90
0
280
0
281
0
  0
CLASS
  1
LAYOUT
  2
AcDbLayout
  3
AutoCAD 2000
 90
0
280
0
281
0
  0
ENDSEC
  0
SECTION
  2
TABLES
  0
TABLE
  2
VPORT
  5
8
100
AcDbSymbolTable
 70
2
  0
VPORT
  5
1F4
100
AcDbSymbolTableRecord
100
AcDbViewportTableRecord
  2
*ACTIVE
 70
0
 10
0.0
 20
0.0
 11
1.0
 21
1.0
 12
148.5
 22
105.0
 13
0.0
 23
0.0
 14
1.0
 24
1.0
 15
0.0
 25
0.0
 16
0.0
 26
0.0
 36
1.0
 17
0.0
 27
0.0
 37
0.0
 40
210.0
 41
1.4142857143
 42
50.0
 43
0.0
 44
0.0
 50
0.0
 51
0.0
 71
0
 72
100
 73
1
 74
1
 75
0
 76
0
 77
0
 78
0
  0
ENDTAB
  0
TABLE
  2
LTYPE
  5
5
100
AcDbSymbolTable
 70
6
  0
LTYPE
  5
14
100
AcDbSymbolTableRecord
100
AcDbLinetypeTableRecord
  2
BYBLOCK
 70
0
  3

 72
65
 73
0
 40
0.0
  0
LTYPE
  5
15
100
AcDbSymbolTableRecord
100
AcDbLinetypeTableRecord
  2
BYLAYER
 70
0
  3

 72
65
 73
0
 40
0.0
  0
LTYPE
  5
16
100
AcDbSymbolTableRecord
100
AcDbLinetypeTableRecord
  2
CONTINUOUS
 70
64
  3
Solid line
 72
65
 73
0
 40
0.0
  0
LTYPE
  5
1F5
100
AcDbSymbolTableRecord
100
AcDbLinetypeTableRecord
  2
CENTER
 70
64
  3
____ _ ____ _ ____ _ ____ _ ____ _ ____ _ ____
 72
65
 73
4
 40
0.6
 49
0.375
 74
0
 49
-0.075
 74
0
 49
0.075
 74
0
 49
-0.075
 74
0
  0
LTYPE
  5
1F6
100
AcDbSymbolTableRecord
100
AcDbLinetypeTableRecord
  2
HIDDEN
 70
64
  3
- - - - - - - - - - - - - - - - - - - -
 72
65
 73
2
 40
0.2
 49
0.1
 74
0
 49
-0.1
 74
0
  0
LTYPE
  5
1F7
100
AcDbSymbolTableRecord
100
AcDbLinetypeTableRecord
  2
PHANTOM
 70
64
  3
_____ _ _ _____ _ _ _____ _ _ _____
 72
65
 73
6
 40
0.8
 49
0.45
 74
0
 49
-0.05
 74
0
 49
0.1
 74
0
 49
-0.05
 74
0
 49
0.1
 74
0
 49
-0.05
 74
0
  0
LTYPE
  5
1F8
100
AcDbSymbolTableRecord
100
AcDbLinetypeTableRecord
  2
DOT
 70
64
  3
. . . . . . . . . . . . . . . . . . . .
 72
65
 73
2
 40
0.2
 49
0.1
 74
0
 49
-0.1
 74
0
  0
LTYPE
  5
1F9
100
AcDbSymbolTableRecord
100
AcDbLinetypeTableRecord
  2
DASHED
 70
64
  3
- - - - - - - - - - - - - - - - - - - -
 72
65
 73
2
 40
0.2
 49
0.1
 74
0
 49
-0.1
 74
0
  0
ENDTAB
  0
TABLE
  2
LAYER
  5
2
100
AcDbSymbolTable
 70
36
  0
LAYER
  5
10
100
AcDbSymbolTableRecord
100
AcDbLayerTableRecord
  2
0
 70
0
 62
7
  6
CONTINUOUS
370
-3
390
F
  0
LAYER
  5
1FA
100
AcDbSymbolTableRecord
100
AcDbLayerTableRecord
  2
DEFAULT_1
 70
0
 62
7
  6
CENTER
370
-3
390
F
  0
LAYER
  5
1FB
100
AcDbSymbolTableRecord
100
AcDbLayerTableRecord
  2
DEFAULT_2
 70
0
 62
7
  6
HIDDEN
370
-3
390
F
  0
LAYER
  5
1FC
100
AcDbSymbolTableRecord
100
AcDbLayerTableRecord
  2
DEFAULT_3
 70
0
 62
7
  6
PHANTOM
370
-3
390
F
  0
LAYER
  5
1FD
100
AcDbSymbolTableRecord
100
AcDbLayerTableRecord
  2
ASSI
 70
0
 62
7
  6
CONTINUOUS
370
-3
390
F
  0
LAYER
  5
1FE
100
AcDbSymbolTableRecord
100
AcDbLayerTableRecord
  2
BIADESIVI
 70
0
 62
7
  6
CONTINUOUS
370
-3
390
F
  0
LAYER
  5
1FF
100
AcDbSymbolTableRecord
100
AcDbLayerTableRecord
  2
COORDINATE
 70
0
 62
7
  6
CONTINUOUS
370
-3
390
F
  0
LAYER
  5
200
100
AcDbSymbolTableRecord
100
AcDbLayerTableRecord
  2
COPY_PUBLISH
 70
0
 62
7
  6
CONTINUOUS
370
-3
390
F
  0
LAYER
  5
201
100
AcDbSymbolTableRecord
100
AcDbLayerTableRecord
  2
COSMETICI
 70
0
 62
7
  6
CONTINUOUS
370
-3
390
F
  0
LAYER
  5
202
100
AcDbSymbolTableRecord
100
AcDbLayerTableRecord
  2
CURVE
 70
0
 62
7
  6
CONTINUOUS
370
-3
390
F
  0
LAYER
  5
203
100
AcDbSymbolTableRecord
100
AcDbLayerTableRecord
  2
DRAFT
 70
0
 62
7
  6
CONTINUOUS
370
-3
390
F
  0
LAYER
  5
204
100
AcDbSymbolTableRecord
100
AcDbLayerTableRecord
  2
IMPORT_IGES
 70
0
 62
7
  6
CONTINUOUS
370
-3
390
F
  0
LAYER
  5
205
100
AcDbSymbolTableRecord
100
AcDbLayerTableRecord
  2
INTF_1
 70
0
 62
7
  6
CONTINUOUS
370
-3
390
F
  0
LAYER
  5
206
100
AcDbSymbolTableRecord
100
AcDbLayerTableRecord
  2
NOTE
 70
0
 62
7
  6
CONTINUOUS
370
-3
390
F
  0
LAYER
  5
207
100
AcDbSymbolTableRecord
100
AcDbLayerTableRecord
  2
PIANI
 70
0
 62
7
  6
CONTINUOUS
370
-3
390
F
  0
LAYER
  5
208
100
AcDbSymbolTableRecord
100
AcDbLayerTableRecord
  2
PUNTI
 70
0
 62
7
  6
CONTINUOUS
370
-3
390
F
  0
LAYER
  5
209
100
AcDbSymbolTableRecord
100
AcDbLayerTableRecord
  2
RACCORDO
 70
0
 62
7
  6
CONTINUOUS
370
-3
390
F
  0
LAYER
  5
20A
100
AcDbSymbolTableRecord
100
AcDbLayerTableRecord
  2
SCRITTE
 70
0
 62
7
  6
CONTINUOUS
370
-3
390
F
  0
LAYER
  5
20B
100
AcDbSymbolTableRecord
100
AcDbLayerTableRecord
  2
SIMBOLI
 70
0
 62
7
  6
CONTINUOUS
370
-3
390
F
  0
LAYER
  5
20C
100
AcDbSymbolTableRecord
100
AcDbLayerTableRecord
  2
SMUSSO
 70
0
 62
7
  6
CONTINUOUS
370
-3
390
F
  0
LAYER
  5
20D
100
AcDbSymbolTableRecord
100
AcDbLayerTableRecord
  2
SNAPLINE
 70
0
 62
7
  6
CONTINUOUS
370
-3
390
F
  0
LAYER
  5
20E
100
AcDbSymbolTableRecord
100
AcDbLayerTableRecord
  2
SUPERFICI
 70
0
 62
7
  6
CONTINUOUS
370
-3
390
F
  0
LAYER
  5
20F
100
AcDbSymbolTableRecord
100
AcDbLayerTableRecord
  2
TRASH
 70
0
 62
7
  6
CONTINUOUS
370
-3
390
F
  0
ENDTAB
  0
TABLE
  2
STYLE
  5
3
100
AcDbSymbolTable
 70
1
  0
STYLE
  5
11
100
AcDbSymbolTableRecord
100
AcDbTextStyleTableRecord
  2
STANDARD
 70
0
 40
0.0
 41
0.8
 50
0.0
 71
0
 42
0.2
  3
txt
  4

  0
STYLE
  5
210
100
AcDbSymbolTableRecord
100
AcDbTextStyleTableRecord
  2
TEXTSTYLE_1
 70
0
 40
0.0
 41
0.8
 50
0.0
 71
0
 42
0.2
  3
gdt
  4

  0
ENDTAB
  0
TABLE
  2
VIEW
  5
6
100
AcDbSymbolTable
 70
0
  0
ENDTAB
  0
TABLE
  2
UCS
  5
7
100
AcDbSymbolTable
 70
0
  0
ENDTAB
  0
TABLE
  2
APPID
  5
9
100
AcDbSymbolTable
 70
1
  0
APPID
  5
211
100
AcDbSymbolTableRecord
100
AcDbRegAppTableRecord
  2
ACAD
 70
0
  0
ENDTAB
  0
TABLE
  2
BLOCK_RECORD
  5
1
100
AcDbSymbolTable
 70
0
  0
BLOCK_RECORD
  5
212
100
AcDbSymbolTableRecord
100
AcDbBlockTableRecord
  2
*Model_Space
  0
BLOCK_RECORD
  5
213
100
AcDbSymbolTableRecord
100
AcDbBlockTableRecord
  2
*Paper_Space
  0
BLOCK_RECORD
  5
214
100
AcDbSymbolTableRecord
100
AcDbBlockTableRecord
  2
_FILLED
  0
BLOCK_RECORD
  5
215
100
AcDbSymbolTableRecord
100
AcDbBlockTableRecord
  2
*D0
  0
BLOCK_RECORD
  5
216
100
AcDbSymbolTableRecord
100
AcDbBlockTableRecord
  2
*D1
  0
BLOCK_RECORD
  5
217
100
AcDbSymbolTableRecord
100
AcDbBlockTableRecord
  2
*D2
  0
BLOCK_RECORD
  5
218
100
AcDbSymbolTableRecord
100
AcDbBlockTableRecord
  2
*D3
  0
BLOCK_RECORD
  5
219
100
AcDbSymbolTableRecord
100
AcDbBlockTableRecord
  2
*D4
  0
ENDTAB
  0
TABLE
  2
DIMSTYLE
  5
A
100
AcDbSymbolTable
 70
1
100
AcDbDimStyleTable
 71
0
  0
DIMSTYLE
105
21A
100
AcDbSymbolTableRecord
100
AcDbDimStyleTableRecord
  2
STANDARD
 70
0
  3

  4

 40
1.0
 41
3.0
 42
0.0625
 43
0.38
 44
0.18
 45
0.0
 46
0.0
 47
0.01
 48
0.01
140
3.0
141
0.09
142
0.0
143
25.4
144
1.0
145
0.0
146
1.0
147
0.09
 71
1.0
 72
0.0
 73
0
 74
0
 75
0
 76
0
 77
1
 78
8
170
0
171
2
172
0
173
0
174
0
175
0
176
0
177
0
178
0
270
2
271
2
272
2
273
2
274
2
275
0
280
0
281
0
282
0
283
1
284
8
285
0
286
0
287
3
288
0
340
11
341
214
342
214
343
214
344
214
  0
DIMSTYLE
105
21B
100
AcDbSymbolTableRecord
100
AcDbDimStyleTableRecord
  2
DIMSTYLE_1
 70
0
  3

  4

 40
1.0
 41
3.0
 42
0.0625
 43
0.38
 44
0.18
 45
0.0
 46
0.0
 47
0.0
 48
0.0
140
3.0
141
0.09
142
0.0
143
25.4
144
1.0
145
0.0
146
1.0
147
0.09
 71
0.0
 72
0.0
 73
0
 74
0
 75
0
 76
0
 77
1
 78
8
170
0
171
2
172
0
173
0
174
0
175
0
176
0
177
0
178
0
270
2
271
1
272
1
273
2
274
2
275
0
280
0
281
0
282
0
283
1
284
8
285
0
286
0
287
3
288
0
340
11
341
214
342
214
343
214
344
214
  0
DIMSTYLE
105
21C
100
AcDbSymbolTableRecord
100
AcDbDimStyleTableRecord
  2
DIMSTYLE_2
 70
0
  3

  4

 40
1.0
 41
3.0
 42
0.0625
 43
0.38
 44
0.18
 45
0.0
 46
0.0
 47
0.0
 48
0.0
140
3.0
141
0.09
142
0.0
143
25.4
144
1.0
145
0.0
146
1.0
147
0.09
 71
0.0
 72
0.0
 73
0
 74
0
 75
0
 76
0
 77
1
 78
8
170
0
171
2
172
0
173
0
174
0
175
0
176
0
177
0
178
0
270
2
271
2
272
2
273
2
274
2
275
0
280
0
281
0
282
0
283
1
284
8
285
0
286
0
287
3
288
0
340
11
341
214
342
214
343
214
344
214
  0
ENDTAB
  0
ENDSEC
  0
SECTION
  2
BLOCKS
  0
BLOCK
  5
20
100
AcDbEntity
  8
0
100
AcDbBlockBegin
  2
*Model_Space
 70
0
 10
0.0
 20
0.0
 30
0.0
  3
*Model_Space
  1

  0
ENDBLK
  5
21
100
AcDbEntity
  8
0
100
AcDbBlockEnd
  0
BLOCK
  5
1C
100
AcDbEntity
  8
0
100
AcDbBlockBegin
  2
*Paper_Space
 70
0
 10
0.0
 20
0.0
 30
0.0
  3
*Paper_Space
  1

  0
ENDBLK
  5
1D
100
AcDbEntity
  8
0
100
AcDbBlockEnd
  0
BLOCK
  5
21D
100
AcDbEntity
  8
0
100
AcDbBlockBegin
  2
_FILLED
 70
64
 10
0.0
 20
0.0
  3
_FILLED
  1

  0
SOLID
  5
21E
100
AcDbEntity
  8
0
  6
BYBLOCK
 62
0
100
AcDbTrace
 10
0.0
 20
0.0
 11
-1.0
 21
0.3166666667
 12
-1.0
 22
-0.3166666667
 13
-1.0
 23
-0.3166666667
  0
ENDBLK
  5
21F
100
AcDbEntity
  8
0
  6
BYBLOCK
 62
0
100
AcDbBlockEnd
  0
BLOCK
  5
220
100
AcDbEntity
  8
0
100
AcDbBlockBegin
 62
7
  6
CONTINUOUS
  2
*D0
 70
65
 10
0.0
 20
0.0
  3
*D0
  1

  0
LINE
  5
221
100
AcDbEntity
  8
0
100
AcDbLine
 62
7
  6
CONTINUOUS
 10
57.4282973202
 20
159.9092301859
 11
57.4282973735
 21
200.6368347138
  0
LINE
  5
222
100
AcDbEntity
  8
0
100
AcDbLine
 62
7
  6
CONTINUOUS
 10
47.6068860321
 20
66.5298319465
 11
47.6068862075
 21
200.6368347266
  0
LINE
  5
223
100
AcDbEntity
  8
0
100
AcDbLine
 62
7
  6
CONTINUOUS
 10
57.4282973715
 20
199.1368347138
 11
61.4282973715
 21
199.1368347086
  0
LINE
  5
224
100
AcDbEntity
  8
0
100
AcDbLine
 62
7
  6
CONTINUOUS
 10
61.4282973715
 20
199.1368347086
 11
52.5175917885
 21
199.1368347202
  0
LINE
  5
225
100
AcDbEntity
  8
0
100
AcDbLine
 62
7
  6
CONTINUOUS
 10
47.6068862055
 20
199.1368347266
 11
43.6068862055
 21
199.1368347319
  0
LINE
  5
226
100
AcDbEntity
  8
0
100
AcDbLine
 62
7
  6
CONTINUOUS
 10
43.6068862055
 20
199.1368347319
 11
52.5175917885
 21
199.1368347202
  0
INSERT
  5
227
100
AcDbEntity
  8
0
100
AcDbBlockReference
 62
7
  6
CONTINUOUS
  2
_FILLED
 10
57.4282973715
 20
199.1368347138
 41
3.0
 42
3.0
 43
3.0
 50
179.9999999251
  0
INSERT
  5
228
100
AcDbEntity
  8
0
100
AcDbBlockReference
 62
7
  6
CONTINUOUS
  2
_FILLED
 10
47.6068862055
 20
199.1368347266
 41
3.0
 42
3.0
 43
3.0
 50
359.9999999251
  0
ENDBLK
  5
229
100
AcDbEntity
  8
0
  6
BYBLOCK
 62
0
100
AcDbBlockEnd
  0
BLOCK
  5
22A
100
AcDbEntity
  8
0
100
AcDbBlockBegin
 62
7
  6
CONTINUOUS
  2
*D1
 70
65
 10
0.0
 20
0.0
  3
*D1
  1

  0
LINE
  5
22B
100
AcDbEntity
  8
0
100
AcDbLine
 62
7
  6
CONTINUOUS
 10
235.444424157
 20
160.0490217272
 11
235.444424157
 21
210.6368347202
  0
LINE
  5
22C
100
AcDbEntity
  8
0
100
AcDbLine
 62
7
  6
CONTINUOUS
 10
88.4444677803
 20
160.0490217272
 11
88.4444677803
 21
210.6368347202
  0
LINE
  5
22D
100
AcDbEntity
  8
0
100
AcDbLine
 62
7
  6
CONTINUOUS
 10
235.444424157
 20
209.1368347202
 11
161.9444459687
 21
209.1368347202
  0
LINE
  5
22E
100
AcDbEntity
  8
0
100
AcDbLine
 62
7
  6
CONTINUOUS
 10
88.4444677803
 20
209.1368347202
 11
161.9444459687
 21
209.1368347202
  0
INSERT
  5
22F
100
AcDbEntity
  8
0
100
AcDbBlockReference
 62
7
  6
CONTINUOUS
  2
_FILLED
 10
235.444424157
 20
209.1368347202
 41
3.0
 42
3.0
 43
3.0
  0
INSERT
  5
230
100
AcDbEntity
  8
0
100
AcDbBlockReference
 62
7
  6
CONTINUOUS
  2
_FILLED
 10
88.4444677803
 20
209.1368347202
 41
3.0
 42
3.0
 43
3.0
 50
180.0
  0
ENDBLK
  5
231
100
AcDbEntity
  8
0
  6
BYBLOCK
 62
0
100
AcDbBlockEnd
  0
BLOCK
  5
232
100
AcDbEntity
  8
0
100
AcDbBlockBegin
 62
7
  6
CONTINUOUS
  2
*D2
 70
65
 10
0.0
 20
0.0
  3
*D2
  1

  0
LINE
  5
233
100
AcDbEntity
  8
0
100
AcDbLine
 62
7
  6
CONTINUOUS
 10
234.9680766568
 20
183.5298319465
 11
261.5887858083
 21
183.5298319465
  0
LINE
  5
234
100
AcDbEntity
  8
0
100
AcDbLine
 62
7
  6
CONTINUOUS
 10
234.9680766568
 20
19.5298319465
 11
261.5887858083
 21
19.5298319465
  0
LINE
  5
235
100
AcDbEntity
  8
0
100
AcDbLine
 62
7
  6
CONTINUOUS
 10
260.0887858083
 20
183.5298319465
 11
260.0887858083
 21
101.5298319465
  0
LINE
  5
236
100
AcDbEntity
  8
0
100
AcDbLine
 62
7
  6
CONTINUOUS
 10
260.0887858083
 20
19.5298319465
 11
260.0887858083
 21
101.5298319465
  0
INSERT
  5
237
100
AcDbEntity
  8
0
100
AcDbBlockReference
 62
7
  6
CONTINUOUS
  2
_FILLED
 10
260.0887858083
 20
183.5298319465
 41
3.0
 42
3.0
 43
3.0
 50
90.0
  0
INSERT
  5
238
100
AcDbEntity
  8
0
100
AcDbBlockReference
 62
7
  6
CONTINUOUS
  2
_FILLED
 10
260.0887858083
 20
19.5298319465
 41
3.0
 42
3.0
 43
3.0
 50
270.0
  0
ENDBLK
  5
239
100
AcDbEntity
  8
0
  6
BYBLOCK
 62
0
100
AcDbBlockEnd
  0
BLOCK
  5
23A
100
AcDbEntity
  8
0
100
AcDbBlockBegin
 62
7
  6
CONTINUOUS
  2
*D3
 70
65
 10
0.0
 20
0.0
  3
*D3
  1

  0
LINE
  5
23B
100
AcDbEntity
  8
0
100
AcDbLine
 62
7
  6
CONTINUOUS
 10
206.84352122
 20
159.5798319465
 11
251.5887858083
 21
159.5798319465
  0
LINE
  5
23C
100
AcDbEntity
  8
0
100
AcDbLine
 62
7
  6
CONTINUOUS
 10
206.84352122
 20
43.4798319465
 11
251.5887858083
 21
43.4798319465
  0
LINE
  5
23D
100
AcDbEntity
  8
0
100
AcDbLine
 62
7
  6
CONTINUOUS
 10
250.0887858083
 20
159.5798319465
 11
250.0887858083
 21
101.5298319465
  0
LINE
  5
23E
100
AcDbEntity
  8
0
100
AcDbLine
 62
7
  6
CONTINUOUS
 10
250.0887858083
 20
43.4798319465
 11
250.0887858083
 21
101.5298319465
  0
INSERT
  5
23F
100
AcDbEntity
  8
0
100
AcDbBlockReference
 62
7
  6
CONTINUOUS
  2
_FILLED
 10
250.0887858083
 20
159.5798319465
 41
3.0
 42
3.0
 43
3.0
 50
90.0
  0
INSERT
  5
240
100
AcDbEntity
  8
0
100
AcDbBlockReference
 62
7
  6
CONTINUOUS
  2
_FILLED
 10
250.0887858083
 20
43.4798319465
 41
3.0
 42
3.0
 43
3.0
 50
270.0
  0
ENDBLK
  5
241
100
AcDbEntity
  8
0
  6
BYBLOCK
 62
0
100
AcDbBlockEnd
  0
BLOCK
  5
242
100
AcDbEntity
  8
0
100
AcDbBlockBegin
 62
7
  6
CONTINUOUS
  2
*D4
 70
65
 10
0.0
 20
0.0
  3
*D4
  1

  0
LINE
  5
243
100
AcDbEntity
  8
0
100
AcDbLine
 62
7
  6
CONTINUOUS
 10
116.7944441287
 20
137.5298319465
 11
116.7944441287
 21
200.6368347202
  0
LINE
  5
244
100
AcDbEntity
  8
0
100
AcDbLine
 62
7
  6
CONTINUOUS
 10
207.0944447601
 20
137.5298319465
 11
207.0944447601
 21
200.6368347202
  0
LINE
  5
245
100
AcDbEntity
  8
0
100
AcDbLine
 62
7
  6
CONTINUOUS
 10
116.7944441287
 20
199.1368347202
 11
161.9444444444
 21
199.1368347202
  0
LINE
  5
246
100
AcDbEntity
  8
0
100
AcDbLine
 62
7
  6
CONTINUOUS
 10
207.0944447601
 20
199.1368347202
 11
161.9444444444
 21
199.1368347202
  0
INSERT
  5
247
100
AcDbEntity
  8
0
100
AcDbBlockReference
 62
7
  6
CONTINUOUS
  2
_FILLED
 10
116.7944441287
 20
199.1368347202
 41
3.0
 42
3.0
 43
3.0
 50
180.0
  0
INSERT
  5
248
100
AcDbEntity
  8
0
100
AcDbBlockReference
 62
7
  6
CONTINUOUS
  2
_FILLED
 10
207.0944447601
 20
199.1368347202
 41
3.0
 42
3.0
 43
3.0
  0
ENDBLK
  5
249
100
AcDbEntity
  8
0
  6
BYBLOCK
 62
0
100
AcDbBlockEnd
  0
ENDSEC
  0
SECTION
  2
ENTITIES
  0
DIMENSION
  5
24A
100
AcDbEntity
  8
0
100
AcDbDimension
 62
7
  6
CONTINUOUS
  2
*D0
 10
47.6068862055
 20
199.1368347266
 11
49.3033060651
 21
199.8868347202
 70
160
 71
2
 42
9.821411166
  3
DIMSTYLE_1
100
AcDbAlignedDimension
 13
57.4282973202
 23
159.9092301859
 14
47.6068860321
 24
66.5298319465
 50
179.9999999251
100
AcDbRotatedDimension
  0
DIMENSION
  5
24B
100
AcDbEntity
  8
0
100
AcDbDimension
 62
7
  6
CONTINUOUS
  2
*D1
 10
88.4444677803
 20
209.1368347202
 11
158.7301602544
 21
209.8868347202
 70
160
 71
2
 42
146.9999563767
  3
DIMSTYLE_2
100
AcDbAlignedDimension
 13
235.444424157
 23
160.0490217272
 14
88.4444677803
 24
160.0490217272
 50
180.0
100
AcDbRotatedDimension
  0
DIMENSION
  5
24C
100
AcDbEntity
  8
0
100
AcDbDimension
 62
7
  6
CONTINUOUS
  2
*D2
 10
260.0887858083
 20
19.5298319465
 11
259.3387858083
 21
98.3155462322
 70
160
 71
2
 42
164.0
  3
DIMSTYLE_2
100
AcDbAlignedDimension
 13
234.9680766568
 23
183.5298319465
 14
234.9680766568
 24
19.5298319465
 50
270.0
100
AcDbRotatedDimension
  0
DIMENSION
  5
24D
100
AcDbEntity
  8
0
100
AcDbDimension
 62
7
  6
CONTINUOUS
  2
*D3
 10
250.0887858083
 20
43.4798319465
 11
249.3387858083
 21
96.9226890893
 70
160
 71
2
 42
116.1
  3
DIMSTYLE_2
100
AcDbAlignedDimension
 13
206.84352122
 23
159.5798319465
 14
206.84352122
 24
43.4798319465
 50
270.0
100
AcDbRotatedDimension
  0
DIMENSION
  5
24E
100
AcDbEntity
  8
0
100
AcDbDimension
 62
7
  6
CONTINUOUS
  2
*D4
 10
207.0944447601
 20
199.1368347202
 11
157.6587301587
 21
199.8868347202
 70
160
 71
2
 42
90.3000006314
  3
DIMSTYLE_2
100
AcDbAlignedDimension
 13
116.7944441287
 23
137.5298319465
 14
207.0944447601
 24
137.5298319465
100
AcDbRotatedDimension
  0
LWPOLYLINE
  5
24F
100
AcDbEntity
  8
RACCORDO
100
AcDbPolyline
 62
253
  6
CONTINUOUS
 90
28
 70
0
 10
234.2298660052
 20
19.7728242987
 10
234.2867410542
 20
19.7746712275
 10
234.3433557523
 20
19.7797811294
 10
234.3995278013
 20
19.788131598
 10
234.455048684
 20
19.799683255
 10
234.5097691154
 20
19.8143968566
 10
234.563595475
 20
19.8322492386
 10
234.6163893509
 20
19.8532086697
 10
234.6679361734
 20
19.8772036885
 10
234.7180309052
 20
19.9041443775
 10
234.7664921698
 20
19.9339357654
 10
234.8131787105
 20
19.96649234
 10
234.8579539556
 20
20.0017210642
 10
234.9006697045
 20
20.0395155205
 10
234.9411797818
 20
20.0797558636
 10
234.9793568464
 20
20.1223200057
 10
235.0150696441
 20
20.1670766238
 10
235.0481937012
 20
20.2138844648
 10
235.0786209485
 20
20.262597058
 10
235.1062443001
 20
20.3130654648
 10
235.1309613785
 20
20.3651256605
 10
235.1526843707
 20
20.4185991646
 10
235.1713315444
 20
20.4733116583
 10
235.1868337311
 20
20.5290898601
 10
235.1991373211
 20
20.5857494422
 10
235.2081938722
 20
20.6431054099
 10
235.2139608031
 20
20.7009725607
 10
235.2164086664
 20
20.7591619164
  0
LWPOLYLINE
  5
250
100
AcDbEntity
  8
ASSI
100
AcDbPolyline
 62
253
  6
CONTINUOUS
 90
28
 70
0
 10
234.2298660052
 20
19.7728242987
 10
234.2867410542
 20
19.7746712275
 10
234.3433557523
 20
19.7797811294
 10
234.3995278013
 20
19.788131598
 10
234.455048684
 20
19.799683255
 10
234.5097691154
 20
19.8143968566
 10
234.563595475
 20
19.8322492386
 10
234.6163893509
 20
19.8532086697
 10
234.6679361734
 20
19.8772036885
 10
234.7180309052
 20
19.9041443775
 10
234.7664921698
 20
19.9339357654
 10
234.8131787105
 20
19.96649234
 10
234.8579539556
 20
20.0017210642
 10
234.9006697045
 20
20.0395155205
 10
234.9411797818
 20
20.0797558636
 10
234.9793568464
 20
20.1223200057
 10
235.0150696441
 20
20.1670766238
 10
235.0481937012
 20
20.2138844648
 10
235.0786209485
 20
20.262597058
 10
235.1062443001
 20
20.3130654648
 10
235.1309613785
 20
20.3651256605
 10
235.1526843707
 20
20.4185991646
 10
235.1713315444
 20
20.4733116583
 10
235.1868337311
 20
20.5290898601
 10
235.1991373211
 20
20.5857494422
 10
235.2081938722
 20
20.6431054099
 10
235.2139608031
 20
20.7009725607
 10
235.2164086664
 20
20.7591619164
  0
LWPOLYLINE
  5
251
100
AcDbEntity
  8
RACCORDO
100
AcDbPolyline
 62
253
  6
CONTINUOUS
 90
28
 70
0
 10
234.2298660052
 20
20.161886219
 10
234.2584579903
 20
20.1627330644
 10
234.2867417255
 20
20.1652106393
 10
234.3147172107
 20
20.1693189637
 10
234.3424673938
 20
20.1750774102
 10
234.369909327
 20
20.1824666865
 10
234.3967941671
 20
20.1914288321
 10
234.4231287597
 20
20.2019831416
 10
234.4489062591
 20
20.2141104732
 10
234.4738572852
 20
20.2276952214
 10
234.4979661241
 20
20.2427484603
 10
234.5212484897
 20
20.2592593226
 10
234.5434821424
 20
20.2770792868
 10
234.5646602355
 20
20.2962219304
 10
234.5847896158
 20
20.3166739151
 10
234.6036685839
 20
20.3382463267
 10
234.6212869368
 20
20.3609525045
 10
234.6376548774
 20
20.3847793536
 10
234.6526013154
 20
20.4094982707
 10
234.6661122182
 20
20.4351193565
 10
234.6782016183
 20
20.4616327301
 10
234.6887405223
 20
20.4887797619
 10
234.6977136888
 20
20.5165768009
 10
234.7051363591
 20
20.5450076677
 10
234.7109252634
 20
20.5737648662
 10
234.7150526452
 20
20.6027459083
 10
234.7175462609
 20
20.6320533614
 10
234.7184061106
 20
20.6616872708
  0
LWPOLYLINE
  5
252
100
AcDbEntity
  8
ASSI
100
AcDbPolyline
 62
253
  6
CONTINUOUS
 90
28
 70
0
 10
234.2298660052
 20
20.161886219
 10
234.2584579903
 20
20.1627330644
 10
234.2867417255
 20
20.1652106393
 10
234.3147172107
 20
20.1693189637
 10
234.3424673938
 20
20.1750774102
 10
234.369909327
 20
20.1824666865
 10
234.3967941671
 20
20.1914288321
 10
234.4231287597
 20
20.2019831416
 10
234.4489062591
 20
20.2141104732
 10
234.4738572852
 20
20.2276952214
 10
234.4979661241
 20
20.2427484603
 10
234.5212484897
 20
20.2592593226
 10
234.5434821424
 20
20.2770792868
 10
234.5646602355
 20
20.2962219304
 10
234.5847896158
 20
20.3166739151
 10
234.6036685839
 20
20.3382463267
 10
234.6212869368
 20
20.3609525045
 10
234.6376548774
 20
20.3847793536
 10
234.6526013154
 20
20.4094982707
 10
234.6661122182
 20
20.4351193565
 10
234.6782016183
 20
20.4616327301
 10
234.6887405223
 20
20.4887797619
 10
234.6977136888
 20
20.5165768009
 10
234.7051363591
 20
20.5450076677
 10
234.7109252634
 20
20.5737648662
 10
234.7150526452
 20
20.6027459083
 10
234.7175462609
 20
20.6320533614
 10
234.7184061106
 20
20.6616872708
  0
LWPOLYLINE
  5
253
100
AcDbEntity
  8
RACCORDO
100
AcDbPolyline
 62
253
  6
CONTINUOUS
 90
19
 70
0
 10
234.7184061106
 20
20.6616873195
 10
234.7595091522
 20
20.6620354565
 10
234.8003339551
 20
20.6631071012
 10
234.8406041642
 20
20.6648949995
 10
234.8800471783
 20
20.6673870485
 10
234.9183959962
 20
20.6705663789
 10
234.9553910231
 20
20.6744114688
 10
234.9907818289
 20
20.6788962896
 10
235.0243288425
 20
20.6839904822
 10
235.0558049744
 20
20.6896595626
 10
235.0849971533
 20
20.6958651551
 10
235.1117077686
 20
20.7025652521
 10
235.1357560082
 20
20.7097144987
 10
235.1569790825
 20
20.7172644996
 10
235.1752333261
 20
20.7251641465
 10
235.1903951708
 20
20.7333599645
 10
235.2023619814
 20
20.7417964735
 10
235.211052751
 20
20.7504165643
 10
235.2164086494
 20
20.759161885
  0
LWPOLYLINE
  5
254
100
AcDbEntity
  8
ASSI
100
AcDbPolyline
 62
253
  6
CONTINUOUS
 90
19
 70
0
 10
234.7184061106
 20
20.6616873195
 10
234.7595091522
 20
20.6620354565
 10
234.8003339551
 20
20.6631071012
 10
234.8406041642
 20
20.6648949995
 10
234.8800471783
 20
20.6673870485
 10
234.9183959962
 20
20.6705663789
 10
234.9553910231
 20
20.6744114688
 10
234.9907818289
 20
20.6788962896
 10
235.0243288425
 20
20.6839904822
 10
235.0558049744
 20
20.6896595626
 10
235.0849971533
 20
20.6958651551
 10
235.1117077686
 20
20.7025652521
 10
235.1357560082
 20
20.7097144987
 10
235.1569790825
 20
20.7172644996
 10
235.1752333261
 20
20.7251641465
 10
235.1903951708
 20
20.7333599645
 10
235.2023619814
 20
20.7417964735
 10
235.211052751
 20
20.7504165643
 10
235.2164086494
 20
20.759161885
  0
LINE
  5
255
100
AcDbEntity
  8
RACCORDO
100
AcDbLine
 62
7
  6
CONTINUOUS
 10
89.4208122321
 20
19.5298319465
 11
234.4680766568
 21
19.5298319465
  0
LINE
  5
256
100
AcDbEntity
  8
ASSI
100
AcDbLine
 62
7
  6
CONTINUOUS
 10
89.4208122321
 20
19.5298319465
 11
234.4680766568
 21
19.5298319465
  0
LINE
  5
257
100
AcDbEntity
  8
RACCORDO
100
AcDbLine
 62
253
  6
CONTINUOUS
 10
89.6590228837
 20
19.7728242987
 11
234.2298660052
 21
19.7728242987
  0
LINE
  5
258
100
AcDbEntity
  8
ASSI
100
AcDbLine
 62
253
  6
CONTINUOUS
 10
89.6590228837
 20
19.7728242987
 11
234.2298660052
 21
19.7728242987
  0
LWPOLYLINE
  5
259
100
AcDbEntity
  8
RACCORDO
100
AcDbPolyline
 62
253
  6
CONTINUOUS
 90
19
 70
0
 10
89.1704827783
 20
20.6616872788
 10
89.1293800267
 20
20.6620354534
 10
89.0885555351
 20
20.6631071317
 10
89.0482856542
 20
20.6648950595
 10
89.0088429805
 20
20.6673871337
 10
88.9704945109
 20
20.6705664852
 10
88.9334998354
 20
20.674411592
 10
88.8981093798
 20
20.6788964258
 10
88.8645627105
 20
20.6839906276
 10
88.833086913
 20
20.6896597136
 10
88.8038950545
 20
20.6958653084
 10
88.7771847417
 20
20.7025654047
 10
88.753136783
 20
20.7097146481
 10
88.7319139648
 20
20.7172646434
 10
88.7136599496
 20
20.7251642829
 10
88.698498303
 20
20.733360092
 10
88.6865316579
 20
20.7417965913
 10
88.6778410194
 20
20.7504166719
 10
88.6724852164
 20
20.7591619824
  0
LWPOLYLINE
  5
25A
100
AcDbEntity
  8
ASSI
100
AcDbPolyline
 62
253
  6
CONTINUOUS
 90
19
 70
0
 10
89.1704827783
 20
20.6616872788
 10
89.1293800267
 20
20.6620354534
 10
89.0885555351
 20
20.6631071317
 10
89.0482856542
 20
20.6648950595
 10
89.0088429805
 20
20.6673871337
 10
88.9704945109
 20
20.6705664852
 10
88.9334998354
 20
20.674411592
 10
88.8981093798
 20
20.6788964258
 10
88.8645627105
 20
20.6839906276
 10
88.833086913
 20
20.6896597136
 10
88.8038950545
 20
20.6958653084
 10
88.7771847417
 20
20.7025654047
 10
88.753136783
 20
20.7097146481
 10
88.7319139648
 20
20.7172646434
 10
88.7136599496
 20
20.7251642829
 10
88.698498303
 20
20.733360092
 10
88.6865316579
 20
20.7417965913
 10
88.6778410194
 20
20.7504166719
 10
88.6724852164
 20
20.7591619824
  0
LWPOLYLINE
  5
25B
100
AcDbEntity
  8
RACCORDO
100
AcDbPolyline
 62
7
  6
CONTINUOUS
 90
28
 70
0
 10
89.4208122321
 20
19.5298319465
 10
89.3647974801
 20
19.5314073049
 10
89.3092229298
 20
19.5361758345
 10
89.2540885811
 20
19.5441376163
 10
89.1991541369
 20
19.5553444493
 10
89.1446598943
 20
19.5697448616
 10
89.0913267447
 20
19.5871840971
 10
89.0392746192
 20
19.6076602873
 10
88.9883835867
 20
19.6311759115
 10
88.9390147452
 20
19.6575827773
 10
88.8911787437
 20
19.6868628459
 10
88.8448649332
 20
19.7190350042
 10
88.8004024646
 20
19.7540064796
 10
88.7576713883
 20
19.7919369798
 10
88.7167916539
 20
19.8326678882
 10
88.6784522605
 20
19.8756288676
 10
88.642784267
 20
19.9207618778
 10
88.6096566146
 20
19.9681259709
 10
88.5793651254
 20
20.0173262648
 10
88.5519289307
 20
20.0683268662
 10
88.5273288993
 20
20.1211646073
 10
88.5058034592
 20
20.1755535414
 10
88.4873301902
 20
20.2316772252
 10
88.4719315126
 20
20.2893530056
 10
88.4599131151
 20
20.3477453093
 10
88.4513768941
 20
20.4065756364
 10
88.4462209532
 20
20.4661228375
 10
88.4444452926
 20
20.5263871186
  0
LWPOLYLINE
  5
25C
100
AcDbEntity
  8
ASSI
100
AcDbPolyline
 62
7
  6
CONTINUOUS
 90
28
 70
0
 10
89.4208122321
 20
19.5298319465
 10
89.3647974801
 20
19.5314073049
 10
89.3092229298
 20
19.5361758345
 10
89.2540885811
 20
19.5441376163
 10
89.1991541369
 20
19.5553444493
 10
89.1446598943
 20
19.5697448616
 10
89.0913267447
 20
19.5871840971
 10
89.0392746192
 20
19.6076602873
 10
88.9883835867
 20
19.6311759115
 10
88.9390147452
 20
19.6575827773
 10
88.8911787437
 20
19.6868628459
 10
88.8448649332
 20
19.7190350042
 10
88.8004024646
 20
19.7540064796
 10
88.7576713883
 20
19.7919369798
 10
88.7167916539
 20
19.8326678882
 10
88.6784522605
 20
19.8756288676
 10
88.642784267
 20
19.9207618778
 10
88.6096566146
 20
19.9681259709
 10
88.5793651254
 20
20.0173262648
 10
88.5519289307
 20
20.0683268662
 10
88.5273288993
 20
20.1211646073
 10
88.5058034592
 20
20.1755535414
 10
88.4873301902
 20
20.2316772252
 10
88.4719315126
 20
20.2893530056
 10
88.4599131151
 20
20.3477453093
 10
88.4513768941
 20
20.4065756364
 10
88.4462209532
 20
20.4661228375
 10
88.4444452926
 20
20.5263871186
  0
LINE
  5
25D
100
AcDbEntity
  8
RACCORDO
100
AcDbLine
 62
253
  6
CONTINUOUS
 10
89.6590228837
 20
20.161886219
 11
234.2298660052
 21
20.161886219
  0
LINE
  5
25E
100
AcDbEntity
  8
ASSI
100
AcDbLine
 62
253
  6
CONTINUOUS
 10
89.6590228837
 20
20.161886219
 11
234.2298660052
 21
20.161886219
  0
LWPOLYLINE
  5
25F
100
AcDbEntity
  8
RACCORDO
100
AcDbPolyline
 62
253
  6
CONTINUOUS
 90
28
 70
0
 10
88.6724802225
 20
20.7591619165
 10
88.6749275284
 20
20.7009812565
 10
88.6806900264
 20
20.6431445812
 10
88.6897345597
 20
20.5858401688
 10
88.702010306
 20
20.5292707034
 10
88.717467893
 20
20.473600439
 10
88.7360705876
 20
20.4189577529
 10
88.7577680319
 20
20.3654880824
 10
88.7824747531
 20
20.3133983766
 10
88.810089247
 20
20.2629027394
 10
88.8405012632
 20
20.2141764937
 10
88.8736095207
 20
20.1673563104
 10
88.9093073711
 20
20.1225863214
 10
88.9474711704
 20
20.0800070081
 10
88.9879690532
 20
20.0397507011
 10
89.0306732278
 20
20.0019400166
 10
89.0754382858
 20
19.9666942096
 10
89.12211527
 20
19.9341203742
 10
89.1705644518
 20
19.9043133766
 10
89.2206312199
 20
19.8773646444
 10
89.2721463131
 20
19.8533605861
 10
89.3249423191
 20
19.8323768585
 10
89.3788382373
 20
19.8144813109
 10
89.4336666219
 20
19.799724649
 10
89.4892768862
 20
19.7881465701
 10
89.5454988107
 20
19.7797851354
 10
89.6021417764
 20
19.7746715041
 10
89.6590228837
 20
19.7728242987
  0
LWPOLYLINE
  5
260
100
AcDbEntity
  8
ASSI
100
AcDbPolyline
 62
253
  6
CONTINUOUS
 90
28
 70
0
 10
88.6724802225
 20
20.7591619165
 10
88.6749275284
 20
20.7009812565
 10
88.6806900264
 20
20.6431445812
 10
88.6897345597
 20
20.5858401688
 10
88.702010306
 20
20.5292707034
 10
88.717467893
 20
20.473600439
 10
88.7360705876
 20
20.4189577529
 10
88.7577680319
 20
20.3654880824
 10
88.7824747531
 20
20.3133983766
 10
88.810089247
 20
20.2629027394
 10
88.8405012632
 20
20.2141764937
 10
88.8736095207
 20
20.1673563104
 10
88.9093073711
 20
20.1225863214
 10
88.9474711704
 20
20.0800070081
 10
88.9879690532
 20
20.0397507011
 10
89.0306732278
 20
20.0019400166
 10
89.0754382858
 20
19.9666942096
 10
89.12211527
 20
19.9341203742
 10
89.1705644518
 20
19.9043133766
 10
89.2206312199
 20
19.8773646444
 10
89.2721463131
 20
19.8533605861
 10
89.3249423191
 20
19.8323768585
 10
89.3788382373
 20
19.8144813109
 10
89.4336666219
 20
19.799724649
 10
89.4892768862
 20
19.7881465701
 10
89.5454988107
 20
19.7797851354
 10
89.6021417764
 20
19.7746715041
 10
89.6590228837
 20
19.7728242987
  0
LWPOLYLINE
  5
261
100
AcDbEntity
  8
RACCORDO
100
AcDbPolyline
 62
253
  6
CONTINUOUS
 90
28
 70
0
 10
89.1704827783
 20
20.6616872708
 10
89.1713494935
 20
20.6320311677
 10
89.1738437562
 20
20.6027203775
 10
89.1779655664
 20
20.5737548525
 10
89.1837399408
 20
20.5450439322
 10
89.1911418626
 20
20.5166781912
 10
89.2000962817
 20
20.4889293973
 10
89.2106224755
 20
20.4617959413
 10
89.2227011666
 20
20.4352792691
 10
89.2361994715
 20
20.4096556597
 10
89.2511284072
 20
20.3849428808
 10
89.2674769567
 20
20.361122944
 10
89.2850791862
 20
20.3384184378
 10
89.3039464813
 20
20.3168395903
 10
89.3240674563
 20
20.2963759303
 10
89.3452420198
 20
20.2772189596
 10
89.3674796774
 20
20.2593811787
 10
89.3907709236
 20
20.2428498481
 10
89.4148871496
 20
20.2277785901
 10
89.4398358676
 20
20.2141814837
 10
89.4656095654
 20
20.2020442421
 10
89.4919570982
 20
20.1914779356
 10
89.5188898494
 20
20.1824973872
 10
89.5463964356
 20
20.1750876212
 10
89.5741915616
 20
20.1693150178
 10
89.6021801291
 20
20.1652016762
 10
89.6304572364
 20
20.1627254166
 10
89.6590228837
 20
20.161886219
  0
LWPOLYLINE
  5
262
100
AcDbEntity
  8
ASSI
100
AcDbPolyline
 62
253
  6
CONTINUOUS
 90
28
 70
0
 10
89.1704827783
 20
20.6616872708
 10
89.1713494935
 20
20.6320311677
 10
89.1738437562
 20
20.6027203775
 10
89.1779655664
 20
20.5737548525
 10
89.1837399408
 20
20.5450439322
 10
89.1911418626
 20
20.5166781912
 10
89.2000962817
 20
20.4889293973
 10
89.2106224755
 20
20.4617959413
 10
89.2227011666
 20
20.4352792691
 10
89.2361994715
 20
20.4096556597
 10
89.2511284072
 20
20.3849428808
 10
89.2674769567
 20
20.361122944
 10
89.2850791862
 20
20.3384184378
 10
89.3039464813
 20
20.3168395903
 10
89.3240674563
 20
20.2963759303
 10
89.3452420198
 20
20.2772189596
 10
89.3674796774
 20
20.2593811787
 10
89.3907709236
 20
20.2428498481
 10
89.4148871496
 20
20.2277785901
 10
89.4398358676
 20
20.2141814837
 10
89.4656095654
 20
20.2020442421
 10
89.4919570982
 20
20.1914779356
 10
89.5188898494
 20
20.1824973872
 10
89.5463964356
 20
20.1750876212
 10
89.5741915616
 20
20.1693150178
 10
89.6021801291
 20
20.1652016762
 10
89.6304572364
 20
20.1627254166
 10
89.6590228837
 20
20.161886219
  0
LINE
  5
263
100
AcDbEntity
  8
DRAFT
100
AcDbLine
 62
7
  6
CONTINUOUS
 10
88.4444444444
 20
43.5106421657
 11
88.4444444444
 21
159.5490217272
  0
LINE
  5
264
100
AcDbEntity
  8
RACCORDO
100
AcDbLine
 62
7
  6
CONTINUOUS
 10
88.4444444444
 20
159.5490217272
 11
88.4444452926
 21
182.5332767743
  0
LINE
  5
265
100
AcDbEntity
  8
RACCORDO
100
AcDbLine
 62
7
  6
CONTINUOUS
 10
88.4444452926
 20
20.5263871186
 11
88.4444444444
 21
43.5106421657
  0
LINE
  5
266
100
AcDbEntity
  8
ASSI
100
AcDbLine
 62
7
  6
CONTINUOUS
 10
88.4444452926
 20
20.5263871186
 11
88.4444452926
 21
182.5332767743
  0
LINE
  5
267
100
AcDbEntity
  8
RACCORDO
100
AcDbLine
 62
253
  6
CONTINUOUS
 10
89.165076022
 20
66.0298364415
 11
89.1704827783
 21
20.6616872708
  0
LINE
  5
268
100
AcDbEntity
  8
ASSI
100
AcDbLine
 62
253
  6
CONTINUOUS
 10
89.165076022
 20
66.0298364415
 11
89.1704827783
 21
20.6616872708
  0
LINE
  5
269
100
AcDbEntity
  8
RACCORDO
100
AcDbLine
 62
253
  6
CONTINUOUS
 10
88.6672719512
 20
159.6772076809
 11
88.6724802229
 21
20.7591619169
  0
LINE
  5
26A
100
AcDbEntity
  8
ASSI
100
AcDbLine
 62
253
  6
CONTINUOUS
 10
88.6672719512
 20
159.6772076809
 11
88.6724802229
 21
20.7591619169
  0
LINE
  5
26B
100
AcDbEntity
  8
RACCORDO
100
AcDbLine
 62
253
  6
CONTINUOUS
 10
88.6724802229
 20
182.3005019761
 11
88.6672719512
 21
159.6772076809
  0
LINE
  5
26C
100
AcDbEntity
  8
ASSI
100
AcDbLine
 62
253
  6
CONTINUOUS
 10
88.6724802229
 20
182.3005019761
 11
88.6672719512
 21
159.6772076809
  0
LINE
  5
26D
100
AcDbEntity
  8
RACCORDO
100
AcDbLine
 62
253
  6
CONTINUOUS
 10
89.1704827783
 20
182.3979766221
 11
89.165076022
 21
66.0298364415
  0
LINE
  5
26E
100
AcDbEntity
  8
ASSI
100
AcDbLine
 62
253
  6
CONTINUOUS
 10
89.1704827783
 20
182.3979766221
 11
89.165076022
 21
66.0298364415
  0
LWPOLYLINE
  5
26F
100
AcDbEntity
  8
RACCORDO
100
AcDbPolyline
 62
7
  6
CONTINUOUS
 90
28
 70
0
 10
88.4444452926
 20
182.5332767743
 10
88.446225406
 20
182.5935529176
 10
88.4513812633
 20
182.6530996404
 10
88.4599128646
 20
182.711917152
 10
88.4719199816
 20
182.7702760493
 10
88.4873028425
 20
182.8279060955
 10
88.5057621323
 20
182.8839964886
 10
88.5272776048
 20
182.9383760357
 10
88.5518695062
 20
182.9912168239
 10
88.5792992609
 20
183.0422232774
 10
88.6095871348
 20
183.0914306831
 10
88.6427128618
 20
183.1388046919
 10
88.6783770681
 20
183.1839454319
 10
88.7167099102
 20
183.2269098428
 10
88.7575812314
 20
183.2676419984
 10
88.8003011876
 20
183.3055729112
 10
88.8447450935
 20
183.3405422455
 10
88.8910376344
 20
183.3727114286
 10
88.9388630217
 20
183.4019941949
 10
88.9882367758
 20
183.4284137199
 10
89.0391433764
 20
183.4519476742
 10
89.0912204735
 20
183.472441504
 10
89.1445964157
 20
183.4898970624
 10
89.1991428544
 20
183.5043131075
 10
89.2541123949
 20
183.5155304016
 10
89.3092559055
 20
183.5234959793
 10
89.3648225179
 20
183.5282631339
 10
89.4208122321
 20
183.5298319465
  0
LWPOLYLINE
  5
270
100
AcDbEntity
  8
ASSI
100
AcDbPolyline
 62
7
  6
CONTINUOUS
 90
28
 70
0
 10
88.4444452926
 20
182.5332767743
 10
88.446225406
 20
182.5935529176
 10
88.4513812633
 20
182.6530996404
 10
88.4599128646
 20
182.711917152
 10
88.4719199816
 20
182.7702760493
 10
88.4873028425
 20
182.8279060955
 10
88.5057621323
 20
182.8839964886
 10
88.5272776048
 20
182.9383760357
 10
88.5518695062
 20
182.9912168239
 10
88.5792992609
 20
183.0422232774
 10
88.6095871348
 20
183.0914306831
 10
88.6427128618
 20
183.1388046919
 10
88.6783770681
 20
183.1839454319
 10
88.7167099102
 20
183.2269098428
 10
88.7575812314
 20
183.2676419984
 10
88.8003011876
 20
183.3055729112
 10
88.8447450935
 20
183.3405422455
 10
88.8910376344
 20
183.3727114286
 10
88.9388630217
 20
183.4019941949
 10
88.9882367758
 20
183.4284137199
 10
89.0391433764
 20
183.4519476742
 10
89.0912204735
 20
183.472441504
 10
89.1445964157
 20
183.4898970624
 10
89.1991428544
 20
183.5043131075
 10
89.2541123949
 20
183.5155304016
 10
89.3092559055
 20
183.5234959793
 10
89.3648225179
 20
183.5282631339
 10
89.4208122321
 20
183.5298319465
  0
LWPOLYLINE
  5
271
100
AcDbEntity
  8
0
100
AcDbPolyline
 62
7
  6
CONTINUOUS
 90
3
 70
0
 43
0.3500000006
 10
158.7301671753
 20
212.0296891479
 10
159.5873051147
 20
212.8868270874
 10
159.5873051147
 20
209.8868261719
  0
LWPOLYLINE
  5
272
100
AcDbEntity
  8
0
100
AcDbPolyline
 62
7
  6
CONTINUOUS
 90
5
 70
0
 43
0.3500000006
 10
164.9444534912
 20
201.6011171265
 10
165.3015822144
 20
201.8154016113
 10
165.3015822144
 20
202.4582550659
 10
164.9444534912
 20
202.8868421631
 10
164.0872974243
 20
202.8868421631
  0
LWPOLYLINE
  5
273
100
AcDbEntity
  8
RACCORDO
100
AcDbPolyline
 62
7
  6
CONTINUOUS
 90
22
 70
0
 10
206.508139956
 20
43.4980475405
 10
206.5547886112
 20
43.5100890696
 10
206.6002725415
 20
43.5249584942
 10
206.644591747
 20
43.5426558284
 10
206.6879028354
 20
43.5632424053
 10
206.7300491989
 20
43.5866569287
 10
206.7705610139
 20
43.6127154711
 10
206.8094930722
 20
43.6415180641
 10
206.8467905821
 20
43.6729647254
 10
206.8818193438
 20
43.7065715045
 10
206.9145013467
 20
43.7423667585
 10
206.9449146016
 20
43.7803221803
 10
206.9726589407
 20
43.8198688127
 10
206.9976616971
 20
43.8609512556
 10
207.0199955378
 20
43.9036249508
 10
207.0394782957
 20
43.9474871923
 10
207.056111964
 20
43.9926276164
 10
207.0698945494
 20
44.0389566219
 10
207.0806379054
 20
44.0858026303
 10
207.0882793165
 20
44.1329417826
 10
207.0928814983
 20
44.1805979506
 10
207.0944444507
 20
44.2287711418
  0
LWPOLYLINE
  5
274
100
AcDbEntity
  8
ASSI
100
AcDbPolyline
 62
7
  6
CONTINUOUS
 90
22
 70
0
 10
206.508139956
 20
43.4980475405
 10
206.5547886112
 20
43.5100890696
 10
206.6002725415
 20
43.5249584942
 10
206.644591747
 20
43.5426558284
 10
206.6879028354
 20
43.5632424053
 10
206.7300491989
 20
43.5866569287
 10
206.7705610139
 20
43.6127154711
 10
206.8094930722
 20
43.6415180641
 10
206.8467905821
 20
43.6729647254
 10
206.8818193438
 20
43.7065715045
 10
206.9145013467
 20
43.7423667585
 10
206.9449146016
 20
43.7803221803
 10
206.9726589407
 20
43.8198688127
 10
206.9976616971
 20
43.8609512556
 10
207.0199955378
 20
43.9036249508
 10
207.0394782957
 20
43.9474871923
 10
207.056111964
 20
43.9926276164
 10
207.0698945494
 20
44.0389566219
 10
207.0806379054
 20
44.0858026303
 10
207.0882793165
 20
44.1329417826
 10
207.0928814983
 20
44.1805979506
 10
207.0944444507
 20
44.2287711418
  0
LWPOLYLINE
  5
275
100
AcDbEntity
  8
RACCORDO
100
AcDbPolyline
 62
7
  6
CONTINUOUS
 90
7
 70
0
 10
117.3807489328
 20
43.4980475405
 10
117.4080691273
 20
43.4924712122
 10
117.4354358263
 20
43.487911048
 10
117.46284903
 20
43.4843670428
 10
117.4903087383
 20
43.4818391925
 10
117.5178149513
 20
43.4803274943
 10
117.5453676688
 20
43.4798319465
  0
LWPOLYLINE
  5
276
100
AcDbEntity
  8
ASSI
100
AcDbPolyline
 62
7
  6
CONTINUOUS
 90
7
 70
0
 10
117.3807489328
 20
43.4980475405
 10
117.4080691273
 20
43.4924712122
 10
117.4354358263
 20
43.487911048
 10
117.46284903
 20
43.4843670428
 10
117.4903087383
 20
43.4818391925
 10
117.5178149513
 20
43.4803274943
 10
117.5453676688
 20
43.4798319465
  0
LWPOLYLINE
  5
277
100
AcDbEntity
  8
RACCORDO
100
AcDbPolyline
 62
253
  6
CONTINUOUS
 90
13
 70
0
 10
116.8153992603
 20
43.6741225098
 10
116.7937553106
 20
43.7059019071
 10
116.7736815239
 20
43.738921293
 10
116.7552573133
 20
43.7731084319
 10
116.7385238176
 20
43.8084650464
 10
116.7235979891
 20
43.8448324628
 10
116.7106300636
 20
43.8818745983
 10
116.6996476696
 20
43.9194827373
 10
116.6906695759
 20
43.9575547232
 10
116.6837485538
 20
43.9957390632
 10
116.6788640984
 20
44.0338424327
 10
116.6759648445
 20
44.0718396799
 10
116.6750110884
 20
44.109628984
  0
LWPOLYLINE
  5
278
100
AcDbEntity
  8
ASSI
100
AcDbPolyline
 62
253
  6
CONTINUOUS
 90
13
 70
0
 10
116.8153992603
 20
43.6741225098
 10
116.7937553106
 20
43.7059019071
 10
116.7736815239
 20
43.738921293
 10
116.7552573133
 20
43.7731084319
 10
116.7385238176
 20
43.8084650464
 10
116.7235979891
 20
43.8448324628
 10
116.7106300636
 20
43.8818745983
 10
116.6996476696
 20
43.9194827373
 10
116.6906695759
 20
43.9575547232
 10
116.6837485538
 20
43.9957390632
 10
116.6788640984
 20
44.0338424327
 10
116.6759648445
 20
44.0718396799
 10
116.6750110884
 20
44.109628984
  0
LWPOLYLINE
  5
279
100
AcDbEntity
  8
RACCORDO
100
AcDbPolyline
 62
253
  6
CONTINUOUS
 90
13
 70
0
 10
116.4093208689
 20
43.3595066638
 10
116.3731811271
 20
43.412654779
 10
116.3398813298
 20
43.4676551266
 10
116.3094214771
 20
43.5245077401
 10
116.2816543211
 20
43.583515447
 10
116.2567271096
 20
43.6443754934
 10
116.235081587
 20
43.7061795235
 10
116.216839425
 20
43.7689378977
 10
116.2018789518
 20
43.8326402922
 10
116.190276896
 20
43.8963472873
 10
116.1820588338
 20
43.9597457332
 10
116.1771991889
 20
44.0231487729
 10
116.1756979614
 20
44.0865564052
  0
LWPOLYLINE
  5
27A
100
AcDbEntity
  8
ASSI
100
AcDbPolyline
 62
253
  6
CONTINUOUS
 90
13
 70
0
 10
116.4093208689
 20
43.3595066638
 10
116.3731811271
 20
43.412654779
 10
116.3398813298
 20
43.4676551266
 10
116.3094214771
 20
43.5245077401
 10
116.2816543211
 20
43.583515447
 10
116.2567271096
 20
43.6443754934
 10
116.235081587
 20
43.7061795235
 10
116.216839425
 20
43.7689378977
 10
116.2018789518
 20
43.8326402922
 10
116.190276896
 20
43.8963472873
 10
116.1820588338
 20
43.9597457332
 10
116.1771991889
 20
44.0231487729
 10
116.1756979614
 20
44.0865564052
  0
LINE
  5
27B
100
AcDbEntity
  8
RACCORDO
100
AcDbLine
 62
253
  6
CONTINUOUS
 10
89.6590228837
 20
20.161886219
 11
89.6590228837
 21
19.7728242987
  0
LINE
  5
27C
100
AcDbEntity
  8
ASSI
100
AcDbLine
 62
253
  6
CONTINUOUS
 10
89.6590228837
 20
20.161886219
 11
89.6590228837
 21
19.7728242987
  0
LINE
  5
27D
100
AcDbEntity
  8
RACCORDO
100
AcDbLine
 62
253
  6
CONTINUOUS
 10
89.6590228837
 20
182.8977776739
 11
89.6590228833
 21
183.2868395942
  0
LINE
  5
27E
100
AcDbEntity
  8
ASSI
100
AcDbLine
 62
253
  6
CONTINUOUS
 10
89.6590228837
 20
182.8977776739
 11
89.6590228833
 21
183.2868395942
  0
LWPOLYLINE
  5
27F
100
AcDbEntity
  8
RACCORDO
100
AcDbPolyline
 62
253
  6
CONTINUOUS
 90
19
 70
0
 10
116.4093208689
 20
159.7001572291
 10
116.449055951
 20
159.7527911327
 10
116.4913590941
 20
159.80308411
 10
116.5362302982
 20
159.8510362848
 10
116.5838125247
 20
159.8967940287
 10
116.6339628122
 20
159.9402111995
 10
116.6862522763
 20
159.9808491644
 10
116.7407078788
 20
160.0186769537
 10
116.7973026579
 20
160.0537257799
 10
116.8555268444
 20
160.0856503078
 10
116.9154280389
 20
160.1144180599
 10
116.9769586408
 20
160.1400617305
 10
117.0394660795
 20
160.1623337471
 10
117.1029702037
 20
160.1811770072
 10
117.1674511647
 20
160.1966487752
 10
117.2321968449
 20
160.2086730187
 10
117.2969698719
 20
160.2172244217
 10
117.3620076181
 20
160.2223283836
 10
117.4273100835
 20
160.223984925
  0
LWPOLYLINE
  5
280
100
AcDbEntity
  8
ASSI
100
AcDbPolyline
 62
253
  6
CONTINUOUS
 90
19
 70
0
 10
116.4093208689
 20
159.7001572291
 10
116.449055951
 20
159.7527911327
 10
116.4913590941
 20
159.80308411
 10
116.5362302982
 20
159.8510362848
 10
116.5838125247
 20
159.8967940287
 10
116.6339628122
 20
159.9402111995
 10
116.6862522763
 20
159.9808491644
 10
116.7407078788
 20
160.0186769537
 10
116.7973026579
 20
160.0537257799
 10
116.8555268444
 20
160.0856503078
 10
116.9154280389
 20
160.1144180599
 10
116.9769586408
 20
160.1400617305
 10
117.0394660795
 20
160.1623337471
 10
117.1029702037
 20
160.1811770072
 10
117.1674511647
 20
160.1966487752
 10
117.2321968449
 20
160.2086730187
 10
117.2969698719
 20
160.2172244217
 10
117.3620076181
 20
160.2223283836
 10
117.4273100835
 20
160.223984925
  0
LWPOLYLINE
  5
281
100
AcDbEntity
  8
RACCORDO
100
AcDbPolyline
 62
253
  6
CONTINUOUS
 90
19
 70
0
 10
116.8153992603
 20
159.3855413831
 10
116.8392407546
 20
159.416900648
 10
116.864742643
 20
159.4470064211
 10
116.8918411039
 20
159.475769565
 10
116.9204691172
 20
159.5031046955
 10
116.9505516447
 20
159.5289284706
 10
116.9820052301
 20
159.5531605092
 10
117.0147555862
 20
159.5757319611
 10
117.0487076433
 20
159.5965662996
 10
117.0837371068
 20
159.615583345
 10
117.1197617761
 20
159.6327337974
 10
117.1566672488
 20
159.6479587467
 10
117.1942684401
 20
159.6611885072
 10
117.2324604665
 20
159.672397071
 10
117.2711295514
 20
159.6815617592
 10
117.3100674848
 20
159.6886541215
 10
117.3491291907
 20
159.6936773123
 10
117.3882370287
 20
159.6966492815
 10
117.4272831388
 20
159.6975876172
  0
LWPOLYLINE
  5
282
100
AcDbEntity
  8
ASSI
100
AcDbPolyline
 62
253
  6
CONTINUOUS
 90
19
 70
0
 10
116.8153992603
 20
159.3855413831
 10
116.8392407546
 20
159.416900648
 10
116.864742643
 20
159.4470064211
 10
116.8918411039
 20
159.475769565
 10
116.9204691172
 20
159.5031046955
 10
116.9505516447
 20
159.5289284706
 10
116.9820052301
 20
159.5531605092
 10
117.0147555862
 20
159.5757319611
 10
117.0487076433
 20
159.5965662996
 10
117.0837371068
 20
159.615583345
 10
117.1197617761
 20
159.6327337974
 10
117.1566672488
 20
159.6479587467
 10
117.1942684401
 20
159.6611885072
 10
117.2324604665
 20
159.672397071
 10
117.2711295514
 20
159.6815617592
 10
117.3100674848
 20
159.6886541215
 10
117.3491291907
 20
159.6936773123
 10
117.3882370287
 20
159.6966492815
 10
117.4272831388
 20
159.6975876172
  0
LWPOLYLINE
  5
283
100
AcDbEntity
  8
0
100
AcDbPolyline
 62
7
  6
CONTINUOUS
 90
10
 70
0
 43
0.3500000006
 10
158.0872955933
 20
199.8868412476
 10
158.9444516602
 20
200.743979187
 10
159.158736145
 20
201.6011171265
 10
159.158736145
 20
202.4582550659
 10
158.7301671753
 20
202.8868421631
 10
158.0872955933
 20
202.8868421631
 10
157.6587266235
 20
202.4582550659
 10
157.6587266235
 20
201.6011171265
 10
158.0872955933
 20
201.1725481567
 10
159.0158737793
 20
201.1725481567
  0
LWPOLYLINE
  5
284
100
AcDbEntity
  8
SCRITTE
100
AcDbPolyline
 62
253
  6
CONTINUOUS
 90
33
 70
0
 10
165.2644632468
 20
39.9190246054
 10
165.3256038917
 20
39.9278300478
 10
165.3858285063
 20
39.936100471
 10
165.4451392948
 20
39.9438039793
 10
165.5035384617
 20
39.9509086766
 10
165.5610282113
 20
39.9573826672
 10
165.6176119834
 20
39.9631972615
 10
165.6732981592
 20
39.9683365966
 10
165.7280963553
 20
39.9727880155
 10
165.7820161882
 20
39.9765388618
 10
165.8350672745
 20
39.9795764786
 10
165.8872555387
 20
39.9818913489
 10
165.9385721367
 20
39.9834865137
 10
165.9890045322
 20
39.9843681539
 10
166.0385401891
 20
39.9845424502
 10
166.087166571
 20
39.9840155831
 10
166.134876376
 20
39.982793273
 10
166.1816832383
 20
39.9808793988
 10
166.2276060265
 20
39.9782773789
 10
166.2726636091
 20
39.9749906316
 10
166.3168748544
 20
39.9710225756
 10
166.3530782043
 20
39.967194562
 10
166.3886790842
 20
39.9628778368
 10
166.4236496551
 20
39.9580544453
 10
166.4579620781
 20
39.9527064333
 10
166.4915885141
 20
39.9468158461
 10
166.5245011243
 20
39.9403647293
 10
166.5566779279
 20
39.9333382147
 10
166.5881203781
 20
39.9257337787
 10
166.6188357864
 20
39.9175519839
 10
166.6488314642
 20
39.9087933929
 10
166.678114723
 20
39.8994585684
 10
166.7066928742
 20
39.889548073
  0
LWPOLYLINE
  5
285
100
AcDbEntity
  8
SCRITTE
100
AcDbPolyline
 62
253
  6
CONTINUOUS
 90
54
 70
0
 10
166.1611250876
 20
38.7062038599
 10
166.1774182308
 20
38.7067087232
 10
166.1938210684
 20
38.7075155806
 10
166.210355711
 20
38.7086514097
 10
166.2270442687
 20
38.7101431883
 10
166.2438937908
 20
38.7120176406
 10
166.2608510822
 20
38.7143004778
 10
166.2778478869
 20
38.7170171579
 10
166.2948159486
 20
38.7201931387
 10
166.3083227303
 20
38.7230798746
 10
166.3217258575
 20
38.7262787728
 10
166.3349837552
 20
38.7297917499
 10
166.3480548483
 20
38.7336207227
 10
166.3608975618
 20
38.7377676079
 10
166.3734748384
 20
38.7422336942
 10
166.3857676923
 20
38.7470177576
 10
166.3977616556
 20
38.7521179463
 10
166.4094422604
 20
38.7575324085
 10
166.4207950387
 20
38.7632592921
 10
166.431808002
 20
38.7692989857
 10
166.4424790797
 20
38.7756608398
 10
166.4528086805
 20
38.7823564454
 10
166.4627972132
 20
38.7893973935
 10
166.4724450865
 20
38.7967952749
 10
166.4817532328
 20
38.804557571
 10
166.4907246794
 20
38.8126753242
 10
166.499362977
 20
38.8211354671
 10
166.5076716765
 20
38.8299249327
 10
166.5156543288
 20
38.8390306534
 10
166.5233155784
 20
38.8484417109
 10
166.5306644446
 20
38.8581557811
 10
166.5377110406
 20
38.8681726887
 10
166.5444654793
 20
38.8784922587
 10
166.5509378737
 20
38.8891143156
 10
166.5571358218
 20
38.9000376636
 10
166.5630568603
 20
38.9112570234
 10
166.5686960106
 20
38.9227660952
 10
166.5740482944
 20
38.9345585791
 10
166.5791087333
 20
38.9466281753
 10
166.5838713231
 20
38.9589638159
 10
166.5883259579
 20
38.9715353615
 10
166.5924615062
 20
38.9843079047
 10
166.5962668364
 20
38.9972465382
 10
166.5997308171
 20
39.0103163545
 10
166.6028442191
 20
39.0234819693
 10
166.6056054234
 20
39.0367060911
 10
166.6080147134
 20
39.049950951
 10
166.6100723724
 20
39.0631787806
 10
166.6117786837
 20
39.0763518112
 10
166.6131342947
 20
39.0894406736
 10
166.6141413079
 20
39.1024495962
 10
166.6148021898
 20
39.1153912069
 10
166.6151194069
 20
39.1282781335
 10
166.6150954255
 20
39.1411230038
  0
LWPOLYLINE
  5
286
100
AcDbEntity
  8
RACCORDO
100
AcDbPolyline
 62
7
  6
CONTINUOUS
 90
7
 70
0
 10
206.34352122
 20
43.4798319465
 10
206.3710876025
 20
43.4803290011
 10
206.3986020144
 20
43.4818416034
 10
206.4260644557
 20
43.484369755
 10
206.4534749264
 20
43.4879134589
 10
206.4808334265
 20
43.492472719
 10
206.508139956
 20
43.4980475405
  0
LWPOLYLINE
  5
287
100
AcDbEntity
  8
ASSI
100
AcDbPolyline
 62
7
  6
CONTINUOUS
 90
7
 70
0
 10
206.34352122
 20
43.4798319465
 10
206.3710876025
 20
43.4803290011
 10
206.3986020144
 20
43.4818416034
 10
206.4260644557
 20
43.484369755
 10
206.4534749264
 20
43.4879134589
 10
206.4808334265
 20
43.492472719
 10
206.508139956
 20
43.4980475405
  0
LWPOLYLINE
  5
288
100
AcDbEntity
  8
RACCORDO
100
AcDbPolyline
 62
253
  6
CONTINUOUS
 90
16
 70
0
 10
234.8458870012
 20
43.3602624239
 10
234.885379513
 20
43.360849478
 10
234.9237733717
 20
43.3615983989
 10
234.960807964
 20
43.3625041033
 10
234.9962319032
 20
43.3635604431
 10
235.0298047356
 20
43.3647602482
 10
235.0612985726
 20
43.3660953743
 10
235.0904996375
 20
43.3675567588
 10
235.1172097167
 20
43.369134482
 10
235.1412475053
 20
43.3708178345
 10
235.1624498373
 20
43.3725953898
 10
235.1806727937
 20
43.3744550822
 10
235.1957926792
 20
43.3763842881
 10
235.2077068617
 20
43.3783699124
 10
235.2163344689
 20
43.380398477
 10
235.2216169377
 20
43.382456212
  0
LWPOLYLINE
  5
289
100
AcDbEntity
  8
ASSI
100
AcDbPolyline
 62
253
  6
CONTINUOUS
 90
16
 70
0
 10
234.8458870012
 20
43.3602624239
 10
234.885379513
 20
43.360849478
 10
234.9237733717
 20
43.3615983989
 10
234.960807964
 20
43.3625041033
 10
234.9962319032
 20
43.3635604431
 10
235.0298047356
 20
43.3647602482
 10
235.0612985726
 20
43.3660953743
 10
235.0904996375
 20
43.3675567588
 10
235.1172097167
 20
43.369134482
 10
235.1412475053
 20
43.3708178345
 10
235.1624498373
 20
43.3725953898
 10
235.1806727937
 20
43.3744550822
 10
235.1957926792
 20
43.3763842881
 10
235.2077068617
 20
43.3783699124
 10
235.2163344689
 20
43.380398477
 10
235.2216169377
 20
43.382456212
  0
LWPOLYLINE
  5
28A
100
AcDbEntity
  8
RACCORDO
100
AcDbPolyline
 62
253
  6
CONTINUOUS
 90
16
 70
0
 10
234.8458942869
 20
43.4885521687
 10
234.8853869003
 20
43.4891381848
 10
234.9237808515
 20
43.4898850892
 10
234.960815525
 20
43.490787812
 10
234.9962395322
 20
43.4918402257
 10
235.0298124176
 20
43.4930351865
 10
235.0613062909
 20
43.4943645832
 10
235.090507374
 20
43.4958193917
 10
235.1172174521
 20
43.4973897372
 10
235.1412552191
 20
43.49906496
 10
235.1624575084
 20
43.500833689
 10
235.1806804006
 20
43.5026839182
 10
235.1958001998
 20
43.5046030883
 10
235.2077142741
 20
43.5065781722
 10
235.2163417516
 20
43.508595763
 10
235.2216240695
 20
43.5106421657
  0
LWPOLYLINE
  5
28B
100
AcDbEntity
  8
ASSI
100
AcDbPolyline
 62
253
  6
CONTINUOUS
 90
16
 70
0
 10
234.8458942869
 20
43.4885521687
 10
234.8853869003
 20
43.4891381848
 10
234.9237808515
 20
43.4898850892
 10
234.960815525
 20
43.490787812
 10
234.9962395322
 20
43.4918402257
 10
235.0298124176
 20
43.4930351865
 10
235.0613062909
 20
43.4943645832
 10
235.090507374
 20
43.4958193917
 10
235.1172174521
 20
43.4973897372
 10
235.1412552191
 20
43.49906496
 10
235.1624575084
 20
43.500833689
 10
235.1806804006
 20
43.5026839182
 10
235.1958001998
 20
43.5046030883
 10
235.2077142741
 20
43.5065781722
 10
235.2163417516
 20
43.508595763
 10
235.2216240695
 20
43.5106421657
  0
LINE
  5
28C
100
AcDbEntity
  8
RACCORDO
100
AcDbLine
 62
253
  6
CONTINUOUS
 10
116.2477497358
 20
44.0868099462
 11
116.3182974459
 21
44.0875671511
  0
LINE
  5
28D
100
AcDbEntity
  8
ASSI
100
AcDbLine
 62
253
  6
CONTINUOUS
 10
116.2477497358
 20
44.0868099462
 11
116.3182974459
 21
44.0875671511
  0
LINE
  5
28E
100
AcDbEntity
  8
RACCORDO
100
AcDbLine
 62
253
  6
CONTINUOUS
 10
234.7646839389
 20
43.3595887304
 11
234.8458870012
 21
43.3602624239
  0
LINE
  5
28F
100
AcDbEntity
  8
ASSI
100
AcDbLine
 62
253
  6
CONTINUOUS
 10
234.7646839389
 20
43.3595887304
 11
234.8458870012
 21
43.3602624239
  0
LWPOLYLINE
  5
290
100
AcDbEntity
  8
RACCORDO
100
AcDbPolyline
 62
253
  6
CONTINUOUS
 90
3
 70
0
 10
234.7235315341
 20
43.4877936143
 10
234.7646910028
 20
43.487877594
 10
234.8458942869
 20
43.4885521687
  0
LWPOLYLINE
  5
291
100
AcDbEntity
  8
ASSI
100
AcDbPolyline
 62
253
  6
CONTINUOUS
 90
3
 70
0
 10
234.7235315341
 20
43.4877936143
 10
234.7646910028
 20
43.487877594
 10
234.8458942869
 20
43.4885521687
  0
LINE
  5
292
100
AcDbEntity
  8
RACCORDO
100
AcDbLine
 62
253
  6
CONTINUOUS
 10
116.1756979614
 20
44.0865564052
 11
116.2477497358
 21
44.0868099462
  0
LINE
  5
293
100
AcDbEntity
  8
ASSI
100
AcDbLine
 62
253
  6
CONTINUOUS
 10
116.1756979614
 20
44.0865564052
 11
116.2477497358
 21
44.0868099462
  0
LINE
  5
294
100
AcDbEntity
  8
SCRITTE
100
AcDbLine
 62
253
  6
CONTINUOUS
 10
167.3035926564
 20
37.1520305921
 11
166.7414600663
 21
37.1520305921
  0
LINE
  5
295
100
AcDbEntity
  8
SCRITTE
100
AcDbLine
 62
253
  6
CONTINUOUS
 10
165.8465197893
 20
37.1520305921
 11
165.2644632468
 21
37.1520305921
  0
LINE
  5
296
100
AcDbEntity
  8
SCRITTE
100
AcDbLine
 62
253
  6
CONTINUOUS
 10
159.5445674444
 20
37.1520309465
 11
158.9601594444
 21
37.1520309465
  0
LINE
  5
297
100
AcDbEntity
  8
SCRITTE
100
AcDbLine
 62
253
  6
CONTINUOUS
 10
157.3283374444
 20
37.1520309465
 11
157.8433474444
 21
37.1520309465
  0
LINE
  5
298
100
AcDbEntity
  8
SCRITTE
100
AcDbLine
 62
253
  6
CONTINUOUS
 10
159.8591724444
 20
37.1520309465
 11
160.4182614444
 21
37.1520309465
  0
LINE
  5
299
100
AcDbEntity
  8
SCRITTE
100
AcDbLine
 62
253
  6
CONTINUOUS
 10
161.2299574444
 20
37.1520309465
 11
161.3119204444
 21
37.1520309465
  0
LINE
  5
29A
100
AcDbEntity
  8
SCRITTE
100
AcDbLine
 62
253
  6
CONTINUOUS
 10
162.1268504444
 20
37.1520309465
 11
162.6985564444
 21
37.1520309465
  0
LINE
  5
29B
100
AcDbEntity
  8
SCRITTE
100
AcDbLine
 62
253
  6
CONTINUOUS
 10
162.7903244444
 20
37.1520309465
 11
163.3683914444
 21
37.1520309465
  0
LINE
  5
29C
100
AcDbEntity
  8
SCRITTE
100
AcDbLine
 62
253
  6
CONTINUOUS
 10
164.4769104444
 20
37.1520309465
 11
165.0928524444
 21
37.1520309465
  0
LINE
  5
29D
100
AcDbEntity
  8
SCRITTE
100
AcDbLine
 62
253
  6
CONTINUOUS
 10
163.5296514444
 20
37.7109509465
 11
164.3255184444
 21
37.7109509465
  0
LINE
  5
29E
100
AcDbEntity
  8
SCRITTE
100
AcDbLine
 62
253
  6
CONTINUOUS
 10
164.2087244444
 20
38.1434409465
 11
163.6491954444
 21
38.1434409465
  0
LINE
  5
29F
100
AcDbEntity
  8
SCRITTE
100
AcDbLine
 62
253
  6
CONTINUOUS
 10
166.1598654067
 20
38.2476800217
 11
165.8465197893
 21
38.2476800217
  0
LINE
  5
2A0
100
AcDbEntity
  8
SCRITTE
100
AcDbLine
 62
253
  6
CONTINUOUS
 10
165.8271416985
 20
38.7062038599
 11
166.1611250876
 21
38.7062038599
  0
LINE
  5
2A1
100
AcDbEntity
  8
SCRITTE
100
AcDbLine
 62
253
  6
CONTINUOUS
 10
164.2338344444
 20
39.9517339465
 11
163.6684894444
 21
39.9517339465
  0
LINE
  5
2A2
100
AcDbEntity
  8
SCRITTE
100
AcDbLine
 62
253
  6
CONTINUOUS
 10
162.4367524444
 20
39.9517339465
 11
161.8585384444
 21
39.9517339465
  0
LINE
  5
2A3
100
AcDbEntity
  8
SCRITTE
100
AcDbLine
 62
253
  6
CONTINUOUS
 10
160.6958944444
 20
39.9517339465
 11
160.1119694444
 21
39.9517339465
  0
LINE
  5
2A4
100
AcDbEntity
  8
SCRITTE
100
AcDbLine
 62
253
  6
CONTINUOUS
 10
158.7432844444
 20
39.9517339465
 11
158.1592754444
 21
39.9517339465
  0
LINE
  5
2A5
100
AcDbEntity
  8
SCRITTE
100
AcDbLine
 62
253
  6
CONTINUOUS
 10
157.0756244444
 20
39.9517339465
 11
156.4407764444
 21
39.9517339465
  0
LINE
  5
2A6
100
AcDbEntity
  8
SCRITTE
100
AcDbLine
 62
253
  6
CONTINUOUS
 10
158.9601594444
 20
39.9519019465
 11
159.5445674444
 21
39.9519019465
  0
LINE
  5
2A7
100
AcDbEntity
  8
RACCORDO
100
AcDbLine
 62
253
  6
CONTINUOUS
 10
206.4615788054
 20
42.8356789679
 11
117.4273100835
 21
42.8356789679
  0
LINE
  5
2A8
100
AcDbEntity
  8
ASSI
100
AcDbLine
 62
253
  6
CONTINUOUS
 10
206.4615788054
 20
42.8356789679
 11
117.4273100835
 21
42.8356789679
  0
LINE
  5
2A9
100
AcDbEntity
  8
RACCORDO
100
AcDbLine
 62
253
  6
CONTINUOUS
 10
234.7646839389
 20
43.3595887304
 11
207.4795680199
 21
43.3595066638
  0
LINE
  5
2AA
100
AcDbEntity
  8
ASSI
100
AcDbLine
 62
253
  6
CONTINUOUS
 10
234.7646839389
 20
43.3595887304
 11
207.4795680199
 21
43.3595066638
  0
LINE
  5
2AB
100
AcDbEntity
  8
RACCORDO
100
AcDbLine
 62
253
  6
CONTINUOUS
 10
206.4616063793
 20
43.3620763242
 11
117.4272947114
 21
43.3620763242
  0
LINE
  5
2AC
100
AcDbEntity
  8
ASSI
100
AcDbLine
 62
253
  6
CONTINUOUS
 10
206.4616063793
 20
43.3620763242
 11
117.4272947114
 21
43.3620763242
  0
LINE
  5
2AD
100
AcDbEntity
  8
RACCORDO
100
AcDbLine
 62
7
  6
CONTINUOUS
 10
117.5453676688
 20
43.4798319465
 11
206.34352122
 21
43.4798319465
  0
LINE
  5
2AE
100
AcDbEntity
  8
ASSI
100
AcDbLine
 62
7
  6
CONTINUOUS
 10
117.5453676688
 20
43.4798319465
 11
206.34352122
 21
43.4798319465
  0
LINE
  5
2AF
100
AcDbEntity
  8
RACCORDO
100
AcDbLine
 62
253
  6
CONTINUOUS
 10
88.6672648193
 20
43.5106421657
 11
88.4444444444
 21
43.5106421657
  0
LINE
  5
2B0
100
AcDbEntity
  8
ASSI
100
AcDbLine
 62
253
  6
CONTINUOUS
 10
88.6672648193
 20
43.5106421657
 11
88.4444444444
 21
43.5106421657
  0
LINE
  5
2B1
100
AcDbEntity
  8
RACCORDO
100
AcDbLine
 62
253
  6
CONTINUOUS
 10
235.2216240696
 20
43.5106421657
 11
235.4444444444
 21
43.5106421657
  0
LINE
  5
2B2
100
AcDbEntity
  8
ASSI
100
AcDbLine
 62
253
  6
CONTINUOUS
 10
235.2216240696
 20
43.5106421657
 11
235.4444444444
 21
43.5106421657
  0
LINE
  5
2B3
100
AcDbEntity
  8
RACCORDO
100
AcDbLine
 62
253
  6
CONTINUOUS
 10
116.4093208689
 20
43.3595066638
 11
89.1242049531
 21
43.3595887332
  0
LINE
  5
2B4
100
AcDbEntity
  8
ASSI
100
AcDbLine
 62
253
  6
CONTINUOUS
 10
116.4093208689
 20
43.3595066638
 11
89.1242049531
 21
43.3595887332
  0
LINE
  5
2B5
100
AcDbEntity
  8
RACCORDO
100
AcDbLine
 62
253
  6
CONTINUOUS
 10
207.7131909275
 20
44.086556529
 11
207.6411390037
 21
44.0868100454
  0
LINE
  5
2B6
100
AcDbEntity
  8
ASSI
100
AcDbLine
 62
253
  6
CONTINUOUS
 10
207.7131909275
 20
44.086556529
 11
207.6411390037
 21
44.0868100454
  0
LWPOLYLINE
  5
2B7
100
AcDbEntity
  8
RACCORDO
100
AcDbPolyline
 62
253
  6
CONTINUOUS
 90
18
 70
0
 10
89.1653573548
 20
43.4877936142
 10
89.0833178048
 20
43.4881310189
 10
89.0429946019
 20
43.4885521687
 10
89.0035019884
 20
43.4891381847
 10
88.9651080372
 20
43.4898850892
 10
88.9280733637
 20
43.490787812
 10
88.8926493564
 20
43.4918402257
 10
88.859076471
 20
43.4930351865
 10
88.8275825977
 20
43.4943645831
 10
88.7983815146
 20
43.4958193917
 10
88.7716714366
 20
43.4973897371
 10
88.7476336696
 20
43.49906496
 10
88.7264313802
 20
43.500833689
 10
88.7082084881
 20
43.5026839182
 10
88.6930886889
 20
43.5046030883
 10
88.6811746146
 20
43.5065781722
 10
88.6725471372
 20
43.508595763
 10
88.6672648193
 20
43.5106421657
  0
LWPOLYLINE
  5
2B8
100
AcDbEntity
  8
ASSI
100
AcDbPolyline
 62
253
  6
CONTINUOUS
 90
18
 70
0
 10
89.1653573548
 20
43.4877936142
 10
89.0833178048
 20
43.4881310189
 10
89.0429946019
 20
43.4885521687
 10
89.0035019884
 20
43.4891381847
 10
88.9651080372
 20
43.4898850892
 10
88.9280733637
 20
43.490787812
 10
88.8926493564
 20
43.4918402257
 10
88.859076471
 20
43.4930351865
 10
88.8275825977
 20
43.4943645831
 10
88.7983815146
 20
43.4958193917
 10
88.7716714366
 20
43.4973897371
 10
88.7476336696
 20
43.49906496
 10
88.7264313802
 20
43.500833689
 10
88.7082084881
 20
43.5026839182
 10
88.6930886889
 20
43.5046030883
 10
88.6811746146
 20
43.5065781722
 10
88.6725471372
 20
43.508595763
 10
88.6672648193
 20
43.5106421657
  0
LWPOLYLINE
  5
2B9
100
AcDbEntity
  8
RACCORDO
100
AcDbPolyline
 62
253
  6
CONTINUOUS
 90
17
 70
0
 10
89.1242049531
 20
43.3595887332
 10
89.0430018967
 20
43.3602624267
 10
89.0035093876
 20
43.3608494806
 10
88.9651155314
 20
43.3615984014
 10
88.9280809412
 20
43.3625041056
 10
88.8926570038
 20
43.3635604453
 10
88.8590841728
 20
43.3647602502
 10
88.8275903368
 20
43.3660953762
 10
88.7983892724
 20
43.3675567605
 10
88.7716791931
 20
43.3691344835
 10
88.7476414039
 20
43.3708178358
 10
88.7264390708
 20
43.3725953909
 10
88.7082161126
 20
43.374455083
 10
88.6930962247
 20
43.3763842887
 10
88.6811820394
 20
43.3783699128
 10
88.6725544287
 20
43.3803984772
 10
88.6672719559
 20
43.382456212
  0
LWPOLYLINE
  5
2BA
100
AcDbEntity
  8
ASSI
100
AcDbPolyline
 62
253
  6
CONTINUOUS
 90
17
 70
0
 10
89.1242049531
 20
43.3595887332
 10
89.0430018967
 20
43.3602624267
 10
89.0035093876
 20
43.3608494806
 10
88.9651155314
 20
43.3615984014
 10
88.9280809412
 20
43.3625041056
 10
88.8926570038
 20
43.3635604453
 10
88.8590841728
 20
43.3647602502
 10
88.8275903368
 20
43.3660953762
 10
88.7983892724
 20
43.3675567605
 10
88.7716791931
 20
43.3691344835
 10
88.7476414039
 20
43.3708178358
 10
88.7264390708
 20
43.3725953909
 10
88.7082161126
 20
43.374455083
 10
88.6930962247
 20
43.3763842887
 10
88.6811820394
 20
43.3783699128
 10
88.6725544287
 20
43.3803984772
 10
88.6672719559
 20
43.382456212
  0
LINE
  5
2BB
100
AcDbEntity
  8
RACCORDO
100
AcDbLine
 62
253
  6
CONTINUOUS
 10
207.6411390037
 20
44.0868100454
 11
207.5705910884
 21
44.0875672282
  0
LINE
  5
2BC
100
AcDbEntity
  8
ASSI
100
AcDbLine
 62
253
  6
CONTINUOUS
 10
207.6411390037
 20
44.0868100454
 11
207.5705910884
 21
44.0875672282
  0
LWPOLYLINE
  5
2BD
100
AcDbEntity
  8
RACCORDO
100
AcDbPolyline
 62
253
  6
CONTINUOUS
 90
19
 70
0
 10
117.4272946834
 20
43.3620762964
 10
117.3883845951
 20
43.3630072638
 10
117.3494019926
 20
43.3659587683
 10
117.3104538212
 20
43.3709499255
 10
117.2716296675
 20
43.3779976045
 10
117.2330609664
 20
43.3871079517
 10
117.1949183126
 20
43.3982662341
 10
117.1572917979
 20
43.4114670135
 10
117.1203152859
 20
43.4266846668
 10
117.084215287
 20
43.4438373777
 10
117.0491159385
 20
43.4628619143
 10
117.0150911831
 20
43.4837136925
 10
116.9822762574
 20
43.5063059222
 10
116.9507721445
 20
43.5305561388
 10
116.9206464309
 20
43.5563986992
 10
116.8919745506
 20
43.583760029
 10
116.8648299619
 20
43.6125597789
 10
116.8392832835
 20
43.6427102889
 10
116.8153992603
 20
43.6741225098
  0
LWPOLYLINE
  5
2BE
100
AcDbEntity
  8
ASSI
100
AcDbPolyline
 62
253
  6
CONTINUOUS
 90
19
 70
0
 10
117.4272946834
 20
43.3620762964
 10
117.3883845951
 20
43.3630072638
 10
117.3494019926
 20
43.3659587683
 10
117.3104538212
 20
43.3709499255
 10
117.2716296675
 20
43.3779976045
 10
117.2330609664
 20
43.3871079517
 10
117.1949183126
 20
43.3982662341
 10
117.1572917979
 20
43.4114670135
 10
117.1203152859
 20
43.4266846668
 10
117.084215287
 20
43.4438373777
 10
117.0491159385
 20
43.4628619143
 10
117.0150911831
 20
43.4837136925
 10
116.9822762574
 20
43.5063059222
 10
116.9507721445
 20
43.5305561388
 10
116.9206464309
 20
43.5563986992
 10
116.8919745506
 20
43.583760029
 10
116.8648299619
 20
43.6125597789
 10
116.8392832835
 20
43.6427102889
 10
116.8153992603
 20
43.6741225098
  0
LWPOLYLINE
  5
2BF
100
AcDbEntity
  8
RACCORDO
100
AcDbPolyline
 62
253
  6
CONTINUOUS
 90
19
 70
0
 10
117.4273100835
 20
42.8356789679
 10
117.3623294812
 20
42.837308221
 10
117.2975683366
 20
42.8423687191
 10
117.2330266496
 20
42.8508604824
 10
117.1684790772
 20
42.8627961454
 10
117.1041509625
 20
42.8781631562
 10
117.0407183349
 20
42.8969237752
 10
116.978164514
 20
42.9191499457
 10
116.9165061801
 20
42.9447698871
 10
116.8564694037
 20
42.9735302868
 10
116.7981194369
 20
43.0054658195
 10
116.7413910276
 20
43.0405420286
 10
116.6868144897
 20
43.0784018976
 10
116.6344289765
 20
43.1190673727
 10
116.5841953347
 20
43.162516751
 10
116.5365264176
 20
43.2083275177
 10
116.4915598433
 20
43.2563589043
 10
116.4491579937
 20
43.3067519113
 10
116.4093208689
 20
43.3595066638
  0
LWPOLYLINE
  5
2C0
100
AcDbEntity
  8
ASSI
100
AcDbPolyline
 62
253
  6
CONTINUOUS
 90
19
 70
0
 10
117.4273100835
 20
42.8356789679
 10
117.3623294812
 20
42.837308221
 10
117.2975683366
 20
42.8423687191
 10
117.2330266496
 20
42.8508604824
 10
117.1684790772
 20
42.8627961454
 10
117.1041509625
 20
42.8781631562
 10
117.0407183349
 20
42.8969237752
 10
116.978164514
 20
42.9191499457
 10
116.9165061801
 20
42.9447698871
 10
116.8564694037
 20
42.9735302868
 10
116.7981194369
 20
43.0054658195
 10
116.7413910276
 20
43.0405420286
 10
116.6868144897
 20
43.0784018976
 10
116.6344289765
 20
43.1190673727
 10
116.5841953347
 20
43.162516751
 10
116.5365264176
 20
43.2083275177
 10
116.4915598433
 20
43.2563589043
 10
116.4491579937
 20
43.3067519113
 10
116.4093208689
 20
43.3595066638
  0
LWPOLYLINE
  5
2C1
100
AcDbEntity
  8
SCRITTE
100
AcDbPolyline
 62
253
  6
CONTINUOUS
 90
24
 70
0
 10
166.284952927
 20
39.4912602717
 10
166.2634664232
 20
39.4935952926
 10
166.2419544835
 20
39.4956167022
 10
166.220421109
 20
39.4973252321
 10
166.1988703004
 20
39.4987216141
 10
166.1773060589
 20
39.4998065798
 10
166.1557323852
 20
39.5005808609
 10
166.1341532805
 20
39.501045189
 10
166.115268592
 20
39.5011977198
 10
166.096375517
 20
39.501113553
 10
166.0774667643
 20
39.500792739
 10
166.0585350425
 20
39.5002353277
 10
166.0395721694
 20
39.499440273
 10
166.0205664008
 20
39.4984021438
 10
166.0015051018
 20
39.4971144129
 10
165.9823756374
 20
39.4955705529
 10
165.9631693654
 20
39.4937668534
 10
165.943893614
 20
39.4917108714
 10
165.9245597039
 20
39.4894129808
 10
165.905178956
 20
39.4868835553
 10
165.8857584365
 20
39.4841348307
 10
165.8662881922
 20
39.4811864912
 10
165.8467540155
 20
39.4780600824
 10
165.8271416985
 20
39.4747771505
  0
LWPOLYLINE
  5
2C2
100
AcDbEntity
  8
RACCORDO
100
AcDbPolyline
 62
253
  6
CONTINUOUS
 90
15
 70
0
 10
116.4180936047
 20
44.0896099535
 10
116.4490521421
 20
44.0905191428
 10
116.4785822619
 20
44.0915350302
 10
116.5065296539
 20
44.0926523074
 10
116.5327482784
 20
44.0938651359
 10
116.5571011296
 20
44.095167178
 10
116.579460951
 20
44.0965516299
 10
116.5997109011
 20
44.0980112572
 10
116.6177451634
 20
44.0995384325
 10
116.6334694993
 20
44.1011251755
 10
116.6468017412
 20
44.1027631947
 10
116.6576722212
 20
44.1044439306
 10
116.6660241352
 20
44.1061586004
 10
116.6718138403
 20
44.1078982441
 10
116.6750110822
 20
44.1096537713
  0
LWPOLYLINE
  5
2C3
100
AcDbEntity
  8
ASSI
100
AcDbPolyline
 62
253
  6
CONTINUOUS
 90
15
 70
0
 10
116.4180936047
 20
44.0896099535
 10
116.4490521421
 20
44.0905191428
 10
116.4785822619
 20
44.0915350302
 10
116.5065296539
 20
44.0926523074
 10
116.5327482784
 20
44.0938651359
 10
116.5571011296
 20
44.095167178
 10
116.579460951
 20
44.0965516299
 10
116.5997109011
 20
44.0980112572
 10
116.6177451634
 20
44.0995384325
 10
116.6334694993
 20
44.1011251755
 10
116.6468017412
 20
44.1027631947
 10
116.6576722212
 20
44.1044439306
 10
116.6660241352
 20
44.1061586004
 10
116.6718138403
 20
44.1078982441
 10
116.6750110822
 20
44.1096537713
  0
LWPOLYLINE
  5
2C4
100
AcDbEntity
  8
RACCORDO
100
AcDbPolyline
 62
253
  6
CONTINUOUS
 90
3
 70
0
 10
116.3182974459
 20
44.0875671511
 10
116.3525449938
 20
44.0881300911
 10
116.4180936047
 20
44.0896099535
  0
LWPOLYLINE
  5
2C5
100
AcDbEntity
  8
ASSI
100
AcDbPolyline
 62
253
  6
CONTINUOUS
 90
3
 70
0
 10
116.3182974459
 20
44.0875671511
 10
116.3525449938
 20
44.0881300911
 10
116.4180936047
 20
44.0896099535
  0
LWPOLYLINE
  5
2C6
100
AcDbEntity
  8
RACCORDO
100
AcDbPolyline
 62
253
  6
CONTINUOUS
 90
17
 70
0
 10
207.5705910884
 20
44.0875672282
 10
207.5030198659
 20
44.0888122711
 10
207.4707945542
 20
44.0896100026
 10
207.4398358825
 20
44.090519184
 10
207.4103056272
 20
44.0915350644
 10
207.3823581007
 20
44.0926523351
 10
207.3561393447
 20
44.0938651579
 10
207.3317863668
 20
44.095167195
 10
207.3094264253
 20
44.0965516425
 10
207.2891763634
 20
44.098011266
 10
207.2711419991
 20
44.0995384381
 10
207.2554175722
 20
44.1011251783
 10
207.2420852517
 20
44.1027631952
 10
207.2312147065
 20
44.1044439292
 10
207.2228627413
 20
44.1061585975
 10
207.217073
 20
44.1078982399
 10
207.2138757371
 20
44.1096537658
  0
LWPOLYLINE
  5
2C7
100
AcDbEntity
  8
ASSI
100
AcDbPolyline
 62
253
  6
CONTINUOUS
 90
17
 70
0
 10
207.5705910884
 20
44.0875672282
 10
207.5030198659
 20
44.0888122711
 10
207.4707945542
 20
44.0896100026
 10
207.4398358825
 20
44.090519184
 10
207.4103056272
 20
44.0915350644
 10
207.3823581007
 20
44.0926523351
 10
207.3561393447
 20
44.0938651579
 10
207.3317863668
 20
44.095167195
 10
207.3094264253
 20
44.0965516425
 10
207.2891763634
 20
44.098011266
 10
207.2711419991
 20
44.0995384381
 10
207.2554175722
 20
44.1011251783
 10
207.2420852517
 20
44.1027631952
 10
207.2312147065
 20
44.1044439292
 10
207.2228627413
 20
44.1061585975
 10
207.217073
 20
44.1078982399
 10
207.2138757371
 20
44.1096537658
  0
LWPOLYLINE
  5
2C8
100
AcDbEntity
  8
SCRITTE
100
AcDbPolyline
 62
253
  6
CONTINUOUS
 90
87
 70
0
 10
166.7066928742
 20
39.889548073
 10
166.7216755649
 20
39.8838362526
 10
166.7369033801
 20
39.8774062186
 10
166.7523989909
 20
39.8702254013
 10
166.7681850686
 20
39.8622612311
 10
166.7842842841
 20
39.8534811386
 10
166.8007193088
 20
39.8438525541
 10
166.8174933724
 20
39.833352421
 10
166.834531939
 20
39.8219957345
 10
166.8517410315
 20
39.8098070027
 10
166.8690266727
 20
39.7968107338
 10
166.8862948853
 20
39.783031436
 10
166.9034516922
 20
39.7684936173
 10
166.9204108233
 20
39.7532184624
 10
166.9371168374
 20
39.737213861
 10
166.9535220005
 20
39.7204843792
 10
166.9695785785
 20
39.7030345831
 10
166.9852388373
 20
39.6848690389
 10
167.000455043
 20
39.6659923127
 10
167.0151786356
 20
39.6464206552
 10
167.0293577516
 20
39.6262170553
 10
167.0429397016
 20
39.6054561868
 10
167.0558717964
 20
39.5842127233
 10
167.0681013465
 20
39.5625613383
 10
167.0795756626
 20
39.5405767055
 10
167.0902522071
 20
39.5183276913
 10
167.100129049
 20
39.4958599338
 10
167.1092144089
 20
39.4732132639
 10
167.1175165076
 20
39.4504275124
 10
167.1250435658
 20
39.4275425104
 10
167.1318038041
 20
39.4045980886
 10
167.1389224243
 20
39.3770495305
 10
167.1450046365
 20
39.3495841931
 10
167.1501064152
 20
39.3223135051
 10
167.1542837353
 20
39.2953488951
 10
167.1575925713
 20
39.2688017918
 10
167.1600879916
 20
39.2427689977
 10
167.1618214385
 20
39.2172888112
 10
167.1628434481
 20
39.1923849047
 10
167.1632045564
 20
39.1680809503
 10
167.1629552995
 20
39.1444006206
 10
167.1621427789
 20
39.121361062
 10
167.1608003573
 20
39.0989533185
 10
167.1589579632
 20
39.0771619082
 10
167.1566455248
 20
39.0559713494
 10
167.1538929706
 20
39.0353661603
 10
167.1498759579
 20
39.0104066392
 10
167.1452584762
 20
38.9862915791
 10
167.1400809745
 20
38.9629749908
 10
167.1343839021
 20
38.9404108856
 10
167.1282078461
 20
38.9185603973
 10
167.1215939472
 20
38.8974131514
 10
167.114583484
 20
38.8769658963
 10
167.1072177354
 20
38.8572153803
 10
167.0995368888
 20
38.8381573949
 10
167.0915767677
 20
38.8197839045
 10
167.0833721044
 20
38.8020859167
 10
167.0749576311
 20
38.785054439
 10
167.0663653587
 20
38.7686785149
 10
167.0576164123
 20
38.7529393308
 10
167.0487291959
 20
38.7378161093
 10
167.0397221132
 20
38.7232880727
 10
167.027557059
 20
38.7048113562
 10
167.0152494848
 20
38.6873309626
 10
167.0028372481
 20
38.6708220463
 10
166.990359215
 20
38.6552523441
 10
166.9778582859
 20
38.6405599227
 10
166.9653783696
 20
38.6266754314
 10
166.9529633893
 20
38.6135322127
 10
166.9406573254
 20
38.6010743823
 10
166.9285041729
 20
38.5892487497
 10
166.9165438084
 20
38.5780035927
 10
166.9047996343
 20
38.5672930644
 10
166.8932909351
 20
38.5570727864
 10
166.8764968912
 20
38.5425667206
 10
166.8602759549
 20
38.5289307006
 10
166.8446612049
 20
38.5160968429
 10
166.8370157762
 20
38.5100223233
 10
166.8293687067
 20
38.5042094803
 10
166.8216376604
 20
38.4986991772
 10
166.8138447522
 20
38.4935941092
 10
166.8060331825
 20
38.489002132
 10
166.7982260407
 20
38.4849899108
 10
166.7904332969
 20
38.4816072306
 10
166.7826325542
 20
38.4788775455
 10
166.7748011353
 20
38.476818561
 10
166.7669476093
 20
38.4754513184
  0
LWPOLYLINE
  5
2C9
100
AcDbEntity
  8
SCRITTE
100
AcDbPolyline
 62
253
  6
CONTINUOUS
 90
42
 70
0
 10
166.7669476093
 20
38.4589075096
 10
166.7760648231
 20
38.4551044507
 10
166.7851405706
 20
38.4509781102
 10
166.7941802014
 20
38.4465193402
 10
166.8031890649
 20
38.4417189928
 10
166.8121718647
 20
38.4365673951
 10
166.8211307205
 20
38.4310527743
 10
166.8300671056
 20
38.4251628328
 10
166.8389824937
 20
38.4188852728
 10
166.8478748624
 20
38.412211062
 10
166.856728206
 20
38.40514423
 10
166.865523023
 20
38.3976920715
 10
166.8742398117
 20
38.3898618815
 10
166.8828602394
 20
38.381662337
 10
166.8913706472
 20
38.3731076432
 10
166.8997585453
 20
38.3642133876
 10
166.9080114435
 20
38.3549951573
 10
166.9161200371
 20
38.3454651319
 10
166.9240877623
 20
38.3356218596
 10
166.9319212407
 20
38.3254604808
 10
166.9396270935
 20
38.3149761356
 10
166.9472101887
 20
38.3041661414
 10
166.9546683789
 20
38.293036523
 10
166.9619977633
 20
38.2815954821
 10
166.969194441
 20
38.2698512207
 10
166.977252768
 20
38.2560673337
 10
166.9851331738
 20
38.2419037305
 10
166.9928361635
 20
38.227366026
 10
167.0003622422
 20
38.2124598347
 10
167.0077119152
 20
38.1971907712
 10
167.0148856875
 20
38.1815644503
 10
167.0218840643
 20
38.1655864866
 10
167.0287074293
 20
38.1492631171
 10
167.0353556809
 20
38.1326030682
 10
167.0418285962
 20
38.1156156887
 10
167.0481259521
 20
38.0983103275
 10
167.0542475256
 20
38.0806963333
 10
167.0601930938
 20
38.0627830549
 10
167.0659624337
 20
38.0445798411
 10
167.0724815446
 20
38.0229883552
 10
167.078827601
 20
38.0010272294
 10
167.0850677183
 20
37.9787087332
  0
LWPOLYLINE
  5
2CA
100
AcDbEntity
  8
RACCORDO
100
AcDbPolyline
 62
7
  6
CONTINUOUS
 90
22
 70
0
 10
116.7944444382
 20
44.2287711418
 10
116.7960000568
 20
44.1806259838
 10
116.8005999941
 20
44.1329813299
 10
116.8082442502
 20
44.0858371727
 10
116.8189981089
 20
44.0389596733
 10
116.8327962864
 20
43.9925826587
 10
116.8494429309
 20
43.9474076096
 10
116.8689350348
 20
43.9035359972
 10
116.8912756057
 20
43.8608663147
 10
116.9162778153
 20
43.8197955595
 10
116.9440059678
 20
43.7802735102
 10
116.9743957589
 20
43.7423503463
 10
117.0070674471
 20
43.7065736558
 10
117.0421105454
 20
43.6729586343
 10
117.0794355408
 20
43.6414900364
 10
117.1183941527
 20
43.6126697784
 10
117.1589334831
 20
43.5866028655
 10
117.2011064301
 20
43.563184243
 10
117.2444234071
 20
43.5426007333
 10
117.2887212189
 20
43.5249145978
 10
117.3341630608
 20
43.5100635383
 10
117.3807489328
 20
43.4980475405
  0
LWPOLYLINE
  5
2CB
100
AcDbEntity
  8
ASSI
100
AcDbPolyline
 62
7
  6
CONTINUOUS
 90
22
 70
0
 10
116.7944444382
 20
44.2287711418
 10
116.7960000568
 20
44.1806259838
 10
116.8005999941
 20
44.1329813299
 10
116.8082442502
 20
44.0858371727
 10
116.8189981089
 20
44.0389596733
 10
116.8327962864
 20
43.9925826587
 10
116.8494429309
 20
43.9474076096
 10
116.8689350348
 20
43.9035359972
 10
116.8912756057
 20
43.8608663147
 10
116.9162778153
 20
43.8197955595
 10
116.9440059678
 20
43.7802735102
 10
116.9743957589
 20
43.7423503463
 10
117.0070674471
 20
43.7065736558
 10
117.0421105454
 20
43.6729586343
 10
117.0794355408
 20
43.6414900364
 10
117.1183941527
 20
43.6126697784
 10
117.1589334831
 20
43.5866028655
 10
117.2011064301
 20
43.563184243
 10
117.2444234071
 20
43.5426007333
 10
117.2887212189
 20
43.5249145978
 10
117.3341630608
 20
43.5100635383
 10
117.3807489328
 20
43.4980475405
  0
LINE
  5
2CC
100
AcDbEntity
  8
RACCORDO
100
AcDbLine
 62
253
  6
CONTINUOUS
 10
116.1756979614
 20
44.0865564052
 11
116.1756979614
 21
158.9731074877
  0
LINE
  5
2CD
100
AcDbEntity
  8
ASSI
100
AcDbLine
 62
253
  6
CONTINUOUS
 10
116.1756979614
 20
44.0865564052
 11
116.1756979614
 21
158.9731074877
  0
LINE
  5
2CE
100
AcDbEntity
  8
RACCORDO
100
AcDbLine
 62
253
  6
CONTINUOUS
 10
116.6750110711
 20
44.1096289672
 11
116.6750110754
 21
158.9500254372
  0
LINE
  5
2CF
100
AcDbEntity
  8
ASSI
100
AcDbLine
 62
253
  6
CONTINUOUS
 10
116.6750110711
 20
44.1096289672
 11
116.6750110754
 21
158.9500254372
  0
LINE
  5
2D0
100
AcDbEntity
  8
RACCORDO
100
AcDbLine
 62
7
  6
CONTINUOUS
 10
116.7944444382
 20
158.8308927511
 11
116.7944444444
 21
137.0298319465
  0
LINE
  5
2D1
100
AcDbEntity
  8
DRAFT
100
AcDbLine
 62
7
  6
CONTINUOUS
 10
116.7944444444
 20
137.0298319465
 11
116.7944444444
 21
66.0298319465
  0
LINE
  5
2D2
100
AcDbEntity
  8
RACCORDO
100
AcDbLine
 62
7
  6
CONTINUOUS
 10
116.7944444444
 20
66.0298319465
 11
116.7944444382
 21
44.2287711418
  0
LINE
  5
2D3
100
AcDbEntity
  8
ASSI
100
AcDbLine
 62
7
  6
CONTINUOUS
 10
116.7944444382
 20
158.8308927511
 11
116.7944444382
 21
44.2287711418
  0
LINE
  5
2D4
100
AcDbEntity
  8
RACCORDO
100
AcDbLine
 62
253
  6
CONTINUOUS
 10
117.4273100835
 20
160.223984925
 11
117.4273100835
 21
159.6975875687
  0
LINE
  5
2D5
100
AcDbEntity
  8
ASSI
100
AcDbLine
 62
253
  6
CONTINUOUS
 10
117.4273100835
 20
160.223984925
 11
117.4273100835
 21
159.6975875687
  0
LINE
  5
2D6
100
AcDbEntity
  8
RACCORDO
100
AcDbLine
 62
253
  6
CONTINUOUS
 10
117.4273100835
 20
42.8356789679
 11
117.4273100834
 21
43.3620763242
  0
LINE
  5
2D7
100
AcDbEntity
  8
ASSI
100
AcDbLine
 62
253
  6
CONTINUOUS
 10
117.4273100835
 20
42.8356789679
 11
117.4273100834
 21
43.3620763242
  0
LWPOLYLINE
  5
2D8
100
AcDbEntity
  8
RACCORDO
100
AcDbPolyline
 62
253
  6
CONTINUOUS
 90
13
 70
0
 10
116.1756979614
 20
158.9731074877
 10
116.177135157
 20
159.0358257909
 10
116.1819082632
 20
159.0986642387
 10
116.1900172803
 20
159.1616228276
 10
116.2014640202
 20
159.2250060349
 10
116.2162466709
 20
159.2885093716
 10
116.2343597956
 20
159.3512194029
 10
116.255936647
 20
159.4131589763
 10
116.2808439725
 20
159.4743052744
 10
116.3086765769
 20
159.5336764041
 10
116.3392993953
 20
159.5909450987
 10
116.3728474926
 20
159.6464386963
 10
116.4093208689
 20
159.7001572291
  0
LWPOLYLINE
  5
2D9
100
AcDbEntity
  8
ASSI
100
AcDbPolyline
 62
253
  6
CONTINUOUS
 90
13
 70
0
 10
116.1756979614
 20
158.9731074877
 10
116.177135157
 20
159.0358257909
 10
116.1819082632
 20
159.0986642387
 10
116.1900172803
 20
159.1616228276
 10
116.2014640202
 20
159.2250060349
 10
116.2162466709
 20
159.2885093716
 10
116.2343597956
 20
159.3512194029
 10
116.255936647
 20
159.4131589763
 10
116.2808439725
 20
159.4743052744
 10
116.3086765769
 20
159.5336764041
 10
116.3392993953
 20
159.5909450987
 10
116.3728474926
 20
159.6464386963
 10
116.4093208689
 20
159.7001572291
  0
LWPOLYLINE
  5
2DA
100
AcDbEntity
  8
RACCORDO
100
AcDbPolyline
 62
253
  6
CONTINUOUS
 90
13
 70
0
 10
116.6750110859
 20
158.9500254269
 10
116.6759462912
 20
158.9874574415
 10
116.6787963966
 20
159.0251557792
 10
116.6836094099
 20
159.0630203745
 10
116.6904427084
 20
159.1010158085
 10
116.699326781
 20
159.1389603181
 10
116.7102287012
 20
159.1765343233
 10
116.7231518538
 20
159.2136540342
 10
116.7380761647
 20
159.2501830121
 10
116.7548487923
 20
159.2857465865
 10
116.7733541017
 20
159.3201705062
 10
116.7935620906
 20
159.3534616547
 10
116.8153992603
 20
159.3855413831
  0
LWPOLYLINE
  5
2DB
100
AcDbEntity
  8
ASSI
100
AcDbPolyline
 62
253
  6
CONTINUOUS
 90
13
 70
0
 10
116.6750110859
 20
158.9500254269
 10
116.6759462912
 20
158.9874574415
 10
116.6787963966
 20
159.0251557792
 10
116.6836094099
 20
159.0630203745
 10
116.6904427084
 20
159.1010158085
 10
116.699326781
 20
159.1389603181
 10
116.7102287012
 20
159.1765343233
 10
116.7231518538
 20
159.2136540342
 10
116.7380761647
 20
159.2501830121
 10
116.7548487923
 20
159.2857465865
 10
116.7733541017
 20
159.3201705062
 10
116.7935620906
 20
159.3534616547
 10
116.8153992603
 20
159.3855413831
  0
LINE
  5
2DC
100
AcDbEntity
  8
RACCORDO
100
AcDbLine
 62
253
  6
CONTINUOUS
 10
88.4444444444
 20
66.0298319465
 11
116.7944444444
 21
66.0298319465
  0
LINE
  5
2DD
100
AcDbEntity
  8
ASSI
100
AcDbLine
 62
253
  6
CONTINUOUS
 10
88.4444444444
 20
66.0298319465
 11
116.7944444444
 21
66.0298319465
  0
LINE
  5
2DE
100
AcDbEntity
  8
RACCORDO
100
AcDbLine
 62
253
  6
CONTINUOUS
 10
207.0944444444
 20
66.0298319465
 11
235.4444444444
 21
66.0298319465
  0
LINE
  5
2DF
100
AcDbEntity
  8
ASSI
100
AcDbLine
 62
253
  6
CONTINUOUS
 10
207.0944444444
 20
66.0298319465
 11
235.4444444444
 21
66.0298319465
  0
LWPOLYLINE
  5
2E0
100
AcDbEntity
  8
0
100
AcDbPolyline
 62
7
  6
CONTINUOUS
 90
3
 70
0
 43
0.3500000006
 10
163.0872971191
 20
200.1725478516
 10
163.015875
 20
199.9582633667
 10
162.8730126343
 20
199.6725567627
  0
LINE
  5
2E1
100
AcDbEntity
  8
RACCORDO
100
AcDbLine
 62
253
  6
CONTINUOUS
 10
207.4795680199
 20
43.3595068735
 11
207.420662898
 21
43.401916418
  0
LINE
  5
2E2
100
AcDbEntity
  8
ASSI
100
AcDbLine
 62
253
  6
CONTINUOUS
 10
207.4795680199
 20
43.3595068735
 11
207.420662898
 21
43.401916418
  0
LINE
  5
2E3
100
AcDbEntity
  8
RACCORDO
100
AcDbLine
 62
253
  6
CONTINUOUS
 10
207.420662898
 20
43.401916418
 11
207.3630013558
 21
43.4439624504
  0
LINE
  5
2E4
100
AcDbEntity
  8
ASSI
100
AcDbLine
 62
253
  6
CONTINUOUS
 10
207.420662898
 20
43.401916418
 11
207.3630013558
 21
43.4439624504
  0
LINE
  5
2E5
100
AcDbEntity
  8
RACCORDO
100
AcDbLine
 62
253
  6
CONTINUOUS
 10
207.3630013558
 20
43.4439624504
 11
207.3078008186
 21
43.4847572409
  0
LINE
  5
2E6
100
AcDbEntity
  8
ASSI
100
AcDbLine
 62
253
  6
CONTINUOUS
 10
207.3630013558
 20
43.4439624504
 11
207.3078008186
 21
43.4847572409
  0
LWPOLYLINE
  5
2E7
100
AcDbEntity
  8
RACCORDO
100
AcDbPolyline
 62
253
  6
CONTINUOUS
 90
15
 70
0
 10
207.3078008186
 20
43.4847572409
 10
207.2562267513
 20
43.5234394773
 10
207.2321435573
 20
43.5417309442
 10
207.2093680523
 20
43.5591924505
 10
207.1880206116
 20
43.5757317067
 10
207.1682140632
 20
43.5912612978
 10
207.1500530906
 20
43.6056991453
 10
207.1336336801
 20
43.6189689406
 10
207.1190426135
 20
43.631000549
 10
207.106357009
 20
43.6417303796
 10
207.095643914
 20
43.6511017221
 10
207.0869599503
 20
43.6590650461
 10
207.0803510156
 20
43.665578263
 10
207.0758520399
 20
43.6706069485
 10
207.0734868019
 20
43.6741245245
  0
LWPOLYLINE
  5
2E8
100
AcDbEntity
  8
ASSI
100
AcDbPolyline
 62
253
  6
CONTINUOUS
 90
15
 70
0
 10
207.3078008186
 20
43.4847572409
 10
207.2562267513
 20
43.5234394773
 10
207.2321435573
 20
43.5417309442
 10
207.2093680523
 20
43.5591924505
 10
207.1880206116
 20
43.5757317067
 10
207.1682140632
 20
43.5912612978
 10
207.1500530906
 20
43.6056991453
 10
207.1336336801
 20
43.6189689406
 10
207.1190426135
 20
43.631000549
 10
207.106357009
 20
43.6417303796
 10
207.095643914
 20
43.6511017221
 10
207.0869599503
 20
43.6590650461
 10
207.0803510156
 20
43.665578263
 10
207.0758520399
 20
43.6706069485
 10
207.0734868019
 20
43.6741245245
  0
LINE
  5
2E9
100
AcDbEntity
  8
SCRITTE
100
AcDbLine
 62
253
  6
CONTINUOUS
 10
160.5443764444
 20
38.9801849465
 11
161.2299574444
 21
37.1520309465
  0
LINE
  5
2EA
100
AcDbEntity
  8
SCRITTE
100
AcDbLine
 62
253
  6
CONTINUOUS
 10
161.2741304444
 20
38.3973299465
 11
160.6958944444
 21
39.9517339465
  0
LINE
  5
2EB
100
AcDbEntity
  8
SCRITTE
100
AcDbLine
 62
253
  6
CONTINUOUS
 10
156.4407764444
 20
39.9517339465
 11
157.3283374444
 21
37.1520309465
  0
LWPOLYLINE
  5
2EC
100
AcDbEntity
  8
SCRITTE
100
AcDbPolyline
 62
253
  6
CONTINUOUS
 90
47
 70
0
 10
166.4858245608
 20
38.0012274561
 10
166.4818835085
 20
38.0113445126
 10
166.4777644182
 20
38.0212201502
 10
166.4734762985
 20
38.0308568836
 10
166.4690281581
 20
38.0402572277
 10
166.4644290056
 20
38.0494236971
 10
166.4596878496
 20
38.0583588066
 10
166.4548136989
 20
38.0670650709
 10
166.4498155621
 20
38.0755450047
 10
166.4447024479
 20
38.0838011228
 10
166.4394833648
 20
38.0918359399
 10
166.4335690883
 20
38.1005071379
 10
166.4275356572
 20
38.1089123708
 10
166.4213836208
 20
38.1170557801
 10
166.4151135285
 20
38.1249415073
 10
166.4087259295
 20
38.1325736939
 10
166.4022213731
 20
38.1399564812
 10
166.3956004087
 20
38.1470940108
 10
166.3888635855
 20
38.1539904241
 10
166.3820114529
 20
38.1606498626
 10
166.3750448559
 20
38.1670751514
 10
166.3679658221
 20
38.1732638512
 10
166.3607766752
 20
38.1792122062
 10
166.3534797386
 20
38.1849164606
 10
166.3460773358
 20
38.1903728588
 10
166.3385717902
 20
38.195577645
 10
166.3309654253
 20
38.2005270635
 10
166.3232605647
 20
38.2052173586
 10
166.3154595317
 20
38.2096447745
 10
166.3075644437
 20
38.2138070083
 10
166.2995765929
 20
38.2177075681
 10
166.2914970653
 20
38.2213514146
 10
166.2833269468
 20
38.2247435085
 10
166.2750673236
 20
38.2278888108
 10
166.2667192815
 20
38.2307922822
 10
166.2582839067
 20
38.2334588835
 10
166.2497622851
 20
38.2358935755
 10
166.2411555027
 20
38.238101319
 10
166.2324644041
 20
38.2400858445
 10
166.2236888681
 20
38.2418459618
 10
166.214828532
 20
38.2433792501
 10
166.2058830332
 20
38.244683289
 10
166.1968520091
 20
38.2457556579
 10
166.1877350971
 20
38.2465939362
 10
166.1785319344
 20
38.2471957033
 10
166.1692421585
 20
38.2475585387
 10
166.1598654067
 20
38.2476800217
  0
LINE
  5
2ED
100
AcDbEntity
  8
SCRITTE
100
AcDbLine
 62
253
  6
CONTINUOUS
 10
165.0928524444
 20
37.1520309465
 11
164.2338344444
 21
39.9517339465
  0
LWPOLYLINE
  5
2EE
100
AcDbEntity
  8
SCRITTE
100
AcDbPolyline
 62
253
  6
CONTINUOUS
 90
9
 70
0
 10
166.5849933737
 20
37.6931665999
 10
166.5716507784
 20
37.7391489391
 10
166.5600927995
 20
37.7780718754
 10
166.5483720243
 20
37.8165234256
 10
166.536446809
 20
37.8544864353
 10
166.52427551
 20
37.8919437502
 10
166.5118164835
 20
37.9288782158
 10
166.4990280858
 20
37.9652726779
 10
166.4858686731
 20
38.0011099819
  0
LINE
  5
2EF
100
AcDbEntity
  8
SCRITTE
100
AcDbLine
 62
253
  6
CONTINUOUS
 10
166.7414600663
 20
37.1520305921
 11
166.6529813003
 21
37.4549830101
  0
LINE
  5
2F0
100
AcDbEntity
  8
SCRITTE
100
AcDbLine
 62
253
  6
CONTINUOUS
 10
166.6529813003
 20
37.4549830101
 11
166.638952493
 21
37.5036512348
  0
LINE
  5
2F1
100
AcDbEntity
  8
SCRITTE
100
AcDbLine
 62
253
  6
CONTINUOUS
 10
157.6092984444
 20
38.0246119465
 11
157.0756244444
 21
39.9517339465
  0
LINE
  5
2F2
100
AcDbEntity
  8
SCRITTE
100
AcDbLine
 62
253
  6
CONTINUOUS
 10
164.3255184444
 20
37.7109509465
 11
164.4769104444
 21
37.1520309465
  0
LINE
  5
2F3
100
AcDbEntity
  8
SCRITTE
100
AcDbLine
 62
253
  6
CONTINUOUS
 10
163.9401814444
 20
39.1824469465
 11
164.2087244444
 21
38.1434409465
  0
LWPOLYLINE
  5
2F4
100
AcDbEntity
  8
RACCORDO
100
AcDbPolyline
 62
253
  6
CONTINUOUS
 90
13
 70
0
 10
207.2321434976
 20
159.5179329268
 10
207.2093679871
 20
159.5004714167
 10
207.1880205415
 20
159.4839321567
 10
207.1682139888
 20
159.4684025618
 10
207.1500530127
 20
159.4539647107
 10
207.1336335995
 20
159.4406949118
 10
207.119042531
 20
159.4286633003
 10
207.1063569254
 20
159.4179334668
 10
207.0956438301
 20
159.4085621218
 10
207.0869598671
 20
159.4005987957
 10
207.0803509339
 20
159.3940855773
 10
207.0758519607
 20
159.3890568908
 10
207.073486726
 20
159.3855393144
  0
LWPOLYLINE
  5
2F5
100
AcDbEntity
  8
ASSI
100
AcDbPolyline
 62
253
  6
CONTINUOUS
 90
13
 70
0
 10
207.2321434976
 20
159.5179329268
 10
207.2093679871
 20
159.5004714167
 10
207.1880205415
 20
159.4839321567
 10
207.1682139888
 20
159.4684025618
 10
207.1500530127
 20
159.4539647107
 10
207.1336335995
 20
159.4406949118
 10
207.119042531
 20
159.4286633003
 10
207.1063569254
 20
159.4179334668
 10
207.0956438301
 20
159.4085621218
 10
207.0869598671
 20
159.4005987957
 10
207.0803509339
 20
159.3940855773
 10
207.0758519607
 20
159.3890568908
 10
207.073486726
 20
159.3855393144
  0
LINE
  5
2F6
100
AcDbEntity
  8
RACCORDO
100
AcDbLine
 62
253
  6
CONTINUOUS
 10
207.2814902994
 20
159.5552491524
 11
207.2321434976
 21
159.5179329268
  0
LINE
  5
2F7
100
AcDbEntity
  8
ASSI
100
AcDbLine
 62
253
  6
CONTINUOUS
 10
207.2814902994
 20
159.5552491524
 11
207.2321434976
 21
159.5179329268
  0
LINE
  5
2F8
100
AcDbEntity
  8
RACCORDO
100
AcDbLine
 62
253
  6
CONTINUOUS
 10
207.3350190732
 20
159.595092965
 11
207.2814902994
 21
159.5552491524
  0
LINE
  5
2F9
100
AcDbEntity
  8
ASSI
100
AcDbLine
 62
253
  6
CONTINUOUS
 10
207.3350190732
 20
159.595092965
 11
207.2814902994
 21
159.5552491524
  0
LINE
  5
2FA
100
AcDbEntity
  8
RACCORDO
100
AcDbLine
 62
253
  6
CONTINUOUS
 10
207.3915996497
 20
159.6366231303
 11
207.3350190732
 21
159.595092965
  0
LINE
  5
2FB
100
AcDbEntity
  8
ASSI
100
AcDbLine
 62
253
  6
CONTINUOUS
 10
207.3915996497
 20
159.6366231303
 11
207.3350190732
 21
159.595092965
  0
LWPOLYLINE
  5
2FC
100
AcDbEntity
  8
RACCORDO
100
AcDbPolyline
 62
253
  6
CONTINUOUS
 90
3
 70
0
 10
207.4795680199
 20
159.7001570155
 10
207.4500374261
 20
159.6789628093
 10
207.3915996497
 20
159.6366231303
  0
LWPOLYLINE
  5
2FD
100
AcDbEntity
  8
ASSI
100
AcDbPolyline
 62
253
  6
CONTINUOUS
 90
3
 70
0
 10
207.4795680199
 20
159.7001570155
 10
207.4500374261
 20
159.6789628093
 10
207.3915996497
 20
159.6366231303
  0
LINE
  5
2FE
100
AcDbEntity
  8
RACCORDO
100
AcDbLine
 62
253
  6
CONTINUOUS
 10
206.4616063793
 20
43.3620763242
 11
206.34352122
 21
43.4798319465
  0
LINE
  5
2FF
100
AcDbEntity
  8
ASSI
100
AcDbLine
 62
253
  6
CONTINUOUS
 10
206.4616063793
 20
43.3620763242
 11
206.34352122
 21
43.4798319465
  0
LINE
  5
300
100
AcDbEntity
  8
RACCORDO
100
AcDbLine
 62
253
  6
CONTINUOUS
 10
207.2138778135
 20
44.1096383634
 11
207.0944444507
 21
44.2287711418
  0
LINE
  5
301
100
AcDbEntity
  8
ASSI
100
AcDbLine
 62
253
  6
CONTINUOUS
 10
207.2138778135
 20
44.1096383634
 11
207.0944444507
 21
44.2287711418
  0
LINE
  5
302
100
AcDbEntity
  8
RACCORDO
100
AcDbLine
 62
253
  6
CONTINUOUS
 10
234.2298660052
 20
19.7728242987
 11
234.4680766568
 21
19.5298319465
  0
LINE
  5
303
100
AcDbEntity
  8
ASSI
100
AcDbLine
 62
253
  6
CONTINUOUS
 10
234.2298660052
 20
19.7728242987
 11
234.4680766568
 21
19.5298319465
  0
LINE
  5
304
100
AcDbEntity
  8
RACCORDO
100
AcDbLine
 62
253
  6
CONTINUOUS
 10
235.216408666
 20
20.7591619168
 11
235.4444435963
 21
20.5263871186
  0
LINE
  5
305
100
AcDbEntity
  8
ASSI
100
AcDbLine
 62
253
  6
CONTINUOUS
 10
235.216408666
 20
20.7591619168
 11
235.4444435963
 21
20.5263871186
  0
LINE
  5
306
100
AcDbEntity
  8
SCRITTE
100
AcDbLine
 62
253
  6
CONTINUOUS
 10
166.638952493
 20
37.5036512348
 11
166.5849933737
 21
37.6931665999
  0
LINE
  5
307
100
AcDbEntity
  8
SCRITTE
100
AcDbLine
 62
253
  6
CONTINUOUS
 10
167.0850677183
 20
37.9787087332
 11
167.1038235896
 21
37.9097317184
  0
LINE
  5
308
100
AcDbEntity
  8
SCRITTE
100
AcDbLine
 62
253
  6
CONTINUOUS
 10
167.10382359
 20
37.9097317185
 11
167.1390021856
 21
37.7790587646
  0
LINE
  5
309
100
AcDbEntity
  8
SCRITTE
100
AcDbLine
 62
253
  6
CONTINUOUS
 10
167.2711577133
 20
37.2737638312
 11
167.3035926564
 21
37.1520305921
  0
LINE
  5
30A
100
AcDbEntity
  8
SCRITTE
100
AcDbLine
 62
253
  6
CONTINUOUS
 10
167.1390021856
 20
37.7790587646
 11
167.2063370709
 21
37.5228774374
  0
LINE
  5
30B
100
AcDbEntity
  8
SCRITTE
100
AcDbLine
 62
253
  6
CONTINUOUS
 10
167.2063370709
 20
37.5228774374
 11
167.2711577133
 21
37.2737638312
  0
LINE
  5
30C
100
AcDbEntity
  8
SCRITTE
100
AcDbLine
 62
253
  6
CONTINUOUS
 10
162.6985564444
 20
37.1520309465
 11
162.4367524444
 21
39.9517339465
  0
LINE
  5
30D
100
AcDbEntity
  8
SCRITTE
100
AcDbLine
 62
253
  6
CONTINUOUS
 10
162.0067814444
 20
38.9725629465
 11
162.1268504444
 21
37.1520309465
  0
LINE
  5
30E
100
AcDbEntity
  8
SCRITTE
100
AcDbLine
 62
253
  6
CONTINUOUS
 10
158.9601594444
 20
37.1520309465
 11
158.9601594444
 21
39.9519020718
  0
LINE
  5
30F
100
AcDbEntity
  8
SCRITTE
100
AcDbLine
 62
253
  6
CONTINUOUS
 10
159.5445674444
 20
39.9519019465
 11
159.5445674444
 21
37.1520308213
  0
LWPOLYLINE
  5
310
100
AcDbEntity
  8
0
100
AcDbPolyline
 62
7
  6
CONTINUOUS
 90
13
 70
0
 43
0.3500000006
 10
160.0158740845
 20
200.743979187
 10
160.0158740845
 20
202.0296860962
 10
160.2301585693
 20
202.4582550659
 10
160.6587275391
 20
202.8868421631
 10
160.8730120239
 20
202.8868421631
 10
161.3015809937
 20
202.4582550659
 10
161.5158654785
 20
202.0296860962
 10
161.5158654785
 20
200.743979187
 10
161.3015809937
 20
200.3154102173
 10
160.8730120239
 20
199.8868412476
 10
160.6587275391
 20
199.8868412476
 10
160.2301585693
 20
200.3154102173
 10
160.0158740845
 20
200.743979187
  0
LWPOLYLINE
  5
311
100
AcDbEntity
  8
0
100
AcDbPolyline
 62
7
  6
CONTINUOUS
 90
2
 70
0
 43
0.3500000006
 10
161.4444433594
 20
209.8868261719
 10
161.4444433594
 20
211.3868356934
  0
LWPOLYLINE
  5
312
100
AcDbEntity
  8
0
100
AcDbPolyline
 62
7
  6
CONTINUOUS
 90
4
 70
0
 43
0.3500000006
 10
162.8015905151
 20
212.2439736328
 10
162.8015905151
 20
212.8868270874
 10
164.3015819092
 20
212.8868270874
 10
163.4444439697
 20
209.8868261719
  0
LINE
  5
313
100
AcDbEntity
  8
RACCORDO
100
AcDbLine
 62
253
  6
CONTINUOUS
 10
234.2298660052
 20
183.2868395942
 11
234.4680766568
 21
183.5298319465
  0
LINE
  5
314
100
AcDbEntity
  8
ASSI
100
AcDbLine
 62
253
  6
CONTINUOUS
 10
234.2298660052
 20
183.2868395942
 11
234.4680766568
 21
183.5298319465
  0
LINE
  5
315
100
AcDbEntity
  8
RACCORDO
100
AcDbLine
 62
253
  6
CONTINUOUS
 10
207.2138778182
 20
158.9500359988
 11
207.0944444507
 21
158.8308927511
  0
LINE
  5
316
100
AcDbEntity
  8
ASSI
100
AcDbLine
 62
253
  6
CONTINUOUS
 10
207.2138778182
 20
158.9500359988
 11
207.0944444507
 21
158.8308927511
  0
LINE
  5
317
100
AcDbEntity
  8
RACCORDO
100
AcDbLine
 62
253
  6
CONTINUOUS
 10
206.4615942752
 20
159.6975875687
 11
206.34352122
 21
159.5798319465
  0
LINE
  5
318
100
AcDbEntity
  8
ASSI
100
AcDbLine
 62
253
  6
CONTINUOUS
 10
206.4615942752
 20
159.6975875687
 11
206.34352122
 21
159.5798319465
  0
LWPOLYLINE
  5
319
100
AcDbEntity
  8
0
100
AcDbPolyline
 62
7
  6
CONTINUOUS
 90
2
 70
0
 43
0.3500000006
 10
259.3387902832
 20
103.3869749451
 10
257.8387807617
 20
103.3869749451
  0
LINE
  5
31A
100
AcDbEntity
  8
RACCORDO
100
AcDbLine
 62
253
  6
CONTINUOUS
 10
89.6590228837
 20
183.2868395942
 11
89.4208122321
 21
183.5298319465
  0
LINE
  5
31B
100
AcDbEntity
  8
ASSI
100
AcDbLine
 62
253
  6
CONTINUOUS
 10
89.6590228837
 20
183.2868395942
 11
89.4208122321
 21
183.5298319465
  0
LINE
  5
31C
100
AcDbEntity
  8
RACCORDO
100
AcDbLine
 62
253
  6
CONTINUOUS
 10
88.6724802229
 20
182.3005019761
 11
88.4444452926
 21
182.5332767743
  0
LINE
  5
31D
100
AcDbEntity
  8
ASSI
100
AcDbLine
 62
253
  6
CONTINUOUS
 10
88.6724802229
 20
182.3005019761
 11
88.4444452926
 21
182.5332767743
  0
LWPOLYLINE
  5
31E
100
AcDbEntity
  8
SCRITTE
100
AcDbPolyline
 62
253
  6
CONTINUOUS
 90
49
 70
0
 10
166.6150977425
 20
39.1409693751
 10
166.6147819987
 20
39.1514712952
 10
166.614146682
 20
39.1619152453
 10
166.6131949331
 20
39.1723050403
 10
166.6119298927
 20
39.1826444949
 10
166.6103547015
 20
39.1929374242
 10
166.6084725002
 20
39.203187643
 10
166.6062864296
 20
39.2133989663
 10
166.6037996303
 20
39.2235752088
 10
166.6010147128
 20
39.2337176682
 10
166.5979321669
 20
39.2438175724
 10
166.5945519521
 20
39.2538636321
 10
166.5908740278
 20
39.2638445579
 10
166.5868983536
 20
39.2737490603
 10
166.582624889
 20
39.2835658502
 10
166.5780535935
 20
39.293283638
 10
166.5731844266
 20
39.3028911344
 10
166.5680173296
 20
39.3123765478
 10
166.5625521702
 20
39.3217260774
 10
166.5567887982
 20
39.3309254202
 10
166.5507270632
 20
39.339960273
 10
166.5443668147
 20
39.348816333
 10
166.5377079024
 20
39.3574792971
 10
166.5307501758
 20
39.3659348621
 10
166.5234934846
 20
39.3741687252
 10
166.5159396322
 20
39.3821680563
 10
166.5080982368
 20
39.3899259176
 10
166.4999808708
 20
39.3974368444
 10
166.4915991062
 20
39.404695372
 10
166.4829645151
 20
39.4116960358
 10
166.4740886698
 20
39.4184333709
 10
166.4649831423
 20
39.4249019127
 10
166.4556595049
 20
39.4310961965
 10
166.4461293428
 20
39.4370115019
 10
166.4364042942
 20
39.4426460861
 10
166.4264960103
 20
39.4479989509
 10
166.4164161426
 20
39.4530690978
 10
166.4061763422
 20
39.4578555284
 10
166.3957882605
 20
39.4623572445
 10
166.3852635489
 20
39.4665732475
 10
166.3746138585
 20
39.4705025393
 10
166.3638481703
 20
39.4741436631
 10
166.3529647832
 20
39.4774933294
 10
166.3419593258
 20
39.4805477904
 10
166.3308274265
 20
39.4833032985
 10
166.3195647138
 20
39.4857561059
 10
166.3081668163
 20
39.4879024647
 10
166.2966293624
 20
39.4897386273
 10
166.2849479807
 20
39.4912608458
  0
LINE
  5
31F
100
AcDbEntity
  8
SCRITTE
100
AcDbLine
 62
253
  6
CONTINUOUS
 10
165.2644632468
 20
37.1520305921
 11
165.2644632468
 21
39.9190244909
  0
LINE
  5
320
100
AcDbEntity
  8
SCRITTE
100
AcDbLine
 62
253
  6
CONTINUOUS
 10
165.8271416985
 20
39.4747771505
 11
165.8271416985
 21
38.706203839
  0
LINE
  5
321
100
AcDbEntity
  8
SCRITTE
100
AcDbLine
 62
253
  6
CONTINUOUS
 10
165.8465197893
 20
38.2476800217
 11
165.8465197893
 21
37.1520305911
  0
LINE
  5
322
100
AcDbEntity
  8
SCRITTE
100
AcDbLine
 62
253
  6
CONTINUOUS
 10
166.7669476093
 20
38.4754513184
 11
166.7669476093
 21
38.4589075097
  0
LINE
  5
323
100
AcDbEntity
  8
SCRITTE
100
AcDbLine
 62
253
  6
CONTINUOUS
 10
160.4182614444
 20
37.1520309465
 11
160.5443764444
 21
38.9801849465
  0
LINE
  5
324
100
AcDbEntity
  8
SCRITTE
100
AcDbLine
 62
253
  6
CONTINUOUS
 10
160.1119694444
 20
39.9517339465
 11
159.8591724444
 21
37.1520309465
  0
LINE
  5
325
100
AcDbEntity
  8
RACCORDO
100
AcDbLine
 62
253
  6
CONTINUOUS
 10
235.216408666
 20
182.3005019761
 11
235.4444435963
 21
182.5332767743
  0
LINE
  5
326
100
AcDbEntity
  8
ASSI
100
AcDbLine
 62
253
  6
CONTINUOUS
 10
235.216408666
 20
182.3005019761
 11
235.4444435963
 21
182.5332767743
  0
LINE
  5
327
100
AcDbEntity
  8
RACCORDO
100
AcDbLine
 62
253
  6
CONTINUOUS
 10
117.4272831879
 20
159.6975875687
 11
117.5453676688
 21
159.5798319465
  0
LINE
  5
328
100
AcDbEntity
  8
ASSI
100
AcDbLine
 62
253
  6
CONTINUOUS
 10
117.4272831879
 20
159.6975875687
 11
117.5453676688
 21
159.5798319465
  0
LINE
  5
329
100
AcDbEntity
  8
RACCORDO
100
AcDbLine
 62
253
  6
CONTINUOUS
 10
116.6750110754
 20
158.9500254372
 11
116.7944444382
 21
158.8308927511
  0
LINE
  5
32A
100
AcDbEntity
  8
ASSI
100
AcDbLine
 62
253
  6
CONTINUOUS
 10
116.6750110754
 20
158.9500254372
 11
116.7944444382
 21
158.8308927511
  0
LINE
  5
32B
100
AcDbEntity
  8
SCRITTE
100
AcDbLine
 62
253
  6
CONTINUOUS
 10
158.1592754444
 20
39.9517339465
 11
157.6092984444
 21
38.0246119465
  0
LINE
  5
32C
100
AcDbEntity
  8
RACCORDO
100
AcDbLine
 62
253
  6
CONTINUOUS
 10
88.6724802229
 20
20.7591619169
 11
88.4444452926
 21
20.5263871186
  0
LINE
  5
32D
100
AcDbEntity
  8
ASSI
100
AcDbLine
 62
253
  6
CONTINUOUS
 10
88.6724802229
 20
20.7591619169
 11
88.4444452926
 21
20.5263871186
  0
LINE
  5
32E
100
AcDbEntity
  8
RACCORDO
100
AcDbLine
 62
253
  6
CONTINUOUS
 10
89.6590228837
 20
19.7728242987
 11
89.4208122321
 21
19.5298319465
  0
LINE
  5
32F
100
AcDbEntity
  8
ASSI
100
AcDbLine
 62
253
  6
CONTINUOUS
 10
89.6590228837
 20
19.7728242987
 11
89.4208122321
 21
19.5298319465
  0
LINE
  5
330
100
AcDbEntity
  8
RACCORDO
100
AcDbLine
 62
253
  6
CONTINUOUS
 10
116.6750110711
 20
44.1096289672
 11
116.7944444382
 21
44.2287711418
  0
LINE
  5
331
100
AcDbEntity
  8
ASSI
100
AcDbLine
 62
253
  6
CONTINUOUS
 10
116.6750110711
 20
44.1096289672
 11
116.7944444382
 21
44.2287711418
  0
LINE
  5
332
100
AcDbEntity
  8
RACCORDO
100
AcDbLine
 62
253
  6
CONTINUOUS
 10
117.4272947114
 20
43.3620763242
 11
117.5453676688
 21
43.4798319465
  0
LINE
  5
333
100
AcDbEntity
  8
ASSI
100
AcDbLine
 62
253
  6
CONTINUOUS
 10
117.4272947114
 20
43.3620763242
 11
117.5453676688
 21
43.4798319465
  0
LINE
  5
334
100
AcDbEntity
  8
RACCORDO
100
AcDbLine
 62
253
  6
CONTINUOUS
 10
116.4093208689
 20
159.7001570317
 11
116.4682259809
 21
159.6577474929
  0
LINE
  5
335
100
AcDbEntity
  8
ASSI
100
AcDbLine
 62
253
  6
CONTINUOUS
 10
116.4093208689
 20
159.7001570317
 11
116.4682259809
 21
159.6577474929
  0
LINE
  5
336
100
AcDbEntity
  8
RACCORDO
100
AcDbLine
 62
253
  6
CONTINUOUS
 10
116.4682259809
 20
159.6577474929
 11
116.5258875089
 21
159.615701469
  0
LINE
  5
337
100
AcDbEntity
  8
ASSI
100
AcDbLine
 62
253
  6
CONTINUOUS
 10
116.4682259809
 20
159.6577474929
 11
116.5258875089
 21
159.615701469
  0
LINE
  5
338
100
AcDbEntity
  8
RACCORDO
100
AcDbLine
 62
253
  6
CONTINUOUS
 10
116.5258875089
 20
159.615701469
 11
116.5810880293
 21
159.5749066892
  0
LINE
  5
339
100
AcDbEntity
  8
ASSI
100
AcDbLine
 62
253
  6
CONTINUOUS
 10
116.5258875089
 20
159.615701469
 11
116.5810880293
 21
159.5749066892
  0
LWPOLYLINE
  5
33A
100
AcDbEntity
  8
RACCORDO
100
AcDbPolyline
 62
253
  6
CONTINUOUS
 90
15
 70
0
 10
116.5810880293
 20
159.5749066892
 10
116.6326620781
 20
159.5362244646
 10
116.6567452625
 20
159.5179330038
 10
116.6795207582
 20
159.5004715036
 10
116.7008681896
 20
159.4839322534
 10
116.7206747292
 20
159.4684026681
 10
116.7388356933
 20
159.4539648261
 10
116.7552550959
 20
159.4406950358
 10
116.7698461552
 20
159.4286634321
 10
116.7825317533
 20
159.4179336056
 10
116.7932448428
 20
159.4085622666
 10
116.8019288018
 20
159.4005989455
 10
116.8085377329
 20
159.3940857308
 10
116.8130367059
 20
159.3890570467
 10
116.8154019424
 20
159.3855394714
  0
LWPOLYLINE
  5
33B
100
AcDbEntity
  8
ASSI
100
AcDbPolyline
 62
253
  6
CONTINUOUS
 90
15
 70
0
 10
116.5810880293
 20
159.5749066892
 10
116.6326620781
 20
159.5362244646
 10
116.6567452625
 20
159.5179330038
 10
116.6795207582
 20
159.5004715036
 10
116.7008681896
 20
159.4839322534
 10
116.7206747292
 20
159.4684026681
 10
116.7388356933
 20
159.4539648261
 10
116.7552550959
 20
159.4406950358
 10
116.7698461552
 20
159.4286634321
 10
116.7825317533
 20
159.4179336056
 10
116.7932448428
 20
159.4085622666
 10
116.8019288018
 20
159.4005989455
 10
116.8085377329
 20
159.3940857308
 10
116.8130367059
 20
159.3890570467
 10
116.8154019424
 20
159.3855394714
  0
LINE
  5
33C
100
AcDbEntity
  8
SCRITTE
100
AcDbLine
 62
253
  6
CONTINUOUS
 10
163.6491954444
 20
38.1434409465
 11
163.9401814444
 21
39.1824469465
  0
LINE
  5
33D
100
AcDbEntity
  8
SCRITTE
100
AcDbLine
 62
253
  6
CONTINUOUS
 10
163.3683914444
 20
37.1520309465
 11
163.5296514444
 21
37.7109509465
  0
LINE
  5
33E
100
AcDbEntity
  8
SCRITTE
100
AcDbLine
 62
253
  6
CONTINUOUS
 10
163.6684894444
 20
39.9517339465
 11
162.7903244444
 21
37.1520309465
  0
LINE
  5
33F
100
AcDbEntity
  8
SCRITTE
100
AcDbLine
 62
253
  6
CONTINUOUS
 10
157.8433474444
 20
37.1520309465
 11
158.7432844444
 21
39.9517339465
  0
LINE
  5
340
100
AcDbEntity
  8
SCRITTE
100
AcDbLine
 62
253
  6
CONTINUOUS
 10
161.8585384444
 20
39.9517339465
 11
161.2741304444
 21
38.3973299465
  0
LINE
  5
341
100
AcDbEntity
  8
SCRITTE
100
AcDbLine
 62
253
  6
CONTINUOUS
 10
161.3119204444
 20
37.1520309465
 11
162.0067814444
 21
38.9725629465
  0
LWPOLYLINE
  5
342
100
AcDbEntity
  8
RACCORDO
100
AcDbPolyline
 62
253
  6
CONTINUOUS
 90
13
 70
0
 10
116.6567453182
 20
43.5417309092
 10
116.6795208189
 20
43.5591924129
 10
116.7008682549
 20
43.5757316667
 10
116.7206747984
 20
43.5912612556
 10
116.7388357658
 20
43.605699101
 10
116.755255171
 20
43.6189688945
 10
116.7698462322
 20
43.6310005012
 10
116.7825318313
 20
43.6417303304
 10
116.793244921
 20
43.6511016718
 10
116.8019288794
 20
43.6590649948
 10
116.8085378091
 20
43.665578211
 10
116.8130367799
 20
43.6706068961
 10
116.8154020133
 20
43.6741244718
  0
LWPOLYLINE
  5
343
100
AcDbEntity
  8
ASSI
100
AcDbPolyline
 62
253
  6
CONTINUOUS
 90
13
 70
0
 10
116.6567453182
 20
43.5417309092
 10
116.6795208189
 20
43.5591924129
 10
116.7008682549
 20
43.5757316667
 10
116.7206747984
 20
43.5912612556
 10
116.7388357658
 20
43.605699101
 10
116.755255171
 20
43.6189688945
 10
116.7698462322
 20
43.6310005012
 10
116.7825318313
 20
43.6417303304
 10
116.793244921
 20
43.6511016718
 10
116.8019288794
 20
43.6590649948
 10
116.8085378091
 20
43.665578211
 10
116.8130367799
 20
43.6706068961
 10
116.8154020133
 20
43.6741244718
  0
LWPOLYLINE
  5
344
100
AcDbEntity
  8
RACCORDO
100
AcDbPolyline
 62
253
  6
CONTINUOUS
 90
3
 70
0
 10
116.5810880673
 20
43.4847572144
 10
116.607398536
 20
43.5044146962
 10
116.6567453182
 20
43.5417309092
  0
LWPOLYLINE
  5
345
100
AcDbEntity
  8
ASSI
100
AcDbPolyline
 62
253
  6
CONTINUOUS
 90
3
 70
0
 10
116.5810880673
 20
43.4847572144
 10
116.607398536
 20
43.5044146962
 10
116.6567453182
 20
43.5417309092
  0
LWPOLYLINE
  5
346
100
AcDbEntity
  8
0
100
AcDbPolyline
 62
7
  6
CONTINUOUS
 90
3
 70
0
 43
0.3500000006
 10
249.0530625
 20
103.4226860046
 10
249.2673651123
 20
103.3512638855
 10
249.5530717163
 20
103.2084015198
  0
LINE
  5
347
100
AcDbEntity
  8
RACCORDO
100
AcDbLine
 62
253
  6
CONTINUOUS
 10
116.5258875341
 20
43.44396243
 11
116.5810880673
 21
43.4847572144
  0
LINE
  5
348
100
AcDbEntity
  8
ASSI
100
AcDbLine
 62
253
  6
CONTINUOUS
 10
116.5258875341
 20
43.44396243
 11
116.5810880673
 21
43.4847572144
  0
LINE
  5
349
100
AcDbEntity
  8
RACCORDO
100
AcDbLine
 62
253
  6
CONTINUOUS
 10
116.4682259931
 20
43.4019164037
 11
116.5258875341
 21
43.44396243
  0
LINE
  5
34A
100
AcDbEntity
  8
ASSI
100
AcDbLine
 62
253
  6
CONTINUOUS
 10
116.4682259931
 20
43.4019164037
 11
116.5258875341
 21
43.44396243
  0
LINE
  5
34B
100
AcDbEntity
  8
RACCORDO
100
AcDbLine
 62
253
  6
CONTINUOUS
 10
116.409320869
 20
43.359506865
 11
116.4682259931
 21
43.4019164037
  0
LINE
  5
34C
100
AcDbEntity
  8
ASSI
100
AcDbLine
 62
253
  6
CONTINUOUS
 10
116.409320869
 20
43.359506865
 11
116.4682259931
 21
43.4019164037
  0
LINE
  5
34D
100
AcDbEntity
  8
RACCORDO
100
AcDbLine
 62
253
  6
CONTINUOUS
 10
207.0944444444
 20
137.0298319465
 11
235.4444444444
 21
137.0298319465
  0
LINE
  5
34E
100
AcDbEntity
  8
ASSI
100
AcDbLine
 62
253
  6
CONTINUOUS
 10
207.0944444444
 20
137.0298319465
 11
235.4444444444
 21
137.0298319465
  0
LINE
  5
34F
100
AcDbEntity
  8
RACCORDO
100
AcDbLine
 62
253
  6
CONTINUOUS
 10
88.4444444444
 20
137.0298319465
 11
116.7944444444
 21
137.0298319465
  0
LINE
  5
350
100
AcDbEntity
  8
ASSI
100
AcDbLine
 62
253
  6
CONTINUOUS
 10
88.4444444444
 20
137.0298319465
 11
116.7944444444
 21
137.0298319465
  0
LWPOLYLINE
  5
351
100
AcDbEntity
  8
0
100
AcDbPolyline
 62
7
  6
CONTINUOUS
 90
10
 70
0
 43
0.3500000006
 10
163.015875
 20
200.3868323364
 10
163.0872971191
 20
200.2439699707
 10
163.0872971191
 20
200.1725478516
 10
162.9444528809
 20
200.0296854858
 10
162.8730126343
 20
200.0296854858
 10
162.8015905151
 20
200.1011257324
 10
162.8015905151
 20
200.1725478516
 10
162.8730126343
 20
200.3154102173
 10
162.9444528809
 20
200.3868323364
 10
163.015875
 20
200.3868323364
  0
LWPOLYLINE
  5
352
100
AcDbEntity
  8
RACCORDO
100
AcDbPolyline
 62
7
  6
CONTINUOUS
 90
22
 70
0
 10
207.0944444507
 20
158.8308927511
 10
207.0928888321
 20
158.8790379091
 10
207.0882888948
 20
158.926682563
 10
207.0806446387
 20
158.9738267202
 10
207.06989078
 20
159.0207042196
 10
207.0560926025
 20
159.0670812342
 10
207.039445958
 20
159.1122562834
 10
207.0199538541
 20
159.1561278957
 10
206.9976132832
 20
159.1987975782
 10
206.9726110736
 20
159.2398683334
 10
206.9448829211
 20
159.2793903827
 10
206.91449313
 20
159.3173135466
 10
206.8818214418
 20
159.3530902371
 10
206.8467783435
 20
159.3867052586
 10
206.8094533481
 20
159.4181738565
 10
206.7704947362
 20
159.4469941145
 10
206.7299554058
 20
159.4730610274
 10
206.6877824588
 20
159.49647965
 10
206.6444654818
 20
159.5170631596
 10
206.60016767
 20
159.5347492951
 10
206.5547258281
 20
159.5496003546
 10
206.508139956
 20
159.5616163524
  0
LWPOLYLINE
  5
353
100
AcDbEntity
  8
ASSI
100
AcDbPolyline
 62
7
  6
CONTINUOUS
 90
22
 70
0
 10
207.0944444507
 20
158.8308927511
 10
207.0928888321
 20
158.8790379091
 10
207.0882888948
 20
158.926682563
 10
207.0806446387
 20
158.9738267202
 10
207.06989078
 20
159.0207042196
 10
207.0560926025
 20
159.0670812342
 10
207.039445958
 20
159.1122562834
 10
207.0199538541
 20
159.1561278957
 10
206.9976132832
 20
159.1987975782
 10
206.9726110736
 20
159.2398683334
 10
206.9448829211
 20
159.2793903827
 10
206.91449313
 20
159.3173135466
 10
206.8818214418
 20
159.3530902371
 10
206.8467783435
 20
159.3867052586
 10
206.8094533481
 20
159.4181738565
 10
206.7704947362
 20
159.4469941145
 10
206.7299554058
 20
159.4730610274
 10
206.6877824588
 20
159.49647965
 10
206.6444654818
 20
159.5170631596
 10
206.60016767
 20
159.5347492951
 10
206.5547258281
 20
159.5496003546
 10
206.508139956
 20
159.5616163524
  0
LINE
  5
354
100
AcDbEntity
  8
RACCORDO
100
AcDbLine
 62
253
  6
CONTINUOUS
 10
206.4615788054
 20
160.223984925
 11
206.4615788055
 21
159.6975875687
  0
LINE
  5
355
100
AcDbEntity
  8
ASSI
100
AcDbLine
 62
253
  6
CONTINUOUS
 10
206.4615788054
 20
160.223984925
 11
206.4615788055
 21
159.6975875687
  0
LINE
  5
356
100
AcDbEntity
  8
RACCORDO
100
AcDbLine
 62
253
  6
CONTINUOUS
 10
206.4615788054
 20
42.8356789679
 11
206.4615788054
 21
43.3620763242
  0
LINE
  5
357
100
AcDbEntity
  8
ASSI
100
AcDbLine
 62
253
  6
CONTINUOUS
 10
206.4615788054
 20
42.8356789679
 11
206.4615788054
 21
43.3620763242
  0
LINE
  5
358
100
AcDbEntity
  8
DRAFT
100
AcDbLine
 62
7
  6
CONTINUOUS
 10
207.0944444444
 20
137.0298319465
 11
207.0944444444
 21
66.0298319465
  0
LINE
  5
359
100
AcDbEntity
  8
RACCORDO
100
AcDbLine
 62
7
  6
CONTINUOUS
 10
207.0944444507
 20
44.2287711418
 11
207.0944444444
 21
66.0298319465
  0
LINE
  5
35A
100
AcDbEntity
  8
RACCORDO
100
AcDbLine
 62
7
  6
CONTINUOUS
 10
207.0944444444
 20
137.0298319465
 11
207.0944444507
 21
158.8308927511
  0
LINE
  5
35B
100
AcDbEntity
  8
ASSI
100
AcDbLine
 62
7
  6
CONTINUOUS
 10
207.0944444507
 20
44.2287711418
 11
207.0944444507
 21
158.8308927511
  0
LINE
  5
35C
100
AcDbEntity
  8
RACCORDO
100
AcDbLine
 62
253
  6
CONTINUOUS
 10
207.2138778182
 20
158.9500359988
 11
207.2138778135
 21
44.1096383634
  0
LINE
  5
35D
100
AcDbEntity
  8
ASSI
100
AcDbLine
 62
253
  6
CONTINUOUS
 10
207.2138778182
 20
158.9500359988
 11
207.2138778135
 21
44.1096383634
  0
LINE
  5
35E
100
AcDbEntity
  8
RACCORDO
100
AcDbLine
 62
253
  6
CONTINUOUS
 10
207.7131909275
 20
158.9731074877
 11
207.7131909275
 21
44.0865564052
  0
LINE
  5
35F
100
AcDbEntity
  8
ASSI
100
AcDbLine
 62
253
  6
CONTINUOUS
 10
207.7131909275
 20
158.9731074877
 11
207.7131909275
 21
44.0865564052
  0
LWPOLYLINE
  5
360
100
AcDbEntity
  8
RACCORDO
100
AcDbPolyline
 62
253
  6
CONTINUOUS
 90
13
 70
0
 10
207.7131909275
 20
44.0865564052
 10
207.7117538141
 20
44.0238286743
 10
207.7069790045
 20
43.9609790047
 10
207.6988664988
 20
43.8980074002
 10
207.6874134299
 20
43.8346064378
 10
207.6726226648
 20
43.7710835523
 10
207.6545028043
 20
43.7083610149
 10
207.6329204865
 20
43.6464191845
 10
207.6080090732
 20
43.5852776718
 10
207.5801772513
 20
43.5259175866
 10
207.5495612495
 20
43.468665934
 10
207.5160248391
 20
43.4131956372
 10
207.4795680199
 20
43.3595066638
  0
LWPOLYLINE
  5
361
100
AcDbEntity
  8
ASSI
100
AcDbPolyline
 62
253
  6
CONTINUOUS
 90
13
 70
0
 10
207.7131909275
 20
44.0865564052
 10
207.7117538141
 20
44.0238286743
 10
207.7069790045
 20
43.9609790047
 10
207.6988664988
 20
43.8980074002
 10
207.6874134299
 20
43.8346064378
 10
207.6726226648
 20
43.7710835523
 10
207.6545028043
 20
43.7083610149
 10
207.6329204865
 20
43.6464191845
 10
207.6080090732
 20
43.5852776718
 10
207.5801772513
 20
43.5259175866
 10
207.5495612495
 20
43.468665934
 10
207.5160248391
 20
43.4131956372
 10
207.4795680199
 20
43.3595066638
  0
LWPOLYLINE
  5
362
100
AcDbEntity
  8
RACCORDO
100
AcDbPolyline
 62
253
  6
CONTINUOUS
 90
13
 70
0
 10
207.213877803
 20
44.1096383738
 10
207.2129424582
 20
44.0722036191
 10
207.2100917452
 20
44.0345007078
 10
207.2052773712
 20
43.9966297619
 10
207.1984412593
 20
43.9586242973
 10
207.1895528466
 20
43.9206682338
 10
207.1786466538
 20
43.883087128
 10
207.1657207791
 20
43.8459668526
 10
207.1507953431
 20
43.8094413654
 10
207.1340234008
 20
43.7738842025
 10
207.1155208847
 20
43.7394690704
 10
207.0953183335
 20
43.7061890724
 10
207.0734896286
 20
43.6741225098
  0
LWPOLYLINE
  5
363
100
AcDbEntity
  8
ASSI
100
AcDbPolyline
 62
253
  6
CONTINUOUS
 90
13
 70
0
 10
207.213877803
 20
44.1096383738
 10
207.2129424582
 20
44.0722036191
 10
207.2100917452
 20
44.0345007078
 10
207.2052773712
 20
43.9966297619
 10
207.1984412593
 20
43.9586242973
 10
207.1895528466
 20
43.9206682338
 10
207.1786466538
 20
43.883087128
 10
207.1657207791
 20
43.8459668526
 10
207.1507953431
 20
43.8094413654
 10
207.1340234008
 20
43.7738842025
 10
207.1155208847
 20
43.7394690704
 10
207.0953183335
 20
43.7061890724
 10
207.0734896286
 20
43.6741225098
  0
LWPOLYLINE
  5
364
100
AcDbEntity
  8
0
100
AcDbPolyline
 62
7
  6
CONTINUOUS
 90
10
 70
0
 43
0.3500000006
 10
248.8387780151
 20
103.3512638855
 10
248.9816403809
 20
103.4226860046
 10
249.0530625
 20
103.4226860046
 10
249.1959248657
 20
103.2798327026
 10
249.1959248657
 20
103.2084015198
 10
249.1245027466
 20
103.1369703369
 10
249.0530625
 20
103.1369703369
 10
248.9102182617
 20
103.2084015198
 10
248.8387780151
 20
103.2798327026
 10
248.8387780151
 20
103.3512638855
  0
LWPOLYLINE
  5
365
100
AcDbEntity
  8
RACCORDO
100
AcDbPolyline
 62
253
  6
CONTINUOUS
 90
15
 70
0
 10
207.4707952841
 20
158.9700539394
 10
207.4398367468
 20
158.9691447501
 10
207.410306627
 20
158.9681288627
 10
207.382359235
 20
158.9670115855
 10
207.3561406105
 20
158.965798757
 10
207.3317877593
 20
158.9644967149
 10
207.3094279379
 20
158.963112263
 10
207.2891779878
 20
158.9616526357
 10
207.2711437255
 20
158.9601254604
 10
207.2554193895
 20
158.9585387174
 10
207.2420871477
 20
158.9569006982
 10
207.2312166677
 20
158.9552199624
 10
207.2228647537
 20
158.9535052925
 10
207.2170750486
 20
158.9517656488
 10
207.2138778067
 20
158.9500101216
  0
LWPOLYLINE
  5
366
100
AcDbEntity
  8
ASSI
100
AcDbPolyline
 62
253
  6
CONTINUOUS
 90
15
 70
0
 10
207.4707952841
 20
158.9700539394
 10
207.4398367468
 20
158.9691447501
 10
207.410306627
 20
158.9681288627
 10
207.382359235
 20
158.9670115855
 10
207.3561406105
 20
158.965798757
 10
207.3317877593
 20
158.9644967149
 10
207.3094279379
 20
158.963112263
 10
207.2891779878
 20
158.9616526357
 10
207.2711437255
 20
158.9601254604
 10
207.2554193895
 20
158.9585387174
 10
207.2420871477
 20
158.9569006982
 10
207.2312166677
 20
158.9552199624
 10
207.2228647537
 20
158.9535052925
 10
207.2170750486
 20
158.9517656488
 10
207.2138778067
 20
158.9500101216
  0
LINE
  5
367
100
AcDbEntity
  8
RACCORDO
100
AcDbLine
 62
253
  6
CONTINUOUS
 10
207.536343895
 20
158.9715338018
 11
207.4707952841
 21
158.9700539394
  0
LINE
  5
368
100
AcDbEntity
  8
ASSI
100
AcDbLine
 62
253
  6
CONTINUOUS
 10
207.536343895
 20
158.9715338018
 11
207.4707952841
 21
158.9700539394
  0
LINE
  5
369
100
AcDbEntity
  8
RACCORDO
100
AcDbLine
 62
253
  6
CONTINUOUS
 10
207.6055841474
 20
158.972537558
 11
207.536343895
 21
158.9715338018
  0
LINE
  5
36A
100
AcDbEntity
  8
ASSI
100
AcDbLine
 62
253
  6
CONTINUOUS
 10
207.6055841474
 20
158.972537558
 11
207.536343895
 21
158.9715338018
  0
LWPOLYLINE
  5
36B
100
AcDbEntity
  8
RACCORDO
100
AcDbPolyline
 62
253
  6
CONTINUOUS
 90
3
 70
0
 10
207.7131909275
 20
158.9731074877
 10
207.6770706667
 20
158.9730442548
 10
207.6055841474
 20
158.972537558
  0
LWPOLYLINE
  5
36C
100
AcDbEntity
  8
ASSI
100
AcDbPolyline
 62
253
  6
CONTINUOUS
 90
3
 70
0
 10
207.7131909275
 20
158.9731074877
 10
207.6770706667
 20
158.9730442548
 10
207.6055841474
 20
158.972537558
  0
LINE
  5
36D
100
AcDbEntity
  8
RACCORDO
100
AcDbLine
 62
253
  6
CONTINUOUS
 10
116.1756979614
 20
158.9731073577
 11
116.2477498926
 21
158.9728538425
  0
LINE
  5
36E
100
AcDbEntity
  8
ASSI
100
AcDbLine
 62
253
  6
CONTINUOUS
 10
116.1756979614
 20
158.9731073577
 11
116.2477498926
 21
158.9728538425
  0
LINE
  5
36F
100
AcDbEntity
  8
RACCORDO
100
AcDbLine
 62
253
  6
CONTINUOUS
 10
116.2477498926
 20
158.9728538425
 11
116.3182978183
 21
158.9720966609
  0
LINE
  5
370
100
AcDbEntity
  8
ASSI
100
AcDbLine
 62
253
  6
CONTINUOUS
 10
116.2477498926
 20
158.9728538425
 11
116.3182978183
 21
158.9720966609
  0
LWPOLYLINE
  5
371
100
AcDbEntity
  8
RACCORDO
100
AcDbPolyline
 62
253
  6
CONTINUOUS
 90
17
 70
0
 10
116.3182978183
 20
158.9720966609
 10
116.385869053
 20
158.9708516189
 10
116.4180943713
 20
158.9700538878
 10
116.4490530498
 20
158.9691447068
 10
116.4785833118
 20
158.9681288268
 10
116.506530845
 20
158.9670115564
 10
116.5327496077
 20
158.9657987339
 10
116.5571025919
 20
158.9644966971
 10
116.5794625394
 20
158.9631122498
 10
116.599712607
 20
158.9616526265
 10
116.6177469764
 20
158.9601254546
 10
116.6334714079
 20
158.9585387144
 10
116.6468037323
 20
158.9569006976
 10
116.6576742808
 20
158.9552199638
 10
116.6660262485
 20
158.9535052956
 10
116.6718159917
 20
158.9517656532
 10
116.6750132556
 20
158.9500101273
  0
LWPOLYLINE
  5
372
100
AcDbEntity
  8
ASSI
100
AcDbPolyline
 62
253
  6
CONTINUOUS
 90
17
 70
0
 10
116.3182978183
 20
158.9720966609
 10
116.385869053
 20
158.9708516189
 10
116.4180943713
 20
158.9700538878
 10
116.4490530498
 20
158.9691447068
 10
116.4785833118
 20
158.9681288268
 10
116.506530845
 20
158.9670115564
 10
116.5327496077
 20
158.9657987339
 10
116.5571025919
 20
158.9644966971
 10
116.5794625394
 20
158.9631122498
 10
116.599712607
 20
158.9616526265
 10
116.6177469764
 20
158.9601254546
 10
116.6334714079
 20
158.9585387144
 10
116.6468037323
 20
158.9569006976
 10
116.6576742808
 20
158.9552199638
 10
116.6660262485
 20
158.9535052956
 10
116.6718159917
 20
158.9517656532
 10
116.6750132556
 20
158.9500101273
  0
LWPOLYLINE
  5
373
100
AcDbEntity
  8
RACCORDO
100
AcDbPolyline
 62
7
  6
CONTINUOUS
 90
7
 70
0
 10
117.5453676688
 20
159.5798319465
 10
117.5178012864
 20
159.5793348918
 10
117.4902868745
 20
159.5778222895
 10
117.4628244332
 20
159.5752941379
 10
117.4354139625
 20
159.571750434
 10
117.4080554624
 20
159.5671911739
 10
117.3807489328
 20
159.5616163524
  0
LWPOLYLINE
  5
374
100
AcDbEntity
  8
ASSI
100
AcDbPolyline
 62
7
  6
CONTINUOUS
 90
7
 70
0
 10
117.5453676688
 20
159.5798319465
 10
117.5178012864
 20
159.5793348918
 10
117.4902868745
 20
159.5778222895
 10
117.4628244332
 20
159.5752941379
 10
117.4354139625
 20
159.571750434
 10
117.4080554624
 20
159.5671911739
 10
117.3807489328
 20
159.5616163524
  0
LWPOLYLINE
  5
375
100
AcDbEntity
  8
RACCORDO
100
AcDbPolyline
 62
253
  6
CONTINUOUS
 90
16
 70
0
 10
89.042994602
 20
159.5711117242
 10
89.0035019886
 20
159.5705257081
 10
88.9651080374
 20
159.5697788037
 10
88.9280733639
 20
159.5688760809
 10
88.8926493567
 20
159.5678236672
 10
88.8590764713
 20
159.5666287064
 10
88.827582598
 20
159.5652993097
 10
88.7983815149
 20
159.5638445012
 10
88.7716714368
 20
159.5622741557
 10
88.7476336698
 20
159.5605989329
 10
88.7264313805
 20
159.5588302039
 10
88.7082084883
 20
159.5569799747
 10
88.6930886891
 20
159.5550608046
 10
88.6811746148
 20
159.5530857207
 10
88.6725471373
 20
159.5510681299
 10
88.6672648194
 20
159.5490217272
  0
LWPOLYLINE
  5
376
100
AcDbEntity
  8
ASSI
100
AcDbPolyline
 62
253
  6
CONTINUOUS
 90
16
 70
0
 10
89.042994602
 20
159.5711117242
 10
89.0035019886
 20
159.5705257081
 10
88.9651080374
 20
159.5697788037
 10
88.9280733639
 20
159.5688760809
 10
88.8926493567
 20
159.5678236672
 10
88.8590764713
 20
159.5666287064
 10
88.827582598
 20
159.5652993097
 10
88.7983815149
 20
159.5638445012
 10
88.7716714368
 20
159.5622741557
 10
88.7476336698
 20
159.5605989329
 10
88.7264313805
 20
159.5588302039
 10
88.7082084883
 20
159.5569799747
 10
88.6930886891
 20
159.5550608046
 10
88.6811746148
 20
159.5530857207
 10
88.6725471373
 20
159.5510681299
 10
88.6672648194
 20
159.5490217272
  0
LWPOLYLINE
  5
377
100
AcDbEntity
  8
RACCORDO
100
AcDbPolyline
 62
253
  6
CONTINUOUS
 90
16
 70
0
 10
89.0430018877
 20
159.699401469
 10
89.0035093759
 20
159.6988144149
 10
88.9651155172
 20
159.698065494
 10
88.9280809249
 20
159.6971597897
 10
88.8926569857
 20
159.6961034498
 10
88.8590841533
 20
159.6949036447
 10
88.8275903163
 20
159.6935685186
 10
88.7983892514
 20
159.6921071341
 10
88.7716791722
 20
159.6905294109
 10
88.7476413836
 20
159.6888460584
 10
88.7264390516
 20
159.6870685031
 10
88.7082160951
 20
159.6852088108
 10
88.6930962097
 20
159.6832796048
 10
88.6811820272
 20
159.6812939805
 10
88.67255442
 20
159.6792654159
 10
88.6672719512
 20
159.6772076809
  0
LWPOLYLINE
  5
378
100
AcDbEntity
  8
ASSI
100
AcDbPolyline
 62
253
  6
CONTINUOUS
 90
16
 70
0
 10
89.0430018877
 20
159.699401469
 10
89.0035093759
 20
159.6988144149
 10
88.9651155172
 20
159.698065494
 10
88.9280809249
 20
159.6971597897
 10
88.8926569857
 20
159.6961034498
 10
88.8590841533
 20
159.6949036447
 10
88.8275903163
 20
159.6935685186
 10
88.7983892514
 20
159.6921071341
 10
88.7716791722
 20
159.6905294109
 10
88.7476413836
 20
159.6888460584
 10
88.7264390516
 20
159.6870685031
 10
88.7082160951
 20
159.6852088108
 10
88.6930962097
 20
159.6832796048
 10
88.6811820272
 20
159.6812939805
 10
88.67255442
 20
159.6792654159
 10
88.6672719512
 20
159.6772076809
  0
LINE
  5
379
100
AcDbEntity
  8
RACCORDO
100
AcDbLine
 62
253
  6
CONTINUOUS
 10
89.12420495
 20
159.7000751625
 11
89.0430018877
 21
159.699401469
  0
LINE
  5
37A
100
AcDbEntity
  8
ASSI
100
AcDbLine
 62
253
  6
CONTINUOUS
 10
89.12420495
 20
159.7000751625
 11
89.0430018877
 21
159.699401469
  0
LWPOLYLINE
  5
37B
100
AcDbEntity
  8
RACCORDO
100
AcDbPolyline
 62
253
  6
CONTINUOUS
 90
3
 70
0
 10
89.1653573548
 20
159.5718702786
 10
89.1241978861
 20
159.5717862989
 10
89.042994602
 20
159.5711117242
  0
LWPOLYLINE
  5
37C
100
AcDbEntity
  8
ASSI
100
AcDbPolyline
 62
253
  6
CONTINUOUS
 90
3
 70
0
 10
89.1653573548
 20
159.5718702786
 10
89.1241978861
 20
159.5717862989
 10
89.042994602
 20
159.5711117242
  0
LINE
  5
37D
100
AcDbEntity
  8
RACCORDO
100
AcDbLine
 62
253
  6
CONTINUOUS
 10
88.6672648193
 20
159.5490217272
 11
88.4444444444
 21
159.5490217272
  0
LINE
  5
37E
100
AcDbEntity
  8
ASSI
100
AcDbLine
 62
253
  6
CONTINUOUS
 10
88.6672648193
 20
159.5490217272
 11
88.4444444444
 21
159.5490217272
  0
LINE
  5
37F
100
AcDbEntity
  8
RACCORDO
100
AcDbLine
 62
253
  6
CONTINUOUS
 10
235.2216240696
 20
159.5490217272
 11
235.4444444444
 21
159.5490217272
  0
LINE
  5
380
100
AcDbEntity
  8
ASSI
100
AcDbLine
 62
253
  6
CONTINUOUS
 10
235.2216240696
 20
159.5490217272
 11
235.4444444444
 21
159.5490217272
  0
LINE
  5
381
100
AcDbEntity
  8
RACCORDO
100
AcDbLine
 62
7
  6
CONTINUOUS
 10
206.34352122
 20
159.5798319465
 11
117.5453676688
 21
159.5798319465
  0
LINE
  5
382
100
AcDbEntity
  8
ASSI
100
AcDbLine
 62
7
  6
CONTINUOUS
 10
206.34352122
 20
159.5798319465
 11
117.5453676688
 21
159.5798319465
  0
LINE
  5
383
100
AcDbEntity
  8
RACCORDO
100
AcDbLine
 62
253
  6
CONTINUOUS
 10
117.4272831879
 20
159.6975875687
 11
206.4615942752
 21
159.6975875687
  0
LINE
  5
384
100
AcDbEntity
  8
ASSI
100
AcDbLine
 62
253
  6
CONTINUOUS
 10
117.4272831879
 20
159.6975875687
 11
206.4615942752
 21
159.6975875687
  0
LINE
  5
385
100
AcDbEntity
  8
RACCORDO
100
AcDbLine
 62
253
  6
CONTINUOUS
 10
116.4093208689
 20
159.7001572291
 11
89.12420495
 21
159.7000751625
  0
LINE
  5
386
100
AcDbEntity
  8
ASSI
100
AcDbLine
 62
253
  6
CONTINUOUS
 10
116.4093208689
 20
159.7001572291
 11
89.12420495
 21
159.7000751625
  0
LINE
  5
387
100
AcDbEntity
  8
RACCORDO
100
AcDbLine
 62
253
  6
CONTINUOUS
 10
117.4273100835
 20
160.223984925
 11
206.4615788054
 21
160.223984925
  0
LINE
  5
388
100
AcDbEntity
  8
ASSI
100
AcDbLine
 62
253
  6
CONTINUOUS
 10
117.4273100835
 20
160.223984925
 11
206.4615788054
 21
160.223984925
  0
LINE
  5
389
100
AcDbEntity
  8
RACCORDO
100
AcDbLine
 62
253
  6
CONTINUOUS
 10
207.4795680199
 20
159.7001572291
 11
234.7646839361
 21
159.70007516
  0
LINE
  5
38A
100
AcDbEntity
  8
ASSI
100
AcDbLine
 62
253
  6
CONTINUOUS
 10
207.4795680199
 20
159.7001572291
 11
234.7646839361
 21
159.70007516
  0
LWPOLYLINE
  5
38B
100
AcDbEntity
  8
RACCORDO
100
AcDbPolyline
 62
253
  6
CONTINUOUS
 90
18
 70
0
 10
234.7235315341
 20
159.5718702787
 10
234.8055710841
 20
159.571532874
 10
234.845894287
 20
159.5711117242
 10
234.8853869005
 20
159.5705257082
 10
234.9237808517
 20
159.5697788037
 10
234.9608155252
 20
159.5688760809
 10
234.9962395324
 20
159.5678236672
 10
235.0298124179
 20
159.5666287064
 10
235.0613062912
 20
159.5652993098
 10
235.0905073742
 20
159.5638445012
 10
235.1172174523
 20
159.5622741558
 10
235.1412552193
 20
159.5605989329
 10
235.1624575087
 20
159.5588302039
 10
235.1806804008
 20
159.5569799747
 10
235.1958002
 20
159.5550608046
 10
235.2077142743
 20
159.5530857207
 10
235.2163417517
 20
159.5510681299
 10
235.2216240696
 20
159.5490217272
  0
LWPOLYLINE
  5
38C
100
AcDbEntity
  8
ASSI
100
AcDbPolyline
 62
253
  6
CONTINUOUS
 90
18
 70
0
 10
234.7235315341
 20
159.5718702787
 10
234.8055710841
 20
159.571532874
 10
234.845894287
 20
159.5711117242
 10
234.8853869005
 20
159.5705257082
 10
234.9237808517
 20
159.5697788037
 10
234.9608155252
 20
159.5688760809
 10
234.9962395324
 20
159.5678236672
 10
235.0298124179
 20
159.5666287064
 10
235.0613062912
 20
159.5652993098
 10
235.0905073742
 20
159.5638445012
 10
235.1172174523
 20
159.5622741558
 10
235.1412552193
 20
159.5605989329
 10
235.1624575087
 20
159.5588302039
 10
235.1806804008
 20
159.5569799747
 10
235.1958002
 20
159.5550608046
 10
235.2077142743
 20
159.5530857207
 10
235.2163417517
 20
159.5510681299
 10
235.2216240696
 20
159.5490217272
  0
LWPOLYLINE
  5
38D
100
AcDbEntity
  8
RACCORDO
100
AcDbPolyline
 62
253
  6
CONTINUOUS
 90
17
 70
0
 10
234.7646839361
 20
159.70007516
 10
234.845886993
 20
159.6994014665
 10
234.8853795023
 20
159.6988144125
 10
234.9237733588
 20
159.6980654917
 10
234.9608079491
 20
159.6971597875
 10
234.9962318867
 20
159.6961034478
 10
235.0298047178
 20
159.6949036429
 10
235.0612985539
 20
159.6935685169
 10
235.0904996184
 20
159.6921071325
 10
235.1172096977
 20
159.6905294095
 10
235.1412474867
 20
159.6888460572
 10
235.1624498198
 20
159.6870685021
 10
235.1806727779
 20
159.68520881
 10
235.1957926655
 20
159.6832796042
 10
235.2077068505
 20
159.6812939801
 10
235.2163344609
 20
159.6792654158
 10
235.2216169334
 20
159.6772076809
  0
LWPOLYLINE
  5
38E
100
AcDbEntity
  8
ASSI
100
AcDbPolyline
 62
253
  6
CONTINUOUS
 90
17
 70
0
 10
234.7646839361
 20
159.70007516
 10
234.845886993
 20
159.6994014665
 10
234.8853795023
 20
159.6988144125
 10
234.9237733588
 20
159.6980654917
 10
234.9608079491
 20
159.6971597875
 10
234.9962318867
 20
159.6961034478
 10
235.0298047178
 20
159.6949036429
 10
235.0612985539
 20
159.6935685169
 10
235.0904996184
 20
159.6921071325
 10
235.1172096977
 20
159.6905294095
 10
235.1412474867
 20
159.6888460572
 10
235.1624498198
 20
159.6870685021
 10
235.1806727779
 20
159.68520881
 10
235.1957926655
 20
159.6832796042
 10
235.2077068505
 20
159.6812939801
 10
235.2163344609
 20
159.6792654158
 10
235.2216169334
 20
159.6772076809
  0
LWPOLYLINE
  5
38F
100
AcDbEntity
  8
RACCORDO
100
AcDbPolyline
 62
253
  6
CONTINUOUS
 90
19
 70
0
 10
206.4615943034
 20
159.6975875967
 10
206.5005065095
 20
159.6966565196
 10
206.5394934359
 20
159.6937044597
 10
206.578448075
 20
159.6887119562
 10
206.6172823098
 20
159.6816614707
 10
206.6558629612
 20
159.6725466865
 10
206.6940146731
 20
159.6613834881
 10
206.7316457622
 20
159.6481783442
 10
206.7686241373
 20
159.6329568408
 10
206.8047237908
 20
159.6158010134
 10
206.8398208541
 20
159.5967743455
 10
206.8738414295
 20
159.5759217814
 10
206.9066504757
 20
159.5533304121
 10
206.9381463546
 20
159.5290836926
 10
206.9682627167
 20
159.5032468672
 10
206.996926847
 20
159.4758912805
 10
207.0240659721
 20
159.4470962323
 10
207.0496085209
 20
159.4169499718
 10
207.0734896286
 20
159.3855413831
  0
LWPOLYLINE
  5
390
100
AcDbEntity
  8
ASSI
100
AcDbPolyline
 62
253
  6
CONTINUOUS
 90
19
 70
0
 10
206.4615943034
 20
159.6975875967
 10
206.5005065095
 20
159.6966565196
 10
206.5394934359
 20
159.6937044597
 10
206.578448075
 20
159.6887119562
 10
206.6172823098
 20
159.6816614707
 10
206.6558629612
 20
159.6725466865
 10
206.6940146731
 20
159.6613834881
 10
206.7316457622
 20
159.6481783442
 10
206.7686241373
 20
159.6329568408
 10
206.8047237908
 20
159.6158010134
 10
206.8398208541
 20
159.5967743455
 10
206.8738414295
 20
159.5759217814
 10
206.9066504757
 20
159.5533304121
 10
206.9381463546
 20
159.5290836926
 10
206.9682627167
 20
159.5032468672
 10
206.996926847
 20
159.4758912805
 10
207.0240659721
 20
159.4470962323
 10
207.0496085209
 20
159.4169499718
 10
207.0734896286
 20
159.3855413831
  0
LWPOLYLINE
  5
391
100
AcDbEntity
  8
RACCORDO
100
AcDbPolyline
 62
253
  6
CONTINUOUS
 90
19
 70
0
 10
206.4615788054
 20
160.223984925
 10
206.5265664894
 20
160.2223560658
 10
206.5913373027
 20
160.2172940526
 10
206.6558912452
 20
160.2087988649
 10
206.7204560506
 20
160.1968572038
 10
206.7848039852
 20
160.1814822858
 10
206.848251848
 20
160.1627138439
 10
206.91081356
 20
160.1404800543
 10
206.9724752002
 20
160.114852578
 10
207.0325118037
 20
160.0860863643
 10
207.0908581471
 20
160.0541468098
 10
207.147579454
 20
160.0190682997
 10
207.2021464296
 20
159.9812092734
 10
207.2545189657
 20
159.9405490439
 10
207.3047371707
 20
159.8971080551
 10
207.3523920755
 20
159.8513064663
 10
207.3973473571
 20
159.8032842608
 10
207.4397393386
 20
159.7529012234
 10
207.4795680199
 20
159.7001572291
  0
LWPOLYLINE
  5
392
100
AcDbEntity
  8
ASSI
100
AcDbPolyline
 62
253
  6
CONTINUOUS
 90
19
 70
0
 10
206.4615788054
 20
160.223984925
 10
206.5265664894
 20
160.2223560658
 10
206.5913373027
 20
160.2172940526
 10
206.6558912452
 20
160.2087988649
 10
206.7204560506
 20
160.1968572038
 10
206.7848039852
 20
160.1814822858
 10
206.848251848
 20
160.1627138439
 10
206.91081356
 20
160.1404800543
 10
206.9724752002
 20
160.114852578
 10
207.0325118037
 20
160.0860863643
 10
207.0908581471
 20
160.0541468098
 10
207.147579454
 20
160.0190682997
 10
207.2021464296
 20
159.9812092734
 10
207.2545189657
 20
159.9405490439
 10
207.3047371707
 20
159.8971080551
 10
207.3523920755
 20
159.8513064663
 10
207.3973473571
 20
159.8032842608
 10
207.4397393386
 20
159.7529012234
 10
207.4795680199
 20
159.7001572291
  0
LWPOLYLINE
  5
393
100
AcDbEntity
  8
RACCORDO
100
AcDbPolyline
 62
7
  6
CONTINUOUS
 90
7
 70
0
 10
206.508139956
 20
159.5616163524
 10
206.4808197616
 20
159.5671926807
 10
206.4534530626
 20
159.5717528449
 10
206.4260398589
 20
159.5752968501
 10
206.3985801506
 20
159.5778247004
 10
206.3710739376
 20
159.5793363986
 10
206.34352122
 20
159.5798319465
  0
LWPOLYLINE
  5
394
100
AcDbEntity
  8
ASSI
100
AcDbPolyline
 62
7
  6
CONTINUOUS
 90
7
 70
0
 10
206.508139956
 20
159.5616163524
 10
206.4808197616
 20
159.5671926807
 10
206.4534530626
 20
159.5717528449
 10
206.4260398589
 20
159.5752968501
 10
206.3985801506
 20
159.5778247004
 10
206.3710739376
 20
159.5793363986
 10
206.34352122
 20
159.5798319465
  0
LWPOLYLINE
  5
395
100
AcDbEntity
  8
0
100
AcDbPolyline
 62
7
  6
CONTINUOUS
 90
3
 70
0
 43
0.3500000006
 10
247.1959242554
 20
96.9226930847
 10
246.3387863159
 20
97.7798310242
 10
249.3387872314
 20
97.7798310242
  0
LWPOLYLINE
  5
396
100
AcDbEntity
  8
0
100
AcDbPolyline
 62
7
  6
CONTINUOUS
 90
3
 70
0
 43
0.3500000006
 10
247.1959242554
 20
98.6369780273
 10
246.3387863159
 20
99.4941159668
 10
249.3387872314
 20
99.4941159668
  0
LWPOLYLINE
  5
397
100
AcDbEntity
  8
0
100
AcDbPolyline
 62
7
  6
CONTINUOUS
 90
10
 70
0
 43
0.3500000006
 10
246.3387863159
 20
101.4226853943
 10
246.9816397705
 20
100.7798319397
 10
247.83877771
 20
100.35126297
 10
248.9102182617
 20
100.35126297
 10
249.3387872314
 20
100.7798319397
 10
249.3387872314
 20
101.4226853943
 10
248.9102182617
 20
101.8512634277
 10
248.0530803223
 20
101.8512634277
 10
247.6244932251
 20
101.4226853943
 10
247.6244932251
 20
100.494116272
  0
LWPOLYLINE
  5
398
100
AcDbEntity
  8
0
100
AcDbPolyline
 62
7
  6
CONTINUOUS
 90
3
 70
0
 43
0.3500000006
 10
247.1959242554
 20
104.4226863098
 10
246.3387863159
 20
105.279833313
 10
249.3387872314
 20
105.279833313
  0
LWPOLYLINE
  5
399
100
AcDbEntity
  8
RACCORDO
100
AcDbPolyline
 62
7
  6
CONTINUOUS
 90
22
 70
0
 10
117.3807489328
 20
159.5616163524
 10
117.3341002777
 20
159.5495748233
 10
117.2886163473
 20
159.5347053987
 10
117.2442971419
 20
159.5170080645
 10
117.2009860535
 20
159.4964214876
 10
117.15883969
 20
159.4730069642
 10
117.118327875
 20
159.4469484218
 10
117.0793958167
 20
159.4181458288
 10
117.0420983068
 20
159.3866991675
 10
117.0070695451
 20
159.3530923884
 10
116.9743875422
 20
159.3172971344
 10
116.9439742873
 20
159.2793417126
 10
116.9162299482
 20
159.2397950802
 10
116.8912271918
 20
159.1987126373
 10
116.868893351
 20
159.1560389421
 10
116.8494105932
 20
159.1121767006
 10
116.8327769249
 20
159.0670362765
 10
116.8189943395
 20
159.020707271
 10
116.8082509835
 20
158.9738612626
 10
116.8006095724
 20
158.9267221103
 10
116.7960073906
 20
158.8790659423
 10
116.7944444382
 20
158.8308927511
  0
LWPOLYLINE
  5
39A
100
AcDbEntity
  8
ASSI
100
AcDbPolyline
 62
7
  6
CONTINUOUS
 90
22
 70
0
 10
117.3807489328
 20
159.5616163524
 10
117.3341002777
 20
159.5495748233
 10
117.2886163473
 20
159.5347053987
 10
117.2442971419
 20
159.5170080645
 10
117.2009860535
 20
159.4964214876
 10
117.15883969
 20
159.4730069642
 10
117.118327875
 20
159.4469484218
 10
117.0793958167
 20
159.4181458288
 10
117.0420983068
 20
159.3866991675
 10
117.0070695451
 20
159.3530923884
 10
116.9743875422
 20
159.3172971344
 10
116.9439742873
 20
159.2793417126
 10
116.9162299482
 20
159.2397950802
 10
116.8912271918
 20
159.1987126373
 10
116.868893351
 20
159.1560389421
 10
116.8494105932
 20
159.1121767006
 10
116.8327769249
 20
159.0670362765
 10
116.8189943395
 20
159.020707271
 10
116.8082509835
 20
158.9738612626
 10
116.8006095724
 20
158.9267221103
 10
116.7960073906
 20
158.8790659423
 10
116.7944444382
 20
158.8308927511
  0
LWPOLYLINE
  5
39B
100
AcDbEntity
  8
0
100
AcDbPolyline
 62
7
  6
CONTINUOUS
 90
3
 70
0
 43
0.3500000006
 10
257.1959273071
 20
98.3155422363
 10
256.3387893677
 20
99.1726892395
 10
259.3387902832
 20
99.1726892395
  0
LWPOLYLINE
  5
39C
100
AcDbEntity
  8
0
100
AcDbPolyline
 62
7
  6
CONTINUOUS
 90
10
 70
0
 43
0.3500000006
 10
256.3387893677
 20
101.101258667
 10
256.9816428223
 20
100.4584052124
 10
257.8387807617
 20
100.0298362427
 10
258.9102213135
 20
100.0298362427
 10
259.3387902832
 20
100.4584052124
 10
259.3387902832
 20
101.101258667
 10
258.9102213135
 20
101.5298276367
 10
258.0530652466
 20
101.5298276367
 10
257.6244962769
 20
101.101258667
 10
257.6244962769
 20
100.1726895447
  0
LWPOLYLINE
  5
39D
100
AcDbEntity
  8
RACCORDO
100
AcDbPolyline
 62
253
  6
CONTINUOUS
 90
13
 70
0
 10
207.0734896286
 20
159.3855413831
 10
207.0951426094
 20
159.3537479523
 10
207.1152221065
 20
159.320716865
 10
207.1336491378
 20
159.2865207381
 10
207.1503828836
 20
159.2511585078
 10
207.1653070825
 20
159.2147888288
 10
207.178272387
 20
159.1777470111
 10
207.1892515219
 20
159.1401420864
 10
207.1982261971
 20
159.1020761131
 10
207.205144324
 20
159.0638990014
 10
207.2100266247
 20
159.025803495
 10
207.2129244999
 20
158.9878152348
 10
207.2138778002
 20
158.9500359812
  0
LWPOLYLINE
  5
39E
100
AcDbEntity
  8
ASSI
100
AcDbPolyline
 62
253
  6
CONTINUOUS
 90
13
 70
0
 10
207.0734896286
 20
159.3855413831
 10
207.0951426094
 20
159.3537479523
 10
207.1152221065
 20
159.320716865
 10
207.1336491378
 20
159.2865207381
 10
207.1503828836
 20
159.2511585078
 10
207.1653070825
 20
159.2147888288
 10
207.178272387
 20
159.1777470111
 10
207.1892515219
 20
159.1401420864
 10
207.1982261971
 20
159.1020761131
 10
207.205144324
 20
159.0638990014
 10
207.2100266247
 20
159.025803495
 10
207.2129244999
 20
158.9878152348
 10
207.2138778002
 20
158.9500359812
  0
LWPOLYLINE
  5
39F
100
AcDbEntity
  8
RACCORDO
100
AcDbPolyline
 62
253
  6
CONTINUOUS
 90
13
 70
0
 10
207.4795680199
 20
159.7001572291
 10
207.5157244213
 20
159.6469791137
 10
207.5490358149
 20
159.5919556773
 10
207.5795022008
 20
159.5350868866
 10
207.6072693714
 20
159.4760708122
 10
207.6321915344
 20
159.41520931
 10
207.6538313116
 20
159.3534080426
 10
207.6720678806
 20
159.2906566201
 10
207.6870220639
 20
159.2269653959
 10
207.6986189512
 20
159.1632711841
 10
207.7068335726
 20
159.0998862657
 10
207.711690898
 20
159.0364983665
 10
207.7131909275
 20
158.9731074877
  0
LWPOLYLINE
  5
3A0
100
AcDbEntity
  8
ASSI
100
AcDbPolyline
 62
253
  6
CONTINUOUS
 90
13
 70
0
 10
207.4795680199
 20
159.7001572291
 10
207.5157244213
 20
159.6469791137
 10
207.5490358149
 20
159.5919556773
 10
207.5795022008
 20
159.5350868866
 10
207.6072693714
 20
159.4760708122
 10
207.6321915344
 20
159.41520931
 10
207.6538313116
 20
159.3534080426
 10
207.6720678806
 20
159.2906566201
 10
207.6870220639
 20
159.2269653959
 10
207.6986189512
 20
159.1632711841
 10
207.7068335726
 20
159.0998862657
 10
207.711690898
 20
159.0364983665
 10
207.7131909275
 20
158.9731074877
  0
LINE
  5
3A1
100
AcDbEntity
  8
RACCORDO
100
AcDbLine
 62
253
  6
CONTINUOUS
 10
234.2298660052
 20
20.161886219
 11
234.2298660056
 21
19.7728242987
  0
LINE
  5
3A2
100
AcDbEntity
  8
ASSI
100
AcDbLine
 62
253
  6
CONTINUOUS
 10
234.2298660052
 20
20.161886219
 11
234.2298660056
 21
19.7728242987
  0
LINE
  5
3A3
100
AcDbEntity
  8
RACCORDO
100
AcDbLine
 62
253
  6
CONTINUOUS
 10
234.2298660052
 20
182.8977776739
 11
234.2298660052
 21
183.2868395942
  0
LINE
  5
3A4
100
AcDbEntity
  8
ASSI
100
AcDbLine
 62
253
  6
CONTINUOUS
 10
234.2298660052
 20
182.8977776739
 11
234.2298660052
 21
183.2868395942
  0
LINE
  5
3A5
100
AcDbEntity
  8
RACCORDO
100
AcDbLine
 62
253
  6
CONTINUOUS
 10
234.7233391501
 20
161.6075755728
 11
234.7184061106
 21
182.3979766221
  0
LINE
  5
3A6
100
AcDbEntity
  8
ASSI
100
AcDbLine
 62
253
  6
CONTINUOUS
 10
234.7233391501
 20
161.6075755728
 11
234.7184061106
 21
182.3979766221
  0
LINE
  5
3A7
100
AcDbEntity
  8
RACCORDO
100
AcDbLine
 62
253
  6
CONTINUOUS
 10
235.2214354455
 20
161.5783689039
 11
235.216408666
 21
182.3005019761
  0
LINE
  5
3A8
100
AcDbEntity
  8
ASSI
100
AcDbLine
 62
253
  6
CONTINUOUS
 10
235.2214354455
 20
161.5783689039
 11
235.216408666
 21
182.3005019761
  0
LINE
  5
3A9
100
AcDbEntity
  8
DRAFT
100
AcDbLine
 62
7
  6
CONTINUOUS
 10
235.4444444444
 20
159.5490217272
 11
235.4444444444
 21
43.5106421657
  0
LINE
  5
3AA
100
AcDbEntity
  8
RACCORDO
100
AcDbLine
 62
7
  6
CONTINUOUS
 10
235.4444444444
 20
43.5106421657
 11
235.4444435963
 21
20.5263871186
  0
LINE
  5
3AB
100
AcDbEntity
  8
RACCORDO
100
AcDbLine
 62
7
  6
CONTINUOUS
 10
235.4444435963
 20
182.5332767743
 11
235.4444444444
 21
159.5490217272
  0
LINE
  5
3AC
100
AcDbEntity
  8
ASSI
100
AcDbLine
 62
7
  6
CONTINUOUS
 10
235.4444435963
 20
182.5332767743
 11
235.4444435963
 21
20.5263871186
  0
LINE
  5
3AD
100
AcDbEntity
  8
RACCORDO
100
AcDbLine
 62
253
  6
CONTINUOUS
 10
234.7184061106
 20
20.6616872708
 11
234.7233391501
 21
161.6075755728
  0
LINE
  5
3AE
100
AcDbEntity
  8
ASSI
100
AcDbLine
 62
253
  6
CONTINUOUS
 10
234.7184061106
 20
20.6616872708
 11
234.7233391501
 21
161.6075755728
  0
LINE
  5
3AF
100
AcDbEntity
  8
RACCORDO
100
AcDbLine
 62
253
  6
CONTINUOUS
 10
235.216408666
 20
20.7591619168
 11
235.2214354455
 21
161.5783689039
  0
LINE
  5
3B0
100
AcDbEntity
  8
ASSI
100
AcDbLine
 62
253
  6
CONTINUOUS
 10
235.216408666
 20
20.7591619168
 11
235.2214354455
 21
161.5783689039
  0
LWPOLYLINE
  5
3B1
100
AcDbEntity
  8
RACCORDO
100
AcDbPolyline
 62
253
  6
CONTINUOUS
 90
19
 70
0
 10
89.1704827783
 20
182.3979765734
 10
89.1293797367
 20
182.3976284365
 10
89.0885549338
 20
182.3965567917
 10
89.0482847247
 20
182.3947688934
 10
89.0088417105
 20
182.3922768444
 10
88.9704928927
 20
182.389097514
 10
88.9334978657
 20
182.3852524242
 10
88.89810706
 20
182.3807676034
 10
88.8645600463
 20
182.3756734107
 10
88.8330839144
 20
182.3700043303
 10
88.8038917355
 20
182.3637987379
 10
88.7771811202
 20
182.3570986408
 10
88.7531328806
 20
182.3499493942
 10
88.7319098064
 20
182.3423993933
 10
88.7136555627
 20
182.3344997464
 10
88.6984937181
 20
182.3263039284
 10
88.6865269075
 20
182.3178674195
 10
88.6778361378
 20
182.3092473286
 10
88.6724802395
 20
182.3005020079
  0
LWPOLYLINE
  5
3B2
100
AcDbEntity
  8
ASSI
100
AcDbPolyline
 62
253
  6
CONTINUOUS
 90
19
 70
0
 10
89.1704827783
 20
182.3979765734
 10
89.1293797367
 20
182.3976284365
 10
89.0885549338
 20
182.3965567917
 10
89.0482847247
 20
182.3947688934
 10
89.0088417105
 20
182.3922768444
 10
88.9704928927
 20
182.389097514
 10
88.9334978657
 20
182.3852524242
 10
88.89810706
 20
182.3807676034
 10
88.8645600463
 20
182.3756734107
 10
88.8330839144
 20
182.3700043303
 10
88.8038917355
 20
182.3637987379
 10
88.7771811202
 20
182.3570986408
 10
88.7531328806
 20
182.3499493942
 10
88.7319098064
 20
182.3423993933
 10
88.7136555627
 20
182.3344997464
 10
88.6984937181
 20
182.3263039284
 10
88.6865269075
 20
182.3178674195
 10
88.6778361378
 20
182.3092473286
 10
88.6724802395
 20
182.3005020079
  0
LINE
  5
3B3
100
AcDbEntity
  8
RACCORDO
100
AcDbLine
 62
253
  6
CONTINUOUS
 10
234.2298660052
 20
182.8977776739
 11
89.6590228837
 21
182.8977776739
  0
LINE
  5
3B4
100
AcDbEntity
  8
ASSI
100
AcDbLine
 62
253
  6
CONTINUOUS
 10
234.2298660052
 20
182.8977776739
 11
89.6590228837
 21
182.8977776739
  0
LINE
  5
3B5
100
AcDbEntity
  8
RACCORDO
100
AcDbLine
 62
253
  6
CONTINUOUS
 10
234.2298660052
 20
183.2868395942
 11
89.6590228837
 21
183.2868395942
  0
LINE
  5
3B6
100
AcDbEntity
  8
ASSI
100
AcDbLine
 62
253
  6
CONTINUOUS
 10
234.2298660052
 20
183.2868395942
 11
89.6590228837
 21
183.2868395942
  0
LINE
  5
3B7
100
AcDbEntity
  8
RACCORDO
100
AcDbLine
 62
7
  6
CONTINUOUS
 10
234.4680766568
 20
183.5298319465
 11
89.4208122321
 21
183.5298319465
  0
LINE
  5
3B8
100
AcDbEntity
  8
ASSI
100
AcDbLine
 62
7
  6
CONTINUOUS
 10
234.4680766568
 20
183.5298319465
 11
89.4208122321
 21
183.5298319465
  0
LWPOLYLINE
  5
3B9
100
AcDbEntity
  8
RACCORDO
100
AcDbPolyline
 62
253
  6
CONTINUOUS
 90
19
 70
0
 10
234.7184061106
 20
182.3979766141
 10
234.7595088622
 20
182.3976284395
 10
234.8003333538
 20
182.3965567612
 10
234.8406032347
 20
182.3947688334
 10
234.8800459084
 20
182.3922767592
 10
234.918394378
 20
182.3890974077
 10
234.9553890535
 20
182.3852523009
 10
234.9907795091
 20
182.3807674671
 10
235.0243261783
 20
182.3756732653
 10
235.0558019758
 20
182.3700041793
 10
235.0849938344
 20
182.3637985845
 10
235.1117041472
 20
182.3570984882
 10
235.1357521059
 20
182.3499492448
 10
235.1569749241
 20
182.3423992495
 10
235.1752289393
 20
182.33449961
 10
235.1903905859
 20
182.3263038009
 10
235.202357231
 20
182.3178673017
 10
235.2110478695
 20
182.309247221
 10
235.2164036725
 20
182.3005019105
  0
LWPOLYLINE
  5
3BA
100
AcDbEntity
  8
ASSI
100
AcDbPolyline
 62
253
  6
CONTINUOUS
 90
19
 70
0
 10
234.7184061106
 20
182.3979766141
 10
234.7595088622
 20
182.3976284395
 10
234.8003333538
 20
182.3965567612
 10
234.8406032347
 20
182.3947688334
 10
234.8800459084
 20
182.3922767592
 10
234.918394378
 20
182.3890974077
 10
234.9553890535
 20
182.3852523009
 10
234.9907795091
 20
182.3807674671
 10
235.0243261783
 20
182.3756732653
 10
235.0558019758
 20
182.3700041793
 10
235.0849938344
 20
182.3637985845
 10
235.1117041472
 20
182.3570984882
 10
235.1357521059
 20
182.3499492448
 10
235.1569749241
 20
182.3423992495
 10
235.1752289393
 20
182.33449961
 10
235.1903905859
 20
182.3263038009
 10
235.202357231
 20
182.3178673017
 10
235.2110478695
 20
182.309247221
 10
235.2164036725
 20
182.3005019105
  0
LWPOLYLINE
  5
3BB
100
AcDbEntity
  8
RACCORDO
100
AcDbPolyline
 62
253
  6
CONTINUOUS
 90
28
 70
0
 10
235.2164086664
 20
182.3005019765
 10
235.2139613605
 20
182.3586826364
 10
235.2081988625
 20
182.4165193117
 10
235.1991543292
 20
182.4738237241
 10
235.1868785829
 20
182.5303931895
 10
235.1714209959
 20
182.5860634539
 10
235.1528183013
 20
182.64070614
 10
235.131120857
 20
182.6941758105
 10
235.1064141357
 20
182.7462655163
 10
235.0787996419
 20
182.7967611535
 10
235.0483876257
 20
182.8454873992
 10
235.0152793681
 20
182.8923075825
 10
234.9795815178
 20
182.9370775715
 10
234.9414177185
 20
182.9796568848
 10
234.9009198356
 20
183.0199131918
 10
234.858215661
 20
183.0577238763
 10
234.8134506031
 20
183.0929696833
 10
234.7667736189
 20
183.1255435187
 10
234.718324437
 20
183.1553505163
 10
234.668257669
 20
183.1822992485
 10
234.6167425758
 20
183.2063033068
 10
234.5639465697
 20
183.2272870344
 10
234.5100506516
 20
183.245182582
 10
234.455222267
 20
183.2599392439
 10
234.3996120027
 20
183.2715173228
 10
234.3433900782
 20
183.2798787575
 10
234.2867471125
 20
183.2849923888
 10
234.2298660052
 20
183.2868395942
  0
LWPOLYLINE
  5
3BC
100
AcDbEntity
  8
ASSI
100
AcDbPolyline
 62
253
  6
CONTINUOUS
 90
28
 70
0
 10
235.2164086664
 20
182.3005019765
 10
235.2139613605
 20
182.3586826364
 10
235.2081988625
 20
182.4165193117
 10
235.1991543292
 20
182.4738237241
 10
235.1868785829
 20
182.5303931895
 10
235.1714209959
 20
182.5860634539
 10
235.1528183013
 20
182.64070614
 10
235.131120857
 20
182.6941758105
 10
235.1064141357
 20
182.7462655163
 10
235.0787996419
 20
182.7967611535
 10
235.0483876257
 20
182.8454873992
 10
235.0152793681
 20
182.8923075825
 10
234.9795815178
 20
182.9370775715
 10
234.9414177185
 20
182.9796568848
 10
234.9009198356
 20
183.0199131918
 10
234.858215661
 20
183.0577238763
 10
234.8134506031
 20
183.0929696833
 10
234.7667736189
 20
183.1255435187
 10
234.718324437
 20
183.1553505163
 10
234.668257669
 20
183.1822992485
 10
234.6167425758
 20
183.2063033068
 10
234.5639465697
 20
183.2272870344
 10
234.5100506516
 20
183.245182582
 10
234.455222267
 20
183.2599392439
 10
234.3996120027
 20
183.2715173228
 10
234.3433900782
 20
183.2798787575
 10
234.2867471125
 20
183.2849923888
 10
234.2298660052
 20
183.2868395942
  0
LWPOLYLINE
  5
3BD
100
AcDbEntity
  8
RACCORDO
100
AcDbPolyline
 62
253
  6
CONTINUOUS
 90
28
 70
0
 10
234.7184061106
 20
182.3979766221
 10
234.7175393953
 20
182.4276327252
 10
234.7150451326
 20
182.4569435154
 10
234.7109233225
 20
182.4859090404
 10
234.7051489481
 20
182.5146199607
 10
234.6977470262
 20
182.5429857017
 10
234.6887926072
 20
182.5707344956
 10
234.6782664134
 20
182.5978679516
 10
234.6661877223
 20
182.6243846238
 10
234.6526894174
 20
182.6500082332
 10
234.6377604817
 20
182.6747210121
 10
234.6214119322
 20
182.6985409489
 10
234.6038097027
 20
182.7212454552
 10
234.5849424076
 20
182.7428243026
 10
234.5648214326
 20
182.7632879626
 10
234.5436468691
 20
182.7824449333
 10
234.5214092114
 20
182.8002827142
 10
234.4981179653
 20
182.8168140448
 10
234.4740017393
 20
182.8318853028
 10
234.4490530213
 20
182.8454824092
 10
234.4232793235
 20
182.8576196508
 10
234.3969317907
 20
182.8681859573
 10
234.3699990395
 20
182.8771665057
 10
234.3424924533
 20
182.8845762717
 10
234.3146973273
 20
182.8903488751
 10
234.2867087598
 20
182.8944622167
 10
234.2584316525
 20
182.8969384763
 10
234.2298660052
 20
182.8977776739
  0
LWPOLYLINE
  5
3BE
100
AcDbEntity
  8
ASSI
100
AcDbPolyline
 62
253
  6
CONTINUOUS
 90
28
 70
0
 10
234.7184061106
 20
182.3979766221
 10
234.7175393953
 20
182.4276327252
 10
234.7150451326
 20
182.4569435154
 10
234.7109233225
 20
182.4859090404
 10
234.7051489481
 20
182.5146199607
 10
234.6977470262
 20
182.5429857017
 10
234.6887926072
 20
182.5707344956
 10
234.6782664134
 20
182.5978679516
 10
234.6661877223
 20
182.6243846238
 10
234.6526894174
 20
182.6500082332
 10
234.6377604817
 20
182.6747210121
 10
234.6214119322
 20
182.6985409489
 10
234.6038097027
 20
182.7212454552
 10
234.5849424076
 20
182.7428243026
 10
234.5648214326
 20
182.7632879626
 10
234.5436468691
 20
182.7824449333
 10
234.5214092114
 20
182.8002827142
 10
234.4981179653
 20
182.8168140448
 10
234.4740017393
 20
182.8318853028
 10
234.4490530213
 20
182.8454824092
 10
234.4232793235
 20
182.8576196508
 10
234.3969317907
 20
182.8681859573
 10
234.3699990395
 20
182.8771665057
 10
234.3424924533
 20
182.8845762717
 10
234.3146973273
 20
182.8903488751
 10
234.2867087598
 20
182.8944622167
 10
234.2584316525
 20
182.8969384763
 10
234.2298660052
 20
182.8977776739
  0
LWPOLYLINE
  5
3BF
100
AcDbEntity
  8
RACCORDO
100
AcDbPolyline
 62
7
  6
CONTINUOUS
 90
28
 70
0
 10
235.4444435963
 20
20.5263871186
 10
235.4426634829
 20
20.4661109753
 10
235.4375076256
 20
20.4065642525
 10
235.4289760243
 20
20.3477467409
 10
235.4169689073
 20
20.2893878436
 10
235.4015860464
 20
20.2317577974
 10
235.3831267566
 20
20.1756674043
 10
235.3616112841
 20
20.1212878572
 10
235.3370193827
 20
20.068447069
 10
235.309589628
 20
20.0174406155
 10
235.2793017541
 20
19.9682332098
 10
235.246176027
 20
19.920859201
 10
235.2105118208
 20
19.875718461
 10
235.1721789787
 20
19.8327540501
 10
235.1313076575
 20
19.7920218945
 10
235.0885877013
 20
19.7540909817
 10
235.0441437953
 20
19.7191216474
 10
234.9978512545
 20
19.6869524643
 10
234.9500258672
 20
19.657669698
 10
234.9006521131
 20
19.631250173
 10
234.8497455125
 20
19.6077162187
 10
234.7976684154
 20
19.5872223889
 10
234.7442924732
 20
19.5697668305
 10
234.6897460345
 20
19.5553507854
 10
234.634776494
 20
19.5441334913
 10
234.5796329834
 20
19.5361679136
 10
234.5240663709
 20
19.531400759
 10
234.4680766568
 20
19.5298319465
  0
LWPOLYLINE
  5
3C0
100
AcDbEntity
  8
ASSI
100
AcDbPolyline
 62
7
  6
CONTINUOUS
 90
28
 70
0
 10
235.4444435963
 20
20.5263871186
 10
235.4426634829
 20
20.4661109753
 10
235.4375076256
 20
20.4065642525
 10
235.4289760243
 20
20.3477467409
 10
235.4169689073
 20
20.2893878436
 10
235.4015860464
 20
20.2317577974
 10
235.3831267566
 20
20.1756674043
 10
235.3616112841
 20
20.1212878572
 10
235.3370193827
 20
20.068447069
 10
235.309589628
 20
20.0174406155
 10
235.2793017541
 20
19.9682332098
 10
235.246176027
 20
19.920859201
 10
235.2105118208
 20
19.875718461
 10
235.1721789787
 20
19.8327540501
 10
235.1313076575
 20
19.7920218945
 10
235.0885877013
 20
19.7540909817
 10
235.0441437953
 20
19.7191216474
 10
234.9978512545
 20
19.6869524643
 10
234.9500258672
 20
19.657669698
 10
234.9006521131
 20
19.631250173
 10
234.8497455125
 20
19.6077162187
 10
234.7976684154
 20
19.5872223889
 10
234.7442924732
 20
19.5697668305
 10
234.6897460345
 20
19.5553507854
 10
234.634776494
 20
19.5441334913
 10
234.5796329834
 20
19.5361679136
 10
234.5240663709
 20
19.531400759
 10
234.4680766568
 20
19.5298319465
  0
LWPOLYLINE
  5
3C1
100
AcDbEntity
  8
RACCORDO
100
AcDbPolyline
 62
253
  6
CONTINUOUS
 90
19
 70
0
 10
207.4795680199
 20
43.3595066638
 10
207.4398278316
 20
43.3068660094
 10
207.3975181423
 20
43.2565664424
 10
207.3526389519
 20
43.2086078391
 10
207.3050464023
 20
43.1628431862
 10
207.2548843517
 20
43.1194192675
 10
207.2025843752
 20
43.0787766409
 10
207.1481197669
 20
43.0409470297
 10
207.0915172327
 20
43.0058984673
 10
207.0332884648
 20
42.9739759525
 10
206.9733867308
 20
42.9452124535
 10
206.9118587632
 20
42.9195747851
 10
206.8493564508
 20
42.8973087107
 10
206.7858602868
 20
42.8784710757
 10
206.7213897781
 20
42.8630048729
 10
206.6566553346
 20
42.8509850969
 10
206.5918937596
 20
42.8424367174
 10
206.5268682499
 20
42.8373346813
 10
206.4615788054
 20
42.8356789679
  0
LWPOLYLINE
  5
3C2
100
AcDbEntity
  8
ASSI
100
AcDbPolyline
 62
253
  6
CONTINUOUS
 90
19
 70
0
 10
207.4795680199
 20
43.3595066638
 10
207.4398278316
 20
43.3068660094
 10
207.3975181423
 20
43.2565664424
 10
207.3526389519
 20
43.2086078391
 10
207.3050464023
 20
43.1628431862
 10
207.2548843517
 20
43.1194192675
 10
207.2025843752
 20
43.0787766409
 10
207.1481197669
 20
43.0409470297
 10
207.0915172327
 20
43.0058984673
 10
207.0332884648
 20
42.9739759525
 10
206.9733867308
 20
42.9452124535
 10
206.9118587632
 20
42.9195747851
 10
206.8493564508
 20
42.8973087107
 10
206.7858602868
 20
42.8784710757
 10
206.7213897781
 20
42.8630048729
 10
206.6566553346
 20
42.8509850969
 10
206.5918937596
 20
42.8424367174
 10
206.5268682499
 20
42.8373346813
 10
206.4615788054
 20
42.8356789679
  0
LWPOLYLINE
  5
3C3
100
AcDbEntity
  8
RACCORDO
100
AcDbPolyline
 62
253
  6
CONTINUOUS
 90
19
 70
0
 10
207.0734896286
 20
43.6741225098
 10
207.0496467805
 20
43.6427615566
 10
207.0241424008
 20
43.612653168
 10
206.9970401563
 20
43.5838866506
 10
206.9684062641
 20
43.5565469724
 10
206.938316248
 20
43.5307183501
 10
206.9068556496
 20
43.5064829709
 10
206.8740994419
 20
43.483909901
 10
206.8401423759
 20
43.4630751418
 10
206.8051096533
 20
43.4440591056
 10
206.7690841162
 20
43.4269110087
 10
206.7321798776
 20
43.4116891998
 10
206.6945815162
 20
43.3984628354
 10
206.6563941317
 20
43.387257734
 10
206.6177313609
 20
43.3780962755
 10
206.5788002525
 20
43.3710064883
 10
206.5397454421
 20
43.3659851239
 10
206.5006449001
 20
43.3630142638
 10
206.4616064296
 20
43.3620762745
  0
LWPOLYLINE
  5
3C4
100
AcDbEntity
  8
ASSI
100
AcDbPolyline
 62
253
  6
CONTINUOUS
 90
19
 70
0
 10
207.0734896286
 20
43.6741225098
 10
207.0496467805
 20
43.6427615566
 10
207.0241424008
 20
43.612653168
 10
206.9970401563
 20
43.5838866506
 10
206.9684062641
 20
43.5565469724
 10
206.938316248
 20
43.5307183501
 10
206.9068556496
 20
43.5064829709
 10
206.8740994419
 20
43.483909901
 10
206.8401423759
 20
43.4630751418
 10
206.8051096533
 20
43.4440591056
 10
206.7690841162
 20
43.4269110087
 10
206.7321798776
 20
43.4116891998
 10
206.6945815162
 20
43.3984628354
 10
206.6563941317
 20
43.387257734
 10
206.6177313609
 20
43.3780962755
 10
206.5788002525
 20
43.3710064883
 10
206.5397454421
 20
43.3659851239
 10
206.5006449001
 20
43.3630142638
 10
206.4616064296
 20
43.3620762745
  0
LWPOLYLINE
  5
3C5
100
AcDbEntity
  8
RACCORDO
100
AcDbPolyline
 62
253
  6
CONTINUOUS
 90
28
 70
0
 10
89.6590228837
 20
183.2868395942
 10
89.6021478347
 20
183.2849926654
 10
89.5455331366
 20
183.2798827635
 10
89.4893610876
 20
183.2715322949
 10
89.4338402049
 20
183.2599806379
 10
89.3791197735
 20
183.2452670363
 10
89.3252934139
 20
183.2274146544
 10
89.272499538
 20
183.2064552232
 10
89.2209527155
 20
183.1824602044
 10
89.1708579837
 20
183.1555195154
 10
89.1223967191
 20
183.1257281275
 10
89.0757101784
 20
183.0931715529
 10
89.0309349333
 20
183.0579428287
 10
88.9882191844
 20
183.0201483724
 10
88.947709107
 20
182.9799080293
 10
88.9095320425
 20
182.9373438872
 10
88.8738192448
 20
182.8925872691
 10
88.8406951877
 20
182.8457794281
 10
88.8102679403
 20
182.7970668349
 10
88.7826445888
 20
182.7465984281
 10
88.7579275104
 20
182.6945382324
 10
88.7362045182
 20
182.6410647283
 10
88.7175573445
 20
182.5863522346
 10
88.7020551578
 20
182.5305740328
 10
88.6897515678
 20
182.4739144507
 10
88.6806950167
 20
182.416558483
 10
88.6749280858
 20
182.3586913322
 10
88.6724802225
 20
182.3005019765
  0
LWPOLYLINE
  5
3C6
100
AcDbEntity
  8
ASSI
100
AcDbPolyline
 62
253
  6
CONTINUOUS
 90
28
 70
0
 10
89.6590228837
 20
183.2868395942
 10
89.6021478347
 20
183.2849926654
 10
89.5455331366
 20
183.2798827635
 10
89.4893610876
 20
183.2715322949
 10
89.4338402049
 20
183.2599806379
 10
89.3791197735
 20
183.2452670363
 10
89.3252934139
 20
183.2274146544
 10
89.272499538
 20
183.2064552232
 10
89.2209527155
 20
183.1824602044
 10
89.1708579837
 20
183.1555195154
 10
89.1223967191
 20
183.1257281275
 10
89.0757101784
 20
183.0931715529
 10
89.0309349333
 20
183.0579428287
 10
88.9882191844
 20
183.0201483724
 10
88.947709107
 20
182.9799080293
 10
88.9095320425
 20
182.9373438872
 10
88.8738192448
 20
182.8925872691
 10
88.8406951877
 20
182.8457794281
 10
88.8102679403
 20
182.7970668349
 10
88.7826445888
 20
182.7465984281
 10
88.7579275104
 20
182.6945382324
 10
88.7362045182
 20
182.6410647283
 10
88.7175573445
 20
182.5863522346
 10
88.7020551578
 20
182.5305740328
 10
88.6897515678
 20
182.4739144507
 10
88.6806950167
 20
182.416558483
 10
88.6749280858
 20
182.3586913322
 10
88.6724802225
 20
182.3005019765
  0
LWPOLYLINE
  5
3C7
100
AcDbEntity
  8
RACCORDO
100
AcDbPolyline
 62
253
  6
CONTINUOUS
 90
28
 70
0
 10
89.6590228837
 20
182.8977776739
 10
89.6304308986
 20
182.8969308285
 10
89.6021471634
 20
182.8944532536
 10
89.5741716782
 20
182.8903449292
 10
89.5464214951
 20
182.8845864827
 10
89.5189795618
 20
182.8771972064
 10
89.4920947218
 20
182.8682350608
 10
89.4657601292
 20
182.8576807513
 10
89.4399826297
 20
182.8455534197
 10
89.4150316037
 20
182.8319686715
 10
89.3909227648
 20
182.8169154326
 10
89.3676403992
 20
182.8004045703
 10
89.3454067465
 20
182.7825846061
 10
89.3242286534
 20
182.7634419625
 10
89.3040992731
 20
182.7429899778
 10
89.285220305
 20
182.7214175662
 10
89.2676019521
 20
182.6987113884
 10
89.2512340115
 20
182.6748845393
 10
89.2362875735
 20
182.6501656222
 10
89.2227766707
 20
182.6245445364
 10
89.2106872706
 20
182.5980311628
 10
89.2001483666
 20
182.570884131
 10
89.1911752001
 20
182.543087092
 10
89.1837525298
 20
182.5146562252
 10
89.1779636254
 20
182.4858990267
 10
89.1738362437
 20
182.4569179846
 10
89.171342628
 20
182.4276105315
 10
89.1704827783
 20
182.3979766221
  0
LWPOLYLINE
  5
3C8
100
AcDbEntity
  8
ASSI
100
AcDbPolyline
 62
253
  6
CONTINUOUS
 90
28
 70
0
 10
89.6590228837
 20
182.8977776739
 10
89.6304308986
 20
182.8969308285
 10
89.6021471634
 20
182.8944532536
 10
89.5741716782
 20
182.8903449292
 10
89.5464214951
 20
182.8845864827
 10
89.5189795618
 20
182.8771972064
 10
89.4920947218
 20
182.8682350608
 10
89.4657601292
 20
182.8576807513
 10
89.4399826297
 20
182.8455534197
 10
89.4150316037
 20
182.8319686715
 10
89.3909227648
 20
182.8169154326
 10
89.3676403992
 20
182.8004045703
 10
89.3454067465
 20
182.7825846061
 10
89.3242286534
 20
182.7634419625
 10
89.3040992731
 20
182.7429899778
 10
89.285220305
 20
182.7214175662
 10
89.2676019521
 20
182.6987113884
 10
89.2512340115
 20
182.6748845393
 10
89.2362875735
 20
182.6501656222
 10
89.2227766707
 20
182.6245445364
 10
89.2106872706
 20
182.5980311628
 10
89.2001483666
 20
182.570884131
 10
89.1911752001
 20
182.543087092
 10
89.1837525298
 20
182.5146562252
 10
89.1779636254
 20
182.4858990267
 10
89.1738362437
 20
182.4569179846
 10
89.171342628
 20
182.4276105315
 10
89.1704827783
 20
182.3979766221
  0
LWPOLYLINE
  5
3C9
100
AcDbEntity
  8
RACCORDO
100
AcDbPolyline
 62
7
  6
CONTINUOUS
 90
28
 70
0
 10
234.4680766568
 20
183.5298319465
 10
234.5240914088
 20
183.528256588
 10
234.5796659591
 20
183.5234880584
 10
234.6348003078
 20
183.5155262766
 10
234.689734752
 20
183.5043194436
 10
234.7442289946
 20
183.4899190313
 10
234.7975621442
 20
183.4724797958
 10
234.8496142697
 20
183.4520036056
 10
234.9005053022
 20
183.4284879814
 10
234.9498741437
 20
183.4020811156
 10
234.9977101452
 20
183.372801047
 10
235.0440239557
 20
183.3406288887
 10
235.0884864243
 20
183.3056574133
 10
235.1312175006
 20
183.2677269131
 10
235.172097235
 20
183.2269960047
 10
235.2104366284
 20
183.1840350253
 10
235.2461046218
 20
183.1389020151
 10
235.2792322743
 20
183.091537922
 10
235.3095237635
 20
183.0423376281
 10
235.3369599582
 20
182.9913370267
 10
235.3615599896
 20
182.9384992856
 10
235.3830854297
 20
182.8841103516
 10
235.4015586987
 20
182.8279866677
 10
235.4169573763
 20
182.7703108873
 10
235.4289757738
 20
182.7119185836
 10
235.4375119948
 20
182.6530882566
 10
235.4426679357
 20
182.5935410554
 10
235.4444435963
 20
182.5332767743
  0
LWPOLYLINE
  5
3CA
100
AcDbEntity
  8
ASSI
100
AcDbPolyline
 62
7
  6
CONTINUOUS
 90
28
 70
0
 10
234.4680766568
 20
183.5298319465
 10
234.5240914088
 20
183.528256588
 10
234.5796659591
 20
183.5234880584
 10
234.6348003078
 20
183.5155262766
 10
234.689734752
 20
183.5043194436
 10
234.7442289946
 20
183.4899190313
 10
234.7975621442
 20
183.4724797958
 10
234.8496142697
 20
183.4520036056
 10
234.9005053022
 20
183.4284879814
 10
234.9498741437
 20
183.4020811156
 10
234.9977101452
 20
183.372801047
 10
235.0440239557
 20
183.3406288887
 10
235.0884864243
 20
183.3056574133
 10
235.1312175006
 20
183.2677269131
 10
235.172097235
 20
183.2269960047
 10
235.2104366284
 20
183.1840350253
 10
235.2461046218
 20
183.1389020151
 10
235.2792322743
 20
183.091537922
 10
235.3095237635
 20
183.0423376281
 10
235.3369599582
 20
182.9913370267
 10
235.3615599896
 20
182.9384992856
 10
235.3830854297
 20
182.8841103516
 10
235.4015586987
 20
182.8279866677
 10
235.4169573763
 20
182.7703108873
 10
235.4289757738
 20
182.7119185836
 10
235.4375119948
 20
182.6530882566
 10
235.4426679357
 20
182.5935410554
 10
235.4444435963
 20
182.5332767743
  0
LWPOLYLINE
  5
3CB
100
AcDbEntity
  8
0
100
AcDbPolyline
 62
7
  6
CONTINUOUS
 90
6
 70
0
 43
0.3500000006
 10
164.0872974243
 20
199.8868412476
 10
165.1587379761
 20
199.8868412476
 10
165.3730224609
 20
200.1011257324
 10
165.3730224609
 20
201.1725481567
 10
164.9444534912
 20
201.6011171265
 10
164.515866394
 20
201.6011171265
  0
LWPOLYLINE
  5
3CC
100
AcDbEntity
  8
0
100
AcDbPolyline
 62
7
  6
CONTINUOUS
 90
3
 70
0
 43
0.3500000006
 10
258.6959368286
 20
103.8869750977
 10
258.6959368286
 20
102.3869746399
 10
256.3387893677
 20
103.0298280945
  0
LWPOLYLINE
  5
3CD
100
AcDbEntity
  8
0
100
AcDbPolyline
 62
7
  6
CONTINUOUS
 90
3
 70
0
 43
0.3500000006
 10
161.9444525757
 20
210.5296977539
 10
160.4444430542
 20
210.5296977539
 10
161.0872965088
 20
212.8868270874
  0
LWPOLYLINE
  5
3CE
100
AcDbEntity
  8
RACCORDO
100
AcDbPolyline
 62
253
  6
CONTINUOUS
 90
4
 70
0
 10
51.2212331351
 20
20.6616873195
 10
51.2228893327
 20
20.6620354565
 10
51.2278402176
 20
20.6631071012
 10
51.6660299572
 20
20.759161885
  0
LWPOLYLINE
  5
3CF
100
AcDbEntity
  8
ASSI
100
AcDbPolyline
 62
253
  6
CONTINUOUS
 90
4
 70
0
 10
51.2212331351
 20
20.6616873195
 10
51.2228893327
 20
20.6620354565
 10
51.2278402176
 20
20.6631071012
 10
51.6660299572
 20
20.759161885
  0
LWPOLYLINE
  5
3D0
100
AcDbEntity
  8
RACCORDO
100
AcDbPolyline
 62
253
  6
CONTINUOUS
 90
13
 70
0
 10
54.1482847347
 20
21.318988116
 10
54.3308735963
 20
21.3481322796
 10
54.5138993074
 20
21.3819811521
 10
54.6973321768
 20
21.4205448801
 10
54.8806019014
 20
21.4634596519
 10
55.0642043666
 20
21.5111091941
 10
55.249699005
 20
21.5646283688
 10
55.4375007107
 20
21.6239808643
 10
55.6270567567
 20
21.6892313391
 10
55.8184840062
 20
21.7616728088
 10
56.0117839696
 20
21.8417496374
 10
56.2068092002
 20
21.9290540996
 10
56.403460447
 20
22.0236044867
  0
LINE
  5
3D1
100
AcDbEntity
  8
RACCORDO
100
AcDbLine
 62
253
  6
CONTINUOUS
 10
54.0298438791
 20
22.0109190523
 11
56.403460447
 21
22.0236044867
  0
LINE
  5
3D2
100
AcDbEntity
  8
RACCORDO
100
AcDbLine
 62
7
  6
CONTINUOUS
 10
53.8766335469
 20
22.5918264682
 11
53.9326578093
 21
22.5908485611
  0
LINE
  5
3D3
100
AcDbEntity
  8
RACCORDO
100
AcDbLine
 62
7
  6
CONTINUOUS
 10
51.7763308139
 20
19.7728242987
 11
54.5537461097
 21
19.5298319465
  0
LINE
  5
3D4
100
AcDbEntity
  8
ASSI
100
AcDbLine
 62
7
  6
CONTINUOUS
 10
51.7763308139
 20
19.7728242987
 11
54.5537461097
 21
19.5298319465
  0
LINE
  5
3D5
100
AcDbEntity
  8
RACCORDO
100
AcDbLine
 62
253
  6
CONTINUOUS
 10
51.6660299494
 20
20.7591619168
 11
54.3248104727
 21
20.5263871186
  0
LINE
  5
3D6
100
AcDbEntity
  8
ASSI
100
AcDbLine
 62
253
  6
CONTINUOUS
 10
51.6660299494
 20
20.7591619168
 11
54.3248104727
 21
20.5263871186
  0
LINE
  5
3D7
100
AcDbEntity
  8
0
100
AcDbLine
 62
7
  6
CONTINUOUS
 10
53.4794051072
 20
24.5638499866
 11
53.6176507316
 21
24.5614369002
  0
LINE
  5
3D8
100
AcDbEntity
  8
0
100
AcDbLine
 62
253
  6
CONTINUOUS
 10
53.1587970559
 20
26.2691873027
 11
53.3634296298
 21
26.2656154278
  0
LINE
  5
3D9
100
AcDbEntity
  8
RACCORDO
100
AcDbLine
 62
7
  6
CONTINUOUS
 10
51.9416305969
 20
34.4385303651
 11
52.3574106389
 21
34.4494179487
  0
LINE
  5
3DA
100
AcDbEntity
  8
0
100
AcDbLine
 62
7
  6
CONTINUOUS
 10
52.5012311818
 20
33.0974969773
 11
52.1064294859
 21
33.1052045807
  0
LINE
  5
3DB
100
AcDbEntity
  8
RACCORDO
100
AcDbLine
 62
7
  6
CONTINUOUS
 10
52.4435072715
 20
33.6079914246
 11
52.0398029206
 21
33.618562795
  0
LWPOLYLINE
  5
3DC
100
AcDbEntity
  8
RACCORDO
100
AcDbPolyline
 62
253
  6
CONTINUOUS
 90
12
 70
0
 10
51.4911762365
 20
38.8789251267
 10
51.4970134724
 20
38.8801585923
 10
51.5099835587
 20
38.8825517407
 10
51.5251822356
 20
38.8850699519
 10
51.5425352243
 20
38.8877009189
 10
51.5619577177
 20
38.8904317837
 10
51.5833547945
 20
38.8932492
 10
51.6066218834
 20
38.8961393987
 10
51.631645274
 20
38.8990882548
 10
51.6583026724
 20
38.9020813568
 10
51.6864637991
 20
38.9051040768
 10
51.7159910256
 20
38.9081416421
  0
LWPOLYLINE
  5
3DD
100
AcDbEntity
  8
RACCORDO
100
AcDbPolyline
 62
253
  6
CONTINUOUS
 90
35
 70
0
 10
52.0394160175
 20
38.0097443373
 10
52.0344931012
 20
38.0096179407
 10
52.0217810513
 20
38.010605789
 10
52.0092445973
 20
38.0130068998
 10
51.9966808425
 20
38.0169215838
 10
51.9840116987
 20
38.0223129778
 10
51.971315254
 20
38.0292179451
 10
51.9586228752
 20
38.0378473865
 10
51.9458854937
 20
38.0482606944
 10
51.9331521781
 20
38.0603984765
 10
51.9206015005
 20
38.0742934565
 10
51.9082522178
 20
38.0899864445
 10
51.896085573
 20
38.1074366304
 10
51.8842238676
 20
38.1265543085
 10
51.8726939762
 20
38.1473315601
 10
51.8614690241
 20
38.1697763038
 10
51.8505906893
 20
38.1938225897
 10
51.8400697479
 20
38.2194521068
 10
51.8298954238
 20
38.2466831662
 10
51.8200770664
 20
38.2755047504
 10
51.8106177589
 20
38.3058986362
 10
51.8015144182
 20
38.3378830469
 10
51.7927671443
 20
38.3715016352
 10
51.7843759276
 20
38.4067389597
 10
51.7763407776
 20
38.4436104617
 10
51.768661823
 20
38.482206118
 10
51.7613351028
 20
38.5225434208
 10
51.7543645779
 20
38.5646048778
 10
51.7477622598
 20
38.6084279899
 10
51.7415289558
 20
38.6540361747
 10
51.7356638586
 20
38.7014060145
 10
51.7301765579
 20
38.7505047564
 10
51.7250702505
 20
38.8013214829
 10
51.7203417398
 20
38.8538671114
 10
51.7159910256
 20
38.9081416421
  0
LWPOLYLINE
  5
3DE
100
AcDbEntity
  8
RACCORDO
100
AcDbPolyline
 62
253
  6
CONTINUOUS
 90
28
 70
0
 10
52.0523620549
 20
37.8539831835
 10
52.0436864268
 20
37.8542804309
 10
52.0182626653
 20
37.8566474668
 10
51.9933046436
 20
37.8605819592
 10
51.9683371185
 20
37.8662237461
 10
51.9432646612
 20
37.8735455819
 10
51.9182769068
 20
37.8825819684
 10
51.8933588361
 20
37.8935797948
 10
51.8684632763
 20
37.9066185096
 10
51.8437499363
 20
37.9216190454
 10
51.8194996758
 20
37.9385806901
 10
51.7957691841
 20
37.9575237644
 10
51.7725730467
 20
37.978401954
 10
51.7500923094
 20
38.0011000307
 10
51.7283809035
 20
38.0255787934
 10
51.707419704
 20
38.0518379032
 10
51.6872584034
 20
38.0798142581
 10
51.6679231066
 20
38.1094660251
 10
51.6494084749
 20
38.1407928579
 10
51.6317126891
 20
38.173793096
 10
51.6148504449
 20
38.2084269426
 10
51.5988249859
 20
38.2446924166
 10
51.5836212533
 20
38.2826449567
 10
51.5692510818
 20
38.3222483708
 10
51.5557223653
 20
38.3634974385
 10
51.5430208262
 20
38.4064939538
 10
51.5311509736
 20
38.4512377162
 10
51.5263778419
 20
38.4713586958
  0
LWPOLYLINE
  5
3DF
100
AcDbEntity
  8
RACCORDO
100
AcDbPolyline
 62
253
  6
CONTINUOUS
 90
15
 70
0
 10
51.7763308139
 20
19.7728242987
 10
51.7738066855
 20
19.7746712275
 10
51.7710574424
 20
19.7797811294
 10
51.7680967601
 20
19.788131598
 10
51.7649391844
 20
19.799683255
 10
51.7615939803
 20
19.8143968566
 10
51.7580668341
 20
19.8322492386
 10
51.754362152
 20
19.8532086697
 10
51.7504967754
 20
19.8772036885
 10
51.7464941749
 20
19.9041443775
 10
51.7423566292
 20
19.9339357654
 10
51.7380937422
 20
19.96649234
 10
51.7337377468
 20
20.0017210642
 10
51.7292872394
 20
20.0395155205
 10
51.7247490776
 20
20.0797558636
  0
LWPOLYLINE
  5
3E0
100
AcDbEntity
  8
ASSI
100
AcDbPolyline
 62
253
  6
CONTINUOUS
 90
15
 70
0
 10
51.7763308139
 20
19.7728242987
 10
51.7738066855
 20
19.7746712275
 10
51.7710574424
 20
19.7797811294
 10
51.7680967601
 20
19.788131598
 10
51.7649391844
 20
19.799683255
 10
51.7615939803
 20
19.8143968566
 10
51.7580668341
 20
19.8322492386
 10
51.754362152
 20
19.8532086697
 10
51.7504967754
 20
19.8772036885
 10
51.7464941749
 20
19.9041443775
 10
51.7423566292
 20
19.9339357654
 10
51.7380937422
 20
19.96649234
 10
51.7337377468
 20
20.0017210642
 10
51.7292872394
 20
20.0395155205
 10
51.7247490776
 20
20.0797558636
  0
LWPOLYLINE
  5
3E1
100
AcDbEntity
  8
0
100
AcDbPolyline
 62
7
  6
CONTINUOUS
 90
10
 70
0
 43
0.3500000006
 10
49.7318786774
 20
199.8868412476
 10
50.5890211487
 20
200.743979187
 10
50.8033056335
 20
201.6011171265
 10
50.8033056335
 20
202.4582550659
 10
50.3747366638
 20
202.8868421631
 10
49.7318786774
 20
202.8868421631
 10
49.3033051758
 20
202.4582550659
 10
49.3033051758
 20
201.6011171265
 10
49.7318786774
 20
201.1725481567
 10
50.6604477997
 20
201.1725481567
  0
LINE
  5
3E2
100
AcDbEntity
  8
RACCORDO
100
AcDbLine
 62
253
  6
CONTINUOUS
 10
48.1782973196
 20
43.3595066638
 11
48.634084984
 21
43.382456212
  0
LINE
  5
3E3
100
AcDbEntity
  8
ASSI
100
AcDbLine
 62
253
  6
CONTINUOUS
 10
48.1782973196
 20
43.3595066638
 11
48.634084984
 21
43.382456212
  0
LINE
  5
3E4
100
AcDbEntity
  8
RACCORDO
100
AcDbLine
 62
253
  6
CONTINUOUS
 10
51.1751301514
 20
43.5115112278
 11
51.5387511784
 21
43.5298319465
  0
LINE
  5
3E5
100
AcDbEntity
  8
RACCORDO
100
AcDbLine
 62
253
  6
CONTINUOUS
 10
48.1718445547
 20
43.4877936143
 11
48.6276393721
 21
43.5106421657
  0
LINE
  5
3E6
100
AcDbEntity
  8
ASSI
100
AcDbLine
 62
253
  6
CONTINUOUS
 10
48.1718445547
 20
43.4877936143
 11
48.6276393721
 21
43.5106421657
  0
LINE
  5
3E7
100
AcDbEntity
  8
0
100
AcDbLine
 62
253
  6
CONTINUOUS
 10
51.6744967178
 20
43.5366713627
 11
57.4282973196
 21
43.650433707
  0
LINE
  5
3E8
100
AcDbEntity
  8
RACCORDO
100
AcDbLine
 62
7
  6
CONTINUOUS
 10
51.7232676411
 20
42.6798319465
 11
51.2223548555
 21
42.6798319465
  0
LINE
  5
3E9
100
AcDbEntity
  8
RACCORDO
100
AcDbLine
 62
253
  6
CONTINUOUS
 10
48.6276393721
 20
43.5106421657
 11
51.174487911
 21
43.5106421657
  0
LINE
  5
3EA
100
AcDbEntity
  8
ASSI
100
AcDbLine
 62
253
  6
CONTINUOUS
 10
48.6276393721
 20
43.5106421657
 11
51.174487911
 21
43.5106421657
  0
LINE
  5
3EB
100
AcDbEntity
  8
RACCORDO
100
AcDbLine
 62
7
  6
CONTINUOUS
 10
51.174207455
 20
43.5298319465
 11
51.6748860144
 21
43.5298319465
  0
LINE
  5
3EC
100
AcDbEntity
  8
RACCORDO
100
AcDbLine
 62
7
  6
CONTINUOUS
 10
57.4282973196
 20
45.677177985
 11
55.593567684
 21
46.0006903221
  0
LINE
  5
3ED
100
AcDbEntity
  8
RACCORDO
100
AcDbLine
 62
7
  6
CONTINUOUS
 10
55.593567684
 20
53.0589735708
 11
57.4282973196
 21
53.3824859079
  0
LINE
  5
3EE
100
AcDbEntity
  8
RACCORDO
100
AcDbLine
 62
7
  6
CONTINUOUS
 10
50.9175140598
 20
49.4117129298
 11
51.4167336313
 21
49.4247854543
  0
LINE
  5
3EF
100
AcDbEntity
  8
RACCORDO
100
AcDbLine
 62
7
  6
CONTINUOUS
 10
51.4468272886
 20
48.6340904084
 11
50.9459385932
 21
48.6472066405
  0
LINE
  5
3F0
100
AcDbEntity
  8
RACCORDO
100
AcDbLine
 62
7
  6
CONTINUOUS
 10
50.6114392303
 20
64.4036980783
 11
51.1111175004
 21
64.4167826143
  0
LINE
  5
3F1
100
AcDbEntity
  8
0
100
AcDbLine
 62
253
  6
CONTINUOUS
 10
51.1082070567
 20
66.0298319465
 11
57.4282973196
 21
66.1052756375
  0
LINE
  5
3F2
100
AcDbEntity
  8
RACCORDO
100
AcDbLine
 62
253
  6
CONTINUOUS
 10
47.6068860315
 20
66.0298319465
 11
50.8582070567
 21
66.0298319465
  0
LINE
  5
3F3
100
AcDbEntity
  8
ASSI
100
AcDbLine
 62
253
  6
CONTINUOUS
 10
47.6068860315
 20
66.0298319465
 11
50.6068860315
 21
66.0298319465
  0
LINE
  5
3F4
100
AcDbEntity
  8
RACCORDO
100
AcDbLine
 62
7
  6
CONTINUOUS
 10
51.0012260941
 20
66.1071067621
 11
51.1095228978
 21
66.1052164344
  0
LINE
  5
3F5
100
AcDbEntity
  8
RACCORDO
100
AcDbLine
 62
7
  6
CONTINUOUS
 10
50.6145038847
 20
63.6558855638
 11
51.1145806664
 21
63.6427905924
  0
LINE
  5
3F6
100
AcDbEntity
  8
RACCORDO
100
AcDbLine
 62
7
  6
CONTINUOUS
 10
50.6082070567
 20
71.9036134409
 11
51.1082070567
 21
71.9167064017
  0
LINE
  5
3F7
100
AcDbEntity
  8
RACCORDO
100
AcDbLine
 62
253
  6
CONTINUOUS
 10
51.0012260941
 20
68.3221334133
 11
51.1082070567
 21
68.3229064421
  0
LINE
  5
3F8
100
AcDbEntity
  8
RACCORDO
100
AcDbLine
 62
253
  6
CONTINUOUS
 10
51.0012260941
 20
68.7463191269
 11
51.1082070567
 21
68.7470924876
  0
LINE
  5
3F9
100
AcDbEntity
  8
RACCORDO
100
AcDbLine
 62
253
  6
CONTINUOUS
 10
50.6499664185
 20
68.7463139552
 11
51.0012260941
 21
68.7463139552
  0
LINE
  5
3FA
100
AcDbEntity
  8
RACCORDO
100
AcDbLine
 62
253
  6
CONTINUOUS
 10
51.1082070567
 20
68.275160289
 11
51.0012260941
 21
68.2753176105
  0
LINE
  5
3FB
100
AcDbEntity
  8
RACCORDO
100
AcDbLine
 62
253
  6
CONTINUOUS
 10
50.8962756966
 20
67.8413131355
 11
51.1082070567
 21
67.8408832512
  0
LINE
  5
3FC
100
AcDbEntity
  8
RACCORDO
100
AcDbLine
 62
253
  6
CONTINUOUS
 10
50.8962754513
 20
67.0894029024
 11
50.9977362774
 21
67.0891217299
  0
LINE
  5
3FD
100
AcDbEntity
  8
RACCORDO
100
AcDbLine
 62
253
  6
CONTINUOUS
 10
50.802192198
 20
67.8420048721
 11
50.8962756966
 21
67.8413131355
  0
LINE
  5
3FE
100
AcDbEntity
  8
RACCORDO
100
AcDbLine
 62
253
  6
CONTINUOUS
 10
50.802191827
 20
67.090133263
 11
50.8962754513
 21
67.0894029024
  0
LINE
  5
3FF
100
AcDbEntity
  8
RACCORDO
100
AcDbLine
 62
253
  6
CONTINUOUS
 10
50.7466631158
 20
67.8426809447
 11
50.802192198
 21
67.8420048721
  0
LINE
  5
400
100
AcDbEntity
  8
RACCORDO
100
AcDbLine
 62
253
  6
CONTINUOUS
 10
50.7466626989
 20
67.0908470828
 11
50.802191827
 21
67.090133263
  0
LINE
  5
401
100
AcDbEntity
  8
RACCORDO
100
AcDbLine
 62
253
  6
CONTINUOUS
 10
50.9977362774
 20
67.0891217304
 11
51.1082070567
 21
67.0871911117
  0
LINE
  5
402
100
AcDbEntity
  8
0
100
AcDbLine
 62
253
  6
CONTINUOUS
 10
50.637207945
 20
68.5291734292
 11
50.6082070567
 21
68.5296796416
  0
LINE
  5
403
100
AcDbEntity
  8
RACCORDO
100
AcDbLine
 62
7
  6
CONTINUOUS
 10
50.6082070567
 20
71.156050452
 11
51.1082070567
 21
71.1429574912
  0
LWPOLYLINE
  5
404
100
AcDbEntity
  8
RACCORDO
100
AcDbPolyline
 62
253
  6
CONTINUOUS
 90
10
 70
0
 10
50.6082070567
 20
67.8477681233
 10
50.6096789867
 20
67.8471918637
 10
50.6140837485
 20
67.8466198452
 10
50.6213889269
 20
67.8460562775
 10
50.6315407619
 20
67.8455053078
 10
50.6444645444
 20
67.8449709908
 10
50.6600651664
 20
67.8444572587
 10
50.6782278202
 20
67.8439678922
 10
50.6988188441
 20
67.8435064925
 10
50.7466631158
 20
67.8426809447
  0
LWPOLYLINE
  5
405
100
AcDbEntity
  8
RACCORDO
100
AcDbPolyline
 62
253
  6
CONTINUOUS
 90
10
 70
0
 10
50.6082070567
 20
67.0962182719
 10
50.6096788939
 20
67.0956098419
 10
50.6140835737
 20
67.0950058894
 10
50.6213886813
 20
67.0944108591
 10
50.6315404571
 20
67.0938291299
 10
50.6444641923
 20
67.0932649828
 10
50.6600647786
 20
67.0927225695
 10
50.6782274086
 20
67.0922058818
 10
50.6988184199
 20
67.091718722
 10
50.7466626989
 20
67.0908470828
  0
LINE
  5
406
100
AcDbEntity
  8
0
100
AcDbLine
 62
253
  6
CONTINUOUS
 10
50.6372075459
 20
74.5304904567
 11
50.6082070567
 21
74.5299842513
  0
LINE
  5
407
100
AcDbEntity
  8
RACCORDO
100
AcDbLine
 62
253
  6
CONTINUOUS
 10
51.1082070567
 20
75.9480396838
 11
50.9977362774
 21
75.9461089797
  0
LINE
  5
408
100
AcDbEntity
  8
RACCORDO
100
AcDbLine
 62
7
  6
CONTINUOUS
 10
51.1082070567
 20
76.9544244904
 11
51.0012260941
 21
76.9525571308
  0
LINE
  5
409
100
AcDbEntity
  8
RACCORDO
100
AcDbLine
 62
253
  6
CONTINUOUS
 10
51.0012260941
 20
74.8748951334
 11
51.1082070567
 21
74.8750569771
  0
LINE
  5
40A
100
AcDbEntity
  8
RACCORDO
100
AcDbLine
 62
253
  6
CONTINUOUS
 10
51.0012260941
 20
74.3133499378
 11
50.6499664666
 21
74.3133499378
  0
LINE
  5
40B
100
AcDbEntity
  8
RACCORDO
100
AcDbLine
 62
253
  6
CONTINUOUS
 10
51.1082070567
 20
75.2947616783
 11
50.8637747208
 21
75.2947960183
  0
LINE
  5
40C
100
AcDbEntity
  8
RACCORDO
100
AcDbLine
 62
253
  6
CONTINUOUS
 10
50.9977362774
 20
75.9461089801
 11
50.7735638716
 21
75.9466171611
  0
LINE
  5
40D
100
AcDbEntity
  8
RACCORDO
100
AcDbLine
 62
253
  6
CONTINUOUS
 10
50.8637747208
 20
75.2947960183
 11
50.7216870131
 21
75.2955009236
  0
LINE
  5
40E
100
AcDbEntity
  8
RACCORDO
100
AcDbLine
 62
253
  6
CONTINUOUS
 10
51.0012260941
 20
74.3133622154
 11
51.1082070567
 21
74.312588433
  0
LINE
  5
40F
100
AcDbEntity
  8
RACCORDO
100
AcDbLine
 62
253
  6
CONTINUOUS
 10
51.0012260941
 20
74.737532315
 11
51.1082070567
 21
74.7367592419
  0
LINE
  5
410
100
AcDbEntity
  8
RACCORDO
100
AcDbLine
 62
253
  6
CONTINUOUS
 10
50.7735638716
 20
75.9466171611
 11
50.6782274086
 21
75.9472722855
  0
LINE
  5
411
100
AcDbEntity
  8
RACCORDO
100
AcDbLine
 62
253
  6
CONTINUOUS
 10
50.7216870131
 20
75.2955009236
 11
50.6600654464
 21
75.2961176118
  0
LWPOLYLINE
  5
412
100
AcDbEntity
  8
RACCORDO
100
AcDbPolyline
 62
253
  6
CONTINUOUS
 90
7
 70
0
 10
50.6782274086
 20
75.9472722855
 10
50.6444641923
 20
75.9476717658
 10
50.6315404571
 20
75.9478845554
 10
50.6213886813
 20
75.9481039767
 10
50.6140835737
 20
75.9483284151
 10
50.6096788939
 20
75.9485562187
 10
50.6082070567
 20
75.9487857113
  0
LWPOLYLINE
  5
413
100
AcDbEntity
  8
RACCORDO
100
AcDbPolyline
 62
253
  6
CONTINUOUS
 90
6
 70
0
 10
50.6600654464
 20
75.2961176118
 10
50.631540982
 20
75.2965856852
 10
50.6213891043
 20
75.2968317556
 10
50.6140838748
 20
75.2970834523
 10
50.6096790537
 20
75.2973389229
 10
50.6082070567
 20
75.2975962875
  0
LINE
  5
414
100
AcDbEntity
  8
RACCORDO
100
AcDbLine
 62
7
  6
CONTINUOUS
 10
50.6082070567
 20
78.656050452
 11
51.1082070567
 21
78.6429574912
  0
LWPOLYLINE
  5
415
100
AcDbEntity
  8
RACCORDO
100
AcDbPolyline
 62
253
  6
CONTINUOUS
 90
22
 70
0
 10
51.0012260941
 20
74.737549389
 10
50.9716892959
 20
74.738687477
 10
50.9423521998
 20
74.7413659252
 10
50.9133752459
 20
74.7455700868
 10
50.8849169058
 20
74.7512769708
 10
50.8571328128
 20
74.7584553683
 10
50.8301749107
 20
74.7670660243
 10
50.804190629
 20
74.77706185
 10
50.7793220731
 20
74.7883881813
 10
50.7557052442
 20
74.8009830792
 10
50.7334693013
 20
74.814777666
 10
50.7127358521
 20
74.8296965025
 10
50.6936182859
 20
74.8456580027
 10
50.6762211569
 20
74.8625748771
 10
50.6606396115
 20
74.8803546107
 10
50.6469588659
 20
74.8988999708
 10
50.6352537424
 20
74.9181095362
 10
50.6255882593
 20
74.9378782528
 10
50.6180152802
 20
74.9580980088
 10
50.6125762254
 20
74.978658225
 10
50.6093008451
 20
74.9994464595
 10
50.6082070567
 20
75.0203490231
  0
LWPOLYLINE
  5
416
100
AcDbEntity
  8
RACCORDO
100
AcDbPolyline
 62
253
  6
CONTINUOUS
 90
22
 70
0
 10
51.0012260941
 20
74.8748951334
 10
50.9716891723
 20
74.8760332295
 10
50.9423519623
 20
74.8787116977
 10
50.9133749056
 20
74.88291589
 10
50.8849164743
 20
74.8886228141
 10
50.857132304
 20
74.8958012596
 10
50.8301743429
 20
74.9044119683
 10
50.8041900208
 20
74.9144078495
 10
50.7793214427
 20
74.9257342368
 10
50.7557046118
 20
74.9383291877
 10
50.7334686856
 20
74.9521238219
 10
50.7127352698
 20
74.9670426982
 10
50.6936177527
 20
74.9830042272
 10
50.6762206857
 20
74.9999211173
 10
50.6606392113
 20
75.017700852
 10
50.6469585425
 20
75.0362461962
 10
50.6352534974
 20
75.0554557276
 10
50.6255880893
 20
75.0752243917
 10
50.6180151772
 20
75.0954440762
 10
50.6125761764
 20
75.116004202
 10
50.6093008321
 20
75.1367923284
 10
50.6082070567
 20
75.1576947676
  0
LWPOLYLINE
  5
417
100
AcDbEntity
  8
RACCORDO
100
AcDbPolyline
 62
253
  6
CONTINUOUS
 90
22
 70
0
 10
56.4034599767
 20
22.0236044592
 10
56.4236480322
 20
21.9776158427
 10
56.4421601939
 20
21.9317247009
 10
56.4589196941
 20
21.8861213388
 10
56.473857033
 20
21.8409948687
 10
56.4869102674
 20
21.7965324242
 10
56.4980252671
 20
21.7529183853
 10
56.5071559393
 20
21.7103336141
 10
56.5142644201
 20
21.6689547049
 10
56.5193212313
 20
21.6289532509
 10
56.5223054025
 20
21.5904951335
 10
56.5232045586
 20
21.5537398345
 10
56.5220149703
 20
21.5188397738
 10
56.5187415706
 20
21.4859396784
 10
56.5133979335
 20
21.4551759815
 10
56.5060062181
 20
21.4266762572
 10
56.4965970766
 20
21.400558691
 10
56.4852095274
 20
21.37693159
 10
56.4718907932
 20
21.3558929338
 10
56.4566961049
 20
21.3375299677
 10
56.4396884731
 20
21.3219188415
 10
56.4209384261
 20
21.3091242932
  0
LWPOLYLINE
  5
418
100
AcDbEntity
  8
0
100
AcDbPolyline
 62
7
  6
CONTINUOUS
 90
3
 70
0
 43
0.3500000006
 10
52.3747327423
 20
200.1725478516
 10
52.3033060913
 20
199.9582633667
 10
52.1604482574
 20
199.6725567627
  0
LINE
  5
419
100
AcDbEntity
  8
RACCORDO
100
AcDbLine
 62
7
  6
CONTINUOUS
 10
50.6082070567
 20
79.4036134409
 11
51.1082070567
 21
79.4167064017
  0
LWPOLYLINE
  5
41A
100
AcDbEntity
  8
RACCORDO
100
AcDbPolyline
 62
253
  6
CONTINUOUS
 90
13
 70
0
 10
51.6660299494
 20
20.7591619168
 10
51.2705111784
 20
22.6219375433
 10
50.900881295
 20
24.4900245045
 10
50.5571406396
 20
26.3630472985
 10
50.2392346771
 20
28.2406118304
 10
49.9472186185
 20
30.1223617806
 10
49.6812574401
 20
32.0079790231
 10
49.4413659152
 20
33.8970936575
 10
49.2275299865
 20
35.789327188
 10
49.0398714161
 20
37.6843494203
 10
48.8784310449
 20
39.5818013096
 10
48.7431687773
 20
41.4812947248
 10
48.634084984
 20
43.382456212
  0
LWPOLYLINE
  5
41B
100
AcDbEntity
  8
ASSI
100
AcDbPolyline
 62
253
  6
CONTINUOUS
 90
13
 70
0
 10
51.6660299494
 20
20.7591619168
 10
51.2705111784
 20
22.6219375433
 10
50.900881295
 20
24.4900245045
 10
50.5571406396
 20
26.3630472985
 10
50.2392346771
 20
28.2406118304
 10
49.9472186185
 20
30.1223617806
 10
49.6812574401
 20
32.0079790231
 10
49.4413659152
 20
33.8970936575
 10
49.2275299865
 20
35.789327188
 10
49.0398714161
 20
37.6843494203
 10
48.8784310449
 20
39.5818013096
 10
48.7431687773
 20
41.4812947248
 10
48.634084984
 20
43.382456212
  0
LWPOLYLINE
  5
41C
100
AcDbEntity
  8
RACCORDO
100
AcDbPolyline
 62
253
  6
CONTINUOUS
 90
28
 70
0
 10
51.5220108866
 20
164.5698951029
 10
51.5311534692
 20
164.6084345466
 10
51.5430238562
 20
164.6531793456
 10
51.5557257565
 20
164.6961761333
 10
51.5692546938
 20
164.737424953
 10
51.583625059
 20
164.7770280567
 10
51.5988289823
 20
164.8149803268
 10
51.6148545987
 20
164.8512454639
 10
51.6317170385
 20
164.8858790499
 10
51.6494131062
 20
164.9188791816
 10
51.6679280764
 20
164.950205979
 10
51.6872637288
 20
164.9798576839
 10
51.7074253944
 20
165.0078339251
 10
51.7283869762
 20
165.0340928915
 10
51.7500987568
 20
165.058571454
 10
51.7725798488
 20
165.0812692588
 10
51.7957763276
 20
165.1021471189
 10
51.8195071481
 20
165.1210898238
 10
51.8437577372
 20
165.1380510653
 10
51.8684713904
 20
165.1530511578
 10
51.8933672052
 20
165.1660893909
 10
51.918285415
 20
165.1770866866
 10
51.9432732396
 20
165.1861225088
 10
51.9683458168
 20
165.1934437839
 10
51.9933134035
 20
165.1990850446
 10
52.0182715405
 20
165.2030190132
 10
52.0436959516
 20
165.2053854508
 10
52.0523621712
 20
165.2056821121
  0
LINE
  5
41D
100
AcDbEntity
  8
RACCORDO
100
AcDbLine
 62
7
  6
CONTINUOUS
 10
50.6082070567
 20
94.4036134409
 11
51.1082070567
 21
94.4167064017
  0
LINE
  5
41E
100
AcDbEntity
  8
RACCORDO
100
AcDbLine
 62
7
  6
CONTINUOUS
 10
50.6082070567
 20
93.656050452
 11
51.1082070567
 21
93.6429574912
  0
LWPOLYLINE
  5
41F
100
AcDbEntity
  8
RACCORDO
100
AcDbPolyline
 62
253
  6
CONTINUOUS
 90
7
 70
0
 10
51.0012260941
 20
66.1071067621
 10
51.0006478249
 20
66.1087676997
 10
51.0000892671
 20
66.1137241899
 10
50.9995550125
 20
66.1219593138
 10
50.999051868
 20
66.1334432198
 10
50.9985815033
 20
66.1481385643
 10
50.9981405607
 20
66.1660057028
  0
LINE
  5
420
100
AcDbEntity
  8
RACCORDO
100
AcDbLine
 62
253
  6
CONTINUOUS
 10
51.7247490776
 20
20.0797558636
 11
51.7155352162
 21
20.1670766238
  0
LINE
  5
421
100
AcDbEntity
  8
ASSI
100
AcDbLine
 62
253
  6
CONTINUOUS
 10
51.7247490776
 20
20.0797558636
 11
51.7155352162
 21
20.1670766238
  0
LINE
  5
422
100
AcDbEntity
  8
RACCORDO
100
AcDbLine
 62
253
  6
CONTINUOUS
 10
52.1517164753
 20
34.4440316574
 11
52.2366146653
 21
33.6134090981
  0
LINE
  5
423
100
AcDbEntity
  8
RACCORDO
100
AcDbLine
 62
253
  6
CONTINUOUS
 10
51.7155352162
 20
20.1670766238
 11
51.706186125
 21
20.262597058
  0
LINE
  5
424
100
AcDbEntity
  8
ASSI
100
AcDbLine
 62
253
  6
CONTINUOUS
 10
51.7155352162
 20
20.1670766238
 11
51.706186125
 21
20.262597058
  0
LINE
  5
425
100
AcDbEntity
  8
RACCORDO
100
AcDbLine
 62
253
  6
CONTINUOUS
 10
51.706186125
 20
20.262597058
 11
51.6968348731
 21
20.3651256605
  0
LINE
  5
426
100
AcDbEntity
  8
ASSI
100
AcDbLine
 62
253
  6
CONTINUOUS
 10
51.706186125
 20
20.262597058
 11
51.6968348731
 21
20.3651256605
  0
LINE
  5
427
100
AcDbEntity
  8
RACCORDO
100
AcDbLine
 62
253
  6
CONTINUOUS
 10
51.6968348731
 20
20.3651256605
 11
51.6876466447
 21
20.4733116583
  0
LINE
  5
428
100
AcDbEntity
  8
ASSI
100
AcDbLine
 62
253
  6
CONTINUOUS
 10
51.6968348731
 20
20.3651256605
 11
51.6876466447
 21
20.4733116583
  0
LINE
  5
429
100
AcDbEntity
  8
RACCORDO
100
AcDbLine
 62
253
  6
CONTINUOUS
 10
51.6876466447
 20
20.4733116583
 11
51.6786969907
 21
20.5857494422
  0
LINE
  5
42A
100
AcDbEntity
  8
ASSI
100
AcDbLine
 62
253
  6
CONTINUOUS
 10
51.6876466447
 20
20.4733116583
 11
51.6786969907
 21
20.5857494422
  0
LINE
  5
42B
100
AcDbEntity
  8
RACCORDO
100
AcDbLine
 62
253
  6
CONTINUOUS
 10
51.7159910256
 20
38.9081416421
 11
51.6553206044
 21
39.7354145906
  0
LINE
  5
42C
100
AcDbEntity
  8
RACCORDO
100
AcDbLine
 62
253
  6
CONTINUOUS
 10
51.6786969907
 20
20.5857494422
 11
51.6660299537
 21
20.7591619164
  0
LINE
  5
42D
100
AcDbEntity
  8
ASSI
100
AcDbLine
 62
253
  6
CONTINUOUS
 10
51.6786969907
 20
20.5857494422
 11
51.6660299537
 21
20.7591619164
  0
LINE
  5
42E
100
AcDbEntity
  8
RACCORDO
100
AcDbLine
 62
253
  6
CONTINUOUS
 10
51.6553206044
 20
39.7354145906
 11
51.5983428061
 21
40.5631886172
  0
LWPOLYLINE
  5
42F
100
AcDbEntity
  8
RACCORDO
100
AcDbPolyline
 62
253
  6
CONTINUOUS
 90
13
 70
0
 10
48.634084984
 20
43.382456212
 10
48.5369459103
 20
45.3994089287
 10
48.4542415189
 20
47.2860598459
 10
48.379525965
 20
49.1705598342
 10
48.312829052
 20
51.0528627208
 10
48.2541205111
 20
52.9329453113
 10
48.2033100045
 20
54.8108074035
 10
48.160397069
 20
56.6864152246
 10
48.1253817112
 20
58.5597347933
 10
48.0981743053
 20
60.4307660078
 10
48.0787448278
 20
62.299486773
 10
48.067122854
 20
64.1658529913
 10
48.0633081601
 20
66.0298319465
  0
LWPOLYLINE
  5
430
100
AcDbEntity
  8
ASSI
100
AcDbPolyline
 62
253
  6
CONTINUOUS
 90
13
 70
0
 10
48.634084984
 20
43.382456212
 10
48.5369459103
 20
45.3994089287
 10
48.4542415189
 20
47.2860598459
 10
48.379525965
 20
49.1705598342
 10
48.312829052
 20
51.0528627208
 10
48.2541205111
 20
52.9329453113
 10
48.2033100045
 20
54.8108074035
 10
48.160397069
 20
56.6864152246
 10
48.1253817112
 20
58.5597347933
 10
48.0981743053
 20
60.4307660078
 10
48.0787448278
 20
62.299486773
 10
48.067122854
 20
64.1658529913
 10
48.0633081601
 20
66.0298319465
  0
LINE
  5
431
100
AcDbEntity
  8
RACCORDO
100
AcDbLine
 62
253
  6
CONTINUOUS
 10
48.5369818631
 20
157.6611081926
 11
48.634084984
 21
159.6772076809
  0
LINE
  5
432
100
AcDbEntity
  8
ASSI
100
AcDbLine
 62
253
  6
CONTINUOUS
 10
48.5369818631
 20
157.6611081926
 11
48.634084984
 21
159.6772076809
  0
LWPOLYLINE
  5
433
100
AcDbEntity
  8
RACCORDO
100
AcDbPolyline
 62
253
  6
CONTINUOUS
 90
13
 70
0
 10
48.634084984
 20
159.6772076809
 10
48.7431687588
 20
161.5783689039
 10
48.8784310105
 20
163.4778621243
 10
49.0398713682
 20
165.375313888
 10
49.2275299323
 20
167.2703361078
 10
49.4413658573
 20
169.1625696945
 10
49.6812573674
 20
171.051684321
 10
49.9472184998
 20
172.937301366
 10
50.2392345015
 20
174.8190510557
 10
50.5571404425
 20
176.6966155093
 10
50.9008811278
 20
178.5696384868
 10
51.2705110769
 20
180.4377258103
 10
51.6660299494
 20
182.3005019761
  0
LWPOLYLINE
  5
434
100
AcDbEntity
  8
ASSI
100
AcDbPolyline
 62
253
  6
CONTINUOUS
 90
13
 70
0
 10
48.634084984
 20
159.6772076809
 10
48.7431687588
 20
161.5783689039
 10
48.8784310105
 20
163.4778621243
 10
49.0398713682
 20
165.375313888
 10
49.2275299323
 20
167.2703361078
 10
49.4413658573
 20
169.1625696945
 10
49.6812573674
 20
171.051684321
 10
49.9472184998
 20
172.937301366
 10
50.2392345015
 20
174.8190510557
 10
50.5571404425
 20
176.6966155093
 10
50.9008811278
 20
178.5696384868
 10
51.2705110769
 20
180.4377258103
 10
51.6660299494
 20
182.3005019761
  0
LINE
  5
435
100
AcDbEntity
  8
RACCORDO
100
AcDbLine
 62
253
  6
CONTINUOUS
 10
51.6660299537
 20
182.3005019765
 11
51.6786901789
 21
182.4738237241
  0
LINE
  5
436
100
AcDbEntity
  8
ASSI
100
AcDbLine
 62
253
  6
CONTINUOUS
 10
51.6660299537
 20
182.3005019765
 11
51.6786901789
 21
182.4738237241
  0
LINE
  5
437
100
AcDbEntity
  8
RACCORDO
100
AcDbLine
 62
253
  6
CONTINUOUS
 10
51.6786901789
 20
182.4738237241
 11
51.6876249675
 21
182.5860634539
  0
LINE
  5
438
100
AcDbEntity
  8
ASSI
100
AcDbLine
 62
253
  6
CONTINUOUS
 10
51.6786901789
 20
182.4738237241
 11
51.6876249675
 21
182.5860634539
  0
LINE
  5
439
100
AcDbEntity
  8
RACCORDO
100
AcDbLine
 62
253
  6
CONTINUOUS
 10
51.6876249675
 20
182.5860634539
 11
51.6968035191
 21
182.6941758105
  0
LINE
  5
43A
100
AcDbEntity
  8
ASSI
100
AcDbLine
 62
253
  6
CONTINUOUS
 10
51.6876249675
 20
182.5860634539
 11
51.6968035191
 21
182.6941758105
  0
LINE
  5
43B
100
AcDbEntity
  8
RACCORDO
100
AcDbLine
 62
253
  6
CONTINUOUS
 10
51.6968035191
 20
182.6941758105
 11
51.7061561623
 21
182.7967611535
  0
LINE
  5
43C
100
AcDbEntity
  8
ASSI
100
AcDbLine
 62
253
  6
CONTINUOUS
 10
51.6968035191
 20
182.6941758105
 11
51.7061561623
 21
182.7967611535
  0
LINE
  5
43D
100
AcDbEntity
  8
RACCORDO
100
AcDbLine
 62
253
  6
CONTINUOUS
 10
51.7061561623
 20
182.7967611535
 11
51.7155036903
 21
182.8923075825
  0
LINE
  5
43E
100
AcDbEntity
  8
ASSI
100
AcDbLine
 62
253
  6
CONTINUOUS
 10
51.7061561623
 20
182.7967611535
 11
51.7155036903
 21
182.8923075825
  0
LINE
  5
43F
100
AcDbEntity
  8
RACCORDO
100
AcDbLine
 62
253
  6
CONTINUOUS
 10
52.2366146653
 20
169.4462547948
 11
52.1517164753
 21
168.6156322355
  0
LWPOLYLINE
  5
440
100
AcDbEntity
  8
RACCORDO
100
AcDbPolyline
 62
253
  6
CONTINUOUS
 90
16
 70
0
 10
51.7155036903
 20
182.8923075825
 10
51.7247176229
 20
182.9796568848
 10
51.7292567494
 20
183.0199131918
 10
51.7337085143
 20
183.0577238763
 10
51.7380661401
 20
183.0929696833
 10
51.7423309586
 20
183.1255435187
 10
51.7464701885
 20
183.1553505163
 10
51.750473626
 20
183.1822992485
 10
51.7543392542
 20
183.2063033068
 10
51.75804506
 20
183.2272870344
 10
51.7615765873
 20
183.245182582
 10
51.7649287776
 20
183.2599392439
 10
51.7680925174
 20
183.2715173228
 10
51.7710566466
 20
183.2798787575
 10
51.7738074315
 20
183.2849923888
 10
51.7763308139
 20
183.2868395942
  0
LWPOLYLINE
  5
441
100
AcDbEntity
  8
ASSI
100
AcDbPolyline
 62
253
  6
CONTINUOUS
 90
16
 70
0
 10
51.7155036903
 20
182.8923075825
 10
51.7247176229
 20
182.9796568848
 10
51.7292567494
 20
183.0199131918
 10
51.7337085143
 20
183.0577238763
 10
51.7380661401
 20
183.0929696833
 10
51.7423309586
 20
183.1255435187
 10
51.7464701885
 20
183.1553505163
 10
51.750473626
 20
183.1822992485
 10
51.7543392542
 20
183.2063033068
 10
51.75804506
 20
183.2272870344
 10
51.7615765873
 20
183.245182582
 10
51.7649287776
 20
183.2599392439
 10
51.7680925174
 20
183.2715173228
 10
51.7710566466
 20
183.2798787575
 10
51.7738074315
 20
183.2849923888
 10
51.7763308139
 20
183.2868395942
  0
LWPOLYLINE
  5
442
100
AcDbEntity
  8
RACCORDO
100
AcDbPolyline
 62
253
  6
CONTINUOUS
 90
9
 70
0
 10
51.0012260941
 20
136.9525571308
 10
51.0006467189
 20
136.9508911335
 10
51.0000872004
 20
136.9459203178
 10
50.9995521279
 20
136.937662861
 10
50.9990482185
 20
136.9261488943
 10
50.9985772261
 20
136.9114176153
 10
50.9981359904
 20
136.8935145717
 10
50.9977276845
 20
136.8724956387
 10
50.9970190838
 20
136.8214048236
  0
LINE
  5
443
100
AcDbEntity
  8
RACCORDO
100
AcDbLine
 62
7
  6
CONTINUOUS
 10
50.6082070567
 20
101.870696958
 11
51.1082070567
 21
101.8794244904
  0
LINE
  5
444
100
AcDbEntity
  8
0
100
AcDbLine
 62
253
  6
CONTINUOUS
 10
57.4282973196
 20
101.5298319465
 11
51.1082070567
 21
101.5298319465
  0
LINE
  5
445
100
AcDbEntity
  8
RACCORDO
100
AcDbLine
 62
7
  6
CONTINUOUS
 10
51.1082070567
 20
101.1802394025
 11
50.6082070567
 21
101.1889669349
  0
LINE
  5
446
100
AcDbEntity
  8
0
100
AcDbLine
 62
7
  6
CONTINUOUS
 10
50.6225865563
 20
74.6461187315
 11
50.6289395724
 21
74.5990998413
  0
LWPOLYLINE
  5
447
100
AcDbEntity
  8
0
100
AcDbPolyline
 62
7
  6
CONTINUOUS
 90
3
 70
0
 10
50.6289395724
 20
74.5990998413
 10
50.6345814313
 20
74.5530890565
 10
50.6372075459
 20
74.5304904567
  0
LINE
  5
448
100
AcDbEntity
  8
RACCORDO
100
AcDbLine
 62
7
  6
CONTINUOUS
 10
50.6372075459
 20
74.5304904567
 11
50.6409852984
 21
74.4935904953
  0
LWPOLYLINE
  5
449
100
AcDbEntity
  8
RACCORDO
100
AcDbPolyline
 62
7
  6
CONTINUOUS
 90
6
 70
0
 10
50.6409852984
 20
74.4935904953
 10
50.644102558
 20
74.4569744838
 10
50.646559325
 20
74.4206424223
 10
50.6483555992
 20
74.3845943108
 10
50.6494913807
 20
74.3488301493
 10
50.6499666694
 20
74.3133499378
  0
LINE
  5
44A
100
AcDbEntity
  8
RACCORDO
100
AcDbLine
 62
253
  6
CONTINUOUS
 10
51.5983428061
 20
40.5631886172
 11
51.5448519958
 21
41.3953360699
  0
LWPOLYLINE
  5
44B
100
AcDbEntity
  8
RACCORDO
100
AcDbPolyline
 62
253
  6
CONTINUOUS
 90
3
 70
0
 10
51.5448519958
 20
41.3953360699
 10
51.4940256337
 20
42.247346341
 10
51.4696630295
 20
42.6798319465
  0
LINE
  5
44C
100
AcDbEntity
  8
RACCORDO
100
AcDbLine
 62
253
  6
CONTINUOUS
 10
51.3399813898
 20
45.2840661401
 11
51.4248413682
 21
43.5298319465
  0
LINE
  5
44D
100
AcDbEntity
  8
RACCORDO
100
AcDbLine
 62
253
  6
CONTINUOUS
 10
51.2638916392
 20
46.9876700148
 11
51.3399813898
 21
45.2840661401
  0
LINE
  5
44E
100
AcDbEntity
  8
RACCORDO
100
AcDbLine
 62
253
  6
CONTINUOUS
 10
51.1965721163
 20
48.6406435707
 11
51.2638916392
 21
46.9876700148
  0
LINE
  5
44F
100
AcDbEntity
  8
RACCORDO
100
AcDbLine
 62
253
  6
CONTINUOUS
 10
51.2115594961
 20
49.4194127805
 11
51.2412304621
 21
48.6394741508
  0
LWPOLYLINE
  5
450
100
AcDbEntity
  8
0
100
AcDbPolyline
 62
7
  6
CONTINUOUS
 90
8
 70
0
 10
50.6082081527
 20
74.8159186591
 10
50.6088232771
 20
74.7913462789
 10
50.6099466803
 20
74.7668451009
 10
50.6115777714
 20
74.7424353794
 10
50.6138290591
 20
74.7181302763
 10
50.6165868823
 20
74.6939545685
 10
50.6195113691
 20
74.669945014
 10
50.6225865563
 20
74.6461187315
  0
LINE
  5
451
100
AcDbEntity
  8
RACCORDO
100
AcDbLine
 62
253
  6
CONTINUOUS
 10
50.9981405607
 20
66.1660057028
 11
50.9973604925
 21
66.2110410339
  0
LINE
  5
452
100
AcDbEntity
  8
RACCORDO
100
AcDbLine
 62
253
  6
CONTINUOUS
 10
50.9980407513
 20
126.1678883485
 11
50.9972375712
 21
126.2143391149
  0
LINE
  5
453
100
AcDbEntity
  8
RACCORDO
100
AcDbLine
 62
253
  6
CONTINUOUS
 10
50.9998435152
 20
74.9649136926
 11
51.0012260941
 21
74.8748951334
  0
LWPOLYLINE
  5
454
100
AcDbEntity
  8
RACCORDO
100
AcDbPolyline
 62
7
  6
CONTINUOUS
 90
7
 70
0
 10
50.6499666694
 20
134.3133499378
 10
50.6494913807
 20
134.3488301493
 10
50.6483555992
 20
134.3845943108
 10
50.646559325
 20
134.4206424223
 10
50.644102558
 20
134.4569744838
 10
50.6409852984
 20
134.4935904953
 10
50.6372075459
 20
134.5304904567
  0
LINE
  5
455
100
AcDbEntity
  8
RACCORDO
100
AcDbLine
 62
253
  6
CONTINUOUS
 10
50.9998095497
 20
134.876401953
 11
51.0012260941
 21
134.7834047566
  0
LINE
  5
456
100
AcDbEntity
  8
RACCORDO
100
AcDbLine
 62
253
  6
CONTINUOUS
 10
50.9973604925
 20
66.2110410339
 11
50.9967225006
 21
66.2679257441
  0
LINE
  5
457
100
AcDbEntity
  8
RACCORDO
100
AcDbLine
 62
253
  6
CONTINUOUS
 10
50.9972375712
 20
126.2143391149
 11
50.9965827145
 21
126.2729780574
  0
LINE
  5
458
100
AcDbEntity
  8
RACCORDO
100
AcDbLine
 62
253
  6
CONTINUOUS
 10
50.9984980147
 20
75.1038342514
 11
50.9998435152
 21
74.9649136926
  0
LINE
  5
459
100
AcDbEntity
  8
RACCORDO
100
AcDbLine
 62
253
  6
CONTINUOUS
 10
50.9984518878
 20
135.0202562411
 11
50.9998095497
 21
134.876401953
  0
LWPOLYLINE
  5
45A
100
AcDbEntity
  8
RACCORDO
100
AcDbPolyline
 62
253
  6
CONTINUOUS
 90
10
 70
0
 10
50.8645457499
 20
63.6493379871
 10
50.8746582919
 20
62.1591964967
 10
50.8903222837
 20
60.6511309509
 10
50.9115377255
 20
59.1251413497
 10
50.9378762476
 20
57.5876926277
 10
50.9697662196
 20
56.0323198503
 10
51.0084927498
 20
54.4396282134
 10
51.0544842076
 20
52.8031527823
 10
51.1073122235
 20
51.1293584916
 10
51.1669767975
 20
49.4182453415
  0
LINE
  5
45B
100
AcDbEntity
  8
RACCORDO
100
AcDbLine
 62
253
  6
CONTINUOUS
 10
50.9967225006
 20
66.2679257441
 11
50.9960540636
 21
66.3737625475
  0
LINE
  5
45C
100
AcDbEntity
  8
RACCORDO
100
AcDbLine
 62
253
  6
CONTINUOUS
 10
50.9965827145
 20
126.2729780574
 11
50.9959019927
 21
126.3819710292
  0
LINE
  5
45D
100
AcDbEntity
  8
RACCORDO
100
AcDbLine
 62
253
  6
CONTINUOUS
 10
50.9058998925
 20
64.4114088021
 11
50.9093134349
 21
63.648165704
  0
LINE
  5
45E
100
AcDbEntity
  8
RACCORDO
100
AcDbLine
 62
253
  6
CONTINUOUS
 10
50.9978019733
 20
75.2557465578
 11
50.9984980147
 21
75.1038342514
  0
LINE
  5
45F
100
AcDbEntity
  8
RACCORDO
100
AcDbLine
 62
253
  6
CONTINUOUS
 10
50.99577233
 20
76.3546365898
 11
50.9977362774
 21
75.9461089797
  0
LINE
  5
460
100
AcDbEntity
  8
RACCORDO
100
AcDbLine
 62
253
  6
CONTINUOUS
 10
50.9959095985
 20
136.3604526159
 11
50.9977362774
 21
135.9700377892
  0
LINE
  5
461
100
AcDbEntity
  8
RACCORDO
100
AcDbLine
 62
253
  6
CONTINUOUS
 10
50.9977871385
 20
135.1773669517
 11
50.9984518878
 21
135.0202562411
  0
LINE
  5
462
100
AcDbEntity
  8
RACCORDO
100
AcDbLine
 62
253
  6
CONTINUOUS
 10
51.0012260277
 20
68.3221334133
 11
51.0007144238
 21
68.4472573254
  0
LINE
  5
463
100
AcDbEntity
  8
RACCORDO
100
AcDbLine
 62
253
  6
CONTINUOUS
 10
51.0012260277
 20
128.3221334133
 11
51.0007144238
 21
128.4472573254
  0
LINE
  5
464
100
AcDbEntity
  8
RACCORDO
100
AcDbLine
 62
253
  6
CONTINUOUS
 10
51.0006560776
 20
74.5257231413
 11
51.001226063
 21
74.3133622156
  0
LINE
  5
465
100
AcDbEntity
  8
RACCORDO
100
AcDbLine
 62
253
  6
CONTINUOUS
 10
51.0006560776
 20
134.5257231413
 11
51.001226063
 21
134.3133622156
  0
LINE
  5
466
100
AcDbEntity
  8
RACCORDO
100
AcDbLine
 62
7
  6
CONTINUOUS
 10
47.6068860315
 20
66.0298319465
 11
47.6068860315
 21
137.0298319465
  0
LINE
  5
467
100
AcDbEntity
  8
ASSI
100
AcDbLine
 62
7
  6
CONTINUOUS
 10
47.6068860315
 20
66.0298319465
 11
47.6068860315
 21
137.0298319465
  0
LINE
  5
468
100
AcDbEntity
  8
RACCORDO
100
AcDbLine
 62
253
  6
CONTINUOUS
 10
48.0633081601
 20
66.0298319465
 11
48.0633081601
 21
137.0298319465
  0
LINE
  5
469
100
AcDbEntity
  8
ASSI
100
AcDbLine
 62
253
  6
CONTINUOUS
 10
48.0633081601
 20
66.0298319465
 11
48.0633081601
 21
137.0298319465
  0
LINE
  5
46A
100
AcDbEntity
  8
DRAFT
100
AcDbLine
 62
7
  6
CONTINUOUS
 10
50.6068860315
 20
137.0298319465
 11
50.6068860315
 21
66.0298319465
  0
LINE
  5
46B
100
AcDbEntity
  8
ASSI
100
AcDbLine
 62
7
  6
CONTINUOUS
 10
50.6068860315
 20
137.0298319465
 11
50.6068860315
 21
66.0298319465
  0
LINE
  5
46C
100
AcDbEntity
  8
RACCORDO
100
AcDbLine
 62
7
  6
CONTINUOUS
 10
50.6499664144
 20
131.9047069481
 11
50.6499666694
 21
134.3133499378
  0
LINE
  5
46D
100
AcDbEntity
  8
RACCORDO
100
AcDbLine
 62
7
  6
CONTINUOUS
 10
50.6499664344
 20
68.7463139552
 11
50.6499664144
 21
71.1549569448
  0
LINE
  5
46E
100
AcDbEntity
  8
RACCORDO
100
AcDbLine
 62
7
  6
CONTINUOUS
 10
50.6499664344
 20
128.7463139552
 11
50.6499664144
 21
131.1549569448
  0
LINE
  5
46F
100
AcDbEntity
  8
RACCORDO
100
AcDbLine
 62
7
  6
CONTINUOUS
 10
50.6499664144
 20
71.9047069481
 11
50.6499666694
 21
74.3133499378
  0
LINE
  5
470
100
AcDbEntity
  8
RACCORDO
100
AcDbLine
 62
253
  6
CONTINUOUS
 10
50.7578517176
 20
71.9075320242
 11
50.7578517176
 21
76.8644671394
  0
LINE
  5
471
100
AcDbEntity
  8
RACCORDO
100
AcDbLine
 62
253
  6
CONTINUOUS
 10
50.8582070567
 20
126.1362359158
 11
50.8582070567
 21
124.4101599213
  0
LINE
  5
472
100
AcDbEntity
  8
RACCORDO
100
AcDbLine
 62
253
  6
CONTINUOUS
 10
50.8582070567
 20
123.6495039716
 11
50.8582070567
 21
109.4101599213
  0
LINE
  5
473
100
AcDbEntity
  8
RACCORDO
100
AcDbLine
 62
253
  6
CONTINUOUS
 10
50.8582070567
 20
108.6495039716
 11
50.8582070567
 21
101.8750607242
  0
LINE
  5
474
100
AcDbEntity
  8
RACCORDO
100
AcDbLine
 62
253
  6
CONTINUOUS
 10
50.8582070567
 20
101.1846031687
 11
50.8582070567
 21
94.4101599213
  0
LINE
  5
475
100
AcDbEntity
  8
RACCORDO
100
AcDbLine
 62
253
  6
CONTINUOUS
 10
50.8582070567
 20
93.6495039716
 11
50.8582070567
 21
79.4101599213
  0
LINE
  5
476
100
AcDbEntity
  8
RACCORDO
100
AcDbLine
 62
253
  6
CONTINUOUS
 10
50.8582070567
 20
78.6495039716
 11
50.8582070567
 21
76.9234279771
  0
LINE
  5
477
100
AcDbEntity
  8
RACCORDO
100
AcDbLine
 62
253
  6
CONTINUOUS
 10
50.8582070567
 20
66.1362359158
 11
50.8611411699
 21
64.4102367537
  0
LINE
  5
478
100
AcDbEntity
  8
RACCORDO
100
AcDbLine
 62
253
  6
CONTINUOUS
 10
50.9029713348
 20
131.9113321151
 11
50.9029713348
 21
131.1483317778
  0
LINE
  5
479
100
AcDbEntity
  8
RACCORDO
100
AcDbLine
 62
253
  6
CONTINUOUS
 10
50.9029713348
 20
124.4113321151
 11
50.9029713348
 21
123.6483317778
  0
LINE
  5
47A
100
AcDbEntity
  8
RACCORDO
100
AcDbLine
 62
253
  6
CONTINUOUS
 10
50.9029713348
 20
109.4113321151
 11
50.9029713348
 21
108.6483317778
  0
LINE
  5
47B
100
AcDbEntity
  8
RACCORDO
100
AcDbLine
 62
253
  6
CONTINUOUS
 10
50.9029713348
 20
94.4113321151
 11
50.9029713348
 21
93.6483317778
  0
LINE
  5
47C
100
AcDbEntity
  8
RACCORDO
100
AcDbLine
 62
253
  6
CONTINUOUS
 10
50.9029713348
 20
71.1483317778
 11
50.9029713348
 21
71.9113321151
  0
LINE
  5
47D
100
AcDbEntity
  8
RACCORDO
100
AcDbLine
 62
253
  6
CONTINUOUS
 10
50.9029713348
 20
78.6483317778
 11
50.9029713348
 21
79.4113321151
  0
LINE
  5
47E
100
AcDbEntity
  8
RACCORDO
100
AcDbLine
 62
253
  6
CONTINUOUS
 10
50.9977362774
 20
135.9700377892
 11
50.9977871385
 21
135.1773669517
  0
LINE
  5
47F
100
AcDbEntity
  8
RACCORDO
100
AcDbLine
 62
253
  6
CONTINUOUS
 10
50.9977362774
 20
75.9461089797
 11
50.9978019733
 21
75.2557465578
  0
LINE
  5
480
100
AcDbEntity
  8
RACCORDO
100
AcDbLine
 62
253
  6
CONTINUOUS
 10
51.0012260941
 20
134.7834047566
 11
51.0012260941
 21
134.737532315
  0
LINE
  5
481
100
AcDbEntity
  8
RACCORDO
100
AcDbLine
 62
253
  6
CONTINUOUS
 10
51.0012260941
 20
134.3133622154
 11
51.0012260941
 21
131.9139050066
  0
LINE
  5
482
100
AcDbEntity
  8
RACCORDO
100
AcDbLine
 62
253
  6
CONTINUOUS
 10
51.0012260941
 20
74.8748951334
 11
51.0012260941
 21
74.737532315
  0
LINE
  5
483
100
AcDbEntity
  8
RACCORDO
100
AcDbLine
 62
253
  6
CONTINUOUS
 10
51.0012260941
 20
74.3133622154
 11
51.0012260941
 21
71.9139050066
  0
LINE
  5
484
100
AcDbEntity
  8
RACCORDO
100
AcDbLine
 62
253
  6
CONTINUOUS
 10
51.0012260941
 20
68.2753176105
 11
51.0012260941
 21
68.3221334133
  0
LINE
  5
485
100
AcDbEntity
  8
RACCORDO
100
AcDbLine
 62
253
  6
CONTINUOUS
 10
51.0012260941
 20
68.7463191269
 11
51.0012260941
 21
71.1457588863
  0
LINE
  5
486
100
AcDbEntity
  8
RACCORDO
100
AcDbLine
 62
253
  6
CONTINUOUS
 10
51.0012260941
 20
128.1856787661
 11
51.0012260941
 21
128.3221334133
  0
LINE
  5
487
100
AcDbEntity
  8
RACCORDO
100
AcDbLine
 62
253
  6
CONTINUOUS
 10
51.0012260941
 20
128.7463191269
 11
51.0012260941
 21
131.1457588863
  0
LINE
  5
488
100
AcDbEntity
  8
0
100
AcDbLine
 62
7
  6
CONTINUOUS
 10
51.1082070567
 20
66.0298319465
 11
51.1082070567
 21
137.0298319465
  0
LINE
  5
489
100
AcDbEntity
  8
RACCORDO
100
AcDbLine
 62
253
  6
CONTINUOUS
 10
50.9959019927
 20
126.3819710292
 11
50.9956111417
 21
126.6110652035
  0
LINE
  5
48A
100
AcDbEntity
  8
RACCORDO
100
AcDbLine
 62
253
  6
CONTINUOUS
 10
50.9960540636
 20
66.3737625475
 11
50.9957472842
 21
66.5967059407
  0
LINE
  5
48B
100
AcDbEntity
  8
RACCORDO
100
AcDbLine
 62
253
  6
CONTINUOUS
 10
50.9958054697
 20
136.6026817023
 11
50.9959095985
 21
136.3604526159
  0
LINE
  5
48C
100
AcDbEntity
  8
RACCORDO
100
AcDbLine
 62
253
  6
CONTINUOUS
 10
50.9957152616
 20
76.6188973207
 11
50.99577233
 21
76.3546365898
  0
LWPOLYLINE
  5
48D
100
AcDbEntity
  8
RACCORDO
100
AcDbPolyline
 62
253
  6
CONTINUOUS
 90
12
 70
0
 10
48.0633081601
 20
137.0298319465
 10
48.0671295868
 20
138.8946651161
 10
48.0787602711
 20
140.7617301935
 10
48.0982004223
 20
142.6309944379
 10
48.1254223739
 20
144.5024137451
 10
48.160454211
 20
146.3759660261
 10
48.2033797742
 20
148.2516511979
 10
48.2541990547
 20
150.1294353052
 10
48.3129124883
 20
152.0092846471
 10
48.3796045891
 20
153.8911991341
 10
48.4543036747
 20
155.7751556753
 10
48.5369818631
 20
157.6611081926
  0
LWPOLYLINE
  5
48E
100
AcDbEntity
  8
ASSI
100
AcDbPolyline
 62
253
  6
CONTINUOUS
 90
12
 70
0
 10
48.0633081601
 20
137.0298319465
 10
48.0671295868
 20
138.8946651161
 10
48.0787602711
 20
140.7617301935
 10
48.0982004223
 20
142.6309944379
 10
48.1254223739
 20
144.5024137451
 10
48.160454211
 20
146.3759660261
 10
48.2033797742
 20
148.2516511979
 10
48.2541990547
 20
150.1294353052
 10
48.3129124883
 20
152.0092846471
 10
48.3796045891
 20
153.8911991341
 10
48.4543036747
 20
155.7751556753
 10
48.5369818631
 20
157.6611081926
  0
LINE
  5
48F
100
AcDbEntity
  8
RACCORDO
100
AcDbLine
 62
253
  6
CONTINUOUS
 10
51.0007144238
 20
128.4472573254
 11
51.0008670982
 21
128.6549020359
  0
LINE
  5
490
100
AcDbEntity
  8
RACCORDO
100
AcDbLine
 62
253
  6
CONTINUOUS
 10
51.0007144238
 20
68.4472573254
 11
51.0008670982
 21
68.6549020359
  0
LINE
  5
491
100
AcDbEntity
  8
RACCORDO
100
AcDbLine
 62
253
  6
CONTINUOUS
 10
50.8611411699
 20
138.6494271392
 11
50.8582070567
 21
136.9234279771
  0
LINE
  5
492
100
AcDbEntity
  8
RACCORDO
100
AcDbLine
 62
253
  6
CONTINUOUS
 10
51.0009591249
 20
134.6904600352
 11
51.0006560776
 21
134.5257231413
  0
LINE
  5
493
100
AcDbEntity
  8
RACCORDO
100
AcDbLine
 62
253
  6
CONTINUOUS
 10
51.0009591249
 20
74.6904600352
 11
51.0006560776
 21
74.5257231413
  0
LINE
  5
494
100
AcDbEntity
  8
RACCORDO
100
AcDbLine
 62
253
  6
CONTINUOUS
 10
50.9977362774
 20
67.0891217304
 11
50.9980629378
 21
67.9685901517
  0
LINE
  5
495
100
AcDbEntity
  8
RACCORDO
100
AcDbLine
 62
253
  6
CONTINUOUS
 10
50.9977362774
 20
127.1140563237
 11
50.998101838
 21
127.88958564
  0
LINE
  5
496
100
AcDbEntity
  8
RACCORDO
100
AcDbLine
 62
253
  6
CONTINUOUS
 10
51.0008670982
 20
128.6549020359
 11
51.0012261073
 21
128.746319127
  0
LINE
  5
497
100
AcDbEntity
  8
RACCORDO
100
AcDbLine
 62
253
  6
CONTINUOUS
 10
51.0008670982
 20
68.6549020359
 11
51.0012261073
 21
68.746319127
  0
LINE
  5
498
100
AcDbEntity
  8
RACCORDO
100
AcDbLine
 62
253
  6
CONTINUOUS
 10
50.9093134349
 20
139.4114981889
 11
50.9058998925
 21
138.6482550908
  0
LINE
  5
499
100
AcDbEntity
  8
RACCORDO
100
AcDbLine
 62
253
  6
CONTINUOUS
 10
50.9957472842
 20
66.5967059407
 11
50.9970276478
 21
66.9744464454
  0
LINE
  5
49A
100
AcDbEntity
  8
RACCORDO
100
AcDbLine
 62
253
  6
CONTINUOUS
 10
50.9956111417
 20
126.6110652035
 11
50.9969872488
 21
126.9973607057
  0
LINE
  5
49B
100
AcDbEntity
  8
RACCORDO
100
AcDbLine
 62
253
  6
CONTINUOUS
 10
50.9964575857
 20
136.7588352902
 11
50.9958054697
 21
136.6026817023
  0
LINE
  5
49C
100
AcDbEntity
  8
RACCORDO
100
AcDbLine
 62
253
  6
CONTINUOUS
 10
51.0012260345
 20
134.737532315
 11
51.0009591249
 21
134.6904600352
  0
LINE
  5
49D
100
AcDbEntity
  8
RACCORDO
100
AcDbLine
 62
253
  6
CONTINUOUS
 10
51.0012260345
 20
74.737532315
 11
51.0009591249
 21
74.6904600352
  0
LINE
  5
49E
100
AcDbEntity
  8
RACCORDO
100
AcDbLine
 62
253
  6
CONTINUOUS
 10
50.9970276478
 20
66.9744464454
 11
50.9977362774
 21
67.0891217304
  0
LINE
  5
49F
100
AcDbEntity
  8
RACCORDO
100
AcDbLine
 62
253
  6
CONTINUOUS
 10
50.9963672799
 20
76.7598848919
 11
50.9957152616
 21
76.6188973207
  0
LINE
  5
4A0
100
AcDbEntity
  8
RACCORDO
100
AcDbLine
 62
253
  6
CONTINUOUS
 10
50.9969872488
 20
126.9973607057
 11
50.9977362774
 21
127.1140563237
  0
LINE
  5
4A1
100
AcDbEntity
  8
RACCORDO
100
AcDbLine
 62
253
  6
CONTINUOUS
 10
50.9980629378
 20
67.9685901517
 11
50.9991178035
 21
68.1198591268
  0
LINE
  5
4A2
100
AcDbEntity
  8
RACCORDO
100
AcDbLine
 62
253
  6
CONTINUOUS
 10
50.998101838
 20
127.88958564
 11
50.9991638443
 21
128.0354996878
  0
LINE
  5
4A3
100
AcDbEntity
  8
RACCORDO
100
AcDbLine
 62
253
  6
CONTINUOUS
 10
50.9970190838
 20
136.8214048236
 11
50.9964575857
 21
136.7588352902
  0
LINE
  5
4A4
100
AcDbEntity
  8
RACCORDO
100
AcDbLine
 62
253
  6
CONTINUOUS
 10
50.9972008902
 20
76.8425582654
 11
50.9963672799
 21
76.7598848919
  0
LWPOLYLINE
  5
4A5
100
AcDbEntity
  8
RACCORDO
100
AcDbPolyline
 62
7
  6
CONTINUOUS
 90
7
 70
0
 10
50.6499664344
 20
68.7463139552
 10
50.649494622
 20
68.7108907973
 10
50.6483609686
 20
68.6751608676
 10
50.6465654742
 20
68.6391241659
 10
50.6441081388
 20
68.6027806923
 10
50.6409889624
 20
68.5661304467
 10
50.637207945
 20
68.5291734292
  0
LINE
  5
4A6
100
AcDbEntity
  8
RACCORDO
100
AcDbLine
 62
253
  6
CONTINUOUS
 10
50.9991178035
 20
68.1198591268
 11
51.0004324979
 21
68.2276117894
  0
LINE
  5
4A7
100
AcDbEntity
  8
RACCORDO
100
AcDbLine
 62
253
  6
CONTINUOUS
 10
50.9991638443
 20
128.0354996878
 11
51.000453617
 21
128.1395057297
  0
LINE
  5
4A8
100
AcDbEntity
  8
RACCORDO
100
AcDbLine
 62
253
  6
CONTINUOUS
 10
51.0004324979
 20
68.2276117894
 11
51.0012258416
 21
68.2753176107
  0
LINE
  5
4A9
100
AcDbEntity
  8
RACCORDO
100
AcDbLine
 62
253
  6
CONTINUOUS
 10
51.000453617
 20
128.1395057297
 11
51.0012259075
 21
128.1856787663
  0
LWPOLYLINE
  5
4AA
100
AcDbEntity
  8
0
100
AcDbPolyline
 62
7
  6
CONTINUOUS
 90
9
 70
0
 10
50.6082077351
 20
128.2437444686
 10
50.6088393747
 20
128.2685323394
 10
50.6099764875
 20
128.2931926629
 10
50.6116183773
 20
128.3177036953
 10
50.6138781861
 20
128.3420387578
 10
50.6166414112
 20
128.36618427
 10
50.6195659268
 20
128.3901399124
 10
50.6226326681
 20
128.4138887749
 10
50.628959558
 20
128.4607174331
  0
LWPOLYLINE
  5
4AB
100
AcDbEntity
  8
RACCORDO
100
AcDbPolyline
 62
253
  6
CONTINUOUS
 90
10
 70
0
 10
51.1669767975
 20
153.6414185514
 10
51.1152300282
 20
152.2021806367
 10
51.067778856
 20
150.7304000504
 10
51.0246232811
 20
149.2260767924
 10
50.9854429931
 20
147.6931521677
 10
50.9505583023
 20
146.1276848713
 10
50.9209301395
 20
144.5178509884
 10
50.896878815
 20
142.859709214
 10
50.8780840184
 20
141.1572008532
 10
50.8645457499
 20
139.4103259058
  0
LINE
  5
4AC
100
AcDbEntity
  8
RACCORDO
100
AcDbLine
 62
253
  6
CONTINUOUS
 10
51.2412304621
 20
154.4201897421
 11
51.2115594961
 21
153.6402511124
  0
LINE
  5
4AD
100
AcDbEntity
  8
RACCORDO
100
AcDbLine
 62
253
  6
CONTINUOUS
 10
51.2666914525
 20
156.1347507422
 11
51.1965721163
 21
154.4190203222
  0
LINE
  5
4AE
100
AcDbEntity
  8
RACCORDO
100
AcDbLine
 62
253
  6
CONTINUOUS
 10
51.3427812031
 20
157.838354617
 11
51.2666914525
 21
156.1347507422
  0
LINE
  5
4AF
100
AcDbEntity
  8
RACCORDO
100
AcDbLine
 62
253
  6
CONTINUOUS
 10
51.4248413682
 20
159.5298319465
 11
51.3427812031
 21
157.838354617
  0
LWPOLYLINE
  5
4B0
100
AcDbEntity
  8
RACCORDO
100
AcDbPolyline
 62
253
  6
CONTINUOUS
 90
22
 70
0
 10
50.6082070567
 20
128.0393148698
 10
50.609300848
 20
128.0602174609
 10
50.6125762362
 20
128.0810057193
 10
50.618015303
 20
128.1015659555
 10
50.6255882969
 20
128.1217857273
 10
50.6352537966
 20
128.1415544555
 10
50.6469589374
 20
128.1607640285
 10
50.6606397
 20
128.1793093921
 10
50.6762212611
 20
128.1970891255
 10
50.6936184038
 20
128.2140059964
 10
50.7127359809
 20
128.2299674902
 10
50.7334694375
 20
128.2448863179
 10
50.7557053841
 20
128.2586808942
 10
50.7793222125
 20
128.2712757804
 10
50.8041907634
 20
128.2826020993
 10
50.8301750363
 20
128.2925979127
 10
50.8571329253
 20
128.301208557
 10
50.8849170012
 20
128.308386944
 10
50.9133753211
 20
128.3140938191
 10
50.9423522524
 20
128.3182979739
 10
50.9716893232
 20
128.3209764178
 10
51.0012260941
 20
128.322114504
  0
LWPOLYLINE
  5
4B1
100
AcDbEntity
  8
RACCORDO
100
AcDbPolyline
 62
253
  6
CONTINUOUS
 90
22
 70
0
 10
50.6082070567
 20
127.9028888854
 10
50.6093008321
 20
127.9237913247
 10
50.6125761764
 20
127.944579451
 10
50.6180151772
 20
127.9651395769
 10
50.6255880893
 20
127.9853592613
 10
50.6352534974
 20
128.0051279254
 10
50.6469585425
 20
128.0243374569
 10
50.6606392113
 20
128.042882801
 10
50.6762206857
 20
128.0606625357
 10
50.6936177527
 20
128.0775794258
 10
50.7127352698
 20
128.0935409548
 10
50.7334686856
 20
128.1084598312
 10
50.7557046118
 20
128.1222544653
 10
50.7793214427
 20
128.1348494162
 10
50.8041900208
 20
128.1461758035
 10
50.8301743429
 20
128.1561716847
 10
50.857132304
 20
128.1647823935
 10
50.8849164743
 20
128.1719608389
 10
50.9133749056
 20
128.177667763
 10
50.9423519623
 20
128.1818719553
 10
50.9716891723
 20
128.1845504235
 10
51.0012260941
 20
128.1856885196
  0
LWPOLYLINE
  5
4B2
100
AcDbEntity
  8
RACCORDO
100
AcDbPolyline
 62
253
  6
CONTINUOUS
 90
22
 70
0
 10
50.6082070567
 20
68.0393148698
 10
50.609300848
 20
68.0602174609
 10
50.6125762362
 20
68.0810057193
 10
50.618015303
 20
68.1015659555
 10
50.6255882969
 20
68.1217857273
 10
50.6352537966
 20
68.1415544555
 10
50.6469589374
 20
68.1607640285
 10
50.6606397
 20
68.1793093921
 10
50.6762212611
 20
68.1970891255
 10
50.6936184038
 20
68.2140059964
 10
50.7127359809
 20
68.2299674902
 10
50.7334694375
 20
68.2448863179
 10
50.7557053841
 20
68.2586808942
 10
50.7793222125
 20
68.2712757804
 10
50.8041907634
 20
68.2826020993
 10
50.8301750363
 20
68.2925979127
 10
50.8571329253
 20
68.301208557
 10
50.8849170012
 20
68.308386944
 10
50.9133753211
 20
68.3140938191
 10
50.9423522524
 20
68.3182979739
 10
50.9716893232
 20
68.3209764178
 10
51.0012260941
 20
68.322114504
  0
LWPOLYLINE
  5
4B3
100
AcDbEntity
  8
RACCORDO
100
AcDbPolyline
 62
253
  6
CONTINUOUS
 90
7
 70
0
 10
50.6082070567
 20
67.9925311912
 10
50.6093008321
 20
68.0134336304
 10
50.6125761764
 20
68.0342217568
 10
50.6180151772
 20
68.0547818826
 10
50.6255880893
 20
68.0750015671
 10
50.6352534974
 20
68.0947702312
 10
50.6469585425
 20
68.1139797627
  0
LINE
  5
4B4
100
AcDbEntity
  8
RACCORDO
100
AcDbLine
 62
253
  6
CONTINUOUS
 10
51.4696630295
 20
160.3798319465
 11
51.5159350244
 21
161.1886524337
  0
LINE
  5
4B5
100
AcDbEntity
  8
RACCORDO
100
AcDbLine
 62
253
  6
CONTINUOUS
 10
51.5159350244
 20
161.1886524337
 11
51.5664460323
 21
162.0074592019
  0
LINE
  5
4B6
100
AcDbEntity
  8
RACCORDO
100
AcDbLine
 62
253
  6
CONTINUOUS
 10
51.5664460323
 20
162.0074592019
 11
51.6216022298
 21
162.8408420485
  0
LWPOLYLINE
  5
4B7
100
AcDbEntity
  8
RACCORDO
100
AcDbPolyline
 62
253
  6
CONTINUOUS
 90
3
 70
0
 10
51.6216022298
 20
162.8408420485
 10
51.6830283223
 20
163.7071601629
 10
51.7159910352
 20
164.1515224961
  0
LWPOLYLINE
  5
4B8
100
AcDbEntity
  8
RACCORDO
100
AcDbPolyline
 62
253
  6
CONTINUOUS
 90
35
 70
0
 10
51.7159910352
 20
164.1515224961
 10
51.7203416465
 20
164.205795706
 10
51.7250701552
 20
164.2583408445
 10
51.7301765611
 20
164.3091579116
 10
51.7356640908
 20
164.3582581693
 10
51.7415295177
 20
164.4056303557
 10
51.7477631626
 20
164.4512406848
 10
51.7543658293
 20
164.4950654858
 10
51.761336714
 20
164.5371284295
 10
51.768663726
 20
164.5774667429
 10
51.7763428606
 20
164.6160627076
 10
51.7843781226
 20
164.6529340419
 10
51.7927694356
 20
164.688171128
 10
51.8015167936
 20
164.7217895013
 10
51.8106202027
 20
164.7537736264
 10
51.8200796047
 20
164.784167279
 10
51.8298981029
 20
164.8129887525
 10
51.840072594
 20
164.8402197536
 10
51.85059371
 20
164.8658491776
 10
51.8614722257
 20
164.8898953133
 10
51.8726973664
 20
164.912339872
 10
51.8842274396
 20
164.9331168825
 10
51.8960893156
 20
164.9522342496
 10
51.9082561243
 20
164.9696840684
 10
51.9206055622
 20
164.9853766534
 10
51.9331563934
 20
164.9992711973
 10
51.9458898539
 20
165.0114085072
 10
51.9586273484
 20
165.0218213196
 10
51.9713197803
 20
165.0304502351
 10
51.9840162461
 20
165.037354653
 10
51.9966854401
 20
165.0427455078
 10
52.0092492116
 20
165.046659713
 10
52.0217857111
 20
165.0490603551
 10
52.034498085
 20
165.0500476274
 10
52.0394161433
 20
165.0499210754
  0
LWPOLYLINE
  5
4B9
100
AcDbEntity
  8
RACCORDO
100
AcDbPolyline
 62
7
  6
CONTINUOUS
 90
6
 70
0
 10
50.6409889624
 20
128.5661304467
 10
50.6441081388
 20
128.6027806923
 10
50.6465654742
 20
128.6391241659
 10
50.6483609686
 20
128.6751608676
 10
50.649494622
 20
128.7108907973
 10
50.6499664344
 20
128.7463139552
  0
LINE
  5
4BA
100
AcDbEntity
  8
RACCORDO
100
AcDbLine
 62
7
  6
CONTINUOUS
 10
50.637207945
 20
128.5291734292
 11
50.6409889624
 21
128.5661304467
  0
LWPOLYLINE
  5
4BB
100
AcDbEntity
  8
0
100
AcDbPolyline
 62
7
  6
CONTINUOUS
 90
3
 70
0
 10
50.628959558
 20
128.4607174331
 10
50.6318370179
 20
128.4837901205
 10
50.637207945
 20
128.5291734292
  0
LINE
  5
4BC
100
AcDbEntity
  8
RACCORDO
100
AcDbLine
 62
7
  6
CONTINUOUS
 10
50.6082070567
 20
109.4036134409
 11
51.1082070567
 21
109.4167064017
  0
LINE
  5
4BD
100
AcDbEntity
  8
RACCORDO
100
AcDbLine
 62
7
  6
CONTINUOUS
 10
50.6082070567
 20
108.656050452
 11
51.1082070567
 21
108.6429574912
  0
LWPOLYLINE
  5
4BE
100
AcDbEntity
  8
0
100
AcDbPolyline
 62
7
  6
CONTINUOUS
 90
4
 70
0
 43
0.3500000006
 10
53.3747330475
 20
200.3154102173
 10
53.3747330475
 20
201.1725481567
 10
53.8033065491
 20
201.6011171265
 10
54.4461645355
 20
201.6011171265
  0
LINE
  5
4BF
100
AcDbEntity
  8
RACCORDO
100
AcDbLine
 62
7
  6
CONTINUOUS
 10
55.4282973196
 20
46.1976518727
 11
55.4282973196
 21
52.8620120202
  0
LINE
  5
4C0
100
AcDbEntity
  8
RACCORDO
100
AcDbLine
 62
7
  6
CONTINUOUS
 10
55.4282973196
 20
150.1976518727
 11
55.4282973196
 21
156.8620120202
  0
LINE
  5
4C1
100
AcDbEntity
  8
RACCORDO
100
AcDbLine
 62
7
  6
CONTINUOUS
 10
57.4282973196
 20
181.0298322223
 11
57.4282973196
 21
159.4092301859
  0
LINE
  5
4C2
100
AcDbEntity
  8
RACCORDO
100
AcDbLine
 62
7
  6
CONTINUOUS
 10
57.4282973196
 20
43.650433707
 11
57.4282973196
 21
22.0298316756
  0
LINE
  5
4C3
100
AcDbEntity
  8
DRAFT
100
AcDbLine
 62
7
  6
CONTINUOUS
 10
57.4282973196
 20
43.650433707
 11
57.4282973196
 21
45.677177985
  0
LINE
  5
4C4
100
AcDbEntity
  8
DRAFT
100
AcDbLine
 62
7
  6
CONTINUOUS
 10
57.4282973196
 20
53.3824859079
 11
57.4282973196
 21
66.1052756375
  0
LINE
  5
4C5
100
AcDbEntity
  8
0
100
AcDbLine
 62
7
  6
CONTINUOUS
 10
57.4282973196
 20
66.1052756375
 11
57.4282973196
 21
136.9543882554
  0
LINE
  5
4C6
100
AcDbEntity
  8
DRAFT
100
AcDbLine
 62
7
  6
CONTINUOUS
 10
57.4282973196
 20
136.9543882554
 11
57.4282973196
 21
149.677177985
  0
LINE
  5
4C7
100
AcDbEntity
  8
DRAFT
100
AcDbLine
 62
7
  6
CONTINUOUS
 10
57.4282973196
 20
157.3824859079
 11
57.4282973196
 21
159.4092301859
  0
LINE
  5
4C8
100
AcDbEntity
  8
0
100
AcDbLine
 62
7
  6
CONTINUOUS
 10
50.637207945
 20
68.5291734292
 11
50.6318370179
 21
68.4837901205
  0
LINE
  5
4C9
100
AcDbEntity
  8
0
100
AcDbLine
 62
7
  6
CONTINUOUS
 10
50.6318370179
 20
68.4837901205
 11
50.628959558
 21
68.4607174331
  0
LWPOLYLINE
  5
4CA
100
AcDbEntity
  8
0
100
AcDbPolyline
 62
7
  6
CONTINUOUS
 90
9
 70
0
 10
50.628959558
 20
68.4607174331
 10
50.6226326681
 20
68.4138887749
 10
50.6195659268
 20
68.3901399124
 10
50.6166414112
 20
68.36618427
 10
50.6138781861
 20
68.3420387578
 10
50.6116183773
 20
68.3177036953
 10
50.6099764875
 20
68.2931926629
 10
50.6088393747
 20
68.2685323394
 10
50.6082077351
 20
68.2437444686
  0
LWPOLYLINE
  5
4CB
100
AcDbEntity
  8
RACCORDO
100
AcDbPolyline
 62
253
  6
CONTINUOUS
 90
7
 70
0
 10
51.0012260941
 20
126.1071067621
 10
51.0006288612
 20
126.1088215645
 10
51.0000518892
 20
126.113938419
 10
50.9995000691
 20
126.1224390293
 10
50.998980657
 20
126.1342911184
 10
50.9984954171
 20
126.1494547479
 10
50.9980407513
 20
126.1678883485
  0
LINE
  5
4CC
100
AcDbEntity
  8
0
100
AcDbLine
 62
7
  6
CONTINUOUS
 10
50.6289395724
 20
134.5990998413
 11
50.6225865563
 21
134.6461187315
  0
LWPOLYLINE
  5
4CD
100
AcDbEntity
  8
0
100
AcDbPolyline
 62
7
  6
CONTINUOUS
 90
8
 70
0
 10
50.6225865563
 20
134.6461187315
 10
50.6195113691
 20
134.669945014
 10
50.6165868823
 20
134.6939545685
 10
50.6138290591
 20
134.7181302763
 10
50.6115777714
 20
134.7424353794
 10
50.6099466803
 20
134.7668451009
 10
50.6088232771
 20
134.7913462789
 10
50.6082081527
 20
134.8159186591
  0
LWPOLYLINE
  5
4CE
100
AcDbEntity
  8
0
100
AcDbPolyline
 62
7
  6
CONTINUOUS
 90
3
 70
0
 10
50.6372075459
 20
134.5304904567
 10
50.6345814313
 20
134.5530890565
 10
50.6289395724
 20
134.5990998413
  0
LWPOLYLINE
  5
4CF
100
AcDbEntity
  8
RACCORDO
100
AcDbPolyline
 62
253
  6
CONTINUOUS
 90
9
 70
0
 10
51.0012260941
 20
76.9525571308
 10
51.0006862896
 20
76.9511641411
 10
51.0001632367
 20
76.9470090357
 10
50.9996605209
 20
76.9401046889
 10
50.9991834591
 20
76.9304724877
 10
50.9987334134
 20
76.9181399293
 10
50.9983078338
 20
76.9031383546
 10
50.9979093265
 20
76.8855063261
 10
50.9972008902
 20
76.8425582654
  0
LWPOLYLINE
  5
4D0
100
AcDbEntity
  8
RACCORDO
100
AcDbPolyline
 62
253
  6
CONTINUOUS
 90
5
 70
0
 10
50.6082070567
 20
127.7630730172
 10
50.6096789744
 20
127.7633450701
 10
50.6140837255
 20
127.7636151211
 10
50.6213888945
 20
127.7638811828
 10
50.6315407217
 20
127.7641412972
  0
LWPOLYLINE
  5
4D1
100
AcDbEntity
  8
RACCORDO
100
AcDbPolyline
 62
253
  6
CONTINUOUS
 90
5
 70
0
 10
50.6082070567
 20
127.1111790279
 10
50.6096788939
 20
127.1114257161
 10
50.6140835737
 20
127.1116705888
 10
50.6213886813
 20
127.1119118441
 10
50.6315404571
 20
127.1121477064
  0
LINE
  5
4D2
100
AcDbEntity
  8
RACCORDO
100
AcDbLine
 62
7
  6
CONTINUOUS
 10
50.6082070567
 20
124.4036134409
 11
51.1082070567
 21
124.4167064017
  0
LINE
  5
4D3
100
AcDbEntity
  8
RACCORDO
100
AcDbLine
 62
253
  6
CONTINUOUS
 10
50.6315407217
 20
127.7641412972
 11
50.6600651152
 21
127.7646360849
  0
LINE
  5
4D4
100
AcDbEntity
  8
RACCORDO
100
AcDbLine
 62
253
  6
CONTINUOUS
 10
50.6315404571
 20
127.1121477064
 11
50.6600647786
 21
127.1125963617
  0
LINE
  5
4D5
100
AcDbEntity
  8
RACCORDO
100
AcDbLine
 62
253
  6
CONTINUOUS
 10
50.6600651152
 20
127.7646360849
 11
50.7216866493
 21
127.7652879694
  0
LINE
  5
4D6
100
AcDbEntity
  8
RACCORDO
100
AcDbLine
 62
253
  6
CONTINUOUS
 10
50.6600647786
 20
127.1125963617
 11
50.7216862796
 21
127.1131874655
  0
LINE
  5
4D7
100
AcDbEntity
  8
RACCORDO
100
AcDbLine
 62
253
  6
CONTINUOUS
 10
51.0012260941
 20
128.3221334133
 11
51.1082070567
 21
128.3229064421
  0
LINE
  5
4D8
100
AcDbEntity
  8
RACCORDO
100
AcDbLine
 62
253
  6
CONTINUOUS
 10
50.7216866493
 20
127.7652879694
 11
50.8637744698
 21
127.766033106
  0
LINE
  5
4D9
100
AcDbEntity
  8
RACCORDO
100
AcDbLine
 62
253
  6
CONTINUOUS
 10
50.7216862796
 20
127.1131874655
 11
50.8962754512
 21
127.1139423219
  0
LINE
  5
4DA
100
AcDbEntity
  8
RACCORDO
100
AcDbLine
 62
253
  6
CONTINUOUS
 10
50.8962754512
 20
127.1139423219
 11
50.9977362774
 21
127.1140563233
  0
LINE
  5
4DB
100
AcDbEntity
  8
RACCORDO
100
AcDbLine
 62
253
  6
CONTINUOUS
 10
51.1082070567
 20
127.7660884712
 11
50.8637744698
 21
127.766033106
  0
LINE
  5
4DC
100
AcDbEntity
  8
RACCORDO
100
AcDbLine
 62
253
  6
CONTINUOUS
 10
51.1082070567
 20
128.1855256182
 11
51.0012260941
 21
128.1856787661
  0
LINE
  5
4DD
100
AcDbEntity
  8
RACCORDO
100
AcDbLine
 62
7
  6
CONTINUOUS
 10
51.0012260941
 20
126.1071067621
 11
51.1082070567
 21
126.1052394025
  0
LINE
  5
4DE
100
AcDbEntity
  8
RACCORDO
100
AcDbLine
 62
253
  6
CONTINUOUS
 10
50.9977362774
 20
127.1140563237
 11
51.1082070567
 21
127.1121258366
  0
LINE
  5
4DF
100
AcDbEntity
  8
0
100
AcDbLine
 62
253
  6
CONTINUOUS
 10
50.637207945
 20
128.5291734292
 11
50.6082070567
 21
128.5296796416
  0
LINE
  5
4E0
100
AcDbEntity
  8
RACCORDO
100
AcDbLine
 62
7
  6
CONTINUOUS
 10
50.6082070567
 20
123.656050452
 11
51.1082070567
 21
123.6429574912
  0
LWPOLYLINE
  5
4E1
100
AcDbEntity
  8
RACCORDO
100
AcDbPolyline
 62
253
  6
CONTINUOUS
 90
16
 70
0
 10
50.6469585425
 20
68.1139797627
 10
50.6606392113
 20
68.1325251068
 10
50.6762206857
 20
68.1503048415
 10
50.6936177527
 20
68.1672217316
 10
50.7127352698
 20
68.1831832606
 10
50.7334686856
 20
68.1981021369
 10
50.7557046118
 20
68.2118967711
 10
50.7793214427
 20
68.224491722
 10
50.8041900208
 20
68.2358181093
 10
50.8301743429
 20
68.2458139905
 10
50.857132304
 20
68.2544246992
 10
50.8849164743
 20
68.2616031447
 10
50.9133749056
 20
68.2673100688
 10
50.9423519623
 20
68.2715142611
 10
50.9716891723
 20
68.2741927293
 10
51.0012260941
 20
68.2753308254
  0
LINE
  5
4E2
100
AcDbEntity
  8
RACCORDO
100
AcDbLine
 62
7
  6
CONTINUOUS
 10
50.6082070567
 20
131.9036134409
 11
51.1082070567
 21
131.9167064017
  0
LINE
  5
4E3
100
AcDbEntity
  8
0
100
AcDbLine
 62
253
  6
CONTINUOUS
 10
50.6372075459
 20
134.5304904567
 11
50.6082070567
 21
134.5299842513
  0
LINE
  5
4E4
100
AcDbEntity
  8
RACCORDO
100
AcDbLine
 62
253
  6
CONTINUOUS
 10
51.0012260941
 20
128.7463191269
 11
51.1082070567
 21
128.7470924876
  0
LINE
  5
4E5
100
AcDbEntity
  8
RACCORDO
100
AcDbLine
 62
253
  6
CONTINUOUS
 10
50.6499664185
 20
128.7463139552
 11
51.0012260941
 21
128.7463139552
  0
LINE
  5
4E6
100
AcDbEntity
  8
RACCORDO
100
AcDbLine
 62
253
  6
CONTINUOUS
 10
51.0012260941
 20
134.3133499378
 11
50.6499664666
 21
134.3133499378
  0
LINE
  5
4E7
100
AcDbEntity
  8
RACCORDO
100
AcDbLine
 62
253
  6
CONTINUOUS
 10
51.0012260941
 20
134.3133622154
 11
51.1082070567
 21
134.312588433
  0
LINE
  5
4E8
100
AcDbEntity
  8
RACCORDO
100
AcDbLine
 62
253
  6
CONTINUOUS
 10
51.0012260941
 20
134.737532315
 11
51.1082070567
 21
134.7367592419
  0
LINE
  5
4E9
100
AcDbEntity
  8
RACCORDO
100
AcDbLine
 62
7
  6
CONTINUOUS
 10
50.6082070567
 20
131.156050452
 11
51.1082070567
 21
131.1429574912
  0
LWPOLYLINE
  5
4EA
100
AcDbEntity
  8
RACCORDO
100
AcDbPolyline
 62
253
  6
CONTINUOUS
 90
22
 70
0
 10
51.0012260941
 20
134.737549389
 10
50.9716892959
 20
134.738687477
 10
50.9423521998
 20
134.7413659252
 10
50.9133752459
 20
134.7455700868
 10
50.8849169058
 20
134.7512769708
 10
50.8571328128
 20
134.7584553683
 10
50.8301749107
 20
134.7670660243
 10
50.804190629
 20
134.77706185
 10
50.7793220731
 20
134.7883881813
 10
50.7557052442
 20
134.8009830792
 10
50.7334693013
 20
134.814777666
 10
50.7127358521
 20
134.8296965025
 10
50.6936182859
 20
134.8456580027
 10
50.6762211569
 20
134.8625748771
 10
50.6606396115
 20
134.8803546107
 10
50.6469588659
 20
134.8988999708
 10
50.6352537424
 20
134.9181095362
 10
50.6255882593
 20
134.9378782528
 10
50.6180152802
 20
134.9580980088
 10
50.6125762254
 20
134.978658225
 10
50.6093008451
 20
134.9994464595
 10
50.6082070567
 20
135.0203490231
  0
LWPOLYLINE
  5
4EB
100
AcDbEntity
  8
RACCORDO
100
AcDbPolyline
 62
253
  6
CONTINUOUS
 90
21
 70
0
 10
51.0012260941
 20
134.7834047566
 10
50.9716891723
 20
134.7845428526
 10
50.9423519623
 20
134.7872213209
 10
50.9133749056
 20
134.7914255132
 10
50.8849164743
 20
134.7971324373
 10
50.857132304
 20
134.8043108827
 10
50.8301743429
 20
134.8129215915
 10
50.8041900208
 20
134.8229174726
 10
50.7793214427
 20
134.83424386
 10
50.7557046118
 20
134.8468388108
 10
50.7334686856
 20
134.860633445
 10
50.7127352698
 20
134.8755523214
 10
50.6936177527
 20
134.8915138504
 10
50.6762206857
 20
134.9084307404
 10
50.6606392113
 20
134.9262104751
 10
50.6469585425
 20
134.9447558193
 10
50.6352534974
 20
134.9639653507
 10
50.6255880893
 20
134.9837340149
 10
50.6180151772
 20
135.0039536993
 10
50.6125761764
 20
135.0245138251
 10
50.6093008321
 20
135.0453019515
  0
LWPOLYLINE
  5
4EC
100
AcDbEntity
  8
RACCORDO
100
AcDbPolyline
 62
253
  6
CONTINUOUS
 90
8
 70
0
 10
50.6782274085
 20
135.9670413178
 10
50.6600647785
 20
135.9665393191
 10
50.6444641922
 20
135.9660123262
 10
50.6315404571
 20
135.9654642174
 10
50.6213886813
 20
135.9648990263
 10
50.6140835737
 20
135.9643209123
 10
50.6096788939
 20
135.9637341298
 10
50.6082070567
 20
135.963142997
  0
LWPOLYLINE
  5
4ED
100
AcDbEntity
  8
RACCORDO
100
AcDbPolyline
 62
253
  6
CONTINUOUS
 90
8
 70
0
 10
50.678228203
 20
135.2145887392
 10
50.6600655269
 20
135.2141116037
 10
50.6444648719
 20
135.2136107116
 10
50.6315410453
 20
135.213089749
 10
50.6213891553
 20
135.2125525497
 10
50.6140839111
 20
135.2120030672
 10
50.609679073
 20
135.2114453451
 10
50.6082070567
 20
135.2108834877
  0
LINE
  5
4EE
100
AcDbEntity
  8
RACCORDO
100
AcDbLine
 62
7
  6
CONTINUOUS
 10
50.6145038847
 20
139.4037783291
 11
51.1145806664
 21
139.4168733005
  0
LINE
  5
4EF
100
AcDbEntity
  8
RACCORDO
100
AcDbLine
 62
253
  6
CONTINUOUS
 10
50.7216862796
 20
135.9679557667
 11
50.6782274085
 21
135.9670413178
  0
LINE
  5
4F0
100
AcDbEntity
  8
RACCORDO
100
AcDbLine
 62
253
  6
CONTINUOUS
 10
50.7216871014
 20
135.215457896
 11
50.678228203
 21
135.2145887392
  0
LINE
  5
4F1
100
AcDbEntity
  8
RACCORDO
100
AcDbLine
 62
253
  6
CONTINUOUS
 10
51.1082070567
 20
135.9719681937
 11
50.9977362774
 21
135.9700377892
  0
LINE
  5
4F2
100
AcDbEntity
  8
RACCORDO
100
AcDbLine
 62
7
  6
CONTINUOUS
 10
51.1095228978
 20
136.9544474585
 11
51.0012260941
 21
136.9525571308
  0
LINE
  5
4F3
100
AcDbEntity
  8
RACCORDO
100
AcDbLine
 62
253
  6
CONTINUOUS
 10
50.7735638715
 20
135.9687288039
 11
50.7216862796
 21
135.9679557667
  0
LINE
  5
4F4
100
AcDbEntity
  8
RACCORDO
100
AcDbLine
 62
253
  6
CONTINUOUS
 10
50.7735646407
 20
135.216192644
 11
50.7216871014
 21
135.215457896
  0
LINE
  5
4F5
100
AcDbEntity
  8
RACCORDO
100
AcDbLine
 62
253
  6
CONTINUOUS
 10
50.8637742149
 20
135.9695748297
 11
50.7735638715
 21
135.9687288039
  0
LINE
  5
4F6
100
AcDbEntity
  8
RACCORDO
100
AcDbLine
 62
253
  6
CONTINUOUS
 10
50.8637747816
 20
135.2169967633
 11
50.7735646407
 21
135.216192644
  0
LINE
  5
4F7
100
AcDbEntity
  8
RACCORDO
100
AcDbLine
 62
253
  6
CONTINUOUS
 10
51.0012260941
 20
134.7834047566
 11
51.1082070567
 21
134.7835546186
  0
LWPOLYLINE
  5
4F8
100
AcDbEntity
  8
RACCORDO
100
AcDbPolyline
 62
253
  6
CONTINUOUS
 90
3
 70
0
 10
50.9977362774
 20
135.9700377895
 10
50.9635038556
 20
135.9699969455
 10
50.8637742149
 20
135.9695748297
  0
LWPOLYLINE
  5
4F9
100
AcDbEntity
  8
RACCORDO
100
AcDbPolyline
 62
253
  6
CONTINUOUS
 90
3
 70
0
 10
51.1082070567
 20
135.217590648
 10
50.9635041197
 20
135.2173979676
 10
50.8637747816
 20
135.2169967633
  0
LINE
  5
4FA
100
AcDbEntity
  8
RACCORDO
100
AcDbLine
 62
253
  6
CONTINUOUS
 10
47.6068860315
 20
137.0298319465
 11
50.8582070567
 21
137.0298319465
  0
LINE
  5
4FB
100
AcDbEntity
  8
ASSI
100
AcDbLine
 62
253
  6
CONTINUOUS
 10
47.6068860315
 20
137.0298319465
 11
50.6068860315
 21
137.0298319465
  0
LINE
  5
4FC
100
AcDbEntity
  8
0
100
AcDbLine
 62
253
  6
CONTINUOUS
 10
57.4282973196
 20
136.9543882554
 11
51.1082070567
 21
137.0298319465
  0
LINE
  5
4FD
100
AcDbEntity
  8
RACCORDO
100
AcDbLine
 62
7
  6
CONTINUOUS
 10
51.1111175004
 20
138.6428812786
 11
50.6114392304
 21
138.6559658146
  0
LINE
  5
4FE
100
AcDbEntity
  8
RACCORDO
100
AcDbLine
 62
7
  6
CONTINUOUS
 10
57.4282973196
 20
149.677177985
 11
55.593567684
 21
150.0006903221
  0
LWPOLYLINE
  5
4FF
100
AcDbEntity
  8
0
100
AcDbPolyline
 62
7
  6
CONTINUOUS
 90
10
 70
0
 43
0.3500000006
 10
52.3033060913
 20
200.3868323364
 10
52.3747327423
 20
200.2439699707
 10
52.3747327423
 20
200.1725478516
 10
52.2318794403
 20
200.0296854858
 10
52.1604482574
 20
200.0296854858
 10
52.0890216064
 20
200.1011257324
 10
52.0890216064
 20
200.1725478516
 10
52.1604482574
 20
200.3154102173
 10
52.2318794403
 20
200.3868323364
 10
52.3033060913
 20
200.3868323364
  0
LINE
  5
500
100
AcDbEntity
  8
RACCORDO
100
AcDbLine
 62
7
  6
CONTINUOUS
 10
55.593567684
 20
157.0589735708
 11
57.4282973196
 21
157.3824859079
  0
LINE
  5
501
100
AcDbEntity
  8
RACCORDO
100
AcDbLine
 62
7
  6
CONTINUOUS
 10
50.9459385932
 20
154.4124572524
 11
51.4468272886
 21
154.4255734845
  0
LINE
  5
502
100
AcDbEntity
  8
RACCORDO
100
AcDbLine
 62
7
  6
CONTINUOUS
 10
51.6748860144
 20
159.5298319465
 11
51.1751301514
 21
159.5298319465
  0
LINE
  5
503
100
AcDbEntity
  8
RACCORDO
100
AcDbLine
 62
253
  6
CONTINUOUS
 10
48.6276393721
 20
159.5490217272
 11
51.174487911
 21
159.5490217272
  0
LINE
  5
504
100
AcDbEntity
  8
ASSI
100
AcDbLine
 62
253
  6
CONTINUOUS
 10
48.6276393721
 20
159.5490217272
 11
51.174487911
 21
159.5490217272
  0
LINE
  5
505
100
AcDbEntity
  8
0
100
AcDbLine
 62
253
  6
CONTINUOUS
 10
57.4282973196
 20
159.4092301859
 11
51.6744967178
 21
159.5229925302
  0
LINE
  5
506
100
AcDbEntity
  8
RACCORDO
100
AcDbLine
 62
7
  6
CONTINUOUS
 10
50.9175140598
 20
153.6479509631
 11
51.4167336313
 21
153.6348784386
  0
LINE
  5
507
100
AcDbEntity
  8
RACCORDO
100
AcDbLine
 62
253
  6
CONTINUOUS
 10
48.171844554
 20
159.5718702787
 11
48.6276393721
 21
159.5490217272
  0
LINE
  5
508
100
AcDbEntity
  8
ASSI
100
AcDbLine
 62
253
  6
CONTINUOUS
 10
48.171844554
 20
159.5718702787
 11
48.6276393721
 21
159.5490217272
  0
LINE
  5
509
100
AcDbEntity
  8
RACCORDO
100
AcDbLine
 62
253
  6
CONTINUOUS
 10
48.1782973707
 20
159.7001572265
 11
48.6340849843
 21
159.6772076809
  0
LINE
  5
50A
100
AcDbEntity
  8
ASSI
100
AcDbLine
 62
253
  6
CONTINUOUS
 10
48.1782973707
 20
159.7001572265
 11
48.6340849843
 21
159.6772076809
  0
LINE
  5
50B
100
AcDbEntity
  8
RACCORDO
100
AcDbLine
 62
253
  6
CONTINUOUS
 10
51.5387509934
 20
159.5298319465
 11
51.1751301514
 21
159.5481526651
  0
LINE
  5
50C
100
AcDbEntity
  8
RACCORDO
100
AcDbLine
 62
7
  6
CONTINUOUS
 10
51.2193748947
 20
160.3798319465
 11
51.7232676415
 21
160.3798319465
  0
LWPOLYLINE
  5
50D
100
AcDbEntity
  8
RACCORDO
100
AcDbPolyline
 62
253
  6
CONTINUOUS
 90
12
 70
0
 10
51.4884556825
 20
164.1813139867
 10
51.497013298
 20
164.179505668
 10
51.5099833993
 20
164.1771125049
 10
51.5251820923
 20
164.1745942795
 10
51.5425350982
 20
164.1719632988
 10
51.5619576096
 20
164.1692324209
 10
51.5833547051
 20
164.1664149921
 10
51.6066218134
 20
164.1635247814
 10
51.6316452236
 20
164.1605759139
 10
51.658302642
 20
164.1575828012
 10
51.6864637887
 20
164.1545600711
 10
51.7159910352
 20
164.1515224961
  0
LINE
  5
50E
100
AcDbEntity
  8
RACCORDO
100
AcDbLine
 62
7
  6
CONTINUOUS
 10
52.0388846072
 20
169.441077051
 11
52.4435072715
 21
169.4516724684
  0
LINE
  5
50F
100
AcDbEntity
  8
0
100
AcDbLine
 62
7
  6
CONTINUOUS
 10
52.5012311808
 20
169.9621669156
 11
52.1036417343
 21
169.9544048877
  0
LINE
  5
510
100
AcDbEntity
  8
RACCORDO
100
AcDbLine
 62
7
  6
CONTINUOUS
 10
51.939577727
 20
168.6211872841
 11
52.3574106389
 21
168.6102459442
  0
LWPOLYLINE
  5
511
100
AcDbEntity
  8
RACCORDO
100
AcDbPolyline
 62
253
  6
CONTINUOUS
 90
22
 70
0
 10
56.4209385381
 20
181.7505397927
 10
56.4396885474
 20
181.7377452013
 10
56.4566961402
 20
181.7221340328
 10
56.4718907884
 20
181.7037710259
 10
56.4852094821
 20
181.6827323309
 10
56.4965969908
 20
181.6591051937
 10
56.5060060922
 20
181.6329875946
 10
56.5133977687
 20
181.6044878415
 10
56.5187413686
 20
181.5737241203
 10
56.5220147334
 20
181.5408240054
 10
56.5232042895
 20
181.5059239305
 10
56.5223051048
 20
181.4691686227
 10
56.5193209089
 20
181.4307105019
 10
56.5142640774
 20
181.3907090498
 10
56.507155581
 20
181.349330148
 10
56.4980248983
 20
181.3067453887
 10
56.4869098934
 20
181.263131366
 10
56.4738566592
 20
181.2186689418
 10
56.4589193257
 20
181.1735424945
 10
56.4421598361
 20
181.1279391572
 10
56.42364769
 20
181.0820480416
 10
56.4034596551
 20
181.0360594525
  0
LINE
  5
512
100
AcDbEntity
  8
0
100
AcDbLine
 62
253
  6
CONTINUOUS
 10
53.1586020773
 20
176.7904731869
 11
53.363429627
 21
176.794048465
  0
LWPOLYLINE
  5
513
100
AcDbEntity
  8
RACCORDO
100
AcDbPolyline
 62
253
  6
CONTINUOUS
 90
10
 70
0
 10
56.403460447
 20
181.0360594062
 10
56.5259216221
 20
180.9725718678
 10
56.6461391614
 20
180.9070447867
 10
56.7641408292
 20
180.839476896
 10
56.8799228702
 20
180.7699067293
 10
56.9935504619
 20
180.6982935878
 10
57.1051569349
 20
180.6245172774
 10
57.2148097293
 20
180.548536946
 10
57.3225109435
 20
180.4703913459
 10
57.428297347
 20
180.3900796167
  0
LINE
  5
514
100
AcDbEntity
  8
RACCORDO
100
AcDbLine
 62
253
  6
CONTINUOUS
 10
51.6660299494
 20
182.3005019761
 11
54.3248104727
 21
182.5332767743
  0
LINE
  5
515
100
AcDbEntity
  8
ASSI
100
AcDbLine
 62
253
  6
CONTINUOUS
 10
51.6660299494
 20
182.3005019761
 11
54.3248104727
 21
182.5332767743
  0
LINE
  5
516
100
AcDbEntity
  8
RACCORDO
100
AcDbLine
 62
7
  6
CONTINUOUS
 10
51.7763308139
 20
183.2868395942
 11
54.5537461097
 21
183.5298319465
  0
LINE
  5
517
100
AcDbEntity
  8
ASSI
100
AcDbLine
 62
7
  6
CONTINUOUS
 10
51.7763308139
 20
183.2868395942
 11
54.5537461097
 21
183.5298319465
  0
LINE
  5
518
100
AcDbEntity
  8
RACCORDO
100
AcDbLine
 62
7
  6
CONTINUOUS
 10
53.4784774136
 20
178.4957977134
 11
53.6176507336
 21
178.4982269927
  0
LINE
  5
519
100
AcDbEntity
  8
0
100
AcDbLine
 62
7
  6
CONTINUOUS
 10
53.4784774136
 20
178.4957977134
 11
53.6176507336
 21
178.4982269927
  0
LINE
  5
51A
100
AcDbEntity
  8
RACCORDO
100
AcDbLine
 62
7
  6
CONTINUOUS
 10
53.8759816064
 20
180.467826045
 11
53.9326578093
 21
180.4688153318
  0
LINE
  5
51B
100
AcDbEntity
  8
RACCORDO
100
AcDbLine
 62
253
  6
CONTINUOUS
 10
56.403460447
 20
181.0360594062
 11
54.0298438791
 21
181.0487448406
  0
LWPOLYLINE
  5
51C
100
AcDbEntity
  8
RACCORDO
100
AcDbPolyline
 62
253
  6
CONTINUOUS
 90
13
 70
0
 10
54.1482847366
 20
181.7406757765
 10
54.3306587144
 20
181.7115422402
 10
54.5132617131
 20
181.6777869888
 10
54.6960655444
 20
181.639400148
 10
54.8783608699
 20
181.596780884
 10
55.0607890199
 20
181.5495108225
 10
55.2453334619
 20
181.4963499878
 10
55.4323670326
 20
181.4374024365
 10
55.6213740053
 20
181.3725356633
 10
55.8130017056
 20
181.3001466294
 10
56.0074164515
 20
181.2196861982
 10
56.2042758641
 20
181.1316637613
 10
56.403460447
 20
181.0360594062
  0
LINE
  5
51D
100
AcDbEntity
  8
RACCORDO
100
AcDbLine
 62
253
  6
CONTINUOUS
 10
51.2212329495
 20
182.3979766141
 11
51.2228894431
 21
182.3976284395
  0
LINE
  5
51E
100
AcDbEntity
  8
ASSI
100
AcDbLine
 62
253
  6
CONTINUOUS
 10
51.2212329495
 20
182.3979766141
 11
51.2228894431
 21
182.3976284395
  0
LINE
  5
51F
100
AcDbEntity
  8
RACCORDO
100
AcDbLine
 62
253
  6
CONTINUOUS
 10
51.2228894431
 20
182.3976284395
 11
51.6660303927
 21
182.3005019105
  0
LINE
  5
520
100
AcDbEntity
  8
ASSI
100
AcDbLine
 62
253
  6
CONTINUOUS
 10
51.2228894431
 20
182.3976284395
 11
51.6660303927
 21
182.3005019105
  0
LWPOLYLINE
  5
521
100
AcDbEntity
  8
0
100
AcDbPolyline
 62
7
  6
CONTINUOUS
 90
13
 70
0
 43
0.3500000006
 10
53.8033065491
 20
201.6011171265
 10
53.5175908813
 20
201.8154016113
 10
53.5175908813
 20
202.4582550659
 10
53.8033065491
 20
202.8868421631
 10
54.4461645355
 20
202.8868421631
 10
54.7318756714
 20
202.4582550659
 10
54.7318756714
 20
201.8154016113
 10
54.4461645355
 20
201.6011171265
 10
54.8747335052
 20
201.1725481567
 10
54.8747335052
 20
200.3154102173
 10
54.4461645355
 20
199.8868412476
 10
53.8033065491
 20
199.8868412476
 10
53.3747330475
 20
200.3154102173
  0
LWPOLYLINE
  5
522
100
AcDbEntity
  8
RACCORDO
100
AcDbPolyline
 62
253
  6
CONTINUOUS
 90
10
 70
0
 10
56.403460447
 20
22.0236044867
 10
56.5251283864
 20
22.0866938462
 10
56.6444049689
 20
22.1516700114
 10
56.761319668
 20
22.2185339228
 10
56.8754034281
 20
22.2869106892
 10
56.9871949085
 20
22.3571761957
 10
57.0982179397
 20
22.4304600161
 10
57.2089816928
 20
22.5071419325
 10
57.3190030489
 20
22.5868490185
 10
57.4282973459
 20
22.6695842754
  0
ARC
  5
523
100
AcDbEntity
  8
RACCORDO
100
AcDbCircle
 62
7
  6
CONTINUOUS
 10
236.16804623
 20
52.8322127605
 40
184.7275748271
100
AcDbArc
 50
189.6045636607
 51
189.7977718802
  0
ARC
  5
524
100
AcDbEntity
  8
0
100
AcDbCircle
 62
7
  6
CONTINUOUS
 10
236.16804623
 20
52.8322127605
 40
184.7275748271
100
AcDbArc
 50
182.8843572168
 51
189.6045636607
  0
ARC
  5
525
100
AcDbEntity
  8
RACCORDO
100
AcDbCircle
 62
7
  6
CONTINUOUS
 10
186.3370331112
 20
50.3285859785
 40
138.3343932001
100
AcDbArc
 50
182.8876668145
 51
192.5953942509
  0
ARC
  5
526
100
AcDbEntity
  8
ASSI
100
AcDbCircle
 62
7
  6
CONTINUOUS
 10
186.3370331112
 20
50.3285859785
 40
138.3343932001
100
AcDbArc
 50
182.8876668145
 51
192.5953942509
  0
ARC
  5
527
100
AcDbEntity
  8
RACCORDO
100
AcDbCircle
 62
7
  6
CONTINUOUS
 10
186.3370331112
 20
50.3285859785
 40
135.3343932001
100
AcDbArc
 50
182.8876978367
 51
193.1543566045
  0
ARC
  5
528
100
AcDbEntity
  8
ASSI
100
AcDbCircle
 62
7
  6
CONTINUOUS
 10
186.3370331112
 20
50.3285859785
 40
135.3343932001
100
AcDbArc
 50
182.8876978367
 51
193.1543566045
  0
ARC
  5
529
100
AcDbEntity
  8
RACCORDO
100
AcDbCircle
 62
7
  6
CONTINUOUS
 10
53.1572149237
 20
26.9353199847
 40
6.5043030162
100
AcDbArc
 50
280.3227441358
 51
311.045248441
  0
ARC
  5
52A
100
AcDbEntity
  8
RACCORDO
100
AcDbCircle
 62
7
  6
CONTINUOUS
 10
51.8199086853
 20
20.2709216478
 40
0.5
100
AcDbArc
 50
192.5957504038
 51
265.0
  0
ARC
  5
52B
100
AcDbEntity
  8
ASSI
100
AcDbCircle
 62
7
  6
CONTINUOUS
 10
51.8199086853
 20
20.2709216478
 40
0.5
100
AcDbArc
 50
192.5957504038
 51
265.0
  0
ARC
  5
52C
100
AcDbEntity
  8
RACCORDO
100
AcDbCircle
 62
7
  6
CONTINUOUS
 10
51.0082070567
 20
76.5526149361
 40
0.4
100
AcDbArc
 50
90.9999922089
 51
179.9995535749
  0
ARC
  5
52D
100
AcDbEntity
  8
RACCORDO
100
AcDbCircle
 62
7
  6
CONTINUOUS
 10
51.0082070567
 20
66.5070489204
 40
0.4
100
AcDbArc
 50
180.000441213
 51
269.0000077
  0
ARC
  5
52E
100
AcDbEntity
  8
RACCORDO
100
AcDbCircle
 62
7
  6
CONTINUOUS
 10
55.6282973196
 20
52.8620120202
 40
0.2
100
AcDbArc
 50
100.0
 51
180.0
  0
ARC
  5
52F
100
AcDbEntity
  8
RACCORDO
100
AcDbCircle
 62
7
  6
CONTINUOUS
 10
55.6282973196
 20
46.1976518727
 40
0.2
100
AcDbArc
 50
180.0
 51
260.0
  0
ARC
  5
530
100
AcDbEntity
  8
RACCORDO
100
AcDbCircle
 62
7
  6
CONTINUOUS
 10
51.0082070567
 20
136.5526137916
 40
0.4
100
AcDbArc
 50
90.9999893479
 51
179.9993896438
  0
ARC
  5
531
100
AcDbEntity
  8
RACCORDO
100
AcDbCircle
 62
7
  6
CONTINUOUS
 10
51.0082070567
 20
126.5070491495
 40
0.4
100
AcDbArc
 50
180.0004740238
 51
269.0000082726
  0
ARC
  5
532
100
AcDbEntity
  8
RACCORDO
100
AcDbCircle
 62
7
  6
CONTINUOUS
 10
55.6282973196
 20
150.1976518727
 40
0.2
100
AcDbArc
 50
180.0
 51
260.0
  0
ARC
  5
533
100
AcDbEntity
  8
RACCORDO
100
AcDbCircle
 62
7
  6
CONTINUOUS
 10
53.1572149237
 20
176.1243439082
 40
6.5043030162
100
AcDbArc
 50
48.9547516255
 51
79.6749856482
  0
ARC
  5
534
100
AcDbEntity
  8
RACCORDO
100
AcDbCircle
 62
7
  6
CONTINUOUS
 10
51.8199076575
 20
182.7887377393
 40
0.5000000001
100
AcDbArc
 50
94.9998376786
 51
167.403720009
  0
ARC
  5
535
100
AcDbEntity
  8
ASSI
100
AcDbCircle
 62
7
  6
CONTINUOUS
 10
51.8199076575
 20
182.7887377393
 40
0.5000000001
100
AcDbArc
 50
94.9998376786
 51
167.403720009
  0
ARC
  5
536
100
AcDbEntity
  8
RACCORDO
100
AcDbCircle
 62
7
  6
CONTINUOUS
 10
55.6282973196
 20
156.8620120202
 40
0.2
100
AcDbArc
 50
100.0
 51
180.0
  0
ARC
  5
537
100
AcDbEntity
  8
0
100
AcDbCircle
 62
7
  6
CONTINUOUS
 10
236.16804623
 20
150.2274511324
 40
184.7275748271
100
AcDbArc
 50
170.3954363393
 51
177.1156427832
  0
ARC
  5
538
100
AcDbEntity
  8
RACCORDO
100
AcDbCircle
 62
7
  6
CONTINUOUS
 10
236.16804623
 20
150.2274511324
 40
184.7275748271
100
AcDbArc
 50
170.1813469258
 51
170.3954363393
  0
ARC
  5
539
100
AcDbEntity
  8
RACCORDO
100
AcDbCircle
 62
7
  6
CONTINUOUS
 10
186.3370331111
 20
152.7310779144
 40
138.3343932
100
AcDbArc
 50
167.4042495962
 51
177.1123021633
  0
ARC
  5
53A
100
AcDbEntity
  8
ASSI
100
AcDbCircle
 62
7
  6
CONTINUOUS
 10
186.3370331111
 20
152.7310779144
 40
138.3343932
100
AcDbArc
 50
167.4042495962
 51
177.1123021633
  0
ARC
  5
53B
100
AcDbEntity
  8
RACCORDO
100
AcDbCircle
 62
7
  6
CONTINUOUS
 10
186.3370331111
 20
152.7310779144
 40
135.3343932
100
AcDbArc
 50
166.8456433955
 51
177.1123021633
  0
ARC
  5
53C
100
AcDbEntity
  8
ASSI
100
AcDbCircle
 62
7
  6
CONTINUOUS
 10
186.3370331111
 20
152.7310779144
 40
135.3343932
100
AcDbArc
 50
166.8456433955
 51
177.1123021633
  0
ARC
  5
53D
100
AcDbEntity
  8
RACCORDO
100
AcDbCircle
 62
7
  6
CONTINUOUS
 10
497.6068860315
 20
66.0298319465
 40
450.0
100
AcDbArc
 50
179.9999994241
 51
182.8876883196
  0
ARC
  5
53E
100
AcDbEntity
  8
ASSI
100
AcDbCircle
 62
7
  6
CONTINUOUS
 10
497.6068860315
 20
66.0298319465
 40
450.0
100
AcDbArc
 50
179.9999994241
 51
182.8876883196
  0
ARC
  5
53F
100
AcDbEntity
  8
DRAFT
100
AcDbCircle
 62
7
  6
CONTINUOUS
 10
497.6068860315
 20
66.0298319465
 40
447.0
100
AcDbArc
 50
180.0
 51
182.8876978367
  0
ARC
  5
540
100
AcDbEntity
  8
ASSI
100
AcDbCircle
 62
7
  6
CONTINUOUS
 10
497.6068860315
 20
66.0298319465
 40
447.0
100
AcDbArc
 50
180.0
 51
182.8876978367
  0
ARC
  5
541
100
AcDbEntity
  8
0
100
AcDbCircle
 62
7
  6
CONTINUOUS
 10
498.1082070567
 20
66.0298319465
 40
447.0
100
AcDbArc
 50
180.0
 51
182.8843572168
  0
ARC
  5
542
100
AcDbEntity
  8
RACCORDO
100
AcDbCircle
 62
7
  6
CONTINUOUS
 10
497.6068860315
 20
137.0298319465
 40
450.0
100
AcDbArc
 50
177.1123115844
 51
180.0000005689
  0
ARC
  5
543
100
AcDbEntity
  8
ASSI
100
AcDbCircle
 62
7
  6
CONTINUOUS
 10
497.6068860315
 20
137.0298319465
 40
450.0
100
AcDbArc
 50
177.1123115844
 51
180.0000005689
  0
ARC
  5
544
100
AcDbEntity
  8
DRAFT
100
AcDbCircle
 62
7
  6
CONTINUOUS
 10
497.6068860315
 20
137.0298319465
 40
447.0
100
AcDbArc
 50
177.1123021633
 51
180.0
  0
ARC
  5
545
100
AcDbEntity
  8
ASSI
100
AcDbCircle
 62
7
  6
CONTINUOUS
 10
497.6068860315
 20
137.0298319465
 40
447.0
100
AcDbArc
 50
177.1123021633
 51
180.0
  0
ARC
  5
546
100
AcDbEntity
  8
0
100
AcDbCircle
 62
7
  6
CONTINUOUS
 10
498.1082070567
 20
137.0298319465
 40
447.0
100
AcDbArc
 50
177.1156427832
 51
180.0
  0
ENDSEC
  0
SECTION
  2
OBJECTS
  0
DICTIONARY
  5
C
100
AcDbDictionary
280
0
281
1
  3
ACAD_GROUP
350
D
  3
ACAD_MLINESTYLE
350
17
  3
ACAD_LAYOUT
350
1A
  3
ACAD_PLOTSETTINGS
350
19
  3
ACAD_PLOTSTYLENAME
350
E
  0
DICTIONARY
  5
D
102
{ACAD_REACTORS
330
C
102
}
100
AcDbDictionary
280
0
281
1
  0
ACDBDICTIONARYWDFLT
  5
E
102
{ACAD_REACTORS
330
C
102
}
100
AcDbDictionary
281
1
  3
Normal
350
F
100
AcDbDictionaryWithDefault
340
F
  0
DICTIONARY
  5
17
102
{ACAD_REACTORS
330
C
102
}
100
AcDbDictionary
280
0
281
1
  3
Standard
350
18
  0
DICTIONARY
  5
19
102
{ACAD_REACTORS
330
C
102
}
100
AcDbDictionary
281
1
  0
DICTIONARY
  5
1A
102
{ACAD_REACTORS
330
C
102
}
100
AcDbDictionary
281
1
  3
Model
350
547
  3
Layout1
350
548
  0
ACDBPLACEHOLDER
  5
F
102
{ACAD_REACTORS
330
E
102
}
  0
MLINESTYLE
  5
18
102
{ACAD_REACTORS
330
17
102
}
100
AcDbMlineStyle
  2
STANDARD
 70
0
  3

 62
256
 51
90.0
 52
90.0
 71
2
 49
0.5
 62
256
  6
BYLAYER
 49
-0.5
 62
256
  6
BYLAYER
  0
LAYOUT
  5
547
102
{ACAD_REACTORS
330
1A
102
}
100
AcDbPlotSettings
  1

  2
none_device
  4
ISO_A4_(297.00_x_210.00_MM)
  6

 40
0.0
 41
0.0
 42
0.0
 43
0.0
 44
297.0
 45
210.0
 46
0.0
 47
0.0
 48
0.0
 49
0.0
140
0.0
141
0.0
142
1.0
143
1.0
 70
1024
 72
1
 73
0
 74
0
  7

 75
0
147
1.0
148
0.0
149
0.0
100
AcDbLayout
  1
Model
 70
0
 71
0
 10
0.0
 20
0.0
 11
297.0
 21
210.0
 12
0.0
 22
0.0
 32
0.0
 14
0.0
 24
0.0
 34
0.0
 15
0.0
 25
0.0
 35
0.0
146
0.0
 13
0.0
 23
0.0
 33
0.0
 16
1.0
 26
0.0
 36
0.0
 17
0.0
 27
1.0
 37
0.0
 76
0
330
212
345
0
346
0
  0
LAYOUT
  5
548
102
{ACAD_REACTORS
330
1A
102
}
100
AcDbPlotSettings
  1

  2
none_device
  4
ISO_A4_(297.00_x_210.00_MM)
  6

 40
0.0
 41
0.0
 42
0.0
 43
0.0
 44
297.0
 45
210.0
 46
0.0
 47
0.0
 48
0.0
 49
0.0
140
0.0
141
0.0
142
1.0
143
1.0
 70
0
 72
1
 73
0
 74
0
  7

 75
0
147
1.0
148
0.0
149
0.0
100
AcDbLayout
  1
Layout1
 70
0
 71
1
 10
0.0
 20
0.0
 11
297.0
 21
210.0
 12
0.0
 22
0.0
 32
0.0
 14
0.0
 24
0.0
 34
0.0
 15
0.0
 25
0.0
 35
0.0
146
0.0
 13
0.0
 23
0.0
 33
0.0
 16
1.0
 26
0.0
 36
0.0
 17
0.0
 27
1.0
 37
0.0
 76
0
330
213
345
0
346
0
  0
ENDSEC
  0
EOF
