  0
SECTION
  2
HEADER
  9
$ACADVER
  1
AC1021
  9
$DWGCODEPAGE
  3
ANSI_1252
  9
$EXTMAX
 10
297.0
 20
210.0
 30
0.0
  9
$EXTMIN
 10
0.0
 20
0.0
 30
0.0
  9
$LIMMIN
 10
0.0
 20
0.0
  9
$LIMMAX
 10
297.0
 20
210.0
  9
$VIEWCTR
 10
148.5
 20
105.0
  9
$VIEWSIZE
 40
210.0
  9
$CLAYER
  8
0
  9
$LTSCALE
 40
16.335
  9
$CELTYPE
  6
BYLAYER
  9
$DIMSCALE
 40
1.0
  9
$DIMASZ
 40
3.0
  9
$DIMEXO
 40
1.85625
  9
$DIMDLI
 40
11.286
  9
$DIMEXE
 40
5.346
  9
$DIMCEN
 40
2.673
  9
$DIMLFAC
 40
1.0
  9
$DIMBLK
  1
_FILLED
  9
$DIMTXT
 40
3.0
  9
$DIMTOL
 70
1
  9
$DIMLIM
 70
0
  9
$DIMTFAC
 40
1.0
  9
$DIMTP
 40
0.01
  9
$DIMTM
 40
0.01
  9
$PDMODE
 70
3
  9
$PDSIZE
 40
3.0
  9
$HANDSEED
  5
3D8
  9
$TILEMODE
 70
1
  9
$MEASUREMENT
 70
1
  9
$INSUNITS
 70
4
  0
ENDSEC
  0
SECTION
  2
CLASSES
  0
CLASS
  1
ACDBDICTIONARYWDFLT
  2
AcDbDictionaryWithDefault
  3
AutoCAD 2000
 90
0
 91
1
280
0
281
0
  0
CLASS
  1
ACDBPLACEHOLDER
  2
AcDbPlaceHolder
  3
AutoCAD 2000
 90
0
 91
1
280
0
281
0
  0
CLASS
  1
LAYOUT
  2
AcDbLayout
  3
AutoCAD 2000
 90
0
 91
0
280
0
281
0
  0
ENDSEC
  0
SECTION
  2
TABLES
  0
TABLE
  2
VPORT
  5
8
100
AcDbSymbolTable
 70
2
  0
VPORT
  5
1F4
100
AcDbSymbolTableRecord
100
AcDbViewportTableRecord
  2
*ACTIVE
 70
0
 10
0.0
 20
0.0
 11
1.0
 21
1.0
 12
148.5
 22
105.0
 13
0.0
 23
0.0
 14
1.0
 24
1.0
 15
0.0
 25
0.0
 16
0.0
 26
0.0
 36
1.0
 17
0.0
 27
0.0
 37
0.0
 40
210.0
 41
1.4142857143
 42
50.0
 43
0.0
 44
0.0
 50
0.0
 51
0.0
 71
0
 72
100
 73
1
 74
1
 75
0
 76
0
 77
0
 78
0
  0
ENDTAB
  0
TABLE
  2
LTYPE
  5
5
100
AcDbSymbolTable
 70
6
  0
LTYPE
  5
14
100
AcDbSymbolTableRecord
100
AcDbLinetypeTableRecord
  2
BYBLOCK
 70
0
  3

 72
65
 73
0
 40
0.0
  0
LTYPE
  5
15
100
AcDbSymbolTableRecord
100
AcDbLinetypeTableRecord
  2
BYLAYER
 70
0
  3

 72
65
 73
0
 40
0.0
  0
LTYPE
  5
16
100
AcDbSymbolTableRecord
100
AcDbLinetypeTableRecord
  2
CONTINUOUS
 70
64
  3
Solid line
 72
65
 73
0
 40
0.0
  0
LTYPE
  5
1F5
100
AcDbSymbolTableRecord
100
AcDbLinetypeTableRecord
  2
CENTER
 70
64
  3
____ _ ____ _ ____ _ ____ _ ____ _ ____ _ ____
 72
65
 73
4
 40
0.6
 49
0.375
 74
0
 49
-0.075
 74
0
 49
0.075
 74
0
 49
-0.075
 74
0
  0
LTYPE
  5
1F6
100
AcDbSymbolTableRecord
100
AcDbLinetypeTableRecord
  2
HIDDEN
 70
64
  3
- - - - - - - - - - - - - - - - - - - -
 72
65
 73
2
 40
0.2
 49
0.1
 74
0
 49
-0.1
 74
0
  0
LTYPE
  5
1F7
100
AcDbSymbolTableRecord
100
AcDbLinetypeTableRecord
  2
PHANTOM
 70
64
  3
_____ _ _ _____ _ _ _____ _ _ _____
 72
65
 73
6
 40
0.8
 49
0.45
 74
0
 49
-0.05
 74
0
 49
0.1
 74
0
 49
-0.05
 74
0
 49
0.1
 74
0
 49
-0.05
 74
0
  0
LTYPE
  5
1F8
100
AcDbSymbolTableRecord
100
AcDbLinetypeTableRecord
  2
DOT
 70
64
  3
. . . . . . . . . . . . . . . . . . . .
 72
65
 73
2
 40
0.2
 49
0.1
 74
0
 49
-0.1
 74
0
  0
LTYPE
  5
1F9
100
AcDbSymbolTableRecord
100
AcDbLinetypeTableRecord
  2
DASHED
 70
64
  3
- - - - - - - - - - - - - - - - - - - -
 72
65
 73
2
 40
0.2
 49
0.1
 74
0
 49
-0.1
 74
0
  0
ENDTAB
  0
TABLE
  2
LAYER
  5
2
100
AcDbSymbolTable
 70
36
  0
LAYER
  5
10
100
AcDbSymbolTableRecord
100
AcDbLayerTableRecord
  2
0
 70
0
 62
7
  6
CONTINUOUS
370
-3
390
F
  0
LAYER
  5
1FA
100
AcDbSymbolTableRecord
100
AcDbLayerTableRecord
  2
DEFAULT_1
 70
0
 62
7
  6
CENTER
370
-3
390
F
  0
LAYER
  5
1FB
100
AcDbSymbolTableRecord
100
AcDbLayerTableRecord
  2
DEFAULT_2
 70
0
 62
7
  6
HIDDEN
370
-3
390
F
  0
LAYER
  5
1FC
100
AcDbSymbolTableRecord
100
AcDbLayerTableRecord
  2
DEFAULT_3
 70
0
 62
7
  6
PHANTOM
370
-3
390
F
  0
LAYER
  5
1FD
100
AcDbSymbolTableRecord
100
AcDbLayerTableRecord
  2
ASSI
 70
0
 62
7
  6
CONTINUOUS
370
-3
390
F
  0
LAYER
  5
1FE
100
AcDbSymbolTableRecord
100
AcDbLayerTableRecord
  2
COORDINATE
 70
0
 62
7
  6
CONTINUOUS
370
-3
390
F
  0
LAYER
  5
1FF
100
AcDbSymbolTableRecord
100
AcDbLayerTableRecord
  2
COPY_PUBLISH
 70
0
 62
7
  6
CONTINUOUS
370
-3
390
F
  0
LAYER
  5
200
100
AcDbSymbolTableRecord
100
AcDbLayerTableRecord
  2
COSMETIC
 70
0
 62
7
  6
CONTINUOUS
370
-3
390
F
  0
LAYER
  5
201
100
AcDbSymbolTableRecord
100
AcDbLayerTableRecord
  2
COSMETICI
 70
0
 62
7
  6
CONTINUOUS
370
-3
390
F
  0
LAYER
  5
202
100
AcDbSymbolTableRecord
100
AcDbLayerTableRecord
  2
CURVA_VERN
 70
0
 62
7
  6
CONTINUOUS
370
-3
390
F
  0
LAYER
  5
203
100
AcDbSymbolTableRecord
100
AcDbLayerTableRecord
  2
CURVE
 70
0
 62
7
  6
CONTINUOUS
370
-3
390
F
  0
LAYER
  5
204
100
AcDbSymbolTableRecord
100
AcDbLayerTableRecord
  2
DRAFT
 70
0
 62
7
  6
CONTINUOUS
370
-3
390
F
  0
LAYER
  5
205
100
AcDbSymbolTableRecord
100
AcDbLayerTableRecord
  2
IMPORT_IGES
 70
0
 62
7
  6
CONTINUOUS
370
-3
390
F
  0
LAYER
  5
206
100
AcDbSymbolTableRecord
100
AcDbLayerTableRecord
  2
INTFCLR_1
 70
0
 62
7
  6
CONTINUOUS
370
-3
390
F
  0
LAYER
  5
207
100
AcDbSymbolTableRecord
100
AcDbLayerTableRecord
  2
NOTE
 70
0
 62
7
  6
CONTINUOUS
370
-3
390
F
  0
LAYER
  5
208
100
AcDbSymbolTableRecord
100
AcDbLayerTableRecord
  2
PIANI
 70
0
 62
7
  6
CONTINUOUS
370
-3
390
F
  0
LAYER
  5
209
100
AcDbSymbolTableRecord
100
AcDbLayerTableRecord
  2
PUNTI
 70
0
 62
7
  6
CONTINUOUS
370
-3
390
F
  0
LAYER
  5
20A
100
AcDbSymbolTableRecord
100
AcDbLayerTableRecord
  2
RACCORDO
 70
0
 62
7
  6
CONTINUOUS
370
-3
390
F
  0
LAYER
  5
20B
100
AcDbSymbolTableRecord
100
AcDbLayerTableRecord
  2
SIMBOLI
 70
0
 62
7
  6
CONTINUOUS
370
-3
390
F
  0
LAYER
  5
20C
100
AcDbSymbolTableRecord
100
AcDbLayerTableRecord
  2
SMUSSO
 70
0
 62
7
  6
CONTINUOUS
370
-3
390
F
  0
LAYER
  5
20D
100
AcDbSymbolTableRecord
100
AcDbLayerTableRecord
  2
SNAPLINE
 70
0
 62
7
  6
CONTINUOUS
370
-3
390
F
  0
LAYER
  5
20E
100
AcDbSymbolTableRecord
100
AcDbLayerTableRecord
  2
SUPERFICI
 70
0
 62
7
  6
CONTINUOUS
370
-3
390
F
  0
LAYER
  5
20F
100
AcDbSymbolTableRecord
100
AcDbLayerTableRecord
  2
TRASH
 70
0
 62
7
  6
CONTINUOUS
370
-3
390
F
  0
LAYER
  5
210
100
AcDbSymbolTableRecord
100
AcDbLayerTableRecord
  2
XSEC_DATUMS
 70
0
 62
7
  6
CONTINUOUS
370
-3
390
F
  0
ENDTAB
  0
TABLE
  2
STYLE
  5
3
100
AcDbSymbolTable
 70
1
  0
STYLE
  5
11
100
AcDbSymbolTableRecord
100
AcDbTextStyleTableRecord
  2
STANDARD
 70
0
 40
0.0
 41
0.8
 50
0.0
 71
0
 42
0.2
  3
txt
  4

  0
STYLE
  5
211
100
AcDbSymbolTableRecord
100
AcDbTextStyleTableRecord
  2
TEXTSTYLE_1
 70
0
 40
0.0
 41
0.8
 50
0.0
 71
0
 42
0.2
  3
gdt
  4

  0
ENDTAB
  0
TABLE
  2
VIEW
  5
6
100
AcDbSymbolTable
 70
0
  0
ENDTAB
  0
TABLE
  2
UCS
  5
7
100
AcDbSymbolTable
 70
0
  0
ENDTAB
  0
TABLE
  2
APPID
  5
9
100
AcDbSymbolTable
 70
1
  0
APPID
  5
212
100
AcDbSymbolTableRecord
100
AcDbRegAppTableRecord
  2
ACAD
 70
0
  0
ENDTAB
  0
TABLE
  2
BLOCK_RECORD
  5
1
100
AcDbSymbolTable
 70
0
  0
BLOCK_RECORD
  5
213
100
AcDbSymbolTableRecord
100
AcDbBlockTableRecord
  2
*Model_Space
  0
BLOCK_RECORD
  5
214
100
AcDbSymbolTableRecord
100
AcDbBlockTableRecord
  2
*Paper_Space
  0
BLOCK_RECORD
  5
215
100
AcDbSymbolTableRecord
100
AcDbBlockTableRecord
  2
_FILLED
  0
BLOCK_RECORD
  5
216
100
AcDbSymbolTableRecord
100
AcDbBlockTableRecord
  2
*D0
  0
BLOCK_RECORD
  5
217
100
AcDbSymbolTableRecord
100
AcDbBlockTableRecord
  2
*D1
  0
BLOCK_RECORD
  5
218
100
AcDbSymbolTableRecord
100
AcDbBlockTableRecord
  2
*D2
  0
BLOCK_RECORD
  5
219
100
AcDbSymbolTableRecord
100
AcDbBlockTableRecord
  2
*D3
  0
BLOCK_RECORD
  5
21A
100
AcDbSymbolTableRecord
100
AcDbBlockTableRecord
  2
*D4
  0
ENDTAB
  0
TABLE
  2
DIMSTYLE
  5
A
100
AcDbSymbolTable
 70
1
100
AcDbDimStyleTable
 71
0
  0
DIMSTYLE
105
21B
100
AcDbSymbolTableRecord
100
AcDbDimStyleTableRecord
  2
STANDARD
 70
0
  3

  4

 40
1.0
 41
3.0
 42
0.0625
 43
0.38
 44
0.18
 45
0.0
 46
0.0
 47
0.01
 48
0.01
140
3.0
141
0.09
142
0.0
143
25.4
144
1.0
145
0.0
146
1.0
147
0.09
 71
1.0
 72
0.0
 73
0
 74
0
 75
0
 76
0
 77
1
 78
8
170
0
171
2
172
0
173
0
174
0
175
0
176
0
177
0
178
0
270
2
271
2
272
2
273
2
274
2
275
0
280
0
281
0
282
0
283
1
284
8
285
0
286
0
287
3
288
0
340
11
341
215
342
215
343
215
344
215
  0
DIMSTYLE
105
21C
100
AcDbSymbolTableRecord
100
AcDbDimStyleTableRecord
  2
DIMSTYLE_1
 70
0
  3

  4

 40
1.0
 41
3.0
 42
0.0625
 43
0.38
 44
0.18
 45
0.0
 46
0.0
 47
0.0
 48
0.0
140
3.0
141
0.09
142
0.0
143
25.4
144
1.0
145
0.0
146
1.0
147
0.09
 71
0.0
 72
0.0
 73
0
 74
0
 75
0
 76
0
 77
1
 78
8
170
0
171
2
172
0
173
0
174
0
175
0
176
0
177
0
178
0
270
2
271
2
272
2
273
2
274
2
275
0
280
0
281
0
282
0
283
1
284
8
285
0
286
0
287
3
288
0
340
11
341
215
342
215
343
215
344
215
  0
DIMSTYLE
105
21D
100
AcDbSymbolTableRecord
100
AcDbDimStyleTableRecord
  2
DIMSTYLE_2
 70
0
  3

  4

 40
1.0
 41
3.0
 42
0.0625
 43
0.38
 44
0.18
 45
0.0
 46
0.0
 47
0.0
 48
0.0
140
3.0
141
0.09
142
0.0
143
25.4
144
1.0
145
0.0
146
1.0
147
0.09
 71
0.0
 72
0.0
 73
0
 74
0
 75
0
 76
0
 77
1
 78
8
170
0
171
2
172
0
173
0
174
0
175
0
176
0
177
0
178
0
270
2
271
1
272
1
273
2
274
2
275
0
280
0
281
0
282
0
283
1
284
8
285
0
286
0
287
3
288
0
340
11
341
215
342
215
343
215
344
215
  0
ENDTAB
  0
ENDSEC
  0
SECTION
  2
BLOCKS
  0
BLOCK
  5
20
100
AcDbEntity
  8
0
100
AcDbBlockBegin
  2
*Model_Space
 70
0
 10
0.0
 20
0.0
 30
0.0
  3
*Model_Space
  1

  0
ENDBLK
  5
21
100
AcDbEntity
  8
0
100
AcDbBlockEnd
  0
BLOCK
  5
1C
100
AcDbEntity
  8
0
100
AcDbBlockBegin
  2
*Paper_Space
 70
0
 10
0.0
 20
0.0
 30
0.0
  3
*Paper_Space
  1

  0
ENDBLK
  5
1D
100
AcDbEntity
  8
0
100
AcDbBlockEnd
  0
BLOCK
  5
21E
100
AcDbEntity
  8
0
100
AcDbBlockBegin
  2
_FILLED
 70
64
 10
0.0
 20
0.0
  3
_FILLED
  1

  0
SOLID
  5
21F
100
AcDbEntity
  8
0
  6
BYBLOCK
 62
0
100
AcDbTrace
 10
0.0
 20
0.0
 11
-1.0
 21
0.3166666667
 12
-1.0
 22
-0.3166666667
 13
-1.0
 23
-0.3166666667
  0
ENDBLK
  5
220
100
AcDbEntity
  8
0
  6
BYBLOCK
 62
0
100
AcDbBlockEnd
  0
BLOCK
  5
221
100
AcDbEntity
  8
0
100
AcDbBlockBegin
 62
7
  6
CONTINUOUS
  2
*D0
 70
65
 10
0.0
 20
0.0
  3
*D0
  1

  0
MTEXT
  5
222
100
AcDbEntity
  8
0
100
AcDbMText
 62
7
  6
CONTINUOUS
  7
STANDARD
 71
2
 72
1
 10
-0.0
 20
111.75
 30
0.0
 11
1.0
 21
0.0
 31
0.0
 44
0.9
  1
145,5
 40
3.0
 41
10.0714285714
  0
LINE
  5
223
100
AcDbEntity
  8
0
100
AcDbLine
 62
7
  6
CONTINUOUS
 10
72.75
 20
80.5013704652
 11
72.75
 21
109.5
  0
LINE
  5
224
100
AcDbEntity
  8
0
100
AcDbLine
 62
7
  6
CONTINUOUS
 10
-72.75
 20
80.5013704652
 11
-72.75
 21
109.5
  0
LINE
  5
225
100
AcDbEntity
  8
0
100
AcDbLine
 62
7
  6
CONTINUOUS
 10
72.75
 20
108.0
 11
-0.0
 21
108.0
  0
LINE
  5
226
100
AcDbEntity
  8
0
100
AcDbLine
 62
7
  6
CONTINUOUS
 10
-72.75
 20
108.0
 11
-0.0
 21
108.0
  0
INSERT
  5
227
100
AcDbEntity
  8
0
100
AcDbBlockReference
 62
7
  6
CONTINUOUS
  2
_FILLED
 10
72.75
 20
108.0
 41
3.0
 42
3.0
 43
3.0
 50
0.0
  0
INSERT
  5
228
100
AcDbEntity
  8
0
100
AcDbBlockReference
 62
7
  6
CONTINUOUS
  2
_FILLED
 10
-72.75
 20
108.0
 41
3.0
 42
3.0
 43
3.0
 50
180.0
  0
ENDBLK
  5
229
100
AcDbEntity
  8
0
  6
BYBLOCK
 62
0
100
AcDbBlockEnd
  0
BLOCK
  5
22A
100
AcDbEntity
  8
0
100
AcDbBlockBegin
 62
7
  6
CONTINUOUS
  2
*D1
 70
65
 10
0.0
 20
0.0
  3
*D1
  1

  0
MTEXT
  5
22B
100
AcDbEntity
  8
0
100
AcDbMText
 62
7
  6
CONTINUOUS
  7
STANDARD
 71
2
 72
1
 10
94.25
 20
-0.0
 30
0.0
 11
0.0
 21
1.0
 31
0.0
 44
0.9
  1
162
 40
3.0
 41
6.4285714286
  0
LINE
  5
22C
100
AcDbEntity
  8
0
100
AcDbLine
 62
7
  6
CONTINUOUS
 10
72.2513704652
 20
81.0
 11
99.5
 21
81.0
  0
LINE
  5
22D
100
AcDbEntity
  8
0
100
AcDbLine
 62
7
  6
CONTINUOUS
 10
72.2513704652
 20
-81.0
 11
99.5
 21
-81.0
  0
LINE
  5
22E
100
AcDbEntity
  8
0
100
AcDbLine
 62
7
  6
CONTINUOUS
 10
98.0
 20
81.0
 11
98.0
 21
0.0
  0
LINE
  5
22F
100
AcDbEntity
  8
0
100
AcDbLine
 62
7
  6
CONTINUOUS
 10
98.0
 20
-81.0
 11
98.0
 21
0.0
  0
INSERT
  5
230
100
AcDbEntity
  8
0
100
AcDbBlockReference
 62
7
  6
CONTINUOUS
  2
_FILLED
 10
98.0
 20
81.0
 41
3.0
 42
3.0
 43
3.0
 50
90.0
  0
INSERT
  5
231
100
AcDbEntity
  8
0
100
AcDbBlockReference
 62
7
  6
CONTINUOUS
  2
_FILLED
 10
98.0
 20
-81.0
 41
3.0
 42
3.0
 43
3.0
 50
270.0
  0
ENDBLK
  5
232
100
AcDbEntity
  8
0
  6
BYBLOCK
 62
0
100
AcDbBlockEnd
  0
BLOCK
  5
233
100
AcDbEntity
  8
0
100
AcDbBlockBegin
 62
7
  6
CONTINUOUS
  2
*D2
 70
65
 10
0.0
 20
0.0
  3
*D2
  1

  0
MTEXT
  5
234
100
AcDbEntity
  8
0
100
AcDbMText
 62
7
  6
CONTINUOUS
  7
STANDARD
 71
2
 72
1
 10
84.25
 20
0.0
 30
0.0
 11
0.0
 21
1.0
 31
0.0
 44
0.9
  1
116
 40
3.0
 41
5.7857142857
  0
LINE
  5
235
100
AcDbEntity
  8
0
100
AcDbLine
 62
7
  6
CONTINUOUS
 10
44.8510278489
 20
58.0
 11
89.5
 21
58.0
  0
LINE
  5
236
100
AcDbEntity
  8
0
100
AcDbLine
 62
7
  6
CONTINUOUS
 10
44.8510278489
 20
-58.0
 11
89.5
 21
-58.0
  0
LINE
  5
237
100
AcDbEntity
  8
0
100
AcDbLine
 62
7
  6
CONTINUOUS
 10
88.0
 20
58.0
 11
88.0
 21
0.0
  0
LINE
  5
238
100
AcDbEntity
  8
0
100
AcDbLine
 62
7
  6
CONTINUOUS
 10
88.0
 20
-58.0
 11
88.0
 21
0.0
  0
INSERT
  5
239
100
AcDbEntity
  8
0
100
AcDbBlockReference
 62
7
  6
CONTINUOUS
  2
_FILLED
 10
88.0
 20
58.0
 41
3.0
 42
3.0
 43
3.0
 50
90.0
  0
INSERT
  5
23A
100
AcDbEntity
  8
0
100
AcDbBlockReference
 62
7
  6
CONTINUOUS
  2
_FILLED
 10
88.0
 20
-58.0
 41
3.0
 42
3.0
 43
3.0
 50
270.0
  0
ENDBLK
  5
23B
100
AcDbEntity
  8
0
  6
BYBLOCK
 62
0
100
AcDbBlockEnd
  0
BLOCK
  5
23C
100
AcDbEntity
  8
0
100
AcDbBlockBegin
 62
7
  6
CONTINUOUS
  2
*D3
 70
65
 10
0.0
 20
0.0
  3
*D3
  1

  0
MTEXT
  5
23D
100
AcDbEntity
  8
0
100
AcDbMText
 62
7
  6
CONTINUOUS
  7
STANDARD
 71
2
 72
1
 10
0.0
 20
101.75
 30
0.0
 11
1.0
 21
0.0
 31
0.0
 44
0.9
  1
90,2
 40
3.0
 41
8.7857142857
  0
LINE
  5
23E
100
AcDbEntity
  8
0
100
AcDbLine
 62
7
  6
CONTINUOUS
 10
45.1
 20
58.7453646056
 11
45.1
 21
99.5
  0
LINE
  5
23F
100
AcDbEntity
  8
0
100
AcDbLine
 62
7
  6
CONTINUOUS
 10
-45.1
 20
58.6908410529
 11
-45.1
 21
99.5
  0
LINE
  5
240
100
AcDbEntity
  8
0
100
AcDbLine
 62
7
  6
CONTINUOUS
 10
45.1
 20
98.0
 11
0.0
 21
98.0
  0
LINE
  5
241
100
AcDbEntity
  8
0
100
AcDbLine
 62
7
  6
CONTINUOUS
 10
-45.1
 20
98.0
 11
0.0
 21
98.0
  0
INSERT
  5
242
100
AcDbEntity
  8
0
100
AcDbBlockReference
 62
7
  6
CONTINUOUS
  2
_FILLED
 10
45.1
 20
98.0
 41
3.0
 42
3.0
 43
3.0
  0
INSERT
  5
243
100
AcDbEntity
  8
0
100
AcDbBlockReference
 62
7
  6
CONTINUOUS
  2
_FILLED
 10
-45.1
 20
98.0
 41
3.0
 42
3.0
 43
3.0
 50
180.0
  0
ENDBLK
  5
244
100
AcDbEntity
  8
0
  6
BYBLOCK
 62
0
100
AcDbBlockEnd
  0
BLOCK
  5
245
100
AcDbEntity
  8
0
100
AcDbBlockBegin
 62
7
  6
CONTINUOUS
  2
*D4
 70
65
 10
0.0
 20
0.0
  3
*D4
  1

  0
MTEXT
  5
246
100
AcDbEntity
  8
0
100
AcDbMText
 62
7
  6
CONTINUOUS
  7
STANDARD
 71
2
 72
1
 10
-117.3347923139
 20
101.75
 30
0.0
 11
1.0
 21
0.0
 31
0.0
 44
0.9
  1
9,3
 40
3.0
 41
6.2142857143
  0
LINE
  5
247
100
AcDbEntity
  8
0
100
AcDbLine
 62
7
  6
CONTINUOUS
 10
-112.6741527556
 20
79.3483795986
 11
-112.6741527556
 21
99.5
  0
LINE
  5
248
100
AcDbEntity
  8
0
100
AcDbLine
 62
7
  6
CONTINUOUS
 10
-121.9954318722
 20
36.0
 11
-121.9954318722
 21
99.5
  0
LINE
  5
249
100
AcDbEntity
  8
0
100
AcDbLine
 62
7
  6
CONTINUOUS
 10
-112.6741527556
 20
98.0
 11
-108.6741527556
 21
98.0
  0
LINE
  5
24A
100
AcDbEntity
  8
0
100
AcDbLine
 62
7
  6
CONTINUOUS
 10
-108.6741527556
 20
98.0
 11
-117.3347923139
 21
98.0
  0
LINE
  5
24B
100
AcDbEntity
  8
0
100
AcDbLine
 62
7
  6
CONTINUOUS
 10
-121.9954318722
 20
98.0
 11
-125.9954318722
 21
98.0
  0
LINE
  5
24C
100
AcDbEntity
  8
0
100
AcDbLine
 62
7
  6
CONTINUOUS
 10
-125.9954318722
 20
98.0
 11
-117.3347923139
 21
98.0
  0
INSERT
  5
24D
100
AcDbEntity
  8
0
100
AcDbBlockReference
 62
7
  6
CONTINUOUS
  2
_FILLED
 10
-112.6741527556
 20
98.0
 41
3.0
 42
3.0
 43
3.0
 50
180.0
  0
INSERT
  5
24E
100
AcDbEntity
  8
0
100
AcDbBlockReference
 62
7
  6
CONTINUOUS
  2
_FILLED
 10
-121.9954318722
 20
98.0
 41
3.0
 42
3.0
 43
3.0
 50
0.0
  0
ENDBLK
  5
24F
100
AcDbEntity
  8
0
  6
BYBLOCK
 62
0
100
AcDbBlockEnd
  0
ENDSEC
  0
SECTION
  2
ENTITIES
  0
DIMENSION
  5
250
100
AcDbEntity
  8
0
100
AcDbDimension
 62
7
  6
CONTINUOUS
  2
*D0
 10
-72.75
 20
108.0
 11
-5.0357142857
 21
110.25
 70
160
 71
2
 42
145.5
  3
DIMSTYLE_1
100
AcDbAlignedDimension
 13
72.75
 23
80.5013704652
 14
-72.75
 24
80.5013704652
 50
180.0
100
AcDbRotatedDimension
  0
DIMENSION
  5
251
100
AcDbEntity
  8
0
100
AcDbDimension
 62
7
  6
CONTINUOUS
  2
*D1
 10
98.0
 20
-81.0
 11
97.1902366233
 21
-2.8735607044
 70
160
 71
2
 42
162.0
  3
DIMSTYLE_1
100
AcDbAlignedDimension
 13
72.2513704652
 23
81.0
 14
72.2513704652
 24
-81.0
 50
270.0
100
AcDbRotatedDimension
  0
DIMENSION
  5
252
100
AcDbEntity
  8
0
100
AcDbDimension
 62
7
  6
CONTINUOUS
  2
*D2
 10
88.0
 20
-58.0
 11
87.0462129609
 21
-2.586204634
 70
160
 71
2
 42
116.0
  3
DIMSTYLE_1
100
AcDbAlignedDimension
 13
44.8510278489
 23
58.0
 14
44.8510278489
 24
-58.0
 50
270.0
100
AcDbRotatedDimension
  0
DIMENSION
  5
253
100
AcDbEntity
  8
0
100
AcDbDimension
 62
7
  6
CONTINUOUS
  2
*D3
 10
-45.1
 20
98.0
 11
-4.3928571429
 21
100.25
 70
160
 71
2
 42
90.2
  3
DIMSTYLE_1
100
AcDbAlignedDimension
 13
45.1
 23
58.7453646056
 14
-45.1
 24
58.6908410529
 50
180.0
100
AcDbRotatedDimension
  0
DIMENSION
  5
254
100
AcDbEntity
  8
0
100
AcDbDimension
 62
7
  6
CONTINUOUS
  2
*D4
 10
-121.9954318722
 20
98.0
 11
-120.441935171
 21
100.25
 70
160
 71
2
 42
9.3212791166
  3
DIMSTYLE_2
100
AcDbAlignedDimension
 13
-112.6741527556
 23
79.3483795986
 14
-121.9954318722
 24
36.0
 50
180.0
100
AcDbRotatedDimension
  0
LWPOLYLINE
  5
255
100
AcDbEntity
  8
RACCORDO
100
AcDbPolyline
 62
253
  6
CONTINUOUS
 90
28
 70
0
 10
71.6314198012
 20
-80.880049336
 10
71.6890297346
 20
-80.8783301397
 10
71.7464284599
 20
-80.8732709875
 10
71.8034254466
 20
-80.8648872628
 10
71.8598177633
 20
-80.8532084485
 10
71.9154315556
 20
-80.8382701744
 10
71.9701206331
 20
-80.8201064266
 10
72.0237200046
 20
-80.7987601109
 10
72.0760265056
 20
-80.7743006216
 10
72.1268408468
 20
-80.7468147643
 10
72.1759784247
 20
-80.7163974173
 10
72.2232846271
 20
-80.6831399733
 10
72.2686128707
 20
-80.6471403405
 10
72.3118072046
 20
-80.6085106936
 10
72.3527149403
 20
-80.5673760824
 10
72.3912012413
 20
-80.5238638269
 10
72.4271295046
 20
-80.4781114317
 10
72.4603687547
 20
-80.4302684286
 10
72.4908028548
 20
-80.3804908328
 10
72.5183206439
 20
-80.3289369708
 10
72.5428165388
 20
-80.2757797498
 10
72.5641977721
 20
-80.2212075514
 10
72.5823818327
 20
-80.1654028271
 10
72.5972978745
 20
-80.1085512169
 10
72.608888956
 20
-80.0508541972
 10
72.6171080327
 20
-79.9925099351
 10
72.6219170337
 20
-79.9337123257
 10
72.6232905611
 20
-79.8746610263
  0
LWPOLYLINE
  5
256
100
AcDbEntity
  8
RACCORDO
100
AcDbPolyline
 62
253
  6
CONTINUOUS
 90
28
 70
0
 10
71.6314198012
 20
-80.6350046327
 10
71.6719401728
 20
-80.6338056809
 10
71.7120567477
 20
-80.6302881016
 10
71.7517695258
 20
-80.6244518677
 10
71.791205648
 20
-80.6162678657
 10
71.8302379735
 20
-80.6057651015
 10
71.8684850792
 20
-80.5930307038
 10
71.9059487479
 20
-80.5780382555
 10
71.9426271968
 20
-80.5608139694
 10
71.9781336548
 20
-80.5415239063
 10
72.0124489525
 20
-80.5201506392
 10
72.0455922593
 20
-80.4967113188
 10
72.0772343122
 20
-80.471423879
 10
72.1073637906
 20
-80.4442692771
 10
72.135992015
 20
-80.415266238
 10
72.1628236843
 20
-80.3846893737
 10
72.1878436229
 20
-80.352520786
 10
72.2110670063
 20
-80.3187780512
 10
72.232244059
 20
-80.2837890437
 10
72.2513557437
 20
-80.2475365222
 10
72.2684210978
 20
-80.2100374407
 10
72.283247458
 20
-80.1716710423
 10
72.2958113334
 20
-80.1324173399
 10
72.306136215
 20
-80.0922961047
 10
72.3140999116
 20
-80.0517463178
 10
72.3196616929
 20
-80.0109142955
 10
72.3228622893
 20
-79.9696536267
 10
72.3237017007
 20
-79.927964257
  0
LWPOLYLINE
  5
257
100
AcDbEntity
  8
RACCORDO
100
AcDbPolyline
 62
253
  6
CONTINUOUS
 90
19
 70
0
 10
72.3237017007
 20
-79.9279642451
 10
72.3489917184
 20
-79.9275427457
 10
72.3741016766
 20
-79.9267447395
 10
72.3988527976
 20
-79.9255759082
 10
72.4230688587
 20
-79.9240445736
 10
72.4465774467
 20
-79.9221616385
 10
72.4692111852
 20
-79.9199405089
 10
72.490808927
 20
-79.9173969989
 10
72.5112169006
 20
-79.9145492178
 10
72.5302898055
 20
-79.911417441
 10
72.5478918468
 20
-79.9080239662
 10
72.5638977015
 20
-79.9043929542
 10
72.5781934114
 20
-79.9005502571
 10
72.5906771941
 20
-79.8965232341
 10
72.6012601676
 20
-79.8923405566
 10
72.6098669834
 20
-79.8880320046
 10
72.6164363628
 20
-79.8836282539
 10
72.6209215332
 20
-79.8791606584
 10
72.6232905611
 20
-79.8746610263
  0
LINE
  5
258
100
AcDbEntity
  8
RACCORDO
100
AcDbLine
 62
7
  6
CONTINUOUS
 10
-71.7513704652
 20
-81.0
 11
71.7513704652
 21
-81.0
  0
LINE
  5
259
100
AcDbEntity
  8
RACCORDO
100
AcDbLine
 62
253
  6
CONTINUOUS
 10
-71.6314198012
 20
-80.880049336
 11
71.6314198012
 21
-80.880049336
  0
LINE
  5
25A
100
AcDbEntity
  8
RACCORDO
100
AcDbLine
 62
253
  6
CONTINUOUS
 10
-71.6314198012
 20
-80.6350046327
 11
71.6314198012
 21
-80.6350046327
  0
LWPOLYLINE
  5
25B
100
AcDbEntity
  8
RACCORDO
100
AcDbPolyline
 62
253
  6
CONTINUOUS
 90
19
 70
0
 10
-72.3237017007
 20
-79.9279642505
 10
-72.3489914545
 20
-79.9275427051
 10
-72.3741011277
 20
-79.9267446588
 10
-72.3988519476
 20
-79.9255757934
 10
-72.4230676959
 20
-79.924044431
 10
-72.4465759642
 20
-79.9221614742
 10
-72.469209381
 20
-79.9199403291
 10
-72.4908068034
 20
-79.9173968096
 10
-72.5112144647
 20
-79.9145490248
 10
-72.5302870687
 20
-79.9114172499
 10
-72.5478888245
 20
-79.9080237822
 10
-72.563894413
 20
-79.9043927821
 10
-72.5781898795
 20
-79.9005501012
 10
-72.5906734449
 20
-79.8965230981
 10
-72.60125623
 20
-79.892340444
 10
-72.6098628888
 20
-79.8880319178
 10
-72.6164321445
 20
-79.883628195
 10
-72.6209172261
 20
-79.8791606287
 10
-72.6232862012
 20
-79.8746610265
  0
LWPOLYLINE
  5
25C
100
AcDbEntity
  8
RACCORDO
100
AcDbPolyline
 62
253
  6
CONTINUOUS
 90
28
 70
0
 10
-72.6232905611
 20
-79.8746610263
 10
-72.6219208746
 20
-79.9336389898
 10
-72.61712405
 20
-79.9923658068
 10
-72.6089250814
 20
-80.0506425181
 10
-72.5973632037
 20
-80.1082689258
 10
-72.5824841431
 20
-80.1650546361
 10
-72.5643370425
 20
-80.2208189384
 10
-72.542982633
 20
-80.2753896026
 10
-72.5185039272
 20
-80.3285679053
 10
-72.4910023719
 20
-80.3801419055
 10
-72.4605887048
 20
-80.4299311679
 10
-72.4273702904
 20
-80.4777855687
 10
-72.3914621406
 20
-80.5235508146
 10
-72.3529947939
 20
-80.5670776712
 10
-72.3121050426
 20
-80.608228174
 10
-72.2689271857
 20
-80.6468753024
 10
-72.2236125328
 20
-80.6828947593
 10
-72.1763180309
 20
-80.7161731351
 10
-72.1271936363
 20
-80.7466103206
 10
-72.0764038827
 20
-80.774110488
 10
-72.0241244098
 20
-80.7985851745
 10
-71.970527802
 20
-80.8199577908
 10
-71.9157996374
 20
-80.8381596051
 10
-71.8601193635
 20
-80.8531367048
 10
-71.8036541544
 20
-80.8648467639
 10
-71.7465856887
 20
-80.8732524867
 10
-71.6891104889
 20
-80.8783253649
 10
-71.6314198012
 20
-80.880049336
  0
LWPOLYLINE
  5
25D
100
AcDbEntity
  8
RACCORDO
100
AcDbPolyline
 62
253
  6
CONTINUOUS
 90
28
 70
0
 10
-72.3237017007
 20
-79.927964257
 10
-72.3228603537
 20
-79.9696417589
 10
-72.3196629959
 20
-80.0108828684
 10
-72.3141096272
 20
-80.0516876408
 10
-72.3061622953
 20
-80.0921944205
 10
-72.2958589526
 20
-80.1322649606
 10
-72.2833134559
 20
-80.1714844826
 10
-72.2684984046
 20
-80.2098469542
 10
-72.2514411994
 20
-80.2473586182
 10
-72.2323378996
 20
-80.2836232081
 10
-72.21117082
 20
-80.3186176908
 10
-72.1879576458
 20
-80.3523653873
 10
-72.1629474919
 20
-80.3845396388
 10
-72.1361251299
 20
-80.415123243
 10
-72.1075057881
 20
-80.444133724
 10
-72.0773842667
 20
-80.4712965623
 10
-72.0457482937
 20
-80.4965935011
 10
-72.012610141
 20
-80.5200431149
 10
-71.978301424
 20
-80.5414261577
 10
-71.9428101166
 20
-80.5607235549
 10
-71.9061482449
 20
-80.5779546578
 10
-71.8686835024
 20
-80.5929578653
 10
-71.8304032813
 20
-80.6057115413
 10
-71.7913201893
 20
-80.616237526
 10
-71.7518397436
 20
-80.624439421
 10
-71.7120971166
 20
-80.6302851308
 10
-71.6719571358
 20
-80.633806859
 10
-71.6314198012
 20
-80.6350046327
  0
LWPOLYLINE
  5
25E
100
AcDbEntity
  8
RACCORDO
100
AcDbPolyline
 62
253
  6
CONTINUOUS
 90
9
 70
0
 10
-72.6232905611
 20
79.8746610263
 10
-72.6015406287
 20
77.4784252128
 10
-72.5815889438
 20
75.0774850129
 10
-72.5634355062
 20
72.6718404268
 10
-72.547077316
 20
70.2609947028
 10
-72.5325173731
 20
67.8454445924
 10
-72.519764678
 20
65.4266803506
 10
-72.5088222305
 20
63.0051987287
 10
-72.4996870307
 20
60.5805029754
  0
LWPOLYLINE
  5
25F
100
AcDbEntity
  8
RACCORDO
100
AcDbPolyline
 62
253
  6
CONTINUOUS
 90
9
 70
0
 10
-72.3237017007
 20
79.927964257
 10
-72.3019513787
 20
77.5282771362
 10
-72.2819994544
 20
75.122919392
 10
-72.2638459278
 20
72.7123793731
 10
-72.2474878747
 20
70.2971506052
 10
-72.2329282192
 20
67.8777193071
 10
-72.2201757338
 20
65.4545642224
 10
-72.2092333428
 20
63.028173081
 10
-72.2000981219
 20
60.5990425666
  0
LINE
  5
260
100
AcDbEntity
  8
RACCORDO
100
AcDbLine
 62
253
  6
CONTINUOUS
 10
-72.4996870307
 20
60.5805029754
 11
-72.4832177404
 21
54.3793261674
  0
LINE
  5
261
100
AcDbEntity
  8
RACCORDO
100
AcDbLine
 62
253
  6
CONTINUOUS
 10
-72.2000981219
 20
60.5990425666
 11
-72.1836288758
 21
54.3919188926
  0
LINE
  5
262
100
AcDbEntity
  8
RACCORDO
100
AcDbLine
 62
253
  6
CONTINUOUS
 10
-72.4832177404
 20
54.3793261674
 11
-72.4736144694
 21
49.3467874365
  0
LINE
  5
263
100
AcDbEntity
  8
RACCORDO
100
AcDbLine
 62
253
  6
CONTINUOUS
 10
-72.1836288758
 20
54.3919188926
 11
-72.1740256078
 21
49.356020782
  0
LINE
  5
264
100
AcDbEntity
  8
RACCORDO
100
AcDbLine
 62
253
  6
CONTINUOUS
 10
-72.4736144694
 20
49.3467874365
 11
-72.466965444
 21
44.3127063194
  0
LINE
  5
265
100
AcDbEntity
  8
RACCORDO
100
AcDbLine
 62
253
  6
CONTINUOUS
 10
-72.1740256078
 20
49.356020782
 11
-72.1673765841
 21
44.31858915
  0
LINE
  5
266
100
AcDbEntity
  8
RACCORDO
100
AcDbLine
 62
253
  6
CONTINUOUS
 10
-72.466965444
 20
44.3127063194
 11
-72.4632709749
 21
39.2772999418
  0
LINE
  5
267
100
AcDbEntity
  8
RACCORDO
100
AcDbLine
 62
253
  6
CONTINUOUS
 10
-72.1673765841
 20
44.31858915
 11
-72.1636821152
 21
39.2798214896
  0
LINE
  5
268
100
AcDbEntity
  8
RACCORDO
100
AcDbLine
 62
7
  6
CONTINUOUS
 10
-72.75
 20
-80.0013704652
 11
-72.75
 21
80.0013704652
  0
LINE
  5
269
100
AcDbEntity
  8
RACCORDO
100
AcDbLine
 62
253
  6
CONTINUOUS
 10
-71.6314198012
 20
-80.6350046327
 11
-71.6314198012
 21
-80.880049336
  0
LINE
  5
26A
100
AcDbEntity
  8
RACCORDO
100
AcDbLine
 62
253
  6
CONTINUOUS
 10
-71.6314198012
 20
80.6350046327
 11
-71.6314198015
 21
80.880049336
  0
LINE
  5
26B
100
AcDbEntity
  8
RACCORDO
100
AcDbLine
 62
253
  6
CONTINUOUS
 10
-72.4632709749
 20
39.2772999418
 11
-72.4625319886
 21
-36.7591694264
  0
LINE
  5
26C
100
AcDbEntity
  8
RACCORDO
100
AcDbLine
 62
253
  6
CONTINUOUS
 10
-72.1636821152
 20
39.2798214896
 11
-72.1629431284
 21
-36.759993218
  0
LINE
  5
26D
100
AcDbEntity
  8
RACCORDO
100
AcDbLine
 62
253
  6
CONTINUOUS
 10
-72.4625319886
 20
-36.7591694264
 11
-72.4647488519
 21
-41.7951564338
  0
LINE
  5
26E
100
AcDbEntity
  8
RACCORDO
100
AcDbLine
 62
253
  6
CONTINUOUS
 10
-72.1629431284
 20
-36.759993218
 11
-72.1651599925
 21
-41.7993541677
  0
LINE
  5
26F
100
AcDbEntity
  8
RACCORDO
100
AcDbLine
 62
253
  6
CONTINUOUS
 10
-72.4647488519
 20
-41.7951564338
 11
-72.468350737
 21
-45.5713595277
  0
LINE
  5
270
100
AcDbEntity
  8
RACCORDO
100
AcDbLine
 62
253
  6
CONTINUOUS
 10
-72.1651599925
 20
-41.7993541677
 11
-72.1687618771
 21
-45.5780753687
  0
LINE
  5
271
100
AcDbEntity
  8
RACCORDO
100
AcDbLine
 62
253
  6
CONTINUOUS
 10
-72.468350737
 20
-45.5713595277
 11
-72.4757383253
 21
-50.6050724722
  0
LINE
  5
272
100
AcDbEntity
  8
RACCORDO
100
AcDbLine
 62
253
  6
CONTINUOUS
 10
-72.1687618771
 20
-45.5780753687
 11
-72.1761494634
 21
-50.615148456
  0
LINE
  5
273
100
AcDbEntity
  8
RACCORDO
100
AcDbLine
 62
253
  6
CONTINUOUS
 10
-72.4757383253
 20
-50.6050724722
 11
-72.4805399483
 21
-53.1213471405
  0
LINE
  5
274
100
AcDbEntity
  8
RACCORDO
100
AcDbLine
 62
253
  6
CONTINUOUS
 10
-72.1761494634
 20
-50.615148456
 11
-72.1809510919
 21
-53.133100703
  0
LINE
  5
275
100
AcDbEntity
  8
RACCORDO
100
AcDbLine
 62
253
  6
CONTINUOUS
 10
-72.4805399483
 20
-53.1213471405
 11
-72.4923590785
 21
-58.1525930904
  0
LINE
  5
276
100
AcDbEntity
  8
RACCORDO
100
AcDbLine
 62
253
  6
CONTINUOUS
 10
-72.1809510919
 20
-53.133100703
 11
-72.1927701194
 21
-58.1676641509
  0
LWPOLYLINE
  5
277
100
AcDbEntity
  8
RACCORDO
100
AcDbPolyline
 62
253
  6
CONTINUOUS
 90
10
 70
0
 10
-72.4923590785
 20
-58.1525930904
 10
-72.4996870338
 20
-60.5805043683
 10
-72.5088222431
 20
-63.005202024
 10
-72.5197647063
 20
-65.4266860578
 10
-72.532517433
 20
-67.8454543647
 10
-72.5470774138
 20
-70.2610090496
 10
-72.5634356198
 20
-72.6718564268
 10
-72.5815890416
 20
-75.0774986011
 10
-72.6015406887
 20
-77.4784334676
 10
-72.6232905611
 20
-79.8746610263
  0
LWPOLYLINE
  5
278
100
AcDbEntity
  8
RACCORDO
100
AcDbPolyline
 62
253
  6
CONTINUOUS
 90
10
 70
0
 10
-72.192770065
 20
-58.1676641509
 10
-72.2000981198
 20
-60.5990418032
 10
-72.2092333429
 20
-63.0281728853
 10
-72.2201757346
 20
-65.4545642927
 10
-72.2329282176
 20
-67.8777191709
 10
-72.2474878691
 20
-70.2971499638
 10
-72.2638459201
 20
-72.7123784427
 10
-72.2819994475
 20
-75.122918559
 10
-72.3019513744
 20
-77.5282766139
 10
-72.3237017007
 20
-79.927964257
  0
LWPOLYLINE
  5
279
100
AcDbEntity
  8
RACCORDO
100
AcDbPolyline
 62
253
  6
CONTINUOUS
 90
19
 70
0
 10
-45.4931944375
 20
58.1677048937
 10
-45.4532878472
 20
58.2180972836
 10
-45.4109880915
 20
58.2662144133
 10
-45.3662951704
 20
58.3120563769
 10
-45.3190776023
 20
58.3557537995
 10
-45.2694668689
 20
58.3971762297
 10
-45.2178574142
 20
58.4359321559
 10
-45.1642214127
 20
58.4719971954
 10
-45.1085866899
 20
58.5053959101
 10
-45.0514311677
 20
58.5358102207
 10
-44.9927096232
 20
58.5632102821
 10
-44.9324672792
 20
58.5876260978
 10
-44.8713177251
 20
58.6088293649
 10
-44.8092439442
 20
58.6267669268
 10
-44.7462629532
 20
58.6414920573
 10
-44.6830393916
 20
58.6529360909
 10
-44.6197948058
 20
58.6610761597
 10
-44.5563076495
 20
58.6659351918
 10
-44.4925779225
 20
58.6675132022
  0
LWPOLYLINE
  5
27A
100
AcDbEntity
  8
RACCORDO
100
AcDbPolyline
 62
253
  6
CONTINUOUS
 90
19
 70
0
 10
-45.0940359046
 20
57.8436303751
 10
-45.0700955434
 20
57.8736701293
 10
-45.0446036946
 20
57.9024840022
 10
-45.0176212648
 20
57.9299906592
 10
-44.9892129515
 20
57.9561113939
 10
-44.9594488043
 20
57.9807712395
 10
-44.9284041397
 20
58.003899278
 10
-44.8961469821
 20
58.0254332651
 10
-44.8627675157
 20
58.0453019934
 10
-44.828382657
 20
58.0634314541
 10
-44.7930679822
 20
58.0797767843
 10
-44.7569308776
 20
58.0942834973
 10
-44.7201474482
 20
58.1068865425
 10
-44.6828154653
 20
58.1175622955
 10
-44.6450403446
 20
58.1262903499
 10
-44.6070186671
 20
58.133044458
 10
-44.5688862118
 20
58.1378278847
 10
-44.5307140261
 20
58.1406576224
 10
-44.4926023375
 20
58.1415501173
  0
LINE
  5
27B
100
AcDbEntity
  8
SUPERFICI
100
AcDbLine
 62
7
  6
CONTINUOUS
 10
-4.746107
 20
-64.377801
 11
-4.231097
 21
-64.377801
  0
LINE
  5
27C
100
AcDbEntity
  8
SUPERFICI
100
AcDbLine
 62
7
  6
CONTINUOUS
 10
-3.034285
 20
-64.377801
 11
-2.449877
 21
-64.377801
  0
LINE
  5
27D
100
AcDbEntity
  8
SUPERFICI
100
AcDbLine
 62
7
  6
CONTINUOUS
 10
-2.145272
 20
-64.377801
 11
-1.586183
 21
-64.377801
  0
LINE
  5
27E
100
AcDbEntity
  8
SUPERFICI
100
AcDbLine
 62
7
  6
CONTINUOUS
 10
-0.774487
 20
-64.377801
 11
-0.692524
 21
-64.377801
  0
LINE
  5
27F
100
AcDbEntity
  8
SUPERFICI
100
AcDbLine
 62
7
  6
CONTINUOUS
 10
0.122406
 20
-64.377801
 11
0.694112
 21
-64.377801
  0
LINE
  5
280
100
AcDbEntity
  8
SUPERFICI
100
AcDbLine
 62
7
  6
CONTINUOUS
 10
0.99588
 20
-64.377801
 11
1.573947
 21
-64.377801
  0
LINE
  5
281
100
AcDbEntity
  8
SUPERFICI
100
AcDbLine
 62
7
  6
CONTINUOUS
 10
2.682466
 20
-64.377801
 11
3.298408
 21
-64.377801
  0
LINE
  5
282
100
AcDbEntity
  8
SUPERFICI
100
AcDbLine
 62
7
  6
CONTINUOUS
 10
3.6000188023
 20
-64.3778013544
 11
4.1820753449
 21
-64.3778013544
  0
LINE
  5
283
100
AcDbEntity
  8
SUPERFICI
100
AcDbLine
 62
7
  6
CONTINUOUS
 10
5.0770156219
 20
-64.3778013544
 11
5.6391482119
 21
-64.3778013544
  0
LINE
  5
284
100
AcDbEntity
  8
SUPERFICI
100
AcDbLine
 62
7
  6
CONTINUOUS
 10
1.735207
 20
-63.818881
 11
2.531074
 21
-63.818881
  0
LINE
  5
285
100
AcDbEntity
  8
SUPERFICI
100
AcDbLine
 62
7
  6
CONTINUOUS
 10
1.854751
 20
-63.386391
 11
2.41428
 21
-63.386391
  0
LINE
  5
286
100
AcDbEntity
  8
SUPERFICI
100
AcDbLine
 62
7
  6
CONTINUOUS
 10
4.1820753449
 20
-63.2821519248
 11
4.4954209623
 21
-63.2821519248
  0
LWPOLYLINE
  5
287
100
AcDbEntity
  8
RACCORDO
100
AcDbPolyline
 62
253
  6
CONTINUOUS
 90
13
 70
0
 10
-45.0940359046
 20
-57.8436303751
 10
-45.1170971337
 20
-57.811369906
 10
-45.138528032
 20
-57.7777367082
 10
-45.1582369177
 20
-57.7428065853
 10
-45.1761758159
 20
-57.7065744486
 10
-45.1922091811
 20
-57.6692120428
 10
-45.2061624136
 20
-57.6310882588
 10
-45.2180016471
 20
-57.592323198
 10
-45.2277035896
 20
-57.5530285974
 10
-45.2352052522
 20
-57.5135911877
 10
-45.2405275114
 20
-57.4742246174
 10
-45.2437269144
 20
-57.4349575448
 10
-45.2448465622
 20
-57.3959026924
  0
LWPOLYLINE
  5
288
100
AcDbEntity
  8
RACCORDO
100
AcDbPolyline
 62
253
  6
CONTINUOUS
 90
13
 70
0
 10
-45.4931944375
 20
-58.1677048937
 10
-45.5317261976
 20
-58.1137299698
 10
-45.5672772496
 20
-58.0576988165
 10
-45.5998475934
 20
-57.9996113959
 10
-45.6296074935
 20
-57.9391390019
 10
-45.6563866855
 20
-57.876610257
 10
-45.6796743756
 20
-57.8130111354
 10
-45.699333484
 20
-57.7483250842
 10
-45.7155010905
 20
-57.6825686133
 10
-45.7280776416
 20
-57.6167773335
 10
-45.7370299529
 20
-57.5512964588
 10
-45.7423912089
 20
-57.4857807816
 10
-45.7441614095
 20
-57.4202303025
  0
LWPOLYLINE
  5
289
100
AcDbEntity
  8
SUPERFICI
100
AcDbPolyline
 62
7
  6
CONTINUOUS
 90
19
 70
0
 10
3.6000188023
 20
-61.610807341
 10
3.7019834855
 20
-61.5961472032
 10
3.8013380204
 20
-61.5833074206
 10
3.898082407
 20
-61.5722880223
 10
3.9921852173
 20
-61.5630353039
 10
4.0836778794
 20
-61.555603015
 10
4.1726546773
 20
-61.550152361
 10
4.2591520123
 20
-61.5467537027
 10
4.3431334833
 20
-61.5453367012
 10
4.4245841708
 20
-61.5458515056
 10
4.503472163
 20
-61.5482732861
 10
4.5798293718
 20
-61.5526268654
 10
4.6537366133
 20
-61.5589368643
 10
4.7253557874
 20
-61.567124285
 10
4.7945249942
 20
-61.5772680907
 10
4.8608393502
 20
-61.5896298324
 10
4.9241638942
 20
-61.6042966677
 10
4.9846335874
 20
-61.6211813636
 10
5.0422484297
 20
-61.6402838735
  0
LWPOLYLINE
  5
28A
100
AcDbEntity
  8
SUPERFICI
100
AcDbPolyline
 62
7
  6
CONTINUOUS
 90
31
 70
0
 10
4.4966806432
 20
-62.8236280866
 10
4.5212972094
 20
-62.822841883
 10
4.5457981422
 20
-62.8212637532
 10
4.5701834414
 20
-62.8188936954
 10
4.5945491111
 20
-62.8157820638
 10
4.6187991473
 20
-62.8118784983
 10
4.6426455379
 20
-62.8070319242
 10
4.6660679208
 20
-62.8012513636
 10
4.6890866581
 20
-62.7945277807
 10
4.7114748236
 20
-62.7866830098
 10
4.7332703761
 20
-62.7777005466
 10
4.7544353569
 20
-62.7675968696
 10
4.774628964
 20
-62.756243282
 10
4.7938019466
 20
-62.7435799731
 10
4.8120035555
 20
-62.7296667121
 10
4.8290407416
 20
-62.7145541684
 10
4.8448283919
 20
-62.6981717982
 10
4.8594516193
 20
-62.6805900933
 10
4.8729727143
 20
-62.6620712798
 10
4.8853988512
 20
-62.642623927
 10
4.8967228557
 20
-62.6222394183
 10
4.9069854952
 20
-62.6011542118
 10
4.9162049549
 20
-62.5793757371
 10
4.9243630497
 20
-62.5568965251
 10
4.9314459916
 20
-62.5339306975
 10
4.9374745814
 20
-62.5104592031
 10
4.9424280183
 20
-62.4865010635
 10
4.9462301122
 20
-62.4623275249
 10
4.9488554662
 20
-62.4380290022
 10
4.9503294771
 20
-62.4135150695
 10
4.9506521449
 20
-62.3887857204
  0
LWPOLYLINE
  5
28B
100
AcDbEntity
  8
RACCORDO
100
AcDbPolyline
 62
253
  6
CONTINUOUS
 90
15
 70
0
 10
-45.5017483209
 20
-57.4165582048
 10
-45.4707881684
 20
-57.4155704825
 10
-45.4412567683
 20
-57.4144798215
 10
-45.4133084631
 20
-57.4132919219
 10
-45.3870893212
 20
-57.4120129922
 10
-45.3627363737
 20
-57.4106497166
 10
-45.3403768985
 20
-57.40920922
 10
-45.3201277546
 20
-57.4076990311
 10
-45.3020947718
 20
-57.4061270426
 10
-45.2863721973
 20
-57.4045014704
 10
-45.2730422033
 20
-57.4028308103
 10
-45.2621744573
 20
-57.4011237939
 10
-45.2538257584
 20
-57.3993893426
 10
-45.24803974
 20
-57.3976365213
 10
-45.2448466421
 20
-57.395874491
  0
LINE
  5
28C
100
AcDbEntity
  8
RACCORDO
100
AcDbLine
 62
253
  6
CONTINUOUS
 10
-45.5673010237
 20
-57.4182047493
 11
-45.5017483209
 21
-57.4165582048
  0
LINE
  5
28D
100
AcDbEntity
  8
RACCORDO
100
AcDbLine
 62
253
  6
CONTINUOUS
 10
-45.6365462541
 20
-57.4193850781
 11
-45.5673010237
 21
-57.4182047493
  0
LWPOLYLINE
  5
28E
100
AcDbEntity
  8
RACCORDO
100
AcDbPolyline
 62
253
  6
CONTINUOUS
 90
17
 70
0
 10
72.2431469963
 20
-58.1673574855
 10
72.2678871781
 20
-58.1670254541
 10
72.2920930826
 20
-58.166590771
 10
72.3155925428
 20
-58.1660565279
 10
72.3382184162
 20
-58.1654265247
 10
72.359809774
 20
-58.1647052424
 10
72.3802130455
 20
-58.1638978111
 10
72.39928311
 20
-58.1630099737
 10
72.4168843299
 20
-58.1620480452
 10
72.4328915146
 20
-58.1610188674
 10
72.4471908113
 20
-58.1599297603
 10
72.4596805148
 20
-58.1587884704
 10
72.4702717907
 20
-58.1576031151
 10
72.4788893074
 20
-58.1563821256
 10
72.485471772
 20
-58.1551341861
 10
72.489972366
 20
-58.1538681729
 10
72.4923590785
 20
-58.1525930904
  0
LINE
  5
28F
100
AcDbEntity
  8
RACCORDO
100
AcDbLine
 62
253
  6
CONTINUOUS
 10
72.1927702181
 20
-58.1677048937
 11
72.2431469963
 21
-58.1673574855
  0
LWPOLYLINE
  5
290
100
AcDbEntity
  8
RACCORDO
100
AcDbPolyline
 62
253
  6
CONTINUOUS
 90
3
 70
0
 10
-45.7441614095
 20
-57.4202303024
 10
-45.7080382957
 20
-57.420074548
 10
-45.6365462541
 20
-57.4193850781
  0
LINE
  5
291
100
AcDbEntity
  8
SUPERFICI
100
AcDbLine
 62
7
  6
CONTINUOUS
 10
4.1626972541
 20
-62.8236280866
 11
4.4966806432
 21
-62.8236280866
  0
LINE
  5
292
100
AcDbEntity
  8
SUPERFICI
100
AcDbLine
 62
7
  6
CONTINUOUS
 10
-5.633668
 20
-61.578098
 11
-4.99882
 21
-61.578098
  0
LINE
  5
293
100
AcDbEntity
  8
SUPERFICI
100
AcDbLine
 62
7
  6
CONTINUOUS
 10
-3.915169
 20
-61.578098
 11
-3.33116
 21
-61.578098
  0
LINE
  5
294
100
AcDbEntity
  8
SUPERFICI
100
AcDbLine
 62
7
  6
CONTINUOUS
 10
-1.892475
 20
-61.578098
 11
-1.30855
 21
-61.578098
  0
LINE
  5
295
100
AcDbEntity
  8
SUPERFICI
100
AcDbLine
 62
7
  6
CONTINUOUS
 10
-0.145906
 20
-61.578098
 11
0.432308
 21
-61.578098
  0
LINE
  5
296
100
AcDbEntity
  8
SUPERFICI
100
AcDbLine
 62
7
  6
CONTINUOUS
 10
1.874045
 20
-61.578098
 11
2.43939
 21
-61.578098
  0
LINE
  5
297
100
AcDbEntity
  8
SUPERFICI
100
AcDbLine
 62
7
  6
CONTINUOUS
 10
-3.034285
 20
-61.57793
 11
-2.449877
 21
-61.57793
  0
LINE
  5
298
100
AcDbEntity
  8
RACCORDO
100
AcDbLine
 62
253
  6
CONTINUOUS
 10
44.4925779225
 20
-58.6675132022
 11
-44.4925779225
 21
-58.6675132022
  0
LINE
  5
299
100
AcDbEntity
  8
RACCORDO
100
AcDbLine
 62
253
  6
CONTINUOUS
 10
72.1927701198
 20
-58.1676643029
 11
45.4931944375
 21
-58.1677048937
  0
LINE
  5
29A
100
AcDbEntity
  8
RACCORDO
100
AcDbLine
 62
253
  6
CONTINUOUS
 10
-45.4931944375
 20
-58.1677048937
 11
-72.1927701194
 21
-58.1676641509
  0
LINE
  5
29B
100
AcDbEntity
  8
RACCORDO
100
AcDbLine
 62
253
  6
CONTINUOUS
 10
44.492603023
 20
-58.1415500736
 11
-44.4925935729
 21
-58.1415500736
  0
LINE
  5
29C
100
AcDbEntity
  8
RACCORDO
100
AcDbLine
 62
7
  6
CONTINUOUS
 10
-44.3510278489
 20
-58.0
 11
44.3510278489
 21
-58.0
  0
LINE
  5
29D
100
AcDbEntity
  8
RACCORDO
100
AcDbLine
 62
253
  6
CONTINUOUS
 10
45.7441614095
 20
-57.420230158
 11
45.6721038006
 21
-57.4197921987
  0
LWPOLYLINE
  5
29E
100
AcDbEntity
  8
RACCORDO
100
AcDbPolyline
 62
253
  6
CONTINUOUS
 90
18
 70
0
 10
-72.1927702181
 20
-58.1677048928
 10
-72.2431469945
 20
-58.1673574846
 10
-72.2678871754
 20
-58.1670254533
 10
-72.2920930791
 20
-58.1665907702
 10
-72.3155925386
 20
-58.1660565271
 10
-72.3382184114
 20
-58.165426524
 10
-72.3598097687
 20
-58.1647052417
 10
-72.3802130398
 20
-58.1638978104
 10
-72.3992831042
 20
-58.1630099732
 10
-72.416884324
 20
-58.1620480447
 10
-72.4328915088
 20
-58.1610188669
 10
-72.4471908058
 20
-58.1599297599
 10
-72.4596805097
 20
-58.1587884701
 10
-72.4702717863
 20
-58.1576031149
 10
-72.4788893038
 20
-58.1563821254
 10
-72.4854717695
 20
-58.155134186
 10
-72.4899723647
 20
-58.1538681728
 10
-72.4923590785
 20
-58.1525930904
  0
LINE
  5
29F
100
AcDbEntity
  8
RACCORDO
100
AcDbLine
 62
253
  6
CONTINUOUS
 10
45.6721038006
 20
-57.4197921987
 11
45.6015505562
 21
-57.418854875
  0
LWPOLYLINE
  5
2A0
100
AcDbEntity
  8
RACCORDO
100
AcDbPolyline
 62
253
  6
CONTINUOUS
 90
17
 70
0
 10
45.6015505562
 20
-57.418854875
 10
45.5339747164
 20
-57.417437757
 10
45.5017474676
 20
-57.4165581453
 10
45.470787158
 20
-57.4155704318
 10
45.4412555996
 20
-57.4144797787
 10
45.4133071372
 20
-57.4132918862
 10
45.3870878415
 20
-57.4120129628
 10
45.3627347459
 20
-57.4106496926
 10
45.3403751304
 20
-57.4092092008
 10
45.3201258558
 20
-57.407699016
 10
45.3020927537
 20
-57.4061270309
 10
45.2863700729
 20
-57.4045014617
 10
45.273039987
 20
-57.402830804
 10
45.2621721648
 20
-57.4011237896
 10
45.2538234062
 20
-57.39938934
 10
45.2480373454
 20
-57.3976365201
 10
45.244844223
 20
-57.3958744911
  0
LWPOLYLINE
  5
2A1
100
AcDbEntity
  8
RACCORDO
100
AcDbPolyline
 62
253
  6
CONTINUOUS
 90
19
 70
0
 10
-44.4925936012
 20
-58.1415501017
 10
-44.5305568504
 20
-58.1406652559
 10
-44.5685970999
 20
-58.1378566367
 10
-44.6066149799
 20
-58.1331054473
 10
-44.6445299897
 20
-58.1263943554
 10
-44.682217062
 20
-58.1177165967
 10
-44.7195092706
 20
-58.1070866166
 10
-44.7563215777
 20
-58.094509654
 10
-44.7925310114
 20
-58.0800083768
 10
-44.8279228726
 20
-58.0636586647
 10
-44.862381619
 20
-58.0455182062
 10
-44.895838182
 20
-58.0256279271
 10
-44.9281623959
 20
-58.0040697478
 10
-44.9592580833
 20
-57.9809210601
 10
-44.9890642857
 20
-57.9562411313
 10
-45.0175125231
 20
-57.9300959124
 10
-45.0445343884
 20
-57.9025583706
 10
-45.0700626026
 20
-57.8737093398
 10
-45.0940359046
 20
-57.8436303751
  0
LWPOLYLINE
  5
2A2
100
AcDbEntity
  8
RACCORDO
100
AcDbPolyline
 62
253
  6
CONTINUOUS
 90
19
 70
0
 10
-44.4925779225
 20
-58.6675132022
 10
-44.5559784599
 20
-58.6659635782
 10
-44.6191868061
 20
-58.6611472604
 10
-44.682202961
 20
-58.6530642342
 10
-44.7452393403
 20
-58.6417034938
 10
-44.8080835283
 20
-58.6270759855
 10
-44.870098278
 20
-58.6092146077
 10
-44.9312987578
 20
-58.5880526714
 10
-44.9916697993
 20
-58.5636567477
 10
-45.0505286504
 20
-58.5362596166
 10
-45.1078150146
 20
-58.5058281223
 10
-45.1635891885
 20
-58.4723952614
 10
-45.2173493096
 20
-58.4362930463
 10
-45.2690546373
 20
-58.3975053402
 10
-45.3187459123
 20
-58.3560481006
 10
-45.3660434939
 20
-58.3123014972
 10
-45.4108208352
 20
-58.2663922001
 10
-45.4532044831
 20
-58.2181933638
 10
-45.4931944375
 20
-58.1677048937
  0
LWPOLYLINE
  5
2A3
100
AcDbEntity
  8
SUPERFICI
100
AcDbPolyline
 62
7
  6
CONTINUOUS
 90
10
 70
0
 10
4.6205134302
 20
-62.0385722489
 10
4.5717806729
 20
-62.0336515017
 10
4.5224560305
 20
-62.0304041285
 10
4.4725395028
 20
-62.0288301365
 10
4.4219538118
 20
-62.0289099856
 10
4.3707762356
 20
-62.0306632189
 10
4.3192386083
 20
-62.0341484633
 10
4.267418208
 20
-62.0393852545
 10
4.2152377566
 20
-62.0463540372
 10
4.1626972541
 20
-62.0550547959
  0
LWPOLYLINE
  5
2A4
100
AcDbEntity
  8
SUPERFICI
100
AcDbPolyline
 62
7
  6
CONTINUOUS
 90
54
 70
0
 10
5.0422484297
 20
-61.6402838735
 10
5.0709653754
 20
-61.6517865933
 10
5.0999378036
 20
-61.6656011136
 10
5.1291657145
 20
-61.6817273945
 10
5.158746734
 20
-61.7000854467
 10
5.1885832362
 20
-61.7207551607
 10
5.2183823427
 20
-61.7439763
 10
5.2483544616
 20
-61.7697712322
 10
5.2782891848
 20
-61.7981174311
 10
5.3072624099
 20
-61.8291872951
 10
5.3353477105
 20
-61.8632545455
 10
5.362471513
 20
-61.9000452266
 10
5.3874889934
 20
-61.9389102309
 10
5.4102563185
 20
-61.980111624
 10
5.4309173216
 20
-62.023387115
 10
5.4487586784
 20
-62.0673011608
 10
5.4634381457
 20
-62.1119238191
 10
5.4752979668
 20
-62.1571849507
 10
5.4846515469
 20
-62.2014388914
 10
5.4913399466
 20
-62.2443326021
 10
5.4955221054
 20
-62.2862192438
 10
5.4979882465
 20
-62.3265125783
 10
5.4988523786
 20
-62.3649366956
 10
5.498000493
 20
-62.401767676
 10
5.4958807871
 20
-62.437247283
 10
5.4925342179
 20
-62.4714492852
 10
5.4879198283
 20
-62.5043000337
 10
5.4823629443
 20
-62.5358201509
 10
5.4758763083
 20
-62.565985603
 10
5.4684471778
 20
-62.594820532
 10
5.4603626517
 20
-62.622417816
 10
5.4516421214
 20
-62.6487656597
 10
5.4422661955
 20
-62.6738759471
 10
5.4324637983
 20
-62.6978770635
 10
5.4222536389
 20
-62.720780752
 10
5.4116170083
 20
-62.7425753388
 10
5.4007267041
 20
-62.7633540749
 10
5.3896054323
 20
-62.7831092481
 10
5.3782304869
 20
-62.8018486263
 10
5.366706548
 20
-62.8196886718
 10
5.3550330866
 20
-62.8366385833
 10
5.3432106317
 20
-62.8526892045
 10
5.3313454495
 20
-62.8679294586
 10
5.3194345411
 20
-62.8823360374
 10
5.3074809055
 20
-62.8959322822
 10
5.2955998063
 20
-62.9088770848
 10
5.2837987996
 20
-62.9211760229
 10
5.2720703294
 20
-62.9328235412
 10
5.2605069907
 20
-62.9439618264
 10
5.2491184527
 20
-62.9546043125
 10
5.2378950463
 20
-62.9647375805
 10
5.2269003592
 20
-62.9744635331
 10
5.2161630858
 20
-62.9837936269
 10
5.2056545317
 20
-62.992716416
  0
LWPOLYLINE
  5
2A5
100
AcDbEntity
  8
SUPERFICI
100
AcDbPolyline
 62
7
  6
CONTINUOUS
 90
3
 70
0
 10
5.1025031649
 20
-63.0709244369
 10
5.1261423042
 20
-63.081795959
 10
5.1486263716
 20
-63.0940445692
  0
LWPOLYLINE
  5
2A6
100
AcDbEntity
  8
RACCORDO
100
AcDbPolyline
 62
253
  6
CONTINUOUS
 90
13
 70
0
 10
-45.7441614095
 20
57.4202303025
 10
-45.742458698
 20
57.485083599
 10
-45.7371901094
 20
57.5500243872
 10
-45.7283556439
 20
57.6150526638
 10
-45.7159484758
 20
57.6805006863
 10
-45.6999754306
 20
57.7460361858
 10
-45.6804569851
 20
57.8106623917
 10
-45.6572421654
 20
57.8744036399
 10
-45.6304819453
 20
57.9372356301
 10
-45.6006497227
 20
57.9980886801
 10
-45.5679032968
 20
58.0566062645
 10
-45.5320848684
 20
58.1131449901
 10
-45.4931944375
 20
58.1677048937
  0
LWPOLYLINE
  5
2A7
100
AcDbEntity
  8
SUPERFICI
100
AcDbPolyline
 62
7
  6
CONTINUOUS
 90
24
 70
0
 10
5.1486263716
 20
-63.0940445692
 10
5.1699553672
 20
-63.1076702436
 10
5.1901470836
 20
-63.1229040639
 10
5.2091837281
 20
-63.1395148896
 10
5.227011923
 20
-63.1568093763
 10
5.243526404
 20
-63.1746740896
 10
5.2588324354
 20
-63.1932224315
 10
5.2731924324
 20
-63.2121013366
 10
5.2866144752
 20
-63.2312421522
 10
5.2990904835
 20
-63.2507135139
 10
5.3108586316
 20
-63.2703683017
 10
5.3219582131
 20
-63.2902173416
 10
5.3323499344
 20
-63.3102497966
 10
5.3421540888
 20
-63.330286061
 10
5.3513774893
 20
-63.3503094042
 10
5.3600133229
 20
-63.3703365564
 10
5.3681614442
 20
-63.3902381123
 10
5.3758205475
 20
-63.4099812798
 10
5.3829919385
 20
-63.4295988583
 10
5.3897793884
 20
-63.4490598341
 10
5.3961684229
 20
-63.4683267838
 10
5.4021735164
 20
-63.4874371397
 10
5.4079418634
 20
-63.5064721703
 10
5.4134668061
 20
-63.525427957
  0
LINE
  5
2A8
100
AcDbEntity
  8
RACCORDO
100
AcDbLine
 62
253
  6
CONTINUOUS
 10
-45.7441614095
 20
-57.4202303025
 11
-45.7554497566
 21
-52.4185126834
  0
LINE
  5
2A9
100
AcDbEntity
  8
RACCORDO
100
AcDbLine
 62
253
  6
CONTINUOUS
 10
-45.2448465823
 20
-57.395902712
 11
-45.2561349685
 21
-52.3996121327
  0
LINE
  5
2AA
100
AcDbEntity
  8
RACCORDO
100
AcDbLine
 62
253
  6
CONTINUOUS
 10
-45.7554497566
 20
-52.4185126834
 11
-45.7637673143
 21
-47.491067774
  0
LINE
  5
2AB
100
AcDbEntity
  8
RACCORDO
100
AcDbLine
 62
253
  6
CONTINUOUS
 10
-45.2561349685
 20
-52.3996121327
 11
-45.264452546
 21
-47.4777767796
  0
LINE
  5
2AC
100
AcDbEntity
  8
RACCORDO
100
AcDbLine
 62
253
  6
CONTINUOUS
 10
-45.7637673143
 20
-47.491067774
 11
-45.769162482
 21
-42.6384235153
  0
LINE
  5
2AD
100
AcDbEntity
  8
RACCORDO
100
AcDbLine
 62
253
  6
CONTINUOUS
 10
-45.264452546
 20
-47.4777767796
 11
-45.2698477173
 21
-42.6304886946
  0
LINE
  5
2AE
100
AcDbEntity
  8
RACCORDO
100
AcDbLine
 62
253
  6
CONTINUOUS
 10
-45.769162482
 20
-42.6384235153
 11
-45.7718288573
 21
-37.8606197225
  0
LINE
  5
2AF
100
AcDbEntity
  8
RACCORDO
100
AcDbLine
 62
253
  6
CONTINUOUS
 10
-45.2698477173
 20
-42.6304886946
 11
-45.2725140917
 21
-37.8581160461
  0
LINE
  5
2B0
100
AcDbEntity
  8
RACCORDO
100
AcDbLine
 62
253
  6
CONTINUOUS
 10
-45.7718288573
 20
-37.8606197225
 11
-45.7721266469
 21
35.4999975346
  0
LINE
  5
2B1
100
AcDbEntity
  8
RACCORDO
100
AcDbLine
 62
253
  6
CONTINUOUS
 10
-45.2725140917
 20
-37.8581160461
 11
-45.2728118795
 21
35.5
  0
LINE
  5
2B2
100
AcDbEntity
  8
RACCORDO
100
AcDbLine
 62
7
  6
CONTINUOUS
 10
-45.1
 20
57.2510278489
 11
-45.1
 21
33.75
  0
LINE
  5
2B3
100
AcDbEntity
  8
0
100
AcDbLine
 62
7
  6
CONTINUOUS
 10
-45.1
 20
33.75
 11
-45.1
 21
29.25
  0
LINE
  5
2B4
100
AcDbEntity
  8
RACCORDO
100
AcDbLine
 62
7
  6
CONTINUOUS
 10
-45.1
 20
29.25
 11
-45.1
 21
-57.2510278489
  0
LINE
  5
2B5
100
AcDbEntity
  8
RACCORDO
100
AcDbLine
 62
253
  6
CONTINUOUS
 10
-44.4925779225
 20
58.6675132022
 11
-44.4925779225
 21
58.1415500736
  0
LINE
  5
2B6
100
AcDbEntity
  8
RACCORDO
100
AcDbLine
 62
253
  6
CONTINUOUS
 10
-44.4925779225
 20
-58.6675132022
 11
-44.4925779226
 21
-58.1415500736
  0
LINE
  5
2B7
100
AcDbEntity
  8
RACCORDO
100
AcDbLine
 62
253
  6
CONTINUOUS
 10
-45.7721266479
 20
35.4999975346
 11
-45.7708359771
 21
40.2469178916
  0
LINE
  5
2B8
100
AcDbEntity
  8
RACCORDO
100
AcDbLine
 62
253
  6
CONTINUOUS
 10
-45.2728118795
 20
35.5
 11
-45.2715212119
 21
40.2417391448
  0
LINE
  5
2B9
100
AcDbEntity
  8
RACCORDO
100
AcDbLine
 62
253
  6
CONTINUOUS
 10
-45.7708359771
 20
40.2469178916
 11
-45.7667994816
 21
45.0651277757
  0
LINE
  5
2BA
100
AcDbEntity
  8
RACCORDO
100
AcDbLine
 62
253
  6
CONTINUOUS
 10
-45.2715212119
 20
40.2417391448
 11
-45.2674847119
 21
45.0544799529
  0
LINE
  5
2BB
100
AcDbEntity
  8
RACCORDO
100
AcDbLine
 62
253
  6
CONTINUOUS
 10
-45.7667994816
 20
45.0651277757
 11
-45.7599712389
 21
49.9541823529
  0
LINE
  5
2BC
100
AcDbEntity
  8
RACCORDO
100
AcDbLine
 62
253
  6
CONTINUOUS
 10
-45.2674847119
 20
45.0544799529
 11
-45.2606564583
 21
49.9381299596
  0
LWPOLYLINE
  5
2BD
100
AcDbEntity
  8
RACCORDO
100
AcDbPolyline
 62
253
  6
CONTINUOUS
 90
3
 70
0
 10
-45.7599712389
 20
49.9541823529
 10
-45.7501675583
 20
54.9140192907
 10
-45.7441614095
 20
57.4202303025
  0
LWPOLYLINE
  5
2BE
100
AcDbEntity
  8
RACCORDO
100
AcDbPolyline
 62
253
  6
CONTINUOUS
 90
3
 70
0
 10
-45.2606564583
 20
49.9381299596
 10
-45.250852766
 20
54.8923193063
 10
-45.2448466106
 20
57.3958893482
  0
LWPOLYLINE
  5
2BF
100
AcDbEntity
  8
RACCORDO
100
AcDbPolyline
 62
253
  6
CONTINUOUS
 90
13
 70
0
 10
-45.2448466002
 20
57.395889338
 10
-45.2437474112
 20
57.4345839829
 10
-45.2406005308
 20
57.4735470577
 10
-45.2353546513
 20
57.5126677704
 10
-45.2279480479
 20
57.5519045009
 10
-45.2183495305
 20
57.5910582644
 10
-45.206598996
 20
57.6297826378
 10
-45.1926942176
 20
57.6679876109
 10
-45.1766615185
 20
57.7055205392
 10
-45.1586792308
 20
57.7419697228
 10
-45.1388820478
 20
57.7771462001
 10
-45.1173057622
 20
57.8110607188
 10
-45.0940359046
 20
57.8436303751
  0
LINE
  5
2C0
100
AcDbEntity
  8
RACCORDO
100
AcDbLine
 62
253
  6
CONTINUOUS
 10
-72.4624395683
 20
-35.5
 11
-45.2728118795
 21
-35.5
  0
LINE
  5
2C1
100
AcDbEntity
  8
RACCORDO
100
AcDbLine
 62
253
  6
CONTINUOUS
 10
45.2728118795
 20
-35.5
 11
72.4624395683
 21
-35.5
  0
LINE
  5
2C2
100
AcDbEntity
  8
SUPERFICI
100
AcDbLine
 62
7
  6
CONTINUOUS
 10
-1.460068
 20
-62.549647
 11
-0.774487
 21
-64.377801
  0
LINE
  5
2C3
100
AcDbEntity
  8
SUPERFICI
100
AcDbLine
 62
7
  6
CONTINUOUS
 10
-5.633668
 20
-61.578098
 11
-4.746107
 21
-64.377801
  0
LWPOLYLINE
  5
2C4
100
AcDbEntity
  8
RACCORDO
100
AcDbPolyline
 62
253
  6
CONTINUOUS
 90
13
 70
0
 10
45.2498866235
 20
57.9796484184
 10
45.2274949954
 20
57.9616532141
 10
45.2065091051
 20
57.9446149133
 10
45.1870399849
 20
57.9286236626
 10
45.1691906422
 20
57.9137640686
 10
45.1530555145
 20
57.9001147505
 10
45.1387199699
 20
57.8877479245
 10
45.1262598548
 20
57.8767290208
 10
45.1157410935
 20
57.8671163386
 10
45.1072193388
 20
57.8589607366
 10
45.1007396775
 20
57.8523053645
 10
45.0963363925
 20
57.8471854348
 10
45.0940327806
 20
57.8436280359
  0
LINE
  5
2C5
100
AcDbEntity
  8
RACCORDO
100
AcDbLine
 62
253
  6
CONTINUOUS
 10
45.2984064027
 20
58.0181241422
 11
45.2498866235
 21
57.9796484184
  0
LINE
  5
2C6
100
AcDbEntity
  8
RACCORDO
100
AcDbLine
 62
253
  6
CONTINUOUS
 10
45.351042965
 20
58.0592288906
 11
45.2984064027
 21
58.0181241422
  0
LINE
  5
2C7
100
AcDbEntity
  8
RACCORDO
100
AcDbLine
 62
253
  6
CONTINUOUS
 10
45.4066838234
 20
58.1020939047
 11
45.351042965
 21
58.0592288906
  0
LWPOLYLINE
  5
2C8
100
AcDbEntity
  8
RACCORDO
100
AcDbPolyline
 62
253
  6
CONTINUOUS
 90
3
 70
0
 10
45.4931944374
 20
58.16770466
 10
45.4641529944
 20
58.1458132217
 10
45.4066838234
 20
58.1020939047
  0
LINE
  5
2C9
100
AcDbEntity
  8
RACCORDO
100
AcDbLine
 62
253
  6
CONTINUOUS
 10
45.4931944375
 20
-58.1677046976
 11
45.4352652194
 21
-58.1239043883
  0
LINE
  5
2CA
100
AcDbEntity
  8
RACCORDO
100
AcDbLine
 62
253
  6
CONTINUOUS
 10
45.4352652194
 20
-58.1239043883
 11
45.3785602534
 21
-58.0804974253
  0
LINE
  5
2CB
100
AcDbEntity
  8
RACCORDO
100
AcDbLine
 62
253
  6
CONTINUOUS
 10
45.3785602534
 20
-58.0804974253
 11
45.3242780097
 21
-58.038401223
  0
LWPOLYLINE
  5
2CC
100
AcDbEntity
  8
RACCORDO
100
AcDbPolyline
 62
253
  6
CONTINUOUS
 90
15
 70
0
 10
45.3242780097
 20
-58.038401223
 10
45.273565754
 20
-57.9985054924
 10
45.2498868931
 20
-57.9796486175
 10
45.2274952995
 20
-57.9616534372
 10
45.2065094426
 20
-57.9446151601
 10
45.1870403542
 20
-57.9286239323
 10
45.1691910412
 20
-57.9137643602
 10
45.1530559409
 20
-57.9001150626
 10
45.1387204208
 20
-57.8877482552
 10
45.1262603271
 20
-57.8767293682
 10
45.1157415836
 20
-57.8671167002
 10
45.107219843
 20
-57.8589611099
 10
45.100740192
 20
-57.8523057468
 10
45.0963369132
 20
-57.8471858231
 10
45.0940333033
 20
-57.8436284272
  0
LWPOLYLINE
  5
2CD
100
AcDbEntity
  8
SUPERFICI
100
AcDbPolyline
 62
7
  6
CONTINUOUS
 90
19
 70
0
 10
4.8214020646
 20
-63.5286629604
 10
4.8113095492
 20
-63.5041662939
 10
4.8000499938
 20
-63.4806376625
 10
4.7876233983
 20
-63.4580770994
 10
4.7739914949
 20
-63.4364000484
 10
4.7591925514
 20
-63.4156911261
 10
4.7433413712
 20
-63.3962041304
 10
4.7264123739
 20
-63.3778944896
 10
4.7084311399
 20
-63.3608068409
 10
4.6895892131
 20
-63.3453288094
 10
4.669799555
 20
-63.3315281503
 10
4.6491492042
 20
-63.3193371765
 10
4.6280908202
 20
-63.308940356
 10
4.6067255186
 20
-63.3004901124
 10
4.5849521839
 20
-63.2938340715
 10
4.5629201296
 20
-63.2886994981
 10
4.5406791268
 20
-63.2849954859
 10
4.5181794044
 20
-63.2828129599
 10
4.4954209623
 20
-63.2821519248
  0
LINE
  5
2CE
100
AcDbEntity
  8
SUPERFICI
100
AcDbLine
 62
7
  6
CONTINUOUS
 10
-1.30855
 20
-61.578098
 11
-0.730314
 21
-63.132502
  0
LINE
  5
2CF
100
AcDbEntity
  8
SUPERFICI
100
AcDbLine
 62
7
  6
CONTINUOUS
 10
2.43939
 20
-61.578098
 11
3.298408
 21
-64.377801
  0
LINE
  5
2D0
100
AcDbEntity
  8
SUPERFICI
100
AcDbLine
 62
7
  6
CONTINUOUS
 10
-4.99882
 20
-61.578098
 11
-4.465146
 21
-63.50522
  0
LINE
  5
2D1
100
AcDbEntity
  8
RACCORDO
100
AcDbLine
 62
253
  6
CONTINUOUS
 10
45.2448465802
 20
57.3959037159
 11
45.1
 21
57.2510278489
  0
LINE
  5
2D2
100
AcDbEntity
  8
RACCORDO
100
AcDbLine
 62
253
  6
CONTINUOUS
 10
44.492593639
 20
58.1415500736
 11
44.3510278489
 21
58.0
  0
LINE
  5
2D3
100
AcDbEntity
  8
RACCORDO
100
AcDbLine
 62
253
  6
CONTINUOUS
 10
44.492603023
 20
-58.1415500736
 11
44.3510278489
 21
-58.0
  0
LINE
  5
2D4
100
AcDbEntity
  8
RACCORDO
100
AcDbLine
 62
253
  6
CONTINUOUS
 10
45.2448466102
 20
-57.3958895163
 11
45.1
 21
-57.2510278489
  0
LWPOLYLINE
  5
2D5
100
AcDbEntity
  8
SUPERFICI
100
AcDbPolyline
 62
7
  6
CONTINUOUS
 90
8
 70
0
 10
4.9107935331
 20
-63.8028641006
 10
4.8991217277
 20
-63.7633533519
 10
4.8871968878
 20
-63.7239627701
 10
4.8750187328
 20
-63.6846963021
 10
4.8623717266
 20
-63.6455349771
 10
4.8491840238
 20
-63.6064724766
 10
4.8355274698
 20
-63.567515135
 10
4.8214020646
 20
-63.5286629604
  0
LINE
  5
2D6
100
AcDbEntity
  8
SUPERFICI
100
AcDbLine
 62
7
  6
CONTINUOUS
 10
5.0770156219
 20
-64.3778013544
 11
4.9793647035
 21
-64.0430900554
  0
LWPOLYLINE
  5
2D7
100
AcDbEntity
  8
SUPERFICI
100
AcDbPolyline
 62
7
  6
CONTINUOUS
 90
4
 70
0
 10
4.9793647035
 20
-64.0430900554
 10
4.9562612637
 20
-63.9623251348
 10
4.9449458887
 20
-63.922229473
 10
4.9107935331
 20
-63.8028641006
  0
LINE
  5
2D8
100
AcDbEntity
  8
SUPERFICI
100
AcDbLine
 62
7
  6
CONTINUOUS
 10
5.4134668061
 20
-63.525427957
 11
5.4239736206
 21
-63.5632065911
  0
LINE
  5
2D9
100
AcDbEntity
  8
SUPERFICI
100
AcDbLine
 62
7
  6
CONTINUOUS
 10
2.531074
 20
-63.818881
 11
2.682466
 21
-64.377801
  0
LINE
  5
2DA
100
AcDbEntity
  8
SUPERFICI
100
AcDbLine
 62
7
  6
CONTINUOUS
 10
5.4239736206
 20
-63.5632065911
 11
5.4343135678
 21
-63.6011180523
  0
LINE
  5
2DB
100
AcDbEntity
  8
SUPERFICI
100
AcDbLine
 62
7
  6
CONTINUOUS
 10
5.4343135678
 20
-63.6011180523
 11
5.5090771535
 21
-63.8814167939
  0
LINE
  5
2DC
100
AcDbEntity
  8
SUPERFICI
100
AcDbLine
 62
7
  6
CONTINUOUS
 10
5.5090771535
 20
-63.8814167939
 11
5.6391482119
 21
-64.3778013544
  0
LINE
  5
2DD
100
AcDbEntity
  8
SUPERFICI
100
AcDbLine
 62
7
  6
CONTINUOUS
 10
2.145737
 20
-62.347385
 11
2.41428
 21
-63.386391
  0
LINE
  5
2DE
100
AcDbEntity
  8
SUPERFICI
100
AcDbLine
 62
7
  6
CONTINUOUS
 10
0.432308
 20
-61.578098
 11
0.694112
 21
-64.377801
  0
LINE
  5
2DF
100
AcDbEntity
  8
SUPERFICI
100
AcDbLine
 62
7
  6
CONTINUOUS
 10
0.002337
 20
-62.557269
 11
0.122406
 21
-64.377801
  0
LINE
  5
2E0
100
AcDbEntity
  8
SUPERFICI
100
AcDbLine
 62
7
  6
CONTINUOUS
 10
-3.034285
 20
-61.57793
 11
-3.034285
 21
-64.377801
  0
LINE
  5
2E1
100
AcDbEntity
  8
SUPERFICI
100
AcDbLine
 62
7
  6
CONTINUOUS
 10
-2.449877
 20
-61.57793
 11
-2.449877
 21
-64.377801
  0
LINE
  5
2E2
100
AcDbEntity
  8
RACCORDO
100
AcDbLine
 62
253
  6
CONTINUOUS
 10
71.6314198012
 20
80.880049336
 11
71.7513704652
 21
81.0
  0
LINE
  5
2E3
100
AcDbEntity
  8
RACCORDO
100
AcDbLine
 62
253
  6
CONTINUOUS
 10
72.6232905611
 20
79.8746610263
 11
72.75
 21
80.0013704652
  0
LINE
  5
2E4
100
AcDbEntity
  8
RACCORDO
100
AcDbLine
 62
253
  6
CONTINUOUS
 10
71.6314198012
 20
-80.880049336
 11
71.7513704652
 21
-81.0
  0
LINE
  5
2E5
100
AcDbEntity
  8
RACCORDO
100
AcDbLine
 62
253
  6
CONTINUOUS
 10
72.6232905611
 20
-79.8746610263
 11
72.75
 21
-80.0013704652
  0
LWPOLYLINE
  5
2E6
100
AcDbEntity
  8
SUPERFICI
100
AcDbPolyline
 62
7
  6
CONTINUOUS
 90
22
 70
0
 10
4.9506521449
 20
-62.3887857204
 10
4.9495984879
 20
-62.3661174729
 10
4.9469642135
 20
-62.3433806749
 10
4.9427493217
 20
-62.3205753247
 10
4.9369813515
 20
-62.297564732
 10
4.9296327639
 20
-62.2744855811
 10
4.9206209413
 20
-62.2517479452
 10
4.9099279304
 20
-62.2292949535
 10
4.8975716845
 20
-62.2071834967
 10
4.8835234462
 20
-62.1859943188
 10
4.8676598771
 20
-62.1657389173
 10
4.8501043156
 20
-62.1464058454
 10
4.8311980194
 20
-62.128541459
 10
4.8108556245
 20
-62.1122850293
 10
4.7891624948
 20
-62.0974973524
 10
4.7667159803
 20
-62.0843070838
 10
4.7436002748
 20
-62.0727718436
 10
4.7197311844
 20
-62.0628340635
 10
4.695453478
 20
-62.0544496138
 10
4.6708820782
 20
-62.0476037945
 10
4.6459020623
 20
-62.0423113361
 10
4.6205134302
 20
-62.0385722489
  0
LINE
  5
2E7
100
AcDbEntity
  8
SUPERFICI
100
AcDbLine
 62
7
  6
CONTINUOUS
 10
3.6000188023
 20
-61.610807341
 11
3.6000188023
 21
-64.3778013544
  0
LINE
  5
2E8
100
AcDbEntity
  8
SUPERFICI
100
AcDbLine
 62
7
  6
CONTINUOUS
 10
4.1626972541
 20
-62.0550547959
 11
4.1626972541
 21
-62.8236280866
  0
LINE
  5
2E9
100
AcDbEntity
  8
SUPERFICI
100
AcDbLine
 62
7
  6
CONTINUOUS
 10
4.1820753449
 20
-63.2821519248
 11
4.1820753449
 21
-64.3778013544
  0
LINE
  5
2EA
100
AcDbEntity
  8
SUPERFICI
100
AcDbLine
 62
7
  6
CONTINUOUS
 10
5.1025031649
 20
-63.054380628
 11
5.1025031649
 21
-63.0709244369
  0
LINE
  5
2EB
100
AcDbEntity
  8
SUPERFICI
100
AcDbLine
 62
7
  6
CONTINUOUS
 10
-1.460068
 20
-62.549647
 11
-1.586183
 21
-64.377801
  0
LINE
  5
2EC
100
AcDbEntity
  8
SUPERFICI
100
AcDbLine
 62
7
  6
CONTINUOUS
 10
-1.892475
 20
-61.578098
 11
-2.145272
 21
-64.377801
  0
LINE
  5
2ED
100
AcDbEntity
  8
RACCORDO
100
AcDbLine
 62
253
  6
CONTINUOUS
 10
-72.6232905611
 20
-79.8746610263
 11
-72.75
 21
-80.0013704652
  0
LINE
  5
2EE
100
AcDbEntity
  8
RACCORDO
100
AcDbLine
 62
253
  6
CONTINUOUS
 10
-71.6314198012
 20
-80.880049336
 11
-71.7513704652
 21
-81.0
  0
LINE
  5
2EF
100
AcDbEntity
  8
RACCORDO
100
AcDbLine
 62
253
  6
CONTINUOUS
 10
-45.2448465823
 20
-57.395902712
 11
-45.1
 21
-57.2510278489
  0
LINE
  5
2F0
100
AcDbEntity
  8
RACCORDO
100
AcDbLine
 62
253
  6
CONTINUOUS
 10
-72.6232905611
 20
79.8746610263
 11
-72.75
 21
80.0013704652
  0
LINE
  5
2F1
100
AcDbEntity
  8
RACCORDO
100
AcDbLine
 62
253
  6
CONTINUOUS
 10
-71.6314198012
 20
80.880049336
 11
-71.7513704652
 21
81.0
  0
LINE
  5
2F2
100
AcDbEntity
  8
RACCORDO
100
AcDbLine
 62
253
  6
CONTINUOUS
 10
-45.2448466106
 20
57.3958893482
 11
-45.1
 21
57.2510278489
  0
LINE
  5
2F3
100
AcDbEntity
  8
SUPERFICI
100
AcDbLine
 62
7
  6
CONTINUOUS
 10
-3.915169
 20
-61.578098
 11
-4.465146
 21
-63.50522
  0
LINE
  5
2F4
100
AcDbEntity
  8
SUPERFICI
100
AcDbLine
 62
7
  6
CONTINUOUS
 10
-3.33116
 20
-61.578098
 11
-4.231097
 21
-64.377801
  0
LINE
  5
2F5
100
AcDbEntity
  8
RACCORDO
100
AcDbLine
 62
253
  6
CONTINUOUS
 10
-44.4925935729
 20
-58.1415500736
 11
-44.3510278489
 21
-58.0
  0
LWPOLYLINE
  5
2F6
100
AcDbEntity
  8
RACCORDO
100
AcDbPolyline
 62
253
  6
CONTINUOUS
 90
13
 70
0
 10
-45.2498867032
 20
-57.9796484834
 10
-45.2274950857
 20
-57.9616532863
 10
-45.2065092058
 20
-57.9446149927
 10
-45.1870400956
 20
-57.9286237489
 10
-45.1691907623
 20
-57.9137641615
 10
-45.1530556435
 20
-57.9001148496
 10
-45.1387201068
 20
-57.887748029
 10
-45.1262599988
 20
-57.8767291303
 10
-45.1157412436
 20
-57.8671164522
 10
-45.1072194938
 20
-57.8589608536
 10
-45.1007398364
 20
-57.8523054841
 10
-45.0963365539
 20
-57.847185556
 10
-45.0940329434
 20
-57.8436281579
  0
LINE
  5
2F7
100
AcDbEntity
  8
RACCORDO
100
AcDbLine
 62
253
  6
CONTINUOUS
 10
-44.4926022934
 20
58.1415500736
 11
-44.3510278489
 21
58.0
  0
LINE
  5
2F8
100
AcDbEntity
  8
SUPERFICI
100
AcDbLine
 62
7
  6
CONTINUOUS
 10
2.145737
 20
-62.347385
 11
1.854751
 21
-63.386391
  0
LINE
  5
2F9
100
AcDbEntity
  8
SUPERFICI
100
AcDbLine
 62
7
  6
CONTINUOUS
 10
1.735207
 20
-63.818881
 11
1.573947
 21
-64.377801
  0
LINE
  5
2FA
100
AcDbEntity
  8
SUPERFICI
100
AcDbLine
 62
7
  6
CONTINUOUS
 10
1.874045
 20
-61.578098
 11
0.99588
 21
-64.377801
  0
LINE
  5
2FB
100
AcDbEntity
  8
SUPERFICI
100
AcDbLine
 62
7
  6
CONTINUOUS
 10
-0.145906
 20
-61.578098
 11
-0.730314
 21
-63.132502
  0
LINE
  5
2FC
100
AcDbEntity
  8
SUPERFICI
100
AcDbLine
 62
7
  6
CONTINUOUS
 10
0.002337
 20
-62.557269
 11
-0.692524
 21
-64.377801
  0
LINE
  5
2FD
100
AcDbEntity
  8
RACCORDO
100
AcDbLine
 62
253
  6
CONTINUOUS
 10
-45.2984064609
 20
-58.0181241926
 11
-45.2498867032
 21
-57.9796484834
  0
LINE
  5
2FE
100
AcDbEntity
  8
RACCORDO
100
AcDbLine
 62
253
  6
CONTINUOUS
 10
-45.3510430027
 20
-58.0592289274
 11
-45.2984064609
 21
-58.0181241926
  0
LINE
  5
2FF
100
AcDbEntity
  8
RACCORDO
100
AcDbLine
 62
253
  6
CONTINUOUS
 10
-45.406683843
 20
-58.1020939299
 11
-45.3510430027
 21
-58.0592289274
  0
LWPOLYLINE
  5
300
100
AcDbEntity
  8
RACCORDO
100
AcDbPolyline
 62
253
  6
CONTINUOUS
 90
3
 70
0
 10
-45.4931944374
 20
-58.1677046738
 10
-45.4641529997
 20
-58.1458132383
 10
-45.406683843
 20
-58.1020939299
  0
LINE
  5
301
100
AcDbEntity
  8
RACCORDO
100
AcDbLine
 62
253
  6
CONTINUOUS
 10
-45.4931944375
 20
58.1677047079
 11
-45.4352652278
 21
58.1239044035
  0
LINE
  5
302
100
AcDbEntity
  8
RACCORDO
100
AcDbLine
 62
253
  6
CONTINUOUS
 10
-45.4352652278
 20
58.1239044035
 11
-45.3785602734
 21
58.080497448
  0
LINE
  5
303
100
AcDbEntity
  8
RACCORDO
100
AcDbLine
 62
253
  6
CONTINUOUS
 10
-45.3785602734
 20
58.080497448
 11
-45.3242780437
 21
58.0384012549
  0
LWPOLYLINE
  5
304
100
AcDbEntity
  8
RACCORDO
100
AcDbPolyline
 62
253
  6
CONTINUOUS
 90
15
 70
0
 10
-45.3242780437
 20
58.0384012549
 10
-45.2735658032
 20
57.9985055345
 10
-45.2498869501
 20
57.979648665
 10
-45.2274953642
 20
57.9616534899
 10
-45.2065095149
 20
57.944615218
 10
-45.1870404337
 20
57.9286239952
 10
-45.1691911278
 20
57.9137644278
 10
-45.1530560339
 20
57.9001151347
 10
-45.1387205196
 20
57.8877483312
 10
-45.1262604311
 20
57.8767294478
 10
-45.1157416922
 20
57.8671167828
 10
-45.1072199554
 20
57.858961195
 10
-45.1007403073
 20
57.8523058338
 10
-45.0963370306
 20
57.8471859113
 10
-45.094033422
 20
57.843628516
  0
LINE
  5
305
100
AcDbEntity
  8
RACCORDO
100
AcDbLine
 62
253
  6
CONTINUOUS
 10
45.2728118795
 20
35.5
 11
72.4624395683
 21
35.5
  0
LINE
  5
306
100
AcDbEntity
  8
RACCORDO
100
AcDbLine
 62
253
  6
CONTINUOUS
 10
-45.2728118795
 20
35.5
 11
-72.4624395683
 21
35.5
  0
LINE
  5
307
100
AcDbEntity
  8
RACCORDO
100
AcDbLine
 62
253
  6
CONTINUOUS
 10
45.2448465802
 20
57.3959037159
 11
45.2561372985
 21
52.3983211054
  0
LINE
  5
308
100
AcDbEntity
  8
RACCORDO
100
AcDbLine
 62
253
  6
CONTINUOUS
 10
45.7441614095
 20
57.4202303025
 11
45.7554520875
 21
52.4172199692
  0
LINE
  5
309
100
AcDbEntity
  8
RACCORDO
100
AcDbLine
 62
253
  6
CONTINUOUS
 10
45.2561372985
 20
52.3983211054
 11
45.2644551799
 21
47.4759317829
  0
LINE
  5
30A
100
AcDbEntity
  8
RACCORDO
100
AcDbLine
 62
253
  6
CONTINUOUS
 10
45.7554520875
 20
52.4172199692
 11
45.7637699485
 21
47.4892202784
  0
LINE
  5
30B
100
AcDbEntity
  8
RACCORDO
100
AcDbLine
 62
253
  6
CONTINUOUS
 10
45.2644551799
 20
47.4759317829
 11
45.269849098
 21
42.6288278679
  0
LINE
  5
30C
100
AcDbEntity
  8
RACCORDO
100
AcDbLine
 62
253
  6
CONTINUOUS
 10
45.7637699485
 20
47.4892202784
 11
45.7691638632
 21
42.6367602422
  0
LINE
  5
30D
100
AcDbEntity
  8
RACCORDO
100
AcDbLine
 62
253
  6
CONTINUOUS
 10
45.269849098
 20
42.6288278679
 11
45.2725145483
 21
37.8573778379
  0
LINE
  5
30E
100
AcDbEntity
  8
RACCORDO
100
AcDbLine
 62
253
  6
CONTINUOUS
 10
45.7691638632
 20
42.6367602422
 11
45.7718293141
 21
37.8598804592
  0
LINE
  5
30F
100
AcDbEntity
  8
RACCORDO
100
AcDbLine
 62
253
  6
CONTINUOUS
 10
44.4925779225
 20
58.6675132022
 11
44.4925779226
 21
58.1415500736
  0
LINE
  5
310
100
AcDbEntity
  8
RACCORDO
100
AcDbLine
 62
253
  6
CONTINUOUS
 10
44.4925779225
 20
-58.6675132022
 11
44.4925779225
 21
-58.1415500736
  0
LINE
  5
311
100
AcDbEntity
  8
RACCORDO
100
AcDbLine
 62
7
  6
CONTINUOUS
 10
45.1
 20
-57.2510278489
 11
45.1
 21
-33.75
  0
LINE
  5
312
100
AcDbEntity
  8
0
100
AcDbLine
 62
7
  6
CONTINUOUS
 10
45.1
 20
-33.75
 11
45.1
 21
-29.25
  0
LINE
  5
313
100
AcDbEntity
  8
RACCORDO
100
AcDbLine
 62
7
  6
CONTINUOUS
 10
45.1
 20
-29.25
 11
45.1
 21
57.2510278489
  0
LINE
  5
314
100
AcDbEntity
  8
RACCORDO
100
AcDbLine
 62
253
  6
CONTINUOUS
 10
45.2725145483
 20
37.8573778379
 11
45.2715203084
 21
-40.2430099735
  0
LINE
  5
315
100
AcDbEntity
  8
RACCORDO
100
AcDbLine
 62
253
  6
CONTINUOUS
 10
45.7718293141
 20
37.8598804592
 11
45.7708350732
 21
-40.2481906217
  0
LINE
  5
316
100
AcDbEntity
  8
RACCORDO
100
AcDbLine
 62
253
  6
CONTINUOUS
 10
45.2715203084
 20
-40.2430099735
 11
45.2674827369
 21
-45.0562951437
  0
LINE
  5
317
100
AcDbEntity
  8
RACCORDO
100
AcDbLine
 62
253
  6
CONTINUOUS
 10
45.7708350732
 20
-40.2481906217
 11
45.766797506
 21
-45.0669455991
  0
LINE
  5
318
100
AcDbEntity
  8
RACCORDO
100
AcDbLine
 62
253
  6
CONTINUOUS
 10
45.2674827369
 20
-45.0562951437
 11
45.2606537073
 21
-49.9397632493
  0
LINE
  5
319
100
AcDbEntity
  8
RACCORDO
100
AcDbLine
 62
253
  6
CONTINUOUS
 10
45.766797506
 20
-45.0669455991
 11
45.7599684874
 21
-49.9558177584
  0
LWPOLYLINE
  5
31A
100
AcDbEntity
  8
RACCORDO
100
AcDbPolyline
 62
253
  6
CONTINUOUS
 90
3
 70
0
 10
45.2606537073
 20
-49.9397632493
 10
45.2508513886
 20
-54.8930452446
 10
45.2448466102
 20
-57.3958895163
  0
LWPOLYLINE
  5
31B
100
AcDbEntity
  8
RACCORDO
100
AcDbPolyline
 62
253
  6
CONTINUOUS
 90
3
 70
0
 10
45.7599684874
 20
-49.9558177584
 10
45.7501661809
 20
-54.9147458116
 10
45.7441614095
 20
-57.4202303025
  0
LWPOLYLINE
  5
31C
100
AcDbEntity
  8
RACCORDO
100
AcDbPolyline
 62
253
  6
CONTINUOUS
 90
13
 70
0
 10
45.7441614095
 20
-57.4202303025
 10
45.7424589444
 20
-57.4850926843
 10
45.7371885277
 20
-57.550044923
 10
45.7283501593
 20
-57.6150870154
 10
45.715935792
 20
-57.6805546147
 10
45.6999534732
 20
-57.7461120563
 10
45.6804273443
 20
-57.8107523814
 10
45.6572063565
 20
-57.8744961624
 10
45.6304415587
 20
-57.937322863
 10
45.600610239
 20
-57.9981639054
 10
45.5678714937
 20
-58.0566631324
 10
45.5320662265
 20
-58.1131767829
 10
45.4931944375
 20
-58.1677048937
  0
LWPOLYLINE
  5
31D
100
AcDbEntity
  8
RACCORDO
100
AcDbPolyline
 62
253
  6
CONTINUOUS
 90
13
 70
0
 10
45.2448465997
 20
-57.3958895059
 10
45.2437472729
 20
-57.4345865799
 10
45.2405997577
 20
-57.473554292
 10
45.2353523931
 20
-57.5126817838
 10
45.22794261
 20
-57.5519295779
 10
45.2183391184
 20
-57.5910962369
 10
45.2065836774
 20
-57.6298285839
 10
45.1926757696
 20
-57.6680342959
 10
45.1766417512
 20
-57.7055635122
 10
45.158660216
 20
-57.74200575
 10
45.1388662058
 20
-57.7771726527
 10
45.1172961151
 20
-57.8110750254
 10
45.0940359046
 20
-57.8436303751
  0
LWPOLYLINE
  5
31E
100
AcDbEntity
  8
SUPERFICI
100
AcDbPolyline
 62
7
  6
CONTINUOUS
 90
10
 70
0
 10
5.2056545317
 20
-62.992716416
 10
5.1853293493
 20
-63.0096340315
 10
5.1755127208
 20
-63.0176288652
 10
5.1656600591
 20
-63.0250775707
 10
5.1557943046
 20
-63.0320412882
 10
5.1458925168
 20
-63.038458888
 10
5.1356436168
 20
-63.0439405933
 10
5.1249439117
 20
-63.0483564844
 10
5.1138970944
 20
-63.0518364944
 10
5.1025031649
 20
-63.054380628
  0
LWPOLYLINE
  5
31F
100
AcDbEntity
  8
RACCORDO
100
AcDbPolyline
 62
253
  6
CONTINUOUS
 90
15
 70
0
 10
45.5017483209
 20
57.4165582048
 10
45.4707881684
 20
57.4155704825
 10
45.4412567683
 20
57.4144798215
 10
45.4133084631
 20
57.4132919219
 10
45.3870893212
 20
57.4120129922
 10
45.3627363737
 20
57.4106497166
 10
45.3403768985
 20
57.40920922
 10
45.3201277546
 20
57.4076990311
 10
45.3020947718
 20
57.4061270426
 10
45.2863721973
 20
57.4045014704
 10
45.2730422033
 20
57.4028308103
 10
45.2621744573
 20
57.4011237939
 10
45.2538257584
 20
57.3993893426
 10
45.24803974
 20
57.3976365213
 10
45.2448466421
 20
57.395874491
  0
LINE
  5
320
100
AcDbEntity
  8
RACCORDO
100
AcDbLine
 62
253
  6
CONTINUOUS
 10
45.5673010237
 20
57.4182047493
 11
45.5017483209
 21
57.4165582048
  0
LINE
  5
321
100
AcDbEntity
  8
RACCORDO
100
AcDbLine
 62
253
  6
CONTINUOUS
 10
45.6365462541
 20
57.4193850781
 11
45.5673010237
 21
57.4182047493
  0
LWPOLYLINE
  5
322
100
AcDbEntity
  8
RACCORDO
100
AcDbPolyline
 62
253
  6
CONTINUOUS
 90
3
 70
0
 10
45.7441614095
 20
57.4202303024
 10
45.7080382957
 20
57.420074548
 10
45.6365462541
 20
57.4193850781
  0
LINE
  5
323
100
AcDbEntity
  8
RACCORDO
100
AcDbLine
 62
253
  6
CONTINUOUS
 10
-45.7441614094
 20
57.4202301512
 11
-45.6721037922
 21
57.4197921932
  0
LINE
  5
324
100
AcDbEntity
  8
RACCORDO
100
AcDbLine
 62
253
  6
CONTINUOUS
 10
-45.6721037922
 20
57.4197921932
 11
-45.6015505364
 21
57.4188548707
  0
LWPOLYLINE
  5
325
100
AcDbEntity
  8
RACCORDO
100
AcDbPolyline
 62
253
  6
CONTINUOUS
 90
17
 70
0
 10
-45.6015505364
 20
57.4188548707
 10
-45.5339746831
 20
57.4174377537
 10
-45.501747427
 20
57.4165581425
 10
-45.4707871099
 20
57.4155704294
 10
-45.4412555439
 20
57.4144797767
 10
-45.413307074
 20
57.4132918845
 10
-45.387087771
 20
57.4120129614
 10
-45.3627346683
 20
57.4106496915
 10
-45.340375046
 20
57.4092091999
 10
-45.3201257652
 20
57.4076990153
 10
-45.3020926574
 20
57.4061270304
 10
-45.2863699716
 20
57.4045014612
 10
-45.2730398813
 20
57.4028308037
 10
-45.2621720554
 20
57.4011237894
 10
-45.253823294
 20
57.3993893398
 10
-45.2480372312
 20
57.3976365201
 10
-45.2448441075
 20
57.3958744911
  0
LWPOLYLINE
  5
326
100
AcDbEntity
  8
RACCORDO
100
AcDbPolyline
 62
253
  6
CONTINUOUS
 90
17
 70
0
 10
-72.2431469963
 20
58.1673574855
 10
-72.2678871781
 20
58.1670254541
 10
-72.2920930826
 20
58.166590771
 10
-72.3155925427
 20
58.1660565279
 10
-72.3382184162
 20
58.1654265247
 10
-72.359809774
 20
58.1647052424
 10
-72.3802130454
 20
58.1638978111
 10
-72.39928311
 20
58.1630099737
 10
-72.4168843299
 20
58.1620480452
 10
-72.4328915146
 20
58.1610188674
 10
-72.4471908113
 20
58.1599297603
 10
-72.4596805148
 20
58.1587884704
 10
-72.4702717907
 20
58.1576031151
 10
-72.4788893074
 20
58.1563821256
 10
-72.485471772
 20
58.1551341861
 10
-72.489972366
 20
58.1538681729
 10
-72.4923590785
 20
58.1525930904
  0
LINE
  5
327
100
AcDbEntity
  8
RACCORDO
100
AcDbLine
 62
253
  6
CONTINUOUS
 10
-72.1927702181
 20
58.1677048937
 11
-72.2431469963
 21
58.1673574855
  0
LINE
  5
328
100
AcDbEntity
  8
RACCORDO
100
AcDbLine
 62
7
  6
CONTINUOUS
 10
44.3510278489
 20
58.0
 11
-44.3510278489
 21
58.0
  0
LINE
  5
329
100
AcDbEntity
  8
RACCORDO
100
AcDbLine
 62
253
  6
CONTINUOUS
 10
-44.4926022934
 20
58.1415500736
 11
44.492593639
 21
58.1415500736
  0
LINE
  5
32A
100
AcDbEntity
  8
RACCORDO
100
AcDbLine
 62
253
  6
CONTINUOUS
 10
-72.1927701234
 20
58.1676657841
 11
-45.4931944375
 21
58.1677048937
  0
LINE
  5
32B
100
AcDbEntity
  8
RACCORDO
100
AcDbLine
 62
253
  6
CONTINUOUS
 10
45.4931944375
 20
58.1677048937
 11
72.192770123
 21
58.1676656366
  0
LINE
  5
32C
100
AcDbEntity
  8
RACCORDO
100
AcDbLine
 62
253
  6
CONTINUOUS
 10
-44.4925779225
 20
58.6675132022
 11
44.4925779225
 21
58.6675132022
  0
LWPOLYLINE
  5
32D
100
AcDbEntity
  8
RACCORDO
100
AcDbPolyline
 62
253
  6
CONTINUOUS
 90
18
 70
0
 10
72.1927702181
 20
58.1677048929
 10
72.2431469947
 20
58.1673574847
 10
72.2678871757
 20
58.1670254534
 10
72.2920930795
 20
58.1665907703
 10
72.315592539
 20
58.1660565272
 10
72.3382184119
 20
58.1654265241
 10
72.3598097693
 20
58.1647052418
 10
72.3802130404
 20
58.1638978105
 10
72.3992831048
 20
58.1630099732
 10
72.4168843246
 20
58.1620480448
 10
72.4328915094
 20
58.161018867
 10
72.4471908064
 20
58.15992976
 10
72.4596805103
 20
58.1587884701
 10
72.4702717867
 20
58.1576031149
 10
72.4788893042
 20
58.1563821254
 10
72.4854717697
 20
58.155134186
 10
72.4899723648
 20
58.1538681728
 10
72.4923590785
 20
58.1525930904
  0
LWPOLYLINE
  5
32E
100
AcDbEntity
  8
RACCORDO
100
AcDbPolyline
 62
253
  6
CONTINUOUS
 90
19
 70
0
 10
44.4925936674
 20
58.1415501018
 10
44.5305598357
 20
58.1406651119
 10
44.568605118
 20
58.1378558415
 10
44.6066300805
 20
58.1331031703
 10
44.6445556465
 20
58.1263891358
 10
44.6822550591
 20
58.1177068151
 10
44.719556771
 20
58.1070717468
 10
44.7563742247
 20
58.0944901358
 10
44.7925861235
 20
58.0799846295
 10
44.8279781479
 20
58.0636313705
 10
44.8624350916
 20
58.0454882637
 10
44.8958878453
 20
58.0255966331
 10
44.9282061239
 20
58.0040389237
 10
44.9592929402
 20
57.9808936903
 10
44.9890887959
 20
57.9562197511
 10
45.0175282089
 20
57.9300807341
 10
45.0445435646
 20
57.902548525
 10
45.0700665795
 20
57.8737046049
 10
45.0940359046
 20
57.8436303751
  0
LWPOLYLINE
  5
32F
100
AcDbEntity
  8
RACCORDO
100
AcDbPolyline
 62
253
  6
CONTINUOUS
 90
19
 70
0
 10
44.4925779225
 20
58.6675132022
 10
44.5559864788
 20
58.6659639162
 10
44.6192054269
 20
58.6611459784
 10
44.6822347669
 20
58.6530593741
 10
44.745289292
 20
58.6416924586
 10
44.808154209
 20
58.627056817
 10
44.8701851384
 20
58.609187265
 10
44.9313945669
 20
58.5880171949
 10
44.9917700079
 20
58.5636130965
 10
45.0506296227
 20
58.5362094234
 10
45.1079132479
 20
58.5057729417
 10
45.1636810469
 20
58.472336726
 10
45.2174316706
 20
58.4362346961
 10
45.2691230987
 20
58.3974521256
 10
45.3187973515
 20
58.3560035617
 10
45.3660791406
 20
58.31226685
 10
45.4108433699
 20
58.2663678858
 10
45.4532151355
 20
58.2181805986
 10
45.4931944375
 20
58.1677048937
  0
LWPOLYLINE
  5
330
100
AcDbEntity
  8
RACCORDO
100
AcDbPolyline
 62
253
  6
CONTINUOUS
 90
9
 70
0
 10
72.3237017007
 20
-79.927964257
 10
72.3019513781
 20
-77.528277042
 10
72.2819994535
 20
-75.1229192408
 10
72.2638459267
 20
-72.7123792024
 10
72.2474878739
 20
-70.2971505262
 10
72.232928219
 20
-67.877719358
 10
72.2201757336
 20
-65.4545642208
 10
72.2092333415
 20
-63.0281727701
 10
72.2000981188
 20
-60.5990417626
  0
LWPOLYLINE
  5
331
100
AcDbEntity
  8
RACCORDO
100
AcDbPolyline
 62
253
  6
CONTINUOUS
 90
9
 70
0
 10
72.6232905611
 20
-79.8746610263
 10
72.6015406228
 20
-77.4784245156
 10
72.5815889329
 20
-75.077483628
 10
72.5634354915
 20
-72.6718383635
 10
72.5470772979
 20
-70.2609917507
 10
72.5325173527
 20
-67.845440761
 10
72.5197646579
 20
-65.4266763087
 10
72.5088222143
 20
-63.0051953652
 10
72.4996870212
 20
-60.5805009591
  0
LINE
  5
332
100
AcDbEntity
  8
RACCORDO
100
AcDbLine
 62
253
  6
CONTINUOUS
 10
72.2000981188
 20
-60.5990417626
 11
72.1895383897
 21
-56.9092124982
  0
LINE
  5
333
100
AcDbEntity
  8
RACCORDO
100
AcDbLine
 62
253
  6
CONTINUOUS
 10
72.4996870212
 20
-60.5805009591
 11
72.4891273066
 21
-56.8949466093
  0
LINE
  5
334
100
AcDbEntity
  8
RACCORDO
100
AcDbLine
 62
253
  6
CONTINUOUS
 10
72.1895383897
 20
-56.9092124982
 11
72.1784579575
 21
-51.8741792675
  0
LINE
  5
335
100
AcDbEntity
  8
RACCORDO
100
AcDbLine
 62
253
  6
CONTINUOUS
 10
72.4891273066
 20
-56.8949466093
 11
72.4780468166
 21
-51.8632595313
  0
LINE
  5
336
100
AcDbEntity
  8
RACCORDO
100
AcDbLine
 62
253
  6
CONTINUOUS
 10
72.1784579575
 20
-51.8741792675
 11
72.1740256059
 21
-49.3560195754
  0
LINE
  5
337
100
AcDbEntity
  8
RACCORDO
100
AcDbLine
 62
253
  6
CONTINUOUS
 10
72.4780468166
 20
-51.8632595313
 11
72.4736144671
 21
-49.3467860043
  0
LINE
  5
338
100
AcDbEntity
  8
RACCORDO
100
AcDbLine
 62
253
  6
CONTINUOUS
 10
72.1740256059
 20
-49.3560195754
 11
72.1673765829
 21
-44.318587943
  0
LINE
  5
339
100
AcDbEntity
  8
RACCORDO
100
AcDbLine
 62
253
  6
CONTINUOUS
 10
72.4736144671
 20
-49.3467860043
 11
72.4669654426
 21
-44.3127048868
  0
LINE
  5
33A
100
AcDbEntity
  8
RACCORDO
100
AcDbLine
 62
253
  6
CONTINUOUS
 10
72.1673765829
 20
-44.318587943
 11
72.1651599925
 21
-41.7993541677
  0
LINE
  5
33B
100
AcDbEntity
  8
RACCORDO
100
AcDbLine
 62
253
  6
CONTINUOUS
 10
72.4669654426
 20
-44.3127048868
 11
72.4647488519
 21
-41.7951564338
  0
LINE
  5
33C
100
AcDbEntity
  8
RACCORDO
100
AcDbLine
 62
253
  6
CONTINUOUS
 10
72.1651599925
 20
-41.7993541677
 11
72.1629431284
 21
-36.759993218
  0
LINE
  5
33D
100
AcDbEntity
  8
RACCORDO
100
AcDbLine
 62
253
  6
CONTINUOUS
 10
72.4647488519
 20
-41.7951564338
 11
72.4625319886
 21
-36.7591694264
  0
LINE
  5
33E
100
AcDbEntity
  8
RACCORDO
100
AcDbLine
 62
253
  6
CONTINUOUS
 10
71.6314198012
 20
-80.6350046327
 11
71.6314198015
 21
-80.880049336
  0
LINE
  5
33F
100
AcDbEntity
  8
RACCORDO
100
AcDbLine
 62
253
  6
CONTINUOUS
 10
71.6314198012
 20
80.6350046327
 11
71.6314198012
 21
80.880049336
  0
LINE
  5
340
100
AcDbEntity
  8
RACCORDO
100
AcDbLine
 62
253
  6
CONTINUOUS
 10
72.1629431284
 20
-36.759993218
 11
72.1628507079
 21
35.4999987712
  0
LINE
  5
341
100
AcDbEntity
  8
RACCORDO
100
AcDbLine
 62
253
  6
CONTINUOUS
 10
72.4625319886
 20
-36.7591694264
 11
72.4624395683
 21
35.5
  0
LINE
  5
342
100
AcDbEntity
  8
RACCORDO
100
AcDbLine
 62
7
  6
CONTINUOUS
 10
72.75
 20
-80.0013704652
 11
72.75
 21
80.0013704652
  0
LINE
  5
343
100
AcDbEntity
  8
RACCORDO
100
AcDbLine
 62
253
  6
CONTINUOUS
 10
72.1628507076
 20
35.4999987712
 11
72.1643286967
 21
40.5396283828
  0
LINE
  5
344
100
AcDbEntity
  8
RACCORDO
100
AcDbLine
 62
253
  6
CONTINUOUS
 10
72.4624395683
 20
35.5
 11
72.4639175563
 21
40.5362636886
  0
LINE
  5
345
100
AcDbEntity
  8
RACCORDO
100
AcDbLine
 62
253
  6
CONTINUOUS
 10
72.1643286967
 20
40.5396283828
 11
72.1687618785
 21
45.5780766277
  0
LINE
  5
346
100
AcDbEntity
  8
RACCORDO
100
AcDbLine
 62
253
  6
CONTINUOUS
 10
72.4639175563
 20
40.5362636886
 11
72.4683507387
 21
45.5713610135
  0
LINE
  5
347
100
AcDbEntity
  8
RACCORDO
100
AcDbLine
 62
253
  6
CONTINUOUS
 10
72.1687618785
 20
45.5780766277
 11
72.1761494654
 21
50.6151495751
  0
LINE
  5
348
100
AcDbEntity
  8
RACCORDO
100
AcDbLine
 62
253
  6
CONTINUOUS
 10
72.4683507387
 20
45.5713610135
 11
72.4757383276
 21
50.6050738157
  0
LINE
  5
349
100
AcDbEntity
  8
RACCORDO
100
AcDbLine
 62
253
  6
CONTINUOUS
 10
72.1761494654
 20
50.6151495751
 11
72.1864913097
 21
55.650627932
  0
LINE
  5
34A
100
AcDbEntity
  8
RACCORDO
100
AcDbLine
 62
253
  6
CONTINUOUS
 10
72.4757383276
 20
50.6050738157
 11
72.4860801947
 21
55.6371913005
  0
LWPOLYLINE
  5
34B
100
AcDbEntity
  8
RACCORDO
100
AcDbPolyline
 62
253
  6
CONTINUOUS
 90
10
 70
0
 10
72.1864913097
 20
55.650627932
 10
72.2000981229
 20
60.5990426105
 10
72.2092333443
 20
63.0281731987
 10
72.2201757348
 20
65.4545642965
 10
72.2329282178
 20
67.8777191227
 10
72.2474878699
 20
70.2971500464
 10
72.2638459212
 20
72.7123786173
 10
72.2819994485
 20
75.1229187135
 10
72.301951375
 20
77.52827671
 10
72.3237017007
 20
79.927964257
  0
LWPOLYLINE
  5
34C
100
AcDbEntity
  8
RACCORDO
100
AcDbPolyline
 62
253
  6
CONTINUOUS
 90
10
 70
0
 10
72.4860801947
 20
55.6371913005
 10
72.4996870433
 20
60.5805063906
 10
72.5088222593
 20
63.0052053965
 10
72.5197647264
 20
65.426690108
 10
72.5325174535
 20
67.8454581981
 10
72.5470774318
 20
70.2610119939
 10
72.5634356344
 20
72.6718584764
 10
72.5815890523
 20
75.0774999729
 10
72.6015406946
 20
77.4784341562
 10
72.6232905611
 20
79.8746610263
  0
LWPOLYLINE
  5
34D
100
AcDbEntity
  8
RACCORDO
100
AcDbPolyline
 62
253
  6
CONTINUOUS
 90
19
 70
0
 10
45.4931944375
 20
-58.1677048937
 10
45.4532810761
 20
-58.2181056196
 10
45.4109732144
 20
-58.2662306063
 10
45.3662708525
 20
-58.3120799478
 10
45.319041473
 20
-58.3557849181
 10
45.2694175932
 20
-58.3972144171
 10
45.2177967653
 20
-58.4359749865
 10
45.1641516704
 20
-58.4720413532
 10
45.1085096273
 20
-58.5054389698
 10
45.0513501446
 20
-58.5358504826
 10
44.9926288397
 20
-58.5632456653
 10
44.9323900953
 20
-58.5876549026
 10
44.8712465676
 20
-58.6088517609
 10
44.8091814509
 20
-58.6267833828
 10
44.7462115508
 20
-58.6415027429
 10
44.6829999406
 20
-58.6529421485
 10
44.6197676447
 20
-58.6610790557
 10
44.5562936387
 20
-58.6659360686
 10
44.4925779225
 20
-58.6675132022
  0
LWPOLYLINE
  5
34E
100
AcDbEntity
  8
RACCORDO
100
AcDbPolyline
 62
253
  6
CONTINUOUS
 90
19
 70
0
 10
45.0940359046
 20
-57.8436303751
 10
45.0700935288
 20
-57.8736725295
 10
45.0445984635
 20
-57.9024896168
 10
45.0176114767
 20
-57.9300001333
 10
44.9891963866
 20
-57.9561258488
 10
44.9594238304
 20
-57.980790859
 10
44.9283715126
 20
-58.0039222925
 10
44.8961083473
 20
-58.0254576319
 10
44.8627240605
 20
-58.0453263566
 10
44.8283362519
 20
-58.063454405
 10
44.7930210986
 20
-58.0797970276
 10
44.7568857251
 20
-58.0943002806
 10
44.7201055757
 20
-58.1068996913
 10
44.6827785075
 20
-58.117571842
 10
44.6450099068
 20
-58.1262965647
 10
44.6069954046
 20
-58.1330479798
 10
44.5688704157
 20
-58.1378294593
 10
44.5307062472
 20
-58.1406580013
 10
44.4926030685
 20
-58.1415501186
  0
LWPOLYLINE
  5
34F
100
AcDbEntity
  8
RACCORDO
100
AcDbPolyline
 62
253
  6
CONTINUOUS
 90
13
 70
0
 10
45.0940359046
 20
57.8436303751
 10
45.1171074361
 20
57.8113546425
 10
45.1385448794
 20
57.7777086315
 10
45.1582570287
 20
57.7427685913
 10
45.176196291
 20
57.7065301115
 10
45.1922278602
 20
57.6691650076
 10
45.2061780741
 20
57.6310415602
 10
45.2180134285
 20
57.5922805001
 10
45.2277113111
 20
57.5529932202
 10
45.2352096444
 20
57.5135641423
 10
45.2405295179
 20
57.4742060654
 10
45.2437274191
 20
57.434948366
 10
45.2448465593
 20
57.3959036956
  0
LWPOLYLINE
  5
350
100
AcDbEntity
  8
RACCORDO
100
AcDbPolyline
 62
253
  6
CONTINUOUS
 90
13
 70
0
 10
45.4931944375
 20
58.1677048937
 10
45.5317451725
 20
58.113697388
 10
45.5673094674
 20
58.0576410408
 10
45.5998873222
 20
57.9995358145
 10
45.6296473972
 20
57.9390537745
 10
45.6564210322
 20
57.8765227719
 10
45.6797022463
 20
57.8129264667
 10
45.6993547984
 20
57.7482487994
 10
45.7155149296
 20
57.6825057866
 10
45.7280853821
 20
57.6167292439
 10
45.7370337366
 20
57.5512631201
 10
45.7423924124
 20
57.4857634728
 10
45.7441614095
 20
57.4202303025
  0
LWPOLYLINE
  5
351
100
AcDbEntity
  8
RACCORDO
100
AcDbPolyline
 62
253
  6
CONTINUOUS
 90
28
 70
0
 10
72.6232905611
 20
79.8746610263
 10
72.6219208746
 20
79.9336389898
 10
72.61712405
 20
79.9923658068
 10
72.6089250814
 20
80.0506425181
 10
72.5973632037
 20
80.1082689258
 10
72.5824841431
 20
80.1650546361
 10
72.5643370425
 20
80.2208189384
 10
72.542982633
 20
80.2753896026
 10
72.5185039272
 20
80.3285679053
 10
72.4910023719
 20
80.3801419055
 10
72.4605887048
 20
80.4299311679
 10
72.4273702904
 20
80.4777855687
 10
72.3914621406
 20
80.5235508146
 10
72.3529947939
 20
80.5670776712
 10
72.3121050426
 20
80.608228174
 10
72.2689271857
 20
80.6468753024
 10
72.2236125328
 20
80.6828947593
 10
72.1763180309
 20
80.7161731351
 10
72.1271936363
 20
80.7466103206
 10
72.0764038827
 20
80.774110488
 10
72.0241244098
 20
80.7985851745
 10
71.970527802
 20
80.8199577908
 10
71.9157996374
 20
80.8381596051
 10
71.8601193635
 20
80.8531367048
 10
71.8036541544
 20
80.8648467639
 10
71.7465856887
 20
80.8732524867
 10
71.6891104889
 20
80.8783253649
 10
71.6314198012
 20
80.880049336
  0
LWPOLYLINE
  5
352
100
AcDbEntity
  8
RACCORDO
100
AcDbPolyline
 62
253
  6
CONTINUOUS
 90
28
 70
0
 10
72.3237017007
 20
79.927964257
 10
72.3228603537
 20
79.9696417589
 10
72.3196629959
 20
80.0108828684
 10
72.3141096272
 20
80.0516876408
 10
72.3061622953
 20
80.0921944205
 10
72.2958589526
 20
80.1322649606
 10
72.2833134559
 20
80.1714844826
 10
72.2684984046
 20
80.2098469542
 10
72.2514411994
 20
80.2473586182
 10
72.2323378996
 20
80.2836232081
 10
72.21117082
 20
80.3186176908
 10
72.1879576458
 20
80.3523653873
 10
72.1629474919
 20
80.3845396388
 10
72.1361251299
 20
80.415123243
 10
72.1075057881
 20
80.444133724
 10
72.0773842667
 20
80.4712965623
 10
72.0457482937
 20
80.4965935011
 10
72.012610141
 20
80.5200431149
 10
71.978301424
 20
80.5414261577
 10
71.9428101166
 20
80.5607235549
 10
71.9061482449
 20
80.5779546578
 10
71.8686835024
 20
80.5929578653
 10
71.8304032813
 20
80.6057115413
 10
71.7913201893
 20
80.616237526
 10
71.7518397436
 20
80.624439421
 10
71.7120971166
 20
80.6302851308
 10
71.6719571358
 20
80.633806859
 10
71.6314198012
 20
80.6350046327
  0
LWPOLYLINE
  5
353
100
AcDbEntity
  8
RACCORDO
100
AcDbPolyline
 62
253
  6
CONTINUOUS
 90
19
 70
0
 10
-72.3237017007
 20
79.9279642451
 10
-72.3489917184
 20
79.9275427457
 10
-72.3741016766
 20
79.9267447395
 10
-72.3988527977
 20
79.9255759082
 10
-72.4230688588
 20
79.9240445736
 10
-72.4465774467
 20
79.9221616385
 10
-72.4692111852
 20
79.9199405089
 10
-72.490808927
 20
79.917396999
 10
-72.5112169006
 20
79.9145492178
 10
-72.5302898055
 20
79.911417441
 10
-72.5478918468
 20
79.9080239662
 10
-72.5638977015
 20
79.9043929542
 10
-72.5781934114
 20
79.9005502571
 10
-72.5906771941
 20
79.8965232341
 10
-72.6012601676
 20
79.8923405566
 10
-72.6098669834
 20
79.8880320046
 10
-72.6164363628
 20
79.8836282539
 10
-72.6209215332
 20
79.8791606584
 10
-72.6232905611
 20
79.8746610263
  0
LINE
  5
354
100
AcDbEntity
  8
RACCORDO
100
AcDbLine
 62
253
  6
CONTINUOUS
 10
71.6314198012
 20
80.6350046327
 11
-71.6314198012
 21
80.6350046327
  0
LINE
  5
355
100
AcDbEntity
  8
RACCORDO
100
AcDbLine
 62
253
  6
CONTINUOUS
 10
71.6314198012
 20
80.880049336
 11
-71.6314198012
 21
80.880049336
  0
LINE
  5
356
100
AcDbEntity
  8
RACCORDO
100
AcDbLine
 62
7
  6
CONTINUOUS
 10
-71.7513704652
 20
81.0
 11
71.7513704652
 21
81.0
  0
LWPOLYLINE
  5
357
100
AcDbEntity
  8
RACCORDO
100
AcDbPolyline
 62
253
  6
CONTINUOUS
 90
19
 70
0
 10
72.3237017007
 20
79.9279642505
 10
72.3489914545
 20
79.9275427051
 10
72.3741011277
 20
79.9267446588
 10
72.3988519476
 20
79.9255757934
 10
72.4230676959
 20
79.924044431
 10
72.4465759642
 20
79.9221614742
 10
72.469209381
 20
79.9199403291
 10
72.4908068034
 20
79.9173968096
 10
72.5112144647
 20
79.9145490248
 10
72.5302870687
 20
79.9114172499
 10
72.5478888245
 20
79.9080237822
 10
72.563894413
 20
79.9043927821
 10
72.5781898795
 20
79.9005501012
 10
72.5906734449
 20
79.8965230981
 10
72.60125623
 20
79.892340444
 10
72.6098628888
 20
79.8880319178
 10
72.6164321445
 20
79.883628195
 10
72.6209172261
 20
79.8791606287
 10
72.6232862012
 20
79.8746610265
  0
LWPOLYLINE
  5
358
100
AcDbEntity
  8
RACCORDO
100
AcDbPolyline
 62
253
  6
CONTINUOUS
 90
28
 70
0
 10
-71.6314198012
 20
80.880049336
 10
-71.6890297346
 20
80.8783301397
 10
-71.7464284599
 20
80.8732709875
 10
-71.8034254466
 20
80.8648872628
 10
-71.8598177633
 20
80.8532084485
 10
-71.9154315556
 20
80.8382701744
 10
-71.9701206331
 20
80.8201064266
 10
-72.0237200046
 20
80.7987601109
 10
-72.0760265056
 20
80.7743006216
 10
-72.1268408468
 20
80.7468147643
 10
-72.1759784247
 20
80.7163974173
 10
-72.2232846271
 20
80.6831399733
 10
-72.2686128707
 20
80.6471403405
 10
-72.3118072046
 20
80.6085106936
 10
-72.3527149403
 20
80.5673760824
 10
-72.3912012413
 20
80.5238638269
 10
-72.4271295046
 20
80.4781114317
 10
-72.4603687547
 20
80.4302684286
 10
-72.4908028548
 20
80.3804908328
 10
-72.5183206439
 20
80.3289369708
 10
-72.5428165388
 20
80.2757797498
 10
-72.5641977721
 20
80.2212075514
 10
-72.5823818327
 20
80.1654028271
 10
-72.5972978745
 20
80.1085512169
 10
-72.608888956
 20
80.0508541972
 10
-72.6171080327
 20
79.9925099351
 10
-72.6219170337
 20
79.9337123257
 10
-72.6232905611
 20
79.8746610263
  0
LWPOLYLINE
  5
359
100
AcDbEntity
  8
RACCORDO
100
AcDbPolyline
 62
253
  6
CONTINUOUS
 90
28
 70
0
 10
-71.6314198012
 20
80.6350046327
 10
-71.6719401728
 20
80.6338056809
 10
-71.7120567477
 20
80.6302881016
 10
-71.7517695258
 20
80.6244518677
 10
-71.791205648
 20
80.6162678657
 10
-71.8302379735
 20
80.6057651015
 10
-71.8684850792
 20
80.5930307038
 10
-71.9059487479
 20
80.5780382555
 10
-71.9426271968
 20
80.5608139694
 10
-71.9781336548
 20
80.5415239063
 10
-72.0124489525
 20
80.5201506392
 10
-72.0455922593
 20
80.4967113188
 10
-72.0772343122
 20
80.471423879
 10
-72.1073637906
 20
80.4442692771
 10
-72.135992015
 20
80.415266238
 10
-72.1628236843
 20
80.3846893737
 10
-72.1878436229
 20
80.352520786
 10
-72.2110670063
 20
80.3187780512
 10
-72.232244059
 20
80.2837890437
 10
-72.2513557437
 20
80.2475365222
 10
-72.2684210978
 20
80.2100374407
 10
-72.283247458
 20
80.1716710423
 10
-72.2958113334
 20
80.1324173399
 10
-72.306136215
 20
80.0922961047
 10
-72.3140999116
 20
80.0517463178
 10
-72.3196616929
 20
80.0109142955
 10
-72.3228622893
 20
79.9696536267
 10
-72.3237017007
 20
79.927964257
  0
LWPOLYLINE
  5
35A
100
AcDbEntity
  8
RACCORDO
100
AcDbPolyline
 62
253
  6
CONTINUOUS
 90
13
 70
0
 10
-114.4409058082
 20
-79.4398719391
 10
-114.6093663913
 20
-79.4798063852
 10
-114.7745113149
 20
-79.5160970659
 10
-114.9362104865
 20
-79.5487439814
 10
-115.0943469358
 20
-79.5775368607
 10
-115.2488109502
 20
-79.6026859747
 10
-115.3994994663
 20
-79.6248221359
 10
-115.5461706077
 20
-79.6439531098
 10
-115.6888986788
 20
-79.6600711309
 10
-115.8280715619
 20
-79.6737837157
 10
-115.9637822039
 20
-79.6852933696
 10
-116.0958249074
 20
-79.6943975873
 10
-116.224152704
 20
-79.7010963686
  0
LINE
  5
35B
100
AcDbEntity
  8
RACCORDO
100
AcDbLine
 62
253
  6
CONTINUOUS
 10
-118.8957398401
 20
-79.9221616385
 11
-118.8716683595
 21
-79.9173969989
  0
LINE
  5
35C
100
AcDbEntity
  8
RACCORDO
100
AcDbLine
 62
253
  6
CONTINUOUS
 10
-118.8716683595
 20
-79.9173969989
 11
-118.8227462301
 21
-79.9080239662
  0
LINE
  5
35D
100
AcDbEntity
  8
RACCORDO
100
AcDbLine
 62
253
  6
CONTINUOUS
 10
-118.8227462301
 20
-79.9080239662
 11
-118.7152662205
 21
-79.8880320046
  0
LINE
  5
35E
100
AcDbEntity
  8
RACCORDO
100
AcDbLine
 62
253
  6
CONTINUOUS
 10
-118.7152662205
 20
-79.8880320046
 11
-118.6419128788
 21
-79.8746610263
  0
LINE
  5
35F
100
AcDbEntity
  8
0
100
AcDbLine
 62
253
  6
CONTINUOUS
 10
-112.6741527556
 20
-78.8483805801
 11
-112.7813954069
 21
-78.8483808323
  0
LINE
  5
360
100
AcDbEntity
  8
RACCORDO
100
AcDbLine
 62
7
  6
CONTINUOUS
 10
-118.5129477717
 20
-80.880049336
 11
-116.2241527556
 21
-81.0
  0
LINE
  5
361
100
AcDbEntity
  8
RACCORDO
100
AcDbLine
 62
253
  6
CONTINUOUS
 10
-118.6419128788
 20
-79.8746610263
 11
-116.2241527556
 21
-80.0013704652
  0
LINE
  5
362
100
AcDbEntity
  8
0
100
AcDbLine
 62
7
  6
CONTINUOUS
 10
-120.99744935
 20
-64.3778013544
 11
-121.1480158653
 21
-64.3778013544
  0
LINE
  5
363
100
AcDbEntity
  8
0
100
AcDbLine
 62
253
  6
CONTINUOUS
 10
-121.0616954213
 20
-63.620100228
 11
-121.2122052022
 21
-63.620100228
  0
LINE
  5
364
100
AcDbEntity
  8
0
100
AcDbLine
 62
7
  6
CONTINUOUS
 10
-121.1061393397
 20
-63.0709244369
 11
-121.256609898
 21
-63.0709244369
  0
LINE
  5
365
100
AcDbEntity
  8
0
100
AcDbLine
 62
7
  6
CONTINUOUS
 10
-121.107450561
 20
-63.054380628
 11
-121.2579199624
 21
-63.054380628
  0
LINE
  5
366
100
AcDbEntity
  8
0
100
AcDbLine
 62
253
  6
CONTINUOUS
 10
-121.213558562
 20
-61.6402838735
 11
-121.3639344052
 21
-61.6402838735
  0
LINE
  5
367
100
AcDbEntity
  8
SUPERFICI
100
AcDbLine
 62
7
  6
CONTINUOUS
 10
-121.2202666936
 20
-61.5452484808
 11
-121.370636626
 21
-61.5452484808
  0
LWPOLYLINE
  5
368
100
AcDbEntity
  8
RACCORDO
100
AcDbPolyline
 62
253
  6
CONTINUOUS
 90
3
 70
0
 10
-121.4241527552
 20
-58.1677048937
 10
-121.4230905803
 20
-58.1675845036
 10
-121.4199048876
 20
-58.1673574855
  0
LINE
  5
369
100
AcDbEntity
  8
RACCORDO
100
AcDbLine
 62
253
  6
CONTINUOUS
 10
-121.4199048876
 20
-58.1673574855
 11
-121.4072685254
 21
-58.166590771
  0
LINE
  5
36A
100
AcDbEntity
  8
RACCORDO
100
AcDbLine
 62
253
  6
CONTINUOUS
 10
-121.4072685254
 20
-58.166590771
 11
-121.323740708
 21
-58.1620480452
  0
LINE
  5
36B
100
AcDbEntity
  8
RACCORDO
100
AcDbLine
 62
253
  6
CONTINUOUS
 10
-121.323740708
 20
-58.1620480452
 11
-121.1402343952
 21
-58.1525930904
  0
LINE
  5
36C
100
AcDbEntity
  8
0
100
AcDbLine
 62
253
  6
CONTINUOUS
 10
-112.6741527556
 20
-56.0204738877
 11
-112.7813954123
 21
-56.0204738877
  0
LINE
  5
36D
100
AcDbEntity
  8
0
100
AcDbLine
 62
253
  6
CONTINUOUS
 10
-114.8303705835
 20
-55.3321800738
 11
-114.6741527556
 21
-55.3321800738
  0
LINE
  5
36E
100
AcDbEntity
  8
0
100
AcDbLine
 62
253
  6
CONTINUOUS
 10
-112.7813954123
 20
-56.0204737784
 11
-114.4917356072
 21
-55.726103175
  0
LINE
  5
36F
100
AcDbEntity
  8
0
100
AcDbLine
 62
7
  6
CONTINUOUS
 10
-112.83942312
 20
-55.823512337
 11
-114.5088739403
 21
-55.5291431145
  0
LWPOLYLINE
  5
370
100
AcDbEntity
  8
0
100
AcDbPolyline
 62
253
  6
CONTINUOUS
 90
22
 70
0
 10
-114.4917356072
 20
-55.726103175
 10
-114.519521318
 20
-55.7202908679
 10
-114.5465224276
 20
-55.7127841846
 10
-114.5727365025
 20
-55.703583125
 10
-114.598270836
 20
-55.6926072873
 10
-114.6230137808
 20
-55.6799370734
 10
-114.6466339016
 20
-55.6658136883
 10
-114.6690956103
 20
-55.6502246818
 10
-114.6904292503
 20
-55.633182504
 10
-114.7104013429
 20
-55.6149657107
 10
-114.728984822
 20
-55.5955699653
 10
-114.7462018161
 20
-55.5749996042
 10
-114.7618922794
 20
-55.5535461928
 10
-114.7760360203
 20
-55.5312068159
 10
-114.7886491792
 20
-55.5079843887
 10
-114.7996262114
 20
-55.4841792214
 10
-114.8089487792
 20
-55.4597999813
 10
-114.8166323799
 20
-55.4348380013
 10
-114.8226224387
 20
-55.4095675896
 10
-114.8269002686
 20
-55.3840801826
 10
-114.8294831041
 20
-55.358284344
 10
-114.8303705835
 20
-55.3321800738
  0
LINE
  5
371
100
AcDbEntity
  8
0
100
AcDbLine
 62
7
  6
CONTINUOUS
 10
-114.5088740499
 20
-48.4708569049
 11
-112.83942312
 21
-48.176487663
  0
LINE
  5
372
100
AcDbEntity
  8
0
100
AcDbLine
 62
253
  6
CONTINUOUS
 10
-114.4917356072
 20
-48.273896825
 11
-112.7813954123
 21
-47.9795262216
  0
LINE
  5
373
100
AcDbEntity
  8
0
100
AcDbLine
 62
253
  6
CONTINUOUS
 10
-114.8303705835
 20
-48.6678199262
 11
-114.6741527556
 21
-48.6678199262
  0
LINE
  5
374
100
AcDbEntity
  8
0
100
AcDbLine
 62
253
  6
CONTINUOUS
 10
-112.7813954123
 20
-47.9795261123
 11
-112.6741527556
 21
-47.9795261123
  0
LWPOLYLINE
  5
375
100
AcDbEntity
  8
RACCORDO
100
AcDbPolyline
 62
253
  6
CONTINUOUS
 90
9
 70
0
 10
-118.5129477717
 20
-80.880049336
 10
-118.5140368999
 20
-80.8783301397
 10
-118.5155103501
 20
-80.8732709875
 10
-118.5173589433
 20
-80.8648872628
 10
-118.519574569
 20
-80.8532084485
 10
-118.5221490037
 20
-80.8382701744
 10
-118.5250734281
 20
-80.8201064266
 10
-118.5283474183
 20
-80.7987601109
 10
-118.5319579894
 20
-80.7743006216
  0
LINE
  5
376
100
AcDbEntity
  8
RACCORDO
100
AcDbLine
 62
253
  6
CONTINUOUS
 10
-121.9954318722
 20
-35.5
 11
-121.7111326591
 21
-35.5
  0
LINE
  5
377
100
AcDbEntity
  8
RACCORDO
100
AcDbLine
 62
253
  6
CONTINUOUS
 10
-118.5711212478
 20
80.4777855687
 11
-118.554533746
 21
80.608228174
  0
LINE
  5
378
100
AcDbEntity
  8
RACCORDO
100
AcDbLine
 62
253
  6
CONTINUOUS
 10
-118.554533746
 20
80.608228174
 11
-118.5446743793
 21
80.6828947593
  0
LWPOLYLINE
  5
379
100
AcDbEntity
  8
RACCORDO
100
AcDbPolyline
 62
253
  6
CONTINUOUS
 90
11
 70
0
 10
-118.5446743793
 20
80.6828947593
 10
-118.5359068613
 20
80.7466103206
 10
-118.531984815
 20
80.774110488
 10
-118.5283727912
 20
80.7985851745
 10
-118.5250966356
 20
80.8199577908
 10
-118.5221679473
 20
80.8381596051
 10
-118.5195878299
 20
80.8531367048
 10
-118.517367215
 20
80.8648467639
 10
-118.5155151324
 20
80.8732524867
 10
-118.5140389242
 20
80.8783253649
 10
-118.5129477717
 20
80.880049336
  0
LWPOLYLINE
  5
37A
100
AcDbEntity
  8
RACCORDO
100
AcDbPolyline
 62
253
  6
CONTINUOUS
 90
10
 70
0
 10
-118.6419128788
 20
-79.8746610263
 10
-119.0569264244
 20
-77.4784245156
 10
-119.4376273457
 20
-75.077483628
 10
-119.7840156428
 20
-72.6718383635
 10
-120.0961485718
 20
-70.2609917507
 10
-120.3739688766
 20
-67.845440761
 10
-120.6173047882
 20
-65.4266763087
 10
-120.8260990504
 20
-63.0051953652
 10
-121.0004089194
 20
-60.5805009591
 10
-121.1402343952
 20
-58.1525930904
  0
LINE
  5
37B
100
AcDbEntity
  8
RACCORDO
100
AcDbLine
 62
253
  6
CONTINUOUS
 10
-118.5319579894
 20
-80.7743006216
 11
-118.5401091578
 21
-80.7163974173
  0
LINE
  5
37C
100
AcDbEntity
  8
RACCORDO
100
AcDbLine
 62
253
  6
CONTINUOUS
 10
-118.5401091578
 20
-80.7163974173
 11
-118.5494369607
 21
-80.6471403405
  0
LWPOLYLINE
  5
37D
100
AcDbEntity
  8
RACCORDO
100
AcDbPolyline
 62
253
  6
CONTINUOUS
 90
3
 70
0
 10
-118.5494369607
 20
-80.6471403405
 10
-118.5653433371
 20
-80.5238638269
 10
-118.5710812282
 20
-80.4781114317
  0
LINE
  5
37E
100
AcDbEntity
  8
SUPERFICI
100
AcDbLine
 62
7
  6
CONTINUOUS
 10
-121.2579199624
 20
-63.054380628
 11
-121.256609898
 21
-63.070924437
  0
LWPOLYLINE
  5
37F
100
AcDbEntity
  8
RACCORDO
100
AcDbPolyline
 62
253
  6
CONTINUOUS
 90
19
 70
0
 10
-121.1402343952
 20
-58.1525930904
 10
-121.2019002756
 20
-56.8949466093
 10
-121.2600426615
 20
-55.6371906794
 10
-121.3146615529
 20
-54.3793253008
 10
-121.365756834
 20
-53.1213471404
 10
-121.4133286205
 20
-51.8632595313
 10
-121.4573772596
 20
-50.6050724721
 10
-121.4979028877
 20
-49.3467860043
 10
-121.5349053683
 20
-48.0884000864
 10
-121.5683846401
 20
-46.829924593
 10
-121.598340841
 20
-45.5713595276
 10
-121.624773833
 20
-44.3127048868
 10
-121.6476831408
 20
-43.0539705346
 10
-121.6670689025
 20
-41.7951564338
 10
-121.6829309799
 20
-40.5362626216
 10
-121.6952684833
 20
-39.2772990745
 10
-121.704081116
 20
-38.0182691179
 10
-121.7093691746
 20
-36.7591694264
 10
-121.7111326591
 20
-35.5
  0
LWPOLYLINE
  5
380
100
AcDbEntity
  8
RACCORDO
100
AcDbPolyline
 62
253
  6
CONTINUOUS
 90
10
 70
0
 10
-121.1402343952
 20
58.1525930904
 10
-121.0004084964
 20
60.5805063906
 10
-120.826098192
 20
63.0052053965
 10
-120.6173034819
 20
65.426690108
 10
-120.3739669521
 20
67.8454581981
 10
-120.0961460165
 20
70.2610119939
 10
-119.7840129172
 20
72.6718584764
 10
-119.4376250682
 20
75.0774999729
 10
-119.0569250554
 20
77.4784341562
 10
-118.6419128788
 20
79.8746610263
  0
LINE
  5
381
100
AcDbEntity
  8
RACCORDO
100
AcDbLine
 62
253
  6
CONTINUOUS
 10
-118.6419128788
 20
79.8746610263
 11
-118.6087927496
 21
80.1650546361
  0
LINE
  5
382
100
AcDbEntity
  8
RACCORDO
100
AcDbLine
 62
253
  6
CONTINUOUS
 10
-118.6087927496
 20
80.1650546361
 11
-118.583157891
 21
80.3801419055
  0
LINE
  5
383
100
AcDbEntity
  8
RACCORDO
100
AcDbLine
 62
253
  6
CONTINUOUS
 10
-118.583157891
 20
80.3801419055
 11
-118.5711212478
 21
80.4777855687
  0
LINE
  5
384
100
AcDbEntity
  8
RACCORDO
100
AcDbLine
 62
253
  6
CONTINUOUS
 10
-118.5710812282
 20
-80.4781114317
 11
-118.5957450569
 21
-80.2757797498
  0
LINE
  5
385
100
AcDbEntity
  8
RACCORDO
100
AcDbLine
 62
253
  6
CONTINUOUS
 10
-118.5957450569
 20
-80.2757797498
 11
-118.6220148022
 21
-80.0508541972
  0
LINE
  5
386
100
AcDbEntity
  8
RACCORDO
100
AcDbLine
 62
253
  6
CONTINUOUS
 10
-118.6220148022
 20
-80.0508541972
 11
-118.6419128788
 21
-79.8746610263
  0
LWPOLYLINE
  5
387
100
AcDbEntity
  8
0
100
AcDbPolyline
 62
253
  6
CONTINUOUS
 90
25
 70
0
 10
-112.7813947215
 20
-78.8483853223
 10
-112.7774517323
 20
-78.8974951659
 10
-112.7738803224
 20
-78.945561507
 10
-112.7706744319
 20
-78.9924409668
 10
-112.7678163701
 20
-79.0379606885
 10
-112.765297762
 20
-79.0820315605
 10
-112.763130644
 20
-79.124644148
 10
-112.7613097769
 20
-79.1656787915
 10
-112.7598165803
 20
-79.2050313644
 10
-112.7586604792
 20
-79.2427149105
 10
-112.7578435734
 20
-79.2786275208
 10
-112.7573497463
 20
-79.3126711001
 10
-112.7571824669
 20
-79.3448544667
 10
-112.757351842
 20
-79.3750838507
 10
-112.7578477714
 20
-79.4032628434
 10
-112.7586664379
 20
-79.4293783359
 10
-112.7598230273
 20
-79.4533461231
 10
-112.7613182734
 20
-79.4750575255
 10
-112.7631439458
 20
-79.4944459209
 10
-112.7653131768
 20
-79.5114084375
 10
-112.7678258008
 20
-79.5258685226
 10
-112.7706742958
 20
-79.5377725438
 10
-112.7738742545
 20
-79.5470236398
 10
-112.7774447326
 20
-79.5535097278
 10
-112.781394944
 20
-79.5571371067
  0
LINE
  5
388
100
AcDbEntity
  8
RACCORDO
100
AcDbLine
 62
7
  6
CONTINUOUS
 10
-121.9954318722
 20
-35.4999987461
 11
-121.9954318722
 21
35.4999987712
  0
LINE
  5
389
100
AcDbEntity
  8
RACCORDO
100
AcDbLine
 62
253
  6
CONTINUOUS
 10
-121.7111326591
 20
-35.5
 11
-121.7111326591
 21
35.5
  0
LWPOLYLINE
  5
38A
100
AcDbEntity
  8
RACCORDO
100
AcDbPolyline
 62
253
  6
CONTINUOUS
 90
19
 70
0
 10
-121.7111326591
 20
35.5
 10
-121.709369173
 20
36.7591697589
 10
-121.704081112
 20
38.0182697395
 10
-121.695268476
 20
39.2772999418
 10
-121.6829309681
 20
40.5362636886
 10
-121.6670688853
 20
41.795157657
 10
-121.6476831182
 20
43.0539718788
 10
-121.624773805
 20
44.3127063194
 10
-121.5983408076
 20
45.5713610135
 10
-121.5683846022
 20
46.8299260966
 10
-121.5349053268
 20
48.088401572
 10
-121.4979028434
 20
49.3467874365
 10
-121.4573772145
 20
50.6050738157
 10
-121.413328576
 20
51.8632607538
 10
-121.365756792
 20
53.1213482066
 10
-121.3146615165
 20
54.3793261674
 10
-121.2600426342
 20
55.6371913005
 10
-121.2019002604
 20
56.8949469415
 10
-121.1402343952
 20
58.1525930904
  0
LWPOLYLINE
  5
38B
100
AcDbEntity
  8
0
100
AcDbPolyline
 62
253
  6
CONTINUOUS
 90
22
 70
0
 10
-114.8303705835
 20
55.3321800738
 10
-114.8294843383
 20
55.3582810517
 10
-114.8269014452
 20
55.384076834
 10
-114.8226222661
 20
55.4095674205
 10
-114.8166283784
 20
55.4348472826
 10
-114.8089396594
 20
55.4598219491
 10
-114.7996142499
 20
55.4842080058
 10
-114.7886391103
 20
55.5080081166
 10
-114.7760301155
 20
55.5312196176
 10
-114.7618889967
 20
55.5535511034
 10
-114.7461976507
 20
55.5750038673
 10
-114.7289782372
 20
55.5955766158
 10
-114.7103928864
 20
55.6149740634
 10
-114.6904201703
 20
55.6331904511
 10
-114.6690864521
 20
55.6502315377
 10
-114.6466251872
 20
55.6658193142
 10
-114.6230062021
 20
55.6799413798
 10
-114.5982649122
 20
55.6926101352
 10
-114.5727322175
 20
55.7035847731
 10
-114.546519587
 20
55.7127850245
 10
-114.5195199059
 20
55.7202911585
 10
-114.4917356072
 20
55.726103175
  0
LWPOLYLINE
  5
38C
100
AcDbEntity
  8
0
100
AcDbPolyline
 62
253
  6
CONTINUOUS
 90
25
 70
0
 10
-112.7813958559
 20
78.8483786888
 10
-112.7774485221
 20
78.8975085482
 10
-112.7738753559
 20
78.9455875523
 10
-112.7706696523
 20
78.9924722932
 10
-112.7678131073
 20
79.0379881205
 10
-112.7652964819
 20
79.0820481294
 10
-112.7631313072
 20
79.1246488345
 10
-112.761312537
 20
79.1656717536
 10
-112.7598211374
 20
79.2050119494
 10
-112.758665888
 20
79.2426850478
 10
-112.7578489788
 20
79.2785896354
 10
-112.757354514
 20
79.3126270662
 10
-112.7571859168
 20
79.3448068439
 10
-112.7573535215
 20
79.375035238
 10
-112.757847523
 20
79.4032153676
 10
-112.7586642771
 20
79.4293338861
 10
-112.7598188336
 20
79.4533085232
 10
-112.7613128827
 20
79.475027642
 10
-112.7631386011
 20
79.4944187621
 10
-112.7653080925
 20
79.5113748234
 10
-112.7678187987
 20
79.525828221
 10
-112.7706638769
 20
79.5377357981
 10
-112.7738624878
 20
79.5469991831
 10
-112.7774360099
 20
79.553498727
 10
-112.7813960719
 20
79.5571364774
  0
LWPOLYLINE
  5
38D
100
AcDbEntity
  8
0
100
AcDbPolyline
 62
253
  6
CONTINUOUS
 90
16
 70
0
 10
-112.781394789
 20
47.9795261123
 10
-112.7790098545
 20
47.9991998772
 10
-112.7777209254
 20
48.0185858816
 10
-112.7774534327
 20
48.0375508079
 10
-112.778051269
 20
48.0559601744
 10
-112.7795276527
 20
48.0736618996
 10
-112.7820379729
 20
48.0904595053
 10
-112.785440544
 20
48.106126735
 10
-112.7896213838
 20
48.1205322268
 10
-112.7947441879
 20
48.1335872902
 10
-112.8006464644
 20
48.1451095511
 10
-112.8071624294
 20
48.1549676049
 10
-112.8144517727
 20
48.163131635
 10
-112.8224463644
 20
48.169509039
 10
-112.8308377666
 20
48.1739789578
 10
-112.83942312
 20
48.176487663
  0
LWPOLYLINE
  5
38E
100
AcDbEntity
  8
0
100
AcDbPolyline
 62
253
  6
CONTINUOUS
 90
16
 70
0
 10
-114.491736278
 20
48.273896825
 10
-114.4887117747
 20
48.2939167719
 10
-114.4862547927
 20
48.3137297911
 10
-114.4843907307
 20
48.3331310684
 10
-114.4831388582
 20
48.3519200455
 10
-114.4825121163
 20
48.3699024942
 10
-114.4825169839
 20
48.3868925234
 10
-114.4831534108
 20
48.4027145009
 10
-114.4844148179
 20
48.4172048693
 10
-114.4862881658
 20
48.4302138364
 10
-114.488754089
 20
48.4416069238
 10
-114.4917870963
 20
48.4512663571
 10
-114.4953558347
 20
48.4590922832
 10
-114.4994234128
 20
48.4650038026
 10
-114.5039477826
 20
48.468939806
 10
-114.5088821742
 20
48.4708596053
  0
LWPOLYLINE
  5
38F
100
AcDbEntity
  8
0
100
AcDbPolyline
 62
253
  6
CONTINUOUS
 90
16
 70
0
 10
-114.4917356786
 20
-48.273896825
 10
-114.4887112548
 20
-48.2939167367
 10
-114.4862543525
 20
-48.3137296985
 10
-114.4843903691
 20
-48.3331308997
 10
-114.4831385729
 20
-48.3519197861
 10
-114.4825119042
 20
-48.3699021331
 10
-114.4825168408
 20
-48.3868920534
 10
-114.4831533318
 20
-48.4027139186
 10
-114.4844147976
 20
-48.4172041749
 10
-114.4862881982
 20
-48.4302130335
 10
-114.4887541678
 20
-48.441606019
 10
-114.4917872152
 20
-48.4512653599
 10
-114.4953559872
 20
-48.4590912055
 10
-114.4994235926
 20
-48.4650026584
 10
-114.5039479838
 20
-48.4689386107
 10
-114.5088823911
 20
-48.4708583756
  0
LWPOLYLINE
  5
390
100
AcDbEntity
  8
0
100
AcDbPolyline
 62
253
  6
CONTINUOUS
 90
16
 70
0
 10
-112.781394789
 20
-47.9795261123
 10
-112.7790098561
 20
-47.9991998649
 10
-112.7777209268
 20
-48.0185858585
 10
-112.7774534326
 20
-48.0375507756
 10
-112.7780512667
 20
-48.0559601348
 10
-112.7795276477
 20
-48.0736618548
 10
-112.7820379645
 20
-48.0904594579
 10
-112.785440532
 20
-48.1061266878
 10
-112.7896213687
 20
-48.1205321821
 10
-112.7947441703
 20
-48.1335872506
 10
-112.8006464452
 20
-48.1451095182
 10
-112.8071624101
 20
-48.1549675798
 10
-112.8144517552
 20
-48.1631316181
 10
-112.8224463508
 20
-48.1695090298
 10
-112.8308377589
 20
-48.1739789545
 10
-112.83942312
 20
-48.176487663
  0
LINE
  5
391
100
AcDbEntity
  8
RACCORDO
100
AcDbLine
 62
7
  6
CONTINUOUS
 10
-116.2241527556
 20
-81.0
 11
-116.2241527556
 21
81.0
  0
LINE
  5
392
100
AcDbEntity
  8
0
100
AcDbLine
 62
253
  6
CONTINUOUS
 10
-114.8303705835
 20
-55.3321800738
 11
-114.8303705835
 21
-48.6678199262
  0
LINE
  5
393
100
AcDbEntity
  8
0
100
AcDbLine
 62
253
  6
CONTINUOUS
 10
-114.8303705835
 20
48.6678199262
 11
-114.8303705835
 21
55.3321800738
  0
LINE
  5
394
100
AcDbEntity
  8
0
100
AcDbLine
 62
7
  6
CONTINUOUS
 10
-114.6741527556
 20
-55.3321800738
 11
-114.6741527556
 21
-48.6678199262
  0
LINE
  5
395
100
AcDbEntity
  8
0
100
AcDbLine
 62
7
  6
CONTINUOUS
 10
-114.6741527556
 20
48.6678199262
 11
-114.6741527556
 21
55.3321800738
  0
LINE
  5
396
100
AcDbEntity
  8
0
100
AcDbLine
 62
253
  6
CONTINUOUS
 10
-112.7813954123
 20
56.0204737784
 11
-112.7813949477
 21
78.8483784596
  0
LINE
  5
397
100
AcDbEntity
  8
0
100
AcDbLine
 62
253
  6
CONTINUOUS
 10
-112.7813954123
 20
-56.0204737784
 11
-112.7813951447
 21
-78.8483854675
  0
LINE
  5
398
100
AcDbEntity
  8
0
100
AcDbLine
 62
253
  6
CONTINUOUS
 10
-112.7813954123
 20
47.9795262216
 11
-112.7813954123
 21
-47.9795262216
  0
LINE
  5
399
100
AcDbEntity
  8
0
100
AcDbLine
 62
7
  6
CONTINUOUS
 10
-112.6741527556
 20
47.9795261123
 11
-112.6741527556
 21
-47.9795261123
  0
LINE
  5
39A
100
AcDbEntity
  8
0
100
AcDbLine
 62
7
  6
CONTINUOUS
 10
-112.6741527556
 20
-56.0204738877
 11
-112.6741527556
 21
-79.3799478734
  0
LINE
  5
39B
100
AcDbEntity
  8
0
100
AcDbLine
 62
7
  6
CONTINUOUS
 10
-112.6741527556
 20
56.0204738877
 11
-112.6741527556
 21
79.3799472635
  0
LWPOLYLINE
  5
39C
100
AcDbEntity
  8
0
100
AcDbPolyline
 62
253
  6
CONTINUOUS
 90
22
 70
0
 10
-114.8303705835
 20
-48.6678199262
 10
-114.8294843383
 20
-48.6417189483
 10
-114.8269014452
 20
-48.615923166
 10
-114.8226222661
 20
-48.5904325795
 10
-114.8166283784
 20
-48.5651527174
 10
-114.8089396594
 20
-48.5401780509
 10
-114.7996142499
 20
-48.5157919942
 10
-114.7886391103
 20
-48.4919918834
 10
-114.7760301155
 20
-48.4687803824
 10
-114.7618889967
 20
-48.4464488966
 10
-114.7461976507
 20
-48.4249961327
 10
-114.7289782372
 20
-48.4044233842
 10
-114.7103928864
 20
-48.3850259366
 10
-114.6904201703
 20
-48.3668095489
 10
-114.6690864521
 20
-48.3497684623
 10
-114.6466251872
 20
-48.3341806858
 10
-114.6230062021
 20
-48.3200586202
 10
-114.5982649122
 20
-48.3073898648
 10
-114.5727322175
 20
-48.2964152269
 10
-114.546519587
 20
-48.2872149755
 10
-114.5195199059
 20
-48.2797088415
 10
-114.4917356072
 20
-48.273896825
  0
LWPOLYLINE
  5
39D
100
AcDbEntity
  8
0
100
AcDbPolyline
 62
253
  6
CONTINUOUS
 90
16
 70
0
 10
-112.781394789
 20
-56.0204738877
 10
-112.7790098545
 20
-56.0008001228
 10
-112.7777209254
 20
-55.9814141184
 10
-112.7774534327
 20
-55.9624491921
 10
-112.778051269
 20
-55.9440398256
 10
-112.7795276527
 20
-55.9263381004
 10
-112.7820379729
 20
-55.9095404947
 10
-112.785440544
 20
-55.893873265
 10
-112.7896213838
 20
-55.8794677732
 10
-112.7947441879
 20
-55.8664127098
 10
-112.8006464644
 20
-55.8548904489
 10
-112.8071624294
 20
-55.8450323951
 10
-112.8144517727
 20
-55.836868365
 10
-112.8224463644
 20
-55.830490961
 10
-112.8308377666
 20
-55.8260210422
 10
-112.83942312
 20
-55.823512337
  0
LWPOLYLINE
  5
39E
100
AcDbEntity
  8
0
100
AcDbPolyline
 62
253
  6
CONTINUOUS
 90
16
 70
0
 10
-114.491736278
 20
-55.726103175
 10
-114.4887117747
 20
-55.7060832281
 10
-114.4862547927
 20
-55.6862702089
 10
-114.4843907307
 20
-55.6668689316
 10
-114.4831388582
 20
-55.6480799545
 10
-114.4825121163
 20
-55.6300975058
 10
-114.4825169839
 20
-55.6131074766
 10
-114.4831534108
 20
-55.5972854991
 10
-114.4844148179
 20
-55.5827951307
 10
-114.4862881658
 20
-55.5697861636
 10
-114.488754089
 20
-55.5583930762
 10
-114.4917870963
 20
-55.5487336429
 10
-114.4953558347
 20
-55.5409077168
 10
-114.4994234128
 20
-55.5349961974
 10
-114.5039477826
 20
-55.531060194
 10
-114.5088821742
 20
-55.5291403947
  0
LWPOLYLINE
  5
39F
100
AcDbEntity
  8
0
100
AcDbPolyline
 62
253
  6
CONTINUOUS
 90
16
 70
0
 10
-114.4917356786
 20
55.726103175
 10
-114.4887112548
 20
55.7060832633
 10
-114.4862543525
 20
55.6862703015
 10
-114.4843903691
 20
55.6668691003
 10
-114.4831385729
 20
55.6480802139
 10
-114.4825119042
 20
55.6300978669
 10
-114.4825168408
 20
55.6131079466
 10
-114.4831533318
 20
55.5972860814
 10
-114.4844147976
 20
55.5827958251
 10
-114.4862881982
 20
55.5697869665
 10
-114.4887541678
 20
55.558393981
 10
-114.4917872152
 20
55.5487346401
 10
-114.4953559872
 20
55.5409087945
 10
-114.4994235926
 20
55.5349973416
 10
-114.5039479838
 20
55.5310613893
 10
-114.5088823911
 20
55.5291416244
  0
LWPOLYLINE
  5
3A0
100
AcDbEntity
  8
0
100
AcDbPolyline
 62
253
  6
CONTINUOUS
 90
16
 70
0
 10
-112.781394789
 20
56.0204738877
 10
-112.7790098559
 20
56.0008001337
 10
-112.7777209267
 20
55.9814141389
 10
-112.7774534326
 20
55.9624492208
 10
-112.778051267
 20
55.944039861
 10
-112.7795276482
 20
55.9263381405
 10
-112.7820379654
 20
55.9095405373
 10
-112.7854405332
 20
55.8938733076
 10
-112.7896213701
 20
55.8794678136
 10
-112.7947441719
 20
55.8664127458
 10
-112.8006464469
 20
55.8548904789
 10
-112.8071624116
 20
55.8450324182
 10
-112.8144517566
 20
55.8368683806
 10
-112.8224463518
 20
55.8304909695
 10
-112.8308377595
 20
55.8260210452
 10
-112.83942312
 20
55.823512337
  0
LINE
  5
3A1
100
AcDbEntity
  8
RACCORDO
100
AcDbLine
 62
253
  6
CONTINUOUS
 10
-121.9954318722
 20
35.5
 11
-121.7111326591
 21
35.5
  0
LINE
  5
3A2
100
AcDbEntity
  8
0
100
AcDbLine
 62
253
  6
CONTINUOUS
 10
-112.6741527556
 20
47.9795261123
 11
-112.7813954123
 21
47.9795261123
  0
LINE
  5
3A3
100
AcDbEntity
  8
0
100
AcDbLine
 62
253
  6
CONTINUOUS
 10
-114.8303705835
 20
48.6678199262
 11
-114.6741527556
 21
48.6678199262
  0
LINE
  5
3A4
100
AcDbEntity
  8
0
100
AcDbLine
 62
253
  6
CONTINUOUS
 10
-112.7813954123
 20
47.9795262216
 11
-114.4917356072
 21
48.273896825
  0
LINE
  5
3A5
100
AcDbEntity
  8
0
100
AcDbLine
 62
7
  6
CONTINUOUS
 10
-112.83942312
 20
48.176487663
 11
-114.5088739403
 21
48.4708568855
  0
LWPOLYLINE
  5
3A6
100
AcDbEntity
  8
0
100
AcDbPolyline
 62
253
  6
CONTINUOUS
 90
22
 70
0
 10
-114.4917356072
 20
48.273896825
 10
-114.519521318
 20
48.2797091321
 10
-114.5465224276
 20
48.2872158154
 10
-114.5727365025
 20
48.296416875
 10
-114.598270836
 20
48.3073927127
 10
-114.6230137808
 20
48.3200629266
 10
-114.6466339016
 20
48.3341863117
 10
-114.6690956103
 20
48.3497753182
 10
-114.6904292503
 20
48.366817496
 10
-114.7104013429
 20
48.3850342893
 10
-114.728984822
 20
48.4044300347
 10
-114.7462018161
 20
48.4250003958
 10
-114.7618922794
 20
48.4464538072
 10
-114.7760360203
 20
48.4687931841
 10
-114.7886491792
 20
48.4920156113
 10
-114.7996262114
 20
48.5158207786
 10
-114.8089487792
 20
48.5402000187
 10
-114.8166323799
 20
48.5651619987
 10
-114.8226224387
 20
48.5904324104
 10
-114.8269002686
 20
48.6159198174
 10
-114.8294831041
 20
48.641715656
 10
-114.8303705835
 20
48.6678199262
  0
LINE
  5
3A7
100
AcDbEntity
  8
0
100
AcDbLine
 62
7
  6
CONTINUOUS
 10
-114.5088740499
 20
55.5291430951
 11
-112.83942312
 21
55.823512337
  0
LINE
  5
3A8
100
AcDbEntity
  8
0
100
AcDbLine
 62
253
  6
CONTINUOUS
 10
-114.4917356072
 20
55.726103175
 11
-112.7813954123
 21
56.0204737784
  0
LINE
  5
3A9
100
AcDbEntity
  8
0
100
AcDbLine
 62
253
  6
CONTINUOUS
 10
-114.8303705835
 20
55.3321800738
 11
-114.6741527556
 21
55.3321800738
  0
LINE
  5
3AA
100
AcDbEntity
  8
0
100
AcDbLine
 62
253
  6
CONTINUOUS
 10
-112.7813954123
 20
56.0204738877
 11
-112.6741527556
 21
56.0204738877
  0
LINE
  5
3AB
100
AcDbEntity
  8
RACCORDO
100
AcDbLine
 62
253
  6
CONTINUOUS
 10
-121.386602526
 20
58.1654265241
 11
-121.1402343952
 21
58.1525930904
  0
LWPOLYLINE
  5
3AC
100
AcDbEntity
  8
RACCORDO
100
AcDbPolyline
 62
253
  6
CONTINUOUS
 90
5
 70
0
 10
-121.4241527394
 20
58.1677048929
 10
-121.4230905647
 20
58.1675845028
 10
-121.4199048722
 20
58.1673574847
 10
-121.4146183206
 20
58.1670254534
 10
-121.386602526
 20
58.1654265241
  0
LWPOLYLINE
  5
3AD
100
AcDbEntity
  8
0
100
AcDbPolyline
 62
253
  6
CONTINUOUS
 90
10
 70
0
 10
-112.7813951447
 20
-78.8483854675
 10
-112.9628161992
 20
-78.9317088548
 10
-113.1453909635
 20
-79.0106330788
 10
-113.3289769929
 20
-79.0851581394
 10
-113.5135478271
 20
-79.1552860416
 10
-113.6988550821
 20
-79.2210147804
 10
-113.8844178896
 20
-79.282338341
 10
-114.0699798444
 20
-79.3392547186
 10
-114.2555196676
 20
-79.3917659179
 10
-114.4409058082
 20
-79.4398719391
  0
LWPOLYLINE
  5
3AE
100
AcDbEntity
  8
RACCORDO
100
AcDbPolyline
 62
253
  6
CONTINUOUS
 90
6
 70
0
 10
-118.9214386602
 20
-79.9279642451
 10
-118.9204295266
 20
-79.9275427457
 10
-118.9173256264
 20
-79.9267447395
 10
-118.9121490587
 20
-79.9255759082
 10
-118.9049366798
 20
-79.9240445736
 10
-118.8957398401
 20
-79.9221616385
  0
LINE
  5
3AF
100
AcDbEntity
  8
0
100
AcDbLine
 62
253
  6
CONTINUOUS
 10
-112.7813949477
 20
78.8483797678
 11
-112.6741527556
 21
78.8483795986
  0
LINE
  5
3B0
100
AcDbEntity
  8
RACCORDO
100
AcDbLine
 62
253
  6
CONTINUOUS
 10
-118.7612892584
 20
79.8965230981
 11
-118.6419126503
 21
79.8746610265
  0
LINE
  5
3B1
100
AcDbEntity
  8
RACCORDO
100
AcDbLine
 62
253
  6
CONTINUOUS
 10
-118.8406176592
 20
79.9114172499
 11
-118.7612892584
 21
79.8965230981
  0
LINE
  5
3B2
100
AcDbEntity
  8
RACCORDO
100
AcDbLine
 62
253
  6
CONTINUOUS
 10
-118.8716671335
 20
79.9173968096
 11
-118.8406176592
 21
79.9114172499
  0
LWPOLYLINE
  5
3B3
100
AcDbEntity
  8
0
100
AcDbPolyline
 62
253
  6
CONTINUOUS
 90
10
 70
0
 10
-114.440887131
 20
79.4398705923
 10
-114.2524248784
 20
79.390859356
 10
-114.0644856175
 20
79.3375809245
 10
-113.8771912911
 20
79.2800352978
 10
-113.6903780721
 20
79.2181029196
 10
-113.5044648309
 20
79.1519033463
 10
-113.3204261685
 20
79.0817952467
 10
-113.1386438473
 20
79.0078981772
 10
-112.9589336373
 20
78.9300925816
 10
-112.7813949477
 20
78.8483784596
  0
LWPOLYLINE
  5
3B4
100
AcDbEntity
  8
RACCORDO
100
AcDbPolyline
 62
253
  6
CONTINUOUS
 90
7
 70
0
 10
-118.92143869
 20
79.9279642505
 10
-118.9204292746
 20
79.9275427051
 10
-118.9173251252
 20
79.9267446588
 10
-118.9121483422
 20
79.9255757934
 10
-118.9049357827
 20
79.924044431
 10
-118.895738798
 20
79.9221614742
 10
-118.8716671335
 20
79.9173968096
  0
LINE
  5
3B5
100
AcDbEntity
  8
RACCORDO
100
AcDbLine
 62
253
  6
CONTINUOUS
 10
-118.6419128788
 20
79.8746610263
 11
-116.2241527556
 21
80.0013704652
  0
LINE
  5
3B6
100
AcDbEntity
  8
RACCORDO
100
AcDbLine
 62
7
  6
CONTINUOUS
 10
-118.5129477717
 20
80.880049336
 11
-116.2241527556
 21
81.0
  0
LWPOLYLINE
  5
3B7
100
AcDbEntity
  8
RACCORDO
100
AcDbPolyline
 62
253
  6
CONTINUOUS
 90
10
 70
0
 10
-116.224152744
 20
79.7010963713
 10
-116.0492123557
 20
79.6918208653
 10
-115.8677207755
 20
79.6778358895
 10
-115.6798017984
 20
79.659141444
 10
-115.485079364
 20
79.6360414291
 10
-115.2842473866
 20
79.6082319445
 10
-115.0790520391
 20
79.5748012887
 10
-114.8702049427
 20
79.5354455611
 10
-114.6574036716
 20
79.4904686624
 10
-114.440887131
 20
79.4398705923
  0
ARC
  5
3B8
100
AcDbEntity
  8
SUPERFICI
100
AcDbCircle
 62
7
  6
CONTINUOUS
 10
49.2892977924
 20
-49.5574805387
 40
171.0804483157
100
AcDbArc
 50
184.5304458443
 51
184.9696355779
  0
ARC
  5
3B9
100
AcDbEntity
  8
SUPERFICI
100
AcDbCircle
 62
7
  6
CONTINUOUS
 10
49.2892977924
 20
-49.5574805387
 40
171.0804483157
100
AcDbArc
 50
184.0180744229
 51
184.5248878875
  0
ARC
  5
3BA
100
AcDbEntity
  8
RACCORDO
100
AcDbCircle
 62
7
  6
CONTINUOUS
 10
49.2892977924
 20
-49.5574805387
 40
170.9304483157
100
AcDbArc
 50
182.887350151
 51
190.4754297048
  0
ARC
  5
3BB
100
AcDbEntity
  8
RACCORDO
100
AcDbCircle
 62
7
  6
CONTINUOUS
 10
-116.6620633951
 20
-72.1441672296
 40
8.3672998641
100
AcDbArc
 50
273.0000002239
 51
285.3941043664
  0
ARC
  5
3BC
100
AcDbEntity
  8
0
100
AcDbCircle
 62
7
  6
CONTINUOUS
 10
-116.6620633951
 20
-72.1441672296
 40
8.3672998641
100
AcDbArc
 50
285.3941043664
 51
297.6319292073
  0
ARC
  5
3BD
100
AcDbEntity
  8
RACCORDO
100
AcDbCircle
 62
7
  6
CONTINUOUS
 10
-118.4972469848
 20
-80.5804604755
 40
0.3
100
AcDbArc
 50
190.4754297048
 51
267.0
  0
ARC
  5
3BE
100
AcDbEntity
  8
0
100
AcDbCircle
 62
7
  6
CONTINUOUS
 10
-112.8741527556
 20
-56.0204738877
 40
0.2
100
AcDbArc
 50
0.0
 51
80.0
  0
ARC
  5
3BF
100
AcDbEntity
  8
0
100
AcDbCircle
 62
7
  6
CONTINUOUS
 10
-112.8741527556
 20
-47.9795261123
 40
0.2
100
AcDbArc
 50
280.0
 51
360.0
  0
ARC
  5
3C0
100
AcDbEntity
  8
0
100
AcDbCircle
 62
7
  6
CONTINUOUS
 10
-112.8741527556
 20
-79.3799480251
 40
0.2
100
AcDbArc
 50
297.6318888021
 51
0.0000234162
  0
ARC
  5
3C1
100
AcDbEntity
  8
0
100
AcDbCircle
 62
7
  6
CONTINUOUS
 10
-114.4741527556
 20
-55.3321800738
 40
0.2
100
AcDbArc
 50
180.001966612
 51
260.0024583078
  0
ARC
  5
3C2
100
AcDbEntity
  8
0
100
AcDbCircle
 62
7
  6
CONTINUOUS
 10
-114.4741527556
 20
-48.6678199262
 40
0.2
100
AcDbArc
 50
99.9975735574
 51
179.9982559167
  0
ARC
  5
3C3
100
AcDbEntity
  8
RACCORDO
100
AcDbCircle
 62
7
  6
CONTINUOUS
 10
49.2892977924
 20
49.5574805387
 40
170.9304483157
100
AcDbArc
 50
169.5245702952
 51
177.1126494014
  0
ARC
  5
3C4
100
AcDbEntity
  8
RACCORDO
100
AcDbCircle
 62
7
  6
CONTINUOUS
 10
-116.6620633951
 20
72.1441672296
 40
8.3672998641
100
AcDbArc
 50
74.6057629824
 51
86.9999999205
  0
ARC
  5
3C5
100
AcDbEntity
  8
0
100
AcDbCircle
 62
7
  6
CONTINUOUS
 10
-116.6620633951
 20
72.1441672296
 40
8.3672998641
100
AcDbArc
 50
62.3680710303
 51
74.6057629824
  0
ARC
  5
3C6
100
AcDbEntity
  8
RACCORDO
100
AcDbCircle
 62
7
  6
CONTINUOUS
 10
-118.497247745
 20
80.5804564727
 40
0.3
100
AcDbArc
 50
92.9998150212
 51
169.5237921587
  0
ARC
  5
3C7
100
AcDbEntity
  8
0
100
AcDbCircle
 62
7
  6
CONTINUOUS
 10
-112.8741527556
 20
47.9795261123
 40
0.2
100
AcDbArc
 50
0.0
 51
80.0
  0
ARC
  5
3C8
100
AcDbEntity
  8
0
100
AcDbCircle
 62
7
  6
CONTINUOUS
 10
-112.8741527556
 20
56.0204738877
 40
0.2
100
AcDbArc
 50
280.0
 51
360.0
  0
ARC
  5
3C9
100
AcDbEntity
  8
0
100
AcDbCircle
 62
7
  6
CONTINUOUS
 10
-112.8741527556
 20
79.3799463674
 40
0.2
100
AcDbArc
 50
0.0002594581
 51
62.3683077468
  0
ARC
  5
3CA
100
AcDbEntity
  8
0
100
AcDbCircle
 62
7
  6
CONTINUOUS
 10
-114.4741527556
 20
48.6678199262
 40
0.2
100
AcDbArc
 50
180.001966612
 51
260.0024583078
  0
ARC
  5
3CB
100
AcDbEntity
  8
0
100
AcDbCircle
 62
7
  6
CONTINUOUS
 10
-114.4741527556
 20
55.3321800738
 40
0.2
100
AcDbArc
 50
99.9975735574
 51
179.9982559167
  0
ARC
  5
3CC
100
AcDbEntity
  8
RACCORDO
100
AcDbCircle
 62
7
  6
CONTINUOUS
 10
328.0045681278
 20
-35.5
 40
450.0
100
AcDbArc
 50
179.9999998403
 51
182.8873585995
  0
ARC
  5
3CD
100
AcDbEntity
  8
RACCORDO
100
AcDbCircle
 62
7
  6
CONTINUOUS
 10
328.0045681278
 20
35.5
 40
450.0
100
AcDbArc
 50
177.1126412305
 51
180.0000001565
  0
ELLIPSE
  5
3CE
100
AcDbEntity
  8
RACCORDO
100
AcDbEllipse
 62
7
  6
CONTINUOUS
 10
-71.748627654
 20
-79.998627654
 30
0.0
 11
0.7090462434
 21
0.7090462434
 31
0.0
 40
0.9972646886
 41
2.3575640181
 42
3.9256212891
  0
ELLIPSE
  5
3CF
100
AcDbEntity
  8
RACCORDO
100
AcDbEllipse
 62
7
  6
CONTINUOUS
 10
71.748627654
 20
-79.998627654
 30
0.0
 11
0.7090462434
 21
-0.7090462434
 31
0.0
 40
0.9972646886
 41
-0.7840286355
 42
0.7840286355
  0
ELLIPSE
  5
3D0
100
AcDbEntity
  8
RACCORDO
100
AcDbEllipse
 62
7
  6
CONTINUOUS
 10
71.748627654
 20
79.998627654
 30
0.0
 11
0.7090462434
 21
0.7090462434
 31
0.0
 40
0.9972646886
 41
-0.7840286355
 42
0.7840286355
  0
ELLIPSE
  5
3D1
100
AcDbEntity
  8
RACCORDO
100
AcDbEllipse
 62
7
  6
CONTINUOUS
 10
-71.748627654
 20
79.998627654
 30
0.0
 11
0.7090462434
 21
-0.7090462434
 31
0.0
 40
0.9972646886
 41
2.3575640181
 42
3.9256212891
  0
ELLIPSE
  5
3D2
100
AcDbEntity
  8
RACCORDO
100
AcDbEllipse
 62
7
  6
CONTINUOUS
 10
-44.3489707405
 20
-57.2489707405
 30
0.0
 11
0.5317846826
 21
0.5317846826
 31
0.0
 40
0.9972646886
 41
2.3575640181
 42
3.9256212891
  0
ELLIPSE
  5
3D3
100
AcDbEntity
  8
RACCORDO
100
AcDbEllipse
 62
7
  6
CONTINUOUS
 10
-44.3489707405
 20
57.2489707405
 30
0.0
 11
0.5317846826
 21
-0.5317846826
 31
0.0
 40
0.9972646886
 41
2.3575640181
 42
3.9256212891
  0
ELLIPSE
  5
3D4
100
AcDbEntity
  8
RACCORDO
100
AcDbEllipse
 62
7
  6
CONTINUOUS
 10
44.3489707405
 20
57.2489707405
 30
0.0
 11
-0.5317846826
 21
-0.5317846826
 31
0.0
 40
0.9972646886
 41
2.3575640181
 42
3.9256212891
  0
ELLIPSE
  5
3D5
100
AcDbEntity
  8
RACCORDO
100
AcDbEllipse
 62
7
  6
CONTINUOUS
 10
44.3489707405
 20
-57.2489707405
 30
0.0
 11
-0.5317846826
 21
0.5317846826
 31
0.0
 40
0.9972646886
 41
2.3575640181
 42
3.9256212891
  0
ENDSEC
  0
SECTION
  2
OBJECTS
  0
DICTIONARY
  5
C
100
AcDbDictionary
280
0
281
1
  3
ACAD_GROUP
350
D
  3
ACAD_MLINESTYLE
350
17
  3
ACAD_LAYOUT
350
1A
  3
ACAD_PLOTSETTINGS
350
19
  3
ACAD_PLOTSTYLENAME
350
E
  0
DICTIONARY
  5
D
102
{ACAD_REACTORS
330
C
102
}
100
AcDbDictionary
280
0
281
1
  0
ACDBDICTIONARYWDFLT
  5
E
102
{ACAD_REACTORS
330
C
102
}
100
AcDbDictionary
281
1
  3
Normal
350
F
100
AcDbDictionaryWithDefault
340
F
  0
DICTIONARY
  5
17
102
{ACAD_REACTORS
330
C
102
}
100
AcDbDictionary
280
0
281
1
  3
Standard
350
18
  0
DICTIONARY
  5
19
102
{ACAD_REACTORS
330
C
102
}
100
AcDbDictionary
281
1
  0
DICTIONARY
  5
1A
102
{ACAD_REACTORS
330
C
102
}
100
AcDbDictionary
281
1
  3
Model
350
3D6
  3
Layout1
350
3D7
  0
ACDBPLACEHOLDER
  5
F
102
{ACAD_REACTORS
330
E
102
}
  0
MLINESTYLE
  5
18
102
{ACAD_REACTORS
330
17
102
}
100
AcDbMlineStyle
  2
STANDARD
 70
0
  3

 62
256
 51
90.0
 52
90.0
 71
2
 49
0.5
 62
256
  6
BYLAYER
 49
-0.5
 62
256
  6
BYLAYER
  0
LAYOUT
  5
3D6
102
{ACAD_REACTORS
330
1A
102
}
100
AcDbPlotSettings
  1

  2
none_device
  4
ISO_A4_(297.00_x_210.00_MM)
  6

 40
0.0
 41
0.0
 42
0.0
 43
0.0
 44
297.0
 45
210.0
 46
0.0
 47
0.0
 48
0.0
 49
0.0
140
0.0
141
0.0
142
1.0
143
1.0
 70
1024
 72
1
 73
0
 74
0
  7

 75
0
147
1.0
148
0.0
149
0.0
100
AcDbLayout
  1
Model
 70
0
 71
0
 10
0.0
 20
0.0
 11
297.0
 21
210.0
 12
0.0
 22
0.0
 32
0.0
 14
0.0
 24
0.0
 34
0.0
 15
0.0
 25
0.0
 35
0.0
146
0.0
 13
0.0
 23
0.0
 33
0.0
 16
1.0
 26
0.0
 36
0.0
 17
0.0
 27
1.0
 37
0.0
 76
0
330
213
345
0
346
0
  0
LAYOUT
  5
3D7
102
{ACAD_REACTORS
330
1A
102
}
100
AcDbPlotSettings
  1

  2
none_device
  4
ISO_A4_(297.00_x_210.00_MM)
  6

 40
0.0
 41
0.0
 42
0.0
 43
0.0
 44
297.0
 45
210.0
 46
0.0
 47
0.0
 48
0.0
 49
0.0
140
0.0
141
0.0
142
1.0
143
1.0
 70
0
 72
1
 73
0
 74
0
  7

 75
0
147
1.0
148
0.0
149
0.0
100
AcDbLayout
  1
Layout1
 70
0
 71
1
 10
0.0
 20
0.0
 11
297.0
 21
210.0
 12
0.0
 22
0.0
 32
0.0
 14
0.0
 24
0.0
 34
0.0
 15
0.0
 25
0.0
 35
0.0
146
0.0
 13
0.0
 23
0.0
 33
0.0
 16
1.0
 26
0.0
 36
0.0
 17
0.0
 27
1.0
 37
0.0
 76
0
330
214
345
0
346
0
  0
ENDSEC
  0
EOF
