  0
SECTION
  2
HEADER
  9
$ACADVER
  1
AC1021
  9
$DWGCODEPAGE
  3
ANSI_1252
  9
$EXTMAX
 10
297.0
 20
210.0
 30
0.0
  9
$EXTMIN
 10
0.0
 20
0.0
 30
0.0
  9
$LIMMIN
 10
0.0
 20
0.0
  9
$LIMMAX
 10
297.0
 20
210.0
  9
$VIEWCTR
 10
148.5
 20
105.0
  9
$VIEWSIZE
 40
210.0
  9
$CLAYER
  8
0
  9
$LTSCALE
 40
16.335
  9
$CELTYPE
  6
BYLAYER
  9
$DIMSCALE
 40
1.0
  9
$DIMASZ
 40
3.0
  9
$DIMEXO
 40
0.5
  9
$DIMDLI
 40
11.286
  9
$DIMEXE
 40
1.5
  9
$DIMCEN
 40
2.673
  9
$DIMLFAC
 40
1.0
  9
$DIMBLK
  1
_FILLED
  9
$DIMALT
 70
0
  9
$DIMALTF
 40
0.0393700787
  9
$DIMTXT
 40
3.0
  9
$DIMTOL
 70
1
  9
$DIMLIM
 70
0
  9
$DIMTFAC
 40
1.0
  9
$DIMTP
 40
0.01
  9
$DIMTM
 40
0.01
  9
$DIMGAP
 40
0.625
  9
$DIMDSEP
 70
44
  9
$AUNITS
 70
0
  9
$PDMODE
 70
3
  9
$PDSIZE
 40
3.0
  9
$HANDSEED
  5
48A
  9
$TILEMODE
 70
1
  9
$MEASUREMENT
 70
1
  9
$INSUNITS
 70
4
  0
ENDSEC
  0
SECTION
  2
CLASSES
  0
CLASS
  1
ACDBDICTIONARYWDFLT
  2
AcDbDictionaryWithDefault
  3
AutoCAD 2000
 90
0
 91
1
280
0
281
0
  0
CLASS
  1
ACDBPLACEHOLDER
  2
AcDbPlaceHolder
  3
AutoCAD 2000
 90
0
 91
1
280
0
281
0
  0
CLASS
  1
LAYOUT
  2
AcDbLayout
  3
AutoCAD 2000
 90
0
 91
0
280
0
281
0
  0
ENDSEC
  0
SECTION
  2
TABLES
  0
TABLE
  2
VPORT
  5
8
100
AcDbSymbolTable
 70
2
  0
VPORT
  5
1F4
100
AcDbSymbolTableRecord
100
AcDbViewportTableRecord
  2
*ACTIVE
 70
0
 10
0.0
 20
0.0
 11
1.0
 21
1.0
 12
148.5
 22
105.0
 13
0.0
 23
0.0
 14
1.0
 24
1.0
 15
0.0
 25
0.0
 16
0.0
 26
0.0
 36
1.0
 17
0.0
 27
0.0
 37
0.0
 40
210.0
 41
1.4142857143
 42
50.0
 43
0.0
 44
0.0
 50
0.0
 51
0.0
 71
0
 72
100
 73
1
 74
1
 75
0
 76
0
 77
0
 78
0
  0
ENDTAB
  0
TABLE
  2
LTYPE
  5
5
100
AcDbSymbolTable
 70
6
  0
LTYPE
  5
14
100
AcDbSymbolTableRecord
100
AcDbLinetypeTableRecord
  2
BYBLOCK
 70
0
  3

 72
65
 73
0
 40
0.0
  0
LTYPE
  5
15
100
AcDbSymbolTableRecord
100
AcDbLinetypeTableRecord
  2
BYLAYER
 70
0
  3

 72
65
 73
0
 40
0.0
  0
LTYPE
  5
16
100
AcDbSymbolTableRecord
100
AcDbLinetypeTableRecord
  2
CONTINUOUS
 70
64
  3
Solid line
 72
65
 73
0
 40
0.0
  0
LTYPE
  5
1F5
100
AcDbSymbolTableRecord
100
AcDbLinetypeTableRecord
  2
CENTER
 70
64
  3
____ _ ____ _ ____ _ ____ _ ____ _ ____ _ ____
 72
65
 73
4
 40
0.6
 49
0.375
 74
0
 49
-0.075
 74
0
 49
0.075
 74
0
 49
-0.075
 74
0
  0
LTYPE
  5
1F6
100
AcDbSymbolTableRecord
100
AcDbLinetypeTableRecord
  2
HIDDEN
 70
64
  3
- - - - - - - - - - - - - - - - - - - -
 72
65
 73
2
 40
0.2
 49
0.1
 74
0
 49
-0.1
 74
0
  0
LTYPE
  5
1F7
100
AcDbSymbolTableRecord
100
AcDbLinetypeTableRecord
  2
PHANTOM
 70
64
  3
_____ _ _ _____ _ _ _____ _ _ _____
 72
65
 73
6
 40
0.8
 49
0.45
 74
0
 49
-0.05
 74
0
 49
0.1
 74
0
 49
-0.05
 74
0
 49
0.1
 74
0
 49
-0.05
 74
0
  0
LTYPE
  5
1F8
100
AcDbSymbolTableRecord
100
AcDbLinetypeTableRecord
  2
DOT
 70
64
  3
. . . . . . . . . . . . . . . . . . . .
 72
65
 73
2
 40
0.2
 49
0.1
 74
0
 49
-0.1
 74
0
  0
LTYPE
  5
1F9
100
AcDbSymbolTableRecord
100
AcDbLinetypeTableRecord
  2
DASHED
 70
64
  3
- - - - - - - - - - - - - - - - - - - -
 72
65
 73
2
 40
0.2
 49
0.1
 74
0
 49
-0.1
 74
0
  0
ENDTAB
  0
TABLE
  2
LAYER
  5
2
100
AcDbSymbolTable
 70
36
  0
LAYER
  5
10
100
AcDbSymbolTableRecord
100
AcDbLayerTableRecord
  2
0
 70
0
 62
7
  6
CONTINUOUS
370
-3
390
F
  0
LAYER
  5
1FA
100
AcDbSymbolTableRecord
100
AcDbLayerTableRecord
  2
DEFAULT_1
 70
0
 62
7
  6
CENTER
370
-3
390
F
  0
LAYER
  5
1FB
100
AcDbSymbolTableRecord
100
AcDbLayerTableRecord
  2
DEFAULT_2
 70
0
 62
7
  6
HIDDEN
370
-3
390
F
  0
LAYER
  5
1FC
100
AcDbSymbolTableRecord
100
AcDbLayerTableRecord
  2
DEFAULT_3
 70
0
 62
7
  6
PHANTOM
370
-3
390
F
  0
LAYER
  5
1FD
100
AcDbSymbolTableRecord
100
AcDbLayerTableRecord
  2
ASSI
 70
0
 62
7
  6
CONTINUOUS
370
-3
390
F
  0
LAYER
  5
1FE
100
AcDbSymbolTableRecord
100
AcDbLayerTableRecord
  2
COORDINATE
 70
0
 62
7
  6
CONTINUOUS
370
-3
390
F
  0
LAYER
  5
1FF
100
AcDbSymbolTableRecord
100
AcDbLayerTableRecord
  2
COPY_PUBLISH
 70
0
 62
7
  6
CONTINUOUS
370
-3
390
F
  0
LAYER
  5
200
100
AcDbSymbolTableRecord
100
AcDbLayerTableRecord
  2
COSMETICI
 70
0
 62
7
  6
CONTINUOUS
370
-3
390
F
  0
LAYER
  5
201
100
AcDbSymbolTableRecord
100
AcDbLayerTableRecord
  2
CURVE
 70
0
 62
7
  6
CONTINUOUS
370
-3
390
F
  0
LAYER
  5
202
100
AcDbSymbolTableRecord
100
AcDbLayerTableRecord
  2
DRAFT
 70
0
 62
7
  6
CONTINUOUS
370
-3
390
F
  0
LAYER
  5
203
100
AcDbSymbolTableRecord
100
AcDbLayerTableRecord
  2
IMPORT_IGES
 70
0
 62
7
  6
CONTINUOUS
370
-3
390
F
  0
LAYER
  5
204
100
AcDbSymbolTableRecord
100
AcDbLayerTableRecord
  2
INTF_1
 70
0
 62
7
  6
CONTINUOUS
370
-3
390
F
  0
LAYER
  5
205
100
AcDbSymbolTableRecord
100
AcDbLayerTableRecord
  2
INTF_11
 70
0
 62
7
  6
CONTINUOUS
370
-3
390
F
  0
LAYER
  5
206
100
AcDbSymbolTableRecord
100
AcDbLayerTableRecord
  2
INTF_2
 70
0
 62
7
  6
CONTINUOUS
370
-3
390
F
  0
LAYER
  5
207
100
AcDbSymbolTableRecord
100
AcDbLayerTableRecord
  2
NOTE
 70
0
 62
7
  6
CONTINUOUS
370
-3
390
F
  0
LAYER
  5
208
100
AcDbSymbolTableRecord
100
AcDbLayerTableRecord
  2
PIANI
 70
0
 62
7
  6
CONTINUOUS
370
-3
390
F
  0
LAYER
  5
209
100
AcDbSymbolTableRecord
100
AcDbLayerTableRecord
  2
PUNTI
 70
0
 62
7
  6
CONTINUOUS
370
-3
390
F
  0
LAYER
  5
20A
100
AcDbSymbolTableRecord
100
AcDbLayerTableRecord
  2
RACCORDO
 70
0
 62
7
  6
CONTINUOUS
370
-3
390
F
  0
LAYER
  5
20B
100
AcDbSymbolTableRecord
100
AcDbLayerTableRecord
  2
RGB____0____0____0__
 70
0
 62
7
  6
CONTINUOUS
370
-3
390
F
  0
LAYER
  5
20C
100
AcDbSymbolTableRecord
100
AcDbLayerTableRecord
  2
SIMBOLI
 70
0
 62
7
  6
CONTINUOUS
370
-3
390
F
  0
LAYER
  5
20D
100
AcDbSymbolTableRecord
100
AcDbLayerTableRecord
  2
SMUSSO
 70
0
 62
7
  6
CONTINUOUS
370
-3
390
F
  0
LAYER
  5
20E
100
AcDbSymbolTableRecord
100
AcDbLayerTableRecord
  2
SNAPLINE
 70
0
 62
7
  6
CONTINUOUS
370
-3
390
F
  0
LAYER
  5
20F
100
AcDbSymbolTableRecord
100
AcDbLayerTableRecord
  2
SUPERFICI
 70
0
 62
7
  6
CONTINUOUS
370
-3
390
F
  0
LAYER
  5
210
100
AcDbSymbolTableRecord
100
AcDbLayerTableRecord
  2
TRASH
 70
0
 62
7
  6
CONTINUOUS
370
-3
390
F
  0
ENDTAB
  0
TABLE
  2
STYLE
  5
3
100
AcDbSymbolTable
 70
1
  0
STYLE
  5
11
100
AcDbSymbolTableRecord
100
AcDbTextStyleTableRecord
  2
STANDARD
 70
0
 40
0.0
 41
0.8
 50
0.0
 71
0
 42
0.2
  3
txt
  4

  0
STYLE
  5
211
100
AcDbSymbolTableRecord
100
AcDbTextStyleTableRecord
  2
TEXTSTYLE_1
 70
0
 40
0.0
 41
0.8
 50
0.0
 71
0
 42
0.2
  3
gdt
  4

  0
ENDTAB
  0
TABLE
  2
VIEW
  5
6
100
AcDbSymbolTable
 70
0
  0
ENDTAB
  0
TABLE
  2
UCS
  5
7
100
AcDbSymbolTable
 70
0
  0
ENDTAB
  0
TABLE
  2
APPID
  5
9
100
AcDbSymbolTable
 70
1
  0
APPID
  5
212
100
AcDbSymbolTableRecord
100
AcDbRegAppTableRecord
  2
ACAD
 70
0
  0
ENDTAB
  0
TABLE
  2
BLOCK_RECORD
  5
1
100
AcDbSymbolTable
 70
0
  0
BLOCK_RECORD
  5
213
100
AcDbSymbolTableRecord
100
AcDbBlockTableRecord
  2
*Model_Space
  0
BLOCK_RECORD
  5
214
100
AcDbSymbolTableRecord
100
AcDbBlockTableRecord
  2
*Paper_Space
  0
BLOCK_RECORD
  5
215
100
AcDbSymbolTableRecord
100
AcDbBlockTableRecord
  2
_FILLED
  0
BLOCK_RECORD
  5
216
100
AcDbSymbolTableRecord
100
AcDbBlockTableRecord
  2
*D0
  0
BLOCK_RECORD
  5
217
100
AcDbSymbolTableRecord
100
AcDbBlockTableRecord
  2
*D1
  0
BLOCK_RECORD
  5
218
100
AcDbSymbolTableRecord
100
AcDbBlockTableRecord
  2
*D2
  0
ENDTAB
  0
TABLE
  2
DIMSTYLE
  5
A
100
AcDbSymbolTable
 70
1
100
AcDbDimStyleTable
 71
0
  0
DIMSTYLE
105
219
100
AcDbSymbolTableRecord
100
AcDbDimStyleTableRecord
  2
STANDARD
 70
0
  3

  4

 40
1.0
 41
3.0
 42
0.5
 43
0.38
 44
1.5
 45
0.0
 46
0.0
 47
0.01
 48
0.01
140
3.0
141
0.09
142
0.0
143
25.4
144
1.0
145
0.0
146
1.0
147
0.625
 71
1.0
 72
0.0
 73
0
 74
0
 75
0
 76
0
 77
1
 78
8
170
0
171
2
172
0
173
0
174
0
175
0
176
0
177
0
178
0
270
2
271
2
272
2
273
2
274
2
275
0
280
0
281
0
282
0
283
1
284
8
285
0
286
0
287
3
288
0
340
11
278
44
341
215
342
215
343
215
344
215
  0
DIMSTYLE
105
21A
100
AcDbSymbolTableRecord
100
AcDbDimStyleTableRecord
  2
DIMSTYLE_1
 70
0
  3

  4

 40
1.0
 41
3.0
 42
0.5
 43
0.38
 44
1.5
 45
0.0
 46
0.0
 47
0.0
 48
0.0
140
3.0
141
0.09
142
0.0
143
25.4
144
1.0
145
0.0
146
1.0
147
0.75
 71
0.0
 72
0.0
 73
0
 74
0
 75
0
 76
0
 77
1
 78
8
170
0
171
2
172
0
173
0
174
0
175
0
176
0
177
0
178
0
270
2
271
2
272
2
273
2
274
2
275
0
280
0
281
0
282
0
283
1
284
8
285
0
286
0
287
3
288
0
340
11
278
44
341
215
342
215
343
215
344
215
  0
DIMSTYLE
105
21B
100
AcDbSymbolTableRecord
100
AcDbDimStyleTableRecord
  2
DIMSTYLE_2
 70
0
  3

  4

 40
1.0
 41
3.0
 42
0.5
 43
0.38
 44
1.5
 45
0.0
 46
0.0
 47
0.0
 48
0.0
140
3.0
141
0.09
142
0.0
143
25.4
144
1.0
145
0.0
146
1.0
147
0.75
 71
0.0
 72
0.0
 73
0
 74
0
 75
0
 76
0
 77
1
 78
8
170
0
171
2
172
0
173
0
174
0
175
0
176
0
177
0
178
0
270
2
271
1
272
1
273
2
274
2
275
0
280
0
281
0
282
0
283
1
284
8
285
0
286
0
287
3
288
0
340
11
278
44
341
215
342
215
343
215
344
215
  0
ENDTAB
  0
ENDSEC
  0
SECTION
  2
BLOCKS
  0
BLOCK
  5
20
100
AcDbEntity
  8
0
100
AcDbBlockBegin
  2
*Model_Space
 70
0
 10
0.0
 20
0.0
 30
0.0
  3
*Model_Space
  1

  0
ENDBLK
  5
21
100
AcDbEntity
  8
0
100
AcDbBlockEnd
  0
BLOCK
  5
1C
100
AcDbEntity
  8
0
100
AcDbBlockBegin
  2
*Paper_Space
 70
0
 10
0.0
 20
0.0
 30
0.0
  3
*Paper_Space
  1

  0
ENDBLK
  5
1D
100
AcDbEntity
  8
0
100
AcDbBlockEnd
  0
BLOCK
  5
21C
100
AcDbEntity
  8
0
100
AcDbBlockBegin
  2
_FILLED
 70
64
 10
0.0
 20
0.0
  3
_FILLED
  1

  0
SOLID
  5
21D
100
AcDbEntity
  8
0
  6
BYBLOCK
 62
0
100
AcDbTrace
 10
0.0
 20
0.0
 11
-1.0
 21
0.3166666667
 12
-1.0
 22
-0.3166666667
 13
-1.0
 23
-0.3166666667
  0
ENDBLK
  5
21E
100
AcDbEntity
  8
0
  6
BYBLOCK
 62
0
100
AcDbBlockEnd
  0
BLOCK
  5
21F
100
AcDbEntity
  8
0
100
AcDbBlockBegin
 62
7
  6
CONTINUOUS
  2
*D0
 70
65
 10
0.0
 20
0.0
  3
*D0
  1

  0
MTEXT
  5
220
100
AcDbEntity
  8
0
100
AcDbMText
 62
7
  6
CONTINUOUS
  7
STANDARD
 71
2
 72
1
 10
0.0
 20
97.25
 30
0.0
 11
1.0
 21
0.0
 31
0.0
 44
0.9
  1
146,5
 40
3.0
 41
15.4285714286
  0
LINE
  5
221
100
AcDbEntity
  8
0
100
AcDbLine
 62
7
  6
CONTINUOUS
 10
73.2499870216
 20
81.5035151779
 11
73.2499870216
 21
95.0
  0
LINE
  5
222
100
AcDbEntity
  8
0
100
AcDbLine
 62
7
  6
CONTINUOUS
 10
-73.2499870216
 20
81.5035151779
 11
-73.2499870216
 21
95.0
  0
LINE
  5
223
100
AcDbEntity
  8
0
100
AcDbLine
 62
7
  6
CONTINUOUS
 10
73.2499870216
 20
93.5
 11
0.0
 21
93.5
  0
LINE
  5
224
100
AcDbEntity
  8
0
100
AcDbLine
 62
7
  6
CONTINUOUS
 10
-73.2499870216
 20
93.5
 11
0.0
 21
93.5
  0
INSERT
  5
225
100
AcDbEntity
  8
0
100
AcDbBlockReference
 62
7
  6
CONTINUOUS
  2
_FILLED
 10
73.2499870216
 20
93.5
 41
3.0
 42
3.0
 43
3.0
  0
INSERT
  5
226
100
AcDbEntity
  8
0
100
AcDbBlockReference
 62
7
  6
CONTINUOUS
  2
_FILLED
 10
-73.2499870216
 20
93.5
 41
3.0
 42
3.0
 43
3.0
 50
180.0
  0
ENDBLK
  5
227
100
AcDbEntity
  8
0
  6
BYBLOCK
 62
0
100
AcDbBlockEnd
  0
BLOCK
  5
228
100
AcDbEntity
  8
0
100
AcDbBlockBegin
 62
7
  6
CONTINUOUS
  2
*D1
 70
65
 10
0.0
 20
0.0
  3
*D1
  1

  0
MTEXT
  5
229
100
AcDbEntity
  8
0
100
AcDbMText
 62
7
  6
CONTINUOUS
  7
STANDARD
 71
3
 72
1
 10
99.1532860363
 20
97.25
 30
0.0
 11
1.0
 21
0.0
 31
0.0
 44
0.9
  1
9,4
 40
3.0
 41
9.6428571429
  0
LINE
  5
22A
100
AcDbEntity
  8
0
100
AcDbLine
 62
7
  6
CONTINUOUS
 10
112.6248759293
 20
36.0
 11
112.6248759293
 21
95.0
  0
LINE
  5
22B
100
AcDbEntity
  8
0
100
AcDbLine
 62
7
  6
CONTINUOUS
 10
103.204521584
 20
79.8495893794
 11
103.204521584
 21
95.0
  0
LINE
  5
22C
100
AcDbEntity
  8
0
100
AcDbLine
 62
7
  6
CONTINUOUS
 10
112.6248759293
 20
93.5
 11
116.6248759293
 21
93.5
  0
LINE
  5
22D
100
AcDbEntity
  8
0
100
AcDbLine
 62
7
  6
CONTINUOUS
 10
116.6248759293
 20
93.5
 11
107.9146987566
 21
93.5
  0
LINE
  5
22E
100
AcDbEntity
  8
0
100
AcDbLine
 62
7
  6
CONTINUOUS
 10
103.204521584
 20
93.5
 11
92.7247146078
 21
93.5
  0
LINE
  5
22F
100
AcDbEntity
  8
0
100
AcDbLine
 62
7
  6
CONTINUOUS
 10
92.7247146078
 20
93.5
 11
107.9146987566
 21
93.5
  0
INSERT
  5
230
100
AcDbEntity
  8
0
100
AcDbBlockReference
 62
7
  6
CONTINUOUS
  2
_FILLED
 10
112.6248759293
 20
93.5
 41
3.0
 42
3.0
 43
3.0
 50
180.0
  0
INSERT
  5
231
100
AcDbEntity
  8
0
100
AcDbBlockReference
 62
7
  6
CONTINUOUS
  2
_FILLED
 10
103.204521584
 20
93.5
 41
3.0
 42
3.0
 43
3.0
  0
ENDBLK
  5
232
100
AcDbEntity
  8
0
  6
BYBLOCK
 62
0
100
AcDbBlockEnd
  0
BLOCK
  5
233
100
AcDbEntity
  8
0
100
AcDbBlockBegin
 62
7
  6
CONTINUOUS
  2
*D2
 70
65
 10
0.0
 20
0.0
  3
*D2
  1

  0
MTEXT
  5
234
100
AcDbEntity
  8
0
100
AcDbMText
 62
7
  6
CONTINUOUS
  7
STANDARD
 71
2
 72
1
 10
117.4545284581
 20
0.0
 30
0.0
 11
0.0
 21
1.0
 31
0.0
 44
0.9
  1
164
 40
3.0
 41
9.6428571429
  0
LINE
  5
235
100
AcDbEntity
  8
0
100
AcDbLine
 62
7
  6
CONTINUOUS
 10
107.366792493
 20
82.0
 11
122.7045284581
 21
82.0
  0
LINE
  5
236
100
AcDbEntity
  8
0
100
AcDbLine
 62
7
  6
CONTINUOUS
 10
107.366792493
 20
-82.0
 11
122.7045284581
 21
-82.0
  0
LINE
  5
237
100
AcDbEntity
  8
0
100
AcDbLine
 62
7
  6
CONTINUOUS
 10
121.2045284581
 20
82.0
 11
121.2045284581
 21
0.0
  0
LINE
  5
238
100
AcDbEntity
  8
0
100
AcDbLine
 62
7
  6
CONTINUOUS
 10
121.2045284581
 20
-82.0
 11
121.2045284581
 21
0.0
  0
INSERT
  5
239
100
AcDbEntity
  8
0
100
AcDbBlockReference
 62
7
  6
CONTINUOUS
  2
_FILLED
 10
121.2045284581
 20
82.0
 41
3.0
 42
3.0
 43
3.0
 50
90.0
  0
INSERT
  5
23A
100
AcDbEntity
  8
0
100
AcDbBlockReference
 62
7
  6
CONTINUOUS
  2
_FILLED
 10
121.2045284581
 20
-82.0
 41
3.0
 42
3.0
 43
3.0
 50
270.0
  0
ENDBLK
  5
23B
100
AcDbEntity
  8
0
  6
BYBLOCK
 62
0
100
AcDbBlockEnd
  0
ENDSEC
  0
SECTION
  2
ENTITIES
  0
DIMENSION
  5
23C
100
AcDbEntity
  8
0
100
AcDbDimension
 62
7
  6
CONTINUOUS
  2
*D0
 10
-73.2499870216
 20
93.5
 11
-0.4285713773
 21
93.5
 70
160
 71
2
 42
146.4999740432
  3
DIMSTYLE_1
100
AcDbAlignedDimension
 13
73.2499870216
 23
81.0035151779
 14
-73.2499870216
 24
81.0035151779
 50
180.0
100
AcDbRotatedDimension
  0
DIMENSION
  5
23D
100
AcDbEntity
  8
0
100
AcDbDimension
 62
7
  6
CONTINUOUS
  2
*D1
 10
103.204521584
 20
93.5
 11
95.5104297638
 21
93.5
 70
160
 71
3
 42
9.4203543454
  3
DIMSTYLE_2
100
AcDbAlignedDimension
 13
112.6248759293
 23
35.5
 14
103.204521584
 24
79.3495893794
 50
180.0
100
AcDbRotatedDimension
  0
DIMENSION
  5
23E
100
AcDbEntity
  8
0
100
AcDbDimension
 62
7
  6
CONTINUOUS
  2
*D2
 10
121.2045284581
 20
-82.0
 11
121.2045284581
 21
-0.4285699097
 70
160
 71
2
 42
164.0
  3
DIMSTYLE_1
100
AcDbAlignedDimension
 13
106.866792493
 23
82.0
 14
106.866792493
 24
-82.0
 50
270.0
100
AcDbRotatedDimension
  0
LWPOLYLINE
  5
23F
100
AcDbEntity
  8
RACCORDO
100
AcDbPolyline
 62
253
  6
CONTINUOUS
 90
28
 70
0
 10
72.1067948957
 20
-81.8331025978
 10
72.1638389585
 20
-81.8312471063
 10
72.2206220534
 20
-81.8261140499
 10
72.2769603442
 20
-81.8177265235
 10
72.3326445059
 20
-81.8061246246
 10
72.3875232038
 20
-81.7913485204
 10
72.4414996
 20
-81.7734227966
 10
72.4944337309
 20
-81.7523807391
 10
72.5461104898
 20
-81.7282950803
 10
72.596323434
 20
-81.7012571809
 10
72.6448909069
 20
-81.6713634367
 10
72.6916707205
 20
-81.638701132
 10
72.7365243254
 20
-81.6033656065
 10
72.779303549
 20
-81.5654651105
 10
72.81986223
 20
-81.5251213573
 10
72.8580716453
 20
-81.4824592044
 10
72.8938008132
 20
-81.4376125223
 10
72.9269265893
 20
-81.3907238792
 10
72.9573415512
 20
-81.3419407297
 10
72.9849396777
 20
-81.2914138446
 10
73.0096199826
 20
-81.2393085062
 10
73.0312958225
 20
-81.1858030253
 10
73.0498867018
 20
-81.131073422
 10
73.065325155
 20
-81.0752933895
 10
73.0775589988
 20
-81.0186447363
 10
73.0865408737
 20
-80.9613119193
 10
73.0922294228
 20
-80.9034817192
 10
73.0945964633
 20
-80.8453434755
  0
LWPOLYLINE
  5
240
100
AcDbEntity
  8
RACCORDO
100
AcDbPolyline
 62
253
  6
CONTINUOUS
 90
28
 70
0
 10
72.1067948957
 20
-81.4303264904
 10
72.1354741939
 20
-81.4294769411
 10
72.1638454675
 20
-81.426993056
 10
72.1919087163
 20
-81.4228748204
 10
72.2197478952
 20
-81.4171023095
 10
72.2472790494
 20
-81.4096953901
 10
72.2742503144
 20
-81.4007137228
 10
72.3006680869
 20
-81.3901379438
 10
72.3265259702
 20
-81.3779873063
 10
72.3515529098
 20
-81.3643793895
 10
72.3757331131
 20
-81.3493029508
 10
72.3990823727
 20
-81.3327690833
 10
72.4213770117
 20
-81.3149288726
 10
72.4426098766
 20
-81.2957686602
 10
72.4627881209
 20
-81.2753019322
 10
72.4817095287
 20
-81.2537205041
 10
72.4993633712
 20
-81.2310114484
 10
72.5157603772
 20
-81.2071875174
 10
72.5307305175
 20
-81.1824790737
 10
72.5442595712
 20
-81.1568764066
 10
72.5563617591
 20
-81.1303890697
 10
72.5669097144
 20
-81.1032763629
 10
72.5758881724
 20
-81.0755224217
 10
72.5833123978
 20
-81.0471429899
 10
72.5891008163
 20
-81.0184448319
 10
72.5932262368
 20
-80.9895301952
 10
72.5957158505
 20
-80.9602967765
 10
72.5965696574
 20
-80.930744544
  0
LWPOLYLINE
  5
241
100
AcDbEntity
  8
RACCORDO
100
AcDbPolyline
 62
7
  6
CONTINUOUS
 90
28
 70
0
 10
-72.2708637012
 20
-82.0
 10
-72.3272556954
 20
-81.9984043412
 10
-72.3831941766
 20
-81.9935893517
 10
-72.4386791448
 20
-81.9855549735
 10
-72.4939550912
 20
-81.9742455954
 10
-72.5487775246
 20
-81.9597165941
 10
-72.6024129707
 20
-81.9421343436
 10
-72.6547369582
 20
-81.9215018828
 10
-72.7058739585
 20
-81.897815737
 10
-72.7554639116
 20
-81.8712324821
 10
-72.8035007451
 20
-81.8417656708
 10
-72.8499905314
 20
-81.8094011471
 10
-72.894591428
 20
-81.7742539047
 10
-72.9374175502
 20
-81.7361650089
 10
-72.9783547826
 20
-81.6952926261
 10
-73.016718937
 20
-81.6522274624
 10
-73.0523738958
 20
-81.6070349173
 10
-73.0854557766
 20
-81.5596488888
 10
-73.1156887441
 20
-81.5104629648
 10
-73.143057032
 20
-81.4595081974
 10
-73.1675764066
 20
-81.4067528843
 10
-73.1890183305
 20
-81.3524965924
 10
-73.2074024325
 20
-81.2965615629
 10
-73.2227090839
 20
-81.2391249383
 10
-73.2346508619
 20
-81.1810188589
 10
-73.2431319589
 20
-81.1225206934
 10
-73.2482481826
 20
-81.0633528447
 10
-73.2499995329
 20
-81.0035151779
  0
LWPOLYLINE
  5
242
100
AcDbEntity
  8
RACCORDO
100
AcDbPolyline
 62
253
  6
CONTINUOUS
 90
28
 70
0
 10
-73.0945964633
 20
-80.845343475
 10
-73.0922299953
 20
-80.9034728338
 10
-73.08654589
 20
-80.9612723079
 10
-73.0775760559
 20
-81.0185532524
 10
-73.0653701031
 20
-81.0751113118
 10
-73.0499763572
 20
-81.1307828571
 10
-73.0314301151
 20
-81.1854423076
 10
-73.0097799391
 20
-81.2389440119
 10
-72.9851100386
 20
-81.291079125
 10
-72.957520838
 20
-81.3416334141
 10
-72.927121266
 20
-81.3904302122
 10
-72.8940115152
 20
-81.4373311227
 10
-72.8582975978
 20
-81.4821910375
 10
-72.8201018677
 20
-81.5248681448
 10
-72.7795559027
 20
-81.5652276132
 10
-72.7367887894
 20
-81.6031441463
 10
-72.6919459323
 20
-81.6384966067
 10
-72.6451762395
 20
-81.6711760853
 10
-72.5966212537
 20
-81.701085509
 10
-72.5464364382
 20
-81.728131667
 10
-72.4947913786
 20
-81.7522266768
 10
-72.4418548895
 20
-81.7732934371
 10
-72.3878084235
 20
-81.7912628189
 10
-72.3328210212
 20
-81.8060824574
 10
-72.2770466961
 20
-81.8177111305
 10
-72.2206578067
 20
-81.8261098509
 10
-72.1638457239
 20
-81.8312467734
 10
-72.1067948957
 20
-81.8331025978
  0
LWPOLYLINE
  5
243
100
AcDbEntity
  8
RACCORDO
100
AcDbPolyline
 62
253
  6
CONTINUOUS
 90
28
 70
0
 10
-72.5965696574
 20
-80.930744544
 10
-72.5957089318
 20
-80.9603190931
 10
-72.5932186558
 20
-80.9895558927
 10
-72.5890988294
 20
-81.0184549763
 10
-72.5833250184
 20
-81.0471066897
 10
-72.5759216569
 20
-81.0754207477
 10
-72.5669620475
 20
-81.1031262644
 10
-72.5564268547
 20
-81.1302253738
 10
-72.5443354139
 20
-81.1567160581
 10
-72.5308190342
 20
-81.1823212544
 10
-72.5158665187
 20
-81.2070234812
 10
-72.4994890643
 20
-81.2308403777
 10
-72.4818515702
 20
-81.253547603
 10
-72.4629421616
 20
-81.2751352414
 10
-72.4427727132
 20
-81.2956133829
 10
-72.4215437483
 20
-81.3147877228
 10
-72.3992454513
 20
-81.3326456412
 10
-72.3758876377
 20
-81.34919993
 10
-72.3517002778
 20
-81.3642944158
 10
-72.3266757645
 20
-81.3779148168
 10
-72.3008217049
 20
-81.3900755646
 10
-72.2743908896
 20
-81.4006635594
 10
-72.2473714641
 20
-81.4096638671
 10
-72.219775283
 20
-81.417091532
 10
-72.1918907002
 20
-81.4228784156
 10
-72.1638138337
 20
-81.4270018253
 10
-72.1354485655
 20
-81.429484512
 10
-72.1067948957
 20
-81.4303264904
  0
LWPOLYLINE
  5
244
100
AcDbEntity
  8
RACCORDO
100
AcDbPolyline
 62
7
  6
CONTINUOUS
 90
28
 70
0
 10
-73.2499995329
 20
81.0035151779
 10
-73.2482434997
 20
81.0633662043
 10
-73.2431271886
 20
81.1225345526
 10
-73.2346505996
 20
81.1810203607
 10
-73.2227200023
 20
81.2390928685
 10
-73.2074291272
 20
81.2964830709
 10
-73.189059165
 20
81.3523839055
 10
-73.1676278198
 20
81.4066294783
 10
-73.1431173877
 20
81.4593862928
 10
-73.1157559473
 20
81.5103461004
 10
-73.0855262925
 20
81.5595396498
 10
-73.0524456294
 20
81.6069368412
 10
-73.0167936558
 20
81.652138268
 10
-72.9784352223
 20
81.695207665
 10
-72.9375054782
 20
81.7360820008
 10
-72.8946895698
 20
81.7741718531
 10
-72.8501060947
 20
81.8093173978
 10
-72.8036364551
 20
81.8416792278
 10
-72.7556100044
 20
81.8711486068
 10
-72.706016504
 20
81.8977436564
 10
-72.6548661924
 20
81.921446857
 10
-72.602519138
 20
81.9420959918
 10
-72.5488420913
 20
81.9596942264
 10
-72.4939683018
 20
81.9742388315
 10
-72.4386575863
 20
81.9855587192
 10
-72.3831632172
 20
81.9935969423
 10
-72.3272319221
 20
81.9984106831
 10
-72.2708637012
 20
82.0
  0
LWPOLYLINE
  5
245
100
AcDbEntity
  8
RACCORDO
100
AcDbPolyline
 62
253
  6
CONTINUOUS
 90
19
 70
0
 10
72.5965696574
 20
-80.9307445294
 10
72.6376877754
 20
-80.9304340501
 10
72.6785273481
 20
-80.9294901404
 10
72.7188117171
 20
-80.9279191947
 10
72.7582679853
 20
-80.9257318549
 10
72.7966288651
 20
-80.9229429387
 10
72.8336344896
 20
-80.919571339
 10
72.8690341726
 20
-80.9156398958
 10
72.902588107
 20
-80.9111752419
 10
72.9340689894
 20
-80.906207622
 10
72.9632635597
 20
-80.9007706882
 10
72.989974046
 20
-80.8949012716
 10
73.0140195043
 20
-80.8886391334
 10
73.035237044
 20
-80.8820266949
 10
73.0534829318
 20
-80.8751087506
 10
73.068633565
 20
-80.8679321645
 10
73.0805863093
 20
-80.8605455528
 10
73.0892601934
 20
-80.8529989543
 10
73.0945964581
 20
-80.8453434919
  0
LINE
  5
246
100
AcDbEntity
  8
RACCORDO
100
AcDbLine
 62
7
  6
CONTINUOUS
 10
-72.2708637012
 20
-82.0
 11
72.2708637012
 21
-82.0
  0
LINE
  5
247
100
AcDbEntity
  8
RACCORDO
100
AcDbLine
 62
253
  6
CONTINUOUS
 10
-72.1067948957
 20
-81.8331025978
 11
72.1067948957
 21
-81.8331025978
  0
LINE
  5
248
100
AcDbEntity
  8
RACCORDO
100
AcDbLine
 62
253
  6
CONTINUOUS
 10
-72.1067948957
 20
-81.4303264904
 11
72.1067948957
 21
-81.4303264904
  0
LWPOLYLINE
  5
249
100
AcDbEntity
  8
RACCORDO
100
AcDbPolyline
 62
253
  6
CONTINUOUS
 90
19
 70
0
 10
-72.5965696574
 20
-80.9307445382
 10
-72.6376874466
 20
-80.9304340292
 10
-72.678526669
 20
-80.9294900933
 10
-72.7188106712
 20
-80.9279191249
 10
-72.7582665607
 20
-80.9257317659
 10
-72.7966270552
 20
-80.9229428339
 10
-72.8336322925
 20
-80.9195712218
 10
-72.8690315915
 20
-80.9156397695
 10
-72.9025851498
 20
-80.9111751095
 10
-72.9340656685
 20
-80.9062074863
 10
-72.9632598921
 20
-80.9007705517
 10
-72.9899700526
 20
-80.8949011367
 10
-73.0140152099
 20
-80.8886390019
 10
-73.035232477
 20
-80.8820265684
 10
-73.0534781237
 20
-80.8751086304
 10
-73.0686285501
 20
-80.8679320513
 10
-73.080581124
 20
-80.8605454471
 10
-73.0892548763
 20
-80.8529988561
 10
-73.094591049
 20
-80.8453434006
  0
LINE
  5
24A
100
AcDbEntity
  8
RACCORDO
100
AcDbLine
 62
7
  6
CONTINUOUS
 10
-73.2499995329
 20
-81.0035151779
 11
-73.25
 21
-58.0386319559
  0
LINE
  5
24B
100
AcDbEntity
  8
DRAFT
100
AcDbLine
 62
7
  6
CONTINUOUS
 10
-73.25
 20
-58.0386319559
 11
-73.25
 21
58.0386319559
  0
LINE
  5
24C
100
AcDbEntity
  8
RACCORDO
100
AcDbLine
 62
7
  6
CONTINUOUS
 10
-73.25
 20
58.0386319559
 11
-73.2499995329
 21
81.0035151779
  0
LINE
  5
24D
100
AcDbEntity
  8
RACCORDO
100
AcDbLine
 62
253
  6
CONTINUOUS
 10
-72.5993593532
 20
-35.499995485
 11
-72.5965696574
 21
-80.930744544
  0
LINE
  5
24E
100
AcDbEntity
  8
RACCORDO
100
AcDbLine
 62
253
  6
CONTINUOUS
 10
-72.1067948957
 20
-81.4303264904
 11
-72.1067948957
 21
-81.8331025978
  0
LINE
  5
24F
100
AcDbEntity
  8
RACCORDO
100
AcDbLine
 62
253
  6
CONTINUOUS
 10
-72.1067948957
 20
81.4303264904
 11
-72.106794896
 21
81.8331025978
  0
LWPOLYLINE
  5
250
100
AcDbEntity
  8
RACCORDO
100
AcDbPolyline
 62
253
  6
CONTINUOUS
 90
3
 70
0
 10
-73.0945964631
 20
80.8453434754
 10
-73.0971198012
 20
60.6665775147
 10
-73.0945964631
 20
-80.8453434748
  0
LWPOLYLINE
  5
251
100
AcDbEntity
  8
RACCORDO
100
AcDbPolyline
 62
253
  6
CONTINUOUS
 90
3
 70
0
 10
-72.5965696574
 20
80.930744544
 10
-72.5990203581
 20
60.6965131618
 10
-72.5993593532
 20
-35.499995485
  0
LWPOLYLINE
  5
252
100
AcDbEntity
  8
RACCORDO
100
AcDbPolyline
 62
253
  6
CONTINUOUS
 90
31
 70
0
 10
-45.3857520526
 20
58.1493621709
 10
-45.358721183
 20
58.1804690486
 10
-45.3312083512
 20
58.2103387046
 10
-45.3032135572
 20
58.2389711717
 10
-45.2747138574
 20
58.2663307272
 10
-45.2457321954
 20
58.2924531568
 10
-45.2163374013
 20
58.3174457514
 10
-45.186540994
 20
58.3413157074
 10
-45.1563314545
 20
58.3640558786
 10
-45.1257430572
 20
58.3857520365
 10
-45.0947852554
 20
58.4064117776
 10
-45.0634485956
 20
58.426027546
 10
-45.0317389915
 20
58.4446623806
 10
-44.9996640227
 20
58.4623247976
 10
-44.9672161095
 20
58.4790063139
 10
-44.9343784265
 20
58.4947444663
 10
-44.9011564787
 20
58.5095488336
 10
-44.867544761
 20
58.5234098639
 10
-44.8335099335
 20
58.5363363958
 10
-44.7990564483
 20
58.5483389441
 10
-44.7641798532
 20
58.559407016
 10
-44.728833451
 20
58.5695179371
 10
-44.6929667064
 20
58.5786887075
 10
-44.6566301546
 20
58.5869023447
 10
-44.6199287046
 20
58.5940852001
 10
-44.583046422
 20
58.6002318284
 10
-44.5457992411
 20
58.6053476881
 10
-44.5077398733
 20
58.6093754857
 10
-44.4687192225
 20
58.6122961259
 10
-44.4288863847
 20
58.6141287112
 10
-44.3882413601
 20
58.6148732437
  0
LWPOLYLINE
  5
253
100
AcDbEntity
  8
RACCORDO
100
AcDbPolyline
 62
253
  6
CONTINUOUS
 90
31
 70
0
 10
-45.0031417955
 20
57.8044296689
 10
-44.9865299556
 20
57.823508687
 10
-44.9695476084
 20
57.841815845
 10
-44.952233905
 20
57.8593540688
 10
-44.9346471346
 20
57.8761088764
 10
-44.9168051753
 20
57.8921065616
 10
-44.8986798967
 20
57.9074079471
 10
-44.8802989691
 20
57.9220180545
 10
-44.8616939165
 20
57.9359390848
 10
-44.8428323755
 20
57.9492186208
 10
-44.8237382857
 20
57.9618578954
 10
-44.8044356222
 20
57.9738585341
 10
-44.7848842058
 20
57.9852595605
 10
-44.7651038405
 20
57.9960590628
 10
-44.7451141324
 20
58.0062557035
 10
-44.724868227
 20
58.0158796157
 10
-44.7043830563
 20
58.0249251008
 10
-44.683675227
 20
58.033387094
 10
-44.6626923798
 20
58.0412862704
 10
-44.6414506506
 20
58.0486122645
 10
-44.6199641511
 20
58.0553559254
 10
-44.5981737263
 20
58.061528403
 10
-44.5760632197
 20
58.0671217935
 10
-44.5536778787
 20
58.0721121925
 10
-44.5310500432
 20
58.0764823296
 10
-44.5083107454
 20
58.0802023295
 10
-44.4853640756
 20
58.0832833245
 10
-44.4618993441
 20
58.0857432799
 10
-44.4378229225
 20
58.0875483221
 10
-44.4132626362
 20
58.088644226
 10
-44.3882395813
 20
58.0889897357
  0
LWPOLYLINE
  5
254
100
AcDbEntity
  8
RACCORDO
100
AcDbPolyline
 62
253
  6
CONTINUOUS
 90
16
 70
0
 10
-45.0031417955
 20
-57.8044296689
 10
-45.026044848
 20
-57.7759686001
 10
-45.0477583063
 20
-57.7462874154
 10
-45.0682086004
 20
-57.7154289412
 10
-45.0873532808
 20
-57.6833880435
 10
-45.1050858203
 20
-57.6502665303
 10
-45.1212610232
 20
-57.6162864976
 10
-45.1358347497
 20
-57.5815181097
 10
-45.1487655337
 20
-57.5460364602
 10
-45.1599642844
 20
-57.5100955098
 10
-45.1694213612
 20
-57.4737820438
 10
-45.177132967
 20
-57.4371784011
 10
-45.1830741354
 20
-57.4005451613
 10
-45.1872674103
 20
-57.3640271603
 10
-45.189755336
 20
-57.3276477068
 10
-45.1905731507
 20
-57.2914852219
  0
LWPOLYLINE
  5
255
100
AcDbEntity
  8
RACCORDO
100
AcDbPolyline
 62
253
  6
CONTINUOUS
 90
16
 70
0
 10
-45.385831219
 20
-58.1492534839
 10
-45.4230809505
 20
-58.102912983
 10
-45.4581950599
 20
-58.0547046778
 10
-45.4911735472
 20
-58.0046285387
 10
-45.5221666146
 20
-57.9524856757
 10
-45.5510240598
 20
-57.898474914
 10
-45.5772952764
 20
-57.843192806
 10
-45.6009050204
 20
-57.7866166845
 10
-45.6219285358
 20
-57.728769171
 10
-45.6401409475
 20
-57.6703147731
 10
-45.6554690081
 20
-57.6112431745
 10
-45.6679859651
 20
-57.55156467
 10
-45.6776866859
 20
-57.49197471
 10
-45.6845694595
 20
-57.4327051193
 10
-45.688635997
 20
-57.3735240816
 10
-45.6898862982
 20
-57.3144315998
  0
LWPOLYLINE
  5
256
100
AcDbEntity
  8
0
100
AcDbPolyline
 62
7
  6
CONTINUOUS
 90
19
 70
0
 10
3.3200188023
 20
-61.610807341
 10
3.4216262292
 20
-61.5961945133
 10
3.5206726939
 20
-61.5833878643
 10
3.6171581966
 20
-61.5723874238
 10
3.7110530796
 20
-61.5631374049
 10
3.8023870006
 20
-61.5556936413
 10
3.8912489322
 20
-61.5502235892
 10
3.9776759351
 20
-61.5467968405
 10
4.0616309486
 20
-61.545343826
 10
4.1430917638
 20
-61.5458232541
 10
4.2220253725
 20
-61.5482108633
 10
4.2984647828
 20
-61.5525309079
 10
4.3724868096
 20
-61.5588148617
 10
4.4442562842
 20
-61.5669820355
 10
4.5136083753
 20
-61.5771130825
 10
4.5801254033
 20
-61.5894814792
 10
4.6436681418
 20
-61.6041783566
 10
4.7043758173
 20
-61.6211125045
 10
4.7622484297
 20
-61.6402838735
  0
LWPOLYLINE
  5
257
100
AcDbEntity
  8
0
100
AcDbPolyline
 62
7
  6
CONTINUOUS
 90
31
 70
0
 10
4.2166806432
 20
-62.8236280866
 10
4.2411720609
 20
-62.8228465961
 10
4.2655501431
 20
-62.8212819358
 10
4.2898148898
 20
-62.8189341039
 10
4.314052577
 20
-62.8158557882
 10
4.3381769287
 20
-62.811994295
 10
4.3619291166
 20
-62.8071915487
 10
4.3852947787
 20
-62.8014603991
 10
4.4082882771
 20
-62.7947879824
 10
4.4306938697
 20
-62.7869776484
 10
4.4525622504
 20
-62.778010869
 10
4.4738427255
 20
-62.7679061451
 10
4.4941674716
 20
-62.7565223634
 10
4.513489171
 20
-62.7437921931
 10
4.5318551415
 20
-62.7297829205
 10
4.5490395137
 20
-62.7145553541
 10
4.5649501267
 20
-62.6980314591
 10
4.5796791414
 20
-62.6802892147
 10
4.5932771709
 20
-62.6616234558
 10
4.605744923
 20
-62.6420445128
 10
4.61708169
 20
-62.6215420063
 10
4.6273359619
 20
-62.6003797194
 10
4.6365218384
 20
-62.5785766261
 10
4.6446252197
 20
-62.5561137139
 10
4.6516522968
 20
-62.5331977993
 10
4.6576263408
 20
-62.5098169468
 10
4.6625240807
 20
-62.4859830634
 10
4.6662818932
 20
-62.4619387439
 10
4.668878571
 20
-62.4377648522
 10
4.6703353215
 20
-62.4133805132
 10
4.6706521448
 20
-62.3887857201
  0
LINE
  5
258
100
AcDbEntity
  8
0
100
AcDbLine
 62
7
  6
CONTINUOUS
 10
-4.616107
 20
-64.377801
 11
-4.101097
 21
-64.377801
  0
LINE
  5
259
100
AcDbEntity
  8
0
100
AcDbLine
 62
7
  6
CONTINUOUS
 10
-2.984285
 20
-64.377801
 11
-2.399877
 21
-64.377801
  0
LINE
  5
25A
100
AcDbEntity
  8
0
100
AcDbLine
 62
7
  6
CONTINUOUS
 10
-2.085272
 20
-64.377801
 11
-1.526183
 21
-64.377801
  0
LINE
  5
25B
100
AcDbEntity
  8
0
100
AcDbLine
 62
7
  6
CONTINUOUS
 10
-0.714487
 20
-64.377801
 11
-0.632524
 21
-64.377801
  0
LINE
  5
25C
100
AcDbEntity
  8
0
100
AcDbLine
 62
7
  6
CONTINUOUS
 10
0.182406
 20
-64.377801
 11
0.754112
 21
-64.377801
  0
LINE
  5
25D
100
AcDbEntity
  8
0
100
AcDbLine
 62
7
  6
CONTINUOUS
 10
0.84588
 20
-64.377801
 11
1.423947
 21
-64.377801
  0
LINE
  5
25E
100
AcDbEntity
  8
0
100
AcDbLine
 62
7
  6
CONTINUOUS
 10
2.532466
 20
-64.377801
 11
3.148408
 21
-64.377801
  0
LINE
  5
25F
100
AcDbEntity
  8
0
100
AcDbLine
 62
7
  6
CONTINUOUS
 10
3.3200188023
 20
-64.3778013544
 11
3.9020753449
 21
-64.3778013544
  0
LINE
  5
260
100
AcDbEntity
  8
0
100
AcDbLine
 62
7
  6
CONTINUOUS
 10
4.7970156219
 20
-64.3778013544
 11
5.3591482119
 21
-64.3778013544
  0
LINE
  5
261
100
AcDbEntity
  8
0
100
AcDbLine
 62
7
  6
CONTINUOUS
 10
1.585207
 20
-63.818881
 11
2.381074
 21
-63.818881
  0
LINE
  5
262
100
AcDbEntity
  8
0
100
AcDbLine
 62
7
  6
CONTINUOUS
 10
1.704751
 20
-63.386391
 11
2.26428
 21
-63.386391
  0
LINE
  5
263
100
AcDbEntity
  8
0
100
AcDbLine
 62
7
  6
CONTINUOUS
 10
3.9020753449
 20
-63.2821519248
 11
4.2154209623
 21
-63.2821519248
  0
LINE
  5
264
100
AcDbEntity
  8
0
100
AcDbLine
 62
7
  6
CONTINUOUS
 10
3.8826972541
 20
-62.8236280866
 11
4.2166806432
 21
-62.8236280866
  0
LINE
  5
265
100
AcDbEntity
  8
0
100
AcDbLine
 62
7
  6
CONTINUOUS
 10
-5.503668
 20
-61.578098
 11
-4.86882
 21
-61.578098
  0
LINE
  5
266
100
AcDbEntity
  8
0
100
AcDbLine
 62
7
  6
CONTINUOUS
 10
-3.785169
 20
-61.578098
 11
-3.20116
 21
-61.578098
  0
LINE
  5
267
100
AcDbEntity
  8
0
100
AcDbLine
 62
7
  6
CONTINUOUS
 10
-1.832475
 20
-61.578098
 11
-1.24855
 21
-61.578098
  0
LINE
  5
268
100
AcDbEntity
  8
0
100
AcDbLine
 62
7
  6
CONTINUOUS
 10
-0.085906
 20
-61.578098
 11
0.492308
 21
-61.578098
  0
LINE
  5
269
100
AcDbEntity
  8
0
100
AcDbLine
 62
7
  6
CONTINUOUS
 10
1.724045
 20
-61.578098
 11
2.28939
 21
-61.578098
  0
LINE
  5
26A
100
AcDbEntity
  8
0
100
AcDbLine
 62
7
  6
CONTINUOUS
 10
-2.984285
 20
-61.57793
 11
-2.399877
 21
-61.57793
  0
LWPOLYLINE
  5
26B
100
AcDbEntity
  8
RACCORDO
100
AcDbPolyline
 62
253
  6
CONTINUOUS
 90
16
 70
0
 10
-44.3882413601
 20
-58.6148732437
 10
-44.4618904456
 20
-58.6129773492
 10
-44.5355682291
 20
-58.6066749589
 10
-44.6092747103
 20
-58.5959660461
 10
-44.6834225632
 20
-58.5808437972
 10
-44.7575991138
 20
-58.5613149166
 10
-44.8305663413
 20
-58.5373996271
 10
-44.9023445404
 20
-58.5089119569
 10
-44.9729134163
 20
-58.4760376567
 10
-45.0409740627
 20
-58.4393545246
 10
-45.1063974767
 20
-58.3987278661
 10
-45.1693126612
 20
-58.3542920988
 10
-45.2288077194
 20
-58.3070287296
 10
-45.2845786856
 20
-58.2572648636
 10
-45.3369295255
 20
-58.2046731589
 10
-45.3858602391
 20
-58.1492534839
  0
LWPOLYLINE
  5
26C
100
AcDbEntity
  8
0
100
AcDbPolyline
 62
7
  6
CONTINUOUS
 90
10
 70
0
 10
4.3405134302
 20
-62.0385722489
 10
4.2917520268
 20
-62.0336503087
 10
4.2424059237
 20
-62.0304025869
 10
4.1924751208
 20
-62.0288290908
 10
4.141882372
 20
-62.0289110084
 10
4.0907049235
 20
-62.0306671551
 10
4.0391745136
 20
-62.0341539727
 10
3.9873683885
 20
-62.0393902685
 10
3.935209302
 20
-62.046357215
 10
3.8826972541
 20
-62.0550547959
  0
LWPOLYLINE
  5
26D
100
AcDbEntity
  8
RACCORDO
100
AcDbPolyline
 62
253
  6
CONTINUOUS
 90
15
 70
0
 10
-45.4474905251
 20
-57.3113952158
 10
-45.4165319756
 20
-57.3104912667
 10
-45.387001846
 20
-57.3094812503
 10
-45.3590544469
 20
-57.3083704444
 10
-45.332835818
 20
-57.3071646536
 10
-45.3084829656
 20
-57.3058701788
 10
-45.2861231461
 20
-57.3044937843
 10
-45.2658732013
 20
-57.3030426625
 10
-45.2478389477
 20
-57.3015243962
 10
-45.2321146239
 20
-57.2999469192
 10
-45.2187823977
 20
-57.2983184746
 10
-45.2079119369
 20
-57.296647572
 10
-45.1995600456
 20
-57.2949429426
 10
-45.1937703666
 20
-57.293213494
 10
-45.1905731541
 20
-57.2914682636
  0
LWPOLYLINE
  5
26E
100
AcDbEntity
  8
RACCORDO
100
AcDbPolyline
 62
7
  6
CONTINUOUS
 90
28
 70
0
 10
44.2990249002
 20
-58.0
 10
44.3455000297
 20
-57.9986673782
 10
44.3916291042
 20
-57.9946633764
 10
44.4374121239
 20
-57.987987991
 10
44.4830650236
 20
-57.9785880677
 10
44.5283718683
 20
-57.9665167462
 10
44.5726848538
 20
-57.9519334615
 10
44.6158935571
 20
-57.934839603
 10
44.6581084011
 20
-57.9152337547
 10
44.6990128494
 20
-57.8932711415
 10
44.7386113887
 20
-57.8689480124
 10
44.7768995323
 20
-57.842268082
 10
44.8135472841
 20
-57.8133977733
 10
44.8486311626
 20
-57.7822057828
 10
44.8820746494
 20
-57.7488233694
 10
44.9133181925
 20
-57.7138108048
 10
44.9422307492
 20
-57.6772427986
 10
44.9689433623
 20
-57.6390446035
 10
44.9932896082
 20
-57.5995523151
 10
45.0152642012
 20
-57.5587705038
 10
45.034872427
 20
-57.5166945655
 10
45.0519637192
 20
-57.4736468425
 10
45.0665380637
 20
-57.4295297145
 10
45.0785954745
 20
-57.3844407738
 10
45.0879854268
 20
-57.3389951942
 10
45.0946577455
 20
-57.2933980345
 10
45.0986626057
 20
-57.2474442283
 10
45.1000000073
 20
-57.2011337707
  0
LINE
  5
26F
100
AcDbEntity
  8
RACCORDO
100
AcDbLine
 62
253
  6
CONTINUOUS
 10
-45.5130391667
 20
-57.3128665965
 11
-45.4474905251
 21
-57.3113952158
  0
LWPOLYLINE
  5
270
100
AcDbEntity
  8
RACCORDO
100
AcDbPolyline
 62
253
  6
CONTINUOUS
 90
16
 70
0
 10
72.7215262719
 20
-58.1486026945
 10
72.7610188329
 20
-58.1480147575
 10
72.7994127364
 20
-58.1472651423
 10
72.836447368
 20
-58.1463589374
 10
72.8718713401
 20
-58.1453022941
 10
72.9054441982
 20
-58.1441023846
 10
72.9369380528
 20
-58.1427673539
 10
72.9661391265
 20
-58.141306264
 10
72.9928492052
 20
-58.1397290326
 10
73.0168869833
 20
-58.138046366
 10
73.0380892947
 20
-58.1362696858
 10
73.0563122201
 20
-58.1344110519
 10
73.0714320639
 20
-58.1324830808
 10
73.083346194
 20
-58.1304988591
 10
73.0919737385
 20
-58.1284718556
 10
73.0972561343
 20
-58.1264158295
  0
LWPOLYLINE
  5
271
100
AcDbEntity
  8
RACCORDO
100
AcDbPolyline
 62
253
  6
CONTINUOUS
 90
16
 70
0
 10
72.7215292848
 20
-58.0607439984
 10
72.7610219032
 20
-58.0601571645
 10
72.7994158588
 20
-58.0594093119
 10
72.8364505363
 20
-58.058505517
 10
72.8718745468
 20
-58.0574519147
 10
72.9054474348
 20
-58.0562556567
 10
72.9369413098
 20
-58.0549248632
 10
72.9661423938
 20
-58.0534685675
 10
72.9928524718
 20
-58.0518966549
 10
73.0168902378
 20
-58.0502197954
 10
73.0380925251
 20
-58.0484493713
 10
73.0563154141
 20
-58.0465974001
 10
73.0714352091
 20
-58.0446764531
 10
73.0833492782
 20
-58.0426995693
 10
73.0919767493
 20
-58.0406801677
 10
73.0972590599
 20
-58.0386319559
  0
LINE
  5
272
100
AcDbEntity
  8
RACCORDO
100
AcDbLine
 62
253
  6
CONTINUOUS
 10
-45.582279456
 20
-57.3138646777
 11
-45.5130391667
 21
-57.3128665965
  0
LINE
  5
273
100
AcDbEntity
  8
RACCORDO
100
AcDbLine
 62
253
  6
CONTINUOUS
 10
72.6403231023
 20
-58.1492786956
 11
72.7215262719
 21
-58.1486026945
  0
LWPOLYLINE
  5
274
100
AcDbEntity
  8
RACCORDO
100
AcDbPolyline
 62
253
  6
CONTINUOUS
 90
3
 70
0
 10
72.5991665156
 20
-58.0615041738
 10
72.6403259899
 20
-58.0614197967
 10
72.7215292848
 20
-58.0607439984
  0
LWPOLYLINE
  5
275
100
AcDbEntity
  8
RACCORDO
100
AcDbPolyline
 62
253
  6
CONTINUOUS
 90
3
 70
0
 10
-45.6898862982
 20
-57.3144315998
 10
-45.6537660163
 20
-57.3143686246
 10
-45.582279456
 20
-57.3138646777
  0
LINE
  5
276
100
AcDbEntity
  8
RACCORDO
100
AcDbLine
 62
253
  6
CONTINUOUS
 10
44.3882413601
 20
-58.6148732437
 11
-44.3882413601
 21
-58.6148732437
  0
LINE
  5
277
100
AcDbEntity
  8
RACCORDO
100
AcDbLine
 62
253
  6
CONTINUOUS
 10
45.3857520526
 20
-58.1493621709
 11
72.6403231023
 21
-58.1492786956
  0
LINE
  5
278
100
AcDbEntity
  8
RACCORDO
100
AcDbLine
 62
253
  6
CONTINUOUS
 10
44.38826447
 20
-58.0889897388
 11
-44.388250524
 21
-58.0889897388
  0
LINE
  5
279
100
AcDbEntity
  8
RACCORDO
100
AcDbLine
 62
253
  6
CONTINUOUS
 10
73.09725906
 20
-58.0386319559
 11
73.25
 21
-58.0386319559
  0
LINE
  5
27A
100
AcDbEntity
  8
RACCORDO
100
AcDbLine
 62
253
  6
CONTINUOUS
 10
-73.0972590598
 20
-58.0386432835
 11
-73.2500000139
 21
-58.038643566
  0
LINE
  5
27B
100
AcDbEntity
  8
RACCORDO
100
AcDbLine
 62
7
  6
CONTINUOUS
 10
-44.2990249002
 20
-58.0
 11
44.2990249002
 21
-58.0
  0
LINE
  5
27C
100
AcDbEntity
  8
RACCORDO
100
AcDbLine
 62
253
  6
CONTINUOUS
 10
-45.3858602391
 20
-58.1492534839
 11
-72.6403231011
 21
-58.1492786945
  0
LINE
  5
27D
100
AcDbEntity
  8
RACCORDO
100
AcDbLine
 62
253
  6
CONTINUOUS
 10
45.6898862981
 20
-57.314431396
 11
45.6178342106
 21
-57.3141791591
  0
LWPOLYLINE
  5
27E
100
AcDbEntity
  8
RACCORDO
100
AcDbPolyline
 62
253
  6
CONTINUOUS
 90
18
 70
0
 10
-72.5991665154
 20
-58.0615155119
 10
-72.6812060765
 20
-58.0611771685
 10
-72.7215292847
 20
-58.0607553365
 10
-72.7610219031
 20
-58.0601685025
 10
-72.7994158588
 20
-58.0594206496
 10
-72.8364505362
 20
-58.0585168544
 10
-72.8718745468
 20
-58.0574632516
 10
-72.9054474348
 20
-58.0562669932
 10
-72.9369413098
 20
-58.0549361991
 10
-72.9661423938
 20
-58.0534799028
 10
-72.9928524718
 20
-58.0519079895
 10
-73.0168902378
 20
-58.0502311291
 10
-73.0380925251
 20
-58.0484607042
 10
-73.056315414
 20
-58.0466087322
 10
-73.0714352091
 20
-58.0446877842
 10
-73.0833492781
 20
-58.0427108994
 10
-73.0919767492
 20
-58.0406914968
 10
-73.0972590598
 20
-58.038643284
  0
LWPOLYLINE
  5
27F
100
AcDbEntity
  8
RACCORDO
100
AcDbPolyline
 62
253
  6
CONTINUOUS
 90
17
 70
0
 10
-72.6403231011
 20
-58.1492786945
 10
-72.7215262684
 20
-58.1486026935
 10
-72.7610188283
 20
-58.1480147564
 10
-72.7994127308
 20
-58.1472651413
 10
-72.8364473616
 20
-58.1463589365
 10
-72.871871333
 20
-58.1453022932
 10
-72.9054441906
 20
-58.1441023838
 10
-72.9369380448
 20
-58.1427673531
 10
-72.9661391183
 20
-58.1413062633
 10
-72.992849197
 20
-58.139729032
 10
-73.0168869754
 20
-58.1380463655
 10
-73.0380892873
 20
-58.1362696853
 10
-73.0563122134
 20
-58.1344110516
 10
-73.0714320581
 20
-58.1324830805
 10
-73.0833461894
 20
-58.1304988589
 10
-73.0919737352
 20
-58.1284718555
 10
-73.0972561327
 20
-58.1264158295
  0
LINE
  5
280
100
AcDbEntity
  8
RACCORDO
100
AcDbLine
 62
253
  6
CONTINUOUS
 10
45.6178342106
 20
-57.3141791591
 11
45.5472860934
 21
-57.3134262153
  0
LWPOLYLINE
  5
281
100
AcDbEntity
  8
RACCORDO
100
AcDbPolyline
 62
253
  6
CONTINUOUS
 90
17
 70
0
 10
45.5472860934
 20
-57.3134262153
 10
45.4797146461
 20
-57.3121882827
 10
45.4474892183
 20
-57.311395139
 10
45.4165304304
 20
-57.310491203
 10
45.3870000609
 20
-57.3094811985
 10
45.3590524237
 20
-57.3083704032
 10
45.3328335622
 20
-57.3071646218
 10
45.3084804858
 20
-57.3058701551
 10
45.286120454
 20
-57.3044937676
 10
45.2658703116
 20
-57.3030426517
 10
45.2478358777
 20
-57.3015243904
 10
45.2321113931
 20
-57.2999469175
 10
45.2187790279
 20
-57.2983184763
 10
45.2079084516
 20
-57.2966475763
 10
45.1995564697
 20
-57.294942949
 10
45.1937667263
 20
-57.2932135021
 10
45.1905694762
 20
-57.291468273
  0
LWPOLYLINE
  5
282
100
AcDbEntity
  8
RACCORDO
100
AcDbPolyline
 62
253
  6
CONTINUOUS
 90
16
 70
0
 10
-44.3882505396
 20
-58.0889897543
 10
-44.4334415577
 20
-58.0878000841
 10
-44.4789464811
 20
-58.0840263812
 10
-44.5246119239
 20
-58.0776034452
 10
-44.5703549112
 20
-58.0684577803
 10
-44.6159254326
 20
-58.0565505689
 10
-44.6609188088
 20
-58.0419234997
 10
-44.7052118924
 20
-58.0245717422
 10
-44.7485878587
 20
-58.0045343904
 10
-44.7905396013
 20
-57.9820375406
 10
-44.8309107776
 20
-57.9572012941
 10
-44.8696001465
 20
-57.9301261563
 10
-44.9062549778
 20
-57.9011249364
 10
-44.9407272623
 20
-57.8704301662
 10
-44.9730389145
 20
-57.8381443975
 10
-45.0031417955
 20
-57.8044296689
  0
LWPOLYLINE
  5
283
100
AcDbEntity
  8
0
100
AcDbPolyline
 62
7
  6
CONTINUOUS
 90
54
 70
0
 10
4.7622484297
 20
-61.6402838735
 10
4.7912369592
 20
-61.6519129789
 10
4.8204634404
 20
-61.6658774522
 10
4.8499278732
 20
-61.6821772509
 10
4.8797321042
 20
-61.7007343737
 10
4.9097742868
 20
-61.721626717
 10
4.9397488814
 20
-61.7450880673
 10
4.9698601013
 20
-61.7711340212
 10
4.9999037331
 20
-61.7997488145
 10
5.0289615971
 20
-61.8311191658
 10
5.0571202217
 20
-61.8655432528
 10
5.0842930784
 20
-61.9027226478
 10
5.1093024032
 20
-61.9419491729
 10
5.1319907704
 20
-61.9835129415
 10
5.1525156056
 20
-62.0271236052
 10
5.1701714213
 20
-62.07120241
 10
5.1845892459
 20
-62.1157424807
 10
5.1961380511
 20
-62.1607506307
 10
5.2052192643
 20
-62.2046688239
 10
5.2117031799
 20
-62.2471252399
 10
5.2157195035
 20
-62.2884918354
 10
5.2180587793
 20
-62.3283263575
 10
5.2188419312
 20
-62.3664139783
 10
5.2179480354
 20
-62.4029696925
 10
5.2158048641
 20
-62.4381959919
 10
5.2124494359
 20
-62.4721530033
 10
5.2078447323
 20
-62.504780722
 10
5.2023074696
 20
-62.536101428
 10
5.1958498756
 20
-62.5660926891
 10
5.1884597226
 20
-62.5947770478
 10
5.1804170437
 20
-62.6222442369
 10
5.171740064
 20
-62.6484835206
 10
5.1624105584
 20
-62.6735057255
 10
5.1526538844
 20
-62.6974329182
 10
5.1424882611
 20
-62.7202759307
 10
5.1318954695
 20
-62.7420240021
 10
5.1210462105
 20
-62.7627668012
 10
5.1099628672
 20
-62.7824963673
 10
5.0986230565
 20
-62.8012207182
 10
5.087130331
 20
-62.8190534828
 10
5.0754843966
 20
-62.8360036565
 10
5.0636855474
 20
-62.8520622875
 10
5.0518382179
 20
-62.8673160767
 10
5.0399389376
 20
-62.88174194
 10
5.0279911771
 20
-62.8953629959
 10
5.0161097825
 20
-62.9083352434
 10
5.0043016611
 20
-62.9206638431
 10
4.9925599056
 20
-62.9323436578
 10
4.9809786411
 20
-62.9435152338
 10
4.9695672028
 20
-62.9541919674
 10
4.9583162555
 20
-62.964360478
 10
4.9472919181
 20
-62.9741211428
 10
4.936522148
 20
-62.9834853953
 10
4.9259789879
 20
-62.992441813
  0
LWPOLYLINE
  5
284
100
AcDbEntity
  8
0
100
AcDbPolyline
 62
7
  6
CONTINUOUS
 90
3
 70
0
 10
4.8225031649
 20
-63.0709244369
 10
4.846372805
 20
-63.0819326297
 10
4.8690418601
 20
-63.094311583
  0
LWPOLYLINE
  5
285
100
AcDbEntity
  8
RACCORDO
100
AcDbPolyline
 62
7
  6
CONTINUOUS
 90
28
 70
0
 10
-45.1000000073
 20
-57.2011337707
 10
-45.0986695527
 20
-57.2474145827
 10
-45.0946668416
 20
-57.2933561509
 10
-45.0879918741
 20
-57.3389584796
 10
-45.0785926033
 20
-57.3844361332
 10
-45.0665210762
 20
-57.4295745546
 10
-45.0519334333
 20
-57.4737300758
 10
-45.0348306086
 20
-57.5167939844
 10
-45.0152116682
 20
-57.5588750214
 10
-44.9932299505
 20
-57.5996557131
 10
-44.9688827977
 20
-57.6391393026
 10
-44.9421728676
 20
-57.6773225807
 10
-44.9132614719
 20
-57.7138784037
 10
-44.8820162511
 20
-57.7488849084
 10
-44.8485695647
 20
-57.7822639956
 10
-44.8134798018
 20
-57.8134541764
 10
-44.7768202069
 20
-57.8423254406
 10
-44.7385175355
 20
-57.8690078429
 10
-44.698910443
 20
-57.8933299971
 10
-44.6580045508
 20
-57.9152856849
 10
-44.6157942374
 20
-57.9348811613
 10
-44.5726012943
 20
-57.9519637498
 10
-44.5283265815
 20
-57.9665338239
 10
-44.483069239
 20
-57.9785910371
 10
-44.4374484785
 20
-57.9879816308
 10
-44.3916707038
 20
-57.9946543575
 10
-44.345529511
 20
-57.9986604794
 10
-44.2990249002
 20
-58.0
  0
LINE
  5
286
100
AcDbEntity
  8
RACCORDO
100
AcDbLine
 62
253
  6
CONTINUOUS
 10
-45.6898862982
 20
-57.3144315998
 11
-45.6898862982
 21
57.3144315998
  0
LINE
  5
287
100
AcDbEntity
  8
RACCORDO
100
AcDbLine
 62
253
  6
CONTINUOUS
 10
-45.1905731615
 20
-57.2914852326
 11
-45.1905731577
 21
57.2914765531
  0
LINE
  5
288
100
AcDbEntity
  8
RACCORDO
100
AcDbLine
 62
7
  6
CONTINUOUS
 10
-45.1000000073
 20
57.2011337707
 11
-45.1
 21
35.5
  0
LINE
  5
289
100
AcDbEntity
  8
DRAFT
100
AcDbLine
 62
7
  6
CONTINUOUS
 10
-45.1
 20
35.5
 11
-45.1
 21
-35.5
  0
LINE
  5
28A
100
AcDbEntity
  8
RACCORDO
100
AcDbLine
 62
7
  6
CONTINUOUS
 10
-45.1
 20
-35.5
 11
-45.1000000073
 21
-57.2011337707
  0
LWPOLYLINE
  5
28B
100
AcDbEntity
  8
RACCORDO
100
AcDbPolyline
 62
253
  6
CONTINUOUS
 90
13
 70
0
 10
-45.6898862982
 20
57.3144315998
 10
-45.6879954779
 20
57.3878365556
 10
-45.6817195949
 20
57.4612605084
 10
-45.6710586492
 20
57.534703456
 10
-45.6559921482
 20
57.608594872
 10
-45.6365405845
 20
57.6825052709
 10
-45.612765436
 20
57.7551462425
 10
-45.5844534978
 20
57.8265475069
 10
-45.5518179748
 20
57.8966794002
 10
-45.5155599595
 20
57.9641644986
 10
-45.4759131494
 20
58.0285437128
 10
-45.4326438471
 20
58.0902762524
 10
-45.3857520525
 20
58.1493621709
  0
LWPOLYLINE
  5
28C
100
AcDbEntity
  8
RACCORDO
100
AcDbPolyline
 62
253
  6
CONTINUOUS
 90
13
 70
0
 10
-45.1905731518
 20
57.2914765472
 10
-45.1893107141
 20
57.3363872966
 10
-45.185463545
 20
57.3815983144
 10
-45.1789675467
 20
57.4269574815
 10
-45.1697460101
 20
57.4723962565
 10
-45.1577636094
 20
57.5176528565
 10
-45.1430803318
 20
57.5622865882
 10
-45.1256972706
 20
57.6061810037
 10
-45.1056622991
 20
57.649122287
 10
-45.0832390026
 20
57.6905685611
 10
-45.0586275824
 20
57.7302762215
 10
-45.0318857818
 20
57.7682639102
 10
-45.0031417955
 20
57.8044296689
  0
LWPOLYLINE
  5
28D
100
AcDbEntity
  8
0
100
AcDbPolyline
 62
7
  6
CONTINUOUS
 90
24
 70
0
 10
4.8690418601
 20
-63.094311583
 10
4.8905103303
 20
-63.1080612719
 10
4.910788525
 20
-63.123417321
 10
4.9298661348
 20
-63.140144044
 10
4.9477122311
 20
-63.1575344629
 10
4.9642246269
 20
-63.1754709187
 10
4.9795055093
 20
-63.1940710377
 10
4.9938305099
 20
-63.2129807962
 10
5.0072092176
 20
-63.232128783
 10
5.0196320436
 20
-63.2515863928
 10
5.0313458536
 20
-63.2712138234
 10
5.0423915901
 20
-63.2910220118
 10
5.0527283106
 20
-63.3110000104
 10
5.0624800539
 20
-63.3309751994
 10
5.0716541527
 20
-63.3509303471
 10
5.0802432741
 20
-63.370882685
 10
5.0883494583
 20
-63.3907112968
 10
5.0959719898
 20
-63.4103840147
 10
5.103111584
 20
-63.4299330139
 10
5.1098724269
 20
-63.4493338962
 10
5.1162410258
 20
-63.4685525569
 10
5.1222308733
 20
-63.4876231095
 10
5.1279866333
 20
-63.5066234819
 10
5.1335015456
 20
-63.5255502982
  0
LINE
  5
28E
100
AcDbEntity
  8
RACCORDO
100
AcDbLine
 62
253
  6
CONTINUOUS
 10
-44.3882413601
 20
58.6148732437
 11
-44.3882413601
 21
58.0889897388
  0
LINE
  5
28F
100
AcDbEntity
  8
RACCORDO
100
AcDbLine
 62
253
  6
CONTINUOUS
 10
-44.3882413601
 20
-58.6148732437
 11
-44.3882413602
 21
-58.0889897388
  0
LINE
  5
290
100
AcDbEntity
  8
RACCORDO
100
AcDbLine
 62
253
  6
CONTINUOUS
 10
45.1
 20
-35.5
 11
73.25
 21
-35.5
  0
LINE
  5
291
100
AcDbEntity
  8
RACCORDO
100
AcDbLine
 62
253
  6
CONTINUOUS
 10
-45.1
 20
-35.5
 11
-73.25
 21
-35.5
  0
LINE
  5
292
100
AcDbEntity
  8
0
100
AcDbLine
 62
7
  6
CONTINUOUS
 10
-1.400068
 20
-62.549647
 11
-0.714487
 21
-64.377801
  0
LINE
  5
293
100
AcDbEntity
  8
0
100
AcDbLine
 62
7
  6
CONTINUOUS
 10
-1.24855
 20
-61.578098
 11
-0.670314
 21
-63.132502
  0
LINE
  5
294
100
AcDbEntity
  8
0
100
AcDbLine
 62
7
  6
CONTINUOUS
 10
-5.503668
 20
-61.578098
 11
-4.616107
 21
-64.377801
  0
LINE
  5
295
100
AcDbEntity
  8
RACCORDO
100
AcDbLine
 62
253
  6
CONTINUOUS
 10
45.2757711174
 20
58.0560855026
 11
45.223698145
 21
58.0111193461
  0
LINE
  5
296
100
AcDbEntity
  8
RACCORDO
100
AcDbLine
 62
253
  6
CONTINUOUS
 10
45.3301731137
 20
58.1024940001
 11
45.2757711174
 21
58.0560855026
  0
LINE
  5
297
100
AcDbEntity
  8
RACCORDO
100
AcDbLine
 62
253
  6
CONTINUOUS
 10
45.3857520525
 20
58.1493620372
 11
45.3301731137
 21
58.1024940001
  0
LINE
  5
298
100
AcDbEntity
  8
RACCORDO
100
AcDbLine
 62
253
  6
CONTINUOUS
 10
45.3857520525
 20
-58.149362012
 11
45.3301730944
 21
-58.1024939576
  0
LINE
  5
299
100
AcDbEntity
  8
RACCORDO
100
AcDbLine
 62
253
  6
CONTINUOUS
 10
45.3301730944
 20
-58.1024939576
 11
45.2757710692
 21
-58.0560854358
  0
LINE
  5
29A
100
AcDbEntity
  8
RACCORDO
100
AcDbLine
 62
253
  6
CONTINUOUS
 10
45.2757710692
 20
-58.0560854358
 11
45.2236980611
 21
-58.0111192502
  0
LWPOLYLINE
  5
29B
100
AcDbEntity
  8
0
100
AcDbPolyline
 62
7
  6
CONTINUOUS
 90
19
 70
0
 10
4.5414020602
 20
-63.528662948
 10
4.5320092622
 20
-63.5056134238
 10
4.5214470645
 20
-63.4832792965
 10
4.5097154672
 20
-63.4616605905
 10
4.4967845208
 20
-63.440645065
 10
4.4826841747
 20
-63.4203450048
 10
4.4675042768
 20
-63.4010972317
 10
4.45125649
 20
-63.3828875545
 10
4.4339291513
 20
-63.3657302234
 10
4.41557712
 20
-63.35000474
 10
4.3961274343
 20
-63.3357283601
 10
4.375653056
 20
-63.3228838923
 10
4.3544277292
 20
-63.3117991784
 10
4.3324105677
 20
-63.3026113244
 10
4.3096424576
 20
-63.2951832785
 10
4.2865198017
 20
-63.2894316449
 10
4.2631747343
 20
-63.2853286329
 10
4.2394751212
 20
-63.2829020575
 10
4.2154209623
 20
-63.2821519248
  0
LINE
  5
29C
100
AcDbEntity
  8
0
100
AcDbLine
 62
7
  6
CONTINUOUS
 10
2.28939
 20
-61.578098
 11
3.148408
 21
-64.377801
  0
LINE
  5
29D
100
AcDbEntity
  8
0
100
AcDbLine
 62
7
  6
CONTINUOUS
 10
-4.86882
 20
-61.578098
 11
-4.335146
 21
-63.50522
  0
LINE
  5
29E
100
AcDbEntity
  8
0
100
AcDbLine
 62
7
  6
CONTINUOUS
 10
2.381074
 20
-63.818881
 11
2.532466
 21
-64.377801
  0
LINE
  5
29F
100
AcDbEntity
  8
RACCORDO
100
AcDbLine
 62
253
  6
CONTINUOUS
 10
45.190573162
 20
57.2914862397
 11
45.1000000073
 21
57.2011337707
  0
LINE
  5
2A0
100
AcDbEntity
  8
RACCORDO
100
AcDbLine
 62
253
  6
CONTINUOUS
 10
44.3882508768
 20
58.0889897388
 11
44.2990249002
 21
58.0
  0
LWPOLYLINE
  5
2A1
100
AcDbEntity
  8
RACCORDO
100
AcDbPolyline
 62
253
  6
CONTINUOUS
 90
12
 70
0
 10
45.130877634
 20
57.9292723731
 10
45.1107577947
 20
57.9111338595
 10
45.0920957732
 20
57.8941248453
 10
45.0749905029
 20
57.8783355008
 10
45.0595326644
 20
57.8638495303
 10
45.0458042047
 20
57.8507437287
 10
45.0338779028
 20
57.8390875741
 10
45.0238169839
 20
57.8289428595
 10
45.0156747843
 20
57.8203633653
 10
45.0094944683
 20
57.8133945742
 10
45.0053087998
 20
57.80807343
 10
45.0031399685
 20
57.8044281419
  0
LINE
  5
2A2
100
AcDbEntity
  8
RACCORDO
100
AcDbLine
 62
253
  6
CONTINUOUS
 10
45.1750569559
 20
57.9685477876
 11
45.130877634
 21
57.9292723731
  0
LINE
  5
2A3
100
AcDbEntity
  8
RACCORDO
100
AcDbLine
 62
253
  6
CONTINUOUS
 10
45.223698145
 20
58.0111193461
 11
45.1750569559
 21
57.9685477876
  0
LINE
  5
2A4
100
AcDbEntity
  8
RACCORDO
100
AcDbLine
 62
253
  6
CONTINUOUS
 10
45.2236980611
 20
-58.0111192502
 11
45.1750568321
 21
-57.96854766
  0
LWPOLYLINE
  5
2A5
100
AcDbEntity
  8
RACCORDO
100
AcDbPolyline
 62
253
  6
CONTINUOUS
 90
13
 70
0
 10
45.1750568321
 20
-57.96854766
 10
45.1308774687
 20
-57.9292722131
 10
45.1107576088
 20
-57.9111336839
 10
45.0920955672
 20
-57.8941246545
 10
45.0749902777
 20
-57.8783352957
 10
45.059532421
 20
-57.8638493119
 10
45.0458039445
 20
-57.8507434982
 10
45.0338776273
 20
-57.8390873329
 10
45.0238166949
 20
-57.8289426091
 10
45.0156744836
 20
-57.8203631073
 10
45.009494158
 20
-57.8133943104
 10
45.0053084821
 20
-57.8080731623
 10
45.0031396455
 20
-57.804427872
  0
LINE
  5
2A6
100
AcDbEntity
  8
RACCORDO
100
AcDbLine
 62
253
  6
CONTINUOUS
 10
44.38826447
 20
-58.0889897388
 11
44.2990249002
 21
-58.0
  0
LINE
  5
2A7
100
AcDbEntity
  8
RACCORDO
100
AcDbLine
 62
253
  6
CONTINUOUS
 10
45.1905731579
 20
-57.2914770516
 11
45.1000000073
 21
-57.2011337707
  0
LWPOLYLINE
  5
2A8
100
AcDbEntity
  8
0
100
AcDbPolyline
 62
7
  6
CONTINUOUS
 90
8
 70
0
 10
4.6307922285
 20
-63.8028596327
 10
4.6191206332
 20
-63.763349682
 10
4.6071960106
 20
-63.7239598963
 10
4.5950180765
 20
-63.6846942212
 10
4.5823712705
 20
-63.6455335883
 10
4.569183739
 20
-63.6064716465
 10
4.5555273356
 20
-63.5675147636
 10
4.5414020602
 20
-63.528662948
  0
LINE
  5
2A9
100
AcDbEntity
  8
0
100
AcDbLine
 62
7
  6
CONTINUOUS
 10
4.7970156219
 20
-64.3778013544
 11
4.6993624901
 21
-64.0430823658
  0
LWPOLYLINE
  5
2AA
100
AcDbEntity
  8
0
100
AcDbPolyline
 62
7
  6
CONTINUOUS
 90
4
 70
0
 10
4.6993624901
 20
-64.0430823658
 10
4.6762592314
 20
-63.9623179913
 10
4.6649440137
 20
-63.9222228657
 10
4.6307922285
 20
-63.8028596327
  0
LINE
  5
2AB
100
AcDbEntity
  8
0
100
AcDbLine
 62
7
  6
CONTINUOUS
 10
5.1335015456
 20
-63.5255502982
 11
5.143994051
 21
-63.5632814571
  0
LINE
  5
2AC
100
AcDbEntity
  8
0
100
AcDbLine
 62
7
  6
CONTINUOUS
 10
5.143994051
 20
-63.5632814571
 11
5.1543199436
 21
-63.6011428323
  0
LINE
  5
2AD
100
AcDbEntity
  8
0
100
AcDbLine
 62
7
  6
CONTINUOUS
 10
5.1543199436
 20
-63.6011428323
 11
5.2290364127
 21
-63.8812615013
  0
LINE
  5
2AE
100
AcDbEntity
  8
0
100
AcDbLine
 62
7
  6
CONTINUOUS
 10
5.2290364127
 20
-63.8812615013
 11
5.3591482119
 21
-64.3778013544
  0
LINE
  5
2AF
100
AcDbEntity
  8
0
100
AcDbLine
 62
7
  6
CONTINUOUS
 10
1.995737
 20
-62.347385
 11
2.26428
 21
-63.386391
  0
LINE
  5
2B0
100
AcDbEntity
  8
0
100
AcDbLine
 62
7
  6
CONTINUOUS
 10
0.492308
 20
-61.578098
 11
0.754112
 21
-64.377801
  0
LINE
  5
2B1
100
AcDbEntity
  8
0
100
AcDbLine
 62
7
  6
CONTINUOUS
 10
0.062337
 20
-62.557269
 11
0.182406
 21
-64.377801
  0
LINE
  5
2B2
100
AcDbEntity
  8
0
100
AcDbLine
 62
7
  6
CONTINUOUS
 10
-2.984285
 20
-61.57793
 11
-2.984285
 21
-64.377801
  0
LINE
  5
2B3
100
AcDbEntity
  8
0
100
AcDbLine
 62
7
  6
CONTINUOUS
 10
-2.399877
 20
-61.57793
 11
-2.399877
 21
-64.377801
  0
LINE
  5
2B4
100
AcDbEntity
  8
RACCORDO
100
AcDbLine
 62
253
  6
CONTINUOUS
 10
73.0945964631
 20
80.8453434748
 11
73.2499995329
 21
81.0035151779
  0
LINE
  5
2B5
100
AcDbEntity
  8
RACCORDO
100
AcDbLine
 62
253
  6
CONTINUOUS
 10
72.1067948957
 20
81.8331025978
 11
72.2708637012
 21
82.0
  0
LINE
  5
2B6
100
AcDbEntity
  8
RACCORDO
100
AcDbLine
 62
253
  6
CONTINUOUS
 10
72.1067948957
 20
-81.8331025978
 11
72.2708637012
 21
-82.0
  0
LINE
  5
2B7
100
AcDbEntity
  8
RACCORDO
100
AcDbLine
 62
253
  6
CONTINUOUS
 10
73.0945964631
 20
-80.8453434753
 11
73.2499995329
 21
-81.0035151779
  0
LWPOLYLINE
  5
2B8
100
AcDbEntity
  8
0
100
AcDbPolyline
 62
7
  6
CONTINUOUS
 90
22
 70
0
 10
4.6706521448
 20
-62.3887857201
 10
4.6695984127
 20
-62.3661169237
 10
4.6669640415
 20
-62.3433796771
 10
4.6627490312
 20
-62.3205739788
 10
4.656980917
 20
-62.2975631589
 10
4.6496321637
 20
-62.2744838811
 10
4.6406201655
 20
-62.2517461559
 10
4.6299269662
 20
-62.229293091
 10
4.6175705221
 20
-62.2071815996
 10
4.6035220959
 20
-62.1859924307
 10
4.5876583482
 20
-62.1657370934
 10
4.5701026183
 20
-62.1464041314
 10
4.5511961868
 20
-62.1285398748
 10
4.5308536816
 20
-62.1122835908
 10
4.5091604749
 20
-62.0974960825
 10
4.4867139629
 20
-62.0843059958
 10
4.4635983459
 20
-62.0727709602
 10
4.4397294237
 20
-62.0628334002
 10
4.4154519915
 20
-62.0544491518
 10
4.3908809811
 20
-62.0476035039
 10
4.3659014606
 20
-62.0423111993
 10
4.3405134302
 20
-62.0385722489
  0
LINE
  5
2B9
100
AcDbEntity
  8
0
100
AcDbLine
 62
7
  6
CONTINUOUS
 10
3.3200188023
 20
-61.610807341
 11
3.3200188023
 21
-64.3778013544
  0
LINE
  5
2BA
100
AcDbEntity
  8
0
100
AcDbLine
 62
7
  6
CONTINUOUS
 10
3.8826972541
 20
-62.0550547959
 11
3.8826972541
 21
-62.8236280866
  0
LINE
  5
2BB
100
AcDbEntity
  8
0
100
AcDbLine
 62
7
  6
CONTINUOUS
 10
3.9020753449
 20
-63.2821519248
 11
3.9020753449
 21
-64.3778013544
  0
LINE
  5
2BC
100
AcDbEntity
  8
0
100
AcDbLine
 62
7
  6
CONTINUOUS
 10
4.8225031649
 20
-63.054380628
 11
4.8225031649
 21
-63.0709244369
  0
LINE
  5
2BD
100
AcDbEntity
  8
0
100
AcDbLine
 62
7
  6
CONTINUOUS
 10
-1.400068
 20
-62.549647
 11
-1.526183
 21
-64.377801
  0
LINE
  5
2BE
100
AcDbEntity
  8
0
100
AcDbLine
 62
7
  6
CONTINUOUS
 10
-1.832475
 20
-61.578098
 11
-2.085272
 21
-64.377801
  0
LINE
  5
2BF
100
AcDbEntity
  8
RACCORDO
100
AcDbLine
 62
253
  6
CONTINUOUS
 10
-73.0945964631
 20
-80.8453434748
 11
-73.2499995329
 21
-81.0035151779
  0
LINE
  5
2C0
100
AcDbEntity
  8
RACCORDO
100
AcDbLine
 62
253
  6
CONTINUOUS
 10
-72.1067948957
 20
-81.8331025978
 11
-72.2708637012
 21
-82.0
  0
LINE
  5
2C1
100
AcDbEntity
  8
RACCORDO
100
AcDbLine
 62
253
  6
CONTINUOUS
 10
-72.1067948957
 20
81.8331025978
 11
-72.2708637012
 21
82.0
  0
LINE
  5
2C2
100
AcDbEntity
  8
RACCORDO
100
AcDbLine
 62
253
  6
CONTINUOUS
 10
-73.0945964631
 20
80.8453434754
 11
-73.2499995329
 21
81.0035151779
  0
LINE
  5
2C3
100
AcDbEntity
  8
0
100
AcDbLine
 62
7
  6
CONTINUOUS
 10
-3.785169
 20
-61.578098
 11
-4.335146
 21
-63.50522
  0
LINE
  5
2C4
100
AcDbEntity
  8
0
100
AcDbLine
 62
7
  6
CONTINUOUS
 10
-3.20116
 20
-61.578098
 11
-4.101097
 21
-64.377801
  0
LINE
  5
2C5
100
AcDbEntity
  8
RACCORDO
100
AcDbLine
 62
253
  6
CONTINUOUS
 10
-45.1905731615
 20
-57.2914852326
 11
-45.1000000073
 21
-57.2011337707
  0
LINE
  5
2C6
100
AcDbEntity
  8
RACCORDO
100
AcDbLine
 62
253
  6
CONTINUOUS
 10
-44.388250524
 20
-58.0889897388
 11
-44.2990249002
 21
-58.0
  0
LWPOLYLINE
  5
2C7
100
AcDbEntity
  8
RACCORDO
100
AcDbPolyline
 62
253
  6
CONTINUOUS
 90
12
 70
0
 10
-45.1308776448
 20
-57.9292723829
 10
-45.1107578066
 20
-57.9111338703
 10
-45.0920957863
 20
-57.894124857
 10
-45.0749905171
 20
-57.8783355133
 10
-45.0595326795
 20
-57.8638495435
 10
-45.0458042207
 20
-57.8507437426
 10
-45.0338779197
 20
-57.8390875886
 10
-45.0238170015
 20
-57.8289428744
 10
-45.0156748024
 20
-57.8203633806
 10
-45.0094944868
 20
-57.8133945898
 10
-45.0053088186
 20
-57.8080734458
 10
-45.0031399873
 20
-57.8044281576
  0
LINE
  5
2C8
100
AcDbEntity
  8
RACCORDO
100
AcDbLine
 62
253
  6
CONTINUOUS
 10
-45.1750569642
 20
-57.9685477956
 11
-45.1308776448
 21
-57.9292723829
  0
LINE
  5
2C9
100
AcDbEntity
  8
RACCORDO
100
AcDbLine
 62
253
  6
CONTINUOUS
 10
-45.2236981508
 20
-58.0111193523
 11
-45.1750569642
 21
-57.9685477956
  0
LINE
  5
2CA
100
AcDbEntity
  8
RACCORDO
100
AcDbLine
 62
253
  6
CONTINUOUS
 10
-45.2757711208
 20
-58.0560855071
 11
-45.2236981508
 21
-58.0111193523
  0
LINE
  5
2CB
100
AcDbEntity
  8
RACCORDO
100
AcDbLine
 62
253
  6
CONTINUOUS
 10
-45.3301731152
 20
-58.1024940032
 11
-45.2757711208
 21
-58.0560855071
  0
LINE
  5
2CC
100
AcDbEntity
  8
RACCORDO
100
AcDbLine
 62
253
  6
CONTINUOUS
 10
-45.3857520525
 20
-58.1493620393
 11
-45.3301731152
 21
-58.1024940032
  0
LINE
  5
2CD
100
AcDbEntity
  8
RACCORDO
100
AcDbLine
 62
253
  6
CONTINUOUS
 10
-45.3857520525
 20
58.1493621389
 11
-45.3301732187
 21
58.1024941697
  0
LINE
  5
2CE
100
AcDbEntity
  8
RACCORDO
100
AcDbLine
 62
253
  6
CONTINUOUS
 10
-45.3301732187
 20
58.1024941697
 11
-45.2757713647
 21
58.0560857733
  0
LINE
  5
2CF
100
AcDbEntity
  8
RACCORDO
100
AcDbLine
 62
253
  6
CONTINUOUS
 10
-45.2757713647
 20
58.0560857733
 11
-45.2236985605
 21
58.0111197418
  0
LINE
  5
2D0
100
AcDbEntity
  8
RACCORDO
100
AcDbLine
 62
253
  6
CONTINUOUS
 10
-45.2236985605
 20
58.0111197418
 11
-45.1750575532
 21
57.9685483222
  0
LWPOLYLINE
  5
2D1
100
AcDbEntity
  8
RACCORDO
100
AcDbPolyline
 62
253
  6
CONTINUOUS
 90
13
 70
0
 10
-45.1750575532
 20
57.9685483222
 10
-45.1308784152
 20
57.9292730507
 10
-45.1107586652
 20
57.9111346073
 10
-45.0920967294
 20
57.8941256609
 10
-45.0749915401
 20
57.8783363808
 10
-45.0595337768
 20
57.8638504703
 10
-45.0458053854
 20
57.8507447234
 10
-45.033879144
 20
57.8390886173
 10
-45.0238182771
 20
57.8289439445
 10
-45.0156761201
 20
57.8203644846
 10
-45.009495837
 20
57.8133957199
 10
-45.0053101911
 20
57.8080745937
 10
-45.0031413718
 20
57.8044293147
  0
LINE
  5
2D2
100
AcDbEntity
  8
RACCORDO
100
AcDbLine
 62
253
  6
CONTINUOUS
 10
-45.1905731577
 20
57.2914765531
 11
-45.1000000073
 21
57.2011337707
  0
LINE
  5
2D3
100
AcDbEntity
  8
RACCORDO
100
AcDbLine
 62
253
  6
CONTINUOUS
 10
-44.3882395843
 20
58.0889897388
 11
-44.2990249002
 21
58.0
  0
LINE
  5
2D4
100
AcDbEntity
  8
0
100
AcDbLine
 62
7
  6
CONTINUOUS
 10
1.995737
 20
-62.347385
 11
1.704751
 21
-63.386391
  0
LINE
  5
2D5
100
AcDbEntity
  8
0
100
AcDbLine
 62
7
  6
CONTINUOUS
 10
1.585207
 20
-63.818881
 11
1.423947
 21
-64.377801
  0
LINE
  5
2D6
100
AcDbEntity
  8
0
100
AcDbLine
 62
7
  6
CONTINUOUS
 10
1.724045
 20
-61.578098
 11
0.84588
 21
-64.377801
  0
LINE
  5
2D7
100
AcDbEntity
  8
0
100
AcDbLine
 62
7
  6
CONTINUOUS
 10
-0.085906
 20
-61.578098
 11
-0.670314
 21
-63.132502
  0
LINE
  5
2D8
100
AcDbEntity
  8
0
100
AcDbLine
 62
7
  6
CONTINUOUS
 10
0.062337
 20
-62.557269
 11
-0.632524
 21
-64.377801
  0
LINE
  5
2D9
100
AcDbEntity
  8
RACCORDO
100
AcDbLine
 62
253
  6
CONTINUOUS
 10
-73.25
 20
35.5
 11
-45.1
 21
35.5
  0
LINE
  5
2DA
100
AcDbEntity
  8
RACCORDO
100
AcDbLine
 62
253
  6
CONTINUOUS
 10
45.1
 20
35.5
 11
73.25
 21
35.5
  0
LINE
  5
2DB
100
AcDbEntity
  8
RACCORDO
100
AcDbLine
 62
253
  6
CONTINUOUS
 10
44.3882413601
 20
58.6148732437
 11
44.3882413602
 21
58.0889897388
  0
LINE
  5
2DC
100
AcDbEntity
  8
RACCORDO
100
AcDbLine
 62
253
  6
CONTINUOUS
 10
44.3882413601
 20
-58.6148732437
 11
44.3882413601
 21
-58.0889897388
  0
LINE
  5
2DD
100
AcDbEntity
  8
RACCORDO
100
AcDbLine
 62
7
  6
CONTINUOUS
 10
45.1000000073
 20
-57.2011337707
 11
45.1
 21
-35.5
  0
LINE
  5
2DE
100
AcDbEntity
  8
DRAFT
100
AcDbLine
 62
7
  6
CONTINUOUS
 10
45.1
 20
-35.5
 11
45.1
 21
35.5
  0
LINE
  5
2DF
100
AcDbEntity
  8
RACCORDO
100
AcDbLine
 62
7
  6
CONTINUOUS
 10
45.1
 20
35.5
 11
45.1000000073
 21
57.2011337707
  0
LINE
  5
2E0
100
AcDbEntity
  8
RACCORDO
100
AcDbLine
 62
253
  6
CONTINUOUS
 10
45.190573162
 20
57.2914862397
 11
45.1905731579
 21
-57.2914770516
  0
LINE
  5
2E1
100
AcDbEntity
  8
RACCORDO
100
AcDbLine
 62
253
  6
CONTINUOUS
 10
45.6898862982
 20
57.3144315998
 11
45.6898862982
 21
-57.3144315998
  0
LWPOLYLINE
  5
2E2
100
AcDbEntity
  8
RACCORDO
100
AcDbPolyline
 62
7
  6
CONTINUOUS
 90
28
 70
0
 10
45.1000000073
 20
57.2011337707
 10
45.0986695527
 20
57.2474145827
 10
45.0946668416
 20
57.2933561509
 10
45.0879918741
 20
57.3389584796
 10
45.0785926033
 20
57.3844361332
 10
45.0665210762
 20
57.4295745546
 10
45.0519334333
 20
57.4737300758
 10
45.0348306086
 20
57.5167939844
 10
45.0152116682
 20
57.5588750214
 10
44.9932299505
 20
57.5996557131
 10
44.9688827977
 20
57.6391393026
 10
44.9421728676
 20
57.6773225807
 10
44.9132614719
 20
57.7138784037
 10
44.8820162511
 20
57.7488849084
 10
44.8485695647
 20
57.7822639956
 10
44.8134798018
 20
57.8134541764
 10
44.7768202069
 20
57.8423254406
 10
44.7385175355
 20
57.8690078429
 10
44.698910443
 20
57.8933299971
 10
44.6580045508
 20
57.9152856849
 10
44.6157942374
 20
57.9348811613
 10
44.5726012943
 20
57.9519637498
 10
44.5283265815
 20
57.9665338239
 10
44.483069239
 20
57.9785910371
 10
44.4374484785
 20
57.9879816308
 10
44.3916707038
 20
57.9946543575
 10
44.345529511
 20
57.9986604794
 10
44.2990249002
 20
58.0
  0
LWPOLYLINE
  5
2E3
100
AcDbEntity
  8
RACCORDO
100
AcDbPolyline
 62
253
  6
CONTINUOUS
 90
13
 70
0
 10
45.6898862982
 20
-57.3144315998
 10
45.6879961121
 20
-57.3878457058
 10
45.6817180758
 20
-57.4612822232
 10
45.6710521893
 20
-57.5347411495
 10
45.6559763211
 20
-57.6086563258
 10
45.6365126027
 20
-57.6825938991
 10
45.6127274288
 20
-57.7552523569
 10
45.5844076185
 20
-57.8266563631
 10
45.5517663527
 20
-57.8967813107
 10
45.5155095694
 20
-57.9642518437
 10
45.4758725813
 20
-58.0286095622
 10
45.4326200757
 20
-58.0903129867
 10
45.3857520526
 20
-58.1493621709
  0
LWPOLYLINE
  5
2E4
100
AcDbEntity
  8
RACCORDO
100
AcDbPolyline
 62
253
  6
CONTINUOUS
 90
13
 70
0
 10
45.1905731516
 20
-57.2914770454
 10
45.1893106278
 20
-57.336388913
 10
45.185462849
 20
-57.381604461
 10
45.178965129
 20
-57.4269714766
 10
45.1697394557
 20
-57.4724242975
 10
45.1577502817
 20
-57.5176977687
 10
45.1430602509
 20
-57.5623420419
 10
45.1256728896
 20
-57.6062376009
 10
45.1056360639
 20
-57.6491743995
 10
45.0832137071
 20
-57.6906121721
 10
45.0586064793
 20
-57.7303081433
 10
45.0318729255
 20
-57.7682810962
 10
45.0031417955
 20
-57.8044296689
  0
LWPOLYLINE
  5
2E5
100
AcDbEntity
  8
0
100
AcDbPolyline
 62
7
  6
CONTINUOUS
 90
10
 70
0
 10
4.9259789879
 20
-62.992441813
 10
4.9055949979
 20
-63.0094191961
 10
4.8957541681
 20
-63.0174401692
 10
4.8858771634
 20
-63.0249161712
 10
4.8759883153
 20
-63.0319106118
 10
4.8660632923
 20
-63.0383600924
 10
4.8557840684
 20
-63.0438711719
 10
4.8450446349
 20
-63.0483127093
 10
4.8339510004
 20
-63.0518158598
 10
4.8225031649
 20
-63.054380628
  0
LWPOLYLINE
  5
2E6
100
AcDbEntity
  8
RACCORDO
100
AcDbPolyline
 62
253
  6
CONTINUOUS
 90
15
 70
0
 10
45.4474905251
 20
57.3113952158
 10
45.4165319756
 20
57.3104912667
 10
45.387001846
 20
57.3094812503
 10
45.3590544469
 20
57.3083704444
 10
45.332835818
 20
57.3071646536
 10
45.3084829656
 20
57.3058701788
 10
45.2861231461
 20
57.3044937843
 10
45.2658732013
 20
57.3030426625
 10
45.2478389477
 20
57.3015243962
 10
45.2321146239
 20
57.2999469192
 10
45.2187823977
 20
57.2983184746
 10
45.2079119369
 20
57.296647572
 10
45.1995600456
 20
57.2949429426
 10
45.1937703666
 20
57.293213494
 10
45.1905731541
 20
57.2914682636
  0
LWPOLYLINE
  5
2E7
100
AcDbEntity
  8
RACCORDO
100
AcDbPolyline
 62
7
  6
CONTINUOUS
 90
28
 70
0
 10
-44.2990249002
 20
58.0
 10
-44.3455000297
 20
57.9986673782
 10
-44.3916291042
 20
57.9946633764
 10
-44.4374121239
 20
57.987987991
 10
-44.4830650236
 20
57.9785880677
 10
-44.5283718683
 20
57.9665167462
 10
-44.5726848538
 20
57.9519334615
 10
-44.6158935571
 20
57.934839603
 10
-44.6581084011
 20
57.9152337547
 10
-44.6990128494
 20
57.8932711415
 10
-44.7386113887
 20
57.8689480124
 10
-44.7768995323
 20
57.842268082
 10
-44.8135472841
 20
57.8133977733
 10
-44.8486311626
 20
57.7822057828
 10
-44.8820746494
 20
57.7488233694
 10
-44.9133181925
 20
57.7138108048
 10
-44.9422307492
 20
57.6772427986
 10
-44.9689433623
 20
57.6390446035
 10
-44.9932896082
 20
57.5995523151
 10
-45.0152642012
 20
57.5587705038
 10
-45.034872427
 20
57.5166945655
 10
-45.0519637192
 20
57.4736468425
 10
-45.0665380637
 20
57.4295297145
 10
-45.0785954745
 20
57.3844407738
 10
-45.0879854268
 20
57.3389951942
 10
-45.0946577455
 20
57.2933980345
 10
-45.0986626057
 20
57.2474442283
 10
-45.1000000073
 20
57.2011337707
  0
LINE
  5
2E8
100
AcDbEntity
  8
RACCORDO
100
AcDbLine
 62
253
  6
CONTINUOUS
 10
45.5130391667
 20
57.3128665965
 11
45.4474905251
 21
57.3113952158
  0
LWPOLYLINE
  5
2E9
100
AcDbEntity
  8
RACCORDO
100
AcDbPolyline
 62
253
  6
CONTINUOUS
 90
16
 70
0
 10
-72.7215292848
 20
58.0607439984
 10
-72.7610219032
 20
58.0601571645
 10
-72.7994158588
 20
58.0594093119
 10
-72.8364505363
 20
58.058505517
 10
-72.8718745468
 20
58.0574519147
 10
-72.9054474348
 20
58.0562556567
 10
-72.9369413098
 20
58.0549248632
 10
-72.9661423938
 20
58.0534685676
 10
-72.9928524718
 20
58.0518966549
 10
-73.0168902378
 20
58.0502197954
 10
-73.0380925251
 20
58.0484493713
 10
-73.0563154141
 20
58.0465974001
 10
-73.0714352091
 20
58.0446764531
 10
-73.0833492782
 20
58.0426995693
 10
-73.0919767493
 20
58.0406801677
 10
-73.0972590599
 20
58.0386319559
  0
LWPOLYLINE
  5
2EA
100
AcDbEntity
  8
RACCORDO
100
AcDbPolyline
 62
253
  6
CONTINUOUS
 90
16
 70
0
 10
-72.7215262719
 20
58.1486026945
 10
-72.7610188329
 20
58.1480147575
 10
-72.7994127364
 20
58.1472651423
 10
-72.836447368
 20
58.1463589374
 10
-72.8718713401
 20
58.1453022941
 10
-72.9054441982
 20
58.1441023846
 10
-72.9369380528
 20
58.1427673539
 10
-72.9661391265
 20
58.141306264
 10
-72.9928492052
 20
58.1397290326
 10
-73.0168869833
 20
58.138046366
 10
-73.0380892947
 20
58.1362696858
 10
-73.0563122201
 20
58.1344110519
 10
-73.0714320639
 20
58.1324830808
 10
-73.083346194
 20
58.1304988591
 10
-73.0919737385
 20
58.1284718556
 10
-73.0972561343
 20
58.1264158295
  0
LINE
  5
2EB
100
AcDbEntity
  8
RACCORDO
100
AcDbLine
 62
253
  6
CONTINUOUS
 10
45.582279456
 20
57.3138646777
 11
45.5130391667
 21
57.3128665965
  0
LINE
  5
2EC
100
AcDbEntity
  8
RACCORDO
100
AcDbLine
 62
253
  6
CONTINUOUS
 10
-72.6403231023
 20
58.1492786956
 11
-72.7215262719
 21
58.1486026945
  0
LWPOLYLINE
  5
2ED
100
AcDbEntity
  8
RACCORDO
100
AcDbPolyline
 62
253
  6
CONTINUOUS
 90
3
 70
0
 10
-72.5991665156
 20
58.0615041738
 10
-72.6403259899
 20
58.0614197967
 10
-72.7215292848
 20
58.0607439984
  0
LWPOLYLINE
  5
2EE
100
AcDbEntity
  8
RACCORDO
100
AcDbPolyline
 62
253
  6
CONTINUOUS
 90
3
 70
0
 10
45.6898862982
 20
57.3144315998
 10
45.6537660163
 20
57.3143686246
 10
45.582279456
 20
57.3138646777
  0
LINE
  5
2EF
100
AcDbEntity
  8
RACCORDO
100
AcDbLine
 62
7
  6
CONTINUOUS
 10
44.2990249002
 20
58.0
 11
-44.2990249002
 21
58.0
  0
LINE
  5
2F0
100
AcDbEntity
  8
RACCORDO
100
AcDbLine
 62
253
  6
CONTINUOUS
 10
73.0972590598
 20
58.0386431952
 11
73.2500000137
 21
58.0386433367
  0
LINE
  5
2F1
100
AcDbEntity
  8
RACCORDO
100
AcDbLine
 62
253
  6
CONTINUOUS
 10
-73.09725906
 20
58.0386319559
 11
-73.25
 21
58.0386319559
  0
LINE
  5
2F2
100
AcDbEntity
  8
RACCORDO
100
AcDbLine
 62
253
  6
CONTINUOUS
 10
-44.3882395843
 20
58.0889897388
 11
44.3882508768
 21
58.0889897388
  0
LINE
  5
2F3
100
AcDbEntity
  8
RACCORDO
100
AcDbLine
 62
253
  6
CONTINUOUS
 10
-72.6403231023
 20
58.1492786956
 11
-45.3857520525
 21
58.1493621709
  0
LINE
  5
2F4
100
AcDbEntity
  8
RACCORDO
100
AcDbLine
 62
253
  6
CONTINUOUS
 10
-44.3882413601
 20
58.6148732437
 11
44.3882413601
 21
58.6148732437
  0
LINE
  5
2F5
100
AcDbEntity
  8
RACCORDO
100
AcDbLine
 62
253
  6
CONTINUOUS
 10
45.3857520526
 20
58.1493621709
 11
72.6403231012
 21
58.1492786946
  0
LINE
  5
2F6
100
AcDbEntity
  8
RACCORDO
100
AcDbLine
 62
253
  6
CONTINUOUS
 10
-45.6898862981
 20
57.3144313882
 11
-45.6178342002
 21
57.3141791529
  0
LWPOLYLINE
  5
2F7
100
AcDbEntity
  8
RACCORDO
100
AcDbPolyline
 62
253
  6
CONTINUOUS
 90
18
 70
0
 10
72.5991665154
 20
58.0615154235
 10
72.6812060765
 20
58.0611770801
 10
72.7215292847
 20
58.0607552481
 10
72.7610219031
 20
58.060168414
 10
72.7994158588
 20
58.0594205612
 10
72.8364505362
 20
58.058516766
 10
72.8718745468
 20
58.0574631632
 10
72.9054474348
 20
58.0562669048
 10
72.9369413098
 20
58.0549361107
 10
72.9661423938
 20
58.0534798144
 10
72.9928524718
 20
58.0519079011
 10
73.0168902378
 20
58.0502310407
 10
73.0380925251
 20
58.0484606158
 10
73.056315414
 20
58.0466086438
 10
73.0714352091
 20
58.0446876958
 10
73.0833492781
 20
58.042710811
 10
73.0919767492
 20
58.0406914085
 10
73.0972590598
 20
58.0386431956
  0
LWPOLYLINE
  5
2F8
100
AcDbEntity
  8
RACCORDO
100
AcDbPolyline
 62
253
  6
CONTINUOUS
 90
17
 70
0
 10
72.6403231012
 20
58.1492786946
 10
72.7215262687
 20
58.1486026936
 10
72.7610188288
 20
58.1480147565
 10
72.7994127314
 20
58.1472651414
 10
72.8364473622
 20
58.1463589366
 10
72.8718713338
 20
58.1453022933
 10
72.9054441913
 20
58.1441023839
 10
72.9369380456
 20
58.1427673532
 10
72.9661391191
 20
58.1413062634
 10
72.9928491979
 20
58.1397290321
 10
73.0168869762
 20
58.1380463655
 10
73.0380892881
 20
58.1362696854
 10
73.056312214
 20
58.1344110517
 10
73.0714320587
 20
58.1324830805
 10
73.0833461898
 20
58.1304988589
 10
73.0919737355
 20
58.1284718556
 10
73.0972561328
 20
58.1264158295
  0
LINE
  5
2F9
100
AcDbEntity
  8
RACCORDO
100
AcDbLine
 62
253
  6
CONTINUOUS
 10
-45.6178342002
 20
57.3141791529
 11
-45.5472860687
 21
57.3134262106
  0
LWPOLYLINE
  5
2FA
100
AcDbEntity
  8
RACCORDO
100
AcDbPolyline
 62
253
  6
CONTINUOUS
 90
17
 70
0
 10
-45.5472860687
 20
57.3134262106
 10
-45.4797146047
 20
57.3121882792
 10
-45.4474891678
 20
57.3113951361
 10
-45.4165303707
 20
57.3104912007
 10
-45.3869999919
 20
57.3094811966
 10
-45.3590523455
 20
57.3083704017
 10
-45.332833475
 20
57.3071646206
 10
-45.30848039
 20
57.3058701543
 10
-45.28612035
 20
57.304493767
 10
-45.2658701999
 20
57.3030426514
 10
-45.247835759
 20
57.3015243902
 10
-45.2321112682
 20
57.2999469175
 10
-45.2187788976
 20
57.2983184764
 10
-45.2079083169
 20
57.2966475765
 10
-45.1995563314
 20
57.2949429492
 10
-45.1937665855
 20
57.2932135024
 10
-45.1905693339
 20
57.2914682734
  0
LWPOLYLINE
  5
2FB
100
AcDbEntity
  8
RACCORDO
100
AcDbPolyline
 62
253
  6
CONTINUOUS
 90
16
 70
0
 10
44.3882413601
 20
58.6148732437
 10
44.4619034703
 20
58.6129777212
 10
44.5355973982
 20
58.6066725574
 10
44.6093231437
 20
58.5959577255
 10
44.6834969826
 20
58.5808251753
 10
44.7577026392
 20
58.5612828477
 10
44.8306912867
 20
58.5373546749
 10
44.902478734
 20
58.5088550572
 10
44.9730491722
 20
58.4759693732
 10
45.0411063479
 20
58.4392780154
 10
45.1065265593
 20
58.398641116
 10
45.1694335082
 20
58.354198266
 10
45.2289020467
 20
58.3069490865
 10
45.2846237923
 20
58.257226722
 10
45.3369071276
 20
58.2046977937
 10
45.3857520526
 20
58.1493621709
  0
LWPOLYLINE
  5
2FC
100
AcDbEntity
  8
RACCORDO
100
AcDbPolyline
 62
253
  6
CONTINUOUS
 90
16
 70
0
 10
44.388250893
 20
58.0889897549
 10
44.4334464141
 20
58.0877998212
 10
44.4789588599
 20
58.0840250023
 10
44.5246347247
 20
58.0775995707
 10
44.570393279
 20
58.0684489452
 10
44.6159817591
 20
58.0565340734
 10
44.6609881126
 20
58.0418986923
 10
44.7052866517
 20
58.0245398716
 10
44.7486635087
 20
58.0044966705
 10
44.7906128531
 20
57.9819954141
 10
44.8309794789
 20
57.9571561755
 10
44.8696615755
 20
57.9300804055
 10
44.9063053392
 20
57.9010826398
 10
44.9407629542
 20
57.8703964984
 10
44.9730575644
 20
57.8381246779
 10
45.0031417955
 20
57.8044296689
  0
LWPOLYLINE
  5
2FD
100
AcDbEntity
  8
RACCORDO
100
AcDbPolyline
 62
253
  6
CONTINUOUS
 90
28
 70
0
 10
73.0945964633
 20
80.845343475
 10
73.0922299953
 20
80.9034728338
 10
73.08654589
 20
80.9612723079
 10
73.0775760559
 20
81.0185532524
 10
73.0653701031
 20
81.0751113118
 10
73.0499763572
 20
81.1307828571
 10
73.0314301151
 20
81.1854423076
 10
73.0097799391
 20
81.2389440119
 10
72.9851100386
 20
81.291079125
 10
72.957520838
 20
81.3416334141
 10
72.927121266
 20
81.3904302122
 10
72.8940115152
 20
81.4373311227
 10
72.8582975978
 20
81.4821910375
 10
72.8201018677
 20
81.5248681448
 10
72.7795559027
 20
81.5652276132
 10
72.7367887894
 20
81.6031441463
 10
72.6919459323
 20
81.6384966067
 10
72.6451762395
 20
81.6711760853
 10
72.5966212537
 20
81.701085509
 10
72.5464364382
 20
81.728131667
 10
72.4947913786
 20
81.7522266768
 10
72.4418548895
 20
81.7732934371
 10
72.3878084235
 20
81.7912628189
 10
72.3328210212
 20
81.8060824574
 10
72.2770466961
 20
81.8177111305
 10
72.2206578067
 20
81.8261098509
 10
72.1638457239
 20
81.8312467734
 10
72.1067948957
 20
81.8331025978
  0
LWPOLYLINE
  5
2FE
100
AcDbEntity
  8
RACCORDO
100
AcDbPolyline
 62
253
  6
CONTINUOUS
 90
28
 70
0
 10
72.5965696574
 20
80.930744544
 10
72.5957089318
 20
80.9603190931
 10
72.5932186558
 20
80.9895558927
 10
72.5890988294
 20
81.0184549763
 10
72.5833250184
 20
81.0471066897
 10
72.5759216569
 20
81.0754207477
 10
72.5669620475
 20
81.1031262644
 10
72.5564268547
 20
81.1302253738
 10
72.5443354139
 20
81.1567160581
 10
72.5308190342
 20
81.1823212544
 10
72.5158665187
 20
81.2070234812
 10
72.4994890643
 20
81.2308403777
 10
72.4818515702
 20
81.253547603
 10
72.4629421616
 20
81.2751352414
 10
72.4427727132
 20
81.2956133829
 10
72.4215437483
 20
81.3147877228
 10
72.3992454513
 20
81.3326456412
 10
72.3758876377
 20
81.34919993
 10
72.3517002778
 20
81.3642944158
 10
72.3266757645
 20
81.3779148168
 10
72.3008217049
 20
81.3900755646
 10
72.2743908896
 20
81.4006635594
 10
72.2473714641
 20
81.4096638671
 10
72.219775283
 20
81.417091532
 10
72.1918907002
 20
81.4228784156
 10
72.1638138337
 20
81.4270018253
 10
72.1354485655
 20
81.429484512
 10
72.1067948957
 20
81.4303264904
  0
LINE
  5
2FF
100
AcDbEntity
  8
RACCORDO
100
AcDbLine
 62
253
  6
CONTINUOUS
 10
72.1067948957
 20
-81.4303264904
 11
72.106794896
 21
-81.8331025978
  0
LINE
  5
300
100
AcDbEntity
  8
RACCORDO
100
AcDbLine
 62
253
  6
CONTINUOUS
 10
72.1067948957
 20
81.4303264904
 11
72.1067948957
 21
81.8331025978
  0
LINE
  5
301
100
AcDbEntity
  8
RACCORDO
100
AcDbLine
 62
253
  6
CONTINUOUS
 10
72.598373942
 20
68.3202014581
 11
72.5965696574
 21
80.930744544
  0
LINE
  5
302
100
AcDbEntity
  8
RACCORDO
100
AcDbLine
 62
253
  6
CONTINUOUS
 10
73.0964447086
 20
68.2693293033
 11
73.0945964631
 21
80.8453434748
  0
LINE
  5
303
100
AcDbEntity
  8
RACCORDO
100
AcDbLine
 62
7
  6
CONTINUOUS
 10
73.2499995329
 20
81.0035151779
 11
73.25
 21
58.0386319559
  0
LINE
  5
304
100
AcDbEntity
  8
DRAFT
100
AcDbLine
 62
7
  6
CONTINUOUS
 10
73.25
 20
58.0386319559
 11
73.25
 21
-58.0386319559
  0
LINE
  5
305
100
AcDbEntity
  8
RACCORDO
100
AcDbLine
 62
7
  6
CONTINUOUS
 10
73.25
 20
-58.0386319559
 11
73.2499995329
 21
-81.0035151779
  0
LINE
  5
306
100
AcDbEntity
  8
RACCORDO
100
AcDbLine
 62
253
  6
CONTINUOUS
 10
72.5965696574
 20
-80.930744544
 11
72.598373942
 21
68.3202014581
  0
LINE
  5
307
100
AcDbEntity
  8
RACCORDO
100
AcDbLine
 62
253
  6
CONTINUOUS
 10
73.0945964631
 20
-80.8453434753
 11
73.0964447086
 21
68.2693293033
  0
LWPOLYLINE
  5
308
100
AcDbEntity
  8
RACCORDO
100
AcDbPolyline
 62
7
  6
CONTINUOUS
 90
28
 70
0
 10
73.2499995329
 20
-81.0035151779
 10
73.2482434997
 20
-81.0633662043
 10
73.2431271886
 20
-81.1225345526
 10
73.2346505996
 20
-81.1810203607
 10
73.2227200023
 20
-81.2390928685
 10
73.2074291272
 20
-81.2964830709
 10
73.189059165
 20
-81.3523839055
 10
73.1676278198
 20
-81.4066294783
 10
73.1431173877
 20
-81.4593862928
 10
73.1157559473
 20
-81.5103461004
 10
73.0855262925
 20
-81.5595396498
 10
73.0524456294
 20
-81.6069368412
 10
73.0167936558
 20
-81.652138268
 10
72.9784352223
 20
-81.695207665
 10
72.9375054782
 20
-81.7360820008
 10
72.8946895698
 20
-81.7741718531
 10
72.8501060947
 20
-81.8093173978
 10
72.8036364551
 20
-81.8416792278
 10
72.7556100044
 20
-81.8711486068
 10
72.706016504
 20
-81.8977436564
 10
72.6548661924
 20
-81.921446857
 10
72.602519138
 20
-81.9420959918
 10
72.5488420913
 20
-81.9596942264
 10
72.4939683018
 20
-81.9742388315
 10
72.4386575863
 20
-81.9855587192
 10
72.3831632172
 20
-81.9935969423
 10
72.3272319221
 20
-81.9984106831
 10
72.2708637012
 20
-82.0
  0
LWPOLYLINE
  5
309
100
AcDbEntity
  8
RACCORDO
100
AcDbPolyline
 62
253
  6
CONTINUOUS
 90
19
 70
0
 10
45.3857520526
 20
-58.1493621709
 10
45.3441317727
 20
-58.1966629889
 10
45.3004033579
 20
-58.241760093
 10
45.2545668081
 20
-58.2846535711
 10
45.2065106023
 20
-58.3254477534
 10
45.1563462616
 20
-58.3640384727
 10
45.1044083488
 20
-58.4001130766
 10
45.050662231
 20
-58.4336599383
 10
44.9951425412
 20
-58.4646908464
 10
44.938287741
 20
-58.4929282832
 10
44.8800579037
 20
-58.5183441535
 10
44.8204929562
 20
-58.540966694
 10
44.76015114
 20
-58.5606028869
 10
44.6990208
 20
-58.5772050923
 10
44.6371135914
 20
-58.5908210539
 10
44.5750227223
 20
-58.6014008222
 10
44.5129459287
 20
-58.6089277654
 10
44.4506854746
 20
-58.6134185681
 10
44.3882413601
 20
-58.6148732437
  0
LWPOLYLINE
  5
30A
100
AcDbEntity
  8
RACCORDO
100
AcDbPolyline
 62
253
  6
CONTINUOUS
 90
19
 70
0
 10
45.0031417955
 20
-57.8044296689
 10
44.9775297084
 20
-57.8333534593
 10
44.9505113396
 20
-57.8610398104
 10
44.9221450863
 20
-57.8874193351
 10
44.8924969573
 20
-57.9124213359
 10
44.8616284516
 20
-57.9359864066
 10
44.8295947273
 20
-57.9580643976
 10
44.7964486702
 20
-57.9786057334
 10
44.7622801319
 20
-57.9975421098
 10
44.727205989
 20
-58.0148036163
 10
44.6912946909
 20
-58.0303518832
 10
44.6546433574
 20
-58.044140373
 10
44.6174226248
 20
-58.056110178
 10
44.5797224539
 20
-58.06624226
 10
44.5416356412
 20
-58.0745214405
 10
44.5033449106
 20
-58.0809260825
 10
44.4649739267
 20
-58.0854611106
 10
44.4265839396
 20
-58.0881436082
 10
44.3882645094
 20
-58.0889897778
  0
LWPOLYLINE
  5
30B
100
AcDbEntity
  8
RACCORDO
100
AcDbPolyline
 62
253
  6
CONTINUOUS
 90
16
 70
0
 10
45.0031417955
 20
57.8044296689
 10
45.0260572932
 20
57.7759523799
 10
45.0477793494
 20
57.7462572057
 10
45.0682347756
 20
57.7153873789
 10
45.0873812397
 20
57.6833386598
 10
45.1051130245
 20
57.6502126972
 10
45.1212861871
 20
57.6162302392
 10
45.1358570338
 20
57.5814611969
 10
45.1487842056
 20
57.5459811692
 10
45.1599790836
 20
57.5100437179
 10
45.1694322511
 20
57.4737357728
 10
45.1771401926
 20
57.437139594
 10
45.1830783142
 20
57.4005149419
 10
45.187269315
 20
57.3640063383
 10
45.1897558084
 20
57.327637313
 10
45.1905731504
 20
57.2914862284
  0
LWPOLYLINE
  5
30C
100
AcDbEntity
  8
RACCORDO
100
AcDbPolyline
 62
253
  6
CONTINUOUS
 90
16
 70
0
 10
45.3857520526
 20
58.1493621709
 10
45.4230618078
 20
58.1029371378
 10
45.4582203352
 20
58.0546638233
 10
45.4912276349
 20
58.0045421979
 10
45.5222292219
 20
57.9523786314
 10
45.5510795811
 20
57.89836669
 10
45.5773421675
 20
57.8430871487
 10
45.600945821
 20
57.7865123964
 10
45.6219617017
 20
57.7286699986
 10
45.6401667443
 20
57.6702235179
 10
45.655487963
 20
57.6111628116
 10
45.6679983435
 20
57.551498001
 10
45.6776937781
 20
57.4919230708
 10
45.6845728974
 20
57.4326693572
 10
45.6886370708
 20
57.3735055326
 10
45.6898862982
 20
57.3144315998
  0
LWPOLYLINE
  5
30D
100
AcDbEntity
  8
RACCORDO
100
AcDbPolyline
 62
253
  6
CONTINUOUS
 90
28
 70
0
 10
-72.1067948957
 20
81.8331025978
 10
-72.1638389585
 20
81.8312471063
 10
-72.2206220534
 20
81.8261140499
 10
-72.2769603442
 20
81.8177265235
 10
-72.3326445059
 20
81.8061246246
 10
-72.3875232038
 20
81.7913485204
 10
-72.4414996
 20
81.7734227966
 10
-72.4944337309
 20
81.7523807391
 10
-72.5461104898
 20
81.7282950803
 10
-72.596323434
 20
81.7012571809
 10
-72.6448909069
 20
81.6713634367
 10
-72.6916707205
 20
81.638701132
 10
-72.7365243254
 20
81.6033656065
 10
-72.779303549
 20
81.5654651105
 10
-72.81986223
 20
81.5251213573
 10
-72.8580716453
 20
81.4824592044
 10
-72.8938008132
 20
81.4376125223
 10
-72.9269265893
 20
81.3907238792
 10
-72.9573415512
 20
81.3419407297
 10
-72.9849396777
 20
81.2914138446
 10
-73.0096199826
 20
81.2393085062
 10
-73.0312958225
 20
81.1858030253
 10
-73.0498867018
 20
81.131073422
 10
-73.065325155
 20
81.0752933895
 10
-73.0775589988
 20
81.0186447363
 10
-73.0865408737
 20
80.9613119193
 10
-73.0922294228
 20
80.9034817192
 10
-73.0945964633
 20
80.8453434755
  0
LWPOLYLINE
  5
30E
100
AcDbEntity
  8
RACCORDO
100
AcDbPolyline
 62
253
  6
CONTINUOUS
 90
28
 70
0
 10
-72.1067948957
 20
81.4303264904
 10
-72.1354741939
 20
81.4294769411
 10
-72.1638454675
 20
81.426993056
 10
-72.1919087163
 20
81.4228748204
 10
-72.2197478952
 20
81.4171023095
 10
-72.2472790494
 20
81.4096953901
 10
-72.2742503144
 20
81.4007137228
 10
-72.3006680869
 20
81.3901379438
 10
-72.3265259702
 20
81.3779873063
 10
-72.3515529098
 20
81.3643793895
 10
-72.3757331131
 20
81.3493029508
 10
-72.3990823727
 20
81.3327690833
 10
-72.4213770117
 20
81.3149288726
 10
-72.4426098766
 20
81.2957686602
 10
-72.4627881209
 20
81.2753019322
 10
-72.4817095287
 20
81.2537205041
 10
-72.4993633712
 20
81.2310114484
 10
-72.5157603772
 20
81.2071875174
 10
-72.5307305175
 20
81.1824790737
 10
-72.5442595712
 20
81.1568764066
 10
-72.5563617591
 20
81.1303890697
 10
-72.5669097144
 20
81.1032763629
 10
-72.5758881724
 20
81.0755224217
 10
-72.5833123978
 20
81.0471429899
 10
-72.5891008163
 20
81.0184448319
 10
-72.5932262368
 20
80.9895301952
 10
-72.5957158505
 20
80.9602967765
 10
-72.5965696574
 20
80.930744544
  0
LWPOLYLINE
  5
30F
100
AcDbEntity
  8
RACCORDO
100
AcDbPolyline
 62
253
  6
CONTINUOUS
 90
19
 70
0
 10
-72.5965696574
 20
80.9307445294
 10
-72.6376877754
 20
80.9304340501
 10
-72.6785273481
 20
80.9294901404
 10
-72.7188117171
 20
80.9279191947
 10
-72.7582679853
 20
80.9257318549
 10
-72.7966288651
 20
80.9229429387
 10
-72.8336344896
 20
80.919571339
 10
-72.8690341726
 20
80.9156398958
 10
-72.902588107
 20
80.9111752419
 10
-72.9340689894
 20
80.9062076221
 10
-72.9632635597
 20
80.9007706882
 10
-72.9899740461
 20
80.8949012716
 10
-73.0140195043
 20
80.8886391334
 10
-73.035237044
 20
80.8820266949
 10
-73.0534829318
 20
80.8751087506
 10
-73.068633565
 20
80.8679321645
 10
-73.0805863093
 20
80.8605455528
 10
-73.0892601934
 20
80.8529989543
 10
-73.0945964581
 20
80.8453434919
  0
LINE
  5
310
100
AcDbEntity
  8
RACCORDO
100
AcDbLine
 62
253
  6
CONTINUOUS
 10
72.1067948957
 20
81.4303264904
 11
-72.1067948957
 21
81.4303264904
  0
LINE
  5
311
100
AcDbEntity
  8
RACCORDO
100
AcDbLine
 62
253
  6
CONTINUOUS
 10
72.1067948957
 20
81.8331025978
 11
-72.1067948957
 21
81.8331025978
  0
LINE
  5
312
100
AcDbEntity
  8
RACCORDO
100
AcDbLine
 62
7
  6
CONTINUOUS
 10
72.2708637012
 20
82.0
 11
-72.2708637012
 21
82.0
  0
LWPOLYLINE
  5
313
100
AcDbEntity
  8
RACCORDO
100
AcDbPolyline
 62
253
  6
CONTINUOUS
 90
19
 70
0
 10
72.5965696574
 20
80.9307445382
 10
72.6376874466
 20
80.9304340292
 10
72.678526669
 20
80.9294900933
 10
72.7188106712
 20
80.9279191249
 10
72.7582665607
 20
80.9257317659
 10
72.7966270552
 20
80.9229428339
 10
72.8336322925
 20
80.9195712218
 10
72.8690315915
 20
80.9156397695
 10
72.9025851498
 20
80.9111751095
 10
72.9340656685
 20
80.9062074863
 10
72.9632598921
 20
80.9007705517
 10
72.9899700526
 20
80.8949011367
 10
73.0140152099
 20
80.8886390019
 10
73.035232477
 20
80.8820265684
 10
73.0534781237
 20
80.8751086304
 10
73.0686285501
 20
80.8679320513
 10
73.080581124
 20
80.8605454471
 10
73.0892548763
 20
80.8529988561
 10
73.094591049
 20
80.8453434006
  0
LWPOLYLINE
  5
314
100
AcDbEntity
  8
RACCORDO
100
AcDbPolyline
 62
7
  6
CONTINUOUS
 90
28
 70
0
 10
72.2708637012
 20
82.0
 10
72.3272556954
 20
81.9984043412
 10
72.3831941766
 20
81.9935893517
 10
72.4386791448
 20
81.9855549735
 10
72.4939550912
 20
81.9742455954
 10
72.5487775246
 20
81.9597165941
 10
72.6024129707
 20
81.9421343436
 10
72.6547369582
 20
81.9215018828
 10
72.7058739585
 20
81.897815737
 10
72.7554639116
 20
81.8712324821
 10
72.8035007451
 20
81.8417656708
 10
72.8499905314
 20
81.8094011471
 10
72.894591428
 20
81.7742539047
 10
72.9374175502
 20
81.7361650089
 10
72.9783547826
 20
81.6952926261
 10
73.016718937
 20
81.6522274624
 10
73.0523738958
 20
81.6070349173
 10
73.0854557766
 20
81.5596488888
 10
73.1156887441
 20
81.5104629648
 10
73.143057032
 20
81.4595081974
 10
73.1675764066
 20
81.4067528843
 10
73.1890183305
 20
81.3524965924
 10
73.2074024325
 20
81.2965615629
 10
73.2227090839
 20
81.2391249383
 10
73.2346508619
 20
81.1810188589
 10
73.2431319589
 20
81.1225206934
 10
73.2482481826
 20
81.0633528447
 10
73.2499995329
 20
81.0035151779
  0
LWPOLYLINE
  5
315
100
AcDbEntity
  8
0
100
AcDbPolyline
 62
7
  6
CONTINUOUS
 90
7
 70
0
 10
106.3712969964
 20
-80.7
 10
106.3721849621
 20
-80.6998928295
 10
106.3730800069
 20
-80.6995685704
 10
106.3739833844
 20
-80.6990229974
 10
106.3748963901
 20
-80.6982518461
 10
106.3758203618
 20
-80.6972508129
 10
106.3767566801
 20
-80.6960155547
  0
LWPOLYLINE
  5
316
100
AcDbEntity
  8
RACCORDO
100
AcDbPolyline
 62
253
  6
CONTINUOUS
 90
18
 70
0
 10
106.7202928412
 20
-81.6437859981
 10
106.7216746161
 20
-81.6436412483
 10
106.7231605532
 20
-81.6424732233
 10
106.7247532712
 20
-81.64026848
 10
106.7264543394
 20
-81.6369903195
 10
106.7282696473
 20
-81.6326373461
 10
106.730196974
 20
-81.6273060442
 10
106.7321960186
 20
-81.6211792867
 10
106.7342743135
 20
-81.614238214
 10
106.7365067226
 20
-81.6062494319
 10
106.7389148032
 20
-81.5971416931
 10
106.74149067
 20
-81.5869155841
 10
106.7442985247
 20
-81.5752757677
 10
106.7473831169
 20
-81.5620364114
 10
106.7507496067
 20
-81.547127473
 10
106.7544198806
 20
-81.5303402801
 10
106.7584246396
 20
-81.5114949346
 10
106.7674880163
 20
-81.4673921533
  0
LINE
  5
317
100
AcDbEntity
  8
RACCORDO
100
AcDbLine
 62
7
  6
CONTINUOUS
 10
108.7744385296
 20
-81.8331025978
 11
106.866792493
 21
-82.0
  0
LINE
  5
318
100
AcDbEntity
  8
RACCORDO
100
AcDbLine
 62
253
  6
CONTINUOUS
 10
108.8703687718
 20
-80.8453434748
 11
107.0634759653
 21
-81.0035151779
  0
LWPOLYLINE
  5
319
100
AcDbEntity
  8
RACCORDO
100
AcDbPolyline
 62
7
  6
CONTINUOUS
 90
4
 70
0
 10
103.3202596821
 20
-79.5928634632
 10
103.3222395709
 20
-79.5928563956
 10
103.3246966034
 20
-79.5927778312
 10
103.3276666975
 20
-79.5925851437
  0
LINE
  5
31A
100
AcDbEntity
  8
0
100
AcDbLine
 62
7
  6
CONTINUOUS
 10
106.3637148154
 20
-80.7
 11
106.3712969964
 21
-80.7
  0
LINE
  5
31B
100
AcDbEntity
  8
SUPERFICI
100
AcDbLine
 62
7
  6
CONTINUOUS
 10
106.3636489254
 20
-80.6999988494
 11
106.3637001284
 21
-80.6999997105
  0
LINE
  5
31C
100
AcDbEntity
  8
RACCORDO
100
AcDbLine
 62
7
  6
CONTINUOUS
 10
106.1810481993
 20
-80.693435272
 11
106.3637148154
 21
-80.7
  0
LINE
  5
31D
100
AcDbEntity
  8
RACCORDO
100
AcDbLine
 62
7
  6
CONTINUOUS
 10
106.3285202251
 20
-80.6970169429
 11
106.3637148154
 21
-80.7
  0
LINE
  5
31E
100
AcDbEntity
  8
RACCORDO
100
AcDbLine
 62
253
  6
CONTINUOUS
 10
106.198270483
 20
-80.6790042037
 11
106.37675668
 21
-80.6960155546
  0
LINE
  5
31F
100
AcDbEntity
  8
RACCORDO
100
AcDbLine
 62
253
  6
CONTINUOUS
 10
106.1858392177
 20
-80.6828398929
 11
106.3712969964
 21
-80.7
  0
LINE
  5
320
100
AcDbEntity
  8
RACCORDO
100
AcDbLine
 62
253
  6
CONTINUOUS
 10
106.0072207353
 20
-80.6603712872
 11
106.1931094369
 21
-80.6828009337
  0
LINE
  5
321
100
AcDbEntity
  8
RACCORDO
100
AcDbLine
 62
253
  6
CONTINUOUS
 10
106.7306664353
 20
-80.9455129938
 11
106.7704682955
 21
-80.9510646815
  0
LINE
  5
322
100
AcDbEntity
  8
RACCORDO
100
AcDbLine
 62
253
  6
CONTINUOUS
 10
106.7704682955
 20
-80.9510646815
 11
106.8568655613
 21
-80.9634007133
  0
LINE
  5
323
100
AcDbEntity
  8
RACCORDO
100
AcDbLine
 62
253
  6
CONTINUOUS
 10
105.8280855576
 20
-80.6325333985
 11
106.0141473062
 21
-80.660298755
  0
LINE
  5
324
100
AcDbEntity
  8
RACCORDO
100
AcDbLine
 62
253
  6
CONTINUOUS
 10
105.6482971136
 20
-80.5991917007
 11
105.8346366644
 21
-80.6324301886
  0
LWPOLYLINE
  5
325
100
AcDbEntity
  8
RACCORDO
100
AcDbPolyline
 62
253
  6
CONTINUOUS
 90
3
 70
0
 10
109.3179167772
 20
-80.9307445382
 10
108.9104491092
 20
-80.8529988561
 10
108.8703682952
 20
-80.8453434006
  0
LINE
  5
326
100
AcDbEntity
  8
RACCORDO
100
AcDbLine
 62
253
  6
CONTINUOUS
 10
106.7462261774
 20
-80.8664899141
 11
106.869118245
 21
-80.8902907342
  0
LINE
  5
327
100
AcDbEntity
  8
RACCORDO
100
AcDbLine
 62
253
  6
CONTINUOUS
 10
107.0634759131
 20
-81.0035154465
 11
106.8568558663
 21
-80.9634646721
  0
LINE
  5
328
100
AcDbEntity
  8
RACCORDO
100
AcDbLine
 62
253
  6
CONTINUOUS
 10
105.4684731161
 20
-80.5603392688
 11
105.6544267783
 21
-80.5990554753
  0
LINE
  5
329
100
AcDbEntity
  8
RACCORDO
100
AcDbLine
 62
253
  6
CONTINUOUS
 10
104.0929801449
 20
80.0614685515
 11
104.2589917924
 21
80.1411929284
  0
LINE
  5
32A
100
AcDbEntity
  8
RACCORDO
100
AcDbLine
 62
253
  6
CONTINUOUS
 10
104.2563352908
 20
80.1414845286
 11
104.4265197193
 21
80.2167118924
  0
LINE
  5
32B
100
AcDbEntity
  8
RACCORDO
100
AcDbLine
 62
253
  6
CONTINUOUS
 10
104.4234110449
 20
80.2169893031
 11
104.5971535275
 21
80.2873675515
  0
LINE
  5
32C
100
AcDbEntity
  8
RACCORDO
100
AcDbLine
 62
7
  6
CONTINUOUS
 10
104.5767046171
 20
80.3353414419
 11
104.6807622647
 21
80.3761836889
  0
LWPOLYLINE
  5
32D
100
AcDbEntity
  8
SUPERFICI
100
AcDbPolyline
 62
7
  6
CONTINUOUS
 90
32
 70
0
 10
104.6807622647
 20
80.3761836889
 10
104.6282354058
 20
80.3559062455
 10
104.575913717
 20
80.3350206239
 10
104.5248681718
 20
80.313975426
 10
104.4746446561
 20
80.2926163727
 10
104.4251763787
 20
80.2709375802
 10
104.3765254121
 20
80.2489885
 10
104.3284402792
 20
80.2266740971
 10
104.2809236405
 20
80.2040090778
 10
104.2339732832
 20
80.1810057421
 10
104.1873376577
 20
80.1575491269
 10
104.1410309122
 20
80.1336498283
 10
104.0950463369
 20
80.1093078058
 10
104.0491095353
 20
80.0843753683
 10
104.0031224128
 20
80.0587889157
 10
103.9572014061
 20
80.032602693
 10
103.9113979652
 20
80.0058384463
 10
103.8655757008
 20
79.9784065322
 10
103.8198892395
 20
79.9503893867
 10
103.7748166007
 20
79.922083463
 10
103.7303329746
 20
79.8934863579
 10
103.6864610709
 20
79.8646257757
 10
103.6437295104
 20
79.8358750012
 10
103.6020929922
 20
79.8072400281
 10
103.5615714725
 20
79.7787705659
 10
103.5227671329
 20
79.7509394619
 10
103.485788106
 20
79.7238891291
 10
103.4504729483
 20
79.6975643115
 10
103.4170028981
 20
79.6721623219
 10
103.3854127254
 20
79.6477748223
 10
103.3556106267
 20
79.6243934814
 10
103.3275848497
 20
79.6020679402
  0
LINE
  5
32E
100
AcDbEntity
  8
RACCORDO
100
AcDbLine
 62
253
  6
CONTINUOUS
 10
104.5935824335
 20
80.2876247163
 11
104.7696890852
 21
80.3526576871
  0
LWPOLYLINE
  5
32F
100
AcDbEntity
  8
RACCORDO
100
AcDbPolyline
 62
7
  6
CONTINUOUS
 90
10
 70
0
 10
104.6807622647
 20
80.3761836889
 10
104.7475135433
 20
80.4009677883
 10
104.9207003584
 20
80.4602617387
 10
105.0959952621
 20
80.5131573235
 10
105.2733961817
 20
80.559661516
 10
105.4529444429
 20
80.5997532802
 10
105.6341280264
 20
80.6332773772
 10
105.8161072014
 20
80.6600780575
 10
105.9984305095
 20
80.6801239084
 10
106.1810481993
 20
80.693435272
  0
LINE
  5
330
100
AcDbEntity
  8
RACCORDO
100
AcDbLine
 62
253
  6
CONTINUOUS
 10
104.7656709245
 20
80.3528978769
 11
104.9433378029
 21
80.4123857484
  0
LINE
  5
331
100
AcDbEntity
  8
RACCORDO
100
AcDbLine
 62
253
  6
CONTINUOUS
 10
106.70328814
 20
81.6380359112
 11
106.7202928412
 21
81.6437859981
  0
LINE
  5
332
100
AcDbEntity
  8
RACCORDO
100
AcDbLine
 62
253
  6
CONTINUOUS
 10
104.9389061423
 20
80.4126163853
 11
105.1183818191
 21
80.4667748908
  0
LWPOLYLINE
  5
333
100
AcDbEntity
  8
RACCORDO
100
AcDbPolyline
 62
253
  6
CONTINUOUS
 90
4
 70
0
 10
103.2045217282
 20
-79.1143730751
 10
103.2059325956
 20
-79.1142293034
 10
103.2101519592
 20
-79.114086884
 10
103.2171401323
 20
-79.1139471565
  0
LINE
  5
334
100
AcDbEntity
  8
RACCORDO
100
AcDbLine
 62
253
  6
CONTINUOUS
 10
103.2171401323
 20
-79.1139471565
 11
103.2391345618
 21
-79.1136809966
  0
LINE
  5
335
100
AcDbEntity
  8
RACCORDO
100
AcDbLine
 62
253
  6
CONTINUOUS
 10
103.2391345618
 20
-79.1136809966
 11
103.3118079465
 21
-79.1132356238
  0
LINE
  5
336
100
AcDbEntity
  8
RACCORDO
100
AcDbLine
 62
253
  6
CONTINUOUS
 10
103.3118079465
 20
-79.1132356238
 11
103.3858936111
 21
-79.1130098662
  0
LINE
  5
337
100
AcDbEntity
  8
RACCORDO
100
AcDbLine
 62
253
  6
CONTINUOUS
 10
105.2899621092
 20
-80.5162058503
 11
105.474150058
 21
-80.5601671695
  0
LINE
  5
338
100
AcDbEntity
  8
RACCORDO
100
AcDbLine
 62
7
  6
CONTINUOUS
 10
106.926681596
 20
-81.7
 11
106.7202929255
 21
-81.643786021
  0
LINE
  5
339
100
AcDbEntity
  8
RACCORDO
100
AcDbLine
 62
253
  6
CONTINUOUS
 10
105.1135533298
 20
-80.4669957771
 11
105.2951977716
 21
-80.516003066
  0
LINE
  5
33A
100
AcDbEntity
  8
RACCORDO
100
AcDbLine
 62
253
  6
CONTINUOUS
 10
104.9389061423
 20
-80.4126163853
 11
105.1183818191
 21
-80.4667748908
  0
LINE
  5
33B
100
AcDbEntity
  8
RACCORDO
100
AcDbLine
 62
253
  6
CONTINUOUS
 10
106.7032883439
 20
-81.6380353127
 11
106.7202930277
 21
-81.6437853134
  0
LINE
  5
33C
100
AcDbEntity
  8
RACCORDO
100
AcDbLine
 62
253
  6
CONTINUOUS
 10
104.7656709245
 20
-80.3528978769
 11
104.9433378028
 21
-80.4123857484
  0
LWPOLYLINE
  5
33D
100
AcDbEntity
  8
RACCORDO
100
AcDbPolyline
 62
7
  6
CONTINUOUS
 90
10
 70
0
 10
104.6807622647
 20
-80.3761836889
 10
104.7475135434
 20
-80.4009677883
 10
104.9207003585
 20
-80.4602617388
 10
105.0959952622
 20
-80.5131573235
 10
105.2733961817
 20
-80.559661516
 10
105.4529444429
 20
-80.5997532803
 10
105.6341280265
 20
-80.6332773772
 10
105.8161072014
 20
-80.6600780575
 10
105.9984305095
 20
-80.6801239084
 10
106.1810481993
 20
-80.693435272
  0
LINE
  5
33E
100
AcDbEntity
  8
RACCORDO
100
AcDbLine
 62
253
  6
CONTINUOUS
 10
104.5935824335
 20
-80.2876247163
 11
104.7696890852
 21
-80.3526576871
  0
LINE
  5
33F
100
AcDbEntity
  8
RACCORDO
100
AcDbLine
 62
7
  6
CONTINUOUS
 10
104.5767046173
 20
-80.3353414419
 11
104.6807622647
 21
-80.3761836889
  0
LINE
  5
340
100
AcDbEntity
  8
RACCORDO
100
AcDbLine
 62
253
  6
CONTINUOUS
 10
104.423411045
 20
-80.2169893031
 11
104.5971535275
 21
-80.2873675515
  0
LINE
  5
341
100
AcDbEntity
  8
RACCORDO
100
AcDbLine
 62
253
  6
CONTINUOUS
 10
104.2563352908
 20
-80.1414845286
 11
104.4265197193
 21
-80.2167118924
  0
LINE
  5
342
100
AcDbEntity
  8
RACCORDO
100
AcDbLine
 62
253
  6
CONTINUOUS
 10
104.0929801449
 20
-80.0614685515
 11
104.2589917923
 21
-80.1411929284
  0
LWPOLYLINE
  5
343
100
AcDbEntity
  8
RACCORDO
100
AcDbPolyline
 62
253
  6
CONTINUOUS
 90
5
 70
0
 10
103.3276666975
 20
79.5925851437
 10
103.4734557641
 20
79.6953443586
 10
103.6231081291
 20
79.7937220976
 10
103.7764232736
 20
79.8876217855
 10
103.9330738171
 20
79.9768772097
  0
LWPOLYLINE
  5
344
100
AcDbEntity
  8
RACCORDO
100
AcDbPolyline
 62
253
  6
CONTINUOUS
 90
17
 70
0
 10
103.4741360656
 20
79.6944035716
 10
103.624479702
 20
79.7925406147
 10
103.7785003559
 20
79.886215806
 10
103.935873473
 20
79.9752629712
 10
104.0965190307
 20
80.0596594346
 10
104.2606259896
 20
80.1394888418
 10
104.4284751507
 20
80.2148167857
 10
104.5994336372
 20
80.2852815298
 10
104.7722917816
 20
80.3503804779
 10
104.9462567107
 20
80.4099167316
 10
105.1216145187
 20
80.4641142253
 10
105.298748745
 20
80.5131519583
 10
105.4780301905
 20
80.557127074
 10
105.6586406849
 20
80.5958265993
 10
105.8391767937
 20
80.6290119119
 10
106.0190018664
 20
80.6566909321
 10
106.1982705402
 20
80.67900421
  0
LWPOLYLINE
  5
345
100
AcDbEntity
  8
RACCORDO
100
AcDbPolyline
 62
253
  6
CONTINUOUS
 90
19
 70
0
 10
103.3370900904
 20
79.2940690286
 10
103.4871756779
 20
79.3848852125
 10
103.6411991214
 20
79.4714660516
 10
103.7989734907
 20
79.5537053469
 10
103.9603139465
 20
79.6314978549
 10
104.1250274461
 20
79.7047342579
 10
104.2929120823
 20
79.7733021623
 10
104.4638808582
 20
79.8371314351
 10
104.6376364908
 20
79.8960696401
 10
104.8136443409
 20
79.949910508
 10
104.9915536114
 20
79.9985678958
 10
105.1712571807
 20
80.0420590768
 10
105.3525686204
 20
80.0803714271
 10
105.5353924057
 20
80.1135018989
 10
105.7193654171
 20
80.1413949238
 10
105.9038957114
 20
80.163986028
 10
106.0886293014
 20
80.1812713559
 10
106.2734575467
 20
80.1932735746
 10
106.4581549895
 20
80.1999992955
  0
LWPOLYLINE
  5
346
100
AcDbEntity
  8
RACCORDO
100
AcDbPolyline
 62
253
  6
CONTINUOUS
 90
19
 70
0
 10
103.3858936139
 20
79.1130098663
 10
103.5360270045
 20
79.1993194777
 10
103.6899218966
 20
79.2815334966
 10
103.8474026632
 20
79.3595496291
 10
104.0083317303
 20
79.4332822783
 10
104.1724925066
 20
79.5026081886
 10
104.3395822616
 20
79.5673774837
 10
104.5094121184
 20
79.6274948013
 10
104.6817959816
 20
79.6828657524
 10
104.8564220089
 20
79.7333637065
 10
105.0330820632
 20
79.7789357615
 10
105.2115592386
 20
79.819551196
 10
105.3915114327
 20
79.8551568231
 10
105.5727151284
 20
79.8857321753
 10
105.7549551589
 20
79.9112582671
 10
105.9378979415
 20
79.9317041765
 10
106.1212868776
 20
79.9470573903
 10
106.304944617
 20
79.9573132058
 10
106.4886572407
 20
79.9624623292
  0
LINE
  5
347
100
AcDbEntity
  8
RACCORDO
100
AcDbLine
 62
253
  6
CONTINUOUS
 10
103.9330738171
 20
79.9768772097
 11
104.0952058329
 21
80.0611748221
  0
LINE
  5
348
100
AcDbEntity
  8
RACCORDO
100
AcDbLine
 62
253
  6
CONTINUOUS
 10
103.9348777019
 20
-79.9765894664
 11
104.0952058328
 21
-80.0611748221
  0
LWPOLYLINE
  5
349
100
AcDbEntity
  8
RACCORDO
100
AcDbPolyline
 62
253
  6
CONTINUOUS
 90
19
 70
0
 10
103.3858936139
 20
-79.1130098663
 10
103.5360257885
 20
-79.1993188036
 10
103.6899197638
 20
-79.2815323991
 10
103.8473999401
 20
-79.3595483313
 10
104.0083288906
 20
-79.4332810286
 10
104.1724899272
 20
-79.5026071444
 10
104.3395799571
 20
-79.5673766294
 10
104.509409973
 20
-79.6274940772
 10
104.681794004
 20
-79.6828651491
 10
104.856420207
 20
-79.7333632138
 10
105.0330804441
 20
-79.7789353686
 10
105.2115578089
 20
-79.819550892
 10
105.3915101978
 20
-79.8551565969
 10
105.5727140929
 20
-79.8857320154
 10
105.7549543267
 20
-79.9112581624
 10
105.9378973153
 20
-79.9317041153
 10
106.1212864591
 20
-79.9470573611
 10
106.3049444075
 20
-79.957313197
 10
106.4886572407
 20
-79.9624623292
  0
LWPOLYLINE
  5
34A
100
AcDbEntity
  8
RACCORDO
100
AcDbPolyline
 62
253
  6
CONTINUOUS
 90
19
 70
0
 10
103.3370900904
 20
-79.2940690286
 10
103.4871756694
 20
-79.3848852075
 10
103.6411991064
 20
-79.4714660435
 10
103.7989734715
 20
-79.5537053373
 10
103.9603139265
 20
-79.6314978456
 10
104.1250274279
 20
-79.7047342502
 10
104.292912066
 20
-79.7733021559
 10
104.463880843
 20
-79.8371314297
 10
104.6376364768
 20
-79.8960696355
 10
104.8136443281
 20
-79.9499105043
 10
104.9915536
 20
-79.9985678928
 10
105.1712571706
 20
-80.0420590745
 10
105.3525686117
 20
-80.0803714254
 10
105.5353923983
 20
-80.1135018977
 10
105.7193654112
 20
-80.141394923
 10
105.9038957069
 20
-80.1639860275
 10
106.0886292984
 20
-80.1812713556
 10
106.2734575453
 20
-80.1932735745
 10
106.4581549895
 20
-80.1999992955
  0
LWPOLYLINE
  5
34B
100
AcDbEntity
  8
RACCORDO
100
AcDbPolyline
 62
253
  6
CONTINUOUS
 90
4
 70
0
 10
103.4734557641
 20
-79.6953443586
 10
103.6231081291
 20
-79.7937220976
 10
103.7764232736
 20
-79.8876217855
 10
103.9330738171
 20
-79.9768772097
  0
LWPOLYLINE
  5
34C
100
AcDbEntity
  8
RACCORDO
100
AcDbPolyline
 62
253
  6
CONTINUOUS
 90
18
 70
0
 10
103.3276686043
 20
-79.5919025024
 10
103.474135736
 20
-79.6944033488
 10
103.6244791223
 20
-79.7925402494
 10
103.7784996136
 20
-79.8862153704
 10
103.935872696
 20
-79.9752625474
 10
104.0965183213
 20
-80.0596590758
 10
104.2606253533
 20
-80.1394885444
 10
104.4284745581
 20
-80.2148165306
 10
104.5994330921
 20
-80.2852813149
 10
104.7722912858
 20
-80.3503802998
 10
104.9462562649
 20
-80.4099165865
 10
105.1216141244
 20
-80.4641141098
 10
105.298748404
 20
-80.5131518693
 10
105.4780299048
 20
-80.5571270084
 10
105.6586404558
 20
-80.5958265537
 10
105.8391766218
 20
-80.6290118829
 10
106.0190017518
 20
-80.6566909162
 10
106.198270483
 20
-80.6790042037
  0
LINE
  5
34D
100
AcDbEntity
  8
SUPERFICI
100
AcDbLine
 62
7
  6
CONTINUOUS
 10
103.3275848497
 20
79.6020679402
 11
103.3160565172
 21
79.5927879027
  0
LWPOLYLINE
  5
34E
100
AcDbEntity
  8
RACCORDO
100
AcDbPolyline
 62
7
  6
CONTINUOUS
 90
9
 70
0
 10
103.3160566251
 20
79.5927879583
 10
103.4606561986
 20
79.7052048101
 10
103.6094612161
 20
79.8123521146
 10
103.7622712135
 20
79.9140847115
 10
103.9190307611
 20
80.0103428435
 10
104.0793961797
 20
80.1008824266
 10
104.2427048767
 20
80.1853294283
 10
104.4084669559
 20
80.2634694962
 10
104.5767046171
 20
80.3353414419
  0
LINE
  5
34F
100
AcDbEntity
  8
0
100
AcDbLine
 62
7
  6
CONTINUOUS
 10
111.6230234575
 20
-64.377801
 11
111.7234115265
 21
-64.377801
  0
LWPOLYLINE
  5
350
100
AcDbEntity
  8
RACCORDO
100
AcDbPolyline
 62
7
  6
CONTINUOUS
 90
9
 70
0
 10
103.3160566251
 20
-79.5927879583
 10
103.4606561987
 20
-79.7052048101
 10
103.6094612163
 20
-79.8123521147
 10
103.7622712137
 20
-79.9140847116
 10
103.9190307612
 20
-80.0103428436
 10
104.0793961799
 20
-80.1008824267
 10
104.2427048769
 20
-80.1853294283
 10
104.4084669561
 20
-80.2634694962
 10
104.5767046173
 20
-80.3353414419
  0
LWPOLYLINE
  5
351
100
AcDbEntity
  8
SUPERFICI
100
AcDbPolyline
 62
7
  6
CONTINUOUS
 90
31
 70
0
 10
103.3556106269
 20
-79.6243934816
 10
103.3854127256
 20
-79.6477748225
 10
103.4170028984
 20
-79.6721623221
 10
103.4504729486
 20
-79.6975643117
 10
103.4857881064
 20
-79.7238891293
 10
103.5227671333
 20
-79.7509394621
 10
103.5615714729
 20
-79.7787705662
 10
103.6020929926
 20
-79.8072400284
 10
103.6437295108
 20
-79.8358750014
 10
103.6864610713
 20
-79.8646257759
 10
103.730332975
 20
-79.8934863581
 10
103.7748166011
 20
-79.9220834632
 10
103.8198892399
 20
-79.950389387
 10
103.8655757012
 20
-79.9784065324
 10
103.9113979655
 20
-80.0058384464
 10
103.9572014064
 20
-80.0326026931
 10
104.0031224131
 20
-80.0587889159
 10
104.0491095355
 20
-80.0843753685
 10
104.0950463372
 20
-80.1093078059
 10
104.1410309124
 20
-80.1336498284
 10
104.1873376579
 20
-80.157549127
 10
104.2339732834
 20
-80.1810057422
 10
104.2809236407
 20
-80.2040090779
 10
104.3284402793
 20
-80.2266740972
 10
104.3765254122
 20
-80.2489885
 10
104.4251763789
 20
-80.2709375803
 10
104.4746446563
 20
-80.2926163727
 10
104.5248681719
 20
-80.3139754261
 10
104.5759137171
 20
-80.335020624
 10
104.6282354058
 20
-80.3559062456
 10
104.6807622647
 20
-80.3761836889
  0
LWPOLYLINE
  5
352
100
AcDbEntity
  8
SUPERFICI
100
AcDbPolyline
 62
7
  6
CONTINUOUS
 90
3
 70
0
 10
103.3160565171
 20
-79.5927879027
 10
103.3275848499
 20
-79.6020679404
 10
103.3556106269
 20
-79.6243934816
  0
LWPOLYLINE
  5
353
100
AcDbEntity
  8
RACCORDO
100
AcDbPolyline
 62
253
  6
CONTINUOUS
 90
43
 70
0
 10
103.3276686043
 20
-79.5919025024
 10
103.3257062635
 20
-79.5901385111
 10
103.3238739391
 20
-79.5880879017
 10
103.3221716242
 20
-79.585750529
 10
103.3206046298
 20
-79.5831301235
 10
103.3191676984
 20
-79.5802225725
 10
103.3178449854
 20
-79.5770157509
 10
103.3166341022
 20
-79.5735038258
 10
103.3155375734
 20
-79.5696907671
 10
103.3145469179
 20
-79.565583116
 10
103.3136621467
 20
-79.5611866907
 10
103.3128834455
 20
-79.5565032304
 10
103.3122025818
 20
-79.5515393557
 10
103.3116187499
 20
-79.5463029593
 10
103.3111329982
 20
-79.5407975111
 10
103.3107398649
 20
-79.5350251768
 10
103.3104380752
 20
-79.5289965781
 10
103.3102291926
 20
-79.522712499
 10
103.310112022
 20
-79.5161574098
 10
103.3100842994
 20
-79.5093246354
 10
103.3101486534
 20
-79.5022245982
 10
103.3103112625
 20
-79.4948644871
 10
103.3105750849
 20
-79.4872516913
 10
103.3109373765
 20
-79.4793887186
 10
103.3113957837
 20
-79.4712748806
 10
103.3119488726
 20
-79.4629152903
 10
103.3125980963
 20
-79.4543178558
 10
103.3133454362
 20
-79.4454849716
 10
103.314190441
 20
-79.43641648
 10
103.3151335833
 20
-79.4271245956
 10
103.3161782385
 20
-79.4176308603
 10
103.3173237851
 20
-79.4079388148
 10
103.3185708357
 20
-79.3980594993
 10
103.3199246323
 20
-79.3880283244
 10
103.3213850152
 20
-79.3778518648
 10
103.3229520992
 20
-79.3675413015
 10
103.3246315674
 20
-79.3571422477
 10
103.3264248413
 20
-79.3466593148
 10
103.3283304184
 20
-79.3361083648
 10
103.3303496373
 20
-79.3255559762
 10
103.3324829278
 20
-79.3150334647
 10
103.3347297689
 20
-79.3045340313
 10
103.3370900904
 20
-79.2940690286
  0
LWPOLYLINE
  5
354
100
AcDbEntity
  8
RACCORDO
100
AcDbPolyline
 62
253
  6
CONTINUOUS
 90
13
 70
0
 10
103.4355825601
 20
58.1058075257
 10
103.8764737775
 20
58.2523095816
 10
104.3238422514
 20
58.3902935235
 10
104.7770607575
 20
58.5195516659
 10
105.2353847817
 20
58.6398477408
 10
105.6983191558
 20
58.7510145362
 10
106.1656313508
 20
58.8529302941
 10
106.6367296901
 20
58.9454330229
 10
107.1109465378
 20
59.0284486549
 10
107.5879527629
 20
59.1019640111
 10
108.0672153561
 20
59.165914717
 10
108.5479903828
 20
59.220206072
 10
109.0296396478
 20
59.264760751
  0
LINE
  5
355
100
AcDbEntity
  8
RACCORDO
100
AcDbLine
 62
253
  6
CONTINUOUS
 10
103.204521584
 20
-58.1059965222
 11
103.2057159418
 21
-58.1059792112
  0
LINE
  5
356
100
AcDbEntity
  8
RACCORDO
100
AcDbLine
 62
253
  6
CONTINUOUS
 10
103.204521584
 20
-56.8875958225
 11
103.2057211806
 21
-56.887580052
  0
LINE
  5
357
100
AcDbEntity
  8
RACCORDO
100
AcDbLine
 62
253
  6
CONTINUOUS
 10
103.2057159418
 20
-58.1059792112
 11
103.43558256
 21
-58.1058075257
  0
LINE
  5
358
100
AcDbEntity
  8
RACCORDO
100
AcDbLine
 62
253
  6
CONTINUOUS
 10
103.2057211806
 20
-56.887580052
 11
103.436439845
 21
-56.8874239022
  0
LINE
  5
359
100
AcDbEntity
  8
0
100
AcDbLine
 62
7
  6
CONTINUOUS
 10
111.8461253013
 20
-61.578098
 11
111.9463781291
 21
-61.578098
  0
LINE
  5
35A
100
AcDbEntity
  8
SUPERFICI
100
AcDbLine
 62
7
  6
CONTINUOUS
 10
111.9487115351
 20
-61.5452484808
 11
111.8484601207
 21
-61.5452484808
  0
LINE
  5
35B
100
AcDbEntity
  8
RACCORDO
100
AcDbLine
 62
253
  6
CONTINUOUS
 10
111.6031463473
 20
-58.0386432835
 11
109.8573092386
 21
-58.038643566
  0
LINE
  5
35C
100
AcDbEntity
  8
RACCORDO
100
AcDbLine
 62
253
  6
CONTINUOUS
 10
112.0545215618
 20
-58.1493621698
 11
111.5987327529
 21
-58.1264158295
  0
LINE
  5
35D
100
AcDbEntity
  8
RACCORDO
100
AcDbLine
 62
253
  6
CONTINUOUS
 10
109.5239250492
 20
-57.9502798439
 11
109.6491467223
 21
-57.9565710145
  0
LINE
  5
35E
100
AcDbEntity
  8
RACCORDO
100
AcDbLine
 62
253
  6
CONTINUOUS
 10
112.0589400787
 20
-58.0615155119
 11
111.6031463473
 21
-58.038643284
  0
LINE
  5
35F
100
AcDbEntity
  8
RACCORDO
100
AcDbLine
 62
253
  6
CONTINUOUS
 10
109.5203381864
 20
-58.0216128046
 11
109.857309983
 21
-58.0386319559
  0
LINE
  5
360
100
AcDbEntity
  8
RACCORDO
100
AcDbLine
 62
253
  6
CONTINUOUS
 10
109.4015669776
 20
-60.1099699854
 11
109.5265056011
 21
-60.1178718504
  0
LWPOLYLINE
  5
361
100
AcDbEntity
  8
RACCORDO
100
AcDbPolyline
 62
253
  6
CONTINUOUS
 90
13
 70
0
 10
103.4355825601
 20
-58.1058075257
 10
103.8764737783
 20
-58.2523095818
 10
104.3238422528
 20
-58.3902935239
 10
104.7770607593
 20
-58.5195516663
 10
105.2353847835
 20
-58.6398477413
 10
105.6983191573
 20
-58.7510145365
 10
106.165631352
 20
-58.8529302943
 10
106.6367296911
 20
-58.9454330231
 10
107.1109465387
 20
-59.028448655
 10
107.5879527635
 20
-59.1019640112
 10
108.0672153565
 20
-59.165914717
 10
108.5479903831
 20
-59.220206072
 10
109.0296396478
 20
-59.264760751
  0
LINE
  5
362
100
AcDbEntity
  8
RACCORDO
100
AcDbLine
 62
253
  6
CONTINUOUS
 10
103.3276384957
 20
79.5925493801
 11
103.3276666975
 21
79.5925851437
  0
LWPOLYLINE
  5
363
100
AcDbEntity
  8
RACCORDO
100
AcDbPolyline
 62
253
  6
CONTINUOUS
 90
13
 70
0
 10
103.4364398449
 20
56.8874239022
 10
103.8836909935
 20
57.0326787716
 10
104.3372384185
 20
57.1694955232
 10
104.7964573818
 20
57.2976745848
 10
105.2605897885
 20
57.4169845611
 10
105.729160793
 20
57.5272708783
 10
106.2019935658
 20
57.6284296044
 10
106.6785062039
 20
57.7203051086
 10
107.1580358497
 20
57.8028273439
 10
107.640304301
 20
57.875993023
 10
108.124801885
 20
57.9397419029
 10
108.6107796424
 20
57.9939798467
 10
109.0976086367
 20
58.0386321179
  0
LWPOLYLINE
  5
364
100
AcDbEntity
  8
RACCORDO
100
AcDbPolyline
 62
253
  6
CONTINUOUS
 90
13
 70
0
 10
103.6822569995
 20
56.0613900951
 10
104.1165775167
 20
56.1948776934
 10
104.5562300092
 20
56.3206434551
 10
105.0006757345
 20
56.4385199298
 10
105.4492319374
 20
56.5483068238
 10
105.9015183787
 20
56.6498818375
 10
106.3574701314
 20
56.7431781784
 10
106.8165980245
 20
56.8280964841
 10
107.2783088895
 20
56.9045794461
 10
107.7423890044
 20
56.9726268186
 10
108.2084086191
 20
57.0321877139
 10
108.6757154137
 20
57.0831807052
 10
109.1437686413
 20
57.1255417641
  0
LWPOLYLINE
  5
365
100
AcDbEntity
  8
RACCORDO
100
AcDbPolyline
 62
253
  6
CONTINUOUS
 90
22
 70
0
 10
104.9602576831
 20
-55.8383537345
 10
105.0008689707
 20
-55.8297806746
 10
105.0403633989
 20
-55.8187140677
 10
105.0787383794
 20
-55.8051587543
 10
105.1161257939
 20
-55.789034811
 10
105.1523890026
 20
-55.7704311397
 10
105.1871210765
 20
-55.7496075191
 10
105.2203139802
 20
-55.726536919
 10
105.2519677866
 20
-55.701258518
 10
105.2816848335
 20
-55.6741345215
 10
105.3094239478
 20
-55.6451563959
 10
105.335216262
 20
-55.6143462192
 10
105.3587704629
 20
-55.5821141079
 10
105.3800514051
 20
-55.5484537638
 10
105.3990838132
 20
-55.5133840785
 10
105.4156651034
 20
-55.4773536385
 10
105.4297610089
 20
-55.4403201421
 10
105.4413963535
 20
-55.4023357787
 10
105.4504569577
 20
-55.3639905912
 10
105.4569022336
 20
-55.3254833124
 10
105.4607654636
 20
-55.2866211279
 10
105.462043745
 20
-55.2474058186
  0
LINE
  5
366
100
AcDbEntity
  8
RACCORDO
100
AcDbLine
 62
7
  6
CONTINUOUS
 10
103.4524271307
 20
-55.8089415249
 11
104.9566150963
 21
-55.5437126025
  0
LINE
  5
367
100
AcDbEntity
  8
RACCORDO
100
AcDbLine
 62
253
  6
CONTINUOUS
 10
103.4369452492
 20
-56.104222867
 11
104.9602576831
 21
-55.8383537345
  0
LWPOLYLINE
  5
368
100
AcDbEntity
  8
RACCORDO
100
AcDbPolyline
 62
253
  6
CONTINUOUS
 90
7
 70
0
 10
103.204521584
 20
-56.1043838508
 10
103.2057575301
 20
-56.1042182048
 10
103.2093743437
 20
-56.1042417191
 10
103.2152880009
 20
-56.1043399828
 10
103.2235239524
 20
-56.1043120446
 10
103.2340909141
 20
-56.1042228178
 10
103.2615462342
 20
-56.1043237705
  0
LWPOLYLINE
  5
369
100
AcDbEntity
  8
RACCORDO
100
AcDbPolyline
 62
253
  6
CONTINUOUS
 90
3
 70
0
 10
105.204521584
 20
-55.2482701106
 10
105.2058813943
 20
-55.2481870761
 10
105.209948498
 20
-55.2481047942
  0
LINE
  5
36A
100
AcDbEntity
  8
RACCORDO
100
AcDbLine
 62
253
  6
CONTINUOUS
 10
105.209948498
 20
-55.2481047942
 11
105.2260328975
 21
-55.2479454588
  0
LWPOLYLINE
  5
36B
100
AcDbEntity
  8
RACCORDO
100
AcDbPolyline
 62
253
  6
CONTINUOUS
 90
3
 70
0
 10
103.2615462342
 20
-56.1043237705
 10
103.2782743451
 20
-56.1042053523
 10
103.3170265688
 20
-56.104318418
  0
LWPOLYLINE
  5
36C
100
AcDbEntity
  8
RACCORDO
100
AcDbPolyline
 62
253
  6
CONTINUOUS
 90
6
 70
0
 10
103.3170265688
 20
-56.104318418
 10
103.3387117904
 20
-56.1041954431
 10
103.3617685844
 20
-56.1042385259
 10
103.3859979421
 20
-56.1044572642
 10
103.4111397441
 20
-56.1045085201
 10
103.4369452492
 20
-56.104222867
  0
LINE
  5
36D
100
AcDbEntity
  8
RACCORDO
100
AcDbLine
 62
253
  6
CONTINUOUS
 10
105.2260328975
 20
-55.2479454588
 11
105.3306233667
 21
-55.2475586676
  0
LINE
  5
36E
100
AcDbEntity
  8
RACCORDO
100
AcDbLine
 62
253
  6
CONTINUOUS
 10
105.3306233667
 20
-55.2475586676
 11
105.462043745
 21
-55.2474058186
  0
LWPOLYLINE
  5
36F
100
AcDbEntity
  8
RACCORDO
100
AcDbPolyline
 62
253
  6
CONTINUOUS
 90
13
 70
0
 10
103.6822569995
 20
-56.0613900951
 10
104.1165775684
 20
-56.1948777087
 10
104.5562300977
 20
-56.3206434795
 10
105.0006758445
 20
-56.4385199578
 10
105.4492320471
 20
-56.5483068496
 10
105.9015184714
 20
-56.6498818574
 10
106.3574702066
 20
-56.743178193
 10
106.8165980875
 20
-56.8280964952
 10
107.2783089402
 20
-56.904579454
 10
107.7423890426
 20
-56.9726268238
 10
108.2084086447
 20
-57.032187717
 10
108.6757154265
 20
-57.0831807064
 10
109.1437686413
 20
-57.1255417641
  0
LWPOLYLINE
  5
370
100
AcDbEntity
  8
RACCORDO
100
AcDbPolyline
 62
253
  6
CONTINUOUS
 90
13
 70
0
 10
103.4364398449
 20
-56.8874239022
 10
103.8836909935
 20
-57.0326787716
 10
104.3372384185
 20
-57.1694955232
 10
104.7964573818
 20
-57.2976745848
 10
105.2605897885
 20
-57.4169845611
 10
105.729160793
 20
-57.5272708783
 10
106.2019935658
 20
-57.6284296044
 10
106.6785062039
 20
-57.7203051086
 10
107.1580358497
 20
-57.8028273439
 10
107.640304301
 20
-57.875993023
 10
108.124801885
 20
-57.9397419029
 10
108.6107796424
 20
-57.9939798467
 10
109.0976086367
 20
-58.0386321179
  0
LWPOLYLINE
  5
371
100
AcDbEntity
  8
RACCORDO
100
AcDbPolyline
 62
253
  6
CONTINUOUS
 90
6
 70
0
 10
106.6348593895
 20
81.5819137611
 10
106.6456402325
 20
81.5962863984
 10
106.6580625159
 20
81.6092599705
 10
106.6719474889
 20
81.6206477942
 10
106.6870953538
 20
81.6302860041
 10
106.70328814
 20
81.6380359112
  0
LWPOLYLINE
  5
372
100
AcDbEntity
  8
RACCORDO
100
AcDbPolyline
 62
253
  6
CONTINUOUS
 90
19
 70
0
 10
104.9566160802
 20
48.4562873202
 10
104.9528903808
 20
48.4545083509
 10
104.949575882
 20
48.4505661033
 10
104.9466970003
 20
48.444489618
 10
104.9442749428
 20
48.4363236576
 10
104.9423275519
 20
48.4261283767
 10
104.940869173
 20
48.4139788792
 10
104.9399105493
 20
48.3999646646
 10
104.9394587426
 20
48.3841889687
 10
104.9395170812
 20
48.3667680035
 10
104.9400851352
 20
48.347830101
 10
104.9411587203
 20
48.3275147676
 10
104.9427299277
 20
48.3059716564
 10
104.9447871833
 20
48.2833594653
 10
104.9473153322
 20
48.2598447674
 10
104.9502957508
 20
48.2356007841
 10
104.9537064837
 20
48.2108061092
 10
104.9575224059
 20
48.1856433932
 10
104.9617154072
 20
48.1602979976
  0
LWPOLYLINE
  5
373
100
AcDbEntity
  8
RACCORDO
100
AcDbPolyline
 62
253
  6
CONTINUOUS
 90
19
 70
0
 10
103.4524271307
 20
48.1910584751
 10
103.4471382739
 20
48.1890070174
 10
103.4425541543
 20
48.1848815805
 10
103.4385560742
 20
48.1787049513
 10
103.4348880229
 20
48.1704503768
 10
103.4315886751
 20
48.1601471558
 10
103.4289759259
 20
48.14793714
 10
103.4269099532
 20
48.1339215627
 10
103.4252495006
 20
48.1181487113
 10
103.424309852
 20
48.1007564201
 10
103.4239671229
 20
48.08188983
 10
103.424055208
 20
48.0616710363
 10
103.4248613695
 20
48.040231792
 10
103.4262592085
 20
48.0177479148
 10
103.4280838709
 20
47.9943926937
 10
103.430594603
 20
47.9703002462
 10
103.4337814381
 20
47.9456445076
 10
103.4373497489
 20
47.9206457078
 10
103.4411366183
 20
47.8955106706
  0
LWPOLYLINE
  5
374
100
AcDbEntity
  8
RACCORDO
100
AcDbPolyline
 62
253
  6
CONTINUOUS
 90
3
 70
0
 10
105.2045214635
 20
-48.7517298894
 10
105.205885522
 20
-48.7516690931
 10
105.2099653128
 20
-48.7516088499
  0
LINE
  5
375
100
AcDbEntity
  8
RACCORDO
100
AcDbLine
 62
253
  6
CONTINUOUS
 10
105.2099653128
 20
-48.7516088499
 11
105.2380068362
 21
-48.7514368616
  0
LWPOLYLINE
  5
376
100
AcDbEntity
  8
RACCORDO
100
AcDbPolyline
 62
253
  6
CONTINUOUS
 90
7
 70
0
 10
103.2797840439
 20
-47.8956165431
 10
103.3192706837
 20
-47.8954652884
 10
103.3413450981
 20
-47.8955774436
 10
103.3647999259
 20
-47.8955206531
 10
103.3894288585
 20
-47.8952847654
 10
103.4149605293
 20
-47.8952233707
 10
103.4411366183
 20
-47.8955106706
  0
LINE
  5
377
100
AcDbEntity
  8
RACCORDO
100
AcDbLine
 62
253
  6
CONTINUOUS
 10
105.2380068362
 20
-48.7514368616
 11
105.4627079195
 21
-48.7510978831
  0
LWPOLYLINE
  5
378
100
AcDbEntity
  8
RACCORDO
100
AcDbPolyline
 62
253
  6
CONTINUOUS
 90
9
 70
0
 10
103.204521584
 20
-47.8956161492
 10
103.2057845853
 20
-47.8957625855
 10
103.2094789253
 20
-47.8957133859
 10
103.2155172464
 20
-47.8955872005
 10
103.2239254961
 20
-47.8955922982
 10
103.2347126516
 20
-47.8956617161
 10
103.2476982032
 20
-47.8955603738
 10
103.2627265389
 20
-47.8955135711
 10
103.2797840439
 20
-47.8956165431
  0
LINE
  5
379
100
AcDbEntity
  8
RACCORDO
100
AcDbLine
 62
253
  6
CONTINUOUS
 10
104.9617154597
 20
-48.1602979982
 11
103.4411366183
 21
-47.8955106706
  0
LINE
  5
37A
100
AcDbEntity
  8
RACCORDO
100
AcDbLine
 62
7
  6
CONTINUOUS
 10
104.9566135134
 20
-48.4562871184
 11
103.4524271307
 21
-48.1910584751
  0
LWPOLYLINE
  5
37B
100
AcDbEntity
  8
RACCORDO
100
AcDbPolyline
 62
253
  6
CONTINUOUS
 90
19
 70
0
 10
103.4524271307
 20
-48.1910584751
 10
103.4471382783
 20
-48.1890070198
 10
103.442554161
 20
-48.1848815879
 10
103.4385560817
 20
-48.178704966
 10
103.434888031
 20
-48.1704504005
 10
103.4315886834
 20
-48.1601471899
 10
103.4289759332
 20
-48.1479371847
 10
103.4269099588
 20
-48.1339216173
 10
103.4252495045
 20
-48.1181487746
 10
103.4243098537
 20
-48.1007564901
 10
103.4239671221
 20
-48.081889904
 10
103.4240552052
 20
-48.0616711112
 10
103.4248613651
 20
-48.0402318646
 10
103.4262592029
 20
-48.0177479817
 10
103.4280838648
 20
-47.9943927515
 10
103.4305945972
 20
-47.9703002924
 10
103.4337814337
 20
-47.9456445403
 10
103.4373497465
 20
-47.920645725
 10
103.4411366183
 20
-47.8955106706
  0
LWPOLYLINE
  5
37C
100
AcDbEntity
  8
RACCORDO
100
AcDbPolyline
 62
253
  6
CONTINUOUS
 90
19
 70
0
 10
104.9566160373
 20
-48.4562875634
 10
104.9528903365
 20
-48.4545086123
 10
104.9495758369
 20
-48.4505663777
 10
104.9466969551
 20
-48.4444899001
 10
104.9442748982
 20
-48.4363239422
 10
104.9423275086
 20
-48.426128659
 10
104.9408691318
 20
-48.4139791542
 10
104.9399105109
 20
-48.3999649279
 10
104.9394587076
 20
-48.3841892163
 10
104.9395170502
 20
-48.3667682319
 10
104.9400851089
 20
-48.3478303072
 10
104.9411586991
 20
-48.3275149491
 10
104.9427299121
 20
-48.3059718115
 10
104.9447871734
 20
-48.283359593
 10
104.9473153283
 20
-48.2598448672
 10
104.9502957528
 20
-48.2356008565
 10
104.9537064917
 20
-48.2108061554
 10
104.9575224195
 20
-48.185643415
 10
104.961715426
 20
-48.1602979978
  0
LWPOLYLINE
  5
37D
100
AcDbEntity
  8
RACCORDO
100
AcDbPolyline
 62
253
  6
CONTINUOUS
 90
6
 70
0
 10
106.6348593901
 20
-81.5819136312
 10
106.6456403162
 20
-81.5962861781
 10
106.6580626608
 20
-81.6092596555
 10
106.6719476737
 20
-81.6206473828
 10
106.6870955577
 20
-81.6302854974
 10
106.7032883439
 20
-81.6380353127
  0
LWPOLYLINE
  5
37E
100
AcDbEntity
  8
RACCORDO
100
AcDbPolyline
 62
253
  6
CONTINUOUS
 90
7
 70
0
 10
103.3277619608
 20
-79.592351841
 10
103.327713681
 20
-79.5922785493
 10
103.3276783973
 20
-79.5922045726
 10
103.3276561791
 20
-79.5921299499
 10
103.3276470954
 20
-79.5920547141
 10
103.3276512144
 20
-79.5919788915
 10
103.3276686043
 20
-79.5919025024
  0
LINE
  5
37F
100
AcDbEntity
  8
RACCORDO
100
AcDbLine
 62
253
  6
CONTINUOUS
 10
103.204521584
 20
-35.5536836549
 11
103.4444704626
 21
-35.5536468171
  0
LINE
  5
380
100
AcDbEntity
  8
RACCORDO
100
AcDbLine
 62
253
  6
CONTINUOUS
 10
103.204521584
 20
-34.7323507797
 11
103.444581353
 21
-34.7323165597
  0
LINE
  5
381
100
AcDbEntity
  8
RACCORDO
100
AcDbLine
 62
253
  6
CONTINUOUS
 10
103.204521584
 20
-34.1735039006
 11
103.4446519405
 21
-34.1734715269
  0
LINE
  5
382
100
AcDbEntity
  8
RACCORDO
100
AcDbLine
 62
253
  6
CONTINUOUS
 10
110.0875348756
 20
-35.4531930231
 11
110.2130175699
 21
-35.4531930231
  0
LINE
  5
383
100
AcDbEntity
  8
RACCORDO
100
AcDbLine
 62
253
  6
CONTINUOUS
 10
110.0875354605
 20
-35.4999861804
 11
112.6248759293
 21
-35.5
  0
LINE
  5
384
100
AcDbEntity
  8
RACCORDO
100
AcDbLine
 62
253
  6
CONTINUOUS
 10
110.085349783
 20
-36.8886311604
 11
110.2107843392
 21
-36.8890209389
  0
LWPOLYLINE
  5
385
100
AcDbEntity
  8
RACCORDO
100
AcDbPolyline
 62
253
  6
CONTINUOUS
 90
10
 70
0
 10
103.4446519405
 20
-34.1734715269
 10
104.1250800162
 20
-34.3015798888
 10
104.8101132149
 20
-34.4188713631
 10
105.4985964274
 20
-34.5251487751
 10
106.1884087636
 20
-34.6200988326
 10
106.8794564253
 20
-34.703729328
 10
107.5737011438
 20
-34.7763428962
 10
108.2711244806
 20
-34.8379721697
 10
108.9696808534
 20
-34.8884552531
 10
109.6683505643
 20
-34.9277458703
  0
LWPOLYLINE
  5
386
100
AcDbEntity
  8
RACCORDO
100
AcDbPolyline
 62
253
  6
CONTINUOUS
 90
10
 70
0
 10
103.444581353
 20
-34.7323165597
 10
104.1246032642
 20
-34.8625273914
 10
104.809357258
 20
-34.9817743525
 10
105.4976755237
 20
-35.0898563747
 10
106.1874253261
 20
-35.1864541856
 10
106.8784997885
 20
-35.2715747555
 10
107.5728465621
 20
-35.3455248138
 10
108.2704344234
 20
-35.408336637
 10
108.9692058826
 20
-35.4598444297
 10
109.6681287254
 20
-35.5000000065
  0
LWPOLYLINE
  5
387
100
AcDbEntity
  8
RACCORDO
100
AcDbPolyline
 62
253
  6
CONTINUOUS
 90
10
 70
0
 10
103.4444704626
 20
-35.5536468171
 10
104.1237942155
 20
-35.6869137074
 10
104.8080400562
 20
-35.8090039342
 10
105.4960218436
 20
-35.9197104955
 10
106.1855907698
 20
-36.0187052644
 10
106.8766199358
 20
-36.1059935512
 10
107.5710332848
 20
-36.1818874256
 10
108.2687798173
 20
-36.2464183898
 10
108.9677856666
 20
-36.2994149197
 10
109.6670002634
 20
-36.3408258783
  0
LINE
  5
388
100
AcDbEntity
  8
RACCORDO
100
AcDbLine
 62
253
  6
CONTINUOUS
 10
106.4886572407
 20
79.9624623292
 11
106.7462261751
 21
80.8664899137
  0
LWPOLYLINE
  5
389
100
AcDbEntity
  8
RACCORDO
100
AcDbPolyline
 62
253
  6
CONTINUOUS
 90
4
 70
0
 10
106.6137856936
 20
81.5325521676
 10
106.6188166968
 20
81.5498157081
 10
106.6258751178
 20
81.566348874
 10
106.6348593895
 20
81.5819137611
  0
LINE
  5
38A
100
AcDbEntity
  8
RACCORDO
100
AcDbLine
 62
7
  6
CONTINUOUS
 10
106.3636817914
 20
80.6998885131
 11
106.6127747614
 21
81.5408122866
  0
LINE
  5
38B
100
AcDbEntity
  8
RACCORDO
100
AcDbLine
 62
253
  6
CONTINUOUS
 10
109.0296396478
 20
59.264760751
 11
109.4015669795
 21
60.1099699924
  0
LINE
  5
38C
100
AcDbEntity
  8
RACCORDO
100
AcDbLine
 62
253
  6
CONTINUOUS
 10
109.1437686413
 20
57.1255417641
 11
109.5239250492
 21
57.9502798437
  0
LINE
  5
38D
100
AcDbEntity
  8
RACCORDO
100
AcDbLine
 62
253
  6
CONTINUOUS
 10
109.1437686413
 20
-57.1255417641
 11
109.5239250493
 21
-57.9502798439
  0
LINE
  5
38E
100
AcDbEntity
  8
RACCORDO
100
AcDbLine
 62
253
  6
CONTINUOUS
 10
109.0296396478
 20
-59.264760751
 11
109.4015669764
 21
-60.1099699853
  0
LINE
  5
38F
100
AcDbEntity
  8
RACCORDO
100
AcDbLine
 62
7
  6
CONTINUOUS
 10
106.3636817914
 20
-80.6998885131
 11
106.6127747614
 21
-81.5408122866
  0
LWPOLYLINE
  5
390
100
AcDbEntity
  8
RACCORDO
100
AcDbPolyline
 62
253
  6
CONTINUOUS
 90
4
 70
0
 10
106.613785318
 20
-81.5325522538
 10
106.6188164669
 20
-81.5498157343
 10
106.6258750137
 20
-81.5663488272
 10
106.6348593901
 20
-81.5819136312
  0
LINE
  5
391
100
AcDbEntity
  8
RACCORDO
100
AcDbLine
 62
253
  6
CONTINUOUS
 10
106.4886572407
 20
-79.9624623292
 11
106.7462261751
 21
-80.8664899137
  0
LWPOLYLINE
  5
392
100
AcDbEntity
  8
RACCORDO
100
AcDbPolyline
 62
253
  6
CONTINUOUS
 90
11
 70
0
 10
103.2081984122
 20
79.3964114159
 10
103.2127732943
 20
79.4194630023
 10
103.2191387716
 20
79.4420857417
 10
103.2272557761
 20
79.464140788
 10
103.2370744899
 20
79.4854927789
 10
103.2485346511
 20
79.5060106674
 10
103.2615659233
 20
79.5255685257
 10
103.2760883276
 20
79.544046318
 10
103.2920127331
 20
79.5613306376
 10
103.3092414044
 20
79.5773154025
 10
103.3276686011
 20
79.5919025068
  0
LINE
  5
393
100
AcDbEntity
  8
RACCORDO
100
AcDbLine
 62
253
  6
CONTINUOUS
 10
109.6670002634
 20
36.3408258783
 11
110.0853497827
 21
36.8886311604
  0
LINE
  5
394
100
AcDbEntity
  8
RACCORDO
100
AcDbLine
 62
253
  6
CONTINUOUS
 10
109.6683505643
 20
34.9277458703
 11
110.0875348756
 21
35.4531930231
  0
LINE
  5
395
100
AcDbEntity
  8
RACCORDO
100
AcDbLine
 62
253
  6
CONTINUOUS
 10
109.6683505643
 20
-34.9277458703
 11
110.0875348756
 21
-35.4531930231
  0
LINE
  5
396
100
AcDbEntity
  8
RACCORDO
100
AcDbLine
 62
253
  6
CONTINUOUS
 10
109.6670002634
 20
-36.3408258783
 11
110.0853497827
 21
-36.8886311604
  0
LWPOLYLINE
  5
397
100
AcDbEntity
  8
RACCORDO
100
AcDbPolyline
 62
253
  6
CONTINUOUS
 90
10
 70
0
 10
106.6127747614
 20
-81.5408122866
 10
106.6124946046
 20
-81.5397273284
 10
106.6123110043
 20
-81.5386878123
 10
106.6122243441
 20
-81.5376917626
 10
106.612234216
 20
-81.5367354343
 10
106.6123417311
 20
-81.5358189564
 10
106.6125497742
 20
-81.534945046
 10
106.6128598033
 20
-81.5341120915
 10
106.6132715937
 20
-81.5333154438
 10
106.6137857264
 20
-81.53255216
  0
LWPOLYLINE
  5
398
100
AcDbEntity
  8
RACCORDO
100
AcDbPolyline
 62
253
  6
CONTINUOUS
 90
13
 70
0
 10
103.204521584
 20
-79.1968192016
 10
103.2055187888
 20
-79.2063672883
 10
103.2085037697
 20
-79.215851898
 10
103.2134566825
 20
-79.2252099769
 10
103.2203446001
 20
-79.2343793121
 10
103.2291217315
 20
-79.2432989459
 10
103.2397297262
 20
-79.2519095802
 10
103.2520980621
 20
-79.2601539716
 10
103.2661445142
 20
-79.267977311
 10
103.2817757015
 20
-79.2753275888
 10
103.2988877074
 20
-79.2821559403
 10
103.3173667712
 20
-79.2884169704
 10
103.3370900436
 20
-79.2940690558
  0
LWPOLYLINE
  5
399
100
AcDbEntity
  8
RACCORDO
100
AcDbPolyline
 62
253
  6
CONTINUOUS
 90
13
 70
0
 10
103.204521584
 20
79.1968192016
 10
103.205518811
 20
79.2063673024
 10
103.2085038111
 20
79.2158519229
 10
103.21345674
 20
79.2252100092
 10
103.2203446705
 20
79.2343793485
 10
103.2291218117
 20
79.243298983
 10
103.239729813
 20
79.2519096149
 10
103.2520981524
 20
79.2601540007
 10
103.2661446049
 20
79.2679773317
 10
103.2817757897
 20
79.2753275983
 10
103.2988877906
 20
79.2821559361
 10
103.3173668467
 20
79.2884169503
 10
103.3370901092
 20
79.2940690177
  0
LWPOLYLINE
  5
39A
100
AcDbEntity
  8
RACCORDO
100
AcDbPolyline
 62
253
  6
CONTINUOUS
 90
13
 70
0
 10
103.204521584
 20
-79.3499572445
 10
103.2054429576
 20
-79.3734512217
 10
103.2082014195
 20
-79.3968008874
 10
103.2127800256
 20
-79.4198628164
 10
103.219150652
 20
-79.442495351
 10
103.2272741672
 20
-79.464559471
 10
103.2371006724
 20
-79.4859196477
 10
103.2485698086
 20
-79.5064446764
 10
103.2616111266
 20
-79.5260084822
 10
103.2761445201
 20
-79.5444908948
 10
103.292080718
 20
-79.5617783858
 10
103.3093218323
 20
-79.5777647672
 10
103.3277619596
 20
-79.5923518427
  0
LINE
  5
39B
100
AcDbEntity
  8
RACCORDO
100
AcDbLine
 62
7
  6
CONTINUOUS
 10
103.204521584
 20
-79.3593763921
 11
103.204521584
 21
-56.1043838508
  0
LINE
  5
39C
100
AcDbEntity
  8
RACCORDO
100
AcDbLine
 62
7
  6
CONTINUOUS
 10
103.204521584
 20
-47.895616149
 11
103.204521584
 21
47.895616149
  0
LINE
  5
39D
100
AcDbEntity
  8
RACCORDO
100
AcDbLine
 62
7
  6
CONTINUOUS
 10
103.204521584
 20
56.1043838508
 11
103.204521584
 21
79.3593763921
  0
LWPOLYLINE
  5
39E
100
AcDbEntity
  8
RACCORDO
100
AcDbPolyline
 62
253
  6
CONTINUOUS
 90
6
 70
0
 10
103.204521584
 20
79.3499572445
 10
103.2054429589
 20
79.3734512211
 10
103.2082014219
 20
79.396800886
 10
103.2127800291
 20
79.4198628142
 10
103.2191506565
 20
79.4424953478
 10
103.2272741726
 20
79.4645594669
  0
LWPOLYLINE
  5
39F
100
AcDbEntity
  8
RACCORDO
100
AcDbPolyline
 62
253
  6
CONTINUOUS
 90
25
 70
0
 10
105.4627078576
 20
-48.7510978822
 10
105.4614005358
 20
-48.7141288392
 10
105.4580754534
 20
-48.6779870239
 10
105.4527321501
 20
-48.6426723908
 10
105.4452885544
 20
-48.6081354202
 10
105.435826733
 20
-48.5744242316
 10
105.424592893
 20
-48.5416847403
 10
105.4116064407
 20
-48.5099202289
 10
105.3968496465
 20
-48.4791240419
 10
105.3805133306
 20
-48.4494270349
 10
105.3626324144
 20
-48.4208427078
 10
105.3431749105
 20
-48.3933528234
 10
105.3222314898
 20
-48.3670405642
 10
105.2998041578
 20
-48.3418714633
 10
105.275894999
 20
-48.3178739689
 10
105.2505950215
 20
-48.2952255535
 10
105.2239423397
 20
-48.273919749
 10
105.1959040259
 20
-48.2539559845
 10
105.1664648973
 20
-48.2355203018
 10
105.135579854
 20
-48.218554431
 10
105.1033007366
 20
-48.2031079439
 10
105.0697581367
 20
-48.1895284776
 10
105.0349981602
 20
-48.1779289137
 10
104.9989825204
 20
-48.1681870785
 10
104.9617154597
 20
-48.1602979982
  0
LWPOLYLINE
  5
3A0
100
AcDbEntity
  8
RACCORDO
100
AcDbPolyline
 62
253
  6
CONTINUOUS
 90
22
 70
0
 10
105.462043745
 20
55.2474058186
 10
105.4607454917
 20
55.2867701827
 10
105.456858874
 20
55.3257489216
 10
105.4503868112
 20
55.3643402439
 10
105.4412918243
 20
55.4027330285
 10
105.4296187285
 20
55.440732449
 10
105.4154943312
 20
55.4777602338
 10
105.3988993678
 20
55.5137608849
 10
105.3798624992
 20
55.5487800498
 10
105.3585821759
 20
55.5823909114
 10
105.335034362
 20
55.614580124
 10
105.3092534842
 20
55.6453484724
 10
105.2815246438
 20
55.6742909911
 10
105.2518125235
 20
55.7013892828
 10
105.2201624991
 20
55.7266481837
 10
105.1869785993
 20
55.7496995762
 10
105.1522640711
 20
55.7705013152
 10
105.1160235828
 20
55.7890834555
 10
105.0786603903
 20
55.8051893027
 10
105.0403099128
 20
55.8187309808
 10
105.0008414826
 20
55.8297874017
 10
104.9602576831
 20
55.8383537345
  0
LWPOLYLINE
  5
3A1
100
AcDbEntity
  8
RACCORDO
100
AcDbPolyline
 62
253
  6
CONTINUOUS
 90
3
 70
0
 10
103.405464457
 20
74.9121224905
 10
103.3967662042
 20
77.0448840979
 10
103.3858936139
 20
79.1130098663
  0
LINE
  5
3A2
100
AcDbEntity
  8
RACCORDO
100
AcDbLine
 62
253
  6
CONTINUOUS
 10
103.4182430874
 20
70.4568180486
 11
103.405464457
 21
74.9121224905
  0
LINE
  5
3A3
100
AcDbEntity
  8
RACCORDO
100
AcDbLine
 62
253
  6
CONTINUOUS
 10
103.4272487325
 20
65.739330535
 11
103.4182430874
 21
70.4568180486
  0
LINE
  5
3A4
100
AcDbEntity
  8
RACCORDO
100
AcDbLine
 62
253
  6
CONTINUOUS
 10
103.4369452492
 20
56.104222867
 11
103.4272487325
 21
65.739330535
  0
LINE
  5
3A5
100
AcDbEntity
  8
RACCORDO
100
AcDbLine
 62
253
  6
CONTINUOUS
 10
103.4464045291
 20
18.9040208876
 11
103.4411366183
 21
47.8955106706
  0
LINE
  5
3A6
100
AcDbEntity
  8
RACCORDO
100
AcDbLine
 62
7
  6
CONTINUOUS
 10
105.204521584
 20
-55.2482629908
 11
105.204521584
 21
-48.7517356621
  0
LINE
  5
3A7
100
AcDbEntity
  8
RACCORDO
100
AcDbLine
 62
7
  6
CONTINUOUS
 10
105.204521584
 20
48.7517356488
 11
105.204521584
 21
55.2482627958
  0
LINE
  5
3A8
100
AcDbEntity
  8
RACCORDO
100
AcDbLine
 62
253
  6
CONTINUOUS
 10
105.4627078576
 20
48.7510978822
 11
105.462043745
 21
55.2474058186
  0
LINE
  5
3A9
100
AcDbEntity
  8
RACCORDO
100
AcDbLine
 62
253
  6
CONTINUOUS
 10
105.462043745
 20
-55.2474058186
 11
105.4627078576
 21
-48.7510978822
  0
LINE
  5
3AA
100
AcDbEntity
  8
RACCORDO
100
AcDbLine
 62
253
  6
CONTINUOUS
 10
103.4411366183
 20
-47.8955106706
 11
103.4464045291
 21
18.9040208876
  0
LINE
  5
3AB
100
AcDbEntity
  8
RACCORDO
100
AcDbLine
 62
253
  6
CONTINUOUS
 10
103.4331859702
 20
-60.6932127568
 11
103.4369452492
 21
-56.104222867
  0
LINE
  5
3AC
100
AcDbEntity
  8
RACCORDO
100
AcDbLine
 62
253
  6
CONTINUOUS
 10
103.4233405084
 20
-68.0617084172
 11
103.4331859702
 21
-60.6932127568
  0
LWPOLYLINE
  5
3AD
100
AcDbEntity
  8
RACCORDO
100
AcDbPolyline
 62
253
  6
CONTINUOUS
 90
5
 70
0
 10
103.3858936139
 20
-79.1130098663
 10
103.3969272169
 20
-77.0170392254
 10
103.4056701987
 20
-74.8631345111
 10
103.4126192554
 20
-72.6515397499
 10
103.4233405084
 20
-68.0617084172
  0
LINE
  5
3AE
100
AcDbEntity
  8
RACCORDO
100
AcDbLine
 62
253
  6
CONTINUOUS
 10
103.204521584
 20
0.0
 11
110.2130174492
 21
0.0
  0
LWPOLYLINE
  5
3AF
100
AcDbEntity
  8
0
100
AcDbPolyline
 62
7
  6
CONTINUOUS
 90
14
 70
0
 10
106.4554645619
 20
80.2308263612
 10
106.4523810542
 20
80.2624574239
 10
106.4489204451
 20
80.2947518226
 10
106.4450722961
 20
80.3277778554
 10
106.4408958788
 20
80.3611081026
 10
106.4365353532
 20
80.3938621443
 10
106.4320928585
 20
80.4256603251
 10
106.4275734216
 20
80.4565301468
 10
106.4229913788
 20
80.4862393911
 10
106.4183766433
 20
80.5146529988
 10
106.4138120098
 20
80.5415251835
 10
106.4093672142
 20
80.5665307159
 10
106.4050389217
 20
80.5895538952
 10
106.4008364927
 20
80.6105750164
  0
LINE
  5
3B0
100
AcDbEntity
  8
RACCORDO
100
AcDbLine
 62
253
  6
CONTINUOUS
 10
108.8453895147
 20
81.2393085062
 11
108.8529817605
 21
81.131073422
  0
LWPOLYLINE
  5
3B1
100
AcDbEntity
  8
RACCORDO
100
AcDbPolyline
 62
253
  6
CONTINUOUS
 90
22
 70
0
 10
109.4015669795
 20
60.1099699924
 10
109.3117530071
 20
61.4431643745
 10
109.2140096772
 20
62.7380013531
 10
109.1092952441
 20
63.9941296537
 10
108.9986447385
 20
65.2100897699
 10
108.8828544722
 20
66.3868256978
 10
108.7623982495
 20
67.527669376
 10
108.63801713
 20
68.6325925042
 10
108.5104477585
 20
69.7013853746
 10
108.3799790082
 20
70.7371464317
 10
108.2472255046
 20
71.7399046221
 10
108.1128220305
 20
72.7095839611
 10
107.9769377988
 20
73.6491385576
 10
107.8400924332
 20
74.5586360841
 10
107.7027951311
 20
75.4380783741
 10
107.5650697959
 20
76.2903159912
 10
107.4273336187
 20
77.1154235923
 10
107.2899903058
 20
77.9134592788
 10
107.1529346965
 20
78.6872322
 10
107.0163318759
 20
79.4377247222
 10
106.8806603041
 20
80.164112597
 10
106.7462261751
 20
80.8664899137
  0
LWPOLYLINE
  5
3B2
100
AcDbEntity
  8
RACCORDO
100
AcDbPolyline
 62
253
  6
CONTINUOUS
 90
21
 70
0
 10
109.5265056041
 20
60.1178718572
 10
109.4365599774
 20
61.4525710949
 10
109.3387524443
 20
62.7482880472
 10
109.2340000281
 20
64.0050098627
 10
109.1232858602
 20
65.221765653
 10
109.0073913581
 20
66.3995367174
 10
108.8868274153
 20
67.5412486029
 10
108.762346686
 20
68.6469381681
 10
108.6346689702
 20
69.7166205672
 10
108.5041013629
 20
70.7531867501
 10
108.3712511197
 20
71.7566748905
 10
108.2367379558
 20
72.7271221579
 10
108.1007497828
 20
73.6674119487
 10
107.9638081619
 20
74.5775917119
 10
107.8264075188
 20
75.4577021609
 10
107.6885728436
 20
76.3106079603
 10
107.5507335176
 20
77.1363485261
 10
107.4132932123
 20
77.9349748918
 10
107.2761296039
 20
78.7093578626
 10
107.139408552
 20
79.4604797838
 10
107.0036308584
 20
80.1874425161
  0
LWPOLYLINE
  5
3B3
100
AcDbEntity
  8
0
100
AcDbPolyline
 62
7
  6
CONTINUOUS
 90
10
 70
0
 10
109.0296396478
 20
59.264760751
 10
108.8786815096
 20
61.5760248957
 10
108.6946165975
 20
63.8862311534
 10
108.477585764
 20
66.1944467933
 10
108.2278005258
 20
68.4992256211
 10
107.9453527859
 20
70.8001341728
 10
107.6301484389
 20
73.0977376673
 10
107.2821938677
 20
75.3915683255
 10
106.9016623343
 20
77.6801395592
 10
106.4886572407
 20
79.9624623292
  0
LINE
  5
3B4
100
AcDbEntity
  8
RACCORDO
100
AcDbLine
 62
253
  6
CONTINUOUS
 10
108.8529817605
 20
81.131073422
 11
108.8602681696
 21
81.0186447363
  0
LINE
  5
3B5
100
AcDbEntity
  8
RACCORDO
100
AcDbLine
 62
253
  6
CONTINUOUS
 10
109.5826325049
 20
59.1893587756
 11
109.5265056041
 21
60.1178718572
  0
LINE
  5
3B6
100
AcDbEntity
  8
RACCORDO
100
AcDbLine
 62
253
  6
CONTINUOUS
 10
109.4576179022
 20
59.1821416862
 11
109.4015669795
 21
60.1099699924
  0
LINE
  5
3B7
100
AcDbEntity
  8
RACCORDO
100
AcDbLine
 62
253
  6
CONTINUOUS
 10
108.8602681696
 20
81.0186447363
 11
108.8703687697
 21
80.8453434755
  0
LINE
  5
3B8
100
AcDbEntity
  8
0
100
AcDbLine
 62
7
  6
CONTINUOUS
 10
109.0902775074
 20
58.1770710576
 11
109.0296396478
 21
59.264760751
  0
LINE
  5
3B9
100
AcDbEntity
  8
RACCORDO
100
AcDbLine
 62
253
  6
CONTINUOUS
 10
109.6336099129
 20
58.2602404465
 11
109.5826325049
 21
59.1893587756
  0
LINE
  5
3BA
100
AcDbEntity
  8
RACCORDO
100
AcDbLine
 62
253
  6
CONTINUOUS
 10
109.5084529821
 20
58.2536805883
 11
109.4576179022
 21
59.1821416862
  0
LINE
  5
3BB
100
AcDbEntity
  8
0
100
AcDbLine
 62
7
  6
CONTINUOUS
 10
109.1437686413
 20
57.1255417641
 11
109.0902775074
 21
58.1770710576
  0
LWPOLYLINE
  5
3BC
100
AcDbEntity
  8
RACCORDO
100
AcDbPolyline
 62
253
  6
CONTINUOUS
 90
13
 70
0
 10
111.598732753
 20
58.1264158295
 10
111.6938795184
 20
56.1510256626
 10
111.7766411435
 20
54.265030587
 10
111.851431975
 20
52.3806813707
 10
111.9182284426
 20
50.49802372
 10
111.9770544841
 20
48.6170805798
 10
112.0279815425
 20
46.7378521196
 10
112.0710099933
 20
44.8603719395
 10
112.1061398203
 20
42.9846738065
 10
112.1334418719
 20
41.1107578101
 10
112.1529398801
 20
39.23864602
 10
112.1646104644
 20
37.3683824953
 10
112.1684538007
 20
35.5
  0
LWPOLYLINE
  5
3BD
100
AcDbEntity
  8
RACCORDO
100
AcDbPolyline
 62
253
  6
CONTINUOUS
 90
9
 70
0
 10
110.0719559147
 20
39.2285443536
 10
110.046305184
 20
41.5691803492
 10
110.008398531
 20
43.910326162
 10
109.9582319867
 20
46.2519765761
 10
109.8958094036
 20
48.5937084274
 10
109.821153335
 20
50.9346817619
 10
109.734282957
 20
53.2744739208
 10
109.6352031907
 20
55.6130783796
 10
109.5084529821
 20
58.2536805883
  0
LWPOLYLINE
  5
3BE
100
AcDbEntity
  8
RACCORDO
100
AcDbPolyline
 62
253
  6
CONTINUOUS
 90
9
 70
0
 10
110.1973679543
 20
39.2298400094
 10
110.1717076323
 20
41.5710827029
 10
110.1337956692
 20
43.9126849418
 10
110.0836161351
 20
46.2549414183
 10
110.0211672495
 20
48.5974289482
 10
109.9464796205
 20
50.9390069646
 10
109.859578091
 20
53.2792530015
 10
109.7604633512
 20
55.6184622047
 10
109.6336099129
 20
58.2602404465
  0
LWPOLYLINE
  5
3BF
100
AcDbEntity
  8
0
100
AcDbPolyline
 62
7
  6
CONTINUOUS
 90
9
 70
0
 10
109.6566292943
 20
38.650299854
 10
109.634305915
 20
40.9602261346
 10
109.6000346611
 20
43.2704061692
 10
109.5538201664
 20
45.5806440109
 10
109.4956670935
 20
47.890736842
 10
109.4255803026
 20
50.2004749906
 10
109.3435648682
 20
52.5096545634
 10
109.2496259099
 20
54.8180774309
 10
109.1437686413
 20
57.1255417641
  0
LINE
  5
3C0
100
AcDbEntity
  8
RACCORDO
100
AcDbLine
 62
253
  6
CONTINUOUS
 10
110.0871412578
 20
36.0788675094
 11
110.0719559147
 21
39.2285443536
  0
LINE
  5
3C1
100
AcDbEntity
  8
RACCORDO
100
AcDbLine
 62
253
  6
CONTINUOUS
 10
110.2125915435
 20
36.0790410842
 11
110.1973679543
 21
39.2298400094
  0
LINE
  5
3C2
100
AcDbEntity
  8
0
100
AcDbLine
 62
7
  6
CONTINUOUS
 10
109.6683505643
 20
34.9277458703
 11
109.6566292943
 21
38.650299854
  0
LINE
  5
3C3
100
AcDbEntity
  8
DRAFT
100
AcDbLine
 62
7
  6
CONTINUOUS
 10
110.4248759293
 20
35.5
 11
110.4248759293
 21
-35.5
  0
LINE
  5
3C4
100
AcDbEntity
  8
RACCORDO
100
AcDbLine
 62
253
  6
CONTINUOUS
 10
112.1684538007
 20
35.5
 11
112.1684538007
 21
-35.5
  0
LINE
  5
3C5
100
AcDbEntity
  8
RACCORDO
100
AcDbLine
 62
7
  6
CONTINUOUS
 10
112.6248759293
 20
35.4999955156
 11
112.6248759293
 21
-35.499995485
  0
LINE
  5
3C6
100
AcDbEntity
  8
0
100
AcDbLine
 62
7
  6
CONTINUOUS
 10
109.6670002634
 20
-36.3408258783
 11
109.6683505643
 21
34.9277458703
  0
LWPOLYLINE
  5
3C7
100
AcDbEntity
  8
RACCORDO
100
AcDbPolyline
 62
253
  6
CONTINUOUS
 90
12
 70
0
 10
112.1684538007
 20
-35.5
 10
112.1645928551
 20
-37.3706104545
 10
112.1528994958
 20
-39.2426968925
 10
112.1333735853
 20
-41.1162264861
 10
112.1060335192
 20
-42.9911551311
 10
112.0708606274
 20
-44.8674608021
 10
112.0277991704
 20
-46.7451435431
 10
111.9768491781
 20
-48.624169718
 10
111.9180103385
 20
-50.504505851
 10
111.8512263923
 20
-52.38615196
 10
111.7764784887
 20
-54.2690853342
 10
111.6937851886
 20
-56.1532605483
  0
LINE
  5
3C8
100
AcDbEntity
  8
RACCORDO
100
AcDbLine
 62
253
  6
CONTINUOUS
 10
110.0853497827
 20
-36.8886311604
 11
110.0871412578
 21
36.0788675094
  0
LINE
  5
3C9
100
AcDbEntity
  8
RACCORDO
100
AcDbLine
 62
253
  6
CONTINUOUS
 10
110.2107843392
 20
-36.8890209378
 11
110.2125915435
 21
36.0790410842
  0
LWPOLYLINE
  5
3CA
100
AcDbEntity
  8
0
100
AcDbPolyline
 62
7
  6
CONTINUOUS
 90
9
 70
0
 10
109.2496259099
 20
-54.8180774309
 10
109.3435648682
 20
-52.5096545634
 10
109.4255803026
 20
-50.2004749906
 10
109.4956670935
 20
-47.890736842
 10
109.5538201664
 20
-45.5806440109
 10
109.6000346611
 20
-43.2704061692
 10
109.634305915
 20
-40.9602261346
 10
109.6566292943
 20
-38.650299854
 10
109.6670002634
 20
-36.3408258783
  0
LWPOLYLINE
  5
3CB
100
AcDbEntity
  8
RACCORDO
100
AcDbPolyline
 62
253
  6
CONTINUOUS
 90
9
 70
0
 10
109.6352031437
 20
-55.6130794276
 10
109.7342828663
 20
-53.2744762063
 10
109.821153207
 20
-50.9346854748
 10
109.8958092301
 20
-48.5937143588
 10
109.9582317861
 20
-46.2519849164
 10
110.0083983592
 20
-43.9103352965
 10
110.0463050793
 20
-41.5691880586
 10
110.0719558758
 20
-39.2285490184
 10
110.0853497827
 20
-36.8886311604
  0
LWPOLYLINE
  5
3CC
100
AcDbEntity
  8
RACCORDO
100
AcDbPolyline
 62
253
  6
CONTINUOUS
 90
9
 70
0
 10
109.7604633042
 20
-55.6184632528
 10
109.8595780003
 20
-53.2792552875
 10
109.9464794924
 20
-50.9390106785
 10
110.0211670759
 20
-48.5974348822
 10
110.0836159344
 20
-46.2549497625
 10
110.1337954972
 20
-43.9126940789
 10
110.1717075275
 20
-41.5710904123
 10
110.1973679153
 20
-39.2298446727
 10
110.2107843392
 20
-36.8890209378
  0
LINE
  5
3CD
100
AcDbEntity
  8
0
100
AcDbLine
 62
7
  6
CONTINUOUS
 10
109.1238519256
 20
-57.5288208196
 11
109.2496259099
 21
-54.8180774309
  0
LINE
  5
3CE
100
AcDbEntity
  8
RACCORDO
100
AcDbLine
 62
253
  6
CONTINUOUS
 10
111.6937851886
 20
-56.1532605483
 11
111.598732753
 21
-58.1264158295
  0
LINE
  5
3CF
100
AcDbEntity
  8
RACCORDO
100
AcDbLine
 62
253
  6
CONTINUOUS
 10
109.5084535523
 20
-58.2536696031
 11
109.6352031437
 21
-55.6130794276
  0
LINE
  5
3D0
100
AcDbEntity
  8
RACCORDO
100
AcDbLine
 62
253
  6
CONTINUOUS
 10
109.6336104853
 20
-58.2602294567
 11
109.7604633042
 21
-55.6184632528
  0
LINE
  5
3D1
100
AcDbEntity
  8
0
100
AcDbLine
 62
7
  6
CONTINUOUS
 10
109.0679584185
 20
-58.5887723951
 11
109.1238519256
 21
-57.5288208196
  0
LINE
  5
3D2
100
AcDbEntity
  8
RACCORDO
100
AcDbLine
 62
253
  6
CONTINUOUS
 10
109.4576196097
 20
-59.1821119898
 11
109.5084535523
 21
-58.2536696031
  0
LINE
  5
3D3
100
AcDbEntity
  8
RACCORDO
100
AcDbLine
 62
253
  6
CONTINUOUS
 10
109.5826342161
 20
-59.1893290638
 11
109.6336104853
 21
-58.2602294567
  0
LINE
  5
3D4
100
AcDbEntity
  8
0
100
AcDbLine
 62
7
  6
CONTINUOUS
 10
109.0296396478
 20
-59.264760751
 11
109.0679584185
 21
-58.5887723951
  0
LINE
  5
3D5
100
AcDbEntity
  8
RACCORDO
100
AcDbLine
 62
253
  6
CONTINUOUS
 10
108.8703687698
 20
-80.845343475
 11
108.8602735156
 21
-81.0185532524
  0
LINE
  5
3D6
100
AcDbEntity
  8
RACCORDO
100
AcDbLine
 62
253
  6
CONTINUOUS
 10
109.4015669764
 20
-60.1099699853
 11
109.4576196097
 21
-59.1821119898
  0
LINE
  5
3D7
100
AcDbEntity
  8
RACCORDO
100
AcDbLine
 62
253
  6
CONTINUOUS
 10
109.5265056011
 20
-60.1178718503
 11
109.5826342161
 21
-59.1893290638
  0
LINE
  5
3D8
100
AcDbEntity
  8
RACCORDO
100
AcDbLine
 62
253
  6
CONTINUOUS
 10
108.8602735156
 20
-81.0185532524
 11
108.8529994147
 21
-81.1307828571
  0
LINE
  5
3D9
100
AcDbEntity
  8
RACCORDO
100
AcDbLine
 62
253
  6
CONTINUOUS
 10
108.8529994147
 20
-81.1307828571
 11
108.845415848
 21
-81.2389440119
  0
LWPOLYLINE
  5
3DA
100
AcDbEntity
  8
0
100
AcDbPolyline
 62
7
  6
CONTINUOUS
 90
9
 70
0
 10
106.4607015649
 20
-80.1701274246
 10
106.4634705572
 20
-80.1412026471
 10
106.4664531934
 20
-80.1132099724
 10
106.46963266
 20
-80.0862009942
 10
106.4730077057
 20
-80.0600908085
 10
106.4765979493
 20
-80.0346767223
 10
106.4804097047
 20
-80.0099001595
 10
106.4844306695
 20
-79.9858279509
 10
106.4886572407
 20
-79.9624623292
  0
LINE
  5
3DB
100
AcDbEntity
  8
RACCORDO
100
AcDbLine
 62
253
  6
CONTINUOUS
 10
108.8216693732
 20
81.5251213573
 11
108.8296058019
 21
81.4376125223
  0
LINE
  5
3DC
100
AcDbEntity
  8
RACCORDO
100
AcDbLine
 62
253
  6
CONTINUOUS
 10
108.8296058019
 20
81.4376125223
 11
108.8375504244
 21
81.3419407297
  0
LINE
  5
3DD
100
AcDbEntity
  8
RACCORDO
100
AcDbLine
 62
253
  6
CONTINUOUS
 10
108.8375504244
 20
81.3419407297
 11
108.8453895147
 21
81.2393085062
  0
LWPOLYLINE
  5
3DE
100
AcDbEntity
  8
RACCORDO
100
AcDbPolyline
 62
253
  6
CONTINUOUS
 90
10
 70
0
 10
111.598732753
 20
-58.1264158295
 10
111.4510811733
 20
-60.6665775715
 10
111.2645000505
 20
-63.2041928647
 10
111.0389899335
 20
-65.7386517963
 10
110.7744803371
 20
-68.2693296496
 10
110.4710428476
 20
-70.7956310137
 10
110.1288911051
 20
-73.3169895074
 10
109.7480966718
 20
-75.8328090309
 10
109.3285890493
 20
-78.3424640425
 10
108.8703687718
 20
-80.8453434748
  0
LINE
  5
3DF
100
AcDbEntity
  8
RACCORDO
100
AcDbLine
 62
7
  6
CONTINUOUS
 10
111.8484603452
 20
-61.5452453181
 11
111.848980823
 21
-61.53790991
  0
LINE
  5
3E0
100
AcDbEntity
  8
RACCORDO
100
AcDbLine
 62
253
  6
CONTINUOUS
 10
108.845415848
 20
-81.2389440119
 11
108.8375760691
 21
-81.3416334141
  0
LINE
  5
3E1
100
AcDbEntity
  8
RACCORDO
100
AcDbLine
 62
253
  6
CONTINUOUS
 10
108.8375760691
 20
-81.3416334141
 11
108.8296331218
 21
-81.4373311227
  0
LWPOLYLINE
  5
3E2
100
AcDbEntity
  8
RACCORDO
100
AcDbPolyline
 62
253
  6
CONTINUOUS
 90
16
 70
0
 10
108.8296331218
 20
-81.4373311227
 10
108.8216968537
 20
-81.5248681448
 10
108.8177461849
 20
-81.5652276132
 10
108.8138441808
 20
-81.6031441463
 10
108.8099971772
 20
-81.6384966067
 10
108.8062040253
 20
-81.6711760853
 10
108.8024933779
 20
-81.701085509
 10
108.7988750518
 20
-81.728131667
 10
108.7953513435
 20
-81.7522266768
 10
108.7919411965
 20
-81.7732934371
 10
108.7886585989
 20
-81.7912628189
 10
108.7855090785
 20
-81.8060824574
 10
108.7825001558
 20
-81.8177111305
 10
108.7796425376
 20
-81.8261098509
 10
108.7769506038
 20
-81.8312467734
 10
108.7744385296
 20
-81.8331025978
  0
LWPOLYLINE
  5
3E3
100
AcDbEntity
  8
RACCORDO
100
AcDbPolyline
 62
253
  6
CONTINUOUS
 90
9
 70
0
 10
106.8568558663
 20
-80.9634646721
 10
106.858057105
 20
-80.9552571409
 10
106.8592976533
 20
-80.947068967
 10
106.8605775142
 20
-80.9389001442
 10
106.8618953634
 20
-80.930750759
 10
106.863252531
 20
-80.9226207129
 10
106.864653002
 20
-80.9145097219
 10
106.8660981063
 20
-80.9064176865
 10
106.8675865197
 20
-80.8983446928
  0
LINE
  5
3E4
100
AcDbEntity
  8
RACCORDO
100
AcDbLine
 62
253
  6
CONTINUOUS
 10
106.8466349857
 20
-81.0282379734
 11
106.8568553462
 21
-80.9634645722
  0
LWPOLYLINE
  5
3E5
100
AcDbEntity
  8
RACCORDO
100
AcDbPolyline
 62
253
  6
CONTINUOUS
 90
3
 70
0
 10
106.8289698366
 20
-81.1346801687
 10
106.8351682542
 20
-81.097969838
 10
106.8466349857
 20
-81.0282379734
  0
LINE
  5
3E6
100
AcDbEntity
  8
RACCORDO
100
AcDbLine
 62
253
  6
CONTINUOUS
 10
106.7260728247
 20
-80.9726098269
 11
106.7306664642
 21
-80.945512998
  0
LINE
  5
3E7
100
AcDbEntity
  8
RACCORDO
100
AcDbLine
 62
253
  6
CONTINUOUS
 10
103.3276666975
 20
-79.5925851437
 11
103.3277018751
 21
-79.5923938442
  0
LWPOLYLINE
  5
3E8
100
AcDbEntity
  8
RACCORDO
100
AcDbPolyline
 62
253
  6
CONTINUOUS
 90
3
 70
0
 10
106.7306664642
 20
80.945512998
 10
106.7247510541
 20
80.9802435232
 10
106.7127880564
 20
81.0491367142
  0
LINE
  5
3E9
100
AcDbEntity
  8
RACCORDO
100
AcDbLine
 62
253
  6
CONTINUOUS
 10
106.8439851174
 20
81.0445763754
 11
106.8305729995
 21
81.1252283256
  0
LINE
  5
3EA
100
AcDbEntity
  8
RACCORDO
100
AcDbLine
 62
253
  6
CONTINUOUS
 10
106.8568655613
 20
80.9634007133
 11
106.8439851174
 21
81.0445763754
  0
LWPOLYLINE
  5
3EB
100
AcDbEntity
  8
RACCORDO
100
AcDbPolyline
 62
253
  6
CONTINUOUS
 90
10
 70
0
 10
106.7306664642
 20
-80.945512998
 10
106.7321715367
 20
-80.9367439251
 10
106.7337309963
 20
-80.9279714634
 10
106.7353448984
 20
-80.9191953138
 10
106.737011378
 20
-80.9104135585
 10
106.7387323927
 20
-80.9016276087
 10
106.7405137465
 20
-80.8928420901
 10
106.74235742
 20
-80.884058301
 10
106.7442615471
 20
-80.875274328
 10
106.7462261751
 20
-80.8664899137
  0
LINE
  5
3EC
100
AcDbEntity
  8
RACCORDO
100
AcDbLine
 62
253
  6
CONTINUOUS
 10
106.7107859509
 20
-81.0604607867
 11
106.7260728247
 21
-80.9726098269
  0
LINE
  5
3ED
100
AcDbEntity
  8
RACCORDO
100
AcDbLine
 62
253
  6
CONTINUOUS
 10
106.8159248323
 20
-81.2096231714
 11
106.8289698366
 21
-81.1346801687
  0
LWPOLYLINE
  5
3EE
100
AcDbEntity
  8
0
100
AcDbPolyline
 62
7
  6
CONTINUOUS
 90
10
 70
0
 10
106.4886572407
 20
-79.9624623292
 10
106.9016623344
 20
-77.6801395582
 10
107.282193868
 20
-75.391568324
 10
107.6301484391
 20
-73.0977376658
 10
107.945352786
 20
-70.8001341719
 10
108.2278005257
 20
-68.4992256212
 10
108.4775857639
 20
-66.1944467941
 10
108.6946165975
 20
-63.8862311542
 10
108.8786815095
 20
-61.5760248963
 10
109.0296396478
 20
-59.264760751
  0
LINE
  5
3EF
100
AcDbEntity
  8
RACCORDO
100
AcDbLine
 62
253
  6
CONTINUOUS
 10
106.8026197769
 20
-81.283545751
 11
106.8159248323
 21
-81.2096231714
  0
LINE
  5
3F0
100
AcDbEntity
  8
RACCORDO
100
AcDbLine
 62
253
  6
CONTINUOUS
 10
106.6938852991
 20
-81.1546097844
 11
106.7107859509
 21
-81.0604607867
  0
LINE
  5
3F1
100
AcDbEntity
  8
RACCORDO
100
AcDbLine
 62
253
  6
CONTINUOUS
 10
106.7898579473
 20
-81.3525486322
 11
106.8026197769
 21
-81.283545751
  0
LINE
  5
3F2
100
AcDbEntity
  8
RACCORDO
100
AcDbLine
 62
253
  6
CONTINUOUS
 10
106.6769333705
 20
-81.2462752391
 11
106.6938852991
 21
-81.1546097844
  0
LWPOLYLINE
  5
3F3
100
AcDbEntity
  8
RACCORDO
100
AcDbPolyline
 62
253
  6
CONTINUOUS
 90
22
 70
0
 10
106.7462261751
 20
-80.8664899137
 10
106.8813056317
 20
-80.1607001464
 10
107.01750225
 20
-79.431378151
 10
107.1545147073
 20
-78.6784337064
 10
107.2918637724
 20
-77.9027301953
 10
107.4293965814
 20
-77.1032540368
 10
107.5672417834
 20
-76.2770936296
 10
107.7050009873
 20
-75.4241926776
 10
107.8422623578
 20
-74.5444805747
 10
107.9790229897
 20
-73.635006125
 10
108.114778559
 20
-72.6957685253
 10
108.2490144259
 20
-71.7267028815
 10
108.3815797387
 20
-70.7247556563
 10
108.5118440796
 20
-69.6900028886
 10
108.6391972967
 20
-68.622417313
 10
108.7633656669
 20
-67.5188022182
 10
108.8836154492
 20
-66.3793666384
 10
108.9992084963
 20
-65.2041391122
 10
109.1096825231
 20
-63.9896898432
 10
109.2142449215
 20
-62.7350414532
 10
109.3118587736
 20
-61.4416848086
 10
109.4015669764
 20
-60.1099699853
  0
LWPOLYLINE
  5
3F4
100
AcDbEntity
  8
RACCORDO
100
AcDbPolyline
 62
253
  6
CONTINUOUS
 90
22
 70
0
 10
106.8675865197
 20
-80.8983446928
 10
107.0042774253
 20
-80.1840230387
 10
107.1405803991
 20
-79.4541248293
 10
107.2777107953
 20
-78.7005526254
 10
107.4151678967
 20
-77.924238836
 10
107.5527981049
 20
-77.1241693974
 10
107.6907464559
 20
-76.2973754949
 10
107.8286148613
 20
-75.4438068557
 10
107.9659797401
 20
-74.5634253748
 10
108.1028365469
 20
-73.6532687055
 10
108.2386957753
 20
-72.7132968496
 10
108.3730412621
 20
-71.7434632176
 10
108.5057033677
 20
-70.7407864412
 10
108.6360665336
 20
-69.7052297896
 10
108.7635278714
 20
-68.6367556246
 10
108.8877956083
 20
-67.5323746664
 10
109.0081528798
 20
-66.3920720318
 10
109.1238499813
 20
-65.2158109201
 10
109.2343876121
 20
-64.0005666585
 10
109.3389879918
 20
-62.7453247229
 10
109.4366659809
 20
-61.4510888994
 10
109.5265056011
 20
-60.1178718503
  0
LINE
  5
3F5
100
AcDbEntity
  8
RACCORDO
100
AcDbLine
 62
253
  6
CONTINUOUS
 10
106.7780496939
 20
-81.414264443
 11
106.7898579473
 21
-81.3525486322
  0
LINE
  5
3F6
100
AcDbEntity
  8
RACCORDO
100
AcDbLine
 62
253
  6
CONTINUOUS
 10
106.6616447142
 20
-81.3261991253
 11
106.6769333705
 21
-81.2462752391
  0
LINE
  5
3F7
100
AcDbEntity
  8
RACCORDO
100
AcDbLine
 62
253
  6
CONTINUOUS
 10
106.6528454324
 20
-81.3707982184
 11
106.6616447142
 21
-81.3261991253
  0
LWPOLYLINE
  5
3F8
100
AcDbEntity
  8
0
100
AcDbPolyline
 62
7
  6
CONTINUOUS
 90
15
 70
0
 10
106.400853163
 20
-80.6104936486
 10
106.405053935
 20
-80.5894762653
 10
106.4093804677
 20
-80.5664586198
 10
106.4138235266
 20
-80.5414593347
 10
106.4183863367
 20
-80.5145946353
 10
106.4229990988
 20
-80.4861903517
 10
106.4275790656
 20
-80.4564924998
 10
106.4320964128
 20
-80.425635513
 10
106.4365369009
 20
-80.3938507962
 10
106.4408952609
 20
-80.3611127548
 10
106.4450697532
 20
-80.3277986938
 10
106.4489171196
 20
-80.2947813669
 10
106.4523781949
 20
-80.2624852644
 10
106.4554629008
 20
-80.2308443445
 10
106.4607015649
 20
-80.1701274246
  0
LINE
  5
3F9
100
AcDbEntity
  8
RACCORDO
100
AcDbLine
 62
253
  6
CONTINUOUS
 10
106.7674880163
 20
-81.4673921533
 11
106.7780496939
 21
-81.414264443
  0
LINE
  5
3FA
100
AcDbEntity
  8
RACCORDO
100
AcDbLine
 62
253
  6
CONTINUOUS
 10
106.6452743692
 20
-81.408066656
 11
106.6528454324
 21
-81.3707982184
  0
LWPOLYLINE
  5
3FB
100
AcDbEntity
  8
RACCORDO
100
AcDbPolyline
 62
253
  6
CONTINUOUS
 90
3
 70
0
 10
106.6361227443
 20
-81.4513098186
 10
106.6388968311
 20
-81.4384742799
 10
106.6452743692
 20
-81.408066656
  0
LINE
  5
3FC
100
AcDbEntity
  8
RACCORDO
100
AcDbLine
 62
253
  6
CONTINUOUS
 10
103.3370900904
 20
-79.2940690286
 11
103.3411637095
 21
-79.2756693747
  0
LWPOLYLINE
  5
3FD
100
AcDbEntity
  8
RACCORDO
100
AcDbPolyline
 62
253
  6
CONTINUOUS
 90
16
 70
0
 10
103.3411637095
 20
-79.2756693747
 10
103.3455087019
 20
-79.2567927957
 10
103.3477833813
 20
-79.247187787
 10
103.3501363966
 20
-79.2374660005
 10
103.3525670969
 20
-79.2276323694
 10
103.3550769235
 20
-79.2176923096
 10
103.357678265
 20
-79.2076402831
 10
103.3603706563
 20
-79.1974803691
 10
103.3631555601
 20
-79.1872203414
 10
103.3660484056
 20
-79.1768603023
 10
103.3690490873
 20
-79.1664046694
 10
103.3721589676
 20
-79.1558631606
 10
103.3753958549
 20
-79.1452442926
 10
103.3787662412
 20
-79.1345565805
 10
103.3822652184
 20
-79.1238086321
 10
103.3858936139
 20
-79.1130098663
  0
LWPOLYLINE
  5
3FE
100
AcDbEntity
  8
0
100
AcDbPolyline
 62
7
  6
CONTINUOUS
 90
4
 70
0
 10
106.3894046574
 20
-80.6608285367
 10
106.3930269347
 20
-80.6462255317
 10
106.3968371489
 20
-80.6294213245
 10
106.400853163
 20
-80.6104936486
  0
LINE
  5
3FF
100
AcDbEntity
  8
RACCORDO
100
AcDbLine
 62
253
  6
CONTINUOUS
 10
103.3477833809
 20
79.2471877884
 11
103.3433032244
 21
79.2662870839
  0
LWPOLYLINE
  5
400
100
AcDbEntity
  8
RACCORDO
100
AcDbPolyline
 62
253
  6
CONTINUOUS
 90
18
 70
0
 10
106.6318098031
 20
81.4706016212
 10
106.6300862393
 20
81.4780762478
 10
106.6284869089
 20
81.4848486829
 10
106.6269977944
 20
81.4910123745
 10
106.6256132399
 20
81.4966050838
 10
106.6243267431
 20
81.5016512898
 10
106.6231256628
 20
81.5062109388
 10
106.6220034092
 20
81.5103110893
 10
106.6209571705
 20
81.5139725474
 10
106.619981598
 20
81.5172375816
 10
106.6190715816
 20
81.5201298102
 10
106.6182240006
 20
81.5226674322
 10
106.6174371005
 20
81.5248814723
 10
106.6167076112
 20
81.5267921148
 10
106.616030957
 20
81.5284189614
 10
106.6154038208
 20
81.5297901424
 10
106.6148228928
 20
81.5309261967
 10
106.6131147047
 20
81.5335726369
  0
LWPOLYLINE
  5
401
100
AcDbEntity
  8
RACCORDO
100
AcDbPolyline
 62
253
  6
CONTINUOUS
 90
7
 70
0
 10
103.3276686043
 20
79.5919025024
 10
103.3276512144
 20
79.5919788915
 10
103.3276470954
 20
79.5920547141
 10
103.3276561791
 20
79.5921299499
 10
103.3276783973
 20
79.5922045726
 10
103.327713681
 20
79.5922785493
 10
103.3277619608
 20
79.592351841
  0
LWPOLYLINE
  5
402
100
AcDbEntity
  8
RACCORDO
100
AcDbPolyline
 62
253
  6
CONTINUOUS
 90
22
 70
0
 10
106.7494296683
 20
81.5529535419
 10
106.7468388224
 20
81.5643764172
 10
106.7444278282
 20
81.574729569
 10
106.7421910639
 20
81.5840672893
 10
106.7401189271
 20
81.5924345346
 10
106.7381927074
 20
81.5999310061
 10
106.7363976152
 20
81.6066701489
 10
106.7347296323
 20
81.6126871435
 10
106.7331796975
 20
81.6180136341
 10
106.7317317775
 20
81.6227256422
 10
106.7303757767
 20
81.6268649195
 10
106.7291088862
 20
81.6304552495
 10
106.7279275453
 20
81.6335378243
 10
106.7268244255
 20
81.6361479117
 10
106.725793764
 20
81.6383164653
 10
106.7248347534
 20
81.640076127
 10
106.7239411367
 20
81.6414603728
 10
106.7231061638
 20
81.6425013841
 10
106.7223287115
 20
81.6432276903
 10
106.7216048787
 20
81.6436665718
 10
106.7209279677
 20
81.6438441653
 10
106.7202929089
 20
81.6437860165
  0
LWPOLYLINE
  5
403
100
AcDbEntity
  8
RACCORDO
100
AcDbPolyline
 62
253
  6
CONTINUOUS
 90
43
 70
0
 10
103.3370900904
 20
79.2940690286
 10
103.3347290582
 20
79.3045372051
 10
103.3324815412
 20
79.3150400768
 10
103.3303476094
 20
79.3255662694
 10
103.3283277883
 20
79.3361224817
 10
103.3264216437
 20
79.3466774514
 10
103.324627823
 20
79.3571647962
 10
103.3229478209
 20
79.3675686096
 10
103.3213802238
 20
79.3778842424
 10
103.3199193591
 20
79.388066262
 10
103.3185651044
 20
79.3981033896
 10
103.3173176271
 20
79.4079890256
 10
103.3161717181
 20
79.4176880129
 10
103.3151267484
 20
79.4271893676
 10
103.3141833561
 20
79.4364892978
 10
103.3133382482
 20
79.4455660442
 10
103.3125909313
 20
79.4544078631
 10
103.3119418779
 20
79.463014228
 10
103.3113892507
 20
79.4713809843
 10
103.3109317014
 20
79.4795006621
 10
103.3105705583
 20
79.4873678716
 10
103.3103080024
 20
79.4949809369
 10
103.310146827
 20
79.5023368782
 10
103.3100840182
 20
79.5094297603
 10
103.3101130691
 20
79.5162531296
 10
103.3102312613
 20
79.5227963
 10
103.3104409481
 20
79.5290669846
 10
103.3107432674
 20
79.5350829867
 10
103.311136604
 20
79.5408438937
 10
103.311622286
 20
79.5463387148
 10
103.3122058774
 20
79.5515659724
 10
103.3128863304
 20
79.5565222472
 10
103.3136644513
 20
79.561199348
 10
103.3145485756
 20
79.5655906652
 10
103.3155385009
 20
79.5696942965
 10
103.3166342335
 20
79.5735043173
 10
103.3178444073
 20
79.577014226
 10
103.3191664486
 20
79.5802198164
 10
103.3206027956
 20
79.5831268083
 10
103.3221695927
 20
79.5857474431
 10
103.3238721976
 20
79.5880856707
 10
103.3257051991
 20
79.5901373957
 10
103.3276686043
 20
79.5919025024
  0
LWPOLYLINE
  5
404
100
AcDbEntity
  8
RACCORDO
100
AcDbPolyline
 62
253
  6
CONTINUOUS
 90
10
 70
0
 10
106.7462261751
 20
80.8664899137
 10
106.744263097
 20
80.8752669346
 10
106.7423600605
 20
80.8840456125
 10
106.7405170225
 20
80.8928261807
 10
106.7387357705
 20
80.9016107902
 10
106.7370144119
 20
80.9103978526
 10
106.7353473956
 20
80.9191819372
 10
106.7337328485
 20
80.92796136
 10
106.7321725556
 20
80.9367382856
 10
106.7306664642
 20
80.945512998
  0
LWPOLYLINE
  5
405
100
AcDbEntity
  8
RACCORDO
100
AcDbPolyline
 62
253
  6
CONTINUOUS
 90
3
 70
0
 10
103.3433032244
 20
79.2662870839
 10
103.3390927659
 20
79.2849314659
 10
103.3370900904
 20
79.2940690286
  0
LINE
  5
406
100
AcDbEntity
  8
RACCORDO
100
AcDbLine
 62
253
  6
CONTINUOUS
 10
106.6356633636
 20
81.4533764369
 11
106.6318098031
 21
81.4706016212
  0
LINE
  5
407
100
AcDbEntity
  8
RACCORDO
100
AcDbLine
 62
253
  6
CONTINUOUS
 10
106.7552107619
 20
81.5266163862
 11
106.7494296683
 21
81.5529535419
  0
LINE
  5
408
100
AcDbEntity
  8
RACCORDO
100
AcDbLine
 62
253
  6
CONTINUOUS
 10
106.640126711
 20
81.4326782225
 11
106.6356633636
 21
81.4533764369
  0
LWPOLYLINE
  5
409
100
AcDbEntity
  8
0
100
AcDbPolyline
 62
7
  6
CONTINUOUS
 90
8
 70
0
 10
106.4008364927
 20
80.6105750164
 10
106.3968192247
 20
80.6295030902
 10
106.3930074251
 20
80.6463078162
 10
106.3893839885
 20
80.6609075392
 10
106.3859488622
 20
80.6731853105
 10
106.3827001347
 20
80.6831161686
 10
106.3796365985
 20
80.6907252803
 10
106.37675668
 20
80.6960155546
  0
LINE
  5
40A
100
AcDbEntity
  8
RACCORDO
100
AcDbLine
 62
253
  6
CONTINUOUS
 10
106.7618286382
 20
81.4951985935
 11
106.7552107619
 21
81.5266163862
  0
LINE
  5
40B
100
AcDbEntity
  8
RACCORDO
100
AcDbLine
 62
253
  6
CONTINUOUS
 10
106.6452724598
 20
81.4080803543
 11
106.640126711
 21
81.4326782225
  0
LINE
  5
40C
100
AcDbEntity
  8
RACCORDO
100
AcDbLine
 62
253
  6
CONTINUOUS
 10
106.6511445342
 20
81.3793054901
 11
106.6452724598
 21
81.4080803543
  0
LINE
  5
40D
100
AcDbEntity
  8
RACCORDO
100
AcDbLine
 62
253
  6
CONTINUOUS
 10
106.7693699272
 20
81.4581343876
 11
106.7618286382
 21
81.4951985935
  0
LINE
  5
40E
100
AcDbEntity
  8
RACCORDO
100
AcDbLine
 62
253
  6
CONTINUOUS
 10
106.6578838526
 20
81.3454149706
 11
106.6511445342
 21
81.3793054901
  0
LINE
  5
40F
100
AcDbEntity
  8
RACCORDO
100
AcDbLine
 62
253
  6
CONTINUOUS
 10
106.7780052546
 20
81.4144305399
 11
106.7693699272
 21
81.4581343876
  0
LINE
  5
410
100
AcDbEntity
  8
RACCORDO
100
AcDbLine
 62
253
  6
CONTINUOUS
 10
106.6698084603
 20
81.2838431319
 11
106.6578838526
 21
81.3454149706
  0
LINE
  5
411
100
AcDbEntity
  8
RACCORDO
100
AcDbLine
 62
253
  6
CONTINUOUS
 10
106.7877668215
 20
81.3635798898
 11
106.7780052546
 21
81.4144305399
  0
LWPOLYLINE
  5
412
100
AcDbEntity
  8
RACCORDO
100
AcDbPolyline
 62
253
  6
CONTINUOUS
 90
10
 70
0
 10
107.0036308584
 20
80.1874425161
 10
106.8675877292
 20
80.8983379172
 10
106.8661001734
 20
80.9064060172
 10
106.8646555746
 20
80.9144950408
 10
106.8632548316
 20
80.9226075215
 10
106.8618970389
 20
80.9307409391
 10
106.860579488
 20
80.938887719
 10
106.8593012752
 20
80.9470453405
 10
106.8580633003
 20
80.9552163365
 10
106.8568655613
 20
80.9634007133
  0
LINE
  5
413
100
AcDbEntity
  8
RACCORDO
100
AcDbLine
 62
253
  6
CONTINUOUS
 10
106.6840119161
 20
81.2083911539
 11
106.6698084603
 21
81.2838431319
  0
LINE
  5
414
100
AcDbEntity
  8
RACCORDO
100
AcDbLine
 62
253
  6
CONTINUOUS
 10
106.7986276048
 20
81.3054547779
 11
106.7877668215
 21
81.3635798898
  0
LWPOLYLINE
  5
415
100
AcDbEntity
  8
RACCORDO
100
AcDbPolyline
 62
253
  6
CONTINUOUS
 90
10
 70
0
 10
108.8703687717
 20
80.8453434754
 10
109.3285889907
 20
78.3424644023
 10
109.7480965779
 20
75.8328096097
 10
110.1288909995
 20
73.3169901637
 10
110.4710427651
 20
70.7956315352
 10
110.7744803009
 20
68.2693298925
 10
111.0389899321
 20
65.7386518264
 10
111.264500061
 20
63.204192818
 10
111.4510811842
 20
60.6665775147
 10
111.598732753
 20
58.1264158295
  0
LWPOLYLINE
  5
416
100
AcDbEntity
  8
0
100
AcDbPolyline
 62
7
  6
CONTINUOUS
 90
10
 70
0
 10
106.4886572407
 20
79.9624623292
 10
106.4844306695
 20
79.9858279509
 10
106.4804097047
 20
80.0099001595
 10
106.4765979493
 20
80.0346767223
 10
106.4730077057
 20
80.0600908085
 10
106.46963266
 20
80.0862009942
 10
106.4664531934
 20
80.1132099724
 10
106.4634705572
 20
80.1412026471
 10
106.4607015649
 20
80.1701274246
 10
106.4554645619
 20
80.2308263612
  0
LINE
  5
417
100
AcDbEntity
  8
RACCORDO
100
AcDbLine
 62
253
  6
CONTINUOUS
 10
106.7005953973
 20
81.1175425975
 11
106.6840119161
 21
81.2083911539
  0
LINE
  5
418
100
AcDbEntity
  8
RACCORDO
100
AcDbLine
 62
253
  6
CONTINUOUS
 10
106.8105768683
 20
81.2396945692
 11
106.7986276048
 21
81.3054547779
  0
LINE
  5
419
100
AcDbEntity
  8
RACCORDO
100
AcDbLine
 62
253
  6
CONTINUOUS
 10
106.7127880564
 20
81.0491367142
 11
106.7005953973
 21
81.1175425975
  0
LWPOLYLINE
  5
41A
100
AcDbEntity
  8
RACCORDO
100
AcDbPolyline
 62
253
  6
CONTINUOUS
 90
3
 70
0
 10
106.8305729995
 20
81.1252283256
 10
106.8236618623
 20
81.165386015
 10
106.8105768683
 20
81.2396945692
  0
LWPOLYLINE
  5
41B
100
AcDbEntity
  8
RACCORDO
100
AcDbPolyline
 62
253
  6
CONTINUOUS
 90
6
 70
0
 10
106.6252301994
 20
-81.4980485333
 10
106.6270929321
 20
-81.490563005
 10
106.6290943444
 20
-81.4822728734
 10
106.6312359137
 20
-81.4731347313
 10
106.63357109
 20
-81.4628534568
 10
106.6361227443
 20
-81.4513098186
  0
LWPOLYLINE
  5
41C
100
AcDbEntity
  8
RACCORDO
100
AcDbPolyline
 62
253
  6
CONTINUOUS
 90
14
 70
0
 10
103.3858936139
 20
79.1130098663
 10
103.3822652169
 20
79.1238086363
 10
103.3787662387
 20
79.1345565873
 10
103.3753958519
 20
79.1452443008
 10
103.3721589648
 20
79.155863168
 10
103.3690490853
 20
79.1664046746
 10
103.3660484043
 20
79.1768603058
 10
103.3631555591
 20
79.1872203446
 10
103.3603706556
 20
79.1974803725
 10
103.3576782644
 20
79.2076402864
 10
103.355076923
 20
79.2176923126
 10
103.3525670963
 20
79.2276323718
 10
103.3501363961
 20
79.2374660022
 10
103.3477833809
 20
79.2471877884
  0
LWPOLYLINE
  5
41D
100
AcDbEntity
  8
RACCORDO
100
AcDbPolyline
 62
253
  6
CONTINUOUS
 90
10
 70
0
 10
103.444581353
 20
34.7323165597
 10
104.1246032642
 20
34.8625273914
 10
104.809357258
 20
34.9817743525
 10
105.4976755237
 20
35.0898563747
 10
106.1874253261
 20
35.1864541856
 10
106.8784997885
 20
35.2715747555
 10
107.5728465621
 20
35.3455248138
 10
108.2704344234
 20
35.408336637
 10
108.9692058826
 20
35.4598444297
 10
109.6681287254
 20
35.5000000065
  0
LWPOLYLINE
  5
41E
100
AcDbEntity
  8
RACCORDO
100
AcDbPolyline
 62
253
  6
CONTINUOUS
 90
10
 70
0
 10
103.4446519405
 20
34.1734715269
 10
104.1250800162
 20
34.3015798888
 10
104.8101132149
 20
34.4188713631
 10
105.4985964274
 20
34.5251487751
 10
106.1884087636
 20
34.6200988326
 10
106.8794564253
 20
34.703729328
 10
107.5737011438
 20
34.7763428962
 10
108.2711244806
 20
34.8379721697
 10
108.9696808534
 20
34.8884552531
 10
109.6683505643
 20
34.9277458703
  0
LINE
  5
41F
100
AcDbEntity
  8
RACCORDO
100
AcDbLine
 62
253
  6
CONTINUOUS
 10
103.204521584
 20
34.1735039006
 11
103.4446519405
 21
34.1734715269
  0
LINE
  5
420
100
AcDbEntity
  8
RACCORDO
100
AcDbLine
 62
253
  6
CONTINUOUS
 10
103.204521584
 20
34.7323507797
 11
103.444581353
 21
34.7323165597
  0
LWPOLYLINE
  5
421
100
AcDbEntity
  8
RACCORDO
100
AcDbPolyline
 62
253
  6
CONTINUOUS
 90
11
 70
0
 10
106.6131147047
 20
81.5335726369
 10
106.6128453554
 20
81.534138094
 10
106.6126194936
 20
81.5347280136
 10
106.6124396705
 20
81.5353449978
 10
106.6123120104
 20
81.5360045704
 10
106.6122370241
 20
81.5366998084
 10
106.6122162527
 20
81.5374272908
 10
106.6122576685
 20
81.5382062696
 10
106.6123648382
 20
81.5390385827
 10
106.6125367621
 20
81.5399094694
 10
106.6127747614
 20
81.5408122866
  0
LWPOLYLINE
  5
422
100
AcDbEntity
  8
0
100
AcDbPolyline
 62
7
  6
CONTINUOUS
 90
5
 70
0
 10
106.37675668
 20
-80.6960155546
 10
106.3796447295
 20
-80.6907074642
 10
106.3827147675
 20
-80.6830750778
 10
106.3859680403
 20
-80.6731210149
 10
106.3894046574
 20
-80.6608285367
  0
LWPOLYLINE
  5
423
100
AcDbEntity
  8
RACCORDO
100
AcDbPolyline
 62
253
  6
CONTINUOUS
 90
10
 70
0
 10
103.4444704626
 20
35.5536468171
 10
104.1237942155
 20
35.6869137074
 10
104.8080400562
 20
35.8090039342
 10
105.4960218436
 20
35.9197104955
 10
106.1855907698
 20
36.0187052644
 10
106.8766199358
 20
36.1059935512
 10
107.5710332848
 20
36.1818874256
 10
108.2687798173
 20
36.2464183898
 10
108.9677856666
 20
36.2994149197
 10
109.6670002634
 20
36.3408258783
  0
LINE
  5
424
100
AcDbEntity
  8
RACCORDO
100
AcDbLine
 62
253
  6
CONTINUOUS
 10
110.0853497827
 20
36.8886311604
 11
110.2107843392
 21
36.8890209389
  0
LINE
  5
425
100
AcDbEntity
  8
RACCORDO
100
AcDbLine
 62
253
  6
CONTINUOUS
 10
110.0875348756
 20
35.4531930231
 11
110.2130175699
 21
35.4531930231
  0
LINE
  5
426
100
AcDbEntity
  8
RACCORDO
100
AcDbLine
 62
253
  6
CONTINUOUS
 10
112.6248759293
 20
35.5
 11
110.0875354614
 21
35.4999861804
  0
LINE
  5
427
100
AcDbEntity
  8
RACCORDO
100
AcDbLine
 62
253
  6
CONTINUOUS
 10
103.204521584
 20
35.5536836549
 11
103.4444704626
 21
35.5536468171
  0
LINE
  5
428
100
AcDbEntity
  8
RACCORDO
100
AcDbLine
 62
253
  6
CONTINUOUS
 10
103.3277619608
 20
79.592351841
 11
103.3276384957
 21
79.5925493801
  0
LWPOLYLINE
  5
429
100
AcDbEntity
  8
RACCORDO
100
AcDbPolyline
 62
253
  6
CONTINUOUS
 90
9
 70
0
 10
106.6137857264
 20
-81.53255216
 10
106.6148882204
 20
-81.5308304476
 10
106.616085162
 20
-81.528357194
 10
106.6173780235
 20
-81.5251247137
 10
106.6187704899
 20
-81.5210953256
 10
106.6202625381
 20
-81.5162876171
 10
106.6218454594
 20
-81.5108016579
 10
106.6234970321
 20
-81.5047410392
 10
106.6252301994
 20
-81.4980485333
  0
LINE
  5
42A
100
AcDbEntity
  8
RACCORDO
100
AcDbLine
 62
253
  6
CONTINUOUS
 10
106.6142846338
 20
81.5318412718
 11
106.6137857264
 21
81.53255216
  0
LWPOLYLINE
  5
42B
100
AcDbEntity
  8
RACCORDO
100
AcDbPolyline
 62
7
  6
CONTINUOUS
 90
6
 70
0
 10
103.3160545494
 20
-79.5927863139
 10
103.316082847
 20
-79.5927564885
 10
103.3163455567
 20
-79.592776729
 10
103.3168692369
 20
-79.5928241214
 10
103.3176536319
 20
-79.5928532422
 10
103.3187494828
 20
-79.5928570085
  0
LWPOLYLINE
  5
42C
100
AcDbEntity
  8
RACCORDO
100
AcDbPolyline
 62
253
  6
CONTINUOUS
 90
19
 70
0
 10
104.9566160883
 20
-55.5437127261
 10
104.9528006709
 20
-55.5454998761
 10
104.9493943115
 20
-55.5494355191
 10
104.9464219322
 20
-55.5554908602
 10
104.9439052802
 20
-55.5636215965
 10
104.9418627682
 20
-55.5737682404
 10
104.94030934
 20
-55.5858565553
 10
104.9392563612
 20
-55.5997980985
 10
104.9387115358
 20
-55.6154908686
 10
104.93867885
 20
-55.6328200512
 10
104.9391585428
 20
-55.6516588598
 10
104.9401471048
 20
-55.6718694624
 10
104.9416373033
 20
-55.6933039909
 10
104.9436182354
 20
-55.7158056222
 10
104.946075408
 20
-55.7392097259
 10
104.9489908435
 20
-55.7633450689
 10
104.9523432114
 20
-55.7880350681
 10
104.9561079847
 20
-55.8130990822
 10
104.9602576189
 20
-55.8383537335
  0
LWPOLYLINE
  5
42D
100
AcDbEntity
  8
RACCORDO
100
AcDbPolyline
 62
253
  6
CONTINUOUS
 90
19
 70
0
 10
103.6945019978
 20
-55.7662571944
 10
103.6893850088
 20
-55.7682628886
 10
103.6846824901
 20
-55.772394396
 10
103.6804285092
 20
-55.7786217858
 10
103.6766538843
 20
-55.7868999435
 10
103.6733859609
 20
-55.7971688976
 10
103.6706484134
 20
-55.8093542543
 10
103.6684610742
 20
-55.8233677363
 10
103.6668397895
 20
-55.8391078223
 10
103.6657963048
 20
-55.8564604827
 10
103.6653381796
 20
-55.8753000054
 10
103.6654687329
 20
-55.8954899069
 10
103.6661870188
 20
-55.9168839205
 10
103.6674878336
 20
-55.9393270565
 10
103.6693617536
 20
-55.9626567247
 10
103.671795203
 20
-55.9867039123
 10
103.6747705527
 20
-56.0112944087
 10
103.6782662476
 20
-56.036250067
 10
103.6822569629
 20
-56.0613900949
  0
LWPOLYLINE
  5
42E
100
AcDbEntity
  8
RACCORDO
100
AcDbPolyline
 62
253
  6
CONTINUOUS
 90
19
 70
0
 10
103.4524271307
 20
-55.8089415249
 10
103.4468024736
 20
-55.8110463404
 10
103.4418872885
 20
-55.815215347
 10
103.4375642347
 20
-55.821427556
 10
103.4335756785
 20
-55.8297077403
 10
103.4299592742
 20
-55.840024959
 10
103.427038133
 20
-55.8522405258
 10
103.4246781993
 20
-55.8662536159
 10
103.4227370488
 20
-55.8820132431
 10
103.421530596
 20
-55.8993846935
 10
103.4209396376
 20
-55.9182240384
 10
103.4208002812
 20
-55.9384079139
 10
103.4213983439
 20
-55.9598065546
 10
103.4226105214
 20
-55.9822455821
 10
103.4242751571
 20
-56.0055518833
 10
103.4266499428
 20
-56.0295926152
 10
103.429725769
 20
-56.054195226
 10
103.4332113434
 20
-56.0791405487
 10
103.4369452492
 20
-56.104222867
  0
LWPOLYLINE
  5
42F
100
AcDbEntity
  8
RACCORDO
100
AcDbPolyline
 62
253
  6
CONTINUOUS
 90
25
 70
0
 10
104.9617154597
 20
48.1602979982
 10
104.9989825349
 20
48.1681870821
 10
105.0349981849
 20
48.1779289203
 10
105.0697581673
 20
48.1895284868
 10
105.1033007671
 20
48.2031079549
 10
105.1355798801
 20
48.2185544434
 10
105.1664649199
 20
48.2355203155
 10
105.1959040475
 20
48.2539559996
 10
105.223942361
 20
48.2739197655
 10
105.2505950425
 20
48.2952255713
 10
105.2758950192
 20
48.317873988
 10
105.2998041771
 20
48.3418714835
 10
105.3222315081
 20
48.3670405857
 10
105.3431749277
 20
48.3933528464
 10
105.3626324303
 20
48.4208427323
 10
105.3805133453
 20
48.4494270607
 10
105.3968496603
 20
48.4791240679
 10
105.4116064537
 20
48.5099202548
 10
105.4245929046
 20
48.5416847675
 10
105.4358267421
 20
48.5744242646
 10
105.4452885605
 20
48.6081354605
 10
105.4527321537
 20
48.6426724321
 10
105.4580754553
 20
48.6779870577
 10
105.4614005365
 20
48.7141288592
 10
105.4627078576
 20
48.7510978822
  0
LINE
  5
430
100
AcDbEntity
  8
RACCORDO
100
AcDbLine
 62
7
  6
CONTINUOUS
 10
103.4524271307
 20
48.1910584751
 11
104.9566134891
 21
48.4562871141
  0
LINE
  5
431
100
AcDbEntity
  8
RACCORDO
100
AcDbLine
 62
253
  6
CONTINUOUS
 10
103.4411366183
 20
47.8955106706
 11
104.9617154597
 21
48.1602979982
  0
LWPOLYLINE
  5
432
100
AcDbEntity
  8
RACCORDO
100
AcDbPolyline
 62
253
  6
CONTINUOUS
 90
10
 70
0
 10
103.204521584
 20
47.8956161492
 10
103.2057845849
 20
47.8957625852
 10
103.2094789235
 20
47.8957133857
 10
103.2155172427
 20
47.8955872005
 10
103.2239254902
 20
47.8955922982
 10
103.2347126431
 20
47.895661716
 10
103.2476981924
 20
47.8955603738
 10
103.2627265261
 20
47.8955135712
 10
103.2797840299
 20
47.8956165431
 10
103.3192706694
 20
47.8954652885
  0
LWPOLYLINE
  5
433
100
AcDbEntity
  8
RACCORDO
100
AcDbPolyline
 62
253
  6
CONTINUOUS
 90
6
 70
0
 10
103.3192706694
 20
47.8954652885
 10
103.3413450852
 20
47.8955774437
 10
103.3647999152
 20
47.895520653
 10
103.3894288506
 20
47.8952847654
 10
103.414960525
 20
47.8952233707
 10
103.4411366183
 20
47.8955106706
  0
LINE
  5
434
100
AcDbEntity
  8
RACCORDO
100
AcDbLine
 62
253
  6
CONTINUOUS
 10
105.2260994588
 20
48.7514922122
 11
105.4627078576
 21
48.7510978822
  0
LWPOLYLINE
  5
435
100
AcDbEntity
  8
RACCORDO
100
AcDbPolyline
 62
253
  6
CONTINUOUS
 90
4
 70
0
 10
105.204521584
 20
48.7517298894
 10
105.2058856505
 20
48.7516690955
 10
105.2099654454
 20
48.7516088544
 10
105.2260994588
 20
48.7514922122
  0
LWPOLYLINE
  5
436
100
AcDbEntity
  8
RACCORDO
100
AcDbPolyline
 62
253
  6
CONTINUOUS
 90
19
 70
0
 10
103.4524271307
 20
55.8089415249
 10
103.4468024777
 20
55.8110463383
 10
103.4418872948
 20
55.8152153405
 10
103.4375642421
 20
55.8214275434
 10
103.4335756867
 20
55.8297077197
 10
103.4299592829
 20
55.8400249293
 10
103.427038141
 20
55.8522404869
 10
103.4246782058
 20
55.8662535682
 10
103.4227370539
 20
55.8820131876
 10
103.4215305992
 20
55.8993846319
 10
103.4209396386
 20
55.9182239733
 10
103.4208002803
 20
55.9384078479
 10
103.4213983414
 20
55.9598064905
 10
103.4226105175
 20
55.982245523
 10
103.4242751525
 20
56.0055518322
 10
103.4266499384
 20
56.0295925743
 10
103.4297257655
 20
56.054195197
 10
103.4332113415
 20
56.0791405334
 10
103.4369452492
 20
56.104222867
  0
LWPOLYLINE
  5
437
100
AcDbEntity
  8
RACCORDO
100
AcDbPolyline
 62
253
  6
CONTINUOUS
 90
19
 70
0
 10
103.6945019978
 20
55.7662571944
 10
103.6893850125
 20
55.7682629009
 10
103.6846824974
 20
55.7723944191
 10
103.68042852
 20
55.7786218181
 10
103.6766538986
 20
55.7868999833
 10
103.6733859783
 20
55.7971689433
 10
103.6706484339
 20
55.8093543043
 10
103.6684610975
 20
55.8233677888
 10
103.6668398154
 20
55.8391078759
 10
103.665796333
 20
55.8564605359
 10
103.6653382098
 20
55.8753000567
 10
103.6654687648
 20
55.895489955
 10
103.6661870521
 20
55.9168839642
 10
103.6674878681
 20
55.9393270947
 10
103.669361789
 20
55.9626567564
 10
103.671795239
 20
55.9867039369
 10
103.674770589
 20
56.0112944256
 10
103.6782662839
 20
56.0362500756
 10
103.6822569991
 20
56.0613900951
  0
LWPOLYLINE
  5
438
100
AcDbEntity
  8
RACCORDO
100
AcDbPolyline
 62
253
  6
CONTINUOUS
 90
19
 70
0
 10
104.9566160373
 20
55.5437124366
 10
104.9528006178
 20
55.545499565
 10
104.949394257
 20
55.5494351926
 10
104.9464218772
 20
55.5554905247
 10
104.9439052255
 20
55.563621258
 10
104.9418627148
 20
55.5737679048
 10
104.9403092888
 20
55.5858562283
 10
104.939256313
 20
55.5997977853
 10
104.9387114914
 20
55.615490574
 10
104.9386788101
 20
55.6328197795
 10
104.9391585083
 20
55.6516586145
 10
104.9401470762
 20
55.6718692464
 10
104.9416372811
 20
55.6933038063
 10
104.94361822
 20
55.7158054702
 10
104.9460753996
 20
55.7392096071
 10
104.9489908422
 20
55.7633449828
 10
104.9523432172
 20
55.7880350134
 10
104.9561079972
 20
55.8130990566
 10
104.9602576377
 20
55.8383537338
  0
LWPOLYLINE
  5
439
100
AcDbEntity
  8
0
100
AcDbPolyline
 62
7
  6
CONTINUOUS
 90
7
 70
0
 10
106.3767566801
 20
80.6960155547
 10
106.3758203618
 20
80.6972508129
 10
106.3748963901
 20
80.6982518461
 10
106.3739833844
 20
80.6990229974
 10
106.3730800069
 20
80.6995685704
 10
106.3721849621
 20
80.6998928295
 10
106.3712969964
 20
80.7
  0
LINE
  5
43A
100
AcDbEntity
  8
RACCORDO
100
AcDbLine
 62
253
  6
CONTINUOUS
 10
106.6137857264
 20
81.53255216
 11
106.6134284329
 21
81.5330426223
  0
LINE
  5
43B
100
AcDbEntity
  8
RACCORDO
100
AcDbLine
 62
253
  6
CONTINUOUS
 10
112.0589406472
 20
58.0615041738
 11
111.6031469159
 21
58.0386319559
  0
LINE
  5
43C
100
AcDbEntity
  8
RACCORDO
100
AcDbLine
 62
253
  6
CONTINUOUS
 10
109.5239250492
 20
57.9502798437
 11
109.6491467223
 21
57.9565710141
  0
LWPOLYLINE
  5
43D
100
AcDbEntity
  8
RACCORDO
100
AcDbPolyline
 62
253
  6
CONTINUOUS
 90
7
 70
0
 10
103.2782743485
 20
56.1042053523
 10
103.3170265723
 20
56.104318418
 10
103.3387117936
 20
56.1041954431
 10
103.3617685871
 20
56.1042385259
 10
103.385997944
 20
56.1044572642
 10
103.4111397452
 20
56.1045085201
 10
103.4369452492
 20
56.104222867
  0
LWPOLYLINE
  5
43E
100
AcDbEntity
  8
RACCORDO
100
AcDbPolyline
 62
253
  6
CONTINUOUS
 90
3
 70
0
 10
103.2340909162
 20
56.1042228178
 10
103.2615462374
 20
56.1043237706
 10
103.2782743485
 20
56.1042053523
  0
LINE
  5
43F
100
AcDbEntity
  8
RACCORDO
100
AcDbLine
 62
253
  6
CONTINUOUS
 10
105.2521924859
 20
55.2477978815
 11
105.4620439218
 21
55.2474058222
  0
LWPOLYLINE
  5
440
100
AcDbEntity
  8
RACCORDO
100
AcDbPolyline
 62
253
  6
CONTINUOUS
 90
3
 70
0
 10
103.204521584
 20
56.8875958225
 10
103.2057211806
 20
56.887580052
 10
103.4364398449
 20
56.8874239022
  0
LWPOLYLINE
  5
441
100
AcDbEntity
  8
RACCORDO
100
AcDbPolyline
 62
253
  6
CONTINUOUS
 90
5
 70
0
 10
105.204521059
 20
55.2482701106
 10
105.2058808701
 20
55.2481870785
 10
105.2099479851
 20
55.2481047991
 10
105.2166855338
 20
55.2480240182
 10
105.2521924859
 20
55.2477978815
  0
LWPOLYLINE
  5
442
100
AcDbEntity
  8
RACCORDO
100
AcDbPolyline
 62
253
  6
CONTINUOUS
 90
6
 70
0
 10
103.204521584
 20
56.1043838508
 10
103.2057575302
 20
56.1042182047
 10
103.2093743442
 20
56.1042417191
 10
103.2152880018
 20
56.1043399828
 10
103.2235239539
 20
56.1043120446
 10
103.2340909162
 20
56.1042228178
  0
LINE
  5
443
100
AcDbEntity
  8
RACCORDO
100
AcDbLine
 62
253
  6
CONTINUOUS
 10
104.9602576831
 20
55.8383537345
 11
103.4369452492
 21
56.104222867
  0
LINE
  5
444
100
AcDbEntity
  8
RACCORDO
100
AcDbLine
 62
7
  6
CONTINUOUS
 10
104.9566149682
 20
55.5437126251
 11
103.4524271307
 21
55.8089415249
  0
LINE
  5
445
100
AcDbEntity
  8
RACCORDO
100
AcDbLine
 62
253
  6
CONTINUOUS
 10
103.3277018751
 20
-79.5923938442
 11
103.3277619608
 21
-79.592351841
  0
LINE
  5
446
100
AcDbEntity
  8
RACCORDO
100
AcDbLine
 62
253
  6
CONTINUOUS
 10
109.4015669809
 20
60.1099699925
 11
109.526505604
 21
60.1178718573
  0
LINE
  5
447
100
AcDbEntity
  8
RACCORDO
100
AcDbLine
 62
253
  6
CONTINUOUS
 10
109.857309983
 20
58.0386319559
 11
109.5203381908
 21
58.0216127925
  0
LINE
  5
448
100
AcDbEntity
  8
RACCORDO
100
AcDbLine
 62
253
  6
CONTINUOUS
 10
112.054521584
 20
58.149362171
 11
111.598732753
 21
58.1264158295
  0
LINE
  5
449
100
AcDbEntity
  8
RACCORDO
100
AcDbLine
 62
253
  6
CONTINUOUS
 10
111.6031469159
 20
58.0386319559
 11
109.857309983
 21
58.0386319559
  0
LWPOLYLINE
  5
44A
100
AcDbEntity
  8
RACCORDO
100
AcDbPolyline
 62
253
  6
CONTINUOUS
 90
3
 70
0
 10
103.2045216217
 20
58.1059965222
 10
103.2057159779
 20
58.1059792112
 10
103.4355825645
 20
58.1058075257
  0
LWPOLYLINE
  5
44B
100
AcDbEntity
  8
RACCORDO
100
AcDbPolyline
 62
253
  6
CONTINUOUS
 90
15
 70
0
 10
108.7744385296
 20
81.8331025978
 10
108.776951188
 20
81.8312471063
 10
108.7796415618
 20
81.8261140499
 10
108.78249586
 20
81.8177265235
 10
108.7854989502
 20
81.8061246246
 10
108.7886419674
 20
81.7913485204
 10
108.7919206452
 20
81.7734227966
 10
108.7953300179
 20
81.7523807391
 10
108.7988537876
 20
81.7282950803
 10
108.8024716217
 20
81.7012571809
 10
108.8061810142
 20
81.6713634367
 10
108.8099726877
 20
81.638701132
 10
108.8138184435
 20
81.6033656065
 10
108.8177194653
 20
81.5654651105
 10
108.8216693732
 20
81.5251213573
  0
LINE
  5
44C
100
AcDbEntity
  8
RACCORDO
100
AcDbLine
 62
253
  6
CONTINUOUS
 10
105.1135533298
 20
80.4669957771
 11
105.2951977716
 21
80.516003066
  0
LINE
  5
44D
100
AcDbEntity
  8
RACCORDO
100
AcDbLine
 62
7
  6
CONTINUOUS
 10
106.926681596
 20
81.7
 11
106.7202929255
 21
81.643786021
  0
LINE
  5
44E
100
AcDbEntity
  8
RACCORDO
100
AcDbLine
 62
253
  6
CONTINUOUS
 10
105.2899621092
 20
80.5162058503
 11
105.474150058
 21
80.5601671695
  0
LINE
  5
44F
100
AcDbEntity
  8
RACCORDO
100
AcDbLine
 62
253
  6
CONTINUOUS
 10
105.4684731161
 20
80.5603392688
 11
105.6544267783
 21
80.5990554753
  0
LINE
  5
450
100
AcDbEntity
  8
RACCORDO
100
AcDbLine
 62
253
  6
CONTINUOUS
 10
107.0634759131
 20
81.0035154465
 11
106.8568655613
 21
80.9634007133
  0
LINE
  5
451
100
AcDbEntity
  8
RACCORDO
100
AcDbLine
 62
253
  6
CONTINUOUS
 10
106.7462261747
 20
80.8664899136
 11
106.869118245
 21
80.8902907342
  0
LINE
  5
452
100
AcDbEntity
  8
RACCORDO
100
AcDbLine
 62
253
  6
CONTINUOUS
 10
109.3179167308
 20
80.9307445294
 11
108.8703687685
 21
80.8453434919
  0
LINE
  5
453
100
AcDbEntity
  8
RACCORDO
100
AcDbLine
 62
253
  6
CONTINUOUS
 10
105.6482971136
 20
80.5991917007
 11
105.8346366645
 21
80.6324301886
  0
LINE
  5
454
100
AcDbEntity
  8
RACCORDO
100
AcDbLine
 62
253
  6
CONTINUOUS
 10
105.8280855576
 20
80.6325333985
 11
106.0141473062
 21
80.660298755
  0
LINE
  5
455
100
AcDbEntity
  8
RACCORDO
100
AcDbLine
 62
253
  6
CONTINUOUS
 10
106.7435674734
 20
80.9472912635
 11
106.8568663681
 21
80.963400866
  0
LINE
  5
456
100
AcDbEntity
  8
RACCORDO
100
AcDbLine
 62
253
  6
CONTINUOUS
 10
106.7306659617
 20
80.9455129247
 11
106.7435674734
 21
80.9472912635
  0
LINE
  5
457
100
AcDbEntity
  8
RACCORDO
100
AcDbLine
 62
253
  6
CONTINUOUS
 10
106.0072207353
 20
80.6603712872
 11
106.1931094369
 21
80.6828009337
  0
LINE
  5
458
100
AcDbEntity
  8
RACCORDO
100
AcDbLine
 62
253
  6
CONTINUOUS
 10
106.1858392177
 20
80.6828398929
 11
106.3712969964
 21
80.7
  0
LINE
  5
459
100
AcDbEntity
  8
RACCORDO
100
AcDbLine
 62
253
  6
CONTINUOUS
 10
106.1982705402
 20
80.67900421
 11
106.37675668
 21
80.6960155546
  0
LINE
  5
45A
100
AcDbEntity
  8
RACCORDO
100
AcDbLine
 62
7
  6
CONTINUOUS
 10
106.3285202251
 20
80.6970169429
 11
106.3637148154
 21
80.7
  0
LWPOLYLINE
  5
45B
100
AcDbEntity
  8
RACCORDO
100
AcDbPolyline
 62
7
  6
CONTINUOUS
 90
5
 70
0
 10
103.3176536319
 20
79.5928532422
 10
103.3168692369
 20
79.5928241214
 10
103.3163455567
 20
79.592776729
 10
103.316082847
 20
79.5927564885
 10
103.3160545494
 20
79.5927863139
  0
LINE
  5
45C
100
AcDbEntity
  8
RACCORDO
100
AcDbLine
 62
7
  6
CONTINUOUS
 10
106.1810481993
 20
80.693435272
 11
106.3637148154
 21
80.7
  0
LINE
  5
45D
100
AcDbEntity
  8
0
100
AcDbLine
 62
7
  6
CONTINUOUS
 10
106.3712969964
 20
80.7
 11
106.363927314
 21
80.6999999914
  0
LINE
  5
45E
100
AcDbEntity
  8
RACCORDO
100
AcDbLine
 62
253
  6
CONTINUOUS
 10
103.2539340556
 20
79.1135571941
 11
103.3858936461
 21
79.1130098666
  0
LWPOLYLINE
  5
45F
100
AcDbEntity
  8
RACCORDO
100
AcDbPolyline
 62
7
  6
CONTINUOUS
 90
5
 70
0
 10
103.3276666975
 20
79.5925851437
 10
103.3246966034
 20
79.5927778312
 10
103.3222395709
 20
79.5928563956
 10
103.3202596821
 20
79.5928634632
 10
103.3187494828
 20
79.5928570085
  0
LINE
  5
460
100
AcDbEntity
  8
RACCORDO
100
AcDbLine
 62
7
  6
CONTINUOUS
 10
108.7744385296
 20
81.8331025978
 11
106.866792493
 21
82.0
  0
LINE
  5
461
100
AcDbEntity
  8
RACCORDO
100
AcDbLine
 62
253
  6
CONTINUOUS
 10
108.8703687717
 20
80.8453434754
 11
107.0634759653
 21
81.0035151779
  0
LWPOLYLINE
  5
462
100
AcDbEntity
  8
RACCORDO
100
AcDbPolyline
 62
253
  6
CONTINUOUS
 90
6
 70
0
 10
103.204521584
 20
79.1143730751
 10
103.2059325199
 20
79.1142293421
 10
103.2101519423
 20
79.1140869548
 10
103.2171401639
 20
79.1139472524
 10
103.2268314545
 20
79.1138115487
 10
103.2539340556
 20
79.1135571941
  0
ARC
  5
463
100
AcDbEntity
  8
RACCORDO
100
AcDbCircle
 62
7
  6
CONTINUOUS
 10
-337.3751240707
 20
-35.5
 40
450.0
100
AcDbArc
 50
357.1149805863
 51
0.0000005749
  0
ARC
  5
464
100
AcDbEntity
  8
DRAFT
100
AcDbCircle
 62
7
  6
CONTINUOUS
 10
-337.3751240707
 20
-35.5
 40
447.8
100
AcDbArc
 50
357.11497466
 51
360.0
  0
ARC
  5
465
100
AcDbEntity
  8
RACCORDO
100
AcDbCircle
 62
7
  6
CONTINUOUS
 10
-337.3751240707
 20
35.5
 40
450.0
100
AcDbArc
 50
359.999999429
 51
2.8850196415
  0
ARC
  5
466
100
AcDbEntity
  8
DRAFT
100
AcDbCircle
 62
7
  6
CONTINUOUS
 10
-337.3751240707
 20
35.5
 40
447.8
100
AcDbArc
 50
0.0
 51
2.88502534
  0
ARC
  5
467
100
AcDbEntity
  8
0
100
AcDbCircle
 62
7
  6
CONTINUOUS
 10
-53.6597021176
 20
-49.7980629058
 40
166.0245254217
100
AcDbArc
 50
354.9619799652
 51
355.942572339
  0
ARC
  5
468
100
AcDbEntity
  8
RACCORDO
100
AcDbCircle
 62
7
  6
CONTINUOUS
 10
-53.6597021176
 20
-49.7980629058
 40
165.9245254217
100
AcDbArc
 50
349.0097188383
 51
357.1149907326
  0
ARC
  5
469
100
AcDbEntity
  8
RACCORDO
100
AcDbCircle
 62
7
  6
CONTINUOUS
 10
-53.6597021176
 20
-49.7980629058
 40
163.7245254217
100
AcDbArc
 50
348.6569055078
 51
357.11497466
  0
ARC
  5
46A
100
AcDbEntity
  8
RACCORDO
100
AcDbCircle
 62
7
  6
CONTINUOUS
 10
103.504521584
 20
-79.3593763924
 40
0.3
100
AcDbArc
 50
179.9999999266
 51
231.0813363953
  0
ARC
  5
46B
100
AcDbEntity
  8
RACCORDO
100
AcDbCircle
 62
7
  6
CONTINUOUS
 10
103.504521584
 20
-79.3502582012
 40
0.3
100
AcDbArc
 50
180.0000018988
 51
233.87731107
  0
ARC
  5
46C
100
AcDbEntity
  8
RACCORDO
100
AcDbCircle
 62
7
  6
CONTINUOUS
 10
103.404521584
 20
-78.8113525438
 40
0.2
100
AcDbArc
 50
162.0999840749
 51
180.0
  0
ARC
  5
46D
100
AcDbEntity
  8
RACCORDO
100
AcDbCircle
 62
7
  6
CONTINUOUS
 10
105.504521584
 20
-51.8930299293
 40
0.3
100
AcDbArc
 50
175.0513594259
 51
180.0
  0
ARC
  5
46E
100
AcDbEntity
  8
RACCORDO
100
AcDbCircle
 62
7
  6
CONTINUOUS
 10
105.504521584
 20
-52.1069700707
 40
0.3
100
AcDbArc
 50
180.0
 51
184.9483423878
  0
ARC
  5
46F
100
AcDbEntity
  8
RACCORDO
100
AcDbCircle
 62
7
  6
CONTINUOUS
 10
103.504521584
 20
-56.1043838508
 40
0.3
100
AcDbArc
 50
100.0
 51
179.9999999998
  0
ARC
  5
470
100
AcDbEntity
  8
RACCORDO
100
AcDbCircle
 62
7
  6
CONTINUOUS
 10
104.904521584
 20
-55.2482701106
 40
0.3
100
AcDbArc
 50
279.9998175118
 51
0.0013597962
  0
ARC
  5
471
100
AcDbEntity
  8
RACCORDO
100
AcDbCircle
 62
7
  6
CONTINUOUS
 10
108.7308615429
 20
-81.3350007828
 40
0.5000000001
100
AcDbArc
 50
274.9998544227
 51
349.0091971459
  0
ARC
  5
472
100
AcDbEntity
  8
RACCORDO
100
AcDbCircle
 62
7
  6
CONTINUOUS
 10
106.7565976934
 20
-81.4982099772
 40
0.15
100
AcDbArc
 50
196.500005883
 51
254.7639739296
  0
ARC
  5
473
100
AcDbEntity
  8
RACCORDO
100
AcDbCircle
 62
7
  6
CONTINUOUS
 10
103.504521584
 20
-47.8956161492
 40
0.3
100
AcDbArc
 50
180.0
 51
260.0
  0
ARC
  5
474
100
AcDbEntity
  8
RACCORDO
100
AcDbCircle
 62
7
  6
CONTINUOUS
 10
104.904521584
 20
-48.7517298894
 40
0.3
100
AcDbArc
 50
359.9988974914
 51
80.0004894539
  0
ARC
  5
475
100
AcDbEntity
  8
RACCORDO
100
AcDbCircle
 62
7
  6
CONTINUOUS
 10
103.404521584
 20
-41.7034605474
 40
0.2
100
AcDbArc
 50
180.0000188514
 51
185.4997994802
  0
ARC
  5
476
100
AcDbEntity
  8
RACCORDO
100
AcDbCircle
 62
7
  6
CONTINUOUS
 10
103.404521584
 20
-20.2386474562
 40
0.2
100
AcDbArc
 50
180.0
 51
184.9835883106
  0
ARC
  5
477
100
AcDbEntity
  8
RACCORDO
100
AcDbCircle
 62
7
  6
CONTINUOUS
 10
-53.6597021176
 20
49.7980629058
 40
165.9245254217
100
AcDbArc
 50
2.8850098852
 51
10.9902811617
  0
ARC
  5
478
100
AcDbEntity
  8
RACCORDO
100
AcDbCircle
 62
7
  6
CONTINUOUS
 10
-53.6597021176
 20
49.7980629058
 40
163.7245254217
100
AcDbArc
 50
2.88502534
 51
11.3430944922
  0
ARC
  5
479
100
AcDbEntity
  8
RACCORDO
100
AcDbCircle
 62
7
  6
CONTINUOUS
 10
103.504521584
 20
47.8956161492
 40
0.3
100
AcDbArc
 50
100.0
 51
180.0000000534
  0
ARC
  5
47A
100
AcDbEntity
  8
RACCORDO
100
AcDbCircle
 62
7
  6
CONTINUOUS
 10
104.904521584
 20
48.7517298894
 40
0.3
100
AcDbArc
 50
279.999505823
 51
0.0010999765
  0
ARC
  5
47B
100
AcDbEntity
  8
RACCORDO
100
AcDbCircle
 62
7
  6
CONTINUOUS
 10
103.404521584
 20
19.7613525438
 40
0.2
100
AcDbArc
 50
180.0
 51
184.9835883107
  0
ARC
  5
47C
100
AcDbEntity
  8
RACCORDO
100
AcDbCircle
 62
7
  6
CONTINUOUS
 10
103.404521584
 20
41.2965394526
 40
0.2
100
AcDbArc
 50
180.0000179667
 51
185.4971269542
  0
ARC
  5
47D
100
AcDbEntity
  8
RACCORDO
100
AcDbCircle
 62
7
  6
CONTINUOUS
 10
103.404521584
 20
41.7034605474
 40
0.2
100
AcDbArc
 50
174.5002529504
 51
179.9999811486
  0
ARC
  5
47E
100
AcDbEntity
  8
RACCORDO
100
AcDbCircle
 62
7
  6
CONTINUOUS
 10
105.504521584
 20
52.1069700707
 40
0.3
100
AcDbArc
 50
175.0513594259
 51
180.0
  0
ARC
  5
47F
100
AcDbEntity
  8
RACCORDO
100
AcDbCircle
 62
7
  6
CONTINUOUS
 10
105.504521584
 20
51.8930299293
 40
0.3
100
AcDbArc
 50
180.0
 51
184.9483423878
  0
ARC
  5
480
100
AcDbEntity
  8
RACCORDO
100
AcDbCircle
 62
7
  6
CONTINUOUS
 10
103.504521584
 20
56.1043838508
 40
0.3
100
AcDbArc
 50
180.0
 51
260.0
  0
ARC
  5
481
100
AcDbEntity
  8
RACCORDO
100
AcDbCircle
 62
7
  6
CONTINUOUS
 10
104.904521584
 20
55.2482701106
 40
0.3
100
AcDbArc
 50
359.9986029724
 51
80.0002073203
  0
ARC
  5
482
100
AcDbEntity
  8
RACCORDO
100
AcDbCircle
 62
7
  6
CONTINUOUS
 10
103.404521584
 20
60.7613525438
 40
0.2
100
AcDbArc
 50
180.0
 51
184.9835883106
  0
ARC
  5
483
100
AcDbEntity
  8
RACCORDO
100
AcDbCircle
 62
7
  6
CONTINUOUS
 10
103.504521584
 20
79.3593763924
 40
0.3
100
AcDbArc
 50
128.9186636047
 51
180.0000000734
  0
ARC
  5
484
100
AcDbEntity
  8
RACCORDO
100
AcDbCircle
 62
7
  6
CONTINUOUS
 10
103.504521584
 20
79.3502582111
 40
0.3
100
AcDbArc
 50
126.1226900401
 51
179.9999999844
  0
ARC
  5
485
100
AcDbEntity
  8
RACCORDO
100
AcDbCircle
 62
7
  6
CONTINUOUS
 10
103.404521584
 20
78.8113525438
 40
0.2
100
AcDbArc
 50
180.0
 51
197.9000159251
  0
ARC
  5
486
100
AcDbEntity
  8
RACCORDO
100
AcDbCircle
 62
7
  6
CONTINUOUS
 10
108.7308606583
 20
81.3350052487
 40
0.5
100
AcDbArc
 50
10.9902811617
 51
85.0
  0
ARC
  5
487
100
AcDbEntity
  8
RACCORDO
100
AcDbCircle
 62
7
  6
CONTINUOUS
 10
106.7565976934
 20
81.4982099772
 40
0.15
100
AcDbArc
 50
105.2360260704
 51
163.499994117
  0
ENDSEC
  0
SECTION
  2
OBJECTS
  0
DICTIONARY
  5
C
100
AcDbDictionary
280
0
281
1
  3
ACAD_GROUP
350
D
  3
ACAD_MLINESTYLE
350
17
  3
ACAD_LAYOUT
350
1A
  3
ACAD_PLOTSETTINGS
350
19
  3
ACAD_PLOTSTYLENAME
350
E
  0
DICTIONARY
  5
D
102
{ACAD_REACTORS
330
C
102
}
100
AcDbDictionary
280
0
281
1
  0
ACDBDICTIONARYWDFLT
  5
E
102
{ACAD_REACTORS
330
C
102
}
100
AcDbDictionary
281
1
  3
Normal
350
F
100
AcDbDictionaryWithDefault
340
F
  0
DICTIONARY
  5
17
102
{ACAD_REACTORS
330
C
102
}
100
AcDbDictionary
280
0
281
1
  3
Standard
350
18
  0
DICTIONARY
  5
19
102
{ACAD_REACTORS
330
C
102
}
100
AcDbDictionary
281
1
  0
DICTIONARY
  5
1A
102
{ACAD_REACTORS
330
C
102
}
100
AcDbDictionary
281
1
  3
Model
350
488
  3
Layout1
350
489
  0
ACDBPLACEHOLDER
  5
F
102
{ACAD_REACTORS
330
E
102
}
  0
MLINESTYLE
  5
18
102
{ACAD_REACTORS
330
17
102
}
100
AcDbMlineStyle
  2
STANDARD
 70
0
  3

 62
256
 51
90.0
 52
90.0
 71
2
 49
0.5
 62
256
  6
BYLAYER
 49
-0.5
 62
256
  6
BYLAYER
  0
LAYOUT
  5
488
102
{ACAD_REACTORS
330
1A
102
}
100
AcDbPlotSettings
  1

  2
none_device
  4
ISO_A4_(297.00_x_210.00_MM)
  6

 40
0.0
 41
0.0
 42
0.0
 43
0.0
 44
297.0
 45
210.0
 46
0.0
 47
0.0
 48
0.0
 49
0.0
140
0.0
141
0.0
142
1.0
143
1.0
 70
1024
 72
1
 73
0
 74
0
  7

 75
0
147
1.0
148
0.0
149
0.0
100
AcDbLayout
  1
Model
 70
0
 71
0
 10
0.0
 20
0.0
 11
297.0
 21
210.0
 12
0.0
 22
0.0
 32
0.0
 14
0.0
 24
0.0
 34
0.0
 15
0.0
 25
0.0
 35
0.0
146
0.0
 13
0.0
 23
0.0
 33
0.0
 16
1.0
 26
0.0
 36
0.0
 17
0.0
 27
1.0
 37
0.0
 76
0
330
213
345
0
346
0
  0
LAYOUT
  5
489
102
{ACAD_REACTORS
330
1A
102
}
100
AcDbPlotSettings
  1

  2
none_device
  4
ISO_A4_(297.00_x_210.00_MM)
  6

 40
0.0
 41
0.0
 42
0.0
 43
0.0
 44
297.0
 45
210.0
 46
0.0
 47
0.0
 48
0.0
 49
0.0
140
0.0
141
0.0
142
1.0
143
1.0
 70
0
 72
1
 73
0
 74
0
  7

 75
0
147
1.0
148
0.0
149
0.0
100
AcDbLayout
  1
Layout1
 70
0
 71
1
 10
0.0
 20
0.0
 11
297.0
 21
210.0
 12
0.0
 22
0.0
 32
0.0
 14
0.0
 24
0.0
 34
0.0
 15
0.0
 25
0.0
 35
0.0
146
0.0
 13
0.0
 23
0.0
 33
0.0
 16
1.0
 26
0.0
 36
0.0
 17
0.0
 27
1.0
 37
0.0
 76
0
330
214
345
0
346
0
  0
ENDSEC
  0
EOF
