  0
SECTION
  2
HEADER
  9
$ACADVER
  1
AC1024
  9
$DWGCODEPAGE
  3
ANSI_1252
  9
$EXTMAX
 10
420.0
 20
297.0
 30
0.0
  9
$EXTMIN
 10
0.0
 20
0.0
 30
0.0
  9
$LIMMIN
 10
0.0
 20
0.0
  9
$LIMMAX
 10
420.0
 20
297.0
  9
$VIEWCTR
 10
210.0
 20
148.5
  9
$VIEWSIZE
 40
297.0
  9
$CLAYER
  8
0
  9
$LTSCALE
 40
23.1
  9
$CELTYPE
  6
BYLAYER
  9
$DIMSCALE
 40
1.0
  9
$DIMASZ
 40
3.0
  9
$DIMEXO
 40
0.5
  9
$DIMDLI
 40
15.96
  9
$DIMEXE
 40
1.5
  9
$DIMCEN
 40
3.78
  9
$DIMLFAC
 40
1.0
  9
$DIMBLK
  1
_FILLED
  9
$DIMALT
 70
0
  9
$DIMALTF
 40
0.0393700787
  9
$DIMTXT
 40
3.0
  9
$DIMTOL
 70
1
  9
$DIMLIM
 70
0
  9
$DIMTFAC
 40
1.0
  9
$DIMTP
 40
0.01
  9
$DIMTM
 40
0.01
  9
$DIMGAP
 40
0.625
  9
$DIMDSEP
 70
44
  9
$AUNITS
 70
0
  9
$PDMODE
 70
3
  9
$PDSIZE
 40
3.0
  9
$HANDSEED
  5
57A
  9
$TILEMODE
 70
1
  9
$MEASUREMENT
 70
1
  9
$INSUNITS
 70
4
  0
ENDSEC
  0
SECTION
  2
CLASSES
  0
CLASS
  1
ACDBDICTIONARYWDFLT
  2
AcDbDictionaryWithDefault
  3
AutoCAD 2000
 90
0
 91
1
280
0
281
0
  0
CLASS
  1
ACDBPLACEHOLDER
  2
AcDbPlaceHolder
  3
AutoCAD 2000
 90
0
 91
1
280
0
281
0
  0
CLASS
  1
LAYOUT
  2
AcDbLayout
  3
AutoCAD 2000
 90
0
 91
0
280
0
281
0
  0
ENDSEC
  0
SECTION
  2
TABLES
  0
TABLE
  2
VPORT
  5
8
100
AcDbSymbolTable
 70
2
  0
VPORT
  5
1F4
100
AcDbSymbolTableRecord
100
AcDbViewportTableRecord
  2
*ACTIVE
 70
0
 10
0.0
 20
0.0
 11
1.0
 21
1.0
 12
210.0
 22
148.5
 13
0.0
 23
0.0
 14
1.0
 24
1.0
 15
0.0
 25
0.0
 16
0.0
 26
0.0
 36
1.0
 17
0.0
 27
0.0
 37
0.0
 40
297.0
 41
1.4141414141
 42
50.0
 43
0.0
 44
0.0
 50
0.0
 51
0.0
 71
0
 72
100
 73
1
 74
1
 75
0
 76
0
 77
0
 78
0
  0
ENDTAB
  0
TABLE
  2
LTYPE
  5
5
100
AcDbSymbolTable
 70
6
  0
LTYPE
  5
14
100
AcDbSymbolTableRecord
100
AcDbLinetypeTableRecord
  2
BYBLOCK
 70
0
  3

 72
65
 73
0
 40
0.0
  0
LTYPE
  5
15
100
AcDbSymbolTableRecord
100
AcDbLinetypeTableRecord
  2
BYLAYER
 70
0
  3

 72
65
 73
0
 40
0.0
  0
LTYPE
  5
16
100
AcDbSymbolTableRecord
100
AcDbLinetypeTableRecord
  2
CONTINUOUS
 70
64
  3
Solid line
 72
65
 73
0
 40
0.0
  0
LTYPE
  5
1F5
100
AcDbSymbolTableRecord
100
AcDbLinetypeTableRecord
  2
CENTER
 70
64
  3
____ _ ____ _ ____ _ ____ _ ____ _ ____ _ ____
 72
65
 73
4
 40
0.6
 49
0.375
 74
0
 49
-0.075
 74
0
 49
0.075
 74
0
 49
-0.075
 74
0
  0
LTYPE
  5
1F6
100
AcDbSymbolTableRecord
100
AcDbLinetypeTableRecord
  2
HIDDEN
 70
64
  3
- - - - - - - - - - - - - - - - - - - -
 72
65
 73
2
 40
0.2
 49
0.1
 74
0
 49
-0.1
 74
0
  0
LTYPE
  5
1F7
100
AcDbSymbolTableRecord
100
AcDbLinetypeTableRecord
  2
PHANTOM
 70
64
  3
_____ _ _ _____ _ _ _____ _ _ _____
 72
65
 73
6
 40
0.8
 49
0.45
 74
0
 49
-0.05
 74
0
 49
0.1
 74
0
 49
-0.05
 74
0
 49
0.1
 74
0
 49
-0.05
 74
0
  0
LTYPE
  5
1F8
100
AcDbSymbolTableRecord
100
AcDbLinetypeTableRecord
  2
DOT
 70
64
  3
. . . . . . . . . . . . . . . . . . . .
 72
65
 73
2
 40
0.2
 49
0.1
 74
0
 49
-0.1
 74
0
  0
LTYPE
  5
1F9
100
AcDbSymbolTableRecord
100
AcDbLinetypeTableRecord
  2
DASHED
 70
64
  3
- - - - - - - - - - - - - - - - - - - -
 72
65
 73
2
 40
0.2
 49
0.1
 74
0
 49
-0.1
 74
0
  0
ENDTAB
  0
TABLE
  2
LAYER
  5
2
100
AcDbSymbolTable
 70
36
  0
LAYER
  5
10
100
AcDbSymbolTableRecord
100
AcDbLayerTableRecord
  2
0
 70
0
 62
7
  6
CONTINUOUS
370
-3
390
F
  0
LAYER
  5
1FA
100
AcDbSymbolTableRecord
100
AcDbLayerTableRecord
  2
DEFAULT_1
 70
0
 62
7
  6
CENTER
370
-3
390
F
  0
LAYER
  5
1FB
100
AcDbSymbolTableRecord
100
AcDbLayerTableRecord
  2
DEFAULT_2
 70
0
 62
7
  6
HIDDEN
370
-3
390
F
  0
LAYER
  5
1FC
100
AcDbSymbolTableRecord
100
AcDbLayerTableRecord
  2
DEFAULT_3
 70
0
 62
7
  6
PHANTOM
370
-3
390
F
  0
LAYER
  5
1FD
100
AcDbSymbolTableRecord
100
AcDbLayerTableRecord
  2
ASSI
 70
0
 62
7
  6
CONTINUOUS
370
-3
390
F
  0
LAYER
  5
1FE
100
AcDbSymbolTableRecord
100
AcDbLayerTableRecord
  2
COORDINATE
 70
0
 62
7
  6
CONTINUOUS
370
-3
390
F
  0
LAYER
  5
1FF
100
AcDbSymbolTableRecord
100
AcDbLayerTableRecord
  2
COPY_PUBLISH
 70
0
 62
7
  6
CONTINUOUS
370
-3
390
F
  0
LAYER
  5
200
100
AcDbSymbolTableRecord
100
AcDbLayerTableRecord
  2
COSMETIC
 70
0
 62
7
  6
CONTINUOUS
370
-3
390
F
  0
LAYER
  5
201
100
AcDbSymbolTableRecord
100
AcDbLayerTableRecord
  2
COSMETICI
 70
0
 62
7
  6
CONTINUOUS
370
-3
390
F
  0
LAYER
  5
202
100
AcDbSymbolTableRecord
100
AcDbLayerTableRecord
  2
CURVE
 70
0
 62
7
  6
CONTINUOUS
370
-3
390
F
  0
LAYER
  5
203
100
AcDbSymbolTableRecord
100
AcDbLayerTableRecord
  2
CURVE_VERN
 70
0
 62
7
  6
CONTINUOUS
370
-3
390
F
  0
LAYER
  5
204
100
AcDbSymbolTableRecord
100
AcDbLayerTableRecord
  2
DRAFT
 70
0
 62
7
  6
CONTINUOUS
370
-3
390
F
  0
LAYER
  5
205
100
AcDbSymbolTableRecord
100
AcDbLayerTableRecord
  2
IMPORT_IGES
 70
0
 62
7
  6
CONTINUOUS
370
-3
390
F
  0
LAYER
  5
206
100
AcDbSymbolTableRecord
100
AcDbLayerTableRecord
  2
INTFCLR_1
 70
0
 62
7
  6
CONTINUOUS
370
-3
390
F
  0
LAYER
  5
207
100
AcDbSymbolTableRecord
100
AcDbLayerTableRecord
  2
INTF_1
 70
0
 62
7
  6
CONTINUOUS
370
-3
390
F
  0
LAYER
  5
208
100
AcDbSymbolTableRecord
100
AcDbLayerTableRecord
  2
NOTE
 70
0
 62
7
  6
CONTINUOUS
370
-3
390
F
  0
LAYER
  5
209
100
AcDbSymbolTableRecord
100
AcDbLayerTableRecord
  2
PIANI
 70
0
 62
7
  6
CONTINUOUS
370
-3
390
F
  0
LAYER
  5
20A
100
AcDbSymbolTableRecord
100
AcDbLayerTableRecord
  2
PUNTI
 70
0
 62
7
  6
CONTINUOUS
370
-3
390
F
  0
LAYER
  5
20B
100
AcDbSymbolTableRecord
100
AcDbLayerTableRecord
  2
RACCORDO
 70
0
 62
7
  6
CONTINUOUS
370
-3
390
F
  0
LAYER
  5
20C
100
AcDbSymbolTableRecord
100
AcDbLayerTableRecord
  2
RGB____0____0____0__
 70
0
 62
7
  6
CONTINUOUS
370
-3
390
F
  0
LAYER
  5
20D
100
AcDbSymbolTableRecord
100
AcDbLayerTableRecord
  2
SIMBOLI
 70
0
 62
7
  6
CONTINUOUS
370
-3
390
F
  0
LAYER
  5
20E
100
AcDbSymbolTableRecord
100
AcDbLayerTableRecord
  2
SMUSSO
 70
0
 62
7
  6
CONTINUOUS
370
-3
390
F
  0
LAYER
  5
20F
100
AcDbSymbolTableRecord
100
AcDbLayerTableRecord
  2
SNAPLINE
 70
0
 62
7
  6
CONTINUOUS
370
-3
390
F
  0
LAYER
  5
210
100
AcDbSymbolTableRecord
100
AcDbLayerTableRecord
  2
SUPERFICI
 70
0
 62
7
  6
CONTINUOUS
370
-3
390
F
  0
LAYER
  5
211
100
AcDbSymbolTableRecord
100
AcDbLayerTableRecord
  2
TRASH
 70
0
 62
7
  6
CONTINUOUS
370
-3
390
F
  0
LAYER
  5
212
100
AcDbSymbolTableRecord
100
AcDbLayerTableRecord
  2
XSEC_DATUMS
 70
0
 62
7
  6
CONTINUOUS
370
-3
390
F
  0
ENDTAB
  0
TABLE
  2
STYLE
  5
3
100
AcDbSymbolTable
 70
1
  0
STYLE
  5
11
100
AcDbSymbolTableRecord
100
AcDbTextStyleTableRecord
  2
STANDARD
 70
0
 40
0.0
 41
0.8
 50
0.0
 71
0
 42
0.2
  3
txt
  4

  0
STYLE
  5
213
100
AcDbSymbolTableRecord
100
AcDbTextStyleTableRecord
  2
TEXTSTYLE_1
 70
0
 40
0.0
 41
0.8
 50
0.0
 71
0
 42
0.2
  3
gdt
  4

  0
ENDTAB
  0
TABLE
  2
VIEW
  5
6
100
AcDbSymbolTable
 70
0
  0
ENDTAB
  0
TABLE
  2
UCS
  5
7
100
AcDbSymbolTable
 70
0
  0
ENDTAB
  0
TABLE
  2
APPID
  5
9
100
AcDbSymbolTable
 70
1
  0
APPID
  5
214
100
AcDbSymbolTableRecord
100
AcDbRegAppTableRecord
  2
ACAD
 70
0
  0
ENDTAB
  0
TABLE
  2
BLOCK_RECORD
  5
1
100
AcDbSymbolTable
 70
0
  0
BLOCK_RECORD
  5
215
100
AcDbSymbolTableRecord
100
AcDbBlockTableRecord
  2
*Model_Space
  0
BLOCK_RECORD
  5
216
100
AcDbSymbolTableRecord
100
AcDbBlockTableRecord
  2
*Paper_Space
  0
BLOCK_RECORD
  5
217
100
AcDbSymbolTableRecord
100
AcDbBlockTableRecord
  2
_FILLED
  0
BLOCK_RECORD
  5
218
100
AcDbSymbolTableRecord
100
AcDbBlockTableRecord
  2
*D0
  0
BLOCK_RECORD
  5
219
100
AcDbSymbolTableRecord
100
AcDbBlockTableRecord
  2
*D1
  0
BLOCK_RECORD
  5
21A
100
AcDbSymbolTableRecord
100
AcDbBlockTableRecord
  2
*D2
  0
ENDTAB
  0
TABLE
  2
DIMSTYLE
  5
A
100
AcDbSymbolTable
 70
1
100
AcDbDimStyleTable
 71
0
  0
DIMSTYLE
105
21B
100
AcDbSymbolTableRecord
100
AcDbDimStyleTableRecord
  2
STANDARD
 70
0
  3

  4

 40
1.0
 41
3.0
 42
0.5
 43
0.38
 44
1.5
 45
0.0
 46
0.0
 47
0.01
 48
0.01
140
3.0
141
0.09
142
0.0
143
25.4
144
1.0
145
0.0
146
1.0
147
0.625
 71
1
 72
0
 73
0
 74
0
 75
0
 76
0
 77
1
 78
8
 79
2
170
0
171
1
172
0
173
0
174
0
175
0
176
0
177
0
178
0
270
2
179
2
271
2
272
2
273
2
274
2
275
0
280
0
281
0
282
0
283
1
284
8
285
0
286
0
287
3
288
0
340
11
278
44
341
217
342
217
343
217
344
217
  0
DIMSTYLE
105
21C
100
AcDbSymbolTableRecord
100
AcDbDimStyleTableRecord
  2
DIMSTYLE_1
 70
0
  3

  4

 40
1.0
 41
3.0
 42
0.5
 43
0.38
 44
1.5
 45
0.0
 46
0.0
 47
0.0
 48
0.0
140
3.0
141
0.09
142
0.0
143
25.4
144
1.0
145
0.0
146
1.0
147
0.75
 71
0
 72
0
 73
0
 74
0
 75
0
 76
0
 77
1
 78
8
 79
2
170
0
171
1
172
0
173
0
174
0
175
0
176
0
177
0
178
0
270
2
179
2
271
2
272
2
273
2
274
2
275
0
280
0
281
0
282
0
283
1
284
8
285
0
286
0
287
3
288
0
340
11
278
44
341
217
342
217
343
217
344
217
  0
DIMSTYLE
105
21D
100
AcDbSymbolTableRecord
100
AcDbDimStyleTableRecord
  2
DIMSTYLE_2
 70
0
  3

  4

 40
1.0
 41
3.0
 42
0.5
 43
0.38
 44
1.5
 45
0.0
 46
0.0
 47
0.0
 48
0.0
140
3.0
141
0.09
142
0.0
143
25.4
144
1.0
145
0.0
146
1.0
147
0.75
 71
0
 72
0
 73
0
 74
0
 75
0
 76
0
 77
1
 78
8
 79
2
170
0
171
1
172
0
173
0
174
0
175
0
176
0
177
0
178
0
270
2
179
2
271
1
272
1
273
2
274
2
275
0
280
0
281
0
282
0
283
1
284
8
285
0
286
0
287
3
288
0
340
11
278
44
341
217
342
217
343
217
344
217
  0
ENDTAB
  0
ENDSEC
  0
SECTION
  2
BLOCKS
  0
BLOCK
  5
20
100
AcDbEntity
  8
0
100
AcDbBlockBegin
  2
*Model_Space
 70
0
 10
0.0
 20
0.0
 30
0.0
  3
*Model_Space
  1

  0
ENDBLK
  5
21
100
AcDbEntity
  8
0
100
AcDbBlockEnd
  0
BLOCK
  5
1C
100
AcDbEntity
  8
0
100
AcDbBlockBegin
  2
*Paper_Space
 70
0
 10
0.0
 20
0.0
 30
0.0
  3
*Paper_Space
  1

  0
ENDBLK
  5
1D
100
AcDbEntity
  8
0
100
AcDbBlockEnd
  0
BLOCK
  5
21E
100
AcDbEntity
  8
0
100
AcDbBlockBegin
  2
_FILLED
 70
64
 10
0.0
 20
0.0
  3
_FILLED
  1

  0
SOLID
  5
21F
100
AcDbEntity
  8
0
  6
BYBLOCK
 62
0
100
AcDbTrace
 10
0.0
 20
0.0
 11
-1.0
 21
0.3166666667
 12
-1.0
 22
-0.3166666667
 13
-1.0
 23
-0.3166666667
  0
ENDBLK
  5
220
100
AcDbEntity
  8
0
  6
BYBLOCK
 62
0
100
AcDbBlockEnd
  0
BLOCK
  5
221
100
AcDbEntity
  8
0
100
AcDbBlockBegin
 62
7
  6
CONTINUOUS
  2
*D0
 70
65
 10
0.0
 20
0.0
  3
*D0
  1

  0
LINE
  5
222
100
AcDbEntity
  8
0
100
AcDbLine
 62
7
  6
CONTINUOUS
 10
86.5492475329
 20
204.6211402021
 11
86.5492475329
 21
221.6197697368
  0
LINE
  5
223
100
AcDbEntity
  8
0
100
AcDbLine
 62
7
  6
CONTINUOUS
 10
389.5492475329
 20
204.6211402021
 11
389.5492475329
 21
221.6197697368
  0
LINE
  5
224
100
AcDbEntity
  8
0
100
AcDbLine
 62
7
  6
CONTINUOUS
 10
86.5492475329
 20
220.1197697368
 11
238.0492475329
 21
220.1197697368
  0
LINE
  5
225
100
AcDbEntity
  8
0
100
AcDbLine
 62
7
  6
CONTINUOUS
 10
389.5492475329
 20
220.1197697368
 11
238.0492475329
 21
220.1197697368
  0
INSERT
  5
226
100
AcDbEntity
  8
0
100
AcDbBlockReference
 62
7
  6
CONTINUOUS
  2
_FILLED
 10
86.5492475329
 20
220.1197697368
 41
3.0
 42
3.0
 43
3.0
 50
180.0
  0
INSERT
  5
227
100
AcDbEntity
  8
0
100
AcDbBlockReference
 62
7
  6
CONTINUOUS
  2
_FILLED
 10
389.5492475329
 20
220.1197697368
 41
3.0
 42
3.0
 43
3.0
  0
ENDBLK
  5
228
100
AcDbEntity
  8
0
  6
BYBLOCK
 62
0
100
AcDbBlockEnd
  0
BLOCK
  5
229
100
AcDbEntity
  8
0
100
AcDbBlockBegin
 62
7
  6
CONTINUOUS
  2
*D1
 70
65
 10
0.0
 20
0.0
  3
*D1
  1

  0
LINE
  5
22A
100
AcDbEntity
  8
0
100
AcDbLine
 62
7
  6
CONTINUOUS
 10
389.0506179981
 20
205.1197697368
 11
409.5492475329
 21
205.1197697368
  0
LINE
  5
22B
100
AcDbEntity
  8
0
100
AcDbLine
 62
7
  6
CONTINUOUS
 10
389.0506179981
 20
115.1197697368
 11
409.5492475329
 21
115.1197697368
  0
LINE
  5
22C
100
AcDbEntity
  8
0
100
AcDbLine
 62
7
  6
CONTINUOUS
 10
408.0492475329
 20
205.1197697368
 11
408.0492475329
 21
160.1197697368
  0
LINE
  5
22D
100
AcDbEntity
  8
0
100
AcDbLine
 62
7
  6
CONTINUOUS
 10
408.0492475329
 20
115.1197697368
 11
408.0492475329
 21
160.1197697368
  0
INSERT
  5
22E
100
AcDbEntity
  8
0
100
AcDbBlockReference
 62
7
  6
CONTINUOUS
  2
_FILLED
 10
408.0492475329
 20
205.1197697368
 41
3.0
 42
3.0
 43
3.0
 50
90.0
  0
INSERT
  5
22F
100
AcDbEntity
  8
0
100
AcDbBlockReference
 62
7
  6
CONTINUOUS
  2
_FILLED
 10
408.0492475329
 20
115.1197697368
 41
3.0
 42
3.0
 43
3.0
 50
270.0
  0
ENDBLK
  5
230
100
AcDbEntity
  8
0
  6
BYBLOCK
 62
0
100
AcDbBlockEnd
  0
BLOCK
  5
231
100
AcDbEntity
  8
0
100
AcDbBlockBegin
 62
7
  6
CONTINUOUS
  2
*D2
 70
65
 10
0.0
 20
0.0
  3
*D2
  1

  0
LINE
  5
232
100
AcDbEntity
  8
0
100
AcDbLine
 62
7
  6
CONTINUOUS
 10
53.9415029573
 20
203.7168451002
 11
53.9415029657
 21
221.6197697348
  0
LINE
  5
233
100
AcDbEntity
  8
0
100
AcDbLine
 62
7
  6
CONTINUOUS
 10
45.3702238223
 20
160.6197699472
 11
45.3702238508
 21
221.6197697388
  0
LINE
  5
234
100
AcDbEntity
  8
0
100
AcDbLine
 62
7
  6
CONTINUOUS
 10
53.941502965
 20
220.1197697348
 11
57.941502965
 21
220.119769733
  0
LINE
  5
235
100
AcDbEntity
  8
0
100
AcDbLine
 62
7
  6
CONTINUOUS
 10
57.941502965
 20
220.119769733
 11
49.6558634076
 21
220.1197697368
  0
LINE
  5
236
100
AcDbEntity
  8
0
100
AcDbLine
 62
7
  6
CONTINUOUS
 10
45.3702238501
 20
220.1197697388
 11
41.3702238501
 21
220.1197697407
  0
LINE
  5
237
100
AcDbEntity
  8
0
100
AcDbLine
 62
7
  6
CONTINUOUS
 10
41.3702238501
 20
220.1197697407
 11
49.6558634076
 21
220.1197697368
  0
INSERT
  5
238
100
AcDbEntity
  8
0
100
AcDbBlockReference
 62
7
  6
CONTINUOUS
  2
_FILLED
 10
53.941502965
 20
220.1197697348
 41
3.0
 42
3.0
 43
3.0
 50
179.9999999732
  0
INSERT
  5
239
100
AcDbEntity
  8
0
100
AcDbBlockReference
 62
7
  6
CONTINUOUS
  2
_FILLED
 10
45.3702238501
 20
220.1197697388
 41
3.0
 42
3.0
 43
3.0
 50
359.9999999732
  0
ENDBLK
  5
23A
100
AcDbEntity
  8
0
  6
BYBLOCK
 62
0
100
AcDbBlockEnd
  0
ENDSEC
  0
SECTION
  2
ENTITIES
  0
DIMENSION
  5
23B
100
AcDbEntity
  8
0
100
AcDbDimension
 62
7
  6
CONTINUOUS
  2
*D0
 10
389.5492475329
 20
220.1197697368
 11
234.7278189615
 21
220.1197697368
 70
160
 71
2
 72
2
 41
0.9
 42
303.0
  3
DIMSTYLE_1
100
AcDbAlignedDimension
 13
86.5492475329
 23
204.1211402021
 14
389.5492475329
 24
204.1211402021
100
AcDbRotatedDimension
  0
DIMENSION
  5
23C
100
AcDbEntity
  8
0
100
AcDbDimension
 62
7
  6
CONTINUOUS
  2
*D1
 10
408.0492475329
 20
115.1197697368
 11
408.0492475329
 21
157.7626268797
 70
160
 71
2
 72
2
 41
0.9
 42
90.0
  3
DIMSTYLE_1
100
AcDbAlignedDimension
 13
388.5506179981
 23
205.1197697368
 14
388.5506179981
 24
115.1197697368
 50
270.0
100
AcDbRotatedDimension
  0
DIMENSION
  5
23D
100
AcDbEntity
  8
0
100
AcDbDimension
 62
7
  6
CONTINUOUS
  2
*D2
 10
45.3702238501
 20
220.1197697388
 11
46.441577694
 21
220.1197697383
 70
160
 71
2
 72
2
 41
0.9
 42
8.5712791148
  3
DIMSTYLE_2
100
AcDbAlignedDimension
 13
53.9415029571
 23
203.2168451002
 14
45.3702238221
 24
160.1197699472
 50
179.9999999732
100
AcDbRotatedDimension
  0
LINE
  5
23E
100
AcDbEntity
  8
RACCORDO
100
AcDbLine
 62
7
  6
CONTINUOUS
 10
86.5492475329
 20
116.1183992716
 11
86.5492475329
 21
204.1211402021
  0
LINE
  5
23F
100
AcDbEntity
  8
ASSI
100
AcDbLine
 62
7
  6
CONTINUOUS
 10
86.5492475329
 20
116.1183992716
 11
86.5492475329
 21
204.1211402021
  0
LINE
  5
240
100
AcDbEntity
  8
RACCORDO
100
AcDbLine
 62
250
  6
CONTINUOUS
 10
87.671071656
 20
115.488087232
 11
87.671071656
 21
115.2429643252
  0
LINE
  5
241
100
AcDbEntity
  8
ASSI
100
AcDbLine
 62
250
  6
CONTINUOUS
 10
87.671071656
 20
115.488087232
 11
87.671071656
 21
115.2429643252
  0
LINE
  5
242
100
AcDbEntity
  8
RACCORDO
100
AcDbLine
 62
250
  6
CONTINUOUS
 10
87.671071656
 20
204.7514522417
 11
87.6710716558
 21
204.9965751485
  0
LINE
  5
243
100
AcDbEntity
  8
ASSI
100
AcDbLine
 62
250
  6
CONTINUOUS
 10
87.671071656
 20
204.7514522417
 11
87.6710716558
 21
204.9965751485
  0
LINE
  5
244
100
AcDbEntity
  8
0
100
AcDbLine
 62
250
  6
CONTINUOUS
 10
102.2509645329
 20
184.2190397368
 11
102.2509645329
 21
182.5204997397
  0
LINE
  5
245
100
AcDbEntity
  8
0
100
AcDbLine
 62
250
  6
CONTINUOUS
 10
102.3508785329
 20
184.1191257368
 11
102.3508785329
 21
182.6204137387
  0
LINE
  5
246
100
AcDbEntity
  8
0
100
AcDbLine
 62
250
  6
CONTINUOUS
 10
102.4507935329
 20
184.0192117368
 11
102.4507935329
 21
182.7203277376
  0
LINE
  5
247
100
AcDbEntity
  8
0
100
AcDbLine
 62
250
  6
CONTINUOUS
 10
102.8504495329
 20
171.8796437368
 11
102.8504495329
 21
170.480845742
  0
LINE
  5
248
100
AcDbEntity
  8
0
100
AcDbLine
 62
250
  6
CONTINUOUS
 10
102.8504495329
 20
169.2568977368
 11
102.8504495329
 21
168.907198736
  0
LINE
  5
249
100
AcDbEntity
  8
0
100
AcDbLine
 62
250
  6
CONTINUOUS
 10
102.8504495329
 20
167.2752677368
 11
102.8504495329
 21
166.9255677422
  0
LINE
  5
24A
100
AcDbEntity
  8
0
100
AcDbLine
 62
250
  6
CONTINUOUS
 10
102.8504495329
 20
165.5267707368
 11
102.8504495329
 21
165.0022207599
  0
LINE
  5
24B
100
AcDbEntity
  8
0
100
AcDbLine
 62
250
  6
CONTINUOUS
 10
102.8504495329
 20
162.7874577368
 11
102.8504495329
 21
162.4377577479
  0
LINE
  5
24C
100
AcDbEntity
  8
0
100
AcDbLine
 62
250
  6
CONTINUOUS
 10
102.8504495329
 20
161.0389607368
 11
102.8504495329
 21
158.9407636517
  0
LINE
  5
24D
100
AcDbEntity
  8
0
100
AcDbLine
 62
250
  6
CONTINUOUS
 10
102.8504495329
 20
155.7934677368
 11
102.8504495329
 21
155.443768745
  0
LINE
  5
24E
100
AcDbEntity
  8
0
100
AcDbLine
 62
250
  6
CONTINUOUS
 10
102.8504495329
 20
154.9775027368
 11
102.8504495329
 21
154.6278037486
  0
LINE
  5
24F
100
AcDbEntity
  8
0
100
AcDbLine
 62
250
  6
CONTINUOUS
 10
102.8504495329
 20
152.9958727368
 11
102.8504495329
 21
152.6461727367
  0
LINE
  5
250
100
AcDbEntity
  8
0
100
AcDbLine
 62
250
  6
CONTINUOUS
 10
102.8504495329
 20
152.1799077368
 11
102.8504495329
 21
150.081710837
  0
LINE
  5
251
100
AcDbEntity
  8
0
100
AcDbLine
 62
250
  6
CONTINUOUS
 10
102.8504495329
 20
156.2597337368
 11
102.8504495329
 21
156.6677167281
  0
LINE
  5
252
100
AcDbEntity
  8
0
100
AcDbLine
 62
250
  6
CONTINUOUS
 10
102.8504495329
 20
158.1247987368
 11
102.8504495329
 21
158.4744977474
  0
LINE
  5
253
100
AcDbEntity
  8
0
100
AcDbLine
 62
250
  6
CONTINUOUS
 10
103.2075895329
 20
171.4986987368
 11
103.2075895329
 21
170.391317752
  0
LINE
  5
254
100
AcDbEntity
  8
0
100
AcDbLine
 62
250
  6
CONTINUOUS
 10
103.2075895329
 20
150.0504647368
 11
103.2075895329
 21
151.7989617456
  0
LINE
  5
255
100
AcDbEntity
  8
0
100
AcDbLine
 62
250
  6
CONTINUOUS
 10
103.2075895329
 20
158.9095177368
 11
103.2075895329
 21
160.6580147835
  0
LINE
  5
256
100
AcDbEntity
  8
0
100
AcDbLine
 62
250
  6
CONTINUOUS
 10
103.2075895329
 20
164.9709757368
 11
103.2075895329
 21
165.4955247146
  0
LINE
  5
257
100
AcDbEntity
  8
0
100
AcDbLine
 62
250
  6
CONTINUOUS
 10
103.3999775329
 20
185.3680527368
 11
103.3999775329
 21
184.2190397152
  0
LINE
  5
258
100
AcDbEntity
  8
0
100
AcDbLine
 62
250
  6
CONTINUOUS
 10
103.3999775329
 20
182.5204997368
 11
103.3999775329
 21
181.3714866952
  0
LINE
  5
259
100
AcDbEntity
  8
0
100
AcDbLine
 62
250
  6
CONTINUOUS
 10
103.4998915329
 20
185.2681387368
 11
103.4998915329
 21
184.1191257223
  0
LINE
  5
25A
100
AcDbEntity
  8
0
100
AcDbLine
 62
250
  6
CONTINUOUS
 10
103.4998915329
 20
182.6204137368
 11
103.4998915329
 21
181.4714007781
  0
LINE
  5
25B
100
AcDbEntity
  8
0
100
AcDbLine
 62
250
  6
CONTINUOUS
 10
103.5647295329
 20
168.6115737368
 11
103.5647295329
 21
167.4459087326
  0
LINE
  5
25C
100
AcDbEntity
  8
0
100
AcDbLine
 62
250
  6
CONTINUOUS
 10
103.5647295329
 20
154.3321787368
 11
103.5647295329
 21
153.1665147021
  0
LINE
  5
25D
100
AcDbEntity
  8
0
100
AcDbLine
 62
250
  6
CONTINUOUS
 10
103.5647295329
 20
164.1237637368
 11
103.5647295329
 21
164.4734637301
  0
LINE
  5
25E
100
AcDbEntity
  8
0
100
AcDbLine
 62
250
  6
CONTINUOUS
 10
103.5998055329
 20
185.1682237368
 11
103.5998055329
 21
184.0192117672
  0
LINE
  5
25F
100
AcDbEntity
  8
0
100
AcDbLine
 62
250
  6
CONTINUOUS
 10
103.5998055329
 20
182.7203277368
 11
103.5998055329
 21
181.5713157554
  0
LINE
  5
260
100
AcDbEntity
  8
0
100
AcDbLine
 62
250
  6
CONTINUOUS
 10
103.6497625329
 20
179.0401567368
 11
103.6497625329
 21
180.1059077287
  0
LINE
  5
261
100
AcDbEntity
  8
0
100
AcDbLine
 62
250
  6
CONTINUOUS
 10
103.8028225329
 20
168.5324607368
 11
103.8028225329
 21
167.4833617226
  0
LINE
  5
262
100
AcDbEntity
  8
0
100
AcDbLine
 62
250
  6
CONTINUOUS
 10
103.8028225329
 20
154.2530647368
 11
103.8028225329
 21
153.2039667014
  0
LINE
  5
263
100
AcDbEntity
  8
0
100
AcDbLine
 62
250
  6
CONTINUOUS
 10
104.1004395329
 20
157.0246227368
 11
104.1004395329
 21
158.0154387382
  0
LINE
  5
264
100
AcDbEntity
  8
0
100
AcDbLine
 62
250
  6
CONTINUOUS
 10
104.1004395329
 20
170.3132027368
 11
104.1004395329
 21
171.4205847706
  0
LINE
  5
265
100
AcDbEntity
  8
0
100
AcDbLine
 62
250
  6
CONTINUOUS
 10
104.1599625329
 20
160.5746937368
 11
104.1599625329
 21
159.059329788
  0
LINE
  5
266
100
AcDbEntity
  8
0
100
AcDbLine
 62
250
  6
CONTINUOUS
 10
104.4575795329
 20
156.8768107368
 11
104.4575795329
 21
157.9841927465
  0
LINE
  5
267
100
AcDbEntity
  8
0
100
AcDbLine
 62
250
  6
CONTINUOUS
 10
104.4575795329
 20
170.2819577368
 11
104.4575795329
 21
171.3893387772
  0
LINE
  5
268
100
AcDbEntity
  8
0
100
AcDbLine
 62
250
  6
CONTINUOUS
 10
104.5171025329
 20
159.0280837368
 11
104.5171025329
 21
160.543447716
  0
LINE
  5
269
100
AcDbEntity
  8
0
100
AcDbLine
 62
250
  6
CONTINUOUS
 10
104.8986895329
 20
181.5713157368
 11
104.8986895329
 21
182.7203277183
  0
LINE
  5
26A
100
AcDbEntity
  8
0
100
AcDbLine
 62
250
  6
CONTINUOUS
 10
104.8986895329
 20
184.0192117368
 11
104.8986895329
 21
185.1682237065
  0
LINE
  5
26B
100
AcDbEntity
  8
0
100
AcDbLine
 62
250
  6
CONTINUOUS
 10
104.9337655329
 20
164.3536887368
 11
104.9337655329
 21
164.0039887297
  0
LINE
  5
26C
100
AcDbEntity
  8
0
100
AcDbLine
 62
250
  6
CONTINUOUS
 10
104.9986035329
 20
181.4714007368
 11
104.9986035329
 21
182.6204136956
  0
LINE
  5
26D
100
AcDbEntity
  8
0
100
AcDbLine
 62
250
  6
CONTINUOUS
 10
104.9986035329
 20
184.1191257368
 11
104.9986035329
 21
185.2681387514
  0
LINE
  5
26E
100
AcDbEntity
  8
0
100
AcDbLine
 62
250
  6
CONTINUOUS
 10
105.0985175329
 20
181.3714867368
 11
105.0985175329
 21
182.5204997785
  0
LINE
  5
26F
100
AcDbEntity
  8
0
100
AcDbLine
 62
250
  6
CONTINUOUS
 10
105.0985175329
 20
184.2190397368
 11
105.0985175329
 21
185.3680527585
  0
LINE
  5
270
100
AcDbEntity
  8
0
100
AcDbLine
 62
250
  6
CONTINUOUS
 10
105.2909055329
 20
171.3164327368
 11
105.2909055329
 21
170.209050788
  0
LINE
  5
271
100
AcDbEntity
  8
0
100
AcDbLine
 62
250
  6
CONTINUOUS
 10
105.2909055329
 20
165.3132577368
 11
105.2909055329
 21
164.7887087448
  0
LINE
  5
272
100
AcDbEntity
  8
0
100
AcDbLine
 62
250
  6
CONTINUOUS
 10
105.2909055329
 20
160.4757487368
 11
105.2909055329
 21
158.7272506861
  0
LINE
  5
273
100
AcDbEntity
  8
0
100
AcDbLine
 62
250
  6
CONTINUOUS
 10
105.3504285329
 20
163.5012697368
 11
105.3504285329
 21
162.5687377852
  0
LINE
  5
274
100
AcDbEntity
  8
0
100
AcDbLine
 62
250
  6
CONTINUOUS
 10
105.3504285329
 20
162.2190387368
 11
105.3504285329
 21
161.2865067674
  0
LINE
  5
275
100
AcDbEntity
  8
0
100
AcDbLine
 62
250
  6
CONTINUOUS
 10
105.3504285329
 20
157.9060787368
 11
105.3504285329
 21
156.7986967402
  0
LINE
  5
276
100
AcDbEntity
  8
0
100
AcDbLine
 62
250
  6
CONTINUOUS
 10
102.9099725329
 20
165.8129787368
 11
102.8504495329
 21
165.5267707368
  0
LINE
  5
277
100
AcDbEntity
  8
0
100
AcDbLine
 62
250
  6
CONTINUOUS
 10
105.6480455329
 20
158.2297397368
 11
105.6480455329
 21
156.8309416902
  0
LINE
  5
278
100
AcDbEntity
  8
0
100
AcDbLine
 62
250
  6
CONTINUOUS
 10
105.6480455329
 20
151.5854497368
 11
105.6480455329
 21
151.9351497433
  0
LINE
  5
279
100
AcDbEntity
  8
0
100
AcDbLine
 62
250
  6
CONTINUOUS
 10
105.6480455329
 20
153.3339477368
 11
105.6480455329
 21
153.800212728
  0
LINE
  5
27A
100
AcDbEntity
  8
0
100
AcDbLine
 62
250
  6
CONTINUOUS
 10
105.6480455329
 20
155.1990107368
 11
105.6480455329
 21
155.5487097386
  0
LINE
  5
27B
100
AcDbEntity
  8
0
100
AcDbLine
 62
250
  6
CONTINUOUS
 10
105.6480455329
 20
158.6960057368
 11
105.6480455329
 21
160.7942028108
  0
LINE
  5
27C
100
AcDbEntity
  8
0
100
AcDbLine
 62
250
  6
CONTINUOUS
 10
105.6480455329
 20
161.2604687368
 11
105.6480455329
 21
163.4752316766
  0
LINE
  5
27D
100
AcDbEntity
  8
0
100
AcDbLine
 62
250
  6
CONTINUOUS
 10
105.6480455329
 20
164.7574637368
 11
105.6480455329
 21
165.2820127601
  0
LINE
  5
27E
100
AcDbEntity
  8
0
100
AcDbLine
 62
250
  6
CONTINUOUS
 10
105.6480455329
 20
167.6133417368
 11
105.6480455329
 21
168.0796077465
  0
LINE
  5
27F
100
AcDbEntity
  8
0
100
AcDbLine
 62
250
  6
CONTINUOUS
 10
105.6480455329
 20
170.2360877368
 11
105.6480455329
 21
171.6348856962
  0
LINE
  5
280
100
AcDbEntity
  8
0
100
AcDbLine
 62
250
  6
CONTINUOUS
 10
105.6480455329
 20
174.1776697368
 11
105.6480455329
 21
175.7762947191
  0
LINE
  5
281
100
AcDbEntity
  8
0
100
AcDbLine
 62
250
  6
CONTINUOUS
 10
106.0477015329
 20
182.7203277368
 11
106.0477015329
 21
184.0192117221
  0
LINE
  5
282
100
AcDbEntity
  8
0
100
AcDbLine
 62
250
  6
CONTINUOUS
 10
106.1476165329
 20
182.6204137368
 11
106.1476165329
 21
184.1191258088
  0
LINE
  5
283
100
AcDbEntity
  8
0
100
AcDbLine
 62
250
  6
CONTINUOUS
 10
106.2475305329
 20
182.5204997368
 11
106.2475305329
 21
184.2190396752
  0
LINE
  5
284
100
AcDbEntity
  8
0
100
AcDbLine
 62
7
  6
CONTINUOUS
 10
108.8492475329
 20
138.2186733646
 11
108.8492475329
 21
182.020866109
  0
LINE
  5
285
100
AcDbEntity
  8
ASSI
100
AcDbLine
 62
7
  6
CONTINUOUS
 10
108.8492475329
 20
138.2186733646
 11
108.8492475329
 21
182.020866109
  0
LINE
  5
286
100
AcDbEntity
  8
RACCORDO
100
AcDbLine
 62
250
  6
CONTINUOUS
 10
109.5071666497
 20
183.4873453532
 11
109.5071666497
 21
182.9607542479
  0
LINE
  5
287
100
AcDbEntity
  8
ASSI
100
AcDbLine
 62
250
  6
CONTINUOUS
 10
109.5071666497
 20
183.4873453532
 11
109.5071666497
 21
182.9607542479
  0
LINE
  5
288
100
AcDbEntity
  8
RACCORDO
100
AcDbLine
 62
250
  6
CONTINUOUS
 10
109.5071666497
 20
136.7521941205
 11
109.5071666496
 21
137.2787852258
  0
LINE
  5
289
100
AcDbEntity
  8
ASSI
100
AcDbLine
 62
250
  6
CONTINUOUS
 10
109.5071666497
 20
136.7521941205
 11
109.5071666496
 21
137.2787852258
  0
LINE
  5
28A
100
AcDbEntity
  8
0
100
AcDbLine
 62
250
  6
CONTINUOUS
 10
105.5885225329
 20
169.9498797368
 11
105.6480455329
 21
170.2360877368
  0
LINE
  5
28B
100
AcDbEntity
  8
0
100
AcDbLine
 62
250
  6
CONTINUOUS
 10
105.5885225329
 20
164.4712547368
 11
105.6480455329
 21
164.7574637368
  0
LINE
  5
28C
100
AcDbEntity
  8
0
100
AcDbLine
 62
250
  6
CONTINUOUS
 10
105.6480455329
 20
156.8309417368
 11
105.5885225329
 21
156.5447327368
  0
LINE
  5
28D
100
AcDbEntity
  8
0
100
AcDbLine
 62
250
  6
CONTINUOUS
 10
103.2075895329
 20
165.4955247368
 11
103.2671125329
 21
165.7234497368
  0
LINE
  5
28E
100
AcDbEntity
  8
0
100
AcDbLine
 62
250
  6
CONTINUOUS
 10
105.2909055329
 20
164.7887087368
 11
105.2313825329
 21
164.5607827368
  0
LINE
  5
28F
100
AcDbEntity
  8
0
100
AcDbLine
 62
250
  6
CONTINUOUS
 10
104.0409155329
 20
170.1435607368
 11
104.1004395329
 21
170.3132027368
  0
LINE
  5
290
100
AcDbEntity
  8
0
100
AcDbLine
 62
250
  6
CONTINUOUS
 10
105.2909055329
 20
170.2090507368
 11
105.2313825329
 21
170.0394087368
  0
LINE
  5
291
100
AcDbEntity
  8
0
100
AcDbLine
 62
250
  6
CONTINUOUS
 10
105.3504285329
 20
156.7986967368
 11
105.2909055329
 21
156.6290547368
  0
LINE
  5
292
100
AcDbEntity
  8
0
100
AcDbLine
 62
250
  6
CONTINUOUS
 10
104.2194855329
 20
169.8365217368
 11
104.2790095329
 21
169.9478807368
  0
LINE
  5
293
100
AcDbEntity
  8
0
100
AcDbLine
 62
250
  6
CONTINUOUS
 10
103.0290195329
 20
166.0356967368
 11
102.9099725329
 21
165.8129787368
  0
LINE
  5
294
100
AcDbEntity
  8
0
100
AcDbLine
 62
250
  6
CONTINUOUS
 10
104.3385325329
 20
156.4209607368
 11
104.2194855329
 21
156.6645077368
  0
LINE
  5
295
100
AcDbEntity
  8
0
100
AcDbLine
 62
250
  6
CONTINUOUS
 10
104.5171025329
 20
156.6967537368
 11
104.4575795329
 21
156.8768107368
  0
LINE
  5
296
100
AcDbEntity
  8
0
100
AcDbLine
 62
250
  6
CONTINUOUS
 10
103.2075895329
 20
170.3913177368
 11
103.2671125329
 21
170.2112597368
  0
LINE
  5
297
100
AcDbEntity
  8
0
100
AcDbLine
 62
250
  6
CONTINUOUS
 10
104.5171025329
 20
170.1018997368
 11
104.4575795329
 21
170.2819577368
  0
LINE
  5
298
100
AcDbEntity
  8
0
100
AcDbLine
 62
250
  6
CONTINUOUS
 10
103.2671125329
 20
164.7326347368
 11
103.2075895329
 21
164.9709757368
  0
LINE
  5
299
100
AcDbEntity
  8
0
100
AcDbLine
 62
250
  6
CONTINUOUS
 10
105.2313825329
 20
165.5515987368
 11
105.2909055329
 21
165.3132577368
  0
LINE
  5
29A
100
AcDbEntity
  8
0
100
AcDbLine
 62
250
  6
CONTINUOUS
 10
102.8504495329
 20
165.0022207368
 11
102.9099725329
 21
164.7055967368
  0
LINE
  5
29B
100
AcDbEntity
  8
0
100
AcDbLine
 62
250
  6
CONTINUOUS
 10
102.8504495329
 20
170.4808457368
 11
102.9099725329
 21
170.1842227368
  0
LINE
  5
29C
100
AcDbEntity
  8
0
100
AcDbLine
 62
250
  6
CONTINUOUS
 10
105.6480455329
 20
165.2820127368
 11
105.5885225329
 21
165.5786357368
  0
LINE
  5
29D
100
AcDbEntity
  8
0
100
AcDbLine
 62
250
  6
CONTINUOUS
 10
105.4694755329
 20
164.2485367368
 11
105.5885225329
 21
164.4712547368
  0
LINE
  5
29E
100
AcDbEntity
  8
0
100
AcDbLine
 62
250
  6
CONTINUOUS
 10
103.2671125329
 20
165.7234497368
 11
103.3861595329
 21
165.8878847368
  0
LINE
  5
29F
100
AcDbEntity
  8
0
100
AcDbLine
 62
250
  6
CONTINUOUS
 10
103.3861595329
 20
164.5473697368
 11
103.2671125329
 21
164.7326347368
  0
LINE
  5
2A0
100
AcDbEntity
  8
0
100
AcDbLine
 62
250
  6
CONTINUOUS
 10
102.9099725329
 20
164.7055967368
 11
103.0290195329
 21
164.4620487368
  0
LINE
  5
2A1
100
AcDbEntity
  8
0
100
AcDbLine
 62
250
  6
CONTINUOUS
 10
105.5885225329
 20
165.5786357368
 11
105.4694755329
 21
165.8221847368
  0
LINE
  5
2A2
100
AcDbEntity
  8
0
100
AcDbLine
 62
250
  6
CONTINUOUS
 10
104.2790095329
 20
169.9478807368
 11
104.3385325329
 21
169.8261067368
  0
LINE
  5
2A3
100
AcDbEntity
  8
0
100
AcDbLine
 62
250
  6
CONTINUOUS
 10
105.2313825329
 20
164.5607827368
 11
105.1123355329
 21
164.3963487368
  0
LINE
  5
2A4
100
AcDbEntity
  8
0
100
AcDbLine
 62
250
  6
CONTINUOUS
 10
105.4099525329
 20
169.7323697368
 11
105.5885225329
 21
169.9498797368
  0
LINE
  5
2A5
100
AcDbEntity
  8
0
100
AcDbLine
 62
250
  6
CONTINUOUS
 10
105.5885225329
 20
156.5447327368
 11
105.4099525329
 21
156.3272237368
  0
LINE
  5
2A6
100
AcDbEntity
  8
0
100
AcDbLine
 62
250
  6
CONTINUOUS
 10
104.6361495329
 20
156.5697717368
 11
104.5171025329
 21
156.6967537368
  0
LINE
  5
2A7
100
AcDbEntity
  8
0
100
AcDbLine
 62
250
  6
CONTINUOUS
 10
102.9099725329
 20
170.1842227368
 11
103.0885425329
 21
169.9354667368
  0
LINE
  5
2A8
100
AcDbEntity
  8
0
100
AcDbLine
 62
250
  6
CONTINUOUS
 10
105.1123355329
 20
165.7368637368
 11
105.2313825329
 21
165.5515987368
  0
LINE
  5
2A9
100
AcDbEntity
  8
0
100
AcDbLine
 62
250
  6
CONTINUOUS
 10
103.9218695329
 20
170.0374097368
 11
104.0409155329
 21
170.1435607368
  0
LINE
  5
2AA
100
AcDbEntity
  8
0
100
AcDbLine
 62
250
  6
CONTINUOUS
 10
105.2313825329
 20
170.0394087368
 11
105.1123355329
 21
169.9332577368
  0
LINE
  5
2AB
100
AcDbEntity
  8
0
100
AcDbLine
 62
250
  6
CONTINUOUS
 10
103.2671125329
 20
166.2479987368
 11
103.0290195329
 21
166.0356967368
  0
LINE
  5
2AC
100
AcDbEntity
  8
0
100
AcDbLine
 62
250
  6
CONTINUOUS
 10
105.2313825329
 20
164.0362337368
 11
105.4694755329
 21
164.2485367368
  0
LINE
  5
2AD
100
AcDbEntity
  8
0
100
AcDbLine
 62
250
  6
CONTINUOUS
 10
103.0290195329
 20
164.4620487368
 11
103.2671125329
 21
164.2080857368
  0
LINE
  5
2AE
100
AcDbEntity
  8
0
100
AcDbLine
 62
250
  6
CONTINUOUS
 10
105.4694755329
 20
165.8221847368
 11
105.2313825329
 21
166.0761477368
  0
LINE
  5
2AF
100
AcDbEntity
  8
0
100
AcDbLine
 62
250
  6
CONTINUOUS
 10
103.2671125329
 20
170.2112597368
 11
103.3861595329
 21
170.0842777368
  0
LINE
  5
2B0
100
AcDbEntity
  8
0
100
AcDbLine
 62
250
  6
CONTINUOUS
 10
104.6361495329
 20
169.9749177368
 11
104.5171025329
 21
170.1018997368
  0
LINE
  5
2B1
100
AcDbEntity
  8
RACCORDO
100
AcDbLine
 62
250
  6
CONTINUOUS
 10
153.5913284161
 20
183.4873453532
 11
153.5913284162
 21
182.9607542479
  0
LINE
  5
2B2
100
AcDbEntity
  8
ASSI
100
AcDbLine
 62
250
  6
CONTINUOUS
 10
153.5913284161
 20
183.4873453532
 11
153.5913284162
 21
182.9607542479
  0
LINE
  5
2B3
100
AcDbEntity
  8
RACCORDO
100
AcDbLine
 62
250
  6
CONTINUOUS
 10
153.5913284161
 20
136.7521941205
 11
153.5913284161
 21
137.2787852258
  0
LINE
  5
2B4
100
AcDbEntity
  8
ASSI
100
AcDbLine
 62
250
  6
CONTINUOUS
 10
153.5913284161
 20
136.7521941205
 11
153.5913284161
 21
137.2787852258
  0
LINE
  5
2B5
100
AcDbEntity
  8
0
100
AcDbLine
 62
7
  6
CONTINUOUS
 10
154.2492475329
 20
182.020866109
 11
154.2492475329
 21
138.2186733646
  0
LINE
  5
2B6
100
AcDbEntity
  8
ASSI
100
AcDbLine
 62
7
  6
CONTINUOUS
 10
154.2492475329
 20
182.020866109
 11
154.2492475329
 21
138.2186733646
  0
LINE
  5
2B7
100
AcDbEntity
  8
0
100
AcDbLine
 62
250
  6
CONTINUOUS
 10
105.2909055329
 20
156.6290547368
 11
105.1718585329
 21
156.5229037368
  0
LINE
  5
2B8
100
AcDbEntity
  8
0
100
AcDbLine
 62
250
  6
CONTINUOUS
 10
103.9813925329
 20
169.6825027368
 11
104.2194855329
 21
169.8365217368
  0
LINE
  5
2B9
100
AcDbEntity
  8
0
100
AcDbLine
 62
250
  6
CONTINUOUS
 10
105.1718585329
 20
169.5783497368
 11
105.4099525329
 21
169.7323697368
  0
LINE
  5
2BA
100
AcDbEntity
  8
0
100
AcDbLine
 62
250
  6
CONTINUOUS
 10
104.5766255329
 20
156.2252797368
 11
104.3385325329
 21
156.4209607368
  0
LINE
  5
2BB
100
AcDbEntity
  8
0
100
AcDbLine
 62
250
  6
CONTINUOUS
 10
103.0885425329
 20
169.9354667368
 11
103.3266365329
 21
169.7397867368
  0
LINE
  5
2BC
100
AcDbEntity
  8
0
100
AcDbLine
 62
250
  6
CONTINUOUS
 10
104.3385325329
 20
169.8261067368
 11
104.5766255329
 21
169.6304267368
  0
LINE
  5
2BD
100
AcDbEntity
  8
RACCORDO
100
AcDbLine
 62
250
  6
CONTINUOUS
 10
86.6791889743
 20
116.248340713
 11
86.5492475329
 21
116.1183992716
  0
LINE
  5
2BE
100
AcDbEntity
  8
ASSI
100
AcDbLine
 62
250
  6
CONTINUOUS
 10
86.6791889743
 20
116.248340713
 11
86.5492475329
 21
116.1183992716
  0
LINE
  5
2BF
100
AcDbEntity
  8
0
100
AcDbLine
 62
250
  6
CONTINUOUS
 10
108.7047847994
 20
138.074201038
 11
108.8492475329
 21
138.2186733646
  0
LINE
  5
2C0
100
AcDbEntity
  8
ASSI
100
AcDbLine
 62
250
  6
CONTINUOUS
 10
108.7047847994
 20
138.074201038
 11
108.8492475329
 21
138.2186733646
  0
LINE
  5
2C1
100
AcDbEntity
  8
0
100
AcDbLine
 62
250
  6
CONTINUOUS
 10
153.5913413165
 20
182.9607542479
 11
153.4503439051
 21
182.8197697368
  0
LINE
  5
2C2
100
AcDbEntity
  8
ASSI
100
AcDbLine
 62
250
  6
CONTINUOUS
 10
153.5913413165
 20
182.9607542479
 11
153.4503439051
 21
182.8197697368
  0
LINE
  5
2C3
100
AcDbEntity
  8
0
100
AcDbLine
 62
250
  6
CONTINUOUS
 10
154.3937102642
 20
182.1653395988
 11
154.2492475329
 21
182.020866109
  0
LINE
  5
2C4
100
AcDbEntity
  8
ASSI
100
AcDbLine
 62
250
  6
CONTINUOUS
 10
154.3937102642
 20
182.1653395988
 11
154.2492475329
 21
182.020866109
  0
LINE
  5
2C5
100
AcDbEntity
  8
0
100
AcDbLine
 62
250
  6
CONTINUOUS
 10
109.5071537493
 20
137.2787852258
 11
109.6481511607
 21
137.4197697368
  0
LINE
  5
2C6
100
AcDbEntity
  8
ASSI
100
AcDbLine
 62
250
  6
CONTINUOUS
 10
109.5071537493
 20
137.2787852258
 11
109.6481511607
 21
137.4197697368
  0
LINE
  5
2C7
100
AcDbEntity
  8
RACCORDO
100
AcDbLine
 62
250
  6
CONTINUOUS
 10
87.671071656
 20
115.2429643252
 11
87.5478770676
 21
115.1197697368
  0
LINE
  5
2C8
100
AcDbEntity
  8
ASSI
100
AcDbLine
 62
250
  6
CONTINUOUS
 10
87.671071656
 20
115.2429643252
 11
87.5478770676
 21
115.1197697368
  0
LINE
  5
2C9
100
AcDbEntity
  8
0
100
AcDbLine
 62
250
  6
CONTINUOUS
 10
105.4099525329
 20
156.3272237368
 11
105.1718585329
 21
156.1732037368
  0
LINE
  5
2CA
100
AcDbEntity
  8
0
100
AcDbLine
 62
250
  6
CONTINUOUS
 10
103.3861595329
 20
165.8878847368
 11
103.5647295329
 21
165.9888287368
  0
LINE
  5
2CB
100
AcDbEntity
  8
0
100
AcDbLine
 62
250
  6
CONTINUOUS
 10
102.8504495329
 20
176.5756087368
 11
105.6480455329
 21
177.9744067368
  0
LINE
  5
2CC
100
AcDbEntity
  8
0
100
AcDbLine
 62
250
  6
CONTINUOUS
 10
104.9337655329
 20
165.8690527368
 11
105.1123355329
 21
165.7368637368
  0
LINE
  5
2CD
100
AcDbEntity
  8
RACCORDO
100
AcDbLine
 62
250
  6
CONTINUOUS
 10
86.6791889743
 20
203.9911987607
 11
86.5492475329
 21
204.1211402021
  0
LINE
  5
2CE
100
AcDbEntity
  8
ASSI
100
AcDbLine
 62
250
  6
CONTINUOUS
 10
86.6791889743
 20
203.9911987607
 11
86.5492475329
 21
204.1211402021
  0
LINE
  5
2CF
100
AcDbEntity
  8
0
100
AcDbLine
 62
250
  6
CONTINUOUS
 10
108.7047848053
 20
182.1653415314
 11
108.8492475329
 21
182.020866109
  0
LINE
  5
2D0
100
AcDbEntity
  8
ASSI
100
AcDbLine
 62
250
  6
CONTINUOUS
 10
108.7047848053
 20
182.1653415314
 11
108.8492475329
 21
182.020866109
  0
LINE
  5
2D1
100
AcDbEntity
  8
0
100
AcDbLine
 62
250
  6
CONTINUOUS
 10
153.5913555137
 20
137.2787852258
 11
153.4503439051
 21
137.4197697368
  0
LINE
  5
2D2
100
AcDbEntity
  8
ASSI
100
AcDbLine
 62
250
  6
CONTINUOUS
 10
153.5913555137
 20
137.2787852258
 11
153.4503439051
 21
137.4197697368
  0
LINE
  5
2D3
100
AcDbEntity
  8
0
100
AcDbLine
 62
250
  6
CONTINUOUS
 10
154.3937102598
 20
138.0741976159
 11
154.2492475329
 21
138.2186733646
  0
LINE
  5
2D4
100
AcDbEntity
  8
ASSI
100
AcDbLine
 62
250
  6
CONTINUOUS
 10
154.3937102598
 20
138.0741976159
 11
154.2492475329
 21
138.2186733646
  0
LINE
  5
2D5
100
AcDbEntity
  8
0
100
AcDbLine
 62
250
  6
CONTINUOUS
 10
109.5071395521
 20
182.9607542479
 11
109.6481511607
 21
182.8197697368
  0
LINE
  5
2D6
100
AcDbEntity
  8
ASSI
100
AcDbLine
 62
250
  6
CONTINUOUS
 10
109.5071395521
 20
182.9607542479
 11
109.6481511607
 21
182.8197697368
  0
LINE
  5
2D7
100
AcDbEntity
  8
RACCORDO
100
AcDbLine
 62
250
  6
CONTINUOUS
 10
87.671071656
 20
204.9965751485
 11
87.5478770676
 21
205.1197697368
  0
LINE
  5
2D8
100
AcDbEntity
  8
ASSI
100
AcDbLine
 62
250
  6
CONTINUOUS
 10
87.671071656
 20
204.9965751485
 11
87.5478770676
 21
205.1197697368
  0
LINE
  5
2D9
100
AcDbEntity
  8
0
100
AcDbLine
 62
7
  6
CONTINUOUS
 10
179.8492475329
 20
138.2186733646
 11
179.8492475329
 21
182.020866109
  0
LINE
  5
2DA
100
AcDbEntity
  8
ASSI
100
AcDbLine
 62
7
  6
CONTINUOUS
 10
179.8492475329
 20
138.2186733646
 11
179.8492475329
 21
182.020866109
  0
LINE
  5
2DB
100
AcDbEntity
  8
RACCORDO
100
AcDbLine
 62
250
  6
CONTINUOUS
 10
180.5071666497
 20
183.4873453532
 11
180.5071666497
 21
182.9607542479
  0
LINE
  5
2DC
100
AcDbEntity
  8
ASSI
100
AcDbLine
 62
250
  6
CONTINUOUS
 10
180.5071666497
 20
183.4873453532
 11
180.5071666497
 21
182.9607542479
  0
LINE
  5
2DD
100
AcDbEntity
  8
RACCORDO
100
AcDbLine
 62
250
  6
CONTINUOUS
 10
180.5071666497
 20
136.7521941205
 11
180.5071666496
 21
137.2787852258
  0
LINE
  5
2DE
100
AcDbEntity
  8
ASSI
100
AcDbLine
 62
250
  6
CONTINUOUS
 10
180.5071666497
 20
136.7521941205
 11
180.5071666496
 21
137.2787852258
  0
LWPOLYLINE
  5
2DF
100
AcDbEntity
  8
0
100
AcDbPolyline
 62
7
  6
CONTINUOUS
 90
5
 70
0
 43
0.3499999917
 10
235.5849572754
 20
222.5840625
 10
235.9421008301
 20
222.7983435059
 10
235.9421008301
 20
223.4411865234
 10
235.5849572754
 20
223.8697741699
 10
234.7278076172
 20
223.8697741699
  0
LINE
  5
2E0
100
AcDbEntity
  8
0
100
AcDbLine
 62
250
  6
CONTINUOUS
 10
103.5052065329
 20
166.3437347368
 11
103.2671125329
 21
166.2479987368
  0
LINE
  5
2E1
100
AcDbEntity
  8
0
100
AcDbLine
 62
250
  6
CONTINUOUS
 10
102.8504495329
 20
178.7737197368
 11
105.6480455329
 21
179.5730327368
  0
LINE
  5
2E2
100
AcDbEntity
  8
0
100
AcDbLine
 62
250
  6
CONTINUOUS
 10
102.8504495329
 20
154.6278037368
 11
103.5647295329
 21
154.3321787368
  0
LINE
  5
2E3
100
AcDbEntity
  8
0
100
AcDbLine
 62
250
  6
CONTINUOUS
 10
105.4099525329
 20
153.5879097368
 11
103.8028225329
 21
154.2530647368
  0
LINE
  5
2E4
100
AcDbEntity
  8
0
100
AcDbLine
 62
250
  6
CONTINUOUS
 10
104.7551955329
 20
156.1513737368
 11
104.5766255329
 21
156.2252797368
  0
LINE
  5
2E5
100
AcDbEntity
  8
0
100
AcDbLine
 62
250
  6
CONTINUOUS
 10
105.6480455329
 20
153.8002127368
 11
102.8504495329
 21
154.9775027368
  0
LINE
  5
2E6
100
AcDbEntity
  8
0
100
AcDbLine
 62
250
  6
CONTINUOUS
 10
105.2313825329
 20
166.0761477368
 11
104.9932895329
 21
166.2135447368
  0
LWPOLYLINE
  5
2E7
100
AcDbEntity
  8
0
100
AcDbPolyline
 62
7
  6
CONTINUOUS
 90
5
 70
0
 43
0.3499999917
 10
240.0849609375
 20
222.5840625
 10
240.4421044922
 20
222.7983435059
 10
240.4421044922
 20
223.4411865234
 10
240.0849609375
 20
223.8697741699
 10
239.2278112793
 20
223.8697741699
  0
LINE
  5
2E8
100
AcDbEntity
  8
RACCORDO
100
AcDbLine
 62
7
  6
CONTINUOUS
 10
87.5478770676
 20
115.1197697368
 11
388.5506179981
 21
115.1197697368
  0
LINE
  5
2E9
100
AcDbEntity
  8
ASSI
100
AcDbLine
 62
7
  6
CONTINUOUS
 10
87.5478770676
 20
115.1197697368
 11
388.5506179981
 21
115.1197697368
  0
LINE
  5
2EA
100
AcDbEntity
  8
RACCORDO
100
AcDbLine
 62
250
  6
CONTINUOUS
 10
87.671071656
 20
115.2429643252
 11
388.4274234098
 21
115.2429643252
  0
LINE
  5
2EB
100
AcDbEntity
  8
ASSI
100
AcDbLine
 62
250
  6
CONTINUOUS
 10
87.671071656
 20
115.2429643252
 11
388.4274234098
 21
115.2429643252
  0
LINE
  5
2EC
100
AcDbEntity
  8
RACCORDO
100
AcDbLine
 62
250
  6
CONTINUOUS
 10
87.671071656
 20
115.488087232
 11
388.4274234098
 21
115.488087232
  0
LINE
  5
2ED
100
AcDbEntity
  8
ASSI
100
AcDbLine
 62
250
  6
CONTINUOUS
 10
87.671071656
 20
115.488087232
 11
388.4274234098
 21
115.488087232
  0
LINE
  5
2EE
100
AcDbEntity
  8
0
100
AcDbLine
 62
250
  6
CONTINUOUS
 10
104.8147185329
 20
156.4958657368
 11
104.6361495329
 21
156.5697717368
  0
LINE
  5
2EF
100
AcDbEntity
  8
0
100
AcDbLine
 62
250
  6
CONTINUOUS
 10
103.5647295329
 20
164.4734637368
 11
103.3861595329
 21
164.5473697368
  0
LINE
  5
2F0
100
AcDbEntity
  8
0
100
AcDbLine
 62
250
  6
CONTINUOUS
 10
102.8504495329
 20
168.9071987368
 11
103.5647295329
 21
168.6115737368
  0
LINE
  5
2F1
100
AcDbEntity
  8
0
100
AcDbLine
 62
250
  6
CONTINUOUS
 10
105.4099525329
 20
167.8673057368
 11
103.8028225329
 21
168.5324607368
  0
LINE
  5
2F2
100
AcDbEntity
  8
0
100
AcDbLine
 62
250
  6
CONTINUOUS
 10
105.6480455329
 20
168.0796077368
 11
102.8504495329
 21
169.2568977368
  0
LINE
  5
2F3
100
AcDbEntity
  8
0
100
AcDbLine
 62
250
  6
CONTINUOUS
 10
104.2194855329
 20
156.6645077368
 11
102.8504495329
 21
156.2597337368
  0
LINE
  5
2F4
100
AcDbEntity
  8
0
100
AcDbLine
 62
250
  6
CONTINUOUS
 10
102.8504495329
 20
156.6677167368
 11
104.1004395329
 21
157.0246227368
  0
LINE
  5
2F5
100
AcDbEntity
  8
0
100
AcDbLine
 62
250
  6
CONTINUOUS
 10
103.2671125329
 20
164.2080857368
 11
103.5647295329
 21
164.1237637368
  0
LINE
  5
2F6
100
AcDbEntity
  8
0
100
AcDbLine
 62
250
  6
CONTINUOUS
 10
104.6956725329
 20
165.9481667368
 11
104.9337655329
 21
165.8690527368
  0
LINE
  5
2F7
100
AcDbEntity
  8
0
100
AcDbLine
 62
250
  6
CONTINUOUS
 10
103.3266365329
 20
169.7397867368
 11
103.5052065329
 21
169.6658797368
  0
LINE
  5
2F8
100
AcDbEntity
  8
0
100
AcDbLine
 62
250
  6
CONTINUOUS
 10
103.3861595329
 20
170.0842777368
 11
103.5647295329
 21
170.0103717368
  0
LINE
  5
2F9
100
AcDbEntity
  8
0
100
AcDbLine
 62
250
  6
CONTINUOUS
 10
104.5766255329
 20
169.6304267368
 11
104.7551955329
 21
169.5565207368
  0
LINE
  5
2FA
100
AcDbEntity
  8
0
100
AcDbLine
 62
250
  6
CONTINUOUS
 10
104.8147185329
 20
169.9010117368
 11
104.6361495329
 21
169.9749177368
  0
LINE
  5
2FB
100
AcDbEntity
  8
0
100
AcDbLine
 62
250
  6
CONTINUOUS
 10
179.7047847994
 20
138.074201038
 11
179.8492475329
 21
138.2186733646
  0
LINE
  5
2FC
100
AcDbEntity
  8
ASSI
100
AcDbLine
 62
250
  6
CONTINUOUS
 10
179.7047847994
 20
138.074201038
 11
179.8492475329
 21
138.2186733646
  0
LINE
  5
2FD
100
AcDbEntity
  8
0
100
AcDbLine
 62
250
  6
CONTINUOUS
 10
224.5913413165
 20
182.9607542479
 11
224.4503439051
 21
182.8197697368
  0
LINE
  5
2FE
100
AcDbEntity
  8
ASSI
100
AcDbLine
 62
250
  6
CONTINUOUS
 10
224.5913413165
 20
182.9607542479
 11
224.4503439051
 21
182.8197697368
  0
LINE
  5
2FF
100
AcDbEntity
  8
0
100
AcDbLine
 62
250
  6
CONTINUOUS
 10
225.3937102642
 20
182.1653395988
 11
225.2492475329
 21
182.020866109
  0
LINE
  5
300
100
AcDbEntity
  8
ASSI
100
AcDbLine
 62
250
  6
CONTINUOUS
 10
225.3937102642
 20
182.1653395988
 11
225.2492475329
 21
182.020866109
  0
LINE
  5
301
100
AcDbEntity
  8
0
100
AcDbLine
 62
250
  6
CONTINUOUS
 10
180.5071537493
 20
137.2787852258
 11
180.6481511607
 21
137.4197697368
  0
LINE
  5
302
100
AcDbEntity
  8
ASSI
100
AcDbLine
 62
250
  6
CONTINUOUS
 10
180.5071537493
 20
137.2787852258
 11
180.6481511607
 21
137.4197697368
  0
LINE
  5
303
100
AcDbEntity
  8
RACCORDO
100
AcDbLine
 62
250
  6
CONTINUOUS
 10
366.5913284161
 20
136.7521941205
 11
322.5071666497
 21
136.7521941205
  0
LINE
  5
304
100
AcDbEntity
  8
ASSI
100
AcDbLine
 62
250
  6
CONTINUOUS
 10
366.5913284161
 20
136.7521941205
 11
322.5071666497
 21
136.7521941205
  0
LINE
  5
305
100
AcDbEntity
  8
RACCORDO
100
AcDbLine
 62
250
  6
CONTINUOUS
 10
295.5913284161
 20
136.7521941205
 11
251.5071666497
 21
136.7521941205
  0
LINE
  5
306
100
AcDbEntity
  8
ASSI
100
AcDbLine
 62
250
  6
CONTINUOUS
 10
295.5913284161
 20
136.7521941205
 11
251.5071666497
 21
136.7521941205
  0
LINE
  5
307
100
AcDbEntity
  8
RACCORDO
100
AcDbLine
 62
250
  6
CONTINUOUS
 10
224.5913284161
 20
136.7521941205
 11
180.5071666497
 21
136.7521941205
  0
LINE
  5
308
100
AcDbEntity
  8
ASSI
100
AcDbLine
 62
250
  6
CONTINUOUS
 10
224.5913284161
 20
136.7521941205
 11
180.5071666497
 21
136.7521941205
  0
LINE
  5
309
100
AcDbEntity
  8
RACCORDO
100
AcDbLine
 62
250
  6
CONTINUOUS
 10
153.5913284161
 20
136.7521941205
 11
109.5071666497
 21
136.7521941205
  0
LINE
  5
30A
100
AcDbEntity
  8
ASSI
100
AcDbLine
 62
250
  6
CONTINUOUS
 10
153.5913284161
 20
136.7521941205
 11
109.5071666497
 21
136.7521941205
  0
LINE
  5
30B
100
AcDbEntity
  8
RACCORDO
100
AcDbLine
 62
250
  6
CONTINUOUS
 10
366.5913555137
 20
137.2787852258
 11
322.5071537493
 21
137.2787852258
  0
LINE
  5
30C
100
AcDbEntity
  8
ASSI
100
AcDbLine
 62
250
  6
CONTINUOUS
 10
366.5913555137
 20
137.2787852258
 11
322.5071537493
 21
137.2787852258
  0
LINE
  5
30D
100
AcDbEntity
  8
RACCORDO
100
AcDbLine
 62
250
  6
CONTINUOUS
 10
295.5913555137
 20
137.2787852258
 11
251.5071537493
 21
137.2787852258
  0
LINE
  5
30E
100
AcDbEntity
  8
ASSI
100
AcDbLine
 62
250
  6
CONTINUOUS
 10
295.5913555137
 20
137.2787852258
 11
251.5071537493
 21
137.2787852258
  0
LINE
  5
30F
100
AcDbEntity
  8
RACCORDO
100
AcDbLine
 62
250
  6
CONTINUOUS
 10
224.5913555137
 20
137.2787852258
 11
180.5071537493
 21
137.2787852258
  0
LINE
  5
310
100
AcDbEntity
  8
ASSI
100
AcDbLine
 62
250
  6
CONTINUOUS
 10
224.5913555137
 20
137.2787852258
 11
180.5071537493
 21
137.2787852258
  0
LINE
  5
311
100
AcDbEntity
  8
RACCORDO
100
AcDbLine
 62
250
  6
CONTINUOUS
 10
153.5913555137
 20
137.2787852258
 11
109.5071537493
 21
137.2787852258
  0
LINE
  5
312
100
AcDbEntity
  8
ASSI
100
AcDbLine
 62
250
  6
CONTINUOUS
 10
153.5913555137
 20
137.2787852258
 11
109.5071537493
 21
137.2787852258
  0
LINE
  5
313
100
AcDbEntity
  8
0
100
AcDbLine
 62
7
  6
CONTINUOUS
 10
366.4503439051
 20
137.4197697368
 11
322.6481511607
 21
137.4197697368
  0
LINE
  5
314
100
AcDbEntity
  8
ASSI
100
AcDbLine
 62
7
  6
CONTINUOUS
 10
366.4503439051
 20
137.4197697368
 11
322.6481511607
 21
137.4197697368
  0
LINE
  5
315
100
AcDbEntity
  8
0
100
AcDbLine
 62
7
  6
CONTINUOUS
 10
295.4503439051
 20
137.4197697368
 11
251.6481511607
 21
137.4197697368
  0
LINE
  5
316
100
AcDbEntity
  8
ASSI
100
AcDbLine
 62
7
  6
CONTINUOUS
 10
295.4503439051
 20
137.4197697368
 11
251.6481511607
 21
137.4197697368
  0
LINE
  5
317
100
AcDbEntity
  8
0
100
AcDbLine
 62
7
  6
CONTINUOUS
 10
224.4503439051
 20
137.4197697368
 11
180.6481511607
 21
137.4197697368
  0
LINE
  5
318
100
AcDbEntity
  8
ASSI
100
AcDbLine
 62
7
  6
CONTINUOUS
 10
224.4503439051
 20
137.4197697368
 11
180.6481511607
 21
137.4197697368
  0
LINE
  5
319
100
AcDbEntity
  8
0
100
AcDbLine
 62
7
  6
CONTINUOUS
 10
153.4503439051
 20
137.4197697368
 11
109.6481511607
 21
137.4197697368
  0
LINE
  5
31A
100
AcDbEntity
  8
ASSI
100
AcDbLine
 62
7
  6
CONTINUOUS
 10
153.4503439051
 20
137.4197697368
 11
109.6481511607
 21
137.4197697368
  0
LINE
  5
31B
100
AcDbEntity
  8
RACCORDO
100
AcDbLine
 62
250
  6
CONTINUOUS
 10
87.1064775306
 20
137.4521223431
 11
108.3529831676
 21
137.4520648431
  0
LINE
  5
31C
100
AcDbEntity
  8
ASSI
100
AcDbLine
 62
250
  6
CONTINUOUS
 10
87.1064775306
 20
137.4521223431
 11
108.3529831676
 21
137.4520648431
  0
LINE
  5
31D
100
AcDbEntity
  8
RACCORDO
100
AcDbLine
 62
250
  6
CONTINUOUS
 10
367.7455118982
 20
137.4520648432
 11
388.9920175357
 21
137.4521221953
  0
LINE
  5
31E
100
AcDbEntity
  8
ASSI
100
AcDbLine
 62
250
  6
CONTINUOUS
 10
367.7455118982
 20
137.4520648432
 11
388.9920175357
 21
137.4521221953
  0
LINE
  5
31F
100
AcDbEntity
  8
RACCORDO
100
AcDbLine
 62
250
  6
CONTINUOUS
 10
154.7455118982
 20
137.4520648431
 11
179.3529831676
 21
137.4520648431
  0
LINE
  5
320
100
AcDbEntity
  8
ASSI
100
AcDbLine
 62
250
  6
CONTINUOUS
 10
154.7455118982
 20
137.4520648431
 11
179.3529831676
 21
137.4520648431
  0
LINE
  5
321
100
AcDbEntity
  8
RACCORDO
100
AcDbLine
 62
250
  6
CONTINUOUS
 10
225.7455118982
 20
137.4520648431
 11
250.3529831676
 21
137.4520648431
  0
LINE
  5
322
100
AcDbEntity
  8
ASSI
100
AcDbLine
 62
250
  6
CONTINUOUS
 10
225.7455118982
 20
137.4520648431
 11
250.3529831676
 21
137.4520648431
  0
LINE
  5
323
100
AcDbEntity
  8
RACCORDO
100
AcDbLine
 62
250
  6
CONTINUOUS
 10
296.7455118982
 20
137.4520648431
 11
321.3529831676
 21
137.4520648431
  0
LINE
  5
324
100
AcDbEntity
  8
ASSI
100
AcDbLine
 62
250
  6
CONTINUOUS
 10
296.7455118982
 20
137.4520648431
 11
321.3529831676
 21
137.4520648431
  0
LINE
  5
325
100
AcDbEntity
  8
0
100
AcDbLine
 62
250
  6
CONTINUOUS
 10
102.8504495329
 20
150.0817107368
 11
103.2075895329
 21
150.0504647368
  0
LINE
  5
326
100
AcDbEntity
  8
0
100
AcDbLine
 62
250
  6
CONTINUOUS
 10
104.9932895329
 20
166.2135447368
 11
104.6956725329
 21
166.2978657368
  0
LINE
  5
327
100
AcDbEntity
  8
0
100
AcDbLine
 62
250
  6
CONTINUOUS
 10
179.7047848053
 20
182.1653415314
 11
179.8492475329
 21
182.020866109
  0
LINE
  5
328
100
AcDbEntity
  8
ASSI
100
AcDbLine
 62
250
  6
CONTINUOUS
 10
179.7047848053
 20
182.1653415314
 11
179.8492475329
 21
182.020866109
  0
LINE
  5
329
100
AcDbEntity
  8
0
100
AcDbLine
 62
250
  6
CONTINUOUS
 10
224.5913555137
 20
137.2787852258
 11
224.4503439051
 21
137.4197697368
  0
LINE
  5
32A
100
AcDbEntity
  8
ASSI
100
AcDbLine
 62
250
  6
CONTINUOUS
 10
224.5913555137
 20
137.2787852258
 11
224.4503439051
 21
137.4197697368
  0
LINE
  5
32B
100
AcDbEntity
  8
0
100
AcDbLine
 62
250
  6
CONTINUOUS
 10
225.3937102598
 20
138.0741976159
 11
225.2492475329
 21
138.2186733646
  0
LINE
  5
32C
100
AcDbEntity
  8
ASSI
100
AcDbLine
 62
250
  6
CONTINUOUS
 10
225.3937102598
 20
138.0741976159
 11
225.2492475329
 21
138.2186733646
  0
LINE
  5
32D
100
AcDbEntity
  8
0
100
AcDbLine
 62
250
  6
CONTINUOUS
 10
180.5071395521
 20
182.9607542479
 11
180.6481511607
 21
182.8197697368
  0
LINE
  5
32E
100
AcDbEntity
  8
ASSI
100
AcDbLine
 62
250
  6
CONTINUOUS
 10
180.5071395521
 20
182.9607542479
 11
180.6481511607
 21
182.8197697368
  0
LINE
  5
32F
100
AcDbEntity
  8
RACCORDO
100
AcDbLine
 62
250
  6
CONTINUOUS
 10
224.5913284161
 20
183.4873453532
 11
224.5913284162
 21
182.9607542479
  0
LINE
  5
330
100
AcDbEntity
  8
ASSI
100
AcDbLine
 62
250
  6
CONTINUOUS
 10
224.5913284161
 20
183.4873453532
 11
224.5913284162
 21
182.9607542479
  0
LINE
  5
331
100
AcDbEntity
  8
RACCORDO
100
AcDbLine
 62
250
  6
CONTINUOUS
 10
224.5913284161
 20
136.7521941205
 11
224.5913284161
 21
137.2787852258
  0
LINE
  5
332
100
AcDbEntity
  8
ASSI
100
AcDbLine
 62
250
  6
CONTINUOUS
 10
224.5913284161
 20
136.7521941205
 11
224.5913284161
 21
137.2787852258
  0
LINE
  5
333
100
AcDbEntity
  8
0
100
AcDbLine
 62
7
  6
CONTINUOUS
 10
225.2492475329
 20
182.020866109
 11
225.2492475329
 21
138.2186733646
  0
LINE
  5
334
100
AcDbEntity
  8
ASSI
100
AcDbLine
 62
7
  6
CONTINUOUS
 10
225.2492475329
 20
182.020866109
 11
225.2492475329
 21
138.2186733646
  0
LINE
  5
335
100
AcDbEntity
  8
0
100
AcDbLine
 62
250
  6
CONTINUOUS
 10
103.2075895329
 20
151.7989617368
 11
105.6480455329
 21
151.5854497368
  0
LINE
  5
336
100
AcDbEntity
  8
0
100
AcDbLine
 62
250
  6
CONTINUOUS
 10
105.6480455329
 20
151.9351497368
 11
102.8504495329
 21
152.1799077368
  0
LINE
  5
337
100
AcDbEntity
  8
0
100
AcDbLine
 62
250
  6
CONTINUOUS
 10
102.8504495329
 20
155.4437687368
 11
105.6480455329
 21
155.1990107368
  0
LINE
  5
338
100
AcDbEntity
  8
0
100
AcDbLine
 62
250
  6
CONTINUOUS
 10
105.6480455329
 20
155.5487097368
 11
102.8504495329
 21
155.7934677368
  0
LINE
  5
339
100
AcDbEntity
  8
0
100
AcDbLine
 62
250
  6
CONTINUOUS
 10
104.9932895329
 20
156.1305427368
 11
104.7551955329
 21
156.1513737368
  0
LINE
  5
33A
100
AcDbEntity
  8
0
100
AcDbLine
 62
250
  6
CONTINUOUS
 10
104.9932895329
 20
156.4802427368
 11
104.8147185329
 21
156.4958657368
  0
LINE
  5
33B
100
AcDbEntity
  8
0
100
AcDbLine
 62
250
  6
CONTINUOUS
 10
104.1004395329
 20
158.0154387368
 11
102.8504495329
 21
158.1247987368
  0
LINE
  5
33C
100
AcDbEntity
  8
0
100
AcDbLine
 62
250
  6
CONTINUOUS
 10
104.4575795329
 20
157.9841927368
 11
105.3504285329
 21
157.9060787368
  0
LINE
  5
33D
100
AcDbEntity
  8
0
100
AcDbLine
 62
250
  6
CONTINUOUS
 10
102.8504495329
 20
158.4744977368
 11
105.6480455329
 21
158.2297397368
  0
LINE
  5
33E
100
AcDbEntity
  8
0
100
AcDbLine
 62
250
  6
CONTINUOUS
 10
102.8504495329
 20
158.9407637368
 11
103.2075895329
 21
158.9095177368
  0
LINE
  5
33F
100
AcDbEntity
  8
0
100
AcDbLine
 62
250
  6
CONTINUOUS
 10
105.2909055329
 20
158.7272507368
 11
105.6480455329
 21
158.6960057368
  0
LINE
  5
340
100
AcDbEntity
  8
0
100
AcDbLine
 62
250
  6
CONTINUOUS
 10
104.1599625329
 20
159.0593297368
 11
104.5171025329
 21
159.0280837368
  0
LINE
  5
341
100
AcDbEntity
  8
0
100
AcDbLine
 62
250
  6
CONTINUOUS
 10
104.5171025329
 20
160.5434477368
 11
105.2909055329
 21
160.4757487368
  0
LINE
  5
342
100
AcDbEntity
  8
0
100
AcDbLine
 62
250
  6
CONTINUOUS
 10
103.2075895329
 20
160.6580147368
 11
104.1599625329
 21
160.5746937368
  0
LINE
  5
343
100
AcDbEntity
  8
0
100
AcDbLine
 62
250
  6
CONTINUOUS
 10
105.6480455329
 20
160.7942027368
 11
102.8504495329
 21
161.0389607368
  0
LINE
  5
344
100
AcDbEntity
  8
0
100
AcDbLine
 62
250
  6
CONTINUOUS
 10
105.3504285329
 20
161.2865067368
 11
105.6480455329
 21
161.2604687368
  0
LINE
  5
345
100
AcDbEntity
  8
0
100
AcDbLine
 62
250
  6
CONTINUOUS
 10
105.6480455329
 20
179.5730327368
 11
102.8504495329
 21
180.3723457368
  0
LWPOLYLINE
  5
346
100
AcDbEntity
  8
0
100
AcDbPolyline
 62
7
  6
CONTINUOUS
 90
13
 70
0
 43
0.3499999917
 10
236.8706689453
 20
221.7269128418
 10
236.8706689453
 20
223.0126245117
 10
237.0849499512
 20
223.4411865234
 10
237.5135375977
 20
223.8697741699
 10
237.7278186035
 20
223.8697741699
 10
238.1563806152
 20
223.4411865234
 10
238.3706872559
 20
223.0126245117
 10
238.3706872559
 20
221.7269128418
 10
238.1563806152
 20
221.2983508301
 10
237.7278186035
 20
220.8697631836
 10
237.5135375977
 20
220.8697631836
 10
237.0849499512
 20
221.2983508301
 10
236.8706689453
 20
221.7269128418
  0
LWPOLYLINE
  5
347
100
AcDbEntity
  8
0
100
AcDbPolyline
 62
7
  6
CONTINUOUS
 90
13
 70
0
 43
0.3499999917
 10
406.4421057129
 20
160.1197650146
 10
405.156394043
 20
160.1197650146
 10
404.7278063965
 20
160.3340588379
 10
404.2992443848
 20
160.7626208496
 10
404.2992443848
 20
160.9769146729
 10
404.7278063965
 20
161.405489502
 10
405.156394043
 20
161.6197705078
 10
406.4421057129
 20
161.6197705078
 10
406.8706677246
 20
161.405489502
 10
407.2992553711
 20
160.9769146729
 10
407.2992553711
 20
160.7626208496
 10
406.8706677246
 20
160.3340588379
 10
406.4421057129
 20
160.1197650146
  0
LINE
  5
348
100
AcDbEntity
  8
0
100
AcDbLine
 62
250
  6
CONTINUOUS
 10
102.8504495329
 20
162.4377577368
 11
105.3504285329
 21
162.2190387368
  0
LINE
  5
349
100
AcDbEntity
  8
0
100
AcDbLine
 62
250
  6
CONTINUOUS
 10
105.3504285329
 20
162.5687377368
 11
102.8504495329
 21
162.7874577368
  0
LINE
  5
34A
100
AcDbEntity
  8
0
100
AcDbLine
 62
250
  6
CONTINUOUS
 10
105.6480455329
 20
163.4752317368
 11
105.3504285329
 21
163.5012697368
  0
LINE
  5
34B
100
AcDbEntity
  8
0
100
AcDbLine
 62
250
  6
CONTINUOUS
 10
103.8028225329
 20
166.0262807368
 11
104.6956725329
 21
165.9481667368
  0
LINE
  5
34C
100
AcDbEntity
  8
0
100
AcDbLine
 62
250
  6
CONTINUOUS
 10
104.6956725329
 20
166.2978657368
 11
103.8028225329
 21
166.3759807368
  0
LINE
  5
34D
100
AcDbEntity
  8
0
100
AcDbLine
 62
250
  6
CONTINUOUS
 10
104.7551955329
 20
169.5565207368
 11
104.9932895329
 21
169.5356897368
  0
LINE
  5
34E
100
AcDbEntity
  8
0
100
AcDbLine
 62
250
  6
CONTINUOUS
 10
103.5052065329
 20
169.6658797368
 11
103.8028225329
 21
169.6398417368
  0
LINE
  5
34F
100
AcDbEntity
  8
0
100
AcDbLine
 62
250
  6
CONTINUOUS
 10
104.9337655329
 20
169.8905967368
 11
104.8147185329
 21
169.9010117368
  0
LINE
  5
350
100
AcDbEntity
  8
0
100
AcDbLine
 62
250
  6
CONTINUOUS
 10
103.5647295329
 20
170.0103717368
 11
103.7432995329
 21
169.9947497368
  0
LINE
  5
351
100
AcDbEntity
  8
0
100
AcDbLine
 62
250
  6
CONTINUOUS
 10
104.1004395329
 20
171.4205847368
 11
103.2075895329
 21
171.4986987368
  0
LINE
  5
352
100
AcDbEntity
  8
0
100
AcDbLine
 62
250
  6
CONTINUOUS
 10
104.4575795329
 20
171.3893387368
 11
105.2909055329
 21
171.3164327368
  0
LINE
  5
353
100
AcDbEntity
  8
0
100
AcDbLine
 62
250
  6
CONTINUOUS
 10
105.6480455329
 20
171.6348857368
 11
102.8504495329
 21
171.8796437368
  0
LINE
  5
354
100
AcDbEntity
  8
0
100
AcDbLine
 62
7
  6
CONTINUOUS
 10
250.8492475329
 20
138.2186733646
 11
250.8492475329
 21
182.020866109
  0
LINE
  5
355
100
AcDbEntity
  8
ASSI
100
AcDbLine
 62
7
  6
CONTINUOUS
 10
250.8492475329
 20
138.2186733646
 11
250.8492475329
 21
182.020866109
  0
LINE
  5
356
100
AcDbEntity
  8
RACCORDO
100
AcDbLine
 62
250
  6
CONTINUOUS
 10
251.5071666497
 20
183.4873453532
 11
251.5071666497
 21
182.9607542479
  0
LINE
  5
357
100
AcDbEntity
  8
ASSI
100
AcDbLine
 62
250
  6
CONTINUOUS
 10
251.5071666497
 20
183.4873453532
 11
251.5071666497
 21
182.9607542479
  0
LINE
  5
358
100
AcDbEntity
  8
RACCORDO
100
AcDbLine
 62
250
  6
CONTINUOUS
 10
251.5071666497
 20
136.7521941205
 11
251.5071666496
 21
137.2787852258
  0
LINE
  5
359
100
AcDbEntity
  8
ASSI
100
AcDbLine
 62
250
  6
CONTINUOUS
 10
251.5071666497
 20
136.7521941205
 11
251.5071666496
 21
137.2787852258
  0
LINE
  5
35A
100
AcDbEntity
  8
0
100
AcDbLine
 62
250
  6
CONTINUOUS
 10
104.9337655329
 20
164.0039887368
 11
105.2313825329
 21
164.0362337368
  0
LINE
  5
35B
100
AcDbEntity
  8
0
100
AcDbLine
 62
250
  6
CONTINUOUS
 10
103.8028225329
 20
166.3759807368
 11
103.5052065329
 21
166.3437347368
  0
LINE
  5
35C
100
AcDbEntity
  8
0
100
AcDbLine
 62
250
  6
CONTINUOUS
 10
105.6480455329
 20
172.8454807368
 11
102.8504495329
 21
172.8454807368
  0
LINE
  5
35D
100
AcDbEntity
  8
0
100
AcDbLine
 62
250
  6
CONTINUOUS
 10
105.6480455329
 20
174.9769817368
 11
102.8504495329
 21
174.9769817368
  0
LINE
  5
35E
100
AcDbEntity
  8
0
100
AcDbLine
 62
250
  6
CONTINUOUS
 10
105.6480455329
 20
176.5756087368
 11
102.8504495329
 21
176.5756087368
  0
LINE
  5
35F
100
AcDbEntity
  8
0
100
AcDbLine
 62
250
  6
CONTINUOUS
 10
105.6480455329
 20
177.9744067368
 11
102.8504495329
 21
177.9744067368
  0
LINE
  5
360
100
AcDbEntity
  8
0
100
AcDbLine
 62
250
  6
CONTINUOUS
 10
103.3999775329
 20
181.3714867368
 11
105.0985175329
 21
181.3714867368
  0
LINE
  5
361
100
AcDbEntity
  8
0
100
AcDbLine
 62
250
  6
CONTINUOUS
 10
103.4998915329
 20
181.4714007368
 11
104.9986035329
 21
181.4714007368
  0
LINE
  5
362
100
AcDbEntity
  8
0
100
AcDbLine
 62
250
  6
CONTINUOUS
 10
103.5998055329
 20
181.5713157368
 11
104.8986895329
 21
181.5713157368
  0
LINE
  5
363
100
AcDbEntity
  8
0
100
AcDbLine
 62
250
  6
CONTINUOUS
 10
102.2509645329
 20
182.5204997368
 11
103.3999775329
 21
182.5204997368
  0
LINE
  5
364
100
AcDbEntity
  8
0
100
AcDbLine
 62
250
  6
CONTINUOUS
 10
105.0985175329
 20
182.5204997368
 11
106.2475305329
 21
182.5204997368
  0
LINE
  5
365
100
AcDbEntity
  8
0
100
AcDbLine
 62
250
  6
CONTINUOUS
 10
102.3508785329
 20
182.6204137368
 11
103.4998915329
 21
182.6204137368
  0
LINE
  5
366
100
AcDbEntity
  8
0
100
AcDbLine
 62
250
  6
CONTINUOUS
 10
104.9986035329
 20
182.6204137368
 11
106.1476165329
 21
182.6204137368
  0
LINE
  5
367
100
AcDbEntity
  8
0
100
AcDbLine
 62
250
  6
CONTINUOUS
 10
102.4507935329
 20
182.7203277368
 11
103.5998055329
 21
182.7203277368
  0
LINE
  5
368
100
AcDbEntity
  8
0
100
AcDbLine
 62
250
  6
CONTINUOUS
 10
104.8986895329
 20
182.7203277368
 11
106.0477015329
 21
182.7203277368
  0
LINE
  5
369
100
AcDbEntity
  8
RACCORDO
100
AcDbLine
 62
250
  6
CONTINUOUS
 10
321.3529831676
 20
182.7874746305
 11
296.7455257701
 21
182.7874524069
  0
LINE
  5
36A
100
AcDbEntity
  8
ASSI
100
AcDbLine
 62
250
  6
CONTINUOUS
 10
321.3529831676
 20
182.7874746305
 11
296.7455257701
 21
182.7874524069
  0
LINE
  5
36B
100
AcDbEntity
  8
RACCORDO
100
AcDbLine
 62
250
  6
CONTINUOUS
 10
250.3529831676
 20
182.7874746305
 11
225.7455257701
 21
182.7874524068
  0
LINE
  5
36C
100
AcDbEntity
  8
ASSI
100
AcDbLine
 62
250
  6
CONTINUOUS
 10
250.3529831676
 20
182.7874746305
 11
225.7455257701
 21
182.7874524068
  0
LINE
  5
36D
100
AcDbEntity
  8
RACCORDO
100
AcDbLine
 62
250
  6
CONTINUOUS
 10
179.3529831676
 20
182.7874746305
 11
154.7455257701
 21
182.7874524068
  0
LINE
  5
36E
100
AcDbEntity
  8
ASSI
100
AcDbLine
 62
250
  6
CONTINUOUS
 10
179.3529831676
 20
182.7874746305
 11
154.7455257701
 21
182.7874524068
  0
LINE
  5
36F
100
AcDbEntity
  8
RACCORDO
100
AcDbLine
 62
250
  6
CONTINUOUS
 10
388.9920175347
 20
182.7874169987
 11
367.7455257701
 21
182.7874524068
  0
LINE
  5
370
100
AcDbEntity
  8
ASSI
100
AcDbLine
 62
250
  6
CONTINUOUS
 10
388.9920175347
 20
182.7874169987
 11
367.7455257701
 21
182.7874524068
  0
LINE
  5
371
100
AcDbEntity
  8
RACCORDO
100
AcDbLine
 62
250
  6
CONTINUOUS
 10
108.3529831676
 20
182.7874746305
 11
87.1064775305
 21
182.7874171465
  0
LINE
  5
372
100
AcDbEntity
  8
ASSI
100
AcDbLine
 62
250
  6
CONTINUOUS
 10
108.3529831676
 20
182.7874746305
 11
87.1064775305
 21
182.7874171465
  0
LINE
  5
373
100
AcDbEntity
  8
0
100
AcDbLine
 62
7
  6
CONTINUOUS
 10
109.6481511607
 20
182.8197697368
 11
153.4503439051
 21
182.8197697368
  0
LINE
  5
374
100
AcDbEntity
  8
ASSI
100
AcDbLine
 62
7
  6
CONTINUOUS
 10
109.6481511607
 20
182.8197697368
 11
153.4503439051
 21
182.8197697368
  0
LINE
  5
375
100
AcDbEntity
  8
0
100
AcDbLine
 62
7
  6
CONTINUOUS
 10
180.6481511607
 20
182.8197697368
 11
224.4503439051
 21
182.8197697368
  0
LINE
  5
376
100
AcDbEntity
  8
ASSI
100
AcDbLine
 62
7
  6
CONTINUOUS
 10
180.6481511607
 20
182.8197697368
 11
224.4503439051
 21
182.8197697368
  0
LINE
  5
377
100
AcDbEntity
  8
0
100
AcDbLine
 62
7
  6
CONTINUOUS
 10
251.6481511607
 20
182.8197697368
 11
295.4503439051
 21
182.8197697368
  0
LINE
  5
378
100
AcDbEntity
  8
ASSI
100
AcDbLine
 62
7
  6
CONTINUOUS
 10
251.6481511607
 20
182.8197697368
 11
295.4503439051
 21
182.8197697368
  0
LINE
  5
379
100
AcDbEntity
  8
0
100
AcDbLine
 62
7
  6
CONTINUOUS
 10
322.6481511607
 20
182.8197697368
 11
366.4503439051
 21
182.8197697368
  0
LINE
  5
37A
100
AcDbEntity
  8
ASSI
100
AcDbLine
 62
7
  6
CONTINUOUS
 10
322.6481511607
 20
182.8197697368
 11
366.4503439051
 21
182.8197697368
  0
LINE
  5
37B
100
AcDbEntity
  8
RACCORDO
100
AcDbLine
 62
250
  6
CONTINUOUS
 10
109.5071395521
 20
182.9607542479
 11
153.5913413165
 21
182.9607542479
  0
LINE
  5
37C
100
AcDbEntity
  8
ASSI
100
AcDbLine
 62
250
  6
CONTINUOUS
 10
109.5071395521
 20
182.9607542479
 11
153.5913413165
 21
182.9607542479
  0
LINE
  5
37D
100
AcDbEntity
  8
RACCORDO
100
AcDbLine
 62
250
  6
CONTINUOUS
 10
180.5071395521
 20
182.9607542479
 11
224.5913413165
 21
182.9607542479
  0
LINE
  5
37E
100
AcDbEntity
  8
ASSI
100
AcDbLine
 62
250
  6
CONTINUOUS
 10
180.5071395521
 20
182.9607542479
 11
224.5913413165
 21
182.9607542479
  0
LINE
  5
37F
100
AcDbEntity
  8
RACCORDO
100
AcDbLine
 62
250
  6
CONTINUOUS
 10
251.5071395521
 20
182.9607542479
 11
295.5913413165
 21
182.9607542479
  0
LINE
  5
380
100
AcDbEntity
  8
ASSI
100
AcDbLine
 62
250
  6
CONTINUOUS
 10
251.5071395521
 20
182.9607542479
 11
295.5913413165
 21
182.9607542479
  0
LINE
  5
381
100
AcDbEntity
  8
RACCORDO
100
AcDbLine
 62
250
  6
CONTINUOUS
 10
322.5071395521
 20
182.9607542479
 11
366.5913413165
 21
182.9607542479
  0
LINE
  5
382
100
AcDbEntity
  8
ASSI
100
AcDbLine
 62
250
  6
CONTINUOUS
 10
322.5071395521
 20
182.9607542479
 11
366.5913413165
 21
182.9607542479
  0
LINE
  5
383
100
AcDbEntity
  8
RACCORDO
100
AcDbLine
 62
250
  6
CONTINUOUS
 10
109.5071666497
 20
183.4873453532
 11
153.5913284161
 21
183.4873453532
  0
LINE
  5
384
100
AcDbEntity
  8
ASSI
100
AcDbLine
 62
250
  6
CONTINUOUS
 10
109.5071666497
 20
183.4873453532
 11
153.5913284161
 21
183.4873453532
  0
LINE
  5
385
100
AcDbEntity
  8
RACCORDO
100
AcDbLine
 62
250
  6
CONTINUOUS
 10
180.5071666497
 20
183.4873453532
 11
224.5913284161
 21
183.4873453532
  0
LINE
  5
386
100
AcDbEntity
  8
ASSI
100
AcDbLine
 62
250
  6
CONTINUOUS
 10
180.5071666497
 20
183.4873453532
 11
224.5913284161
 21
183.4873453532
  0
LINE
  5
387
100
AcDbEntity
  8
RACCORDO
100
AcDbLine
 62
250
  6
CONTINUOUS
 10
251.5071666497
 20
183.4873453532
 11
295.5913284161
 21
183.4873453532
  0
LINE
  5
388
100
AcDbEntity
  8
ASSI
100
AcDbLine
 62
250
  6
CONTINUOUS
 10
251.5071666497
 20
183.4873453532
 11
295.5913284161
 21
183.4873453532
  0
LINE
  5
389
100
AcDbEntity
  8
RACCORDO
100
AcDbLine
 62
250
  6
CONTINUOUS
 10
322.5071666497
 20
183.4873453532
 11
366.5913284161
 21
183.4873453532
  0
LINE
  5
38A
100
AcDbEntity
  8
ASSI
100
AcDbLine
 62
250
  6
CONTINUOUS
 10
322.5071666497
 20
183.4873453532
 11
366.5913284161
 21
183.4873453532
  0
LINE
  5
38B
100
AcDbEntity
  8
0
100
AcDbLine
 62
250
  6
CONTINUOUS
 10
295.5913413165
 20
182.9607542479
 11
295.4503439051
 21
182.8197697368
  0
LINE
  5
38C
100
AcDbEntity
  8
ASSI
100
AcDbLine
 62
250
  6
CONTINUOUS
 10
295.5913413165
 20
182.9607542479
 11
295.4503439051
 21
182.8197697368
  0
LINE
  5
38D
100
AcDbEntity
  8
0
100
AcDbLine
 62
250
  6
CONTINUOUS
 10
250.7047847994
 20
138.074201038
 11
250.8492475329
 21
138.2186733646
  0
LINE
  5
38E
100
AcDbEntity
  8
ASSI
100
AcDbLine
 62
250
  6
CONTINUOUS
 10
250.7047847994
 20
138.074201038
 11
250.8492475329
 21
138.2186733646
  0
LINE
  5
38F
100
AcDbEntity
  8
0
100
AcDbLine
 62
250
  6
CONTINUOUS
 10
251.5071537493
 20
137.2787852258
 11
251.6481511607
 21
137.4197697368
  0
LINE
  5
390
100
AcDbEntity
  8
ASSI
100
AcDbLine
 62
250
  6
CONTINUOUS
 10
251.5071537493
 20
137.2787852258
 11
251.6481511607
 21
137.4197697368
  0
LINE
  5
391
100
AcDbEntity
  8
0
100
AcDbLine
 62
250
  6
CONTINUOUS
 10
296.3937102642
 20
182.1653395988
 11
296.2492475329
 21
182.020866109
  0
LINE
  5
392
100
AcDbEntity
  8
ASSI
100
AcDbLine
 62
250
  6
CONTINUOUS
 10
296.3937102642
 20
182.1653395988
 11
296.2492475329
 21
182.020866109
  0
LINE
  5
393
100
AcDbEntity
  8
0
100
AcDbLine
 62
250
  6
CONTINUOUS
 10
102.8504495329
 20
152.6461727368
 11
105.6480455329
 21
153.3339477368
  0
LINE
  5
394
100
AcDbEntity
  8
0
100
AcDbLine
 62
250
  6
CONTINUOUS
 10
103.8028225329
 20
153.2039667368
 11
105.4099525329
 21
153.5879097368
  0
LINE
  5
395
100
AcDbEntity
  8
0
100
AcDbLine
 62
250
  6
CONTINUOUS
 10
103.5647295329
 20
153.1665147368
 11
102.8504495329
 21
152.9958727368
  0
LINE
  5
396
100
AcDbEntity
  8
0
100
AcDbLine
 62
250
  6
CONTINUOUS
 10
105.1718585329
 20
156.1732037368
 11
104.9932895329
 21
156.1305427368
  0
LINE
  5
397
100
AcDbEntity
  8
0
100
AcDbLine
 62
250
  6
CONTINUOUS
 10
105.1718585329
 20
156.5229037368
 11
104.9932895329
 21
156.4802427368
  0
LINE
  5
398
100
AcDbEntity
  8
0
100
AcDbLine
 62
250
  6
CONTINUOUS
 10
103.5647295329
 20
165.9888287368
 11
103.8028225329
 21
166.0262807368
  0
LINE
  5
399
100
AcDbEntity
  8
0
100
AcDbLine
 62
250
  6
CONTINUOUS
 10
106.0477015329
 20
184.0192117368
 11
104.8986895329
 21
184.0192117368
  0
LINE
  5
39A
100
AcDbEntity
  8
0
100
AcDbLine
 62
250
  6
CONTINUOUS
 10
103.5998055329
 20
184.0192117368
 11
102.4507935329
 21
184.0192117368
  0
LINE
  5
39B
100
AcDbEntity
  8
0
100
AcDbLine
 62
250
  6
CONTINUOUS
 10
106.1476165329
 20
184.1191257368
 11
104.9986035329
 21
184.1191257368
  0
LINE
  5
39C
100
AcDbEntity
  8
0
100
AcDbLine
 62
250
  6
CONTINUOUS
 10
103.4998915329
 20
184.1191257368
 11
102.3508785329
 21
184.1191257368
  0
LINE
  5
39D
100
AcDbEntity
  8
0
100
AcDbLine
 62
250
  6
CONTINUOUS
 10
106.2475305329
 20
184.2190397368
 11
105.0985175329
 21
184.2190397368
  0
LINE
  5
39E
100
AcDbEntity
  8
0
100
AcDbLine
 62
250
  6
CONTINUOUS
 10
103.3999775329
 20
184.2190397368
 11
102.2509645329
 21
184.2190397368
  0
LINE
  5
39F
100
AcDbEntity
  8
0
100
AcDbLine
 62
250
  6
CONTINUOUS
 10
104.8986895329
 20
185.1682237368
 11
103.5998055329
 21
185.1682237368
  0
LINE
  5
3A0
100
AcDbEntity
  8
0
100
AcDbLine
 62
250
  6
CONTINUOUS
 10
104.9986035329
 20
185.2681387368
 11
103.4998915329
 21
185.2681387368
  0
LINE
  5
3A1
100
AcDbEntity
  8
0
100
AcDbLine
 62
250
  6
CONTINUOUS
 10
105.0985175329
 20
185.3680527368
 11
103.3999775329
 21
185.3680527368
  0
LINE
  5
3A2
100
AcDbEntity
  8
0
100
AcDbLine
 62
250
  6
CONTINUOUS
 10
295.5913555137
 20
137.2787852258
 11
295.4503439051
 21
137.4197697368
  0
LINE
  5
3A3
100
AcDbEntity
  8
ASSI
100
AcDbLine
 62
250
  6
CONTINUOUS
 10
295.5913555137
 20
137.2787852258
 11
295.4503439051
 21
137.4197697368
  0
LINE
  5
3A4
100
AcDbEntity
  8
0
100
AcDbLine
 62
250
  6
CONTINUOUS
 10
250.7047848053
 20
182.1653415314
 11
250.8492475329
 21
182.020866109
  0
LINE
  5
3A5
100
AcDbEntity
  8
ASSI
100
AcDbLine
 62
250
  6
CONTINUOUS
 10
250.7047848053
 20
182.1653415314
 11
250.8492475329
 21
182.020866109
  0
LINE
  5
3A6
100
AcDbEntity
  8
0
100
AcDbLine
 62
250
  6
CONTINUOUS
 10
251.5071395521
 20
182.9607542479
 11
251.6481511607
 21
182.8197697368
  0
LINE
  5
3A7
100
AcDbEntity
  8
ASSI
100
AcDbLine
 62
250
  6
CONTINUOUS
 10
251.5071395521
 20
182.9607542479
 11
251.6481511607
 21
182.8197697368
  0
LINE
  5
3A8
100
AcDbEntity
  8
0
100
AcDbLine
 62
250
  6
CONTINUOUS
 10
296.3937102598
 20
138.0741976159
 11
296.2492475329
 21
138.2186733646
  0
LINE
  5
3A9
100
AcDbEntity
  8
ASSI
100
AcDbLine
 62
250
  6
CONTINUOUS
 10
296.3937102598
 20
138.0741976159
 11
296.2492475329
 21
138.2186733646
  0
LINE
  5
3AA
100
AcDbEntity
  8
0
100
AcDbLine
 62
250
  6
CONTINUOUS
 10
102.8504495329
 20
166.9255677368
 11
105.6480455329
 21
167.6133417368
  0
LINE
  5
3AB
100
AcDbEntity
  8
0
100
AcDbLine
 62
250
  6
CONTINUOUS
 10
105.1123355329
 20
164.3963487368
 11
104.9337655329
 21
164.3536887368
  0
LINE
  5
3AC
100
AcDbEntity
  8
0
100
AcDbLine
 62
250
  6
CONTINUOUS
 10
103.8028225329
 20
167.4833617368
 11
105.4099525329
 21
167.8673057368
  0
LINE
  5
3AD
100
AcDbEntity
  8
0
100
AcDbLine
 62
250
  6
CONTINUOUS
 10
103.5647295329
 20
167.4459087368
 11
102.8504495329
 21
167.2752677368
  0
LINE
  5
3AE
100
AcDbEntity
  8
0
100
AcDbLine
 62
250
  6
CONTINUOUS
 10
104.9932895329
 20
169.5356897368
 11
105.1718585329
 21
169.5783497368
  0
LINE
  5
3AF
100
AcDbEntity
  8
0
100
AcDbLine
 62
250
  6
CONTINUOUS
 10
105.1123355329
 20
169.9332577368
 11
104.9337655329
 21
169.8905967368
  0
LINE
  5
3B0
100
AcDbEntity
  8
0
100
AcDbLine
 62
250
  6
CONTINUOUS
 10
103.8028225329
 20
169.6398417368
 11
103.9813925329
 21
169.6825027368
  0
LINE
  5
3B1
100
AcDbEntity
  8
0
100
AcDbLine
 62
250
  6
CONTINUOUS
 10
103.7432995329
 20
169.9947497368
 11
103.9218695329
 21
170.0374097368
  0
LINE
  5
3B2
100
AcDbEntity
  8
RACCORDO
100
AcDbLine
 62
250
  6
CONTINUOUS
 10
388.4274234098
 20
204.7514522417
 11
87.671071656
 21
204.7514522417
  0
LINE
  5
3B3
100
AcDbEntity
  8
ASSI
100
AcDbLine
 62
250
  6
CONTINUOUS
 10
388.4274234098
 20
204.7514522417
 11
87.671071656
 21
204.7514522417
  0
LINE
  5
3B4
100
AcDbEntity
  8
RACCORDO
100
AcDbLine
 62
250
  6
CONTINUOUS
 10
388.4274234098
 20
204.9965751485
 11
87.671071656
 21
204.9965751485
  0
LINE
  5
3B5
100
AcDbEntity
  8
ASSI
100
AcDbLine
 62
250
  6
CONTINUOUS
 10
388.4274234098
 20
204.9965751485
 11
87.671071656
 21
204.9965751485
  0
LINE
  5
3B6
100
AcDbEntity
  8
RACCORDO
100
AcDbLine
 62
7
  6
CONTINUOUS
 10
87.5478770676
 20
205.1197697368
 11
388.5506179981
 21
205.1197697368
  0
LINE
  5
3B7
100
AcDbEntity
  8
ASSI
100
AcDbLine
 62
7
  6
CONTINUOUS
 10
87.5478770676
 20
205.1197697368
 11
388.5506179981
 21
205.1197697368
  0
LINE
  5
3B8
100
AcDbEntity
  8
RACCORDO
100
AcDbLine
 62
250
  6
CONTINUOUS
 10
295.5913284161
 20
183.4873453532
 11
295.5913284162
 21
182.9607542479
  0
LINE
  5
3B9
100
AcDbEntity
  8
ASSI
100
AcDbLine
 62
250
  6
CONTINUOUS
 10
295.5913284161
 20
183.4873453532
 11
295.5913284162
 21
182.9607542479
  0
LINE
  5
3BA
100
AcDbEntity
  8
RACCORDO
100
AcDbLine
 62
250
  6
CONTINUOUS
 10
295.5913284161
 20
136.7521941205
 11
295.5913284161
 21
137.2787852258
  0
LINE
  5
3BB
100
AcDbEntity
  8
ASSI
100
AcDbLine
 62
250
  6
CONTINUOUS
 10
295.5913284161
 20
136.7521941205
 11
295.5913284161
 21
137.2787852258
  0
LINE
  5
3BC
100
AcDbEntity
  8
0
100
AcDbLine
 62
7
  6
CONTINUOUS
 10
296.2492475329
 20
182.020866109
 11
296.2492475329
 21
138.2186733646
  0
LINE
  5
3BD
100
AcDbEntity
  8
ASSI
100
AcDbLine
 62
7
  6
CONTINUOUS
 10
296.2492475329
 20
182.020866109
 11
296.2492475329
 21
138.2186733646
  0
LWPOLYLINE
  5
3BE
100
AcDbEntity
  8
0
100
AcDbPolyline
 62
7
  6
CONTINUOUS
 90
6
 70
0
 43
0.3499999917
 10
234.7278076172
 20
220.8697631836
 10
235.7992382812
 20
220.8697631836
 10
236.0135449219
 20
221.0840441895
 10
236.0135449219
 20
222.1554748535
 10
235.5849572754
 20
222.5840625
 10
235.1563952637
 20
222.5840625
  0
LWPOLYLINE
  5
3BF
100
AcDbEntity
  8
0
100
AcDbPolyline
 62
7
  6
CONTINUOUS
 90
6
 70
0
 43
0.3499999917
 10
239.2278112793
 20
220.8697631836
 10
240.2992419434
 20
220.8697631836
 10
240.5135229492
 20
221.0840441895
 10
240.5135229492
 20
222.1554748535
 10
240.0849609375
 20
222.5840625
 10
239.6563989258
 20
222.5840625
  0
LINE
  5
3C0
100
AcDbEntity
  8
RACCORDO
100
AcDbLine
 62
250
  6
CONTINUOUS
 10
388.4274234098
 20
204.9965751485
 11
388.5506179981
 21
205.1197697368
  0
LINE
  5
3C1
100
AcDbEntity
  8
ASSI
100
AcDbLine
 62
250
  6
CONTINUOUS
 10
388.4274234098
 20
204.9965751485
 11
388.5506179981
 21
205.1197697368
  0
LINE
  5
3C2
100
AcDbEntity
  8
0
100
AcDbLine
 62
250
  6
CONTINUOUS
 10
366.5913413165
 20
182.9607542479
 11
366.4503439051
 21
182.8197697368
  0
LINE
  5
3C3
100
AcDbEntity
  8
ASSI
100
AcDbLine
 62
250
  6
CONTINUOUS
 10
366.5913413165
 20
182.9607542479
 11
366.4503439051
 21
182.8197697368
  0
LINE
  5
3C4
100
AcDbEntity
  8
0
100
AcDbLine
 62
250
  6
CONTINUOUS
 10
321.7047847994
 20
138.074201038
 11
321.8492475329
 21
138.2186733646
  0
LINE
  5
3C5
100
AcDbEntity
  8
ASSI
100
AcDbLine
 62
250
  6
CONTINUOUS
 10
321.7047847994
 20
138.074201038
 11
321.8492475329
 21
138.2186733646
  0
LINE
  5
3C6
100
AcDbEntity
  8
0
100
AcDbLine
 62
250
  6
CONTINUOUS
 10
322.5071537493
 20
137.2787852258
 11
322.6481511607
 21
137.4197697368
  0
LINE
  5
3C7
100
AcDbEntity
  8
ASSI
100
AcDbLine
 62
250
  6
CONTINUOUS
 10
322.5071537493
 20
137.2787852258
 11
322.6481511607
 21
137.4197697368
  0
LINE
  5
3C8
100
AcDbEntity
  8
0
100
AcDbLine
 62
250
  6
CONTINUOUS
 10
367.3937102642
 20
182.1653395988
 11
367.2492475329
 21
182.020866109
  0
LINE
  5
3C9
100
AcDbEntity
  8
ASSI
100
AcDbLine
 62
250
  6
CONTINUOUS
 10
367.3937102642
 20
182.1653395988
 11
367.2492475329
 21
182.020866109
  0
LINE
  5
3CA
100
AcDbEntity
  8
RACCORDO
100
AcDbLine
 62
250
  6
CONTINUOUS
 10
389.4193060915
 20
203.9911987607
 11
389.5492475329
 21
204.1211402021
  0
LINE
  5
3CB
100
AcDbEntity
  8
ASSI
100
AcDbLine
 62
250
  6
CONTINUOUS
 10
389.4193060915
 20
203.9911987607
 11
389.5492475329
 21
204.1211402021
  0
LINE
  5
3CC
100
AcDbEntity
  8
RACCORDO
100
AcDbLine
 62
250
  6
CONTINUOUS
 10
388.4274234098
 20
115.2429643252
 11
388.5506179981
 21
115.1197697368
  0
LINE
  5
3CD
100
AcDbEntity
  8
ASSI
100
AcDbLine
 62
250
  6
CONTINUOUS
 10
388.4274234098
 20
115.2429643252
 11
388.5506179981
 21
115.1197697368
  0
LINE
  5
3CE
100
AcDbEntity
  8
0
100
AcDbLine
 62
250
  6
CONTINUOUS
 10
366.5913555137
 20
137.2787852258
 11
366.4503439051
 21
137.4197697368
  0
LINE
  5
3CF
100
AcDbEntity
  8
ASSI
100
AcDbLine
 62
250
  6
CONTINUOUS
 10
366.5913555137
 20
137.2787852258
 11
366.4503439051
 21
137.4197697368
  0
LINE
  5
3D0
100
AcDbEntity
  8
0
100
AcDbLine
 62
250
  6
CONTINUOUS
 10
321.7047848053
 20
182.1653415314
 11
321.8492475329
 21
182.020866109
  0
LINE
  5
3D1
100
AcDbEntity
  8
ASSI
100
AcDbLine
 62
250
  6
CONTINUOUS
 10
321.7047848053
 20
182.1653415314
 11
321.8492475329
 21
182.020866109
  0
LINE
  5
3D2
100
AcDbEntity
  8
0
100
AcDbLine
 62
250
  6
CONTINUOUS
 10
322.5071395521
 20
182.9607542479
 11
322.6481511607
 21
182.8197697368
  0
LINE
  5
3D3
100
AcDbEntity
  8
ASSI
100
AcDbLine
 62
250
  6
CONTINUOUS
 10
322.5071395521
 20
182.9607542479
 11
322.6481511607
 21
182.8197697368
  0
LINE
  5
3D4
100
AcDbEntity
  8
0
100
AcDbLine
 62
250
  6
CONTINUOUS
 10
367.3937102598
 20
138.0741976159
 11
367.2492475329
 21
138.2186733646
  0
LINE
  5
3D5
100
AcDbEntity
  8
ASSI
100
AcDbLine
 62
250
  6
CONTINUOUS
 10
367.3937102598
 20
138.0741976159
 11
367.2492475329
 21
138.2186733646
  0
LINE
  5
3D6
100
AcDbEntity
  8
RACCORDO
100
AcDbLine
 62
250
  6
CONTINUOUS
 10
389.4193060915
 20
116.248340713
 11
389.5492475329
 21
116.1183992716
  0
LINE
  5
3D7
100
AcDbEntity
  8
ASSI
100
AcDbLine
 62
250
  6
CONTINUOUS
 10
389.4193060915
 20
116.248340713
 11
389.5492475329
 21
116.1183992716
  0
LINE
  5
3D8
100
AcDbEntity
  8
0
100
AcDbLine
 62
7
  6
CONTINUOUS
 10
321.8492475329
 20
138.2186733646
 11
321.8492475329
 21
182.020866109
  0
LINE
  5
3D9
100
AcDbEntity
  8
ASSI
100
AcDbLine
 62
7
  6
CONTINUOUS
 10
321.8492475329
 20
138.2186733646
 11
321.8492475329
 21
182.020866109
  0
LINE
  5
3DA
100
AcDbEntity
  8
RACCORDO
100
AcDbLine
 62
250
  6
CONTINUOUS
 10
322.5071666497
 20
183.4873453532
 11
322.5071666497
 21
182.9607542479
  0
LINE
  5
3DB
100
AcDbEntity
  8
ASSI
100
AcDbLine
 62
250
  6
CONTINUOUS
 10
322.5071666497
 20
183.4873453532
 11
322.5071666497
 21
182.9607542479
  0
LINE
  5
3DC
100
AcDbEntity
  8
RACCORDO
100
AcDbLine
 62
250
  6
CONTINUOUS
 10
322.5071666497
 20
136.7521941205
 11
322.5071666496
 21
137.2787852258
  0
LINE
  5
3DD
100
AcDbEntity
  8
ASSI
100
AcDbLine
 62
250
  6
CONTINUOUS
 10
322.5071666497
 20
136.7521941205
 11
322.5071666496
 21
137.2787852258
  0
LWPOLYLINE
  5
3DE
100
AcDbEntity
  8
0
100
AcDbPolyline
 62
7
  6
CONTINUOUS
 90
10
 70
0
 43
0.3499999917
 10
407.2992553711
 20
158.1911975098
 10
406.4421057129
 20
159.048347168
 10
405.5849560547
 20
159.2626281738
 10
404.7278063965
 20
159.2626281738
 10
404.2992443848
 20
158.8340533447
 10
404.2992443848
 20
158.1911975098
 10
404.7278063965
 20
157.7626226807
 10
405.5849560547
 20
157.7626226807
 10
406.0135437012
 20
158.1911975098
 10
406.0135437012
 20
159.119765625
  0
LINE
  5
3DF
100
AcDbEntity
  8
RACCORDO
100
AcDbLine
 62
250
  6
CONTINUOUS
 10
366.5913284161
 20
183.4873453532
 11
366.5913284162
 21
182.9607542479
  0
LINE
  5
3E0
100
AcDbEntity
  8
ASSI
100
AcDbLine
 62
250
  6
CONTINUOUS
 10
366.5913284161
 20
183.4873453532
 11
366.5913284162
 21
182.9607542479
  0
LINE
  5
3E1
100
AcDbEntity
  8
RACCORDO
100
AcDbLine
 62
250
  6
CONTINUOUS
 10
366.5913284161
 20
136.7521941205
 11
366.5913284161
 21
137.2787852258
  0
LINE
  5
3E2
100
AcDbEntity
  8
ASSI
100
AcDbLine
 62
250
  6
CONTINUOUS
 10
366.5913284161
 20
136.7521941205
 11
366.5913284161
 21
137.2787852258
  0
LINE
  5
3E3
100
AcDbEntity
  8
0
100
AcDbLine
 62
7
  6
CONTINUOUS
 10
367.2492475329
 20
182.020866109
 11
367.2492475329
 21
138.2186733646
  0
LINE
  5
3E4
100
AcDbEntity
  8
ASSI
100
AcDbLine
 62
7
  6
CONTINUOUS
 10
367.2492475329
 20
182.020866109
 11
367.2492475329
 21
138.2186733646
  0
LINE
  5
3E5
100
AcDbEntity
  8
RACCORDO
100
AcDbLine
 62
250
  6
CONTINUOUS
 10
388.4274234098
 20
115.488087232
 11
388.42742341
 21
115.2429643252
  0
LINE
  5
3E6
100
AcDbEntity
  8
ASSI
100
AcDbLine
 62
250
  6
CONTINUOUS
 10
388.4274234098
 20
115.488087232
 11
388.42742341
 21
115.2429643252
  0
LINE
  5
3E7
100
AcDbEntity
  8
RACCORDO
100
AcDbLine
 62
250
  6
CONTINUOUS
 10
388.4274234098
 20
204.7514522417
 11
388.4274234098
 21
204.9965751485
  0
LINE
  5
3E8
100
AcDbEntity
  8
ASSI
100
AcDbLine
 62
250
  6
CONTINUOUS
 10
388.4274234098
 20
204.7514522417
 11
388.4274234098
 21
204.9965751485
  0
LINE
  5
3E9
100
AcDbEntity
  8
RACCORDO
100
AcDbLine
 62
7
  6
CONTINUOUS
 10
389.5492475329
 20
116.1183992716
 11
389.5492475329
 21
204.1211402021
  0
LINE
  5
3EA
100
AcDbEntity
  8
ASSI
100
AcDbLine
 62
7
  6
CONTINUOUS
 10
389.5492475329
 20
116.1183992716
 11
389.5492475329
 21
204.1211402021
  0
LWPOLYLINE
  5
3EB
100
AcDbEntity
  8
0
100
AcDbPolyline
 62
7
  6
CONTINUOUS
 90
10
 70
0
 43
0.3499999917
 10
51.5844351196
 20
223.8697741699
 10
50.9415792847
 20
223.2269055176
 10
50.5130076599
 20
222.3697814941
 10
50.5130076599
 20
221.2983508301
 10
50.9415792847
 20
220.8697631836
 10
51.5844351196
 20
220.8697631836
 10
52.0130067444
 20
221.2983508301
 10
52.0130067444
 20
222.1554748535
 10
51.5844351196
 20
222.5840625
 10
50.6558638
 20
222.5840625
  0
LINE
  5
3EC
100
AcDbEntity
  8
RACCORDO
100
AcDbLine
 62
7
  6
CONTINUOUS
 10
48.7908101595
 20
115.2429643252
 11
51.1415029387
 21
115.1197697368
  0
LINE
  5
3ED
100
AcDbEntity
  8
ASSI
100
AcDbLine
 62
7
  6
CONTINUOUS
 10
48.7908101595
 20
115.2429643252
 11
51.1415029387
 21
115.1197697368
  0
LINE
  5
3EE
100
AcDbEntity
  8
RACCORDO
100
AcDbLine
 62
250
  6
CONTINUOUS
 10
48.6620725339
 20
116.248340713
 11
51.1415029387
 21
116.1183992716
  0
LINE
  5
3EF
100
AcDbEntity
  8
ASSI
100
AcDbLine
 62
250
  6
CONTINUOUS
 10
48.6620725339
 20
116.248340713
 11
51.1415029387
 21
116.1183992716
  0
LWPOLYLINE
  5
3F0
100
AcDbEntity
  8
0
100
AcDbPolyline
 62
7
  6
CONTINUOUS
 90
3
 70
0
 43
0.3499999917
 10
49.5130050659
 20
221.1554882813
 10
49.4415769958
 20
220.9412072754
 10
49.2987208557
 20
220.6554821777
  0
LWPOLYLINE
  5
3F1
100
AcDbEntity
  8
0
100
AcDbPolyline
 62
7
  6
CONTINUOUS
 90
4
 70
0
 43
0.3499999917
 10
46.4415788269
 20
221.2983508301
 10
46.4415788269
 20
222.1554748535
 10
46.8701504517
 20
222.5840625
 10
47.5130062866
 20
222.5840625
  0
LINE
  5
3F2
100
AcDbEntity
  8
0
100
AcDbLine
 62
250
  6
CONTINUOUS
 10
45.979145421
 20
183.5033410461
 11
45.9782707446
 21
183.4873453584
  0
LINE
  5
3F3
100
AcDbEntity
  8
0
100
AcDbLine
 62
7
  6
CONTINUOUS
 10
53.9415029387
 20
156.2671157754
 11
52.1067733032
 21
156.5906281125
  0
LINE
  5
3F4
100
AcDbEntity
  8
ASSI
100
AcDbLine
 62
7
  6
CONTINUOUS
 10
53.9415029387
 20
156.2671157754
 11
52.1067733032
 21
156.5906281125
  0
LINE
  5
3F5
100
AcDbEntity
  8
RACCORDO
100
AcDbLine
 62
7
  6
CONTINUOUS
 10
51.1415029387
 20
115.1197697368
 11
51.1415029387
 21
205.1197697368
  0
LINE
  5
3F6
100
AcDbEntity
  8
ASSI
100
AcDbLine
 62
7
  6
CONTINUOUS
 10
51.1415029387
 20
115.1197697368
 11
51.1415029387
 21
205.1197697368
  0
LINE
  5
3F7
100
AcDbEntity
  8
0
100
AcDbLine
 62
7
  6
CONTINUOUS
 10
51.9415029387
 20
163.4519498106
 11
51.9415029387
 21
156.7875896631
  0
LINE
  5
3F8
100
AcDbEntity
  8
ASSI
100
AcDbLine
 62
7
  6
CONTINUOUS
 10
51.9415029387
 20
163.4519498106
 11
51.9415029387
 21
156.7875896631
  0
LINE
  5
3F9
100
AcDbEntity
  8
DRAFT
100
AcDbLine
 62
7
  6
CONTINUOUS
 10
53.9415029387
 20
203.2168452469
 11
53.9415029387
 21
163.9724236983
  0
LINE
  5
3FA
100
AcDbEntity
  8
RACCORDO
100
AcDbLine
 62
7
  6
CONTINUOUS
 10
53.9415029387
 20
203.6197697073
 11
53.9415029387
 21
203.2168452469
  0
LINE
  5
3FB
100
AcDbEntity
  8
ASSI
100
AcDbLine
 62
7
  6
CONTINUOUS
 10
53.9415029387
 20
203.6197697073
 11
53.9415029387
 21
163.9724236983
  0
LINE
  5
3FC
100
AcDbEntity
  8
DRAFT
100
AcDbLine
 62
7
  6
CONTINUOUS
 10
53.9415029387
 20
156.2671157754
 11
53.9415029387
 21
117.0226949507
  0
LINE
  5
3FD
100
AcDbEntity
  8
RACCORDO
100
AcDbLine
 62
7
  6
CONTINUOUS
 10
53.9415029387
 20
117.0226949507
 11
53.9415029387
 21
116.6197697109
  0
LINE
  5
3FE
100
AcDbEntity
  8
ASSI
100
AcDbLine
 62
7
  6
CONTINUOUS
 10
53.9415029387
 20
156.2671157754
 11
53.9415029387
 21
116.6197697109
  0
LINE
  5
3FF
100
AcDbEntity
  8
0
100
AcDbLine
 62
7
  6
CONTINUOUS
 10
53.9415029387
 20
163.9724236983
 11
52.1067733032
 21
163.6489113612
  0
LINE
  5
400
100
AcDbEntity
  8
ASSI
100
AcDbLine
 62
7
  6
CONTINUOUS
 10
53.9415029387
 20
163.9724236983
 11
52.1067733032
 21
163.6489113612
  0
LWPOLYLINE
  5
401
100
AcDbEntity
  8
0
100
AcDbPolyline
 62
7
  6
CONTINUOUS
 90
10
 70
0
 43
0.3499999917
 10
49.4415769958
 20
221.3697692871
 10
49.5130050659
 20
221.2269067383
 10
49.5130050659
 20
221.1554882813
 10
49.3701489258
 20
221.0126257324
 10
49.2987208557
 20
221.0126257324
 10
49.2272927856
 20
221.0840441895
 10
49.2272927856
 20
221.1554882813
 10
49.2987208557
 20
221.2983508301
 10
49.3701489258
 20
221.3697692871
 10
49.4415769958
 20
221.3697692871
  0
LINE
  5
402
100
AcDbEntity
  8
RACCORDO
100
AcDbLine
 62
250
  6
CONTINUOUS
 10
48.6620725339
 20
203.9911987607
 11
51.1415029387
 21
204.1211402021
  0
LINE
  5
403
100
AcDbEntity
  8
ASSI
100
AcDbLine
 62
250
  6
CONTINUOUS
 10
48.6620725339
 20
203.9911987607
 11
51.1415029387
 21
204.1211402021
  0
LINE
  5
404
100
AcDbEntity
  8
RACCORDO
100
AcDbLine
 62
7
  6
CONTINUOUS
 10
48.7908101595
 20
204.9965751485
 11
51.1415029387
 21
205.1197697368
  0
LINE
  5
405
100
AcDbEntity
  8
ASSI
100
AcDbLine
 62
7
  6
CONTINUOUS
 10
48.7908101595
 20
204.9965751485
 11
51.1415029387
 21
205.1197697368
  0
LWPOLYLINE
  5
406
100
AcDbEntity
  8
0
100
AcDbPolyline
 62
7
  6
CONTINUOUS
 90
13
 70
0
 43
0.3499999917
 10
46.8701504517
 20
222.5840625
 10
46.584434967
 20
222.7983435059
 10
46.584434967
 20
223.4411865234
 10
46.8701504517
 20
223.8697741699
 10
47.5130062866
 20
223.8697741699
 10
47.7987217712
 20
223.4411865234
 10
47.7987217712
 20
222.7983435059
 10
47.5130062866
 20
222.5840625
 10
47.9415779114
 20
222.1554748535
 10
47.9415779114
 20
221.2983508301
 10
47.5130062866
 20
220.8697631836
 10
46.8701504517
 20
220.8697631836
 10
46.4415788269
 20
221.2983508301
  0
ARC
  5
407
100
AcDbEntity
  8
RACCORDO
100
AcDbCircle
 62
250
  6
CONTINUOUS
 10
-3058.8293339418
 20
145.7222186762
 40
3145.9466817474
100
AcDbArc
 50
359.4622280963
 51
359.8493801041
  0
ARC
  5
408
100
AcDbEntity
  8
ASSI
100
AcDbCircle
 62
250
  6
CONTINUOUS
 10
-3058.8293339418
 20
145.7222186762
 40
3145.9466817474
100
AcDbArc
 50
359.4622280963
 51
359.8493801041
  0
ARC
  5
409
100
AcDbEntity
  8
RACCORDO
100
AcDbCircle
 62
250
  6
CONTINUOUS
 10
-3047.8561893641
 20
145.7224453672
 40
3134.6739481005
100
AcDbArc
 50
359.4612624107
 51
359.8491094733
  0
ARC
  5
40A
100
AcDbEntity
  8
ASSI
100
AcDbCircle
 62
250
  6
CONTINUOUS
 10
-3047.8561893641
 20
145.7224453672
 40
3134.6739481005
100
AcDbArc
 50
359.4612624107
 51
359.8491094733
  0
ARC
  5
40B
100
AcDbEntity
  8
RACCORDO
100
AcDbCircle
 62
250
  6
CONTINUOUS
 10
109.5071695615
 20
138.0538382679
 40
1.3016441474
100
AcDbArc
 50
207.5367805711
 51
269.9998718295
  0
ARC
  5
40C
100
AcDbEntity
  8
RACCORDO
100
AcDbCircle
 62
250
  6
CONTINUOUS
 10
180.5071695615
 20
138.0538382679
 40
1.3016441474
100
AcDbArc
 50
207.5367805715
 51
269.9998718295
  0
ARC
  5
40D
100
AcDbEntity
  8
ASSI
100
AcDbCircle
 62
250
  6
CONTINUOUS
 10
109.5071695615
 20
138.0538382679
 40
1.3016441474
100
AcDbArc
 50
207.5367805711
 51
269.9998718295
  0
ARC
  5
40E
100
AcDbEntity
  8
ASSI
100
AcDbCircle
 62
250
  6
CONTINUOUS
 10
180.5071695615
 20
138.0538382679
 40
1.3016441474
100
AcDbArc
 50
207.5367805715
 51
269.9998718295
  0
ARC
  5
40F
100
AcDbEntity
  8
RACCORDO
100
AcDbCircle
 62
250
  6
CONTINUOUS
 10
153.5913269106
 20
138.0538359487
 40
1.3016418282
100
AcDbArc
 50
270.000066268
 51
332.463281331
  0
ARC
  5
410
100
AcDbEntity
  8
RACCORDO
100
AcDbCircle
 62
250
  6
CONTINUOUS
 10
224.5913269106
 20
138.0538359487
 40
1.3016418282
100
AcDbArc
 50
270.000066268
 51
332.463281331
  0
ARC
  5
411
100
AcDbEntity
  8
ASSI
100
AcDbCircle
 62
250
  6
CONTINUOUS
 10
153.5913269106
 20
138.0538359487
 40
1.3016418282
100
AcDbArc
 50
270.000066268
 51
332.463281331
  0
ARC
  5
412
100
AcDbEntity
  8
ASSI
100
AcDbCircle
 62
250
  6
CONTINUOUS
 10
224.5913269106
 20
138.0538359487
 40
1.3016418282
100
AcDbArc
 50
270.000066268
 51
332.463281331
  0
ARC
  5
413
100
AcDbEntity
  8
RACCORDO
100
AcDbCircle
 62
250
  6
CONTINUOUS
 10
180.5034592338
 20
138.0530575125
 40
1.2979935931
100
AcDbArc
 50
180.1487232904
 51
207.5819395881
  0
ARC
  5
414
100
AcDbEntity
  8
RACCORDO
100
AcDbCircle
 62
250
  6
CONTINUOUS
 10
109.5034592338
 20
138.0530575125
 40
1.2979935931
100
AcDbArc
 50
180.1487232903
 51
207.5819395878
  0
ARC
  5
415
100
AcDbEntity
  8
ASSI
100
AcDbCircle
 62
250
  6
CONTINUOUS
 10
180.5034592338
 20
138.0530575125
 40
1.2979935931
100
AcDbArc
 50
180.1487232904
 51
207.5819395881
  0
ARC
  5
416
100
AcDbEntity
  8
ASSI
100
AcDbCircle
 62
250
  6
CONTINUOUS
 10
109.5034592338
 20
138.0530575125
 40
1.2979935931
100
AcDbArc
 50
180.1487232903
 51
207.5819395878
  0
ARC
  5
417
100
AcDbEntity
  8
RACCORDO
100
AcDbCircle
 62
250
  6
CONTINUOUS
 10
153.5950992472
 20
138.0530418595
 40
1.2979301375
100
AcDbArc
 50
332.4173766964
 51
359.8519604251
  0
ARC
  5
418
100
AcDbEntity
  8
RACCORDO
100
AcDbCircle
 62
250
  6
CONTINUOUS
 10
224.5950992472
 20
138.0530418595
 40
1.2979301375
100
AcDbArc
 50
332.4173766964
 51
359.8519604251
  0
ARC
  5
419
100
AcDbEntity
  8
ASSI
100
AcDbCircle
 62
250
  6
CONTINUOUS
 10
153.5950992472
 20
138.0530418595
 40
1.2979301375
100
AcDbArc
 50
332.4173766964
 51
359.8519604251
  0
ARC
  5
41A
100
AcDbEntity
  8
ASSI
100
AcDbCircle
 62
250
  6
CONTINUOUS
 10
224.5950992472
 20
138.0530418595
 40
1.2979301375
100
AcDbArc
 50
332.4173766964
 51
359.8519604251
  0
ARC
  5
41B
100
AcDbEntity
  8
RACCORDO
100
AcDbCircle
 62
250
  6
CONTINUOUS
 10
180.4998981195
 20
138.076154019
 40
0.7951157107
100
AcDbArc
 50
180.1407307485
 51
207.6655321808
  0
ARC
  5
41C
100
AcDbEntity
  8
RACCORDO
100
AcDbCircle
 62
250
  6
CONTINUOUS
 10
109.4998981195
 20
138.076154019
 40
0.7951157107
100
AcDbArc
 50
180.1407307485
 51
207.6655321808
  0
ARC
  5
41D
100
AcDbEntity
  8
ASSI
100
AcDbCircle
 62
250
  6
CONTINUOUS
 10
180.4998981195
 20
138.076154019
 40
0.7951157107
100
AcDbArc
 50
180.1407307485
 51
207.6655321808
  0
ARC
  5
41E
100
AcDbEntity
  8
ASSI
100
AcDbCircle
 62
250
  6
CONTINUOUS
 10
109.4998981195
 20
138.076154019
 40
0.7951157107
100
AcDbArc
 50
180.1407307485
 51
207.6655321808
  0
ARC
  5
41F
100
AcDbEntity
  8
RACCORDO
100
AcDbCircle
 62
250
  6
CONTINUOUS
 10
224.5986372686
 20
138.0761440329
 40
0.7950753618
100
AcDbArc
 50
332.3337560065
 51
359.8597354253
  0
ARC
  5
420
100
AcDbEntity
  8
RACCORDO
100
AcDbCircle
 62
250
  6
CONTINUOUS
 10
153.5986372686
 20
138.0761440329
 40
0.7950753618
100
AcDbArc
 50
332.3337560065
 51
359.8597354253
  0
ARC
  5
421
100
AcDbEntity
  8
ASSI
100
AcDbCircle
 62
250
  6
CONTINUOUS
 10
224.5986372686
 20
138.0761440329
 40
0.7950753618
100
AcDbArc
 50
332.3337560065
 51
359.8597354253
  0
ARC
  5
422
100
AcDbEntity
  8
ASSI
100
AcDbCircle
 62
250
  6
CONTINUOUS
 10
153.5986372686
 20
138.0761440329
 40
0.7950753618
100
AcDbArc
 50
332.3337560065
 51
359.8597354253
  0
ARC
  5
423
100
AcDbEntity
  8
RACCORDO
100
AcDbCircle
 62
250
  6
CONTINUOUS
 10
-8292.6933469898
 20
160.1197697368
 40
8589.6147254266
100
AcDbArc
 50
359.85278456
 51
0.14721544
  0
ARC
  5
424
100
AcDbEntity
  8
RACCORDO
100
AcDbCircle
 62
250
  6
CONTINUOUS
 10
-8221.6933469899
 20
160.1197697368
 40
8589.6147254267
100
AcDbArc
 50
359.85278456
 51
0.14721544
  0
ARC
  5
425
100
AcDbEntity
  8
ASSI
100
AcDbCircle
 62
250
  6
CONTINUOUS
 10
-8292.6933469898
 20
160.1197697368
 40
8589.6147254266
100
AcDbArc
 50
359.85278456
 51
0.14721544
  0
ARC
  5
426
100
AcDbEntity
  8
ASSI
100
AcDbCircle
 62
250
  6
CONTINUOUS
 10
-8221.6933469899
 20
160.1197697368
 40
8589.6147254267
100
AcDbArc
 50
359.85278456
 51
0.14721544
  0
ARC
  5
427
100
AcDbEntity
  8
RACCORDO
100
AcDbCircle
 62
250
  6
CONTINUOUS
 10
-8434.6933469706
 20
160.1197697368
 40
8589.6147254074
100
AcDbArc
 50
359.85278456
 51
0.14721544
  0
ARC
  5
428
100
AcDbEntity
  8
RACCORDO
100
AcDbCircle
 62
250
  6
CONTINUOUS
 10
-8363.6933469706
 20
160.1197697368
 40
8589.6147254074
100
AcDbArc
 50
359.85278456
 51
0.14721544
  0
ARC
  5
429
100
AcDbEntity
  8
ASSI
100
AcDbCircle
 62
250
  6
CONTINUOUS
 10
-8434.6933469706
 20
160.1197697368
 40
8589.6147254074
100
AcDbArc
 50
359.85278456
 51
0.14721544
  0
ARC
  5
42A
100
AcDbEntity
  8
ASSI
100
AcDbCircle
 62
250
  6
CONTINUOUS
 10
-8363.6933469706
 20
160.1197697368
 40
8589.6147254074
100
AcDbArc
 50
359.85278456
 51
0.14721544
  0
ARC
  5
42B
100
AcDbEntity
  8
RACCORDO
100
AcDbCircle
 62
250
  6
CONTINUOUS
 10
-8498.2896992744
 20
160.1197697388
 40
8585.4261008518
100
AcDbArc
 50
359.8487248017
 51
0.1512751984
  0
ARC
  5
42C
100
AcDbEntity
  8
ASSI
100
AcDbCircle
 62
250
  6
CONTINUOUS
 10
-8498.2896992744
 20
160.1197697388
 40
8585.4261008518
100
AcDbArc
 50
359.8487248017
 51
0.1512751984
  0
ARC
  5
42D
100
AcDbEntity
  8
RACCORDO
100
AcDbCircle
 62
250
  6
CONTINUOUS
 10
-8487.1603585804
 20
160.1197697368
 40
8573.9971712847
100
AcDbArc
 50
359.8486237559
 51
0.1513762441
  0
ARC
  5
42E
100
AcDbEntity
  8
ASSI
100
AcDbCircle
 62
250
  6
CONTINUOUS
 10
-8487.1603585804
 20
160.1197697368
 40
8573.9971712847
100
AcDbArc
 50
359.8486237559
 51
0.1513762441
  0
ARC
  5
42F
100
AcDbEntity
  8
RACCORDO
100
AcDbCircle
 62
250
  6
CONTINUOUS
 10
-8274.1182009091
 20
160.1197694546
 40
8570.5402645764
100
AcDbArc
 50
359.852620771
 51
0.1473792177
  0
ARC
  5
430
100
AcDbEntity
  8
RACCORDO
100
AcDbCircle
 62
250
  6
CONTINUOUS
 10
-8203.1182009091
 20
160.1197694546
 40
8570.5402645764
100
AcDbArc
 50
359.852620771
 51
0.1473792177
  0
ARC
  5
431
100
AcDbEntity
  8
ASSI
100
AcDbCircle
 62
250
  6
CONTINUOUS
 10
-8274.1182009091
 20
160.1197694546
 40
8570.5402645764
100
AcDbArc
 50
359.852620771
 51
0.1473792177
  0
ARC
  5
432
100
AcDbEntity
  8
ASSI
100
AcDbCircle
 62
250
  6
CONTINUOUS
 10
-8203.1182009091
 20
160.1197694546
 40
8570.5402645764
100
AcDbArc
 50
359.852620771
 51
0.1473792177
  0
ARC
  5
433
100
AcDbEntity
  8
RACCORDO
100
AcDbCircle
 62
250
  6
CONTINUOUS
 10
-8345.1182008947
 20
160.1197694546
 40
8570.540264562
100
AcDbArc
 50
359.852620771
 51
0.1473792177
  0
ARC
  5
434
100
AcDbEntity
  8
ASSI
100
AcDbCircle
 62
250
  6
CONTINUOUS
 10
-8345.1182008947
 20
160.1197694546
 40
8570.540264562
100
AcDbArc
 50
359.852620771
 51
0.1473792177
  0
ARC
  5
435
100
AcDbEntity
  8
RACCORDO
100
AcDbCircle
 62
250
  6
CONTINUOUS
 10
-8416.1182008851
 20
160.1197694546
 40
8570.5402645524
100
AcDbArc
 50
359.852620771
 51
0.1473792177
  0
ARC
  5
436
100
AcDbEntity
  8
ASSI
100
AcDbCircle
 62
250
  6
CONTINUOUS
 10
-8416.1182008851
 20
160.1197694546
 40
8570.5402645524
100
AcDbArc
 50
359.852620771
 51
0.1473792177
  0
ARC
  5
437
100
AcDbEntity
  8
RACCORDO
100
AcDbCircle
 62
250
  6
CONTINUOUS
 10
-3035.846814444
 20
174.6553865391
 40
3122.9638796785
100
AcDbArc
 50
0.1491953084
 51
0.5391964914
  0
ARC
  5
438
100
AcDbEntity
  8
ASSI
100
AcDbCircle
 62
250
  6
CONTINUOUS
 10
-3035.846814444
 20
174.6553865391
 40
3122.9638796785
100
AcDbArc
 50
0.1491953084
 51
0.5391964914
  0
ARC
  5
439
100
AcDbEntity
  8
RACCORDO
100
AcDbCircle
 62
250
  6
CONTINUOUS
 10
-3024.9623423768
 20
174.6548741603
 40
3111.7798186199
100
AcDbArc
 50
0.1494637781
 51
0.5401643379
  0
ARC
  5
43A
100
AcDbEntity
  8
ASSI
100
AcDbCircle
 62
250
  6
CONTINUOUS
 10
-3024.9623423768
 20
174.6548741603
 40
3111.7798186199
100
AcDbArc
 50
0.1494637781
 51
0.5401643379
  0
ARC
  5
43B
100
AcDbEntity
  8
RACCORDO
100
AcDbCircle
 62
250
  6
CONTINUOUS
 10
224.5913235286
 20
182.1856941792
 40
1.301651174
100
AcDbArc
 50
27.5358649068
 51
89.9997848611
  0
ARC
  5
43C
100
AcDbEntity
  8
RACCORDO
100
AcDbCircle
 62
250
  6
CONTINUOUS
 10
153.5913235286
 20
182.1856941792
 40
1.301651174
100
AcDbArc
 50
27.5358649058
 51
89.999784861
  0
ARC
  5
43D
100
AcDbEntity
  8
ASSI
100
AcDbCircle
 62
250
  6
CONTINUOUS
 10
224.5913235286
 20
182.1856941792
 40
1.301651174
100
AcDbArc
 50
27.5358649068
 51
89.9997848611
  0
ARC
  5
43E
100
AcDbEntity
  8
ASSI
100
AcDbCircle
 62
250
  6
CONTINUOUS
 10
153.5913235286
 20
182.1856941792
 40
1.301651174
100
AcDbArc
 50
27.5358649058
 51
89.999784861
  0
ARC
  5
43F
100
AcDbEntity
  8
RACCORDO
100
AcDbCircle
 62
250
  6
CONTINUOUS
 10
109.5071681552
 20
182.185703525
 40
1.3016418283
100
AcDbArc
 50
90.0000662685
 51
152.4632813312
  0
ARC
  5
440
100
AcDbEntity
  8
RACCORDO
100
AcDbCircle
 62
250
  6
CONTINUOUS
 10
180.5071681552
 20
182.185703525
 40
1.3016418283
100
AcDbArc
 50
90.0000662684
 51
152.4632813308
  0
ARC
  5
441
100
AcDbEntity
  8
ASSI
100
AcDbCircle
 62
250
  6
CONTINUOUS
 10
180.5071681552
 20
182.185703525
 40
1.3016418283
100
AcDbArc
 50
90.0000662684
 51
152.4632813308
  0
ARC
  5
442
100
AcDbEntity
  8
ASSI
100
AcDbCircle
 62
250
  6
CONTINUOUS
 10
109.5071681552
 20
182.185703525
 40
1.3016418283
100
AcDbArc
 50
90.0000662685
 51
152.4632813312
  0
ARC
  5
443
100
AcDbEntity
  8
RACCORDO
100
AcDbCircle
 62
250
  6
CONTINUOUS
 10
153.5950551545
 20
182.1864835781
 40
1.2979742664
100
AcDbArc
 50
0.1486541272
 51
27.5811979241
  0
ARC
  5
444
100
AcDbEntity
  8
RACCORDO
100
AcDbCircle
 62
250
  6
CONTINUOUS
 10
224.5950551545
 20
182.1864835781
 40
1.2979742664
100
AcDbArc
 50
0.1486541274
 51
27.5811979248
  0
ARC
  5
445
100
AcDbEntity
  8
ASSI
100
AcDbCircle
 62
250
  6
CONTINUOUS
 10
153.5950551545
 20
182.1864835781
 40
1.2979742664
100
AcDbArc
 50
0.1486541272
 51
27.5811979241
  0
ARC
  5
446
100
AcDbEntity
  8
ASSI
100
AcDbCircle
 62
250
  6
CONTINUOUS
 10
224.5950551545
 20
182.1864835781
 40
1.2979742664
100
AcDbArc
 50
0.1486541274
 51
27.5811979248
  0
ARC
  5
447
100
AcDbEntity
  8
RACCORDO
100
AcDbCircle
 62
250
  6
CONTINUOUS
 10
180.5034022911
 20
182.1864960165
 40
1.2979366141
100
AcDbArc
 50
152.4174464832
 51
179.8518906385
  0
ARC
  5
448
100
AcDbEntity
  8
RACCORDO
100
AcDbCircle
 62
250
  6
CONTINUOUS
 10
109.5034022911
 20
182.1864960165
 40
1.2979366141
100
AcDbArc
 50
152.4174464834
 51
179.8518906386
  0
ARC
  5
449
100
AcDbEntity
  8
ASSI
100
AcDbCircle
 62
250
  6
CONTINUOUS
 10
180.5034022911
 20
182.1864960165
 40
1.2979366141
100
AcDbArc
 50
152.4174464832
 51
179.8518906385
  0
ARC
  5
44A
100
AcDbEntity
  8
ASSI
100
AcDbCircle
 62
250
  6
CONTINUOUS
 10
109.5034022911
 20
182.1864960165
 40
1.2979366141
100
AcDbArc
 50
152.4174464834
 51
179.8518906386
  0
ARC
  5
44B
100
AcDbEntity
  8
RACCORDO
100
AcDbCircle
 62
250
  6
CONTINUOUS
 10
224.5985969354
 20
182.1633854528
 40
0.7951157212
100
AcDbArc
 50
0.140814633
 51
27.6655319387
  0
ARC
  5
44C
100
AcDbEntity
  8
RACCORDO
100
AcDbCircle
 62
250
  6
CONTINUOUS
 10
153.5985969354
 20
182.1633854528
 40
0.7951157212
100
AcDbArc
 50
0.140814633
 51
27.6655319387
  0
ARC
  5
44D
100
AcDbEntity
  8
ASSI
100
AcDbCircle
 62
250
  6
CONTINUOUS
 10
224.5985969354
 20
182.1633854528
 40
0.7951157212
100
AcDbArc
 50
0.140814633
 51
27.6655319387
  0
ARC
  5
44E
100
AcDbEntity
  8
ASSI
100
AcDbCircle
 62
250
  6
CONTINUOUS
 10
153.5985969354
 20
182.1633854528
 40
0.7951157212
100
AcDbArc
 50
0.140814633
 51
27.6655319387
  0
ARC
  5
44F
100
AcDbEntity
  8
RACCORDO
100
AcDbCircle
 62
250
  6
CONTINUOUS
 10
180.499858594
 20
182.1633952433
 40
0.7950761592
100
AcDbArc
 50
152.3337700604
 51
179.8597448321
  0
ARC
  5
450
100
AcDbEntity
  8
RACCORDO
100
AcDbCircle
 62
250
  6
CONTINUOUS
 10
109.499858594
 20
182.1633952433
 40
0.7950761592
100
AcDbArc
 50
152.3337700604
 51
179.859744832
  0
ARC
  5
451
100
AcDbEntity
  8
ASSI
100
AcDbCircle
 62
250
  6
CONTINUOUS
 10
180.499858594
 20
182.1633952433
 40
0.7950761592
100
AcDbArc
 50
152.3337700604
 51
179.8597448321
  0
ARC
  5
452
100
AcDbEntity
  8
ASSI
100
AcDbCircle
 62
250
  6
CONTINUOUS
 10
109.499858594
 20
182.1633952433
 40
0.7950761592
100
AcDbArc
 50
152.3337700604
 51
179.859744832
  0
ARC
  5
453
100
AcDbEntity
  8
RACCORDO
100
AcDbCircle
 62
250
  6
CONTINUOUS
 10
3511.9453010577
 20
145.5841528616
 40
3122.9638712261
100
AcDbArc
 50
180.1491953099
 51
180.5391964915
  0
ARC
  5
454
100
AcDbEntity
  8
ASSI
100
AcDbCircle
 62
250
  6
CONTINUOUS
 10
3511.9453010577
 20
145.5841528616
 40
3122.9638712261
100
AcDbArc
 50
180.1491953099
 51
180.5391964915
  0
ARC
  5
455
100
AcDbEntity
  8
RACCORDO
100
AcDbCircle
 62
250
  6
CONTINUOUS
 10
3501.0608374384
 20
145.5846653133
 40
3111.7798186157
100
AcDbArc
 50
180.1494637781
 51
180.5401643379
  0
ARC
  5
456
100
AcDbEntity
  8
ASSI
100
AcDbCircle
 62
250
  6
CONTINUOUS
 10
3501.0608374384
 20
145.5846653133
 40
3111.7798186157
100
AcDbArc
 50
180.1494637781
 51
180.5401643379
  0
ARC
  5
457
100
AcDbEntity
  8
RACCORDO
100
AcDbCircle
 62
250
  6
CONTINUOUS
 10
251.5071695615
 20
138.0538382679
 40
1.3016441474
100
AcDbArc
 50
207.5367805715
 51
269.9998718295
  0
ARC
  5
458
100
AcDbEntity
  8
RACCORDO
100
AcDbCircle
 62
250
  6
CONTINUOUS
 10
322.5071695615
 20
138.0538382679
 40
1.3016441474
100
AcDbArc
 50
207.5367805715
 51
269.9998718295
  0
ARC
  5
459
100
AcDbEntity
  8
ASSI
100
AcDbCircle
 62
250
  6
CONTINUOUS
 10
251.5071695615
 20
138.0538382679
 40
1.3016441474
100
AcDbArc
 50
207.5367805715
 51
269.9998718295
  0
ARC
  5
45A
100
AcDbEntity
  8
ASSI
100
AcDbCircle
 62
250
  6
CONTINUOUS
 10
322.5071695615
 20
138.0538382679
 40
1.3016441474
100
AcDbArc
 50
207.5367805715
 51
269.9998718295
  0
ARC
  5
45B
100
AcDbEntity
  8
RACCORDO
100
AcDbCircle
 62
250
  6
CONTINUOUS
 10
295.5913269106
 20
138.0538359487
 40
1.3016418282
100
AcDbArc
 50
270.000066268
 51
332.463281331
  0
ARC
  5
45C
100
AcDbEntity
  8
RACCORDO
100
AcDbCircle
 62
250
  6
CONTINUOUS
 10
366.5913269106
 20
138.0538359487
 40
1.3016418282
100
AcDbArc
 50
270.000066268
 51
332.4632813316
  0
ARC
  5
45D
100
AcDbEntity
  8
ASSI
100
AcDbCircle
 62
250
  6
CONTINUOUS
 10
295.5913269106
 20
138.0538359487
 40
1.3016418282
100
AcDbArc
 50
270.000066268
 51
332.463281331
  0
ARC
  5
45E
100
AcDbEntity
  8
ASSI
100
AcDbCircle
 62
250
  6
CONTINUOUS
 10
366.5913269106
 20
138.0538359487
 40
1.3016418282
100
AcDbArc
 50
270.000066268
 51
332.4632813316
  0
ARC
  5
45F
100
AcDbEntity
  8
RACCORDO
100
AcDbCircle
 62
250
  6
CONTINUOUS
 10
251.5034592338
 20
138.0530575125
 40
1.2979935931
100
AcDbArc
 50
180.1487232904
 51
207.5819395881
  0
ARC
  5
460
100
AcDbEntity
  8
RACCORDO
100
AcDbCircle
 62
250
  6
CONTINUOUS
 10
322.5034592338
 20
138.0530575125
 40
1.2979935931
100
AcDbArc
 50
180.1487232904
 51
207.5819395881
  0
ARC
  5
461
100
AcDbEntity
  8
ASSI
100
AcDbCircle
 62
250
  6
CONTINUOUS
 10
251.5034592338
 20
138.0530575125
 40
1.2979935931
100
AcDbArc
 50
180.1487232904
 51
207.5819395881
  0
ARC
  5
462
100
AcDbEntity
  8
ASSI
100
AcDbCircle
 62
250
  6
CONTINUOUS
 10
322.5034592338
 20
138.0530575125
 40
1.2979935931
100
AcDbArc
 50
180.1487232904
 51
207.5819395881
  0
ARC
  5
463
100
AcDbEntity
  8
RACCORDO
100
AcDbCircle
 62
250
  6
CONTINUOUS
 10
295.5950992472
 20
138.0530418595
 40
1.2979301375
100
AcDbArc
 50
332.4173766964
 51
359.8519604251
  0
ARC
  5
464
100
AcDbEntity
  8
RACCORDO
100
AcDbCircle
 62
250
  6
CONTINUOUS
 10
366.5950992472
 20
138.0530418595
 40
1.2979301375
100
AcDbArc
 50
332.4173766968
 51
359.8519604252
  0
ARC
  5
465
100
AcDbEntity
  8
ASSI
100
AcDbCircle
 62
250
  6
CONTINUOUS
 10
295.5950992472
 20
138.0530418595
 40
1.2979301375
100
AcDbArc
 50
332.4173766964
 51
359.8519604251
  0
ARC
  5
466
100
AcDbEntity
  8
ASSI
100
AcDbCircle
 62
250
  6
CONTINUOUS
 10
366.5950992472
 20
138.0530418595
 40
1.2979301375
100
AcDbArc
 50
332.4173766968
 51
359.8519604252
  0
ARC
  5
467
100
AcDbEntity
  8
RACCORDO
100
AcDbCircle
 62
250
  6
CONTINUOUS
 10
322.4998981195
 20
138.076154019
 40
0.7951157107
100
AcDbArc
 50
180.1407307485
 51
207.6655321808
  0
ARC
  5
468
100
AcDbEntity
  8
RACCORDO
100
AcDbCircle
 62
250
  6
CONTINUOUS
 10
251.4998981195
 20
138.076154019
 40
0.7951157107
100
AcDbArc
 50
180.1407307485
 51
207.6655321808
  0
ARC
  5
469
100
AcDbEntity
  8
ASSI
100
AcDbCircle
 62
250
  6
CONTINUOUS
 10
322.4998981195
 20
138.076154019
 40
0.7951157107
100
AcDbArc
 50
180.1407307485
 51
207.6655321808
  0
ARC
  5
46A
100
AcDbEntity
  8
ASSI
100
AcDbCircle
 62
250
  6
CONTINUOUS
 10
251.4998981195
 20
138.076154019
 40
0.7951157107
100
AcDbArc
 50
180.1407307485
 51
207.6655321808
  0
ARC
  5
46B
100
AcDbEntity
  8
RACCORDO
100
AcDbCircle
 62
250
  6
CONTINUOUS
 10
366.5986372686
 20
138.0761440329
 40
0.7950753618
100
AcDbArc
 50
332.3337560065
 51
359.8597354253
  0
ARC
  5
46C
100
AcDbEntity
  8
RACCORDO
100
AcDbCircle
 62
250
  6
CONTINUOUS
 10
295.5986372686
 20
138.0761440329
 40
0.7950753618
100
AcDbArc
 50
332.3337560065
 51
359.8597354253
  0
ARC
  5
46D
100
AcDbEntity
  8
ASSI
100
AcDbCircle
 62
250
  6
CONTINUOUS
 10
366.5986372686
 20
138.0761440329
 40
0.7950753618
100
AcDbArc
 50
332.3337560065
 51
359.8597354253
  0
ARC
  5
46E
100
AcDbEntity
  8
ASSI
100
AcDbCircle
 62
250
  6
CONTINUOUS
 10
295.5986372686
 20
138.0761440329
 40
0.7950753618
100
AcDbArc
 50
332.3337560065
 51
359.8597354253
  0
ARC
  5
46F
100
AcDbEntity
  8
RACCORDO
100
AcDbCircle
 62
250
  6
CONTINUOUS
 10
3534.9278516332
 20
174.5173206396
 40
3145.9467043735
100
AcDbArc
 50
179.4622280973
 51
179.8493801047
  0
ARC
  5
470
100
AcDbEntity
  8
ASSI
100
AcDbCircle
 62
250
  6
CONTINUOUS
 10
3534.9278516332
 20
174.5173206396
 40
3145.9467043735
100
AcDbArc
 50
179.4622280973
 51
179.8493801047
  0
ARC
  5
471
100
AcDbEntity
  8
RACCORDO
100
AcDbCircle
 62
250
  6
CONTINUOUS
 10
3523.954684434
 20
174.5170941064
 40
3134.6739481047
100
AcDbArc
 50
179.4612624107
 51
179.8491094733
  0
ARC
  5
472
100
AcDbEntity
  8
ASSI
100
AcDbCircle
 62
250
  6
CONTINUOUS
 10
3523.954684434
 20
174.5170941064
 40
3134.6739481047
100
AcDbArc
 50
179.4612624107
 51
179.8491094733
  0
ARC
  5
473
100
AcDbEntity
  8
RACCORDO
100
AcDbCircle
 62
250
  6
CONTINUOUS
 10
366.5913235286
 20
182.1856941792
 40
1.301651174
100
AcDbArc
 50
27.535864907
 51
89.9997848611
  0
ARC
  5
474
100
AcDbEntity
  8
RACCORDO
100
AcDbCircle
 62
250
  6
CONTINUOUS
 10
295.5913235286
 20
182.1856941792
 40
1.301651174
100
AcDbArc
 50
27.5358649076
 51
89.9997848611
  0
ARC
  5
475
100
AcDbEntity
  8
ASSI
100
AcDbCircle
 62
250
  6
CONTINUOUS
 10
295.5913235286
 20
182.1856941792
 40
1.301651174
100
AcDbArc
 50
27.5358649076
 51
89.9997848611
  0
ARC
  5
476
100
AcDbEntity
  8
ASSI
100
AcDbCircle
 62
250
  6
CONTINUOUS
 10
366.5913235286
 20
182.1856941792
 40
1.301651174
100
AcDbArc
 50
27.535864907
 51
89.9997848611
  0
ARC
  5
477
100
AcDbEntity
  8
RACCORDO
100
AcDbCircle
 62
250
  6
CONTINUOUS
 10
322.5071681552
 20
182.185703525
 40
1.3016418283
100
AcDbArc
 50
90.0000662684
 51
152.4632813308
  0
ARC
  5
478
100
AcDbEntity
  8
RACCORDO
100
AcDbCircle
 62
250
  6
CONTINUOUS
 10
251.5071681552
 20
182.185703525
 40
1.3016418283
100
AcDbArc
 50
90.0000662684
 51
152.4632813308
  0
ARC
  5
479
100
AcDbEntity
  8
ASSI
100
AcDbCircle
 62
250
  6
CONTINUOUS
 10
251.5071681552
 20
182.185703525
 40
1.3016418283
100
AcDbArc
 50
90.0000662684
 51
152.4632813308
  0
ARC
  5
47A
100
AcDbEntity
  8
ASSI
100
AcDbCircle
 62
250
  6
CONTINUOUS
 10
322.5071681552
 20
182.185703525
 40
1.3016418283
100
AcDbArc
 50
90.0000662684
 51
152.4632813308
  0
ARC
  5
47B
100
AcDbEntity
  8
RACCORDO
100
AcDbCircle
 62
250
  6
CONTINUOUS
 10
295.5950551545
 20
182.1864835781
 40
1.2979742664
100
AcDbArc
 50
0.1486541275
 51
27.5811979255
  0
ARC
  5
47C
100
AcDbEntity
  8
RACCORDO
100
AcDbCircle
 62
250
  6
CONTINUOUS
 10
366.5950551545
 20
182.1864835781
 40
1.2979742664
100
AcDbArc
 50
0.1486541275
 51
27.5811979254
  0
ARC
  5
47D
100
AcDbEntity
  8
ASSI
100
AcDbCircle
 62
250
  6
CONTINUOUS
 10
295.5950551545
 20
182.1864835781
 40
1.2979742664
100
AcDbArc
 50
0.1486541275
 51
27.5811979255
  0
ARC
  5
47E
100
AcDbEntity
  8
ASSI
100
AcDbCircle
 62
250
  6
CONTINUOUS
 10
366.5950551545
 20
182.1864835781
 40
1.2979742664
100
AcDbArc
 50
0.1486541275
 51
27.5811979254
  0
ARC
  5
47F
100
AcDbEntity
  8
RACCORDO
100
AcDbCircle
 62
250
  6
CONTINUOUS
 10
251.5034022911
 20
182.1864960165
 40
1.2979366141
100
AcDbArc
 50
152.4174464832
 51
179.8518906385
  0
ARC
  5
480
100
AcDbEntity
  8
RACCORDO
100
AcDbCircle
 62
250
  6
CONTINUOUS
 10
322.5034022911
 20
182.1864960165
 40
1.2979366141
100
AcDbArc
 50
152.4174464832
 51
179.8518906384
  0
ARC
  5
481
100
AcDbEntity
  8
ASSI
100
AcDbCircle
 62
250
  6
CONTINUOUS
 10
251.5034022911
 20
182.1864960165
 40
1.2979366141
100
AcDbArc
 50
152.4174464832
 51
179.8518906385
  0
ARC
  5
482
100
AcDbEntity
  8
ASSI
100
AcDbCircle
 62
250
  6
CONTINUOUS
 10
322.5034022911
 20
182.1864960165
 40
1.2979366141
100
AcDbArc
 50
152.4174464832
 51
179.8518906384
  0
ARC
  5
483
100
AcDbEntity
  8
RACCORDO
100
AcDbCircle
 62
250
  6
CONTINUOUS
 10
366.5985969354
 20
182.1633854528
 40
0.7951157212
100
AcDbArc
 50
0.140814633
 51
27.6655319388
  0
ARC
  5
484
100
AcDbEntity
  8
RACCORDO
100
AcDbCircle
 62
250
  6
CONTINUOUS
 10
295.5985969354
 20
182.1633854528
 40
0.7951157212
100
AcDbArc
 50
0.140814633
 51
27.6655319387
  0
ARC
  5
485
100
AcDbEntity
  8
ASSI
100
AcDbCircle
 62
250
  6
CONTINUOUS
 10
366.5985969354
 20
182.1633854528
 40
0.7951157212
100
AcDbArc
 50
0.140814633
 51
27.6655319388
  0
ARC
  5
486
100
AcDbEntity
  8
ASSI
100
AcDbCircle
 62
250
  6
CONTINUOUS
 10
295.5985969354
 20
182.1633854528
 40
0.7951157212
100
AcDbArc
 50
0.140814633
 51
27.6655319387
  0
ARC
  5
487
100
AcDbEntity
  8
RACCORDO
100
AcDbCircle
 62
250
  6
CONTINUOUS
 10
322.499858594
 20
182.1633952433
 40
0.7950761592
100
AcDbArc
 50
152.3337700604
 51
179.8597448321
  0
ARC
  5
488
100
AcDbEntity
  8
RACCORDO
100
AcDbCircle
 62
250
  6
CONTINUOUS
 10
251.499858594
 20
182.1633952433
 40
0.7950761592
100
AcDbArc
 50
152.3337700604
 51
179.8597448321
  0
ARC
  5
489
100
AcDbEntity
  8
ASSI
100
AcDbCircle
 62
250
  6
CONTINUOUS
 10
322.499858594
 20
182.1633952433
 40
0.7950761592
100
AcDbArc
 50
152.3337700604
 51
179.8597448321
  0
ARC
  5
48A
100
AcDbEntity
  8
ASSI
100
AcDbCircle
 62
250
  6
CONTINUOUS
 10
251.499858594
 20
182.1633952433
 40
0.7950761592
100
AcDbArc
 50
152.3337700604
 51
179.8597448321
  0
ARC
  5
48B
100
AcDbEntity
  8
RACCORDO
100
AcDbCircle
 62
250
  6
CONTINUOUS
 10
8839.7918420751
 20
160.1197697368
 40
8589.6147254461
100
AcDbArc
 50
179.85278456
 51
180.14721544
  0
ARC
  5
48C
100
AcDbEntity
  8
RACCORDO
100
AcDbCircle
 62
250
  6
CONTINUOUS
 10
8910.7918420751
 20
160.1197697368
 40
8589.6147254461
100
AcDbArc
 50
179.85278456
 51
180.14721544
  0
ARC
  5
48D
100
AcDbEntity
  8
ASSI
100
AcDbCircle
 62
250
  6
CONTINUOUS
 10
8839.7918420751
 20
160.1197697368
 40
8589.6147254461
100
AcDbArc
 50
179.85278456
 51
180.14721544
  0
ARC
  5
48E
100
AcDbEntity
  8
ASSI
100
AcDbCircle
 62
250
  6
CONTINUOUS
 10
8910.7918420751
 20
160.1197697368
 40
8589.6147254461
100
AcDbArc
 50
179.85278456
 51
180.14721544
  0
ARC
  5
48F
100
AcDbEntity
  8
RACCORDO
100
AcDbCircle
 62
250
  6
CONTINUOUS
 10
8768.7918420533
 20
160.1197697368
 40
8589.6147254243
100
AcDbArc
 50
179.85278456
 51
180.14721544
  0
ARC
  5
490
100
AcDbEntity
  8
ASSI
100
AcDbCircle
 62
250
  6
CONTINUOUS
 10
8768.7918420533
 20
160.1197697368
 40
8589.6147254243
100
AcDbArc
 50
179.85278456
 51
180.14721544
  0
ARC
  5
491
100
AcDbEntity
  8
RACCORDO
100
AcDbCircle
 62
250
  6
CONTINUOUS
 10
8697.7918420268
 20
160.1197697368
 40
8589.6147253978
100
AcDbArc
 50
179.85278456
 51
180.14721544
  0
ARC
  5
492
100
AcDbEntity
  8
ASSI
100
AcDbCircle
 62
250
  6
CONTINUOUS
 10
8697.7918420268
 20
160.1197697368
 40
8589.6147253978
100
AcDbArc
 50
179.85278456
 51
180.14721544
  0
ARC
  5
493
100
AcDbEntity
  8
RACCORDO
100
AcDbCircle
 62
250
  6
CONTINUOUS
 10
8974.3882286949
 20
160.119769702
 40
8585.4261352064
100
AcDbArc
 50
179.8487248029
 51
180.1512751985
  0
ARC
  5
494
100
AcDbEntity
  8
ASSI
100
AcDbCircle
 62
250
  6
CONTINUOUS
 10
8974.3882286949
 20
160.119769702
 40
8585.4261352064
100
AcDbArc
 50
179.8487248029
 51
180.1512751985
  0
ARC
  5
495
100
AcDbEntity
  8
RACCORDO
100
AcDbCircle
 62
250
  6
CONTINUOUS
 10
8963.2588713922
 20
160.1197697368
 40
8573.9971890307
100
AcDbArc
 50
179.8486237562
 51
180.1513762438
  0
ARC
  5
496
100
AcDbEntity
  8
ASSI
100
AcDbCircle
 62
250
  6
CONTINUOUS
 10
8963.2588713922
 20
160.1197697368
 40
8573.9971890307
100
AcDbArc
 50
179.8486237562
 51
180.1513762438
  0
ARC
  5
497
100
AcDbEntity
  8
RACCORDO
100
AcDbCircle
 62
250
  6
CONTINUOUS
 10
8750.2164489135
 20
160.1197701237
 40
8570.5400175154
100
AcDbArc
 50
179.8526207696
 51
180.1473792148
  0
ARC
  5
498
100
AcDbEntity
  8
RACCORDO
100
AcDbCircle
 62
250
  6
CONTINUOUS
 10
8821.2164489135
 20
160.1197701237
 40
8570.5400175154
100
AcDbArc
 50
179.8526207696
 51
180.1473792148
  0
ARC
  5
499
100
AcDbEntity
  8
RACCORDO
100
AcDbCircle
 62
250
  6
CONTINUOUS
 10
8892.2164489135
 20
160.1197701237
 40
8570.5400175154
100
AcDbArc
 50
179.8526207696
 51
180.1473792148
  0
ARC
  5
49A
100
AcDbEntity
  8
ASSI
100
AcDbCircle
 62
250
  6
CONTINUOUS
 10
8750.2164489135
 20
160.1197701237
 40
8570.5400175154
100
AcDbArc
 50
179.8526207696
 51
180.1473792148
  0
ARC
  5
49B
100
AcDbEntity
  8
ASSI
100
AcDbCircle
 62
250
  6
CONTINUOUS
 10
8821.2164489135
 20
160.1197701237
 40
8570.5400175154
100
AcDbArc
 50
179.8526207696
 51
180.1473792148
  0
ARC
  5
49C
100
AcDbEntity
  8
ASSI
100
AcDbCircle
 62
250
  6
CONTINUOUS
 10
8892.2164489135
 20
160.1197701237
 40
8570.5400175154
100
AcDbArc
 50
179.8526207696
 51
180.1473792148
  0
ARC
  5
49D
100
AcDbEntity
  8
RACCORDO
100
AcDbCircle
 62
250
  6
CONTINUOUS
 10
8679.2164489063
 20
160.1197701237
 40
8570.5400175082
100
AcDbArc
 50
179.8526207696
 51
180.1473792148
  0
ARC
  5
49E
100
AcDbEntity
  8
ASSI
100
AcDbCircle
 62
250
  6
CONTINUOUS
 10
8679.2164489063
 20
160.1197701237
 40
8570.5400175082
100
AcDbArc
 50
179.8526207696
 51
180.1473792148
  0
ARC
  5
49F
100
AcDbEntity
  8
RACCORDO
100
AcDbCircle
 62
7
  6
CONTINUOUS
 10
48.8065104989
 20
115.5425555469
 40
0.3
100
AcDbArc
 50
190.4607001548
 51
267.0001089524
  0
ARC
  5
4A0
100
AcDbEntity
  8
ASSI
100
AcDbCircle
 62
7
  6
CONTINUOUS
 10
48.8065104989
 20
115.5425555469
 40
0.3
100
AcDbArc
 50
190.4607001548
 51
267.0001089524
  0
ARC
  5
4A1
100
AcDbEntity
  8
RACCORDO
100
AcDbCircle
 62
250
  6
CONTINUOUS
 10
50.8783912794
 20
121.7761115906
 40
5.66314252
100
AcDbArc
 50
272.6629413453
 51
287.2574599124
  0
ARC
  5
4A2
100
AcDbEntity
  8
ASSI
100
AcDbCircle
 62
250
  6
CONTINUOUS
 10
50.8783912794
 20
121.7761115906
 40
5.66314252
100
AcDbArc
 50
272.6629413453
 51
287.2574599124
  0
ARC
  5
4A3
100
AcDbEntity
  8
RACCORDO
100
AcDbCircle
 62
7
  6
CONTINUOUS
 10
50.8700231223
 20
120.799913223
 40
5.1872524353
100
AcDbArc
 50
273.0
 51
306.3076476318
  0
ARC
  5
4A4
100
AcDbEntity
  8
ASSI
100
AcDbCircle
 62
7
  6
CONTINUOUS
 10
50.8700231223
 20
120.799913223
 40
5.1872524353
100
AcDbArc
 50
273.0
 51
306.3076476318
  0
ARC
  5
4A5
100
AcDbEntity
  8
0
100
AcDbCircle
 62
7
  6
CONTINUOUS
 10
52.1415029387
 20
156.7875896631
 40
0.2
100
AcDbArc
 50
180.0
 51
260.0
  0
ARC
  5
4A6
100
AcDbEntity
  8
ASSI
100
AcDbCircle
 62
7
  6
CONTINUOUS
 10
52.1415029387
 20
156.7875896631
 40
0.2
100
AcDbArc
 50
180.0
 51
260.0
  0
ARC
  5
4A7
100
AcDbEntity
  8
RACCORDO
100
AcDbCircle
 62
7
  6
CONTINUOUS
 10
213.1621947063
 20
145.8861259455
 40
167.4332498099
100
AcDbArc
 50
182.8873441233
 51
190.4602411505
  0
ARC
  5
4A8
100
AcDbEntity
  8
ASSI
100
AcDbCircle
 62
7
  6
CONTINUOUS
 10
213.1621947063
 20
145.8861259455
 40
167.4332498099
100
AcDbArc
 50
182.8873441233
 51
190.4602411505
  0
ARC
  5
4A9
100
AcDbEntity
  8
RACCORDO
100
AcDbCircle
 62
250
  6
CONTINUOUS
 10
213.1456606901
 20
145.8860302622
 40
167.1324128186
100
AcDbArc
 50
182.8873454027
 51
190.2143127301
  0
ARC
  5
4AA
100
AcDbEntity
  8
ASSI
100
AcDbCircle
 62
250
  6
CONTINUOUS
 10
213.1456606901
 20
145.8860302622
 40
167.1324128186
100
AcDbArc
 50
182.8873454027
 51
190.2143127301
  0
ARC
  5
4AB
100
AcDbEntity
  8
0
100
AcDbCircle
 62
7
  6
CONTINUOUS
 10
52.1415029387
 20
163.4519498106
 40
0.2
100
AcDbArc
 50
100.0
 51
180.0
  0
ARC
  5
4AC
100
AcDbEntity
  8
ASSI
100
AcDbCircle
 62
7
  6
CONTINUOUS
 10
52.1415029387
 20
163.4519498106
 40
0.2
100
AcDbArc
 50
100.0
 51
180.0
  0
ARC
  5
4AD
100
AcDbEntity
  8
RACCORDO
100
AcDbCircle
 62
7
  6
CONTINUOUS
 10
48.8065109464
 20
204.6969862881
 40
0.3
100
AcDbArc
 50
93.0
 51
169.5397588495
  0
ARC
  5
4AE
100
AcDbEntity
  8
ASSI
100
AcDbCircle
 62
7
  6
CONTINUOUS
 10
48.8065109464
 20
204.6969862881
 40
0.3
100
AcDbArc
 50
93.0
 51
169.5397588495
  0
ARC
  5
4AF
100
AcDbEntity
  8
RACCORDO
100
AcDbCircle
 62
250
  6
CONTINUOUS
 10
50.8736231775
 20
198.4362789592
 40
5.690484731
100
AcDbArc
 50
72.7774206789
 51
87.301801844
  0
ARC
  5
4B0
100
AcDbEntity
  8
ASSI
100
AcDbCircle
 62
250
  6
CONTINUOUS
 10
50.8736231775
 20
198.4362789592
 40
5.690484731
100
AcDbArc
 50
72.7774206789
 51
87.301801844
  0
ARC
  5
4B1
100
AcDbEntity
  8
RACCORDO
100
AcDbCircle
 62
7
  6
CONTINUOUS
 10
50.8700231223
 20
199.4396262507
 40
5.1872524353
100
AcDbArc
 50
53.6923513329
 51
86.9999997702
  0
ARC
  5
4B2
100
AcDbEntity
  8
ASSI
100
AcDbCircle
 62
7
  6
CONTINUOUS
 10
50.8700231223
 20
199.4396262507
 40
5.1872524353
100
AcDbArc
 50
53.6923513329
 51
86.9999997702
  0
ARC
  5
4B3
100
AcDbEntity
  8
RACCORDO
100
AcDbCircle
 62
7
  6
CONTINUOUS
 10
213.1621947063
 20
174.3534135281
 40
167.4332498099
100
AcDbArc
 50
169.5397588495
 51
177.1126559725
  0
ARC
  5
4B4
100
AcDbEntity
  8
ASSI
100
AcDbCircle
 62
7
  6
CONTINUOUS
 10
213.1621947063
 20
174.3534135281
 40
167.4332498099
100
AcDbArc
 50
169.5397588495
 51
177.1126559725
  0
ARC
  5
4B5
100
AcDbEntity
  8
0
100
AcDbCircle
 62
250
  6
CONTINUOUS
 10
213.1621947063
 20
174.3534135281
 40
167.4332498099
100
AcDbArc
 50
176.2280584927
 51
176.9861086633
  0
ARC
  5
4B6
100
AcDbEntity
  8
RACCORDO
100
AcDbCircle
 62
250
  6
CONTINUOUS
 10
213.1456506053
 20
174.3535103696
 40
167.1324026882
100
AcDbArc
 50
169.7856870475
 51
177.1126548196
  0
ARC
  5
4B7
100
AcDbEntity
  8
ASSI
100
AcDbCircle
 62
250
  6
CONTINUOUS
 10
213.1456506053
 20
174.3535103696
 40
167.1324026882
100
AcDbArc
 50
169.7856870475
 51
177.1126548196
  0
ARC
  5
4B8
100
AcDbEntity
  8
RACCORDO
100
AcDbCircle
 62
7
  6
CONTINUOUS
 10
495.3702238221
 20
160.1197697368
 40
450.0
100
AcDbArc
 50
177.112643573
 51
182.8873564627
  0
ARC
  5
4B9
100
AcDbEntity
  8
ASSI
100
AcDbCircle
 62
7
  6
CONTINUOUS
 10
495.3702238221
 20
160.1197697368
 40
450.0
100
AcDbArc
 50
177.112643573
 51
182.8873564627
  0
ARC
  5
4BA
100
AcDbEntity
  8
0
100
AcDbCircle
 62
250
  6
CONTINUOUS
 10
495.3702238221
 20
160.1197697368
 40
450.0
100
AcDbArc
 50
178.0061469249
 51
178.209801317
  0
ARC
  5
4BB
100
AcDbEntity
  8
0
100
AcDbCircle
 62
250
  6
CONTINUOUS
 10
495.3702238221
 20
160.1197697368
 40
450.0
100
AcDbArc
 50
177.4544485266
 51
177.5902711615
  0
ARC
  5
4BC
100
AcDbEntity
  8
RACCORDO
100
AcDbCircle
 62
250
  6
CONTINUOUS
 10
495.3545230355
 20
160.1197697368
 40
449.7000000003
100
AcDbArc
 50
177.1126362257
 51
182.8873637743
  0
ARC
  5
4BD
100
AcDbEntity
  8
ASSI
100
AcDbCircle
 62
250
  6
CONTINUOUS
 10
495.3545230355
 20
160.1197697368
 40
449.7000000003
100
AcDbArc
 50
177.1126362257
 51
182.8873637743
  0
SPLINE
  5
4BE
100
AcDbEntity
  8
RACCORDO
100
AcDbSpline
 62
250
  6
CONTINUOUS
 70
0
 71
3
 72
11
 73
7
 74
0
 42
0.0000001
 43
0.0000001
 44
0.0000000001
 40
0.0
 40
0.0
 40
0.0
 40
0.0
 40
0.2518127979
 40
0.5024855629
 40
0.7516902237
 40
1.0
 40
1.0
 40
1.0
 40
1.0
 10
87.671071656
 20
204.7514522417
 30
0.0
 10
87.5792458073
 20
204.7514575608
 30
0.0
 10
87.3938616108
 20
204.7139933802
 30
0.0
 10
87.1623720742
 20
204.5541066291
 30
0.0
 10
87.0113549573
 20
204.318633475
 30
0.0
 10
86.977925288
 20
204.1349422695
 30
0.0
 10
86.9787778347
 20
204.0443978433
 30
0.0
  0
SPLINE
  5
4BF
100
AcDbEntity
  8
RACCORDO
100
AcDbSpline
 62
250
  6
CONTINUOUS
 70
0
 71
3
 72
11
 73
7
 74
0
 42
0.0000001
 43
0.0000001
 44
0.0000000001
 40
0.0
 40
0.0
 40
0.0
 40
0.0
 40
0.2483099529
 40
0.4975145361
 40
0.7481871248
 40
1.0
 40
1.0
 40
1.0
 40
1.0
 10
389.1197172311
 20
204.0443978433
 30
0.0
 10
389.1205748659
 20
204.1349422874
 30
0.0
 10
389.0871382236
 20
204.3186339227
 30
0.0
 10
388.9361236149
 20
204.554105907
 30
0.0
 10
388.7046331578
 20
204.7139957035
 30
0.0
 10
388.5192492883
 20
204.7514514753
 30
0.0
 10
388.4274234098
 20
204.7514522417
 30
0.0
  0
SPLINE
  5
4C0
100
AcDbEntity
  8
RACCORDO
100
AcDbSpline
 62
250
  6
CONTINUOUS
 70
0
 71
3
 72
11
 73
7
 74
0
 42
0.0000001
 43
0.0000001
 44
0.0000000001
 40
0.0
 40
0.0
 40
0.0
 40
0.0
 40
0.2494354361
 40
0.4990868433
 40
0.749275709
 40
1.0
 40
1.0
 40
1.0
 40
1.0
 10
86.6791889743
 20
116.248340713
 30
0.0
 10
86.6784313865
 20
116.1186230709
 30
0.0
 10
86.7279170698
 20
115.855960111
 30
0.0
 10
86.9463966038
 20
115.5214750986
 30
0.0
 10
87.2772631347
 20
115.2959451327
 30
0.0
 10
87.540681572
 20
115.2430718575
 30
0.0
 10
87.671071656
 20
115.2429643252
 30
0.0
  0
SPLINE
  5
4C1
100
AcDbEntity
  8
RACCORDO
100
AcDbSpline
 62
250
  6
CONTINUOUS
 70
0
 71
3
 72
11
 73
7
 74
0
 42
0.0000001
 43
0.0000001
 44
0.0000000001
 40
0.0
 40
0.0
 40
0.0
 40
0.0
 40
0.2507240694
 40
0.500913044
 40
0.7505645635
 40
1.0
 40
1.0
 40
1.0
 40
1.0
 10
87.671071656
 20
204.9965751485
 30
0.0
 10
87.5406816864
 20
204.9964720982
 30
0.0
 10
87.2772631904
 20
204.9435924192
 30
0.0
 10
86.9463971431
 20
204.7180650629
 30
0.0
 10
86.7279157639
 20
204.3835792151
 30
0.0
 10
86.6784345536
 20
204.1209164187
 30
0.0
 10
86.6791889743
 20
203.9911987607
 30
0.0
  0
SPLINE
  5
4C2
100
AcDbEntity
  8
RACCORDO
100
AcDbSpline
 62
250
  6
CONTINUOUS
 70
0
 71
3
 72
11
 73
7
 74
0
 42
0.0000001
 43
0.0000001
 44
0.0000000001
 40
0.0
 40
0.0
 40
0.0
 40
0.0
 40
0.2507240694
 40
0.500913044
 40
0.7505645635
 40
1.0
 40
1.0
 40
1.0
 40
1.0
 10
388.4274234098
 20
115.2429643252
 30
0.0
 10
388.5578133794
 20
115.2430673755
 30
0.0
 10
388.8212318754
 20
115.2959470544
 30
0.0
 10
389.1520979226
 20
115.5214744108
 30
0.0
 10
389.3705793019
 20
115.8559602586
 30
0.0
 10
389.4200605122
 20
116.118623055
 30
0.0
 10
389.4193060915
 20
116.248340713
 30
0.0
  0
SPLINE
  5
4C3
100
AcDbEntity
  8
RACCORDO
100
AcDbSpline
 62
250
  6
CONTINUOUS
 70
0
 71
3
 72
11
 73
7
 74
0
 42
0.0000001
 43
0.0000001
 44
0.0000000001
 40
0.0
 40
0.0
 40
0.0
 40
0.0
 40
0.2494354361
 40
0.4990868433
 40
0.749275709
 40
1.0
 40
1.0
 40
1.0
 40
1.0
 10
389.4193060915
 20
203.9911987607
 30
0.0
 10
389.4200636792
 20
204.1209164028
 30
0.0
 10
389.3705779959
 20
204.3835793627
 30
0.0
 10
389.152098462
 20
204.7180643751
 30
0.0
 10
388.821231931
 20
204.9435943409
 30
0.0
 10
388.5578134938
 20
204.9964676162
 30
0.0
 10
388.4274234098
 20
204.9965751485
 30
0.0
  0
SPLINE
  5
4C4
100
AcDbEntity
  8
RACCORDO
100
AcDbSpline
 62
250
  6
CONTINUOUS
 70
0
 71
3
 72
12
 73
8
 74
0
 42
0.0000001
 43
0.0000001
 44
0.0000000001
 40
0.0
 40
0.0
 40
0.0
 40
0.0
 40
0.3595512906
 40
0.6698336781
 40
0.8896315328
 40
0.9578906497
 40
1.0
 40
1.0
 40
1.0
 40
1.0
 10
86.9787778347
 20
204.0443978311
 30
0.0
 10
86.9416688781
 20
204.0440584254
 30
0.0
 10
86.8724377883
 20
204.0412418162
 30
0.0
 10
86.7814327387
 20
204.0308353894
 30
0.0
 10
86.7202697895
 20
204.0175979194
 30
0.0
 10
86.6894584279
 20
204.0038058515
 30
0.0
 10
86.680399736
 20
203.9953729595
 30
0.0
 10
86.6791889743
 20
203.9911987607
 30
0.0
  0
SPLINE
  5
4C5
100
AcDbEntity
  8
RACCORDO
100
AcDbSpline
 62
250
  6
CONTINUOUS
 70
0
 71
3
 72
15
 73
11
 74
0
 42
0.0000001
 43
0.0000001
 44
0.0000000001
 40
0.0
 40
0.0
 40
0.0
 40
0.0
 40
0.3699314204
 40
0.5382348082
 40
0.6873179796
 40
0.8118010356
 40
0.9072847374
 40
0.9705146445
 40
0.9894316735
 40
1.0
 40
1.0
 40
1.0
 40
1.0
 10
87.1064773148
 20
182.78747463
 30
0.0
 10
87.0694150328
 20
182.7873769127
 30
0.0
 10
87.0154913554
 20
182.7867536641
 30
0.0
 10
86.94665187
 20
182.7848365847
 30
0.0
 10
86.9024287024
 20
182.7830127928
 30
0.0
 10
86.8654832563
 20
182.7808920141
 30
0.0
 10
86.8372839081
 20
182.7784449649
 30
0.0
 10
86.8194737989
 20
182.7763059323
 30
0.0
 10
86.8105547582
 20
182.7741317432
 30
0.0
 10
86.8076503496
 20
182.7730980807
 30
0.0
 10
86.8068884544
 20
182.7723628273
 30
0.0
  0
SPLINE
  5
4C6
100
AcDbEntity
  8
RACCORDO
100
AcDbSpline
 62
250
  6
CONTINUOUS
 70
0
 71
3
 72
15
 73
11
 74
0
 42
0.0000001
 43
0.0000001
 44
0.0000000001
 40
0.0
 40
0.0
 40
0.0
 40
0.0
 40
0.3699314173
 40
0.5382348041
 40
0.687317975
 40
0.8118010311
 40
0.9072847337
 40
0.9705146424
 40
0.9894316724
 40
1.0
 40
1.0
 40
1.0
 40
1.0
 10
87.1064773148
 20
137.452064844
 30
0.0
 10
87.0694150331
 20
137.4521625612
 30
0.0
 10
87.0154913562
 20
137.4527858098
 30
0.0
 10
86.9466518712
 20
137.4547028891
 30
0.0
 10
86.9024287038
 20
137.456526681
 30
0.0
 10
86.8654832577
 20
137.4586474597
 30
0.0
 10
86.8372839092
 20
137.4610945088
 30
0.0
 10
86.8194737997
 20
137.4632335414
 30
0.0
 10
86.8105547585
 20
137.4654077305
 30
0.0
 10
86.8076503498
 20
137.466441393
 30
0.0
 10
86.8068884544
 20
137.4671766464
 30
0.0
  0
SPLINE
  5
4C7
100
AcDbEntity
  8
RACCORDO
100
AcDbSpline
 62
250
  6
CONTINUOUS
 70
0
 71
3
 72
12
 73
8
 74
0
 42
0.0000001
 43
0.0000001
 44
0.0000000001
 40
0.0
 40
0.0
 40
0.0
 40
0.0
 40
0.3595520059
 40
0.6698343049
 40
0.8896317074
 40
0.9578906601
 40
1.0
 40
1.0
 40
1.0
 40
1.0
 10
86.9787778347
 20
116.1951416343
 30
0.0
 10
86.9416691156
 20
116.1954810835
 30
0.0
 10
86.8724385447
 20
116.1982977503
 30
0.0
 10
86.7814342506
 20
116.2087042118
 30
0.0
 10
86.7202719127
 20
116.2219416658
 30
0.0
 10
86.6894608991
 20
116.235733689
 30
0.0
 10
86.6804023459
 20
116.2441665456
 30
0.0
 10
86.67919161
 20
116.2483407129
 30
0.0
  0
SPLINE
  5
4C8
100
AcDbEntity
  8
RACCORDO
100
AcDbSpline
 62
250
  6
CONTINUOUS
 70
0
 71
3
 72
12
 73
8
 74
0
 42
0.0000001
 43
0.0000001
 44
0.0000000001
 40
0.0
 40
0.0
 40
0.0
 40
0.0
 40
0.3595512906
 40
0.6698336781
 40
0.8896315328
 40
0.9578906497
 40
1.0
 40
1.0
 40
1.0
 40
1.0
 10
389.1197172311
 20
116.1951416426
 30
0.0
 10
389.1568261877
 20
116.1954810483
 30
0.0
 10
389.2260572775
 20
116.1982976574
 30
0.0
 10
389.3170623271
 20
116.2087040842
 30
0.0
 10
389.3782252763
 20
116.2219415543
 30
0.0
 10
389.4090366379
 20
116.2357336222
 30
0.0
 10
389.4180953298
 20
116.2441665142
 30
0.0
 10
389.4193060915
 20
116.248340713
 30
0.0
  0
SPLINE
  5
4C9
100
AcDbEntity
  8
RACCORDO
100
AcDbSpline
 62
250
  6
CONTINUOUS
 70
0
 71
3
 72
15
 73
11
 74
0
 42
0.0000001
 43
0.0000001
 44
0.0000000001
 40
0.0
 40
0.0
 40
0.0
 40
0.0
 40
0.3699314211
 40
0.5382348092
 40
0.6873179807
 40
0.8118010367
 40
0.9072847383
 40
0.970514645
 40
0.9894316738
 40
1.0
 40
1.0
 40
1.0
 40
1.0
 10
388.992017751
 20
137.4520648437
 30
0.0
 10
389.0290800331
 20
137.4521625609
 30
0.0
 10
389.0830037105
 20
137.4527858096
 30
0.0
 10
389.1518431961
 20
137.4547028889
 30
0.0
 10
389.1960663637
 20
137.4565266808
 30
0.0
 10
389.2330118098
 20
137.4586474596
 30
0.0
 10
389.261211158
 20
137.4610945087
 30
0.0
 10
389.2790212671
 20
137.4632335413
 30
0.0
 10
389.2879403077
 20
137.4654077305
 30
0.0
 10
389.2908447162
 20
137.466441393
 30
0.0
 10
389.2916066114
 20
137.4671766464
 30
0.0
  0
SPLINE
  5
4CA
100
AcDbEntity
  8
RACCORDO
100
AcDbSpline
 62
250
  6
CONTINUOUS
 70
0
 71
3
 72
15
 73
11
 74
0
 42
0.0000001
 43
0.0000001
 44
0.0000000001
 40
0.0
 40
0.0
 40
0.0
 40
0.0
 40
0.3699314173
 40
0.5382348041
 40
0.687317975
 40
0.8118010311
 40
0.9072847337
 40
0.9705146424
 40
0.9894316724
 40
1.0
 40
1.0
 40
1.0
 40
1.0
 10
388.992017751
 20
182.7874746297
 30
0.0
 10
389.0290800327
 20
182.7873769125
 30
0.0
 10
389.0830037096
 20
182.7867536638
 30
0.0
 10
389.1518431945
 20
182.7848365846
 30
0.0
 10
389.196066362
 20
182.7830127927
 30
0.0
 10
389.2330118081
 20
182.780892014
 30
0.0
 10
389.2612111566
 20
182.7784449649
 30
0.0
 10
389.2790212661
 20
182.7763059322
 30
0.0
 10
389.2879403073
 20
182.7741317432
 30
0.0
 10
389.290844716
 20
182.7730980807
 30
0.0
 10
389.2916066114
 20
182.7723628273
 30
0.0
  0
SPLINE
  5
4CB
100
AcDbEntity
  8
RACCORDO
100
AcDbSpline
 62
250
  6
CONTINUOUS
 70
0
 71
3
 72
12
 73
8
 74
0
 42
0.0000001
 43
0.0000001
 44
0.0000000001
 40
0.0
 40
0.0
 40
0.0
 40
0.0
 40
0.3595520059
 40
0.6698343049
 40
0.8896317074
 40
0.9578906601
 40
1.0
 40
1.0
 40
1.0
 40
1.0
 10
389.1197172311
 20
204.0443978394
 30
0.0
 10
389.1568259502
 20
204.0440583902
 30
0.0
 10
389.2260565211
 20
204.0412417234
 30
0.0
 10
389.3170608152
 20
204.0308352619
 30
0.0
 10
389.378223153
 20
204.0175978078
 30
0.0
 10
389.4090341667
 20
204.0038057847
 30
0.0
 10
389.4180927199
 20
203.9953729281
 30
0.0
 10
389.4193034558
 20
203.9911987608
 30
0.0
  0
SPLINE
  5
4CC
100
AcDbEntity
  8
RACCORDO
100
AcDbSpline
 62
250
  6
CONTINUOUS
 70
0
 71
3
 72
11
 73
7
 74
0
 42
0.0000001
 43
0.0000001
 44
0.0000000001
 40
0.0
 40
0.0
 40
0.0
 40
0.0
 40
0.2498971202
 40
0.4998189159
 40
0.749841834
 40
1.0
 40
1.0
 40
1.0
 40
1.0
 10
367.3028095456
 20
137.7069743766
 30
0.0
 10
367.2691542477
 20
137.6427728925
 30
0.0
 10
367.1837151596
 20
137.5229928015
 30
0.0
 10
367.0121392963
 20
137.3850834917
 30
0.0
 10
366.8098024599
 20
137.2982405328
 30
0.0
 10
366.6639191709
 20
137.2786603191
 30
0.0
 10
366.5913555598
 20
137.2787851801
 30
0.0
  0
SPLINE
  5
4CD
100
AcDbEntity
  8
RACCORDO
100
AcDbSpline
 62
250
  6
CONTINUOUS
 70
0
 71
3
 72
11
 73
7
 74
0
 42
0.0000001
 43
0.0000001
 44
0.0000000001
 40
0.0
 40
0.0
 40
0.0
 40
0.0
 40
0.2501564251
 40
0.5001794281
 40
0.7501015582
 40
1.0
 40
1.0
 40
1.0
 40
1.0
 10
366.5913413385
 20
182.9607542697
 30
0.0
 10
366.6639056213
 20
182.9608786467
 30
0.0
 10
366.8097911583
 20
182.9413032707
 30
0.0
 10
367.0121321102
 20
182.8544604696
 30
0.0
 10
367.183712245
 20
182.7165502193
 30
0.0
 10
367.2691537262
 20
182.596768067
 30
0.0
 10
367.3028095456
 20
182.532565097
 30
0.0
  0
SPLINE
  5
4CE
100
AcDbEntity
  8
RACCORDO
100
AcDbSpline
 62
250
  6
CONTINUOUS
 70
0
 71
3
 72
11
 73
7
 74
0
 42
0.0000001
 43
0.0000001
 44
0.0000000001
 40
0.0
 40
0.0
 40
0.0
 40
0.0
 40
0.2498971202
 40
0.4998189159
 40
0.749841834
 40
1.0
 40
1.0
 40
1.0
 40
1.0
 10
321.7956855202
 20
182.532565097
 30
0.0
 10
321.8293408181
 20
182.5967665812
 30
0.0
 10
321.9147799062
 20
182.7165466722
 30
0.0
 10
322.0863557695
 20
182.854455982
 30
0.0
 10
322.2886926059
 20
182.9412989409
 30
0.0
 10
322.4345758949
 20
182.9608791546
 30
0.0
 10
322.5071395059
 20
182.9607542936
 30
0.0
  0
SPLINE
  5
4CF
100
AcDbEntity
  8
RACCORDO
100
AcDbSpline
 62
250
  6
CONTINUOUS
 70
0
 71
3
 72
11
 73
7
 74
0
 42
0.0000001
 43
0.0000001
 44
0.0000000001
 40
0.0
 40
0.0
 40
0.0
 40
0.0
 40
0.2501564251
 40
0.5001794281
 40
0.7501015582
 40
1.0
 40
1.0
 40
1.0
 40
1.0
 10
322.5071537273
 20
137.2787852039
 30
0.0
 10
322.4345894445
 20
137.278660827
 30
0.0
 10
322.2887039074
 20
137.298236203
 30
0.0
 10
322.0863629556
 20
137.3850790041
 30
0.0
 10
321.9147828208
 20
137.5229892544
 30
0.0
 10
321.8293413395
 20
137.6427714067
 30
0.0
 10
321.7956855202
 20
137.7069743766
 30
0.0
  0
SPLINE
  5
4D0
100
AcDbEntity
  8
RACCORDO
100
AcDbSpline
 62
250
  6
CONTINUOUS
 70
0
 71
3
 72
11
 73
7
 74
0
 42
0.0000001
 43
0.0000001
 44
0.0000000001
 40
0.0
 40
0.0
 40
0.0
 40
0.0
 40
0.2501564251
 40
0.5001794281
 40
0.7501015582
 40
1.0
 40
1.0
 40
1.0
 40
1.0
 10
295.5913413385
 20
182.9607542697
 30
0.0
 10
295.6639056213
 20
182.9608786467
 30
0.0
 10
295.8097911583
 20
182.9413032707
 30
0.0
 10
296.0121321102
 20
182.8544604696
 30
0.0
 10
296.183712245
 20
182.7165502193
 30
0.0
 10
296.2691537263
 20
182.596768067
 30
0.0
 10
296.3028095456
 20
182.532565097
 30
0.0
  0
SPLINE
  5
4D1
100
AcDbEntity
  8
RACCORDO
100
AcDbSpline
 62
250
  6
CONTINUOUS
 70
0
 71
3
 72
11
 73
7
 74
0
 42
0.0000001
 43
0.0000001
 44
0.0000000001
 40
0.0
 40
0.0
 40
0.0
 40
0.0
 40
0.2498971202
 40
0.4998189159
 40
0.749841834
 40
1.0
 40
1.0
 40
1.0
 40
1.0
 10
296.3028095456
 20
137.7069743766
 30
0.0
 10
296.2691542477
 20
137.6427728925
 30
0.0
 10
296.1837151596
 20
137.5229928015
 30
0.0
 10
296.0121392963
 20
137.3850834917
 30
0.0
 10
295.8098024599
 20
137.2982405328
 30
0.0
 10
295.6639191709
 20
137.2786603191
 30
0.0
 10
295.5913555598
 20
137.2787851801
 30
0.0
  0
SPLINE
  5
4D2
100
AcDbEntity
  8
RACCORDO
100
AcDbSpline
 62
250
  6
CONTINUOUS
 70
0
 71
3
 72
11
 73
7
 74
0
 42
0.0000001
 43
0.0000001
 44
0.0000000001
 40
0.0
 40
0.0
 40
0.0
 40
0.0
 40
0.2501564251
 40
0.5001794281
 40
0.7501015582
 40
1.0
 40
1.0
 40
1.0
 40
1.0
 10
251.5071537273
 20
137.2787852039
 30
0.0
 10
251.4345894445
 20
137.278660827
 30
0.0
 10
251.2887039074
 20
137.298236203
 30
0.0
 10
251.0863629556
 20
137.3850790041
 30
0.0
 10
250.9147828208
 20
137.5229892544
 30
0.0
 10
250.8293413395
 20
137.6427714067
 30
0.0
 10
250.7956855202
 20
137.7069743766
 30
0.0
  0
SPLINE
  5
4D3
100
AcDbEntity
  8
RACCORDO
100
AcDbSpline
 62
250
  6
CONTINUOUS
 70
0
 71
3
 72
11
 73
7
 74
0
 42
0.0000001
 43
0.0000001
 44
0.0000000001
 40
0.0
 40
0.0
 40
0.0
 40
0.0
 40
0.2498971202
 40
0.4998189159
 40
0.749841834
 40
1.0
 40
1.0
 40
1.0
 40
1.0
 10
250.7956855202
 20
182.532565097
 30
0.0
 10
250.8293408181
 20
182.5967665812
 30
0.0
 10
250.9147799062
 20
182.7165466722
 30
0.0
 10
251.0863557695
 20
182.854455982
 30
0.0
 10
251.2886926059
 20
182.9412989409
 30
0.0
 10
251.4345758949
 20
182.9608791546
 30
0.0
 10
251.5071395059
 20
182.9607542936
 30
0.0
  0
SPLINE
  5
4D4
100
AcDbEntity
  8
RACCORDO
100
AcDbSpline
 62
250
  6
CONTINUOUS
 70
0
 71
3
 72
11
 73
7
 74
0
 42
0.0000001
 43
0.0000001
 44
0.0000000001
 40
0.0
 40
0.0
 40
0.0
 40
0.0
 40
0.2501564251
 40
0.5001794281
 40
0.7501015582
 40
1.0
 40
1.0
 40
1.0
 40
1.0
 10
224.5913413385
 20
182.9607542697
 30
0.0
 10
224.6639056213
 20
182.9608786467
 30
0.0
 10
224.8097911583
 20
182.9413032707
 30
0.0
 10
225.0121321102
 20
182.8544604696
 30
0.0
 10
225.183712245
 20
182.7165502193
 30
0.0
 10
225.2691537263
 20
182.596768067
 30
0.0
 10
225.3028095456
 20
182.532565097
 30
0.0
  0
SPLINE
  5
4D5
100
AcDbEntity
  8
RACCORDO
100
AcDbSpline
 62
250
  6
CONTINUOUS
 70
0
 71
3
 72
11
 73
7
 74
0
 42
0.0000001
 43
0.0000001
 44
0.0000000001
 40
0.0
 40
0.0
 40
0.0
 40
0.0
 40
0.2498971202
 40
0.4998189159
 40
0.749841834
 40
1.0
 40
1.0
 40
1.0
 40
1.0
 10
179.7956855202
 20
182.532565097
 30
0.0
 10
179.8293408181
 20
182.5967665812
 30
0.0
 10
179.9147799062
 20
182.7165466722
 30
0.0
 10
180.0863557695
 20
182.854455982
 30
0.0
 10
180.2886926059
 20
182.9412989409
 30
0.0
 10
180.4345758949
 20
182.9608791546
 30
0.0
 10
180.5071395059
 20
182.9607542936
 30
0.0
  0
SPLINE
  5
4D6
100
AcDbEntity
  8
RACCORDO
100
AcDbSpline
 62
250
  6
CONTINUOUS
 70
0
 71
3
 72
11
 73
7
 74
0
 42
0.0000001
 43
0.0000001
 44
0.0000000001
 40
0.0
 40
0.0
 40
0.0
 40
0.0
 40
0.2501564251
 40
0.5001794281
 40
0.7501015582
 40
1.0
 40
1.0
 40
1.0
 40
1.0
 10
180.5071537273
 20
137.2787852039
 30
0.0
 10
180.4345894445
 20
137.278660827
 30
0.0
 10
180.2887039074
 20
137.298236203
 30
0.0
 10
180.0863629556
 20
137.3850790041
 30
0.0
 10
179.9147828208
 20
137.5229892544
 30
0.0
 10
179.8293413395
 20
137.6427714067
 30
0.0
 10
179.7956855202
 20
137.7069743766
 30
0.0
  0
SPLINE
  5
4D7
100
AcDbEntity
  8
RACCORDO
100
AcDbSpline
 62
250
  6
CONTINUOUS
 70
0
 71
3
 72
11
 73
7
 74
0
 42
0.0000001
 43
0.0000001
 44
0.0000000001
 40
0.0
 40
0.0
 40
0.0
 40
0.0
 40
0.2498971202
 40
0.4998189159
 40
0.749841834
 40
1.0
 40
1.0
 40
1.0
 40
1.0
 10
225.3028095456
 20
137.7069743766
 30
0.0
 10
225.2691542477
 20
137.6427728925
 30
0.0
 10
225.1837151596
 20
137.5229928015
 30
0.0
 10
225.0121392963
 20
137.3850834917
 30
0.0
 10
224.8098024599
 20
137.2982405328
 30
0.0
 10
224.6639191709
 20
137.2786603191
 30
0.0
 10
224.5913555598
 20
137.2787851801
 30
0.0
  0
SPLINE
  5
4D8
100
AcDbEntity
  8
RACCORDO
100
AcDbSpline
 62
250
  6
CONTINUOUS
 70
0
 71
3
 72
11
 73
7
 74
0
 42
0.0000001
 43
0.0000001
 44
0.0000000001
 40
0.0
 40
0.0
 40
0.0
 40
0.0
 40
0.2501564251
 40
0.5001794281
 40
0.7501015582
 40
1.0
 40
1.0
 40
1.0
 40
1.0
 10
109.5071537273
 20
137.2787852039
 30
0.0
 10
109.4345894445
 20
137.278660827
 30
0.0
 10
109.2887039074
 20
137.298236203
 30
0.0
 10
109.0863629556
 20
137.3850790041
 30
0.0
 10
108.9147828208
 20
137.5229892544
 30
0.0
 10
108.8293413395
 20
137.6427714067
 30
0.0
 10
108.7956855202
 20
137.7069743766
 30
0.0
  0
SPLINE
  5
4D9
100
AcDbEntity
  8
RACCORDO
100
AcDbSpline
 62
250
  6
CONTINUOUS
 70
0
 71
3
 72
11
 73
7
 74
0
 42
0.0000001
 43
0.0000001
 44
0.0000000001
 40
0.0
 40
0.0
 40
0.0
 40
0.0
 40
0.2498971202
 40
0.4998189159
 40
0.749841834
 40
1.0
 40
1.0
 40
1.0
 40
1.0
 10
108.7956855202
 20
182.532565097
 30
0.0
 10
108.8293408181
 20
182.5967665812
 30
0.0
 10
108.9147799062
 20
182.7165466722
 30
0.0
 10
109.0863557695
 20
182.854455982
 30
0.0
 10
109.2886926059
 20
182.9412989409
 30
0.0
 10
109.4345758949
 20
182.9608791546
 30
0.0
 10
109.5071395059
 20
182.9607542936
 30
0.0
  0
SPLINE
  5
4DA
100
AcDbEntity
  8
RACCORDO
100
AcDbSpline
 62
250
  6
CONTINUOUS
 70
0
 71
3
 72
11
 73
7
 74
0
 42
0.0000001
 43
0.0000001
 44
0.0000000001
 40
0.0
 40
0.0
 40
0.0
 40
0.0
 40
0.2501564251
 40
0.5001794281
 40
0.7501015582
 40
1.0
 40
1.0
 40
1.0
 40
1.0
 10
153.5913413385
 20
182.9607542697
 30
0.0
 10
153.6639056213
 20
182.9608786467
 30
0.0
 10
153.8097911583
 20
182.9413032707
 30
0.0
 10
154.0121321102
 20
182.8544604696
 30
0.0
 10
154.183712245
 20
182.7165502193
 30
0.0
 10
154.2691537263
 20
182.596768067
 30
0.0
 10
154.3028095456
 20
182.532565097
 30
0.0
  0
SPLINE
  5
4DB
100
AcDbEntity
  8
RACCORDO
100
AcDbSpline
 62
250
  6
CONTINUOUS
 70
0
 71
3
 72
11
 73
7
 74
0
 42
0.0000001
 43
0.0000001
 44
0.0000000001
 40
0.0
 40
0.0
 40
0.0
 40
0.0
 40
0.2498971202
 40
0.4998189159
 40
0.749841834
 40
1.0
 40
1.0
 40
1.0
 40
1.0
 10
154.3028095456
 20
137.7069743766
 30
0.0
 10
154.2691542477
 20
137.6427728925
 30
0.0
 10
154.1837151596
 20
137.5229928015
 30
0.0
 10
154.0121392963
 20
137.3850834917
 30
0.0
 10
153.8098024599
 20
137.2982405328
 30
0.0
 10
153.6639191709
 20
137.2786603191
 30
0.0
 10
153.5913555598
 20
137.2787851801
 30
0.0
  0
SPLINE
  5
4DC
100
AcDbEntity
  8
RACCORDO
100
AcDbSpline
 62
250
  6
CONTINUOUS
 70
0
 71
3
 72
17
 73
13
 74
0
 42
0.0000001
 43
0.0000001
 44
0.0000000001
 40
0.0
 40
0.0
 40
0.0
 40
0.0
 40
0.1883365333
 40
0.3699705615
 40
0.5383152696
 40
0.6874055073
 40
0.8118964993
 40
0.907384892
 40
0.9431761489
 40
0.9705982486
 40
0.9894862326
 40
1.0
 40
1.0
 40
1.0
 40
1.0
 10
154.8930250522
 20
138.049688464
 30
0.0
 10
154.8615813506
 20
138.0497691716
 30
0.0
 10
154.7998134113
 20
138.0502113667
 30
0.0
 10
154.7099492672
 20
138.0517063282
 30
0.0
 10
154.6266577315
 20
138.0539753839
 30
0.0
 10
154.5529266779
 20
138.0569108269
 30
0.0
 10
154.4914184687
 20
138.0604196455
 30
0.0
 10
154.4488172178
 20
138.063852894
 30
0.0
 10
154.4225444829
 20
138.0670261461
 30
0.0
 10
154.4089305331
 20
138.0691509319
 30
0.0
 10
154.399827762
 20
138.0713429394
 30
0.0
 10
154.3949866032
 20
138.0730086966
 30
0.0
 10
154.3937073132
 20
138.0742106125
 30
0.0
  0
SPLINE
  5
4DD
100
AcDbEntity
  8
RACCORDO
100
AcDbSpline
 62
250
  6
CONTINUOUS
 70
0
 71
3
 72
16
 73
12
 74
0
 42
0.0000001
 43
0.0000001
 44
0.0000000001
 40
0.0
 40
0.0
 40
0.0
 40
0.0
 40
0.3649070272
 40
0.532068119
 40
0.6808793953
 40
0.805963582
 40
0.9028513966
 40
0.9396118547
 40
0.9681561953
 40
0.9882775063
 40
1.0
 40
1.0
 40
1.0
 40
1.0
 10
154.7455118982
 20
137.4520650035
 30
0.0
 10
154.6903436442
 20
137.4808406964
 30
0.0
 10
154.6102331007
 20
137.5234392541
 30
0.0
 10
154.5085160744
 20
137.5794119772
 30
0.0
 10
154.443034393
 20
137.6164104975
 30
0.0
 10
154.3884688878
 20
137.6483377792
 30
0.0
 10
154.3508377734
 20
137.6714056475
 30
0.0
 10
154.3277699172
 20
137.6866346496
 30
0.0
 10
154.3158231465
 20
137.6950322889
 30
0.0
 10
154.3078454369
 20
137.701447189
 30
0.0
 10
154.3038103506
 20
137.7052469039
 30
0.0
 10
154.3028070029
 20
137.7069756962
 30
0.0
  0
SPLINE
  5
4DE
100
AcDbEntity
  8
RACCORDO
100
AcDbSpline
 62
250
  6
CONTINUOUS
 70
0
 71
3
 72
16
 73
12
 74
0
 42
0.0000001
 43
0.0000001
 44
0.0000000001
 40
0.0
 40
0.0
 40
0.0
 40
0.0
 40
0.3649075159
 40
0.5320686454
 40
0.680879854
 40
0.8059639086
 40
0.9028515737
 40
0.9396119651
 40
0.968156251
 40
0.988277524
 40
1.0
 40
1.0
 40
1.0
 40
1.0
 10
108.3529831676
 20
137.4520649329
 30
0.0
 10
108.4081513584
 20
137.4808406014
 30
0.0
 10
108.488261782
 20
137.5234391084
 30
0.0
 10
108.5899786205
 20
137.5794117519
 30
0.0
 10
108.6554601112
 20
137.6164101837
 30
0.0
 10
108.7100254237
 20
137.6483373737
 30
0.0
 10
108.7476563876
 20
137.6714051697
 30
0.0
 10
108.7707241411
 20
137.686634122
 30
0.0
 10
108.7826708549
 20
137.6950317339
 30
0.0
 10
108.7906485243
 20
137.7014466141
 30
0.0
 10
108.7946835886
 20
137.7052463196
 30
0.0
 10
108.7956869284
 20
137.7069751074
 30
0.0
  0
SPLINE
  5
4DF
100
AcDbEntity
  8
RACCORDO
100
AcDbSpline
 62
250
  6
CONTINUOUS
 70
0
 71
3
 72
17
 73
13
 74
0
 42
0.0000001
 43
0.0000001
 44
0.0000000001
 40
0.0
 40
0.0
 40
0.0
 40
0.0
 40
0.1883373037
 40
0.3699717454
 40
0.5383165423
 40
0.6874066114
 40
0.8118972776
 40
0.9073853051
 40
0.9431764012
 40
0.9705983712
 40
0.9894862678
 40
1.0
 40
1.0
 40
1.0
 40
1.0
 10
108.2054700135
 20
138.0496883006
 30
0.0
 10
108.2369136583
 20
138.0497690236
 30
0.0
 10
108.2986814309
 20
138.0502112472
 30
0.0
 10
108.3885452569
 20
138.0517062477
 30
0.0
 10
108.471836356
 20
138.0539753361
 30
0.0
 10
108.5455669056
 20
138.056910804
 30
0.0
 10
108.6070746063
 20
138.0604196387
 30
0.0
 10
108.6496754611
 20
138.0638528958
 30
0.0
 10
108.6759479285
 20
138.0670261498
 30
0.0
 10
108.689561732
 20
138.0691509369
 30
0.0
 10
108.698664404
 20
138.0713429409
 30
0.0
 10
108.7035055089
 20
138.0730087012
 30
0.0
 10
108.7047847809
 20
138.0742106126
 30
0.0
  0
SPLINE
  5
4E0
100
AcDbEntity
  8
RACCORDO
100
AcDbSpline
 62
250
  6
CONTINUOUS
 70
0
 71
3
 72
17
 73
13
 74
0
 42
0.0000001
 43
0.0000001
 44
0.0000000001
 40
0.0
 40
0.0
 40
0.0
 40
0.0
 40
0.1883364976
 40
0.3699705067
 40
0.5383152106
 40
0.687405456
 40
0.811896463
 40
0.9073848726
 40
0.943176137
 40
0.9705982428
 40
0.9894862308
 40
1.0
 40
1.0
 40
1.0
 40
1.0
 10
108.2054700136
 20
182.1898510021
 30
0.0
 10
108.2369137178
 20
182.1897702952
 30
0.0
 10
108.2986816649
 20
182.1893281015
 30
0.0
 10
108.3885458238
 20
182.1878331418
 30
0.0
 10
108.4718373798
 20
182.1855640876
 30
0.0
 10
108.5455684569
 20
182.1826286457
 30
0.0
 10
108.6070766897
 20
182.1791198279
 30
0.0
 10
108.6496779589
 20
182.1756865798
 30
0.0
 10
108.6759507063
 20
182.1725133277
 30
0.0
 10
108.6895646628
 20
182.170388542
 30
0.0
 10
108.6986674387
 20
182.1681965344
 30
0.0
 10
108.7035085999
 20
182.1665307773
 30
0.0
 10
108.7047878908
 20
182.1653288611
 30
0.0
  0
SPLINE
  5
4E1
100
AcDbEntity
  8
RACCORDO
100
AcDbSpline
 62
250
  6
CONTINUOUS
 70
0
 71
3
 72
16
 73
12
 74
0
 42
0.0000001
 43
0.0000001
 44
0.0000000001
 40
0.0
 40
0.0
 40
0.0
 40
0.0
 40
0.3649070272
 40
0.532068119
 40
0.6808793952
 40
0.805963582
 40
0.9028513966
 40
0.9396118547
 40
0.9681561953
 40
0.9882775063
 40
1.0
 40
1.0
 40
1.0
 40
1.0
 10
108.3529831676
 20
182.7874744702
 30
0.0
 10
108.4081514216
 20
182.7586987773
 30
0.0
 10
108.4882619651
 20
182.7161002195
 30
0.0
 10
108.5899789913
 20
182.6601274965
 30
0.0
 10
108.6554606728
 20
182.6231289762
 30
0.0
 10
108.710026178
 20
182.5912016945
 30
0.0
 10
108.7476572924
 20
182.5681338262
 30
0.0
 10
108.7707251486
 20
182.5529048241
 30
0.0
 10
108.7826719193
 20
182.5445071848
 30
0.0
 10
108.7906496289
 20
182.5380922847
 30
0.0
 10
108.7946847152
 20
182.5342925698
 30
0.0
 10
108.7956880628
 20
182.5325637775
 30
0.0
  0
SPLINE
  5
4E2
100
AcDbEntity
  8
RACCORDO
100
AcDbSpline
 62
250
  6
CONTINUOUS
 70
0
 71
3
 72
16
 73
12
 74
0
 42
0.0000001
 43
0.0000001
 44
0.0000000001
 40
0.0
 40
0.0
 40
0.0
 40
0.0
 40
0.3649074881
 40
0.5320686153
 40
0.6808798279
 40
0.8059638904
 40
0.9028515643
 40
0.9396119595
 40
0.9681562485
 40
0.9882775233
 40
1.0
 40
1.0
 40
1.0
 40
1.0
 10
154.7455118982
 20
182.7874745366
 30
0.0
 10
154.6903437047
 20
182.7586988673
 30
0.0
 10
154.6102332757
 20
182.7161003583
 30
0.0
 10
154.5085164282
 20
182.6601277113
 30
0.0
 10
154.4430349278
 20
182.6231292751
 30
0.0
 10
154.3884696051
 20
182.5912020803
 30
0.0
 10
154.3508386333
 20
182.5681342804
 30
0.0
 10
154.3277708744
 20
182.5529053255
 30
0.0
 10
154.3158241576
 20
182.5445077121
 30
0.0
 10
154.3078464862
 20
182.5380928309
 30
0.0
 10
154.3038114209
 20
182.5342931249
 30
0.0
 10
154.3028080808
 20
182.5325643369
 30
0.0
  0
SPLINE
  5
4E3
100
AcDbEntity
  8
RACCORDO
100
AcDbSpline
 62
250
  6
CONTINUOUS
 70
0
 71
3
 72
17
 73
13
 74
0
 42
0.0000001
 43
0.0000001
 44
0.0000000001
 40
0.0
 40
0.0
 40
0.0
 40
0.0
 40
0.1883373037
 40
0.3699717454
 40
0.5383165423
 40
0.6874066114
 40
0.8118972776
 40
0.9073853051
 40
0.9431764012
 40
0.9705983712
 40
0.9894862678
 40
1.0
 40
1.0
 40
1.0
 40
1.0
 10
154.8930250523
 20
182.1898511731
 30
0.0
 10
154.8615814075
 20
182.1897704501
 30
0.0
 10
154.7998136349
 20
182.1893282265
 30
0.0
 10
154.7099498089
 20
182.1878332259
 30
0.0
 10
154.6266587098
 20
182.1855641376
 30
0.0
 10
154.5529281602
 20
182.1826286697
 30
0.0
 10
154.4914204595
 20
182.179119835
 30
0.0
 10
154.4488196047
 20
182.1756865779
 30
0.0
 10
154.4225471373
 20
182.1725133239
 30
0.0
 10
154.4089333338
 20
182.1703885368
 30
0.0
 10
154.3998306617
 20
182.1681965327
 30
0.0
 10
154.3949895569
 20
182.1665307725
 30
0.0
 10
154.3937102849
 20
182.165328861
 30
0.0
  0
SPLINE
  5
4E4
100
AcDbEntity
  8
RACCORDO
100
AcDbSpline
 62
250
  6
CONTINUOUS
 70
0
 71
3
 72
17
 73
13
 74
0
 42
0.0000001
 43
0.0000001
 44
0.0000000001
 40
0.0
 40
0.0
 40
0.0
 40
0.0
 40
0.1883365333
 40
0.3699705615
 40
0.5383152696
 40
0.6874055073
 40
0.8118964993
 40
0.907384892
 40
0.9431761489
 40
0.9705982486
 40
0.9894862326
 40
1.0
 40
1.0
 40
1.0
 40
1.0
 10
225.8930250522
 20
138.049688464
 30
0.0
 10
225.8615813506
 20
138.0497691716
 30
0.0
 10
225.7998134113
 20
138.0502113667
 30
0.0
 10
225.7099492672
 20
138.0517063282
 30
0.0
 10
225.6266577315
 20
138.0539753839
 30
0.0
 10
225.5529266779
 20
138.0569108269
 30
0.0
 10
225.4914184687
 20
138.0604196455
 30
0.0
 10
225.4488172178
 20
138.063852894
 30
0.0
 10
225.4225444829
 20
138.0670261461
 30
0.0
 10
225.4089305331
 20
138.0691509319
 30
0.0
 10
225.399827762
 20
138.0713429394
 30
0.0
 10
225.3949866032
 20
138.0730086966
 30
0.0
 10
225.3937073132
 20
138.0742106125
 30
0.0
  0
SPLINE
  5
4E5
100
AcDbEntity
  8
RACCORDO
100
AcDbSpline
 62
250
  6
CONTINUOUS
 70
0
 71
3
 72
16
 73
12
 74
0
 42
0.0000001
 43
0.0000001
 44
0.0000000001
 40
0.0
 40
0.0
 40
0.0
 40
0.0
 40
0.3649070272
 40
0.532068119
 40
0.6808793953
 40
0.805963582
 40
0.9028513966
 40
0.9396118547
 40
0.9681561953
 40
0.9882775063
 40
1.0
 40
1.0
 40
1.0
 40
1.0
 10
225.7455118982
 20
137.4520650035
 30
0.0
 10
225.6903436442
 20
137.4808406964
 30
0.0
 10
225.6102331007
 20
137.5234392541
 30
0.0
 10
225.5085160744
 20
137.5794119772
 30
0.0
 10
225.443034393
 20
137.6164104975
 30
0.0
 10
225.3884688878
 20
137.6483377792
 30
0.0
 10
225.3508377734
 20
137.6714056475
 30
0.0
 10
225.3277699172
 20
137.6866346496
 30
0.0
 10
225.3158231465
 20
137.6950322889
 30
0.0
 10
225.3078454369
 20
137.701447189
 30
0.0
 10
225.3038103506
 20
137.7052469039
 30
0.0
 10
225.3028070029
 20
137.7069756962
 30
0.0
  0
SPLINE
  5
4E6
100
AcDbEntity
  8
RACCORDO
100
AcDbSpline
 62
250
  6
CONTINUOUS
 70
0
 71
3
 72
16
 73
12
 74
0
 42
0.0000001
 43
0.0000001
 44
0.0000000001
 40
0.0
 40
0.0
 40
0.0
 40
0.0
 40
0.3649075159
 40
0.5320686454
 40
0.680879854
 40
0.8059639086
 40
0.9028515737
 40
0.9396119651
 40
0.968156251
 40
0.988277524
 40
1.0
 40
1.0
 40
1.0
 40
1.0
 10
179.3529831676
 20
137.4520649329
 30
0.0
 10
179.4081513584
 20
137.4808406014
 30
0.0
 10
179.488261782
 20
137.5234391084
 30
0.0
 10
179.5899786205
 20
137.5794117519
 30
0.0
 10
179.6554601112
 20
137.6164101837
 30
0.0
 10
179.7100254237
 20
137.6483373737
 30
0.0
 10
179.7476563876
 20
137.6714051697
 30
0.0
 10
179.7707241411
 20
137.686634122
 30
0.0
 10
179.7826708549
 20
137.6950317339
 30
0.0
 10
179.7906485243
 20
137.7014466141
 30
0.0
 10
179.7946835886
 20
137.7052463196
 30
0.0
 10
179.7956869284
 20
137.7069751074
 30
0.0
  0
SPLINE
  5
4E7
100
AcDbEntity
  8
RACCORDO
100
AcDbSpline
 62
250
  6
CONTINUOUS
 70
0
 71
3
 72
17
 73
13
 74
0
 42
0.0000001
 43
0.0000001
 44
0.0000000001
 40
0.0
 40
0.0
 40
0.0
 40
0.0
 40
0.1883373037
 40
0.3699717454
 40
0.5383165423
 40
0.6874066114
 40
0.8118972776
 40
0.9073853051
 40
0.9431764012
 40
0.9705983712
 40
0.9894862678
 40
1.0
 40
1.0
 40
1.0
 40
1.0
 10
179.2054700135
 20
138.0496883006
 30
0.0
 10
179.2369136583
 20
138.0497690236
 30
0.0
 10
179.2986814309
 20
138.0502112472
 30
0.0
 10
179.3885452569
 20
138.0517062477
 30
0.0
 10
179.471836356
 20
138.0539753361
 30
0.0
 10
179.5455669056
 20
138.056910804
 30
0.0
 10
179.6070746063
 20
138.0604196387
 30
0.0
 10
179.6496754611
 20
138.0638528958
 30
0.0
 10
179.6759479285
 20
138.0670261498
 30
0.0
 10
179.689561732
 20
138.0691509369
 30
0.0
 10
179.698664404
 20
138.0713429409
 30
0.0
 10
179.7035055089
 20
138.0730087012
 30
0.0
 10
179.7047847809
 20
138.0742106126
 30
0.0
  0
SPLINE
  5
4E8
100
AcDbEntity
  8
RACCORDO
100
AcDbSpline
 62
250
  6
CONTINUOUS
 70
0
 71
3
 72
17
 73
13
 74
0
 42
0.0000001
 43
0.0000001
 44
0.0000000001
 40
0.0
 40
0.0
 40
0.0
 40
0.0
 40
0.1883364976
 40
0.3699705067
 40
0.5383152106
 40
0.687405456
 40
0.811896463
 40
0.9073848726
 40
0.943176137
 40
0.9705982428
 40
0.9894862308
 40
1.0
 40
1.0
 40
1.0
 40
1.0
 10
179.2054700136
 20
182.1898510021
 30
0.0
 10
179.2369137178
 20
182.1897702952
 30
0.0
 10
179.2986816649
 20
182.1893281015
 30
0.0
 10
179.3885458238
 20
182.1878331418
 30
0.0
 10
179.4718373798
 20
182.1855640876
 30
0.0
 10
179.5455684569
 20
182.1826286457
 30
0.0
 10
179.6070766897
 20
182.1791198279
 30
0.0
 10
179.6496779589
 20
182.1756865798
 30
0.0
 10
179.6759507063
 20
182.1725133277
 30
0.0
 10
179.6895646628
 20
182.170388542
 30
0.0
 10
179.6986674387
 20
182.1681965344
 30
0.0
 10
179.7035085999
 20
182.1665307773
 30
0.0
 10
179.7047878908
 20
182.1653288611
 30
0.0
  0
SPLINE
  5
4E9
100
AcDbEntity
  8
RACCORDO
100
AcDbSpline
 62
250
  6
CONTINUOUS
 70
0
 71
3
 72
16
 73
12
 74
0
 42
0.0000001
 43
0.0000001
 44
0.0000000001
 40
0.0
 40
0.0
 40
0.0
 40
0.0
 40
0.3649070272
 40
0.532068119
 40
0.6808793952
 40
0.805963582
 40
0.9028513966
 40
0.9396118547
 40
0.9681561953
 40
0.9882775063
 40
1.0
 40
1.0
 40
1.0
 40
1.0
 10
179.3529831676
 20
182.7874744702
 30
0.0
 10
179.4081514216
 20
182.7586987773
 30
0.0
 10
179.4882619651
 20
182.7161002195
 30
0.0
 10
179.5899789913
 20
182.6601274965
 30
0.0
 10
179.6554606728
 20
182.6231289762
 30
0.0
 10
179.710026178
 20
182.5912016945
 30
0.0
 10
179.7476572924
 20
182.5681338262
 30
0.0
 10
179.7707251486
 20
182.5529048241
 30
0.0
 10
179.7826719193
 20
182.5445071848
 30
0.0
 10
179.7906496289
 20
182.5380922847
 30
0.0
 10
179.7946847152
 20
182.5342925698
 30
0.0
 10
179.7956880628
 20
182.5325637775
 30
0.0
  0
SPLINE
  5
4EA
100
AcDbEntity
  8
RACCORDO
100
AcDbSpline
 62
250
  6
CONTINUOUS
 70
0
 71
3
 72
16
 73
12
 74
0
 42
0.0000001
 43
0.0000001
 44
0.0000000001
 40
0.0
 40
0.0
 40
0.0
 40
0.0
 40
0.3649074881
 40
0.5320686153
 40
0.6808798279
 40
0.8059638904
 40
0.9028515643
 40
0.9396119595
 40
0.9681562485
 40
0.9882775233
 40
1.0
 40
1.0
 40
1.0
 40
1.0
 10
225.7455118982
 20
182.7874745366
 30
0.0
 10
225.6903437047
 20
182.7586988673
 30
0.0
 10
225.6102332757
 20
182.7161003583
 30
0.0
 10
225.5085164282
 20
182.6601277113
 30
0.0
 10
225.4430349278
 20
182.6231292751
 30
0.0
 10
225.3884696051
 20
182.5912020803
 30
0.0
 10
225.3508386333
 20
182.5681342804
 30
0.0
 10
225.3277708744
 20
182.5529053255
 30
0.0
 10
225.3158241576
 20
182.5445077121
 30
0.0
 10
225.3078464862
 20
182.5380928309
 30
0.0
 10
225.3038114209
 20
182.5342931249
 30
0.0
 10
225.3028080808
 20
182.5325643369
 30
0.0
  0
SPLINE
  5
4EB
100
AcDbEntity
  8
RACCORDO
100
AcDbSpline
 62
250
  6
CONTINUOUS
 70
0
 71
3
 72
17
 73
13
 74
0
 42
0.0000001
 43
0.0000001
 44
0.0000000001
 40
0.0
 40
0.0
 40
0.0
 40
0.0
 40
0.1883373037
 40
0.3699717454
 40
0.5383165423
 40
0.6874066114
 40
0.8118972776
 40
0.9073853051
 40
0.9431764012
 40
0.9705983712
 40
0.9894862678
 40
1.0
 40
1.0
 40
1.0
 40
1.0
 10
225.8930250523
 20
182.1898511731
 30
0.0
 10
225.8615814075
 20
182.1897704501
 30
0.0
 10
225.7998136349
 20
182.1893282265
 30
0.0
 10
225.7099498089
 20
182.1878332259
 30
0.0
 10
225.6266587098
 20
182.1855641376
 30
0.0
 10
225.5529281602
 20
182.1826286697
 30
0.0
 10
225.4914204595
 20
182.179119835
 30
0.0
 10
225.4488196047
 20
182.1756865779
 30
0.0
 10
225.4225471373
 20
182.1725133239
 30
0.0
 10
225.4089333338
 20
182.1703885368
 30
0.0
 10
225.3998306617
 20
182.1681965327
 30
0.0
 10
225.3949895569
 20
182.1665307725
 30
0.0
 10
225.3937102849
 20
182.165328861
 30
0.0
  0
SPLINE
  5
4EC
100
AcDbEntity
  8
RACCORDO
100
AcDbSpline
 62
250
  6
CONTINUOUS
 70
0
 71
3
 72
17
 73
13
 74
0
 42
0.0000001
 43
0.0000001
 44
0.0000000001
 40
0.0
 40
0.0
 40
0.0
 40
0.0
 40
0.1883364976
 40
0.3699705067
 40
0.5383152106
 40
0.687405456
 40
0.811896463
 40
0.9073848726
 40
0.943176137
 40
0.9705982428
 40
0.9894862308
 40
1.0
 40
1.0
 40
1.0
 40
1.0
 10
250.2054700136
 20
182.1898510021
 30
0.0
 10
250.2369137178
 20
182.1897702952
 30
0.0
 10
250.2986816649
 20
182.1893281015
 30
0.0
 10
250.3885458238
 20
182.1878331418
 30
0.0
 10
250.4718373798
 20
182.1855640876
 30
0.0
 10
250.5455684569
 20
182.1826286457
 30
0.0
 10
250.6070766897
 20
182.1791198279
 30
0.0
 10
250.6496779589
 20
182.1756865798
 30
0.0
 10
250.6759507063
 20
182.1725133277
 30
0.0
 10
250.6895646628
 20
182.170388542
 30
0.0
 10
250.6986674387
 20
182.1681965344
 30
0.0
 10
250.7035085999
 20
182.1665307773
 30
0.0
 10
250.7047878908
 20
182.1653288611
 30
0.0
  0
SPLINE
  5
4ED
100
AcDbEntity
  8
RACCORDO
100
AcDbSpline
 62
250
  6
CONTINUOUS
 70
0
 71
3
 72
16
 73
12
 74
0
 42
0.0000001
 43
0.0000001
 44
0.0000000001
 40
0.0
 40
0.0
 40
0.0
 40
0.0
 40
0.3649070272
 40
0.532068119
 40
0.6808793952
 40
0.805963582
 40
0.9028513966
 40
0.9396118547
 40
0.9681561953
 40
0.9882775063
 40
1.0
 40
1.0
 40
1.0
 40
1.0
 10
250.3529831676
 20
182.7874744702
 30
0.0
 10
250.4081514216
 20
182.7586987773
 30
0.0
 10
250.4882619651
 20
182.7161002195
 30
0.0
 10
250.5899789913
 20
182.6601274965
 30
0.0
 10
250.6554606728
 20
182.6231289762
 30
0.0
 10
250.710026178
 20
182.5912016945
 30
0.0
 10
250.7476572924
 20
182.5681338262
 30
0.0
 10
250.7707251486
 20
182.5529048241
 30
0.0
 10
250.7826719193
 20
182.5445071848
 30
0.0
 10
250.7906496289
 20
182.5380922847
 30
0.0
 10
250.7946847152
 20
182.5342925698
 30
0.0
 10
250.7956880628
 20
182.5325637775
 30
0.0
  0
SPLINE
  5
4EE
100
AcDbEntity
  8
RACCORDO
100
AcDbSpline
 62
250
  6
CONTINUOUS
 70
0
 71
3
 72
16
 73
12
 74
0
 42
0.0000001
 43
0.0000001
 44
0.0000000001
 40
0.0
 40
0.0
 40
0.0
 40
0.0
 40
0.3649074881
 40
0.5320686153
 40
0.6808798279
 40
0.8059638904
 40
0.9028515643
 40
0.9396119595
 40
0.9681562485
 40
0.9882775233
 40
1.0
 40
1.0
 40
1.0
 40
1.0
 10
296.7455118982
 20
182.7874745366
 30
0.0
 10
296.6903437047
 20
182.7586988673
 30
0.0
 10
296.6102332757
 20
182.7161003583
 30
0.0
 10
296.5085164282
 20
182.6601277113
 30
0.0
 10
296.4430349278
 20
182.6231292751
 30
0.0
 10
296.3884696051
 20
182.5912020803
 30
0.0
 10
296.3508386333
 20
182.5681342804
 30
0.0
 10
296.3277708744
 20
182.5529053255
 30
0.0
 10
296.3158241576
 20
182.5445077121
 30
0.0
 10
296.3078464862
 20
182.5380928309
 30
0.0
 10
296.3038114209
 20
182.5342931249
 30
0.0
 10
296.3028080808
 20
182.5325643369
 30
0.0
  0
SPLINE
  5
4EF
100
AcDbEntity
  8
RACCORDO
100
AcDbSpline
 62
250
  6
CONTINUOUS
 70
0
 71
3
 72
17
 73
13
 74
0
 42
0.0000001
 43
0.0000001
 44
0.0000000001
 40
0.0
 40
0.0
 40
0.0
 40
0.0
 40
0.1883373037
 40
0.3699717454
 40
0.5383165423
 40
0.6874066114
 40
0.8118972776
 40
0.9073853051
 40
0.9431764012
 40
0.9705983712
 40
0.9894862678
 40
1.0
 40
1.0
 40
1.0
 40
1.0
 10
296.8930250523
 20
182.1898511731
 30
0.0
 10
296.8615814075
 20
182.1897704501
 30
0.0
 10
296.7998136349
 20
182.1893282265
 30
0.0
 10
296.7099498089
 20
182.1878332259
 30
0.0
 10
296.6266587098
 20
182.1855641376
 30
0.0
 10
296.5529281602
 20
182.1826286697
 30
0.0
 10
296.4914204595
 20
182.179119835
 30
0.0
 10
296.4488196047
 20
182.1756865779
 30
0.0
 10
296.4225471373
 20
182.1725133239
 30
0.0
 10
296.4089333338
 20
182.1703885368
 30
0.0
 10
296.3998306617
 20
182.1681965327
 30
0.0
 10
296.3949895569
 20
182.1665307725
 30
0.0
 10
296.3937102849
 20
182.165328861
 30
0.0
  0
SPLINE
  5
4F0
100
AcDbEntity
  8
RACCORDO
100
AcDbSpline
 62
250
  6
CONTINUOUS
 70
0
 71
3
 72
17
 73
13
 74
0
 42
0.0000001
 43
0.0000001
 44
0.0000000001
 40
0.0
 40
0.0
 40
0.0
 40
0.0
 40
0.1883365333
 40
0.3699705615
 40
0.5383152696
 40
0.6874055073
 40
0.8118964993
 40
0.907384892
 40
0.9431761489
 40
0.9705982486
 40
0.9894862326
 40
1.0
 40
1.0
 40
1.0
 40
1.0
 10
296.8930250522
 20
138.049688464
 30
0.0
 10
296.8615813506
 20
138.0497691716
 30
0.0
 10
296.7998134113
 20
138.0502113667
 30
0.0
 10
296.7099492672
 20
138.0517063282
 30
0.0
 10
296.6266577315
 20
138.0539753839
 30
0.0
 10
296.5529266779
 20
138.0569108269
 30
0.0
 10
296.4914184687
 20
138.0604196455
 30
0.0
 10
296.4488172178
 20
138.063852894
 30
0.0
 10
296.4225444829
 20
138.0670261461
 30
0.0
 10
296.4089305331
 20
138.0691509319
 30
0.0
 10
296.399827762
 20
138.0713429394
 30
0.0
 10
296.3949866032
 20
138.0730086966
 30
0.0
 10
296.3937073132
 20
138.0742106125
 30
0.0
  0
SPLINE
  5
4F1
100
AcDbEntity
  8
RACCORDO
100
AcDbSpline
 62
250
  6
CONTINUOUS
 70
0
 71
3
 72
16
 73
12
 74
0
 42
0.0000001
 43
0.0000001
 44
0.0000000001
 40
0.0
 40
0.0
 40
0.0
 40
0.0
 40
0.3649070272
 40
0.532068119
 40
0.6808793953
 40
0.805963582
 40
0.9028513966
 40
0.9396118547
 40
0.9681561953
 40
0.9882775063
 40
1.0
 40
1.0
 40
1.0
 40
1.0
 10
296.7455118982
 20
137.4520650035
 30
0.0
 10
296.6903436442
 20
137.4808406964
 30
0.0
 10
296.6102331007
 20
137.5234392541
 30
0.0
 10
296.5085160744
 20
137.5794119772
 30
0.0
 10
296.443034393
 20
137.6164104975
 30
0.0
 10
296.3884688878
 20
137.6483377792
 30
0.0
 10
296.3508377734
 20
137.6714056475
 30
0.0
 10
296.3277699172
 20
137.6866346496
 30
0.0
 10
296.3158231465
 20
137.6950322889
 30
0.0
 10
296.3078454369
 20
137.701447189
 30
0.0
 10
296.3038103506
 20
137.7052469039
 30
0.0
 10
296.3028070029
 20
137.7069756962
 30
0.0
  0
SPLINE
  5
4F2
100
AcDbEntity
  8
RACCORDO
100
AcDbSpline
 62
250
  6
CONTINUOUS
 70
0
 71
3
 72
16
 73
12
 74
0
 42
0.0000001
 43
0.0000001
 44
0.0000000001
 40
0.0
 40
0.0
 40
0.0
 40
0.0
 40
0.3649075159
 40
0.5320686454
 40
0.680879854
 40
0.8059639086
 40
0.9028515737
 40
0.9396119651
 40
0.968156251
 40
0.988277524
 40
1.0
 40
1.0
 40
1.0
 40
1.0
 10
250.3529831676
 20
137.4520649329
 30
0.0
 10
250.4081513584
 20
137.4808406014
 30
0.0
 10
250.488261782
 20
137.5234391084
 30
0.0
 10
250.5899786205
 20
137.5794117519
 30
0.0
 10
250.6554601112
 20
137.6164101837
 30
0.0
 10
250.7100254237
 20
137.6483373737
 30
0.0
 10
250.7476563876
 20
137.6714051697
 30
0.0
 10
250.7707241411
 20
137.686634122
 30
0.0
 10
250.7826708549
 20
137.6950317339
 30
0.0
 10
250.7906485243
 20
137.7014466141
 30
0.0
 10
250.7946835886
 20
137.7052463196
 30
0.0
 10
250.7956869284
 20
137.7069751074
 30
0.0
  0
SPLINE
  5
4F3
100
AcDbEntity
  8
RACCORDO
100
AcDbSpline
 62
250
  6
CONTINUOUS
 70
0
 71
3
 72
17
 73
13
 74
0
 42
0.0000001
 43
0.0000001
 44
0.0000000001
 40
0.0
 40
0.0
 40
0.0
 40
0.0
 40
0.1883373037
 40
0.3699717454
 40
0.5383165423
 40
0.6874066114
 40
0.8118972776
 40
0.9073853051
 40
0.9431764012
 40
0.9705983712
 40
0.9894862678
 40
1.0
 40
1.0
 40
1.0
 40
1.0
 10
250.2054700135
 20
138.0496883006
 30
0.0
 10
250.2369136583
 20
138.0497690236
 30
0.0
 10
250.2986814309
 20
138.0502112472
 30
0.0
 10
250.3885452569
 20
138.0517062477
 30
0.0
 10
250.471836356
 20
138.0539753361
 30
0.0
 10
250.5455669056
 20
138.056910804
 30
0.0
 10
250.6070746063
 20
138.0604196387
 30
0.0
 10
250.6496754611
 20
138.0638528958
 30
0.0
 10
250.6759479285
 20
138.0670261498
 30
0.0
 10
250.689561732
 20
138.0691509369
 30
0.0
 10
250.698664404
 20
138.0713429409
 30
0.0
 10
250.7035055089
 20
138.0730087012
 30
0.0
 10
250.7047847809
 20
138.0742106126
 30
0.0
  0
SPLINE
  5
4F4
100
AcDbEntity
  8
RACCORDO
100
AcDbSpline
 62
250
  6
CONTINUOUS
 70
0
 71
3
 72
17
 73
13
 74
0
 42
0.0000001
 43
0.0000001
 44
0.0000000001
 40
0.0
 40
0.0
 40
0.0
 40
0.0
 40
0.1883364976
 40
0.3699705067
 40
0.5383152106
 40
0.687405456
 40
0.811896463
 40
0.9073848726
 40
0.943176137
 40
0.9705982428
 40
0.9894862308
 40
1.0
 40
1.0
 40
1.0
 40
1.0
 10
321.2054700136
 20
182.1898510021
 30
0.0
 10
321.2369137178
 20
182.1897702952
 30
0.0
 10
321.2986816649
 20
182.1893281015
 30
0.0
 10
321.3885458238
 20
182.1878331418
 30
0.0
 10
321.4718373798
 20
182.1855640876
 30
0.0
 10
321.5455684569
 20
182.1826286457
 30
0.0
 10
321.6070766897
 20
182.1791198279
 30
0.0
 10
321.6496779589
 20
182.1756865798
 30
0.0
 10
321.6759507063
 20
182.1725133277
 30
0.0
 10
321.6895646628
 20
182.170388542
 30
0.0
 10
321.6986674387
 20
182.1681965344
 30
0.0
 10
321.7035085999
 20
182.1665307773
 30
0.0
 10
321.7047878908
 20
182.1653288611
 30
0.0
  0
SPLINE
  5
4F5
100
AcDbEntity
  8
RACCORDO
100
AcDbSpline
 62
250
  6
CONTINUOUS
 70
0
 71
3
 72
16
 73
12
 74
0
 42
0.0000001
 43
0.0000001
 44
0.0000000001
 40
0.0
 40
0.0
 40
0.0
 40
0.0
 40
0.3649070272
 40
0.532068119
 40
0.6808793952
 40
0.805963582
 40
0.9028513966
 40
0.9396118547
 40
0.9681561953
 40
0.9882775063
 40
1.0
 40
1.0
 40
1.0
 40
1.0
 10
321.3529831676
 20
182.7874744702
 30
0.0
 10
321.4081514216
 20
182.7586987773
 30
0.0
 10
321.4882619651
 20
182.7161002195
 30
0.0
 10
321.5899789913
 20
182.6601274965
 30
0.0
 10
321.6554606728
 20
182.6231289762
 30
0.0
 10
321.710026178
 20
182.5912016945
 30
0.0
 10
321.7476572924
 20
182.5681338262
 30
0.0
 10
321.7707251486
 20
182.5529048241
 30
0.0
 10
321.7826719193
 20
182.5445071848
 30
0.0
 10
321.7906496289
 20
182.5380922847
 30
0.0
 10
321.7946847152
 20
182.5342925698
 30
0.0
 10
321.7956880628
 20
182.5325637775
 30
0.0
  0
SPLINE
  5
4F6
100
AcDbEntity
  8
RACCORDO
100
AcDbSpline
 62
250
  6
CONTINUOUS
 70
0
 71
3
 72
16
 73
12
 74
0
 42
0.0000001
 43
0.0000001
 44
0.0000000001
 40
0.0
 40
0.0
 40
0.0
 40
0.0
 40
0.3649074881
 40
0.5320686153
 40
0.6808798279
 40
0.8059638904
 40
0.9028515643
 40
0.9396119595
 40
0.9681562485
 40
0.9882775233
 40
1.0
 40
1.0
 40
1.0
 40
1.0
 10
367.7455118982
 20
182.7874745366
 30
0.0
 10
367.6903437047
 20
182.7586988673
 30
0.0
 10
367.6102332757
 20
182.7161003583
 30
0.0
 10
367.5085164282
 20
182.6601277113
 30
0.0
 10
367.4430349278
 20
182.6231292751
 30
0.0
 10
367.3884696051
 20
182.5912020803
 30
0.0
 10
367.3508386333
 20
182.5681342804
 30
0.0
 10
367.3277708744
 20
182.5529053255
 30
0.0
 10
367.3158241576
 20
182.5445077121
 30
0.0
 10
367.3078464862
 20
182.5380928309
 30
0.0
 10
367.3038114209
 20
182.5342931249
 30
0.0
 10
367.3028080808
 20
182.5325643369
 30
0.0
  0
SPLINE
  5
4F7
100
AcDbEntity
  8
RACCORDO
100
AcDbSpline
 62
250
  6
CONTINUOUS
 70
0
 71
3
 72
17
 73
13
 74
0
 42
0.0000001
 43
0.0000001
 44
0.0000000001
 40
0.0
 40
0.0
 40
0.0
 40
0.0
 40
0.1883373037
 40
0.3699717454
 40
0.5383165423
 40
0.6874066114
 40
0.8118972776
 40
0.9073853051
 40
0.9431764012
 40
0.9705983712
 40
0.9894862678
 40
1.0
 40
1.0
 40
1.0
 40
1.0
 10
367.8930250523
 20
182.1898511731
 30
0.0
 10
367.8615814075
 20
182.1897704501
 30
0.0
 10
367.7998136349
 20
182.1893282265
 30
0.0
 10
367.7099498089
 20
182.1878332259
 30
0.0
 10
367.6266587098
 20
182.1855641376
 30
0.0
 10
367.5529281602
 20
182.1826286697
 30
0.0
 10
367.4914204595
 20
182.179119835
 30
0.0
 10
367.4488196047
 20
182.1756865779
 30
0.0
 10
367.4225471373
 20
182.1725133239
 30
0.0
 10
367.4089333338
 20
182.1703885368
 30
0.0
 10
367.3998306617
 20
182.1681965327
 30
0.0
 10
367.3949895569
 20
182.1665307725
 30
0.0
 10
367.3937102849
 20
182.165328861
 30
0.0
  0
SPLINE
  5
4F8
100
AcDbEntity
  8
RACCORDO
100
AcDbSpline
 62
250
  6
CONTINUOUS
 70
0
 71
3
 72
17
 73
13
 74
0
 42
0.0000001
 43
0.0000001
 44
0.0000000001
 40
0.0
 40
0.0
 40
0.0
 40
0.0
 40
0.1883365333
 40
0.3699705615
 40
0.5383152696
 40
0.6874055073
 40
0.8118964993
 40
0.907384892
 40
0.9431761489
 40
0.9705982486
 40
0.9894862326
 40
1.0
 40
1.0
 40
1.0
 40
1.0
 10
367.8930250522
 20
138.049688464
 30
0.0
 10
367.8615813506
 20
138.0497691716
 30
0.0
 10
367.7998134113
 20
138.0502113667
 30
0.0
 10
367.7099492672
 20
138.0517063282
 30
0.0
 10
367.6266577315
 20
138.0539753839
 30
0.0
 10
367.5529266779
 20
138.0569108269
 30
0.0
 10
367.4914184687
 20
138.0604196455
 30
0.0
 10
367.4488172178
 20
138.063852894
 30
0.0
 10
367.4225444829
 20
138.0670261461
 30
0.0
 10
367.4089305331
 20
138.0691509319
 30
0.0
 10
367.399827762
 20
138.0713429394
 30
0.0
 10
367.3949866032
 20
138.0730086966
 30
0.0
 10
367.3937073132
 20
138.0742106125
 30
0.0
  0
SPLINE
  5
4F9
100
AcDbEntity
  8
RACCORDO
100
AcDbSpline
 62
250
  6
CONTINUOUS
 70
0
 71
3
 72
16
 73
12
 74
0
 42
0.0000001
 43
0.0000001
 44
0.0000000001
 40
0.0
 40
0.0
 40
0.0
 40
0.0
 40
0.3649070272
 40
0.532068119
 40
0.6808793953
 40
0.805963582
 40
0.9028513966
 40
0.9396118547
 40
0.9681561953
 40
0.9882775063
 40
1.0
 40
1.0
 40
1.0
 40
1.0
 10
367.7455118982
 20
137.4520650035
 30
0.0
 10
367.6903436442
 20
137.4808406964
 30
0.0
 10
367.6102331007
 20
137.5234392541
 30
0.0
 10
367.5085160744
 20
137.5794119772
 30
0.0
 10
367.443034393
 20
137.6164104975
 30
0.0
 10
367.3884688878
 20
137.6483377792
 30
0.0
 10
367.3508377734
 20
137.6714056475
 30
0.0
 10
367.3277699172
 20
137.6866346496
 30
0.0
 10
367.3158231465
 20
137.6950322889
 30
0.0
 10
367.3078454369
 20
137.701447189
 30
0.0
 10
367.3038103506
 20
137.7052469039
 30
0.0
 10
367.3028070029
 20
137.7069756962
 30
0.0
  0
SPLINE
  5
4FA
100
AcDbEntity
  8
RACCORDO
100
AcDbSpline
 62
250
  6
CONTINUOUS
 70
0
 71
3
 72
16
 73
12
 74
0
 42
0.0000001
 43
0.0000001
 44
0.0000000001
 40
0.0
 40
0.0
 40
0.0
 40
0.0
 40
0.3649075159
 40
0.5320686454
 40
0.680879854
 40
0.8059639086
 40
0.9028515737
 40
0.9396119651
 40
0.968156251
 40
0.988277524
 40
1.0
 40
1.0
 40
1.0
 40
1.0
 10
321.3529831676
 20
137.4520649329
 30
0.0
 10
321.4081513584
 20
137.4808406014
 30
0.0
 10
321.488261782
 20
137.5234391084
 30
0.0
 10
321.5899786205
 20
137.5794117519
 30
0.0
 10
321.6554601112
 20
137.6164101837
 30
0.0
 10
321.7100254237
 20
137.6483373737
 30
0.0
 10
321.7476563876
 20
137.6714051697
 30
0.0
 10
321.7707241411
 20
137.686634122
 30
0.0
 10
321.7826708549
 20
137.6950317339
 30
0.0
 10
321.7906485243
 20
137.7014466141
 30
0.0
 10
321.7946835886
 20
137.7052463196
 30
0.0
 10
321.7956869284
 20
137.7069751074
 30
0.0
  0
SPLINE
  5
4FB
100
AcDbEntity
  8
RACCORDO
100
AcDbSpline
 62
250
  6
CONTINUOUS
 70
0
 71
3
 72
17
 73
13
 74
0
 42
0.0000001
 43
0.0000001
 44
0.0000000001
 40
0.0
 40
0.0
 40
0.0
 40
0.0
 40
0.1883373037
 40
0.3699717454
 40
0.5383165423
 40
0.6874066114
 40
0.8118972776
 40
0.9073853051
 40
0.9431764012
 40
0.9705983712
 40
0.9894862678
 40
1.0
 40
1.0
 40
1.0
 40
1.0
 10
321.2054700135
 20
138.0496883006
 30
0.0
 10
321.2369136583
 20
138.0497690236
 30
0.0
 10
321.2986814309
 20
138.0502112472
 30
0.0
 10
321.3885452569
 20
138.0517062477
 30
0.0
 10
321.471836356
 20
138.0539753361
 30
0.0
 10
321.5455669056
 20
138.056910804
 30
0.0
 10
321.6070746063
 20
138.0604196387
 30
0.0
 10
321.6496754611
 20
138.0638528958
 30
0.0
 10
321.6759479285
 20
138.0670261498
 30
0.0
 10
321.689561732
 20
138.0691509369
 30
0.0
 10
321.698664404
 20
138.0713429409
 30
0.0
 10
321.7035055089
 20
138.0730087012
 30
0.0
 10
321.7047847809
 20
138.0742106126
 30
0.0
  0
SPLINE
  5
4FC
100
AcDbEntity
  8
RACCORDO
100
AcDbSpline
 62
250
  6
CONTINUOUS
 70
0
 71
3
 72
11
 73
7
 74
0
 42
0.0000001
 43
0.0000001
 44
0.0000000001
 40
0.0
 40
0.0
 40
0.0
 40
0.0
 40
0.2518127979
 40
0.5024855629
 40
0.7516902237
 40
1.0
 40
1.0
 40
1.0
 40
1.0
 10
388.4274234098
 20
115.488087232
 30
0.0
 10
388.5192492585
 20
115.4880819129
 30
0.0
 10
388.704633455
 20
115.5255460935
 30
0.0
 10
388.9361229916
 20
115.6854328446
 30
0.0
 10
389.0871401085
 20
115.9209059987
 30
0.0
 10
389.1205697778
 20
116.1045972041
 30
0.0
 10
389.1197172311
 20
116.1951416304
 30
0.0
  0
SPLINE
  5
4FD
100
AcDbEntity
  8
RACCORDO
100
AcDbSpline
 62
250
  6
CONTINUOUS
 70
0
 71
3
 72
11
 73
7
 74
0
 42
0.0000001
 43
0.0000001
 44
0.0000000001
 40
0.0
 40
0.0
 40
0.0
 40
0.0
 40
0.2483099529
 40
0.4975145361
 40
0.7481871248
 40
1.0
 40
1.0
 40
1.0
 40
1.0
 10
86.9787778347
 20
116.1951416304
 30
0.0
 10
86.9779201999
 20
116.1045971863
 30
0.0
 10
87.0113568422
 20
115.920905551
 30
0.0
 10
87.1623714509
 20
115.6854335667
 30
0.0
 10
87.393861908
 20
115.5255437702
 30
0.0
 10
87.5792457775
 20
115.4880879984
 30
0.0
 10
87.671071656
 20
115.488087232
 30
0.0
  0
SPLINE
  5
4FE
100
AcDbEntity
  8
ASSI
100
AcDbSpline
 62
250
  6
CONTINUOUS
 70
0
 71
3
 72
11
 73
7
 74
0
 42
0.0000001
 43
0.0000001
 44
0.0000000001
 40
0.0
 40
0.0
 40
0.0
 40
0.0
 40
0.2494354361
 40
0.4990868433
 40
0.749275709
 40
1.0
 40
1.0
 40
1.0
 40
1.0
 10
86.6791889743
 20
116.248340713
 30
0.0
 10
86.6784313865
 20
116.1186230709
 30
0.0
 10
86.7279170698
 20
115.855960111
 30
0.0
 10
86.9463966038
 20
115.5214750986
 30
0.0
 10
87.2772631347
 20
115.2959451327
 30
0.0
 10
87.540681572
 20
115.2430718575
 30
0.0
 10
87.671071656
 20
115.2429643252
 30
0.0
  0
SPLINE
  5
4FF
100
AcDbEntity
  8
ASSI
100
AcDbSpline
 62
250
  6
CONTINUOUS
 70
0
 71
3
 72
11
 73
7
 74
0
 42
0.0000001
 43
0.0000001
 44
0.0000000001
 40
0.0
 40
0.0
 40
0.0
 40
0.0
 40
0.2507240694
 40
0.500913044
 40
0.7505645635
 40
1.0
 40
1.0
 40
1.0
 40
1.0
 10
87.671071656
 20
204.9965751485
 30
0.0
 10
87.5406816864
 20
204.9964720982
 30
0.0
 10
87.2772631904
 20
204.9435924192
 30
0.0
 10
86.9463971431
 20
204.7180650629
 30
0.0
 10
86.7279157639
 20
204.3835792151
 30
0.0
 10
86.6784345536
 20
204.1209164187
 30
0.0
 10
86.6791889743
 20
203.9911987607
 30
0.0
  0
SPLINE
  5
500
100
AcDbEntity
  8
ASSI
100
AcDbSpline
 62
250
  6
CONTINUOUS
 70
0
 71
3
 72
11
 73
7
 74
0
 42
0.0000001
 43
0.0000001
 44
0.0000000001
 40
0.0
 40
0.0
 40
0.0
 40
0.0
 40
0.2507240694
 40
0.500913044
 40
0.7505645635
 40
1.0
 40
1.0
 40
1.0
 40
1.0
 10
388.4274234098
 20
115.2429643252
 30
0.0
 10
388.5578133794
 20
115.2430673755
 30
0.0
 10
388.8212318754
 20
115.2959470544
 30
0.0
 10
389.1520979226
 20
115.5214744108
 30
0.0
 10
389.3705793019
 20
115.8559602586
 30
0.0
 10
389.4200605122
 20
116.118623055
 30
0.0
 10
389.4193060915
 20
116.248340713
 30
0.0
  0
SPLINE
  5
501
100
AcDbEntity
  8
ASSI
100
AcDbSpline
 62
250
  6
CONTINUOUS
 70
0
 71
3
 72
11
 73
7
 74
0
 42
0.0000001
 43
0.0000001
 44
0.0000000001
 40
0.0
 40
0.0
 40
0.0
 40
0.0
 40
0.2494354361
 40
0.4990868433
 40
0.749275709
 40
1.0
 40
1.0
 40
1.0
 40
1.0
 10
389.4193060915
 20
203.9911987607
 30
0.0
 10
389.4200636792
 20
204.1209164028
 30
0.0
 10
389.3705779959
 20
204.3835793627
 30
0.0
 10
389.152098462
 20
204.7180643751
 30
0.0
 10
388.821231931
 20
204.9435943409
 30
0.0
 10
388.5578134938
 20
204.9964676162
 30
0.0
 10
388.4274234098
 20
204.9965751485
 30
0.0
  0
SPLINE
  5
502
100
AcDbEntity
  8
ASSI
100
AcDbSpline
 62
250
  6
CONTINUOUS
 70
0
 71
3
 72
12
 73
8
 74
0
 42
0.0000001
 43
0.0000001
 44
0.0000000001
 40
0.0
 40
0.0
 40
0.0
 40
0.0
 40
0.3595512906
 40
0.6698336781
 40
0.8896315328
 40
0.9578906497
 40
1.0
 40
1.0
 40
1.0
 40
1.0
 10
86.9787778347
 20
204.0443978311
 30
0.0
 10
86.9416688781
 20
204.0440584254
 30
0.0
 10
86.8724377883
 20
204.0412418162
 30
0.0
 10
86.7814327387
 20
204.0308353894
 30
0.0
 10
86.7202697895
 20
204.0175979194
 30
0.0
 10
86.6894584279
 20
204.0038058515
 30
0.0
 10
86.680399736
 20
203.9953729595
 30
0.0
 10
86.6791889743
 20
203.9911987607
 30
0.0
  0
SPLINE
  5
503
100
AcDbEntity
  8
ASSI
100
AcDbSpline
 62
250
  6
CONTINUOUS
 70
0
 71
3
 72
15
 73
11
 74
0
 42
0.0000001
 43
0.0000001
 44
0.0000000001
 40
0.0
 40
0.0
 40
0.0
 40
0.0
 40
0.3699314204
 40
0.5382348082
 40
0.6873179796
 40
0.8118010356
 40
0.9072847374
 40
0.9705146445
 40
0.9894316735
 40
1.0
 40
1.0
 40
1.0
 40
1.0
 10
87.1064773148
 20
182.78747463
 30
0.0
 10
87.0694150328
 20
182.7873769127
 30
0.0
 10
87.0154913554
 20
182.7867536641
 30
0.0
 10
86.94665187
 20
182.7848365847
 30
0.0
 10
86.9024287024
 20
182.7830127928
 30
0.0
 10
86.8654832563
 20
182.7808920141
 30
0.0
 10
86.8372839081
 20
182.7784449649
 30
0.0
 10
86.8194737989
 20
182.7763059323
 30
0.0
 10
86.8105547582
 20
182.7741317432
 30
0.0
 10
86.8076503496
 20
182.7730980807
 30
0.0
 10
86.8068884544
 20
182.7723628273
 30
0.0
  0
SPLINE
  5
504
100
AcDbEntity
  8
ASSI
100
AcDbSpline
 62
250
  6
CONTINUOUS
 70
0
 71
3
 72
15
 73
11
 74
0
 42
0.0000001
 43
0.0000001
 44
0.0000000001
 40
0.0
 40
0.0
 40
0.0
 40
0.0
 40
0.3699314173
 40
0.5382348041
 40
0.687317975
 40
0.8118010311
 40
0.9072847337
 40
0.9705146424
 40
0.9894316724
 40
1.0
 40
1.0
 40
1.0
 40
1.0
 10
87.1064773148
 20
137.452064844
 30
0.0
 10
87.0694150331
 20
137.4521625612
 30
0.0
 10
87.0154913562
 20
137.4527858098
 30
0.0
 10
86.9466518712
 20
137.4547028891
 30
0.0
 10
86.9024287038
 20
137.456526681
 30
0.0
 10
86.8654832577
 20
137.4586474597
 30
0.0
 10
86.8372839092
 20
137.4610945088
 30
0.0
 10
86.8194737997
 20
137.4632335414
 30
0.0
 10
86.8105547585
 20
137.4654077305
 30
0.0
 10
86.8076503498
 20
137.466441393
 30
0.0
 10
86.8068884544
 20
137.4671766464
 30
0.0
  0
SPLINE
  5
505
100
AcDbEntity
  8
ASSI
100
AcDbSpline
 62
250
  6
CONTINUOUS
 70
0
 71
3
 72
12
 73
8
 74
0
 42
0.0000001
 43
0.0000001
 44
0.0000000001
 40
0.0
 40
0.0
 40
0.0
 40
0.0
 40
0.3595520059
 40
0.6698343049
 40
0.8896317074
 40
0.9578906601
 40
1.0
 40
1.0
 40
1.0
 40
1.0
 10
86.9787778347
 20
116.1951416343
 30
0.0
 10
86.9416691156
 20
116.1954810835
 30
0.0
 10
86.8724385447
 20
116.1982977503
 30
0.0
 10
86.7814342506
 20
116.2087042118
 30
0.0
 10
86.7202719127
 20
116.2219416658
 30
0.0
 10
86.6894608991
 20
116.235733689
 30
0.0
 10
86.6804023459
 20
116.2441665456
 30
0.0
 10
86.67919161
 20
116.2483407129
 30
0.0
  0
SPLINE
  5
506
100
AcDbEntity
  8
ASSI
100
AcDbSpline
 62
250
  6
CONTINUOUS
 70
0
 71
3
 72
12
 73
8
 74
0
 42
0.0000001
 43
0.0000001
 44
0.0000000001
 40
0.0
 40
0.0
 40
0.0
 40
0.0
 40
0.3595512906
 40
0.6698336781
 40
0.8896315328
 40
0.9578906497
 40
1.0
 40
1.0
 40
1.0
 40
1.0
 10
389.1197172311
 20
116.1951416426
 30
0.0
 10
389.1568261877
 20
116.1954810483
 30
0.0
 10
389.2260572775
 20
116.1982976574
 30
0.0
 10
389.3170623271
 20
116.2087040842
 30
0.0
 10
389.3782252763
 20
116.2219415543
 30
0.0
 10
389.4090366379
 20
116.2357336222
 30
0.0
 10
389.4180953298
 20
116.2441665142
 30
0.0
 10
389.4193060915
 20
116.248340713
 30
0.0
  0
SPLINE
  5
507
100
AcDbEntity
  8
ASSI
100
AcDbSpline
 62
250
  6
CONTINUOUS
 70
0
 71
3
 72
15
 73
11
 74
0
 42
0.0000001
 43
0.0000001
 44
0.0000000001
 40
0.0
 40
0.0
 40
0.0
 40
0.0
 40
0.3699314211
 40
0.5382348092
 40
0.6873179807
 40
0.8118010367
 40
0.9072847383
 40
0.970514645
 40
0.9894316738
 40
1.0
 40
1.0
 40
1.0
 40
1.0
 10
388.992017751
 20
137.4520648437
 30
0.0
 10
389.0290800331
 20
137.4521625609
 30
0.0
 10
389.0830037105
 20
137.4527858096
 30
0.0
 10
389.1518431961
 20
137.4547028889
 30
0.0
 10
389.1960663637
 20
137.4565266808
 30
0.0
 10
389.2330118098
 20
137.4586474596
 30
0.0
 10
389.261211158
 20
137.4610945087
 30
0.0
 10
389.2790212671
 20
137.4632335413
 30
0.0
 10
389.2879403077
 20
137.4654077305
 30
0.0
 10
389.2908447162
 20
137.466441393
 30
0.0
 10
389.2916066114
 20
137.4671766464
 30
0.0
  0
SPLINE
  5
508
100
AcDbEntity
  8
ASSI
100
AcDbSpline
 62
250
  6
CONTINUOUS
 70
0
 71
3
 72
15
 73
11
 74
0
 42
0.0000001
 43
0.0000001
 44
0.0000000001
 40
0.0
 40
0.0
 40
0.0
 40
0.0
 40
0.3699314173
 40
0.5382348041
 40
0.687317975
 40
0.8118010311
 40
0.9072847337
 40
0.9705146424
 40
0.9894316724
 40
1.0
 40
1.0
 40
1.0
 40
1.0
 10
388.992017751
 20
182.7874746297
 30
0.0
 10
389.0290800327
 20
182.7873769125
 30
0.0
 10
389.0830037096
 20
182.7867536638
 30
0.0
 10
389.1518431945
 20
182.7848365846
 30
0.0
 10
389.196066362
 20
182.7830127927
 30
0.0
 10
389.2330118081
 20
182.780892014
 30
0.0
 10
389.2612111566
 20
182.7784449649
 30
0.0
 10
389.2790212661
 20
182.7763059322
 30
0.0
 10
389.2879403073
 20
182.7741317432
 30
0.0
 10
389.290844716
 20
182.7730980807
 30
0.0
 10
389.2916066114
 20
182.7723628273
 30
0.0
  0
SPLINE
  5
509
100
AcDbEntity
  8
ASSI
100
AcDbSpline
 62
250
  6
CONTINUOUS
 70
0
 71
3
 72
12
 73
8
 74
0
 42
0.0000001
 43
0.0000001
 44
0.0000000001
 40
0.0
 40
0.0
 40
0.0
 40
0.0
 40
0.3595520059
 40
0.6698343049
 40
0.8896317074
 40
0.9578906601
 40
1.0
 40
1.0
 40
1.0
 40
1.0
 10
389.1197172311
 20
204.0443978394
 30
0.0
 10
389.1568259502
 20
204.0440583902
 30
0.0
 10
389.2260565211
 20
204.0412417234
 30
0.0
 10
389.3170608152
 20
204.0308352619
 30
0.0
 10
389.378223153
 20
204.0175978078
 30
0.0
 10
389.4090341667
 20
204.0038057847
 30
0.0
 10
389.4180927199
 20
203.9953729281
 30
0.0
 10
389.4193034558
 20
203.9911987608
 30
0.0
  0
SPLINE
  5
50A
100
AcDbEntity
  8
ASSI
100
AcDbSpline
 62
250
  6
CONTINUOUS
 70
0
 71
3
 72
11
 73
7
 74
0
 42
0.0000001
 43
0.0000001
 44
0.0000000001
 40
0.0
 40
0.0
 40
0.0
 40
0.0
 40
0.2498971202
 40
0.4998189159
 40
0.749841834
 40
1.0
 40
1.0
 40
1.0
 40
1.0
 10
367.3028095456
 20
137.7069743766
 30
0.0
 10
367.2691542477
 20
137.6427728925
 30
0.0
 10
367.1837151596
 20
137.5229928015
 30
0.0
 10
367.0121392963
 20
137.3850834917
 30
0.0
 10
366.8098024599
 20
137.2982405328
 30
0.0
 10
366.6639191709
 20
137.2786603191
 30
0.0
 10
366.5913555598
 20
137.2787851801
 30
0.0
  0
SPLINE
  5
50B
100
AcDbEntity
  8
ASSI
100
AcDbSpline
 62
250
  6
CONTINUOUS
 70
0
 71
3
 72
11
 73
7
 74
0
 42
0.0000001
 43
0.0000001
 44
0.0000000001
 40
0.0
 40
0.0
 40
0.0
 40
0.0
 40
0.2501564251
 40
0.5001794281
 40
0.7501015582
 40
1.0
 40
1.0
 40
1.0
 40
1.0
 10
366.5913413385
 20
182.9607542697
 30
0.0
 10
366.6639056213
 20
182.9608786467
 30
0.0
 10
366.8097911583
 20
182.9413032707
 30
0.0
 10
367.0121321102
 20
182.8544604696
 30
0.0
 10
367.183712245
 20
182.7165502193
 30
0.0
 10
367.2691537262
 20
182.596768067
 30
0.0
 10
367.3028095456
 20
182.532565097
 30
0.0
  0
SPLINE
  5
50C
100
AcDbEntity
  8
ASSI
100
AcDbSpline
 62
250
  6
CONTINUOUS
 70
0
 71
3
 72
11
 73
7
 74
0
 42
0.0000001
 43
0.0000001
 44
0.0000000001
 40
0.0
 40
0.0
 40
0.0
 40
0.0
 40
0.2498971202
 40
0.4998189159
 40
0.749841834
 40
1.0
 40
1.0
 40
1.0
 40
1.0
 10
321.7956855202
 20
182.532565097
 30
0.0
 10
321.8293408181
 20
182.5967665812
 30
0.0
 10
321.9147799062
 20
182.7165466722
 30
0.0
 10
322.0863557695
 20
182.854455982
 30
0.0
 10
322.2886926059
 20
182.9412989409
 30
0.0
 10
322.4345758949
 20
182.9608791546
 30
0.0
 10
322.5071395059
 20
182.9607542936
 30
0.0
  0
SPLINE
  5
50D
100
AcDbEntity
  8
ASSI
100
AcDbSpline
 62
250
  6
CONTINUOUS
 70
0
 71
3
 72
11
 73
7
 74
0
 42
0.0000001
 43
0.0000001
 44
0.0000000001
 40
0.0
 40
0.0
 40
0.0
 40
0.0
 40
0.2501564251
 40
0.5001794281
 40
0.7501015582
 40
1.0
 40
1.0
 40
1.0
 40
1.0
 10
322.5071537273
 20
137.2787852039
 30
0.0
 10
322.4345894445
 20
137.278660827
 30
0.0
 10
322.2887039074
 20
137.298236203
 30
0.0
 10
322.0863629556
 20
137.3850790041
 30
0.0
 10
321.9147828208
 20
137.5229892544
 30
0.0
 10
321.8293413395
 20
137.6427714067
 30
0.0
 10
321.7956855202
 20
137.7069743766
 30
0.0
  0
SPLINE
  5
50E
100
AcDbEntity
  8
ASSI
100
AcDbSpline
 62
250
  6
CONTINUOUS
 70
0
 71
3
 72
11
 73
7
 74
0
 42
0.0000001
 43
0.0000001
 44
0.0000000001
 40
0.0
 40
0.0
 40
0.0
 40
0.0
 40
0.2501564251
 40
0.5001794281
 40
0.7501015582
 40
1.0
 40
1.0
 40
1.0
 40
1.0
 10
295.5913413385
 20
182.9607542697
 30
0.0
 10
295.6639056213
 20
182.9608786467
 30
0.0
 10
295.8097911583
 20
182.9413032707
 30
0.0
 10
296.0121321102
 20
182.8544604696
 30
0.0
 10
296.183712245
 20
182.7165502193
 30
0.0
 10
296.2691537263
 20
182.596768067
 30
0.0
 10
296.3028095456
 20
182.532565097
 30
0.0
  0
SPLINE
  5
50F
100
AcDbEntity
  8
ASSI
100
AcDbSpline
 62
250
  6
CONTINUOUS
 70
0
 71
3
 72
11
 73
7
 74
0
 42
0.0000001
 43
0.0000001
 44
0.0000000001
 40
0.0
 40
0.0
 40
0.0
 40
0.0
 40
0.2498971202
 40
0.4998189159
 40
0.749841834
 40
1.0
 40
1.0
 40
1.0
 40
1.0
 10
296.3028095456
 20
137.7069743766
 30
0.0
 10
296.2691542477
 20
137.6427728925
 30
0.0
 10
296.1837151596
 20
137.5229928015
 30
0.0
 10
296.0121392963
 20
137.3850834917
 30
0.0
 10
295.8098024599
 20
137.2982405328
 30
0.0
 10
295.6639191709
 20
137.2786603191
 30
0.0
 10
295.5913555598
 20
137.2787851801
 30
0.0
  0
SPLINE
  5
510
100
AcDbEntity
  8
ASSI
100
AcDbSpline
 62
250
  6
CONTINUOUS
 70
0
 71
3
 72
11
 73
7
 74
0
 42
0.0000001
 43
0.0000001
 44
0.0000000001
 40
0.0
 40
0.0
 40
0.0
 40
0.0
 40
0.2501564251
 40
0.5001794281
 40
0.7501015582
 40
1.0
 40
1.0
 40
1.0
 40
1.0
 10
251.5071537273
 20
137.2787852039
 30
0.0
 10
251.4345894445
 20
137.278660827
 30
0.0
 10
251.2887039074
 20
137.298236203
 30
0.0
 10
251.0863629556
 20
137.3850790041
 30
0.0
 10
250.9147828208
 20
137.5229892544
 30
0.0
 10
250.8293413395
 20
137.6427714067
 30
0.0
 10
250.7956855202
 20
137.7069743766
 30
0.0
  0
SPLINE
  5
511
100
AcDbEntity
  8
ASSI
100
AcDbSpline
 62
250
  6
CONTINUOUS
 70
0
 71
3
 72
11
 73
7
 74
0
 42
0.0000001
 43
0.0000001
 44
0.0000000001
 40
0.0
 40
0.0
 40
0.0
 40
0.0
 40
0.2518127979
 40
0.5024855629
 40
0.7516902237
 40
1.0
 40
1.0
 40
1.0
 40
1.0
 10
87.671071656
 20
204.7514522417
 30
0.0
 10
87.5792458073
 20
204.7514575608
 30
0.0
 10
87.3938616108
 20
204.7139933802
 30
0.0
 10
87.1623720742
 20
204.5541066291
 30
0.0
 10
87.0113549573
 20
204.318633475
 30
0.0
 10
86.977925288
 20
204.1349422695
 30
0.0
 10
86.9787778347
 20
204.0443978433
 30
0.0
  0
SPLINE
  5
512
100
AcDbEntity
  8
ASSI
100
AcDbSpline
 62
250
  6
CONTINUOUS
 70
0
 71
3
 72
11
 73
7
 74
0
 42
0.0000001
 43
0.0000001
 44
0.0000000001
 40
0.0
 40
0.0
 40
0.0
 40
0.0
 40
0.2498971202
 40
0.4998189159
 40
0.749841834
 40
1.0
 40
1.0
 40
1.0
 40
1.0
 10
250.7956855202
 20
182.532565097
 30
0.0
 10
250.8293408181
 20
182.5967665812
 30
0.0
 10
250.9147799062
 20
182.7165466722
 30
0.0
 10
251.0863557695
 20
182.854455982
 30
0.0
 10
251.2886926059
 20
182.9412989409
 30
0.0
 10
251.4345758949
 20
182.9608791546
 30
0.0
 10
251.5071395059
 20
182.9607542936
 30
0.0
  0
SPLINE
  5
513
100
AcDbEntity
  8
ASSI
100
AcDbSpline
 62
250
  6
CONTINUOUS
 70
0
 71
3
 72
11
 73
7
 74
0
 42
0.0000001
 43
0.0000001
 44
0.0000000001
 40
0.0
 40
0.0
 40
0.0
 40
0.0
 40
0.2501564251
 40
0.5001794281
 40
0.7501015582
 40
1.0
 40
1.0
 40
1.0
 40
1.0
 10
224.5913413385
 20
182.9607542697
 30
0.0
 10
224.6639056213
 20
182.9608786467
 30
0.0
 10
224.8097911583
 20
182.9413032707
 30
0.0
 10
225.0121321102
 20
182.8544604696
 30
0.0
 10
225.183712245
 20
182.7165502193
 30
0.0
 10
225.2691537263
 20
182.596768067
 30
0.0
 10
225.3028095456
 20
182.532565097
 30
0.0
  0
SPLINE
  5
514
100
AcDbEntity
  8
ASSI
100
AcDbSpline
 62
250
  6
CONTINUOUS
 70
0
 71
3
 72
11
 73
7
 74
0
 42
0.0000001
 43
0.0000001
 44
0.0000000001
 40
0.0
 40
0.0
 40
0.0
 40
0.0
 40
0.2483099529
 40
0.4975145361
 40
0.7481871248
 40
1.0
 40
1.0
 40
1.0
 40
1.0
 10
389.1197172311
 20
204.0443978433
 30
0.0
 10
389.1205748659
 20
204.1349422874
 30
0.0
 10
389.0871382236
 20
204.3186339227
 30
0.0
 10
388.9361236149
 20
204.554105907
 30
0.0
 10
388.7046331578
 20
204.7139957035
 30
0.0
 10
388.5192492883
 20
204.7514514753
 30
0.0
 10
388.4274234098
 20
204.7514522417
 30
0.0
  0
SPLINE
  5
515
100
AcDbEntity
  8
ASSI
100
AcDbSpline
 62
250
  6
CONTINUOUS
 70
0
 71
3
 72
11
 73
7
 74
0
 42
0.0000001
 43
0.0000001
 44
0.0000000001
 40
0.0
 40
0.0
 40
0.0
 40
0.0
 40
0.2498971202
 40
0.4998189159
 40
0.749841834
 40
1.0
 40
1.0
 40
1.0
 40
1.0
 10
179.7956855202
 20
182.532565097
 30
0.0
 10
179.8293408181
 20
182.5967665812
 30
0.0
 10
179.9147799062
 20
182.7165466722
 30
0.0
 10
180.0863557695
 20
182.854455982
 30
0.0
 10
180.2886926059
 20
182.9412989409
 30
0.0
 10
180.4345758949
 20
182.9608791546
 30
0.0
 10
180.5071395059
 20
182.9607542936
 30
0.0
  0
SPLINE
  5
516
100
AcDbEntity
  8
ASSI
100
AcDbSpline
 62
250
  6
CONTINUOUS
 70
0
 71
3
 72
11
 73
7
 74
0
 42
0.0000001
 43
0.0000001
 44
0.0000000001
 40
0.0
 40
0.0
 40
0.0
 40
0.0
 40
0.2501564251
 40
0.5001794281
 40
0.7501015582
 40
1.0
 40
1.0
 40
1.0
 40
1.0
 10
180.5071537273
 20
137.2787852039
 30
0.0
 10
180.4345894445
 20
137.278660827
 30
0.0
 10
180.2887039074
 20
137.298236203
 30
0.0
 10
180.0863629556
 20
137.3850790041
 30
0.0
 10
179.9147828208
 20
137.5229892544
 30
0.0
 10
179.8293413395
 20
137.6427714067
 30
0.0
 10
179.7956855202
 20
137.7069743766
 30
0.0
  0
SPLINE
  5
517
100
AcDbEntity
  8
ASSI
100
AcDbSpline
 62
250
  6
CONTINUOUS
 70
0
 71
3
 72
11
 73
7
 74
0
 42
0.0000001
 43
0.0000001
 44
0.0000000001
 40
0.0
 40
0.0
 40
0.0
 40
0.0
 40
0.2498971202
 40
0.4998189159
 40
0.749841834
 40
1.0
 40
1.0
 40
1.0
 40
1.0
 10
225.3028095456
 20
137.7069743766
 30
0.0
 10
225.2691542477
 20
137.6427728925
 30
0.0
 10
225.1837151596
 20
137.5229928015
 30
0.0
 10
225.0121392963
 20
137.3850834917
 30
0.0
 10
224.8098024599
 20
137.2982405328
 30
0.0
 10
224.6639191709
 20
137.2786603191
 30
0.0
 10
224.5913555598
 20
137.2787851801
 30
0.0
  0
SPLINE
  5
518
100
AcDbEntity
  8
ASSI
100
AcDbSpline
 62
250
  6
CONTINUOUS
 70
0
 71
3
 72
11
 73
7
 74
0
 42
0.0000001
 43
0.0000001
 44
0.0000000001
 40
0.0
 40
0.0
 40
0.0
 40
0.0
 40
0.2501564251
 40
0.5001794281
 40
0.7501015582
 40
1.0
 40
1.0
 40
1.0
 40
1.0
 10
109.5071537273
 20
137.2787852039
 30
0.0
 10
109.4345894445
 20
137.278660827
 30
0.0
 10
109.2887039074
 20
137.298236203
 30
0.0
 10
109.0863629556
 20
137.3850790041
 30
0.0
 10
108.9147828208
 20
137.5229892544
 30
0.0
 10
108.8293413395
 20
137.6427714067
 30
0.0
 10
108.7956855202
 20
137.7069743766
 30
0.0
  0
SPLINE
  5
519
100
AcDbEntity
  8
ASSI
100
AcDbSpline
 62
250
  6
CONTINUOUS
 70
0
 71
3
 72
11
 73
7
 74
0
 42
0.0000001
 43
0.0000001
 44
0.0000000001
 40
0.0
 40
0.0
 40
0.0
 40
0.0
 40
0.2498971202
 40
0.4998189159
 40
0.749841834
 40
1.0
 40
1.0
 40
1.0
 40
1.0
 10
108.7956855202
 20
182.532565097
 30
0.0
 10
108.8293408181
 20
182.5967665812
 30
0.0
 10
108.9147799062
 20
182.7165466722
 30
0.0
 10
109.0863557695
 20
182.854455982
 30
0.0
 10
109.2886926059
 20
182.9412989409
 30
0.0
 10
109.4345758949
 20
182.9608791546
 30
0.0
 10
109.5071395059
 20
182.9607542936
 30
0.0
  0
SPLINE
  5
51A
100
AcDbEntity
  8
ASSI
100
AcDbSpline
 62
250
  6
CONTINUOUS
 70
0
 71
3
 72
11
 73
7
 74
0
 42
0.0000001
 43
0.0000001
 44
0.0000000001
 40
0.0
 40
0.0
 40
0.0
 40
0.0
 40
0.2501564251
 40
0.5001794281
 40
0.7501015582
 40
1.0
 40
1.0
 40
1.0
 40
1.0
 10
153.5913413385
 20
182.9607542697
 30
0.0
 10
153.6639056213
 20
182.9608786467
 30
0.0
 10
153.8097911583
 20
182.9413032707
 30
0.0
 10
154.0121321102
 20
182.8544604696
 30
0.0
 10
154.183712245
 20
182.7165502193
 30
0.0
 10
154.2691537263
 20
182.596768067
 30
0.0
 10
154.3028095456
 20
182.532565097
 30
0.0
  0
SPLINE
  5
51B
100
AcDbEntity
  8
ASSI
100
AcDbSpline
 62
250
  6
CONTINUOUS
 70
0
 71
3
 72
11
 73
7
 74
0
 42
0.0000001
 43
0.0000001
 44
0.0000000001
 40
0.0
 40
0.0
 40
0.0
 40
0.0
 40
0.2498971202
 40
0.4998189159
 40
0.749841834
 40
1.0
 40
1.0
 40
1.0
 40
1.0
 10
154.3028095456
 20
137.7069743766
 30
0.0
 10
154.2691542477
 20
137.6427728925
 30
0.0
 10
154.1837151596
 20
137.5229928015
 30
0.0
 10
154.0121392963
 20
137.3850834917
 30
0.0
 10
153.8098024599
 20
137.2982405328
 30
0.0
 10
153.6639191709
 20
137.2786603191
 30
0.0
 10
153.5913555598
 20
137.2787851801
 30
0.0
  0
SPLINE
  5
51C
100
AcDbEntity
  8
ASSI
100
AcDbSpline
 62
250
  6
CONTINUOUS
 70
0
 71
3
 72
17
 73
13
 74
0
 42
0.0000001
 43
0.0000001
 44
0.0000000001
 40
0.0
 40
0.0
 40
0.0
 40
0.0
 40
0.1883365333
 40
0.3699705615
 40
0.5383152696
 40
0.6874055073
 40
0.8118964993
 40
0.907384892
 40
0.9431761489
 40
0.9705982486
 40
0.9894862326
 40
1.0
 40
1.0
 40
1.0
 40
1.0
 10
154.8930250522
 20
138.049688464
 30
0.0
 10
154.8615813506
 20
138.0497691716
 30
0.0
 10
154.7998134113
 20
138.0502113667
 30
0.0
 10
154.7099492672
 20
138.0517063282
 30
0.0
 10
154.6266577315
 20
138.0539753839
 30
0.0
 10
154.5529266779
 20
138.0569108269
 30
0.0
 10
154.4914184687
 20
138.0604196455
 30
0.0
 10
154.4488172178
 20
138.063852894
 30
0.0
 10
154.4225444829
 20
138.0670261461
 30
0.0
 10
154.4089305331
 20
138.0691509319
 30
0.0
 10
154.399827762
 20
138.0713429394
 30
0.0
 10
154.3949866032
 20
138.0730086966
 30
0.0
 10
154.3937073132
 20
138.0742106125
 30
0.0
  0
SPLINE
  5
51D
100
AcDbEntity
  8
ASSI
100
AcDbSpline
 62
250
  6
CONTINUOUS
 70
0
 71
3
 72
16
 73
12
 74
0
 42
0.0000001
 43
0.0000001
 44
0.0000000001
 40
0.0
 40
0.0
 40
0.0
 40
0.0
 40
0.3649070272
 40
0.532068119
 40
0.6808793953
 40
0.805963582
 40
0.9028513966
 40
0.9396118547
 40
0.9681561953
 40
0.9882775063
 40
1.0
 40
1.0
 40
1.0
 40
1.0
 10
154.7455118982
 20
137.4520650035
 30
0.0
 10
154.6903436442
 20
137.4808406964
 30
0.0
 10
154.6102331007
 20
137.5234392541
 30
0.0
 10
154.5085160744
 20
137.5794119772
 30
0.0
 10
154.443034393
 20
137.6164104975
 30
0.0
 10
154.3884688878
 20
137.6483377792
 30
0.0
 10
154.3508377734
 20
137.6714056475
 30
0.0
 10
154.3277699172
 20
137.6866346496
 30
0.0
 10
154.3158231465
 20
137.6950322889
 30
0.0
 10
154.3078454369
 20
137.701447189
 30
0.0
 10
154.3038103506
 20
137.7052469039
 30
0.0
 10
154.3028070029
 20
137.7069756962
 30
0.0
  0
SPLINE
  5
51E
100
AcDbEntity
  8
ASSI
100
AcDbSpline
 62
250
  6
CONTINUOUS
 70
0
 71
3
 72
16
 73
12
 74
0
 42
0.0000001
 43
0.0000001
 44
0.0000000001
 40
0.0
 40
0.0
 40
0.0
 40
0.0
 40
0.3649075159
 40
0.5320686454
 40
0.680879854
 40
0.8059639086
 40
0.9028515737
 40
0.9396119651
 40
0.968156251
 40
0.988277524
 40
1.0
 40
1.0
 40
1.0
 40
1.0
 10
108.3529831676
 20
137.4520649329
 30
0.0
 10
108.4081513584
 20
137.4808406014
 30
0.0
 10
108.488261782
 20
137.5234391084
 30
0.0
 10
108.5899786205
 20
137.5794117519
 30
0.0
 10
108.6554601112
 20
137.6164101837
 30
0.0
 10
108.7100254237
 20
137.6483373737
 30
0.0
 10
108.7476563876
 20
137.6714051697
 30
0.0
 10
108.7707241411
 20
137.686634122
 30
0.0
 10
108.7826708549
 20
137.6950317339
 30
0.0
 10
108.7906485243
 20
137.7014466141
 30
0.0
 10
108.7946835886
 20
137.7052463196
 30
0.0
 10
108.7956869284
 20
137.7069751074
 30
0.0
  0
SPLINE
  5
51F
100
AcDbEntity
  8
ASSI
100
AcDbSpline
 62
250
  6
CONTINUOUS
 70
0
 71
3
 72
17
 73
13
 74
0
 42
0.0000001
 43
0.0000001
 44
0.0000000001
 40
0.0
 40
0.0
 40
0.0
 40
0.0
 40
0.1883373037
 40
0.3699717454
 40
0.5383165423
 40
0.6874066114
 40
0.8118972776
 40
0.9073853051
 40
0.9431764012
 40
0.9705983712
 40
0.9894862678
 40
1.0
 40
1.0
 40
1.0
 40
1.0
 10
108.2054700135
 20
138.0496883006
 30
0.0
 10
108.2369136583
 20
138.0497690236
 30
0.0
 10
108.2986814309
 20
138.0502112472
 30
0.0
 10
108.3885452569
 20
138.0517062477
 30
0.0
 10
108.471836356
 20
138.0539753361
 30
0.0
 10
108.5455669056
 20
138.056910804
 30
0.0
 10
108.6070746063
 20
138.0604196387
 30
0.0
 10
108.6496754611
 20
138.0638528958
 30
0.0
 10
108.6759479285
 20
138.0670261498
 30
0.0
 10
108.689561732
 20
138.0691509369
 30
0.0
 10
108.698664404
 20
138.0713429409
 30
0.0
 10
108.7035055089
 20
138.0730087012
 30
0.0
 10
108.7047847809
 20
138.0742106126
 30
0.0
  0
SPLINE
  5
520
100
AcDbEntity
  8
ASSI
100
AcDbSpline
 62
250
  6
CONTINUOUS
 70
0
 71
3
 72
17
 73
13
 74
0
 42
0.0000001
 43
0.0000001
 44
0.0000000001
 40
0.0
 40
0.0
 40
0.0
 40
0.0
 40
0.1883364976
 40
0.3699705067
 40
0.5383152106
 40
0.687405456
 40
0.811896463
 40
0.9073848726
 40
0.943176137
 40
0.9705982428
 40
0.9894862308
 40
1.0
 40
1.0
 40
1.0
 40
1.0
 10
108.2054700136
 20
182.1898510021
 30
0.0
 10
108.2369137178
 20
182.1897702952
 30
0.0
 10
108.2986816649
 20
182.1893281015
 30
0.0
 10
108.3885458238
 20
182.1878331418
 30
0.0
 10
108.4718373798
 20
182.1855640876
 30
0.0
 10
108.5455684569
 20
182.1826286457
 30
0.0
 10
108.6070766897
 20
182.1791198279
 30
0.0
 10
108.6496779589
 20
182.1756865798
 30
0.0
 10
108.6759507063
 20
182.1725133277
 30
0.0
 10
108.6895646628
 20
182.170388542
 30
0.0
 10
108.6986674387
 20
182.1681965344
 30
0.0
 10
108.7035085999
 20
182.1665307773
 30
0.0
 10
108.7047878908
 20
182.1653288611
 30
0.0
  0
SPLINE
  5
521
100
AcDbEntity
  8
ASSI
100
AcDbSpline
 62
250
  6
CONTINUOUS
 70
0
 71
3
 72
16
 73
12
 74
0
 42
0.0000001
 43
0.0000001
 44
0.0000000001
 40
0.0
 40
0.0
 40
0.0
 40
0.0
 40
0.3649070272
 40
0.532068119
 40
0.6808793952
 40
0.805963582
 40
0.9028513966
 40
0.9396118547
 40
0.9681561953
 40
0.9882775063
 40
1.0
 40
1.0
 40
1.0
 40
1.0
 10
108.3529831676
 20
182.7874744702
 30
0.0
 10
108.4081514216
 20
182.7586987773
 30
0.0
 10
108.4882619651
 20
182.7161002195
 30
0.0
 10
108.5899789913
 20
182.6601274965
 30
0.0
 10
108.6554606728
 20
182.6231289762
 30
0.0
 10
108.710026178
 20
182.5912016945
 30
0.0
 10
108.7476572924
 20
182.5681338262
 30
0.0
 10
108.7707251486
 20
182.5529048241
 30
0.0
 10
108.7826719193
 20
182.5445071848
 30
0.0
 10
108.7906496289
 20
182.5380922847
 30
0.0
 10
108.7946847152
 20
182.5342925698
 30
0.0
 10
108.7956880628
 20
182.5325637775
 30
0.0
  0
SPLINE
  5
522
100
AcDbEntity
  8
ASSI
100
AcDbSpline
 62
250
  6
CONTINUOUS
 70
0
 71
3
 72
16
 73
12
 74
0
 42
0.0000001
 43
0.0000001
 44
0.0000000001
 40
0.0
 40
0.0
 40
0.0
 40
0.0
 40
0.3649074881
 40
0.5320686153
 40
0.6808798279
 40
0.8059638904
 40
0.9028515643
 40
0.9396119595
 40
0.9681562485
 40
0.9882775233
 40
1.0
 40
1.0
 40
1.0
 40
1.0
 10
154.7455118982
 20
182.7874745366
 30
0.0
 10
154.6903437047
 20
182.7586988673
 30
0.0
 10
154.6102332757
 20
182.7161003583
 30
0.0
 10
154.5085164282
 20
182.6601277113
 30
0.0
 10
154.4430349278
 20
182.6231292751
 30
0.0
 10
154.3884696051
 20
182.5912020803
 30
0.0
 10
154.3508386333
 20
182.5681342804
 30
0.0
 10
154.3277708744
 20
182.5529053255
 30
0.0
 10
154.3158241576
 20
182.5445077121
 30
0.0
 10
154.3078464862
 20
182.5380928309
 30
0.0
 10
154.3038114209
 20
182.5342931249
 30
0.0
 10
154.3028080808
 20
182.5325643369
 30
0.0
  0
SPLINE
  5
523
100
AcDbEntity
  8
ASSI
100
AcDbSpline
 62
250
  6
CONTINUOUS
 70
0
 71
3
 72
17
 73
13
 74
0
 42
0.0000001
 43
0.0000001
 44
0.0000000001
 40
0.0
 40
0.0
 40
0.0
 40
0.0
 40
0.1883373037
 40
0.3699717454
 40
0.5383165423
 40
0.6874066114
 40
0.8118972776
 40
0.9073853051
 40
0.9431764012
 40
0.9705983712
 40
0.9894862678
 40
1.0
 40
1.0
 40
1.0
 40
1.0
 10
154.8930250523
 20
182.1898511731
 30
0.0
 10
154.8615814075
 20
182.1897704501
 30
0.0
 10
154.7998136349
 20
182.1893282265
 30
0.0
 10
154.7099498089
 20
182.1878332259
 30
0.0
 10
154.6266587098
 20
182.1855641376
 30
0.0
 10
154.5529281602
 20
182.1826286697
 30
0.0
 10
154.4914204595
 20
182.179119835
 30
0.0
 10
154.4488196047
 20
182.1756865779
 30
0.0
 10
154.4225471373
 20
182.1725133239
 30
0.0
 10
154.4089333338
 20
182.1703885368
 30
0.0
 10
154.3998306617
 20
182.1681965327
 30
0.0
 10
154.3949895569
 20
182.1665307725
 30
0.0
 10
154.3937102849
 20
182.165328861
 30
0.0
  0
SPLINE
  5
524
100
AcDbEntity
  8
ASSI
100
AcDbSpline
 62
250
  6
CONTINUOUS
 70
0
 71
3
 72
17
 73
13
 74
0
 42
0.0000001
 43
0.0000001
 44
0.0000000001
 40
0.0
 40
0.0
 40
0.0
 40
0.0
 40
0.1883365333
 40
0.3699705615
 40
0.5383152696
 40
0.6874055073
 40
0.8118964993
 40
0.907384892
 40
0.9431761489
 40
0.9705982486
 40
0.9894862326
 40
1.0
 40
1.0
 40
1.0
 40
1.0
 10
225.8930250522
 20
138.049688464
 30
0.0
 10
225.8615813506
 20
138.0497691716
 30
0.0
 10
225.7998134113
 20
138.0502113667
 30
0.0
 10
225.7099492672
 20
138.0517063282
 30
0.0
 10
225.6266577315
 20
138.0539753839
 30
0.0
 10
225.5529266779
 20
138.0569108269
 30
0.0
 10
225.4914184687
 20
138.0604196455
 30
0.0
 10
225.4488172178
 20
138.063852894
 30
0.0
 10
225.4225444829
 20
138.0670261461
 30
0.0
 10
225.4089305331
 20
138.0691509319
 30
0.0
 10
225.399827762
 20
138.0713429394
 30
0.0
 10
225.3949866032
 20
138.0730086966
 30
0.0
 10
225.3937073132
 20
138.0742106125
 30
0.0
  0
SPLINE
  5
525
100
AcDbEntity
  8
ASSI
100
AcDbSpline
 62
250
  6
CONTINUOUS
 70
0
 71
3
 72
16
 73
12
 74
0
 42
0.0000001
 43
0.0000001
 44
0.0000000001
 40
0.0
 40
0.0
 40
0.0
 40
0.0
 40
0.3649070272
 40
0.532068119
 40
0.6808793953
 40
0.805963582
 40
0.9028513966
 40
0.9396118547
 40
0.9681561953
 40
0.9882775063
 40
1.0
 40
1.0
 40
1.0
 40
1.0
 10
225.7455118982
 20
137.4520650035
 30
0.0
 10
225.6903436442
 20
137.4808406964
 30
0.0
 10
225.6102331007
 20
137.5234392541
 30
0.0
 10
225.5085160744
 20
137.5794119772
 30
0.0
 10
225.443034393
 20
137.6164104975
 30
0.0
 10
225.3884688878
 20
137.6483377792
 30
0.0
 10
225.3508377734
 20
137.6714056475
 30
0.0
 10
225.3277699172
 20
137.6866346496
 30
0.0
 10
225.3158231465
 20
137.6950322889
 30
0.0
 10
225.3078454369
 20
137.701447189
 30
0.0
 10
225.3038103506
 20
137.7052469039
 30
0.0
 10
225.3028070029
 20
137.7069756962
 30
0.0
  0
SPLINE
  5
526
100
AcDbEntity
  8
ASSI
100
AcDbSpline
 62
250
  6
CONTINUOUS
 70
0
 71
3
 72
16
 73
12
 74
0
 42
0.0000001
 43
0.0000001
 44
0.0000000001
 40
0.0
 40
0.0
 40
0.0
 40
0.0
 40
0.3649075159
 40
0.5320686454
 40
0.680879854
 40
0.8059639086
 40
0.9028515737
 40
0.9396119651
 40
0.968156251
 40
0.988277524
 40
1.0
 40
1.0
 40
1.0
 40
1.0
 10
179.3529831676
 20
137.4520649329
 30
0.0
 10
179.4081513584
 20
137.4808406014
 30
0.0
 10
179.488261782
 20
137.5234391084
 30
0.0
 10
179.5899786205
 20
137.5794117519
 30
0.0
 10
179.6554601112
 20
137.6164101837
 30
0.0
 10
179.7100254237
 20
137.6483373737
 30
0.0
 10
179.7476563876
 20
137.6714051697
 30
0.0
 10
179.7707241411
 20
137.686634122
 30
0.0
 10
179.7826708549
 20
137.6950317339
 30
0.0
 10
179.7906485243
 20
137.7014466141
 30
0.0
 10
179.7946835886
 20
137.7052463196
 30
0.0
 10
179.7956869284
 20
137.7069751074
 30
0.0
  0
SPLINE
  5
527
100
AcDbEntity
  8
ASSI
100
AcDbSpline
 62
250
  6
CONTINUOUS
 70
0
 71
3
 72
17
 73
13
 74
0
 42
0.0000001
 43
0.0000001
 44
0.0000000001
 40
0.0
 40
0.0
 40
0.0
 40
0.0
 40
0.1883373037
 40
0.3699717454
 40
0.5383165423
 40
0.6874066114
 40
0.8118972776
 40
0.9073853051
 40
0.9431764012
 40
0.9705983712
 40
0.9894862678
 40
1.0
 40
1.0
 40
1.0
 40
1.0
 10
179.2054700135
 20
138.0496883006
 30
0.0
 10
179.2369136583
 20
138.0497690236
 30
0.0
 10
179.2986814309
 20
138.0502112472
 30
0.0
 10
179.3885452569
 20
138.0517062477
 30
0.0
 10
179.471836356
 20
138.0539753361
 30
0.0
 10
179.5455669056
 20
138.056910804
 30
0.0
 10
179.6070746063
 20
138.0604196387
 30
0.0
 10
179.6496754611
 20
138.0638528958
 30
0.0
 10
179.6759479285
 20
138.0670261498
 30
0.0
 10
179.689561732
 20
138.0691509369
 30
0.0
 10
179.698664404
 20
138.0713429409
 30
0.0
 10
179.7035055089
 20
138.0730087012
 30
0.0
 10
179.7047847809
 20
138.0742106126
 30
0.0
  0
SPLINE
  5
528
100
AcDbEntity
  8
ASSI
100
AcDbSpline
 62
250
  6
CONTINUOUS
 70
0
 71
3
 72
17
 73
13
 74
0
 42
0.0000001
 43
0.0000001
 44
0.0000000001
 40
0.0
 40
0.0
 40
0.0
 40
0.0
 40
0.1883364976
 40
0.3699705067
 40
0.5383152106
 40
0.687405456
 40
0.811896463
 40
0.9073848726
 40
0.943176137
 40
0.9705982428
 40
0.9894862308
 40
1.0
 40
1.0
 40
1.0
 40
1.0
 10
179.2054700136
 20
182.1898510021
 30
0.0
 10
179.2369137178
 20
182.1897702952
 30
0.0
 10
179.2986816649
 20
182.1893281015
 30
0.0
 10
179.3885458238
 20
182.1878331418
 30
0.0
 10
179.4718373798
 20
182.1855640876
 30
0.0
 10
179.5455684569
 20
182.1826286457
 30
0.0
 10
179.6070766897
 20
182.1791198279
 30
0.0
 10
179.6496779589
 20
182.1756865798
 30
0.0
 10
179.6759507063
 20
182.1725133277
 30
0.0
 10
179.6895646628
 20
182.170388542
 30
0.0
 10
179.6986674387
 20
182.1681965344
 30
0.0
 10
179.7035085999
 20
182.1665307773
 30
0.0
 10
179.7047878908
 20
182.1653288611
 30
0.0
  0
SPLINE
  5
529
100
AcDbEntity
  8
ASSI
100
AcDbSpline
 62
250
  6
CONTINUOUS
 70
0
 71
3
 72
16
 73
12
 74
0
 42
0.0000001
 43
0.0000001
 44
0.0000000001
 40
0.0
 40
0.0
 40
0.0
 40
0.0
 40
0.3649070272
 40
0.532068119
 40
0.6808793952
 40
0.805963582
 40
0.9028513966
 40
0.9396118547
 40
0.9681561953
 40
0.9882775063
 40
1.0
 40
1.0
 40
1.0
 40
1.0
 10
179.3529831676
 20
182.7874744702
 30
0.0
 10
179.4081514216
 20
182.7586987773
 30
0.0
 10
179.4882619651
 20
182.7161002195
 30
0.0
 10
179.5899789913
 20
182.6601274965
 30
0.0
 10
179.6554606728
 20
182.6231289762
 30
0.0
 10
179.710026178
 20
182.5912016945
 30
0.0
 10
179.7476572924
 20
182.5681338262
 30
0.0
 10
179.7707251486
 20
182.5529048241
 30
0.0
 10
179.7826719193
 20
182.5445071848
 30
0.0
 10
179.7906496289
 20
182.5380922847
 30
0.0
 10
179.7946847152
 20
182.5342925698
 30
0.0
 10
179.7956880628
 20
182.5325637775
 30
0.0
  0
SPLINE
  5
52A
100
AcDbEntity
  8
ASSI
100
AcDbSpline
 62
250
  6
CONTINUOUS
 70
0
 71
3
 72
16
 73
12
 74
0
 42
0.0000001
 43
0.0000001
 44
0.0000000001
 40
0.0
 40
0.0
 40
0.0
 40
0.0
 40
0.3649074881
 40
0.5320686153
 40
0.6808798279
 40
0.8059638904
 40
0.9028515643
 40
0.9396119595
 40
0.9681562485
 40
0.9882775233
 40
1.0
 40
1.0
 40
1.0
 40
1.0
 10
225.7455118982
 20
182.7874745366
 30
0.0
 10
225.6903437047
 20
182.7586988673
 30
0.0
 10
225.6102332757
 20
182.7161003583
 30
0.0
 10
225.5085164282
 20
182.6601277113
 30
0.0
 10
225.4430349278
 20
182.6231292751
 30
0.0
 10
225.3884696051
 20
182.5912020803
 30
0.0
 10
225.3508386333
 20
182.5681342804
 30
0.0
 10
225.3277708744
 20
182.5529053255
 30
0.0
 10
225.3158241576
 20
182.5445077121
 30
0.0
 10
225.3078464862
 20
182.5380928309
 30
0.0
 10
225.3038114209
 20
182.5342931249
 30
0.0
 10
225.3028080808
 20
182.5325643369
 30
0.0
  0
SPLINE
  5
52B
100
AcDbEntity
  8
ASSI
100
AcDbSpline
 62
250
  6
CONTINUOUS
 70
0
 71
3
 72
17
 73
13
 74
0
 42
0.0000001
 43
0.0000001
 44
0.0000000001
 40
0.0
 40
0.0
 40
0.0
 40
0.0
 40
0.1883373037
 40
0.3699717454
 40
0.5383165423
 40
0.6874066114
 40
0.8118972776
 40
0.9073853051
 40
0.9431764012
 40
0.9705983712
 40
0.9894862678
 40
1.0
 40
1.0
 40
1.0
 40
1.0
 10
225.8930250523
 20
182.1898511731
 30
0.0
 10
225.8615814075
 20
182.1897704501
 30
0.0
 10
225.7998136349
 20
182.1893282265
 30
0.0
 10
225.7099498089
 20
182.1878332259
 30
0.0
 10
225.6266587098
 20
182.1855641376
 30
0.0
 10
225.5529281602
 20
182.1826286697
 30
0.0
 10
225.4914204595
 20
182.179119835
 30
0.0
 10
225.4488196047
 20
182.1756865779
 30
0.0
 10
225.4225471373
 20
182.1725133239
 30
0.0
 10
225.4089333338
 20
182.1703885368
 30
0.0
 10
225.3998306617
 20
182.1681965327
 30
0.0
 10
225.3949895569
 20
182.1665307725
 30
0.0
 10
225.3937102849
 20
182.165328861
 30
0.0
  0
SPLINE
  5
52C
100
AcDbEntity
  8
ASSI
100
AcDbSpline
 62
250
  6
CONTINUOUS
 70
0
 71
3
 72
17
 73
13
 74
0
 42
0.0000001
 43
0.0000001
 44
0.0000000001
 40
0.0
 40
0.0
 40
0.0
 40
0.0
 40
0.1883364976
 40
0.3699705067
 40
0.5383152106
 40
0.687405456
 40
0.811896463
 40
0.9073848726
 40
0.943176137
 40
0.9705982428
 40
0.9894862308
 40
1.0
 40
1.0
 40
1.0
 40
1.0
 10
250.2054700136
 20
182.1898510021
 30
0.0
 10
250.2369137178
 20
182.1897702952
 30
0.0
 10
250.2986816649
 20
182.1893281015
 30
0.0
 10
250.3885458238
 20
182.1878331418
 30
0.0
 10
250.4718373798
 20
182.1855640876
 30
0.0
 10
250.5455684569
 20
182.1826286457
 30
0.0
 10
250.6070766897
 20
182.1791198279
 30
0.0
 10
250.6496779589
 20
182.1756865798
 30
0.0
 10
250.6759507063
 20
182.1725133277
 30
0.0
 10
250.6895646628
 20
182.170388542
 30
0.0
 10
250.6986674387
 20
182.1681965344
 30
0.0
 10
250.7035085999
 20
182.1665307773
 30
0.0
 10
250.7047878908
 20
182.1653288611
 30
0.0
  0
SPLINE
  5
52D
100
AcDbEntity
  8
ASSI
100
AcDbSpline
 62
250
  6
CONTINUOUS
 70
0
 71
3
 72
16
 73
12
 74
0
 42
0.0000001
 43
0.0000001
 44
0.0000000001
 40
0.0
 40
0.0
 40
0.0
 40
0.0
 40
0.3649070272
 40
0.532068119
 40
0.6808793952
 40
0.805963582
 40
0.9028513966
 40
0.9396118547
 40
0.9681561953
 40
0.9882775063
 40
1.0
 40
1.0
 40
1.0
 40
1.0
 10
250.3529831676
 20
182.7874744702
 30
0.0
 10
250.4081514216
 20
182.7586987773
 30
0.0
 10
250.4882619651
 20
182.7161002195
 30
0.0
 10
250.5899789913
 20
182.6601274965
 30
0.0
 10
250.6554606728
 20
182.6231289762
 30
0.0
 10
250.710026178
 20
182.5912016945
 30
0.0
 10
250.7476572924
 20
182.5681338262
 30
0.0
 10
250.7707251486
 20
182.5529048241
 30
0.0
 10
250.7826719193
 20
182.5445071848
 30
0.0
 10
250.7906496289
 20
182.5380922847
 30
0.0
 10
250.7946847152
 20
182.5342925698
 30
0.0
 10
250.7956880628
 20
182.5325637775
 30
0.0
  0
SPLINE
  5
52E
100
AcDbEntity
  8
ASSI
100
AcDbSpline
 62
250
  6
CONTINUOUS
 70
0
 71
3
 72
16
 73
12
 74
0
 42
0.0000001
 43
0.0000001
 44
0.0000000001
 40
0.0
 40
0.0
 40
0.0
 40
0.0
 40
0.3649074881
 40
0.5320686153
 40
0.6808798279
 40
0.8059638904
 40
0.9028515643
 40
0.9396119595
 40
0.9681562485
 40
0.9882775233
 40
1.0
 40
1.0
 40
1.0
 40
1.0
 10
296.7455118982
 20
182.7874745366
 30
0.0
 10
296.6903437047
 20
182.7586988673
 30
0.0
 10
296.6102332757
 20
182.7161003583
 30
0.0
 10
296.5085164282
 20
182.6601277113
 30
0.0
 10
296.4430349278
 20
182.6231292751
 30
0.0
 10
296.3884696051
 20
182.5912020803
 30
0.0
 10
296.3508386333
 20
182.5681342804
 30
0.0
 10
296.3277708744
 20
182.5529053255
 30
0.0
 10
296.3158241576
 20
182.5445077121
 30
0.0
 10
296.3078464862
 20
182.5380928309
 30
0.0
 10
296.3038114209
 20
182.5342931249
 30
0.0
 10
296.3028080808
 20
182.5325643369
 30
0.0
  0
SPLINE
  5
52F
100
AcDbEntity
  8
ASSI
100
AcDbSpline
 62
250
  6
CONTINUOUS
 70
0
 71
3
 72
17
 73
13
 74
0
 42
0.0000001
 43
0.0000001
 44
0.0000000001
 40
0.0
 40
0.0
 40
0.0
 40
0.0
 40
0.1883373037
 40
0.3699717454
 40
0.5383165423
 40
0.6874066114
 40
0.8118972776
 40
0.9073853051
 40
0.9431764012
 40
0.9705983712
 40
0.9894862678
 40
1.0
 40
1.0
 40
1.0
 40
1.0
 10
296.8930250523
 20
182.1898511731
 30
0.0
 10
296.8615814075
 20
182.1897704501
 30
0.0
 10
296.7998136349
 20
182.1893282265
 30
0.0
 10
296.7099498089
 20
182.1878332259
 30
0.0
 10
296.6266587098
 20
182.1855641376
 30
0.0
 10
296.5529281602
 20
182.1826286697
 30
0.0
 10
296.4914204595
 20
182.179119835
 30
0.0
 10
296.4488196047
 20
182.1756865779
 30
0.0
 10
296.4225471373
 20
182.1725133239
 30
0.0
 10
296.4089333338
 20
182.1703885368
 30
0.0
 10
296.3998306617
 20
182.1681965327
 30
0.0
 10
296.3949895569
 20
182.1665307725
 30
0.0
 10
296.3937102849
 20
182.165328861
 30
0.0
  0
SPLINE
  5
530
100
AcDbEntity
  8
ASSI
100
AcDbSpline
 62
250
  6
CONTINUOUS
 70
0
 71
3
 72
17
 73
13
 74
0
 42
0.0000001
 43
0.0000001
 44
0.0000000001
 40
0.0
 40
0.0
 40
0.0
 40
0.0
 40
0.1883365333
 40
0.3699705615
 40
0.5383152696
 40
0.6874055073
 40
0.8118964993
 40
0.907384892
 40
0.9431761489
 40
0.9705982486
 40
0.9894862326
 40
1.0
 40
1.0
 40
1.0
 40
1.0
 10
296.8930250522
 20
138.049688464
 30
0.0
 10
296.8615813506
 20
138.0497691716
 30
0.0
 10
296.7998134113
 20
138.0502113667
 30
0.0
 10
296.7099492672
 20
138.0517063282
 30
0.0
 10
296.6266577315
 20
138.0539753839
 30
0.0
 10
296.5529266779
 20
138.0569108269
 30
0.0
 10
296.4914184687
 20
138.0604196455
 30
0.0
 10
296.4488172178
 20
138.063852894
 30
0.0
 10
296.4225444829
 20
138.0670261461
 30
0.0
 10
296.4089305331
 20
138.0691509319
 30
0.0
 10
296.399827762
 20
138.0713429394
 30
0.0
 10
296.3949866032
 20
138.0730086966
 30
0.0
 10
296.3937073132
 20
138.0742106125
 30
0.0
  0
SPLINE
  5
531
100
AcDbEntity
  8
ASSI
100
AcDbSpline
 62
250
  6
CONTINUOUS
 70
0
 71
3
 72
16
 73
12
 74
0
 42
0.0000001
 43
0.0000001
 44
0.0000000001
 40
0.0
 40
0.0
 40
0.0
 40
0.0
 40
0.3649070272
 40
0.532068119
 40
0.6808793953
 40
0.805963582
 40
0.9028513966
 40
0.9396118547
 40
0.9681561953
 40
0.9882775063
 40
1.0
 40
1.0
 40
1.0
 40
1.0
 10
296.7455118982
 20
137.4520650035
 30
0.0
 10
296.6903436442
 20
137.4808406964
 30
0.0
 10
296.6102331007
 20
137.5234392541
 30
0.0
 10
296.5085160744
 20
137.5794119772
 30
0.0
 10
296.443034393
 20
137.6164104975
 30
0.0
 10
296.3884688878
 20
137.6483377792
 30
0.0
 10
296.3508377734
 20
137.6714056475
 30
0.0
 10
296.3277699172
 20
137.6866346496
 30
0.0
 10
296.3158231465
 20
137.6950322889
 30
0.0
 10
296.3078454369
 20
137.701447189
 30
0.0
 10
296.3038103506
 20
137.7052469039
 30
0.0
 10
296.3028070029
 20
137.7069756962
 30
0.0
  0
SPLINE
  5
532
100
AcDbEntity
  8
ASSI
100
AcDbSpline
 62
250
  6
CONTINUOUS
 70
0
 71
3
 72
16
 73
12
 74
0
 42
0.0000001
 43
0.0000001
 44
0.0000000001
 40
0.0
 40
0.0
 40
0.0
 40
0.0
 40
0.3649075159
 40
0.5320686454
 40
0.680879854
 40
0.8059639086
 40
0.9028515737
 40
0.9396119651
 40
0.968156251
 40
0.988277524
 40
1.0
 40
1.0
 40
1.0
 40
1.0
 10
250.3529831676
 20
137.4520649329
 30
0.0
 10
250.4081513584
 20
137.4808406014
 30
0.0
 10
250.488261782
 20
137.5234391084
 30
0.0
 10
250.5899786205
 20
137.5794117519
 30
0.0
 10
250.6554601112
 20
137.6164101837
 30
0.0
 10
250.7100254237
 20
137.6483373737
 30
0.0
 10
250.7476563876
 20
137.6714051697
 30
0.0
 10
250.7707241411
 20
137.686634122
 30
0.0
 10
250.7826708549
 20
137.6950317339
 30
0.0
 10
250.7906485243
 20
137.7014466141
 30
0.0
 10
250.7946835886
 20
137.7052463196
 30
0.0
 10
250.7956869284
 20
137.7069751074
 30
0.0
  0
SPLINE
  5
533
100
AcDbEntity
  8
ASSI
100
AcDbSpline
 62
250
  6
CONTINUOUS
 70
0
 71
3
 72
17
 73
13
 74
0
 42
0.0000001
 43
0.0000001
 44
0.0000000001
 40
0.0
 40
0.0
 40
0.0
 40
0.0
 40
0.1883373037
 40
0.3699717454
 40
0.5383165423
 40
0.6874066114
 40
0.8118972776
 40
0.9073853051
 40
0.9431764012
 40
0.9705983712
 40
0.9894862678
 40
1.0
 40
1.0
 40
1.0
 40
1.0
 10
250.2054700135
 20
138.0496883006
 30
0.0
 10
250.2369136583
 20
138.0497690236
 30
0.0
 10
250.2986814309
 20
138.0502112472
 30
0.0
 10
250.3885452569
 20
138.0517062477
 30
0.0
 10
250.471836356
 20
138.0539753361
 30
0.0
 10
250.5455669056
 20
138.056910804
 30
0.0
 10
250.6070746063
 20
138.0604196387
 30
0.0
 10
250.6496754611
 20
138.0638528958
 30
0.0
 10
250.6759479285
 20
138.0670261498
 30
0.0
 10
250.689561732
 20
138.0691509369
 30
0.0
 10
250.698664404
 20
138.0713429409
 30
0.0
 10
250.7035055089
 20
138.0730087012
 30
0.0
 10
250.7047847809
 20
138.0742106126
 30
0.0
  0
SPLINE
  5
534
100
AcDbEntity
  8
ASSI
100
AcDbSpline
 62
250
  6
CONTINUOUS
 70
0
 71
3
 72
17
 73
13
 74
0
 42
0.0000001
 43
0.0000001
 44
0.0000000001
 40
0.0
 40
0.0
 40
0.0
 40
0.0
 40
0.1883364976
 40
0.3699705067
 40
0.5383152106
 40
0.687405456
 40
0.811896463
 40
0.9073848726
 40
0.943176137
 40
0.9705982428
 40
0.9894862308
 40
1.0
 40
1.0
 40
1.0
 40
1.0
 10
321.2054700136
 20
182.1898510021
 30
0.0
 10
321.2369137178
 20
182.1897702952
 30
0.0
 10
321.2986816649
 20
182.1893281015
 30
0.0
 10
321.3885458238
 20
182.1878331418
 30
0.0
 10
321.4718373798
 20
182.1855640876
 30
0.0
 10
321.5455684569
 20
182.1826286457
 30
0.0
 10
321.6070766897
 20
182.1791198279
 30
0.0
 10
321.6496779589
 20
182.1756865798
 30
0.0
 10
321.6759507063
 20
182.1725133277
 30
0.0
 10
321.6895646628
 20
182.170388542
 30
0.0
 10
321.6986674387
 20
182.1681965344
 30
0.0
 10
321.7035085999
 20
182.1665307773
 30
0.0
 10
321.7047878908
 20
182.1653288611
 30
0.0
  0
SPLINE
  5
535
100
AcDbEntity
  8
ASSI
100
AcDbSpline
 62
250
  6
CONTINUOUS
 70
0
 71
3
 72
16
 73
12
 74
0
 42
0.0000001
 43
0.0000001
 44
0.0000000001
 40
0.0
 40
0.0
 40
0.0
 40
0.0
 40
0.3649070272
 40
0.532068119
 40
0.6808793952
 40
0.805963582
 40
0.9028513966
 40
0.9396118547
 40
0.9681561953
 40
0.9882775063
 40
1.0
 40
1.0
 40
1.0
 40
1.0
 10
321.3529831676
 20
182.7874744702
 30
0.0
 10
321.4081514216
 20
182.7586987773
 30
0.0
 10
321.4882619651
 20
182.7161002195
 30
0.0
 10
321.5899789913
 20
182.6601274965
 30
0.0
 10
321.6554606728
 20
182.6231289762
 30
0.0
 10
321.710026178
 20
182.5912016945
 30
0.0
 10
321.7476572924
 20
182.5681338262
 30
0.0
 10
321.7707251486
 20
182.5529048241
 30
0.0
 10
321.7826719193
 20
182.5445071848
 30
0.0
 10
321.7906496289
 20
182.5380922847
 30
0.0
 10
321.7946847152
 20
182.5342925698
 30
0.0
 10
321.7956880628
 20
182.5325637775
 30
0.0
  0
SPLINE
  5
536
100
AcDbEntity
  8
ASSI
100
AcDbSpline
 62
250
  6
CONTINUOUS
 70
0
 71
3
 72
16
 73
12
 74
0
 42
0.0000001
 43
0.0000001
 44
0.0000000001
 40
0.0
 40
0.0
 40
0.0
 40
0.0
 40
0.3649074881
 40
0.5320686153
 40
0.6808798279
 40
0.8059638904
 40
0.9028515643
 40
0.9396119595
 40
0.9681562485
 40
0.9882775233
 40
1.0
 40
1.0
 40
1.0
 40
1.0
 10
367.7455118982
 20
182.7874745366
 30
0.0
 10
367.6903437047
 20
182.7586988673
 30
0.0
 10
367.6102332757
 20
182.7161003583
 30
0.0
 10
367.5085164282
 20
182.6601277113
 30
0.0
 10
367.4430349278
 20
182.6231292751
 30
0.0
 10
367.3884696051
 20
182.5912020803
 30
0.0
 10
367.3508386333
 20
182.5681342804
 30
0.0
 10
367.3277708744
 20
182.5529053255
 30
0.0
 10
367.3158241576
 20
182.5445077121
 30
0.0
 10
367.3078464862
 20
182.5380928309
 30
0.0
 10
367.3038114209
 20
182.5342931249
 30
0.0
 10
367.3028080808
 20
182.5325643369
 30
0.0
  0
SPLINE
  5
537
100
AcDbEntity
  8
ASSI
100
AcDbSpline
 62
250
  6
CONTINUOUS
 70
0
 71
3
 72
17
 73
13
 74
0
 42
0.0000001
 43
0.0000001
 44
0.0000000001
 40
0.0
 40
0.0
 40
0.0
 40
0.0
 40
0.1883373037
 40
0.3699717454
 40
0.5383165423
 40
0.6874066114
 40
0.8118972776
 40
0.9073853051
 40
0.9431764012
 40
0.9705983712
 40
0.9894862678
 40
1.0
 40
1.0
 40
1.0
 40
1.0
 10
367.8930250523
 20
182.1898511731
 30
0.0
 10
367.8615814075
 20
182.1897704501
 30
0.0
 10
367.7998136349
 20
182.1893282265
 30
0.0
 10
367.7099498089
 20
182.1878332259
 30
0.0
 10
367.6266587098
 20
182.1855641376
 30
0.0
 10
367.5529281602
 20
182.1826286697
 30
0.0
 10
367.4914204595
 20
182.179119835
 30
0.0
 10
367.4488196047
 20
182.1756865779
 30
0.0
 10
367.4225471373
 20
182.1725133239
 30
0.0
 10
367.4089333338
 20
182.1703885368
 30
0.0
 10
367.3998306617
 20
182.1681965327
 30
0.0
 10
367.3949895569
 20
182.1665307725
 30
0.0
 10
367.3937102849
 20
182.165328861
 30
0.0
  0
SPLINE
  5
538
100
AcDbEntity
  8
ASSI
100
AcDbSpline
 62
250
  6
CONTINUOUS
 70
0
 71
3
 72
17
 73
13
 74
0
 42
0.0000001
 43
0.0000001
 44
0.0000000001
 40
0.0
 40
0.0
 40
0.0
 40
0.0
 40
0.1883365333
 40
0.3699705615
 40
0.5383152696
 40
0.6874055073
 40
0.8118964993
 40
0.907384892
 40
0.9431761489
 40
0.9705982486
 40
0.9894862326
 40
1.0
 40
1.0
 40
1.0
 40
1.0
 10
367.8930250522
 20
138.049688464
 30
0.0
 10
367.8615813506
 20
138.0497691716
 30
0.0
 10
367.7998134113
 20
138.0502113667
 30
0.0
 10
367.7099492672
 20
138.0517063282
 30
0.0
 10
367.6266577315
 20
138.0539753839
 30
0.0
 10
367.5529266779
 20
138.0569108269
 30
0.0
 10
367.4914184687
 20
138.0604196455
 30
0.0
 10
367.4488172178
 20
138.063852894
 30
0.0
 10
367.4225444829
 20
138.0670261461
 30
0.0
 10
367.4089305331
 20
138.0691509319
 30
0.0
 10
367.399827762
 20
138.0713429394
 30
0.0
 10
367.3949866032
 20
138.0730086966
 30
0.0
 10
367.3937073132
 20
138.0742106125
 30
0.0
  0
SPLINE
  5
539
100
AcDbEntity
  8
ASSI
100
AcDbSpline
 62
250
  6
CONTINUOUS
 70
0
 71
3
 72
16
 73
12
 74
0
 42
0.0000001
 43
0.0000001
 44
0.0000000001
 40
0.0
 40
0.0
 40
0.0
 40
0.0
 40
0.3649070272
 40
0.532068119
 40
0.6808793953
 40
0.805963582
 40
0.9028513966
 40
0.9396118547
 40
0.9681561953
 40
0.9882775063
 40
1.0
 40
1.0
 40
1.0
 40
1.0
 10
367.7455118982
 20
137.4520650035
 30
0.0
 10
367.6903436442
 20
137.4808406964
 30
0.0
 10
367.6102331007
 20
137.5234392541
 30
0.0
 10
367.5085160744
 20
137.5794119772
 30
0.0
 10
367.443034393
 20
137.6164104975
 30
0.0
 10
367.3884688878
 20
137.6483377792
 30
0.0
 10
367.3508377734
 20
137.6714056475
 30
0.0
 10
367.3277699172
 20
137.6866346496
 30
0.0
 10
367.3158231465
 20
137.6950322889
 30
0.0
 10
367.3078454369
 20
137.701447189
 30
0.0
 10
367.3038103506
 20
137.7052469039
 30
0.0
 10
367.3028070029
 20
137.7069756962
 30
0.0
  0
SPLINE
  5
53A
100
AcDbEntity
  8
ASSI
100
AcDbSpline
 62
250
  6
CONTINUOUS
 70
0
 71
3
 72
16
 73
12
 74
0
 42
0.0000001
 43
0.0000001
 44
0.0000000001
 40
0.0
 40
0.0
 40
0.0
 40
0.0
 40
0.3649075159
 40
0.5320686454
 40
0.680879854
 40
0.8059639086
 40
0.9028515737
 40
0.9396119651
 40
0.968156251
 40
0.988277524
 40
1.0
 40
1.0
 40
1.0
 40
1.0
 10
321.3529831676
 20
137.4520649329
 30
0.0
 10
321.4081513584
 20
137.4808406014
 30
0.0
 10
321.488261782
 20
137.5234391084
 30
0.0
 10
321.5899786205
 20
137.5794117519
 30
0.0
 10
321.6554601112
 20
137.6164101837
 30
0.0
 10
321.7100254237
 20
137.6483373737
 30
0.0
 10
321.7476563876
 20
137.6714051697
 30
0.0
 10
321.7707241411
 20
137.686634122
 30
0.0
 10
321.7826708549
 20
137.6950317339
 30
0.0
 10
321.7906485243
 20
137.7014466141
 30
0.0
 10
321.7946835886
 20
137.7052463196
 30
0.0
 10
321.7956869284
 20
137.7069751074
 30
0.0
  0
SPLINE
  5
53B
100
AcDbEntity
  8
ASSI
100
AcDbSpline
 62
250
  6
CONTINUOUS
 70
0
 71
3
 72
17
 73
13
 74
0
 42
0.0000001
 43
0.0000001
 44
0.0000000001
 40
0.0
 40
0.0
 40
0.0
 40
0.0
 40
0.1883373037
 40
0.3699717454
 40
0.5383165423
 40
0.6874066114
 40
0.8118972776
 40
0.9073853051
 40
0.9431764012
 40
0.9705983712
 40
0.9894862678
 40
1.0
 40
1.0
 40
1.0
 40
1.0
 10
321.2054700135
 20
138.0496883006
 30
0.0
 10
321.2369136583
 20
138.0497690236
 30
0.0
 10
321.2986814309
 20
138.0502112472
 30
0.0
 10
321.3885452569
 20
138.0517062477
 30
0.0
 10
321.471836356
 20
138.0539753361
 30
0.0
 10
321.5455669056
 20
138.056910804
 30
0.0
 10
321.6070746063
 20
138.0604196387
 30
0.0
 10
321.6496754611
 20
138.0638528958
 30
0.0
 10
321.6759479285
 20
138.0670261498
 30
0.0
 10
321.689561732
 20
138.0691509369
 30
0.0
 10
321.698664404
 20
138.0713429409
 30
0.0
 10
321.7035055089
 20
138.0730087012
 30
0.0
 10
321.7047847809
 20
138.0742106126
 30
0.0
  0
SPLINE
  5
53C
100
AcDbEntity
  8
ASSI
100
AcDbSpline
 62
250
  6
CONTINUOUS
 70
0
 71
3
 72
11
 73
7
 74
0
 42
0.0000001
 43
0.0000001
 44
0.0000000001
 40
0.0
 40
0.0
 40
0.0
 40
0.0
 40
0.2518127979
 40
0.5024855629
 40
0.7516902237
 40
1.0
 40
1.0
 40
1.0
 40
1.0
 10
388.4274234098
 20
115.488087232
 30
0.0
 10
388.5192492585
 20
115.4880819129
 30
0.0
 10
388.704633455
 20
115.5255460935
 30
0.0
 10
388.9361229916
 20
115.6854328446
 30
0.0
 10
389.0871401085
 20
115.9209059987
 30
0.0
 10
389.1205697778
 20
116.1045972041
 30
0.0
 10
389.1197172311
 20
116.1951416304
 30
0.0
  0
SPLINE
  5
53D
100
AcDbEntity
  8
ASSI
100
AcDbSpline
 62
250
  6
CONTINUOUS
 70
0
 71
3
 72
11
 73
7
 74
0
 42
0.0000001
 43
0.0000001
 44
0.0000000001
 40
0.0
 40
0.0
 40
0.0
 40
0.0
 40
0.2483099529
 40
0.4975145361
 40
0.7481871248
 40
1.0
 40
1.0
 40
1.0
 40
1.0
 10
86.9787778347
 20
116.1951416304
 30
0.0
 10
86.9779201999
 20
116.1045971863
 30
0.0
 10
87.0113568422
 20
115.920905551
 30
0.0
 10
87.1623714509
 20
115.6854335667
 30
0.0
 10
87.393861908
 20
115.5255437702
 30
0.0
 10
87.5792457775
 20
115.4880879984
 30
0.0
 10
87.671071656
 20
115.488087232
 30
0.0
  0
SPLINE
  5
53E
100
AcDbEntity
  8
RACCORDO
100
AcDbSpline
 62
250
  6
CONTINUOUS
 70
0
 71
3
 72
9
 73
5
 74
0
 42
0.0000001
 43
0.0000001
 44
0.0000000001
 40
0.0
 40
0.0
 40
0.0
 40
0.0
 40
0.5136164967
 40
1.0
 40
1.0
 40
1.0
 40
1.0
 10
52.5584874271
 20
203.8716123377
 30
0.0
 10
52.8092723568
 20
203.7936004622
 30
0.0
 10
53.2874771445
 20
203.6069398272
 30
0.0
 10
53.7343018725
 20
203.3544160272
 30
0.0
 10
53.9415029571
 20
203.2168451002
 30
0.0
  0
SPLINE
  5
53F
100
AcDbEntity
  8
RACCORDO
100
AcDbSpline
 62
250
  6
CONTINUOUS
 70
0
 71
3
 72
18
 73
14
 74
0
 42
0.0000001
 43
0.0000001
 44
0.0000000001
 40
0.0
 40
0.0
 40
0.0
 40
0.0
 40
0.0048479945
 40
0.0190771051
 40
0.0426192747
 40
0.0752837055
 40
0.1167473926
 40
0.1666653925
 40
0.2899601445
 40
0.4407499678
 40
0.6135491951
 40
0.8023166518
 40
1.0
 40
1.0
 40
1.0
 40
1.0
 10
48.3825279693
 20
116.1951416426
 30
0.0
 10
48.3824464124
 20
116.1955942658
 30
0.0
 10
48.3853442739
 20
116.1956097249
 30
0.0
 10
48.3881747063
 20
116.1970103439
 30
0.0
 10
48.3953268619
 20
116.1981673849
 30
0.0
 10
48.4041284549
 20
116.2001603373
 30
0.0
 10
48.4157694364
 20
116.2024337018
 30
0.0
 10
48.4357047917
 20
116.2063822013
 30
0.0
 10
48.465921392
 20
116.2121615891
 30
0.0
 10
48.5075711163
 20
116.2200122241
 30
0.0
 10
48.5553642946
 20
116.2288817796
 30
0.0
 10
48.6075460832
 20
116.2384566356
 30
0.0
 10
48.6436178192
 20
116.2450062991
 30
0.0
 10
48.6620725339
 20
116.248340713
 30
0.0
  0
SPLINE
  5
540
100
AcDbEntity
  8
RACCORDO
100
AcDbSpline
 62
250
  6
CONTINUOUS
 70
0
 71
3
 72
21
 73
17
 74
0
 42
0.0000001
 43
0.0000001
 44
0.0000000001
 40
0.0
 40
0.0
 40
0.0
 40
0.0
 40
0.0011992043
 40
0.0047679412
 40
0.010695841
 40
0.0189692261
 40
0.0424947786
 40
0.0751477294
 40
0.1166032418
 40
0.1665157432
 40
0.2244273066
 40
0.2898075252
 40
0.4406068219
 40
0.6134317262
 40
0.8022453641
 40
1.0
 40
1.0
 40
1.0
 40
1.0
 10
45.9415029495
 20
137.4520648437
 30
0.0
 10
45.9414972243
 20
137.4521783536
 30
0.0
 10
45.9422281473
 20
137.452026517
 30
0.0
 10
45.9429679996
 20
137.4523025388
 30
0.0
 10
45.9448004072
 20
137.4523132421
 30
0.0
 10
45.9482760421
 20
137.4526132495
 30
0.0
 10
45.9544415273
 20
137.4529334765
 30
0.0
 10
45.9636467661
 20
137.4534911647
 30
0.0
 10
45.975394844
 20
137.4541406098
 30
0.0
 10
45.989517033
 20
137.454920164
 30
0.0
 10
46.0059098973
 20
137.4558062136
 30
0.0
 10
46.0318491282
 20
137.4571937179
 30
0.0
 10
46.0686662241
 20
137.4591325241
 30
0.0
 10
46.1171668378
 20
137.4616518754
 30
0.0
 10
46.1701134429
 20
137.4643703704
 30
0.0
 10
46.2067030921
 20
137.4662299687
 30
0.0
 10
46.2254212991
 20
137.4671766464
 30
0.0
  0
SPLINE
  5
541
100
AcDbEntity
  8
RACCORDO
100
AcDbSpline
 62
250
  6
CONTINUOUS
 70
0
 71
3
 72
21
 73
17
 74
0
 42
0.0000001
 43
0.0000001
 44
0.0000000001
 40
0.0
 40
0.0
 40
0.0
 40
0.0
 40
0.0011992042
 40
0.0047679411
 40
0.0106958408
 40
0.0189692258
 40
0.0424947782
 40
0.0751477288
 40
0.116603241
 40
0.1665157422
 40
0.2244273054
 40
0.2898075238
 40
0.4406068203
 40
0.6134317246
 40
0.8022453631
 40
1.0
 40
1.0
 40
1.0
 40
1.0
 10
45.9415029549
 20
182.7874746297
 30
0.0
 10
45.9414972297
 20
182.7873611198
 30
0.0
 10
45.9422281527
 20
182.7875129564
 30
0.0
 10
45.9429680049
 20
182.7872369346
 30
0.0
 10
45.9448004125
 20
182.7872262313
 30
0.0
 10
45.9482760473
 20
182.7869262239
 30
0.0
 10
45.9544415323
 20
182.7866059969
 30
0.0
 10
45.9636467709
 20
182.7860483087
 30
0.0
 10
45.9753948485
 20
182.7853988637
 30
0.0
 10
45.9895170372
 20
182.7846193095
 30
0.0
 10
46.0059099012
 20
182.7837332599
 30
0.0
 10
46.0318491315
 20
182.7823457556
 30
0.0
 10
46.0686662267
 20
182.7804069495
 30
0.0
 10
46.1171668395
 20
182.7778875982
 30
0.0
 10
46.1701134437
 20
182.7751691033
 30
0.0
 10
46.2067030924
 20
182.773309505
 30
0.0
 10
46.2254212991
 20
182.7723628273
 30
0.0
  0
SPLINE
  5
542
100
AcDbEntity
  8
RACCORDO
100
AcDbSpline
 62
250
  6
CONTINUOUS
 70
0
 71
3
 72
18
 73
14
 74
0
 42
0.0000001
 43
0.0000001
 44
0.0000000001
 40
0.0
 40
0.0
 40
0.0
 40
0.0
 40
0.0048486585
 40
0.019078368
 40
0.0426210528
 40
0.0752859078
 40
0.1167499235
 40
0.1666681521
 40
0.2899630538
 40
0.4407526194
 40
0.6135512203
 40
0.8023177552
 40
1.0
 40
1.0
 40
1.0
 40
1.0
 10
48.3825279232
 20
204.0443978394
 30
0.0
 10
48.3824467037
 20
204.0439450912
 30
0.0
 10
48.3853439705
 20
204.0439298748
 30
0.0
 10
48.3881753134
 20
204.0425289982
 30
0.0
 10
48.3953271807
 20
204.0413720524
 30
0.0
 10
48.4041290923
 20
204.0393790287
 30
0.0
 10
48.4157700985
 20
204.0371056677
 30
0.0
 10
48.4357055678
 20
204.0331571489
 30
0.0
 10
48.4659221769
 20
204.0273777646
 30
0.0
 10
48.5075718684
 20
204.0195271381
 30
0.0
 10
48.5553649052
 20
204.0106576102
 30
0.0
 10
48.6075464799
 20
204.0010827932
 30
0.0
 10
48.6436180489
 20
203.9945331589
 30
0.0
 10
48.6620726721
 20
203.9911987608
 30
0.0
  0
SPLINE
  5
543
100
AcDbEntity
  8
RACCORDO
100
AcDbSpline
 62
250
  6
CONTINUOUS
 70
0
 71
3
 72
9
 73
5
 74
0
 42
0.0000001
 43
0.0000001
 44
0.0000000001
 40
0.0
 40
0.0
 40
0.0
 40
0.0
 40
0.4863773799
 40
1.0
 40
1.0
 40
1.0
 40
1.0
 10
53.9415028588
 20
117.0226943118
 30
0.0
 10
53.7343000179
 20
116.8851210756
 30
0.0
 10
53.2874633993
 20
116.6325935727
 30
0.0
 10
52.8092471549
 20
116.4459287227
 30
0.0
 10
52.558452643
 20
116.3679162339
 30
0.0
  0
SPLINE
  5
544
100
AcDbEntity
  8
RACCORDO
100
AcDbSpline
 62
250
  6
CONTINUOUS
 70
0
 71
3
 72
22
 73
18
 74
0
 42
0.0000001
 43
0.0000001
 44
0.0000000001
 40
0.0
 40
0.0
 40
0.0
 40
0.0
 40
0.001533488
 40
0.0053663672
 40
0.0115822499
 40
0.0201859859
 40
0.0311593996
 40
0.0444762296
 40
0.0780140229
 40
0.1204568664
 40
0.1713729434
 40
0.2302373667
 40
0.2964464136
 40
0.4481596812
 40
0.6204923273
 40
0.8067706272
 40
1.0
 40
1.0
 40
1.0
 40
1.0
 10
48.7908101595
 20
115.2429643252
 30
0.0
 10
48.7902925085
 20
115.2429905044
 30
0.0
 10
48.7895810714
 20
115.2452626191
 30
0.0
 10
48.7884469419
 20
115.2484957348
 30
0.0
 10
48.7870529356
 20
115.2549289341
 30
0.0
 10
48.7853406306
 20
115.2633544601
 30
0.0
 10
48.7833656868
 20
115.2743433267
 30
0.0
 10
48.7801156887
 20
115.2935949224
 30
0.0
 10
48.7754919637
 20
115.323436269
 30
0.0
 10
48.7693131223
 20
115.3658735109
 30
0.0
 10
48.7622363716
 20
115.4168378689
 30
0.0
 10
48.7543375854
 20
115.4757942785
 30
0.0
 10
48.7422688673
 20
115.5685658091
 30
0.0
 10
48.7258827566
 20
115.699449192
 30
0.0
 10
48.7052454965
 20
115.8706981735
 30
0.0
 10
48.6836610126
 20
116.0559652436
 30
0.0
 10
48.6692827916
 20
116.1834292052
 30
0.0
 10
48.6620725339
 20
116.248340713
 30
0.0
  0
SPLINE
  5
545
100
AcDbEntity
  8
RACCORDO
100
AcDbSpline
 62
250
  6
CONTINUOUS
 70
0
 71
3
 72
22
 73
18
 74
0
 42
0.0000001
 43
0.0000001
 44
0.0000000001
 40
0.0
 40
0.0
 40
0.0
 40
0.0
 40
0.1932292034
 40
0.3795077681
 40
0.5518402853
 40
0.7035535196
 40
0.7697625425
 40
0.8286269629
 40
0.8795430424
 40
0.921985795
 40
0.9555236867
 40
0.9688406914
 40
0.9798141597
 40
0.9884175994
 40
0.9946328906
 40
0.9984655687
 40
1.0
 40
1.0
 40
1.0
 40
1.0
 10
48.6620725339
 20
203.9911987607
 30
0.0
 10
48.6692823826
 20
204.0561102556
 30
0.0
 10
48.6836615249
 20
204.1835741458
 30
0.0
 10
48.7052461105
 20
204.3688411886
 30
0.0
 10
48.7258832246
 20
204.5400902209
 30
0.0
 10
48.7422693403
 20
204.6709735388
 30
0.0
 10
48.754337953
 20
204.7637450604
 30
0.0
 10
48.7622366795
 20
204.8227014718
 30
0.0
 10
48.7693133349
 20
204.873665803
 30
0.0
 10
48.7754920106
 20
204.9161030948
 30
0.0
 10
48.7801156164
 20
204.9459444681
 30
0.0
 10
48.7833656406
 20
204.9651962555
 30
0.0
 10
48.7853405452
 20
204.9761849269
 30
0.0
 10
48.7870528188
 20
204.984610647
 30
0.0
 10
48.7884465132
 20
204.9910424247
 30
0.0
 10
48.7895809466
 20
204.9942775213
 30
0.0
 10
48.7902922475
 20
204.9965478416
 30
0.0
 10
48.7908101595
 20
204.9965751485
 30
0.0
  0
SPLINE
  5
546
100
AcDbEntity
  8
ASSI
100
AcDbSpline
 62
250
  6
CONTINUOUS
 70
0
 71
3
 72
9
 73
5
 74
0
 42
0.0000001
 43
0.0000001
 44
0.0000000001
 40
0.0
 40
0.0
 40
0.0
 40
0.0
 40
0.4863773799
 40
1.0
 40
1.0
 40
1.0
 40
1.0
 10
53.9415028588
 20
117.0226943118
 30
0.0
 10
53.7343000179
 20
116.8851210756
 30
0.0
 10
53.2874633993
 20
116.6325935727
 30
0.0
 10
52.8092471549
 20
116.4459287227
 30
0.0
 10
52.558452643
 20
116.3679162339
 30
0.0
  0
SPLINE
  5
547
100
AcDbEntity
  8
ASSI
100
AcDbSpline
 62
250
  6
CONTINUOUS
 70
0
 71
3
 72
9
 73
5
 74
0
 42
0.0000001
 43
0.0000001
 44
0.0000000001
 40
0.0
 40
0.0
 40
0.0
 40
0.0
 40
0.5136164967
 40
1.0
 40
1.0
 40
1.0
 40
1.0
 10
52.5584874271
 20
203.8716123377
 30
0.0
 10
52.8092723568
 20
203.7936004622
 30
0.0
 10
53.2874771445
 20
203.6069398272
 30
0.0
 10
53.7343018725
 20
203.3544160272
 30
0.0
 10
53.9415029571
 20
203.2168451002
 30
0.0
  0
SPLINE
  5
548
100
AcDbEntity
  8
ASSI
100
AcDbSpline
 62
250
  6
CONTINUOUS
 70
0
 71
3
 72
18
 73
14
 74
0
 42
0.0000001
 43
0.0000001
 44
0.0000000001
 40
0.0
 40
0.0
 40
0.0
 40
0.0
 40
0.0048479945
 40
0.0190771051
 40
0.0426192747
 40
0.0752837055
 40
0.1167473926
 40
0.1666653925
 40
0.2899601445
 40
0.4407499678
 40
0.6135491951
 40
0.8023166518
 40
1.0
 40
1.0
 40
1.0
 40
1.0
 10
48.3825279693
 20
116.1951416426
 30
0.0
 10
48.3824464124
 20
116.1955942658
 30
0.0
 10
48.3853442739
 20
116.1956097249
 30
0.0
 10
48.3881747063
 20
116.1970103439
 30
0.0
 10
48.3953268619
 20
116.1981673849
 30
0.0
 10
48.4041284549
 20
116.2001603373
 30
0.0
 10
48.4157694364
 20
116.2024337018
 30
0.0
 10
48.4357047917
 20
116.2063822013
 30
0.0
 10
48.465921392
 20
116.2121615891
 30
0.0
 10
48.5075711163
 20
116.2200122241
 30
0.0
 10
48.5553642946
 20
116.2288817796
 30
0.0
 10
48.6075460832
 20
116.2384566356
 30
0.0
 10
48.6436178192
 20
116.2450062991
 30
0.0
 10
48.6620725339
 20
116.248340713
 30
0.0
  0
SPLINE
  5
549
100
AcDbEntity
  8
ASSI
100
AcDbSpline
 62
250
  6
CONTINUOUS
 70
0
 71
3
 72
21
 73
17
 74
0
 42
0.0000001
 43
0.0000001
 44
0.0000000001
 40
0.0
 40
0.0
 40
0.0
 40
0.0
 40
0.0011992043
 40
0.0047679412
 40
0.010695841
 40
0.0189692261
 40
0.0424947786
 40
0.0751477294
 40
0.1166032418
 40
0.1665157432
 40
0.2244273066
 40
0.2898075252
 40
0.4406068219
 40
0.6134317262
 40
0.8022453641
 40
1.0
 40
1.0
 40
1.0
 40
1.0
 10
45.9415029495
 20
137.4520648437
 30
0.0
 10
45.9414972243
 20
137.4521783536
 30
0.0
 10
45.9422281473
 20
137.452026517
 30
0.0
 10
45.9429679996
 20
137.4523025388
 30
0.0
 10
45.9448004072
 20
137.4523132421
 30
0.0
 10
45.9482760421
 20
137.4526132495
 30
0.0
 10
45.9544415273
 20
137.4529334765
 30
0.0
 10
45.9636467661
 20
137.4534911647
 30
0.0
 10
45.975394844
 20
137.4541406098
 30
0.0
 10
45.989517033
 20
137.454920164
 30
0.0
 10
46.0059098973
 20
137.4558062136
 30
0.0
 10
46.0318491282
 20
137.4571937179
 30
0.0
 10
46.0686662241
 20
137.4591325241
 30
0.0
 10
46.1171668378
 20
137.4616518754
 30
0.0
 10
46.1701134429
 20
137.4643703704
 30
0.0
 10
46.2067030921
 20
137.4662299687
 30
0.0
 10
46.2254212991
 20
137.4671766464
 30
0.0
  0
SPLINE
  5
54A
100
AcDbEntity
  8
ASSI
100
AcDbSpline
 62
250
  6
CONTINUOUS
 70
0
 71
3
 72
21
 73
17
 74
0
 42
0.0000001
 43
0.0000001
 44
0.0000000001
 40
0.0
 40
0.0
 40
0.0
 40
0.0
 40
0.0011992042
 40
0.0047679411
 40
0.0106958408
 40
0.0189692258
 40
0.0424947782
 40
0.0751477288
 40
0.116603241
 40
0.1665157422
 40
0.2244273054
 40
0.2898075238
 40
0.4406068203
 40
0.6134317246
 40
0.8022453631
 40
1.0
 40
1.0
 40
1.0
 40
1.0
 10
45.9415029549
 20
182.7874746297
 30
0.0
 10
45.9414972297
 20
182.7873611198
 30
0.0
 10
45.9422281527
 20
182.7875129564
 30
0.0
 10
45.9429680049
 20
182.7872369346
 30
0.0
 10
45.9448004125
 20
182.7872262313
 30
0.0
 10
45.9482760473
 20
182.7869262239
 30
0.0
 10
45.9544415323
 20
182.7866059969
 30
0.0
 10
45.9636467709
 20
182.7860483087
 30
0.0
 10
45.9753948485
 20
182.7853988637
 30
0.0
 10
45.9895170372
 20
182.7846193095
 30
0.0
 10
46.0059099012
 20
182.7837332599
 30
0.0
 10
46.0318491315
 20
182.7823457556
 30
0.0
 10
46.0686662267
 20
182.7804069495
 30
0.0
 10
46.1171668395
 20
182.7778875982
 30
0.0
 10
46.1701134437
 20
182.7751691033
 30
0.0
 10
46.2067030924
 20
182.773309505
 30
0.0
 10
46.2254212991
 20
182.7723628273
 30
0.0
  0
SPLINE
  5
54B
100
AcDbEntity
  8
ASSI
100
AcDbSpline
 62
250
  6
CONTINUOUS
 70
0
 71
3
 72
18
 73
14
 74
0
 42
0.0000001
 43
0.0000001
 44
0.0000000001
 40
0.0
 40
0.0
 40
0.0
 40
0.0
 40
0.0048486585
 40
0.019078368
 40
0.0426210528
 40
0.0752859078
 40
0.1167499235
 40
0.1666681521
 40
0.2899630538
 40
0.4407526194
 40
0.6135512203
 40
0.8023177552
 40
1.0
 40
1.0
 40
1.0
 40
1.0
 10
48.3825279232
 20
204.0443978394
 30
0.0
 10
48.3824467037
 20
204.0439450912
 30
0.0
 10
48.3853439705
 20
204.0439298748
 30
0.0
 10
48.3881753134
 20
204.0425289982
 30
0.0
 10
48.3953271807
 20
204.0413720524
 30
0.0
 10
48.4041290923
 20
204.0393790287
 30
0.0
 10
48.4157700985
 20
204.0371056677
 30
0.0
 10
48.4357055678
 20
204.0331571489
 30
0.0
 10
48.4659221769
 20
204.0273777646
 30
0.0
 10
48.5075718684
 20
204.0195271381
 30
0.0
 10
48.5553649052
 20
204.0106576102
 30
0.0
 10
48.6075464799
 20
204.0010827932
 30
0.0
 10
48.6436180489
 20
203.9945331589
 30
0.0
 10
48.6620726721
 20
203.9911987608
 30
0.0
  0
SPLINE
  5
54C
100
AcDbEntity
  8
ASSI
100
AcDbSpline
 62
250
  6
CONTINUOUS
 70
0
 71
3
 72
22
 73
18
 74
0
 42
0.0000001
 43
0.0000001
 44
0.0000000001
 40
0.0
 40
0.0
 40
0.0
 40
0.0
 40
0.001533488
 40
0.0053663672
 40
0.0115822499
 40
0.0201859859
 40
0.0311593996
 40
0.0444762296
 40
0.0780140229
 40
0.1204568664
 40
0.1713729434
 40
0.2302373667
 40
0.2964464136
 40
0.4481596812
 40
0.6204923273
 40
0.8067706272
 40
1.0
 40
1.0
 40
1.0
 40
1.0
 10
48.7908101595
 20
115.2429643252
 30
0.0
 10
48.7902925085
 20
115.2429905044
 30
0.0
 10
48.7895810714
 20
115.2452626191
 30
0.0
 10
48.7884469419
 20
115.2484957348
 30
0.0
 10
48.7870529356
 20
115.2549289341
 30
0.0
 10
48.7853406306
 20
115.2633544601
 30
0.0
 10
48.7833656868
 20
115.2743433267
 30
0.0
 10
48.7801156887
 20
115.2935949224
 30
0.0
 10
48.7754919637
 20
115.323436269
 30
0.0
 10
48.7693131223
 20
115.3658735109
 30
0.0
 10
48.7622363716
 20
115.4168378689
 30
0.0
 10
48.7543375854
 20
115.4757942785
 30
0.0
 10
48.7422688673
 20
115.5685658091
 30
0.0
 10
48.7258827566
 20
115.699449192
 30
0.0
 10
48.7052454965
 20
115.8706981735
 30
0.0
 10
48.6836610126
 20
116.0559652436
 30
0.0
 10
48.6692827916
 20
116.1834292052
 30
0.0
 10
48.6620725339
 20
116.248340713
 30
0.0
  0
SPLINE
  5
54D
100
AcDbEntity
  8
ASSI
100
AcDbSpline
 62
250
  6
CONTINUOUS
 70
0
 71
3
 72
22
 73
18
 74
0
 42
0.0000001
 43
0.0000001
 44
0.0000000001
 40
0.0
 40
0.0
 40
0.0
 40
0.0
 40
0.1932292034
 40
0.3795077681
 40
0.5518402853
 40
0.7035535196
 40
0.7697625425
 40
0.8286269629
 40
0.8795430424
 40
0.921985795
 40
0.9555236867
 40
0.9688406914
 40
0.9798141597
 40
0.9884175994
 40
0.9946328906
 40
0.9984655687
 40
1.0
 40
1.0
 40
1.0
 40
1.0
 10
48.6620725339
 20
203.9911987607
 30
0.0
 10
48.6692823826
 20
204.0561102556
 30
0.0
 10
48.6836615249
 20
204.1835741458
 30
0.0
 10
48.7052461105
 20
204.3688411886
 30
0.0
 10
48.7258832246
 20
204.5400902209
 30
0.0
 10
48.7422693403
 20
204.6709735388
 30
0.0
 10
48.754337953
 20
204.7637450604
 30
0.0
 10
48.7622366795
 20
204.8227014718
 30
0.0
 10
48.7693133349
 20
204.873665803
 30
0.0
 10
48.7754920106
 20
204.9161030948
 30
0.0
 10
48.7801156164
 20
204.9459444681
 30
0.0
 10
48.7833656406
 20
204.9651962555
 30
0.0
 10
48.7853405452
 20
204.9761849269
 30
0.0
 10
48.7870528188
 20
204.984610647
 30
0.0
 10
48.7884465132
 20
204.9910424247
 30
0.0
 10
48.7895809466
 20
204.9942775213
 30
0.0
 10
48.7902922475
 20
204.9965478416
 30
0.0
 10
48.7908101595
 20
204.9965751485
 30
0.0
  0
ELLIPSE
  5
54E
100
AcDbEntity
  8
RACCORDO
100
AcDbEllipse
 62
7
  6
CONTINUOUS
 10
87.5506198789
 20
116.1211420828
 30
0.0
 11
0.7090462434
 21
0.7090462434
 31
0.0
 40
0.9972646886
 41
-3.9256212891
 42
-2.3575640181
  0
ELLIPSE
  5
54F
100
AcDbEntity
  8
RACCORDO
100
AcDbEllipse
 62
7
  6
CONTINUOUS
 10
388.5478751869
 20
116.1211420828
 30
0.0
 11
0.7090462434
 21
-0.7090462434
 31
0.0
 40
0.9972646886
 41
-0.7840286355
 42
0.7840286355
  0
ELLIPSE
  5
550
100
AcDbEntity
  8
RACCORDO
100
AcDbEllipse
 62
7
  6
CONTINUOUS
 10
388.5478751869
 20
204.1183973908
 30
0.0
 11
0.7090462434
 21
0.7090462434
 31
0.0
 40
0.9972646886
 41
-0.7840286355
 42
0.7840286355
  0
ELLIPSE
  5
551
100
AcDbEntity
  8
RACCORDO
100
AcDbEllipse
 62
7
  6
CONTINUOUS
 10
87.5506198789
 20
204.1183973908
 30
0.0
 11
-0.7090462434
 21
0.7090462434
 31
0.0
 40
0.9972646886
 41
-0.7840286355
 42
0.7840286355
  0
ELLIPSE
  5
552
100
AcDbEntity
  8
0
100
AcDbEllipse
 62
7
  6
CONTINUOUS
 10
366.4481496561
 20
138.2208676136
 30
0.0
 11
0.5672369947
 21
-0.5672369947
 31
0.0
 40
0.9972646886
 41
-0.7840286355
 42
0.7840286355
  0
ELLIPSE
  5
553
100
AcDbEntity
  8
0
100
AcDbEllipse
 62
7
  6
CONTINUOUS
 10
366.4481496561
 20
182.01867186
 30
0.0
 11
0.5672369947
 21
0.5672369947
 31
0.0
 40
0.9972646886
 41
-0.7840286355
 42
0.7840286355
  0
ELLIPSE
  5
554
100
AcDbEntity
  8
0
100
AcDbEllipse
 62
7
  6
CONTINUOUS
 10
322.6503454097
 20
182.01867186
 30
0.0
 11
0.5672369947
 21
-0.5672369947
 31
0.0
 40
0.9972646886
 41
2.3575640181
 42
3.9256212891
  0
ELLIPSE
  5
555
100
AcDbEntity
  8
0
100
AcDbEllipse
 62
7
  6
CONTINUOUS
 10
322.6503454097
 20
138.2208676136
 30
0.0
 11
0.5672369947
 21
0.5672369947
 31
0.0
 40
0.9972646886
 41
-3.9256212891
 42
-2.3575640181
  0
ELLIPSE
  5
556
100
AcDbEntity
  8
0
100
AcDbEllipse
 62
7
  6
CONTINUOUS
 10
295.4481496561
 20
182.01867186
 30
0.0
 11
0.5672369947
 21
0.5672369947
 31
0.0
 40
0.9972646886
 41
-0.7840286355
 42
0.7840286355
  0
ELLIPSE
  5
557
100
AcDbEntity
  8
0
100
AcDbEllipse
 62
7
  6
CONTINUOUS
 10
295.4481496561
 20
138.2208676136
 30
0.0
 11
-0.5672369947
 21
0.5672369947
 31
0.0
 40
0.9972646886
 41
-3.9256212891
 42
-2.3575640181
  0
ELLIPSE
  5
558
100
AcDbEntity
  8
0
100
AcDbEllipse
 62
7
  6
CONTINUOUS
 10
251.6503454097
 20
138.2208676136
 30
0.0
 11
0.5672369947
 21
0.5672369947
 31
0.0
 40
0.9972646886
 41
2.3575640181
 42
3.9256212891
  0
ELLIPSE
  5
559
100
AcDbEntity
  8
0
100
AcDbEllipse
 62
7
  6
CONTINUOUS
 10
251.6503454097
 20
182.01867186
 30
0.0
 11
0.5672369947
 21
-0.5672369947
 31
0.0
 40
0.9972646886
 41
2.3575640181
 42
3.9256212891
  0
ELLIPSE
  5
55A
100
AcDbEntity
  8
0
100
AcDbEllipse
 62
7
  6
CONTINUOUS
 10
224.4481496561
 20
182.01867186
 30
0.0
 11
0.5672369947
 21
0.5672369947
 31
0.0
 40
0.9972646886
 41
-0.7840286355
 42
0.7840286355
  0
ELLIPSE
  5
55B
100
AcDbEntity
  8
0
100
AcDbEllipse
 62
7
  6
CONTINUOUS
 10
180.6503454097
 20
182.01867186
 30
0.0
 11
0.5672369947
 21
-0.5672369947
 31
0.0
 40
0.9972646886
 41
2.3575640181
 42
3.9256212891
  0
ELLIPSE
  5
55C
100
AcDbEntity
  8
0
100
AcDbEllipse
 62
7
  6
CONTINUOUS
 10
180.6503454097
 20
138.2208676136
 30
0.0
 11
0.5672369947
 21
0.5672369947
 31
0.0
 40
0.9972646886
 41
-3.9256212891
 42
-2.3575640181
  0
ELLIPSE
  5
55D
100
AcDbEntity
  8
0
100
AcDbEllipse
 62
7
  6
CONTINUOUS
 10
224.4481496561
 20
138.2208676136
 30
0.0
 11
0.5672369947
 21
-0.5672369947
 31
0.0
 40
0.9972646886
 41
-0.7840286355
 42
0.7840286355
  0
ELLIPSE
  5
55E
100
AcDbEntity
  8
0
100
AcDbEllipse
 62
7
  6
CONTINUOUS
 10
109.6503454097
 20
138.2208676136
 30
0.0
 11
0.5672369947
 21
0.5672369947
 31
0.0
 40
0.9972646886
 41
-3.9256212891
 42
-2.3575640181
  0
ELLIPSE
  5
55F
100
AcDbEntity
  8
0
100
AcDbEllipse
 62
7
  6
CONTINUOUS
 10
109.6503454097
 20
182.01867186
 30
0.0
 11
-0.5672369947
 21
0.5672369947
 31
0.0
 40
0.9972646886
 41
-0.7840286355
 42
0.7840286355
  0
ELLIPSE
  5
560
100
AcDbEntity
  8
0
100
AcDbEllipse
 62
7
  6
CONTINUOUS
 10
153.4481496561
 20
182.01867186
 30
0.0
 11
0.5672369947
 21
0.5672369947
 31
0.0
 40
0.9972646886
 41
-0.7840286355
 42
0.7840286355
  0
ELLIPSE
  5
561
100
AcDbEntity
  8
0
100
AcDbEllipse
 62
7
  6
CONTINUOUS
 10
153.4481496561
 20
138.2208676136
 30
0.0
 11
0.5672369947
 21
-0.5672369947
 31
0.0
 40
0.9972646886
 41
-0.7840286355
 42
0.7840286355
  0
ELLIPSE
  5
562
100
AcDbEntity
  8
ASSI
100
AcDbEllipse
 62
7
  6
CONTINUOUS
 10
87.5506198789
 20
116.1211420828
 30
0.0
 11
0.7090462434
 21
0.7090462434
 31
0.0
 40
0.9972646886
 41
-3.9256212891
 42
-2.3575640181
  0
ELLIPSE
  5
563
100
AcDbEntity
  8
ASSI
100
AcDbEllipse
 62
7
  6
CONTINUOUS
 10
388.5478751869
 20
116.1211420828
 30
0.0
 11
0.7090462434
 21
-0.7090462434
 31
0.0
 40
0.9972646886
 41
-0.7840286355
 42
0.7840286355
  0
ELLIPSE
  5
564
100
AcDbEntity
  8
ASSI
100
AcDbEllipse
 62
7
  6
CONTINUOUS
 10
388.5478751869
 20
204.1183973908
 30
0.0
 11
0.7090462434
 21
0.7090462434
 31
0.0
 40
0.9972646886
 41
-0.7840286355
 42
0.7840286355
  0
ELLIPSE
  5
565
100
AcDbEntity
  8
ASSI
100
AcDbEllipse
 62
7
  6
CONTINUOUS
 10
87.5506198789
 20
204.1183973908
 30
0.0
 11
-0.7090462434
 21
0.7090462434
 31
0.0
 40
0.9972646886
 41
-0.7840286355
 42
0.7840286355
  0
ELLIPSE
  5
566
100
AcDbEntity
  8
ASSI
100
AcDbEllipse
 62
7
  6
CONTINUOUS
 10
366.4481496561
 20
138.2208676136
 30
0.0
 11
0.5672369947
 21
-0.5672369947
 31
0.0
 40
0.9972646886
 41
-0.7840286355
 42
0.7840286355
  0
ELLIPSE
  5
567
100
AcDbEntity
  8
ASSI
100
AcDbEllipse
 62
7
  6
CONTINUOUS
 10
366.4481496561
 20
182.01867186
 30
0.0
 11
0.5672369947
 21
0.5672369947
 31
0.0
 40
0.9972646886
 41
-0.7840286355
 42
0.7840286355
  0
ELLIPSE
  5
568
100
AcDbEntity
  8
ASSI
100
AcDbEllipse
 62
7
  6
CONTINUOUS
 10
322.6503454097
 20
182.01867186
 30
0.0
 11
0.5672369947
 21
-0.5672369947
 31
0.0
 40
0.9972646886
 41
2.3575640181
 42
3.9256212891
  0
ELLIPSE
  5
569
100
AcDbEntity
  8
ASSI
100
AcDbEllipse
 62
7
  6
CONTINUOUS
 10
322.6503454097
 20
138.2208676136
 30
0.0
 11
0.5672369947
 21
0.5672369947
 31
0.0
 40
0.9972646886
 41
-3.9256212891
 42
-2.3575640181
  0
ELLIPSE
  5
56A
100
AcDbEntity
  8
ASSI
100
AcDbEllipse
 62
7
  6
CONTINUOUS
 10
295.4481496561
 20
182.01867186
 30
0.0
 11
0.5672369947
 21
0.5672369947
 31
0.0
 40
0.9972646886
 41
-0.7840286355
 42
0.7840286355
  0
ELLIPSE
  5
56B
100
AcDbEntity
  8
ASSI
100
AcDbEllipse
 62
7
  6
CONTINUOUS
 10
295.4481496561
 20
138.2208676136
 30
0.0
 11
-0.5672369947
 21
0.5672369947
 31
0.0
 40
0.9972646886
 41
-3.9256212891
 42
-2.3575640181
  0
ELLIPSE
  5
56C
100
AcDbEntity
  8
ASSI
100
AcDbEllipse
 62
7
  6
CONTINUOUS
 10
251.6503454097
 20
138.2208676136
 30
0.0
 11
0.5672369947
 21
0.5672369947
 31
0.0
 40
0.9972646886
 41
2.3575640181
 42
3.9256212891
  0
ELLIPSE
  5
56D
100
AcDbEntity
  8
ASSI
100
AcDbEllipse
 62
7
  6
CONTINUOUS
 10
251.6503454097
 20
182.01867186
 30
0.0
 11
0.5672369947
 21
-0.5672369947
 31
0.0
 40
0.9972646886
 41
2.3575640181
 42
3.9256212891
  0
ELLIPSE
  5
56E
100
AcDbEntity
  8
ASSI
100
AcDbEllipse
 62
7
  6
CONTINUOUS
 10
224.4481496561
 20
182.01867186
 30
0.0
 11
0.5672369947
 21
0.5672369947
 31
0.0
 40
0.9972646886
 41
-0.7840286355
 42
0.7840286355
  0
ELLIPSE
  5
56F
100
AcDbEntity
  8
ASSI
100
AcDbEllipse
 62
7
  6
CONTINUOUS
 10
180.6503454097
 20
182.01867186
 30
0.0
 11
0.5672369947
 21
-0.5672369947
 31
0.0
 40
0.9972646886
 41
2.3575640181
 42
3.9256212891
  0
ELLIPSE
  5
570
100
AcDbEntity
  8
ASSI
100
AcDbEllipse
 62
7
  6
CONTINUOUS
 10
180.6503454097
 20
138.2208676136
 30
0.0
 11
0.5672369947
 21
0.5672369947
 31
0.0
 40
0.9972646886
 41
-3.9256212891
 42
-2.3575640181
  0
ELLIPSE
  5
571
100
AcDbEntity
  8
ASSI
100
AcDbEllipse
 62
7
  6
CONTINUOUS
 10
224.4481496561
 20
138.2208676136
 30
0.0
 11
0.5672369947
 21
-0.5672369947
 31
0.0
 40
0.9972646886
 41
-0.7840286355
 42
0.7840286355
  0
ELLIPSE
  5
572
100
AcDbEntity
  8
ASSI
100
AcDbEllipse
 62
7
  6
CONTINUOUS
 10
109.6503454097
 20
138.2208676136
 30
0.0
 11
0.5672369947
 21
0.5672369947
 31
0.0
 40
0.9972646886
 41
-3.9256212891
 42
-2.3575640181
  0
ELLIPSE
  5
573
100
AcDbEntity
  8
ASSI
100
AcDbEllipse
 62
7
  6
CONTINUOUS
 10
109.6503454097
 20
182.01867186
 30
0.0
 11
-0.5672369947
 21
0.5672369947
 31
0.0
 40
0.9972646886
 41
-0.7840286355
 42
0.7840286355
  0
ELLIPSE
  5
574
100
AcDbEntity
  8
ASSI
100
AcDbEllipse
 62
7
  6
CONTINUOUS
 10
153.4481496561
 20
182.01867186
 30
0.0
 11
0.5672369947
 21
0.5672369947
 31
0.0
 40
0.9972646886
 41
-0.7840286355
 42
0.7840286355
  0
ELLIPSE
  5
575
100
AcDbEntity
  8
ASSI
100
AcDbEllipse
 62
7
  6
CONTINUOUS
 10
153.4481496561
 20
138.2208676136
 30
0.0
 11
0.5672369947
 21
-0.5672369947
 31
0.0
 40
0.9972646886
 41
-0.7840286355
 42
0.7840286355
  0
ELLIPSE
  5
576
100
AcDbEntity
  8
0
100
AcDbEllipse
 62
250
  6
CONTINUOUS
 10
495.3702238221
 20
160.1197697368
 30
0.0
 11
0.0
 21
450.0
 31
0.0
 40
1.0
 41
1.531108938
 42
1.5342196405
  0
ELLIPSE
  5
577
100
AcDbEntity
  8
0
100
AcDbEllipse
 62
250
  6
CONTINUOUS
 10
495.3702238221
 20
160.1197697368
 30
0.0
 11
0.0
 21
450.0
 31
0.0
 40
1.0
 41
7.8089607024
 42
7.8125165306
  0
ENDSEC
  0
SECTION
  2
OBJECTS
  0
DICTIONARY
  5
C
100
AcDbDictionary
280
0
281
1
  3
ACAD_GROUP
350
D
  3
ACAD_MLINESTYLE
350
17
  3
ACAD_LAYOUT
350
1A
  3
ACAD_PLOTSETTINGS
350
19
  3
ACAD_PLOTSTYLENAME
350
E
  0
DICTIONARY
  5
D
102
{ACAD_REACTORS
330
C
102
}
100
AcDbDictionary
280
0
281
1
  0
ACDBDICTIONARYWDFLT
  5
E
102
{ACAD_REACTORS
330
C
102
}
100
AcDbDictionary
281
1
  3
Normal
350
F
100
AcDbDictionaryWithDefault
340
F
  0
DICTIONARY
  5
17
102
{ACAD_REACTORS
330
C
102
}
100
AcDbDictionary
280
0
281
1
  3
Standard
350
18
  0
DICTIONARY
  5
19
102
{ACAD_REACTORS
330
C
102
}
100
AcDbDictionary
281
1
  0
DICTIONARY
  5
1A
102
{ACAD_REACTORS
330
C
102
}
100
AcDbDictionary
281
1
  3
Model
350
578
  3
Layout1
350
579
  0
ACDBPLACEHOLDER
  5
F
102
{ACAD_REACTORS
330
E
102
}
  0
MLINESTYLE
  5
18
102
{ACAD_REACTORS
330
17
102
}
100
AcDbMlineStyle
  2
STANDARD
 70
0
  3

 62
256
 51
90.0
 52
90.0
 71
2
 49
0.5
 62
256
  6
BYLAYER
 49
-0.5
 62
256
  6
BYLAYER
  0
LAYOUT
  5
578
102
{ACAD_REACTORS
330
1A
102
}
100
AcDbPlotSettings
  1

  2
none_device
  4
ISO_A3_(420.00_x_297.00_MM)
  6

 40
0.0
 41
0.0
 42
0.0
 43
0.0
 44
420.0
 45
297.0
 46
0.0
 47
0.0
 48
0.0
 49
0.0
140
0.0
141
0.0
142
1.0
143
1.0
 70
1024
 72
1
 73
0
 74
0
  7

 75
0
147
1.0
148
0.0
149
0.0
100
AcDbLayout
  1
Model
 70
0
 71
0
 10
0.0
 20
0.0
 11
420.0
 21
297.0
 12
0.0
 22
0.0
 32
0.0
 14
0.0
 24
0.0
 34
0.0
 15
0.0
 25
0.0
 35
0.0
146
0.0
 13
0.0
 23
0.0
 33
0.0
 16
1.0
 26
0.0
 36
0.0
 17
0.0
 27
1.0
 37
0.0
 76
0
330
215
345
0
346
0
  0
LAYOUT
  5
579
102
{ACAD_REACTORS
330
1A
102
}
100
AcDbPlotSettings
  1

  2
none_device
  4
ISO_A3_(420.00_x_297.00_MM)
  6

 40
0.0
 41
0.0
 42
0.0
 43
0.0
 44
420.0
 45
297.0
 46
0.0
 47
0.0
 48
0.0
 49
0.0
140
0.0
141
0.0
142
1.0
143
1.0
 70
0
 72
1
 73
0
 74
0
  7

 75
0
147
1.0
148
0.0
149
0.0
100
AcDbLayout
  1
Layout1
 70
0
 71
1
 10
0.0
 20
0.0
 11
420.0
 21
297.0
 12
0.0
 22
0.0
 32
0.0
 14
0.0
 24
0.0
 34
0.0
 15
0.0
 25
0.0
 35
0.0
146
0.0
 13
0.0
 23
0.0
 33
0.0
 16
1.0
 26
0.0
 36
0.0
 17
0.0
 27
1.0
 37
0.0
 76
0
330
216
345
0
346
0
  0
ENDSEC
  0
EOF
