  0
SECTION
  2
HEADER
  9
$ACADVER
  1
AC1015
  9
$DWGCODEPAGE
  3
ANSI_1252
  9
$EXTMAX
 10
297.0
 20
210.0
 30
0.0
  9
$EXTMIN
 10
0.0
 20
0.0
 30
0.0
  9
$LIMMIN
 10
0.0
 20
0.0
  9
$LIMMAX
 10
297.0
 20
210.0
  9
$VIEWCTR
 10
148.5
 20
105.0
  9
$VIEWSIZE
 40
210.0
  9
$CLAYER
  8
0
  9
$LTSCALE
 40
16.335
  9
$CELTYPE
  6
BYLAYER
  9
$DIMSCALE
 40
1.0
  9
$DIMASZ
 40
3.0
  9
$DIMEXO
 40
1.85625
  9
$DIMDLI
 40
11.286
  9
$DIMEXE
 40
5.346
  9
$DIMCEN
 40
2.673
  9
$DIMLFAC
 40
1.0
  9
$DIMBLK
  1
_FILLED
  9
$DIMTXT
 40
3.0
  9
$DIMTOL
 70
1
  9
$DIMLIM
 70
0
  9
$DIMTFAC
 40
1.0
  9
$DIMTP
 40
0.01
  9
$DIMTM
 40
0.01
  9
$PDMODE
 70
3
  9
$PDSIZE
 40
3.0
  9
$HANDSEED
  5
3E5
  9
$TILEMODE
 70
1
  9
$MEASUREMENT
 70
1
  9
$INSUNITS
 70
4
  0
ENDSEC
  0
SECTION
  2
CLASSES
  0
CLASS
  1
ACDBDICTIONARYWDFLT
  2
AcDbDictionaryWithDefault
  3
AutoCAD 2000
 90
0
280
0
281
0
  0
CLASS
  1
ACDBPLACEHOLDER
  2
AcDbPlaceHolder
  3
AutoCAD 2000
 90
0
280
0
281
0
  0
CLASS
  1
LAYOUT
  2
AcDbLayout
  3
AutoCAD 2000
 90
0
280
0
281
0
  0
ENDSEC
  0
SECTION
  2
TABLES
  0
TABLE
  2
VPORT
  5
8
100
AcDbSymbolTable
 70
2
  0
VPORT
  5
1F4
100
AcDbSymbolTableRecord
100
AcDbViewportTableRecord
  2
*ACTIVE
 70
0
 10
0.0
 20
0.0
 11
1.0
 21
1.0
 12
148.5
 22
105.0
 13
0.0
 23
0.0
 14
1.0
 24
1.0
 15
0.0
 25
0.0
 16
0.0
 26
0.0
 36
1.0
 17
0.0
 27
0.0
 37
0.0
 40
210.0
 41
1.4142857143
 42
50.0
 43
0.0
 44
0.0
 50
0.0
 51
0.0
 71
0
 72
100
 73
1
 74
1
 75
0
 76
0
 77
0
 78
0
  0
ENDTAB
  0
TABLE
  2
LTYPE
  5
5
100
AcDbSymbolTable
 70
6
  0
LTYPE
  5
14
100
AcDbSymbolTableRecord
100
AcDbLinetypeTableRecord
  2
BYBLOCK
 70
0
  3

 72
65
 73
0
 40
0.0
  0
LTYPE
  5
15
100
AcDbSymbolTableRecord
100
AcDbLinetypeTableRecord
  2
BYLAYER
 70
0
  3

 72
65
 73
0
 40
0.0
  0
LTYPE
  5
16
100
AcDbSymbolTableRecord
100
AcDbLinetypeTableRecord
  2
CONTINUOUS
 70
64
  3
Solid line
 72
65
 73
0
 40
0.0
  0
LTYPE
  5
1F5
100
AcDbSymbolTableRecord
100
AcDbLinetypeTableRecord
  2
CENTER
 70
64
  3
____ _ ____ _ ____ _ ____ _ ____ _ ____ _ ____
 72
65
 73
4
 40
0.6
 49
0.375
 74
0
 49
-0.075
 74
0
 49
0.075
 74
0
 49
-0.075
 74
0
  0
LTYPE
  5
1F6
100
AcDbSymbolTableRecord
100
AcDbLinetypeTableRecord
  2
HIDDEN
 70
64
  3
- - - - - - - - - - - - - - - - - - - -
 72
65
 73
2
 40
0.2
 49
0.1
 74
0
 49
-0.1
 74
0
  0
LTYPE
  5
1F7
100
AcDbSymbolTableRecord
100
AcDbLinetypeTableRecord
  2
PHANTOM
 70
64
  3
_____ _ _ _____ _ _ _____ _ _ _____
 72
65
 73
6
 40
0.8
 49
0.45
 74
0
 49
-0.05
 74
0
 49
0.1
 74
0
 49
-0.05
 74
0
 49
0.1
 74
0
 49
-0.05
 74
0
  0
LTYPE
  5
1F8
100
AcDbSymbolTableRecord
100
AcDbLinetypeTableRecord
  2
DOT
 70
64
  3
. . . . . . . . . . . . . . . . . . . .
 72
65
 73
2
 40
0.2
 49
0.1
 74
0
 49
-0.1
 74
0
  0
LTYPE
  5
1F9
100
AcDbSymbolTableRecord
100
AcDbLinetypeTableRecord
  2
DASHED
 70
64
  3
- - - - - - - - - - - - - - - - - - - -
 72
65
 73
2
 40
0.2
 49
0.1
 74
0
 49
-0.1
 74
0
  0
ENDTAB
  0
TABLE
  2
LAYER
  5
2
100
AcDbSymbolTable
 70
36
  0
LAYER
  5
10
100
AcDbSymbolTableRecord
100
AcDbLayerTableRecord
  2
0
 70
0
 62
7
  6
CONTINUOUS
370
-3
390
F
  0
LAYER
  5
1FA
100
AcDbSymbolTableRecord
100
AcDbLayerTableRecord
  2
DEFAULT_1
 70
0
 62
7
  6
CENTER
370
-3
390
F
  0
LAYER
  5
1FB
100
AcDbSymbolTableRecord
100
AcDbLayerTableRecord
  2
DEFAULT_2
 70
0
 62
7
  6
HIDDEN
370
-3
390
F
  0
LAYER
  5
1FC
100
AcDbSymbolTableRecord
100
AcDbLayerTableRecord
  2
DEFAULT_3
 70
0
 62
7
  6
PHANTOM
370
-3
390
F
  0
LAYER
  5
1FD
100
AcDbSymbolTableRecord
100
AcDbLayerTableRecord
  2
ASSI
 70
0
 62
7
  6
CONTINUOUS
370
-3
390
F
  0
LAYER
  5
1FE
100
AcDbSymbolTableRecord
100
AcDbLayerTableRecord
  2
COORDINATE
 70
0
 62
7
  6
CONTINUOUS
370
-3
390
F
  0
LAYER
  5
1FF
100
AcDbSymbolTableRecord
100
AcDbLayerTableRecord
  2
COPY_PUBLISH
 70
0
 62
7
  6
CONTINUOUS
370
-3
390
F
  0
LAYER
  5
200
100
AcDbSymbolTableRecord
100
AcDbLayerTableRecord
  2
COSMETIC
 70
0
 62
7
  6
CONTINUOUS
370
-3
390
F
  0
LAYER
  5
201
100
AcDbSymbolTableRecord
100
AcDbLayerTableRecord
  2
COSMETICI
 70
0
 62
7
  6
CONTINUOUS
370
-3
390
F
  0
LAYER
  5
202
100
AcDbSymbolTableRecord
100
AcDbLayerTableRecord
  2
CURVE
 70
0
 62
7
  6
CONTINUOUS
370
-3
390
F
  0
LAYER
  5
203
100
AcDbSymbolTableRecord
100
AcDbLayerTableRecord
  2
DRAFT
 70
0
 62
7
  6
CONTINUOUS
370
-3
390
F
  0
LAYER
  5
204
100
AcDbSymbolTableRecord
100
AcDbLayerTableRecord
  2
IMPORT_IGES
 70
0
 62
7
  6
CONTINUOUS
370
-3
390
F
  0
LAYER
  5
205
100
AcDbSymbolTableRecord
100
AcDbLayerTableRecord
  2
NOTE
 70
0
 62
7
  6
CONTINUOUS
370
-3
390
F
  0
LAYER
  5
206
100
AcDbSymbolTableRecord
100
AcDbLayerTableRecord
  2
PIANI
 70
0
 62
7
  6
CONTINUOUS
370
-3
390
F
  0
LAYER
  5
207
100
AcDbSymbolTableRecord
100
AcDbLayerTableRecord
  2
PUNTI
 70
0
 62
7
  6
CONTINUOUS
370
-3
390
F
  0
LAYER
  5
208
100
AcDbSymbolTableRecord
100
AcDbLayerTableRecord
  2
RACCORDO
 70
0
 62
7
  6
CONTINUOUS
370
-3
390
F
  0
LAYER
  5
209
100
AcDbSymbolTableRecord
100
AcDbLayerTableRecord
  2
SIMBOLI
 70
0
 62
7
  6
CONTINUOUS
370
-3
390
F
  0
LAYER
  5
20A
100
AcDbSymbolTableRecord
100
AcDbLayerTableRecord
  2
SMUSSO
 70
0
 62
7
  6
CONTINUOUS
370
-3
390
F
  0
LAYER
  5
20B
100
AcDbSymbolTableRecord
100
AcDbLayerTableRecord
  2
SNAPLINE
 70
0
 62
7
  6
CONTINUOUS
370
-3
390
F
  0
LAYER
  5
20C
100
AcDbSymbolTableRecord
100
AcDbLayerTableRecord
  2
SUPERFICI
 70
0
 62
7
  6
CONTINUOUS
370
-3
390
F
  0
LAYER
  5
20D
100
AcDbSymbolTableRecord
100
AcDbLayerTableRecord
  2
TRASH
 70
0
 62
7
  6
CONTINUOUS
370
-3
390
F
  0
LAYER
  5
20E
100
AcDbSymbolTableRecord
100
AcDbLayerTableRecord
  2
XSEC_DATUMS
 70
0
 62
7
  6
CONTINUOUS
370
-3
390
F
  0
ENDTAB
  0
TABLE
  2
STYLE
  5
3
100
AcDbSymbolTable
 70
1
  0
STYLE
  5
11
100
AcDbSymbolTableRecord
100
AcDbTextStyleTableRecord
  2
STANDARD
 70
0
 40
0.0
 41
0.8
 50
0.0
 71
0
 42
0.2
  3
txt
  4

  0
STYLE
  5
20F
100
AcDbSymbolTableRecord
100
AcDbTextStyleTableRecord
  2
TEXTSTYLE_1
 70
0
 40
0.0
 41
0.8
 50
0.0
 71
0
 42
0.2
  3
gdt
  4

  0
ENDTAB
  0
TABLE
  2
VIEW
  5
6
100
AcDbSymbolTable
 70
0
  0
ENDTAB
  0
TABLE
  2
UCS
  5
7
100
AcDbSymbolTable
 70
0
  0
ENDTAB
  0
TABLE
  2
APPID
  5
9
100
AcDbSymbolTable
 70
1
  0
APPID
  5
210
100
AcDbSymbolTableRecord
100
AcDbRegAppTableRecord
  2
ACAD
 70
0
  0
ENDTAB
  0
TABLE
  2
BLOCK_RECORD
  5
1
100
AcDbSymbolTable
 70
0
  0
BLOCK_RECORD
  5
211
100
AcDbSymbolTableRecord
100
AcDbBlockTableRecord
  2
*Model_Space
  0
BLOCK_RECORD
  5
212
100
AcDbSymbolTableRecord
100
AcDbBlockTableRecord
  2
*Paper_Space
  0
BLOCK_RECORD
  5
213
100
AcDbSymbolTableRecord
100
AcDbBlockTableRecord
  2
_FILLED
  0
BLOCK_RECORD
  5
214
100
AcDbSymbolTableRecord
100
AcDbBlockTableRecord
  2
*D0
  0
BLOCK_RECORD
  5
215
100
AcDbSymbolTableRecord
100
AcDbBlockTableRecord
  2
*D1
  0
BLOCK_RECORD
  5
216
100
AcDbSymbolTableRecord
100
AcDbBlockTableRecord
  2
*D2
  0
ENDTAB
  0
TABLE
  2
DIMSTYLE
  5
A
100
AcDbSymbolTable
 70
1
100
AcDbDimStyleTable
 71
0
  0
DIMSTYLE
105
217
100
AcDbSymbolTableRecord
100
AcDbDimStyleTableRecord
  2
STANDARD
 70
0
  3

  4

 40
1.0
 41
3.0
 42
0.0625
 43
0.38
 44
0.18
 45
0.0
 46
0.0
 47
0.01
 48
0.01
140
3.0
141
0.09
142
0.0
143
25.4
144
1.0
145
0.0
146
1.0
147
0.09
 71
1.0
 72
0.0
 73
0
 74
0
 75
0
 76
0
 77
1
 78
8
170
0
171
2
172
0
173
0
174
0
175
0
176
0
177
0
178
0
270
2
271
2
272
2
273
2
274
2
275
0
280
0
281
0
282
0
283
1
284
8
285
0
286
0
287
3
288
0
340
11
341
213
342
213
343
213
344
213
  0
DIMSTYLE
105
218
100
AcDbSymbolTableRecord
100
AcDbDimStyleTableRecord
  2
DIMSTYLE_1
 70
0
  3

  4

 40
1.0
 41
3.0
 42
0.0625
 43
0.38
 44
0.18
 45
0.0
 46
0.0
 47
0.0
 48
0.0
140
3.0
141
0.09
142
0.0
143
25.4
144
1.0
145
0.0
146
1.0
147
0.09
 71
0.0
 72
0.0
 73
0
 74
0
 75
0
 76
0
 77
1
 78
8
170
0
171
2
172
0
173
0
174
0
175
0
176
0
177
0
178
0
270
2
271
2
272
2
273
2
274
2
275
0
280
0
281
0
282
0
283
1
284
8
285
0
286
0
287
3
288
0
340
11
341
213
342
213
343
213
344
213
  0
DIMSTYLE
105
219
100
AcDbSymbolTableRecord
100
AcDbDimStyleTableRecord
  2
DIMSTYLE_2
 70
0
  3

  4

 40
1.0
 41
3.0
 42
0.0625
 43
0.38
 44
0.18
 45
0.0
 46
0.0
 47
0.0
 48
0.0
140
3.0
141
0.09
142
0.0
143
25.4
144
1.0
145
0.0
146
1.0
147
0.09
 71
0.0
 72
0.0
 73
0
 74
0
 75
0
 76
0
 77
1
 78
8
170
0
171
2
172
0
173
0
174
0
175
0
176
0
177
0
178
0
270
2
271
1
272
1
273
2
274
2
275
0
280
0
281
0
282
0
283
1
284
8
285
0
286
0
287
3
288
0
340
11
341
213
342
213
343
213
344
213
  0
ENDTAB
  0
ENDSEC
  0
SECTION
  2
BLOCKS
  0
BLOCK
  5
20
100
AcDbEntity
  8
0
100
AcDbBlockBegin
  2
*Model_Space
 70
0
 10
0.0
 20
0.0
 30
0.0
  3
*Model_Space
  1

  0
ENDBLK
  5
21
100
AcDbEntity
  8
0
100
AcDbBlockEnd
  0
BLOCK
  5
1C
100
AcDbEntity
  8
0
100
AcDbBlockBegin
  2
*Paper_Space
 70
0
 10
0.0
 20
0.0
 30
0.0
  3
*Paper_Space
  1

  0
ENDBLK
  5
1D
100
AcDbEntity
  8
0
100
AcDbBlockEnd
  0
BLOCK
  5
21A
100
AcDbEntity
  8
0
100
AcDbBlockBegin
  2
_FILLED
 70
64
 10
0.0
 20
0.0
  3
_FILLED
  1

  0
SOLID
  5
21B
100
AcDbEntity
  8
0
  6
BYBLOCK
 62
0
100
AcDbTrace
 10
0.0
 20
0.0
 11
-1.0
 21
0.3166666667
 12
-1.0
 22
-0.3166666667
 13
-1.0
 23
-0.3166666667
  0
ENDBLK
  5
21C
100
AcDbEntity
  8
0
  6
BYBLOCK
 62
0
100
AcDbBlockEnd
  0
BLOCK
  5
21D
100
AcDbEntity
  8
0
100
AcDbBlockBegin
 62
7
  6
CONTINUOUS
  2
*D0
 70
65
 10
0.0
 20
0.0
  3
*D0
  1

  0
LINE
  5
21E
100
AcDbEntity
  8
0
100
AcDbLine
 62
7
  6
CONTINUOUS
 10
-28.0152233299
 20
0.5
 11
-28.0152233299
 21
61.75
  0
LINE
  5
21F
100
AcDbEntity
  8
0
100
AcDbLine
 62
7
  6
CONTINUOUS
 10
66.4847766701
 20
0.5
 11
66.4847766701
 21
61.75
  0
LINE
  5
220
100
AcDbEntity
  8
0
100
AcDbLine
 62
7
  6
CONTINUOUS
 10
-28.0152233299
 20
60.25
 11
19.2347766701
 21
60.25
  0
LINE
  5
221
100
AcDbEntity
  8
0
100
AcDbLine
 62
7
  6
CONTINUOUS
 10
66.4847766701
 20
60.25
 11
19.2347766701
 21
60.25
  0
INSERT
  5
222
100
AcDbEntity
  8
0
100
AcDbBlockReference
 62
7
  6
CONTINUOUS
  2
_FILLED
 10
-28.0152233299
 20
60.25
 41
3.0
 42
3.0
 43
3.0
 50
180.0
  0
INSERT
  5
223
100
AcDbEntity
  8
0
100
AcDbBlockReference
 62
7
  6
CONTINUOUS
  2
_FILLED
 10
66.4847766701
 20
60.25
 41
3.0
 42
3.0
 43
3.0
  0
ENDBLK
  5
224
100
AcDbEntity
  8
0
  6
BYBLOCK
 62
0
100
AcDbBlockEnd
  0
BLOCK
  5
225
100
AcDbEntity
  8
0
100
AcDbBlockBegin
 62
7
  6
CONTINUOUS
  2
*D1
 70
65
 10
0.0
 20
0.0
  3
*D1
  1

  0
LINE
  5
226
100
AcDbEntity
  8
0
100
AcDbLine
 62
7
  6
CONTINUOUS
 10
19.7347766701
 20
47.25
 11
78.7347766701
 21
47.25
  0
LINE
  5
227
100
AcDbEntity
  8
0
100
AcDbLine
 62
7
  6
CONTINUOUS
 10
19.7347766701
 20
-47.25
 11
78.7347766701
 21
-47.25
  0
LINE
  5
228
100
AcDbEntity
  8
0
100
AcDbLine
 62
7
  6
CONTINUOUS
 10
77.2347766701
 20
47.25
 11
77.2347766701
 21
0.0
  0
LINE
  5
229
100
AcDbEntity
  8
0
100
AcDbLine
 62
7
  6
CONTINUOUS
 10
77.2347766701
 20
-47.25
 11
77.2347766701
 21
0.0
  0
INSERT
  5
22A
100
AcDbEntity
  8
0
100
AcDbBlockReference
 62
7
  6
CONTINUOUS
  2
_FILLED
 10
77.2347766701
 20
47.25
 41
3.0
 42
3.0
 43
3.0
 50
90.0
  0
INSERT
  5
22B
100
AcDbEntity
  8
0
100
AcDbBlockReference
 62
7
  6
CONTINUOUS
  2
_FILLED
 10
77.2347766701
 20
-47.25
 41
3.0
 42
3.0
 43
3.0
 50
270.0
  0
ENDBLK
  5
22C
100
AcDbEntity
  8
0
  6
BYBLOCK
 62
0
100
AcDbBlockEnd
  0
BLOCK
  5
22D
100
AcDbEntity
  8
0
100
AcDbBlockBegin
 62
7
  6
CONTINUOUS
  2
*D2
 70
65
 10
0.0
 20
0.0
  3
*D2
  1

  0
LINE
  5
22E
100
AcDbEntity
  8
0
100
AcDbLine
 62
7
  6
CONTINUOUS
 10
-43.8538503477
 20
44.1599267497
 11
-43.8538503477
 21
61.75
  0
LINE
  5
22F
100
AcDbEntity
  8
0
100
AcDbLine
 62
7
  6
CONTINUOUS
 10
-52.3451719738
 20
0.5
 11
-52.3451719738
 21
61.75
  0
LINE
  5
230
100
AcDbEntity
  8
0
100
AcDbLine
 62
7
  6
CONTINUOUS
 10
-43.8538503477
 20
60.25
 11
-39.8538503477
 21
60.25
  0
LINE
  5
231
100
AcDbEntity
  8
0
100
AcDbLine
 62
7
  6
CONTINUOUS
 10
-39.8538503477
 20
60.25
 11
-48.0995111607
 21
60.25
  0
LINE
  5
232
100
AcDbEntity
  8
0
100
AcDbLine
 62
7
  6
CONTINUOUS
 10
-52.3451719738
 20
60.25
 11
-56.3451719738
 21
60.25
  0
LINE
  5
233
100
AcDbEntity
  8
0
100
AcDbLine
 62
7
  6
CONTINUOUS
 10
-56.3451719738
 20
60.25
 11
-48.0995111607
 21
60.25
  0
INSERT
  5
234
100
AcDbEntity
  8
0
100
AcDbBlockReference
 62
7
  6
CONTINUOUS
  2
_FILLED
 10
-43.8538503477
 20
60.25
 41
3.0
 42
3.0
 43
3.0
 50
180.0
  0
INSERT
  5
235
100
AcDbEntity
  8
0
100
AcDbBlockReference
 62
7
  6
CONTINUOUS
  2
_FILLED
 10
-52.3451719738
 20
60.25
 41
3.0
 42
3.0
 43
3.0
  0
ENDBLK
  5
236
100
AcDbEntity
  8
0
  6
BYBLOCK
 62
0
100
AcDbBlockEnd
  0
ENDSEC
  0
SECTION
  2
ENTITIES
  0
DIMENSION
  5
237
100
AcDbEntity
  8
0
100
AcDbDimension
 62
7
  6
CONTINUOUS
  2
*D0
 10
66.4847766701
 20
60.25
 11
14.9490623844
 21
61.0
 70
160
 71
2
 42
94.5
  3
DIMSTYLE_1
100
AcDbAlignedDimension
 13
-28.0152233299
 23
0.5
 14
66.4847766701
 24
0.5
100
AcDbRotatedDimension
  0
DIMENSION
  5
238
100
AcDbEntity
  8
0
100
AcDbDimension
 62
7
  6
CONTINUOUS
  2
*D1
 10
77.2347766701
 20
-47.25
 11
76.4847766701
 21
-4.2857142857
 70
160
 71
2
 42
94.5
  3
DIMSTYLE_1
100
AcDbAlignedDimension
 13
19.7347766701
 23
47.25
 14
19.7347766701
 24
-47.25
 50
270.0
100
AcDbRotatedDimension
  0
DIMENSION
  5
239
100
AcDbEntity
  8
0
100
AcDbDimension
 62
7
  6
CONTINUOUS
  2
*D2
 10
-52.3451719738
 20
60.25
 11
-51.2066540179
 21
61.0
 70
160
 71
2
 42
8.4913216261
  3
DIMSTYLE_2
100
AcDbAlignedDimension
 13
-43.8538503477
 23
44.1599267497
 14
-52.3451719738
 24
0.5
 50
180.0
100
AcDbRotatedDimension
  0
LWPOLYLINE
  5
23A
100
AcDbEntity
  8
0
100
AcDbPolyline
 62
7
  6
CONTINUOUS
 90
10
 70
0
 43
0.3500000006
 10
15.377634304
 20
60.999995636
 10
16.2347767754
 20
61.8571426392
 10
16.4490623932
 20
62.7142896423
 10
16.4490623932
 20
63.5714275818
 10
16.0204911575
 20
63.9999965515
 10
15.377634304
 20
63.9999965515
 10
14.9490619354
 20
63.5714275818
 10
14.9490619354
 20
62.7142896423
 10
15.377634304
 20
62.2857116089
 10
16.3062056923
 20
62.2857116089
  0
LINE
  5
23B
100
AcDbEntity
  8
0
100
AcDbLine
 62
7
  6
CONTINUOUS
 10
14.6186696701
 20
-28.877801
 11
15.1336796701
 21
-28.877801
  0
LINE
  5
23C
100
AcDbEntity
  8
0
100
AcDbLine
 62
7
  6
CONTINUOUS
 10
16.2504916701
 20
-28.877801
 11
16.8348996701
 21
-28.877801
  0
LINE
  5
23D
100
AcDbEntity
  8
0
100
AcDbLine
 62
7
  6
CONTINUOUS
 10
17.1495046701
 20
-28.877801
 11
17.7085936701
 21
-28.877801
  0
LINE
  5
23E
100
AcDbEntity
  8
0
100
AcDbLine
 62
7
  6
CONTINUOUS
 10
18.5202896701
 20
-28.877801
 11
18.6022526701
 21
-28.877801
  0
LINE
  5
23F
100
AcDbEntity
  8
0
100
AcDbLine
 62
7
  6
CONTINUOUS
 10
19.4171826701
 20
-28.877801
 11
19.9888886701
 21
-28.877801
  0
LINE
  5
240
100
AcDbEntity
  8
0
100
AcDbLine
 62
7
  6
CONTINUOUS
 10
20.0806566701
 20
-28.877801
 11
20.6587236701
 21
-28.877801
  0
LINE
  5
241
100
AcDbEntity
  8
0
100
AcDbLine
 62
7
  6
CONTINUOUS
 10
21.7672426701
 20
-28.877801
 11
22.3831846701
 21
-28.877801
  0
LINE
  5
242
100
AcDbEntity
  8
0
100
AcDbLine
 62
7
  6
CONTINUOUS
 10
22.5547954724
 20
-28.8778013544
 11
23.1368520149
 21
-28.8778013544
  0
LINE
  5
243
100
AcDbEntity
  8
0
100
AcDbLine
 62
7
  6
CONTINUOUS
 10
24.0317922919
 20
-28.8778013544
 11
24.593924882
 21
-28.8778013544
  0
LINE
  5
244
100
AcDbEntity
  8
0
100
AcDbLine
 62
7
  6
CONTINUOUS
 10
20.8199836701
 20
-28.318881
 11
21.6158506701
 21
-28.318881
  0
LINE
  5
245
100
AcDbEntity
  8
RACCORDO
100
AcDbLine
 62
253
  6
CONTINUOUS
 10
-25.9035391796
 20
-31.6511485107
 11
-25.7465308665
 21
-31.6230899178
  0
LINE
  5
246
100
AcDbEntity
  8
RACCORDO
100
AcDbLine
 62
253
  6
CONTINUOUS
 10
-26.4813457411
 20
-27.6511485107
 11
-26.3108513423
 21
-27.6321699991
  0
LINE
  5
247
100
AcDbEntity
  8
0
100
AcDbLine
 62
7
  6
CONTINUOUS
 10
20.9395276701
 20
-27.886391
 11
21.4990566701
 21
-27.886391
  0
LINE
  5
248
100
AcDbEntity
  8
0
100
AcDbLine
 62
7
  6
CONTINUOUS
 10
23.1368520149
 20
-27.7821519248
 11
23.4501976324
 21
-27.7821519248
  0
LINE
  5
249
100
AcDbEntity
  8
0
100
AcDbLine
 62
7
  6
CONTINUOUS
 10
23.1174739242
 20
-27.3236280866
 11
23.4514573132
 21
-27.3236280866
  0
LINE
  5
24A
100
AcDbEntity
  8
0
100
AcDbLine
 62
7
  6
CONTINUOUS
 10
13.7311086701
 20
-26.078098
 11
14.3659566701
 21
-26.078098
  0
LINE
  5
24B
100
AcDbEntity
  8
0
100
AcDbLine
 62
7
  6
CONTINUOUS
 10
15.4496076701
 20
-26.078098
 11
16.0336166701
 21
-26.078098
  0
LINE
  5
24C
100
AcDbEntity
  8
0
100
AcDbLine
 62
7
  6
CONTINUOUS
 10
17.4023016701
 20
-26.078098
 11
17.9862266701
 21
-26.078098
  0
LINE
  5
24D
100
AcDbEntity
  8
0
100
AcDbLine
 62
7
  6
CONTINUOUS
 10
19.1488706701
 20
-26.078098
 11
19.7270846701
 21
-26.078098
  0
LINE
  5
24E
100
AcDbEntity
  8
0
100
AcDbLine
 62
7
  6
CONTINUOUS
 10
20.9588216701
 20
-26.078098
 11
21.5241666701
 21
-26.078098
  0
LINE
  5
24F
100
AcDbEntity
  8
0
100
AcDbLine
 62
7
  6
CONTINUOUS
 10
16.2504916701
 20
-26.07793
 11
16.8348996701
 21
-26.07793
  0
LINE
  5
250
100
AcDbEntity
  8
RACCORDO
100
AcDbLine
 62
253
  6
CONTINUOUS
 10
-26.4271664908
 20
-23.6999116454
 11
64.8967198349
 21
-23.6999116041
  0
LINE
  5
251
100
AcDbEntity
  8
RACCORDO
100
AcDbLine
 62
253
  6
CONTINUOUS
 10
29.7847698645
 20
-22.8100470062
 11
8.6847846986
 21
-22.8100470062
  0
LINE
  5
252
100
AcDbEntity
  8
RACCORDO
100
AcDbLine
 62
253
  6
CONTINUOUS
 10
29.7847692245
 20
-22.6185847029
 11
8.6847792156
 21
-22.6185847029
  0
LINE
  5
253
100
AcDbEntity
  8
0
100
AcDbLine
 62
7
  6
CONTINUOUS
 10
29.7847766701
 20
-22.5
 11
8.6847766701
 21
-22.5
  0
LINE
  5
254
100
AcDbEntity
  8
RACCORDO
100
AcDbLine
 62
7
  6
CONTINUOUS
 10
7.5729369426
 20
-21.7058344335
 11
7.5520200095
 21
-21.7065415249
  0
LINE
  5
255
100
AcDbEntity
  8
0
100
AcDbLine
 62
253
  6
CONTINUOUS
 10
30.5847766701
 20
-21.7
 11
30.705150446
 21
-21.6999981899
  0
LINE
  5
256
100
AcDbEntity
  8
0
100
AcDbLine
 62
253
  6
CONTINUOUS
 10
7.8847766701
 20
-21.7
 11
7.7643988474
 21
-21.6999986534
  0
LINE
  5
257
100
AcDbEntity
  8
RACCORDO
100
AcDbLine
 62
7
  6
CONTINUOUS
 10
30.8966163456
 20
-21.7058617752
 11
30.9175333303
 21
-21.706541664
  0
LINE
  5
258
100
AcDbEntity
  8
RACCORDO
100
AcDbLine
 62
253
  6
CONTINUOUS
 10
64.9508990812
 20
-27.6511485107
 11
64.7804048005
 21
-27.6321689189
  0
LINE
  5
259
100
AcDbEntity
  8
RACCORDO
100
AcDbLine
 62
253
  6
CONTINUOUS
 10
64.3730925197
 20
-31.6511485107
 11
64.2160870156
 21
-31.6230738186
  0
LINE
  5
25A
100
AcDbEntity
  8
RACCORDO
100
AcDbLine
 62
253
  6
CONTINUOUS
 10
-6.654835878
 20
46.084907254
 11
-6.6424234592
 21
45.9475665466
  0
LINE
  5
25B
100
AcDbEntity
  8
RACCORDO
100
AcDbLine
 62
253
  6
CONTINUOUS
 10
-6.654835878
 20
-46.084907254
 11
-6.6424238551
 21
-45.9475665185
  0
LINE
  5
25C
100
AcDbEntity
  8
RACCORDO
100
AcDbLine
 62
253
  6
CONTINUOUS
 10
-11.654835878
 20
-45.49
 11
-11.6355453173
 21
-45.3604634706
  0
LWPOLYLINE
  5
25D
100
AcDbEntity
  8
0
100
AcDbPolyline
 62
7
  6
CONTINUOUS
 90
3
 70
0
 43
0.3500000006
 10
20.377634697
 20
61.2857113037
 10
20.30620578
 20
61.0714268188
 10
20.1633479462
 20
60.7857111511
  0
LWPOLYLINE
  5
25E
100
AcDbEntity
  8
0
100
AcDbPolyline
 62
7
  6
CONTINUOUS
 90
2
 70
0
 43
0.3500000006
 10
76.4847781677
 20
-0.9285717087
 10
74.98477771
 20
-0.9285717087
  0
LINE
  5
25F
100
AcDbEntity
  8
RACCORDO
100
AcDbLine
 62
253
  6
CONTINUOUS
 10
31.2630191052
 20
0.0
 11
30.7257271075
 21
0.0
  0
LINE
  5
260
100
AcDbEntity
  8
RACCORDO
100
AcDbLine
 62
253
  6
CONTINUOUS
 10
7.206534235
 20
0.0
 11
7.7438262327
 21
0.0
  0
LINE
  5
261
100
AcDbEntity
  8
RACCORDO
100
AcDbLine
 62
253
  6
CONTINUOUS
 10
-11.654835878
 20
45.49
 11
-11.6355603157
 21
45.3604613003
  0
LINE
  5
262
100
AcDbEntity
  8
0
100
AcDbLine
 62
7
  6
CONTINUOUS
 10
13.7311086701
 20
-26.078098
 11
14.6186696701
 21
-28.877801
  0
LINE
  5
263
100
AcDbEntity
  8
0
100
AcDbLine
 62
7
  6
CONTINUOUS
 10
7.8847766701
 20
-21.7
 11
7.8847766701
 21
21.7
  0
LINE
  5
264
100
AcDbEntity
  8
0
100
AcDbLine
 62
253
  6
CONTINUOUS
 10
8.6847766701
 20
-22.5
 11
8.6847792156
 21
-22.6185847029
  0
LINE
  5
265
100
AcDbEntity
  8
0
100
AcDbLine
 62
253
  6
CONTINUOUS
 10
8.6847766701
 20
22.5
 11
8.6847791681
 21
22.6185847029
  0
LINE
  5
266
100
AcDbEntity
  8
RACCORDO
100
AcDbLine
 62
253
  6
CONTINUOUS
 10
8.684774136
 20
22.8299435384
 11
8.6847766701
 21
22.6185847029
  0
LINE
  5
267
100
AcDbEntity
  8
RACCORDO
100
AcDbLine
 62
253
  6
CONTINUOUS
 10
8.6847766701
 20
-22.6185847029
 11
8.6847746753
 21
-22.8299435457
  0
LINE
  5
268
100
AcDbEntity
  8
0
100
AcDbLine
 62
7
  6
CONTINUOUS
 10
17.8347086701
 20
-27.049647
 11
18.5202896701
 21
-28.877801
  0
LINE
  5
269
100
AcDbEntity
  8
0
100
AcDbLine
 62
7
  6
CONTINUOUS
 10
18.5644626701
 20
-27.632502
 11
17.9862266701
 21
-26.078098
  0
LINE
  5
26A
100
AcDbEntity
  8
0
100
AcDbLine
 62
7
  6
CONTINUOUS
 10
14.8996306701
 20
-28.00522
 11
14.3659566701
 21
-26.078098
  0
LINE
  5
26B
100
AcDbEntity
  8
0
100
AcDbLine
 62
7
  6
CONTINUOUS
 10
19.9888886701
 20
-28.877801
 11
19.7270846701
 21
-26.078098
  0
LINE
  5
26C
100
AcDbEntity
  8
0
100
AcDbLine
 62
7
  6
CONTINUOUS
 10
19.2971136701
 20
-27.057269
 11
19.4171826701
 21
-28.877801
  0
LINE
  5
26D
100
AcDbEntity
  8
0
100
AcDbLine
 62
7
  6
CONTINUOUS
 10
16.2504916701
 20
-26.07793
 11
16.2504916701
 21
-28.877801
  0
LINE
  5
26E
100
AcDbEntity
  8
0
100
AcDbLine
 62
7
  6
CONTINUOUS
 10
16.8348996701
 20
-28.877801
 11
16.8348996701
 21
-26.07793
  0
LINE
  5
26F
100
AcDbEntity
  8
0
100
AcDbLine
 62
7
  6
CONTINUOUS
 10
22.3831846701
 20
-28.877801
 11
21.5241666701
 21
-26.078098
  0
LINE
  5
270
100
AcDbEntity
  8
0
100
AcDbLine
 62
7
  6
CONTINUOUS
 10
21.6158506701
 20
-28.318881
 11
21.7672426701
 21
-28.877801
  0
LINE
  5
271
100
AcDbEntity
  8
0
100
AcDbLine
 62
7
  6
CONTINUOUS
 10
21.2305136701
 20
-26.847385
 11
21.4990566701
 21
-27.886391
  0
LWPOLYLINE
  5
272
100
AcDbEntity
  8
0
100
AcDbPolyline
 62
7
  6
CONTINUOUS
 90
2
 70
0
 43
0.3500000006
 10
18.3062051697
 20
60.999995636
 10
18.3062051697
 20
62.4999960938
  0
LINE
  5
273
100
AcDbEntity
  8
0
100
AcDbLine
 62
7
  6
CONTINUOUS
 10
22.5547954724
 20
-26.110807341
 11
22.5547954724
 21
-28.8778013544
  0
LINE
  5
274
100
AcDbEntity
  8
0
100
AcDbLine
 62
7
  6
CONTINUOUS
 10
23.1174739242
 20
-27.3236280866
 11
23.1174739242
 21
-26.5550547959
  0
LINE
  5
275
100
AcDbEntity
  8
0
100
AcDbLine
 62
7
  6
CONTINUOUS
 10
23.1368520149
 20
-28.8778013544
 11
23.1368520149
 21
-27.7821519248
  0
LINE
  5
276
100
AcDbEntity
  8
0
100
AcDbLine
 62
7
  6
CONTINUOUS
 10
17.7085936701
 20
-28.877801
 11
17.8347086701
 21
-27.049647
  0
LINE
  5
277
100
AcDbEntity
  8
0
100
AcDbLine
 62
7
  6
CONTINUOUS
 10
17.4023016701
 20
-26.078098
 11
17.1495046701
 21
-28.877801
  0
LINE
  5
278
100
AcDbEntity
  8
0
100
AcDbLine
 62
7
  6
CONTINUOUS
 10
15.4496076701
 20
-26.078098
 11
14.8996306701
 21
-28.00522
  0
LINE
  5
279
100
AcDbEntity
  8
0
100
AcDbLine
 62
7
  6
CONTINUOUS
 10
15.1336796701
 20
-28.877801
 11
16.0336166701
 21
-26.078098
  0
LINE
  5
27A
100
AcDbEntity
  8
RACCORDO
100
AcDbLine
 62
253
  6
CONTINUOUS
 10
64.3730925197
 20
31.6511485107
 11
64.2160842065
 21
31.6230899186
  0
LINE
  5
27B
100
AcDbEntity
  8
RACCORDO
100
AcDbLine
 62
253
  6
CONTINUOUS
 10
64.9508990812
 20
27.6511485107
 11
64.7804046825
 21
27.6321699988
  0
LINE
  5
27C
100
AcDbEntity
  8
RACCORDO
100
AcDbLine
 62
7
  6
CONTINUOUS
 10
30.8966162827
 20
21.7058949613
 11
30.9175333307
 21
21.7065414845
  0
LINE
  5
27D
100
AcDbEntity
  8
0
100
AcDbLine
 62
253
  6
CONTINUOUS
 10
30.5847766701
 20
21.7
 11
30.7051504379
 21
21.7000029959
  0
LINE
  5
27E
100
AcDbEntity
  8
0
100
AcDbLine
 62
253
  6
CONTINUOUS
 10
7.8847766701
 20
21.7
 11
7.7643988472
 21
21.6999985642
  0
LINE
  5
27F
100
AcDbEntity
  8
0
100
AcDbLine
 62
7
  6
CONTINUOUS
 10
29.7847766701
 20
22.5
 11
8.6847766701
 21
22.5
  0
LINE
  5
280
100
AcDbEntity
  8
RACCORDO
100
AcDbLine
 62
253
  6
CONTINUOUS
 10
8.6847791681
 20
22.6185847029
 11
29.7847728356
 21
22.6185847029
  0
LINE
  5
281
100
AcDbEntity
  8
RACCORDO
100
AcDbLine
 62
253
  6
CONTINUOUS
 10
8.6847848183
 20
22.8100470062
 11
29.7847702979
 21
22.8100470062
  0
LINE
  5
282
100
AcDbEntity
  8
RACCORDO
100
AcDbLine
 62
253
  6
CONTINUOUS
 10
64.8967197718
 20
23.6999122642
 11
-26.4271664356
 21
23.6999122233
  0
LINE
  5
283
100
AcDbEntity
  8
RACCORDO
100
AcDbLine
 62
7
  6
CONTINUOUS
 10
7.5729369529
 20
21.7058398518
 11
7.5520200098
 21
21.7065416786
  0
LINE
  5
284
100
AcDbEntity
  8
0
100
AcDbLine
 62
7
  6
CONTINUOUS
 10
24.057279835
 20
-27.5709244369
 11
24.057279835
 21
-27.554380628
  0
LINE
  5
285
100
AcDbEntity
  8
0
100
AcDbLine
 62
7
  6
CONTINUOUS
 10
20.9395276701
 20
-27.886391
 11
21.2305136701
 21
-26.847385
  0
LINE
  5
286
100
AcDbEntity
  8
0
100
AcDbLine
 62
7
  6
CONTINUOUS
 10
20.6587236701
 20
-28.877801
 11
20.8199836701
 21
-28.318881
  0
LINE
  5
287
100
AcDbEntity
  8
0
100
AcDbLine
 62
7
  6
CONTINUOUS
 10
20.9588216701
 20
-26.078098
 11
20.0806566701
 21
-28.877801
  0
LINE
  5
288
100
AcDbEntity
  8
0
100
AcDbLine
 62
7
  6
CONTINUOUS
 10
19.1488706701
 20
-26.078098
 11
18.5644626701
 21
-27.632502
  0
LINE
  5
289
100
AcDbEntity
  8
0
100
AcDbLine
 62
7
  6
CONTINUOUS
 10
18.6022526701
 20
-28.877801
 11
19.2971136701
 21
-27.057269
  0
LINE
  5
28A
100
AcDbEntity
  8
RACCORDO
100
AcDbLine
 62
253
  6
CONTINUOUS
 10
-26.4813457411
 20
27.6511485107
 11
-26.3108514604
 21
27.6321689187
  0
LINE
  5
28B
100
AcDbEntity
  8
RACCORDO
100
AcDbLine
 62
253
  6
CONTINUOUS
 10
-25.9035391796
 20
31.6511485107
 11
-25.746533677
 21
31.6230738099
  0
LWPOLYLINE
  5
28C
100
AcDbEntity
  8
0
100
AcDbPolyline
 62
7
  6
CONTINUOUS
 90
3
 70
0
 43
0.3500000006
 10
76.1990625
 20
1.1428578186
 10
76.4133469849
 20
1.0714289017
 10
76.6990626526
 20
0.9285710678
  0
LINE
  5
28D
100
AcDbEntity
  8
RACCORDO
100
AcDbLine
 62
253
  6
CONTINUOUS
 10
29.7847792041
 20
-22.8299435384
 11
29.7847766701
 21
-22.6185847029
  0
LINE
  5
28E
100
AcDbEntity
  8
0
100
AcDbLine
 62
253
  6
CONTINUOUS
 10
29.7847766701
 20
22.5
 11
29.7847728356
 21
22.6185847029
  0
LINE
  5
28F
100
AcDbEntity
  8
0
100
AcDbLine
 62
7
  6
CONTINUOUS
 10
30.5847766701
 20
-21.7
 11
30.5847766701
 21
21.7
  0
LINE
  5
290
100
AcDbEntity
  8
0
100
AcDbLine
 62
253
  6
CONTINUOUS
 10
29.7847766701
 20
-22.5
 11
29.7847692245
 21
-22.6185847029
  0
LINE
  5
291
100
AcDbEntity
  8
RACCORDO
100
AcDbLine
 62
253
  6
CONTINUOUS
 10
29.7847766701
 20
22.6185847029
 11
29.7847786648
 21
22.8299435457
  0
LWPOLYLINE
  5
292
100
AcDbEntity
  8
0
100
AcDbPolyline
 62
7
  6
CONTINUOUS
 90
10
 70
0
 43
0.3500000006
 10
75.9847780151
 20
1.0714289017
 10
76.1276313171
 20
1.1428578186
 10
76.1990625
 20
1.1428578186
 10
76.341915802
 20
0.9999999847
 10
76.341915802
 20
0.9285710678
 10
76.2704936829
 20
0.8571421509
 10
76.1990625
 20
0.8571421509
 10
76.056209198
 20
0.9285710678
 10
75.9847780151
 20
0.9999999847
 10
75.9847780151
 20
1.0714289017
  0
LINE
  5
293
100
AcDbEntity
  8
RACCORDO
100
AcDbLine
 62
253
  6
CONTINUOUS
 10
45.1243892181
 20
-46.084907254
 11
45.1119767994
 21
-45.9475665466
  0
LINE
  5
294
100
AcDbEntity
  8
RACCORDO
100
AcDbLine
 62
253
  6
CONTINUOUS
 10
45.1243892181
 20
46.084907254
 11
45.1119771952
 21
45.9475665185
  0
LINE
  5
295
100
AcDbEntity
  8
RACCORDO
100
AcDbLine
 62
253
  6
CONTINUOUS
 10
50.1243892181
 20
45.49
 11
50.1050986575
 21
45.3604634706
  0
LWPOLYLINE
  5
296
100
AcDbEntity
  8
0
100
AcDbPolyline
 62
7
  6
CONTINUOUS
 90
10
 70
0
 43
0.3500000006
 10
20.30620578
 20
61.4999957886
 10
20.377634697
 20
61.3571424866
 10
20.377634697
 20
61.2857113037
 10
20.2347768631
 20
61.1428580017
 10
20.1633479462
 20
61.1428580017
 10
20.0919190292
 20
61.2142891846
 10
20.0919190292
 20
61.2857113037
 10
20.1633479462
 20
61.4285736694
 10
20.2347768631
 20
61.4999957886
 10
20.30620578
 20
61.4999957886
  0
LINE
  5
297
100
AcDbEntity
  8
RACCORDO
100
AcDbLine
 62
253
  6
CONTINUOUS
 10
50.1243892181
 20
-45.49
 11
50.105113655
 21
-45.3604613004
  0
LWPOLYLINE
  5
298
100
AcDbEntity
  8
0
100
AcDbPolyline
 62
7
  6
CONTINUOUS
 90
10
 70
0
 43
0.3500000006
 10
76.4847781677
 20
-3.8571425743
 10
75.6276356964
 20
-3.000000103
 10
74.7704886932
 20
-2.7857144852
 10
73.9133462219
 20
-2.7857144852
 10
73.4847772522
 20
-3.2142857208
 10
73.4847772522
 20
-3.8571425743
 10
73.9133462219
 20
-4.28571381
 10
74.7704886932
 20
-4.28571381
 10
75.1990621948
 20
-3.8571425743
 10
75.1990621948
 20
-2.9285711861
  0
LWPOLYLINE
  5
299
100
AcDbEntity
  8
0
100
AcDbPolyline
 62
7
  6
CONTINUOUS
 90
8
 70
0
 43
0.3500000006
 10
21.3776327362
 20
60.999995636
 10
22.2347774734
 20
60.999995636
 10
22.6633487091
 20
61.4285736694
 10
22.6633487091
 20
62.2857116089
 10
22.2347774734
 20
62.7142896423
 10
21.3776327362
 20
62.7142896423
 10
21.3776327362
 20
63.9999965515
 10
22.6633487091
 20
63.9999965515
  0
LWPOLYLINE
  5
29A
100
AcDbEntity
  8
0
100
AcDbPolyline
 62
7
  6
CONTINUOUS
 90
3
 70
0
 43
0.3500000006
 10
18.8062053223
 20
61.6428581543
 10
17.3062048645
 20
61.6428581543
 10
17.949062851
 20
63.9999965515
  0
LWPOLYLINE
  5
29B
100
AcDbEntity
  8
0
100
AcDbPolyline
 62
7
  6
CONTINUOUS
 90
3
 70
0
 43
0.3500000006
 10
75.8419201813
 20
-0.4285715561
 10
75.8419201813
 20
-1.9285708809
 10
73.4847772522
 20
-1.2857140274
  0
LWPOLYLINE
  5
29C
100
AcDbEntity
  8
0
100
AcDbPolyline
 62
7
  6
CONTINUOUS
 90
8
 70
0
 43
0.3500000006
 10
76.4847781677
 20
2.1428581238
 10
76.4847781677
 20
3.0000005951
 10
76.056209198
 20
3.4285718307
 10
75.1990621948
 20
3.4285718307
 10
74.7704886932
 20
3.0000005951
 10
74.7704886932
 20
2.1428581238
 10
73.4847772522
 20
2.1428581238
 10
73.4847772522
 20
3.4285718307
  0
LINE
  5
29D
100
AcDbEntity
  8
RACCORDO
100
AcDbLine
 62
253
  6
CONTINUOUS
 10
-46.6538503477
 20
-45.49
 11
-49.1528099124
 21
-45.3604613004
  0
LINE
  5
29E
100
AcDbEntity
  8
RACCORDO
100
AcDbLine
 62
253
  6
CONTINUOUS
 10
-46.6538503477
 20
-46.084907254
 11
-49.2851479107
 21
-45.9475665466
  0
LINE
  5
29F
100
AcDbEntity
  8
DRAFT
100
AcDbLine
 62
7
  6
CONTINUOUS
 10
-46.6538503477
 20
-47.25
 11
-49.6104882951
 21
-47.095049171
  0
LINE
  5
2A0
100
AcDbEntity
  8
0
100
AcDbLine
 62
7
  6
CONTINUOUS
 10
-51.7360802509
 20
-28.8778013544
 11
-51.5761277608
 21
-28.8778013544
  0
LINE
  5
2A1
100
AcDbEntity
  8
0
100
AcDbLine
 62
253
  6
CONTINUOUS
 10
-51.7758285003
 20
-28.120100228
 11
-51.6255367268
 21
-28.120100228
  0
LINE
  5
2A2
100
AcDbEntity
  8
RACCORDO
100
AcDbLine
 62
253
  6
CONTINUOUS
 10
-46.6538503477
 20
-31.6511485107
 11
-49.6972107759
 21
-31.6230738186
  0
LINE
  5
2A3
100
AcDbEntity
  8
0
100
AcDbLine
 62
7
  6
CONTINUOUS
 10
-51.8117555957
 20
-27.5709244369
 11
-51.661480852
 21
-27.5709244369
  0
LINE
  5
2A4
100
AcDbEntity
  8
0
100
AcDbLine
 62
7
  6
CONTINUOUS
 10
-51.8127501676
 20
-27.554380628
 11
-51.6624759137
 21
-27.554380628
  0
LINE
  5
2A5
100
AcDbEntity
  8
0
100
AcDbLine
 62
7
  6
CONTINUOUS
 10
-51.8323703212
 20
-27.3236280866
 11
-51.8304388081
 21
-27.3236280866
  0
LINE
  5
2A6
100
AcDbEntity
  8
0
100
AcDbLine
 62
253
  6
CONTINUOUS
 10
-51.8948495745
 20
-26.1402838735
 11
-51.744615627
 21
-26.1402838735
  0
LINE
  5
2A7
100
AcDbEntity
  8
0
100
AcDbLine
 62
7
  6
CONTINUOUS
 10
-51.7541743327
 20
-26.0452484808
 11
-51.9044047665
 21
-26.0452484808
  0
LINE
  5
2A8
100
AcDbEntity
  8
RACCORDO
100
AcDbLine
 62
253
  6
CONTINUOUS
 10
-51.8863887638
 20
-23.7
 11
-50.3961463469
 21
-23.6999116041
  0
LINE
  5
2A9
100
AcDbEntity
  8
RACCORDO
100
AcDbLine
 62
253
  6
CONTINUOUS
 10
-46.6538503477
 20
-27.6511485107
 11
-49.9271705243
 21
-27.6321689189
  0
LINE
  5
2AA
100
AcDbEntity
  8
DRAFT
100
AcDbLine
 62
7
  6
CONTINUOUS
 10
-45.8538503477
 20
3.5
 11
-43.8538503477
 21
3.8526539614
  0
LINE
  5
2AB
100
AcDbEntity
  8
0
100
AcDbLine
 62
253
  6
CONTINUOUS
 10
-45.8538503477
 20
0.0
 11
-46.6538503477
 21
0.0
  0
LINE
  5
2AC
100
AcDbEntity
  8
RACCORDO
100
AcDbLine
 62
253
  6
CONTINUOUS
 10
-52.3451719732
 20
0.0
 11
-52.3452529775
 21
0.0
  0
LWPOLYLINE
  5
2AD
100
AcDbEntity
  8
0
100
AcDbPolyline
 62
7
  6
CONTINUOUS
 90
3
 70
0
 43
0.3500000006
 10
-48.1352272339
 20
61.2857113037
 10
-48.2066538849
 20
61.0714268188
 10
-48.3495117188
 20
60.7857111511
  0
LINE
  5
2AE
100
AcDbEntity
  8
DRAFT
100
AcDbLine
 62
7
  6
CONTINUOUS
 10
-43.8538503477
 20
-3.8526539614
 11
-45.8538503477
 21
-3.5
  0
LINE
  5
2AF
100
AcDbEntity
  8
RACCORDO
100
AcDbLine
 62
253
  6
CONTINUOUS
 10
-51.8736194681
 20
-21.7166818878
 11
-51.8737074225
 21
-21.7165157936
  0
LINE
  5
2B0
100
AcDbEntity
  8
RACCORDO
100
AcDbLine
 62
7
  6
CONTINUOUS
 10
-51.9704620975
 20
-19.3617022273
 11
-51.8629303389
 21
-21.9735945445
  0
LINE
  5
2B1
100
AcDbEntity
  8
RACCORDO
100
AcDbLine
 62
7
  6
CONTINUOUS
 10
-51.8629303389
 20
-21.9735945445
 11
-51.848133008
 21
-22.3576747598
  0
LINE
  5
2B2
100
AcDbEntity
  8
RACCORDO
100
AcDbLine
 62
7
  6
CONTINUOUS
 10
-51.8293844512
 20
23.1008024322
 11
-51.82937555
 21
23.1005482672
  0
LINE
  5
2B3
100
AcDbEntity
  8
RACCORDO
100
AcDbLine
 62
7
  6
CONTINUOUS
 10
-51.848133008
 20
-22.3576747598
 11
-51.8390312445
 21
-22.6250842382
  0
LINE
  5
2B4
100
AcDbEntity
  8
RACCORDO
100
AcDbLine
 62
7
  6
CONTINUOUS
 10
-51.8390312445
 20
-22.6250842382
 11
-51.8342502528
 21
-22.7867850961
  0
LINE
  5
2B5
100
AcDbEntity
  8
RACCORDO
100
AcDbLine
 62
7
  6
CONTINUOUS
 10
-51.8293453358
 20
23.099576372
 11
-51.8293001731
 21
23.0978492373
  0
LINE
  5
2B6
100
AcDbEntity
  8
RACCORDO
100
AcDbLine
 62
7
  6
CONTINUOUS
 10
-51.8342502528
 20
-22.7867850961
 11
-51.8314371203
 21
-22.899878333
  0
LINE
  5
2B7
100
AcDbEntity
  8
RACCORDO
100
AcDbLine
 62
7
  6
CONTINUOUS
 10
-51.8316665309
 20
-22.8896755686
 11
-51.8301314716
 21
-22.9650720258
  0
LINE
  5
2B8
100
AcDbEntity
  8
RACCORDO
100
AcDbLine
 62
7
  6
CONTINUOUS
 10
-51.8293001731
 20
23.0978492373
 11
-51.8292018049
 21
23.092719602
  0
LINE
  5
2B9
100
AcDbEntity
  8
RACCORDO
100
AcDbLine
 62
7
  6
CONTINUOUS
 10
-51.8301812679
 20
-22.9622389108
 11
-51.8295470221
 21
-23.002558711
  0
LINE
  5
2BA
100
AcDbEntity
  8
RACCORDO
100
AcDbLine
 62
7
  6
CONTINUOUS
 10
-51.8292018049
 20
23.092719602
 11
-51.8291151543
 21
23.0853435829
  0
LINE
  5
2BB
100
AcDbEntity
  8
RACCORDO
100
AcDbLine
 62
7
  6
CONTINUOUS
 10
-51.8295470221
 20
-23.002558711
 11
-51.8291743622
 21
-23.0364863151
  0
LINE
  5
2BC
100
AcDbEntity
  8
RACCORDO
100
AcDbLine
 62
7
  6
CONTINUOUS
 10
-51.8291151543
 20
23.0853435829
 11
-51.829059003
 21
23.075738118
  0
LINE
  5
2BD
100
AcDbEntity
  8
RACCORDO
100
AcDbLine
 62
7
  6
CONTINUOUS
 10
-51.8291743622
 20
-23.0364863151
 11
-51.8290570723
 21
-23.0576160404
  0
LWPOLYLINE
  5
2BE
100
AcDbEntity
  8
RACCORDO
100
AcDbPolyline
 62
7
  6
CONTINUOUS
 90
9
 70
0
 10
-52.3452529775
 20
0.0
 10
-52.3397323212
 20
-2.3502817346
 10
-52.3224069327
 20
-4.781112518
 10
-52.2932707826
 20
-7.2118316547
 10
-52.2523245176
 20
-9.6423752013
 10
-52.1995692538
 20
-12.0726877997
 10
-52.1350061009
 20
-14.5027181367
 10
-52.0586363422
 20
-16.932410857
 10
-51.9704620975
 20
-19.3617022273
  0
LWPOLYLINE
  5
2BF
100
AcDbEntity
  8
0
100
AcDbPolyline
 62
7
  6
CONTINUOUS
 90
4
 70
0
 43
0.3500000006
 10
-51.2066548004
 20
61.4285736694
 10
-51.2066548004
 20
62.2857116089
 10
-50.7780812988
 20
62.7142896423
 10
-50.1352233124
 20
62.7142896423
  0
LINE
  5
2C0
100
AcDbEntity
  8
RACCORDO
100
AcDbLine
 62
7
  6
CONTINUOUS
 10
-51.829059003
 20
23.075738118
 11
-51.8290550841
 21
23.0580149078
  0
LINE
  5
2C1
100
AcDbEntity
  8
RACCORDO
100
AcDbLine
 62
7
  6
CONTINUOUS
 10
-51.8290570723
 20
-23.0576160404
 11
-51.8290566153
 21
-23.0751444765
  0
LINE
  5
2C2
100
AcDbEntity
  8
RACCORDO
100
AcDbLine
 62
7
  6
CONTINUOUS
 10
-51.8290566153
 20
-23.0751444765
 11
-51.8291078425
 21
-23.0845586476
  0
LINE
  5
2C3
100
AcDbEntity
  8
RACCORDO
100
AcDbLine
 62
7
  6
CONTINUOUS
 10
-51.8290550841
 20
23.0580149078
 11
-51.8291735242
 21
23.0366431006
  0
LINE
  5
2C4
100
AcDbEntity
  8
RACCORDO
100
AcDbLine
 62
7
  6
CONTINUOUS
 10
-51.8291735242
 20
23.0366431006
 11
-51.8295503241
 21
23.0022802697
  0
LINE
  5
2C5
100
AcDbEntity
  8
RACCORDO
100
AcDbLine
 62
7
  6
CONTINUOUS
 10
-51.8291078425
 20
-23.0845586476
 11
-51.8291893365
 21
-23.0918756293
  0
LINE
  5
2C6
100
AcDbEntity
  8
RACCORDO
100
AcDbLine
 62
7
  6
CONTINUOUS
 10
-51.8295503241
 20
23.0022802697
 11
-51.8304006111
 21
22.9502860234
  0
LINE
  5
2C7
100
AcDbEntity
  8
RACCORDO
100
AcDbLine
 62
7
  6
CONTINUOUS
 10
-51.8291893365
 20
-23.0918756293
 11
-51.8292752838
 21
-23.0967244567
  0
LINE
  5
2C8
100
AcDbEntity
  8
RACCORDO
100
AcDbLine
 62
7
  6
CONTINUOUS
 10
-51.8304006111
 20
22.9502860234
 11
-51.8320161067
 21
22.8746382111
  0
LINE
  5
2C9
100
AcDbEntity
  8
RACCORDO
100
AcDbLine
 62
7
  6
CONTINUOUS
 10
-51.8320161067
 20
22.8746382111
 11
-51.83526428
 21
22.7502993584
  0
LINE
  5
2CA
100
AcDbEntity
  8
RACCORDO
100
AcDbLine
 62
7
  6
CONTINUOUS
 10
-51.83526428
 20
22.7502993584
 11
-51.8417813128
 21
22.5403088304
  0
LWPOLYLINE
  5
2CB
100
AcDbEntity
  8
RACCORDO
100
AcDbPolyline
 62
7
  6
CONTINUOUS
 90
9
 70
0
 10
-51.9703834494
 20
19.3637330163
 10
-52.0585479064
 20
16.9350223948
 10
-52.1349135262
 20
14.5059100482
 10
-52.1994781895
 20
12.0764597191
 10
-52.2522406112
 20
9.6467267916
 10
-52.2931996701
 20
7.2167626218
 10
-52.3223542404
 20
4.7866226199
 10
-52.3397036758
 20
2.3563704529
 10
-52.3452529772
 20
0.0
  0
LINE
  5
2CC
100
AcDbEntity
  8
RACCORDO
100
AcDbLine
 62
7
  6
CONTINUOUS
 10
-51.8411302554
 20
22.5600345723
 11
-51.8520017722
 21
22.2527601624
  0
LINE
  5
2CD
100
AcDbEntity
  8
RACCORDO
100
AcDbLine
 62
7
  6
CONTINUOUS
 10
-51.8519348257
 20
22.2545398511
 11
-51.869325982
 21
21.8191888415
  0
LINE
  5
2CE
100
AcDbEntity
  8
RACCORDO
100
AcDbLine
 62
7
  6
CONTINUOUS
 10
-51.8692360727
 20
21.8213267987
 11
-51.9703834494
 21
19.3637330163
  0
LINE
  5
2CF
100
AcDbEntity
  8
RACCORDO
100
AcDbLine
 62
253
  6
CONTINUOUS
 10
-51.8738452051
 20
21.7114722027
 11
-51.8739265877
 21
21.7114578676
  0
LINE
  5
2D0
100
AcDbEntity
  8
DRAFT
100
AcDbLine
 62
7
  6
CONTINUOUS
 10
-46.6538503477
 20
-47.249988683
 11
-46.6538503477
 21
47.249988683
  0
LINE
  5
2D1
100
AcDbEntity
  8
DRAFT
100
AcDbLine
 62
7
  6
CONTINUOUS
 10
-45.8538503477
 20
-3.5
 11
-45.8538503477
 21
3.5
  0
LINE
  5
2D2
100
AcDbEntity
  8
RACCORDO
100
AcDbLine
 62
253
  6
CONTINUOUS
 10
-50.3961463197
 20
23.6999122642
 11
-51.8863887638
 21
23.7
  0
LINE
  5
2D3
100
AcDbEntity
  8
0
100
AcDbLine
 62
7
  6
CONTINUOUS
 10
-43.8538503477
 20
-45.4
 11
-43.8538503477
 21
-27.4465300118
  0
LINE
  5
2D4
100
AcDbEntity
  8
DRAFT
100
AcDbLine
 62
7
  6
CONTINUOUS
 10
-43.8538503477
 20
-27.4465300118
 11
-43.8538503477
 21
-3.8526539614
  0
LINE
  5
2D5
100
AcDbEntity
  8
DRAFT
100
AcDbLine
 62
7
  6
CONTINUOUS
 10
-43.8538503477
 20
3.8526539614
 11
-43.8538503477
 21
27.4465300118
  0
LINE
  5
2D6
100
AcDbEntity
  8
0
100
AcDbLine
 62
7
  6
CONTINUOUS
 10
-43.8538503477
 20
27.4465300118
 11
-43.8538503477
 21
45.4
  0
LINE
  5
2D7
100
AcDbEntity
  8
RACCORDO
100
AcDbLine
 62
253
  6
CONTINUOUS
 10
-46.6538503477
 20
27.6511485107
 11
-49.9271704835
 21
27.6321699988
  0
LINE
  5
2D8
100
AcDbEntity
  8
RACCORDO
100
AcDbLine
 62
253
  6
CONTINUOUS
 10
-46.6538503477
 20
31.6511485107
 11
-49.6972097275
 21
31.6230899186
  0
LINE
  5
2D9
100
AcDbEntity
  8
RACCORDO
100
AcDbLine
 62
253
  6
CONTINUOUS
 10
-46.6538503477
 20
46.084907254
 11
-49.2851477657
 21
45.9475665185
  0
LINE
  5
2DA
100
AcDbEntity
  8
RACCORDO
100
AcDbLine
 62
253
  6
CONTINUOUS
 10
-46.6538503477
 20
45.49
 11
-49.1528108426
 21
45.3604634706
  0
LINE
  5
2DB
100
AcDbEntity
  8
DRAFT
100
AcDbLine
 62
7
  6
CONTINUOUS
 10
-46.6538503477
 20
47.25
 11
-49.6104882951
 21
47.095049171
  0
LWPOLYLINE
  5
2DC
100
AcDbEntity
  8
0
100
AcDbPolyline
 62
7
  6
CONTINUOUS
 90
10
 70
0
 43
0.3500000006
 10
-48.2066538849
 20
61.4999957886
 10
-48.1352272339
 20
61.3571424866
 10
-48.1352272339
 20
61.2857113037
 10
-48.2780805359
 20
61.1428580017
 10
-48.3495117188
 20
61.1428580017
 10
-48.4209383698
 20
61.2142891846
 10
-48.4209383698
 20
61.2857113037
 10
-48.3495117188
 20
61.4285736694
 10
-48.2780805359
 20
61.4999957886
 10
-48.2066538849
 20
61.4999957886
  0
LWPOLYLINE
  5
2DD
100
AcDbEntity
  8
0
100
AcDbPolyline
 62
7
  6
CONTINUOUS
 90
8
 70
0
 43
0.3500000006
 10
-47.1352269287
 20
60.999995636
 10
-46.2780844574
 20
60.999995636
 10
-45.8495109558
 20
61.4285736694
 10
-45.8495109558
 20
62.2857116089
 10
-46.2780844574
 20
62.7142896423
 10
-47.1352269287
 20
62.7142896423
 10
-47.1352269287
 20
63.9999965515
 10
-45.8495109558
 20
63.9999965515
  0
LWPOLYLINE
  5
2DE
100
AcDbEntity
  8
0
100
AcDbPolyline
 62
7
  6
CONTINUOUS
 90
13
 70
0
 43
0.3500000006
 10
-50.7780812988
 20
62.7142896423
 10
-51.0637969666
 20
62.9285741272
 10
-51.0637969666
 20
63.5714275818
 10
-50.7780812988
 20
63.9999965515
 10
-50.1352233124
 20
63.9999965515
 10
-49.8495121765
 20
63.5714275818
 10
-49.8495121765
 20
62.9285741272
 10
-50.1352233124
 20
62.7142896423
 10
-49.7066543427
 20
62.2857116089
 10
-49.7066543427
 20
61.4285736694
 10
-50.1352233124
 20
60.999995636
 10
-50.7780812988
 20
60.999995636
 10
-51.2066548004
 20
61.4285736694
  0
ARC
  5
2DF
100
AcDbEntity
  8
RACCORDO
100
AcDbCircle
 62
253
  6
CONTINUOUS
 10
19.2347766701
 20
-499.5224619653
 40
522.7999871091
100
AcDbArc
 50
88.8427960917
 51
91.1572039083
  0
ARC
  5
2E0
100
AcDbEntity
  8
RACCORDO
100
AcDbCircle
 62
253
  6
CONTINUOUS
 10
19.2347765802
 20
-499.6183994001
 40
522.5548522316
100
AcDbArc
 50
88.8431613205
 51
91.1568387189
  0
ARC
  5
2E1
100
AcDbEntity
  8
RACCORDO
100
AcDbCircle
 62
253
  6
CONTINUOUS
 10
19.2347766695
 20
-245.4420236798
 40
292.5363614715
100
AcDbArc
 50
84.9250930897
 51
95.0749068323
  0
ARC
  5
2E2
100
AcDbEntity
  8
RACCORDO
100
AcDbCircle
 62
253
  6
CONTINUOUS
 10
19.2347766701
 20
-245.3681601049
 40
292.1998324212
100
AcDbArc
 50
84.9223542697
 51
95.0776457303
  0
ARC
  5
2E3
100
AcDbEntity
  8
DRAFT
100
AcDbCircle
 62
7
  6
CONTINUOUS
 10
19.2347766701
 20
-240.9800492072
 40
288.2300492072
100
AcDbArc
 50
84.8465905058
 51
95.1534094942
  0
ARC
  5
2E4
100
AcDbEntity
  8
RACCORDO
100
AcDbCircle
 62
253
  6
CONTINUOUS
 10
-194.1129237339
 20
-0.4199153948
 40
260.1302779672
100
AcDbArc
 50
5.3202274376
 51
6.1873973311
  0
ARC
  5
2E5
100
AcDbEntity
  8
RACCORDO
100
AcDbCircle
 62
253
  6
CONTINUOUS
 10
-193.7382498048
 20
-0.4102911015
 40
260.0351405923
100
AcDbArc
 50
5.3232156525
 51
6.1908761337
  0
ARC
  5
2E6
100
AcDbEntity
  8
DRAFT
100
AcDbCircle
 62
7
  6
CONTINUOUS
 10
1.2863631146
 20
-41.9673932131
 40
88.4096728814
100
AcDbArc
 50
95.1534094942
 51
98.4170632326
  0
ARC
  5
2E7
100
AcDbEntity
  8
RACCORDO
100
AcDbCircle
 62
253
  6
CONTINUOUS
 10
1.1702698939
 20
-42.022859796
 40
88.3166693684
100
AcDbArc
 50
95.0751489745
 51
98.337222241
  0
ARC
  5
2E8
100
AcDbEntity
  8
RACCORDO
100
AcDbCircle
 62
253
  6
CONTINUOUS
 10
1.1628169537
 20
-41.978284911
 40
88.0086546996
100
AcDbArc
 50
95.0777235955
 51
98.3415743329
  0
ARC
  5
2E9
100
AcDbEntity
  8
RACCORDO
100
AcDbCircle
 62
253
  6
CONTINUOUS
 10
2.9481818338
 20
-20.9243832229
 40
62.195001293
100
AcDbArc
 50
350.0948005249
 51
353.8085569432
  0
ARC
  5
2EA
100
AcDbEntity
  8
RACCORDO
100
AcDbCircle
 62
253
  6
CONTINUOUS
 10
2.8747282044
 20
-20.9359592456
 40
61.9883884086
100
AcDbArc
 50
350.1008198318
 51
353.8126089313
  0
ARC
  5
2EB
100
AcDbEntity
  8
DRAFT
100
AcDbCircle
 62
7
  6
CONTINUOUS
 10
3.3866217099
 20
-20.7998202088
 40
61.9443374955
100
AcDbArc
 50
349.9109426922
 51
353.6498310709
  0
ARC
  5
2EC
100
AcDbEntity
  8
RACCORDO
100
AcDbCircle
 62
253
  6
CONTINUOUS
 10
-5.1064902824
 20
-23.8481597014
 40
34.906120862
100
AcDbArc
 50
1.1117430635
 51
1.6715625231
  0
ARC
  5
2ED
100
AcDbEntity
  8
DRAFT
100
AcDbCircle
 62
7
  6
CONTINUOUS
 10
-9.1664160512
 20
-28.6731106692
 40
17.0
100
AcDbArc
 50
190.0890573078
 51
261.5829367674
  0
ARC
  5
2EE
100
AcDbEntity
  8
RACCORDO
100
AcDbCircle
 62
253
  6
CONTINUOUS
 10
-9.1938782727
 20
-28.7373289896
 40
16.8019085897
100
AcDbArc
 50
189.8894540381
 51
261.6439370912
  0
ARC
  5
2EF
100
AcDbEntity
  8
RACCORDO
100
AcDbCircle
 62
253
  6
CONTINUOUS
 10
8.7154458491
 20
-21.6663185764
 40
1.164059053
100
AcDbArc
 50
181.9800907714
 51
268.49013034
  0
ARC
  5
2F0
100
AcDbEntity
  8
RACCORDO
100
AcDbCircle
 62
253
  6
CONTINUOUS
 10
8.6847606365
 20
-21.6982211966
 40
0.9203635063
100
AcDbArc
 50
180.1106528444
 51
270.0011566149
  0
ARC
  5
2F1
100
AcDbEntity
  8
0
100
AcDbCircle
 62
7
  6
CONTINUOUS
 10
8.6847766701
 20
-21.7
 40
0.8
100
AcDbArc
 50
179.9999999997
 51
270.0000000005
  0
ARC
  5
2F2
100
AcDbEntity
  8
RACCORDO
100
AcDbCircle
 62
253
  6
CONTINUOUS
 10
19.2347766701
 20
499.5224619683
 40
522.799987112
100
AcDbArc
 50
268.8427960917
 51
271.1572039083
  0
ARC
  5
2F3
100
AcDbEntity
  8
RACCORDO
100
AcDbCircle
 62
253
  6
CONTINUOUS
 10
19.23477676
 20
499.618399403
 40
522.5548522345
100
AcDbArc
 50
268.8431613205
 51
271.1568387189
  0
ARC
  5
2F4
100
AcDbEntity
  8
RACCORDO
100
AcDbCircle
 62
253
  6
CONTINUOUS
 10
19.2347766707
 20
245.4420236798
 40
292.5363614715
100
AcDbArc
 50
264.9250930897
 51
275.0749068323
  0
ARC
  5
2F5
100
AcDbEntity
  8
RACCORDO
100
AcDbCircle
 62
253
  6
CONTINUOUS
 10
19.2347766701
 20
245.3681601049
 40
292.1998324211
100
AcDbArc
 50
264.9223542697
 51
275.0776457303
  0
ARC
  5
2F6
100
AcDbEntity
  8
DRAFT
100
AcDbCircle
 62
7
  6
CONTINUOUS
 10
19.2347766701
 20
240.9800492072
 40
288.2300492072
100
AcDbArc
 50
264.8465905058
 51
275.1534094942
  0
ARC
  5
2F7
100
AcDbEntity
  8
RACCORDO
100
AcDbCircle
 62
253
  6
CONTINUOUS
 10
-194.1076656723
 20
0.4193856873
 40
260.1249934432
100
AcDbArc
 50
353.8125938373
 51
354.679781494
  0
ARC
  5
2F8
100
AcDbEntity
  8
RACCORDO
100
AcDbCircle
 62
253
  6
CONTINUOUS
 10
-193.7371113975
 20
0.4101763211
 40
260.0339964461
100
AcDbArc
 50
353.8091221984
 51
354.676786258
  0
ARC
  5
2F9
100
AcDbEntity
  8
RACCORDO
100
AcDbCircle
 62
253
  6
CONTINUOUS
 10
-189.3364080833
 20
0.0
 40
255.6142188211
100
AcDbArc
 50
354.6768168416
 51
5.3231831584
  0
ARC
  5
2FA
100
AcDbEntity
  8
RACCORDO
100
AcDbCircle
 62
253
  6
CONTINUOUS
 10
-189.5117974593
 20
0.0000000641
 40
255.5100361323
100
AcDbArc
 50
354.6778621911
 51
5.3221379287
  0
ARC
  5
2FB
100
AcDbEntity
  8
DRAFT
100
AcDbCircle
 62
7
  6
CONTINUOUS
 10
-183.5152233299
 20
0.0
 40
250.0
100
AcDbArc
 50
353.6498310709
 51
6.3501689291
  0
ARC
  5
2FC
100
AcDbEntity
  8
DRAFT
100
AcDbCircle
 62
7
  6
CONTINUOUS
 10
1.2863631146
 20
41.9673932131
 40
88.4096728814
100
AcDbArc
 50
261.5829367674
 51
264.8465905058
  0
ARC
  5
2FD
100
AcDbEntity
  8
RACCORDO
100
AcDbCircle
 62
253
  6
CONTINUOUS
 10
1.1702538934
 20
42.0227237335
 40
88.3165324239
100
AcDbArc
 50
261.6627850621
 51
264.9248532991
  0
ARC
  5
2FE
100
AcDbEntity
  8
RACCORDO
100
AcDbCircle
 62
253
  6
CONTINUOUS
 10
1.162816952
 20
41.9782848966
 40
88.008654685
100
AcDbArc
 50
261.6584256668
 51
264.9222764048
  0
ARC
  5
2FF
100
AcDbEntity
  8
RACCORDO
100
AcDbCircle
 62
253
  6
CONTINUOUS
 10
2.948184143
 20
20.9243835297
 40
62.1949989642
100
AcDbArc
 50
6.191444006
 51
9.9052146185
  0
ARC
  5
300
100
AcDbEntity
  8
RACCORDO
100
AcDbCircle
 62
253
  6
CONTINUOUS
 10
2.874724761
 20
20.935958759
 40
61.9883918844
100
AcDbArc
 50
6.1873911728
 51
9.8991800641
  0
ARC
  5
301
100
AcDbEntity
  8
DRAFT
100
AcDbCircle
 62
7
  6
CONTINUOUS
 10
3.3866217099
 20
20.7998202088
 40
61.9443374955
100
AcDbArc
 50
6.3501689291
 51
10.0890573078
  0
ARC
  5
302
100
AcDbEntity
  8
RACCORDO
100
AcDbCircle
 62
253
  6
CONTINUOUS
 10
-5.1066490987
 20
23.8481632867
 40
34.9062797168
100
AcDbArc
 50
358.3284391195
 51
358.8882561036
  0
ARC
  5
303
100
AcDbEntity
  8
DRAFT
100
AcDbCircle
 62
7
  6
CONTINUOUS
 10
-9.1664160512
 20
28.6731106692
 40
17.0
100
AcDbArc
 50
98.4170632326
 51
169.9109426922
  0
ARC
  5
304
100
AcDbEntity
  8
RACCORDO
100
AcDbCircle
 62
253
  6
CONTINUOUS
 10
-9.1938782864
 20
28.7373289348
 40
16.8019086173
100
AcDbArc
 50
98.3561145146
 51
170.110601527
  0
ARC
  5
305
100
AcDbEntity
  8
RACCORDO
100
AcDbCircle
 62
253
  6
CONTINUOUS
 10
8.7154461033
 20
21.6663184042
 40
1.1640593453
100
AcDbArc
 50
91.5099085036
 51
178.0198932751
  0
ARC
  5
306
100
AcDbEntity
  8
RACCORDO
100
AcDbCircle
 62
253
  6
CONTINUOUS
 10
8.6847540709
 20
21.6982013355
 40
1.1118447933
100
AcDbArc
 50
89.9984155222
 51
179.6063700687
  0
ARC
  5
307
100
AcDbEntity
  8
RACCORDO
100
AcDbCircle
 62
253
  6
CONTINUOUS
 10
8.6847606218
 20
21.6982212113
 40
0.9203634916
100
AcDbArc
 50
89.9988454261
 51
179.8893536268
  0
ARC
  5
308
100
AcDbEntity
  8
0
100
AcDbCircle
 62
7
  6
CONTINUOUS
 10
8.6847766701
 20
21.7
 40
0.8
100
AcDbArc
 50
89.9999999995
 51
180.0000000003
  0
ARC
  5
309
100
AcDbEntity
  8
RACCORDO
100
AcDbCircle
 62
253
  6
CONTINUOUS
 10
232.5772026263
 20
-0.4193839378
 40
260.1249769639
100
AcDbArc
 50
173.8125938314
 51
174.6797814061
  0
ARC
  5
30A
100
AcDbEntity
  8
RACCORDO
100
AcDbCircle
 62
253
  6
CONTINUOUS
 10
232.2066647677
 20
-0.4101763241
 40
260.0339964763
100
AcDbArc
 50
173.8091221985
 51
174.676786258
  0
ARC
  5
30B
100
AcDbEntity
  8
DRAFT
100
AcDbCircle
 62
7
  6
CONTINUOUS
 10
37.1831902255
 20
-41.9673932131
 40
88.4096728814
100
AcDbArc
 50
81.5829367674
 51
84.8465905058
  0
ARC
  5
30C
100
AcDbEntity
  8
RACCORDO
100
AcDbCircle
 62
253
  6
CONTINUOUS
 10
37.2992994468
 20
-42.0227237336
 40
88.3165324239
100
AcDbArc
 50
81.6627850621
 51
84.9248532991
  0
ARC
  5
30D
100
AcDbEntity
  8
RACCORDO
100
AcDbCircle
 62
253
  6
CONTINUOUS
 10
37.3067363882
 20
-41.9782848965
 40
88.008654685
100
AcDbArc
 50
81.6584256668
 51
84.9222764048
  0
ARC
  5
30E
100
AcDbEntity
  8
RACCORDO
100
AcDbCircle
 62
253
  6
CONTINUOUS
 10
35.5213691963
 20
-20.9243835298
 40
62.1949989634
100
AcDbArc
 50
186.1914440062
 51
189.9052146178
  0
ARC
  5
30F
100
AcDbEntity
  8
RACCORDO
100
AcDbCircle
 62
253
  6
CONTINUOUS
 10
35.5948285789
 20
-20.935958759
 40
61.9883918842
100
AcDbArc
 50
186.1873911728
 51
189.8991800641
  0
ARC
  5
310
100
AcDbEntity
  8
DRAFT
100
AcDbCircle
 62
7
  6
CONTINUOUS
 10
35.0829316303
 20
-20.7998202088
 40
61.9443374955
100
AcDbArc
 50
186.3501689291
 51
190.0890573078
  0
ARC
  5
311
100
AcDbEntity
  8
RACCORDO
100
AcDbCircle
 62
253
  6
CONTINUOUS
 10
43.5762024357
 20
-23.8481632867
 40
34.9062797136
100
AcDbArc
 50
178.3284391194
 51
178.8882561036
  0
ARC
  5
312
100
AcDbEntity
  8
DRAFT
100
AcDbCircle
 62
7
  6
CONTINUOUS
 10
47.6359693914
 20
-28.6731106692
 40
17.0
100
AcDbArc
 50
278.4170632326
 51
349.9109426922
  0
ARC
  5
313
100
AcDbEntity
  8
RACCORDO
100
AcDbCircle
 62
253
  6
CONTINUOUS
 10
47.6634316262
 20
-28.7373289348
 40
16.8019086175
100
AcDbArc
 50
278.3561145128
 51
350.1106014972
  0
ARC
  5
314
100
AcDbEntity
  8
RACCORDO
100
AcDbCircle
 62
253
  6
CONTINUOUS
 10
29.7624962768
 20
-21.6912850796
 40
1.4800194593
100
AcDbArc
 50
271.1833548595
 51
359.0335540482
  0
ARC
  5
315
100
AcDbEntity
  8
RACCORDO
100
AcDbCircle
 62
253
  6
CONTINUOUS
 10
29.7541072417
 20
-21.6663183991
 40
1.1640593454
100
AcDbArc
 50
271.5099082558
 51
358.0198922868
  0
ARC
  5
316
100
AcDbEntity
  8
RACCORDO
100
AcDbCircle
 62
253
  6
CONTINUOUS
 10
29.7847984265
 20
-21.6982045366
 40
1.1118424711
100
AcDbArc
 50
269.9985281343
 51
359.6054050936
  0
ARC
  5
317
100
AcDbEntity
  8
RACCORDO
100
AcDbCircle
 62
253
  6
CONTINUOUS
 10
29.784791688
 20
-21.6982201785
 40
0.9203645239
100
AcDbArc
 50
269.9986015732
 51
359.8893127628
  0
ARC
  5
318
100
AcDbEntity
  8
0
100
AcDbCircle
 62
7
  6
CONTINUOUS
 10
29.7847766701
 20
-21.7
 40
0.8
100
AcDbArc
 50
269.9999999984
 51
360.0
  0
ARC
  5
319
100
AcDbEntity
  8
RACCORDO
100
AcDbCircle
 62
253
  6
CONTINUOUS
 10
232.582521726
 20
0.4199199924
 40
260.1303228545
100
AcDbArc
 50
185.3202273971
 51
186.1873972779
  0
ARC
  5
31A
100
AcDbEntity
  8
RACCORDO
100
AcDbCircle
 62
253
  6
CONTINUOUS
 10
232.2078029136
 20
0.4102910782
 40
260.0351403598
100
AcDbArc
 50
185.3232156521
 51
186.1908761342
  0
ARC
  5
31B
100
AcDbEntity
  8
RACCORDO
100
AcDbCircle
 62
253
  6
CONTINUOUS
 10
227.8059614234
 20
0.0
 40
255.6142188211
100
AcDbArc
 50
174.6768168416
 51
185.3231831584
  0
ARC
  5
31C
100
AcDbEntity
  8
RACCORDO
100
AcDbCircle
 62
253
  6
CONTINUOUS
 10
227.9813508003
 20
0.0000000561
 40
255.5100361331
100
AcDbArc
 50
174.6778620787
 51
185.3221378164
  0
ARC
  5
31D
100
AcDbEntity
  8
DRAFT
100
AcDbCircle
 62
7
  6
CONTINUOUS
 10
221.9847766701
 20
0.0
 40
250.0
100
AcDbArc
 50
173.6498310709
 51
186.3501689291
  0
ARC
  5
31E
100
AcDbEntity
  8
DRAFT
100
AcDbCircle
 62
7
  6
CONTINUOUS
 10
37.1831902255
 20
41.9673932131
 40
88.4096728814
100
AcDbArc
 50
275.1534094942
 51
278.4170632326
  0
ARC
  5
31F
100
AcDbEntity
  8
RACCORDO
100
AcDbCircle
 62
253
  6
CONTINUOUS
 10
37.2992834471
 20
42.0228597885
 40
88.3166693608
100
AcDbArc
 50
275.0751489744
 51
278.3372222406
  0
ARC
  5
320
100
AcDbEntity
  8
RACCORDO
100
AcDbCircle
 62
253
  6
CONTINUOUS
 10
37.3067363865
 20
41.978284911
 40
88.0086546995
100
AcDbArc
 50
275.0777235955
 51
278.3415743329
  0
ARC
  5
321
100
AcDbEntity
  8
RACCORDO
100
AcDbCircle
 62
253
  6
CONTINUOUS
 10
35.521371505
 20
20.9243832231
 40
62.1950012916
100
AcDbArc
 50
170.0948005329
 51
173.8085569435
  0
ARC
  5
322
100
AcDbEntity
  8
RACCORDO
100
AcDbCircle
 62
253
  6
CONTINUOUS
 10
35.5948251355
 20
20.9359592456
 40
61.9883884084
100
AcDbArc
 50
170.1008198318
 51
173.8126089313
  0
ARC
  5
323
100
AcDbEntity
  8
DRAFT
100
AcDbCircle
 62
7
  6
CONTINUOUS
 10
35.0829316303
 20
20.7998202088
 40
61.9443374955
100
AcDbArc
 50
169.9109426922
 51
173.6498310709
  0
ARC
  5
324
100
AcDbEntity
  8
RACCORDO
100
AcDbCircle
 62
253
  6
CONTINUOUS
 10
43.5760436473
 20
23.8481597014
 40
34.9061208867
100
AcDbArc
 50
181.1117430628
 51
181.671562522
  0
ARC
  5
325
100
AcDbEntity
  8
DRAFT
100
AcDbCircle
 62
7
  6
CONTINUOUS
 10
47.6359693914
 20
28.6731106692
 40
17.0
100
AcDbArc
 50
10.0890573078
 51
81.5829367674
  0
ARC
  5
326
100
AcDbEntity
  8
RACCORDO
100
AcDbCircle
 62
253
  6
CONTINUOUS
 10
47.6634316127
 20
28.7373289896
 40
16.8019085898
100
AcDbArc
 50
9.8894540412
 51
81.6439370909
  0
ARC
  5
327
100
AcDbEntity
  8
RACCORDO
100
AcDbCircle
 62
253
  6
CONTINUOUS
 10
29.7541074962
 20
21.6663185715
 40
1.1640590529
100
AcDbArc
 50
1.9800930369
 51
88.4901305988
  0
ARC
  5
328
100
AcDbEntity
  8
RACCORDO
100
AcDbCircle
 62
253
  6
CONTINUOUS
 10
29.7847914583
 20
21.6981954438
 40
1.1118516439
100
AcDbArc
 50
0.3967718351
 51
90.0010904369
  0
ARC
  5
329
100
AcDbEntity
  8
RACCORDO
100
AcDbCircle
 62
253
  6
CONTINUOUS
 10
29.7847904462
 20
21.6982189345
 40
0.9203657682
100
AcDbArc
 50
0.1110637326
 51
90.0010963199
  0
ARC
  5
32A
100
AcDbEntity
  8
0
100
AcDbCircle
 62
7
  6
CONTINUOUS
 10
29.7847766701
 20
21.7
 40
0.8
100
AcDbArc
 50
0.0
 51
90.0000000008
  0
ARC
  5
32B
100
AcDbEntity
  8
RACCORDO
100
AcDbCircle
 62
253
  6
CONTINUOUS
 10
523.3601536423
 20
0.0
 40
573.9630770352
100
AcDbArc
 50
177.6320575865
 51
182.3679424135
  0
ARC
  5
32C
100
AcDbEntity
  8
RACCORDO
100
AcDbCircle
 62
253
  6
CONTINUOUS
 10
522.0310057112
 20
-0.0000000099
 40
572.9175598271
100
AcDbArc
 50
177.6291658278
 51
182.3708341041
  0
ARC
  5
32D
100
AcDbEntity
  8
RACCORDO
100
AcDbCircle
 62
253
  6
CONTINUOUS
 10
448.0381945366
 20
-0.0018946331
 40
500.3833705761
100
AcDbArc
 50
177.6195537337
 51
179.8675566508
  0
ARC
  5
32E
100
AcDbEntity
  8
RACCORDO
100
AcDbCircle
 62
253
  6
CONTINUOUS
 10
448.0009195401
 20
0.0009769305
 40
500.346093626
100
AcDbArc
 50
180.1333458667
 51
182.3546344025
  0
ARC
  5
32F
100
AcDbEntity
  8
ASSI
100
AcDbCircle
 62
7
  6
CONTINUOUS
 10
447.5516053856
 20
0.0
 40
500.0
100
AcDbArc
 50
182.6670136322
 51
182.7168379444
  0
ARC
  5
330
100
AcDbEntity
  8
ASSI
100
AcDbCircle
 62
7
  6
CONTINUOUS
 10
447.5516053856
 20
0.0
 40
500.0
100
AcDbArc
 50
177.2831620556
 51
177.3329863678
  0
ARC
  5
331
100
AcDbEntity
  8
RACCORDO
100
AcDbCircle
 62
253
  6
CONTINUOUS
 10
399.0504168194
 20
3.7637302405
 40
449.611583833
100
AcDbArc
 50
176.4474960422
 51
176.9569199903
  0
ARC
  5
332
100
AcDbEntity
  8
RACCORDO
100
AcDbCircle
 62
253
  6
CONTINUOUS
 10
398.5699651652
 20
-3.7914116683
 40
449.1303401511
100
AcDbArc
 50
183.042807285
 51
183.5527751654
  0
ARC
  5
333
100
AcDbEntity
  8
RACCORDO
100
AcDbCircle
 62
253
  6
CONTINUOUS
 10
394.7746557959
 20
3.8439866251
 40
445.6195356566
100
AcDbArc
 50
176.4298848566
 51
176.9419065563
  0
ARC
  5
334
100
AcDbEntity
  8
RACCORDO
100
AcDbCircle
 62
253
  6
CONTINUOUS
 10
394.3110678269
 20
-3.87083144
 40
445.1551757321
100
AcDbArc
 50
183.0578263863
 51
183.5703822008
  0
ARC
  5
335
100
AcDbEntity
  8
RACCORDO
100
AcDbCircle
 62
253
  6
CONTINUOUS
 10
278.8526812821
 20
10.0899167442
 40
329.2475080643
100
AcDbArc
 50
176.9458441035
 51
177.6284165284
  0
ARC
  5
336
100
AcDbEntity
  8
RACCORDO
100
AcDbCircle
 62
253
  6
CONTINUOUS
 10
278.7343570712
 20
-10.0955232303
 40
329.1290532047
100
AcDbArc
 50
182.371460671
 51
183.0542785711
  0
ARC
  5
337
100
AcDbEntity
  8
RACCORDO
100
AcDbCircle
 62
253
  6
CONTINUOUS
 10
278.0927377833
 20
10.0780325121
 40
328.7712009699
100
AcDbArc
 50
176.9419706062
 51
177.6254012139
  0
ARC
  5
338
100
AcDbEntity
  8
RACCORDO
100
AcDbCircle
 62
253
  6
CONTINUOUS
 10
277.9746470522
 20
-10.0836352379
 40
328.6529795083
100
AcDbArc
 50
182.3744757478
 51
183.0581523139
  0
ARC
  5
339
100
AcDbEntity
  8
0
100
AcDbCircle
 62
7
  6
CONTINUOUS
 10
254.8308795743
 20
-8.516707543
 40
307.232756133
100
AcDbArc
 50
183.6583182424
 51
183.7999216385
  0
ARC
  5
33A
100
AcDbEntity
  8
0
100
AcDbCircle
 62
7
  6
CONTINUOUS
 10
254.8300354409
 20
-8.5168869289
 40
307.0819168956
100
AcDbArc
 50
183.6600840967
 51
183.801757367
  0
ARC
  5
33B
100
AcDbEntity
  8
0
100
AcDbCircle
 62
7
  6
CONTINUOUS
 10
253.4347744484
 20
-9.2117800763
 40
305.8038635315
100
AcDbArc
 50
183.5278269442
 51
183.6871938837
  0
ARC
  5
33C
100
AcDbEntity
  8
ASSI
100
AcDbCircle
 62
7
  6
CONTINUOUS
 10
253.4284742849
 20
9.2117905746
 40
305.6584266969
100
AcDbArc
 50
172.9388866883
 51
177.2831620556
  0
ARC
  5
33D
100
AcDbEntity
  8
ASSI
100
AcDbCircle
 62
7
  6
CONTINUOUS
 10
253.4284742849
 20
-9.2117905746
 40
305.6584266969
100
AcDbArc
 50
183.6889538844
 51
187.0611133117
  0
ARC
  5
33E
100
AcDbEntity
  8
ASSI
100
AcDbCircle
 62
7
  6
CONTINUOUS
 10
253.4284742849
 20
-9.2117905746
 40
305.6584266969
100
AcDbArc
 50
182.7168379444
 51
183.15714924
  0
ARC
  5
33F
100
AcDbEntity
  8
RACCORDO
100
AcDbCircle
 62
253
  6
CONTINUOUS
 10
-67.5149064902
 20
-23.2572463838
 40
15.6877644288
100
AcDbArc
 50
0.910082511
 51
1.3985389779
  0
ARC
  5
340
100
AcDbEntity
  8
RACCORDO
100
AcDbCircle
 62
253
  6
CONTINUOUS
 10
-66.7357045206
 20
23.2396946945
 40
14.9083866524
100
AcDbArc
 50
358.4831021949
 51
359.0917378376
  0
ARC
  5
341
100
AcDbEntity
  8
0
100
AcDbCircle
 62
7
  6
CONTINUOUS
 10
-47.0363548401
 20
42.3779536453
 40
4.3887468615
100
AcDbArc
 50
43.5185832875
 51
85.0
  0
ARC
  5
342
100
AcDbEntity
  8
0
100
AcDbCircle
 62
7
  6
CONTINUOUS
 10
-47.0363548401
 20
-42.3779536453
 40
4.3887468615
100
AcDbArc
 50
275.0
 51
316.4814167125
  0
ARC
  5
343
100
AcDbEntity
  8
RACCORDO
100
AcDbCircle
 62
253
  6
CONTINUOUS
 10
-51.2811251886
 20
-23.1453399633
 40
0.5510888524
100
AcDbArc
 50
174.0292525511
 51
182.658242041
  0
ARC
  5
344
100
AcDbEntity
  8
RACCORDO
100
AcDbCircle
 62
253
  6
CONTINUOUS
 10
-51.281125679
 20
23.1453396164
 40
0.5510882896
100
AcDbArc
 50
177.341719568
 51
185.969735748
  0
ARC
  5
345
100
AcDbEntity
  8
RACCORDO
100
AcDbCircle
 62
7
  6
CONTINUOUS
 10
-51.3568538868
 20
-23.2519211907
 40
0.55
100
AcDbArc
 50
149.3759139192
 51
182.6683725737
  0
ARC
  5
346
100
AcDbEntity
  8
RACCORDO
100
AcDbCircle
 62
7
  6
CONTINUOUS
 10
-51.3568538868
 20
23.2519211907
 40
0.55
100
AcDbArc
 50
177.3316274263
 51
210.6241005227
  0
ARC
  5
347
100
AcDbEntity
  8
RACCORDO
100
AcDbCircle
 62
7
  6
CONTINUOUS
 10
-49.6083066983
 20
-46.7947491711
 40
0.3000000025
100
AcDbArc
 50
187.0697864327
 51
266.9999998893
  0
ARC
  5
348
100
AcDbEntity
  8
RACCORDO
100
AcDbCircle
 62
7
  6
CONTINUOUS
 10
-49.6083066983
 20
46.7947491711
 40
0.3000000025
100
AcDbArc
 50
93.0000001107
 51
172.9302135673
  0
SPLINE
  5
349
100
AcDbEntity
  8
0
100
AcDbSpline
 62
7
  6
CONTINUOUS
 70
0
 71
3
 72
9
 73
5
 74
3
 42
0.0000001
 43
0.0000001
 44
0.0000000001
 12
0.010418988
 22
-0.6973243327
 32
0.0
 13
-0.6971121636
 23
-0.015570508
 33
0.0
 40
0.0
 40
0.0
 40
0.0
 40
0.0
 40
0.5204624605
 40
1.0
 40
1.0
 40
1.0
 40
1.0
 10
23.9054288046
 20
-26.8887857194
 30
0.0
 10
23.9072363686
 20
-27.0097627654
 30
0.0
 10
23.8217035543
 20
-27.2739986456
 30
0.0
 10
23.5628877971
 20
-27.3211392056
 30
0.0
 10
23.4514573132
 20
-27.3236280866
 30
0.0
 11
23.9054288046
 21
-26.8887857194
 31
0.0
 11
23.7712640438
 21
-27.2260054432
 31
0.0
 11
23.4514573132
 21
-27.3236280866
 31
0.0
  0
SPLINE
  5
34A
100
AcDbEntity
  8
0
100
AcDbSpline
 62
7
  6
CONTINUOUS
 70
0
 71
3
 72
9
 73
5
 74
3
 42
0.0000001
 43
0.0000001
 44
0.0000000001
 12
0.5127681928
 22
-0.059513097
 32
0.0
 13
0.007711506
 23
-0.5161129994
 33
0.0
 40
0.0
 40
0.0
 40
0.0
 40
0.0
 40
0.5011416542
 40
1.0
 40
1.0
 40
1.0
 40
1.0
 10
23.5752901002
 20
-26.5385722488
 30
0.0
 10
23.6609466004
 20
-26.5485137461
 30
0.0
 10
23.8342725391
 20
-26.6239753842
 30
0.0
 10
23.9041465124
 20
-26.8029632934
 30
0.0
 10
23.9054288288
 20
-26.8887857191
 30
0.0
 11
23.5752901002
 21
-26.5385722488
 31
0.0
 11
23.8086870631
 21
-26.6501475803
 31
0.0
 11
23.9054288288
 21
-26.8887857191
 31
0.0
  0
SPLINE
  5
34B
100
AcDbEntity
  8
0
100
AcDbSpline
 62
7
  6
CONTINUOUS
 70
0
 71
3
 72
9
 73
5
 74
3
 42
0.0000001
 43
0.0000001
 44
0.0000000001
 12
0.4525354737
 22
0.0772181376
 32
0.0
 13
0.45601536
 23
-0.0529262269
 33
0.0
 40
0.0
 40
0.0
 40
0.0
 40
0.0
 40
0.2704041679
 40
1.0
 40
1.0
 40
1.0
 40
1.0
 10
23.1174739242
 20
-26.5550547959
 30
0.0
 10
23.1582630836
 20
-26.5480947605
 30
0.0
 10
23.3095801923
 20
-26.5252045035
 30
0.0
 10
23.4643877982
 20
-26.5257006641
 30
0.0
 10
23.5752901002
 20
-26.538572249
 30
0.0
 11
23.1174739242
 21
-26.5550547959
 31
0.0
 11
23.2403518569
 21
-26.5374254965
 31
0.0
 11
23.5752901002
 21
-26.538572249
 31
0.0
  0
SPLINE
  5
34C
100
AcDbEntity
  8
0
100
AcDbSpline
 62
7
  6
CONTINUOUS
 70
0
 71
3
 72
9
 73
5
 74
3
 42
0.0000001
 43
0.0000001
 44
0.0000000001
 12
-1.3656708806
 22
0.4933856579
 32
0.0
 13
-1.4365995531
 23
-0.2113482566
 33
0.0
 40
0.0
 40
0.0
 40
0.0
 40
0.0
 40
0.2957417834
 40
1.0
 40
1.0
 40
1.0
 40
1.0
 10
23.9970250998
 20
-26.1402838735
 30
0.0
 10
23.8623964526
 20
-26.091645622
 30
0.0
 10
23.3784879651
 20
-26.0123623732
 30
0.0
 10
22.8920411521
 20
-26.0611927589
 30
0.0
 10
22.5547954724
 20
-26.110807341
 30
0.0
 11
23.9970250998
 21
-26.1402838735
 31
0.0
 11
23.5759505243
 21
-26.055956112
 31
0.0
 11
22.5547954724
 21
-26.110807341
 31
0.0
  0
SPLINE
  5
34D
100
AcDbEntity
  8
0
100
AcDbSpline
 62
7
  6
CONTINUOUS
 70
0
 71
3
 72
8
 73
4
 74
2
 42
0.0000001
 43
0.0000001
 44
0.0000000001
 12
0.0636768256
 22
0.0082163646
 32
0.0
 13
0.0538745172
 23
0.0383037146
 33
0.0
 40
0.0
 40
0.0
 40
0.0
 40
0.0
 40
1.0
 40
1.0
 40
1.0
 40
1.0
 10
24.057279835
 20
-27.554380628
 30
0.0
 10
24.0785054435
 20
-27.5516418398
 30
0.0
 10
24.097542193
 20
-27.5414354145
 30
0.0
 10
24.1155003654
 20
-27.5286675096
 30
0.0
 11
24.057279835
 21
-27.554380628
 31
0.0
 11
24.1155003654
 21
-27.5286675096
 31
0.0
  0
SPLINE
  5
34E
100
AcDbEntity
  8
0
100
AcDbSpline
 62
7
  6
CONTINUOUS
 70
0
 71
3
 72
17
 73
13
 74
11
 42
0.0000001
 43
0.0000001
 44
0.0000000001
 12
1.4097331823
 22
1.0022923691
 32
0.0
 13
-1.5803518996
 23
0.5701175299
 33
0.0
 40
0.0
 40
0.0
 40
0.0
 40
0.0
 40
0.019901251
 40
0.1369870522
 40
0.2950577341
 40
0.3898145241
 40
0.4981400611
 40
0.5861599013
 40
0.6652814561
 40
0.8030942889
 40
0.9169847416
 40
1.0
 40
1.0
 40
1.0
 40
1.0
 10
24.1155003654
 20
-27.5286675096
 30
0.0
 10
24.1248521834
 20
-27.5220185523
 30
0.0
 10
24.1872105696
 20
-27.471470096
 30
0.0
 10
24.3076763711
 20
-27.3624114407
 30
0.0
 10
24.4078662848
 20
-27.1727887701
 30
0.0
 10
24.4524985953
 20
-26.9749694039
 30
0.0
 10
24.4566917115
 20
-26.8107834593
 30
0.0
 10
24.4345935226
 20
-26.6574351189
 30
0.0
 10
24.3810351
 20
-26.4944905445
 30
0.0
 10
24.2804414221
 20
-26.3348013094
 30
0.0
 10
24.1384109761
 20
-26.2099201326
 30
0.0
 10
24.0407562069
 20
-26.1560600248
 30
0.0
 10
23.9970250998
 20
-26.1402838735
 30
0.0
 11
24.1155003654
 21
-27.5286675096
 31
0.0
 11
24.1428351292
 21
-27.5073295791
 31
0.0
 11
24.2840958737
 21
-27.3704357284
 31
0.0
 11
24.4104608918
 21
-27.1368613706
 31
0.0
 11
24.4459946358
 21
-26.9816822186
 31
0.0
 11
24.4513290071
 21
-26.7997688004
 31
0.0
 11
24.4294573058
 21
-26.6535180467
 31
0.0
 11
24.3876363929
 21
-26.5273405045
 31
0.0
 11
24.2640931911
 21
-26.3315244248
 31
0.0
 11
24.1205919206
 21
-26.2049593012
 31
0.0
 11
23.9970250998
 21
-26.1402838735
 31
0.0
  0
SPLINE
  5
34F
100
AcDbEntity
  8
0
100
AcDbSpline
 62
7
  6
CONTINUOUS
 70
0
 71
3
 72
9
 73
5
 74
3
 42
0.0000001
 43
0.0000001
 44
0.0000000001
 12
-0.1713776396
 22
0.6290438979
 32
0.0
 13
-0.6055895038
 23
0.2414788146
 33
0.0
 40
0.0
 40
0.0
 40
0.0
 40
0.0
 40
0.2427307434
 40
1.0
 40
1.0
 40
1.0
 40
1.0
 10
24.3941558152
 20
-28.120100228
 30
0.0
 10
24.3802896079
 20
-28.0692041304
 30
0.0
 10
24.3273477339
 20
-27.8637401084
 30
0.0
 10
24.2101446061
 20
-27.6318792643
 30
0.0
 10
24.057279835
 20
-27.5709244369
 30
0.0
 11
24.3941558152
 21
-28.120100228
 31
0.0
 11
24.3508022088
 21
-27.9679040072
 31
0.0
 11
24.057279835
 21
-27.5709244369
 31
0.0
  0
SPLINE
  5
350
100
AcDbEntity
  8
0
100
AcDbSpline
 62
7
  6
CONTINUOUS
 70
0
 71
3
 72
9
 73
5
 74
3
 42
0.0000001
 43
0.0000001
 44
0.0000000001
 12
-0.2053815892
 22
0.7561993044
 32
0.0
 13
-0.2059759907
 23
0.7560376043
 33
0.0
 40
0.0
 40
0.0
 40
0.0
 40
0.0
 40
0.1980298616
 40
1.0
 40
1.0
 40
1.0
 40
1.0
 10
24.593924882
 20
-28.8778013544
 30
0.0
 10
24.5803676528
 20
-28.8278846732
 30
0.0
 10
24.5140163477
 20
-28.5752516595
 30
0.0
 10
24.4492180135
 20
-28.3222067553
 30
0.0
 10
24.3941558156
 20
-28.1201002279
 30
0.0
 11
24.593924882
 21
-28.8778013544
 31
0.0
 11
24.5541494743
 21
-28.727810759
 31
0.0
 11
24.3941558156
 21
-28.1201002279
 31
0.0
  0
SPLINE
  5
351
100
AcDbEntity
  8
0
100
AcDbSpline
 62
7
  6
CONTINUOUS
 70
0
 71
3
 72
9
 73
5
 74
3
 42
0.0000001
 43
0.0000001
 44
0.0000000001
 12
0.3119406271
 22
-0.830132912
 32
0.0
 13
0.2450341693
 23
-0.8522808592
 33
0.0
 40
0.0
 40
0.0
 40
0.0
 40
0.0
 40
0.558715251
 40
1.0
 40
1.0
 40
1.0
 40
1.0
 10
23.7761787224
 20
-28.0286629469
 30
0.0
 10
23.834274051
 20
-28.1832655863
 30
0.0
 10
23.9106444529
 20
-28.4695061587
 30
0.0
 10
23.9957490113
 20
-28.7524351727
 30
0.0
 10
24.0317922919
 20
-28.8778013544
 30
0.0
 11
23.7761787224
 21
-28.0286629469
 31
0.0
 11
23.9223391457
 21
-28.5020857877
 31
0.0
 11
24.0317922919
 21
-28.8778013544
 31
0.0
  0
SPLINE
  5
352
100
AcDbEntity
  8
0
100
AcDbSpline
 62
7
  6
CONTINUOUS
 70
0
 71
3
 72
9
 73
5
 74
3
 42
0.0000001
 43
0.0000001
 44
0.0000000001
 12
0.4290746113
 22
-0.0
 32
0.0
 13
0.1509474583
 23
-0.4016989729
 33
0.0
 40
0.0
 40
0.0
 40
0.0
 40
0.0
 40
0.356070537
 40
1.0
 40
1.0
 40
1.0
 40
1.0
 10
23.4501976324
 20
-27.7821519248
 30
0.0
 10
23.5011245748
 20
-27.7821519248
 30
0.0
 10
23.647563392
 20
-27.8129762611
 30
0.0
 10
23.7437789146
 20
-27.9424410007
 30
0.0
 10
23.7761787532
 20
-28.0286629354
 30
0.0
 11
23.4501976324
 21
-27.7821519248
 31
0.0
 11
23.5990420493
 21
-27.8166094453
 31
0.0
 11
23.7761787532
 21
-28.0286629354
 31
0.0
  0
SPLINE
  5
353
100
AcDbEntity
  8
RACCORDO
100
AcDbSpline
 62
253
  6
CONTINUOUS
 70
0
 71
3
 72
15
 73
11
 74
9
 42
0.0000001
 43
0.0000001
 44
0.0000000001
 12
3.5522098972
 22
-20.3535436814
 32
0.0
 13
20.4425646317
 23
-2.9977469573
 33
0.0
 40
0.0
 40
0.0
 40
0.0
 40
0.0
 40
0.1248683257
 40
0.2497728176
 40
0.3747251656
 40
0.4997275991
 40
0.624774798
 40
0.7498523055
 40
0.87493631
 40
1.0
 40
1.0
 40
1.0
 40
1.0
 10
-25.4706668899
 20
-31.5926933218
 30
0.0
 10
-25.3228140558
 20
-32.4398642955
 30
0.0
 10
-24.8939334363
 20
-34.1142819014
 30
0.0
 10
-23.8683383023
 20
-36.4934144085
 30
0.0
 10
-22.4842804516
 20
-38.6853616292
 30
0.0
 10
-20.7750059497
 20
-40.6355122089
 30
0.0
 10
-18.7818850858
 20
-42.2958664917
 30
0.0
 10
-16.5533472292
 20
-43.6250501538
 30
0.0
 10
-14.1450791697
 20
-44.5898017991
 30
0.0
 10
-12.4571732558
 20
-44.9743373164
 30
0.0
 10
-11.6049657335
 20
-45.0993070819
 30
0.0
 11
-25.4706668899
 21
-31.5926933218
 31
0.0
 11
-24.8303316884
 21
-34.0918937744
 31
0.0
 11
-23.8088213086
 21
-36.4617893026
 31
0.0
 11
-22.4303821739
 21
-38.644653972
 31
0.0
 11
-20.7280208778
 21
-40.5868956781
 31
0.0
 11
-18.7428939392
 21
-42.2404936434
 31
0.0
 11
-16.5234473021
 21
-43.5642791246
 31
0.0
 11
-14.1243430576
 21
-44.5251870351
 31
0.0
 11
-11.6049657335
 21
-45.0993070819
 31
0.0
  0
SPLINE
  5
354
100
AcDbEntity
  8
RACCORDO
100
AcDbSpline
 62
253
  6
CONTINUOUS
 70
0
 71
3
 72
15
 73
11
 74
9
 42
0.0000001
 43
0.0000001
 44
0.0000000001
 12
20.4425690473
 22
2.9977168649
 32
0.0
 13
3.5522387115
 23
20.3535386553
 33
0.0
 40
0.0
 40
0.0
 40
0.0
 40
0.0
 40
0.1250636879
 40
0.25014769
 40
0.3752252007
 40
0.5002724019
 40
0.6252748385
 40
0.7502271905
 40
0.8751316878
 40
1.0
 40
1.0
 40
1.0
 40
1.0
 10
50.0745190737
 20
-45.0993070819
 30
0.0
 10
50.9267267655
 20
-44.974338573
 30
0.0
 10
52.6146323943
 20
-44.5898012754
 30
0.0
 10
55.0229005273
 20
-43.6250503098
 30
0.0
 10
57.2514384237
 20
-42.2958665195
 30
0.0
 10
59.2445592986
 20
-40.6355122012
 30
0.0
 10
60.9538338421
 20
-38.6853615322
 30
0.0
 10
62.3378915992
 20
-36.4934142397
 30
0.0
 10
63.3634873679
 20
-34.1142818504
 30
0.0
 10
63.7923662125
 20
-32.439863995
 30
0.0
 10
63.94022023
 20
-31.5926933218
 30
0.0
 11
50.0745190737
 21
-45.0993070819
 31
0.0
 11
52.5938963615
 21
-44.5251870716
 31
0.0
 11
54.9930005556
 21
-43.5642791651
 31
0.0
 11
57.2124472719
 21
-42.2404936864
 31
0.0
 11
59.1975742276
 21
-40.5868956657
 31
0.0
 11
60.8999355363
 21
-38.6446538855
 31
0.0
 11
62.2783747297
 21
-36.4617891562
 31
0.0
 11
63.2998851159
 21
-34.0918935103
 31
0.0
 11
63.94022023
 21
-31.5926933218
 31
0.0
  0
SPLINE
  5
355
100
AcDbEntity
  8
RACCORDO
100
AcDbSpline
 62
253
  6
CONTINUOUS
 70
0
 71
3
 72
15
 73
11
 74
9
 42
0.0000001
 43
0.0000001
 44
0.0000000001
 12
-3.5522098957
 22
20.3535436816
 32
0.0
 13
-20.4425646317
 23
2.9977469572
 33
0.0
 40
0.0
 40
0.0
 40
0.0
 40
0.0
 40
0.1248683255
 40
0.2497728175
 40
0.3747251655
 40
0.499727599
 40
0.624774798
 40
0.7498523055
 40
0.87493631
 40
1.0
 40
1.0
 40
1.0
 40
1.0
 10
63.94022023
 20
31.5926933218
 30
0.0
 10
63.7923673962
 20
32.4398642941
 30
0.0
 10
63.3634867771
 20
34.1142818992
 30
0.0
 10
62.3378916439
 20
36.4934144057
 30
0.0
 10
60.9538337934
 20
38.6853616271
 30
0.0
 10
59.2445592915
 20
40.6355122072
 30
0.0
 10
57.2514384274
 20
42.2958664907
 30
0.0
 10
55.0229005701
 20
43.6250501535
 30
0.0
 10
52.6146325101
 20
44.589801799
 30
0.0
 10
50.926726596
 20
44.9743373164
 30
0.0
 10
50.0745190737
 20
45.0993070819
 30
0.0
 11
63.94022023
 21
31.5926933218
 31
0.0
 11
63.2998850298
 21
34.0918937706
 31
0.0
 11
62.27837465
 21
36.4617893002
 31
0.0
 11
60.8999355156
 21
38.6446539699
 31
0.0
 11
59.1975742199
 21
40.5868956761
 31
0.0
 11
57.2124472807
 21
42.2404936424
 31
0.0
 11
54.9930006431
 21
43.5642791242
 31
0.0
 11
52.5938963979
 21
44.525187035
 31
0.0
 11
50.0745190737
 21
45.0993070819
 31
0.0
  0
SPLINE
  5
356
100
AcDbEntity
  8
RACCORDO
100
AcDbSpline
 62
253
  6
CONTINUOUS
 70
0
 71
3
 72
9
 73
5
 74
3
 42
0.0000001
 43
0.0000001
 44
0.0000000001
 12
0.0000000058
 22
-21.7058733535
 32
0.0
 13
-0.0411660248
 23
-21.705834317
 33
0.0
 40
0.0
 40
0.0
 40
0.0
 40
0.0
 40
0.2500737007
 40
1.0
 40
1.0
 40
1.0
 40
1.0
 10
30.9171894108
 20
0.0
 30
0.0
 10
30.9171894113
 20
-1.8093560255
 30
0.0
 10
30.9154742541
 20
-9.0446470405
 30
0.0
 10
30.9069068405
 20
-16.279936441
 30
0.0
 10
30.8966163456
 20
-21.7058617752
 30
0.0
 11
30.9171894108
 21
0.0
 31
0.0
 11
30.9159030613
 21
-5.4280679241
 31
0.0
 11
30.8966163456
 21
-21.7058617752
 31
0.0
  0
SPLINE
  5
357
100
AcDbEntity
  8
RACCORDO
100
AcDbSpline
 62
253
  6
CONTINUOUS
 70
0
 71
3
 72
9
 73
5
 74
3
 42
0.0000001
 43
0.0000001
 44
0.0000000001
 12
-0.0000069552
 22
-21.7065532592
 32
0.0
 13
-0.0411706191
 23
-21.7065142152
 33
0.0
 40
0.0
 40
0.0
 40
0.0
 40
0.0
 40
0.2500732911
 40
1.0
 40
1.0
 40
1.0
 40
1.0
 10
30.938112902
 20
0.0
 30
0.0
 10
30.9381123222
 20
-1.8094097372
 30
0.0
 10
30.9364261164
 20
-9.0449273962
 30
0.0
 10
30.9278249793
 20
-16.2804434083
 30
0.0
 10
30.9175333303
 20
-21.706541664
 30
0.0
 11
30.938112902
 21
0.0
 31
0.0
 11
30.9368365355
 21
-5.4282290617
 31
0.0
 11
30.9175333303
 21
-21.706541664
 31
0.0
  0
SPLINE
  5
358
100
AcDbEntity
  8
RACCORDO
100
AcDbSpline
 62
253
  6
CONTINUOUS
 70
0
 71
3
 72
9
 73
5
 74
3
 42
0.0000001
 43
0.0000001
 44
0.0000000001
 12
0.0411709835
 22
-21.7065140358
 32
0.0
 13
0.0000073896
 23
-21.7065530804
 33
0.0
 40
0.0
 40
0.0
 40
0.0
 40
0.0
 40
0.2498965688
 40
1.0
 40
1.0
 40
1.0
 40
1.0
 10
30.9175333307
 20
21.7065414845
 30
0.0
 10
30.9209628265
 20
19.8984136915
 30
0.0
 10
30.9329991266
 20
12.6629059048
 30
0.0
 10
30.9381110543
 20
5.4273866482
 30
0.0
 10
30.938112902
 20
0.0
 30
0.0
 11
30.9175333307
 21
21.7065414845
 31
0.0
 11
30.9265460714
 21
16.2821558359
 31
0.0
 11
30.938112902
 21
0.0
 31
0.0
  0
SPLINE
  5
359
100
AcDbEntity
  8
RACCORDO
100
AcDbSpline
 62
253
  6
CONTINUOUS
 70
0
 71
3
 72
9
 73
5
 74
3
 42
0.0000001
 43
0.0000001
 44
0.0000000001
 12
0.0411648332
 22
-21.7058675064
 32
0.0
 13
-0.000000352
 23
-21.7059065406
 33
0.0
 40
0.0
 40
0.0
 40
0.0
 40
0.0
 40
0.2498968401
 40
1.0
 40
1.0
 40
1.0
 40
1.0
 10
30.8966162827
 20
21.7058949613
 30
0.0
 10
30.9000452699
 20
19.8978190607
 30
0.0
 10
30.9120486749
 20
12.6625267348
 30
0.0
 10
30.9171894989
 20
5.4272230281
 30
0.0
 10
30.9171894108
 20
0.0
 30
0.0
 11
30.8966162827
 21
21.7058949613
 31
0.0
 11
30.9056159385
 21
16.2816649709
 31
0.0
 11
30.9171894108
 21
0.0
 31
0.0
  0
SPLINE
  5
35A
100
AcDbEntity
  8
RACCORDO
100
AcDbSpline
 62
253
  6
CONTINUOUS
 70
0
 71
3
 72
9
 73
5
 74
3
 42
0.0000001
 43
0.0000001
 44
0.0000000001
 12
0.0411726696
 22
-21.6999755227
 32
0.0
 13
-0.0000000559
 23
-21.7000145824
 33
0.0
 40
0.0
 40
0.0
 40
0.0
 40
0.0
 40
0.2498967487
 40
1.0
 40
1.0
 40
1.0
 40
1.0
 10
30.7051504379
 20
21.7000029959
 30
0.0
 10
30.7085800767
 20
19.8924185527
 30
0.0
 10
30.7205854355
 20
12.6590902187
 30
0.0
 10
30.7257271215
 20
5.4257504972
 30
0.0
 10
30.7257271075
 20
0.0
 30
0.0
 11
30.7051504379
 21
21.7000029959
 31
0.0
 11
30.7141516517
 21
16.2772473758
 31
0.0
 11
30.7257271075
 21
0.0
 31
0.0
  0
SPLINE
  5
35B
100
AcDbEntity
  8
RACCORDO
100
AcDbSpline
 62
253
  6
CONTINUOUS
 70
0
 71
3
 72
9
 73
5
 74
3
 42
0.0000001
 43
0.0000001
 44
0.0000000001
 12
-0.0000000012
 22
-21.7000097754
 32
0.0
 13
-0.0411728088
 23
-21.6999707155
 33
0.0
 40
0.0
 40
0.0
 40
0.0
 40
0.0
 40
0.2500737662
 40
1.0
 40
1.0
 40
1.0
 40
1.0
 10
30.7257271075
 20
0.0
 30
0.0
 10
30.7257271074
 20
-1.8088677239
 30
0.0
 10
30.7240118164
 20
-9.0422042128
 30
0.0
 10
30.7154426358
 20
-16.275539086
 30
0.0
 10
30.705150446
 20
-21.6999981899
 30
0.0
 11
30.7257271075
 21
0.0
 31
0.0
 11
30.7244405879
 21
-5.4266030192
 31
0.0
 11
30.705150446
 21
-21.6999981899
 31
0.0
  0
SPLINE
  5
35C
100
AcDbEntity
  8
RACCORDO
100
AcDbSpline
 62
253
  6
CONTINUOUS
 70
0
 71
3
 72
15
 73
11
 74
9
 42
0.0000001
 43
0.0000001
 44
0.0000000001
 12
-20.4425690477
 22
-2.9977168632
 32
0.0
 13
-3.552238727
 23
-20.3535386527
 33
0.0
 40
0.0
 40
0.0
 40
0.0
 40
0.0
 40
0.1250636877
 40
0.2501476895
 40
0.3752252
 40
0.500272401
 40
0.6252748373
 40
0.7502271891
 40
0.875131686
 40
1.0
 40
1.0
 40
1.0
 40
1.0
 10
-11.6049657335
 20
45.0993070819
 30
0.0
 10
-12.4571734236
 20
44.9743385734
 30
0.0
 10
-14.1450790492
 20
44.5898012767
 30
0.0
 10
-16.553347178
 20
43.6250503139
 30
0.0
 10
-18.7818850717
 20
42.2958665278
 30
0.0
 10
-20.7750059445
 20
40.6355122146
 30
0.0
 10
-22.4842804869
 20
38.6853615512
 30
0.0
 10
-23.8683382449
 20
36.4934142663
 30
0.0
 10
-24.8939340223
 20
34.1142818718
 30
0.0
 10
-25.3228128696
 20
32.4398640067
 30
0.0
 10
-25.4706668899
 20
31.5926933218
 30
0.0
 11
-11.6049657335
 21
45.0993070819
 31
0.0
 11
-14.124343016
 21
44.5251870733
 31
0.0
 11
-16.5234472067
 21
43.5642791694
 31
0.0
 11
-18.7428939199
 21
42.2404936949
 31
0.0
 11
-20.7280208741
 21
40.5868956788
 31
0.0
 11
-22.4303821814
 21
38.6446539049
 31
0.0
 11
-23.8088213761
 21
36.4617891824
 31
0.0
 11
-24.8303317645
 21
34.0918935446
 31
0.0
 11
-25.4706668899
 21
31.5926933218
 31
0.0
  0
SPLINE
  5
35D
100
AcDbEntity
  8
RACCORDO
100
AcDbSpline
 62
253
  6
CONTINUOUS
 70
0
 71
3
 72
9
 73
5
 74
3
 42
0.0000001
 43
0.0000001
 44
0.0000000001
 12
-0.041170983
 22
21.7065140761
 32
0.0
 13
-0.00000739
 23
21.7065531208
 33
0.0
 40
0.0
 40
0.0
 40
0.0
 40
0.0
 40
0.2498965687
 40
1.0
 40
1.0
 40
1.0
 40
1.0
 10
7.5520200095
 20
-21.7065415249
 30
0.0
 10
7.5485905137
 20
-19.8984137291
 30
0.0
 10
7.5365542138
 20
-12.662905929
 30
0.0
 10
7.5314422859
 20
-5.4273866588
 30
0.0
 10
7.5314404381
 20
0.0
 30
0.0
 11
7.5520200095
 21
-21.7065415249
 31
0.0
 11
7.5430072689
 21
-16.282155868
 31
0.0
 11
7.5314404381
 21
0.0
 31
0.0
  0
SPLINE
  5
35E
100
AcDbEntity
  8
RACCORDO
100
AcDbSpline
 62
253
  6
CONTINUOUS
 70
0
 71
3
 72
9
 73
5
 74
3
 42
0.0000001
 43
0.0000001
 44
0.0000000001
 12
-0.0411658638
 22
21.7058069765
 32
0.0
 13
0.0000000535
 23
21.7058460128
 33
0.0
 40
0.0
 40
0.0
 40
0.0
 40
0.0
 40
0.2498969504
 40
1.0
 40
1.0
 40
1.0
 40
1.0
 10
7.5729369426
 20
-21.7058344335
 30
0.0
 10
7.569507868
 20
-19.8977627768
 30
0.0
 10
7.5575047479
 20
-12.6624906264
 30
0.0
 10
7.5523639159
 20
-5.4272070959
 30
0.0
 10
7.5523639293
 20
0.0
 30
0.0
 11
7.5729369426
 21
-21.7058344335
 31
0.0
 11
7.5639373213
 21
-16.2816171742
 31
0.0
 11
7.5523639293
 21
0.0
 31
0.0
  0
SPLINE
  5
35F
100
AcDbEntity
  8
RACCORDO
100
AcDbSpline
 62
253
  6
CONTINUOUS
 70
0
 71
3
 72
15
 73
11
 74
9
 42
0.0000001
 43
0.0000001
 44
0.0000000001
 12
-1.7361151
 22
0.0000042415
 32
0.0
 13
-0.0180637372
 23
1.7360211237
 33
0.0
 40
0.0
 40
0.0
 40
0.0
 40
0.0
 40
0.1249826579
 40
0.2499811058
 40
0.3749917403
 40
0.5000204774
 40
0.6250713728
 40
0.7500895776
 40
0.8750634142
 40
1.0
 40
1.0
 40
1.0
 40
1.0
 10
8.6847846987
 20
-22.8100470075
 30
0.0
 10
8.6124566054
 20
-22.8100468308
 30
0.0
 10
8.4673939587
 20
-22.7958431601
 30
0.0
 10
8.2583848651
 20
-22.7327261837
 30
0.0
 10
8.0655079829
 20
-22.6301850822
 30
0.0
 10
7.8962353074
 20
-22.4921035602
 30
0.0
 10
7.756985798
 20
-22.3237702819
 30
0.0
 10
7.6531829986
 20
-22.1315908862
 30
0.0
 10
7.5884734339
 20
-21.9230600925
 30
0.0
 10
7.5736908928
 20
-21.7781318785
 30
0.0
 10
7.5729386189
 20
-21.7058343611
 30
0.0
 11
8.6847846987
 21
-22.8100470075
 31
0.0
 11
8.4688356188
 21
-22.7888769224
 31
0.0
 11
8.2610842037
 21
-22.7261599042
 31
0.0
 11
8.0694549249
 21
-22.6242703682
 31
0.0
 11
7.901249139
 21
-22.4870708254
 31
0.0
 11
7.7628805502
 21
-22.3197754676
 31
0.0
 11
7.6596843281
 21
-22.1288317511
 31
0.0
 11
7.5955565979
 21
-21.9215561714
 31
0.0
 11
7.5729386189
 21
-21.7058343611
 31
0.0
  0
SPLINE
  5
360
100
AcDbEntity
  8
RACCORDO
100
AcDbSpline
 62
253
  6
CONTINUOUS
 70
0
 71
3
 72
15
 73
11
 74
9
 42
0.0000001
 43
0.0000001
 44
0.0000000001
 12
0.0408631851
 22
2.2658116529
 32
0.0
 13
2.2657176643
 23
0.0457789452
 33
0.0
 40
0.0
 40
0.0
 40
0.0
 40
0.0
 40
0.1249289802
 40
0.2498872039
 40
0.3748656876
 40
0.499871382
 40
0.6248972415
 40
0.7499324652
 40
0.8749746673
 40
1.0
 40
1.0
 40
1.0
 40
1.0
 10
7.2271220746
 20
21.7158715255
 30
0.0
 10
7.22882374
 20
21.8102267053
 30
0.0
 10
7.2502111955
 20
21.9991352049
 30
0.0
 10
7.3355163394
 20
22.2708862298
 30
0.0
 10
7.4709860087
 20
22.5216142549
 30
0.0
 10
7.6517809355
 20
22.7419491038
 30
0.0
 10
7.8712596273
 20
22.9238553356
 30
0.0
 10
8.1214867494
 20
23.0605255263
 30
0.0
 10
8.3930766368
 20
23.1469609509
 30
0.0
 10
8.5820695757
 20
23.1689907584
 30
0.0
 10
8.6764936106
 20
23.170898601
 30
0.0
 11
7.2271220746
 21
21.7158715255
 31
0.0
 11
7.259075954
 21
21.9971740496
 31
0.0
 11
7.3438673866
 21
22.26735936
 31
0.0
 11
7.4785239906
 21
22.5165245524
 31
0.0
 11
7.6582125756
 21
22.7355282964
 31
0.0
 11
7.8763747827
 21
22.9163093021
 31
0.0
 11
8.1250425419
 21
23.0521507233
 31
0.0
 11
8.3950725479
 21
23.1380652413
 31
0.0
 11
8.6764936106
 21
23.170898601
 31
0.0
  0
SPLINE
  5
361
100
AcDbEntity
  8
RACCORDO
100
AcDbSpline
 62
253
  6
CONTINUOUS
 70
0
 71
3
 72
9
 73
5
 74
3
 42
0.0000001
 43
0.0000001
 44
0.0000000001
 12
-0.0000000534
 22
21.7058514301
 32
0.0
 13
0.0411658215
 23
21.705812394
 33
0.0
 40
0.0
 40
0.0
 40
0.0
 40
0.0
 40
0.2500736344
 40
1.0
 40
1.0
 40
1.0
 40
1.0
 10
7.5523639293
 20
0.0
 30
0.0
 10
7.5523639248
 20
1.8093537184
 30
0.0
 10
7.5540789061
 20
9.0446374256
 30
0.0
 10
7.562646508
 20
16.2799195182
 30
0.0
 10
7.5729369529
 20
21.7058398518
 30
0.0
 11
7.5523639293
 21
0.0
 31
0.0
 11
7.5536502091
 21
5.4280610029
 31
0.0
 11
7.5729369529
 21
21.7058398518
 31
0.0
  0
SPLINE
  5
362
100
AcDbEntity
  8
RACCORDO
100
AcDbSpline
 62
253
  6
CONTINUOUS
 70
0
 71
3
 72
9
 73
5
 74
3
 42
0.0000001
 43
0.0000001
 44
0.0000000001
 12
0.000006955
 22
21.7065532738
 32
0.0
 13
0.0411706193
 23
21.7065142298
 33
0.0
 40
0.0
 40
0.0
 40
0.0
 40
0.0
 40
0.2500732911
 40
1.0
 40
1.0
 40
1.0
 40
1.0
 10
7.5314404381
 20
0.0
 30
0.0
 10
7.5314410179
 20
1.8094097388
 30
0.0
 10
7.5331272237
 20
9.0449274027
 30
0.0
 10
7.5417283608
 20
16.2804434196
 30
0.0
 10
7.5520200098
 20
21.7065416786
 30
0.0
 11
7.5314404381
 21
0.0
 31
0.0
 11
7.5327168046
 21
5.4282290665
 31
0.0
 11
7.5520200098
 21
21.7065416786
 31
0.0
  0
SPLINE
  5
363
100
AcDbEntity
  8
RACCORDO
100
AcDbSpline
 62
253
  6
CONTINUOUS
 70
0
 71
3
 72
9
 73
5
 74
3
 42
0.0000001
 43
0.0000001
 44
0.0000000001
 12
0.0000082798
 22
21.7158831249
 32
0.0
 13
0.0411884154
 23
21.715844064
 33
0.0
 40
0.0
 40
0.0
 40
0.0
 40
0.0
 40
0.2500733206
 40
1.0
 40
1.0
 40
1.0
 40
1.0
 10
7.206534235
 20
0.0
 30
0.0
 10
7.2065349251
 20
1.8101876679
 30
0.0
 10
7.208221759
 20
9.0488152819
 30
0.0
 10
7.2168259774
 20
16.2874412494
 30
0.0
 10
7.2271220746
 20
21.7158715255
 30
0.0
 11
7.206534235
 21
0.0
 31
0.0
 11
7.2078111796
 21
5.4305628535
 31
0.0
 11
7.2271220746
 21
21.7158715255
 31
0.0
  0
SPLINE
  5
364
100
AcDbEntity
  8
RACCORDO
100
AcDbSpline
 62
253
  6
CONTINUOUS
 70
0
 71
3
 72
9
 73
5
 74
3
 42
0.0000001
 43
0.0000001
 44
0.0000000001
 12
-0.0411810564
 22
21.7158573402
 32
0.0
 13
-0.0000087699
 23
21.7158963872
 33
0.0
 40
0.0
 40
0.0
 40
0.0
 40
0.0
 40
0.2498965327
 40
1.0
 40
1.0
 40
1.0
 40
1.0
 10
7.2271221033
 20
-21.7158847873
 30
0.0
 10
7.2236917689
 20
-19.9069789693
 30
0.0
 10
7.2116504536
 20
-12.6683567514
 30
0.0
 10
7.2065364277
 20
-5.4297230585
 30
0.0
 10
7.206534235
 20
0.0
 30
0.0
 11
7.2271221033
 21
-21.7158847873
 31
0.0
 11
7.2181062003
 21
-16.2891650652
 31
0.0
 11
7.206534235
 21
0.0
 31
0.0
  0
SPLINE
  5
365
100
AcDbEntity
  8
RACCORDO
100
AcDbSpline
 62
253
  6
CONTINUOUS
 70
0
 71
3
 72
14
 73
10
 74
8
 42
0.0000001
 43
0.0000001
 44
0.0000000001
 12
-2.2631249837
 22
0.045721239
 32
0.0
 13
-0.0329312768
 23
2.2633472236
 33
0.0
 40
0.0
 40
0.0
 40
0.0
 40
0.0
 40
0.1251664649
 40
0.2503504859
 40
0.3755282433
 40
0.5006965843
 40
0.6258447671
 40
0.7509656225
 40
1.0
 40
1.0
 40
1.0
 40
1.0
 10
8.6764936106
 20
-23.170898601
 30
0.0
 10
8.5820711593
 20
-23.1689910124
 30
0.0
 10
8.3930807362
 20
-23.1469608981
 30
0.0
 10
8.1214943622
 20
-23.0605306796
 30
0.0
 10
7.8712659121
 20
-22.9238511398
 30
0.0
 10
7.6517967561
 20
-22.741991357
 30
0.0
 10
7.4709658922
 20
-22.5214955923
 30
0.0
 10
7.2909404251
 20
-22.188803719
 30
0.0
 10
7.2298557766
 20
-21.9037685429
 30
0.0
 10
7.2271221033
 20
-21.7158847873
 30
0.0
 11
8.6764936106
 21
-23.170898601
 31
0.0
 11
8.3950772243
 21
-23.1380662794
 31
0.0
 11
8.1250500095
 21
-23.0521537242
 31
0.0
 11
7.8763829312
 21
-22.9163144326
 31
0.0
 11
7.6582208239
 21
-22.7355359905
 31
0.0
 11
7.4785313183
 21
-22.5165351289
 31
0.0
 11
7.3438728922
 21
-22.2673730107
 31
0.0
 11
7.2271221033
 21
-21.7158847873
 31
0.0
  0
LINE
  5
366
100
AcDbEntity
  8
RACCORDO
100
AcDbLine
 62
253
  6
CONTINUOUS
 10
7.7643988474
 20
-21.6999986534
 11
7.7643910477
 21
-21.6942398202
  0
SPLINE
  5
367
100
AcDbEntity
  8
RACCORDO
100
AcDbSpline
 62
253
  6
CONTINUOUS
 70
0
 71
3
 72
9
 73
5
 74
3
 42
0.0000001
 43
0.0000001
 44
0.0000000001
 12
-0.0411434989
 22
21.6942123812
 32
0.0
 13
0.0000000082
 23
21.6942513959
 33
0.0
 40
0.0
 40
0.0
 40
0.0
 40
0.0
 40
0.249896942
 40
1.0
 40
1.0
 40
1.0
 40
1.0
 10
7.7643910477
 20
-21.6942398202
 30
0.0
 10
7.7609638362
 20
-19.8871340421
 30
0.0
 10
7.7489656426
 20
-12.6557267615
 30
0.0
 10
7.7438262306
 20
-5.424308104
 30
0.0
 10
7.7438262327
 20
0.0
 30
0.0
 11
7.7643910477
 21
-21.6942398202
 31
0.0
 11
7.7553955329
 21
-16.2729201994
 31
0.0
 11
7.7438262327
 21
0.0
 31
0.0
  0
SPLINE
  5
368
100
AcDbEntity
  8
RACCORDO
100
AcDbSpline
 62
253
  6
CONTINUOUS
 70
0
 71
3
 72
9
 73
5
 74
3
 42
0.0000001
 43
0.0000001
 44
0.0000000001
 12
-0.0000000082
 22
21.6942513912
 32
0.0
 13
0.0411508956
 23
21.6942123625
 33
0.0
 40
0.0
 40
0.0
 40
0.0
 40
0.0
 40
0.2500736513
 40
1.0
 40
1.0
 40
1.0
 40
1.0
 10
7.7438262327
 20
0.0
 30
0.0
 10
7.743826232
 20
1.8083868862
 30
0.0
 10
7.7455407422
 20
9.0398039137
 30
0.0
 10
7.7541043341
 20
16.271219328
 30
0.0
 10
7.7643910477
 20
21.6942398159
 30
0.0
 11
7.7438262327
 21
0.0
 31
0.0
 11
7.7451120595
 21
5.4251605063
 31
0.0
 11
7.7643910477
 21
21.6942398159
 31
0.0
  0
LINE
  5
369
100
AcDbEntity
  8
RACCORDO
100
AcDbLine
 62
253
  6
CONTINUOUS
 10
7.7643910477
 20
21.6942398159
 11
7.7643988472
 21
21.6999985642
  0
SPLINE
  5
36A
100
AcDbEntity
  8
RACCORDO
100
AcDbSpline
 62
253
  6
CONTINUOUS
 70
0
 71
3
 72
15
 73
11
 74
9
 42
0.0000001
 43
0.0000001
 44
0.0000000001
 12
0.27442434
 22
-0.0466069882
 32
0.0
 13
0.2146764207
 23
0.1771862414
 33
0.0
 40
0.0
 40
0.0
 40
0.0
 40
0.0
 40
0.3741794694
 40
0.5421108877
 40
0.6899125927
 40
0.8129104806
 40
0.9071244196
 40
0.9697709865
 40
0.9888325431
 40
1.0
 40
1.0
 40
1.0
 40
1.0
 10
63.9402202299
 20
-31.5926933217
 30
0.0
 10
63.9744482146
 20
-31.5985064477
 30
0.0
 10
64.0241260243
 20
-31.6064207992
 30
0.0
 10
64.0875358122
 20
-31.6152334476
 30
0.0
 10
64.1279350159
 20
-31.6201728476
 30
0.0
 10
64.1616597101
 20
-31.6236001407
 30
0.0
 10
64.1875104172
 20
-31.6253133553
 30
0.0
 10
64.2039650826
 20
-31.6256420586
 30
0.0
 10
64.2124348708
 20
-31.6246419628
 30
0.0
 10
64.2152643825
 20
-31.6238678984
 30
0.0
 10
64.2160635124
 20
-31.6232083252
 30
0.0
 11
63.9402202299
 21
-31.5926933217
 31
0.0
 11
64.0430964171
 21
-31.6089603565
 31
0.0
 11
64.0894012997
 21
-31.6153552404
 31
0.0
 11
64.1302440922
 21
-31.620301336
 31
0.0
 11
64.1643175903
 21
-31.6236428117
 31
0.0
 11
64.1904921366
 21
-31.6252659227
 31
0.0
 11
64.207929417
 21
-31.6251165369
 31
0.0
 11
64.2131837108
 21
-31.6243786036
 31
0.0
 11
64.2160635124
 21
-31.6232083252
 31
0.0
  0
SPLINE
  5
36B
100
AcDbEntity
  8
RACCORDO
100
AcDbSpline
 62
253
  6
CONTINUOUS
 70
0
 71
3
 72
16
 73
12
 74
10
 42
0.0000001
 43
0.0000001
 44
0.0000000001
 12
0.2779115872
 22
-0.0290892186
 32
0.0
 13
0.2168180519
 23
0.1762695814
 33
0.0
 40
0.0
 40
0.0
 40
0.0
 40
0.0
 40
0.3743344212
 40
0.5424522598
 40
0.6904456685
 40
0.8135894458
 40
0.9078469573
 40
0.9432184776
 40
0.9703719301
 40
0.9892321395
 40
1.0
 40
1.0
 40
1.0
 40
1.0
 10
64.50201609
 20
-27.6171032619
 30
0.0
 10
64.536693381
 20
-27.6207329605
 30
0.0
 10
64.586994553
 20
-27.6255483695
 30
0.0
 10
64.6511088677
 20
-27.6305685276
 30
0.0
 10
64.6919424944
 20
-27.6331965793
 30
0.0
 10
64.7259364624
 20
-27.6347437122
 30
0.0
 10
64.7494972476
 20
-27.6351949209
 30
0.0
 10
64.7640799341
 20
-27.6348363743
 30
0.0
 10
64.7716825323
 20
-27.6343417644
 30
0.0
 10
64.7768484361
 20
-27.6335627242
 30
0.0
 10
64.7796259638
 20
-27.6328072594
 30
0.0
 10
64.780404186
 20
-27.6321745773
 30
0.0
 11
64.50201609
 21
-27.6171032619
 31
0.0
 11
64.6061504633
 21
-27.6269640594
 31
0.0
 11
64.6529867081
 21
-27.6305996969
 31
0.0
 11
64.6942583968
 21
-27.633203986
 31
0.0
 11
64.7286361155
 21
-27.6346951884
 31
0.0
 11
64.7549724617
 21
-27.635020953
 31
0.0
 11
64.764852375
 21
-27.6347417315
 31
0.0
 11
64.7724182054
 21
-27.6341689008
 31
0.0
 11
64.7776178973
 21
-27.6333102898
 31
0.0
 11
64.780404186
 21
-27.6321745773
 31
0.0
  0
SPLINE
  5
36C
100
AcDbEntity
  8
RACCORDO
100
AcDbSpline
 62
253
  6
CONTINUOUS
 70
0
 71
3
 72
16
 73
12
 74
10
 42
0.0000001
 43
0.0000001
 44
0.0000000001
 12
0.2783179961
 22
-0.0251281419
 32
0.0
 13
0.2347353119
 23
0.1516300227
 33
0.0
 40
0.0
 40
0.0
 40
0.0
 40
0.0
 40
0.3747816758
 40
0.5431168501
 40
0.6912857165
 40
0.8145317442
 40
0.908777489
 40
0.9440782278
 40
0.9710953638
 40
0.9897124698
 40
1.0
 40
1.0
 40
1.0
 40
1.0
 10
64.8967113897
 20
-23.6999999993
 30
0.0
 10
64.9314808847
 20
-23.7031391883
 30
0.0
 10
64.9819007747
 20
-23.7073415084
 30
0.0
 10
65.0461375805
 20
-23.7118252875
 30
0.0
 10
65.0870325799
 20
-23.714237754
 30
0.0
 10
65.1210557708
 20
-23.7157429012
 30
0.0
 10
65.1446134158
 20
-23.7163082897
 30
0.0
 10
65.1591810945
 20
-23.7161498603
 30
0.0
 10
65.166747123
 20
-23.7158449484
 30
0.0
 10
65.1718648416
 20
-23.7152580467
 30
0.0
 10
65.1746033538
 20
-23.7147386473
 30
0.0
 10
65.1754083026
 20
-23.7142186812
 30
0.0
 11
64.8967113897
 21
-23.6999999993
 31
0.0
 11
65.0010892024
 21
-23.7086152662
 31
0.0
 11
65.0480179839
 21
-23.7118665453
 31
0.0
 11
65.0893543331
 21
-23.7142636849
 31
0.0
 11
65.1237641711
 21
-23.7157309976
 31
0.0
 11
65.1500966574
 21
-23.7162173942
 31
0.0
 11
65.1599605806
 21
-23.7160863785
 31
0.0
 11
65.1675009169
 21
-23.7157056923
 31
0.0
 11
65.1726658275
 21
-23.715081002
 31
0.0
 11
65.1754083026
 21
-23.7142186812
 31
0.0
  0
SPLINE
  5
36D
100
AcDbEntity
  8
RACCORDO
100
AcDbSpline
 62
253
  6
CONTINUOUS
 70
0
 71
3
 72
16
 73
12
 74
10
 42
0.0000001
 43
0.0000001
 44
0.0000000001
 12
0.2783180256
 22
0.0251281457
 32
0.0
 13
0.2347352814
 23
-0.1516301248
 33
0.0
 40
0.0
 40
0.0
 40
0.0
 40
0.0
 40
0.3747816784
 40
0.5431168558
 40
0.691285725
 40
0.8145317541
 40
0.9087774983
 40
0.9440782358
 40
0.9710953698
 40
0.9897124731
 40
1.0
 40
1.0
 40
1.0
 40
1.0
 10
64.8967113907
 20
23.7
 30
0.0
 10
64.9314808896
 20
23.7031391895
 30
0.0
 10
64.9819007855
 20
23.7073415103
 30
0.0
 10
65.0461375989
 20
23.7118252901
 30
0.0
 10
65.0870326034
 20
23.714237757
 30
0.0
 10
65.1210557982
 20
23.7157429045
 30
0.0
 10
65.1446134458
 20
23.7163082931
 30
0.0
 10
65.1591811256
 20
23.7161498636
 30
0.0
 10
65.1667471544
 20
23.7158449517
 30
0.0
 10
65.1718648727
 20
23.7152580498
 30
0.0
 10
65.1746033847
 20
23.7147386504
 30
0.0
 10
65.1754083332
 20
23.7142186841
 30
0.0
 11
64.8967113907
 21
23.7
 31
0.0
 11
65.0010892152
 21
23.7086152682
 31
0.0
 11
65.0480180026
 21
23.7118665479
 31
0.0
 11
65.0893543569
 21
23.7142636879
 31
0.0
 11
65.123764199
 21
23.7157310009
 31
0.0
 11
65.150096688
 21
23.7162173975
 31
0.0
 11
65.1599606118
 21
23.7160863818
 31
0.0
 11
65.1675009484
 21
23.7157056955
 31
0.0
 11
65.1726658587
 21
23.7150810051
 31
0.0
 11
65.1754083332
 21
23.7142186841
 31
0.0
  0
SPLINE
  5
36E
100
AcDbEntity
  8
RACCORDO
100
AcDbSpline
 62
253
  6
CONTINUOUS
 70
0
 71
3
 72
16
 73
12
 74
10
 42
0.0000001
 43
0.0000001
 44
0.0000000001
 12
0.2779115823
 22
0.0290892179
 32
0.0
 13
0.216818053
 23
-0.1762695721
 33
0.0
 40
0.0
 40
0.0
 40
0.0
 40
0.0
 40
0.3743344216
 40
0.5424522599
 40
0.6904456683
 40
0.8135894453
 40
0.9078469567
 40
0.943218477
 40
0.9703719297
 40
0.9892321392
 40
1.0
 40
1.0
 40
1.0
 40
1.0
 10
64.5020160899
 20
27.6171032618
 30
0.0
 10
64.5366933804
 20
27.6207329603
 30
0.0
 10
64.5869945514
 20
27.6255483692
 30
0.0
 10
64.651108865
 20
27.6305685272
 30
0.0
 10
64.6919424909
 20
27.6331965788
 30
0.0
 10
64.7259364582
 20
27.6347437116
 30
0.0
 10
64.749497243
 20
27.6351949203
 30
0.0
 10
64.7640799292
 20
27.6348363737
 30
0.0
 10
64.7716825273
 20
27.6343417638
 30
0.0
 10
64.7768484311
 20
27.6335627236
 30
0.0
 10
64.7796259588
 20
27.6328072588
 30
0.0
 10
64.780404181
 20
27.6321745767
 30
0.0
 11
64.5020160899
 21
27.6171032618
 31
0.0
 11
64.6061504615
 21
27.626964059
 31
0.0
 11
64.6529867053
 21
27.6305996964
 31
0.0
 11
64.6942583932
 21
27.6332039854
 31
0.0
 11
64.7286361112
 21
27.6346951878
 31
0.0
 11
64.754972457
 21
27.6350209524
 31
0.0
 11
64.7648523701
 21
27.6347417309
 31
0.0
 11
64.7724182004
 21
27.6341689002
 31
0.0
 11
64.7776178923
 21
27.6333102892
 31
0.0
 11
64.780404181
 21
27.6321745767
 31
0.0
  0
SPLINE
  5
36F
100
AcDbEntity
  8
RACCORDO
100
AcDbSpline
 62
253
  6
CONTINUOUS
 70
0
 71
3
 72
15
 73
11
 74
9
 42
0.0000001
 43
0.0000001
 44
0.0000000001
 12
0.2744237416
 22
0.0466068508
 32
0.0
 13
0.2146757358
 23
-0.1771861083
 33
0.0
 40
0.0
 40
0.0
 40
0.0
 40
0.0
 40
0.3741796206
 40
0.5421110431
 40
0.6899127241
 40
0.8129105731
 40
0.9071244706
 40
0.9697710035
 40
0.9888325487
 40
1.0
 40
1.0
 40
1.0
 40
1.0
 10
63.9402202273
 20
31.5926933186
 30
0.0
 10
63.9744481511
 20
31.5985064299
 30
0.0
 10
64.0241258666
 20
31.6064207606
 30
0.0
 10
64.087535528
 20
31.6152333839
 30
0.0
 10
64.1279346379
 20
31.6201727673
 30
0.0
 10
64.1616592488
 20
31.623600047
 30
0.0
 10
64.1875098886
 20
31.6253132525
 30
0.0
 10
64.20396451
 20
31.6256419506
 30
0.0
 10
64.2124342744
 20
31.624641854
 30
0.0
 10
64.2152637779
 20
31.6238677895
 30
0.0
 10
64.2160629049
 20
31.6232082171
 30
0.0
 11
63.9402202273
 21
31.5926933186
 31
0.0
 11
64.0430962314
 21
31.608960312
 31
0.0
 11
64.089401014
 21
31.6153551765
 31
0.0
 11
64.1302437106
 21
31.6203012552
 31
0.0
 11
64.1643171233
 21
31.6236427174
 31
0.0
 11
64.1904916008
 21
31.6252658191
 31
0.0
 11
64.2079288333
 21
31.6251164287
 31
0.0
 11
64.213183112
 21
31.6243784949
 31
0.0
 11
64.2160629049
 21
31.6232082171
 31
0.0
  0
SPLINE
  5
370
100
AcDbEntity
  8
RACCORDO
100
AcDbSpline
 62
253
  6
CONTINUOUS
 70
0
 71
3
 72
15
 73
11
 74
9
 42
0.0000001
 43
0.0000001
 44
0.0000000001
 12
0.0372953273
 22
0.260439273
 32
0.0
 13
-0.0835997067
 23
0.2494607091
 33
0.0
 40
0.0
 40
0.0
 40
0.0
 40
0.0
 40
0.3785051915
 40
0.5469325495
 40
0.6945294648
 40
0.8168888886
 40
0.9102314108
 40
0.9718063984
 40
0.9901114998
 40
1.0
 40
1.0
 40
1.0
 40
1.0
 10
50.0745190737
 20
45.0993070819
 30
0.0
 10
50.0792245653
 20
45.1321662875
 30
0.0
 10
50.0858191339
 20
45.1796764098
 30
0.0
 10
50.0936748462
 20
45.2400792552
 30
0.0
 10
50.09835164
 20
45.278235418
 30
0.0
 10
50.1019639302
 20
45.3099037076
 30
0.0
 10
50.1042928572
 20
45.3340806709
 30
0.0
 10
50.1055307667
 20
45.349277619
 30
0.0
 10
50.1055728422
 20
45.3571042696
 30
0.0
 10
50.1054944581
 20
45.3596235813
 30
0.0
 10
50.1052188995
 20
45.3604458454
 30
0.0
 11
50.0745190737
 21
45.0993070819
 31
0.0
 11
50.0881565706
 21
45.1979521025
 31
0.0
 11
50.0938527756
 21
45.2418970458
 31
0.0
 11
50.0985623552
 21
45.2804425705
 31
0.0
 11
50.102145295
 21
45.3124348488
 31
0.0
 11
50.1044892147
 21
45.3368807896
 31
0.0
 11
50.1055230368
 21
45.3530479079
 31
0.0
 11
50.1055381742
 21
45.3578638848
 31
0.0
 11
50.1052188995
 21
45.3604458454
 31
0.0
  0
SPLINE
  5
371
100
AcDbEntity
  8
RACCORDO
100
AcDbSpline
 62
253
  6
CONTINUOUS
 70
0
 71
3
 72
15
 73
11
 74
9
 42
0.0000001
 43
0.0000001
 44
0.0000000001
 12
0.0224346197
 22
0.2622573532
 32
0.0
 13
-0.0966023924
 23
0.2448473182
 33
0.0
 40
0.0
 40
0.0
 40
0.0
 40
0.0
 40
0.3784889054
 40
0.5469204139
 40
0.6945252073
 40
0.8168931032
 40
0.9102417244
 40
0.9718175196
 40
0.9901195203
 40
1.0
 40
1.0
 40
1.0
 40
1.0
 10
45.0961212721
 20
45.6849843924
 30
0.0
 10
45.0989516903
 20
45.7180715586
 30
0.0
 10
45.1028377197
 20
45.7659001964
 30
0.0
 10
45.1072564771
 20
45.8266784817
 30
0.0
 10
45.1097657388
 20
45.8650575083
 30
0.0
 10
45.1115826134
 20
45.8968955473
 30
0.0
 10
45.1125455827
 20
45.9211781041
 30
0.0
 10
45.1129287189
 20
45.9364269244
 30
0.0
 10
45.1125366702
 20
45.944247189
 30
0.0
 10
45.1123207813
 20
45.9467578275
 30
0.0
 10
45.112002622
 20
45.9475642305
 30
0.0
 11
45.0961212721
 21
45.6849843924
 31
0.0
 11
45.1041356206
 21
45.784285534
 31
0.0
 11
45.107331654
 21
45.8285039123
 31
0.0
 11
45.1098518473
 21
45.8672739101
 31
0.0
 11
45.1116216669
 21
45.8994343374
 31
0.0
 11
45.1125849955
 21
45.92398622
 31
0.0
 11
45.1127121152
 21
45.9401934056
 31
0.0
 11
45.1124607526
 21
45.9450042077
 31
0.0
 11
45.112002622
 21
45.9475642305
 31
0.0
  0
SPLINE
  5
372
100
AcDbEntity
  8
RACCORDO
100
AcDbSpline
 62
253
  6
CONTINUOUS
 70
0
 71
3
 72
15
 73
11
 74
9
 42
0.0000001
 43
0.0000001
 44
0.0000000001
 12
-0.0224346218
 22
0.2622573721
 32
0.0
 13
0.0966024257
 23
0.2448473256
 33
0.0
 40
0.0
 40
0.0
 40
0.0
 40
0.0
 40
0.3784889049
 40
0.5469204146
 40
0.6945252094
 40
0.8168931063
 40
0.9102417277
 40
0.9718175218
 40
0.9901195215
 40
1.0
 40
1.0
 40
1.0
 40
1.0
 10
-6.6265679322
 20
45.6849843933
 30
0.0
 10
-6.6293983507
 20
45.7180715619
 30
0.0
 10
-6.6332843805
 20
45.7659002032
 30
0.0
 10
-6.6377031382
 20
45.8266784931
 30
0.0
 10
-6.6402124003
 20
45.8650575228
 30
0.0
 10
-6.642029275
 20
45.8968955643
 30
0.0
 10
-6.6429922444
 20
45.9211781229
 30
0.0
 10
-6.6433753807
 20
45.9364269442
 30
0.0
 10
-6.6429833319
 20
45.944247209
 30
0.0
 10
-6.6427674431
 20
45.9467578474
 30
0.0
 10
-6.6424492837
 20
45.9475642504
 30
0.0
 11
-6.6265679322
 21
45.6849843933
 31
0.0
 11
-6.6345822815
 21
45.7842855419
 31
0.0
 11
-6.6377783152
 21
45.8285039238
 31
0.0
 11
-6.6402985087
 21
45.8672739248
 31
0.0
 11
-6.6420683286
 21
45.8994343546
 31
0.0
 11
-6.6430316572
 21
45.9239862391
 31
0.0
 11
-6.643158777
 21
45.9401934256
 31
0.0
 11
-6.6429074143
 21
45.9450042277
 31
0.0
 11
-6.6424492837
 21
45.9475642504
 31
0.0
  0
SPLINE
  5
373
100
AcDbEntity
  8
RACCORDO
100
AcDbSpline
 62
253
  6
CONTINUOUS
 70
0
 71
3
 72
15
 73
11
 74
9
 42
0.0000001
 43
0.0000001
 44
0.0000000001
 12
-0.0372952267
 22
0.2604386726
 32
0.0
 13
0.0836001773
 23
0.2494599096
 33
0.0
 40
0.0
 40
0.0
 40
0.0
 40
0.0
 40
0.3785053914
 40
0.5469327714
 40
0.6945296725
 40
0.8168890573
 40
0.9102315261
 40
0.9718064548
 40
0.990111527
 40
1.0
 40
1.0
 40
1.0
 40
1.0
 10
-11.6049657333
 20
45.0993070813
 30
0.0
 10
-11.6096712148
 20
45.1321662285
 30
0.0
 10
-11.6162657683
 20
45.1796762605
 30
0.0
 10
-11.6241214615
 20
45.2400789848
 30
0.0
 10
-11.6287982418
 20
45.2782350568
 30
0.0
 10
-11.6324105204
 20
45.3099032643
 30
0.0
 10
-11.6347394379
 20
45.3340801583
 30
0.0
 10
-11.6359773422
 20
45.3492770597
 30
0.0
 10
-11.636019414
 20
45.3571036815
 30
0.0
 10
-11.6359410294
 20
45.3596229831
 30
0.0
 10
-11.6356654701
 20
45.3604452423
 30
0.0
 11
-11.6049657333
 21
45.0993070813
 31
0.0
 11
-11.6186032006
 21
45.1979519266
 31
0.0
 11
-11.6242993907
 21
45.2418967743
 31
0.0
 11
-11.6290089565
 21
45.2804422064
 31
0.0
 11
-11.6325918845
 21
45.3124344008
 31
0.0
 11
-11.6349357948
 21
45.3368802714
 31
0.0
 11
-11.6359696105
 21
45.3530473369
 31
0.0
 11
-11.635984746
 21
45.3578632951
 31
0.0
 11
-11.6356654701
 21
45.3604452423
 31
0.0
  0
SPLINE
  5
374
100
AcDbEntity
  8
RACCORDO
100
AcDbSpline
 62
253
  6
CONTINUOUS
 70
0
 71
3
 72
15
 73
11
 74
9
 42
0.0000001
 43
0.0000001
 44
0.0000000001
 12
-0.27442434
 22
0.0466069882
 32
0.0
 13
-0.2146764207
 23
-0.1771862414
 33
0.0
 40
0.0
 40
0.0
 40
0.0
 40
0.0
 40
0.3741794694
 40
0.5421108877
 40
0.6899125927
 40
0.8129104806
 40
0.9071244196
 40
0.9697709865
 40
0.9888325431
 40
1.0
 40
1.0
 40
1.0
 40
1.0
 10
-25.4706668898
 20
31.5926933217
 30
0.0
 10
-25.5048948744
 20
31.5985064477
 30
0.0
 10
-25.5545726841
 20
31.6064207992
 30
0.0
 10
-25.617982472
 20
31.6152334476
 30
0.0
 10
-25.6583816757
 20
31.6201728476
 30
0.0
 10
-25.69210637
 20
31.6236001407
 30
0.0
 10
-25.717957077
 20
31.6253133553
 30
0.0
 10
-25.7344117425
 20
31.6256420586
 30
0.0
 10
-25.7428815307
 20
31.6246419628
 30
0.0
 10
-25.7457110424
 20
31.6238678984
 30
0.0
 10
-25.7465101723
 20
31.6232083252
 30
0.0
 11
-25.4706668898
 21
31.5926933217
 31
0.0
 11
-25.5735430769
 21
31.6089603565
 31
0.0
 11
-25.6198479595
 21
31.6153552404
 31
0.0
 11
-25.6606907521
 21
31.620301336
 31
0.0
 11
-25.6947642501
 21
31.6236428117
 31
0.0
 11
-25.7209387965
 21
31.6252659227
 31
0.0
 11
-25.7383760769
 21
31.6251165369
 31
0.0
 11
-25.7436303707
 21
31.6243786036
 31
0.0
 11
-25.7465101723
 21
31.6232083252
 31
0.0
  0
SPLINE
  5
375
100
AcDbEntity
  8
RACCORDO
100
AcDbSpline
 62
253
  6
CONTINUOUS
 70
0
 71
3
 72
16
 73
12
 74
10
 42
0.0000001
 43
0.0000001
 44
0.0000000001
 12
-0.2779115872
 22
0.0290892186
 32
0.0
 13
-0.2168180519
 23
-0.1762695814
 33
0.0
 40
0.0
 40
0.0
 40
0.0
 40
0.0
 40
0.3743344212
 40
0.5424522598
 40
0.6904456685
 40
0.8135894458
 40
0.9078469573
 40
0.9432184776
 40
0.9703719301
 40
0.9892321395
 40
1.0
 40
1.0
 40
1.0
 40
1.0
 10
-26.0324627498
 20
27.6171032619
 30
0.0
 10
-26.0671400409
 20
27.6207329605
 30
0.0
 10
-26.1174412128
 20
27.6255483695
 30
0.0
 10
-26.1815555275
 20
27.6305685276
 30
0.0
 10
-26.2223891542
 20
27.6331965793
 30
0.0
 10
-26.2563831222
 20
27.6347437122
 30
0.0
 10
-26.2799439075
 20
27.6351949209
 30
0.0
 10
-26.2945265939
 20
27.6348363743
 30
0.0
 10
-26.3021291922
 20
27.6343417644
 30
0.0
 10
-26.3072950959
 20
27.6335627242
 30
0.0
 10
-26.3100726237
 20
27.6328072594
 30
0.0
 10
-26.3108508458
 20
27.6321745773
 30
0.0
 11
-26.0324627498
 21
27.6171032619
 31
0.0
 11
-26.1365971232
 21
27.6269640594
 31
0.0
 11
-26.1834333679
 21
27.6305996969
 31
0.0
 11
-26.2247050566
 21
27.633203986
 31
0.0
 11
-26.2590827753
 21
27.6346951884
 31
0.0
 11
-26.2854191215
 21
27.635020953
 31
0.0
 11
-26.2952990348
 21
27.6347417315
 31
0.0
 11
-26.3028648653
 21
27.6341689008
 31
0.0
 11
-26.3080645572
 21
27.6333102898
 31
0.0
 11
-26.3108508458
 21
27.6321745773
 31
0.0
  0
SPLINE
  5
376
100
AcDbEntity
  8
RACCORDO
100
AcDbSpline
 62
253
  6
CONTINUOUS
 70
0
 71
3
 72
16
 73
12
 74
10
 42
0.0000001
 43
0.0000001
 44
0.0000000001
 12
-0.2783179972
 22
0.0251281421
 32
0.0
 13
-0.2347353107
 23
-0.1516300269
 33
0.0
 40
0.0
 40
0.0
 40
0.0
 40
0.0
 40
0.3747816759
 40
0.5431168503
 40
0.6912857168
 40
0.8145317446
 40
0.9087774894
 40
0.9440782281
 40
0.9710953641
 40
0.9897124699
 40
1.0
 40
1.0
 40
1.0
 40
1.0
 10
-26.4271580496
 20
23.6999999993
 30
0.0
 10
-26.4619275447
 20
23.7031391884
 30
0.0
 10
-26.512347435
 20
23.7073415085
 30
0.0
 10
-26.576584241
 20
23.7118252876
 30
0.0
 10
-26.6174792407
 20
23.7142377541
 30
0.0
 10
-26.6515024317
 20
23.7157429013
 30
0.0
 10
-26.6750600769
 20
23.7163082899
 30
0.0
 10
-26.6896277556
 20
23.7161498604
 30
0.0
 10
-26.6971937841
 20
23.7158449485
 30
0.0
 10
-26.7023115028
 20
23.7152580469
 30
0.0
 10
-26.7050500149
 20
23.7147386474
 30
0.0
 10
-26.7058549637
 20
23.7142186813
 30
0.0
 11
-26.4271580496
 21
23.6999999993
 31
0.0
 11
-26.5315358628
 21
23.7086152663
 31
0.0
 11
-26.5784646446
 21
23.7118665454
 31
0.0
 11
-26.6198009939
 21
23.714263685
 31
0.0
 11
-26.6542108321
 21
23.7157309977
 31
0.0
 11
-26.6805433185
 21
23.7162173943
 31
0.0
 11
-26.6904072417
 21
23.7160863786
 31
0.0
 11
-26.697947578
 21
23.7157056924
 31
0.0
 11
-26.7031124886
 21
23.7150810021
 31
0.0
 11
-26.7058549637
 21
23.7142186813
 31
0.0
  0
SPLINE
  5
377
100
AcDbEntity
  8
RACCORDO
100
AcDbSpline
 62
253
  6
CONTINUOUS
 70
0
 71
3
 72
16
 73
12
 74
10
 42
0.0000001
 43
0.0000001
 44
0.0000000001
 12
-0.2783180256
 22
-0.0251281457
 32
0.0
 13
-0.2347352814
 23
0.1516301249
 33
0.0
 40
0.0
 40
0.0
 40
0.0
 40
0.0
 40
0.3747816784
 40
0.5431168558
 40
0.691285725
 40
0.8145317541
 40
0.9087774983
 40
0.9440782358
 40
0.9710953698
 40
0.9897124731
 40
1.0
 40
1.0
 40
1.0
 40
1.0
 10
-26.4271580506
 20
-23.7
 30
0.0
 10
-26.4619275495
 20
-23.7031391895
 30
0.0
 10
-26.5123474454
 20
-23.7073415103
 30
0.0
 10
-26.5765842588
 20
-23.7118252901
 30
0.0
 10
-26.6174792633
 20
-23.714237757
 30
0.0
 10
-26.6515024581
 20
-23.7157429045
 30
0.0
 10
-26.6750601056
 20
-23.7163082931
 30
0.0
 10
-26.6896277854
 20
-23.7161498636
 30
0.0
 10
-26.6971938143
 20
-23.7158449517
 30
0.0
 10
-26.7023115326
 20
-23.7152580498
 30
0.0
 10
-26.7050500446
 20
-23.7147386504
 30
0.0
 10
-26.7058549931
 20
-23.7142186841
 30
0.0
 11
-26.4271580506
 21
-23.7
 31
0.0
 11
-26.5315358751
 21
-23.7086152682
 31
0.0
 11
-26.5784646625
 21
-23.7118665479
 31
0.0
 11
-26.6198010168
 21
-23.7142636879
 31
0.0
 11
-26.6542108589
 21
-23.7157310009
 31
0.0
 11
-26.6805433478
 21
-23.7162173975
 31
0.0
 11
-26.6904072717
 21
-23.7160863818
 31
0.0
 11
-26.6979476082
 21
-23.7157056955
 31
0.0
 11
-26.7031125186
 21
-23.7150810051
 31
0.0
 11
-26.7058549931
 21
-23.7142186841
 31
0.0
  0
SPLINE
  5
378
100
AcDbEntity
  8
RACCORDO
100
AcDbSpline
 62
253
  6
CONTINUOUS
 70
0
 71
3
 72
16
 73
12
 74
10
 42
0.0000001
 43
0.0000001
 44
0.0000000001
 12
-0.2779115823
 22
-0.0290892179
 32
0.0
 13
-0.216818053
 23
0.1762695721
 33
0.0
 40
0.0
 40
0.0
 40
0.0
 40
0.0
 40
0.3743344216
 40
0.5424522599
 40
0.6904456683
 40
0.8135894453
 40
0.9078469567
 40
0.943218477
 40
0.9703719297
 40
0.9892321392
 40
1.0
 40
1.0
 40
1.0
 40
1.0
 10
-26.0324627497
 20
-27.6171032618
 30
0.0
 10
-26.0671400402
 20
-27.6207329603
 30
0.0
 10
-26.1174412113
 20
-27.6255483692
 30
0.0
 10
-26.1815555248
 20
-27.6305685272
 30
0.0
 10
-26.2223891507
 20
-27.6331965788
 30
0.0
 10
-26.256383118
 20
-27.6347437116
 30
0.0
 10
-26.2799439028
 20
-27.6351949203
 30
0.0
 10
-26.2945265891
 20
-27.6348363737
 30
0.0
 10
-26.3021291872
 20
-27.6343417638
 30
0.0
 10
-26.3072950909
 20
-27.6335627236
 30
0.0
 10
-26.3100726186
 20
-27.6328072588
 30
0.0
 10
-26.3108508408
 20
-27.6321745767
 30
0.0
 11
-26.0324627497
 21
-27.6171032618
 31
0.0
 11
-26.1365971214
 21
-27.626964059
 31
0.0
 11
-26.1834333652
 21
-27.6305996964
 31
0.0
 11
-26.2247050531
 21
-27.6332039854
 31
0.0
 11
-26.2590827711
 21
-27.6346951878
 31
0.0
 11
-26.2854191168
 21
-27.6350209524
 31
0.0
 11
-26.2952990299
 21
-27.6347417309
 31
0.0
 11
-26.3028648603
 21
-27.6341689002
 31
0.0
 11
-26.3080645521
 21
-27.6333102892
 31
0.0
 11
-26.3108508408
 21
-27.6321745767
 31
0.0
  0
SPLINE
  5
379
100
AcDbEntity
  8
RACCORDO
100
AcDbSpline
 62
253
  6
CONTINUOUS
 70
0
 71
3
 72
15
 73
11
 74
9
 42
0.0000001
 43
0.0000001
 44
0.0000000001
 12
-0.2744237416
 22
-0.0466068508
 32
0.0
 13
-0.2146757358
 23
0.1771861083
 33
0.0
 40
0.0
 40
0.0
 40
0.0
 40
0.0
 40
0.3741796206
 40
0.5421110431
 40
0.6899127241
 40
0.8129105731
 40
0.9071244706
 40
0.9697710035
 40
0.9888325487
 40
1.0
 40
1.0
 40
1.0
 40
1.0
 10
-25.4706668871
 20
-31.5926933186
 30
0.0
 10
-25.504894811
 20
-31.5985064299
 30
0.0
 10
-25.5545725264
 20
-31.6064207606
 30
0.0
 10
-25.6179821878
 20
-31.6152333839
 30
0.0
 10
-25.6583812977
 20
-31.6201727673
 30
0.0
 10
-25.6921059086
 20
-31.623600047
 30
0.0
 10
-25.7179565484
 20
-31.6253132525
 30
0.0
 10
-25.7344111699
 20
-31.6256419506
 30
0.0
 10
-25.7428809342
 20
-31.624641854
 30
0.0
 10
-25.7457104378
 20
-31.6238677895
 30
0.0
 10
-25.7465095647
 20
-31.6232082171
 30
0.0
 11
-25.4706668871
 21
-31.5926933186
 31
0.0
 11
-25.5735428912
 21
-31.608960312
 31
0.0
 11
-25.6198476739
 21
-31.6153551765
 31
0.0
 11
-25.6606903705
 21
-31.6203012552
 31
0.0
 11
-25.6947637832
 21
-31.6236427174
 31
0.0
 11
-25.7209382607
 21
-31.6252658191
 31
0.0
 11
-25.7383754932
 21
-31.6251164287
 31
0.0
 11
-25.7436297719
 21
-31.6243784949
 31
0.0
 11
-25.7465095647
 21
-31.6232082171
 31
0.0
  0
SPLINE
  5
37A
100
AcDbEntity
  8
RACCORDO
100
AcDbSpline
 62
253
  6
CONTINUOUS
 70
0
 71
3
 72
15
 73
11
 74
9
 42
0.0000001
 43
0.0000001
 44
0.0000000001
 12
-0.0372953273
 22
-0.260439273
 32
0.0
 13
0.0835997067
 23
-0.2494607091
 33
0.0
 40
0.0
 40
0.0
 40
0.0
 40
0.0
 40
0.3785051915
 40
0.5469325495
 40
0.6945294648
 40
0.8168888886
 40
0.9102314108
 40
0.9718063984
 40
0.9901114998
 40
1.0
 40
1.0
 40
1.0
 40
1.0
 10
-11.6049657335
 20
-45.0993070819
 30
0.0
 10
-11.6096712252
 20
-45.1321662875
 30
0.0
 10
-11.6162657938
 20
-45.1796764098
 30
0.0
 10
-11.6241215061
 20
-45.2400792552
 30
0.0
 10
-11.6287982999
 20
-45.278235418
 30
0.0
 10
-11.63241059
 20
-45.3099037076
 30
0.0
 10
-11.6347395171
 20
-45.3340806709
 30
0.0
 10
-11.6359774266
 20
-45.349277619
 30
0.0
 10
-11.6360195021
 20
-45.3571042696
 30
0.0
 10
-11.6359411179
 20
-45.3596235813
 30
0.0
 10
-11.6356655593
 20
-45.3604458454
 30
0.0
 11
-11.6049657335
 21
-45.0993070819
 31
0.0
 11
-11.6186032304
 21
-45.1979521025
 31
0.0
 11
-11.6242994354
 21
-45.2418970458
 31
0.0
 11
-11.629009015
 21
-45.2804425705
 31
0.0
 11
-11.6325919548
 21
-45.3124348488
 31
0.0
 11
-11.6349358746
 21
-45.3368807896
 31
0.0
 11
-11.6359696966
 21
-45.3530479079
 31
0.0
 11
-11.6359848341
 21
-45.3578638848
 31
0.0
 11
-11.6356655593
 21
-45.3604458454
 31
0.0
  0
SPLINE
  5
37B
100
AcDbEntity
  8
RACCORDO
100
AcDbSpline
 62
253
  6
CONTINUOUS
 70
0
 71
3
 72
15
 73
11
 74
9
 42
0.0000001
 43
0.0000001
 44
0.0000000001
 12
-0.0224346197
 22
-0.2622573532
 32
0.0
 13
0.0966023924
 23
-0.2448473182
 33
0.0
 40
0.0
 40
0.0
 40
0.0
 40
0.0
 40
0.3784889054
 40
0.5469204139
 40
0.6945252073
 40
0.8168931032
 40
0.9102417244
 40
0.9718175196
 40
0.9901195203
 40
1.0
 40
1.0
 40
1.0
 40
1.0
 10
-6.6265679319
 20
-45.6849843924
 30
0.0
 10
-6.6293983502
 20
-45.7180715586
 30
0.0
 10
-6.6332843796
 20
-45.7659001964
 30
0.0
 10
-6.6377031369
 20
-45.8266784817
 30
0.0
 10
-6.6402123987
 20
-45.8650575083
 30
0.0
 10
-6.6420292732
 20
-45.8968955473
 30
0.0
 10
-6.6429922425
 20
-45.9211781041
 30
0.0
 10
-6.6433753787
 20
-45.9364269244
 30
0.0
 10
-6.6429833301
 20
-45.944247189
 30
0.0
 10
-6.6427674412
 20
-45.9467578275
 30
0.0
 10
-6.6424492819
 20
-45.9475642305
 30
0.0
 11
-6.6265679319
 21
-45.6849843924
 31
0.0
 11
-6.6345822805
 21
-45.784285534
 31
0.0
 11
-6.6377783139
 21
-45.8285039123
 31
0.0
 11
-6.6402985071
 21
-45.8672739101
 31
0.0
 11
-6.6420683268
 21
-45.8994343374
 31
0.0
 11
-6.6430316554
 21
-45.92398622
 31
0.0
 11
-6.6431587751
 21
-45.9401934056
 31
0.0
 11
-6.6429074125
 21
-45.9450042077
 31
0.0
 11
-6.6424492819
 21
-45.9475642305
 31
0.0
  0
SPLINE
  5
37C
100
AcDbEntity
  8
RACCORDO
100
AcDbSpline
 62
253
  6
CONTINUOUS
 70
0
 71
3
 72
15
 73
11
 74
9
 42
0.0000001
 43
0.0000001
 44
0.0000000001
 12
0.0224346218
 22
-0.2622573721
 32
0.0
 13
-0.0966024257
 23
-0.2448473256
 33
0.0
 40
0.0
 40
0.0
 40
0.0
 40
0.0
 40
0.3784889049
 40
0.5469204146
 40
0.6945252094
 40
0.8168931063
 40
0.9102417277
 40
0.9718175218
 40
0.9901195215
 40
1.0
 40
1.0
 40
1.0
 40
1.0
 10
45.0961212724
 20
-45.6849843933
 30
0.0
 10
45.0989516908
 20
-45.7180715619
 30
0.0
 10
45.1028377206
 20
-45.7659002032
 30
0.0
 10
45.1072564784
 20
-45.8266784931
 30
0.0
 10
45.1097657404
 20
-45.8650575228
 30
0.0
 10
45.1115826151
 20
-45.8968955643
 30
0.0
 10
45.1125455845
 20
-45.9211781229
 30
0.0
 10
45.1129287208
 20
-45.9364269442
 30
0.0
 10
45.1125366721
 20
-45.944247209
 30
0.0
 10
45.1123207832
 20
-45.9467578474
 30
0.0
 10
45.1120026238
 20
-45.9475642504
 30
0.0
 11
45.0961212724
 21
-45.6849843933
 31
0.0
 11
45.1041356216
 21
-45.7842855419
 31
0.0
 11
45.1073316553
 21
-45.8285039238
 31
0.0
 11
45.1098518489
 21
-45.8672739248
 31
0.0
 11
45.1116216687
 21
-45.8994343546
 31
0.0
 11
45.1125849974
 21
-45.9239862391
 31
0.0
 11
45.1127121171
 21
-45.9401934256
 31
0.0
 11
45.1124607545
 21
-45.9450042277
 31
0.0
 11
45.1120026238
 21
-45.9475642504
 31
0.0
  0
SPLINE
  5
37D
100
AcDbEntity
  8
RACCORDO
100
AcDbSpline
 62
253
  6
CONTINUOUS
 70
0
 71
3
 72
15
 73
11
 74
9
 42
0.0000001
 43
0.0000001
 44
0.0000000001
 12
0.0372952267
 22
-0.2604386726
 32
0.0
 13
-0.0836001773
 23
-0.2494599096
 33
0.0
 40
0.0
 40
0.0
 40
0.0
 40
0.0
 40
0.3785053914
 40
0.5469327714
 40
0.6945296725
 40
0.8168890573
 40
0.9102315261
 40
0.9718064548
 40
0.990111527
 40
1.0
 40
1.0
 40
1.0
 40
1.0
 10
50.0745190734
 20
-45.0993070813
 30
0.0
 10
50.0792245549
 20
-45.1321662285
 30
0.0
 10
50.0858191085
 20
-45.1796762605
 30
0.0
 10
50.0936748017
 20
-45.2400789847
 30
0.0
 10
50.0983515819
 20
-45.2782350568
 30
0.0
 10
50.1019638606
 20
-45.3099032643
 30
0.0
 10
50.104292778
 20
-45.3340801583
 30
0.0
 10
50.1055306824
 20
-45.3492770597
 30
0.0
 10
50.1055727542
 20
-45.3571036815
 30
0.0
 10
50.1054943696
 20
-45.3596229831
 30
0.0
 10
50.1052188102
 20
-45.3604452422
 30
0.0
 11
50.0745190734
 21
-45.0993070813
 31
0.0
 11
50.0881565407
 21
-45.1979519266
 31
0.0
 11
50.0938527309
 21
-45.2418967743
 31
0.0
 11
50.0985622967
 21
-45.2804422064
 31
0.0
 11
50.1021452246
 21
-45.3124344008
 31
0.0
 11
50.104489135
 21
-45.3368802714
 31
0.0
 11
50.1055229507
 21
-45.3530473369
 31
0.0
 11
50.1055380861
 21
-45.3578632951
 31
0.0
 11
50.1052188102
 21
-45.3604452422
 31
0.0
  0
SPLINE
  5
37E
100
AcDbEntity
  8
RACCORDO
100
AcDbSpline
 62
253
  6
CONTINUOUS
 70
0
 71
3
 72
14
 73
10
 74
8
 42
0.0000001
 43
0.0000001
 44
0.0000000001
 12
0.1741238408
 22
-0.0801243285
 32
0.0
 13
0.1916729222
 23
-0.0007147296
 33
0.0
 40
0.0
 40
0.0
 40
0.0
 40
0.0
 40
0.0276065361
 40
0.0852915636
 40
0.1725425808
 40
0.2881719527
 40
0.4307427686
 40
0.5984507419
 40
1.0
 40
1.0
 40
1.0
 40
1.0
 10
30.7051504429
 20
-21.7
 30
0.0
 10
30.7067527616
 20
-21.7007373184
 30
0.0
 10
30.712329611
 20
-21.7011652559
 30
0.0
 10
30.7231865265
 20
-21.7023126598
 30
0.0
 10
30.739878158
 20
-21.703068685
 30
0.0
 10
30.7619078212
 20
-21.7039416473
 30
0.0
 10
30.7891204792
 20
-21.7046406355
 30
0.0
 10
30.8345884614
 20
-21.7054810828
 30
0.0
 10
30.8709609677
 20
-21.7057724971
 30
0.0
 10
30.896616341
 20
-21.7058681635
 30
0.0
 11
30.7051504429
 21
-21.7
 31
0.0
 11
30.710340903
 21
-21.7010289299
 31
0.0
 11
30.7213522276
 21
-21.7020299856
 31
0.0
 11
30.7380494328
 21
-21.7029722948
 31
0.0
 11
30.760196093
 21
-21.7038276946
 31
0.0
 11
30.7875131855
 21
-21.7045692148
 31
0.0
 11
30.8196528351
 21
-21.7051719464
 31
0.0
 11
30.896616341
 21
-21.7058681635
 31
0.0
  0
SPLINE
  5
37F
100
AcDbEntity
  8
RACCORDO
100
AcDbSpline
 62
253
  6
CONTINUOUS
 70
0
 71
3
 72
14
 73
10
 74
8
 42
0.0000001
 43
0.0000001
 44
0.0000000001
 12
0.1918920785
 22
-0.0035384699
 32
0.0
 13
0.158909747
 23
0.107623338
 33
0.0
 40
0.0
 40
0.0
 40
0.0
 40
0.0
 40
0.4008995519
 40
0.5684466942
 40
0.7109850816
 40
0.8266177182
 40
0.9139248952
 40
0.9718169767
 40
1.0
 40
1.0
 40
1.0
 40
1.0
 10
7.5729595755
 20
-21.7082047385
 30
0.0
 10
7.5986027249
 20
-21.7086775955
 30
0.0
 10
7.6349854264
 20
-21.7090806138
 30
0.0
 10
7.6804431486
 20
-21.7075313702
 30
0.0
 10
7.7076529595
 20
-21.7060231565
 30
0.0
 10
7.7296654597
 20
-21.704577071
 30
0.0
 10
7.7464140353
 20
-21.7033987853
 30
0.0
 10
7.7572047334
 20
-21.7017948207
 30
0.0
 10
7.7629059958
 20
-21.7010110503
 30
0.0
 10
7.7643988481
 20
-21.7
 30
0.0
 11
7.5729595755
 21
-21.7082047385
 31
0.0
 11
7.6499017735
 21
-21.7084295166
 31
0.0
 11
7.6820401979
 21
-21.7073534163
 31
0.0
 11
7.7093569783
 21
-21.7058772343
 31
0.0
 11
7.7315029326
 21
-21.7044366556
 31
0.0
 11
7.7481991235
 21
-21.7030174039
 31
0.0
 11
7.7592094458
 21
-21.7015256417
 31
0.0
 11
7.7643988481
 21
-21.7
 31
0.0
  0
SPLINE
  5
380
100
AcDbEntity
  8
RACCORDO
100
AcDbSpline
 62
253
  6
CONTINUOUS
 70
0
 71
3
 72
14
 73
10
 74
8
 42
0.0000001
 43
0.0000001
 44
0.0000000001
 12
0.1924420456
 22
0.0062124576
 32
0.0
 13
0.13636752
 23
0.1359280508
 33
0.0
 40
0.0
 40
0.0
 40
0.0
 40
0.0
 40
0.4000245834
 40
0.5671994328
 40
0.7094231253
 40
0.824930013
 40
0.9123518298
 40
0.9706658719
 40
1.0
 40
1.0
 40
1.0
 40
1.0
 10
7.5729370069
 20
-21.7058681639
 30
0.0
 10
7.5985975232
 20
-21.7050397853
 30
0.0
 10
7.6349812147
 20
-21.7036429813
 30
0.0
 10
7.6804334909
 20
-21.7011199642
 30
0.0
 10
7.7076627498
 20
-21.6992380353
 30
0.0
 10
7.7296637697
 20
-21.6972088629
 30
0.0
 10
7.7464692102
 20
-21.6952850039
 30
0.0
 10
7.7572163136
 20
-21.693089366
 30
0.0
 10
7.7630512042
 20
-21.691689597
 30
0.0
 10
7.7643846116
 20
-21.6903604867
 30
0.0
 11
7.5729370069
 21
-21.7058681639
 31
0.0
 11
7.649895958
 21
-21.7027609718
 31
0.0
 11
7.6820333379
 21
-21.7009524049
 31
0.0
 11
7.7093481464
 21
-21.6990059035
 31
0.0
 11
7.7314925159
 21
-21.6969461027
 31
0.0
 11
7.7481874305
 21
-21.6947991463
 31
0.0
 11
7.7591964535
 21
-21.6925928848
 31
0.0
 11
7.7643846116
 21
-21.6903604867
 31
0.0
  0
SPLINE
  5
381
100
AcDbEntity
  8
RACCORDO
100
AcDbSpline
 62
253
  6
CONTINUOUS
 70
0
 71
3
 72
14
 73
10
 74
8
 42
0.0000001
 43
0.0000001
 44
0.0000000001
 12
0.1920102766
 22
-0.004643091
 32
0.0
 13
0.1539244942
 23
-0.1148771288
 33
0.0
 40
0.0
 40
0.0
 40
0.0
 40
0.0
 40
0.4008641841
 40
0.5683345035
 40
0.7107511001
 40
0.8263259098
 40
0.9136520683
 40
0.9716156361
 40
1.0
 40
1.0
 40
1.0
 40
1.0
 10
7.5729443264
 20
21.7058680727
 30
0.0
 10
7.5986010074
 20
21.7052476564
 30
0.0
 10
7.6349771046
 20
21.7042033012
 30
0.0
 10
7.680434018
 20
21.7023096077
 30
0.0
 10
7.7076553015
 20
21.7009086321
 30
0.0
 10
7.7296631404
 20
21.6993662871
 30
0.0
 10
7.7464233062
 20
21.6979832431
 30
0.0
 10
7.7571938855
 20
21.6962333237
 30
0.0
 10
7.7629347149
 20
21.6953392095
 30
0.0
 10
7.7643910646
 20
21.6942523047
 30
0.0
 11
7.5729443264
 21
21.7058680727
 31
0.0
 11
7.649901684
 21
21.7035406567
 31
0.0
 11
7.6820385669
 21
21.7021859751
 31
0.0
 11
7.7093531262
 21
21.7007279803
 31
0.0
 11
7.7314974823
 21
21.6991851245
 31
0.0
 11
7.748192632
 21
21.6975769895
 31
0.0
 11
7.7592021509
 21
21.6959244351
 31
0.0
 11
7.7643910646
 21
21.6942523047
 31
0.0
  0
SPLINE
  5
382
100
AcDbEntity
  8
RACCORDO
100
AcDbSpline
 62
253
  6
CONTINUOUS
 70
0
 71
3
 72
14
 73
10
 74
8
 42
0.0000001
 43
0.0000001
 44
0.0000000001
 12
0.1916677441
 22
-0.0007465097
 32
0.0
 13
0.1739778401
 23
-0.0804288042
 33
0.0
 40
0.0
 40
0.0
 40
0.0
 40
0.0
 40
0.4015445799
 40
0.569253014
 40
0.7118248789
 40
0.8274551895
 40
0.9147066958
 40
0.9723918308
 40
1.0
 40
1.0
 40
1.0
 40
1.0
 10
7.5729394163
 20
21.7058681295
 30
0.0
 10
7.5985937976
 20
21.7057682106
 30
0.0
 10
7.6349650461
 20
21.7054756583
 30
0.0
 10
7.6804316373
 20
21.70463802
 30
0.0
 10
7.7076438881
 20
21.7039418649
 30
0.0
 10
7.7296729932
 20
21.7030713874
 30
0.0
 10
7.7463649421
 20
21.7023174043
 30
0.0
 10
7.7572205619
 20
21.7011688176
 30
0.0
 10
7.7627986894
 20
21.700740164
 30
0.0
 10
7.7643997593
 20
21.7
 30
0.0
 11
7.5729394163
 21
21.7058681295
 31
0.0
 11
7.6498999569
 21
21.7051677428
 31
0.0
 11
7.6820388829
 21
21.7045669456
 31
0.0
 11
7.7093555287
 21
21.7038281343
 31
0.0
 11
7.7315018805
 21
21.702975243
 31
0.0
 11
7.7481988086
 21
21.7020341917
 31
0.0
 11
7.7592097792
 21
21.7010322377
 31
0.0
 11
7.7643997593
 21
21.7
 31
0.0
  0
SPLINE
  5
383
100
AcDbEntity
  8
RACCORDO
100
AcDbSpline
 62
253
  6
CONTINUOUS
 70
0
 71
3
 72
14
 73
10
 74
8
 42
0.0000001
 43
0.0000001
 44
0.0000000001
 12
0.1739536447
 22
0.080480532
 32
0.0
 13
0.1916675194
 23
0.0007406278
 33
0.0
 40
0.0
 40
0.0
 40
0.0
 40
0.0
 40
0.0276097604
 40
0.0852955782
 40
0.1725472805
 40
0.2881774833
 40
0.4307491088
 40
0.5984571094
 40
1.0
 40
1.0
 40
1.0
 40
1.0
 10
30.7051551301
 20
21.7
 30
0.0
 10
30.7067560696
 20
21.7007406827
 30
0.0
 10
30.7123344854
 20
21.7011698275
 30
0.0
 10
30.7231900661
 20
21.7023188357
 30
0.0
 10
30.7398821287
 20
21.7030726845
 30
0.0
 10
30.7619111655
 20
21.7039430785
 30
0.0
 10
30.7891233348
 20
21.7046395205
 30
0.0
 10
30.8345897102
 20
21.7054773047
 30
0.0
 10
30.870960791
 20
21.7057689482
 30
0.0
 10
30.8966150343
 20
21.7058680795
 30
0.0
 11
30.7051551301
 21
21.7
 31
0.0
 11
30.7103452516
 21
21.701033055
 31
0.0
 11
30.7213562955
 21
21.7020354895
 31
0.0
 11
30.7380532382
 21
21.7029765664
 31
0.0
 11
30.7601995428
 21
21.7038294022
 31
0.0
 11
30.7875161024
 21
21.7045683988
 31
0.0
 11
30.8196549027
 21
21.7051692528
 31
0.0
 11
30.8966150343
 21
21.7058680795
 31
0.0
  0
SPLINE
  5
384
100
AcDbEntity
  8
RACCORDO
100
AcDbSpline
 62
253
  6
CONTINUOUS
 70
0
 71
3
 72
9
 73
5
 74
3
 42
0.0000001
 43
0.0000001
 44
0.0000000001
 12
0.3249976647
 22
-0.0056132634
 32
0.0
 13
0.3246688569
 23
-0.015656441
 33
0.0
 40
0.0
 40
0.0
 40
0.0
 40
0.0
 40
0.2648870974
 40
1.0
 40
1.0
 40
1.0
 40
1.0
 10
7.2271664751
 20
21.7166818959
 30
0.0
 10
7.2558623711
 20
21.7161862689
 30
0.0
 10
7.3641871302
 20
21.7139376701
 30
0.0
 10
7.4724918354
 20
21.7103789306
 30
0.0
 10
7.552047924
 20
21.7065425133
 30
0.0
 11
7.2271664751
 21
21.7166818959
 31
0.0
 11
7.3132486261
 21
21.714903093
 31
0.0
 11
7.552047924
 21
21.7065425133
 31
0.0
  0
SPLINE
  5
385
100
AcDbEntity
  8
RACCORDO
100
AcDbSpline
 62
253
  6
CONTINUOUS
 70
0
 71
3
 72
9
 73
5
 74
3
 42
0.0000001
 43
0.0000001
 44
0.0000000001
 12
-0.3249492288
 22
-0.0003737089
 32
0.0
 13
-0.324780246
 23
-0.0104848834
 33
0.0
 40
0.0
 40
0.0
 40
0.0
 40
0.0
 40
0.2649287313
 40
1.0
 40
1.0
 40
1.0
 40
1.0
 10
31.2424387955
 20
21.7114722027
 30
0.0
 10
31.2137426666
 20
21.7114392007
 30
0.0
 10
31.1054279876
 20
21.7109348124
 30
0.0
 10
30.9971121976
 20
21.7091124568
 30
0.0
 10
30.9175333218
 20
21.7065434113
 30
0.0
 11
31.2424387955
 21
21.7114722027
 31
0.0
 11
31.1563512476
 21
21.7110794423
 31
0.0
 11
30.9175333218
 21
21.7065434113
 31
0.0
  0
SPLINE
  5
386
100
AcDbEntity
  8
RACCORDO
100
AcDbSpline
 62
253
  6
CONTINUOUS
 70
0
 71
3
 72
9
 73
5
 74
3
 42
0.0000001
 43
0.0000001
 44
0.0000000001
 12
-0.3249971958
 22
0.0056132672
 32
0.0
 13
-0.3246683887
 23
0.0156564185
 33
0.0
 40
0.0
 40
0.0
 40
0.0
 40
0.0
 40
0.2648871067
 40
1.0
 40
1.0
 40
1.0
 40
1.0
 10
31.2423863963
 20
-21.7166818878
 30
0.0
 10
31.2136905407
 20
-21.7161862604
 30
0.0
 10
31.1053659379
 20
-21.7139376615
 30
0.0
 10
30.997061389
 20
-21.710378925
 30
0.0
 10
30.9175054162
 20
-21.7065425133
 30
0.0
 11
31.2423863963
 21
-21.7166818878
 31
0.0
 11
31.1563043665
 21
-21.7149030847
 31
0.0
 11
30.9175054162
 21
-21.7065425133
 31
0.0
  0
SPLINE
  5
387
100
AcDbEntity
  8
RACCORDO
100
AcDbSpline
 62
253
  6
CONTINUOUS
 70
0
 71
3
 72
9
 73
5
 74
3
 42
0.0000001
 43
0.0000001
 44
0.0000000001
 12
0.3249492288
 22
0.0003737089
 32
0.0
 13
0.324780246
 23
0.0104848834
 33
0.0
 40
0.0
 40
0.0
 40
0.0
 40
0.0
 40
0.2649287313
 40
1.0
 40
1.0
 40
1.0
 40
1.0
 10
7.2271145446
 20
-21.7114722027
 30
0.0
 10
7.2558106736
 20
-21.7114392006
 30
0.0
 10
7.3641253526
 20
-21.7109348124
 30
0.0
 10
7.4724411425
 20
-21.7091124568
 30
0.0
 10
7.5520200183
 20
-21.7065434113
 30
0.0
 11
7.2271145446
 21
-21.7114722027
 31
0.0
 11
7.3132020925
 21
-21.7110794423
 31
0.0
 11
7.5520200183
 21
-21.7065434113
 31
0.0
  0
SPLINE
  5
388
100
AcDbEntity
  8
RACCORDO
100
AcDbSpline
 62
253
  6
CONTINUOUS
 70
0
 71
3
 72
9
 73
5
 74
3
 42
0.0000001
 43
0.0000001
 44
0.0000000001
 12
-0.0000082801
 22
-21.7162620824
 32
0.0
 13
-0.0411892755
 23
-21.7162230205
 33
0.0
 40
0.0
 40
0.0
 40
0.0
 40
0.0
 40
0.2500733231
 40
1.0
 40
1.0
 40
1.0
 40
1.0
 10
31.2630191052
 20
0.0
 30
0.0
 10
31.263018415
 20
-1.8102192745
 30
0.0
 10
31.2613315349
 20
-9.0489732077
 30
0.0
 10
31.252726929
 20
-16.287725494
 30
0.0
 10
31.2424306168
 20
-21.7162504824
 30
0.0
 11
31.2630191052
 21
0.0
 31
0.0
 11
31.261742116
 21
-5.4306576734
 31
0.0
 11
31.2424306168
 21
-21.7162504824
 31
0.0
  0
SPLINE
  5
389
100
AcDbEntity
  8
RACCORDO
100
AcDbSpline
 62
253
  6
CONTINUOUS
 70
0
 71
3
 72
9
 73
5
 74
3
 42
0.0000001
 43
0.0000001
 44
0.0000000001
 12
0.0411810566
 22
-21.7158573399
 32
0.0
 13
0.0000087695
 23
-21.7158963869
 33
0.0
 40
0.0
 40
0.0
 40
0.0
 40
0.0
 40
0.2498965328
 40
1.0
 40
1.0
 40
1.0
 40
1.0
 10
31.2424312369
 20
21.715884787
 30
0.0
 10
31.2458615713
 20
19.9069789685
 30
0.0
 10
31.2579028868
 20
12.6683567506
 30
0.0
 10
31.2630169125
 20
5.4297230579
 30
0.0
 10
31.2630191052
 20
0.0
 30
0.0
 11
31.2424312369
 21
21.715884787
 31
0.0
 11
31.25144714
 21
16.2891650632
 31
0.0
 11
31.2630191052
 21
0.0
 31
0.0
  0
SPLINE
  5
38A
100
AcDbEntity
  8
RACCORDO
100
AcDbSpline
 62
253
  6
CONTINUOUS
 70
0
 71
3
 72
14
 73
10
 74
8
 42
0.0000001
 43
0.0000001
 44
0.0000000001
 12
2.263124984
 22
-0.045721239
 32
0.0
 13
0.0329312768
 23
-2.2633472239
 33
0.0
 40
0.0
 40
0.0
 40
0.0
 40
0.0
 40
0.1251664649
 40
0.2503504859
 40
0.3755282433
 40
0.5006965843
 40
0.6258447671
 40
0.7509656225
 40
1.0
 40
1.0
 40
1.0
 40
1.0
 10
29.7930597295
 20
23.170898601
 30
0.0
 10
29.8874821808
 20
23.1689910124
 30
0.0
 10
30.076472604
 20
23.1469608981
 30
0.0
 10
30.3480589781
 20
23.0605306795
 30
0.0
 10
30.5982874282
 20
22.9238511398
 30
0.0
 10
30.8177565841
 20
22.7419913569
 30
0.0
 10
30.9985874481
 20
22.5214955922
 30
0.0
 10
31.1786129151
 20
22.1888037188
 30
0.0
 10
31.2396975635
 20
21.9037685426
 30
0.0
 10
31.2424312369
 20
21.715884787
 30
0.0
 11
29.7930597295
 21
23.170898601
 31
0.0
 11
30.0744761159
 21
23.1380662794
 31
0.0
 11
30.3445033307
 21
23.0521537242
 31
0.0
 11
30.5931704091
 21
22.9163144325
 31
0.0
 11
30.8113325164
 21
22.7355359904
 31
0.0
 11
30.9910220219
 21
22.5165351288
 31
0.0
 11
31.125680448
 21
22.2673730105
 31
0.0
 11
31.2424312369
 21
21.715884787
 31
0.0
  0
SPLINE
  5
38B
100
AcDbEntity
  8
0
100
AcDbSpline
 62
7
  6
CONTINUOUS
 70
0
 71
3
 72
11
 73
7
 74
5
 42
0.0000001
 43
0.0000001
 44
0.0000000001
 12
0.010080021
 22
-0.0008201713
 32
0.0
 13
0.0011073379
 23
-0.0100525274
 33
0.0
 40
0.0
 40
0.0
 40
0.0
 40
0.0
 40
0.0692277352
 40
0.2570131427
 40
0.5667765548
 40
1.0
 40
1.0
 40
1.0
 40
1.0
 10
-51.8768601488
 20
-26.5286205929
 30
0.0
 10
-51.8766275432
 20
-26.5286395191
 30
0.0
 10
-51.8765268
 20
-26.5298528782
 30
0.0
 10
-51.8760704158
 20
-26.5313905709
 30
0.0
 10
-51.8757180638
 20
-26.5346970197
 30
0.0
 10
-51.8754076525
 20
-26.5371205854
 30
0.0
 10
-51.8752477443
 20
-26.5385722489
 30
0.0
 11
-51.8768601488
 21
-26.5286205929
 31
0.0
 11
-51.876565566
 21
-26.5292557255
 31
0.0
 11
-51.8761988757
 21
-26.5311191248
 31
0.0
 11
-51.8757597344
 21
-26.5342209337
 31
0.0
 11
-51.8752477443
 21
-26.5385722489
 31
0.0
  0
SPLINE
  5
38C
100
AcDbEntity
  8
0
100
AcDbSpline
 62
7
  6
CONTINUOUS
 70
0
 71
3
 72
14
 73
10
 74
8
 42
0.0000001
 43
0.0000001
 44
0.0000000001
 12
-0.0656349311
 22
0.0018996802
 32
0.0
 13
0.0015177785
 23
-0.0656448727
 33
0.0
 40
0.0
 40
0.0
 40
0.0
 40
0.0
 40
0.0209431604
 40
0.0781606304
 40
0.168764671
 40
0.2892393593
 40
0.4360956014
 40
0.6058304342
 40
1.0
 40
1.0
 40
1.0
 40
1.0
 10
-51.9044044016
 20
-26.0452551153
 30
0.0
 10
-51.9048626026
 20
-26.0452418536
 30
0.0
 10
-51.9048716416
 20
-26.0478423394
 30
0.0
 10
-51.9053793149
 20
-26.050709098
 30
0.0
 10
-51.905403583
 20
-26.05701789
 30
0.0
 10
-51.9055163028
 20
-26.0646715574
 30
0.0
 10
-51.9054502177
 20
-26.0743029347
 30
0.0
 10
-51.9052637479
 20
-26.0898302026
 30
0.0
 10
-51.905004177
 20
-26.1021822707
 30
0.0
 10
-51.9048047563
 20
-26.110807341
 30
0.0
 11
-51.9044044016
 21
-26.0452551153
 31
0.0
 11
-51.9048836787
 21
-26.0465440721
 31
0.0
 11
-51.9052142628
 21
-26.050286537
 31
0.0
 11
-51.9054096108
 21
-26.0562326092
 31
0.0
 11
-51.9054826879
 21
-26.0641429309
 31
0.0
 11
-51.9054461052
 21
-26.0737857972
 31
0.0
 11
-51.9053125152
 21
-26.0849301959
 31
0.0
 11
-51.9048047563
 21
-26.110807341
 31
0.0
  0
LINE
  5
38D
100
AcDbEntity
  8
0
100
AcDbLine
 62
7
  6
CONTINUOUS
 10
-51.9048047563
 20
-26.110807341
 11
-51.8813770479
 21
-26.5289192261
  0
LINE
  5
38E
100
AcDbEntity
  8
0
100
AcDbLine
 62
7
  6
CONTINUOUS
 10
-51.8352540978
 20
-27.3237978925
 11
-51.8342468071
 21
-27.3407672604
  0
LINE
  5
38F
100
AcDbEntity
  8
0
100
AcDbLine
 62
7
  6
CONTINUOUS
 10
-51.8342468071
 20
-27.3407672604
 11
-51.8076961491
 21
-27.7824442701
  0
LINE
  5
390
100
AcDbEntity
  8
0
100
AcDbLine
 62
7
  6
CONTINUOUS
 10
-51.8047242529
 20
-27.9447369164
 11
-51.7995524619
 21
-28.0295095425
  0
LINE
  5
391
100
AcDbEntity
  8
0
100
AcDbLine
 62
7
  6
CONTINUOUS
 10
-51.7995524619
 20
-28.0295095425
 11
-51.7817001458
 21
-28.3190864125
  0
SPLINE
  5
392
100
AcDbEntity
  8
0
100
AcDbSpline
 62
7
  6
CONTINUOUS
 70
0
 71
3
 72
10
 73
6
 74
4
 42
0.0000001
 43
0.0000001
 44
0.0000000001
 12
-0.0351447266
 22
0.5492287295
 32
0.0
 13
-0.0424973275
 23
0.5487087809
 33
0.0
 40
0.0
 40
0.0
 40
0.0
 40
0.0
 40
0.5723367952
 40
0.8237698103
 40
1.0
 40
1.0
 40
1.0
 40
1.0
 10
-51.6255367363
 20
-28.1201000779
 30
0.0
 10
-51.6322416097
 20
-28.0153188076
 30
0.0
 10
-51.6417684605
 20
-27.86449748
 30
0.0
 10
-51.6537732121
 20
-27.6814414723
 30
0.0
 10
-51.6589844146
 20
-27.6031574544
 30
0.0
 10
-51.661480852
 20
-27.5709244369
 30
0.0
 11
-51.6255367363
 21
-28.1201000779
 31
0.0
 11
-51.6456545829
 21
-27.8057564735
 31
0.0
 11
-51.6547026919
 21
-27.6676759387
 31
0.0
 11
-51.661480852
 21
-27.5709244369
 31
0.0
  0
SPLINE
  5
393
100
AcDbEntity
  8
RACCORDO
100
AcDbSpline
 62
253
  6
CONTINUOUS
 70
0
 71
3
 72
9
 73
5
 74
3
 42
0.0000001
 43
0.0000001
 44
0.0000000001
 12
0.1708518461
 22
0.5772796481
 32
0.0
 13
0.108134488
 23
0.5922407263
 33
0.0
 40
0.0
 40
0.0
 40
0.0
 40
0.0
 40
0.4423566841
 40
1.0
 40
1.0
 40
1.0
 40
1.0
 10
-49.2851479107
 20
-45.9475665466
 30
0.0
 10
-49.2599554254
 20
-45.8624453762
 30
0.0
 10
-49.2117983745
 20
-45.6674508564
 30
0.0
 10
-49.1729106004
 20
-45.4705476341
 30
0.0
 10
-49.1528104422
 20
-45.3604612732
 30
0.0
 11
-49.2851479107
 21
-45.9475665466
 31
0.0
 11
-49.2191640455
 21
-45.689557624
 31
0.0
 11
-49.1528104422
 21
-45.3604612732
 31
0.0
  0
LINE
  5
394
100
AcDbEntity
  8
0
100
AcDbLine
 62
7
  6
CONTINUOUS
 10
-51.661480852
 20
-27.5709244369
 11
-51.6624759137
 21
-27.554380628
  0
SPLINE
  5
395
100
AcDbEntity
  8
0
100
AcDbSpline
 62
7
  6
CONTINUOUS
 70
0
 71
3
 72
17
 73
13
 74
11
 42
0.0000001
 43
0.0000001
 44
0.0000000001
 12
-0.0095377774
 22
1.4164608785
 32
0.0
 13
-0.1049901821
 23
1.412596705
 33
0.0
 40
0.0
 40
0.0
 40
0.0
 40
0.0
 40
0.014443188
 40
0.0380265967
 40
0.0897270636
 40
0.1480884598
 40
0.2136656763
 40
0.3587415521
 40
0.5123796048
 40
0.8048944108
 40
0.9204943765
 40
1.0
 40
1.0
 40
1.0
 40
1.0
 10
-51.6624759137
 20
-27.554380628
 30
0.0
 10
-51.6625218323
 20
-27.5475612244
 30
0.0
 10
-51.6636793894
 20
-27.5296315509
 30
0.0
 10
-51.6656425846
 20
-27.4873186638
 30
0.0
 10
-51.6690337114
 20
-27.424302314
 30
0.0
 10
-51.6734075954
 20
-27.3414890552
 30
0.0
 10
-51.6803855501
 20
-27.2146610267
 30
0.0
 10
-51.6900347622
 20
-27.0429269121
 30
0.0
 10
-51.706093409
 20
-26.764232149
 30
0.0
 10
-51.7215830416
 20
-26.4994435042
 30
0.0
 10
-51.7359616264
 20
-26.2696575103
 30
0.0
 10
-51.7418331803
 20
-26.1777205439
 30
0.0
 10
-51.7446156169
 20
-26.1402840833
 30
0.0
 11
-51.6624759137
 21
-27.554380628
 31
0.0
 11
-51.6633541902
 21
-27.5339408141
 31
0.0
 11
-51.6650532098
 21
-27.5005783152
 31
0.0
 11
-51.6688532479
 21
-27.4274436236
 31
0.0
 11
-51.6732563807
 21
-27.3448924592
 31
0.0
 11
-51.678334639
 21
-27.2521417093
 31
0.0
 11
-51.6898554483
 21
-27.0469659459
 31
0.0
 11
-51.7023431231
 21
-26.8296972945
 31
0.0
 11
-51.7268624296
 21
-26.4160782365
 31
0.0
 11
-51.7370675236
 21
-26.2526500083
 31
0.0
 11
-51.7446156169
 21
-26.1402840833
 31
0.0
  0
SPLINE
  5
396
100
AcDbEntity
  8
RACCORDO
100
AcDbSpline
 62
253
  6
CONTINUOUS
 70
0
 71
3
 72
19
 73
15
 74
13
 42
0.0000001
 43
0.0000001
 44
0.0000000001
 12
2.435713885
 22
13.5382217868
 32
0.0
 13
-0.8413976069
 23
13.7298288898
 33
0.0
 40
0.0
 40
0.0
 40
0.0
 40
0.0
 40
0.0079441639
 40
0.0176966403
 40
0.0426107204
 40
0.0746499551
 40
0.1136423546
 40
0.1593579257
 40
0.2115190437
 40
0.3338524172
 40
0.4776181658
 40
0.6392657595
 40
0.8148216445
 40
1.0
 40
1.0
 40
1.0
 40
1.0
 10
-49.1528099124
 20
-45.3604613004
 30
0.0
 10
-49.146360009
 20
-45.3246113497
 30
0.0
 10
-49.135044658
 20
-45.2442073704
 30
0.0
 10
-49.1162346239
 20
-45.049707276
 30
0.0
 10
-49.1011346099
 20
-44.7440857664
 30
0.0
 10
-49.0931485476
 20
-44.3042097438
 30
0.0
 10
-49.0946890062
 20
-43.7688675534
 30
0.0
 10
-49.1054767501
 20
-43.141377101
 30
0.0
 10
-49.1334686777
 20
-42.1320440843
 30
0.0
 10
-49.1914825674
 20
-40.6738702916
 30
0.0
 10
-49.2868640985
 20
-38.7148780281
 30
0.0
 10
-49.4066792261
 20
-36.5127883335
 30
0.0
 10
-49.545476839
 20
-34.1215877729
 30
0.0
 10
-49.6452744869
 20
-32.4705628645
 30
0.0
 10
-49.6972106953
 20
-31.6230738192
 30
0.0
 11
-49.1528099124
 21
-45.3604613004
 31
0.0
 11
-49.1369068976
 21
-45.2523480445
 31
0.0
 11
-49.1235176154
 21
-45.1188668618
 31
0.0
 11
-49.1043074523
 21
-44.7766979137
 31
0.0
 11
-49.095120853
 21
-44.3360752158
 31
0.0
 11
-49.0957781525
 21
-43.7997123064
 31
0.0
 11
-49.105999981
 21
-43.1709509116
 31
0.0
 11
-49.1254089826
 21
-42.4537067175
 31
0.0
 11
-49.1898648409
 21
-40.7721743502
 31
0.0
 11
-49.2846447409
 21
-38.7968647774
 31
0.0
 11
-49.4045000379
 21
-36.5765399698
 31
0.0
 11
-49.5438556632
 21
-34.1656901289
 31
0.0
 11
-49.6972106953
 21
-31.6230738192
 31
0.0
  0
SPLINE
  5
397
100
AcDbEntity
  8
0
100
AcDbSpline
 62
7
  6
CONTINUOUS
 70
0
 71
3
 72
15
 73
11
 74
9
 42
0.0000001
 43
0.0000001
 44
0.0000000001
 12
-0.0070855148
 22
0.0953675455
 32
0.0
 13
-0.0955907726
 23
0.0027527169
 33
0.0
 40
0.0
 40
0.0
 40
0.0
 40
0.0
 40
0.2769744196
 40
0.497015189
 40
0.6668019711
 40
0.7941361772
 40
0.8868899435
 40
0.9499868068
 40
0.9867762508
 40
1.0
 40
1.0
 40
1.0
 40
1.0
 10
-51.7446156169
 20
-26.1402840833
 30
0.0
 10
-51.7452697857
 20
-26.1314792931
 30
0.0
 10
-51.7464718947
 20
-26.1156852624
 30
0.0
 10
-51.74818961
 20
-26.0944866159
 30
0.0
 10
-51.7496510869
 20
-26.0780971674
 30
0.0
 10
-51.7508538139
 20
-26.0656506965
 30
0.0
 10
-51.7519227296
 20
-26.0568646721
 30
0.0
 10
-51.7526529708
 20
-26.0503910946
 30
0.0
 10
-51.7534825158
 20
-26.0475053858
 30
0.0
 10
-51.7537526058
 20
-26.0452673539
 30
0.0
 10
-51.7541739619
 20
-26.0452552202
 30
0.0
 11
-51.7446156169
 21
-26.1402840833
 31
0.0
 11
-51.7466338915
 21
-26.1138739153
 31
0.0
 11
-51.7483501061
 21
-26.092901432
 31
0.0
 11
-51.7497961801
 21
-26.0767291773
 31
0.0
 11
-51.7510113031
 21
-26.0646129354
 31
0.0
 11
-51.7520355609
 21
-26.0558021914
 31
0.0
 11
-51.7528939198
 21
-26.0498295778
 31
0.0
 11
-51.7536030187
 21
-26.0463835897
 31
0.0
 11
-51.7541739619
 21
-26.0452552202
 31
0.0
  0
SPLINE
  5
398
100
AcDbEntity
  8
RACCORDO
100
AcDbSpline
 62
253
  6
CONTINUOUS
 70
0
 71
3
 72
19
 73
15
 74
13
 42
0.0000001
 43
0.0000001
 44
0.0000000001
 12
0.8413968378
 22
13.729815002
 32
0.0
 13
-2.435679174
 23
13.5382138995
 33
0.0
 40
0.0
 40
0.0
 40
0.0
 40
0.0
 40
0.1851784943
 40
0.3607344699
 40
0.5223821163
 40
0.6661478798
 40
0.7884812313
 40
0.8406423239
 40
0.8863578611
 40
0.9253502161
 40
0.9573894069
 40
0.9823034176
 40
0.9920558477
 40
1.0
 40
1.0
 40
1.0
 40
1.0
 10
-49.6972097275
 20
31.6230899186
 30
0.0
 10
-49.6452735277
 20
32.4705787416
 30
0.0
 10
-49.545475923
 20
34.1216030311
 30
0.0
 10
-49.4066784327
 20
36.5128024683
 30
0.0
 10
-49.286863431
 20
38.7148906637
 30
0.0
 10
-49.1914820813
 20
40.6738811599
 30
0.0
 10
-49.1334683425
 20
42.1320533329
 30
0.0
 10
-49.1054765913
 20
43.1413849599
 30
0.0
 10
-49.0946889152
 20
43.7688743026
 30
0.0
 10
-49.0931486311
 20
44.3042153929
 30
0.0
 10
-49.1011347811
 20
44.7440902424
 30
0.0
 10
-49.1162347998
 20
45.0497107138
 30
0.0
 10
-49.1350450777
 20
45.2442100032
 30
0.0
 10
-49.146360435
 20
45.3246136238
 30
0.0
 10
-49.1528102372
 20
45.3604635017
 30
0.0
 11
-49.6972097275
 21
31.6230899186
 31
0.0
 11
-49.5438547454
 21
34.1657055629
 31
0.0
 11
-49.4044992374
 21
36.5765542142
 31
0.0
 11
-49.2846440801
 21
38.7968775032
 31
0.0
 11
-49.1898643576
 21
40.7721852889
 31
0.0
 11
-49.125408704
 21
42.4537156583
 31
0.0
 11
-49.1059998166
 21
43.1709587784
 31
0.0
 11
-49.0957780885
 21
43.7997190738
 31
0.0
 11
-49.0951209354
 21
44.3360808285
 31
0.0
 11
-49.1043076233
 21
44.776702475
 31
0.0
 11
-49.1235179019
 21
45.1188701131
 31
0.0
 11
-49.1369072833
 21
45.2523505087
 31
0.0
 11
-49.1528102372
 21
45.3604635017
 31
0.0
  0
LINE
  5
399
100
AcDbEntity
  8
RACCORDO
100
AcDbLine
 62
253
  6
CONTINUOUS
 10
-49.2851477657
 20
45.9475665185
 11
-49.6104882323
 21
47.0484169142
  0
LINE
  5
39A
100
AcDbEntity
  8
RACCORDO
100
AcDbLine
 62
253
  6
CONTINUOUS
 10
-49.6104882323
 20
47.0484169142
 11
-49.6240073767
 21
47.0943377917
  0
SPLINE
  5
39B
100
AcDbEntity
  8
RACCORDO
100
AcDbSpline
 62
253
  6
CONTINUOUS
 70
0
 71
3
 72
9
 73
5
 74
3
 42
0.0000001
 43
0.0000001
 44
0.0000000001
 12
-0.1081341011
 22
0.5922384898
 32
0.0
 13
-0.1708511581
 23
0.5772774847
 33
0.0
 40
0.0
 40
0.0
 40
0.0
 40
0.0
 40
0.5576431656
 40
1.0
 40
1.0
 40
1.0
 40
1.0
 10
-49.1528108426
 20
45.3604634706
 30
0.0
 10
-49.1729109234
 20
45.470549386
 30
0.0
 10
-49.2117986154
 20
45.6674518541
 30
0.0
 10
-49.2599555078
 20
45.8624456312
 30
0.0
 10
-49.2851479003
 20
45.9475665115
 30
0.0
 11
-49.1528108426
 21
45.3604634706
 31
0.0
 11
-49.21916424
 21
45.6895584795
 31
0.0
 11
-49.2851479003
 21
45.9475665115
 31
0.0
  0
SPLINE
  5
39C
100
AcDbEntity
  8
RACCORDO
100
AcDbSpline
 62
253
  6
CONTINUOUS
 70
0
 71
3
 72
13
 73
9
 74
7
 42
0.0000001
 43
0.0000001
 44
0.0000000001
 12
0.1187653252
 22
-0.263644535
 32
0.0
 13
0.2887775708
 23
0.0148713789
 33
0.0
 40
0.0
 40
0.0
 40
0.0
 40
0.0
 40
0.0428373846
 40
0.1113942135
 40
0.2076625626
 40
0.329998196
 40
0.6383945563
 40
1.0
 40
1.0
 40
1.0
 40
1.0
 10
-49.98008542
 20
-31.5926933217
 30
0.0
 10
-49.9783895547
 20
-31.5964579358
 30
0.0
 10
-49.9691819537
 20
-31.6034112306
 30
0.0
 10
-49.9505578224
 20
-31.6101940535
 30
0.0
 10
-49.9233781788
 20
-31.6162647346
 30
0.0
 10
-49.873045576
 20
-31.6229502006
 30
0.0
 10
-49.7965988716
 20
-31.6264222994
 30
0.0
 10
-49.7320104568
 20
-31.625000849
 30
0.0
 10
-49.6972026096
 20
-31.6232083252
 30
0.0
 11
-49.98008542
 21
-31.5926933217
 31
0.0
 11
-49.9711921115
 21
-31.6013155934
 31
0.0
 11
-49.9529015411
 21
-31.6089603565
 31
0.0
 11
-49.9258090542
 21
-31.6153552404
 31
0.0
 11
-49.8907819429
 21
-31.620301336
 31
0.0
 11
-49.8017442789
 21
-31.6252659227
 31
0.0
 11
-49.6972026096
 21
-31.6232083252
 31
0.0
  0
SPLINE
  5
39D
100
AcDbEntity
  8
RACCORDO
100
AcDbSpline
 62
253
  6
CONTINUOUS
 70
0
 71
3
 72
14
 73
10
 74
8
 42
0.0000001
 43
0.0000001
 44
0.0000000001
 12
0.1605066792
 22
-0.2362171431
 32
0.0
 13
0.285272039
 23
0.0134460593
 33
0.0
 40
0.0
 40
0.0
 40
0.0
 40
0.0
 40
0.0356579487
 40
0.1012286705
 40
0.1967720036
 40
0.3198386881
 40
0.466602801
 40
0.632494521
 40
1.0
 40
1.0
 40
1.0
 40
1.0
 10
-50.2102984262
 20
-27.6171032619
 30
0.0
 10
-50.2083906465
 20
-27.6199109348
 30
0.0
 10
-50.198660577
 20
-27.6237725822
 30
0.0
 10
-50.1808663971
 20
-27.6278178393
 30
0.0
 10
-50.1537430444
 20
-27.6311298527
 30
0.0
 10
-50.1191349476
 20
-27.6335560529
 30
0.0
 10
-50.0776370608
 20
-27.6349378979
 30
0.0
 10
-50.0128983788
 20
-27.6352976313
 30
0.0
 10
-49.9621165793
 20
-27.6338217441
 30
0.0
 10
-49.9271702336
 20
-27.6321745773
 30
0.0
 11
-50.2102984262
 21
-27.6171032619
 31
0.0
 11
-50.201607244
 21
-27.6224105406
 31
0.0
 11
-50.1834430405
 21
-27.6269640594
 31
0.0
 11
-50.1564002329
 21
-27.6305996969
 31
0.0
 11
-50.121350392
 21
-27.633203986
 31
0.0
 11
-50.0794627478
 21
-27.6346951884
 31
0.0
 11
-50.0320870593
 21
-27.635020953
 31
0.0
 11
-49.9271702336
 21
-27.6321745773
 31
0.0
  0
SPLINE
  5
39E
100
AcDbEntity
  8
RACCORDO
100
AcDbSpline
 62
253
  6
CONTINUOUS
 70
0
 71
3
 72
15
 73
11
 74
9
 42
0.0000001
 43
0.0000001
 44
0.0000000001
 12
0.1742565201
 22
-0.2259295363
 32
0.0
 13
0.2851363128
 23
0.0103331168
 33
0.0
 40
0.0
 40
0.0
 40
0.0
 40
0.0
 40
0.0136881354
 40
0.034601106
 40
0.0996870743
 40
0.1951375934
 40
0.3183441669
 40
0.4653969589
 40
0.6316667012
 40
1.0
 40
1.0
 40
1.0
 40
1.0
 10
-50.3961426795
 20
-23.6999999993
 30
0.0
 10
-50.3953475973
 20
-23.7010308506
 30
0.0
 10
-50.3924685822
 20
-23.7028612246
 30
0.0
 10
-50.3836112071
 20
-23.7061449592
 30
0.0
 10
-50.3665194796
 20
-23.7093304722
 30
0.0
 10
-50.3397421133
 20
-23.7123534432
 30
0.0
 10
-50.3050013618
 20
-23.7145716363
 30
0.0
 10
-50.2635096353
 20
-23.7159501264
 30
0.0
 10
-50.1986741908
 20
-23.716537783
 30
0.0
 10
-50.1478267708
 20
-23.7154873582
 30
0.0
 10
-50.1128183713
 20
-23.7142186812
 30
0.0
 11
-50.3961426795
 21
-23.6999999993
 31
0.0
 11
-50.3930391582
 21
-23.7023709586
 31
0.0
 11
-50.3875088812
 21
-23.7046116432
 31
0.0
 11
-50.369375031
 21
-23.7086152662
 31
0.0
 11
-50.3423355247
 21
-23.7118665453
 31
0.0
 11
-50.307263622
 21
-23.7142636849
 31
0.0
 11
-50.2653316719
 21
-23.7157309976
 31
0.0
 11
-50.2178935033
 21
-23.7162173942
 31
0.0
 11
-50.1128183713
 21
-23.7142186812
 31
0.0
  0
SPLINE
  5
39F
100
AcDbEntity
  8
RACCORDO
100
AcDbSpline
 62
253
  6
CONTINUOUS
 70
0
 71
3
 72
15
 73
11
 74
9
 42
0.0000001
 43
0.0000001
 44
0.0000000001
 12
0.174256371
 22
0.2259296703
 32
0.0
 13
0.2851363278
 23
-0.0103331184
 33
0.0
 40
0.0
 40
0.0
 40
0.0
 40
0.0
 40
0.0136881292
 40
0.0346010937
 40
0.0996870524
 40
0.1951375666
 40
0.3183441398
 40
0.4653969355
 40
0.6316666843
 40
1.0
 40
1.0
 40
1.0
 40
1.0
 10
-50.396142695
 20
23.7
 30
0.0
 10
-50.3953476137
 20
23.7010308515
 30
0.0
 10
-50.3924685999
 20
23.702861226
 30
0.0
 10
-50.3836112268
 20
23.7061449611
 30
0.0
 10
-50.3665195003
 20
23.7093304745
 30
0.0
 10
-50.3397421341
 20
23.712353446
 30
0.0
 10
-50.3050013809
 20
23.7145716394
 30
0.0
 10
-50.2635096513
 20
23.7159501298
 30
0.0
 10
-50.1986742008
 20
23.7165377864
 30
0.0
 10
-50.1478267759
 20
23.7154873613
 30
0.0
 10
-50.1128183729
 20
23.7142186841
 30
0.0
 11
-50.396142695
 21
23.7
 31
0.0
 11
-50.3930391758
 21
23.7023709597
 31
0.0
 11
-50.3875089005
 21
23.7046116446
 31
0.0
 11
-50.3693750523
 21
23.7086152682
 31
0.0
 11
-50.3423355461
 21
23.7118665479
 31
0.0
 11
-50.3072636415
 21
23.7142636879
 31
0.0
 11
-50.2653316882
 21
23.7157310009
 31
0.0
 11
-50.2178935153
 21
23.7162173975
 31
0.0
 11
-50.1128183729
 21
23.7142186841
 31
0.0
  0
SPLINE
  5
3A0
100
AcDbEntity
  8
RACCORDO
100
AcDbSpline
 62
253
  6
CONTINUOUS
 70
0
 71
3
 72
14
 73
10
 74
8
 42
0.0000001
 43
0.0000001
 44
0.0000000001
 12
0.1605067047
 22
0.236217124
 32
0.0
 13
0.2852720376
 23
-0.0134460591
 33
0.0
 40
0.0
 40
0.0
 40
0.0
 40
0.0
 40
0.0356579508
 40
0.1012286741
 40
0.1967720081
 40
0.3198386927
 40
0.4666028051
 40
0.632494524
 40
1.0
 40
1.0
 40
1.0
 40
1.0
 10
-50.2102984247
 20
27.6171032618
 30
0.0
 10
-50.2083906446
 20
27.6199109346
 30
0.0
 10
-50.1986605749
 20
27.6237725818
 30
0.0
 10
-50.1808663946
 20
27.6278178389
 30
0.0
 10
-50.1537430418
 20
27.6311298523
 30
0.0
 10
-50.1191349451
 20
27.6335560524
 30
0.0
 10
-50.0776370587
 20
27.6349378973
 30
0.0
 10
-50.0128983774
 20
27.6352976307
 30
0.0
 10
-49.9621165786
 20
27.6338217435
 30
0.0
 10
-49.9271702333
 20
27.6321745767
 30
0.0
 11
-50.2102984247
 21
27.6171032618
 31
0.0
 11
-50.2016072419
 21
27.6224105404
 31
0.0
 11
-50.1834430379
 21
27.626964059
 31
0.0
 11
-50.1564002302
 21
27.6305996964
 31
0.0
 11
-50.1213503894
 21
27.6332039854
 31
0.0
 11
-50.0794627456
 21
27.6346951878
 31
0.0
 11
-50.0320870576
 21
27.6350209524
 31
0.0
 11
-49.9271702333
 21
27.6321745767
 31
0.0
  0
SPLINE
  5
3A1
100
AcDbEntity
  8
RACCORDO
100
AcDbSpline
 62
253
  6
CONTINUOUS
 70
0
 71
3
 72
13
 73
9
 74
7
 42
0.0000001
 43
0.0000001
 44
0.0000000001
 12
0.1187680709
 22
0.2636432209
 32
0.0
 13
0.2887775001
 23
-0.0148713818
 33
0.0
 40
0.0
 40
0.0
 40
0.0
 40
0.0
 40
0.0428375711
 40
0.1113945859
 40
0.2076630495
 40
0.3299987146
 40
0.6383949153
 40
1.0
 40
1.0
 40
1.0
 40
1.0
 10
-49.9800853788
 20
31.5926933186
 30
0.0
 10
-49.9783894669
 20
31.5964579304
 30
0.0
 10
-49.9691818153
 20
31.6034111887
 30
0.0
 10
-49.9505576332
 20
31.6101940044
 30
0.0
 10
-49.9233779611
 20
31.6162646645
 30
0.0
 10
-49.8730453689
 20
31.6229501093
 30
0.0
 10
-49.7965987304
 20
31.6264221919
 30
0.0
 10
-49.7320103814
 20
31.6250007395
 30
0.0
 10
-49.6972025773
 20
31.6232082171
 30
0.0
 11
-49.9800853788
 21
31.5926933186
 31
0.0
 11
-49.9711919793
 21
31.6013155697
 31
0.0
 11
-49.9529013472
 21
31.608960312
 31
0.0
 11
-49.9258088287
 21
31.6153551765
 31
0.0
 11
-49.8907817144
 21
31.6203012552
 31
0.0
 11
-49.8017441171
 21
31.6252658191
 31
0.0
 11
-49.6972025773
 21
31.6232082171
 31
0.0
  0
SPLINE
  5
3A2
100
AcDbEntity
  8
RACCORDO
100
AcDbSpline
 62
253
  6
CONTINUOUS
 70
0
 71
3
 72
11
 73
7
 74
5
 42
0.0000001
 43
0.0000001
 44
0.0000000001
 12
0.0513368868
 22
0.4117751644
 32
0.0
 13
0.4143197687
 23
0.0230952649
 33
0.0
 40
0.0
 40
0.0
 40
0.0
 40
0.0
 40
0.2488214732
 40
0.4984979347
 40
0.7490237057
 40
1.0
 40
1.0
 40
1.0
 40
1.0
 10
-49.4347413867
 20
45.0993070819
 30
0.0
 10
-49.4304834801
 20
45.1334599162
 30
0.0
 10
-49.4096346512
 20
45.2009509913
 30
0.0
 10
-49.3455835651
 20
45.2849725394
 30
0.0
 10
-49.2566439298
 20
45.3425058861
 30
0.0
 10
-49.1874691119
 20
45.3585137241
 30
0.0
 10
-49.1528076318
 20
45.3604458454
 30
0.0
 11
-49.4347413867
 21
45.0993070819
 31
0.0
 11
-49.404244294
 21
45.1979521025
 31
0.0
 11
-49.3415575621
 21
45.2804425705
 31
0.0
 11
-49.2542524433
 21
45.3368807896
 31
0.0
 11
-49.1528076318
 21
45.3604458454
 31
0.0
  0
SPLINE
  5
3A3
100
AcDbEntity
  8
RACCORDO
100
AcDbSpline
 62
253
  6
CONTINUOUS
 70
0
 71
3
 72
11
 73
7
 74
5
 42
0.0000001
 43
0.0000001
 44
0.0000000001
 12
0.050984417
 22
0.4130384118
 32
0.0
 13
0.4155551141
 23
0.0226734985
 33
0.0
 40
0.0
 40
0.0
 40
0.0
 40
0.0
 40
0.2495853417
 40
0.4994855498
 40
0.7496767569
 40
1.0
 40
1.0
 40
1.0
 40
1.0
 10
-49.5670987085
 20
45.6849843924
 30
0.0
 10
-49.5628570541
 20
45.7193471701
 30
0.0
 10
-49.5420755146
 20
45.7872048403
 30
0.0
 10
-49.4780649743
 20
45.8717609632
 30
0.0
 10
-49.3890827348
 20
45.9296338972
 30
0.0
 10
-49.3198215976
 20
45.9456723292
 30
0.0
 10
-49.2851472297
 20
45.9475642305
 30
0.0
 11
-49.5670987085
 21
45.6849843924
 31
0.0
 11
-49.5366288479
 21
45.784285534
 31
0.0
 11
-49.4739447356
 21
45.8672739101
 31
0.0
 11
-49.3866218431
 21
45.92398622
 31
0.0
 11
-49.2851472297
 21
45.9475642305
 31
0.0
  0
SPLINE
  5
3A4
100
AcDbEntity
  8
RACCORDO
100
AcDbSpline
 62
253
  6
CONTINUOUS
 70
0
 71
3
 72
11
 73
7
 74
5
 42
0.0000001
 43
0.0000001
 44
0.0000000001
 12
0.0509843935
 22
-0.4130384376
 32
0.0
 13
0.4155551371
 23
-0.0226734939
 33
0.0
 40
0.0
 40
0.0
 40
0.0
 40
0.0
 40
0.2495853417
 40
0.4994855498
 40
0.7496767569
 40
1.0
 40
1.0
 40
1.0
 40
1.0
 10
-49.5670987161
 20
-45.6849843933
 30
0.0
 10
-49.5628570636
 20
-45.7193471732
 30
0.0
 10
-49.5420755266
 20
-45.7872048484
 30
0.0
 10
-49.4780649856
 20
-45.8717609783
 30
0.0
 10
-49.3890827418
 20
-45.9296339169
 30
0.0
 10
-49.3198216006
 20
-45.9456723495
 30
0.0
 10
-49.2851472307
 20
-45.9475642504
 30
0.0
 11
-49.5670987161
 21
-45.6849843933
 31
0.0
 11
-49.5366288592
 21
-45.7842855419
 31
0.0
 11
-49.4739447463
 21
-45.8672739248
 31
0.0
 11
-49.3866218498
 21
-45.9239862391
 31
0.0
 11
-49.2851472307
 21
-45.9475642504
 31
0.0
  0
SPLINE
  5
3A5
100
AcDbEntity
  8
RACCORDO
100
AcDbSpline
 62
253
  6
CONTINUOUS
 70
0
 71
3
 72
11
 73
7
 74
5
 42
0.0000001
 43
0.0000001
 44
0.0000000001
 12
0.0513376801
 22
-0.4117745597
 32
0.0
 13
0.4143192753
 23
-0.023095096
 33
0.0
 40
0.0
 40
0.0
 40
0.0
 40
0.0
 40
0.2488214747
 40
0.4984979376
 40
0.7490237081
 40
1.0
 40
1.0
 40
1.0
 40
1.0
 10
-49.4347413817
 20
-45.0993070813
 30
0.0
 10
-49.4304834093
 20
-45.1334598657
 30
0.0
 10
-49.4096344812
 20
-45.2009508167
 30
0.0
 10
-49.3455833568
 20
-45.2849721688
 30
0.0
 10
-49.256643777
 20
-45.3425053555
 30
0.0
 10
-49.1874690383
 20
-45.3585131351
 30
0.0
 10
-49.1528075999
 20
-45.3604452422
 30
0.0
 11
-49.4347413817
 21
-45.0993070813
 31
0.0
 11
-49.4042441425
 21
-45.1979519266
 31
0.0
 11
-49.3415573692
 21
-45.2804422064
 31
0.0
 11
-49.2542523007
 21
-45.3368802714
 31
0.0
 11
-49.1528075999
 21
-45.3604452422
 31
0.0
  0
LINE
  5
3A6
100
AcDbEntity
  8
RACCORDO
100
AcDbLine
 62
253
  6
CONTINUOUS
 10
-49.567098716
 20
45.6849843933
 11
-49.9060257
 21
46.8316723162
  0
SPLINE
  5
3A7
100
AcDbEntity
  8
RACCORDO
100
AcDbSpline
 62
253
  6
CONTINUOUS
 70
0
 71
3
 72
9
 73
5
 74
3
 42
0.0000001
 43
0.0000001
 44
0.0000000001
 12
-0.1081480697
 22
0.5908272819
 32
0.0
 13
-0.1708768984
 23
0.5758245979
 33
0.0
 40
0.0
 40
0.0
 40
0.0
 40
0.0
 40
0.5576301579
 40
1.0
 40
1.0
 40
1.0
 40
1.0
 10
-49.4347413866
 20
45.0993070819
 30
0.0
 10
-49.454843595
 20
45.2091281187
 30
0.0
 10
-49.4937365815
 20
45.4055588053
 30
0.0
 10
-49.5419017871
 20
45.6000752478
 30
0.0
 10
-49.567098716
 20
45.6849843933
 30
0.0
 11
-49.4347413866
 21
45.0993070819
 31
0.0
 11
-49.5011026089
 21
45.4276042314
 31
0.0
 11
-49.567098716
 21
45.6849843933
 31
0.0
  0
SPLINE
  5
3A8
100
AcDbEntity
  8
RACCORDO
100
AcDbSpline
 62
253
  6
CONTINUOUS
 70
0
 71
3
 72
19
 73
15
 74
13
 42
0.0000001
 43
0.0000001
 44
0.0000000001
 12
0.8423048372
 22
13.498911088
 32
0.0
 13
-2.4349313446
 23
13.3041793189
 33
0.0
 40
0.0
 40
0.0
 40
0.0
 40
0.0
 40
0.1851296611
 40
0.3606541658
 40
0.5222907437
 40
0.666064279
 40
0.7884183881
 40
0.8405921196
 40
0.886320308
 40
0.9253242652
 40
0.9573734266
 40
0.9822956134
 40
0.9920517612
 40
1.0
 40
1.0
 40
1.0
 40
1.0
 10
-49.9800854216
 20
31.5926933218
 30
0.0
 10
-49.9281068852
 20
32.4257096001
 30
0.0
 10
-49.8282201428
 20
34.0486089397
 30
0.0
 10
-49.6892769951
 20
36.3991981844
 30
0.0
 10
-49.5693060958
 20
38.5641256532
 30
0.0
 10
-49.4737672858
 20
40.4902957057
 30
0.0
 10
-49.4156271253
 20
41.924186358
 30
0.0
 10
-49.3875460631
 20
42.9168041025
 30
0.0
 10
-49.3767040551
 20
43.5339455804
 30
0.0
 10
-49.3751208484
 20
44.0604749622
 30
0.0
 10
-49.3830773276
 20
44.4931147458
 30
0.0
 10
-49.3981639273
 20
44.7937075213
 30
0.0
 10
-49.4169725303
 20
44.9849917934
 30
0.0
 10
-49.4282902481
 20
45.0640588173
 30
0.0
 10
-49.4347413866
 20
45.0993070819
 30
0.0
 11
-49.9800854216
 21
31.5926933218
 31
0.0
 11
-49.8265989072
 21
34.0918937706
 31
0.0
 11
-49.6870968147
 21
36.4617893002
 31
0.0
 11
-49.5670836041
 21
38.6446539699
 31
0.0
 11
-49.4721436369
 21
40.5868956761
 31
0.0
 11
-49.4075400319
 21
42.2404936424
 31
0.0
 11
-49.388067243
 21
42.94588322
 31
0.0
 11
-49.3777913471
 21
43.5642791242
 31
0.0
 11
-49.3770918185
 21
44.0918136034
 31
0.0
 11
-49.3862497916
 21
44.525187035
 31
0.0
 11
-49.4054463327
 21
44.8617166487
 31
0.0
 11
-49.4188348473
 21
44.9929891714
 31
0.0
 11
-49.4347413866
 21
45.0993070819
 31
0.0
  0
LINE
  5
3A9
100
AcDbEntity
  8
RACCORDO
100
AcDbLine
 62
253
  6
CONTINUOUS
 10
-51.8316210376
 20
-23.170898601
 11
-51.9053362777
 21
-23.2762103377
  0
SPLINE
  5
3AA
100
AcDbEntity
  8
RACCORDO
100
AcDbSpline
 62
253
  6
CONTINUOUS
 70
0
 71
3
 72
9
 73
5
 74
3
 42
0.0000001
 43
0.0000001
 44
0.0000000001
 12
0.0499837448
 22
-1.1577964324
 32
0.0
 13
0.027968502
 23
-1.1585373177
 33
0.0
 40
0.0
 40
0.0
 40
0.0
 40
0.0
 40
0.5588798668
 40
1.0
 40
1.0
 40
1.0
 40
1.0
 10
-51.8736376095
 20
-21.7162504824
 30
0.0
 10
-51.8643259732
 20
-21.9319401877
 30
0.0
 10
-51.8488563438
 20
-22.3179220043
 30
0.0
 10
-51.8359277406
 20
-22.7040086629
 30
0.0
 10
-51.8318152509
 20
-22.8743600416
 30
0.0
 11
-51.8736376095
 21
-21.7162504824
 31
0.0
 11
-51.8478283255
 21
-22.3634078673
 31
0.0
 11
-51.8318152509
 21
-22.8743600416
 31
0.0
  0
SPLINE
  5
3AB
100
AcDbEntity
  8
RACCORDO
100
AcDbSpline
 62
253
  6
CONTINUOUS
 70
0
 71
3
 72
14
 73
10
 74
8
 42
0.0000001
 43
0.0000001
 44
0.0000000001
 12
0.0024223647
 22
-0.1630151049
 32
0.0
 13
-0.0934881139
 23
-0.1335655825
 33
0.0
 40
0.0
 40
0.0
 40
0.0
 40
0.0
 40
0.4167900625
 40
0.5847126586
 40
0.7249000279
 40
0.8367861661
 40
0.9199045379
 40
0.9741887151
 40
1.0
 40
1.0
 40
1.0
 40
1.0
 10
-51.8291210269
 20
-23.0080734112
 30
0.0
 10
-51.8287844877
 20
-23.0307211031
 30
0.0
 10
-51.8284101541
 20
-23.062499217
 30
0.0
 10
-51.8283663206
 20
-23.1018857126
 30
0.0
 10
-51.8285233007
 20
-23.1247270768
 30
0.0
 10
-51.8289619122
 20
-23.1428935885
 30
0.0
 10
-51.8294101957
 20
-23.1565407121
 30
0.0
 10
-51.8304018648
 20
-23.1651649163
 30
0.0
 10
-51.8308166881
 20
-23.1697494346
 30
0.0
 10
-51.8316210376
 20
-23.170898601
 30
0.0
 11
-51.8291210269
 21
-23.0080734112
 31
0.0
 11
-51.8284230633
 21
-23.0760204032
 31
0.0
 11
-51.8284043843
 21
-23.1033973385
 31
0.0
 11
-51.8286067568
 21
-23.1262516241
 31
0.0
 11
-51.8290309935
 21
-23.1444878344
 31
0.0
 11
-51.8296771285
 21
-23.1580234672
 31
0.0
 11
-51.8305418698
 21
-23.1668312369
 31
0.0
 11
-51.8316210376
 21
-23.170898601
 31
0.0
  0
LINE
  5
3AC
100
AcDbEntity
  8
RACCORDO
100
AcDbLine
 62
253
  6
CONTINUOUS
 10
-52.3451719738
 20
0.0
 11
-52.3438190394
 21
-1.1634896994
  0
LINE
  5
3AD
100
AcDbEntity
  8
RACCORDO
100
AcDbLine
 62
253
  6
CONTINUOUS
 10
-51.9227184589
 20
-20.5555202563
 11
-51.8736376095
 21
-21.7162504824
  0
LINE
  5
3AE
100
AcDbEntity
  8
RACCORDO
100
AcDbLine
 62
253
  6
CONTINUOUS
 10
-51.9062575304
 20
23.277526467
 11
-51.8832240748
 21
23.2446201925
  0
LINE
  5
3AF
100
AcDbEntity
  8
RACCORDO
100
AcDbLine
 62
253
  6
CONTINUOUS
 10
-51.8832240748
 20
23.2446201925
 11
-51.8316210376
 21
23.170898601
  0
LINE
  5
3B0
100
AcDbEntity
  8
RACCORDO
100
AcDbLine
 62
253
  6
CONTINUOUS
 10
-51.8736534991
 20
21.715884787
 11
-51.9133767717
 21
20.7813653489
  0
LINE
  5
3B1
100
AcDbEntity
  8
RACCORDO
100
AcDbLine
 62
253
  6
CONTINUOUS
 10
-52.343839174
 20
1.1547767836
 11
-52.3451719738
 21
0.0
  0
SPLINE
  5
3B2
100
AcDbEntity
  8
RACCORDO
100
AcDbSpline
 62
253
  6
CONTINUOUS
 70
0
 71
3
 72
14
 73
10
 74
8
 42
0.0000001
 43
0.0000001
 44
0.0000000001
 12
0.0961870725
 22
-0.1374124595
 32
0.0
 13
-0.0025788866
 23
-0.1677125108
 33
0.0
 40
0.0
 40
0.0
 40
0.0
 40
0.0
 40
0.0256549636
 40
0.079852156
 40
0.1630575231
 40
0.2750630981
 40
0.4153020831
 40
0.5831684452
 40
1.0
 40
1.0
 40
1.0
 40
1.0
 10
-51.8316210376
 20
23.170898601
 30
0.0
 10
-51.830798479
 20
23.1697234971
 30
0.0
 10
-51.8303881011
 20
23.1650169694
 30
0.0
 10
-51.8293791506
 20
23.156153921
 30
0.0
 10
-51.8289397058
 20
23.1421045523
 30
0.0
 10
-51.8285050696
 20
23.1234002736
 30
0.0
 10
-51.8283616474
 20
23.0998937765
 30
0.0
 10
-51.8284307274
 20
23.0593700993
 30
0.0
 10
-51.8288326812
 20
23.0266770064
 30
0.0
 10
-51.8291910017
 20
23.0033743842
 30
0.0
 11
-51.8316210376
 21
23.170898601
 31
0.0
 11
-51.8305261439
 21
23.1667370563
 31
0.0
 11
-51.8296532562
 21
23.1576884393
 31
0.0
 11
-51.8290069865
 21
23.14374718
 31
0.0
 11
-51.8285891122
 21
23.124964871
 31
0.0
 11
-51.8283989534
 21
23.1014430269
 31
0.0
 11
-51.8284355422
 21
23.0732864335
 31
0.0
 11
-51.8291910017
 21
23.0033743842
 31
0.0
  0
SPLINE
  5
3B3
100
AcDbEntity
  8
RACCORDO
100
AcDbSpline
 62
253
  6
CONTINUOUS
 70
0
 71
3
 72
9
 73
5
 74
3
 42
0.0000001
 43
0.0000001
 44
0.0000000001
 12
-0.0286806745
 22
-1.1295517175
 32
0.0
 13
-0.0487972944
 23
-1.1288615893
 33
0.0
 40
0.0
 40
0.0
 40
0.0
 40
0.0
 40
0.445504474
 40
1.0
 40
1.0
 40
1.0
 40
1.0
 10
-51.8325423433
 20
22.8450433353
 30
0.0
 10
-51.8368014662
 20
22.6773032207
 30
0.0
 10
-51.8495176721
 20
22.3008700459
 30
0.0
 10
-51.8646342053
 20
21.9245343539
 30
0.0
 10
-51.8736534991
 20
21.715884787
 30
0.0
 11
-51.8325423433
 21
22.8450433353
 31
0.0
 11
-51.8486081226
 21
22.3419172414
 31
0.0
 11
-51.8736534991
 21
21.715884787
 31
0.0
  0
LINE
  5
3B4
100
AcDbEntity
  8
RACCORDO
100
AcDbLine
 62
253
  6
CONTINUOUS
 10
-49.9060257
 20
-46.8316723162
 11
-49.868462113
 21
-46.7041308812
  0
LINE
  5
3B5
100
AcDbEntity
  8
RACCORDO
100
AcDbLine
 62
253
  6
CONTINUOUS
 10
-49.868462113
 20
-46.7041308812
 11
-49.567098716
 21
-45.6849843933
  0
LINE
  5
3B6
100
AcDbEntity
  8
RACCORDO
100
AcDbLine
 62
253
  6
CONTINUOUS
 10
-49.6240073767
 20
-47.0943377917
 11
-49.285147774
 21
-45.9475665537
  0
SPLINE
  5
3B7
100
AcDbEntity
  8
0
100
AcDbSpline
 62
253
  6
CONTINUOUS
 70
0
 71
3
 72
10
 73
6
 74
4
 42
0.0000001
 43
0.0000001
 44
0.0000000001
 12
-2.7847983184
 22
-0.3242269735
 32
0.0
 13
-2.8028916879
 23
0.0634270478
 33
0.0
 40
0.0
 40
0.0
 40
0.0
 40
0.0
 40
0.2115366448
 40
0.4538224025
 40
1.0
 40
1.0
 40
1.0
 40
1.0
 10
-43.8538503477
 20
27.4465300118
 30
0.0
 10
-44.0502126452
 20
27.4236680497
 30
0.0
 10
-44.4727715672
 20
27.3855610415
 30
0.0
 10
-45.4060961948
 20
27.3357682155
 30
0.0
 10
-46.1435581316
 20
27.3327372178
 30
0.0
 10
-46.6538503477
 20
27.3442846954
 30
0.0
 11
-43.8538503477
 21
27.4465300118
 31
0.0
 11
-44.4443590288
 21
27.3915128481
 31
0.0
 11
-45.1226146746
 21
27.3543208007
 31
0.0
 11
-46.6538503477
 21
27.3442846954
 31
0.0
  0
SPLINE
  5
3B8
100
AcDbEntity
  8
0
100
AcDbSpline
 62
253
  6
CONTINUOUS
 70
0
 71
3
 72
10
 73
6
 74
4
 42
0.0000001
 43
0.0000001
 44
0.0000000001
 12
-2.7870483627
 22
-0.2993900987
 32
0.0
 13
-2.8024932603
 23
0.0574850663
 33
0.0
 40
0.0
 40
0.0
 40
0.0
 40
0.0
 40
0.211372752
 40
0.4536524943
 40
1.0
 40
1.0
 40
1.0
 40
1.0
 10
-43.8538503477
 20
27.6907264237
 30
0.0
 10
-44.0502190418
 20
27.6696321206
 30
0.0
 10
-44.472768473
 20
27.6344553984
 30
0.0
 10
-45.4060906347
 20
27.5883841384
 30
0.0
 10
-46.1434719468
 20
27.5853772729
 30
0.0
 10
-46.6538503477
 20
27.5958462137
 30
0.0
 11
-43.8538503477
 21
27.6907264237
 31
0.0
 11
-44.4441660174
 21
27.639951303
 31
0.0
 11
-45.1224237384
 21
27.6055383261
 31
0.0
 11
-46.6538503477
 21
27.5958462137
 31
0.0
  0
SPLINE
  5
3B9
100
AcDbEntity
  8
0
100
AcDbSpline
 62
253
  6
CONTINUOUS
 70
0
 71
3
 72
10
 73
6
 74
4
 42
0.0000001
 43
0.0000001
 44
0.0000000001
 12
-2.796317191
 22
0.1620962136
 32
0.0
 13
-2.8009913017
 23
-0.0106180626
 33
0.0
 40
0.0
 40
0.0
 40
0.0
 40
0.0
 40
0.2102050263
 40
0.4525030521
 40
1.0
 40
1.0
 40
1.0
 40
1.0
 10
-43.8538503477
 20
31.3270679221
 30
0.0
 10
-44.0497836572
 20
31.338425735
 30
0.0
 10
-44.4718670735
 20
31.3576990505
 30
0.0
 10
-45.4051696011
 20
31.3847096531
 30
0.0
 10
-46.1426722847
 20
31.3902267899
 30
0.0
 10
-46.6538503477
 20
31.3882890043
 30
0.0
 11
-43.8538503477
 21
31.3270679221
 31
0.0
 11
-44.4419830719
 21
31.3548105609
 31
0.0
 11
-45.1203629146
 21
31.3749775098
 31
0.0
 11
-46.6538503477
 21
31.3882890043
 31
0.0
  0
SPLINE
  5
3BA
100
AcDbEntity
  8
0
100
AcDbSpline
 62
253
  6
CONTINUOUS
 70
0
 71
3
 72
10
 73
6
 74
4
 42
0.0000001
 43
0.0000001
 44
0.0000000001
 12
-2.7949887109
 22
0.189344728
 32
0.0
 13
-2.8013731079
 23
-0.0110467431
 33
0.0
 40
0.0
 40
0.0
 40
0.0
 40
0.0
 40
0.2102405523
 40
0.4525499525
 40
1.0
 40
1.0
 40
1.0
 40
1.0
 10
-43.8538503477
 20
31.4912356855
 30
0.0
 10
-44.0497236711
 20
31.5045049989
 30
0.0
 10
-44.4717577724
 20
31.5270674023
 30
0.0
 10
-45.405046143
 20
31.5588417994
 30
0.0
 10
-46.1426464007
 20
31.5655750091
 30
0.0
 10
-46.6538503477
 20
31.5635591625
 30
0.0
 11
-43.8538503477
 21
31.4912356855
 31
0.0
 11
-44.441921608
 21
31.5237025053
 31
0.0
 11
-45.1203115298
 21
31.547417735
 31
0.0
 11
-46.6538503477
 21
31.5635591625
 31
0.0
  0
SPLINE
  5
3BB
100
AcDbEntity
  8
0
100
AcDbSpline
 62
253
  6
CONTINUOUS
 70
0
 71
3
 72
11
 73
7
 74
5
 42
0.0000001
 43
0.0000001
 44
0.0000000001
 12
3.1377900767
 22
-0.1533971673
 32
0.0
 13
2.19327224
 23
-2.2491807703
 33
0.0
 40
0.0
 40
0.0
 40
0.0
 40
0.0
 40
0.2458555129
 40
0.4911837802
 40
0.7414036198
 40
1.0
 40
1.0
 40
1.0
 40
1.0
 10
-46.6538503477
 20
44.9256570471
 30
0.0
 10
-46.3967026847
 20
44.9130858674
 30
0.0
 10
-45.8839963608
 20
44.8405151853
 30
0.0
 10
-45.1445008003
 20
44.590295058
 30
0.0
 10
-44.4524222549
 20
44.2007082258
 30
0.0
 10
-44.0429077684
 20
43.8538034178
 30
0.0
 10
-43.8538503477
 20
43.6599267493
 30
0.0
 11
-46.6538503477
 21
44.9256570471
 31
0.0
 11
-45.8891549096
 21
44.8170868721
 31
0.0
 11
-45.1590627978
 21
44.5701937409
 31
0.0
 11
-44.4739971652
 21
44.1847083831
 31
0.0
 11
-43.8538503477
 21
43.6599267493
 31
0.0
  0
SPLINE
  5
3BC
100
AcDbEntity
  8
0
100
AcDbSpline
 62
253
  6
CONTINUOUS
 70
0
 71
3
 72
11
 73
7
 74
5
 42
0.0000001
 43
0.0000001
 44
0.0000000001
 12
3.1422484917
 22
-0.1535119327
 32
0.0
 13
2.1885743535
 23
-2.2599632289
 33
0.0
 40
0.0
 40
0.0
 40
0.0
 40
0.0
 40
0.2452308319
 40
0.4901025679
 40
0.7404412225
 40
1.0
 40
1.0
 40
1.0
 40
1.0
 10
-46.6538503477
 20
44.9953856079
 30
0.0
 10
-46.3969916104
 20
44.9828369883
 30
0.0
 10
-45.8846847496
 20
44.9099920855
 30
0.0
 10
-45.1455299058
 20
44.6583252215
 30
0.0
 10
-44.4529752255
 20
44.2658718015
 30
0.0
 10
-44.0432049089
 20
43.9163001697
 30
0.0
 10
-43.8538503477
 20
43.720769072
 30
0.0
 11
-46.6538503477
 21
44.9953856079
 31
0.0
 11
-45.8900817729
 21
44.8864706273
 31
0.0
 11
-45.1607577561
 21
44.6383788603
 31
0.0
 11
-44.4754390915
 21
44.2503117745
 31
0.0
 11
-43.8538503477
 21
43.720769072
 31
0.0
  0
SPLINE
  5
3BD
100
AcDbEntity
  8
0
100
AcDbSpline
 62
253
  6
CONTINUOUS
 70
0
 71
3
 72
11
 73
7
 74
5
 42
0.0000001
 43
0.0000001
 44
0.0000000001
 12
3.1647788997
 22
-0.1256403962
 32
0.0
 13
2.1616878046
 23
-2.3148902411
 33
0.0
 40
0.0
 40
0.0
 40
0.0
 40
0.0
 40
0.2403487932
 40
0.4811394419
 40
0.7322127093
 40
1.0
 40
1.0
 40
1.0
 40
1.0
 10
-46.6538503477
 20
45.55326706
 30
0.0
 10
-46.4003000846
 20
45.5432012208
 30
0.0
 10
-45.8932724162
 20
45.4737225955
 30
0.0
 10
-45.1580090562
 20
45.2202255552
 30
0.0
 10
-44.4605075014
 20
44.8145032785
 30
0.0
 10
-44.0468078545
 20
44.449018112
 30
0.0
 10
-43.8538503477
 20
44.2423853834
 30
0.0
 11
-46.6538503477
 21
45.55326706
 31
0.0
 11
-45.8996979928
 21
45.4495571808
 31
0.0
 11
-45.1784696722
 21
45.2016380731
 31
0.0
 11
-44.4905380971
 21
44.8027387235
 31
0.0
 11
-43.8538503477
 21
44.2423853834
 31
0.0
  0
SPLINE
  5
3BE
100
AcDbEntity
  8
0
100
AcDbSpline
 62
253
  6
CONTINUOUS
 70
0
 71
3
 72
11
 73
7
 74
5
 42
0.0000001
 43
0.0000001
 44
0.0000000001
 12
3.1598462349
 22
-0.1289216187
 32
0.0
 13
2.1565520229
 23
-2.3131217834
 33
0.0
 40
0.0
 40
0.0
 40
0.0
 40
0.0
 40
0.2399871546
 40
0.4805172842
 40
0.7316605769
 40
1.0
 40
1.0
 40
1.0
 40
1.0
 10
-46.6479945414
 20
45.5866937604
 30
0.0
 10
-46.3952203724
 20
45.576380583
 30
0.0
 10
-45.8896928739
 20
45.5065492821
 30
0.0
 10
-45.1563597065
 20
45.2528790835
 30
0.0
 10
-44.4599785281
 20
44.8469049564
 30
0.0
 10
-44.0467463229
 20
44.4811583397
 30
0.0
 10
-43.8538503477
 20
44.2742577514
 30
0.0
 11
-46.6479945414
 21
45.5866937604
 31
0.0
 11
-45.8962285433
 21
45.48249125
 31
0.0
 11
-45.1771179031
 21
45.2345001599
 31
0.0
 11
-44.4904026827
 21
44.8354631692
 31
0.0
 11
-43.8538503477
 21
44.2742577514
 31
0.0
  0
SPLINE
  5
3BF
100
AcDbEntity
  8
0
100
AcDbSpline
 62
253
  6
CONTINUOUS
 70
0
 71
3
 72
10
 73
6
 74
4
 42
0.0000001
 43
0.0000001
 44
0.0000000001
 12
-2.7847983184
 22
0.3242269735
 32
0.0
 13
-2.8028916879
 23
-0.0634270478
 33
0.0
 40
0.0
 40
0.0
 40
0.0
 40
0.0
 40
0.2115366448
 40
0.4538224025
 40
1.0
 40
1.0
 40
1.0
 40
1.0
 10
-43.8538503477
 20
-27.4465300118
 30
0.0
 10
-44.0502126452
 20
-27.4236680497
 30
0.0
 10
-44.4727715672
 20
-27.3855610415
 30
0.0
 10
-45.4060961948
 20
-27.3357682155
 30
0.0
 10
-46.1435581316
 20
-27.3327372178
 30
0.0
 10
-46.6538503477
 20
-27.3442846954
 30
0.0
 11
-43.8538503477
 21
-27.4465300118
 31
0.0
 11
-44.4443590288
 21
-27.3915128481
 31
0.0
 11
-45.1226146746
 21
-27.3543208007
 31
0.0
 11
-46.6538503477
 21
-27.3442846954
 31
0.0
  0
SPLINE
  5
3C0
100
AcDbEntity
  8
0
100
AcDbSpline
 62
253
  6
CONTINUOUS
 70
0
 71
3
 72
10
 73
6
 74
4
 42
0.0000001
 43
0.0000001
 44
0.0000000001
 12
-2.7870483627
 22
0.2993900987
 32
0.0
 13
-2.8024932603
 23
-0.0574850663
 33
0.0
 40
0.0
 40
0.0
 40
0.0
 40
0.0
 40
0.211372752
 40
0.4536524943
 40
1.0
 40
1.0
 40
1.0
 40
1.0
 10
-43.8538503477
 20
-27.6907264237
 30
0.0
 10
-44.0502190418
 20
-27.6696321206
 30
0.0
 10
-44.472768473
 20
-27.6344553984
 30
0.0
 10
-45.4060906347
 20
-27.5883841384
 30
0.0
 10
-46.1434719468
 20
-27.5853772729
 30
0.0
 10
-46.6538503477
 20
-27.5958462137
 30
0.0
 11
-43.8538503477
 21
-27.6907264237
 31
0.0
 11
-44.4441660174
 21
-27.639951303
 31
0.0
 11
-45.1224237384
 21
-27.6055383261
 31
0.0
 11
-46.6538503477
 21
-27.5958462137
 31
0.0
  0
SPLINE
  5
3C1
100
AcDbEntity
  8
0
100
AcDbSpline
 62
253
  6
CONTINUOUS
 70
0
 71
3
 72
10
 73
6
 74
4
 42
0.0000001
 43
0.0000001
 44
0.0000000001
 12
-2.796317191
 22
-0.1620962136
 32
0.0
 13
-2.8009913017
 23
0.0106180626
 33
0.0
 40
0.0
 40
0.0
 40
0.0
 40
0.0
 40
0.2102050263
 40
0.4525030521
 40
1.0
 40
1.0
 40
1.0
 40
1.0
 10
-43.8538503477
 20
-31.3270679221
 30
0.0
 10
-44.0497836572
 20
-31.338425735
 30
0.0
 10
-44.4718670735
 20
-31.3576990505
 30
0.0
 10
-45.4051696011
 20
-31.3847096531
 30
0.0
 10
-46.1426722847
 20
-31.3902267899
 30
0.0
 10
-46.6538503477
 20
-31.3882890043
 30
0.0
 11
-43.8538503477
 21
-31.3270679221
 31
0.0
 11
-44.4419830719
 21
-31.3548105609
 31
0.0
 11
-45.1203629146
 21
-31.3749775098
 31
0.0
 11
-46.6538503477
 21
-31.3882890043
 31
0.0
  0
SPLINE
  5
3C2
100
AcDbEntity
  8
0
100
AcDbSpline
 62
253
  6
CONTINUOUS
 70
0
 71
3
 72
10
 73
6
 74
4
 42
0.0000001
 43
0.0000001
 44
0.0000000001
 12
-2.7949887109
 22
-0.189344728
 32
0.0
 13
-2.8013731079
 23
0.0110467431
 33
0.0
 40
0.0
 40
0.0
 40
0.0
 40
0.0
 40
0.2102405523
 40
0.4525499525
 40
1.0
 40
1.0
 40
1.0
 40
1.0
 10
-43.8538503477
 20
-31.4912356855
 30
0.0
 10
-44.0497236711
 20
-31.5045049989
 30
0.0
 10
-44.4717577724
 20
-31.5270674023
 30
0.0
 10
-45.405046143
 20
-31.5588417994
 30
0.0
 10
-46.1426464007
 20
-31.5655750091
 30
0.0
 10
-46.6538503477
 20
-31.5635591625
 30
0.0
 11
-43.8538503477
 21
-31.4912356855
 31
0.0
 11
-44.441921608
 21
-31.5237025053
 31
0.0
 11
-45.1203115298
 21
-31.547417735
 31
0.0
 11
-46.6538503477
 21
-31.5635591625
 31
0.0
  0
SPLINE
  5
3C3
100
AcDbEntity
  8
RACCORDO
100
AcDbSpline
 62
253
  6
CONTINUOUS
 70
0
 71
3
 72
19
 73
15
 74
13
 42
0.0000001
 43
0.0000001
 44
0.0000000001
 12
2.4349735834
 22
13.3041715932
 32
0.0
 13
-0.8423047277
 23
13.4989110998
 33
0.0
 40
0.0
 40
0.0
 40
0.0
 40
0.0
 40
0.0079482156
 40
0.0177043875
 40
0.042626571
 40
0.0746757185
 40
0.1136796893
 40
0.1594078736
 40
0.2115816089
 40
0.333935722
 40
0.4777092627
 40
0.639345845
 40
0.8148703583
 40
1.0
 40
1.0
 40
1.0
 40
1.0
 10
-49.4347413866
 20
-45.0993070819
 30
0.0
 10
-49.428290155
 20
-45.0640589406
 30
0.0
 10
-49.4169724452
 20
-44.9849919046
 30
0.0
 10
-49.3981640111
 20
-44.7937076307
 30
0.0
 10
-49.3830772997
 20
-44.4931148328
 30
0.0
 10
-49.3751208166
 20
-44.0604750624
 30
0.0
 10
-49.3767040676
 20
-43.5339457016
 30
0.0
 10
-49.3875460463
 20
-42.9168041627
 30
0.0
 10
-49.4156271292
 20
-41.9241864015
 30
0.0
 10
-49.4737672832
 20
-40.4902956886
 30
0.0
 10
-49.5693061054
 20
-38.5641255738
 30
0.0
 10
-49.6892770014
 20
-36.3991980212
 30
0.0
 10
-49.8282201574
 20
-34.0486088052
 30
0.0
 10
-49.9281068974
 20
-32.4257095136
 30
0.0
 10
-49.9800854216
 20
-31.5926933218
 30
0.0
 11
-49.4347413866
 21
-45.0993070819
 31
0.0
 11
-49.4188347997
 21
-44.9929894956
 31
0.0
 11
-49.4054463319
 21
-44.8617166407
 31
0.0
 11
-49.3862497906
 21
-44.5251870716
 31
0.0
 11
-49.3770917942
 21
-44.0918138283
 31
0.0
 11
-49.3777913472
 21
-43.5642791651
 31
0.0
 11
-49.3880672335
 21
-42.9458833165
 31
0.0
 11
-49.4075400276
 21
-42.2404936864
 31
0.0
 11
-49.4721436375
 21
-40.5868956657
 31
0.0
 11
-49.567083611
 21
-38.6446538855
 31
0.0
 11
-49.687096823
 21
-36.4617891562
 31
0.0
 11
-49.8265989277
 21
-34.0918935103
 31
0.0
 11
-49.9800854216
 21
-31.5926933218
 31
0.0
  0
SPLINE
  5
3C4
100
AcDbEntity
  8
0
100
AcDbSpline
 62
253
  6
CONTINUOUS
 70
0
 71
3
 72
11
 73
7
 74
5
 42
0.0000001
 43
0.0000001
 44
0.0000000001
 12
3.1377900767
 22
0.1533971673
 32
0.0
 13
2.19327224
 23
2.2491807703
 33
0.0
 40
0.0
 40
0.0
 40
0.0
 40
0.0
 40
0.2458555129
 40
0.4911837802
 40
0.7414036198
 40
1.0
 40
1.0
 40
1.0
 40
1.0
 10
-46.6538503477
 20
-44.9256570471
 30
0.0
 10
-46.3967026847
 20
-44.9130858674
 30
0.0
 10
-45.8839963608
 20
-44.8405151853
 30
0.0
 10
-45.1445008003
 20
-44.590295058
 30
0.0
 10
-44.4524222549
 20
-44.2007082258
 30
0.0
 10
-44.0429077684
 20
-43.8538034178
 30
0.0
 10
-43.8538503477
 20
-43.6599267493
 30
0.0
 11
-46.6538503477
 21
-44.9256570471
 31
0.0
 11
-45.8891549096
 21
-44.8170868721
 31
0.0
 11
-45.1590627978
 21
-44.5701937409
 31
0.0
 11
-44.4739971652
 21
-44.1847083831
 31
0.0
 11
-43.8538503477
 21
-43.6599267493
 31
0.0
  0
SPLINE
  5
3C5
100
AcDbEntity
  8
0
100
AcDbSpline
 62
253
  6
CONTINUOUS
 70
0
 71
3
 72
11
 73
7
 74
5
 42
0.0000001
 43
0.0000001
 44
0.0000000001
 12
3.1422484917
 22
0.1535119327
 32
0.0
 13
2.1885743535
 23
2.2599632289
 33
0.0
 40
0.0
 40
0.0
 40
0.0
 40
0.0
 40
0.2452308319
 40
0.4901025679
 40
0.7404412225
 40
1.0
 40
1.0
 40
1.0
 40
1.0
 10
-46.6538503477
 20
-44.9953856079
 30
0.0
 10
-46.3969916104
 20
-44.9828369883
 30
0.0
 10
-45.8846847496
 20
-44.9099920855
 30
0.0
 10
-45.1455299058
 20
-44.6583252215
 30
0.0
 10
-44.4529752255
 20
-44.2658718015
 30
0.0
 10
-44.0432049089
 20
-43.9163001697
 30
0.0
 10
-43.8538503477
 20
-43.720769072
 30
0.0
 11
-46.6538503477
 21
-44.9953856079
 31
0.0
 11
-45.8900817729
 21
-44.8864706273
 31
0.0
 11
-45.1607577561
 21
-44.6383788603
 31
0.0
 11
-44.4754390915
 21
-44.2503117745
 31
0.0
 11
-43.8538503477
 21
-43.720769072
 31
0.0
  0
SPLINE
  5
3C6
100
AcDbEntity
  8
RACCORDO
100
AcDbSpline
 62
253
  6
CONTINUOUS
 70
0
 71
3
 72
9
 73
5
 74
3
 42
0.0000001
 43
0.0000001
 44
0.0000000001
 12
0.1708769443
 22
0.5758245843
 32
0.0
 13
0.1081480925
 23
0.5908272777
 33
0.0
 40
0.0
 40
0.0
 40
0.0
 40
0.0
 40
0.4423698421
 40
1.0
 40
1.0
 40
1.0
 40
1.0
 10
-49.567098716
 20
-45.6849843933
 30
0.0
 10
-49.5419017803
 20
-45.6000752498
 30
0.0
 10
-49.4937365841
 20
-45.4055588043
 30
0.0
 10
-49.4548435993
 20
-45.2091281179
 30
0.0
 10
-49.4347413866
 20
-45.0993070819
 30
0.0
 11
-49.567098716
 21
-45.6849843933
 31
0.0
 11
-49.5011026089
 21
-45.4276042314
 31
0.0
 11
-49.4347413866
 21
-45.0993070819
 31
0.0
  0
SPLINE
  5
3C7
100
AcDbEntity
  8
0
100
AcDbSpline
 62
253
  6
CONTINUOUS
 70
0
 71
3
 72
11
 73
7
 74
5
 42
0.0000001
 43
0.0000001
 44
0.0000000001
 12
3.1647788997
 22
0.1256403962
 32
0.0
 13
2.1616878046
 23
2.3148902411
 33
0.0
 40
0.0
 40
0.0
 40
0.0
 40
0.0
 40
0.2403487932
 40
0.4811394419
 40
0.7322127093
 40
1.0
 40
1.0
 40
1.0
 40
1.0
 10
-46.6538503477
 20
-45.55326706
 30
0.0
 10
-46.4003000846
 20
-45.5432012208
 30
0.0
 10
-45.8932724162
 20
-45.4737225955
 30
0.0
 10
-45.1580090562
 20
-45.2202255552
 30
0.0
 10
-44.4605075014
 20
-44.8145032785
 30
0.0
 10
-44.0468078545
 20
-44.449018112
 30
0.0
 10
-43.8538503477
 20
-44.2423853834
 30
0.0
 11
-46.6538503477
 21
-45.55326706
 31
0.0
 11
-45.8996979928
 21
-45.4495571808
 31
0.0
 11
-45.1784696722
 21
-45.2016380731
 31
0.0
 11
-44.4905380971
 21
-44.8027387235
 31
0.0
 11
-43.8538503477
 21
-44.2423853834
 31
0.0
  0
LINE
  5
3C8
100
AcDbEntity
  8
0
100
AcDbLine
 62
7
  6
CONTINUOUS
 10
-51.8323703212
 20
-27.3236280866
 11
-51.8524445542
 21
-26.9820538453
  0
LINE
  5
3C9
100
AcDbEntity
  8
0
100
AcDbLine
 62
7
  6
CONTINUOUS
 10
-51.8524445542
 20
-26.9820538453
 11
-51.8623383482
 21
-26.8112583407
  0
LINE
  5
3CA
100
AcDbEntity
  8
0
100
AcDbLine
 62
7
  6
CONTINUOUS
 10
-51.8623383482
 20
-26.8112583407
 11
-51.8769998749
 21
-26.5550547959
  0
SPLINE
  5
3CB
100
AcDbEntity
  8
0
100
AcDbSpline
 62
7
  6
CONTINUOUS
 70
0
 71
3
 72
10
 73
6
 74
4
 42
0.0000001
 43
0.0000001
 44
0.0000000001
 12
-0.0006375402
 22
0.0262231157
 32
0.0
 13
0.0073223406
 23
0.0251881239
 33
0.0
 40
0.0
 40
0.0
 40
0.0
 40
0.0
 40
0.6954683502
 40
0.9027915988
 40
1.0
 40
1.0
 40
1.0
 40
1.0
 10
-51.8769998749
 20
-26.5550547959
 30
0.0
 10
-51.8771476713
 20
-26.5489756803
 30
0.0
 10
-51.877429512
 20
-26.5410529341
 30
0.0
 10
-51.8772313012
 20
-26.5323622439
 30
0.0
 10
-51.8772414456
 20
-26.5296542403
 30
0.0
 10
-51.8770041813
 20
-26.5288380746
 30
0.0
 11
-51.8769998749
 21
-26.5550547959
 31
0.0
 11
-51.8773084557
 21
-26.5368146699
 31
0.0
 11
-51.8772421533
 21
-26.531376806
 31
0.0
 11
-51.8770041813
 21
-26.5288380746
 31
0.0
  0
SPLINE
  5
3CC
100
AcDbEntity
  8
0
100
AcDbSpline
 62
7
  6
CONTINUOUS
 70
0
 71
3
 72
15
 73
11
 74
9
 42
0.0000001
 43
0.0000001
 44
0.0000000001
 12
-0.0070825044
 22
0.095367247
 32
0.0
 13
-0.0955898489
 23
0.0027666693
 33
0.0
 40
0.0
 40
0.0
 40
0.0
 40
0.0
 40
0.276974906
 40
0.4970154459
 40
0.6668020803
 40
0.794137498
 40
0.8868910775
 40
0.949984086
 40
0.9867750562
 40
1.0
 40
1.0
 40
1.0
 40
1.0
 10
-51.8948495745
 20
-26.1402838735
 30
0.0
 10
-51.8955034665
 20
-26.1314790954
 30
0.0
 10
-51.8967050731
 20
-26.1156851048
 30
0.0
 10
-51.8984220879
 20
-26.0944865144
 30
0.0
 10
-51.8998830106
 20
-26.0780970794
 30
0.0
 10
-51.9010852636
 20
-26.0656506039
 30
0.0
 10
-51.9021538429
 20
-26.0568646723
 30
0.0
 10
-51.902883741
 20
-26.0503911967
 30
0.0
 10
-51.903713295
 20
-26.0475055199
 30
0.0
 10
-51.9039830115
 20
-26.0452673117
 30
0.0
 10
-51.9044044016
 20
-26.0452551153
 30
0.0
 11
-51.8948495745
 21
-26.1402838735
 31
0.0
 11
-51.8968670081
 21
-26.1138737393
 31
0.0
 11
-51.8985825278
 21
-26.092901336
 31
0.0
 11
-51.9000280399
 21
-26.076729134
 31
0.0
 11
-51.9012427209
 21
-26.0646127981
 31
0.0
 11
-51.9022666218
 21
-26.0558020792
 31
0.0
 11
-51.9031246851
 21
-26.0498298287
 31
0.0
 11
-51.9038335883
 21
-26.0463836709
 31
0.0
 11
-51.9044044016
 21
-26.0452551153
 31
0.0
  0
SPLINE
  5
3CD
100
AcDbEntity
  8
0
100
AcDbSpline
 62
7
  6
CONTINUOUS
 70
0
 71
3
 72
12
 73
8
 74
6
 42
0.0000001
 43
0.0000001
 44
0.0000000001
 12
-0.0022194017
 22
0.3304949296
 32
0.0
 13
-0.0183257742
 23
0.3299939245
 33
0.0
 40
0.0
 40
0.0
 40
0.0
 40
0.0
 40
0.0683837291
 40
0.1781283454
 40
0.4180519878
 40
0.6922643252
 40
1.0
 40
1.0
 40
1.0
 40
1.0
 10
-51.8127501676
 20
-27.554380628
 30
0.0
 10
-51.8128007579
 20
-27.5468471361
 30
0.0
 10
-51.8140897004
 20
-27.5272516377
 30
0.0
 10
-51.8162177228
 20
-27.4812533468
 30
0.0
 10
-51.8199196053
 20
-27.4126162386
 30
0.0
 10
-51.8247192697
 20
-27.3222021267
 30
0.0
 10
-51.8282610979
 20
-27.2581877146
 30
0.0
 10
-51.8301409294
 20
-27.2243374136
 30
0.0
 11
-51.8127501676
 21
-27.554380628
 31
0.0
 11
-51.8137340814
 21
-27.5318010698
 31
0.0
 11
-51.8155841154
 21
-27.4955774249
 31
0.0
 11
-51.8197056555
 21
-27.416389275
 31
0.0
 11
-51.8245553123
 21
-27.3258912943
 31
0.0
 11
-51.8301409294
 21
-27.2243374136
 31
0.0
  0
LINE
  5
3CE
100
AcDbEntity
  8
0
100
AcDbLine
 62
7
  6
CONTINUOUS
 10
-51.8301409294
 20
-27.2243374136
 11
-51.8446551975
 21
-26.9674448829
  0
LINE
  5
3CF
100
AcDbEntity
  8
0
100
AcDbLine
 62
7
  6
CONTINUOUS
 10
-51.8446551975
 20
-26.9674448829
 11
-51.8532561918
 21
-26.8183323447
  0
LINE
  5
3D0
100
AcDbEntity
  8
0
100
AcDbLine
 62
7
  6
CONTINUOUS
 10
-51.8532561918
 20
-26.8183323447
 11
-51.8660177611
 21
-26.6005414837
  0
SPLINE
  5
3D1
100
AcDbEntity
  8
0
100
AcDbSpline
 62
7
  6
CONTINUOUS
 70
0
 71
3
 72
9
 73
5
 74
3
 42
0.0000001
 43
0.0000001
 44
0.0000000001
 12
-0.027290019
 22
0.4603529741
 32
0.0
 13
-0.0341668401
 23
0.4598937191
 33
0.0
 40
0.0
 40
0.0
 40
0.0
 40
0.0
 40
0.6014366776
 40
1.0
 40
1.0
 40
1.0
 40
1.0
 10
-51.8660177611
 20
-26.6005414837
 30
0.0
 10
-51.8714888339
 20
-26.5082504293
 30
0.0
 10
-51.8808995984
 20
-26.354820777
 30
0.0
 10
-51.8903103581
 20
-26.2013827964
 30
0.0
 10
-51.8948495745
 20
-26.1402838735
 30
0.0
 11
-51.8660177611
 21
-26.6005414837
 31
0.0
 11
-51.88280879
 21
-26.323690976
 31
0.0
 11
-51.8948495745
 21
-26.1402838735
 31
0.0
  0
LINE
  5
3D2
100
AcDbEntity
  8
0
100
AcDbLine
 62
7
  6
CONTINUOUS
 10
-51.8117555957
 20
-27.5709244369
 11
-51.8127501676
 21
-27.554380628
  0
LINE
  5
3D3
100
AcDbEntity
  8
0
100
AcDbLine
 62
7
  6
CONTINUOUS
 10
-51.7758285003
 20
-28.120100228
 11
-51.7842489945
 21
-27.9880987764
  0
SPLINE
  5
3D4
100
AcDbEntity
  8
0
100
AcDbSpline
 62
7
  6
CONTINUOUS
 70
0
 71
3
 72
9
 73
5
 74
3
 42
0.0000001
 43
0.0000001
 44
0.0000000001
 12
-0.0266074044
 22
0.4172334272
 32
0.0
 13
-0.032269751
 23
0.4168337197
 33
0.0
 40
0.0
 40
0.0
 40
0.0
 40
0.0
 40
0.5800504661
 40
1.0
 40
1.0
 40
1.0
 40
1.0
 10
-51.7842489945
 20
-27.9880987764
 30
0.0
 10
-51.7893935403
 20
-27.9074266284
 30
0.0
 10
-51.7984484319
 20
-27.7683632611
 30
0.0
 10
-51.8072383734
 20
-27.6292741456
 30
0.0
 10
-51.8117555957
 20
-27.5709244369
 30
0.0
 11
-51.7842489945
 21
-27.9880987764
 31
0.0
 11
-51.7998089838
 21
-27.7460904232
 31
0.0
 11
-51.8117555957
 21
-27.5709244369
 31
0.0
  0
LINE
  5
3D5
100
AcDbEntity
  8
0
100
AcDbLine
 62
7
  6
CONTINUOUS
 10
-51.7998003785
 20
-27.9447379176
 11
-51.8034629471
 21
-27.8861619308
  0
LINE
  5
3D6
100
AcDbEntity
  8
0
100
AcDbLine
 62
7
  6
CONTINUOUS
 10
-51.8034629471
 20
-27.8861619308
 11
-51.8099103943
 21
-27.7825872625
  0
LINE
  5
3D7
100
AcDbEntity
  8
0
100
AcDbLine
 62
7
  6
CONTINUOUS
 10
-51.8099103943
 20
-27.7825872625
 11
-51.8380175854
 21
-27.323972735
  0
LINE
  5
3D8
100
AcDbEntity
  8
0
100
AcDbLine
 62
7
  6
CONTINUOUS
 10
-51.8380175854
 20
-27.323972735
 11
-51.8639854336
 21
-26.8894298067
  0
LINE
  5
3D9
100
AcDbEntity
  8
0
100
AcDbLine
 62
7
  6
CONTINUOUS
 10
-51.8639854336
 20
-26.8894298067
 11
-51.8664696312
 21
-26.8472844244
  0
LINE
  5
3DA
100
AcDbEntity
  8
0
100
AcDbLine
 62
7
  6
CONTINUOUS
 10
-51.8664696312
 20
-26.8472844244
 11
-51.8844501919
 21
-26.5391042831
  0
LINE
  5
3DB
100
AcDbEntity
  8
0
100
AcDbLine
 62
7
  6
CONTINUOUS
 10
-51.8844501919
 20
-26.5391042831
 11
-51.8850264468
 21
-26.529134506
  0
LINE
  5
3DC
100
AcDbEntity
  8
0
100
AcDbLine
 62
7
  6
CONTINUOUS
 10
-51.8850264468
 20
-26.529134506
 11
-51.9088863851
 21
-26.1110389835
  0
LINE
  5
3DD
100
AcDbEntity
  8
0
100
AcDbLine
 62
7
  6
CONTINUOUS
 10
-51.7455057674
 20
-28.877801
 11
-51.7494645285
 21
-28.8157019679
  0
SPLINE
  5
3DE
100
AcDbEntity
  8
0
100
AcDbSpline
 62
7
  6
CONTINUOUS
 70
0
 71
3
 72
8
 73
4
 74
2
 42
0.0000001
 43
0.0000001
 44
0.0000000001
 12
-0.0316176434
 22
0.4967944785
 32
0.0
 13
-0.0307796108
 23
0.4968471041
 33
0.0
 40
0.0
 40
0.0
 40
0.0
 40
0.0
 40
1.0
 40
1.0
 40
1.0
 40
1.0
 10
-51.7494645285
 20
-28.8157019679
 30
0.0
 10
-51.7600037429
 20
-28.6501038084
 30
0.0
 10
-51.7704032975
 20
-28.4844967014
 30
0.0
 10
-51.7806631677
 20
-28.318881
 30
0.0
 11
-51.7494645285
 21
-28.8157019679
 31
0.0
 11
-51.7806631677
 21
-28.318881
 31
0.0
  0
LINE
  5
3DF
100
AcDbEntity
  8
0
100
AcDbLine
 62
7
  6
CONTINUOUS
 10
-51.782091292
 20
-28.3191129662
 11
-51.800107604
 21
-28.0295520982
  0
LINE
  5
3E0
100
AcDbEntity
  8
0
100
AcDbLine
 62
7
  6
CONTINUOUS
 10
-51.800107604
 20
-28.0295520982
 11
-51.8053322284
 21
-27.9447387832
  0
LINE
  5
3E1
100
AcDbEntity
  8
0
100
AcDbLine
 62
7
  6
CONTINUOUS
 10
-51.8053322284
 20
-27.9447387832
 11
-51.8089061923
 21
-27.8864980357
  0
SPLINE
  5
3E2
100
AcDbEntity
  8
0
100
AcDbSpline
 62
253
  6
CONTINUOUS
 70
0
 71
3
 72
11
 73
7
 74
5
 42
0.0000001
 43
0.0000001
 44
0.0000000001
 12
3.1598462349
 22
0.1289216187
 32
0.0
 13
2.1565520229
 23
2.3131217834
 33
0.0
 40
0.0
 40
0.0
 40
0.0
 40
0.0
 40
0.2399871546
 40
0.4805172842
 40
0.7316605769
 40
1.0
 40
1.0
 40
1.0
 40
1.0
 10
-46.6479945414
 20
-45.5866937604
 30
0.0
 10
-46.3952203724
 20
-45.576380583
 30
0.0
 10
-45.8896928739
 20
-45.5065492821
 30
0.0
 10
-45.1563597065
 20
-45.2528790835
 30
0.0
 10
-44.4599785281
 20
-44.8469049564
 30
0.0
 10
-44.0467463229
 20
-44.4811583397
 30
0.0
 10
-43.8538503477
 20
-44.2742577514
 30
0.0
 11
-46.6479945414
 21
-45.5866937604
 31
0.0
 11
-45.8962285433
 21
-45.48249125
 31
0.0
 11
-45.1771179031
 21
-45.2345001599
 31
0.0
 11
-44.4904026827
 21
-44.8354631692
 31
0.0
 11
-43.8538503477
 21
-44.2742577514
 31
0.0
  0
ENDSEC
  0
SECTION
  2
OBJECTS
  0
DICTIONARY
  5
C
100
AcDbDictionary
280
0
281
1
  3
ACAD_GROUP
350
D
  3
ACAD_MLINESTYLE
350
17
  3
ACAD_LAYOUT
350
1A
  3
ACAD_PLOTSETTINGS
350
19
  3
ACAD_PLOTSTYLENAME
350
E
  0
DICTIONARY
  5
D
102
{ACAD_REACTORS
330
C
102
}
100
AcDbDictionary
280
0
281
1
  0
ACDBDICTIONARYWDFLT
  5
E
102
{ACAD_REACTORS
330
C
102
}
100
AcDbDictionary
281
1
  3
Normal
350
F
100
AcDbDictionaryWithDefault
340
F
  0
DICTIONARY
  5
17
102
{ACAD_REACTORS
330
C
102
}
100
AcDbDictionary
280
0
281
1
  3
Standard
350
18
  0
DICTIONARY
  5
19
102
{ACAD_REACTORS
330
C
102
}
100
AcDbDictionary
281
1
  0
DICTIONARY
  5
1A
102
{ACAD_REACTORS
330
C
102
}
100
AcDbDictionary
281
1
  3
Model
350
3E3
  3
Layout1
350
3E4
  0
ACDBPLACEHOLDER
  5
F
102
{ACAD_REACTORS
330
E
102
}
  0
MLINESTYLE
  5
18
102
{ACAD_REACTORS
330
17
102
}
100
AcDbMlineStyle
  2
STANDARD
 70
0
  3

 62
256
 51
90.0
 52
90.0
 71
2
 49
0.5
 62
256
  6
BYLAYER
 49
-0.5
 62
256
  6
BYLAYER
  0
LAYOUT
  5
3E3
102
{ACAD_REACTORS
330
1A
102
}
100
AcDbPlotSettings
  1

  2
none_device
  4
ISO_A4_(297.00_x_210.00_MM)
  6

 40
0.0
 41
0.0
 42
0.0
 43
0.0
 44
297.0
 45
210.0
 46
0.0
 47
0.0
 48
0.0
 49
0.0
140
0.0
141
0.0
142
1.0
143
1.0
 70
1024
 72
1
 73
0
 74
0
  7

 75
0
147
1.0
148
0.0
149
0.0
100
AcDbLayout
  1
Model
 70
0
 71
0
 10
0.0
 20
0.0
 11
297.0
 21
210.0
 12
0.0
 22
0.0
 32
0.0
 14
0.0
 24
0.0
 34
0.0
 15
0.0
 25
0.0
 35
0.0
146
0.0
 13
0.0
 23
0.0
 33
0.0
 16
1.0
 26
0.0
 36
0.0
 17
0.0
 27
1.0
 37
0.0
 76
0
330
211
345
0
346
0
  0
LAYOUT
  5
3E4
102
{ACAD_REACTORS
330
1A
102
}
100
AcDbPlotSettings
  1

  2
none_device
  4
ISO_A4_(297.00_x_210.00_MM)
  6

 40
0.0
 41
0.0
 42
0.0
 43
0.0
 44
297.0
 45
210.0
 46
0.0
 47
0.0
 48
0.0
 49
0.0
140
0.0
141
0.0
142
1.0
143
1.0
 70
0
 72
1
 73
0
 74
0
  7

 75
0
147
1.0
148
0.0
149
0.0
100
AcDbLayout
  1
Layout1
 70
0
 71
1
 10
0.0
 20
0.0
 11
297.0
 21
210.0
 12
0.0
 22
0.0
 32
0.0
 14
0.0
 24
0.0
 34
0.0
 15
0.0
 25
0.0
 35
0.0
146
0.0
 13
0.0
 23
0.0
 33
0.0
 16
1.0
 26
0.0
 36
0.0
 17
0.0
 27
1.0
 37
0.0
 76
0
330
212
345
0
346
0
  0
ENDSEC
  0
EOF
