  0
SECTION
  2
HEADER
  9
$ACADVER
  1
AC1021
  9
$DWGCODEPAGE
  3
ANSI_1252
  9
$EXTMAX
 10
297.0
 20
210.0
 30
0.0
  9
$EXTMIN
 10
0.0
 20
0.0
 30
0.0
  9
$LIMMIN
 10
0.0
 20
0.0
  9
$LIMMAX
 10
297.0
 20
210.0
  9
$VIEWCTR
 10
148.5
 20
105.0
  9
$VIEWSIZE
 40
210.0
  9
$CLAYER
  8
0
  9
$LTSCALE
 40
16.335
  9
$CELTYPE
  6
BYLAYER
  9
$DIMSCALE
 40
1.0
  9
$DIMASZ
 40
3.0
  9
$DIMEXO
 40
1.85625
  9
$DIMDLI
 40
11.286
  9
$DIMEXE
 40
5.346
  9
$DIMCEN
 40
2.673
  9
$DIMLFAC
 40
1.0
  9
$DIMBLK
  1
_FILLED
  9
$DIMTXT
 40
3.0
  9
$DIMTOL
 70
1
  9
$DIMLIM
 70
0
  9
$DIMTFAC
 40
1.0
  9
$DIMTP
 40
0.01
  9
$DIMTM
 40
0.01
  9
$PDMODE
 70
3
  9
$PDSIZE
 40
3.0
  9
$HANDSEED
  5
78B
  9
$TILEMODE
 70
1
  9
$MEASUREMENT
 70
1
  9
$INSUNITS
 70
4
  0
ENDSEC
  0
SECTION
  2
CLASSES
  0
CLASS
  1
ACDBDICTIONARYWDFLT
  2
AcDbDictionaryWithDefault
  3
AutoCAD 2000
 90
0
 91
1
280
0
281
0
  0
CLASS
  1
ACDBPLACEHOLDER
  2
AcDbPlaceHolder
  3
AutoCAD 2000
 90
0
 91
1
280
0
281
0
  0
CLASS
  1
LAYOUT
  2
AcDbLayout
  3
AutoCAD 2000
 90
0
 91
0
280
0
281
0
  0
ENDSEC
  0
SECTION
  2
TABLES
  0
TABLE
  2
VPORT
  5
8
100
AcDbSymbolTable
 70
2
  0
VPORT
  5
1F4
100
AcDbSymbolTableRecord
100
AcDbViewportTableRecord
  2
*ACTIVE
 70
0
 10
0.0
 20
0.0
 11
1.0
 21
1.0
 12
148.5
 22
105.0
 13
0.0
 23
0.0
 14
1.0
 24
1.0
 15
0.0
 25
0.0
 16
0.0
 26
0.0
 36
1.0
 17
0.0
 27
0.0
 37
0.0
 40
210.0
 41
1.4142857143
 42
50.0
 43
0.0
 44
0.0
 50
0.0
 51
0.0
 71
0
 72
100
 73
1
 74
1
 75
0
 76
0
 77
0
 78
0
  0
ENDTAB
  0
TABLE
  2
LTYPE
  5
5
100
AcDbSymbolTable
 70
6
  0
LTYPE
  5
14
100
AcDbSymbolTableRecord
100
AcDbLinetypeTableRecord
  2
BYBLOCK
 70
0
  3

 72
65
 73
0
 40
0.0
  0
LTYPE
  5
15
100
AcDbSymbolTableRecord
100
AcDbLinetypeTableRecord
  2
BYLAYER
 70
0
  3

 72
65
 73
0
 40
0.0
  0
LTYPE
  5
16
100
AcDbSymbolTableRecord
100
AcDbLinetypeTableRecord
  2
CONTINUOUS
 70
64
  3
Solid line
 72
65
 73
0
 40
0.0
  0
LTYPE
  5
1F5
100
AcDbSymbolTableRecord
100
AcDbLinetypeTableRecord
  2
CENTER
 70
64
  3
____ _ ____ _ ____ _ ____ _ ____ _ ____ _ ____
 72
65
 73
4
 40
0.6
 49
0.375
 74
0
 49
-0.075
 74
0
 49
0.075
 74
0
 49
-0.075
 74
0
  0
LTYPE
  5
1F6
100
AcDbSymbolTableRecord
100
AcDbLinetypeTableRecord
  2
HIDDEN
 70
64
  3
- - - - - - - - - - - - - - - - - - - -
 72
65
 73
2
 40
0.2
 49
0.1
 74
0
 49
-0.1
 74
0
  0
LTYPE
  5
1F7
100
AcDbSymbolTableRecord
100
AcDbLinetypeTableRecord
  2
PHANTOM
 70
64
  3
_____ _ _ _____ _ _ _____ _ _ _____
 72
65
 73
6
 40
0.8
 49
0.45
 74
0
 49
-0.05
 74
0
 49
0.1
 74
0
 49
-0.05
 74
0
 49
0.1
 74
0
 49
-0.05
 74
0
  0
LTYPE
  5
1F8
100
AcDbSymbolTableRecord
100
AcDbLinetypeTableRecord
  2
DOT
 70
64
  3
. . . . . . . . . . . . . . . . . . . .
 72
65
 73
2
 40
0.2
 49
0.1
 74
0
 49
-0.1
 74
0
  0
LTYPE
  5
1F9
100
AcDbSymbolTableRecord
100
AcDbLinetypeTableRecord
  2
DASHED
 70
64
  3
- - - - - - - - - - - - - - - - - - - -
 72
65
 73
2
 40
0.2
 49
0.1
 74
0
 49
-0.1
 74
0
  0
ENDTAB
  0
TABLE
  2
LAYER
  5
2
100
AcDbSymbolTable
 70
36
  0
LAYER
  5
10
100
AcDbSymbolTableRecord
100
AcDbLayerTableRecord
  2
0
 70
0
 62
7
  6
CONTINUOUS
370
-3
390
F
  0
LAYER
  5
1FA
100
AcDbSymbolTableRecord
100
AcDbLayerTableRecord
  2
DEFAULT_1
 70
0
 62
7
  6
CENTER
370
-3
390
F
  0
LAYER
  5
1FB
100
AcDbSymbolTableRecord
100
AcDbLayerTableRecord
  2
DEFAULT_2
 70
0
 62
7
  6
HIDDEN
370
-3
390
F
  0
LAYER
  5
1FC
100
AcDbSymbolTableRecord
100
AcDbLayerTableRecord
  2
DEFAULT_3
 70
0
 62
7
  6
PHANTOM
370
-3
390
F
  0
LAYER
  5
1FD
100
AcDbSymbolTableRecord
100
AcDbLayerTableRecord
  2
ASSI
 70
0
 62
7
  6
CONTINUOUS
370
-3
390
F
  0
LAYER
  5
1FE
100
AcDbSymbolTableRecord
100
AcDbLayerTableRecord
  2
COORDINATE
 70
0
 62
7
  6
CONTINUOUS
370
-3
390
F
  0
LAYER
  5
1FF
100
AcDbSymbolTableRecord
100
AcDbLayerTableRecord
  2
COPY_PUBLISH
 70
0
 62
7
  6
CONTINUOUS
370
-3
390
F
  0
LAYER
  5
200
100
AcDbSymbolTableRecord
100
AcDbLayerTableRecord
  2
COSMETIC
 70
0
 62
7
  6
CONTINUOUS
370
-3
390
F
  0
LAYER
  5
201
100
AcDbSymbolTableRecord
100
AcDbLayerTableRecord
  2
COSMETICI
 70
0
 62
7
  6
CONTINUOUS
370
-3
390
F
  0
LAYER
  5
202
100
AcDbSymbolTableRecord
100
AcDbLayerTableRecord
  2
CURVE
 70
0
 62
7
  6
CONTINUOUS
370
-3
390
F
  0
LAYER
  5
203
100
AcDbSymbolTableRecord
100
AcDbLayerTableRecord
  2
DRAFT
 70
0
 62
7
  6
CONTINUOUS
370
-3
390
F
  0
LAYER
  5
204
100
AcDbSymbolTableRecord
100
AcDbLayerTableRecord
  2
IMPORT_IGES
 70
0
 62
7
  6
CONTINUOUS
370
-3
390
F
  0
LAYER
  5
205
100
AcDbSymbolTableRecord
100
AcDbLayerTableRecord
  2
INTF_1
 70
0
 62
7
  6
CONTINUOUS
370
-3
390
F
  0
LAYER
  5
206
100
AcDbSymbolTableRecord
100
AcDbLayerTableRecord
  2
NOTE
 70
0
 62
7
  6
CONTINUOUS
370
-3
390
F
  0
LAYER
  5
207
100
AcDbSymbolTableRecord
100
AcDbLayerTableRecord
  2
PIANI
 70
0
 62
7
  6
CONTINUOUS
370
-3
390
F
  0
LAYER
  5
208
100
AcDbSymbolTableRecord
100
AcDbLayerTableRecord
  2
PUNTI
 70
0
 62
7
  6
CONTINUOUS
370
-3
390
F
  0
LAYER
  5
209
100
AcDbSymbolTableRecord
100
AcDbLayerTableRecord
  2
RACCORDO
 70
0
 62
7
  6
CONTINUOUS
370
-3
390
F
  0
LAYER
  5
20A
100
AcDbSymbolTableRecord
100
AcDbLayerTableRecord
  2
SCRITTA
 70
0
 62
7
  6
CONTINUOUS
370
-3
390
F
  0
LAYER
  5
20B
100
AcDbSymbolTableRecord
100
AcDbLayerTableRecord
  2
SIMBOLI
 70
0
 62
7
  6
CONTINUOUS
370
-3
390
F
  0
LAYER
  5
20C
100
AcDbSymbolTableRecord
100
AcDbLayerTableRecord
  2
SMUSSO
 70
0
 62
7
  6
CONTINUOUS
370
-3
390
F
  0
LAYER
  5
20D
100
AcDbSymbolTableRecord
100
AcDbLayerTableRecord
  2
SNAPLINE
 70
0
 62
7
  6
CONTINUOUS
370
-3
390
F
  0
LAYER
  5
20E
100
AcDbSymbolTableRecord
100
AcDbLayerTableRecord
  2
SUPERFICI
 70
0
 62
7
  6
CONTINUOUS
370
-3
390
F
  0
LAYER
  5
20F
100
AcDbSymbolTableRecord
100
AcDbLayerTableRecord
  2
TRASH
 70
0
 62
7
  6
CONTINUOUS
370
-3
390
F
  0
LAYER
  5
210
100
AcDbSymbolTableRecord
100
AcDbLayerTableRecord
  2
XSEC_DATUMS
 70
0
 62
7
  6
CONTINUOUS
370
-3
390
F
  0
ENDTAB
  0
TABLE
  2
STYLE
  5
3
100
AcDbSymbolTable
 70
1
  0
STYLE
  5
11
100
AcDbSymbolTableRecord
100
AcDbTextStyleTableRecord
  2
STANDARD
 70
0
 40
0.0
 41
0.8
 50
0.0
 71
0
 42
0.2
  3
txt
  4

  0
STYLE
  5
211
100
AcDbSymbolTableRecord
100
AcDbTextStyleTableRecord
  2
TEXTSTYLE_1
 70
0
 40
0.0
 41
0.8
 50
0.0
 71
0
 42
0.2
  3
gdt
  4

  0
ENDTAB
  0
TABLE
  2
VIEW
  5
6
100
AcDbSymbolTable
 70
0
  0
ENDTAB
  0
TABLE
  2
UCS
  5
7
100
AcDbSymbolTable
 70
0
  0
ENDTAB
  0
TABLE
  2
APPID
  5
9
100
AcDbSymbolTable
 70
1
  0
APPID
  5
212
100
AcDbSymbolTableRecord
100
AcDbRegAppTableRecord
  2
ACAD
 70
0
  0
ENDTAB
  0
TABLE
  2
BLOCK_RECORD
  5
1
100
AcDbSymbolTable
 70
0
  0
BLOCK_RECORD
  5
213
100
AcDbSymbolTableRecord
100
AcDbBlockTableRecord
  2
*Model_Space
  0
BLOCK_RECORD
  5
214
100
AcDbSymbolTableRecord
100
AcDbBlockTableRecord
  2
*Paper_Space
  0
BLOCK_RECORD
  5
215
100
AcDbSymbolTableRecord
100
AcDbBlockTableRecord
  2
_FILLED
  0
BLOCK_RECORD
  5
216
100
AcDbSymbolTableRecord
100
AcDbBlockTableRecord
  2
*D0
  0
BLOCK_RECORD
  5
217
100
AcDbSymbolTableRecord
100
AcDbBlockTableRecord
  2
*D1
  0
BLOCK_RECORD
  5
218
100
AcDbSymbolTableRecord
100
AcDbBlockTableRecord
  2
*D2
  0
ENDTAB
  0
TABLE
  2
DIMSTYLE
  5
A
100
AcDbSymbolTable
 70
1
100
AcDbDimStyleTable
 71
0
  0
DIMSTYLE
105
219
100
AcDbSymbolTableRecord
100
AcDbDimStyleTableRecord
  2
STANDARD
 70
0
  3

  4

 40
1.0
 41
3.0
 42
0.0625
 43
0.38
 44
0.18
 45
0.0
 46
0.0
 47
0.01
 48
0.01
140
3.0
141
0.09
142
0.0
143
25.4
144
1.0
145
0.0
146
1.0
147
0.09
 71
1.0
 72
0.0
 73
0
 74
0
 75
0
 76
0
 77
1
 78
8
170
0
171
2
172
0
173
0
174
0
175
0
176
0
177
0
178
0
270
2
271
2
272
2
273
2
274
2
275
0
280
0
281
0
282
0
283
1
284
8
285
0
286
0
287
3
288
0
340
11
341
215
342
215
343
215
344
215
  0
DIMSTYLE
105
21A
100
AcDbSymbolTableRecord
100
AcDbDimStyleTableRecord
  2
DIMSTYLE_1
 70
0
  3

  4

 40
1.0
 41
3.0
 42
0.0625
 43
0.38
 44
0.18
 45
0.0
 46
0.0
 47
0.0
 48
0.0
140
3.0
141
0.09
142
0.0
143
25.4
144
1.0
145
0.0
146
1.0
147
0.09
 71
0.0
 72
0.0
 73
0
 74
0
 75
0
 76
0
 77
1
 78
8
170
0
171
2
172
0
173
0
174
0
175
0
176
0
177
0
178
0
270
2
271
2
272
2
273
2
274
2
275
0
280
0
281
0
282
0
283
1
284
8
285
0
286
0
287
3
288
0
340
11
341
215
342
215
343
215
344
215
  0
DIMSTYLE
105
21B
100
AcDbSymbolTableRecord
100
AcDbDimStyleTableRecord
  2
DIMSTYLE_2
 70
0
  3

  4

 40
1.0
 41
3.0
 42
0.0625
 43
0.38
 44
0.18
 45
0.0
 46
0.0
 47
0.0
 48
0.0
140
3.0
141
0.09
142
0.0
143
25.4
144
1.0
145
0.0
146
1.0
147
0.09
 71
0.0
 72
0.0
 73
0
 74
0
 75
0
 76
0
 77
1
 78
8
170
0
171
2
172
0
173
0
174
0
175
0
176
0
177
0
178
0
270
2
271
1
272
1
273
2
274
2
275
0
280
0
281
0
282
0
283
1
284
8
285
0
286
0
287
3
288
0
340
11
341
215
342
215
343
215
344
215
  0
ENDTAB
  0
ENDSEC
  0
SECTION
  2
BLOCKS
  0
BLOCK
  5
20
100
AcDbEntity
  8
0
100
AcDbBlockBegin
  2
*Model_Space
 70
0
 10
0.0
 20
0.0
 30
0.0
  3
*Model_Space
  1

  0
ENDBLK
  5
21
100
AcDbEntity
  8
0
100
AcDbBlockEnd
  0
BLOCK
  5
1C
100
AcDbEntity
  8
0
100
AcDbBlockBegin
  2
*Paper_Space
 70
0
 10
0.0
 20
0.0
 30
0.0
  3
*Paper_Space
  1

  0
ENDBLK
  5
1D
100
AcDbEntity
  8
0
100
AcDbBlockEnd
  0
BLOCK
  5
21C
100
AcDbEntity
  8
0
100
AcDbBlockBegin
  2
_FILLED
 70
64
 10
0.0
 20
0.0
  3
_FILLED
  1

  0
SOLID
  5
21D
100
AcDbEntity
  8
0
  6
BYBLOCK
 62
0
100
AcDbTrace
 10
0.0
 20
0.0
 11
-1.0
 21
0.3166666667
 12
-1.0
 22
-0.3166666667
 13
-1.0
 23
-0.3166666667
  0
ENDBLK
  5
21E
100
AcDbEntity
  8
0
  6
BYBLOCK
 62
0
100
AcDbBlockEnd
  0
BLOCK
  5
21F
100
AcDbEntity
  8
0
100
AcDbBlockBegin
 62
7
  6
CONTINUOUS
  2
*D0
 70
65
 10
0.0
 20
0.0
  3
*D0
  1

  0
MTEXT
  5
220
100
AcDbEntity
  8
0
100
AcDbMText
 62
7
  6
CONTINUOUS
  7
STANDARD
 71
2
 72
1
 10
220.2392708288
 20
162.3213405057
 30
0.0
 11
1.0
 21
0.0
 31
0.0
 44
0.9
  1
94,5
 40
3.0
 41
8.5714285714
  0
LINE
  5
221
100
AcDbEntity
  8
0
100
AcDbLine
 62
7
  6
CONTINUOUS
 10
172.9892708288
 20
98.8213405057
 11
172.9892708288
 21
160.0713405057
  0
LINE
  5
222
100
AcDbEntity
  8
0
100
AcDbLine
 62
7
  6
CONTINUOUS
 10
267.4892708288
 20
98.8213405057
 11
267.4892708288
 21
160.0713405057
  0
LINE
  5
223
100
AcDbEntity
  8
0
100
AcDbLine
 62
7
  6
CONTINUOUS
 10
172.9892708288
 20
158.5713405057
 11
220.2392708288
 21
158.5713405057
  0
LINE
  5
224
100
AcDbEntity
  8
0
100
AcDbLine
 62
7
  6
CONTINUOUS
 10
267.4892708288
 20
158.5713405057
 11
220.2392708288
 21
158.5713405057
  0
INSERT
  5
225
100
AcDbEntity
  8
0
100
AcDbBlockReference
 62
7
  6
CONTINUOUS
  2
_FILLED
 10
172.9892708288
 20
158.5713405057
 41
3.0
 42
3.0
 43
3.0
 50
180.0
  0
INSERT
  5
226
100
AcDbEntity
  8
0
100
AcDbBlockReference
 62
7
  6
CONTINUOUS
  2
_FILLED
 10
267.4892708288
 20
158.5713405057
 41
3.0
 42
3.0
 43
3.0
  0
ENDBLK
  5
227
100
AcDbEntity
  8
0
  6
BYBLOCK
 62
0
100
AcDbBlockEnd
  0
BLOCK
  5
228
100
AcDbEntity
  8
0
100
AcDbBlockBegin
 62
7
  6
CONTINUOUS
  2
*D1
 70
65
 10
0.0
 20
0.0
  3
*D1
  1

  0
MTEXT
  5
229
100
AcDbEntity
  8
0
100
AcDbMText
 62
7
  6
CONTINUOUS
  7
STANDARD
 71
2
 72
1
 10
274.2622884228
 20
98.3213405057
 30
0.0
 11
0.0
 21
1.0
 31
0.0
 44
0.9
  1
94,5
 40
3.0
 41
8.5714285714
  0
LINE
  5
22A
100
AcDbEntity
  8
0
100
AcDbLine
 62
7
  6
CONTINUOUS
 10
220.7392708288
 20
145.5713405057
 11
279.5122884228
 21
145.5713405057
  0
LINE
  5
22B
100
AcDbEntity
  8
0
100
AcDbLine
 62
7
  6
CONTINUOUS
 10
220.7392708288
 20
51.0713405057
 11
279.5122884228
 21
51.0713405057
  0
LINE
  5
22C
100
AcDbEntity
  8
0
100
AcDbLine
 62
7
  6
CONTINUOUS
 10
278.0122884228
 20
145.5713405057
 11
278.0122884228
 21
98.3213405057
  0
LINE
  5
22D
100
AcDbEntity
  8
0
100
AcDbLine
 62
7
  6
CONTINUOUS
 10
278.0122884228
 20
51.0713405057
 11
278.0122884228
 21
98.3213405057
  0
INSERT
  5
22E
100
AcDbEntity
  8
0
100
AcDbBlockReference
 62
7
  6
CONTINUOUS
  2
_FILLED
 10
278.0122884228
 20
145.5713405057
 41
3.0
 42
3.0
 43
3.0
 50
90.0
  0
INSERT
  5
22F
100
AcDbEntity
  8
0
100
AcDbBlockReference
 62
7
  6
CONTINUOUS
  2
_FILLED
 10
278.0122884228
 20
51.0713405057
 41
3.0
 42
3.0
 43
3.0
 50
270.0
  0
ENDBLK
  5
230
100
AcDbEntity
  8
0
  6
BYBLOCK
 62
0
100
AcDbBlockEnd
  0
BLOCK
  5
231
100
AcDbEntity
  8
0
100
AcDbBlockBegin
 62
7
  6
CONTINUOUS
  2
*D2
 70
65
 10
0.0
 20
0.0
  3
*D2
  1

  0
MTEXT
  5
232
100
AcDbEntity
  8
0
100
AcDbMText
 62
7
  6
CONTINUOUS
  7
STANDARD
 71
2
 72
1
 10
145.2177962607
 20
162.3213405057
 30
0.0
 11
1.0
 21
0.0
 31
0.0
 44
0.9
  1
8,4
 40
3.0
 41
6.4285714286
  0
LINE
  5
233
100
AcDbEntity
  8
0
100
AcDbLine
 62
7
  6
CONTINUOUS
 10
149.4327194029
 20
142.3582958213
 11
149.4327194029
 21
160.0713405057
  0
LINE
  5
234
100
AcDbEntity
  8
0
100
AcDbLine
 62
7
  6
CONTINUOUS
 10
141.0028731185
 20
98.8213405057
 11
141.0028731185
 21
160.0713405057
  0
LINE
  5
235
100
AcDbEntity
  8
0
100
AcDbLine
 62
7
  6
CONTINUOUS
 10
149.4327194029
 20
158.5713405057
 11
153.4327194029
 21
158.5713405057
  0
LINE
  5
236
100
AcDbEntity
  8
0
100
AcDbLine
 62
7
  6
CONTINUOUS
 10
153.4327194029
 20
158.5713405057
 11
145.2177962607
 21
158.5713405057
  0
LINE
  5
237
100
AcDbEntity
  8
0
100
AcDbLine
 62
7
  6
CONTINUOUS
 10
141.0028731185
 20
158.5713405057
 11
137.0028731185
 21
158.5713405057
  0
LINE
  5
238
100
AcDbEntity
  8
0
100
AcDbLine
 62
7
  6
CONTINUOUS
 10
137.0028731185
 20
158.5713405057
 11
145.2177962607
 21
158.5713405057
  0
INSERT
  5
239
100
AcDbEntity
  8
0
100
AcDbBlockReference
 62
7
  6
CONTINUOUS
  2
_FILLED
 10
149.4327194029
 20
158.5713405057
 41
3.0
 42
3.0
 43
3.0
 50
180.0
  0
INSERT
  5
23A
100
AcDbEntity
  8
0
100
AcDbBlockReference
 62
7
  6
CONTINUOUS
  2
_FILLED
 10
141.0028731185
 20
158.5713405057
 41
3.0
 42
3.0
 43
3.0
  0
ENDBLK
  5
23B
100
AcDbEntity
  8
0
  6
BYBLOCK
 62
0
100
AcDbBlockEnd
  0
ENDSEC
  0
SECTION
  2
ENTITIES
  0
DIMENSION
  5
23C
100
AcDbEntity
  8
0
100
AcDbDimension
 62
7
  6
CONTINUOUS
  2
*D0
 10
267.4892708288
 20
158.5713405057
 11
215.9535565431
 21
160.8213405057
 70
160
 71
2
 42
94.5
  3
DIMSTYLE_1
100
AcDbAlignedDimension
 13
172.9892708288
 23
98.8213405057
 14
267.4892708288
 24
98.8213405057
100
AcDbRotatedDimension
  0
DIMENSION
  5
23D
100
AcDbEntity
  8
0
100
AcDbDimension
 62
7
  6
CONTINUOUS
  2
*D1
 10
278.0122884228
 20
51.0713405057
 11
277.6826039205
 21
94.4899262332
 70
160
 71
2
 42
94.5
  3
DIMSTYLE_1
100
AcDbAlignedDimension
 13
220.7392708288
 23
145.5713405057
 14
220.7392708288
 24
51.0713405057
 50
270.0
100
AcDbRotatedDimension
  0
DIMENSION
  5
23E
100
AcDbEntity
  8
0
100
AcDbDimension
 62
7
  6
CONTINUOUS
  2
*D2
 10
141.0028731185
 20
158.5713405057
 11
142.0035105464
 21
160.8213405057
 70
160
 71
2
 42
8.4298462844
  3
DIMSTYLE_2
100
AcDbAlignedDimension
 13
149.4327194029
 23
142.3582958213
 14
141.0028731185
 24
98.8213405057
 50
180.0
100
AcDbRotatedDimension
  0
LINE
  5
23F
100
AcDbEntity
  8
0
100
AcDbLine
 62
253
  6
CONTINUOUS
 10
174.5876209893
 20
71.1177106872
 11
174.493941129
 21
71.9868874229
  0
LINE
  5
240
100
AcDbEntity
  8
ASSI
100
AcDbLine
 62
253
  6
CONTINUOUS
 10
174.5876209893
 20
71.1177106872
 11
174.493941129
 21
71.9868874229
  0
LINE
  5
241
100
AcDbEntity
  8
0
100
AcDbLine
 62
253
  6
CONTINUOUS
 10
175.0488425864
 20
71.1453736173
 11
174.9552850343
 21
72.0139789115
  0
LINE
  5
242
100
AcDbEntity
  8
ASSI
100
AcDbLine
 62
253
  6
CONTINUOUS
 10
175.0488425864
 20
71.1453736173
 11
174.9552850343
 21
72.0139789115
  0
LINE
  5
243
100
AcDbEntity
  8
0
100
AcDbLine
 62
253
  6
CONTINUOUS
 10
174.493941129
 20
71.9868874229
 11
174.4033098417
 21
72.8563287943
  0
LINE
  5
244
100
AcDbEntity
  8
ASSI
100
AcDbLine
 62
253
  6
CONTINUOUS
 10
174.493941129
 20
71.9868874229
 11
174.4033098417
 21
72.8563287943
  0
LINE
  5
245
100
AcDbEntity
  8
0
100
AcDbLine
 62
253
  6
CONTINUOUS
 10
174.9552850343
 20
72.0139789115
 11
174.8647723719
 21
72.8828489891
  0
LINE
  5
246
100
AcDbEntity
  8
ASSI
100
AcDbLine
 62
253
  6
CONTINUOUS
 10
174.9552850343
 20
72.0139789115
 11
174.8647723719
 21
72.8828489891
  0
LINE
  5
247
100
AcDbEntity
  8
0
100
AcDbLine
 62
253
  6
CONTINUOUS
 10
174.4033098417
 20
72.8563287943
 11
174.3157275751
 21
73.7260246776
  0
LINE
  5
248
100
AcDbEntity
  8
ASSI
100
AcDbLine
 62
253
  6
CONTINUOUS
 10
174.4033098417
 20
72.8563287943
 11
174.3157275751
 21
73.7260246776
  0
LINE
  5
249
100
AcDbEntity
  8
0
100
AcDbLine
 62
253
  6
CONTINUOUS
 10
174.8647723719
 20
72.8828489891
 11
174.7773043752
 21
73.7519718886
  0
LINE
  5
24A
100
AcDbEntity
  8
ASSI
100
AcDbLine
 62
253
  6
CONTINUOUS
 10
174.8647723719
 20
72.8828489891
 11
174.7773043752
 21
73.7519718886
  0
LINE
  5
24B
100
AcDbEntity
  8
0
100
AcDbLine
 62
253
  6
CONTINUOUS
 10
174.3157275751
 20
73.7260246776
 11
174.2200949763
 21
74.7126035641
  0
LINE
  5
24C
100
AcDbEntity
  8
ASSI
100
AcDbLine
 62
253
  6
CONTINUOUS
 10
174.3157275751
 20
73.7260246776
 11
174.2200949763
 21
74.7126035641
  0
LINE
  5
24D
100
AcDbEntity
  8
0
100
AcDbLine
 62
253
  6
CONTINUOUS
 10
174.7773043752
 20
73.7519718886
 11
174.6817971388
 21
74.7378494675
  0
LINE
  5
24E
100
AcDbEntity
  8
ASSI
100
AcDbLine
 62
253
  6
CONTINUOUS
 10
174.7773043752
 20
73.7519718886
 11
174.6817971388
 21
74.7378494675
  0
LWPOLYLINE
  5
24F
100
AcDbEntity
  8
0
100
AcDbPolyline
 62
253
  6
CONTINUOUS
 90
16
 70
0
 10
174.2200949763
 20
74.7126035641
 10
173.9420250701
 20
77.8524533569
 10
173.7035859294
 20
80.995643992
 10
173.5048205098
 20
84.1417967011
 10
173.3457731565
 20
87.2903207886
 10
173.2264556526
 20
90.4405631792
 10
173.1468769887
 20
93.5920512998
 10
173.1070639563
 20
96.7447167591
 10
173.1070641286
 20
99.8979921854
 10
173.146877491
 20
103.0506562355
 10
173.226456364
 20
106.2021396359
 10
173.3457738232
 20
109.3523747414
 10
173.5048210008
 20
112.5008929479
 10
173.7035862609
 20
115.6470419994
 10
173.9420252235
 20
118.7902296294
 10
174.2200949763
 20
121.9300774474
  0
LWPOLYLINE
  5
250
100
AcDbEntity
  8
ASSI
100
AcDbPolyline
 62
253
  6
CONTINUOUS
 90
16
 70
0
 10
174.2200949763
 20
74.7126035641
 10
173.9420250701
 20
77.8524533569
 10
173.7035859294
 20
80.995643992
 10
173.5048205098
 20
84.1417967011
 10
173.3457731565
 20
87.2903207886
 10
173.2264556526
 20
90.4405631792
 10
173.1468769887
 20
93.5920512998
 10
173.1070639563
 20
96.7447167591
 10
173.1070641286
 20
99.8979921854
 10
173.146877491
 20
103.0506562355
 10
173.226456364
 20
106.2021396359
 10
173.3457738232
 20
109.3523747414
 10
173.5048210008
 20
112.5008929479
 10
173.7035862609
 20
115.6470419994
 10
173.9420252235
 20
118.7902296294
 10
174.2200949763
 20
121.9300774474
  0
LINE
  5
251
100
AcDbEntity
  8
0
100
AcDbLine
 62
253
  6
CONTINUOUS
 10
174.2200949763
 20
121.9300774474
 11
174.3157275806
 21
122.9166563888
  0
LINE
  5
252
100
AcDbEntity
  8
ASSI
100
AcDbLine
 62
253
  6
CONTINUOUS
 10
174.2200949763
 20
121.9300774474
 11
174.3157275806
 21
122.9166563888
  0
LINE
  5
253
100
AcDbEntity
  8
0
100
AcDbLine
 62
253
  6
CONTINUOUS
 10
174.6817971388
 20
121.904831544
 11
174.7773043466
 21
122.8907088387
  0
LINE
  5
254
100
AcDbEntity
  8
ASSI
100
AcDbLine
 62
253
  6
CONTINUOUS
 10
174.6817971388
 20
121.904831544
 11
174.7773043466
 21
122.8907088387
  0
LINE
  5
255
100
AcDbEntity
  8
0
100
AcDbLine
 62
253
  6
CONTINUOUS
 10
174.3157275806
 20
122.9166563888
 11
174.4033098599
 21
123.7863523948
  0
LINE
  5
256
100
AcDbEntity
  8
ASSI
100
AcDbLine
 62
253
  6
CONTINUOUS
 10
174.3157275806
 20
122.9166563888
 11
174.4033098599
 21
123.7863523948
  0
LINE
  5
257
100
AcDbEntity
  8
0
100
AcDbLine
 62
253
  6
CONTINUOUS
 10
174.7773043466
 20
122.8907088387
 11
174.8647723495
 21
123.7598317982
  0
LINE
  5
258
100
AcDbEntity
  8
ASSI
100
AcDbLine
 62
253
  6
CONTINUOUS
 10
174.7773043466
 20
122.8907088387
 11
174.8647723495
 21
123.7598317982
  0
LINE
  5
259
100
AcDbEntity
  8
0
100
AcDbLine
 62
253
  6
CONTINUOUS
 10
174.4033098599
 20
123.7863523948
 11
174.4939411603
 21
124.6557938835
  0
LINE
  5
25A
100
AcDbEntity
  8
ASSI
100
AcDbLine
 62
253
  6
CONTINUOUS
 10
174.4033098599
 20
123.7863523948
 11
174.4939411603
 21
124.6557938835
  0
LINE
  5
25B
100
AcDbEntity
  8
0
100
AcDbLine
 62
253
  6
CONTINUOUS
 10
174.8647723495
 20
123.7598317982
 11
174.9552850403
 21
124.6287021567
  0
LINE
  5
25C
100
AcDbEntity
  8
ASSI
100
AcDbLine
 62
253
  6
CONTINUOUS
 10
174.8647723495
 20
123.7598317982
 11
174.9552850403
 21
124.6287021567
  0
LWPOLYLINE
  5
25D
100
AcDbEntity
  8
0
100
AcDbPolyline
 62
253
  6
CONTINUOUS
 90
3
 70
0
 10
174.4939411603
 20
124.6557938835
 10
174.587621002
 20
125.52497044
 10
174.6356039604
 20
125.9594560559
  0
LWPOLYLINE
  5
25E
100
AcDbEntity
  8
ASSI
100
AcDbPolyline
 62
253
  6
CONTINUOUS
 90
3
 70
0
 10
174.4939411603
 20
124.6557938835
 10
174.587621002
 20
125.52497044
 10
174.6356039604
 20
125.9594560559
  0
LWPOLYLINE
  5
25F
100
AcDbEntity
  8
0
100
AcDbPolyline
 62
253
  6
CONTINUOUS
 90
3
 70
0
 10
174.9552850403
 20
124.6287021567
 10
175.0488425933
 20
125.4973074604
 10
175.096762528
 20
125.931509444
  0
LWPOLYLINE
  5
260
100
AcDbEntity
  8
ASSI
100
AcDbPolyline
 62
253
  6
CONTINUOUS
 90
3
 70
0
 10
174.9552850403
 20
124.6287021567
 10
175.0488425933
 20
125.4973074604
 10
175.096762528
 20
125.931509444
  0
LWPOLYLINE
  5
261
100
AcDbEntity
  8
0
100
AcDbPolyline
 62
253
  6
CONTINUOUS
 90
10
 70
0
 10
174.6356039587
 20
125.9594560561
 10
174.6868608939
 20
126.4050760552
 10
174.7413404595
 20
126.8502379644
 10
174.7990381369
 20
127.2949183654
 10
174.859947672
 20
127.73908208
 10
174.924065778
 20
128.1827186141
 10
174.9913931736
 20
128.6258415181
 10
175.0619276332
 20
129.0684402049
 10
175.1356628069
 20
129.5104796056
 10
175.2125940131
 20
129.9519364733
  0
LWPOLYLINE
  5
262
100
AcDbEntity
  8
ASSI
100
AcDbPolyline
 62
253
  6
CONTINUOUS
 90
10
 70
0
 10
174.6356039587
 20
125.9594560561
 10
174.6868608939
 20
126.4050760552
 10
174.7413404595
 20
126.8502379644
 10
174.7990381369
 20
127.2949183654
 10
174.859947672
 20
127.73908208
 10
174.924065778
 20
128.1827186141
 10
174.9913931736
 20
128.6258415181
 10
175.0619276332
 20
129.0684402049
 10
175.1356628069
 20
129.5104796056
 10
175.2125940131
 20
129.9519364733
  0
LWPOLYLINE
  5
263
100
AcDbEntity
  8
0
100
AcDbPolyline
 62
253
  6
CONTINUOUS
 90
10
 70
0
 10
175.096762528
 20
125.931509444
 10
175.1476375011
 20
126.3741839825
 10
175.2017038609
 20
126.8163604475
 10
175.2589609559
 20
127.2580382181
 10
175.3194096666
 20
127.6992239767
 10
175.3830477694
 20
128.139909811
 10
175.4498699314
 20
128.5800732196
 10
175.5198738951
 20
129.0197063079
 10
175.5930604839
 20
129.4588157817
 10
175.6694289614
 20
129.8974010528
  0
LWPOLYLINE
  5
264
100
AcDbEntity
  8
ASSI
100
AcDbPolyline
 62
253
  6
CONTINUOUS
 90
10
 70
0
 10
175.096762528
 20
125.931509444
 10
175.1476375011
 20
126.3741839825
 10
175.2017038609
 20
126.8163604475
 10
175.2589609559
 20
127.2580382181
 10
175.3194096666
 20
127.6992239767
 10
175.3830477694
 20
128.139909811
 10
175.4498699314
 20
128.5800732196
 10
175.5198738951
 20
129.0197063079
 10
175.5930604839
 20
129.4588157817
 10
175.6694289614
 20
129.8974010528
  0
LWPOLYLINE
  5
265
100
AcDbEntity
  8
0
100
AcDbPolyline
 62
253
  6
CONTINUOUS
 90
37
 70
0
 10
175.6694289614
 20
129.8974010528
 10
175.7789623473
 20
130.4568054882
 10
175.907587988
 20
131.0110869374
 10
176.0553007477
 20
131.5602457421
 10
176.2223154823
 20
132.1050131721
 10
176.408407325
 20
132.6446586469
 10
176.6129112332
 20
133.1769906242
 10
176.8359083729
 20
133.7019601863
 10
177.0773071969
 20
134.2196191109
 10
177.3361831247
 20
134.7279285568
 10
177.6126039091
 20
135.226831997
 10
177.9064919403
 20
135.7163907102
 10
178.2167045373
 20
136.1947440967
 10
178.543274438
 20
136.661810585
 10
178.886160304
 20
137.1176781493
 10
179.2441086457
 20
137.5607418263
 10
179.6171554059
 20
137.9909509969
 10
180.0052579242
 20
138.4083639091
 10
180.4070453954
 20
138.8115399687
 10
180.8225466198
 20
139.2004310793
 10
181.2517284372
 20
139.5750937721
 10
181.6931278925
 20
139.9342452218
 10
182.1468065318
 20
140.277859509
 10
182.6127011317
 20
140.6059713079
 10
183.0891625071
 20
140.9173892775
 10
183.5763628485
 20
141.2121100812
 10
184.0741311552
 20
141.4901456529
 10
184.580304457
 20
141.7503279446
 10
185.0949741718
 20
141.9925542107
 10
185.6180529928
 20
142.2169351815
 10
186.1471108058
 20
142.4226231446
 10
186.6821805102
 20
142.609481641
 10
187.2232359259
 20
142.7776538893
 10
187.7677590044
 20
142.9267115047
 10
188.3149132951
 20
143.0565133966
 10
188.8655439255
 20
143.1672056854
 10
189.4196556589
 20
143.25879038
  0
LWPOLYLINE
  5
266
100
AcDbEntity
  8
ASSI
100
AcDbPolyline
 62
253
  6
CONTINUOUS
 90
37
 70
0
 10
175.6694289614
 20
129.8974010528
 10
175.7789623473
 20
130.4568054882
 10
175.907587988
 20
131.0110869374
 10
176.0553007477
 20
131.5602457421
 10
176.2223154823
 20
132.1050131721
 10
176.408407325
 20
132.6446586469
 10
176.6129112332
 20
133.1769906242
 10
176.8359083729
 20
133.7019601863
 10
177.0773071969
 20
134.2196191109
 10
177.3361831247
 20
134.7279285568
 10
177.6126039091
 20
135.226831997
 10
177.9064919403
 20
135.7163907102
 10
178.2167045373
 20
136.1947440967
 10
178.543274438
 20
136.661810585
 10
178.886160304
 20
137.1176781493
 10
179.2441086457
 20
137.5607418263
 10
179.6171554059
 20
137.9909509969
 10
180.0052579242
 20
138.4083639091
 10
180.4070453954
 20
138.8115399687
 10
180.8225466198
 20
139.2004310793
 10
181.2517284372
 20
139.5750937721
 10
181.6931278925
 20
139.9342452218
 10
182.1468065318
 20
140.277859509
 10
182.6127011317
 20
140.6059713079
 10
183.0891625071
 20
140.9173892775
 10
183.5763628485
 20
141.2121100812
 10
184.0741311552
 20
141.4901456529
 10
184.580304457
 20
141.7503279446
 10
185.0949741718
 20
141.9925542107
 10
185.6180529928
 20
142.2169351815
 10
186.1471108058
 20
142.4226231446
 10
186.6821805102
 20
142.609481641
 10
187.2232359259
 20
142.7776538893
 10
187.7677590044
 20
142.9267115047
 10
188.3149132951
 20
143.0565133966
 10
188.8655439255
 20
143.1672056854
 10
189.4196556589
 20
143.25879038
  0
LWPOLYLINE
  5
267
100
AcDbEntity
  8
0
100
AcDbPolyline
 62
253
  6
CONTINUOUS
 90
37
 70
0
 10
175.2125939959
 20
129.9519364765
 10
175.3252268847
 20
130.5264214509
 10
175.4577792697
 20
131.0969726489
 10
175.6101275192
 20
131.6629038825
 10
175.7821521444
 20
132.2235791881
 10
175.9736490228
 20
132.7782518408
 10
176.1843498114
 20
133.3260710172
 10
176.4140179494
 20
133.8663441184
 10
176.6623742878
 20
134.3984152649
 10
176.929055486
 20
134.9214985702
 10
177.2137339138
 20
135.4349343104
 10
177.5160505209
 20
135.9381157978
 10
177.835572037
 20
136.4303476332
 10
178.171883783
 20
136.9110030979
 10
178.5245783006
 20
137.3795546068
 10
178.8932249816
 20
137.8354604944
 10
179.2773747279
 20
138.2781734597
 10
179.6765599891
 20
138.7071950901
 10
180.0903259941
 20
139.1220538537
 10
180.5181738916
 20
139.52224594
 10
180.9595945507
 20
139.9073215349
 10
181.4141261971
 20
140.2768803646
 10
181.881264173
 20
140.6304904249
 10
182.3604286986
 20
140.9677189034
 10
182.8510495494
 20
141.2881575101
 10
183.352681082
 20
141.5914849488
 10
183.8646062689
 20
141.8772631832
 10
184.3858238837
 20
142.1449491228
 10
184.9157427411
 20
142.3942648892
 10
185.4536786918
 20
142.6249379877
 10
185.9984484716
 20
142.8365295791
 10
186.5493664976
 20
143.0288609384
 10
187.1057688758
 20
143.2018085133
 10
187.6664743432
 20
143.3551252529
 10
188.2306246448
 20
143.4887214107
 10
188.7976855111
 20
143.6026368108
 10
189.366959985
 20
143.6968736033
  0
LWPOLYLINE
  5
268
100
AcDbEntity
  8
ASSI
100
AcDbPolyline
 62
253
  6
CONTINUOUS
 90
37
 70
0
 10
175.2125939959
 20
129.9519364765
 10
175.3252268847
 20
130.5264214509
 10
175.4577792697
 20
131.0969726489
 10
175.6101275192
 20
131.6629038825
 10
175.7821521444
 20
132.2235791881
 10
175.9736490228
 20
132.7782518408
 10
176.1843498114
 20
133.3260710172
 10
176.4140179494
 20
133.8663441184
 10
176.6623742878
 20
134.3984152649
 10
176.929055486
 20
134.9214985702
 10
177.2137339138
 20
135.4349343104
 10
177.5160505209
 20
135.9381157978
 10
177.835572037
 20
136.4303476332
 10
178.171883783
 20
136.9110030979
 10
178.5245783006
 20
137.3795546068
 10
178.8932249816
 20
137.8354604944
 10
179.2773747279
 20
138.2781734597
 10
179.6765599891
 20
138.7071950901
 10
180.0903259941
 20
139.1220538537
 10
180.5181738916
 20
139.52224594
 10
180.9595945507
 20
139.9073215349
 10
181.4141261971
 20
140.2768803646
 10
181.881264173
 20
140.6304904249
 10
182.3604286986
 20
140.9677189034
 10
182.8510495494
 20
141.2881575101
 10
183.352681082
 20
141.5914849488
 10
183.8646062689
 20
141.8772631832
 10
184.3858238837
 20
142.1449491228
 10
184.9157427411
 20
142.3942648892
 10
185.4536786918
 20
142.6249379877
 10
185.9984484716
 20
142.8365295791
 10
186.5493664976
 20
143.0288609384
 10
187.1057688758
 20
143.2018085133
 10
187.6664743432
 20
143.3551252529
 10
188.2306246448
 20
143.4887214107
 10
188.7976855111
 20
143.6026368108
 10
189.366959985
 20
143.6968736033
  0
LWPOLYLINE
  5
269
100
AcDbEntity
  8
0
100
AcDbPolyline
 62
253
  6
CONTINUOUS
 90
10
 70
0
 10
251.1115816719
 20
52.9458074129
 10
250.5232467263
 20
52.8607699949
 10
249.9431942445
 20
52.7808827126
 10
249.3714737562
 20
52.7059732409
 10
248.8081423107
 20
52.6358727553
 10
248.2532324826
 20
52.5704117842
 10
247.7067531859
 20
52.509421236
 10
247.1687323752
 20
52.452737346
 10
246.6392176455
 20
52.4002009385
 10
246.1182439316
 20
52.3516540911
  0
LWPOLYLINE
  5
26A
100
AcDbEntity
  8
ASSI
100
AcDbPolyline
 62
253
  6
CONTINUOUS
 90
10
 70
0
 10
251.1115816719
 20
52.9458074129
 10
250.5232467263
 20
52.8607699949
 10
249.9431942445
 20
52.7808827126
 10
249.3714737562
 20
52.7059732409
 10
248.8081423107
 20
52.6358727553
 10
248.2532324826
 20
52.5704117842
 10
247.7067531859
 20
52.509421236
 10
247.1687323752
 20
52.452737346
 10
246.6392176455
 20
52.4002009385
 10
246.1182439316
 20
52.3516540911
  0
LWPOLYLINE
  5
26B
100
AcDbEntity
  8
0
100
AcDbPolyline
 62
253
  6
CONTINUOUS
 90
10
 70
0
 10
251.0588859986
 20
53.3838906315
 10
250.4732603579
 20
53.2994953944
 10
249.8959805401
 20
53.2198909127
 10
249.3270463901
 20
53.1450768236
 10
248.7664298952
 20
53.0752187871
 10
248.2141586041
 20
53.010150473
 10
247.6703158008
 20
52.9493735966
 10
247.1349292035
 20
52.8927219146
 10
246.607970798
 20
52.840361191
 10
246.0894403751
 20
52.7922912084
  0
LWPOLYLINE
  5
26C
100
AcDbEntity
  8
ASSI
100
AcDbPolyline
 62
253
  6
CONTINUOUS
 90
10
 70
0
 10
251.0588859986
 20
53.3838906315
 10
250.4732603579
 20
53.2994953944
 10
249.8959805401
 20
53.2198909127
 10
249.3270463901
 20
53.1450768236
 10
248.7664298952
 20
53.0752187871
 10
248.2141586041
 20
53.010150473
 10
247.6703158008
 20
52.9493735966
 10
247.1349292035
 20
52.8927219146
 10
246.607970798
 20
52.840361191
 10
246.0894403751
 20
52.7922912084
  0
LWPOLYLINE
  5
26D
100
AcDbEntity
  8
0
100
AcDbPolyline
 62
253
  6
CONTINUOUS
 90
9
 70
0
 10
246.0894403751
 20
52.7922912084
 10
244.5146710887
 20
52.6545462062
 10
242.9392643967
 20
52.5254656454
 10
241.3632246812
 20
52.4050484486
 10
239.7865406836
 20
52.293290896
 10
238.2092321299
 20
52.1901947545
 10
236.6313497375
 20
52.0957672777
 10
235.0529130686
 20
52.0100103705
 10
233.4739105416
 20
51.9329205899
  0
LWPOLYLINE
  5
26E
100
AcDbEntity
  8
ASSI
100
AcDbPolyline
 62
253
  6
CONTINUOUS
 90
9
 70
0
 10
246.0894403751
 20
52.7922912084
 10
244.5146710887
 20
52.6545462062
 10
242.9392643967
 20
52.5254656454
 10
241.3632246812
 20
52.4050484486
 10
239.7865406836
 20
52.293290896
 10
238.2092321299
 20
52.1901947545
 10
236.6313497375
 20
52.0957672777
 10
235.0529130686
 20
52.0100103705
 10
233.4739105416
 20
51.9329205899
  0
LWPOLYLINE
  5
26F
100
AcDbEntity
  8
0
100
AcDbPolyline
 62
253
  6
CONTINUOUS
 90
9
 70
0
 10
246.1182439315
 20
52.3516540914
 10
244.5420836758
 20
52.2138643148
 10
242.9651999602
 20
52.0847333825
 10
241.3876365239
 20
51.9642648369
 10
239.8094750482
 20
51.8524646343
 10
238.230736996
 20
51.7493335295
 10
236.6513756163
 20
51.6548690081
 10
235.0714123458
 20
51.5690742226
 10
233.4909290116
 20
51.49195502
  0
LWPOLYLINE
  5
270
100
AcDbEntity
  8
ASSI
100
AcDbPolyline
 62
253
  6
CONTINUOUS
 90
9
 70
0
 10
246.1182439315
 20
52.3516540914
 10
244.5420836758
 20
52.2138643148
 10
242.9651999602
 20
52.0847333825
 10
241.3876365239
 20
51.9642648369
 10
239.8094750482
 20
51.8524646343
 10
238.230736996
 20
51.7493335295
 10
236.6513756163
 20
51.6548690081
 10
235.0714123458
 20
51.5690742226
 10
233.4909290116
 20
51.49195502
  0
LINE
  5
271
100
AcDbEntity
  8
0
100
AcDbLine
 62
253
  6
CONTINUOUS
 10
233.4909290116
 20
51.49195502
 11
231.8726304254
 21
51.4220034695
  0
LINE
  5
272
100
AcDbEntity
  8
ASSI
100
AcDbLine
 62
253
  6
CONTINUOUS
 10
233.4909290116
 20
51.49195502
 11
231.8726304254
 21
51.4220034695
  0
LWPOLYLINE
  5
273
100
AcDbEntity
  8
0
100
AcDbPolyline
 62
253
  6
CONTINUOUS
 90
24
 70
0
 10
231.8726304254
 20
51.4220034695
 10
230.9033681612
 20
51.3844733011
 10
229.9340498031
 20
51.3502084752
 10
228.9646866867
 20
51.3192086209
 10
227.9952978715
 20
51.2914735783
 10
227.025886957
 20
51.2670027132
 10
226.0564420763
 20
51.2457951771
 10
225.086974095
 20
51.2278508252
 10
224.1174947714
 20
51.2131695314
 10
223.1479933473
 20
51.2017508861
 10
222.1784795648
 20
51.1935947387
 10
221.2089639032
 20
51.1887009212
 10
220.239435946
 20
51.1870692691
 10
219.2699056938
 20
51.1886998178
 10
218.3003831467
 20
51.1935925781
 10
217.3308578879
 20
51.201747761
 10
216.3613403985
 20
51.2131655807
 10
215.3918404202
 20
51.2278462342
 10
214.4223471916
 20
51.2457901773
 10
213.4528724633
 20
51.2669975829
 10
212.4834271123
 20
51.291468642
 10
211.5139992974
 20
51.3192042486
 10
210.5445926286
 20
51.3502050827
 10
209.5752261605
 20
51.3844713507
  0
LWPOLYLINE
  5
274
100
AcDbEntity
  8
ASSI
100
AcDbPolyline
 62
253
  6
CONTINUOUS
 90
24
 70
0
 10
231.8726304254
 20
51.4220034695
 10
230.9033681612
 20
51.3844733011
 10
229.9340498031
 20
51.3502084752
 10
228.9646866867
 20
51.3192086209
 10
227.9952978715
 20
51.2914735783
 10
227.025886957
 20
51.2670027132
 10
226.0564420763
 20
51.2457951771
 10
225.086974095
 20
51.2278508252
 10
224.1174947714
 20
51.2131695314
 10
223.1479933473
 20
51.2017508861
 10
222.1784795648
 20
51.1935947387
 10
221.2089639032
 20
51.1887009212
 10
220.239435946
 20
51.1870692691
 10
219.2699056938
 20
51.1886998178
 10
218.3003831467
 20
51.1935925781
 10
217.3308578879
 20
51.201747761
 10
216.3613403985
 20
51.2131655807
 10
215.3918404202
 20
51.2278462342
 10
214.4223471916
 20
51.2457901773
 10
213.4528724633
 20
51.2669975829
 10
212.4834271123
 20
51.291468642
 10
211.5139992974
 20
51.3192042486
 10
210.5445926286
 20
51.3502050827
 10
209.5752261605
 20
51.3844713507
  0
LINE
  5
275
100
AcDbEntity
  8
0
100
AcDbLine
 62
253
  6
CONTINUOUS
 10
209.5752261605
 20
51.3844713507
 11
208.5685723375
 21
51.4235146752
  0
LINE
  5
276
100
AcDbEntity
  8
ASSI
100
AcDbLine
 62
253
  6
CONTINUOUS
 10
209.5752261605
 20
51.3844713507
 11
208.5685723375
 21
51.4235146752
  0
LWPOLYLINE
  5
277
100
AcDbEntity
  8
0
100
AcDbPolyline
 62
253
  6
CONTINUOUS
 90
10
 70
0
 10
208.5685723375
 20
51.4235146752
 10
206.9873350722
 20
51.4919678004
 10
205.4066437012
 20
51.5690992553
 10
203.8265418726
 20
51.6549046217
 10
202.2471113376
 20
51.7493769102
 10
200.6683734843
 20
51.8525118252
 10
199.0902815338
 20
51.964310736
 10
197.5128568639
 20
52.0847717458
 10
195.9361810213
 20
52.2138877608
 10
194.3602976211
 20
52.3516541008
  0
LWPOLYLINE
  5
278
100
AcDbEntity
  8
ASSI
100
AcDbPolyline
 62
253
  6
CONTINUOUS
 90
10
 70
0
 10
208.5685723375
 20
51.4235146752
 10
206.9873350722
 20
51.4919678004
 10
205.4066437012
 20
51.5690992553
 10
203.8265418726
 20
51.6549046217
 10
202.2471113376
 20
51.7493769102
 10
200.6683734843
 20
51.8525118252
 10
199.0902815338
 20
51.964310736
 10
197.5128568639
 20
52.0847717458
 10
195.9361810213
 20
52.2138877608
 10
194.3602976211
 20
52.3516541008
  0
LWPOLYLINE
  5
279
100
AcDbEntity
  8
0
100
AcDbPolyline
 62
253
  6
CONTINUOUS
 90
10
 70
0
 10
194.3891012825
 20
52.7922912084
 10
193.8705899196
 20
52.8403592143
 10
193.3436457974
 20
52.892718388
 10
192.8082687069
 20
52.949368947
 10
192.2644306187
 20
53.0101450377
 10
191.7121592667
 20
53.075212993
 10
191.15153798
 20
53.1450713667
 10
190.5825943228
 20
53.2198865786
 10
190.0053002674
 20
53.2994928793
 10
189.4196556589
 20
53.3838906315
  0
LWPOLYLINE
  5
27A
100
AcDbEntity
  8
ASSI
100
AcDbPolyline
 62
253
  6
CONTINUOUS
 90
10
 70
0
 10
194.3891012825
 20
52.7922912084
 10
193.8705899196
 20
52.8403592143
 10
193.3436457974
 20
52.892718388
 10
192.8082687069
 20
52.949368947
 10
192.2644306187
 20
53.0101450377
 10
191.7121592667
 20
53.075212993
 10
191.15153798
 20
53.1450713667
 10
190.5825943228
 20
53.2198865786
 10
190.0053002674
 20
53.2994928793
 10
189.4196556589
 20
53.3838906315
  0
LWPOLYLINE
  5
27B
100
AcDbEntity
  8
0
100
AcDbPolyline
 62
253
  6
CONTINUOUS
 90
10
 70
0
 10
194.3602976211
 20
52.3516541006
 10
193.8393428338
 20
52.4001991284
 10
193.309842274
 20
52.4527339723
 10
192.771830883
 20
52.5094166363
 10
192.2253562495
 20
52.570406382
 10
191.670446353
 20
52.6358670593
 10
191.1071101623
 20
52.705967844
 10
190.53538028
 20
52.780878297
 10
189.9553137552
 20
52.8607673388
 10
189.3669601327
 20
52.9458073911
  0
LWPOLYLINE
  5
27C
100
AcDbEntity
  8
ASSI
100
AcDbPolyline
 62
253
  6
CONTINUOUS
 90
10
 70
0
 10
194.3602976211
 20
52.3516541006
 10
193.8393428338
 20
52.4001991284
 10
193.309842274
 20
52.4527339723
 10
192.771830883
 20
52.5094166363
 10
192.2253562495
 20
52.570406382
 10
191.670446353
 20
52.6358670593
 10
191.1071101623
 20
52.705967844
 10
190.53538028
 20
52.780878297
 10
189.9553137552
 20
52.8607673388
 10
189.3669601327
 20
52.9458073911
  0
LWPOLYLINE
  5
27D
100
AcDbEntity
  8
0
100
AcDbPolyline
 62
253
  6
CONTINUOUS
 90
37
 70
0
 10
189.4196556589
 20
53.3838906315
 10
188.8655675927
 20
53.4754700751
 10
188.3149553714
 20
53.5861576628
 10
187.7678142321
 20
53.7159554036
 10
187.2232976115
 20
53.8650095398
 10
186.6822433963
 20
54.0331788587
 10
186.1471739431
 20
54.2200346099
 10
185.6181162542
 20
54.4257201624
 10
185.0950366077
 20
54.6500989066
 10
184.5803669589
 20
54.8923223127
 10
184.074195075
 20
55.1525011111
 10
183.5764290778
 20
55.4305325559
 10
183.0892323984
 20
55.72524778
 10
182.6127769503
 20
56.0366579989
 10
182.1468896305
 20
56.3647605933
 10
181.6932173465
 20
56.7083655573
 10
181.2518229806
 20
57.0675074272
 10
180.8226453275
 20
57.442160421
 10
180.4071460866
 20
57.8310434621
 10
180.0053572181
 20
58.2342143494
 10
179.6172511212
 20
58.6516237199
 10
179.2442009441
 20
59.0818289255
 10
178.8862497241
 20
59.5248884089
 10
178.5433611416
 20
59.9807513561
 10
178.2167898987
 20
60.4478101637
 10
177.9065787013
 20
60.92615051
 10
177.6126934435
 20
61.4156931167
 10
177.3362739153
 20
61.9145816291
 10
177.0773971544
 20
62.4228767842
 10
176.8359959797
 20
62.9405225974
 10
176.6129937983
 20
63.4654861021
 10
176.4084815294
 20
63.9978180534
 10
176.222378637
 20
64.5374705613
 10
176.0553508811
 20
65.0822610378
 10
175.9076233715
 20
65.6314618925
 10
175.778981018
 20
66.1858014171
 10
175.6694289614
 20
66.7452799587
  0
LWPOLYLINE
  5
27E
100
AcDbEntity
  8
ASSI
100
AcDbPolyline
 62
253
  6
CONTINUOUS
 90
37
 70
0
 10
189.4196556589
 20
53.3838906315
 10
188.8655675927
 20
53.4754700751
 10
188.3149553714
 20
53.5861576628
 10
187.7678142321
 20
53.7159554036
 10
187.2232976115
 20
53.8650095398
 10
186.6822433963
 20
54.0331788587
 10
186.1471739431
 20
54.2200346099
 10
185.6181162542
 20
54.4257201624
 10
185.0950366077
 20
54.6500989066
 10
184.5803669589
 20
54.8923223127
 10
184.074195075
 20
55.1525011111
 10
183.5764290778
 20
55.4305325559
 10
183.0892323984
 20
55.72524778
 10
182.6127769503
 20
56.0366579989
 10
182.1468896305
 20
56.3647605933
 10
181.6932173465
 20
56.7083655573
 10
181.2518229806
 20
57.0675074272
 10
180.8226453275
 20
57.442160421
 10
180.4071460866
 20
57.8310434621
 10
180.0053572181
 20
58.2342143494
 10
179.6172511212
 20
58.6516237199
 10
179.2442009441
 20
59.0818289255
 10
178.8862497241
 20
59.5248884089
 10
178.5433611416
 20
59.9807513561
 10
178.2167898987
 20
60.4478101637
 10
177.9065787013
 20
60.92615051
 10
177.6126934435
 20
61.4156931167
 10
177.3362739153
 20
61.9145816291
 10
177.0773971544
 20
62.4228767842
 10
176.8359959797
 20
62.9405225974
 10
176.6129937983
 20
63.4654861021
 10
176.4084815294
 20
63.9978180534
 10
176.222378637
 20
64.5374705613
 10
176.0553508811
 20
65.0822610378
 10
175.9076233715
 20
65.6314618925
 10
175.778981018
 20
66.1858014171
 10
175.6694289614
 20
66.7452799587
  0
LWPOLYLINE
  5
27F
100
AcDbEntity
  8
0
100
AcDbPolyline
 62
253
  6
CONTINUOUS
 90
37
 70
0
 10
189.366960132
 20
52.9458073864
 10
188.7977021792
 20
53.0400411483
 10
188.2306543698
 20
53.1539530984
 10
187.6665136808
 20
53.2875457268
 10
187.1058136681
 20
53.4408594179
 10
186.5494134293
 20
53.6138045932
 10
185.9984965436
 20
53.8061337127
 10
185.4537269947
 20
54.0177232947
 10
184.9157903335
 20
54.248394731
 10
184.3858718063
 20
54.4977083187
 10
183.8646558885
 20
54.7653912472
 10
183.3527333036
 20
55.0511657103
 10
182.8511059334
 20
55.3544880562
 10
182.3604916387
 20
55.6749194248
 10
181.8813349143
 20
56.0121389432
 10
181.4142037613
 20
56.365739788
 10
180.9596778206
 20
56.7352893408
 10
180.5182619127
 20
57.1203555576
 10
180.0904163413
 20
57.5205396632
 10
179.6766491846
 20
57.9353933329
 10
179.2774607892
 20
58.3644117805
 10
178.8933081938
 20
58.8071211878
 10
178.5246589538
 20
59.263023042
 10
178.171962065
 20
59.7315700711
 10
177.8356497471
 20
60.2122181025
 10
177.5161305849
 20
60.704437052
 10
177.2138173305
 20
61.2076022352
 10
176.9291404751
 20
61.7210226702
 10
176.6624593173
 20
62.2440915484
 10
176.4141014808
 20
62.7761495111
 10
176.1844281812
 20
63.3164163534
 10
175.9737193614
 20
63.8642363588
 10
175.7822122615
 20
64.4189173736
 10
175.6101741705
 20
64.9796150974
 10
175.4578101252
 20
65.5455852745
 10
175.3252417567
 20
66.116190106
 10
175.2125941716
 20
66.6907435485
  0
LWPOLYLINE
  5
280
100
AcDbEntity
  8
ASSI
100
AcDbPolyline
 62
253
  6
CONTINUOUS
 90
37
 70
0
 10
189.366960132
 20
52.9458073864
 10
188.7977021792
 20
53.0400411483
 10
188.2306543698
 20
53.1539530984
 10
187.6665136808
 20
53.2875457268
 10
187.1058136681
 20
53.4408594179
 10
186.5494134293
 20
53.6138045932
 10
185.9984965436
 20
53.8061337127
 10
185.4537269947
 20
54.0177232947
 10
184.9157903335
 20
54.248394731
 10
184.3858718063
 20
54.4977083187
 10
183.8646558885
 20
54.7653912472
 10
183.3527333036
 20
55.0511657103
 10
182.8511059334
 20
55.3544880562
 10
182.3604916387
 20
55.6749194248
 10
181.8813349143
 20
56.0121389432
 10
181.4142037613
 20
56.365739788
 10
180.9596778206
 20
56.7352893408
 10
180.5182619127
 20
57.1203555576
 10
180.0904163413
 20
57.5205396632
 10
179.6766491846
 20
57.9353933329
 10
179.2774607892
 20
58.3644117805
 10
178.8933081938
 20
58.8071211878
 10
178.5246589538
 20
59.263023042
 10
178.171962065
 20
59.7315700711
 10
177.8356497471
 20
60.2122181025
 10
177.5161305849
 20
60.704437052
 10
177.2138173305
 20
61.2076022352
 10
176.9291404751
 20
61.7210226702
 10
176.6624593173
 20
62.2440915484
 10
176.4141014808
 20
62.7761495111
 10
176.1844281812
 20
63.3164163534
 10
175.9737193614
 20
63.8642363588
 10
175.7822122615
 20
64.4189173736
 10
175.6101741705
 20
64.9796150974
 10
175.4578101252
 20
65.5455852745
 10
175.3252417567
 20
66.116190106
 10
175.2125941716
 20
66.6907435485
  0
LWPOLYLINE
  5
281
100
AcDbEntity
  8
0
100
AcDbPolyline
 62
253
  6
CONTINUOUS
 90
10
 70
0
 10
175.2125941887
 20
66.6907435517
 10
175.1356667202
 20
67.1321784586
 10
175.061934069
 20
67.5742013433
 10
174.9914010359
 20
68.0167889804
 10
174.9240740957
 20
68.4599062847
 10
174.8599555879
 20
68.9035427226
 10
174.7990448993
 20
69.347711969
 10
174.7413454349
 20
69.7924035805
 10
174.6868635767
 20
70.2375823561
 10
174.6356039661
 20
70.6832248887
  0
LWPOLYLINE
  5
282
100
AcDbEntity
  8
ASSI
100
AcDbPolyline
 62
253
  6
CONTINUOUS
 90
10
 70
0
 10
175.2125941887
 20
66.6907435517
 10
175.1356667202
 20
67.1321784586
 10
175.061934069
 20
67.5742013433
 10
174.9914010359
 20
68.0167889804
 10
174.9240740957
 20
68.4599062847
 10
174.8599555879
 20
68.9035427226
 10
174.7990448993
 20
69.347711969
 10
174.7413454349
 20
69.7924035805
 10
174.6868635767
 20
70.2375823561
 10
174.6356039661
 20
70.6832248887
  0
LWPOLYLINE
  5
283
100
AcDbEntity
  8
0
100
AcDbPolyline
 62
253
  6
CONTINUOUS
 90
10
 70
0
 10
175.6694289614
 20
66.7452799587
 10
175.5930641308
 20
67.1838426042
 10
175.5198801831
 20
67.6229350924
 10
175.4498778556
 20
68.0625568368
 10
175.3830562044
 20
68.5027145277
 10
175.31941761
 20
68.9434002888
 10
175.2589677721
 20
69.3845916717
 10
175.2017090375
 20
69.8262807824
 10
175.1476404052
 20
70.2684742876
 10
175.096762528
 20
70.7111715675
  0
LWPOLYLINE
  5
284
100
AcDbEntity
  8
ASSI
100
AcDbPolyline
 62
253
  6
CONTINUOUS
 90
10
 70
0
 10
175.6694289614
 20
66.7452799587
 10
175.5930641308
 20
67.1838426042
 10
175.5198801831
 20
67.6229350924
 10
175.4498778556
 20
68.0625568368
 10
175.3830562044
 20
68.5027145277
 10
175.31941761
 20
68.9434002888
 10
175.2589677721
 20
69.3845916717
 10
175.2017090375
 20
69.8262807824
 10
175.1476404052
 20
70.2684742876
 10
175.096762528
 20
70.7111715675
  0
LINE
  5
285
100
AcDbEntity
  8
0
100
AcDbLine
 62
253
  6
CONTINUOUS
 10
174.6356039678
 20
70.6832248889
 11
174.5876209893
 21
71.1177106872
  0
LINE
  5
286
100
AcDbEntity
  8
ASSI
100
AcDbLine
 62
253
  6
CONTINUOUS
 10
174.6356039678
 20
70.6832248889
 11
174.5876209893
 21
71.1177106872
  0
LINE
  5
287
100
AcDbEntity
  8
0
100
AcDbLine
 62
253
  6
CONTINUOUS
 10
175.096762528
 20
70.7111715675
 11
175.0488425864
 21
71.1453736173
  0
LINE
  5
288
100
AcDbEntity
  8
ASSI
100
AcDbLine
 62
253
  6
CONTINUOUS
 10
175.096762528
 20
70.7111715675
 11
175.0488425864
 21
71.1453736173
  0
LWPOLYLINE
  5
289
100
AcDbEntity
  8
0
100
AcDbPolyline
 62
253
  6
CONTINUOUS
 90
16
 70
0
 10
174.6817971388
 20
74.7378494675
 10
174.4040907753
 20
77.8750004303
 10
174.1659560997
 20
81.0147389388
 10
173.967439561
 20
84.156942279
 10
173.8085812124
 20
87.3018352977
 10
173.6894122524
 20
90.4489464613
 10
173.609953497
 20
93.5971074455
 10
173.5702192383
 20
96.7463380762
 10
173.5702194141
 20
99.8963690468
 10
173.6099539254
 20
103.0455976881
 10
173.6894127434
 20
106.1937535991
 10
173.8085816605
 20
109.3408577017
 10
173.9674399293
 20
112.485744957
 10
174.1659563772
 20
115.6279449257
 10
174.4040909294
 20
118.7676813596
 10
174.6817971388
 20
121.904831544
  0
LWPOLYLINE
  5
28A
100
AcDbEntity
  8
ASSI
100
AcDbPolyline
 62
253
  6
CONTINUOUS
 90
16
 70
0
 10
174.6817971388
 20
74.7378494675
 10
174.4040907753
 20
77.8750004303
 10
174.1659560997
 20
81.0147389388
 10
173.967439561
 20
84.156942279
 10
173.8085812124
 20
87.3018352977
 10
173.6894122524
 20
90.4489464613
 10
173.609953497
 20
93.5971074455
 10
173.5702192383
 20
96.7463380762
 10
173.5702194141
 20
99.8963690468
 10
173.6099539254
 20
103.0455976881
 10
173.6894127434
 20
106.1937535991
 10
173.8085816605
 20
109.3408577017
 10
173.9674399293
 20
112.485744957
 10
174.1659563772
 20
115.6279449257
 10
174.4040909294
 20
118.7676813596
 10
174.6817971388
 20
121.904831544
  0
LINE
  5
28B
100
AcDbEntity
  8
0
100
AcDbLine
 62
253
  6
CONTINUOUS
 10
233.4739105416
 20
51.9329205899
 11
231.8570586353
 21
51.862986608
  0
LINE
  5
28C
100
AcDbEntity
  8
ASSI
100
AcDbLine
 62
253
  6
CONTINUOUS
 10
233.4739105416
 20
51.9329205899
 11
231.8570586353
 21
51.862986608
  0
LWPOLYLINE
  5
28D
100
AcDbEntity
  8
0
100
AcDbPolyline
 62
253
  6
CONTINUOUS
 90
24
 70
0
 10
231.8570586353
 20
51.862986608
 10
230.8890761997
 20
51.8254688176
 10
229.9210603724
 20
51.7912147815
 10
228.9530108925
 20
51.7602243882
 10
227.984923462
 20
51.7324979034
 10
227.016801847
 20
51.7080348698
 10
226.0486578784
 20
51.6868341076
 10
225.0804915224
 20
51.6688953726
 10
224.1123022651
 20
51.654218781
 10
223.1441012146
 20
51.6428037098
 10
222.1758883487
 20
51.6346500092
 10
221.2076631325
 20
51.6297577648
 10
220.2394359039
 20
51.6281267237
 10
219.2712063824
 20
51.6297566761
 10
218.3029742883
 20
51.6346478317
 10
217.3347499602
 20
51.6428005824
 10
216.3665328635
 20
51.6542148423
 10
215.3983229758
 20
51.6688907616
 10
214.4301314057
 20
51.6868291022
 10
213.4619576427
 20
51.7080297478
 10
212.4938016497
 20
51.7324929429
 10
211.525675248
 20
51.7602200068
 10
210.5575822005
 20
51.791211443
 10
209.5895182121
 20
51.8254669396
  0
LWPOLYLINE
  5
28E
100
AcDbEntity
  8
ASSI
100
AcDbPolyline
 62
253
  6
CONTINUOUS
 90
24
 70
0
 10
231.8570586353
 20
51.862986608
 10
230.8890761997
 20
51.8254688176
 10
229.9210603724
 20
51.7912147815
 10
228.9530108925
 20
51.7602243882
 10
227.984923462
 20
51.7324979034
 10
227.016801847
 20
51.7080348698
 10
226.0486578784
 20
51.6868341076
 10
225.0804915224
 20
51.6688953726
 10
224.1123022651
 20
51.654218781
 10
223.1441012146
 20
51.6428037098
 10
222.1758883487
 20
51.6346500092
 10
221.2076631325
 20
51.6297577648
 10
220.2394359039
 20
51.6281267237
 10
219.2712063824
 20
51.6297566761
 10
218.3029742883
 20
51.6346478317
 10
217.3347499602
 20
51.6428005824
 10
216.3665328635
 20
51.6542148423
 10
215.3983229758
 20
51.6688907616
 10
214.4301314057
 20
51.6868291022
 10
213.4619576427
 20
51.7080297478
 10
212.4938016497
 20
51.7324929429
 10
211.525675248
 20
51.7602200068
 10
210.5575822005
 20
51.791211443
 10
209.5895182121
 20
51.8254669396
  0
LINE
  5
28F
100
AcDbEntity
  8
0
100
AcDbLine
 62
253
  6
CONTINUOUS
 10
209.5895182121
 20
51.8254669396
 11
208.5841956031
 21
51.8644972743
  0
LINE
  5
290
100
AcDbEntity
  8
ASSI
100
AcDbLine
 62
253
  6
CONTINUOUS
 10
209.5895182121
 20
51.8254669396
 11
208.5841956031
 21
51.8644972743
  0
LWPOLYLINE
  5
291
100
AcDbEntity
  8
0
100
AcDbPolyline
 62
253
  6
CONTINUOUS
 90
10
 70
0
 10
208.5841956031
 20
51.8644972743
 10
207.0043541405
 20
51.9329352571
 10
205.4251439473
 20
52.010036893
 10
203.8465689232
 20
52.0958028438
 10
202.2686175684
 20
52.1902376911
 10
200.6913093586
 20
52.2933383912
 10
199.1146947594
 20
52.4050942719
 10
197.5387934102
 20
52.5255024265
 10
195.9635941272
 20
52.6545677132
 10
194.3891012825
 20
52.7922912084
  0
LWPOLYLINE
  5
292
100
AcDbEntity
  8
ASSI
100
AcDbPolyline
 62
253
  6
CONTINUOUS
 90
10
 70
0
 10
208.5841956031
 20
51.8644972743
 10
207.0043541405
 20
51.9329352571
 10
205.4251439473
 20
52.010036893
 10
203.8465689232
 20
52.0958028438
 10
202.2686175684
 20
52.1902376911
 10
200.6913093586
 20
52.2933383912
 10
199.1146947594
 20
52.4050942719
 10
197.5387934102
 20
52.5255024265
 10
195.9635941272
 20
52.6545677132
 10
194.3891012825
 20
52.7922912084
  0
LWPOLYLINE
  5
293
100
AcDbEntity
  8
0
100
AcDbPolyline
 62
253
  6
CONTINUOUS
 90
16
 70
0
 10
265.8429374482
 20
70.6832227203
 10
265.8364184296
 20
70.6815556443
 10
265.8255882089
 20
70.6804093851
 10
265.8105424121
 20
70.6797940637
 10
265.7914138869
 20
70.6797151132
 10
265.7683715296
 20
70.6801732306
 10
265.7416187941
 20
70.6811643709
 10
265.7113918952
 20
70.6826797829
 10
265.6779577229
 20
70.6847060861
 10
265.6416114861
 20
70.6872253891
 10
265.6026741061
 20
70.6902154477
 10
265.5614893825
 20
70.6936498609
 10
265.5184209581
 20
70.6974983044
 10
265.4738491081
 20
70.7017267982
 10
265.4281673822
 20
70.7062980065
 10
265.3817791295
 20
70.7111715675
  0
LWPOLYLINE
  5
294
100
AcDbEntity
  8
ASSI
100
AcDbPolyline
 62
253
  6
CONTINUOUS
 90
16
 70
0
 10
265.8429374482
 20
70.6832227203
 10
265.8364184296
 20
70.6815556443
 10
265.8255882089
 20
70.6804093851
 10
265.8105424121
 20
70.6797940637
 10
265.7914138869
 20
70.6797151132
 10
265.7683715296
 20
70.6801732306
 10
265.7416187941
 20
70.6811643709
 10
265.7113918952
 20
70.6826797829
 10
265.6779577229
 20
70.6847060861
 10
265.6416114861
 20
70.6872253891
 10
265.6026741061
 20
70.6902154477
 10
265.5614893825
 20
70.6936498609
 10
265.5184209581
 20
70.6974983044
 10
265.4738491081
 20
70.7017267982
 10
265.4281673822
 20
70.7062980065
 10
265.3817791295
 20
70.7111715675
  0
LWPOLYLINE
  5
295
100
AcDbEntity
  8
0
100
AcDbPolyline
 62
253
  6
CONTINUOUS
 90
16
 70
0
 10
265.2659303778
 20
66.6906492778
 10
265.2592873327
 20
66.6891100567
 10
265.2484025176
 20
66.6883720557
 10
265.2333714646
 20
66.6884417518
 10
265.2143260962
 20
66.6893185336
 10
265.1914335668
 20
66.6909947059
 10
265.1648947963
 20
66.6934555578
 10
265.1349427062
 20
66.6966794913
 10
265.1018401755
 20
66.7006382112
 10
265.0658777337
 20
66.7052969733
 10
265.0273710105
 20
66.7106148894
 10
264.9866579661
 20
66.7165452862
 10
264.9440959246
 20
66.7230361147
 10
264.9000584382
 20
66.7300304074
 10
264.8549320087
 20
66.7374667779
 10
264.8091126949
 20
66.74527996
  0
LWPOLYLINE
  5
296
100
AcDbEntity
  8
ASSI
100
AcDbPolyline
 62
253
  6
CONTINUOUS
 90
16
 70
0
 10
265.2659303778
 20
66.6906492778
 10
265.2592873327
 20
66.6891100567
 10
265.2484025176
 20
66.6883720557
 10
265.2333714646
 20
66.6884417518
 10
265.2143260962
 20
66.6893185336
 10
265.1914335668
 20
66.6909947059
 10
265.1648947963
 20
66.6934555578
 10
265.1349427062
 20
66.6966794913
 10
265.1018401755
 20
66.7006382112
 10
265.0658777337
 20
66.7052969733
 10
265.0273710105
 20
66.7106148894
 10
264.9866579661
 20
66.7165452862
 10
264.9440959246
 20
66.7230361147
 10
264.9000584382
 20
66.7300304074
 10
264.8549320087
 20
66.7374667779
 10
264.8091126949
 20
66.74527996
  0
LWPOLYLINE
  5
297
100
AcDbEntity
  8
0
100
AcDbPolyline
 62
253
  6
CONTINUOUS
 90
16
 70
0
 10
175.2126109812
 20
66.6906492231
 10
175.2192540348
 20
66.6891099911
 10
175.2301388613
 20
66.6883719817
 10
175.2451699283
 20
66.6884416721
 10
175.2642153132
 20
66.6893184506
 10
175.2871078613
 20
66.6909946221
 10
175.3136466525
 20
66.6934554754
 10
175.3435987649
 20
66.6966794123
 10
175.376701319
 20
66.7006381376
 10
175.4126637851
 20
66.7052969068
 10
175.451170533
 20
66.7106148316
 10
175.491883602
 20
66.7165452382
 10
175.5344456675
 20
66.7230360776
 10
175.5784831769
 20
66.7300303819
 10
175.623609628
 20
66.7374667645
 10
175.6694289614
 20
66.7452799587
  0
LWPOLYLINE
  5
298
100
AcDbEntity
  8
ASSI
100
AcDbPolyline
 62
253
  6
CONTINUOUS
 90
16
 70
0
 10
175.2126109812
 20
66.6906492231
 10
175.2192540348
 20
66.6891099911
 10
175.2301388613
 20
66.6883719817
 10
175.2451699283
 20
66.6884416721
 10
175.2642153132
 20
66.6893184506
 10
175.2871078613
 20
66.6909946221
 10
175.3136466525
 20
66.6934554754
 10
175.3435987649
 20
66.6966794123
 10
175.376701319
 20
66.7006381376
 10
175.4126637851
 20
66.7052969068
 10
175.451170533
 20
66.7106148316
 10
175.491883602
 20
66.7165452382
 10
175.5344456675
 20
66.7230360776
 10
175.5784831769
 20
66.7300303819
 10
175.623609628
 20
66.7374667645
 10
175.6694289614
 20
66.7452799587
  0
LWPOLYLINE
  5
299
100
AcDbEntity
  8
0
100
AcDbPolyline
 62
253
  6
CONTINUOUS
 90
16
 70
0
 10
174.6356042093
 20
70.6832227203
 10
174.6421232279
 20
70.6815556441
 10
174.6529534486
 20
70.6804093849
 10
174.6679992454
 20
70.6797940635
 10
174.6871277707
 20
70.6797151129
 10
174.7101701279
 20
70.6801732303
 10
174.7369228634
 20
70.6811643706
 10
174.7671497624
 20
70.6826797826
 10
174.8005839347
 20
70.6847060858
 10
174.8369301714
 20
70.6872253888
 10
174.8758675515
 20
70.6902154474
 10
174.9170522751
 20
70.6936498607
 10
174.9601206994
 20
70.6974983042
 10
175.0046925494
 20
70.701726798
 10
175.0503742754
 20
70.7062980064
 10
175.096762528
 20
70.7111715675
  0
LWPOLYLINE
  5
29A
100
AcDbEntity
  8
ASSI
100
AcDbPolyline
 62
253
  6
CONTINUOUS
 90
16
 70
0
 10
174.6356042093
 20
70.6832227203
 10
174.6421232279
 20
70.6815556441
 10
174.6529534486
 20
70.6804093849
 10
174.6679992454
 20
70.6797940635
 10
174.6871277707
 20
70.6797151129
 10
174.7101701279
 20
70.6801732303
 10
174.7369228634
 20
70.6811643706
 10
174.7671497624
 20
70.6826797826
 10
174.8005839347
 20
70.6847060858
 10
174.8369301714
 20
70.6872253888
 10
174.8758675515
 20
70.6902154474
 10
174.9170522751
 20
70.6936498607
 10
174.9601206994
 20
70.6974983042
 10
175.0046925494
 20
70.701726798
 10
175.0503742754
 20
70.7062980064
 10
175.096762528
 20
70.7111715675
  0
LWPOLYLINE
  5
29B
100
AcDbEntity
  8
0
100
AcDbPolyline
 62
253
  6
CONTINUOUS
 90
8
 70
0
 10
194.3602962906
 20
52.3516542213
 10
194.3597570128
 20
52.3577789287
 10
194.3596038465
 20
52.367986865
 10
194.3598380683
 20
52.3821929427
 10
194.3604577259
 20
52.4002787479
 10
194.3614576542
 20
52.4220935278
 10
194.3628295184
 20
52.4474554466
 10
194.3645618833
 20
52.4761531019
  0
LWPOLYLINE
  5
29C
100
AcDbEntity
  8
ASSI
100
AcDbPolyline
 62
253
  6
CONTINUOUS
 90
8
 70
0
 10
194.3602962906
 20
52.3516542213
 10
194.3597570128
 20
52.3577789287
 10
194.3596038465
 20
52.367986865
 10
194.3598380683
 20
52.3821929427
 10
194.3604577259
 20
52.4002787479
 10
194.3614576542
 20
52.4220935278
 10
194.3628295184
 20
52.4474554466
 10
194.3645618833
 20
52.4761531019
  0
LWPOLYLINE
  5
29D
100
AcDbEntity
  8
0
100
AcDbPolyline
 62
253
  6
CONTINUOUS
 90
9
 70
0
 10
189.3668689359
 20
52.9458212269
 10
189.3665790598
 20
52.9519773056
 10
189.3669080828
 20
52.9621834265
 10
189.3678532655
 20
52.9763546091
 10
189.3694067379
 20
52.9943728578
 10
189.3715555653
 20
53.016088145
 10
189.3742818557
 20
53.0413196596
 10
189.377562909
 20
53.0698573132
 10
189.3813714058
 20
53.1014634887
  0
LWPOLYLINE
  5
29E
100
AcDbEntity
  8
ASSI
100
AcDbPolyline
 62
253
  6
CONTINUOUS
 90
9
 70
0
 10
189.3668689359
 20
52.9458212269
 10
189.3665790598
 20
52.9519773056
 10
189.3669080828
 20
52.9621834265
 10
189.3678532655
 20
52.9763546091
 10
189.3694067379
 20
52.9943728578
 10
189.3715555653
 20
53.016088145
 10
189.3742818557
 20
53.0413196596
 10
189.377562909
 20
53.0698573132
 10
189.3813714058
 20
53.1014634887
  0
LWPOLYLINE
  5
29F
100
AcDbEntity
  8
0
100
AcDbPolyline
 62
253
  6
CONTINUOUS
 90
11
 70
0
 10
189.366868886
 20
143.6968601163
 10
189.3665790007
 20
143.6907040272
 10
189.3669080168
 20
143.680497893
 10
189.3678531948
 20
143.6663266943
 10
189.3694066648
 20
143.648308427
 10
189.3715554918
 20
143.626593119
 10
189.3742817838
 20
143.6013615815
 10
189.3775628404
 20
143.5728239035
 10
189.3813713422
 20
143.5412177023
 10
189.3856755778
 20
143.506806145
 10
189.3956240656
 20
143.4307340383
  0
LWPOLYLINE
  5
2A0
100
AcDbEntity
  8
ASSI
100
AcDbPolyline
 62
253
  6
CONTINUOUS
 90
11
 70
0
 10
189.366868886
 20
143.6968601163
 10
189.3665790007
 20
143.6907040272
 10
189.3669080168
 20
143.680497893
 10
189.3678531948
 20
143.6663266943
 10
189.3694066648
 20
143.648308427
 10
189.3715554918
 20
143.626593119
 10
189.3742817838
 20
143.6013615815
 10
189.3775628404
 20
143.5728239035
 10
189.3813713422
 20
143.5412177023
 10
189.3856755778
 20
143.506806145
 10
189.3956240656
 20
143.4307340383
  0
LWPOLYLINE
  5
2A1
100
AcDbEntity
  8
0
100
AcDbPolyline
 62
253
  6
CONTINUOUS
 90
9
 70
0
 10
194.3602962905
 20
144.2910267911
 10
194.3597570127
 20
144.2849020836
 10
194.3596038463
 20
144.2746941472
 10
194.3598380681
 20
144.2604880695
 10
194.3604577257
 20
144.2424022641
 10
194.3614576539
 20
144.2205874842
 10
194.3628295181
 20
144.1952255653
 10
194.364561883
 20
144.1665279099
 10
194.3690474705
 20
144.10010803
  0
LWPOLYLINE
  5
2A2
100
AcDbEntity
  8
ASSI
100
AcDbPolyline
 62
253
  6
CONTINUOUS
 90
9
 70
0
 10
194.3602962905
 20
144.2910267911
 10
194.3597570127
 20
144.2849020836
 10
194.3596038463
 20
144.2746941472
 10
194.3598380681
 20
144.2604880695
 10
194.3604577257
 20
144.2424022641
 10
194.3614576539
 20
144.2205874842
 10
194.3628295181
 20
144.1952255653
 10
194.364561883
 20
144.1665279099
 10
194.3690474705
 20
144.10010803
  0
LWPOLYLINE
  5
2A3
100
AcDbEntity
  8
0
100
AcDbPolyline
 62
253
  6
CONTINUOUS
 90
13
 70
0
 10
266.2473469593
 20
74.5959653465
 10
266.2408946917
 20
74.594669241
 10
266.2301153246
 20
74.5938186625
 10
266.2151042
 20
74.5934211343
 10
266.1959940894
 20
74.5934801725
 10
266.172954019
 20
74.5939952549
 10
266.1461877752
 20
74.5949618257
 10
266.1159321018
 20
74.5963713356
 10
266.0824546062
 20
74.5982113179
 10
266.0460513923
 20
74.6004654979
 10
266.0070444416
 20
74.603113938
 10
265.9657787653
 20
74.6061332128
 10
265.9226193529
 20
74.6094966174
  0
LWPOLYLINE
  5
2A4
100
AcDbEntity
  8
ASSI
100
AcDbPolyline
 62
253
  6
CONTINUOUS
 90
13
 70
0
 10
266.2473469593
 20
74.5959653465
 10
266.2408946917
 20
74.594669241
 10
266.2301153246
 20
74.5938186625
 10
266.2151042
 20
74.5934211343
 10
266.1959940894
 20
74.5934801725
 10
266.172954019
 20
74.5939952549
 10
266.1461877752
 20
74.5949618257
 10
266.1159321018
 20
74.5963713356
 10
266.0824546062
 20
74.5982113179
 10
266.0460513923
 20
74.6004654979
 10
266.0070444416
 20
74.603113938
 10
265.9657787653
 20
74.6061332128
 10
265.9226193529
 20
74.6094966174
  0
LWPOLYLINE
  5
2A5
100
AcDbEntity
  8
0
100
AcDbPolyline
 62
253
  6
CONTINUOUS
 90
12
 70
0
 10
266.2584466812
 20
74.7126035641
 10
266.2519958055
 20
74.7113136239
 10
266.2412174615
 20
74.710466997
 10
266.2262069853
 20
74.7100711719
 10
266.2070971468
 20
74.7101296499
 10
266.1840569756
 20
74.7106419135
 10
266.1572902655
 20
74.7116034319
 10
266.1270337723
 20
74.7130057001
 10
266.0935551194
 20
74.714836315
 10
266.0571504305
 20
74.7170790844
 10
266.0181417109
 20
74.7197141707
 10
265.9768739987
 20
74.7227182662
  0
LWPOLYLINE
  5
2A6
100
AcDbEntity
  8
ASSI
100
AcDbPolyline
 62
253
  6
CONTINUOUS
 90
12
 70
0
 10
266.2584466812
 20
74.7126035641
 10
266.2519958055
 20
74.7113136239
 10
266.2412174615
 20
74.710466997
 10
266.2262069853
 20
74.7100711719
 10
266.2070971468
 20
74.7101296499
 10
266.1840569756
 20
74.7106419135
 10
266.1572902655
 20
74.7116034319
 10
266.1270337723
 20
74.7130057001
 10
266.0935551194
 20
74.714836315
 10
266.0571504305
 20
74.7170790844
 10
266.0181417109
 20
74.7197141707
 10
265.9768739987
 20
74.7227182662
  0
LINE
  5
2A7
100
AcDbEntity
  8
SCRITTA
100
AcDbLine
 62
253
  6
CONTINUOUS
 10
225.5984190407
 20
69.4435391514
 11
225.0362864676
 21
69.4435391514
  0
LINE
  5
2A8
100
AcDbEntity
  8
SCRITTA
100
AcDbLine
 62
253
  6
CONTINUOUS
 10
224.1413461736
 20
69.4435391514
 11
223.5592896436
 21
69.4435391514
  0
LINE
  5
2A9
100
AcDbEntity
  8
SCRITTA
100
AcDbLine
 62
253
  6
CONTINUOUS
 10
217.8393938288
 20
69.4435395057
 11
217.2549858294
 21
69.4435395057
  0
LINE
  5
2AA
100
AcDbEntity
  8
SCRITTA
100
AcDbLine
 62
253
  6
CONTINUOUS
 10
215.6231638288
 20
69.4435395057
 11
216.1381738335
 21
69.4435395057
  0
LINE
  5
2AB
100
AcDbEntity
  8
SCRITTA
100
AcDbLine
 62
253
  6
CONTINUOUS
 10
218.1539988288
 20
69.4435395057
 11
218.7130878188
 21
69.4435395057
  0
LINE
  5
2AC
100
AcDbEntity
  8
SCRITTA
100
AcDbLine
 62
253
  6
CONTINUOUS
 10
219.5247838288
 20
69.4435395057
 11
219.6067468274
 21
69.4435395057
  0
LINE
  5
2AD
100
AcDbEntity
  8
SCRITTA
100
AcDbLine
 62
253
  6
CONTINUOUS
 10
220.4216768288
 20
69.4435395057
 11
220.9933828204
 21
69.4435395057
  0
LINE
  5
2AE
100
AcDbEntity
  8
SCRITTA
100
AcDbLine
 62
253
  6
CONTINUOUS
 10
221.0851508288
 20
69.4435395057
 11
221.663217828
 21
69.4435395057
  0
LINE
  5
2AF
100
AcDbEntity
  8
SCRITTA
100
AcDbLine
 62
253
  6
CONTINUOUS
 10
222.7717368288
 20
69.4435395057
 11
223.3876788544
 21
69.4435395057
  0
LINE
  5
2B0
100
AcDbEntity
  8
SCRITTA
100
AcDbLine
 62
253
  6
CONTINUOUS
 10
221.8244778288
 20
70.0024595057
 11
222.6203448112
 21
70.0024595057
  0
LWPOLYLINE
  5
2B1
100
AcDbEntity
  8
0
100
AcDbPolyline
 62
253
  6
CONTINUOUS
 90
13
 70
0
 10
174.2200949224
 20
74.7126035587
 10
174.2265458002
 20
74.7113136181
 10
174.2373241467
 20
74.7104669909
 10
174.2523346259
 20
74.7100711657
 10
174.2714444677
 20
74.7101296436
 10
174.2944846425
 20
74.7106419074
 10
174.3212513565
 20
74.711603426
 10
174.3515078538
 20
74.7130056946
 10
174.384986511
 20
74.71483631
 10
174.4213912042
 20
74.71707908
 10
174.4603999282
 20
74.719714167
 10
174.5016676446
 20
74.7227182632
 10
174.5895032249
 20
74.7297241676
  0
LWPOLYLINE
  5
2B2
100
AcDbEntity
  8
ASSI
100
AcDbPolyline
 62
253
  6
CONTINUOUS
 90
13
 70
0
 10
174.2200949224
 20
74.7126035587
 10
174.2265458002
 20
74.7113136181
 10
174.2373241467
 20
74.7104669909
 10
174.2523346259
 20
74.7100711657
 10
174.2714444677
 20
74.7101296436
 10
174.2944846425
 20
74.7106419074
 10
174.3212513565
 20
74.711603426
 10
174.3515078538
 20
74.7130056946
 10
174.384986511
 20
74.71483631
 10
174.4213912042
 20
74.71707908
 10
174.4603999282
 20
74.719714167
 10
174.5016676446
 20
74.7227182632
 10
174.5895032249
 20
74.7297241676
  0
LWPOLYLINE
  5
2B3
100
AcDbEntity
  8
0
100
AcDbPolyline
 62
253
  6
CONTINUOUS
 90
15
 70
0
 10
174.231194698
 20
74.5959653465
 10
174.2376469656
 20
74.5946692409
 10
174.2484263327
 20
74.5938186624
 10
174.2634374572
 20
74.5934211343
 10
174.2825475679
 20
74.5934801725
 10
174.3055876383
 20
74.5939952549
 10
174.3323538821
 20
74.5949618257
 10
174.3626095555
 20
74.5963713356
 10
174.3960870511
 20
74.5982113178
 10
174.4324902651
 20
74.6004654979
 10
174.4714972158
 20
74.6031139379
 10
174.5127628921
 20
74.6061332128
 10
174.5559223045
 20
74.6094966174
 10
174.600593714
 20
74.613174403
 10
174.6928821949
 20
74.6213405057
  0
LWPOLYLINE
  5
2B4
100
AcDbEntity
  8
ASSI
100
AcDbPolyline
 62
253
  6
CONTINUOUS
 90
15
 70
0
 10
174.231194698
 20
74.5959653465
 10
174.2376469656
 20
74.5946692409
 10
174.2484263327
 20
74.5938186624
 10
174.2634374572
 20
74.5934211343
 10
174.2825475679
 20
74.5934801725
 10
174.3055876383
 20
74.5939952549
 10
174.3323538821
 20
74.5949618257
 10
174.3626095555
 20
74.5963713356
 10
174.3960870511
 20
74.5982113178
 10
174.4324902651
 20
74.6004654979
 10
174.4714972158
 20
74.6031139379
 10
174.5127628921
 20
74.6061332128
 10
174.5559223045
 20
74.6094966174
 10
174.600593714
 20
74.613174403
 10
174.6928821949
 20
74.6213405057
  0
LINE
  5
2B5
100
AcDbEntity
  8
0
100
AcDbLine
 62
253
  6
CONTINUOUS
 10
189.3813714058
 20
53.1014634887
 11
189.3904397579
 21
53.1728053799
  0
LINE
  5
2B6
100
AcDbEntity
  8
ASSI
100
AcDbLine
 62
253
  6
CONTINUOUS
 10
189.3813714058
 20
53.1014634887
 11
189.3904397579
 21
53.1728053799
  0
LINE
  5
2B7
100
AcDbEntity
  8
0
100
AcDbLine
 62
253
  6
CONTINUOUS
 10
189.3904397579
 20
53.1728053799
 11
189.4011855135
 21
53.252974185
  0
LINE
  5
2B8
100
AcDbEntity
  8
ASSI
100
AcDbLine
 62
253
  6
CONTINUOUS
 10
189.3904397579
 20
53.1728053799
 11
189.4011855135
 21
53.252974185
  0
LWPOLYLINE
  5
2B9
100
AcDbEntity
  8
0
100
AcDbPolyline
 62
253
  6
CONTINUOUS
 90
3
 70
0
 10
189.4011855135
 20
53.252974185
 10
189.4132515232
 20
53.3393053808
 10
189.4196556592
 20
53.3838906324
  0
LWPOLYLINE
  5
2BA
100
AcDbEntity
  8
ASSI
100
AcDbPolyline
 62
253
  6
CONTINUOUS
 90
3
 70
0
 10
189.4011855135
 20
53.252974185
 10
189.4132515232
 20
53.3393053808
 10
189.4196556592
 20
53.3838906324
  0
LINE
  5
2BB
100
AcDbEntity
  8
0
100
AcDbLine
 62
253
  6
CONTINUOUS
 10
189.3496582807
 20
52.8313405057
 11
189.3669601327
 21
52.9458073911
  0
LINE
  5
2BC
100
AcDbEntity
  8
ASSI
100
AcDbLine
 62
253
  6
CONTINUOUS
 10
189.3496582807
 20
52.8313405057
 11
189.3669601327
 21
52.9458073911
  0
LWPOLYLINE
  5
2BD
100
AcDbEntity
  8
0
100
AcDbPolyline
 62
253
  6
CONTINUOUS
 90
19
 70
0
 10
208.5662840051
 20
121.3926848034
 10
208.5245605456
 20
121.36277816
 10
208.4846457086
 20
121.3307404608
 10
208.4465394885
 20
121.2965716871
 10
208.4101050574
 20
121.2601427107
 10
208.375479238
 20
121.2215826176
 10
208.3430725093
 20
121.1812787134
 10
208.3128916784
 20
121.1391106767
 10
208.2849299581
 20
121.0951987889
 10
208.2595774505
 20
121.0502912715
 10
208.2369277468
 20
121.0043066276
 10
208.2168873009
 20
120.9573263294
 10
208.1995655215
 20
120.9103430727
 10
208.1850926089
 20
120.863397796
 10
208.1733384196
 20
120.8164495619
 10
208.1640218456
 20
120.7703682755
 10
208.157049199
 20
120.7254439175
 10
208.1525142151
 20
120.6813865316
 10
208.150416917
 20
120.6381961285
  0
LWPOLYLINE
  5
2BE
100
AcDbEntity
  8
ASSI
100
AcDbPolyline
 62
253
  6
CONTINUOUS
 90
19
 70
0
 10
208.5662840051
 20
121.3926848034
 10
208.5245605456
 20
121.36277816
 10
208.4846457086
 20
121.3307404608
 10
208.4465394885
 20
121.2965716871
 10
208.4101050574
 20
121.2601427107
 10
208.375479238
 20
121.2215826176
 10
208.3430725093
 20
121.1812787134
 10
208.3128916784
 20
121.1391106767
 10
208.2849299581
 20
121.0951987889
 10
208.2595774505
 20
121.0502912715
 10
208.2369277468
 20
121.0043066276
 10
208.2168873009
 20
120.9573263294
 10
208.1995655215
 20
120.9103430727
 10
208.1850926089
 20
120.863397796
 10
208.1733384196
 20
120.8164495619
 10
208.1640218456
 20
120.7703682755
 10
208.157049199
 20
120.7254439175
 10
208.1525142151
 20
120.6813865316
 10
208.150416917
 20
120.6381961285
  0
LWPOLYLINE
  5
2BF
100
AcDbEntity
  8
0
100
AcDbPolyline
 62
253
  6
CONTINUOUS
 90
10
 70
0
 10
208.7189788891
 20
121.1646850789
 10
208.6924571078
 20
121.1459731924
 10
208.6671485078
 20
121.126259988
 10
208.6430717144
 20
121.1056328027
 10
208.6202207018
 20
121.0841965089
 10
208.5986269983
 20
121.0620068582
 10
208.5783644159
 20
121.0390870598
 10
208.5594633251
 20
121.0155097377
 10
208.5419035141
 20
120.9913833906
 10
208.5256844339
 20
120.9667917538
  0
LWPOLYLINE
  5
2C0
100
AcDbEntity
  8
ASSI
100
AcDbPolyline
 62
253
  6
CONTINUOUS
 90
10
 70
0
 10
208.7189788891
 20
121.1646850789
 10
208.6924571078
 20
121.1459731924
 10
208.6671485078
 20
121.126259988
 10
208.6430717144
 20
121.1056328027
 10
208.6202207018
 20
121.0841965089
 10
208.5986269983
 20
121.0620068582
 10
208.5783644159
 20
121.0390870598
 10
208.5594633251
 20
121.0155097377
 10
208.5419035141
 20
120.9913833906
 10
208.5256844339
 20
120.9667917538
  0
LWPOLYLINE
  5
2C1
100
AcDbEntity
  8
0
100
AcDbPolyline
 62
253
  6
CONTINUOUS
 90
10
 70
0
 10
231.8374953851
 20
76.0214530714
 10
231.8408790395
 20
76.0221726263
 10
231.847078613
 20
76.0224277607
 10
231.8560670841
 20
76.0222278321
 10
231.86780259
 20
76.0214348252
 10
231.8822254458
 20
76.0202051354
 10
231.8992559572
 20
76.0189895756
 10
231.9188003843
 20
76.0179496161
 10
231.9407532524
 20
76.0169409134
 10
231.9913842068
 20
76.0149944008
  0
LWPOLYLINE
  5
2C2
100
AcDbEntity
  8
ASSI
100
AcDbPolyline
 62
253
  6
CONTINUOUS
 90
10
 70
0
 10
231.8374953851
 20
76.0214530714
 10
231.8408790395
 20
76.0221726263
 10
231.847078613
 20
76.0224277607
 10
231.8560670841
 20
76.0222278321
 10
231.86780259
 20
76.0214348252
 10
231.8822254458
 20
76.0202051354
 10
231.8992559572
 20
76.0189895756
 10
231.9188003843
 20
76.0179496161
 10
231.9407532524
 20
76.0169409134
 10
231.9913842068
 20
76.0149944008
  0
LWPOLYLINE
  5
2C3
100
AcDbEntity
  8
SCRITTA
100
AcDbPolyline
 62
253
  6
CONTINUOUS
 90
36
 70
0
 10
223.5592896311
 20
72.2105331647
 10
223.6028254239
 20
72.2168434391
 10
223.6457044138
 20
72.222862474
 10
223.6879098665
 20
72.228579635
 10
223.7294250478
 20
72.2339842878
 10
223.7702332238
 20
72.2390657979
 10
223.8103295329
 20
72.243815772
 10
223.849756605
 20
72.2482347804
 10
223.8885689425
 20
72.2523256346
 10
223.9268210481
 20
72.256091146
 10
223.9645674242
 20
72.259534126
 10
224.011114642
 20
72.2633872998
 10
224.0570176595
 20
72.2667387551
 10
224.1023373182
 20
72.269586336
 10
224.1471344601
 20
72.2719278866
 10
224.1914730726
 20
72.2737596986
 10
224.2354297273
 20
72.275071854
 10
224.2790841414
 20
72.2758528826
 10
224.3225160323
 20
72.276091314
 10
224.3801933497
 20
72.2755451089
 10
224.4376647129
 20
72.2739852153
 10
224.4949780446
 20
72.2713829536
 10
224.5378843065
 20
72.2687231628
 10
224.5807257057
 20
72.2654080819
 10
224.6234993154
 20
72.2613848852
 10
224.666202209
 20
72.256600747
 10
224.7003080879
 20
72.2521865642
 10
224.7343440144
 20
72.2472035509
 10
224.7682871678
 20
72.2416036876
 10
224.8021147271
 20
72.2353389547
 10
224.8358038715
 20
72.2283613327
 10
224.8693329369
 20
72.2206224615
 10
224.9026848874
 20
72.2120726188
 10
224.9358438439
 20
72.2026617417
 10
224.9687939273
 20
72.1923397671
 10
225.0015192585
 20
72.1810566323
  0
LWPOLYLINE
  5
2C4
100
AcDbEntity
  8
0
100
AcDbPolyline
 62
253
  6
CONTINUOUS
 90
10
 70
0
 10
231.3892708111
 20
75.3637196018
 10
231.4303084936
 20
75.3652045992
 10
231.4718437644
 20
75.3693064642
 10
231.5136510202
 20
75.3761342513
 10
231.5554830798
 20
75.3858143724
 10
231.5971759288
 20
75.3983809031
 10
231.6386307143
 20
75.4138161082
 10
231.6796831151
 20
75.4321756454
 10
231.7200810849
 20
75.4535439446
 10
231.7595836089
 20
75.4779655235
  0
LWPOLYLINE
  5
2C5
100
AcDbEntity
  8
ASSI
100
AcDbPolyline
 62
253
  6
CONTINUOUS
 90
10
 70
0
 10
231.3892708111
 20
75.3637196018
 10
231.4303084936
 20
75.3652045992
 10
231.4718437644
 20
75.3693064642
 10
231.5136510202
 20
75.3761342513
 10
231.5554830798
 20
75.3858143724
 10
231.5971759288
 20
75.3983809031
 10
231.6386307143
 20
75.4138161082
 10
231.6796831151
 20
75.4321756454
 10
231.7200810849
 20
75.4535439446
 10
231.7595836089
 20
75.4779655235
  0
LWPOLYLINE
  5
2C6
100
AcDbEntity
  8
0
100
AcDbPolyline
 62
253
  6
CONTINUOUS
 90
13
 70
0
 10
231.3933939641
 20
75.087322217
 10
231.4390149732
 20
75.0889670933
 10
231.4844346012
 20
75.0928239042
 10
231.5296528589
 20
75.0988926521
 10
231.5748157289
 20
75.107193757
 10
231.6197772499
 20
75.1177068077
 10
231.6640995169
 20
75.1303705618
 10
231.7077652985
 20
75.1452164494
 10
231.7507918437
 20
75.162213057
 10
231.7927929655
 20
75.1812048774
 10
231.8336399385
 20
75.202140082
 10
231.8734614993
 20
75.2250705214
 10
231.9122576524
 20
75.2499962081
  0
LWPOLYLINE
  5
2C7
100
AcDbEntity
  8
ASSI
100
AcDbPolyline
 62
253
  6
CONTINUOUS
 90
13
 70
0
 10
231.3933939641
 20
75.087322217
 10
231.4390149732
 20
75.0889670933
 10
231.4844346012
 20
75.0928239042
 10
231.5296528589
 20
75.0988926521
 10
231.5748157289
 20
75.107193757
 10
231.6197772499
 20
75.1177068077
 10
231.6640995169
 20
75.1303705618
 10
231.7077652985
 20
75.1452164494
 10
231.7507918437
 20
75.162213057
 10
231.7927929655
 20
75.1812048774
 10
231.8336399385
 20
75.202140082
 10
231.8734614993
 20
75.2250705214
 10
231.9122576524
 20
75.2499962081
  0
LWPOLYLINE
  5
2C8
100
AcDbEntity
  8
SCRITTA
100
AcDbPolyline
 62
253
  6
CONTINUOUS
 90
56
 70
0
 10
224.4559514719
 20
70.9977124192
 10
224.4721698821
 20
70.9982144506
 10
224.4884898916
 20
70.9990152532
 10
224.5049324697
 20
71.0001407039
 10
224.5215185851
 20
71.0016166793
 10
224.538254921
 20
71.0034688984
 10
224.5550910172
 20
71.0057224481
 10
224.5719621278
 20
71.0084022574
 10
224.5888035067
 20
71.0115332554
 10
224.602210599
 20
71.014377866
 10
224.6155175077
 20
71.0175291806
 10
224.6286845147
 20
71.0209891879
 10
224.641671902
 20
71.0247598766
 10
224.6544399516
 20
71.0288432353
 10
224.6669532414
 20
71.0332410178
 10
224.6791935328
 20
71.037954037
 10
224.6911468828
 20
71.0429828709
 10
224.7027993485
 20
71.0483280976
 10
224.7141369873
 20
71.0539902949
 10
224.7233361423
 20
71.0589521336
 10
224.7323089647
 20
71.0641395877
 10
224.7410574341
 20
71.0695577526
 10
224.7495827158
 20
71.0752121722
 10
224.7578827167
 20
71.0811101832
 10
224.7659545291
 20
71.0872595704
 10
224.7737956077
 20
71.0936661674
 10
224.7814048563
 20
71.1003280009
 10
224.7887815411
 20
71.1072411464
 10
224.7959256679
 20
71.1144004291
 10
224.8028402016
 20
71.1217956735
 10
224.8095288466
 20
71.1294154541
 10
224.8172626068
 20
71.1388427115
 10
224.8246848835
 20
71.1485764252
 10
224.8318041383
 20
71.1586161724
 10
224.8386288331
 20
71.1689615302
 10
224.8451674295
 20
71.1796120757
 10
224.8514262634
 20
71.1905664057
 10
224.8574031666
 20
71.2018191967
 10
224.8630938451
 20
71.2133641446
 10
224.8684940049
 20
71.2251949457
 10
224.873599352
 20
71.237305296
 10
224.8784044249
 20
71.2496840948
 10
224.8828990924
 20
71.262301054
 10
224.8870720559
 20
71.2751210888
 10
224.8909120167
 20
71.2881091141
 10
224.8944076764
 20
71.3012300451
 10
224.8975496744
 20
71.3144483477
 10
224.9003364032
 20
71.3277266911
 10
224.9027681935
 20
71.3410272956
 10
224.9048453759
 20
71.3543123812
 10
224.9065682812
 20
71.3675441681
 10
224.9079375726
 20
71.3806932783
 10
224.9089552443
 20
71.3937639413
 10
224.9096236232
 20
71.4067687888
 10
224.9099450361
 20
71.4197204523
 10
224.9099218099
 20
71.4326315631
  0
LINE
  5
2C9
100
AcDbEntity
  8
SCRITTA
100
AcDbLine
 62
253
  6
CONTINUOUS
 10
222.5035508288
 20
70.4349495057
 11
221.9440218138
 21
70.4349495057
  0
LINE
  5
2CA
100
AcDbEntity
  8
SCRITTA
100
AcDbLine
 62
253
  6
CONTINUOUS
 10
224.4546917911
 20
70.539188581
 11
224.1413461801
 21
70.539188581
  0
LINE
  5
2CB
100
AcDbEntity
  8
SCRITTA
100
AcDbLine
 62
253
  6
CONTINUOUS
 10
224.1219680829
 20
70.9977124192
 11
224.4559514573
 21
70.9977124192
  0
LINE
  5
2CC
100
AcDbEntity
  8
SCRITTA
100
AcDbLine
 62
253
  6
CONTINUOUS
 10
222.5286608288
 20
72.2432425057
 11
221.9633158397
 21
72.2432425057
  0
LINE
  5
2CD
100
AcDbEntity
  8
SCRITTA
100
AcDbLine
 62
253
  6
CONTINUOUS
 10
220.7315788288
 20
72.2432425057
 11
220.1533648332
 21
72.2432425057
  0
LINE
  5
2CE
100
AcDbEntity
  8
SCRITTA
100
AcDbLine
 62
253
  6
CONTINUOUS
 10
218.9907208288
 20
72.2432425057
 11
218.4067958199
 21
72.2432425057
  0
LINE
  5
2CF
100
AcDbEntity
  8
SCRITTA
100
AcDbLine
 62
253
  6
CONTINUOUS
 10
217.0381108288
 20
72.2432425057
 11
216.4541018404
 21
72.2432425057
  0
LINE
  5
2D0
100
AcDbEntity
  8
SCRITTA
100
AcDbLine
 62
253
  6
CONTINUOUS
 10
215.3704508288
 20
72.2432425057
 11
214.7356028325
 21
72.2432425057
  0
LINE
  5
2D1
100
AcDbEntity
  8
SCRITTA
100
AcDbLine
 62
253
  6
CONTINUOUS
 10
217.2549858288
 20
72.2434105057
 11
217.8393938379
 21
72.2434105057
  0
LINE
  5
2D2
100
AcDbEntity
  8
0
100
AcDbLine
 62
253
  6
CONTINUOUS
 10
174.6928821949
 20
74.6213405057
 11
265.7856594627
 21
74.6213405057
  0
LINE
  5
2D3
100
AcDbEntity
  8
ASSI
100
AcDbLine
 62
253
  6
CONTINUOUS
 10
174.6928821949
 20
74.6213405057
 11
265.7856594627
 21
74.6213405057
  0
LWPOLYLINE
  5
2D4
100
AcDbEntity
  8
0
100
AcDbPolyline
 62
253
  6
CONTINUOUS
 90
10
 70
0
 10
209.0851476935
 20
75.087322217
 10
211.5638194716
 20
75.0602453159
 10
214.0425121252
 20
75.0399376847
 10
216.5212172734
 20
75.0263992852
 10
218.9999209062
 20
75.0196300913
 10
221.4786202908
 20
75.0196300906
 10
223.9573239696
 20
75.0263992835
 10
226.43602921
 20
75.039937683
 10
228.9147220018
 20
75.0602453147
 10
231.3933939641
 20
75.087322217
  0
LWPOLYLINE
  5
2D5
100
AcDbEntity
  8
ASSI
100
AcDbPolyline
 62
253
  6
CONTINUOUS
 90
10
 70
0
 10
209.0851476935
 20
75.087322217
 10
211.5638194716
 20
75.0602453159
 10
214.0425121252
 20
75.0399376847
 10
216.5212172734
 20
75.0263992852
 10
218.9999209062
 20
75.0196300913
 10
221.4786202908
 20
75.0196300906
 10
223.9573239696
 20
75.0263992835
 10
226.43602921
 20
75.039937683
 10
228.9147220018
 20
75.0602453147
 10
231.3933939641
 20
75.087322217
  0
LWPOLYLINE
  5
2D6
100
AcDbEntity
  8
SCRITTA
100
AcDbPolyline
 62
253
  6
CONTINUOUS
 90
24
 70
0
 10
224.5797793112
 20
71.782768831
 10
224.5582668756
 20
71.7851065877
 10
224.5367303742
 20
71.7871299524
 10
224.515172877
 20
71.7888396538
 10
224.4935974539
 20
71.7902364209
 10
224.4720071748
 20
71.7913209822
 10
224.4504051095
 20
71.7920940666
 10
224.428794328
 20
71.7925564029
 10
224.4098789022
 20
71.7927065284
 10
224.3909536783
 20
71.792619297
 10
224.3720131811
 20
71.7922947103
 10
224.3530519354
 20
71.7917327701
 10
224.3340636545
 20
71.7909324773
 10
224.3150388056
 20
71.7898888305
 10
224.2959670442
 20
71.7885958274
 10
224.276838026
 20
71.7870474659
 10
224.2576447564
 20
71.7852405215
 10
224.2383936406
 20
71.783182881
 10
224.2190944337
 20
71.7808852085
 10
224.1997568908
 20
71.7783581686
 10
224.1803868548
 20
71.7756142395
 10
224.16097452
 20
71.7726731548
 10
224.1415061686
 20
71.7695564624
 10
224.1219680829
 20
71.7662857098
  0
LWPOLYLINE
  5
2D7
100
AcDbEntity
  8
0
100
AcDbPolyline
 62
253
  6
CONTINUOUS
 90
11
 70
0
 10
208.6410421721
 20
76.021453081
 10
208.6376601678
 20
76.0221638361
 10
208.6314609176
 20
76.022418454
 10
208.6224695964
 20
76.0222176067
 10
208.6107265238
 20
76.0213437453
 10
208.5962942982
 20
76.0199471738
 10
208.5792570847
 20
76.0186071044
 10
208.559710885
 20
76.0175526971
 10
208.5377594802
 20
76.0165742102
 10
208.5135185668
 20
76.0156468818
 10
208.4871196408
 20
76.0147644624
  0
LWPOLYLINE
  5
2D8
100
AcDbEntity
  8
ASSI
100
AcDbPolyline
 62
253
  6
CONTINUOUS
 90
11
 70
0
 10
208.6410421721
 20
76.021453081
 10
208.6376601678
 20
76.0221638361
 10
208.6314609176
 20
76.022418454
 10
208.6224695964
 20
76.0222176067
 10
208.6107265238
 20
76.0213437453
 10
208.5962942982
 20
76.0199471738
 10
208.5792570847
 20
76.0186071044
 10
208.559710885
 20
76.0175526971
 10
208.5377594802
 20
76.0165742102
 10
208.5135185668
 20
76.0156468818
 10
208.4871196408
 20
76.0147644624
  0
LWPOLYLINE
  5
2D9
100
AcDbEntity
  8
SCRITTA
100
AcDbPolyline
 62
253
  6
CONTINUOUS
 90
41
 70
0
 10
225.0617739937
 20
70.7504160689
 10
225.0726843495
 20
70.7458277286
 10
225.0833683537
 20
70.7408590711
 10
225.0938349098
 20
70.7355141911
 10
225.1040929213
 20
70.7297971832
 10
225.1141512917
 20
70.7237121424
 10
225.1240189245
 20
70.7172631634
 10
225.1337013022
 20
70.7104578024
 10
225.1431902222
 20
70.7033174617
 10
225.152474061
 20
70.695867005
 10
225.1615411951
 20
70.6881312961
 10
225.1703800008
 20
70.6801351986
 10
225.1789788546
 20
70.6719035764
 10
225.1889701926
 20
70.6617458483
 10
225.1986140715
 20
70.6513043522
 10
225.2079253011
 20
70.6405986721
 10
225.2169186911
 20
70.6296483917
 10
225.2256090511
 20
70.6184730951
 10
225.2340094624
 20
70.6070933265
 10
225.2421260923
 20
70.5955334715
 10
225.2499633798
 20
70.5838188762
 10
225.2575257639
 20
70.5719748865
 10
225.2648176835
 20
70.5600268485
 10
225.2735642307
 20
70.5449714871
 10
225.2819351384
 20
70.5297670039
 10
225.2899704324
 20
70.5143872491
 10
225.297710138
 20
70.4988060734
 10
225.3051905706
 20
70.4829981759
 10
225.3124332054
 20
70.4669416505
 10
225.319455807
 20
70.4506154395
 10
225.3262761403
 20
70.4339984857
 10
225.3329105891
 20
70.4170680152
 10
225.339370013
 20
70.39979439
 10
225.3456638904
 20
70.3821462558
 10
225.3518016999
 20
70.3640922582
 10
225.3566079084
 20
70.3493349458
 10
225.3613369148
 20
70.3342768251
 10
225.3660053344
 20
70.3188969071
 10
225.3706297823
 20
70.3031742027
 10
225.3752268738
 20
70.287087723
 10
225.3798153557
 20
70.2706226885
  0
LWPOLYLINE
  5
2DA
100
AcDbEntity
  8
0
100
AcDbPolyline
 62
253
  6
CONTINUOUS
 90
10
 70
0
 10
208.7189195107
 20
75.4779069613
 10
208.7593223398
 20
75.452998134
 10
208.8003470063
 20
75.4314269319
 10
208.8417047088
 20
75.4130756384
 10
208.8829550905
 20
75.3978324069
 10
208.9240581244
 20
75.3855113789
 10
208.9653749048
 20
75.3759856625
 10
209.0069125012
 20
75.3692243773
 10
209.0482859779
 20
75.3651579556
 10
209.0892711946
 20
75.3636982487
  0
LWPOLYLINE
  5
2DB
100
AcDbEntity
  8
ASSI
100
AcDbPolyline
 62
253
  6
CONTINUOUS
 90
10
 70
0
 10
208.7189195107
 20
75.4779069613
 10
208.7593223398
 20
75.452998134
 10
208.8003470063
 20
75.4314269319
 10
208.8417047088
 20
75.4130756384
 10
208.8829550905
 20
75.3978324069
 10
208.9240581244
 20
75.3855113789
 10
208.9653749048
 20
75.3759856625
 10
209.0069125012
 20
75.3692243773
 10
209.0482859779
 20
75.3651579556
 10
209.0892711946
 20
75.3636982487
  0
LWPOLYLINE
  5
2DC
100
AcDbEntity
  8
0
100
AcDbPolyline
 62
253
  6
CONTINUOUS
 90
10
 70
0
 10
208.5662840051
 20
75.2499962081
 10
208.6185322954
 20
75.2170792163
 10
208.6723607612
 20
75.1878111074
 10
208.7277694152
 20
75.1621918517
 10
208.7850641466
 20
75.1401391572
 10
208.8439390977
 20
75.1217352681
 10
208.9034766662
 20
75.1072269634
 10
208.9633710015
 20
75.0966964933
 10
209.0239280019
 20
75.0900615802
 10
209.0851476935
 20
75.087322217
  0
LWPOLYLINE
  5
2DD
100
AcDbEntity
  8
ASSI
100
AcDbPolyline
 62
253
  6
CONTINUOUS
 90
10
 70
0
 10
208.5662840051
 20
75.2499962081
 10
208.6185322954
 20
75.2170792163
 10
208.6723607612
 20
75.1878111074
 10
208.7277694152
 20
75.1621918517
 10
208.7850641466
 20
75.1401391572
 10
208.8439390977
 20
75.1217352681
 10
208.9034766662
 20
75.1072269634
 10
208.9633710015
 20
75.0966964933
 10
209.0239280019
 20
75.0900615802
 10
209.0851476935
 20
75.087322217
  0
LINE
  5
2DE
100
AcDbEntity
  8
0
100
AcDbLine
 62
253
  6
CONTINUOUS
 10
189.3496582807
 20
143.8113405057
 11
189.366959985
 21
143.6968736033
  0
LINE
  5
2DF
100
AcDbEntity
  8
ASSI
100
AcDbLine
 62
253
  6
CONTINUOUS
 10
189.3496582807
 20
143.8113405057
 11
189.366959985
 21
143.6968736033
  0
LINE
  5
2E0
100
AcDbEntity
  8
0
100
AcDbLine
 62
253
  6
CONTINUOUS
 10
189.4070776514
 20
143.3471359491
 11
189.4196556589
 21
143.2587903799
  0
LINE
  5
2E1
100
AcDbEntity
  8
ASSI
100
AcDbLine
 62
253
  6
CONTINUOUS
 10
189.4070776514
 20
143.3471359491
 11
189.4196556589
 21
143.2587903799
  0
LINE
  5
2E2
100
AcDbEntity
  8
0
100
AcDbLine
 62
253
  6
CONTINUOUS
 10
189.3956240656
 20
143.4307340383
 11
189.4070776514
 21
143.3471359491
  0
LINE
  5
2E3
100
AcDbEntity
  8
ASSI
100
AcDbLine
 62
253
  6
CONTINUOUS
 10
189.3956240656
 20
143.4307340383
 11
189.4070776514
 21
143.3471359491
  0
LINE
  5
2E4
100
AcDbEntity
  8
0
100
AcDbLine
 62
253
  6
CONTINUOUS
 10
194.3496582807
 20
144.4062477598
 11
194.360297726
 21
144.2910269204
  0
LINE
  5
2E5
100
AcDbEntity
  8
ASSI
100
AcDbLine
 62
253
  6
CONTINUOUS
 10
194.3496582807
 20
144.4062477598
 11
194.360297726
 21
144.2910269204
  0
LINE
  5
2E6
100
AcDbEntity
  8
0
100
AcDbLine
 62
253
  6
CONTINUOUS
 10
194.3815247437
 20
143.9393648331
 11
194.3891012825
 21
143.8503898031
  0
LINE
  5
2E7
100
AcDbEntity
  8
ASSI
100
AcDbLine
 62
253
  6
CONTINUOUS
 10
194.3815247437
 20
143.9393648331
 11
194.3891012825
 21
143.8503898031
  0
LINE
  5
2E8
100
AcDbEntity
  8
0
100
AcDbLine
 62
253
  6
CONTINUOUS
 10
194.374765171
 20
144.0235377831
 11
194.3815247437
 21
143.9393648331
  0
LINE
  5
2E9
100
AcDbEntity
  8
ASSI
100
AcDbLine
 62
253
  6
CONTINUOUS
 10
194.374765171
 20
144.0235377831
 11
194.3815247437
 21
143.9393648331
  0
LINE
  5
2EA
100
AcDbEntity
  8
0
100
AcDbLine
 62
253
  6
CONTINUOUS
 10
194.3690474705
 20
144.10010803
 11
194.374765171
 21
144.0235377831
  0
LINE
  5
2EB
100
AcDbEntity
  8
ASSI
100
AcDbLine
 62
253
  6
CONTINUOUS
 10
194.3690474705
 20
144.10010803
 11
194.374765171
 21
144.0235377831
  0
LINE
  5
2EC
100
AcDbEntity
  8
0
100
AcDbLine
 62
253
  6
CONTINUOUS
 10
194.3645618833
 20
52.4761531019
 11
194.3690474708
 21
52.5425729817
  0
LINE
  5
2ED
100
AcDbEntity
  8
ASSI
100
AcDbLine
 62
253
  6
CONTINUOUS
 10
194.3645618833
 20
52.4761531019
 11
194.3690474708
 21
52.5425729817
  0
LINE
  5
2EE
100
AcDbEntity
  8
0
100
AcDbLine
 62
253
  6
CONTINUOUS
 10
194.3690474708
 20
52.5425729817
 11
194.3747651712
 21
52.6191432285
  0
LINE
  5
2EF
100
AcDbEntity
  8
ASSI
100
AcDbLine
 62
253
  6
CONTINUOUS
 10
194.3690474708
 20
52.5425729817
 11
194.3747651712
 21
52.6191432285
  0
LINE
  5
2F0
100
AcDbEntity
  8
0
100
AcDbLine
 62
253
  6
CONTINUOUS
 10
194.3747651712
 20
52.6191432285
 11
194.3815247438
 21
52.7033161784
  0
LINE
  5
2F1
100
AcDbEntity
  8
ASSI
100
AcDbLine
 62
253
  6
CONTINUOUS
 10
194.3747651712
 20
52.6191432285
 11
194.3815247438
 21
52.7033161784
  0
LINE
  5
2F2
100
AcDbEntity
  8
0
100
AcDbLine
 62
253
  6
CONTINUOUS
 10
194.3815247438
 20
52.7033161784
 11
194.3891012825
 21
52.7922912084
  0
LINE
  5
2F3
100
AcDbEntity
  8
ASSI
100
AcDbLine
 62
253
  6
CONTINUOUS
 10
194.3815247438
 20
52.7033161784
 11
194.3891012825
 21
52.7922912084
  0
LINE
  5
2F4
100
AcDbEntity
  8
0
100
AcDbLine
 62
253
  6
CONTINUOUS
 10
194.3496582807
 20
52.2364332517
 11
194.3602976211
 21
52.3516541008
  0
LINE
  5
2F5
100
AcDbEntity
  8
ASSI
100
AcDbLine
 62
253
  6
CONTINUOUS
 10
194.3496582807
 20
52.2364332517
 11
194.3602976211
 21
52.3516541008
  0
LWPOLYLINE
  5
2F6
100
AcDbEntity
  8
0
100
AcDbPolyline
 62
253
  6
CONTINUOUS
 90
13
 70
0
 10
208.5258493172
 20
120.9666751809
 10
208.508844858
 20
120.9395662107
 10
208.4932469241
 20
120.9119112416
 10
208.4790505576
 20
120.8837905838
 10
208.4662151314
 20
120.8552071583
 10
208.4547750874
 20
120.8263040931
 10
208.444805915
 20
120.7973820606
 10
208.4362659483
 20
120.7685369702
 10
208.4290970783
 20
120.7398311968
 10
208.4232928034
 20
120.7115309155
 10
208.418786445
 20
120.6837745424
 10
208.4154788129
 20
120.6565624505
 10
208.4132904809
 20
120.6299512948
  0
LWPOLYLINE
  5
2F7
100
AcDbEntity
  8
ASSI
100
AcDbPolyline
 62
253
  6
CONTINUOUS
 90
13
 70
0
 10
208.5258493172
 20
120.9666751809
 10
208.508844858
 20
120.9395662107
 10
208.4932469241
 20
120.9119112416
 10
208.4790505576
 20
120.8837905838
 10
208.4662151314
 20
120.8552071583
 10
208.4547750874
 20
120.8263040931
 10
208.444805915
 20
120.7973820606
 10
208.4362659483
 20
120.7685369702
 10
208.4290970783
 20
120.7398311968
 10
208.4232928034
 20
120.7115309155
 10
208.418786445
 20
120.6837745424
 10
208.4154788129
 20
120.6565624505
 10
208.4132904809
 20
120.6299512948
  0
LINE
  5
2F8
100
AcDbEntity
  8
0
100
AcDbLine
 62
253
  6
CONTINUOUS
 10
175.1009549791
 20
66.670191995
 11
175.2125941716
 21
66.6907435485
  0
LINE
  5
2F9
100
AcDbEntity
  8
ASSI
100
AcDbLine
 62
253
  6
CONTINUOUS
 10
175.1009549791
 20
66.670191995
 11
175.2125941716
 21
66.6907435485
  0
LINE
  5
2FA
100
AcDbEntity
  8
0
100
AcDbLine
 62
253
  6
CONTINUOUS
 10
174.5231484176
 20
70.670191995
 11
174.6356039661
 21
70.6832248887
  0
LINE
  5
2FB
100
AcDbEntity
  8
ASSI
100
AcDbLine
 62
253
  6
CONTINUOUS
 10
174.5231484176
 20
70.670191995
 11
174.6356039661
 21
70.6832248887
  0
LINE
  5
2FC
100
AcDbEntity
  8
0
100
AcDbLine
 62
253
  6
CONTINUOUS
 10
174.1075258195
 20
74.7019205057
 11
174.2200949763
 21
74.7126035641
  0
LINE
  5
2FD
100
AcDbEntity
  8
ASSI
100
AcDbLine
 62
253
  6
CONTINUOUS
 10
174.1075258195
 20
74.7019205057
 11
174.2200949763
 21
74.7126035641
  0
LINE
  5
2FE
100
AcDbEntity
  8
0
100
AcDbLine
 62
253
  6
CONTINUOUS
 10
174.5895032249
 20
74.7297241676
 11
174.6817971393
 21
74.7378494679
  0
LINE
  5
2FF
100
AcDbEntity
  8
ASSI
100
AcDbLine
 62
253
  6
CONTINUOUS
 10
174.5895032249
 20
74.7297241676
 11
174.6817971393
 21
74.7378494679
  0
LINE
  5
300
100
AcDbEntity
  8
0
100
AcDbLine
 62
253
  6
CONTINUOUS
 10
208.4132912329
 20
76.0127166539
 11
208.3871967352
 21
76.0114749322
  0
LINE
  5
301
100
AcDbEntity
  8
ASSI
100
AcDbLine
 62
253
  6
CONTINUOUS
 10
208.4132912329
 20
76.0127166539
 11
208.3871967352
 21
76.0114749322
  0
LINE
  5
302
100
AcDbEntity
  8
0
100
AcDbLine
 62
253
  6
CONTINUOUS
 10
208.3871967352
 20
76.0114749322
 11
208.3318517845
 21
76.0092063738
  0
LINE
  5
303
100
AcDbEntity
  8
ASSI
100
AcDbLine
 62
253
  6
CONTINUOUS
 10
208.3871967352
 20
76.0114749322
 11
208.3318517845
 21
76.0092063738
  0
LINE
  5
304
100
AcDbEntity
  8
0
100
AcDbLine
 62
7
  6
CONTINUOUS
 10
208.4285211366
 20
76.0132377887
 11
208.4131638871
 21
76.0127124454
  0
LINE
  5
305
100
AcDbEntity
  8
ASSI
100
AcDbLine
 62
7
  6
CONTINUOUS
 10
208.4285211366
 20
76.0132377887
 11
208.4131638871
 21
76.0127124454
  0
LINE
  5
306
100
AcDbEntity
  8
0
100
AcDbLine
 62
253
  6
CONTINUOUS
 10
208.3318517845
 20
76.0092063738
 11
208.273201678
 21
76.0072937094
  0
LINE
  5
307
100
AcDbEntity
  8
ASSI
100
AcDbLine
 62
253
  6
CONTINUOUS
 10
208.3318517845
 20
76.0092063738
 11
208.273201678
 21
76.0072937094
  0
LWPOLYLINE
  5
308
100
AcDbEntity
  8
0
100
AcDbPolyline
 62
7
  6
CONTINUOUS
 90
22
 70
0
 10
231.3892728128
 20
75.6213405057
 10
231.417492816
 20
75.622196855
 10
231.4457127032
 20
75.6252176132
 10
231.4739324808
 20
75.630402782
 10
231.5023869782
 20
75.637743191
 10
231.5308413784
 20
75.6472480181
 10
231.5585912172
 20
75.6589447896
 10
231.5856393217
 20
75.6729420098
 10
231.6119828741
 20
75.6891311901
 10
231.6369089407
 20
75.7072143676
 10
231.6603426875
 20
75.7272608652
 10
231.6823589501
 20
75.74920138
 10
231.7024692951
 20
75.7725300079
 10
231.7205917683
 20
75.7972692852
 10
231.7368083172
 20
75.8233966938
 10
231.7508763579
 20
75.8503387414
 10
231.7627301949
 20
75.8781492702
 10
231.7724355116
 20
75.9067744503
 10
231.7799467909
 20
75.9354792721
 10
231.7852488563
 20
75.9640187303
 10
231.7883568711
 20
75.9926378301
 10
231.7892708284
 20
76.0213365719
  0
LWPOLYLINE
  5
309
100
AcDbEntity
  8
ASSI
100
AcDbPolyline
 62
7
  6
CONTINUOUS
 90
22
 70
0
 10
231.3892728128
 20
75.6213405057
 10
231.417492816
 20
75.622196855
 10
231.4457127032
 20
75.6252176132
 10
231.4739324808
 20
75.630402782
 10
231.5023869782
 20
75.637743191
 10
231.5308413784
 20
75.6472480181
 10
231.5585912172
 20
75.6589447896
 10
231.5856393217
 20
75.6729420098
 10
231.6119828741
 20
75.6891311901
 10
231.6369089407
 20
75.7072143676
 10
231.6603426875
 20
75.7272608652
 10
231.6823589501
 20
75.74920138
 10
231.7024692951
 20
75.7725300079
 10
231.7205917683
 20
75.7972692852
 10
231.7368083172
 20
75.8233966938
 10
231.7508763579
 20
75.8503387414
 10
231.7627301949
 20
75.8781492702
 10
231.7724355116
 20
75.9067744503
 10
231.7799467909
 20
75.9354792721
 10
231.7852488563
 20
75.9640187303
 10
231.7883568711
 20
75.9926378301
 10
231.7892708284
 20
76.0213365719
  0
LINE
  5
30A
100
AcDbEntity
  8
0
100
AcDbLine
 62
253
  6
CONTINUOUS
 10
208.4871196408
 20
76.0147644624
 11
208.4284512163
 21
76.0131902543
  0
LINE
  5
30B
100
AcDbEntity
  8
ASSI
100
AcDbLine
 62
253
  6
CONTINUOUS
 10
208.4871196408
 20
76.0147644624
 11
208.4284512163
 21
76.0131902543
  0
LINE
  5
30C
100
AcDbEntity
  8
0
100
AcDbLine
 62
253
  6
CONTINUOUS
 10
208.273201678
 20
76.0072937094
 11
208.2123394004
 21
76.0057163751
  0
LINE
  5
30D
100
AcDbEntity
  8
ASSI
100
AcDbLine
 62
253
  6
CONTINUOUS
 10
208.273201678
 20
76.0072937094
 11
208.2123394004
 21
76.0057163751
  0
LINE
  5
30E
100
AcDbEntity
  8
0
100
AcDbLine
 62
253
  6
CONTINUOUS
 10
208.2123394004
 20
76.0057163751
 11
208.1504169111
 21
76.0044848578
  0
LINE
  5
30F
100
AcDbEntity
  8
ASSI
100
AcDbLine
 62
253
  6
CONTINUOUS
 10
208.2123394004
 20
76.0057163751
 11
208.1504169111
 21
76.0044848578
  0
LINE
  5
310
100
AcDbEntity
  8
0
100
AcDbLine
 62
253
  6
CONTINUOUS
 10
230.9453949324
 20
75.3609982286
 11
231.3892709323
 21
75.3636277027
  0
LINE
  5
311
100
AcDbEntity
  8
ASSI
100
AcDbLine
 62
253
  6
CONTINUOUS
 10
230.9453949324
 20
75.3609982286
 11
231.3892709323
 21
75.3636277027
  0
LINE
  5
312
100
AcDbEntity
  8
0
100
AcDbLine
 62
253
  6
CONTINUOUS
 10
231.7892708288
 20
76.0213405057
 11
231.8374953739
 21
76.0214744699
  0
LINE
  5
313
100
AcDbEntity
  8
ASSI
100
AcDbLine
 62
253
  6
CONTINUOUS
 10
231.7892708288
 20
76.0213405057
 11
231.8374953739
 21
76.0214744699
  0
LINE
  5
314
100
AcDbEntity
  8
0
100
AcDbLine
 62
253
  6
CONTINUOUS
 10
231.3891924245
 20
75.5733076062
 11
209.0893388448
 21
75.5733076011
  0
LINE
  5
315
100
AcDbEntity
  8
ASSI
100
AcDbLine
 62
253
  6
CONTINUOUS
 10
231.3891924245
 20
75.5733076062
 11
209.0893388448
 21
75.5733076011
  0
LINE
  5
316
100
AcDbEntity
  8
0
100
AcDbLine
 62
7
  6
CONTINUOUS
 10
209.0892677581
 20
75.6213405057
 11
231.3892728128
 21
75.6213405057
  0
LINE
  5
317
100
AcDbEntity
  8
ASSI
100
AcDbLine
 62
7
  6
CONTINUOUS
 10
209.0892677581
 20
75.6213405057
 11
231.3892728128
 21
75.6213405057
  0
LINE
  5
318
100
AcDbEntity
  8
0
100
AcDbLine
 62
253
  6
CONTINUOUS
 10
230.9453949324
 20
75.3609982286
 11
209.5331467244
 21
75.3609982286
  0
LINE
  5
319
100
AcDbEntity
  8
ASSI
100
AcDbLine
 62
253
  6
CONTINUOUS
 10
230.9453949324
 20
75.3609982286
 11
209.5331467244
 21
75.3609982286
  0
LINE
  5
31A
100
AcDbEntity
  8
0
100
AcDbLine
 62
253
  6
CONTINUOUS
 10
208.6892708288
 20
76.0213405057
 11
208.6410462829
 21
76.0214746083
  0
LINE
  5
31B
100
AcDbEntity
  8
ASSI
100
AcDbLine
 62
253
  6
CONTINUOUS
 10
208.6892708288
 20
76.0213405057
 11
208.6410462829
 21
76.0214746083
  0
LINE
  5
31C
100
AcDbEntity
  8
0
100
AcDbLine
 62
253
  6
CONTINUOUS
 10
209.0892710227
 20
75.3636277009
 11
209.5331467244
 21
75.3609982286
  0
LINE
  5
31D
100
AcDbEntity
  8
ASSI
100
AcDbLine
 62
253
  6
CONTINUOUS
 10
209.0892710227
 20
75.3636277009
 11
209.5331467244
 21
75.3609982286
  0
LWPOLYLINE
  5
31E
100
AcDbEntity
  8
0
100
AcDbPolyline
 62
253
  6
CONTINUOUS
 90
10
 70
0
 10
209.5331467244
 20
75.3609982286
 10
211.9122773662
 20
75.3360569971
 10
214.2914120086
 20
75.3173510734
 10
216.6705506516
 20
75.3048804574
 10
219.0496959466
 20
75.2986451489
 10
221.4288452422
 20
75.2986451482
 10
223.807990584
 20
75.3048804558
 10
226.1871293205
 20
75.3173510718
 10
228.5662641033
 20
75.336056996
 10
230.9453949324
 20
75.3609982286
  0
LWPOLYLINE
  5
31F
100
AcDbEntity
  8
ASSI
100
AcDbPolyline
 62
253
  6
CONTINUOUS
 90
10
 70
0
 10
209.5331467244
 20
75.3609982286
 10
211.9122773662
 20
75.3360569971
 10
214.2914120086
 20
75.3173510734
 10
216.6705506516
 20
75.3048804574
 10
219.0496959466
 20
75.2986451489
 10
221.4288452422
 20
75.2986451482
 10
223.807990584
 20
75.3048804558
 10
226.1871293205
 20
75.3173510718
 10
228.5662641033
 20
75.336056996
 10
230.9453949324
 20
75.3609982286
  0
LINE
  5
320
100
AcDbEntity
  8
0
100
AcDbLine
 62
253
  6
CONTINUOUS
 10
232.3281247497
 20
76.0044848433
 11
232.266202369
 21
76.0057379368
  0
LINE
  5
321
100
AcDbEntity
  8
ASSI
100
AcDbLine
 62
253
  6
CONTINUOUS
 10
232.3281247497
 20
76.0044848433
 11
232.266202369
 21
76.0057379368
  0
LINE
  5
322
100
AcDbEntity
  8
0
100
AcDbLine
 62
253
  6
CONTINUOUS
 10
232.266202369
 20
76.0057379368
 11
232.2053399474
 21
76.0073126346
  0
LINE
  5
323
100
AcDbEntity
  8
ASSI
100
AcDbLine
 62
253
  6
CONTINUOUS
 10
232.266202369
 20
76.0057379368
 11
232.2053399474
 21
76.0073126346
  0
LINE
  5
324
100
AcDbEntity
  8
0
100
AcDbLine
 62
253
  6
CONTINUOUS
 10
231.9913842068
 20
76.0149944008
 11
232.0500205569
 21
76.0131925602
  0
LINE
  5
325
100
AcDbEntity
  8
ASSI
100
AcDbLine
 62
253
  6
CONTINUOUS
 10
231.9913842068
 20
76.0149944008
 11
232.0500205569
 21
76.0131925602
  0
LWPOLYLINE
  5
326
100
AcDbEntity
  8
0
100
AcDbPolyline
 62
253
  6
CONTINUOUS
 90
25
 70
0
 10
209.0893388448
 20
75.5733076015
 10
209.0581675015
 20
75.5743766589
 10
209.0276122303
 20
75.5775454685
 10
208.9978074935
 20
75.5827013608
 10
208.969034036
 20
75.5896882202
 10
208.941230761
 20
75.5984048722
 10
208.914028852
 20
75.6089174269
 10
208.8873878629
 20
75.6212700652
 10
208.8615936643
 20
75.6353571392
 10
208.8367889659
 20
75.6510934782
 10
208.8130936979
 20
75.6683975482
 10
208.7906016369
 20
75.6872022016
 10
208.7693983751
 20
75.7074276959
 10
208.7495665824
 20
75.7289892383
 10
208.7311925893
 20
75.7517975408
 10
208.7143551725
 20
75.7757503784
 10
208.6991193977
 20
75.8007382287
 10
208.685557495
 20
75.8266391417
 10
208.6737408172
 20
75.8533151134
 10
208.6636883933
 20
75.8806972897
 10
208.6554508683
 20
75.9086236836
 10
208.6490890865
 20
75.936806303
 10
208.6445930536
 20
75.9650621449
 10
208.6419200029
 20
75.9933243529
 10
208.641041219
 20
76.021474623
  0
LWPOLYLINE
  5
327
100
AcDbEntity
  8
ASSI
100
AcDbPolyline
 62
253
  6
CONTINUOUS
 90
25
 70
0
 10
209.0893388448
 20
75.5733076015
 10
209.0581675015
 20
75.5743766589
 10
209.0276122303
 20
75.5775454685
 10
208.9978074935
 20
75.5827013608
 10
208.969034036
 20
75.5896882202
 10
208.941230761
 20
75.5984048722
 10
208.914028852
 20
75.6089174269
 10
208.8873878629
 20
75.6212700652
 10
208.8615936643
 20
75.6353571392
 10
208.8367889659
 20
75.6510934782
 10
208.8130936979
 20
75.6683975482
 10
208.7906016369
 20
75.6872022016
 10
208.7693983751
 20
75.7074276959
 10
208.7495665824
 20
75.7289892383
 10
208.7311925893
 20
75.7517975408
 10
208.7143551725
 20
75.7757503784
 10
208.6991193977
 20
75.8007382287
 10
208.685557495
 20
75.8266391417
 10
208.6737408172
 20
75.8533151134
 10
208.6636883933
 20
75.8806972897
 10
208.6554508683
 20
75.9086236836
 10
208.6490890865
 20
75.936806303
 10
208.6445930536
 20
75.9650621449
 10
208.6419200029
 20
75.9933243529
 10
208.641041219
 20
76.021474623
  0
LINE
  5
328
100
AcDbEntity
  8
0
100
AcDbLine
 62
253
  6
CONTINUOUS
 10
232.2053399474
 20
76.0073126346
 11
232.1466896014
 21
76.009209273
  0
LINE
  5
329
100
AcDbEntity
  8
ASSI
100
AcDbLine
 62
253
  6
CONTINUOUS
 10
232.2053399474
 20
76.0073126346
 11
232.1466896014
 21
76.009209273
  0
LINE
  5
32A
100
AcDbEntity
  8
0
100
AcDbLine
 62
7
  6
CONTINUOUS
 10
232.0500205206
 20
76.0133184195
 11
232.0653777705
 21
76.0127116056
  0
LINE
  5
32B
100
AcDbEntity
  8
ASSI
100
AcDbLine
 62
7
  6
CONTINUOUS
 10
232.0500205206
 20
76.0133184195
 11
232.0653777705
 21
76.0127116056
  0
LWPOLYLINE
  5
32C
100
AcDbEntity
  8
0
100
AcDbPolyline
 62
253
  6
CONTINUOUS
 90
3
 70
0
 10
232.1466896014
 20
76.009209273
 10
232.0913447614
 20
76.0114742254
 10
232.0652504053
 20
76.0127166534
  0
LWPOLYLINE
  5
32D
100
AcDbEntity
  8
ASSI
100
AcDbPolyline
 62
253
  6
CONTINUOUS
 90
3
 70
0
 10
232.1466896014
 20
76.009209273
 10
232.0913447614
 20
76.0114742254
 10
232.0652504053
 20
76.0127166534
  0
LINE
  5
32E
100
AcDbEntity
  8
0
100
AcDbLine
 62
253
  6
CONTINUOUS
 10
265.9768739987
 20
74.7227182662
 11
265.8890384264
 21
74.7297241689
  0
LINE
  5
32F
100
AcDbEntity
  8
ASSI
100
AcDbLine
 62
253
  6
CONTINUOUS
 10
265.9768739987
 20
74.7227182662
 11
265.8890384264
 21
74.7297241689
  0
LWPOLYLINE
  5
330
100
AcDbEntity
  8
0
100
AcDbPolyline
 62
253
  6
CONTINUOUS
 90
3
 70
0
 10
265.9226193529
 20
74.6094966174
 10
265.8321596496
 20
74.6171340399
 10
265.7856594626
 20
74.6213405058
  0
LWPOLYLINE
  5
331
100
AcDbEntity
  8
ASSI
100
AcDbPolyline
 62
253
  6
CONTINUOUS
 90
3
 70
0
 10
265.9226193529
 20
74.6094966174
 10
265.8321596496
 20
74.6171340399
 10
265.7856594626
 20
74.6213405058
  0
LINE
  5
332
100
AcDbEntity
  8
0
100
AcDbLine
 62
253
  6
CONTINUOUS
 10
265.8890384264
 20
74.7297241689
 11
265.7967445187
 21
74.7378494675
  0
LINE
  5
333
100
AcDbEntity
  8
ASSI
100
AcDbLine
 62
253
  6
CONTINUOUS
 10
265.8890384264
 20
74.7297241689
 11
265.7967445187
 21
74.7378494675
  0
LINE
  5
334
100
AcDbEntity
  8
0
100
AcDbLine
 62
253
  6
CONTINUOUS
 10
266.3710158381
 20
74.7019205057
 11
266.2584466812
 21
74.7126035641
  0
LINE
  5
335
100
AcDbEntity
  8
ASSI
100
AcDbLine
 62
253
  6
CONTINUOUS
 10
266.3710158381
 20
74.7019205057
 11
266.2584466812
 21
74.7126035641
  0
LINE
  5
336
100
AcDbEntity
  8
0
100
AcDbLine
 62
253
  6
CONTINUOUS
 10
265.9553932399
 20
70.670191995
 11
265.8429376972
 21
70.6832249556
  0
LINE
  5
337
100
AcDbEntity
  8
ASSI
100
AcDbLine
 62
253
  6
CONTINUOUS
 10
265.9553932399
 20
70.670191995
 11
265.8429376972
 21
70.6832249556
  0
LINE
  5
338
100
AcDbEntity
  8
0
100
AcDbLine
 62
253
  6
CONTINUOUS
 10
265.3775866784
 20
66.670191995
 11
265.2659476445
 21
66.6907445382
  0
LINE
  5
339
100
AcDbEntity
  8
ASSI
100
AcDbLine
 62
253
  6
CONTINUOUS
 10
265.3775866784
 20
66.670191995
 11
265.2659476445
 21
66.6907445382
  0
LWPOLYLINE
  5
33A
100
AcDbEntity
  8
SCRITTA
100
AcDbPolyline
 62
253
  6
CONTINUOUS
 90
85
 70
0
 10
225.0015192585
 20
72.1810566323
 10
225.0185763168
 20
72.1745078489
 10
225.035783552
 20
72.1671040091
 10
225.0531732102
 20
72.158818329
 10
225.0707775376
 20
72.1496240243
 10
225.0886287802
 20
72.1394943111
 10
225.1067591841
 20
72.1284024053
 10
225.1251765544
 20
72.1163311432
 10
225.1437909314
 20
72.1033018427
 10
225.1624879146
 20
72.0893454419
 10
225.1811531033
 20
72.0744928791
 10
225.1996720968
 20
72.0587750925
 10
225.2179304944
 20
72.0422230204
 10
225.2358242848
 20
72.0248669214
 10
225.2532910131
 20
72.0067343363
 10
225.270278614
 20
71.9878521263
 10
225.2867350218
 20
71.9682471527
 10
225.3026081712
 20
71.9479462767
 10
225.3178459966
 20
71.9269763595
 10
225.3323981275
 20
71.9053757109
 10
225.3462209728
 20
71.883228435
 10
225.3592726365
 20
71.8606300843
 10
225.3715112226
 20
71.8376762115
 10
225.3828948349
 20
71.8144623692
 10
225.3933815775
 20
71.7910841099
 10
225.4029422532
 20
71.7676274632
 10
225.4115984614
 20
71.7441403663
 10
225.4193845003
 20
71.7206612334
 10
225.4263346682
 20
71.6972284787
 10
225.4324832633
 20
71.6738805163
 10
225.4378645838
 20
71.6506557604
 10
225.4433592583
 20
71.6230053535
 10
225.4478673158
 20
71.5956695426
 10
225.4514576251
 20
71.5687301897
 10
225.4541990549
 20
71.5422691572
 10
225.4561604741
 20
71.516368307
 10
225.457405582
 20
71.4910940349
 10
225.4579774007
 20
71.4664508702
 10
225.4579137829
 20
71.4424278756
 10
225.4572525813
 20
71.4190141142
 10
225.4560316484
 20
71.3961986486
 10
225.4542870961
 20
71.3739704697
 10
225.4520480715
 20
71.352318281
 10
225.4493419811
 20
71.3312307136
 10
225.4461962312
 20
71.3106963991
 10
225.4426382281
 20
71.2907039687
 10
225.4376499399
 20
71.2664557494
 10
225.4320970259
 20
71.2429999364
 10
225.4260161836
 20
71.2203000056
 10
225.4194441106
 20
71.1983194327
 10
225.41241922
 20
71.1770294127
 10
225.4049867877
 20
71.1564320178
 10
225.3971938053
 20
71.1365370395
 10
225.3890872643
 20
71.1173542691
 10
225.3807103301
 20
71.0988877955
 10
225.3720908635
 20
71.081118897
 10
225.363252899
 20
71.0640231492
 10
225.3542204713
 20
71.0475761279
 10
225.3419151451
 20
71.026620176
 10
225.3293570136
 20
71.0067551684
 10
225.3165962558
 20
70.9879621792
 10
225.3036806908
 20
70.9702162011
 10
225.2906486977
 20
70.953467901
 10
225.2775362961
 20
70.9376618648
 10
225.264384125
 20
70.9227408642
 10
225.2512513036
 20
70.9086404149
 10
225.2382015711
 20
70.8952942186
 10
225.2252934021
 20
70.8826382891
 10
225.2125642144
 20
70.870617889
 10
225.200046161
 20
70.8591805929
 10
225.1908132185
 20
70.8509533553
 10
225.1817168795
 20
70.8430001637
 10
225.1727602149
 20
70.8352998746
 10
225.1639595629
 20
70.8278446132
 10
225.155328663
 20
70.8206262998
 10
225.1468575935
 20
70.8136227669
 10
225.1301851292
 20
70.8002435489
 10
225.1217786963
 20
70.7939535903
 10
225.1133073756
 20
70.7880807022
 10
225.1048072956
 20
70.7827625858
 10
225.0962891159
 20
70.7780878979
 10
225.0877504324
 20
70.7741268734
 10
225.0791620565
 20
70.7709251048
 10
225.0704982664
 20
70.768522376
 10
225.0617739937
 20
70.7669598777
  0
LWPOLYLINE
  5
33B
100
AcDbEntity
  8
0
100
AcDbPolyline
 62
253
  6
CONTINUOUS
 90
10
 70
0
 10
208.5254561206
 20
75.6761618688
 10
208.5407797874
 20
75.652603783
 10
208.5576203406
 20
75.6291885403
 10
208.5760134293
 20
75.6060280897
 10
208.5960462482
 20
75.5832903548
 10
208.6176796872
 20
75.5610588779
 10
208.6407718755
 20
75.5393065463
 10
208.6653022086
 20
75.518091295
 10
208.691346471
 20
75.4975824605
 10
208.7189195107
 20
75.4779069613
  0
LWPOLYLINE
  5
33C
100
AcDbEntity
  8
ASSI
100
AcDbPolyline
 62
253
  6
CONTINUOUS
 90
10
 70
0
 10
208.5254561206
 20
75.6761618688
 10
208.5407797874
 20
75.652603783
 10
208.5576203406
 20
75.6291885403
 10
208.5760134293
 20
75.6060280897
 10
208.5960462482
 20
75.5832903548
 10
208.6176796872
 20
75.5610588779
 10
208.6407718755
 20
75.5393065463
 10
208.6653022086
 20
75.518091295
 10
208.691346471
 20
75.4975824605
 10
208.7189195107
 20
75.4779069613
  0
LWPOLYLINE
  5
33D
100
AcDbEntity
  8
0
100
AcDbPolyline
 62
253
  6
CONTINUOUS
 90
10
 70
0
 10
208.5256582666
 20
75.6763048166
 10
208.5058713991
 20
75.7109276704
 10
208.4882354774
 20
75.7466281737
 10
208.4727981569
 20
75.7832684524
 10
208.4595844627
 20
75.8207799359
 10
208.4486699128
 20
75.858962984
 10
208.4401252893
 20
75.8974690519
 10
208.4339342471
 20
75.9360769387
 10
208.430051482
 20
75.9747115808
 10
208.4284485856
 20
76.0132353597
  0
LWPOLYLINE
  5
33E
100
AcDbEntity
  8
ASSI
100
AcDbPolyline
 62
253
  6
CONTINUOUS
 90
10
 70
0
 10
208.5256582666
 20
75.6763048166
 10
208.5058713991
 20
75.7109276704
 10
208.4882354774
 20
75.7466281737
 10
208.4727981569
 20
75.7832684524
 10
208.4595844627
 20
75.8207799359
 10
208.4486699128
 20
75.858962984
 10
208.4401252893
 20
75.8974690519
 10
208.4339342471
 20
75.9360769387
 10
208.430051482
 20
75.9747115808
 10
208.4284485856
 20
76.0132353597
  0
LWPOLYLINE
  5
33F
100
AcDbEntity
  8
0
100
AcDbPolyline
 62
253
  6
CONTINUOUS
 90
10
 70
0
 10
208.4132912674
 20
76.0127168068
 10
208.4167466666
 20
75.9746304908
 10
208.4223832576
 20
75.9362626393
 10
208.4302750513
 20
75.8977484839
 10
208.4405520086
 20
75.8590672632
 10
208.4532493979
 20
75.8205549575
 10
208.4681914171
 20
75.7828551512
 10
208.4852406671
 20
75.7462453736
 10
208.5044129335
 20
75.7106863966
 10
208.5256582666
 20
75.6763048166
  0
LWPOLYLINE
  5
340
100
AcDbEntity
  8
ASSI
100
AcDbPolyline
 62
253
  6
CONTINUOUS
 90
10
 70
0
 10
208.4132912674
 20
76.0127168068
 10
208.4167466666
 20
75.9746304908
 10
208.4223832576
 20
75.9362626393
 10
208.4302750513
 20
75.8977484839
 10
208.4405520086
 20
75.8590672632
 10
208.4532493979
 20
75.8205549575
 10
208.4681914171
 20
75.7828551512
 10
208.4852406671
 20
75.7462453736
 10
208.5044129335
 20
75.7106863966
 10
208.5256582666
 20
75.6763048166
  0
LWPOLYLINE
  5
341
100
AcDbEntity
  8
0
100
AcDbPolyline
 62
253
  6
CONTINUOUS
 90
16
 70
0
 10
208.150416917
 20
76.004484883
 10
208.1537168579
 20
75.9477545525
 10
208.1607511876
 20
75.890911141
 10
208.1715198582
 20
75.8339546511
 10
208.1860908706
 20
75.7763700147
 10
208.204396128
 20
75.7186723102
 10
208.2262314406
 20
75.6624067356
 10
208.2516453178
 20
75.607853589
 10
208.2805891716
 20
75.5547325278
 10
208.31271318
 20
75.5037477553
 10
208.34809539
 20
75.4549158976
 10
208.3866577094
 20
75.408220271
 10
208.4278161295
 20
75.364315097
 10
208.4713759843
 20
75.3234184242
 10
208.5175319409
 20
75.2853121377
 10
208.5662840051
 20
75.2499962081
  0
LWPOLYLINE
  5
342
100
AcDbEntity
  8
ASSI
100
AcDbPolyline
 62
253
  6
CONTINUOUS
 90
16
 70
0
 10
208.150416917
 20
76.004484883
 10
208.1537168579
 20
75.9477545525
 10
208.1607511876
 20
75.890911141
 10
208.1715198582
 20
75.8339546511
 10
208.1860908706
 20
75.7763700147
 10
208.204396128
 20
75.7186723102
 10
208.2262314406
 20
75.6624067356
 10
208.2516453178
 20
75.607853589
 10
208.2805891716
 20
75.5547325278
 10
208.31271318
 20
75.5037477553
 10
208.34809539
 20
75.4549158976
 10
208.3866577094
 20
75.408220271
 10
208.4278161295
 20
75.364315097
 10
208.4713759843
 20
75.3234184242
 10
208.5175319409
 20
75.2853121377
 10
208.5662840051
 20
75.2499962081
  0
LINE
  5
343
100
AcDbEntity
  8
0
100
AcDbLine
 62
253
  6
CONTINUOUS
 10
208.6012393964
 20
145.3362868981
 11
208.6059112322
 21
145.220677542
  0
LINE
  5
344
100
AcDbEntity
  8
ASSI
100
AcDbLine
 62
253
  6
CONTINUOUS
 10
208.6012393964
 20
145.3362868981
 11
208.6059112322
 21
145.220677542
  0
LINE
  5
345
100
AcDbEntity
  8
0
100
AcDbLine
 62
253
  6
CONTINUOUS
 10
208.5721754685
 20
145.0948942177
 11
208.5841956031
 21
144.7781837372
  0
LINE
  5
346
100
AcDbEntity
  8
ASSI
100
AcDbLine
 62
253
  6
CONTINUOUS
 10
208.5721754685
 20
145.0948942177
 11
208.5841956031
 21
144.7781837372
  0
LINE
  5
347
100
AcDbEntity
  8
0
100
AcDbLine
 62
253
  6
CONTINUOUS
 10
208.6095023698
 20
145.0964055174
 11
208.6214830222
 21
144.7796944035
  0
LINE
  5
348
100
AcDbEntity
  8
ASSI
100
AcDbLine
 62
253
  6
CONTINUOUS
 10
208.6095023698
 20
145.0964055174
 11
208.6214830222
 21
144.7796944035
  0
LWPOLYLINE
  5
349
100
AcDbEntity
  8
0
100
AcDbPolyline
 62
7
  6
CONTINUOUS
 90
22
 70
0
 10
208.6892708292
 20
76.0213368128
 10
208.6901695533
 20
75.9928077785
 10
208.6932438112
 20
75.9643426809
 10
208.6984935962
 20
75.9359415198
 10
208.7059179936
 20
75.9073776557
 10
208.7155179049
 20
75.8788777284
 10
208.7272960473
 20
75.8511216506
 10
208.7413512939
 20
75.8241103092
 10
208.757584759
 20
75.7978428065
 10
208.7757025229
 20
75.7729963679
 10
208.7957759309
 20
75.7496352009
 10
208.8177336311
 20
75.7276950792
 10
208.8410676613
 20
75.7076605716
 10
208.8658001178
 20
75.6896139027
 10
208.8919089062
 20
75.6734728277
 10
208.9188197822
 20
75.659475209
 10
208.9465899607
 20
75.6476868816
 10
208.9751622356
 20
75.6380419951
 10
209.0037907344
 20
75.6305808841
 10
209.0322268371
 20
75.6253169908
 10
209.0607191761
 20
75.6222368653
 10
209.0892677581
 20
75.6213405057
  0
LWPOLYLINE
  5
34A
100
AcDbEntity
  8
ASSI
100
AcDbPolyline
 62
7
  6
CONTINUOUS
 90
22
 70
0
 10
208.6892708292
 20
76.0213368128
 10
208.6901695533
 20
75.9928077785
 10
208.6932438112
 20
75.9643426809
 10
208.6984935962
 20
75.9359415198
 10
208.7059179936
 20
75.9073776557
 10
208.7155179049
 20
75.8788777284
 10
208.7272960473
 20
75.8511216506
 10
208.7413512939
 20
75.8241103092
 10
208.757584759
 20
75.7978428065
 10
208.7757025229
 20
75.7729963679
 10
208.7957759309
 20
75.7496352009
 10
208.8177336311
 20
75.7276950792
 10
208.8410676613
 20
75.7076605716
 10
208.8658001178
 20
75.6896139027
 10
208.8919089062
 20
75.6734728277
 10
208.9188197822
 20
75.659475209
 10
208.9465899607
 20
75.6476868816
 10
208.9751622356
 20
75.6380419951
 10
209.0037907344
 20
75.6305808841
 10
209.0322268371
 20
75.6253169908
 10
209.0607191761
 20
75.6222368653
 10
209.0892677581
 20
75.6213405057
  0
LINE
  5
34B
100
AcDbEntity
  8
0
100
AcDbLine
 62
253
  6
CONTINUOUS
 10
208.5696645966
 20
145.1707535484
 11
208.5721754685
 21
145.0948942177
  0
LINE
  5
34C
100
AcDbEntity
  8
ASSI
100
AcDbLine
 62
253
  6
CONTINUOUS
 10
208.5696645966
 20
145.1707535484
 11
208.5721754685
 21
145.0948942177
  0
LINE
  5
34D
100
AcDbEntity
  8
0
100
AcDbLine
 62
253
  6
CONTINUOUS
 10
208.606999795
 20
145.1722648665
 11
208.6095023698
 21
145.0964055174
  0
LINE
  5
34E
100
AcDbEntity
  8
ASSI
100
AcDbLine
 62
253
  6
CONTINUOUS
 10
208.606999795
 20
145.1722648665
 11
208.6095023698
 21
145.0964055174
  0
LINE
  5
34F
100
AcDbEntity
  8
0
100
AcDbLine
 62
253
  6
CONTINUOUS
 10
209.0892224519
 20
121.2789866798
 11
209.0859693259
 21
121.4897045415
  0
LINE
  5
350
100
AcDbEntity
  8
ASSI
100
AcDbLine
 62
253
  6
CONTINUOUS
 10
209.0892224519
 20
121.2789866798
 11
209.0859693259
 21
121.4897045415
  0
LINE
  5
351
100
AcDbEntity
  8
0
100
AcDbLine
 62
253
  6
CONTINUOUS
 10
209.0859693259
 20
121.4897045415
 11
209.085147673
 21
121.5553588988
  0
LINE
  5
352
100
AcDbEntity
  8
ASSI
100
AcDbLine
 62
253
  6
CONTINUOUS
 10
209.0859693259
 20
121.4897045415
 11
209.085147673
 21
121.5553588988
  0
LWPOLYLINE
  5
353
100
AcDbEntity
  8
0
100
AcDbPolyline
 62
253
  6
CONTINUOUS
 90
4
 70
0
 10
208.5685723476
 20
145.2191663367
 10
208.5685927712
 20
145.2131139013
 10
208.5687829101
 20
145.2029656916
 10
208.5696645966
 20
145.1707535484
  0
LWPOLYLINE
  5
354
100
AcDbEntity
  8
ASSI
100
AcDbPolyline
 62
253
  6
CONTINUOUS
 90
4
 70
0
 10
208.5685723476
 20
145.2191663367
 10
208.5685927712
 20
145.2131139013
 10
208.5687829101
 20
145.2029656916
 10
208.5696645966
 20
145.1707535484
  0
LWPOLYLINE
  5
355
100
AcDbEntity
  8
0
100
AcDbPolyline
 62
253
  6
CONTINUOUS
 90
4
 70
0
 10
208.6059112322
 20
145.2206775417
 10
208.6059315612
 20
145.2146251474
 10
208.6061210498
 20
145.2044769706
 10
208.606999795
 20
145.1722648665
  0
LWPOLYLINE
  5
356
100
AcDbEntity
  8
ASSI
100
AcDbPolyline
 62
253
  6
CONTINUOUS
 90
4
 70
0
 10
208.6059112322
 20
145.2206775417
 10
208.6059315612
 20
145.2146251474
 10
208.6061210498
 20
145.2044769706
 10
208.606999795
 20
145.1722648665
  0
LINE
  5
357
100
AcDbEntity
  8
0
100
AcDbLine
 62
253
  6
CONTINUOUS
 10
208.5841956031
 20
51.8644972743
 11
208.5662840051
 21
75.2499962081
  0
LINE
  5
358
100
AcDbEntity
  8
ASSI
100
AcDbLine
 62
253
  6
CONTINUOUS
 10
208.5841956031
 20
51.8644972743
 11
208.5662840051
 21
75.2499962081
  0
LINE
  5
359
100
AcDbEntity
  8
0
100
AcDbLine
 62
253
  6
CONTINUOUS
 10
208.150416917
 20
120.6381961285
 11
208.150416917
 21
76.004484883
  0
LINE
  5
35A
100
AcDbEntity
  8
ASSI
100
AcDbLine
 62
253
  6
CONTINUOUS
 10
208.150416917
 20
120.6381961285
 11
208.150416917
 21
76.004484883
  0
LINE
  5
35B
100
AcDbEntity
  8
0
100
AcDbLine
 62
253
  6
CONTINUOUS
 10
208.4131638871
 20
120.6299562195
 11
208.4131638871
 21
76.0127124454
  0
LINE
  5
35C
100
AcDbEntity
  8
ASSI
100
AcDbLine
 62
253
  6
CONTINUOUS
 10
208.4131638871
 20
120.6299562195
 11
208.4131638871
 21
76.0127124454
  0
LINE
  5
35D
100
AcDbEntity
  8
0
100
AcDbLine
 62
253
  6
CONTINUOUS
 10
208.4285211366
 20
76.0132377887
 11
208.4285211369
 21
120.629362244
  0
LINE
  5
35E
100
AcDbEntity
  8
ASSI
100
AcDbLine
 62
253
  6
CONTINUOUS
 10
208.4285211366
 20
76.0132377887
 11
208.4285211369
 21
120.629362244
  0
LINE
  5
35F
100
AcDbEntity
  8
0
100
AcDbLine
 62
253
  6
CONTINUOUS
 10
208.6410462829
 20
76.0214746083
 11
208.6410462836
 21
120.6212065935
  0
LINE
  5
360
100
AcDbEntity
  8
ASSI
100
AcDbLine
 62
253
  6
CONTINUOUS
 10
208.6410462829
 20
76.0214746083
 11
208.6410462836
 21
120.6212065935
  0
LINE
  5
361
100
AcDbEntity
  8
0
100
AcDbLine
 62
7
  6
CONTINUOUS
 10
208.6892708292
 20
120.6213444396
 11
208.6892708292
 21
76.0213368128
  0
LINE
  5
362
100
AcDbEntity
  8
ASSI
100
AcDbLine
 62
7
  6
CONTINUOUS
 10
208.6892708292
 20
120.6213444396
 11
208.6892708292
 21
76.0213368128
  0
LINE
  5
363
100
AcDbEntity
  8
0
100
AcDbLine
 62
253
  6
CONTINUOUS
 10
209.0892711946
 20
75.3636982487
 11
209.0892708288
 21
75.6213405057
  0
LINE
  5
364
100
AcDbEntity
  8
ASSI
100
AcDbLine
 62
253
  6
CONTINUOUS
 10
209.0892711946
 20
75.3636982487
 11
209.0892708288
 21
75.6213405057
  0
LINE
  5
365
100
AcDbEntity
  8
0
100
AcDbLine
 62
253
  6
CONTINUOUS
 10
208.5662840051
 20
121.3926848034
 11
208.5790284647
 21
139.7324169036
  0
LINE
  5
366
100
AcDbEntity
  8
ASSI
100
AcDbLine
 62
253
  6
CONTINUOUS
 10
208.5662840051
 20
121.3926848034
 11
208.5790284647
 21
139.7324169036
  0
LINE
  5
367
100
AcDbEntity
  8
0
100
AcDbLine
 62
253
  6
CONTINUOUS
 10
208.5790284647
 20
139.7324169036
 11
208.5841956031
 21
144.7781837372
  0
LINE
  5
368
100
AcDbEntity
  8
ASSI
100
AcDbLine
 62
253
  6
CONTINUOUS
 10
208.5790284647
 20
139.7324169036
 11
208.5841956031
 21
144.7781837372
  0
LINE
  5
369
100
AcDbEntity
  8
0
100
AcDbLine
 62
253
  6
CONTINUOUS
 10
209.0892708288
 20
121.0213405057
 11
209.0892707252
 21
121.2790533088
  0
LINE
  5
36A
100
AcDbEntity
  8
ASSI
100
AcDbLine
 62
253
  6
CONTINUOUS
 10
209.0892708288
 20
121.0213405057
 11
209.0892707252
 21
121.2790533088
  0
LWPOLYLINE
  5
36B
100
AcDbEntity
  8
0
100
AcDbPolyline
 62
253
  6
CONTINUOUS
 90
3
 70
0
 10
208.6059112322
 20
51.4220034695
 10
208.6059315612
 20
51.4280558639
 10
208.6061210498
 20
51.4382040406
  0
LWPOLYLINE
  5
36C
100
AcDbEntity
  8
ASSI
100
AcDbPolyline
 62
253
  6
CONTINUOUS
 90
3
 70
0
 10
208.6059112322
 20
51.4220034695
 10
208.6059315612
 20
51.4280558639
 10
208.6061210498
 20
51.4382040406
  0
LWPOLYLINE
  5
36D
100
AcDbEntity
  8
0
100
AcDbPolyline
 62
253
  6
CONTINUOUS
 90
3
 70
0
 10
208.5685723476
 20
51.4235146742
 10
208.5685927712
 20
51.4295671097
 10
208.5687829101
 20
51.4397153195
  0
LWPOLYLINE
  5
36E
100
AcDbEntity
  8
ASSI
100
AcDbPolyline
 62
253
  6
CONTINUOUS
 90
3
 70
0
 10
208.5685723476
 20
51.4235146742
 10
208.5685927712
 20
51.4295671097
 10
208.5687829101
 20
51.4397153195
  0
LINE
  5
36F
100
AcDbEntity
  8
0
100
AcDbLine
 62
253
  6
CONTINUOUS
 10
209.0882776995
 20
75.3092817879
 11
209.0851476935
 21
75.087322217
  0
LINE
  5
370
100
AcDbEntity
  8
ASSI
100
AcDbLine
 62
253
  6
CONTINUOUS
 10
209.0882776995
 20
75.3092817879
 11
209.0851476935
 21
75.087322217
  0
LINE
  5
371
100
AcDbEntity
  8
0
100
AcDbLine
 62
253
  6
CONTINUOUS
 10
209.0892212676
 20
75.3636280029
 11
209.0882776995
 21
75.3092817879
  0
LINE
  5
372
100
AcDbEntity
  8
ASSI
100
AcDbLine
 62
253
  6
CONTINUOUS
 10
209.0892212676
 20
75.3636280029
 11
209.0882776995
 21
75.3092817879
  0
LINE
  5
373
100
AcDbEntity
  8
0
100
AcDbLine
 62
253
  6
CONTINUOUS
 10
208.5687829101
 20
51.4397153195
 11
208.5696645967
 21
51.4719274627
  0
LINE
  5
374
100
AcDbEntity
  8
ASSI
100
AcDbLine
 62
253
  6
CONTINUOUS
 10
208.5687829101
 20
51.4397153195
 11
208.5696645967
 21
51.4719274627
  0
LINE
  5
375
100
AcDbEntity
  8
0
100
AcDbLine
 62
253
  6
CONTINUOUS
 10
208.6061210498
 20
51.4382040406
 11
208.606999795
 21
51.4704161447
  0
LINE
  5
376
100
AcDbEntity
  8
ASSI
100
AcDbLine
 62
253
  6
CONTINUOUS
 10
208.6061210498
 20
51.4382040406
 11
208.606999795
 21
51.4704161447
  0
LWPOLYLINE
  5
377
100
AcDbEntity
  8
0
100
AcDbPolyline
 62
253
  6
CONTINUOUS
 90
25
 70
0
 10
208.641041219
 20
120.6212065788
 10
208.6419481096
 20
120.6498013898
 10
208.6446804281
 20
120.67830523
 10
208.6492289516
 20
120.7066002101
 10
208.6555850094
 20
120.7345721136
 10
208.6637279097
 20
120.7621029088
 10
208.6736220809
 20
120.7890716492
 10
208.6852320277
 20
120.8153657054
 10
208.6985199714
 20
120.8408799404
 10
208.7134250195
 20
120.8655051871
 10
208.7298788638
 20
120.8891295985
 10
208.7478161383
 20
120.9116466854
 10
208.7671692799
 20
120.9329672464
 10
208.7878707285
 20
120.953019138
 10
208.8098293815
 20
120.971707045
 10
208.8329277178
 20
120.9889275494
 10
208.8569143033
 20
121.0045273115
 10
208.8818185301
 20
121.0185536362
 10
208.9079710363
 20
121.0311402398
 10
208.9353645583
 20
121.0421798525
 10
208.9638470633
 20
121.0515162505
 10
208.9935753754
 20
121.0590780039
 10
209.0245329062
 20
121.0646983768
 10
209.0565074416
 20
121.0681863414
 10
209.0893492485
 20
121.0693734037
  0
LWPOLYLINE
  5
378
100
AcDbEntity
  8
ASSI
100
AcDbPolyline
 62
253
  6
CONTINUOUS
 90
25
 70
0
 10
208.641041219
 20
120.6212065788
 10
208.6419481096
 20
120.6498013898
 10
208.6446804281
 20
120.67830523
 10
208.6492289516
 20
120.7066002101
 10
208.6555850094
 20
120.7345721136
 10
208.6637279097
 20
120.7621029088
 10
208.6736220809
 20
120.7890716492
 10
208.6852320277
 20
120.8153657054
 10
208.6985199714
 20
120.8408799404
 10
208.7134250195
 20
120.8655051871
 10
208.7298788638
 20
120.8891295985
 10
208.7478161383
 20
120.9116466854
 10
208.7671692799
 20
120.9329672464
 10
208.7878707285
 20
120.953019138
 10
208.8098293815
 20
120.971707045
 10
208.8329277178
 20
120.9889275494
 10
208.8569143033
 20
121.0045273115
 10
208.8818185301
 20
121.0185536362
 10
208.9079710363
 20
121.0311402398
 10
208.9353645583
 20
121.0421798525
 10
208.9638470633
 20
121.0515162505
 10
208.9935753754
 20
121.0590780039
 10
209.0245329062
 20
121.0646983768
 10
209.0565074416
 20
121.0681863414
 10
209.0893492485
 20
121.0693734037
  0
LINE
  5
379
100
AcDbEntity
  8
0
100
AcDbLine
 62
253
  6
CONTINUOUS
 10
208.606999795
 20
51.4704161447
 11
208.6106259053
 21
51.5780933013
  0
LINE
  5
37A
100
AcDbEntity
  8
ASSI
100
AcDbLine
 62
253
  6
CONTINUOUS
 10
208.606999795
 20
51.4704161447
 11
208.6106259053
 21
51.5780933013
  0
LINE
  5
37B
100
AcDbEntity
  8
0
100
AcDbLine
 62
253
  6
CONTINUOUS
 10
208.5696645967
 20
51.4719274627
 11
208.5733027178
 21
51.5796045715
  0
LINE
  5
37C
100
AcDbEntity
  8
ASSI
100
AcDbLine
 62
253
  6
CONTINUOUS
 10
208.5696645967
 20
51.4719274627
 11
208.5733027178
 21
51.5796045715
  0
LINE
  5
37D
100
AcDbEntity
  8
0
100
AcDbLine
 62
253
  6
CONTINUOUS
 10
208.6106259053
 20
51.5780933013
 11
208.6214830222
 21
51.862986608
  0
LINE
  5
37E
100
AcDbEntity
  8
ASSI
100
AcDbLine
 62
253
  6
CONTINUOUS
 10
208.6106259053
 20
51.5780933013
 11
208.6214830222
 21
51.862986608
  0
LINE
  5
37F
100
AcDbEntity
  8
0
100
AcDbLine
 62
253
  6
CONTINUOUS
 10
208.5733027178
 20
51.5796045715
 11
208.5841956032
 21
51.8644972744
  0
LINE
  5
380
100
AcDbEntity
  8
ASSI
100
AcDbLine
 62
253
  6
CONTINUOUS
 10
208.5733027178
 20
51.5796045715
 11
208.5841956032
 21
51.8644972744
  0
LINE
  5
381
100
AcDbEntity
  8
0
100
AcDbLine
 62
253
  6
CONTINUOUS
 10
208.6012393964
 20
51.3063941134
 11
208.6059112322
 21
51.4220034695
  0
LINE
  5
382
100
AcDbEntity
  8
ASSI
100
AcDbLine
 62
253
  6
CONTINUOUS
 10
208.6012393964
 20
51.3063941134
 11
208.6059112322
 21
51.4220034695
  0
LWPOLYLINE
  5
383
100
AcDbEntity
  8
0
100
AcDbPolyline
 62
253
  6
CONTINUOUS
 90
10
 70
0
 10
208.4284475892
 20
120.6293649336
 10
208.4301151956
 20
120.6688037971
 10
208.4341336098
 20
120.7080728245
 10
208.4404827503
 20
120.7470334128
 10
208.4491415646
 20
120.7855462283
 10
208.4600893161
 20
120.8234719252
 10
208.4732882862
 20
120.8606771401
 10
208.4886850655
 20
120.8970326153
 10
208.506223853
 20
120.9324087075
 10
208.5258493172
 20
120.9666751809
  0
LWPOLYLINE
  5
384
100
AcDbEntity
  8
ASSI
100
AcDbPolyline
 62
253
  6
CONTINUOUS
 90
10
 70
0
 10
208.4284475892
 20
120.6293649336
 10
208.4301151956
 20
120.6688037971
 10
208.4341336098
 20
120.7080728245
 10
208.4404827503
 20
120.7470334128
 10
208.4491415646
 20
120.7855462283
 10
208.4600893161
 20
120.8234719252
 10
208.4732882862
 20
120.8606771401
 10
208.4886850655
 20
120.8970326153
 10
208.506223853
 20
120.9324087075
 10
208.5258493172
 20
120.9666751809
  0
LINE
  5
385
100
AcDbEntity
  8
SCRITTA
100
AcDbLine
 62
253
  6
CONTINUOUS
 10
218.8392028288
 20
71.2716935057
 11
219.5247838288
 21
69.4435395057
  0
LINE
  5
386
100
AcDbEntity
  8
SCRITTA
100
AcDbLine
 62
253
  6
CONTINUOUS
 10
219.5689568288
 20
70.6888385057
 11
218.9907208288
 21
72.2432425057
  0
LINE
  5
387
100
AcDbEntity
  8
SCRITTA
100
AcDbLine
 62
253
  6
CONTINUOUS
 10
214.7356028288
 20
72.2432425057
 11
215.6231638288
 21
69.4435395057
  0
LINE
  5
388
100
AcDbEntity
  8
SCRITTA
100
AcDbLine
 62
253
  6
CONTINUOUS
 10
215.9041248288
 20
70.3161205057
 11
215.3704508288
 21
72.2432425057
  0
LWPOLYLINE
  5
389
100
AcDbEntity
  8
SCRITTA
100
AcDbPolyline
 62
253
  6
CONTINUOUS
 90
47
 70
0
 10
224.7806509451
 20
70.2927360155
 10
224.7767259646
 20
70.3028129774
 10
224.772624747
 20
70.3126491682
 10
224.7683564068
 20
70.3222470082
 10
224.7639300582
 20
70.3316089181
 10
224.7593548156
 20
70.3407373183
 10
224.7546397933
 20
70.3496346294
 10
224.7497941055
 20
70.3583032718
 10
224.7448268666
 20
70.366745666
 10
224.7397471909
 20
70.3749642326
 10
224.7345641927
 20
70.382961392
 10
224.7286931807
 20
70.3915906236
 10
224.7227061855
 20
70.3999542018
 10
224.71660353
 20
70.4080568268
 10
224.7103855373
 20
70.4159031992
 10
224.7040525304
 20
70.4234980192
 10
224.6976048325
 20
70.4308459873
 10
224.6910427666
 20
70.4379518039
 10
224.6843666557
 20
70.4448201693
 10
224.6775768229
 20
70.4514557839
 10
224.6706737608
 20
70.457861965
 10
224.6636586405
 20
70.4640364969
 10
224.6565328024
 20
70.4699757808
 10
224.6492975872
 20
70.4756762177
 10
224.6419543354
 20
70.4811342089
 10
224.6345043876
 20
70.4863461554
 10
224.6269490843
 20
70.4913084585
 10
224.619289766
 20
70.4960175193
 10
224.6115277735
 20
70.5004697389
 10
224.6036642674
 20
70.5046628068
 10
224.5956996899
 20
70.508599565
 10
224.5876343032
 20
70.5122841439
 10
224.5794683698
 20
70.5157206741
 10
224.571202152
 20
70.5189132858
 10
224.5628359121
 20
70.5218661095
 10
224.5543699125
 20
70.5245832755
 10
224.5458044155
 20
70.5270689143
 10
224.5371396835
 20
70.5293271562
 10
224.5283759197
 20
70.5313608815
 10
224.5195130916
 20
70.5331679694
 10
224.5105511074
 20
70.534745049
 10
224.5014898755
 20
70.5360887494
 10
224.4923293041
 20
70.5371956996
 10
224.4830693017
 20
70.5380625289
 10
224.4737097765
 20
70.5386858661
 10
224.4642506368
 20
70.5390623404
 10
224.4546917911
 20
70.539188581
  0
LINE
  5
38A
100
AcDbEntity
  8
SCRITTA
100
AcDbLine
 62
253
  6
CONTINUOUS
 10
223.3876788288
 20
69.4435395057
 11
222.5286608288
 21
72.2432425057
  0
LINE
  5
38B
100
AcDbEntity
  8
SCRITTA
100
AcDbLine
 62
253
  6
CONTINUOUS
 10
222.6203448288
 20
70.0024595057
 11
222.7717368288
 21
69.4435395057
  0
LINE
  5
38C
100
AcDbEntity
  8
SCRITTA
100
AcDbLine
 62
253
  6
CONTINUOUS
 10
222.2350078288
 20
71.4739555057
 11
222.5035508288
 21
70.4349495057
  0
LINE
  5
38D
100
AcDbEntity
  8
SCRITTA
100
AcDbLine
 62
253
  6
CONTINUOUS
 10
220.9933828288
 20
69.4435395057
 11
220.7315788288
 21
72.2432425057
  0
LINE
  5
38E
100
AcDbEntity
  8
SCRITTA
100
AcDbLine
 62
253
  6
CONTINUOUS
 10
220.3016078288
 20
71.2640715057
 11
220.4216768288
 21
69.4435395057
  0
LINE
  5
38F
100
AcDbEntity
  8
SCRITTA
100
AcDbLine
 62
253
  6
CONTINUOUS
 10
217.2549858288
 20
69.4435395057
 11
217.2549858288
 21
72.2434105057
  0
LINE
  5
390
100
AcDbEntity
  8
SCRITTA
100
AcDbLine
 62
253
  6
CONTINUOUS
 10
217.8393938288
 20
72.2434105057
 11
217.8393938288
 21
69.4435395057
  0
LINE
  5
391
100
AcDbEntity
  8
SCRITTA
100
AcDbLine
 62
253
  6
CONTINUOUS
 10
218.7130878288
 20
69.4435395057
 11
218.8392028288
 21
71.2716935057
  0
LINE
  5
392
100
AcDbEntity
  8
0
100
AcDbLine
 62
253
  6
CONTINUOUS
 10
231.7596487581
 20
121.1647512604
 11
231.8052491484
 21
121.233543234
  0
LINE
  5
393
100
AcDbEntity
  8
ASSI
100
AcDbLine
 62
253
  6
CONTINUOUS
 10
231.7596487581
 20
121.1647512604
 11
231.8052491484
 21
121.233543234
  0
LINE
  5
394
100
AcDbEntity
  8
0
100
AcDbLine
 62
253
  6
CONTINUOUS
 10
231.8052491484
 20
121.233543234
 11
231.8756533942
 21
121.3385582961
  0
LINE
  5
395
100
AcDbEntity
  8
ASSI
100
AcDbLine
 62
253
  6
CONTINUOUS
 10
231.8052491484
 20
121.233543234
 11
231.8756533942
 21
121.3385582961
  0
LINE
  5
396
100
AcDbEntity
  8
0
100
AcDbLine
 62
253
  6
CONTINUOUS
 10
231.8756533942
 20
121.3385582961
 11
231.9122576186
 21
121.3926846406
  0
LINE
  5
397
100
AcDbEntity
  8
ASSI
100
AcDbLine
 62
253
  6
CONTINUOUS
 10
231.8756533942
 20
121.3385582961
 11
231.9122576186
 21
121.3926846406
  0
LINE
  5
398
100
AcDbEntity
  8
0
100
AcDbLine
 62
253
  6
CONTINUOUS
 10
232.3281235896
 20
98.3213405057
 11
231.8374440092
 21
98.321340506
  0
LINE
  5
399
100
AcDbEntity
  8
ASSI
100
AcDbLine
 62
253
  6
CONTINUOUS
 10
232.3281235896
 20
98.3213405057
 11
231.8374440092
 21
98.321340506
  0
LINE
  5
39A
100
AcDbEntity
  8
0
100
AcDbLine
 62
253
  6
CONTINUOUS
 10
208.1504180679
 20
98.3213405057
 11
208.6410976484
 21
98.321340506
  0
LINE
  5
39B
100
AcDbEntity
  8
ASSI
100
AcDbLine
 62
253
  6
CONTINUOUS
 10
208.1504180679
 20
98.3213405057
 11
208.6410976484
 21
98.321340506
  0
LINE
  5
39C
100
AcDbEntity
  8
0
100
AcDbLine
 62
253
  6
CONTINUOUS
 10
231.8396511418
 20
75.3576663511
 11
231.912257641
 21
75.2499962631
  0
LINE
  5
39D
100
AcDbEntity
  8
ASSI
100
AcDbLine
 62
253
  6
CONTINUOUS
 10
231.8396511418
 20
75.3576663511
 11
231.912257641
 21
75.2499962631
  0
LINE
  5
39E
100
AcDbEntity
  8
0
100
AcDbLine
 62
253
  6
CONTINUOUS
 10
231.789220114
 20
75.4332379678
 11
231.8396511418
 21
75.3576663511
  0
LINE
  5
39F
100
AcDbEntity
  8
ASSI
100
AcDbLine
 62
253
  6
CONTINUOUS
 10
231.789220114
 20
75.4332379678
 11
231.8396511418
 21
75.3576663511
  0
LINE
  5
3A0
100
AcDbEntity
  8
0
100
AcDbLine
 62
253
  6
CONTINUOUS
 10
231.7596278952
 20
75.4779613952
 11
231.789220114
 21
75.4332379678
  0
LINE
  5
3A1
100
AcDbEntity
  8
ASSI
100
AcDbLine
 62
253
  6
CONTINUOUS
 10
231.7596278952
 20
75.4779613952
 11
231.789220114
 21
75.4332379678
  0
LWPOLYLINE
  5
3A2
100
AcDbEntity
  8
SCRITTA
100
AcDbPolyline
 62
253
  6
CONTINUOUS
 90
8
 70
0
 10
224.867022923
 20
70.0287974646
 10
224.8554305503
 20
70.0678806022
 10
224.8436645831
 20
70.1065285717
 10
224.8316811421
 20
70.1447235915
 10
224.8194363483
 20
70.18244788
 10
224.8068863223
 20
70.2196836555
 10
224.7939871851
 20
70.2564131365
 10
224.7806950574
 20
70.2926185412
  0
LINE
  5
3A3
100
AcDbEntity
  8
SCRITTA
100
AcDbLine
 62
253
  6
CONTINUOUS
 10
225.0214219073
 20
69.4949567354
 11
224.9483614466
 21
69.7445854015
  0
LINE
  5
3A4
100
AcDbEntity
  8
SCRITTA
100
AcDbLine
 62
253
  6
CONTINUOUS
 10
225.0362864506
 20
69.4435391514
 11
225.0214219073
 21
69.4949567354
  0
LWPOLYLINE
  5
3A5
100
AcDbEntity
  8
SCRITTA
100
AcDbPolyline
 62
253
  6
CONTINUOUS
 90
4
 70
0
 10
224.9483614466
 20
69.7445854015
 10
224.9070793851
 20
69.8888553434
 10
224.8937073946
 20
69.9360166963
 10
224.867022923
 20
70.0287974646
  0
LINE
  5
3A6
100
AcDbEntity
  8
SCRITTA
100
AcDbLine
 62
253
  6
CONTINUOUS
 10
225.3798153557
 20
70.2706226885
 11
225.4336941554
 21
70.0710712586
  0
LINE
  5
3A7
100
AcDbEntity
  8
SCRITTA
100
AcDbLine
 62
253
  6
CONTINUOUS
 10
225.5658567503
 20
69.5657540208
 11
225.5984190407
 21
69.4435391514
  0
LINE
  5
3A8
100
AcDbEntity
  8
SCRITTA
100
AcDbLine
 62
253
  6
CONTINUOUS
 10
225.4336941554
 20
70.0710712586
 11
225.5009323255
 21
69.8152744981
  0
LINE
  5
3A9
100
AcDbEntity
  8
SCRITTA
100
AcDbLine
 62
253
  6
CONTINUOUS
 10
225.5009323255
 20
69.8152744981
 11
225.5658567503
 21
69.5657540208
  0
LWPOLYLINE
  5
3AA
100
AcDbEntity
  8
SCRITTA
100
AcDbPolyline
 62
253
  6
CONTINUOUS
 90
49
 70
0
 10
224.9099241268
 20
71.4324779344
 10
224.9096103085
 20
71.4429396327
 10
224.9089792972
 20
71.4533455734
 10
224.9080338439
 20
71.4637000442
 10
224.9067766996
 20
71.4740073325
 10
224.9052106154
 20
71.4842717259
 10
224.9033383421
 20
71.494497512
 10
224.9011626308
 20
71.5046889784
 10
224.8986862326
 20
71.5148504126
 10
224.8959114596
 20
71.5249832673
 10
224.8928388695
 20
71.5350776561
 10
224.8894685815
 20
71.5451208575
 10
224.8858007145
 20
71.5551001504
 10
224.8818353875
 20
71.5650028133
 10
224.8775727196
 20
71.574816125
 10
224.8730128297
 20
71.5845273642
 10
224.8681558369
 20
71.5941238094
 10
224.863002077
 20
71.6035928439
 10
224.8575527531
 20
71.6129222682
 10
224.8518092851
 20
71.6220999873
 10
224.8457730929
 20
71.6311139061
 10
224.8394446947
 20
71.6399519334
 10
224.8328210016
 20
71.648601992
 10
224.8258980232
 20
71.6570520084
 10
224.8186717689
 20
71.665289909
 10
224.8111409229
 20
71.6733040062
 10
224.8033148677
 20
71.6810841562
 10
224.7952056609
 20
71.6886206009
 10
224.7868253599
 20
71.6959035823
 10
224.7781863344
 20
71.702924316
 10
224.7693022046
 20
71.7096779115
 10
224.760186903
 20
71.7161604522
 10
224.7508543623
 20
71.7223680211
 10
224.7413179429
 20
71.7282971727
 10
224.7315887167
 20
71.7339463467
 10
224.7216771831
 20
71.739314454
 10
224.711593842
 20
71.7444004055
 10
224.7013491929
 20
71.7492031121
 10
224.6909537355
 20
71.7537214848
 10
224.6804179695
 20
71.7579544345
 10
224.6697523944
 20
71.761900872
 10
224.6589650876
 20
71.7655592048
 10
224.6480544367
 20
71.7689258257
 10
224.6370164071
 20
71.7719966241
 10
224.6258469641
 20
71.7747674893
 10
224.6145420731
 20
71.7772343107
 10
224.6030976993
 20
71.7793929776
 10
224.5915098082
 20
71.7812393793
 10
224.579774365
 20
71.7827694051
  0
LINE
  5
3AB
100
AcDbEntity
  8
SCRITTA
100
AcDbLine
 62
253
  6
CONTINUOUS
 10
223.5592896311
 20
69.4435391514
 11
223.5592896311
 21
72.2105331647
  0
LINE
  5
3AC
100
AcDbEntity
  8
SCRITTA
100
AcDbLine
 62
253
  6
CONTINUOUS
 10
224.1219680829
 20
71.7662857098
 11
224.1219680829
 21
70.9977124192
  0
LINE
  5
3AD
100
AcDbEntity
  8
SCRITTA
100
AcDbLine
 62
253
  6
CONTINUOUS
 10
224.1413461736
 20
70.539188581
 11
224.1413461736
 21
69.4435391514
  0
LINE
  5
3AE
100
AcDbEntity
  8
SCRITTA
100
AcDbLine
 62
253
  6
CONTINUOUS
 10
225.0617739937
 20
70.7669598777
 11
225.0617739937
 21
70.7504160689
  0
LINE
  5
3AF
100
AcDbEntity
  8
SCRITTA
100
AcDbLine
 62
253
  6
CONTINUOUS
 10
218.4067958288
 20
72.2432425057
 11
218.1539988288
 21
69.4435395057
  0
LINE
  5
3B0
100
AcDbEntity
  8
SCRITTA
100
AcDbLine
 62
253
  6
CONTINUOUS
 10
216.4541018288
 20
72.2432425057
 11
215.9041248288
 21
70.3161205057
  0
LINE
  5
3B1
100
AcDbEntity
  8
SCRITTA
100
AcDbLine
 62
253
  6
CONTINUOUS
 10
216.1381738288
 20
69.4435395057
 11
217.0381108288
 21
72.2432425057
  0
LINE
  5
3B2
100
AcDbEntity
  8
0
100
AcDbLine
 62
253
  6
CONTINUOUS
 10
208.718910739
 20
75.4779568891
 11
208.6732919156
 21
75.4091378354
  0
LINE
  5
3B3
100
AcDbEntity
  8
ASSI
100
AcDbLine
 62
253
  6
CONTINUOUS
 10
208.718910739
 20
75.4779568891
 11
208.6732919156
 21
75.4091378354
  0
LINE
  5
3B4
100
AcDbEntity
  8
0
100
AcDbLine
 62
253
  6
CONTINUOUS
 10
208.6732919156
 20
75.4091378354
 11
208.6028877942
 21
75.304122855
  0
LINE
  5
3B5
100
AcDbEntity
  8
ASSI
100
AcDbLine
 62
253
  6
CONTINUOUS
 10
208.6732919156
 20
75.4091378354
 11
208.6028877942
 21
75.304122855
  0
LINE
  5
3B6
100
AcDbEntity
  8
0
100
AcDbLine
 62
253
  6
CONTINUOUS
 10
208.6028877942
 20
75.304122855
 11
208.5662840064
 21
75.2499962142
  0
LINE
  5
3B7
100
AcDbEntity
  8
ASSI
100
AcDbLine
 62
253
  6
CONTINUOUS
 10
208.6028877942
 20
75.304122855
 11
208.5662840064
 21
75.2499962142
  0
LINE
  5
3B8
100
AcDbEntity
  8
0
100
AcDbLine
 62
253
  6
CONTINUOUS
 10
208.6388894767
 20
121.2850162114
 11
208.5662840073
 21
121.3926847926
  0
LINE
  5
3B9
100
AcDbEntity
  8
ASSI
100
AcDbLine
 62
253
  6
CONTINUOUS
 10
208.6388894767
 20
121.2850162114
 11
208.5662840073
 21
121.3926847926
  0
LINE
  5
3BA
100
AcDbEntity
  8
0
100
AcDbLine
 62
253
  6
CONTINUOUS
 10
208.6893271175
 20
121.2094346261
 11
208.6388894767
 21
121.2850162114
  0
LINE
  5
3BB
100
AcDbEntity
  8
ASSI
100
AcDbLine
 62
253
  6
CONTINUOUS
 10
208.6893271175
 20
121.2094346261
 11
208.6388894767
 21
121.2850162114
  0
LINE
  5
3BC
100
AcDbEntity
  8
0
100
AcDbLine
 62
253
  6
CONTINUOUS
 10
208.7189370942
 20
121.1646841875
 11
208.6893271175
 21
121.2094346261
  0
LINE
  5
3BD
100
AcDbEntity
  8
ASSI
100
AcDbLine
 62
253
  6
CONTINUOUS
 10
208.7189370942
 20
121.1646841875
 11
208.6893271175
 21
121.2094346261
  0
LINE
  5
3BE
100
AcDbEntity
  8
0
100
AcDbLine
 62
253
  6
CONTINUOUS
 10
231.8773022611
 20
51.3063941134
 11
231.8726304254
 21
51.4220034695
  0
LINE
  5
3BF
100
AcDbEntity
  8
ASSI
100
AcDbLine
 62
253
  6
CONTINUOUS
 10
231.8773022611
 20
51.3063941134
 11
231.8726304254
 21
51.4220034695
  0
LINE
  5
3C0
100
AcDbEntity
  8
0
100
AcDbLine
 62
253
  6
CONTINUOUS
 10
231.906366189
 20
51.5477867938
 11
231.8943460544
 21
51.8644972743
  0
LINE
  5
3C1
100
AcDbEntity
  8
ASSI
100
AcDbLine
 62
253
  6
CONTINUOUS
 10
231.906366189
 20
51.5477867938
 11
231.8943460544
 21
51.8644972743
  0
LINE
  5
3C2
100
AcDbEntity
  8
0
100
AcDbLine
 62
253
  6
CONTINUOUS
 10
231.8690392877
 20
51.546275494
 11
231.8570586353
 21
51.862986608
  0
LINE
  5
3C3
100
AcDbEntity
  8
ASSI
100
AcDbLine
 62
253
  6
CONTINUOUS
 10
231.8690392877
 20
51.546275494
 11
231.8570586353
 21
51.862986608
  0
LINE
  5
3C4
100
AcDbEntity
  8
0
100
AcDbLine
 62
253
  6
CONTINUOUS
 10
231.8708599268
 20
51.4922117124
 11
231.8690392877
 21
51.546275494
  0
LINE
  5
3C5
100
AcDbEntity
  8
ASSI
100
AcDbLine
 62
253
  6
CONTINUOUS
 10
231.8708599268
 20
51.4922117124
 11
231.8690392877
 21
51.546275494
  0
LINE
  5
3C6
100
AcDbEntity
  8
0
100
AcDbLine
 62
253
  6
CONTINUOUS
 10
231.9081928586
 20
51.4937230354
 11
231.906366189
 21
51.5477867938
  0
LINE
  5
3C7
100
AcDbEntity
  8
ASSI
100
AcDbLine
 62
253
  6
CONTINUOUS
 10
231.9081928586
 20
51.4937230354
 11
231.906366189
 21
51.5477867938
  0
LINE
  5
3C8
100
AcDbEntity
  8
0
100
AcDbLine
 62
253
  6
CONTINUOUS
 10
231.8708599268
 20
145.1504692993
 11
231.8652889722
 21
144.9927034284
  0
LINE
  5
3C9
100
AcDbEntity
  8
ASSI
100
AcDbLine
 62
253
  6
CONTINUOUS
 10
231.8708599268
 20
145.1504692993
 11
231.8652889722
 21
144.9927034284
  0
LINE
  5
3CA
100
AcDbEntity
  8
0
100
AcDbLine
 62
253
  6
CONTINUOUS
 10
231.9081928585
 20
145.1489579764
 11
231.9026034902
 21
144.9911922567
  0
LINE
  5
3CB
100
AcDbEntity
  8
ASSI
100
AcDbLine
 62
253
  6
CONTINUOUS
 10
231.9081928585
 20
145.1489579764
 11
231.9026034902
 21
144.9911922567
  0
LINE
  5
3CC
100
AcDbEntity
  8
0
100
AcDbLine
 62
253
  6
CONTINUOUS
 10
231.8652889722
 20
144.9927034284
 11
231.8570586353
 21
144.7796944035
  0
LINE
  5
3CD
100
AcDbEntity
  8
ASSI
100
AcDbLine
 62
253
  6
CONTINUOUS
 10
231.8652889722
 20
144.9927034284
 11
231.8570586353
 21
144.7796944035
  0
LINE
  5
3CE
100
AcDbEntity
  8
0
100
AcDbLine
 62
253
  6
CONTINUOUS
 10
231.9026034902
 20
144.9911922567
 11
231.8943460544
 21
144.7781837371
  0
LINE
  5
3CF
100
AcDbEntity
  8
ASSI
100
AcDbLine
 62
253
  6
CONTINUOUS
 10
231.9026034902
 20
144.9911922567
 11
231.8943460544
 21
144.7781837371
  0
LINE
  5
3D0
100
AcDbEntity
  8
0
100
AcDbLine
 62
253
  6
CONTINUOUS
 10
231.8773022611
 20
145.3362868981
 11
231.8726304254
 21
145.220677542
  0
LINE
  5
3D1
100
AcDbEntity
  8
ASSI
100
AcDbLine
 62
253
  6
CONTINUOUS
 10
231.8773022611
 20
145.3362868981
 11
231.8726304254
 21
145.220677542
  0
LINE
  5
3D2
100
AcDbEntity
  8
SCRITTA
100
AcDbLine
 62
253
  6
CONTINUOUS
 10
221.9440218288
 20
70.4349495057
 11
222.2350078288
 21
71.4739555057
  0
LINE
  5
3D3
100
AcDbEntity
  8
SCRITTA
100
AcDbLine
 62
253
  6
CONTINUOUS
 10
221.6632178288
 20
69.4435395057
 11
221.8244778288
 21
70.0024595057
  0
LINE
  5
3D4
100
AcDbEntity
  8
SCRITTA
100
AcDbLine
 62
253
  6
CONTINUOUS
 10
221.9633158288
 20
72.2432425057
 11
221.0851508288
 21
69.4435395057
  0
LINE
  5
3D5
100
AcDbEntity
  8
SCRITTA
100
AcDbLine
 62
253
  6
CONTINUOUS
 10
220.1533648288
 20
72.2432425057
 11
219.5689568288
 21
70.6888385057
  0
LINE
  5
3D6
100
AcDbEntity
  8
SCRITTA
100
AcDbLine
 62
253
  6
CONTINUOUS
 10
219.6067468288
 20
69.4435395057
 11
220.3016078288
 21
71.2640715057
  0
LWPOLYLINE
  5
3D7
100
AcDbEntity
  8
0
100
AcDbPolyline
 62
253
  6
CONTINUOUS
 90
10
 70
0
 10
232.0652503925
 20
120.6299641644
 10
232.0617882241
 20
120.6681088705
 10
232.0561414867
 20
120.7065152921
 10
232.0482393622
 20
120.745048466
 10
232.0379565301
 20
120.7837250146
 10
232.0252600182
 20
120.8222149754
 10
232.0103227225
 20
120.8598898118
 10
231.9932802349
 20
120.8964768554
 10
231.9741189853
 20
120.9320111914
 10
231.952889358
 20
120.9663668007
  0
LWPOLYLINE
  5
3D8
100
AcDbEntity
  8
ASSI
100
AcDbPolyline
 62
253
  6
CONTINUOUS
 90
10
 70
0
 10
232.0652503925
 20
120.6299641644
 10
232.0617882241
 20
120.6681088705
 10
232.0561414867
 20
120.7065152921
 10
232.0482393622
 20
120.745048466
 10
232.0379565301
 20
120.7837250146
 10
232.0252600182
 20
120.8222149754
 10
232.0103227225
 20
120.8598898118
 10
231.9932802349
 20
120.8964768554
 10
231.9741189853
 20
120.9320111914
 10
231.952889358
 20
120.9663668007
  0
LWPOLYLINE
  5
3D9
100
AcDbEntity
  8
0
100
AcDbPolyline
 62
253
  6
CONTINUOUS
 90
16
 70
0
 10
232.3281247406
 20
120.6381961285
 10
232.3248057472
 20
120.6950338574
 10
232.3177548028
 20
120.7519538424
 10
232.3069719555
 20
120.8089560816
 10
232.2923886088
 20
120.8665466414
 10
232.274073455
 20
120.9242194461
 10
232.2522324708
 20
120.9804563039
 10
232.2268186202
 20
121.0349837126
 10
232.1978790175
 20
121.0880752193
 10
232.1657608509
 20
121.1390332395
 10
232.1303850308
 20
121.1878437814
 10
232.091830692
 20
121.2345208944
 10
232.0506823366
 20
121.2784090732
 10
232.0071347948
 20
121.3192898413
 10
231.9609932354
 20
121.3573817417
 10
231.9122576524
 20
121.3926848034
  0
LWPOLYLINE
  5
3DA
100
AcDbEntity
  8
ASSI
100
AcDbPolyline
 62
253
  6
CONTINUOUS
 90
16
 70
0
 10
232.3281247406
 20
120.6381961285
 10
232.3248057472
 20
120.6950338574
 10
232.3177548028
 20
120.7519538424
 10
232.3069719555
 20
120.8089560816
 10
232.2923886088
 20
120.8665466414
 10
232.274073455
 20
120.9242194461
 10
232.2522324708
 20
120.9804563039
 10
232.2268186202
 20
121.0349837126
 10
232.1978790175
 20
121.0880752193
 10
232.1657608509
 20
121.1390332395
 10
232.1303850308
 20
121.1878437814
 10
232.091830692
 20
121.2345208944
 10
232.0506823366
 20
121.2784090732
 10
232.0071347948
 20
121.3192898413
 10
231.9609932354
 20
121.3573817417
 10
231.9122576524
 20
121.3926848034
  0
LWPOLYLINE
  5
3DB
100
AcDbEntity
  8
0
100
AcDbPolyline
 62
7
  6
CONTINUOUS
 90
22
 70
0
 10
231.7892708284
 20
120.6213441987
 10
231.7883721043
 20
120.649873233
 10
231.7852978464
 20
120.6783383305
 10
231.7800480614
 20
120.7067394917
 10
231.772623664
 20
120.7353033558
 10
231.7630237526
 20
120.7638032831
 10
231.7512456103
 20
120.7915593609
 10
231.7371903637
 20
120.8185707023
 10
231.7209568985
 20
120.844838205
 10
231.7028391346
 20
120.8696846436
 10
231.6827657267
 20
120.8930458106
 10
231.6608080265
 20
120.9149859323
 10
231.6374739963
 20
120.9350204399
 10
231.6127415397
 20
120.9530671088
 10
231.5866327514
 20
120.9692081837
 10
231.5597218753
 20
120.9832058025
 10
231.5319516969
 20
120.9949941299
 10
231.5033794219
 20
121.0046390163
 10
231.4747509232
 20
121.0121001274
 10
231.4463148204
 20
121.0173640207
 10
231.4178224814
 20
121.0204441462
 10
231.3892738995
 20
121.0213405057
  0
LWPOLYLINE
  5
3DC
100
AcDbEntity
  8
ASSI
100
AcDbPolyline
 62
7
  6
CONTINUOUS
 90
22
 70
0
 10
231.7892708284
 20
120.6213441987
 10
231.7883721043
 20
120.649873233
 10
231.7852978464
 20
120.6783383305
 10
231.7800480614
 20
120.7067394917
 10
231.772623664
 20
120.7353033558
 10
231.7630237526
 20
120.7638032831
 10
231.7512456103
 20
120.7915593609
 10
231.7371903637
 20
120.8185707023
 10
231.7209568985
 20
120.844838205
 10
231.7028391346
 20
120.8696846436
 10
231.6827657267
 20
120.8930458106
 10
231.6608080265
 20
120.9149859323
 10
231.6374739963
 20
120.9350204399
 10
231.6127415397
 20
120.9530671088
 10
231.5866327514
 20
120.9692081837
 10
231.5597218753
 20
120.9832058025
 10
231.5319516969
 20
120.9949941299
 10
231.5033794219
 20
121.0046390163
 10
231.4747509232
 20
121.0121001274
 10
231.4463148204
 20
121.0173640207
 10
231.4178224814
 20
121.0204441462
 10
231.3892738995
 20
121.0213405057
  0
LINE
  5
3DD
100
AcDbEntity
  8
0
100
AcDbLine
 62
253
  6
CONTINUOUS
 10
231.3893187324
 20
75.363720054
 11
231.3925723295
 21
75.1529764277
  0
LINE
  5
3DE
100
AcDbEntity
  8
ASSI
100
AcDbLine
 62
253
  6
CONTINUOUS
 10
231.3893187324
 20
75.363720054
 11
231.3925723295
 21
75.1529764277
  0
LINE
  5
3DF
100
AcDbEntity
  8
0
100
AcDbLine
 62
253
  6
CONTINUOUS
 10
231.3925723295
 20
75.1529764277
 11
231.3933939838
 21
75.0873221162
  0
LINE
  5
3E0
100
AcDbEntity
  8
ASSI
100
AcDbLine
 62
253
  6
CONTINUOUS
 10
231.3925723295
 20
75.1529764277
 11
231.3933939838
 21
75.0873221162
  0
LWPOLYLINE
  5
3E1
100
AcDbEntity
  8
0
100
AcDbPolyline
 62
253
  6
CONTINUOUS
 90
5
 70
0
 10
231.8726304254
 20
51.4220034698
 10
231.8726100963
 20
51.4280558641
 10
231.8724206078
 20
51.4382040409
 10
231.8720635382
 20
51.4523634553
 10
231.8708599268
 20
51.4922117124
  0
LWPOLYLINE
  5
3E2
100
AcDbEntity
  8
ASSI
100
AcDbPolyline
 62
253
  6
CONTINUOUS
 90
5
 70
0
 10
231.8726304254
 20
51.4220034698
 10
231.8726100963
 20
51.4280558641
 10
231.8724206078
 20
51.4382040409
 10
231.8720635382
 20
51.4523634553
 10
231.8708599268
 20
51.4922117124
  0
LWPOLYLINE
  5
3E3
100
AcDbEntity
  8
0
100
AcDbPolyline
 62
253
  6
CONTINUOUS
 90
5
 70
0
 10
231.90996931
 20
51.4235146748
 10
231.9099488864
 20
51.4295671102
 10
231.9097587475
 20
51.4397153199
 10
231.9094004774
 20
51.4538747586
 10
231.9081928586
 20
51.4937230354
  0
LWPOLYLINE
  5
3E4
100
AcDbEntity
  8
ASSI
100
AcDbPolyline
 62
253
  6
CONTINUOUS
 90
5
 70
0
 10
231.90996931
 20
51.4235146748
 10
231.9099488864
 20
51.4295671102
 10
231.9097587475
 20
51.4397153199
 10
231.9094004774
 20
51.4538747586
 10
231.9081928586
 20
51.4937230354
  0
LINE
  5
3E5
100
AcDbEntity
  8
0
100
AcDbLine
 62
253
  6
CONTINUOUS
 10
231.8943460544
 20
144.7781837372
 11
231.9122576524
 21
121.3926848034
  0
LINE
  5
3E6
100
AcDbEntity
  8
ASSI
100
AcDbLine
 62
253
  6
CONTINUOUS
 10
231.8943460544
 20
144.7781837372
 11
231.9122576524
 21
121.3926848034
  0
LINE
  5
3E7
100
AcDbEntity
  8
0
100
AcDbLine
 62
7
  6
CONTINUOUS
 10
231.7892708284
 20
76.0213365719
 11
231.7892708284
 21
120.6213441987
  0
LINE
  5
3E8
100
AcDbEntity
  8
ASSI
100
AcDbLine
 62
7
  6
CONTINUOUS
 10
231.7892708284
 20
76.0213365719
 11
231.7892708284
 21
120.6213441987
  0
LINE
  5
3E9
100
AcDbEntity
  8
0
100
AcDbLine
 62
253
  6
CONTINUOUS
 10
231.8374953746
 20
120.6212063234
 11
231.8374953739
 21
76.0214744699
  0
LINE
  5
3EA
100
AcDbEntity
  8
ASSI
100
AcDbLine
 62
253
  6
CONTINUOUS
 10
231.8374953746
 20
120.6212063234
 11
231.8374953739
 21
76.0214744699
  0
LINE
  5
3EB
100
AcDbEntity
  8
0
100
AcDbLine
 62
253
  6
CONTINUOUS
 10
232.0500205209
 20
120.629442822
 11
232.0500205206
 21
76.0133184195
  0
LINE
  5
3EC
100
AcDbEntity
  8
ASSI
100
AcDbLine
 62
253
  6
CONTINUOUS
 10
232.0500205209
 20
120.629442822
 11
232.0500205206
 21
76.0133184195
  0
LINE
  5
3ED
100
AcDbEntity
  8
0
100
AcDbLine
 62
253
  6
CONTINUOUS
 10
232.0653777705
 20
76.0127116056
 11
232.0653777705
 21
120.6299685288
  0
LINE
  5
3EE
100
AcDbEntity
  8
ASSI
100
AcDbLine
 62
253
  6
CONTINUOUS
 10
232.0653777705
 20
76.0127116056
 11
232.0653777705
 21
120.6299685288
  0
LINE
  5
3EF
100
AcDbEntity
  8
0
100
AcDbLine
 62
253
  6
CONTINUOUS
 10
232.3281247406
 20
76.004484883
 11
232.3281247406
 21
120.6381961285
  0
LINE
  5
3F0
100
AcDbEntity
  8
ASSI
100
AcDbLine
 62
253
  6
CONTINUOUS
 10
232.3281247406
 20
76.004484883
 11
232.3281247406
 21
120.6381961285
  0
LINE
  5
3F1
100
AcDbEntity
  8
0
100
AcDbLine
 62
253
  6
CONTINUOUS
 10
231.3892704598
 20
121.2789570507
 11
231.3892708288
 21
121.0213405057
  0
LINE
  5
3F2
100
AcDbEntity
  8
ASSI
100
AcDbLine
 62
253
  6
CONTINUOUS
 10
231.3892704598
 20
121.2789570507
 11
231.3892708288
 21
121.0213405057
  0
LINE
  5
3F3
100
AcDbEntity
  8
0
100
AcDbLine
 62
253
  6
CONTINUOUS
 10
231.9122576524
 20
75.2499962081
 11
231.9059261818
 21
64.4924002382
  0
LINE
  5
3F4
100
AcDbEntity
  8
ASSI
100
AcDbLine
 62
253
  6
CONTINUOUS
 10
231.9122576524
 20
75.2499962081
 11
231.9059261818
 21
64.4924002382
  0
LWPOLYLINE
  5
3F5
100
AcDbEntity
  8
0
100
AcDbPolyline
 62
253
  6
CONTINUOUS
 90
3
 70
0
 10
231.9059261818
 20
64.4924002382
 10
231.897018718
 20
54.3863904781
 10
231.8943460544
 20
51.8644972743
  0
LWPOLYLINE
  5
3F6
100
AcDbEntity
  8
ASSI
100
AcDbPolyline
 62
253
  6
CONTINUOUS
 90
3
 70
0
 10
231.9059261818
 20
64.4924002382
 10
231.897018718
 20
54.3863904781
 10
231.8943460544
 20
51.8644972743
  0
LINE
  5
3F7
100
AcDbEntity
  8
0
100
AcDbLine
 62
253
  6
CONTINUOUS
 10
231.3892708288
 20
75.6213405057
 11
231.3892709323
 21
75.3636277027
  0
LINE
  5
3F8
100
AcDbEntity
  8
ASSI
100
AcDbLine
 62
253
  6
CONTINUOUS
 10
231.3892708288
 20
75.6213405057
 11
231.3892709323
 21
75.3636277027
  0
LWPOLYLINE
  5
3F9
100
AcDbEntity
  8
0
100
AcDbPolyline
 62
253
  6
CONTINUOUS
 90
3
 70
0
 10
231.8726304254
 20
145.220677542
 10
231.8726100963
 20
145.2146251476
 10
231.8724206078
 20
145.2044769709
  0
LWPOLYLINE
  5
3FA
100
AcDbEntity
  8
ASSI
100
AcDbPolyline
 62
253
  6
CONTINUOUS
 90
3
 70
0
 10
231.8726304254
 20
145.220677542
 10
231.8726100963
 20
145.2146251476
 10
231.8724206078
 20
145.2044769709
  0
LWPOLYLINE
  5
3FB
100
AcDbEntity
  8
0
100
AcDbPolyline
 62
253
  6
CONTINUOUS
 90
3
 70
0
 10
231.90996931
 20
145.2191663373
 10
231.9099488863
 20
145.2131139018
 10
231.9097587474
 20
145.202965692
  0
LWPOLYLINE
  5
3FC
100
AcDbEntity
  8
ASSI
100
AcDbPolyline
 62
253
  6
CONTINUOUS
 90
3
 70
0
 10
231.90996931
 20
145.2191663373
 10
231.9099488863
 20
145.2131139018
 10
231.9097587474
 20
145.202965692
  0
LINE
  5
3FD
100
AcDbEntity
  8
0
100
AcDbLine
 62
253
  6
CONTINUOUS
 10
231.3902639581
 20
121.3333992235
 11
231.3933939641
 21
121.5553587945
  0
LINE
  5
3FE
100
AcDbEntity
  8
ASSI
100
AcDbLine
 62
253
  6
CONTINUOUS
 10
231.3902639581
 20
121.3333992235
 11
231.3933939641
 21
121.5553587945
  0
LINE
  5
3FF
100
AcDbEntity
  8
0
100
AcDbLine
 62
253
  6
CONTINUOUS
 10
231.38932039
 20
121.2790530086
 11
231.3902639581
 21
121.3333992235
  0
LINE
  5
400
100
AcDbEntity
  8
ASSI
100
AcDbLine
 62
253
  6
CONTINUOUS
 10
231.38932039
 20
121.2790530086
 11
231.3902639581
 21
121.3333992235
  0
LWPOLYLINE
  5
401
100
AcDbEntity
  8
0
100
AcDbPolyline
 62
253
  6
CONTINUOUS
 90
3
 70
0
 10
231.8724206078
 20
145.2044769709
 10
231.8715418626
 20
145.1722648668
 10
231.8708599268
 20
145.1504692993
  0
LWPOLYLINE
  5
402
100
AcDbEntity
  8
ASSI
100
AcDbPolyline
 62
253
  6
CONTINUOUS
 90
3
 70
0
 10
231.8724206078
 20
145.2044769709
 10
231.8715418626
 20
145.1722648668
 10
231.8708599268
 20
145.1504692993
  0
LWPOLYLINE
  5
403
100
AcDbEntity
  8
0
100
AcDbPolyline
 62
253
  6
CONTINUOUS
 90
3
 70
0
 10
231.9097587474
 20
145.202965692
 10
231.9088770608
 20
145.1707535488
 10
231.9081928585
 20
145.1489579764
  0
LWPOLYLINE
  5
404
100
AcDbEntity
  8
ASSI
100
AcDbPolyline
 62
253
  6
CONTINUOUS
 90
3
 70
0
 10
231.9097587474
 20
145.202965692
 10
231.9088770608
 20
145.1707535488
 10
231.9081928585
 20
145.1489579764
  0
LWPOLYLINE
  5
405
100
AcDbEntity
  8
0
100
AcDbPolyline
 62
253
  6
CONTINUOUS
 90
25
 70
0
 10
231.8375004386
 20
76.0214744846
 10
231.836593548
 20
75.9928796236
 10
231.8338612164
 20
75.9643756803
 10
231.8293126564
 20
75.9360805464
 10
231.822956515
 20
75.9081083875
 10
231.8148134815
 20
75.8805772963
 10
231.8049191815
 20
75.8536083816
 10
231.7933091721
 20
75.8273143524
 10
231.7800212237
 20
75.8018002481
 10
231.765116187
 20
75.7771751303
 10
231.7486623549
 20
75.7535508244
 10
231.7307251055
 20
75.7310338401
 10
231.7113719763
 20
75.709713351
 10
231.6906704916
 20
75.6896614768
 10
231.6687117764
 20
75.6709735688
 10
231.6456134203
 20
75.6537531007
 10
231.6216269156
 20
75.6381534346
 10
231.5967228273
 20
75.6241272188
 10
231.5705704348
 20
75.6115406894
 10
231.5431769532
 20
75.6005011057
 10
231.5146944534
 20
75.59116472
 10
231.4849661553
 20
75.5836029799
 10
231.4540086629
 20
75.5779826218
 10
231.4220341752
 20
75.5744946671
 10
231.3891924245
 20
75.5733076078
  0
LWPOLYLINE
  5
406
100
AcDbEntity
  8
ASSI
100
AcDbPolyline
 62
253
  6
CONTINUOUS
 90
25
 70
0
 10
231.8375004386
 20
76.0214744846
 10
231.836593548
 20
75.9928796236
 10
231.8338612164
 20
75.9643756803
 10
231.8293126564
 20
75.9360805464
 10
231.822956515
 20
75.9081083875
 10
231.8148134815
 20
75.8805772963
 10
231.8049191815
 20
75.8536083816
 10
231.7933091721
 20
75.8273143524
 10
231.7800212237
 20
75.8018002481
 10
231.765116187
 20
75.7771751303
 10
231.7486623549
 20
75.7535508244
 10
231.7307251055
 20
75.7310338401
 10
231.7113719763
 20
75.709713351
 10
231.6906704916
 20
75.6896614768
 10
231.6687117764
 20
75.6709735688
 10
231.6456134203
 20
75.6537531007
 10
231.6216269156
 20
75.6381534346
 10
231.5967228273
 20
75.6241272188
 10
231.5705704348
 20
75.6115406894
 10
231.5431769532
 20
75.6005011057
 10
231.5146944534
 20
75.59116472
 10
231.4849661553
 20
75.5836029799
 10
231.4540086629
 20
75.5779826218
 10
231.4220341752
 20
75.5744946671
 10
231.3891924245
 20
75.5733076078
  0
LWPOLYLINE
  5
407
100
AcDbEntity
  8
0
100
AcDbPolyline
 62
253
  6
CONTINUOUS
 90
10
 70
0
 10
232.0500940636
 20
76.0133156701
 10
232.0484053883
 20
75.9735877683
 10
232.0443313938
 20
75.9340329998
 10
232.0378925644
 20
75.8947930561
 10
232.0291120489
 20
75.8560104425
 10
232.0180095586
 20
75.8178272887
 10
232.0046194137
 20
75.7803800907
 10
231.9889946918
 20
75.7438021452
 10
231.9711942937
 20
75.7082268735
 10
231.9512751553
 20
75.6737882748
  0
LWPOLYLINE
  5
408
100
AcDbEntity
  8
ASSI
100
AcDbPolyline
 62
253
  6
CONTINUOUS
 90
10
 70
0
 10
232.0500940636
 20
76.0133156701
 10
232.0484053883
 20
75.9735877683
 10
232.0443313938
 20
75.9340329998
 10
232.0378925644
 20
75.8947930561
 10
232.0291120489
 20
75.8560104425
 10
232.0180095586
 20
75.8178272887
 10
232.0046194137
 20
75.7803800907
 10
231.9889946918
 20
75.7438021452
 10
231.9711942937
 20
75.7082268735
 10
231.9512751553
 20
75.6737882748
  0
LINE
  5
409
100
AcDbEntity
  8
0
100
AcDbLine
 62
253
  6
CONTINUOUS
 10
266.3710158381
 20
121.9407605057
 11
266.2584466812
 21
121.9300774474
  0
LINE
  5
40A
100
AcDbEntity
  8
ASSI
100
AcDbLine
 62
253
  6
CONTINUOUS
 10
266.3710158381
 20
121.9407605057
 11
266.2584466812
 21
121.9300774474
  0
LINE
  5
40B
100
AcDbEntity
  8
0
100
AcDbLine
 62
253
  6
CONTINUOUS
 10
265.8890384327
 20
121.9129568439
 11
265.7967445182
 21
121.9048315436
  0
LINE
  5
40C
100
AcDbEntity
  8
ASSI
100
AcDbLine
 62
253
  6
CONTINUOUS
 10
265.8890384327
 20
121.9129568439
 11
265.7967445182
 21
121.9048315436
  0
LINE
  5
40D
100
AcDbEntity
  8
0
100
AcDbLine
 62
253
  6
CONTINUOUS
 10
174.5016676588
 20
121.9199627453
 11
174.5895032311
 21
121.9129568426
  0
LINE
  5
40E
100
AcDbEntity
  8
ASSI
100
AcDbLine
 62
253
  6
CONTINUOUS
 10
174.5016676588
 20
121.9199627453
 11
174.5895032311
 21
121.9129568426
  0
LWPOLYLINE
  5
40F
100
AcDbEntity
  8
0
100
AcDbPolyline
 62
253
  6
CONTINUOUS
 90
3
 70
0
 10
174.5559223046
 20
122.033184394
 10
174.6463820079
 20
122.0255469716
 10
174.6928821949
 20
122.0213405057
  0
LWPOLYLINE
  5
410
100
AcDbEntity
  8
ASSI
100
AcDbPolyline
 62
253
  6
CONTINUOUS
 90
3
 70
0
 10
174.5559223046
 20
122.033184394
 10
174.6463820079
 20
122.0255469716
 10
174.6928821949
 20
122.0213405057
  0
LINE
  5
411
100
AcDbEntity
  8
0
100
AcDbLine
 62
253
  6
CONTINUOUS
 10
174.5895032311
 20
121.9129568426
 11
174.6817971388
 21
121.904831544
  0
LINE
  5
412
100
AcDbEntity
  8
ASSI
100
AcDbLine
 62
253
  6
CONTINUOUS
 10
174.5895032311
 20
121.9129568426
 11
174.6817971388
 21
121.904831544
  0
LINE
  5
413
100
AcDbEntity
  8
0
100
AcDbLine
 62
253
  6
CONTINUOUS
 10
174.1075258195
 20
121.9407605057
 11
174.2200949763
 21
121.9300774474
  0
LINE
  5
414
100
AcDbEntity
  8
ASSI
100
AcDbLine
 62
253
  6
CONTINUOUS
 10
174.1075258195
 20
121.9407605057
 11
174.2200949763
 21
121.9300774474
  0
LINE
  5
415
100
AcDbEntity
  8
0
100
AcDbLine
 62
253
  6
CONTINUOUS
 10
246.1288833768
 20
52.2364332517
 11
246.1182439316
 21
52.3516540911
  0
LINE
  5
416
100
AcDbEntity
  8
ASSI
100
AcDbLine
 62
253
  6
CONTINUOUS
 10
246.1288833768
 20
52.2364332517
 11
246.1182439316
 21
52.3516540911
  0
LINE
  5
417
100
AcDbEntity
  8
0
100
AcDbLine
 62
253
  6
CONTINUOUS
 10
246.0970169138
 20
52.7033161784
 11
246.0894403751
 21
52.7922912084
  0
LINE
  5
418
100
AcDbEntity
  8
ASSI
100
AcDbLine
 62
253
  6
CONTINUOUS
 10
246.0970169138
 20
52.7033161784
 11
246.0894403751
 21
52.7922912084
  0
LINE
  5
419
100
AcDbEntity
  8
0
100
AcDbLine
 62
253
  6
CONTINUOUS
 10
246.1037764865
 20
52.6191432284
 11
246.0970169138
 21
52.7033161784
  0
LINE
  5
41A
100
AcDbEntity
  8
ASSI
100
AcDbLine
 62
253
  6
CONTINUOUS
 10
246.1037764865
 20
52.6191432284
 11
246.0970169138
 21
52.7033161784
  0
LINE
  5
41B
100
AcDbEntity
  8
0
100
AcDbLine
 62
253
  6
CONTINUOUS
 10
246.109494187
 20
52.5425729814
 11
246.1037764865
 21
52.6191432284
  0
LINE
  5
41C
100
AcDbEntity
  8
ASSI
100
AcDbLine
 62
253
  6
CONTINUOUS
 10
246.109494187
 20
52.5425729814
 11
246.1037764865
 21
52.6191432284
  0
LINE
  5
41D
100
AcDbEntity
  8
0
100
AcDbLine
 62
253
  6
CONTINUOUS
 10
246.1139797743
 20
144.1665279096
 11
246.1094941868
 21
144.1001080298
  0
LINE
  5
41E
100
AcDbEntity
  8
ASSI
100
AcDbLine
 62
253
  6
CONTINUOUS
 10
246.1139797743
 20
144.1665279096
 11
246.1094941868
 21
144.1001080298
  0
LINE
  5
41F
100
AcDbEntity
  8
0
100
AcDbLine
 62
253
  6
CONTINUOUS
 10
246.1094941868
 20
144.1001080298
 11
246.1037764863
 21
144.023537783
  0
LINE
  5
420
100
AcDbEntity
  8
ASSI
100
AcDbLine
 62
253
  6
CONTINUOUS
 10
246.1094941868
 20
144.1001080298
 11
246.1037764863
 21
144.023537783
  0
LINE
  5
421
100
AcDbEntity
  8
0
100
AcDbLine
 62
253
  6
CONTINUOUS
 10
246.1037764863
 20
144.023537783
 11
246.0970169137
 21
143.9393648331
  0
LINE
  5
422
100
AcDbEntity
  8
ASSI
100
AcDbLine
 62
253
  6
CONTINUOUS
 10
246.1037764863
 20
144.023537783
 11
246.0970169137
 21
143.9393648331
  0
LINE
  5
423
100
AcDbEntity
  8
0
100
AcDbLine
 62
253
  6
CONTINUOUS
 10
246.0970169137
 20
143.9393648331
 11
246.0894403751
 21
143.8503898031
  0
LINE
  5
424
100
AcDbEntity
  8
ASSI
100
AcDbLine
 62
253
  6
CONTINUOUS
 10
246.0970169137
 20
143.9393648331
 11
246.0894403751
 21
143.8503898031
  0
LINE
  5
425
100
AcDbEntity
  8
0
100
AcDbLine
 62
253
  6
CONTINUOUS
 10
246.1288833768
 20
144.4062477598
 11
246.1182440365
 21
144.2910269107
  0
LINE
  5
426
100
AcDbEntity
  8
ASSI
100
AcDbLine
 62
253
  6
CONTINUOUS
 10
246.1288833768
 20
144.4062477598
 11
246.1182440365
 21
144.2910269107
  0
LINE
  5
427
100
AcDbEntity
  8
0
100
AcDbLine
 62
253
  6
CONTINUOUS
 10
251.0829175512
 20
143.4307339394
 11
251.0714639849
 21
143.3471359022
  0
LINE
  5
428
100
AcDbEntity
  8
ASSI
100
AcDbLine
 62
253
  6
CONTINUOUS
 10
251.0829175512
 20
143.4307339394
 11
251.0714639849
 21
143.3471359022
  0
LINE
  5
429
100
AcDbEntity
  8
0
100
AcDbLine
 62
253
  6
CONTINUOUS
 10
251.0714639849
 20
143.3471359022
 11
251.0588859983
 21
143.2587903791
  0
LINE
  5
42A
100
AcDbEntity
  8
ASSI
100
AcDbLine
 62
253
  6
CONTINUOUS
 10
251.0714639849
 20
143.3471359022
 11
251.0588859983
 21
143.2587903791
  0
LINE
  5
42B
100
AcDbEntity
  8
0
100
AcDbLine
 62
253
  6
CONTINUOUS
 10
251.1288833768
 20
143.8113405057
 11
251.1115815248
 21
143.6968736204
  0
LINE
  5
42C
100
AcDbEntity
  8
ASSI
100
AcDbLine
 62
253
  6
CONTINUOUS
 10
251.1288833768
 20
143.8113405057
 11
251.1115815248
 21
143.6968736204
  0
LWPOLYLINE
  5
42D
100
AcDbEntity
  8
0
100
AcDbPolyline
 62
253
  6
CONTINUOUS
 90
10
 70
0
 10
231.9512751553
 20
75.6737882748
 10
231.9740299098
 20
75.7104455773
 10
231.9941585537
 20
75.7479215824
 10
232.0116998477
 20
75.7860098621
 10
232.0267671512
 20
75.8246807714
 10
232.0393188804
 20
75.8636057971
 10
232.0492742565
 20
75.9021044894
 10
232.0567679909
 20
75.939812201
 10
232.062035372
 20
75.9767300662
 10
232.0652503808
 20
76.0127166513
  0
LWPOLYLINE
  5
42E
100
AcDbEntity
  8
ASSI
100
AcDbPolyline
 62
253
  6
CONTINUOUS
 90
10
 70
0
 10
231.9512751553
 20
75.6737882748
 10
231.9740299098
 20
75.7104455773
 10
231.9941585537
 20
75.7479215824
 10
232.0116998477
 20
75.7860098621
 10
232.0267671512
 20
75.8246807714
 10
232.0393188804
 20
75.8636057971
 10
232.0492742565
 20
75.9021044894
 10
232.0567679909
 20
75.939812201
 10
232.062035372
 20
75.9767300662
 10
232.0652503808
 20
76.0127166513
  0
LWPOLYLINE
  5
42F
100
AcDbEntity
  8
0
100
AcDbPolyline
 62
253
  6
CONTINUOUS
 90
10
 70
0
 10
208.6410462722
 20
120.6212279401
 10
208.637662618
 20
120.6205086476
 10
208.6314630461
 20
120.6202535408
 10
208.6224745786
 20
120.6204532619
 10
208.6107390803
 20
120.6212456567
 10
208.5963162361
 20
120.6224744991
 10
208.5792857353
 20
120.6236894856
 10
208.5597413136
 20
120.6247293664
 10
208.5377884463
 20
120.6257382644
 10
208.4871574807
 20
120.6276854783
  0
LWPOLYLINE
  5
430
100
AcDbEntity
  8
ASSI
100
AcDbPolyline
 62
253
  6
CONTINUOUS
 90
10
 70
0
 10
208.6410462722
 20
120.6212279401
 10
208.637662618
 20
120.6205086476
 10
208.6314630461
 20
120.6202535408
 10
208.6224745786
 20
120.6204532619
 10
208.6107390803
 20
120.6212456567
 10
208.5963162361
 20
120.6224744991
 10
208.5792857353
 20
120.6236894856
 10
208.5597413136
 20
120.6247293664
 10
208.5377884463
 20
120.6257382644
 10
208.4871574807
 20
120.6276854783
  0
LINE
  5
431
100
AcDbEntity
  8
0
100
AcDbLine
 62
253
  6
CONTINUOUS
 10
265.3775866784
 20
129.9724890165
 11
265.265947486
 21
129.9519374629
  0
LINE
  5
432
100
AcDbEntity
  8
ASSI
100
AcDbLine
 62
253
  6
CONTINUOUS
 10
265.3775866784
 20
129.9724890165
 11
265.265947486
 21
129.9519374629
  0
LINE
  5
433
100
AcDbEntity
  8
0
100
AcDbLine
 62
253
  6
CONTINUOUS
 10
265.9553932399
 20
125.9724890165
 11
265.8429376914
 21
125.9594561228
  0
LINE
  5
434
100
AcDbEntity
  8
ASSI
100
AcDbLine
 62
253
  6
CONTINUOUS
 10
265.9553932399
 20
125.9724890165
 11
265.8429376914
 21
125.9594561228
  0
LWPOLYLINE
  5
435
100
AcDbEntity
  8
0
100
AcDbPolyline
 62
253
  6
CONTINUOUS
 90
10
 70
0
 10
209.0851476935
 20
121.5553587945
 10
209.0240618533
 20
121.5526383461
 10
208.9636102484
 20
121.5460254112
 10
208.9037928527
 20
121.5355199823
 10
208.8443104439
 20
121.5210501714
 10
208.7854621968
 20
121.5026878394
 10
208.7281456858
 20
121.4806485977
 10
208.6726600924
 20
121.455004301
 10
208.6187062032
 20
121.4256830462
 10
208.5662840051
 20
121.3926848034
  0
LWPOLYLINE
  5
436
100
AcDbEntity
  8
ASSI
100
AcDbPolyline
 62
253
  6
CONTINUOUS
 90
10
 70
0
 10
209.0851476935
 20
121.5553587945
 10
209.0240618533
 20
121.5526383461
 10
208.9636102484
 20
121.5460254112
 10
208.9037928527
 20
121.5355199823
 10
208.8443104439
 20
121.5210501714
 10
208.7854621968
 20
121.5026878394
 10
208.7281456858
 20
121.4806485977
 10
208.6726600924
 20
121.455004301
 10
208.6187062032
 20
121.4256830462
 10
208.5662840051
 20
121.3926848034
  0
LWPOLYLINE
  5
437
100
AcDbEntity
  8
0
100
AcDbPolyline
 62
253
  6
CONTINUOUS
 90
3
 70
0
 10
232.1186015711
 20
120.6323886791
 10
232.0914384138
 20
120.63121832
 10
232.0653778154
 20
120.6299683365
  0
LWPOLYLINE
  5
438
100
AcDbEntity
  8
ASSI
100
AcDbPolyline
 62
253
  6
CONTINUOUS
 90
3
 70
0
 10
232.1186015711
 20
120.6323886791
 10
232.0914384138
 20
120.63121832
 10
232.0653778154
 20
120.6299683365
  0
LWPOLYLINE
  5
439
100
AcDbEntity
  8
0
100
AcDbPolyline
 62
253
  6
CONTINUOUS
 90
10
 70
0
 10
209.0892708464
 20
121.2789871339
 10
209.0481797456
 20
121.2774986939
 10
209.006619159
 20
121.273390341
 10
208.9648145793
 20
121.2665582209
 10
208.9230305617
 20
121.2568885626
 10
208.8814099786
 20
121.2443476213
 10
208.839997365
 20
121.2289292042
 10
208.7989434355
 20
121.2105613517
 10
208.7585220268
 20
121.1891630341
 10
208.7189788891
 20
121.1646850789
  0
LWPOLYLINE
  5
43A
100
AcDbEntity
  8
ASSI
100
AcDbPolyline
 62
253
  6
CONTINUOUS
 90
10
 70
0
 10
209.0892708464
 20
121.2789871339
 10
209.0481797456
 20
121.2774986939
 10
209.006619159
 20
121.273390341
 10
208.9648145793
 20
121.2665582209
 10
208.9230305617
 20
121.2568885626
 10
208.8814099786
 20
121.2443476213
 10
208.839997365
 20
121.2289292042
 10
208.7989434355
 20
121.2105613517
 10
208.7585220268
 20
121.1891630341
 10
208.7189788891
 20
121.1646850789
  0
LINE
  5
43B
100
AcDbEntity
  8
0
100
AcDbLine
 62
253
  6
CONTINUOUS
 10
232.1757136225
 20
120.634476103
 11
232.1186015711
 21
120.6323886791
  0
LINE
  5
43C
100
AcDbEntity
  8
ASSI
100
AcDbLine
 62
253
  6
CONTINUOUS
 10
232.1757136225
 20
120.634476103
 11
232.1186015711
 21
120.6323886791
  0
LINE
  5
43D
100
AcDbEntity
  8
0
100
AcDbLine
 62
7
  6
CONTINUOUS
 10
232.0500205209
 20
120.629442822
 11
232.0653777705
 21
120.6299685288
  0
LINE
  5
43E
100
AcDbEntity
  8
ASSI
100
AcDbLine
 62
7
  6
CONTINUOUS
 10
232.0500205209
 20
120.629442822
 11
232.0653777705
 21
120.6299685288
  0
LWPOLYLINE
  5
43F
100
AcDbEntity
  8
0
100
AcDbPolyline
 62
7
  6
CONTINUOUS
 90
22
 70
0
 10
209.0892688447
 20
121.0213405057
 10
209.0610488415
 20
121.0204841565
 10
209.0328289544
 20
121.0174633983
 10
209.0046091768
 20
121.0122782295
 10
208.9761546793
 20
121.0049378205
 10
208.9477002792
 20
120.9954329934
 10
208.9199504403
 20
120.9837362219
 10
208.8929023359
 20
120.9697390017
 10
208.8665587834
 20
120.9535498214
 10
208.8416327168
 20
120.9354666439
 10
208.81819897
 20
120.9154201463
 10
208.7961827074
 20
120.8934796315
 10
208.7760723624
 20
120.8701510036
 10
208.7579498893
 20
120.8454117263
 10
208.7417333404
 20
120.8192843177
 10
208.7276652996
 20
120.7923422701
 10
208.7158114626
 20
120.7645317413
 10
208.706106146
 20
120.7359065612
 10
208.6985948667
 20
120.7072017394
 10
208.6932928012
 20
120.6786622812
 10
208.6901847864
 20
120.6500431814
 10
208.6892708292
 20
120.6213444396
  0
LWPOLYLINE
  5
440
100
AcDbEntity
  8
ASSI
100
AcDbPolyline
 62
7
  6
CONTINUOUS
 90
22
 70
0
 10
209.0892688447
 20
121.0213405057
 10
209.0610488415
 20
121.0204841565
 10
209.0328289544
 20
121.0174633983
 10
209.0046091768
 20
121.0122782295
 10
208.9761546793
 20
121.0049378205
 10
208.9477002792
 20
120.9954329934
 10
208.9199504403
 20
120.9837362219
 10
208.8929023359
 20
120.9697390017
 10
208.8665587834
 20
120.9535498214
 10
208.8416327168
 20
120.9354666439
 10
208.81819897
 20
120.9154201463
 10
208.7961827074
 20
120.8934796315
 10
208.7760723624
 20
120.8701510036
 10
208.7579498893
 20
120.8454117263
 10
208.7417333404
 20
120.8192843177
 10
208.7276652996
 20
120.7923422701
 10
208.7158114626
 20
120.7645317413
 10
208.706106146
 20
120.7359065612
 10
208.6985948667
 20
120.7072017394
 10
208.6932928012
 20
120.6786622812
 10
208.6901847864
 20
120.6500431814
 10
208.6892708292
 20
120.6213444396
  0
LINE
  5
441
100
AcDbEntity
  8
0
100
AcDbLine
 62
253
  6
CONTINUOUS
 10
232.2356148713
 20
120.6362165225
 11
232.1757136225
 21
120.634476103
  0
LINE
  5
442
100
AcDbEntity
  8
ASSI
100
AcDbLine
 62
253
  6
CONTINUOUS
 10
232.2356148713
 20
120.6362165225
 11
232.1757136225
 21
120.634476103
  0
LINE
  5
443
100
AcDbEntity
  8
0
100
AcDbLine
 62
253
  6
CONTINUOUS
 10
231.991421992
 20
120.6279154144
 11
232.0500904248
 21
120.6294907576
  0
LINE
  5
444
100
AcDbEntity
  8
ASSI
100
AcDbLine
 62
253
  6
CONTINUOUS
 10
231.991421992
 20
120.6279154144
 11
232.0500904248
 21
120.6294907576
  0
LWPOLYLINE
  5
445
100
AcDbEntity
  8
0
100
AcDbPolyline
 62
253
  6
CONTINUOUS
 90
3
 70
0
 10
232.3281247405
 20
120.6381961282
 10
232.2971276032
 20
120.6376223509
 10
232.2356148713
 20
120.6362165225
  0
LWPOLYLINE
  5
446
100
AcDbEntity
  8
ASSI
100
AcDbPolyline
 62
253
  6
CONTINUOUS
 90
3
 70
0
 10
232.3281247405
 20
120.6381961282
 10
232.2971276032
 20
120.6376223509
 10
232.2356148713
 20
120.6362165225
  0
LINE
  5
447
100
AcDbEntity
  8
0
100
AcDbLine
 62
253
  6
CONTINUOUS
 10
209.5331467246
 20
121.2816827829
 11
209.0892707252
 21
121.2790533088
  0
LINE
  5
448
100
AcDbEntity
  8
ASSI
100
AcDbLine
 62
253
  6
CONTINUOUS
 10
209.5331467246
 20
121.2816827829
 11
209.0892707252
 21
121.2790533088
  0
LINE
  5
449
100
AcDbEntity
  8
0
100
AcDbLine
 62
253
  6
CONTINUOUS
 10
208.6892708288
 20
120.6213405057
 11
208.6410462836
 21
120.6212065935
  0
LINE
  5
44A
100
AcDbEntity
  8
ASSI
100
AcDbLine
 62
253
  6
CONTINUOUS
 10
208.6892708288
 20
120.6213405057
 11
208.6410462836
 21
120.6212065935
  0
LINE
  5
44B
100
AcDbEntity
  8
0
100
AcDbLine
 62
7
  6
CONTINUOUS
 10
231.3892738995
 20
121.0213405057
 11
209.0892688447
 21
121.0213405057
  0
LINE
  5
44C
100
AcDbEntity
  8
ASSI
100
AcDbLine
 62
7
  6
CONTINUOUS
 10
231.3892738995
 20
121.0213405057
 11
209.0892688447
 21
121.0213405057
  0
LINE
  5
44D
100
AcDbEntity
  8
0
100
AcDbLine
 62
253
  6
CONTINUOUS
 10
209.0893492484
 20
121.0693734052
 11
231.3892028166
 21
121.0693734104
  0
LINE
  5
44E
100
AcDbEntity
  8
ASSI
100
AcDbLine
 62
253
  6
CONTINUOUS
 10
209.0893492484
 20
121.0693734052
 11
231.3892028166
 21
121.0693734104
  0
LINE
  5
44F
100
AcDbEntity
  8
0
100
AcDbLine
 62
253
  6
CONTINUOUS
 10
174.6928821949
 20
122.0213405057
 11
265.7856594627
 21
122.0213405057
  0
LINE
  5
450
100
AcDbEntity
  8
ASSI
100
AcDbLine
 62
253
  6
CONTINUOUS
 10
174.6928821949
 20
122.0213405057
 11
265.7856594627
 21
122.0213405057
  0
LINE
  5
451
100
AcDbEntity
  8
0
100
AcDbLine
 62
253
  6
CONTINUOUS
 10
209.5331467246
 20
121.2816827829
 11
230.9453949326
 21
121.2816827829
  0
LINE
  5
452
100
AcDbEntity
  8
ASSI
100
AcDbLine
 62
253
  6
CONTINUOUS
 10
209.5331467246
 20
121.2816827829
 11
230.9453949326
 21
121.2816827829
  0
LINE
  5
453
100
AcDbEntity
  8
0
100
AcDbLine
 62
253
  6
CONTINUOUS
 10
231.7892708288
 20
120.6213405057
 11
231.8374953746
 21
120.6212063234
  0
LINE
  5
454
100
AcDbEntity
  8
ASSI
100
AcDbLine
 62
253
  6
CONTINUOUS
 10
231.7892708288
 20
120.6213405057
 11
231.8374953746
 21
120.6212063234
  0
LINE
  5
455
100
AcDbEntity
  8
0
100
AcDbLine
 62
253
  6
CONTINUOUS
 10
231.3892706348
 20
121.2790533106
 11
230.9453949326
 21
121.2816827829
  0
LINE
  5
456
100
AcDbEntity
  8
ASSI
100
AcDbLine
 62
253
  6
CONTINUOUS
 10
231.3892706348
 20
121.2790533106
 11
230.9453949326
 21
121.2816827829
  0
LWPOLYLINE
  5
457
100
AcDbEntity
  8
0
100
AcDbPolyline
 62
253
  6
CONTINUOUS
 90
10
 70
0
 10
230.9453949326
 20
121.2816827829
 10
228.5662641036
 20
121.3066240154
 10
226.1871293208
 20
121.3253299397
 10
223.8079905842
 20
121.3378005557
 10
221.4288452424
 20
121.3440358633
 10
219.0496959468
 20
121.3440358626
 10
216.6705506518
 20
121.3378005541
 10
214.2914120088
 20
121.3253299381
 10
211.9122773664
 20
121.3066240144
 10
209.5331467246
 20
121.2816827829
  0
LWPOLYLINE
  5
458
100
AcDbEntity
  8
ASSI
100
AcDbPolyline
 62
253
  6
CONTINUOUS
 90
10
 70
0
 10
230.9453949326
 20
121.2816827829
 10
228.5662641036
 20
121.3066240154
 10
226.1871293208
 20
121.3253299397
 10
223.8079905842
 20
121.3378005557
 10
221.4288452424
 20
121.3440358633
 10
219.0496959468
 20
121.3440358626
 10
216.6705506518
 20
121.3378005541
 10
214.2914120088
 20
121.3253299381
 10
211.9122773664
 20
121.3066240144
 10
209.5331467246
 20
121.2816827829
  0
LWPOLYLINE
  5
459
100
AcDbEntity
  8
0
100
AcDbPolyline
 62
253
  6
CONTINUOUS
 90
10
 70
0
 10
231.3933939641
 20
121.5553587945
 10
228.9147220018
 20
121.5824356967
 10
226.43602921
 20
121.6027433284
 10
223.9573239696
 20
121.616281728
 10
221.4786202908
 20
121.6230509209
 10
218.9999209062
 20
121.6230509202
 10
216.5212172734
 20
121.6162817263
 10
214.0425121252
 20
121.6027433268
 10
211.5638194716
 20
121.5824356956
 10
209.0851476935
 20
121.5553587945
  0
LWPOLYLINE
  5
45A
100
AcDbEntity
  8
ASSI
100
AcDbPolyline
 62
253
  6
CONTINUOUS
 90
10
 70
0
 10
231.3933939641
 20
121.5553587945
 10
228.9147220018
 20
121.5824356967
 10
226.43602921
 20
121.6027433284
 10
223.9573239696
 20
121.616281728
 10
221.4786202908
 20
121.6230509209
 10
218.9999209062
 20
121.6230509202
 10
216.5212172734
 20
121.6162817263
 10
214.0425121252
 20
121.6027433268
 10
211.5638194716
 20
121.5824356956
 10
209.0851476935
 20
121.5553587945
  0
LINE
  5
45B
100
AcDbEntity
  8
0
100
AcDbLine
 62
253
  6
CONTINUOUS
 10
208.2429249374
 20
120.6360528167
 11
208.1504169171
 21
120.6381961281
  0
LINE
  5
45C
100
AcDbEntity
  8
ASSI
100
AcDbLine
 62
253
  6
CONTINUOUS
 10
208.2429249374
 20
120.6360528167
 11
208.1504169171
 21
120.6381961281
  0
LINE
  5
45D
100
AcDbEntity
  8
0
100
AcDbLine
 62
253
  6
CONTINUOUS
 10
208.4871574807
 20
120.6276854783
 11
208.4285210975
 21
120.6294884511
  0
LINE
  5
45E
100
AcDbEntity
  8
ASSI
100
AcDbLine
 62
253
  6
CONTINUOUS
 10
208.4871574807
 20
120.6276854783
 11
208.4285210975
 21
120.6294884511
  0
LWPOLYLINE
  5
45F
100
AcDbEntity
  8
0
100
AcDbPolyline
 62
253
  6
CONTINUOUS
 90
25
 70
0
 10
231.3892028166
 20
121.06937341
 10
231.4203708953
 20
121.0683045782
 10
231.4509230018
 20
121.0651364325
 10
231.480724716
 20
121.0599816157
 10
231.5094953593
 20
121.0529962021
 10
231.5372960278
 20
121.0442813364
 10
231.5644954868
 20
121.0337709332
 10
231.5911341815
 20
121.0214208358
 10
231.6169263224
 20
121.0073366456
 10
231.6417292817
 20
120.9916034805
 10
231.6654231782
 20
120.9743028357
 10
231.6879142409
 20
120.9555018379
 10
231.7091168844
 20
120.9352801953
 10
231.7289484873
 20
120.9137226462
 10
231.7473227161
 20
120.890918469
 10
231.76416074
 20
120.8669699168
 10
231.7793975324
 20
120.8419864735
 10
231.7929608983
 20
120.8160900665
 10
231.8047794415
 20
120.7894187912
 10
231.8148331765
 20
120.7620444648
 10
231.8230728868
 20
120.7341261728
 10
231.8294395101
 20
120.7059427012
 10
231.8339416695
 20
120.6776736105
 10
231.8366196436
 20
120.6493886683
 10
231.8375004385
 20
120.6212063086
  0
LWPOLYLINE
  5
460
100
AcDbEntity
  8
ASSI
100
AcDbPolyline
 62
253
  6
CONTINUOUS
 90
25
 70
0
 10
231.3892028166
 20
121.06937341
 10
231.4203708953
 20
121.0683045782
 10
231.4509230018
 20
121.0651364325
 10
231.480724716
 20
121.0599816157
 10
231.5094953593
 20
121.0529962021
 10
231.5372960278
 20
121.0442813364
 10
231.5644954868
 20
121.0337709332
 10
231.5911341815
 20
121.0214208358
 10
231.6169263224
 20
121.0073366456
 10
231.6417292817
 20
120.9916034805
 10
231.6654231782
 20
120.9743028357
 10
231.6879142409
 20
120.9555018379
 10
231.7091168844
 20
120.9352801953
 10
231.7289484873
 20
120.9137226462
 10
231.7473227161
 20
120.890918469
 10
231.76416074
 20
120.8669699168
 10
231.7793975324
 20
120.8419864735
 10
231.7929608983
 20
120.8160900665
 10
231.8047794415
 20
120.7894187912
 10
231.8148331765
 20
120.7620444648
 10
231.8230728868
 20
120.7341261728
 10
231.8294395101
 20
120.7059427012
 10
231.8339416695
 20
120.6776736105
 10
231.8366196436
 20
120.6493886683
 10
231.8375004385
 20
120.6212063086
  0
LINE
  5
461
100
AcDbEntity
  8
0
100
AcDbLine
 62
7
  6
CONTINUOUS
 10
208.4285211369
 20
120.629362244
 11
208.4131638871
 21
120.6299562195
  0
LINE
  5
462
100
AcDbEntity
  8
ASSI
100
AcDbLine
 62
7
  6
CONTINUOUS
 10
208.4285211369
 20
120.629362244
 11
208.4131638871
 21
120.6299562195
  0
LWPOLYLINE
  5
463
100
AcDbEntity
  8
0
100
AcDbPolyline
 62
253
  6
CONTINUOUS
 90
6
 70
0
 10
208.4131638339
 20
120.629968336
 10
208.3871033337
 20
120.6311971445
 10
208.3599401301
 20
120.6323438867
 10
208.3318042485
 20
120.6334053834
 10
208.3028273114
 20
120.6343664308
 10
208.2429249374
 20
120.6360528167
  0
LWPOLYLINE
  5
464
100
AcDbEntity
  8
ASSI
100
AcDbPolyline
 62
253
  6
CONTINUOUS
 90
6
 70
0
 10
208.4131638339
 20
120.629968336
 10
208.3871033337
 20
120.6311971445
 10
208.3599401301
 20
120.6323438867
 10
208.3318042485
 20
120.6334053834
 10
208.3028273114
 20
120.6343664308
 10
208.2429249374
 20
120.6360528167
  0
LINE
  5
465
100
AcDbEntity
  8
0
100
AcDbLine
 62
253
  6
CONTINUOUS
 10
174.5231484176
 20
125.9724890165
 11
174.6356039604
 21
125.9594560559
  0
LINE
  5
466
100
AcDbEntity
  8
ASSI
100
AcDbLine
 62
253
  6
CONTINUOUS
 10
174.5231484176
 20
125.9724890165
 11
174.6356039604
 21
125.9594560559
  0
LINE
  5
467
100
AcDbEntity
  8
0
100
AcDbLine
 62
253
  6
CONTINUOUS
 10
175.1009549791
 20
129.9724890165
 11
175.2125940131
 21
129.9519364733
  0
LINE
  5
468
100
AcDbEntity
  8
ASSI
100
AcDbLine
 62
253
  6
CONTINUOUS
 10
175.1009549791
 20
129.9724890165
 11
175.2125940131
 21
129.9519364733
  0
LWPOLYLINE
  5
469
100
AcDbEntity
  8
0
100
AcDbPolyline
 62
253
  6
CONTINUOUS
 90
11
 70
0
 10
231.8374994783
 20
120.6212279305
 10
231.8408814824
 20
120.6205172293
 10
231.8470807306
 20
120.6202625503
 10
231.856072048
 20
120.6204632158
 10
231.8678151156
 20
120.6213366657
 10
231.8822473377
 20
120.6227326747
 10
231.8992845499
 20
120.6240723267
 10
231.9188307481
 20
120.6251266114
 10
231.9407821514
 20
120.6261051643
 10
231.9650230644
 20
120.6270326861
 10
231.991421992
 20
120.6279154144
  0
LWPOLYLINE
  5
46A
100
AcDbEntity
  8
ASSI
100
AcDbPolyline
 62
253
  6
CONTINUOUS
 90
11
 70
0
 10
231.8374994783
 20
120.6212279305
 10
231.8408814824
 20
120.6205172293
 10
231.8470807306
 20
120.6202625503
 10
231.856072048
 20
120.6204632158
 10
231.8678151156
 20
120.6213366657
 10
231.8822473377
 20
120.6227326747
 10
231.8992845499
 20
120.6240723267
 10
231.9188307481
 20
120.6251266114
 10
231.9407821514
 20
120.6261051643
 10
231.9650230644
 20
120.6270326861
 10
231.991421992
 20
120.6279154144
  0
LWPOLYLINE
  5
46B
100
AcDbEntity
  8
0
100
AcDbPolyline
 62
253
  6
CONTINUOUS
 90
10
 70
0
 10
231.9530927845
 20
120.9665106478
 10
231.9377683465
 20
120.990070188
 10
231.9209269899
 20
121.0134867474
 10
231.9025330727
 20
121.036648376
 10
231.8824989396
 20
121.0593867687
 10
231.8608642226
 20
121.0816187284
 10
231.8377721027
 20
121.1033726528
 10
231.813243409
 20
121.1245912403
 10
231.7872016943
 20
121.1451049281
 10
231.759631875
 20
121.1647869645
  0
LWPOLYLINE
  5
46C
100
AcDbEntity
  8
ASSI
100
AcDbPolyline
 62
253
  6
CONTINUOUS
 90
10
 70
0
 10
231.9530927845
 20
120.9665106478
 10
231.9377683465
 20
120.990070188
 10
231.9209269899
 20
121.0134867474
 10
231.9025330727
 20
121.036648376
 10
231.8824989396
 20
121.0593867687
 10
231.8608642226
 20
121.0816187284
 10
231.8377721027
 20
121.1033726528
 10
231.813243409
 20
121.1245912403
 10
231.7872016943
 20
121.1451049281
 10
231.759631875
 20
121.1647869645
  0
LWPOLYLINE
  5
46D
100
AcDbEntity
  8
0
100
AcDbPolyline
 62
253
  6
CONTINUOUS
 90
10
 70
0
 10
231.952889358
 20
120.9663668007
 10
231.9726687567
 20
120.9317563866
 10
231.9902989279
 20
120.8960688098
 10
232.0057322153
 20
120.8594417683
 10
232.0189424045
 20
120.8219474092
 10
232.0298556046
 20
120.7837816045
 10
232.0384031539
 20
120.7452810906
 10
232.0445997661
 20
120.70666261
 10
232.0484876543
 20
120.6680047907
 10
232.0500930769
 20
120.6294452524
  0
LWPOLYLINE
  5
46E
100
AcDbEntity
  8
ASSI
100
AcDbPolyline
 62
253
  6
CONTINUOUS
 90
10
 70
0
 10
231.952889358
 20
120.9663668007
 10
231.9726687567
 20
120.9317563866
 10
231.9902989279
 20
120.8960688098
 10
232.0057322153
 20
120.8594417683
 10
232.0189424045
 20
120.8219474092
 10
232.0298556046
 20
120.7837816045
 10
232.0384031539
 20
120.7452810906
 10
232.0445997661
 20
120.70666261
 10
232.0484876543
 20
120.6680047907
 10
232.0500930769
 20
120.6294452524
  0
LINE
  5
46F
100
AcDbEntity
  8
0
100
AcDbLine
 62
253
  6
CONTINUOUS
 10
251.1288833768
 20
52.8313405057
 11
251.1115816726
 21
52.9458074082
  0
LINE
  5
470
100
AcDbEntity
  8
ASSI
100
AcDbLine
 62
253
  6
CONTINUOUS
 10
251.1288833768
 20
52.8313405057
 11
251.1115816726
 21
52.9458074082
  0
LINE
  5
471
100
AcDbEntity
  8
0
100
AcDbLine
 62
253
  6
CONTINUOUS
 10
251.0714640062
 20
53.2955450624
 11
251.0588859986
 21
53.3838906315
  0
LINE
  5
472
100
AcDbEntity
  8
ASSI
100
AcDbLine
 62
253
  6
CONTINUOUS
 10
251.0714640062
 20
53.2955450624
 11
251.0588859986
 21
53.3838906315
  0
LINE
  5
473
100
AcDbEntity
  8
0
100
AcDbLine
 62
253
  6
CONTINUOUS
 10
251.082917592
 20
53.2119469732
 11
251.0714640062
 21
53.2955450624
  0
LINE
  5
474
100
AcDbEntity
  8
ASSI
100
AcDbLine
 62
253
  6
CONTINUOUS
 10
251.082917592
 20
53.2119469732
 11
251.0714640062
 21
53.2955450624
  0
LWPOLYLINE
  5
475
100
AcDbEntity
  8
0
100
AcDbPolyline
 62
253
  6
CONTINUOUS
 90
3
 70
0
 10
251.0971702518
 20
143.5412175228
 10
251.0881018997
 20
143.4698756316
 10
251.0829175512
 20
143.4307339394
  0
LWPOLYLINE
  5
476
100
AcDbEntity
  8
ASSI
100
AcDbPolyline
 62
253
  6
CONTINUOUS
 90
3
 70
0
 10
251.0971702518
 20
143.5412175228
 10
251.0881018997
 20
143.4698756316
 10
251.0829175512
 20
143.4307339394
  0
LWPOLYLINE
  5
477
100
AcDbEntity
  8
0
100
AcDbPolyline
 62
253
  6
CONTINUOUS
 90
16
 70
0
 10
231.9122576524
 20
75.2499962081
 10
231.9621631637
 20
75.286168184
 10
232.009379005
 20
75.3253382899
 10
232.0539051834
 20
75.3675065582
 10
232.0959873835
 20
75.41295432
 10
232.1353799233
 20
75.4614003182
 10
232.1713457408
 20
75.5120006955
 10
232.2038010314
 20
75.5650012703
 10
232.2328295474
 20
75.6201562865
 10
232.2579455325
 20
75.6758844919
 10
232.2788899773
 20
75.7322011389
 10
232.2959217965
 20
75.7890909913
 10
232.309332109
 20
75.8449270149
 10
232.3192179267
 20
75.899166843
 10
232.3254821511
 20
75.9523528043
 10
232.3281247406
 20
76.004484883
  0
LWPOLYLINE
  5
478
100
AcDbEntity
  8
ASSI
100
AcDbPolyline
 62
253
  6
CONTINUOUS
 90
16
 70
0
 10
231.9122576524
 20
75.2499962081
 10
231.9621631637
 20
75.286168184
 10
232.009379005
 20
75.3253382899
 10
232.0539051834
 20
75.3675065582
 10
232.0959873835
 20
75.41295432
 10
232.1353799233
 20
75.4614003182
 10
232.1713457408
 20
75.5120006955
 10
232.2038010314
 20
75.5650012703
 10
232.2328295474
 20
75.6201562865
 10
232.2579455325
 20
75.6758844919
 10
232.2788899773
 20
75.7322011389
 10
232.2959217965
 20
75.7890909913
 10
232.309332109
 20
75.8449270149
 10
232.3192179267
 20
75.899166843
 10
232.3254821511
 20
75.9523528043
 10
232.3281247406
 20
76.004484883
  0
LWPOLYLINE
  5
479
100
AcDbEntity
  8
0
100
AcDbPolyline
 62
253
  6
CONTINUOUS
 90
10
 70
0
 10
231.7595836089
 20
75.4779655235
 10
231.7858433413
 20
75.4965220467
 10
231.810906703
 20
75.516059987
 10
231.8347557364
 20
75.5364937341
 10
231.8573982672
 20
75.5577195473
 10
231.8788020082
 20
75.5796838707
 10
231.8988895517
 20
75.6023664797
 10
231.9176294292
 20
75.6256962096
 10
231.9350431855
 20
75.6495651658
 10
231.9511314831
 20
75.6738905485
  0
LWPOLYLINE
  5
47A
100
AcDbEntity
  8
ASSI
100
AcDbPolyline
 62
253
  6
CONTINUOUS
 90
10
 70
0
 10
231.7595836089
 20
75.4779655235
 10
231.7858433413
 20
75.4965220467
 10
231.810906703
 20
75.516059987
 10
231.8347557364
 20
75.5364937341
 10
231.8573982672
 20
75.5577195473
 10
231.8788020082
 20
75.5796838707
 10
231.8988895517
 20
75.6023664797
 10
231.9176294292
 20
75.6256962096
 10
231.9350431855
 20
75.6495651658
 10
231.9511314831
 20
75.6738905485
  0
LWPOLYLINE
  5
47B
100
AcDbEntity
  8
0
100
AcDbPolyline
 62
253
  6
CONTINUOUS
 90
10
 70
0
 10
231.759631875
 20
121.1647869645
 10
231.7194612046
 20
121.1895382543
 10
231.6785841261
 20
121.2110429486
 10
231.6372744971
 20
121.229397367
 10
231.5958993626
 20
121.2447136747
 10
231.5545499438
 20
121.257124622
 10
231.5130539698
 20
121.2666921076
 10
231.4714754566
 20
121.2734514313
 10
231.4301392762
 20
121.2775054621
 10
231.3892704598
 20
121.2789570507
  0
LWPOLYLINE
  5
47C
100
AcDbEntity
  8
ASSI
100
AcDbPolyline
 62
253
  6
CONTINUOUS
 90
10
 70
0
 10
231.759631875
 20
121.1647869645
 10
231.7194612046
 20
121.1895382543
 10
231.6785841261
 20
121.2110429486
 10
231.6372744971
 20
121.229397367
 10
231.5958993626
 20
121.2447136747
 10
231.5545499438
 20
121.257124622
 10
231.5130539698
 20
121.2666921076
 10
231.4714754566
 20
121.2734514313
 10
231.4301392762
 20
121.2775054621
 10
231.3892704598
 20
121.2789570507
  0
LWPOLYLINE
  5
47D
100
AcDbEntity
  8
0
100
AcDbPolyline
 62
253
  6
CONTINUOUS
 90
13
 70
0
 10
231.9122576524
 20
121.3926848034
 10
231.8735507531
 20
121.4175598986
 10
231.83380932
 20
121.4404516582
 10
231.7930333487
 20
121.4613600945
 10
231.7511010468
 20
121.4803377608
 10
231.7081341956
 20
121.4973321257
 10
231.6644981485
 20
121.5121855743
 10
231.6201652392
 20
121.5248705144
 10
231.5751631165
 20
121.5354145547
 10
231.529940105
 20
121.5437428805
 10
231.4846456386
 20
121.5498305566
 10
231.439130262
 20
121.5537025271
 10
231.3933939641
 20
121.5553587945
  0
LWPOLYLINE
  5
47E
100
AcDbEntity
  8
ASSI
100
AcDbPolyline
 62
253
  6
CONTINUOUS
 90
13
 70
0
 10
231.9122576524
 20
121.3926848034
 10
231.8735507531
 20
121.4175598986
 10
231.83380932
 20
121.4404516582
 10
231.7930333487
 20
121.4613600945
 10
231.7511010468
 20
121.4803377608
 10
231.7081341956
 20
121.4973321257
 10
231.6644981485
 20
121.5121855743
 10
231.6201652392
 20
121.5248705144
 10
231.5751631165
 20
121.5354145547
 10
231.529940105
 20
121.5437428805
 10
231.4846456386
 20
121.5498305566
 10
231.439130262
 20
121.5537025271
 10
231.3933939641
 20
121.5553587945
  0
LWPOLYLINE
  5
47F
100
AcDbEntity
  8
0
100
AcDbPolyline
 62
253
  6
CONTINUOUS
 90
8
 70
0
 10
246.118245367
 20
144.2910267902
 10
246.1187846447
 20
144.2849020828
 10
246.118937811
 20
144.2746941465
 10
246.1187035892
 20
144.2604880688
 10
246.1180839316
 20
144.2424022635
 10
246.1170840033
 20
144.2205874837
 10
246.1157121392
 20
144.1952255649
 10
246.1139797743
 20
144.1665279096
  0
LWPOLYLINE
  5
480
100
AcDbEntity
  8
ASSI
100
AcDbPolyline
 62
253
  6
CONTINUOUS
 90
8
 70
0
 10
246.118245367
 20
144.2910267902
 10
246.1187846447
 20
144.2849020828
 10
246.118937811
 20
144.2746941465
 10
246.1187035892
 20
144.2604880688
 10
246.1180839316
 20
144.2424022635
 10
246.1170840033
 20
144.2205874837
 10
246.1157121392
 20
144.1952255649
 10
246.1139797743
 20
144.1665279096
  0
LWPOLYLINE
  5
481
100
AcDbEntity
  8
0
100
AcDbPolyline
 62
253
  6
CONTINUOUS
 90
9
 70
0
 10
251.1116727217
 20
143.6968597846
 10
251.1119625978
 20
143.6907037059
 10
251.1116335747
 20
143.680497585
 10
251.1106883921
 20
143.6663264024
 10
251.1091349197
 20
143.6483081536
 10
251.1069860923
 20
143.6265928665
 10
251.1042598018
 20
143.6013613519
 10
251.1009787485
 20
143.5728236983
 10
251.0971702518
 20
143.5412175228
  0
LWPOLYLINE
  5
482
100
AcDbEntity
  8
ASSI
100
AcDbPolyline
 62
253
  6
CONTINUOUS
 90
9
 70
0
 10
251.1116727217
 20
143.6968597846
 10
251.1119625978
 20
143.6907037059
 10
251.1116335747
 20
143.680497585
 10
251.1106883921
 20
143.6663264024
 10
251.1091349197
 20
143.6483081536
 10
251.1069860923
 20
143.6265928665
 10
251.1042598018
 20
143.6013613519
 10
251.1009787485
 20
143.5728236983
 10
251.0971702518
 20
143.5412175228
  0
LWPOLYLINE
  5
483
100
AcDbEntity
  8
0
100
AcDbPolyline
 62
253
  6
CONTINUOUS
 90
11
 70
0
 10
251.1116727715
 20
52.9458208952
 10
251.1119626568
 20
52.9519769843
 10
251.1116336407
 20
52.9621831185
 10
251.1106884627
 20
52.9763543172
 10
251.1091349928
 20
52.9943725845
 10
251.1069861658
 20
53.0160878925
 10
251.1042598738
 20
53.04131943
 10
251.1009788172
 20
53.069857108
 10
251.0971703154
 20
53.1014633092
 10
251.0928660797
 20
53.1358748665
 10
251.082917592
 20
53.2119469732
  0
LWPOLYLINE
  5
484
100
AcDbEntity
  8
ASSI
100
AcDbPolyline
 62
253
  6
CONTINUOUS
 90
11
 70
0
 10
251.1116727715
 20
52.9458208952
 10
251.1119626568
 20
52.9519769843
 10
251.1116336407
 20
52.9621831185
 10
251.1106884627
 20
52.9763543172
 10
251.1091349928
 20
52.9943725845
 10
251.1069861658
 20
53.0160878925
 10
251.1042598738
 20
53.04131943
 10
251.1009788172
 20
53.069857108
 10
251.0971703154
 20
53.1014633092
 10
251.0928660797
 20
53.1358748665
 10
251.082917592
 20
53.2119469732
  0
LWPOLYLINE
  5
485
100
AcDbEntity
  8
0
100
AcDbPolyline
 62
253
  6
CONTINUOUS
 90
9
 70
0
 10
246.1182453671
 20
52.3516542204
 10
246.1187846449
 20
52.3577789279
 10
246.1189378112
 20
52.3679868643
 10
246.1187035895
 20
52.382192942
 10
246.1180839319
 20
52.4002787474
 10
246.1170840036
 20
52.4220935273
 10
246.1157121395
 20
52.4474554462
 10
246.1139797746
 20
52.4761531015
 10
246.109494187
 20
52.5425729814
  0
LWPOLYLINE
  5
486
100
AcDbEntity
  8
ASSI
100
AcDbPolyline
 62
253
  6
CONTINUOUS
 90
9
 70
0
 10
246.1182453671
 20
52.3516542204
 10
246.1187846449
 20
52.3577789279
 10
246.1189378112
 20
52.3679868643
 10
246.1187035895
 20
52.382192942
 10
246.1180839319
 20
52.4002787474
 10
246.1170840036
 20
52.4220935273
 10
246.1157121395
 20
52.4474554462
 10
246.1139797746
 20
52.4761531015
 10
246.109494187
 20
52.5425729814
  0
LWPOLYLINE
  5
487
100
AcDbEntity
  8
0
100
AcDbPolyline
 62
253
  6
CONTINUOUS
 90
13
 70
0
 10
174.2311946983
 20
122.046715665
 10
174.2376469659
 20
122.0480117705
 10
174.248426333
 20
122.048862349
 10
174.2634374575
 20
122.0492598772
 10
174.2825475682
 20
122.049200839
 10
174.3055876385
 20
122.0486857566
 10
174.3323538823
 20
122.0477191858
 10
174.3626095557
 20
122.0463096758
 10
174.3960870514
 20
122.0444696936
 10
174.4324902653
 20
122.0422155135
 10
174.471497216
 20
122.0395670735
 10
174.5127628922
 20
122.0365477987
 10
174.5559223046
 20
122.033184394
  0
LWPOLYLINE
  5
488
100
AcDbEntity
  8
ASSI
100
AcDbPolyline
 62
253
  6
CONTINUOUS
 90
13
 70
0
 10
174.2311946983
 20
122.046715665
 10
174.2376469659
 20
122.0480117705
 10
174.248426333
 20
122.048862349
 10
174.2634374575
 20
122.0492598772
 10
174.2825475682
 20
122.049200839
 10
174.3055876385
 20
122.0486857566
 10
174.3323538823
 20
122.0477191858
 10
174.3626095557
 20
122.0463096758
 10
174.3960870514
 20
122.0444696936
 10
174.4324902653
 20
122.0422155135
 10
174.471497216
 20
122.0395670735
 10
174.5127628922
 20
122.0365477987
 10
174.5559223046
 20
122.033184394
  0
LWPOLYLINE
  5
489
100
AcDbEntity
  8
0
100
AcDbPolyline
 62
253
  6
CONTINUOUS
 90
12
 70
0
 10
174.2200949763
 20
121.9300774474
 10
174.226545852
 20
121.9313673876
 10
174.237324196
 20
121.9322140145
 10
174.2523346723
 20
121.9326098395
 10
174.2714445107
 20
121.9325513616
 10
174.2944846819
 20
121.932039098
 10
174.321251392
 20
121.9310775796
 10
174.3515078852
 20
121.9296753114
 10
174.3849865382
 20
121.9278446965
 10
174.421391227
 20
121.9256019271
 10
174.4603999466
 20
121.9229668408
 10
174.5016676588
 20
121.9199627453
  0
LWPOLYLINE
  5
48A
100
AcDbEntity
  8
ASSI
100
AcDbPolyline
 62
253
  6
CONTINUOUS
 90
12
 70
0
 10
174.2200949763
 20
121.9300774474
 10
174.226545852
 20
121.9313673876
 10
174.237324196
 20
121.9322140145
 10
174.2523346723
 20
121.9326098395
 10
174.2714445107
 20
121.9325513616
 10
174.2944846819
 20
121.932039098
 10
174.321251392
 20
121.9310775796
 10
174.3515078852
 20
121.9296753114
 10
174.3849865382
 20
121.9278446965
 10
174.421391227
 20
121.9256019271
 10
174.4603999466
 20
121.9229668408
 10
174.5016676588
 20
121.9199627453
  0
LWPOLYLINE
  5
48B
100
AcDbEntity
  8
0
100
AcDbPolyline
 62
253
  6
CONTINUOUS
 90
13
 70
0
 10
266.2584467351
 20
121.9300774528
 10
266.2519958574
 20
121.9313673934
 10
266.2412175108
 20
121.9322140206
 10
266.2262070316
 20
121.9326098458
 10
266.2070971899
 20
121.9325513679
 10
266.184057015
 20
121.9320391041
 10
266.157290301
 20
121.9310775855
 10
266.1270338037
 20
121.9296753169
 10
266.0935551465
 20
121.9278447015
 10
266.0571504533
 20
121.9256019315
 10
266.0181417294
 20
121.9229668445
 10
265.9768740129
 20
121.9199627483
 10
265.8890384327
 20
121.9129568439
  0
LWPOLYLINE
  5
48C
100
AcDbEntity
  8
ASSI
100
AcDbPolyline
 62
253
  6
CONTINUOUS
 90
13
 70
0
 10
266.2584467351
 20
121.9300774528
 10
266.2519958574
 20
121.9313673934
 10
266.2412175108
 20
121.9322140206
 10
266.2262070316
 20
121.9326098458
 10
266.2070971899
 20
121.9325513679
 10
266.184057015
 20
121.9320391041
 10
266.157290301
 20
121.9310775855
 10
266.1270338037
 20
121.9296753169
 10
266.0935551465
 20
121.9278447015
 10
266.0571504533
 20
121.9256019315
 10
266.0181417294
 20
121.9229668445
 10
265.9768740129
 20
121.9199627483
 10
265.8890384327
 20
121.9129568439
  0
LWPOLYLINE
  5
48D
100
AcDbEntity
  8
0
100
AcDbPolyline
 62
253
  6
CONTINUOUS
 90
15
 70
0
 10
266.2473469595
 20
122.046715665
 10
266.240894692
 20
122.0480117706
 10
266.2301153249
 20
122.0488623491
 10
266.2151042003
 20
122.0492598772
 10
266.1959940897
 20
122.049200839
 10
266.1729540193
 20
122.0486857566
 10
266.1461877755
 20
122.0477191858
 10
266.1159321021
 20
122.0463096759
 10
266.0824546064
 20
122.0444696937
 10
266.0460513925
 20
122.0422155136
 10
266.0070444417
 20
122.0395670736
 10
265.9657787655
 20
122.0365477987
 10
265.922619353
 20
122.0331843941
 10
265.8779479435
 20
122.0295066085
 10
265.7856594627
 20
122.0213405057
  0
LWPOLYLINE
  5
48E
100
AcDbEntity
  8
ASSI
100
AcDbPolyline
 62
253
  6
CONTINUOUS
 90
15
 70
0
 10
266.2473469595
 20
122.046715665
 10
266.240894692
 20
122.0480117706
 10
266.2301153249
 20
122.0488623491
 10
266.2151042003
 20
122.0492598772
 10
266.1959940897
 20
122.049200839
 10
266.1729540193
 20
122.0486857566
 10
266.1461877755
 20
122.0477191858
 10
266.1159321021
 20
122.0463096759
 10
266.0824546064
 20
122.0444696937
 10
266.0460513925
 20
122.0422155136
 10
266.0070444417
 20
122.0395670736
 10
265.9657787655
 20
122.0365477987
 10
265.922619353
 20
122.0331843941
 10
265.8779479435
 20
122.0295066085
 10
265.7856594627
 20
122.0213405057
  0
LWPOLYLINE
  5
48F
100
AcDbEntity
  8
0
100
AcDbPolyline
 62
253
  6
CONTINUOUS
 90
16
 70
0
 10
174.6356042093
 20
125.9594582912
 10
174.6421232279
 20
125.9611253672
 10
174.6529534486
 20
125.9622716264
 10
174.6679992454
 20
125.9628869478
 10
174.6871277707
 20
125.9629658983
 10
174.7101701279
 20
125.9625077809
 10
174.7369228634
 20
125.9615166405
 10
174.7671497624
 20
125.9600012286
 10
174.8005839346
 20
125.9579749254
 10
174.8369301714
 20
125.9554556224
 10
174.8758675515
 20
125.9524655638
 10
174.9170522751
 20
125.9490311506
 10
174.9601206994
 20
125.9451827071
 10
175.0046925494
 20
125.9409542133
 10
175.0503742754
 20
125.936383005
 10
175.096762528
 20
125.9315094439
  0
LWPOLYLINE
  5
490
100
AcDbEntity
  8
ASSI
100
AcDbPolyline
 62
253
  6
CONTINUOUS
 90
16
 70
0
 10
174.6356042093
 20
125.9594582912
 10
174.6421232279
 20
125.9611253672
 10
174.6529534486
 20
125.9622716264
 10
174.6679992454
 20
125.9628869478
 10
174.6871277707
 20
125.9629658983
 10
174.7101701279
 20
125.9625077809
 10
174.7369228634
 20
125.9615166405
 10
174.7671497624
 20
125.9600012286
 10
174.8005839346
 20
125.9579749254
 10
174.8369301714
 20
125.9554556224
 10
174.8758675515
 20
125.9524655638
 10
174.9170522751
 20
125.9490311506
 10
174.9601206994
 20
125.9451827071
 10
175.0046925494
 20
125.9409542133
 10
175.0503742754
 20
125.936383005
 10
175.096762528
 20
125.9315094439
  0
LWPOLYLINE
  5
491
100
AcDbEntity
  8
0
100
AcDbPolyline
 62
253
  6
CONTINUOUS
 90
16
 70
0
 10
265.8429374483
 20
125.9594582912
 10
265.8364184297
 20
125.9611253673
 10
265.825588209
 20
125.9622716266
 10
265.8105424121
 20
125.962886948
 10
265.7914138869
 20
125.9629658986
 10
265.7683715296
 20
125.9625077812
 10
265.7416187941
 20
125.9615166409
 10
265.7113918952
 20
125.9600012289
 10
265.6779577229
 20
125.9579749257
 10
265.6416114861
 20
125.9554556227
 10
265.6026741061
 20
125.9524655641
 10
265.5614893825
 20
125.9490311508
 10
265.5184209581
 20
125.9451827073
 10
265.4738491081
 20
125.9409542135
 10
265.4281673822
 20
125.9363830051
 10
265.3817791296
 20
125.931509444
  0
LWPOLYLINE
  5
492
100
AcDbEntity
  8
ASSI
100
AcDbPolyline
 62
253
  6
CONTINUOUS
 90
16
 70
0
 10
265.8429374483
 20
125.9594582912
 10
265.8364184297
 20
125.9611253673
 10
265.825588209
 20
125.9622716266
 10
265.8105424121
 20
125.962886948
 10
265.7914138869
 20
125.9629658986
 10
265.7683715296
 20
125.9625077812
 10
265.7416187941
 20
125.9615166409
 10
265.7113918952
 20
125.9600012289
 10
265.6779577229
 20
125.9579749257
 10
265.6416114861
 20
125.9554556227
 10
265.6026741061
 20
125.9524655641
 10
265.5614893825
 20
125.9490311508
 10
265.5184209581
 20
125.9451827073
 10
265.4738491081
 20
125.9409542135
 10
265.4281673822
 20
125.9363830051
 10
265.3817791296
 20
125.931509444
  0
LWPOLYLINE
  5
493
100
AcDbEntity
  8
0
100
AcDbPolyline
 62
253
  6
CONTINUOUS
 90
16
 70
0
 10
175.2126112797
 20
129.9520317337
 10
175.2192543248
 20
129.9535709547
 10
175.23013914
 20
129.9543089558
 10
175.2451701929
 20
129.9542392597
 10
175.2642155614
 20
129.9533624779
 10
175.2871080907
 20
129.9516863056
 10
175.3136468612
 20
129.9492254537
 10
175.3435989514
 20
129.9460015202
 10
175.376701482
 20
129.9420428003
 10
175.4126639239
 20
129.9373840382
 10
175.451170647
 20
129.9320661221
 10
175.4918836915
 20
129.9261357253
 10
175.534445733
 20
129.9196448967
 10
175.5784832193
 20
129.9126506041
 10
175.6236096488
 20
129.9052142335
 10
175.6694289626
 20
129.8974010515
  0
LWPOLYLINE
  5
494
100
AcDbEntity
  8
ASSI
100
AcDbPolyline
 62
253
  6
CONTINUOUS
 90
16
 70
0
 10
175.2126112797
 20
129.9520317337
 10
175.2192543248
 20
129.9535709547
 10
175.23013914
 20
129.9543089558
 10
175.2451701929
 20
129.9542392597
 10
175.2642155614
 20
129.9533624779
 10
175.2871080907
 20
129.9516863056
 10
175.3136468612
 20
129.9492254537
 10
175.3435989514
 20
129.9460015202
 10
175.376701482
 20
129.9420428003
 10
175.4126639239
 20
129.9373840382
 10
175.451170647
 20
129.9320661221
 10
175.4918836915
 20
129.9261357253
 10
175.534445733
 20
129.9196448967
 10
175.5784832193
 20
129.9126506041
 10
175.6236096488
 20
129.9052142335
 10
175.6694289626
 20
129.8974010515
  0
LWPOLYLINE
  5
495
100
AcDbEntity
  8
0
100
AcDbPolyline
 62
253
  6
CONTINUOUS
 90
16
 70
0
 10
265.2659306764
 20
129.9520317884
 10
265.2592876228
 20
129.9535710204
 10
265.2484027963
 20
129.9543090298
 10
265.2333717293
 20
129.9542393394
 10
265.2143263443
 20
129.9533625609
 10
265.1914337962
 20
129.9516863894
 10
265.164895005
 20
129.9492255361
 10
265.1349428927
 20
129.9460015992
 10
265.1018403385
 20
129.9420428739
 10
265.0658778724
 20
129.9373841046
 10
265.0273711246
 20
129.9320661799
 10
264.9866580556
 20
129.9261357733
 10
264.94409599
 20
129.9196449339
 10
264.9000584806
 20
129.9126506296
 10
264.8549320295
 20
129.905214247
 10
264.8091126961
 20
129.8974010528
  0
LWPOLYLINE
  5
496
100
AcDbEntity
  8
ASSI
100
AcDbPolyline
 62
253
  6
CONTINUOUS
 90
16
 70
0
 10
265.2659306764
 20
129.9520317884
 10
265.2592876228
 20
129.9535710204
 10
265.2484027963
 20
129.9543090298
 10
265.2333717293
 20
129.9542393394
 10
265.2143263443
 20
129.9533625609
 10
265.1914337962
 20
129.9516863894
 10
265.164895005
 20
129.9492255361
 10
265.1349428927
 20
129.9460015992
 10
265.1018403385
 20
129.9420428739
 10
265.0658778724
 20
129.9373841046
 10
265.0273711246
 20
129.9320661799
 10
264.9866580556
 20
129.9261357733
 10
264.94409599
 20
129.9196449339
 10
264.9000584806
 20
129.9126506296
 10
264.8549320295
 20
129.905214247
 10
264.8091126961
 20
129.8974010528
  0
LINE
  5
497
100
AcDbEntity
  8
0
100
AcDbLine
 62
253
  6
CONTINUOUS
 10
265.4296990711
 20
125.4973073942
 11
265.5232566233
 21
124.6287021
  0
LINE
  5
498
100
AcDbEntity
  8
ASSI
100
AcDbLine
 62
253
  6
CONTINUOUS
 10
265.4296990711
 20
125.4973073942
 11
265.5232566233
 21
124.6287021
  0
LINE
  5
499
100
AcDbEntity
  8
0
100
AcDbLine
 62
253
  6
CONTINUOUS
 10
265.8909206682
 20
125.5249703243
 11
265.9846005285
 21
124.6557935886
  0
LINE
  5
49A
100
AcDbEntity
  8
ASSI
100
AcDbLine
 62
253
  6
CONTINUOUS
 10
265.8909206682
 20
125.5249703243
 11
265.9846005285
 21
124.6557935886
  0
LINE
  5
49B
100
AcDbEntity
  8
0
100
AcDbLine
 62
253
  6
CONTINUOUS
 10
265.9846005285
 20
124.6557935886
 11
266.0752318159
 21
123.7863522172
  0
LINE
  5
49C
100
AcDbEntity
  8
ASSI
100
AcDbLine
 62
253
  6
CONTINUOUS
 10
265.9846005285
 20
124.6557935886
 11
266.0752318159
 21
123.7863522172
  0
LINE
  5
49D
100
AcDbEntity
  8
0
100
AcDbLine
 62
253
  6
CONTINUOUS
 10
265.5232566233
 20
124.6287021
 11
265.6137692856
 21
123.7598320224
  0
LINE
  5
49E
100
AcDbEntity
  8
ASSI
100
AcDbLine
 62
253
  6
CONTINUOUS
 10
265.5232566233
 20
124.6287021
 11
265.6137692856
 21
123.7598320224
  0
LINE
  5
49F
100
AcDbEntity
  8
0
100
AcDbLine
 62
253
  6
CONTINUOUS
 10
266.0752318159
 20
123.7863522172
 11
266.1628140824
 21
122.9166563339
  0
LINE
  5
4A0
100
AcDbEntity
  8
ASSI
100
AcDbLine
 62
253
  6
CONTINUOUS
 10
266.0752318159
 20
123.7863522172
 11
266.1628140824
 21
122.9166563339
  0
LINE
  5
4A1
100
AcDbEntity
  8
0
100
AcDbLine
 62
253
  6
CONTINUOUS
 10
265.6137692856
 20
123.7598320224
 11
265.7012372824
 21
122.8907091229
  0
LINE
  5
4A2
100
AcDbEntity
  8
ASSI
100
AcDbLine
 62
253
  6
CONTINUOUS
 10
265.6137692856
 20
123.7598320224
 11
265.7012372824
 21
122.8907091229
  0
LINE
  5
4A3
100
AcDbEntity
  8
0
100
AcDbLine
 62
253
  6
CONTINUOUS
 10
265.7012372824
 20
122.8907091229
 11
265.7967445187
 21
121.904831544
  0
LINE
  5
4A4
100
AcDbEntity
  8
ASSI
100
AcDbLine
 62
253
  6
CONTINUOUS
 10
265.7012372824
 20
122.8907091229
 11
265.7967445187
 21
121.904831544
  0
LINE
  5
4A5
100
AcDbEntity
  8
0
100
AcDbLine
 62
253
  6
CONTINUOUS
 10
266.1628140824
 20
122.9166563339
 11
266.2584466812
 21
121.9300774474
  0
LINE
  5
4A6
100
AcDbEntity
  8
ASSI
100
AcDbLine
 62
253
  6
CONTINUOUS
 10
266.1628140824
 20
122.9166563339
 11
266.2584466812
 21
121.9300774474
  0
LWPOLYLINE
  5
4A7
100
AcDbEntity
  8
0
100
AcDbPolyline
 62
253
  6
CONTINUOUS
 90
16
 70
0
 10
265.7967445187
 20
121.904831544
 10
266.0744508838
 20
118.7676805615
 10
266.3125855603
 20
115.6279420353
 10
266.5111020996
 20
112.4857386794
 10
266.6699604481
 20
109.3408456415
 10
266.7891294074
 20
106.1937344608
 10
266.8685881622
 20
103.0455734775
 10
266.9083224205
 20
99.8963428814
 10
266.9083222441
 20
96.7463119636
 10
266.8685877329
 20
93.5970833631
 10
266.7891289157
 20
90.4489274699
 10
266.6699599999
 20
87.3018233731
 10
266.5111017317
 20
84.1569361147
 10
266.3125852833
 20
81.0147361348
 10
266.07445073
 20
77.8749996809
 10
265.7967445187
 20
74.7378494675
  0
LWPOLYLINE
  5
4A8
100
AcDbEntity
  8
ASSI
100
AcDbPolyline
 62
253
  6
CONTINUOUS
 90
16
 70
0
 10
265.7967445187
 20
121.904831544
 10
266.0744508838
 20
118.7676805615
 10
266.3125855603
 20
115.6279420353
 10
266.5111020996
 20
112.4857386794
 10
266.6699604481
 20
109.3408456415
 10
266.7891294074
 20
106.1937344608
 10
266.8685881622
 20
103.0455734775
 10
266.9083224205
 20
99.8963428814
 10
266.9083222441
 20
96.7463119636
 10
266.8685877329
 20
93.5970833631
 10
266.7891289157
 20
90.4489274699
 10
266.6699599999
 20
87.3018233731
 10
266.5111017317
 20
84.1569361147
 10
266.3125852833
 20
81.0147361348
 10
266.07445073
 20
77.8749996809
 10
265.7967445187
 20
74.7378494675
  0
LWPOLYLINE
  5
4A9
100
AcDbEntity
  8
0
100
AcDbPolyline
 62
253
  6
CONTINUOUS
 90
16
 70
0
 10
266.2584466812
 20
121.9300774474
 10
266.5365165891
 20
118.7902276349
 10
266.7749557308
 20
115.6470369821
 10
266.9737211508
 20
112.5008842572
 10
267.1327685043
 20
109.3523601505
 10
267.2520860078
 20
106.2021177427
 10
267.3316646705
 20
103.0506296231
 10
267.3714777016
 20
99.8979641986
 10
267.371477529
 20
96.7446888252
 10
267.3316641673
 20
93.5920248157
 10
267.2520852953
 20
90.4405414331
 10
267.1327678372
 20
87.2903063335
 10
266.9737206602
 20
84.1417881238
 10
266.7749554001
 20
80.9956390611
 10
266.5365164364
 20
77.852451411
 10
266.2584466812
 20
74.7126035641
  0
LWPOLYLINE
  5
4AA
100
AcDbEntity
  8
ASSI
100
AcDbPolyline
 62
253
  6
CONTINUOUS
 90
16
 70
0
 10
266.2584466812
 20
121.9300774474
 10
266.5365165891
 20
118.7902276349
 10
266.7749557308
 20
115.6470369821
 10
266.9737211508
 20
112.5008842572
 10
267.1327685043
 20
109.3523601505
 10
267.2520860078
 20
106.2021177427
 10
267.3316646705
 20
103.0506296231
 10
267.3714777016
 20
99.8979641986
 10
267.371477529
 20
96.7446888252
 10
267.3316641673
 20
93.5920248157
 10
267.2520852953
 20
90.4405414331
 10
267.1327678372
 20
87.2903063335
 10
266.9737206602
 20
84.1417881238
 10
266.7749554001
 20
80.9956390611
 10
266.5365164364
 20
77.852451411
 10
266.2584466812
 20
74.7126035641
  0
LINE
  5
4AB
100
AcDbEntity
  8
0
100
AcDbLine
 62
253
  6
CONTINUOUS
 10
265.7967445187
 20
74.7378494675
 11
265.7012373109
 21
73.7519721728
  0
LINE
  5
4AC
100
AcDbEntity
  8
ASSI
100
AcDbLine
 62
253
  6
CONTINUOUS
 10
265.7967445187
 20
74.7378494675
 11
265.7012373109
 21
73.7519721728
  0
LINE
  5
4AD
100
AcDbEntity
  8
0
100
AcDbLine
 62
253
  6
CONTINUOUS
 10
266.2584466812
 20
74.7126035641
 11
266.162814077
 21
73.7260246228
  0
LINE
  5
4AE
100
AcDbEntity
  8
ASSI
100
AcDbLine
 62
253
  6
CONTINUOUS
 10
266.2584466812
 20
74.7126035641
 11
266.162814077
 21
73.7260246228
  0
LINE
  5
4AF
100
AcDbEntity
  8
0
100
AcDbLine
 62
253
  6
CONTINUOUS
 10
265.7012373109
 20
73.7519721728
 11
265.613769308
 21
72.8828492132
  0
LINE
  5
4B0
100
AcDbEntity
  8
ASSI
100
AcDbLine
 62
253
  6
CONTINUOUS
 10
265.7012373109
 20
73.7519721728
 11
265.613769308
 21
72.8828492132
  0
LINE
  5
4B1
100
AcDbEntity
  8
0
100
AcDbLine
 62
253
  6
CONTINUOUS
 10
266.162814077
 20
73.7260246228
 11
266.0752317977
 21
72.8563286167
  0
LINE
  5
4B2
100
AcDbEntity
  8
ASSI
100
AcDbLine
 62
253
  6
CONTINUOUS
 10
266.162814077
 20
73.7260246228
 11
266.0752317977
 21
72.8563286167
  0
LINE
  5
4B3
100
AcDbEntity
  8
0
100
AcDbLine
 62
253
  6
CONTINUOUS
 10
265.613769308
 20
72.8828492132
 11
265.5232566173
 21
72.0139788548
  0
LINE
  5
4B4
100
AcDbEntity
  8
ASSI
100
AcDbLine
 62
253
  6
CONTINUOUS
 10
265.613769308
 20
72.8828492132
 11
265.5232566173
 21
72.0139788548
  0
LINE
  5
4B5
100
AcDbEntity
  8
0
100
AcDbLine
 62
253
  6
CONTINUOUS
 10
266.0752317977
 20
72.8563286167
 11
265.9846004973
 21
71.986887128
  0
LINE
  5
4B6
100
AcDbEntity
  8
ASSI
100
AcDbLine
 62
253
  6
CONTINUOUS
 10
266.0752317977
 20
72.8563286167
 11
265.9846004973
 21
71.986887128
  0
LWPOLYLINE
  5
4B7
100
AcDbEntity
  8
0
100
AcDbPolyline
 62
253
  6
CONTINUOUS
 90
3
 70
0
 10
265.5232566173
 20
72.0139788548
 10
265.4296990643
 20
71.1453735511
 10
265.3817791296
 20
70.7111715675
  0
LWPOLYLINE
  5
4B8
100
AcDbEntity
  8
ASSI
100
AcDbPolyline
 62
253
  6
CONTINUOUS
 90
3
 70
0
 10
265.5232566173
 20
72.0139788548
 10
265.4296990643
 20
71.1453735511
 10
265.3817791296
 20
70.7111715675
  0
LWPOLYLINE
  5
4B9
100
AcDbEntity
  8
0
100
AcDbPolyline
 62
253
  6
CONTINUOUS
 90
3
 70
0
 10
265.9846004973
 20
71.986887128
 10
265.8909206556
 20
71.1177105715
 10
265.8429376972
 20
70.6832249556
  0
LWPOLYLINE
  5
4BA
100
AcDbEntity
  8
ASSI
100
AcDbPolyline
 62
253
  6
CONTINUOUS
 90
3
 70
0
 10
265.9846004973
 20
71.986887128
 10
265.8909206556
 20
71.1177105715
 10
265.8429376972
 20
70.6832249556
  0
LWPOLYLINE
  5
4BB
100
AcDbEntity
  8
0
100
AcDbPolyline
 62
253
  6
CONTINUOUS
 90
10
 70
0
 10
265.3817791296
 20
70.7111715675
 10
265.3309041565
 20
70.2684970292
 10
265.2768377967
 20
69.8263205642
 10
265.2195807017
 20
69.3846427937
 10
265.159131991
 20
68.9434570352
 10
265.0954938882
 20
68.5027712009
 10
265.0286717262
 20
68.0626077922
 10
264.9586677624
 20
67.6229747038
 10
264.8854811737
 20
67.18386523
 10
264.8091126962
 20
66.7452799587
  0
LWPOLYLINE
  5
4BC
100
AcDbEntity
  8
ASSI
100
AcDbPolyline
 62
253
  6
CONTINUOUS
 90
10
 70
0
 10
265.3817791296
 20
70.7111715675
 10
265.3309041565
 20
70.2684970292
 10
265.2768377967
 20
69.8263205642
 10
265.2195807017
 20
69.3846427937
 10
265.159131991
 20
68.9434570352
 10
265.0954938882
 20
68.5027712009
 10
265.0286717262
 20
68.0626077922
 10
264.9586677624
 20
67.6229747038
 10
264.8854811737
 20
67.18386523
 10
264.8091126962
 20
66.7452799587
  0
LWPOLYLINE
  5
4BD
100
AcDbEntity
  8
0
100
AcDbPolyline
 62
253
  6
CONTINUOUS
 90
10
 70
0
 10
265.8429376988
 20
70.6832249554
 10
265.7916807636
 20
70.2376049565
 10
265.7372011981
 20
69.7924430474
 10
265.6795035207
 20
69.3477626464
 10
265.6185939856
 20
68.9035989318
 10
265.5544758796
 20
68.4599623978
 10
265.487148484
 20
68.0168394937
 10
265.4166140244
 20
67.5742408068
 10
265.3428788506
 20
67.1322014061
 10
265.2659476445
 20
66.6907445382
  0
LWPOLYLINE
  5
4BE
100
AcDbEntity
  8
ASSI
100
AcDbPolyline
 62
253
  6
CONTINUOUS
 90
10
 70
0
 10
265.8429376988
 20
70.6832249554
 10
265.7916807636
 20
70.2376049565
 10
265.7372011981
 20
69.7924430474
 10
265.6795035207
 20
69.3477626464
 10
265.6185939856
 20
68.9035989318
 10
265.5544758796
 20
68.4599623978
 10
265.487148484
 20
68.0168394937
 10
265.4166140244
 20
67.5742408068
 10
265.3428788506
 20
67.1322014061
 10
265.2659476445
 20
66.6907445382
  0
LWPOLYLINE
  5
4BF
100
AcDbEntity
  8
0
100
AcDbPolyline
 62
253
  6
CONTINUOUS
 90
10
 70
0
 10
189.4196556589
 20
143.25879038
 10
190.0052812996
 20
143.3431856171
 10
190.5825611174
 20
143.4227900988
 10
191.1514952674
 20
143.4976041879
 10
191.7121117623
 20
143.5674622244
 10
192.2643830534
 20
143.6325305385
 10
192.8082258568
 20
143.6933074149
 10
193.343612454
 20
143.7499590968
 10
193.8705708595
 20
143.8023198205
 10
194.3891012824
 20
143.8503898031
  0
LWPOLYLINE
  5
4C0
100
AcDbEntity
  8
ASSI
100
AcDbPolyline
 62
253
  6
CONTINUOUS
 90
10
 70
0
 10
189.4196556589
 20
143.25879038
 10
190.0052812996
 20
143.3431856171
 10
190.5825611174
 20
143.4227900988
 10
191.1514952674
 20
143.4976041879
 10
191.7121117623
 20
143.5674622244
 10
192.2643830534
 20
143.6325305385
 10
192.8082258568
 20
143.6933074149
 10
193.343612454
 20
143.7499590968
 10
193.8705708595
 20
143.8023198205
 10
194.3891012824
 20
143.8503898031
  0
LWPOLYLINE
  5
4C1
100
AcDbEntity
  8
0
100
AcDbPolyline
 62
253
  6
CONTINUOUS
 90
9
 70
0
 10
194.3891012824
 20
143.8503898031
 10
195.9638705687
 20
143.9881348053
 10
197.5392772606
 20
144.1172153661
 10
199.1153169761
 20
144.2376325629
 10
200.6920009736
 20
144.3493901155
 10
202.2693095273
 20
144.452486257
 10
203.8471919197
 20
144.5469137337
 10
205.4256285887
 20
144.632670641
 10
207.0046311158
 20
144.7097604216
  0
LWPOLYLINE
  5
4C2
100
AcDbEntity
  8
ASSI
100
AcDbPolyline
 62
253
  6
CONTINUOUS
 90
9
 70
0
 10
194.3891012824
 20
143.8503898031
 10
195.9638705687
 20
143.9881348053
 10
197.5392772606
 20
144.1172153661
 10
199.1153169761
 20
144.2376325629
 10
200.6920009736
 20
144.3493901155
 10
202.2693095273
 20
144.452486257
 10
203.8471919197
 20
144.5469137337
 10
205.4256285887
 20
144.632670641
 10
207.0046311158
 20
144.7097604216
  0
LWPOLYLINE
  5
4C3
100
AcDbEntity
  8
0
100
AcDbPolyline
 62
253
  6
CONTINUOUS
 90
9
 70
0
 10
194.360297726
 20
144.2910269201
 10
195.9364579816
 20
144.4288166967
 10
197.5133416971
 20
144.557947629
 10
199.0909051334
 20
144.6784161745
 10
200.6690666091
 20
144.7902163772
 10
202.2478046614
 20
144.893347482
 10
203.827166041
 20
144.9878120033
 10
205.407129311
 20
145.0736067888
 10
206.9876126445
 20
145.1507259914
  0
LWPOLYLINE
  5
4C4
100
AcDbEntity
  8
ASSI
100
AcDbPolyline
 62
253
  6
CONTINUOUS
 90
9
 70
0
 10
194.360297726
 20
144.2910269201
 10
195.9364579816
 20
144.4288166967
 10
197.5133416971
 20
144.557947629
 10
199.0909051334
 20
144.6784161745
 10
200.6690666091
 20
144.7902163772
 10
202.2478046614
 20
144.893347482
 10
203.827166041
 20
144.9878120033
 10
205.407129311
 20
145.0736067888
 10
206.9876126445
 20
145.1507259914
  0
LINE
  5
4C5
100
AcDbEntity
  8
0
100
AcDbLine
 62
253
  6
CONTINUOUS
 10
207.0046311158
 20
144.7097604216
 11
208.6214830222
 21
144.7796944035
  0
LINE
  5
4C6
100
AcDbEntity
  8
ASSI
100
AcDbLine
 62
253
  6
CONTINUOUS
 10
207.0046311158
 20
144.7097604216
 11
208.6214830222
 21
144.7796944035
  0
LINE
  5
4C7
100
AcDbEntity
  8
0
100
AcDbLine
 62
253
  6
CONTINUOUS
 10
206.9876126445
 20
145.1507259914
 11
208.6059112322
 21
145.220677542
  0
LINE
  5
4C8
100
AcDbEntity
  8
ASSI
100
AcDbLine
 62
253
  6
CONTINUOUS
 10
206.9876126445
 20
145.1507259914
 11
208.6059112322
 21
145.220677542
  0
LWPOLYLINE
  5
4C9
100
AcDbEntity
  8
0
100
AcDbPolyline
 62
253
  6
CONTINUOUS
 90
24
 70
0
 10
208.6214830222
 20
144.7796944035
 10
209.589465458
 20
144.8172121939
 10
210.5574812856
 20
144.85146623
 10
211.5255307657
 20
144.8824566233
 10
212.4936181963
 20
144.9101831081
 10
213.4617398115
 20
144.9346461417
 10
214.4298837804
 20
144.9558469039
 10
215.3980501367
 20
144.9737856389
 10
216.3662393942
 20
144.9884622305
 10
217.334440445
 20
144.9998773017
 10
218.3026533112
 20
145.0080310023
 10
219.2708785276
 20
145.0129232466
 10
220.2391057565
 20
145.0145542877
 10
221.2073352782
 20
145.0129243354
 10
222.1755673725
 20
145.0080331798
 10
223.1437917006
 20
144.999880429
 10
224.1120087974
 20
144.9884661691
 10
225.080218685
 20
144.9737902499
 10
226.0484102549
 20
144.9558519093
 10
227.0165840176
 20
144.9346512636
 10
227.9847400102
 20
144.9101880685
 10
228.9528664113
 20
144.8824610047
 10
229.9209594584
 20
144.8514695685
 10
230.8890234461
 20
144.8172140719
  0
LWPOLYLINE
  5
4CA
100
AcDbEntity
  8
ASSI
100
AcDbPolyline
 62
253
  6
CONTINUOUS
 90
24
 70
0
 10
208.6214830222
 20
144.7796944035
 10
209.589465458
 20
144.8172121939
 10
210.5574812856
 20
144.85146623
 10
211.5255307657
 20
144.8824566233
 10
212.4936181963
 20
144.9101831081
 10
213.4617398115
 20
144.9346461417
 10
214.4298837804
 20
144.9558469039
 10
215.3980501367
 20
144.9737856389
 10
216.3662393942
 20
144.9884622305
 10
217.334440445
 20
144.9998773017
 10
218.3026533112
 20
145.0080310023
 10
219.2708785276
 20
145.0129232466
 10
220.2391057565
 20
145.0145542877
 10
221.2073352782
 20
145.0129243354
 10
222.1755673725
 20
145.0080331798
 10
223.1437917006
 20
144.999880429
 10
224.1120087974
 20
144.9884661691
 10
225.080218685
 20
144.9737902499
 10
226.0484102549
 20
144.9558519093
 10
227.0165840176
 20
144.9346512636
 10
227.9847400102
 20
144.9101880685
 10
228.9528664113
 20
144.8824610047
 10
229.9209594584
 20
144.8514695685
 10
230.8890234461
 20
144.8172140719
  0
LWPOLYLINE
  5
4CB
100
AcDbEntity
  8
0
100
AcDbPolyline
 62
253
  6
CONTINUOUS
 90
24
 70
0
 10
208.6059112322
 20
145.220677542
 10
209.5751734966
 20
145.2582077104
 10
210.5444918548
 20
145.2924725363
 10
211.5138549715
 20
145.3234723906
 10
212.4832437869
 20
145.3512074332
 10
213.4526547016
 20
145.3756782984
 10
214.4220995825
 20
145.3968858344
 10
215.391567564
 20
145.4148301863
 10
216.3610468878
 20
145.4295114801
 10
217.3305483123
 20
145.4409301254
 10
218.3000620951
 20
145.4490862728
 10
219.269577757
 20
145.4539800903
 10
220.2391057144
 20
145.4556117423
 10
221.2086359669
 20
145.4539811937
 10
222.178158514
 20
145.4490884333
 10
223.147683773
 20
145.4409332504
 10
224.1172012624
 20
145.4295154307
 10
225.0867012406
 20
145.4148347773
 10
226.0561944689
 20
145.3968908341
 10
227.0256691969
 20
145.3756834286
 10
227.9951145476
 20
145.3512123695
 10
228.964542362
 20
145.3234767629
 10
229.9339490303
 20
145.2924759287
 10
230.9033154977
 20
145.2582096608
  0
LWPOLYLINE
  5
4CC
100
AcDbEntity
  8
ASSI
100
AcDbPolyline
 62
253
  6
CONTINUOUS
 90
24
 70
0
 10
208.6059112322
 20
145.220677542
 10
209.5751734966
 20
145.2582077104
 10
210.5444918548
 20
145.2924725363
 10
211.5138549715
 20
145.3234723906
 10
212.4832437869
 20
145.3512074332
 10
213.4526547016
 20
145.3756782984
 10
214.4220995825
 20
145.3968858344
 10
215.391567564
 20
145.4148301863
 10
216.3610468878
 20
145.4295114801
 10
217.3305483123
 20
145.4409301254
 10
218.3000620951
 20
145.4490862728
 10
219.269577757
 20
145.4539800903
 10
220.2391057144
 20
145.4556117423
 10
221.2086359669
 20
145.4539811937
 10
222.178158514
 20
145.4490884333
 10
223.147683773
 20
145.4409332504
 10
224.1172012624
 20
145.4295154307
 10
225.0867012406
 20
145.4148347773
 10
226.0561944689
 20
145.3968908341
 10
227.0256691969
 20
145.3756834286
 10
227.9951145476
 20
145.3512123695
 10
228.964542362
 20
145.3234767629
 10
229.9339490303
 20
145.2924759287
 10
230.9033154977
 20
145.2582096608
  0
LINE
  5
4CD
100
AcDbEntity
  8
0
100
AcDbLine
 62
253
  6
CONTINUOUS
 10
230.8890234461
 20
144.8172140719
 11
231.8943460544
 21
144.7781837372
  0
LINE
  5
4CE
100
AcDbEntity
  8
ASSI
100
AcDbLine
 62
253
  6
CONTINUOUS
 10
230.8890234461
 20
144.8172140719
 11
231.8943460544
 21
144.7781837372
  0
LINE
  5
4CF
100
AcDbEntity
  8
0
100
AcDbLine
 62
253
  6
CONTINUOUS
 10
230.9033154977
 20
145.2582096608
 11
231.9099693104
 21
145.2191663367
  0
LINE
  5
4D0
100
AcDbEntity
  8
ASSI
100
AcDbLine
 62
253
  6
CONTINUOUS
 10
230.9033154977
 20
145.2582096608
 11
231.9099693104
 21
145.2191663367
  0
LWPOLYLINE
  5
4D1
100
AcDbEntity
  8
0
100
AcDbPolyline
 62
253
  6
CONTINUOUS
 90
10
 70
0
 10
231.8943460544
 20
144.7781837372
 10
233.4741875171
 20
144.7097457544
 10
235.0533977103
 20
144.6326441185
 10
236.6319727344
 20
144.5468781677
 10
238.2099240892
 20
144.4524433204
 10
239.787232299
 20
144.3493426203
 10
241.3638468981
 20
144.2375867396
 10
242.9397482473
 20
144.117178585
 10
244.5149475303
 20
143.9881132983
 10
246.0894403751
 20
143.8503898031
  0
LWPOLYLINE
  5
4D2
100
AcDbEntity
  8
ASSI
100
AcDbPolyline
 62
253
  6
CONTINUOUS
 90
10
 70
0
 10
231.8943460544
 20
144.7781837372
 10
233.4741875171
 20
144.7097457544
 10
235.0533977103
 20
144.6326441185
 10
236.6319727344
 20
144.5468781677
 10
238.2099240892
 20
144.4524433204
 10
239.787232299
 20
144.3493426203
 10
241.3638468981
 20
144.2375867396
 10
242.9397482473
 20
144.117178585
 10
244.5149475303
 20
143.9881132983
 10
246.0894403751
 20
143.8503898031
  0
LWPOLYLINE
  5
4D3
100
AcDbEntity
  8
0
100
AcDbPolyline
 62
253
  6
CONTINUOUS
 90
10
 70
0
 10
231.9099693104
 20
145.2191663367
 10
233.49120658
 20
145.1507132114
 10
235.0718979542
 20
145.0735817563
 10
236.6519997849
 20
144.9877763898
 10
238.2314303207
 20
144.8933041012
 10
239.8101681736
 20
144.7901691863
 10
241.3882601238
 20
144.6783702755
 10
242.9656847936
 20
144.5579092657
 10
244.5423606363
 20
144.4287932507
 10
246.1182440365
 20
144.2910269107
  0
LWPOLYLINE
  5
4D4
100
AcDbEntity
  8
ASSI
100
AcDbPolyline
 62
253
  6
CONTINUOUS
 90
10
 70
0
 10
231.9099693104
 20
145.2191663367
 10
233.49120658
 20
145.1507132114
 10
235.0718979542
 20
145.0735817563
 10
236.6519997849
 20
144.9877763898
 10
238.2314303207
 20
144.8933041012
 10
239.8101681736
 20
144.7901691863
 10
241.3882601238
 20
144.6783702755
 10
242.9656847936
 20
144.5579092657
 10
244.5423606363
 20
144.4287932507
 10
246.1182440365
 20
144.2910269107
  0
LWPOLYLINE
  5
4D5
100
AcDbEntity
  8
0
100
AcDbPolyline
 62
253
  6
CONTINUOUS
 90
10
 70
0
 10
246.0894403751
 20
143.8503898031
 10
246.6079517379
 20
143.8023217972
 10
247.1348958601
 20
143.7499626235
 10
247.6702729506
 20
143.6933120645
 10
248.2141110388
 20
143.6325359738
 10
248.7663823909
 20
143.5674680185
 10
249.3270036775
 20
143.4976096448
 10
249.8959473347
 20
143.4227944329
 10
250.4732413901
 20
143.3431881322
 10
251.0588859986
 20
143.25879038
  0
LWPOLYLINE
  5
4D6
100
AcDbEntity
  8
ASSI
100
AcDbPolyline
 62
253
  6
CONTINUOUS
 90
10
 70
0
 10
246.0894403751
 20
143.8503898031
 10
246.6079517379
 20
143.8023217972
 10
247.1348958601
 20
143.7499626235
 10
247.6702729506
 20
143.6933120645
 10
248.2141110388
 20
143.6325359738
 10
248.7663823909
 20
143.5674680185
 10
249.3270036775
 20
143.4976096448
 10
249.8959473347
 20
143.4227944329
 10
250.4732413901
 20
143.3431881322
 10
251.0588859986
 20
143.25879038
  0
LWPOLYLINE
  5
4D7
100
AcDbEntity
  8
0
100
AcDbPolyline
 62
253
  6
CONTINUOUS
 90
10
 70
0
 10
246.1182440365
 20
144.2910269109
 10
246.6391988238
 20
144.2424818831
 10
247.1686993836
 20
144.1899470392
 10
247.7067107745
 20
144.1332643752
 10
248.253185408
 20
144.0722746295
 10
248.8080953045
 20
144.0068139522
 10
249.3714314952
 20
143.9367131675
 10
249.9431613775
 20
143.8618027144
 10
250.5232279024
 20
143.7819136727
 10
251.1115815248
 20
143.6968736204
  0
LWPOLYLINE
  5
4D8
100
AcDbEntity
  8
ASSI
100
AcDbPolyline
 62
253
  6
CONTINUOUS
 90
10
 70
0
 10
246.1182440365
 20
144.2910269109
 10
246.6391988238
 20
144.2424818831
 10
247.1686993836
 20
144.1899470392
 10
247.7067107745
 20
144.1332643752
 10
248.253185408
 20
144.0722746295
 10
248.8080953045
 20
144.0068139522
 10
249.3714314952
 20
143.9367131675
 10
249.9431613775
 20
143.8618027144
 10
250.5232279024
 20
143.7819136727
 10
251.1115815248
 20
143.6968736204
  0
LINE
  5
4D9
100
AcDbEntity
  8
0
100
AcDbLine
 62
253
  6
CONTINUOUS
 10
265.3817791296
 20
125.931509444
 11
265.4296990711
 21
125.4973073942
  0
LINE
  5
4DA
100
AcDbEntity
  8
ASSI
100
AcDbLine
 62
253
  6
CONTINUOUS
 10
265.3817791296
 20
125.931509444
 11
265.4296990711
 21
125.4973073942
  0
LINE
  5
4DB
100
AcDbEntity
  8
0
100
AcDbLine
 62
253
  6
CONTINUOUS
 10
265.8429376897
 20
125.9594561226
 11
265.8909206682
 21
125.5249703243
  0
LINE
  5
4DC
100
AcDbEntity
  8
ASSI
100
AcDbLine
 62
253
  6
CONTINUOUS
 10
265.8429376897
 20
125.9594561226
 11
265.8909206682
 21
125.5249703243
  0
LWPOLYLINE
  5
4DD
100
AcDbEntity
  8
0
100
AcDbPolyline
 62
253
  6
CONTINUOUS
 90
37
 70
0
 10
264.8091126962
 20
66.7452799587
 10
264.6995793103
 20
66.1858755233
 10
264.5709536695
 20
65.6315940741
 10
264.4232409099
 20
65.0824352694
 10
264.2562261753
 20
64.5376678394
 10
264.0701343325
 20
63.9980223645
 10
263.8656304244
 20
63.4656903873
 10
263.6426332846
 20
62.9407208252
 10
263.4012344606
 20
62.4230619006
 10
263.1423585329
 20
61.9147524547
 10
262.8659377484
 20
61.4158490144
 10
262.5720497173
 20
60.9262903013
 10
262.2618371203
 20
60.4479369148
 10
261.9352672195
 20
59.9808704265
 10
261.5923813536
 20
59.5250028622
 10
261.2344330119
 20
59.0819391852
 10
260.8613862517
 20
58.6517300146
 10
260.4732837334
 20
58.2343171024
 10
260.0714962622
 20
57.8311410428
 10
259.6559950377
 20
57.4422499321
 10
259.2268132204
 20
57.0675872394
 10
258.785413765
 20
56.7084357897
 10
258.3317351258
 20
56.3648215025
 10
257.8658405259
 20
56.0367097036
 10
257.3893791505
 20
55.725291734
 10
256.9021788091
 20
55.4305709302
 10
256.4044105023
 20
55.1525353585
 10
255.8982372006
 20
54.8923530669
 10
255.3835674857
 20
54.6501268008
 10
254.8604886647
 20
54.42574583
 10
254.3314308517
 20
54.2200578669
 10
253.7963611474
 20
54.0331993704
 10
253.2553057317
 20
53.8650271222
 10
252.7107826531
 20
53.7159695068
 10
252.1636283625
 20
53.5861676148
 10
251.612997732
 20
53.4754753261
 10
251.0588859986
 20
53.3838906315
  0
LWPOLYLINE
  5
4DE
100
AcDbEntity
  8
ASSI
100
AcDbPolyline
 62
253
  6
CONTINUOUS
 90
37
 70
0
 10
264.8091126962
 20
66.7452799587
 10
264.6995793103
 20
66.1858755233
 10
264.5709536695
 20
65.6315940741
 10
264.4232409099
 20
65.0824352694
 10
264.2562261753
 20
64.5376678394
 10
264.0701343325
 20
63.9980223645
 10
263.8656304244
 20
63.4656903873
 10
263.6426332846
 20
62.9407208252
 10
263.4012344606
 20
62.4230619006
 10
263.1423585329
 20
61.9147524547
 10
262.8659377484
 20
61.4158490144
 10
262.5720497173
 20
60.9262903013
 10
262.2618371203
 20
60.4479369148
 10
261.9352672195
 20
59.9808704265
 10
261.5923813536
 20
59.5250028622
 10
261.2344330119
 20
59.0819391852
 10
260.8613862517
 20
58.6517300146
 10
260.4732837334
 20
58.2343171024
 10
260.0714962622
 20
57.8311410428
 10
259.6559950377
 20
57.4422499321
 10
259.2268132204
 20
57.0675872394
 10
258.785413765
 20
56.7084357897
 10
258.3317351258
 20
56.3648215025
 10
257.8658405259
 20
56.0367097036
 10
257.3893791505
 20
55.725291734
 10
256.9021788091
 20
55.4305709302
 10
256.4044105023
 20
55.1525353585
 10
255.8982372006
 20
54.8923530669
 10
255.3835674857
 20
54.6501268008
 10
254.8604886647
 20
54.42574583
 10
254.3314308517
 20
54.2200578669
 10
253.7963611474
 20
54.0331993704
 10
253.2553057317
 20
53.8650271222
 10
252.7107826531
 20
53.7159695068
 10
252.1636283625
 20
53.5861676148
 10
251.612997732
 20
53.4754753261
 10
251.0588859986
 20
53.3838906315
  0
LWPOLYLINE
  5
4DF
100
AcDbEntity
  8
0
100
AcDbPolyline
 62
253
  6
CONTINUOUS
 90
37
 70
0
 10
265.2659476617
 20
66.690744535
 10
265.1533147728
 20
66.1162595606
 10
265.0207623878
 20
65.5457083626
 10
264.8684141384
 20
64.979777129
 10
264.6963895132
 20
64.4191018234
 10
264.5048926348
 20
63.8644291706
 10
264.2941918461
 20
63.3166099943
 10
264.0645237082
 20
62.7763368931
 10
263.8161673698
 20
62.2442657466
 10
263.5494861716
 20
61.7211824412
 10
263.2648077437
 20
61.2077467011
 10
262.9624911367
 20
60.7045652137
 10
262.6429696205
 20
60.2123333783
 10
262.3066578746
 20
59.7316779136
 10
261.9539633569
 20
59.2631264047
 10
261.585316676
 20
58.8072205171
 10
261.2011669297
 20
58.3645075518
 10
260.8019816684
 20
57.9354859214
 10
260.3882156635
 20
57.5206271578
 10
259.9603677659
 20
57.1204350714
 10
259.5189471068
 20
56.7353594766
 10
259.0644154604
 20
56.3658006469
 10
258.5972774846
 20
56.0121905866
 10
258.1181129589
 20
55.6749621081
 10
257.6274921081
 20
55.3545235014
 10
257.1258605756
 20
55.0511960626
 10
256.6139353887
 20
54.7654178283
 10
256.0927177738
 20
54.4977318887
 10
255.5627989164
 20
54.2484161223
 10
255.0248629657
 20
54.0177430238
 10
254.4800931859
 20
53.8061514324
 10
253.9291751599
 20
53.613820073
 10
253.3727727818
 20
53.4408724982
 10
252.8120673144
 20
53.2875557586
 10
252.2479170127
 20
53.1539596008
 10
251.6808561464
 20
53.0400442007
 10
251.1115816726
 20
52.9458074082
  0
LWPOLYLINE
  5
4E0
100
AcDbEntity
  8
ASSI
100
AcDbPolyline
 62
253
  6
CONTINUOUS
 90
37
 70
0
 10
265.2659476617
 20
66.690744535
 10
265.1533147728
 20
66.1162595606
 10
265.0207623878
 20
65.5457083626
 10
264.8684141384
 20
64.979777129
 10
264.6963895132
 20
64.4191018234
 10
264.5048926348
 20
63.8644291706
 10
264.2941918461
 20
63.3166099943
 10
264.0645237082
 20
62.7763368931
 10
263.8161673698
 20
62.2442657466
 10
263.5494861716
 20
61.7211824412
 10
263.2648077437
 20
61.2077467011
 10
262.9624911367
 20
60.7045652137
 10
262.6429696205
 20
60.2123333783
 10
262.3066578746
 20
59.7316779136
 10
261.9539633569
 20
59.2631264047
 10
261.585316676
 20
58.8072205171
 10
261.2011669297
 20
58.3645075518
 10
260.8019816684
 20
57.9354859214
 10
260.3882156635
 20
57.5206271578
 10
259.9603677659
 20
57.1204350714
 10
259.5189471068
 20
56.7353594766
 10
259.0644154604
 20
56.3658006469
 10
258.5972774846
 20
56.0121905866
 10
258.1181129589
 20
55.6749621081
 10
257.6274921081
 20
55.3545235014
 10
257.1258605756
 20
55.0511960626
 10
256.6139353887
 20
54.7654178283
 10
256.0927177738
 20
54.4977318887
 10
255.5627989164
 20
54.2484161223
 10
255.0248629657
 20
54.0177430238
 10
254.4800931859
 20
53.8061514324
 10
253.9291751599
 20
53.613820073
 10
253.3727727818
 20
53.4408724982
 10
252.8120673144
 20
53.2875557586
 10
252.2479170127
 20
53.1539596008
 10
251.6808561464
 20
53.0400442007
 10
251.1115816726
 20
52.9458074082
  0
LWPOLYLINE
  5
4E1
100
AcDbEntity
  8
0
100
AcDbPolyline
 62
253
  6
CONTINUOUS
 90
10
 70
0
 10
189.3669599857
 20
143.6968735986
 10
189.9552949313
 20
143.7819110166
 10
190.5353474131
 20
143.8617982989
 10
191.1070679013
 20
143.9367077706
 10
191.6703993468
 20
144.0068082562
 10
192.2253091749
 20
144.0722692273
 10
192.7717884716
 20
144.1332597755
 10
193.3098092823
 20
144.1899436655
 10
193.839324012
 20
144.242480073
 10
194.360297726
 20
144.2910269204
  0
LWPOLYLINE
  5
4E2
100
AcDbEntity
  8
ASSI
100
AcDbPolyline
 62
253
  6
CONTINUOUS
 90
10
 70
0
 10
189.3669599857
 20
143.6968735986
 10
189.9552949313
 20
143.7819110166
 10
190.5353474131
 20
143.8617982989
 10
191.1070679013
 20
143.9367077706
 10
191.6703993468
 20
144.0068082562
 10
192.2253091749
 20
144.0722692273
 10
192.7717884716
 20
144.1332597755
 10
193.3098092823
 20
144.1899436655
 10
193.839324012
 20
144.242480073
 10
194.360297726
 20
144.2910269204
  0
LWPOLYLINE
  5
4E3
100
AcDbEntity
  8
0
100
AcDbPolyline
 62
253
  6
CONTINUOUS
 90
37
 70
0
 10
251.0588859986
 20
143.25879038
 10
251.6129740649
 20
143.1672109364
 10
252.1635862862
 20
143.0565233487
 10
252.7107274254
 20
142.9267256079
 10
253.255244046
 20
142.7776714717
 10
253.7962982613
 20
142.6095021528
 10
254.3313677144
 20
142.4226464016
 10
254.8604254034
 20
142.2169608491
 10
255.3835050499
 20
141.9925821049
 10
255.8981746986
 20
141.7503586988
 10
256.4043465825
 20
141.4901799003
 10
256.9021125798
 20
141.2121484556
 10
257.3893092592
 20
140.9174332315
 10
257.8657647073
 20
140.6060230126
 10
258.3316520271
 20
140.2779204182
 10
258.785324311
 20
139.9343154541
 10
259.2267186769
 20
139.5751735843
 10
259.65589633
 20
139.2005205905
 10
260.0713955709
 20
138.8116375494
 10
260.4731844394
 20
138.4084666621
 10
260.8612905364
 20
137.9910572916
 10
261.2343407135
 20
137.560852086
 10
261.5922919334
 20
137.1177926026
 10
261.935180516
 20
136.6619296554
 10
262.2617517589
 20
136.1948708477
 10
262.5719629562
 20
135.7165305015
 10
262.8658482141
 20
135.2269878948
 10
263.1422677422
 20
134.7280993824
 10
263.4011445031
 20
134.2198042273
 10
263.6425456779
 20
133.702158414
 10
263.8655478593
 20
133.1771949094
 10
264.0700601281
 20
132.644862958
 10
264.2561630206
 20
132.1052104502
 10
264.4231907765
 20
131.5604199736
 10
264.570918286
 20
131.011219119
 10
264.6995606395
 20
130.4568795944
 10
264.8091126962
 20
129.8974010528
  0
LWPOLYLINE
  5
4E4
100
AcDbEntity
  8
ASSI
100
AcDbPolyline
 62
253
  6
CONTINUOUS
 90
37
 70
0
 10
251.0588859986
 20
143.25879038
 10
251.6129740649
 20
143.1672109364
 10
252.1635862862
 20
143.0565233487
 10
252.7107274254
 20
142.9267256079
 10
253.255244046
 20
142.7776714717
 10
253.7962982613
 20
142.6095021528
 10
254.3313677144
 20
142.4226464016
 10
254.8604254034
 20
142.2169608491
 10
255.3835050499
 20
141.9925821049
 10
255.8981746986
 20
141.7503586988
 10
256.4043465825
 20
141.4901799003
 10
256.9021125798
 20
141.2121484556
 10
257.3893092592
 20
140.9174332315
 10
257.8657647073
 20
140.6060230126
 10
258.3316520271
 20
140.2779204182
 10
258.785324311
 20
139.9343154541
 10
259.2267186769
 20
139.5751735843
 10
259.65589633
 20
139.2005205905
 10
260.0713955709
 20
138.8116375494
 10
260.4731844394
 20
138.4084666621
 10
260.8612905364
 20
137.9910572916
 10
261.2343407135
 20
137.560852086
 10
261.5922919334
 20
137.1177926026
 10
261.935180516
 20
136.6619296554
 10
262.2617517589
 20
136.1948708477
 10
262.5719629562
 20
135.7165305015
 10
262.8658482141
 20
135.2269878948
 10
263.1422677422
 20
134.7280993824
 10
263.4011445031
 20
134.2198042273
 10
263.6425456779
 20
133.702158414
 10
263.8655478593
 20
133.1771949094
 10
264.0700601281
 20
132.644862958
 10
264.2561630206
 20
132.1052104502
 10
264.4231907765
 20
131.5604199736
 10
264.570918286
 20
131.011219119
 10
264.6995606395
 20
130.4568795944
 10
264.8091126962
 20
129.8974010528
  0
LWPOLYLINE
  5
4E5
100
AcDbEntity
  8
0
100
AcDbPolyline
 62
253
  6
CONTINUOUS
 90
37
 70
0
 10
251.1115815255
 20
143.6968736251
 10
251.6808394784
 20
143.6026398632
 10
252.2478872878
 20
143.4887279131
 10
252.8120279767
 20
143.3551352847
 10
253.3727279895
 20
143.2018215936
 10
253.9291282282
 20
143.0288764183
 10
254.4800451139
 20
142.8365472988
 10
255.0248146629
 20
142.6249577168
 10
255.5627513241
 20
142.3942862805
 10
256.0926698513
 20
142.1449726928
 10
256.613885769
 20
141.8772897643
 10
257.125808354
 20
141.5915153011
 10
257.6274357242
 20
141.2881929553
 10
258.1180500188
 20
140.9677615867
 10
258.5972067433
 20
140.6305420683
 10
259.0643378963
 20
140.2769412235
 10
259.518863837
 20
139.9073916707
 10
259.9602797448
 20
139.5223254539
 10
260.3881253162
 20
139.1221413483
 10
260.8018924729
 20
138.7072876786
 10
261.2010808684
 20
138.278269231
 10
261.5852334638
 20
137.8355598237
 10
261.9538827037
 20
137.3796579695
 10
262.3065795926
 20
136.9111109404
 10
262.6428919105
 20
136.430462909
 10
262.9624110727
 20
135.9382439595
 10
263.264724327
 20
135.4350787763
 10
263.5494011824
 20
134.9216583413
 10
263.8160823403
 20
134.3985894631
 10
264.0644401767
 20
133.8665315004
 10
264.2941134763
 20
133.3262646581
 10
264.5048222962
 20
132.7784446527
 10
264.6963293961
 20
132.2237636379
 10
264.868367487
 20
131.6630659141
 10
265.0207315323
 20
131.097095737
 10
265.1532999008
 20
130.5264909055
 10
265.265947486
 20
129.9519374629
  0
LWPOLYLINE
  5
4E6
100
AcDbEntity
  8
ASSI
100
AcDbPolyline
 62
253
  6
CONTINUOUS
 90
37
 70
0
 10
251.1115815255
 20
143.6968736251
 10
251.6808394784
 20
143.6026398632
 10
252.2478872878
 20
143.4887279131
 10
252.8120279767
 20
143.3551352847
 10
253.3727279895
 20
143.2018215936
 10
253.9291282282
 20
143.0288764183
 10
254.4800451139
 20
142.8365472988
 10
255.0248146629
 20
142.6249577168
 10
255.5627513241
 20
142.3942862805
 10
256.0926698513
 20
142.1449726928
 10
256.613885769
 20
141.8772897643
 10
257.125808354
 20
141.5915153011
 10
257.6274357242
 20
141.2881929553
 10
258.1180500188
 20
140.9677615867
 10
258.5972067433
 20
140.6305420683
 10
259.0643378963
 20
140.2769412235
 10
259.518863837
 20
139.9073916707
 10
259.9602797448
 20
139.5223254539
 10
260.3881253162
 20
139.1221413483
 10
260.8018924729
 20
138.7072876786
 10
261.2010808684
 20
138.278269231
 10
261.5852334638
 20
137.8355598237
 10
261.9538827037
 20
137.3796579695
 10
262.3065795926
 20
136.9111109404
 10
262.6428919105
 20
136.430462909
 10
262.9624110727
 20
135.9382439595
 10
263.264724327
 20
135.4350787763
 10
263.5494011824
 20
134.9216583413
 10
263.8160823403
 20
134.3985894631
 10
264.0644401767
 20
133.8665315004
 10
264.2941134763
 20
133.3262646581
 10
264.5048222962
 20
132.7784446527
 10
264.6963293961
 20
132.2237636379
 10
264.868367487
 20
131.6630659141
 10
265.0207315323
 20
131.097095737
 10
265.1532999008
 20
130.5264909055
 10
265.265947486
 20
129.9519374629
  0
LWPOLYLINE
  5
4E7
100
AcDbEntity
  8
0
100
AcDbPolyline
 62
253
  6
CONTINUOUS
 90
10
 70
0
 10
264.8091126962
 20
129.8974010528
 10
264.8854775267
 20
129.4588384073
 10
264.9586614745
 20
129.0197459191
 10
265.0286638019
 20
128.5801241746
 10
265.0954854531
 20
128.1399664837
 10
265.1591240476
 20
127.6992807226
 10
265.2195738855
 20
127.2580893397
 10
265.27683262
 20
126.8164002291
 10
265.3309012524
 20
126.3742067239
 10
265.3817791296
 20
125.931509444
  0
LWPOLYLINE
  5
4E8
100
AcDbEntity
  8
ASSI
100
AcDbPolyline
 62
253
  6
CONTINUOUS
 90
10
 70
0
 10
264.8091126962
 20
129.8974010528
 10
264.8854775267
 20
129.4588384073
 10
264.9586614745
 20
129.0197459191
 10
265.0286638019
 20
128.5801241746
 10
265.0954854531
 20
128.1399664837
 10
265.1591240476
 20
127.6992807226
 10
265.2195738855
 20
127.2580893397
 10
265.27683262
 20
126.8164002291
 10
265.3309012524
 20
126.3742067239
 10
265.3817791296
 20
125.931509444
  0
LWPOLYLINE
  5
4E9
100
AcDbEntity
  8
0
100
AcDbPolyline
 62
253
  6
CONTINUOUS
 90
10
 70
0
 10
265.2659474689
 20
129.9519374598
 10
265.3428749373
 20
129.5105025528
 10
265.4166075886
 20
129.0684796682
 10
265.4871406216
 20
128.625892031
 10
265.5544675619
 20
128.1827747268
 10
265.6185860697
 20
127.7391382888
 10
265.6794967583
 20
127.2949690424
 10
265.7371962226
 20
126.8502774309
 10
265.7916780809
 20
126.4050986554
 10
265.8429376914
 20
125.9594561228
  0
LWPOLYLINE
  5
4EA
100
AcDbEntity
  8
ASSI
100
AcDbPolyline
 62
253
  6
CONTINUOUS
 90
10
 70
0
 10
265.2659474689
 20
129.9519374598
 10
265.3428749373
 20
129.5105025528
 10
265.4166075886
 20
129.0684796682
 10
265.4871406216
 20
128.625892031
 10
265.5544675619
 20
128.1827747268
 10
265.6185860697
 20
127.7391382888
 10
265.6794967583
 20
127.2949690424
 10
265.7371962226
 20
126.8502774309
 10
265.7916780809
 20
126.4050986554
 10
265.8429376914
 20
125.9594561228
  0
LWPOLYLINE
  5
4EB
100
AcDbEntity
  8
0
100
AcDbPolyline
 62
253
  6
CONTINUOUS
 90
14
 70
0
 10
143.7604667866
 20
145.2044769709
 10
143.7170831536
 20
145.1903175564
 10
143.6751715277
 20
145.1722648668
 10
143.6350810758
 20
145.1504692993
 10
143.5971457924
 20
145.1251124333
 10
143.5616817173
 20
145.0964055176
 10
143.5289843026
 20
145.0645877102
 10
143.4993259512
 20
145.0299240859
 10
143.4729537475
 20
144.9927034284
 10
143.4500873992
 20
144.9532358237
 10
143.4309174062
 20
144.9118500776
 10
143.4156034742
 20
144.8688909756
 10
143.404273184
 20
144.8247164111
 10
143.3970209286
 20
144.7796944035
  0
LWPOLYLINE
  5
4EC
100
AcDbEntity
  8
ASSI
100
AcDbPolyline
 62
253
  6
CONTINUOUS
 90
14
 70
0
 10
143.7604667866
 20
145.2044769709
 10
143.7170831536
 20
145.1903175564
 10
143.6751715277
 20
145.1722648668
 10
143.6350810758
 20
145.1504692993
 10
143.5971457924
 20
145.1251124333
 10
143.5616817173
 20
145.0964055176
 10
143.5289843026
 20
145.0645877102
 10
143.4993259512
 20
145.0299240859
 10
143.4729537475
 20
144.9927034284
 10
143.4500873992
 20
144.9532358237
 10
143.4309174062
 20
144.9118500776
 10
143.4156034742
 20
144.8688909756
 10
143.404273184
 20
144.8247164111
 10
143.3970209286
 20
144.7796944035
  0
LWPOLYLINE
  5
4ED
100
AcDbEntity
  8
0
100
AcDbPolyline
 62
253
  6
CONTINUOUS
 90
13
 70
0
 10
146.4234186978
 20
51.8063171346
 10
146.6961893424
 20
51.8394753423
 10
146.9670253803
 20
51.8858223204
 10
147.2352885139
 20
51.9452488399
 10
147.5003465094
 20
52.0176148462
 10
147.7615746866
 20
52.1027497896
 10
148.0183573916
 20
52.2004530268
 10
148.270089447
 20
52.3104942939
 10
148.5161775791
 20
52.4326142493
 10
148.7560418152
 20
52.5665250845
 10
148.9891168512
 20
52.711911203
 10
149.2148533832
 20
52.8684299633
 10
149.4327194029
 20
53.0357124872
  0
LWPOLYLINE
  5
4EE
100
AcDbEntity
  8
0
100
AcDbPolyline
 62
253
  6
CONTINUOUS
 90
13
 70
0
 10
146.6301017426
 20
52.7344121357
 10
146.8813278577
 20
52.7637794434
 10
147.130960813
 20
52.80430843
 10
147.3785015494
 20
52.8559180707
 10
147.6234551648
 20
52.9185050944
 10
147.8653319806
 20
52.9919444734
 10
148.1036485196
 20
53.0760896719
 10
148.3379283398
 20
53.1707724473
 10
148.5677030826
 20
53.2758035349
 10
148.7925134855
 20
53.3909733075
 10
149.0119101462
 20
53.5160516376
 10
149.2254544222
 20
53.650788359
 10
149.4327194029
 20
53.7949141134
  0
LINE
  5
4EF
100
AcDbEntity
  8
0
100
AcDbLine
 62
7
  6
CONTINUOUS
 10
145.9528911459
 20
51.0713405057
 11
145.1474228777
 21
51.0713405057
  0
LINE
  5
4F0
100
AcDbEntity
  8
ASSI
100
AcDbLine
 62
7
  6
CONTINUOUS
 10
145.9528911459
 20
51.0713405057
 11
145.1474228777
 21
51.0713405057
  0
LINE
  5
4F1
100
AcDbEntity
  8
RACCORDO
100
AcDbLine
 62
7
  6
CONTINUOUS
 10
146.3371605794
 20
52.0713405057
 11
146.1412532736
 21
52.0713405057
  0
LINE
  5
4F2
100
AcDbEntity
  8
0
100
AcDbLine
 62
253
  6
CONTINUOUS
 10
146.1845637126
 20
52.2364332517
 11
145.378930525
 21
52.2364332517
  0
LINE
  5
4F3
100
AcDbEntity
  8
ASSI
100
AcDbLine
 62
253
  6
CONTINUOUS
 10
146.1845637126
 20
52.2364332517
 11
145.378930525
 21
52.2364332517
  0
LINE
  5
4F4
100
AcDbEntity
  8
RACCORDO
100
AcDbLine
 62
253
  6
CONTINUOUS
 10
146.3659822528
 20
52.3059088063
 11
146.2023680631
 21
52.3059088063
  0
LINE
  5
4F5
100
AcDbEntity
  8
0
100
AcDbLine
 62
253
  6
CONTINUOUS
 10
146.3110988998
 20
52.8313405057
 11
145.5053534167
 21
52.8313405057
  0
LINE
  5
4F6
100
AcDbEntity
  8
ASSI
100
AcDbLine
 62
253
  6
CONTINUOUS
 10
146.3110988998
 20
52.8313405057
 11
145.5053534167
 21
52.8313405057
  0
LINE
  5
4F7
100
AcDbEntity
  8
RACCORDO
100
AcDbLine
 62
253
  6
CONTINUOUS
 10
146.572849512
 20
53.2323910196
 11
146.3524408012
 21
53.2323910145
  0
LINE
  5
4F8
100
AcDbEntity
  8
0
100
AcDbLine
 62
253
  6
CONTINUOUS
 10
145.5053534167
 20
52.8313405057
 11
144.1821263867
 21
52.9458074082
  0
LINE
  5
4F9
100
AcDbEntity
  8
ASSI
100
AcDbLine
 62
253
  6
CONTINUOUS
 10
145.5053534167
 20
52.8313405057
 11
144.1821263867
 21
52.9458074082
  0
LINE
  5
4FA
100
AcDbEntity
  8
0
100
AcDbLine
 62
253
  6
CONTINUOUS
 10
145.378930525
 20
52.2364332517
 11
144.0563446188
 21
52.3516540911
  0
LINE
  5
4FB
100
AcDbEntity
  8
ASSI
100
AcDbLine
 62
253
  6
CONTINUOUS
 10
145.378930525
 20
52.2364332517
 11
144.0563446188
 21
52.3516540911
  0
LINE
  5
4FC
100
AcDbEntity
  8
0
100
AcDbLine
 62
7
  6
CONTINUOUS
 10
143.8214833578
 20
51.1870692691
 11
145.1442691757
 21
51.0713405057
  0
LINE
  5
4FD
100
AcDbEntity
  8
ASSI
100
AcDbLine
 62
7
  6
CONTINUOUS
 10
143.8214833578
 20
51.1870692691
 11
145.1442691757
 21
51.0713405057
  0
LINE
  5
4FE
100
AcDbEntity
  8
0
100
AcDbLine
 62
253
  6
CONTINUOUS
 10
145.1726945955
 20
51.3063941134
 11
143.8501951016
 21
51.4220034695
  0
LINE
  5
4FF
100
AcDbEntity
  8
ASSI
100
AcDbLine
 62
253
  6
CONTINUOUS
 10
145.1726945955
 20
51.3063941134
 11
143.8501951016
 21
51.4220034695
  0
LWPOLYLINE
  5
500
100
AcDbEntity
  8
0
100
AcDbPolyline
 62
253
  6
CONTINUOUS
 90
16
 70
0
 10
143.8501951017
 20
51.4220034698
 10
143.8049609968
 20
51.4280558641
 10
143.7604667867
 20
51.4382040409
 10
143.7170831537
 20
51.4523634553
 10
143.6751715278
 20
51.470416145
 10
143.6350810759
 20
51.4922117124
 10
143.5971457925
 20
51.5175685784
 10
143.5616817174
 20
51.546275494
 10
143.5289843027
 20
51.5780933015
 10
143.4993259512
 20
51.6127569257
 10
143.4729537476
 20
51.6499775832
 10
143.4500873992
 20
51.6894451878
 10
143.4309174062
 20
51.730830934
 10
143.4156034742
 20
51.7737900359
 10
143.4042731841
 20
51.8179646004
 10
143.3970209286
 20
51.862986608
  0
LWPOLYLINE
  5
501
100
AcDbEntity
  8
ASSI
100
AcDbPolyline
 62
253
  6
CONTINUOUS
 90
16
 70
0
 10
143.8501951017
 20
51.4220034698
 10
143.8049609968
 20
51.4280558641
 10
143.7604667867
 20
51.4382040409
 10
143.7170831537
 20
51.4523634553
 10
143.6751715278
 20
51.470416145
 10
143.6350810759
 20
51.4922117124
 10
143.5971457925
 20
51.5175685784
 10
143.5616817174
 20
51.546275494
 10
143.5289843027
 20
51.5780933015
 10
143.4993259512
 20
51.6127569257
 10
143.4729537476
 20
51.6499775832
 10
143.4500873992
 20
51.6894451878
 10
143.4309174062
 20
51.730830934
 10
143.4156034742
 20
51.7737900359
 10
143.4042731841
 20
51.8179646004
 10
143.3970209286
 20
51.862986608
  0
LWPOLYLINE
  5
502
100
AcDbEntity
  8
0
100
AcDbPolyline
 62
253
  6
CONTINUOUS
 90
16
 70
0
 10
144.0563446531
 20
52.3516542204
 10
144.0111113144
 20
52.3577789279
 10
143.9666182546
 20
52.3679868643
 10
143.9232363425
 20
52.382192942
 10
143.8813271852
 20
52.4002787474
 10
143.8412401135
 20
52.4220935273
 10
143.8033092705
 20
52.4474554462
 10
143.767850826
 20
52.4761531015
 10
143.7351603415
 20
52.507947286
 10
143.7055103063
 20
52.5425729814
 10
143.6791478662
 20
52.5797415676
 10
143.6562927636
 20
52.6191432284
 10
143.6371355054
 20
52.660449534
 10
143.6218357759
 20
52.7033161784
 10
143.6105211047
 20
52.7473858498
 10
143.6032858047
 20
52.7922912084
  0
LWPOLYLINE
  5
503
100
AcDbEntity
  8
ASSI
100
AcDbPolyline
 62
253
  6
CONTINUOUS
 90
16
 70
0
 10
144.0563446531
 20
52.3516542204
 10
144.0111113144
 20
52.3577789279
 10
143.9666182546
 20
52.3679868643
 10
143.9232363425
 20
52.382192942
 10
143.8813271852
 20
52.4002787474
 10
143.8412401135
 20
52.4220935273
 10
143.8033092705
 20
52.4474554462
 10
143.767850826
 20
52.4761531015
 10
143.7351603415
 20
52.507947286
 10
143.7055103063
 20
52.5425729814
 10
143.6791478662
 20
52.5797415676
 10
143.6562927636
 20
52.6191432284
 10
143.6371355054
 20
52.660449534
 10
143.6218357759
 20
52.7033161784
 10
143.6105211047
 20
52.7473858498
 10
143.6032858047
 20
52.7922912084
  0
LWPOLYLINE
  5
504
100
AcDbEntity
  8
0
100
AcDbPolyline
 62
253
  6
CONTINUOUS
 90
16
 70
0
 10
144.1821287553
 20
52.9458208952
 10
144.1369222423
 20
52.9519769843
 10
144.0924549862
 20
52.9621831185
 10
144.0490972411
 20
52.9763543172
 10
144.0072100227
 20
52.9943725845
 10
143.9671421025
 20
53.0160878925
 10
143.9292271036
 20
53.04131943
 10
143.8937807231
 20
53.069857108
 10
143.8610981031
 20
53.1014633092
 10
143.8314513736
 20
53.1358748665
 10
143.8050873863
 20
53.1728052541
 10
143.7822256594
 20
53.2119469732
 10
143.7630565497
 20
53.2529741126
 10
143.7477396677
 20
53.2955450624
 10
143.7364025486
 20
53.3393053578
 10
143.7291395901
 20
53.3838906315
  0
LWPOLYLINE
  5
505
100
AcDbEntity
  8
ASSI
100
AcDbPolyline
 62
253
  6
CONTINUOUS
 90
16
 70
0
 10
144.1821287553
 20
52.9458208952
 10
144.1369222423
 20
52.9519769843
 10
144.0924549862
 20
52.9621831185
 10
144.0490972411
 20
52.9763543172
 10
144.0072100227
 20
52.9943725845
 10
143.9671421025
 20
53.0160878925
 10
143.9292271036
 20
53.04131943
 10
143.8937807231
 20
53.069857108
 10
143.8610981031
 20
53.1014633092
 10
143.8314513736
 20
53.1358748665
 10
143.8050873863
 20
53.1728052541
 10
143.7822256594
 20
53.2119469732
 10
143.7630565497
 20
53.2529741126
 10
143.7477396677
 20
53.2955450624
 10
143.7364025486
 20
53.3393053578
 10
143.7291395901
 20
53.3838906315
  0
LWPOLYLINE
  5
506
100
AcDbEntity
  8
0
100
AcDbPolyline
 62
253
  6
CONTINUOUS
 90
13
 70
0
 10
146.7563365596
 20
53.3259548978
 10
146.9948211304
 20
53.3531426352
 10
147.231885678
 20
53.3903256559
 10
147.4671031168
 20
53.4374369703
 10
147.7000496491
 20
53.4943914826
 10
147.9303056479
 20
53.5610868018
 10
148.157456412
 20
53.6374034206
 10
148.3810927024
 20
53.7232037741
 10
148.6008116355
 20
53.8183333358
 10
148.8162175254
 20
53.9226215358
 10
149.0269223517
 20
54.0358807348
 10
149.232546461
 20
54.1579065753
 10
149.4327194037
 20
54.2884791817
  0
LINE
  5
507
100
AcDbEntity
  8
RACCORDO
100
AcDbLine
 62
253
  6
CONTINUOUS
 10
146.6987097575
 20
53.8205692899
 11
146.3738226552
 21
53.8205668614
  0
LWPOLYLINE
  5
508
100
AcDbEntity
  8
0
100
AcDbPolyline
 62
253
  6
CONTINUOUS
 90
13
 70
0
 10
146.295175018
 20
66.7577813433
 10
146.5779139042
 20
66.7782454808
 10
146.8590840126
 20
66.8011118005
 10
147.1379762936
 20
66.8263226211
 10
147.4138876082
 20
66.8538115253
 10
147.6861220002
 20
66.8835120253
 10
147.9539924545
 20
66.9153576883
 10
148.2168235076
 20
66.9492673109
 10
148.4739523112
 20
66.9851562503
 10
148.7247298096
 20
67.0229450224
 10
148.9685233881
 20
67.0625419618
 10
149.2047184632
 20
67.1038435512
 10
149.4327193996
 20
67.1467456911
  0
LWPOLYLINE
  5
509
100
AcDbEntity
  8
RACCORDO
100
AcDbPolyline
 62
253
  6
CONTINUOUS
 90
8
 70
0
 10
145.939282634
 20
66.8453707998
 10
145.9194304145
 20
66.8444087146
 10
145.8997749419
 20
66.8438033895
 10
145.8805110133
 20
66.8435608236
 10
145.8618295455
 20
66.8436834208
 10
145.8439156829
 20
66.8441699661
 10
145.8269469623
 20
66.8450156375
 10
145.8219075763
 20
66.8453958992
  0
LWPOLYLINE
  5
50A
100
AcDbEntity
  8
0
100
AcDbPolyline
 62
253
  6
CONTINUOUS
 90
16
 70
0
 10
143.7308631848
 20
66.6906492778
 10
143.6845202946
 20
66.6891100567
 10
143.6389666024
 20
66.6883720557
 10
143.594601917
 20
66.6884417518
 10
143.5518156117
 20
66.6893185336
 10
143.5109832072
 20
66.6909947059
 10
143.472463075
 20
66.6934555578
 10
143.436593293
 20
66.6966794913
 10
143.4036886776
 20
66.7006382112
 10
143.3740380213
 20
66.7052969733
 10
143.3479015574
 20
66.7106148894
 10
143.3255086765
 20
66.7165452862
 10
143.3070559133
 20
66.7230361147
 10
143.292705221
 20
66.7300304074
 10
143.2825825508
 20
66.7374667779
 10
143.2767767457
 20
66.74527996
  0
LWPOLYLINE
  5
50B
100
AcDbEntity
  8
ASSI
100
AcDbPolyline
 62
253
  6
CONTINUOUS
 90
16
 70
0
 10
143.7308631848
 20
66.6906492778
 10
143.6845202946
 20
66.6891100567
 10
143.6389666024
 20
66.6883720557
 10
143.594601917
 20
66.6884417518
 10
143.5518156117
 20
66.6893185336
 10
143.5109832072
 20
66.6909947059
 10
143.472463075
 20
66.6934555578
 10
143.436593293
 20
66.6966794913
 10
143.4036886776
 20
66.7006382112
 10
143.3740380213
 20
66.7052969733
 10
143.3479015574
 20
66.7106148894
 10
143.3255086765
 20
66.7165452862
 10
143.3070559133
 20
66.7230361147
 10
143.292705221
 20
66.7300304074
 10
143.2825825508
 20
66.7374667779
 10
143.2767767457
 20
66.74527996
  0
LINE
  5
50C
100
AcDbEntity
  8
0
100
AcDbLine
 62
253
  6
CONTINUOUS
 10
145.8322166909
 20
66.670191995
 11
145.0283576158
 21
66.670191995
  0
LINE
  5
50D
100
AcDbEntity
  8
ASSI
100
AcDbLine
 62
253
  6
CONTINUOUS
 10
145.8322166909
 20
66.670191995
 11
145.0283576158
 21
66.670191995
  0
LINE
  5
50E
100
AcDbEntity
  8
RACCORDO
100
AcDbLine
 62
253
  6
CONTINUOUS
 10
146.2561608705
 20
66.8453706916
 11
145.9392826245
 21
66.8453708556
  0
LINE
  5
50F
100
AcDbEntity
  8
0
100
AcDbLine
 62
253
  6
CONTINUOUS
 10
145.0283576158
 20
66.670191995
 11
143.7308576021
 21
66.6907445382
  0
LINE
  5
510
100
AcDbEntity
  8
ASSI
100
AcDbLine
 62
253
  6
CONTINUOUS
 10
145.0283576158
 20
66.670191995
 11
143.7308576021
 21
66.6907445382
  0
LWPOLYLINE
  5
511
100
AcDbEntity
  8
0
100
AcDbPolyline
 62
253
  6
CONTINUOUS
 90
13
 70
0
 10
146.0747730054
 20
70.725494292
 10
146.3805977876
 20
70.7439811453
 10
146.6845914766
 20
70.7642136672
 10
146.9858581614
 20
70.78613222
 10
147.2835100866
 20
70.809669905
 10
147.5766699109
 20
70.834759677
 10
147.8644732939
 20
70.8613345226
 10
148.1460720779
 20
70.8893153741
 10
148.4206363093
 20
70.9186206232
 10
148.6873563309
 20
70.9491732292
 10
148.9454459185
 20
70.9808863458
 10
149.194144596
 20
71.0136636261
 10
149.4327194023
 20
71.0474087261
  0
LWPOLYLINE
  5
512
100
AcDbEntity
  8
RACCORDO
100
AcDbPolyline
 62
253
  6
CONTINUOUS
 90
8
 70
0
 10
145.7220893942
 20
70.7807965892
 10
145.7021739739
 20
70.779889035
 10
145.6824570437
 20
70.7792109977
 10
145.6631351154
 20
70.7787692348
 10
145.6444007637
 20
70.7785681493
 10
145.6264407074
 20
70.7786097454
 10
145.6094339483
 20
70.7788936085
 10
145.6044318782
 20
70.7790584029
  0
LWPOLYLINE
  5
513
100
AcDbEntity
  8
0
100
AcDbPolyline
 62
253
  6
CONTINUOUS
 90
16
 70
0
 10
143.5127243006
 20
70.6832227203
 10
143.4662257816
 20
70.6815556443
 10
143.4205225933
 20
70.6804093851
 10
143.3760182745
 20
70.6797940637
 10
143.3331057786
 20
70.6797151132
 10
143.2921640039
 20
70.6801732306
 10
143.2535544481
 20
70.6811643709
 10
143.2176180164
 20
70.6826797829
 10
143.1846720116
 20
70.6847060861
 10
143.1550073322
 20
70.6872253891
 10
143.1288859043
 20
70.6902154477
 10
143.1065383683
 20
70.6936498609
 10
143.0881620433
 20
70.6974983044
 10
143.0739191838
 20
70.7017267982
 10
143.0639355482
 20
70.7062980065
 10
143.0582992873
 20
70.7111715675
  0
LWPOLYLINE
  5
514
100
AcDbEntity
  8
ASSI
100
AcDbPolyline
 62
253
  6
CONTINUOUS
 90
16
 70
0
 10
143.5127243006
 20
70.6832227203
 10
143.4662257816
 20
70.6815556443
 10
143.4205225933
 20
70.6804093851
 10
143.3760182745
 20
70.6797940637
 10
143.3331057786
 20
70.6797151132
 10
143.2921640039
 20
70.6801732306
 10
143.2535544481
 20
70.6811643709
 10
143.2176180164
 20
70.6826797829
 10
143.1846720116
 20
70.6847060861
 10
143.1550073322
 20
70.6872253891
 10
143.1288859043
 20
70.6902154477
 10
143.1065383683
 20
70.6936498609
 10
143.0881620433
 20
70.6974983044
 10
143.0739191838
 20
70.7017267982
 10
143.0639355482
 20
70.7062980065
 10
143.0582992873
 20
70.7111715675
  0
LINE
  5
515
100
AcDbEntity
  8
0
100
AcDbLine
 62
253
  6
CONTINUOUS
 10
145.6100131925
 20
70.670191995
 11
144.8067134695
 21
70.670191995
  0
LINE
  5
516
100
AcDbEntity
  8
ASSI
100
AcDbLine
 62
253
  6
CONTINUOUS
 10
145.6100131925
 20
70.670191995
 11
144.8067134695
 21
70.670191995
  0
LINE
  5
517
100
AcDbEntity
  8
RACCORDO
100
AcDbLine
 62
253
  6
CONTINUOUS
 10
146.0379053086
 20
70.7807965891
 11
145.7220893926
 21
70.7807966207
  0
LINE
  5
518
100
AcDbEntity
  8
0
100
AcDbLine
 62
253
  6
CONTINUOUS
 10
144.8067134695
 20
70.670191995
 11
143.5127241854
 21
70.6832249556
  0
LINE
  5
519
100
AcDbEntity
  8
ASSI
100
AcDbLine
 62
253
  6
CONTINUOUS
 10
144.8067134695
 20
70.670191995
 11
143.5127241854
 21
70.6832249556
  0
LWPOLYLINE
  5
51A
100
AcDbEntity
  8
0
100
AcDbPolyline
 62
253
  6
CONTINUOUS
 90
16
 70
0
 10
145.8871572679
 20
74.7635405057
 10
146.1484543485
 20
74.7760946141
 10
146.4085275658
 20
74.7897408267
 10
146.6668184139
 20
74.8044498383
 10
146.9227722144
 20
74.8201900614
 10
147.1758393081
 20
74.836927694
 10
147.4254762346
 20
74.8546267921
 10
147.6711469
 20
74.8732493469
 10
147.9123237278
 20
74.8927553667
 10
148.1484887919
 20
74.9131029623
 10
148.3791349293
 20
74.9342484375
 10
148.6037668285
 20
74.9561463823
 10
148.8219020936
 20
74.9787497711
 10
149.0330722804
 20
75.0020100633
 10
149.236823902
 20
75.0258773074
 10
149.4327194029
 20
75.0503002487
  0
LINE
  5
51B
100
AcDbEntity
  8
RACCORDO
100
AcDbLine
 62
253
  6
CONTINUOUS
 10
145.5388338785
 20
74.7303719326
 11
145.5188929032
 21
74.729653472
  0
LWPOLYLINE
  5
51C
100
AcDbEntity
  8
RACCORDO
100
AcDbPolyline
 62
253
  6
CONTINUOUS
 90
8
 70
0
 10
145.535535316
 20
74.8107505258
 10
145.5155940241
 20
74.8100344789
 10
145.4958518033
 20
74.8095140964
 10
145.4765057372
 20
74.8091945734
 10
145.4577489549
 20
74.8090790995
 10
145.4397687025
 20
74.8091688276
 10
145.4227444743
 20
74.8094628618
 10
145.4183506219
 20
74.8095997785
  0
LWPOLYLINE
  5
51D
100
AcDbEntity
  8
0
100
AcDbPolyline
 62
253
  6
CONTINUOUS
 90
16
 70
0
 10
143.3321270853
 20
74.5959653465
 10
143.2855663219
 20
74.594669241
 10
143.2398028202
 20
74.5938186625
 10
143.1952413521
 20
74.5934211343
 10
143.1522760577
 20
74.5934801725
 10
143.1112869595
 20
74.5939952549
 10
143.0726366003
 20
74.5949618257
 10
143.0366668375
 20
74.5963713356
 10
143.0036958186
 20
74.5982113179
 10
142.9740151681
 20
74.6004654979
 10
142.9478874071
 20
74.603113938
 10
142.9255436323
 20
74.6061332128
 10
142.9071814712
 20
74.6094966174
 10
142.8929633349
 20
74.613174403
 10
142.8830149807
 20
74.6171340399
 10
142.8774244005
 20
74.6213405058
  0
LWPOLYLINE
  5
51E
100
AcDbEntity
  8
ASSI
100
AcDbPolyline
 62
253
  6
CONTINUOUS
 90
16
 70
0
 10
143.3321270853
 20
74.5959653465
 10
143.2855663219
 20
74.594669241
 10
143.2398028202
 20
74.5938186625
 10
143.1952413521
 20
74.5934211343
 10
143.1522760577
 20
74.5934801725
 10
143.1112869595
 20
74.5939952549
 10
143.0726366003
 20
74.5949618257
 10
143.0366668375
 20
74.5963713356
 10
143.0036958186
 20
74.5982113179
 10
142.9740151681
 20
74.6004654979
 10
142.9478874071
 20
74.603113938
 10
142.9255436323
 20
74.6061332128
 10
142.9071814712
 20
74.6094966174
 10
142.8929633349
 20
74.613174403
 10
142.8830149807
 20
74.6171340399
 10
142.8774244005
 20
74.6213405058
  0
LWPOLYLINE
  5
51F
100
AcDbEntity
  8
0
100
AcDbPolyline
 62
253
  6
CONTINUOUS
 90
16
 70
0
 10
143.3273602034
 20
74.7126035641
 10
143.2807982976
 20
74.7113136239
 10
143.2350336896
 20
74.710466997
 10
143.1904711746
 20
74.7100711719
 10
143.147504915
 20
74.7101296499
 10
143.1065149539
 20
74.7106419135
 10
143.0678638539
 20
74.7116034319
 10
143.03189349
 20
74.7130057001
 10
142.9989220256
 20
74.714836315
 10
142.9692410985
 20
74.7170790844
 10
142.9431132412
 20
74.7197141707
 10
142.9207695584
 20
74.7227182662
 10
142.9024076837
 20
74.7260647991
 10
142.8881900305
 20
74.7297241689
 10
142.8782423564
 20
74.7336640079
 10
142.8726526499
 20
74.7378494675
  0
LWPOLYLINE
  5
520
100
AcDbEntity
  8
ASSI
100
AcDbPolyline
 62
253
  6
CONTINUOUS
 90
16
 70
0
 10
143.3273602034
 20
74.7126035641
 10
143.2807982976
 20
74.7113136239
 10
143.2350336896
 20
74.710466997
 10
143.1904711746
 20
74.7100711719
 10
143.147504915
 20
74.7101296499
 10
143.1065149539
 20
74.7106419135
 10
143.0678638539
 20
74.7116034319
 10
143.03189349
 20
74.7130057001
 10
142.9989220256
 20
74.714836315
 10
142.9692410985
 20
74.7170790844
 10
142.9431132412
 20
74.7197141707
 10
142.9207695584
 20
74.7227182662
 10
142.9024076837
 20
74.7260647991
 10
142.8881900305
 20
74.7297241689
 10
142.8782423564
 20
74.7336640079
 10
142.8726526499
 20
74.7378494675
  0
LWPOLYLINE
  5
521
100
AcDbEntity
  8
RACCORDO
100
AcDbPolyline
 62
253
  6
CONTINUOUS
 90
7
 70
0
 10
145.5188929032
 20
74.729653472
 10
145.4991509916
 20
74.7291313406
 10
145.4798052205
 20
74.7288107506
 10
145.461048712
 20
74.7286949024
 10
145.4430687056
 20
74.7287849523
 10
145.4260446895
 20
74.7290800015
 10
145.4215314678
 20
74.7292211215
  0
LINE
  5
522
100
AcDbEntity
  8
0
100
AcDbLine
 62
253
  6
CONTINUOUS
 10
141.5047252534
 20
74.6213405057
 11
142.8774244003
 21
74.6213405057
  0
LINE
  5
523
100
AcDbEntity
  8
ASSI
100
AcDbLine
 62
253
  6
CONTINUOUS
 10
141.5047252534
 20
74.6213405057
 11
142.8774244003
 21
74.6213405057
  0
LINE
  5
524
100
AcDbEntity
  8
0
100
AcDbLine
 62
253
  6
CONTINUOUS
 10
145.8528635769
 20
74.7635405057
 11
145.8871572679
 21
74.7635405057
  0
LINE
  5
525
100
AcDbEntity
  8
RACCORDO
100
AcDbLine
 62
253
  6
CONTINUOUS
 10
145.8509244999
 20
74.8107505258
 11
145.535535316
 21
74.8107505258
  0
LINE
  5
526
100
AcDbEntity
  8
0
100
AcDbLine
 62
253
  6
CONTINUOUS
 10
144.6198127197
 20
74.7019205057
 11
143.3273602034
 21
74.7126035641
  0
LINE
  5
527
100
AcDbEntity
  8
ASSI
100
AcDbLine
 62
253
  6
CONTINUOUS
 10
144.6198127197
 20
74.7019205057
 11
143.3273602034
 21
74.7126035641
  0
LINE
  5
528
100
AcDbEntity
  8
0
100
AcDbLine
 62
253
  6
CONTINUOUS
 10
141.5011753557
 20
120.6381961282
 11
141.5011478611
 21
120.6381161161
  0
LINE
  5
529
100
AcDbEntity
  8
ASSI
100
AcDbLine
 62
253
  6
CONTINUOUS
 10
141.5011753557
 20
120.6381961282
 11
141.5011478611
 21
120.6381161161
  0
LINE
  5
52A
100
AcDbEntity
  8
0
100
AcDbLine
 62
253
  6
CONTINUOUS
 10
141.5011744603
 20
76.0044848433
 11
141.5011469159
 21
76.0045663574
  0
LINE
  5
52B
100
AcDbEntity
  8
ASSI
100
AcDbLine
 62
253
  6
CONTINUOUS
 10
141.5011744603
 20
76.0044848433
 11
141.5011469159
 21
76.0045663574
  0
LWPOLYLINE
  5
52C
100
AcDbEntity
  8
0
100
AcDbPolyline
 62
253
  6
CONTINUOUS
 90
9
 70
0
 10
141.6903310424
 20
72.0874352265
 10
141.8385517477
 20
69.5545520159
 10
142.0054040813
 20
67.0228279998
 10
142.1908790102
 20
64.4924002382
 10
142.3949664931
 20
61.9634057271
 10
142.6176554801
 20
59.4359813909
 10
142.8589339149
 20
56.910264063
 10
143.1187887349
 20
54.3863904781
 10
143.397205872
 20
51.8644972743
  0
LWPOLYLINE
  5
52D
100
AcDbEntity
  8
ASSI
100
AcDbPolyline
 62
253
  6
CONTINUOUS
 90
9
 70
0
 10
141.6903310424
 20
72.0874352265
 10
141.8385517477
 20
69.5545520159
 10
142.0054040813
 20
67.0228279998
 10
142.1908790102
 20
64.4924002382
 10
142.3949664931
 20
61.9634057271
 10
142.6176554801
 20
59.4359813909
 10
142.8589339149
 20
56.910264063
 10
143.1187887349
 20
54.3863904781
 10
143.397205872
 20
51.8644972743
  0
LINE
  5
52E
100
AcDbEntity
  8
0
100
AcDbLine
 62
253
  6
CONTINUOUS
 10
141.6903310424
 20
72.0874352265
 11
141.5459337671
 21
74.9356711871
  0
LINE
  5
52F
100
AcDbEntity
  8
ASSI
100
AcDbLine
 62
253
  6
CONTINUOUS
 10
141.6903310424
 20
72.0874352265
 11
141.5459337671
 21
74.9356711871
  0
LINE
  5
530
100
AcDbEntity
  8
SUPERFICI
100
AcDbLine
 62
7
  6
CONTINUOUS
 10
141.4856684831
 20
75.0263992843
 11
141.4860236919
 21
75.0187846481
  0
LINE
  5
531
100
AcDbEntity
  8
ASSI
100
AcDbLine
 62
7
  6
CONTINUOUS
 10
141.4856684831
 20
75.0263992843
 11
141.4860236919
 21
75.0187846481
  0
LINE
  5
532
100
AcDbEntity
  8
0
100
AcDbLine
 62
253
  6
CONTINUOUS
 10
141.5459337671
 20
74.9356711871
 11
141.5361665701
 21
75.1452218378
  0
LINE
  5
533
100
AcDbEntity
  8
ASSI
100
AcDbLine
 62
253
  6
CONTINUOUS
 10
141.5459337671
 20
74.9356711871
 11
141.5361665701
 21
75.1452218378
  0
LINE
  5
534
100
AcDbEntity
  8
SUPERFICI
100
AcDbLine
 62
7
  6
CONTINUOUS
 10
141.4860236919
 20
121.6238963636
 11
141.4856684831
 21
121.6162817273
  0
LINE
  5
535
100
AcDbEntity
  8
ASSI
100
AcDbLine
 62
7
  6
CONTINUOUS
 10
141.4860236919
 20
121.6238963636
 11
141.4856684831
 21
121.6162817273
  0
LWPOLYLINE
  5
536
100
AcDbEntity
  8
0
100
AcDbPolyline
 62
253
  6
CONTINUOUS
 90
10
 70
0
 10
141.5557891937
 20
121.9165630511
 10
141.6903310427
 20
124.5552457898
 10
141.8385517483
 20
127.0881290052
 10
142.0054040823
 20
129.6198530262
 10
142.1908790118
 20
132.1502807942
 10
142.3949664954
 20
134.6792753117
 10
142.6176554828
 20
137.2066996494
 10
142.8589339173
 20
139.7324169726
 10
143.1187887365
 20
142.2562905479
 10
143.397205872
 20
144.7781837372
  0
LWPOLYLINE
  5
537
100
AcDbEntity
  8
ASSI
100
AcDbPolyline
 62
253
  6
CONTINUOUS
 90
10
 70
0
 10
141.5557891937
 20
121.9165630511
 10
141.6903310427
 20
124.5552457898
 10
141.8385517483
 20
127.0881290052
 10
142.0054040823
 20
129.6198530262
 10
142.1908790118
 20
132.1502807942
 10
142.3949664954
 20
134.6792753117
 10
142.6176554828
 20
137.2066996494
 10
142.8589339173
 20
139.7324169726
 10
143.1187887365
 20
142.2562905479
 10
143.397205872
 20
144.7781837372
  0
LINE
  5
538
100
AcDbEntity
  8
0
100
AcDbLine
 62
253
  6
CONTINUOUS
 10
141.5342361546
 20
121.5133008271
 11
141.5336560612
 21
121.522499895
  0
LINE
  5
539
100
AcDbEntity
  8
ASSI
100
AcDbLine
 62
253
  6
CONTINUOUS
 10
141.5342361546
 20
121.5133008271
 11
141.5336560612
 21
121.522499895
  0
LINE
  5
53A
100
AcDbEntity
  8
0
100
AcDbLine
 62
253
  6
CONTINUOUS
 10
143.1521214864
 20
68.9434570352
 11
143.372612165
 21
65.0824352694
  0
LINE
  5
53B
100
AcDbEntity
  8
ASSI
100
AcDbLine
 62
253
  6
CONTINUOUS
 10
143.1521214864
 20
68.9434570352
 11
143.372612165
 21
65.0824352694
  0
LINE
  5
53C
100
AcDbEntity
  8
0
100
AcDbLine
 62
253
  6
CONTINUOUS
 10
143.372612165
 20
65.0824352694
 11
143.4619202899
 21
63.4656903873
  0
LINE
  5
53D
100
AcDbEntity
  8
ASSI
100
AcDbLine
 62
253
  6
CONTINUOUS
 10
143.372612165
 20
65.0824352694
 11
143.4619202899
 21
63.4656903873
  0
LINE
  5
53E
100
AcDbEntity
  8
0
100
AcDbLine
 62
7
  6
CONTINUOUS
 10
144.8535887317
 20
69.7783871402
 11
145.2215765691
 21
63.2736600046
  0
LINE
  5
53F
100
AcDbEntity
  8
ASSI
100
AcDbLine
 62
7
  6
CONTINUOUS
 10
144.8535887317
 20
69.7783871402
 11
145.2215765691
 21
63.2736600046
  0
LINE
  5
540
100
AcDbEntity
  8
0
100
AcDbLine
 62
253
  6
CONTINUOUS
 10
143.5356468135
 20
70.2376049565
 11
143.8570696913
 21
64.4191018234
  0
LINE
  5
541
100
AcDbEntity
  8
ASSI
100
AcDbLine
 62
253
  6
CONTINUOUS
 10
143.5356468135
 20
70.2376049565
 11
143.8570696913
 21
64.4191018234
  0
LINE
  5
542
100
AcDbEntity
  8
0
100
AcDbLine
 62
253
  6
CONTINUOUS
 10
143.8570696913
 20
64.4191018234
 11
143.9437281177
 21
62.7763368931
  0
LINE
  5
543
100
AcDbEntity
  8
ASSI
100
AcDbLine
 62
253
  6
CONTINUOUS
 10
143.8570696913
 20
64.4191018234
 11
143.9437281177
 21
62.7763368931
  0
LINE
  5
544
100
AcDbEntity
  8
0
100
AcDbLine
 62
7
  6
CONTINUOUS
 10
145.2215765691
 20
63.2736600046
 11
145.3065206316
 21
61.6705970786
  0
LINE
  5
545
100
AcDbEntity
  8
ASSI
100
AcDbLine
 62
7
  6
CONTINUOUS
 10
145.2215765691
 20
63.2736600046
 11
145.3065206316
 21
61.6705970786
  0
LINE
  5
546
100
AcDbEntity
  8
0
100
AcDbLine
 62
253
  6
CONTINUOUS
 10
143.4619202899
 20
63.4656903873
 11
143.5432624059
 21
61.9147524547
  0
LINE
  5
547
100
AcDbEntity
  8
ASSI
100
AcDbLine
 62
253
  6
CONTINUOUS
 10
143.4619202899
 20
63.4656903873
 11
143.5432624059
 21
61.9147524547
  0
LINE
  5
548
100
AcDbEntity
  8
0
100
AcDbLine
 62
253
  6
CONTINUOUS
 10
143.0362055047
 20
71.1453735511
 11
143.1521214864
 21
68.9434570352
  0
LINE
  5
549
100
AcDbEntity
  8
ASSI
100
AcDbLine
 62
253
  6
CONTINUOUS
 10
143.0362055047
 20
71.1453735511
 11
143.1521214864
 21
68.9434570352
  0
LINE
  5
54A
100
AcDbEntity
  8
0
100
AcDbLine
 62
7
  6
CONTINUOUS
 10
144.7614511788
 20
71.5656474685
 11
144.8535887317
 21
69.7783871402
  0
LINE
  5
54B
100
AcDbEntity
  8
ASSI
100
AcDbLine
 62
7
  6
CONTINUOUS
 10
144.7614511788
 20
71.5656474685
 11
144.8535887317
 21
69.7783871402
  0
LINE
  5
54C
100
AcDbEntity
  8
0
100
AcDbLine
 62
7
  6
CONTINUOUS
 10
145.3065206316
 20
61.6705970786
 11
145.3579173901
 21
60.649117508
  0
LINE
  5
54D
100
AcDbEntity
  8
ASSI
100
AcDbLine
 62
7
  6
CONTINUOUS
 10
145.3065206316
 20
61.6705970786
 11
145.3579173901
 21
60.649117508
  0
LINE
  5
54E
100
AcDbEntity
  8
0
100
AcDbLine
 62
253
  6
CONTINUOUS
 10
143.5432624059
 20
61.9147524547
 11
143.5923845037
 21
60.9262903013
  0
LINE
  5
54F
100
AcDbEntity
  8
ASSI
100
AcDbLine
 62
253
  6
CONTINUOUS
 10
143.5432624059
 20
61.9147524547
 11
143.5923845037
 21
60.9262903013
  0
LINE
  5
550
100
AcDbEntity
  8
0
100
AcDbLine
 62
253
  6
CONTINUOUS
 10
143.9437281177
 20
62.7763368931
 11
144.0219598471
 21
61.2077467011
  0
LINE
  5
551
100
AcDbEntity
  8
ASSI
100
AcDbLine
 62
253
  6
CONTINUOUS
 10
143.9437281177
 20
62.7763368931
 11
144.0219598471
 21
61.2077467011
  0
LINE
  5
552
100
AcDbEntity
  8
0
100
AcDbLine
 62
253
  6
CONTINUOUS
 10
143.4480396645
 20
71.986887128
 11
143.5356468135
 21
70.2376049565
  0
LINE
  5
553
100
AcDbEntity
  8
ASSI
100
AcDbLine
 62
253
  6
CONTINUOUS
 10
143.4480396645
 20
71.986887128
 11
143.5356468135
 21
70.2376049565
  0
LINE
  5
554
100
AcDbEntity
  8
0
100
AcDbLine
 62
7
  6
CONTINUOUS
 10
145.3579173901
 20
60.649117508
 11
145.4046051013
 21
59.6711797397
  0
LINE
  5
555
100
AcDbEntity
  8
ASSI
100
AcDbLine
 62
7
  6
CONTINUOUS
 10
145.3579173901
 20
60.649117508
 11
145.4046051013
 21
59.6711797397
  0
LINE
  5
556
100
AcDbEntity
  8
0
100
AcDbLine
 62
253
  6
CONTINUOUS
 10
143.5923845037
 20
60.9262903013
 11
143.6369389964
 21
59.9808704265
  0
LINE
  5
557
100
AcDbEntity
  8
ASSI
100
AcDbLine
 62
253
  6
CONTINUOUS
 10
143.5923845037
 20
60.9262903013
 11
143.6369389964
 21
59.9808704265
  0
LINE
  5
558
100
AcDbEntity
  8
0
100
AcDbLine
 62
253
  6
CONTINUOUS
 10
142.9528215321
 20
72.8828492132
 11
143.0362055047
 21
71.1453735511
  0
LINE
  5
559
100
AcDbEntity
  8
ASSI
100
AcDbLine
 62
253
  6
CONTINUOUS
 10
142.9528215321
 20
72.8828492132
 11
143.0362055047
 21
71.1453735511
  0
LINE
  5
55A
100
AcDbEntity
  8
0
100
AcDbLine
 62
253
  6
CONTINUOUS
 10
144.0219598471
 20
61.2077467011
 11
144.0687605279
 21
60.2123333783
  0
LINE
  5
55B
100
AcDbEntity
  8
ASSI
100
AcDbLine
 62
253
  6
CONTINUOUS
 10
144.0219598471
 20
61.2077467011
 11
144.0687605279
 21
60.2123333783
  0
LINE
  5
55C
100
AcDbEntity
  8
0
100
AcDbLine
 62
7
  6
CONTINUOUS
 10
144.6773182655
 20
73.3574092851
 11
144.7614511788
 21
71.5656474685
  0
LINE
  5
55D
100
AcDbEntity
  8
ASSI
100
AcDbLine
 62
7
  6
CONTINUOUS
 10
144.6773182655
 20
73.3574092851
 11
144.7614511788
 21
71.5656474685
  0
LINE
  5
55E
100
AcDbEntity
  8
0
100
AcDbLine
 62
7
  6
CONTINUOUS
 10
145.4046051013
 20
59.6711797397
 11
145.4462982816
 21
58.7414582397
  0
LINE
  5
55F
100
AcDbEntity
  8
ASSI
100
AcDbLine
 62
7
  6
CONTINUOUS
 10
145.4046051013
 20
59.6711797397
 11
145.4462982816
 21
58.7414582397
  0
LINE
  5
560
100
AcDbEntity
  8
0
100
AcDbLine
 62
253
  6
CONTINUOUS
 10
143.3687707539
 20
73.7260246228
 11
143.4480396645
 21
71.986887128
  0
LINE
  5
561
100
AcDbEntity
  8
ASSI
100
AcDbLine
 62
253
  6
CONTINUOUS
 10
143.3687707539
 20
73.7260246228
 11
143.4480396645
 21
71.986887128
  0
LINE
  5
562
100
AcDbEntity
  8
0
100
AcDbLine
 62
253
  6
CONTINUOUS
 10
144.0687605279
 20
60.2123333783
 11
144.110832659
 21
59.2631264047
  0
LINE
  5
563
100
AcDbEntity
  8
ASSI
100
AcDbLine
 62
253
  6
CONTINUOUS
 10
144.0687605279
 20
60.2123333783
 11
144.110832659
 21
59.2631264047
  0
LINE
  5
564
100
AcDbEntity
  8
0
100
AcDbLine
 62
253
  6
CONTINUOUS
 10
143.6369389964
 20
59.9808704265
 11
143.6766139524
 21
59.0819391852
  0
LINE
  5
565
100
AcDbEntity
  8
ASSI
100
AcDbLine
 62
253
  6
CONTINUOUS
 10
143.6369389964
 20
59.9808704265
 11
143.6766139524
 21
59.0819391852
  0
LINE
  5
566
100
AcDbEntity
  8
0
100
AcDbLine
 62
253
  6
CONTINUOUS
 10
141.5310474933
 20
75.2563623458
 11
141.5361665701
 21
75.1452218378
  0
LINE
  5
567
100
AcDbEntity
  8
ASSI
100
AcDbLine
 62
253
  6
CONTINUOUS
 10
141.5310474933
 20
75.2563623458
 11
141.5361665701
 21
75.1452218378
  0
LINE
  5
568
100
AcDbEntity
  8
0
100
AcDbLine
 62
7
  6
CONTINUOUS
 10
141.4274193131
 20
77.7213885327
 11
141.5127159781
 21
75.7364118491
  0
LINE
  5
569
100
AcDbEntity
  8
ASSI
100
AcDbLine
 62
7
  6
CONTINUOUS
 10
141.4274193131
 20
77.7213885327
 11
141.5127159781
 21
75.7364118491
  0
LINE
  5
56A
100
AcDbEntity
  8
0
100
AcDbLine
 62
7
  6
CONTINUOUS
 10
144.6198127197
 20
74.7019205057
 11
144.6773182655
 21
73.3574092851
  0
LINE
  5
56B
100
AcDbEntity
  8
ASSI
100
AcDbLine
 62
7
  6
CONTINUOUS
 10
144.6198127197
 20
74.7019205057
 11
144.6773182655
 21
73.3574092851
  0
LINE
  5
56C
100
AcDbEntity
  8
0
100
AcDbLine
 62
253
  6
CONTINUOUS
 10
141.5127159781
 20
75.7364118491
 11
141.510514483
 21
75.7890909913
  0
LINE
  5
56D
100
AcDbEntity
  8
ASSI
100
AcDbLine
 62
253
  6
CONTINUOUS
 10
141.5127159781
 20
75.7364118491
 11
141.510514483
 21
75.7890909913
  0
LINE
  5
56E
100
AcDbEntity
  8
0
100
AcDbLine
 62
253
  6
CONTINUOUS
 10
142.8726526499
 20
74.7378494675
 11
142.9528215321
 21
72.8828492132
  0
LINE
  5
56F
100
AcDbEntity
  8
ASSI
100
AcDbLine
 62
253
  6
CONTINUOUS
 10
142.8726526499
 20
74.7378494675
 11
142.9528215321
 21
72.8828492132
  0
LINE
  5
570
100
AcDbEntity
  8
0
100
AcDbLine
 62
253
  6
CONTINUOUS
 10
143.3273602034
 20
74.7126035641
 11
143.3687707539
 21
73.7260246228
  0
LINE
  5
571
100
AcDbEntity
  8
ASSI
100
AcDbLine
 62
253
  6
CONTINUOUS
 10
143.3273602034
 20
74.7126035641
 11
143.3687707539
 21
73.7260246228
  0
LINE
  5
572
100
AcDbEntity
  8
0
100
AcDbLine
 62
253
  6
CONTINUOUS
 10
144.110832659
 20
59.2631264047
 11
144.1478358503
 21
58.3645075518
  0
LINE
  5
573
100
AcDbEntity
  8
ASSI
100
AcDbLine
 62
253
  6
CONTINUOUS
 10
144.110832659
 20
59.2631264047
 11
144.1478358503
 21
58.3645075518
  0
LWPOLYLINE
  5
574
100
AcDbEntity
  8
0
100
AcDbPolyline
 62
7
  6
CONTINUOUS
 90
3
 70
0
 10
145.4462982816
 20
58.7414582397
 10
145.4825767089
 20
57.8643798888
 10
145.4985625177
 20
57.446892832
  0
LWPOLYLINE
  5
575
100
AcDbEntity
  8
ASSI
100
AcDbPolyline
 62
7
  6
CONTINUOUS
 90
3
 70
0
 10
145.4462982816
 20
58.7414582397
 10
145.4825767089
 20
57.8643798888
 10
145.4985625177
 20
57.446892832
  0
LINE
  5
576
100
AcDbEntity
  8
0
100
AcDbLine
 62
253
  6
CONTINUOUS
 10
143.6766139524
 20
59.0819391852
 11
143.7110356185
 21
58.2343171024
  0
LINE
  5
577
100
AcDbEntity
  8
ASSI
100
AcDbLine
 62
253
  6
CONTINUOUS
 10
143.6766139524
 20
59.0819391852
 11
143.7110356185
 21
58.2343171024
  0
LWPOLYLINE
  5
578
100
AcDbEntity
  8
0
100
AcDbPolyline
 62
7
  6
CONTINUOUS
 90
12
 70
0
 10
141.4274193131
 20
77.7213885327
 10
141.3590550427
 20
79.4520332876
 10
141.296223609
 20
81.1964039199
 10
141.239316783
 20
82.9463669458
 10
141.1881706844
 20
84.7100208869
 10
141.1423528784
 20
86.5117045731
 10
141.1022244366
 20
88.3538546607
 10
141.0682712064
 20
90.2340059853
 10
141.0407113839
 20
92.1691513493
 10
141.0201354685
 20
94.1649416002
 10
141.0072926785
 20
96.2156814214
 10
141.0028585054
 20
98.3213405057
  0
LWPOLYLINE
  5
579
100
AcDbEntity
  8
ASSI
100
AcDbPolyline
 62
7
  6
CONTINUOUS
 90
12
 70
0
 10
141.4274193131
 20
77.7213885327
 10
141.3590550427
 20
79.4520332876
 10
141.296223609
 20
81.1964039199
 10
141.239316783
 20
82.9463669458
 10
141.1881706844
 20
84.7100208869
 10
141.1423528784
 20
86.5117045731
 10
141.1022244366
 20
88.3538546607
 10
141.0682712064
 20
90.2340059853
 10
141.0407113839
 20
92.1691513493
 10
141.0201354685
 20
94.1649416002
 10
141.0072926785
 20
96.2156814214
 10
141.0028585054
 20
98.3213405057
  0
LINE
  5
57A
100
AcDbEntity
  8
0
100
AcDbLine
 62
7
  6
CONTINUOUS
 10
141.5127159781
 20
75.7364118491
 11
141.5250117891
 21
75.4280047672
  0
LINE
  5
57B
100
AcDbEntity
  8
ASSI
100
AcDbLine
 62
7
  6
CONTINUOUS
 10
141.5127159781
 20
75.7364118491
 11
141.5250117891
 21
75.4280047672
  0
LINE
  5
57C
100
AcDbEntity
  8
0
100
AcDbLine
 62
253
  6
CONTINUOUS
 10
144.1478358503
 20
58.3645075518
 11
144.17943899
 21
57.5206271578
  0
LINE
  5
57D
100
AcDbEntity
  8
ASSI
100
AcDbLine
 62
253
  6
CONTINUOUS
 10
144.1478358503
 20
58.3645075518
 11
144.17943899
 21
57.5206271578
  0
LINE
  5
57E
100
AcDbEntity
  8
0
100
AcDbLine
 62
253
  6
CONTINUOUS
 10
143.7110356185
 20
58.2343171024
 11
143.7398855366
 21
57.4422499321
  0
LINE
  5
57F
100
AcDbEntity
  8
ASSI
100
AcDbLine
 62
253
  6
CONTINUOUS
 10
143.7110356185
 20
58.2343171024
 11
143.7398855366
 21
57.4422499321
  0
LINE
  5
580
100
AcDbEntity
  8
0
100
AcDbLine
 62
7
  6
CONTINUOUS
 10
141.5250117891
 20
75.4280047672
 11
141.5306152427
 21
75.2697141951
  0
LINE
  5
581
100
AcDbEntity
  8
ASSI
100
AcDbLine
 62
7
  6
CONTINUOUS
 10
141.5250117891
 20
75.4280047672
 11
141.5306152427
 21
75.2697141951
  0
LINE
  5
582
100
AcDbEntity
  8
0
100
AcDbLine
 62
253
  6
CONTINUOUS
 10
144.17943899
 20
57.5206271578
 11
144.2053415013
 21
56.7353594766
  0
LINE
  5
583
100
AcDbEntity
  8
ASSI
100
AcDbLine
 62
253
  6
CONTINUOUS
 10
144.17943899
 20
57.5206271578
 11
144.2053415013
 21
56.7353594766
  0
LINE
  5
584
100
AcDbEntity
  8
0
100
AcDbLine
 62
7
  6
CONTINUOUS
 10
141.5306152427
 20
75.2697141951
 11
141.5325504233
 21
75.2068457479
  0
LINE
  5
585
100
AcDbEntity
  8
ASSI
100
AcDbLine
 62
7
  6
CONTINUOUS
 10
141.5306152427
 20
75.2697141951
 11
141.5325504233
 21
75.2068457479
  0
LINE
  5
586
100
AcDbEntity
  8
0
100
AcDbLine
 62
253
  6
CONTINUOUS
 10
143.7398855366
 20
57.4422499321
 11
143.7629051915
 21
56.7084357897
  0
LINE
  5
587
100
AcDbEntity
  8
ASSI
100
AcDbLine
 62
253
  6
CONTINUOUS
 10
143.7398855366
 20
57.4422499321
 11
143.7629051915
 21
56.7084357897
  0
LINE
  5
588
100
AcDbEntity
  8
0
100
AcDbLine
 62
253
  6
CONTINUOUS
 10
144.2053415013
 20
56.7353594766
 11
144.2252713809
 21
56.0121905866
  0
LINE
  5
589
100
AcDbEntity
  8
ASSI
100
AcDbLine
 62
253
  6
CONTINUOUS
 10
144.2053415013
 20
56.7353594766
 11
144.2252713809
 21
56.0121905866
  0
LINE
  5
58A
100
AcDbEntity
  8
0
100
AcDbLine
 62
7
  6
CONTINUOUS
 10
141.5325504233
 20
75.2068457479
 11
141.5338657029
 21
75.1541823038
  0
LINE
  5
58B
100
AcDbEntity
  8
ASSI
100
AcDbLine
 62
7
  6
CONTINUOUS
 10
141.5325504233
 20
75.2068457479
 11
141.5338657029
 21
75.1541823038
  0
LWPOLYLINE
  5
58C
100
AcDbEntity
  8
0
100
AcDbPolyline
 62
253
  6
CONTINUOUS
 90
15
 70
0
 10
143.7629051915
 20
56.7084357897
 10
143.7798032854
 20
56.0367097036
 10
143.7858851183
 20
55.725291734
 10
143.79034341
 20
55.4305709302
 10
143.7931722041
 20
55.1525353585
 10
143.7943457084
 20
54.8923530669
 10
143.7938296796
 20
54.6501268008
 10
143.7916247184
 20
54.42574583
 10
143.7877453097
 20
54.2200578669
 10
143.7821578177
 20
54.0331993704
 10
143.7748647861
 20
53.8650271222
 10
143.7659238373
 20
53.7159695068
 10
143.7553417866
 20
53.5861676148
 10
143.7430832201
 20
53.4754753261
 10
143.7291395899
 20
53.3838906315
  0
LWPOLYLINE
  5
58D
100
AcDbEntity
  8
ASSI
100
AcDbPolyline
 62
253
  6
CONTINUOUS
 90
15
 70
0
 10
143.7629051915
 20
56.7084357897
 10
143.7798032854
 20
56.0367097036
 10
143.7858851183
 20
55.725291734
 10
143.79034341
 20
55.4305709302
 10
143.7931722041
 20
55.1525353585
 10
143.7943457084
 20
54.8923530669
 10
143.7938296796
 20
54.6501268008
 10
143.7916247184
 20
54.42574583
 10
143.7877453097
 20
54.2200578669
 10
143.7821578177
 20
54.0331993704
 10
143.7748647861
 20
53.8650271222
 10
143.7659238373
 20
53.7159695068
 10
143.7553417866
 20
53.5861676148
 10
143.7430832201
 20
53.4754753261
 10
143.7291395899
 20
53.3838906315
  0
LINE
  5
58E
100
AcDbEntity
  8
0
100
AcDbLine
 62
253
  6
CONTINUOUS
 10
141.5338657029
 20
75.1541823038
 11
141.5338395678
 21
75.162213057
  0
LINE
  5
58F
100
AcDbEntity
  8
ASSI
100
AcDbLine
 62
253
  6
CONTINUOUS
 10
141.5338657029
 20
75.1541823038
 11
141.5338395678
 21
75.162213057
  0
LWPOLYLINE
  5
590
100
AcDbEntity
  8
0
100
AcDbPolyline
 62
253
  6
CONTINUOUS
 90
14
 70
0
 10
144.2252713809
 20
56.0121905866
 10
144.2389712361
 20
55.3545235014
 10
144.243417097
 20
55.0511960626
 10
144.2462240958
 20
54.7654178283
 10
144.2473740755
 20
54.4977318887
 10
144.2468499362
 20
54.2484161223
 10
144.2446389042
 20
54.0177430238
 10
144.240738479
 20
53.8061514324
 10
144.2351462196
 20
53.613820073
 10
144.2278639409
 20
53.4408724982
 10
144.2189055932
 20
53.2875557586
 10
144.2082858474
 20
53.1539596008
 10
144.1960197154
 20
53.0400442007
 10
144.1821263867
 20
52.9458074082
  0
LWPOLYLINE
  5
591
100
AcDbEntity
  8
ASSI
100
AcDbPolyline
 62
253
  6
CONTINUOUS
 90
14
 70
0
 10
144.2252713809
 20
56.0121905866
 10
144.2389712361
 20
55.3545235014
 10
144.243417097
 20
55.0511960626
 10
144.2462240958
 20
54.7654178283
 10
144.2473740755
 20
54.4977318887
 10
144.2468499362
 20
54.2484161223
 10
144.2446389042
 20
54.0177430238
 10
144.240738479
 20
53.8061514324
 10
144.2351462196
 20
53.613820073
 10
144.2278639409
 20
53.4408724982
 10
144.2189055932
 20
53.2875557586
 10
144.2082858474
 20
53.1539596008
 10
144.1960197154
 20
53.0400442007
 10
144.1821263867
 20
52.9458074082
  0
LINE
  5
592
100
AcDbEntity
  8
0
100
AcDbLine
 62
253
  6
CONTINUOUS
 10
141.5344995214
 20
75.1303705618
 11
141.5340256823
 21
75.1457286932
  0
LINE
  5
593
100
AcDbEntity
  8
ASSI
100
AcDbLine
 62
253
  6
CONTINUOUS
 10
141.5344995214
 20
75.1303705618
 11
141.5340256823
 21
75.1457286932
  0
LINE
  5
594
100
AcDbEntity
  8
0
100
AcDbLine
 62
7
  6
CONTINUOUS
 10
141.5342544815
 20
121.516302609
 11
141.5342475481
 21
121.5166796273
  0
LINE
  5
595
100
AcDbEntity
  8
ASSI
100
AcDbLine
 62
7
  6
CONTINUOUS
 10
141.5342544815
 20
121.516302609
 11
141.5342475481
 21
121.5166796273
  0
LINE
  5
596
100
AcDbEntity
  8
0
100
AcDbLine
 62
7
  6
CONTINUOUS
 10
141.5338657029
 20
75.1541823038
 11
141.5340880454
 21
75.1420071261
  0
LINE
  5
597
100
AcDbEntity
  8
ASSI
100
AcDbLine
 62
7
  6
CONTINUOUS
 10
141.5338657029
 20
75.1541823038
 11
141.5340880454
 21
75.1420071261
  0
LINE
  5
598
100
AcDbEntity
  8
0
100
AcDbLine
 62
7
  6
CONTINUOUS
 10
141.5340880454
 20
75.1420071261
 11
141.5342082393
 21
75.1329535926
  0
LINE
  5
599
100
AcDbEntity
  8
ASSI
100
AcDbLine
 62
7
  6
CONTINUOUS
 10
141.5340880454
 20
75.1420071261
 11
141.5342082393
 21
75.1329535926
  0
LINE
  5
59A
100
AcDbEntity
  8
0
100
AcDbLine
 62
253
  6
CONTINUOUS
 10
141.5344995214
 20
75.1303705618
 11
141.5339848513
 21
75.0873221162
  0
LINE
  5
59B
100
AcDbEntity
  8
ASSI
100
AcDbLine
 62
253
  6
CONTINUOUS
 10
141.5344995214
 20
75.1303705618
 11
141.5339848513
 21
75.0873221162
  0
LINE
  5
59C
100
AcDbEntity
  8
0
100
AcDbLine
 62
7
  6
CONTINUOUS
 10
141.5342403556
 20
121.517166973
 11
141.5342409258
 21
121.5170848406
  0
LINE
  5
59D
100
AcDbEntity
  8
ASSI
100
AcDbLine
 62
7
  6
CONTINUOUS
 10
141.5342403556
 20
121.517166973
 11
141.5342409258
 21
121.5170848406
  0
LWPOLYLINE
  5
59E
100
AcDbEntity
  8
0
100
AcDbPolyline
 62
7
  6
CONTINUOUS
 90
3
 70
0
 10
141.5342082393
 20
75.1329535926
 10
141.5342394569
 20
75.1287780097
 10
141.5342439157
 20
75.1273115402
  0
LWPOLYLINE
  5
59F
100
AcDbEntity
  8
ASSI
100
AcDbPolyline
 62
7
  6
CONTINUOUS
 90
3
 70
0
 10
141.5342082393
 20
75.1329535926
 10
141.5342394569
 20
75.1287780097
 10
141.5342439157
 20
75.1273115402
  0
LWPOLYLINE
  5
5A0
100
AcDbEntity
  8
0
100
AcDbPolyline
 62
253
  6
CONTINUOUS
 90
5
 70
0
 10
141.5347405273
 20
121.5354145547
 10
141.534706958
 20
121.5437428805
 10
141.534570333
 20
121.5498305566
 10
141.5343303621
 20
121.5537025271
 10
141.5339870184
 20
121.5553587945
  0
LWPOLYLINE
  5
5A1
100
AcDbEntity
  8
ASSI
100
AcDbPolyline
 62
253
  6
CONTINUOUS
 90
5
 70
0
 10
141.5347405273
 20
121.5354145547
 10
141.534706958
 20
121.5437428805
 10
141.534570333
 20
121.5498305566
 10
141.5343303621
 20
121.5537025271
 10
141.5339870184
 20
121.5553587945
  0
LINE
  5
5A2
100
AcDbEntity
  8
0
100
AcDbLine
 62
7
  6
CONTINUOUS
 10
141.534243753
 20
121.5163640475
 11
141.5342435848
 21
121.5151647636
  0
LINE
  5
5A3
100
AcDbEntity
  8
ASSI
100
AcDbLine
 62
7
  6
CONTINUOUS
 10
141.534243753
 20
121.5163640475
 11
141.5342435848
 21
121.5151647636
  0
LWPOLYLINE
  5
5A4
100
AcDbEntity
  8
0
100
AcDbPolyline
 62
7
  6
CONTINUOUS
 90
9
 70
0
 10
141.0028585054
 20
98.3213405057
 10
141.0094430089
 20
100.8872704694
 10
141.0287575738
 20
103.4102431386
 10
141.0601524566
 20
105.8901992133
 10
141.1024151489
 20
108.2983910299
 10
141.1552179394
 20
110.6634724888
 10
141.2204836975
 20
113.0714682358
 10
141.2998233464
 20
115.5509888436
 10
141.3931700656
 20
118.0732609748
  0
LWPOLYLINE
  5
5A5
100
AcDbEntity
  8
ASSI
100
AcDbPolyline
 62
7
  6
CONTINUOUS
 90
9
 70
0
 10
141.0028585054
 20
98.3213405057
 10
141.0094430089
 20
100.8872704694
 10
141.0287575738
 20
103.4102431386
 10
141.0601524566
 20
105.8901992133
 10
141.1024151489
 20
108.2983910299
 10
141.1552179394
 20
110.6634724888
 10
141.2204836975
 20
113.0714682358
 10
141.2998233464
 20
115.5509888436
 10
141.3931700656
 20
118.0732609748
  0
LINE
  5
5A6
100
AcDbEntity
  8
0
100
AcDbLine
 62
7
  6
CONTINUOUS
 10
141.5342436295
 20
75.1262505784
 11
141.534242415
 21
75.1258688251
  0
LINE
  5
5A7
100
AcDbEntity
  8
ASSI
100
AcDbLine
 62
7
  6
CONTINUOUS
 10
141.5342436295
 20
75.1262505784
 11
141.534242415
 21
75.1258688251
  0
LINE
  5
5A8
100
AcDbEntity
  8
0
100
AcDbLine
 62
7
  6
CONTINUOUS
 10
141.5342375816
 20
121.5135125065
 11
141.5341987235
 21
121.5088013497
  0
LINE
  5
5A9
100
AcDbEntity
  8
ASSI
100
AcDbLine
 62
7
  6
CONTINUOUS
 10
141.5342375816
 20
121.5135125065
 11
141.5341987235
 21
121.5088013497
  0
LINE
  5
5AA
100
AcDbEntity
  8
0
100
AcDbLine
 62
253
  6
CONTINUOUS
 10
141.5344974684
 20
121.5121855743
 11
141.5339870185
 21
121.5553587945
  0
LINE
  5
5AB
100
AcDbEntity
  8
ASSI
100
AcDbLine
 62
253
  6
CONTINUOUS
 10
141.5344974684
 20
121.5121855743
 11
141.5339870185
 21
121.5553587945
  0
LINE
  5
5AC
100
AcDbEntity
  8
0
100
AcDbLine
 62
7
  6
CONTINUOUS
 10
141.5341987235
 20
121.5088013497
 11
141.5340534283
 21
121.4985616233
  0
LINE
  5
5AD
100
AcDbEntity
  8
ASSI
100
AcDbLine
 62
7
  6
CONTINUOUS
 10
141.5341987235
 20
121.5088013497
 11
141.5340534283
 21
121.4985616233
  0
LINE
  5
5AE
100
AcDbEntity
  8
0
100
AcDbLine
 62
253
  6
CONTINUOUS
 10
144.2434174702
 20
141.5915153011
 11
144.2329141532
 21
140.9677615867
  0
LINE
  5
5AF
100
AcDbEntity
  8
ASSI
100
AcDbLine
 62
253
  6
CONTINUOUS
 10
144.2434174702
 20
141.5915153011
 11
144.2329141532
 21
140.9677615867
  0
LINE
  5
5B0
100
AcDbEntity
  8
0
100
AcDbLine
 62
7
  6
CONTINUOUS
 10
141.5340534283
 20
121.4985616233
 11
141.5338894608
 21
121.4896834702
  0
LINE
  5
5B1
100
AcDbEntity
  8
ASSI
100
AcDbLine
 62
7
  6
CONTINUOUS
 10
141.5340534283
 20
121.4985616233
 11
141.5338894608
 21
121.4896834702
  0
LINE
  5
5B2
100
AcDbEntity
  8
0
100
AcDbLine
 62
253
  6
CONTINUOUS
 10
141.5340534283
 20
121.4985616233
 11
141.5344974684
 21
121.5121855743
  0
LINE
  5
5B3
100
AcDbEntity
  8
ASSI
100
AcDbLine
 62
253
  6
CONTINUOUS
 10
141.5340534283
 20
121.4985616233
 11
141.5344974684
 21
121.5121855743
  0
LINE
  5
5B4
100
AcDbEntity
  8
0
100
AcDbLine
 62
253
  6
CONTINUOUS
 10
143.7858858824
 20
140.9174332315
 11
143.7721284989
 21
140.2779204182
  0
LINE
  5
5B5
100
AcDbEntity
  8
ASSI
100
AcDbLine
 62
253
  6
CONTINUOUS
 10
143.7858858824
 20
140.9174332315
 11
143.7721284989
 21
140.2779204182
  0
LINE
  5
5B6
100
AcDbEntity
  8
0
100
AcDbLine
 62
253
  6
CONTINUOUS
 10
144.2329141532
 20
140.9677615867
 11
144.2160715097
 21
140.2769412235
  0
LINE
  5
5B7
100
AcDbEntity
  8
ASSI
100
AcDbLine
 62
253
  6
CONTINUOUS
 10
144.2329141532
 20
140.9677615867
 11
144.2160715097
 21
140.2769412235
  0
LINE
  5
5B8
100
AcDbEntity
  8
0
100
AcDbLine
 62
7
  6
CONTINUOUS
 10
141.5338894608
 20
121.4896834702
 11
141.5328523739
 21
121.4466942747
  0
LINE
  5
5B9
100
AcDbEntity
  8
ASSI
100
AcDbLine
 62
7
  6
CONTINUOUS
 10
141.5338894608
 20
121.4896834702
 11
141.5328523739
 21
121.4466942747
  0
LINE
  5
5BA
100
AcDbEntity
  8
0
100
AcDbLine
 62
253
  6
CONTINUOUS
 10
141.5328523739
 20
121.4466942747
 11
141.5333545231
 21
121.4613600945
  0
LINE
  5
5BB
100
AcDbEntity
  8
ASSI
100
AcDbLine
 62
253
  6
CONTINUOUS
 10
141.5328523739
 20
121.4466942747
 11
141.5333545231
 21
121.4613600945
  0
LINE
  5
5BC
100
AcDbEntity
  8
0
100
AcDbLine
 62
253
  6
CONTINUOUS
 10
143.7721284989
 20
140.2779204182
 11
143.7521515602
 21
139.5751735843
  0
LINE
  5
5BD
100
AcDbEntity
  8
ASSI
100
AcDbLine
 62
253
  6
CONTINUOUS
 10
143.7721284989
 20
140.2779204182
 11
143.7521515602
 21
139.5751735843
  0
LINE
  5
5BE
100
AcDbEntity
  8
0
100
AcDbLine
 62
7
  6
CONTINUOUS
 10
141.5328523739
 20
121.4466942747
 11
141.5310497439
 21
121.3863178353
  0
LINE
  5
5BF
100
AcDbEntity
  8
ASSI
100
AcDbLine
 62
7
  6
CONTINUOUS
 10
141.5328523739
 20
121.4466942747
 11
141.5310497439
 21
121.3863178353
  0
LINE
  5
5C0
100
AcDbEntity
  8
0
100
AcDbLine
 62
253
  6
CONTINUOUS
 10
144.2160715097
 20
140.2769412235
 11
144.1931246195
 21
139.5223254539
  0
LINE
  5
5C1
100
AcDbEntity
  8
ASSI
100
AcDbLine
 62
253
  6
CONTINUOUS
 10
144.2160715097
 20
140.2769412235
 11
144.1931246195
 21
139.5223254539
  0
LWPOLYLINE
  5
5C2
100
AcDbEntity
  8
0
100
AcDbPolyline
 62
253
  6
CONTINUOUS
 90
15
 70
0
 10
142.7530775616
 20
118.7676805615
 10
142.6505824395
 20
115.6279420353
 10
142.5651565443
 20
112.4857386794
 10
142.4967887503
 20
109.3408456415
 10
142.4454951948
 20
106.1937344608
 10
142.4112974367
 20
103.0455734775
 10
142.3941942487
 20
99.8963428814
 10
142.394194319
 20
96.7463119636
 10
142.4112976356
 20
93.5970833631
 10
142.4454954616
 20
90.4489274699
 10
142.4967889842
 20
87.3018233731
 10
142.5651566954
 20
84.1569361147
 10
142.650582519
 20
81.0147361348
 10
142.7530775826
 20
77.8749996809
 10
142.8726526499
 20
74.7378494675
  0
LWPOLYLINE
  5
5C3
100
AcDbEntity
  8
ASSI
100
AcDbPolyline
 62
253
  6
CONTINUOUS
 90
15
 70
0
 10
142.7530775616
 20
118.7676805615
 10
142.6505824395
 20
115.6279420353
 10
142.5651565443
 20
112.4857386794
 10
142.4967887503
 20
109.3408456415
 10
142.4454951948
 20
106.1937344608
 10
142.4112974367
 20
103.0455734775
 10
142.3941942487
 20
99.8963428814
 10
142.394194319
 20
96.7463119636
 10
142.4112976356
 20
93.5970833631
 10
142.4454954616
 20
90.4489274699
 10
142.4967889842
 20
87.3018233731
 10
142.5651566954
 20
84.1569361147
 10
142.650582519
 20
81.0147361348
 10
142.7530775826
 20
77.8749996809
 10
142.8726526499
 20
74.7378494675
  0
LWPOLYLINE
  5
5C4
100
AcDbEntity
  8
0
100
AcDbPolyline
 62
253
  6
CONTINUOUS
 90
15
 70
0
 10
143.2079331178
 20
118.7902276349
 10
143.1055337973
 20
115.6470369821
 10
143.0201775383
 20
112.5008842572
 10
142.9518804985
 20
109.3523601505
 10
142.9006458642
 20
106.2021177427
 10
142.8664759043
 20
103.0506296231
 10
142.8493808319
 20
99.8979641986
 10
142.8493809077
 20
96.7446888252
 10
142.8664761241
 20
93.5920248157
 10
142.9006461732
 20
90.4405414331
 10
142.9518807856
 20
87.2903063335
 10
143.0201777478
 20
84.1417881238
 10
143.1055339377
 20
80.9956390611
 10
143.2079331822
 20
77.852451411
 10
143.3273602034
 20
74.7126035641
  0
LWPOLYLINE
  5
5C5
100
AcDbEntity
  8
ASSI
100
AcDbPolyline
 62
253
  6
CONTINUOUS
 90
15
 70
0
 10
143.2079331178
 20
118.7902276349
 10
143.1055337973
 20
115.6470369821
 10
143.0201775383
 20
112.5008842572
 10
142.9518804985
 20
109.3523601505
 10
142.9006458642
 20
106.2021177427
 10
142.8664759043
 20
103.0506296231
 10
142.8493808319
 20
99.8979641986
 10
142.8493809077
 20
96.7446888252
 10
142.8664761241
 20
93.5920248157
 10
142.9006461732
 20
90.4405414331
 10
142.9518807856
 20
87.2903063335
 10
143.0201777478
 20
84.1417881238
 10
143.1055339377
 20
80.9956390611
 10
143.2079331822
 20
77.852451411
 10
143.3273602034
 20
74.7126035641
  0
LINE
  5
5C6
100
AcDbEntity
  8
0
100
AcDbLine
 62
253
  6
CONTINUOUS
 10
141.5311068471
 20
121.3863159596
 11
141.5313160545
 21
121.3926848034
  0
LINE
  5
5C7
100
AcDbEntity
  8
ASSI
100
AcDbLine
 62
253
  6
CONTINUOUS
 10
141.5311068471
 20
121.3863159596
 11
141.5313160545
 21
121.3926848034
  0
LWPOLYLINE
  5
5C8
100
AcDbEntity
  8
0
100
AcDbPolyline
 62
7
  6
CONTINUOUS
 90
15
 70
0
 10
144.4997303013
 20
118.8008501097
 10
144.3967831463
 20
115.6569942919
 10
144.3109712546
 20
112.5096911083
 10
144.2422795682
 20
109.3591025866
 10
144.1907231452
 20
106.2060656995
 10
144.1563471597
 20
103.0520938971
 10
144.1391666634
 20
99.8982416023
 10
144.1391666046
 20
96.7444594348
 10
144.1563470035
 20
93.5906063106
 10
144.1907229159
 20
90.4366327348
 10
144.2422792859
 20
87.2835932472
 10
144.310970966
 20
84.1330016459
 10
144.3967829071
 20
80.9856950211
 10
144.4997301583
 20
77.841835288
 10
144.6198127197
 20
74.7019205057
  0
LWPOLYLINE
  5
5C9
100
AcDbEntity
  8
ASSI
100
AcDbPolyline
 62
7
  6
CONTINUOUS
 90
15
 70
0
 10
144.4997303013
 20
118.8008501097
 10
144.3967831463
 20
115.6569942919
 10
144.3109712546
 20
112.5096911083
 10
144.2422795682
 20
109.3591025866
 10
144.1907231452
 20
106.2060656995
 10
144.1563471597
 20
103.0520938971
 10
144.1391666634
 20
99.8982416023
 10
144.1391666046
 20
96.7444594348
 10
144.1563470035
 20
93.5906063106
 10
144.1907229159
 20
90.4366327348
 10
144.2422792859
 20
87.2835932472
 10
144.310970966
 20
84.1330016459
 10
144.3967829071
 20
80.9856950211
 10
144.4997301583
 20
77.841835288
 10
144.6198127197
 20
74.7019205057
  0
LINE
  5
5CA
100
AcDbEntity
  8
0
100
AcDbLine
 62
253
  6
CONTINUOUS
 10
143.7521515602
 20
139.5751735843
 11
143.7261806891
 21
138.8116375494
  0
LINE
  5
5CB
100
AcDbEntity
  8
ASSI
100
AcDbLine
 62
253
  6
CONTINUOUS
 10
143.7521515602
 20
139.5751735843
 11
143.7261806891
 21
138.8116375494
  0
LINE
  5
5CC
100
AcDbEntity
  8
0
100
AcDbLine
 62
7
  6
CONTINUOUS
 10
141.5310451928
 20
121.3862576368
 11
141.5264214595
 21
121.2526752517
  0
LINE
  5
5CD
100
AcDbEntity
  8
ASSI
100
AcDbLine
 62
7
  6
CONTINUOUS
 10
141.5310451928
 20
121.3862576368
 11
141.5264214595
 21
121.2526752517
  0
LINE
  5
5CE
100
AcDbEntity
  8
0
100
AcDbLine
 62
253
  6
CONTINUOUS
 10
144.1931246195
 20
139.5223254539
 11
144.1643333322
 21
138.7072876786
  0
LINE
  5
5CF
100
AcDbEntity
  8
ASSI
100
AcDbLine
 62
253
  6
CONTINUOUS
 10
144.1931246195
 20
139.5223254539
 11
144.1643333322
 21
138.7072876786
  0
LINE
  5
5D0
100
AcDbEntity
  8
0
100
AcDbLine
 62
253
  6
CONTINUOUS
 10
143.7261806891
 20
138.8116375494
 11
143.6944935741
 21
137.9910572916
  0
LINE
  5
5D1
100
AcDbEntity
  8
ASSI
100
AcDbLine
 62
253
  6
CONTINUOUS
 10
143.7261806891
 20
138.8116375494
 11
143.6944935741
 21
137.9910572916
  0
LINE
  5
5D2
100
AcDbEntity
  8
0
100
AcDbLine
 62
253
  6
CONTINUOUS
 10
144.1643333322
 20
138.7072876786
 11
144.1299935149
 21
137.8355598237
  0
LINE
  5
5D3
100
AcDbEntity
  8
ASSI
100
AcDbLine
 62
253
  6
CONTINUOUS
 10
144.1643333322
 20
138.7072876786
 11
144.1299935149
 21
137.8355598237
  0
LINE
  5
5D4
100
AcDbEntity
  8
0
100
AcDbLine
 62
7
  6
CONTINUOUS
 10
145.4985625177
 20
139.1957881797
 11
145.46511331
 21
138.3466091504
  0
LINE
  5
5D5
100
AcDbEntity
  8
ASSI
100
AcDbLine
 62
7
  6
CONTINUOUS
 10
145.4985625177
 20
139.1957881797
 11
145.46511331
 21
138.3466091504
  0
LINE
  5
5D6
100
AcDbEntity
  8
0
100
AcDbLine
 62
7
  6
CONTINUOUS
 10
141.5264214595
 20
121.2526752517
 11
141.5123989309
 21
120.8986835568
  0
LINE
  5
5D7
100
AcDbEntity
  8
ASSI
100
AcDbLine
 62
7
  6
CONTINUOUS
 10
141.5264214595
 20
121.2526752517
 11
141.5123989309
 21
120.8986835568
  0
LINE
  5
5D8
100
AcDbEntity
  8
0
100
AcDbLine
 62
253
  6
CONTINUOUS
 10
143.3501996592
 20
122.4817158972
 11
143.2079331178
 21
118.7902276349
  0
LINE
  5
5D9
100
AcDbEntity
  8
ASSI
100
AcDbLine
 62
253
  6
CONTINUOUS
 10
143.3501996592
 20
122.4817158972
 11
143.2079331178
 21
118.7902276349
  0
LINE
  5
5DA
100
AcDbEntity
  8
0
100
AcDbLine
 62
7
  6
CONTINUOUS
 10
144.6384484371
 20
122.3889935522
 11
144.4997303013
 21
118.8008501097
  0
LINE
  5
5DB
100
AcDbEntity
  8
ASSI
100
AcDbLine
 62
7
  6
CONTINUOUS
 10
144.6384484371
 20
122.3889935522
 11
144.4997303013
 21
118.8008501097
  0
LINE
  5
5DC
100
AcDbEntity
  8
0
100
AcDbLine
 62
253
  6
CONTINUOUS
 10
142.895524877
 20
122.4560552537
 11
142.7530775616
 21
118.7676805615
  0
LINE
  5
5DD
100
AcDbEntity
  8
ASSI
100
AcDbLine
 62
253
  6
CONTINUOUS
 10
142.895524877
 20
122.4560552537
 11
142.7530775616
 21
118.7676805615
  0
LINE
  5
5DE
100
AcDbEntity
  8
0
100
AcDbLine
 62
253
  6
CONTINUOUS
 10
141.5123989309
 20
120.8986835568
 11
141.5134819929
 21
120.9242194461
  0
LINE
  5
5DF
100
AcDbEntity
  8
ASSI
100
AcDbLine
 62
253
  6
CONTINUOUS
 10
141.5123989309
 20
120.8986835568
 11
141.5134819929
 21
120.9242194461
  0
LINE
  5
5E0
100
AcDbEntity
  8
0
100
AcDbLine
 62
253
  6
CONTINUOUS
 10
143.6944935741
 20
137.9910572916
 11
143.6574259745
 21
137.1177926026
  0
LINE
  5
5E1
100
AcDbEntity
  8
ASSI
100
AcDbLine
 62
253
  6
CONTINUOUS
 10
143.6944935741
 20
137.9910572916
 11
143.6574259745
 21
137.1177926026
  0
LINE
  5
5E2
100
AcDbEntity
  8
0
100
AcDbLine
 62
253
  6
CONTINUOUS
 10
144.1299935149
 20
137.8355598237
 11
144.0904155368
 21
136.9111109404
  0
LINE
  5
5E3
100
AcDbEntity
  8
ASSI
100
AcDbLine
 62
253
  6
CONTINUOUS
 10
144.1299935149
 20
137.8355598237
 11
144.0904155368
 21
136.9111109404
  0
LINE
  5
5E4
100
AcDbEntity
  8
0
100
AcDbLine
 62
7
  6
CONTINUOUS
 10
145.46511331
 20
138.3466091504
 11
145.4261275062
 21
137.4426711678
  0
LINE
  5
5E5
100
AcDbEntity
  8
ASSI
100
AcDbLine
 62
7
  6
CONTINUOUS
 10
145.46511331
 20
138.3466091504
 11
145.4261275062
 21
137.4426711678
  0
LINE
  5
5E6
100
AcDbEntity
  8
0
100
AcDbLine
 62
7
  6
CONTINUOUS
 10
141.5123989309
 20
120.8986835568
 11
141.3931700656
 21
118.0732609748
  0
LINE
  5
5E7
100
AcDbEntity
  8
ASSI
100
AcDbLine
 62
7
  6
CONTINUOUS
 10
141.5123989309
 20
120.8986835568
 11
141.3931700656
 21
118.0732609748
  0
LINE
  5
5E8
100
AcDbEntity
  8
0
100
AcDbLine
 62
253
  6
CONTINUOUS
 10
143.4274748051
 20
124.2211053799
 11
143.3501996592
 21
122.4817158972
  0
LINE
  5
5E9
100
AcDbEntity
  8
ASSI
100
AcDbLine
 62
253
  6
CONTINUOUS
 10
143.4274748051
 20
124.2211053799
 11
143.3501996592
 21
122.4817158972
  0
LINE
  5
5EA
100
AcDbEntity
  8
0
100
AcDbLine
 62
253
  6
CONTINUOUS
 10
142.9729188817
 20
124.1942996821
 11
142.895524877
 21
122.4560552537
  0
LINE
  5
5EB
100
AcDbEntity
  8
ASSI
100
AcDbLine
 62
253
  6
CONTINUOUS
 10
142.9729188817
 20
124.1942996821
 11
142.895524877
 21
122.4560552537
  0
LINE
  5
5EC
100
AcDbEntity
  8
0
100
AcDbLine
 62
253
  6
CONTINUOUS
 10
143.6574259745
 20
137.1177926026
 11
143.6152635015
 21
136.1948708477
  0
LINE
  5
5ED
100
AcDbEntity
  8
ASSI
100
AcDbLine
 62
253
  6
CONTINUOUS
 10
143.6574259745
 20
137.1177926026
 11
143.6152635015
 21
136.1948708477
  0
LINE
  5
5EE
100
AcDbEntity
  8
0
100
AcDbLine
 62
253
  6
CONTINUOUS
 10
144.0904155368
 20
136.9111109404
 11
144.0459329318
 21
135.9382439595
  0
LINE
  5
5EF
100
AcDbEntity
  8
ASSI
100
AcDbLine
 62
253
  6
CONTINUOUS
 10
144.0904155368
 20
136.9111109404
 11
144.0459329318
 21
135.9382439595
  0
LINE
  5
5F0
100
AcDbEntity
  8
0
100
AcDbLine
 62
7
  6
CONTINUOUS
 10
144.7183193912
 20
124.1812902293
 11
144.6384484371
 21
122.3889935522
  0
LINE
  5
5F1
100
AcDbEntity
  8
ASSI
100
AcDbLine
 62
7
  6
CONTINUOUS
 10
144.7183193912
 20
124.1812902293
 11
144.6384484371
 21
122.3889935522
  0
LINE
  5
5F2
100
AcDbEntity
  8
0
100
AcDbLine
 62
253
  6
CONTINUOUS
 10
141.5459337722
 20
121.7070099329
 11
141.5310497439
 21
121.3863178353
  0
LINE
  5
5F3
100
AcDbEntity
  8
ASSI
100
AcDbLine
 62
253
  6
CONTINUOUS
 10
141.5459337722
 20
121.7070099329
 11
141.5310497439
 21
121.3863178353
  0
LINE
  5
5F4
100
AcDbEntity
  8
0
100
AcDbLine
 62
253
  6
CONTINUOUS
 10
141.5557891937
 20
121.9165630511
 11
141.5459337722
 21
121.7070099329
  0
LINE
  5
5F5
100
AcDbEntity
  8
ASSI
100
AcDbLine
 62
253
  6
CONTINUOUS
 10
141.5557891937
 20
121.9165630511
 11
141.5459337722
 21
121.7070099329
  0
LINE
  5
5F6
100
AcDbEntity
  8
0
100
AcDbLine
 62
7
  6
CONTINUOUS
 10
145.4261275062
 20
137.4426711678
 11
145.3818693801
 21
136.4882741356
  0
LINE
  5
5F7
100
AcDbEntity
  8
ASSI
100
AcDbLine
 62
7
  6
CONTINUOUS
 10
145.4261275062
 20
137.4426711678
 11
145.3818693801
 21
136.4882741356
  0
LINE
  5
5F8
100
AcDbEntity
  8
0
100
AcDbLine
 62
253
  6
CONTINUOUS
 10
144.0459329318
 20
135.9382439595
 11
143.9969121596
 21
134.9216583413
  0
LINE
  5
5F9
100
AcDbEntity
  8
ASSI
100
AcDbLine
 62
253
  6
CONTINUOUS
 10
144.0459329318
 20
135.9382439595
 11
143.9969121596
 21
134.9216583413
  0
LINE
  5
5FA
100
AcDbEntity
  8
0
100
AcDbLine
 62
253
  6
CONTINUOUS
 10
143.6152635015
 20
136.1948708477
 11
143.5683578759
 21
135.2269878948
  0
LINE
  5
5FB
100
AcDbEntity
  8
ASSI
100
AcDbLine
 62
253
  6
CONTINUOUS
 10
143.6152635015
 20
136.1948708477
 11
143.5683578759
 21
135.2269878948
  0
LINE
  5
5FC
100
AcDbEntity
  8
0
100
AcDbLine
 62
7
  6
CONTINUOUS
 10
145.3818693801
 20
136.4882741356
 11
145.3327520839
 21
135.4879627215
  0
LINE
  5
5FD
100
AcDbEntity
  8
ASSI
100
AcDbLine
 62
7
  6
CONTINUOUS
 10
145.3818693801
 20
136.4882741356
 11
145.3327520839
 21
135.4879627215
  0
LINE
  5
5FE
100
AcDbEntity
  8
0
100
AcDbLine
 62
253
  6
CONTINUOUS
 10
143.5127241888
 20
125.9594561226
 11
143.4274748051
 21
124.2211053799
  0
LINE
  5
5FF
100
AcDbEntity
  8
ASSI
100
AcDbLine
 62
253
  6
CONTINUOUS
 10
143.5127241888
 20
125.9594561226
 11
143.4274748051
 21
124.2211053799
  0
LINE
  5
600
100
AcDbEntity
  8
0
100
AcDbLine
 62
253
  6
CONTINUOUS
 10
143.0582992869
 20
125.931509444
 11
142.9729188817
 21
124.1942996821
  0
LINE
  5
601
100
AcDbEntity
  8
ASSI
100
AcDbLine
 62
253
  6
CONTINUOUS
 10
143.0582992869
 20
125.931509444
 11
142.9729188817
 21
124.1942996821
  0
LINE
  5
602
100
AcDbEntity
  8
0
100
AcDbLine
 62
7
  6
CONTINUOUS
 10
144.8067134695
 20
125.9724890165
 11
144.7183193912
 21
124.1812902293
  0
LINE
  5
603
100
AcDbEntity
  8
ASSI
100
AcDbLine
 62
7
  6
CONTINUOUS
 10
144.8067134695
 20
125.9724890165
 11
144.7183193912
 21
124.1812902293
  0
LINE
  5
604
100
AcDbEntity
  8
0
100
AcDbLine
 62
253
  6
CONTINUOUS
 10
143.9969121596
 20
134.9216583413
 11
143.9157196602
 21
133.3262646581
  0
LINE
  5
605
100
AcDbEntity
  8
ASSI
100
AcDbLine
 62
253
  6
CONTINUOUS
 10
143.9969121596
 20
134.9216583413
 11
143.9157196602
 21
133.3262646581
  0
LINE
  5
606
100
AcDbEntity
  8
0
100
AcDbLine
 62
7
  6
CONTINUOUS
 10
145.3327520839
 20
135.4879627215
 11
145.279221647
 21
134.4465447655
  0
LINE
  5
607
100
AcDbEntity
  8
ASSI
100
AcDbLine
 62
7
  6
CONTINUOUS
 10
145.3327520839
 20
135.4879627215
 11
145.279221647
 21
134.4465447655
  0
LINE
  5
608
100
AcDbEntity
  8
0
100
AcDbLine
 62
253
  6
CONTINUOUS
 10
143.5683578759
 20
135.2269878948
 11
143.4899823725
 21
133.702158414
  0
LINE
  5
609
100
AcDbEntity
  8
ASSI
100
AcDbLine
 62
253
  6
CONTINUOUS
 10
143.5683578759
 20
135.2269878948
 11
143.4899823725
 21
133.702158414
  0
LINE
  5
60A
100
AcDbEntity
  8
0
100
AcDbLine
 62
253
  6
CONTINUOUS
 10
143.9157196602
 20
133.3262646581
 11
143.8265637094
 21
131.6630659141
  0
LINE
  5
60B
100
AcDbEntity
  8
ASSI
100
AcDbLine
 62
253
  6
CONTINUOUS
 10
143.9157196602
 20
133.3262646581
 11
143.8265637094
 21
131.6630659141
  0
LINE
  5
60C
100
AcDbEntity
  8
0
100
AcDbLine
 62
253
  6
CONTINUOUS
 10
143.6306467961
 20
128.1827747268
 11
143.5127241899
 21
125.9594561228
  0
LINE
  5
60D
100
AcDbEntity
  8
ASSI
100
AcDbLine
 62
253
  6
CONTINUOUS
 10
143.6306467961
 20
128.1827747268
 11
143.5127241899
 21
125.9594561228
  0
LINE
  5
60E
100
AcDbEntity
  8
0
100
AcDbLine
 62
7
  6
CONTINUOUS
 10
145.279221647
 20
134.4465447655
 11
145.1913815367
 21
132.8183348901
  0
LINE
  5
60F
100
AcDbEntity
  8
ASSI
100
AcDbLine
 62
7
  6
CONTINUOUS
 10
145.279221647
 20
134.4465447655
 11
145.1913815367
 21
132.8183348901
  0
LINE
  5
610
100
AcDbEntity
  8
0
100
AcDbLine
 62
253
  6
CONTINUOUS
 10
143.1764040862
 20
128.1399664837
 11
143.0582992869
 21
125.931509444
  0
LINE
  5
611
100
AcDbEntity
  8
ASSI
100
AcDbLine
 62
253
  6
CONTINUOUS
 10
143.1764040862
 20
128.1399664837
 11
143.0582992869
 21
125.931509444
  0
LINE
  5
612
100
AcDbEntity
  8
0
100
AcDbLine
 62
253
  6
CONTINUOUS
 10
143.4899823725
 20
133.702158414
 11
143.4031704486
 21
132.1052104502
  0
LINE
  5
613
100
AcDbEntity
  8
ASSI
100
AcDbLine
 62
253
  6
CONTINUOUS
 10
143.4899823725
 20
133.702158414
 11
143.4031704486
 21
132.1052104502
  0
LINE
  5
614
100
AcDbEntity
  8
0
100
AcDbLine
 62
7
  6
CONTINUOUS
 10
144.9264661803
 20
128.1991096973
 11
144.8067134695
 21
125.9724890165
  0
LINE
  5
615
100
AcDbEntity
  8
ASSI
100
AcDbLine
 62
7
  6
CONTINUOUS
 10
144.9264661803
 20
128.1991096973
 11
144.8067134695
 21
125.9724890165
  0
LINE
  5
616
100
AcDbEntity
  8
0
100
AcDbLine
 62
253
  6
CONTINUOUS
 10
143.8265637094
 20
131.6630659141
 11
143.7308577783
 21
129.9519374629
  0
LINE
  5
617
100
AcDbEntity
  8
ASSI
100
AcDbLine
 62
253
  6
CONTINUOUS
 10
143.8265637094
 20
131.6630659141
 11
143.7308577783
 21
129.9519374629
  0
LINE
  5
618
100
AcDbEntity
  8
0
100
AcDbLine
 62
7
  6
CONTINUOUS
 10
145.1913815367
 20
132.8183348901
 11
145.0958146583
 21
131.1265794125
  0
LINE
  5
619
100
AcDbEntity
  8
ASSI
100
AcDbLine
 62
7
  6
CONTINUOUS
 10
145.1913815367
 20
132.8183348901
 11
145.0958146583
 21
131.1265794125
  0
LINE
  5
61A
100
AcDbEntity
  8
0
100
AcDbLine
 62
253
  6
CONTINUOUS
 10
143.4031704486
 20
132.1052104502
 11
143.3094351841
 21
130.4568795944
  0
LINE
  5
61B
100
AcDbEntity
  8
ASSI
100
AcDbLine
 62
253
  6
CONTINUOUS
 10
143.4031704486
 20
132.1052104502
 11
143.3094351841
 21
130.4568795944
  0
LINE
  5
61C
100
AcDbEntity
  8
0
100
AcDbLine
 62
253
  6
CONTINUOUS
 10
143.7308576596
 20
129.9519374598
 11
143.6306467961
 21
128.1827747268
  0
LINE
  5
61D
100
AcDbEntity
  8
ASSI
100
AcDbLine
 62
253
  6
CONTINUOUS
 10
143.7308576596
 20
129.9519374598
 11
143.6306467961
 21
128.1827747268
  0
LINE
  5
61E
100
AcDbEntity
  8
0
100
AcDbLine
 62
253
  6
CONTINUOUS
 10
143.3094351841
 20
130.4568795944
 11
143.1764040862
 21
128.1399664837
  0
LINE
  5
61F
100
AcDbEntity
  8
ASSI
100
AcDbLine
 62
253
  6
CONTINUOUS
 10
143.3094351841
 20
130.4568795944
 11
143.1764040862
 21
128.1399664837
  0
LINE
  5
620
100
AcDbEntity
  8
0
100
AcDbLine
 62
7
  6
CONTINUOUS
 10
145.0958146583
 20
131.1265794125
 11
144.9264661803
 21
128.1991096973
  0
LINE
  5
621
100
AcDbEntity
  8
ASSI
100
AcDbLine
 62
7
  6
CONTINUOUS
 10
145.0958146583
 20
131.1265794125
 11
144.9264661803
 21
128.1991096973
  0
LINE
  5
622
100
AcDbEntity
  8
0
100
AcDbLine
 62
253
  6
CONTINUOUS
 10
141.5342356727
 20
75.129406533
 11
141.5336539164
 21
75.1201811245
  0
LINE
  5
623
100
AcDbEntity
  8
ASSI
100
AcDbLine
 62
253
  6
CONTINUOUS
 10
141.5342356727
 20
75.129406533
 11
141.5336539164
 21
75.1201811245
  0
LINE
  5
624
100
AcDbEntity
  8
0
100
AcDbLine
 62
253
  6
CONTINUOUS
 10
146.3660856778
 20
144.3359322067
 11
146.4234186978
 21
144.8363638769
  0
LINE
  5
625
100
AcDbEntity
  8
RACCORDO
100
AcDbLine
 62
7
  6
CONTINUOUS
 10
149.4327194029
 20
94.4686865443
 11
147.6393073584
 21
94.7849134753
  0
LINE
  5
626
100
AcDbEntity
  8
0
100
AcDbLine
 62
253
  6
CONTINUOUS
 10
146.3660856779
 20
52.3067488045
 11
146.4234186978
 21
51.8063171346
  0
LINE
  5
627
100
AcDbEntity
  8
0
100
AcDbLine
 62
7
  6
CONTINUOUS
 10
146.4425155177
 20
64.1958323443
 11
146.2438559949
 21
67.6363680075
  0
LINE
  5
628
100
AcDbEntity
  8
0
100
AcDbLine
 62
7
  6
CONTINUOUS
 10
146.2438559949
 20
67.6363680075
 11
146.169368831
 21
68.9577964926
  0
LINE
  5
629
100
AcDbEntity
  8
0
100
AcDbLine
 62
7
  6
CONTINUOUS
 10
146.1315938122
 20
69.0274674086
 11
146.3431601567
 21
65.3475467469
  0
LINE
  5
62A
100
AcDbEntity
  8
RACCORDO
100
AcDbLine
 62
253
  6
CONTINUOUS
 10
145.9969121985
 20
65.8465428313
 11
146.0821288984
 21
64.3163851712
  0
LINE
  5
62B
100
AcDbEntity
  8
0
100
AcDbLine
 62
7
  6
CONTINUOUS
 10
146.3431601567
 20
65.3475467469
 11
146.4247290935
 21
63.8873254354
  0
LINE
  5
62C
100
AcDbEntity
  8
RACCORDO
100
AcDbLine
 62
253
  6
CONTINUOUS
 10
145.7915486107
 20
69.4646777566
 11
145.9969121985
 21
65.8465428313
  0
LINE
  5
62D
100
AcDbEntity
  8
0
100
AcDbLine
 62
7
  6
CONTINUOUS
 10
145.6570057037
 20
69.7783862153
 11
146.0262150867
 21
63.2688692245
  0
LINE
  5
62E
100
AcDbEntity
  8
ASSI
100
AcDbLine
 62
7
  6
CONTINUOUS
 10
145.6570057037
 20
69.7783862153
 11
146.0262150867
 21
63.2688692245
  0
LINE
  5
62F
100
AcDbEntity
  8
0
100
AcDbLine
 62
7
  6
CONTINUOUS
 10
146.169368831
 20
68.9577964926
 11
146.0979129475
 21
70.2829819268
  0
LINE
  5
630
100
AcDbEntity
  8
0
100
AcDbLine
 62
7
  6
CONTINUOUS
 10
146.5475715195
 20
62.2495918855
 11
146.4425155177
 21
64.1958323443
  0
LINE
  5
631
100
AcDbEntity
  8
0
100
AcDbLine
 62
7
  6
CONTINUOUS
 10
146.4247290935
 20
63.8873254354
 11
146.499681252
 21
62.4812474998
  0
LINE
  5
632
100
AcDbEntity
  8
RACCORDO
100
AcDbLine
 62
253
  6
CONTINUOUS
 10
146.0821288984
 20
64.3163851712
 11
146.1616948871
 21
62.8215464992
  0
LINE
  5
633
100
AcDbEntity
  8
0
100
AcDbLine
 62
7
  6
CONTINUOUS
 10
146.0262150867
 20
63.2688692245
 11
146.1114672382
 21
61.6643543304
  0
LINE
  5
634
100
AcDbEntity
  8
ASSI
100
AcDbLine
 62
7
  6
CONTINUOUS
 10
146.0262150867
 20
63.2688692245
 11
146.1114672382
 21
61.6643543304
  0
LINE
  5
635
100
AcDbEntity
  8
0
100
AcDbLine
 62
7
  6
CONTINUOUS
 10
146.0152532434
 20
71.2230509687
 11
146.1315938122
 21
69.0274674086
  0
LINE
  5
636
100
AcDbEntity
  8
0
100
AcDbLine
 62
7
  6
CONTINUOUS
 10
145.5642215355
 20
71.5740681439
 11
145.6570057037
 21
69.7783862153
  0
LINE
  5
637
100
AcDbEntity
  8
ASSI
100
AcDbLine
 62
7
  6
CONTINUOUS
 10
145.5642215355
 20
71.5740681439
 11
145.6570057037
 21
69.7783862153
  0
LINE
  5
638
100
AcDbEntity
  8
RACCORDO
100
AcDbLine
 62
253
  6
CONTINUOUS
 10
145.6777785004
 20
71.6579072804
 11
145.7915486107
 21
69.4646777566
  0
LINE
  5
639
100
AcDbEntity
  8
0
100
AcDbLine
 62
7
  6
CONTINUOUS
 10
146.0979129475
 20
70.2829819268
 11
146.0293213515
 21
71.6223516491
  0
LINE
  5
63A
100
AcDbEntity
  8
0
100
AcDbLine
 62
7
  6
CONTINUOUS
 10
146.1114672382
 20
61.6643543304
 11
146.1630286565
 21
60.6424273958
  0
LINE
  5
63B
100
AcDbEntity
  8
ASSI
100
AcDbLine
 62
7
  6
CONTINUOUS
 10
146.1114672382
 20
61.6643543304
 11
146.1630286565
 21
60.6424273958
  0
LINE
  5
63C
100
AcDbEntity
  8
RACCORDO
100
AcDbLine
 62
253
  6
CONTINUOUS
 10
146.1616948871
 20
62.8215464992
 11
146.2330869607
 21
61.3994428003
  0
LINE
  5
63D
100
AcDbEntity
  8
0
100
AcDbLine
 62
7
  6
CONTINUOUS
 10
146.499681252
 20
62.4812474998
 11
146.5670993925
 21
61.1408741904
  0
LINE
  5
63E
100
AcDbEntity
  8
0
100
AcDbLine
 62
7
  6
CONTINUOUS
 10
146.6387781678
 20
60.4265190873
 11
146.5475715195
 21
62.2495918855
  0
LINE
  5
63F
100
AcDbEntity
  8
0
100
AcDbLine
 62
7
  6
CONTINUOUS
 10
146.1630286565
 20
60.6424273958
 11
146.209850747
 21
59.6644469848
  0
LINE
  5
640
100
AcDbEntity
  8
ASSI
100
AcDbLine
 62
7
  6
CONTINUOUS
 10
146.1630286565
 20
60.6424273958
 11
146.209850747
 21
59.6644469848
  0
LINE
  5
641
100
AcDbEntity
  8
RACCORDO
100
AcDbLine
 62
253
  6
CONTINUOUS
 10
146.2330869607
 20
61.3994428003
 11
146.2756602194
 21
60.4975521851
  0
LINE
  5
642
100
AcDbEntity
  8
0
100
AcDbLine
 62
7
  6
CONTINUOUS
 10
145.9298740844
 20
72.9927719556
 11
146.0152532434
 21
71.2230509687
  0
LINE
  5
643
100
AcDbEntity
  8
0
100
AcDbLine
 62
7
  6
CONTINUOUS
 10
146.0293213515
 20
71.6223516491
 11
145.9651711298
 21
72.9681768359
  0
LINE
  5
644
100
AcDbEntity
  8
0
100
AcDbLine
 62
7
  6
CONTINUOUS
 10
145.4791671432
 20
73.3826760386
 11
145.5642215355
 21
71.5740681439
  0
LINE
  5
645
100
AcDbEntity
  8
ASSI
100
AcDbLine
 62
7
  6
CONTINUOUS
 10
145.4791671432
 20
73.3826760386
 11
145.5642215355
 21
71.5740681439
  0
LINE
  5
646
100
AcDbEntity
  8
RACCORDO
100
AcDbLine
 62
253
  6
CONTINUOUS
 10
145.5953059287
 20
73.4131228984
 11
145.6777785004
 21
71.6579072804
  0
LINE
  5
647
100
AcDbEntity
  8
0
100
AcDbLine
 62
7
  6
CONTINUOUS
 10
146.5670993925
 20
61.1408741904
 11
146.6258493241
 21
59.8822481806
  0
LINE
  5
648
100
AcDbEntity
  8
0
100
AcDbLine
 62
7
  6
CONTINUOUS
 10
146.696640392
 20
59.1585923612
 11
146.6387781678
 21
60.4265190873
  0
LINE
  5
649
100
AcDbEntity
  8
0
100
AcDbLine
 62
7
  6
CONTINUOUS
 10
146.209850747
 20
59.6644469848
 11
146.2516503189
 21
58.73504376
  0
LINE
  5
64A
100
AcDbEntity
  8
ASSI
100
AcDbLine
 62
7
  6
CONTINUOUS
 10
146.209850747
 20
59.6644469848
 11
146.2516503189
 21
58.73504376
  0
LINE
  5
64B
100
AcDbEntity
  8
RACCORDO
100
AcDbLine
 62
253
  6
CONTINUOUS
 10
146.2756602194
 20
60.4975521851
 11
146.3139053831
 21
59.6375236617
  0
LINE
  5
64C
100
AcDbEntity
  8
0
100
AcDbLine
 62
7
  6
CONTINUOUS
 10
145.9651711298
 20
72.9681768359
 11
145.9058549844
 21
74.3146039325
  0
LINE
  5
64D
100
AcDbEntity
  8
0
100
AcDbLine
 62
7
  6
CONTINUOUS
 10
146.6258493241
 20
59.8822481806
 11
146.6598551369
 21
59.0918521392
  0
LINE
  5
64E
100
AcDbEntity
  8
0
100
AcDbLine
 62
7
  6
CONTINUOUS
 10
145.4210898681
 20
74.7398405057
 11
145.4791671432
 21
73.3826760386
  0
LINE
  5
64F
100
AcDbEntity
  8
ASSI
100
AcDbLine
 62
7
  6
CONTINUOUS
 10
145.4210898681
 20
74.7398405057
 11
145.4791671432
 21
73.3826760386
  0
LINE
  5
650
100
AcDbEntity
  8
RACCORDO
100
AcDbLine
 62
253
  6
CONTINUOUS
 10
145.535535316
 20
74.8107505258
 11
145.5953059287
 21
73.4131228984
  0
LINE
  5
651
100
AcDbEntity
  8
0
100
AcDbLine
 62
7
  6
CONTINUOUS
 10
145.8509244999
 20
74.8107505258
 11
145.9298740844
 21
72.9927719556
  0
LINE
  5
652
100
AcDbEntity
  8
0
100
AcDbLine
 62
7
  6
CONTINUOUS
 10
146.2516503189
 20
58.73504376
 11
146.2880115673
 21
57.8585868931
  0
LINE
  5
653
100
AcDbEntity
  8
ASSI
100
AcDbLine
 62
7
  6
CONTINUOUS
 10
146.2516503189
 20
58.73504376
 11
146.2880115673
 21
57.8585868931
  0
LINE
  5
654
100
AcDbEntity
  8
RACCORDO
100
AcDbLine
 62
253
  6
CONTINUOUS
 10
146.3139053831
 20
59.6375236617
 11
146.3474846629
 21
58.8230073255
  0
LINE
  5
655
100
AcDbEntity
  8
0
100
AcDbLine
 62
7
  6
CONTINUOUS
 10
146.7445284119
 20
57.9867275385
 11
146.696640392
 21
59.1585923612
  0
LINE
  5
656
100
AcDbEntity
  8
0
100
AcDbLine
 62
7
  6
CONTINUOUS
 10
146.6598551369
 20
59.0918521392
 11
146.689383086
 21
58.3456381415
  0
LWPOLYLINE
  5
657
100
AcDbEntity
  8
0
100
AcDbPolyline
 62
7
  6
CONTINUOUS
 90
15
 70
0
 10
145.9058549844
 20
74.3146039325
 10
145.7670702674
 20
77.8993846216
 10
145.664168248
 20
81.0372528569
 10
145.5784297479
 20
84.1770208203
 10
145.5098289503
 20
87.3190182022
 10
145.4583766221
 20
90.4626656927
 10
145.4240914992
 20
93.6064744411
 10
145.4069593712
 20
96.7497626157
 10
145.4069594838
 20
99.8929603782
 10
145.4240918251
 20
103.0362464211
 10
145.458377103
 20
106.1800502527
 10
145.5098294856
 20
109.3236906965
 10
145.5784302558
 20
112.4656808646
 10
145.6641686677
 20
115.605442102
 10
145.7670705189
 20
118.7433034457
  0
LINE
  5
658
100
AcDbEntity
  8
RACCORDO
100
AcDbLine
 62
253
  6
CONTINUOUS
 10
146.3474846629
 20
58.8230073255
 11
146.3760999426
 21
58.057254253
  0
LINE
  5
659
100
AcDbEntity
  8
0
100
AcDbLine
 62
7
  6
CONTINUOUS
 10
146.2880115673
 20
57.8585868931
 11
146.3185674775
 21
57.0390791836
  0
LINE
  5
65A
100
AcDbEntity
  8
ASSI
100
AcDbLine
 62
7
  6
CONTINUOUS
 10
146.2880115673
 20
57.8585868931
 11
146.3185674775
 21
57.0390791836
  0
LINE
  5
65B
100
AcDbEntity
  8
0
100
AcDbLine
 62
7
  6
CONTINUOUS
 10
146.7704287222
 20
57.2652405346
 11
146.7445284119
 21
57.9867275385
  0
LINE
  5
65C
100
AcDbEntity
  8
0
100
AcDbLine
 62
7
  6
CONTINUOUS
 10
146.689383086
 20
58.3456381415
 11
146.7142210156
 21
57.6457158011
  0
LINE
  5
65D
100
AcDbEntity
  8
0
100
AcDbLine
 62
7
  6
CONTINUOUS
 10
145.4985625177
 20
57.446892832
 11
145.5260903553
 21
56.6565026133
  0
LINE
  5
65E
100
AcDbEntity
  8
ASSI
100
AcDbLine
 62
7
  6
CONTINUOUS
 10
145.4985625177
 20
57.446892832
 11
145.5260903553
 21
56.6565026133
  0
LINE
  5
65F
100
AcDbEntity
  8
RACCORDO
100
AcDbLine
 62
253
  6
CONTINUOUS
 10
146.3760999426
 20
58.057254253
 11
146.399556053
 21
57.3438007655
  0
LINE
  5
660
100
AcDbEntity
  8
0
100
AcDbLine
 62
7
  6
CONTINUOUS
 10
146.3185674775
 20
57.0390791836
 11
146.343086036
 21
56.2803357435
  0
LINE
  5
661
100
AcDbEntity
  8
ASSI
100
AcDbLine
 62
7
  6
CONTINUOUS
 10
146.3185674775
 20
57.0390791836
 11
146.343086036
 21
56.2803357435
  0
LINE
  5
662
100
AcDbEntity
  8
0
100
AcDbLine
 62
7
  6
CONTINUOUS
 10
146.7912914046
 20
56.5932710488
 11
146.7704287222
 21
57.2652405346
  0
LINE
  5
663
100
AcDbEntity
  8
0
100
AcDbLine
 62
7
  6
CONTINUOUS
 10
146.7142210156
 20
57.6457158011
 11
146.7341891008
 21
56.9935430891
  0
LINE
  5
664
100
AcDbEntity
  8
0
100
AcDbLine
 62
7
  6
CONTINUOUS
 10
145.5260903553
 20
56.6565026133
 11
145.5473727793
 21
55.9286308626
  0
LINE
  5
665
100
AcDbEntity
  8
ASSI
100
AcDbLine
 62
7
  6
CONTINUOUS
 10
145.5260903553
 20
56.6565026133
 11
145.5473727793
 21
55.9286308626
  0
LINE
  5
666
100
AcDbEntity
  8
RACCORDO
100
AcDbLine
 62
253
  6
CONTINUOUS
 10
146.399556053
 20
57.3438007655
 11
146.4175597551
 21
56.6860132351
  0
LWPOLYLINE
  5
667
100
AcDbEntity
  8
0
100
AcDbPolyline
 62
7
  6
CONTINUOUS
 90
15
 70
0
 10
146.343086036
 20
56.2803357435
 10
146.3612336909
 20
55.5859019123
 10
146.3678349479
 20
55.2638066023
 10
146.3727507509
 20
54.95896207
 10
146.3759886831
 20
54.6717314998
 10
146.3774830224
 20
54.4024425094
 10
146.3772251022
 20
54.1514161731
 10
146.3752235892
 20
53.9189481472
 10
146.3714387615
 20
53.7053008396
 10
146.3658611502
 20
53.5107296453
 10
146.3585002241
 20
53.3354690099
 10
146.3493446676
 20
53.1797220972
 10
146.3383907087
 20
53.0436767344
 10
146.3256421195
 20
52.9275019963
 10
146.3110988998
 20
52.8313405057
  0
LWPOLYLINE
  5
668
100
AcDbEntity
  8
ASSI
100
AcDbPolyline
 62
7
  6
CONTINUOUS
 90
15
 70
0
 10
146.343086036
 20
56.2803357435
 10
146.3612336909
 20
55.5859019123
 10
146.3678349479
 20
55.2638066023
 10
146.3727507509
 20
54.95896207
 10
146.3759886831
 20
54.6717314998
 10
146.3774830224
 20
54.4024425094
 10
146.3772251022
 20
54.1514161731
 10
146.3752235892
 20
53.9189481472
 10
146.3714387615
 20
53.7053008396
 10
146.3658611502
 20
53.5107296453
 10
146.3585002241
 20
53.3354690099
 10
146.3493446676
 20
53.1797220972
 10
146.3383907087
 20
53.0436767344
 10
146.3256421195
 20
52.9275019963
 10
146.3110988998
 20
52.8313405057
  0
LINE
  5
669
100
AcDbEntity
  8
0
100
AcDbLine
 62
7
  6
CONTINUOUS
 10
146.8068599634
 20
55.9754860287
 11
146.7912914046
 21
56.5932710488
  0
LINE
  5
66A
100
AcDbEntity
  8
0
100
AcDbLine
 62
7
  6
CONTINUOUS
 10
146.7341891008
 20
56.9935430891
 11
146.7490330155
 21
56.3937843722
  0
LWPOLYLINE
  5
66B
100
AcDbEntity
  8
0
100
AcDbPolyline
 62
7
  6
CONTINUOUS
 90
14
 70
0
 10
145.5473727793
 20
55.9286308626
 10
145.5622110433
 20
55.2667160779
 10
145.567107832
 20
54.9614795126
 10
145.5703282843
 20
54.6738779308
 10
145.5718066149
 20
54.4042413751
 10
145.5715340691
 20
54.1528905943
 10
145.5695194017
 20
53.9201246205
 10
145.5657230917
 20
53.7062122157
 10
145.5601356054
 20
53.5114100727
 10
145.5527664764
 20
53.3359506099
 10
145.5436047851
 20
53.1800367776
 10
145.5326468914
 20
53.043855942
 10
145.5198964353
 20
52.927576535
 10
145.5053534167
 20
52.8313405057
  0
LWPOLYLINE
  5
66C
100
AcDbEntity
  8
ASSI
100
AcDbPolyline
 62
7
  6
CONTINUOUS
 90
14
 70
0
 10
145.5473727793
 20
55.9286308626
 10
145.5622110433
 20
55.2667160779
 10
145.567107832
 20
54.9614795126
 10
145.5703282843
 20
54.6738779308
 10
145.5718066149
 20
54.4042413751
 10
145.5715340691
 20
54.1528905943
 10
145.5695194017
 20
53.9201246205
 10
145.5657230917
 20
53.7062122157
 10
145.5601356054
 20
53.5114100727
 10
145.5527664764
 20
53.3359506099
 10
145.5436047851
 20
53.1800367776
 10
145.5326468914
 20
53.043855942
 10
145.5198964353
 20
52.927576535
 10
145.5053534167
 20
52.8313405057
  0
LWPOLYLINE
  5
66D
100
AcDbEntity
  8
RACCORDO
100
AcDbPolyline
 62
253
  6
CONTINUOUS
 90
16
 70
0
 10
146.4175597551
 20
56.6860132351
 10
146.4298806283
 20
56.0874343459
 10
146.4338795885
 20
55.8111487237
 10
146.4364253855
 20
55.5524862973
 10
146.4374626567
 20
55.3110802609
 10
146.4370467647
 20
55.0871150067
 10
146.4353253516
 20
54.8825439756
 10
146.4322426755
 20
54.69678385
 10
146.4278544782
 20
54.5289906589
 10
146.4224756276
 20
54.3798187496
 10
146.4160705564
 20
54.2482403368
 10
146.4086748319
 20
54.1330547065
 10
146.4007100226
 20
54.0339817722
 10
146.3923166515
 20
53.9498998904
 10
146.3833541957
 20
53.8791856079
 10
146.3738226552
 20
53.8205668614
  0
LWPOLYLINE
  5
66E
100
AcDbEntity
  8
0
100
AcDbPolyline
 62
7
  6
CONTINUOUS
 90
14
 70
0
 10
146.7490330155
 20
56.3937843722
 10
146.75857977
 20
55.8483787325
 10
146.7613217549
 20
55.5965555718
 10
146.7626959289
 20
55.3587179476
 10
146.7626822372
 20
55.1357996341
 10
146.7612606102
 20
54.9279518655
 10
146.7584265652
 20
54.7350175923
 10
146.7541769263
 20
54.5574681279
 10
146.7484937203
 20
54.3952923566
 10
146.7413771258
 20
54.2484965446
 10
146.7328457919
 20
54.1175782224
 10
146.7228988259
 20
54.0027019686
 10
146.7115214242
 20
53.9036994918
 10
146.6987097575
 20
53.8205692899
  0
LINE
  5
66F
100
AcDbEntity
  8
RACCORDO
100
AcDbLine
 62
7
  6
CONTINUOUS
 10
147.4327194029
 20
95.0311154135
 11
147.4327194029
 21
101.611565598
  0
LWPOLYLINE
  5
670
100
AcDbEntity
  8
0
100
AcDbPolyline
 62
7
  6
CONTINUOUS
 90
13
 70
0
 10
146.8169532291
 20
141.2288119278
 10
146.8198986774
 20
141.4880906042
 10
146.8214288388
 20
141.7329382892
 10
146.8215247272
 20
141.9624291894
 10
146.8201658736
 20
142.1764166804
 10
146.8173466924
 20
142.3750536244
 10
146.8130637848
 20
142.5578634879
 10
146.8072994205
 20
142.7248672285
 10
146.8000524783
 20
142.8760490911
 10
146.7913387854
 20
143.0108773195
 10
146.781156092
 20
143.1291760224
 10
146.7694900318
 20
143.2311250824
 10
146.7563365595
 20
143.316726114
  0
LINE
  5
671
100
AcDbEntity
  8
RACCORDO
100
AcDbLine
 62
253
  6
CONTINUOUS
 10
146.4339203567
 20
140.8349397585
 11
146.4245180575
 21
140.2667925184
  0
LINE
  5
672
100
AcDbEntity
  8
0
100
AcDbLine
 62
7
  6
CONTINUOUS
 10
146.7585795886
 20
140.7942885827
 11
146.7490326509
 21
140.2488792399
  0
LINE
  5
673
100
AcDbEntity
  8
0
100
AcDbLine
 62
7
  6
CONTINUOUS
 10
146.8068589032
 20
140.667148202
 11
146.8169532291
 21
141.2288119278
  0
LINE
  5
674
100
AcDbEntity
  8
0
100
AcDbLine
 62
7
  6
CONTINUOUS
 10
145.567107832
 20
141.681201499
 11
145.5556300795
 21
141.0534530332
  0
LINE
  5
675
100
AcDbEntity
  8
ASSI
100
AcDbLine
 62
7
  6
CONTINUOUS
 10
145.567107832
 20
141.681201499
 11
145.5556300795
 21
141.0534530332
  0
LINE
  5
676
100
AcDbEntity
  8
0
100
AcDbLine
 62
7
  6
CONTINUOUS
 10
146.367834947
 20
141.3788743573
 11
146.3529545623
 21
140.7178109556
  0
LINE
  5
677
100
AcDbEntity
  8
ASSI
100
AcDbLine
 62
7
  6
CONTINUOUS
 10
146.367834947
 20
141.3788743573
 11
146.3529545623
 21
140.7178109556
  0
LINE
  5
678
100
AcDbEntity
  8
RACCORDO
100
AcDbLine
 62
253
  6
CONTINUOUS
 10
146.4245180575
 20
140.2667925184
 11
146.4093238062
 21
139.638095097
  0
LINE
  5
679
100
AcDbEntity
  8
0
100
AcDbLine
 62
7
  6
CONTINUOUS
 10
146.7490326509
 20
140.2488792399
 11
146.7341884164
 21
139.6491136171
  0
LINE
  5
67A
100
AcDbEntity
  8
0
100
AcDbLine
 62
7
  6
CONTINUOUS
 10
146.7912902842
 20
140.0493681459
 11
146.8068589032
 21
140.667148202
  0
LINE
  5
67B
100
AcDbEntity
  8
0
100
AcDbLine
 62
7
  6
CONTINUOUS
 10
145.5556300795
 20
141.0534530332
 11
145.5375284429
 21
140.35815148
  0
LINE
  5
67C
100
AcDbEntity
  8
ASSI
100
AcDbLine
 62
7
  6
CONTINUOUS
 10
145.5556300795
 20
141.0534530332
 11
145.5375284429
 21
140.35815148
  0
LINE
  5
67D
100
AcDbEntity
  8
0
100
AcDbLine
 62
7
  6
CONTINUOUS
 10
146.3529545623
 20
140.7178109556
 11
146.3316214558
 21
139.9907949545
  0
LINE
  5
67E
100
AcDbEntity
  8
ASSI
100
AcDbLine
 62
7
  6
CONTINUOUS
 10
146.3529545623
 20
140.7178109556
 11
146.3316214558
 21
139.9907949545
  0
LINE
  5
67F
100
AcDbEntity
  8
RACCORDO
100
AcDbLine
 62
253
  6
CONTINUOUS
 10
146.4093238062
 20
139.638095097
 11
146.3885941198
 21
138.9515774823
  0
LINE
  5
680
100
AcDbEntity
  8
0
100
AcDbLine
 62
7
  6
CONTINUOUS
 10
146.7341884164
 20
139.6491136171
 11
146.7142198722
 21
138.9969307427
  0
LINE
  5
681
100
AcDbEntity
  8
0
100
AcDbLine
 62
7
  6
CONTINUOUS
 10
146.7704280432
 20
139.3774202673
 11
146.7912902842
 21
140.0493681459
  0
LWPOLYLINE
  5
682
100
AcDbEntity
  8
RACCORDO
100
AcDbPolyline
 62
253
  6
CONTINUOUS
 90
15
 70
0
 10
145.4159905353
 20
118.7045743285
 10
145.3135176296
 20
115.5740725238
 10
145.2281165989
 20
112.4409880795
 10
145.1597827723
 20
109.3062174601
 10
145.1085208208
 20
106.1699889502
 10
145.0743447565
 20
103.031860863
 10
145.0572593422
 20
99.8917231362
 10
145.0572598151
 20
96.7508066168
 10
145.0743458996
 20
93.6106801708
 10
145.1085221101
 20
90.4725807017
 10
145.1597839321
 20
87.3363920487
 10
145.2281175456
 20
84.2016543046
 10
145.3135183441
 20
81.0685896966
 10
145.4159909343
 20
77.9381007624
 10
145.535535316
 20
74.8107505258
  0
LWPOLYLINE
  5
683
100
AcDbEntity
  8
0
100
AcDbPolyline
 62
7
  6
CONTINUOUS
 90
15
 70
0
 10
145.7311456149
 20
118.703007277
 10
145.6284976134
 20
115.57187137
 10
145.5429628446
 20
112.4386462155
 10
145.4745199432
 20
109.3029881661
 10
145.423182905
 20
106.1654887391
 10
145.3889716758
 20
103.0276751707
 10
145.3718737861
 20
99.8901395062
 10
145.3718737913
 20
96.7525398963
 10
145.3889716969
 20
93.61500325
 10
145.4231829763
 20
90.4771866401
 10
145.474520121
 20
87.3396831907
 10
145.5429631251
 20
84.2040233715
 10
145.6284979173
 20
81.0707997761
 10
145.7311458395
 20
77.939667678
 10
145.8509244999
 20
74.8107505258
  0
LWPOLYLINE
  5
684
100
AcDbEntity
  8
0
100
AcDbPolyline
 62
7
  6
CONTINUOUS
 90
3
 70
0
 10
145.5375284429
 20
140.35815148
 10
145.5130652315
 20
139.5985728257
 10
145.4985625177
 20
139.1957881797
  0
LWPOLYLINE
  5
685
100
AcDbEntity
  8
ASSI
100
AcDbPolyline
 62
7
  6
CONTINUOUS
 90
3
 70
0
 10
145.5375284429
 20
140.35815148
 10
145.5130652315
 20
139.5985728257
 10
145.4985625177
 20
139.1957881797
  0
LWPOLYLINE
  5
686
100
AcDbEntity
  8
0
100
AcDbPolyline
 62
7
  6
CONTINUOUS
 90
24
 70
0
 10
145.3441628506
 20
119.9437715328
 10
145.273911968
 20
117.9831601403
 10
145.2103372203
 20
116.0211273433
 10
145.1534338037
 20
114.0577718411
 10
145.103206522
 20
112.0932373887
 10
145.0596697865
 20
110.1277128938
 10
145.02282551
 20
108.1613197067
 10
144.9926717797
 20
106.1941798684
 10
144.969217269
 20
104.2264836184
 10
144.9524639053
 20
102.2583529155
 10
144.9424097611
 20
100.28990974
 10
144.939057728
 20
98.3213445116
 10
144.9424097332
 20
96.3527793192
 10
144.9524638494
 20
94.3843361957
 10
144.9692171864
 20
92.4162054763
 10
144.99267167
 20
90.4485091563
 10
145.0228253745
 20
88.4813691796
 10
145.0596696324
 20
86.5149756568
 10
145.1032063548
 20
84.549450629
 10
145.1534336307
 20
82.584915447
 10
145.21033706
 20
80.6215588913
 10
145.2739118427
 20
78.6595246751
 10
145.3441627787
 20
76.6989115414
 10
145.4210898681
 20
74.7398405057
  0
LWPOLYLINE
  5
687
100
AcDbEntity
  8
ASSI
100
AcDbPolyline
 62
7
  6
CONTINUOUS
 90
24
 70
0
 10
145.3441628506
 20
119.9437715328
 10
145.273911968
 20
117.9831601403
 10
145.2103372203
 20
116.0211273433
 10
145.1534338037
 20
114.0577718411
 10
145.103206522
 20
112.0932373887
 10
145.0596697865
 20
110.1277128938
 10
145.02282551
 20
108.1613197067
 10
144.9926717797
 20
106.1941798684
 10
144.969217269
 20
104.2264836184
 10
144.9524639053
 20
102.2583529155
 10
144.9424097611
 20
100.28990974
 10
144.939057728
 20
98.3213445116
 10
144.9424097332
 20
96.3527793192
 10
144.9524638494
 20
94.3843361957
 10
144.9692171864
 20
92.4162054763
 10
144.99267167
 20
90.4485091563
 10
145.0228253745
 20
88.4813691796
 10
145.0596696324
 20
86.5149756568
 10
145.1032063548
 20
84.549450629
 10
145.1534336307
 20
82.584915447
 10
145.21033706
 20
80.6215588913
 10
145.2739118427
 20
78.6595246751
 10
145.3441627787
 20
76.6989115414
 10
145.4210898681
 20
74.7398405057
  0
LINE
  5
688
100
AcDbEntity
  8
0
100
AcDbLine
 62
7
  6
CONTINUOUS
 10
146.3316214558
 20
139.9907949545
 11
146.3040325307
 21
139.2012083315
  0
LINE
  5
689
100
AcDbEntity
  8
ASSI
100
AcDbLine
 62
7
  6
CONTINUOUS
 10
146.3316214558
 20
139.9907949545
 11
146.3040325307
 21
139.2012083315
  0
LINE
  5
68A
100
AcDbEntity
  8
RACCORDO
100
AcDbLine
 62
253
  6
CONTINUOUS
 10
146.3885941198
 20
138.9515774823
 11
146.3624990003
 21
138.2107787166
  0
LINE
  5
68B
100
AcDbEntity
  8
0
100
AcDbLine
 62
7
  6
CONTINUOUS
 10
146.7142198722
 20
138.9969307427
 11
146.6893813298
 21
138.2969963881
  0
LINE
  5
68C
100
AcDbEntity
  8
0
100
AcDbLine
 62
7
  6
CONTINUOUS
 10
146.7297546466
 20
138.2772513978
 11
146.7704280432
 21
139.3774202673
  0
LINE
  5
68D
100
AcDbEntity
  8
RACCORDO
100
AcDbLine
 62
253
  6
CONTINUOUS
 10
146.3624990003
 20
138.2107787166
 11
146.3313277311
 21
137.4195454724
  0
LINE
  5
68E
100
AcDbEntity
  8
0
100
AcDbLine
 62
7
  6
CONTINUOUS
 10
146.6893813298
 20
138.2969963881
 11
146.6598527658
 21
137.5507715729
  0
LINE
  5
68F
100
AcDbEntity
  8
0
100
AcDbLine
 62
7
  6
CONTINUOUS
 10
146.3040325307
 20
139.2012083315
 11
146.2705096354
 21
138.3527454113
  0
LINE
  5
690
100
AcDbEntity
  8
ASSI
100
AcDbLine
 62
7
  6
CONTINUOUS
 10
146.3040325307
 20
139.2012083315
 11
146.2705096354
 21
138.3527454113
  0
LINE
  5
691
100
AcDbEntity
  8
RACCORDO
100
AcDbLine
 62
253
  6
CONTINUOUS
 10
145.5571452641
 20
122.3514683271
 11
145.4159905353
 21
118.7045743285
  0
LINE
  5
692
100
AcDbEntity
  8
0
100
AcDbLine
 62
7
  6
CONTINUOUS
 10
145.8713315629
 20
122.321926268
 11
145.7311456149
 21
118.703007277
  0
LINE
  5
693
100
AcDbEntity
  8
0
100
AcDbLine
 62
7
  6
CONTINUOUS
 10
145.7670705189
 20
118.7433034457
 11
145.9058549834
 21
122.3280770551
  0
LINE
  5
694
100
AcDbEntity
  8
0
100
AcDbLine
 62
7
  6
CONTINUOUS
 10
145.4592638955
 20
122.8076819071
 11
145.3441628506
 21
119.9437715328
  0
LINE
  5
695
100
AcDbEntity
  8
ASSI
100
AcDbLine
 62
7
  6
CONTINUOUS
 10
145.4592638955
 20
122.8076819071
 11
145.3441628506
 21
119.9437715328
  0
LINE
  5
696
100
AcDbEntity
  8
RACCORDO
100
AcDbLine
 62
253
  6
CONTINUOUS
 10
146.3313277311
 20
137.4195454724
 11
146.2953822073
 21
136.580984248
  0
LINE
  5
697
100
AcDbEntity
  8
0
100
AcDbLine
 62
7
  6
CONTINUOUS
 10
146.6598527658
 20
137.5507715729
 11
146.6258464144
 21
136.7603675576
  0
LINE
  5
698
100
AcDbEntity
  8
0
100
AcDbLine
 62
7
  6
CONTINUOUS
 10
146.2705096354
 20
138.3527454113
 11
146.2314292246
 21
137.4492838031
  0
LINE
  5
699
100
AcDbEntity
  8
ASSI
100
AcDbLine
 62
7
  6
CONTINUOUS
 10
146.2705096354
 20
138.3527454113
 11
146.2314292246
 21
137.4492838031
  0
LINE
  5
69A
100
AcDbEntity
  8
0
100
AcDbLine
 62
7
  6
CONTINUOUS
 10
146.6784164676
 20
137.0715006625
 11
146.7297546466
 21
138.2772513978
  0
LINE
  5
69B
100
AcDbEntity
  8
0
100
AcDbLine
 62
7
  6
CONTINUOUS
 10
145.9058549834
 20
122.3280770551
 11
145.9651711308
 21
123.6745041979
  0
LINE
  5
69C
100
AcDbEntity
  8
RACCORDO
100
AcDbLine
 62
253
  6
CONTINUOUS
 10
145.6355173019
 20
124.107327807
 11
145.5571452641
 21
122.3514683271
  0
LINE
  5
69D
100
AcDbEntity
  8
0
100
AcDbLine
 62
7
  6
CONTINUOUS
 10
145.9504345616
 20
124.0924441231
 11
145.8713315629
 21
122.321926268
  0
LINE
  5
69E
100
AcDbEntity
  8
RACCORDO
100
AcDbLine
 62
253
  6
CONTINUOUS
 10
146.2953822073
 20
136.580984248
 11
146.2548743147
 21
135.6985986853
  0
LINE
  5
69F
100
AcDbEntity
  8
0
100
AcDbLine
 62
7
  6
CONTINUOUS
 10
146.2314292246
 20
137.4492838031
 11
146.1870516313
 21
136.4950358689
  0
LINE
  5
6A0
100
AcDbEntity
  8
ASSI
100
AcDbLine
 62
7
  6
CONTINUOUS
 10
146.2314292246
 20
137.4492838031
 11
146.1870516313
 21
136.4950358689
  0
LINE
  5
6A1
100
AcDbEntity
  8
0
100
AcDbLine
 62
7
  6
CONTINUOUS
 10
145.5421418222
 20
124.6165655872
 11
145.4592638955
 21
122.8076819071
  0
LINE
  5
6A2
100
AcDbEntity
  8
ASSI
100
AcDbLine
 62
7
  6
CONTINUOUS
 10
145.5421418222
 20
124.6165655872
 11
145.4592638955
 21
122.8076819071
  0
LINE
  5
6A3
100
AcDbEntity
  8
0
100
AcDbLine
 62
7
  6
CONTINUOUS
 10
146.6258464144
 20
136.7603675576
 11
146.5670961343
 21
135.5017397624
  0
LINE
  5
6A4
100
AcDbEntity
  8
0
100
AcDbLine
 62
7
  6
CONTINUOUS
 10
146.6174346217
 20
135.7742083835
 11
146.6784164676
 21
137.0715006625
  0
LINE
  5
6A5
100
AcDbEntity
  8
0
100
AcDbLine
 62
7
  6
CONTINUOUS
 10
145.9651711308
 20
123.6745041979
 11
146.0293213566
 21
125.020329466
  0
LINE
  5
6A6
100
AcDbEntity
  8
0
100
AcDbLine
 62
7
  6
CONTINUOUS
 10
146.1870516313
 20
136.4950358689
 11
146.1377850422
 21
135.4944795066
  0
LINE
  5
6A7
100
AcDbEntity
  8
ASSI
100
AcDbLine
 62
7
  6
CONTINUOUS
 10
146.1870516313
 20
136.4950358689
 11
146.1377850422
 21
135.4944795066
  0
LINE
  5
6A8
100
AcDbEntity
  8
RACCORDO
100
AcDbLine
 62
253
  6
CONTINUOUS
 10
146.2548743147
 20
135.6985986853
 11
146.1863017372
 21
134.3012775896
  0
LINE
  5
6A9
100
AcDbEntity
  8
0
100
AcDbLine
 62
7
  6
CONTINUOUS
 10
146.0379053086
 20
125.8618844224
 11
145.9504345616
 21
124.0924441231
  0
LINE
  5
6AA
100
AcDbEntity
  8
0
100
AcDbLine
 62
7
  6
CONTINUOUS
 10
146.5670961343
 20
135.5017397624
 11
146.4996784887
 21
134.1613802477
  0
LINE
  5
6AB
100
AcDbEntity
  8
RACCORDO
100
AcDbLine
 62
253
  6
CONTINUOUS
 10
145.7391767155
 20
126.1912747855
 11
145.6355173019
 21
124.107327807
  0
LINE
  5
6AC
100
AcDbEntity
  8
0
100
AcDbLine
 62
7
  6
CONTINUOUS
 10
146.1377850422
 20
135.4944795066
 11
146.0840730565
 21
134.4524000448
  0
LINE
  5
6AD
100
AcDbEntity
  8
ASSI
100
AcDbLine
 62
7
  6
CONTINUOUS
 10
146.1377850422
 20
135.4944795066
 11
146.0840730565
 21
134.4524000448
  0
LINE
  5
6AE
100
AcDbEntity
  8
0
100
AcDbLine
 62
7
  6
CONTINUOUS
 10
145.6333382263
 20
126.4185691697
 11
145.5421418222
 21
124.6165655872
  0
LINE
  5
6AF
100
AcDbEntity
  8
ASSI
100
AcDbLine
 62
7
  6
CONTINUOUS
 10
145.6333382263
 20
126.4185691697
 11
145.5421418222
 21
124.6165655872
  0
LINE
  5
6B0
100
AcDbEntity
  8
0
100
AcDbLine
 62
7
  6
CONTINUOUS
 10
146.0293213566
 20
125.020329466
 11
146.0979133341
 21
126.3597065088
  0
LINE
  5
6B1
100
AcDbEntity
  8
0
100
AcDbLine
 62
7
  6
CONTINUOUS
 10
146.5225367622
 20
133.9173413783
 11
146.6174346217
 21
135.7742083835
  0
LINE
  5
6B2
100
AcDbEntity
  8
RACCORDO
100
AcDbLine
 62
253
  6
CONTINUOUS
 10
146.1863017372
 20
134.3012775896
 11
146.1093430108
 21
132.8290143562
  0
LINE
  5
6B3
100
AcDbEntity
  8
0
100
AcDbLine
 62
7
  6
CONTINUOUS
 10
146.4996784887
 20
134.1613802477
 11
146.4247269711
 21
132.7553167316
  0
LINE
  5
6B4
100
AcDbEntity
  8
0
100
AcDbLine
 62
7
  6
CONTINUOUS
 10
146.0979133341
 20
126.3597065088
 11
146.1693698534
 21
127.6849030433
  0
LINE
  5
6B5
100
AcDbEntity
  8
0
100
AcDbLine
 62
7
  6
CONTINUOUS
 10
146.0840730565
 20
134.4524000448
 11
145.9959041321
 21
132.8224866855
  0
LINE
  5
6B6
100
AcDbEntity
  8
ASSI
100
AcDbLine
 62
7
  6
CONTINUOUS
 10
146.0840730565
 20
134.4524000448
 11
145.9959041321
 21
132.8224866855
  0
LINE
  5
6B7
100
AcDbEntity
  8
0
100
AcDbLine
 62
7
  6
CONTINUOUS
 10
146.1558508829
 20
128.0525652127
 11
146.0379053086
 21
125.8618844224
  0
LINE
  5
6B8
100
AcDbEntity
  8
RACCORDO
100
AcDbLine
 62
253
  6
CONTINUOUS
 10
146.1093430108
 20
132.8290143562
 11
146.0250768447
 21
131.2959832278
  0
LINE
  5
6B9
100
AcDbEntity
  8
0
100
AcDbLine
 62
7
  6
CONTINUOUS
 10
145.7551000495
 20
128.6431822229
 11
145.6333382263
 21
126.4185691697
  0
LINE
  5
6BA
100
AcDbEntity
  8
ASSI
100
AcDbLine
 62
7
  6
CONTINUOUS
 10
145.7551000495
 20
128.6431822229
 11
145.6333382263
 21
126.4185691697
  0
LINE
  5
6BB
100
AcDbEntity
  8
0
100
AcDbLine
 62
7
  6
CONTINUOUS
 10
146.4247269711
 20
132.7553167316
 11
146.3431587467
 21
131.2951095335
  0
LINE
  5
6BC
100
AcDbEntity
  8
RACCORDO
100
AcDbLine
 62
253
  6
CONTINUOUS
 10
145.8825178368
 20
128.8171977598
 11
145.7391767155
 21
126.1912747855
  0
LINE
  5
6BD
100
AcDbEntity
  8
0
100
AcDbLine
 62
7
  6
CONTINUOUS
 10
146.3854792924
 20
131.4359790678
 11
146.5225367622
 21
133.9173413783
  0
LINE
  5
6BE
100
AcDbEntity
  8
0
100
AcDbLine
 62
7
  6
CONTINUOUS
 10
145.9959041321
 20
132.8224866855
 11
145.8999547431
 21
131.1284115927
  0
LINE
  5
6BF
100
AcDbEntity
  8
ASSI
100
AcDbLine
 62
7
  6
CONTINUOUS
 10
145.9959041321
 20
132.8224866855
 11
145.8999547431
 21
131.1284115927
  0
LINE
  5
6C0
100
AcDbEntity
  8
0
100
AcDbLine
 62
7
  6
CONTINUOUS
 10
146.1693698534
 20
127.6849030433
 11
146.2438567433
 21
129.0063259347
  0
LINE
  5
6C1
100
AcDbEntity
  8
RACCORDO
100
AcDbLine
 62
253
  6
CONTINUOUS
 10
146.0250768447
 20
131.2959832278
 11
145.8825178368
 21
128.8171977598
  0
LINE
  5
6C2
100
AcDbEntity
  8
0
100
AcDbLine
 62
7
  6
CONTINUOUS
 10
146.3431587467
 20
131.2951095335
 11
146.1558508829
 21
128.0525652127
  0
LINE
  5
6C3
100
AcDbEntity
  8
0
100
AcDbLine
 62
7
  6
CONTINUOUS
 10
146.2438567433
 20
129.0063259347
 11
146.3854792924
 21
131.4359790678
  0
LINE
  5
6C4
100
AcDbEntity
  8
0
100
AcDbLine
 62
7
  6
CONTINUOUS
 10
145.8999547431
 20
131.1284115927
 11
145.7551000495
 21
128.6431822229
  0
LINE
  5
6C5
100
AcDbEntity
  8
ASSI
100
AcDbLine
 62
7
  6
CONTINUOUS
 10
145.8999547431
 20
131.1284115927
 11
145.7551000495
 21
128.6431822229
  0
LWPOLYLINE
  5
6C6
100
AcDbEntity
  8
0
100
AcDbPolyline
 62
253
  6
CONTINUOUS
 90
6
 70
0
 10
141.5339870184
 20
75.087322217
 10
141.5343298301
 20
75.0889670933
 10
141.5345696163
 20
75.0928239042
 10
141.5347064056
 20
75.0988926521
 10
141.534740668
 20
75.107193757
 10
141.534672091
 20
75.1177068077
  0
LWPOLYLINE
  5
6C7
100
AcDbEntity
  8
ASSI
100
AcDbPolyline
 62
253
  6
CONTINUOUS
 90
6
 70
0
 10
141.5339870184
 20
75.087322217
 10
141.5343298301
 20
75.0889670933
 10
141.5345696163
 20
75.0928239042
 10
141.5347064056
 20
75.0988926521
 10
141.534740668
 20
75.107193757
 10
141.534672091
 20
75.1177068077
  0
LINE
  5
6C8
100
AcDbEntity
  8
0
100
AcDbLine
 62
7
  6
CONTINUOUS
 10
149.4327194029
 20
143.8154701756
 11
149.4327194029
 21
121.5923807628
  0
LINE
  5
6C9
100
AcDbEntity
  8
0
100
AcDbLine
 62
7
  6
CONTINUOUS
 10
149.4327194029
 20
75.0503002487
 11
149.4327194029
 21
52.8272108359
  0
LINE
  5
6CA
100
AcDbEntity
  8
DRAFT
100
AcDbLine
 62
7
  6
CONTINUOUS
 10
149.4327194029
 20
75.0503002487
 11
149.4327194029
 21
94.4686865443
  0
LINE
  5
6CB
100
AcDbEntity
  8
DRAFT
100
AcDbLine
 62
7
  6
CONTINUOUS
 10
149.4327194029
 20
102.1739944672
 11
149.4327194029
 21
121.5923807628
  0
LINE
  5
6CC
100
AcDbEntity
  8
0
100
AcDbLine
 62
7
  6
CONTINUOUS
 10
145.1726945955
 20
51.3063941134
 11
145.144263913
 21
51.0713405057
  0
LINE
  5
6CD
100
AcDbEntity
  8
ASSI
100
AcDbLine
 62
7
  6
CONTINUOUS
 10
145.1726945955
 20
51.3063941134
 11
145.144263913
 21
51.0713405057
  0
LINE
  5
6CE
100
AcDbEntity
  8
0
100
AcDbLine
 62
253
  6
CONTINUOUS
 10
143.3970209286
 20
51.862986608
 11
143.3683254338
 21
51.6281267237
  0
LINE
  5
6CF
100
AcDbEntity
  8
ASSI
100
AcDbLine
 62
253
  6
CONTINUOUS
 10
143.3970209286
 20
51.862986608
 11
143.3683254338
 21
51.6281267237
  0
LINE
  5
6D0
100
AcDbEntity
  8
0
100
AcDbLine
 62
253
  6
CONTINUOUS
 10
143.8501951016
 20
51.4220034695
 11
143.8214833578
 21
51.1870692691
  0
LINE
  5
6D1
100
AcDbEntity
  8
ASSI
100
AcDbLine
 62
253
  6
CONTINUOUS
 10
143.8501951016
 20
51.4220034695
 11
143.8214833578
 21
51.1870692691
  0
LINE
  5
6D2
100
AcDbEntity
  8
RACCORDO
100
AcDbLine
 62
7
  6
CONTINUOUS
 10
147.6393073584
 20
101.8577675362
 11
149.4327194029
 21
102.1739944672
  0
LWPOLYLINE
  5
6D3
100
AcDbEntity
  8
0
100
AcDbPolyline
 62
253
  6
CONTINUOUS
 90
13
 70
0
 10
143.7291395899
 20
143.25879038
 10
143.7430827593
 20
143.1672109364
 10
143.7553409914
 20
143.0565233487
 10
143.7659228494
 20
142.9267256079
 10
143.774863816
 20
142.7776714717
 10
143.7821570399
 20
142.6095021528
 10
143.7877447447
 20
142.4226464016
 10
143.7916243325
 20
142.2169608491
 10
143.7938294972
 20
141.9925821049
 10
143.7943457484
 20
141.7503586988
 10
143.7931724572
 20
141.4901799003
 10
143.790343886
 20
141.2121484556
 10
143.7858858824
 20
140.9174332315
  0
LWPOLYLINE
  5
6D4
100
AcDbEntity
  8
ASSI
100
AcDbPolyline
 62
253
  6
CONTINUOUS
 90
13
 70
0
 10
143.7291395899
 20
143.25879038
 10
143.7430827593
 20
143.1672109364
 10
143.7553409914
 20
143.0565233487
 10
143.7659228494
 20
142.9267256079
 10
143.774863816
 20
142.7776714717
 10
143.7821570399
 20
142.6095021528
 10
143.7877447447
 20
142.4226464016
 10
143.7916243325
 20
142.2169608491
 10
143.7938294972
 20
141.9925821049
 10
143.7943457484
 20
141.7503586988
 10
143.7931724572
 20
141.4901799003
 10
143.790343886
 20
141.2121484556
 10
143.7858858824
 20
140.9174332315
  0
LWPOLYLINE
  5
6D5
100
AcDbEntity
  8
0
100
AcDbPolyline
 62
253
  6
CONTINUOUS
 90
12
 70
0
 10
144.1821263828
 20
143.6968736251
 10
144.1960193302
 20
143.6026398632
 10
144.2082852454
 20
143.4887279131
 10
144.2189049095
 20
143.3551352847
 10
144.2278632902
 20
143.2018215936
 10
144.2351456714
 20
143.0288764183
 10
144.2407380582
 20
142.8365472988
 10
144.2446386286
 20
142.6249577168
 10
144.246849813
 20
142.3942862805
 10
144.2473741032
 20
142.1449726928
 10
144.2462242853
 20
141.8772897643
 10
144.2434174702
 20
141.5915153011
  0
LWPOLYLINE
  5
6D6
100
AcDbEntity
  8
ASSI
100
AcDbPolyline
 62
253
  6
CONTINUOUS
 90
12
 70
0
 10
144.1821263828
 20
143.6968736251
 10
144.1960193302
 20
143.6026398632
 10
144.2082852454
 20
143.4887279131
 10
144.2189049095
 20
143.3551352847
 10
144.2278632902
 20
143.2018215936
 10
144.2351456714
 20
143.0288764183
 10
144.2407380582
 20
142.8365472988
 10
144.2446386286
 20
142.6249577168
 10
144.246849813
 20
142.3942862805
 10
144.2473741032
 20
142.1449726928
 10
144.2462242853
 20
141.8772897643
 10
144.2434174702
 20
141.5915153011
  0
LWPOLYLINE
  5
6D7
100
AcDbEntity
  8
0
100
AcDbPolyline
 62
253
  6
CONTINUOUS
 90
9
 70
0
 10
143.397205872
 20
144.7781837372
 10
143.4067276101
 20
144.7097457544
 10
143.4195892677
 20
144.6326441185
 10
143.4357916258
 20
144.5468781677
 10
143.4553360165
 20
144.4524433204
 10
143.4782247639
 20
144.3493426203
 10
143.50446075
 20
144.2375867396
 10
143.5340470262
 20
144.117178585
 10
143.5669872465
 20
143.9881132983
  0
LWPOLYLINE
  5
6D8
100
AcDbEntity
  8
ASSI
100
AcDbPolyline
 62
253
  6
CONTINUOUS
 90
9
 70
0
 10
143.397205872
 20
144.7781837372
 10
143.4067276101
 20
144.7097457544
 10
143.4195892677
 20
144.6326441185
 10
143.4357916258
 20
144.5468781677
 10
143.4553360165
 20
144.4524433204
 10
143.4782247639
 20
144.3493426203
 10
143.50446075
 20
144.2375867396
 10
143.5340470262
 20
144.117178585
 10
143.5669872465
 20
143.9881132983
  0
LWPOLYLINE
  5
6D9
100
AcDbEntity
  8
0
100
AcDbPolyline
 62
253
  6
CONTINUOUS
 90
9
 70
0
 10
143.8503801489
 20
145.2191663367
 10
143.8598984951
 20
145.1507132114
 10
143.8727540757
 20
145.0735817563
 10
143.8889483129
 20
144.9877763898
 10
143.9084822567
 20
144.8933041012
 10
143.9313579357
 20
144.7901691863
 10
143.9575789156
 20
144.6783702755
 10
143.9871484776
 20
144.5579092657
 10
144.0200692778
 20
144.4287932507
  0
LWPOLYLINE
  5
6DA
100
AcDbEntity
  8
ASSI
100
AcDbPolyline
 62
253
  6
CONTINUOUS
 90
9
 70
0
 10
143.8503801489
 20
145.2191663367
 10
143.8598984951
 20
145.1507132114
 10
143.8727540757
 20
145.0735817563
 10
143.8889483129
 20
144.9877763898
 10
143.9084822567
 20
144.8933041012
 10
143.9313579357
 20
144.7901691863
 10
143.9575789156
 20
144.6783702755
 10
143.9871484776
 20
144.5579092657
 10
144.0200692778
 20
144.4287932507
  0
LINE
  5
6DB
100
AcDbEntity
  8
0
100
AcDbLine
 62
253
  6
CONTINUOUS
 10
143.8214833578
 20
145.4556117424
 11
143.8501951016
 21
145.220677542
  0
LINE
  5
6DC
100
AcDbEntity
  8
ASSI
100
AcDbLine
 62
253
  6
CONTINUOUS
 10
143.8214833578
 20
145.4556117424
 11
143.8501951016
 21
145.220677542
  0
LINE
  5
6DD
100
AcDbEntity
  8
0
100
AcDbLine
 62
253
  6
CONTINUOUS
 10
143.3683254338
 20
145.0145542878
 11
143.3970209286
 21
144.7796944035
  0
LINE
  5
6DE
100
AcDbEntity
  8
ASSI
100
AcDbLine
 62
253
  6
CONTINUOUS
 10
143.3683254338
 20
145.0145542878
 11
143.3970209286
 21
144.7796944035
  0
LINE
  5
6DF
100
AcDbEntity
  8
0
100
AcDbLine
 62
7
  6
CONTINUOUS
 10
145.144263913
 20
145.5713405057
 11
145.1726945955
 21
145.3362868981
  0
LINE
  5
6E0
100
AcDbEntity
  8
ASSI
100
AcDbLine
 62
7
  6
CONTINUOUS
 10
145.144263913
 20
145.5713405057
 11
145.1726945955
 21
145.3362868981
  0
LINE
  5
6E1
100
AcDbEntity
  8
0
100
AcDbLine
 62
7
  6
CONTINUOUS
 10
145.9781045415
 20
51.3060817822
 11
145.9497394715
 21
51.0713405057
  0
LINE
  5
6E2
100
AcDbEntity
  8
ASSI
100
AcDbLine
 62
7
  6
CONTINUOUS
 10
145.9781045415
 20
51.3060817822
 11
145.9497394715
 21
51.0713405057
  0
LINE
  5
6E3
100
AcDbEntity
  8
0
100
AcDbLine
 62
7
  6
CONTINUOUS
 10
146.3947976407
 20
51.5713405057
 11
146.4234186978
 21
51.8063171346
  0
LINE
  5
6E4
100
AcDbEntity
  8
0
100
AcDbLine
 62
7
  6
CONTINUOUS
 10
146.3659822528
 20
52.3059088063
 11
146.3371605794
 21
52.0713405057
  0
LWPOLYLINE
  5
6E5
100
AcDbEntity
  8
0
100
AcDbPolyline
 62
7
  6
CONTINUOUS
 90
10
 70
0
 10
146.4234186978
 20
51.8063171346
 10
146.4329106989
 20
51.8746711946
 10
146.4457661739
 20
51.9517196893
 10
146.4619864563
 20
52.037463295
 10
146.4815739013
 20
52.1319085819
 10
146.5045311323
 20
52.2350505532
 10
146.5308596784
 20
52.3468726424
 10
146.5605616118
 20
52.4673699922
 10
146.5936409087
 20
52.5965494562
 10
146.6435786832
 20
52.7861381927
  0
LWPOLYLINE
  5
6E6
100
AcDbEntity
  8
0
100
AcDbPolyline
 62
7
  6
CONTINUOUS
 90
14
 70
0
 10
146.7563365595
 20
53.3259548976
 10
146.7694912304
 20
53.4115713781
 10
146.7811581448
 20
53.5135316065
 10
146.7913412877
 20
53.6318371969
 10
146.800054742
 20
53.7666677528
 10
146.8073009099
 20
53.9178476611
 10
146.8130646019
 20
54.0848460015
 10
146.8173471436
 20
54.2676457891
 10
146.8201660273
 20
54.4662692098
 10
146.8215247056
 20
54.6802442532
 10
146.8214288633
 20
54.9097251898
 10
146.8198989133
 20
55.1545639875
 10
146.8169536945
 20
55.4138351539
 10
146.8068599634
 20
55.9754860287
  0
LWPOLYLINE
  5
6E7
100
AcDbEntity
  8
0
100
AcDbPolyline
 62
253
  6
CONTINUOUS
 90
9
 70
0
 10
144.1821263496
 20
52.9458074129
 10
144.1666742434
 20
52.8607699949
 10
144.1516080555
 20
52.7808827126
 10
144.1369204166
 20
52.7059732409
 10
144.1226044657
 20
52.6358727553
 10
144.1086528563
 20
52.5704117842
 10
144.0950577294
 20
52.509421236
 10
144.0818120886
 20
52.452737346
 10
144.0689098233
 20
52.4002009385
  0
LWPOLYLINE
  5
6E8
100
AcDbEntity
  8
ASSI
100
AcDbPolyline
 62
253
  6
CONTINUOUS
 90
9
 70
0
 10
144.1821263496
 20
52.9458074129
 10
144.1666742434
 20
52.8607699949
 10
144.1516080555
 20
52.7808827126
 10
144.1369204166
 20
52.7059732409
 10
144.1226044657
 20
52.6358727553
 10
144.1086528563
 20
52.5704117842
 10
144.0950577294
 20
52.509421236
 10
144.0818120886
 20
52.452737346
 10
144.0689098233
 20
52.4002009385
  0
LWPOLYLINE
  5
6E9
100
AcDbEntity
  8
0
100
AcDbPolyline
 62
7
  6
CONTINUOUS
 90
9
 70
0
 10
145.5053534167
 20
52.8313405057
 10
145.4907600537
 20
52.7511877073
 10
145.4763034994
 20
52.6745411667
 10
145.4619837539
 20
52.6014039774
 10
145.4478011037
 20
52.5317790652
 10
145.4337552623
 20
52.4656692717
 10
145.4198453697
 20
52.4030773403
 10
145.4060711393
 20
52.3440058115
 10
145.3924328577
 20
52.2884570367
  0
LWPOLYLINE
  5
6EA
100
AcDbEntity
  8
ASSI
100
AcDbPolyline
 62
7
  6
CONTINUOUS
 90
9
 70
0
 10
145.5053534167
 20
52.8313405057
 10
145.4907600537
 20
52.7511877073
 10
145.4763034994
 20
52.6745411667
 10
145.4619837539
 20
52.6014039774
 10
145.4478011037
 20
52.5317790652
 10
145.4337552623
 20
52.4656692717
 10
145.4198453697
 20
52.4030773403
 10
145.4060711393
 20
52.3440058115
 10
145.3924328577
 20
52.2884570367
  0
LWPOLYLINE
  5
6EB
100
AcDbEntity
  8
0
100
AcDbPolyline
 62
253
  6
CONTINUOUS
 90
9
 70
0
 10
143.7291395899
 20
53.3838906315
 10
143.7136442479
 20
53.2994953944
 10
143.6985764792
 20
53.2198909127
 10
143.6839078948
 20
53.1450768236
 10
143.669591224
 20
53.0752187871
 10
143.6556186429
 20
53.010150473
 10
143.6420218225
 20
52.9493735966
 10
143.6287941042
 20
52.8927219146
 10
143.61589045
 20
52.840361191
  0
LWPOLYLINE
  5
6EC
100
AcDbEntity
  8
ASSI
100
AcDbPolyline
 62
253
  6
CONTINUOUS
 90
9
 70
0
 10
143.7291395899
 20
53.3838906315
 10
143.7136442479
 20
53.2994953944
 10
143.6985764792
 20
53.2198909127
 10
143.6839078948
 20
53.1450768236
 10
143.669591224
 20
53.0752187871
 10
143.6556186429
 20
53.010150473
 10
143.6420218225
 20
52.9493735966
 10
143.6287941042
 20
52.8927219146
 10
143.61589045
 20
52.840361191
  0
LWPOLYLINE
  5
6ED
100
AcDbEntity
  8
RACCORDO
100
AcDbPolyline
 62
253
  6
CONTINUOUS
 90
14
 70
0
 10
146.3738226965
 20
142.8221138864
 10
146.3833375298
 20
142.7636065166
 10
146.3922861075
 20
142.6930429411
 10
146.4006684299
 20
142.6091560107
 10
146.4086243629
 20
142.5103366882
 10
146.4160140405
 20
142.3954613645
 10
146.422417864
 20
142.264220941
 10
146.4278015256
 20
142.1154051384
 10
146.4321993331
 20
141.9479849227
 10
146.4352946112
 20
141.7625817652
 10
146.4370322368
 20
141.5583311175
 10
146.4374673331
 20
141.3346449531
 10
146.4364485939
 20
141.0934600881
 10
146.4339203567
 20
140.8349397585
  0
LWPOLYLINE
  5
6EE
100
AcDbEntity
  8
0
100
AcDbPolyline
 62
7
  6
CONTINUOUS
 90
13
 70
0
 10
146.6987097575
 20
142.8221117216
 10
146.7115216567
 20
142.738978893
 10
146.7228992269
 20
142.6399742113
 10
146.7328462895
 20
142.5250961742
 10
146.7413776095
 20
142.3941765533
 10
146.7484941009
 20
142.2473798644
 10
146.7541772017
 20
142.0852034493
 10
146.7584267634
 20
141.9076536934
 10
146.7612607265
 20
141.7147193617
 10
146.7626822712
 20
141.5068712216
 10
146.7626958918
 20
141.283952049
 10
146.7613216522
 20
141.0461132524
 10
146.7585795886
 20
140.7942885827
  0
LWPOLYLINE
  5
6EF
100
AcDbEntity
  8
0
100
AcDbPolyline
 62
7
  6
CONTINUOUS
 90
13
 70
0
 10
146.3110988998
 20
143.8113405057
 10
146.3256421194
 20
143.7151790157
 10
146.3383907085
 20
143.5990042791
 10
146.3493446672
 20
143.462958919
 10
146.3585002236
 20
143.3072120123
 10
146.3658611496
 20
143.1319513851
 10
146.3714387609
 20
142.9373801956
 10
146.3752235889
 20
142.723732884
 10
146.3772251021
 20
142.4912648471
 10
146.3774830224
 20
142.2402384974
 10
146.3759886828
 20
141.9709494907
 10
146.3727507502
 20
141.6837189016
 10
146.367834947
 20
141.3788743573
  0
LWPOLYLINE
  5
6F0
100
AcDbEntity
  8
ASSI
100
AcDbPolyline
 62
7
  6
CONTINUOUS
 90
13
 70
0
 10
146.3110988998
 20
143.8113405057
 10
146.3256421194
 20
143.7151790157
 10
146.3383907085
 20
143.5990042791
 10
146.3493446672
 20
143.462958919
 10
146.3585002236
 20
143.3072120123
 10
146.3658611496
 20
143.1319513851
 10
146.3714387609
 20
142.9373801956
 10
146.3752235889
 20
142.723732884
 10
146.3772251021
 20
142.4912648471
 10
146.3774830224
 20
142.2402384974
 10
146.3759886828
 20
141.9709494907
 10
146.3727507502
 20
141.6837189016
 10
146.367834947
 20
141.3788743573
  0
LWPOLYLINE
  5
6F1
100
AcDbEntity
  8
0
100
AcDbPolyline
 62
7
  6
CONTINUOUS
 90
12
 70
0
 10
145.5053534167
 20
143.8113405057
 10
145.5198964353
 20
143.7151044765
 10
145.5326468914
 20
143.5988250695
 10
145.5436047851
 20
143.4626442339
 10
145.5527664764
 20
143.3067304015
 10
145.5601356054
 20
143.1312709387
 10
145.5657230917
 20
142.9364687958
 10
145.5695194017
 20
142.7225563909
 10
145.5715340691
 20
142.4897904172
 10
145.5718066149
 20
142.2384396364
 10
145.5703282843
 20
141.9688030808
 10
145.567107832
 20
141.681201499
  0
LWPOLYLINE
  5
6F2
100
AcDbEntity
  8
ASSI
100
AcDbPolyline
 62
7
  6
CONTINUOUS
 90
12
 70
0
 10
145.5053534167
 20
143.8113405057
 10
145.5198964353
 20
143.7151044765
 10
145.5326468914
 20
143.5988250695
 10
145.5436047851
 20
143.4626442339
 10
145.5527664764
 20
143.3067304015
 10
145.5601356054
 20
143.1312709387
 10
145.5657230917
 20
142.9364687958
 10
145.5695194017
 20
142.7225563909
 10
145.5715340691
 20
142.4897904172
 10
145.5718066149
 20
142.2384396364
 10
145.5703282843
 20
141.9688030808
 10
145.567107832
 20
141.681201499
  0
LWPOLYLINE
  5
6F3
100
AcDbEntity
  8
0
100
AcDbPolyline
 62
7
  6
CONTINUOUS
 90
9
 70
0
 10
146.3660856778
 20
144.3359322067
 10
146.3756284463
 20
144.267694094
 10
146.3885236758
 20
144.1908013709
 10
146.4047729875
 20
144.1052533743
 10
146.4243791306
 20
144.0110445023
 10
146.4473448871
 20
143.9081788151
 10
146.473671718
 20
143.796670038
 10
146.5033618528
 20
143.6765220944
 10
146.5364196415
 20
143.5477291052
  0
LWPOLYLINE
  5
6F4
100
AcDbEntity
  8
0
100
AcDbPolyline
 62
7
  6
CONTINUOUS
 90
9
 70
0
 10
145.1726945955
 20
145.3362868981
 10
145.1821392776
 20
145.2678240564
 10
145.1949497036
 20
145.1906327689
 10
145.2111258733
 20
145.1047169237
 10
145.230665305
 20
145.010080913
 10
145.2535704804
 20
144.9067289544
 10
145.2798488456
 20
144.7946648803
 10
145.3095028824
 20
144.673893139
 10
145.3425301088
 20
144.5444190063
  0
LWPOLYLINE
  5
6F5
100
AcDbEntity
  8
ASSI
100
AcDbPolyline
 62
7
  6
CONTINUOUS
 90
9
 70
0
 10
145.1726945955
 20
145.3362868981
 10
145.1821392776
 20
145.2678240564
 10
145.1949497036
 20
145.1906327689
 10
145.2111258733
 20
145.1047169237
 10
145.230665305
 20
145.010080913
 10
145.2535704804
 20
144.9067289544
 10
145.2798488456
 20
144.7946648803
 10
145.3095028824
 20
144.673893139
 10
145.3425301088
 20
144.5444190063
  0
LWPOLYLINE
  5
6F6
100
AcDbEntity
  8
0
100
AcDbPolyline
 62
7
  6
CONTINUOUS
 90
9
 70
0
 10
145.9781045415
 20
145.3365992293
 10
145.9875439725
 20
145.268140909
 10
146.0003567652
 20
145.1909442073
 10
146.0165429196
 20
145.1050127618
 10
146.0361000925
 20
145.0103500566
 10
146.0590306271
 20
144.9069606027
 10
146.0853415534
 20
144.7948503074
 10
146.1150352147
 20
144.6740247261
 10
146.1481092678
 20
144.5444886927
  0
LWPOLYLINE
  5
6F7
100
AcDbEntity
  8
ASSI
100
AcDbPolyline
 62
7
  6
CONTINUOUS
 90
9
 70
0
 10
145.9781045415
 20
145.3365992293
 10
145.9875439725
 20
145.268140909
 10
146.0003567652
 20
145.1909442073
 10
146.0165429196
 20
145.1050127618
 10
146.0361000925
 20
145.0103500566
 10
146.0590306271
 20
144.9069606027
 10
146.0853415534
 20
144.7948503074
 10
146.1150352147
 20
144.6740247261
 10
146.1481092678
 20
144.5444886927
  0
LINE
  5
6F8
100
AcDbEntity
  8
0
100
AcDbLine
 62
7
  6
CONTINUOUS
 10
146.3371605794
 20
144.5713405057
 11
146.3659822528
 21
144.3367722052
  0
LINE
  5
6F9
100
AcDbEntity
  8
0
100
AcDbLine
 62
7
  6
CONTINUOUS
 10
146.4234186978
 20
144.8363638769
 11
146.3947976407
 21
145.0713405057
  0
LINE
  5
6FA
100
AcDbEntity
  8
0
100
AcDbLine
 62
7
  6
CONTINUOUS
 10
145.9497394715
 20
145.5713405057
 11
145.9781045415
 21
145.3365992293
  0
LINE
  5
6FB
100
AcDbEntity
  8
ASSI
100
AcDbLine
 62
7
  6
CONTINUOUS
 10
145.9497394715
 20
145.5713405057
 11
145.9781045415
 21
145.3365992293
  0
LWPOLYLINE
  5
6FC
100
AcDbEntity
  8
0
100
AcDbPolyline
 62
7
  6
CONTINUOUS
 90
10
 70
0
 10
146.3110988998
 20
52.8313405057
 10
146.2964924834
 20
52.7511806935
 10
146.282023043
 20
52.6745295196
 10
146.2676905785
 20
52.6013898315
 10
146.2534954076
 20
52.5317644031
 10
146.2394372125
 20
52.4656557257
 10
146.2255150408
 20
52.4030660429
 10
146.2117285748
 20
52.3439976126
 10
146.1980781321
 20
52.2884526716
 10
146.1845637126
 20
52.2364332517
  0
LWPOLYLINE
  5
6FD
100
AcDbEntity
  8
ASSI
100
AcDbPolyline
 62
7
  6
CONTINUOUS
 90
10
 70
0
 10
146.3110988998
 20
52.8313405057
 10
146.2964924834
 20
52.7511806935
 10
146.282023043
 20
52.6745295196
 10
146.2676905785
 20
52.6013898315
 10
146.2534954076
 20
52.5317644031
 10
146.2394372125
 20
52.4656557257
 10
146.2255150408
 20
52.4030660429
 10
146.2117285748
 20
52.3439976126
 10
146.1980781321
 20
52.2884526716
 10
146.1845637126
 20
52.2364332517
  0
LWPOLYLINE
  5
6FE
100
AcDbEntity
  8
0
100
AcDbPolyline
 62
7
  6
CONTINUOUS
 90
9
 70
0
 10
146.6987097575
 20
53.8205692899
 10
146.6841678544
 20
53.7413196031
 10
146.6697667886
 20
53.6655414873
 10
146.6555055253
 20
53.5932346917
 10
146.6413822259
 20
53.5243948255
 10
146.6273970532
 20
53.4590258104
 10
146.6135518282
 20
53.3971398797
 10
146.5998464505
 20
53.3387409757
 10
146.5862792422
 20
53.2838247509
  0
LWPOLYLINE
  5
6FF
100
AcDbEntity
  8
0
100
AcDbPolyline
 62
7
  6
CONTINUOUS
 90
9
 70
0
 10
146.6435786832
 20
52.7861381927
 10
146.6571916921
 20
52.8413671484
 10
146.6709414635
 20
52.9000991931
 10
146.6848296782
 20
52.9623387334
 10
146.6988564447
 20
53.0280817783
 10
146.713019953
 20
53.097315938
 10
146.7273200461
 20
53.1700372428
 10
146.7417585674
 20
53.2462501436
 10
146.7563365595
 20
53.3259548976
  0
LWPOLYLINE
  5
700
100
AcDbEntity
  8
0
100
AcDbPolyline
 62
253
  6
CONTINUOUS
 90
10
 70
0
 10
144.0689098233
 20
52.4002009385
 10
144.0200631973
 20
52.2138643148
 10
143.9871388709
 20
52.0847333825
 10
143.9575678906
 20
51.9642648369
 10
143.9313471567
 20
51.8524646343
 10
143.9084729466
 20
51.7493335295
 10
143.8889412552
 20
51.6548690081
 10
143.8727496141
 20
51.5690742226
 10
143.8598965327
 20
51.49195502
 10
143.8503801489
 20
51.4235146748
  0
LWPOLYLINE
  5
701
100
AcDbEntity
  8
ASSI
100
AcDbPolyline
 62
253
  6
CONTINUOUS
 90
10
 70
0
 10
144.0689098233
 20
52.4002009385
 10
144.0200631973
 20
52.2138643148
 10
143.9871388709
 20
52.0847333825
 10
143.9575678906
 20
51.9642648369
 10
143.9313471567
 20
51.8524646343
 10
143.9084729466
 20
51.7493335295
 10
143.8889412552
 20
51.6548690081
 10
143.8727496141
 20
51.5690742226
 10
143.8598965327
 20
51.49195502
 10
143.8503801489
 20
51.4235146748
  0
LWPOLYLINE
  5
702
100
AcDbEntity
  8
0
100
AcDbPolyline
 62
7
  6
CONTINUOUS
 90
10
 70
0
 10
145.3924328577
 20
52.2884570367
 10
145.3425301088
 20
52.0982620052
 10
145.3095028824
 20
51.9687878725
 10
145.2798488456
 20
51.8480161312
 10
145.2535704804
 20
51.7359520571
 10
145.230665305
 20
51.6326000985
 10
145.2111258733
 20
51.5379640877
 10
145.1949497036
 20
51.4520482426
 10
145.1821392776
 20
51.3748569551
 10
145.1726945955
 20
51.3063941134
  0
LWPOLYLINE
  5
703
100
AcDbEntity
  8
ASSI
100
AcDbPolyline
 62
7
  6
CONTINUOUS
 90
10
 70
0
 10
145.3924328577
 20
52.2884570367
 10
145.3425301088
 20
52.0982620052
 10
145.3095028824
 20
51.9687878725
 10
145.2798488456
 20
51.8480161312
 10
145.2535704804
 20
51.7359520571
 10
145.230665305
 20
51.6326000985
 10
145.2111258733
 20
51.5379640877
 10
145.1949497036
 20
51.4520482426
 10
145.1821392776
 20
51.3748569551
 10
145.1726945955
 20
51.3063941134
  0
LWPOLYLINE
  5
704
100
AcDbEntity
  8
0
100
AcDbPolyline
 62
253
  6
CONTINUOUS
 90
10
 70
0
 10
143.61589045
 20
52.840361191
 10
143.5669809563
 20
52.6545462062
 10
143.5340372545
 20
52.5254656454
 10
143.5044497329
 20
52.4050484486
 10
143.478214035
 20
52.293290896
 10
143.4553266679
 20
52.1901947545
 10
143.435784571
 20
52.0957672777
 10
143.4195849809
 20
52.0100103705
 10
143.4067258649
 20
51.9329205899
 10
143.397205872
 20
51.8644972743
  0
LWPOLYLINE
  5
705
100
AcDbEntity
  8
ASSI
100
AcDbPolyline
 62
253
  6
CONTINUOUS
 90
10
 70
0
 10
143.61589045
 20
52.840361191
 10
143.5669809563
 20
52.6545462062
 10
143.5340372545
 20
52.5254656454
 10
143.5044497329
 20
52.4050484486
 10
143.478214035
 20
52.293290896
 10
143.4553266679
 20
52.1901947545
 10
143.435784571
 20
52.0957672777
 10
143.4195849809
 20
52.0100103705
 10
143.4067258649
 20
51.9329205899
 10
143.397205872
 20
51.8644972743
  0
LINE
  5
706
100
AcDbEntity
  8
0
100
AcDbLine
 62
253
  6
CONTINUOUS
 10
141.4860265702
 20
75.0187880085
 11
141.5339870184
 21
75.087322217
  0
LINE
  5
707
100
AcDbEntity
  8
ASSI
100
AcDbLine
 62
253
  6
CONTINUOUS
 10
141.4860265702
 20
75.0187880085
 11
141.5339870184
 21
75.087322217
  0
LINE
  5
708
100
AcDbEntity
  8
0
100
AcDbLine
 62
253
  6
CONTINUOUS
 10
141.5339870184
 20
121.5553587945
 11
141.486615798
 21
121.6230509209
  0
LINE
  5
709
100
AcDbEntity
  8
ASSI
100
AcDbLine
 62
253
  6
CONTINUOUS
 10
141.5339870184
 20
121.5553587945
 11
141.486615798
 21
121.6230509209
  0
LWPOLYLINE
  5
70A
100
AcDbEntity
  8
0
100
AcDbPolyline
 62
253
  6
CONTINUOUS
 90
10
 70
0
 10
143.5669872465
 20
143.9881132983
 10
143.6158900013
 20
143.8023217972
 10
143.628793296
 20
143.7499626235
 10
143.6420207564
 20
143.6933120645
 10
143.6556174441
 20
143.6325359738
 10
143.6695900207
 20
143.5674680185
 10
143.6839067976
 20
143.4976096448
 10
143.6985756027
 20
143.4227944329
 10
143.713643732
 20
143.3431881322
 10
143.7291395899
 20
143.25879038
  0
LWPOLYLINE
  5
70B
100
AcDbEntity
  8
ASSI
100
AcDbPolyline
 62
253
  6
CONTINUOUS
 90
10
 70
0
 10
143.5669872465
 20
143.9881132983
 10
143.6158900013
 20
143.8023217972
 10
143.628793296
 20
143.7499626235
 10
143.6420207564
 20
143.6933120645
 10
143.6556174441
 20
143.6325359738
 10
143.6695900207
 20
143.5674680185
 10
143.6839067976
 20
143.4976096448
 10
143.6985756027
 20
143.4227944329
 10
143.713643732
 20
143.3431881322
 10
143.7291395899
 20
143.25879038
  0
LWPOLYLINE
  5
70C
100
AcDbEntity
  8
0
100
AcDbPolyline
 62
7
  6
CONTINUOUS
 90
10
 70
0
 10
146.1481092678
 20
144.5444886927
 10
146.1980781336
 20
144.3542283339
 10
146.2117285775
 20
144.2986833876
 10
146.2255150444
 20
144.239614953
 10
146.2394372166
 20
144.1770252672
 10
146.2534954117
 20
144.1109165883
 10
146.2676905824
 20
144.0412911606
 10
146.282023046
 20
143.968151476
 10
146.2964924852
 20
143.8915003085
 10
146.3110988998
 20
143.8113405057
  0
LWPOLYLINE
  5
70D
100
AcDbEntity
  8
ASSI
100
AcDbPolyline
 62
7
  6
CONTINUOUS
 90
10
 70
0
 10
146.1481092678
 20
144.5444886927
 10
146.1980781336
 20
144.3542283339
 10
146.2117285775
 20
144.2986833876
 10
146.2255150444
 20
144.239614953
 10
146.2394372166
 20
144.1770252672
 10
146.2534954117
 20
144.1109165883
 10
146.2676905824
 20
144.0412911606
 10
146.282023046
 20
143.968151476
 10
146.2964924852
 20
143.8915003085
 10
146.3110988998
 20
143.8113405057
  0
LWPOLYLINE
  5
70E
100
AcDbEntity
  8
0
100
AcDbPolyline
 62
7
  6
CONTINUOUS
 90
10
 70
0
 10
145.3425301088
 20
144.5444190063
 10
145.3924328577
 20
144.3542239748
 10
145.4060711393
 20
144.2986751999
 10
145.4198453697
 20
144.2396036711
 10
145.4337552623
 20
144.1770117397
 10
145.4478011037
 20
144.1109019463
 10
145.4619837538
 20
144.0412770342
 10
145.4763034994
 20
143.9681398448
 10
145.4907600537
 20
143.8914933043
 10
145.5053534167
 20
143.8113405057
  0
LWPOLYLINE
  5
70F
100
AcDbEntity
  8
ASSI
100
AcDbPolyline
 62
7
  6
CONTINUOUS
 90
10
 70
0
 10
145.3425301088
 20
144.5444190063
 10
145.3924328577
 20
144.3542239748
 10
145.4060711393
 20
144.2986751999
 10
145.4198453697
 20
144.2396036711
 10
145.4337552623
 20
144.1770117397
 10
145.4478011037
 20
144.1109019463
 10
145.4619837538
 20
144.0412770342
 10
145.4763034994
 20
143.9681398448
 10
145.4907600537
 20
143.8914933043
 10
145.5053534167
 20
143.8113405057
  0
LWPOLYLINE
  5
710
100
AcDbEntity
  8
0
100
AcDbPolyline
 62
253
  6
CONTINUOUS
 90
10
 70
0
 10
144.0200692778
 20
144.4287932507
 10
144.068909367
 20
144.2424818831
 10
144.0818112806
 20
144.1899470392
 10
144.0950566798
 20
144.1332643752
 10
144.1086516791
 20
144.0722746295
 10
144.1226032776
 20
144.0068139522
 10
144.1369193368
 20
143.9367131675
 10
144.1516072066
 20
143.8618027144
 10
144.1666737519
 20
143.7819136727
 10
144.1821263457
 20
143.6968736204
  0
LWPOLYLINE
  5
711
100
AcDbEntity
  8
ASSI
100
AcDbPolyline
 62
253
  6
CONTINUOUS
 90
10
 70
0
 10
144.0200692778
 20
144.4287932507
 10
144.068909367
 20
144.2424818831
 10
144.0818112806
 20
144.1899470392
 10
144.0950566798
 20
144.1332643752
 10
144.1086516791
 20
144.0722746295
 10
144.1226032776
 20
144.0068139522
 10
144.1369193368
 20
143.9367131675
 10
144.1516072066
 20
143.8618027144
 10
144.1666737519
 20
143.7819136727
 10
144.1821263457
 20
143.6968736204
  0
LWPOLYLINE
  5
712
100
AcDbEntity
  8
0
100
AcDbPolyline
 62
7
  6
CONTINUOUS
 90
9
 70
0
 10
146.5936408439
 20
144.046131771
 10
146.560561514
 20
144.1753113811
 10
146.5308595727
 20
144.2958088076
 10
146.5045310381
 20
144.407630883
 10
146.4815738287
 20
144.5107727712
 10
146.4619864064
 20
144.6052179678
 10
146.4457661448
 20
144.6909614969
 10
146.4329106873
 20
144.7680099078
 10
146.4234186978
 20
144.8363638769
  0
LWPOLYLINE
  5
713
100
AcDbEntity
  8
0
100
AcDbPolyline
 62
7
  6
CONTINUOUS
 90
10
 70
0
 10
146.7563365595
 20
143.316726114
 10
146.7417584527
 20
143.396431433
 10
146.7273198493
 20
143.4726447487
 10
146.7130197035
 20
143.5453663183
 10
146.6988561645
 20
143.614600581
 10
146.684829391
 20
143.6803435787
 10
146.6709412033
 20
143.7425829572
 10
146.6571914934
 20
143.8013147371
 10
146.6435785725
 20
143.8565433131
 10
146.5936408439
 20
144.046131771
  0
LWPOLYLINE
  5
714
100
AcDbEntity
  8
0
100
AcDbPolyline
 62
7
  6
CONTINUOUS
 90
10
 70
0
 10
146.1845637126
 20
52.2364332517
 10
146.1481092678
 20
52.0981923188
 10
146.1150352147
 20
51.9686562854
 10
146.0853415534
 20
51.847830704
 10
146.0590306271
 20
51.7357204088
 10
146.0361000925
 20
51.6323309549
 10
146.0165429196
 20
51.5376682496
 10
146.0003567652
 20
51.4517368042
 10
145.9875439725
 20
51.3745401025
 10
145.9781045415
 20
51.3060817822
  0
LWPOLYLINE
  5
715
100
AcDbEntity
  8
ASSI
100
AcDbPolyline
 62
7
  6
CONTINUOUS
 90
10
 70
0
 10
146.1845637126
 20
52.2364332517
 10
146.1481092678
 20
52.0981923188
 10
146.1150352147
 20
51.9686562854
 10
146.0853415534
 20
51.847830704
 10
146.0590306271
 20
51.7357204088
 10
146.0361000925
 20
51.6323309549
 10
146.0165429196
 20
51.5376682496
 10
146.0003567652
 20
51.4517368042
 10
145.9875439725
 20
51.3745401025
 10
145.9781045415
 20
51.3060817822
  0
LWPOLYLINE
  5
716
100
AcDbEntity
  8
0
100
AcDbPolyline
 62
7
  6
CONTINUOUS
 90
10
 70
0
 10
146.5862792422
 20
53.2838247509
 10
146.5364256881
 20
53.0949753436
 10
146.5033712594
 20
52.9661985647
 10
146.4736823697
 20
52.8460596055
 10
146.4473554483
 20
52.7345507667
 10
146.424388628
 20
52.6316777937
 10
146.4047803907
 20
52.5374598753
 10
146.3885283144
 20
52.451902893
 10
146.3756304275
 20
52.3749994237
 10
146.3660856779
 20
52.3067488045
  0
LWPOLYLINE
  5
717
100
AcDbEntity
  8
0
100
AcDbPolyline
 62
7
  6
CONTINUOUS
 90
10
 70
0
 10
146.5364196415
 20
143.5477291052
 10
146.5862792913
 20
143.358856043
 10
146.5998465391
 20
143.3039396483
 10
146.6135519449
 20
143.2455406221
 10
146.6273971841
 20
143.183654608
 10
146.6413823566
 20
143.1182855571
 10
146.655505644
 20
143.0494457297
 10
146.6697668831
 20
142.9771390564
 10
146.6841679098
 20
142.9013611372
 10
146.6987097575
 20
142.8221117216
  0
LINE
  5
718
100
AcDbEntity
  8
0
100
AcDbLine
 62
253
  6
CONTINUOUS
 10
144.6198127197
 20
121.9407605057
 11
143.3273602034
 21
121.9300774474
  0
LINE
  5
719
100
AcDbEntity
  8
ASSI
100
AcDbLine
 62
253
  6
CONTINUOUS
 10
144.6198127197
 20
121.9407605057
 11
143.3273602034
 21
121.9300774474
  0
LINE
  5
71A
100
AcDbEntity
  8
RACCORDO
100
AcDbLine
 62
253
  6
CONTINUOUS
 10
145.8509244999
 20
121.8319304857
 11
145.535535316
 21
121.8319304857
  0
LINE
  5
71B
100
AcDbEntity
  8
0
100
AcDbLine
 62
253
  6
CONTINUOUS
 10
145.8528635769
 20
121.8791405057
 11
145.8871572679
 21
121.8791405057
  0
LINE
  5
71C
100
AcDbEntity
  8
0
100
AcDbLine
 62
253
  6
CONTINUOUS
 10
141.5047252534
 20
122.0213405057
 11
142.8774244003
 21
122.0213405057
  0
LINE
  5
71D
100
AcDbEntity
  8
ASSI
100
AcDbLine
 62
253
  6
CONTINUOUS
 10
141.5047252534
 20
122.0213405057
 11
142.8774244003
 21
122.0213405057
  0
LWPOLYLINE
  5
71E
100
AcDbEntity
  8
RACCORDO
100
AcDbPolyline
 62
253
  6
CONTINUOUS
 90
7
 70
0
 10
145.5188929031
 20
121.9130275395
 10
145.4991509916
 20
121.9135496709
 10
145.4798052205
 20
121.9138702609
 10
145.4610487119
 20
121.9139861091
 10
145.4430687055
 20
121.9138960592
 10
145.4260446894
 20
121.91360101
 10
145.4215314678
 20
121.9134598901
  0
LWPOLYLINE
  5
71F
100
AcDbEntity
  8
0
100
AcDbPolyline
 62
253
  6
CONTINUOUS
 90
16
 70
0
 10
143.3273601987
 20
121.9300774528
 10
143.2807982905
 20
121.9313673934
 10
143.2350336805
 20
121.9322140206
 10
143.1904711637
 20
121.9326098458
 10
143.1475049027
 20
121.9325513679
 10
143.1065149406
 20
121.9320391041
 10
143.0678638401
 20
121.9310775855
 10
143.0318934762
 20
121.9296753169
 10
142.9989220125
 20
121.9278447015
 10
142.9692410866
 20
121.9256019315
 10
142.943113231
 20
121.9229668445
 10
142.9207695506
 20
121.9199627483
 10
142.9024076789
 20
121.9166162146
 10
142.8881900293
 20
121.9129568439
 10
142.8782423594
 20
121.9090170041
 10
142.8726526577
 20
121.9048315436
  0
LWPOLYLINE
  5
720
100
AcDbEntity
  8
ASSI
100
AcDbPolyline
 62
253
  6
CONTINUOUS
 90
16
 70
0
 10
143.3273601987
 20
121.9300774528
 10
143.2807982905
 20
121.9313673934
 10
143.2350336805
 20
121.9322140206
 10
143.1904711637
 20
121.9326098458
 10
143.1475049027
 20
121.9325513679
 10
143.1065149406
 20
121.9320391041
 10
143.0678638401
 20
121.9310775855
 10
143.0318934762
 20
121.9296753169
 10
142.9989220125
 20
121.9278447015
 10
142.9692410866
 20
121.9256019315
 10
142.943113231
 20
121.9229668445
 10
142.9207695506
 20
121.9199627483
 10
142.9024076789
 20
121.9166162146
 10
142.8881900293
 20
121.9129568439
 10
142.8782423594
 20
121.9090170041
 10
142.8726526577
 20
121.9048315436
  0
LWPOLYLINE
  5
721
100
AcDbEntity
  8
0
100
AcDbPolyline
 62
253
  6
CONTINUOUS
 90
16
 70
0
 10
143.3321270852
 20
122.046715665
 10
143.2855663219
 20
122.0480117706
 10
143.2398028201
 20
122.0488623491
 10
143.1952413519
 20
122.0492598772
 10
143.1522760576
 20
122.049200839
 10
143.1112869593
 20
122.0486857566
 10
143.0726366001
 20
122.0477191858
 10
143.0366668373
 20
122.0463096759
 10
143.0036958184
 20
122.0444696937
 10
142.9740151678
 20
122.0422155136
 10
142.9478874069
 20
122.0395670736
 10
142.925543632
 20
122.0365477987
 10
142.907181471
 20
122.0331843941
 10
142.8929633346
 20
122.0295066085
 10
142.8830149804
 20
122.0255469716
 10
142.8774244003
 20
122.0213405057
  0
LWPOLYLINE
  5
722
100
AcDbEntity
  8
ASSI
100
AcDbPolyline
 62
253
  6
CONTINUOUS
 90
16
 70
0
 10
143.3321270852
 20
122.046715665
 10
143.2855663219
 20
122.0480117706
 10
143.2398028201
 20
122.0488623491
 10
143.1952413519
 20
122.0492598772
 10
143.1522760576
 20
122.049200839
 10
143.1112869593
 20
122.0486857566
 10
143.0726366001
 20
122.0477191858
 10
143.0366668373
 20
122.0463096759
 10
143.0036958184
 20
122.0444696937
 10
142.9740151678
 20
122.0422155136
 10
142.9478874069
 20
122.0395670736
 10
142.925543632
 20
122.0365477987
 10
142.907181471
 20
122.0331843941
 10
142.8929633346
 20
122.0295066085
 10
142.8830149804
 20
122.0255469716
 10
142.8774244003
 20
122.0213405057
  0
LWPOLYLINE
  5
723
100
AcDbEntity
  8
RACCORDO
100
AcDbPolyline
 62
253
  6
CONTINUOUS
 90
8
 70
0
 10
145.535535316
 20
121.8319304868
 10
145.5155940239
 20
121.8326465337
 10
145.4958518029
 20
121.8331669161
 10
145.4765057367
 20
121.8334864391
 10
145.4577489544
 20
121.8336019128
 10
145.4397687021
 20
121.8335121847
 10
145.4227444742
 20
121.8332181504
 10
145.4183506216
 20
121.8330812336
  0
LINE
  5
724
100
AcDbEntity
  8
RACCORDO
100
AcDbLine
 62
253
  6
CONTINUOUS
 10
145.5388338785
 20
121.9123090789
 11
145.5188929031
 21
121.9130275395
  0
LWPOLYLINE
  5
725
100
AcDbEntity
  8
0
100
AcDbPolyline
 62
253
  6
CONTINUOUS
 90
16
 70
0
 10
145.8871572679
 20
121.8791405057
 10
146.1484543485
 20
121.8665863974
 10
146.4085275658
 20
121.8529401848
 10
146.6668184139
 20
121.8382311732
 10
146.9227722144
 20
121.8224909501
 10
147.1758393081
 20
121.8057533175
 10
147.4254762346
 20
121.7880542194
 10
147.6711469
 20
121.7694316646
 10
147.9123237278
 20
121.7499256448
 10
148.1484887919
 20
121.7295780492
 10
148.3791349293
 20
121.708432574
 10
148.6037668285
 20
121.6865346292
 10
148.8219020936
 20
121.6639312404
 10
149.0330722804
 20
121.6406709482
 10
149.236823902
 20
121.6168037041
 10
149.4327194029
 20
121.5923807628
  0
LINE
  5
726
100
AcDbEntity
  8
0
100
AcDbLine
 62
253
  6
CONTINUOUS
 10
144.8067134695
 20
125.9724890165
 11
143.5127241899
 21
125.9594561228
  0
LINE
  5
727
100
AcDbEntity
  8
ASSI
100
AcDbLine
 62
253
  6
CONTINUOUS
 10
144.8067134695
 20
125.9724890165
 11
143.5127241899
 21
125.9594561228
  0
LINE
  5
728
100
AcDbEntity
  8
RACCORDO
100
AcDbLine
 62
253
  6
CONTINUOUS
 10
146.0379053086
 20
125.8618844224
 11
145.7220893926
 21
125.8618843928
  0
LINE
  5
729
100
AcDbEntity
  8
0
100
AcDbLine
 62
253
  6
CONTINUOUS
 10
145.6100131925
 20
125.9724890165
 11
144.8067134695
 21
125.9724890165
  0
LINE
  5
72A
100
AcDbEntity
  8
ASSI
100
AcDbLine
 62
253
  6
CONTINUOUS
 10
145.6100131925
 20
125.9724890165
 11
144.8067134695
 21
125.9724890165
  0
LWPOLYLINE
  5
72B
100
AcDbEntity
  8
0
100
AcDbPolyline
 62
253
  6
CONTINUOUS
 90
16
 70
0
 10
143.5127243002
 20
125.9594582912
 10
143.4662257812
 20
125.9611253673
 10
143.4205225929
 20
125.9622716266
 10
143.3760182741
 20
125.962886948
 10
143.3331057782
 20
125.9629658986
 10
143.2921640035
 20
125.9625077812
 10
143.2535544477
 20
125.9615166409
 10
143.217618016
 20
125.9600012289
 10
143.1846720112
 20
125.9579749257
 10
143.1550073318
 20
125.9554556227
 10
143.1288859039
 20
125.9524655641
 10
143.106538368
 20
125.9490311508
 10
143.0881620429
 20
125.9451827073
 10
143.0739191834
 20
125.9409542135
 10
143.0639355478
 20
125.9363830051
 10
143.0582992869
 20
125.931509444
  0
LWPOLYLINE
  5
72C
100
AcDbEntity
  8
ASSI
100
AcDbPolyline
 62
253
  6
CONTINUOUS
 90
16
 70
0
 10
143.5127243002
 20
125.9594582912
 10
143.4662257812
 20
125.9611253673
 10
143.4205225929
 20
125.9622716266
 10
143.3760182741
 20
125.962886948
 10
143.3331057782
 20
125.9629658986
 10
143.2921640035
 20
125.9625077812
 10
143.2535544477
 20
125.9615166409
 10
143.217618016
 20
125.9600012289
 10
143.1846720112
 20
125.9579749257
 10
143.1550073318
 20
125.9554556227
 10
143.1288859039
 20
125.9524655641
 10
143.106538368
 20
125.9490311508
 10
143.0881620429
 20
125.9451827073
 10
143.0739191834
 20
125.9409542135
 10
143.0639355478
 20
125.9363830051
 10
143.0582992869
 20
125.931509444
  0
LWPOLYLINE
  5
72D
100
AcDbEntity
  8
RACCORDO
100
AcDbPolyline
 62
253
  6
CONTINUOUS
 90
8
 70
0
 10
145.7220893942
 20
125.8618844224
 10
145.7021739738
 20
125.8627919766
 10
145.6824570436
 20
125.8634700139
 10
145.6631351151
 20
125.8639117768
 10
145.6444007633
 20
125.8641128623
 10
145.626440707
 20
125.8640712662
 10
145.6094339478
 20
125.8637874031
 10
145.6044318783
 20
125.8636226087
  0
LWPOLYLINE
  5
72E
100
AcDbEntity
  8
0
100
AcDbPolyline
 62
253
  6
CONTINUOUS
 90
13
 70
0
 10
146.0747730054
 20
125.9171867195
 10
146.3805977887
 20
125.8986998867
 10
146.6845914775
 20
125.8784673629
 10
146.9858581614
 20
125.8565487915
 10
147.2835100875
 20
125.8330111237
 10
147.5766699132
 20
125.8079213793
 10
147.8644732939
 20
125.7813464889
 10
148.1460720791
 20
125.7533656609
 10
148.4206363147
 20
125.7240604894
 10
148.687356331
 20
125.6935077823
 10
148.945445907
 20
125.6617944383
 10
149.1941445815
 20
125.6290170921
 10
149.4327194034
 20
125.5952722854
  0
LINE
  5
72F
100
AcDbEntity
  8
0
100
AcDbLine
 62
253
  6
CONTINUOUS
 10
145.0283576158
 20
129.9724890165
 11
143.7308577783
 21
129.9519374629
  0
LINE
  5
730
100
AcDbEntity
  8
ASSI
100
AcDbLine
 62
253
  6
CONTINUOUS
 10
145.0283576158
 20
129.9724890165
 11
143.7308577783
 21
129.9519374629
  0
LINE
  5
731
100
AcDbEntity
  8
RACCORDO
100
AcDbLine
 62
253
  6
CONTINUOUS
 10
146.2561608705
 20
129.7973103199
 11
145.9392826236
 21
129.7973101365
  0
LINE
  5
732
100
AcDbEntity
  8
0
100
AcDbLine
 62
253
  6
CONTINUOUS
 10
145.8322166909
 20
129.9724890165
 11
145.0283576158
 21
129.9724890165
  0
LINE
  5
733
100
AcDbEntity
  8
ASSI
100
AcDbLine
 62
253
  6
CONTINUOUS
 10
145.8322166909
 20
129.9724890165
 11
145.0283576158
 21
129.9724890165
  0
LWPOLYLINE
  5
734
100
AcDbEntity
  8
0
100
AcDbPolyline
 62
253
  6
CONTINUOUS
 90
16
 70
0
 10
143.7308631564
 20
129.9520317884
 10
143.6845202497
 20
129.9535710204
 10
143.6389665418
 20
129.9543090298
 10
143.5946018422
 20
129.9542393394
 10
143.5518155246
 20
129.9533625609
 10
143.5109831099
 20
129.9516863894
 10
143.4724629701
 20
129.9492255361
 10
143.4365931834
 20
129.9460015992
 10
143.4036885666
 20
129.9420428739
 10
143.3740379123
 20
129.9373841046
 10
143.3479014541
 20
129.9320661799
 10
143.3255085827
 20
129.9261357733
 10
143.3070558327
 20
129.9196449339
 10
143.2927051575
 20
129.9126506296
 10
143.2825825082
 20
129.905214247
 10
143.2767767278
 20
129.8974010528
  0
LWPOLYLINE
  5
735
100
AcDbEntity
  8
ASSI
100
AcDbPolyline
 62
253
  6
CONTINUOUS
 90
16
 70
0
 10
143.7308631564
 20
129.9520317884
 10
143.6845202497
 20
129.9535710204
 10
143.6389665418
 20
129.9543090298
 10
143.5946018422
 20
129.9542393394
 10
143.5518155246
 20
129.9533625609
 10
143.5109831099
 20
129.9516863894
 10
143.4724629701
 20
129.9492255361
 10
143.4365931834
 20
129.9460015992
 10
143.4036885666
 20
129.9420428739
 10
143.3740379123
 20
129.9373841046
 10
143.3479014541
 20
129.9320661799
 10
143.3255085827
 20
129.9261357733
 10
143.3070558327
 20
129.9196449339
 10
143.2927051575
 20
129.9126506296
 10
143.2825825082
 20
129.905214247
 10
143.2767767278
 20
129.8974010528
  0
LWPOLYLINE
  5
736
100
AcDbEntity
  8
RACCORDO
100
AcDbPolyline
 62
253
  6
CONTINUOUS
 90
8
 70
0
 10
145.939282634
 20
129.7973103197
 10
145.9194303767
 20
129.7982724022
 10
145.8997748677
 20
129.7988777237
 10
145.8805109053
 20
129.7991202853
 10
145.8618294075
 20
129.7989976829
 10
145.8439155194
 20
129.7985111317
 10
145.826946779
 20
129.7976654537
 10
145.8219075817
 20
129.7972852042
  0
LWPOLYLINE
  5
737
100
AcDbEntity
  8
0
100
AcDbPolyline
 62
253
  6
CONTINUOUS
 90
13
 70
0
 10
146.295175018
 20
129.8848996682
 10
146.5779139086
 20
129.8644356087
 10
146.8590840165
 20
129.8415692821
 10
147.137976293
 20
129.8163583904
 10
147.4138876115
 20
129.7888695551
 10
147.6861220097
 20
129.7591691633
 10
147.9539924534
 20
129.7273233234
 10
148.2168235124
 20
129.6934138034
 10
148.4739523344
 20
129.6575251763
 10
148.7247298087
 20
129.6197359895
 10
148.9685233339
 20
129.5801381257
 10
149.2047183954
 20
129.5388362671
 10
149.4327194062
 20
129.4959353215
  0
LWPOLYLINE
  5
738
100
AcDbEntity
  8
0
100
AcDbPolyline
 62
253
  6
CONTINUOUS
 90
16
 70
0
 10
144.1821287851
 20
143.6968597846
 10
144.1369222891
 20
143.6907037059
 10
144.0924550489
 20
143.680497585
 10
144.049097318
 20
143.6663264024
 10
144.0072101119
 20
143.6483081536
 10
143.9671422014
 20
143.6265928665
 10
143.9292272095
 20
143.6013613519
 10
143.8937808329
 20
143.5728236983
 10
143.8610982135
 20
143.5412175228
 10
143.831451481
 20
143.5068059921
 10
143.8050874869
 20
143.4698756316
 10
143.7822257493
 20
143.4307339394
 10
143.763056625
 20
143.3897068264
 10
143.7477397244
 20
143.3471359022
 10
143.7364025827
 20
143.3033756307
 10
143.7291395978
 20
143.2587903791
  0
LWPOLYLINE
  5
739
100
AcDbEntity
  8
ASSI
100
AcDbPolyline
 62
253
  6
CONTINUOUS
 90
16
 70
0
 10
144.1821287851
 20
143.6968597846
 10
144.1369222891
 20
143.6907037059
 10
144.0924550489
 20
143.680497585
 10
144.049097318
 20
143.6663264024
 10
144.0072101119
 20
143.6483081536
 10
143.9671422014
 20
143.6265928665
 10
143.9292272095
 20
143.6013613519
 10
143.8937808329
 20
143.5728236983
 10
143.8610982135
 20
143.5412175228
 10
143.831451481
 20
143.5068059921
 10
143.8050874869
 20
143.4698756316
 10
143.7822257493
 20
143.4307339394
 10
143.763056625
 20
143.3897068264
 10
143.7477397244
 20
143.3471359022
 10
143.7364025827
 20
143.3033756307
 10
143.7291395978
 20
143.2587903791
  0
LWPOLYLINE
  5
73A
100
AcDbEntity
  8
0
100
AcDbPolyline
 62
253
  6
CONTINUOUS
 90
16
 70
0
 10
144.0563446533
 20
144.2910267902
 10
144.0111113145
 20
144.2849020828
 10
143.9666182547
 20
144.2746941465
 10
143.9232363427
 20
144.2604880688
 10
143.8813271854
 20
144.2424022635
 10
143.8412401136
 20
144.2205874837
 10
143.8033092706
 20
144.1952255649
 10
143.7678508261
 20
144.1665279096
 10
143.7351603415
 20
144.1347337251
 10
143.7055103063
 20
144.1001080298
 10
143.6791478662
 20
144.0629394437
 10
143.6562927634
 20
144.023537783
 10
143.6371355052
 20
143.9822314775
 10
143.6218357756
 20
143.9393648331
 10
143.6105211044
 20
143.8952951617
 10
143.6032858042
 20
143.8503898031
  0
LWPOLYLINE
  5
73B
100
AcDbEntity
  8
ASSI
100
AcDbPolyline
 62
253
  6
CONTINUOUS
 90
16
 70
0
 10
144.0563446533
 20
144.2910267902
 10
144.0111113145
 20
144.2849020828
 10
143.9666182547
 20
144.2746941465
 10
143.9232363427
 20
144.2604880688
 10
143.8813271854
 20
144.2424022635
 10
143.8412401136
 20
144.2205874837
 10
143.8033092706
 20
144.1952255649
 10
143.7678508261
 20
144.1665279096
 10
143.7351603415
 20
144.1347337251
 10
143.7055103063
 20
144.1001080298
 10
143.6791478662
 20
144.0629394437
 10
143.6562927634
 20
144.023537783
 10
143.6371355052
 20
143.9822314775
 10
143.6218357756
 20
143.9393648331
 10
143.6105211044
 20
143.8952951617
 10
143.6032858042
 20
143.8503898031
  0
LINE
  5
73C
100
AcDbEntity
  8
0
100
AcDbLine
 62
253
  6
CONTINUOUS
 10
145.378930525
 20
144.4062477598
 11
144.0563446211
 21
144.2910269107
  0
LINE
  5
73D
100
AcDbEntity
  8
ASSI
100
AcDbLine
 62
253
  6
CONTINUOUS
 10
145.378930525
 20
144.4062477598
 11
144.0563446211
 21
144.2910269107
  0
LINE
  5
73E
100
AcDbEntity
  8
0
100
AcDbLine
 62
253
  6
CONTINUOUS
 10
145.5053534167
 20
143.8113405057
 11
144.1821263457
 21
143.6968736204
  0
LINE
  5
73F
100
AcDbEntity
  8
ASSI
100
AcDbLine
 62
253
  6
CONTINUOUS
 10
145.5053534167
 20
143.8113405057
 11
144.1821263457
 21
143.6968736204
  0
LINE
  5
740
100
AcDbEntity
  8
RACCORDO
100
AcDbLine
 62
253
  6
CONTINUOUS
 10
146.6987097575
 20
142.8221117216
 11
146.373822651
 21
142.8221138864
  0
LINE
  5
741
100
AcDbEntity
  8
RACCORDO
100
AcDbLine
 62
253
  6
CONTINUOUS
 10
146.572849512
 20
143.4102899919
 11
146.3524407941
 21
143.4102901181
  0
LINE
  5
742
100
AcDbEntity
  8
0
100
AcDbLine
 62
253
  6
CONTINUOUS
 10
146.3110988998
 20
143.8113405057
 11
145.5053534167
 21
143.8113405057
  0
LINE
  5
743
100
AcDbEntity
  8
ASSI
100
AcDbLine
 62
253
  6
CONTINUOUS
 10
146.3110988998
 20
143.8113405057
 11
145.5053534167
 21
143.8113405057
  0
LINE
  5
744
100
AcDbEntity
  8
RACCORDO
100
AcDbLine
 62
253
  6
CONTINUOUS
 10
146.3659822528
 20
144.3367722052
 11
146.2023680631
 21
144.3367722052
  0
LWPOLYLINE
  5
745
100
AcDbEntity
  8
0
100
AcDbPolyline
 62
253
  6
CONTINUOUS
 90
13
 70
0
 10
146.7563365596
 20
143.3167261137
 10
146.9948211313
 20
143.2895383717
 10
147.2318856788
 20
143.2523553514
 10
147.4671031169
 20
143.2052440411
 10
147.70004965
 20
143.1482895249
 10
147.93030565
 20
143.0815941992
 10
148.1574564122
 20
143.0052775907
 10
148.3810927036
 20
142.9194772318
 10
148.60081164
 20
142.8243476521
 10
148.8162175256
 20
142.720059475
 10
149.026922342
 20
142.6068003284
 10
149.2325464479
 20
142.4847745026
 10
149.432719402
 20
142.3542018272
  0
LWPOLYLINE
  5
746
100
AcDbEntity
  8
0
100
AcDbPolyline
 62
253
  6
CONTINUOUS
 90
13
 70
0
 10
146.6301017426
 20
143.9082688758
 10
146.8813278578
 20
143.8789015677
 10
147.1309608131
 20
143.8383725811
 10
147.3785015494
 20
143.7867629408
 10
147.623455165
 20
143.7241759168
 10
147.8653319808
 20
143.6507365373
 10
148.1036485197
 20
143.5665913395
 10
148.33792834
 20
143.4719085638
 10
148.5677030831
 20
143.3668774748
 10
148.7925134855
 20
143.2517077039
 10
149.0119101452
 20
143.1266293777
 10
149.2254544208
 20
142.9918926574
 10
149.4327194028
 20
142.8477668979
  0
LWPOLYLINE
  5
747
100
AcDbEntity
  8
0
100
AcDbPolyline
 62
253
  6
CONTINUOUS
 90
3
 70
0
 10
143.8503801489
 20
145.2191663373
 10
143.8051459656
 20
145.2131139018
 10
143.7606516804
 20
145.202965692
  0
LWPOLYLINE
  5
748
100
AcDbEntity
  8
ASSI
100
AcDbPolyline
 62
253
  6
CONTINUOUS
 90
3
 70
0
 10
143.8503801489
 20
145.2191663373
 10
143.8051459656
 20
145.2131139018
 10
143.7606516804
 20
145.202965692
  0
LINE
  5
749
100
AcDbEntity
  8
0
100
AcDbLine
 62
7
  6
CONTINUOUS
 10
145.1442691759
 20
145.5713405057
 11
143.8214833578
 21
145.4556117424
  0
LINE
  5
74A
100
AcDbEntity
  8
ASSI
100
AcDbLine
 62
7
  6
CONTINUOUS
 10
145.1442691759
 20
145.5713405057
 11
143.8214833578
 21
145.4556117424
  0
LINE
  5
74B
100
AcDbEntity
  8
0
100
AcDbLine
 62
253
  6
CONTINUOUS
 10
145.1726945955
 20
145.3362868981
 11
143.8501951016
 21
145.220677542
  0
LINE
  5
74C
100
AcDbEntity
  8
ASSI
100
AcDbLine
 62
253
  6
CONTINUOUS
 10
145.1726945955
 20
145.3362868981
 11
143.8501951016
 21
145.220677542
  0
LINE
  5
74D
100
AcDbEntity
  8
0
100
AcDbLine
 62
253
  6
CONTINUOUS
 10
146.1845637126
 20
144.4062477598
 11
145.378930525
 21
144.4062477598
  0
LINE
  5
74E
100
AcDbEntity
  8
ASSI
100
AcDbLine
 62
253
  6
CONTINUOUS
 10
146.1845637126
 20
144.4062477598
 11
145.378930525
 21
144.4062477598
  0
LINE
  5
74F
100
AcDbEntity
  8
RACCORDO
100
AcDbLine
 62
7
  6
CONTINUOUS
 10
146.3371605794
 20
144.5713405057
 11
146.1412532736
 21
144.5713405057
  0
LINE
  5
750
100
AcDbEntity
  8
0
100
AcDbLine
 62
7
  6
CONTINUOUS
 10
145.9528911459
 20
145.5713405057
 11
145.1474228777
 21
145.5713405057
  0
LINE
  5
751
100
AcDbEntity
  8
ASSI
100
AcDbLine
 62
7
  6
CONTINUOUS
 10
145.9528911459
 20
145.5713405057
 11
145.1474228777
 21
145.5713405057
  0
LWPOLYLINE
  5
752
100
AcDbEntity
  8
0
100
AcDbPolyline
 62
253
  6
CONTINUOUS
 90
13
 70
0
 10
146.4234186978
 20
144.8363638769
 10
146.6961893424
 20
144.8032056692
 10
146.9670253803
 20
144.7568586911
 10
147.2352885139
 20
144.6974321716
 10
147.5003465094
 20
144.6250661653
 10
147.7615746866
 20
144.5399312219
 10
148.0183573916
 20
144.4422279847
 10
148.270089447
 20
144.3321867176
 10
148.5161775791
 20
144.2100667622
 10
148.7560418152
 20
144.076155927
 10
148.9891168512
 20
143.9307698085
 10
149.2148533832
 20
143.7742510482
 10
149.4327194029
 20
143.6069685243
  0
ARC
  5
753
100
AcDbEntity
  8
0
100
AcDbCircle
 62
7
  6
CONTINUOUS
 10
202.2908572733
 20
56.3539472925
 40
88.4096728815
100
AcDbArc
 50
95.1534094942
 51
98.4170632326
  0
ARC
  5
754
100
AcDbEntity
  8
ASSI
100
AcDbCircle
 62
7
  6
CONTINUOUS
 10
202.2908572733
 20
56.3539472925
 40
88.4096728815
100
AcDbArc
 50
95.1534094942
 51
98.4170632326
  0
ARC
  5
755
100
AcDbEntity
  8
0
100
AcDbCircle
 62
7
  6
CONTINUOUS
 10
204.3911158686
 20
77.521520297
 40
61.9443374955
100
AcDbArc
 50
349.9109426922
 51
353.6498310709
  0
ARC
  5
756
100
AcDbEntity
  8
ASSI
100
AcDbCircle
 62
7
  6
CONTINUOUS
 10
204.3911158686
 20
77.521520297
 40
61.9443374955
100
AcDbArc
 50
349.9109426922
 51
353.6498310709
  0
ARC
  5
757
100
AcDbEntity
  8
0
100
AcDbCircle
 62
7
  6
CONTINUOUS
 10
191.8380781075
 20
69.6482298366
 40
17.0
100
AcDbArc
 50
190.0890573078
 51
261.5829367674
  0
ARC
  5
758
100
AcDbEntity
  8
ASSI
100
AcDbCircle
 62
7
  6
CONTINUOUS
 10
191.8380781075
 20
69.6482298366
 40
17.0
100
AcDbArc
 50
190.0890573078
 51
261.5829367674
  0
ARC
  5
759
100
AcDbEntity
  8
0
100
AcDbCircle
 62
7
  6
CONTINUOUS
 10
17.4892708288
 20
98.3213405057
 40
250.0
100
AcDbArc
 50
353.6498310709
 51
6.3501689291
  0
ARC
  5
75A
100
AcDbEntity
  8
ASSI
100
AcDbCircle
 62
7
  6
CONTINUOUS
 10
17.4892708288
 20
98.3213405057
 40
250.0
100
AcDbArc
 50
353.6498310709
 51
6.3501689291
  0
ARC
  5
75B
100
AcDbEntity
  8
0
100
AcDbCircle
 62
7
  6
CONTINUOUS
 10
202.2908572733
 20
140.2887337189
 40
88.4096728815
100
AcDbArc
 50
261.5829367674
 51
264.8465905058
  0
ARC
  5
75C
100
AcDbEntity
  8
ASSI
100
AcDbCircle
 62
7
  6
CONTINUOUS
 10
202.2908572733
 20
140.2887337189
 40
88.4096728815
100
AcDbArc
 50
261.5829367674
 51
264.8465905058
  0
ARC
  5
75D
100
AcDbEntity
  8
0
100
AcDbCircle
 62
7
  6
CONTINUOUS
 10
204.3911158686
 20
119.1211607145
 40
61.9443374955
100
AcDbArc
 50
6.3501689291
 51
10.0890573078
  0
ARC
  5
75E
100
AcDbEntity
  8
ASSI
100
AcDbCircle
 62
7
  6
CONTINUOUS
 10
204.3911158686
 20
119.1211607145
 40
61.9443374955
100
AcDbArc
 50
6.3501689291
 51
10.0890573078
  0
ARC
  5
75F
100
AcDbEntity
  8
0
100
AcDbCircle
 62
7
  6
CONTINUOUS
 10
191.8380781075
 20
126.9944511749
 40
17.0
100
AcDbArc
 50
98.4170632326
 51
169.9109426922
  0
ARC
  5
760
100
AcDbEntity
  8
ASSI
100
AcDbCircle
 62
7
  6
CONTINUOUS
 10
191.8380781075
 20
126.9944511749
 40
17.0
100
AcDbArc
 50
98.4170632326
 51
169.9109426922
  0
ARC
  5
761
100
AcDbEntity
  8
0
100
AcDbCircle
 62
7
  6
CONTINUOUS
 10
220.2392708288
 20
-142.6587087014
 40
288.2300492072
100
AcDbArc
 50
84.8465905058
 51
95.1534094942
  0
ARC
  5
762
100
AcDbEntity
  8
ASSI
100
AcDbCircle
 62
7
  6
CONTINUOUS
 10
220.2392708288
 20
-142.6587087014
 40
288.2300492072
100
AcDbArc
 50
84.8465905058
 51
95.1534094942
  0
ARC
  5
763
100
AcDbEntity
  8
0
100
AcDbCircle
 62
7
  6
CONTINUOUS
 10
238.1876843842
 20
56.3539472925
 40
88.4096728815
100
AcDbArc
 50
81.5829367674
 51
84.8465905058
  0
ARC
  5
764
100
AcDbEntity
  8
ASSI
100
AcDbCircle
 62
7
  6
CONTINUOUS
 10
238.1876843842
 20
56.3539472925
 40
88.4096728815
100
AcDbArc
 50
81.5829367674
 51
84.8465905058
  0
ARC
  5
765
100
AcDbEntity
  8
0
100
AcDbCircle
 62
7
  6
CONTINUOUS
 10
236.087425789
 20
77.521520297
 40
61.9443374955
100
AcDbArc
 50
186.3501689291
 51
190.0890573078
  0
ARC
  5
766
100
AcDbEntity
  8
ASSI
100
AcDbCircle
 62
7
  6
CONTINUOUS
 10
236.087425789
 20
77.521520297
 40
61.9443374955
100
AcDbArc
 50
186.3501689291
 51
190.0890573078
  0
ARC
  5
767
100
AcDbEntity
  8
0
100
AcDbCircle
 62
7
  6
CONTINUOUS
 10
248.6404635501
 20
69.6482298366
 40
17.0
100
AcDbArc
 50
278.4170632326
 51
349.9109426922
  0
ARC
  5
768
100
AcDbEntity
  8
ASSI
100
AcDbCircle
 62
7
  6
CONTINUOUS
 10
248.6404635501
 20
69.6482298366
 40
17.0
100
AcDbArc
 50
278.4170632326
 51
349.9109426922
  0
ARC
  5
769
100
AcDbEntity
  8
0
100
AcDbCircle
 62
7
  6
CONTINUOUS
 10
220.2392708288
 20
339.3013897129
 40
288.2300492072
100
AcDbArc
 50
264.8465905058
 51
275.1534094942
  0
ARC
  5
76A
100
AcDbEntity
  8
ASSI
100
AcDbCircle
 62
7
  6
CONTINUOUS
 10
220.2392708288
 20
339.3013897129
 40
288.2300492072
100
AcDbArc
 50
264.8465905058
 51
275.1534094942
  0
ARC
  5
76B
100
AcDbEntity
  8
0
100
AcDbCircle
 62
7
  6
CONTINUOUS
 10
422.9892708288
 20
98.3213405057
 40
250.0
100
AcDbArc
 50
173.6498310709
 51
186.3501689291
  0
ARC
  5
76C
100
AcDbEntity
  8
ASSI
100
AcDbCircle
 62
7
  6
CONTINUOUS
 10
422.9892708288
 20
98.3213405057
 40
250.0
100
AcDbArc
 50
173.6498310709
 51
186.3501689291
  0
ARC
  5
76D
100
AcDbEntity
  8
0
100
AcDbCircle
 62
7
  6
CONTINUOUS
 10
238.1876843842
 20
140.2887337189
 40
88.4096728815
100
AcDbArc
 50
275.1534094942
 51
278.4170632326
  0
ARC
  5
76E
100
AcDbEntity
  8
ASSI
100
AcDbCircle
 62
7
  6
CONTINUOUS
 10
238.1876843842
 20
140.2887337189
 40
88.4096728815
100
AcDbArc
 50
275.1534094942
 51
278.4170632326
  0
ARC
  5
76F
100
AcDbEntity
  8
0
100
AcDbCircle
 62
7
  6
CONTINUOUS
 10
236.087425789
 20
119.1211607145
 40
61.9443374955
100
AcDbArc
 50
169.9109426922
 51
173.6498310709
  0
ARC
  5
770
100
AcDbEntity
  8
ASSI
100
AcDbCircle
 62
7
  6
CONTINUOUS
 10
236.087425789
 20
119.1211607145
 40
61.9443374955
100
AcDbArc
 50
169.9109426922
 51
173.6498310709
  0
ARC
  5
771
100
AcDbEntity
  8
0
100
AcDbCircle
 62
7
  6
CONTINUOUS
 10
248.6404635501
 20
126.9944511749
 40
17.0
100
AcDbArc
 50
10.0890573078
 51
81.5829367674
  0
ARC
  5
772
100
AcDbEntity
  8
ASSI
100
AcDbCircle
 62
7
  6
CONTINUOUS
 10
248.6404635501
 20
126.9944511749
 40
17.0
100
AcDbArc
 50
10.0890573078
 51
81.5829367674
  0
ARC
  5
773
100
AcDbEntity
  8
SUPERFICI
100
AcDbCircle
 62
7
  6
CONTINUOUS
 10
640.9427194029
 20
98.3213405057
 40
500.0
100
AcDbArc
 50
182.6712438073
 51
182.7168379444
  0
ARC
  5
774
100
AcDbEntity
  8
SUPERFICI
100
AcDbCircle
 62
7
  6
CONTINUOUS
 10
640.9427194029
 20
98.3213405057
 40
500.0
100
AcDbArc
 50
177.2831620556
 51
177.3287561927
  0
ARC
  5
775
100
AcDbEntity
  8
ASSI
100
AcDbCircle
 62
7
  6
CONTINUOUS
 10
640.9427194029
 20
98.3213405057
 40
500.0
100
AcDbArc
 50
182.6712438073
 51
182.7168379444
  0
ARC
  5
776
100
AcDbEntity
  8
ASSI
100
AcDbCircle
 62
7
  6
CONTINUOUS
 10
640.9427194029
 20
98.3213405057
 40
500.0
100
AcDbArc
 50
177.2831620556
 51
177.3287561927
  0
ARC
  5
777
100
AcDbEntity
  8
0
100
AcDbCircle
 62
7
  6
CONTINUOUS
 10
485.9474644815
 20
90.9662982689
 40
344.8303325568
100
AcDbArc
 50
182.7168379444
 51
186.5505513998
  0
ARC
  5
778
100
AcDbEntity
  8
SUPERFICI
100
AcDbCircle
 62
7
  6
CONTINUOUS
 10
485.9474644815
 20
105.6763827426
 40
344.8303325568
100
AcDbArc
 50
173.4494486002
 51
177.2831620556
  0
ARC
  5
779
100
AcDbEntity
  8
ASSI
100
AcDbCircle
 62
7
  6
CONTINUOUS
 10
485.9474644815
 20
90.9662982689
 40
344.8303325568
100
AcDbArc
 50
182.7168379444
 51
186.5505513998
  0
ARC
  5
77A
100
AcDbEntity
  8
ASSI
100
AcDbCircle
 62
7
  6
CONTINUOUS
 10
485.9474644815
 20
105.6763827426
 40
344.8303325568
100
AcDbArc
 50
173.4494486002
 51
177.2831620556
  0
ARC
  5
77B
100
AcDbEntity
  8
COPY_PUBLISH
100
AcDbCircle
 62
7
  6
CONTINUOUS
 10
485.9474644815
 20
105.6763827426
 40
341.8303325568
100
AcDbArc
 50
173.3821218541
 51
173.4664841819
  0
ARC
  5
77C
100
AcDbEntity
  8
COPY_PUBLISH
100
AcDbCircle
 62
7
  6
CONTINUOUS
 10
485.9474644815
 20
90.9662982689
 40
341.8303325568
100
AcDbArc
 50
186.5335158181
 51
186.6178781459
  0
ARC
  5
77D
100
AcDbEntity
  8
0
100
AcDbCircle
 62
7
  6
CONTINUOUS
 10
145.8444447902
 20
139.4377824934
 40
5.6603766781
100
AcDbArc
 50
50.6594347071
 51
84.4203729665
  0
ARC
  5
77E
100
AcDbEntity
  8
0
100
AcDbCircle
 62
7
  6
CONTINUOUS
 10
145.8444447902
 20
57.2048985181
 40
5.6603766781
100
AcDbArc
 50
275.5796270335
 51
309.3405652929
  0
ARC
  5
77F
100
AcDbEntity
  8
0
100
AcDbCircle
 62
7
  6
CONTINUOUS
 10
143.8650612292
 20
144.9575143933
 40
0.5
100
AcDbArc
 50
94.9999999999
 51
173.4494484608
  0
ARC
  5
780
100
AcDbEntity
  8
0
100
AcDbCircle
 62
7
  6
CONTINUOUS
 10
143.8650612292
 20
51.6851666181
 40
0.5
100
AcDbArc
 50
186.5505515392
 51
265.0000000001
  0
ARC
  5
781
100
AcDbEntity
  8
ASSI
100
AcDbCircle
 62
7
  6
CONTINUOUS
 10
143.8650612292
 20
144.9575143933
 40
0.5
100
AcDbArc
 50
94.9999999999
 51
173.4494484608
  0
ARC
  5
782
100
AcDbEntity
  8
ASSI
100
AcDbCircle
 62
7
  6
CONTINUOUS
 10
143.8650612292
 20
51.6851666181
 40
0.5
100
AcDbArc
 50
186.5505515392
 51
265.0000000001
  0
ARC
  5
783
100
AcDbEntity
  8
0
100
AcDbCircle
 62
7
  6
CONTINUOUS
 10
141.9355346756
 20
121.6029240655
 40
0.45
100
AcDbArc
 50
177.3287561749
 51
206.1081594452
  0
ARC
  5
784
100
AcDbEntity
  8
0
100
AcDbCircle
 62
7
  6
CONTINUOUS
 10
141.9355346756
 20
75.0397569459
 40
0.45
100
AcDbArc
 50
153.8918453308
 51
181.7008006232
  0
ARC
  5
785
100
AcDbEntity
  8
ASSI
100
AcDbCircle
 62
7
  6
CONTINUOUS
 10
141.9355346756
 20
121.6029240655
 40
0.45
100
AcDbArc
 50
177.3287561749
 51
206.1081594452
  0
ARC
  5
786
100
AcDbEntity
  8
ASSI
100
AcDbCircle
 62
7
  6
CONTINUOUS
 10
141.9355346756
 20
75.0397569459
 40
0.45
100
AcDbArc
 50
153.8918453308
 51
181.7008006232
  0
ARC
  5
787
100
AcDbEntity
  8
RACCORDO
100
AcDbCircle
 62
7
  6
CONTINUOUS
 10
147.6827194029
 20
95.0311154135
 40
0.25
100
AcDbArc
 50
180.0
 51
260.0
  0
ARC
  5
788
100
AcDbEntity
  8
RACCORDO
100
AcDbCircle
 62
7
  6
CONTINUOUS
 10
147.6827194029
 20
101.611565598
 40
0.25
100
AcDbArc
 50
100.0
 51
180.0
  0
ENDSEC
  0
SECTION
  2
OBJECTS
  0
DICTIONARY
  5
C
100
AcDbDictionary
280
0
281
1
  3
ACAD_GROUP
350
D
  3
ACAD_MLINESTYLE
350
17
  3
ACAD_LAYOUT
350
1A
  3
ACAD_PLOTSETTINGS
350
19
  3
ACAD_PLOTSTYLENAME
350
E
  0
DICTIONARY
  5
D
102
{ACAD_REACTORS
330
C
102
}
100
AcDbDictionary
280
0
281
1
  0
ACDBDICTIONARYWDFLT
  5
E
102
{ACAD_REACTORS
330
C
102
}
100
AcDbDictionary
281
1
  3
Normal
350
F
100
AcDbDictionaryWithDefault
340
F
  0
DICTIONARY
  5
17
102
{ACAD_REACTORS
330
C
102
}
100
AcDbDictionary
280
0
281
1
  3
Standard
350
18
  0
DICTIONARY
  5
19
102
{ACAD_REACTORS
330
C
102
}
100
AcDbDictionary
281
1
  0
DICTIONARY
  5
1A
102
{ACAD_REACTORS
330
C
102
}
100
AcDbDictionary
281
1
  3
Model
350
789
  3
Layout1
350
78A
  0
ACDBPLACEHOLDER
  5
F
102
{ACAD_REACTORS
330
E
102
}
  0
MLINESTYLE
  5
18
102
{ACAD_REACTORS
330
17
102
}
100
AcDbMlineStyle
  2
STANDARD
 70
0
  3

 62
256
 51
90.0
 52
90.0
 71
2
 49
0.5
 62
256
  6
BYLAYER
 49
-0.5
 62
256
  6
BYLAYER
  0
LAYOUT
  5
789
102
{ACAD_REACTORS
330
1A
102
}
100
AcDbPlotSettings
  1

  2
none_device
  4
ISO_A4_(297.00_x_210.00_MM)
  6

 40
0.0
 41
0.0
 42
0.0
 43
0.0
 44
297.0
 45
210.0
 46
0.0
 47
0.0
 48
0.0
 49
0.0
140
0.0
141
0.0
142
1.0
143
1.0
 70
1024
 72
1
 73
0
 74
0
  7

 75
0
147
1.0
148
0.0
149
0.0
100
AcDbLayout
  1
Model
 70
0
 71
0
 10
0.0
 20
0.0
 11
297.0
 21
210.0
 12
0.0
 22
0.0
 32
0.0
 14
0.0
 24
0.0
 34
0.0
 15
0.0
 25
0.0
 35
0.0
146
0.0
 13
0.0
 23
0.0
 33
0.0
 16
1.0
 26
0.0
 36
0.0
 17
0.0
 27
1.0
 37
0.0
 76
0
330
213
345
0
346
0
  0
LAYOUT
  5
78A
102
{ACAD_REACTORS
330
1A
102
}
100
AcDbPlotSettings
  1

  2
none_device
  4
ISO_A4_(297.00_x_210.00_MM)
  6

 40
0.0
 41
0.0
 42
0.0
 43
0.0
 44
297.0
 45
210.0
 46
0.0
 47
0.0
 48
0.0
 49
0.0
140
0.0
141
0.0
142
1.0
143
1.0
 70
0
 72
1
 73
0
 74
0
  7

 75
0
147
1.0
148
0.0
149
0.0
100
AcDbLayout
  1
Layout1
 70
0
 71
1
 10
0.0
 20
0.0
 11
297.0
 21
210.0
 12
0.0
 22
0.0
 32
0.0
 14
0.0
 24
0.0
 34
0.0
 15
0.0
 25
0.0
 35
0.0
146
0.0
 13
0.0
 23
0.0
 33
0.0
 16
1.0
 26
0.0
 36
0.0
 17
0.0
 27
1.0
 37
0.0
 76
0
330
214
345
0
346
0
  0
ENDSEC
  0
EOF
