  0
SECTION
  2
HEADER
  9
$ACADVER
  1
AC1021
  9
$DWGCODEPAGE
  3
ANSI_1252
  9
$EXTMAX
 10
297.0
 20
210.0
 30
0.0
  9
$EXTMIN
 10
0.0
 20
0.0
 30
0.0
  9
$LIMMIN
 10
0.0
 20
0.0
  9
$LIMMAX
 10
297.0
 20
210.0
  9
$VIEWCTR
 10
148.5
 20
105.0
  9
$VIEWSIZE
 40
210.0
  9
$CLAYER
  8
0
  9
$LTSCALE
 40
16.335
  9
$CELTYPE
  6
BYLAYER
  9
$DIMSCALE
 40
1.0
  9
$DIMASZ
 40
3.0
  9
$DIMEXO
 40
1.85625
  9
$DIMDLI
 40
11.286
  9
$DIMEXE
 40
5.346
  9
$DIMCEN
 40
2.673
  9
$DIMLFAC
 40
1.0
  9
$DIMBLK
  1
_FILLED
  9
$DIMTXT
 40
3.0
  9
$DIMTOL
 70
1
  9
$DIMLIM
 70
0
  9
$DIMTFAC
 40
1.0
  9
$DIMTP
 40
0.01
  9
$DIMTM
 40
0.01
  9
$PDMODE
 70
3
  9
$PDSIZE
 40
3.0
  9
$HANDSEED
  5
75F
  9
$TILEMODE
 70
1
  9
$MEASUREMENT
 70
1
  9
$INSUNITS
 70
4
  0
ENDSEC
  0
SECTION
  2
CLASSES
  0
CLASS
  1
ACDBDICTIONARYWDFLT
  2
AcDbDictionaryWithDefault
  3
AutoCAD 2000
 90
0
 91
1
280
0
281
0
  0
CLASS
  1
ACDBPLACEHOLDER
  2
AcDbPlaceHolder
  3
AutoCAD 2000
 90
0
 91
1
280
0
281
0
  0
CLASS
  1
LAYOUT
  2
AcDbLayout
  3
AutoCAD 2000
 90
0
 91
0
280
0
281
0
  0
ENDSEC
  0
SECTION
  2
TABLES
  0
TABLE
  2
VPORT
  5
8
100
AcDbSymbolTable
 70
2
  0
VPORT
  5
1F4
100
AcDbSymbolTableRecord
100
AcDbViewportTableRecord
  2
*ACTIVE
 70
0
 10
0.0
 20
0.0
 11
1.0
 21
1.0
 12
148.5
 22
105.0
 13
0.0
 23
0.0
 14
1.0
 24
1.0
 15
0.0
 25
0.0
 16
0.0
 26
0.0
 36
1.0
 17
0.0
 27
0.0
 37
0.0
 40
210.0
 41
1.4142857143
 42
50.0
 43
0.0
 44
0.0
 50
0.0
 51
0.0
 71
0
 72
100
 73
1
 74
1
 75
0
 76
0
 77
0
 78
0
  0
ENDTAB
  0
TABLE
  2
LTYPE
  5
5
100
AcDbSymbolTable
 70
6
  0
LTYPE
  5
14
100
AcDbSymbolTableRecord
100
AcDbLinetypeTableRecord
  2
BYBLOCK
 70
0
  3

 72
65
 73
0
 40
0.0
  0
LTYPE
  5
15
100
AcDbSymbolTableRecord
100
AcDbLinetypeTableRecord
  2
BYLAYER
 70
0
  3

 72
65
 73
0
 40
0.0
  0
LTYPE
  5
16
100
AcDbSymbolTableRecord
100
AcDbLinetypeTableRecord
  2
CONTINUOUS
 70
64
  3
Solid line
 72
65
 73
0
 40
0.0
  0
LTYPE
  5
1F5
100
AcDbSymbolTableRecord
100
AcDbLinetypeTableRecord
  2
CENTER
 70
64
  3
____ _ ____ _ ____ _ ____ _ ____ _ ____ _ ____
 72
65
 73
4
 40
0.6
 49
0.375
 74
0
 49
-0.075
 74
0
 49
0.075
 74
0
 49
-0.075
 74
0
  0
LTYPE
  5
1F6
100
AcDbSymbolTableRecord
100
AcDbLinetypeTableRecord
  2
HIDDEN
 70
64
  3
- - - - - - - - - - - - - - - - - - - -
 72
65
 73
2
 40
0.2
 49
0.1
 74
0
 49
-0.1
 74
0
  0
LTYPE
  5
1F7
100
AcDbSymbolTableRecord
100
AcDbLinetypeTableRecord
  2
PHANTOM
 70
64
  3
_____ _ _ _____ _ _ _____ _ _ _____
 72
65
 73
6
 40
0.8
 49
0.45
 74
0
 49
-0.05
 74
0
 49
0.1
 74
0
 49
-0.05
 74
0
 49
0.1
 74
0
 49
-0.05
 74
0
  0
LTYPE
  5
1F8
100
AcDbSymbolTableRecord
100
AcDbLinetypeTableRecord
  2
DOT
 70
64
  3
. . . . . . . . . . . . . . . . . . . .
 72
65
 73
2
 40
0.2
 49
0.1
 74
0
 49
-0.1
 74
0
  0
LTYPE
  5
1F9
100
AcDbSymbolTableRecord
100
AcDbLinetypeTableRecord
  2
DASHED
 70
64
  3
- - - - - - - - - - - - - - - - - - - -
 72
65
 73
2
 40
0.2
 49
0.1
 74
0
 49
-0.1
 74
0
  0
ENDTAB
  0
TABLE
  2
LAYER
  5
2
100
AcDbSymbolTable
 70
36
  0
LAYER
  5
10
100
AcDbSymbolTableRecord
100
AcDbLayerTableRecord
  2
0
 70
0
 62
7
  6
CONTINUOUS
370
-3
390
F
  0
LAYER
  5
1FA
100
AcDbSymbolTableRecord
100
AcDbLayerTableRecord
  2
DEFAULT_1
 70
0
 62
7
  6
CENTER
370
-3
390
F
  0
LAYER
  5
1FB
100
AcDbSymbolTableRecord
100
AcDbLayerTableRecord
  2
DEFAULT_2
 70
0
 62
7
  6
HIDDEN
370
-3
390
F
  0
LAYER
  5
1FC
100
AcDbSymbolTableRecord
100
AcDbLayerTableRecord
  2
DEFAULT_3
 70
0
 62
7
  6
PHANTOM
370
-3
390
F
  0
LAYER
  5
1FD
100
AcDbSymbolTableRecord
100
AcDbLayerTableRecord
  2
ASSI
 70
0
 62
7
  6
CONTINUOUS
370
-3
390
F
  0
LAYER
  5
1FE
100
AcDbSymbolTableRecord
100
AcDbLayerTableRecord
  2
COORDINATE
 70
0
 62
7
  6
CONTINUOUS
370
-3
390
F
  0
LAYER
  5
1FF
100
AcDbSymbolTableRecord
100
AcDbLayerTableRecord
  2
COPY_PUBLISH
 70
0
 62
7
  6
CONTINUOUS
370
-3
390
F
  0
LAYER
  5
200
100
AcDbSymbolTableRecord
100
AcDbLayerTableRecord
  2
COSMETIC
 70
0
 62
7
  6
CONTINUOUS
370
-3
390
F
  0
LAYER
  5
201
100
AcDbSymbolTableRecord
100
AcDbLayerTableRecord
  2
COSMETICI
 70
0
 62
7
  6
CONTINUOUS
370
-3
390
F
  0
LAYER
  5
202
100
AcDbSymbolTableRecord
100
AcDbLayerTableRecord
  2
CURVE
 70
0
 62
7
  6
CONTINUOUS
370
-3
390
F
  0
LAYER
  5
203
100
AcDbSymbolTableRecord
100
AcDbLayerTableRecord
  2
DRAFT
 70
0
 62
7
  6
CONTINUOUS
370
-3
390
F
  0
LAYER
  5
204
100
AcDbSymbolTableRecord
100
AcDbLayerTableRecord
  2
IMPORT_IGES
 70
0
 62
7
  6
CONTINUOUS
370
-3
390
F
  0
LAYER
  5
205
100
AcDbSymbolTableRecord
100
AcDbLayerTableRecord
  2
INTF_1
 70
0
 62
7
  6
CONTINUOUS
370
-3
390
F
  0
LAYER
  5
206
100
AcDbSymbolTableRecord
100
AcDbLayerTableRecord
  2
NOTE
 70
0
 62
7
  6
CONTINUOUS
370
-3
390
F
  0
LAYER
  5
207
100
AcDbSymbolTableRecord
100
AcDbLayerTableRecord
  2
PIANI
 70
0
 62
7
  6
CONTINUOUS
370
-3
390
F
  0
LAYER
  5
208
100
AcDbSymbolTableRecord
100
AcDbLayerTableRecord
  2
PUNTI
 70
0
 62
7
  6
CONTINUOUS
370
-3
390
F
  0
LAYER
  5
209
100
AcDbSymbolTableRecord
100
AcDbLayerTableRecord
  2
RACCORDO
 70
0
 62
7
  6
CONTINUOUS
370
-3
390
F
  0
LAYER
  5
20A
100
AcDbSymbolTableRecord
100
AcDbLayerTableRecord
  2
SIMBOLI
 70
0
 62
7
  6
CONTINUOUS
370
-3
390
F
  0
LAYER
  5
20B
100
AcDbSymbolTableRecord
100
AcDbLayerTableRecord
  2
SMUSSO
 70
0
 62
7
  6
CONTINUOUS
370
-3
390
F
  0
LAYER
  5
20C
100
AcDbSymbolTableRecord
100
AcDbLayerTableRecord
  2
SNAPLINE
 70
0
 62
7
  6
CONTINUOUS
370
-3
390
F
  0
LAYER
  5
20D
100
AcDbSymbolTableRecord
100
AcDbLayerTableRecord
  2
SUPERFICI
 70
0
 62
7
  6
CONTINUOUS
370
-3
390
F
  0
LAYER
  5
20E
100
AcDbSymbolTableRecord
100
AcDbLayerTableRecord
  2
TRASH
 70
0
 62
7
  6
CONTINUOUS
370
-3
390
F
  0
LAYER
  5
20F
100
AcDbSymbolTableRecord
100
AcDbLayerTableRecord
  2
XSEC_DATUMS
 70
0
 62
7
  6
CONTINUOUS
370
-3
390
F
  0
ENDTAB
  0
TABLE
  2
STYLE
  5
3
100
AcDbSymbolTable
 70
1
  0
STYLE
  5
11
100
AcDbSymbolTableRecord
100
AcDbTextStyleTableRecord
  2
STANDARD
 70
0
 40
0.0
 41
0.8
 50
0.0
 71
0
 42
0.2
  3
txt
  4

  0
STYLE
  5
210
100
AcDbSymbolTableRecord
100
AcDbTextStyleTableRecord
  2
TEXTSTYLE_1
 70
0
 40
0.0
 41
0.8
 50
0.0
 71
0
 42
0.2
  3
gdt
  4

  0
ENDTAB
  0
TABLE
  2
VIEW
  5
6
100
AcDbSymbolTable
 70
0
  0
ENDTAB
  0
TABLE
  2
UCS
  5
7
100
AcDbSymbolTable
 70
0
  0
ENDTAB
  0
TABLE
  2
APPID
  5
9
100
AcDbSymbolTable
 70
1
  0
APPID
  5
211
100
AcDbSymbolTableRecord
100
AcDbRegAppTableRecord
  2
ACAD
 70
0
  0
ENDTAB
  0
TABLE
  2
BLOCK_RECORD
  5
1
100
AcDbSymbolTable
 70
0
  0
BLOCK_RECORD
  5
212
100
AcDbSymbolTableRecord
100
AcDbBlockTableRecord
  2
*Model_Space
  0
BLOCK_RECORD
  5
213
100
AcDbSymbolTableRecord
100
AcDbBlockTableRecord
  2
*Paper_Space
  0
BLOCK_RECORD
  5
214
100
AcDbSymbolTableRecord
100
AcDbBlockTableRecord
  2
_FILLED
  0
BLOCK_RECORD
  5
215
100
AcDbSymbolTableRecord
100
AcDbBlockTableRecord
  2
*D0
  0
BLOCK_RECORD
  5
216
100
AcDbSymbolTableRecord
100
AcDbBlockTableRecord
  2
*D1
  0
BLOCK_RECORD
  5
217
100
AcDbSymbolTableRecord
100
AcDbBlockTableRecord
  2
*D2
  0
BLOCK_RECORD
  5
218
100
AcDbSymbolTableRecord
100
AcDbBlockTableRecord
  2
*D3
  0
BLOCK_RECORD
  5
219
100
AcDbSymbolTableRecord
100
AcDbBlockTableRecord
  2
*D4
  0
ENDTAB
  0
TABLE
  2
DIMSTYLE
  5
A
100
AcDbSymbolTable
 70
1
100
AcDbDimStyleTable
 71
0
  0
DIMSTYLE
105
21A
100
AcDbSymbolTableRecord
100
AcDbDimStyleTableRecord
  2
STANDARD
 70
0
  3

  4

 40
1.0
 41
3.0
 42
0.0625
 43
0.38
 44
0.18
 45
0.0
 46
0.0
 47
0.01
 48
0.01
140
3.0
141
0.09
142
0.0
143
25.4
144
1.0
145
0.0
146
1.0
147
0.09
 71
1.0
 72
0.0
 73
0
 74
0
 75
0
 76
0
 77
1
 78
8
170
0
171
2
172
0
173
0
174
0
175
0
176
0
177
0
178
0
270
2
271
2
272
2
273
2
274
2
275
0
280
0
281
0
282
0
283
1
284
8
285
0
286
0
287
3
288
0
340
11
341
214
342
214
343
214
344
214
  0
DIMSTYLE
105
21B
100
AcDbSymbolTableRecord
100
AcDbDimStyleTableRecord
  2
DIMSTYLE_1
 70
0
  3

  4

 40
1.0
 41
3.0
 42
0.0625
 43
0.38
 44
0.18
 45
0.0
 46
0.0
 47
0.0
 48
0.0
140
3.0
141
0.09
142
0.0
143
25.4
144
1.0
145
0.0
146
1.0
147
0.09
 71
0.0
 72
0.0
 73
0
 74
0
 75
0
 76
0
 77
1
 78
8
170
0
171
2
172
0
173
0
174
0
175
0
176
0
177
0
178
0
270
2
271
2
272
2
273
2
274
2
275
0
280
0
281
0
282
0
283
1
284
8
285
0
286
0
287
3
288
0
340
11
341
214
342
214
343
214
344
214
  0
DIMSTYLE
105
21C
100
AcDbSymbolTableRecord
100
AcDbDimStyleTableRecord
  2
DIMSTYLE_2
 70
0
  3

  4

 40
1.0
 41
3.0
 42
0.0625
 43
0.38
 44
0.18
 45
0.0
 46
0.0
 47
0.0
 48
0.0
140
3.0
141
0.09
142
0.0
143
25.4
144
1.0
145
0.0
146
1.0
147
0.09
 71
0.0
 72
0.0
 73
0
 74
0
 75
0
 76
0
 77
1
 78
8
170
0
171
2
172
0
173
0
174
0
175
0
176
0
177
0
178
0
270
2
271
1
272
1
273
2
274
2
275
0
280
0
281
0
282
0
283
1
284
8
285
0
286
0
287
3
288
0
340
11
341
214
342
214
343
214
344
214
  0
ENDTAB
  0
ENDSEC
  0
SECTION
  2
BLOCKS
  0
BLOCK
  5
20
100
AcDbEntity
  8
0
100
AcDbBlockBegin
  2
*Model_Space
 70
0
 10
0.0
 20
0.0
 30
0.0
  3
*Model_Space
  1

  0
ENDBLK
  5
21
100
AcDbEntity
  8
0
100
AcDbBlockEnd
  0
BLOCK
  5
1C
100
AcDbEntity
  8
0
100
AcDbBlockBegin
  2
*Paper_Space
 70
0
 10
0.0
 20
0.0
 30
0.0
  3
*Paper_Space
  1

  0
ENDBLK
  5
1D
100
AcDbEntity
  8
0
100
AcDbBlockEnd
  0
BLOCK
  5
21D
100
AcDbEntity
  8
0
100
AcDbBlockBegin
  2
_FILLED
 70
64
 10
0.0
 20
0.0
  3
_FILLED
  1

  0
SOLID
  5
21E
100
AcDbEntity
  8
0
  6
BYBLOCK
 62
0
100
AcDbTrace
 10
0.0
 20
0.0
 11
-1.0
 21
0.3166666667
 12
-1.0
 22
-0.3166666667
 13
-1.0
 23
-0.3166666667
  0
ENDBLK
  5
21F
100
AcDbEntity
  8
0
  6
BYBLOCK
 62
0
100
AcDbBlockEnd
  0
BLOCK
  5
220
100
AcDbEntity
  8
0
100
AcDbBlockBegin
 62
7
  6
CONTINUOUS
  2
*D0
 70
65
 10
0.0
 20
0.0
  3
*D0
  1

  0
MTEXT
  5
221
100
AcDbEntity
  8
0
100
AcDbMText
 62
7
  6
CONTINUOUS
  7
STANDARD
 71
2
 72
1
 10
0.4673212758
 20
72.4156128007
 30
0.0
 11
1.0
 21
0.0
 31
0.0
 44
0.9
  1
94,5
 40
3.0
 41
8.5714285714
  0
LINE
  5
222
100
AcDbEntity
  8
0
100
AcDbLine
 62
7
  6
CONTINUOUS
 10
47.7173187378
 20
-1.0843871993
 11
47.7173187378
 21
70.1656128007
  0
LINE
  5
223
100
AcDbEntity
  8
0
100
AcDbLine
 62
7
  6
CONTINUOUS
 10
-46.7826761863
 20
-1.0843871993
 11
-46.7826761863
 21
70.1656128007
  0
LINE
  5
224
100
AcDbEntity
  8
0
100
AcDbLine
 62
7
  6
CONTINUOUS
 10
47.7173187378
 20
68.6656128007
 11
0.4673212758
 21
68.6656128007
  0
LINE
  5
225
100
AcDbEntity
  8
0
100
AcDbLine
 62
7
  6
CONTINUOUS
 10
-46.7826761863
 20
68.6656128007
 11
0.4673212758
 21
68.6656128007
  0
INSERT
  5
226
100
AcDbEntity
  8
0
100
AcDbBlockReference
 62
7
  6
CONTINUOUS
  2
_FILLED
 10
47.7173187378
 20
68.6656128007
 41
3.0
 42
3.0
 43
3.0
  0
INSERT
  5
227
100
AcDbEntity
  8
0
100
AcDbBlockReference
 62
7
  6
CONTINUOUS
  2
_FILLED
 10
-46.7826761863
 20
68.6656128007
 41
3.0
 42
3.0
 43
3.0
 50
180.0
  0
ENDBLK
  5
228
100
AcDbEntity
  8
0
  6
BYBLOCK
 62
0
100
AcDbBlockEnd
  0
BLOCK
  5
229
100
AcDbEntity
  8
0
100
AcDbBlockBegin
 62
7
  6
CONTINUOUS
  2
*D1
 70
65
 10
0.0
 20
0.0
  3
*D1
  1

  0
MTEXT
  5
22A
100
AcDbEntity
  8
0
100
AcDbMText
 62
7
  6
CONTINUOUS
  7
STANDARD
 71
2
 72
1
 10
63.7826787242
 20
-1.5843871993
 30
0.0
 11
0.0
 21
1.0
 31
0.0
 44
0.9
  1
94,5
 40
3.0
 41
8.5714285714
  0
LINE
  5
22B
100
AcDbEntity
  8
0
100
AcDbLine
 62
7
  6
CONTINUOUS
 10
0.9673212758
 20
45.6656104003
 11
69.0326787242
 21
45.6656104003
  0
LINE
  5
22C
100
AcDbEntity
  8
0
100
AcDbLine
 62
7
  6
CONTINUOUS
 10
0.9673212758
 20
-48.8343847989
 11
69.0326787242
 21
-48.8343847989
  0
LINE
  5
22D
100
AcDbEntity
  8
0
100
AcDbLine
 62
7
  6
CONTINUOUS
 10
67.5326787242
 20
45.6656104003
 11
67.5326787242
 21
-1.5843871993
  0
LINE
  5
22E
100
AcDbEntity
  8
0
100
AcDbLine
 62
7
  6
CONTINUOUS
 10
67.5326787242
 20
-48.8343847989
 11
67.5326787242
 21
-1.5843871993
  0
INSERT
  5
22F
100
AcDbEntity
  8
0
100
AcDbBlockReference
 62
7
  6
CONTINUOUS
  2
_FILLED
 10
67.5326787242
 20
45.6656104003
 41
3.0
 42
3.0
 43
3.0
 50
90.0
  0
INSERT
  5
230
100
AcDbEntity
  8
0
100
AcDbBlockReference
 62
7
  6
CONTINUOUS
  2
_FILLED
 10
67.5326787242
 20
-48.8343847989
 41
3.0
 42
3.0
 43
3.0
 50
270.0
  0
ENDBLK
  5
231
100
AcDbEntity
  8
0
  6
BYBLOCK
 62
0
100
AcDbBlockEnd
  0
BLOCK
  5
232
100
AcDbEntity
  8
0
100
AcDbBlockBegin
 62
7
  6
CONTINUOUS
  2
*D2
 70
65
 10
0.0
 20
0.0
  3
*D2
  1

  0
MTEXT
  5
233
100
AcDbEntity
  8
0
100
AcDbMText
 62
7
  6
CONTINUOUS
  7
STANDARD
 71
2
 72
1
 10
53.7826787242
 20
-1.5843871993
 30
0.0
 11
0.0
 21
1.0
 31
0.0
 44
0.9
  1
45
 40
3.0
 41
4.5
  0
LINE
  5
234
100
AcDbEntity
  8
0
100
AcDbLine
 62
7
  6
CONTINUOUS
 10
11.5173185607
 20
20.9382038998
 11
59.0326787242
 21
20.9382038998
  0
LINE
  5
235
100
AcDbEntity
  8
0
100
AcDbLine
 62
7
  6
CONTINUOUS
 10
11.5173185607
 20
-24.1069782984
 11
59.0326787242
 21
-24.1069782984
  0
LINE
  5
236
100
AcDbEntity
  8
0
100
AcDbLine
 62
7
  6
CONTINUOUS
 10
57.5326787242
 20
20.9382038998
 11
57.5326787242
 21
-1.5843871993
  0
LINE
  5
237
100
AcDbEntity
  8
0
100
AcDbLine
 62
7
  6
CONTINUOUS
 10
57.5326787242
 20
-24.1069782984
 11
57.5326787242
 21
-1.5843871993
  0
INSERT
  5
238
100
AcDbEntity
  8
0
100
AcDbBlockReference
 62
7
  6
CONTINUOUS
  2
_FILLED
 10
57.5326787242
 20
20.9382038998
 41
3.0
 42
3.0
 43
3.0
 50
90.0
  0
INSERT
  5
239
100
AcDbEntity
  8
0
100
AcDbBlockReference
 62
7
  6
CONTINUOUS
  2
_FILLED
 10
57.5326787242
 20
-24.1069782984
 41
3.0
 42
3.0
 43
3.0
 50
270.0
  0
ENDBLK
  5
23A
100
AcDbEntity
  8
0
  6
BYBLOCK
 62
0
100
AcDbBlockEnd
  0
BLOCK
  5
23B
100
AcDbEntity
  8
0
100
AcDbBlockBegin
 62
7
  6
CONTINUOUS
  2
*D3
 70
65
 10
0.0
 20
0.0
  3
*D3
  1

  0
MTEXT
  5
23C
100
AcDbEntity
  8
0
100
AcDbMText
 62
7
  6
CONTINUOUS
  7
STANDARD
 71
2
 72
1
 10
0.4673212758
 20
62.4156128007
 30
0.0
 11
1.0
 21
0.0
 31
0.0
 44
0.9
  1
22,7
 40
3.0
 41
8.7857142857
  0
LINE
  5
23D
100
AcDbEntity
  8
0
100
AcDbLine
 62
7
  6
CONTINUOUS
 10
11.8372882481
 20
20.561165225
 11
11.8372882481
 21
60.1656128007
  0
LINE
  5
23E
100
AcDbEntity
  8
0
100
AcDbLine
 62
7
  6
CONTINUOUS
 10
-10.9026456966
 20
20.6156128007
 11
-10.9026456966
 21
60.1656128007
  0
LINE
  5
23F
100
AcDbEntity
  8
0
100
AcDbLine
 62
7
  6
CONTINUOUS
 10
11.8372882481
 20
58.6656128007
 11
0.4673212758
 21
58.6656128007
  0
LINE
  5
240
100
AcDbEntity
  8
0
100
AcDbLine
 62
7
  6
CONTINUOUS
 10
-10.9026456966
 20
58.6656128007
 11
0.4673212758
 21
58.6656128007
  0
INSERT
  5
241
100
AcDbEntity
  8
0
100
AcDbBlockReference
 62
7
  6
CONTINUOUS
  2
_FILLED
 10
11.8372882481
 20
58.6656128007
 41
3.0
 42
3.0
 43
3.0
  0
INSERT
  5
242
100
AcDbEntity
  8
0
100
AcDbBlockReference
 62
7
  6
CONTINUOUS
  2
_FILLED
 10
-10.9026456966
 20
58.6656128007
 41
3.0
 42
3.0
 43
3.0
 50
180.0
  0
ENDBLK
  5
243
100
AcDbEntity
  8
0
  6
BYBLOCK
 62
0
100
AcDbBlockEnd
  0
BLOCK
  5
244
100
AcDbEntity
  8
0
100
AcDbBlockBegin
 62
7
  6
CONTINUOUS
  2
*D4
 70
65
 10
0.0
 20
0.0
  3
*D4
  1

  0
MTEXT
  5
245
100
AcDbEntity
  8
0
100
AcDbMText
 62
7
  6
CONTINUOUS
  7
STANDARD
 71
3
 72
1
 10
-75.8856235286
 20
62.4156128007
 30
0.0
 11
1.0
 21
0.0
 31
0.0
 44
0.9
  1
9,1
 40
3.0
 41
5.7857142857
  0
LINE
  5
246
100
AcDbEntity
  8
0
100
AcDbLine
 62
7
  6
CONTINUOUS
 10
-62.7094032092
 20
43.4749423541
 11
-62.7094032092
 21
60.1656128007
  0
LINE
  5
247
100
AcDbEntity
  8
0
100
AcDbLine
 62
7
  6
CONTINUOUS
 10
-71.8529549591
 20
-1.0843869376
 11
-71.8529549591
 21
60.1656128007
  0
LINE
  5
248
100
AcDbEntity
  8
0
100
AcDbLine
 62
7
  6
CONTINUOUS
 10
-62.7094032092
 20
58.6656128007
 11
-58.7094032092
 21
58.6656128007
  0
LINE
  5
249
100
AcDbEntity
  8
0
100
AcDbLine
 62
7
  6
CONTINUOUS
 10
-58.7094032092
 20
58.6656128007
 11
-67.2811790842
 21
58.6656128007
  0
LINE
  5
24A
100
AcDbEntity
  8
0
100
AcDbLine
 62
7
  6
CONTINUOUS
 10
-71.8529549591
 20
58.6656128007
 11
-81.6713378143
 21
58.6656128007
  0
LINE
  5
24B
100
AcDbEntity
  8
0
100
AcDbLine
 62
7
  6
CONTINUOUS
 10
-81.6713378143
 20
58.6656128007
 11
-67.2811790842
 21
58.6656128007
  0
INSERT
  5
24C
100
AcDbEntity
  8
0
100
AcDbBlockReference
 62
7
  6
CONTINUOUS
  2
_FILLED
 10
-62.7094032092
 20
58.6656128007
 41
3.0
 42
3.0
 43
3.0
 50
180.0
  0
INSERT
  5
24D
100
AcDbEntity
  8
0
100
AcDbBlockReference
 62
7
  6
CONTINUOUS
  2
_FILLED
 10
-71.8529549591
 20
58.6656128007
 41
3.0
 42
3.0
 43
3.0
  0
ENDBLK
  5
24E
100
AcDbEntity
  8
0
  6
BYBLOCK
 62
0
100
AcDbBlockEnd
  0
ENDSEC
  0
SECTION
  2
ENTITIES
  0
DIMENSION
  5
24F
100
AcDbEntity
  8
0
100
AcDbDimension
 62
7
  6
CONTINUOUS
  2
*D0
 10
-46.7826761863
 20
68.6656128007
 11
-3.81839301
 21
70.9156128007
 70
160
 71
2
 42
94.4999949242
  3
DIMSTYLE_1
100
AcDbAlignedDimension
 13
47.7173187378
 23
-1.0843871993
 14
-46.7826761863
 24
-1.0843871993
 50
180.0
100
AcDbRotatedDimension
  0
DIMENSION
  5
250
100
AcDbEntity
  8
0
100
AcDbDimension
 62
7
  6
CONTINUOUS
  2
*D1
 10
67.5326787242
 20
-48.8343847989
 11
67.2029942219
 21
-5.4158014719
 70
160
 71
2
 42
94.4999951992
  3
DIMSTYLE_1
100
AcDbAlignedDimension
 13
0.9673212758
 23
45.6656104003
 14
0.9673212758
 24
-48.8343847989
 50
270.0
100
AcDbRotatedDimension
  0
DIMENSION
  5
251
100
AcDbEntity
  8
0
100
AcDbDimension
 62
7
  6
CONTINUOUS
  2
*D2
 10
57.5326787242
 20
-24.1069782984
 11
56.2908443605
 21
-3.5958796924
 70
160
 71
2
 42
45.0451821982
  3
DIMSTYLE_2
100
AcDbAlignedDimension
 13
11.5173185607
 23
20.9382038998
 14
11.5173185607
 24
-24.1069782984
 50
270.0
100
AcDbRotatedDimension
  0
DIMENSION
  5
252
100
AcDbEntity
  8
0
100
AcDbDimension
 62
7
  6
CONTINUOUS
  2
*D3
 10
-10.9026456966
 20
58.6656128007
 11
-3.9255358671
 21
60.9156128007
 70
160
 71
2
 42
22.7399339446
  3
DIMSTYLE_2
100
AcDbAlignedDimension
 13
11.8372882481
 23
20.561165225
 14
-10.9026456966
 24
20.6156128007
 50
180.0
100
AcDbRotatedDimension
  0
DIMENSION
  5
253
100
AcDbEntity
  8
0
100
AcDbDimension
 62
7
  6
CONTINUOUS
  2
*D4
 10
-71.8529549591
 20
58.6656128007
 11
-84.5641949572
 21
60.9156128007
 70
160
 71
3
 42
9.1435517499
  3
DIMSTYLE_2
100
AcDbAlignedDimension
 13
-62.7094032092
 23
43.4749423541
 14
-71.8529549591
 24
-1.0843869376
 50
180.0
100
AcDbRotatedDimension
  0
LWPOLYLINE
  5
254
100
AcDbEntity
  8
RACCORDO
100
AcDbPolyline
 62
253
  6
CONTINUOUS
 90
53
 70
0
 10
-40.3899532007
 20
-41.170578773
 10
-40.335936924
 20
-41.2320170748
 10
-40.2795416122
 20
-41.2955454588
 10
-40.220785672
 20
-41.3611039186
 10
-40.1589137871
 20
-41.4292646789
 10
-40.0938941772
 20
-41.5000960024
 10
-40.0257586509
 20
-41.5735292211
 10
-39.9538472851
 20
-41.6499310815
 10
-39.8780448182
 20
-41.7294578031
 10
-39.7984665657
 20
-41.8119526382
 10
-39.714798487
 20
-41.8973128455
 10
-39.6264793592
 20
-41.9860822641
 10
-39.5340704972
 20
-42.077716452
 10
-39.4389416782
 20
-42.170480416
 10
-39.3416194459
 20
-42.2638276944
 10
-39.2415773588
 20
-42.3583045319
 10
-39.1386057221
 20
-42.4538151772
 10
-39.0329893156
 20
-42.550133878
 10
-38.9244434822
 20
-42.6474861574
 10
-38.811904395
 20
-42.7464531204
 10
-38.6954009709
 20
-42.8470769736
 10
-38.574904464
 20
-42.9493151159
 10
-38.4492645929
 20
-43.0536213176
 10
-38.3185130576
 20
-43.1600564679
 10
-38.1826183961
 20
-43.2685591427
 10
-38.040335636
 20
-43.3793995456
 10
-37.8917000535
 20
-43.4926502054
 10
-37.7366766974
 20
-43.6082379436
 10
-37.5739153139
 20
-43.7262143494
 10
-37.4033115214
 20
-43.8467407973
 10
-37.2249701306
 20
-43.9696551865
 10
-37.0378547259
 20
-44.0945239349
 10
-36.8416486027
 20
-44.2216044201
 10
-36.6366689723
 20
-44.3506386038
 10
-36.42283028
 20
-44.4804200187
 10
-36.2007081937
 20
-44.6106983239
 10
-35.9697274869
 20
-44.741723597
 10
-35.7280762292
 20
-44.8730402537
 10
-35.4760525367
 20
-45.0046949027
 10
-35.2133587175
 20
-45.1366407794
 10
-34.9372890965
 20
-45.2682824067
 10
-34.6477221581
 20
-45.3999388951
 10
-34.3447797182
 20
-45.5312911403
 10
-34.0261209031
 20
-45.6607866921
 10
-33.6914756186
 20
-45.7887688405
 10
-33.3411137281
 20
-45.9148948001
 10
-32.9735037336
 20
-46.036583663
 10
-32.5895102782
 20
-46.1539567771
 10
-32.1882672629
 20
-46.2668940751
 10
-31.7656459787
 20
-46.3724533226
 10
-31.3202686544
 20
-46.469654584
 10
-30.8535091017
 20
-46.5594797559
 10
-30.3653650282
 20
-46.6419296757
  0
LWPOLYLINE
  5
255
100
AcDbEntity
  8
RACCORDO
100
AcDbPolyline
 62
253
  6
CONTINUOUS
 90
55
 70
0
 10
-40.6997216563
 20
-41.217849384
 10
-40.6487473278
 20
-41.2769413543
 10
-40.5961901381
 20
-41.3373022117
 10
-40.5412417289
 20
-41.3998005235
 10
-40.4838413292
 20
-41.4644280513
 10
-40.4240164261
 20
-41.5310720471
 10
-40.3610599097
 20
-41.6004250173
 10
-40.2948950791
 20
-41.6724703369
 10
-40.2255324177
 20
-41.7470951993
 10
-40.1523659209
 20
-41.8248367722
 10
-40.0752515538
 20
-41.9057154962
 10
-39.9942691577
 20
-41.9895105207
 10
-39.9091415668
 20
-42.0763639096
 10
-39.8192775467
 20
-42.1667105998
 10
-39.7252352678
 20
-42.259815093
 10
-39.628456432
 20
-42.3541198463
 10
-39.5294334169
 20
-42.4490610045
 10
-39.4276060188
 20
-42.5450912359
 10
-39.3228389277
 20
-42.642238659
 10
-39.2153663684
 20
-42.7401902138
 10
-39.1048749681
 20
-42.8391353552
 10
-38.9903887404
 20
-42.9398228312
 10
-38.8718480257
 20
-43.042156283
 10
-38.74918947
 20
-43.1460402616
 10
-38.6213947726
 20
-43.2521624551
 10
-38.4883713796
 20
-43.3603989143
 10
-38.350037491
 20
-43.4706116137
 10
-38.2053407527
 20
-43.5833950544
 10
-38.0541236119
 20
-43.6985897312
 10
-37.8962708468
 20
-43.8159932659
 10
-37.7307373296
 20
-43.9360614931
 10
-37.5571823255
 20
-44.0586815122
 10
-37.3755706287
 20
-44.1835085597
 10
-37.1852655242
 20
-44.310593815
 10
-36.9857392247
 20
-44.4398720245
 10
-36.7770592074
 20
-44.5708679402
 10
-36.5595130829
 20
-44.7029702234
 10
-36.3335519689
 20
-44.8354922797
 10
-36.0984326975
 20
-44.9684458477
 10
-35.8526377529
 20
-45.1021903812
 10
-35.5962636642
 20
-45.2361229077
 10
-35.3288617401
 20
-45.3699099785
 10
-35.048023342
 20
-45.5041006976
 10
-34.7534640913
 20
-45.6380849949
 10
-34.4451460808
 20
-45.771108927
 10
-34.1209638453
 20
-45.9032161848
 10
-33.7805642
 20
-46.0335710441
 10
-33.4240497787
 20
-46.1611302949
 10
-33.0499785474
 20
-46.2853641153
 10
-32.6592877364
 20
-46.4048677131
 10
-32.2510653539
 20
-46.5187880681
 10
-31.821069008
 20
-46.626921029
 10
-31.3678445001
 20
-46.7279736665
 10
-30.8928428212
 20
-46.8199168212
 10
-30.3961467816
 20
-46.9010302777
  0
LWPOLYLINE
  5
256
100
AcDbEntity
  8
RACCORDO
100
AcDbPolyline
 62
253
  6
CONTINUOUS
 90
3
 70
0
 10
-40.5402881663
 20
-40.9962074305
 10
-40.4917143472
 20
-41.0530413282
 10
-40.3899532007
 20
-41.170578773
  0
LINE
  5
257
100
AcDbEntity
  8
RACCORDO
100
AcDbLine
 62
253
  6
CONTINUOUS
 10
-40.7969451135
 20
-41.1036212223
 11
-40.6997216563
 21
-41.217849384
  0
LINE
  5
258
100
AcDbEntity
  8
RACCORDO
100
AcDbLine
 62
253
  6
CONTINUOUS
 10
-40.8902613268
 20
-40.9920609489
 11
-40.7969451135
 21
-41.1036212223
  0
LWPOLYLINE
  5
259
100
AcDbEntity
  8
RACCORDO
100
AcDbPolyline
 62
253
  6
CONTINUOUS
 90
3
 70
0
 10
-40.6790426461
 20
-40.83091578
 10
-40.6335406297
 20
-40.8855721921
 10
-40.5402881663
 20
-40.9962074305
  0
LINE
  5
25A
100
AcDbEntity
  8
RACCORDO
100
AcDbLine
 62
253
  6
CONTINUOUS
 10
-40.9809790455
 20
-40.8817380485
 11
-40.8902613268
 21
-40.9920609489
  0
LINE
  5
25B
100
AcDbEntity
  8
RACCORDO
100
AcDbLine
 62
253
  6
CONTINUOUS
 10
-40.7682126487
 20
-40.7223813555
 11
-40.6790426461
 21
-40.83091578
  0
LINE
  5
25C
100
AcDbEntity
  8
RACCORDO
100
AcDbLine
 62
253
  6
CONTINUOUS
 10
-41.0710984168
 20
-40.770238368
 11
-40.9809790455
 21
-40.8817380485
  0
LINE
  5
25D
100
AcDbEntity
  8
RACCORDO
100
AcDbLine
 62
253
  6
CONTINUOUS
 10
-40.8567536661
 20
-40.6127573253
 11
-40.7682126487
 21
-40.7223813555
  0
LWPOLYLINE
  5
25E
100
AcDbEntity
  8
RACCORDO
100
AcDbPolyline
 62
253
  6
CONTINUOUS
 90
5
 70
0
 10
-41.0742199904
 20
-40.3349941362
 10
-41.0312248925
 20
-40.3909121683
 10
-40.9879558292
 20
-40.4466755246
 10
-40.9444289605
 20
-40.5022673202
 10
-40.8567536661
 20
-40.6127573253
  0
LWPOLYLINE
  5
25F
100
AcDbEntity
  8
RACCORDO
100
AcDbPolyline
 62
253
  6
CONTINUOUS
 90
6
 70
0
 10
-41.3359853281
 20
-40.4306271562
 10
-41.2924597164
 20
-40.4877082513
 10
-41.2486911688
 20
-40.5445894086
 10
-41.2046485093
 20
-40.601310434
 10
-41.1603231616
 20
-40.6578820589
 10
-41.0710984168
 20
-40.770238368
  0
LINE
  5
260
100
AcDbEntity
  8
RACCORDO
100
AcDbLine
 62
253
  6
CONTINUOUS
 10
-41.1594425248
 20
-40.2226415469
 11
-41.0742199904
 21
-40.3349941362
  0
LINE
  5
261
100
AcDbEntity
  8
RACCORDO
100
AcDbLine
 62
253
  6
CONTINUOUS
 10
-41.4221204439
 20
-40.3161226293
 11
-41.3359853281
 21
-40.4306271562
  0
LINE
  5
262
100
AcDbEntity
  8
RACCORDO
100
AcDbLine
 62
253
  6
CONTINUOUS
 10
-41.2435002474
 20
-40.1098102479
 11
-41.1594425248
 21
-40.2226415469
  0
LINE
  5
263
100
AcDbEntity
  8
RACCORDO
100
AcDbLine
 62
253
  6
CONTINUOUS
 10
-41.5074070807
 20
-40.200689985
 11
-41.4221204439
 21
-40.3161226293
  0
LWPOLYLINE
  5
264
100
AcDbEntity
  8
RACCORDO
100
AcDbPolyline
 62
253
  6
CONTINUOUS
 90
3
 70
0
 10
-41.3689327997
 20
-39.9376511366
 10
-41.3271679571
 20
-39.9954795451
 10
-41.2435002474
 20
-40.1098102479
  0
LWPOLYLINE
  5
265
100
AcDbEntity
  8
RACCORDO
100
AcDbPolyline
 62
253
  6
CONTINUOUS
 90
14
 70
0
 10
-41.9976453309
 20
-38.997250683
 10
-41.9572999531
 20
-39.0619671956
 10
-41.9156295402
 20
-39.1281242981
 10
-41.8725318166
 20
-39.1958759555
 10
-41.8276951191
 20
-39.2655174447
 10
-41.7802583469
 20
-39.3383074033
 10
-41.7310825546
 20
-39.4129868535
 10
-41.6824393648
 20
-39.4860748825
 10
-41.6349034286
 20
-39.5566234876
 10
-41.587900178
 20
-39.6255809405
 10
-41.5419774661
 20
-39.6923110433
 10
-41.4974971273
 20
-39.7562996812
 10
-41.4540974061
 20
-39.8180612827
 10
-41.3689327997
 20
-39.9376511366
  0
LWPOLYLINE
  5
266
100
AcDbEntity
  8
RACCORDO
100
AcDbPolyline
 62
253
  6
CONTINUOUS
 90
17
 70
0
 10
-42.2717881616
 20
-39.0631942371
 10
-42.2321580892
 20
-39.1273825347
 10
-42.1911139962
 20
-39.1931894438
 10
-42.1487113002
 20
-39.2604699937
 10
-42.1048142106
 20
-39.3293821533
 10
-42.0592026286
 20
-39.4002057004
 10
-42.0109890465
 20
-39.4742248944
 10
-41.9609333081
 20
-39.5501767268
 10
-41.911367631
 20
-39.6245112268
 10
-41.8629879199
 20
-39.6962522897
 10
-41.8151884474
 20
-39.7663634645
 10
-41.7684437257
 20
-39.8342064657
 10
-41.7231631004
 20
-39.8992607517
 10
-41.6790326406
 20
-39.9620479932
 10
-41.6354351409
 20
-40.0234936448
 10
-41.5923723929
 20
-40.0836277957
 10
-41.5074070807
 20
-40.200689985
  0
LINE
  5
267
100
AcDbEntity
  8
RACCORDO
100
AcDbLine
 62
253
  6
CONTINUOUS
 10
-42.3465917708
 20
-38.9402607769
 11
-42.2717881616
 21
-39.0631942371
  0
LWPOLYLINE
  5
268
100
AcDbEntity
  8
RACCORDO
100
AcDbPolyline
 62
253
  6
CONTINUOUS
 90
4
 70
0
 10
-42.1447328685
 20
-38.7554263074
 10
-42.1101071755
 20
-38.813216637
 10
-42.0740591206
 20
-38.8727688668
 10
-41.9976453309
 20
-38.997250683
  0
LINE
  5
269
100
AcDbEntity
  8
RACCORDO
100
AcDbLine
 62
253
  6
CONTINUOUS
 10
-42.4156883618
 20
-38.8245940859
 11
-42.3465917708
 21
-38.9402607769
  0
LINE
  5
26A
100
AcDbEntity
  8
RACCORDO
100
AcDbLine
 62
253
  6
CONTINUOUS
 10
-42.4791381866
 20
-38.7165403786
 11
-42.4156883618
 21
-38.8245940859
  0
LWPOLYLINE
  5
26B
100
AcDbEntity
  8
RACCORDO
100
AcDbPolyline
 62
253
  6
CONTINUOUS
 90
3
 70
0
 10
-42.5662000601
 20
-38.5652213273
 10
-42.5381761499
 20
-38.6143299326
 10
-42.4791381866
 20
-38.7165403786
  0
LWPOLYLINE
  5
26C
100
AcDbEntity
  8
RACCORDO
100
AcDbPolyline
 62
253
  6
CONTINUOUS
 90
32
 70
0
 10
-43.1596456214
 20
33.5904114002
 10
-43.1897931149
 20
33.5191018332
 10
-43.2204490088
 20
33.4456133792
 10
-43.2516083684
 20
33.3699391128
 10
-43.2832656503
 20
33.2918117082
 10
-43.3154798368
 20
33.2110829412
 10
-43.3481917528
 20
33.1279006894
 10
-43.3812186068
 20
33.0424417677
 10
-43.4145113921
 20
32.9548366784
 10
-43.4481189149
 20
32.8649545899
 10
-43.4820050907
 20
32.7725803073
 10
-43.5161530319
 20
32.6777946668
 10
-43.550579379
 20
32.5805164448
 10
-43.5852982971
 20
32.4802872946
 10
-43.6203272287
 20
32.3771131596
 10
-43.6556484031
 20
32.2709875987
 10
-43.6912231033
 20
32.1614335975
 10
-43.7270767862
 20
32.0484529409
 10
-43.7631835644
 20
31.9320432209
 10
-43.7994276274
 20
31.8117210312
 10
-43.8358257066
 20
31.6875202728
 10
-43.8723605109
 20
31.5594062802
 10
-43.9088650926
 20
31.4267926728
 10
-43.9453548646
 20
31.2897117274
 10
-43.9818136754
 20
31.1481302175
 10
-44.0180270918
 20
31.0013633474
 10
-44.0540214667
 20
30.8494221933
 10
-44.0897694663
 20
30.6922944938
 10
-44.124975948
 20
30.5292602544
 10
-44.1595420622
 20
30.3600789491
 10
-44.1935653445
 20
30.184989623
 10
-44.2270451049
 20
30.0039915228
  0
LWPOLYLINE
  5
26D
100
AcDbEntity
  8
RACCORDO
100
AcDbPolyline
 62
253
  6
CONTINUOUS
 90
34
 70
0
 10
-43.3548745848
 20
33.8213862397
 10
-43.384556825
 20
33.7530448524
 10
-43.4147207459
 20
33.6827156924
 10
-43.445427686
 20
33.6101792174
 10
-43.4766482482
 20
33.5354209988
 10
-43.5083546012
 20
33.4584199953
 10
-43.540603321
 20
33.3789423392
 10
-43.5734132507
 20
33.2968329612
 10
-43.6066926302
 20
33.2122141103
 10
-43.6403283195
 20
33.125278339
 10
-43.6742216105
 20
33.0361919679
 10
-43.7083908313
 20
32.9448156281
 10
-43.7428936811
 20
32.8508897712
 10
-43.7776446674
 20
32.7545334036
 10
-43.8126266309
 20
32.6556764889
 10
-43.847980372
 20
32.5537799691
 10
-43.8836256327
 20
32.4489119354
 10
-43.9194995782
 20
32.3410869693
 10
-43.9557380707
 20
32.2296958854
 10
-43.9922308789
 20
32.114845388
 10
-44.0288893678
 20
31.9965697383
 10
-44.0658389086
 20
31.8741737259
 10
-44.1029351361
 20
31.7477966316
 10
-44.1400427147
 20
31.6175378564
 10
-44.1772595099
 20
31.4826441219
 10
-44.2144494784
 20
31.3431716181
 10
-44.251479113
 20
31.1991711093
 10
-44.288421098
 20
31.0498448407
 10
-44.3251130645
 20
30.8952654058
 10
-44.3614025001
 20
30.7354697705
 10
-44.3973218519
 20
30.5696257869
 10
-44.4327488022
 20
30.3974981453
 10
-44.4674414829
 20
30.2194339269
 10
-44.501229669
 20
30.0354785515
  0
LWPOLYLINE
  5
26E
100
AcDbEntity
  8
RACCORDO
100
AcDbPolyline
 62
253
  6
CONTINUOUS
 90
3
 70
0
 10
-43.0721467548
 20
33.7920923347
 10
-43.1008524143
 20
33.7267208623
 10
-43.1596456214
 20
33.5904114002
  0
LINE
  5
26F
100
AcDbEntity
  8
RACCORDO
100
AcDbLine
 62
253
  6
CONTINUOUS
 10
-43.296938274
 20
33.9524131872
 11
-43.3548745848
 21
33.8213862397
  0
LINE
  5
270
100
AcDbEntity
  8
RACCORDO
100
AcDbLine
 62
253
  6
CONTINUOUS
 10
-43.0163631861
 20
33.9168934438
 11
-43.0721467548
 21
33.7920923347
  0
LINE
  5
271
100
AcDbEntity
  8
RACCORDO
100
AcDbLine
 62
253
  6
CONTINUOUS
 10
-43.2414812304
 20
34.0750445132
 11
-43.296938274
 21
33.9524131872
  0
LINE
  5
272
100
AcDbEntity
  8
RACCORDO
100
AcDbLine
 62
253
  6
CONTINUOUS
 10
-42.9632213816
 20
34.0332485498
 11
-43.0163631861
 21
33.9168934438
  0
LINE
  5
273
100
AcDbEntity
  8
RACCORDO
100
AcDbLine
 62
253
  6
CONTINUOUS
 10
-43.1887070473
 20
34.1893509323
 11
-43.2414812304
 21
34.0750445132
  0
LINE
  5
274
100
AcDbEntity
  8
RACCORDO
100
AcDbLine
 62
253
  6
CONTINUOUS
 10
-42.9127699641
 20
34.1416062436
 11
-42.9632213816
 21
34.0332485498
  0
LINE
  5
275
100
AcDbEntity
  8
RACCORDO
100
AcDbLine
 62
253
  6
CONTINUOUS
 10
-43.1387943598
 20
34.295435607
 11
-43.1887070473
 21
34.1893509323
  0
LINE
  5
276
100
AcDbEntity
  8
RACCORDO
100
AcDbLine
 62
253
  6
CONTINUOUS
 10
-42.8647316464
 20
34.2428594847
 11
-42.9127699641
 21
34.1416062436
  0
LINE
  5
277
100
AcDbEntity
  8
RACCORDO
100
AcDbLine
 62
253
  6
CONTINUOUS
 10
-43.0906553033
 20
34.3959948144
 11
-43.1387943598
 21
34.295435607
  0
LINE
  5
278
100
AcDbEntity
  8
RACCORDO
100
AcDbLine
 62
253
  6
CONTINUOUS
 10
-42.8181566343
 20
34.3394405035
 11
-42.8647316464
 21
34.2428594847
  0
LINE
  5
279
100
AcDbEntity
  8
RACCORDO
100
AcDbLine
 62
253
  6
CONTINUOUS
 10
-43.0436988738
 20
34.4925056783
 11
-43.0906553033
 21
34.3959948144
  0
LINE
  5
27A
100
AcDbEntity
  8
RACCORDO
100
AcDbLine
 62
253
  6
CONTINUOUS
 10
-42.7720466472
 20
34.4335499515
 11
-42.8181566343
 21
34.3394405035
  0
LINE
  5
27B
100
AcDbEntity
  8
RACCORDO
100
AcDbLine
 62
253
  6
CONTINUOUS
 10
-42.9968603908
 20
34.5872886995
 11
-43.0436988738
 21
34.4925056783
  0
LINE
  5
27C
100
AcDbEntity
  8
RACCORDO
100
AcDbLine
 62
253
  6
CONTINUOUS
 10
-42.7258426528
 20
34.5263986974
 11
-42.7720466472
 21
34.4335499515
  0
LINE
  5
27D
100
AcDbEntity
  8
RACCORDO
100
AcDbLine
 62
253
  6
CONTINUOUS
 10
-42.9493673646
 20
34.6819383021
 11
-42.9968603908
 21
34.5872886995
  0
LINE
  5
27E
100
AcDbEntity
  8
RACCORDO
100
AcDbLine
 62
253
  6
CONTINUOUS
 10
-42.6786711776
 20
34.6197683897
 11
-42.7258426528
 21
34.5263986974
  0
LINE
  5
27F
100
AcDbEntity
  8
RACCORDO
100
AcDbLine
 62
253
  6
CONTINUOUS
 10
-42.9010028734
 20
34.7768650237
 11
-42.9493673646
 21
34.6819383021
  0
LINE
  5
280
100
AcDbEntity
  8
RACCORDO
100
AcDbLine
 62
253
  6
CONTINUOUS
 10
-42.6307662737
 20
34.7131470176
 11
-42.6786711776
 21
34.6197683897
  0
LINE
  5
281
100
AcDbEntity
  8
RACCORDO
100
AcDbLine
 62
253
  6
CONTINUOUS
 10
-42.851893034
 20
34.8717892667
 11
-42.9010028734
 21
34.7768650237
  0
LINE
  5
282
100
AcDbEntity
  8
RACCORDO
100
AcDbLine
 62
253
  6
CONTINUOUS
 10
-42.5821981016
 20
34.8063804261
 11
-42.6307662737
 21
34.7131470176
  0
LINE
  5
283
100
AcDbEntity
  8
RACCORDO
100
AcDbLine
 62
253
  6
CONTINUOUS
 10
-42.8022183323
 20
34.9663372649
 11
-42.851893034
 21
34.8717892667
  0
LINE
  5
284
100
AcDbEntity
  8
RACCORDO
100
AcDbLine
 62
253
  6
CONTINUOUS
 10
-42.5331525713
 20
34.8990840525
 11
-42.5821981016
 21
34.8063804261
  0
LINE
  5
285
100
AcDbEntity
  8
RACCORDO
100
AcDbLine
 62
253
  6
CONTINUOUS
 10
-42.7520294131
 20
35.0603950848
 11
-42.8022183323
 21
34.9663372649
  0
LINE
  5
286
100
AcDbEntity
  8
RACCORDO
100
AcDbLine
 62
253
  6
CONTINUOUS
 10
-42.4836420762
 20
34.991229471
 11
-42.5331525713
 21
34.8990840525
  0
LINE
  5
287
100
AcDbEntity
  8
RACCORDO
100
AcDbLine
 62
253
  6
CONTINUOUS
 10
-42.7014041786
 20
35.1538107421
 11
-42.7520294131
 21
35.0603950848
  0
LINE
  5
288
100
AcDbEntity
  8
RACCORDO
100
AcDbLine
 62
253
  6
CONTINUOUS
 10
-42.4334953822
 20
35.083116267
 11
-42.4836420762
 21
34.991229471
  0
LINE
  5
289
100
AcDbEntity
  8
RACCORDO
100
AcDbLine
 62
253
  6
CONTINUOUS
 10
-42.6498134288
 20
35.2475433596
 11
-42.7014041786
 21
35.1538107421
  0
LINE
  5
28A
100
AcDbEntity
  8
RACCORDO
100
AcDbLine
 62
253
  6
CONTINUOUS
 10
-42.3823015076
 20
35.17549582
 11
-42.4334953822
 21
35.083116267
  0
LINE
  5
28B
100
AcDbEntity
  8
RACCORDO
100
AcDbLine
 62
253
  6
CONTINUOUS
 10
-42.5966784549
 20
35.3425890136
 11
-42.6498134288
 21
35.2475433596
  0
LINE
  5
28C
100
AcDbEntity
  8
RACCORDO
100
AcDbLine
 62
253
  6
CONTINUOUS
 10
-42.3287482524
 20
35.2706002117
 11
-42.3823015076
 21
35.17549582
  0
LINE
  5
28D
100
AcDbEntity
  8
RACCORDO
100
AcDbLine
 62
253
  6
CONTINUOUS
 10
-42.5407506606
 20
35.4410602002
 11
-42.5966784549
 21
35.3425890136
  0
LINE
  5
28E
100
AcDbEntity
  8
RACCORDO
100
AcDbLine
 62
253
  6
CONTINUOUS
 10
-42.2720143844
 20
35.3697613681
 11
-42.3287482524
 21
35.2706002117
  0
LINE
  5
28F
100
AcDbEntity
  8
RACCORDO
100
AcDbLine
 62
253
  6
CONTINUOUS
 10
-42.4807470126
 20
35.5450024863
 11
-42.5407506606
 21
35.4410602002
  0
LINE
  5
290
100
AcDbEntity
  8
RACCORDO
100
AcDbLine
 62
253
  6
CONTINUOUS
 10
-42.2107936531
 20
35.4750441456
 11
-42.2720143844
 21
35.3697613681
  0
LINE
  5
291
100
AcDbEntity
  8
RACCORDO
100
AcDbLine
 62
253
  6
CONTINUOUS
 10
-42.4157538752
 20
35.6557090388
 11
-42.4807470126
 21
35.5450024863
  0
LWPOLYLINE
  5
292
100
AcDbEntity
  8
RACCORDO
100
AcDbPolyline
 62
253
  6
CONTINUOUS
 90
3
 70
0
 10
-42.1079588091
 20
35.648022819
 10
-42.1437910024
 20
35.5882332858
 10
-42.2107936531
 20
35.4750441456
  0
LWPOLYLINE
  5
293
100
AcDbEntity
  8
RACCORDO
100
AcDbPolyline
 62
253
  6
CONTINUOUS
 90
75
 70
0
 10
31.3307979443
 20
-46.9010290034
 10
31.8400508125
 20
-46.8176666179
 10
32.3268334777
 20
-46.7228782726
 10
32.7910539872
 20
-46.6184869477
 10
33.2312027856
 20
-46.5066390032
 10
33.6487769604
 20
-46.3887144439
 10
34.0481746669
 20
-46.2649404223
 10
34.4303573431
 20
-46.1362139854
 10
34.7943398095
 20
-46.004021395
 10
35.1415782612
 20
-45.8689464291
 10
35.4719132376
 20
-45.7321239839
 10
35.7857822943
 20
-45.5944117522
 10
36.0855130778
 20
-45.4556979725
 10
36.3711751043
 20
-45.3167553098
 10
36.6430455819
 20
-45.1782306689
 10
36.9036912738
 20
-45.0395076846
 10
37.1537081083
 20
-44.900852706
 10
37.3928638279
 20
-44.7629598661
 10
37.6223994579
 20
-44.6256398524
 10
37.8429985442
 20
-44.488944369
 10
38.0543025368
 20
-44.3535430965
 10
38.256015973
 20
-44.2200835623
 10
38.4479987973
 20
-44.0891262408
 10
38.6309018486
 20
-43.9606834631
 10
38.8056349559
 20
-43.834528029
 10
38.972284811
 20
-43.7109819736
 10
39.1311485962
 20
-43.5901994192
 10
39.2833911406
 20
-43.4716273946
 10
39.4291299609
 20
-43.3554714276
 10
39.5685169208
 20
-43.2418925754
 10
39.7027057552
 20
-43.1301857897
 10
39.8317793784
 20
-43.0204859962
 10
39.9558268099
 20
-42.9129194659
 10
40.0759634788
 20
-42.8066916663
 10
40.1923280657
 20
-42.7018229026
 10
40.3048988655
 20
-42.5984748583
 10
40.4145138293
 20
-42.4960014532
 10
40.5211110297
 20
-42.3945662245
 10
40.624835313
 20
-42.2941367007
 10
40.7268004406
 20
-42.1937099209
 10
40.8262999432
 20
-42.0940489239
 10
40.9240170443
 20
-41.9945384389
 10
41.0230701162
 20
-41.8919721454
 10
41.1252271365
 20
-41.7843519258
 10
41.2284242234
 20
-41.673675609
 10
41.3300263276
 20
-41.562712052
 10
41.4292492842
 20
-41.452358204
 10
41.5267016697
 20
-41.3420222458
 10
41.6219237726
 20
-41.2323210978
 10
41.714516477
 20
-41.1238244701
 10
41.8046681865
 20
-41.0164159816
 10
41.8927950592
 20
-40.9096752778
 10
41.9789627957
 20
-40.8035732188
 10
42.0629746576
 20
-40.6983974288
 10
42.1449335533
 20
-40.5940722833
 10
42.2251162617
 20
-40.490300373
 10
42.3035890254
 20
-40.3870538588
 10
42.3801675667
 20
-40.2846504444
 10
42.4552107508
 20
-40.1826928164
 10
42.5286863495
 20
-40.081304064
 10
42.5997698564
 20
-39.9817083684
 10
42.6685310461
 20
-39.8839099359
 10
42.7349769967
 20
-39.7879983118
 10
42.7982217526
 20
-39.6953802506
 10
42.8579767117
 20
-39.6066430558
 10
42.9146901631
 20
-39.5212798187
 10
42.968611628
 20
-39.4390520918
 10
43.0197876363
 20
-39.3600199223
 10
43.0683497164
 20
-39.2841081946
 10
43.1146659716
 20
-39.2108555167
 10
43.1588539313
 20
-39.1401766498
 10
43.2009265124
 20
-39.0721478351
 10
43.2410739483
 20
-39.0065524337
 10
43.2793256645
 20
-38.9434267865
 10
43.3505728449
 20
-38.8241854684
  0
LWPOLYLINE
  5
294
100
AcDbEntity
  8
DRAFT
100
AcDbPolyline
 62
7
  6
CONTINUOUS
 90
106
 70
0
 10
-30.4222911744
 20
-47.0743872128
 10
-30.9174687012
 20
-46.9910915879
 10
-31.3921977604
 20
-46.9000055959
 10
-31.8464807548
 20
-46.8011283137
 10
-32.2796215319
 20
-46.6932944596
 10
-32.6923204271
 20
-46.5776671309
 10
-33.0866735461
 20
-46.4577383867
 10
-33.4624037364
 20
-46.3339546963
 10
-33.8197896297
 20
-46.2058683258
 10
-34.1617598537
 20
-46.0756308787
 10
-34.4884519249
 20
-45.9434994197
 10
-34.7997286066
 20
-45.8092162483
 10
-35.0981058612
 20
-45.6741614048
 10
-35.3836293637
 20
-45.5385644821
 10
-35.6562531792
 20
-45.4021957133
 10
-35.9183556509
 20
-45.2657464537
 10
-36.1700310339
 20
-45.1293673989
 10
-36.4111846378
 20
-44.9929079086
 10
-36.6439113543
 20
-44.8566074933
 10
-36.8689673686
 20
-44.7201072776
 10
-37.0855960613
 20
-44.5837662155
 10
-37.2936230808
 20
-44.4489008221
 10
-37.4928332555
 20
-44.3156651762
 10
-37.6834412131
 20
-44.1839057603
 10
-37.8659172574
 20
-44.0544780437
 10
-38.0401042404
 20
-43.9275447486
 10
-38.206158803
 20
-43.8029439437
 10
-38.3650219573
 20
-43.6810442951
 10
-38.5164516569
 20
-43.5621405611
 10
-38.6606895365
 20
-43.4459388306
 10
-38.799402197
 20
-43.3319247321
 10
-38.9325183384
 20
-43.220286641
 10
-39.0601089749
 20
-43.1108368164
 10
-39.1840542577
 20
-43.0024964913
 10
-39.3044051854
 20
-42.8953376936
 10
-39.4211105714
 20
-42.7892887119
 10
-39.5358973512
 20
-42.6830548682
 10
-39.6489733095
 20
-42.5765345775
 10
-39.7601305296
 20
-42.4698294019
 10
-39.8704724299
 20
-42.3619491046
 10
-39.9803768209
 20
-42.2525629603
 10
-40.0894657727
 20
-42.1420014086
 10
-40.1977091002
 20
-42.0302658378
 10
-40.3051887938
 20
-41.9172695578
 10
-40.4118227251
 20
-41.8030989902
 10
-40.5173345258
 20
-41.688015223
 10
-40.6217550039
 20
-41.5719328292
 10
-40.7250531972
 20
-41.4549370328
 10
-40.8268600817
 20
-41.3375449988
 10
-40.9268108637
 20
-41.2202228384
 10
-41.0252701876
 20
-41.1025044195
 10
-41.122963182
 20
-40.9835084962
 10
-41.2194741332
 20
-40.8638930999
 10
-41.315218586
 20
-40.7429999678
 10
-41.4121684998
 20
-40.6179729234
 10
-41.5103334325
 20
-40.4890057501
 10
-41.6097035259
 20
-40.3559036067
 10
-41.7122214669
 20
-40.2152264955
 10
-41.8197409117
 20
-40.0644024048
 10
-41.9304075604
 20
-39.9060008237
 10
-42.0406021333
 20
-39.7442941496
 10
-42.1510266146
 20
-39.5775778385
 10
-42.2609784274
 20
-39.4075552231
 10
-42.3647319021
 20
-39.2436128469
 10
-42.4597169965
 20
-39.0895557321
 10
-42.5485040402
 20
-38.9415813477
 10
-42.6330782546
 20
-38.79766616
 10
-42.7133939315
 20
-38.6582022655
 10
-42.7894969255
 20
-38.5227988336
 10
-42.8635096419
 20
-38.3882571677
 10
-42.935780858
 20
-38.2541145413
 10
-43.0059617009
 20
-38.1208339305
 10
-43.0751279127
 20
-37.9866045182
 10
-43.1436923131
 20
-37.8507290487
 10
-43.2112418282
 20
-37.7139045292
 10
-43.2776132956
 20
-37.5764113369
 10
-43.342798657
 20
-37.4382721283
 10
-43.406805754
 20
-37.2994641382
 10
-43.4694952954
 20
-37.1601996776
 10
-43.5308123328
 20
-37.0205733246
 10
-43.5908116152
 20
-36.8804904577
 10
-43.6495184016
 20
-36.7398796071
 10
-43.7069297508
 20
-36.5987208469
 10
-43.7630483887
 20
-36.4570340339
 10
-43.8179080697
 20
-36.3148073621
 10
-43.8715210517
 20
-36.1720019555
 10
-43.9238748579
 20
-36.0286566193
 10
-43.9749661493
 20
-35.8848760825
 10
-44.0247996747
 20
-35.7406760505
 10
-44.0733704827
 20
-35.5960407821
 10
-44.1206606951
 20
-35.4510278574
 10
-44.1666791425
 20
-35.3056443247
 10
-44.211416798
 20
-35.1598831168
 10
-44.2548290022
 20
-35.0137806527
 10
-44.2969095906
 20
-34.8673445148
 10
-44.3376645325
 20
-34.7205671138
 10
-44.37706737
 20
-34.5734621175
 10
-44.415108429
 20
-34.4260270424
 10
-44.4517971873
 20
-34.2782643703
 10
-44.4871359166
 20
-34.1301952218
 10
-44.5211187362
 20
-33.9818211329
 10
-44.5537513344
 20
-33.8331405739
 10
-44.5850533417
 20
-33.6841700727
 10
-44.6150312398
 20
-33.5349151437
 10
-44.6436783599
 20
-33.3853702856
 10
-44.6709946081
 20
-33.2355355052
  0
LINE
  5
295
100
AcDbEntity
  8
RACCORDO
100
AcDbLine
 62
253
  6
CONTINUOUS
 10
-42.2098703677
 20
-38.6453870219
 11
-42.1447328685
 21
-38.7554263074
  0
LINE
  5
296
100
AcDbEntity
  8
RACCORDO
100
AcDbLine
 62
253
  6
CONTINUOUS
 10
-42.2698994838
 20
-38.5422015036
 11
-42.2098703677
 21
-38.6453870219
  0
LINE
  5
297
100
AcDbEntity
  8
RACCORDO
100
AcDbLine
 62
253
  6
CONTINUOUS
 10
-42.3259264858
 20
-38.4443449647
 11
-42.2698994838
 21
-38.5422015036
  0
LINE
  5
298
100
AcDbEntity
  8
RACCORDO
100
AcDbLine
 62
253
  6
CONTINUOUS
 10
-42.6203659868
 20
-38.4691755333
 11
-42.5662000601
 21
-38.5652213273
  0
LINE
  5
299
100
AcDbEntity
  8
RACCORDO
100
AcDbLine
 62
253
  6
CONTINUOUS
 10
-42.3791352244
 20
-38.3499339205
 11
-42.3259264858
 21
-38.4443449647
  0
LINE
  5
29A
100
AcDbEntity
  8
RACCORDO
100
AcDbLine
 62
253
  6
CONTINUOUS
 10
-42.6724279715
 20
-38.375409476
 11
-42.6203659868
 21
-38.4691755333
  0
LINE
  5
29B
100
AcDbEntity
  8
RACCORDO
100
AcDbLine
 62
253
  6
CONTINUOUS
 10
-42.430256936
 20
-38.2577762077
 11
-42.3791352244
 21
-38.3499339205
  0
LINE
  5
29C
100
AcDbEntity
  8
RACCORDO
100
AcDbLine
 62
253
  6
CONTINUOUS
 10
-42.7235514957
 20
-38.2818958818
 11
-42.6724279715
 21
-38.375409476
  0
LINE
  5
29D
100
AcDbEntity
  8
RACCORDO
100
AcDbLine
 62
253
  6
CONTINUOUS
 10
-42.4804627792
 20
-38.1658717064
 11
-42.430256936
 21
-38.2577762077
  0
LINE
  5
29E
100
AcDbEntity
  8
RACCORDO
100
AcDbLine
 62
253
  6
CONTINUOUS
 10
-42.7740723831
 20
-38.1880390059
 11
-42.7235514957
 21
-38.2818958818
  0
LINE
  5
29F
100
AcDbEntity
  8
RACCORDO
100
AcDbLine
 62
253
  6
CONTINUOUS
 10
-42.530091537
 20
-38.0735964137
 11
-42.4804627792
 21
-38.1658717064
  0
LINE
  5
2A0
100
AcDbEntity
  8
RACCORDO
100
AcDbLine
 62
253
  6
CONTINUOUS
 10
-42.8241446293
 20
-38.0935585476
 11
-42.7740723831
 21
-38.1880390059
  0
LINE
  5
2A1
100
AcDbEntity
  8
RACCORDO
100
AcDbLine
 62
253
  6
CONTINUOUS
 10
-42.5792773765
 20
-37.9807158277
 11
-42.530091537
 21
-38.0735964137
  0
LINE
  5
2A2
100
AcDbEntity
  8
RACCORDO
100
AcDbLine
 62
253
  6
CONTINUOUS
 10
-42.8736935181
 20
-37.9986055015
 11
-42.8241446293
 21
-38.0935585476
  0
LINE
  5
2A3
100
AcDbEntity
  8
RACCORDO
100
AcDbLine
 62
253
  6
CONTINUOUS
 10
-42.6279739423
 20
-37.8873205278
 11
-42.5792773765
 21
-37.9807158277
  0
LINE
  5
2A4
100
AcDbEntity
  8
RACCORDO
100
AcDbLine
 62
253
  6
CONTINUOUS
 10
-42.9225598855
 20
-37.9035078571
 11
-42.8736935181
 21
-37.9986055015
  0
LINE
  5
2A5
100
AcDbEntity
  8
RACCORDO
100
AcDbLine
 62
253
  6
CONTINUOUS
 10
-42.6759971711
 20
-37.7937932069
 11
-42.6279739423
 21
-37.8873205278
  0
LINE
  5
2A6
100
AcDbEntity
  8
RACCORDO
100
AcDbLine
 62
253
  6
CONTINUOUS
 10
-42.9706523349
 20
-37.8084718403
 11
-42.9225598855
 21
-37.9035078571
  0
LINE
  5
2A7
100
AcDbEntity
  8
RACCORDO
100
AcDbLine
 62
253
  6
CONTINUOUS
 10
-42.7232784451
 20
-37.7002853749
 11
-42.6759971711
 21
-37.7937932069
  0
LINE
  5
2A8
100
AcDbEntity
  8
RACCORDO
100
AcDbLine
 62
253
  6
CONTINUOUS
 10
-43.0177576852
 20
-37.7139545431
 11
-42.9706523349
 21
-37.8084718403
  0
LINE
  5
2A9
100
AcDbEntity
  8
RACCORDO
100
AcDbLine
 62
253
  6
CONTINUOUS
 10
-42.769593882
 20
-37.6072896044
 11
-42.7232784451
 21
-37.7002853749
  0
LINE
  5
2AA
100
AcDbEntity
  8
RACCORDO
100
AcDbLine
 62
253
  6
CONTINUOUS
 10
-43.0647830828
 20
-37.6181332635
 11
-43.0177576852
 21
-37.7139545431
  0
LINE
  5
2AB
100
AcDbEntity
  8
RACCORDO
100
AcDbLine
 62
253
  6
CONTINUOUS
 10
-42.8158203525
 20
-37.5130184637
 11
-42.769593882
 21
-37.6072896044
  0
LINE
  5
2AC
100
AcDbEntity
  8
RACCORDO
100
AcDbLine
 62
253
  6
CONTINUOUS
 10
-43.1122883857
 20
-37.5197864958
 11
-43.0647830828
 21
-37.6181332635
  0
LINE
  5
2AD
100
AcDbEntity
  8
RACCORDO
100
AcDbLine
 62
253
  6
CONTINUOUS
 10
-42.8625184961
 20
-37.4162584493
 11
-42.8158203525
 21
-37.5130184637
  0
LINE
  5
2AE
100
AcDbEntity
  8
RACCORDO
100
AcDbLine
 62
253
  6
CONTINUOUS
 10
-43.1612860163
 20
-37.416641756
 11
-43.1122883857
 21
-37.5197864958
  0
LINE
  5
2AF
100
AcDbEntity
  8
RACCORDO
100
AcDbLine
 62
253
  6
CONTINUOUS
 10
-42.9106887819
 20
-37.3148051175
 11
-42.8625184961
 21
-37.4162584493
  0
LINE
  5
2B0
100
AcDbEntity
  8
RACCORDO
100
AcDbLine
 62
253
  6
CONTINUOUS
 10
-43.2127905163
 20
-37.306242767
 11
-43.1612860163
 21
-37.416641756
  0
LINE
  5
2B1
100
AcDbEntity
  8
RACCORDO
100
AcDbLine
 62
253
  6
CONTINUOUS
 10
-42.9612705039
 20
-37.2062496771
 11
-42.9106887819
 21
-37.3148051175
  0
LINE
  5
2B2
100
AcDbEntity
  8
RACCORDO
100
AcDbLine
 62
253
  6
CONTINUOUS
 10
-43.2670091661
 20
-37.1876979551
 11
-43.2127905163
 21
-37.306242767
  0
LINE
  5
2B3
100
AcDbEntity
  8
RACCORDO
100
AcDbLine
 62
253
  6
CONTINUOUS
 10
-43.0145431959
 20
-37.089693478
 11
-42.9612705039
 21
-37.2062496771
  0
LWPOLYLINE
  5
2B4
100
AcDbEntity
  8
RACCORDO
100
AcDbPolyline
 62
253
  6
CONTINUOUS
 90
3
 70
0
 10
-43.0992635037
 20
-36.8991329542
 10
-43.0704805792
 20
-36.9646358797
 10
-43.0145431959
 20
-37.089693478
  0
LINE
  5
2B5
100
AcDbEntity
  8
DRAFT
100
AcDbLine
 62
7
  6
CONTINUOUS
 10
-45.2985061508
 20
-28.7851834811
 11
-45.3954611269
 21
-27.88428123
  0
LINE
  5
2B6
100
AcDbEntity
  8
RACCORDO
100
AcDbLine
 62
253
  6
CONTINUOUS
 10
-45.2652335003
 20
-27.4757717098
 11
-45.1257215318
 21
-28.7807866911
  0
LINE
  5
2B7
100
AcDbEntity
  8
RACCORDO
100
AcDbLine
 62
253
  6
CONTINUOUS
 10
-44.9882398593
 20
-27.4600253094
 11
-44.8488485318
 21
-28.7647290783
  0
LINE
  5
2B8
100
AcDbEntity
  8
DRAFT
100
AcDbLine
 62
7
  6
CONTINUOUS
 10
-45.3954611269
 20
-27.88428123
 11
-45.4891408916
 21
-26.9831201013
  0
LINE
  5
2B9
100
AcDbEntity
  8
RACCORDO
100
AcDbLine
 62
253
  6
CONTINUOUS
 10
-45.3978638212
 20
-26.1702334256
 11
-45.2652335003
 21
-27.4757717098
  0
LINE
  5
2BA
100
AcDbEntity
  8
RACCORDO
100
AcDbLine
 62
253
  6
CONTINUOUS
 10
-45.1207553266
 20
-26.154799808
 11
-44.9882398593
 21
-27.4600253094
  0
LINE
  5
2BB
100
AcDbEntity
  8
DRAFT
100
AcDbLine
 62
7
  6
CONTINUOUS
 10
-45.4891408916
 20
-26.9831201013
 11
-45.5795449162
 21
-26.0817244906
  0
LINE
  5
2BC
100
AcDbEntity
  8
DRAFT
100
AcDbLine
 62
7
  6
CONTINUOUS
 10
-45.5795449162
 20
-26.0817244906
 11
-45.6666717766
 21
-25.1801071993
  0
LINE
  5
2BD
100
AcDbEntity
  8
RACCORDO
100
AcDbLine
 62
253
  6
CONTINUOUS
 10
-45.4953709266
 20
-25.1638668343
 11
-45.3978638212
 21
-26.1702334256
  0
LINE
  5
2BE
100
AcDbEntity
  8
RACCORDO
100
AcDbLine
 62
253
  6
CONTINUOUS
 10
-45.2181775375
 20
-25.1487336028
 11
-45.1207553266
 21
-26.154799808
  0
LWPOLYLINE
  5
2BF
100
AcDbEntity
  8
DRAFT
100
AcDbPolyline
 62
7
  6
CONTINUOUS
 90
16
 70
0
 10
-45.6666717766
 20
-25.1801071993
 10
-45.9443507835
 20
-22.0398151848
 10
-46.1824307075
 20
-18.8973171496
 10
-46.380871526
 20
-15.752737506
 10
-46.5396257316
 20
-12.6057387162
 10
-46.6586794067
 20
-9.4569081077
 10
-46.7380542694
 20
-6.3077584241
 10
-46.7777520206
 20
-3.1588760124
 10
-46.7777522176
 20
-0.0099266302
 10
-46.7380547735
 20
3.1389573503
 10
-46.6586800758
 20
6.2881107507
 10
-46.5396264743
 20
9.4369466433
 10
-46.3808722391
 20
12.5839505453
 10
-46.1824312849
 20
15.7285345492
 10
-45.9443511231
 20
18.8710367719
 10
-45.6666717766
 20
22.0113328007
  0
LWPOLYLINE
  5
2C0
100
AcDbEntity
  8
RACCORDO
100
AcDbPolyline
 62
253
  6
CONTINUOUS
 90
16
 70
0
 10
-45.4953709266
 20
21.9950924357
 10
-45.7728522358
 20
18.8587665599
 10
-46.0107707846
 20
15.719275786
 10
-46.2090916922
 20
12.5771438148
 10
-46.367778008
 20
9.4329999952
 10
-46.4868199116
 20
6.2871636195
 10
-46.5662093783
 20
3.1396930549
 10
-46.6059220815
 20
-0.0094525091
 10
-46.6059219059
 20
-3.1593497672
 10
-46.5662088768
 20
-6.3084939807
 10
-46.4868191719
 20
-9.4559614818
 10
-46.3677771665
 20
-12.6017934475
 10
-46.2090908745
 20
-15.7459326046
 10
-46.0107701008
 20
-18.888060026
 10
-45.7728518214
 20
-22.0275460018
 10
-45.4953709266
 20
-25.1638668343
  0
LWPOLYLINE
  5
2C1
100
AcDbEntity
  8
RACCORDO
100
AcDbPolyline
 62
253
  6
CONTINUOUS
 90
16
 70
0
 10
-45.2181775375
 20
21.9799592042
 10
-45.4954174355
 20
18.8450350592
 10
-45.7331374455
 20
15.7076968923
 10
-45.9312977466
 20
12.5680672572
 10
-46.0898633606
 20
9.426067523
 10
-46.2088082295
 20
6.2820225977
 10
-46.2881160943
 20
3.1366611637
 10
-46.3277748119
 20
-0.0103615941
 10
-46.3277745477
 20
-3.1584521088
 10
-46.2881153753
 20
-6.3054735399
 10
-46.208807124
 20
-9.4508324021
 10
-46.0898619458
 20
-12.5948734298
 10
-45.931296269
 20
-15.7368676974
 10
-45.7331362096
 20
-18.876490217
 10
-45.4954166915
 20
-22.0138197026
 10
-45.2181775375
 20
-25.1487336028
  0
LINE
  5
2C2
100
AcDbEntity
  8
DRAFT
100
AcDbLine
 62
7
  6
CONTINUOUS
 10
-45.6666717766
 20
22.0113328007
 11
-45.5795449353
 21
22.9129499011
  0
LINE
  5
2C3
100
AcDbEntity
  8
RACCORDO
100
AcDbLine
 62
253
  6
CONTINUOUS
 10
-45.3978637981
 20
23.0014592611
 11
-45.4953709266
 21
21.9950924357
  0
LINE
  5
2C4
100
AcDbEntity
  8
RACCORDO
100
AcDbLine
 62
253
  6
CONTINUOUS
 10
-45.1207553098
 20
22.9860255778
 11
-45.2181775375
 21
21.9799592042
  0
LINE
  5
2C5
100
AcDbEntity
  8
DRAFT
100
AcDbLine
 62
7
  6
CONTINUOUS
 10
-45.5795449353
 20
22.9129499011
 11
-45.4891409097
 21
23.8143455229
  0
LINE
  5
2C6
100
AcDbEntity
  8
RACCORDO
100
AcDbLine
 62
253
  6
CONTINUOUS
 10
-45.2652334686
 20
24.3069976158
 11
-45.3978637981
 21
23.0014592611
  0
LINE
  5
2C7
100
AcDbEntity
  8
RACCORDO
100
AcDbLine
 62
253
  6
CONTINUOUS
 10
-44.9882398447
 20
24.2912510506
 11
-45.1207553098
 21
22.9860255778
  0
LINE
  5
2C8
100
AcDbEntity
  8
DRAFT
100
AcDbLine
 62
7
  6
CONTINUOUS
 10
-45.4891409097
 20
23.8143455229
 11
-45.39546113
 21
24.7155068018
  0
LWPOLYLINE
  5
2C9
100
AcDbEntity
  8
DRAFT
100
AcDbPolyline
 62
7
  6
CONTINUOUS
 90
3
 70
0
 10
-45.39546113
 20
24.7155068018
 10
-45.29850615
 20
25.6164090904
 10
-45.2488011354
 20
26.0667613114
  0
LWPOLYLINE
  5
2CA
100
AcDbEntity
  8
RACCORDO
100
AcDbPolyline
 62
253
  6
CONTINUOUS
 90
3
 70
0
 10
-44.8008575504
 20
26.0307330062
 10
-44.8488485286
 20
25.5959547074
 10
-44.9882398447
 20
24.2912510506
  0
LWPOLYLINE
  5
2CB
100
AcDbEntity
  8
RACCORDO
100
AcDbPolyline
 62
253
  6
CONTINUOUS
 90
3
 70
0
 10
-45.0776886335
 20
26.0468927671
 10
-45.1257215312
 20
25.6120122979
 10
-45.2652334686
 20
24.3069976158
  0
LWPOLYLINE
  5
2CC
100
AcDbEntity
  8
DRAFT
100
AcDbPolyline
 62
7
  6
CONTINUOUS
 90
10
 70
0
 10
-45.2488011354
 20
26.0667613114
 10
-45.1975275067
 20
26.5128019142
 10
-45.143019335
 20
26.9584627919
 10
-45.0852772441
 20
27.4037429596
 10
-45.0243002065
 20
27.8486641634
 10
-44.9600905397
 20
28.2932026969
 10
-44.8926539279
 20
28.7372894255
 10
-44.8219927499
 20
29.1809006876
 10
-44.7481060573
 20
29.6240582703
 10
-44.6709945853
 20
30.0667612429
  0
LWPOLYLINE
  5
2CD
100
AcDbEntity
  8
RACCORDO
100
AcDbPolyline
 62
253
  6
CONTINUOUS
 90
10
 70
0
 10
-44.2270451049
 20
30.0039915228
 10
-44.3036199499
 20
29.5642567737
 10
-44.3769932286
 20
29.1240682442
 10
-44.447164226
 20
28.6834268309
 10
-44.5141339763
 20
28.2423106961
 10
-44.5779000547
 20
27.8007434831
 10
-44.6384565981
 20
27.3587943397
 10
-44.6958012409
 20
26.9164869531
 10
-44.7499350939
 20
26.4737995255
 10
-44.8008575504
 20
26.0307330062
  0
LWPOLYLINE
  5
2CE
100
AcDbEntity
  8
RACCORDO
100
AcDbPolyline
 62
253
  6
CONTINUOUS
 90
10
 70
0
 10
-44.5012296445
 20
30.035478547
 10
-44.5781496506
 20
29.5941039017
 10
-44.6518589373
 20
29.1522232352
 10
-44.7223544485
 20
28.7098604421
 10
-44.789633685
 20
28.2670361916
 10
-44.8536938208
 20
27.8237750348
 10
-44.9145314938
 20
27.3801067082
 10
-44.9721443118
 20
26.9360558211
 10
-45.0265306846
 20
26.4916431659
 10
-45.0776886376
 20
26.0468927676
  0
LWPOLYLINE
  5
2CF
100
AcDbEntity
  8
DRAFT
100
AcDbPolyline
 62
7
  6
CONTINUOUS
 90
94
 70
0
 10
-44.6709945853
 20
30.0667612429
 10
-44.6439933362
 20
30.2149138808
 10
-44.615685136
 20
30.3628074681
 10
-44.5860700732
 20
30.5104419951
 10
-44.555152619
 20
30.6578333197
 10
-44.5229284785
 20
30.8049655646
 10
-44.4893845959
 20
30.9517911243
 10
-44.4545151548
 20
31.0983087099
 10
-44.418326159
 20
31.244519606
 10
-44.3808222917
 20
31.3903800788
 10
-44.3419955758
 20
31.5358821631
 10
-44.3018541833
 20
31.6810338335
 10
-44.2604270255
 20
31.8258152742
 10
-44.2177113354
 20
31.9702219318
 10
-44.1737100747
 20
32.1142583765
 10
-44.1284607464
 20
32.257918481
 10
-44.0819731937
 20
32.4012081117
 10
-44.0342377639
 20
32.5441214225
 10
-43.9852627161
 20
32.6866347219
 10
-43.9350536563
 20
32.8287644627
 10
-43.8836051702
 20
32.9704942202
 10
-43.8309089941
 20
33.1117509998
 10
-43.776972138
 20
33.252515932
 10
-43.7217877955
 20
33.3928079388
 10
-43.665326985
 20
33.5326107259
 10
-43.607581441
 20
33.6719135563
 10
-43.5485596345
 20
33.8107272259
 10
-43.488257689
 20
33.9490677396
 10
-43.4266392124
 20
34.0869902753
 10
-43.3637407945
 20
34.2244397071
 10
-43.2996680373
 20
34.3612666018
 10
-43.2344168648
 20
34.4974829334
 10
-43.167991561
 20
34.6330768255
 10
-43.1005102802
 20
34.767863114
 10
-43.032270688
 20
34.9013533289
 10
-42.96297535
 20
35.0340361324
 10
-42.8918497252
 20
35.1671919178
 10
-42.8191818532
 20
35.3004134401
 10
-42.7446838159
 20
35.4341077957
 10
-42.6667169924
 20
35.5707763877
 10
-42.5853522078
 20
35.7105429886
 10
-42.5005185725
 20
35.853282923
 10
-42.4103647482
 20
36.00112426
 10
-42.3147955776
 20
36.1544611001
 10
-42.2139060563
 20
36.3128976498
 10
-42.1061300297
 20
36.4773766226
 10
-41.9908457261
 20
36.6488727758
 10
-41.8686748118
 20
36.8264090127
 10
-41.7399164272
 20
37.0080004043
 10
-41.6045946827
 20
37.1935604647
 10
-41.4626857051
 20
37.3831739598
 10
-41.3144168916
 20
37.5751135135
 10
-41.1600548561
 20
37.7689470368
 10
-40.9993335021
 20
37.9651055281
 10
-40.8316813241
 20
38.1631566656
 10
-40.6574928738
 20
38.3628172696
 10
-40.4763742775
 20
38.564369532
 10
-40.2865715213
 20
38.7682291726
 10
-40.0875100953
 20
38.9750534967
 10
-39.8797654004
 20
39.1841838118
 10
-39.6633084291
 20
39.3940620974
 10
-39.4367664563
 20
39.6056861329
 10
-39.2015133041
 20
39.8180573767
 10
-38.9616397585
 20
40.0266248091
 10
-38.7177606652
 20
40.2304611936
 10
-38.4692619787
 20
40.4304955284
 10
-38.2183909252
 20
40.6249626719
 10
-37.9661378605
 20
40.813051651
 10
-37.7115128024
 20
40.9955759251
 10
-37.4537923529
 20
41.1732072392
 10
-37.192856919
 20
41.3460979113
 10
-36.9288263055
 20
41.5140975468
 10
-36.6613361998
 20
41.6774236031
 10
-36.3901366826
 20
41.836258423
 10
-36.1154776825
 20
41.9904213899
 10
-35.8377445922
 20
42.1395855133
 10
-35.5569775863
 20
42.2837099089
 10
-35.2731362033
 20
42.4228372198
 10
-34.9864847818
 20
42.5567658096
 10
-34.6969923329
 20
42.6855032691
 10
-34.4046892852
 20
42.8090436791
 10
-34.109932008
 20
42.9271651687
 10
-33.8127118658
 20
43.0398541997
 10
-33.5130366534
 20
43.1471258751
 10
-33.2112872901
 20
43.2488012968
 10
-32.9074123601
 20
43.3448834292
 10
-32.6014621759
 20
43.4353707148
 10
-32.2939701658
 20
43.5200774656
 10
-31.9849424788
 20
43.598978271
 10
-31.6743716171
 20
43.6720997628
 10
-31.3627704729
 20
43.739334288
 10
-31.050309495
 20
43.8006462958
 10
-30.7368166908
 20
43.8560723256
 10
-30.4222912435
 20
43.9056128047
  0
LWPOLYLINE
  5
2D0
100
AcDbEntity
  8
RACCORDO
100
AcDbPolyline
 62
253
  6
CONTINUOUS
 90
73
 70
0
 10
31.3000075793
 20
-46.6419296758
 10
31.8005247738
 20
-46.5571006018
 10
32.2788741857
 20
-46.4645084815
 10
32.7350582632
 20
-46.3641524065
 10
33.1676534177
 20
-46.2549885749
 10
33.5780874514
 20
-46.1380586556
 10
33.9706388647
 20
-46.0164903018
 10
34.346214283
 20
-45.8904082546
 10
34.7039085916
 20
-45.7596863876
 10
35.045281502
 20
-45.6270769303
 10
35.3699914783
 20
-45.4929746806
 10
35.6783802502
 20
-45.3569843181
 10
35.9730318386
 20
-45.2206736038
 10
36.2538476518
 20
-45.0843748693
 10
36.5209259341
 20
-44.9477557772
 10
36.7771457683
 20
-44.8113874448
 10
37.0229448778
 20
-44.6752412133
 10
37.2578850797
 20
-44.5393458855
 10
37.4835315615
 20
-44.4043589739
 10
37.7003673476
 20
-44.2700731374
 10
37.9079089153
 20
-44.13669605
 10
38.1062715901
 20
-44.0055080533
 10
38.2950482315
 20
-43.876842275
 10
38.4746454262
 20
-43.7503663507
 10
38.6463990924
 20
-43.6263626167
 10
38.8102657555
 20
-43.5049693707
 10
38.9662884438
 20
-43.3860490847
 10
39.1159328937
 20
-43.269470365
 10
39.2592396033
 20
-43.1553153887
 10
39.396167742
 20
-43.0435026497
 10
39.5280611199
 20
-42.933655149
 10
39.6549529114
 20
-42.8258360855
 10
39.7768097017
 20
-42.7199827874
 10
39.8948754726
 20
-42.6155293241
 10
40.0092564264
 20
-42.512448652
 10
40.1198461889
 20
-42.4107681695
 10
40.2275699176
 20
-42.3100034803
 10
40.3323625639
 20
-42.210279394
 10
40.4342890451
 20
-42.1114713413
 10
40.5344694953
 20
-42.0127207054
 10
40.6323086516
 20
-41.9147601677
 10
40.728401673
 20
-41.8168571366
 10
40.8256543474
 20
-41.7159546582
 10
40.9259687667
 20
-41.6100757596
 10
41.0274427421
 20
-41.5011966109
 10
41.1272756379
 20
-41.3921899697
 10
41.2247482039
 20
-41.2836936066
 10
41.3205795645
 20
-41.1750698034
 10
41.4141266502
 20
-41.0672785374
 10
41.5051010428
 20
-40.9606543404
 10
41.5937910593
 20
-40.854862929
 10
41.6804187488
 20
-40.7498611624
 10
41.7649876287
 20
-40.6456706746
 10
41.8474940964
 20
-40.5422700374
 10
41.9281495291
 20
-40.4395514988
 10
42.0069710909
 20
-40.3374774937
 10
42.0839415422
 20
-40.2360857581
 10
42.1592206616
 20
-40.135381479
 10
42.2330681834
 20
-40.0349901273
 10
42.3052243077
 20
-39.9352863752
 10
42.3750695395
 20
-39.8373993268
 10
42.4426502359
 20
-39.7412161828
 10
42.5079200292
 20
-39.6468501204
 10
42.5701203928
 20
-39.5557694598
 10
42.628861604
 20
-39.468534096
 10
42.6845334541
 20
-39.384584782
 10
42.7375467222
 20
-39.3037112285
 10
42.7878663904
 20
-39.2260001494
 10
42.8355275475
 20
-39.1513653399
 10
42.8810461318
 20
-39.0793370632
 10
42.924494101
 20
-39.0098311309
 10
42.9657995585
 20
-38.9429321053
 10
43.0428819501
 20
-38.8163314821
  0
LWPOLYLINE
  5
2D1
100
AcDbEntity
  8
DRAFT
100
AcDbPolyline
 62
7
  6
CONTINUOUS
 90
10
 70
0
 10
31.356933795
 20
-47.0743872033
 10
30.8030584179
 20
-47.1545539245
 10
30.248747437
 20
-47.2312053789
 10
29.69400029
 20
-47.3043419176
 10
29.1387938381
 20
-47.3739665145
 10
28.5831500508
 20
-47.4400768524
 10
28.0271360097
 20
-47.5026653233
 10
27.4707736608
 20
-47.5617295805
 10
26.9140398128
 20
-47.6172725372
 10
26.3569338239
 20
-47.6692944533
  0
LWPOLYLINE
  5
2D2
100
AcDbEntity
  8
RACCORDO
100
AcDbPolyline
 62
253
  6
CONTINUOUS
 90
10
 70
0
 10
26.3246320057
 20
-47.2342213714
 10
26.878950138
 20
-47.1824323366
 10
27.4329199566
 20
-47.1271353903
 10
27.9865420769
 20
-47.068330282
 10
28.5398540834
 20
-47.0060124002
 10
29.0928195848
 20
-46.9401858099
 10
29.6453282178
 20
-46.8708632546
 10
30.1973435705
 20
-46.7980487717
 10
30.7489031778
 20
-46.7217376913
 10
31.3000075793
 20
-46.6419296758
  0
LWPOLYLINE
  5
2D3
100
AcDbEntity
  8
RACCORDO
100
AcDbPolyline
 62
253
  6
CONTINUOUS
 90
10
 70
0
 10
26.3407681669
 20
-47.4947481671
 10
26.8966900577
 20
-47.442835593
 10
27.4523071491
 20
-47.3874031205
 10
28.0075962483
 20
-47.3284524269
 10
28.5625517066
 20
-47.265983221
 10
29.11713625
 20
-47.1999988913
 10
29.6712793509
 20
-47.1305076018
 10
30.2249439205
 20
-47.0575143672
 10
30.7781244592
 20
-46.9810203717
 10
31.3307979436
 20
-46.9010289985
  0
LWPOLYLINE
  5
2D4
100
AcDbEntity
  8
DRAFT
100
AcDbPolyline
 62
7
  6
CONTINUOUS
 90
16
 70
0
 10
26.3569338239
 20
-47.6692944533
 10
22.9142016651
 20
-47.9590560843
 10
19.468290166
 20
-48.207459458
 10
16.0192139733
 20
-48.4145183203
 10
12.566146925
 20
-48.5802958828
 10
9.1099382308
 20
-48.7047498568
 10
5.6531130563
 20
-48.7877324299
 10
2.1961208444
 20
-48.8291967418
 10
-1.2614717711
 20
-48.8291967894
 10
-4.7184646944
 20
-48.7877325345
 10
-8.1752917879
 20
-48.7047499352
 10
-11.6315031126
 20
-48.5802958966
 10
-15.0845720139
 20
-48.4145182883
 10
-18.5336487863
 20
-48.207459418
 10
-21.9795600879
 20
-47.9590560549
 10
-25.4222912724
 20
-47.6692944533
  0
LWPOLYLINE
  5
2D5
100
AcDbEntity
  8
RACCORDO
100
AcDbPolyline
 62
253
  6
CONTINUOUS
 90
16
 70
0
 10
-25.4061264209
 20
-47.4947480937
 10
-21.9658434279
 20
-47.7842376714
 10
-18.5216661638
 20
-48.0325193575
 10
-15.0740377789
 20
-48.2395337837
 10
-11.6233704205
 20
-48.4052269172
 10
-8.170345676
 20
-48.5295482486
 10
-4.7158114259
 20
-48.6124507581
 10
-1.2604844441
 20
-48.6539036998
 10
2.1951175408
 20
-48.6539037565
 10
5.6504449303
 20
-48.6124509208
 10
9.1049800961
 20
-48.5295484925
 10
12.5580061627
 20
-48.4052272032
 10
16.0086749459
 20
-48.2395340747
 10
19.4563047566
 20
-48.0325196191
 10
22.9004835474
 20
-47.7842378614
 10
26.3407681668
 20
-47.4947481664
  0
LWPOLYLINE
  5
2D6
100
AcDbEntity
  8
RACCORDO
100
AcDbPolyline
 62
253
  6
CONTINUOUS
 90
16
 70
0
 10
-25.3899894542
 20
-47.2342213714
 10
-21.9510403791
 20
-47.5238052704
 10
-18.5091579611
 20
-47.7720495828
 10
-15.0643579274
 20
-47.978967659
 10
-11.615993339
 20
-48.1446164844
 10
-8.1647363679
 20
-48.2689593969
 10
-4.7125788229
 20
-48.3518660613
 10
-1.2596054343
 20
-48.3932953641
 10
2.1942502572
 20
-48.3932953474
 10
5.6472240687
 20
-48.3518659964
 10
9.0993829821
 20
-48.268959232
 10
12.5506417444
 20
-48.1446162045
 10
15.9990069786
 20
-47.9789673302
 10
19.4438059905
 20
-47.7720492977
 10
22.8856862418
 20
-47.5238050949
 10
26.3246320057
 20
-47.2342213714
  0
LWPOLYLINE
  5
2D7
100
AcDbEntity
  8
DRAFT
100
AcDbPolyline
 62
7
  6
CONTINUOUS
 90
10
 70
0
 10
-25.4222912724
 20
-47.6692944533
 10
-25.9794602106
 20
-47.6172659258
 10
-26.5362403219
 20
-47.5617179095
 10
-27.0926322487
 20
-47.5026501448
 10
-27.6486579224
 20
-47.4400595836
 10
-28.2042966583
 20
-47.3739487077
 10
-28.7594851569
 20
-47.304325529
 10
-29.3142027093
 20
-47.2311924997
 10
-29.8684711942
 20
-47.1545465112
 10
-30.4222911744
 20
-47.0743872128
  0
LWPOLYLINE
  5
2D8
100
AcDbEntity
  8
RACCORDO
100
AcDbPolyline
 62
253
  6
CONTINUOUS
 90
10
 70
0
 10
-30.3961467808
 20
-46.9010302727
 10
-29.8434781652
 20
-46.9810209012
 10
-29.2903012834
 20
-47.0575143787
 10
-28.7366391551
 20
-47.1305072988
 10
-28.1824969265
 20
-47.1999984969
 10
-27.6279120332
 20
-47.2659828878
 10
-27.0729560525
 20
-47.3284521692
 10
-26.5176666093
 20
-47.3874029133
 10
-25.9620490012
 20
-47.4428354486
 10
-25.406126421
 20
-47.4947480944
  0
LWPOLYLINE
  5
2D9
100
AcDbEntity
  8
RACCORDO
100
AcDbPolyline
 62
253
  6
CONTINUOUS
 90
10
 70
0
 10
-30.3653650282
 20
-46.6419296757
 10
-29.8142603127
 20
-46.721737733
 10
-29.2627004689
 20
-46.7980488436
 10
-28.7106849575
 20
-46.8708633454
 10
-28.1581762422
 20
-46.9401859069
 10
-27.6052107363
 20
-47.006012492
 10
-27.0518988062
 20
-47.0683303611
 10
-26.4982768446
 20
-47.1271354505
 10
-25.9443072657
 20
-47.1824323704
 10
-25.3899894542
 20
-47.2342213714
  0
LWPOLYLINE
  5
2DA
100
AcDbEntity
  8
RACCORDO
100
AcDbPolyline
 62
253
  6
CONTINUOUS
 90
33
 70
0
 10
-44.2270451049
 20
-33.1727659214
 10
-44.19354531
 20
-33.3538711544
 10
-44.1594981279
 20
-33.5290737837
 10
-44.1249042483
 20
-33.6983745624
 10
-44.089665541
 20
-33.8615368995
 10
-44.0538814501
 20
-34.0187988659
 10
-44.0178489036
 20
-34.1708730923
 10
-43.9815956492
 20
-34.3177696824
 10
-43.9450949214
 20
-34.4594797191
 10
-43.9085616984
 20
-34.5966871097
 10
-43.8720119614
 20
-34.7294251793
 10
-43.8354304689
 20
-34.8576615539
 10
-43.7989852261
 20
-34.9819814329
 10
-43.7626936535
 20
-35.1024195104
 10
-43.7265388911
 20
-35.218941858
 10
-43.6906374207
 20
-35.3320306172
 10
-43.6550149349
 20
-35.4416885832
 10
-43.6196461725
 20
-35.5479135852
 10
-43.5845711066
 20
-35.6511802129
 10
-43.5498079233
 20
-35.7514937673
 10
-43.5153387658
 20
-35.8488494469
 10
-43.4811494803
 20
-35.9437065956
 10
-43.4472264469
 20
-36.0361389968
 10
-43.4135835333
 20
-36.1260732565
 10
-43.3802477751
 20
-36.2137478881
 10
-43.3471661175
 20
-36.2993049783
 10
-43.3143918144
 20
-36.3826027669
 10
-43.2821113498
 20
-36.4634539876
 10
-43.2503837452
 20
-36.5417105852
 10
-43.2191501719
 20
-36.6175209611
 10
-43.1884203267
 20
-36.6911425231
 10
-43.158201171
 20
-36.7625772784
 10
-43.0992635037
 20
-36.8991329542
  0
LWPOLYLINE
  5
2DB
100
AcDbEntity
  8
RACCORDO
100
AcDbPolyline
 62
253
  6
CONTINUOUS
 90
36
 70
0
 10
-44.5012279139
 20
-33.2042628057
 10
-44.4674201414
 20
-33.3883210608
 10
-44.4327040524
 20
-33.5664958564
 10
-44.3972496556
 20
-33.7387418873
 10
-44.3612979501
 20
-33.9047152566
 10
-44.3249716947
 20
-34.064648314
 10
-44.2882405174
 20
-34.2193639744
 10
-44.2512578374
 20
-34.3688222827
 10
-44.2141855214
 20
-34.5129535077
 10
-44.1769511454
 20
-34.6525548229
 10
-44.1396884569
 20
-34.7875751977
 10
-44.1025337671
 20
-34.9179582726
 10
-44.0653896751
 20
-35.0444564474
 10
-44.0283916879
 20
-35.1669703263
 10
-43.9916844615
 20
-35.2853602125
 10
-43.9551429514
 20
-35.4003204914
 10
-43.918855808
 20
-35.5118173102
 10
-43.8829336119
 20
-35.6197433651
 10
-43.8472413541
 20
-35.7247055139
 10
-43.8118424422
 20
-35.8266880425
 10
-43.7768169513
 20
-35.9256239379
 10
-43.7420237956
 20
-36.0220532482
 10
-43.7074830985
 20
-36.1160383389
 10
-43.6732777346
 20
-36.207467938
 10
-43.6393408909
 20
-36.2966255354
 10
-43.6056493578
 20
-36.3836620611
 10
-43.5723060576
 20
-36.4683992552
 10
-43.5394284257
 20
-36.5506333447
 10
-43.5071082469
 20
-36.6302423001
 10
-43.4753264454
 20
-36.7073815835
 10
-43.4440305666
 20
-36.782275006
 10
-43.4132506286
 20
-36.8549387496
 10
-43.3830140641
 20
-36.9253922402
 10
-43.3532574969
 20
-36.9938597899
 10
-43.3239470329
 20
-37.0604865974
 10
-43.2670091661
 20
-37.1876979551
  0
LWPOLYLINE
  5
2DC
100
AcDbEntity
  8
DRAFT
100
AcDbPolyline
 62
7
  6
CONTINUOUS
 90
10
 70
0
 10
-44.6709946081
 20
-33.2355355052
 10
-44.7481063265
 20
-32.7928307491
 10
-44.821993053
 20
-32.3496729447
 10
-44.8926540524
 20
-31.9060630235
 10
-44.9600900738
 20
-31.4619806823
 10
-45.0242989392
 20
-31.0174480999
 10
-45.0852755636
 20
-30.5725299592
 10
-45.1430178286
 20
-30.1272484815
 10
-45.1975265607
 20
-29.6815834037
 10
-45.2488011354
 20
-29.23553571
  0
LWPOLYLINE
  5
2DD
100
AcDbEntity
  8
RACCORDO
100
AcDbPolyline
 62
253
  6
CONTINUOUS
 90
10
 70
0
 10
-45.0776886176
 20
-29.2156673459
 10
-45.0265306855
 20
-29.6604175569
 10
-44.9721443304
 20
-30.104830072
 10
-44.914531526
 20
-30.5488808659
 10
-44.853693912
 20
-30.9925487859
 10
-44.7896338342
 20
-31.4358095836
 10
-44.7223544857
 20
-31.8786346013
 10
-44.6518586095
 20
-32.3209996432
 10
-44.5781487337
 20
-32.7628836763
 10
-44.5012278901
 20
-33.2042628014
  0
LWPOLYLINE
  5
2DE
100
AcDbEntity
  8
RACCORDO
100
AcDbPolyline
 62
253
  6
CONTINUOUS
 90
10
 70
0
 10
-44.8008575504
 20
-29.1995074048
 10
-44.7499348933
 20
-29.6425754904
 10
-44.6958008835
 20
-30.085264091
 10
-44.638456128
 20
-30.5275722573
 10
-44.5778995079
 20
-30.9695217851
 10
-44.5141333971
 20
-31.4110889896
 10
-44.4471636826
 20
-31.852204729
 10
-44.3769927977
 20
-32.2928453623
 10
-44.3036197001
 20
-32.7330327252
 10
-44.2270451049
 20
-33.1727659214
  0
LINE
  5
2DF
100
AcDbEntity
  8
DRAFT
100
AcDbLine
 62
7
  6
CONTINUOUS
 10
-45.2488011354
 20
-29.23553571
 11
-45.2985061508
 21
-28.7851834811
  0
LINE
  5
2E0
100
AcDbEntity
  8
RACCORDO
100
AcDbLine
 62
253
  6
CONTINUOUS
 10
-45.1257215318
 20
-28.7807866911
 11
-45.0776886135
 21
-29.2156673454
  0
LINE
  5
2E1
100
AcDbEntity
  8
RACCORDO
100
AcDbLine
 62
253
  6
CONTINUOUS
 10
-44.8488485318
 20
-28.7647290783
 11
-44.8008575504
 21
-29.1995074048
  0
LWPOLYLINE
  5
2E2
100
AcDbEntity
  8
0
100
AcDbPolyline
 62
7
  6
CONTINUOUS
 90
25
 70
0
 10
3.7873400781
 20
-27.7251945403
 10
3.8472390279
 20
-27.7164692655
 10
3.9070829615
 20
-27.7082542429
 10
3.966871871
 20
-27.7005494751
 10
4.0265676283
 20
-27.6933035481
 10
4.0862083461
 20
-27.6865678801
 10
4.1459083764
 20
-27.6804967218
 10
4.2056807259
 20
-27.6750837506
 10
4.2655123677
 20
-27.6703352935
 10
4.3254785984
 20
-27.6664245764
 10
4.385588434
 20
-27.6633447073
 10
4.4458328329
 20
-27.6611025815
 10
4.5062599996
 20
-27.6598921053
 10
4.5669293605
 20
-27.6597104155
 10
4.6277814568
 20
-27.660560376
 10
4.6886861597
 20
-27.6626444831
 10
4.7496535441
 20
-27.6658943271
 10
4.8106734969
 20
-27.6703783138
 10
4.8715855987
 20
-27.6765041596
 10
4.9325178843
 20
-27.6841811766
 10
4.9933422682
 20
-27.6935000397
 10
5.0535141358
 20
-27.7051405027
 10
5.1128519226
 20
-27.7193291365
 10
5.1715371236
 20
-27.735839334
 10
5.2295697055
 20
-27.7546710728
  0
LWPOLYLINE
  5
2E3
100
AcDbEntity
  8
0
100
AcDbPolyline
 62
7
  6
CONTINUOUS
 90
31
 70
0
 10
4.6840019189
 20
-28.9380152859
 10
4.7078065778
 20
-28.9372584908
 10
4.7315037137
 20
-28.9357673901
 10
4.7550933312
 20
-28.9335419831
 10
4.7786067907
 20
-28.9306468291
 10
4.8020127405
 20
-28.9270173665
 10
4.8252171181
 20
-28.9224599119
 10
4.8482356907
 20
-28.917009705
 10
4.8710527015
 20
-28.9106315003
 10
4.8935268049
 20
-28.9030258837
 10
4.9157821092
 20
-28.8941664663
 10
4.9376945184
 20
-28.8840796244
 10
4.9587503815
 20
-28.8725450877
 10
4.9789194376
 20
-28.859450954
 10
4.9982319567
 20
-28.8449091026
 10
5.0162650817
 20
-28.8290349328
 10
5.0328842713
 20
-28.8117035615
 10
5.0482240658
 20
-28.7930398436
 10
5.0622652255
 20
-28.7735337905
 10
5.0749683915
 20
-28.7532098821
 10
5.0863729132
 20
-28.7320436181
 10
5.0965776112
 20
-28.7104515505
 10
5.105575617
 20
-28.6885204591
 10
5.1133737866
 20
-28.6661635536
 10
5.1200915272
 20
-28.6435370377
 10
5.1257676748
 20
-28.6206654016
 10
5.1303633809
 20
-28.597524148
 10
5.1338815265
 20
-28.574196003
 10
5.1363230672
 20
-28.5507085407
 10
5.137687034
 20
-28.5270341822
 10
5.13797342
 20
-28.5031729249
  0
LINE
  5
2E4
100
AcDbEntity
  8
0
100
AcDbLine
 62
7
  6
CONTINUOUS
 10
5.8264694877
 20
-30.4921885537
 11
5.2643368976
 21
-30.4921885537
  0
LINE
  5
2E5
100
AcDbEntity
  8
0
100
AcDbLine
 62
7
  6
CONTINUOUS
 10
4.3693966206
 20
-30.4921885537
 11
3.7873400781
 21
-30.4921885537
  0
LINE
  5
2E6
100
AcDbEntity
  8
0
100
AcDbLine
 62
7
  6
CONTINUOUS
 10
3.6157292758
 20
-30.4921881993
 11
2.9997872758
 21
-30.4921881993
  0
LINE
  5
2E7
100
AcDbEntity
  8
0
100
AcDbLine
 62
7
  6
CONTINUOUS
 10
1.8912682758
 20
-30.4921881993
 11
1.3132012758
 21
-30.4921881993
  0
LINE
  5
2E8
100
AcDbEntity
  8
0
100
AcDbLine
 62
7
  6
CONTINUOUS
 10
1.2214332758
 20
-30.4921881993
 11
0.6497272758
 21
-30.4921881993
  0
LINE
  5
2E9
100
AcDbEntity
  8
0
100
AcDbLine
 62
7
  6
CONTINUOUS
 10
-0.1652027242
 20
-30.4921881993
 11
-0.2471657242
 21
-30.4921881993
  0
LINE
  5
2EA
100
AcDbEntity
  8
0
100
AcDbLine
 62
7
  6
CONTINUOUS
 10
-1.0588617242
 20
-30.4921881993
 11
-1.6179507242
 21
-30.4921881993
  0
LINE
  5
2EB
100
AcDbEntity
  8
0
100
AcDbLine
 62
7
  6
CONTINUOUS
 10
-1.9325557242
 20
-30.4921881993
 11
-2.5169637242
 21
-30.4921881993
  0
LINE
  5
2EC
100
AcDbEntity
  8
0
100
AcDbLine
 62
7
  6
CONTINUOUS
 10
-3.6337757242
 20
-30.4921881993
 11
-4.1487857242
 21
-30.4921881993
  0
LINE
  5
2ED
100
AcDbEntity
  8
0
100
AcDbLine
 62
7
  6
CONTINUOUS
 10
2.8483952758
 20
-29.9332681993
 11
2.0525282758
 21
-29.9332681993
  0
LINE
  5
2EE
100
AcDbEntity
  8
0
100
AcDbLine
 62
7
  6
CONTINUOUS
 10
2.7316012758
 20
-29.5007781993
 11
2.1720722758
 21
-29.5007781993
  0
LINE
  5
2EF
100
AcDbEntity
  8
0
100
AcDbLine
 62
7
  6
CONTINUOUS
 10
4.682742238
 20
-29.3965391241
 11
4.3693966206
 21
-29.3965391241
  0
LINE
  5
2F0
100
AcDbEntity
  8
0
100
AcDbLine
 62
7
  6
CONTINUOUS
 10
4.6840019189
 20
-28.9380152859
 11
4.3500185298
 21
-28.9380152859
  0
LWPOLYLINE
  5
2F1
100
AcDbEntity
  8
RACCORDO
100
AcDbPolyline
 62
253
  6
CONTINUOUS
 90
9
 70
0
 10
-30.3878870281
 20
-46.8090922145
 10
-30.390109234
 20
-46.8277572597
 10
-30.3920181192
 20
-46.8446061735
 10
-30.3935980866
 20
-46.8595012869
 10
-30.3948362266
 20
-46.872320895
 10
-30.3957224226
 20
-46.8829602514
 10
-30.3962494338
 20
-46.8913324242
 10
-30.3964129539
 20
-46.8973690059
 10
-30.396211647
 20
-46.901020673
  0
LINE
  5
2F2
100
AcDbEntity
  8
RACCORDO
100
AcDbLine
 62
253
  6
CONTINUOUS
 10
-30.3825776948
 20
-46.7669373558
 11
-30.3878870281
 21
-46.8090922145
  0
LINE
  5
2F3
100
AcDbEntity
  8
RACCORDO
100
AcDbLine
 62
253
  6
CONTINUOUS
 10
-30.3762632906
 20
-46.7195165379
 11
-30.3825776948
 21
-46.7669373558
  0
LWPOLYLINE
  5
2F4
100
AcDbEntity
  8
RACCORDO
100
AcDbPolyline
 62
253
  6
CONTINUOUS
 90
3
 70
0
 10
-30.3653650282
 20
-46.6419296757
 10
-30.3691497687
 20
-46.6683764577
 10
-30.3762632906
 20
-46.7195165379
  0
LINE
  5
2F5
100
AcDbEntity
  8
RACCORDO
100
AcDbLine
 62
253
  6
CONTINUOUS
 10
-30.4222912723
 20
-47.0743871993
 11
-30.3961467816
 21
-46.9010302777
  0
LWPOLYLINE
  5
2F6
100
AcDbEntity
  8
RACCORDO
100
AcDbPolyline
 62
253
  6
CONTINUOUS
 90
13
 70
0
 10
-10.49549892
 20
21.1607360097
 10
-10.4580085956
 20
21.1729784498
 10
-10.4212773129
 20
21.1839726026
 10
-10.3853381843
 20
21.1938201256
 10
-10.3503568892
 20
21.2027290706
 10
-10.316210221
 20
21.2106976304
 10
-10.2825202967
 20
21.2174696079
 10
-10.2495267292
 20
21.2229335943
 10
-10.2170839342
 20
21.2273296228
 10
-10.1842493722
 20
21.2308036592
 10
-10.1507219292
 20
21.2333473368
 10
-10.116854589
 20
21.2348928715
 10
-10.0826767636
 20
21.235411099
  0
LINE
  5
2F7
100
AcDbEntity
  8
RACCORDO
100
AcDbLine
 62
253
  6
CONTINUOUS
 10
-44.6709945739
 20
-33.23553571
 11
-44.5012278901
 21
-33.2042628014
  0
LWPOLYLINE
  5
2F8
100
AcDbEntity
  8
RACCORDO
100
AcDbPolyline
 62
253
  6
CONTINUOUS
 90
16
 70
0
 10
-44.2270451048
 20
-33.1727659213
 10
-44.2545287998
 20
-33.1774363764
 10
-44.2815980416
 20
-33.1818691547
 10
-44.3080154118
 20
-33.1860253774
 10
-44.3335492094
 20
-33.1898685911
 10
-44.3579754832
 20
-33.1933650878
 10
-44.3810799955
 20
-33.1964842006
 10
-44.4026601019
 20
-33.1991985723
 10
-44.4225265279
 20
-33.2014843959
 10
-44.4405050295
 20
-33.2033216229
 10
-44.4564379211
 20
-33.2046941392
 10
-44.4701854589
 20
-33.205589907
 10
-44.4816270662
 20
-33.2060010696
 10
-44.4906623912
 20
-33.2059240209
 10
-44.497212187
 20
-33.2053594364
 10
-44.5012190068
 20
-33.2043122683
  0
LINE
  5
2F9
100
AcDbEntity
  8
RACCORDO
100
AcDbLine
 62
253
  6
CONTINUOUS
 10
-45.2488011354
 20
-29.23553571
 11
-45.0776886135
 21
-29.2156673454
  0
LWPOLYLINE
  5
2FA
100
AcDbEntity
  8
RACCORDO
100
AcDbPolyline
 62
253
  6
CONTINUOUS
 90
16
 70
0
 10
-44.8008575503
 20
-29.1995074048
 10
-44.8286962697
 20
-29.2024252441
 10
-44.8561121582
 20
-29.205155736
 10
-44.8828630716
 20
-29.2076747642
 10
-44.9087127388
 20
-29.2099600799
 10
-44.9334328487
 20
-29.2119914986
 10
-44.9568050669
 20
-29.2137510782
 10
-44.9786229636
 20
-29.2152232778
 10
-44.9986938376
 20
-29.2163950943
 10
-45.0168404175
 20
-29.2172561782
 10
-45.0329024281
 20
-29.217798924
 10
-45.0467380054
 20
-29.218018538
 10
-45.0582249499
 20
-29.2179130806
 10
-45.0672618059
 20
-29.2174834832
 10
-45.0737687576
 20
-29.2167335402
 10
-45.0776883339
 20
-29.2156698751
  0
LWPOLYLINE
  5
2FB
100
AcDbEntity
  8
RACCORDO
100
AcDbPolyline
 62
253
  6
CONTINUOUS
 90
10
 70
0
 10
11.0172952375
 20
-24.4206302759
 10
11.0761031438
 20
-24.4175785887
 10
11.1350081887
 20
-24.4115383909
 10
11.1938602261
 20
-24.4024773967
 10
11.2525949517
 20
-24.3904510152
 10
11.310967882
 20
-24.3753270525
 10
11.3685120087
 20
-24.3568434766
 10
11.4249211709
 20
-24.3349774353
 10
11.4800898003
 20
-24.3098737753
 10
11.5338154998
 20
-24.2815983949
  0
LWPOLYLINE
  5
2FC
100
AcDbEntity
  8
RACCORDO
100
AcDbPolyline
 62
253
  6
CONTINUOUS
 90
28
 70
0
 10
11.025112435
 20
-24.7305640394
 10
11.1060585092
 20
-24.7267274768
 10
11.1866941473
 20
-24.7182606132
 10
11.2670194222
 20
-24.7051634376
 10
11.3474380399
 20
-24.6873895226
 10
11.4275464322
 20
-24.6649852558
 10
11.5061337564
 20
-24.6380898412
 10
11.5831281096
 20
-24.6065913967
 10
11.6586015085
 20
-24.5706017312
 10
11.7315589743
 20
-24.5305955823
 10
11.8018707921
 20
-24.4865602449
 10
11.8696667395
 20
-24.4385083315
 10
11.9343410515
 20
-24.3869525606
 10
11.9958082921
 20
-24.3319553421
 10
12.054153906
 20
-24.2734541655
 10
12.1090284281
 20
-24.2117743761
 10
12.160504894
 20
-24.1468052035
 10
12.2085102305
 20
-24.0786573093
 10
12.2524757879
 20
-24.0079882002
 10
12.2923730972
 20
-23.9346532536
 10
12.3282305375
 20
-23.8587969953
 10
12.3595647105
 20
-23.7815106864
 10
12.3862452767
 20
-23.7027633969
 10
12.4084024453
 20
-23.6225860006
 10
12.425943634
 20
-23.5421625113
 10
12.4388379377
 20
-23.4618876094
 10
12.4471161247
 20
-23.3813666138
 10
12.4507781235
 20
-23.3005995215
  0
LWPOLYLINE
  5
2FD
100
AcDbEntity
  8
RACCORDO
100
AcDbPolyline
 62
253
  6
CONTINUOUS
 90
3
 70
0
 10
-11.411919223
 20
-23.2986312376
 10
-11.4811832001
 20
-23.3003358638
 10
-11.5160906738
 20
-23.3010363921
  0
LWPOLYLINE
  5
2FE
100
AcDbEntity
  8
RACCORDO
100
AcDbPolyline
 62
253
  6
CONTINUOUS
 90
10
 70
0
 10
-11.1198279806
 20
-23.2901136077
 10
-11.0956112798
 20
-23.28968228
 10
-11.073657089
 20
-23.2891802314
 10
-11.0540912873
 20
-23.2886152955
 10
-11.0370264417
 20
-23.2879957206
 10
-11.0225588472
 20
-23.2873301243
 10
-11.0107695889
 20
-23.2866273465
 10
-11.0017267157
 20
-23.2858964333
 10
-10.9954835937
 20
-23.2851466058
 10
-10.9920769854
 20
-23.2843871993
  0
LWPOLYLINE
  5
2FF
100
AcDbEntity
  8
RACCORDO
100
AcDbPolyline
 62
253
  6
CONTINUOUS
 90
3
 70
0
 10
-11.2046081846
 20
-23.2909105715
 10
-11.1744825849
 20
-23.2907345806
 10
-11.1198279806
 20
-23.2901136077
  0
LINE
  5
300
100
AcDbEntity
  8
0
100
AcDbLine
 62
7
  6
CONTINUOUS
 10
1.6396000971
 20
-24.1074042826
 11
11.0173212758
 21
-24.1031444406
  0
LINE
  5
301
100
AcDbEntity
  8
RACCORDO
100
AcDbLine
 62
253
  6
CONTINUOUS
 10
11.8372882481
 20
-23.2843871993
 11
11.9267195626
 21
-23.2843745942
  0
LINE
  5
302
100
AcDbEntity
  8
0
100
AcDbLine
 62
7
  6
CONTINUOUS
 10
2.7567112758
 20
-27.6924851993
 11
2.1913662758
 21
-27.6924851993
  0
LINE
  5
303
100
AcDbEntity
  8
0
100
AcDbLine
 62
7
  6
CONTINUOUS
 10
0.9596292758
 20
-27.6924851993
 11
0.3814152758
 21
-27.6924851993
  0
LINE
  5
304
100
AcDbEntity
  8
0
100
AcDbLine
 62
7
  6
CONTINUOUS
 10
-0.7812287242
 20
-27.6924851993
 11
-1.3651537242
 21
-27.6924851993
  0
LINE
  5
305
100
AcDbEntity
  8
0
100
AcDbLine
 62
7
  6
CONTINUOUS
 10
-2.7338387242
 20
-27.6924851993
 11
-3.3178477242
 21
-27.6924851993
  0
LINE
  5
306
100
AcDbEntity
  8
0
100
AcDbLine
 62
7
  6
CONTINUOUS
 10
-4.4014987242
 20
-27.6924851993
 11
-5.0363467242
 21
-27.6924851993
  0
LINE
  5
307
100
AcDbEntity
  8
0
100
AcDbLine
 62
7
  6
CONTINUOUS
 10
-1.9325557242
 20
-27.6923171993
 11
-2.5169637242
 21
-27.6923171993
  0
LINE
  5
308
100
AcDbEntity
  8
RACCORDO
100
AcDbLine
 62
253
  6
CONTINUOUS
 10
-45.2052775927
 20
-25.2843862205
 11
46.1399201433
 21
-25.2843862295
  0
LINE
  5
309
100
AcDbEntity
  8
RACCORDO
100
AcDbLine
 62
253
  6
CONTINUOUS
 10
11.0173189288
 20
-24.4041854978
 11
-10.0826765257
 21
-24.4041854978
  0
LINE
  5
30A
100
AcDbEntity
  8
RACCORDO
100
AcDbLine
 62
253
  6
CONTINUOUS
 10
11.0173270728
 20
-24.1916589486
 11
-10.0826847564
 21
-24.1916589486
  0
LINE
  5
30B
100
AcDbEntity
  8
RACCORDO
100
AcDbLine
 62
253
  6
CONTINUOUS
 10
-10.9026456966
 20
-23.2843871993
 11
-10.9920770024
 21
-23.284378925
  0
LWPOLYLINE
  5
30C
100
AcDbEntity
  8
0
100
AcDbPolyline
 62
7
  6
CONTINUOUS
 90
3
 70
0
 10
-10.0826787242
 20
-24.1031444406
 10
-7.7383191785
 20
-24.1048483774
 10
1.6396000971
 20
-24.1074042826
  0
LINE
  5
30D
100
AcDbEntity
  8
RACCORDO
100
AcDbLine
 62
253
  6
CONTINUOUS
 10
12.3810945648
 20
-23.2957056529
 11
12.4507874488
 21
-23.2960218881
  0
LINE
  5
30E
100
AcDbEntity
  8
RACCORDO
100
AcDbLine
 62
253
  6
CONTINUOUS
 10
12.1392530352
 20
-23.2909105805
 11
12.0808024512
 21
-23.2904470212
  0
LINE
  5
30F
100
AcDbEntity
  8
RACCORDO
100
AcDbLine
 62
253
  6
CONTINUOUS
 10
12.3125871133
 20
-23.2949726044
 11
12.3810945648
 21
-23.2957056529
  0
LWPOLYLINE
  5
310
100
AcDbEntity
  8
RACCORDO
100
AcDbPolyline
 62
253
  6
CONTINUOUS
 90
19
 70
0
 10
-10.0826765257
 20
-24.4041854975
 10
-10.1131116428
 20
-24.4037750415
 10
-10.1442897292
 20
-24.4024941569
 10
-10.176184383
 20
-24.4002818764
 10
-10.2086979563
 20
-24.3970835958
 10
-10.2418645637
 20
-24.3928326796
 10
-10.2758473646
 20
-24.3874304146
 10
-10.3106230039
 20
-24.3807873993
 10
-10.3461170871
 20
-24.3728218193
 10
-10.3824024046
 20
-24.3634127548
 10
-10.4193800728
 20
-24.3524738967
 10
-10.4570076229
 20
-24.3399016312
 10
-10.4954196004
 20
-24.3255120703
 10
-10.5344688461
 20
-24.3091143086
 10
-10.5740801615
 20
-24.2906681183
 10
-10.6144824667
 20
-24.2701509388
 10
-10.6556649851
 20
-24.2474282021
 10
-10.6973656385
 20
-24.222306584
 10
-10.7394276085
 20
-24.1946391288
  0
LWPOLYLINE
  5
311
100
AcDbEntity
  8
RACCORDO
100
AcDbPolyline
 62
253
  6
CONTINUOUS
 90
34
 70
0
 10
-10.0826847564
 20
-24.1916589492
 10
-10.1099494371
 20
-24.1912499183
 10
-10.1379488564
 20
-24.1899780398
 10
-10.1666532804
 20
-24.1877741194
 10
-10.1959545558
 20
-24.1845772357
 10
-10.2258882413
 20
-24.1803127725
 10
-10.256629936
 20
-24.1748681027
 10
-10.2881515022
 20
-24.1681436258
 10
-10.3203654802
 20
-24.1600494018
 10
-10.3533404732
 20
-24.1504491676
 10
-10.3869542421
 20
-24.1392475701
 10
-10.4211545873
 20
-24.1263252552
 10
-10.4560846424
 20
-24.1114653231
 10
-10.4916178127
 20
-24.0945305366
 10
-10.5276064769
 20
-24.0753895709
 10
-10.5641115256
 20
-24.0537774659
 10
-10.6010336211
 20
-24.0294728026
 10
-10.6380480299
 20
-24.0023886897
 10
-10.6748379381
 20
-23.9724554185
 10
-10.7112876871
 20
-23.9394319067
 10
-10.7469685907
 20
-23.9033431886
 10
-10.7811525684
 20
-23.8646348885
 10
-10.8136333551
 20
-23.8233079347
 10
-10.8441610896
 20
-23.7794253668
 10
-10.8721235484
 20
-23.7337087908
 10
-10.897359298
 20
-23.6863951743
 10
-10.9198151192
 20
-23.6375532099
 10
-10.939236417
 20
-23.5877746473
 10
-10.9556028891
 20
-23.5372756798
 10
-10.968922566
 20
-23.4862235611
 10
-10.9791394819
 20
-23.4351839488
 10
-10.9863249555
 20
-23.3844759174
 10
-10.9906043825
 20
-23.3341524117
 10
-10.9920826458
 20
-23.2843789245
  0
LWPOLYLINE
  5
312
100
AcDbEntity
  8
RACCORDO
100
AcDbPolyline
 62
253
  6
CONTINUOUS
 90
10
 70
0
 10
12.0808024512
 20
-23.2904470212
 10
12.0302368336
 20
-23.2896568713
 10
12.0082798753
 20
-23.2891553379
 10
11.9887125247
 20
-23.2885926256
 10
11.971645762
 20
-23.2879765579
 10
11.9571782267
 20
-23.2873151276
 10
11.9453944895
 20
-23.2866166806
 10
11.9363607855
 20
-23.2858899053
 10
11.9301262844
 20
-23.2851437344
 10
11.9267249245
 20
-23.2843871993
  0
LWPOLYLINE
  5
313
100
AcDbEntity
  8
RACCORDO
100
AcDbPolyline
 62
253
  6
CONTINUOUS
 90
10
 70
0
 10
-10.0904698835
 20
-24.7305640394
 10
-7.7443558408
 20
-24.7741486254
 10
-5.3981843906
 20
-24.8068369518
 10
-3.0519785118
 20
-24.8286291178
 10
-0.7057765964
 20
-24.8395251933
 10
1.6404138742
 20
-24.839525208
 10
3.986616317
 20
-24.8286291507
 10
6.3328232507
 20
-24.8068369847
 10
8.678996283
 20
-24.7741486473
 10
11.025112435
 20
-24.7305640394
  0
LWPOLYLINE
  5
314
100
AcDbEntity
  8
RACCORDO
100
AcDbPolyline
 62
253
  6
CONTINUOUS
 90
10
 70
0
 10
-10.0826527988
 20
-24.4206300055
 10
-7.7382441593
 20
-24.4641707324
 10
-5.3938207683
 20
-24.4968262804
 10
-3.0493826257
 20
-24.5185966495
 10
-0.7049200732
 20
-24.5294818433
 10
1.6395572308
 20
-24.5294818583
 10
3.9840203115
 20
-24.5185966832
 10
6.3284595104
 20
-24.4968263145
 10
8.6728844859
 20
-24.4641707558
 10
11.017295238
 20
-24.4206300071
  0
LWPOLYLINE
  5
315
100
AcDbEntity
  8
RACCORDO
100
AcDbPolyline
 62
253
  6
CONTINUOUS
 90
3
 70
0
 10
12.214955381
 20
-23.2931249013
 10
12.2465997182
 20
-23.2938370236
 10
12.3125871133
 20
-23.2949726044
  0
LWPOLYLINE
  5
316
100
AcDbEntity
  8
0
100
AcDbPolyline
 62
7
  6
CONTINUOUS
 90
10
 70
0
 10
4.8078347059
 20
-28.1529594482
 10
4.7588851735
 20
-28.1480297257
 10
4.709398261
 20
-28.1447797409
 10
4.6593739891
 20
-28.143209497
 10
4.6087355815
 20
-28.1433049426
 10
4.5575598564
 20
-28.1450801306
 10
4.506077227
 20
-28.1485772185
 10
4.4543645131
 20
-28.1538102556
 10
4.4023449398
 20
-28.1607651836
 10
4.3500185298
 20
-28.1694419952
  0
LWPOLYLINE
  5
317
100
AcDbEntity
  8
RACCORDO
100
AcDbPolyline
 62
253
  6
CONTINUOUS
 90
16
 70
0
 10
45.7355001019
 20
-29.1995074048
 10
45.7633388211
 20
-29.2024252441
 10
45.7907547095
 20
-29.2051557361
 10
45.8175056227
 20
-29.2076747643
 10
45.8433552898
 20
-29.20996008
 10
45.8680753995
 20
-29.2119914986
 10
45.8914476175
 20
-29.2137510783
 10
45.9132655141
 20
-29.2152232778
 10
45.9333363879
 20
-29.2163950944
 10
45.9514829677
 20
-29.2172561782
 10
45.9675449781
 20
-29.217798924
 10
45.9813805553
 20
-29.218018538
 10
45.9928674997
 20
-29.2179130805
 10
46.0019043556
 20
-29.2174834831
 10
46.0084113073
 20
-29.21673354
 10
46.0123308835
 20
-29.2156698749
  0
LINE
  5
318
100
AcDbEntity
  8
RACCORDO
100
AcDbLine
 62
253
  6
CONTINUOUS
 10
46.1834436869
 20
-29.23553571
 11
46.012331185
 21
-29.2156671656
  0
LWPOLYLINE
  5
319
100
AcDbEntity
  8
RACCORDO
100
AcDbPolyline
 62
253
  6
CONTINUOUS
 90
16
 70
0
 10
45.1616876564
 20
-33.1727659213
 10
45.1891713562
 20
-33.1774363776
 10
45.2162406033
 20
-33.1818691572
 10
45.2426579792
 20
-33.1860253811
 10
45.2681917827
 20
-33.189868596
 10
45.2926180625
 20
-33.193365094
 10
45.3157225809
 20
-33.1964842079
 10
45.3373026932
 20
-33.1991985808
 10
45.357169125
 20
-33.2014844054
 10
45.375147632
 20
-33.2033216333
 10
45.3910805287
 20
-33.2046941505
 10
45.404828071
 20
-33.2055899189
 10
45.4162696824
 20
-33.2060010821
 10
45.4253050108
 20
-33.2059240338
 10
45.4318548094
 20
-33.2053594497
 10
45.4358616314
 20
-33.2043122817
  0
LINE
  5
31A
100
AcDbEntity
  8
RACCORDO
100
AcDbLine
 62
253
  6
CONTINUOUS
 10
45.6056371254
 20
-33.23553571
 11
45.435872205
 21
-33.204252895
  0
LWPOLYLINE
  5
31B
100
AcDbEntity
  8
0
100
AcDbPolyline
 62
7
  6
CONTINUOUS
 90
48
 70
0
 10
5.2295697055
 20
-27.7546710728
 10
5.2631359793
 20
-27.7683833129
 10
5.2968143937
 20
-27.7850530251
 10
5.3306049193
 20
-27.8046801805
 10
5.36469837
 20
-27.8271502305
 10
5.3989038704
 20
-27.8525776514
 10
5.4326488572
 20
-27.8813059394
 10
5.466221094
 20
-27.9135073893
 10
5.4993327501
 20
-27.9490095852
 10
5.5305478873
 20
-27.9876389447
 10
5.559888019
 20
-28.030017295
 10
5.5873316006
 20
-28.0755226473
 10
5.6113781653
 20
-28.1221157453
 10
5.6314714715
 20
-28.1698635073
 10
5.6481678296
 20
-28.2186989499
 10
5.6616356597
 20
-28.2663820823
 10
5.6715545325
 20
-28.3123011337
 10
5.6782449775
 20
-28.3570679489
 10
5.6828368539
 20
-28.4002780354
 10
5.6855113207
 20
-28.4417472575
 10
5.6860872779
 20
-28.4816598323
 10
5.6851511769
 20
-28.520163802
 10
5.6827789737
 20
-28.5573067084
 10
5.6788947487
 20
-28.5930410729
 10
5.673857128
 20
-28.6273724015
 10
5.6676758746
 20
-28.6602833419
 10
5.6603412489
 20
-28.6917913038
 10
5.6521826151
 20
-28.7219539334
 10
5.6432177754
 20
-28.7507510059
 10
5.6334289402
 20
-28.7782027947
 10
5.6230920809
 20
-28.8044276891
 10
5.6122307734
 20
-28.8294317756
 10
5.6008214469
 20
-28.8532090062
 10
5.5890693488
 20
-28.875859563
 10
5.5769986004
 20
-28.8973797727
 10
5.5645850809
 20
-28.9177733394
 10
5.5519616719
 20
-28.9371515075
 10
5.5391277121
 20
-28.9555149212
 10
5.526083861
 20
-28.9728629601
 10
5.512964979
 20
-28.9893049672
 10
5.4997639544
 20
-29.0048134773
 10
5.4864878956
 20
-29.0194159738
 10
5.4732929931
 20
-29.0333042191
 10
5.4601877569
 20
-29.0464909328
 10
5.4471636731
 20
-29.0589634073
 10
5.4343513969
 20
-29.0708752606
 10
5.421775681
 20
-29.0822363185
 10
5.4094117688
 20
-29.0930367632
  0
LWPOLYLINE
  5
31C
100
AcDbEntity
  8
0
100
AcDbPolyline
 62
7
  6
CONTINUOUS
 90
3
 70
0
 10
5.2898244406
 20
-29.1853116362
 10
5.3179478979
 20
-29.1988191132
 10
5.3442175602
 20
-29.2138411742
  0
LWPOLYLINE
  5
31D
100
AcDbEntity
  8
RACCORDO
100
AcDbPolyline
 62
253
  6
CONTINUOUS
 90
13
 70
0
 10
-10.7394276085
 20
-24.1946391288
 10
-10.6914415104
 20
-24.2290423594
 10
-10.6415728115
 20
-24.2608018599
 10
-10.5899669507
 20
-24.289803684
 10
-10.5366882344
 20
-24.3159155649
 10
-10.4820045282
 20
-24.3390907817
 10
-10.4263606108
 20
-24.359412126
 10
-10.3699287082
 20
-24.376924912
 10
-10.3128175285
 20
-24.3915246908
 10
-10.2553657
 20
-24.4031649819
 10
-10.1977896322
 20
-24.411866247
 10
-10.1401718494
 20
-24.4176778131
 10
-10.0826527983
 20
-24.4206302745
  0
LWPOLYLINE
  5
31E
100
AcDbEntity
  8
RACCORDO
100
AcDbPolyline
 62
253
  6
CONTINUOUS
 90
10
 70
0
 10
-10.7392509705
 20
-24.1944040835
 10
-10.7899397067
 20
-24.1555415504
 10
-10.8381565312
 20
-24.1140956793
 10
-10.8837930805
 20
-24.070232609
 10
-10.9267943916
 20
-24.0240474363
 10
-10.9670046321
 20
-23.9757664317
 10
-11.004214057
 20
-23.9257869001
 10
-11.0383437946
 20
-23.8743837072
 10
-11.0694081179
 20
-23.8216800546
 10
-11.0973975154
 20
-23.7678697232
  0
LINE
  5
31F
100
AcDbEntity
  8
RACCORDO
100
AcDbLine
 62
253
  6
CONTINUOUS
 10
-30.4222912723
 20
43.9056128007
 11
-30.3961552886
 21
43.7322546202
  0
LINE
  5
320
100
AcDbEntity
  8
RACCORDO
100
AcDbLine
 62
253
  6
CONTINUOUS
 10
-30.3653650276
 20
43.4731552767
 11
-30.372792428
 21
43.5255349556
  0
LINE
  5
321
100
AcDbEntity
  8
RACCORDO
100
AcDbLine
 62
253
  6
CONTINUOUS
 10
-30.372792428
 20
43.5255349556
 11
-30.3795339186
 21
43.5750175364
  0
LWPOLYLINE
  5
322
100
AcDbEntity
  8
RACCORDO
100
AcDbPolyline
 62
253
  6
CONTINUOUS
 90
11
 70
0
 10
-30.3795339186
 20
43.5750175364
 10
-30.3853696172
 20
43.6199890758
 10
-30.3878869824
 20
43.6403177315
 10
-30.3901091853
 20
43.6589827643
 10
-30.3920180689
 20
43.6758316662
 10
-30.3935980362
 20
43.6907267685
 10
-30.3948361777
 20
43.7035463663
 10
-30.395722377
 20
43.7141857133
 10
-30.3962493933
 20
43.7225578779
 10
-30.3964129204
 20
43.7285944526
 10
-30.3962116224
 20
43.7322461141
  0
LINE
  5
323
100
AcDbEntity
  8
RACCORDO
100
AcDbLine
 62
253
  6
CONTINUOUS
 10
-25.4222912723
 20
44.5005200548
 11
-25.4061256154
 21
44.3259737685
  0
LINE
  5
324
100
AcDbEntity
  8
RACCORDO
100
AcDbLine
 62
253
  6
CONTINUOUS
 10
-25.3899894542
 20
44.0654469728
 11
-25.3944287636
 21
44.1181821232
  0
LINE
  5
325
100
AcDbEntity
  8
RACCORDO
100
AcDbLine
 62
253
  6
CONTINUOUS
 10
-25.3944287636
 20
44.1181821232
 11
-25.3983509942
 21
44.1679869246
  0
LWPOLYLINE
  5
326
100
AcDbEntity
  8
RACCORDO
100
AcDbPolyline
 62
253
  6
CONTINUOUS
 90
11
 70
0
 10
-25.3983509942
 20
44.1679869246
 10
-25.4016281489
 20
44.2132360583
 10
-25.4029904792
 20
44.2336836313
 10
-25.4041532817
 20
44.2524528744
 10
-25.4051070504
 20
44.2693903461
 10
-25.4058439881
 20
44.2843575801
 10
-25.4063580701
 20
44.297232217
 10
-25.4066450938
 20
44.3079090046
 10
-25.4067027128
 20
44.3163006586
 10
-25.4065304559
 20
44.322338576
 10
-25.4061297315
 20
44.3259733958
  0
LWPOLYLINE
  5
327
100
AcDbEntity
  8
RACCORDO
100
AcDbPolyline
 62
253
  6
CONTINUOUS
 90
9
 70
0
 10
-25.4029904793
 20
-47.4024580289
 10
-25.4041532818
 20
-47.4212272721
 10
-25.4051070506
 20
-47.4381647439
 10
-25.4058439882
 20
-47.4531319781
 10
-25.4063580703
 20
-47.4660066152
 10
-25.406645094
 20
-47.4766834031
 10
-25.4067027129
 20
-47.4850750574
 10
-25.406530456
 20
-47.4911129751
 10
-25.4061297315
 20
-47.4947477953
  0
LINE
  5
328
100
AcDbEntity
  8
RACCORDO
100
AcDbLine
 62
253
  6
CONTINUOUS
 10
-25.4000774281
 20
-47.3600517149
 11
-25.4029904793
 21
-47.4024580289
  0
LINE
  5
329
100
AcDbEntity
  8
RACCORDO
100
AcDbLine
 62
253
  6
CONTINUOUS
 10
-25.396462961
 20
-47.3123296801
 11
-25.4000774281
 21
-47.3600517149
  0
LWPOLYLINE
  5
32A
100
AcDbEntity
  8
RACCORDO
100
AcDbPolyline
 62
253
  6
CONTINUOUS
 90
3
 70
0
 10
-25.389989454
 20
-47.2342213709
 10
-25.3922650316
 20
-47.2608492744
 10
-25.396462961
 20
-47.3123296801
  0
LINE
  5
32B
100
AcDbEntity
  8
RACCORDO
100
AcDbLine
 62
253
  6
CONTINUOUS
 10
-25.4222912723
 20
-47.6692944533
 11
-25.406126421
 21
-47.4947480944
  0
LWPOLYLINE
  5
32C
100
AcDbEntity
  8
RACCORDO
100
AcDbPolyline
 62
253
  6
CONTINUOUS
 90
10
 70
0
 10
-11.1000371035
 20
20.5937639686
 10
-11.1242571654
 20
20.5441921054
 10
-11.1457634331
 20
20.4935043199
 10
-11.1645063103
 20
20.4418614653
 10
-11.1803494624
 20
20.3893419231
 10
-11.1933510182
 20
20.336199189
 10
-11.2038023137
 20
20.2828175019
 10
-11.2118346479
 20
20.2293867135
 10
-11.2173803766
 20
20.1759465025
 10
-11.2204667629
 20
20.1226090944
  0
LWPOLYLINE
  5
32D
100
AcDbEntity
  8
RACCORDO
100
AcDbPolyline
 62
253
  6
CONTINUOUS
 90
13
 70
0
 10
-11.1001479108
 20
20.5937861954
 10
-11.0692302616
 20
20.6541609543
 10
-11.0343151055
 20
20.71308415
 10
-10.995441214
 20
20.7702698131
 10
-10.9525131213
 20
20.825421793
 10
-10.9057446909
 20
20.878227185
 10
-10.8556608689
 20
20.9284508683
 10
-10.8025139151
 20
20.976080811
 10
-10.7462630187
 20
21.0207019918
 10
-10.6871042543
 20
21.061541511
 10
-10.6253137382
 20
21.0982289198
 10
-10.5611211605
 20
21.1307903643
 10
-10.4948004642
 20
21.1590558354
  0
LINE
  5
32E
100
AcDbEntity
  8
RACCORDO
100
AcDbLine
 62
253
  6
CONTINUOUS
 10
-45.4953709266
 20
-25.1638668343
 11
-45.6666717766
 21
-25.1801071993
  0
LWPOLYLINE
  5
32F
100
AcDbEntity
  8
RACCORDO
100
AcDbPolyline
 62
253
  6
CONTINUOUS
 90
15
 70
0
 10
-45.2052774969
 20
-25.2843871993
 10
-45.260677487
 20
-25.2892898168
 10
-45.2874950335
 20
-25.2914977388
 10
-45.3134057897
 20
-25.2935168443
 10
-45.3381803954
 20
-25.2953292603
 10
-45.3615995474
 20
-25.2969189435
 10
-45.383455941
 20
-25.298271822
 10
-45.4035561049
 20
-25.2993759203
 10
-45.4217221137
 20
-25.300221465
 10
-45.4377931632
 20
-25.3008009714
 10
-45.4516269936
 20
-25.3011093097
 10
-45.4631011487
 20
-25.3011437506
 10
-45.4721140601
 20
-25.3009039891
 10
-45.478585946
 20
-25.3003921476
 10
-45.4824595179
 20
-25.2996127569
  0
LINE
  5
330
100
AcDbEntity
  8
RACCORDO
100
AcDbLine
 62
253
  6
CONTINUOUS
 10
-45.2181775375
 20
-25.1487336028
 11
-45.2735815138
 21
-25.1536073308
  0
LWPOLYLINE
  5
331
100
AcDbEntity
  8
RACCORDO
100
AcDbPolyline
 62
253
  6
CONTINUOUS
 90
13
 70
0
 10
-45.2735815138
 20
-25.1536073308
 10
-45.3263133435
 20
-25.1578093362
 10
-45.3510894754
 20
-25.1596109718
 10
-45.3745099642
 20
-25.1611911583
 10
-45.3963674844
 20
-25.1625359072
 10
-45.4164685466
 20
-25.1636333144
 10
-45.4346352097
 20
-25.1644736654
 10
-45.4507066568
 20
-25.165049521
 10
-45.4645406185
 20
-25.1653557836
 10
-45.4760146322
 20
-25.1653897422
 10
-45.4850271263
 20
-25.165151096
 10
-45.4914983194
 20
-25.1646419577
 10
-45.4953709266
 20
-25.1638668343
  0
LINE
  5
332
100
AcDbEntity
  8
RACCORDO
100
AcDbLine
 62
253
  6
CONTINUOUS
 10
-11.2204642636
 20
-23.2914284557
 11
-11.2802771839
 21
-23.2941337145
  0
LINE
  5
333
100
AcDbEntity
  8
RACCORDO
100
AcDbLine
 62
253
  6
CONTINUOUS
 10
-11.2802771839
 20
-23.2941337145
 11
-11.3445127293
 21
-23.2965503359
  0
LINE
  5
334
100
AcDbEntity
  8
RACCORDO
100
AcDbLine
 62
253
  6
CONTINUOUS
 10
-11.3445127293
 20
-23.2965503359
 11
-11.411919223
 21
-23.2986312376
  0
LINE
  5
335
100
AcDbEntity
  8
RACCORDO
100
AcDbLine
 62
7
  6
CONTINUOUS
 10
-11.2046080813
 20
-23.2909557558
 11
-11.2204937679
 21
-23.2913846182
  0
LINE
  5
336
100
AcDbEntity
  8
RACCORDO
100
AcDbLine
 62
7
  6
CONTINUOUS
 10
12.1392506441
 20
-23.2909508113
 11
12.1551363204
 21
-23.2913842098
  0
LINE
  5
337
100
AcDbEntity
  8
RACCORDO
100
AcDbLine
 62
253
  6
CONTINUOUS
 10
12.1551362121
 20
-23.2914293389
 11
12.214955381
 21
-23.2931249013
  0
LWPOLYLINE
  5
338
100
AcDbEntity
  8
RACCORDO
100
AcDbPolyline
 62
253
  6
CONTINUOUS
 90
12
 70
0
 10
46.2609558867
 20
-25.157809335
 10
46.2857320166
 20
-25.1596109705
 10
46.3091525035
 20
-25.1611911568
 10
46.3310100219
 20
-25.1625359056
 10
46.3511110823
 20
-25.1636333127
 10
46.3692777439
 20
-25.1644736635
 10
46.3853491898
 20
-25.165049519
 10
46.3991831504
 20
-25.1653557816
 10
46.4106571632
 20
-25.1653897401
 10
46.4196696568
 20
-25.1651510939
 10
46.4261408497
 20
-25.1646419556
 10
46.430013457
 20
-25.1638668322
  0
LWPOLYLINE
  5
339
100
AcDbEntity
  8
RACCORDO
100
AcDbPolyline
 62
253
  6
CONTINUOUS
 90
13
 70
0
 10
46.222137585
 20
-25.2914977388
 10
46.2480483412
 20
-25.2935168443
 10
46.2728229469
 20
-25.2953292603
 10
46.2962420989
 20
-25.2969189435
 10
46.3180984925
 20
-25.298271822
 10
46.3381986564
 20
-25.2993759203
 10
46.3563646652
 20
-25.300221465
 10
46.3724357147
 20
-25.3008009714
 10
46.3862695451
 20
-25.3011093097
 10
46.3977437002
 20
-25.3011437506
 10
46.4067566115
 20
-25.3009039891
 10
46.4132284975
 20
-25.3003921476
 10
46.4171020694
 20
-25.2996127569
  0
LINE
  5
33A
100
AcDbEntity
  8
RACCORDO
100
AcDbLine
 62
253
  6
CONTINUOUS
 10
46.2082240611
 20
-25.15360733
 11
46.2609558867
 21
-25.157809335
  0
LINE
  5
33B
100
AcDbEntity
  8
RACCORDO
100
AcDbLine
 62
253
  6
CONTINUOUS
 10
46.1528200885
 20
-25.1487336024
 11
46.2082240611
 21
-25.15360733
  0
LWPOLYLINE
  5
33C
100
AcDbEntity
  8
RACCORDO
100
AcDbPolyline
 62
253
  6
CONTINUOUS
 90
3
 70
0
 10
46.1399200485
 20
-25.2843871993
 10
46.1678330888
 20
-25.2869126227
 10
46.222137585
 20
-25.2914977388
  0
LINE
  5
33D
100
AcDbEntity
  8
RACCORDO
100
AcDbLine
 62
253
  6
CONTINUOUS
 10
46.4300134781
 20
-25.1638668343
 11
46.6013143281
 21
-25.1801071993
  0
LWPOLYLINE
  5
33E
100
AcDbEntity
  8
0
100
AcDbPolyline
 62
7
  6
CONTINUOUS
 90
22
 70
0
 10
5.3442175602
 20
-29.2138411742
 10
5.3686334241
 20
-29.2303778048
 10
5.3911135826
 20
-29.2487586126
 10
5.411739938
 20
-29.2686539536
 10
5.4307582085
 20
-29.2890749459
 10
5.4480881918
 20
-29.3098146164
 10
5.4638101043
 20
-29.3310799259
 10
5.4784102969
 20
-29.3525029112
 10
5.4919426668
 20
-29.3740071873
 10
5.5043533291
 20
-29.3956691353
 10
5.5159669595
 20
-29.4173499474
 10
5.5268307928
 20
-29.4390432724
 10
5.5368976038
 20
-29.4607554609
 10
5.5463503765
 20
-29.4823667605
 10
5.5552019055
 20
-29.503846447
 10
5.5634394046
 20
-29.5252252476
 10
5.5712074855
 20
-29.5464755896
 10
5.5784992742
 20
-29.5675636498
 10
5.5853216515
 20
-29.5885232551
 10
5.5918398594
 20
-29.6094283073
 10
5.5980420052
 20
-29.6302802327
 10
5.6039399857
 20
-29.6510776061
  0
LWPOLYLINE
  5
33F
100
AcDbEntity
  8
RACCORDO
100
AcDbPolyline
 62
253
  6
CONTINUOUS
 90
10
 70
0
 10
-11.0974364444
 20
-23.7679280975
 10
-11.1193549435
 20
-23.7156973142
 10
-11.1387840391
 20
-23.6629769557
 10
-11.1557490341
 20
-23.6098731039
 10
-11.1704051389
 20
-23.5564250985
 10
-11.1826487066
 20
-23.5027762403
 10
-11.1921492217
 20
-23.4492388608
 10
-11.1988603108
 20
-23.3960350568
 10
-11.2029879471
 20
-23.3432325218
 10
-11.20460927
 20
-23.2909558093
  0
LWPOLYLINE
  5
340
100
AcDbEntity
  8
RACCORDO
100
AcDbPolyline
 62
253
  6
CONTINUOUS
 90
10
 70
0
 10
-11.2204667495
 20
-23.2913838671
 10
-11.2173278947
 20
-23.3453654308
 10
-11.2116699879
 20
-23.3994501072
 10
-11.2034648723
 20
-23.453521526
 10
-11.1927771885
 20
-23.5075378386
 10
-11.1794764627
 20
-23.5613023022
 10
-11.1632779047
 20
-23.6144197005
 10
-11.1441285558
 20
-23.6666307724
 10
-11.1221643257
 20
-23.717855238
 10
-11.0974364444
 20
-23.7679280975
  0
LWPOLYLINE
  5
341
100
AcDbEntity
  8
RACCORDO
100
AcDbPolyline
 62
253
  6
CONTINUOUS
 90
28
 70
0
 10
-11.5161355836
 20
-23.3005994088
 10
-11.5124735799
 20
-23.3813665513
 10
-11.5041953891
 20
-23.4618875844
 10
-11.4913010826
 20
-23.5421625113
 10
-11.4737598924
 20
-23.6225860087
 10
-11.4516027233
 20
-23.7027634005
 10
-11.424922157
 20
-23.7815106857
 10
-11.3935879843
 20
-23.8587969947
 10
-11.3577305447
 20
-23.9346532532
 10
-11.3178332361
 20
-24.0079882
 10
-11.273867679
 20
-24.0786573093
 10
-11.2258623427
 20
-24.1468052037
 10
-11.174385877
 20
-24.2117743764
 10
-11.1195113551
 20
-24.2734541661
 10
-11.0611657413
 20
-24.3319553429
 10
-10.9996985005
 20
-24.3869525612
 10
-10.9350241875
 20
-24.4385083303
 10
-10.8672282387
 20
-24.4865602413
 10
-10.7969164206
 20
-24.5305955785
 10
-10.7239589568
 20
-24.5706017325
 10
-10.6484855608
 20
-24.6065914052
 10
-10.571491209
 20
-24.6380898523
 10
-10.4929038831
 20
-24.6649852598
 10
-10.4127954876
 20
-24.6873895147
 10
-10.3323768679
 20
-24.7051634225
 10
-10.2520515927
 20
-24.7182605985
 10
-10.1714159556
 20
-24.7267274672
 10
-10.0904698835
 20
-24.7305640394
  0
LWPOLYLINE
  5
342
100
AcDbEntity
  8
SUPERFICI
100
AcDbPolyline
 62
7
  6
CONTINUOUS
 90
25
 70
0
 10
-10.9026456966
 20
-23.2843871993
 10
-10.900770437
 20
-23.3379776794
 10
-10.8954007026
 20
-23.3913275237
 10
-10.8865596107
 20
-23.4442093638
 10
-10.8742846283
 20
-23.4963976132
 10
-10.8586286817
 20
-23.5476699366
 10
-10.8396598044
 20
-23.5978084611
 10
-10.8174585988
 20
-23.6466002436
 10
-10.792119791
 20
-23.6938367369
 10
-10.763753233
 20
-23.739315773
 10
-10.7324799675
 20
-23.7828438811
 10
-10.6984332058
 20
-23.8242357914
 10
-10.6617598538
 20
-23.8633147138
 10
-10.6226167475
 20
-23.8999143086
 10
-10.581170203
 20
-23.9338794429
 10
-10.5375970425
 20
-23.9650662797
 10
-10.4920825388
 20
-23.9933425241
 10
-10.4448204644
 20
-24.0185877591
 10
-10.3960126052
 20
-24.0406946093
 10
-10.3458667199
 20
-24.059569208
 10
-10.2945958939
 20
-24.0751312664
 10
-10.2424184142
 20
-24.0873144327
 10
-10.1895562552
 20
-24.0960667909
 10
-10.1362341122
 20
-24.1013510229
 10
-10.0826787242
 20
-24.1031444406
  0
LINE
  5
343
100
AcDbEntity
  8
RACCORDO
100
AcDbLine
 62
253
  6
CONTINUOUS
 10
-10.0826787241
 20
21.2518531417
 11
-10.0863510707
 21
21.3819308019
  0
LWPOLYLINE
  5
344
100
AcDbEntity
  8
RACCORDO
100
AcDbPolyline
 62
253
  6
CONTINUOUS
 90
3
 70
0
 10
-10.0863510707
 20
21.3819308019
 10
-10.0897124578
 20
21.525288748
 10
-10.0904699312
 20
21.5617897828
  0
LINE
  5
345
100
AcDbEntity
  8
RACCORDO
100
AcDbLine
 62
253
  6
CONTINUOUS
 10
-11.2046080813
 20
-23.2909557558
 11
-11.2155727263
 21
-17.7704626458
  0
LINE
  5
346
100
AcDbEntity
  8
RACCORDO
100
AcDbLine
 62
253
  6
CONTINUOUS
 10
-10.9920770024
 20
-23.284378925
 11
-11.0030479498
 21
-17.7651781923
  0
LINE
  5
347
100
AcDbEntity
  8
0
100
AcDbLine
 62
7
  6
CONTINUOUS
 10
-10.9026456966
 20
-23.2843871993
 11
-10.9164121377
 21
-16.0533483749
  0
LINE
  5
348
100
AcDbEntity
  8
RACCORDO
100
AcDbLine
 62
253
  6
CONTINUOUS
 10
-11.5295370782
 20
-16.2855815794
 11
-11.5161355836
 21
-23.3005994088
  0
LINE
  5
349
100
AcDbEntity
  8
RACCORDO
100
AcDbLine
 62
253
  6
CONTINUOUS
 10
-11.233885334
 20
-16.2824708095
 11
-11.2204937679
 21
-23.2913846182
  0
LINE
  5
34A
100
AcDbEntity
  8
RACCORDO
100
AcDbLine
 62
253
  6
CONTINUOUS
 10
-11.2155727263
 20
-17.7704626458
 11
-11.2233441263
 21
-12.2460312147
  0
LINE
  5
34B
100
AcDbEntity
  8
RACCORDO
100
AcDbLine
 62
253
  6
CONTINUOUS
 10
-11.0030479498
 20
-17.7651781923
 11
-11.0108246713
 21
-12.2424894675
  0
LINE
  5
34C
100
AcDbEntity
  8
RACCORDO
100
AcDbLine
 62
253
  6
CONTINUOUS
 10
-11.5382644149
 20
-8.6222412828
 11
-11.5295370782
 21
-16.2855815794
  0
LINE
  5
34D
100
AcDbEntity
  8
RACCORDO
100
AcDbLine
 62
253
  6
CONTINUOUS
 10
-11.2426123321
 20
-8.6207536941
 11
-11.233885334
 21
-16.2824708095
  0
LINE
  5
34E
100
AcDbEntity
  8
0
100
AcDbLine
 62
7
  6
CONTINUOUS
 10
-10.9164121377
 20
-16.0533483749
 11
-10.9246725042
 21
-8.8198238325
  0
LINE
  5
34F
100
AcDbEntity
  8
RACCORDO
100
AcDbLine
 62
253
  6
CONTINUOUS
 10
-11.2233441263
 20
-12.2460312147
 11
-11.2280848256
 21
-6.3991233525
  0
LINE
  5
350
100
AcDbEntity
  8
RACCORDO
100
AcDbLine
 62
253
  6
CONTINUOUS
 10
-11.0108246713
 20
-12.2424894675
 11
-11.0155581726
 21
-6.397661955
  0
LINE
  5
351
100
AcDbEntity
  8
0
100
AcDbLine
 62
7
  6
CONTINUOUS
 10
-10.9246725042
 20
-8.8198238325
 11
-10.9274264689
 21
-1.5843871993
  0
LINE
  5
352
100
AcDbEntity
  8
RACCORDO
100
AcDbLine
 62
253
  6
CONTINUOUS
 10
-11.2280848256
 20
-6.3991233525
 11
-11.2292994819
 21
-1.5843871993
  0
LINE
  5
353
100
AcDbEntity
  8
RACCORDO
100
AcDbLine
 62
253
  6
CONTINUOUS
 10
-11.0155581726
 20
-6.397661955
 11
-11.0167729327
 21
-1.5843871993
  0
LINE
  5
354
100
AcDbEntity
  8
RACCORDO
100
AcDbLine
 62
253
  6
CONTINUOUS
 10
-11.5406327955
 20
0.7083904325
 11
-11.5382644149
 21
-8.6222412828
  0
LINE
  5
355
100
AcDbEntity
  8
RACCORDO
100
AcDbLine
 62
253
  6
CONTINUOUS
 10
-11.2449236924
 20
0.7079863964
 11
-11.2426123321
 21
-8.6207536941
  0
LINE
  5
356
100
AcDbEntity
  8
RACCORDO
100
AcDbLine
 62
253
  6
CONTINUOUS
 10
-10.0826787242
 20
-24.1031444406
 11
-10.0826527988
 21
-24.4206300055
  0
LINE
  5
357
100
AcDbEntity
  8
RACCORDO
100
AcDbLine
 62
253
  6
CONTINUOUS
 10
-11.2292994819
 20
-1.5843871993
 11
-11.2276763279
 21
3.9816643204
  0
LINE
  5
358
100
AcDbEntity
  8
RACCORDO
100
AcDbLine
 62
253
  6
CONTINUOUS
 10
-11.0167729327
 20
-1.5843871993
 11
-11.0151496183
 21
3.9797398054
  0
LINE
  5
359
100
AcDbEntity
  8
0
100
AcDbLine
 62
7
  6
CONTINUOUS
 10
-10.9274264689
 20
-1.5843871993
 11
-10.9246725042
 21
5.6510494339
  0
LINE
  5
35A
100
AcDbEntity
  8
RACCORDO
100
AcDbLine
 62
253
  6
CONTINUOUS
 10
-11.5359510762
 20
8.0425760315
 11
-11.5406327955
 21
0.7083904325
  0
LINE
  5
35B
100
AcDbEntity
  8
RACCORDO
100
AcDbLine
 62
253
  6
CONTINUOUS
 10
-11.2403535234
 20
8.0407189934
 11
-11.2449236924
 21
0.7079863964
  0
LINE
  5
35C
100
AcDbEntity
  8
RACCORDO
100
AcDbLine
 62
253
  6
CONTINUOUS
 10
-11.2276763279
 20
3.9816643204
 11
-11.2231206744
 21
9.2753000347
  0
LINE
  5
35D
100
AcDbEntity
  8
RACCORDO
100
AcDbLine
 62
253
  6
CONTINUOUS
 10
-11.0151496183
 20
3.9797398054
 11
-11.010593527
 21
9.2715442417
  0
LINE
  5
35E
100
AcDbEntity
  8
0
100
AcDbLine
 62
7
  6
CONTINUOUS
 10
-10.9246725042
 20
5.6510494339
 11
-10.9164121377
 21
12.8845739763
  0
LINE
  5
35F
100
AcDbEntity
  8
RACCORDO
100
AcDbLine
 62
253
  6
CONTINUOUS
 10
-11.2231206744
 20
9.2753000347
 11
-11.2156275189
 21
14.5693879268
  0
LINE
  5
360
100
AcDbEntity
  8
RACCORDO
100
AcDbLine
 62
253
  6
CONTINUOUS
 10
-11.010593527
 20
9.2715442417
 11
-11.0030992318
 21
14.564039162
  0
LINE
  5
361
100
AcDbEntity
  8
RACCORDO
100
AcDbLine
 62
253
  6
CONTINUOUS
 10
-10.0826787242
 20
20.9343700421
 11
-10.0826526864
 21
21.2518556085
  0
LINE
  5
362
100
AcDbEntity
  8
RACCORDO
100
AcDbLine
 62
253
  6
CONTINUOUS
 10
-11.5254688533
 20
15.5840419873
 11
-11.5359510762
 21
8.0425760315
  0
LINE
  5
363
100
AcDbEntity
  8
RACCORDO
100
AcDbLine
 62
253
  6
CONTINUOUS
 10
-11.2297641638
 20
15.5793383704
 11
-11.2403535234
 21
8.0407189934
  0
LINE
  5
364
100
AcDbEntity
  8
0
100
AcDbLine
 62
7
  6
CONTINUOUS
 10
-10.9164121377
 20
12.8845739763
 11
-10.9026456966
 21
20.1156128007
  0
LINE
  5
365
100
AcDbEntity
  8
RACCORDO
100
AcDbLine
 62
253
  6
CONTINUOUS
 10
-11.5161355724
 20
20.131825119
 11
-11.5254688533
 21
15.5840419873
  0
LINE
  5
366
100
AcDbEntity
  8
RACCORDO
100
AcDbLine
 62
253
  6
CONTINUOUS
 10
-11.220493769
 20
20.1226097675
 11
-11.2297641638
 21
15.5793383704
  0
LINE
  5
367
100
AcDbEntity
  8
RACCORDO
100
AcDbLine
 62
253
  6
CONTINUOUS
 10
-11.2156275189
 20
14.5693879268
 11
-11.2046079798
 21
20.122225979
  0
LINE
  5
368
100
AcDbEntity
  8
RACCORDO
100
AcDbLine
 62
253
  6
CONTINUOUS
 10
-11.0030992318
 20
14.564039162
 11
-10.9920769797
 21
20.115615646
  0
LINE
  5
369
100
AcDbEntity
  8
RACCORDO
100
AcDbLine
 62
253
  6
CONTINUOUS
 10
-10.0872325076
 20
-24.5857632989
 11
-10.0904698835
 21
-24.7305640394
  0
LWPOLYLINE
  5
36A
100
AcDbEntity
  8
RACCORDO
100
AcDbPolyline
 62
253
  6
CONTINUOUS
 90
3
 70
0
 10
-10.0826787242
 20
-24.4206296444
 10
-10.0836092159
 20
-24.4512723168
 10
-10.0872325076
 20
-24.5857632989
  0
LWPOLYLINE
  5
36B
100
AcDbEntity
  8
RACCORDO
100
AcDbPolyline
 62
253
  6
CONTINUOUS
 90
37
 70
0
 10
-10.9920826203
 20
20.1156156462
 10
-10.9905199249
 20
20.1668361988
 10
-10.986049721
 20
20.2181065526
 10
-10.97864868
 20
20.2692592092
 10
-10.9682711343
 20
20.3202586437
 10
-10.9549300809
 20
20.3707920993
 10
-10.9387745224
 20
20.4202909512
 10
-10.9198575038
 20
20.4686784127
 10
-10.8982944088
 20
20.5157307243
 10
-10.8745107607
 20
20.5607348096
 10
-10.848740907
 20
20.6035654713
 10
-10.8211558356
 20
20.6442211086
 10
-10.792248526
 20
20.6822895877
 10
-10.7623533464
 20
20.717694416
 10
-10.7316258745
 20
20.7505821065
 10
-10.7003444087
 20
20.7809522244
 10
-10.6687847009
 20
20.8088279434
 10
-10.6370862072
 20
20.8343549348
 10
-10.6052950403
 20
20.857724213
 10
-10.573576218
 20
20.8790162002
 10
-10.5420639382
 20
20.898330532
 10
-10.5107131106
 20
20.9158580839
 10
-10.47961734
 20
20.9316870806
 10
-10.4488915815
 20
20.9458926256
 10
-10.4184896392
 20
20.958614822
 10
-10.3884622863
 20
20.9699362185
 10
-10.3589061123
 20
20.9799201612
 10
-10.3298245343
 20
20.9886589695
 10
-10.3013359506
 20
20.9962074035
 10
-10.2734299697
 20
21.0026551664
 10
-10.2459010968
 20
21.0081177508
 10
-10.2189684332
 20
21.0126145402
 10
-10.192484214
 20
21.0162315932
 10
-10.1656727233
 20
21.0190901113
 10
-10.1382861801
 20
21.0211833246
 10
-10.1106155315
 20
21.0224556512
 10
-10.0826854218
 20
21.0228845507
  0
LWPOLYLINE
  5
36C
100
AcDbEntity
  8
RACCORDO
100
AcDbPolyline
 62
253
  6
CONTINUOUS
 90
10
 70
0
 10
-11.2046089257
 20
20.1222260432
 10
-11.2029251175
 20
20.1755670548
 10
-11.1986793235
 20
20.2289927969
 10
-11.1918559473
 20
20.2823797834
 10
-11.1823097764
 20
20.3356659486
 10
-11.1701500655
 20
20.3886435958
 10
-11.1557712932
 20
20.4410234469
 10
-11.1393372867
 20
20.4926876561
 10
-11.1207491449
 20
20.5436249327
 10
-11.1000371035
 20
20.5937639686
  0
LWPOLYLINE
  5
36D
100
AcDbEntity
  8
0
100
AcDbPolyline
 62
7
  6
CONTINUOUS
 90
25
 70
0
 10
-10.9026456966
 20
20.1156128007
 10
-10.900770437
 20
20.1692032808
 10
-10.8954007026
 20
20.2225531251
 10
-10.8865596107
 20
20.2754349653
 10
-10.8742846283
 20
20.3276232146
 10
-10.8586286817
 20
20.378895538
 10
-10.8396598044
 20
20.4290340625
 10
-10.8174585988
 20
20.477825845
 10
-10.792119791
 20
20.5250623384
 10
-10.763753233
 20
20.5705413744
 10
-10.7324799675
 20
20.6140694825
 10
-10.6984332058
 20
20.6554613928
 10
-10.6617598538
 20
20.6945403152
 10
-10.6226167475
 20
20.73113991
 10
-10.581170203
 20
20.7651050443
 10
-10.5375970425
 20
20.7962918811
 10
-10.4920825388
 20
20.8245681255
 10
-10.4448204644
 20
20.8498133606
 10
-10.3960126052
 20
20.8719202108
 10
-10.3458667199
 20
20.8907948094
 10
-10.2945958939
 20
20.9063568678
 10
-10.2424184142
 20
20.9185400341
 10
-10.1895562552
 20
20.9272923923
 10
-10.1362341122
 20
20.9325766243
 10
-10.0826787242
 20
20.9343700421
  0
LINE
  5
36E
100
AcDbEntity
  8
0
100
AcDbLine
 62
7
  6
CONTINUOUS
 10
-0.2471657242
 20
-30.4921881993
 11
-0.9327467242
 21
-28.6640341993
  0
LINE
  5
36F
100
AcDbEntity
  8
0
100
AcDbLine
 62
7
  6
CONTINUOUS
 10
-0.7812287242
 20
-27.6924851993
 11
-0.2029927242
 21
-29.2468891993
  0
LINE
  5
370
100
AcDbEntity
  8
0
100
AcDbLine
 62
7
  6
CONTINUOUS
 10
-4.1487857242
 20
-30.4921881993
 11
-5.0363467242
 21
-27.6924851993
  0
LINE
  5
371
100
AcDbEntity
  8
0
100
AcDbLine
 62
7
  6
CONTINUOUS
 10
-4.4014987242
 20
-27.6924851993
 11
-3.8678247242
 21
-29.6196071993
  0
LWPOLYLINE
  5
372
100
AcDbEntity
  8
0
100
AcDbPolyline
 62
7
  6
CONTINUOUS
 90
19
 70
0
 10
5.0087233348
 20
-29.643050144
 10
4.9994550368
 20
-29.6202897098
 10
4.9890494751
 20
-29.5982274222
 10
4.9775066455
 20
-29.5768632916
 10
4.96481327
 20
-29.5561038884
 10
4.9509826191
 20
-29.5360426606
 10
4.9360545141
 20
-29.5169599372
 10
4.9200423394
 20
-29.4988216593
 10
4.9029327094
 20
-29.4816619092
 10
4.8847252941
 20
-29.4658632346
 10
4.8653326072
 20
-29.4514198909
 10
4.8448421416
 20
-29.4383376493
 10
4.823516043
 20
-29.4270163365
 10
4.8012859137
 20
-29.4176014245
 10
4.7782201697
 20
-29.4099474655
 10
4.7547861829
 20
-29.4040179065
 10
4.7311397516
 20
-29.3998005669
 10
4.7071250996
 20
-29.3973076384
 10
4.682742238
 20
-29.3965391241
  0
LINE
  5
373
100
AcDbEntity
  8
0
100
AcDbLine
 62
7
  6
CONTINUOUS
 10
2.7567112758
 20
-27.6924851993
 11
3.6157292758
 21
-30.4921881993
  0
LINE
  5
374
100
AcDbEntity
  8
0
100
AcDbLine
 62
7
  6
CONTINUOUS
 10
2.9997872758
 20
-30.4921881993
 11
2.8483952758
 21
-29.9332681993
  0
LINE
  5
375
100
AcDbEntity
  8
0
100
AcDbLine
 62
7
  6
CONTINUOUS
 10
2.7316012758
 20
-29.5007781993
 11
2.4630582758
 21
-28.4617721993
  0
LINE
  5
376
100
AcDbEntity
  8
0
100
AcDbLine
 62
7
  6
CONTINUOUS
 10
0.9596292758
 20
-27.6924851993
 11
1.2214332758
 21
-30.4921881993
  0
LINE
  5
377
100
AcDbEntity
  8
0
100
AcDbLine
 62
7
  6
CONTINUOUS
 10
0.6497272758
 20
-30.4921881993
 11
0.5296582758
 21
-28.6716561993
  0
LINE
  5
378
100
AcDbEntity
  8
0
100
AcDbLine
 62
7
  6
CONTINUOUS
 10
-2.5169637242
 20
-30.4921881993
 11
-2.5169637242
 21
-27.6923171993
  0
LINE
  5
379
100
AcDbEntity
  8
0
100
AcDbLine
 62
7
  6
CONTINUOUS
 10
-1.9325557242
 20
-27.6923171993
 11
-1.9325557242
 21
-30.4921881993
  0
LINE
  5
37A
100
AcDbEntity
  8
RACCORDO
100
AcDbLine
 62
253
  6
CONTINUOUS
 10
-11.0167729327
 20
-1.5843871993
 11
-11.5408446383
 21
-1.5843871993
  0
LINE
  5
37B
100
AcDbEntity
  8
RACCORDO
100
AcDbLine
 62
253
  6
CONTINUOUS
 10
11.9514154842
 20
-1.5843871993
 11
12.4754871898
 21
-1.5843871993
  0
LWPOLYLINE
  5
37C
100
AcDbEntity
  8
0
100
AcDbPolyline
 62
7
  6
CONTINUOUS
 90
8
 70
0
 10
5.0980877499
 20
-29.9171587044
 10
5.0864184864
 20
-29.8776583425
 10
5.0744965688
 20
-29.8382794329
 10
5.0623217338
 20
-29.7990258895
 10
5.0496785412
 20
-29.7598781429
 10
5.0364951739
 20
-29.7208296719
 10
5.0228434398
 20
-29.6818870045
 10
5.0087233348
 20
-29.643050144
  0
LINE
  5
37D
100
AcDbEntity
  8
0
100
AcDbLine
 62
7
  6
CONTINUOUS
 10
5.2643368976
 20
-30.4921885537
 11
5.1666517229
 21
-30.157358208
  0
LWPOLYLINE
  5
37E
100
AcDbEntity
  8
0
100
AcDbPolyline
 62
7
  6
CONTINUOUS
 90
4
 70
0
 10
5.1666517229
 20
-30.157358208
 10
5.1435488668
 20
-30.0765939641
 10
5.132234659
 20
-30.0365020593
 10
5.0980877499
 20
-29.9171587044
  0
LWPOLYLINE
  5
37F
100
AcDbEntity
  8
0
100
AcDbPolyline
 62
7
  6
CONTINUOUS
 90
3
 70
0
 10
5.6039399857
 20
-29.6510776061
 10
5.6154931973
 20
-29.6927407728
 10
5.6211484292
 20
-29.7136065651
  0
LINE
  5
380
100
AcDbEntity
  8
0
100
AcDbLine
 62
7
  6
CONTINUOUS
 10
5.6211484292
 20
-29.7136065651
 11
5.6960831723
 21
-29.9946023771
  0
LINE
  5
381
100
AcDbEntity
  8
0
100
AcDbLine
 62
7
  6
CONTINUOUS
 10
5.6960831723
 20
-29.9946023771
 11
5.8264694877
 21
-30.4921885537
  0
LWPOLYLINE
  5
382
100
AcDbEntity
  8
0
100
AcDbPolyline
 62
7
  6
CONTINUOUS
 90
22
 70
0
 10
5.13797342
 20
-28.5031729249
 10
5.1365582063
 20
-28.4779215383
 10
5.1334417237
 20
-28.4530444738
 10
5.1286239618
 20
-28.4285417371
 10
5.122060413
 20
-28.4042903929
 10
5.1137955649
 20
-28.3804133868
 10
5.1039629039
 20
-28.3572795515
 10
5.0925699759
 20
-28.3348750559
 10
5.0796092222
 20
-28.3132137519
 10
5.0651914772
 20
-28.2927060063
 10
5.0492609237
 20
-28.2734045407
 10
5.0318733751
 20
-28.2552566619
 10
5.013307119
 20
-28.2385146215
 10
4.9935214557
 20
-28.2232515334
 10
4.9725570911
 20
-28.2093943112
 10
4.9508144267
 20
-28.196975907
 10
4.9283151063
 20
-28.185999445
 10
4.9050374992
 20
-28.1764618212
 10
4.8813170984
 20
-28.1683866432
 10
4.8572657411
 20
-28.1617817846
 10
4.8327716073
 20
-28.1566393848
 10
4.8078347059
 20
-28.1529594482
  0
LINE
  5
383
100
AcDbEntity
  8
0
100
AcDbLine
 62
7
  6
CONTINUOUS
 10
3.7873400781
 20
-30.4921885537
 11
3.7873400781
 21
-27.7251945403
  0
LINE
  5
384
100
AcDbEntity
  8
0
100
AcDbLine
 62
7
  6
CONTINUOUS
 10
4.3500185298
 20
-28.1694419952
 11
4.3500185298
 21
-28.9380152859
  0
LINE
  5
385
100
AcDbEntity
  8
0
100
AcDbLine
 62
7
  6
CONTINUOUS
 10
4.3693966206
 20
-29.3965391241
 11
4.3693966206
 21
-30.4921885537
  0
LINE
  5
386
100
AcDbEntity
  8
0
100
AcDbLine
 62
7
  6
CONTINUOUS
 10
5.2898244406
 20
-29.1687678273
 11
5.2898244406
 21
-29.1853116362
  0
LINE
  5
387
100
AcDbEntity
  8
0
100
AcDbLine
 62
7
  6
CONTINUOUS
 10
-0.9327467242
 20
-28.6640341993
 11
-1.0588617242
 21
-30.4921881993
  0
LINE
  5
388
100
AcDbEntity
  8
0
100
AcDbLine
 62
7
  6
CONTINUOUS
 10
-1.6179507242
 20
-30.4921881993
 11
-1.3651537242
 21
-27.6924851993
  0
LINE
  5
389
100
AcDbEntity
  8
0
100
AcDbLine
 62
7
  6
CONTINUOUS
 10
-3.8678247242
 20
-29.6196071993
 11
-3.3178477242
 21
-27.6924851993
  0
LINE
  5
38A
100
AcDbEntity
  8
0
100
AcDbLine
 62
7
  6
CONTINUOUS
 10
2.4630582758
 20
-28.4617721993
 11
2.1720722758
 21
-29.5007781993
  0
LINE
  5
38B
100
AcDbEntity
  8
0
100
AcDbLine
 62
7
  6
CONTINUOUS
 10
-2.7338387242
 20
-27.6924851993
 11
-3.6337757242
 21
-30.4921881993
  0
LWPOLYLINE
  5
38C
100
AcDbEntity
  8
RACCORDO
100
AcDbPolyline
 62
253
  6
CONTINUOUS
 90
10
 70
0
 10
12.1551093174
 20
20.1226094314
 10
12.1525854175
 20
20.1687279231
 10
12.1482231041
 20
20.214937174
 10
12.1420044909
 20
20.2611649541
 10
12.1340306687
 20
20.3073888117
 10
12.1241594546
 20
20.3534886742
 10
12.1120280733
 20
20.3991981109
 10
12.0975303937
 20
20.4443252974
 10
12.0808050978
 20
20.4888051773
 10
12.0618854167
 20
20.5325170906
  0
LWPOLYLINE
  5
38D
100
AcDbEntity
  8
RACCORDO
100
AcDbPolyline
 62
253
  6
CONTINUOUS
 90
28
 70
0
 10
12.4507781353
 20
20.1318250082
 10
12.4471161315
 20
20.2125921516
 10
12.4388379407
 20
20.2931131854
 10
12.4259436341
 20
20.3733881127
 10
12.4084024439
 20
20.4538116103
 10
12.3862452748
 20
20.533989002
 10
12.3595647085
 20
20.6127362871
 10
12.3282305358
 20
20.6900225961
 10
12.2923730962
 20
20.7658788546
 10
12.2524757876
 20
20.8392138014
 10
12.2085102305
 20
20.9098829108
 10
12.1605048943
 20
20.9780308051
 10
12.1090284285
 20
21.0429999778
 10
12.0541539066
 20
21.1046797675
 10
11.9958082928
 20
21.1631809443
 10
11.934341052
 20
21.2181781626
 10
11.869666739
 20
21.2697339317
 10
11.8018707902
 20
21.3177858428
 10
11.7315589721
 20
21.3618211799
 10
11.6586015083
 20
21.4018273339
 10
11.5831281123
 20
21.4378170066
 10
11.5061337606
 20
21.4693154538
 10
11.4275464346
 20
21.4962108612
 10
11.3474380391
 20
21.5186151161
 10
11.2670194194
 20
21.5363890239
 10
11.1866941443
 20
21.5494861999
 10
11.1060585071
 20
21.5579530686
 10
11.025112435
 20
21.5617896408
  0
LWPOLYLINE
  5
38E
100
AcDbEntity
  8
SUPERFICI
100
AcDbPolyline
 62
7
  6
CONTINUOUS
 90
25
 70
0
 10
11.8372882481
 20
20.1156128007
 10
11.8354129885
 20
20.1692032808
 10
11.8300432541
 20
20.2225531251
 10
11.8212021622
 20
20.2754349653
 10
11.8089271798
 20
20.3276232146
 10
11.7932712332
 20
20.378895538
 10
11.7743023559
 20
20.4290340625
 10
11.7521011503
 20
20.477825845
 10
11.7267623425
 20
20.5250623384
 10
11.6983957845
 20
20.5705413744
 10
11.667122519
 20
20.6140694825
 10
11.6330757573
 20
20.6554613928
 10
11.5964024054
 20
20.6945403152
 10
11.557259299
 20
20.73113991
 10
11.5158127545
 20
20.7651050443
 10
11.472239594
 20
20.7962918811
 10
11.4267250903
 20
20.8245681255
 10
11.3794630159
 20
20.8498133606
 10
11.3306551567
 20
20.8719202108
 10
11.2805092714
 20
20.8907948094
 10
11.2292384454
 20
20.9063568678
 10
11.1770609657
 20
20.9185400341
 10
11.1241988067
 20
20.9272923923
 10
11.0708766637
 20
20.9325766243
 10
11.0173212758
 20
20.9343700421
  0
LINE
  5
38F
100
AcDbEntity
  8
RACCORDO
100
AcDbLine
 62
253
  6
CONTINUOUS
 10
11.0173212757
 20
-24.4206275403
 11
11.0209936222
 21
-24.5507052005
  0
LWPOLYLINE
  5
390
100
AcDbEntity
  8
RACCORDO
100
AcDbPolyline
 62
253
  6
CONTINUOUS
 90
3
 70
0
 10
11.0209936222
 20
-24.5507052005
 10
11.0243550093
 20
-24.6940631466
 10
11.0251124827
 20
-24.7305641813
  0
LINE
  5
391
100
AcDbEntity
  8
SUPERFICI
100
AcDbLine
 62
7
  6
CONTINUOUS
 10
11.8510546892
 20
12.8845739763
 11
11.8372882481
 21
20.1156128007
  0
LINE
  5
392
100
AcDbEntity
  8
RACCORDO
100
AcDbLine
 62
253
  6
CONTINUOUS
 10
12.1392507331
 20
20.1221372985
 11
12.1500551327
 21
14.6958481274
  0
LINE
  5
393
100
AcDbEntity
  8
RACCORDO
100
AcDbLine
 62
253
  6
CONTINUOUS
 10
11.9267252519
 20
20.1155647479
 11
11.9375395287
 21
14.683010808
  0
LINE
  5
394
100
AcDbEntity
  8
RACCORDO
100
AcDbLine
 62
253
  6
CONTINUOUS
 10
12.1685298998
 20
13.112391987
 11
12.1551363193
 21
20.1226102583
  0
LINE
  5
395
100
AcDbEntity
  8
RACCORDO
100
AcDbLine
 62
253
  6
CONTINUOUS
 10
12.464181644
 20
13.115502481
 11
12.4507781353
 21
20.1318250082
  0
LINE
  5
396
100
AcDbEntity
  8
RACCORDO
100
AcDbLine
 62
253
  6
CONTINUOUS
 10
11.9375395287
 20
14.683010808
 11
11.9452486896
 21
9.2604607889
  0
LINE
  5
397
100
AcDbEntity
  8
RACCORDO
100
AcDbLine
 62
253
  6
CONTINUOUS
 10
12.1500551327
 20
14.6958481274
 11
12.1577703694
 21
9.2690203451
  0
LINE
  5
398
100
AcDbEntity
  8
SUPERFICI
100
AcDbLine
 62
7
  6
CONTINUOUS
 10
11.8593150557
 20
5.6510494339
 11
11.8510546892
 21
12.8845739763
  0
LINE
  5
399
100
AcDbEntity
  8
RACCORDO
100
AcDbLine
 62
253
  6
CONTINUOUS
 10
12.1772538175
 20
5.4534316913
 11
12.1685298998
 21
13.112391987
  0
LINE
  5
39A
100
AcDbEntity
  8
RACCORDO
100
AcDbLine
 62
253
  6
CONTINUOUS
 10
12.4729059003
 20
5.4549195873
 11
12.464181644
 21
13.115502481
  0
LINE
  5
39B
100
AcDbEntity
  8
RACCORDO
100
AcDbLine
 62
253
  6
CONTINUOUS
 10
11.9452486896
 20
9.2604607889
 11
11.9498739152
 21
3.8378382834
  0
LINE
  5
39C
100
AcDbEntity
  8
RACCORDO
100
AcDbLine
 62
253
  6
CONTINUOUS
 10
12.1577703694
 20
9.2690203451
 11
12.1623992494
 21
3.8421200142
  0
LINE
  5
39D
100
AcDbEntity
  8
SUPERFICI
100
AcDbLine
 62
7
  6
CONTINUOUS
 10
11.8620690204
 20
-1.5843871993
 11
11.8593150557
 21
5.6510494339
  0
LINE
  5
39E
100
AcDbEntity
  8
RACCORDO
100
AcDbLine
 62
253
  6
CONTINUOUS
 10
11.0172953501
 20
21.2518556069
 11
11.0173212758
 21
20.9343700421
  0
LINE
  5
39F
100
AcDbEntity
  8
RACCORDO
100
AcDbLine
 62
253
  6
CONTINUOUS
 10
11.9498739152
 20
3.8378382834
 11
11.9514154842
 21
-1.5843871993
  0
LINE
  5
3A0
100
AcDbEntity
  8
RACCORDO
100
AcDbLine
 62
253
  6
CONTINUOUS
 10
12.1623992494
 20
3.8421200142
 11
12.1639420334
 21
-1.5843871993
  0
LINE
  5
3A1
100
AcDbEntity
  8
RACCORDO
100
AcDbLine
 62
253
  6
CONTINUOUS
 10
12.1795664351
 20
-3.8759619377
 11
12.1772538175
 21
5.4534316913
  0
LINE
  5
3A2
100
AcDbEntity
  8
RACCORDO
100
AcDbLine
 62
253
  6
CONTINUOUS
 10
12.4752759517
 20
-3.8763657114
 11
12.4729059003
 21
5.4549195873
  0
LINE
  5
3A3
100
AcDbEntity
  8
RACCORDO
100
AcDbLine
 62
253
  6
CONTINUOUS
 10
11.9514154842
 20
-1.5843871993
 11
11.9495870318
 21
-7.5005987738
  0
LINE
  5
3A4
100
AcDbEntity
  8
RACCORDO
100
AcDbLine
 62
253
  6
CONTINUOUS
 10
12.1639420334
 20
-1.5843871993
 11
12.1621069289
 21
-7.5026134672
  0
LINE
  5
3A5
100
AcDbEntity
  8
SUPERFICI
100
AcDbLine
 62
7
  6
CONTINUOUS
 10
11.8593150557
 20
-8.8198238325
 11
11.8620690204
 21
-1.5843871993
  0
LINE
  5
3A6
100
AcDbEntity
  8
RACCORDO
100
AcDbLine
 62
253
  6
CONTINUOUS
 10
12.1749959623
 20
-11.209599358
 11
12.1795664351
 21
-3.8759619377
  0
LINE
  5
3A7
100
AcDbEntity
  8
RACCORDO
100
AcDbLine
 62
253
  6
CONTINUOUS
 10
12.4705930888
 20
-11.2114564047
 11
12.4752759517
 21
-3.8763657114
  0
LINE
  5
3A8
100
AcDbEntity
  8
RACCORDO
100
AcDbLine
 62
253
  6
CONTINUOUS
 10
11.9495870318
 20
-7.5005987738
 11
11.9444196455
 21
-13.139246799
  0
LINE
  5
3A9
100
AcDbEntity
  8
RACCORDO
100
AcDbLine
 62
253
  6
CONTINUOUS
 10
12.1621069289
 20
-7.5026134672
 11
12.1569420859
 21
-13.1432860244
  0
LINE
  5
3AA
100
AcDbEntity
  8
RACCORDO
100
AcDbLine
 62
253
  6
CONTINUOUS
 10
11.0173212758
 20
-24.1031444406
 11
11.017295238
 21
-24.4206300071
  0
LINE
  5
3AB
100
AcDbEntity
  8
SUPERFICI
100
AcDbLine
 62
7
  6
CONTINUOUS
 10
11.8510546892
 20
-16.0533483749
 11
11.8593150557
 21
-8.8198238325
  0
LINE
  5
3AC
100
AcDbEntity
  8
RACCORDO
100
AcDbLine
 62
253
  6
CONTINUOUS
 10
11.9444196455
 20
-13.139246799
 11
11.9358440005
 21
-18.8168198765
  0
LINE
  5
3AD
100
AcDbEntity
  8
RACCORDO
100
AcDbLine
 62
253
  6
CONTINUOUS
 10
12.1569420859
 20
-13.1432860244
 11
12.1483724339
 21
-18.8225306456
  0
LINE
  5
3AE
100
AcDbEntity
  8
RACCORDO
100
AcDbLine
 62
253
  6
CONTINUOUS
 10
12.1644025167
 20
-18.7504417277
 11
12.1749959623
 21
-11.209599358
  0
LINE
  5
3AF
100
AcDbEntity
  8
RACCORDO
100
AcDbLine
 62
253
  6
CONTINUOUS
 10
12.4601076488
 20
-18.7551460283
 11
12.4705930888
 21
-11.2114564047
  0
LINE
  5
3B0
100
AcDbEntity
  8
SUPERFICI
100
AcDbLine
 62
7
  6
CONTINUOUS
 10
11.8372882481
 20
-23.2843871993
 11
11.8510546892
 21
-16.0533483749
  0
LINE
  5
3B1
100
AcDbEntity
  8
RACCORDO
100
AcDbLine
 62
253
  6
CONTINUOUS
 10
11.9358440005
 20
-18.8168198765
 11
11.9267195626
 21
-23.2843745942
  0
LINE
  5
3B2
100
AcDbEntity
  8
RACCORDO
100
AcDbLine
 62
253
  6
CONTINUOUS
 10
12.1483724339
 20
-18.8225306456
 11
12.1392506441
 21
-23.2909508113
  0
LINE
  5
3B3
100
AcDbEntity
  8
RACCORDO
100
AcDbLine
 62
253
  6
CONTINUOUS
 10
12.1551363204
 20
-23.2913842098
 11
12.1644025167
 21
-18.7504417277
  0
LINE
  5
3B4
100
AcDbEntity
  8
RACCORDO
100
AcDbLine
 62
253
  6
CONTINUOUS
 10
12.4507781235
 20
-23.3005995215
 11
12.4601076488
 21
-18.7551460283
  0
LINE
  5
3B5
100
AcDbEntity
  8
RACCORDO
100
AcDbLine
 62
253
  6
CONTINUOUS
 10
11.0218750591
 20
21.4169889003
 11
11.025112435
 21
21.5617896408
  0
LWPOLYLINE
  5
3B6
100
AcDbEntity
  8
RACCORDO
100
AcDbPolyline
 62
253
  6
CONTINUOUS
 90
3
 70
0
 10
11.0173212758
 20
21.2518552458
 10
11.0182517674
 20
21.2824979182
 10
11.0218750591
 20
21.4169889003
  0
LWPOLYLINE
  5
3B7
100
AcDbEntity
  8
RACCORDO
100
AcDbPolyline
 62
253
  6
CONTINUOUS
 90
34
 70
0
 10
11.9267252073
 20
-23.2843745934
 10
11.924875577
 20
-23.3402843421
 10
11.9195655165
 20
-23.3961894256
 10
11.9107749033
 20
-23.4518728653
 10
11.8984509172
 20
-23.5072940984
 10
11.8826253215
 20
-23.5620439189
 10
11.8635263224
 20
-23.6153781772
 10
11.8412441865
 20
-23.6672042991
 10
11.8159535583
 20
-23.7172503433
 10
11.7882655627
 20
-23.7646228654
 10
11.7585432346
 20
-23.8091548269
 10
11.7270038167
 20
-23.8509228469
 10
11.6942359395
 20
-23.8895585663
 10
11.6606854094
 20
-23.9249935268
 10
11.626528986
 20
-23.9574554471
 10
11.5919783206
 20
-23.9870938048
 10
11.5573224153
 20
-24.0139828637
 10
11.5227410461
 20
-24.0382817898
 10
11.4882243702
 20
-24.0602488489
 10
11.453938026
 20
-24.0799948207
 10
11.4200366051
 20
-24.0976340107
 10
11.3864375968
 20
-24.1133836478
 10
11.3532058798
 20
-24.1273597836
 10
11.3204915655
 20
-24.1396391577
 10
11.2883068992
 20
-24.150348091
 10
11.25678954
 20
-24.1595650465
 10
11.2259561201
 20
-24.1674042432
 10
11.1956146009
 20
-24.1740109811
 10
11.1660452382
 20
-24.1794160046
 10
11.137068584
 20
-24.1837411109
 10
11.1077747759
 20
-24.1871499375
 10
11.0778745776
 20
-24.1896412416
 10
11.0477146018
 20
-24.1911512478
 10
11.0173270728
 20
-24.1916589493
  0
LWPOLYLINE
  5
3B8
100
AcDbEntity
  8
SUPERFICI
100
AcDbPolyline
 62
7
  6
CONTINUOUS
 90
25
 70
0
 10
11.8372882481
 20
-23.2843871993
 10
11.8354129885
 20
-23.3379776794
 10
11.8300432541
 20
-23.3913275237
 10
11.8212021622
 20
-23.4442093638
 10
11.8089271798
 20
-23.4963976132
 10
11.7932712332
 20
-23.5476699366
 10
11.7743023559
 20
-23.5978084611
 10
11.7521011503
 20
-23.6466002436
 10
11.7267623425
 20
-23.6938367369
 10
11.6983957845
 20
-23.739315773
 10
11.667122519
 20
-23.7828438811
 10
11.6330757573
 20
-23.8242357914
 10
11.5964024054
 20
-23.8633147138
 10
11.557259299
 20
-23.8999143086
 10
11.5158127545
 20
-23.9338794429
 10
11.472239594
 20
-23.9650662797
 10
11.4267250903
 20
-23.9933425241
 10
11.3794630159
 20
-24.0185877591
 10
11.3306551567
 20
-24.0406946093
 10
11.2805092714
 20
-24.059569208
 10
11.2292384454
 20
-24.0751312664
 10
11.1770609657
 20
-24.0873144327
 10
11.1241988067
 20
-24.0960667909
 10
11.0708766637
 20
-24.1013510229
 10
11.0173212758
 20
-24.1031444406
  0
LWPOLYLINE
  5
3B9
100
AcDbEntity
  8
RACCORDO
100
AcDbPolyline
 62
253
  6
CONTINUOUS
 90
7
 70
0
 10
12.1392518583
 20
-23.2909508635
 10
12.1364448704
 20
-23.3560322929
 10
12.130241642
 20
-23.4211219114
 10
12.1206213699
 20
-23.4860673822
 10
12.1075556395
 20
-23.5507097543
 10
12.0910098851
 20
-23.6148830006
 10
12.0709705769
 20
-23.6784212625
  0
LINE
  5
3BA
100
AcDbEntity
  8
0
100
AcDbLine
 62
7
  6
CONTINUOUS
 10
2.0525282758
 20
-29.9332681993
 11
1.8912682758
 21
-30.4921881993
  0
LINE
  5
3BB
100
AcDbEntity
  8
0
100
AcDbLine
 62
7
  6
CONTINUOUS
 10
1.3132012758
 20
-30.4921881993
 11
2.1913662758
 21
-27.6924851993
  0
LINE
  5
3BC
100
AcDbEntity
  8
0
100
AcDbLine
 62
7
  6
CONTINUOUS
 10
-0.2029927242
 20
-29.2468891993
 11
0.3814152758
 21
-27.6924851993
  0
LINE
  5
3BD
100
AcDbEntity
  8
0
100
AcDbLine
 62
7
  6
CONTINUOUS
 10
0.5296582758
 20
-28.6716561993
 11
-0.1652027242
 21
-30.4921881993
  0
LWPOLYLINE
  5
3BE
100
AcDbEntity
  8
RACCORDO
100
AcDbPolyline
 62
253
  6
CONTINUOUS
 90
9
 70
0
 10
12.088130041
 20
-23.6369651239
 10
12.1032659953
 20
-23.5948471704
 10
12.1163512747
 20
-23.5521762927
 10
12.1272459834
 20
-23.5090157633
 10
12.136069269
 20
-23.4655358539
 10
12.1432113989
 20
-23.4219623021
 10
12.1488196867
 20
-23.3783927396
 10
12.1527807108
 20
-23.3348463513
 10
12.155109335
 20
-23.2913834515
  0
LINE
  5
3BF
100
AcDbEntity
  8
RACCORDO
100
AcDbLine
 62
253
  6
CONTINUOUS
 10
46.4300134781
 20
21.9950924357
 11
46.6013143281
 21
22.0113328007
  0
LWPOLYLINE
  5
3C0
100
AcDbEntity
  8
RACCORDO
100
AcDbPolyline
 62
253
  6
CONTINUOUS
 90
15
 70
0
 10
46.1399200485
 20
22.1156128007
 10
46.1953200385
 20
22.1205154182
 10
46.222137585
 20
22.1227233402
 10
46.2480483412
 20
22.1247424457
 10
46.2728229469
 20
22.1265548617
 10
46.2962420989
 20
22.1281445449
 10
46.3180984925
 20
22.1294974234
 10
46.3381986564
 20
22.1306015218
 10
46.3563646652
 20
22.1314470665
 10
46.3724357147
 20
22.1320265728
 10
46.3862695451
 20
22.1323349111
 10
46.3977437002
 20
22.132369352
 10
46.4067566116
 20
22.1321295905
 10
46.4132284975
 20
22.131617749
 10
46.4171020694
 20
22.1308383583
  0
LINE
  5
3C1
100
AcDbEntity
  8
RACCORDO
100
AcDbLine
 62
253
  6
CONTINUOUS
 10
46.152820089
 20
21.9799592042
 11
46.2082240654
 21
21.9848329322
  0
LWPOLYLINE
  5
3C2
100
AcDbEntity
  8
RACCORDO
100
AcDbPolyline
 62
253
  6
CONTINUOUS
 90
13
 70
0
 10
46.2082240654
 20
21.9848329322
 10
46.260955895
 20
21.9890349376
 10
46.2857320269
 20
21.9908365732
 10
46.3091525157
 20
21.9924167597
 10
46.3310100359
 20
21.9937615086
 10
46.3511110981
 20
21.9948589158
 10
46.3692777612
 20
21.9956992668
 10
46.3853492083
 20
21.9962751224
 10
46.39918317
 20
21.9965813851
 10
46.4106571837
 20
21.9966153436
 10
46.4196696778
 20
21.9963766974
 10
46.4261408709
 20
21.9958675591
 10
46.4300134781
 20
21.9950924357
  0
LINE
  5
3C3
100
AcDbEntity
  8
RACCORDO
100
AcDbLine
 62
253
  6
CONTINUOUS
 10
12.1551068151
 20
20.1226540571
 11
12.1843853082
 21
20.1240395927
  0
LWPOLYLINE
  5
3C4
100
AcDbEntity
  8
RACCORDO
100
AcDbPolyline
 62
253
  6
CONTINUOUS
 90
12
 70
0
 10
-45.3263133352
 20
21.9890349364
 10
-45.3510894651
 20
21.9908365719
 10
-45.374509952
 20
21.9924167582
 10
-45.3963674704
 20
21.993761507
 10
-45.4164685308
 20
21.9948589141
 10
-45.4346351924
 20
21.9956992649
 10
-45.4507066382
 20
21.9962751205
 10
-45.4645405989
 20
21.996581383
 10
-45.4760146117
 20
21.9966153415
 10
-45.4850271053
 20
21.9963766953
 10
-45.4914982982
 20
21.995867557
 10
-45.4953709055
 20
21.9950924336
  0
LWPOLYLINE
  5
3C5
100
AcDbEntity
  8
RACCORDO
100
AcDbPolyline
 62
253
  6
CONTINUOUS
 90
13
 70
0
 10
-45.2874950335
 20
22.1227233402
 10
-45.3134057897
 20
22.1247424457
 10
-45.3381803954
 20
22.1265548617
 10
-45.3615995474
 20
22.1281445449
 10
-45.383455941
 20
22.1294974234
 10
-45.4035561049
 20
22.1306015218
 10
-45.4217221137
 20
22.1314470665
 10
-45.4377931632
 20
22.1320265728
 10
-45.4516269936
 20
22.1323349111
 10
-45.4631011487
 20
22.132369352
 10
-45.47211406
 20
22.1321295905
 10
-45.478585946
 20
22.131617749
 10
-45.4824595179
 20
22.1308383583
  0
LINE
  5
3C6
100
AcDbEntity
  8
RACCORDO
100
AcDbLine
 62
253
  6
CONTINUOUS
 10
-45.2735815096
 20
21.9848329315
 11
-45.3263133352
 21
21.9890349364
  0
LINE
  5
3C7
100
AcDbEntity
  8
RACCORDO
100
AcDbLine
 62
253
  6
CONTINUOUS
 10
-45.218177537
 20
21.9799592038
 11
-45.2735815096
 21
21.9848329315
  0
LWPOLYLINE
  5
3C8
100
AcDbEntity
  8
RACCORDO
100
AcDbPolyline
 62
253
  6
CONTINUOUS
 90
3
 70
0
 10
-45.205277497
 20
22.1156128007
 10
-45.2331905373
 20
22.1181382242
 10
-45.2874950335
 20
22.1227233402
  0
LINE
  5
3C9
100
AcDbEntity
  8
RACCORDO
100
AcDbLine
 62
253
  6
CONTINUOUS
 10
-45.4953709266
 20
21.9950924357
 11
-45.6666717766
 21
22.0113328007
  0
LWPOLYLINE
  5
3CA
100
AcDbEntity
  8
RACCORDO
100
AcDbPolyline
 62
253
  6
CONTINUOUS
 90
7
 70
0
 10
12.0618854167
 20
20.5325170906
 10
12.0848116398
 20
20.465159414
 10
12.1036697362
 20
20.397097805
 10
12.1184842288
 20
20.3285514462
 10
12.1293154513
 20
20.2597390964
 10
12.1362213721
 20
20.1908687914
 10
12.1392521578
 20
20.1221373415
  0
LINE
  5
3CB
100
AcDbEntity
  8
RACCORDO
100
AcDbLine
 62
253
  6
CONTINUOUS
 10
26.3569338238
 20
-47.6692944533
 11
26.3407681669
 21
-47.4947481671
  0
LINE
  5
3CC
100
AcDbEntity
  8
RACCORDO
100
AcDbLine
 62
253
  6
CONTINUOUS
 10
26.3246320057
 20
-47.2342213714
 11
26.3290713151
 21
-47.2869565218
  0
LINE
  5
3CD
100
AcDbEntity
  8
RACCORDO
100
AcDbLine
 62
253
  6
CONTINUOUS
 10
26.3290713151
 20
-47.2869565218
 11
26.3329935457
 21
-47.3367613232
  0
LWPOLYLINE
  5
3CE
100
AcDbEntity
  8
RACCORDO
100
AcDbPolyline
 62
253
  6
CONTINUOUS
 90
11
 70
0
 10
26.3329935457
 20
-47.3367613232
 10
26.3362707004
 20
-47.3820104569
 10
26.3376330307
 20
-47.4024580299
 10
26.3387958332
 20
-47.421227273
 10
26.3397496019
 20
-47.4381647447
 10
26.3404865396
 20
-47.4531319787
 10
26.3410006216
 20
-47.4660066156
 10
26.3412876454
 20
-47.4766834032
 10
26.3413452643
 20
-47.4850750572
 10
26.3411730074
 20
-47.4911129746
 10
26.340772283
 20
-47.4947477944
  0
LWPOLYLINE
  5
3CF
100
AcDbEntity
  8
RACCORDO
100
AcDbPolyline
 62
253
  6
CONTINUOUS
 90
9
 70
0
 10
26.3376330308
 20
44.2336836303
 10
26.3387958333
 20
44.2524528735
 10
26.3397496021
 20
44.2693903453
 10
26.3404865397
 20
44.2843575795
 10
26.3410006218
 20
44.2972322166
 10
26.3412876455
 20
44.3079090045
 10
26.3413452644
 20
44.3163006588
 10
26.3411730076
 20
44.3223385765
 10
26.340772283
 20
44.3259733967
  0
LINE
  5
3D0
100
AcDbEntity
  8
RACCORDO
100
AcDbLine
 62
253
  6
CONTINUOUS
 10
26.3347199796
 20
44.1912773164
 11
26.3376330308
 21
44.2336836303
  0
LINE
  5
3D1
100
AcDbEntity
  8
RACCORDO
100
AcDbLine
 62
253
  6
CONTINUOUS
 10
26.3311055125
 20
44.1435552815
 11
26.3347199796
 21
44.1912773164
  0
LWPOLYLINE
  5
3D2
100
AcDbEntity
  8
RACCORDO
100
AcDbPolyline
 62
253
  6
CONTINUOUS
 90
3
 70
0
 10
26.3246320055
 20
44.0654469723
 10
26.3269075831
 20
44.0920748758
 10
26.3311055125
 20
44.1435552815
  0
LINE
  5
3D3
100
AcDbEntity
  8
RACCORDO
100
AcDbLine
 62
253
  6
CONTINUOUS
 10
26.3569338238
 20
44.5005200548
 11
26.3407689725
 21
44.3259736958
  0
LWPOLYLINE
  5
3D4
100
AcDbEntity
  8
RACCORDO
100
AcDbPolyline
 62
253
  6
CONTINUOUS
 90
13
 70
0
 10
12.088130041
 20
-23.6369651239
 10
12.0458844708
 20
-23.7392443741
 10
12.0167823878
 20
-23.799042507
 10
11.9838360185
 20
-23.8575790405
 10
11.9469488416
 20
-23.914594655
 10
11.9062574218
 20
-23.969778813
 10
11.8621553489
 20
-24.0228429766
 10
11.8147998951
 20
-24.0736776563
 10
11.764194123
 20
-24.1219433053
 10
11.710589523
 20
-24.1670903252
 10
11.6542174377
 20
-24.2088166963
 10
11.5952283125
 20
-24.2470629614
 10
11.533821507
 20
-24.2816641937
  0
LINE
  5
3D5
100
AcDbEntity
  8
RACCORDO
100
AcDbLine
 62
253
  6
CONTINUOUS
 10
45.6056371254
 20
30.0667613114
 11
45.4358704363
 21
30.0354884327
  0
LWPOLYLINE
  5
3D6
100
AcDbEntity
  8
RACCORDO
100
AcDbPolyline
 62
253
  6
CONTINUOUS
 90
16
 70
0
 10
45.1616876564
 20
30.0039915227
 10
45.1891713513
 20
30.0086619778
 10
45.2162405931
 20
30.0130947561
 10
45.2426579633
 20
30.0172509788
 10
45.2681917609
 20
30.0210941925
 10
45.2926180347
 20
30.0245906892
 10
45.3157225471
 20
30.027709802
 10
45.3373026535
 20
30.0304241738
 10
45.3571690795
 20
30.0327099974
 10
45.375147581
 20
30.0345472243
 10
45.3910804726
 20
30.0359197407
 10
45.4048280104
 20
30.0368155085
 10
45.4162696177
 20
30.0372266711
 10
45.4253049427
 20
30.0371496223
 10
45.4318547385
 20
30.0365850379
 10
45.4358615584
 20
30.0355378697
  0
LINE
  5
3D7
100
AcDbEntity
  8
RACCORDO
100
AcDbLine
 62
253
  6
CONTINUOUS
 10
46.1834436869
 20
26.0667613114
 11
46.012331165
 21
26.0468929469
  0
LWPOLYLINE
  5
3D8
100
AcDbEntity
  8
RACCORDO
100
AcDbPolyline
 62
253
  6
CONTINUOUS
 90
16
 70
0
 10
45.7355001018
 20
26.0307330062
 10
45.7633388212
 20
26.0336508455
 10
45.7907547097
 20
26.0363813374
 10
45.8175056231
 20
26.0389003656
 10
45.8433552903
 20
26.0411856813
 10
45.8680754003
 20
26.0432171
 10
45.8914476184
 20
26.0449766796
 10
45.9132655151
 20
26.0464488792
 10
45.9333363891
 20
26.0476206958
 10
45.951482969
 20
26.0484817796
 10
45.9675449796
 20
26.0490245254
 10
45.9813805569
 20
26.0492441394
 10
45.9928675014
 20
26.049138682
 10
46.0019043574
 20
26.0487090846
 10
46.0084113091
 20
26.0479591416
 10
46.0123308854
 20
26.0468954765
  0
LWPOLYLINE
  5
3D9
100
AcDbEntity
  8
RACCORDO
100
AcDbPolyline
 62
253
  6
CONTINUOUS
 90
28
 70
0
 10
-10.0904698835
 20
21.5617896408
 10
-10.1714159577
 20
21.5579530782
 10
-10.2520515958
 20
21.5494862146
 10
-10.3323768707
 20
21.5363890391
 10
-10.4127954884
 20
21.518615124
 10
-10.4929038807
 20
21.4962108572
 10
-10.5714912048
 20
21.4693154426
 10
-10.6484855581
 20
21.4378169981
 10
-10.723958957
 20
21.4018273326
 10
-10.7969164228
 20
21.3618211837
 10
-10.8672282406
 20
21.3177858463
 10
-10.935024188
 20
21.2697339329
 10
-10.9996985
 20
21.218178162
 10
-11.0611657406
 20
21.1631809435
 10
-11.1195113545
 20
21.1046797669
 10
-11.1743858766
 20
21.0429999775
 10
-11.2258623425
 20
20.9780308049
 10
-11.273867679
 20
20.9098829107
 10
-11.3178332364
 20
20.8392138016
 10
-11.3577305457
 20
20.765878855
 10
-11.393587986
 20
20.6900225967
 10
-11.424922159
 20
20.6127362878
 10
-11.4516027252
 20
20.5339889984
 10
-11.4737598938
 20
20.4538116023
 10
-11.4913010825
 20
20.3733881127
 10
-11.5041953863
 20
20.2931132099
 10
-11.5124735734
 20
20.2125922131
 10
-11.5161355724
 20
20.131825119
  0
LWPOLYLINE
  5
3DA
100
AcDbEntity
  8
RACCORDO
100
AcDbPolyline
 62
253
  6
CONTINUOUS
 90
10
 70
0
 10
-10.0826526859
 20
21.2518558896
 10
-10.1291193974
 20
21.2496948828
 10
-10.1756717075
 20
21.2456681402
 10
-10.2222359581
 20
21.239759178
 10
-10.2687840323
 20
21.2320808105
 10
-10.3152003616
 20
21.2224823007
 10
-10.361229744
 20
21.2105700981
 10
-10.4066804371
 20
21.1962273621
 10
-10.4514787923
 20
21.1796046677
 10
-10.49549892
 20
21.1607360097
  0
LINE
  5
3DB
100
AcDbEntity
  8
RACCORDO
100
AcDbLine
 62
253
  6
CONTINUOUS
 10
12.1843853082
 20
20.1240395927
 11
12.2465611687
 21
20.1266067913
  0
LWPOLYLINE
  5
3DC
100
AcDbEntity
  8
RACCORDO
100
AcDbPolyline
 62
253
  6
CONTINUOUS
 90
10
 70
0
 10
12.1392507354
 20
20.1221361729
 10
12.0994771073
 20
20.1207027487
 10
12.0630216573
 20
20.1191099528
 10
12.0302547851
 20
20.1173739685
 10
12.0015094135
 20
20.1155124341
 10
11.9770776053
 20
20.1135442634
 10
11.957207596
 20
20.1114894537
 10
11.9421012716
 20
20.1093688825
 10
11.9319121177
 20
20.1072040955
 10
11.9267436595
 20
20.1050170878
  0
LINE
  5
3DD
100
AcDbEntity
  8
RACCORDO
100
AcDbLine
 62
253
  6
CONTINUOUS
 10
12.2465611687
 20
20.1266067913
 11
12.3125430977
 21
20.1288610517
  0
LINE
  5
3DE
100
AcDbEntity
  8
RACCORDO
100
AcDbLine
 62
7
  6
CONTINUOUS
 10
12.1392507331
 20
20.1221372985
 11
12.1551363193
 21
20.1226102583
  0
LINE
  5
3DF
100
AcDbEntity
  8
RACCORDO
100
AcDbLine
 62
253
  6
CONTINUOUS
 10
12.3125430977
 20
20.1288610517
 11
12.381045389
 21
20.1307584418
  0
LINE
  5
3E0
100
AcDbEntity
  8
RACCORDO
100
AcDbLine
 62
253
  6
CONTINUOUS
 10
12.381045389
 20
20.1307584418
 11
12.4507332253
 21
20.1322619935
  0
LINE
  5
3E1
100
AcDbEntity
  8
0
100
AcDbLine
 62
7
  6
CONTINUOUS
 10
-10.0826787242
 20
20.9343700421
 11
-3.049472739
 21
20.9382038998
  0
LINE
  5
3E2
100
AcDbEntity
  8
RACCORDO
100
AcDbLine
 62
253
  6
CONTINUOUS
 10
-10.9026456966
 20
20.1156128007
 11
-10.9920769797
 21
20.115615646
  0
LINE
  5
3E3
100
AcDbEntity
  8
RACCORDO
100
AcDbLine
 62
253
  6
CONTINUOUS
 10
-10.0826854218
 20
21.02288455
 11
11.0173252571
 21
21.02288455
  0
LINE
  5
3E4
100
AcDbEntity
  8
RACCORDO
100
AcDbLine
 62
253
  6
CONTINUOUS
 10
-10.0826767636
 20
21.2354110992
 11
11.0173201351
 21
21.2354110992
  0
LINE
  5
3E5
100
AcDbEntity
  8
RACCORDO
100
AcDbLine
 62
253
  6
CONTINUOUS
 10
46.1399201469
 20
22.1156117948
 11
-45.2052775945
 21
22.1156118039
  0
LINE
  5
3E6
100
AcDbEntity
  8
0
100
AcDbLine
 62
7
  6
CONTINUOUS
 10
-3.049472739
 20
20.9382038998
 11
3.9841152905
 21
20.9382038998
  0
LINE
  5
3E7
100
AcDbEntity
  8
RACCORDO
100
AcDbLine
 62
253
  6
CONTINUOUS
 10
11.8372882481
 20
20.1156128007
 11
11.9267252519
 21
20.1155647479
  0
LINE
  5
3E8
100
AcDbEntity
  8
0
100
AcDbLine
 62
7
  6
CONTINUOUS
 10
3.9841152905
 20
20.9382038998
 11
11.0173212758
 21
20.9343700421
  0
LWPOLYLINE
  5
3E9
100
AcDbEntity
  8
RACCORDO
100
AcDbPolyline
 62
253
  6
CONTINUOUS
 90
10
 70
0
 10
12.1392278412
 20
20.1244791572
 10
12.0994494771
 20
20.1245539417
 10
12.0629922599
 20
20.1242963106
 10
12.030225963
 20
20.1237038387
 10
12.0014834171
 20
20.1226756808
 10
11.9770553591
 20
20.1212941235
 10
11.9571880997
 20
20.1198507364
 10
11.9420831029
 20
20.118462237
 10
11.9318942969
 20
20.1170447922
 10
11.9267251829
 20
20.1156128007
  0
LINE
  5
3EA
100
AcDbEntity
  8
RACCORDO
100
AcDbLine
 62
253
  6
CONTINUOUS
 10
-11.4464520133
 20
20.1269312543
 11
-11.5161448973
 21
20.1272474896
  0
LINE
  5
3EB
100
AcDbEntity
  8
RACCORDO
100
AcDbLine
 62
253
  6
CONTINUOUS
 10
-11.2046115684
 20
20.1221361351
 11
-11.146160689
 21
20.12167408
  0
LINE
  5
3EC
100
AcDbEntity
  8
RACCORDO
100
AcDbLine
 62
253
  6
CONTINUOUS
 10
-11.3779445618
 20
20.1261982058
 11
-11.4464520133
 21
20.1269312543
  0
LWPOLYLINE
  5
3ED
100
AcDbEntity
  8
RACCORDO
100
AcDbPolyline
 62
253
  6
CONTINUOUS
 90
13
 70
0
 10
11.0173201352
 20
21.2354110991
 10
11.052238987
 20
21.2348705481
 10
11.0885828132
 20
21.2331475104
 10
11.1263071607
 20
21.2301046318
 10
11.165402062
 20
21.2255932128
 10
11.2057576807
 20
21.2194706373
 10
11.2471660654
 20
21.2116165188
 10
11.2893834721
 20
21.2018136048
 10
11.3324638667
 20
21.1900102963
 10
11.3766621791
 20
21.1763128998
 10
11.4220109669
 20
21.1606227676
 10
11.4682837518
 20
21.1426761956
 10
11.515353624
 20
21.1222897219
  0
LWPOLYLINE
  5
3EE
100
AcDbEntity
  8
RACCORDO
100
AcDbPolyline
 62
253
  6
CONTINUOUS
 90
31
 70
0
 10
11.0173252571
 20
21.0228845504
 10
11.0458576982
 20
21.0224365007
 10
11.0755458352
 20
21.0210188098
 10
11.1063524464
 20
21.0185165885
 10
11.138264146
 20
21.0148073196
 10
11.1711943761
 20
21.0097728867
 10
11.2049846041
 20
21.0033118834
 10
11.2394690408
 20
20.9953356888
 10
11.2746626692
 20
20.9857156489
 10
11.3106589785
 20
20.974278314
 10
11.3472924303
 20
20.9609117943
 10
11.3844956999
 20
20.9454685216
 10
11.4224638599
 20
20.9276561075
 10
11.461050774
 20
20.9072865806
 10
11.5000228219
 20
20.8842101623
 10
11.5393725145
 20
20.8581208206
 10
11.5788105592
 20
20.8288531246
 10
11.6180559297
 20
20.7962299465
 10
11.6570143372
 20
20.759872831
 10
11.6956432728
 20
20.719212639
 10
11.7330864706
 20
20.6744737111
 10
11.7681274447
 20
20.6266310346
 10
11.8004154666
 20
20.5758630947
 10
11.8297098488
 20
20.5222100701
 10
11.8553210877
 20
20.4667375424
 10
11.8770719534
 20
20.4098956538
 10
11.8949646673
 20
20.3517549439
 10
11.9088506331
 20
20.2929397656
 10
11.9187296048
 20
20.2338507163
 10
11.924670094
 20
20.1746385534
 10
11.9267252875
 20
20.1155647479
  0
LWPOLYLINE
  5
3EF
100
AcDbEntity
  8
RACCORDO
100
AcDbPolyline
 62
253
  6
CONTINUOUS
 90
10
 70
0
 10
-11.146160689
 20
20.12167408
 10
-11.0955947971
 20
20.1208846645
 10
-11.0736377074
 20
20.1203832433
 10
-11.0540702149
 20
20.1198204977
 10
-11.0370033026
 20
20.1192042693
 10
-11.0225356135
 20
20.1185425672
 10
-11.0107517154
 20
20.1178437536
 10
-11.0017178504
 20
20.1171165356
 10
-10.9954831991
 20
20.1163698674
 10
-10.9920817082
 20
20.1156128007
  0
LWPOLYLINE
  5
3F0
100
AcDbEntity
  8
RACCORDO
100
AcDbPolyline
 62
253
  6
CONTINUOUS
 90
10
 70
0
 10
11.0172953501
 20
21.2518556069
 10
8.6728845482
 20
21.2953963563
 10
6.3284595353
 20
21.3280519155
 10
3.9840203115
 20
21.3498222846
 10
1.6395572184
 20
21.3607074597
 10
-0.7049200857
 20
21.3607074447
 10
-3.0493826257
 20
21.3498222509
 10
-5.3938207434
 20
21.3280518822
 10
-7.7382440969
 20
21.2953963347
 10
-10.0826526864
 20
21.2518556085
  0
LWPOLYLINE
  5
3F1
100
AcDbEntity
  8
RACCORDO
100
AcDbPolyline
 62
253
  6
CONTINUOUS
 90
10
 70
0
 10
11.025112435
 20
21.5617896408
 10
8.678996283
 20
21.6053742488
 10
6.3328232507
 20
21.6380625861
 10
3.986616317
 20
21.6598547521
 10
1.6404138742
 20
21.6707508094
 10
-0.7057765964
 20
21.6707507947
 10
-3.0519785118
 20
21.6598547192
 10
-5.3981843906
 20
21.6380625532
 10
-7.7443558408
 20
21.6053742268
 10
-10.0904698835
 20
21.5617896408
  0
LINE
  5
3F2
100
AcDbEntity
  8
RACCORDO
100
AcDbLine
 62
253
  6
CONTINUOUS
 10
-11.3119571667
 20
20.125062625
 11
-11.3779445618
 21
20.1261982058
  0
LINE
  5
3F3
100
AcDbEntity
  8
RACCORDO
100
AcDbLine
 62
7
  6
CONTINUOUS
 10
-11.2046079798
 20
20.122225979
 11
-11.220493769
 21
20.1226097675
  0
LWPOLYLINE
  5
3F4
100
AcDbEntity
  8
RACCORDO
100
AcDbPolyline
 62
253
  6
CONTINUOUS
 90
3
 70
0
 10
-11.2204936606
 20
20.1226549403
 10
-11.2497753575
 20
20.1235466346
 10
-11.3119571667
 20
20.125062625
  0
LWPOLYLINE
  5
3F5
100
AcDbEntity
  8
RACCORDO
100
AcDbPolyline
 62
253
  6
CONTINUOUS
 90
16
 70
0
 10
-44.8008575504
 20
26.0307330062
 10
-44.8286962696
 20
26.0336508455
 10
-44.856112158
 20
26.0363813375
 10
-44.8828630712
 20
26.0389003657
 10
-44.9087127383
 20
26.0411856814
 10
-44.933432848
 20
26.0432171
 10
-44.956805066
 20
26.0449766797
 10
-44.9786229626
 20
26.0464488792
 10
-44.9986938364
 20
26.0476206958
 10
-45.0168404162
 20
26.0484817796
 10
-45.0329024266
 20
26.0490245254
 10
-45.0467380038
 20
26.0492441394
 10
-45.0582249482
 20
26.049138682
 10
-45.0672618041
 20
26.0487090845
 10
-45.0737687558
 20
26.0479591414
 10
-45.077688332
 20
26.0468954763
  0
LINE
  5
3F6
100
AcDbEntity
  8
RACCORDO
100
AcDbLine
 62
253
  6
CONTINUOUS
 10
-45.2488011354
 20
26.0667613114
 11
-45.0776886335
 21
26.0468927671
  0
LWPOLYLINE
  5
3F7
100
AcDbEntity
  8
RACCORDO
100
AcDbPolyline
 62
253
  6
CONTINUOUS
 90
16
 70
0
 10
-44.2270451049
 20
30.0039915228
 10
-44.2545288047
 20
30.008661979
 10
-44.2815980518
 20
30.0130947586
 10
-44.3080154277
 20
30.0172509825
 10
-44.3335492312
 20
30.0210941974
 10
-44.357975511
 20
30.0245906954
 10
-44.3810800294
 20
30.0277098093
 10
-44.4026601417
 20
30.0304241822
 10
-44.4225265735
 20
30.0327100068
 10
-44.4405050805
 20
30.0345472347
 10
-44.4564379772
 20
30.0359197519
 10
-44.4701855195
 20
30.0368155204
 10
-44.4816271309
 20
30.0372266835
 10
-44.4906624593
 20
30.0371496352
 10
-44.4972122579
 20
30.0365850511
 10
-44.5012190799
 20
30.0355378831
  0
LINE
  5
3F8
100
AcDbEntity
  8
RACCORDO
100
AcDbLine
 62
253
  6
CONTINUOUS
 10
-44.6709945739
 20
30.0667613114
 11
-44.5012296445
 21
30.035478547
  0
LWPOLYLINE
  5
3F9
100
AcDbEntity
  8
RACCORDO
100
AcDbPolyline
 62
253
  6
CONTINUOUS
 90
10
 70
0
 10
11.515353624
 20
21.1222897219
 10
11.4632858989
 20
21.1487031288
 10
11.4099177311
 20
21.1721282181
 10
11.3554350201
 20
21.1925057723
 10
11.2999342988
 20
21.2096899331
 10
11.2436991496
 20
21.2237223967
 10
11.1871569771
 20
21.2348910027
 10
11.1305261124
 20
21.2433307058
 10
11.0738610559
 20
21.2489758886
 10
11.0172953496
 20
21.2518558768
  0
LWPOLYLINE
  5
3FA
100
AcDbEntity
  8
RACCORDO
100
AcDbPolyline
 62
253
  6
CONTINUOUS
 90
13
 70
0
 10
11.5145245832
 20
21.1209695744
 10
11.575608625
 20
21.0888658947
 10
11.634576375
 20
21.0529128556
 10
11.6911918149
 20
21.0132413382
 10
11.7452241178
 20
20.9698294318
 10
11.7964200951
 20
20.923015468
 10
11.844599154
 20
20.8734733456
 10
11.8897752732
 20
20.8215352504
 10
11.9317209621
 20
20.7672513349
 10
11.9700027888
 20
20.7109297744
 10
12.0044420952
 20
20.6528732611
 10
12.0351139683
 20
20.5933183657
 10
12.0619905904
 20
20.5325227476
  0
LINE
  5
3FB
100
AcDbEntity
  8
RACCORDO
100
AcDbLine
 62
253
  6
CONTINUOUS
 10
31.3569338238
 20
-47.0743871993
 11
31.3307979443
 21
-46.9010290034
  0
LWPOLYLINE
  5
3FC
100
AcDbEntity
  8
RACCORDO
100
AcDbPolyline
 62
253
  6
CONTINUOUS
 90
9
 70
0
 10
31.3225295797
 20
43.6403178159
 10
31.3247517855
 20
43.6589828611
 10
31.3266606707
 20
43.6758317749
 10
31.3282406381
 20
43.6907268884
 10
31.3294787781
 20
43.7035464965
 10
31.3303649741
 20
43.7141858529
 10
31.3308919853
 20
43.7225580256
 10
31.3310555054
 20
43.7285946073
 10
31.3308541985
 20
43.7322462745
  0
LINE
  5
3FD
100
AcDbEntity
  8
RACCORDO
100
AcDbLine
 62
253
  6
CONTINUOUS
 10
31.3172202463
 20
43.5981629572
 11
31.3225295797
 21
43.6403178159
  0
LINE
  5
3FE
100
AcDbEntity
  8
RACCORDO
100
AcDbLine
 62
253
  6
CONTINUOUS
 10
31.3109058421
 20
43.5507421393
 11
31.3172202463
 21
43.5981629572
  0
LWPOLYLINE
  5
3FF
100
AcDbEntity
  8
RACCORDO
100
AcDbPolyline
 62
253
  6
CONTINUOUS
 90
3
 70
0
 10
31.3000075797
 20
43.4731552771
 10
31.3037923202
 20
43.4996020591
 10
31.3109058421
 20
43.5507421393
  0
LINE
  5
400
100
AcDbEntity
  8
RACCORDO
100
AcDbLine
 62
253
  6
CONTINUOUS
 10
31.3569338238
 20
43.9056128007
 11
31.3307892849
 21
43.7322558863
  0
LWPOLYLINE
  5
401
100
AcDbEntity
  8
0
100
AcDbPolyline
 62
7
  6
CONTINUOUS
 90
10
 70
0
 10
5.4094117688
 20
-29.0930367632
 10
5.3855873215
 20
-29.113411454
 10
5.3741267831
 20
-29.1229857053
 10
5.3626944483
 20
-29.1319980898
 10
5.3513728468
 20
-29.1406014272
 10
5.3400794464
 20
-29.1486429036
 10
5.3283266662
 20
-29.1555386629
 10
5.3159519773
 20
-29.1610940908
 10
5.3031179032
 20
-29.1655038112
 10
5.2898244406
 20
-29.1687678273
  0
LWPOLYLINE
  5
402
100
AcDbEntity
  8
RACCORDO
100
AcDbPolyline
 62
253
  6
CONTINUOUS
 90
16
 70
0
 10
11.5338154998
 20
-24.2815983949
 10
11.4957571569
 20
-24.2988996309
 10
11.4582458954
 20
-24.3146379179
 10
11.4213456971
 20
-24.3289185895
 10
11.3851788516
 20
-24.3419362628
 10
11.3497208301
 20
-24.3537023889
 10
11.3148312774
 20
-24.3640238937
 10
11.2806253232
 20
-24.372854092
 10
11.2471142458
 20
-24.3804023923
 10
11.2140131632
 20
-24.386809313
 10
11.1815456887
 20
-24.3920993978
 10
11.1495675169
 20
-24.3963625482
 10
11.1172200102
 20
-24.3997289536
 10
11.0842298275
 20
-24.4021902428
 10
11.0509201229
 20
-24.4036847588
 10
11.0173189288
 20
-24.4041854975
  0
LINE
  5
403
100
AcDbEntity
  8
RACCORDO
100
AcDbLine
 62
253
  6
CONTINUOUS
 10
31.3000075791
 20
-46.6419296753
 11
31.3074349795
 21
-46.6943093542
  0
LINE
  5
404
100
AcDbEntity
  8
RACCORDO
100
AcDbLine
 62
253
  6
CONTINUOUS
 10
31.3074349795
 20
-46.6943093542
 11
31.3141764701
 21
-46.7437919351
  0
LWPOLYLINE
  5
405
100
AcDbEntity
  8
RACCORDO
100
AcDbPolyline
 62
253
  6
CONTINUOUS
 90
11
 70
0
 10
31.3141764701
 20
-46.7437919351
 10
31.3200121687
 20
-46.7887634746
 10
31.3225295339
 20
-46.8090921303
 10
31.3247517368
 20
-46.8277571632
 10
31.3266606204
 20
-46.8446060652
 10
31.3282405877
 20
-46.8595011674
 10
31.3294787293
 20
-46.8723207652
 10
31.3303649286
 20
-46.8829601123
 10
31.3308919448
 20
-46.8913322769
 10
31.331055472
 20
-46.8973688517
 10
31.330854174
 20
-46.9010205131
  0
LWPOLYLINE
  5
406
100
AcDbEntity
  8
DRAFT
100
AcDbPolyline
 62
7
  6
CONTINUOUS
 90
10
 70
0
 10
-30.4222912435
 20
43.9056128047
 10
-29.8684158664
 20
43.9857795259
 10
-29.3141048855
 20
44.0624309804
 10
-28.7593577385
 20
44.135567519
 10
-28.2041512866
 20
44.2051921159
 10
-27.6485074993
 20
44.2713024538
 10
-27.0924934582
 20
44.3338909248
 10
-26.5361311093
 20
44.3929551819
 10
-25.9793972613
 20
44.4484981386
 10
-25.4222912724
 20
44.5005200547
  0
LWPOLYLINE
  5
407
100
AcDbEntity
  8
RACCORDO
100
AcDbPolyline
 62
253
  6
CONTINUOUS
 90
10
 70
0
 10
-25.3899894542
 20
44.0654469728
 10
-25.9443075865
 20
44.013657938
 10
-26.4982774051
 20
43.9583609917
 10
-27.0518995254
 20
43.8995558835
 10
-27.6052115319
 20
43.8372380016
 10
-28.1581770333
 20
43.7714114113
 10
-28.7106856663
 20
43.702088856
 10
-29.262701019
 20
43.6292743731
 10
-29.8142606263
 20
43.5529632928
 10
-30.3653650278
 20
43.4731552772
  0
LWPOLYLINE
  5
408
100
AcDbEntity
  8
RACCORDO
100
AcDbPolyline
 62
253
  6
CONTINUOUS
 90
10
 70
0
 10
-25.4061256154
 20
44.3259737685
 10
-25.9620475062
 20
44.2740611944
 10
-26.5176645976
 20
44.2186287219
 10
-27.0729536968
 20
44.1596780283
 10
-27.627909159
 20
44.097208822
 10
-28.1824937062
 20
44.0312244918
 10
-28.7366367994
 20
43.9617332032
 10
-29.2903013458
 20
43.8887399717
 10
-29.8434818497
 20
43.8122459813
 10
-30.3961552879
 20
43.7322546153
  0
LWPOLYLINE
  5
409
100
AcDbEntity
  8
DRAFT
100
AcDbPolyline
 62
7
  6
CONTINUOUS
 90
16
 70
0
 10
-25.4222912724
 20
44.5005200547
 10
-21.9794696804
 20
44.7902869294
 10
-18.5334976917
 20
45.0386935712
 10
-15.0843899625
 20
45.2457537266
 10
-11.6313252952
 20
45.4115296544
 10
-8.1751479429
 20
45.5359800199
 10
-4.7183681975
 20
45.6189598724
 10
-1.2614393491
 20
45.6604232731
 10
2.1960758143
 20
45.6604232969
 10
5.6530036089
 20
45.6189600009
 10
9.1097799286
 20
45.5359804288
 10
12.5659528018
 20
45.4115304005
 10
16.019015891
 20
45.2457546248
 10
19.4681262612
 20
45.0386943554
 10
22.9141037912
 20
44.7902874143
 10
26.3569338239
 20
44.5005200547
  0
LWPOLYLINE
  5
40A
100
AcDbEntity
  8
RACCORDO
100
AcDbPolyline
 62
253
  6
CONTINUOUS
 90
16
 70
0
 10
26.3407689724
 20
44.3259736951
 10
22.9004867647
 20
44.6154632115
 10
19.4563102269
 20
44.8637448591
 10
16.0086825091
 20
45.0707592674
 10
12.5580157982
 20
45.2364523998
 10
9.104991641
 20
45.3607737476
 10
5.650457796
 20
45.4436762908
 10
2.1951309963
 20
45.4851292772
 10
-1.260470989
 20
45.4851293819
 10
-4.7157985609
 20
45.4436765909
 10
-8.1703341309
 20
45.3607741963
 10
-11.6233607832
 20
45.2364529234
 10
-15.0740302131
 20
45.070759794
 10
-18.521660691
 20
44.8637453206
 10
-21.9658402091
 20
44.6154635243
 10
-25.4061256153
 20
44.3259737678
  0
LWPOLYLINE
  5
40B
100
AcDbEntity
  8
RACCORDO
100
AcDbPolyline
 62
253
  6
CONTINUOUS
 90
16
 70
0
 10
26.3246320057
 20
44.0654469728
 10
22.8856837162
 20
44.355030814
 10
19.4438020239
 20
44.6032750872
 10
15.9990026562
 20
44.8101931428
 10
12.5506387148
 20
44.9758419688
 10
9.0993823307
 20
45.1001849006
 10
5.6472251906
 20
45.183091594
 10
2.1942519838
 20
45.2245209393
 10
-1.2596037082
 20
45.224520975
 10
-4.7125777017
 20
45.1830916665
 10
-8.164737019
 20
45.1001849312
 10
-11.6159963669
 20
44.9758419231
 10
-15.0643622472
 20
44.8101930494
 10
-18.5091619252
 20
44.6032749962
 10
-21.9510429032
 20
44.3550307541
 10
-25.3899894542
 20
44.0654469728
  0
LWPOLYLINE
  5
40C
100
AcDbEntity
  8
DRAFT
100
AcDbPolyline
 62
7
  6
CONTINUOUS
 90
10
 70
0
 10
26.3569338239
 20
44.5005200547
 10
26.9140358988
 20
44.4484985479
 10
27.470766813
 20
44.392955912
 10
28.0271272081
 20
44.3338918873
 10
28.5831402775
 20
44.271303579
 10
29.138784073
 20
44.2051933154
 10
29.693991507
 20
44.1355686486
 10
30.2487406079
 20
44.0624318776
 10
30.8030545165
 20
43.9857800466
 10
31.3569337952
 20
43.9056128047
  0
LWPOLYLINE
  5
40D
100
AcDbEntity
  8
RACCORDO
100
AcDbPolyline
 62
253
  6
CONTINUOUS
 90
10
 70
0
 10
31.3000075797
 20
43.4731552771
 10
30.7489028642
 20
43.5529633344
 10
30.1973430205
 20
43.629274445
 10
29.645327509
 20
43.7020889469
 10
29.0928187938
 20
43.7714115084
 10
28.5398532878
 20
43.8372380934
 10
27.9865413578
 20
43.8995559625
 10
27.4329193961
 20
43.9583610519
 10
26.8789498172
 20
44.0136579718
 10
26.3246320057
 20
44.0654469728
  0
LWPOLYLINE
  5
40E
100
AcDbEntity
  8
RACCORDO
100
AcDbPolyline
 62
253
  6
CONTINUOUS
 90
10
 70
0
 10
31.3307892842
 20
43.7322558812
 10
30.77812069
 20
43.8122465064
 10
30.2249438242
 20
43.8887399816
 10
29.6712817066
 20
43.9617329002
 10
29.1171394816
 20
44.0312240979
 10
28.5625545865
 20
44.097208489
 10
28.0075986041
 20
44.1596777707
 10
27.4523091608
 20
44.2186285148
 10
26.8966915527
 20
44.2740610501
 10
26.3407689725
 20
44.3259736958
  0
LINE
  5
40F
100
AcDbEntity
  8
DRAFT
100
AcDbLine
 62
7
  6
CONTINUOUS
 10
46.2331487108
 20
25.6164090046
 11
46.3301037048
 21
24.7155065815
  0
LINE
  5
410
100
AcDbEntity
  8
RACCORDO
100
AcDbLine
 62
253
  6
CONTINUOUS
 10
45.9228824074
 20
24.2912509432
 11
45.7834910813
 21
25.5959546981
  0
LINE
  5
411
100
AcDbEntity
  8
RACCORDO
100
AcDbLine
 62
253
  6
CONTINUOUS
 10
46.1998760468
 20
24.3069973599
 11
46.0603640808
 21
25.6120123148
  0
LINE
  5
412
100
AcDbEntity
  8
DRAFT
100
AcDbLine
 62
7
  6
CONTINUOUS
 10
46.3301037048
 20
24.7155065815
 11
46.4237834947
 21
23.8143451932
  0
LINE
  5
413
100
AcDbEntity
  8
RACCORDO
100
AcDbLine
 62
253
  6
CONTINUOUS
 10
46.3325063701
 20
23.0014590534
 11
46.1998760468
 21
24.3069973599
  0
LINE
  5
414
100
AcDbEntity
  8
RACCORDO
100
AcDbLine
 62
253
  6
CONTINUOUS
 10
46.0553978781
 20
22.9860254098
 11
45.9228824074
 21
24.2912509432
  0
LINE
  5
415
100
AcDbEntity
  8
DRAFT
100
AcDbLine
 62
7
  6
CONTINUOUS
 10
46.4237834947
 20
23.8143451932
 11
46.5141875136
 21
22.9129496326
  0
LINE
  5
416
100
AcDbEntity
  8
DRAFT
100
AcDbLine
 62
7
  6
CONTINUOUS
 10
46.5141875136
 20
22.9129496326
 11
46.6013143281
 21
22.0113328007
  0
LINE
  5
417
100
AcDbEntity
  8
RACCORDO
100
AcDbLine
 62
253
  6
CONTINUOUS
 10
46.152820089
 20
21.9799592042
 11
46.0553978781
 21
22.9860254098
  0
LINE
  5
418
100
AcDbEntity
  8
RACCORDO
100
AcDbLine
 62
253
  6
CONTINUOUS
 10
46.4300134781
 20
21.9950924357
 11
46.3325063701
 21
23.0014590534
  0
LWPOLYLINE
  5
419
100
AcDbEntity
  8
DRAFT
100
AcDbPolyline
 62
7
  6
CONTINUOUS
 90
16
 70
0
 10
46.6013143281
 20
22.0113328007
 10
46.8789933852
 20
18.8710400492
 10
47.1170733413
 20
15.7285414462
 10
47.3155141742
 20
12.5839614042
 10
47.4742683711
 20
9.4369624267
 10
47.5933220203
 20
6.2881318002
 10
47.6726968564
 20
3.1389821451
 10
47.7123945836
 20
-0.0099002463
 10
47.7123947559
 20
-3.1588495615
 10
47.672697294
 20
-6.3077333875
 10
47.593322589
 20
-9.4568864873
 10
47.4742689872
 20
-12.6057219918
 10
47.3155147561
 20
-15.7527255525
 10
47.1170738092
 20
-18.8973093067
 10
46.878993659
 20
-22.0398113265
 10
46.6013143281
 20
-25.1801071993
  0
LWPOLYLINE
  5
41A
100
AcDbEntity
  8
RACCORDO
100
AcDbPolyline
 62
253
  6
CONTINUOUS
 90
16
 70
0
 10
46.152820089
 20
-25.1487336028
 10
46.4300600726
 20
-22.0138084218
 10
46.6677801421
 20
-18.8764692074
 10
46.8659404765
 20
-15.7368385133
 10
47.024506096
 20
-12.5948375862
 10
47.1434509439
 20
-9.4507914569
 10
47.2227587666
 20
-6.305429175
 10
47.2624174103
 20
-3.1584060468
 10
47.2624170521
 20
-0.0103155184
 10
47.2227578053
 20
3.1367055656
 10
47.1434495108
 20
6.2820635983
 10
47.0245043101
 20
9.4261034357
 10
46.865938638
 20
12.5680965127
 10
46.6677786124
 20
15.7077179612
 10
46.4300591552
 20
18.8450463755
 10
46.152820089
 20
21.9799592042
  0
LWPOLYLINE
  5
41B
100
AcDbEntity
  8
RACCORDO
100
AcDbPolyline
 62
253
  6
CONTINUOUS
 90
16
 70
0
 10
46.4300134781
 20
-25.1638668343
 10
46.7074948724
 20
-22.0275399224
 10
46.9454134809
 20
-18.8880481002
 10
47.1437344223
 20
-15.7459150689
 10
47.3024207511
 20
-12.6017700556
 10
47.4214626379
 20
-9.4559324753
 10
47.5008520508
 20
-6.3084610621
 10
47.5405646757
 20
-3.1593151271
 10
47.5405644147
 20
-0.0094178552
 10
47.5008513067
 20
3.1397260105
 10
47.4214615469
 20
6.2871926814
 10
47.3024195234
 20
9.4330234563
 10
47.1437332434
 20
12.5771614219
 10
46.9454125034
 20
15.7192877712
 10
46.7074942849
 20
18.8587726748
 10
46.4300134781
 20
21.9950924357
  0
LINE
  5
41C
100
AcDbEntity
  8
DRAFT
100
AcDbLine
 62
7
  6
CONTINUOUS
 10
46.6013143281
 20
-25.1801071993
 11
46.5141874888
 21
-26.0817242803
  0
LINE
  5
41D
100
AcDbEntity
  8
RACCORDO
100
AcDbLine
 62
253
  6
CONTINUOUS
 10
46.0553978614
 20
-26.1547999757
 11
46.152820089
 21
-25.1487336028
  0
LINE
  5
41E
100
AcDbEntity
  8
RACCORDO
100
AcDbLine
 62
253
  6
CONTINUOUS
 10
46.3325063522
 20
-26.1702336333
 11
46.4300134781
 21
-25.1638668343
  0
LINE
  5
41F
100
AcDbEntity
  8
DRAFT
100
AcDbLine
 62
7
  6
CONTINUOUS
 10
46.5141874888
 20
-26.0817242803
 11
46.4237834646
 21
-26.9831198886
  0
LINE
  5
420
100
AcDbEntity
  8
RACCORDO
100
AcDbLine
 62
253
  6
CONTINUOUS
 10
45.9228823996
 20
-27.460025417
 11
46.0553978614
 21
-26.1547999757
  0
LINE
  5
421
100
AcDbEntity
  8
RACCORDO
100
AcDbLine
 62
253
  6
CONTINUOUS
 10
46.1998760252
 20
-27.4757719658
 11
46.3325063522
 21
-26.1702336333
  0
LINE
  5
422
100
AcDbEntity
  8
DRAFT
100
AcDbLine
 62
7
  6
CONTINUOUS
 10
46.4237834646
 20
-26.9831198886
 11
46.3301036854
 21
-27.8842811634
  0
LWPOLYLINE
  5
423
100
AcDbEntity
  8
DRAFT
100
AcDbPolyline
 62
7
  6
CONTINUOUS
 90
3
 70
0
 10
46.3301036854
 20
-27.8842811634
 10
46.2331487034
 20
-28.7851834713
 10
46.1834436869
 20
-29.23553571
  0
LWPOLYLINE
  5
424
100
AcDbEntity
  8
RACCORDO
100
AcDbPolyline
 62
253
  6
CONTINUOUS
 90
3
 70
0
 10
45.7355001019
 20
-29.1995074048
 10
45.7834910821
 20
-28.7647290879
 10
45.9228823996
 20
-27.460025417
  0
LWPOLYLINE
  5
425
100
AcDbEntity
  8
RACCORDO
100
AcDbPolyline
 62
253
  6
CONTINUOUS
 90
3
 70
0
 10
46.012331185
 20
-29.2156671656
 10
46.0603640851
 20
-28.7807866741
 10
46.1998760252
 20
-27.4757719658
  0
LWPOLYLINE
  5
426
100
AcDbEntity
  8
DRAFT
100
AcDbPolyline
 62
7
  6
CONTINUOUS
 90
10
 70
0
 10
46.1834436869
 20
-29.23553571
 10
46.1321700582
 20
-29.6815763128
 10
46.0776618865
 20
-30.1272371905
 10
46.0199197956
 20
-30.5725173582
 10
45.958942758
 20
-31.017438562
 10
45.8947330912
 20
-31.4619770955
 10
45.8272964794
 20
-31.9060638241
 10
45.7566353014
 20
-32.3496750862
 10
45.6827486088
 20
-32.7928326689
 10
45.6056371368
 20
-33.2355356415
  0
LWPOLYLINE
  5
427
100
AcDbEntity
  8
RACCORDO
100
AcDbPolyline
 62
253
  6
CONTINUOUS
 90
10
 70
0
 10
45.1616876564
 20
-33.1727659214
 10
45.2382625014
 20
-32.7330311722
 10
45.3116357801
 20
-32.2928426427
 10
45.3818067775
 20
-31.8522012295
 10
45.4487765278
 20
-31.4110850947
 10
45.5125426062
 20
-30.9695178816
 10
45.5730991496
 20
-30.5275687383
 10
45.6304437924
 20
-30.0852613517
 10
45.6845776454
 20
-29.642573924
 10
45.7355001019
 20
-29.1995074048
  0
LWPOLYLINE
  5
428
100
AcDbEntity
  8
RACCORDO
100
AcDbPolyline
 62
253
  6
CONTINUOUS
 90
10
 70
0
 10
45.435872205
 20
-33.204252895
 10
45.5127922069
 20
-32.7628782722
 10
45.5865014906
 20
-32.3209976225
 10
45.656997
 20
-31.8786348407
 10
45.7242762359
 20
-31.4358105939
 10
45.7883363721
 20
-30.9925494353
 10
45.8491740453
 20
-30.5488811068
 10
45.9067868633
 20
-30.1048302197
 10
45.9611732361
 20
-29.6604175644
 10
46.0123311891
 20
-29.215667166
  0
LWPOLYLINE
  5
429
100
AcDbEntity
  8
DRAFT
100
AcDbPolyline
 62
7
  6
CONTINUOUS
 90
94
 70
0
 10
45.6056371368
 20
-33.2355356415
 10
45.5786358877
 20
-33.3836882794
 10
45.5503276875
 20
-33.5315818667
 10
45.5207126247
 20
-33.6792163937
 10
45.4897951705
 20
-33.8266077183
 10
45.4575710301
 20
-33.9737399632
 10
45.4240271474
 20
-34.1205655229
 10
45.3891577063
 20
-34.2670831085
 10
45.3529687105
 20
-34.4132940046
 10
45.3154648432
 20
-34.5591544773
 10
45.2766381273
 20
-34.7046565616
 10
45.2364967348
 20
-34.8498082321
 10
45.195069577
 20
-34.9945896727
 10
45.152353887
 20
-35.1389963304
 10
45.1083526262
 20
-35.2830327751
 10
45.0631032979
 20
-35.4266928796
 10
45.0166157452
 20
-35.5699825103
 10
44.9688803154
 20
-35.7128958211
 10
44.9199052676
 20
-35.8554091205
 10
44.8696962078
 20
-35.9975388613
 10
44.8182477217
 20
-36.1392686187
 10
44.7655515456
 20
-36.2805253984
 10
44.7116146895
 20
-36.4212903306
 10
44.656430347
 20
-36.5615823374
 10
44.5999695365
 20
-36.7013851245
 10
44.5422239926
 20
-36.8406879549
 10
44.483202186
 20
-36.9795016245
 10
44.4229002405
 20
-37.1178421381
 10
44.3612817639
 20
-37.2557646739
 10
44.298383346
 20
-37.3932141057
 10
44.2343105888
 20
-37.5300410004
 10
44.1690594164
 20
-37.666257332
 10
44.1026341125
 20
-37.8018512241
 10
44.0351528317
 20
-37.9366375126
 10
43.9669132395
 20
-38.0701277275
 10
43.8976179015
 20
-38.202810531
 10
43.8264922767
 20
-38.3359663164
 10
43.7538244047
 20
-38.4691878387
 10
43.6793263674
 20
-38.6028821943
 10
43.6013595439
 20
-38.7395507862
 10
43.5199947593
 20
-38.8793173872
 10
43.435161124
 20
-39.0220573216
 10
43.3450072997
 20
-39.1698986586
 10
43.2494381291
 20
-39.3232354987
 10
43.1485486078
 20
-39.4816720484
 10
43.0407725812
 20
-39.6461510212
 10
42.9254882776
 20
-39.8176471744
 10
42.8033173633
 20
-39.9951834113
 10
42.6745589787
 20
-40.1767748029
 10
42.5392372342
 20
-40.3623348633
 10
42.3973282566
 20
-40.5519483584
 10
42.2490594431
 20
-40.7438879121
 10
42.0946974076
 20
-40.9377214354
 10
41.9339760536
 20
-41.1338799267
 10
41.7663238756
 20
-41.3319310642
 10
41.5921354253
 20
-41.5315916682
 10
41.411016829
 20
-41.7331439306
 10
41.2212140728
 20
-41.9370035712
 10
41.0221526468
 20
-42.1438278952
 10
40.8144079519
 20
-42.3529582104
 10
40.5979509806
 20
-42.562836496
 10
40.3714090078
 20
-42.7744605314
 10
40.1361558556
 20
-42.9868317752
 10
39.89628231
 20
-43.1953992076
 10
39.6524032167
 20
-43.3992355922
 10
39.4039045302
 20
-43.5992699269
 10
39.1530334767
 20
-43.7937370705
 10
38.900780412
 20
-43.9818260496
 10
38.6461553539
 20
-44.1643503236
 10
38.3884349044
 20
-44.3419816378
 10
38.1274994705
 20
-44.5148723099
 10
37.863468857
 20
-44.6828719454
 10
37.5959787513
 20
-44.8461980017
 10
37.3247792342
 20
-45.0050328216
 10
37.050120234
 20
-45.1591957885
 10
36.7723871438
 20
-45.3083599118
 10
36.4916201378
 20
-45.4524843075
 10
36.2077787548
 20
-45.5916116183
 10
35.9211273334
 20
-45.7255402082
 10
35.6316348844
 20
-45.8542776677
 10
35.3393318367
 20
-45.9778180777
 10
35.0445745595
 20
-46.0959395672
 10
34.7473544174
 20
-46.2086285983
 10
34.4476792049
 20
-46.3159002736
 10
34.1459298416
 20
-46.4175756954
 10
33.8420549116
 20
-46.5136578278
 10
33.5361047274
 20
-46.6041451134
 10
33.2286127174
 20
-46.6888518642
 10
32.9195850303
 20
-46.7677526696
 10
32.6090141686
 20
-46.8408741614
 10
32.2974130244
 20
-46.9081086866
 10
31.9849520465
 20
-46.9694206944
 10
31.6714592423
 20
-47.0248467242
 10
31.356933795
 20
-47.0743872033
  0
LWPOLYLINE
  5
42A
100
AcDbEntity
  8
RACCORDO
100
AcDbPolyline
 62
253
  6
CONTINUOUS
 90
73
 70
0
 10
-30.3653650278
 20
43.4731552772
 10
-30.8656816453
 20
43.3883654026
 10
-31.3438469092
 20
43.2958174534
 10
-31.7998632653
 20
43.195510522
 10
-32.2323080549
 20
43.0864020583
 10
-32.6426081463
 20
42.969532482
 10
-33.0350392431
 20
42.8480256954
 10
-33.4105079409
 20
42.7220059896
 10
-33.7681091544
 20
42.5913476891
 10
-34.1093998888
 20
42.4588006223
 10
-34.4340391946
 20
42.3247588194
 10
-34.7423682161
 20
42.1888277272
 10
-35.0369665107
 20
42.0525750066
 10
-35.3177349058
 20
41.9163328504
 10
-35.5847722275
 20
41.7797690594
 10
-35.8409548401
 20
41.6434550653
 10
-36.0867182323
 20
41.5073634419
 10
-36.3216264564
 20
41.3715217591
 10
-36.5472486859
 20
41.236584145
 10
-36.7640702039
 20
41.1023419783
 10
-36.9716052299
 20
40.9690042114
 10
-37.1699663002
 20
40.83785164
 10
-37.3587465261
 20
40.7092169198
 10
-37.5383522432
 20
40.5827681568
 10
-37.7101158252
 20
40.4587895549
 10
-37.8739930802
 20
40.3374196783
 10
-38.030027754
 20
40.2185207318
 10
-38.1796841911
 20
40.1019623886
 10
-38.3230028247
 20
39.9878267377
 10
-38.4599428889
 20
39.8760323607
 10
-38.591846996
 20
39.7662035908
 10
-38.7187482973
 20
39.6584036115
 10
-38.8406134011
 20
39.5525697664
 10
-38.9586851605
 20
39.4481375029
 10
-39.0730676417
 20
39.3450818333
 10
-39.1836566066
 20
39.2434281008
 10
-39.2913824915
 20
39.1426871197
 10
-39.3961900081
 20
39.0429738206
 10
-39.4981343137
 20
38.9441735119
 10
-39.5983115395
 20
38.8454524244
 10
-39.6961095633
 20
38.7475597471
 10
-39.7921404034
 20
38.6497463865
 10
-39.8893364225
 20
38.5489307231
 10
-39.9896071978
 20
38.4431297398
 10
-40.0910430555
 20
38.3343256502
 10
-40.1908474806
 20
38.2253846731
 10
-40.2883050767
 20
38.1169400969
 10
-40.3841311142
 20
38.0083586831
 10
-40.477675083
 20
37.9006073126
 10
-40.5686439321
 20
37.7940254757
 10
-40.6573306112
 20
37.6882739302
 10
-40.7439636263
 20
37.5833015635
 10
-40.8285487293
 20
37.4791278523
 10
-40.9110800829
 20
37.3757335232
 10
-40.9917688168
 20
37.2730093189
 10
-41.0706317268
 20
37.1709182989
 10
-41.1476519412
 20
37.0694975722
 10
-41.2229900957
 20
36.9687489424
 10
-41.2969065898
 20
36.8682967599
 10
-41.3691409579
 20
36.7685168142
 10
-41.439072566
 20
36.6705381827
 10
-41.5067506964
 20
36.5742435381
 10
-41.5721260553
 20
36.4797505829
 10
-41.6344302016
 20
36.3885411909
 10
-41.6932719204
 20
36.301176695
 10
-41.749042495
 20
36.2170964111
 10
-41.8021472675
 20
36.1360992946
 10
-41.8525482381
 20
36.0582765643
 10
-41.9002834777
 20
35.9835375126
 10
-41.9458724334
 20
35.9114081367
 10
-41.9893879958
 20
35.8418029444
 10
-42.0307573355
 20
35.7748078027
 10
-42.1079588091
 20
35.648022819
  0
LWPOLYLINE
  5
42B
100
AcDbEntity
  8
RACCORDO
100
AcDbPolyline
 62
253
  6
CONTINUOUS
 90
75
 70
0
 10
-30.3961552886
 20
43.7322546202
 10
-30.9052041832
 20
43.6489288437
 10
-31.3917994655
 20
43.5541860989
 10
-31.8558492756
 20
43.4498473346
 10
-32.2958450021
 20
43.3380566578
 10
-32.7132829024
 20
43.2201923737
 10
-33.1125583232
 20
43.0964810585
 10
-33.4946324088
 20
42.9678186013
 10
-33.8585200121
 20
42.8356899282
 10
-34.2056749778
 20
42.7006785425
 10
-34.5359381661
 20
42.5639180804
 10
-34.8497462516
 20
42.4262656612
 10
-35.1494228658
 20
42.2876107806
 10
-35.4350367955
 20
42.1487259028
 10
-35.706865473
 20
42.0102572635
 10
-35.967473276
 20
41.8715894925
 10
-36.2174537478
 20
41.7329900332
 10
-36.4565767865
 20
41.5951515437
 10
-36.6860879621
 20
41.4578818164
 10
-36.9066726302
 20
41.3212309356
 10
-37.117969753
 20
41.1858694689
 10
-37.3196814984
 20
41.0524460336
 10
-37.5116681113
 20
40.9215204416
 10
-37.6945797197
 20
40.7931051911
 10
-37.8693228458
 20
40.6669752795
 10
-38.035983598
 20
40.5434530175
 10
-38.1948596877
 20
40.4226920397
 10
-38.3471144346
 20
40.3041406375
 10
-38.4928653227
 20
40.1880043384
 10
-38.6322643884
 20
40.0744442071
 10
-38.7664640934
 20
39.9627565014
 10
-38.8955473466
 20
39.853076175
 10
-39.0196032098
 20
39.7455294867
 10
-39.1397459173
 20
39.6393232254
 10
-39.2561119833
 20
39.5344797772
 10
-39.3686819725
 20
39.4311589052
 10
-39.4782992218
 20
39.3287097237
 10
-39.5849120672
 20
39.2272857169
 10
-39.6886548581
 20
39.1268639986
 10
-39.7906159494
 20
39.026466947
 10
-39.8900729493
 20
38.9268745962
 10
-39.9877272238
 20
38.8274551811
 10
-40.0867228798
 20
38.7249775915
 10
-40.1888351238
 20
38.617436603
 10
-40.2919932139
 20
38.50683647
 10
-40.3935660703
 20
38.3959407173
 10
-40.4927738741
 20
38.2856403902
 10
-40.5902216892
 20
38.1753462026
 10
-40.6854410608
 20
38.0656845683
 10
-40.778027188
 20
37.957231865
 10
-40.868174639
 20
37.8498648282
 10
-40.956308447
 20
37.743152542
 10
-41.0424943678
 20
37.637065422
 10
-41.1265296813
 20
37.5318979841
 10
-41.2085213814
 20
37.4275688453
 10
-41.288746917
 20
37.323778967
 10
-41.3672704846
 20
37.2205023107
 10
-41.4439088579
 20
37.1180542673
 10
-41.5190219929
 20
37.0160353464
 10
-41.5925773418
 20
36.9145685527
 10
-41.663749379
 20
36.8148789847
 10
-41.7326098746
 20
36.7169674643
 10
-41.7991630737
 20
36.6209269684
 10
-41.8625131727
 20
36.5281779525
 10
-41.9223703905
 20
36.4393095673
 10
-41.9791842808
 20
36.3538134082
 10
-42.0331986875
 20
36.2714599777
 10
-42.0844573393
 20
36.1923141376
 10
-42.1330949894
 20
36.1162963878
 10
-42.179482844
 20
36.0429409486
 10
-42.2237395241
 20
35.9721611297
 10
-42.2658772823
 20
35.9040344788
 10
-42.3060866776
 20
35.8383441155
 10
-42.3443975806
 20
35.7751258853
 10
-42.4157538752
 20
35.6557090388
  0
LWPOLYLINE
  5
42C
100
AcDbEntity
  8
DRAFT
100
AcDbPolyline
 62
7
  6
CONTINUOUS
 90
91
 70
0
 10
31.3569337952
 20
43.9056128047
 10
31.681926064
 20
43.854299626
 10
32.0055987537
 20
43.7967675807
 10
32.3279527609
 20
43.7330162003
 10
32.6490861716
 20
43.6630213841
 10
32.9689025892
 20
43.5868061471
 10
33.2871111315
 20
43.5044406282
 10
33.6037346138
 20
43.4159129695
 10
33.9187516827
 20
43.3212336736
 10
34.2318051357
 20
43.2205063713
 10
34.5429037434
 20
43.1137216775
 10
34.8520399387
 20
43.0008873825
 10
35.1588319317
 20
42.8821328488
 10
35.4633695728
 20
42.7573955323
 10
35.7655639331
 20
42.6267361717
 10
36.0647649466
 20
42.4904690672
 10
36.3609315208
 20
42.348578113
 10
36.6541053323
 20
42.2010775088
 10
36.9437603391
 20
42.0483270847
 10
37.2298811911
 20
41.8902999852
 10
37.5124834807
 20
41.7270211223
 10
37.7910874489
 20
41.5589280964
 10
38.0652923771
 20
41.386315113
 10
38.3354988775
 20
41.2088861179
 10
38.6024291228
 20
41.026193288
 10
38.8661924204
 20
40.8382280041
 10
39.126679166
 20
40.6449966881
 10
39.3842831454
 20
40.4460738531
 10
39.6402894211
 20
40.2402955516
 10
39.8934124061
 20
40.0288230228
 10
40.1401897359
 20
39.8147191897
 10
40.380490961
 20
39.5976284126
 10
40.6144454901
 20
39.3779052085
 10
40.8389805535
 20
39.159679539
 10
41.0526779673
 20
38.9441895199
 10
41.2569547628
 20
38.7301982398
 10
41.4529910491
 20
38.5181242493
 10
41.6408404094
 20
38.3079897306
 10
41.8204483586
 20
38.0997736474
 10
41.9928330648
 20
37.8938298886
 10
42.1583130963
 20
37.6898386277
 10
42.3165692001
 20
37.4881208792
 10
42.4676629848
 20
37.2899921403
 10
42.6117754308
 20
37.09506022
 10
42.7487251253
 20
36.9037189544
 10
42.8780303378
 20
36.7184636337
 10
42.9992004367
 20
36.5400392359
 10
43.112726043
 20
36.3677033469
 10
43.2195975332
 20
36.2017206387
 10
43.319415437
 20
36.0429002531
 10
43.4125794263
 20
35.8904353666
 10
43.5012786167
 20
35.7421663326
 10
43.5855792295
 20
35.598321127
 10
43.6654151769
 20
35.4586731128
 10
43.7427769685
 20
35.3203799524
 10
43.8178876945
 20
35.1832222366
 10
43.890524203
 20
35.0474197916
 10
43.9620074542
 20
34.9107884346
 10
44.0327855843
 20
34.7725832152
 10
44.1024102021
 20
34.6335488599
 10
44.1708573882
 20
34.493735416
 10
44.238180657
 20
34.3530640663
 10
44.3043262541
 20
34.2116134801
 10
44.3691093712
 20
34.0696699805
 10
44.432468011
 20
33.927336902
 10
44.4944639576
 20
33.7845108591
 10
44.5550980856
 20
33.6411681313
 10
44.614359121
 20
33.4973074535
 10
44.6722581141
 20
33.3529300272
 10
44.7288294229
 20
33.2080158264
 10
44.7840805516
 20
33.0625302077
 10
44.8380037669
 20
32.916507746
 10
44.8906105776
 20
32.7700322519
 10
44.9419075176
 20
32.62311769
 10
44.9918878379
 20
32.475750057
 10
45.0405431326
 20
32.3279712297
 10
45.0878843543
 20
32.1797877349
 10
45.1339003395
 20
32.0311930206
 10
45.1785495114
 20
31.8822093537
 10
45.2218296031
 20
31.7328375069
 10
45.263742669
 20
31.5830766907
 10
45.304253614
 20
31.4329468348
 10
45.3433523658
 20
31.2824403886
 10
45.3810487831
 20
31.1315648931
 10
45.4173376714
 20
30.9803629245
 10
45.4522120433
 20
30.8288345804
 10
45.4856786799
 20
30.6769797679
 10
45.5177530485
 20
30.5248407884
 10
45.5484402412
 20
30.3724317507
 10
45.5777349701
 20
30.219738565
 10
45.6056371372
 20
30.0667612411
  0
LWPOLYLINE
  5
42D
100
AcDbEntity
  8
RACCORDO
100
AcDbPolyline
 62
253
  6
CONTINUOUS
 90
33
 70
0
 10
45.1616876564
 20
30.0039915228
 10
45.1281981462
 20
30.1850436967
 10
45.0941613932
 20
30.3601969158
 10
45.0595780868
 20
30.5294519321
 10
45.0243501746
 20
30.6925723896
 10
44.9885770217
 20
30.849796123
 10
44.95255532
 20
31.0018350567
 10
44.916312783
 20
31.1486992772
 10
44.8798226787
 20
31.2903798835
 10
44.8432998513
 20
31.4275601271
 10
44.8067602734
 20
31.560273256
 10
44.7701887116
 20
31.6884869725
 10
44.7337530615
 20
31.8127860498
 10
44.697470701
 20
31.9332051901
 10
44.6613248124
 20
32.0497104564
 10
44.6254318953
 20
32.1627835398
 10
44.5898176194
 20
32.2724272389
 10
44.5544567461
 20
32.3786393791
 10
44.5193893342
 20
32.4818940893
 10
44.4846335595
 20
32.5821966543
 10
44.4501715752
 20
32.6795422884
 10
44.4159893429
 20
32.7743899238
 10
44.3820733756
 20
32.8668129914
 10
44.3484374081
 20
32.9567384494
 10
44.3151081918
 20
33.0444054562
 10
44.2820326275
 20
33.1299562788
 10
44.2492640135
 20
33.2132489766
 10
44.2169886839
 20
33.2940963861
 10
44.1852655233
 20
33.3723507435
 10
44.1540358398
 20
33.4481601587
 10
44.1233095906
 20
33.5217812692
 10
44.0930938492
 20
33.5932157812
 10
44.0341620529
 20
33.7297726294
  0
LWPOLYLINE
  5
42E
100
AcDbEntity
  8
RACCORDO
100
AcDbPolyline
 62
253
  6
CONTINUOUS
 90
35
 70
0
 10
45.4358704601
 20
30.035488437
 10
45.4020728885
 20
30.2194928072
 10
45.3673674724
 20
30.3976173234
 10
45.3319240624
 20
30.5698167253
 10
45.2959834255
 20
30.7357474566
 10
45.2596682114
 20
30.8956416391
 10
45.2229481058
 20
31.0503213717
 10
45.1859763969
 20
31.1997467364
 10
45.1489148128
 20
31.3438480667
 10
45.1116910468
 20
31.4834217363
 10
45.0744387494
 20
31.6184167418
 10
45.0372940906
 20
31.7487768662
 10
45.0001597382
 20
31.875253971
 10
44.9631711506
 20
31.9977486198
 10
44.9264728926
 20
32.1161212268
 10
44.8899400642
 20
32.2310656358
 10
44.8536612865
 20
32.3425479716
 10
44.817747092
 20
32.4504609608
 10
44.7820626201
 20
32.555410994
 10
44.7466712647
 20
32.6573823336
 10
44.711653073
 20
32.7563079798
 10
44.6768671074
 20
32.8527275735
 10
44.6423336207
 20
32.9467031093
 10
44.6081353432
 20
33.038123675
 10
44.5742051977
 20
33.1272734516
 10
44.5405199118
 20
33.2143034861
 10
44.5071824317
 20
33.2990353739
 10
44.4743100499
 20
33.381265593
 10
44.4419944041
 20
33.4608723112
 10
44.4102165444
 20
33.538010619
 10
44.3789243137
 20
33.6129035869
 10
44.3481478468
 20
33.6855670996
 10
44.3179144471
 20
33.7560208723
 10
44.2881606759
 20
33.8244893619
 10
44.2300678571
 20
33.9557942354
  0
LWPOLYLINE
  5
42F
100
AcDbEntity
  8
DRAFT
100
AcDbPolyline
 62
7
  6
CONTINUOUS
 90
10
 70
0
 10
45.6056371372
 20
30.0667612411
 10
45.6827477404
 20
29.6240636547
 10
45.7566338043
 20
29.1809101148
 10
45.827294593
 20
28.7373015515
 10
45.8947310838
 20
28.2932161798
 10
45.9589408684
 20
27.8486776583
 10
46.0199181748
 20
27.4037551133
 10
46.0776606559
 20
26.9584722484
 10
46.132169368
 20
26.5128073196
 10
46.1834436869
 20
26.0667613114
  0
LWPOLYLINE
  5
430
100
AcDbEntity
  8
RACCORDO
100
AcDbPolyline
 62
253
  6
CONTINUOUS
 90
10
 70
0
 10
46.0123311691
 20
26.0468929474
 10
45.961173237
 20
26.4916431584
 10
45.9067868819
 20
26.9360556734
 10
45.8491740775
 20
27.3801064673
 10
45.7883364637
 20
27.8237743862
 10
45.724276386
 20
28.2670351828
 10
45.6569970372
 20
28.7098602027
 10
45.58650116
 20
29.1522252513
 10
45.5127912824
 20
29.5941092943
 10
45.4358704363
 20
30.0354884327
  0
LWPOLYLINE
  5
431
100
AcDbEntity
  8
RACCORDO
100
AcDbPolyline
 62
253
  6
CONTINUOUS
 90
10
 70
0
 10
45.7355001019
 20
26.0307330062
 10
45.6845774448
 20
26.4738010918
 10
45.6304434351
 20
26.9164896924
 10
45.5730986795
 20
27.3587978587
 10
45.5125420594
 20
27.8007473865
 10
45.4487759486
 20
28.242314591
 10
45.3818062341
 20
28.6834303304
 10
45.3116353493
 20
29.1240709637
 10
45.2382622516
 20
29.5642583266
 10
45.1616876564
 20
30.0039915228
  0
LINE
  5
432
100
AcDbEntity
  8
RACCORDO
100
AcDbLine
 62
253
  6
CONTINUOUS
 10
45.7834910813
 20
25.5959546981
 11
45.7355001019
 21
26.0307330062
  0
LINE
  5
433
100
AcDbEntity
  8
RACCORDO
100
AcDbLine
 62
253
  6
CONTINUOUS
 10
46.0603640808
 20
25.6120123148
 11
46.012331165
 21
26.0468929469
  0
LINE
  5
434
100
AcDbEntity
  8
DRAFT
100
AcDbLine
 62
7
  6
CONTINUOUS
 10
46.1834436869
 20
26.0667613114
 11
46.2331487108
 21
25.6164090046
  0
LWPOLYLINE
  5
435
100
AcDbEntity
  8
RACCORDO
100
AcDbPolyline
 62
253
  6
CONTINUOUS
 90
32
 70
0
 10
44.0939691739
 20
-36.7599349352
 10
44.124121167
 20
-36.6886246965
 10
44.154781828
 20
-36.6151352059
 10
44.1859463363
 20
-36.5394592267
 10
44.2176094165
 20
-36.4613286117
 10
44.2498301604
 20
-36.3805949296
 10
44.2825492832
 20
-36.2974062649
 10
44.3155839321
 20
-36.2119392327
 10
44.348885227
 20
-36.1243239299
 10
44.3825018473
 20
-36.0344299298
 10
44.4163972663
 20
-35.9420430532
 10
44.450554406
 20
-35.8472446325
 10
44.4849900974
 20
-35.7499529475
 10
44.519718635
 20
-35.6497091781
 10
44.554757469
 20
-35.5465192986
 10
44.590088821
 20
-35.4403768366
 10
44.625674079
 20
-35.3308042098
 10
44.6615387279
 20
-35.2178031975
 10
44.6976568522
 20
-35.1013713968
 10
44.7339126611
 20
-34.98102485
 10
44.770322939
 20
-34.8567974461
 10
44.8068703416
 20
-34.7286545311
 10
44.8433877826
 20
-34.5960092078
 10
44.879890684
 20
-34.4588938465
 10
44.9163628845
 20
-34.3172751263
 10
44.952589783
 20
-34.1704674534
 10
44.9885977723
 20
-34.018481927
 10
45.0243594777
 20
-33.8613062617
 10
45.0595794664
 20
-33.6982195935
 10
45.0941587919
 20
-33.5289811062
 10
45.1281950855
 20
-33.3538301335
 10
45.1616876564
 20
-33.1727659214
  0
LWPOLYLINE
  5
436
100
AcDbEntity
  8
RACCORDO
100
AcDbPolyline
 62
253
  6
CONTINUOUS
 90
34
 70
0
 10
44.2891844461
 20
-36.9909218813
 10
44.3188704094
 20
-36.9225813233
 10
44.3490385076
 20
-36.8522521827
 10
44.3797500229
 20
-36.779715046
 10
44.4109754228
 20
-36.7049557805
 10
44.4426869936
 20
-36.6279530379
 10
44.4749416247
 20
-36.5484721696
 10
44.507758256
 20
-36.466357798
 10
44.5410450095
 20
-36.3817322583
 10
44.5746886955
 20
-36.2947880897
 10
44.6085907012
 20
-36.2056912478
 10
44.6427692009
 20
-36.1143026897
 10
44.6772814799
 20
-36.0203639443
 10
44.7120418434
 20
-35.9239945273
 10
44.7470333148
 20
-35.8251238805
 10
44.7823968661
 20
-35.7232124773
 10
44.8180522002
 20
-35.6183284374
 10
44.8539364693
 20
-35.5104863025
 10
44.890185719
 20
-35.3990763101
 10
44.9266896583
 20
-35.2842052029
 10
44.9633596154
 20
-35.1659072158
 10
45.0003211403
 20
-35.0434864693
 10
45.0374297548
 20
-34.9170823809
 10
45.074550062
 20
-34.7867943057
 10
45.1117800079
 20
-34.651868311
 10
45.1489833762
 20
-34.5123607606
 10
45.1860265388
 20
-34.3683224544
 10
45.2229823227
 20
-34.2189546611
 10
45.2596881876
 20
-34.0643300569
 10
45.2959914608
 20
-33.9044856499
 10
45.3319246609
 20
-33.7385882875
 10
45.3673653358
 20
-33.5664023789
 10
45.4020713317
 20
-33.3882754248
 10
45.4358722295
 20
-33.2042528995
  0
LWPOLYLINE
  5
437
100
AcDbEntity
  8
RACCORDO
100
AcDbPolyline
 62
253
  6
CONTINUOUS
 90
3
 70
0
 10
44.0064603634
 20
-36.9616112304
 10
44.0351681863
 20
-36.8962435991
 10
44.0939691739
 20
-36.7599349352
  0
LINE
  5
438
100
AcDbEntity
  8
RACCORDO
100
AcDbLine
 62
253
  6
CONTINUOUS
 10
44.2312441522
 20
-37.1219401286
 11
44.2891844461
 21
-36.9909218813
  0
LINE
  5
439
100
AcDbEntity
  8
RACCORDO
100
AcDbLine
 62
253
  6
CONTINUOUS
 10
43.950670777
 20
-37.0864089522
 11
44.0064603634
 21
-36.9616112304
  0
LINE
  5
43A
100
AcDbEntity
  8
RACCORDO
100
AcDbLine
 62
253
  6
CONTINUOUS
 10
44.1757732508
 20
-37.2445856969
 11
44.2312441522
 21
-37.1219401286
  0
LINE
  5
43B
100
AcDbEntity
  8
RACCORDO
100
AcDbLine
 62
253
  6
CONTINUOUS
 10
43.8975073678
 20
-37.2027954685
 11
43.950670777
 21
-37.0864089522
  0
LINE
  5
43C
100
AcDbEntity
  8
RACCORDO
100
AcDbLine
 62
253
  6
CONTINUOUS
 10
44.122976526
 20
-37.3589254001
 11
44.1757732508
 21
-37.2445856969
  0
LINE
  5
43D
100
AcDbEntity
  8
RACCORDO
100
AcDbLine
 62
253
  6
CONTINUOUS
 10
43.8470394079
 20
-37.3111741428
 11
43.8975073678
 21
-37.2027954685
  0
LINE
  5
43E
100
AcDbEntity
  8
RACCORDO
100
AcDbLine
 62
253
  6
CONTINUOUS
 10
44.0730527564
 20
-37.4650191741
 11
44.122976526
 21
-37.3589254001
  0
LINE
  5
43F
100
AcDbEntity
  8
RACCORDO
100
AcDbLine
 62
253
  6
CONTINUOUS
 10
43.798995052
 20
-37.4124263949
 11
43.8470394079
 21
-37.3111741428
  0
LINE
  5
440
100
AcDbEntity
  8
RACCORDO
100
AcDbLine
 62
253
  6
CONTINUOUS
 10
44.0249135942
 20
-37.5655652169
 11
44.0730527564
 21
-37.4650191741
  0
LINE
  5
441
100
AcDbEntity
  8
RACCORDO
100
AcDbLine
 62
253
  6
CONTINUOUS
 10
43.7524257308
 20
-37.5089829671
 11
43.798995052
 21
-37.4124263949
  0
LINE
  5
442
100
AcDbEntity
  8
RACCORDO
100
AcDbLine
 62
253
  6
CONTINUOUS
 10
43.977968954
 20
-37.6620395865
 11
44.0249135942
 21
-37.5655652169
  0
LINE
  5
443
100
AcDbEntity
  8
RACCORDO
100
AcDbLine
 62
253
  6
CONTINUOUS
 10
43.7063340518
 20
-37.6030436252
 11
43.7524257308
 21
-37.5089829671
  0
LINE
  5
444
100
AcDbEntity
  8
RACCORDO
100
AcDbLine
 62
253
  6
CONTINUOUS
 10
43.93115597
 20
-37.756759845
 11
43.977968954
 21
-37.6620395865
  0
LINE
  5
445
100
AcDbEntity
  8
RACCORDO
100
AcDbLine
 62
253
  6
CONTINUOUS
 10
43.6601590844
 20
-37.6958235209
 11
43.7063340518
 21
-37.6030436252
  0
LINE
  5
446
100
AcDbEntity
  8
RACCORDO
100
AcDbLine
 62
253
  6
CONTINUOUS
 10
43.8836941327
 20
-37.8513372286
 11
43.93115597
 21
-37.756759845
  0
LINE
  5
447
100
AcDbEntity
  8
RACCORDO
100
AcDbLine
 62
253
  6
CONTINUOUS
 10
43.6130199181
 20
-37.7891199372
 11
43.6601590844
 21
-37.6958235209
  0
LINE
  5
448
100
AcDbEntity
  8
RACCORDO
100
AcDbLine
 62
253
  6
CONTINUOUS
 10
43.8353630121
 20
-37.9461894825
 11
43.8836941327
 21
-37.8513372286
  0
LINE
  5
449
100
AcDbEntity
  8
RACCORDO
100
AcDbLine
 62
253
  6
CONTINUOUS
 10
43.5651464554
 20
-37.8824289137
 11
43.6130199181
 21
-37.7891199372
  0
LINE
  5
44A
100
AcDbEntity
  8
RACCORDO
100
AcDbLine
 62
253
  6
CONTINUOUS
 10
43.7862836283
 20
-38.0410469262
 11
43.8353630121
 21
-37.9461894825
  0
LINE
  5
44B
100
AcDbEntity
  8
RACCORDO
100
AcDbLine
 62
253
  6
CONTINUOUS
 10
43.5166079206
 20
-37.9755981302
 11
43.5651464554
 21
-37.8824289137
  0
LINE
  5
44C
100
AcDbEntity
  8
RACCORDO
100
AcDbLine
 62
253
  6
CONTINUOUS
 10
43.7366391302
 20
-38.1355304703
 11
43.7862836283
 21
-38.0410469262
  0
LINE
  5
44D
100
AcDbEntity
  8
RACCORDO
100
AcDbLine
 62
253
  6
CONTINUOUS
 10
43.4675920289
 20
-38.0682393383
 11
43.5166079206
 21
-37.9755981302
  0
LINE
  5
44E
100
AcDbEntity
  8
RACCORDO
100
AcDbLine
 62
253
  6
CONTINUOUS
 10
43.6864807314
 20
-38.2295250884
 11
43.7366391302
 21
-38.1355304703
  0
LINE
  5
44F
100
AcDbEntity
  8
RACCORDO
100
AcDbLine
 62
253
  6
CONTINUOUS
 10
43.4181119083
 20
-38.1603227734
 11
43.4675920289
 21
-38.0682393383
  0
LINE
  5
450
100
AcDbEntity
  8
RACCORDO
100
AcDbLine
 62
253
  6
CONTINUOUS
 10
43.6358867201
 20
-38.3228781162
 11
43.6864807314
 21
-38.2295250884
  0
LINE
  5
451
100
AcDbEntity
  8
RACCORDO
100
AcDbLine
 62
253
  6
CONTINUOUS
 10
43.3679989932
 20
-38.2521432954
 11
43.4181119083
 21
-38.1603227734
  0
LINE
  5
452
100
AcDbEntity
  8
RACCORDO
100
AcDbLine
 62
253
  6
CONTINUOUS
 10
43.5843362969
 20
-38.4165335237
 11
43.6358867201
 21
-38.3228781162
  0
LINE
  5
453
100
AcDbEntity
  8
RACCORDO
100
AcDbLine
 62
253
  6
CONTINUOUS
 10
43.3168505982
 20
-38.3444374667
 11
43.3679989932
 21
-38.2521432954
  0
LINE
  5
454
100
AcDbEntity
  8
RACCORDO
100
AcDbLine
 62
253
  6
CONTINUOUS
 10
43.5312538145
 20
-38.5114826682
 11
43.5843362969
 21
-38.4165335237
  0
LINE
  5
455
100
AcDbEntity
  8
RACCORDO
100
AcDbLine
 62
253
  6
CONTINUOUS
 10
43.263355837
 20
-38.439436265
 11
43.3168505982
 21
-38.3444374667
  0
LINE
  5
456
100
AcDbEntity
  8
RACCORDO
100
AcDbLine
 62
253
  6
CONTINUOUS
 10
43.4753927079
 20
-38.6098354795
 11
43.5312538145
 21
-38.5114826682
  0
LINE
  5
457
100
AcDbEntity
  8
RACCORDO
100
AcDbLine
 62
253
  6
CONTINUOUS
 10
43.2066944155
 20
-38.5384707831
 11
43.263355837
 21
-38.439436265
  0
LINE
  5
458
100
AcDbEntity
  8
RACCORDO
100
AcDbLine
 62
253
  6
CONTINUOUS
 10
43.4154702153
 20
-38.7136383177
 11
43.4753927079
 21
-38.6098354795
  0
LINE
  5
459
100
AcDbEntity
  8
RACCORDO
100
AcDbLine
 62
253
  6
CONTINUOUS
 10
43.1455609539
 20
-38.6436057546
 11
43.2066944155
 21
-38.5384707831
  0
LINE
  5
45A
100
AcDbEntity
  8
RACCORDO
100
AcDbLine
 62
253
  6
CONTINUOUS
 10
43.3505728449
 20
-38.8241854684
 11
43.4154702153
 21
-38.7136383177
  0
LWPOLYLINE
  5
45B
100
AcDbEntity
  8
RACCORDO
100
AcDbPolyline
 62
253
  6
CONTINUOUS
 90
3
 70
0
 10
43.0428819501
 20
-38.8163314821
 10
43.0786589434
 20
-38.7566301924
 10
43.1455609539
 20
-38.6436057546
  0
LWPOLYLINE
  5
45C
100
AcDbEntity
  8
RACCORDO
100
AcDbPolyline
 62
253
  6
CONTINUOUS
 90
53
 70
0
 10
41.3237617306
 20
38.0027583478
 10
41.2697253835
 20
38.0642099206
 10
41.2133068107
 20
38.1277542545
 10
41.1545247163
 20
38.1933310991
 10
41.0926251552
 20
38.2615108782
 10
41.027576612
 20
38.3323615471
 10
40.9594106303
 20
38.405814745
 10
40.8874678638
 20
38.4822363382
 10
40.8116313666
 20
38.5617841552
 10
40.7320181384
 20
38.6442998393
 10
40.6483197681
 20
38.7296749434
 10
40.5599763171
 20
38.8184516416
 10
40.4675478161
 20
38.9100871582
 10
40.3724058189
 20
39.0028457909
 10
40.2750802626
 20
39.0961780841
 10
40.1750413124
 20
39.1906332781
 10
40.0720708694
 20
39.2861238971
 10
39.9664507139
 20
39.3824272366
 10
39.8578991886
 20
39.4797657713
 10
39.7453530616
 20
39.5787197359
 10
39.6288411775
 20
39.6793313586
 10
39.5083348629
 20
39.7815580165
 10
39.3826846495
 20
39.8858525447
 10
39.2519222244
 20
39.9922758179
 10
39.1160161384
 20
40.1007664267
 10
38.9737222708
 20
40.2115936832
 10
38.8250758371
 20
40.324830046
 10
38.6700419468
 20
40.4404024073
 10
38.5072713796
 20
40.5583616768
 10
38.3366590177
 20
40.6788695553
 10
38.1583104079
 20
40.8017636161
 10
37.9711923756
 20
40.9266086207
 10
37.7749890626
 20
41.0536612128
 10
37.5700168333
 20
41.1826640892
 10
37.3561908355
 20
41.3124113293
 10
37.1340877502
 20
41.4426520881
 10
36.903131337
 20
41.5736369487
 10
36.6615073268
 20
41.7049123873
 10
36.4095123183
 20
41.8365257889
 10
36.1468501364
 20
41.9684296129
 10
35.8708173188
 20
42.1000281152
 10
35.5812919404
 20
42.2316402773
 10
35.278396226
 20
42.3629471242
 10
34.9597927417
 20
42.4923963248
 10
34.6252118548
 20
42.6203305929
 10
34.2749229666
 20
42.7464077197
 10
33.9073966343
 20
42.8680486456
 10
33.5234974573
 20
42.9853743801
 10
33.1223593807
 20
43.0982651938
 10
32.6998558829
 20
43.2037817137
 10
32.2546099231
 20
43.3009449571
 10
31.7879945855
 20
43.3907358661
 10
31.3000075797
 20
43.4731552771
  0
LWPOLYLINE
  5
45D
100
AcDbEntity
  8
RACCORDO
100
AcDbPolyline
 62
253
  6
CONTINUOUS
 90
55
 70
0
 10
41.633547357
 20
38.0500262119
 10
41.5825589475
 20
38.1091257196
 10
41.5299841398
 20
38.1694976714
 10
41.4750151844
 20
38.2320096618
 10
41.4175909892
 20
38.2966536645
 10
41.3577393424
 20
38.3633164424
 10
41.2947546292
 20
38.4326887285
 10
41.2285604659
 20
38.504753596
 10
41.1591669582
 20
38.5793985911
 10
41.0859685655
 20
38.6571602046
 10
41.0088196313
 20
38.7380604787
 10
40.9278017196
 20
38.8218766718
 10
40.8426432823
 20
38.9087450338
 10
40.7527544654
 20
38.9990991826
 10
40.6586922352
 20
39.0922051649
 10
40.5618998769
 20
39.186504437
 10
40.4628733814
 20
39.2814301229
 10
40.361049159
 20
39.3774384429
 10
40.2562833389
 20
39.474565699
 10
40.14880698
 20
39.5725016656
 10
40.0383097798
 20
39.6714327986
 10
39.9238164126
 20
39.7721070333
 10
39.8052671457
 20
39.8744280319
 10
39.6825986547
 20
39.9783002735
 10
39.5547934823
 20
40.0844105549
 10
39.4217590321
 20
40.1926349621
 10
39.2834134967
 20
40.3028354259
 10
39.1387054143
 20
40.4156054838
 10
38.9874772113
 20
40.5307856764
 10
38.8296136819
 20
40.6481736594
 10
38.6640707612
 20
40.7682244215
 10
38.4905071449
 20
40.8908255503
 10
38.3088882495
 20
41.0156319707
 10
38.1185803186
 20
41.1426929837
 10
37.9190567394
 20
41.2719428594
 10
37.7103844513
 20
41.4029070358
 10
37.4928512664
 20
41.5349744048
 10
37.2669093673
 20
41.6674581738
 10
37.0318148982
 20
41.8003708053
 10
36.786047652
 20
41.934073422
 10
36.5297027445
 20
42.0679640311
 10
36.2623331095
 20
42.2017085132
 10
35.9815320807
 20
42.3358551827
 10
35.6870150769
 20
42.4697944649
 10
35.3787447272
 20
42.6027725948
 10
35.0546186881
 20
42.7348323225
 10
34.7142844664
 20
42.8651383707
 10
34.3578444358
 20
42.9926485244
 10
33.9838583372
 20
43.1168331536
 10
33.5932633528
 20
43.2362884941
 10
33.1851477367
 20
43.3501624083
 10
32.7552712856
 20
43.4582511881
 10
32.3021804711
 20
43.5592631918
 10
31.8273255557
 20
43.6511709791
 10
31.3307892849
 20
43.7322558863
  0
LWPOLYLINE
  5
45E
100
AcDbEntity
  8
RACCORDO
100
AcDbPolyline
 62
253
  6
CONTINUOUS
 90
3
 70
0
 10
41.4741380685
 20
37.8283650677
 10
41.4255538589
 20
37.8852027388
 10
41.3237617306
 20
38.0027583478
  0
LINE
  5
45F
100
AcDbEntity
  8
RACCORDO
100
AcDbLine
 62
253
  6
CONTINUOUS
 10
41.7307886403
 20
37.9357938472
 11
41.633547357
 21
38.0500262119
  0
LINE
  5
460
100
AcDbEntity
  8
RACCORDO
100
AcDbLine
 62
253
  6
CONTINUOUS
 10
41.8241065617
 20
37.824247902
 11
41.7307886403
 21
37.9357938472
  0
LWPOLYLINE
  5
461
100
AcDbEntity
  8
RACCORDO
100
AcDbPolyline
 62
253
  6
CONTINUOUS
 90
3
 70
0
 10
41.6129015281
 20
37.6630870331
 10
41.5674008396
 20
37.7177337309
 10
41.4741380685
 20
37.8283650677
  0
LINE
  5
462
100
AcDbEntity
  8
RACCORDO
100
AcDbLine
 62
253
  6
CONTINUOUS
 10
41.9148125293
 20
37.7139559332
 11
41.8241065617
 21
37.824247902
  0
LINE
  5
463
100
AcDbEntity
  8
RACCORDO
100
AcDbLine
 62
253
  6
CONTINUOUS
 10
41.7020600043
 20
37.5545829288
 11
41.6129015281
 21
37.6630870331
  0
LINE
  5
464
100
AcDbEntity
  8
RACCORDO
100
AcDbLine
 62
253
  6
CONTINUOUS
 10
42.0049145074
 20
37.6024954111
 11
41.9148125293
 21
37.7139559332
  0
LINE
  5
465
100
AcDbEntity
  8
RACCORDO
100
AcDbLine
 62
253
  6
CONTINUOUS
 10
41.7905841405
 20
37.4449971998
 11
41.7020600043
 21
37.5545829288
  0
LWPOLYLINE
  5
466
100
AcDbEntity
  8
RACCORDO
100
AcDbPolyline
 62
253
  6
CONTINUOUS
 90
5
 70
0
 10
42.0080134966
 20
37.1673288706
 10
41.9650250905
 20
37.2232282329
 10
41.9217629217
 20
37.2789729241
 10
41.8782431701
 20
37.3345460384
 10
41.7905841405
 20
37.4449971998
  0
LWPOLYLINE
  5
467
100
AcDbEntity
  8
RACCORDO
100
AcDbPolyline
 62
253
  6
CONTINUOUS
 90
6
 70
0
 10
42.2697569043
 20
37.2630000787
 10
42.2262378623
 20
37.3200622324
 10
42.1824761001
 20
37.3769244254
 10
42.138440479
 20
37.4336264332
 10
42.0941224725
 20
37.4901789461
 10
42.0049145074
 20
37.6024954111
  0
LINE
  5
468
100
AcDbEntity
  8
RACCORDO
100
AcDbLine
 62
253
  6
CONTINUOUS
 10
42.0932231517
 20
37.0550137141
 11
42.0080134966
 21
37.1673288706
  0
LINE
  5
469
100
AcDbEntity
  8
RACCORDO
100
AcDbLine
 62
253
  6
CONTINUOUS
 10
42.3558800632
 20
37.1485324895
 11
42.2697569043
 21
37.2630000787
  0
LINE
  5
46A
100
AcDbEntity
  8
RACCORDO
100
AcDbLine
 62
253
  6
CONTINUOUS
 10
42.1772695509
 20
36.9422184051
 11
42.0932231517
 21
37.0550137141
  0
LINE
  5
46B
100
AcDbEntity
  8
RACCORDO
100
AcDbLine
 62
253
  6
CONTINUOUS
 10
42.441153321
 20
37.0331394575
 11
42.3558800632
 21
37.1485324895
  0
LINE
  5
46C
100
AcDbEntity
  8
RACCORDO
100
AcDbLine
 62
253
  6
CONTINUOUS
 10
42.5260940427
 20
36.9161333959
 11
42.441153321
 21
37.0331394575
  0
LWPOLYLINE
  5
46D
100
AcDbEntity
  8
RACCORDO
100
AcDbPolyline
 62
253
  6
CONTINUOUS
 90
3
 70
0
 10
42.3026702353
 20
36.7701357461
 10
42.2609185104
 20
36.8279349571
 10
42.1772695509
 20
36.9422184051
  0
LWPOLYLINE
  5
46E
100
AcDbEntity
  8
RACCORDO
100
AcDbPolyline
 62
253
  6
CONTINUOUS
 90
14
 70
0
 10
42.9317122035
 20
35.8294047236
 10
42.8913083386
 20
35.8942050374
 10
42.8495769386
 20
35.9604477209
 10
42.8064168933
 20
36.0282849517
 10
42.7615194458
 20
36.0980073467
 10
42.7140177082
 20
36.1708813735
 10
42.6647785224
 20
36.2456402242
 10
42.6160937794
 20
36.3187748399
 10
42.5685515728
 20
36.3893174268
 10
42.5215638932
 20
36.4582360534
 10
42.4756585358
 20
36.5249257567
 10
42.4311914242
 20
36.5888818081
 10
42.3878067135
 20
36.6506092495
 10
42.3026702353
 20
36.7701357461
  0
LWPOLYLINE
  5
46F
100
AcDbEntity
  8
RACCORDO
100
AcDbPolyline
 62
253
  6
CONTINUOUS
 90
15
 70
0
 10
43.2059030888
 20
35.8952786582
 10
43.1662147456
 20
35.9595522946
 10
43.1251111335
 20
36.0254444598
 10
43.0826464391
 20
36.0928120555
 10
43.038685878
 20
36.1618113041
 10
42.9930123724
 20
36.2327171663
 10
42.9447330729
 20
36.3068218382
 10
42.894613104
 20
36.3828543863
 10
42.845004621
 20
36.4572360633
 10
42.7966179659
 20
36.5289708685
 10
42.7488346477
 20
36.5990424953
 10
42.7021080291
 20
36.6668443564
 10
42.6568408848
 20
36.7318654276
 10
42.6127257121
 20
36.7946179097
 10
42.5260940427
 20
36.9161333959
  0
LINE
  5
470
100
AcDbEntity
  8
RACCORDO
100
AcDbLine
 62
253
  6
CONTINUOUS
 10
43.2808215829
 20
35.7721711463
 11
43.2059030888
 21
35.8952786582
  0
LWPOLYLINE
  5
471
100
AcDbEntity
  8
RACCORDO
100
AcDbPolyline
 62
253
  6
CONTINUOUS
 90
3
 70
0
 10
43.044344047
 20
35.6451157836
 10
43.0082395525
 20
35.7047545811
 10
42.9317122035
 20
35.8294047236
  0
LINE
  5
472
100
AcDbEntity
  8
RACCORDO
100
AcDbLine
 62
253
  6
CONTINUOUS
 10
43.3500290566
 20
35.6563294809
 11
43.2808215829
 21
35.7721711463
  0
LINE
  5
473
100
AcDbEntity
  8
RACCORDO
100
AcDbLine
 62
253
  6
CONTINUOUS
 10
43.1123626307
 20
35.5311538646
 11
43.044344047
 21
35.6451157836
  0
LINE
  5
474
100
AcDbEntity
  8
RACCORDO
100
AcDbLine
 62
253
  6
CONTINUOUS
 10
43.4135791293
 20
35.5481122015
 11
43.3500290566
 21
35.6563294809
  0
LINE
  5
475
100
AcDbEntity
  8
RACCORDO
100
AcDbLine
 62
253
  6
CONTINUOUS
 10
43.1748265668
 20
35.4247044579
 11
43.1123626307
 21
35.5311538646
  0
LINE
  5
476
100
AcDbEntity
  8
RACCORDO
100
AcDbLine
 62
253
  6
CONTINUOUS
 10
43.4727029474
 20
35.4457575748
 11
43.4135791293
 21
35.5481122015
  0
LINE
  5
477
100
AcDbEntity
  8
RACCORDO
100
AcDbLine
 62
253
  6
CONTINUOUS
 10
43.232939149
 20
35.3240413871
 11
43.1748265668
 21
35.4247044579
  0
LINE
  5
478
100
AcDbEntity
  8
RACCORDO
100
AcDbLine
 62
253
  6
CONTINUOUS
 10
43.5281883925
 20
35.3481464793
 11
43.4727029474
 21
35.4457575748
  0
LINE
  5
479
100
AcDbEntity
  8
RACCORDO
100
AcDbLine
 62
253
  6
CONTINUOUS
 10
43.2874293628
 20
35.2280887332
 11
43.232939149
 21
35.3240413871
  0
LINE
  5
47A
100
AcDbEntity
  8
RACCORDO
100
AcDbLine
 62
253
  6
CONTINUOUS
 10
43.5811889683
 20
35.2534303799
 11
43.5281883925
 21
35.3481464793
  0
LINE
  5
47B
100
AcDbEntity
  8
RACCORDO
100
AcDbLine
 62
253
  6
CONTINUOUS
 10
43.3394813125
 20
35.1350008962
 11
43.2874293628
 21
35.2280887332
  0
LINE
  5
47C
100
AcDbEntity
  8
RACCORDO
100
AcDbLine
 62
253
  6
CONTINUOUS
 10
43.6328167706
 20
35.1597219882
 11
43.5811889683
 21
35.2534303799
  0
LINE
  5
47D
100
AcDbEntity
  8
RACCORDO
100
AcDbLine
 62
253
  6
CONTINUOUS
 10
43.390188034
 20
35.0428909702
 11
43.3394813125
 21
35.1350008962
  0
LINE
  5
47E
100
AcDbEntity
  8
RACCORDO
100
AcDbLine
 62
253
  6
CONTINUOUS
 10
43.6835829118
 20
35.0661367299
 11
43.6328167706
 21
35.1597219882
  0
LINE
  5
47F
100
AcDbEntity
  8
RACCORDO
100
AcDbLine
 62
253
  6
CONTINUOUS
 10
43.440043141
 20
34.9509083854
 11
43.390188034
 21
35.0428909702
  0
LINE
  5
480
100
AcDbEntity
  8
RACCORDO
100
AcDbLine
 62
253
  6
CONTINUOUS
 10
43.7339420722
 20
34.9718474636
 11
43.6835829118
 21
35.0661367299
  0
LINE
  5
481
100
AcDbEntity
  8
RACCORDO
100
AcDbLine
 62
253
  6
CONTINUOUS
 10
43.4895132139
 20
34.8582093745
 11
43.440043141
 21
34.9509083854
  0
LINE
  5
482
100
AcDbEntity
  8
RACCORDO
100
AcDbLine
 62
253
  6
CONTINUOUS
 10
43.7837873106
 20
34.8770584843
 11
43.7339420722
 21
34.9718474636
  0
LINE
  5
483
100
AcDbEntity
  8
RACCORDO
100
AcDbLine
 62
253
  6
CONTINUOUS
 10
43.5384880942
 20
34.7650032638
 11
43.4895132139
 21
34.8582093745
  0
LINE
  5
484
100
AcDbEntity
  8
RACCORDO
100
AcDbLine
 62
253
  6
CONTINUOUS
 10
43.8330600784
 20
34.7818987254
 11
43.7837873106
 21
34.8770584843
  0
LINE
  5
485
100
AcDbEntity
  8
RACCORDO
100
AcDbLine
 62
253
  6
CONTINUOUS
 10
43.5869116517
 20
34.6714100781
 11
43.5384880942
 21
34.7650032638
  0
LINE
  5
486
100
AcDbEntity
  8
RACCORDO
100
AcDbLine
 62
253
  6
CONTINUOUS
 10
43.8815767702
 20
34.6867487379
 11
43.8330600784
 21
34.7818987254
  0
LINE
  5
487
100
AcDbEntity
  8
RACCORDO
100
AcDbLine
 62
253
  6
CONTINUOUS
 10
43.6346060346
 20
34.5777978858
 11
43.5869116517
 21
34.6714100781
  0
LINE
  5
488
100
AcDbEntity
  8
RACCORDO
100
AcDbLine
 62
253
  6
CONTINUOUS
 10
43.9292179226
 20
34.591875755
 11
43.8815767702
 21
34.6867487379
  0
LINE
  5
489
100
AcDbEntity
  8
RACCORDO
100
AcDbLine
 62
253
  6
CONTINUOUS
 10
43.681439201
 20
34.4844692753
 11
43.6346060346
 21
34.5777978858
  0
LINE
  5
48A
100
AcDbEntity
  8
RACCORDO
100
AcDbLine
 62
253
  6
CONTINUOUS
 10
43.9762005307
 20
34.4968699182
 11
43.9292179226
 21
34.591875755
  0
LINE
  5
48B
100
AcDbEntity
  8
RACCORDO
100
AcDbLine
 62
253
  6
CONTINUOUS
 10
43.7276302122
 20
34.3909823541
 11
43.681439201
 21
34.4844692753
  0
LINE
  5
48C
100
AcDbEntity
  8
RACCORDO
100
AcDbLine
 62
253
  6
CONTINUOUS
 10
44.0232924815
 20
34.4001478407
 11
43.9762005307
 21
34.4968699182
  0
LINE
  5
48D
100
AcDbEntity
  8
RACCORDO
100
AcDbLine
 62
253
  6
CONTINUOUS
 10
43.773934349
 20
34.2958228374
 11
43.7276302122
 21
34.3909823541
  0
LINE
  5
48E
100
AcDbEntity
  8
RACCORDO
100
AcDbLine
 62
253
  6
CONTINUOUS
 10
44.0715617866
 20
34.2993842576
 11
44.0232924815
 21
34.4001478407
  0
LINE
  5
48F
100
AcDbEntity
  8
RACCORDO
100
AcDbLine
 62
253
  6
CONTINUOUS
 10
43.8213694896
 20
34.1967038128
 11
43.773934349
 21
34.2958228374
  0
LINE
  5
490
100
AcDbEntity
  8
RACCORDO
100
AcDbLine
 62
253
  6
CONTINUOUS
 10
44.121598835
 20
34.1931045625
 11
44.0715617866
 21
34.2993842576
  0
LINE
  5
491
100
AcDbEntity
  8
RACCORDO
100
AcDbLine
 62
253
  6
CONTINUOUS
 10
43.8705420804
 20
34.0921734227
 11
43.8213694896
 21
34.1967038128
  0
LINE
  5
492
100
AcDbEntity
  8
RACCORDO
100
AcDbLine
 62
253
  6
CONTINUOUS
 10
44.1744792464
 20
34.0786410369
 11
44.121598835
 21
34.1931045625
  0
LINE
  5
493
100
AcDbEntity
  8
RACCORDO
100
AcDbLine
 62
253
  6
CONTINUOUS
 10
43.9224995836
 20
33.9796409647
 11
43.8705420804
 21
34.0921734227
  0
LINE
  5
494
100
AcDbEntity
  8
RACCORDO
100
AcDbLine
 62
253
  6
CONTINUOUS
 10
44.2300678571
 20
33.9557942354
 11
44.1744792464
 21
34.0786410369
  0
LWPOLYLINE
  5
495
100
AcDbEntity
  8
RACCORDO
100
AcDbPolyline
 62
253
  6
CONTINUOUS
 90
4
 70
0
 10
44.0341620529
 20
33.7297726294
 10
44.005380392
 20
33.795279515
 10
43.9770913655
 20
33.8588504983
 10
43.9224995836
 20
33.9796409647
  0
LINE
  5
496
100
AcDbEntity
  8
RACCORDO
100
AcDbLine
 62
7
  6
CONTINUOUS
 10
-66.9250133999
 20
-48.4930263981
 11
-66.9157479185
 21
-48.4908478798
  0
LINE
  5
497
100
AcDbEntity
  8
RACCORDO
100
AcDbLine
 62
7
  6
CONTINUOUS
 10
-66.9931498032
 20
-48.5067816502
 11
-66.9250133988
 21
-48.4930263987
  0
LINE
  5
498
100
AcDbEntity
  8
RACCORDO
100
AcDbLine
 62
253
  6
CONTINUOUS
 10
-66.9257657298
 20
-48.2810491558
 11
-66.8546349231
 21
-48.2667496788
  0
LINE
  5
499
100
AcDbEntity
  8
DRAFT
100
AcDbLine
 62
7
  6
CONTINUOUS
 10
-69.094405518
 20
-48.6590853215
 11
-67.0906977617
 21
-48.834387035
  0
LINE
  5
49A
100
AcDbEntity
  8
SUPERFICI
100
AcDbLine
 62
7
  6
CONTINUOUS
 10
-64.4929841726
 20
-47.1352008934
 11
-64.0660028004
 21
-47.0155512921
  0
LINE
  5
49B
100
AcDbEntity
  8
SUPERFICI
100
AcDbLine
 62
7
  6
CONTINUOUS
 10
-64.9167239089
 20
-47.241069899
 11
-64.4865409083
 21
-47.133492841
  0
LWPOLYLINE
  5
49C
100
AcDbEntity
  8
RACCORDO
100
AcDbPolyline
 62
253
  6
CONTINUOUS
 90
3
 70
0
 10
-64.7192713684
 20
-46.1204835456
 10
-64.3521783522
 20
-46.0341743102
 10
-63.9873261406
 20
-45.9389819554
  0
LINE
  5
49D
100
AcDbEntity
  8
SUPERFICI
100
AcDbLine
 62
7
  6
CONTINUOUS
 10
-65.3432782495
 20
-47.3349630104
 11
-64.910235051
 21
-47.2395439804
  0
LINE
  5
49E
100
AcDbEntity
  8
RACCORDO
100
AcDbLine
 62
253
  6
CONTINUOUS
 10
-66.5751515138
 20
-47.3297419014
 11
-66.6612392667
 21
-47.3467451748
  0
LINE
  5
49F
100
AcDbEntity
  8
RACCORDO
100
AcDbLine
 62
253
  6
CONTINUOUS
 10
-66.4390596062
 20
-46.7373842538
 11
-66.5706864564
 21
-46.7630453806
  0
LINE
  5
4A0
100
AcDbEntity
  8
SUPERFICI
100
AcDbLine
 62
7
  6
CONTINUOUS
 10
-65.7723087484
 20
-47.4168056399
 11
-65.3367489489
 21
-47.3336204397
  0
LINE
  5
4A1
100
AcDbEntity
  8
SUPERFICI
100
AcDbLine
 62
7
  6
CONTINUOUS
 10
-66.2034751015
 20
-47.4865327826
 11
-65.7657441878
 21
-47.4156474857
  0
LWPOLYLINE
  5
4A2
100
AcDbEntity
  8
RACCORDO
100
AcDbPolyline
 62
253
  6
CONTINUOUS
 90
10
 70
0
 10
-66.4864211971
 20
-47.3095273485
 10
-66.0792064699
 20
-47.2537070434
 10
-65.6735897058
 20
-47.1871132961
 10
-65.2698564258
 20
-47.1097904454
 10
-64.8682796446
 20
-47.0217877595
 10
-64.4691536916
 20
-46.9231667025
 10
-64.0727932711
 20
-46.8140038793
 10
-63.6794881061
 20
-46.6943798313
 10
-63.2895034814
 20
-46.5643759986
 10
-62.903113553
 20
-46.424084047
  0
LINE
  5
4A3
100
AcDbEntity
  8
SUPERFICI
100
AcDbLine
 62
7
  6
CONTINUOUS
 10
-66.5564291268
 20
-47.5343870316
 11
-66.1968804922
 21
-47.4855599668
  0
LWPOLYLINE
  5
4A4
100
AcDbEntity
  8
RACCORDO
100
AcDbPolyline
 62
253
  6
CONTINUOUS
 90
5
 70
0
 10
-66.2056605824
 20
-46.3759411608
 10
-65.8318002241
 20
-46.3256245624
 10
-65.4593016372
 20
-46.2662518022
 10
-65.0883856193
 20
-46.1978580175
 10
-64.7192713684
 20
-46.1204835456
  0
LWPOLYLINE
  5
4A5
100
AcDbEntity
  8
RACCORDO
100
AcDbPolyline
 62
253
  6
CONTINUOUS
 90
10
 70
0
 10
-66.0699620556
 20
-45.7906731322
 10
-65.712107037
 20
-45.7429921225
 10
-65.355506303
 20
-45.6870769648
 10
-65.0003535617
 20
-45.6229579524
 10
-64.6468418354
 20
-45.5506732456
 10
-64.2951630638
 20
-45.4702585876
 10
-63.9455079755
 20
-45.3817474492
 10
-63.5980663803
 20
-45.2851846187
 10
-63.2530270906
 20
-45.1806260105
 10
-62.9105775097
 20
-45.0681284876
  0
LWPOLYLINE
  5
4A6
100
AcDbEntity
  8
RACCORDO
100
AcDbPolyline
 62
253
  6
CONTINUOUS
 90
10
 70
0
 10
-66.0695343786
 20
-45.7883897799
 10
-65.7117356693
 20
-45.7407448409
 10
-65.3551888738
 20
-45.6848575319
 10
-65.0000876215
 20
-45.6207581534
 10
-64.6466241551
 20
-45.5484811293
 10
-64.2949910424
 20
-45.4680659694
 10
-63.945381044
 20
-45.3795573923
 10
-63.5979845948
 20
-45.2830039226
 10
-63.252989729
 20
-45.178457722
 10
-62.910583775
 20
-45.065975643
  0
LINE
  5
4A7
100
AcDbEntity
  8
RACCORDO
100
AcDbLine
 62
253
  6
CONTINUOUS
 10
-66.606477636
 20
-47.0743871993
 11
-68.6103688989
 21
-46.9010290034
  0
LINE
  5
4A8
100
AcDbEntity
  8
RACCORDO
100
AcDbLine
 62
253
  6
CONTINUOUS
 10
-66.7426900193
 20
-47.6692944533
 11
-68.7463069703
 21
-47.4947481671
  0
LWPOLYLINE
  5
4A9
100
AcDbEntity
  8
RACCORDO
100
AcDbPolyline
 62
253
  6
CONTINUOUS
 90
8
 70
0
 10
-62.748219865
 20
-32.581425522
 10
-62.7647566849
 20
-32.5854108312
 10
-62.7838801614
 20
-32.5891151817
 10
-62.8053881015
 20
-32.5924994072
 10
-62.8290531008
 20
-32.5955277263
 10
-62.8546249485
 20
-32.5981681203
 10
-62.8818332724
 20
-32.6003926724
 10
-62.910390398
 20
-32.6021778622
  0
LINE
  5
4AA
100
AcDbEntity
  8
RACCORDO
100
AcDbLine
 62
253
  6
CONTINUOUS
 10
-67.0066090918
 20
-33.1645225561
 11
-67.1941634235
 21
-33.1811797846
  0
LWPOLYLINE
  5
4AB
100
AcDbEntity
  8
RACCORDO
100
AcDbPolyline
 62
253
  6
CONTINUOUS
 90
10
 70
0
 10
-66.5802005366
 20
-32.968429011
 10
-66.1642030416
 20
-32.93472025
 10
-65.7495616406
 20
-32.8992197157
 10
-65.3365793085
 20
-32.8619551531
 10
-64.9255549555
 20
-32.8229864811
 10
-64.5167917699
 20
-32.7823133223
 10
-64.1105970601
 20
-32.7398732143
 10
-63.7072705693
 20
-32.6956657925
 10
-63.3071041981
 20
-32.6497545312
 10
-62.9103903949
 20
-32.6021730392
  0
LWPOLYLINE
  5
4AC
100
AcDbEntity
  8
RACCORDO
100
AcDbPolyline
 62
253
  6
CONTINUOUS
 90
10
 70
0
 10
-66.5777263285
 20
-33.0078034045
 10
-66.162003219
 20
-32.9747732763
 10
-65.7476400225
 20
-32.9398573823
 10
-65.3349391663
 20
-32.9030811951
 10
-64.92420081
 20
-32.8644739794
 10
-64.5157258098
 20
-32.8240614361
 10
-64.1098154388
 20
-32.7818658511
 10
-63.7067669382
 20
-32.7379158073
 10
-63.3068733621
 20
-32.6922459931
 10
-62.9104265048
 20
-32.6448899603
  0
LINE
  5
4AD
100
AcDbEntity
  8
RACCORDO
100
AcDbLine
 62
253
  6
CONTINUOUS
 10
-67.1907139455
 20
-33.23553571
 11
-69.163834949
 21
-33.204252895
  0
LWPOLYLINE
  5
4AE
100
AcDbEntity
  8
RACCORDO
100
AcDbPolyline
 62
253
  6
CONTINUOUS
 90
8
 70
0
 10
-62.7474935273
 20
-28.7757841499
 10
-62.7637310977
 20
-28.778146673
 10
-62.7825165276
 20
-28.7803461827
 10
-62.8036549935
 20
-28.7823598679
 10
-62.8269272691
 20
-28.7841668447
 10
-62.8520919982
 20
-28.7857483731
 10
-62.8788881979
 20
-28.787088051
 10
-62.9070379655
 20
-28.7881719847
  0
LWPOLYLINE
  5
4AF
100
AcDbEntity
  8
RACCORDO
100
AcDbPolyline
 62
253
  6
CONTINUOUS
 90
8
 70
0
 10
-62.7474861498
 20
-28.7410944663
 10
-62.7637206788
 20
-28.7434523511
 10
-62.7825026713
 20
-28.7456475778
 10
-62.8036373782
 20
-28.7476573844
 10
-62.8269056553
 20
-28.7494609312
 10
-62.8520662357
 20
-28.7510395174
 10
-62.8788582311
 20
-28.7523767746
 10
-62.9070038375
 20
-28.7534588368
  0
LINE
  5
4B0
100
AcDbEntity
  8
RACCORDO
100
AcDbLine
 62
253
  6
CONTINUOUS
 10
-63.5393704578
 20
-28.8455475356
 11
-62.9070379603
 21
-28.7881699133
  0
LINE
  5
4B1
100
AcDbEntity
  8
RACCORDO
100
AcDbLine
 62
253
  6
CONTINUOUS
 10
-63.5396196191
 20
-28.810888716
 11
-62.9070038375
 21
-28.7534587678
  0
LINE
  5
4B2
100
AcDbEntity
  8
RACCORDO
100
AcDbLine
 62
253
  6
CONTINUOUS
 10
-64.1803729665
 20
-28.9003433711
 11
-63.5393704578
 21
-28.8455475356
  0
LINE
  5
4B3
100
AcDbEntity
  8
RACCORDO
100
AcDbLine
 62
253
  6
CONTINUOUS
 10
-64.1809230729
 20
-28.8657405894
 11
-63.5396196191
 21
-28.810888716
  0
LINE
  5
4B4
100
AcDbEntity
  8
RACCORDO
100
AcDbLine
 62
253
  6
CONTINUOUS
 10
-64.8288526248
 20
-28.9524555822
 11
-64.1803729665
 21
-28.9003433711
  0
LINE
  5
4B5
100
AcDbEntity
  8
RACCORDO
100
AcDbLine
 62
253
  6
CONTINUOUS
 10
-64.829718334
 20
-28.9179119292
 11
-64.1809230729
 21
-28.8657405894
  0
LINE
  5
4B6
100
AcDbEntity
  8
RACCORDO
100
AcDbLine
 62
253
  6
CONTINUOUS
 10
-65.48360028
 20
-29.0017878737
 11
-64.8288526248
 21
-28.9524555822
  0
LINE
  5
4B7
100
AcDbEntity
  8
RACCORDO
100
AcDbLine
 62
253
  6
CONTINUOUS
 10
-65.4847885748
 20
-28.9673048033
 11
-64.829718334
 21
-28.9179119292
  0
LINE
  5
4B8
100
AcDbEntity
  8
RACCORDO
100
AcDbLine
 62
253
  6
CONTINUOUS
 10
-67.2413604804
 20
-29.1878782811
 11
-67.4296379683
 21
-29.2009744327
  0
LINE
  5
4B9
100
AcDbEntity
  8
RACCORDO
100
AcDbLine
 62
253
  6
CONTINUOUS
 10
-66.1433947238
 20
-29.0482480759
 11
-65.48360028
 21
-29.0017878737
  0
LINE
  5
4BA
100
AcDbEntity
  8
RACCORDO
100
AcDbLine
 62
253
  6
CONTINUOUS
 10
-66.1449117246
 20
-29.0138270716
 11
-65.4847885748
 21
-28.9673048033
  0
LINE
  5
4BB
100
AcDbEntity
  8
RACCORDO
100
AcDbLine
 62
253
  6
CONTINUOUS
 10
-66.8070077904
 20
-29.0917497378
 11
-66.1433947238
 21
-29.0482480759
  0
LINE
  5
4BC
100
AcDbEntity
  8
RACCORDO
100
AcDbLine
 62
253
  6
CONTINUOUS
 10
-66.8088577593
 20
-29.0573920796
 11
-66.1449117246
 21
-29.0138270716
  0
LINE
  5
4BD
100
AcDbEntity
  8
0
100
AcDbLine
 62
7
  6
CONTINUOUS
 10
-71.1919944971
 20
-30.4921885537
 11
-71.0818041454
 21
-30.4921885537
  0
LINE
  5
4BE
100
AcDbEntity
  8
0
100
AcDbLine
 62
253
  6
CONTINUOUS
 10
-71.2322657511
 20
-29.7344874273
 11
-71.1320649075
 21
-29.7344874273
  0
LINE
  5
4BF
100
AcDbEntity
  8
0
100
AcDbLine
 62
7
  6
CONTINUOUS
 10
-71.2687893743
 20
-29.1853116362
 11
-71.1686007508
 21
-29.1853116362
  0
LINE
  5
4C0
100
AcDbEntity
  8
0
100
AcDbLine
 62
7
  6
CONTINUOUS
 10
-71.2697984672
 20
-29.1687678273
 11
-71.169610195
 21
-29.1687678273
  0
LINE
  5
4C1
100
AcDbEntity
  8
0
100
AcDbLine
 62
7
  6
CONTINUOUS
 10
-71.2878200816
 20
-28.9380152859
 11
-71.2898188282
 21
-28.9380152859
  0
LINE
  5
4C2
100
AcDbEntity
  8
0
100
AcDbLine
 62
253
  6
CONTINUOUS
 10
-71.3529523545
 20
-27.7546710728
 11
-71.2527929383
 21
-27.7546710728
  0
LINE
  5
4C3
100
AcDbEntity
  8
0
100
AcDbLine
 62
7
  6
CONTINUOUS
 10
-71.2625559853
 20
-27.6596356801
 11
-71.3627128952
 21
-27.6596356801
  0
LINE
  5
4C4
100
AcDbEntity
  8
RACCORDO
100
AcDbLine
 62
253
  6
CONTINUOUS
 10
-67.4272339649
 20
-29.23553571
 11
-69.3962212528
 21
-29.2156671656
  0
LWPOLYLINE
  5
4C5
100
AcDbEntity
  8
RACCORDO
100
AcDbPolyline
 62
253
  6
CONTINUOUS
 90
10
 70
0
 10
-67.3129874247
 20
-25.1566281286
 10
-67.3201214404
 20
-25.1582708316
 10
-67.3291887047
 20
-25.1599000019
 10
-67.3400583714
 20
-25.1614890343
 10
-67.3525735588
 20
-25.163011904
 10
-67.3665536167
 20
-25.1644435425
 10
-67.3817967353
 20
-25.1657601995
 10
-67.3980828606
 20
-25.1669397862
 10
-67.4151768725
 20
-25.1679621944
 10
-67.4328319816
 20
-25.1688095864
  0
LINE
  5
4C6
100
AcDbEntity
  8
RACCORDO
100
AcDbLine
 62
253
  6
CONTINUOUS
 10
-63.5658358454
 20
-24.8555441075
 11
-62.9034852533
 21
-24.8066528676
  0
LINE
  5
4C7
100
AcDbEntity
  8
RACCORDO
100
AcDbLine
 62
253
  6
CONTINUOUS
 10
-64.2380826236
 20
-24.9019790157
 11
-63.5658358454
 21
-24.8555441075
  0
LINE
  5
4C8
100
AcDbEntity
  8
RACCORDO
100
AcDbLine
 62
253
  6
CONTINUOUS
 10
-64.9188432094
 20
-24.9458619602
 11
-64.2380826236
 21
-24.9019790157
  0
LINE
  5
4C9
100
AcDbEntity
  8
RACCORDO
100
AcDbLine
 62
253
  6
CONTINUOUS
 10
-65.6067124933
 20
-24.9871022828
 11
-64.9188432094
 21
-24.9458619602
  0
LINE
  5
4CA
100
AcDbEntity
  8
RACCORDO
100
AcDbLine
 62
253
  6
CONTINUOUS
 10
-67.4328320253
 20
-25.1688085226
 11
-67.6205939338
 21
-25.1789936368
  0
LWPOLYLINE
  5
4CB
100
AcDbEntity
  8
RACCORDO
100
AcDbPolyline
 62
253
  6
CONTINUOUS
 90
3
 70
0
 10
-66.9980992869
 20
-25.0613209748
 10
-66.648742461
 20
-25.043823552
 10
-65.6067124933
 20
-24.9871022828
  0
LINE
  5
4CC
100
AcDbEntity
  8
RACCORDO
100
AcDbLine
 62
253
  6
CONTINUOUS
 10
-71.3973973586
 20
-25.2843871993
 11
-69.8545667248
 21
-25.2843862295
  0
LINE
  5
4CD
100
AcDbEntity
  8
RACCORDO
100
AcDbLine
 62
253
  6
CONTINUOUS
 10
-69.5872908633
 20
-25.1638668343
 11
-67.6205335288
 21
-25.1801071993
  0
LWPOLYLINE
  5
4CE
100
AcDbEntity
  8
0
100
AcDbPolyline
 62
7
  6
CONTINUOUS
 90
10
 70
0
 10
-71.3627112158
 20
-27.6596658278
 10
-71.3625965265
 20
-27.6597104155
 10
-71.3621778184
 20
-27.660560376
 10
-71.3616845474
 20
-27.6626444831
 10
-71.361120421
 20
-27.6658943271
 10
-71.3604816341
 20
-27.6703783138
 10
-71.3597464225
 20
-27.6765041596
 10
-71.358918925
 20
-27.6841811766
 10
-71.3579948061
 20
-27.6935000397
 10
-71.356939652
 20
-27.7051405027
  0
LINE
  5
4CF
100
AcDbEntity
  8
RACCORDO
100
AcDbLine
 62
253
  6
CONTINUOUS
 10
-71.3817800881
 20
-23.2960051856
 11
-71.381701074
 21
-23.2960218881
  0
LWPOLYLINE
  5
4D0
100
AcDbEntity
  8
RACCORDO
100
AcDbPolyline
 62
253
  6
CONTINUOUS
 90
16
 70
0
 10
-69.6688453968
 20
-29.1995074048
 10
-69.6654696601
 20
-29.2024252441
 10
-69.6594849172
 20
-29.2051557361
 10
-69.6509440269
 20
-29.2076747643
 10
-69.6399224246
 20
-29.20996008
 10
-69.6265174561
 20
-29.2119914986
 10
-69.6108475174
 20
-29.2137510783
 10
-69.5930510097
 20
-29.2152232778
 10
-69.5732851163
 20
-29.2163950944
 10
-69.5517244148
 20
-29.2172561782
 10
-69.5285593351
 20
-29.217798924
 10
-69.5039944772
 20
-29.218018538
 10
-69.4782468043
 20
-29.2179130805
 10
-69.4515437268
 20
-29.2174834831
 10
-69.4241210931
 20
-29.21673354
 10
-69.3962211073
 20
-29.2156698749
  0
LWPOLYLINE
  5
4D1
100
AcDbEntity
  8
RACCORDO
100
AcDbPolyline
 62
253
  6
CONTINUOUS
 90
16
 70
0
 10
-69.6688453963
 20
26.0307330062
 10
-69.6654696598
 20
26.0336508455
 10
-69.659484917
 20
26.0363813374
 10
-69.6509440269
 20
26.0389003656
 10
-69.6399224247
 20
26.0411856813
 10
-69.6265174562
 20
26.0432171
 10
-69.6108475176
 20
26.0449766796
 10
-69.5930510099
 20
26.0464488792
 10
-69.5732851165
 20
26.0476206958
 10
-69.5517244151
 20
26.0484817796
 10
-69.5285593353
 20
26.0490245254
 10
-69.5039944773
 20
26.0492441394
 10
-69.4782468044
 20
26.049138682
 10
-69.4515437267
 20
26.0487090846
 10
-69.424121093
 20
26.0479591416
 10
-69.396221107
 20
26.0468954765
  0
LWPOLYLINE
  5
4D2
100
AcDbEntity
  8
RACCORDO
100
AcDbPolyline
 62
253
  6
CONTINUOUS
 90
16
 70
0
 10
-69.8601274519
 20
-25.1487336024
 10
-69.8567877383
 20
-25.151244158
 10
-69.850830897
 20
-25.15360733
 10
-69.8423096598
 20
-25.1558021989
 10
-69.8312994593
 20
-25.157809335
 10
-69.8178977612
 20
-25.1596109705
 10
-69.8022232017
 20
-25.1611911568
 10
-69.7844145366
 20
-25.1625359056
 10
-69.764629414
 20
-25.1636333127
 10
-69.7430429778
 20
-25.1644736635
 10
-69.7198463179
 20
-25.165049519
 10
-69.6952447783
 20
-25.1653557816
 10
-69.6694561396
 20
-25.1653897401
 10
-69.6427086908
 20
-25.1651510939
 10
-69.6152392086
 20
-25.1646419556
 10
-69.5872908614
 20
-25.1638668322
  0
LWPOLYLINE
  5
4D3
100
AcDbEntity
  8
RACCORDO
100
AcDbPolyline
 62
253
  6
CONTINUOUS
 90
16
 70
0
 10
-69.8545666851
 20
-25.2843871993
 10
-69.8512262785
 20
-25.2869126227
 10
-69.845268893
 20
-25.2892898168
 10
-69.836747263
 20
-25.2914977388
 10
-69.8257368215
 20
-25.2935168443
 10
-69.8123350321
 20
-25.2953292603
 10
-69.7966605265
 20
-25.2969189435
 10
-69.7788520544
 20
-25.298271822
 10
-69.7590672552
 20
-25.2993759203
 10
-69.7374812626
 20
-25.300221465
 10
-69.7142851544
 20
-25.3008009714
 10
-69.6896842608
 20
-25.3011093097
 10
-69.6638963474
 20
-25.3011437506
 10
-69.637149687
 20
-25.3009039891
 10
-69.6096810393
 20
-25.3003921476
 10
-69.5817335548
 20
-25.2996127569
  0
LWPOLYLINE
  5
4D4
100
AcDbEntity
  8
RACCORDO
100
AcDbPolyline
 62
253
  6
CONTINUOUS
 90
16
 70
0
 10
-69.4361913595
 20
-33.1727659213
 10
-69.4326979997
 20
-33.1774363776
 10
-69.4266171438
 20
-33.1818691572
 10
-69.4180021257
 20
-33.1860253811
 10
-69.4069285058
 20
-33.189868596
 10
-69.3934934085
 20
-33.193365094
 10
-69.3778146701
 20
-33.1964842079
 10
-69.3600298054
 20
-33.1991985808
 10
-69.3402948015
 20
-33.2014844054
 10
-69.3187827499
 20
-33.2033216333
 10
-69.2956823283
 20
-33.2046941505
 10
-69.2711961452
 20
-33.2055899189
 10
-69.2455389639
 20
-33.2060010821
 10
-69.2189358177
 20
-33.2059240338
 10
-69.1916200372
 20
-33.2053594497
 10
-69.1638312031
 20
-33.2043122817
  0
LWPOLYLINE
  5
4D5
100
AcDbEntity
  8
RACCORDO
100
AcDbPolyline
 62
253
  6
CONTINUOUS
 90
16
 70
0
 10
-69.4361913591
 20
30.0039915227
 10
-69.4326979935
 20
30.0086619778
 10
-69.4266171326
 20
30.0130947561
 10
-69.4180021102
 20
30.0172509788
 10
-69.406928487
 20
30.0210941925
 10
-69.3934933871
 20
30.0245906892
 10
-69.3778146469
 20
30.027709802
 10
-69.3600297812
 20
30.0304241738
 10
-69.3402947772
 20
30.0327099974
 10
-69.3187827263
 20
30.0345472243
 10
-69.2956823058
 20
30.0359197407
 10
-69.2711961247
 20
30.0368155085
 10
-69.2455389457
 20
30.0372266711
 10
-69.2189358024
 20
30.0371496223
 10
-69.1916200251
 20
30.0365850379
 10
-69.1638311946
 20
30.0355378697
  0
LWPOLYLINE
  5
4D6
100
AcDbEntity
  8
RACCORDO
100
AcDbPolyline
 62
253
  6
CONTINUOUS
 90
16
 70
0
 10
-69.854566685
 20
22.1156128007
 10
-69.8512262783
 20
22.1181382241
 10
-69.8452688928
 20
22.1205154182
 10
-69.8367472629
 20
22.1227233402
 10
-69.8257368214
 20
22.1247424457
 10
-69.812335032
 20
22.1265548617
 10
-69.7966605264
 20
22.1281445449
 10
-69.7788520543
 20
22.1294974234
 10
-69.7590672551
 20
22.1306015218
 10
-69.7374812626
 20
22.1314470665
 10
-69.7142851543
 20
22.1320265728
 10
-69.6896842608
 20
22.1323349111
 10
-69.6638963474
 20
22.132369352
 10
-69.637149687
 20
22.1321295905
 10
-69.6096810393
 20
22.131617749
 10
-69.5817335548
 20
22.1308383583
  0
LWPOLYLINE
  5
4D7
100
AcDbEntity
  8
RACCORDO
100
AcDbPolyline
 62
253
  6
CONTINUOUS
 90
16
 70
0
 10
-69.8601274591
 20
21.9799592042
 10
-69.8567877472
 20
21.98246976
 10
-69.8508309072
 20
21.9848329322
 10
-69.8423096709
 20
21.9870278013
 10
-69.8312994711
 20
21.9890349376
 10
-69.8178977734
 20
21.9908365732
 10
-69.8022232138
 20
21.9924167597
 10
-69.7844145484
 20
21.9937615086
 10
-69.7646294252
 20
21.9948589158
 10
-69.7430429882
 20
21.9956992668
 10
-69.7198463272
 20
21.9962751224
 10
-69.6952447864
 20
21.9965813851
 10
-69.6694561462
 20
21.9966153436
 10
-69.6427086959
 20
21.9963766974
 10
-69.6152392121
 20
21.9958675591
 10
-69.5872908633
 20
21.9950924357
  0
LINE
  5
4D8
100
AcDbEntity
  8
RACCORDO
100
AcDbLine
 62
253
  6
CONTINUOUS
 10
-71.38157021
 20
20.1320945689
 11
-71.3814846426
 21
20.1322619935
  0
LWPOLYLINE
  5
4D9
100
AcDbEntity
  8
RACCORDO
100
AcDbPolyline
 62
253
  6
CONTINUOUS
 90
16
 70
0
 10
-69.0176437864
 20
44.0654469723
 10
-69.0130026508
 20
44.0920748758
 10
-69.0059674838
 20
44.1181821224
 10
-68.996595799
 20
44.1435552815
 10
-68.9849642114
 20
44.1679869236
 10
-68.9711678108
 20
44.1912773164
 10
-68.955319385
 20
44.2132360573
 10
-68.9375484973
 20
44.2336836303
 10
-68.9180004274
 20
44.2524528735
 10
-68.8968349836
 20
44.2693903453
 10
-68.8742251968
 20
44.2843575795
 10
-68.8503559053
 20
44.2972322166
 10
-68.8254222442
 20
44.3079090045
 10
-68.79962805
 20
44.3163006588
 10
-68.7731841941
 20
44.3223385765
 10
-68.7463068591
 20
44.3259733967
  0
LWPOLYLINE
  5
4DA
100
AcDbEntity
  8
RACCORDO
100
AcDbPolyline
 62
253
  6
CONTINUOUS
 90
16
 70
0
 10
-68.8816881058
 20
43.4731552771
 10
-68.8770389221
 20
43.4996020591
 10
-68.8699971813
 20
43.5255349773
 10
-68.8606204198
 20
43.5507421393
 10
-68.8489852533
 20
43.5750175825
 10
-68.8351867503
 20
43.5981629572
 10
-68.8193376556
 20
43.6199891475
 10
-68.8015674688
 20
43.6403178159
 10
-68.7820213865
 20
43.6589828611
 10
-68.7608591157
 20
43.6758317749
 10
-68.7382535689
 20
43.6907268884
 10
-68.7143894514
 20
43.7035464965
 10
-68.689461752
 20
43.7141858529
 10
-68.6636741497
 20
43.7225580256
 10
-68.6372373498
 20
43.7285946073
 10
-68.6103673619
 20
43.7322462745
  0
LWPOLYLINE
  5
4DB
100
AcDbEntity
  8
RACCORDO
100
AcDbPolyline
 62
253
  6
CONTINUOUS
 90
6
 70
0
 10
-64.7094013795
 20
-4.916567273
 10
-64.7105963622
 20
-4.9168281643
 10
-64.7141669358
 20
-4.9170859384
 10
-64.7200704456
 20
-4.9173375152
 10
-64.7282363615
 20
-4.9175798884
 10
-64.7385671142
 20
-4.9178101618
  0
LINE
  5
4DC
100
AcDbEntity
  8
RACCORDO
100
AcDbLine
 62
253
  6
CONTINUOUS
 10
-64.7385671142
 20
-4.9178101618
 11
-64.7652049631
 21
-4.9182235793
  0
LINE
  5
4DD
100
AcDbEntity
  8
RACCORDO
100
AcDbLine
 62
253
  6
CONTINUOUS
 10
-64.7652049631
 20
-4.9182235793
 11
-64.8175578302
 21
-4.9186905572
  0
LINE
  5
4DE
100
AcDbEntity
  8
RACCORDO
100
AcDbLine
 62
253
  6
CONTINUOUS
 10
-64.8175578302
 20
-4.9186905572
 11
-64.8582983598
 21
-4.9188781452
  0
LINE
  5
4DF
100
AcDbEntity
  8
RACCORDO
100
AcDbLine
 62
253
  6
CONTINUOUS
 10
-62.7210406326
 20
-5.6049182563
 11
-62.7293013913
 21
-5.6046548185
  0
LINE
  5
4E0
100
AcDbEntity
  8
RACCORDO
100
AcDbLine
 62
253
  6
CONTINUOUS
 10
-62.7293013913
 20
-5.6046548185
 11
-62.7399134417
 21
-5.6042490122
  0
LINE
  5
4E1
100
AcDbEntity
  8
RACCORDO
100
AcDbLine
 62
253
  6
CONTINUOUS
 10
-62.7399134417
 20
-5.6042490122
 11
-62.7600891275
 21
-5.6033769961
  0
LINE
  5
4E2
100
AcDbEntity
  8
RACCORDO
100
AcDbLine
 62
253
  6
CONTINUOUS
 10
-62.7600891275
 20
-5.6033769961
 11
-62.8039119387
 21
-5.6012645482
  0
LINE
  5
4E3
100
AcDbEntity
  8
RACCORDO
100
AcDbLine
 62
253
  6
CONTINUOUS
 10
-62.8039119387
 20
-5.6012645482
 11
-62.894840556
 21
-5.5964417095
  0
LINE
  5
4E4
100
AcDbEntity
  8
RACCORDO
100
AcDbLine
 62
253
  6
CONTINUOUS
 10
-62.8948405556
 20
-5.5964416861
 11
-64.5234600254
 21
-5.3130333017
  0
LINE
  5
4E5
100
AcDbEntity
  8
RACCORDO
100
AcDbLine
 62
7
  6
CONTINUOUS
 10
-62.8746735737
 20
-5.4078995363
 11
-64.5441328447
 21
-5.1135288237
  0
LWPOLYLINE
  5
4E6
100
AcDbEntity
  8
RACCORDO
100
AcDbPolyline
 62
253
  6
CONTINUOUS
 90
16
 70
0
 10
-68.8816881018
 20
-46.6419296753
 10
-68.8770389047
 20
-46.6683764471
 10
-68.8699971523
 20
-46.6943093542
 10
-68.8606203813
 20
-46.7195165043
 10
-68.8489852074
 20
-46.7437919351
 10
-68.835186699
 20
-46.7669372971
 10
-68.8193376009
 20
-46.7887634746
 10
-68.8015674127
 20
-46.8090921303
 10
-68.7820213307
 20
-46.8277571632
 10
-68.760859062
 20
-46.8446060652
 10
-68.7382535188
 20
-46.8595011674
 10
-68.7143894064
 20
-46.8723207652
 10
-68.6894617132
 20
-46.8829601123
 10
-68.6636741183
 20
-46.8913322769
 10
-68.6372373265
 20
-46.8973688517
 10
-68.6103673474
 20
-46.9010205131
  0
LWPOLYLINE
  5
4E7
100
AcDbEntity
  8
RACCORDO
100
AcDbPolyline
 62
253
  6
CONTINUOUS
 90
16
 70
0
 10
-69.0176437907
 20
-47.2342213714
 10
-69.0130026549
 20
-47.2608492751
 10
-69.0059674877
 20
-47.2869565218
 10
-68.9965958026
 20
-47.312329681
 10
-68.9849642147
 20
-47.3367613232
 10
-68.9711678138
 20
-47.360051716
 10
-68.9553193877
 20
-47.3820104569
 10
-68.9375484997
 20
-47.4024580299
 10
-68.9180004294
 20
-47.421227273
 10
-68.8968349853
 20
-47.4381647447
 10
-68.8742251981
 20
-47.4531319787
 10
-68.8503559063
 20
-47.4660066156
 10
-68.8254222449
 20
-47.4766834032
 10
-68.7996280504
 20
-47.4850750572
 10
-68.7731841942
 20
-47.4911129746
 10
-68.7463068589
 20
-47.4947477944
  0
LWPOLYLINE
  5
4E8
100
AcDbEntity
  8
0
100
AcDbPolyline
 62
7
  6
CONTINUOUS
 90
5
 70
0
 10
-71.3331931617
 20
-28.1529594482
 10
-71.3337883985
 20
-28.1480297257
 10
-71.3342869717
 20
-28.1447797409
 10
-71.3346888203
 20
-28.143209497
 10
-71.3348464191
 20
-28.1430481084
  0
LWPOLYLINE
  5
4E9
100
AcDbEntity
  8
0
100
AcDbPolyline
 62
7
  6
CONTINUOUS
 90
10
 70
0
 10
-71.2567822141
 20
-27.7051310141
 10
-71.2578385302
 20
-27.6934828064
 10
-71.2587639829
 20
-27.6841547291
 10
-71.2595925772
 20
-27.6764719573
 10
-71.2603285087
 20
-27.6703456977
 10
-71.2609677796
 20
-27.6658647565
 10
-71.2615321736
 20
-27.6626207009
 10
-71.2620254917
 20
-27.6605455724
 10
-71.262444032
 20
-27.6597073332
 10
-71.2625542727
 20
-27.6596664142
  0
LINE
  5
4EA
100
AcDbEntity
  8
0
100
AcDbLine
 62
7
  6
CONTINUOUS
 10
-71.356939652
 20
-27.7051405027
 11
-71.3544129092
 21
-27.735839334
  0
LINE
  5
4EB
100
AcDbEntity
  8
0
100
AcDbLine
 62
7
  6
CONTINUOUS
 10
-71.2542539631
 20
-27.7358376406
 11
-71.2567822141
 21
-27.7051310141
  0
LINE
  5
4EC
100
AcDbEntity
  8
0
100
AcDbLine
 62
7
  6
CONTINUOUS
 10
-71.3544129092
 20
-27.735839334
 11
-71.3519465861
 21
-27.7683833129
  0
LINE
  5
4ED
100
AcDbEntity
  8
0
100
AcDbLine
 62
7
  6
CONTINUOUS
 10
-71.2517447116
 20
-27.7689724265
 11
-71.2542539631
 21
-27.7358376406
  0
LINE
  5
4EE
100
AcDbEntity
  8
0
100
AcDbLine
 62
7
  6
CONTINUOUS
 10
-71.2687893743
 20
-29.1853116362
 11
-71.2654694637
 21
-29.2303778048
  0
LINE
  5
4EF
100
AcDbEntity
  8
0
100
AcDbLine
 62
7
  6
CONTINUOUS
 10
-71.1652380793
 20
-29.2309680556
 11
-71.1686007508
 21
-29.1853116362
  0
LINE
  5
4F0
100
AcDbEntity
  8
0
100
AcDbLine
 62
7
  6
CONTINUOUS
 10
-71.2475253466
 20
-27.830619845
 11
-71.2517447116
 21
-27.7689724265
  0
LINE
  5
4F1
100
AcDbEntity
  8
0
100
AcDbLine
 62
7
  6
CONTINUOUS
 10
-71.3519465861
 20
-27.7683833129
 11
-71.3462363919
 21
-27.8525776514
  0
LINE
  5
4F2
100
AcDbEntity
  8
0
100
AcDbLine
 62
7
  6
CONTINUOUS
 10
-71.2654694637
 20
-29.2303778048
 11
-71.2528860833
 21
-29.4173499474
  0
LINE
  5
4F3
100
AcDbEntity
  8
0
100
AcDbLine
 62
7
  6
CONTINUOUS
 10
-71.1527636572
 20
-29.4162633304
 11
-71.1652380793
 21
-29.2309680556
  0
LINE
  5
4F4
100
AcDbEntity
  8
0
100
AcDbLine
 62
7
  6
CONTINUOUS
 10
-71.2528860833
 20
-29.4173499474
 11
-71.1820221775
 21
-30.4921885537
  0
LINE
  5
4F5
100
AcDbEntity
  8
0
100
AcDbLine
 62
7
  6
CONTINUOUS
 10
-71.0818041454
 20
-30.4921885537
 11
-71.1527636572
 21
-29.4162633304
  0
LINE
  5
4F6
100
AcDbEntity
  8
0
100
AcDbLine
 62
7
  6
CONTINUOUS
 10
-71.2466134672
 20
-29.6400396143
 11
-71.1919944971
 21
-30.4921885537
  0
LINE
  5
4F7
100
AcDbEntity
  8
0
100
AcDbLine
 62
7
  6
CONTINUOUS
 10
-71.2661875121
 20
-29.500990194
 11
-71.2017481666
 21
-30.4921881993
  0
LINE
  5
4F8
100
AcDbEntity
  8
0
100
AcDbLine
 62
7
  6
CONTINUOUS
 10
-71.2338024961
 20
-28.0464956917
 11
-71.2475253466
 21
-27.830619845
  0
LINE
  5
4F9
100
AcDbEntity
  8
0
100
AcDbLine
 62
7
  6
CONTINUOUS
 10
-71.3462363919
 20
-27.8525776514
 11
-71.3293317809
 21
-28.1221157453
  0
LINE
  5
4FA
100
AcDbEntity
  8
0
100
AcDbLine
 62
7
  6
CONTINUOUS
 10
-71.2697984672
 20
-29.1687678273
 11
-71.2687893743
 21
-29.1853116362
  0
LINE
  5
4FB
100
AcDbEntity
  8
0
100
AcDbLine
 62
7
  6
CONTINUOUS
 10
-71.1686007508
 20
-29.1853116362
 11
-71.169610195
 21
-29.1687678273
  0
LINE
  5
4FC
100
AcDbEntity
  8
0
100
AcDbLine
 62
7
  6
CONTINUOUS
 10
-71.2731015657
 20
-29.2626136181
 11
-71.292787036
 21
-28.9383117382
  0
LINE
  5
4FD
100
AcDbEntity
  8
RACCORDO
100
AcDbLine
 62
253
  6
CONTINUOUS
 10
-69.1944178658
 20
-37.0864089522
 11
-69.5440460718
 21
-31.4110850947
  0
LINE
  5
4FE
100
AcDbEntity
  8
RACCORDO
100
AcDbLine
 62
253
  6
CONTINUOUS
 10
-69.2185766092
 20
-32.3209976225
 11
-69.2973915294
 21
-30.9925494353
  0
LINE
  5
4FF
100
AcDbEntity
  8
RACCORDO
100
AcDbLine
 62
253
  6
CONTINUOUS
 10
-68.8972735798
 20
-37.6140325976
 11
-69.2185766092
 21
-32.3209976225
  0
LINE
  5
500
100
AcDbEntity
  8
0
100
AcDbLine
 62
7
  6
CONTINUOUS
 10
-71.3350277102
 20
-28.1694419952
 11
-71.2898188282
 21
-28.9380152859
  0
LINE
  5
501
100
AcDbEntity
  8
0
100
AcDbLine
 62
7
  6
CONTINUOUS
 10
-71.367421461
 20
-27.7254361036
 11
-71.2514418954
 21
-29.6436282153
  0
LINE
  5
502
100
AcDbEntity
  8
0
100
AcDbLine
 62
7
  6
CONTINUOUS
 10
-71.1918486192
 20
-28.7567189827
 11
-71.2338024961
 21
-28.0464956917
  0
LINE
  5
503
100
AcDbEntity
  8
0
100
AcDbLine
 62
7
  6
CONTINUOUS
 10
-71.3394847993
 20
-28.1433150084
 11
-71.3632146408
 21
-27.7251945403
  0
LINE
  5
504
100
AcDbEntity
  8
0
100
AcDbLine
 62
7
  6
CONTINUOUS
 10
-71.3293317809
 20
-28.1221157453
 11
-71.2879113451
 21
-28.8294317756
  0
LINE
  5
505
100
AcDbEntity
  8
RACCORDO
100
AcDbLine
 62
253
  6
CONTINUOUS
 10
-69.5440460718
 20
-31.4110850947
 11
-69.6202758426
 21
-30.0852613517
  0
LINE
  5
506
100
AcDbEntity
  8
SUPERFICI
100
AcDbLine
 62
7
  6
CONTINUOUS
 10
-71.275114595
 20
-27.6551118375
 11
-71.2748272137
 21
-27.6602696136
  0
LINE
  5
507
100
AcDbEntity
  8
RACCORDO
100
AcDbLine
 62
253
  6
CONTINUOUS
 10
-68.8178908701
 20
-39.0065524337
 11
-68.8972735798
 21
-37.6140325976
  0
LINE
  5
508
100
AcDbEntity
  8
RACCORDO
100
AcDbLine
 62
253
  6
CONTINUOUS
 10
-69.0518450171
 20
-39.5557694598
 11
-69.1944178658
 21
-37.0864089522
  0
LINE
  5
509
100
AcDbEntity
  8
RACCORDO
100
AcDbLine
 62
253
  6
CONTINUOUS
 10
-69.2973915294
 20
-30.9925494353
 11
-69.3721908185
 21
-29.6604175644
  0
LINE
  5
50A
100
AcDbEntity
  8
RACCORDO
100
AcDbLine
 62
253
  6
CONTINUOUS
 10
-69.6202758426
 20
-30.0852613517
 11
-69.6919169642
 21
-28.7647290879
  0
LINE
  5
50B
100
AcDbEntity
  8
0
100
AcDbLine
 62
7
  6
CONTINUOUS
 10
-71.1744265941
 20
-29.0726079397
 11
-71.1918486192
 21
-28.7567189827
  0
LINE
  5
50C
100
AcDbEntity
  8
RACCORDO
100
AcDbLine
 62
253
  6
CONTINUOUS
 10
-69.3721908185
 20
-29.6604175644
 11
-69.4417042785
 21
-28.3458433556
  0
LINE
  5
50D
100
AcDbEntity
  8
RACCORDO
100
AcDbLine
 62
253
  6
CONTINUOUS
 10
-68.7268547391
 20
-40.6983974288
 11
-68.8178908701
 21
-39.0065524337
  0
LINE
  5
50E
100
AcDbEntity
  8
RACCORDO
100
AcDbLine
 62
253
  6
CONTINUOUS
 10
-68.9715567579
 20
-41.0672785374
 11
-69.0518450171
 21
-39.5557694598
  0
LINE
  5
50F
100
AcDbEntity
  8
RACCORDO
100
AcDbLine
 62
253
  6
CONTINUOUS
 10
-69.6919169642
 20
-28.7647290879
 11
-69.7362333535
 21
-27.8949876641
  0
LINE
  5
510
100
AcDbEntity
  8
RACCORDO
100
AcDbLine
 62
253
  6
CONTINUOUS
 10
-68.6889673766
 20
-41.452358204
 11
-68.7268547391
 21
-40.6983974288
  0
LINE
  5
511
100
AcDbEntity
  8
RACCORDO
100
AcDbLine
 62
253
  6
CONTINUOUS
 10
-69.4417042785
 20
-28.3458433556
 11
-69.4847545174
 21
-27.4757719658
  0
LWPOLYLINE
  5
512
100
AcDbEntity
  8
0
100
AcDbPolyline
 62
7
  6
CONTINUOUS
 90
5
 70
0
 10
-71.2879113451
 20
-28.8294317756
 10
-71.2703292024
 20
-29.1555386629
 10
-71.2700794937
 20
-29.1610940908
 10
-71.2699025731
 20
-29.1655038112
 10
-71.2697984672
 20
-29.1687678273
  0
LINE
  5
513
100
AcDbEntity
  8
RACCORDO
100
AcDbLine
 62
253
  6
CONTINUOUS
 10
-69.7362333535
 20
-27.8949876641
 11
-69.7781142028
 21
-27.025004205
  0
LINE
  5
514
100
AcDbEntity
  8
COPY_PUBLISH
100
AcDbLine
 62
7
  6
CONTINUOUS
 10
-71.4188161918
 20
-24.8286291342
 11
-71.4182456603
 21
-24.8408851602
  0
LINE
  5
515
100
AcDbEntity
  8
RACCORDO
100
AcDbLine
 62
253
  6
CONTINUOUS
 10
-68.9210059625
 20
-42.1114713413
 11
-68.9715567579
 21
-41.0672785374
  0
LINE
  5
516
100
AcDbEntity
  8
RACCORDO
100
AcDbLine
 62
253
  6
CONTINUOUS
 10
-69.4847545174
 20
-27.4757719658
 11
-69.5253715549
 21
-26.6054670038
  0
LINE
  5
517
100
AcDbEntity
  8
RACCORDO
100
AcDbLine
 62
253
  6
CONTINUOUS
 10
-69.7781142028
 20
-27.025004205
 11
-69.8175587023
 21
-26.1547999757
  0
LINE
  5
518
100
AcDbEntity
  8
RACCORDO
100
AcDbLine
 62
253
  6
CONTINUOUS
 10
-68.8986077837
 20
-42.6155293241
 11
-68.9210059625
 21
-42.1114713413
  0
LINE
  5
519
100
AcDbEntity
  8
RACCORDO
100
AcDbLine
 62
253
  6
CONTINUOUS
 10
-69.8175587023
 20
-26.1547999757
 11
-69.8601274591
 21
-25.1487336028
  0
LINE
  5
51A
100
AcDbEntity
  8
RACCORDO
100
AcDbLine
 62
7
  6
CONTINUOUS
 10
-71.4782220635
 20
-20.9482624053
 11
-71.3707381039
 21
-23.5598868186
  0
LINE
  5
51B
100
AcDbEntity
  8
RACCORDO
100
AcDbLine
 62
253
  6
CONTINUOUS
 10
-71.3707381039
 20
-23.5598868186
 11
-71.3713797573
 21
-23.5421625113
  0
LWPOLYLINE
  5
51C
100
AcDbEntity
  8
RACCORDO
100
AcDbPolyline
 62
253
  6
CONTINUOUS
 90
16
 70
0
 10
-69.8601274591
 20
-25.1487336028
 10
-69.979684182
 20
-22.0138084218
 10
-70.082170943
 20
-18.8764692074
 10
-70.1675945811
 20
-15.7368385133
 10
-70.2359603051
 20
-12.5948375862
 10
-70.2872554986
 20
-9.4507914569
 10
-70.3214623655
 20
-6.305429175
 10
-70.3385757207
 20
-3.1584060468
 10
-70.3385755787
 20
-0.0103155184
 10
-70.3214619513
 20
3.1367055656
 10
-70.2872548635
 20
6.2820635983
 10
-70.2359595396
 20
9.4261034357
 10
-70.1675937878
 20
12.5680965127
 10
-70.0821702445
 20
15.7077179612
 10
-69.9796837381
 20
18.8450463755
 10
-69.8601274591
 20
21.9799592042
  0
LINE
  5
51D
100
AcDbEntity
  8
RACCORDO
100
AcDbLine
 62
253
  6
CONTINUOUS
 10
-71.4734314522
 20
-21.0695298392
 11
-71.4782220635
 21
-20.9482624053
  0
LINE
  5
51E
100
AcDbEntity
  8
RACCORDO
100
AcDbLine
 62
7
  6
CONTINUOUS
 10
-71.3707381039
 20
-23.5598868186
 11
-71.3567214871
 21
-23.9260320706
  0
LWPOLYLINE
  5
51F
100
AcDbEntity
  8
0
100
AcDbPolyline
 62
7
  6
CONTINUOUS
 90
5
 70
0
 10
-71.169610195
 20
-29.1687678273
 10
-71.1697374551
 20
-29.1649840754
 10
-71.1699445474
 20
-29.1599494692
 10
-71.1702314403
 20
-29.1536640047
 10
-71.1744265941
 20
-29.0726079397
  0
LINE
  5
520
100
AcDbEntity
  8
RACCORDO
100
AcDbLine
 62
253
  6
CONTINUOUS
 10
-71.5582592805
 20
-18.7551460283
 11
-71.5663728665
 21
-18.5195342911
  0
LINE
  5
521
100
AcDbEntity
  8
RACCORDO
100
AcDbLine
 62
7
  6
CONTINUOUS
 10
-71.3567214871
 20
-23.9260320706
 11
-71.34796336
 21
-24.1852934786
  0
LINE
  5
522
100
AcDbEntity
  8
RACCORDO
100
AcDbLine
 62
7
  6
CONTINUOUS
 10
-71.34796336
 20
-24.1852934786
 11
-71.3434173467
 21
-24.3404975294
  0
LINE
  5
523
100
AcDbEntity
  8
RACCORDO
100
AcDbLine
 62
253
  6
CONTINUOUS
 10
-71.6348318699
 20
-16.3574555746
 11
-71.642726648
 21
-16.090404412
  0
LINE
  5
524
100
AcDbEntity
  8
RACCORDO
100
AcDbLine
 62
253
  6
CONTINUOUS
 10
-71.3434173467
 20
-24.3404975294
 11
-71.3434951322
 21
-24.3319553421
  0
LINE
  5
525
100
AcDbEntity
  8
0
100
AcDbLine
 62
7
  6
CONTINUOUS
 10
-71.335224104
 20
-28.1607651836
 11
-71.3350277102
 21
-28.1694419952
  0
LINE
  5
526
100
AcDbEntity
  8
RACCORDO
100
AcDbLine
 62
7
  6
CONTINUOUS
 10
-71.3434173467
 20
-24.3404975294
 11
-71.3406545499
 21
-24.4522862863
  0
LINE
  5
527
100
AcDbEntity
  8
RACCORDO
100
AcDbLine
 62
253
  6
CONTINUOUS
 10
-71.3406545499
 20
-24.4522862863
 11
-71.3407674784
 21
-24.4385083315
  0
LINE
  5
528
100
AcDbEntity
  8
RACCORDO
100
AcDbLine
 62
253
  6
CONTINUOUS
 10
-71.703189496
 20
-13.8260925742
 11
-71.7072813054
 21
-13.6609363379
  0
LINE
  5
529
100
AcDbEntity
  8
RACCORDO
100
AcDbLine
 62
253
  6
CONTINUOUS
 10
-71.7600355592
 20
-11.23118549
 11
-71.7603381059
 21
-11.2114564047
  0
LINE
  5
52A
100
AcDbEntity
  8
0
100
AcDbLine
 62
7
  6
CONTINUOUS
 10
-71.3632146408
 20
-27.7251945403
 11
-71.3635636686
 21
-27.7082542429
  0
LINE
  5
52B
100
AcDbEntity
  8
RACCORDO
100
AcDbLine
 62
7
  6
CONTINUOUS
 10
-71.3406545499
 20
-24.4522862863
 11
-71.3393432489
 21
-24.5182132117
  0
LINE
  5
52C
100
AcDbEntity
  8
RACCORDO
100
AcDbLine
 62
253
  6
CONTINUOUS
 10
-71.8009882803
 20
-8.8012033166
 11
-71.8028590466
 21
-8.66477004
  0
LINE
  5
52D
100
AcDbEntity
  8
RACCORDO
100
AcDbLine
 62
7
  6
CONTINUOUS
 10
-71.3384794211
 20
21.4895457906
 11
-71.338361808
 21
21.4829068231
  0
LINE
  5
52E
100
AcDbEntity
  8
RACCORDO
100
AcDbLine
 62
7
  6
CONTINUOUS
 10
-71.3393432489
 20
-24.5182132117
 11
-71.3386691035
 21
-24.5626343003
  0
LWPOLYLINE
  5
52F
100
AcDbEntity
  8
0
100
AcDbPolyline
 62
7
  6
CONTINUOUS
 90
11
 70
0
 10
-71.3635636686
 20
-27.7082542429
 10
-71.3637808096
 20
-27.6933035481
 10
-71.3638404479
 20
-27.6865678801
 10
-71.3638572851
 20
-27.6804967218
 10
-71.3638316284
 20
-27.6750837506
 10
-71.3637632162
 20
-27.6703352935
 10
-71.3636419826
 20
-27.6664245764
 10
-71.3634682579
 20
-27.6633447073
 10
-71.3632416994
 20
-27.6611025815
 10
-71.3629512011
 20
-27.6598921053
 10
-71.3627112158
 20
-27.6596658278
  0
LINE
  5
530
100
AcDbEntity
  8
RACCORDO
100
AcDbLine
 62
253
  6
CONTINUOUS
 10
-71.8301383381
 20
-6.371045405
 11
-71.8313278924
 21
-6.2365131127
  0
LINE
  5
531
100
AcDbEntity
  8
RACCORDO
100
AcDbLine
 62
253
  6
CONTINUOUS
 10
-71.3378144643
 20
-24.6065913967
 11
-71.3383019976
 21
-24.5995329092
  0
LINE
  5
532
100
AcDbEntity
  8
RACCORDO
100
AcDbLine
 62
7
  6
CONTINUOUS
 10
-71.3386691035
 20
-24.5626343003
 11
-71.3383664454
 21
-24.5910240056
  0
LINE
  5
533
100
AcDbEntity
  8
RACCORDO
100
AcDbLine
 62
7
  6
CONTINUOUS
 10
-71.338361808
 20
21.4829068231
 11
-71.3382669319
 21
21.4738788501
  0
LINE
  5
534
100
AcDbEntity
  8
RACCORDO
100
AcDbLine
 62
253
  6
CONTINUOUS
 10
-71.8474850893
 20
-3.9407755099
 11
-71.8477046857
 21
-3.8763657114
  0
LINE
  5
535
100
AcDbEntity
  8
RACCORDO
100
AcDbLine
 62
253
  6
CONTINUOUS
 10
-71.3376217045
 20
-24.6380898412
 11
-71.3382095788
 21
-24.6221778271
  0
LINE
  5
536
100
AcDbEntity
  8
RACCORDO
100
AcDbLine
 62
7
  6
CONTINUOUS
 10
-71.3383664454
 20
-24.5910240056
 11
-71.3382242402
 21
-24.6151209522
  0
LINE
  5
537
100
AcDbEntity
  8
RACCORDO
100
AcDbLine
 62
7
  6
CONTINUOUS
 10
-71.3382669319
 20
21.4738788501
 11
-71.3382143665
 21
21.4626233928
  0
LWPOLYLINE
  5
538
100
AcDbEntity
  8
RACCORDO
100
AcDbPolyline
 62
7
  6
CONTINUOUS
 90
9
 70
0
 10
-71.8530335347
 20
-1.5843871993
 10
-71.8474850893
 20
-3.9407755099
 10
-71.8301383381
 20
-6.371045405
 10
-71.8009882803
 20
-8.8012033166
 10
-71.7600355592
 20
-11.23118549
 10
-71.7072813054
 20
-13.6609363379
 10
-71.642726648
 20
-16.090404412
 10
-71.5663728665
 20
-18.5195342911
 10
-71.4782220635
 20
-20.9482624053
  0
LINE
  5
539
100
AcDbEntity
  8
RACCORDO
100
AcDbLine
 62
7
  6
CONTINUOUS
 10
-71.3382242402
 20
-24.6151209522
 11
-71.3382099084
 21
-24.6287497223
  0
LINE
  5
53A
100
AcDbEntity
  8
RACCORDO
100
AcDbLine
 62
7
  6
CONTINUOUS
 10
-71.3382143665
 20
21.4626233928
 11
-71.3382411785
 21
21.4417419438
  0
LINE
  5
53B
100
AcDbEntity
  8
RACCORDO
100
AcDbLine
 62
7
  6
CONTINUOUS
 10
-71.3382099084
 20
-24.6287497223
 11
-71.3382512911
 21
-24.6403712843
  0
LWPOLYLINE
  5
53C
100
AcDbEntity
  8
RACCORDO
100
AcDbPolyline
 62
253
  6
CONTINUOUS
 90
8
 70
0
 10
-71.3382411785
 20
21.4417419438
 10
-71.3376217039
 20
21.4693154538
 10
-71.3376567552
 20
21.4962108612
 10
-71.3379134747
 20
21.5186151161
 10
-71.3383790489
 20
21.5363890239
 10
-71.3390496179
 20
21.5494861999
 10
-71.3399297778
 20
21.5579530686
 10
-71.3410196531
 20
21.5617896408
  0
LINE
  5
53D
100
AcDbEntity
  8
RACCORDO
100
AcDbLine
 62
253
  6
CONTINUOUS
 10
-71.847771739
 20
0.6929036602
 11
-71.8475138339
 21
0.7658906418
  0
LINE
  5
53E
100
AcDbEntity
  8
RACCORDO
100
AcDbLine
 62
7
  6
CONTINUOUS
 10
-71.3382411785
 20
21.4417419438
 11
-71.3384200756
 21
21.4162300176
  0
LINE
  5
53F
100
AcDbEntity
  8
RACCORDO
100
AcDbLine
 62
7
  6
CONTINUOUS
 10
-71.3382512911
 20
-24.6403712843
 11
-71.3383377385
 21
-24.6498616913
  0
LINE
  5
540
100
AcDbEntity
  8
RACCORDO
100
AcDbLine
 62
253
  6
CONTINUOUS
 10
-71.3384200756
 20
21.4162300176
 11
-71.3378144639
 21
21.4378170066
  0
LINE
  5
541
100
AcDbEntity
  8
RACCORDO
100
AcDbLine
 62
253
  6
CONTINUOUS
 10
-71.8315909447
 20
3.0393587465
 11
-71.8301914403
 21
3.196717355
  0
LINE
  5
542
100
AcDbEntity
  8
RACCORDO
100
AcDbLine
 62
7
  6
CONTINUOUS
 10
-71.3384200756
 20
21.4162300176
 11
-71.3389290897
 21
21.3750568068
  0
LINE
  5
543
100
AcDbEntity
  8
RACCORDO
100
AcDbLine
 62
253
  6
CONTINUOUS
 10
-71.3389290897
 20
21.3750568068
 11
-71.3382283696
 21
21.4018273339
  0
LINE
  5
544
100
AcDbEntity
  8
RACCORDO
100
AcDbLine
 62
253
  6
CONTINUOUS
 10
-71.8034386406
 20
5.4549195873
 11
-71.8010603241
 21
5.6274325979
  0
LWPOLYLINE
  5
545
100
AcDbEntity
  8
RACCORDO
100
AcDbPolyline
 62
7
  6
CONTINUOUS
 90
5
 70
0
 10
-71.3383377385
 20
-24.6498616913
 10
-71.3384522493
 20
-24.6570367233
 10
-71.338512848
 20
-24.6597426286
 10
-71.3385664222
 20
-24.6617075359
 10
-71.338599739
 20
-24.6627464132
  0
LINE
  5
546
100
AcDbEntity
  8
RACCORDO
100
AcDbLine
 62
7
  6
CONTINUOUS
 10
-71.3389290897
 20
21.3750568068
 11
-71.3400467595
 21
21.3121752817
  0
LINE
  5
547
100
AcDbEntity
  8
RACCORDO
100
AcDbLine
 62
253
  6
CONTINUOUS
 10
-71.7614191038
 20
7.9863376693
 11
-71.7601211308
 21
8.0579723908
  0
LINE
  5
548
100
AcDbEntity
  8
RACCORDO
100
AcDbLine
 62
253
  6
CONTINUOUS
 10
-71.7073749809
 20
10.4882812256
 11
-71.7049124678
 21
10.5867043534
  0
LINE
  5
549
100
AcDbEntity
  8
RACCORDO
100
AcDbLine
 62
253
  6
CONTINUOUS
 10
-71.3400467595
 20
21.3121752817
 11
-71.3397050788
 21
21.3177858428
  0
LINE
  5
54A
100
AcDbEntity
  8
RACCORDO
100
AcDbLine
 62
7
  6
CONTINUOUS
 10
-71.3400467595
 20
21.3121752817
 11
-71.3421638525
 21
21.2198253494
  0
LINE
  5
54B
100
AcDbEntity
  8
RACCORDO
100
AcDbLine
 62
253
  6
CONTINUOUS
 10
-71.6428229887
 20
12.9183076894
 11
-71.6369879317
 21
13.115502481
  0
LINE
  5
54C
100
AcDbEntity
  8
RACCORDO
100
AcDbLine
 62
7
  6
CONTINUOUS
 10
-71.3421638525
 20
21.2198253494
 11
-71.3463820229
 21
21.0680597181
  0
LINE
  5
54D
100
AcDbEntity
  8
RACCORDO
100
AcDbLine
 62
253
  6
CONTINUOUS
 10
-71.3463820229
 20
21.0680597181
 11
-71.345159919
 21
21.1046797675
  0
LINE
  5
54E
100
AcDbEntity
  8
RACCORDO
100
AcDbLine
 62
253
  6
CONTINUOUS
 10
-71.5664664319
 20
15.3479963656
 11
-71.5603322124
 21
15.5258956327
  0
LINE
  5
54F
100
AcDbEntity
  8
RACCORDO
100
AcDbLine
 62
7
  6
CONTINUOUS
 10
-71.3463820229
 20
21.0680597181
 11
-71.3540150416
 21
20.8337920744
  0
LINE
  5
550
100
AcDbEntity
  8
RACCORDO
100
AcDbLine
 62
253
  6
CONTINUOUS
 10
-71.3540150416
 20
20.8337920744
 11
-71.3537251999
 21
20.8392138014
  0
LWPOLYLINE
  5
551
100
AcDbEntity
  8
RACCORDO
100
AcDbPolyline
 62
7
  6
CONTINUOUS
 90
9
 70
0
 10
-71.4783074179
 20
17.7772836578
 10
-71.5664664319
 20
15.3479963656
 10
-71.6428229887
 20
12.9183076894
 10
-71.7073749809
 20
10.4882812256
 10
-71.7601211308
 20
8.0579723908
 10
-71.8010603241
 20
5.6274325979
 10
-71.8301914403
 20
3.196717355
 10
-71.8475138339
 20
0.7658906418
 10
-71.8530335349
 20
-1.5843871993
  0
LINE
  5
552
100
AcDbEntity
  8
RACCORDO
100
AcDbLine
 62
253
  6
CONTINUOUS
 10
-71.4783074179
 20
17.7772836578
 11
-71.4748363731
 21
17.8646747162
  0
LINE
  5
553
100
AcDbEntity
  8
RACCORDO
100
AcDbLine
 62
7
  6
CONTINUOUS
 10
-71.3540150416
 20
20.8337920744
 11
-71.3666069217
 21
20.4946773532
  0
LINE
  5
554
100
AcDbEntity
  8
RACCORDO
100
AcDbLine
 62
7
  6
CONTINUOUS
 10
-71.3666069217
 20
20.4946773532
 11
-71.4783074179
 21
17.7772836578
  0
LINE
  5
555
100
AcDbEntity
  8
RACCORDO
100
AcDbLine
 62
253
  6
CONTINUOUS
 10
-69.8601274591
 20
21.9799592042
 11
-69.8175587097
 21
22.9860254098
  0
LINE
  5
556
100
AcDbEntity
  8
RACCORDO
100
AcDbLine
 62
253
  6
CONTINUOUS
 10
-69.8175587097
 20
22.9860254098
 11
-69.7781142096
 21
23.8562296609
  0
LINE
  5
557
100
AcDbEntity
  8
COPY_PUBLISH
100
AcDbLine
 62
7
  6
CONTINUOUS
 10
-71.4182456603
 20
21.6721107617
 11
-71.4188161918
 21
21.6598547358
  0
LINE
  5
558
100
AcDbEntity
  8
RACCORDO
100
AcDbLine
 62
253
  6
CONTINUOUS
 10
-69.7781142096
 20
23.8562296609
 11
-69.7362333545
 21
24.7262132449
  0
LINE
  5
559
100
AcDbEntity
  8
RACCORDO
100
AcDbLine
 62
253
  6
CONTINUOUS
 10
-68.9722308078
 20
37.8852027388
 11
-68.9225065243
 21
38.9100871582
  0
LINE
  5
55A
100
AcDbEntity
  8
RACCORDO
100
AcDbLine
 62
253
  6
CONTINUOUS
 10
-69.7362333545
 20
24.7262132449
 11
-69.6919169637
 21
25.5959546981
  0
LINE
  5
55B
100
AcDbEntity
  8
RACCORDO
100
AcDbLine
 62
253
  6
CONTINUOUS
 10
-69.4417042822
 20
25.177068885
 11
-69.3721908187
 21
26.4916431584
  0
LINE
  5
55C
100
AcDbEntity
  8
RACCORDO
100
AcDbLine
 62
253
  6
CONTINUOUS
 10
-69.6919169637
 20
25.5959546981
 11
-69.6202756903
 21
26.9164896924
  0
LINE
  5
55D
100
AcDbEntity
  8
RACCORDO
100
AcDbLine
 62
253
  6
CONTINUOUS
 10
-69.3721908187
 20
26.4916431584
 11
-69.2973915668
 21
27.8237743862
  0
LINE
  5
55E
100
AcDbEntity
  8
RACCORDO
100
AcDbLine
 62
253
  6
CONTINUOUS
 10
-69.6202756903
 20
26.9164896924
 11
-69.5440458418
 21
28.242314591
  0
LINE
  5
55F
100
AcDbEntity
  8
RACCORDO
100
AcDbLine
 62
253
  6
CONTINUOUS
 10
-69.2973915668
 20
27.8237743862
 11
-69.218576486
 21
29.1522252513
  0
LINE
  5
560
100
AcDbEntity
  8
RACCORDO
100
AcDbLine
 62
253
  6
CONTINUOUS
 10
-69.5440458418
 20
28.242314591
 11
-69.4638160981
 21
29.5642583266
  0
LINE
  5
561
100
AcDbEntity
  8
RACCORDO
100
AcDbLine
 62
253
  6
CONTINUOUS
 10
-69.218576486
 20
29.1522252513
 11
-68.7497370315
 21
37.0910733025
  0
LINE
  5
562
100
AcDbEntity
  8
RACCORDO
100
AcDbLine
 62
253
  6
CONTINUOUS
 10
-69.4638160981
 20
29.5642583266
 11
-68.9722308078
 21
37.8852027388
  0
LINE
  5
563
100
AcDbEntity
  8
RACCORDO
100
AcDbLine
 62
253
  6
CONTINUOUS
 10
-71.8530335349
 20
-1.5843871993
 11
-71.8529549587
 21
-1.5843871993
  0
LINE
  5
564
100
AcDbEntity
  8
RACCORDO
100
AcDbLine
 62
253
  6
CONTINUOUS
 10
-64.7094032092
 20
-1.5843871993
 11
-68.1018630648
 21
-1.5843871993
  0
LINE
  5
565
100
AcDbEntity
  8
DRAFT
100
AcDbLine
 62
7
  6
CONTINUOUS
 10
-67.3266756714
 20
-31.017438562
 11
-66.9226352447
 21
-37.5300410004
  0
LINE
  5
566
100
AcDbEntity
  8
RACCORDO
100
AcDbLine
 62
253
  6
CONTINUOUS
 10
-67.141537316
 20
-30.9594267939
 11
-66.7114156332
 21
-37.9320098756
  0
LINE
  5
567
100
AcDbEntity
  8
RACCORDO
100
AcDbLine
 62
253
  6
CONTINUOUS
 10
-67.0222261841
 20
-30.9389101314
 11
-66.6478760136
 21
-36.9857622399
  0
LINE
  5
568
100
AcDbEntity
  8
DRAFT
100
AcDbLine
 62
7
  6
CONTINUOUS
 10
-66.9226352447
 20
-37.5300410004
 11
-66.8342740703
 21
-39.0220573216
  0
LINE
  5
569
100
AcDbEntity
  8
RACCORDO
100
AcDbLine
 62
253
  6
CONTINUOUS
 10
-66.6478760136
 20
-36.9857622399
 11
-66.5588906042
 21
-38.4858975379
  0
LINE
  5
56A
100
AcDbEntity
  8
0
100
AcDbLine
 62
7
  6
CONTINUOUS
 10
-66.4143798629
 20
-35.6739553485
 11
-66.3151968589
 21
-37.3628631596
  0
LINE
  5
56B
100
AcDbEntity
  8
0
100
AcDbLine
 62
7
  6
CONTINUOUS
 10
-66.7352568803
 20
-30.3874888618
 11
-66.4143798629
 21
-35.6739553485
  0
LINE
  5
56C
100
AcDbEntity
  8
RACCORDO
100
AcDbLine
 62
253
  6
CONTINUOUS
 10
-66.7114156332
 20
-37.9320098756
 11
-66.6315276262
 21
-39.3093510932
  0
LINE
  5
56D
100
AcDbEntity
  8
RACCORDO
100
AcDbLine
 62
253
  6
CONTINUOUS
 10
-66.5588906042
 20
-38.4858975379
 11
-66.4853822103
 21
-39.7815984144
  0
LINE
  5
56E
100
AcDbEntity
  8
DRAFT
100
AcDbLine
 62
7
  6
CONTINUOUS
 10
-66.8342740703
 20
-39.0220573216
 11
-66.7585328741
 21
-40.3623348633
  0
LINE
  5
56F
100
AcDbEntity
  8
DRAFT
100
AcDbLine
 62
7
  6
CONTINUOUS
 10
-67.4272339649
 20
-29.23553571
 11
-67.3266756714
 21
-31.017438562
  0
LINE
  5
570
100
AcDbEntity
  8
0
100
AcDbLine
 62
7
  6
CONTINUOUS
 10
-66.3151968589
 20
-37.3628631596
 11
-66.2403945559
 21
-38.6947629349
  0
LINE
  5
571
100
AcDbEntity
  8
RACCORDO
100
AcDbLine
 62
253
  6
CONTINUOUS
 10
-67.2413604804
 20
-29.1878782811
 11
-67.141537316
 21
-30.9594267939
  0
LINE
  5
572
100
AcDbEntity
  8
RACCORDO
100
AcDbLine
 62
253
  6
CONTINUOUS
 10
-67.1218211617
 20
-29.1706653544
 11
-67.0222261841
 21
-30.9389101314
  0
LINE
  5
573
100
AcDbEntity
  8
RACCORDO
100
AcDbLine
 62
253
  6
CONTINUOUS
 10
-66.6315276262
 20
-39.3093510932
 11
-66.5687799382
 21
-40.4459368989
  0
LINE
  5
574
100
AcDbEntity
  8
0
100
AcDbLine
 62
7
  6
CONTINUOUS
 10
-66.832449707
 20
-28.6135926651
 11
-66.7352568803
 21
-30.3874888618
  0
LINE
  5
575
100
AcDbEntity
  8
DRAFT
100
AcDbLine
 62
7
  6
CONTINUOUS
 10
-66.7585328741
 20
-40.3623348633
 11
-66.7067035642
 21
-41.3319310642
  0
LINE
  5
576
100
AcDbEntity
  8
RACCORDO
100
AcDbLine
 62
253
  6
CONTINUOUS
 10
-66.4853822103
 20
-39.7815984144
 11
-66.4264648429
 21
-40.8804156977
  0
LINE
  5
577
100
AcDbEntity
  8
0
100
AcDbLine
 62
7
  6
CONTINUOUS
 10
-66.2403945559
 20
-38.6947629349
 11
-66.1822956143
 21
-39.786466207
  0
LINE
  5
578
100
AcDbEntity
  8
DRAFT
100
AcDbLine
 62
7
  6
CONTINUOUS
 10
-67.4975914981
 20
-27.8842811634
 11
-67.4272339649
 21
-29.23553571
  0
LINE
  5
579
100
AcDbEntity
  8
RACCORDO
100
AcDbLine
 62
253
  6
CONTINUOUS
 10
-67.3110135914
 20
-27.8486538572
 11
-67.2413604804
 21
-29.1878782811
  0
LINE
  5
57A
100
AcDbEntity
  8
RACCORDO
100
AcDbLine
 62
253
  6
CONTINUOUS
 10
-67.1913612201
 20
-27.8331152767
 11
-67.1218211617
 21
-29.1706653544
  0
LINE
  5
57B
100
AcDbEntity
  8
RACCORDO
100
AcDbLine
 62
253
  6
CONTINUOUS
 10
-66.5687799382
 20
-40.4459368989
 11
-66.5184271245
 21
-41.4145324203
  0
LINE
  5
57C
100
AcDbEntity
  8
DRAFT
100
AcDbLine
 62
7
  6
CONTINUOUS
 10
-66.7067035642
 20
-41.3319310642
 11
-66.6659132041
 21
-42.1438278952
  0
LWPOLYLINE
  5
57D
100
AcDbEntity
  8
RACCORDO
100
AcDbPolyline
 62
7
  6
CONTINUOUS
 90
6
 70
0
 10
-71.338606051
 20
21.4942705026
 10
-71.3386256653
 20
21.4946726121
 10
-71.3386207844
 20
21.494549328
 10
-71.3385855239
 20
21.4935461997
 10
-71.3385362268
 20
21.4918710442
 10
-71.3384794211
 20
21.4895457906
  0
LINE
  5
57E
100
AcDbEntity
  8
0
100
AcDbLine
 62
7
  6
CONTINUOUS
 10
-66.899379813
 20
-27.2818221816
 11
-66.832449707
 21
-28.6135926651
  0
LINE
  5
57F
100
AcDbEntity
  8
0
100
AcDbLine
 62
7
  6
CONTINUOUS
 10
-66.1822956143
 20
-39.786466207
 11
-66.1352425752
 21
-40.7299618386
  0
LINE
  5
580
100
AcDbEntity
  8
RACCORDO
100
AcDbLine
 62
253
  6
CONTINUOUS
 10
-66.4264648429
 20
-40.8804156977
 11
-66.3809261612
 21
-41.7910276149
  0
LINE
  5
581
100
AcDbEntity
  8
RACCORDO
100
AcDbLine
 62
253
  6
CONTINUOUS
 10
-66.5184271245
 20
-41.4145324203
 11
-66.4755737623
 21
-42.3037846329
  0
LINE
  5
582
100
AcDbEntity
  8
DRAFT
100
AcDbLine
 62
7
  6
CONTINUOUS
 10
-67.5620253409
 20
-26.5324498359
 11
-67.4975914981
 21
-27.8842811634
  0
LINE
  5
583
100
AcDbEntity
  8
RACCORDO
100
AcDbLine
 62
253
  6
CONTINUOUS
 10
-67.3748423683
 20
-26.5088407308
 11
-67.3110135914
 21
-27.8486538572
  0
LINE
  5
584
100
AcDbEntity
  8
RACCORDO
100
AcDbLine
 62
253
  6
CONTINUOUS
 10
-67.2550882043
 20
-26.4949800532
 11
-67.1913612201
 21
-27.8331152767
  0
LINE
  5
585
100
AcDbEntity
  8
RACCORDO
100
AcDbLine
 62
253
  6
CONTINUOUS
 10
-68.6448603232
 20
-42.3945662245
 11
-68.6889673766
 21
-41.452358204
  0
LINE
  5
586
100
AcDbEntity
  8
DRAFT
100
AcDbLine
 62
7
  6
CONTINUOUS
 10
-66.6659132041
 20
-42.1438278952
 11
-66.6269106728
 21
-42.9868317752
  0
LINE
  5
587
100
AcDbEntity
  8
0
100
AcDbLine
 62
7
  6
CONTINUOUS
 10
-66.1352425752
 20
-40.7299618386
 11
-66.0998777284
 21
-41.4958434772
  0
LINE
  5
588
100
AcDbEntity
  8
0
100
AcDbLine
 62
7
  6
CONTINUOUS
 10
-66.9605380195
 20
-25.9496047962
 11
-66.899379813
 21
-27.2818221816
  0
LINE
  5
589
100
AcDbEntity
  8
RACCORDO
100
AcDbLine
 62
253
  6
CONTINUOUS
 10
-66.3809261612
 20
-41.7910276149
 11
-66.3464206969
 21
-42.5392222686
  0
LINE
  5
58A
100
AcDbEntity
  8
RACCORDO
100
AcDbLine
 62
253
  6
CONTINUOUS
 10
-69.5253715549
 20
-26.6054670038
 11
-69.5635547206
 21
-25.7349485874
  0
LINE
  5
58B
100
AcDbEntity
  8
DRAFT
100
AcDbLine
 62
7
  6
CONTINUOUS
 10
-67.6205335288
 20
-25.1801071993
 11
-67.5620253409
 21
-26.5324498359
  0
LINE
  5
58C
100
AcDbEntity
  8
RACCORDO
100
AcDbLine
 62
253
  6
CONTINUOUS
 10
-67.4328320253
 20
-25.1688085226
 11
-67.3748423683
 21
-26.5088407308
  0
LINE
  5
58D
100
AcDbEntity
  8
RACCORDO
100
AcDbLine
 62
253
  6
CONTINUOUS
 10
-67.3129874677
 20
-25.1566269954
 11
-67.2550882043
 21
-26.4949800532
  0
LINE
  5
58E
100
AcDbEntity
  8
RACCORDO
100
AcDbLine
 62
253
  6
CONTINUOUS
 10
-66.4755737623
 20
-42.3037846329
 11
-66.4451512867
 21
-42.9993172627
  0
LINE
  5
58F
100
AcDbEntity
  8
0
100
AcDbLine
 62
7
  6
CONTINUOUS
 10
-66.9980992869
 20
-25.0613209748
 11
-66.9605380195
 21
-25.9496047962
  0
LINE
  5
590
100
AcDbEntity
  8
RACCORDO
100
AcDbLine
 62
253
  6
CONTINUOUS
 10
-69.5635547206
 20
-25.7349485874
 11
-69.5872908633
 21
-25.1638668343
  0
LINE
  5
591
100
AcDbEntity
  8
RACCORDO
100
AcDbLine
 62
253
  6
CONTINUOUS
 10
-68.613738521
 20
-43.1301857897
 11
-68.6448603232
 21
-42.3945662245
  0
LINE
  5
592
100
AcDbEntity
  8
DRAFT
100
AcDbLine
 62
7
  6
CONTINUOUS
 10
-66.6269106728
 20
-42.9868317752
 11
-66.6013988148
 21
-43.5992699269
  0
LINE
  5
593
100
AcDbEntity
  8
0
100
AcDbLine
 62
7
  6
CONTINUOUS
 10
-66.0998777284
 20
-41.4958434772
 11
-66.0705984938
 21
-42.194330514
  0
LINE
  5
594
100
AcDbEntity
  8
RACCORDO
100
AcDbLine
 62
253
  6
CONTINUOUS
 10
-66.3464206969
 20
-42.5392222686
 11
-66.3202665243
 21
-43.1674994986
  0
LINE
  5
595
100
AcDbEntity
  8
RACCORDO
100
AcDbLine
 62
253
  6
CONTINUOUS
 10
-68.8721135274
 20
-43.269470365
 11
-68.8986077837
 21
-42.6155293241
  0
LWPOLYLINE
  5
596
100
AcDbEntity
  8
RACCORDO
100
AcDbPolyline
 62
253
  6
CONTINUOUS
 90
15
 70
0
 10
-69.5872908633
 20
-25.1638668343
 10
-69.7067465458
 20
-22.0275399224
 10
-69.8091779367
 20
-18.8880481002
 10
-69.8945665885
 20
-15.7459150689
 10
-69.9628934171
 20
-12.6017700556
 10
-70.0141522532
 20
-9.4559324753
 10
-70.0483380203
 20
-6.3084610621
 10
-70.0654388179
 20
-3.1593151271
 10
-70.0654387039
 20
-0.0094178552
 10
-70.0483376964
 20
3.1397260105
 10
-70.0141517819
 20
6.2871926814
 10
-69.962892891
 20
9.4330234563
 10
-69.8945660859
 20
12.5771614219
 10
-69.8091775207
 20
15.7192877712
 10
-69.706746296
 20
18.8587726748
  0
LINE
  5
597
100
AcDbEntity
  8
RACCORDO
100
AcDbLine
 62
253
  6
CONTINUOUS
 10
-66.4451512867
 20
-42.9993172627
 11
-66.4235614804
 21
-43.5505142062
  0
LINE
  5
598
100
AcDbEntity
  8
RACCORDO
100
AcDbLine
 62
253
  6
CONTINUOUS
 10
-68.5918995136
 20
-43.7109819736
 11
-68.613738521
 21
-43.1301857897
  0
LINE
  5
599
100
AcDbEntity
  8
0
100
AcDbLine
 62
7
  6
CONTINUOUS
 10
-66.0705984938
 20
-42.194330514
 11
-66.051471507
 21
-42.706305647
  0
LINE
  5
59A
100
AcDbEntity
  8
DRAFT
100
AcDbLine
 62
7
  6
CONTINUOUS
 10
-66.6013988148
 20
-43.5992699269
 11
-66.580641092
 21
-44.1643503236
  0
LINE
  5
59B
100
AcDbEntity
  8
RACCORDO
100
AcDbLine
 62
253
  6
CONTINUOUS
 10
-66.3202665243
 20
-43.1674994986
 11
-66.301399873
 21
-43.6775985544
  0
LINE
  5
59C
100
AcDbEntity
  8
RACCORDO
100
AcDbLine
 62
253
  6
CONTINUOUS
 10
-68.854957796
 20
-43.7503663507
 11
-68.8721135274
 21
-43.269470365
  0
LINE
  5
59D
100
AcDbEntity
  8
RACCORDO
100
AcDbLine
 62
253
  6
CONTINUOUS
 10
-66.4235614804
 20
-43.5505142062
 11
-66.4090909444
 21
-43.9689656258
  0
LINE
  5
59E
100
AcDbEntity
  8
DRAFT
100
AcDbLine
 62
7
  6
CONTINUOUS
 10
-66.580641092
 20
-44.1643503236
 11
-66.5694922194
 21
-44.5148723099
  0
LINE
  5
59F
100
AcDbEntity
  8
0
100
AcDbLine
 62
7
  6
CONTINUOUS
 10
-66.051471507
 20
-42.706305647
 11
-66.0370581205
 21
-43.1462617133
  0
LINE
  5
5A0
100
AcDbEntity
  8
RACCORDO
100
AcDbLine
 62
253
  6
CONTINUOUS
 10
-68.5753579878
 20
-44.2200835623
 11
-68.5918995136
 21
-43.7109819736
  0
LINE
  5
5A1
100
AcDbEntity
  8
RACCORDO
100
AcDbLine
 62
253
  6
CONTINUOUS
 10
-66.301399873
 20
-43.6775985544
 11
-66.2884320946
 21
-44.0813044257
  0
LINE
  5
5A2
100
AcDbEntity
  8
RACCORDO
100
AcDbLine
 62
253
  6
CONTINUOUS
 10
-68.8430085433
 20
-44.13669605
 11
-68.854957796
 21
-43.7503663507
  0
LINE
  5
5A3
100
AcDbEntity
  8
0
100
AcDbLine
 62
7
  6
CONTINUOUS
 10
-66.0370581205
 20
-43.1462617133
 11
-66.0310298406
 21
-43.3543267569
  0
LINE
  5
5A4
100
AcDbEntity
  8
RACCORDO
100
AcDbLine
 62
253
  6
CONTINUOUS
 10
-66.4090909444
 20
-43.9689656258
 11
-66.3973436007
 21
-44.3618069967
  0
LINE
  5
5A5
100
AcDbEntity
  8
DRAFT
100
AcDbLine
 62
7
  6
CONTINUOUS
 10
-66.5694922194
 20
-44.5148723099
 11
-66.5604661104
 21
-44.8461980017
  0
LINE
  5
5A6
100
AcDbEntity
  8
RACCORDO
100
AcDbLine
 62
253
  6
CONTINUOUS
 10
-68.835884255
 20
-44.4043589739
 11
-68.8430085433
 21
-44.13669605
  0
LINE
  5
5A7
100
AcDbEntity
  8
RACCORDO
100
AcDbLine
 62
253
  6
CONTINUOUS
 10
-66.2884320946
 20
-44.0813044257
 11
-66.2797658524
 21
-44.3968777683
  0
LINE
  5
5A8
100
AcDbEntity
  8
RACCORDO
100
AcDbLine
 62
253
  6
CONTINUOUS
 10
-68.5644255455
 20
-44.6256398524
 11
-68.5753579878
 21
-44.2200835623
  0
LINE
  5
5A9
100
AcDbEntity
  8
RACCORDO
100
AcDbLine
 62
253
  6
CONTINUOUS
 10
-66.3973436007
 20
-44.3618069967
 11
-66.3896151016
 21
-44.676884605
  0
LINE
  5
5AA
100
AcDbEntity
  8
RACCORDO
100
AcDbLine
 62
253
  6
CONTINUOUS
 10
-66.2797658524
 20
-44.3968777683
 11
-66.2753560409
 21
-44.5862253564
  0
LINE
  5
5AB
100
AcDbEntity
  8
RACCORDO
100
AcDbLine
 62
253
  6
CONTINUOUS
 10
-68.8298324809
 20
-44.6752412133
 11
-68.835884255
 21
-44.4043589739
  0
LINE
  5
5AC
100
AcDbEntity
  8
RACCORDO
100
AcDbLine
 62
253
  6
CONTINUOUS
 10
-68.5584246881
 20
-44.900852706
 11
-68.5644255455
 21
-44.6256398524
  0
LWPOLYLINE
  5
5AD
100
AcDbEntity
  8
DRAFT
100
AcDbPolyline
 62
7
  6
CONTINUOUS
 90
3
 70
0
 10
-66.5604661104
 20
-44.8461980017
 10
-66.5535775345
 20
-45.1591957885
 10
-66.5509670692
 20
-45.3083599118
  0
LINE
  5
5AE
100
AcDbEntity
  8
RACCORDO
100
AcDbLine
 62
253
  6
CONTINUOUS
 10
-66.3896151016
 20
-44.676884605
 11
-66.3868506713
 21
-44.8113574776
  0
LINE
  5
5AF
100
AcDbEntity
  8
RACCORDO
100
AcDbLine
 62
253
  6
CONTINUOUS
 10
-68.8252340546
 20
-44.9477557772
 11
-68.8298324809
 21
-44.6752412133
  0
LINE
  5
5B0
100
AcDbEntity
  8
RACCORDO
100
AcDbLine
 62
253
  6
CONTINUOUS
 10
-68.553808062
 20
-45.1782306689
 11
-68.5584246881
 21
-44.900852706
  0
LINE
  5
5B1
100
AcDbEntity
  8
RACCORDO
100
AcDbLine
 62
253
  6
CONTINUOUS
 10
-68.8223701193
 20
-45.2206736038
 11
-68.8252340546
 21
-44.9477557772
  0
LWPOLYLINE
  5
5B2
100
AcDbEntity
  8
RACCORDO
100
AcDbPolyline
 62
253
  6
CONTINUOUS
 90
11
 70
0
 10
-68.8218708862
 20
42.3629471242
 10
-68.8228623668
 20
42.4923963248
 10
-68.8246349113
 20
42.6203305929
 10
-68.8271943152
 20
42.7464077197
 10
-68.8309049145
 20
42.8680486456
 10
-68.8356871997
 20
42.9853743801
 10
-68.8415749903
 20
43.0982651938
 10
-68.8490974143
 20
43.2037817137
 10
-68.8584067537
 20
43.3009449571
 10
-68.8692827954
 20
43.3907358661
 10
-68.8816881058
 20
43.4731552771
  0
LWPOLYLINE
  5
5B3
100
AcDbEntity
  8
0
100
AcDbPolyline
 62
7
  6
CONTINUOUS
 90
10
 70
0
 10
-67.4784174622
 20
-1.5843871993
 10
-67.4724833685
 20
-4.196421636
 10
-67.4546830733
 20
-6.8082114914
 10
-67.4250197717
 20
-9.4194187933
 10
-67.38349638
 20
-12.0297561151
 10
-67.3301153219
 20
-14.6390344109
 10
-67.2648796377
 20
-17.2470633075
 10
-67.1877930207
 20
-19.8536539109
 10
-67.0988630708
 20
-22.4585190424
 10
-66.9980992785
 20
-25.0613209744
  0
LWPOLYLINE
  5
5B4
100
AcDbEntity
  8
RACCORDO
100
AcDbPolyline
 62
253
  6
CONTINUOUS
 90
12
 70
0
 10
-68.550307553
 20
42.4697944649
 10
-68.5505500226
 20
42.6027725948
 10
-68.5514964157
 20
42.7348323225
 10
-68.5532470482
 20
42.8651383707
 10
-68.5559014606
 20
42.9926485244
 10
-68.5595616196
 20
43.1168331536
 10
-68.5643319377
 20
43.2362884941
 10
-68.5703387999
 20
43.3501624083
 10
-68.5777690475
 20
43.4582511881
 10
-68.5868118438
 20
43.5592631918
 10
-68.5976199801
 20
43.6511709791
 10
-68.6103691352
 20
43.7322558863
  0
LWPOLYLINE
  5
5B5
100
AcDbEntity
  8
RACCORDO
100
AcDbPolyline
 62
253
  6
CONTINUOUS
 90
19
 70
0
 10
-67.9164544391
 20
-1.5843871993
 10
-67.9153506419
 20
-2.7123367172
 10
-67.9118772092
 20
-3.8811847099
 10
-67.9057853878
 20
-5.0909019942
 10
-67.8968383687
 20
-6.3389531808
 10
-67.8847606211
 20
-7.6277971011
 10
-67.8691819155
 20
-8.9648838265
 10
-67.8495249094
 20
-10.3659467413
 10
-67.8256025439
 20
-11.8151238244
 10
-67.7978612182
 20
-13.2724822913
 10
-67.7661391293
 20
-14.7422684088
 10
-67.7304480767
 20
-16.220140097
 10
-67.6921979176
 20
-17.653349648
 10
-67.6522070079
 20
-19.0258528353
 10
-67.6103847242
 20
-20.3537030499
 10
-67.5671973421
 20
-21.6323581247
 10
-67.5230274078
 20
-22.8603197019
 10
-67.4781387412
 20
-24.0391271874
 10
-67.4328320927
 20
-25.1688085263
  0
LWPOLYLINE
  5
5B6
100
AcDbEntity
  8
RACCORDO
100
AcDbPolyline
 62
253
  6
CONTINUOUS
 90
19
 70
0
 10
-67.7963441531
 20
-1.5843871993
 10
-67.7952399986
 20
-2.7118211257
 10
-67.7917685081
 20
-3.8800809071
 10
-67.7856805452
 20
-5.0891599684
 10
-67.7767386203
 20
-6.336590551
 10
-67.7646667331
 20
-7.6248298351
 10
-67.7490952287
 20
-8.9612578338
 10
-67.7294479705
 20
-10.3616052454
 10
-67.7055377118
 20
-11.8100745086
 10
-67.6778099815
 20
-13.2667471945
 10
-67.6461032865
 20
-14.7358209847
 10
-67.6104308818
 20
-16.2129251796
 10
-67.5722024335
 20
-17.6453517988
 10
-67.5322344372
 20
-19.0171109646
 10
-67.49043539
 20
-20.3442494369
 10
-67.4472727185
 20
-21.6221819041
 10
-67.4031292168
 20
-22.8494163685
 10
-67.3582673228
 20
-24.0275490718
 10
-67.3129874885
 20
-25.1566270018
  0
LINE
  5
5B7
100
AcDbEntity
  8
RACCORDO
100
AcDbLine
 62
253
  6
CONTINUOUS
 10
-68.8220854009
 20
42.1000281152
 11
-68.8218708862
 21
42.3629471242
  0
LINE
  5
5B8
100
AcDbEntity
  8
RACCORDO
100
AcDbLine
 62
253
  6
CONTINUOUS
 10
-68.5516304911
 20
42.2017085132
 11
-68.550307553
 21
42.4697944649
  0
LINE
  5
5B9
100
AcDbEntity
  8
RACCORDO
100
AcDbLine
 62
253
  6
CONTINUOUS
 10
-68.824470034
 20
41.8365257889
 11
-68.8220854009
 21
42.1000281152
  0
LINE
  5
5BA
100
AcDbEntity
  8
RACCORDO
100
AcDbLine
 62
253
  6
CONTINUOUS
 10
-68.5549028234
 20
41.934073422
 11
-68.5516304911
 21
42.2017085132
  0
LINE
  5
5BB
100
AcDbEntity
  8
RACCORDO
100
AcDbLine
 62
253
  6
CONTINUOUS
 10
-68.8285459416
 20
41.5736369487
 11
-68.824470034
 21
41.8365257889
  0
LINE
  5
5BC
100
AcDbEntity
  8
RACCORDO
100
AcDbLine
 62
253
  6
CONTINUOUS
 10
-68.5597157252
 20
41.6674581738
 11
-68.5549028234
 21
41.934073422
  0
LINE
  5
5BD
100
AcDbEntity
  8
DRAFT
100
AcDbLine
 62
7
  6
CONTINUOUS
 10
-66.5525081103
 20
42.0483270847
 11
-66.5592618698
 21
41.7270211223
  0
LINE
  5
5BE
100
AcDbEntity
  8
RACCORDO
100
AcDbLine
 62
253
  6
CONTINUOUS
 10
-68.8371920413
 20
41.1826640892
 11
-68.8285459416
 21
41.5736369487
  0
LINE
  5
5BF
100
AcDbEntity
  8
RACCORDO
100
AcDbLine
 62
253
  6
CONTINUOUS
 10
-66.3876402986
 20
41.6024345406
 11
-66.393481674
 21
41.3418423309
  0
LINE
  5
5C0
100
AcDbEntity
  8
RACCORDO
100
AcDbLine
 62
253
  6
CONTINUOUS
 10
-68.5691297463
 20
41.2719428594
 11
-68.5597157252
 21
41.6674581738
  0
LINE
  5
5C1
100
AcDbEntity
  8
DRAFT
100
AcDbLine
 62
7
  6
CONTINUOUS
 10
-66.5592618698
 20
41.7270211223
 11
-66.568310559
 21
41.386315113
  0
LINE
  5
5C2
100
AcDbEntity
  8
RACCORDO
100
AcDbLine
 62
253
  6
CONTINUOUS
 10
-66.2776609777
 20
41.3150870237
 11
-66.2858639087
 21
41.0005446833
  0
LINE
  5
5C3
100
AcDbEntity
  8
RACCORDO
100
AcDbLine
 62
253
  6
CONTINUOUS
 10
-66.393481674
 20
41.3418423309
 11
-66.4021604757
 21
41.0236793482
  0
LINE
  5
5C4
100
AcDbEntity
  8
RACCORDO
100
AcDbLine
 62
253
  6
CONTINUOUS
 10
-68.8478988711
 20
40.8017636161
 11
-68.8371920413
 21
41.1826640892
  0
LINE
  5
5C5
100
AcDbEntity
  8
RACCORDO
100
AcDbLine
 62
253
  6
CONTINUOUS
 10
-68.580266394
 20
40.8908255503
 11
-68.5691297463
 21
41.2719428594
  0
LWPOLYLINE
  5
5C6
100
AcDbEntity
  8
DRAFT
100
AcDbPolyline
 62
7
  6
CONTINUOUS
 90
15
 70
0
 10
-67.7408537294
 20
18.8710400492
 10
-67.8439803967
 20
15.7285414462
 10
-67.9299245246
 20
12.5839614042
 10
-67.998702123
 20
9.4369624267
 10
-68.0502946936
 20
6.2881318002
 10
-68.084678371
 20
3.1389821451
 10
-68.1018630319
 20
-0.0099002463
 10
-68.1018630978
 20
-3.1588495615
 10
-68.0846785606
 20
-6.3077333875
 10
-68.0502949663
 20
-9.4568864873
 10
-67.9987024093
 20
-12.6057219918
 10
-67.9299247767
 20
-15.7527255525
 10
-67.8439805924
 20
-18.8973093067
 10
-67.7408538392
 20
-22.0398113265
 10
-67.6205335288
 20
-25.1801071993
  0
LINE
  5
5C7
100
AcDbEntity
  8
RACCORDO
100
AcDbLine
 62
253
  6
CONTINUOUS
 10
-66.2858639087
 20
41.0005446833
 11
-66.2983321468
 21
40.5994484144
  0
LINE
  5
5C8
100
AcDbEntity
  8
RACCORDO
100
AcDbLine
 62
253
  6
CONTINUOUS
 10
-66.4021604757
 20
41.0236793482
 11
-66.4152326687
 21
40.6156314263
  0
LWPOLYLINE
  5
5C9
100
AcDbEntity
  8
0
100
AcDbPolyline
 62
7
  6
CONTINUOUS
 90
9
 70
0
 10
-67.0988630708
 20
19.2897446436
 10
-67.1877930207
 20
16.684879512
 10
-67.2648796377
 20
14.0782889085
 10
-67.3301153219
 20
11.470260012
 10
-67.38349638
 20
8.8609817165
 10
-67.4250197717
 20
6.2506443949
 10
-67.4546830733
 20
3.639437093
 10
-67.4724833685
 20
1.0276472375
 10
-67.4784174622
 20
-1.5843871993
  0
LINE
  5
5CA
100
AcDbEntity
  8
DRAFT
100
AcDbLine
 62
7
  6
CONTINUOUS
 10
-66.568310559
 20
41.386315113
 11
-66.5861043856
 21
40.8382280041
  0
LINE
  5
5CB
100
AcDbEntity
  8
0
100
AcDbLine
 62
7
  6
CONTINUOUS
 10
-66.0367464794
 20
39.9878263118
 11
-66.0507478404
 21
39.5581112429
  0
LINE
  5
5CC
100
AcDbEntity
  8
RACCORDO
100
AcDbLine
 62
253
  6
CONTINUOUS
 10
-68.8638380368
 20
40.324830046
 11
-68.8478988711
 21
40.8017636161
  0
LINE
  5
5CD
100
AcDbEntity
  8
RACCORDO
100
AcDbLine
 62
253
  6
CONTINUOUS
 10
-68.5964180353
 20
40.4156054838
 11
-68.580266394
 21
40.8908255503
  0
LWPOLYLINE
  5
5CE
100
AcDbEntity
  8
RACCORDO
100
AcDbPolyline
 62
253
  6
CONTINUOUS
 90
18
 70
0
 10
-67.4780899052
 20
20.8716012116
 10
-67.5226543103
 20
19.7016139558
 10
-67.5662730949
 20
18.4900528549
 10
-67.6086019351
 20
17.2394404912
 10
-67.6494650728
 20
15.9472308091
 10
-67.6887981798
 20
14.6058010408
 10
-67.7266965349
 20
13.198102727
 10
-67.7622812713
 20
11.7411629574
 10
-67.7942855499
 20
10.278510505
 10
-67.8227196033
 20
8.8073397556
 10
-67.8474760825
 20
7.3305287168
 10
-67.8678387815
 20
5.9002028155
 10
-67.883976778
 20
4.53328798
 10
-67.896483476
 20
3.2129919131
 10
-67.9056709441
 20
1.9408834278
 10
-67.9118568515
 20
0.7175129443
 10
-67.9153528948
 20
-0.4575872615
 10
-67.9164544391
 20
-1.5843871993
  0
LWPOLYLINE
  5
5CF
100
AcDbEntity
  8
RACCORDO
100
AcDbPolyline
 62
253
  6
CONTINUOUS
 90
18
 70
0
 10
-67.3582191391
 20
20.860007089
 10
-67.4027573403
 20
19.6906786216
 10
-67.4463502227
 20
18.4798271227
 10
-67.4886549002
 20
17.2299164328
 10
-67.5294952904
 20
15.9383971925
 10
-67.5688056847
 20
14.5976984782
 10
-67.6066822215
 20
13.1907793714
 10
-67.6422480437
 20
11.7346062524
 10
-67.6742364887
 20
10.2726704466
 10
-67.7026563409
 20
8.8022007369
 10
-67.7274001452
 20
7.326119689
 10
-67.7477527377
 20
5.8965277906
 10
-67.7638832975
 20
4.5302867349
 10
-67.7763839228
 20
3.2106104522
 10
-67.7855661456
 20
1.9391344271
 10
-67.7917481301
 20
0.7164090395
 10
-67.7952422251
 20
-0.4581010516
 10
-67.7963441531
 20
-1.5843871993
  0
LINE
  5
5D0
100
AcDbEntity
  8
RACCORDO
100
AcDbLine
 62
253
  6
CONTINUOUS
 10
-66.2983321468
 20
40.5994484144
 11
-66.3162482606
 21
40.1022553257
  0
LINE
  5
5D1
100
AcDbEntity
  8
RACCORDO
100
AcDbLine
 62
253
  6
CONTINUOUS
 10
-66.4152326687
 20
40.6156314263
 11
-66.4338972533
 21
40.1099775473
  0
LINE
  5
5D2
100
AcDbEntity
  8
0
100
AcDbLine
 62
7
  6
CONTINUOUS
 10
-66.0507478404
 20
39.5581112429
 11
-66.069004307
 21
39.0658469194
  0
LINE
  5
5D3
100
AcDbEntity
  8
RACCORDO
100
AcDbLine
 62
253
  6
CONTINUOUS
 10
-68.8846341007
 20
39.7815580165
 11
-68.8638380368
 21
40.324830046
  0
LINE
  5
5D4
100
AcDbEntity
  8
DRAFT
100
AcDbLine
 62
7
  6
CONTINUOUS
 10
-66.5861043856
 20
40.8382280041
 11
-66.6090266828
 21
40.2402955516
  0
LINE
  5
5D5
100
AcDbEntity
  8
RACCORDO
100
AcDbLine
 62
253
  6
CONTINUOUS
 10
-68.6214141462
 20
39.7721070333
 11
-68.5964180353
 21
40.4156054838
  0
LINE
  5
5D6
100
AcDbEntity
  8
RACCORDO
100
AcDbLine
 62
253
  6
CONTINUOUS
 10
-69.706746296
 20
18.8587726748
 11
-69.5817335548
 21
22.1308383588
  0
LINE
  5
5D7
100
AcDbEntity
  8
0
100
AcDbLine
 62
7
  6
CONTINUOUS
 10
-66.979639819
 20
22.3367027285
 11
-67.0988630708
 21
19.2897446436
  0
LINE
  5
5D8
100
AcDbEntity
  8
DRAFT
100
AcDbLine
 62
7
  6
CONTINUOUS
 10
-67.6016891903
 20
22.4621684824
 11
-67.7408537294
 21
18.8710400492
  0
LINE
  5
5D9
100
AcDbEntity
  8
RACCORDO
100
AcDbLine
 62
253
  6
CONTINUOUS
 10
-66.3162482606
 20
40.1022553257
 11
-66.3397417174
 21
39.5248924866
  0
LINE
  5
5DA
100
AcDbEntity
  8
RACCORDO
100
AcDbLine
 62
253
  6
CONTINUOUS
 10
-69.5817335548
 20
22.1308383588
 11
-69.5447673973
 21
23.0014590534
  0
LINE
  5
5DB
100
AcDbEntity
  8
RACCORDO
100
AcDbLine
 62
253
  6
CONTINUOUS
 10
-67.394820881
 20
22.8934114487
 11
-67.4780899052
 21
20.8716012116
  0
LINE
  5
5DC
100
AcDbEntity
  8
RACCORDO
100
AcDbLine
 62
253
  6
CONTINUOUS
 10
-67.2750371319
 20
22.8800842478
 11
-67.3582191391
 21
20.860007089
  0
LINE
  5
5DD
100
AcDbEntity
  8
0
100
AcDbLine
 62
7
  6
CONTINUOUS
 10
-66.069004307
 20
39.0658469194
 11
-66.0964410131
 21
38.4052053675
  0
LINE
  5
5DE
100
AcDbEntity
  8
RACCORDO
100
AcDbLine
 62
253
  6
CONTINUOUS
 10
-66.4338972533
 20
40.1099775473
 11
-66.4631335741
 21
39.4106703292
  0
LINE
  5
5DF
100
AcDbEntity
  8
DRAFT
100
AcDbLine
 62
7
  6
CONTINUOUS
 10
-66.6090266828
 20
40.2402955516
 11
-66.6367133753
 21
39.5976284126
  0
LINE
  5
5E0
100
AcDbEntity
  8
RACCORDO
100
AcDbLine
 62
253
  6
CONTINUOUS
 10
-68.6550881989
 20
38.9990991826
 11
-68.6214141462
 21
39.7721070333
  0
LWPOLYLINE
  5
5E1
100
AcDbEntity
  8
RACCORDO
100
AcDbPolyline
 62
253
  6
CONTINUOUS
 90
3
 70
0
 10
-68.9225065243
 20
38.9100871582
 10
-68.9182558465
 20
39.0028457909
 10
-68.8846341007
 20
39.7815580165
  0
LINE
  5
5E2
100
AcDbEntity
  8
RACCORDO
100
AcDbLine
 62
253
  6
CONTINUOUS
 10
-69.5447673973
 20
23.0014590534
 11
-69.5053672459
 21
23.8718726893
  0
LINE
  5
5E3
100
AcDbEntity
  8
0
100
AcDbLine
 62
7
  6
CONTINUOUS
 10
-66.9204077621
 20
23.6690084537
 11
-66.979639819
 21
22.3367027285
  0
LINE
  5
5E4
100
AcDbEntity
  8
DRAFT
100
AcDbLine
 62
7
  6
CONTINUOUS
 10
-67.541205754
 20
23.8143451932
 11
-67.6016891903
 21
22.4621684824
  0
LINE
  5
5E5
100
AcDbEntity
  8
RACCORDO
100
AcDbLine
 62
253
  6
CONTINUOUS
 10
-66.3397417174
 20
39.5248924866
 11
-66.3722072952
 21
38.8051496322
  0
LINE
  5
5E6
100
AcDbEntity
  8
RACCORDO
100
AcDbLine
 62
253
  6
CONTINUOUS
 10
-67.3329376499
 20
24.2333263958
 11
-67.394820881
 21
22.8934114487
  0
LINE
  5
5E7
100
AcDbEntity
  8
RACCORDO
100
AcDbLine
 62
253
  6
CONTINUOUS
 10
-67.2132502405
 20
24.2183340811
 11
-67.2750371319
 21
22.8800842478
  0
LINE
  5
5E8
100
AcDbEntity
  8
0
100
AcDbLine
 62
7
  6
CONTINUOUS
 10
-66.0964410131
 20
38.4052053675
 11
-66.1367793845
 21
37.5291972483
  0
LWPOLYLINE
  5
5E9
100
AcDbEntity
  8
RACCORDO
100
AcDbPolyline
 62
253
  6
CONTINUOUS
 90
3
 70
0
 10
-69.5053672459
 20
23.8718726893
 10
-69.4635335132
 20
24.7420635443
 10
-69.4417042822
 20
25.177068885
  0
LINE
  5
5EA
100
AcDbEntity
  8
RACCORDO
100
AcDbLine
 62
253
  6
CONTINUOUS
 10
-66.4631335741
 20
39.4106703292
 11
-66.5034236604
 21
38.5488512751
  0
LINE
  5
5EB
100
AcDbEntity
  8
DRAFT
100
AcDbLine
 62
7
  6
CONTINUOUS
 10
-66.6367133753
 20
39.5976284126
 11
-66.6779186082
 21
38.7301982398
  0
LINE
  5
5EC
100
AcDbEntity
  8
RACCORDO
100
AcDbLine
 62
253
  6
CONTINUOUS
 10
-68.709020189
 20
37.8798060718
 11
-68.6550881989
 21
38.9990991826
  0
LINE
  5
5ED
100
AcDbEntity
  8
0
100
AcDbLine
 62
7
  6
CONTINUOUS
 10
-66.8554006244
 20
25.0009581984
 11
-66.9204077621
 21
23.6690084537
  0
LINE
  5
5EE
100
AcDbEntity
  8
DRAFT
100
AcDbLine
 62
7
  6
CONTINUOUS
 10
-67.4747971802
 20
25.16599039
 11
-67.541205754
 21
23.8143451932
  0
LINE
  5
5EF
100
AcDbEntity
  8
RACCORDO
100
AcDbLine
 62
253
  6
CONTINUOUS
 10
-66.3722072952
 20
38.8051496322
 11
-66.4163030217
 21
37.90910618
  0
LINE
  5
5F0
100
AcDbEntity
  8
0
100
AcDbLine
 62
7
  6
CONTINUOUS
 10
-66.1367793845
 20
37.5291972483
 11
-66.1822424862
 21
36.6187219853
  0
LINE
  5
5F1
100
AcDbEntity
  8
RACCORDO
100
AcDbLine
 62
253
  6
CONTINUOUS
 10
-67.2652252576
 20
25.5727635105
 11
-67.3329376499
 21
24.2333263958
  0
LINE
  5
5F2
100
AcDbEntity
  8
RACCORDO
100
AcDbLine
 62
253
  6
CONTINUOUS
 10
-67.1456464914
 20
25.5561206118
 11
-67.2132502405
 21
24.2183340811
  0
LINE
  5
5F3
100
AcDbEntity
  8
RACCORDO
100
AcDbLine
 62
253
  6
CONTINUOUS
 10
-66.5034236604
 20
38.5488512751
 11
-66.5504640254
 21
37.6221321739
  0
LINE
  5
5F4
100
AcDbEntity
  8
RACCORDO
100
AcDbLine
 62
253
  6
CONTINUOUS
 10
-68.7497370315
 20
37.0910733025
 11
-68.709020189
 21
37.8798060718
  0
LINE
  5
5F5
100
AcDbEntity
  8
DRAFT
100
AcDbLine
 62
7
  6
CONTINUOUS
 10
-66.6779186082
 20
38.7301982398
 11
-66.731621418
 21
37.6898386277
  0
LINE
  5
5F6
100
AcDbEntity
  8
RACCORDO
100
AcDbLine
 62
253
  6
CONTINUOUS
 10
-66.4163030217
 20
37.90910618
 11
-66.4700533889
 21
36.8923765321
  0
LINE
  5
5F7
100
AcDbEntity
  8
0
100
AcDbLine
 62
7
  6
CONTINUOUS
 10
-66.1822424862
 20
36.6187219853
 11
-66.2399946722
 21
35.5333134406
  0
LINE
  5
5F8
100
AcDbEntity
  8
DRAFT
100
AcDbLine
 62
7
  6
CONTINUOUS
 10
-67.4027848634
 20
26.5128073196
 11
-67.4747971802
 21
25.16599039
  0
LINE
  5
5F9
100
AcDbEntity
  8
0
100
AcDbLine
 62
7
  6
CONTINUOUS
 10
-66.7596066626
 20
26.7871391609
 11
-66.8554006244
 21
25.0009581984
  0
LINE
  5
5FA
100
AcDbEntity
  8
RACCORDO
100
AcDbLine
 62
253
  6
CONTINUOUS
 10
-66.5504640254
 20
37.6221321739
 11
-66.6123174344
 21
36.4821490165
  0
LINE
  5
5FB
100
AcDbEntity
  8
DRAFT
100
AcDbLine
 62
7
  6
CONTINUOUS
 10
-66.731621418
 20
37.6898386277
 11
-66.794946965
 21
36.5400392359
  0
LINE
  5
5FC
100
AcDbEntity
  8
RACCORDO
100
AcDbLine
 62
253
  6
CONTINUOUS
 10
-67.1671794043
 20
27.3482677872
 11
-67.2652252576
 21
25.5727635105
  0
LINE
  5
5FD
100
AcDbEntity
  8
RACCORDO
100
AcDbLine
 62
253
  6
CONTINUOUS
 10
-67.047808845
 20
27.328580196
 11
-67.1456464914
 21
25.5561206118
  0
LINE
  5
5FE
100
AcDbEntity
  8
RACCORDO
100
AcDbLine
 62
253
  6
CONTINUOUS
 10
-66.4700533889
 20
36.8923765321
 11
-66.5360520247
 21
35.7131553043
  0
LINE
  5
5FF
100
AcDbEntity
  8
0
100
AcDbLine
 62
7
  6
CONTINUOUS
 10
-66.2399946722
 20
35.5333134406
 11
-66.3148549291
 21
34.2000305893
  0
LINE
  5
600
100
AcDbEntity
  8
RACCORDO
100
AcDbLine
 62
253
  6
CONTINUOUS
 10
-66.6123174344
 20
36.4821490165
 11
-66.6860469283
 21
35.1940214222
  0
LINE
  5
601
100
AcDbEntity
  8
DRAFT
100
AcDbLine
 62
7
  6
CONTINUOUS
 10
-66.794946965
 20
36.5400392359
 11
-66.8735131705
 21
35.1832222366
  0
LINE
  5
602
100
AcDbEntity
  8
DRAFT
100
AcDbLine
 62
7
  6
CONTINUOUS
 10
-67.3003861483
 20
28.2932161798
 11
-67.4027848634
 21
26.5128073196
  0
LINE
  5
603
100
AcDbEntity
  8
RACCORDO
100
AcDbLine
 62
253
  6
CONTINUOUS
 10
-66.5360520247
 20
35.7131553043
 11
-66.6187391056
 21
34.3020481455
  0
LINE
  5
604
100
AcDbEntity
  8
0
100
AcDbLine
 62
7
  6
CONTINUOUS
 10
-66.6596346175
 20
28.5111489858
 11
-66.7596066626
 21
26.7871391609
  0
LINE
  5
605
100
AcDbEntity
  8
0
100
AcDbLine
 62
7
  6
CONTINUOUS
 10
-66.3148549291
 20
34.2000305893
 11
-66.4140972527
 21
32.5099004837
  0
LINE
  5
606
100
AcDbEntity
  8
RACCORDO
100
AcDbLine
 62
253
  6
CONTINUOUS
 10
-66.6860469283
 20
35.1940214222
 11
-66.7793118456
 21
33.632185816
  0
LINE
  5
607
100
AcDbEntity
  8
RACCORDO
100
AcDbLine
 62
253
  6
CONTINUOUS
 10
-67.0619102789
 20
29.1152301774
 11
-67.1671794043
 21
27.3482677872
  0
LINE
  5
608
100
AcDbEntity
  8
RACCORDO
100
AcDbLine
 62
253
  6
CONTINUOUS
 10
-66.9427850729
 20
29.092254689
 11
-67.047808845
 21
27.328580196
  0
LINE
  5
609
100
AcDbEntity
  8
DRAFT
100
AcDbLine
 62
7
  6
CONTINUOUS
 10
-66.8735131705
 20
35.1832222366
 11
-66.9752002605
 21
33.4973074535
  0
LINE
  5
60A
100
AcDbEntity
  8
0
100
AcDbLine
 62
7
  6
CONTINUOUS
 10
-66.4140972527
 20
32.5099004837
 11
-66.5170706693
 21
30.8162715499
  0
LINE
  5
60B
100
AcDbEntity
  8
RACCORDO
100
AcDbLine
 62
253
  6
CONTINUOUS
 10
-66.6187391056
 20
34.3020481455
 11
-66.7301178739
 21
32.4730374561
  0
LINE
  5
60C
100
AcDbEntity
  8
RACCORDO
100
AcDbLine
 62
253
  6
CONTINUOUS
 10
-66.7793118456
 20
33.632185816
 11
-66.8878598971
 21
31.8731787817
  0
LINE
  5
60D
100
AcDbEntity
  8
0
100
AcDbLine
 62
7
  6
CONTINUOUS
 10
-66.5170706693
 20
30.8162715499
 11
-66.6596346175
 21
28.5111489858
  0
LINE
  5
60E
100
AcDbEntity
  8
DRAFT
100
AcDbLine
 62
7
  6
CONTINUOUS
 10
-66.9752002605
 20
33.4973074535
 11
-67.1228835674
 21
31.1315648931
  0
LINE
  5
60F
100
AcDbEntity
  8
RACCORDO
100
AcDbLine
 62
253
  6
CONTINUOUS
 10
-66.8878598971
 20
31.8731787817
 11
-67.0619102789
 21
29.1152301774
  0
LINE
  5
610
100
AcDbEntity
  8
RACCORDO
100
AcDbLine
 62
253
  6
CONTINUOUS
 10
-66.7301178739
 20
32.4730374561
 11
-66.9427850729
 21
29.092254689
  0
LWPOLYLINE
  5
611
100
AcDbEntity
  8
DRAFT
100
AcDbPolyline
 62
7
  6
CONTINUOUS
 90
3
 70
0
 10
-67.1228835674
 20
31.1315648931
 10
-67.1809271939
 20
30.219738565
 10
-67.3003861483
 20
28.2932161798
  0
LWPOLYLINE
  5
612
100
AcDbEntity
  8
RACCORDO
100
AcDbPolyline
 62
253
  6
CONTINUOUS
 90
4
 70
0
 10
-71.3383730867
 20
-24.6523527909
 10
-71.3390956402
 20
-24.657633296
 10
-71.3413915889
 20
-24.6940631466
 10
-71.341022716
 20
-24.7305641813
  0
LWPOLYLINE
  5
613
100
AcDbEntity
  8
RACCORDO
100
AcDbPolyline
 62
253
  6
CONTINUOUS
 90
16
 70
0
 10
-64.5441329487
 20
1.9447550146
 10
-64.5387778572
 20
1.9467619922
 10
-64.5338422704
 20
1.9508092779
 10
-64.5293778432
 20
1.9568545207
 10
-64.5254313005
 20
1.9648344581
 10
-64.5220439458
 20
1.9746655824
 10
-64.51925123
 20
1.9862450173
 10
-64.5170823824
 20
1.9994515927
 10
-64.5155601063
 20
2.0141470945
 10
-64.5147003369
 20
2.0301777121
 10
-64.5145120732
 20
2.0473756748
 10
-64.5149972863
 20
2.0655609958
 10
-64.5161508977
 20
2.084543334
 10
-64.5179608319
 20
2.1041240176
 10
-64.520408146
 20
2.1240981269
 10
-64.5234672261
 20
2.144256619
  0
LWPOLYLINE
  5
614
100
AcDbEntity
  8
RACCORDO
100
AcDbPolyline
 62
253
  6
CONTINUOUS
 90
19
 70
0
 10
-64.5234677713
 20
2.1442565818
 10
-64.5555608227
 20
2.1372317292
 10
-64.5865021205
 20
2.1279640947
 10
-64.6162893253
 20
2.1164532768
 10
-64.6450683528
 20
2.1025737021
 10
-64.672688999
 20
2.0864502295
 10
-64.6987042189
 20
2.0684583559
 10
-64.7230761136
 20
2.0485699178
 10
-64.7458375092
 20
2.0268130382
 10
-64.7666466724
 20
2.0036480701
 10
-64.7854568325
 20
1.9790664388
 10
-64.8023101024
 20
1.9530772696
 10
-64.8169979249
 20
1.9261678178
 10
-64.8294821694
 20
1.8983557517
 10
-64.8397975406
 20
1.869624367
 10
-64.8478450225
 20
1.8404095796
 10
-64.8535910276
 20
1.8108571068
 10
-64.8570673789
 20
1.7808223952
 10
-64.8582736037
 20
1.7503060254
  0
LINE
  5
615
100
AcDbEntity
  8
RACCORDO
100
AcDbLine
 62
7
  6
CONTINUOUS
 10
-64.5441328447
 20
1.9447544251
 11
-62.8746735737
 21
2.2391251378
  0
LINE
  5
616
100
AcDbEntity
  8
RACCORDO
100
AcDbLine
 62
253
  6
CONTINUOUS
 10
-64.5234677713
 20
2.1442565818
 11
-62.8948393706
 21
2.4276675438
  0
LINE
  5
617
100
AcDbEntity
  8
RACCORDO
100
AcDbLine
 62
253
  6
CONTINUOUS
 10
-62.894839215
 20
2.4276674475
 11
-62.8125658064
 21
2.4320514876
  0
LINE
  5
618
100
AcDbEntity
  8
RACCORDO
100
AcDbLine
 62
253
  6
CONTINUOUS
 10
-62.8125658064
 20
2.4320514876
 11
-62.7675547703
 21
2.4342589543
  0
LINE
  5
619
100
AcDbEntity
  8
RACCORDO
100
AcDbLine
 62
253
  6
CONTINUOUS
 10
-62.7675547703
 20
2.4342589543
 11
-62.7458098454
 21
2.4352304369
  0
LINE
  5
61A
100
AcDbEntity
  8
RACCORDO
100
AcDbLine
 62
253
  6
CONTINUOUS
 10
-62.7458098454
 20
2.4352304369
 11
-62.7339515177
 21
2.4357093521
  0
LWPOLYLINE
  5
61B
100
AcDbEntity
  8
RACCORDO
100
AcDbPolyline
 62
253
  6
CONTINUOUS
 90
9
 70
0
 10
-62.7339515177
 20
2.4357093521
 10
-62.724338615
 20
2.4360470499
 10
-62.7204011337
 20
2.4361618969
 10
-62.717054821
 20
2.43624026
 10
-62.7143070782
 20
2.4362827593
 10
-62.7121645107
 20
2.4362884122
 10
-62.7106314143
 20
2.4362571428
 10
-62.7097104293
 20
2.4361897791
 10
-62.7094032092
 20
2.4360866995
  0
LINE
  5
61C
100
AcDbEntity
  8
RACCORDO
100
AcDbLine
 62
253
  6
CONTINUOUS
 10
-64.8582967103
 20
1.7501038077
 11
-64.7987126304
 21
1.7497836964
  0
LINE
  5
61D
100
AcDbEntity
  8
RACCORDO
100
AcDbLine
 62
253
  6
CONTINUOUS
 10
-64.7987126304
 20
1.7497836964
 11
-64.7652036827
 21
1.7494491914
  0
LWPOLYLINE
  5
61E
100
AcDbEntity
  8
RACCORDO
100
AcDbPolyline
 62
253
  6
CONTINUOUS
 90
7
 70
0
 10
-64.7652036827
 20
1.7494491914
 10
-64.7385669116
 20
1.7490357613
 10
-64.7282367618
 20
1.7488054852
 10
-64.7200713679
 20
1.7485631103
 10
-64.7141682719
 20
1.7483115323
 10
-64.7105980051
 20
1.7480537577
 10
-64.7094032092
 20
1.7477928667
  0
LWPOLYLINE
  5
61F
100
AcDbEntity
  8
RACCORDO
100
AcDbPolyline
 62
253
  6
CONTINUOUS
 90
4
 70
0
 10
-71.3383727759
 20
21.4835979429
 10
-71.3390926768
 20
21.4888590676
 10
-71.3413885819
 20
21.5252887499
 10
-71.3410196525
 20
21.5617896408
  0
LINE
  5
620
100
AcDbEntity
  8
0
100
AcDbLine
 62
7
  6
CONTINUOUS
 10
-66.027344302
 20
42.1917198147
 11
-66.0237174475
 21
42.1150911244
  0
LWPOLYLINE
  5
621
100
AcDbEntity
  8
RACCORDO
100
AcDbPolyline
 62
253
  6
CONTINUOUS
 90
19
 70
0
 10
-64.8582780673
 20
-4.9190420234
 10
-64.8570837939
 20
-4.9495164132
 10
-64.8536139995
 20
-4.9795292134
 10
-64.8478691539
 20
-5.0090798416
 10
-64.8398134934
 20
-5.0383252586
 10
-64.8294845441
 20
-5.0671073326
 10
-64.8169931397
 20
-5.0949529192
 10
-64.8023122285
 20
-5.121858347
 10
-64.7854722824
 20
-5.1478263331
 10
-64.7666707121
 20
-5.1723935353
 10
-64.7458597368
 20
-5.1955616494
 10
-64.7230918054
 20
-5.2173284222
 10
-64.6987145268
 20
-5.2372249357
 10
-64.6726978312
 20
-5.2552195859
 10
-64.6450768566
 20
-5.2713440195
 10
-64.6162962447
 20
-5.2852246232
 10
-64.5865054013
 20
-5.2967371651
 10
-64.5555592142
 20
-5.3060065909
 10
-64.5234600254
 20
-5.3130333017
  0
LINE
  5
622
100
AcDbEntity
  8
0
100
AcDbLine
 62
7
  6
CONTINUOUS
 10
-66.0237174475
 20
42.1150911244
 11
-66.0205520687
 21
42.0338772561
  0
LINE
  5
623
100
AcDbEntity
  8
0
100
AcDbLine
 62
7
  6
CONTINUOUS
 10
-66.0205520687
 20
42.0338772561
 11
-66.0178393211
 21
41.9483477758
  0
LINE
  5
624
100
AcDbEntity
  8
0
100
AcDbLine
 62
7
  6
CONTINUOUS
 10
-66.0310298406
 20
-43.3543267569
 11
-66.023681532
 21
-43.6421285005
  0
LINE
  5
625
100
AcDbEntity
  8
0
100
AcDbLine
 62
7
  6
CONTINUOUS
 10
-66.0178393211
 20
41.9483477758
 11
-66.0156044627
 21
41.8588513079
  0
LINE
  5
626
100
AcDbEntity
  8
0
100
AcDbLine
 62
7
  6
CONTINUOUS
 10
-66.023681532
 20
-43.6421285005
 11
-66.0180679368
 21
-43.9135022604
  0
LINE
  5
627
100
AcDbEntity
  8
0
100
AcDbLine
 62
7
  6
CONTINUOUS
 10
-66.0156044627
 20
41.8588513079
 11
-66.0138501614
 21
41.7662664542
  0
LINE
  5
628
100
AcDbEntity
  8
RACCORDO
100
AcDbLine
 62
253
  6
CONTINUOUS
 10
-66.2753560409
 20
-44.5862253564
 11
-66.2701413954
 21
-44.8607901124
  0
LINE
  5
629
100
AcDbEntity
  8
RACCORDO
100
AcDbLine
 62
253
  6
CONTINUOUS
 10
-66.3868506713
 20
-44.8113574776
 11
-66.3831732244
 21
-45.0263658492
  0
LINE
  5
62A
100
AcDbEntity
  8
0
100
AcDbLine
 62
7
  6
CONTINUOUS
 10
-66.0180679368
 20
-43.9135022604
 11
-66.014620549
 21
-44.1310113801
  0
LINE
  5
62B
100
AcDbEntity
  8
0
100
AcDbLine
 62
7
  6
CONTINUOUS
 10
-66.0138501614
 20
41.7662664542
 11
-66.0125541192
 21
41.670958277
  0
LINE
  5
62C
100
AcDbEntity
  8
RACCORDO
100
AcDbLine
 62
253
  6
CONTINUOUS
 10
-66.2701413954
 20
-44.8607901124
 11
-66.2671028642
 21
-45.0828399509
  0
LINE
  5
62D
100
AcDbEntity
  8
DRAFT
100
AcDbLine
 62
7
  6
CONTINUOUS
 10
-66.5509670692
 20
-45.3083599118
 11
-66.5474567774
 21
-45.5916116183
  0
LINE
  5
62E
100
AcDbEntity
  8
RACCORDO
100
AcDbLine
 62
253
  6
CONTINUOUS
 10
-66.3831732244
 20
-45.0263658492
 11
-66.3804532502
 21
-45.2524092053
  0
LINE
  5
62F
100
AcDbEntity
  8
RACCORDO
100
AcDbLine
 62
253
  6
CONTINUOUS
 10
-66.2678561644
 20
42.6085384993
 11
-66.2658518924
 21
42.4447837418
  0
LINE
  5
630
100
AcDbEntity
  8
RACCORDO
100
AcDbLine
 62
253
  6
CONTINUOUS
 10
-66.3818416816
 20
42.706142253
 11
-66.3798595688
 21
42.5415136128
  0
LINE
  5
631
100
AcDbEntity
  8
0
100
AcDbLine
 62
7
  6
CONTINUOUS
 10
-66.014620549
 20
-44.1310113801
 11
-66.0126509566
 21
-44.3046277923
  0
LINE
  5
632
100
AcDbEntity
  8
RACCORDO
100
AcDbLine
 62
253
  6
CONTINUOUS
 10
-66.2671028642
 20
-45.0828399509
 11
-66.265764443
 21
-45.2345121964
  0
LINE
  5
633
100
AcDbEntity
  8
0
100
AcDbLine
 62
7
  6
CONTINUOUS
 10
-66.0125541192
 20
41.670958277
 11
-66.0117252724
 21
41.5743299986
  0
LINE
  5
634
100
AcDbEntity
  8
RACCORDO
100
AcDbLine
 62
253
  6
CONTINUOUS
 10
-66.3804532502
 20
-45.2524092053
 11
-66.3794184802
 21
-45.406095035
  0
LINE
  5
635
100
AcDbEntity
  8
0
100
AcDbLine
 62
7
  6
CONTINUOUS
 10
-66.0126509566
 20
-44.3046277923
 11
-66.0114812987
 21
-44.4810809886
  0
LINE
  5
636
100
AcDbEntity
  8
RACCORDO
100
AcDbLine
 62
253
  6
CONTINUOUS
 10
-66.265764443
 20
-45.2345121964
 11
-66.2651439911
 21
-45.3881303302
  0
LINE
  5
637
100
AcDbEntity
  8
RACCORDO
100
AcDbLine
 62
253
  6
CONTINUOUS
 10
-66.2658518924
 20
42.4447837418
 11
-66.2651284338
 21
42.2782844275
  0
LWPOLYLINE
  5
638
100
AcDbEntity
  8
DRAFT
100
AcDbPolyline
 62
7
  6
CONTINUOUS
 90
16
 70
0
 10
-66.5474567774
 20
-45.5916116183
 10
-66.5462759168
 20
-45.8542776677
 10
-66.5465718852
 20
-45.9778180777
 10
-66.5474714528
 20
-46.0959395672
 10
-66.5489803018
 20
-46.2086285983
 10
-66.5510994443
 20
-46.3159002736
 10
-66.5538346437
 20
-46.4175756954
 10
-66.5571913546
 20
-46.5136578278
 10
-66.5611701316
 20
-46.6041451134
 10
-66.5657704832
 20
-46.6888518642
 10
-66.5709983557
 20
-46.7677526696
 10
-66.5768535537
 20
-46.8408741614
 10
-66.5833275311
 20
-46.9081086866
 10
-66.5904194972
 20
-46.9694206944
 10
-66.5981355325
 20
-47.0248467242
 10
-66.6064776368
 20
-47.0743872033
  0
LINE
  5
639
100
AcDbEntity
  8
RACCORDO
100
AcDbLine
 62
253
  6
CONTINUOUS
 10
-66.3798595688
 20
42.5415136128
 11
-66.3791641174
 21
42.3739697522
  0
LINE
  5
63A
100
AcDbEntity
  8
0
100
AcDbLine
 62
7
  6
CONTINUOUS
 10
-66.0117252724
 20
41.5743299986
 11
-66.0112629177
 21
41.4295185675
  0
LINE
  5
63B
100
AcDbEntity
  8
RACCORDO
100
AcDbLine
 62
253
  6
CONTINUOUS
 10
-66.3794184802
 20
-45.406095035
 11
-66.3791828588
 21
-45.5611178082
  0
LINE
  5
63C
100
AcDbEntity
  8
RACCORDO
100
AcDbLine
 62
7
  6
CONTINUOUS
 10
-64.7094032092
 20
-4.9165672731
 11
-64.7094032092
 21
1.7477928745
  0
LINE
  5
63D
100
AcDbEntity
  8
0
100
AcDbLine
 62
7
  6
CONTINUOUS
 10
-66.0114812987
 20
-44.4810809886
 11
-66.0112724011
 21
-44.6168112873
  0
LINE
  5
63E
100
AcDbEntity
  8
RACCORDO
100
AcDbLine
 62
253
  6
CONTINUOUS
 10
-64.8582780673
 20
-4.9190420234
 11
-64.8582736037
 21
1.7503060254
  0
LINE
  5
63F
100
AcDbEntity
  8
RACCORDO
100
AcDbLine
 62
253
  6
CONTINUOUS
 10
-66.2651439911
 20
-45.3881303302
 11
-66.2653994837
 21
-45.543257409
  0
LINE
  5
640
100
AcDbEntity
  8
RACCORDO
100
AcDbLine
 62
253
  6
CONTINUOUS
 10
-66.2651284338
 20
42.2782844275
 11
-66.2654839003
 21
42.1139768368
  0
LINE
  5
641
100
AcDbEntity
  8
RACCORDO
100
AcDbLine
 62
253
  6
CONTINUOUS
 10
-66.3791641174
 20
42.3739697522
 11
-66.379554207
 21
42.2087200077
  0
LINE
  5
642
100
AcDbEntity
  8
0
100
AcDbLine
 62
7
  6
CONTINUOUS
 10
-66.0112629177
 20
41.4295185675
 11
-66.0115833368
 21
41.2881821152
  0
LINE
  5
643
100
AcDbEntity
  8
0
100
AcDbLine
 62
7
  6
CONTINUOUS
 10
-66.0112724011
 20
-44.6168112873
 11
-66.011806431
 21
-44.7552452337
  0
LINE
  5
644
100
AcDbEntity
  8
RACCORDO
100
AcDbLine
 62
253
  6
CONTINUOUS
 10
-66.3791828588
 20
-45.5611178082
 11
-66.3799312033
 21
-45.7191831867
  0
LINE
  5
645
100
AcDbEntity
  8
DRAFT
100
AcDbLine
 62
7
  6
CONTINUOUS
 10
-66.5463402751
 20
42.6267361717
 11
-66.5481764379
 21
42.348578113
  0
LINE
  5
646
100
AcDbEntity
  8
RACCORDO
100
AcDbLine
 62
253
  6
CONTINUOUS
 10
-66.2654839003
 20
42.1139768368
 11
-66.2666828417
 21
41.9544772913
  0
LINE
  5
647
100
AcDbEntity
  8
RACCORDO
100
AcDbLine
 62
253
  6
CONTINUOUS
 10
-66.379554207
 20
42.2087200077
 11
-66.3807905427
 21
42.0482990115
  0
LINE
  5
648
100
AcDbEntity
  8
0
100
AcDbLine
 62
7
  6
CONTINUOUS
 10
-66.0115833368
 20
41.2881821152
 11
-66.0129359044
 21
41.1058620757
  0
LINE
  5
649
100
AcDbEntity
  8
0
100
AcDbLine
 62
7
  6
CONTINUOUS
 10
-66.011806431
 20
-44.7552452337
 11
-66.0126431419
 21
-44.84775808
  0
LWPOLYLINE
  5
64A
100
AcDbEntity
  8
RACCORDO
100
AcDbPolyline
 62
253
  6
CONTINUOUS
 90
24
 70
0
 10
-66.2653994837
 20
-45.543257409
 10
-66.266755489
 20
-45.7018266758
 10
-66.2678938811
 20
-45.7795529954
 10
-66.2693641631
 20
-45.855920354
 10
-66.2711688883
 20
-45.9303208097
 10
-66.2732200721
 20
-45.9997982789
 10
-66.2754498386
 20
-46.063560935
 10
-66.2778568065
 20
-46.1227311127
 10
-66.280413391
 20
-46.177493575
 10
-66.2830822044
 20
-46.2279024668
 10
-66.2858399285
 20
-46.2742593244
 10
-66.2886857362
 20
-46.31709701
 10
-66.2915981407
 20
-46.3565954115
 10
-66.2945522634
 20
-46.3929148155
 10
-66.2975520591
 20
-46.4265029572
 10
-66.3005805946
 20
-46.457506937
 10
-66.3036182758
 20
-46.486054408
 10
-66.3066731515
 20
-46.5125031843
 10
-66.3097314171
 20
-46.5369608509
 10
-66.3127788269
 20
-46.5595296369
 10
-66.3158299263
 20
-46.5805058265
 10
-66.3188841637
 20
-46.6000284633
 10
-66.3219222945
 20
-46.6181060108
 10
-66.3249342933
 20
-46.634812962
  0
LWPOLYLINE
  5
64B
100
AcDbEntity
  8
RACCORDO
100
AcDbPolyline
 62
253
  6
CONTINUOUS
 90
23
 70
0
 10
-66.3799312033
 20
-45.7191831867
 10
-66.3818791514
 20
-45.8771693903
 10
-66.3833426815
 20
-45.9540306056
 10
-66.3851437257
 20
-46.0289011273
 10
-66.3871898421
 20
-46.0986938537
 10
-66.3894168937
 20
-46.1627861889
 10
-66.3918274381
 20
-46.2223594068
 10
-66.3943870352
 20
-46.2774215371
 10
-66.3970585155
 20
-46.3280832206
 10
-66.3998234581
 20
-46.374743286
 10
-66.402676628
 20
-46.4178331814
 10
-66.4055963423
 20
-46.4575436986
 10
-66.4085603274
 20
-46.4940882863
 10
-66.4115692795
 20
-46.5278693846
 10
-66.4146073573
 20
-46.5590443978
 10
-66.4176569745
 20
-46.5877653022
 10
-66.4207227818
 20
-46.6143654746
 10
-66.423792045
 20
-46.6389597105
 10
-66.4268526633
 20
-46.6616645131
 10
-66.4299160222
 20
-46.6827617012
 10
-66.4329811105
 20
-46.7023900315
 10
-66.4360317806
 20
-46.7205711747
 10
-66.4390596062
 20
-46.7373842538
  0
LINE
  5
64C
100
AcDbEntity
  8
RACCORDO
100
AcDbLine
 62
253
  6
CONTINUOUS
 10
-66.2666828417
 20
41.9544772913
 11
-66.2696201373
 21
41.7247906698
  0
LINE
  5
64D
100
AcDbEntity
  8
RACCORDO
100
AcDbLine
 62
253
  6
CONTINUOUS
 10
-66.3807905427
 20
42.0482990115
 11
-66.3837876633
 21
41.8173037948
  0
LINE
  5
64E
100
AcDbEntity
  8
0
100
AcDbLine
 62
7
  6
CONTINUOUS
 10
-66.0129359044
 20
41.1058620757
 11
-66.0157385972
 21
40.8844091028
  0
LINE
  5
64F
100
AcDbEntity
  8
0
100
AcDbLine
 62
7
  6
CONTINUOUS
 10
-66.0126431419
 20
-44.84775808
 11
-66.0139233587
 21
-44.939619174
  0
LINE
  5
650
100
AcDbEntity
  8
DRAFT
100
AcDbLine
 62
7
  6
CONTINUOUS
 10
-66.5481764379
 20
42.348578113
 11
-66.5525081103
 21
42.0483270847
  0
LINE
  5
651
100
AcDbEntity
  8
0
100
AcDbLine
 62
7
  6
CONTINUOUS
 10
-66.0157385972
 20
40.8844091028
 11
-66.0195952888
 21
40.6637973036
  0
LINE
  5
652
100
AcDbEntity
  8
RACCORDO
100
AcDbLine
 62
253
  6
CONTINUOUS
 10
-66.3837876633
 20
41.8173037948
 11
-66.3876402986
 21
41.6024345406
  0
LINE
  5
653
100
AcDbEntity
  8
RACCORDO
100
AcDbLine
 62
253
  6
CONTINUOUS
 10
-66.2696201373
 20
41.7247906698
 11
-66.2747931826
 21
41.443774565
  0
LINE
  5
654
100
AcDbEntity
  8
0
100
AcDbLine
 62
7
  6
CONTINUOUS
 10
-66.0139233587
 20
-44.939619174
 11
-66.0156547041
 21
-45.0299013795
  0
LINE
  5
655
100
AcDbEntity
  8
RACCORDO
100
AcDbLine
 62
253
  6
CONTINUOUS
 10
-66.2747931826
 20
41.443774565
 11
-66.2776609777
 21
41.3150870237
  0
LINE
  5
656
100
AcDbEntity
  8
0
100
AcDbLine
 62
7
  6
CONTINUOUS
 10
-66.0195952888
 20
40.6637973036
 11
-66.0257440456
 21
40.3872164645
  0
LINE
  5
657
100
AcDbEntity
  8
0
100
AcDbLine
 62
7
  6
CONTINUOUS
 10
-66.0156547041
 20
-45.0299013795
 11
-66.0178703333
 21
-45.1182214797
  0
LWPOLYLINE
  5
658
100
AcDbEntity
  8
0
100
AcDbPolyline
 62
7
  6
CONTINUOUS
 90
3
 70
0
 10
-66.0257440456
 20
40.3872164645
 10
-66.035157194
 20
40.0411824826
 10
-66.0367464794
 20
39.9878263118
  0
LINE
  5
659
100
AcDbEntity
  8
0
100
AcDbLine
 62
7
  6
CONTINUOUS
 10
-66.0178703333
 20
-45.1182214797
 11
-66.0205855316
 21
-45.203601756
  0
LINE
  5
65A
100
AcDbEntity
  8
0
100
AcDbLine
 62
7
  6
CONTINUOUS
 10
-66.0205855316
 20
-45.203601756
 11
-66.0237618049
 21
-45.2848907464
  0
LWPOLYLINE
  5
65B
100
AcDbEntity
  8
0
100
AcDbPolyline
 62
7
  6
CONTINUOUS
 90
17
 70
0
 10
-66.0237618049
 20
-45.2848907464
 10
-66.0273998306
 20
-45.3615651836
 10
-66.029380248
 20
-45.3980490359
 10
-66.0314722284
 20
-45.4333220464
 10
-66.0336817239
 20
-45.4674739686
 10
-66.0360081212
 20
-45.5004913287
 10
-66.0384513725
 20
-45.5323444138
 10
-66.0410184114
 20
-45.5630877218
 10
-66.0437095474
 20
-45.592713485
 10
-66.0465209984
 20
-45.6211945928
 10
-66.0494543409
 20
-45.6485489416
 10
-66.0525102333
 20
-45.6747663009
 10
-66.0556852637
 20
-45.6998175776
 10
-66.0589768303
 20
-45.7237009087
 10
-66.0623834754
 20
-45.7464200224
 10
-66.06590435
 20
-45.767981439
 10
-66.0695343786
 20
-45.7883897799
  0
LWPOLYLINE
  5
65C
100
AcDbEntity
  8
RACCORDO
100
AcDbPolyline
 62
253
  6
CONTINUOUS
 90
16
 70
0
 10
-64.5233764512
 20
-5.3124802916
 10
-64.5203669492
 20
-5.2925679757
 10
-64.5179484265
 20
-5.2727786012
 10
-64.5161513629
 20
-5.2533181519
 10
-64.5149993501
 20
-5.2343734987
 10
-64.5145125543
 20
-5.2161684629
 10
-64.5147005884
 20
-5.198952541
 10
-64.5155602777
 20
-5.1829218295
 10
-64.517082477
 20
-5.1682261989
 10
-64.519251255
 20
-5.1550194733
 10
-64.5220439111
 20
-5.143439883
 10
-64.52543122
 20
-5.1336086046
 10
-64.5293777382
 20
-5.1256285195
 10
-64.5338421678
 20
-5.1195831534
 10
-64.5387777854
 20
-5.1155357925
 10
-64.5441329378
 20
-5.1135288072
  0
LWPOLYLINE
  5
65D
100
AcDbEntity
  8
RACCORDO
100
AcDbPolyline
 62
253
  6
CONTINUOUS
 90
7
 70
0
 10
-71.3410196531
 20
-24.7305640394
 10
-71.3399297773
 20
-24.7267274768
 10
-71.3390496172
 20
-24.7182606132
 10
-71.3383790482
 20
-24.7051634376
 10
-71.3379134743
 20
-24.6873895226
 10
-71.3376567554
 20
-24.6649852558
 10
-71.3382512911
 20
-24.6403712843
  0
LWPOLYLINE
  5
65E
100
AcDbEntity
  8
RACCORDO
100
AcDbPolyline
 62
253
  6
CONTINUOUS
 90
11
 70
0
 10
-62.8895545318
 20
-5.5005392411
 10
-62.8909990417
 20
-5.483463701
 10
-62.8932629454
 20
-5.4675168742
 10
-62.8963231177
 20
-5.4528616539
 10
-62.9001482997
 20
-5.4396477399
 10
-62.9046994181
 20
-5.4280101093
 10
-62.9099299842
 20
-5.4180676378
 10
-62.9157865692
 20
-5.4099218855
 10
-62.9222093493
 20
-5.4036560596
 10
-62.9291327173
 20
-5.3993341641
 10
-62.9364859526
 20
-5.3970003462
  0
LINE
  5
65F
100
AcDbEntity
  8
RACCORDO
100
AcDbLine
 62
253
  6
CONTINUOUS
 10
-62.7094032092
 20
41.6166080789
 11
-62.7109908612
 21
41.6492913142
  0
LWPOLYLINE
  5
660
100
AcDbEntity
  8
RACCORDO
100
AcDbPolyline
 62
253
  6
CONTINUOUS
 90
13
 70
0
 10
-62.7094032092
 20
42.1491106193
 10
-62.7109709605
 20
42.1796420274
 10
-62.7156578286
 20
42.2098543312
 10
-62.7234148278
 20
42.2394317614
 10
-62.7341608846
 20
42.2680651844
 10
-62.7477836845
 20
42.2954553331
 10
-62.7641408465
 20
42.3213159343
 10
-62.783061411
 20
42.3453767017
 10
-62.8043476263
 20
42.3673861598
 10
-62.8277770158
 20
42.387114273
 10
-62.8531047032
 20
42.4043548494
 10
-62.8800659717
 20
42.4189276961
 10
-62.908379031
 20
42.4306805026
  0
LWPOLYLINE
  5
661
100
AcDbEntity
  8
RACCORDO
100
AcDbPolyline
 62
253
  6
CONTINUOUS
 90
13
 70
0
 10
-62.7094032092
 20
42.9749423541
 10
-62.71092358
 20
43.0050885374
 10
-62.7154692833
 20
43.0349291648
 10
-62.7229942447
 20
43.0641617778
 10
-62.7334221926
 20
43.09249008
 10
-62.7466474314
 20
43.1196269415
 10
-62.7625359126
 20
43.1452973083
 10
-62.7809265936
 20
43.1692409905
 10
-62.8016330698
 20
43.1912152997
 10
-62.8244454645
 20
43.2109975085
 10
-62.8491325556
 20
43.2283871085
 10
-62.8754441194
 20
43.2432078421
 10
-62.903113467
 20
43.2553094892
  0
LINE
  5
662
100
AcDbEntity
  8
RACCORDO
100
AcDbLine
 62
7
  6
CONTINUOUS
 10
-62.7094032092
 20
43.1716534902
 11
-62.7106017268
 21
43.1984429305
  0
LINE
  5
663
100
AcDbEntity
  8
RACCORDO
100
AcDbLine
 62
253
  6
CONTINUOUS
 10
-62.9039601985
 20
-46.295723552
 11
-62.903135175
 21
-46.3965296882
  0
LINE
  5
664
100
AcDbEntity
  8
RACCORDO
100
AcDbLine
 62
253
  6
CONTINUOUS
 10
-62.903113553
 20
-46.424084047
 11
-62.9018094428
 21
-46.6204699932
  0
LINE
  5
665
100
AcDbEntity
  8
RACCORDO
100
AcDbLine
 62
253
  6
CONTINUOUS
 10
-62.903135175
 20
-46.3965296882
 11
-62.9031134636
 21
-46.4240840132
  0
LINE
  5
666
100
AcDbEntity
  8
RACCORDO
100
AcDbLine
 62
253
  6
CONTINUOUS
 10
-62.8978303651
 20
12.4900978292
 11
-62.8948393706
 21
2.4276675438
  0
LINE
  5
667
100
AcDbEntity
  8
RACCORDO
100
AcDbLine
 62
7
  6
CONTINUOUS
 10
-62.7094032092
 20
43.1716533708
 11
-62.7094032092
 21
2.4360866884
  0
LINE
  5
668
100
AcDbEntity
  8
RACCORDO
100
AcDbLine
 62
7
  6
CONTINUOUS
 10
-62.7094032092
 20
-5.6048610869
 11
-62.7094032092
 21
-46.340427929
  0
LINE
  5
669
100
AcDbEntity
  8
RACCORDO
100
AcDbLine
 62
253
  6
CONTINUOUS
 10
-62.9104630546
 20
31.0801919961
 11
-62.8978303651
 21
12.4900978292
  0
LINE
  5
66A
100
AcDbEntity
  8
RACCORDO
100
AcDbLine
 62
253
  6
CONTINUOUS
 10
-62.8948405556
 20
-5.5964416861
 11
-62.9057209045
 21
-27.4342253898
  0
LINE
  5
66B
100
AcDbEntity
  8
RACCORDO
100
AcDbLine
 62
253
  6
CONTINUOUS
 10
-62.9031134636
 20
43.2553096146
 11
-62.9031408077
 21
43.2274304865
  0
LINE
  5
66C
100
AcDbEntity
  8
RACCORDO
100
AcDbLine
 62
253
  6
CONTINUOUS
 10
-62.9099881346
 20
-32.1806379351
 11
-62.9104166543
 21
-43.3338464478
  0
LINE
  5
66D
100
AcDbEntity
  8
RACCORDO
100
AcDbLine
 62
253
  6
CONTINUOUS
 10
-62.9057209045
 20
-27.4342253898
 11
-62.9099881346
 21
-32.1806379351
  0
LWPOLYLINE
  5
66E
100
AcDbEntity
  8
RACCORDO
100
AcDbPolyline
 62
253
  6
CONTINUOUS
 90
3
 70
0
 10
-62.9104166543
 20
-43.3338464478
 10
-62.9106827376
 20
-44.9871614363
 10
-62.9039601985
 20
-46.295723552
  0
LINE
  5
66F
100
AcDbEntity
  8
RACCORDO
100
AcDbLine
 62
253
  6
CONTINUOUS
 10
-62.9095961211
 20
42.1697839313
 11
-62.9104630546
 21
31.0801919961
  0
LINE
  5
670
100
AcDbEntity
  8
RACCORDO
100
AcDbLine
 62
253
  6
CONTINUOUS
 10
-62.9018094428
 20
43.4516955946
 11
-62.903113553
 21
43.2553096485
  0
LINE
  5
671
100
AcDbEntity
  8
RACCORDO
100
AcDbLine
 62
253
  6
CONTINUOUS
 10
-62.9031408077
 20
43.2274304865
 11
-62.9095961211
 21
42.1697839313
  0
LINE
  5
672
100
AcDbEntity
  8
RACCORDO
100
AcDbLine
 62
7
  6
CONTINUOUS
 10
-62.7106017328
 20
-46.3672173956
 11
-62.7094032092
 21
-46.3404278888
  0
LWPOLYLINE
  5
673
100
AcDbEntity
  8
RACCORDO
100
AcDbPolyline
 62
253
  6
CONTINUOUS
 90
13
 70
0
 10
-62.7094032092
 20
-46.1437167527
 10
-62.7109235813
 20
-46.1738629785
 10
-62.7154692875
 20
-46.2037036478
 10
-62.7229942533
 20
-46.2329363007
 10
-62.7334222071
 20
-46.2612646406
 10
-62.746647453
 20
-46.2884015364
 10
-62.7625359424
 20
-46.3140719336
 10
-62.7809266326
 20
-46.3380156417
 10
-62.8016331189
 20
-46.3599899716
 10
-62.8244455242
 20
-46.3797721954
 10
-62.8491326263
 20
-46.3971618041
 10
-62.8754442012
 20
-46.4119825397
 10
-62.9031135597
 20
-46.4240841819
  0
LWPOLYLINE
  5
674
100
AcDbEntity
  8
RACCORDO
100
AcDbPolyline
 62
253
  6
CONTINUOUS
 90
8
 70
0
 10
-62.7094032092
 20
-45.3178850178
 10
-62.7109709604
 20
-45.348416426
 10
-62.7156578284
 20
-45.3786287299
 10
-62.7234148275
 20
-45.4082061603
 10
-62.7341608841
 20
-45.4368395834
 10
-62.747783684
 20
-45.4642297322
 10
-62.764140846
 20
-45.4900903335
 10
-62.7830614105
 20
-45.514151101
  0
LINE
  5
675
100
AcDbEntity
  8
RACCORDO
100
AcDbLine
 62
253
  6
CONTINUOUS
 10
-62.7094032092
 20
-44.7853824775
 11
-62.7109908614
 21
-44.8180657127
  0
LWPOLYLINE
  5
676
100
AcDbEntity
  8
RACCORDO
100
AcDbPolyline
 62
253
  6
CONTINUOUS
 90
11
 70
0
 10
-62.8895545057
 20
2.3317647959
 10
-62.8909990202
 20
2.3146892398
 10
-62.8932629305
 20
2.2987424004
 10
-62.8963231111
 20
2.2840871715
 10
-62.9001483028
 20
2.2708732531
 10
-62.9046994323
 20
2.2592356227
 10
-62.9099300106
 20
2.2492931562
 10
-62.9157866085
 20
2.2411474139
 10
-62.9222094019
 20
2.2348816029
 10
-62.9291327835
 20
2.2305597271
 10
-62.9364860324
 20
2.2282259335
  0
LWPOLYLINE
  5
677
100
AcDbEntity
  8
RACCORDO
100
AcDbPolyline
 62
253
  6
CONTINUOUS
 90
6
 70
0
 10
-62.8948403803
 20
-5.5964417216
 10
-62.8921374333
 20
-5.5765052312
 10
-62.8902422517
 20
-5.5567470566
 10
-62.8891741943
 20
-5.5373690227
 10
-62.8889441712
 20
-5.5185690719
 10
-62.8895545318
 20
-5.5005392411
  0
LWPOLYLINE
  5
678
100
AcDbEntity
  8
RACCORDO
100
AcDbPolyline
 62
253
  6
CONTINUOUS
 90
12
 70
0
 10
-68.8816881058
 20
-46.6419296758
 10
-68.868995144
 20
-46.5571006018
 10
-68.8578976064
 20
-46.4645084815
 10
-68.8484351405
 20
-46.3641524065
 10
-68.8408400707
 20
-46.2549885749
 10
-68.8349518041
 20
-46.1380586556
 10
-68.830212373
 20
-46.0164903018
 10
-68.826586566
 20
-45.8904082546
 10
-68.824157777
 20
-45.7596863876
 10
-68.8225407312
 20
-45.6270769303
 10
-68.8217284926
 20
-45.4929746806
 10
-68.8223701193
 20
-45.2206736038
  0
LWPOLYLINE
  5
679
100
AcDbEntity
  8
RACCORDO
100
AcDbPolyline
 62
253
  6
CONTINUOUS
 90
14
 70
0
 10
-68.6103688989
 20
-46.9010290034
 10
-68.5973119709
 20
-46.8176666179
 10
-68.586286795
 20
-46.7228782726
 10
-68.5771071063
 20
-46.6184869477
 10
-68.5696099859
 20
-46.5066390032
 10
-68.563595438
 20
-46.3887144439
 10
-68.5588682745
 20
-46.2649404223
 10
-68.5552953799
 20
-46.1362139854
 10
-68.5527659726
 20
-46.004021395
 10
-68.5511726377
 20
-45.8689464291
 10
-68.5504090586
 20
-45.7321239839
 10
-68.5503690283
 20
-45.5944117522
 10
-68.550973815
 20
-45.4556979725
 10
-68.553808062
 20
-45.1782306689
  0
LWPOLYLINE
  5
67A
100
AcDbEntity
  8
RACCORDO
100
AcDbPolyline
 62
253
  6
CONTINUOUS
 90
8
 70
0
 10
-62.7094032092
 20
-5.6048611003
 10
-62.7096094848
 20
-5.6049516721
 10
-62.7102494943
 20
-5.6050156308
 10
-62.7113553617
 20
-5.6050527256
 10
-62.7129630631
 20
-5.6050640853
 10
-62.7151026704
 20
-5.6050479681
 10
-62.7177879805
 20
-5.6049997846
 10
-62.7210406326
 20
-5.6049182563
  0
LWPOLYLINE
  5
67B
100
AcDbEntity
  8
RACCORDO
100
AcDbPolyline
 62
253
  6
CONTINUOUS
 90
10
 70
0
 10
-68.8816881058
 20
43.4731552771
 10
-68.8968742058
 20
43.5529633344
 10
-68.9120374969
 20
43.629274445
 10
-68.9271796691
 20
43.7020889469
 10
-68.9423033153
 20
43.7714115084
 10
-68.9574087698
 20
43.8372380934
 10
-68.9724944214
 20
43.8995559625
 10
-68.9875607825
 20
43.9583610519
 10
-69.0026101756
 20
44.0136579718
 10
-69.0176437907
 20
44.0654469728
  0
LWPOLYLINE
  5
67C
100
AcDbEntity
  8
RACCORDO
100
AcDbPolyline
 62
253
  6
CONTINUOUS
 90
10
 70
0
 10
-68.6103691468
 20
43.7322558812
 10
-68.6255527137
 20
43.8122465064
 10
-68.640714564
 20
43.8887399816
 10
-68.6558557336
 20
43.9617329002
 10
-68.6709777376
 20
44.0312240979
 10
-68.6860810037
 20
44.097208489
 10
-68.7011649407
 20
44.1596777707
 10
-68.7162299073
 20
44.2186285148
 10
-68.7312770468
 20
44.2740610501
 10
-68.7463069485
 20
44.3259736958
  0
LWPOLYLINE
  5
67D
100
AcDbEntity
  8
RACCORDO
100
AcDbPolyline
 62
253
  6
CONTINUOUS
 90
6
 70
0
 10
-62.8948403601
 20
2.427667386
 10
-62.892137408
 20
2.407730872
 10
-62.8902422232
 20
2.3879726739
 10
-62.8891741646
 20
2.3685946174
 10
-62.8889441422
 20
2.3497946455
 10
-62.8895545057
 20
2.3317647959
  0
LINE
  5
67E
100
AcDbEntity
  8
0
100
AcDbLine
 62
7
  6
CONTINUOUS
 10
-66.0695343786
 20
-45.7883897799
 11
-66.0699620556
 21
-45.7906731322
  0
LWPOLYLINE
  5
67F
100
AcDbEntity
  8
DRAFT
100
AcDbPolyline
 62
7
  6
CONTINUOUS
 90
10
 70
0
 10
-66.6064776368
 20
-47.0743872033
 10
-66.6216750326
 20
-47.1545539245
 10
-66.6368534702
 20
-47.2312053789
 10
-66.6520147283
 20
-47.3043419176
 10
-66.6671610829
 20
-47.3739665145
 10
-66.6822933796
 20
-47.4400768524
 10
-66.6974112257
 20
-47.5026653233
 10
-66.7125154714
 20
-47.5617295805
 10
-66.727608017
 20
-47.6172725372
 10
-66.7426900193
 20
-47.6692944533
  0
LWPOLYLINE
  5
680
100
AcDbEntity
  8
RACCORDO
100
AcDbPolyline
 62
253
  6
CONTINUOUS
 90
5
 70
0
 10
-66.4390596062
 20
-46.7373842538
 10
-66.4542491195
 20
-46.8171882436
 10
-66.4694196639
 20
-46.8935040712
 10
-66.4845722602
 20
-46.966328201
 10
-66.4997083047
 20
-47.0356589964
  0
LINE
  5
681
100
AcDbEntity
  8
RACCORDO
100
AcDbLine
 62
7
  6
CONTINUOUS
 10
-66.3249342932
 20
-46.6348129617
 11
-66.3401234118
 21
-46.7145087667
  0
LWPOLYLINE
  5
682
100
AcDbEntity
  8
0
100
AcDbPolyline
 62
7
  6
CONTINUOUS
 90
9
 70
0
 10
-66.0699620556
 20
-45.7906731322
 10
-66.0850920879
 20
-45.8693069211
 10
-66.1001952434
 20
-45.9445076864
 10
-66.1152725104
 20
-46.0162724048
 10
-66.130324869
 20
-46.0845981942
 10
-66.1453531395
 20
-46.1494822919
 10
-66.1603580488
 20
-46.2109218697
 10
-66.1753403017
 20
-46.2689143396
 10
-66.1903005215
 20
-46.3234575524
  0
LWPOLYLINE
  5
683
100
AcDbEntity
  8
RACCORDO
100
AcDbPolyline
 62
7
  6
CONTINUOUS
 90
9
 70
0
 10
-66.3401234118
 20
-46.7145087667
 10
-66.3552916261
 20
-46.7907146805
 10
-66.3704409757
 20
-46.8634324481
 10
-66.385573584
 20
-46.9326643074
 10
-66.4006896996
 20
-46.9984044463
 10
-66.4157885541
 20
-47.0606433
 10
-66.4308703262
 20
-47.1193760942
 10
-66.4459367664
 20
-47.1746049943
 10
-66.4603971746
 20
-47.2243616484
  0
LWPOLYLINE
  5
684
100
AcDbEntity
  8
0
100
AcDbPolyline
 62
7
  6
CONTINUOUS
 90
6
 70
0
 10
-71.3348464191
 20
-28.1430481084
 10
-71.3349951291
 20
-28.1433049426
 10
-71.3352044879
 20
-28.1450801306
 10
-71.3353129483
 20
-28.1485772185
 10
-71.3353191182
 20
-28.1538102556
 10
-71.335224104
 20
-28.1607651836
  0
LINE
  5
685
100
AcDbEntity
  8
RACCORDO
100
AcDbLine
 62
253
  6
CONTINUOUS
 10
-71.4182404538
 20
-24.8408799051
 11
-71.3410196531
 21
-24.7305640394
  0
LINE
  5
686
100
AcDbEntity
  8
RACCORDO
100
AcDbLine
 62
253
  6
CONTINUOUS
 10
-71.3410196531
 20
21.5617896408
 11
-71.4172923522
 21
21.6707508094
  0
LINE
  5
687
100
AcDbEntity
  8
RACCORDO
100
AcDbLine
 62
7
  6
CONTINUOUS
 10
-66.3401234105
 20
43.5457343616
 11
-66.3249342909
 21
43.4660385508
  0
LINE
  5
688
100
AcDbEntity
  8
0
100
AcDbLine
 62
7
  6
CONTINUOUS
 10
-66.0699620556
 20
42.6218987336
 11
-66.0695343786
 21
42.6196153813
  0
LWPOLYLINE
  5
689
100
AcDbEntity
  8
RACCORDO
100
AcDbPolyline
 62
253
  6
CONTINUOUS
 90
22
 70
0
 10
-66.324934291
 20
43.4660385512
 10
-66.3219537739
 20
43.4495122614
 10
-66.3189259224
 20
43.4315112945
 10
-66.3158625845
 20
43.4119477206
 10
-66.3127812214
 20
43.3907723625
 10
-66.3096884047
 20
43.3678555802
 10
-66.3065820665
 20
43.3429705581
 10
-66.3034774204
 20
43.3160077354
 10
-66.3003892672
 20
43.2868521948
 10
-66.2973196126
 20
43.2552338155
 10
-66.2942876711
 20
43.2210262706
 10
-66.2913100369
 20
43.1840862843
 10
-66.2883899974
 20
43.1440789286
 10
-66.2855515647
 20
43.1008796828
 10
-66.2828127279
 20
43.0543079023
 10
-66.2801750888
 20
43.0039051031
 10
-66.2776644695
 20
42.9495258188
 10
-66.2753078921
 20
42.8910152647
 10
-66.2731181053
 20
42.8278507586
 10
-66.2711044168
 20
42.759140142
 10
-66.2693271409
 20
42.6854391057
 10
-66.2678561644
 20
42.6085384993
  0
LWPOLYLINE
  5
68A
100
AcDbEntity
  8
RACCORDO
100
AcDbPolyline
 62
253
  6
CONTINUOUS
 90
22
 70
0
 10
-66.4390596063
 20
43.5686098557
 10
-66.4360629555
 20
43.5519758309
 10
-66.4330227005
 20
43.5338721781
 10
-66.4299488259
 20
43.5142049074
 10
-66.4268552398
 20
43.4929086317
 10
-66.4237489109
 20
43.469853007
 10
-66.4206313646
 20
43.4448285692
 10
-66.4175157518
 20
43.4177123393
 10
-66.414415496
 20
43.3883797462
 10
-66.411336084
 20
43.3565859848
 10
-66.4082949805
 20
43.3221824696
 10
-66.4053075475
 20
43.2850143573
 10
-66.4023801227
 20
43.2447906938
 10
-66.3995344602
 20
43.2013381631
 10
-66.3967886889
 20
43.154464049
 10
-66.3941484057
 20
43.1038051553
 10
-66.3916347203
 20
43.0491222699
 10
-66.3892747748
 20
42.9902133057
 10
-66.3870879545
 20
42.9267278626
 10
-66.3850788147
 20
42.8576856395
 10
-66.3833049819
 20
42.7835023578
 10
-66.3818416816
 20
42.706142253
  0
LWPOLYLINE
  5
68B
100
AcDbEntity
  8
0
100
AcDbPolyline
 62
7
  6
CONTINUOUS
 90
16
 70
0
 10
-66.0695343786
 20
42.6196153813
 10
-66.0658965176
 20
42.5991611012
 10
-66.0623687574
 20
42.5775515591
 10
-66.058956155
 20
42.5547825749
 10
-66.0556596982
 20
42.5308495275
 10
-66.0524805858
 20
42.5057478345
 10
-66.0494208584
 20
42.4794751164
 10
-66.0464839727
 20
42.452060218
 10
-66.0436693116
 20
42.423513638
 10
-66.0409749075
 20
42.3938131128
 10
-66.0384041956
 20
42.3629802477
 10
-66.0359573917
 20
42.3310268879
 10
-66.0336284078
 20
42.2979093699
 10
-66.031416796
 20
42.263651335
 10
-66.0293235299
 20
42.2282732723
 10
-66.027344302
 20
42.1917198147
  0
LWPOLYLINE
  5
68C
100
AcDbEntity
  8
DRAFT
100
AcDbPolyline
 62
7
  6
CONTINUOUS
 90
15
 70
0
 10
-66.6064776368
 20
43.9056128047
 10
-66.5978707303
 20
43.854299626
 10
-66.5899342571
 20
43.7967675807
 10
-66.5826663454
 20
43.7330162003
 10
-66.5760629787
 20
43.6630213841
 10
-66.5701230746
 20
43.5868061471
 10
-66.564849011
 20
43.5044406282
 10
-66.5602380206
 20
43.4159129695
 10
-66.5562863101
 20
43.3212336736
 10
-66.5529951829
 20
43.2205063713
 10
-66.5503615986
 20
43.1137216775
 10
-66.5483808208
 20
43.0008873825
 10
-66.5470522942
 20
42.8821328488
 10
-66.5463746234
 20
42.7573955323
 10
-66.5463402751
 20
42.6267361717
  0
LWPOLYLINE
  5
68D
100
AcDbEntity
  8
RACCORDO
100
AcDbPolyline
 62
7
  6
CONTINUOUS
 90
11
 70
0
 10
-62.7106017268
 20
43.1984429305
 10
-62.7146311969
 20
43.227416029
 10
-62.7214632207
 20
43.2558589712
 10
-62.731032845
 20
43.2835013347
 10
-62.7432490882
 20
43.310080308
 10
-62.7579958056
 20
43.3353431888
 10
-62.7751327937
 20
43.359049788
 10
-62.7944971236
 20
43.3809747131
 10
-62.8159046894
 20
43.4009095105
 10
-62.8391519589
 20
43.4186646474
 10
-62.8640179085
 20
43.4340713142
  0
LINE
  5
68E
100
AcDbEntity
  8
RACCORDO
100
AcDbLine
 62
253
  6
CONTINUOUS
 10
-62.7109909182
 20
-44.8159157225
 11
-62.7157370133
 21
-44.8482764282
  0
LWPOLYLINE
  5
68F
100
AcDbEntity
  8
RACCORDO
100
AcDbPolyline
 62
253
  6
CONTINUOUS
 90
5
 70
0
 10
-66.4997083047
 20
-47.0356589964
 10
-66.5148283169
 20
-47.1014916216
 10
-66.5299320066
 20
-47.1638185663
 10
-66.5450198253
 20
-47.2226364015
 10
-66.5600928013
 20
-47.277944838
  0
LWPOLYLINE
  5
690
100
AcDbEntity
  8
RACCORDO
100
AcDbPolyline
 62
253
  6
CONTINUOUS
 90
10
 70
0
 10
-68.7463069703
 20
-47.4947481671
 10
-68.7312770871
 20
-47.442835593
 10
-68.7162299617
 20
-47.3874031205
 10
-68.7011650046
 20
-47.3284524269
 10
-68.686081082
 20
-47.265983221
 10
-68.6709778258
 20
-47.1999988913
 10
-68.6558557981
 20
-47.1305076018
 10
-68.6407145615
 20
-47.0575143672
 10
-68.6255526104
 20
-46.9810203717
 10
-68.6103689087
 20
-46.9010289985
  0
LWPOLYLINE
  5
691
100
AcDbEntity
  8
RACCORDO
100
AcDbPolyline
 62
253
  6
CONTINUOUS
 90
10
 70
0
 10
-69.0176437907
 20
-47.2342213714
 10
-69.0026101672
 20
-47.1824323366
 10
-68.9875607676
 20
-47.1271353903
 10
-68.9724944019
 20
-47.068330282
 10
-68.957408748
 20
-47.0060124002
 10
-68.9423032937
 20
-46.9401858099
 10
-68.9271796496
 20
-46.8708632546
 10
-68.9120374815
 20
-46.7980487717
 10
-68.8968741968
 20
-46.7217376913
 10
-68.8816881058
 20
-46.6419296758
  0
LINE
  5
692
100
AcDbEntity
  8
RACCORDO
100
AcDbLine
 62
253
  6
CONTINUOUS
 10
-66.5600928013
 20
-47.277944838
 11
-66.5751515138
 21
-47.3297419014
  0
LINE
  5
693
100
AcDbEntity
  8
0
100
AcDbLine
 62
7
  6
CONTINUOUS
 10
-66.1903005215
 20
-46.3234575524
 11
-66.2033922542
 21
-46.3683863373
  0
LINE
  5
694
100
AcDbEntity
  8
RACCORDO
100
AcDbLine
 62
253
  6
CONTINUOUS
 10
-69.3658090052
 20
-48.3984739673
 11
-69.0176437907
 21
-47.2342213714
  0
LINE
  5
695
100
AcDbEntity
  8
RACCORDO
100
AcDbLine
 62
253
  6
CONTINUOUS
 10
-69.0944057495
 20
-48.6590853012
 11
-68.7463069705
 21
-47.4947481664
  0
LWPOLYLINE
  5
696
100
AcDbEntity
  8
RACCORDO
100
AcDbPolyline
 62
253
  6
CONTINUOUS
 90
6
 70
0
 10
-62.7094032092
 20
29.3900633
 10
-62.7109891651
 20
29.3947780571
 10
-62.7157302637
 20
29.3994429649
 10
-62.7235763771
 20
29.4040087012
 10
-62.734444548
 20
29.4084269922
 10
-62.748219867
 20
29.4126511233
  0
LINE
  5
697
100
AcDbEntity
  8
RACCORDO
100
AcDbLine
 62
253
  6
CONTINUOUS
 10
-62.7094032092
 20
29.4325761053
 11
-62.7109894913
 21
29.4373200335
  0
LINE
  5
698
100
AcDbEntity
  8
RACCORDO
100
AcDbLine
 62
253
  6
CONTINUOUS
 10
-66.9164676356
 20
45.2989440145
 11
-66.9065988972
 21
45.2674850092
  0
LINE
  5
699
100
AcDbEntity
  8
RACCORDO
100
AcDbLine
 62
7
  6
CONTINUOUS
 10
-66.7951209133
 20
45.1716962708
 11
-66.8021656261
 21
45.1941181759
  0
LINE
  5
69A
100
AcDbEntity
  8
RACCORDO
100
AcDbLine
 62
253
  6
CONTINUOUS
 10
-66.9065988972
 20
45.2674850092
 11
-66.8656241209
 21
45.1340484318
  0
LINE
  5
69B
100
AcDbEntity
  8
RACCORDO
100
AcDbLine
 62
7
  6
CONTINUOUS
 10
-66.8023875051
 20
45.1947381939
 11
-66.7406177978
 21
44.9941712023
  0
LINE
  5
69C
100
AcDbEntity
  8
RACCORDO
100
AcDbLine
 62
253
  6
CONTINUOUS
 10
-66.8656241209
 20
45.1340484318
 11
-66.8546349231
 21
45.0979752802
  0
LINE
  5
69D
100
AcDbEntity
  8
RACCORDO
100
AcDbLine
 62
253
  6
CONTINUOUS
 10
-66.3249342909
 20
43.4660385508
 11
-66.0699620655
 21
42.6218987306
  0
LINE
  5
69E
100
AcDbEntity
  8
SUPERFICI
100
AcDbLine
 62
7
  6
CONTINUOUS
 10
-66.2036871349
 20
43.2006239563
 11
-66.4603971733
 21
44.0555872452
  0
LINE
  5
69F
100
AcDbEntity
  8
RACCORDO
100
AcDbLine
 62
7
  6
CONTINUOUS
 10
-66.7419022308
 20
44.9938106301
 11
-66.2036953691
 21
43.2006214839
  0
LINE
  5
6A0
100
AcDbEntity
  8
RACCORDO
100
AcDbLine
 62
253
  6
CONTINUOUS
 10
-66.8561153114
 20
45.0982728837
 11
-66.5751515133
 21
44.160967501
  0
LINE
  5
6A1
100
AcDbEntity
  8
RACCORDO
100
AcDbLine
 62
253
  6
CONTINUOUS
 10
-69.0176437907
 20
44.0654469728
 11
-69.3658090052
 21
45.2296995687
  0
LINE
  5
6A2
100
AcDbEntity
  8
RACCORDO
100
AcDbLine
 62
253
  6
CONTINUOUS
 10
-68.7463069487
 20
44.3259736951
 11
-69.0944057495
 21
45.4903109027
  0
LINE
  5
6A3
100
AcDbEntity
  8
DRAFT
100
AcDbLine
 62
7
  6
CONTINUOUS
 10
-67.090698613
 20
45.6656061477
 11
-66.7426900193
 21
44.5005200547
  0
LINE
  5
6A4
100
AcDbEntity
  8
0
100
AcDbLine
 62
7
  6
CONTINUOUS
 10
-66.2036871437
 20
43.2006239536
 11
-66.1903005215
 21
43.1546831538
  0
LINE
  5
6A5
100
AcDbEntity
  8
RACCORDO
100
AcDbLine
 62
253
  6
CONTINUOUS
 10
-66.5751515133
 20
44.160967501
 11
-66.560092801
 21
44.1091704384
  0
LWPOLYLINE
  5
6A6
100
AcDbEntity
  8
RACCORDO
100
AcDbPolyline
 62
7
  6
CONTINUOUS
 90
9
 70
0
 10
-66.4603971746
 20
44.0555872498
 10
-66.4459367664
 20
44.0058305957
 10
-66.4308703262
 20
43.9506016956
 10
-66.4157885541
 20
43.8918689014
 10
-66.4006896997
 20
43.829630048
 10
-66.3855735842
 20
43.7638899095
 10
-66.3704409757
 20
43.6946580495
 10
-66.3552916256
 20
43.6219402794
 10
-66.3401234105
 20
43.5457343616
  0
LWPOLYLINE
  5
6A7
100
AcDbEntity
  8
DRAFT
100
AcDbPolyline
 62
7
  6
CONTINUOUS
 90
10
 70
0
 10
-66.7426900193
 20
44.5005200547
 10
-66.7276081191
 20
44.4484985479
 10
-66.712515654
 20
44.392955912
 10
-66.6974114648
 20
44.3338918873
 10
-66.6822936463
 20
44.271303579
 10
-66.6671613483
 20
44.2051933154
 10
-66.6520149681
 20
44.1355686486
 10
-66.6368536602
 20
44.0624318776
 10
-66.6216751434
 20
43.9857800466
 10
-66.6064776368
 20
43.9056128047
  0
LWPOLYLINE
  5
6A8
100
AcDbEntity
  8
0
100
AcDbPolyline
 62
7
  6
CONTINUOUS
 90
9
 70
0
 10
-66.1903005215
 20
43.1546831538
 10
-66.1753403017
 20
43.100139941
 10
-66.1603580488
 20
43.0421474711
 10
-66.1453531395
 20
42.9807078933
 10
-66.130324869
 20
42.9158237957
 10
-66.1152725104
 20
42.8474980062
 10
-66.1001952434
 20
42.7757332879
 10
-66.0850920879
 20
42.7005325225
 10
-66.0699620556
 20
42.6218987336
  0
LWPOLYLINE
  5
6A9
100
AcDbEntity
  8
RACCORDO
100
AcDbPolyline
 62
253
  6
CONTINUOUS
 90
4
 70
0
 10
-66.560092801
 20
44.1091704384
 10
-66.5450198252
 20
44.0538620024
 10
-66.5299320066
 20
43.9950441677
 10
-66.5148283169
 20
43.9327172232
  0
LWPOLYLINE
  5
6AA
100
AcDbEntity
  8
RACCORDO
100
AcDbPolyline
 62
253
  6
CONTINUOUS
 90
6
 70
0
 10
-66.5148283169
 20
43.9327172232
 10
-66.4997083047
 20
43.8668845978
 10
-66.4845722602
 20
43.7975538024
 10
-66.4694196639
 20
43.7247296727
 10
-66.4542491195
 20
43.6484138452
 10
-66.4390596063
 20
43.5686098557
  0
LINE
  5
6AB
100
AcDbEntity
  8
RACCORDO
100
AcDbLine
 62
253
  6
CONTINUOUS
 10
-62.71099088
 20
41.6471413463
 11
-62.7157370129
 21
41.67950203
  0
LINE
  5
6AC
100
AcDbEntity
  8
RACCORDO
100
AcDbLine
 62
253
  6
CONTINUOUS
 10
-62.7157372398
 20
-44.8461257815
 11
-62.7235914301
 21
-44.8778442018
  0
LINE
  5
6AD
100
AcDbEntity
  8
DRAFT
100
AcDbLine
 62
7
  6
CONTINUOUS
 10
-66.7426900193
 20
-47.6692944533
 11
-67.0906987181
 21
-48.8343797452
  0
LINE
  5
6AE
100
AcDbEntity
  8
SUPERFICI
100
AcDbLine
 62
7
  6
CONTINUOUS
 10
-66.4603971733
 20
-47.2243616438
 11
-66.2036871349
 21
-46.3693983549
  0
LINE
  5
6AF
100
AcDbEntity
  8
RACCORDO
100
AcDbLine
 62
253
  6
CONTINUOUS
 10
-66.5751515138
 20
-47.3297419014
 11
-66.8561153114
 21
-48.2670472823
  0
LINE
  5
6B0
100
AcDbEntity
  8
RACCORDO
100
AcDbLine
 62
7
  6
CONTINUOUS
 10
-66.2036953691
 20
-46.3693958825
 11
-66.7406177978
 21
-48.1629456009
  0
LINE
  5
6B1
100
AcDbEntity
  8
RACCORDO
100
AcDbLine
 62
253
  6
CONTINUOUS
 10
-66.3249342932
 20
-46.6348129617
 11
-66.0699620649
 21
-45.7906731294
  0
LINE
  5
6B2
100
AcDbEntity
  8
RACCORDO
100
AcDbLine
 62
253
  6
CONTINUOUS
 10
-66.8546349231
 20
-48.2667496788
 11
-66.9002665656
 21
-48.4158320019
  0
LINE
  5
6B3
100
AcDbEntity
  8
RACCORDO
100
AcDbLine
 62
7
  6
CONTINUOUS
 10
-66.7407810408
 20
-48.1634836298
 11
-66.8023875066
 21
-48.3635125971
  0
LWPOLYLINE
  5
6B4
100
AcDbEntity
  8
RACCORDO
100
AcDbPolyline
 62
253
  6
CONTINUOUS
 90
7
 70
0
 10
-66.9002665656
 20
-48.4158320019
 10
-66.9119991525
 20
-48.4535551903
 10
-66.9164676371
 20
-48.4677184178
 10
-66.9200035451
 20
-48.4787481947
 10
-66.9226064433
 20
-48.4866434711
 10
-66.9242764506
 20
-48.4914032085
 10
-66.9250133988
 20
-48.4930263987
  0
LINE
  5
6B5
100
AcDbEntity
  8
RACCORDO
100
AcDbLine
 62
7
  6
CONTINUOUS
 10
-66.797683534
 20
-48.3486637077
 11
-66.78814532
 21
-48.318030909
  0
LINE
  5
6B6
100
AcDbEntity
  8
RACCORDO
100
AcDbLine
 62
7
  6
CONTINUOUS
 10
-66.8048210754
 20
-48.3712320336
 11
-66.7981083898
 21
-48.3500185554
  0
LINE
  5
6B7
100
AcDbEntity
  8
RACCORDO
100
AcDbLine
 62
7
  6
CONTINUOUS
 10
-66.8068189805
 20
-48.3774355811
 11
-66.8049554209
 21
-48.3716514192
  0
LINE
  5
6B8
100
AcDbEntity
  8
RACCORDO
100
AcDbLine
 62
7
  6
CONTINUOUS
 10
-66.8085407762
 20
-48.3827068267
 11
-66.8072725216
 21
-48.3788321311
  0
LINE
  5
6B9
100
AcDbEntity
  8
RACCORDO
100
AcDbLine
 62
7
  6
CONTINUOUS
 10
-66.8094158023
 20
-48.3853472107
 11
-66.8087401951
 21
-48.383311261
  0
LINE
  5
6BA
100
AcDbEntity
  8
RACCORDO
100
AcDbLine
 62
253
  6
CONTINUOUS
 10
-62.7094032092
 20
-32.6013505039
 11
-62.7109895097
 21
-32.6060944276
  0
LWPOLYLINE
  5
6BB
100
AcDbEntity
  8
RACCORDO
100
AcDbPolyline
 62
253
  6
CONTINUOUS
 90
6
 70
0
 10
-62.7094032092
 20
-32.5588376985
 10
-62.7109891646
 20
-32.5635524557
 10
-62.7157302627
 20
-32.5682173635
 10
-62.7235763757
 20
-32.5727830998
 10
-62.7344445463
 20
-32.5772013909
 10
-62.748219865
 20
-32.581425522
  0
LINE
  5
6BC
100
AcDbEntity
  8
RACCORDO
100
AcDbLine
 62
7
  6
CONTINUOUS
 10
-66.8104249756
 20
-48.3883474914
 11
-66.8097886712
 21
-48.3864620546
  0
LINE
  5
6BD
100
AcDbEntity
  8
RACCORDO
100
AcDbLine
 62
7
  6
CONTINUOUS
 10
-66.8106939354
 20
-48.3891371113
 11
-66.8106043954
 21
-48.3888747609
  0
LINE
  5
6BE
100
AcDbEntity
  8
RACCORDO
100
AcDbLine
 62
7
  6
CONTINUOUS
 10
-66.8113220794
 20
-48.3909615408
 11
-66.8112318079
 21
-48.3907011777
  0
LINE
  5
6BF
100
AcDbEntity
  8
RACCORDO
100
AcDbLine
 62
7
  6
CONTINUOUS
 10
-66.8118745088
 20
-48.3925400596
 11
-66.8117807981
 21
-48.3922741635
  0
LINE
  5
6C0
100
AcDbEntity
  8
RACCORDO
100
AcDbLine
 62
7
  6
CONTINUOUS
 10
-66.8123593956
 20
-48.3939026953
 11
-66.8122598634
 21
-48.3936248487
  0
LINE
  5
6C1
100
AcDbEntity
  8
RACCORDO
100
AcDbLine
 62
7
  6
CONTINUOUS
 10
-66.8127744254
 20
-48.3950503614
 11
-66.8126678433
 21
-48.394757346
  0
LWPOLYLINE
  5
6C2
100
AcDbEntity
  8
RACCORDO
100
AcDbPolyline
 62
253
  6
CONTINUOUS
 90
10
 70
0
 10
-66.4609894672
 20
-47.2263316111
 10
-66.4671788347
 20
-47.2431787442
 10
-66.4753538072
 20
-47.2591595157
 10
-66.4853963101
 20
-47.2740431088
 10
-66.4971612952
 20
-47.2876145541
 10
-66.510478836
 20
-47.2996778338
 10
-66.5251565815
 20
-47.3100587134
 10
-66.5409825346
 20
-47.3186072581
 10
-66.5577281143
 20
-47.3251999982
 10
-66.5751514569
 20
-47.3297417125
  0
LWPOLYLINE
  5
6C3
100
AcDbEntity
  8
RACCORDO
100
AcDbPolyline
 62
253
  6
CONTINUOUS
 90
10
 70
0
 10
-66.7407810408
 20
-48.1634836298
 10
-66.7468175403
 20
-48.1798252645
 10
-66.7549943877
 20
-48.1958402926
 10
-66.7650310336
 20
-48.2107605467
 10
-66.7767828305
 20
-48.224371428
 10
-66.7900806474
 20
-48.2364774283
 10
-66.8047334207
 20
-48.2469048177
 10
-66.8205304772
 20
-48.2555037503
 10
-66.8372444562
 20
-48.262150541
 10
-66.8546349233
 20
-48.2667496776
  0
LWPOLYLINE
  5
6C4
100
AcDbEntity
  8
RACCORDO
100
AcDbPolyline
 62
253
  6
CONTINUOUS
 90
10
 70
0
 10
-66.3249341821
 20
-46.6348123777
 10
-66.3311176723
 20
-46.6515382807
 10
-66.3392870537
 20
-46.6674012006
 10
-66.3493243326
 20
-46.6821720251
 10
-66.3610845367
 20
-46.6956374158
 10
-66.3743978086
 20
-46.7076028893
 10
-66.389071859
 20
-46.717895626
 10
-66.4048947447
 20
-46.7263669664
 10
-66.4216379289
 20
-46.7328945586
 10
-66.4390595827
 20
-46.7373841247
  0
LINE
  5
6C5
100
AcDbEntity
  8
RACCORDO
100
AcDbLine
 62
7
  6
CONTINUOUS
 10
-66.8132261754
 20
-48.3962787033
 11
-66.8131089413
 21
-48.3959620828
  0
LINE
  5
6C6
100
AcDbEntity
  8
RACCORDO
100
AcDbLine
 62
7
  6
CONTINUOUS
 10
-66.8135984428
 20
-48.3972739101
 11
-66.8134704096
 21
-48.396933393
  0
LWPOLYLINE
  5
6C7
100
AcDbEntity
  8
RACCORDO
100
AcDbPolyline
 62
253
  6
CONTINUOUS
 90
13
 70
0
 10
-62.7094032092
 20
-24.7844556835
 10
-62.7109269129
 20
-24.7868444123
 10
-62.7154825462
 20
-24.7892088726
 10
-62.7230238329
 20
-24.7915250422
 10
-62.7334741685
 20
-24.7937693898
 10
-62.7467273981
 20
-24.7959191133
 10
-62.7626488951
 20
-24.7979523721
 10
-62.7810769286
 20
-24.7998485085
 10
-62.8018243061
 20
-24.8015882577
 10
-62.8246802753
 20
-24.8031539436
 10
-62.8494126647
 20
-24.8045296581
 10
-62.875770242
 20
-24.8057014229
 10
-62.9034852662
 20
-24.8066573314
  0
LWPOLYLINE
  5
6C8
100
AcDbEntity
  8
RACCORDO
100
AcDbPolyline
 62
253
  6
CONTINUOUS
 90
13
 70
0
 10
-62.7094032092
 20
21.6156812849
 10
-62.7109269162
 20
21.6180688115
 10
-62.7154825593
 20
21.6204321008
 10
-62.7230238621
 20
21.6227471499
 10
-62.7334742196
 20
21.6249904503
 10
-62.7467274766
 20
21.6271392142
 10
-62.762649006
 20
21.6291716067
 10
-62.7810770761
 20
21.6310669865
 10
-62.8018244937
 20
21.6328061043
 10
-62.8246805056
 20
21.6343712864
 10
-62.8494129392
 20
21.6357466334
 10
-62.8757705615
 20
21.6369181822
 10
-62.9034856305
 20
21.6378740356
  0
LWPOLYLINE
  5
6C9
100
AcDbEntity
  8
RACCORDO
100
AcDbPolyline
 62
253
  6
CONTINUOUS
 90
6
 70
0
 10
-62.7094032092
 20
25.5589909224
 10
-62.7109585477
 20
25.5617707804
 10
-62.7156084364
 20
25.5645218143
 10
-62.7233046608
 20
25.567215499
 10
-62.7339674194
 20
25.5698239038
 10
-62.7474861509
 20
25.5723199825
  0
LWPOLYLINE
  5
6CA
100
AcDbEntity
  8
RACCORDO
100
AcDbPolyline
 62
253
  6
CONTINUOUS
 90
6
 70
0
 10
-62.7094032092
 20
25.5936540395
 10
-62.7109588555
 20
25.5964394795
 10
-62.7156096608
 20
25.5991960317
 10
-62.7233073917
 20
25.6018951081
 10
-62.7339722152
 20
25.6045087166
 10
-62.7474935268
 20
25.6070097515
  0
LWPOLYLINE
  5
6CB
100
AcDbEntity
  8
RACCORDO
100
AcDbPolyline
 62
7
  6
CONTINUOUS
 90
3
 70
0
 10
-66.8154148911
 20
45.2331294621
 10
-66.8156368566
 20
45.2336699104
 10
-66.8158728526
 20
45.2342387011
  0
LINE
  5
6CC
100
AcDbEntity
  8
RACCORDO
100
AcDbLine
 62
7
  6
CONTINUOUS
 10
-66.8150100536
 20
45.2321298372
 11
-66.8152071249
 21
45.2326187098
  0
LINE
  5
6CD
100
AcDbEntity
  8
RACCORDO
100
AcDbLine
 62
7
  6
CONTINUOUS
 10
-66.8146464448
 20
45.2312164173
 11
-66.8148231287
 21
45.2316621248
  0
LINE
  5
6CE
100
AcDbEntity
  8
RACCORDO
100
AcDbLine
 62
7
  6
CONTINUOUS
 10
-66.814316249
 20
45.23037395
 11
-66.8144776042
 21
45.2307871872
  0
LINE
  5
6CF
100
AcDbEntity
  8
RACCORDO
100
AcDbLine
 62
7
  6
CONTINUOUS
 10
-66.814014464
 20
45.2295930708
 11
-66.8141624333
 21
45.2299772502
  0
LINE
  5
6D0
100
AcDbEntity
  8
RACCORDO
100
AcDbLine
 62
7
  6
CONTINUOUS
 10
-66.8136030452
 20
45.2285117175
 11
-66.8137353686
 21
45.2288616184
  0
LINE
  5
6D1
100
AcDbEntity
  8
RACCORDO
100
AcDbLine
 62
7
  6
CONTINUOUS
 10
-66.8132306402
 20
45.227516333
 11
-66.8133511282
 21
45.2278400872
  0
LWPOLYLINE
  5
6D2
100
AcDbEntity
  8
RACCORDO
100
AcDbPolyline
 62
253
  6
CONTINUOUS
 90
10
 70
0
 10
-66.3249341896
 20
43.4660379769
 10
-66.3311176788
 20
43.4827638784
 10
-66.3392870592
 20
43.4986267972
 10
-66.3493243372
 20
43.5133976213
 10
-66.3610845404
 20
43.526863012
 10
-66.3743978114
 20
43.5388284858
 10
-66.389071861
 20
43.5491212233
 10
-66.4048947459
 20
43.557592565
 10
-66.4216379294
 20
43.5641201586
 10
-66.4390595826
 20
43.5686097264
  0
LWPOLYLINE
  5
6D3
100
AcDbEntity
  8
RACCORDO
100
AcDbPolyline
 62
253
  6
CONTINUOUS
 90
10
 70
0
 10
-66.4609894655
 20
44.0575572131
 10
-66.4671788334
 20
44.0744043461
 10
-66.4753538061
 20
44.0903851174
 10
-66.4853963093
 20
44.1052687103
 10
-66.4971612947
 20
44.1188401553
 10
-66.5104788357
 20
44.1309034348
 10
-66.5251565814
 20
44.1412843142
 10
-66.5409825346
 20
44.1498328586
 10
-66.5577281145
 20
44.1564255984
 10
-66.5751514572
 20
44.1609673124
  0
LINE
  5
6D4
100
AcDbEntity
  8
RACCORDO
100
AcDbLine
 62
7
  6
CONTINUOUS
 10
-66.8128878397
 20
45.2265864314
 11
-66.8129993366
 21
45.2268902978
  0
LWPOLYLINE
  5
6D5
100
AcDbEntity
  8
RACCORDO
100
AcDbPolyline
 62
253
  6
CONTINUOUS
 90
10
 70
0
 10
-66.7420612634
 20
44.9943435728
 10
-66.7480545788
 20
45.0107880204
 10
-66.7562045357
 20
45.0269021613
 10
-66.7662340117
 20
45.0419189328
 10
-66.7779972313
 20
45.0556205097
 10
-66.7913234616
 20
45.0678084097
 10
-66.8060196114
 20
45.0783062447
 10
-66.8218725934
 20
45.0869618717
 10
-66.8386523033
 20
45.093649726
 10
-66.8561153114
 20
45.0982728839
  0
LINE
  5
6D6
100
AcDbEntity
  8
RACCORDO
100
AcDbLine
 62
7
  6
CONTINUOUS
 10
-66.8124647081
 20
45.2254211955
 11
-66.8125675268
 21
45.2257060661
  0
LINE
  5
6D7
100
AcDbEntity
  8
RACCORDO
100
AcDbLine
 62
7
  6
CONTINUOUS
 10
-66.8120693228
 20
45.2243158381
 11
-66.8121660781
 21
45.2245877509
  0
LINE
  5
6D8
100
AcDbEntity
  8
RACCORDO
100
AcDbLine
 62
7
  6
CONTINUOUS
 10
-66.8116000217
 20
45.2229846173
 11
-66.8116922822
 21
45.2232478852
  0
LINE
  5
6D9
100
AcDbEntity
  8
RACCORDO
100
AcDbLine
 62
7
  6
CONTINUOUS
 10
-66.8110567266
 20
45.2214199984
 11
-66.8111464822
 21
45.2216800932
  0
LINE
  5
6DA
100
AcDbEntity
  8
RACCORDO
100
AcDbLine
 62
7
  6
CONTINUOUS
 10
-66.8098862823
 20
45.2179783496
 11
-66.8105198404
 21
45.2198521338
  0
LINE
  5
6DB
100
AcDbEntity
  8
RACCORDO
100
AcDbLine
 62
7
  6
CONTINUOUS
 10
-66.8090401819
 20
45.2154432326
 11
-66.8097019848
 21
45.2174290838
  0
LINE
  5
6DC
100
AcDbEntity
  8
RACCORDO
100
AcDbLine
 62
7
  6
CONTINUOUS
 10
-66.8073915685
 20
45.2104234396
 11
-66.8086476981
 21
45.2142566895
  0
LINE
  5
6DD
100
AcDbEntity
  8
RACCORDO
100
AcDbLine
 62
7
  6
CONTINUOUS
 10
-66.8046966613
 20
45.2020690028
 11
-66.8070564292
 21
45.2093929711
  0
LINE
  5
6DE
100
AcDbEntity
  8
RACCORDO
100
AcDbLine
 62
7
  6
CONTINUOUS
 10
-66.8026453438
 20
45.1956309264
 11
-66.8045597278
 21
45.2016409926
  0
LINE
  5
6DF
100
AcDbEntity
  8
RACCORDO
100
AcDbLine
 62
253
  6
CONTINUOUS
 10
-62.7157371682
 20
41.6773514312
 11
-62.7235914295
 21
41.7090698037
  0
LINE
  5
6E0
100
AcDbEntity
  8
RACCORDO
100
AcDbLine
 62
253
  6
CONTINUOUS
 10
-62.7235919354
 20
-44.8756928892
 11
-62.7344709779
 21
-44.9064560777
  0
LINE
  5
6E1
100
AcDbEntity
  8
RACCORDO
100
AcDbLine
 62
7
  6
CONTINUOUS
 10
-66.8140096559
 20
-48.3983549438
 11
-66.8138673678
 21
-48.3979830707
  0
LINE
  5
6E2
100
AcDbEntity
  8
RACCORDO
100
AcDbLine
 62
7
  6
CONTINUOUS
 10
-66.8143112582
 20
-48.3991355196
 11
-66.8141575387
 21
-48.3987389807
  0
LINE
  5
6E3
100
AcDbEntity
  8
RACCORDO
100
AcDbLine
 62
7
  6
CONTINUOUS
 10
-66.8146412265
 20
-48.3999775982
 11
-66.8144725056
 21
-48.3995485734
  0
LINE
  5
6E4
100
AcDbEntity
  8
RACCORDO
100
AcDbLine
 62
7
  6
CONTINUOUS
 10
-66.8150045556
 20
-48.4008905349
 11
-66.8148177784
 21
-48.4004230781
  0
LINE
  5
6E5
100
AcDbEntity
  8
RACCORDO
100
AcDbLine
 62
7
  6
CONTINUOUS
 10
-66.8154090504
 20
-48.4018895672
 11
-66.8152014638
 21
-48.401379125
  0
LINE
  5
6E6
100
AcDbEntity
  8
RACCORDO
100
AcDbLine
 62
7
  6
CONTINUOUS
 10
-66.815866589
 20
-48.40299808
 11
-66.815630815
 21
-48.4024296695
  0
LWPOLYLINE
  5
6E7
100
AcDbEntity
  8
RACCORDO
100
AcDbPolyline
 62
253
  6
CONTINUOUS
 90
6
 70
0
 10
-62.7094032092
 20
-28.7624284381
 10
-62.7109588556
 20
-28.7652138781
 10
-62.715609661
 20
-28.7679704303
 10
-62.723307392
 20
-28.7706695066
 10
-62.7339722157
 20
-28.7732831151
 10
-62.7474935273
 20
-28.7757841499
  0
LWPOLYLINE
  5
6E8
100
AcDbEntity
  8
RACCORDO
100
AcDbPolyline
 62
253
  6
CONTINUOUS
 90
6
 70
0
 10
-62.7094032092
 20
-28.727765321
 10
-62.7109585478
 20
-28.7305451973
 10
-62.7156084363
 20
-28.7332962492
 10
-62.7233046605
 20
-28.7359899512
 10
-62.7339674188
 20
-28.7385983724
 10
-62.7474861498
 20
-28.7410944663
  0
LINE
  5
6E9
100
AcDbEntity
  8
RACCORDO
100
AcDbLine
 62
253
  6
CONTINUOUS
 10
-69.5872908633
 20
21.9950924357
 11
-67.6205335288
 21
22.0113328007
  0
LINE
  5
6EA
100
AcDbEntity
  8
RACCORDO
100
AcDbLine
 62
253
  6
CONTINUOUS
 10
-69.8545667263
 20
22.1156117948
 11
-71.3973973586
 21
22.1156128007
  0
LINE
  5
6EB
100
AcDbEntity
  8
RACCORDO
100
AcDbLine
 62
253
  6
CONTINUOUS
 10
-66.9980992869
 20
21.8925465763
 11
-66.3002732326
 21
21.8568406094
  0
LINE
  5
6EC
100
AcDbEntity
  8
RACCORDO
100
AcDbLine
 62
253
  6
CONTINUOUS
 10
-67.4328320253
 20
22.000034124
 11
-67.6205939338
 21
22.0102192382
  0
LINE
  5
6ED
100
AcDbEntity
  8
RACCORDO
100
AcDbLine
 62
253
  6
CONTINUOUS
 10
-66.3002732326
 20
21.8568406094
 11
-65.6067124889
 21
21.818327884
  0
LINE
  5
6EE
100
AcDbEntity
  8
RACCORDO
100
AcDbLine
 62
253
  6
CONTINUOUS
 10
-65.6067124889
 20
21.818327884
 11
-64.9188432028
 21
21.7770875612
  0
LINE
  5
6EF
100
AcDbEntity
  8
RACCORDO
100
AcDbLine
 62
253
  6
CONTINUOUS
 10
-64.9188432028
 20
21.7770875612
 11
-64.238082614
 21
21.7332046165
  0
LINE
  5
6F0
100
AcDbEntity
  8
RACCORDO
100
AcDbLine
 62
253
  6
CONTINUOUS
 10
-64.238082614
 20
21.7332046165
 11
-63.5658358376
 21
21.6867697084
  0
LINE
  5
6F1
100
AcDbEntity
  8
RACCORDO
100
AcDbLine
 62
253
  6
CONTINUOUS
 10
-63.5658358376
 20
21.6867697084
 11
-62.9034852533
 21
21.637878469
  0
LWPOLYLINE
  5
6F2
100
AcDbEntity
  8
RACCORDO
100
AcDbPolyline
 62
253
  6
CONTINUOUS
 90
10
 70
0
 10
-67.3129875339
 20
21.9878514975
 10
-67.3201215674
 20
21.9894938935
 10
-67.3291888468
 20
21.9911228307
 10
-67.3400585252
 20
21.9927117086
 10
-67.3525737212
 20
21.9942345052
 10
-67.3665537843
 20
21.9956661541
 10
-67.3817969047
 20
21.9969829054
 10
-67.3980830284
 20
21.9981626695
 10
-67.4151770354
 20
21.999185336
 10
-67.4328321365
 20
22.0000330638
  0
LINE
  5
6F3
100
AcDbEntity
  8
RACCORDO
100
AcDbLine
 62
253
  6
CONTINUOUS
 10
-67.3129874677
 20
21.9878525968
 11
-66.9980993057
 21
21.8925465142
  0
LWPOLYLINE
  5
6F4
100
AcDbEntity
  8
RACCORDO
100
AcDbPolyline
 62
253
  6
CONTINUOUS
 90
5
 70
0
 10
-66.9250133988
 20
45.3242520001
 10
-66.9242764504
 20
45.3226288095
 10
-66.9226064428
 20
45.317869071
 10
-66.9200035442
 20
45.3099737931
 10
-66.9164676356
 20
45.2989440145
  0
LWPOLYLINE
  5
6F5
100
AcDbEntity
  8
RACCORDO
100
AcDbPolyline
 62
7
  6
CONTINUOUS
 90
31
 70
0
 10
-66.8161237554
 20
45.2348369478
 10
-66.8163948843
 20
45.2354760622
 10
-66.8166858616
 20
45.2361536359
 10
-66.8169982201
 20
45.2368716254
 10
-66.8173406085
 20
45.2376477804
 10
-66.8177120088
 20
45.2384772246
 10
-66.8181154407
 20
45.239363955
 10
-66.8185665733
 20
45.2403385653
 10
-66.8190650901
 20
45.2413955059
 10
-66.8196151889
 20
45.2425384198
 10
-66.8202412733
 20
45.2438107239
 10
-66.8209418316
 20
45.2452002427
 10
-66.8217259688
 20
45.2467151478
 10
-66.8226382312
 20
45.2484271477
 10
-66.8236742607
 20
45.2503099866
 10
-66.8248542592
 20
45.2523806297
 10
-66.8262700281
 20
45.2547694274
 10
-66.8279091735
 20
45.2574161401
 10
-66.8298205736
 20
45.2603563632
 10
-66.8322174208
 20
45.2638439942
 10
-66.835103214
 20
45.2677821769
 10
-66.8385732487
 20
45.2721869111
 10
-66.8430563841
 20
45.2774151748
 10
-66.8487715944
 20
45.2834358245
 10
-66.8557697753
 20
45.2899797557
 10
-66.8643101854
 20
45.2969322644
 10
-66.8747540831
 20
45.3041430475
 10
-66.8870456207
 20
45.3110977496
 10
-66.90072123
 20
45.3171711485
 10
-66.9158058356
 20
45.3220890407
 10
-66.9250134002
 20
45.3242519995
  0
LINE
  5
6F6
100
AcDbEntity
  8
RACCORDO
100
AcDbLine
 62
253
  6
CONTINUOUS
 10
-62.7235918356
 20
41.7069185677
 11
-62.7344709772
 21
41.7376816798
  0
LWPOLYLINE
  5
6F7
100
AcDbEntity
  8
RACCORDO
100
AcDbPolyline
 62
7
  6
CONTINUOUS
 90
3
 70
0
 10
-66.819615189
 20
-48.4113128185
 10
-66.8190650901
 20
-48.4101699046
 10
-66.8185665734
 20
-48.409112964
  0
LINE
  5
6F8
100
AcDbEntity
  8
RACCORDO
100
AcDbLine
 62
253
  6
CONTINUOUS
 10
-62.7344718653
 20
-44.9043040859
 11
-62.7482605038
 21
-44.9338092179
  0
LINE
  5
6F9
100
AcDbEntity
  8
RACCORDO
100
AcDbLine
 62
253
  6
CONTINUOUS
 10
-67.3129874677
 20
-25.1566269954
 11
-66.9980993057
 21
-25.0613209128
  0
LINE
  5
6FA
100
AcDbEntity
  8
RACCORDO
100
AcDbLine
 62
253
  6
CONTINUOUS
 10
-67.4272339649
 20
26.0667613114
 11
-69.3962212431
 21
26.0468929469
  0
LINE
  5
6FB
100
AcDbEntity
  8
RACCORDO
100
AcDbLine
 62
253
  6
CONTINUOUS
 10
-66.8070077904
 20
25.9229753392
 11
-66.1433947238
 21
25.8794736774
  0
LINE
  5
6FC
100
AcDbEntity
  8
RACCORDO
100
AcDbLine
 62
253
  6
CONTINUOUS
 10
-66.8088577593
 20
25.888617681
 11
-66.1449117216
 21
25.8450526728
  0
LINE
  5
6FD
100
AcDbEntity
  8
RACCORDO
100
AcDbLine
 62
253
  6
CONTINUOUS
 10
-67.2413604805
 20
26.0191038809
 11
-67.4296379686
 21
26.032200034
  0
LINE
  5
6FE
100
AcDbEntity
  8
RACCORDO
100
AcDbLine
 62
253
  6
CONTINUOUS
 10
-66.1449117216
 20
25.8450526728
 11
-65.4847885688
 21
25.7985304043
  0
LINE
  5
6FF
100
AcDbEntity
  8
RACCORDO
100
AcDbLine
 62
253
  6
CONTINUOUS
 10
-66.1433947238
 20
25.8794736774
 11
-65.48360028
 21
25.8330134751
  0
LINE
  5
700
100
AcDbEntity
  8
RACCORDO
100
AcDbLine
 62
253
  6
CONTINUOUS
 10
-65.48360028
 20
25.8330134751
 11
-64.8288526249
 21
25.7836811836
  0
LINE
  5
701
100
AcDbEntity
  8
RACCORDO
100
AcDbLine
 62
253
  6
CONTINUOUS
 10
-65.4847885688
 20
25.7985304043
 11
-64.829718325
 21
25.7491375299
  0
LINE
  5
702
100
AcDbEntity
  8
RACCORDO
100
AcDbLine
 62
253
  6
CONTINUOUS
 10
-64.829718325
 20
25.7491375299
 11
-64.1809230597
 21
25.6969661897
  0
LINE
  5
703
100
AcDbEntity
  8
RACCORDO
100
AcDbLine
 62
253
  6
CONTINUOUS
 10
-64.8288526249
 20
25.7836811836
 11
-64.1803729665
 21
25.7315689724
  0
LINE
  5
704
100
AcDbEntity
  8
RACCORDO
100
AcDbLine
 62
253
  6
CONTINUOUS
 10
-64.1809230597
 20
25.6969661897
 11
-63.5396196083
 21
25.6421143165
  0
LINE
  5
705
100
AcDbEntity
  8
RACCORDO
100
AcDbLine
 62
253
  6
CONTINUOUS
 10
-64.1803729665
 20
25.7315689724
 11
-63.5393704578
 21
25.6767731374
  0
LINE
  5
706
100
AcDbEntity
  8
RACCORDO
100
AcDbLine
 62
253
  6
CONTINUOUS
 10
-63.5393704578
 20
25.6767731374
 11
-62.9070379603
 21
25.6193955162
  0
LINE
  5
707
100
AcDbEntity
  8
RACCORDO
100
AcDbLine
 62
253
  6
CONTINUOUS
 10
-63.5396196083
 20
25.6421143165
 11
-62.9070038375
 21
25.5846843692
  0
LWPOLYLINE
  5
708
100
AcDbEntity
  8
RACCORDO
100
AcDbPolyline
 62
253
  6
CONTINUOUS
 90
8
 70
0
 10
-62.7474861509
 20
25.5723199825
 10
-62.7637206805
 20
25.5746778535
 10
-62.7825026737
 20
25.5768730682
 10
-62.8036373814
 20
25.5788828648
 10
-62.8269056594
 20
25.5806864038
 10
-62.8520662407
 20
25.5822649845
 10
-62.8788582372
 20
25.5836022388
 10
-62.9070038445
 20
25.5846843009
  0
LWPOLYLINE
  5
709
100
AcDbEntity
  8
RACCORDO
100
AcDbPolyline
 62
253
  6
CONTINUOUS
 90
8
 70
0
 10
-62.7474935268
 20
25.6070097515
 10
-62.7637310972
 20
25.6093722746
 10
-62.782516527
 20
25.6115717843
 10
-62.8036549929
 20
25.6135854695
 10
-62.8269272685
 20
25.6153924463
 10
-62.8520919976
 20
25.6169739747
 10
-62.8788881974
 20
25.6183136525
 10
-62.9070379651
 20
25.6193975862
  0
LWPOLYLINE
  5
70A
100
AcDbEntity
  8
RACCORDO
100
AcDbPolyline
 62
253
  6
CONTINUOUS
 90
10
 70
0
 10
-67.1218211651
 20
26.0018909552
 10
-67.1289160812
 20
26.0041044804
 10
-67.1379445872
 20
26.0063139022
 10
-67.1487762698
 20
26.0084873168
 10
-67.1612546697
 20
26.0105933406
 10
-67.1751995413
 20
26.0126015633
 10
-67.1904094568
 20
26.0144829873
 10
-67.206664715
 20
26.0162104465
 10
-67.2237305156
 20
26.017758999
 10
-67.2413603501
 20
26.0191062869
  0
LINE
  5
70B
100
AcDbEntity
  8
RACCORDO
100
AcDbLine
 62
253
  6
CONTINUOUS
 10
-67.1218211617
 20
26.0018909558
 11
-66.8088577593
 21
25.888617681
  0
LWPOLYLINE
  5
70C
100
AcDbEntity
  8
RACCORDO
100
AcDbPolyline
 62
253
  6
CONTINUOUS
 90
12
 70
0
 10
-62.7109894913
 20
29.4373200335
 10
-62.7157315621
 20
29.4420137936
 10
-62.7235792733
 20
29.4466077481
 10
-62.7344496337
 20
29.451053315
 10
-62.7482276869
 20
29.4553034814
 10
-62.764767727
 20
29.459313301
 10
-62.7838948396
 20
29.4630403691
 10
-62.8054067514
 20
29.4664452711
 10
-62.8290759693
 20
29.4694919994
 10
-62.8546521862
 20
29.4721483342
 10
-62.8818649283
 20
29.4743861843
 10
-62.9104264149
 20
29.4761818838
  0
LINE
  5
70D
100
AcDbEntity
  8
RACCORDO
100
AcDbLine
 62
253
  6
CONTINUOUS
 10
-62.7344717425
 20
41.7355297953
 11
-62.7482605029
 21
41.7650348203
  0
LINE
  5
70E
100
AcDbEntity
  8
RACCORDO
100
AcDbLine
 62
253
  6
CONTINUOUS
 10
-62.7482618682
 20
-44.9316565299
 11
-62.7648140546
 21
-44.9596141074
  0
LWPOLYLINE
  5
70F
100
AcDbEntity
  8
RACCORDO
100
AcDbPolyline
 62
253
  6
CONTINUOUS
 90
12
 70
0
 10
-62.7109895097
 20
-32.6060944276
 10
-62.7157315965
 20
-32.6107881831
 10
-62.7235793211
 20
-32.6153821331
 10
-62.7344496922
 20
-32.6198276958
 10
-62.7482277534
 20
-32.6240778585
 10
-62.7647677988
 20
-32.6280876748
 10
-62.783894914
 20
-32.6318147404
 10
-62.805406826
 20
-32.6352196408
 10
-62.8290760417
 20
-32.6382663685
 10
-62.8546522543
 20
-32.640922704
 10
-62.8818649902
 20
-32.6431605559
 10
-62.910426469
 20
-32.6449562586
  0
LINE
  5
710
100
AcDbEntity
  8
RACCORDO
100
AcDbLine
 62
253
  6
CONTINUOUS
 10
-66.8876087396
 20
-33.1400073682
 11
-66.5802087551
 21
-32.9684142881
  0
LINE
  5
711
100
AcDbEntity
  8
RACCORDO
100
AcDbLine
 62
253
  6
CONTINUOUS
 10
-67.1218211617
 20
-29.1706653544
 11
-66.8088577593
 21
-29.0573920796
  0
LWPOLYLINE
  5
712
100
AcDbEntity
  8
RACCORDO
100
AcDbPolyline
 62
253
  6
CONTINUOUS
 90
10
 70
0
 10
-67.1218211598
 20
-29.1706653551
 10
-67.1289160766
 20
-29.1728788794
 10
-67.1379445834
 20
-29.1750883006
 10
-67.1487762667
 20
-29.1772617148
 10
-67.1612546673
 20
-29.1793677383
 10
-67.1751995396
 20
-29.1813759609
 10
-67.1904094556
 20
-29.1832573849
 10
-67.2066647144
 20
-29.1849848443
 10
-67.2237305155
 20
-29.1865333971
 10
-67.2413603503
 20
-29.1878806853
  0
LINE
  5
713
100
AcDbEntity
  8
RACCORDO
100
AcDbLine
 62
253
  6
CONTINUOUS
 10
-67.1907139455
 20
30.0667613114
 11
-69.1638343223
 21
30.0354884327
  0
LWPOLYLINE
  5
714
100
AcDbEntity
  8
RACCORDO
100
AcDbPolyline
 62
253
  6
CONTINUOUS
 90
10
 70
0
 10
-66.5777263285
 20
29.8390290059
 10
-66.162003215
 20
29.8059988774
 10
-65.7476400144
 20
29.771082983
 10
-65.3349391543
 20
29.7343067954
 10
-64.9242007927
 20
29.6956996002
 10
-64.5157257873
 20
29.655287077
 10
-64.1098154153
 20
29.61309145
 10
-63.7067669189
 20
29.5691412827
 10
-63.3068733509
 20
29.5234712858
 10
-62.9104265056
 20
29.4761150129
  0
LWPOLYLINE
  5
715
100
AcDbEntity
  8
RACCORDO
100
AcDbPolyline
 62
253
  6
CONTINUOUS
 90
10
 70
0
 10
-66.5802005366
 20
29.7996546125
 10
-66.1642030417
 20
29.7659458514
 10
-65.7495616406
 20
29.7304453172
 10
-65.3365793086
 20
29.6931807545
 10
-64.9255549556
 20
29.6542120823
 10
-64.5167917701
 20
29.6135389234
 10
-64.1105970603
 20
29.5710988157
 10
-63.7072705695
 20
29.5268913948
 10
-63.3071041982
 20
29.4809801351
 10
-62.9103903949
 20
29.433398645
  0
LINE
  5
716
100
AcDbEntity
  8
RACCORDO
100
AcDbLine
 62
253
  6
CONTINUOUS
 10
-67.0066083547
 20
29.9957596965
 11
-67.1941633519
 21
30.0124065127
  0
LWPOLYLINE
  5
717
100
AcDbEntity
  8
RACCORDO
100
AcDbPolyline
 62
253
  6
CONTINUOUS
 90
8
 70
0
 10
-62.748219867
 20
29.4126511233
 10
-62.764756687
 20
29.4166364324
 10
-62.7838801636
 20
29.4203407828
 10
-62.8053881037
 20
29.4237250083
 10
-62.829053103
 20
29.4267533273
 10
-62.8546249505
 20
29.4293937212
 10
-62.8818332743
 20
29.4316182732
 10
-62.9103903997
 20
29.4334034629
  0
LWPOLYLINE
  5
718
100
AcDbEntity
  8
RACCORDO
100
AcDbPolyline
 62
253
  6
CONTINUOUS
 90
10
 70
0
 10
-66.8876062711
 20
29.971271605
 10
-66.8946159438
 20
29.9746166761
 10
-66.9035629413
 20
29.9779129372
 10
-66.9143180265
 20
29.9811128011
 10
-66.9267258458
 20
29.9841700732
 10
-66.9406071721
 20
29.9870406185
 10
-66.9557614947
 20
29.9896829993
 10
-66.9719699148
 20
29.9920590733
 10
-66.9889983076
 20
29.9941345452
 10
-67.0066007043
 20
29.9958794615
  0
LINE
  5
719
100
AcDbEntity
  8
RACCORDO
100
AcDbLine
 62
253
  6
CONTINUOUS
 10
-66.8876091
 20
29.9712273254
 11
-66.5802097922
 21
29.7996380314
  0
LINE
  5
71A
100
AcDbEntity
  8
RACCORDO
100
AcDbLine
 62
253
  6
CONTINUOUS
 10
-62.748261728
 20
41.7628822717
 11
-62.7648140536
 21
41.79083971
  0
LINE
  5
71B
100
AcDbEntity
  8
RACCORDO
100
AcDbLine
 62
253
  6
CONTINUOUS
 10
-62.764815981
 20
-44.957460703
 11
-62.7839564218
 21
-44.9835976182
  0
LWPOLYLINE
  5
71C
100
AcDbEntity
  8
RACCORDO
100
AcDbPolyline
 62
253
  6
CONTINUOUS
 90
10
 70
0
 10
-66.8876062723
 20
-33.1400460036
 10
-66.8946159856
 20
-33.1433910587
 10
-66.9035630145
 20
-33.1466873054
 10
-66.9143181222
 20
-33.1498871568
 10
-66.926725955
 20
-33.1529444186
 10
-66.9406072865
 20
-33.1558149558
 10
-66.9557616061
 20
-33.1584573309
 10
-66.971970016
 20
-33.1608334016
 10
-66.9889983923
 20
-33.1629088725
 10
-67.0066007671
 20
-33.1646537901
  0
LINE
  5
71D
100
AcDbEntity
  8
RACCORDO
100
AcDbLine
 62
253
  6
CONTINUOUS
 10
-62.7648158287
 20
41.788686478
 11
-62.7839564208
 21
41.814823221
  0
LWPOLYLINE
  5
71E
100
AcDbEntity
  8
RACCORDO
100
AcDbPolyline
 62
7
  6
CONTINUOUS
 90
24
 70
0
 10
-66.8487217045
 20
-48.4521604713
 10
-66.8430128981
 20
-48.44614113
 10
-66.8385354089
 20
-48.4409150588
 10
-66.835070567
 20
-48.4365134903
 10
-66.8321891274
 20
-48.4325784241
 10
-66.8297956716
 20
-48.4290934019
 10
-66.8278869968
 20
-48.426155531
 10
-66.8262501713
 20
-48.4235110034
 10
-66.8248363766
 20
-48.4211242058
 10
-66.8236580113
 20
-48.4190553352
 10
-66.8226234059
 20
-48.4171741398
 10
-66.8217123904
 20
-48.4154636627
 10
-66.8209293193
 20
-48.4139501289
 10
-66.8202297076
 20
-48.4125618852
 10
-66.8196044679
 20
-48.4112907714
 10
-66.8190551081
 20
-48.4101489419
 10
-66.8185572464
 20
-48.4090929912
 10
-66.8181066885
 20
-48.4081192706
 10
-66.8177037558
 20
-48.4072333302
 10
-66.8173327982
 20
-48.4064045984
 10
-66.8169907976
 20
-48.4056290733
 10
-66.816678775
 20
-48.4049116334
 10
-66.8163881009
 20
-48.4042345626
 10
-66.816117247
 20
-48.4035959114
  0
LINE
  5
71F
100
AcDbEntity
  8
RACCORDO
100
AcDbLine
 62
253
  6
CONTINUOUS
 10
-62.7830582248
 20
-45.5153929691
 11
-62.8043435747
 21
-45.5374024063
  0
LINE
  5
720
100
AcDbEntity
  8
RACCORDO
100
AcDbLine
 62
253
  6
CONTINUOUS
 10
-62.7839589827
 20
-44.9814434751
 11
-62.8054882499
 21
-45.0033509951
  0
LWPOLYLINE
  5
721
100
AcDbEntity
  8
RACCORDO
100
AcDbPolyline
 62
253
  6
CONTINUOUS
 90
6
 70
0
 10
-62.7839588235
 20
41.8126692835
 10
-62.805488089
 20
41.8345768363
 10
-62.8291757433
 20
41.8541772509
 10
-62.8547710588
 20
41.8712630618
 10
-62.8820031156
 20
41.8856534203
 10
-62.9105836696
 20
41.8971960082
  0
LWPOLYLINE
  5
722
100
AcDbEntity
  8
RACCORDO
100
AcDbPolyline
 62
253
  6
CONTINUOUS
 90
5
 70
0
 10
-62.8043476257
 20
-45.5361605592
 10
-62.8277770153
 20
-45.5558886725
 10
-62.8531047027
 20
-45.573129249
 10
-62.8800659712
 20
-45.5877020959
 10
-62.9083790305
 20
-45.5994549024
  0
LWPOLYLINE
  5
723
100
AcDbEntity
  8
RACCORDO
100
AcDbPolyline
 62
253
  6
CONTINUOUS
 90
5
 70
0
 10
-62.805484996
 20
-45.0055059006
 10
-62.8291719113
 20
-45.0251070696
 10
-62.8547664572
 20
-45.0421936598
 10
-62.881997732
 20
-45.0565848207
 10
-62.9105775107
 20
-45.0681282312
  0
LWPOLYLINE
  5
724
100
AcDbEntity
  8
RACCORDO
100
AcDbPolyline
 62
7
  6
CONTINUOUS
 90
3
 70
0
 10
-66.8642479531
 20
-48.4656596643
 10
-66.855713057
 20
-48.4587043879
 10
-66.8487217045
 20
-48.4521604713
  0
LWPOLYLINE
  5
725
100
AcDbEntity
  8
RACCORDO
100
AcDbPolyline
 62
253
  6
CONTINUOUS
 90
4
 70
0
 10
-62.8291759013
 20
-45.0229513779
 10
-62.8547712095
 20
-45.0400371588
 10
-62.8820032551
 20
-45.0544274895
 10
-62.9105837945
 20
-45.0659700522
  0
LWPOLYLINE
  5
726
100
AcDbEntity
  8
RACCORDO
100
AcDbPolyline
 62
253
  6
CONTINUOUS
 90
4
 70
0
 10
-62.8291719104
 20
41.8563326728
 10
-62.8547664563
 20
41.8734192631
 10
-62.8819977312
 20
41.8878104241
 10
-62.9105775099
 20
41.8993538348
  0
LINE
  5
727
100
AcDbEntity
  8
RACCORDO
100
AcDbLine
 62
7
  6
CONTINUOUS
 10
-66.8746886489
 20
-48.4728762181
 11
-66.8642479531
 21
-48.4656596643
  0
LWPOLYLINE
  5
728
100
AcDbEntity
  8
RACCORDO
100
AcDbPolyline
 62
7
  6
CONTINUOUS
 90
11
 70
0
 10
-62.8640179252
 20
-46.602845722
 10
-62.8391519786
 20
-46.5874390595
 10
-62.8159047113
 20
-46.5696839276
 10
-62.794497147
 20
-46.5497491357
 10
-62.7751328176
 20
-46.5278242164
 10
-62.7579958291
 20
-46.5041176234
 10
-62.7432491103
 20
-46.4788547489
 10
-62.7310328646
 20
-46.4522757821
 10
-62.7214632368
 20
-46.4246334248
 10
-62.7146312084
 20
-46.3961904886
 10
-62.7108311492
 20
-46.368866966
  0
LINE
  5
729
100
AcDbEntity
  8
RACCORDO
100
AcDbLine
 62
7
  6
CONTINUOUS
 10
-62.8902663343
 20
-46.6157575186
 11
-62.8640179252
 21
-46.602845722
  0
LINE
  5
72A
100
AcDbEntity
  8
DRAFT
100
AcDbLine
 62
7
  6
CONTINUOUS
 10
-67.0906977617
 20
45.6656126364
 11
-69.094405518
 21
45.4903109229
  0
LINE
  5
72B
100
AcDbEntity
  8
RACCORDO
100
AcDbLine
 62
253
  6
CONTINUOUS
 10
-66.7426900193
 20
44.5005200548
 11
-68.7463069485
 21
44.3259736958
  0
LINE
  5
72C
100
AcDbEntity
  8
RACCORDO
100
AcDbLine
 62
253
  6
CONTINUOUS
 10
-66.606477636
 20
43.9056128007
 11
-68.6103691352
 21
43.7322558863
  0
LWPOLYLINE
  5
72D
100
AcDbEntity
  8
RACCORDO
100
AcDbPolyline
 62
253
  6
CONTINUOUS
 90
10
 70
0
 10
-66.0695343786
 20
42.6196153813
 10
-65.7117356111
 20
42.5719704339
 10
-65.3551887577
 20
42.5160831137
 10
-65.0000874481
 20
42.4519837214
 10
-64.6466239073
 20
42.3797065857
 10
-64.2949907207
 20
42.2992913103
 10
-63.9453807028
 20
42.2107829031
 10
-63.5979843075
 20
42.114229991
 10
-63.2529895522
 20
42.0096846448
 10
-62.9105837664
 20
41.8972037217
  0
LWPOLYLINE
  5
72E
100
AcDbEntity
  8
RACCORDO
100
AcDbPolyline
 62
253
  6
CONTINUOUS
 90
10
 70
0
 10
-66.0699620556
 20
42.6218987336
 10
-65.712107037
 20
42.5742177239
 10
-65.355506303
 20
42.5183025662
 10
-65.0003535617
 20
42.4541835539
 10
-64.6468418354
 20
42.381898847
 10
-64.2951630638
 20
42.3014841891
 10
-63.9455079755
 20
42.2129730506
 10
-63.5980663803
 20
42.1164102201
 10
-63.2530270906
 20
42.0118516119
 10
-62.9105775097
 20
41.899354089
  0
LWPOLYLINE
  5
72F
100
AcDbEntity
  8
RACCORDO
100
AcDbPolyline
 62
253
  6
CONTINUOUS
 90
5
 70
0
 10
-66.2052392913
 20
43.2057749564
 10
-65.8314289567
 20
43.1554651295
 10
-65.4589800114
 20
43.0961016197
 10
-65.0881131646
 20
43.0277195498
 10
-64.7190475233
 20
42.9503592317
  0
LINE
  5
730
100
AcDbEntity
  8
SUPERFICI
100
AcDbLine
 62
7
  6
CONTINUOUS
 10
-66.1968804462
 20
44.3167855614
 11
-66.5564291268
 21
44.3656126331
  0
LWPOLYLINE
  5
731
100
AcDbEntity
  8
RACCORDO
100
AcDbPolyline
 62
253
  6
CONTINUOUS
 90
10
 70
0
 10
-66.4864211971
 20
44.1407529499
 10
-66.0792059511
 20
44.0849325667
 10
-65.6735886726
 20
44.0183387138
 10
-65.2698548837
 20
43.9410157302
 10
-64.86827743
 20
43.8530128447
 10
-64.4691508144
 20
43.7543915524
 10
-64.0727902469
 20
43.6452286045
 10
-63.6794856062
 20
43.525604636
 10
-63.2895019947
 20
43.3956010824
 10
-62.903113553
 20
43.2553096485
  0
LINE
  5
732
100
AcDbEntity
  8
SUPERFICI
100
AcDbLine
 62
7
  6
CONTINUOUS
 10
-65.7657440962
 20
44.246873071
 11
-66.2034751476
 21
44.3177583908
  0
LINE
  5
733
100
AcDbEntity
  8
SUPERFICI
100
AcDbLine
 62
7
  6
CONTINUOUS
 10
-65.3367488122
 20
44.164846013
 11
-65.77230884
 21
44.2480312575
  0
LINE
  5
734
100
AcDbEntity
  8
RACCORDO
100
AcDbLine
 62
253
  6
CONTINUOUS
 10
-66.4390596063
 20
43.5686098557
 11
-66.5707051371
 21
43.5942746241
  0
LINE
  5
735
100
AcDbEntity
  8
RACCORDO
100
AcDbLine
 62
253
  6
CONTINUOUS
 10
-66.5751515133
 20
44.160967501
 11
-66.6612392669
 21
44.1779707752
  0
LINE
  5
736
100
AcDbEntity
  8
RACCORDO
100
AcDbLine
 62
253
  6
CONTINUOUS
 10
-66.9257661789
 20
45.1122748475
 11
-66.8546349231
 21
45.0979752802
  0
LINE
  5
737
100
AcDbEntity
  8
RACCORDO
100
AcDbLine
 62
7
  6
CONTINUOUS
 10
-66.9931496091
 20
45.3380072124
 11
-66.9250133988
 21
45.3242520001
  0
LINE
  5
738
100
AcDbEntity
  8
SUPERFICI
100
AcDbLine
 62
7
  6
CONTINUOUS
 10
-64.91023487
 20
44.0707695392
 11
-65.3432783862
 21
44.1661886399
  0
LWPOLYLINE
  5
739
100
AcDbEntity
  8
RACCORDO
100
AcDbPolyline
 62
253
  6
CONTINUOUS
 90
6
 70
0
 10
-64.7190475233
 20
42.9503592317
 10
-64.3520024701
 20
42.8640665758
 10
-63.9871974949
 20
42.7688932239
 10
-63.6248494
 20
42.6648958663
 10
-63.2651722109
 20
42.5521360474
 10
-62.9083790294
 20
42.4306806737
  0
LINE
  5
73A
100
AcDbEntity
  8
SUPERFICI
100
AcDbLine
 62
7
  6
CONTINUOUS
 10
-64.4865406836
 20
43.9647183828
 11
-64.9167240899
 21
44.072295543
  0
LINE
  5
73B
100
AcDbEntity
  8
SUPERFICI
100
AcDbLine
 62
7
  6
CONTINUOUS
 10
-64.0660025329
 20
43.8467768144
 11
-64.4929843973
 21
43.9664265543
  0
LINE
  5
73C
100
AcDbEntity
  8
SUPERFICI
100
AcDbLine
 62
7
  6
CONTINUOUS
 10
-63.6489540762
 20
43.71703852
 11
-64.0723956239
 21
43.8486657995
  0
LINE
  5
73D
100
AcDbEntity
  8
SUPERFICI
100
AcDbLine
 62
7
  6
CONTINUOUS
 10
-63.2357260899
 20
43.5756065105
 11
-63.6552914682
 21
43.7191068205
  0
LINE
  5
73E
100
AcDbEntity
  8
SUPERFICI
100
AcDbLine
 62
7
  6
CONTINUOUS
 10
-62.9018093621
 20
43.4516955636
 11
-63.242002751
 21
43.5778524859
  0
LINE
  5
73F
100
AcDbEntity
  8
RACCORDO
100
AcDbLine
 62
7
  6
CONTINUOUS
 10
-62.8902662822
 20
43.4469830936
 11
-62.9018093615
 21
43.4516955655
  0
LINE
  5
740
100
AcDbEntity
  8
RACCORDO
100
AcDbLine
 62
7
  6
CONTINUOUS
 10
-62.8640179085
 20
43.4340713142
 11
-62.8902663473
 21
43.4469831256
  0
LWPOLYLINE
  5
741
100
AcDbEntity
  8
RACCORDO
100
AcDbPolyline
 62
7
  6
CONTINUOUS
 90
3
 70
0
 10
-66.900657194
 20
-48.4859208363
 10
-66.8869793818
 20
-48.4798386615
 10
-66.8749044717
 20
-48.4729984772
  0
LINE
  5
742
100
AcDbEntity
  8
RACCORDO
100
AcDbLine
 62
7
  6
CONTINUOUS
 10
-62.9018093615
 20
-46.6204699641
 11
-62.8902662768
 21
-46.6157574903
  0
LINE
  5
743
100
AcDbEntity
  8
SUPERFICI
100
AcDbLine
 62
7
  6
CONTINUOUS
 10
-63.2420024007
 20
-46.7466267592
 11
-62.9018093621
 21
-46.6204699622
  0
LINE
  5
744
100
AcDbEntity
  8
SUPERFICI
100
AcDbLine
 62
7
  6
CONTINUOUS
 10
-63.6552911588
 20
-46.8878811181
 11
-63.2357264401
 21
-46.7443810345
  0
LINE
  5
745
100
AcDbEntity
  8
RACCORDO
100
AcDbLine
 62
253
  6
CONTINUOUS
 10
-63.2651722108
 20
-45.7209104461
 11
-62.9083790294
 21
-45.5994550723
  0
LINE
  5
746
100
AcDbEntity
  8
RACCORDO
100
AcDbLine
 62
7
  6
CONTINUOUS
 10
-66.9157479185
 20
-48.4908478798
 11
-66.900657194
 21
-48.4859208363
  0
LINE
  5
747
100
AcDbEntity
  8
RACCORDO
100
AcDbLine
 62
253
  6
CONTINUOUS
 10
-63.62493162
 20
-45.834963191
 11
-63.2652089034
 21
-45.7221795976
  0
LINE
  5
748
100
AcDbEntity
  8
SUPERFICI
100
AcDbLine
 62
7
  6
CONTINUOUS
 10
-64.0723953564
 20
-47.0174401191
 11
-63.6489543856
 21
-46.8858130196
  0
LINE
  5
749
100
AcDbEntity
  8
RACCORDO
100
AcDbLine
 62
253
  6
CONTINUOUS
 10
-63.9871974948
 20
-45.9376676225
 11
-63.6248493999
 21
-45.8336702649
  0
ARC
  5
74A
100
AcDbEntity
  8
RACCORDO
100
AcDbCircle
 62
7
  6
CONTINUOUS
 10
-68.4631570568
 20
-32.1455793037
 40
15.506482887
100
AcDbArc
 50
277.0631444388
 51
291.0171034519
  0
ARC
  5
74B
100
AcDbEntity
  8
RACCORDO
100
AcDbCircle
 62
7
  6
CONTINUOUS
 10
-70.9187868925
 20
-24.8176286662
 40
0.5
100
AcDbArc
 50
147.2094676228
 51
182.6659602721
  0
ARC
  5
74C
100
AcDbEntity
  8
RACCORDO
100
AcDbCircle
 62
7
  6
CONTINUOUS
 10
-69.0682585877
 20
-48.3602245899
 40
0.300000003
100
AcDbArc
 50
187.3292542578
 51
264.9999991747
  0
ARC
  5
74D
100
AcDbEntity
  8
RACCORDO
100
AcDbCircle
 62
7
  6
CONTINUOUS
 10
-63.0094032092
 20
-46.3404264928
 40
0.3
100
AcDbArc
 50
291.017099112
 51
359.9999843403
  0
ARC
  5
74E
100
AcDbEntity
  8
RACCORDO
100
AcDbCircle
 62
7
  6
CONTINUOUS
 10
-64.5094032092
 20
-4.9165672731
 40
0.2
100
AcDbArc
 50
179.9996715729
 51
259.9999999983
  0
ARC
  5
74F
100
AcDbEntity
  8
RACCORDO
100
AcDbCircle
 62
7
  6
CONTINUOUS
 10
-62.9094032092
 20
-5.6048610869
 40
0.2
100
AcDbArc
 50
0.0000000418
 51
80.0
  0
ARC
  5
750
100
AcDbEntity
  8
RACCORDO
100
AcDbCircle
 62
7
  6
CONTINUOUS
 10
-66.9546962988
 20
-48.3459926417
 40
0.15
100
AcDbArc
 50
281.4133659773
 51
316.163469103
  0
ARC
  5
751
100
AcDbEntity
  8
RACCORDO
100
AcDbCircle
 62
7
  6
CONTINUOUS
 10
-68.4631570568
 20
28.9768049051
 40
15.506482887
100
AcDbArc
 50
68.9828965478
 51
82.9368555612
  0
ARC
  5
752
100
AcDbEntity
  8
RACCORDO
100
AcDbCircle
 62
7
  6
CONTINUOUS
 10
-70.9187868925
 20
21.6488542677
 40
0.5
100
AcDbArc
 50
177.3340397279
 51
212.7905786272
  0
ARC
  5
753
100
AcDbEntity
  8
RACCORDO
100
AcDbCircle
 62
7
  6
CONTINUOUS
 10
-69.0682585877
 20
45.1914501913
 40
0.300000003
100
AcDbArc
 50
95.0000008253
 51
172.6707457422
  0
ARC
  5
754
100
AcDbEntity
  8
RACCORDO
100
AcDbCircle
 62
7
  6
CONTINUOUS
 10
-63.0094032092
 20
43.1716522582
 40
0.3
100
AcDbArc
 50
359.9999843263
 51
68.9828903875
  0
ARC
  5
755
100
AcDbEntity
  8
RACCORDO
100
AcDbCircle
 62
7
  6
CONTINUOUS
 10
-62.9094032092
 20
2.4360866884
 40
0.2
100
AcDbArc
 50
280.0
 51
360.0
  0
ARC
  5
756
100
AcDbEntity
  8
RACCORDO
100
AcDbCircle
 62
7
  6
CONTINUOUS
 10
-64.5094032092
 20
1.7477928745
 40
0.2
100
AcDbArc
 50
100.0000000028
 51
179.9995381719
  0
ARC
  5
757
100
AcDbEntity
  8
RACCORDO
100
AcDbCircle
 62
7
  6
CONTINUOUS
 10
-66.9546962988
 20
45.1772182431
 40
0.15
100
AcDbArc
 50
43.8365307924
 51
78.5866340227
  0
ARC
  5
758
100
AcDbEntity
  8
SUPERFICI
100
AcDbCircle
 62
7
  6
CONTINUOUS
 10
216.5885013308
 20
-11.6184949787
 40
288.3099624608
100
AcDbArc
 50
183.7534550463
 51
187.3199113039
  0
ARC
  5
759
100
AcDbEntity
  8
SUPERFICI
100
AcDbCircle
 62
7
  6
CONTINUOUS
 10
216.5885013308
 20
-11.6184949787
 40
288.3099624608
100
AcDbArc
 50
182.7168379444
 51
183.188599213
  0
ARC
  5
75A
100
AcDbEntity
  8
COPY_PUBLISH
100
AcDbCircle
 62
7
  6
CONTINUOUS
 10
428.0405967908
 20
-1.5843871993
 40
500.0
100
AcDbArc
 50
182.6659602313
 51
182.7168379444
  0
ARC
  5
75B
100
AcDbEntity
  8
COPY_PUBLISH
100
AcDbCircle
 62
7
  6
CONTINUOUS
 10
428.0405967908
 20
-1.5843871993
 40
500.0
100
AcDbArc
 50
177.2831620556
 51
177.3340397687
  0
ARC
  5
75C
100
AcDbEntity
  8
COPY_PUBLISH
100
AcDbCircle
 62
7
  6
CONTINUOUS
 10
216.5885013308
 20
8.4497205801
 40
288.3099624608
100
AcDbArc
 50
172.6800886961
 51
177.2831620556
  0
ENDSEC
  0
SECTION
  2
OBJECTS
  0
DICTIONARY
  5
C
100
AcDbDictionary
280
0
281
1
  3
ACAD_GROUP
350
D
  3
ACAD_MLINESTYLE
350
17
  3
ACAD_LAYOUT
350
1A
  3
ACAD_PLOTSETTINGS
350
19
  3
ACAD_PLOTSTYLENAME
350
E
  0
DICTIONARY
  5
D
102
{ACAD_REACTORS
330
C
102
}
100
AcDbDictionary
280
0
281
1
  0
ACDBDICTIONARYWDFLT
  5
E
102
{ACAD_REACTORS
330
C
102
}
100
AcDbDictionary
281
1
  3
Normal
350
F
100
AcDbDictionaryWithDefault
340
F
  0
DICTIONARY
  5
17
102
{ACAD_REACTORS
330
C
102
}
100
AcDbDictionary
280
0
281
1
  3
Standard
350
18
  0
DICTIONARY
  5
19
102
{ACAD_REACTORS
330
C
102
}
100
AcDbDictionary
281
1
  0
DICTIONARY
  5
1A
102
{ACAD_REACTORS
330
C
102
}
100
AcDbDictionary
281
1
  3
Model
350
75D
  3
Layout1
350
75E
  0
ACDBPLACEHOLDER
  5
F
102
{ACAD_REACTORS
330
E
102
}
  0
MLINESTYLE
  5
18
102
{ACAD_REACTORS
330
17
102
}
100
AcDbMlineStyle
  2
STANDARD
 70
0
  3

 62
256
 51
90.0
 52
90.0
 71
2
 49
0.5
 62
256
  6
BYLAYER
 49
-0.5
 62
256
  6
BYLAYER
  0
LAYOUT
  5
75D
102
{ACAD_REACTORS
330
1A
102
}
100
AcDbPlotSettings
  1

  2
none_device
  4
ISO_A4_(297.00_x_210.00_MM)
  6

 40
0.0
 41
0.0
 42
0.0
 43
0.0
 44
297.0
 45
210.0
 46
0.0
 47
0.0
 48
0.0
 49
0.0
140
0.0
141
0.0
142
1.0
143
1.0
 70
1024
 72
1
 73
0
 74
0
  7

 75
0
147
1.0
148
0.0
149
0.0
100
AcDbLayout
  1
Model
 70
0
 71
0
 10
0.0
 20
0.0
 11
297.0
 21
210.0
 12
0.0
 22
0.0
 32
0.0
 14
0.0
 24
0.0
 34
0.0
 15
0.0
 25
0.0
 35
0.0
146
0.0
 13
0.0
 23
0.0
 33
0.0
 16
1.0
 26
0.0
 36
0.0
 17
0.0
 27
1.0
 37
0.0
 76
0
330
212
345
0
346
0
  0
LAYOUT
  5
75E
102
{ACAD_REACTORS
330
1A
102
}
100
AcDbPlotSettings
  1

  2
none_device
  4
ISO_A4_(297.00_x_210.00_MM)
  6

 40
0.0
 41
0.0
 42
0.0
 43
0.0
 44
297.0
 45
210.0
 46
0.0
 47
0.0
 48
0.0
 49
0.0
140
0.0
141
0.0
142
1.0
143
1.0
 70
0
 72
1
 73
0
 74
0
  7

 75
0
147
1.0
148
0.0
149
0.0
100
AcDbLayout
  1
Layout1
 70
0
 71
1
 10
0.0
 20
0.0
 11
297.0
 21
210.0
 12
0.0
 22
0.0
 32
0.0
 14
0.0
 24
0.0
 34
0.0
 15
0.0
 25
0.0
 35
0.0
146
0.0
 13
0.0
 23
0.0
 33
0.0
 16
1.0
 26
0.0
 36
0.0
 17
0.0
 27
1.0
 37
0.0
 76
0
330
213
345
0
346
0
  0
ENDSEC
  0
EOF
