  0
SECTION
  2
HEADER
  9
$ACADVER
  1
AC1015
  9
$DWGCODEPAGE
  3
ANSI_1252
  9
$EXTMAX
 10
297.0
 20
210.0
 30
0.0
  9
$EXTMIN
 10
0.0
 20
0.0
 30
0.0
  9
$LIMMIN
 10
0.0
 20
0.0
  9
$LIMMAX
 10
297.0
 20
210.0
  9
$VIEWCTR
 10
148.5
 20
105.0
  9
$VIEWSIZE
 40
210.0
  9
$CLAYER
  8
0
  9
$LTSCALE
 40
16.335
  9
$CELTYPE
  6
BYLAYER
  9
$DIMSCALE
 40
1.0
  9
$DIMASZ
 40
3.0
  9
$DIMEXO
 40
1.85625
  9
$DIMDLI
 40
11.286
  9
$DIMEXE
 40
5.346
  9
$DIMCEN
 40
2.673
  9
$DIMLFAC
 40
1.0
  9
$DIMBLK
  1
_FILLED
  9
$DIMTXT
 40
3.0
  9
$DIMTOL
 70
1
  9
$DIMLIM
 70
0
  9
$DIMTFAC
 40
1.0
  9
$DIMTP
 40
0.01
  9
$DIMTM
 40
0.01
  9
$PDMODE
 70
3
  9
$PDSIZE
 40
3.0
  9
$HANDSEED
  5
43D
  9
$TILEMODE
 70
1
  9
$MEASUREMENT
 70
1
  9
$INSUNITS
 70
4
  0
ENDSEC
  0
SECTION
  2
CLASSES
  0
CLASS
  1
ACDBDICTIONARYWDFLT
  2
AcDbDictionaryWithDefault
  3
AutoCAD 2000
 90
0
280
0
281
0
  0
CLASS
  1
ACDBPLACEHOLDER
  2
AcDbPlaceHolder
  3
AutoCAD 2000
 90
0
280
0
281
0
  0
CLASS
  1
LAYOUT
  2
AcDbLayout
  3
AutoCAD 2000
 90
0
280
0
281
0
  0
ENDSEC
  0
SECTION
  2
TABLES
  0
TABLE
  2
VPORT
  5
8
100
AcDbSymbolTable
 70
2
  0
VPORT
  5
1F4
100
AcDbSymbolTableRecord
100
AcDbViewportTableRecord
  2
*ACTIVE
 70
0
 10
0.0
 20
0.0
 11
1.0
 21
1.0
 12
148.5
 22
105.0
 13
0.0
 23
0.0
 14
1.0
 24
1.0
 15
0.0
 25
0.0
 16
0.0
 26
0.0
 36
1.0
 17
0.0
 27
0.0
 37
0.0
 40
210.0
 41
1.4142857143
 42
50.0
 43
0.0
 44
0.0
 50
0.0
 51
0.0
 71
0
 72
100
 73
1
 74
1
 75
0
 76
0
 77
0
 78
0
  0
ENDTAB
  0
TABLE
  2
LTYPE
  5
5
100
AcDbSymbolTable
 70
6
  0
LTYPE
  5
14
100
AcDbSymbolTableRecord
100
AcDbLinetypeTableRecord
  2
BYBLOCK
 70
0
  3

 72
65
 73
0
 40
0.0
  0
LTYPE
  5
15
100
AcDbSymbolTableRecord
100
AcDbLinetypeTableRecord
  2
BYLAYER
 70
0
  3

 72
65
 73
0
 40
0.0
  0
LTYPE
  5
16
100
AcDbSymbolTableRecord
100
AcDbLinetypeTableRecord
  2
CONTINUOUS
 70
64
  3
Solid line
 72
65
 73
0
 40
0.0
  0
LTYPE
  5
1F5
100
AcDbSymbolTableRecord
100
AcDbLinetypeTableRecord
  2
CENTER
 70
64
  3
____ _ ____ _ ____ _ ____ _ ____ _ ____ _ ____
 72
65
 73
4
 40
0.6
 49
0.375
 74
0
 49
-0.075
 74
0
 49
0.075
 74
0
 49
-0.075
 74
0
  0
LTYPE
  5
1F6
100
AcDbSymbolTableRecord
100
AcDbLinetypeTableRecord
  2
HIDDEN
 70
64
  3
- - - - - - - - - - - - - - - - - - - -
 72
65
 73
2
 40
0.2
 49
0.1
 74
0
 49
-0.1
 74
0
  0
LTYPE
  5
1F7
100
AcDbSymbolTableRecord
100
AcDbLinetypeTableRecord
  2
PHANTOM
 70
64
  3
_____ _ _ _____ _ _ _____ _ _ _____
 72
65
 73
6
 40
0.8
 49
0.45
 74
0
 49
-0.05
 74
0
 49
0.1
 74
0
 49
-0.05
 74
0
 49
0.1
 74
0
 49
-0.05
 74
0
  0
LTYPE
  5
1F8
100
AcDbSymbolTableRecord
100
AcDbLinetypeTableRecord
  2
DOT
 70
64
  3
. . . . . . . . . . . . . . . . . . . .
 72
65
 73
2
 40
0.2
 49
0.1
 74
0
 49
-0.1
 74
0
  0
LTYPE
  5
1F9
100
AcDbSymbolTableRecord
100
AcDbLinetypeTableRecord
  2
DASHED
 70
64
  3
- - - - - - - - - - - - - - - - - - - -
 72
65
 73
2
 40
0.2
 49
0.1
 74
0
 49
-0.1
 74
0
  0
ENDTAB
  0
TABLE
  2
LAYER
  5
2
100
AcDbSymbolTable
 70
36
  0
LAYER
  5
10
100
AcDbSymbolTableRecord
100
AcDbLayerTableRecord
  2
0
 70
0
 62
7
  6
CONTINUOUS
370
-3
390
F
  0
LAYER
  5
1FA
100
AcDbSymbolTableRecord
100
AcDbLayerTableRecord
  2
DEFAULT_1
 70
0
 62
7
  6
CENTER
370
-3
390
F
  0
LAYER
  5
1FB
100
AcDbSymbolTableRecord
100
AcDbLayerTableRecord
  2
DEFAULT_2
 70
0
 62
7
  6
HIDDEN
370
-3
390
F
  0
LAYER
  5
1FC
100
AcDbSymbolTableRecord
100
AcDbLayerTableRecord
  2
DEFAULT_3
 70
0
 62
7
  6
PHANTOM
370
-3
390
F
  0
LAYER
  5
1FD
100
AcDbSymbolTableRecord
100
AcDbLayerTableRecord
  2
ASSI
 70
0
 62
7
  6
CONTINUOUS
370
-3
390
F
  0
LAYER
  5
1FE
100
AcDbSymbolTableRecord
100
AcDbLayerTableRecord
  2
COORDINATE
 70
0
 62
7
  6
CONTINUOUS
370
-3
390
F
  0
LAYER
  5
1FF
100
AcDbSymbolTableRecord
100
AcDbLayerTableRecord
  2
COPY_PUBLISH
 70
0
 62
7
  6
CONTINUOUS
370
-3
390
F
  0
LAYER
  5
200
100
AcDbSymbolTableRecord
100
AcDbLayerTableRecord
  2
COSMETIC
 70
0
 62
7
  6
CONTINUOUS
370
-3
390
F
  0
LAYER
  5
201
100
AcDbSymbolTableRecord
100
AcDbLayerTableRecord
  2
COSMETICI
 70
0
 62
7
  6
CONTINUOUS
370
-3
390
F
  0
LAYER
  5
202
100
AcDbSymbolTableRecord
100
AcDbLayerTableRecord
  2
CURVE
 70
0
 62
7
  6
CONTINUOUS
370
-3
390
F
  0
LAYER
  5
203
100
AcDbSymbolTableRecord
100
AcDbLayerTableRecord
  2
DRAFT
 70
0
 62
7
  6
CONTINUOUS
370
-3
390
F
  0
LAYER
  5
204
100
AcDbSymbolTableRecord
100
AcDbLayerTableRecord
  2
IMPORT_IGES
 70
0
 62
7
  6
CONTINUOUS
370
-3
390
F
  0
LAYER
  5
205
100
AcDbSymbolTableRecord
100
AcDbLayerTableRecord
  2
NOTE
 70
0
 62
7
  6
CONTINUOUS
370
-3
390
F
  0
LAYER
  5
206
100
AcDbSymbolTableRecord
100
AcDbLayerTableRecord
  2
PIANI
 70
0
 62
7
  6
CONTINUOUS
370
-3
390
F
  0
LAYER
  5
207
100
AcDbSymbolTableRecord
100
AcDbLayerTableRecord
  2
PUNTI
 70
0
 62
7
  6
CONTINUOUS
370
-3
390
F
  0
LAYER
  5
208
100
AcDbSymbolTableRecord
100
AcDbLayerTableRecord
  2
RACCORDO
 70
0
 62
7
  6
CONTINUOUS
370
-3
390
F
  0
LAYER
  5
209
100
AcDbSymbolTableRecord
100
AcDbLayerTableRecord
  2
SIMBOLI
 70
0
 62
7
  6
CONTINUOUS
370
-3
390
F
  0
LAYER
  5
20A
100
AcDbSymbolTableRecord
100
AcDbLayerTableRecord
  2
SMUSSO
 70
0
 62
7
  6
CONTINUOUS
370
-3
390
F
  0
LAYER
  5
20B
100
AcDbSymbolTableRecord
100
AcDbLayerTableRecord
  2
SNAPLINE
 70
0
 62
7
  6
CONTINUOUS
370
-3
390
F
  0
LAYER
  5
20C
100
AcDbSymbolTableRecord
100
AcDbLayerTableRecord
  2
SUPERFICI
 70
0
 62
7
  6
CONTINUOUS
370
-3
390
F
  0
LAYER
  5
20D
100
AcDbSymbolTableRecord
100
AcDbLayerTableRecord
  2
TRASH
 70
0
 62
7
  6
CONTINUOUS
370
-3
390
F
  0
LAYER
  5
20E
100
AcDbSymbolTableRecord
100
AcDbLayerTableRecord
  2
XSEC_DATUMS
 70
0
 62
7
  6
CONTINUOUS
370
-3
390
F
  0
ENDTAB
  0
TABLE
  2
STYLE
  5
3
100
AcDbSymbolTable
 70
1
  0
STYLE
  5
11
100
AcDbSymbolTableRecord
100
AcDbTextStyleTableRecord
  2
STANDARD
 70
0
 40
0.0
 41
0.8
 50
0.0
 71
0
 42
0.2
  3
txt
  4

  0
STYLE
  5
20F
100
AcDbSymbolTableRecord
100
AcDbTextStyleTableRecord
  2
TEXTSTYLE_1
 70
0
 40
0.0
 41
0.8
 50
0.0
 71
0
 42
0.2
  3
gdt
  4

  0
ENDTAB
  0
TABLE
  2
VIEW
  5
6
100
AcDbSymbolTable
 70
0
  0
ENDTAB
  0
TABLE
  2
UCS
  5
7
100
AcDbSymbolTable
 70
0
  0
ENDTAB
  0
TABLE
  2
APPID
  5
9
100
AcDbSymbolTable
 70
1
  0
APPID
  5
210
100
AcDbSymbolTableRecord
100
AcDbRegAppTableRecord
  2
ACAD
 70
0
  0
ENDTAB
  0
TABLE
  2
BLOCK_RECORD
  5
1
100
AcDbSymbolTable
 70
0
  0
BLOCK_RECORD
  5
211
100
AcDbSymbolTableRecord
100
AcDbBlockTableRecord
  2
*Model_Space
  0
BLOCK_RECORD
  5
212
100
AcDbSymbolTableRecord
100
AcDbBlockTableRecord
  2
*Paper_Space
  0
BLOCK_RECORD
  5
213
100
AcDbSymbolTableRecord
100
AcDbBlockTableRecord
  2
_FILLED
  0
BLOCK_RECORD
  5
214
100
AcDbSymbolTableRecord
100
AcDbBlockTableRecord
  2
*D0
  0
BLOCK_RECORD
  5
215
100
AcDbSymbolTableRecord
100
AcDbBlockTableRecord
  2
*D1
  0
BLOCK_RECORD
  5
216
100
AcDbSymbolTableRecord
100
AcDbBlockTableRecord
  2
*D2
  0
ENDTAB
  0
TABLE
  2
DIMSTYLE
  5
A
100
AcDbSymbolTable
 70
1
100
AcDbDimStyleTable
 71
0
  0
DIMSTYLE
105
217
100
AcDbSymbolTableRecord
100
AcDbDimStyleTableRecord
  2
STANDARD
 70
0
  3

  4

 40
1.0
 41
3.0
 42
0.0625
 43
0.38
 44
0.18
 45
0.0
 46
0.0
 47
0.01
 48
0.01
140
3.0
141
0.09
142
0.0
143
25.4
144
1.0
145
0.0
146
1.0
147
0.09
 71
1.0
 72
0.0
 73
0
 74
0
 75
0
 76
0
 77
1
 78
8
170
0
171
2
172
0
173
0
174
0
175
0
176
0
177
0
178
0
270
2
271
2
272
2
273
2
274
2
275
0
280
0
281
0
282
0
283
1
284
8
285
0
286
0
287
3
288
0
340
11
341
213
342
213
343
213
344
213
  0
DIMSTYLE
105
218
100
AcDbSymbolTableRecord
100
AcDbDimStyleTableRecord
  2
DIMSTYLE_1
 70
0
  3

  4

 40
1.0
 41
3.0
 42
0.0625
 43
0.38
 44
0.18
 45
0.0
 46
0.0
 47
0.0
 48
0.0
140
3.0
141
0.09
142
0.0
143
25.4
144
1.0
145
0.0
146
1.0
147
0.09
 71
0.0
 72
0.0
 73
0
 74
0
 75
0
 76
0
 77
1
 78
8
170
0
171
2
172
0
173
0
174
0
175
0
176
0
177
0
178
0
270
2
271
2
272
2
273
2
274
2
275
0
280
0
281
0
282
0
283
1
284
8
285
0
286
0
287
3
288
0
340
11
341
213
342
213
343
213
344
213
  0
ENDTAB
  0
ENDSEC
  0
SECTION
  2
BLOCKS
  0
BLOCK
  5
20
100
AcDbEntity
  8
0
100
AcDbBlockBegin
  2
*Model_Space
 70
0
 10
0.0
 20
0.0
 30
0.0
  3
*Model_Space
  1

  0
ENDBLK
  5
21
100
AcDbEntity
  8
0
100
AcDbBlockEnd
  0
BLOCK
  5
1C
100
AcDbEntity
  8
0
100
AcDbBlockBegin
  2
*Paper_Space
 70
0
 10
0.0
 20
0.0
 30
0.0
  3
*Paper_Space
  1

  0
ENDBLK
  5
1D
100
AcDbEntity
  8
0
100
AcDbBlockEnd
  0
BLOCK
  5
219
100
AcDbEntity
  8
0
100
AcDbBlockBegin
  2
_FILLED
 70
64
 10
0.0
 20
0.0
  3
_FILLED
  1

  0
SOLID
  5
21A
100
AcDbEntity
  8
0
  6
BYBLOCK
 62
0
100
AcDbTrace
 10
0.0
 20
0.0
 11
-1.0
 21
0.3166666667
 12
-1.0
 22
-0.3166666667
 13
-1.0
 23
-0.3166666667
  0
ENDBLK
  5
21B
100
AcDbEntity
  8
0
  6
BYBLOCK
 62
0
100
AcDbBlockEnd
  0
BLOCK
  5
21C
100
AcDbEntity
  8
0
100
AcDbBlockBegin
 62
7
  6
CONTINUOUS
  2
*D0
 70
65
 10
0.0
 20
0.0
  3
*D0
  1

  0
LINE
  5
21D
100
AcDbEntity
  8
0
100
AcDbLine
 62
7
  6
CONTINUOUS
 10
0.4058278655
 20
46.3346101871
 11
61.9058278655
 21
46.3346101871
  0
LINE
  5
21E
100
AcDbEntity
  8
0
100
AcDbLine
 62
7
  6
CONTINUOUS
 10
0.4058278655
 20
-48.1653898129
 11
61.9058278655
 21
-48.1653898129
  0
LINE
  5
21F
100
AcDbEntity
  8
0
100
AcDbLine
 62
7
  6
CONTINUOUS
 10
60.4058278655
 20
46.3346101871
 11
60.4058278655
 21
-0.9153898129
  0
LINE
  5
220
100
AcDbEntity
  8
0
100
AcDbLine
 62
7
  6
CONTINUOUS
 10
60.4058278655
 20
-48.1653898129
 11
60.4058278655
 21
-0.9153898129
  0
INSERT
  5
221
100
AcDbEntity
  8
0
100
AcDbBlockReference
 62
7
  6
CONTINUOUS
  2
_FILLED
 10
60.4058278655
 20
46.3346101871
 41
3.0
 42
3.0
 43
3.0
 50
90.0
  0
INSERT
  5
222
100
AcDbEntity
  8
0
100
AcDbBlockReference
 62
7
  6
CONTINUOUS
  2
_FILLED
 10
60.4058278655
 20
-48.1653898129
 41
3.0
 42
3.0
 43
3.0
 50
270.0
  0
ENDBLK
  5
223
100
AcDbEntity
  8
0
  6
BYBLOCK
 62
0
100
AcDbBlockEnd
  0
BLOCK
  5
224
100
AcDbEntity
  8
0
100
AcDbBlockBegin
 62
7
  6
CONTINUOUS
  2
*D1
 70
65
 10
0.0
 20
0.0
  3
*D1
  1

  0
LINE
  5
225
100
AcDbEntity
  8
0
100
AcDbLine
 62
7
  6
CONTINUOUS
 10
47.1558278655
 20
-0.4153898129
 11
47.1558278655
 21
60.8346101871
  0
LINE
  5
226
100
AcDbEntity
  8
0
100
AcDbLine
 62
7
  6
CONTINUOUS
 10
-47.3441721345
 20
-0.4153898129
 11
-47.3441721345
 21
60.8346101871
  0
LINE
  5
227
100
AcDbEntity
  8
0
100
AcDbLine
 62
7
  6
CONTINUOUS
 10
47.1558278655
 20
59.3346101871
 11
-0.0941721345
 21
59.3346101871
  0
LINE
  5
228
100
AcDbEntity
  8
0
100
AcDbLine
 62
7
  6
CONTINUOUS
 10
-47.3441721345
 20
59.3346101871
 11
-0.0941721345
 21
59.3346101871
  0
INSERT
  5
229
100
AcDbEntity
  8
0
100
AcDbBlockReference
 62
7
  6
CONTINUOUS
  2
_FILLED
 10
47.1558278655
 20
59.3346101871
 41
3.0
 42
3.0
 43
3.0
  0
INSERT
  5
22A
100
AcDbEntity
  8
0
100
AcDbBlockReference
 62
7
  6
CONTINUOUS
  2
_FILLED
 10
-47.3441721345
 20
59.3346101871
 41
3.0
 42
3.0
 43
3.0
 50
180.0
  0
ENDBLK
  5
22B
100
AcDbEntity
  8
0
  6
BYBLOCK
 62
0
100
AcDbBlockEnd
  0
BLOCK
  5
22C
100
AcDbEntity
  8
0
100
AcDbBlockBegin
 62
7
  6
CONTINUOUS
  2
*D2
 70
65
 10
0.0
 20
0.0
  3
*D2
  1

  0
LINE
  5
22D
100
AcDbEntity
  8
0
100
AcDbLine
 62
7
  6
CONTINUOUS
 10
-66.7221402645
 20
27.0311401989
 11
-66.7221402645
 21
60.8346101871
  0
LINE
  5
22E
100
AcDbEntity
  8
0
100
AcDbLine
 62
7
  6
CONTINUOUS
 10
-75.2221402645
 20
22.9211686578
 11
-75.2221402645
 21
60.8346101871
  0
LINE
  5
22F
100
AcDbEntity
  8
0
100
AcDbLine
 62
7
  6
CONTINUOUS
 10
-66.7221402645
 20
59.3346101871
 11
-62.7221402645
 21
59.3346101871
  0
LINE
  5
230
100
AcDbEntity
  8
0
100
AcDbLine
 62
7
  6
CONTINUOUS
 10
-62.7221402645
 20
59.3346101871
 11
-70.9721402645
 21
59.3346101871
  0
LINE
  5
231
100
AcDbEntity
  8
0
100
AcDbLine
 62
7
  6
CONTINUOUS
 10
-75.2221402645
 20
59.3346101871
 11
-79.2221402645
 21
59.3346101871
  0
LINE
  5
232
100
AcDbEntity
  8
0
100
AcDbLine
 62
7
  6
CONTINUOUS
 10
-79.2221402645
 20
59.3346101871
 11
-70.9721402645
 21
59.3346101871
  0
INSERT
  5
233
100
AcDbEntity
  8
0
100
AcDbBlockReference
 62
7
  6
CONTINUOUS
  2
_FILLED
 10
-66.7221402645
 20
59.3346101871
 41
3.0
 42
3.0
 43
3.0
 50
180.0
  0
INSERT
  5
234
100
AcDbEntity
  8
0
100
AcDbBlockReference
 62
7
  6
CONTINUOUS
  2
_FILLED
 10
-75.2221402645
 20
59.3346101871
 41
3.0
 42
3.0
 43
3.0
  0
ENDBLK
  5
235
100
AcDbEntity
  8
0
  6
BYBLOCK
 62
0
100
AcDbBlockEnd
  0
ENDSEC
  0
SECTION
  2
ENTITIES
  0
DIMENSION
  5
236
100
AcDbEntity
  8
0
100
AcDbDimension
 62
7
  6
CONTINUOUS
  2
*D0
 10
60.4058278655
 20
-48.1653898129
 11
59.6558278655
 21
-5.2011040986
 70
160
 71
2
 42
94.5
  3
DIMSTYLE_1
100
AcDbAlignedDimension
 13
0.4058278655
 23
46.3346101871
 14
0.4058278655
 24
-48.1653898129
 50
270.0
100
AcDbRotatedDimension
  0
DIMENSION
  5
237
100
AcDbEntity
  8
0
100
AcDbDimension
 62
7
  6
CONTINUOUS
  2
*D1
 10
-47.3441721345
 20
59.3346101871
 11
-4.3798864202
 21
60.0846101871
 70
160
 71
2
 42
94.5
  3
DIMSTYLE_1
100
AcDbAlignedDimension
 13
47.1558278655
 23
-0.4153898129
 14
-47.3441721345
 24
-0.4153898129
 50
180.0
100
AcDbRotatedDimension
  0
DIMENSION
  5
238
100
AcDbEntity
  8
0
100
AcDbDimension
 62
7
  6
CONTINUOUS
  2
*D2
 10
-75.2221402645
 20
59.3346101871
 11
-74.0792831216
 21
60.0846101871
 70
160
 71
2
 42
8.5
  3
DIMSTYLE_1
100
AcDbAlignedDimension
 13
-66.7221402645
 23
27.0311401989
 14
-75.2221402645
 24
22.9211686578
 50
180.0
100
AcDbRotatedDimension
  0
LWPOLYLINE
  5
239
100
AcDbEntity
  8
0
100
AcDbPolyline
 62
7
  6
CONTINUOUS
 90
10
 70
0
 43
0.3500000006
 10
-3.9513148785
 20
60.0846142273
 10
-3.0941721239
 20
60.9417521667
 10
-2.8798865061
 20
61.7988991699
 10
-2.8798865061
 20
62.6560371094
 10
-3.3084577417
 20
63.0846060791
 10
-3.9513148785
 20
63.0846060791
 10
-4.3798863974
 20
62.6560371094
 10
-4.3798863974
 20
61.7988991699
 10
-3.9513148785
 20
61.3703211365
 10
-3.0227434902
 20
61.3703211365
  0
LINE
  5
23A
100
AcDbEntity
  8
0
100
AcDbLine
 62
7
  6
CONTINUOUS
 10
-4.7102791345
 20
-29.7931908129
 11
-4.1952691345
 21
-29.7931908129
  0
LINE
  5
23B
100
AcDbEntity
  8
0
100
AcDbLine
 62
7
  6
CONTINUOUS
 10
-3.0784571345
 20
-29.7931908129
 11
-2.4940491345
 21
-29.7931908129
  0
LINE
  5
23C
100
AcDbEntity
  8
0
100
AcDbLine
 62
7
  6
CONTINUOUS
 10
-2.1794441345
 20
-29.7931908129
 11
-1.6203551345
 21
-29.7931908129
  0
LINE
  5
23D
100
AcDbEntity
  8
0
100
AcDbLine
 62
7
  6
CONTINUOUS
 10
-0.8086591345
 20
-29.7931908129
 11
-0.7266961345
 21
-29.7931908129
  0
LINE
  5
23E
100
AcDbEntity
  8
0
100
AcDbLine
 62
7
  6
CONTINUOUS
 10
0.0882338655
 20
-29.7931908129
 11
0.6599398655
 21
-29.7931908129
  0
LINE
  5
23F
100
AcDbEntity
  8
0
100
AcDbLine
 62
7
  6
CONTINUOUS
 10
0.7517078655
 20
-29.7931908129
 11
1.3297748655
 21
-29.7931908129
  0
LINE
  5
240
100
AcDbEntity
  8
0
100
AcDbLine
 62
7
  6
CONTINUOUS
 10
2.4382938655
 20
-29.7931908129
 11
3.0542358655
 21
-29.7931908129
  0
LINE
  5
241
100
AcDbEntity
  8
0
100
AcDbLine
 62
7
  6
CONTINUOUS
 10
3.2258466678
 20
-29.7931911673
 11
3.8079032104
 21
-29.7931911673
  0
LINE
  5
242
100
AcDbEntity
  8
0
100
AcDbLine
 62
7
  6
CONTINUOUS
 10
4.7028434874
 20
-29.7931911673
 11
5.2649760774
 21
-29.7931911673
  0
LINE
  5
243
100
AcDbEntity
  8
RACCORDO
100
AcDbLine
 62
253
  6
CONTINUOUS
 10
-45.2324879842
 20
-32.5665383236
 11
-45.0760752411
 21
-32.5385863514
  0
LINE
  5
244
100
AcDbEntity
  8
RACCORDO
100
AcDbLine
 62
253
  6
CONTINUOUS
 10
-45.8102945457
 20
-28.5665383236
 11
-45.6385328505
 21
-28.5474183812
  0
LINE
  5
245
100
AcDbEntity
  8
0
100
AcDbLine
 62
7
  6
CONTINUOUS
 10
1.4910348655
 20
-29.2342708129
 11
2.2869018655
 21
-29.2342708129
  0
LINE
  5
246
100
AcDbEntity
  8
0
100
AcDbLine
 62
7
  6
CONTINUOUS
 10
1.6105788655
 20
-28.8017808129
 11
2.1701078655
 21
-28.8017808129
  0
LINE
  5
247
100
AcDbEntity
  8
0
100
AcDbLine
 62
7
  6
CONTINUOUS
 10
3.8079032104
 20
-28.6975417377
 11
4.1212488278
 21
-28.6975417377
  0
LINE
  5
248
100
AcDbEntity
  8
0
100
AcDbLine
 62
7
  6
CONTINUOUS
 10
3.7885251196
 20
-28.2390178995
 11
4.1225085087
 21
-28.2390178995
  0
LINE
  5
249
100
AcDbEntity
  8
0
100
AcDbLine
 62
7
  6
CONTINUOUS
 10
-5.5978401345
 20
-26.9934878129
 11
-4.9629921345
 21
-26.9934878129
  0
LINE
  5
24A
100
AcDbEntity
  8
0
100
AcDbLine
 62
7
  6
CONTINUOUS
 10
-3.8793411345
 20
-26.9934878129
 11
-3.2953321345
 21
-26.9934878129
  0
LINE
  5
24B
100
AcDbEntity
  8
0
100
AcDbLine
 62
7
  6
CONTINUOUS
 10
-1.9266471345
 20
-26.9934878129
 11
-1.3427221345
 21
-26.9934878129
  0
LINE
  5
24C
100
AcDbEntity
  8
0
100
AcDbLine
 62
7
  6
CONTINUOUS
 10
-0.1800781345
 20
-26.9934878129
 11
0.3981358655
 21
-26.9934878129
  0
LINE
  5
24D
100
AcDbEntity
  8
0
100
AcDbLine
 62
7
  6
CONTINUOUS
 10
1.6298728655
 20
-26.9934878129
 11
2.1952178655
 21
-26.9934878129
  0
LINE
  5
24E
100
AcDbEntity
  8
0
100
AcDbLine
 62
7
  6
CONTINUOUS
 10
-3.0784571345
 20
-26.9933198129
 11
-2.4940491345
 21
-26.9933198129
  0
LINE
  5
24F
100
AcDbEntity
  8
RACCORDO
100
AcDbLine
 62
253
  6
CONTINUOUS
 10
-45.7561190079
 20
-24.6152600479
 11
-11.5966781712
 21
-24.6153005995
  0
LINE
  5
250
100
AcDbEntity
  8
RACCORDO
100
AcDbLine
 62
253
  6
CONTINUOUS
 10
11.4083339022
 20
-24.6153005995
 11
45.5677747098
 21
-24.6152603531
  0
LINE
  5
251
100
AcDbEntity
  8
RACCORDO
100
AcDbLine
 62
253
  6
CONTINUOUS
 10
21.7058213758
 20
-23.7259678135
 11
-21.8941642274
 21
-23.7259678135
  0
LINE
  5
252
100
AcDbEntity
  8
RACCORDO
100
AcDbLine
 62
253
  6
CONTINUOUS
 10
21.7058201521
 20
-23.5345055101
 11
-21.8941694977
 21
-23.5345055101
  0
LINE
  5
253
100
AcDbEntity
  8
0
100
AcDbLine
 62
7
  6
CONTINUOUS
 10
21.7058278655
 20
-23.4153898129
 11
-21.8941721345
 21
-23.4153898129
  0
LINE
  5
254
100
AcDbEntity
  8
0
100
AcDbLine
 62
253
  6
CONTINUOUS
 10
22.5058278655
 20
-22.6153898129
 11
22.6267330429
 21
-22.6153893383
  0
LINE
  5
255
100
AcDbEntity
  8
0
100
AcDbLine
 62
253
  6
CONTINUOUS
 10
-22.6941721345
 20
-22.6153898129
 11
-22.8150813574
 21
-22.615388018
  0
LINE
  5
256
100
AcDbEntity
  8
RACCORDO
100
AcDbLine
 62
253
  6
CONTINUOUS
 10
45.6219502767
 20
-28.5665383236
 11
45.4501887048
 21
-28.5474172552
  0
LINE
  5
257
100
AcDbEntity
  8
RACCORDO
100
AcDbLine
 62
253
  6
CONTINUOUS
 10
45.0441437152
 20
-32.5665383236
 11
44.8877337609
 21
-32.5385703752
  0
LINE
  5
258
100
AcDbEntity
  8
RACCORDO
100
AcDbLine
 62
253
  6
CONTINUOUS
 10
-30.9837846825
 20
-46.4053898129
 11
-30.9661493856
 21
-46.2870746871
  0
LINE
  5
259
100
AcDbEntity
  8
RACCORDO
100
AcDbLine
 62
253
  6
CONTINUOUS
 10
-30.9837846825
 20
44.5746101871
 11
-30.9661651293
 21
44.4562928064
  0
LINE
  5
25A
100
AcDbEntity
  8
RACCORDO
100
AcDbLine
 62
253
  6
CONTINUOUS
 10
-25.9837846825
 20
45.1695174412
 11
-25.9721966443
 21
45.0410729918
  0
LINE
  5
25B
100
AcDbEntity
  8
0
100
AcDbLine
 62
7
  6
CONTINUOUS
 10
-22.6941721345
 20
20.7846101871
 11
-22.6941721345
 21
-22.6153898129
  0
LINE
  5
25C
100
AcDbEntity
  8
0
100
AcDbLine
 62
253
  6
CONTINUOUS
 10
-21.8941721345
 20
-23.4153898129
 11
-21.8941694977
 21
-23.5345055101
  0
LINE
  5
25D
100
AcDbEntity
  8
0
100
AcDbLine
 62
253
  6
CONTINUOUS
 10
-21.8941721345
 20
21.5846101871
 11
-21.8941695505
 21
21.7037258843
  0
LINE
  5
25E
100
AcDbEntity
  8
RACCORDO
100
AcDbLine
 62
253
  6
CONTINUOUS
 10
-21.8941735298
 20
21.9541514416
 11
-21.8941721345
 21
21.7037258843
  0
LINE
  5
25F
100
AcDbEntity
  8
RACCORDO
100
AcDbLine
 62
253
  6
CONTINUOUS
 10
-21.8941721345
 20
-23.5345055101
 11
-21.8941732077
 21
-23.7849310858
  0
LINE
  5
260
100
AcDbEntity
  8
RACCORDO
100
AcDbLine
 62
253
  6
CONTINUOUS
 10
-25.9837846825
 20
-47.0002970669
 11
-25.9721956466
 21
-46.8718527055
  0
LWPOLYLINE
  5
261
100
AcDbEntity
  8
0
100
AcDbPolyline
 62
7
  6
CONTINUOUS
 90
3
 70
0
 43
0.3500000006
 10
1.0486850188
 20
60.3703208313
 10
0.9772564559
 20
60.1560363464
 10
0.8343992593
 20
59.8703206787
  0
LWPOLYLINE
  5
262
100
AcDbEntity
  8
0
100
AcDbPolyline
 62
7
  6
CONTINUOUS
 90
2
 70
0
 43
0.3500000006
 10
59.6558280487
 20
-1.8439610481
 10
58.1558275909
 20
-1.8439610481
  0
LINE
  5
263
100
AcDbEntity
  8
RACCORDO
100
AcDbLine
 62
253
  6
CONTINUOUS
 10
-23.3680293617
 20
-0.9153898129
 11
-22.8356465738
 21
-0.9153898129
  0
LINE
  5
264
100
AcDbEntity
  8
RACCORDO
100
AcDbLine
 62
253
  6
CONTINUOUS
 10
23.1796850927
 20
-0.9153898129
 11
22.6473023048
 21
-0.9153898129
  0
LINE
  5
265
100
AcDbEntity
  8
0
100
AcDbLine
 62
7
  6
CONTINUOUS
 10
-1.4942401345
 20
-27.9650368129
 11
-0.8086591345
 21
-29.7931908129
  0
LINE
  5
266
100
AcDbEntity
  8
0
100
AcDbLine
 62
7
  6
CONTINUOUS
 10
-0.7644861345
 20
-28.5478918129
 11
-1.3427221345
 21
-26.9934878129
  0
LINE
  5
267
100
AcDbEntity
  8
0
100
AcDbLine
 62
7
  6
CONTINUOUS
 10
-5.5978401345
 20
-26.9934878129
 11
-4.7102791345
 21
-29.7931908129
  0
LINE
  5
268
100
AcDbEntity
  8
0
100
AcDbLine
 62
7
  6
CONTINUOUS
 10
-4.4293181345
 20
-28.9206098129
 11
-4.9629921345
 21
-26.9934878129
  0
LINE
  5
269
100
AcDbEntity
  8
0
100
AcDbLine
 62
7
  6
CONTINUOUS
 10
3.0542358655
 20
-29.7931908129
 11
2.1952178655
 21
-26.9934878129
  0
LINE
  5
26A
100
AcDbEntity
  8
0
100
AcDbLine
 62
7
  6
CONTINUOUS
 10
2.2869018655
 20
-29.2342708129
 11
2.4382938655
 21
-29.7931908129
  0
LINE
  5
26B
100
AcDbEntity
  8
0
100
AcDbLine
 62
7
  6
CONTINUOUS
 10
0.6599398655
 20
-29.7931908129
 11
0.3981358655
 21
-26.9934878129
  0
LINE
  5
26C
100
AcDbEntity
  8
0
100
AcDbLine
 62
7
  6
CONTINUOUS
 10
-0.0318351345
 20
-27.9726588129
 11
0.0882338655
 21
-29.7931908129
  0
LINE
  5
26D
100
AcDbEntity
  8
0
100
AcDbLine
 62
7
  6
CONTINUOUS
 10
-3.0784571345
 20
-26.9933198129
 11
-3.0784571345
 21
-29.7931908129
  0
LINE
  5
26E
100
AcDbEntity
  8
0
100
AcDbLine
 62
7
  6
CONTINUOUS
 10
-2.4940491345
 20
-29.7931908129
 11
-2.4940491345
 21
-26.9933198129
  0
LWPOLYLINE
  5
26F
100
AcDbEntity
  8
0
100
AcDbPolyline
 62
7
  6
CONTINUOUS
 90
2
 70
0
 43
0.3500000006
 10
-1.022743588
 20
60.0846142273
 10
-1.022743588
 20
61.5846146851
  0
LINE
  5
270
100
AcDbEntity
  8
0
100
AcDbLine
 62
7
  6
CONTINUOUS
 10
1.9015648655
 20
-27.7627748129
 11
2.1701078655
 21
-28.8017808129
  0
LINE
  5
271
100
AcDbEntity
  8
0
100
AcDbLine
 62
7
  6
CONTINUOUS
 10
3.2258466678
 20
-27.0261971539
 11
3.2258466678
 21
-29.7931911673
  0
LINE
  5
272
100
AcDbEntity
  8
0
100
AcDbLine
 62
7
  6
CONTINUOUS
 10
3.7885251196
 20
-28.2390178995
 11
3.7885251196
 21
-27.4704446088
  0
LINE
  5
273
100
AcDbEntity
  8
0
100
AcDbLine
 62
7
  6
CONTINUOUS
 10
3.8079032104
 20
-29.7931911673
 11
3.8079032104
 21
-28.6975417377
  0
LINE
  5
274
100
AcDbEntity
  8
0
100
AcDbLine
 62
7
  6
CONTINUOUS
 10
4.7283310304
 20
-28.4863142497
 11
4.7283310304
 21
-28.4697704409
  0
LINE
  5
275
100
AcDbEntity
  8
0
100
AcDbLine
 62
7
  6
CONTINUOUS
 10
-1.6203551345
 20
-29.7931908129
 11
-1.4942401345
 21
-27.9650368129
  0
LINE
  5
276
100
AcDbEntity
  8
0
100
AcDbLine
 62
7
  6
CONTINUOUS
 10
-1.9266471345
 20
-26.9934878129
 11
-2.1794441345
 21
-29.7931908129
  0
LINE
  5
277
100
AcDbEntity
  8
0
100
AcDbLine
 62
7
  6
CONTINUOUS
 10
-3.8793411345
 20
-26.9934878129
 11
-4.4293181345
 21
-28.9206098129
  0
LINE
  5
278
100
AcDbEntity
  8
0
100
AcDbLine
 62
7
  6
CONTINUOUS
 10
-4.1952691345
 20
-29.7931908129
 11
-3.2953321345
 21
-26.9934878129
  0
LINE
  5
279
100
AcDbEntity
  8
RACCORDO
100
AcDbLine
 62
253
  6
CONTINUOUS
 10
45.0441437152
 20
30.7357586978
 11
44.8877309721
 21
30.7078067256
  0
LINE
  5
27A
100
AcDbEntity
  8
RACCORDO
100
AcDbLine
 62
253
  6
CONTINUOUS
 10
45.6219502767
 20
26.7357586978
 11
45.4501885815
 21
26.7166387555
  0
LINE
  5
27B
100
AcDbEntity
  8
0
100
AcDbLine
 62
253
  6
CONTINUOUS
 10
22.5058278655
 20
20.7846101871
 11
22.6267330385
 21
20.7846123238
  0
LINE
  5
27C
100
AcDbEntity
  8
0
100
AcDbLine
 62
253
  6
CONTINUOUS
 10
-22.6941721345
 20
20.7846101871
 11
-22.8150813575
 21
20.7846083278
  0
LINE
  5
27D
100
AcDbEntity
  8
0
100
AcDbLine
 62
7
  6
CONTINUOUS
 10
21.7058278655
 20
21.5846101871
 11
-21.8941721345
 21
21.5846101871
  0
LINE
  5
27E
100
AcDbEntity
  8
RACCORDO
100
AcDbLine
 62
253
  6
CONTINUOUS
 10
-21.8941695505
 20
21.7037258843
 11
21.7058239546
 21
21.7037258843
  0
LINE
  5
27F
100
AcDbEntity
  8
RACCORDO
100
AcDbLine
 62
253
  6
CONTINUOUS
 10
-21.894164128
 20
21.8951881877
 11
21.7058220152
 21
21.8951881877
  0
LINE
  5
280
100
AcDbEntity
  8
RACCORDO
100
AcDbLine
 62
253
  6
CONTINUOUS
 10
-11.5966781712
 20
22.7845209737
 11
-45.7561189788
 21
22.7844807273
  0
LINE
  5
281
100
AcDbEntity
  8
RACCORDO
100
AcDbLine
 62
253
  6
CONTINUOUS
 10
11.4083339022
 20
22.7845209737
 11
45.5677747389
 21
22.7844804221
  0
LINE
  5
282
100
AcDbEntity
  8
0
100
AcDbLine
 62
7
  6
CONTINUOUS
 10
1.6105788655
 20
-28.8017808129
 11
1.9015648655
 21
-27.7627748129
  0
LINE
  5
283
100
AcDbEntity
  8
0
100
AcDbLine
 62
7
  6
CONTINUOUS
 10
1.3297748655
 20
-29.7931908129
 11
1.4910348655
 21
-29.2342708129
  0
LINE
  5
284
100
AcDbEntity
  8
0
100
AcDbLine
 62
7
  6
CONTINUOUS
 10
1.6298728655
 20
-26.9934878129
 11
0.7517078655
 21
-29.7931908129
  0
LINE
  5
285
100
AcDbEntity
  8
0
100
AcDbLine
 62
7
  6
CONTINUOUS
 10
-0.1800781345
 20
-26.9934878129
 11
-0.7644861345
 21
-28.5478918129
  0
LINE
  5
286
100
AcDbEntity
  8
0
100
AcDbLine
 62
7
  6
CONTINUOUS
 10
-0.7266961345
 20
-29.7931908129
 11
-0.0318351345
 21
-27.9726588129
  0
LINE
  5
287
100
AcDbEntity
  8
RACCORDO
100
AcDbLine
 62
253
  6
CONTINUOUS
 10
-45.8102945457
 20
26.7357586978
 11
-45.6385329738
 21
26.7166376294
  0
LINE
  5
288
100
AcDbEntity
  8
RACCORDO
100
AcDbLine
 62
253
  6
CONTINUOUS
 10
-45.2324879842
 20
30.7357586978
 11
-45.0760780299
 21
30.7077907494
  0
LWPOLYLINE
  5
289
100
AcDbEntity
  8
0
100
AcDbPolyline
 62
7
  6
CONTINUOUS
 90
3
 70
0
 43
0.3500000006
 10
59.370112381
 20
0.2274673462
 10
59.5844013977
 20
0.1560384293
 10
59.8701125336
 20
0.0131805954
  0
LWPOLYLINE
  5
28A
100
AcDbEntity
  8
0
100
AcDbPolyline
 62
7
  6
CONTINUOUS
 90
10
 70
0
 43
0.3500000006
 10
59.1558278961
 20
0.1560384293
 10
59.29868573
 20
0.2274673462
 10
59.370112381
 20
0.2274673462
 10
59.5129702148
 20
0.0846095123
 10
59.5129702148
 20
0.0131805954
 10
59.4415435638
 20
-0.0582460556
 10
59.370112381
 20
-0.0582460556
 10
59.2272545471
 20
0.0131805954
 10
59.1558278961
 20
0.0846095123
 10
59.1558278961
 20
0.1560384293
  0
LINE
  5
28B
100
AcDbEntity
  8
RACCORDO
100
AcDbLine
 62
253
  6
CONTINUOUS
 10
25.7954404135
 20
-47.0002970669
 11
25.7838523753
 21
-46.8718526176
  0
LINE
  5
28C
100
AcDbEntity
  8
RACCORDO
100
AcDbLine
 62
253
  6
CONTINUOUS
 10
21.7058293485
 20
-23.7849310624
 11
21.7058278655
 21
-23.5345055101
  0
LINE
  5
28D
100
AcDbEntity
  8
0
100
AcDbLine
 62
253
  6
CONTINUOUS
 10
21.7058278655
 20
21.5846101871
 11
21.7058239546
 21
21.7037258843
  0
LINE
  5
28E
100
AcDbEntity
  8
0
100
AcDbLine
 62
7
  6
CONTINUOUS
 10
22.5058278655
 20
20.7846101871
 11
22.5058278655
 21
-22.6153898129
  0
LINE
  5
28F
100
AcDbEntity
  8
RACCORDO
100
AcDbLine
 62
253
  6
CONTINUOUS
 10
21.7058278655
 20
21.7037258843
 11
21.705829013
 21
21.9541514558
  0
LINE
  5
290
100
AcDbEntity
  8
0
100
AcDbLine
 62
253
  6
CONTINUOUS
 10
21.7058278655
 20
-23.4153898129
 11
21.7058201521
 21
-23.5345055101
  0
LINE
  5
291
100
AcDbEntity
  8
RACCORDO
100
AcDbLine
 62
253
  6
CONTINUOUS
 10
25.7954404135
 20
45.1695174412
 11
25.7838513776
 21
45.0410730797
  0
LINE
  5
292
100
AcDbEntity
  8
RACCORDO
100
AcDbLine
 62
253
  6
CONTINUOUS
 10
30.7954404135
 20
44.5746101871
 11
30.7778051166
 21
44.4562950614
  0
LINE
  5
293
100
AcDbEntity
  8
RACCORDO
100
AcDbLine
 62
253
  6
CONTINUOUS
 10
30.7954404135
 20
-46.4053898129
 11
30.7778208603
 21
-46.2870724322
  0
LWPOLYLINE
  5
294
100
AcDbEntity
  8
0
100
AcDbPolyline
 62
7
  6
CONTINUOUS
 90
10
 70
0
 43
0.3500000006
 10
0.9772564559
 20
60.5846143799
 10
1.0486850188
 20
60.4417520142
 10
1.0486850188
 20
60.3703208313
 10
0.905827893
 20
60.2274675293
 10
0.8343992593
 20
60.2274675293
 10
0.7629706964
 20
60.2988987122
 10
0.7629706964
 20
60.3703208313
 10
0.8343992593
 20
60.513183197
 10
0.905827893
 20
60.5846143799
 10
0.9772564559
 20
60.5846143799
  0
LWPOLYLINE
  5
295
100
AcDbEntity
  8
0
100
AcDbPolyline
 62
7
  6
CONTINUOUS
 90
10
 70
0
 43
0.3500000006
 10
59.6558280487
 20
-4.7725330467
 10
58.7986855774
 20
-3.9153894424
 10
57.9415431061
 20
-3.7011038246
 10
57.0844006348
 20
-3.7011038246
 10
56.6558271332
 20
-4.1296750603
 10
56.6558271332
 20
-4.7725330467
 10
57.0844006348
 20
-5.2011042824
 10
57.9415431061
 20
-5.2011042824
 10
58.3701120758
 20
-4.7725330467
 10
58.3701120758
 20
-3.8439616585
  0
LWPOLYLINE
  5
296
100
AcDbEntity
  8
0
100
AcDbPolyline
 62
7
  6
CONTINUOUS
 90
8
 70
0
 43
0.3500000006
 10
2.0486849699
 20
60.0846142273
 10
2.9058277245
 20
60.0846142273
 10
3.3343992434
 20
60.513183197
 10
3.3343992434
 20
61.3703211365
 10
2.9058277245
 20
61.7988991699
 10
2.0486849699
 20
61.7988991699
 10
2.0486849699
 20
63.0846060791
 10
3.3343992434
 20
63.0846060791
  0
LWPOLYLINE
  5
297
100
AcDbEntity
  8
0
100
AcDbPolyline
 62
7
  6
CONTINUOUS
 90
3
 70
0
 43
0.3500000006
 10
-0.522743577
 20
60.7274676819
 10
-2.0227436099
 20
60.7274676819
 10
-1.3798864732
 20
63.0846060791
  0
LWPOLYLINE
  5
298
100
AcDbEntity
  8
0
100
AcDbPolyline
 62
7
  6
CONTINUOUS
 90
3
 70
0
 43
0.3500000006
 10
59.0129700623
 20
-1.3439608955
 10
59.0129700623
 20
-2.8439613533
 10
56.6558271332
 20
-2.2011044998
  0
LWPOLYLINE
  5
299
100
AcDbEntity
  8
0
100
AcDbPolyline
 62
7
  6
CONTINUOUS
 90
8
 70
0
 43
0.3500000006
 10
59.6558280487
 20
1.2274676514
 10
59.6558280487
 20
2.0846101227
 10
59.2272545471
 20
2.5131813583
 10
58.3701120758
 20
2.5131813583
 10
57.9415431061
 20
2.0846101227
 10
57.9415431061
 20
1.2274676514
 10
56.6558271332
 20
1.2274676514
 10
56.6558271332
 20
2.5131813583
  0
LINE
  5
29A
100
AcDbEntity
  8
RACCORDO
100
AcDbLine
 62
253
  6
CONTINUOUS
 10
-69.5221402645
 20
-46.4053898129
 11
-71.8046652727
 21
-46.2870724322
  0
LINE
  5
29B
100
AcDbEntity
  8
RACCORDO
100
AcDbLine
 62
253
  6
CONTINUOUS
 10
-69.5221402645
 20
-47.0002970669
 11
-71.9829603603
 21
-46.8718526176
  0
LINE
  5
29C
100
AcDbEntity
  8
DRAFT
100
AcDbLine
 62
7
  6
CONTINUOUS
 10
-69.5221402645
 20
-48.1653898129
 11
-72.4926412602
 21
-48.0097124523
  0
LINE
  5
29D
100
AcDbEntity
  8
0
100
AcDbLine
 62
7
  6
CONTINUOUS
 10
-75.0299884742
 20
-29.7931911673
 11
-74.8795788647
 21
-29.7931911673
  0
LINE
  5
29E
100
AcDbEntity
  8
0
100
AcDbLine
 62
7
  6
CONTINUOUS
 10
-75.044327652
 20
-29.7931911673
 11
-75.0360550956
 21
-29.7931911673
  0
LINE
  5
29F
100
AcDbEntity
  8
0
100
AcDbLine
 62
7
  6
CONTINUOUS
 10
-75.0978844311
 20
-29.2342708129
 11
-75.0945305776
 21
-29.2342708129
  0
LINE
  5
2A0
100
AcDbEntity
  8
0
100
AcDbLine
 62
253
  6
CONTINUOUS
 10
-75.086141856
 20
-29.0354900409
 11
-74.935772993
 21
-29.0354900409
  0
LINE
  5
2A1
100
AcDbEntity
  8
RACCORDO
100
AcDbLine
 62
253
  6
CONTINUOUS
 10
-69.5221402645
 20
-32.5665383236
 11
-72.5539558447
 21
-32.5385703752
  0
LINE
  5
2A2
100
AcDbEntity
  8
0
100
AcDbLine
 62
7
  6
CONTINUOUS
 10
-75.127016777
 20
-28.4863142497
 11
-74.9766767376
 21
-28.4863142497
  0
LINE
  5
2A3
100
AcDbEntity
  8
0
100
AcDbLine
 62
7
  6
CONTINUOUS
 10
-75.1281173101
 20
-28.4697704409
 11
-74.9777780873
 21
-28.4697704409
  0
LINE
  5
2A4
100
AcDbEntity
  8
0
100
AcDbLine
 62
7
  6
CONTINUOUS
 10
-75.1520175827
 20
-28.2390178995
 11
-75.1491438493
 21
-28.2390178995
  0
LINE
  5
2A5
100
AcDbEntity
  8
0
100
AcDbLine
 62
253
  6
CONTINUOUS
 10
-75.2177913147
 20
-27.0556736864
 11
-75.0675183324
 21
-27.0556736864
  0
LINE
  5
2A6
100
AcDbEntity
  8
0
100
AcDbLine
 62
7
  6
CONTINUOUS
 10
-75.0795537257
 20
-26.9606382937
 11
-75.2298204863
 21
-26.9606382937
  0
LINE
  5
2A7
100
AcDbEntity
  8
RACCORDO
100
AcDbLine
 62
253
  6
CONTINUOUS
 10
-75.0815828713
 20
-24.6153005995
 11
-73.2990883292
 21
-24.6152603531
  0
LINE
  5
2A8
100
AcDbEntity
  8
RACCORDO
100
AcDbLine
 62
253
  6
CONTINUOUS
 10
-69.5221402645
 20
-28.5665383236
 11
-72.8197920121
 21
-28.5474172552
  0
LINE
  5
2A9
100
AcDbEntity
  8
RACCORDO
100
AcDbLine
 62
253
  6
CONTINUOUS
 10
-74.7379223348
 20
-22.6308713565
 11
-74.7385945591
 21
-22.6304731906
  0
LINE
  5
2AA
100
AcDbEntity
  8
DRAFT
100
AcDbLine
 62
7
  6
CONTINUOUS
 10
-68.7221402645
 20
2.5846101871
 11
-66.7221402645
 21
2.9372641485
  0
LINE
  5
2AB
100
AcDbEntity
  8
0
100
AcDbLine
 62
253
  6
CONTINUOUS
 10
-68.7221402645
 20
-0.9153898129
 11
-69.5221402645
 21
-0.9153898129
  0
LINE
  5
2AC
100
AcDbEntity
  8
RACCORDO
100
AcDbLine
 62
253
  6
CONTINUOUS
 10
-75.209262916
 20
-0.9153898129
 11
-75.2099185065
 21
-0.9153898129
  0
LWPOLYLINE
  5
2AD
100
AcDbEntity
  8
0
100
AcDbPolyline
 62
7
  6
CONTINUOUS
 90
3
 70
0
 43
0.3500000006
 10
-71.0078527222
 20
60.3703208313
 10
-71.079283905
 20
60.1560363464
 10
-71.2221417389
 20
59.8703206787
  0
LINE
  5
2AE
100
AcDbEntity
  8
DRAFT
100
AcDbLine
 62
7
  6
CONTINUOUS
 10
-66.7221402645
 20
-4.7680437743
 11
-68.7221402645
 21
-4.4153898129
  0
LINE
  5
2AF
100
AcDbEntity
  8
RACCORDO
100
AcDbLine
 62
253
  6
CONTINUOUS
 10
-74.7130639145
 20
-23.7498911509
 11
-74.7142554213
 21
-23.719681584
  0
LINE
  5
2B0
100
AcDbEntity
  8
RACCORDO
100
AcDbLine
 62
7
  6
CONTINUOUS
 10
-74.8352952437
 20
-20.2760167862
 11
-74.732288165
 21
-22.7867565229
  0
LINE
  5
2B1
100
AcDbEntity
  8
RACCORDO
100
AcDbLine
 62
7
  6
CONTINUOUS
 10
-74.7324313197
 20
-22.7829895698
 11
-74.7266851865
 21
-22.9450377805
  0
LINE
  5
2B2
100
AcDbEntity
  8
RACCORDO
100
AcDbLine
 62
7
  6
CONTINUOUS
 10
-74.7177637369
 20
22.0533237453
 11
-74.7166926528
 21
22.0216493379
  0
LINE
  5
2B3
100
AcDbEntity
  8
RACCORDO
100
AcDbLine
 62
7
  6
CONTINUOUS
 10
-74.7268267078
 20
-22.9407222599
 11
-74.7220672671
 21
-23.0979599529
  0
LINE
  5
2B4
100
AcDbEntity
  8
RACCORDO
100
AcDbLine
 62
7
  6
CONTINUOUS
 10
-74.7166926528
 20
22.0216493379
 11
-74.7157605857
 21
21.9861066317
  0
LINE
  5
2B5
100
AcDbEntity
  8
RACCORDO
100
AcDbLine
 62
7
  6
CONTINUOUS
 10
-74.7221980048
 20
-23.0932251911
 11
-74.7184496838
 21
-23.2440357979
  0
LINE
  5
2B6
100
AcDbEntity
  8
RACCORDO
100
AcDbLine
 62
7
  6
CONTINUOUS
 10
-74.7157605857
 20
21.9861066317
 11
-74.714996685
 21
21.9469379428
  0
LINE
  5
2B7
100
AcDbEntity
  8
RACCORDO
100
AcDbLine
 62
7
  6
CONTINUOUS
 10
-74.7185596182
 20
-23.2390186716
 11
-74.7158759564
 21
-23.381508151
  0
LINE
  5
2B8
100
AcDbEntity
  8
RACCORDO
100
AcDbLine
 62
7
  6
CONTINUOUS
 10
-74.714996685
 20
21.9469379428
 11
-74.7144124777
 21
21.9043749738
  0
LINE
  5
2B9
100
AcDbEntity
  8
RACCORDO
100
AcDbLine
 62
7
  6
CONTINUOUS
 10
-74.7159559858
 20
-23.3763694323
 11
-74.7143448418
 21
-23.5088236177
  0
LWPOLYLINE
  5
2BA
100
AcDbEntity
  8
RACCORDO
100
AcDbPolyline
 62
7
  6
CONTINUOUS
 90
8
 70
0
 10
-75.2044002725
 20
-3.2655375124
 10
-75.1870824648
 20
-5.6962336921
 10
-75.15795917
 20
-8.1268181846
 10
-75.1170311251
 20
-10.5572270926
 10
-75.064299461
 20
-12.9874051209
 10
-74.9997652879
 20
-15.4173010073
 10
-74.9234298732
 20
-17.8468594593
 10
-74.8352952437
 20
-20.2760167862
  0
LINE
  5
2BB
100
AcDbEntity
  8
RACCORDO
100
AcDbLine
 62
7
  6
CONTINUOUS
 10
-74.7144124777
 20
21.9043749738
 11
-74.713939728
 21
21.8424786581
  0
LINE
  5
2BC
100
AcDbEntity
  8
RACCORDO
100
AcDbLine
 62
7
  6
CONTINUOUS
 10
-74.7143884106
 20
-23.5037154874
 11
-74.7138368828
 21
-23.6198788807
  0
LINE
  5
2BD
100
AcDbEntity
  8
RACCORDO
100
AcDbLine
 62
7
  6
CONTINUOUS
 10
-75.2099185062
 20
-0.9153898129
 11
-75.2043787271
 21
-3.2685615822
  0
LINE
  5
2BE
100
AcDbEntity
  8
RACCORDO
100
AcDbLine
 62
7
  6
CONTINUOUS
 10
-74.7139621988
 20
21.8472327867
 11
-74.7138368828
 21
21.7890992528
  0
LWPOLYLINE
  5
2BF
100
AcDbEntity
  8
0
100
AcDbPolyline
 62
7
  6
CONTINUOUS
 90
4
 70
0
 43
0.3500000006
 10
-74.0792848206
 20
60.513183197
 10
-74.0792848206
 20
61.3703211365
 10
-73.650711319
 20
61.7988991699
 10
-73.0078533325
 20
61.7988991699
  0
LINE
  5
2C0
100
AcDbEntity
  8
RACCORDO
100
AcDbLine
 62
7
  6
CONTINUOUS
 10
-74.7139637843
 20
-23.5683310623
 11
-74.713939728
 21
-23.6732582863
  0
LINE
  5
2C1
100
AcDbEntity
  8
RACCORDO
100
AcDbLine
 62
7
  6
CONTINUOUS
 10
-74.7138357277
 20
-23.6247984981
 11
-74.7139568523
 21
-23.6757560476
  0
LINE
  5
2C2
100
AcDbEntity
  8
RACCORDO
100
AcDbLine
 62
7
  6
CONTINUOUS
 10
-74.7138357281
 20
21.7940127663
 11
-74.7143448831
 21
21.6780390709
  0
LINE
  5
2C3
100
AcDbEntity
  8
RACCORDO
100
AcDbLine
 62
7
  6
CONTINUOUS
 10
-74.713939728
 20
-23.6732582863
 11
-74.7144122954
 21
-23.7351567953
  0
LINE
  5
2C4
100
AcDbEntity
  8
RACCORDO
100
AcDbLine
 62
7
  6
CONTINUOUS
 10
-74.7139867246
 20
21.7325156048
 11
-74.7150447596
 21
21.6105816431
  0
LINE
  5
2C5
100
AcDbEntity
  8
RACCORDO
100
AcDbLine
 62
7
  6
CONTINUOUS
 10
-74.7143685403
 20
-23.7310937508
 11
-74.7149968077
 21
-23.777718511
  0
LINE
  5
2C6
100
AcDbEntity
  8
RACCORDO
100
AcDbLine
 62
7
  6
CONTINUOUS
 10
-74.7149823337
 20
21.6157191728
 11
-74.7171270896
 21
21.4780868672
  0
LINE
  5
2C7
100
AcDbEntity
  8
RACCORDO
100
AcDbLine
 62
7
  6
CONTINUOUS
 10
-74.7149397794
 20
-23.774227282
 11
-74.7157605264
 21
-23.8168822378
  0
LINE
  5
2C8
100
AcDbEntity
  8
RACCORDO
100
AcDbLine
 62
7
  6
CONTINUOUS
 10
-74.7170311859
 20
21.4831824683
 11
-74.7202507563
 21
21.3362756303
  0
LINE
  5
2C9
100
AcDbEntity
  8
RACCORDO
100
AcDbLine
 62
7
  6
CONTINUOUS
 10
-74.7156937431
 20
-23.8139142463
 11
-74.7166922041
 21
-23.8524206855
  0
LINE
  5
2CA
100
AcDbEntity
  8
RACCORDO
100
AcDbLine
 62
7
  6
CONTINUOUS
 10
-74.7201290193
 20
21.3411706013
 11
-74.724390805
 21
21.1869511218
  0
LINE
  5
2CB
100
AcDbEntity
  8
RACCORDO
100
AcDbLine
 62
7
  6
CONTINUOUS
 10
-74.7242530197
 20
21.1914937698
 11
-74.7295094267
 21
21.0316188625
  0
LINE
  5
2CC
100
AcDbEntity
  8
RACCORDO
100
AcDbLine
 62
7
  6
CONTINUOUS
 10
-74.716618638
 20
-23.8499319017
 11
-74.7176856931
 21
-23.8820388487
  0
LWPOLYLINE
  5
2CD
100
AcDbEntity
  8
RACCORDO
100
AcDbPolyline
 62
7
  6
CONTINUOUS
 90
9
 70
0
 10
-74.835199963
 20
18.4476983164
 10
-74.9233287285
 20
16.0190678005
 10
-74.9996634
 20
13.5900358156
 10
-75.06420195
 20
11.1606660651
 10
-75.1169431104
 20
8.7310138748
 10
-75.1578857621
 20
6.3011305539
 10
-75.1870287664
 20
3.8710714541
 10
-75.2043713862
 20
1.4409001999
 10
-75.2099185062
 20
-0.9153898129
  0
LINE
  5
2CE
100
AcDbEntity
  8
RACCORDO
100
AcDbLine
 62
7
  6
CONTINUOUS
 10
-74.7293650821
 20
21.0356820352
 11
-74.7355150728
 21
20.8737505025
  0
LINE
  5
2CF
100
AcDbEntity
  8
RACCORDO
100
AcDbLine
 62
253
  6
CONTINUOUS
 10
-74.713066775
 20
21.919111656
 11
-74.7142579063
 21
21.8889015789
  0
LINE
  5
2D0
100
AcDbEntity
  8
RACCORDO
100
AcDbLine
 62
7
  6
CONTINUOUS
 10
-74.717212608
 20
-23.8687483561
 11
-74.7182621756
 21
-23.8965400862
  0
LINE
  5
2D1
100
AcDbEntity
  8
RACCORDO
100
AcDbLine
 62
7
  6
CONTINUOUS
 10
-74.7354447966
 20
20.8754377752
 11
-74.8352439811
 21
18.4464852775
  0
LWPOLYLINE
  5
2D2
100
AcDbEntity
  8
RACCORDO
100
AcDbPolyline
 62
7
  6
CONTINUOUS
 90
12
 70
0
 10
-74.7177639942
 20
-23.8841035088
 10
-74.7188620624
 20
-23.9100019857
 10
-74.7194786283
 20
-23.9224188076
 10
-74.7200993373
 20
-23.9336888573
 10
-74.7207179399
 20
-23.9438361047
 10
-74.7213276838
 20
-23.9528787377
 10
-74.721912025
 20
-23.9607186143
 10
-74.7224648459
 20
-23.9674500535
 10
-74.7229689751
 20
-23.9730279984
 10
-74.7233792873
 20
-23.9771529301
 10
-74.7236735294
 20
-23.9798396544
 10
-74.7237558846
 20
-23.9805380889
  0
LINE
  5
2D3
100
AcDbEntity
  8
DRAFT
100
AcDbLine
 62
7
  6
CONTINUOUS
 10
-69.5221402645
 20
-48.1653784959
 11
-69.5221402645
 21
46.3345988701
  0
LINE
  5
2D4
100
AcDbEntity
  8
DRAFT
100
AcDbLine
 62
7
  6
CONTINUOUS
 10
-68.7221402645
 20
-4.4153898129
 11
-68.7221402645
 21
2.5846101871
  0
LINE
  5
2D5
100
AcDbEntity
  8
RACCORDO
100
AcDbLine
 62
253
  6
CONTINUOUS
 10
-74.7381260961
 20
20.7953661425
 11
-74.7387821048
 21
20.7953437934
  0
LINE
  5
2D6
100
AcDbEntity
  8
RACCORDO
100
AcDbLine
 62
253
  6
CONTINUOUS
 10
-75.0815828713
 20
22.7845209737
 11
-73.2990883417
 21
22.7844804221
  0
LWPOLYLINE
  5
2D7
100
AcDbEntity
  8
RACCORDO
100
AcDbPolyline
 62
7
  6
CONTINUOUS
 90
16
 70
0
 10
-74.7233689691
 20
22.1473255259
 10
-74.7234615594
 20
22.1479006386
 10
-74.7237679211
 20
22.1499126012
 10
-74.7238353768
 20
22.1503969456
 10
-74.7236960354
 20
22.1492519733
 10
-74.723415819
 20
22.1467173143
 10
-74.723016691
 20
22.1427465006
 10
-74.7225213787
 20
22.1373251085
 10
-74.7219756779
 20
22.1307523081
 10
-74.721397013
 20
22.1230720589
 10
-74.7207914365
 20
22.1141917501
 10
-74.7201757503
 20
22.1042139902
 10
-74.7195567992
 20
22.0931218513
 10
-74.7189409421
 20
22.0808903235
 10
-74.7183410295
 20
22.0676224417
 10
-74.7177637369
 20
22.0533237453
  0
LINE
  5
2D8
100
AcDbEntity
  8
0
100
AcDbLine
 62
7
  6
CONTINUOUS
 10
-66.7221402645
 20
-46.3153898129
 11
-66.7221402645
 21
-28.3619198247
  0
LINE
  5
2D9
100
AcDbEntity
  8
DRAFT
100
AcDbLine
 62
7
  6
CONTINUOUS
 10
-66.7221402645
 20
-28.3619198247
 11
-66.7221402645
 21
-4.7680437743
  0
LINE
  5
2DA
100
AcDbEntity
  8
DRAFT
100
AcDbLine
 62
7
  6
CONTINUOUS
 10
-66.7221402645
 20
2.9372641485
 11
-66.7221402645
 21
26.5311401989
  0
LINE
  5
2DB
100
AcDbEntity
  8
0
100
AcDbLine
 62
7
  6
CONTINUOUS
 10
-66.7221402645
 20
26.5311401989
 11
-66.7221402645
 21
44.4846101871
  0
LINE
  5
2DC
100
AcDbEntity
  8
RACCORDO
100
AcDbLine
 62
7
  6
CONTINUOUS
 10
-75.1142936105
 20
-24.4614149771
 11
-74.7182319726
 21
-23.8957803384
  0
LINE
  5
2DD
100
AcDbEntity
  8
RACCORDO
100
AcDbLine
 62
253
  6
CONTINUOUS
 10
-69.5221402645
 20
26.7357586978
 11
-72.8197919751
 21
26.7166387555
  0
LINE
  5
2DE
100
AcDbEntity
  8
RACCORDO
100
AcDbLine
 62
7
  6
CONTINUOUS
 10
-75.1142934828
 20
22.630635169
 11
-74.7182353767
 21
22.0650055742
  0
LINE
  5
2DF
100
AcDbEntity
  8
RACCORDO
100
AcDbLine
 62
253
  6
CONTINUOUS
 10
-69.5221402645
 20
30.7357586978
 11
-72.553954827
 21
30.7078067256
  0
LINE
  5
2E0
100
AcDbEntity
  8
RACCORDO
100
AcDbLine
 62
253
  6
CONTINUOUS
 10
-69.5221402645
 20
45.1695174412
 11
-71.9829603995
 21
45.0410730797
  0
LINE
  5
2E1
100
AcDbEntity
  8
RACCORDO
100
AcDbLine
 62
253
  6
CONTINUOUS
 10
-69.5221402645
 20
44.5746101871
 11
-71.8046666876
 21
44.4562950614
  0
LINE
  5
2E2
100
AcDbEntity
  8
DRAFT
100
AcDbLine
 62
7
  6
CONTINUOUS
 10
-69.5221402645
 20
46.3346101871
 11
-72.4926412602
 21
46.1789328266
  0
LWPOLYLINE
  5
2E3
100
AcDbEntity
  8
0
100
AcDbPolyline
 62
7
  6
CONTINUOUS
 90
10
 70
0
 43
0.3500000006
 10
-71.079283905
 20
60.5846143799
 10
-71.0078527222
 20
60.4417520142
 10
-71.0078527222
 20
60.3703208313
 10
-71.150710556
 20
60.2274675293
 10
-71.2221417389
 20
60.2274675293
 10
-71.2935683899
 20
60.2988987122
 10
-71.2935683899
 20
60.3703208313
 10
-71.2221417389
 20
60.513183197
 10
-71.150710556
 20
60.5846143799
 10
-71.079283905
 20
60.5846143799
  0
LWPOLYLINE
  5
2E4
100
AcDbEntity
  8
0
100
AcDbPolyline
 62
7
  6
CONTINUOUS
 90
8
 70
0
 43
0.3500000006
 10
-70.007852417
 20
60.0846142273
 10
-69.1507099457
 20
60.0846142273
 10
-68.722140976
 20
60.513183197
 10
-68.722140976
 20
61.3703211365
 10
-69.1507099457
 20
61.7988991699
 10
-70.007852417
 20
61.7988991699
 10
-70.007852417
 20
63.0846060791
 10
-68.722140976
 20
63.0846060791
  0
LWPOLYLINE
  5
2E5
100
AcDbEntity
  8
0
100
AcDbPolyline
 62
7
  6
CONTINUOUS
 90
13
 70
0
 43
0.3500000006
 10
-73.650711319
 20
61.7988991699
 10
-73.9364269867
 20
62.0131836548
 10
-73.9364269867
 20
62.6560371094
 10
-73.650711319
 20
63.0846060791
 10
-73.0078533325
 20
63.0846060791
 10
-72.7221421967
 20
62.6560371094
 10
-72.7221421967
 20
62.0131836548
 10
-73.0078533325
 20
61.7988991699
 10
-72.5792843628
 20
61.3703211365
 10
-72.5792843628
 20
60.513183197
 10
-73.0078533325
 20
60.0846142273
 10
-73.650711319
 20
60.0846142273
 10
-74.0792848206
 20
60.513183197
  0
ARC
  5
2E6
100
AcDbEntity
  8
RACCORDO
100
AcDbCircle
 62
253
  6
CONTINUOUS
 10
-4123.8990201336
 20
-15.137075311
 40
4146.5506067652
100
AcDbArc
 50
359.5612686783
 51
359.8690326417
  0
ARC
  5
2E7
100
AcDbEntity
  8
RACCORDO
100
AcDbCircle
 62
253
  6
CONTINUOUS
 10
-0.1125048634
 20
-328.5897098689
 40
351.5618527896
100
AcDbArc
 50
91.8719657285
 51
93.5563008103
  0
ARC
  5
2E8
100
AcDbEntity
  8
RACCORDO
100
AcDbCircle
 62
253
  6
CONTINUOUS
 10
-0.1124742666
 20
-328.4978171338
 40
351.1282168969
100
AcDbArc
 50
91.8720916429
 51
93.5565391287
  0
ARC
  5
2E9
100
AcDbEntity
  8
RACCORDO
100
AcDbCircle
 62
253
  6
CONTINUOUS
 10
-0.4749606104
 20
-244.0245715935
 40
290.1879665404
100
AcDbArc
 50
94.3979591927
 51
95.0407682524
  0
ARC
  5
2EA
100
AcDbEntity
  8
RACCORDO
100
AcDbCircle
 62
253
  6
CONTINUOUS
 10
-0.4821913752
 20
-243.72866175
 40
289.6408684684
100
AcDbArc
 50
94.4030175049
 51
95.0465694085
  0
ARC
  5
2EB
100
AcDbEntity
  8
RACCORDO
100
AcDbCircle
 62
253
  6
CONTINUOUS
 10
-219.597032168
 20
-1.9015963197
 40
266.3114289827
100
AcDbArc
 50
5.3187407744
 51
6.1661653199
  0
ARC
  5
2EC
100
AcDbEntity
  8
RACCORDO
100
AcDbCircle
 62
253
  6
CONTINUOUS
 10
-218.9449907433
 20
-1.8810955183
 40
265.9372882025
100
AcDbArc
 50
5.3248946648
 51
6.1732749267
  0
ARC
  5
2ED
100
AcDbEntity
  8
DRAFT
100
AcDbCircle
 62
7
  6
CONTINUOUS
 10
-18.0425856899
 20
-42.882783026
 40
88.4096728814
100
AcDbArc
 50
95.1534094942
 51
98.4170632326
  0
ARC
  5
2EE
100
AcDbEntity
  8
RACCORDO
100
AcDbCircle
 62
253
  6
CONTINUOUS
 10
-18.2401796446
 20
-42.6060310982
 40
87.9874931013
100
AcDbArc
 50
95.0414449909
 51
98.3160870994
  0
ARC
  5
2EF
100
AcDbEntity
  8
RACCORDO
100
AcDbCircle
 62
253
  6
CONTINUOUS
 10
-18.2526869328
 20
-42.4871377618
 40
87.6162623237
100
AcDbArc
 50
95.0470170308
 51
98.3254789822
  0
ARC
  5
2F0
100
AcDbEntity
  8
RACCORDO
100
AcDbCircle
 62
253
  6
CONTINUOUS
 10
-38.4880831458
 20
-77.4312191546
 40
81.355133518
100
AcDbArc
 50
41.287630844
 51
41.5355151105
  0
ARC
  5
2F1
100
AcDbEntity
  8
RACCORDO
100
AcDbCircle
 62
253
  6
CONTINUOUS
 10
-16.6871252451
 20
-21.8258986545
 40
62.4997967757
100
AcDbArc
 50
350.1305798106
 51
353.8262055032
  0
ARC
  5
2F2
100
AcDbEntity
  8
RACCORDO
100
AcDbCircle
 62
253
  6
CONTINUOUS
 10
-16.8256250857
 20
-21.8362088483
 40
62.3600590484
100
AcDbArc
 50
350.1425359968
 51
353.8339706022
  0
ARC
  5
2F3
100
AcDbEntity
  8
DRAFT
100
AcDbCircle
 62
7
  6
CONTINUOUS
 10
-15.9423270947
 20
-21.7152100217
 40
61.9443374955
100
AcDbArc
 50
349.9109426922
 51
353.6498310709
  0
ARC
  5
2F4
100
AcDbEntity
  8
DRAFT
100
AcDbCircle
 62
7
  6
CONTINUOUS
 10
-28.4953648558
 20
-29.588500482
 40
17.0
100
AcDbArc
 50
190.0890573078
 51
261.5829367674
  0
ARC
  5
2F5
100
AcDbEntity
  8
RACCORDO
100
AcDbCircle
 62
253
  6
CONTINUOUS
 10
-21.8254972833
 20
-22.6050532006
 40
1.5237919938
100
AcDbArc
 50
228.706121615
 51
266.4577216717
  0
ARC
  5
2F6
100
AcDbEntity
  8
RACCORDO
100
AcDbCircle
 62
253
  6
CONTINUOUS
 10
-21.6737969874
 20
-22.5155254392
 40
1.3491913016
100
AcDbArc
 50
202.8853915414
 51
210.306247376
  0
ARC
  5
2F7
100
AcDbEntity
  8
RACCORDO
100
AcDbCircle
 62
253
  6
CONTINUOUS
 10
-21.7895486086
 20
-22.5746657646
 40
1.2185366304
100
AcDbArc
 50
211.7016690324
 51
217.5701524279
  0
ARC
  5
2F8
100
AcDbEntity
  8
RACCORDO
100
AcDbCircle
 62
253
  6
CONTINUOUS
 10
-21.7981813353
 20
-22.5812187344
 40
1.2077064204
100
AcDbArc
 50
217.5733844634
 51
265.4481215019
  0
ARC
  5
2F9
100
AcDbEntity
  8
RACCORDO
100
AcDbCircle
 62
253
  6
CONTINUOUS
 10
-21.8942410104
 20
-22.613726334
 40
1.1122368622
100
AcDbArc
 50
219.2638265637
 51
270.0039553843
  0
ARC
  5
2FA
100
AcDbEntity
  8
RACCORDO
100
AcDbCircle
 62
253
  6
CONTINUOUS
 10
-21.894188177
 20
-22.6136106133
 40
0.9208948968
100
AcDbArc
 50
180.1105857462
 51
270.0011621803
  0
ARC
  5
2FB
100
AcDbEntity
  8
0
100
AcDbCircle
 62
7
  6
CONTINUOUS
 10
-21.8941721345
 20
-22.6153898129
 40
0.8
100
AcDbArc
 50
179.9999999996
 51
270.0000000006
  0
ARC
  5
2FC
100
AcDbEntity
  8
RACCORDO
100
AcDbCircle
 62
253
  6
CONTINUOUS
 10
-22.9624596002
 20
-23.2916861675
 40
0.1562907227
100
AcDbArc
 50
29.3831888267
 51
37.5858454568
  0
ARC
  5
2FD
100
AcDbEntity
  8
RACCORDO
100
AcDbCircle
 62
253
  6
CONTINUOUS
 10
-4123.8997035578
 20
13.3062936624
 40
4146.5512901922
100
AcDbArc
 50
0.1309673647
 51
0.4387312774
  0
ARC
  5
2FE
100
AcDbEntity
  8
RACCORDO
100
AcDbCircle
 62
253
  6
CONTINUOUS
 10
-0.1075358044
 20
326.8637493849
 40
351.6667783147
100
AcDbArc
 50
266.4439504822
 51
268.127782979
  0
ARC
  5
2FF
100
AcDbEntity
  8
RACCORDO
100
AcDbCircle
 62
253
  6
CONTINUOUS
 10
-0.1075156438
 20
326.771628341
 40
351.2329138976
100
AcDbArc
 50
266.4437119868
 51
268.1276572766
  0
ARC
  5
300
100
AcDbEntity
  8
RACCORDO
100
AcDbCircle
 62
253
  6
CONTINUOUS
 10
-0.4749645101
 20
242.1937447448
 40
290.1879191574
100
AcDbArc
 50
264.9592318931
 51
265.60204086
  0
ARC
  5
301
100
AcDbEntity
  8
RACCORDO
100
AcDbCircle
 62
253
  6
CONTINUOUS
 10
-0.4821919255
 20
241.8978754809
 40
289.6408618024
100
AcDbArc
 50
264.9534305843
 51
265.5969825013
  0
ARC
  5
302
100
AcDbEntity
  8
RACCORDO
100
AcDbCircle
 62
253
  6
CONTINUOUS
 10
-219.5941163837
 20
0.0705234314
 40
266.3084985676
100
AcDbArc
 50
353.8338300275
 51
354.6812638321
  0
ARC
  5
303
100
AcDbEntity
  8
RACCORDO
100
AcDbCircle
 62
253
  6
CONTINUOUS
 10
-218.9442025713
 20
0.0502365283
 40
265.9364960666
100
AcDbArc
 50
353.8267240565
 51
354.6751066014
  0
ARC
  5
304
100
AcDbEntity
  8
RACCORDO
100
AcDbCircle
 62
253
  6
CONTINUOUS
 10
-208.588506078
 20
-0.9153898129
 40
255.5358766663
100
AcDbArc
 50
354.675200202
 51
5.324799798
  0
ARC
  5
305
100
AcDbEntity
  8
RACCORDO
100
AcDbCircle
 62
253
  6
CONTINUOUS
 10
-208.7933471273
 20
-0.9153898424
 40
255.4628422115
100
AcDbArc
 50
354.6768854178
 51
5.3231145268
  0
ARC
  5
306
100
AcDbEntity
  8
DRAFT
100
AcDbCircle
 62
7
  6
CONTINUOUS
 10
-202.8441721345
 20
-0.9153898129
 40
250.0
100
AcDbArc
 50
353.6498310709
 51
6.3501689291
  0
ARC
  5
307
100
AcDbEntity
  8
DRAFT
100
AcDbCircle
 62
7
  6
CONTINUOUS
 10
-18.0425856899
 20
41.0520034002
 40
88.4096728814
100
AcDbArc
 50
261.5829367674
 51
264.8465905058
  0
ARC
  5
308
100
AcDbEntity
  8
RACCORDO
100
AcDbCircle
 62
253
  6
CONTINUOUS
 10
-18.2401949047
 20
40.7751210786
 40
87.9873618709
100
AcDbArc
 50
261.6839208088
 51
264.9585580983
  0
ARC
  5
309
100
AcDbEntity
  8
RACCORDO
100
AcDbCircle
 62
253
  6
CONTINUOUS
 10
-18.2526869318
 20
40.6563581444
 40
87.6162623321
100
AcDbArc
 50
261.6745210179
 51
264.952982969
  0
ARC
  5
30A
100
AcDbEntity
  8
RACCORDO
100
AcDbCircle
 62
253
  6
CONTINUOUS
 10
-38.6209176854
 20
75.7176010804
 40
81.532254102
100
AcDbArc
 50
318.4647516144
 51
318.7120976874
  0
ARC
  5
30B
100
AcDbEntity
  8
RACCORDO
100
AcDbCircle
 62
253
  6
CONTINUOUS
 10
-16.6902027892
 20
19.9946852902
 40
62.5029031173
100
AcDbArc
 50
6.1738874329
 51
9.8693432206
  0
ARC
  5
30C
100
AcDbEntity
  8
RACCORDO
100
AcDbCircle
 62
253
  6
CONTINUOUS
 10
-16.8290387851
 20
20.0049487446
 40
62.363504607
100
AcDbArc
 50
6.1661314083
 51
9.8573619928
  0
ARC
  5
30D
100
AcDbEntity
  8
DRAFT
100
AcDbCircle
 62
7
  6
CONTINUOUS
 10
-15.9423270947
 20
19.8844303959
 40
61.9443374955
100
AcDbArc
 50
6.3501689291
 51
10.0890573078
  0
ARC
  5
30E
100
AcDbEntity
  8
DRAFT
100
AcDbCircle
 62
7
  6
CONTINUOUS
 10
-28.4953648558
 20
27.7577208563
 40
17.0
100
AcDbArc
 50
98.4170632326
 51
169.9109426922
  0
ARC
  5
30F
100
AcDbEntity
  8
RACCORDO
100
AcDbCircle
 62
253
  6
CONTINUOUS
 10
-21.8255190797
 20
20.7743546736
 40
1.5237092655
100
AcDbArc
 50
93.5416487015
 51
131.286621212
  0
ARC
  5
310
100
AcDbEntity
  8
RACCORDO
100
AcDbCircle
 62
253
  6
CONTINUOUS
 10
-21.8260295068
 20
20.7767323688
 40
1.5215455165
100
AcDbArc
 50
131.3306032935
 51
179.1457137739
  0
ARC
  5
311
100
AcDbEntity
  8
RACCORDO
100
AcDbCircle
 62
253
  6
CONTINUOUS
 10
-21.7986088296
 20
20.7505744007
 40
1.2073519622
100
AcDbArc
 50
94.5397932151
 51
178.1125355042
  0
ARC
  5
312
100
AcDbEntity
  8
RACCORDO
100
AcDbCircle
 62
253
  6
CONTINUOUS
 10
-21.8942422207
 20
20.7829494165
 40
1.1122340448
100
AcDbArc
 50
89.9959771389
 51
140.7371800674
  0
ARC
  5
313
100
AcDbEntity
  8
RACCORDO
100
AcDbCircle
 62
253
  6
CONTINUOUS
 10
-21.8941881903
 20
20.7828310009
 40
0.9208948835
100
AcDbArc
 50
89.9988402821
 51
179.8894190906
  0
ARC
  5
314
100
AcDbEntity
  8
0
100
AcDbCircle
 62
7
  6
CONTINUOUS
 10
-21.8941721345
 20
20.7846101871
 40
0.8
100
AcDbArc
 50
89.9999999994
 51
180.0000000004
  0
ARC
  5
315
100
AcDbEntity
  8
RACCORDO
100
AcDbCircle
 62
253
  6
CONTINUOUS
 10
4123.7113601853
 20
-15.1370732855
 40
4146.5512910887
100
AcDbArc
 50
180.1309673647
 51
180.4387312773
  0
ARC
  5
316
100
AcDbEntity
  8
RACCORDO
100
AcDbCircle
 62
253
  6
CONTINUOUS
 10
-0.0941721345
 20
-329.0824361719
 40
351.7131217942
100
AcDbArc
 50
88.128039687
 51
91.871960313
  0
ARC
  5
317
100
AcDbEntity
  8
RACCORDO
100
AcDbCircle
 62
253
  6
CONTINUOUS
 10
-0.0808096791
 20
-328.6945546298
 40
351.6668039599
100
AcDbArc
 50
86.4439505436
 51
88.1277829176
  0
ARC
  5
318
100
AcDbEntity
  8
RACCORDO
100
AcDbCircle
 62
253
  6
CONTINUOUS
 10
-0.0941721345
 20
-328.6088653536
 40
351.5815973565
100
AcDbArc
 50
88.1251502315
 51
91.8748497685
  0
ARC
  5
319
100
AcDbEntity
  8
RACCORDO
100
AcDbCircle
 62
253
  6
CONTINUOUS
 10
-0.0808299066
 20
-328.6024352575
 40
351.2329412156
100
AcDbArc
 50
86.4437120422
 51
88.1276572131
  0
ARC
  5
31A
100
AcDbEntity
  8
RACCORDO
100
AcDbCircle
 62
253
  6
CONTINUOUS
 10
-0.0941721345
 20
-248.9538957736
 40
295.1319764509
100
AcDbArc
 50
85.6017167286
 51
94.3982832714
  0
ARC
  5
31B
100
AcDbEntity
  8
RACCORDO
100
AcDbCircle
 62
253
  6
CONTINUOUS
 10
-0.0941721338
 20
-248.8436151665
 40
294.7705150612
100
AcDbArc
 50
85.5981115664
 51
94.4018884325
  0
ARC
  5
31C
100
AcDbEntity
  8
RACCORDO
100
AcDbCircle
 62
253
  6
CONTINUOUS
 10
0.2866202412
 20
-244.0245243693
 40
290.1879191562
100
AcDbArc
 50
84.9592318931
 51
85.60204086
  0
ARC
  5
31D
100
AcDbEntity
  8
RACCORDO
100
AcDbCircle
 62
253
  6
CONTINUOUS
 10
0.2938476564
 20
-243.7286551073
 40
289.640861803
100
AcDbArc
 50
84.9534305843
 51
85.5969825013
  0
ARC
  5
31E
100
AcDbEntity
  8
DRAFT
100
AcDbCircle
 62
7
  6
CONTINUOUS
 10
-0.0941721345
 20
-241.8954390201
 40
288.2300492072
100
AcDbArc
 50
84.8465905058
 51
95.1534094942
  0
ARC
  5
31F
100
AcDbEntity
  8
RACCORDO
100
AcDbCircle
 62
253
  6
CONTINUOUS
 10
219.4057721154
 20
-1.9013030572
 40
266.3084985683
100
AcDbArc
 50
173.8338300275
 51
174.6812638321
  0
ARC
  5
320
100
AcDbEntity
  8
RACCORDO
100
AcDbCircle
 62
253
  6
CONTINUOUS
 10
218.7558583019
 20
-1.881016154
 40
265.9364960663
100
AcDbArc
 50
173.8267240565
 51
174.6751066014
  0
ARC
  5
321
100
AcDbEntity
  8
DRAFT
100
AcDbCircle
 62
7
  6
CONTINUOUS
 10
17.8542414209
 20
-42.882783026
 40
88.4096728814
100
AcDbArc
 50
81.5829367674
 51
84.8465905058
  0
ARC
  5
322
100
AcDbEntity
  8
RACCORDO
100
AcDbCircle
 62
253
  6
CONTINUOUS
 10
18.0518506357
 20
-42.6059007043
 40
87.9873618708
100
AcDbArc
 50
81.6839208088
 51
84.9585580983
  0
ARC
  5
323
100
AcDbEntity
  8
RACCORDO
100
AcDbCircle
 62
253
  6
CONTINUOUS
 10
18.0643426628
 20
-42.4871377702
 40
87.6162623322
100
AcDbArc
 50
81.6745210179
 51
84.952982969
  0
ARC
  5
324
100
AcDbEntity
  8
RACCORDO
100
AcDbCircle
 62
253
  6
CONTINUOUS
 10
38.4325776335
 20
-77.5483844256
 40
81.5322597248
100
AcDbArc
 50
138.4647516229
 51
138.7120976789
  0
ARC
  5
325
100
AcDbEntity
  8
RACCORDO
100
AcDbCircle
 62
253
  6
CONTINUOUS
 10
16.5018585202
 20
-21.825464916
 40
62.5029031173
100
AcDbArc
 50
186.1738874329
 51
189.8693432206
  0
ARC
  5
326
100
AcDbEntity
  8
RACCORDO
100
AcDbCircle
 62
253
  6
CONTINUOUS
 10
16.6406945164
 20
-21.8357283704
 40
62.3635046074
100
AcDbArc
 50
186.1661314083
 51
189.8573619928
  0
ARC
  5
327
100
AcDbEntity
  8
DRAFT
100
AcDbCircle
 62
7
  6
CONTINUOUS
 10
15.7539828257
 20
-21.7152100217
 40
61.9443374955
100
AcDbArc
 50
186.3501689291
 51
190.0890573078
  0
ARC
  5
328
100
AcDbEntity
  8
DRAFT
100
AcDbCircle
 62
7
  6
CONTINUOUS
 10
28.3070205868
 20
-29.588500482
 40
17.0
100
AcDbArc
 50
278.4170632326
 51
349.9109426922
  0
ARC
  5
329
100
AcDbEntity
  8
RACCORDO
100
AcDbCircle
 62
253
  6
CONTINUOUS
 10
21.6371509412
 20
-22.6050468479
 40
1.5237985589
100
AcDbArc
 50
273.5423413696
 51
311.2937793164
  0
ARC
  5
32A
100
AcDbEntity
  8
RACCORDO
100
AcDbCircle
 62
253
  6
CONTINUOUS
 10
21.6377456677
 20
-22.6075282919
 40
1.5214841802
100
AcDbArc
 50
311.3386189348
 51
359.1462934792
  0
ARC
  5
32B
100
AcDbEntity
  8
RACCORDO
100
AcDbCircle
 62
253
  6
CONTINUOUS
 10
21.609824278
 20
-22.5814331431
 40
1.2076074324
100
AcDbArc
 50
274.5518797164
 51
358.1124195802
  0
ARC
  5
32C
100
AcDbEntity
  8
RACCORDO
100
AcDbCircle
 62
253
  6
CONTINUOUS
 10
21.7058911943
 20
-22.6137089817
 40
1.1122544613
100
AcDbArc
 50
269.9964034431
 51
320.7369103894
  0
ARC
  5
32D
100
AcDbEntity
  8
RACCORDO
100
AcDbCircle
 62
253
  6
CONTINUOUS
 10
21.7058428946
 20
-22.6136095975
 40
0.9208959122
100
AcDbArc
 50
269.9985850207
 51
359.889269026
  0
ARC
  5
32E
100
AcDbEntity
  8
0
100
AcDbCircle
 62
7
  6
CONTINUOUS
 10
21.7058278655
 20
-22.6153898129
 40
0.8
100
AcDbArc
 50
269.9999999983
 51
360.0
  0
ARC
  5
32F
100
AcDbEntity
  8
RACCORDO
100
AcDbCircle
 62
253
  6
CONTINUOUS
 10
4123.7106762749
 20
13.306295684
 40
4146.5506071755
100
AcDbArc
 50
179.5612686783
 51
179.8690326416
  0
ARC
  5
330
100
AcDbEntity
  8
RACCORDO
100
AcDbCircle
 62
253
  6
CONTINUOUS
 10
-0.0941721345
 20
327.2516544847
 40
351.7131197338
100
AcDbArc
 50
268.1280396761
 51
271.8719603239
  0
ARC
  5
331
100
AcDbEntity
  8
RACCORDO
100
AcDbCircle
 62
253
  6
CONTINUOUS
 10
-0.0941721345
 20
326.7780840856
 40
351.5815957151
100
AcDbArc
 50
268.1251502228
 51
271.8748497772
  0
ARC
  5
332
100
AcDbEntity
  8
RACCORDO
100
AcDbCircle
 62
253
  6
CONTINUOUS
 10
-0.0758405932
 20
326.7589552953
 40
351.5618778672
100
AcDbArc
 50
271.8719657885
 51
273.5563007502
  0
ARC
  5
333
100
AcDbEntity
  8
RACCORDO
100
AcDbCircle
 62
253
  6
CONTINUOUS
 10
-0.0758713959
 20
326.6670672099
 40
351.1282466284
100
AcDbArc
 50
271.8720917119
 51
273.5565390694
  0
ARC
  5
334
100
AcDbEntity
  8
RACCORDO
100
AcDbCircle
 62
253
  6
CONTINUOUS
 10
-0.0941721345
 20
247.1231161478
 40
295.1319764509
100
AcDbArc
 50
265.6017167286
 51
274.3982832714
  0
ARC
  5
335
100
AcDbEntity
  8
RACCORDO
100
AcDbCircle
 62
253
  6
CONTINUOUS
 10
-0.0941721352
 20
247.0128355407
 40
294.7705150611
100
AcDbArc
 50
265.5981115664
 51
274.4018884325
  0
ARC
  5
336
100
AcDbEntity
  8
RACCORDO
100
AcDbCircle
 62
253
  6
CONTINUOUS
 10
0.2866163414
 20
242.1937919678
 40
290.1879665404
100
AcDbArc
 50
274.3979591927
 51
275.0407682524
  0
ARC
  5
337
100
AcDbEntity
  8
RACCORDO
100
AcDbCircle
 62
253
  6
CONTINUOUS
 10
0.2938471061
 20
241.8978821249
 40
289.640868469
100
AcDbArc
 50
274.4030175049
 51
275.0465694085
  0
ARC
  5
338
100
AcDbEntity
  8
DRAFT
100
AcDbCircle
 62
7
  6
CONTINUOUS
 10
-0.0941721345
 20
240.0646593943
 40
288.2300492072
100
AcDbArc
 50
264.8465905058
 51
275.1534094942
  0
ARC
  5
339
100
AcDbEntity
  8
RACCORDO
100
AcDbCircle
 62
253
  6
CONTINUOUS
 10
219.4086879031
 20
0.0708166943
 40
266.3114289869
100
AcDbArc
 50
185.3187407744
 51
186.1661653199
  0
ARC
  5
33A
100
AcDbEntity
  8
RACCORDO
100
AcDbCircle
 62
253
  6
CONTINUOUS
 10
218.7566464719
 20
0.0503158923
 40
265.9372882001
100
AcDbArc
 50
185.3248946648
 51
186.1732749267
  0
ARC
  5
33B
100
AcDbEntity
  8
RACCORDO
100
AcDbCircle
 62
253
  6
CONTINUOUS
 10
208.400161809
 20
-0.9153898129
 40
255.5358766663
100
AcDbArc
 50
174.675200202
 51
185.324799798
  0
ARC
  5
33C
100
AcDbEntity
  8
RACCORDO
100
AcDbCircle
 62
253
  6
CONTINUOUS
 10
208.6050028583
 20
-0.9153897834
 40
255.4628422115
100
AcDbArc
 50
174.6768854178
 51
185.3231145268
  0
ARC
  5
33D
100
AcDbEntity
  8
DRAFT
100
AcDbCircle
 62
7
  6
CONTINUOUS
 10
202.6558278655
 20
-0.9153898129
 40
250.0
100
AcDbArc
 50
173.6498310709
 51
186.3501689291
  0
ARC
  5
33E
100
AcDbEntity
  8
DRAFT
100
AcDbCircle
 62
7
  6
CONTINUOUS
 10
17.8542414209
 20
41.0520034002
 40
88.4096728814
100
AcDbArc
 50
275.1534094942
 51
278.4170632326
  0
ARC
  5
33F
100
AcDbEntity
  8
RACCORDO
100
AcDbCircle
 62
253
  6
CONTINUOUS
 10
18.0518353756
 20
40.7752514725
 40
87.9874931013
100
AcDbArc
 50
275.0414449909
 51
278.3160870994
  0
ARC
  5
340
100
AcDbEntity
  8
RACCORDO
100
AcDbCircle
 62
253
  6
CONTINUOUS
 10
18.0643426638
 20
40.6563581361
 40
87.6162623237
100
AcDbArc
 50
275.0470170308
 51
278.3254789822
  0
ARC
  5
341
100
AcDbEntity
  8
RACCORDO
100
AcDbCircle
 62
253
  6
CONTINUOUS
 10
38.3037142199
 20
75.6039456034
 40
81.3604340632
100
AcDbArc
 50
221.2876388729
 51
221.5355069957
  0
ARC
  5
342
100
AcDbEntity
  8
RACCORDO
100
AcDbCircle
 62
253
  6
CONTINUOUS
 10
16.4987809762
 20
19.9951190287
 40
62.4997967757
100
AcDbArc
 50
170.1305798106
 51
173.8262055032
  0
ARC
  5
343
100
AcDbEntity
  8
RACCORDO
100
AcDbCircle
 62
253
  6
CONTINUOUS
 10
16.6372808165
 20
20.0054292226
 40
62.3600590481
100
AcDbArc
 50
170.1425359968
 51
173.8339706022
  0
ARC
  5
344
100
AcDbEntity
  8
DRAFT
100
AcDbCircle
 62
7
  6
CONTINUOUS
 10
15.7539828257
 20
19.8844303959
 40
61.9443374955
100
AcDbArc
 50
169.9109426922
 51
173.6498310709
  0
ARC
  5
345
100
AcDbEntity
  8
DRAFT
100
AcDbCircle
 62
7
  6
CONTINUOUS
 10
28.3070205868
 20
27.7577208563
 40
17.0
100
AcDbArc
 50
10.0890573078
 51
81.5829367674
  0
ARC
  5
346
100
AcDbEntity
  8
RACCORDO
100
AcDbCircle
 62
253
  6
CONTINUOUS
 10
25.5728077898
 20
23.7797665919
 40
3.7798494498
100
AcDbArc
 50
217.4429144867
 51
217.6830520203
  0
ARC
  5
347
100
AcDbEntity
  8
RACCORDO
100
AcDbCircle
 62
253
  6
CONTINUOUS
 10
21.6371498467
 20
20.7742647246
 40
1.5238012261
100
AcDbArc
 50
48.7062517367
 51
86.4576233552
  0
ARC
  5
348
100
AcDbEntity
  8
RACCORDO
100
AcDbCircle
 62
253
  6
CONTINUOUS
 10
21.486199375
 20
20.6306195067
 40
1.379431126
100
AcDbArc
 50
38.0974102317
 51
47.9628883387
  0
ARC
  5
349
100
AcDbEntity
  8
RACCORDO
100
AcDbCircle
 62
253
  6
CONTINUOUS
 10
21.7058414482
 20
20.7828285228
 40
0.9208973614
100
AcDbArc
 50
0.1109834216
 51
90.0010884031
  0
ARC
  5
34A
100
AcDbEntity
  8
0
100
AcDbCircle
 62
7
  6
CONTINUOUS
 10
21.7058278655
 20
20.7846101871
 40
0.8
100
AcDbArc
 50
0.0
 51
90.0000000008
  0
ARC
  5
34B
100
AcDbEntity
  8
0
100
AcDbCircle
 62
7
  6
CONTINUOUS
 10
138.4931685282
 20
-13.592514805
 40
214.1429224979
100
AcDbArc
 50
184.1423083395
 51
184.3387757435
  0
ARC
  5
34C
100
AcDbEntity
  8
RACCORDO
100
AcDbCircle
 62
253
  6
CONTINUOUS
 10
140.6192986538
 20
-15.9006716733
 40
213.8134364302
100
AcDbArc
 50
182.3397274368
 51
183.3909390159
  0
ARC
  5
34D
100
AcDbEntity
  8
RACCORDO
100
AcDbCircle
 62
253
  6
CONTINUOUS
 10
140.1290747868
 20
-15.8828242754
 40
213.606732691
100
AcDbArc
 50
182.3429561129
 51
183.395494383
  0
ARC
  5
34E
100
AcDbEntity
  8
0
100
AcDbCircle
 62
7
  6
CONTINUOUS
 10
128.5725116635
 20
-14.3232378909
 40
204.1893668061
100
AcDbArc
 50
184.13185583
 51
184.3450508582
  0
ARC
  5
34F
100
AcDbEntity
  8
0
100
AcDbCircle
 62
7
  6
CONTINUOUS
 10
128.5716301014
 20
-14.3235062236
 40
204.0384904424
100
AcDbArc
 50
184.134840857
 51
184.3481944209
  0
ARC
  5
350
100
AcDbEntity
  8
RACCORDO
100
AcDbCircle
 62
253
  6
CONTINUOUS
 10
128.4022632569
 20
-14.9901207442
 40
203.3030344903
100
AcDbArc
 50
182.713626054
 51
189.0269511534
  0
ARC
  5
351
100
AcDbEntity
  8
0
100
AcDbCircle
 62
7
  6
CONTINUOUS
 10
127.6326446715
 20
-14.9896311548
 40
203.2168804486
100
AcDbArc
 50
183.9375753945
 51
184.1774751165
  0
ARC
  5
352
100
AcDbEntity
  8
ASSI
100
AcDbCircle
 62
7
  6
CONTINUOUS
 10
127.6231771116
 20
-14.9896494859
 40
203.0735727287
100
AcDbArc
 50
184.1804365528
 51
189.2759133198
  0
ARC
  5
353
100
AcDbEntity
  8
ASSI
100
AcDbCircle
 62
7
  6
CONTINUOUS
 10
127.6231771116
 20
-14.9896494859
 40
203.0735727287
100
AcDbArc
 50
182.7640715538
 51
183.3797575023
  0
ARC
  5
354
100
AcDbEntity
  8
0
100
AcDbCircle
 62
7
  6
CONTINUOUS
 10
120.6271835813
 20
-15.6715604304
 40
196.1944172534
100
AcDbArc
 50
183.9639574544
 51
184.1094084555
  0
ARC
  5
355
100
AcDbEntity
  8
0
100
AcDbCircle
 62
7
  6
CONTINUOUS
 10
119.7779953621
 20
-15.1630021354
 40
195.3765080945
100
AcDbArc
 50
183.7100291898
 51
183.8376859335
  0
ARC
  5
356
100
AcDbEntity
  8
0
100
AcDbCircle
 62
7
  6
CONTINUOUS
 10
-169.8044171262
 20
-33.7954180542
 40
94.826803673
100
AcDbArc
 50
3.4192742424
 51
3.5748912726
  0
ARC
  5
357
100
AcDbEntity
  8
RACCORDO
100
AcDbCircle
 62
253
  6
CONTINUOUS
 10
-86.6389961265
 20
-23.6492884271
 40
11.9263712163
100
AcDbArc
 50
359.6611173709
 51
0.0976698998
  0
ARC
  5
358
100
AcDbEntity
  8
RACCORDO
100
AcDbCircle
 62
253
  6
CONTINUOUS
 10
-84.5087446637
 20
-23.6597293806
 40
9.7960954984
100
AcDbArc
 50
359.4726508827
 51
359.6484910236
  0
ARC
  5
359
100
AcDbEntity
  8
RACCORDO
100
AcDbCircle
 62
253
  6
CONTINUOUS
 10
-83.5621873554
 20
-23.6684180989
 40
8.8494983131
100
AcDbArc
 50
359.1444609994
 51
359.4724979573
  0
ARC
  5
35A
100
AcDbEntity
  8
RACCORDO
100
AcDbCircle
 62
253
  6
CONTINUOUS
 10
-81.3212186741
 20
-23.702626618
 40
6.6082687148
100
AcDbArc
 50
358.3506863745
 51
359.150910557
  0
ARC
  5
35B
100
AcDbEntity
  8
0
100
AcDbCircle
 62
7
  6
CONTINUOUS
 10
-69.904644757
 20
-43.2933434582
 40
4.3887468615
100
AcDbArc
 50
275.0
 51
316.4814167125
  0
ARC
  5
35C
100
AcDbEntity
  8
RACCORDO
100
AcDbCircle
 62
253
  6
CONTINUOUS
 10
-74.1884358578
 20
-24.0992231073
 40
0.551108797
100
AcDbArc
 50
165.5736101424
 51
182.7776352787
  0
ARC
  5
35D
100
AcDbEntity
  8
RACCORDO
100
AcDbCircle
 62
7
  6
CONTINUOUS
 10
-74.6637675416
 20
-24.7768928076
 40
0.55
100
AcDbArc
 50
145.0
 51
182.7699815109
  0
ARC
  5
35E
100
AcDbEntity
  8
RACCORDO
100
AcDbCircle
 62
253
  6
CONTINUOUS
 10
-74.53299714
 20
-24.5887844091
 40
0.549226297
100
AcDbArc
 50
145.0003197521
 51
182.7672689958
  0
ARC
  5
35F
100
AcDbEntity
  8
RACCORDO
100
AcDbCircle
 62
253
  6
CONTINUOUS
 10
-72.0861577659
 20
-46.8395385923
 40
0.3006092052
100
AcDbArc
 50
189.3109169447
 51
266.8719334654
  0
ARC
  5
360
100
AcDbEntity
  8
RACCORDO
100
AcDbCircle
 62
7
  6
CONTINUOUS
 10
-72.4931602553
 20
-47.7092715995
 40
0.3000000034
100
AcDbArc
 50
189.2858667073
 51
266.9999999669
  0
ARC
  5
361
100
AcDbEntity
  8
RACCORDO
100
AcDbCircle
 62
253
  6
CONTINUOUS
 10
140.6670085182
 20
14.0675042972
 40
213.8612039997
100
AcDbArc
 50
176.6091781334
 51
177.6601552118
  0
ARC
  5
362
100
AcDbEntity
  8
RACCORDO
100
AcDbCircle
 62
253
  6
CONTINUOUS
 10
140.1763831872
 20
14.049673587
 40
213.6540984744
100
AcDbArc
 50
176.6046222916
 51
177.6569272958
  0
ARC
  5
363
100
AcDbEntity
  8
RACCORDO
100
AcDbCircle
 62
253
  6
CONTINUOUS
 10
128.402263141
 20
13.1593411271
 40
203.3030343741
100
AcDbArc
 50
170.973048844
 51
177.2863739469
  0
ARC
  5
364
100
AcDbEntity
  8
ASSI
100
AcDbCircle
 62
7
  6
CONTINUOUS
 10
127.6231771116
 20
13.1588698602
 40
203.0735727287
100
AcDbArc
 50
170.7240866802
 51
177.2359284843
  0
ARC
  5
365
100
AcDbEntity
  8
RACCORDO
100
AcDbCircle
 62
253
  6
CONTINUOUS
 10
-86.7225151589
 20
21.818976415
 40
12.0098908576
100
AcDbArc
 50
359.9053190228
 51
0.1903943529
  0
ARC
  5
366
100
AcDbEntity
  8
RACCORDO
100
AcDbCircle
 62
253
  6
CONTINUOUS
 10
-84.8186736396
 20
21.8263292112
 40
10.1060354685
100
AcDbArc
 50
0.1845758639
 51
0.5260331974
  0
ARC
  5
367
100
AcDbEntity
  8
RACCORDO
100
AcDbCircle
 62
253
  6
CONTINUOUS
 10
-83.2797607264
 20
21.8410461171
 40
8.5670523191
100
AcDbArc
 50
0.5221026563
 51
0.8644454076
  0
ARC
  5
368
100
AcDbEntity
  8
RACCORDO
100
AcDbCircle
 62
253
  6
CONTINUOUS
 10
-80.7964832015
 20
21.8832897488
 40
6.0834219733
100
AcDbArc
 50
0.8194822349
 51
1.6971727578
  0
ARC
  5
369
100
AcDbEntity
  8
0
100
AcDbCircle
 62
7
  6
CONTINUOUS
 10
-69.904644757
 20
41.4625638324
 40
4.3887468615
100
AcDbArc
 50
43.5185832875
 51
85.0
  0
ARC
  5
36A
100
AcDbEntity
  8
RACCORDO
100
AcDbCircle
 62
253
  6
CONTINUOUS
 10
-74.1884354703
 20
22.2684433838
 40
0.5511091461
100
AcDbArc
 50
177.2223565232
 51
194.4278282951
  0
ARC
  5
36B
100
AcDbEntity
  8
RACCORDO
100
AcDbCircle
 62
7
  6
CONTINUOUS
 10
-74.6637675716
 20
22.9461132246
 40
0.55
100
AcDbArc
 50
177.2300184436
 51
215.0
  0
ARC
  5
36C
100
AcDbEntity
  8
RACCORDO
100
AcDbCircle
 62
253
  6
CONTINUOUS
 10
-74.532997002
 20
22.7580045676
 40
0.5492262863
100
AcDbArc
 50
177.2327092092
 51
214.999653559
  0
ARC
  5
36D
100
AcDbEntity
  8
RACCORDO
100
AcDbCircle
 62
253
  6
CONTINUOUS
 10
-72.0861360767
 20
45.0087347877
 40
0.3006383286
100
AcDbArc
 50
93.1319423715
 51
170.6852042853
  0
ARC
  5
36E
100
AcDbEntity
  8
RACCORDO
100
AcDbCircle
 62
7
  6
CONTINUOUS
 10
-72.4931602553
 20
45.8784919737
 40
0.3000000034
100
AcDbArc
 50
93.0000000331
 51
170.7141332927
  0
ARC
  5
36F
100
AcDbEntity
  8
RACCORDO
100
AcDbCircle
 62
253
  6
CONTINUOUS
 10
425.2643320586
 20
-0.9154859739
 40
500.4735949752
100
AcDbArc
 50
177.5132284115
 51
179.9999889912
  0
ARC
  5
370
100
AcDbEntity
  8
RACCORDO
100
AcDbCircle
 62
253
  6
CONTINUOUS
 10
191.8864941243
 20
-12.9207236115
 40
265.167138785
100
AcDbArc
 50
183.3784829146
 51
184.2427871885
  0
ARC
  5
371
100
AcDbEntity
  8
RACCORDO
100
AcDbCircle
 62
253
  6
CONTINUOUS
 10
189.366628236
 20
-12.961827803
 40
262.9308534632
100
AcDbArc
 50
183.3954144137
 51
184.2641755073
  0
ARC
  5
372
100
AcDbEntity
  8
RACCORDO
100
AcDbCircle
 62
253
  6
CONTINUOUS
 10
507.9533639599
 20
-0.9153898129
 40
581.4530344119
100
AcDbArc
 50
177.6625859418
 51
182.3374140582
  0
ARC
  5
373
100
AcDbEntity
  8
RACCORDO
100
AcDbCircle
 62
253
  6
CONTINUOUS
 10
506.5975245518
 20
-0.9153898079
 40
580.3807074345
100
AcDbArc
 50
177.6596737467
 51
182.3403262845
  0
ARC
  5
374
100
AcDbEntity
  8
RACCORDO
100
AcDbCircle
 62
253
  6
CONTINUOUS
 10
425.2626067775
 20
-0.9153310995
 40
500.4718696941
100
AcDbArc
 50
180.0000067217
 51
182.4867750262
  0
ARC
  5
375
100
AcDbEntity
  8
RACCORDO
100
AcDbCircle
 62
253
  6
CONTINUOUS
 10
191.9532351102
 20
11.0855013284
 40
265.2340255872
100
AcDbArc
 50
175.7573189191
 51
176.621408445
  0
ARC
  5
376
100
AcDbEntity
  8
RACCORDO
100
AcDbCircle
 62
253
  6
CONTINUOUS
 10
189.4244954415
 20
11.1271744157
 40
262.9888485166
100
AcDbArc
 50
175.7359202854
 51
176.6044897937
  0
SPLINE
  5
377
100
AcDbEntity
  8
0
100
AcDbSpline
 62
7
  6
CONTINUOUS
 70
0
 71
3
 72
9
 73
5
 74
3
 42
0.0000001
 43
0.0000001
 44
0.0000000001
 12
0.0104189879
 22
-0.6973243327
 32
0.0
 13
-0.6971121636
 23
-0.015570508
 33
0.0
 40
0.0
 40
0.0
 40
0.0
 40
0.0
 40
0.5204624605
 40
1.0
 40
1.0
 40
1.0
 40
1.0
 10
4.57648
 20
-27.8041755324
 30
0.0
 10
4.578287564
 20
-27.9251525783
 30
0.0
 10
4.4927547497
 20
-28.1893884585
 30
0.0
 10
4.2339389926
 20
-28.2365290184
 30
0.0
 10
4.1225085087
 20
-28.2390178995
 30
0.0
 11
4.57648
 21
-27.8041755324
 31
0.0
 11
4.4423152392
 21
-28.1413952561
 31
0.0
 11
4.1225085087
 21
-28.2390178995
 31
0.0
  0
SPLINE
  5
378
100
AcDbEntity
  8
0
100
AcDbSpline
 62
7
  6
CONTINUOUS
 70
0
 71
3
 72
9
 73
5
 74
3
 42
0.0000001
 43
0.0000001
 44
0.0000000001
 12
0.5127681928
 22
-0.059513097
 32
0.0
 13
0.0077115059
 23
-0.5161129994
 33
0.0
 40
0.0
 40
0.0
 40
0.0
 40
0.0
 40
0.5011416541
 40
1.0
 40
1.0
 40
1.0
 40
1.0
 10
4.2463412957
 20
-27.4539620617
 30
0.0
 10
4.3319977958
 20
-27.463903559
 30
0.0
 10
4.5053237346
 20
-27.5393651971
 30
0.0
 10
4.5751977079
 20
-27.7183531063
 30
0.0
 10
4.5764800242
 20
-27.804175532
 30
0.0
 11
4.2463412957
 21
-27.4539620617
 31
0.0
 11
4.4797382586
 21
-27.5655373932
 31
0.0
 11
4.5764800242
 21
-27.804175532
 31
0.0
  0
SPLINE
  5
379
100
AcDbEntity
  8
0
100
AcDbSpline
 62
7
  6
CONTINUOUS
 70
0
 71
3
 72
9
 73
5
 74
3
 42
0.0000001
 43
0.0000001
 44
0.0000000001
 12
0.4525354737
 22
0.0772181376
 32
0.0
 13
0.45601536
 23
-0.0529262269
 33
0.0
 40
0.0
 40
0.0
 40
0.0
 40
0.0
 40
0.2704041679
 40
1.0
 40
1.0
 40
1.0
 40
1.0
 10
3.7885251196
 20
-27.4704446088
 30
0.0
 10
3.829314279
 20
-27.4634845734
 30
0.0
 10
3.9806313877
 20
-27.4405943164
 30
0.0
 10
4.1354389936
 20
-27.441090477
 30
0.0
 10
4.2463412956
 20
-27.4539620619
 30
0.0
 11
3.7885251196
 21
-27.4704446088
 31
0.0
 11
3.9114030523
 21
-27.4528153094
 31
0.0
 11
4.2463412956
 21
-27.4539620619
 31
0.0
  0
SPLINE
  5
37A
100
AcDbEntity
  8
0
100
AcDbSpline
 62
7
  6
CONTINUOUS
 70
0
 71
3
 72
9
 73
5
 74
3
 42
0.0000001
 43
0.0000001
 44
0.0000000001
 12
-1.3656708806
 22
0.4933856579
 32
0.0
 13
-1.4365995531
 23
-0.2113482566
 33
0.0
 40
0.0
 40
0.0
 40
0.0
 40
0.0
 40
0.2957417834
 40
1.0
 40
1.0
 40
1.0
 40
1.0
 10
4.6680762952
 20
-27.0556736864
 30
0.0
 10
4.533447648
 20
-27.0070354349
 30
0.0
 10
4.0495391605
 20
-26.927752186
 30
0.0
 10
3.5630923476
 20
-26.9765825718
 30
0.0
 10
3.2258466678
 20
-27.0261971539
 30
0.0
 11
4.6680762952
 21
-27.0556736864
 31
0.0
 11
4.2470017197
 21
-26.9713459248
 31
0.0
 11
3.2258466678
 21
-27.0261971539
 31
0.0
  0
SPLINE
  5
37B
100
AcDbEntity
  8
0
100
AcDbSpline
 62
7
  6
CONTINUOUS
 70
0
 71
3
 72
8
 73
4
 74
2
 42
0.0000001
 43
0.0000001
 44
0.0000000001
 12
0.0636485979
 22
0.0082127223
 32
0.0
 13
0.053853503
 23
0.0382799219
 33
0.0
 40
0.0
 40
0.0
 40
0.0
 40
0.0
 40
1.0
 40
1.0
 40
1.0
 40
1.0
 10
4.7283310304
 20
-28.4697704409
 30
0.0
 10
4.7495472297
 20
-28.4670328668
 30
0.0
 10
4.7685765102
 20
-28.4568342749
 30
0.0
 10
4.7865276778
 20
-28.4440743009
 30
0.0
 11
4.7283310304
 21
-28.4697704409
 31
0.0
 11
4.7865276778
 21
-28.4440743009
 31
0.0
  0
SPLINE
  5
37C
100
AcDbEntity
  8
0
100
AcDbSpline
 62
7
  6
CONTINUOUS
 70
0
 71
3
 72
17
 73
13
 74
11
 42
0.0000001
 43
0.0000001
 44
0.0000000001
 12
1.4098321503
 22
1.0021309954
 32
0.0
 13
-1.5803786724
 23
0.5701271883
 33
0.0
 40
0.0
 40
0.0
 40
0.0
 40
0.0
 40
0.0199178547
 40
0.1370016723
 40
0.2950696764
 40
0.3898248611
 40
0.498148563
 40
0.5861669121
 40
0.6652871265
 40
0.8030976246
 40
0.9169861479
 40
1.0
 40
1.0
 40
1.0
 40
1.0
 10
4.7865276778
 20
-28.4440743009
 30
0.0
 10
4.7958879551
 20
-28.4374208677
 30
0.0
 10
4.8582548484
 20
-28.3868661707
 30
0.0
 10
4.9787275665
 20
-28.2778012536
 30
0.0
 10
5.0789174802
 20
-28.088178583
 30
0.0
 10
5.1235497908
 20
-27.8903592168
 30
0.0
 10
5.1277429069
 20
-27.7261732722
 30
0.0
 10
5.105644718
 20
-27.5728249318
 30
0.0
 10
5.0520862954
 20
-27.4098803574
 30
0.0
 10
4.9514926175
 20
-27.2501911223
 30
0.0
 10
4.8094621715
 20
-27.1253099455
 30
0.0
 10
4.7118074024
 20
-27.0714498377
 30
0.0
 10
4.6680762952
 20
-27.0556736864
 30
0.0
 11
4.7865276778
 21
-28.4440743009
 31
0.0
 11
4.8138863247
 21
-28.422719392
 31
0.0
 11
4.9551470691
 21
-28.2858255413
 31
0.0
 11
5.0815120872
 21
-28.0522511835
 31
0.0
 11
5.1170458312
 21
-27.8970720315
 31
0.0
 11
5.1223802025
 21
-27.7151586133
 31
0.0
 11
5.1005085012
 21
-27.5689078596
 31
0.0
 11
5.0586875883
 21
-27.4427303174
 31
0.0
 11
4.9351443866
 21
-27.2469142377
 31
0.0
 11
4.791643116
 21
-27.1203491141
 31
0.0
 11
4.6680762952
 21
-27.0556736864
 31
0.0
  0
SPLINE
  5
37D
100
AcDbEntity
  8
0
100
AcDbSpline
 62
7
  6
CONTINUOUS
 70
0
 71
3
 72
9
 73
5
 74
3
 42
0.0000001
 43
0.0000001
 44
0.0000000001
 12
-0.1713776396
 22
0.6290438979
 32
0.0
 13
-0.6055895038
 23
0.2414788146
 33
0.0
 40
0.0
 40
0.0
 40
0.0
 40
0.0
 40
0.2427307434
 40
1.0
 40
1.0
 40
1.0
 40
1.0
 10
5.0652070106
 20
-29.0354900409
 30
0.0
 10
5.0513408034
 20
-28.9845939433
 30
0.0
 10
4.9983989293
 20
-28.7791299213
 30
0.0
 10
4.8811958015
 20
-28.5472690772
 30
0.0
 10
4.7283310304
 20
-28.4863142497
 30
0.0
 11
5.0652070106
 21
-29.0354900409
 31
0.0
 11
5.0218534042
 21
-28.8832938201
 31
0.0
 11
4.7283310304
 21
-28.4863142497
 31
0.0
  0
SPLINE
  5
37E
100
AcDbEntity
  8
0
100
AcDbSpline
 62
7
  6
CONTINUOUS
 70
0
 71
3
 72
9
 73
5
 74
3
 42
0.0000001
 43
0.0000001
 44
0.0000000001
 12
-0.2053815892
 22
0.7561993044
 32
0.0
 13
-0.2059759907
 23
0.7560376043
 33
0.0
 40
0.0
 40
0.0
 40
0.0
 40
0.0
 40
0.1980298616
 40
1.0
 40
1.0
 40
1.0
 40
1.0
 10
5.2649760774
 20
-29.7931911673
 30
0.0
 10
5.2514188482
 20
-29.743274486
 30
0.0
 10
5.1850675431
 20
-29.4906414724
 30
0.0
 10
5.120269209
 20
-29.2375965682
 30
0.0
 10
5.0652070111
 20
-29.0354900408
 30
0.0
 11
5.2649760774
 21
-29.7931911673
 31
0.0
 11
5.2252006697
 21
-29.6432005719
 31
0.0
 11
5.0652070111
 21
-29.0354900408
 31
0.0
  0
SPLINE
  5
37F
100
AcDbEntity
  8
0
100
AcDbSpline
 62
7
  6
CONTINUOUS
 70
0
 71
3
 72
9
 73
5
 74
3
 42
0.0000001
 43
0.0000001
 44
0.0000000001
 12
0.3119406271
 22
-0.830132912
 32
0.0
 13
0.2450341693
 23
-0.8522808592
 33
0.0
 40
0.0
 40
0.0
 40
0.0
 40
0.0
 40
0.558715251
 40
1.0
 40
1.0
 40
1.0
 40
1.0
 10
4.4472299178
 20
-28.9440527598
 30
0.0
 10
4.5053252464
 20
-29.0986553992
 30
0.0
 10
4.5816956483
 20
-29.3848959715
 30
0.0
 10
4.6668002067
 20
-29.6678249856
 30
0.0
 10
4.7028434874
 20
-29.7931911673
 30
0.0
 11
4.4472299178
 21
-28.9440527598
 31
0.0
 11
4.5933903411
 21
-29.4174756005
 31
0.0
 11
4.7028434874
 21
-29.7931911673
 31
0.0
  0
SPLINE
  5
380
100
AcDbEntity
  8
0
100
AcDbSpline
 62
7
  6
CONTINUOUS
 70
0
 71
3
 72
9
 73
5
 74
3
 42
0.0000001
 43
0.0000001
 44
0.0000000001
 12
0.4290746112
 22
-0.0
 32
0.0
 13
0.1509474584
 23
-0.4016989729
 33
0.0
 40
0.0
 40
0.0
 40
0.0
 40
0.0
 40
0.3560705371
 40
1.0
 40
1.0
 40
1.0
 40
1.0
 10
4.1212488278
 20
-28.6975417377
 30
0.0
 10
4.1721757702
 20
-28.6975417377
 30
0.0
 10
4.3186145874
 20
-28.728366074
 30
0.0
 10
4.41483011
 20
-28.8578308136
 30
0.0
 10
4.4472299486
 20
-28.9440527482
 30
0.0
 11
4.1212488278
 21
-28.6975417377
 31
0.0
 11
4.2700932447
 21
-28.7319992582
 31
0.0
 11
4.4472299486
 21
-28.9440527482
 31
0.0
  0
SPLINE
  5
381
100
AcDbEntity
  8
RACCORDO
100
AcDbSpline
 62
253
  6
CONTINUOUS
 70
0
 71
3
 72
13
 73
9
 74
7
 42
0.0000001
 43
0.0000001
 44
0.0000000001
 12
0.7755560023
 22
-0.0617485506
 32
0.0
 13
0.5829419733
 23
-0.5152462051
 33
0.0
 40
0.0
 40
0.0
 40
0.0
 40
0.0
 40
0.2497460193
 40
0.4996333103
 40
0.624733523
 40
0.7498202113
 40
0.8749808037
 40
1.0
 40
1.0
 40
1.0
 40
1.0
 10
21.705829013
 20
21.9541514313
 30
0.0
 10
21.7703930211
 20
21.9490109464
 30
0.0
 10
21.8990018575
 20
21.9283809354
 30
0.0
 10
22.0532556616
 20
21.8767016217
 30
0.0
 10
22.1709044537
 20
21.8216933693
 30
0.0
 10
22.254775015
 20
21.7723118332
 30
0.0
 10
22.336875248
 20
21.7192947565
 30
0.0
 10
22.3829372203
 20
21.6732108594
 30
0.0
 10
22.4072301993
 20
21.6517389706
 30
0.0
 11
21.705829013
 21
21.9541514313
 31
0.0
 11
21.8976553105
 21
21.9232145094
 31
0.0
 11
22.0821272468
 21
21.8618365754
 31
0.0
 11
22.1701685721
 21
21.8203431032
 31
0.0
 11
22.254466555
 21
21.7717140462
 31
0.0
 11
22.3347357351
 21
21.7165870254
 31
0.0
 11
22.4072301993
 21
21.6517389706
 31
0.0
  0
SPLINE
  5
382
100
AcDbEntity
  8
RACCORDO
100
AcDbSpline
 62
253
  6
CONTINUOUS
 70
0
 71
3
 72
14
 73
10
 74
8
 42
0.0000001
 43
0.0000001
 44
0.0000000001
 12
0.7554293845
 22
-0.000005283
 32
0.0
 13
0.5878587617
 23
-0.4744424425
 33
0.0
 40
0.0
 40
0.0
 40
0.0
 40
0.0
 40
0.2498256017
 40
0.374841653
 40
0.4999249058
 40
0.6249053197
 40
0.7499225517
 40
0.8751196738
 40
1.0
 40
1.0
 40
1.0
 40
1.0
 10
21.7058220152
 20
21.8951881886
 30
0.0
 10
21.7687305487
 20
21.8951877487
 30
0.0
 10
21.8633905097
 20
21.8871898628
 30
0.0
 10
21.9865122806
 20
21.860487197
 30
0.0
 10
22.0769981831
 20
21.8330171113
 30
0.0
 10
22.1647232162
 20
21.7976143338
 30
0.0
 10
22.2486647594
 20
21.7540806235
 30
0.0
 10
22.3306782102
 20
21.7072174511
 30
0.0
 10
22.3827595346
 20
21.6714884796
 30
0.0
 10
22.4072301993
 20
21.6517389706
 30
0.0
 11
21.7058220152
 21
21.8951881886
 31
0.0
 11
21.8938679672
 21
21.8791859311
 31
0.0
 11
21.9861810197
 21
21.8592519203
 31
0.0
 11
22.0765624036
 21
21.8316863395
 31
0.0
 11
22.1640801073
 21
21.7962655585
 31
0.0
 11
22.248307161
 21
21.7535451143
 31
0.0
 11
22.33009647
 21
21.7060537624
 31
0.0
 11
22.4072301993
 21
21.6517389706
 31
0.0
  0
SPLINE
  5
383
100
AcDbEntity
  8
RACCORDO
100
AcDbSpline
 62
253
  6
CONTINUOUS
 70
0
 71
3
 72
15
 73
11
 74
9
 42
0.0000001
 43
0.0000001
 44
0.0000000001
 12
-20.4566613662
 22
-2.9939029176
 32
0.0
 13
-3.539700055
 23
-20.3693144816
 33
0.0
 40
0.0
 40
0.0
 40
0.0
 40
0.0
 40
0.1251151073
 40
0.250260029
 40
0.375381731
 40
0.5004412571
 40
0.6254223224
 40
0.750328898
 40
0.875178755
 40
1.0
 40
1.0
 40
1.0
 40
1.0
 10
-30.9391906193
 20
44.205780333
 30
0.0
 10
-31.7923364132
 20
44.0809195047
 30
0.0
 10
-33.4821534448
 20
43.6959677749
 30
0.0
 10
-35.8925738527
 20
42.7289941333
 30
0.0
 10
-38.1221034259
 20
41.3965109334
 30
0.0
 10
-40.1147761904
 20
39.7325728983
 30
0.0
 10
-41.82239257
 20
37.7792340561
 30
0.0
 10
-43.2041278628
 20
35.5848490529
 30
0.0
 10
-44.2273422828
 20
33.2040027925
 30
0.0
 10
-44.6548609877
 20
31.5288365392
 30
0.0
 10
-44.8021375769
 20
30.6813288082
 30
0.0
 11
-30.9391906193
 21
44.205780333
 31
0.0
 11
-33.4612484372
 21
43.631101195
 31
0.0
 11
-35.8626224635
 21
42.6679689057
 31
0.0
 11
-38.083127827
 21
41.340907093
 31
0.0
 11
-40.0678299159
 21
39.6837873522
 31
0.0
 11
-41.7685315734
 21
37.7384553935
 31
0.0
 11
-43.1446455574
 21
35.553265125
 31
0.0
 11
-44.1637821328
 21
33.1817567832
 31
0.0
 11
-44.8021375769
 21
30.6813288082
 31
0.0
  0
SPLINE
  5
384
100
AcDbEntity
  8
RACCORDO
100
AcDbSpline
 62
253
  6
CONTINUOUS
 70
0
 71
3
 72
9
 73
5
 74
3
 42
0.0000001
 43
0.0000001
 44
0.0000000001
 12
0.0411578477
 22
-21.6999746833
 32
0.0
 13
-0.0000000558
 23
-21.7000137148
 33
0.0
 40
0.0
 40
0.0
 40
0.0
 40
0.0
 40
0.2498968229
 40
1.0
 40
1.0
 40
1.0
 40
1.0
 10
22.6267330385
 20
20.7846123238
 30
0.0
 10
22.6301614437
 20
18.9770274135
 30
0.0
 10
22.6421624822
 20
11.7436993616
 30
0.0
 10
22.6473023188
 20
4.5103599304
 30
0.0
 10
22.6473023048
 20
-0.9153898129
 30
0.0
 11
22.6267330385
 21
20.7846123238
 31
0.0
 11
22.6357310152
 21
15.3618553041
 31
0.0
 11
22.6473023048
 21
-0.9153898129
 31
0.0
  0
SPLINE
  5
385
100
AcDbEntity
  8
RACCORDO
100
AcDbSpline
 62
253
  6
CONTINUOUS
 70
0
 71
3
 72
9
 73
5
 74
3
 42
0.0000001
 43
0.0000001
 44
0.0000000001
 12
-0.0000000012
 22
-21.7000111027
 32
0.0
 13
-0.0411579908
 23
-21.6999720709
 33
0.0
 40
0.0
 40
0.0
 40
0.0
 40
0.0
 40
0.2500737132
 40
1.0
 40
1.0
 40
1.0
 40
1.0
 10
22.6473023048
 20
-0.9153898129
 30
0.0
 10
22.6473023047
 20
-2.7242572637
 30
0.0
 10
22.6455876314
 20
-9.9575941951
 30
0.0
 10
22.6370215293
 20
-17.1909295119
 30
0.0
 10
22.6267330429
 20
-22.6153893383
 30
0.0
 11
22.6473023048
 21
-0.9153898129
 31
0.0
 11
22.6460162484
 21
-6.341992013
 31
0.0
 11
22.6267330429
 21
-22.6153893383
 31
0.0
  0
SPLINE
  5
386
100
AcDbEntity
  8
RACCORDO
100
AcDbSpline
 62
253
  6
CONTINUOUS
 70
0
 71
3
 72
9
 73
5
 74
3
 42
0.0000001
 43
0.0000001
 44
0.0000000001
 12
0.0000079137
 22
21.7148200078
 32
0.0
 13
0.0411675228
 23
21.7147809845
 33
0.0
 40
0.0
 40
0.0
 40
0.0
 40
0.0
 40
0.2500732639
 40
1.0
 40
1.0
 40
1.0
 40
1.0
 10
-23.3680293618
 20
-0.9153898129
 30
0.0
 10
-23.3680287021
 20
0.8947088252
 30
0.0
 10
-23.3663415789
 20
8.1329820668
 30
0.0
 10
-23.357741738
 20
15.3712536629
 30
0.0
 10
-23.3474508626
 20
20.7994186058
 30
0.0
 11
-23.3680293618
 21
-0.9153898129
 31
0.0
 11
-23.3667525952
 21
4.5149059514
 31
0.0
 11
-23.3474508626
 21
20.7994186058
 31
0.0
  0
LINE
  5
387
100
AcDbEntity
  8
RACCORDO
100
AcDbLine
 62
253
  6
CONTINUOUS
 10
-22.8150813574
 20
-22.615388018
 11
-22.8150891525
 21
-22.609631469
  0
SPLINE
  5
388
100
AcDbEntity
  8
RACCORDO
100
AcDbSpline
 62
253
  6
CONTINUOUS
 70
0
 71
3
 72
9
 73
5
 74
3
 42
0.0000001
 43
0.0000001
 44
0.0000000001
 12
-0.041128699
 22
21.6942142368
 32
0.0
 13
0.0000000082
 23
21.6942532234
 33
0.0
 40
0.0
 40
0.0
 40
0.0
 40
0.0
 40
0.2498970161
 40
1.0
 40
1.0
 40
1.0
 40
1.0
 10
-22.8150891525
 20
-22.609631469
 30
0.0
 10
-22.8185151322
 20
-20.8025250007
 30
0.0
 10
-22.8305090112
 20
-13.5711171039
 30
0.0
 10
-22.8356465759
 20
-6.3396978383
 30
0.0
 10
-22.8356465738
 20
-0.9153898129
 30
0.0
 11
-22.8150891525
 21
-22.609631469
 31
0.0
 11
-22.8240814347
 21
-17.1883097793
 31
0.0
 11
-22.8356465738
 21
-0.9153898129
 31
0.0
  0
SPLINE
  5
389
100
AcDbEntity
  8
RACCORDO
100
AcDbSpline
 62
253
  6
CONTINUOUS
 70
0
 71
3
 72
9
 73
5
 74
3
 42
0.0000001
 43
0.0000001
 44
0.0000000001
 12
-0.0000000082
 22
21.6942532179
 32
0.0
 13
0.0411360869
 23
21.6942142173
 33
0.0
 40
0.0
 40
0.0
 40
0.0
 40
0.0
 40
0.2500735984
 40
1.0
 40
1.0
 40
1.0
 40
1.0
 10
-22.8356465738
 20
-0.9153898129
 30
0.0
 10
-22.8356465745
 20
0.8929968427
 30
0.0
 10
-22.8339326817
 20
8.1244144791
 30
0.0
 10
-22.825372165
 20
15.3558305036
 30
0.0
 10
-22.8150891525
 20
20.7788518381
 30
0.0
 11
-22.8356465738
 21
-0.9153898129
 31
0.0
 11
-22.8343612099
 21
4.5097700017
 31
0.0
 11
-22.8150891525
 21
20.7788518381
 31
0.0
  0
LINE
  5
38A
100
AcDbEntity
  8
RACCORDO
100
AcDbLine
 62
253
  6
CONTINUOUS
 10
-22.8150891525
 20
20.7788518381
 11
-22.8150813575
 21
20.7846083278
  0
SPLINE
  5
38B
100
AcDbEntity
  8
RACCORDO
100
AcDbSpline
 62
253
  6
CONTINUOUS
 70
0
 71
3
 72
9
 73
5
 74
3
 42
0.0000001
 43
0.0000001
 44
0.0000000001
 12
-0.0411641164
 22
21.7147884026
 32
0.0
 13
-0.0000083805
 23
21.7148274194
 33
0.0
 40
0.0
 40
0.0
 40
0.0
 40
0.0
 40
0.2498966125
 40
1.0
 40
1.0
 40
1.0
 40
1.0
 10
-23.3474508494
 20
-22.6302056424
 30
0.0
 10
-23.3508797738
 20
-20.8213882878
 30
0.0
 10
-23.362915125
 20
-13.583122383
 30
0.0
 10
-23.3680272664
 20
-6.3448450147
 30
0.0
 10
-23.3680293618
 20
-0.9153898129
 30
0.0
 11
-23.3474508494
 21
-22.6302056424
 31
0.0
 11
-23.356462618
 21
-17.2037513114
 31
0.0
 11
-23.3680293618
 21
-0.9153898129
 31
0.0
  0
SPLINE
  5
38C
100
AcDbEntity
  8
RACCORDO
100
AcDbSpline
 62
253
  6
CONTINUOUS
 70
0
 71
3
 72
10
 73
6
 74
4
 42
0.0000001
 43
0.0000001
 44
0.0000000001
 12
-0.948981079
 22
0.8346388593
 32
0.0
 13
-0.0162255155
 23
1.2636945226
 33
0.0
 40
0.0
 40
0.0
 40
0.0
 40
0.0
 40
0.2507517817
 40
0.5014715534
 40
1.0
 40
1.0
 40
1.0
 40
1.0
 10
-22.8310453038
 20
-23.749891159
 30
0.0
 10
-22.9103648692
 20
-23.6801287653
 30
0.0
 10
-23.0548379239
 20
-23.5233210549
 30
0.0
 10
-23.2714665204
 20
-23.15976749
 30
0.0
 10
-23.3447545557
 20
-22.8402015315
 30
0.0
 10
-23.3474508494
 20
-22.6302056424
 30
0.0
 11
-22.8310453038
 21
-23.749891159
 31
0.0
 11
-23.045886008
 21
-23.5169342164
 31
0.0
 11
-23.2078158914
 21
-23.2445768409
 31
0.0
 11
-23.3474508494
 21
-22.6302056424
 31
0.0
  0
SPLINE
  5
38D
100
AcDbEntity
  8
RACCORDO
100
AcDbSpline
 62
253
  6
CONTINUOUS
 70
0
 71
3
 72
15
 73
11
 74
9
 42
0.0000001
 43
0.0000001
 44
0.0000000001
 12
3.6057484052
 22
-20.718650664
 32
0.0
 13
20.8088450526
 23
-3.0423468702
 33
0.0
 40
0.0
 40
0.0
 40
0.0
 40
0.0
 40
0.124827251
 40
0.2496822427
 40
0.3745922108
 40
0.4995741789
 40
0.6246318376
 40
0.7497493376
 40
0.8748890383
 40
1.0
 40
1.0
 40
1.0
 40
1.0
 10
-45.0760752411
 20
-32.5385863514
 30
0.0
 10
-44.9260433541
 20
-33.4006704202
 30
0.0
 10
-44.490485308
 20
-35.1045735717
 30
0.0
 10
-43.4481471468
 20
-37.525837248
 30
0.0
 10
-42.0408879329
 20
-39.756939331
 30
0.0
 10
-40.3022096973
 20
-41.7424053317
 30
0.0
 10
-38.2738957069
 20
-43.4332319554
 30
0.0
 10
-36.0051292884
 20
-44.7869207497
 30
0.0
 10
-33.5528463712
 20
-45.769145732
 30
0.0
 10
-31.8339542654
 20
-46.1601977575
 30
0.0
 10
-30.9661493932
 20
-46.2870747384
 30
0.0
 11
-45.0760752411
 21
-32.5385863514
 31
0.0
 11
-44.4257465124
 21
-35.0818832519
 31
0.0
 11
-43.3875945609
 21
-37.493644101
 31
0.0
 11
-41.9860968086
 21
-39.7154061733
 31
0.0
 11
-40.2544900912
 21
-41.6927574725
 31
0.0
 11
-38.2343106148
 21
-43.3766888811
 31
0.0
 11
-35.9747350934
 21
-44.7249060774
 31
0.0
 11
-33.5316531153
 21
-45.7032612135
 31
0.0
 11
-30.9661493932
 21
-46.2870747384
 31
0.0
  0
SPLINE
  5
38E
100
AcDbEntity
  8
RACCORDO
100
AcDbSpline
 62
253
  6
CONTINUOUS
 70
0
 71
3
 72
15
 73
11
 74
9
 42
0.0000001
 43
0.0000001
 44
0.0000000001
 12
20.8088463442
 22
3.0423401955
 32
0.0
 13
3.6057531213
 23
20.7186501605
 33
0.0
 40
0.0
 40
0.0
 40
0.0
 40
0.0
 40
0.125110957
 40
0.250250658
 40
0.3753681573
 40
0.5004258149
 40
0.6254077837
 40
0.7503177517
 40
0.8751727434
 40
1.0
 40
1.0
 40
1.0
 40
1.0
 10
30.7778208603
 20
-46.2870724322
 30
0.0
 10
31.6456257536
 20
-46.1601957344
 30
0.0
 10
33.3645172203
 20
-45.7691403606
 30
0.0
 10
35.8167993487
 20
-44.7869138296
 30
0.0
 10
38.0855644816
 20
-43.4332226726
 30
0.0
 10
40.1138768851
 20
-41.7423941524
 30
0.0
 10
41.8525533042
 20
-39.7569264658
 30
0.0
 10
43.2598102306
 20
-37.5258229757
 30
0.0
 10
44.3021468507
 20
-35.1045583876
 30
0.0
 10
44.7377016629
 20
-33.4006544604
 30
0.0
 10
44.8877337529
 20
-32.5385703738
 30
0.0
 11
30.7778208603
 21
-46.2870724322
 31
0.0
 11
33.3433239576
 21
-45.7032564324
 31
0.0
 11
35.7864050724
 21
-44.7248990202
 31
0.0
 11
38.0459793411
 21
-43.3766796743
 31
0.0
 11
40.0661572315
 21
-41.6927463363
 31
0.0
 11
41.7977621022
 21
-39.715393352
 31
0.0
 11
43.1992577669
 21
-37.4936299155
 31
0.0
 11
44.237407489
 21
-35.0818680666
 31
0.0
 11
44.8877337529
 21
-32.5385703738
 31
0.0
  0
SPLINE
  5
38F
100
AcDbEntity
  8
RACCORDO
100
AcDbSpline
 62
253
  6
CONTINUOUS
 70
0
 71
3
 72
15
 73
11
 74
9
 42
0.0000001
 43
0.0000001
 44
0.0000000001
 12
-20.8088463442
 22
-3.0423401955
 32
0.0
 13
-3.6057531213
 23
-20.7186501605
 33
0.0
 40
0.0
 40
0.0
 40
0.0
 40
0.0
 40
0.125110957
 40
0.250250658
 40
0.3753681573
 40
0.5004258149
 40
0.6254077837
 40
0.7503177517
 40
0.8751727434
 40
1.0
 40
1.0
 40
1.0
 40
1.0
 10
-30.9661651293
 20
44.4562928064
 30
0.0
 10
-31.8339700226
 20
44.3294161086
 30
0.0
 10
-33.5528614893
 20
43.9383607348
 30
0.0
 10
-36.0051436177
 20
42.9561342038
 30
0.0
 10
-38.2739087506
 20
41.6024430469
 30
0.0
 10
-40.3022211541
 20
39.9116145267
 30
0.0
 10
-42.0408975732
 20
37.9261468401
 30
0.0
 10
-43.4481544996
 20
35.6950433499
 30
0.0
 10
-44.4904911197
 20
33.2737787619
 30
0.0
 10
-44.9260459319
 20
31.5698748346
 30
0.0
 10
-45.0760780219
 20
30.707790748
 30
0.0
 11
-30.9661651293
 21
44.4562928064
 31
0.0
 11
-33.5316682266
 21
43.8724768066
 31
0.0
 11
-35.9747493414
 21
42.8941193944
 31
0.0
 11
-38.2343236101
 21
41.5459000485
 31
0.0
 11
-40.2545015005
 21
39.8619667106
 31
0.0
 11
-41.9861063712
 21
37.8846137262
 31
0.0
 11
-43.3876020359
 21
35.6628502898
 31
0.0
 11
-44.425751758
 21
33.2510884409
 31
0.0
 11
-45.0760780219
 21
30.707790748
 31
0.0
  0
SPLINE
  5
390
100
AcDbEntity
  8
RACCORDO
100
AcDbSpline
 62
253
  6
CONTINUOUS
 70
0
 71
3
 72
15
 73
11
 74
9
 42
0.0000001
 43
0.0000001
 44
0.0000000001
 12
-3.6057484052
 22
20.718650664
 32
0.0
 13
-20.8088450526
 23
3.0423468702
 33
0.0
 40
0.0
 40
0.0
 40
0.0
 40
0.0
 40
0.124827251
 40
0.2496822427
 40
0.3745922108
 40
0.4995741789
 40
0.6246318376
 40
0.7497493376
 40
0.8748890383
 40
1.0
 40
1.0
 40
1.0
 40
1.0
 10
44.8877309721
 20
30.7078067256
 30
0.0
 10
44.7376990851
 20
31.5698907944
 30
0.0
 10
44.302141039
 20
33.273793946
 30
0.0
 10
43.2598028778
 20
35.6950576222
 30
0.0
 10
41.8525436639
 20
37.9261597052
 30
0.0
 10
40.1138654283
 20
39.9116257059
 30
0.0
 10
38.0855514379
 20
41.6024523297
 30
0.0
 10
35.8167850194
 20
42.9561411239
 30
0.0
 10
33.3645021022
 20
43.9383661062
 30
0.0
 10
31.6456099964
 20
44.3294181317
 30
0.0
 10
30.7778051242
 20
44.4562951127
 30
0.0
 11
44.8877309721
 21
30.7078067256
 31
0.0
 11
44.2374022434
 21
33.2511036262
 31
0.0
 11
43.1992502919
 21
35.6628644752
 31
0.0
 11
41.7977525396
 21
37.8846265475
 31
0.0
 11
40.0661458222
 21
39.8619778468
 31
0.0
 11
38.0459663458
 21
41.5459092553
 31
0.0
 11
35.7863908244
 21
42.8941264517
 31
0.0
 11
33.3433088463
 21
43.8724815877
 31
0.0
 11
30.7778051242
 21
44.4562951127
 31
0.0
  0
SPLINE
  5
391
100
AcDbEntity
  8
RACCORDO
100
AcDbSpline
 62
253
  6
CONTINUOUS
 70
0
 71
3
 72
15
 73
11
 74
9
 42
0.0000001
 43
0.0000001
 44
0.0000000001
 12
0.2725517784
 22
-0.0456840812
 32
0.0
 13
0.1971931431
 23
0.1936139754
 33
0.0
 40
0.0
 40
0.0
 40
0.0
 40
0.0
 40
0.3739475767
 40
0.5415629948
 40
0.6890344757
 40
0.8117778679
 40
0.9059115978
 40
0.9687887697
 40
0.9881860743
 40
1.0
 40
1.0
 40
1.0
 40
1.0
 10
44.6137933077
 20
-32.5121084337
 30
0.0
 10
44.6477666667
 20
-32.5178029175
 30
0.0
 10
44.6970718537
 20
-32.5254525957
 30
0.0
 10
44.7600141558
 20
-32.5336904434
 30
0.0
 10
44.8000935289
 20
-32.5381408888
 30
0.0
 10
44.8335643836
 20
-32.5410237687
 30
0.0
 10
44.859253633
 20
-32.5421795514
 30
0.0
 10
44.8756417286
 20
-32.5419644862
 30
0.0
 10
44.8841131921
 20
-32.5405230992
 30
0.0
 10
44.886933924
 20
-32.5394665883
 30
0.0
 10
44.8877104657
 20
-32.5387041413
 30
0.0
 11
44.6137933077
 21
-32.5121084337
 31
0.0
 11
44.715935881
 21
-32.5278068779
 31
0.0
 11
44.7618714249
 21
-32.5337715933
 31
0.0
 11
44.8023832392
 21
-32.5382109671
 31
0.0
 11
44.8361900363
 21
-32.5409874832
 31
0.0
 11
44.8621842902
 21
-32.5420067183
 31
0.0
 11
44.8795434516
 21
-32.5412339131
 31
0.0
 11
44.8848000567
 21
-32.5401835339
 31
0.0
 11
44.8877104657
 21
-32.5387041413
 31
0.0
  0
SPLINE
  5
392
100
AcDbEntity
  8
RACCORDO
100
AcDbSpline
 62
253
  6
CONTINUOUS
 70
0
 71
3
 72
16
 73
12
 74
10
 42
0.0000001
 43
0.0000001
 44
0.0000000001
 12
0.276124611
 22
-0.0285868612
 32
0.0
 13
0.2059568692
 23
0.1861283897
 33
0.0
 40
0.0
 40
0.0
 40
0.0
 40
0.0
 40
0.3744425896
 40
0.5424209412
 40
0.6902294113
 40
0.8132037279
 40
0.9073691248
 40
0.9427459533
 40
0.9699561836
 40
0.9889500697
 40
1.0
 40
1.0
 40
1.0
 40
1.0
 10
45.1736699163
 20
-28.5342969156
 30
0.0
 10
45.2081341878
 20
-28.5378649617
 30
0.0
 10
45.2581140161
 20
-28.5425458383
 30
0.0
 10
45.3218081749
 20
-28.5472791221
 30
0.0
 10
45.3623431263
 20
-28.5496633411
 30
0.0
 10
45.3960843256
 20
-28.5509429288
 30
0.0
 10
45.419472123
 20
-28.5511408526
 30
0.0
 10
45.4339504307
 20
-28.5505656686
 30
0.0
 10
45.4415100496
 20
-28.5499164283
 30
0.0
 10
45.4466648207
 20
-28.5490038265
 30
0.0
 10
45.4494294412
 20
-28.5481089201
 30
0.0
 10
45.4501880442
 20
-28.5474233515
 30
0.0
 11
45.1736699163
 21
-28.5342969156
 31
0.0
 11
45.2771736282
 21
-28.5438694955
 31
0.0
 11
45.3236788556
 21
-28.5472902366
 31
0.0
 11
45.3646430581
 21
-28.5496427533
 31
0.0
 11
45.3987592767
 21
-28.5508543369
 31
0.0
 11
45.4248996184
 21
-28.5508821125
 31
0.0
 11
45.4347107281
 21
-28.5504499403
 31
0.0
 11
45.4422292532
 21
-28.5497231449
 31
0.0
 11
45.447403893
 21
-28.5487109259
 31
0.0
 11
45.4501880442
 21
-28.5474233515
 31
0.0
  0
SPLINE
  5
393
100
AcDbEntity
  8
RACCORDO
100
AcDbSpline
 62
253
  6
CONTINUOUS
 70
0
 71
3
 72
16
 73
12
 74
10
 42
0.0000001
 43
0.0000001
 44
0.0000000001
 12
0.2764903074
 22
-0.024912493
 32
0.0
 13
0.2341720557
 23
0.149100539
 33
0.0
 40
0.0
 40
0.0
 40
0.0
 40
0.0
 40
0.3751787992
 40
0.5435105924
 40
0.691602485
 40
0.8147399431
 40
0.9088823643
 40
0.9441420039
 40
0.9711284813
 40
0.9897255715
 40
1.0
 40
1.0
 40
1.0
 40
1.0
 10
45.5677708714
 20
-24.6153005988
 30
0.0
 10
45.6023486386
 20
-24.6184161452
 30
0.0
 10
45.6524730741
 20
-24.6225908441
 30
0.0
 10
45.7163157215
 20
-24.6270545042
 30
0.0
 10
45.756923389
 20
-24.6294601498
 30
0.0
 10
45.7906953479
 20
-24.6309681581
 30
0.0
 10
45.8140738333
 20
-24.6315442463
 30
0.0
 10
45.828529814
 20
-24.6314012993
 30
0.0
 10
45.8360373682
 20
-24.6311089695
 30
0.0
 10
45.8411176718
 20
-24.6305364105
 30
0.0
 10
45.8438350215
 20
-24.630030076
 30
0.0
 10
45.8446370162
 20
-24.629519435
 30
0.0
 11
45.5677708714
 21
-24.6153005988
 31
0.0
 11
45.67157194
 21
-24.6238618879
 31
0.0
 11
45.7181904584
 21
-24.6270972639
 31
0.0
 11
45.7592327372
 21
-24.6294879254
 31
0.0
 11
45.7933853062
 21
-24.6309589972
 31
0.0
 11
45.8195154221
 21
-24.631459726
 31
0.0
 11
45.829303129
 21
-24.631339771
 31
0.0
 11
45.8367858542
 21
-24.6309726407
 31
0.0
 11
45.8419125745
 21
-24.6303638071
 31
0.0
 11
45.8446370162
 21
-24.629519435
 31
0.0
  0
SPLINE
  5
394
100
AcDbEntity
  8
RACCORDO
100
AcDbSpline
 62
253
  6
CONTINUOUS
 70
0
 71
3
 72
16
 73
12
 74
10
 42
0.0000001
 43
0.0000001
 44
0.0000000001
 12
0.2764903355
 22
0.0249124966
 32
0.0
 13
0.2341720271
 23
-0.1491006367
 33
0.0
 40
0.0
 40
0.0
 40
0.0
 40
0.0
 40
0.3751788018
 40
0.5435105981
 40
0.6916024933
 40
0.8147399528
 40
0.9088823734
 40
0.9441420117
 40
0.971128487
 40
0.9897255747
 40
1.0
 40
1.0
 40
1.0
 40
1.0
 10
45.5677708725
 20
22.7845209737
 30
0.0
 10
45.6023486434
 20
22.7876365206
 30
0.0
 10
45.6524730845
 20
22.7918112201
 30
0.0
 10
45.7163157392
 20
22.7962748809
 30
0.0
 10
45.7569234115
 20
22.7986805269
 30
0.0
 10
45.7906953741
 20
22.8001885355
 30
0.0
 10
45.8140738618
 20
22.8007646238
 30
0.0
 10
45.8285298436
 20
22.8006216767
 30
0.0
 10
45.8360373982
 20
22.8003293468
 30
0.0
 10
45.8411177015
 20
22.7997567876
 30
0.0
 10
45.843835051
 20
22.7992504532
 30
0.0
 10
45.8446370453
 20
22.798739812
 30
0.0
 11
45.5677708725
 21
22.7845209737
 31
0.0
 11
45.6715719523
 21
22.7930822641
 31
0.0
 11
45.7181904763
 21
22.7963176406
 31
0.0
 11
45.7592327601
 21
22.7987083025
 31
0.0
 11
45.7933853329
 21
22.8001793746
 31
0.0
 11
45.8195154513
 21
22.8006801034
 31
0.0
 11
45.8293031588
 21
22.8005601483
 31
0.0
 11
45.8367858843
 21
22.800193018
 31
0.0
 11
45.8419126043
 21
22.7995841843
 31
0.0
 11
45.8446370453
 21
22.798739812
 31
0.0
  0
SPLINE
  5
395
100
AcDbEntity
  8
RACCORDO
100
AcDbSpline
 62
253
  6
CONTINUOUS
 70
0
 71
3
 72
16
 73
12
 74
10
 42
0.0000001
 43
0.0000001
 44
0.0000000001
 12
0.276124606
 22
0.0285868605
 32
0.0
 13
0.2059568766
 23
-0.1861283741
 33
0.0
 40
0.0
 40
0.0
 40
0.0
 40
0.0
 40
0.3744425892
 40
0.5424209404
 40
0.69022941
 40
0.8132037264
 40
0.9073691234
 40
0.9427459521
 40
0.9699561826
 40
0.9889500692
 40
1.0
 40
1.0
 40
1.0
 40
1.0
 10
45.1736699162
 20
26.7035172897
 30
0.0
 10
45.208134187
 20
26.7070853357
 30
0.0
 10
45.2581140143
 20
26.7117662121
 30
0.0
 10
45.3218081718
 20
26.7164994957
 30
0.0
 10
45.3623431224
 20
26.7188837147
 30
0.0
 10
45.396084321
 20
26.7201633023
 30
0.0
 10
45.419472118
 20
26.7203612262
 30
0.0
 10
45.4339504255
 20
26.7197860422
 30
0.0
 10
45.4415100443
 20
26.7191368018
 30
0.0
 10
45.4466648155
 20
26.7182242001
 30
0.0
 10
45.449429436
 20
26.7173292937
 30
0.0
 10
45.450188039
 20
26.7166437252
 30
0.0
 11
45.1736699162
 21
26.7035172897
 31
0.0
 11
45.277173626
 21
26.7130898692
 31
0.0
 11
45.3236788525
 21
26.7165106103
 31
0.0
 11
45.3646430541
 21
26.7188631269
 31
0.0
 11
45.398759272
 21
26.7200747104
 31
0.0
 11
45.4248996133
 21
26.7201024861
 31
0.0
 11
45.4347107228
 21
26.7196703139
 31
0.0
 11
45.4422292479
 21
26.7189435184
 31
0.0
 11
45.4474038878
 21
26.7179312995
 31
0.0
 11
45.450188039
 21
26.7166437252
 31
0.0
  0
SPLINE
  5
396
100
AcDbEntity
  8
RACCORDO
100
AcDbSpline
 62
253
  6
CONTINUOUS
 70
0
 71
3
 72
15
 73
11
 74
9
 42
0.0000001
 43
0.0000001
 44
0.0000000001
 12
0.2725511859
 22
0.0456839399
 32
0.0
 13
0.1971926137
 23
-0.1936136472
 33
0.0
 40
0.0
 40
0.0
 40
0.0
 40
0.0
 40
0.3739477081
 40
0.5415631248
 40
0.6890345793
 40
0.8117779339
 40
0.9059116275
 40
0.9687887745
 40
0.9881860736
 40
1.0
 40
1.0
 40
1.0
 40
1.0
 10
44.613793303
 20
30.6813288021
 30
0.0
 10
44.6477666001
 20
30.6870232703
 30
0.0
 10
44.6970716915
 20
30.6946729269
 30
0.0
 10
44.7600138658
 20
30.7029107491
 30
0.0
 10
44.8000931454
 20
30.7073611782
 30
0.0
 10
44.8335639177
 20
30.7102440454
 30
0.0
 10
44.8592531019
 20
30.71139982
 30
0.0
 10
44.8756411552
 20
30.7111847508
 30
0.0
 10
44.884112597
 20
30.709743364
 30
0.0
 10
44.8869333215
 20
30.7086868537
 30
0.0
 10
44.8877098611
 20
30.707924408
 30
0.0
 11
44.613793303
 21
30.6813288021
 31
0.0
 11
44.7159356897
 21
30.697027203
 31
0.0
 11
44.7618711331
 21
30.7029918988
 31
0.0
 11
44.8023828517
 21
30.707431256
 31
0.0
 11
44.8361895646
 21
30.7102077594
 31
0.0
 11
44.8621837515
 21
30.7112269864
 31
0.0
 11
44.8795428677
 21
30.710454178
 31
0.0
 11
44.8847994593
 21
30.7094037991
 31
0.0
 11
44.8877098611
 21
30.707924408
 31
0.0
  0
SPLINE
  5
397
100
AcDbEntity
  8
RACCORDO
100
AcDbSpline
 62
253
  6
CONTINUOUS
 70
0
 71
3
 72
15
 73
11
 74
9
 42
0.0000001
 43
0.0000001
 44
0.0000000001
 12
0.0351219695
 22
0.2497468098
 32
0.0
 13
-0.1040051747
 23
0.2297606263
 33
0.0
 40
0.0
 40
0.0
 40
0.0
 40
0.0
 40
0.3803972845
 40
0.5486515812
 40
0.6957006222
 40
0.8173921237
 40
0.9101771232
 40
0.9714984617
 40
0.9898579693
 40
1.0
 40
1.0
 40
1.0
 40
1.0
 10
30.7508463503
 20
44.2057803331
 30
0.0
 10
30.7552997842
 20
44.2374480025
 30
0.0
 10
30.7614796134
 20
44.2831569669
 30
0.0
 10
30.7686809597
 20
44.3412010787
 30
0.0
 10
30.7728630779
 20
44.3776947022
 30
0.0
 10
30.7759923351
 20
44.4079422802
 30
0.0
 10
30.7778738694
 20
44.4310169173
 30
0.0
 10
30.7787449657
 20
44.4455605354
 30
0.0
 10
30.7785075999
 20
44.4530521545
 30
0.0
 10
30.7782820479
 20
44.4554999969
 30
0.0
 10
30.77793044
 20
44.4562767433
 30
0.0
 11
30.7508463503
 21
44.2057803331
 31
0.0
 11
30.7636284699
 21
44.3008628586
 31
0.0
 11
30.7688303345
 21
44.3429772756
 31
0.0
 11
30.7730321735
 21
44.3798248797
 31
0.0
 11
30.7761159411
 21
44.4103606851
 31
0.0
 11
30.7779895657
 21
44.4336863351
 31
0.0
 11
30.7785988895
 21
44.4491398339
 31
0.0
 11
30.7784235463
 21
44.45376686
 31
0.0
 11
30.77793044
 21
44.4562767433
 31
0.0
  0
SPLINE
  5
398
100
AcDbEntity
  8
RACCORDO
100
AcDbSpline
 62
253
  6
CONTINUOUS
 70
0
 71
3
 72
15
 73
11
 74
9
 42
0.0000001
 43
0.0000001
 44
0.0000000001
 12
0.0206361255
 22
0.2513804503
 32
0.0
 13
-0.1281863843
 23
0.2172239198
 33
0.0
 40
0.0
 40
0.0
 40
0.0
 40
0.0
 40
0.3802620715
 40
0.5484568978
 40
0.6954603299
 40
0.8171273368
 40
0.9099189422
 40
0.9712975083
 40
0.9897242734
 40
1.0
 40
1.0
 40
1.0
 40
1.0
 10
25.7722249898
 20
44.7894225143
 30
0.0
 10
25.7748407017
 20
44.8212859979
 30
0.0
 10
25.7783402644
 20
44.8672657472
 30
0.0
 10
25.7820646244
 20
44.9256214037
 30
0.0
 10
25.7840230048
 20
44.9622933783
 30
0.0
 10
25.7852678095
 20
44.9926763053
 30
0.0
 10
25.7856633932
 20
45.0158254123
 30
0.0
 10
25.7855458052
 20
45.0304161828
 30
0.0
 10
25.7847410085
 20
45.0378846164
 30
0.0
 10
25.7842953938
 20
45.0403285987
 30
0.0
 10
25.7838563244
 20
45.0410726433
 30
0.0
 11
25.7722249898
 21
44.7894225143
 31
0.0
 11
25.7794230409
 21
44.8850640318
 31
0.0
 11
25.7820998065
 21
44.9274026165
 31
0.0
 11
25.7840530132
 21
44.9644292302
 31
0.0
 11
25.7852285336
 21
44.9950942957
 31
0.0
 11
25.7855902995
 21
45.0184959598
 31
0.0
 11
25.7851269546
 21
45.0339702977
 31
0.0
 11
25.7845902137
 21
45.0385869111
 31
0.0
 11
25.7838563244
 21
45.0410726433
 31
0.0
  0
SPLINE
  5
399
100
AcDbEntity
  8
RACCORDO
100
AcDbSpline
 62
253
  6
CONTINUOUS
 70
0
 71
3
 72
15
 73
11
 74
9
 42
0.0000001
 43
0.0000001
 44
0.0000000001
 12
0.0178549753
 22
0.2513579869
 32
0.0
 13
-0.1262026973
 23
0.218111249
 33
0.0
 40
0.0
 40
0.0
 40
0.0
 40
0.0
 40
0.3803596557
 40
0.5485769943
 40
0.6955892919
 40
0.8172535093
 40
0.9100309586
 40
0.971379342
 40
0.9897777332
 40
1.0
 40
1.0
 40
1.0
 40
1.0
 10
22.5300224609
 20
45.0573926077
 30
0.0
 10
22.5322862316
 20
45.0892614202
 30
0.0
 10
22.5352893378
 20
45.1352432427
 30
0.0
 10
22.5384136832
 20
45.1935902914
 30
0.0
 10
22.5400103105
 20
45.2302481896
 30
0.0
 10
22.5409723433
 20
45.2606115703
 30
0.0
 10
22.5411723667
 20
45.2837392406
 30
0.0
 10
22.540952931
 20
45.2983055319
 30
0.0
 10
22.5401200218
 20
45.3057567044
 30
0.0
 10
22.539679433
 20
45.3081886891
 30
0.0
 10
22.5392494071
 20
45.3089318862
 30
0.0
 11
22.5300224609
 21
45.0573926077
 31
0.0
 11
22.5361915169
 21
45.1530412122
 31
0.0
 11
22.5384337803
 21
45.1953711796
 31
0.0
 11
22.5400230724
 21
45.2323828996
 31
0.0
 11
22.5409155717
 21
45.2630282357
 31
0.0
 11
22.5410836221
 21
45.2864067459
 31
0.0
 11
22.5405214142
 21
45.3018557812
 31
0.0
 11
22.5399717539
 21
45.3064593181
 31
0.0
 11
22.5392494071
 21
45.3089318862
 31
0.0
  0
SPLINE
  5
39A
100
AcDbEntity
  8
RACCORDO
100
AcDbSpline
 62
253
  6
CONTINUOUS
 70
0
 71
3
 72
15
 73
11
 74
9
 42
0.0000001
 43
0.0000001
 44
0.0000000001
 12
-0.017854977
 22
0.2513580038
 32
0.0
 13
0.1262027371
 23
0.2181112455
 33
0.0
 40
0.0
 40
0.0
 40
0.0
 40
0.0
 40
0.3803596563
 40
0.5485769964
 40
0.6955892952
 40
0.8172535134
 40
0.9100309625
 40
0.9713793446
 40
0.9897777346
 40
1.0
 40
1.0
 40
1.0
 40
1.0
 10
-22.7183667303
 20
45.0573926091
 30
0.0
 10
-22.7206305012
 20
45.0892614237
 30
0.0
 10
-22.7236336078
 20
45.1352432494
 30
0.0
 10
-22.7267579535
 20
45.1935903024
 30
0.0
 10
-22.7283545809
 20
45.2302482033
 30
0.0
 10
-22.7293166138
 20
45.2606115863
 30
0.0
 10
-22.7295166373
 20
45.2837392579
 30
0.0
 10
-22.7292972017
 20
45.2983055501
 30
0.0
 10
-22.7284642923
 20
45.3057567227
 30
0.0
 10
-22.7280237035
 20
45.3081887074
 30
0.0
 10
-22.7275936776
 20
45.3089319044
 30
0.0
 11
-22.7183667303
 21
45.0573926091
 31
0.0
 11
-22.7245357869
 21
45.1530412201
 31
0.0
 11
-22.7267780506
 21
45.1953711907
 31
0.0
 11
-22.7283673428
 21
45.2323829135
 31
0.0
 11
-22.7292598423
 21
45.2630282519
 31
0.0
 11
-22.7294278927
 21
45.2864067636
 31
0.0
 11
-22.7288656847
 21
45.3018557996
 31
0.0
 11
-22.7283160244
 21
45.3064593365
 31
0.0
 11
-22.7275936776
 21
45.3089319044
 31
0.0
  0
SPLINE
  5
39B
100
AcDbEntity
  8
RACCORDO
100
AcDbSpline
 62
253
  6
CONTINUOUS
 70
0
 71
3
 72
15
 73
11
 74
9
 42
0.0000001
 43
0.0000001
 44
0.0000000001
 12
-0.0206361252
 22
0.2513804472
 32
0.0
 13
0.1281863918
 23
0.2172239118
 33
0.0
 40
0.0
 40
0.0
 40
0.0
 40
0.0
 40
0.3802620732
 40
0.5484568998
 40
0.695460332
 40
0.8171273386
 40
0.9099189436
 40
0.9712975091
 40
0.9897242738
 40
1.0
 40
1.0
 40
1.0
 40
1.0
 10
-25.9605692588
 20
44.7894225144
 30
0.0
 10
-25.9631849707
 20
44.8212859977
 30
0.0
 10
-25.9666845334
 20
44.8672657467
 30
0.0
 10
-25.9704088933
 20
44.9256214026
 30
0.0
 10
-25.9723672737
 20
44.9622933768
 30
0.0
 10
-25.9736120783
 20
44.9926763034
 30
0.0
 10
-25.974007662
 20
45.01582541
 30
0.0
 10
-25.973890074
 20
45.0304161802
 30
0.0
 10
-25.9730852773
 20
45.0378846136
 30
0.0
 10
-25.9726396625
 20
45.0403285958
 30
0.0
 10
-25.9722005931
 20
45.0410726403
 30
0.0
 11
-25.9605692588
 21
44.7894225144
 31
0.0
 11
-25.9677673099
 21
44.8850640312
 31
0.0
 11
-25.9704440754
 21
44.9274026155
 31
0.0
 11
-25.972397282
 21
44.9644292287
 31
0.0
 11
-25.9735728024
 21
44.9950942938
 31
0.0
 11
-25.9739345682
 21
45.0184959574
 31
0.0
 11
-25.9734712234
 21
45.033970295
 31
0.0
 11
-25.9729344824
 21
45.0385869083
 31
0.0
 11
-25.9722005931
 21
45.0410726403
 31
0.0
  0
SPLINE
  5
39C
100
AcDbEntity
  8
RACCORDO
100
AcDbSpline
 62
253
  6
CONTINUOUS
 70
0
 71
3
 72
15
 73
11
 74
9
 42
0.0000001
 43
0.0000001
 44
0.0000000001
 12
-0.035121863
 22
0.2497461866
 32
0.0
 13
0.1040058884
 23
0.2297596095
 33
0.0
 40
0.0
 40
0.0
 40
0.0
 40
0.0
 40
0.380397519
 40
0.548651848
 40
0.6957008792
 40
0.8173923394
 40
0.9101772763
 40
0.9714985395
 40
0.9898580075
 40
1.0
 40
1.0
 40
1.0
 40
1.0
 10
-30.9391906198
 20
44.2057803345
 30
0.0
 10
-30.943644043
 20
44.2374479444
 30
0.0
 10
-30.9498238565
 20
44.2831568169
 30
0.0
 10
-30.957025183
 20
44.3412008053
 30
0.0
 10
-30.9612072872
 20
44.3776943361
 30
0.0
 10
-30.9643365326
 20
44.4079418293
 30
0.0
 10
-30.9662180568
 20
44.4310163932
 30
0.0
 10
-30.967089148
 20
44.4455599614
 30
0.0
 10
-30.966851778
 20
44.4530515476
 30
0.0
 10
-30.9666262255
 20
44.4554993782
 30
0.0
 10
-30.9662746165
 20
44.4562761183
 30
0.0
 11
-30.9391906198
 21
44.2057803345
 31
0.0
 11
-30.9519727083
 21
44.3008626813
 31
0.0
 11
-30.9571745576
 21
44.3429770013
 31
0.0
 11
-30.9613763824
 21
44.3798245109
 31
0.0
 11
-30.9644601378
 21
44.4103602298
 31
0.0
 11
-30.9663337527
 21
44.4336858059
 31
0.0
 11
-30.9669430697
 21
44.4491392472
 31
0.0
 11
-30.9667677243
 21
44.4537662516
 31
0.0
 11
-30.9662746165
 21
44.4562761183
 31
0.0
  0
SPLINE
  5
39D
100
AcDbEntity
  8
RACCORDO
100
AcDbSpline
 62
253
  6
CONTINUOUS
 70
0
 71
3
 72
15
 73
11
 74
9
 42
0.0000001
 43
0.0000001
 44
0.0000000001
 12
-0.2725517784
 22
0.0456840812
 32
0.0
 13
-0.1971931431
 23
-0.1936139754
 33
0.0
 40
0.0
 40
0.0
 40
0.0
 40
0.0
 40
0.3739475767
 40
0.5415629948
 40
0.6890344757
 40
0.8117778679
 40
0.9059115978
 40
0.9687887697
 40
0.9881860743
 40
1.0
 40
1.0
 40
1.0
 40
1.0
 10
-44.8021375767
 20
30.6813288079
 30
0.0
 10
-44.8361109357
 20
30.6870232918
 30
0.0
 10
-44.8854161227
 20
30.6946729699
 30
0.0
 10
-44.9483584248
 20
30.7029108176
 30
0.0
 10
-44.9884377979
 20
30.707361263
 30
0.0
 10
-45.0219086526
 20
30.7102441429
 30
0.0
 10
-45.047597902
 20
30.7113999256
 30
0.0
 10
-45.0639859976
 20
30.7111848604
 30
0.0
 10
-45.0724574611
 20
30.7097434734
 30
0.0
 10
-45.075278193
 20
30.7086869626
 30
0.0
 10
-45.0760547347
 20
30.7079245155
 30
0.0
 11
-44.8021375767
 21
30.6813288079
 31
0.0
 11
-44.90428015
 21
30.6970272522
 31
0.0
 11
-44.9502156939
 21
30.7029919675
 31
0.0
 11
-44.9907275082
 21
30.7074313414
 31
0.0
 11
-45.0245343053
 21
30.7102078574
 31
0.0
 11
-45.0505285592
 21
30.7112270926
 31
0.0
 11
-45.0678877206
 21
30.7104542873
 31
0.0
 11
-45.0731443257
 21
30.7094039081
 31
0.0
 11
-45.0760547347
 21
30.7079245155
 31
0.0
  0
SPLINE
  5
39E
100
AcDbEntity
  8
RACCORDO
100
AcDbSpline
 62
253
  6
CONTINUOUS
 70
0
 71
3
 72
16
 73
12
 74
10
 42
0.0000001
 43
0.0000001
 44
0.0000000001
 12
-0.276124611
 22
0.0285868612
 32
0.0
 13
-0.2059568692
 23
-0.1861283897
 33
0.0
 40
0.0
 40
0.0
 40
0.0
 40
0.0
 40
0.3744425896
 40
0.5424209412
 40
0.6902294113
 40
0.8132037279
 40
0.9073691248
 40
0.9427459533
 40
0.9699561836
 40
0.9889500697
 40
1.0
 40
1.0
 40
1.0
 40
1.0
 10
-45.3620141853
 20
26.7035172898
 30
0.0
 10
-45.3964784568
 20
26.7070853359
 30
0.0
 10
-45.4464582851
 20
26.7117662125
 30
0.0
 10
-45.5101524439
 20
26.7164994963
 30
0.0
 10
-45.5506873953
 20
26.7188837153
 30
0.0
 10
-45.5844285946
 20
26.720163303
 30
0.0
 10
-45.607816392
 20
26.7203612269
 30
0.0
 10
-45.6222946997
 20
26.7197860429
 30
0.0
 10
-45.6298543186
 20
26.7191368025
 30
0.0
 10
-45.6350090897
 20
26.7182242008
 30
0.0
 10
-45.6377737102
 20
26.7173292943
 30
0.0
 10
-45.6385323132
 20
26.7166437257
 30
0.0
 11
-45.3620141853
 21
26.7035172898
 31
0.0
 11
-45.4655178972
 21
26.7130898697
 31
0.0
 11
-45.5120231246
 21
26.7165106108
 31
0.0
 11
-45.5529873271
 21
26.7188631275
 31
0.0
 11
-45.5871035457
 21
26.7200747111
 31
0.0
 11
-45.6132438874
 21
26.7201024867
 31
0.0
 11
-45.6230549971
 21
26.7196703145
 31
0.0
 11
-45.6305735222
 21
26.7189435191
 31
0.0
 11
-45.635748162
 21
26.7179313001
 31
0.0
 11
-45.6385323132
 21
26.7166437257
 31
0.0
  0
SPLINE
  5
39F
100
AcDbEntity
  8
RACCORDO
100
AcDbSpline
 62
253
  6
CONTINUOUS
 70
0
 71
3
 72
16
 73
12
 74
10
 42
0.0000001
 43
0.0000001
 44
0.0000000001
 12
-0.2764903074
 22
0.024912493
 32
0.0
 13
-0.2341720557
 23
-0.149100539
 33
0.0
 40
0.0
 40
0.0
 40
0.0
 40
0.0
 40
0.3751787992
 40
0.5435105924
 40
0.691602485
 40
0.8147399431
 40
0.9088823643
 40
0.9441420039
 40
0.9711284813
 40
0.9897255715
 40
1.0
 40
1.0
 40
1.0
 40
1.0
 10
-45.7561151404
 20
22.784520973
 30
0.0
 10
-45.7906929076
 20
22.7876365194
 30
0.0
 10
-45.8408173431
 20
22.7918112183
 30
0.0
 10
-45.9046599905
 20
22.7962748784
 30
0.0
 10
-45.945267658
 20
22.7986805241
 30
0.0
 10
-45.9790396169
 20
22.8001885324
 30
0.0
 10
-46.0024181023
 20
22.8007646206
 30
0.0
 10
-46.016874083
 20
22.8006216735
 30
0.0
 10
-46.0243816373
 20
22.8003293437
 30
0.0
 10
-46.0294619408
 20
22.7997567847
 30
0.0
 10
-46.0321792905
 20
22.7992504502
 30
0.0
 10
-46.0329812852
 20
22.7987398093
 30
0.0
 11
-45.7561151404
 21
22.784520973
 31
0.0
 11
-45.859916209
 21
22.7930822621
 31
0.0
 11
-45.9065347274
 21
22.7963176381
 31
0.0
 11
-45.9475770062
 21
22.7987082996
 31
0.0
 11
-45.9817295752
 21
22.8001793714
 31
0.0
 11
-46.0078596911
 21
22.8006801002
 31
0.0
 11
-46.017647398
 21
22.8005601452
 31
0.0
 11
-46.0251301232
 21
22.8001930149
 31
0.0
 11
-46.0302568435
 21
22.7995841813
 31
0.0
 11
-46.0329812852
 21
22.7987398093
 31
0.0
  0
SPLINE
  5
3A0
100
AcDbEntity
  8
RACCORDO
100
AcDbSpline
 62
253
  6
CONTINUOUS
 70
0
 71
3
 72
16
 73
12
 74
10
 42
0.0000001
 43
0.0000001
 44
0.0000000001
 12
-0.2764903355
 22
-0.0249124966
 32
0.0
 13
-0.2341720271
 23
0.1491006367
 33
0.0
 40
0.0
 40
0.0
 40
0.0
 40
0.0
 40
0.3751788018
 40
0.5435105981
 40
0.6916024933
 40
0.8147399528
 40
0.9088823734
 40
0.9441420117
 40
0.971128487
 40
0.9897255747
 40
1.0
 40
1.0
 40
1.0
 40
1.0
 10
-45.7561151415
 20
-24.6153005995
 30
0.0
 10
-45.7906929124
 20
-24.6184161464
 30
0.0
 10
-45.8408173535
 20
-24.6225908459
 30
0.0
 10
-45.9046600082
 20
-24.6270545067
 30
0.0
 10
-45.9452676805
 20
-24.6294601527
 30
0.0
 10
-45.9790396431
 20
-24.6309681612
 30
0.0
 10
-46.0024181308
 20
-24.6315442496
 30
0.0
 10
-46.0168741126
 20
-24.6314013025
 30
0.0
 10
-46.0243816672
 20
-24.6311089726
 30
0.0
 10
-46.0294619705
 20
-24.6305364134
 30
0.0
 10
-46.03217932
 20
-24.6300300789
 30
0.0
 10
-46.0329813143
 20
-24.6295194378
 30
0.0
 11
-45.7561151415
 21
-24.6153005995
 31
0.0
 11
-45.8599162213
 21
-24.6238618899
 31
0.0
 11
-45.9065347453
 21
-24.6270972664
 31
0.0
 11
-45.9475770291
 21
-24.6294879283
 31
0.0
 11
-45.9817296019
 21
-24.6309590003
 31
0.0
 11
-46.0078597203
 21
-24.6314597292
 31
0.0
 11
-46.0176474278
 21
-24.6313397741
 31
0.0
 11
-46.0251301533
 21
-24.6309726437
 31
0.0
 11
-46.0302568733
 21
-24.6303638101
 31
0.0
 11
-46.0329813143
 21
-24.6295194378
 31
0.0
  0
SPLINE
  5
3A1
100
AcDbEntity
  8
RACCORDO
100
AcDbSpline
 62
253
  6
CONTINUOUS
 70
0
 71
3
 72
16
 73
12
 74
10
 42
0.0000001
 43
0.0000001
 44
0.0000000001
 12
-0.276124606
 22
-0.0285868605
 32
0.0
 13
-0.2059568766
 23
0.1861283741
 33
0.0
 40
0.0
 40
0.0
 40
0.0
 40
0.0
 40
0.3744425892
 40
0.5424209404
 40
0.69022941
 40
0.8132037264
 40
0.9073691234
 40
0.9427459521
 40
0.9699561826
 40
0.9889500692
 40
1.0
 40
1.0
 40
1.0
 40
1.0
 10
-45.3620141852
 20
-28.5342969154
 30
0.0
 10
-45.396478456
 20
-28.5378649615
 30
0.0
 10
-45.4464582833
 20
-28.5425458379
 30
0.0
 10
-45.5101524408
 20
-28.5472791215
 30
0.0
 10
-45.5506873914
 20
-28.5496633404
 30
0.0
 10
-45.58442859
 20
-28.5509429281
 30
0.0
 10
-45.607816387
 20
-28.551140852
 30
0.0
 10
-45.6222946945
 20
-28.550565668
 30
0.0
 10
-45.6298543133
 20
-28.5499164276
 30
0.0
 10
-45.6350090845
 20
-28.5490038259
 30
0.0
 10
-45.637773705
 20
-28.5481089195
 30
0.0
 10
-45.638532308
 20
-28.5474233509
 30
0.0
 11
-45.3620141852
 21
-28.5342969154
 31
0.0
 11
-45.465517895
 21
-28.543869495
 31
0.0
 11
-45.5120231215
 21
-28.5472902361
 31
0.0
 11
-45.5529873231
 21
-28.5496427527
 31
0.0
 11
-45.587103541
 21
-28.5508543362
 31
0.0
 11
-45.6132438823
 21
-28.5508821119
 31
0.0
 11
-45.6230549918
 21
-28.5504499397
 31
0.0
 11
-45.6305735169
 21
-28.5497231442
 31
0.0
 11
-45.6357481568
 21
-28.5487109253
 31
0.0
 11
-45.638532308
 21
-28.5474233509
 31
0.0
  0
SPLINE
  5
3A2
100
AcDbEntity
  8
RACCORDO
100
AcDbSpline
 62
253
  6
CONTINUOUS
 70
0
 71
3
 72
15
 73
11
 74
9
 42
0.0000001
 43
0.0000001
 44
0.0000000001
 12
-0.2725511859
 22
-0.0456839399
 32
0.0
 13
-0.1971926137
 23
0.1936136472
 33
0.0
 40
0.0
 40
0.0
 40
0.0
 40
0.0
 40
0.3739477081
 40
0.5415631248
 40
0.6890345793
 40
0.8117779339
 40
0.9059116275
 40
0.9687887745
 40
0.9881860736
 40
1.0
 40
1.0
 40
1.0
 40
1.0
 10
-44.802137572
 20
-32.5121084279
 30
0.0
 10
-44.8361108691
 20
-32.5178028961
 30
0.0
 10
-44.8854159605
 20
-32.5254525527
 30
0.0
 10
-44.9483581348
 20
-32.5336903749
 30
0.0
 10
-44.9884374144
 20
-32.538140804
 30
0.0
 10
-45.0219081867
 20
-32.5410236712
 30
0.0
 10
-45.0475973709
 20
-32.5421794458
 30
0.0
 10
-45.0639854242
 20
-32.5419643766
 30
0.0
 10
-45.072456866
 20
-32.5405229898
 30
0.0
 10
-45.0752775905
 20
-32.5394664795
 30
0.0
 10
-45.0760541301
 20
-32.5387040337
 30
0.0
 11
-44.802137572
 21
-32.5121084279
 31
0.0
 11
-44.9042799587
 21
-32.5278068288
 31
0.0
 11
-44.9502154021
 21
-32.5337715245
 31
0.0
 11
-44.9907271207
 21
-32.5382108818
 31
0.0
 11
-45.0245338336
 21
-32.5409873852
 31
0.0
 11
-45.0505280205
 21
-32.5420066122
 31
0.0
 11
-45.0678871367
 21
-32.5412338038
 31
0.0
 11
-45.0731437283
 21
-32.5401834249
 31
0.0
 11
-45.0760541301
 21
-32.5387040337
 31
0.0
  0
SPLINE
  5
3A3
100
AcDbEntity
  8
RACCORDO
100
AcDbSpline
 62
253
  6
CONTINUOUS
 70
0
 71
3
 72
15
 73
11
 74
9
 42
0.0000001
 43
0.0000001
 44
0.0000000001
 12
-0.0351219695
 22
-0.2497468098
 32
0.0
 13
0.1040051747
 23
-0.2297606263
 33
0.0
 40
0.0
 40
0.0
 40
0.0
 40
0.0
 40
0.3803972845
 40
0.5486515812
 40
0.6957006222
 40
0.8173921237
 40
0.9101771232
 40
0.9714984617
 40
0.9898579693
 40
1.0
 40
1.0
 40
1.0
 40
1.0
 10
-30.9391906193
 20
-46.0365599589
 30
0.0
 10
-30.9436440532
 20
-46.0682276283
 30
0.0
 10
-30.9498238824
 20
-46.1139365927
 30
0.0
 10
-30.9570252288
 20
-46.1719807045
 30
0.0
 10
-30.9612073469
 20
-46.208474328
 30
0.0
 10
-30.9643366041
 20
-46.238721906
 30
0.0
 10
-30.9662181384
 20
-46.2617965431
 30
0.0
 10
-30.9670892347
 20
-46.2763401611
 30
0.0
 10
-30.9668518689
 20
-46.2838317803
 30
0.0
 10
-30.9666263169
 20
-46.2862796227
 30
0.0
 10
-30.966274709
 20
-46.2870563691
 30
0.0
 11
-30.9391906193
 21
-46.0365599589
 31
0.0
 11
-30.9519727389
 21
-46.1316424844
 31
0.0
 11
-30.9571746035
 21
-46.1737569014
 31
0.0
 11
-30.9613764425
 21
-46.2106045054
 31
0.0
 11
-30.9644602101
 21
-46.2411403108
 31
0.0
 11
-30.9663338347
 21
-46.2644659609
 31
0.0
 11
-30.9669431585
 21
-46.2799194597
 31
0.0
 11
-30.9667678153
 21
-46.2845464858
 31
0.0
 11
-30.966274709
 21
-46.2870563691
 31
0.0
  0
SPLINE
  5
3A4
100
AcDbEntity
  8
RACCORDO
100
AcDbSpline
 62
253
  6
CONTINUOUS
 70
0
 71
3
 72
15
 73
11
 74
9
 42
0.0000001
 43
0.0000001
 44
0.0000000001
 12
-0.0206361255
 22
-0.2513804503
 32
0.0
 13
0.1281863843
 23
-0.2172239198
 33
0.0
 40
0.0
 40
0.0
 40
0.0
 40
0.0
 40
0.3802620715
 40
0.5484568978
 40
0.6954603299
 40
0.8171273368
 40
0.9099189422
 40
0.9712975083
 40
0.9897242734
 40
1.0
 40
1.0
 40
1.0
 40
1.0
 10
-25.9605692588
 20
-46.62020214
 30
0.0
 10
-25.9631849707
 20
-46.6520656236
 30
0.0
 10
-25.9666845334
 20
-46.698045373
 30
0.0
 10
-25.9704088934
 20
-46.7564010295
 30
0.0
 10
-25.9723672738
 20
-46.7930730041
 30
0.0
 10
-25.9736120785
 20
-46.8234559311
 30
0.0
 10
-25.9740076622
 20
-46.8466050381
 30
0.0
 10
-25.9738900742
 20
-46.8611958086
 30
0.0
 10
-25.9730852775
 20
-46.8686642422
 30
0.0
 10
-25.9726396628
 20
-46.8711082245
 30
0.0
 10
-25.9722005934
 20
-46.871852269
 30
0.0
 11
-25.9605692588
 21
-46.62020214
 31
0.0
 11
-25.9677673099
 21
-46.7158436576
 31
0.0
 11
-25.9704440755
 21
-46.7581822423
 31
0.0
 11
-25.9723972822
 21
-46.795208856
 31
0.0
 11
-25.9735728026
 21
-46.8258739215
 31
0.0
 11
-25.9739345685
 21
-46.8492755856
 31
0.0
 11
-25.9734712237
 21
-46.8647499235
 31
0.0
 11
-25.9729344827
 21
-46.8693665369
 31
0.0
 11
-25.9722005934
 21
-46.871852269
 31
0.0
  0
SPLINE
  5
3A5
100
AcDbEntity
  8
RACCORDO
100
AcDbSpline
 62
253
  6
CONTINUOUS
 70
0
 71
3
 72
15
 73
11
 74
9
 42
0.0000001
 43
0.0000001
 44
0.0000000001
 12
-0.0178549755
 22
-0.2513579885
 32
0.0
 13
0.1262026999
 23
-0.2181112493
 33
0.0
 40
0.0
 40
0.0
 40
0.0
 40
0.0
 40
0.3803596556
 40
0.5485769943
 40
0.695589292
 40
0.8172535095
 40
0.9100309588
 40
0.9713793422
 40
0.9897777332
 40
1.0
 40
1.0
 40
1.0
 40
1.0
 10
-22.7183667299
 20
-46.8881722336
 30
0.0
 10
-22.7206305007
 20
-46.9200410463
 30
0.0
 10
-22.7236336069
 20
-46.966022869
 30
0.0
 10
-22.7267579523
 20
-47.0243699181
 30
0.0
 10
-22.7283545796
 20
-47.0610278166
 30
0.0
 10
-22.7293166124
 20
-47.0913911975
 30
0.0
 10
-22.7295166359
 20
-47.1145188679
 30
0.0
 10
-22.7292972002
 20
-47.1290851593
 30
0.0
 10
-22.728464291
 20
-47.1365363319
 30
0.0
 10
-22.7280237021
 20
-47.1389683166
 30
0.0
 10
-22.7275936763
 20
-47.1397115137
 30
0.0
 11
-22.7183667299
 21
-46.8881722336
 31
0.0
 11
-22.724535786
 21
-46.9838208387
 31
0.0
 11
-22.7267780494
 21
-47.0261508064
 31
0.0
 11
-22.7283673415
 21
-47.0631625266
 31
0.0
 11
-22.7292598409
 21
-47.0938078629
 31
0.0
 11
-22.7294278912
 21
-47.1171863733
 31
0.0
 11
-22.7288656833
 21
-47.1326354087
 31
0.0
 11
-22.728316023
 21
-47.1372389455
 31
0.0
 11
-22.7275936763
 21
-47.1397115137
 31
0.0
  0
SPLINE
  5
3A6
100
AcDbEntity
  8
RACCORDO
100
AcDbSpline
 62
253
  6
CONTINUOUS
 70
0
 71
3
 72
15
 73
11
 74
9
 42
0.0000001
 43
0.0000001
 44
0.0000000001
 12
0.017854977
 22
-0.2513580038
 32
0.0
 13
-0.1262027371
 23
-0.2181112455
 33
0.0
 40
0.0
 40
0.0
 40
0.0
 40
0.0
 40
0.3803596563
 40
0.5485769964
 40
0.6955892952
 40
0.8172535134
 40
0.9100309625
 40
0.9713793446
 40
0.9897777346
 40
1.0
 40
1.0
 40
1.0
 40
1.0
 10
22.5300224613
 20
-46.8881722349
 30
0.0
 10
22.5322862322
 20
-46.9200410495
 30
0.0
 10
22.5352893388
 20
-46.9660228752
 30
0.0
 10
22.5384136845
 20
-47.0243699282
 30
0.0
 10
22.5400103119
 20
-47.0610278291
 30
0.0
 10
22.5409723448
 20
-47.091391212
 30
0.0
 10
22.5411723683
 20
-47.1145188837
 30
0.0
 10
22.5409529327
 20
-47.1290851758
 30
0.0
 10
22.5401200233
 20
-47.1365363485
 30
0.0
 10
22.5396794345
 20
-47.1389683332
 30
0.0
 10
22.5392494086
 20
-47.1397115302
 30
0.0
 11
22.5300224613
 21
-46.8881722349
 31
0.0
 11
22.5361915179
 21
-46.9838208459
 31
0.0
 11
22.5384337816
 21
-47.0261508165
 31
0.0
 11
22.5400230738
 21
-47.0631625393
 31
0.0
 11
22.5409155733
 21
-47.0938078776
 31
0.0
 11
22.5410836237
 21
-47.1171863894
 31
0.0
 11
22.5405214157
 21
-47.1326354254
 31
0.0
 11
22.5399717554
 21
-47.1372389623
 31
0.0
 11
22.5392494086
 21
-47.1397115302
 31
0.0
  0
SPLINE
  5
3A7
100
AcDbEntity
  8
RACCORDO
100
AcDbSpline
 62
253
  6
CONTINUOUS
 70
0
 71
3
 72
15
 73
11
 74
9
 42
0.0000001
 43
0.0000001
 44
0.0000000001
 12
0.0206361252
 22
-0.2513804472
 32
0.0
 13
-0.1281863918
 23
-0.2172239118
 33
0.0
 40
0.0
 40
0.0
 40
0.0
 40
0.0
 40
0.3802620732
 40
0.5484568998
 40
0.695460332
 40
0.8171273386
 40
0.9099189436
 40
0.9712975091
 40
0.9897242738
 40
1.0
 40
1.0
 40
1.0
 40
1.0
 10
25.7722249898
 20
-46.6202021402
 30
0.0
 10
25.7748407017
 20
-46.6520656235
 30
0.0
 10
25.7783402644
 20
-46.6980453725
 30
0.0
 10
25.7820646243
 20
-46.7564010284
 30
0.0
 10
25.7840230047
 20
-46.7930730026
 30
0.0
 10
25.7852678093
 20
-46.8234559292
 30
0.0
 10
25.785663393
 20
-46.8466050358
 30
0.0
 10
25.785545805
 20
-46.861195806
 30
0.0
 10
25.7847410083
 20
-46.8686642393
 30
0.0
 10
25.7842953935
 20
-46.8711082216
 30
0.0
 10
25.7838563241
 20
-46.8718522661
 30
0.0
 11
25.7722249898
 21
-46.6202021402
 31
0.0
 11
25.7794230409
 21
-46.715843657
 31
0.0
 11
25.7820998064
 21
-46.7581822413
 31
0.0
 11
25.784053013
 21
-46.7952088545
 31
0.0
 11
25.7852285334
 21
-46.8258739196
 31
0.0
 11
25.7855902992
 21
-46.8492755832
 31
0.0
 11
25.7851269544
 21
-46.8647499208
 31
0.0
 11
25.7845902134
 21
-46.8693665341
 31
0.0
 11
25.7838563241
 21
-46.8718522661
 31
0.0
  0
SPLINE
  5
3A8
100
AcDbEntity
  8
RACCORDO
100
AcDbSpline
 62
253
  6
CONTINUOUS
 70
0
 71
3
 72
15
 73
11
 74
9
 42
0.0000001
 43
0.0000001
 44
0.0000000001
 12
0.035121863
 22
-0.2497461866
 32
0.0
 13
-0.1040058884
 23
-0.2297596095
 33
0.0
 40
0.0
 40
0.0
 40
0.0
 40
0.0
 40
0.380397519
 40
0.548651848
 40
0.6957008792
 40
0.8173923394
 40
0.9101772763
 40
0.9714985395
 40
0.9898580075
 40
1.0
 40
1.0
 40
1.0
 40
1.0
 10
30.7508463508
 20
-46.0365599603
 30
0.0
 10
30.755299774
 20
-46.0682275702
 30
0.0
 10
30.7614795875
 20
-46.1139364427
 30
0.0
 10
30.768680914
 20
-46.1719804311
 30
0.0
 10
30.7728630182
 20
-46.2084739618
 30
0.0
 10
30.7759922636
 20
-46.2387214551
 30
0.0
 10
30.7778737878
 20
-46.261796019
 30
0.0
 10
30.778744879
 20
-46.2763395872
 30
0.0
 10
30.778507509
 20
-46.2838311734
 30
0.0
 10
30.7782819565
 20
-46.286279004
 30
0.0
 10
30.7779303475
 20
-46.2870557441
 30
0.0
 11
30.7508463508
 21
-46.0365599603
 31
0.0
 11
30.7636284393
 21
-46.1316423071
 31
0.0
 11
30.7688302886
 21
-46.173756627
 31
0.0
 11
30.7730321134
 21
-46.2106041367
 31
0.0
 11
30.7761158688
 21
-46.2411398555
 31
0.0
 11
30.7779894837
 21
-46.2644654317
 31
0.0
 11
30.7785988007
 21
-46.279918873
 31
0.0
 11
30.7784234553
 21
-46.2845458774
 31
0.0
 11
30.7779303475
 21
-46.2870557441
 31
0.0
  0
SPLINE
  5
3A9
100
AcDbEntity
  8
RACCORDO
100
AcDbSpline
 62
253
  6
CONTINUOUS
 70
0
 71
3
 72
9
 73
5
 74
3
 42
0.0000001
 43
0.0000001
 44
0.0000000001
 12
0.3423976081
 22
-0.0047276608
 32
0.0
 13
0.3420715752
 23
-0.0156687671
 33
0.0
 40
0.0
 40
0.0
 40
0.0
 40
0.0
 40
0.2644155012
 40
1.0
 40
1.0
 40
1.0
 40
1.0
 10
-23.3474166124
 20
20.8000917307
 30
0.0
 10
-23.3172382006
 20
20.7996750418
 30
0.0
 10
-23.2031128655
 20
20.7976830607
 30
0.0
 10
-23.0890041575
 20
20.7942725422
 30
0.0
 10
-23.0051299748
 20
20.7904306415
 30
0.0
 11
-23.3474166124
 21
20.8000917307
 31
0.0
 11
-23.2568863478
 21
20.7985224426
 31
0.0
 11
-23.0051299748
 21
20.7904306415
 31
0.0
  0
SPLINE
  5
3AA
100
AcDbEntity
  8
RACCORDO
100
AcDbSpline
 62
253
  6
CONTINUOUS
 70
0
 71
3
 72
9
 73
5
 74
3
 42
0.0000001
 43
0.0000001
 44
0.0000000001
 12
0.0204838602
 22
-0.3413421334
 32
0.0
 13
0.0315403827
 23
-0.340498524
 33
0.0
 40
0.0
 40
0.0
 40
0.0
 40
0.0
 40
0.2643810128
 40
1.0
 40
1.0
 40
1.0
 40
1.0
 10
-21.9196445779
 20
22.2951501554
 30
0.0
 10
-21.9178393966
 20
22.2650686957
 30
0.0
 10
-21.9105906606
 20
22.1513147312
 30
0.0
 10
-21.901906036
 20
22.0376439146
 30
0.0
 10
-21.8941721345
 20
21.9541515215
 30
0.0
 11
-21.9196445779
 21
22.2951501554
 31
0.0
 11
-21.9139061755
 21
22.2049257308
 31
0.0
 11
-21.8941721345
 21
21.9541515215
 31
0.0
  0
SPLINE
  5
3AB
100
AcDbEntity
  8
RACCORDO
100
AcDbSpline
 62
253
  6
CONTINUOUS
 70
0
 71
3
 72
9
 73
5
 74
3
 42
0.0000001
 43
0.0000001
 44
0.0000000001
 12
0.0107914419
 22
-0.3416323678
 32
0.0
 13
0.0166331722
 23
-0.3413978142
 33
0.0
 40
0.0
 40
0.0
 40
0.0
 40
0.0
 40
0.2644664422
 40
1.0
 40
1.0
 40
1.0
 40
1.0
 10
-11.5966781739
 20
22.7845209789
 30
0.0
 10
-11.5957268492
 20
22.7544042133
 30
0.0
 10
-11.5919076978
 20
22.6405341868
 30
0.0
 10
-11.5873316787
 20
22.5266872149
 30
0.0
 10
-11.5832535933
 20
22.4429840319
 30
0.0
 11
-11.5966781739
 21
22.7845209789
 31
0.0
 11
-11.5936538372
 21
22.6941762243
 31
0.0
 11
-11.5832535933
 21
22.4429840319
 31
0.0
  0
SPLINE
  5
3AC
100
AcDbEntity
  8
RACCORDO
100
AcDbSpline
 62
253
  6
CONTINUOUS
 70
0
 71
3
 72
9
 73
5
 74
3
 42
0.0000001
 43
0.0000001
 44
0.0000000001
 12
-0.0107914386
 22
-0.3416323599
 32
0.0
 13
-0.0166331662
 23
-0.3413978065
 33
0.0
 40
0.0
 40
0.0
 40
0.0
 40
0.0
 40
0.264466411
 40
1.0
 40
1.0
 40
1.0
 40
1.0
 10
11.4083339009
 20
22.7845209711
 30
0.0
 10
11.4073825765
 20
22.7544042097
 30
0.0
 10
11.4035634263
 20
22.6405341859
 30
0.0
 10
11.3989874084
 20
22.5266872165
 30
0.0
 10
11.3949093243
 20
22.4429840319
 30
0.0
 11
11.4083339009
 21
22.7845209711
 31
0.0
 11
11.4053095654
 21
22.6941762291
 31
0.0
 11
11.3949093243
 21
22.4429840319
 31
0.0
  0
SPLINE
  5
3AD
100
AcDbEntity
  8
RACCORDO
100
AcDbSpline
 62
253
  6
CONTINUOUS
 70
0
 71
3
 72
9
 73
5
 74
3
 42
0.0000001
 43
0.0000001
 44
0.0000000001
 12
-0.0204838605
 22
-0.3413421651
 32
0.0
 13
-0.0315403786
 23
-0.3404985562
 33
0.0
 40
0.0
 40
0.0
 40
0.0
 40
0.0
 40
0.2643809974
 40
1.0
 40
1.0
 40
1.0
 40
1.0
 10
21.7313003069
 20
22.2951501534
 30
0.0
 10
21.7294951258
 20
22.2650686927
 30
0.0
 10
21.7222463899
 20
22.1513147176
 30
0.0
 10
21.7135617661
 20
22.0376438904
 30
0.0
 10
21.7058278655
 20
21.9541514876
 30
0.0
 11
21.7313003069
 21
22.2951501534
 31
0.0
 11
21.725561905
 21
22.2049257257
 31
0.0
 11
21.7058278655
 21
21.9541514876
 31
0.0
  0
SPLINE
  5
3AE
100
AcDbEntity
  8
RACCORDO
100
AcDbSpline
 62
253
  6
CONTINUOUS
 70
0
 71
3
 72
16
 73
12
 74
10
 42
0.0000001
 43
0.0000001
 44
0.0000000001
 12
0.4612814444
 22
-0.5663869768
 32
0.0
 13
0.0172440092
 23
-0.7302584629
 33
0.0
 40
0.0
 40
0.0
 40
0.0
 40
0.0
 40
0.0625126891
 40
0.1250311151
 40
0.1875891413
 40
0.2501319438
 40
0.3751858492
 40
0.5001950369
 40
0.6251880658
 40
0.7502098268
 40
1.0
 40
1.0
 40
1.0
 40
1.0
 10
22.5814183536
 20
21.4691711915
 30
0.0
 10
22.5910303348
 20
21.4573690672
 30
0.0
 10
22.6097728377
 20
21.4333493932
 30
0.0
 10
22.6350938576
 20
21.3952853575
 30
0.0
 10
22.6581105878
 20
21.3558135663
 30
0.0
 10
22.6876018865
 20
21.3025085347
 30
0.0
 10
22.720253584
 20
21.2336737487
 30
0.0
 10
22.7545272495
 20
21.1489657928
 30
0.0
 10
22.7817251534
 20
21.0616419774
 30
0.0
 10
22.8068070233
 20
20.942464388
 30
0.0
 10
22.8162822096
 20
20.8512645664
 30
0.0
 10
22.8177180043
 20
20.7904607704
 30
0.0
 11
22.5814183536
 21
21.4691711915
 31
0.0
 11
22.6093056094
 21
21.433012875
 31
0.0
 11
22.6347040395
 21
21.3950599389
 31
0.0
 11
22.657962747
 21
21.3557257176
 31
0.0
 11
22.6799520286
 21
21.3156806961
 31
0.0
 11
22.7194410519
 21
21.2333100998
 31
0.0
 11
22.7533498347
 21
21.1485249243
 31
0.0
 11
22.780327071
 21
21.0612987541
 31
0.0
 11
22.7995072039
 21
20.9720119608
 31
0.0
 11
22.8177180043
 21
20.7904607704
 31
0.0
  0
SPLINE
  5
3AF
100
AcDbEntity
  8
RACCORDO
100
AcDbSpline
 62
253
  6
CONTINUOUS
 70
0
 71
3
 72
9
 73
5
 74
3
 42
0.0000001
 43
0.0000001
 44
0.0000000001
 12
0.041076997
 22
-21.7058386667
 32
0.0
 13
0.0000723613
 23
-21.7058775344
 33
0.0
 40
0.0
 40
0.0
 40
0.0
 40
0.0
 40
0.2498968095
 40
1.0
 40
1.0
 40
1.0
 40
1.0
 10
22.8182004204
 20
20.790476153
 30
0.0
 10
22.8216220906
 20
18.9824028765
 30
0.0
 10
22.8336328307
 20
11.7471202305
 30
0.0
 10
22.8387480053
 20
4.5118261844
 30
0.0
 10
22.8387660981
 20
-0.9153898129
 30
0.0
 11
22.8182004204
 21
20.790476153
 31
0.0
 11
22.8271943647
 21
15.3662540669
 31
0.0
 11
22.8387660981
 21
-0.9153898129
 31
0.0
  0
SPLINE
  5
3B0
100
AcDbEntity
  8
RACCORDO
100
AcDbSpline
 62
253
  6
CONTINUOUS
 70
0
 71
3
 72
9
 73
5
 74
3
 42
0.0000001
 43
0.0000001
 44
0.0000000001
 12
-0.3409564885
 22
0.0000770391
 32
0.0
 13
-0.3407812852
 23
-0.010929258
 33
0.0
 40
0.0
 40
0.0
 40
0.0
 40
0.0
 40
0.2643001459
 40
1.0
 40
1.0
 40
1.0
 40
1.0
 10
23.1591144337
 20
20.7953661425
 30
0.0
 10
23.1290761504
 20
20.7953729296
 30
0.0
 10
23.0154253616
 20
20.7949798738
 30
0.0
 10
22.9017713343
 20
20.7931563709
 30
0.0
 10
22.8182004204
 20
20.790476153
 30
0.0
 11
23.1591144337
 21
20.7953661425
 31
0.0
 11
23.0690000841
 21
20.7950652369
 31
0.0
 11
22.8182004204
 21
20.790476153
 31
0.0
  0
SPLINE
  5
3B1
100
AcDbEntity
  8
RACCORDO
100
AcDbSpline
 62
253
  6
CONTINUOUS
 70
0
 71
3
 72
9
 73
5
 74
3
 42
0.0000001
 43
0.0000001
 44
0.0000000001
 12
-0.0000731263
 22
-21.7058981148
 32
0.0
 13
-0.0410771022
 23
-21.705859247
 33
0.0
 40
0.0
 40
0.0
 40
0.0
 40
0.0
 40
0.250073363
 40
1.0
 40
1.0
 40
1.0
 40
1.0
 10
22.8387660984
 20
-0.9153898129
 30
0.0
 10
22.8387600028
 20
-2.7247454587
 30
0.0
 10
22.8370574782
 20
-9.9600447315
 30
0.0
 10
22.8284686522
 20
-17.1953423503
 30
0.0
 10
22.8182003812
 20
-22.62127636
 30
0.0
 11
22.8387660984
 21
-0.9153898129
 31
0.0
 11
22.8374778442
 21
-6.3434565975
 31
0.0
 11
22.8182003812
 21
-22.62127636
 31
0.0
  0
SPLINE
  5
3B2
100
AcDbEntity
  8
RACCORDO
100
AcDbSpline
 62
253
  6
CONTINUOUS
 70
0
 71
3
 72
9
 73
5
 74
3
 42
0.0000001
 43
0.0000001
 44
0.0000000001
 12
-0.3423976056
 22
0.0047276608
 32
0.0
 13
-0.3420715727
 23
0.0156687669
 33
0.0
 40
0.0
 40
0.0
 40
0.0
 40
0.0
 40
0.2644155009
 40
1.0
 40
1.0
 40
1.0
 40
1.0
 10
23.1590723434
 20
-22.6308713565
 30
0.0
 10
23.1288939319
 20
-22.6304546676
 30
0.0
 10
23.0147685976
 20
-22.6284626865
 30
0.0
 10
22.9006598904
 20
-22.6250521681
 30
0.0
 10
22.8167857083
 20
-22.6212102674
 30
0.0
 11
23.1590723434
 21
-22.6308713565
 31
0.0
 11
23.0685420795
 21
-22.6293020684
 31
0.0
 11
22.8167857083
 21
-22.6212102674
 31
0.0
  0
SPLINE
  5
3B3
100
AcDbEntity
  8
RACCORDO
100
AcDbSpline
 62
253
  6
CONTINUOUS
 70
0
 71
3
 72
9
 73
5
 74
3
 42
0.0000001
 43
0.0000001
 44
0.0000000001
 12
-0.0204838602
 22
0.3413421334
 32
0.0
 13
-0.0315403827
 23
0.340498524
 33
0.0
 40
0.0
 40
0.0
 40
0.0
 40
0.0
 40
0.2643810129
 40
1.0
 40
1.0
 40
1.0
 40
1.0
 10
21.7313003089
 20
-24.1259297812
 30
0.0
 10
21.7294951277
 20
-24.0958483215
 30
0.0
 10
21.7222463916
 20
-23.982094357
 30
0.0
 10
21.713561767
 20
-23.8684235404
 30
0.0
 10
21.7058278655
 20
-23.7849311473
 30
0.0
 11
21.7313003089
 21
-24.1259297812
 31
0.0
 11
21.7255619065
 21
-24.0357053566
 31
0.0
 11
21.7058278655
 21
-23.7849311473
 31
0.0
  0
SPLINE
  5
3B4
100
AcDbEntity
  8
RACCORDO
100
AcDbSpline
 62
253
  6
CONTINUOUS
 70
0
 71
3
 72
9
 73
5
 74
3
 42
0.0000001
 43
0.0000001
 44
0.0000000001
 12
-0.0107914418
 22
0.3416323675
 32
0.0
 13
-0.0166331719
 23
0.3413978139
 33
0.0
 40
0.0
 40
0.0
 40
0.0
 40
0.0
 40
0.2644664409
 40
1.0
 40
1.0
 40
1.0
 40
1.0
 10
11.4083339047
 20
-24.6153006044
 30
0.0
 10
11.40738258
 20
-24.5851838389
 30
0.0
 10
11.4035634287
 20
-24.4713138126
 30
0.0
 10
11.3989874097
 20
-24.3574668407
 30
0.0
 10
11.3949093243
 20
-24.2737636577
 30
0.0
 11
11.4083339047
 21
-24.6153006044
 31
0.0
 11
11.4053095681
 21
-24.5249558502
 31
0.0
 11
11.3949093243
 21
-24.2737636577
 31
0.0
  0
SPLINE
  5
3B5
100
AcDbEntity
  8
RACCORDO
100
AcDbSpline
 62
253
  6
CONTINUOUS
 70
0
 71
3
 72
9
 73
5
 74
3
 42
0.0000001
 43
0.0000001
 44
0.0000000001
 12
0.0107914385
 22
0.3416323598
 32
0.0
 13
0.0166331661
 23
0.3413978064
 33
0.0
 40
0.0
 40
0.0
 40
0.0
 40
0.0
 40
0.2644664107
 40
1.0
 40
1.0
 40
1.0
 40
1.0
 10
-11.5966781698
 20
-24.6153005968
 30
0.0
 10
-11.5957268455
 20
-24.5851838354
 30
0.0
 10
-11.5919076953
 20
-24.4713138116
 30
0.0
 10
-11.5873316774
 20
-24.3574668423
 30
0.0
 10
-11.5832535933
 20
-24.2737636577
 30
0.0
 11
-11.5966781698
 21
-24.6153005968
 31
0.0
 11
-11.5936538344
 21
-24.524955855
 31
0.0
 11
-11.5832535933
 21
-24.2737636577
 31
0.0
  0
SPLINE
  5
3B6
100
AcDbEntity
  8
RACCORDO
100
AcDbSpline
 62
253
  6
CONTINUOUS
 70
0
 71
3
 72
9
 73
5
 74
3
 42
0.0000001
 43
0.0000001
 44
0.0000000001
 12
0.0204838604
 22
0.3413421647
 32
0.0
 13
0.0315403789
 23
0.3404985557
 33
0.0
 40
0.0
 40
0.0
 40
0.0
 40
0.0
 40
0.2643809979
 40
1.0
 40
1.0
 40
1.0
 40
1.0
 10
-21.9196445761
 20
-24.1259297793
 30
0.0
 10
-21.9178393949
 20
-24.0958483186
 30
0.0
 10
-21.910590659
 20
-23.9820943437
 30
0.0
 10
-21.9019060352
 20
-23.8684235166
 30
0.0
 10
-21.8941721345
 20
-23.784931114
 30
0.0
 11
-21.9196445761
 21
-24.1259297793
 31
0.0
 11
-21.9139061741
 21
-24.0357053516
 31
0.0
 11
-21.8941721345
 21
-23.784931114
 31
0.0
  0
SPLINE
  5
3B7
100
AcDbEntity
  8
RACCORDO
100
AcDbSpline
 62
253
  6
CONTINUOUS
 70
0
 71
3
 72
12
 73
8
 74
6
 42
0.0000001
 43
0.0000001
 44
0.0000000001
 12
-0.0741287163
 22
0.2741250996
 32
0.0
 13
-0.0157509021
 23
0.2835340295
 33
0.0
 40
0.0
 40
0.0
 40
0.0
 40
0.0
 40
0.1250440347
 40
0.2500240973
 40
0.5000654857
 40
0.7501541842
 40
1.0
 40
1.0
 40
1.0
 40
1.0
 10
-22.96252408
 20
-22.9013140028
 30
0.0
 10
-22.9656138645
 20
-22.8898880999
 30
0.0
 10
-22.9715397788
 20
-22.8669769331
 30
0.0
 10
-22.9833216248
 20
-22.8211188177
 30
0.0
 10
-22.9930387033
 20
-22.7626476396
 30
0.0
 10
-23.0002763743
 20
-22.6920224886
 30
0.0
 10
-23.0038493028
 20
-22.6448245355
 30
0.0
 10
-23.0051610685
 20
-22.6212112719
 30
0.0
 11
-22.96252408
 21
-22.9013140028
 31
0.0
 11
-22.9715324918
 21
-22.8669667942
 31
0.0
 11
-22.980041229
 21
-22.8325111153
 31
0.0
 11
-22.9923011596
 21
-22.7625729975
 31
0.0
 11
-22.999965487
 21
-22.6919697941
 31
0.0
 11
-23.0051610685
 21
-22.6212112719
 31
0.0
  0
SPLINE
  5
3B8
100
AcDbEntity
  8
RACCORDO
100
AcDbSpline
 62
253
  6
CONTINUOUS
 70
0
 71
3
 72
11
 73
7
 74
5
 42
0.0000001
 43
0.0000001
 44
0.0000000001
 12
-0.0540546904
 22
0.0828465273
 32
0.0
 13
-0.0188372649
 23
0.0971113489
 33
0.0
 40
0.0
 40
0.0
 40
0.0
 40
0.0
 40
0.2488507829
 40
0.4989032119
 40
0.7496827107
 40
1.0
 40
1.0
 40
1.0
 40
1.0
 10
-22.9346427313
 20
-22.9955738337
 30
0.0
 10
-22.9391265819
 20
-22.9887016927
 30
0.0
 10
-22.9469142941
 20
-22.9740034746
 30
0.0
 10
-22.9528378635
 20
-22.9498818308
 30
0.0
 10
-22.9573103041
 20
-22.9255437589
 30
0.0
 10
-22.9609523156
 20
-22.909416886
 30
0.0
 10
-22.96252408
 20
-22.9013140028
 30
0.0
 11
-22.9346427313
 21
-22.9955738337
 31
0.0
 11
-22.9459387473
 21
-22.9737019071
 31
0.0
 11
-22.9525890079
 21
-22.949877096
 31
0.0
 11
-22.9574779639
 21
-22.9255561386
 31
0.0
 11
-22.96252408
 21
-22.9013140028
 31
0.0
  0
SPLINE
  5
3B9
100
AcDbEntity
  8
RACCORDO
100
AcDbSpline
 62
253
  6
CONTINUOUS
 70
0
 71
3
 72
11
 73
7
 74
5
 42
0.0000001
 43
0.0000001
 44
0.0000000001
 12
-0.0301243536
 22
0.0378496934
 32
0.0
 13
-0.0166810356
 23
0.0454072574
 33
0.0
 40
0.0
 40
0.0
 40
0.0
 40
0.0
 40
0.24841207
 40
0.4983325501
 40
0.7493518788
 40
1.0
 40
1.0
 40
1.0
 40
1.0
 10
-22.9167861409
 20
-23.0402111854
 30
0.0
 10
-22.9192805586
 20
-23.0370770785
 30
0.0
 10
-22.9238129985
 20
-23.0303047455
 30
0.0
 10
-22.9273362216
 20
-23.0186630586
 30
0.0
 10
-22.9303038181
 20
-23.0069203754
 30
0.0
 10
-22.9332490412
 20
-22.9993675817
 30
0.0
 10
-22.9346427313
 20
-22.9955738337
 30
0.0
 11
-22.9167861409
 21
-23.0402111854
 31
0.0
 11
-22.9232552296
 21
-23.0300843102
 31
0.0
 11
-22.9272371343
 21
-23.018669138
 31
0.0
 11
-22.9305467461
 21
-23.0069859748
 31
0.0
 11
-22.9346427313
 21
-22.9955738337
 31
0.0
  0
SPLINE
  5
3BA
100
AcDbEntity
  8
RACCORDO
100
AcDbSpline
 62
253
  6
CONTINUOUS
 70
0
 71
3
 72
9
 73
5
 74
3
 42
0.0000001
 43
0.0000001
 44
0.0000000001
 12
-0.0410779078
 22
21.7058386651
 32
0.0
 13
-0.0000729478
 23
21.7058775345
 33
0.0
 40
0.0
 40
0.0
 40
0.0
 40
0.0
 40
0.2498968094
 40
1.0
 40
1.0
 40
1.0
 40
1.0
 10
-23.0065446893
 20
-22.6212557788
 30
0.0
 10
-23.0099664353
 20
-20.8131825032
 30
0.0
 10
-23.0219773878
 20
-13.5778998574
 30
0.0
 10
-23.0270921277
 20
-6.342605811
 30
0.0
 10
-23.0271103672
 20
-0.9153898129
 30
0.0
 11
-23.0065446893
 21
-22.6212557788
 31
0.0
 11
-23.0155387752
 21
-17.1970336952
 31
0.0
 11
-23.0271103672
 21
-0.9153898129
 31
0.0
  0
SPLINE
  5
3BB
100
AcDbEntity
  8
RACCORDO
100
AcDbSpline
 62
253
  6
CONTINUOUS
 70
0
 71
3
 72
9
 73
5
 74
3
 42
0.0000001
 43
0.0000001
 44
0.0000000001
 12
0.3409564886
 22
-0.0000770391
 32
0.0
 13
0.3407812853
 23
0.010929258
 33
0.0
 40
0.0
 40
0.0
 40
0.0
 40
0.0
 40
0.2643001459
 40
1.0
 40
1.0
 40
1.0
 40
1.0
 10
-23.3474587027
 20
-22.6261457682
 30
0.0
 10
-23.3174204194
 20
-22.6261525554
 30
0.0
 10
-23.2037696306
 20
-22.6257594996
 30
0.0
 10
-23.0901156032
 20
-22.6239359966
 30
0.0
 10
-23.0065446893
 20
-22.6212557788
 30
0.0
 11
-23.3474587027
 21
-22.6261457682
 31
0.0
 11
-23.2573443531
 21
-22.6258448627
 31
0.0
 11
-23.0065446893
 21
-22.6212557788
 31
0.0
  0
SPLINE
  5
3BC
100
AcDbEntity
  8
RACCORDO
100
AcDbSpline
 62
253
  6
CONTINUOUS
 70
0
 71
3
 72
9
 73
5
 74
3
 42
0.0000001
 43
0.0000001
 44
0.0000000001
 12
0.000072387
 22
21.705898115
 32
0.0
 13
0.0410773772
 23
21.7058592465
 33
0.0
 40
0.0
 40
0.0
 40
0.0
 40
0.0
 40
0.2500733631
 40
1.0
 40
1.0
 40
1.0
 40
1.0
 10
-23.0271103674
 20
-0.9153898129
 30
0.0
 10
-23.0271043334
 20
0.8939658339
 30
0.0
 10
-23.025401988
 20
8.1292651069
 30
0.0
 10
-23.0168129899
 20
15.3645627256
 30
0.0
 10
-23.0065446501
 20
20.7904967343
 30
0.0
 11
-23.0271103674
 21
-0.9153898129
 31
0.0
 11
-23.0258222425
 21
4.5126769748
 31
0.0
 11
-23.0065446501
 21
20.7904967343
 31
0.0
  0
SPLINE
  5
3BD
100
AcDbEntity
  8
RACCORDO
100
AcDbSpline
 62
253
  6
CONTINUOUS
 70
0
 71
3
 72
14
 73
10
 74
8
 42
0.0000001
 43
0.0000001
 44
0.0000000001
 12
0.1741348121
 22
-0.0801000988
 32
0.0
 13
0.1916727626
 23
-0.0007146157
 33
0.0
 40
0.0
 40
0.0
 40
0.0
 40
0.0
 40
0.0276056194
 40
0.0852898022
 40
0.1725395749
 40
0.2881663585
 40
0.430733194
 40
0.5984421606
 40
1.0
 40
1.0
 40
1.0
 40
1.0
 10
22.6267330421
 20
-22.6153898129
 30
0.0
 10
22.6283354086
 20
-22.6161268838
 30
0.0
 10
22.6339120653
 20
-22.6165546225
 30
0.0
 10
22.6447688881
 20
-22.6177016146
 30
0.0
 10
22.6614601827
 20
-22.6184573298
 30
0.0
 10
22.6834893561
 20
-22.6193299642
 30
0.0
 10
22.7107016351
 20
-22.6200287093
 30
0.0
 10
22.7561699447
 20
-22.6208688538
 30
0.0
 10
22.7925430308
 20
-22.6211602158
 30
0.0
 10
22.8181989309
 20
-22.621255869
 30
0.0
 11
22.6267330421
 21
-22.6153898129
 31
0.0
 11
22.631923394
 21
-22.6164183621
 31
0.0
 11
22.6429345813
 21
-22.6174190375
 31
0.0
 11
22.659631554
 21
-22.6183609852
 31
0.0
 11
22.6817777118
 21
-22.6192160576
 31
0.0
 11
22.7090940257
 21
-22.6199573031
 31
0.0
 11
22.7412338429
 21
-22.6205598268
 31
0.0
 11
22.8181989309
 21
-22.621255869
 31
0.0
  0
SPLINE
  5
3BE
100
AcDbEntity
  8
RACCORDO
100
AcDbSpline
 62
253
  6
CONTINUOUS
 70
0
 71
3
 72
14
 73
10
 74
8
 42
0.0000001
 43
0.0000001
 44
0.0000000001
 12
0.191891896
 22
-0.0035397236
 32
0.0
 13
0.1589184337
 23
0.1076102265
 33
0.0
 40
0.0
 40
0.0
 40
0.0
 40
0.0
 40
0.4008998987
 40
0.5684471495
 40
0.7109855994
 40
0.8266182556
 40
0.9139253958
 40
0.9718173439
 40
1.0
 40
1.0
 40
1.0
 40
1.0
 10
-23.0065206369
 20
-22.623592568
 30
0.0
 10
-22.9808774896
 20
-22.624065593
 30
0.0
 10
-22.9444947925
 20
-22.6244688373
 30
0.0
 10
-22.8990370633
 20
-22.6229199015
 30
0.0
 10
-22.8718272543
 20
-22.6214119061
 30
0.0
 10
-22.8498147454
 20
-22.6199660556
 30
0.0
 10
-22.8330661977
 20
-22.6187880195
 30
0.0
 10
-22.8222754687
 20
-22.617184288
 30
0.0
 10
-22.816574271
 20
-22.6164007269
 30
0.0
 10
-22.8150813565
 20
-22.6153898129
 30
0.0
 11
-23.0065206369
 21
-22.623592568
 31
0.0
 11
-22.9295784376
 21
-22.6238178428
 31
0.0
 11
-22.8974400116
 21
-22.6227419656
 31
0.0
 11
-22.8701232297
 21
-22.6212660107
 31
0.0
 11
-22.8479772742
 21
-22.6198256774
 31
0.0
 11
-22.8312810822
 21
-22.6184066847
 31
0.0
 11
-22.8202707592
 21
-22.6169151873
 31
0.0
 11
-22.8150813565
 21
-22.6153898129
 31
0.0
  0
SPLINE
  5
3BF
100
AcDbEntity
  8
RACCORDO
100
AcDbSpline
 62
253
  6
CONTINUOUS
 70
0
 71
3
 72
14
 73
10
 74
8
 42
0.0000001
 43
0.0000001
 44
0.0000000001
 12
0.1924413512
 22
0.0062102042
 32
0.0
 13
0.1363914323
 23
0.1359029708
 33
0.0
 40
0.0
 40
0.0
 40
0.0
 40
0.0
 40
0.4000259401
 40
0.5672012663
 40
0.7094252689
 40
0.824932264
 40
0.9123539227
 40
0.9706673941
 40
1.0
 40
1.0
 40
1.0
 40
1.0
 10
-23.0065431922
 20
-22.6212558692
 30
0.0
 10
-22.9808826814
 20
-22.6204277883
 30
0.0
 10
-22.9444990007
 20
-22.6190314891
 30
0.0
 10
-22.8990467172
 20
-22.6165093717
 30
0.0
 10
-22.871817467
 20
-22.6146281332
 30
0.0
 10
-22.849816445
 20
-22.6125996525
 30
0.0
 10
-22.8330110542
 20
-22.6106765819
 30
0.0
 10
-22.822263957
 20
-22.6084815597
 30
0.0
 10
-22.8164291556
 20
-22.6070825574
 30
0.0
 10
-22.8150955836
 20
-22.6057537613
 30
0.0
 11
-23.0065431922
 21
-22.6212558692
 31
0.0
 11
-22.9295842416
 21
-22.618149793
 31
0.0
 11
-22.8974468616
 21
-22.6163418756
 31
0.0
 11
-22.8701320527
 21
-22.6143960732
 31
0.0
 11
-22.8479876827
 21
-22.6123370121
 31
0.0
 11
-22.8312927671
 21
-22.6101908268
 31
0.0
 11
-22.820283743
 21
-22.6079853577
 31
0.0
 11
-22.8150955836
 21
-22.6057537613
 31
0.0
  0
SPLINE
  5
3C0
100
AcDbEntity
  8
RACCORDO
100
AcDbSpline
 62
253
  6
CONTINUOUS
 70
0
 71
3
 72
14
 73
10
 74
8
 42
0.0000001
 43
0.0000001
 44
0.0000000001
 12
0.1921551656
 22
-0.0046420073
 32
0.0
 13
0.154051555
 23
-0.1149490073
 33
0.0
 40
0.0
 40
0.0
 40
0.0
 40
0.0
 40
0.400857089
 40
0.5683297141
 40
0.7107492848
 40
0.8263273972
 40
0.9136558296
 40
0.9716192484
 40
1.0
 40
1.0
 40
1.0
 40
1.0
 10
-23.0066809206
 20
20.7904796575
 30
0.0
 10
-22.9810053339
 20
20.789859397
 30
0.0
 10
-22.9446020896
 20
20.7888151744
 30
0.0
 10
-22.8991109622
 20
20.7869214435
 30
0.0
 10
-22.8718685501
 20
20.7855203585
 30
0.0
 10
-22.8498435219
 20
20.783977708
 30
0.0
 10
-22.8330702593
 20
20.7825946076
 30
0.0
 10
-22.8222916038
 20
20.7808439911
 30
0.0
 10
-22.816546504
 20
20.7799501467
 30
0.0
 10
-22.8150891377
 20
20.7788627003
 30
0.0
 11
-23.0066809206
 21
20.7904796575
 31
0.0
 11
-22.929666839
 21
20.7881525259
 31
0.0
 11
-22.8975052398
 21
20.7867977987
 31
0.0
 11
-22.8701694618
 21
20.7853396552
 31
0.0
 11
-22.8480077078
 21
20.7837965613
 31
0.0
 11
-22.8312994435
 21
20.782188119
 31
0.0
 11
-22.8202815186
 21
20.7805352095
 31
0.0
 11
-22.8150891377
 21
20.7788627003
 31
0.0
  0
SPLINE
  5
3C1
100
AcDbEntity
  8
RACCORDO
100
AcDbSpline
 62
253
  6
CONTINUOUS
 70
0
 71
3
 72
14
 73
10
 74
8
 42
0.0000001
 43
0.0000001
 44
0.0000000001
 12
0.1902569491
 22
-0.0007721999
 32
0.0
 13
0.1727074584
 23
-0.079815016
 33
0.0
 40
0.0
 40
0.0
 40
0.0
 40
0.0
 40
0.4016382565
 40
0.5693287388
 40
0.7118654448
 40
0.8274590702
 40
0.9146850737
 40
0.9723667567
 40
1.0
 40
1.0
 40
1.0
 40
1.0
 10
-23.0051301634
 20
20.7904706014
 30
0.0
 10
-22.9796586736
 20
20.7903672197
 30
0.0
 10
-22.9435503689
 20
20.790071105
 30
0.0
 10
-22.8984159526
 20
20.7892323734
 30
0.0
 10
-22.8714098398
 20
20.7885368039
 30
0.0
 10
-22.8495490652
 20
20.7876692177
 30
0.0
 10
-22.8329846087
 20
20.7869166089
 30
0.0
 10
-22.8222088166
 20
20.7857749787
 30
0.0
 10
-22.8166712702
 20
20.7853453697
 30
0.0
 10
-22.8150804478
 20
20.7846101871
 30
0.0
 11
-23.0051301634
 21
20.7904706014
 31
0.0
 11
-22.9287183413
 21
20.789762959
 31
0.0
 11
-22.8968194693
 21
20.7891614702
 31
0.0
 11
-22.8697106863
 21
20.7884236354
 31
0.0
 11
-22.8477344666
 21
20.7875731216
 31
0.0
 11
-22.8311654826
 21
20.7866355409
 31
0.0
 11
-22.8202364985
 21
20.7856378183
 31
0.0
 11
-22.8150804478
 21
20.7846101871
 31
0.0
  0
SPLINE
  5
3C2
100
AcDbEntity
  8
RACCORDO
100
AcDbSpline
 62
253
  6
CONTINUOUS
 70
0
 71
3
 72
14
 73
10
 74
8
 42
0.0000001
 43
0.0000001
 44
0.0000000001
 12
0.1735284265
 22
0.0802566299
 32
0.0
 13
0.1911875522
 23
0.0007492156
 33
0.0
 40
0.0
 40
0.0
 40
0.0
 40
0.0
 40
0.027618228
 40
0.0853031247
 40
0.1725468503
 40
0.2881663136
 40
0.4307287986
 40
0.5984303369
 40
1.0
 40
1.0
 40
1.0
 40
1.0
 10
22.6267376153
 20
20.7846101871
 30
0.0
 10
22.6283351312
 20
20.7853490357
 30
0.0
 10
22.6338997193
 20
20.785778339
 30
0.0
 10
22.6447282562
 20
20.7869247784
 30
0.0
 10
22.6613770982
 20
20.7876779656
 30
0.0
 10
22.6833492077
 20
20.7885471863
 30
0.0
 10
22.7104915069
 20
20.7892432488
 30
0.0
 10
22.7558447142
 20
20.7900812291
 30
0.0
 10
22.792125999
 20
20.7903740093
 30
0.0
 10
22.817717706
 20
20.7904742968
 30
0.0
 11
22.6267376153
 21
20.7846101871
 31
0.0
 11
22.6319162368
 21
20.7856414332
 31
0.0
 11
22.6428994557
 21
20.7866422044
 31
0.0
 11
22.6595530081
 21
20.7875818899
 31
0.0
 11
22.681641761
 21
20.7884337214
 31
0.0
 11
22.7088881366
 21
20.7891722135
 31
0.0
 11
22.740945197
 21
20.7897731667
 31
0.0
 11
22.817717706
 21
20.7904742968
 31
0.0
  0
LINE
  5
3C3
100
AcDbEntity
  8
RACCORDO
100
AcDbLine
 62
253
  6
CONTINUOUS
 10
-22.8310453038
 20
-23.749891159
 11
-22.8290981771
 21
-24.6153005995
  0
SPLINE
  5
3C4
100
AcDbEntity
  8
RACCORDO
100
AcDbSpline
 62
253
  6
CONTINUOUS
 70
0
 71
3
 72
15
 73
11
 74
9
 42
0.0000001
 43
0.0000001
 44
0.0000000001
 12
-3.5396716998
 22
20.3693194074
 32
0.0
 13
-20.4566566909
 23
2.9939348515
 33
0.0
 40
0.0
 40
0.0
 40
0.0
 40
0.0
 40
0.1248212465
 40
0.2496711022
 40
0.3745776773
 40
0.4995587419
 40
0.6246182687
 40
0.7497399717
 40
0.8748848946
 40
1.0
 40
1.0
 40
1.0
 40
1.0
 10
44.6137933079
 20
30.6813288082
 30
0.0
 10
44.4665178967
 20
31.5288367543
 30
0.0
 10
44.03899746
 20
33.2040027101
 30
0.0
 10
43.0157837148
 20
35.5848490746
 30
0.0
 10
41.6340483151
 20
37.7792340789
 30
0.0
 10
39.9264319428
 20
39.7325728837
 30
0.0
 10
37.9337591407
 20
41.3965109332
 30
0.0
 10
35.7042295605
 20
42.728994001
 30
0.0
 10
33.2938092364
 20
43.6959683596
 30
0.0
 10
31.6039919361
 20
44.0809181748
 30
0.0
 10
30.7508463503
 20
44.205780333
 30
0.0
 11
44.6137933079
 21
30.6813288082
 31
0.0
 11
43.975437849
 21
33.1817568111
 31
0.0
 11
42.9563012802
 21
35.5532651276
 31
0.0
 11
41.5801873383
 21
37.7384554089
 31
0.0
 11
39.8794856693
 21
39.683787338
 31
0.0
 11
37.8947835498
 21
41.3409070662
 31
0.0
 11
35.6742781848
 21
42.6679689154
 31
0.0
 11
33.2729041257
 21
43.6311011885
 31
0.0
 11
30.7508463503
 21
44.205780333
 31
0.0
  0
SPLINE
  5
3C5
100
AcDbEntity
  8
RACCORDO
100
AcDbSpline
 62
253
  6
CONTINUOUS
 70
0
 71
3
 72
10
 73
6
 74
4
 42
0.0000001
 43
0.0000001
 44
0.0000000001
 12
0.948981079
 22
-0.8346388593
 32
0.0
 13
0.0162255155
 23
-1.2636945226
 33
0.0
 40
0.0
 40
0.0
 40
0.0
 40
0.0
 40
0.2507517817
 40
0.5014715534
 40
1.0
 40
1.0
 40
1.0
 40
1.0
 10
22.6427010348
 20
21.9191115332
 30
0.0
 10
22.7220206002
 20
21.8493491396
 30
0.0
 10
22.8664936549
 20
21.6925414291
 30
0.0
 10
23.0831222514
 20
21.3289878642
 30
0.0
 10
23.1564102867
 20
21.0094219058
 30
0.0
 10
23.1591065804
 20
20.7994260167
 30
0.0
 11
22.6427010348
 21
21.9191115332
 31
0.0
 11
22.857541739
 21
21.6861545906
 31
0.0
 11
23.0194716224
 21
21.4137972151
 31
0.0
 11
23.1591065804
 21
20.7994260167
 31
0.0
  0
LINE
  5
3C6
100
AcDbEntity
  8
RACCORDO
100
AcDbLine
 62
253
  6
CONTINUOUS
 10
22.6407539081
 20
22.7845209737
 11
22.6427010348
 21
21.9191115332
  0
LINE
  5
3C7
100
AcDbEntity
  8
RACCORDO
100
AcDbLine
 62
253
  6
CONTINUOUS
 10
22.6427010348
 20
-23.749891159
 11
22.6407539081
 21
-24.6153005995
  0
SPLINE
  5
3C8
100
AcDbEntity
  8
RACCORDO
100
AcDbSpline
 62
253
  6
CONTINUOUS
 70
0
 71
3
 72
9
 73
5
 74
3
 42
0.0000001
 43
0.0000001
 44
0.0000000001
 12
-0.0000079137
 22
-21.7148200078
 32
0.0
 13
-0.0411675228
 23
-21.7147809845
 33
0.0
 40
0.0
 40
0.0
 40
0.0
 40
0.0
 40
0.2500732639
 40
1.0
 40
1.0
 40
1.0
 40
1.0
 10
23.1796850928
 20
-0.9153898129
 30
0.0
 10
23.1796844331
 20
-2.725488451
 30
0.0
 10
23.1779973099
 20
-9.9637616926
 30
0.0
 10
23.169397469
 20
-17.2020332887
 30
0.0
 10
23.1591065936
 20
-22.6301982316
 30
0.0
 11
23.1796850928
 21
-0.9153898129
 31
0.0
 11
23.1784083262
 21
-6.3456855772
 31
0.0
 11
23.1591065936
 21
-22.6301982316
 31
0.0
  0
SPLINE
  5
3C9
100
AcDbEntity
  8
RACCORDO
100
AcDbSpline
 62
253
  6
CONTINUOUS
 70
0
 71
3
 72
9
 73
5
 74
3
 42
0.0000001
 43
0.0000001
 44
0.0000000001
 12
0.0411641164
 22
-21.7147884026
 32
0.0
 13
0.0000083805
 23
-21.7148274194
 33
0.0
 40
0.0
 40
0.0
 40
0.0
 40
0.0
 40
0.2498966125
 40
1.0
 40
1.0
 40
1.0
 40
1.0
 10
23.1591065804
 20
20.7994260167
 30
0.0
 10
23.1625355048
 20
18.9906086621
 30
0.0
 10
23.174570856
 20
11.7523427572
 30
0.0
 10
23.1796829974
 20
4.5140653889
 30
0.0
 10
23.1796850928
 20
-0.9153898129
 30
0.0
 11
23.1591065804
 21
20.7994260167
 31
0.0
 11
23.168118349
 21
15.3729716856
 31
0.0
 11
23.1796850928
 21
-0.9153898129
 31
0.0
  0
LINE
  5
3CA
100
AcDbEntity
  8
RACCORDO
100
AcDbLine
 62
253
  6
CONTINUOUS
 10
-22.8290981771
 20
22.7845209737
 11
-22.8308665308
 21
21.9192829851
  0
SPLINE
  5
3CB
100
AcDbEntity
  8
RACCORDO
100
AcDbSpline
 62
253
  6
CONTINUOUS
 70
0
 71
3
 72
15
 73
11
 74
9
 42
0.0000001
 43
0.0000001
 44
0.0000000001
 12
20.4566613662
 22
2.9939029176
 32
0.0
 13
3.539700055
 23
20.3693144816
 33
0.0
 40
0.0
 40
0.0
 40
0.0
 40
0.0
 40
0.1251151073
 40
0.250260029
 40
0.375381731
 40
0.5004412571
 40
0.6254223224
 40
0.750328898
 40
0.875178755
 40
1.0
 40
1.0
 40
1.0
 40
1.0
 10
30.7508463503
 20
-46.0365599587
 30
0.0
 10
31.6039921442
 20
-45.9116991305
 30
0.0
 10
33.2938091758
 20
-45.5267474007
 30
0.0
 10
35.7042295837
 20
-44.559773759
 30
0.0
 10
37.9337591569
 20
-43.2272905592
 30
0.0
 10
39.9264319214
 20
-41.5633525241
 30
0.0
 10
41.634048301
 20
-39.6100136819
 30
0.0
 10
43.0157835938
 20
-37.4156286787
 30
0.0
 10
44.0389980138
 20
-35.0347824183
 30
0.0
 10
44.4665167187
 20
-33.359616165
 30
0.0
 10
44.6137933079
 20
-32.512108434
 30
0.0
 11
30.7508463503
 21
-46.0365599587
 31
0.0
 11
33.2729041682
 21
-45.4618808208
 31
0.0
 11
35.6742781945
 21
-44.4987485315
 31
0.0
 11
37.894783558
 21
-43.1716867188
 31
0.0
 11
39.8794856469
 21
-41.514566978
 31
0.0
 11
41.5801873044
 21
-39.5692350193
 31
0.0
 11
42.9563012883
 21
-37.3840447507
 31
0.0
 11
43.9754378638
 21
-35.012536409
 31
0.0
 11
44.6137933079
 21
-32.512108434
 31
0.0
  0
SPLINE
  5
3CC
100
AcDbEntity
  8
RACCORDO
100
AcDbSpline
 62
253
  6
CONTINUOUS
 70
0
 71
3
 72
15
 73
11
 74
9
 42
0.0000001
 43
0.0000001
 44
0.0000000001
 12
3.5396716998
 22
-20.3693194074
 32
0.0
 13
20.4566566909
 23
-2.9939348515
 33
0.0
 40
0.0
 40
0.0
 40
0.0
 40
0.0
 40
0.1248212465
 40
0.2496711022
 40
0.3745776773
 40
0.4995587419
 40
0.6246182687
 40
0.7497399717
 40
0.8748848946
 40
1.0
 40
1.0
 40
1.0
 40
1.0
 10
-44.8021375769
 20
-32.512108434
 30
0.0
 10
-44.6548621657
 20
-33.3596163801
 30
0.0
 10
-44.227341729
 20
-35.0347823359
 30
0.0
 10
-43.2041279838
 20
-37.4156287003
 30
0.0
 10
-41.8223925841
 20
-39.6100137047
 30
0.0
 10
-40.1147762118
 20
-41.5633525095
 30
0.0
 10
-38.1221034097
 20
-43.227290559
 30
0.0
 10
-35.8925738295
 20
-44.5597736268
 30
0.0
 10
-33.4821535054
 20
-45.5267479854
 30
0.0
 10
-31.7923362051
 20
-45.9116978006
 30
0.0
 10
-30.9391906193
 20
-46.0365599587
 30
0.0
 11
-44.8021375769
 21
-32.512108434
 31
0.0
 11
-44.163782118
 21
-35.0125364369
 31
0.0
 11
-43.1446455492
 21
-37.3840447534
 31
0.0
 11
-41.7685316073
 21
-39.5692350347
 31
0.0
 11
-40.0678299383
 21
-41.5145669638
 31
0.0
 11
-38.0831278188
 21
-43.171686692
 31
0.0
 11
-35.8626224538
 21
-44.4987485412
 31
0.0
 11
-33.4612483947
 21
-45.4618808143
 31
0.0
 11
-30.9391906193
 21
-46.0365599587
 31
0.0
  0
SPLINE
  5
3CD
100
AcDbEntity
  8
0
100
AcDbSpline
 62
7
  6
CONTINUOUS
 70
0
 71
3
 72
11
 73
7
 74
5
 42
0.0000001
 43
0.0000001
 44
0.0000000001
 12
0.0102354487
 22
-0.0005606155
 32
0.0
 13
0.0014302443
 23
-0.0101505222
 33
0.0
 40
0.0
 40
0.0
 40
0.0
 40
0.0
 40
0.074481287
 40
0.2627642385
 40
0.5706382397
 40
1.0
 40
1.0
 40
1.0
 40
1.0
 10
-75.1999563514
 20
-27.4440103998
 30
0.0
 10
-75.1997022349
 20
-27.4440243183
 30
0.0
 10
-75.1993900909
 20
-27.4451777852
 30
0.0
 10
-75.1989121285
 20
-27.4467996049
 30
0.0
 10
-75.198365572
 20
-27.4500681771
 30
0.0
 10
-75.1979908816
 20
-27.4525093131
 30
0.0
 10
-75.1977861842
 20
-27.4539620618
 30
0.0
 11
-75.1999563514
 21
-27.4440103998
 31
0.0
 11
-75.1995326748
 21
-27.444645552
 31
0.0
 11
-75.199029949
 21
-27.4465089779
 31
0.0
 11
-75.1984478973
 21
-27.4496107915
 31
0.0
 11
-75.1977861842
 21
-27.4539620618
 31
0.0
  0
SPLINE
  5
3CE
100
AcDbEntity
  8
0
100
AcDbSpline
 62
7
  6
CONTINUOUS
 70
0
 71
3
 72
17
 73
13
 74
11
 42
0.0000001
 43
0.0000001
 44
0.0000000001
 12
0.0275299763
 22
-0.4346833283
 32
0.0
 13
-0.1386432412
 23
-0.4128989551
 33
0.0
 40
0.0
 40
0.0
 40
0.0
 40
0.0
 40
0.2044318686
 40
0.4030860191
 40
0.5887409242
 40
0.7496789103
 40
0.8689445819
 40
0.9440373522
 40
0.9680910816
 40
0.9847835102
 40
0.9951373792
 40
1.0
 40
1.0
 40
1.0
 40
1.0
 10
-75.1728013147
 20
-27.8041755322
 30
0.0
 10
-75.1709253133
 20
-27.8337965739
 30
0.0
 10
-75.1672669908
 20
-27.892204011
 30
0.0
 10
-75.1620293345
 20
-27.9775199026
 30
0.0
 10
-75.1573063532
 20
-28.0565395458
 30
0.0
 10
-75.1534141074
 20
-28.1240658416
 30
0.0
 10
-75.1507188638
 20
-28.1755728706
 30
0.0
 10
-75.1493019469
 20
-28.2072636105
 30
0.0
 10
-75.1488507797
 20
-28.2240631564
 30
0.0
 10
-75.1487106265
 20
-28.2315004709
 30
0.0
 10
-75.1488582706
 20
-28.2360988454
 30
0.0
 10
-75.1489191261
 20
-28.2383486425
 30
0.0
 10
-75.1491438493
 20
-28.2390178995
 30
0.0
 11
-75.1728013147
 21
-27.8041755322
 31
0.0
 11
-75.1672331557
 21
-27.8930424272
 31
0.0
 11
-75.1619377453
 21
-27.97940489
 31
0.0
 11
-75.1571227931
 21
-28.0601241912
 31
0.0
 11
-75.1531370277
 21
-28.1301080052
 31
0.0
 11
-75.1504641708
 21
-28.1819858641
 31
0.0
 11
-75.1491182904
 21
-28.2146651355
 31
0.0
 11
-75.1488384679
 21
-28.2251381018
 31
0.0
 11
-75.1487691667
 21
-28.2324082295
 31
0.0
 11
-75.1488792564
 21
-28.2369165571
 31
0.0
 11
-75.1491438493
 21
-28.2390178995
 31
0.0
  0
SPLINE
  5
3CF
100
AcDbEntity
  8
0
100
AcDbSpline
 62
7
  6
CONTINUOUS
 70
0
 71
3
 72
11
 73
7
 74
5
 42
0.0000001
 43
0.0000001
 44
0.0000000001
 12
0.0489896732
 22
-0.3476823916
 32
0.0
 13
0.0221929609
 23
-0.3504147628
 33
0.0
 40
0.0
 40
0.0
 40
0.0
 40
0.0
 40
0.1022800107
 40
0.3187818733
 40
0.6339591615
 40
1.0
 40
1.0
 40
1.0
 40
1.0
 10
-75.1977861842
 20
-27.4539620618
 30
0.0
 10
-75.1961159627
 20
-27.4658157147
 30
0.0
 10
-75.1935008681
 20
-27.5030715248
 30
0.0
 10
-75.1876443786
 20
-27.5770106119
 30
0.0
 10
-75.1807261093
 20
-27.6818661536
 30
0.0
 10
-75.1755091581
 20
-27.761420161
 30
0.0
 10
-75.1728013147
 20
-27.8041755322
 30
0.0
 11
-75.1977861842
 21
-27.4539620618
 31
0.0
 11
-75.1944039251
 21
-27.4897146683
 31
0.0
 11
-75.1886909534
 21
-27.5655171389
 31
0.0
 11
-75.1811251204
 21
-27.6759222598
 31
0.0
 11
-75.1728013147
 21
-27.8041755322
 31
0.0
  0
LINE
  5
3D0
100
AcDbEntity
  8
0
100
AcDbLine
 62
7
  6
CONTINUOUS
 10
-75.231923819
 20
-27.0261971539
 11
-75.206673579
 21
-27.4444661596
  0
LINE
  5
3D1
100
AcDbEntity
  8
0
100
AcDbLine
 62
7
  6
CONTINUOUS
 10
-75.206673579
 20
-27.4444661596
 11
-75.2060589532
 21
-27.4544717906
  0
LINE
  5
3D2
100
AcDbEntity
  8
0
100
AcDbLine
 62
7
  6
CONTINUOUS
 10
-75.1563049653
 20
-28.2392951335
 11
-75.1551945393
 21
-28.2562792975
  0
LINE
  5
3D3
100
AcDbEntity
  8
0
100
AcDbLine
 62
7
  6
CONTINUOUS
 10
-75.1551945393
 20
-28.2562792975
 11
-75.1258113248
 21
-28.6980248685
  0
LINE
  5
3D4
100
AcDbEntity
  8
0
100
AcDbLine
 62
7
  6
CONTINUOUS
 10
-75.0988257909
 20
-28.9440527573
 11
-75.090351812
 21
-29.060904994
  0
SPLINE
  5
3D5
100
AcDbEntity
  8
0
100
AcDbSpline
 62
7
  6
CONTINUOUS
 70
0
 71
3
 72
19
 73
15
 74
13
 42
0.0000001
 43
0.0000001
 44
0.0000000001
 12
0.2473478704
 22
0.0
 32
0.0
 13
0.0178752769
 23
-0.2467011217
 33
0.0
 40
0.0
 40
0.0
 40
0.0
 40
0.0
 40
0.0044392365
 40
0.017410877
 40
0.0390997657
 40
0.0697115564
 40
0.1095535183
 40
0.158871718
 40
0.2171422328
 40
0.2833580035
 40
0.4357716199
 40
0.6091568088
 40
0.7984764501
 40
1.0
 40
1.0
 40
1.0
 40
1.0
 10
-75.1186755791
 20
-28.6975417377
 30
0.0
 10
-75.1183095672
 20
-28.6975417377
 30
0.0
 10
-75.1184765828
 20
-28.6997464701
 30
0.0
 10
-75.11763237
 20
-28.7021850037
 30
0.0
 10
-75.1172813702
 20
-28.7079672284
 30
0.0
 10
-75.1164309898
 20
-28.715334412
 30
0.0
 10
-75.1155784074
 20
-28.7252456619
 30
0.0
 10
-75.1145215161
 20
-28.7373284118
 30
0.0
 10
-75.1133462502
 20
-28.7516193919
 30
0.0
 10
-75.1115161076
 20
-28.7743723169
 30
0.0
 10
-75.1090153854
 20
-28.8065990196
 30
0.0
 10
-75.1058120156
 20
-28.8489483667
 30
0.0
 10
-75.1023720297
 20
-28.8953415122
 30
0.0
 10
-75.100026554
 20
-28.9274807287
 30
0.0
 10
-75.0988257909
 20
-28.9440527573
 30
0.0
 11
-75.1186755791
 21
-28.6975417377
 31
0.0
 11
-75.1183594388
 21
-28.6985932783
 31
0.0
 11
-75.117899298
 21
-28.7017686195
 31
0.0
 11
-75.1172947114
 21
-28.7070991435
 31
0.0
 11
-75.1165442467
 21
-28.7146336223
 31
0.0
 11
-75.1156449664
 21
-28.72444733
 31
0.0
 11
-75.114594888
 21
-28.7366008019
 31
0.0
 11
-75.1134041382
 21
-28.750964618
 31
0.0
 11
-75.1120904412
 21
-28.7672901774
 31
0.0
 11
-75.1091606067
 21
-28.8048753407
 31
0.0
 11
-75.1059212115
 21
-28.8476392803
 31
0.0
 11
-75.1024552134
 21
-28.8943386449
 31
0.0
 11
-75.0988257909
 21
-28.9440527573
 31
0.0
  0
LINE
  5
3D6
100
AcDbEntity
  8
0
100
AcDbLine
 62
7
  6
CONTINUOUS
 10
-75.1290509035
 20
-28.8018914597
 11
-75.1251121657
 21
-28.8602404109
  0
LINE
  5
3D7
100
AcDbEntity
  8
0
100
AcDbLine
 62
7
  6
CONTINUOUS
 10
-75.1251121657
 20
-28.8602404109
 11
-75.1193282581
 21
-28.9454559737
  0
LINE
  5
3D8
100
AcDbEntity
  8
0
100
AcDbLine
 62
7
  6
CONTINUOUS
 10
-75.1193282581
 20
-28.9454559737
 11
-75.0994224833
 21
-29.2346132862
  0
SPLINE
  5
3D9
100
AcDbEntity
  8
0
100
AcDbSpline
 62
253
  6
CONTINUOUS
 70
0
 71
3
 72
11
 73
7
 74
5
 42
0.0000001
 43
0.0000001
 44
0.0000000001
 12
3.1647788997
 22
0.1256403962
 32
0.0
 13
2.1616878046
 23
2.3148902411
 33
0.0
 40
0.0
 40
0.0
 40
0.0
 40
0.0
 40
0.2403487932
 40
0.4811394419
 40
0.7322127093
 40
1.0
 40
1.0
 40
1.0
 40
1.0
 10
-69.5221402645
 20
-46.4686568729
 30
0.0
 10
-69.2685900014
 20
-46.4585910337
 30
0.0
 10
-68.7615623331
 20
-46.3891124084
 30
0.0
 10
-68.0262989731
 20
-46.135615368
 30
0.0
 10
-67.3287974182
 20
-45.7298930914
 30
0.0
 10
-66.9150977714
 20
-45.3644079249
 30
0.0
 10
-66.7221402645
 20
-45.1577751962
 30
0.0
 11
-69.5221402645
 21
-46.4686568729
 31
0.0
 11
-68.7679879096
 21
-46.3649469937
 31
0.0
 11
-68.046759589
 21
-46.117027886
 31
0.0
 11
-67.358828014
 21
-45.7181285364
 31
0.0
 11
-66.7221402645
 21
-45.1577751962
 31
0.0
  0
SPLINE
  5
3DA
100
AcDbEntity
  8
0
100
AcDbSpline
 62
253
  6
CONTINUOUS
 70
0
 71
3
 72
11
 73
7
 74
5
 42
0.0000001
 43
0.0000001
 44
0.0000000001
 12
3.1598462349
 22
0.1289216187
 32
0.0
 13
2.1565520229
 23
2.3131217834
 33
0.0
 40
0.0
 40
0.0
 40
0.0
 40
0.0
 40
0.2399871546
 40
0.4805172842
 40
0.7316605769
 40
1.0
 40
1.0
 40
1.0
 40
1.0
 10
-69.5162844582
 20
-46.5020835733
 30
0.0
 10
-69.2635102893
 20
-46.4917703959
 30
0.0
 10
-68.7579827908
 20
-46.421939095
 30
0.0
 10
-68.0246496233
 20
-46.1682688964
 30
0.0
 10
-67.3282684449
 20
-45.7622947693
 30
0.0
 10
-66.9150362397
 20
-45.3965481526
 30
0.0
 10
-66.7221402645
 20
-45.1896475643
 30
0.0
 11
-69.5162844582
 21
-46.5020835733
 31
0.0
 11
-68.7645184602
 21
-46.3978810629
 31
0.0
 11
-68.0454078199
 21
-46.1498899728
 31
0.0
 11
-67.3586925995
 21
-45.7508529821
 31
0.0
 11
-66.7221402645
 21
-45.1896475643
 31
0.0
  0
SPLINE
  5
3DB
100
AcDbEntity
  8
RACCORDO
100
AcDbSpline
 62
253
  6
CONTINUOUS
 70
0
 71
3
 72
19
 73
15
 74
13
 42
0.0000001
 43
0.0000001
 44
0.0000000001
 12
3.0654407207
 22
13.2051551409
 32
0.0
 13
-1.0079932667
 23
13.5187646878
 33
0.0
 40
0.0
 40
0.0
 40
0.0
 40
0.0
 40
0.0079767398
 40
0.0177405556
 40
0.042654133
 40
0.0746960892
 40
0.1137085287
 40
0.1594630296
 40
0.2116771625
 40
0.3341264459
 40
0.4779660619
 40
0.6395975209
 40
0.8150323133
 40
1.0
 40
1.0
 40
1.0
 40
1.0
 10
-72.0849601467
 20
-46.0365599587
 30
0.0
 10
-72.0768094057
 20
-46.0014485967
 30
0.0
 10
-72.0626697866
 20
-45.9224430323
 30
0.0
 10
-72.039872209
 20
-45.7309986963
 30
0.0
 10
-72.023247942
 20
-45.4297273049
 30
0.0
 10
-72.0174559271
 20
-44.9960781297
 30
0.0
 10
-72.0250399087
 20
-44.4682400312
 30
0.0
 10
-72.0453610182
 20
-43.8495706771
 30
0.0
 10
-72.0911976189
 20
-42.8545865913
 30
0.0
 10
-72.1781442392
 20
-41.417920903
 30
0.0
 10
-72.3127091277
 20
-39.4889328604
 30
0.0
 10
-72.4737557942
 20
-37.3218037705
 30
0.0
 10
-72.6519367908
 20
-34.9695956538
 30
0.0
 10
-72.7742364251
 20
-33.3456199776
 30
0.0
 10
-72.8363851527
 20
-32.512108434
 30
0.0
 11
-72.0849601467
 21
-46.0365599587
 31
0.0
 11
-72.0650357791
 21
-45.9302763735
 31
0.0
 11
-72.0487537258
 21
-45.7989205002
 31
0.0
 11
-72.0270817388
 21
-45.4618808208
 31
0.0
 11
-72.0196868309
 21
-45.0275736621
 31
0.0
 11
-72.0261000176
 21
-44.4987485315
 31
0.0
 11
-72.0456763876
 21
-43.8787961693
 31
0.0
 11
-72.0776070814
 21
-43.1716867188
 31
0.0
 11
-72.1746404377
 21
-41.514566978
 31
0.0
 11
-72.3084972878
 21
-39.5692350193
 31
0.0
 11
-72.4696323566
 21
-37.3840447507
 31
0.0
 11
-72.6485140248
 21
-35.012536409
 31
0.0
 11
-72.8363851527
 21
-32.512108434
 31
0.0
  0
SPLINE
  5
3DC
100
AcDbEntity
  8
RACCORDO
100
AcDbSpline
 62
253
  6
CONTINUOUS
 70
0
 71
3
 72
9
 73
5
 74
3
 42
0.0000001
 43
0.0000001
 44
0.0000000001
 12
0.2397270787
 22
0.5617816036
 32
0.0
 13
0.1381339622
 23
0.594967773
 33
0.0
 40
0.0
 40
0.0
 40
0.0
 40
0.0
 40
0.4454325711
 40
1.0
 40
1.0
 40
1.0
 40
1.0
 10
-72.2632038237
 20
-46.62020214
 30
0.0
 10
-72.2276097407
 20
-46.5367901987
 30
0.0
 10
-72.1613273235
 20
-46.3437906116
 30
0.0
 10
-72.1104950121
 20
-46.1465432081
 30
0.0
 10
-72.0849601467
 20
-46.0365599587
 30
0.0
 11
-72.2632038237
 21
-46.62020214
 31
0.0
 11
-72.1716265039
 21
-46.3640107841
 31
0.0
 11
-72.0849601467
 21
-46.0365599587
 31
0.0
  0
SPLINE
  5
3DD
100
AcDbEntity
  8
0
100
AcDbSpline
 62
7
  6
CONTINUOUS
 70
0
 71
3
 72
10
 73
6
 74
4
 42
0.0000001
 43
0.0000001
 44
0.0000000001
 12
-0.0397252666
 22
0.5492651179
 32
0.0
 13
-0.0506245556
 23
0.5483679613
 33
0.0
 40
0.0
 40
0.0
 40
0.0
 40
0.0
 40
0.5722610273
 40
0.8237000742
 40
1.0
 40
1.0
 40
1.0
 40
1.0
 10
-74.9357730038
 20
-29.0354898903
 30
0.0
 10
-74.9433507444
 20
-28.9307155501
 30
0.0
 10
-74.9540730263
 20
-28.7798906377
 30
0.0
 10
-74.9677407591
 20
-28.5968367906
 30
0.0
 10
-74.9737017024
 20
-28.5185399934
 30
0.0
 10
-74.9766767376
 20
-28.4863142497
 30
0.0
 11
-74.9357730038
 21
-29.0354898903
 31
0.0
 11
-74.9585078646
 21
-28.7211669882
 31
0.0
 11
-74.9688073822
 21
-28.583083138
 31
0.0
 11
-74.9766767376
 21
-28.4863142497
 31
0.0
  0
LINE
  5
3DE
100
AcDbEntity
  8
0
100
AcDbLine
 62
7
  6
CONTINUOUS
 10
-74.9766767376
 20
-28.4863142497
 11
-74.9777780873
 21
-28.4697704409
  0
SPLINE
  5
3DF
100
AcDbEntity
  8
0
100
AcDbSpline
 62
7
  6
CONTINUOUS
 70
0
 71
3
 72
19
 73
15
 74
13
 42
0.0000001
 43
0.0000001
 44
0.0000000001
 12
0.0182890998
 22
1.4168514267
 32
0.0
 13
-0.1236223663
 23
1.411566494
 33
0.0
 40
0.0
 40
0.0
 40
0.0
 40
0.0
 40
0.0144419909
 40
0.0380253436
 40
0.0632574833
 40
0.0897254148
 40
0.1480881353
 40
0.2136654597
 40
0.2844242395
 40
0.3587341337
 40
0.5123570021
 40
0.8048491342
 40
0.9204614344
 40
1.0
 40
1.0
 40
1.0
 40
1.0
 10
-74.9777780873
 20
-28.4697704409
 30
0.0
 10
-74.9776900436
 20
-28.4629497225
 30
0.0
 10
-74.9790054899
 20
-28.4450103529
 30
0.0
 10
-74.9803565988
 20
-28.4151758764
 30
0.0
 10
-74.9823534883
 20
-28.3796691776
 30
0.0
 10
-74.9851619428
 20
-28.3277615808
 30
0.0
 10
-74.9891861804
 20
-28.2568334367
 30
0.0
 10
-74.9945686041
 20
-28.1650306458
 30
0.0
 10
-75.0005349765
 20
-28.0657165963
 30
0.0
 10
-75.0091507425
 20
-27.9249009453
 30
0.0
 10
-75.0245483872
 20
-27.6795754683
 30
0.0
 10
-75.0415116155
 20
-27.4147976476
 30
0.0
 10
-75.0576188455
 20
-27.1850398995
 30
0.0
 10
-75.0642407385
 20
-27.093098554
 30
0.0
 10
-75.0675183204
 20
-27.0556738959
 30
0.0
 11
-74.9777780873
 21
-28.4697704409
 31
0.0
 11
-74.9786166592
 21
-28.4493237696
 31
0.0
 11
-74.9803802417
 21
-28.4159534482
 31
0.0
 11
-74.9823082945
 21
-28.3802523015
 31
0.0
 11
-74.9843583176
 21
-28.3428041209
 31
0.0
 11
-74.9890175931
 21
-28.260237286
 31
0.0
 11
-74.9944467902
 21
-28.1674749644
 31
0.0
 11
-75.0004523708
 21
-28.0673919577
 31
0.0
 11
-75.0068809249
 21
-27.962293531
 31
0.0
 11
-75.0204720639
 21
-27.7450393246
 31
0.0
 11
-75.047446863
 21
-27.3314656698
 31
0.0
 11
-75.0588721269
 21
-27.1680454738
 31
0.0
 11
-75.0675183204
 21
-27.0556738959
 31
0.0
  0
SPLINE
  5
3E0
100
AcDbEntity
  8
0
100
AcDbSpline
 62
7
  6
CONTINUOUS
 70
0
 71
3
 72
14
 73
10
 74
8
 42
0.0000001
 43
0.0000001
 44
0.0000000001
 12
-0.0083753269
 22
0.0956770374
 32
0.0
 13
-0.0960249085
 23
0.0018597147
 33
0.0
 40
0.0
 40
0.0
 40
0.0
 40
0.0
 40
0.4955192928
 40
0.6649230713
 40
0.7920821643
 40
0.8848494776
 40
0.9481617508
 40
0.9854542849
 40
1.0
 40
1.0
 40
1.0
 40
1.0
 10
-75.0675183204
 20
-27.0556738959
 30
0.0
 10
-75.0689016991
 20
-27.0398706233
 30
0.0
 10
-75.0708349568
 20
-27.0186536829
 30
0.0
 10
-75.0735696532
 20
-26.9934759569
 30
0.0
 10
-75.0751083607
 20
-26.9810490356
 30
0.0
 10
-75.0764155224
 20
-26.9722104941
 30
0.0
 10
-75.0775282188
 20
-26.9658300217
 30
0.0
 10
-75.0784105987
 20
-26.9627478724
 30
0.0
 10
-75.0790877454
 20
-26.9606540516
 30
0.0
 10
-75.0795533291
 20
-26.9606450346
 30
0.0
 11
-75.0675183204
 21
-27.0556738959
 31
0.0
 11
-75.0719844081
 21
-27.0082927971
 31
0.0
 11
-75.0737638546
 21
-26.9921203658
 31
0.0
 11
-75.0752930185
 21
-26.9800037478
 31
0.0
 11
-75.0766142666
 21
-26.9711926159
 31
0.0
 11
-75.0777539887
 21
-26.9652196862
 31
0.0
 11
-75.0787297727
 21
-26.9617734848
 31
0.0
 11
-75.0795533291
 21
-26.9606450346
 31
0.0
  0
SPLINE
  5
3E1
100
AcDbEntity
  8
RACCORDO
100
AcDbSpline
 62
253
  6
CONTINUOUS
 70
0
 71
3
 72
9
 73
5
 74
3
 42
0.0000001
 43
0.0000001
 44
0.0000000001
 12
0.1245510578
 22
0.2657089873
 32
0.0
 13
0.1151758038
 23
0.2699051058
 33
0.0
 40
0.0
 40
0.0
 40
0.0
 40
0.0
 40
0.2387393125
 40
1.0
 40
1.0
 40
1.0
 40
1.0
 10
-72.382791322
 20
-46.8881722631
 30
0.0
 10
-72.3728795774
 20
-46.8670272028
 30
0.0
 10
-72.331809594
 20
-46.7782481488
 30
0.0
 10
-72.2924300942
 20
-46.6886915222
 30
0.0
 10
-72.2632038237
 20
-46.62020214
 30
0.0
 11
-72.382791322
 21
-46.8881722631
 31
0.0
 11
-72.3533658898
 21
-46.8245927832
 31
0.0
 11
-72.2632038237
 21
-46.62020214
 31
0.0
  0
LINE
  5
3E2
100
AcDbEntity
  8
RACCORDO
100
AcDbLine
 62
253
  6
CONTINUOUS
 10
-75.0815828713
 20
-24.6153005995
 11
-75.2131242892
 21
-24.803471826
  0
LINE
  5
3E3
100
AcDbEntity
  8
RACCORDO
100
AcDbLine
 62
253
  6
CONTINUOUS
 10
-72.5088609382
 20
-48.0088603031
 11
-72.4926413707
 21
-47.9740589987
  0
LINE
  5
3E4
100
AcDbEntity
  8
RACCORDO
100
AcDbLine
 62
253
  6
CONTINUOUS
 10
-72.4926413707
 20
-47.9740589987
 11
-72.1025620271
 21
-47.1397115302
  0
LINE
  5
3E5
100
AcDbEntity
  8
RACCORDO
100
AcDbLine
 62
253
  6
CONTINUOUS
 10
-72.7892288296
 20
-47.7576795204
 11
-72.7730037458
 21
-47.7228637764
  0
LINE
  5
3E6
100
AcDbEntity
  8
RACCORDO
100
AcDbLine
 62
253
  6
CONTINUOUS
 10
-72.7730037458
 20
-47.7228637764
 11
-72.382791323
 21
-46.8881722569
  0
SPLINE
  5
3E7
100
AcDbEntity
  8
RACCORDO
100
AcDbSpline
 62
253
  6
CONTINUOUS
 70
0
 71
3
 72
9
 73
5
 74
3
 42
0.0000001
 43
0.0000001
 44
0.0000000001
 12
-0.1151755926
 22
0.2699046126
 32
0.0
 13
-0.1245508302
 23
0.2657085014
 33
0.0
 40
0.0
 40
0.0
 40
0.0
 40
0.0
 40
0.2612892363
 40
1.0
 40
1.0
 40
1.0
 40
1.0
 10
-72.2632038237
 20
44.7894225143
 30
0.0
 10
-72.2732352045
 20
44.8129302376
 30
0.0
 10
-72.311969587
 20
44.9027512773
 30
0.0
 10
-72.3521223088
 20
44.9919653934
 30
0.0
 10
-72.3827913218
 20
45.0573926367
 30
0.0
 11
-72.2632038237
 21
44.7894225143
 31
0.0
 11
-72.2935737919
 21
44.8598273434
 31
0.0
 11
-72.3827913218
 21
45.0573926367
 31
0.0
  0
SPLINE
  5
3E8
100
AcDbEntity
  8
RACCORDO
100
AcDbSpline
 62
253
  6
CONTINUOUS
 70
0
 71
3
 72
9
 73
5
 74
3
 42
0.0000001
 43
0.0000001
 44
0.0000000001
 12
-0.1381339225
 22
0.5949677822
 32
0.0
 13
-0.2397270048
 23
0.5617816352
 33
0.0
 40
0.0
 40
0.0
 40
0.0
 40
0.0
 40
0.5545674289
 40
1.0
 40
1.0
 40
1.0
 40
1.0
 10
-72.0849601467
 20
44.205780333
 30
0.0
 10
-72.1104950048
 20
44.3157635841
 30
0.0
 10
-72.1613273196
 20
44.513010988
 30
0.0
 10
-72.2276097516
 20
44.7060105682
 30
0.0
 10
-72.2632038237
 20
44.7894225143
 30
0.0
 11
-72.0849601467
 21
44.205780333
 31
0.0
 11
-72.1716265038
 21
44.5332311583
 31
0.0
 11
-72.2632038237
 21
44.7894225143
 31
0.0
  0
SPLINE
  5
3E9
100
AcDbEntity
  8
RACCORDO
100
AcDbSpline
 62
253
  6
CONTINUOUS
 70
0
 71
3
 72
19
 73
15
 74
13
 42
0.0000001
 43
0.0000001
 44
0.0000000001
 12
1.007992519
 22
13.5187647339
 32
0.0
 13
-3.0653803988
 23
13.2051691341
 33
0.0
 40
0.0
 40
0.0
 40
0.0
 40
0.0
 40
0.1849676889
 40
0.3604024795
 40
0.5220339396
 40
0.6658735535
 40
0.788322836
 40
0.8405369667
 40
0.8862914726
 40
0.9253038975
 40
0.9573458671
 40
0.9822594457
 40
0.9920232362
 40
1.0
 40
1.0
 40
1.0
 40
1.0
 10
-72.8363851527
 20
30.6813288082
 30
0.0
 10
-72.7742364705
 20
31.5148403647
 30
0.0
 10
-72.6519367537
 20
33.1388160357
 30
0.0
 10
-72.4737558029
 20
35.4910241611
 30
0.0
 10
-72.3127091198
 20
37.6581532355
 30
0.0
 10
-72.1781442441
 20
39.5871412689
 30
0.0
 10
-72.0911976125
 20
41.0238069324
 30
0.0
 10
-72.0453610383
 20
42.0187910272
 30
0.0
 10
-72.0250398915
 20
42.6374603259
 30
0.0
 10
-72.0174559705
 20
43.1652984436
 30
0.0
 10
-72.0232479753
 20
43.5989476132
 30
0.0
 10
-72.0398720972
 20
43.9002189702
 30
0.0
 10
-72.0626699187
 20
44.0916632835
 30
0.0
 10
-72.0768095416
 20
44.1706688281
 30
0.0
 10
-72.0849601467
 20
44.205780333
 30
0.0
 11
-72.8363851527
 21
30.6813288082
 31
0.0
 11
-72.6485140142
 21
33.1817568111
 31
0.0
 11
-72.469632356
 21
35.5532651276
 31
0.0
 11
-72.3084972837
 21
37.7384554089
 31
0.0
 11
-72.1746404381
 21
39.683787338
 31
0.0
 11
-72.0776070858
 21
41.3409070662
 31
0.0
 11
-72.0456763985
 21
42.0480164866
 31
0.0
 11
-72.0261000162
 21
42.6679689154
 31
0.0
 11
-72.0196868644
 21
43.1967938478
 31
0.0
 11
-72.0270817375
 21
43.6311011885
 31
0.0
 11
-72.0487537329
 21
43.9681408837
 31
0.0
 11
-72.0650358586
 21
44.099496402
 31
0.0
 11
-72.0849601467
 21
44.205780333
 31
0.0
  0
SPLINE
  5
3EA
100
AcDbEntity
  8
RACCORDO
100
AcDbSpline
 62
253
  6
CONTINUOUS
 70
0
 71
3
 72
9
 73
5
 74
3
 42
0.0000001
 43
0.0000001
 44
0.0000000001
 12
-0.0015556684
 22
-1.0000707284
 32
0.0
 13
-0.0428566139
 23
-0.9991532378
 33
0.0
 40
0.0
 40
0.0
 40
0.0
 40
0.0
 40
0.4640145573
 40
1.0
 40
1.0
 40
1.0
 40
1.0
 10
-74.7126406992
 20
21.799130142
 30
0.0
 10
-74.7128813168
 20
21.6444476832
 30
0.0
 10
-74.7187018001
 20
21.311104591
 30
0.0
 10
-74.7302929605
 20
20.9779365468
 30
0.0
 10
-74.7379498009
 20
20.7994260167
 30
0.0
 11
-74.7126406992
 21
21.799130142
 31
0.0
 11
-74.7195253764
 21
21.335133278
 31
0.0
 11
-74.7379498009
 21
20.7994260167
 31
0.0
  0
LINE
  5
3EB
100
AcDbEntity
  8
RACCORDO
100
AcDbLine
 62
253
  6
CONTINUOUS
 10
-75.2131242882
 20
22.9726922227
 11
-75.0815828713
 21
22.7845209737
  0
SPLINE
  5
3EC
100
AcDbEntity
  8
RACCORDO
100
AcDbSpline
 62
253
  6
CONTINUOUS
 70
0
 71
3
 72
8
 73
4
 74
2
 42
0.0000001
 43
0.0000001
 44
0.0000000001
 12
-0.0341806451
 22
-0.721144426
 32
0.0
 13
-0.0331405508
 23
-0.7211929724
 33
0.0
 40
0.0
 40
0.0
 40
0.0
 40
0.0
 40
1.0
 40
1.0
 40
1.0
 40
1.0
 10
-74.6727961318
 20
22.7845209737
 30
0.0
 10
-74.6841896801
 20
22.5441394984
 30
0.0
 10
-74.6954098881
 20
22.3037497445
 30
0.0
 10
-74.7064567384
 20
22.063352087
 30
0.0
 11
-74.6727961318
 21
22.7845209737
 31
0.0
 11
-74.7064567384
 21
22.063352087
 31
0.0
  0
LINE
  5
3ED
100
AcDbEntity
  8
RACCORDO
100
AcDbLine
 62
253
  6
CONTINUOUS
 10
-74.7064567384
 20
22.063352087
 11
-74.7130640918
 21
21.9191115332
  0
LINE
  5
3EE
100
AcDbEntity
  8
RACCORDO
100
AcDbLine
 62
253
  6
CONTINUOUS
 10
-74.7130640918
 20
-23.749891159
 11
-74.7064567355
 21
-23.894131776
  0
SPLINE
  5
3EF
100
AcDbEntity
  8
RACCORDO
100
AcDbSpline
 62
253
  6
CONTINUOUS
 70
0
 71
3
 72
8
 73
4
 74
2
 42
0.0000001
 43
0.0000001
 44
0.0000000001
 12
0.033140548
 22
-0.7211929092
 32
0.0
 13
0.0341806421
 23
-0.7211443628
 33
0.0
 40
0.0
 40
0.0
 40
0.0
 40
0.0
 40
1.0
 40
1.0
 40
1.0
 40
1.0
 10
-74.7064567355
 20
-23.894131776
 30
0.0
 10
-74.6954098862
 20
-24.1345294124
 30
0.0
 10
-74.6841896791
 20
-24.3749191453
 30
0.0
 10
-74.6727961318
 20
-24.6153005995
 30
0.0
 11
-74.7064567355
 21
-23.894131776
 31
0.0
 11
-74.6727961318
 21
-24.6153005995
 31
0.0
  0
SPLINE
  5
3F0
100
AcDbEntity
  8
RACCORDO
100
AcDbSpline
 62
253
  6
CONTINUOUS
 70
0
 71
3
 72
9
 73
5
 74
3
 42
0.0000001
 43
0.0000001
 44
0.0000000001
 12
0.0426700723
 22
-0.9982160958
 32
0.0
 13
0.0016259732
 23
-0.999126351
 33
0.0
 40
0.0
 40
0.0
 40
0.0
 40
0.0
 40
0.5358957393
 40
1.0
 40
1.0
 40
1.0
 40
1.0
 10
-74.7379501228
 20
-22.6301982316
 30
0.0
 10
-74.7303278861
 20
-22.8085114825
 30
0.0
 10
-74.7187072473
 20
-23.1413632405
 30
0.0
 10
-74.7128937788
 20
-23.4743917476
 30
0.0
 10
-74.7126422384
 20
-23.6289580131
 30
0.0
 11
-74.7379501228
 21
-22.6301982316
 31
0.0
 11
-74.7195407123
 21
-23.1653099199
 31
0.0
 11
-74.7126422384
 21
-23.6289580131
 31
0.0
  0
LINE
  5
3F1
100
AcDbEntity
  8
RACCORDO
100
AcDbLine
 62
253
  6
CONTINUOUS
 10
-72.3827913227
 20
45.0573926307
 11
-72.7892288296
 21
45.9268998946
  0
LINE
  5
3F2
100
AcDbEntity
  8
RACCORDO
100
AcDbLine
 62
253
  6
CONTINUOUS
 10
-75.0815828713
 20
22.7845209737
 11
-75.0201739462
 21
22.6968262493
  0
LINE
  5
3F3
100
AcDbEntity
  8
RACCORDO
100
AcDbLine
 62
253
  6
CONTINUOUS
 10
-75.0201739462
 20
22.6968262493
 11
-74.8889112505
 21
22.5093770699
  0
LINE
  5
3F4
100
AcDbEntity
  8
RACCORDO
100
AcDbLine
 62
253
  6
CONTINUOUS
 10
-74.8889112505
 20
22.5093770699
 11
-74.7388971736
 21
22.2951501554
  0
SPLINE
  5
3F5
100
AcDbEntity
  8
RACCORDO
100
AcDbSpline
 62
253
  6
CONTINUOUS
 70
0
 71
3
 72
13
 73
9
 74
7
 42
0.0000001
 43
0.0000001
 44
0.0000000001
 12
0.1340779672
 22
-0.1914593115
 32
0.0
 13
0.0069975824
 23
-0.2336334803
 33
0.0
 40
0.0
 40
0.0
 40
0.0
 40
0.0
 40
0.0415959861
 40
0.1067118358
 40
0.1962546705
 40
0.3101460183
 40
0.6090824091
 40
1.0
 40
1.0
 40
1.0
 40
1.0
 10
-74.7388971736
 20
22.2951501554
 30
0.0
 10
-74.7370381385
 20
22.2924955091
 30
0.0
 10
-74.7340858305
 20
22.2845596041
 30
0.0
 10
-74.7305923004
 20
22.2697239548
 30
0.0
 10
-74.7273540901
 20
22.2490104784
 30
0.0
 10
-74.7229650718
 20
22.2101253422
 30
0.0
 10
-74.7187385993
 20
22.1476113888
 30
0.0
 10
-74.7166417128
 20
22.0939057897
 30
0.0
 10
-74.7157298868
 20
22.0634619773
 30
0.0
 11
-74.7388971736
 21
22.2951501554
 31
0.0
 11
-74.7348964889
 21
22.286288838
 31
0.0
 11
-74.7311845701
 21
22.2715283492
 31
0.0
 11
-74.7277785978
 21
22.2508777584
 31
0.0
 11
-74.724691024
 21
22.2244366545
 31
0.0
 11
-74.7195097091
 21
22.1547561568
 31
0.0
 11
-74.7157298868
 21
22.0634619773
 31
0.0
  0
SPLINE
  5
3F6
100
AcDbEntity
  8
RACCORDO
100
AcDbSpline
 62
253
  6
CONTINUOUS
 70
0
 71
3
 72
13
 73
9
 74
7
 42
0.0000001
 43
0.0000001
 44
0.0000000001
 12
-0.006972859
 22
-0.2350510912
 32
0.0
 13
-0.1348903153
 23
-0.1926194151
 33
0.0
 40
0.0
 40
0.0
 40
0.0
 40
0.0
 40
0.3910011473
 40
0.6899782403
 40
0.8038709686
 40
0.8933970201
 40
0.9584720113
 40
1.0
 40
1.0
 40
1.0
 40
1.0
 10
-74.7156876787
 20
-23.8928256617
 30
0.0
 10
-74.7165964774
 20
-23.9234607438
 30
0.0
 10
-74.7186899577
 20
-23.9775020854
 30
0.0
 10
-74.7229202049
 20
-24.0404061688
 30
0.0
 10
-74.7273187171
 20
-24.0795306769
 30
0.0
 10
-74.7305648402
 20
-24.1003672231
 30
0.0
 10
-74.7340685418
 20
-24.1152846925
 30
0.0
 10
-74.7370299324
 20
-24.1232634156
 30
0.0
 10
-74.7388971736
 20
-24.1259297812
 30
0.0
 11
-74.7156876787
 21
-23.8928256617
 31
0.0
 11
-74.7194628881
 21
-23.9846938027
 31
0.0
 11
-74.7246503665
 21
-24.0548079709
 31
0.0
 11
-74.7277447179
 21
-24.0814110016
 31
0.0
 11
-74.731159803
 21
-24.1021846143
 31
0.0
 11
-74.7348830747
 21
-24.1170274294
 31
0.0
 11
-74.7388971736
 21
-24.1259297812
 31
0.0
  0
LINE
  5
3F7
100
AcDbEntity
  8
RACCORDO
100
AcDbLine
 62
253
  6
CONTINUOUS
 10
-74.7388971736
 20
-24.1259297812
 11
-74.8889112469
 21
-24.3401566874
  0
LINE
  5
3F8
100
AcDbEntity
  8
RACCORDO
100
AcDbLine
 62
253
  6
CONTINUOUS
 10
-74.8889112469
 20
-24.3401566874
 11
-75.0201740616
 21
-24.5276060415
  0
LINE
  5
3F9
100
AcDbEntity
  8
RACCORDO
100
AcDbLine
 62
253
  6
CONTINUOUS
 10
-75.0201740616
 20
-24.5276060415
 11
-75.0815828713
 21
-24.6153005995
  0
SPLINE
  5
3FA
100
AcDbEntity
  8
0
100
AcDbSpline
 62
253
  6
CONTINUOUS
 70
0
 71
3
 72
10
 73
6
 74
4
 42
0.0000001
 43
0.0000001
 44
0.0000000001
 12
-2.7847983184
 22
-0.3242269735
 32
0.0
 13
-2.8028916879
 23
0.0634270478
 33
0.0
 40
0.0
 40
0.0
 40
0.0
 40
0.0
 40
0.2115366448
 40
0.4538224025
 40
1.0
 40
1.0
 40
1.0
 40
1.0
 10
-66.7221402645
 20
26.5311401989
 30
0.0
 10
-66.9185025621
 20
26.5082782368
 30
0.0
 10
-67.341061484
 20
26.4701712286
 30
0.0
 10
-68.2743861116
 20
26.4203784026
 30
0.0
 10
-69.0118480485
 20
26.4173474049
 30
0.0
 10
-69.5221402645
 20
26.4288948825
 30
0.0
 11
-66.7221402645
 21
26.5311401989
 31
0.0
 11
-67.3126489457
 21
26.4761230352
 31
0.0
 11
-67.9909045915
 21
26.4389309878
 31
0.0
 11
-69.5221402645
 21
26.4288948825
 31
0.0
  0
SPLINE
  5
3FB
100
AcDbEntity
  8
0
100
AcDbSpline
 62
253
  6
CONTINUOUS
 70
0
 71
3
 72
10
 73
6
 74
4
 42
0.0000001
 43
0.0000001
 44
0.0000000001
 12
-2.7870483627
 22
-0.2993900987
 32
0.0
 13
-2.8024932603
 23
0.0574850663
 33
0.0
 40
0.0
 40
0.0
 40
0.0
 40
0.0
 40
0.211372752
 40
0.4536524943
 40
1.0
 40
1.0
 40
1.0
 40
1.0
 10
-66.7221402645
 20
26.7753366108
 30
0.0
 10
-66.9185089586
 20
26.7542423078
 30
0.0
 10
-67.3410583898
 20
26.7190655855
 30
0.0
 10
-68.2743805516
 20
26.6729943255
 30
0.0
 10
-69.0117618637
 20
26.66998746
 30
0.0
 10
-69.5221402645
 20
26.6804564008
 30
0.0
 11
-66.7221402645
 21
26.7753366108
 31
0.0
 11
-67.3124559342
 21
26.7245614901
 31
0.0
 11
-67.9907136552
 21
26.6901485132
 31
0.0
 11
-69.5221402645
 21
26.6804564008
 31
0.0
  0
SPLINE
  5
3FC
100
AcDbEntity
  8
RACCORDO
100
AcDbSpline
 62
253
  6
CONTINUOUS
 70
0
 71
3
 72
9
 73
5
 74
3
 42
0.0000001
 43
0.0000001
 44
0.0000000001
 12
0.1245628795
 22
0.265597658
 32
0.0
 13
0.1151919682
 23
0.2697940647
 33
0.0
 40
0.0
 40
0.0
 40
0.0
 40
0.0
 40
0.2387400334
 40
1.0
 40
1.0
 40
1.0
 40
1.0
 10
-72.1025620271
 20
-47.1397115302
 30
0.0
 10
-72.0926493118
 20
-47.1185752656
 30
0.0
 10
-72.05157517
 20
-47.0298333159
 30
0.0
 10
-72.0121907068
 20
-46.9403137577
 30
0.0
 10
-71.9829603622
 20
-46.8718526175
 30
0.0
 11
-72.1025620271
 21
-47.1397115302
 31
0.0
 11
-72.0731335341
 21
-47.0761584324
 31
0.0
 11
-71.9829603622
 21
-46.8718526175
 31
0.0
  0
SPLINE
  5
3FD
100
AcDbEntity
  8
0
100
AcDbSpline
 62
253
  6
CONTINUOUS
 70
0
 71
3
 72
10
 73
6
 74
4
 42
0.0000001
 43
0.0000001
 44
0.0000000001
 12
-2.796317191
 22
0.1620962136
 32
0.0
 13
-2.8009913017
 23
-0.0106180626
 33
0.0
 40
0.0
 40
0.0
 40
0.0
 40
0.0
 40
0.2102050263
 40
0.4525030521
 40
1.0
 40
1.0
 40
1.0
 40
1.0
 10
-66.7221402645
 20
30.4116781092
 30
0.0
 10
-66.918073574
 20
30.4230359221
 30
0.0
 10
-67.3401569903
 20
30.4423092376
 30
0.0
 10
-68.2734595179
 20
30.4693198402
 30
0.0
 10
-69.0109622016
 20
30.474836977
 30
0.0
 10
-69.5221402645
 20
30.4728991914
 30
0.0
 11
-66.7221402645
 21
30.4116781092
 31
0.0
 11
-67.3102729887
 21
30.439420748
 31
0.0
 11
-67.9886528315
 21
30.4595876969
 31
0.0
 11
-69.5221402645
 21
30.4728991914
 31
0.0
  0
SPLINE
  5
3FE
100
AcDbEntity
  8
RACCORDO
100
AcDbSpline
 62
253
  6
CONTINUOUS
 70
0
 71
3
 72
9
 73
5
 74
3
 42
0.0000001
 43
0.0000001
 44
0.0000000001
 12
0.2397820322
 22
0.5629561853
 32
0.0
 13
0.1381900228
 23
0.5960860736
 33
0.0
 40
0.0
 40
0.0
 40
0.0
 40
0.0
 40
0.4454118832
 40
1.0
 40
1.0
 40
1.0
 40
1.0
 10
-71.9829603603
 20
-46.8718526176
 30
0.0
 10
-71.9473597714
 20
-46.7882701594
 30
0.0
 10
-71.8810625889
 20
-46.5948882882
 30
0.0
 10
-71.8302123258
 20
-46.3972664717
 30
0.0
 10
-71.8046661443
 20
-46.2870723873
 30
0.0
 11
-71.9829603603
 21
-46.8718526176
 31
0.0
 11
-71.8913652069
 21
-46.6151598224
 31
0.0
 11
-71.8046661443
 21
-46.2870723873
 31
0.0
  0
SPLINE
  5
3FF
100
AcDbEntity
  8
0
100
AcDbSpline
 62
253
  6
CONTINUOUS
 70
0
 71
3
 72
10
 73
6
 74
4
 42
0.0000001
 43
0.0000001
 44
0.0000000001
 12
-2.7949887109
 22
0.189344728
 32
0.0
 13
-2.8013731079
 23
-0.0110467431
 33
0.0
 40
0.0
 40
0.0
 40
0.0
 40
0.0
 40
0.2102405523
 40
0.4525499525
 40
1.0
 40
1.0
 40
1.0
 40
1.0
 10
-66.7221402645
 20
30.5758458726
 30
0.0
 10
-66.9180135879
 20
30.589115186
 30
0.0
 10
-67.3400476892
 20
30.6116775894
 30
0.0
 10
-68.2733360598
 20
30.6434519865
 30
0.0
 10
-69.0109363175
 20
30.6501851962
 30
0.0
 10
-69.5221402645
 20
30.6481693496
 30
0.0
 11
-66.7221402645
 21
30.5758458726
 31
0.0
 11
-67.3102115248
 21
30.6083126924
 31
0.0
 11
-67.9886014467
 21
30.6320279222
 31
0.0
 11
-69.5221402645
 21
30.6481693496
 31
0.0
  0
SPLINE
  5
400
100
AcDbEntity
  8
RACCORDO
100
AcDbSpline
 62
253
  6
CONTINUOUS
 70
0
 71
3
 72
19
 73
15
 74
13
 42
0.0000001
 43
0.0000001
 44
0.0000000001
 12
3.0686326482
 22
13.4336863594
 32
0.0
 13
-1.0063040604
 23
13.7429177277
 33
0.0
 40
0.0
 40
0.0
 40
0.0
 40
0.0
 40
0.0079692609
 40
0.0177256862
 40
0.0426220291
 40
0.0746422492
 40
0.1136291614
 40
0.1593560252
 40
0.211542752
 40
0.3339477991
 40
0.4777718891
 40
0.6394280768
 40
0.8149300366
 40
1.0
 40
1.0
 40
1.0
 40
1.0
 10
-71.8046652727
 20
-46.2870724322
 30
0.0
 10
-71.7965136947
 20
-46.2513869151
 30
0.0
 10
-71.7823712366
 20
-46.1711110191
 30
0.0
 10
-71.7595531965
 20
-45.9766198945
 30
0.0
 10
-71.7428767755
 20
-45.6705925683
 30
0.0
 10
-71.7369921854
 20
-45.2300937731
 30
0.0
 10
-71.7444542698
 20
-44.6938990485
 30
0.0
 10
-71.7646296497
 20
-44.0653887394
 30
0.0
 10
-71.8102383622
 20
-43.0544188595
 30
0.0
 10
-71.8968832008
 20
-41.5943745003
 30
0.0
 10
-72.0310985613
 20
-39.6335790987
 30
0.0
 10
-72.1918260764
 20
-37.43016335
 30
0.0
 10
-72.369733654
 20
-35.0380534826
 30
0.0
 10
-72.4918771064
 20
-33.3863708006
 30
0.0
 10
-72.5539559916
 20
-32.5385703738
 30
0.0
 11
-71.8046652727
 21
-46.2870724322
 31
0.0
 11
-71.784737611
 21
-46.1790815645
 31
0.0
 11
-71.7684419851
 21
-46.0456320976
 31
0.0
 11
-71.7467142698
 21
-45.7032564324
 31
0.0
 11
-71.7392286641
 21
-45.2620905565
 31
0.0
 11
-71.7455207077
 21
-44.7248990202
 31
0.0
 11
-71.7649512545
 21
-44.0950957131
 31
0.0
 11
-71.7967177811
 21
-43.3766796743
 31
0.0
 11
-71.8933937072
 21
-41.6927463363
 31
0.0
 11
-72.0268928688
 21
-39.715393352
 31
0.0
 11
-72.1877035012
 21
-37.4936299155
 31
0.0
 11
-72.3663100201
 21
-35.0818680666
 31
0.0
 11
-72.5539559916
 21
-32.5385703738
 31
0.0
  0
SPLINE
  5
401
100
AcDbEntity
  8
0
100
AcDbSpline
 62
253
  6
CONTINUOUS
 70
0
 71
3
 72
11
 73
7
 74
5
 42
0.0000001
 43
0.0000001
 44
0.0000000001
 12
3.1377900767
 22
-0.1533971673
 32
0.0
 13
2.19327224
 23
-2.2491807703
 33
0.0
 40
0.0
 40
0.0
 40
0.0
 40
0.0
 40
0.2458555129
 40
0.4911837802
 40
0.7414036198
 40
1.0
 40
1.0
 40
1.0
 40
1.0
 10
-69.5221402645
 20
44.0102672342
 30
0.0
 10
-69.2649926016
 20
43.9976960545
 30
0.0
 10
-68.7522862776
 20
43.9251253724
 30
0.0
 10
-68.0127907171
 20
43.6749052451
 30
0.0
 10
-67.3207121718
 20
43.2853184129
 30
0.0
 10
-66.9111976852
 20
42.938413605
 30
0.0
 10
-66.7221402645
 20
42.7445369364
 30
0.0
 11
-69.5221402645
 21
44.0102672342
 31
0.0
 11
-68.7574448264
 21
43.9016970592
 31
0.0
 11
-68.0273527146
 21
43.654803928
 31
0.0
 11
-67.342287082
 21
43.2693185702
 31
0.0
 11
-66.7221402645
 21
42.7445369364
 31
0.0
  0
SPLINE
  5
402
100
AcDbEntity
  8
0
100
AcDbSpline
 62
253
  6
CONTINUOUS
 70
0
 71
3
 72
11
 73
7
 74
5
 42
0.0000001
 43
0.0000001
 44
0.0000000001
 12
3.1422484917
 22
-0.1535119327
 32
0.0
 13
2.1885743535
 23
-2.2599632289
 33
0.0
 40
0.0
 40
0.0
 40
0.0
 40
0.0
 40
0.2452308319
 40
0.4901025679
 40
0.7404412225
 40
1.0
 40
1.0
 40
1.0
 40
1.0
 10
-69.5221402645
 20
44.079995795
 30
0.0
 10
-69.2652815273
 20
44.0674471754
 30
0.0
 10
-68.7529746665
 20
43.9946022727
 30
0.0
 10
-68.0138198227
 20
43.7429354086
 30
0.0
 10
-67.3212651423
 20
43.3504819886
 30
0.0
 10
-66.9114948258
 20
43.0009103568
 30
0.0
 10
-66.7221402645
 20
42.8053792592
 30
0.0
 11
-69.5221402645
 21
44.079995795
 31
0.0
 11
-68.7583716897
 21
43.9710808144
 31
0.0
 11
-68.029047673
 21
43.7229890474
 31
0.0
 11
-67.3437290083
 21
43.3349219616
 31
0.0
 11
-66.7221402645
 21
42.8053792592
 31
0.0
  0
SPLINE
  5
403
100
AcDbEntity
  8
0
100
AcDbSpline
 62
253
  6
CONTINUOUS
 70
0
 71
3
 72
11
 73
7
 74
5
 42
0.0000001
 43
0.0000001
 44
0.0000000001
 12
3.1647788997
 22
-0.1256403962
 32
0.0
 13
2.1616878046
 23
-2.3148902411
 33
0.0
 40
0.0
 40
0.0
 40
0.0
 40
0.0
 40
0.2403487932
 40
0.4811394419
 40
0.7322127093
 40
1.0
 40
1.0
 40
1.0
 40
1.0
 10
-69.5221402645
 20
44.6378772471
 30
0.0
 10
-69.2685900014
 20
44.6278114079
 30
0.0
 10
-68.7615623331
 20
44.5583327826
 30
0.0
 10
-68.0262989731
 20
44.3048357423
 30
0.0
 10
-67.3287974182
 20
43.8991134656
 30
0.0
 10
-66.9150977714
 20
43.5336282991
 30
0.0
 10
-66.7221402645
 20
43.3269955705
 30
0.0
 11
-69.5221402645
 21
44.6378772471
 31
0.0
 11
-68.7679879096
 21
44.534167368
 31
0.0
 11
-68.046759589
 21
44.2862482602
 31
0.0
 11
-67.358828014
 21
43.8873489106
 31
0.0
 11
-66.7221402645
 21
43.3269955705
 31
0.0
  0
SPLINE
  5
404
100
AcDbEntity
  8
0
100
AcDbSpline
 62
253
  6
CONTINUOUS
 70
0
 71
3
 72
11
 73
7
 74
5
 42
0.0000001
 43
0.0000001
 44
0.0000000001
 12
3.1598462349
 22
-0.1289216187
 32
0.0
 13
2.1565520229
 23
-2.3131217834
 33
0.0
 40
0.0
 40
0.0
 40
0.0
 40
0.0
 40
0.2399871546
 40
0.4805172842
 40
0.7316605769
 40
1.0
 40
1.0
 40
1.0
 40
1.0
 10
-69.5162844582
 20
44.6713039476
 30
0.0
 10
-69.2635102893
 20
44.6609907701
 30
0.0
 10
-68.7579827908
 20
44.5911594693
 30
0.0
 10
-68.0246496233
 20
44.3374892706
 30
0.0
 10
-67.3282684449
 20
43.9315151436
 30
0.0
 10
-66.9150362397
 20
43.5657685268
 30
0.0
 10
-66.7221402645
 20
43.3588679385
 30
0.0
 11
-69.5162844582
 21
44.6713039476
 31
0.0
 11
-68.7645184602
 21
44.5671014372
 31
0.0
 11
-68.0454078199
 21
44.3191103471
 31
0.0
 11
-67.3586925995
 21
43.9200733563
 31
0.0
 11
-66.7221402645
 21
43.3588679385
 31
0.0
  0
LINE
  5
405
100
AcDbEntity
  8
0
100
AcDbLine
 62
7
  6
CONTINUOUS
 10
-75.1520175827
 20
-28.2390178995
 11
-75.1740456589
 21
-27.8974526179
  0
LINE
  5
406
100
AcDbEntity
  8
0
100
AcDbLine
 62
7
  6
CONTINUOUS
 10
-75.1740456589
 20
-27.8974526179
 11
-75.1848439563
 21
-27.7266561523
  0
LINE
  5
407
100
AcDbEntity
  8
0
100
AcDbLine
 62
7
  6
CONTINUOUS
 10
-75.1848439563
 20
-27.7266561523
 11
-75.2007716989
 21
-27.4704446088
  0
SPLINE
  5
408
100
AcDbEntity
  8
RACCORDO
100
AcDbSpline
 62
253
  6
CONTINUOUS
 70
0
 71
3
 72
19
 73
15
 74
13
 42
0.0000001
 43
0.0000001
 44
0.0000000001
 12
1.0063013626
 22
13.742904201
 32
0.0
 13
-3.0685796732
 23
13.4336844202
 33
0.0
 40
0.0
 40
0.0
 40
0.0
 40
0.0
 40
0.1850700897
 40
0.360572151
 40
0.5222283998
 40
0.6660525098
 40
0.7884575376
 40
0.8406442396
 40
0.8863710687
 40
0.9253579336
 40
0.9573781063
 40
0.9822743749
 40
0.9920307518
 40
1.0
 40
1.0
 40
1.0
 40
1.0
 10
-72.553954827
 20
30.7078067256
 30
0.0
 10
-72.4918760658
 20
31.5556068965
 30
0.0
 10
-72.3697324709
 20
33.2072889678
 30
0.0
 10
-72.1918250521
 20
35.5993977886
 30
0.0
 10
-72.0310976371
 20
37.8028121852
 30
0.0
 10
-71.8968824827
 20
39.7636059282
 30
0.0
 10
-71.81023783
 20
41.2236487329
 30
0.0
 10
-71.7646293562
 20
42.2346172553
 30
0.0
 10
-71.744454074
 20
42.8631264518
 30
0.0
 10
-71.7369922406
 20
43.3993200549
 30
0.0
 10
-71.7428769573
 20
43.8398176294
 30
0.0
 10
-71.7595534062
 20
44.145843876
 30
0.0
 10
-71.7823718092
 20
44.3403341421
 30
0.0
 10
-71.7965142664
 20
44.4206096574
 30
0.0
 10
-71.8046656908
 20
44.4562951127
 30
0.0
 11
-72.553954827
 21
30.7078067256
 31
0.0
 11
-72.3663088908
 21
33.2511036262
 31
0.0
 11
-72.187702456
 21
35.6628644752
 31
0.0
 11
-72.0268919541
 21
37.8846265475
 31
0.0
 11
-71.8933929918
 21
39.8619778468
 31
0.0
 11
-71.7967173249
 21
41.5459092553
 31
0.0
 11
-71.7649509534
 21
42.2643242449
 31
0.0
 11
-71.7455205495
 21
42.8941264517
 31
0.0
 11
-71.7392287169
 21
43.4313168037
 31
0.0
 11
-71.746714454
 21
43.8724815877
 31
0.0
 11
-71.7684423557
 21
44.2148558728
 31
0.0
 11
-71.7847381332
 21
44.3483045141
 31
0.0
 11
-71.8046656908
 21
44.4562951127
 31
0.0
  0
SPLINE
  5
409
100
AcDbEntity
  8
RACCORDO
100
AcDbSpline
 62
253
  6
CONTINUOUS
 70
0
 71
3
 72
9
 73
5
 74
3
 42
0.0000001
 43
0.0000001
 44
0.0000000001
 12
-0.1151917212
 22
0.2697934839
 32
0.0
 13
-0.1245626116
 23
0.2655970865
 33
0.0
 40
0.0
 40
0.0
 40
0.0
 40
0.0
 40
0.2612885277
 40
1.0
 40
1.0
 40
1.0
 40
1.0
 10
-71.9829603995
 20
45.0410730797
 30
0.0
 10
-71.992993158
 20
45.0645710604
 30
0.0
 10
-72.0317327695
 20
45.1543550397
 30
0.0
 10
-72.0718900837
 20
45.2435320328
 30
0.0
 10
-72.1025620271
 20
45.3089319044
 30
0.0
 11
-71.9829603995
 21
45.0410730797
 31
0.0
 11
-72.013334379
 21
45.111448668
 31
0.0
 11
-72.1025620271
 21
45.3089319044
 31
0.0
  0
SPLINE
  5
40A
100
AcDbEntity
  8
0
100
AcDbSpline
 62
7
  6
CONTINUOUS
 70
0
 71
3
 72
11
 73
7
 74
5
 42
0.0000001
 43
0.0000001
 44
0.0000000001
 12
-0.0003462986
 22
0.0262530129
 32
0.0
 13
0.0108866576
 23
0.0238918667
 33
0.0
 40
0.0
 40
0.0
 40
0.0
 40
0.0
 40
0.3863527218
 40
0.6947623342
 40
0.9020492855
 40
1.0
 40
1.0
 40
1.0
 40
1.0
 10
-75.2007716989
 20
-27.4704446088
 30
0.0
 10
-75.2008162967
 20
-27.4670636345
 30
0.0
 10
-75.2008568527
 20
-27.4609942944
 30
0.0
 10
-75.200905285
 20
-27.4530628884
 30
0.0
 10
-75.2006085338
 20
-27.4477677785
 30
0.0
 10
-75.2005310176
 20
-27.4450078031
 30
0.0
 10
-75.2001755656
 20
-27.444227728
 30
0.0
 11
-75.2007716989
 21
-27.4704446088
 31
0.0
 11
-75.2008603965
 21
-27.4603011913
 31
0.0
 11
-75.2008116175
 21
-27.4522039523
 31
0.0
 11
-75.2005879853
 21
-27.4467661684
 31
0.0
 11
-75.2001755656
 21
-27.444227728
 31
0.0
  0
LINE
  5
40B
100
AcDbEntity
  8
RACCORDO
100
AcDbLine
 62
253
  6
CONTINUOUS
 10
-72.1025620271
 20
45.3089319044
 11
-72.5088609382
 21
46.1780806773
  0
SPLINE
  5
40C
100
AcDbEntity
  8
0
100
AcDbSpline
 62
7
  6
CONTINUOUS
 70
0
 71
3
 72
14
 73
10
 74
8
 42
0.0000001
 43
0.0000001
 44
0.0000000001
 12
-0.0083701986
 22
0.0956764241
 32
0.0
 13
-0.0960236674
 23
0.0018691342
 33
0.0
 40
0.0
 40
0.0
 40
0.0
 40
0.0
 40
0.4955210555
 40
0.6649250482
 40
0.7920854511
 40
0.884852511
 40
0.9481607873
 40
0.9854543094
 40
1.0
 40
1.0
 40
1.0
 40
1.0
 10
-75.2177913147
 20
-27.0556736864
 30
0.0
 10
-75.2191738513
 20
-27.0398704588
 30
0.0
 10
-75.22110595
 20
-27.0186535803
 30
0.0
 10
-75.2238391594
 20
-26.9934758788
 30
0.0
 10
-75.2253770442
 20
-26.9810489354
 30
0.0
 10
-75.2266835751
 20
-26.9722105364
 30
0.0
 10
-75.2277956985
 20
-26.9658300684
 30
0.0
 10
-75.2286779171
 20
-26.9627481501
 30
0.0
 10
-75.2293545191
 20
-26.9606539934
 30
0.0
 10
-75.229820096
 20
-26.9606449308
 30
0.0
 11
-75.2177913147
 21
-27.0556736864
 31
0.0
 11
-75.2222547837
 21
-27.0082926973
 31
0.0
 11
-75.2240332543
 21
-26.9921203182
 31
0.0
 11
-75.225561632
 21
-26.9800036098
 31
0.0
 11
-75.2268822359
 21
-26.9711925052
 31
0.0
 11
-75.2280214243
 21
-26.9652199327
 31
0.0
 11
-75.2289968203
 21
-26.9617735639
 31
0.0
 11
-75.229820096
 21
-26.9606449308
 31
0.0
  0
SPLINE
  5
40D
100
AcDbEntity
  8
0
100
AcDbSpline
 62
7
  6
CONTINUOUS
 70
0
 71
3
 72
13
 73
9
 74
7
 42
0.0000001
 43
0.0000001
 44
0.0000000001
 12
0.0042742522
 22
0.3305118982
 32
0.0
 13
-0.0196920991
 23
0.3299524288
 33
0.0
 40
0.0
 40
0.0
 40
0.0
 40
0.0
 40
0.0683768263
 40
0.1781235344
 40
0.2946765392
 40
0.4180508794
 40
0.6922670882
 40
1.0
 40
1.0
 40
1.0
 40
1.0
 10
-75.1281173101
 20
-28.4697704409
 30
0.0
 10
-75.1280198902
 20
-28.4622373227
 30
0.0
 10
-75.1294925651
 20
-28.4426358762
 30
0.0
 10
-75.1309540022
 20
-28.410215543
 30
0.0
 10
-75.1331192496
 20
-28.3717442643
 30
0.0
 10
-75.1361917772
 20
-28.3151812608
 30
0.0
 10
-75.1406271773
 20
-28.2375943112
 30
0.0
 10
-75.1444021842
 20
-28.1735867778
 30
0.0
 10
-75.1464221532
 20
-28.1397410372
 30
0.0
 11
-75.1281173101
 21
-28.4697704409
 31
0.0
 11
-75.1290636955
 21
-28.4471890193
 31
0.0
 11
-75.1309858559
 21
-28.4109643547
 31
0.0
 11
-75.1330647707
 21
-28.372495111
 31
0.0
 11
-75.1353023063
 21
-28.3317764452
 31
0.0
 11
-75.1404420406
 21
-28.2412829897
 31
0.0
 11
-75.1464221532
 21
-28.1397410372
 31
0.0
  0
LINE
  5
40E
100
AcDbEntity
  8
0
100
AcDbLine
 62
7
  6
CONTINUOUS
 10
-75.1621322573
 20
-27.8826683023
 11
-75.1715158502
 21
-27.7333873419
  0
LINE
  5
40F
100
AcDbEntity
  8
0
100
AcDbLine
 62
7
  6
CONTINUOUS
 10
-75.1715158502
 20
-27.7333873419
 11
-75.1855133326
 21
-27.515391326
  0
SPLINE
  5
410
100
AcDbEntity
  8
0
100
AcDbSpline
 62
7
  6
CONTINUOUS
 70
0
 71
3
 72
10
 73
6
 74
4
 42
0.0000001
 43
0.0000001
 44
0.0000000001
 12
-0.029995314
 22
0.459876218
 32
0.0
 13
-0.0401826148
 23
0.4590982598
 33
0.0
 40
0.0
 40
0.0
 40
0.0
 40
0.0
 40
0.6013477259
 40
0.8336170536
 40
1.0
 40
1.0
 40
1.0
 40
1.0
 10
-75.1855133326
 20
-27.515391326
 30
0.0
 10
-75.1915258706
 20
-27.4232094867
 30
0.0
 10
-75.1999876639
 20
-27.2954291826
 30
0.0
 10
-75.2110039871
 20
-27.1422084155
 30
0.0
 10
-75.2155627475
 20
-27.0811357268
 30
0.0
 10
-75.2177913147
 20
-27.0556736864
 30
0.0
 11
-75.1855133326
 21
-27.515391326
 31
0.0
 11
-75.2041095715
 21
-27.238882811
 31
0.0
 11
-75.2117865299
 21
-27.132116349
 31
0.0
 11
-75.2177913147
 21
-27.0556736864
 31
0.0
  0
LINE
  5
411
100
AcDbEntity
  8
0
100
AcDbLine
 62
7
  6
CONTINUOUS
 10
-75.127016777
 20
-28.4863142497
 11
-75.1281173101
 21
-28.4697704409
  0
LINE
  5
412
100
AcDbEntity
  8
0
100
AcDbLine
 62
7
  6
CONTINUOUS
 10
-75.086141856
 20
-29.0354900409
 11
-75.0956498497
 21
-28.9034690871
  0
SPLINE
  5
413
100
AcDbEntity
  8
0
100
AcDbSpline
 62
7
  6
CONTINUOUS
 70
0
 71
3
 72
10
 73
6
 74
4
 42
0.0000001
 43
0.0000001
 44
0.0000000001
 12
-0.0300361854
 22
0.4172554755
 32
0.0
 13
-0.0384327902
 23
0.4165659911
 33
0.0
 40
0.0
 40
0.0
 40
0.0
 40
0.0
 40
0.5799678547
 40
0.8268547727
 40
1.0
 40
1.0
 40
1.0
 40
1.0
 10
-75.0956498497
 20
-28.9034690871
 30
0.0
 10
-75.1014565237
 20
-28.8228041661
 30
0.0
 10
-75.1097232007
 20
-28.7077990142
 30
0.0
 10
-75.1202188218
 20
-28.5687512418
 30
0.0
 10
-75.1247986256
 20
-28.5103563875
 30
0.0
 10
-75.127016777
 20
-28.4863142497
 30
0.0
 11
-75.0956498497
 21
-28.9034690871
 31
0.0
 11
-75.1132557945
 21
-28.6614877795
 31
0.0
 11
-75.1210519704
 21
-28.5585009682
 31
0.0
 11
-75.127016777
 21
-28.4863142497
 31
0.0
  0
SPLINE
  5
414
100
AcDbEntity
  8
RACCORDO
100
AcDbSpline
 62
253
  6
CONTINUOUS
 70
0
 71
3
 72
9
 73
5
 74
3
 42
0.0000001
 43
0.0000001
 44
0.0000000001
 12
-0.1381895259
 22
0.5960838619
 32
0.0
 13
-0.2397810794
 23
0.5629541273
 33
0.0
 40
0.0
 40
0.0
 40
0.0
 40
0.0
 40
0.5545879796
 40
1.0
 40
1.0
 40
1.0
 40
1.0
 10
-71.8046666876
 20
44.4562950614
 30
0.0
 10
-71.8302127709
 20
44.5664887096
 30
0.0
 10
-71.8810629451
 20
44.7641097714
 30
0.0
 10
-71.9473599388
 20
44.9574909014
 30
0.0
 10
-71.9829603971
 20
45.0410730798
 30
0.0
 11
-71.8046666876
 21
44.4562950614
 31
0.0
 11
-71.8913655063
 21
44.7843811738
 31
0.0
 11
-71.9829603971
 21
45.0410730798
 31
0.0
  0
SPLINE
  5
415
100
AcDbEntity
  8
RACCORDO
100
AcDbSpline
 62
253
  6
CONTINUOUS
 70
0
 71
3
 72
13
 73
9
 74
7
 42
0.0000001
 43
0.0000001
 44
0.0000000001
 12
0.1304616118
 22
-0.2568987094
 32
0.0
 13
0.2875509896
 23
0.0182100917
 33
0.0
 40
0.0
 40
0.0
 40
0.0
 40
0.0
 40
0.0433619278
 40
0.1124518346
 40
0.2090338916
 40
0.3314321426
 40
0.6393265336
 40
1.0
 40
1.0
 40
1.0
 40
1.0
 10
-72.83638515
 20
-32.5121084337
 30
0.0
 10
-72.834499461
 20
-32.5158216415
 30
0.0
 10
-72.8250755339
 20
-32.5225029797
 30
0.0
 10
-72.8062732357
 20
-32.5289905217
 30
0.0
 10
-72.7790190176
 20
-32.5346276267
 30
0.0
 10
-72.7287906803
 20
-32.5405982802
 30
0.0
 10
-72.6527147626
 20
-32.5430817467
 30
0.0
 10
-72.5885169118
 20
-32.5408934403
 30
0.0
 10
-72.5539462411
 20
-32.5387041413
 30
0.0
 11
-72.83638515
 21
-32.5121084337
 31
0.0
 11
-72.8271289061
 21
-32.5204998319
 31
0.0
 11
-72.8086118182
 21
-32.5278068779
 31
0.0
 11
-72.7814306814
 21
-32.5337715933
 31
0.0
 11
-72.7464449719
 21
-32.5382109671
 31
0.0
 11
-72.6578135205
 21
-32.5420067183
 31
0.0
 11
-72.5539462411
 21
-32.5387041413
 31
0.0
  0
SPLINE
  5
416
100
AcDbEntity
  8
RACCORDO
100
AcDbSpline
 62
253
  6
CONTINUOUS
 70
0
 71
3
 72
14
 73
10
 74
8
 42
0.0000001
 43
0.0000001
 44
0.0000000001
 12
0.1716591581
 22
-0.2276945542
 32
0.0
 13
0.2847526205
 23
0.0150871372
 33
0.0
 40
0.0
 40
0.0
 40
0.0
 40
0.0
 40
0.0364026143
 40
0.1025852069
 40
0.1984662266
 40
0.3215897773
 40
0.4681592244
 40
0.6336511849
 40
1.0
 40
1.0
 40
1.0
 40
1.0
 10
-73.1026688417
 20
-28.5342969156
 30
0.0
 10
-73.1005858944
 20
-28.5370598079
 30
0.0
 10
-73.0907623897
 20
-28.5407793207
 30
0.0
 10
-73.0727498552
 20
-28.5446955163
 30
0.0
 10
-73.0455738067
 20
-28.5477904491
 30
0.0
 10
-73.0109734858
 20
-28.549976195
 30
0.0
 10
-72.9695858404
 20
-28.5510818939
 30
0.0
 10
-72.9051101752
 20
-28.5510368434
 30
0.0
 10
-72.8545645979
 20
-28.5492657365
 30
0.0
 10
-72.8197916695
 20
-28.5474233515
 30
0.0
 11
-73.1026688417
 21
-28.5342969156
 31
0.0
 11
-73.0936787024
 21
-28.5394860956
 31
0.0
 11
-73.0753227232
 21
-28.5438694955
 31
0.0
 11
-73.0481968943
 21
-28.5472902366
 31
0.0
 11
-73.01316687
 21
-28.5496427533
 31
0.0
 11
-72.9713898605
 21
-28.5508543369
 31
0.0
 11
-72.9241995013
 21
-28.5508821125
 31
0.0
 11
-72.8197916695
 21
-28.5474233515
 31
0.0
  0
SPLINE
  5
417
100
AcDbEntity
  8
RACCORDO
100
AcDbSpline
 62
253
  6
CONTINUOUS
 70
0
 71
3
 72
15
 73
11
 74
9
 42
0.0000001
 43
0.0000001
 44
0.0000000001
 12
0.1835310102
 22
-0.2182140323
 32
0.0
 13
0.2849519016
 23
0.010169039
 33
0.0
 40
0.0
 40
0.0
 40
0.0
 40
0.0
 40
0.0140729511
 40
0.0353816106
 40
0.1010973165
 40
0.1968940708
 40
0.3201623869
 40
0.4670205937
 40
0.6328824868
 40
1.0
 40
1.0
 40
1.0
 40
1.0
 10
-73.2990866736
 20
-24.6153005988
 30
0.0
 10
-73.2982257327
 20
-24.6163242373
 30
0.0
 10
-73.295261601
 20
-24.6181304267
 30
0.0
 10
-73.2862546486
 20
-24.6213934199
 30
0.0
 10
-73.2690496866
 20
-24.6245645658
 30
0.0
 10
-73.2421853272
 20
-24.6275775165
 30
0.0
 10
-73.2074495717
 20
-24.6297927393
 30
0.0
 10
-73.1660364496
 20
-24.6311764696
 30
0.0
 10
-73.1014176191
 20
-24.6317849374
 30
0.0
 10
-73.0507578976
 20
-24.6307638458
 30
0.0
 10
-73.0158876198
 20
-24.629519435
 30
0.0
 11
-73.2990866736
 21
-24.6153005988
 31
0.0
 11
-73.2958380247
 21
-24.6176559705
 31
0.0
 11
-73.290184784
 21
-24.6198822489
 31
0.0
 11
-73.2718745351
 21
-24.6238618879
 31
0.0
 11
-73.244751979
 21
-24.6270972639
 31
0.0
 11
-73.2096854752
 21
-24.6294879254
 31
0.0
 11
-73.1678371588
 21
-24.6309589972
 31
0.0
 11
-73.1205470617
 21
-24.631459726
 31
0.0
 11
-73.0158876198
 21
-24.629519435
 31
0.0
  0
SPLINE
  5
418
100
AcDbEntity
  8
RACCORDO
100
AcDbSpline
 62
253
  6
CONTINUOUS
 70
0
 71
3
 72
15
 73
11
 74
9
 42
0.0000001
 43
0.0000001
 44
0.0000000001
 12
0.1835308833
 22
0.218214158
 32
0.0
 13
0.2849519161
 23
-0.0101690405
 33
0.0
 40
0.0
 40
0.0
 40
0.0
 40
0.0
 40
0.0140729452
 40
0.0353815988
 40
0.1010972956
 40
0.1968940454
 40
0.3201623613
 40
0.4670205716
 40
0.6328824709
 40
1.0
 40
1.0
 40
1.0
 40
1.0
 10
-73.2990866886
 20
22.7845209737
 30
0.0
 10
-73.2982257486
 20
22.7855446124
 30
0.0
 10
-73.2952616181
 20
22.7873508023
 30
0.0
 10
-73.2862546676
 20
22.7906137959
 30
0.0
 10
-73.2690497064
 20
22.7937849422
 30
0.0
 10
-73.2421853471
 20
22.7967978934
 30
0.0
 10
-73.20744959
 20
22.7990131165
 30
0.0
 10
-73.1660364648
 20
22.8003968469
 30
0.0
 10
-73.1014176286
 20
22.8010053148
 30
0.0
 10
-73.0507579024
 20
22.7999842231
 30
0.0
 10
-73.0158876213
 20
22.798739812
 30
0.0
 11
-73.2990866886
 21
22.7845209737
 31
0.0
 11
-73.2958380418
 21
22.7868763458
 31
0.0
 11
-73.2901848027
 21
22.7891026245
 31
0.0
 11
-73.2718745556
 21
22.7930822641
 31
0.0
 11
-73.2447519994
 21
22.7963176406
 31
0.0
 11
-73.2096854939
 21
22.7987083025
 31
0.0
 11
-73.1678371744
 21
22.8001793746
 31
0.0
 11
-73.1205470731
 21
22.8006801034
 31
0.0
 11
-73.0158876213
 21
22.798739812
 31
0.0
  0
SPLINE
  5
419
100
AcDbEntity
  8
RACCORDO
100
AcDbSpline
 62
253
  6
CONTINUOUS
 70
0
 71
3
 72
14
 73
10
 74
8
 42
0.0000001
 43
0.0000001
 44
0.0000000001
 12
0.1716591807
 22
0.227694534
 32
0.0
 13
0.284752618
 23
-0.0150871369
 33
0.0
 40
0.0
 40
0.0
 40
0.0
 40
0.0
 40
0.0364026163
 40
0.1025852106
 40
0.198466231
 40
0.3215897818
 40
0.4681592283
 40
0.6336511877
 40
1.0
 40
1.0
 40
1.0
 40
1.0
 10
-73.1026688392
 20
26.7035172897
 30
0.0
 10
-73.1005858914
 20
26.7062801819
 30
0.0
 10
-73.0907623867
 20
26.7099996945
 30
0.0
 10
-73.0727498518
 20
26.7139158901
 30
0.0
 10
-73.0455738033
 20
26.7170108227
 30
0.0
 10
-73.0109734826
 20
26.7191965685
 30
0.0
 10
-72.9695858378
 20
26.7203022674
 30
0.0
 10
-72.9051101735
 20
26.720257217
 30
0.0
 10
-72.854564597
 20
26.7184861101
 30
0.0
 10
-72.8197916692
 20
26.7166437252
 30
0.0
 11
-73.1026688392
 21
26.7035172897
 31
0.0
 11
-73.0936786992
 21
26.7087064695
 31
0.0
 11
-73.0753227197
 21
26.7130898692
 31
0.0
 11
-73.0481968908
 21
26.7165106103
 31
0.0
 11
-73.0131668668
 21
26.7188631269
 31
0.0
 11
-72.9713898579
 21
26.7200747104
 31
0.0
 11
-72.9241994993
 21
26.7201024861
 31
0.0
 11
-72.8197916692
 21
26.7166437252
 31
0.0
  0
SPLINE
  5
41A
100
AcDbEntity
  8
RACCORDO
100
AcDbSpline
 62
253
  6
CONTINUOUS
 70
0
 71
3
 72
13
 73
9
 74
7
 42
0.0000001
 43
0.0000001
 44
0.0000000001
 12
0.130464188
 22
0.2568972978
 32
0.0
 13
0.2875508975
 23
-0.0182100887
 33
0.0
 40
0.0
 40
0.0
 40
0.0
 40
0.0
 40
0.0433621169
 40
0.1124522066
 40
0.2090343746
 40
0.3314326547
 40
0.6393268853
 40
1.0
 40
1.0
 40
1.0
 40
1.0
 10
-72.8363850827
 20
30.6813288021
 30
0.0
 10
-72.8344993483
 20
30.6850420057
 30
0.0
 10
-72.8250753742
 20
30.6917233087
 30
0.0
 10
-72.8062730271
 20
30.698210842
 30
0.0
 10
-72.7790187843
 20
30.7038479264
 30
0.0
 10
-72.7287904622
 20
30.7098185592
 30
0.0
 10
-72.6527146159
 20
30.7123020111
 30
0.0
 10
-72.5885168348
 20
30.7101137044
 30
0.0
 10
-72.5539462089
 20
30.707924408
 30
0.0
 11
-72.8363850827
 21
30.6813288021
 31
0.0
 11
-72.8271287508
 21
30.6897201784
 31
0.0
 11
-72.8086116047
 21
30.697027203
 31
0.0
 11
-72.7814304399
 21
30.7029918988
 31
0.0
 11
-72.7464447313
 21
30.707431256
 31
0.0
 11
-72.6578133536
 21
30.7112269864
 31
0.0
 11
-72.5539462089
 21
30.707924408
 31
0.0
  0
SPLINE
  5
41B
100
AcDbEntity
  8
RACCORDO
100
AcDbSpline
 62
253
  6
CONTINUOUS
 70
0
 71
3
 72
11
 73
7
 74
5
 42
0.0000001
 43
0.0000001
 44
0.0000000001
 12
0.0649923714
 22
0.398924816
 32
0.0
 13
0.4035343771
 23
0.0229133946
 33
0.0
 40
0.0
 40
0.0
 40
0.0
 40
0.0
 40
0.2488680775
 40
0.4986087271
 40
0.7491306991
 40
1.0
 40
1.0
 40
1.0
 40
1.0
 10
-72.0849601474
 20
44.2057803331
 30
0.0
 10
-72.0795686386
 20
44.2388735504
 30
0.0
 10
-72.0571510821
 20
44.3038414446
 30
0.0
 10
-71.9929924505
 20
44.3841741866
 30
0.0
 10
-71.9057408153
 20
44.4390230156
 30
0.0
 10
-71.8384071566
 20
44.4543606543
 30
0.0
 10
-71.8046623609
 20
44.4562767433
 30
0.0
 11
-72.0849601474
 21
44.2057803331
 31
0.0
 11
-72.0521367114
 21
44.3008628586
 31
0.0
 11
-71.9892547633
 21
44.3798248797
 31
0.0
 11
-71.9035113222
 21
44.4336863351
 31
0.0
 11
-71.8046623609
 21
44.4562767433
 31
0.0
  0
LINE
  5
41C
100
AcDbEntity
  8
0
100
AcDbLine
 62
7
  6
CONTINUOUS
 10
-75.1045339759
 20
-28.9444472893
 11
-75.1213779431
 21
-28.6975417377
  0
SPLINE
  5
41D
100
AcDbEntity
  8
RACCORDO
100
AcDbSpline
 62
253
  6
CONTINUOUS
 70
0
 71
3
 72
11
 73
7
 74
5
 42
0.0000001
 43
0.0000001
 44
0.0000000001
 12
0.0648298486
 22
0.399859255
 32
0.0
 13
0.4044564572
 23
0.022479042
 33
0.0
 40
0.0
 40
0.0
 40
0.0
 40
0.0
 40
0.2496315045
 40
0.4995862821
 40
0.7497734679
 40
1.0
 40
1.0
 40
1.0
 40
1.0
 10
-72.2632038237
 20
44.7894225143
 30
0.0
 10
-72.2578092995
 20
44.8226950034
 30
0.0
 10
-72.2354345426
 20
44.8879654184
 30
0.0
 10
-72.1713182498
 20
44.9687363595
 30
0.0
 10
-72.0840670979
 20
45.0238496188
 30
0.0
 10
-72.0166954601
 20
45.0391976924
 30
0.0
 10
-71.9829602145
 20
45.0410726433
 30
0.0
 11
-72.2632038237
 21
44.7894225143
 31
0.0
 11
-72.2303688583
 21
44.8850640318
 31
0.0
 11
-72.1674951663
 21
44.9644292302
 31
0.0
 11
-72.0817758685
 21
45.0184959598
 31
0.0
 11
-71.9829602145
 21
45.0410726433
 31
0.0
  0
LINE
  5
41E
100
AcDbEntity
  8
0
100
AcDbLine
 62
7
  6
CONTINUOUS
 10
-75.1273926349
 20
-28.8017808129
 11
-75.1342907025
 21
-28.6985850168
  0
LINE
  5
41F
100
AcDbEntity
  8
0
100
AcDbLine
 62
7
  6
CONTINUOUS
 10
-75.1342907025
 20
-28.6985850168
 11
-75.1351047371
 21
-28.6863528905
  0
LINE
  5
420
100
AcDbEntity
  8
0
100
AcDbLine
 62
7
  6
CONTINUOUS
 10
-75.0499739782
 20
-29.7931908129
 11
-75.0911562933
 21
-29.2340252836
  0
LINE
  5
421
100
AcDbEntity
  8
0
100
AcDbLine
 62
7
  6
CONTINUOUS
 10
-75.0911562933
 20
-29.2340252836
 11
-75.111812332
 21
-28.9449755435
  0
LINE
  5
422
100
AcDbEntity
  8
0
100
AcDbLine
 62
7
  6
CONTINUOUS
 10
-75.111812332
 20
-28.9449755435
 11
-75.1177858516
 21
-28.8602425219
  0
LINE
  5
423
100
AcDbEntity
  8
0
100
AcDbLine
 62
7
  6
CONTINUOUS
 10
-75.1177858516
 20
-28.8602425219
 11
-75.1219123704
 21
-28.8013998454
  0
LINE
  5
424
100
AcDbEntity
  8
0
100
AcDbLine
 62
7
  6
CONTINUOUS
 10
-75.1219123704
 20
-28.8013998454
 11
-75.1291018938
 21
-28.6982657636
  0
LINE
  5
425
100
AcDbEntity
  8
0
100
AcDbLine
 62
7
  6
CONTINUOUS
 10
-75.1291018938
 20
-28.6982657636
 11
-75.1604124119
 21
-28.239587687
  0
LINE
  5
426
100
AcDbEntity
  8
0
100
AcDbLine
 62
7
  6
CONTINUOUS
 10
-75.1890635705
 20
-27.8052268732
 11
-75.1918222522
 21
-27.7626106403
  0
LINE
  5
427
100
AcDbEntity
  8
0
100
AcDbLine
 62
7
  6
CONTINUOUS
 10
-75.1918222522
 20
-27.7626106403
 11
-75.2114684854
 21
-27.4548246174
  0
LINE
  5
428
100
AcDbEntity
  8
0
100
AcDbLine
 62
7
  6
CONTINUOUS
 10
-75.2114684854
 20
-27.4548246174
 11
-75.2120990444
 21
-27.4448177417
  0
LINE
  5
429
100
AcDbEntity
  8
0
100
AcDbLine
 62
7
  6
CONTINUOUS
 10
-75.2120990444
 20
-27.4448177417
 11
-75.2379928276
 21
-27.026570043
  0
LINE
  5
42A
100
AcDbEntity
  8
0
100
AcDbLine
 62
7
  6
CONTINUOUS
 10
-75.2379928276
 20
-27.026570043
 11
-75.2400025236
 21
-26.9934878129
  0
LINE
  5
42B
100
AcDbEntity
  8
0
100
AcDbLine
 62
7
  6
CONTINUOUS
 10
-75.0583522073
 20
-29.7931908129
 11
-75.0628235136
 21
-29.7310940133
  0
LINE
  5
42C
100
AcDbEntity
  8
0
100
AcDbLine
 62
7
  6
CONTINUOUS
 10
-75.1000036306
 20
-29.2346586243
 11
-75.1201524678
 21
-28.9455310464
  0
LINE
  5
42D
100
AcDbEntity
  8
0
100
AcDbLine
 62
7
  6
CONTINUOUS
 10
-75.1201524678
 20
-28.9455310464
 11
-75.1260165837
 21
-28.8602436236
  0
LINE
  5
42E
100
AcDbEntity
  8
0
100
AcDbLine
 62
7
  6
CONTINUOUS
 10
-75.1260165837
 20
-28.8602436236
 11
-75.1300033403
 21
-28.8019577404
  0
LINE
  5
42F
100
AcDbEntity
  8
0
100
AcDbLine
 62
7
  6
CONTINUOUS
 10
-75.1982328373
 20
-27.7630195593
 11
-75.2174197131
 21
-27.4551711879
  0
LINE
  5
430
100
AcDbEntity
  8
0
100
AcDbLine
 62
7
  6
CONTINUOUS
 10
-75.2174197131
 20
-27.4551711879
 11
-75.2180354151
 21
-27.4451656694
  0
LINE
  5
431
100
AcDbEntity
  8
0
100
AcDbLine
 62
7
  6
CONTINUOUS
 10
-75.2180354151
 20
-27.4451656694
 11
-75.2433301529
 21
-27.0268819753
  0
LINE
  5
432
100
AcDbEntity
  8
0
100
AcDbLine
 62
7
  6
CONTINUOUS
 10
-75.2433301529
 20
-27.0268819753
 11
-75.2453121365
 21
-26.9934878129
  0
SPLINE
  5
433
100
AcDbEntity
  8
0
100
AcDbSpline
 62
253
  6
CONTINUOUS
 70
0
 71
3
 72
10
 73
6
 74
4
 42
0.0000001
 43
0.0000001
 44
0.0000000001
 12
-2.7847983184
 22
0.3242269735
 32
0.0
 13
-2.8028916879
 23
-0.0634270478
 33
0.0
 40
0.0
 40
0.0
 40
0.0
 40
0.0
 40
0.2115366448
 40
0.4538224025
 40
1.0
 40
1.0
 40
1.0
 40
1.0
 10
-66.7221402645
 20
-28.3619198246
 30
0.0
 10
-66.9185025621
 20
-28.3390578626
 30
0.0
 10
-67.341061484
 20
-28.3009508544
 30
0.0
 10
-68.2743861116
 20
-28.2511580283
 30
0.0
 10
-69.0118480485
 20
-28.2481270307
 30
0.0
 10
-69.5221402645
 20
-28.2596745083
 30
0.0
 11
-66.7221402645
 21
-28.3619198246
 31
0.0
 11
-67.3126489457
 21
-28.3069026609
 31
0.0
 11
-67.9909045915
 21
-28.2697106136
 31
0.0
 11
-69.5221402645
 21
-28.2596745083
 31
0.0
  0
SPLINE
  5
434
100
AcDbEntity
  8
RACCORDO
100
AcDbSpline
 62
253
  6
CONTINUOUS
 70
0
 71
3
 72
11
 73
7
 74
5
 42
0.0000001
 43
0.0000001
 44
0.0000000001
 12
0.0648298526
 22
-0.3998592526
 32
0.0
 13
0.4044564555
 23
-0.02247904
 33
0.0
 40
0.0
 40
0.0
 40
0.0
 40
0.0
 40
0.2496315045
 40
0.4995862821
 40
0.7497734679
 40
1.0
 40
1.0
 40
1.0
 40
1.0
 10
-72.2632038244
 20
-46.6202021402
 30
0.0
 10
-72.2578092999
 20
-46.6534746291
 30
0.0
 10
-72.2354345425
 20
-46.7187450436
 30
0.0
 10
-72.1713182492
 20
-46.7995159838
 30
0.0
 10
-72.0840670973
 20
-46.8546292422
 30
0.0
 10
-72.0166954598
 20
-46.8699773153
 30
0.0
 10
-71.9829602144
 20
-46.8718522661
 30
0.0
 11
-72.2632038244
 21
-46.6202021402
 31
0.0
 11
-72.2303688583
 21
-46.715843657
 31
0.0
 11
-72.1674951658
 21
-46.7952088545
 31
0.0
 11
-72.081775868
 21
-46.8492755832
 31
0.0
 11
-71.9829602144
 21
-46.8718522661
 31
0.0
  0
SPLINE
  5
435
100
AcDbEntity
  8
RACCORDO
100
AcDbSpline
 62
253
  6
CONTINUOUS
 70
0
 71
3
 72
11
 73
7
 74
5
 42
0.0000001
 43
0.0000001
 44
0.0000000001
 12
0.06499316
 22
-0.3989241914
 32
0.0
 13
0.4035338992
 23
-0.0229131722
 33
0.0
 40
0.0
 40
0.0
 40
0.0
 40
0.0
 40
0.2488680796
 40
0.4986087306
 40
0.7491307019
 40
1.0
 40
1.0
 40
1.0
 40
1.0
 10
-72.0849601564
 20
-46.0365599603
 30
0.0
 10
-72.0795685821
 20
-46.0696531261
 30
0.0
 10
-72.0571509264
 20
-46.1346208942
 30
0.0
 10
-71.9929922527
 20
-46.2149534376
 30
0.0
 10
-71.9057406667
 20
-46.2698021008
 30
0.0
 10
-71.8384070831
 20
-46.2851396736
 30
0.0
 10
-71.8046623278
 20
-46.2870557441
 30
0.0
 11
-72.0849601564
 21
-46.0365599603
 31
0.0
 11
-72.0521365736
 21
-46.1316423071
 31
0.0
 11
-71.9892545804
 21
-46.2106041367
 31
0.0
 11
-71.9035111838
 21
-46.2644654317
 31
0.0
 11
-71.8046623278
 21
-46.2870557441
 31
0.0
  0
SPLINE
  5
436
100
AcDbEntity
  8
0
100
AcDbSpline
 62
253
  6
CONTINUOUS
 70
0
 71
3
 72
10
 73
6
 74
4
 42
0.0000001
 43
0.0000001
 44
0.0000000001
 12
-2.7870483627
 22
0.2993900987
 32
0.0
 13
-2.8024932603
 23
-0.0574850663
 33
0.0
 40
0.0
 40
0.0
 40
0.0
 40
0.0
 40
0.211372752
 40
0.4536524943
 40
1.0
 40
1.0
 40
1.0
 40
1.0
 10
-66.7221402645
 20
-28.6061162366
 30
0.0
 10
-66.9185089586
 20
-28.5850219335
 30
0.0
 10
-67.3410583898
 20
-28.5498452113
 30
0.0
 10
-68.2743805516
 20
-28.5037739513
 30
0.0
 10
-69.0117618637
 20
-28.5007670857
 30
0.0
 10
-69.5221402645
 20
-28.5112360266
 30
0.0
 11
-66.7221402645
 21
-28.6061162366
 31
0.0
 11
-67.3124559342
 21
-28.5553411159
 31
0.0
 11
-67.9907136552
 21
-28.520928139
 31
0.0
 11
-69.5221402645
 21
-28.5112360266
 31
0.0
  0
SPLINE
  5
437
100
AcDbEntity
  8
0
100
AcDbSpline
 62
253
  6
CONTINUOUS
 70
0
 71
3
 72
10
 73
6
 74
4
 42
0.0000001
 43
0.0000001
 44
0.0000000001
 12
-2.796317191
 22
-0.1620962136
 32
0.0
 13
-2.8009913017
 23
0.0106180626
 33
0.0
 40
0.0
 40
0.0
 40
0.0
 40
0.0
 40
0.2102050263
 40
0.4525030521
 40
1.0
 40
1.0
 40
1.0
 40
1.0
 10
-66.7221402645
 20
-32.242457735
 30
0.0
 10
-66.918073574
 20
-32.2538155479
 30
0.0
 10
-67.3401569903
 20
-32.2730888634
 30
0.0
 10
-68.2734595179
 20
-32.3000994659
 30
0.0
 10
-69.0109622016
 20
-32.3056166028
 30
0.0
 10
-69.5221402645
 20
-32.3036788172
 30
0.0
 11
-66.7221402645
 21
-32.242457735
 31
0.0
 11
-67.3102729887
 21
-32.2702003738
 31
0.0
 11
-67.9886528315
 21
-32.2903673227
 31
0.0
 11
-69.5221402645
 21
-32.3036788172
 31
0.0
  0
SPLINE
  5
438
100
AcDbEntity
  8
0
100
AcDbSpline
 62
253
  6
CONTINUOUS
 70
0
 71
3
 72
10
 73
6
 74
4
 42
0.0000001
 43
0.0000001
 44
0.0000000001
 12
-2.7949887109
 22
-0.189344728
 32
0.0
 13
-2.8013731079
 23
0.0110467431
 33
0.0
 40
0.0
 40
0.0
 40
0.0
 40
0.0
 40
0.2102405523
 40
0.4525499525
 40
1.0
 40
1.0
 40
1.0
 40
1.0
 10
-66.7221402645
 20
-32.4066254984
 30
0.0
 10
-66.9180135879
 20
-32.4198948118
 30
0.0
 10
-67.3400476892
 20
-32.4424572151
 30
0.0
 10
-68.2733360598
 20
-32.4742316123
 30
0.0
 10
-69.0109363175
 20
-32.480964822
 30
0.0
 10
-69.5221402645
 20
-32.4789489753
 30
0.0
 11
-66.7221402645
 21
-32.4066254984
 31
0.0
 11
-67.3102115248
 21
-32.4390923182
 31
0.0
 11
-67.9886014467
 21
-32.4628075479
 31
0.0
 11
-69.5221402645
 21
-32.4789489753
 31
0.0
  0
SPLINE
  5
439
100
AcDbEntity
  8
0
100
AcDbSpline
 62
253
  6
CONTINUOUS
 70
0
 71
3
 72
11
 73
7
 74
5
 42
0.0000001
 43
0.0000001
 44
0.0000000001
 12
3.1377900767
 22
0.1533971673
 32
0.0
 13
2.19327224
 23
2.2491807703
 33
0.0
 40
0.0
 40
0.0
 40
0.0
 40
0.0
 40
0.2458555129
 40
0.4911837802
 40
0.7414036198
 40
1.0
 40
1.0
 40
1.0
 40
1.0
 10
-69.5221402645
 20
-45.84104686
 30
0.0
 10
-69.2649926016
 20
-45.8284756802
 30
0.0
 10
-68.7522862776
 20
-45.7559049982
 30
0.0
 10
-68.0127907171
 20
-45.5056848708
 30
0.0
 10
-67.3207121718
 20
-45.1160980387
 30
0.0
 10
-66.9111976852
 20
-44.7691932307
 30
0.0
 10
-66.7221402645
 20
-44.5753165622
 30
0.0
 11
-69.5221402645
 21
-45.84104686
 31
0.0
 11
-68.7574448264
 21
-45.732476685
 31
0.0
 11
-68.0273527146
 21
-45.4855835538
 31
0.0
 11
-67.342287082
 21
-45.1000981959
 31
0.0
 11
-66.7221402645
 21
-44.5753165622
 31
0.0
  0
SPLINE
  5
43A
100
AcDbEntity
  8
0
100
AcDbSpline
 62
253
  6
CONTINUOUS
 70
0
 71
3
 72
11
 73
7
 74
5
 42
0.0000001
 43
0.0000001
 44
0.0000000001
 12
3.1422484917
 22
0.1535119327
 32
0.0
 13
2.1885743535
 23
2.2599632289
 33
0.0
 40
0.0
 40
0.0
 40
0.0
 40
0.0
 40
0.2452308319
 40
0.4901025679
 40
0.7404412225
 40
1.0
 40
1.0
 40
1.0
 40
1.0
 10
-69.5221402645
 20
-45.9107754208
 30
0.0
 10
-69.2652815273
 20
-45.8982268012
 30
0.0
 10
-68.7529746665
 20
-45.8253818984
 30
0.0
 10
-68.0138198227
 20
-45.5737150344
 30
0.0
 10
-67.3212651423
 20
-45.1812616144
 30
0.0
 10
-66.9114948258
 20
-44.8316899826
 30
0.0
 10
-66.7221402645
 20
-44.6361588849
 30
0.0
 11
-69.5221402645
 21
-45.9107754208
 31
0.0
 11
-68.7583716897
 21
-45.8018604402
 31
0.0
 11
-68.029047673
 21
-45.5537686732
 31
0.0
 11
-67.3437290083
 21
-45.1657015874
 31
0.0
 11
-66.7221402645
 21
-44.6361588849
 31
0.0
  0
ENDSEC
  0
SECTION
  2
OBJECTS
  0
DICTIONARY
  5
C
100
AcDbDictionary
280
0
281
1
  3
ACAD_GROUP
350
D
  3
ACAD_MLINESTYLE
350
17
  3
ACAD_LAYOUT
350
1A
  3
ACAD_PLOTSETTINGS
350
19
  3
ACAD_PLOTSTYLENAME
350
E
  0
DICTIONARY
  5
D
102
{ACAD_REACTORS
330
C
102
}
100
AcDbDictionary
280
0
281
1
  0
ACDBDICTIONARYWDFLT
  5
E
102
{ACAD_REACTORS
330
C
102
}
100
AcDbDictionary
281
1
  3
Normal
350
F
100
AcDbDictionaryWithDefault
340
F
  0
DICTIONARY
  5
17
102
{ACAD_REACTORS
330
C
102
}
100
AcDbDictionary
280
0
281
1
  3
Standard
350
18
  0
DICTIONARY
  5
19
102
{ACAD_REACTORS
330
C
102
}
100
AcDbDictionary
281
1
  0
DICTIONARY
  5
1A
102
{ACAD_REACTORS
330
C
102
}
100
AcDbDictionary
281
1
  3
Model
350
43B
  3
Layout1
350
43C
  0
ACDBPLACEHOLDER
  5
F
102
{ACAD_REACTORS
330
E
102
}
  0
MLINESTYLE
  5
18
102
{ACAD_REACTORS
330
17
102
}
100
AcDbMlineStyle
  2
STANDARD
 70
0
  3

 62
256
 51
90.0
 52
90.0
 71
2
 49
0.5
 62
256
  6
BYLAYER
 49
-0.5
 62
256
  6
BYLAYER
  0
LAYOUT
  5
43B
102
{ACAD_REACTORS
330
1A
102
}
100
AcDbPlotSettings
  1

  2
none_device
  4
ISO_A4_(297.00_x_210.00_MM)
  6

 40
0.0
 41
0.0
 42
0.0
 43
0.0
 44
297.0
 45
210.0
 46
0.0
 47
0.0
 48
0.0
 49
0.0
140
0.0
141
0.0
142
1.0
143
1.0
 70
1024
 72
1
 73
0
 74
0
  7

 75
0
147
1.0
148
0.0
149
0.0
100
AcDbLayout
  1
Model
 70
0
 71
0
 10
0.0
 20
0.0
 11
297.0
 21
210.0
 12
0.0
 22
0.0
 32
0.0
 14
0.0
 24
0.0
 34
0.0
 15
0.0
 25
0.0
 35
0.0
146
0.0
 13
0.0
 23
0.0
 33
0.0
 16
1.0
 26
0.0
 36
0.0
 17
0.0
 27
1.0
 37
0.0
 76
0
330
211
345
0
346
0
  0
LAYOUT
  5
43C
102
{ACAD_REACTORS
330
1A
102
}
100
AcDbPlotSettings
  1

  2
none_device
  4
ISO_A4_(297.00_x_210.00_MM)
  6

 40
0.0
 41
0.0
 42
0.0
 43
0.0
 44
297.0
 45
210.0
 46
0.0
 47
0.0
 48
0.0
 49
0.0
140
0.0
141
0.0
142
1.0
143
1.0
 70
0
 72
1
 73
0
 74
0
  7

 75
0
147
1.0
148
0.0
149
0.0
100
AcDbLayout
  1
Layout1
 70
0
 71
1
 10
0.0
 20
0.0
 11
297.0
 21
210.0
 12
0.0
 22
0.0
 32
0.0
 14
0.0
 24
0.0
 34
0.0
 15
0.0
 25
0.0
 35
0.0
146
0.0
 13
0.0
 23
0.0
 33
0.0
 16
1.0
 26
0.0
 36
0.0
 17
0.0
 27
1.0
 37
0.0
 76
0
330
212
345
0
346
0
  0
ENDSEC
  0
EOF
