  0
SECTION
  2
HEADER
  9
$ACADVER
  1
AC1021
  9
$DWGCODEPAGE
  3
ANSI_1252
  9
$EXTMAX
 10
297.0
 20
210.0
 30
0.0
  9
$EXTMIN
 10
0.0
 20
0.0
 30
0.0
  9
$LIMMIN
 10
0.0
 20
0.0
  9
$LIMMAX
 10
297.0
 20
210.0
  9
$VIEWCTR
 10
148.5
 20
105.0
  9
$VIEWSIZE
 40
210.0
  9
$CLAYER
  8
0
  9
$LTSCALE
 40
16.335
  9
$CELTYPE
  6
BYLAYER
  9
$DIMSCALE
 40
1.0
  9
$DIMASZ
 40
3.0
  9
$DIMEXO
 40
1.85625
  9
$DIMDLI
 40
11.286
  9
$DIMEXE
 40
5.346
  9
$DIMCEN
 40
2.673
  9
$DIMLFAC
 40
1.0
  9
$DIMBLK
  1
_FILLED
  9
$DIMTXT
 40
3.0
  9
$DIMTOL
 70
1
  9
$DIMLIM
 70
0
  9
$DIMTFAC
 40
1.0
  9
$DIMTP
 40
0.01
  9
$DIMTM
 40
0.01
  9
$PDMODE
 70
3
  9
$PDSIZE
 40
3.0
  9
$HANDSEED
  5
48D
  9
$TILEMODE
 70
1
  9
$MEASUREMENT
 70
1
  9
$INSUNITS
 70
4
  0
ENDSEC
  0
SECTION
  2
CLASSES
  0
CLASS
  1
ACDBDICTIONARYWDFLT
  2
AcDbDictionaryWithDefault
  3
AutoCAD 2000
 90
0
 91
1
280
0
281
0
  0
CLASS
  1
ACDBPLACEHOLDER
  2
AcDbPlaceHolder
  3
AutoCAD 2000
 90
0
 91
1
280
0
281
0
  0
CLASS
  1
LAYOUT
  2
AcDbLayout
  3
AutoCAD 2000
 90
0
 91
0
280
0
281
0
  0
ENDSEC
  0
SECTION
  2
TABLES
  0
TABLE
  2
VPORT
  5
8
100
AcDbSymbolTable
 70
2
  0
VPORT
  5
1F4
100
AcDbSymbolTableRecord
100
AcDbViewportTableRecord
  2
*ACTIVE
 70
0
 10
0.0
 20
0.0
 11
1.0
 21
1.0
 12
148.5
 22
105.0
 13
0.0
 23
0.0
 14
1.0
 24
1.0
 15
0.0
 25
0.0
 16
0.0
 26
0.0
 36
1.0
 17
0.0
 27
0.0
 37
0.0
 40
210.0
 41
1.4142857143
 42
50.0
 43
0.0
 44
0.0
 50
0.0
 51
0.0
 71
0
 72
100
 73
1
 74
1
 75
0
 76
0
 77
0
 78
0
  0
ENDTAB
  0
TABLE
  2
LTYPE
  5
5
100
AcDbSymbolTable
 70
6
  0
LTYPE
  5
14
100
AcDbSymbolTableRecord
100
AcDbLinetypeTableRecord
  2
BYBLOCK
 70
0
  3

 72
65
 73
0
 40
0.0
  0
LTYPE
  5
15
100
AcDbSymbolTableRecord
100
AcDbLinetypeTableRecord
  2
BYLAYER
 70
0
  3

 72
65
 73
0
 40
0.0
  0
LTYPE
  5
16
100
AcDbSymbolTableRecord
100
AcDbLinetypeTableRecord
  2
CONTINUOUS
 70
64
  3
Solid line
 72
65
 73
0
 40
0.0
  0
LTYPE
  5
1F5
100
AcDbSymbolTableRecord
100
AcDbLinetypeTableRecord
  2
CENTER
 70
64
  3
____ _ ____ _ ____ _ ____ _ ____ _ ____ _ ____
 72
65
 73
4
 40
0.6
 49
0.375
 74
0
 49
-0.075
 74
0
 49
0.075
 74
0
 49
-0.075
 74
0
  0
LTYPE
  5
1F6
100
AcDbSymbolTableRecord
100
AcDbLinetypeTableRecord
  2
HIDDEN
 70
64
  3
- - - - - - - - - - - - - - - - - - - -
 72
65
 73
2
 40
0.2
 49
0.1
 74
0
 49
-0.1
 74
0
  0
LTYPE
  5
1F7
100
AcDbSymbolTableRecord
100
AcDbLinetypeTableRecord
  2
PHANTOM
 70
64
  3
_____ _ _ _____ _ _ _____ _ _ _____
 72
65
 73
6
 40
0.8
 49
0.45
 74
0
 49
-0.05
 74
0
 49
0.1
 74
0
 49
-0.05
 74
0
 49
0.1
 74
0
 49
-0.05
 74
0
  0
LTYPE
  5
1F8
100
AcDbSymbolTableRecord
100
AcDbLinetypeTableRecord
  2
DOT
 70
64
  3
. . . . . . . . . . . . . . . . . . . .
 72
65
 73
2
 40
0.2
 49
0.1
 74
0
 49
-0.1
 74
0
  0
LTYPE
  5
1F9
100
AcDbSymbolTableRecord
100
AcDbLinetypeTableRecord
  2
DASHED
 70
64
  3
- - - - - - - - - - - - - - - - - - - -
 72
65
 73
2
 40
0.2
 49
0.1
 74
0
 49
-0.1
 74
0
  0
ENDTAB
  0
TABLE
  2
LAYER
  5
2
100
AcDbSymbolTable
 70
36
  0
LAYER
  5
10
100
AcDbSymbolTableRecord
100
AcDbLayerTableRecord
  2
0
 70
0
 62
7
  6
CONTINUOUS
370
-3
390
F
  0
LAYER
  5
1FA
100
AcDbSymbolTableRecord
100
AcDbLayerTableRecord
  2
DEFAULT_1
 70
0
 62
7
  6
CENTER
370
-3
390
F
  0
LAYER
  5
1FB
100
AcDbSymbolTableRecord
100
AcDbLayerTableRecord
  2
DEFAULT_2
 70
0
 62
7
  6
HIDDEN
370
-3
390
F
  0
LAYER
  5
1FC
100
AcDbSymbolTableRecord
100
AcDbLayerTableRecord
  2
DEFAULT_3
 70
0
 62
7
  6
PHANTOM
370
-3
390
F
  0
LAYER
  5
1FD
100
AcDbSymbolTableRecord
100
AcDbLayerTableRecord
  2
ASSI
 70
0
 62
7
  6
CONTINUOUS
370
-3
390
F
  0
LAYER
  5
1FE
100
AcDbSymbolTableRecord
100
AcDbLayerTableRecord
  2
COORDINATE
 70
0
 62
7
  6
CONTINUOUS
370
-3
390
F
  0
LAYER
  5
1FF
100
AcDbSymbolTableRecord
100
AcDbLayerTableRecord
  2
COPY_PUBLISH
 70
0
 62
7
  6
CONTINUOUS
370
-3
390
F
  0
LAYER
  5
200
100
AcDbSymbolTableRecord
100
AcDbLayerTableRecord
  2
COSMETIC
 70
0
 62
7
  6
CONTINUOUS
370
-3
390
F
  0
LAYER
  5
201
100
AcDbSymbolTableRecord
100
AcDbLayerTableRecord
  2
COSMETICI
 70
0
 62
7
  6
CONTINUOUS
370
-3
390
F
  0
LAYER
  5
202
100
AcDbSymbolTableRecord
100
AcDbLayerTableRecord
  2
CURVE
 70
0
 62
7
  6
CONTINUOUS
370
-3
390
F
  0
LAYER
  5
203
100
AcDbSymbolTableRecord
100
AcDbLayerTableRecord
  2
DRAFT
 70
0
 62
7
  6
CONTINUOUS
370
-3
390
F
  0
LAYER
  5
204
100
AcDbSymbolTableRecord
100
AcDbLayerTableRecord
  2
IMPORT_IGES
 70
0
 62
7
  6
CONTINUOUS
370
-3
390
F
  0
LAYER
  5
205
100
AcDbSymbolTableRecord
100
AcDbLayerTableRecord
  2
NOTE
 70
0
 62
7
  6
CONTINUOUS
370
-3
390
F
  0
LAYER
  5
206
100
AcDbSymbolTableRecord
100
AcDbLayerTableRecord
  2
PIANI
 70
0
 62
7
  6
CONTINUOUS
370
-3
390
F
  0
LAYER
  5
207
100
AcDbSymbolTableRecord
100
AcDbLayerTableRecord
  2
PUNTI
 70
0
 62
7
  6
CONTINUOUS
370
-3
390
F
  0
LAYER
  5
208
100
AcDbSymbolTableRecord
100
AcDbLayerTableRecord
  2
RACCORDO
 70
0
 62
7
  6
CONTINUOUS
370
-3
390
F
  0
LAYER
  5
209
100
AcDbSymbolTableRecord
100
AcDbLayerTableRecord
  2
SIMBOLI
 70
0
 62
7
  6
CONTINUOUS
370
-3
390
F
  0
LAYER
  5
20A
100
AcDbSymbolTableRecord
100
AcDbLayerTableRecord
  2
SMUSSO
 70
0
 62
7
  6
CONTINUOUS
370
-3
390
F
  0
LAYER
  5
20B
100
AcDbSymbolTableRecord
100
AcDbLayerTableRecord
  2
SNAPLINE
 70
0
 62
7
  6
CONTINUOUS
370
-3
390
F
  0
LAYER
  5
20C
100
AcDbSymbolTableRecord
100
AcDbLayerTableRecord
  2
SUPERFICI
 70
0
 62
7
  6
CONTINUOUS
370
-3
390
F
  0
LAYER
  5
20D
100
AcDbSymbolTableRecord
100
AcDbLayerTableRecord
  2
TRASH
 70
0
 62
7
  6
CONTINUOUS
370
-3
390
F
  0
LAYER
  5
20E
100
AcDbSymbolTableRecord
100
AcDbLayerTableRecord
  2
XSEC_DATUMS
 70
0
 62
7
  6
CONTINUOUS
370
-3
390
F
  0
ENDTAB
  0
TABLE
  2
STYLE
  5
3
100
AcDbSymbolTable
 70
1
  0
STYLE
  5
11
100
AcDbSymbolTableRecord
100
AcDbTextStyleTableRecord
  2
STANDARD
 70
0
 40
0.0
 41
0.8
 50
0.0
 71
0
 42
0.2
  3
txt
  4

  0
STYLE
  5
20F
100
AcDbSymbolTableRecord
100
AcDbTextStyleTableRecord
  2
TEXTSTYLE_1
 70
0
 40
0.0
 41
0.8
 50
0.0
 71
0
 42
0.2
  3
gdt
  4

  0
ENDTAB
  0
TABLE
  2
VIEW
  5
6
100
AcDbSymbolTable
 70
0
  0
ENDTAB
  0
TABLE
  2
UCS
  5
7
100
AcDbSymbolTable
 70
0
  0
ENDTAB
  0
TABLE
  2
APPID
  5
9
100
AcDbSymbolTable
 70
1
  0
APPID
  5
210
100
AcDbSymbolTableRecord
100
AcDbRegAppTableRecord
  2
ACAD
 70
0
  0
ENDTAB
  0
TABLE
  2
BLOCK_RECORD
  5
1
100
AcDbSymbolTable
 70
0
  0
BLOCK_RECORD
  5
211
100
AcDbSymbolTableRecord
100
AcDbBlockTableRecord
  2
*Model_Space
  0
BLOCK_RECORD
  5
212
100
AcDbSymbolTableRecord
100
AcDbBlockTableRecord
  2
*Paper_Space
  0
BLOCK_RECORD
  5
213
100
AcDbSymbolTableRecord
100
AcDbBlockTableRecord
  2
_FILLED
  0
BLOCK_RECORD
  5
214
100
AcDbSymbolTableRecord
100
AcDbBlockTableRecord
  2
*D0
  0
BLOCK_RECORD
  5
215
100
AcDbSymbolTableRecord
100
AcDbBlockTableRecord
  2
*D1
  0
BLOCK_RECORD
  5
216
100
AcDbSymbolTableRecord
100
AcDbBlockTableRecord
  2
*D2
  0
ENDTAB
  0
TABLE
  2
DIMSTYLE
  5
A
100
AcDbSymbolTable
 70
1
100
AcDbDimStyleTable
 71
0
  0
DIMSTYLE
105
217
100
AcDbSymbolTableRecord
100
AcDbDimStyleTableRecord
  2
STANDARD
 70
0
  3

  4

 40
1.0
 41
3.0
 42
0.0625
 43
0.38
 44
0.18
 45
0.0
 46
0.0
 47
0.01
 48
0.01
140
3.0
141
0.09
142
0.0
143
25.4
144
1.0
145
0.0
146
1.0
147
0.09
 71
1.0
 72
0.0
 73
0
 74
0
 75
0
 76
0
 77
1
 78
8
170
0
171
2
172
0
173
0
174
0
175
0
176
0
177
0
178
0
270
2
271
2
272
2
273
2
274
2
275
0
280
0
281
0
282
0
283
1
284
8
285
0
286
0
287
3
288
0
340
11
341
213
342
213
343
213
344
213
  0
DIMSTYLE
105
218
100
AcDbSymbolTableRecord
100
AcDbDimStyleTableRecord
  2
DIMSTYLE_1
 70
0
  3

  4

 40
1.0
 41
3.0
 42
0.0625
 43
0.38
 44
0.18
 45
0.0
 46
0.0
 47
0.0
 48
0.0
140
3.0
141
0.09
142
0.0
143
25.4
144
1.0
145
0.0
146
1.0
147
0.09
 71
0.0
 72
0.0
 73
0
 74
0
 75
0
 76
0
 77
1
 78
8
170
0
171
2
172
0
173
0
174
0
175
0
176
0
177
0
178
0
270
2
271
2
272
2
273
2
274
2
275
0
280
0
281
0
282
0
283
1
284
8
285
0
286
0
287
3
288
0
340
11
341
213
342
213
343
213
344
213
  0
DIMSTYLE
105
219
100
AcDbSymbolTableRecord
100
AcDbDimStyleTableRecord
  2
DIMSTYLE_2
 70
0
  3

  4

 40
1.0
 41
3.0
 42
0.0625
 43
0.38
 44
0.18
 45
0.0
 46
0.0
 47
0.0
 48
0.0
140
3.0
141
0.09
142
0.0
143
25.4
144
1.0
145
0.0
146
1.0
147
0.09
 71
0.0
 72
0.0
 73
0
 74
0
 75
0
 76
0
 77
1
 78
8
170
0
171
2
172
0
173
0
174
0
175
0
176
0
177
0
178
0
270
2
271
1
272
1
273
2
274
2
275
0
280
0
281
0
282
0
283
1
284
8
285
0
286
0
287
3
288
0
340
11
341
213
342
213
343
213
344
213
  0
ENDTAB
  0
ENDSEC
  0
SECTION
  2
BLOCKS
  0
BLOCK
  5
20
100
AcDbEntity
  8
0
100
AcDbBlockBegin
  2
*Model_Space
 70
0
 10
0.0
 20
0.0
 30
0.0
  3
*Model_Space
  1

  0
ENDBLK
  5
21
100
AcDbEntity
  8
0
100
AcDbBlockEnd
  0
BLOCK
  5
1C
100
AcDbEntity
  8
0
100
AcDbBlockBegin
  2
*Paper_Space
 70
0
 10
0.0
 20
0.0
 30
0.0
  3
*Paper_Space
  1

  0
ENDBLK
  5
1D
100
AcDbEntity
  8
0
100
AcDbBlockEnd
  0
BLOCK
  5
21A
100
AcDbEntity
  8
0
100
AcDbBlockBegin
  2
_FILLED
 70
64
 10
0.0
 20
0.0
  3
_FILLED
  1

  0
SOLID
  5
21B
100
AcDbEntity
  8
0
  6
BYBLOCK
 62
0
100
AcDbTrace
 10
0.0
 20
0.0
 11
-1.0
 21
0.3166666667
 12
-1.0
 22
-0.3166666667
 13
-1.0
 23
-0.3166666667
  0
ENDBLK
  5
21C
100
AcDbEntity
  8
0
  6
BYBLOCK
 62
0
100
AcDbBlockEnd
  0
BLOCK
  5
21D
100
AcDbEntity
  8
0
100
AcDbBlockBegin
 62
7
  6
CONTINUOUS
  2
*D0
 70
65
 10
0.0
 20
0.0
  3
*D0
  1

  0
MTEXT
  5
21E
100
AcDbEntity
  8
0
100
AcDbMText
 62
7
  6
CONTINUOUS
  7
STANDARD
 71
2
 72
1
 10
71.7616005168
 20
0.3087318087
 30
0.0
 11
0.0
 21
1.0
 31
0.0
 44
0.9
  1
90
 40
3.0
 41
4.7142857143
  0
LINE
  5
21F
100
AcDbEntity
  8
0
100
AcDbLine
 62
7
  6
CONTINUOUS
 10
26.4227489575
 20
45.3087318087
 11
77.0116005168
 21
45.3087318087
  0
LINE
  5
220
100
AcDbEntity
  8
0
100
AcDbLine
 62
7
  6
CONTINUOUS
 10
20.8655764003
 20
-44.6912681913
 11
77.0116005168
 21
-44.6912681913
  0
LINE
  5
221
100
AcDbEntity
  8
0
100
AcDbLine
 62
7
  6
CONTINUOUS
 10
75.5116005168
 20
45.3087318087
 11
75.5116005168
 21
0.3087318087
  0
LINE
  5
222
100
AcDbEntity
  8
0
100
AcDbLine
 62
7
  6
CONTINUOUS
 10
75.5116005168
 20
-44.6912681913
 11
75.5116005168
 21
0.3087318087
  0
INSERT
  5
223
100
AcDbEntity
  8
0
100
AcDbBlockReference
 62
7
  6
CONTINUOUS
  2
_FILLED
 10
75.5116005168
 20
45.3087318087
 41
3.0
 42
3.0
 43
3.0
 50
90.0
  0
INSERT
  5
224
100
AcDbEntity
  8
0
100
AcDbBlockReference
 62
7
  6
CONTINUOUS
  2
_FILLED
 10
75.5116005168
 20
-44.6912681913
 41
3.0
 42
3.0
 43
3.0
 50
270.0
  0
ENDBLK
  5
225
100
AcDbEntity
  8
0
  6
BYBLOCK
 62
0
100
AcDbBlockEnd
  0
BLOCK
  5
226
100
AcDbEntity
  8
0
100
AcDbBlockBegin
 62
7
  6
CONTINUOUS
  2
*D1
 70
65
 10
0.0
 20
0.0
  3
*D1
  1

  0
MTEXT
  5
227
100
AcDbEntity
  8
0
100
AcDbMText
 62
7
  6
CONTINUOUS
  7
STANDARD
 71
2
 72
1
 10
0.5289352113
 20
62.0587318087
 30
0.0
 11
1.0
 21
0.0
 31
0.0
 44
0.9
  1
122
 40
3.0
 41
6.4285714286
  0
LINE
  5
228
100
AcDbEntity
  8
0
100
AcDbLine
 62
7
  6
CONTINUOUS
 10
61.5289352113
 20
23.7309659842
 11
61.5289352113
 21
59.8087318087
  0
LINE
  5
229
100
AcDbEntity
  8
0
100
AcDbLine
 62
7
  6
CONTINUOUS
 10
-60.4710647887
 20
23.7309659842
 11
-60.4710647887
 21
59.8087318087
  0
LINE
  5
22A
100
AcDbEntity
  8
0
100
AcDbLine
 62
7
  6
CONTINUOUS
 10
61.5289352113
 20
58.3087318087
 11
0.5289352113
 21
58.3087318087
  0
LINE
  5
22B
100
AcDbEntity
  8
0
100
AcDbLine
 62
7
  6
CONTINUOUS
 10
-60.4710647887
 20
58.3087318087
 11
0.5289352113
 21
58.3087318087
  0
INSERT
  5
22C
100
AcDbEntity
  8
0
100
AcDbBlockReference
 62
7
  6
CONTINUOUS
  2
_FILLED
 10
61.5289352113
 20
58.3087318087
 41
3.0
 42
3.0
 43
3.0
  0
INSERT
  5
22D
100
AcDbEntity
  8
0
100
AcDbBlockReference
 62
7
  6
CONTINUOUS
  2
_FILLED
 10
-60.4710647887
 20
58.3087318087
 41
3.0
 42
3.0
 43
3.0
 50
180.0
  0
ENDBLK
  5
22E
100
AcDbEntity
  8
0
  6
BYBLOCK
 62
0
100
AcDbBlockEnd
  0
BLOCK
  5
22F
100
AcDbEntity
  8
0
100
AcDbBlockBegin
 62
7
  6
CONTINUOUS
  2
*D2
 70
65
 10
0.0
 20
0.0
  3
*D2
  1

  0
MTEXT
  5
230
100
AcDbEntity
  8
0
100
AcDbMText
 62
7
  6
CONTINUOUS
  7
STANDARD
 71
2
 72
1
 10
-94.5106152653
 20
62.0587318087
 30
0.0
 11
1.0
 21
0.0
 31
0.0
 44
0.9
  1
8,2
 40
3.0
 41
6.4285714286
  0
LINE
  5
231
100
AcDbEntity
  8
0
100
AcDbLine
 62
7
  6
CONTINUOUS
 10
-90.4154564072
 20
23.7309659842
 11
-90.4154564072
 21
59.8087318087
  0
LINE
  5
232
100
AcDbEntity
  8
0
100
AcDbLine
 62
7
  6
CONTINUOUS
 10
-98.6057741234
 20
23.7309659842
 11
-98.6057741234
 21
59.8087318087
  0
LINE
  5
233
100
AcDbEntity
  8
0
100
AcDbLine
 62
7
  6
CONTINUOUS
 10
-90.4154564072
 20
58.3087318087
 11
-86.4154564072
 21
58.3087318087
  0
LINE
  5
234
100
AcDbEntity
  8
0
100
AcDbLine
 62
7
  6
CONTINUOUS
 10
-86.4154564072
 20
58.3087318087
 11
-94.5106152653
 21
58.3087318087
  0
LINE
  5
235
100
AcDbEntity
  8
0
100
AcDbLine
 62
7
  6
CONTINUOUS
 10
-98.6057741234
 20
58.3087318087
 11
-102.6057741234
 21
58.3087318087
  0
LINE
  5
236
100
AcDbEntity
  8
0
100
AcDbLine
 62
7
  6
CONTINUOUS
 10
-102.6057741234
 20
58.3087318087
 11
-94.5106152653
 21
58.3087318087
  0
INSERT
  5
237
100
AcDbEntity
  8
0
100
AcDbBlockReference
 62
7
  6
CONTINUOUS
  2
_FILLED
 10
-90.4154564072
 20
58.3087318087
 41
3.0
 42
3.0
 43
3.0
 50
180.0
  0
INSERT
  5
238
100
AcDbEntity
  8
0
100
AcDbBlockReference
 62
7
  6
CONTINUOUS
  2
_FILLED
 10
-98.6057741234
 20
58.3087318087
 41
3.0
 42
3.0
 43
3.0
  0
ENDBLK
  5
239
100
AcDbEntity
  8
0
  6
BYBLOCK
 62
0
100
AcDbBlockEnd
  0
ENDSEC
  0
SECTION
  2
ENTITIES
  0
DIMENSION
  5
23A
100
AcDbEntity
  8
0
100
AcDbDimension
 62
7
  6
CONTINUOUS
  2
*D0
 10
75.5116005168
 20
-44.6912681913
 11
74.3177740405
 21
-1.7985460412
 70
160
 71
2
 42
90.0
  3
DIMSTYLE_1
100
AcDbAlignedDimension
 13
26.4227489575
 23
45.3087318087
 14
20.8655764003
 24
-44.6912681913
 50
270.0
100
AcDbRotatedDimension
  0
DIMENSION
  5
23B
100
AcDbEntity
  8
0
100
AcDbDimension
 62
7
  6
CONTINUOUS
  2
*D1
 10
-60.4710647887
 20
58.3087318087
 11
-2.685350503
 21
60.5587318087
 70
160
 71
2
 42
122.0
  3
DIMSTYLE_1
100
AcDbAlignedDimension
 13
61.5289352113
 23
23.7309659842
 14
-60.4710647887
 24
23.7309659842
 50
180.0
100
AcDbRotatedDimension
  0
DIMENSION
  5
23C
100
AcDbEntity
  8
0
100
AcDbDimension
 62
7
  6
CONTINUOUS
  2
*D2
 10
-98.6057741234
 20
58.3087318087
 11
-97.7249009796
 21
60.5587318087
 70
160
 71
2
 42
8.1903177161
  3
DIMSTYLE_2
100
AcDbAlignedDimension
 13
-90.4154564072
 23
23.7309659842
 14
-98.6057741234
 24
23.7309659842
 50
180.0
100
AcDbRotatedDimension
  0
LWPOLYLINE
  5
23D
100
AcDbEntity
  8
RACCORDO
100
AcDbPolyline
 62
253
  6
CONTINUOUS
 90
9
 70
0
 10
-58.9798797439
 20
-25.2815996545
 10
-58.9312513934
 20
-25.7259390165
 10
-58.87943007
 20
-26.1700102786
 10
-58.8244161534
 20
-26.6137942715
 10
-58.7662107494
 20
-27.0572647274
 10
-58.7048159475
 20
-27.5003883036
 10
-58.640233533
 20
-27.9431387536
 10
-58.5724647299
 20
-28.3854969053
 10
-58.5015112569
 20
-28.8274400456
  0
LWPOLYLINE
  5
23E
100
AcDbEntity
  8
RACCORDO
100
AcDbPolyline
 62
253
  6
CONTINUOUS
 90
9
 70
0
 10
-58.6986256876
 20
-25.2663977286
 10
-58.6502247445
 20
-25.7092423618
 10
-58.598645657
 20
-26.1518016975
 10
-58.5438883381
 20
-26.594095336
 10
-58.4859537665
 20
-27.0360993612
 10
-58.4248440131
 20
-27.4777463718
 10
-58.3605601243
 20
-27.9190125124
 10
-58.293102096
 20
-28.3599174415
 10
-58.2224704699
 20
-28.8004590711
  0
LINE
  5
23F
100
AcDbEntity
  8
RACCORDO
100
AcDbLine
 62
253
  6
CONTINUOUS
 10
-59.0409413548
 20
-24.677992513
 11
-58.9798797439
 21
-25.2815996545
  0
LINE
  5
240
100
AcDbEntity
  8
RACCORDO
100
AcDbLine
 62
253
  6
CONTINUOUS
 10
-58.7594607781
 20
-24.6641933964
 11
-58.6986256876
 21
-25.2663977286
  0
LINE
  5
241
100
AcDbEntity
  8
RACCORDO
100
AcDbLine
 62
253
  6
CONTINUOUS
 10
-59.1625251485
 20
-23.4054867814
 11
-59.0409413548
 21
-24.677992513
  0
LINE
  5
242
100
AcDbEntity
  8
RACCORDO
100
AcDbLine
 62
253
  6
CONTINUOUS
 10
-58.880937494
 20
-23.3912299726
 11
-58.7594607781
 21
-24.6641933964
  0
LWPOLYLINE
  5
243
100
AcDbEntity
  8
RACCORDO
100
AcDbPolyline
 62
253
  6
CONTINUOUS
 90
16
 70
0
 10
-58.8809367495
 20
24.0086938747
 10
-59.1548645234
 20
20.853992195
 10
-59.3897005363
 20
17.6974533716
 10
-59.5854192803
 20
14.5392026575
 10
-59.7419873233
 20
11.3793191676
 10
-59.8593992201
 20
8.2179750907
 10
-59.9376776881
 20
5.0554357402
 10
-59.9768258055
 20
1.8912886587
 10
-59.9768259836
 20
-1.2738008146
 10
-59.9376780923
 20
-4.4379502927
 10
-59.8593995729
 20
-7.6004960333
 10
-59.7419874881
 20
-10.7618488947
 10
-59.5854192969
 20
-13.9217387705
 10
-59.3897005076
 20
-17.0799918755
 10
-59.1548644954
 20
-20.2365306933
 10
-58.8809367709
 20
-23.3912299726
  0
LWPOLYLINE
  5
244
100
AcDbEntity
  8
RACCORDO
100
AcDbPolyline
 62
253
  6
CONTINUOUS
 90
16
 70
0
 10
-59.1625251485
 20
24.0229503988
 10
-59.4367365722
 20
20.8669089161
 10
-59.6717901985
 20
17.7083405635
 10
-59.8676736079
 20
14.547719427
 10
-60.0243660309
 20
11.3858226225
 10
-60.1418878006
 20
8.2228209235
 10
-60.2202619134
 20
5.0582772112
 10
-60.2594675019
 20
1.8921210853
 10
-60.2594676598
 20
-1.2746318446
 10
-60.2202623448
 20
-4.4407903722
 10
-60.1418883262
 20
-7.6053404236
 10
-60.0243663871
 20
-10.7683508557
 10
-59.8676736992
 20
-13.9302541722
 10
-59.6717901195
 20
-17.0908780663
 10
-59.4367364347
 20
-20.2494469627
 10
-59.1625251485
 20
-23.4054867814
  0
LINE
  5
245
100
AcDbEntity
  8
RACCORDO
100
AcDbLine
 62
253
  6
CONTINUOUS
 10
-58.7594607791
 20
25.2816570028
 11
-58.8809374673
 21
24.0086938747
  0
LINE
  5
246
100
AcDbEntity
  8
RACCORDO
100
AcDbLine
 62
253
  6
CONTINUOUS
 10
-59.0409414242
 20
25.2954554221
 11
-59.1625251485
 21
24.0229503988
  0
LWPOLYLINE
  5
247
100
AcDbEntity
  8
RACCORDO
100
AcDbPolyline
 62
253
  6
CONTINUOUS
 90
10
 70
0
 10
-58.2224704699
 20
29.4179226885
 10
-58.2931023523
 20
28.9773793029
 10
-58.3605605658
 20
28.5364730588
 10
-58.424844569
 20
28.0952060444
 10
-58.4859543572
 20
27.6535586048
 10
-58.5438888929
 20
27.2115545924
 10
-58.5986461321
 20
26.7692613984
 10
-58.6502251048
 20
26.326702936
 10
-58.6986258895
 20
25.8838596083
 10
-58.7594607791
 20
25.2816570028
  0
LWPOLYLINE
  5
248
100
AcDbEntity
  8
RACCORDO
100
AcDbPolyline
 62
253
  6
CONTINUOUS
 90
10
 70
0
 10
-58.5015135914
 20
29.444889461
 10
-58.5724658321
 20
29.0029534982
 10
-58.6402337762
 20
28.5606007427
 10
-58.704815666
 20
28.1178539012
 10
-58.7662103024
 20
27.6747316603
 10
-58.8244157898
 20
27.2312607392
 10
-58.879429827
 20
26.7874759153
 10
-58.9312512463
 20
26.3434039358
 10
-58.9798797209
 20
25.8990634899
 10
-59.0409414242
 20
25.2954554221
  0
LWPOLYLINE
  5
249
100
AcDbEntity
  8
RACCORDO
100
AcDbPolyline
 62
253
  6
CONTINUOUS
 90
43
 70
0
 10
44.885051232
 20
-42.8103372147
 10
45.3896766185
 20
-42.7451698522
 10
45.8932553723
 20
-42.6645118401
 10
46.3953014552
 20
-42.568333183
 10
46.8954425801
 20
-42.4565905593
 10
47.3930659629
 20
-42.3293065225
 10
47.8873280739
 20
-42.1866053863
 10
48.3777478702
 20
-42.0285480999
 10
48.8638290149
 20
-41.8552182366
 10
49.3447258645
 20
-41.6668631016
 10
49.8199366346
 20
-41.4636394901
 10
50.2890227243
 20
-41.2456969213
 10
50.7512630707
 20
-41.0133519227
 10
51.2061024673
 20
-40.7668779442
 10
51.6532136787
 20
-40.5064482541
 10
52.0922363838
 20
-40.232267397
 10
52.5227250047
 20
-39.9445942669
 10
52.9442762825
 20
-39.6436796867
 10
53.35659471
 20
-39.329718449
 10
53.7593008787
 20
-39.0029593553
 10
54.1519559365
 20
-38.6637183586
 10
54.5341805222
 20
-38.3122982403
 10
54.9055997903
 20
-37.949000949
 10
55.2658232743
 20
-37.574165268
 10
55.6144655444
 20
-37.1881683136
 10
55.9511908288
 20
-36.7913402189
 10
56.2756353914
 20
-36.3840670663
 10
56.5874011647
 20
-35.9668353942
 10
56.8861554512
 20
-35.5400695741
 10
57.1716228895
 20
-35.104141238
 10
57.4435210831
 20
-34.6594788014
 10
57.7015876354
 20
-34.2064850275
 10
57.945552232
 20
-33.7456060889
 10
58.1751481145
 20
-33.2773503659
 10
58.3902147878
 20
-32.8020147369
 10
58.5904653713
 20
-32.3201995168
 10
58.7755197008
 20
-31.832899989
 10
58.9452459551
 20
-31.3405943568
 10
59.0995232761
 20
-30.8437732386
 10
59.2381115405
 20
-30.3434883811
 10
59.3609355771
 20
-29.84043021
 10
59.4680275846
 20
-29.3349107417
 10
59.5593839987
 20
-28.827425841
  0
LWPOLYLINE
  5
24A
100
AcDbEntity
  8
RACCORDO
100
AcDbPolyline
 62
253
  6
CONTINUOUS
 90
43
 70
0
 10
44.8632316603
 20
-42.5561648609
 10
45.3596908104
 20
-42.4921117478
 10
45.8541993844
 20
-42.4127844122
 10
46.3467595874
 20
-42.318180143
 10
46.8379862928
 20
-42.2082275973
 10
47.3272683894
 20
-42.0829911757
 10
47.8127687667
 20
-41.9426710952
 10
48.2944674449
 20
-41.7871708093
 10
48.7723867167
 20
-41.6165771796
 10
49.2447524363
 20
-41.4313650994
 10
49.7115084612
 20
-41.2314569089
 10
50.172711514
 20
-41.0169184595
 10
50.6267562184
 20
-40.7884398472
 10
51.0735082117
 20
-40.5460173878
 10
51.5131005923
 20
-40.2896416281
 10
51.944328652
 20
-40.0199942683
 10
52.367157588
 20
-39.7370507259
 10
52.7816191394
 20
-39.4408217169
 10
53.1866079438
 20
-39.1320424023
 10
53.5821343935
 20
-38.8106490681
 10
53.9681833357
 20
-38.4766914959
 10
54.3436107119
 20
-38.1310759539
 10
54.7083953515
 20
-37.7737476542
 10
55.0625521674
 20
-37.4047482136
 10
55.4049909908
 20
-37.0251297782
 10
55.7356865291
 20
-36.6348267515
 10
56.0546566285
 20
-36.2338930529
 10
56.3608757958
 20
-35.8235617667
 10
56.6542746558
 20
-35.4038269682
 10
56.9349143768
 20
-34.9746851335
 10
57.2019654701
 20
-34.5373748604
 10
57.4553904897
 20
-34.0918506073
 10
57.6952183218
 20
-33.6381509636
 10
57.9207194012
 20
-33.1776427853
 10
58.1318811565
 20
-32.7101469362
 10
58.3287077083
 20
-32.2358383807
 10
58.510495358
 20
-31.7566176267
 10
58.677135785
 20
-31.2724332426
 10
58.8287298053
 20
-30.7833360637
 10
58.9648887188
 20
-30.2913828433
 10
59.085481301
 20
-29.7972606891
 10
59.190632997
 20
-29.3002855844
 10
59.2803408925
 20
-28.8004590711
  0
LWPOLYLINE
  5
24B
100
AcDbEntity
  8
RACCORDO
100
AcDbPolyline
 62
253
  6
CONTINUOUS
 90
43
 70
0
 10
-58.5015112435
 20
-28.8274400433
 10
-58.410150646
 20
-29.3349440104
 10
-58.3030556169
 20
-29.8404720541
 10
-58.1802306708
 20
-30.3435284813
 10
-58.0416454316
 20
-30.843798506
 10
-57.8873753049
 20
-31.3405950492
 10
-57.7176581314
 20
-31.8328755427
 10
-57.5326139105
 20
-32.3201518228
 10
-57.3323753228
 20
-32.8019433906
 10
-57.1173218295
 20
-33.277256704
 10
-56.8877403485
 20
-33.7454912345
 10
-56.6437911694
 20
-34.2063504013
 10
-56.3857396058
 20
-34.6593281445
 10
-56.1138547634
 20
-35.1039796181
 10
-55.8283995577
 20
-35.5399004538
 10
-55.5296575138
 20
-35.96666014
 10
-55.2179046602
 20
-36.3838860318
 10
-54.8934728976
 20
-36.7911547639
 10
-54.5567593192
 20
-37.1879807677
 10
-54.208126714
 20
-37.5739786602
 10
-53.8479113928
 20
-37.9488173101
 10
-53.4765000917
 20
-38.3121180615
 10
-53.0942831412
 20
-38.6635422109
 10
-52.7016354628
 20
-39.0027876916
 10
-52.2989383272
 20
-39.3295501845
 10
-51.8866313556
 20
-39.6435134123
 10
-51.4650934332
 20
-39.9444292673
 10
-51.0346201722
 20
-40.2321031302
 10
-50.5956163858
 20
-40.5062834735
 10
-50.1485262994
 20
-40.7667125698
 10
-49.6937057235
 20
-41.0131884559
 10
-49.2314818549
 20
-41.2455375832
 10
-48.7624096118
 20
-41.4634863343
 10
-48.2872047389
 20
-41.6667200438
 10
-47.8063040312
 20
-41.8550890274
 10
-47.320210462
 20
-42.028435093
 10
-46.8297686783
 20
-42.186510389
 10
-46.3354739589
 20
-42.3292307382
 10
-45.8378080629
 20
-42.4565340525
 10
-45.3376162854
 20
-42.5682947558
 10
-44.8355120338
 20
-42.6644894918
 10
-44.331867025
 20
-42.7451610507
 10
-43.8271673798
 20
-42.8103387464
  0
LWPOLYLINE
  5
24C
100
AcDbEntity
  8
RACCORDO
100
AcDbPolyline
 62
253
  6
CONTINUOUS
 90
43
 70
0
 10
-58.2224704699
 20
-28.8004590711
 10
-58.1327449112
 20
-29.3003567104
 10
-58.0275806666
 20
-29.7973798715
 10
-57.9069806589
 20
-30.2915270255
 10
-57.7708206025
 20
-30.7834747669
 10
-57.6192305815
 20
-31.2725434418
 10
-57.4525958462
 20
-31.756698611
 10
-57.2708146321
 20
-32.2358962369
 10
-57.0739962066
 20
-32.7101809518
 10
-56.8628436532
 20
-33.1776541501
 10
-56.6373532552
 20
-33.6381407564
 10
-56.3975371787
 20
-34.0918200164
 10
-56.1441231598
 20
-34.5373273045
 10
-55.8770814513
 20
-34.9746255043
 10
-55.5964503578
 20
-35.4037586789
 10
-55.3030601187
 20
-35.8234860331
 10
-54.9968501822
 20
-36.2338101247
 10
-54.6778893062
 20
-36.634737843
 10
-54.3472018852
 20
-37.0250368047
 10
-54.0047693191
 20
-37.4046538694
 10
-53.6506176536
 20
-37.7736538512
 10
-53.2858382191
 20
-38.1309829628
 10
-52.9104158499
 20
-38.4765994596
 10
-52.5243719695
 20
-38.810558257
 10
-52.1288525566
 20
-39.1319518292
 10
-51.7238733468
 20
-39.4407297702
 10
-51.3094233651
 20
-39.73695642
 10
-50.8866081464
 20
-40.0198972365
 10
-50.4553975038
 20
-40.2895408759
 10
-50.0158246877
 20
-40.5459125491
 10
-49.5690899224
 20
-40.7883330573
 10
-49.115060495
 20
-41.0168123993
 10
-48.6538703828
 20
-41.2313537112
 10
-48.1871193223
 20
-41.4312677573
 10
-47.7147491789
 20
-41.6164896361
 10
-47.2368175079
 20
-41.7870960552
 10
-46.7550970518
 20
-41.942610129
 10
-46.269560172
 20
-42.0829457685
 10
-45.7802321945
 20
-42.2081987478
 10
-45.2889648652
 20
-42.3181645426
 10
-44.796374173
 20
-42.4127773178
 10
-44.3018403656
 20
-42.4921098533
 10
-43.8053612376
 20
-42.5561648609
  0
LWPOLYLINE
  5
24D
100
AcDbEntity
  8
RACCORDO
100
AcDbPolyline
 62
253
  6
CONTINUOUS
 90
10
 70
0
 10
39.8816084638
 20
-43.0016682611
 10
40.4359027739
 20
-42.9640897008
 10
40.9900238505
 20
-42.9235296277
 10
41.5439721573
 20
-42.8799877667
 10
42.0977787753
 20
-42.8334614663
 10
42.6514135214
 20
-42.7839527693
 10
43.20478495
 20
-42.7314684137
 10
43.757862861
 20
-42.6760104052
 10
44.3106782964
 20
-42.6175760171
 10
44.8632316603
 20
-42.5561648609
  0
LWPOLYLINE
  5
24E
100
AcDbEntity
  8
RACCORDO
100
AcDbPolyline
 62
253
  6
CONTINUOUS
 90
10
 70
0
 10
39.8905255146
 20
-43.2564543935
 10
40.4462430035
 20
-43.2188230204
 10
41.0018178128
 20
-43.1782053215
 10
41.5572338255
 20
-43.134601412
 10
42.1124912939
 20
-43.0880100002
 10
42.667557702
 20
-43.0384326952
 10
43.2223678479
 20
-42.9858748847
 10
43.7768893306
 20
-42.9303395794
 10
44.3311224706
 20
-42.8718265365
 10
44.8850512282
 20
-42.8103371823
  0
LWPOLYLINE
  5
24F
100
AcDbEntity
  8
RACCORDO
100
AcDbPolyline
 62
253
  6
CONTINUOUS
 90
19
 70
0
 10
-38.8326547876
 20
-43.2564544153
 10
-34.4704884784
 20
-43.5243148004
 10
-30.1047168518
 20
-43.7608402619
 10
-25.7355592502
 20
-43.9659789405
 10
-21.362895434
 20
-44.139695175
 10
-16.9872860831
 20
-44.2819203216
 10
-12.6099737638
 20
-44.3925778547
 10
-8.2312510544
 20
-44.4716420224
 10
-3.8512707107
 20
-44.5190945115
 10
0.5289328768
 20
-44.5349127818
 10
4.9091360096
 20
-44.5190945482
 10
9.2891157244
 20
-44.4716421051
 10
13.6678387339
 20
-44.3925779729
 10
18.0451533061
 20
-44.2819204147
 10
22.4207658372
 20
-44.1396951763
 10
26.79343179
 20
-43.9659788486
 10
31.1625898286
 20
-43.7608401319
 10
35.5283608506
 20
-43.5243146868
 10
39.8905255147
 20
-43.2564543954
  0
LWPOLYLINE
  5
250
100
AcDbEntity
  8
RACCORDO
100
AcDbPolyline
 62
253
  6
CONTINUOUS
 90
19
 70
0
 10
-38.8237380411
 20
-43.0016682611
 10
-34.4622258358
 20
-43.2699085449
 10
-30.0975093066
 20
-43.5066504288
 10
-25.7296095774
 20
-43.7119108768
 10
-21.3580002635
 20
-43.8857649303
 10
-16.9832443924
 20
-44.0281651884
 10
-12.6069946469
 20
-44.1389418073
 10
-8.2293319816
 20
-44.2180615901
 10
-3.8502043816
 20
-44.2655720181
 10
0.5289362907
 20
-44.2814208346
 10
4.9080765026
 20
-44.2655720197
 10
9.2872034593
 20
-44.2180615933
 10
13.6648664048
 20
-44.1389417766
 10
18.041118635
 20
-44.028165038
 10
22.4158779142
 20
-43.8857646248
 10
26.7874888235
 20
-43.711910497
 10
31.1553874236
 20
-43.5066500945
 10
35.5201010115
 20
-43.2699083372
 10
39.8816084638
 20
-43.0016682611
  0
LWPOLYLINE
  5
251
100
AcDbEntity
  8
RACCORDO
100
AcDbPolyline
 62
253
  6
CONTINUOUS
 90
10
 70
0
 10
-43.8271673755
 20
-42.8103387093
 10
-43.273246905
 20
-42.8718270934
 10
-42.7190199867
 20
-42.9303394685
 10
-42.164502656
 20
-42.9858743751
 10
-41.6096941015
 20
-43.0384320674
 10
-41.0546272078
 20
-43.0880094513
 10
-40.4993686381
 20
-43.1346009869
 10
-39.9439513958
 20
-43.1782050178
 10
-39.3883747401
 20
-43.2188228684
 10
-38.8326547875
 20
-43.2564544133
  0
LWPOLYLINE
  5
252
100
AcDbEntity
  8
RACCORDO
100
AcDbPolyline
 62
253
  6
CONTINUOUS
 90
10
 70
0
 10
-43.8053612376
 20
-42.5561648609
 10
-43.252808424
 20
-42.61757596
 10
-42.6999934011
 20
-42.6760103073
 10
-42.1469157647
 20
-42.7314682912
 10
-41.5935444727
 20
-42.7839526412
 10
-41.0399097254
 20
-42.8334613487
 10
-40.4861029693
 20
-42.879987668
 10
-39.9321543879
 20
-42.9235295536
 10
-39.3780328997
 20
-42.9640896596
 10
-38.8237380411
 20
-43.0016682611
  0
LINE
  5
253
100
AcDbEntity
  8
RACCORDO
100
AcDbLine
 62
253
  6
CONTINUOUS
 10
-43.8053612381
 20
43.1736284802
 11
-43.8110435941
 21
43.2264461699
  0
LINE
  5
254
100
AcDbEntity
  8
RACCORDO
100
AcDbLine
 62
253
  6
CONTINUOUS
 10
-43.8110435941
 20
43.2264461699
 11
-43.8161273916
 21
43.2760635105
  0
LWPOLYLINE
  5
255
100
AcDbEntity
  8
RACCORDO
100
AcDbPolyline
 62
253
  6
CONTINUOUS
 90
11
 70
0
 10
-43.8161273916
 20
43.2760635105
 10
-43.8204436495
 20
43.3208312641
 10
-43.8222679837
 20
43.3409238393
 10
-43.8238488993
 20
43.3592613888
 10
-43.8251732317
 20
43.3756912135
 10
-43.8262299532
 20
43.3900765003
 10
-43.8270102642
 20
43.4022974611
 10
-43.8275076671
 20
43.4122523305
 10
-43.8277180198
 20
43.4198582132
 10
-43.8276395709
 20
43.4250517739
 10
-43.8272729734
 20
43.4277897654
  0
LWPOLYLINE
  5
256
100
AcDbEntity
  8
RACCORDO
100
AcDbPolyline
 62
253
  6
CONTINUOUS
 90
9
 70
0
 10
-43.8222680218
 20
-42.7234605223
 10
-43.8238489422
 20
-42.7417981144
 10
-43.8251732791
 20
-42.7582279793
 10
-43.8262300045
 20
-42.7726133034
 10
-43.827010319
 20
-42.784834298
 10
-43.8275077248
 20
-42.7947891973
 10
-43.8277180798
 20
-42.8023951052
 10
-43.8276396326
 20
-42.8075886866
 10
-43.8272730362
 20
-42.8103266935
  0
LINE
  5
257
100
AcDbEntity
  8
RACCORDO
100
AcDbLine
 62
253
  6
CONTINUOUS
 10
-43.8183911156
 20
-42.6816875698
 11
-43.8222680218
 21
-42.7234605223
  0
LINE
  5
258
100
AcDbEntity
  8
RACCORDO
100
AcDbLine
 62
253
  6
CONTINUOUS
 10
-43.813671426
 20
-42.634297622
 11
-43.8183911156
 21
-42.6816875698
  0
LWPOLYLINE
  5
259
100
AcDbEntity
  8
RACCORDO
100
AcDbPolyline
 62
253
  6
CONTINUOUS
 90
3
 70
0
 10
-43.8053612377
 20
-42.556164861
 10
-43.8082658315
 20
-42.5828658836
 10
-43.813671426
 20
-42.634297622
  0
LINE
  5
25A
100
AcDbEntity
  8
RACCORDO
100
AcDbLine
 62
253
  6
CONTINUOUS
 10
-43.8411853777
 20
-42.9312681913
 11
-43.8271673755
 21
-42.8103387093
  0
LWPOLYLINE
  5
25B
100
AcDbEntity
  8
0
100
AcDbPolyline
 62
7
  6
CONTINUOUS
 90
7
 70
0
 10
5.3514383762
 20
-27.2456488193
 10
5.3634644102
 20
-27.2428793779
 10
5.3751124526
 20
-27.2390971809
 10
5.3863825049
 20
-27.2343022245
 10
5.3971498803
 20
-27.2283457513
 10
5.4075392686
 20
-27.2213765071
 10
5.4179247362
 20
-27.2138407435
  0
LWPOLYLINE
  5
25C
100
AcDbEntity
  8
0
100
AcDbPolyline
 62
7
  6
CONTINUOUS
 90
10
 70
0
 10
4.4116324654
 20
-26.2463229872
 10
4.4641217307
 20
-26.2376279583
 10
4.5162636397
 20
-26.2306624911
 10
4.5680581768
 20
-26.2254265969
 10
4.6195824049
 20
-26.2219385106
 10
4.6707592306
 20
-26.2201800118
 10
4.7213574048
 20
-26.2200964244
 10
4.7712998352
 20
-26.2216695223
 10
4.8206635855
 20
-26.2249175293
 10
4.8694486415
 20
-26.2298404402
  0
LINE
  5
25D
100
AcDbEntity
  8
0
100
AcDbLine
 62
7
  6
CONTINUOUS
 10
5.8880834233
 20
-28.5690695456
 11
5.3259508332
 21
-28.5690695456
  0
LINE
  5
25E
100
AcDbEntity
  8
0
100
AcDbLine
 62
7
  6
CONTINUOUS
 10
4.4310105562
 20
-28.5690695456
 11
3.8489540136
 21
-28.5690695456
  0
LINE
  5
25F
100
AcDbEntity
  8
0
100
AcDbLine
 62
7
  6
CONTINUOUS
 10
3.6773432113
 20
-28.5690691913
 11
3.0614012113
 21
-28.5690691913
  0
LINE
  5
260
100
AcDbEntity
  8
0
100
AcDbLine
 62
7
  6
CONTINUOUS
 10
1.9528822113
 20
-28.5690691913
 11
1.3748152113
 21
-28.5690691913
  0
LINE
  5
261
100
AcDbEntity
  8
0
100
AcDbLine
 62
7
  6
CONTINUOUS
 10
1.2830472113
 20
-28.5690691913
 11
0.7113412113
 21
-28.5690691913
  0
LINE
  5
262
100
AcDbEntity
  8
0
100
AcDbLine
 62
7
  6
CONTINUOUS
 10
-0.1035887887
 20
-28.5690691913
 11
-0.1855517887
 21
-28.5690691913
  0
LINE
  5
263
100
AcDbEntity
  8
0
100
AcDbLine
 62
7
  6
CONTINUOUS
 10
-0.9972477887
 20
-28.5690691913
 11
-1.5563367887
 21
-28.5690691913
  0
LINE
  5
264
100
AcDbEntity
  8
0
100
AcDbLine
 62
7
  6
CONTINUOUS
 10
-1.8709417887
 20
-28.5690691913
 11
-2.4553497887
 21
-28.5690691913
  0
LINE
  5
265
100
AcDbEntity
  8
0
100
AcDbLine
 62
7
  6
CONTINUOUS
 10
-3.5721617887
 20
-28.5690691913
 11
-4.0871717887
 21
-28.5690691913
  0
LINE
  5
266
100
AcDbEntity
  8
0
100
AcDbLine
 62
7
  6
CONTINUOUS
 10
2.9100092113
 20
-28.0101491913
 11
2.1141422113
 21
-28.0101491913
  0
LINE
  5
267
100
AcDbEntity
  8
0
100
AcDbLine
 62
7
  6
CONTINUOUS
 10
2.7932152113
 20
-27.5776591913
 11
2.2336862113
 21
-27.5776591913
  0
LINE
  5
268
100
AcDbEntity
  8
0
100
AcDbLine
 62
7
  6
CONTINUOUS
 10
4.7443561736
 20
-27.473420116
 11
4.4310105562
 21
-27.473420116
  0
LINE
  5
269
100
AcDbEntity
  8
0
100
AcDbLine
 62
7
  6
CONTINUOUS
 10
4.7456158545
 20
-27.0148962779
 11
4.4116324654
 21
-27.0148962779
  0
LWPOLYLINE
  5
26A
100
AcDbEntity
  8
0
100
AcDbPolyline
 62
7
  6
CONTINUOUS
 90
19
 70
0
 10
4.7443561736
 20
-27.473420116
 10
4.7685272073
 20
-27.4741766214
 10
4.7923392357
 20
-27.4766267638
 10
4.815792251
 20
-27.4807705391
 10
4.8390269487
 20
-27.4865856197
 10
4.8619026179
 20
-27.4940943156
 10
4.8839971417
 20
-27.5033635731
 10
4.9052598491
 20
-27.514533677
 10
4.9257413972
 20
-27.5274643038
 10
4.9451716646
 20
-27.541801487
 10
4.9634722748
 20
-27.5575542323
 10
4.9807215979
 20
-27.5747134894
 10
4.9968846369
 20
-27.5928982165
 10
5.0119735665
 20
-27.6120868423
 10
5.0259762115
 20
-27.6323008978
 10
5.0388210538
 20
-27.653224006
 10
5.0504842565
 20
-27.6747507003
 10
5.0609896614
 20
-27.6969864167
 10
5.0703372711
 20
-27.719931138
  0
LINE
  5
26B
100
AcDbEntity
  8
RACCORDO
100
AcDbLine
 62
253
  6
CONTINUOUS
 10
-43.8411853777
 20
43.5487318087
 11
-43.8271808093
 21
43.4278008321
  0
LINE
  5
26C
100
AcDbEntity
  8
RACCORDO
100
AcDbLine
 62
253
  6
CONTINUOUS
 10
-38.8411853777
 20
44.0021670096
 11
-38.8326550919
 21
43.873918011
  0
LINE
  5
26D
100
AcDbEntity
  8
RACCORDO
100
AcDbLine
 62
253
  6
CONTINUOUS
 10
-38.8237380412
 20
43.6191318786
 11
-38.8268292125
 21
43.6721332327
  0
LINE
  5
26E
100
AcDbEntity
  8
RACCORDO
100
AcDbLine
 62
253
  6
CONTINUOUS
 10
-38.8268292125
 20
43.6721332327
 11
-38.8294545085
 21
43.7219084501
  0
LWPOLYLINE
  5
26F
100
AcDbEntity
  8
RACCORDO
100
AcDbPolyline
 62
253
  6
CONTINUOUS
 90
11
 70
0
 10
-38.8294545085
 20
43.7219084501
 10
-38.8315267447
 20
43.7668045288
 10
-38.8323331755
 20
43.7869492356
 10
-38.8329771037
 20
43.8053304995
 10
-38.833453172
 20
43.8217953951
 10
-38.8337574198
 20
43.8362069402
 10
-38.8338873158
 20
43.8484452361
 10
-38.8338417794
 20
43.8584084646
 10
-38.8336211893
 20
43.8660137351
 10
-38.8332273809
 20
43.8711977747
 10
-38.8326636304
 20
43.8739174538
  0
LWPOLYLINE
  5
270
100
AcDbEntity
  8
RACCORDO
100
AcDbPolyline
 62
253
  6
CONTINUOUS
 90
9
 70
0
 10
-38.8323331751
 20
-43.1694856144
 10
-38.8329771033
 20
-43.1878668779
 10
-38.8334531716
 20
-43.2043317732
 10
-38.8337574194
 20
-43.218743318
 10
-38.8338873155
 20
-43.2309816138
 10
-38.833841779
 20
-43.2409448421
 10
-38.833621189
 20
-43.2485501126
 10
-38.8332273805
 20
-43.2537341521
 10
-38.83266363
 20
-43.2564538314
  0
LINE
  5
271
100
AcDbEntity
  8
RACCORDO
100
AcDbLine
 62
253
  6
CONTINUOUS
 10
-38.8305645203
 20
-43.1276003554
 11
-38.8323331751
 21
-43.1694856144
  0
LINE
  5
272
100
AcDbEntity
  8
RACCORDO
100
AcDbLine
 62
253
  6
CONTINUOUS
 10
-38.828205943
 20
-43.0800669781
 11
-38.8305645203
 21
-43.1276003554
  0
LWPOLYLINE
  5
273
100
AcDbEntity
  8
RACCORDO
100
AcDbPolyline
 62
253
  6
CONTINUOUS
 90
3
 70
0
 10
-38.8237380411
 20
-43.0016682608
 10
-38.82533577
 20
-43.0284640344
 10
-38.828205943
 20
-43.0800669781
  0
LINE
  5
274
100
AcDbEntity
  8
RACCORDO
100
AcDbLine
 62
253
  6
CONTINUOUS
 10
-38.8411853777
 20
-43.3847033922
 11
-38.8326547876
 21
-43.2564544153
  0
LINE
  5
275
100
AcDbEntity
  8
RACCORDO
100
AcDbLine
 62
253
  6
CONTINUOUS
 10
-58.6642105859
 20
-28.8548370762
 11
-58.5015112435
 21
-28.8274400433
  0
LWPOLYLINE
  5
276
100
AcDbEntity
  8
RACCORDO
100
AcDbPolyline
 62
253
  6
CONTINUOUS
 90
16
 70
0
 10
-58.2224704663
 20
-28.8004590662
 10
-58.250963774
 20
-28.8049187226
 10
-58.2790363528
 20
-28.8091261767
 10
-58.3064253372
 20
-28.8130420306
 10
-58.3328742622
 20
-28.8166296173
 10
-58.3581354657
 20
-28.8198553432
 10
-58.3819724071
 20
-28.8226890033
 10
-58.4041618822
 20
-28.8251040639
 10
-58.4244961135
 20
-28.8270779108
 10
-58.4427846953
 20
-28.8285920614
 10
-58.4588563774
 20
-28.8296323374
 10
-58.4725606678
 20
-28.8301889978
 10
-58.4837692423
 20
-28.8302568304
 10
-58.4923771463
 20
-28.8298351998
 10
-58.4983037771
 20
-28.8289280542
 10
-58.501493639
 20
-28.8275438878
  0
LINE
  5
277
100
AcDbEntity
  8
RACCORDO
100
AcDbLine
 62
253
  6
CONTINUOUS
 10
-59.2014304479
 20
-24.8548370762
 11
-59.0253145918
 21
-24.837014895
  0
LWPOLYLINE
  5
278
100
AcDbEntity
  8
RACCORDO
100
AcDbPolyline
 62
253
  6
CONTINUOUS
 90
16
 70
0
 10
-58.743848061
 20
-24.8232699631
 10
-58.7726969702
 20
-24.8259570394
 10
-58.8011168687
 20
-24.8284639018
 10
-58.8288394974
 20
-24.8307668879
 10
-58.8556031789
 20
-24.8328442593
 10
-58.8811552873
 20
-24.8346764075
 10
-58.9052546331
 20
-24.8362460387
 10
-58.9276737394
 20
-24.8375383368
 10
-58.9482009894
 20
-24.8385411038
 10
-58.9666426237
 20
-24.8392448743
 10
-58.9828245695
 20
-24.8396430054
 10
-58.9965940832
 20
-24.8397317391
 10
-59.0078211926
 20
-24.8395102379
 10
-59.0163999237
 20
-24.8389805924
 10
-59.0222493006
 20
-24.8381478021
 10
-59.0253141104
 20
-24.8370197278
  0
LWPOLYLINE
  5
279
100
AcDbEntity
  8
RACCORDO
100
AcDbPolyline
 62
253
  6
CONTINUOUS
 90
13
 70
0
 10
-22.303104321
 20
-21.3977876031
 10
-22.2726969004
 20
-21.3967289223
 10
-22.2441381072
 20
-21.3955760067
 10
-22.2175943745
 20
-21.3943355754
 10
-22.1932203922
 20
-21.3930148571
 10
-22.1711582053
 20
-21.3916215487
 10
-22.1515363865
 20
-21.3901637701
 10
-22.1344692865
 20
-21.3886500167
 10
-22.1200563679
 20
-21.3870891103
 10
-22.1083816253
 20
-21.3854901476
 10
-22.099513096
 20
-21.3838624467
 10
-22.0935024636
 20
-21.3822154936
 10
-22.0903847563
 20
-21.3805588862
  0
LINE
  5
27A
100
AcDbEntity
  8
RACCORDO
100
AcDbLine
 62
7
  6
CONTINUOUS
 10
-22.3031043091
 20
-21.3977940085
 11
-22.3273074018
 21
-21.3985320203
  0
LINE
  5
27B
100
AcDbEntity
  8
RACCORDO
100
AcDbLine
 62
253
  6
CONTINUOUS
 10
-22.3814927324
 20
-21.4000828292
 11
-22.3273073319
 21
-21.3985688379
  0
LWPOLYLINE
  5
27C
100
AcDbEntity
  8
RACCORDO
100
AcDbPolyline
 62
253
  6
CONTINUOUS
 90
13
 70
0
 10
22.2380587947
 20
-22.8343222001
 10
18.6153621602
 20
-22.9246102773
 10
14.9934094212
 20
-22.9984600449
 10
11.3722346967
 20
-23.0558718409
 10
7.7518944652
 20
-23.0968308608
 10
4.1324000056
 20
-23.1213523622
 10
0.5137174442
 20
-23.1294816634
 10
-3.1041196346
 20
-23.1212259557
 10
-6.7210776007
 20
-23.0965780472
 10
-10.3371903079
 20
-23.0555615685
 10
-13.952446652
 20
-22.9981842457
 10
-17.5667905602
 20
-22.9244379017
 10
-21.1801883721
 20
-22.8343222001
  0
LWPOLYLINE
  5
27D
100
AcDbEntity
  8
RACCORDO
100
AcDbPolyline
 62
253
  6
CONTINUOUS
 90
13
 70
0
 10
22.2289295535
 20
-22.5553841704
 10
18.6077019823
 20
-22.6455904915
 10
14.9872849912
 20
-22.7193738644
 10
11.3676785802
 20
-22.7767342892
 10
7.7488712271
 20
-22.8176566051
 10
4.1308744542
 20
-22.8421559729
 10
0.5137228276
 20
-22.8502778749
 10
-3.1025836378
 20
-22.8420296682
 10
-6.7180449569
 20
-22.8174039956
 10
-10.3326266069
 20
-22.7764242687
 10
-13.9463170804
 20
-22.7190982911
 10
-17.5591278849
 20
-22.6454182592
 10
-21.1710590204
 20
-22.5553841728
  0
LINE
  5
27E
100
AcDbEntity
  8
RACCORDO
100
AcDbLine
 62
253
  6
CONTINUOUS
 10
-22.4397005612
 20
-21.4012611261
 11
-22.3814927324
 21
-21.4000828292
  0
LINE
  5
27F
100
AcDbEntity
  8
RACCORDO
100
AcDbLine
 62
253
  6
CONTINUOUS
 10
-22.5007827437
 20
-21.4020804883
 11
-22.4397005612
 21
-21.4012611261
  0
LWPOLYLINE
  5
280
100
AcDbEntity
  8
RACCORDO
100
AcDbPolyline
 62
253
  6
CONTINUOUS
 90
3
 70
0
 10
-22.5951503322
 20
-21.4026031941
 10
-22.5635345124
 20
-21.4025247548
 10
-22.5007827437
 20
-21.4020804883
  0
LINE
  5
281
100
AcDbEntity
  8
0
100
AcDbLine
 62
7
  6
CONTINUOUS
 10
2.8183252113
 20
-25.7693661913
 11
2.2529802113
 21
-25.7693661913
  0
LINE
  5
282
100
AcDbEntity
  8
0
100
AcDbLine
 62
7
  6
CONTINUOUS
 10
1.0212432113
 20
-25.7693661913
 11
0.4430292113
 21
-25.7693661913
  0
LINE
  5
283
100
AcDbEntity
  8
0
100
AcDbLine
 62
7
  6
CONTINUOUS
 10
-0.7196147887
 20
-25.7693661913
 11
-1.3035397887
 21
-25.7693661913
  0
LINE
  5
284
100
AcDbEntity
  8
0
100
AcDbLine
 62
7
  6
CONTINUOUS
 10
-2.6722247887
 20
-25.7693661913
 11
-3.2562337887
 21
-25.7693661913
  0
LINE
  5
285
100
AcDbEntity
  8
0
100
AcDbLine
 62
7
  6
CONTINUOUS
 10
-4.3398847887
 20
-25.7693661913
 11
-4.9747327887
 21
-25.7693661913
  0
LINE
  5
286
100
AcDbEntity
  8
0
100
AcDbLine
 62
7
  6
CONTINUOUS
 10
-1.8709417887
 20
-25.7691981913
 11
-2.4553497887
 21
-25.7691981913
  0
LINE
  5
287
100
AcDbEntity
  8
RACCORDO
100
AcDbLine
 62
253
  6
CONTINUOUS
 10
-58.880937494
 20
-23.3912299726
 11
59.9388079216
 21
-23.3912299195
  0
LINE
  5
288
100
AcDbEntity
  8
RACCORDO
100
AcDbLine
 62
253
  6
CONTINUOUS
 10
22.2289592371
 20
-22.5215158908
 11
-21.1710660103
 21
-22.5215158908
  0
LINE
  5
289
100
AcDbEntity
  8
RACCORDO
100
AcDbLine
 62
253
  6
CONTINUOUS
 10
22.228919662
 20
-22.3087799982
 11
-21.1710700559
 21
-22.3087799982
  0
LINE
  5
28A
100
AcDbEntity
  8
0
100
AcDbLine
 62
7
  6
CONTINUOUS
 10
22.2289352113
 20
-22.1912681913
 11
-21.1710647887
 21
-22.1912681913
  0
LINE
  5
28B
100
AcDbEntity
  8
0
100
AcDbLine
 62
253
  6
CONTINUOUS
 10
23.0289352113
 20
-21.3912681913
 11
23.1482348794
 21
-21.3912602667
  0
LINE
  5
28C
100
AcDbEntity
  8
0
100
AcDbLine
 62
253
  6
CONTINUOUS
 10
-21.9710647887
 20
-21.3912681913
 11
-22.0903692351
 21
-21.3912323553
  0
LWPOLYLINE
  5
28D
100
AcDbEntity
  8
RACCORDO
100
AcDbPolyline
 62
253
  6
CONTINUOUS
 90
13
 70
0
 10
-22.3030815511
 20
-21.4001773161
 10
-22.2726684805
 20
-21.4005244214
 10
-22.2441070346
 20
-21.4005682633
 10
-22.2175631488
 20
-21.4003030628
 10
-22.193191627
 20
-21.3996263359
 10
-22.1711333516
 20
-21.3986196659
 10
-22.151514911
 20
-21.3975670988
 10
-22.1344501557
 20
-21.3965743637
 10
-22.1200390681
 20
-21.3955507119
 10
-22.1083656154
 20
-21.3945021077
 10
-22.0994978136
 20
-21.3934346609
 10
-22.0934873316
 20
-21.3923545911
 10
-22.0903691897
 20
-21.3912681913
  0
LWPOLYLINE
  5
28E
100
AcDbEntity
  8
RACCORDO
100
AcDbPolyline
 62
253
  6
CONTINUOUS
 90
31
 70
0
 10
-21.1710660103
 20
-22.5215158908
 10
-21.2180466234
 20
-22.5205398574
 10
-21.2667595374
 20
-22.5174619908
 10
-21.3171003159
 20
-22.5120562138
 10
-21.3691042903
 20
-22.5040608008
 10
-21.4224577749
 20
-22.4932506103
 10
-21.4765136579
 20
-22.4795273051
 10
-21.5311225248
 20
-22.4627293591
 10
-21.5860577998
 20
-22.442711778
 10
-21.6405731132
 20
-22.4195671878
 10
-21.6944421581
 20
-22.3932691105
 10
-21.7474997621
 20
-22.3637734608
 10
-21.799145063
 20
-22.3313139022
 10
-21.849146641
 20
-22.2959790937
 10
-21.8973941312
 20
-22.2578034374
 10
-21.9435246055
 20
-22.2170423624
 10
-21.9873599915
 20
-22.1738417015
 10
-22.0288046525
 20
-22.1282921303
 10
-22.0676660241
 20
-22.0806207691
 10
-22.1037908337
 20
-22.0310437726
 10
-22.1371317847
 20
-21.9796463142
 10
-22.1676698946
 20
-21.9264710292
 10
-22.1953489495
 20
-21.8715915806
 10
-22.2200281909
 20
-21.8152389426
 10
-22.2415800305
 20
-21.7576993538
 10
-22.2599488306
 20
-21.6991895466
 10
-22.2751082351
 20
-21.639847848
 10
-22.2870167746
 20
-21.5798588149
 10
-22.2956554029
 20
-21.5194031586
 10
-22.301019772
 20
-21.4586560561
 10
-22.3031052351
 20
-21.3977940399
  0
LWPOLYLINE
  5
28F
100
AcDbEntity
  8
RACCORDO
100
AcDbPolyline
 62
253
  6
CONTINUOUS
 90
31
 70
0
 10
-21.1710700559
 20
-22.3087799989
 10
-21.2095067194
 20
-22.3079753649
 10
-21.2493529878
 20
-22.3054401264
 10
-21.2905215134
 20
-22.300986083
 10
-21.333038393
 20
-22.294399091
 10
-21.3766459002
 20
-22.2854992767
 10
-21.4208142888
 20
-22.2742059672
 10
-21.4654184211
 20
-22.2603830059
 10
-21.5102706297
 20
-22.2439134035
 10
-21.554761929
 20
-22.2248808811
 10
-21.5987054111
 20
-22.2032632141
 10
-21.6419607727
 20
-22.1790229207
 10
-21.6840346136
 20
-22.15235891
 10
-21.7247392663
 20
-22.1233521496
 10
-21.7639812624
 20
-22.0920292723
 10
-21.8014624913
 20
-22.0586028309
 10
-21.8370432505
 20
-22.023199628
 10
-21.8706462883
 20
-21.985898587
 10
-21.9021094158
 20
-21.9468883348
 10
-21.9313116505
 20
-21.9063511287
 10
-21.9582234975
 20
-21.864362373
 10
-21.982828121
 20
-21.8209573945
 10
-22.0050806898
 20
-21.776197017
 10
-22.0248753864
 20
-21.7302737404
 10
-22.0421154507
 20
-21.6834241539
 10
-22.0567547275
 20
-21.635823213
 10
-22.0687762405
 20
-21.5875840836
 10
-22.0781564647
 20
-21.5388598514
 10
-22.0848829156
 20
-21.4897983801
 10
-22.0889525584
 20
-21.4405413351
 10
-22.0903692573
 20
-21.3912323553
  0
LINE
  5
290
100
AcDbEntity
  8
RACCORDO
100
AcDbLine
 62
253
  6
CONTINUOUS
 10
23.6529711163
 20
-21.4072612269
 11
23.5898519503
 21
-21.4059044583
  0
LINE
  5
291
100
AcDbEntity
  8
RACCORDO
100
AcDbLine
 62
7
  6
CONTINUOUS
 10
23.3609746218
 20
-21.3978520014
 11
23.385177824
 21
-21.398532294
  0
LINE
  5
292
100
AcDbEntity
  8
RACCORDO
100
AcDbLine
 62
253
  6
CONTINUOUS
 10
23.5898519503
 20
-21.4059044583
 11
23.5277862384
 21
-21.4041889028
  0
LINE
  5
293
100
AcDbEntity
  8
RACCORDO
100
AcDbLine
 62
253
  6
CONTINUOUS
 10
23.5277862384
 20
-21.4041889028
 11
23.4679984275
 21
-21.4021484018
  0
LWPOLYLINE
  5
294
100
AcDbEntity
  8
RACCORDO
100
AcDbPolyline
 62
253
  6
CONTINUOUS
 90
3
 70
0
 10
23.4679984275
 20
-21.4021484018
 10
23.4116680255
 20
-21.399823217
 10
23.3851499088
 20
-21.3985680035
  0
LWPOLYLINE
  5
295
100
AcDbEntity
  8
RACCORDO
100
AcDbPolyline
 62
253
  6
CONTINUOUS
 90
31
 70
0
 10
-21.1801883721
 20
-22.8343222001
 10
-21.252509564
 20
-22.830645579
 10
-21.324649008
 20
-22.8232584994
 10
-21.3966067359
 20
-22.8121609537
 10
-21.4686724487
 20
-22.7973313853
 10
-21.5405565026
 20
-22.778791324
 10
-21.6113899095
 20
-22.7566053863
 10
-21.6811386332
 20
-22.7306963812
 10
-21.7498367558
 20
-22.7011414509
 10
-21.816717462
 20
-22.6682367095
 10
-21.8817155152
 20
-22.6319407346
 10
-21.9448961764
 20
-22.5922948846
 10
-22.0056883682
 20
-22.5497194479
 10
-22.0639882267
 20
-22.5042632934
 10
-22.1198996158
 20
-22.4558774824
 10
-22.1731630411
 20
-22.404835597
 10
-22.2237883022
 20
-22.3511419118
 10
-22.2717655784
 20
-22.2947920774
 10
-22.3168059382
 20
-22.2360467447
 10
-22.3589595859
 20
-22.1747905934
 10
-22.3981762757
 20
-22.1111388664
 10
-22.4340163949
 20
-22.0456980716
 10
-22.4664294711
 20
-21.9784074302
 10
-22.4954659169
 20
-21.9093276588
 10
-22.5208374459
 20
-21.8392475319
 10
-22.5424620969
 20
-21.7681529957
 10
-22.5604217629
 20
-21.6960580692
 10
-22.5746739447
 20
-21.623793666
 10
-22.5852044572
 20
-21.5516367633
 10
-22.592027423
 20
-21.4793103841
 10
-22.5951428092
 20
-21.4068145266
  0
LWPOLYLINE
  5
296
100
AcDbEntity
  8
RACCORDO
100
AcDbPolyline
 62
253
  6
CONTINUOUS
 90
31
 70
0
 10
-21.1710590204
 20
-22.5553842359
 10
-21.229575358
 20
-22.5519754733
 10
-21.2881749771
 20
-22.5456795884
 10
-21.3467156651
 20
-22.5364608187
 10
-21.4051137338
 20
-22.5242629713
 10
-21.4631509128
 20
-22.5090696015
 10
-21.5204877482
 20
-22.4909484505
 10
-21.5769804368
 20
-22.4699208006
 10
-21.6324761478
 20
-22.4460062812
 10
-21.6866483398
 20
-22.4193427654
 10
-21.7393445907
 20
-22.3900223937
 10
-21.7904656086
 20
-22.3581043257
 10
-21.8397962299
 20
-22.3237344389
 10
-21.8871638838
 20
-22.2870695087
 10
-21.9325426118
 20
-22.2481682101
 10
-21.9759407001
 20
-22.207033247
 10
-22.017247258
 20
-22.163752156
 10
-22.0563629941
 20
-22.1184288538
 10
-22.0932800795
 20
-22.0710558446
 10
-22.1279357732
 20
-22.0216446798
 10
-22.1601552215
 20
-21.9703681396
 10
-22.1897727372
 20
-21.9174681988
 10
-22.2167209735
 20
-21.863046869
 10
-22.2409018134
 20
-21.8072512657
 10
-22.2621685268
 20
-21.7504264317
 10
-22.2804976029
 20
-21.6927292409
 10
-22.2958638347
 20
-21.6343017922
 10
-22.3081967452
 20
-21.5754953066
 10
-22.3175113797
 20
-21.5165332352
 10
-22.3238617685
 20
-21.4574973412
 10
-22.3272814657
 20
-21.3985312097
  0
LWPOLYLINE
  5
297
100
AcDbEntity
  8
0
100
AcDbPolyline
 62
7
  6
CONTINUOUS
 90
22
 70
0
 10
4.8694486415
 20
-26.2298404402
 10
4.8948421292
 20
-26.2335805756
 10
4.9198263037
 20
-26.2388743252
 10
4.9444011582
 20
-26.2457216813
 10
4.9686816877
 20
-26.2541080932
 10
4.9925528837
 20
-26.2640480893
 10
5.0156697348
 20
-26.2755852764
 10
5.038116021
 20
-26.2887769291
 10
5.0598079503
 20
-26.3035657348
 10
5.0801491563
 20
-26.3198234177
 10
5.0990546717
 20
-26.3376894674
 10
5.1166094588
 20
-26.3570243447
 10
5.1324720517
 20
-26.37728124
 10
5.1465190236
 20
-26.3984715761
 10
5.158873807
 20
-26.420583893
 10
5.1695652317
 20
-26.4430370779
 10
5.1785752781
 20
-26.4657743926
 10
5.1859219772
 20
-26.4888525607
 10
5.1916882376
 20
-26.5118606835
 10
5.1959017002
 20
-26.5346617997
 10
5.1985347375
 20
-26.5573928752
 10
5.1995873561
 20
-26.5800539112
  0
LWPOLYLINE
  5
298
100
AcDbEntity
  8
0
100
AcDbPolyline
 62
7
  6
CONTINUOUS
 90
25
 70
0
 10
5.2911836411
 20
-25.8315520647
 10
5.2331109668
 20
-25.8127075136
 10
5.1743759034
 20
-25.7961867585
 10
5.1149784746
 20
-25.7819898347
 10
5.0547329591
 20
-25.7703430961
 10
4.9938251267
 20
-25.7610202453
 10
4.9328122312
 20
-25.753342327
 10
4.8718227932
 20
-25.7472193035
 10
4.8107283267
 20
-25.7427412328
 10
4.7497005648
 20
-25.7394992919
 10
4.688751098
 20
-25.7374256933
 10
4.6278683614
 20
-25.7365882304
 10
4.567189349
 20
-25.7367814479
 10
4.506778648
 20
-25.7380020851
 10
4.4465716925
 20
-25.7402534015
 10
4.386511742
 20
-25.7433397203
 10
4.326608647
 20
-25.7472533531
 10
4.2668525738
 20
-25.7520019831
 10
4.2071572519
 20
-25.7574129912
 10
4.1475359603
 20
-25.7634795036
 10
4.0879754331
 20
-25.7702083873
 10
4.0283495796
 20
-25.7774476356
 10
3.9686163722
 20
-25.7851465779
 10
3.9088178485
 20
-25.793355878
 10
3.8489540136
 20
-25.8020755323
  0
LWPOLYLINE
  5
299
100
AcDbEntity
  8
RACCORDO
100
AcDbPolyline
 62
253
  6
CONTINUOUS
 90
15
 70
0
 10
-58.8809339072
 20
-23.3912681913
 10
-58.9382624699
 20
-23.3962218211
 10
-58.9660126335
 20
-23.3984381875
 10
-58.9928015438
 20
-23.4004524255
 10
-59.0183760545
 20
-23.4022455013
 10
-59.0424944949
 20
-23.4038004709
 10
-59.0649289539
 20
-23.4051026403
 10
-59.0854674332
 20
-23.4061397046
 10
-59.1039158511
 20
-23.4069018638
 10
-59.1200998763
 20
-23.4073819157
 10
-59.1338665749
 20
-23.4075753241
 10
-59.1450858564
 20
-23.4074802611
 10
-59.1536517023
 20
-23.4070976253
 10
-59.1594831681
 20
-23.4064310324
 10
-59.1625251485
 20
-23.4054867813
  0
LWPOLYLINE
  5
29A
100
AcDbEntity
  8
RACCORDO
100
AcDbPolyline
 62
253
  6
CONTINUOUS
 90
14
 70
0
 10
59.9961328853
 20
-23.3962218196
 10
60.0238830457
 20
-23.3984381856
 10
60.0506719526
 20
-23.4004524232
 10
60.0762464601
 20
-23.4022454987
 10
60.1003648974
 20
-23.4038004681
 10
60.1227993535
 20
-23.4051026373
 10
60.1433378303
 20
-23.4061397014
 10
60.1617862461
 20
-23.4069018605
 10
60.1779702694
 20
-23.4073819123
 10
60.1917369667
 20
-23.4075753206
 10
60.2029562474
 20
-23.4074802578
 10
60.211522093
 20
-23.407097622
 10
60.217353559
 20
-23.4064310292
 10
60.2203955402
 20
-23.4054867784
  0
LINE
  5
29B
100
AcDbEntity
  8
RACCORDO
100
AcDbLine
 62
253
  6
CONTINUOUS
 10
59.938804329
 20
-23.3912681905
 11
59.9961328853
 21
-23.3962218196
  0
LWPOLYLINE
  5
29C
100
AcDbEntity
  8
RACCORDO
100
AcDbPolyline
 62
253
  6
CONTINUOUS
 90
16
 70
0
 10
59.8017184838
 20
-24.8232699633
 10
59.8305673936
 20
-24.8259570396
 10
59.8589872926
 20
-24.8284639021
 10
59.8867099219
 20
-24.8307668882
 10
59.913473604
 20
-24.8328442597
 10
59.939025713
 20
-24.834676408
 10
59.9631250593
 20
-24.8362460392
 10
59.9855441661
 20
-24.8375383374
 10
60.0060714166
 20
-24.8385411044
 10
60.0245130513
 20
-24.839244875
 10
60.0406949974
 20
-24.8396430061
 10
60.0544645114
 20
-24.8397317398
 10
60.065691621
 20
-24.8395102385
 10
60.0742703521
 20
-24.838980593
 10
60.080119729
 20
-24.8381478027
 10
60.0831845386
 20
-24.8370197283
  0
LINE
  5
29D
100
AcDbEntity
  8
RACCORDO
100
AcDbLine
 62
253
  6
CONTINUOUS
 10
60.2593008706
 20
-24.8548370762
 11
60.083185137
 21
-24.8370136619
  0
LWPOLYLINE
  5
29E
100
AcDbEntity
  8
RACCORDO
100
AcDbPolyline
 62
253
  6
CONTINUOUS
 90
16
 70
0
 10
59.2803408923
 20
-28.8004590708
 10
59.3088342399
 20
-28.8049187368
 10
59.3369068622
 20
-28.8091262005
 10
59.3642958923
 20
-28.813042064
 10
59.3907448646
 20
-28.8166296599
 10
59.4160061158
 20
-28.8198553946
 10
59.4398431041
 20
-28.8226890629
 10
59.4620326246
 20
-28.8251041309
 10
59.4823668986
 20
-28.8270779844
 10
59.5006555198
 20
-28.8285921405
 10
59.516727237
 20
-28.829632421
 10
59.5304315575
 20
-28.8301890849
 10
59.5416401568
 20
-28.8302569196
 10
59.5502480795
 20
-28.82983529
 10
59.5561747226
 20
-28.8289281442
 10
59.5593645903
 20
-28.8275439765
  0
LINE
  5
29F
100
AcDbEntity
  8
RACCORDO
100
AcDbLine
 62
253
  6
CONTINUOUS
 10
59.7220810086
 20
-28.8548370762
 11
59.559384014
 21
-28.8274258436
  0
LWPOLYLINE
  5
2A0
100
AcDbEntity
  8
RACCORDO
100
AcDbPolyline
 62
253
  6
CONTINUOUS
 90
12
 70
0
 10
23.1482348659
 20
-21.3912681913
 10
23.1513560319
 20
-21.392033281
 10
23.1573714102
 20
-21.3927885185
 10
23.1662448526
 20
-21.3935243016
 10
23.177922959
 20
-21.3942311476
 10
23.1923369949
 20
-21.3948997571
 10
23.2094045826
 20
-21.3955210476
 10
23.2290275311
 20
-21.3960861703
 10
23.2510907914
 20
-21.3965866611
 10
23.2754654644
 20
-21.3970144885
 10
23.3020093495
 20
-21.3973619944
 10
23.3609747515
 20
-21.3977876027
  0
LINE
  5
2A1
100
AcDbEntity
  8
RACCORDO
100
AcDbLine
 62
253
  6
CONTINUOUS
 10
-21.1743105154
 20
23.2591136554
 11
-21.1710647887
 21
23.1728476726
  0
LINE
  5
2A2
100
AcDbEntity
  8
RACCORDO
100
AcDbLine
 62
253
  6
CONTINUOUS
 10
-21.1774009863
 20
23.3535995808
 11
-21.1743105154
 21
23.2591136554
  0
LINE
  5
2A3
100
AcDbEntity
  8
RACCORDO
100
AcDbLine
 62
253
  6
CONTINUOUS
 10
-21.180188372
 20
23.4517858174
 11
-21.1774009863
 21
23.3535995808
  0
LINE
  5
2A4
100
AcDbEntity
  8
RACCORDO
100
AcDbLine
 62
253
  6
CONTINUOUS
 10
-22.5951428092
 20
-21.4068145266
 11
-22.6061813811
 21
-14.4801019744
  0
LINE
  5
2A5
100
AcDbEntity
  8
RACCORDO
100
AcDbLine
 62
253
  6
CONTINUOUS
 10
-22.3273074018
 20
-21.3985320203
 11
-22.3383534401
 21
-14.4777522826
  0
LINE
  5
2A6
100
AcDbEntity
  8
RACCORDO
100
AcDbLine
 62
253
  6
CONTINUOUS
 10
-22.3031043091
 20
-21.3977940085
 11
-22.3121058774
 21
-15.9714990974
  0
LINE
  5
2A7
100
AcDbEntity
  8
RACCORDO
100
AcDbLine
 62
253
  6
CONTINUOUS
 10
-22.0903692351
 20
-21.3912323553
 11
-22.0993791615
 21
-15.9585795595
  0
LINE
  5
2A8
100
AcDbEntity
  8
RACCORDO
100
AcDbLine
 62
253
  6
CONTINUOUS
 10
-22.3121058774
 20
-15.9714990974
 11
-22.3185337345
 21
-10.5446717441
  0
LINE
  5
2A9
100
AcDbEntity
  8
RACCORDO
100
AcDbLine
 62
253
  6
CONTINUOUS
 10
-22.0993791615
 20
-15.9585795595
 11
-22.1058019252
 21
-10.5360573732
  0
LINE
  5
2AA
100
AcDbEntity
  8
RACCORDO
100
AcDbLine
 62
253
  6
CONTINUOUS
 10
-22.6061813811
 20
-14.4801019744
 11
-22.6122150197
 21
-8.6770185649
  0
LINE
  5
2AB
100
AcDbEntity
  8
RACCORDO
100
AcDbLine
 62
253
  6
CONTINUOUS
 10
-22.3383534401
 20
-14.4777522826
 11
-22.3443827745
 21
-8.6752571435
  0
LINE
  5
2AC
100
AcDbEntity
  8
RACCORDO
100
AcDbLine
 62
253
  6
CONTINUOUS
 10
-22.3185337345
 20
-10.5446717441
 11
-22.3223902319
 21
-5.117772848
  0
LINE
  5
2AD
100
AcDbEntity
  8
RACCORDO
100
AcDbLine
 62
253
  6
CONTINUOUS
 10
-22.1058019252
 20
-10.5360573732
 11
-22.1096553577
 21
-5.1134637054
  0
LINE
  5
2AE
100
AcDbEntity
  8
RACCORDO
100
AcDbLine
 62
253
  6
CONTINUOUS
 10
-22.3443827745
 20
-8.6752571435
 11
-22.3473936602
 21
-3.0697346778
  0
LINE
  5
2AF
100
AcDbEntity
  8
RACCORDO
100
AcDbLine
 62
253
  6
CONTINUOUS
 10
-22.6122150197
 20
-8.6770185649
 11
-22.6156372321
 21
-1.3479648893
  0
LINE
  5
2B0
100
AcDbEntity
  8
RACCORDO
100
AcDbLine
 62
253
  6
CONTINUOUS
 10
-22.3223902319
 20
-5.117772848
 11
-22.3236755836
 21
0.3087318087
  0
LINE
  5
2B1
100
AcDbEntity
  8
RACCORDO
100
AcDbLine
 62
253
  6
CONTINUOUS
 10
-22.1096553577
 20
-5.1134637054
 11
-22.110939691
 21
0.3087318087
  0
LINE
  5
2B2
100
AcDbEntity
  8
0
100
AcDbLine
 62
7
  6
CONTINUOUS
 10
-21.9710647887
 20
22.0087318087
 11
-21.9710647887
 21
-21.3912681913
  0
LINE
  5
2B3
100
AcDbEntity
  8
RACCORDO
100
AcDbLine
 62
253
  6
CONTINUOUS
 10
-21.1710590204
 20
-22.5553841728
 11
-21.1710647887
 21
-22.3087799982
  0
LINE
  5
2B4
100
AcDbEntity
  8
0
100
AcDbLine
 62
253
  6
CONTINUOUS
 10
-21.1710647887
 20
-22.1912681913
 11
-21.1710700559
 21
-22.3087799982
  0
LINE
  5
2B5
100
AcDbEntity
  8
0
100
AcDbLine
 62
253
  6
CONTINUOUS
 10
-21.1710647887
 20
22.8087318087
 11
-21.1710704684
 21
22.9262436156
  0
LINE
  5
2B6
100
AcDbEntity
  8
RACCORDO
100
AcDbLine
 62
253
  6
CONTINUOUS
 10
-21.1710647887
 20
22.9262436156
 11
-21.1710591318
 21
23.172847788
  0
LINE
  5
2B7
100
AcDbEntity
  8
RACCORDO
100
AcDbLine
 62
253
  6
CONTINUOUS
 10
-22.6156372321
 20
-1.3479648893
 11
-22.6122587182
 21
9.2402155378
  0
LINE
  5
2B8
100
AcDbEntity
  8
RACCORDO
100
AcDbLine
 62
253
  6
CONTINUOUS
 10
-22.3473936602
 20
-3.0697346778
 11
-22.3427660885
 21
11.1624945995
  0
LINE
  5
2B9
100
AcDbEntity
  8
RACCORDO
100
AcDbLine
 62
253
  6
CONTINUOUS
 10
-22.3236755836
 20
0.3087318087
 11
-22.3185337345
 21
11.1621353616
  0
LINE
  5
2BA
100
AcDbEntity
  8
RACCORDO
100
AcDbLine
 62
253
  6
CONTINUOUS
 10
-22.110939691
 20
0.3087318087
 11
-22.1058019252
 21
11.1535209906
  0
LINE
  5
2BB
100
AcDbEntity
  8
RACCORDO
100
AcDbLine
 62
253
  6
CONTINUOUS
 10
-22.6122587182
 20
9.2402155378
 11
-22.6062926691
 21
15.0125504942
  0
LINE
  5
2BC
100
AcDbEntity
  8
RACCORDO
100
AcDbLine
 62
253
  6
CONTINUOUS
 10
-22.3427660885
 20
11.1624945995
 11
-22.3359165938
 21
16.8712424509
  0
LINE
  5
2BD
100
AcDbEntity
  8
RACCORDO
100
AcDbLine
 62
253
  6
CONTINUOUS
 10
-22.3185337345
 20
11.1621353616
 11
-22.3121058774
 21
16.5889627148
  0
LINE
  5
2BE
100
AcDbEntity
  8
RACCORDO
100
AcDbLine
 62
253
  6
CONTINUOUS
 10
-22.1058019252
 20
11.1535209906
 11
-22.0993791615
 21
16.576043177
  0
LINE
  5
2BF
100
AcDbEntity
  8
RACCORDO
100
AcDbLine
 62
253
  6
CONTINUOUS
 10
-22.6062926691
 20
15.0125504942
 11
-22.5951428168
 21
22.0242780638
  0
LINE
  5
2C0
100
AcDbEntity
  8
RACCORDO
100
AcDbLine
 62
253
  6
CONTINUOUS
 10
-22.3359165938
 20
16.8712424509
 11
-22.3273074013
 21
22.0159959432
  0
LINE
  5
2C1
100
AcDbEntity
  8
RACCORDO
100
AcDbLine
 62
253
  6
CONTINUOUS
 10
-22.3121058774
 20
16.5889627148
 11
-22.303104309
 21
22.0152577083
  0
LINE
  5
2C2
100
AcDbEntity
  8
RACCORDO
100
AcDbLine
 62
253
  6
CONTINUOUS
 10
-22.0993791615
 20
16.576043177
 11
-22.0903692351
 21
22.0086959921
  0
LWPOLYLINE
  5
2C3
100
AcDbEntity
  8
RACCORDO
100
AcDbPolyline
 62
253
  6
CONTINUOUS
 90
31
 70
0
 10
-22.0903692573
 20
22.0086959921
 10
-22.0889534647
 20
22.0579886617
 10
-22.0848864849
 20
22.1072294765
 10
-22.0781644544
 20
22.1562749402
 10
-22.0687904026
 20
22.2049835105
 10
-22.0567767908
 20
22.2532074894
 10
-22.0421470904
 20
22.300793995
 10
-22.0249182233
 20
22.3476300159
 10
-22.0051362838
 20
22.3935407155
 10
-21.9828979353
 20
22.4382896419
 10
-21.958308866
 20
22.4816844579
 10
-21.9314138448
 20
22.5236644034
 10
-21.9022297165
 20
22.5641941452
 10
-21.8707860285
 20
22.603198258
 10
-21.8372035391
 20
22.6404947591
 10
-21.8016439857
 20
22.675895416
 10
-21.7641872528
 20
22.7093189951
 10
-21.7249703206
 20
22.7406413912
 10
-21.6842815927
 20
22.7696564026
 10
-21.6422094204
 20
22.7963381939
 10
-21.59894415
 20
22.8206013336
 10
-21.5549804871
 20
22.8422440842
 10
-21.5104554272
 20
22.8613036399
 10
-21.4655584154
 20
22.8777992987
 10
-21.4209096239
 20
22.891642668
 10
-21.3766966875
 20
22.9029512423
 10
-21.3330457678
 20
22.9118613915
 10
-21.2905003639
 20
22.9184524712
 10
-21.2493232213
 20
22.9229062811
 10
-21.209484112
 20
22.9254399208
 10
-21.1710704684
 20
22.9262436164
  0
LINE
  5
2C4
100
AcDbEntity
  8
RACCORDO
100
AcDbLine
 62
253
  6
CONTINUOUS
 10
-21.1801884071
 20
-22.83432228
 11
-21.1763973672
 21
-22.7040001931
  0
LWPOLYLINE
  5
2C5
100
AcDbEntity
  8
RACCORDO
100
AcDbPolyline
 62
253
  6
CONTINUOUS
 90
31
 70
0
 10
-22.3031052345
 20
22.0152577398
 10
-22.3010209973
 20
22.0760996973
 10
-22.2956600142
 20
22.1368268731
 10
-22.2870269277
 20
22.1972629099
 10
-22.275126084
 20
22.2572327839
 10
-22.2599764778
 20
22.3165559803
 10
-22.241619506
 20
22.3750481876
 10
-22.2200814703
 20
22.4325712695
 10
-22.1954179336
 20
22.4889086407
 10
-22.1677563259
 20
22.5437742149
 10
-22.1372372558
 20
22.5969372268
 10
-22.1039168875
 20
22.6483240992
 10
-22.0678141902
 20
22.6978921501
 10
-22.0289765054
 20
22.7455561674
 10
-21.9875568611
 20
22.7911003504
 10
-21.9437473099
 20
22.8342980601
 10
-21.8976466581
 20
22.8750557701
 10
-21.8494296625
 20
22.9132309267
 10
-21.7994474664
 20
22.9485758007
 10
-21.7478042863
 20
22.981056877
 10
-21.6947347501
 20
23.0105801068
 10
-21.640841161
 20
23.0369085565
 10
-21.586284593
 20
23.0600860115
 10
-21.5312944989
 20
23.0801352854
 10
-21.4766309108
 20
23.09695807
 10
-21.4225202758
 20
23.110699981
 10
-21.3691133314
 20
23.1215227763
 10
-21.3170742148
 20
23.1295231733
 10
-21.2667228087
 20
23.1349286771
 10
-21.2180186482
 20
23.1380046083
 10
-21.1710662697
 20
23.1389795083
  0
LINE
  5
2C6
100
AcDbEntity
  8
RACCORDO
100
AcDbLine
 62
253
  6
CONTINUOUS
 10
-21.1763973672
 20
-22.7040001931
 11
-21.1732382368
 21
-22.6117667118
  0
LINE
  5
2C7
100
AcDbEntity
  8
RACCORDO
100
AcDbLine
 62
253
  6
CONTINUOUS
 10
-21.1732382368
 20
-22.6117667118
 11
-21.1710647887
 21
-22.5553828687
  0
LWPOLYLINE
  5
2C8
100
AcDbEntity
  8
RACCORDO
100
AcDbPolyline
 62
253
  6
CONTINUOUS
 90
31
 70
0
 10
-22.5951428168
 20
22.0242780638
 10
-22.5920274284
 20
22.0967739572
 10
-22.5852044606
 20
22.1691003633
 10
-22.5746739464
 20
22.2412572837
 10
-22.5604217627
 20
22.3135216925
 10
-22.542462095
 20
22.3856166155
 10
-22.5208374433
 20
22.4567111485
 10
-22.4954659149
 20
22.5267912757
 10
-22.4664294707
 20
22.5958710477
 10
-22.4340163957
 20
22.6631616894
 10
-22.3981762764
 20
22.7286024843
 10
-22.3589595863
 20
22.792254211
 10
-22.3168059382
 20
22.8535103621
 10
-22.2717655782
 20
22.9122556947
 10
-22.223788302
 20
22.968605529
 10
-22.173163041
 20
23.0222992143
 10
-22.1198996159
 20
23.0733411
 10
-22.0639882271
 20
23.1217269114
 10
-22.0056883686
 20
23.1671830659
 10
-21.9448961764
 20
23.2097585016
 10
-21.8817155144
 20
23.2494043503
 10
-21.816717461
 20
23.285700325
 10
-21.7498367556
 20
23.3186050688
 10
-21.6811386344
 20
23.3481600026
 10
-21.6113899113
 20
23.3740690091
 10
-21.5405565037
 20
23.3962549436
 10
-21.4686724485
 20
23.4147949997
 10
-21.3966067347
 20
23.4296245649
 10
-21.3246490069
 20
23.4407221107
 10
-21.2525095632
 20
23.4481091924
 10
-21.1801883721
 20
23.4517858176
  0
LWPOLYLINE
  5
2C9
100
AcDbEntity
  8
RACCORDO
100
AcDbPolyline
 62
253
  6
CONTINUOUS
 90
31
 70
0
 10
-22.3272814565
 20
22.0159951323
 10
-22.3238617462
 20
22.0749612391
 10
-22.3175113464
 20
22.1339971094
 10
-22.3081967028
 20
22.192959158
 10
-22.2958637848
 20
22.25176562
 10
-22.2804975474
 20
22.3101930465
 10
-22.2621684657
 20
22.367890222
 10
-22.2409017443
 20
22.4247150522
 10
-22.2167208937
 20
22.4805106581
 10
-22.1897726469
 20
22.5349319883
 10
-22.1601551227
 20
22.5878319242
 10
-22.1279356668
 20
22.6391084577
 10
-22.0932799659
 20
22.6885196156
 10
-22.0563628733
 20
22.7358926185
 10
-22.0172471302
 20
22.7812159141
 10
-21.9759405657
 20
22.8244969982
 10
-21.9325424713
 20
22.8656319543
 10
-21.8871637376
 20
22.9045332457
 10
-21.8397960778
 20
22.9411981685
 10
-21.7904654492
 20
22.9755680482
 10
-21.7393444238
 20
23.0074861086
 10
-21.6866481681
 20
23.0368064717
 10
-21.6324759784
 20
23.0634699768
 10
-21.5769802728
 20
23.0873844856
 10
-21.5204875817
 20
23.1084121278
 10
-21.4631507145
 20
23.1265332777
 10
-21.4051134949
 20
23.1417266442
 10
-21.3467154301
 20
23.153924477
 10
-21.2881748104
 20
23.1631432255
 10
-21.2295753068
 20
23.1694390933
 10
-21.1710591317
 20
23.1728478499
  0
LINE
  5
2CA
100
AcDbEntity
  8
RACCORDO
100
AcDbLine
 62
253
  6
CONTINUOUS
 10
23.673599711
 20
0.3087318087
 11
23.1688101137
 21
0.3087318087
  0
LINE
  5
2CB
100
AcDbEntity
  8
RACCORDO
100
AcDbLine
 62
253
  6
CONTINUOUS
 10
-22.6157292884
 20
0.3087318087
 11
-22.110939691
 21
0.3087318087
  0
LINE
  5
2CC
100
AcDbEntity
  8
0
100
AcDbLine
 62
7
  6
CONTINUOUS
 10
-0.8711327887
 20
-26.7409151913
 11
-0.1855517887
 21
-28.5690691913
  0
LINE
  5
2CD
100
AcDbEntity
  8
0
100
AcDbLine
 62
7
  6
CONTINUOUS
 10
-4.9747327887
 20
-25.7693661913
 11
-4.0871717887
 21
-28.5690691913
  0
LINE
  5
2CE
100
AcDbEntity
  8
0
100
AcDbLine
 62
7
  6
CONTINUOUS
 10
-3.8062107887
 20
-27.6964881913
 11
-4.3398847887
 21
-25.7693661913
  0
LINE
  5
2CF
100
AcDbEntity
  8
0
100
AcDbLine
 62
7
  6
CONTINUOUS
 10
-0.1413787887
 20
-27.3237701913
 11
-0.7196147887
 21
-25.7693661913
  0
LWPOLYLINE
  5
2D0
100
AcDbEntity
  8
0
100
AcDbPolyline
 62
7
  6
CONTINUOUS
 90
8
 70
0
 10
5.0703372711
 20
-27.719931138
 10
5.084460928
 20
-27.7587782061
 10
5.0981159846
 20
-27.7977309901
 10
5.1113024438
 20
-27.836789484
 10
5.1239485003
 20
-27.8759473687
 10
5.1361259655
 20
-27.9152109514
 10
5.1480502652
 20
-27.9545991648
 10
5.1597216644
 20
-27.9941080763
  0
LINE
  5
2D1
100
AcDbEntity
  8
0
100
AcDbLine
 62
7
  6
CONTINUOUS
 10
3.6773432113
 20
-28.5690691913
 11
2.8183252113
 21
-25.7693661913
  0
LINE
  5
2D2
100
AcDbEntity
  8
0
100
AcDbLine
 62
7
  6
CONTINUOUS
 10
2.9100092113
 20
-28.0101491913
 11
3.0614012113
 21
-28.5690691913
  0
LINE
  5
2D3
100
AcDbEntity
  8
0
100
AcDbLine
 62
7
  6
CONTINUOUS
 10
2.5246722113
 20
-26.5386531913
 11
2.7932152113
 21
-27.5776591913
  0
LINE
  5
2D4
100
AcDbEntity
  8
0
100
AcDbLine
 62
7
  6
CONTINUOUS
 10
1.2830472113
 20
-28.5690691913
 11
1.0212432113
 21
-25.7693661913
  0
LINE
  5
2D5
100
AcDbEntity
  8
0
100
AcDbLine
 62
7
  6
CONTINUOUS
 10
0.5912722113
 20
-26.7485371913
 11
0.7113412113
 21
-28.5690691913
  0
LINE
  5
2D6
100
AcDbEntity
  8
0
100
AcDbLine
 62
7
  6
CONTINUOUS
 10
-2.4553497887
 20
-25.7691981913
 11
-2.4553497887
 21
-28.5690691913
  0
LINE
  5
2D7
100
AcDbEntity
  8
0
100
AcDbLine
 62
7
  6
CONTINUOUS
 10
-1.8709417887
 20
-28.5690691913
 11
-1.8709417887
 21
-25.7691981913
  0
LINE
  5
2D8
100
AcDbEntity
  8
0
100
AcDbLine
 62
7
  6
CONTINUOUS
 10
-0.9972477887
 20
-28.5690691913
 11
-0.8711327887
 21
-26.7409151913
  0
LINE
  5
2D9
100
AcDbEntity
  8
0
100
AcDbLine
 62
7
  6
CONTINUOUS
 10
-1.3035397887
 20
-25.7693661913
 11
-1.5563367887
 21
-28.5690691913
  0
LWPOLYLINE
  5
2DA
100
AcDbEntity
  8
RACCORDO
100
AcDbPolyline
 62
253
  6
CONTINUOUS
 90
9
 70
0
 10
23.148239011
 20
22.0087318087
 10
23.1513552951
 20
22.0094932452
 10
23.1573622482
 20
22.0102442114
 10
23.1662265998
 20
22.0109754012
 10
23.1778991934
 20
22.0116776098
 10
23.1923131841
 20
22.0123418871
 10
23.209382749
 20
22.0129596387
 10
23.2290073506
 20
22.0135226365
 10
23.2510735095
 20
22.0140228329
  0
LWPOLYLINE
  5
2DB
100
AcDbEntity
  8
0
100
AcDbPolyline
 62
7
  6
CONTINUOUS
 90
26
 70
0
 10
5.6624605458
 20
-27.7169024345
 10
5.6569528548
 20
-27.6979965074
 10
5.6512064322
 20
-27.6790222327
 10
5.6452281581
 20
-27.6599825126
 10
5.6388756659
 20
-27.6408025992
 10
5.6321363147
 20
-27.6214513185
 10
5.6250227418
 20
-27.6019598387
 10
5.6174304958
 20
-27.5823469247
 10
5.6093593893
 20
-27.5625810189
 10
5.6008096055
 20
-27.5426936737
 10
5.5916772485
 20
-27.5227983215
 10
5.5819701341
 20
-27.5028773612
 10
5.571680442
 20
-27.4829483937
 10
5.5606808232
 20
-27.4631776607
 10
5.5490135171
 20
-27.4435760359
 10
5.53663628
 20
-27.4241326527
 10
5.5232950377
 20
-27.404981148
 10
5.5090007031
 20
-27.3860478731
 10
5.4937423582
 20
-27.3674064876
 10
5.4772331831
 20
-27.3494116004
 10
5.4593738174
 20
-27.3319420236
 10
5.4402636179
 20
-27.3151189675
 10
5.4199138444
 20
-27.2996606568
 10
5.3983282539
 20
-27.2858065189
 10
5.3755030966
 20
-27.2733171702
 10
5.3514383762
 20
-27.2621926281
  0
LINE
  5
2DC
100
AcDbEntity
  8
0
100
AcDbLine
 62
7
  6
CONTINUOUS
 10
5.2282925613
 20
-28.2343326859
 11
5.3259508332
 21
-28.5690695456
  0
LWPOLYLINE
  5
2DD
100
AcDbEntity
  8
0
100
AcDbPolyline
 62
7
  6
CONTINUOUS
 90
4
 70
0
 10
5.1597216644
 20
-27.9941080763
 10
5.1938734961
 20
-28.1134708427
 10
5.2051888541
 20
-28.1535665357
 10
5.2282925613
 20
-28.2343326859
  0
LINE
  5
2DE
100
AcDbEntity
  8
0
100
AcDbLine
 62
7
  6
CONTINUOUS
 10
5.6729433882
 20
-27.7546014145
 11
5.6624605458
 21
-27.7169024345
  0
LINE
  5
2DF
100
AcDbEntity
  8
0
100
AcDbLine
 62
7
  6
CONTINUOUS
 10
5.6832595408
 20
-27.7924280744
 11
5.6729433882
 21
-27.7546014145
  0
LINE
  5
2E0
100
AcDbEntity
  8
0
100
AcDbLine
 62
7
  6
CONTINUOUS
 10
5.7579356272
 20
-28.0723924848
 11
5.6832595408
 21
-27.7924280744
  0
LINE
  5
2E1
100
AcDbEntity
  8
0
100
AcDbLine
 62
7
  6
CONTINUOUS
 10
5.8880834233
 20
-28.5690695456
 11
5.7579356272
 21
-28.0723924848
  0
LINE
  5
2E2
100
AcDbEntity
  8
0
100
AcDbLine
 62
7
  6
CONTINUOUS
 10
3.8489540136
 20
-25.8020755323
 11
3.8489540136
 21
-28.5690695456
  0
LINE
  5
2E3
100
AcDbEntity
  8
0
100
AcDbLine
 62
7
  6
CONTINUOUS
 10
4.4116324654
 20
-27.0148962779
 11
4.4116324654
 21
-26.2463229872
  0
LINE
  5
2E4
100
AcDbEntity
  8
0
100
AcDbLine
 62
7
  6
CONTINUOUS
 10
4.4310105562
 20
-28.5690695456
 11
4.4310105562
 21
-27.473420116
  0
LINE
  5
2E5
100
AcDbEntity
  8
0
100
AcDbLine
 62
7
  6
CONTINUOUS
 10
5.3514383762
 20
-27.2621926281
 11
5.3514383762
 21
-27.2456488193
  0
LWPOLYLINE
  5
2E6
100
AcDbEntity
  8
0
100
AcDbPolyline
 62
7
  6
CONTINUOUS
 90
31
 70
0
 10
5.1995873561
 20
-26.5800539112
 10
5.199275192
 20
-26.6045448254
 10
5.1978316089
 20
-26.6288297802
 10
5.195256612
 20
-26.6529087802
 10
5.1915323412
 20
-26.6768553011
 10
5.1866766667
 20
-26.7005958749
 10
5.1807431891
 20
-26.7239100956
 10
5.1737571776
 20
-26.7467915617
 10
5.1656933721
 20
-26.7692466936
 10
5.1565295786
 20
-26.7910743264
 10
5.1462764985
 20
-26.8123029427
 10
5.1349234385
 20
-26.8329040858
 10
5.1224161129
 20
-26.8525911925
 10
5.1087497361
 20
-26.8713758864
 10
5.0939290995
 20
-26.8892465783
 10
5.077914282
 20
-26.9058818958
 10
5.06060755
 20
-26.9211972313
 10
5.0421066387
 20
-26.9352772326
 10
5.0226648285
 20
-26.9480544145
 10
5.0022370938
 20
-26.9594555412
 10
4.9808684563
 20
-26.9695538807
 10
4.9589472648
 20
-26.9785017003
 10
4.9365344597
 20
-26.9862792732
 10
4.9135690939
 20
-26.9929063457
 10
4.8902566846
 20
-26.9985943894
 10
4.8665875621
 20
-27.0033594509
 10
4.8425713892
 20
-27.0071854935
 10
4.8184426831
 20
-27.0102358614
 10
4.7942796143
 20
-27.0125650038
 10
4.7700040059
 20
-27.0141184755
 10
4.7456158545
 20
-27.0148962779
  0
LINE
  5
2E7
100
AcDbEntity
  8
0
100
AcDbLine
 62
7
  6
CONTINUOUS
 10
2.2336862113
 20
-27.5776591913
 11
2.5246722113
 21
-26.5386531913
  0
LINE
  5
2E8
100
AcDbEntity
  8
0
100
AcDbLine
 62
7
  6
CONTINUOUS
 10
-3.2562337887
 20
-25.7693661913
 11
-3.8062107887
 21
-27.6964881913
  0
LINE
  5
2E9
100
AcDbEntity
  8
0
100
AcDbLine
 62
7
  6
CONTINUOUS
 10
1.9528822113
 20
-28.5690691913
 11
2.1141422113
 21
-28.0101491913
  0
LINE
  5
2EA
100
AcDbEntity
  8
0
100
AcDbLine
 62
7
  6
CONTINUOUS
 10
2.2529802113
 20
-25.7693661913
 11
1.3748152113
 21
-28.5690691913
  0
LINE
  5
2EB
100
AcDbEntity
  8
0
100
AcDbLine
 62
7
  6
CONTINUOUS
 10
-3.5721617887
 20
-28.5690691913
 11
-2.6722247887
 21
-25.7693661913
  0
LINE
  5
2EC
100
AcDbEntity
  8
0
100
AcDbLine
 62
7
  6
CONTINUOUS
 10
0.4430292113
 20
-25.7693661913
 11
-0.1413787887
 21
-27.3237701913
  0
LINE
  5
2ED
100
AcDbEntity
  8
0
100
AcDbLine
 62
7
  6
CONTINUOUS
 10
-0.1035887887
 20
-28.5690691913
 11
0.5912722113
 21
-26.7485371913
  0
LINE
  5
2EE
100
AcDbEntity
  8
RACCORDO
100
AcDbLine
 62
253
  6
CONTINUOUS
 10
59.7220810086
 20
29.4723006937
 11
59.5593816661
 21
29.4449036608
  0
LWPOLYLINE
  5
2EF
100
AcDbEntity
  8
RACCORDO
100
AcDbPolyline
 62
253
  6
CONTINUOUS
 90
16
 70
0
 10
59.2803408889
 20
29.4179226836
 10
59.3088341966
 20
29.4223823401
 10
59.3369067755
 20
29.4265897941
 10
59.3642957598
 20
29.4305056481
 10
59.3907446848
 20
29.4340932347
 10
59.4160058883
 20
29.4373189607
 10
59.4398428297
 20
29.4401526208
 10
59.4620323048
 20
29.4425676814
 10
59.4823665361
 20
29.4445415283
 10
59.500655118
 20
29.4460556788
 10
59.5167268
 20
29.4470959548
 10
59.5304310904
 20
29.4476526153
 10
59.541639665
 20
29.4477204478
 10
59.5502475689
 20
29.4472988173
 10
59.5561741998
 20
29.4463916716
 10
59.5593640617
 20
29.4450075053
  0
LINE
  5
2F0
100
AcDbEntity
  8
RACCORDO
100
AcDbLine
 62
253
  6
CONTINUOUS
 10
60.2593008706
 20
25.4723006937
 11
60.0831850144
 21
25.4544785125
  0
LWPOLYLINE
  5
2F1
100
AcDbEntity
  8
RACCORDO
100
AcDbPolyline
 62
253
  6
CONTINUOUS
 90
16
 70
0
 10
59.8017184837
 20
25.4407335806
 10
59.8305673929
 20
25.4434206569
 10
59.8589872913
 20
25.4459275193
 10
59.88670992
 20
25.4482305053
 10
59.9134736015
 20
25.4503078767
 10
59.9390257099
 20
25.452140025
 10
59.9631250557
 20
25.4537096561
 10
59.985544162
 20
25.4550019543
 10
60.006071412
 20
25.4560047212
 10
60.0245130464
 20
25.4567084918
 10
60.0406949921
 20
25.4571066229
 10
60.0544645058
 20
25.4571953566
 10
60.0656916153
 20
25.4569738553
 10
60.0742703463
 20
25.4564442098
 10
60.0801197233
 20
25.4556114195
 10
60.083184533
 20
25.4544833452
  0
LWPOLYLINE
  5
2F2
100
AcDbEntity
  8
RACCORDO
100
AcDbPolyline
 62
253
  6
CONTINUOUS
 90
15
 70
0
 10
59.9388043299
 20
24.0087318087
 10
59.9961328925
 20
24.0136854386
 10
60.0238830562
 20
24.0159018049
 10
60.0506719665
 20
24.0179160429
 10
60.0762464771
 20
24.0197091187
 10
60.1003649175
 20
24.0212640883
 10
60.1227993765
 20
24.0225662578
 10
60.1433378559
 20
24.0236033221
 10
60.1617862738
 20
24.0243654813
 10
60.1779702989
 20
24.0248455332
 10
60.1917369976
 20
24.0250389415
 10
60.2029562791
 20
24.0249438786
 10
60.2115221249
 20
24.0245612428
 10
60.2173535907
 20
24.0238946498
 10
60.2203955711
 20
24.0229503988
  0
LINE
  5
2F3
100
AcDbEntity
  8
RACCORDO
100
AcDbLine
 62
7
  6
CONTINUOUS
 10
23.3609746517
 20
22.0152998203
 11
23.3851778241
 21
22.0159958309
  0
LINE
  5
2F4
100
AcDbEntity
  8
RACCORDO
100
AcDbLine
 62
253
  6
CONTINUOUS
 10
23.4393631514
 20
22.0175464469
 11
23.3851777494
 21
22.0160324557
  0
LINE
  5
2F5
100
AcDbEntity
  8
RACCORDO
100
AcDbLine
 62
253
  6
CONTINUOUS
 10
23.4975709815
 20
22.0187247438
 11
23.4393631514
 21
22.0175464469
  0
LINE
  5
2F6
100
AcDbEntity
  8
RACCORDO
100
AcDbLine
 62
253
  6
CONTINUOUS
 10
23.2510735095
 20
22.0140228329
 11
23.3020005457
 21
22.0148046368
  0
LWPOLYLINE
  5
2F7
100
AcDbEntity
  8
RACCORDO
100
AcDbPolyline
 62
253
  6
CONTINUOUS
 90
3
 70
0
 10
23.58989722
 20
22.0198138498
 10
23.5586531651
 20
22.0195441059
 10
23.4975709815
 20
22.0187247438
  0
LINE
  5
2F8
100
AcDbEntity
  8
RACCORDO
100
AcDbLine
 62
253
  6
CONTINUOUS
 10
23.3020005457
 20
22.0148046368
 11
23.3609767743
 21
22.0152512048
  0
LINE
  5
2F9
100
AcDbEntity
  8
RACCORDO
100
AcDbLine
 62
253
  6
CONTINUOUS
 10
-22.5951006937
 20
22.0247248443
 11
-22.5319815277
 21
22.0233680757
  0
LWPOLYLINE
  5
2FA
100
AcDbEntity
  8
RACCORDO
100
AcDbPolyline
 62
253
  6
CONTINUOUS
 90
12
 70
0
 10
-22.3030986219
 20
22.0152512109
 10
-22.2441435507
 20
22.0136455953
 10
-22.2176013915
 20
22.0127449677
 10
-22.193226281
 20
22.0117859598
 10
-22.1711613823
 20
22.0107741687
 10
-22.1515370843
 20
22.0097155564
 10
-22.1344681337
 20
22.0086163193
 10
-22.1200535243
 20
22.0074828396
 10
-22.1083772669
 20
22.0063217221
 10
-22.0995074127
 20
22.0051397336
 10
-22.0934956568
 20
22.0039437633
 10
-22.0903770366
 20
22.0027407815
  0
LINE
  5
2FB
100
AcDbEntity
  8
RACCORDO
100
AcDbLine
 62
253
  6
CONTINUOUS
 10
-22.5319815277
 20
22.0233680757
 11
-22.4699158158
 21
22.0216525203
  0
LINE
  5
2FC
100
AcDbEntity
  8
RACCORDO
100
AcDbLine
 62
7
  6
CONTINUOUS
 10
-22.303104309
 20
22.0152577083
 11
-22.3273074013
 21
22.0159959432
  0
LINE
  5
2FD
100
AcDbEntity
  8
RACCORDO
100
AcDbLine
 62
253
  6
CONTINUOUS
 10
-22.4699158158
 20
22.0216525203
 11
-22.4101280049
 21
22.0196120193
  0
LWPOLYLINE
  5
2FE
100
AcDbEntity
  8
RACCORDO
100
AcDbPolyline
 62
253
  6
CONTINUOUS
 90
3
 70
0
 10
-22.4101280049
 20
22.0196120193
 10
-22.3537976028
 20
22.0172868344
 10
-22.3272794862
 20
22.0160316209
  0
LWPOLYLINE
  5
2FF
100
AcDbEntity
  8
RACCORDO
100
AcDbPolyline
 62
253
  6
CONTINUOUS
 90
14
 70
0
 10
-58.938262463
 20
24.0136854371
 10
-58.9660126234
 20
24.0159018031
 10
-58.9928015306
 20
24.0179160408
 10
-59.0183760381
 20
24.0197091163
 10
-59.0424944756
 20
24.0212640856
 10
-59.0649289318
 20
24.0225662549
 10
-59.0854674087
 20
24.023603319
 10
-59.1039158245
 20
24.0243654781
 10
-59.1200998479
 20
24.0248455299
 10
-59.1338665453
 20
24.0250389382
 10
-59.1450858261
 20
24.0249438754
 10
-59.1536516716
 20
24.0245612396
 10
-59.1594831377
 20
24.0238946468
 10
-59.1625251188
 20
24.022950396
  0
LINE
  5
300
100
AcDbEntity
  8
RACCORDO
100
AcDbLine
 62
253
  6
CONTINUOUS
 10
-58.8809339064
 20
24.008731808
 11
-58.938262463
 21
24.0136854371
  0
LWPOLYLINE
  5
301
100
AcDbEntity
  8
RACCORDO
100
AcDbPolyline
 62
253
  6
CONTINUOUS
 90
16
 70
0
 10
-58.7438480612
 20
25.4407335807
 10
-58.7726969709
 20
25.4434206571
 10
-58.80111687
 20
25.4459275196
 10
-58.8288394993
 20
25.4482305057
 10
-58.8556031813
 20
25.4503078772
 10
-58.8811552904
 20
25.4521400255
 10
-58.9052546367
 20
25.4537096567
 10
-58.9276737435
 20
25.4550019549
 10
-58.948200994
 20
25.4560047219
 10
-58.9666426287
 20
25.4567084924
 10
-58.9828245748
 20
25.4571066236
 10
-58.9965940887
 20
25.4571953573
 10
-59.0078211983
 20
25.456973856
 10
-59.0163999294
 20
25.4564442105
 10
-59.0222493063
 20
25.4556114201
 10
-59.025314116
 20
25.4544833458
  0
LINE
  5
302
100
AcDbEntity
  8
RACCORDO
100
AcDbLine
 62
253
  6
CONTINUOUS
 10
-59.2014304479
 20
25.4723006937
 11
-59.0253147143
 21
25.4544772794
  0
LINE
  5
303
100
AcDbEntity
  8
RACCORDO
100
AcDbLine
 62
253
  6
CONTINUOUS
 10
-58.6642105859
 20
29.4723006937
 11
-58.5015135914
 21
29.444889461
  0
LWPOLYLINE
  5
304
100
AcDbEntity
  8
RACCORDO
100
AcDbPolyline
 62
253
  6
CONTINUOUS
 90
13
 70
0
 10
-21.1710591318
 20
23.172847788
 10
-17.5591243578
 20
23.2628819419
 10
-13.9463105797
 20
23.3365620146
 10
-10.3326177976
 20
23.393888006
 10
-6.7180345079
 20
23.434867711
 10
-3.1025722141
 20
23.4594933347
 10
0.5137345735
 20
23.4677414926
 10
4.1308858779
 20
23.4596195417
 10
7.7488816761
 20
23.435120125
 10
11.3676873895
 20
23.3941977871
 10
14.987291492
 20
23.336837376
 10
18.6077055097
 20
23.2630540437
 10
22.2289294426
 20
23.1728477902
  0
LWPOLYLINE
  5
305
100
AcDbEntity
  8
RACCORDO
100
AcDbPolyline
 62
253
  6
CONTINUOUS
 90
13
 70
0
 10
-21.1801883721
 20
23.4517858176
 10
-17.56678697
 20
23.5419015857
 10
-13.952440124
 20
23.6156479698
 10
-10.3371814949
 20
23.6730253058
 10
-6.7210671556
 20
23.7140417624
 10
-3.1041082102
 20
23.7386896222
 10
0.513729195
 20
23.7469452811
 10
4.13241143
 20
23.7388159311
 10
7.7519049104
 20
23.7142943808
 10
11.3722435097
 20
23.6733353387
 10
14.9934159492
 20
23.615923556
 10
18.6153657504
 20
23.5420738283
 10
22.2380587947
 20
23.4517858176
  0
LINE
  5
306
100
AcDbEntity
  8
RACCORDO
100
AcDbLine
 62
253
  6
CONTINUOUS
 10
23.6530207548
 20
22.0200668116
 11
23.58989722
 21
22.0198138498
  0
LINE
  5
307
100
AcDbEntity
  8
0
100
AcDbLine
 62
253
  6
CONTINUOUS
 10
-21.9710647887
 20
22.0087318087
 11
-22.0903692351
 21
22.0086959921
  0
LINE
  5
308
100
AcDbEntity
  8
0
100
AcDbLine
 62
7
  6
CONTINUOUS
 10
22.2289352113
 20
22.8087318087
 11
-21.1710647887
 21
22.8087318087
  0
LINE
  5
309
100
AcDbEntity
  8
RACCORDO
100
AcDbLine
 62
253
  6
CONTINUOUS
 10
-21.1710704684
 20
22.9262436156
 11
22.2289323792
 21
22.9262436156
  0
LINE
  5
30A
100
AcDbEntity
  8
RACCORDO
100
AcDbLine
 62
253
  6
CONTINUOUS
 10
-21.1710662697
 20
23.1389795083
 11
22.2289478084
 21
23.1389795083
  0
LINE
  5
30B
100
AcDbEntity
  8
RACCORDO
100
AcDbLine
 62
253
  6
CONTINUOUS
 10
59.9388078849
 20
24.0086939279
 11
-58.8809374673
 21
24.0086938747
  0
LINE
  5
30C
100
AcDbEntity
  8
0
100
AcDbLine
 62
253
  6
CONTINUOUS
 10
23.0289352113
 20
22.0087318087
 11
23.1482348844
 21
22.00872077
  0
LWPOLYLINE
  5
30D
100
AcDbEntity
  8
RACCORDO
100
AcDbPolyline
 62
253
  6
CONTINUOUS
 90
12
 70
0
 10
-22.3031054222
 20
22.0152512455
 10
-22.2441366962
 20
22.0148047604
 10
-22.2175914618
 20
22.0144528089
 10
-22.1932158658
 20
22.0140234293
 10
-22.171151989
 20
22.0135236109
 10
-22.1515284371
 20
22.0129608487
 10
-22.1344595909
 20
22.0123430898
 10
-22.1200449391
 20
22.0116786769
 10
-22.1083684992
 20
22.0109762894
 10
-22.0994983268
 20
22.0102448812
 10
-22.0934861197
 20
22.0094936172
 10
-22.0903669163
 20
22.0087318086
  0
LWPOLYLINE
  5
30E
100
AcDbEntity
  8
RACCORDO
100
AcDbPolyline
 62
253
  6
CONTINUOUS
 90
31
 70
0
 10
22.2289478084
 20
23.1389795084
 10
22.2816984994
 20
23.1377488879
 10
22.3349662803
 20
23.1340020205
 10
22.3886275294
 20
23.1276607282
 10
22.442383808
 20
23.1186781015
 10
22.4962643571
 20
23.106963101
 10
22.5506108054
 20
23.0923134766
 10
22.6056272941
 20
23.0744702416
 10
22.6607233933
 20
23.0534040868
 10
22.7150488347
 20
23.0293002092
 10
22.7683166977
 20
23.0022264645
 10
22.8204669617
 20
22.9721485018
 10
22.8710507232
 20
22.9392658557
 10
22.9198676746
 20
22.9036866528
 10
22.9668201604
 20
22.8654703869
 10
23.011653367
 20
22.8248118924
 10
23.0542026292
 20
22.781858986
 10
23.0943883882
 20
22.7367049586
 10
23.1321016499
 20
22.6894838324
 10
23.1672379908
 20
22.6403235945
 10
23.1996898217
 20
22.5893664973
 10
23.2293623011
 20
22.5367808554
 10
23.2561780753
 20
22.48272018
 10
23.280060062
 20
22.427338256
 10
23.3009363412
 20
22.3708145146
 10
23.3187434262
 20
22.3133850745
 10
23.3334663281
 20
22.2551481566
 10
23.3450979045
 20
22.196076334
 10
23.3535939115
 20
22.1362674992
 10
23.3588998289
 20
22.0759522228
 10
23.3609753482
 20
22.015299864
  0
LWPOLYLINE
  5
30F
100
AcDbEntity
  8
RACCORDO
100
AcDbPolyline
 62
253
  6
CONTINUOUS
 90
31
 70
0
 10
22.2289323792
 20
22.9262436152
 10
22.2720939846
 20
22.9252298992
 10
22.3156724813
 20
22.9221427387
 10
22.3595644754
 20
22.9169158569
 10
22.4035253234
 20
22.9095133947
 10
22.4475758593
 20
22.8998660753
 10
22.4919882003
 20
22.8878058607
 10
22.53692308
 20
22.8731190635
 10
22.581899673
 20
22.8557860824
 10
22.6262280224
 20
22.8359652508
 10
22.6696725062
 20
22.813709064
 10
22.7121787428
 20
22.7889903088
 10
22.7533785201
 20
22.7619812209
 10
22.7931083786
 20
22.7327759814
 10
22.8312855907
 20
22.7014215993
 10
22.8677014283
 20
22.6680824608
 10
22.9022272161
 20
22.6328876439
 10
22.9347975332
 20
22.5959155292
 10
22.9653199518
 20
22.5572780077
 10
22.9937140368
 20
22.5170853035
 10
23.0198999611
 20
22.4754593251
 10
23.0437985377
 20
22.432537637
 10
23.0653492368
 20
22.3884461275
 10
23.0844978133
 20
22.3433147068
 10
23.1011903684
 20
22.2972939832
 10
23.115374961
 20
22.2505749264
 10
23.1270441037
 20
22.2032380762
 10
23.1362004885
 20
22.1552656559
 10
23.1428106576
 20
22.106738996
 10
23.1468319316
 20
22.0578446741
 10
23.1482396331
 20
22.0087207696
  0
LWPOLYLINE
  5
310
100
AcDbEntity
  8
RACCORDO
100
AcDbPolyline
 62
253
  6
CONTINUOUS
 90
31
 70
0
 10
22.2380587947
 20
23.4517858176
 10
22.3103799867
 20
23.4481091965
 10
22.3825194307
 20
23.4407221169
 10
22.4544771585
 20
23.4296245712
 10
22.5265428713
 20
23.4147950027
 10
22.5984269252
 20
23.3962549414
 10
22.6692603321
 20
23.3740690038
 10
22.7390090559
 20
23.3481599987
 10
22.8077071785
 20
23.3186050684
 10
22.8745878847
 20
23.285700327
 10
22.9395859379
 20
23.249404352
 10
23.0027665991
 20
23.209758502
 10
23.0635587908
 20
23.1671830653
 10
23.1218586494
 20
23.1217269108
 10
23.1777700385
 20
23.0733410998
 10
23.2310334638
 20
23.0222992144
 10
23.2816587249
 20
22.9686055292
 10
23.329636001
 20
22.9122556948
 10
23.3746763609
 20
22.8535103621
 10
23.4168300086
 20
22.7922542108
 10
23.4560466983
 20
22.7286024839
 10
23.4918868176
 20
22.663161689
 10
23.5242998937
 20
22.5958710476
 10
23.5533363395
 20
22.5267912762
 10
23.5787078686
 20
22.4567111493
 10
23.6003325131
 20
22.3856166816
 10
23.6182921727
 20
22.3135218235
 10
23.6325443674
 20
22.2412572834
 10
23.6430749186
 20
22.1690999701
 10
23.6498979425
 20
22.0967729748
 10
23.6530134062
 20
22.024276296
  0
LWPOLYLINE
  5
311
100
AcDbEntity
  8
RACCORDO
100
AcDbPolyline
 62
253
  6
CONTINUOUS
 90
31
 70
0
 10
22.2289294426
 20
23.1728478534
 10
22.2874457804
 20
23.1694390908
 10
22.3460453996
 20
23.1631432059
 10
22.4045860877
 20
23.1539244362
 10
22.4629841565
 20
23.1417265887
 10
22.5210213355
 20
23.126533219
 10
22.5783581709
 20
23.108412068
 10
22.6348508595
 20
23.0873844181
 10
22.6903465705
 20
23.0634698986
 10
22.7445187625
 20
23.0368063828
 10
22.7972150133
 20
23.0074860111
 10
22.8483360313
 20
22.9755679431
 10
22.8976666526
 20
22.9411980563
 10
22.9450343064
 20
22.9045331262
 10
22.9904130344
 20
22.8656318276
 10
23.0338111227
 20
22.8244968645
 10
23.0751176806
 20
22.7812157735
 10
23.1142334167
 20
22.7358924713
 10
23.1511505022
 20
22.688519462
 10
23.1858061958
 20
22.6391082972
 10
23.2180256441
 20
22.587831757
 10
23.2476431599
 20
22.5349318163
 10
23.2745913962
 20
22.4805104865
 10
23.2987722361
 20
22.4247148831
 10
23.3200389494
 20
22.3678900491
 10
23.3383680281
 20
22.31019285
 10
23.3537342614
 20
22.2517653925
 10
23.3660671679
 20
22.192958924
 10
23.3753817953
 20
22.1339969052
 10
23.3817321803
 20
22.0749610908
 10
23.3851518811
 20
22.0159950661
  0
LWPOLYLINE
  5
312
100
AcDbEntity
  8
RACCORDO
100
AcDbPolyline
 62
253
  6
CONTINUOUS
 90
16
 70
0
 10
-58.2224704697
 20
29.4179226883
 10
-58.2509638173
 20
29.4223823543
 10
-58.2790364395
 20
29.426589818
 10
-58.3064254697
 20
29.4305056815
 10
-58.332874442
 20
29.4340932773
 10
-58.3581356931
 20
29.437319012
 10
-58.3819726815
 20
29.4401526804
 10
-58.4041622019
 20
29.4425677484
 10
-58.424496476
 20
29.4445416019
 10
-58.4427850972
 20
29.446055758
 10
-58.4588568143
 20
29.4470960385
 10
-58.4725611349
 20
29.4476527023
 10
-58.4837697341
 20
29.4477205371
 10
-58.4923776568
 20
29.4472989075
 10
-58.4983043
 20
29.4463917617
 10
-58.5014941676
 20
29.445007594
  0
LINE
  5
313
100
AcDbEntity
  8
RACCORDO
100
AcDbLine
 62
253
  6
CONTINUOUS
 10
22.232180938
 20
-22.6416500378
 11
22.2289352113
 21
-22.5553840551
  0
LINE
  5
314
100
AcDbEntity
  8
RACCORDO
100
AcDbLine
 62
253
  6
CONTINUOUS
 10
22.2352714089
 20
-22.7361359633
 11
22.232180938
 21
-22.6416500378
  0
LINE
  5
315
100
AcDbEntity
  8
RACCORDO
100
AcDbLine
 62
253
  6
CONTINUOUS
 10
22.2380587947
 20
-22.8343222
 11
22.2352714089
 21
-22.7361359633
  0
LINE
  5
316
100
AcDbEntity
  8
RACCORDO
100
AcDbLine
 62
253
  6
CONTINUOUS
 10
23.3851778241
 20
22.0159958309
 11
23.3962345612
 21
15.0876032374
  0
LINE
  5
317
100
AcDbEntity
  8
RACCORDO
100
AcDbLine
 62
253
  6
CONTINUOUS
 10
23.6530134062
 20
22.024276296
 11
23.6640769427
 21
15.0903508975
  0
LINE
  5
318
100
AcDbEntity
  8
RACCORDO
100
AcDbLine
 62
253
  6
CONTINUOUS
 10
23.3962345612
 20
15.0876032374
 11
23.4017453856
 21
9.9136672516
  0
LINE
  5
319
100
AcDbEntity
  8
RACCORDO
100
AcDbLine
 62
253
  6
CONTINUOUS
 10
23.1482348844
 20
22.00872077
 11
23.1661686158
 21
8.1153627093
  0
LINE
  5
31A
100
AcDbEntity
  8
RACCORDO
100
AcDbLine
 62
253
  6
CONTINUOUS
 10
23.3609746517
 20
22.0152998203
 11
23.3788841235
 21
8.117792563
  0
LINE
  5
31B
100
AcDbEntity
  8
RACCORDO
100
AcDbLine
 62
253
  6
CONTINUOUS
 10
23.6640769427
 20
15.0903508975
 11
23.6714446211
 21
7.359041825
  0
LINE
  5
31C
100
AcDbEntity
  8
RACCORDO
100
AcDbLine
 62
253
  6
CONTINUOUS
 10
23.1661686158
 20
8.1153627093
 11
23.1685742523
 21
2.3572762792
  0
LINE
  5
31D
100
AcDbEntity
  8
RACCORDO
100
AcDbLine
 62
253
  6
CONTINUOUS
 10
23.3788841235
 20
8.117792563
 11
23.3813627012
 21
2.3579305593
  0
LINE
  5
31E
100
AcDbEntity
  8
RACCORDO
100
AcDbLine
 62
253
  6
CONTINUOUS
 10
23.4017453856
 20
9.9136672516
 11
23.4055386025
 21
2.5827117328
  0
LINE
  5
31F
100
AcDbEntity
  8
RACCORDO
100
AcDbLine
 62
253
  6
CONTINUOUS
 10
22.2289294426
 20
23.1728477902
 11
22.2289352113
 21
22.9262436156
  0
LINE
  5
320
100
AcDbEntity
  8
0
100
AcDbLine
 62
253
  6
CONTINUOUS
 10
22.2289352113
 20
22.8087318087
 11
22.2289323792
 21
22.9262436156
  0
LINE
  5
321
100
AcDbEntity
  8
0
100
AcDbLine
 62
7
  6
CONTINUOUS
 10
23.0289352113
 20
22.0087318087
 11
23.0289352113
 21
-21.3912681913
  0
LINE
  5
322
100
AcDbEntity
  8
RACCORDO
100
AcDbLine
 62
253
  6
CONTINUOUS
 10
23.6714446211
 20
7.359041825
 11
23.6735997111
 21
0.3087318087
  0
LINE
  5
323
100
AcDbEntity
  8
0
100
AcDbLine
 62
253
  6
CONTINUOUS
 10
22.2289352113
 20
-22.1912681913
 11
22.228919662
 21
-22.3087799982
  0
LINE
  5
324
100
AcDbEntity
  8
RACCORDO
100
AcDbLine
 62
253
  6
CONTINUOUS
 10
23.1685742523
 20
2.3572762792
 11
23.1679356591
 21
-4.1653757035
  0
LINE
  5
325
100
AcDbEntity
  8
RACCORDO
100
AcDbLine
 62
253
  6
CONTINUOUS
 10
23.3813627012
 20
2.3579305593
 11
23.3806715982
 21
-4.1668905386
  0
LINE
  5
326
100
AcDbEntity
  8
RACCORDO
100
AcDbLine
 62
253
  6
CONTINUOUS
 10
23.4055386025
 20
2.5827117328
 11
23.4046101517
 21
-4.8357583437
  0
LINE
  5
327
100
AcDbEntity
  8
RACCORDO
100
AcDbLine
 62
253
  6
CONTINUOUS
 10
23.6735997111
 20
0.3087318087
 11
23.6714566601
 21
-6.6983431222
  0
LINE
  5
328
100
AcDbEntity
  8
RACCORDO
100
AcDbLine
 62
253
  6
CONTINUOUS
 10
22.2289352113
 20
-22.3087799982
 11
22.2289295535
 21
-22.5553841704
  0
LINE
  5
329
100
AcDbEntity
  8
RACCORDO
100
AcDbLine
 62
253
  6
CONTINUOUS
 10
23.1679356591
 20
-4.1653757035
 11
23.1643085237
 21
-9.8469861637
  0
LINE
  5
32A
100
AcDbEntity
  8
RACCORDO
100
AcDbLine
 62
253
  6
CONTINUOUS
 10
23.3806715982
 20
-4.1668905386
 11
23.3770408797
 21
-9.8505578357
  0
LINE
  5
32B
100
AcDbEntity
  8
RACCORDO
100
AcDbLine
 62
253
  6
CONTINUOUS
 10
23.4046101517
 20
-4.8357583437
 11
23.4006365119
 21
-10.5450301722
  0
LINE
  5
32C
100
AcDbEntity
  8
RACCORDO
100
AcDbLine
 62
253
  6
CONTINUOUS
 10
23.6714566601
 20
-6.6983431222
 11
23.6664822882
 21
-12.4711511309
  0
LINE
  5
32D
100
AcDbEntity
  8
RACCORDO
100
AcDbLine
 62
253
  6
CONTINUOUS
 10
23.1643085237
 20
-9.8469861637
 11
23.1579255079
 21
-15.4802631403
  0
LINE
  5
32E
100
AcDbEntity
  8
RACCORDO
100
AcDbLine
 62
253
  6
CONTINUOUS
 10
23.3770408797
 20
-9.8505578357
 11
23.3706566466
 21
-15.4856043287
  0
LINE
  5
32F
100
AcDbEntity
  8
RACCORDO
100
AcDbLine
 62
253
  6
CONTINUOUS
 10
23.4006365119
 20
-10.5450301722
 11
23.3937868555
 21
-16.253889838
  0
LWPOLYLINE
  5
330
100
AcDbEntity
  8
RACCORDO
100
AcDbPolyline
 62
253
  6
CONTINUOUS
 90
3
 70
0
 10
23.6664822882
 20
-12.4711511309
 10
23.6560576523
 20
-19.7524292996
 10
23.6530132394
 20
-21.4068144465
  0
LINE
  5
331
100
AcDbEntity
  8
RACCORDO
100
AcDbLine
 62
253
  6
CONTINUOUS
 10
23.1579255079
 20
-15.4802631403
 11
23.1482348794
 21
-21.3912602667
  0
LINE
  5
332
100
AcDbEntity
  8
RACCORDO
100
AcDbLine
 62
253
  6
CONTINUOUS
 10
23.3706566466
 20
-15.4856043287
 11
23.3609746218
 21
-21.3978520014
  0
LINE
  5
333
100
AcDbEntity
  8
RACCORDO
100
AcDbLine
 62
253
  6
CONTINUOUS
 10
23.3937868555
 20
-16.253889838
 11
23.385177824
 21
-21.398532294
  0
LWPOLYLINE
  5
334
100
AcDbEntity
  8
RACCORDO
100
AcDbPolyline
 62
253
  6
CONTINUOUS
 90
31
 70
0
 10
23.1482396272
 20
-21.3912602664
 10
23.1468336257
 20
-21.440350606
 10
23.142801672
 20
-21.489357834
 10
23.1361450648
 20
-21.5381409294
 10
23.1268720069
 20
-21.5865604193
 10
23.1149995559
 20
-21.6344731946
 10
23.100554623
 20
-21.6817333305
 10
23.0835680097
 20
-21.728206528
 10
23.0640814744
 20
-21.7737498165
 10
23.0421538101
 20
-21.8182083414
 10
23.017845118
 20
-21.8614474907
 10
22.9912195664
 20
-21.9033415285
 10
22.962357528
 20
-21.9437561257
 10
22.9313130221
 20
-21.9826029549
 10
22.8981968579
 20
-22.0197313661
 10
22.8632023821
 20
-22.0549361007
 10
22.826407983
 20
-22.0881585864
 10
22.7879653025
 20
-22.1192808215
 10
22.7482282983
 20
-22.1480688644
 10
22.7072695681
 20
-22.1745388794
 10
22.6653096628
 20
-22.1986136323
 10
22.6229937226
 20
-22.2200438137
 10
22.580779583
 20
-22.2387871334
 10
22.5385649741
 20
-22.2550697469
 10
22.496161615
 20
-22.269085241
 10
22.4541114399
 20
-22.2807766991
 10
22.41212813
 20
-22.2903428135
 10
22.3687005895
 20
-22.2980939229
 10
22.3233580535
 20
-22.3039187994
 10
22.2767283547
 20
-22.3075375306
 10
22.228919662
 20
-22.3087799957
  0
LINE
  5
335
100
AcDbEntity
  8
RACCORDO
100
AcDbLine
 62
253
  6
CONTINUOUS
 10
22.2380588297
 20
23.4517858975
 11
22.2342677899
 21
23.3214638106
  0
LINE
  5
336
100
AcDbEntity
  8
RACCORDO
100
AcDbLine
 62
253
  6
CONTINUOUS
 10
22.2342677899
 20
23.3214638106
 11
22.2311086595
 21
23.2292303293
  0
LINE
  5
337
100
AcDbEntity
  8
RACCORDO
100
AcDbLine
 62
253
  6
CONTINUOUS
 10
22.2311086595
 20
23.2292303293
 11
22.2289352113
 21
23.1728464861
  0
LWPOLYLINE
  5
338
100
AcDbEntity
  8
0
100
AcDbPolyline
 62
7
  6
CONTINUOUS
 90
51
 70
0
 10
5.4604300933
 20
-27.1790268394
 10
5.4716746409
 20
-27.1693916775
 10
5.483153916
 20
-27.1592873787
 10
5.4948925111
 20
-27.1487263584
 10
5.5068658358
 20
-27.1376961914
 10
5.5189887012
 20
-27.1260719236
 10
5.5312722385
 20
-27.1138701456
 10
5.5437053187
 20
-27.1010742527
 10
5.5561693627
 20
-27.0875094936
 10
5.5686691263
 20
-27.0731671336
 10
5.5811998558
 20
-27.0580558858
 10
5.5936287077
 20
-27.0420271647
 10
5.6059479515
 20
-27.0250675749
 10
5.6181653191
 20
-27.0071904815
 10
5.6301711596
 20
-26.9882874348
 10
5.6419791364
 20
-26.9683607308
 10
5.6535755863
 20
-26.9474080339
 10
5.6648098672
 20
-26.9253139422
 10
5.675706663
 20
-26.9020792114
 10
5.6862412877
 20
-26.8777030346
 10
5.696189043
 20
-26.8520676593
 10
5.7055723756
 20
-26.8251745306
 10
5.7143688327
 20
-26.7970221387
 10
5.7222863638
 20
-26.7674882896
 10
5.7293417142
 20
-26.7365510417
 10
5.7355181267
 20
-26.7042322553
 10
5.7404732922
 20
-26.6704754323
 10
5.7442283549
 20
-26.6353052687
 10
5.7467621504
 20
-26.5986969741
 10
5.7476689019
 20
-26.5605198115
 10
5.7470661867
 20
-26.5206897803
 10
5.744836396
 20
-26.4792907632
 10
5.7402209633
 20
-26.4364438454
 10
5.7332262779
 20
-26.3917541268
 10
5.7238458999
 20
-26.3456163788
 10
5.7113020125
 20
-26.2993362538
 10
5.6951779906
 20
-26.2526805009
 10
5.6758904026
 20
-26.2058823568
 10
5.6539112386
 20
-26.1609473507
 10
5.6289371872
 20
-26.1181605794
 10
5.6012715454
 20
-26.0772371121
 10
5.5722962541
 20
-26.0393275634
 10
5.5420924492
 20
-26.0048519246
 10
5.5105790273
 20
-25.9733904196
 10
5.4788945957
 20
-25.9448340383
 10
5.4472813538
 20
-25.9192478534
 10
5.4154971447
 20
-25.8965669398
 10
5.383954045
 20
-25.8764872685
 10
5.3527894256
 20
-25.8589075238
 10
5.321865952
 20
-25.8439291107
 10
5.2911836411
 20
-25.8315520647
  0
LWPOLYLINE
  5
339
100
AcDbEntity
  8
0
100
AcDbPolyline
 62
7
  6
CONTINUOUS
 90
4
 70
0
 10
5.4179247362
 20
-27.2138407435
 10
5.4283476194
 20
-27.2058255125
 10
5.4387665835
 20
-27.1972437536
 10
5.4604300933
 20
-27.1790268394
  0
LWPOLYLINE
  5
33A
100
AcDbEntity
  8
RACCORDO
100
AcDbPolyline
 62
253
  6
CONTINUOUS
 90
31
 70
0
 10
23.3609752317
 20
-21.3978520496
 10
23.3589034156
 20
-21.4584256897
 10
23.3535879351
 20
-21.518851981
 10
23.3450388351
 20
-21.5789577645
 10
23.3332657364
 20
-21.6385726402
 10
23.3182921356
 20
-21.6975195809
 10
23.3001641105
 20
-21.7556167592
 10
23.2789259474
 20
-21.812698246
 10
23.2546275053
 20
-21.8685884548
 10
23.2273488499
 20
-21.9231005472
 10
23.1971755414
 20
-21.9760730829
 10
23.1641880025
 20
-22.027354659
 10
23.1284807334
 20
-22.076784705
 10
23.0901286442
 20
-22.1242636438
 10
23.0492738094
 20
-22.1696119531
 10
23.006149488
 20
-22.2125800607
 10
22.9608532947
 20
-22.2530991407
 10
22.9135763484
 20
-22.2910360715
 10
22.8647473904
 20
-22.3261127866
 10
22.8144462635
 20
-22.3583486513
 10
22.762947342
 20
-22.3876540478
 10
22.7110476669
 20
-22.4137300032
 10
22.6593042538
 20
-22.4365256651
 10
22.6075866108
 20
-22.456314776
 10
22.5556698816
 20
-22.4733394276
 10
22.5042228375
 20
-22.4875361068
 10
22.4528862375
 20
-22.4991479702
 10
22.3997961321
 20
-22.5085505398
 10
22.3443715041
 20
-22.5156147063
 10
22.2873827706
 20
-22.5200057722
 10
22.2289592372
 20
-22.5215158911
  0
LWPOLYLINE
  5
33B
100
AcDbEntity
  8
RACCORDO
100
AcDbPolyline
 62
253
  6
CONTINUOUS
 90
31
 70
0
 10
23.6530132394
 20
-21.4068144465
 10
23.649897851
 20
-21.4793103398
 10
23.6430748832
 20
-21.5516367458
 10
23.632544369
 20
-21.6237936662
 10
23.6182921854
 20
-21.696058075
 10
23.6003325177
 20
-21.7681529981
 10
23.5787078659
 20
-21.839247531
 10
23.5533363376
 20
-21.9093276582
 10
23.5242998934
 20
-21.9784074302
 10
23.4918868183
 20
-22.045698072
 10
23.4560466991
 20
-22.1111388668
 10
23.4168300089
 20
-22.1747905935
 10
23.3746763609
 20
-22.2360467446
 10
23.3296360009
 20
-22.2947920772
 10
23.2816587247
 20
-22.3511419115
 10
23.2310334636
 20
-22.4048355968
 10
23.1777700385
 20
-22.4558774825
 10
23.1218586497
 20
-22.5042632939
 10
23.0635587912
 20
-22.5497194484
 10
23.002766599
 20
-22.5922948841
 10
22.9395859371
 20
-22.6319407328
 10
22.8745878836
 20
-22.6682367075
 10
22.8077071783
 20
-22.7011414513
 10
22.739009057
 20
-22.7306963851
 10
22.669260334
 20
-22.7566053917
 10
22.5984269264
 20
-22.7787913262
 10
22.5265428711
 20
-22.7973313823
 10
22.4544771574
 20
-22.8121609474
 10
22.3825194295
 20
-22.8232584932
 10
22.3103799858
 20
-22.8306455749
 10
22.2380587947
 20
-22.8343222001
  0
LWPOLYLINE
  5
33C
100
AcDbEntity
  8
RACCORDO
100
AcDbPolyline
 62
253
  6
CONTINUOUS
 90
31
 70
0
 10
23.3851518782
 20
-21.3985315464
 10
23.3817321674
 20
-21.4574976391
 10
23.3753817681
 20
-21.5165334988
 10
23.3660671254
 20
-21.5754955405
 10
23.353734208
 20
-21.6343020003
 10
23.3383679704
 20
-21.6927294279
 10
23.3200388884
 20
-21.7504266045
 10
23.298772167
 20
-21.8072514347
 10
23.2745913164
 20
-21.8630470406
 10
23.2476430696
 20
-21.9174683708
 10
23.2180255453
 20
-21.9703683067
 10
23.1858060895
 20
-22.0216448402
 10
23.1511503886
 20
-22.0710559981
 10
23.1142332959
 20
-22.118429001
 10
23.0751175529
 20
-22.1637522966
 10
23.0338109884
 20
-22.2070333808
 10
22.990412894
 20
-22.2481683368
 10
22.9450341602
 20
-22.2870696282
 10
22.8976665004
 20
-22.3237345511
 10
22.8483358719
 20
-22.3581044307
 10
22.7972148465
 20
-22.3900224912
 10
22.7445185907
 20
-22.4193428542
 10
22.6903464011
 20
-22.4460063593
 10
22.6348506954
 20
-22.4699208682
 10
22.5783580043
 20
-22.4909485103
 10
22.5210211372
 20
-22.5090696602
 10
22.4629839176
 20
-22.5242630268
 10
22.4045858528
 20
-22.5364608595
 10
22.3460452329
 20
-22.545679608
 10
22.2874457289
 20
-22.5519754759
 10
22.2289295535
 20
-22.5553842324
  0
LINE
  5
33D
100
AcDbEntity
  8
RACCORDO
100
AcDbLine
 62
253
  6
CONTINUOUS
 10
39.8990558003
 20
-43.3847033922
 11
39.8905255146
 21
-43.2564543935
  0
LWPOLYLINE
  5
33E
100
AcDbEntity
  8
RACCORDO
100
AcDbPolyline
 62
253
  6
CONTINUOUS
 90
3
 70
0
 10
39.8816084638
 20
-43.0016682612
 10
39.8846996351
 20
-43.0546696152
 10
39.8860763659
 20
-43.08006698
  0
LWPOLYLINE
  5
33F
100
AcDbEntity
  8
RACCORDO
100
AcDbPolyline
 62
253
  6
CONTINUOUS
 90
3
 70
0
 10
39.8816084637
 20
43.6191318782
 10
39.8832061927
 20
43.6459276519
 10
39.8860763657
 20
43.6975305955
  0
LINE
  5
340
100
AcDbEntity
  8
RACCORDO
100
AcDbLine
 62
253
  6
CONTINUOUS
 10
39.8990558003
 20
44.0021670096
 11
39.8905252102
 21
43.8739180327
  0
LWPOLYLINE
  5
341
100
AcDbEntity
  8
RACCORDO
100
AcDbPolyline
 62
253
  6
CONTINUOUS
 90
43
 70
0
 10
-43.8271808093
 20
43.4278008321
 10
-44.3318061959
 20
43.3626334696
 10
-44.8353849497
 20
43.2819754576
 10
-45.3374310325
 20
43.1857968004
 10
-45.8375721575
 20
43.0740541768
 10
-46.3351955403
 20
42.9467701399
 10
-46.8294576513
 20
42.8040690037
 10
-47.3198774475
 20
42.6460117174
 10
-47.8059585922
 20
42.472681854
 10
-48.2868554418
 20
42.2843267191
 10
-48.762066212
 20
42.0811031076
 10
-49.2311523017
 20
41.8631605388
 10
-49.6933926481
 20
41.6308155401
 10
-50.1482320446
 20
41.3843415616
 10
-50.5953432561
 20
41.1239118715
 10
-51.0343659611
 20
40.8497310144
 10
-51.464854582
 20
40.5620578844
 10
-51.8864058599
 20
40.2611433041
 10
-52.2987242874
 20
39.9471820664
 10
-52.7014304561
 20
39.6204229728
 10
-53.0940855139
 20
39.2811819761
 10
-53.4763100996
 20
38.9297618577
 10
-53.8477293676
 20
38.5664645664
 10
-54.2079528517
 20
38.1916288855
 10
-54.5565951218
 20
37.8056319311
 10
-54.8933204061
 20
37.4088038364
 10
-55.2177649687
 20
37.0015306838
 10
-55.529530742
 20
36.5842990116
 10
-55.8282850285
 20
36.1575331915
 10
-56.1137524669
 20
35.7216048555
 10
-56.3856506604
 20
35.2769424188
 10
-56.6437172128
 20
34.8239486449
 10
-56.8876818094
 20
34.3630697064
 10
-57.1172776919
 20
33.8948139834
 10
-57.3323443652
 20
33.4194783544
 10
-57.5325949487
 20
32.9376631343
 10
-57.7176492782
 20
32.4503636064
 10
-57.8873755325
 20
31.9580579743
 10
-58.0416528534
 20
31.461236856
 10
-58.1802411179
 20
30.9609519986
 10
-58.3030651545
 20
30.4578938275
 10
-58.410157162
 20
29.9523743592
 10
-58.501513576
 20
29.4448894584
  0
LWPOLYLINE
  5
342
100
AcDbEntity
  8
RACCORDO
100
AcDbPolyline
 62
253
  6
CONTINUOUS
 90
43
 70
0
 10
-43.8053612376
 20
43.1736284784
 10
-44.3018203877
 20
43.1095753652
 10
-44.7963289618
 20
43.0302480297
 10
-45.2888891647
 20
42.9356437604
 10
-45.7801158701
 20
42.8256912148
 10
-46.2693979668
 20
42.7004547931
 10
-46.754898344
 20
42.5601347127
 10
-47.2365970223
 20
42.4046344268
 10
-47.714516294
 20
42.2340407971
 10
-48.1868820137
 20
42.0488287168
 10
-48.6536380385
 20
41.8489205264
 10
-49.1148410913
 20
41.634382077
 10
-49.5688857957
 20
41.4059034647
 10
-50.015637789
 20
41.1634810053
 10
-50.4552301697
 20
40.9071052455
 10
-50.8864582294
 20
40.6374578858
 10
-51.3092871654
 20
40.3545143434
 10
-51.7237487168
 20
40.0582853344
 10
-52.1287375212
 20
39.7495060198
 10
-52.5242639709
 20
39.4281126856
 10
-52.910312913
 20
39.0941551133
 10
-53.2857402892
 20
38.7485395714
 10
-53.6505249288
 20
38.3912112717
 10
-54.0046817447
 20
38.0222118311
 10
-54.3471205682
 20
37.6425933957
 10
-54.6778161064
 20
37.2522903689
 10
-54.9967862059
 20
36.8513566704
 10
-55.3030053731
 20
36.4410253842
 10
-55.5964042331
 20
36.0212905856
 10
-55.8770439542
 20
35.5921487509
 10
-56.1440950474
 20
35.1548384779
 10
-56.3975200671
 20
34.7093142247
 10
-56.6373478992
 20
34.2556145811
 10
-56.8628489785
 20
33.7951064027
 10
-57.0740107339
 20
33.3276105536
 10
-57.2708372856
 20
32.8533019982
 10
-57.4526249354
 20
32.3740812442
 10
-57.6192653624
 20
31.88989686
 10
-57.7708593826
 20
31.4007996811
 10
-57.9070182962
 20
30.9088464607
 10
-58.0276108784
 20
30.4147243066
 10
-58.1327625743
 20
29.9177492018
 10
-58.2224704699
 20
29.4179226885
  0
LWPOLYLINE
  5
343
100
AcDbEntity
  8
RACCORDO
100
AcDbPolyline
 62
253
  6
CONTINUOUS
 90
10
 70
0
 10
-38.8237380411
 20
43.6191318785
 10
-39.3780323512
 20
43.5815533183
 10
-39.9321534279
 20
43.5409932452
 10
-40.4861017346
 20
43.4974513841
 10
-41.0399083527
 20
43.4509250838
 10
-41.5935430987
 20
43.4014163868
 10
-42.1469145274
 20
43.3489320311
 10
-42.6999924384
 20
43.2934740227
 10
-43.2528078738
 20
43.2350396346
 10
-43.8053612376
 20
43.1736284784
  0
LWPOLYLINE
  5
344
100
AcDbEntity
  8
RACCORDO
100
AcDbPolyline
 62
253
  6
CONTINUOUS
 90
10
 70
0
 10
-38.8326550919
 20
43.873918011
 10
-39.3883725809
 20
43.8362866379
 10
-39.9439473902
 20
43.7956689389
 10
-40.4993634029
 20
43.7520650295
 10
-41.0546208712
 20
43.7054736176
 10
-41.6096872794
 20
43.6558963127
 10
-42.1644974252
 20
43.6033385022
 10
-42.719018908
 20
43.5478031969
 10
-43.2732520479
 20
43.4892901539
 10
-43.8271808056
 20
43.4278007997
  0
LWPOLYLINE
  5
345
100
AcDbEntity
  8
RACCORDO
100
AcDbPolyline
 62
253
  6
CONTINUOUS
 90
19
 70
0
 10
39.8816084638
 20
43.6191318785
 10
35.5200962585
 20
43.8873721624
 10
31.1553797293
 20
44.1241140463
 10
26.7874800001
 20
44.3293744943
 10
22.4158706861
 20
44.5032285478
 10
18.0411148151
 20
44.6456288058
 10
13.6648650696
 20
44.7564054247
 10
9.2872024043
 20
44.8355252076
 10
4.9080748043
 20
44.8830356356
 10
0.528934132
 20
44.8988844521
 10
-3.8502060799
 20
44.8830356371
 10
-8.2293330366
 20
44.8355252107
 10
-12.6069959822
 20
44.7564053941
 10
-16.9832482124
 20
44.6456286554
 10
-21.3580074915
 20
44.5032282422
 10
-25.7296184008
 20
44.3293741145
 10
-30.0975170009
 20
44.124113712
 10
-34.4622305888
 20
43.8873719547
 10
-38.8237380411
 20
43.6191318785
  0
LWPOLYLINE
  5
346
100
AcDbEntity
  8
RACCORDO
100
AcDbPolyline
 62
253
  6
CONTINUOUS
 90
19
 70
0
 10
39.8905252102
 20
43.8739180327
 10
35.5283589011
 20
44.1417784179
 10
31.1625872744
 20
44.3783038793
 10
26.7934296729
 20
44.583442558
 10
22.4207658566
 20
44.7571587925
 10
18.0451565058
 20
44.8993839391
 10
13.6678441865
 20
45.0100414722
 10
9.289121477
 20
45.0891056398
 10
4.9091411334
 20
45.136558129
 10
0.5289375458
 20
45.1523763992
 10
-3.851265587
 20
45.1365581657
 10
-8.2312453018
 20
45.0891057225
 10
-12.6099683113
 20
45.0100415903
 10
-16.9872828835
 20
44.8993840321
 10
-21.3628954146
 20
44.7571587938
 10
-25.7355613674
 20
44.5834424661
 10
-30.1047194059
 20
44.3783037494
 10
-34.4704904279
 20
44.1417783043
 10
-38.8326550921
 20
43.8739180129
  0
LWPOLYLINE
  5
347
100
AcDbEntity
  8
RACCORDO
100
AcDbPolyline
 62
253
  6
CONTINUOUS
 90
10
 70
0
 10
44.8632316603
 20
43.1736284784
 10
44.3106788466
 20
43.2350395775
 10
43.7578638237
 20
43.2934739248
 10
43.2047861874
 20
43.3489319087
 10
42.6514148953
 20
43.4014162587
 10
42.0977801481
 20
43.4509249662
 10
41.543973392
 20
43.4974512855
 10
40.9900248105
 20
43.5409931711
 10
40.4359033223
 20
43.5815532771
 10
39.8816084638
 20
43.6191318785
  0
LINE
  5
348
100
AcDbEntity
  8
RACCORDO
100
AcDbLine
 62
253
  6
CONTINUOUS
 10
44.8632316608
 20
-42.5561648627
 11
44.8689140167
 21
-42.6089825524
  0
LINE
  5
349
100
AcDbEntity
  8
RACCORDO
100
AcDbLine
 62
253
  6
CONTINUOUS
 10
44.8689140167
 20
-42.6089825524
 11
44.8739978142
 21
-42.658599893
  0
LWPOLYLINE
  5
34A
100
AcDbEntity
  8
RACCORDO
100
AcDbPolyline
 62
253
  6
CONTINUOUS
 90
11
 70
0
 10
44.8739978142
 20
-42.658599893
 10
44.8783140722
 20
-42.7033676466
 10
44.8801384064
 20
-42.7234602219
 10
44.8817193219
 20
-42.7417977714
 10
44.8830436544
 20
-42.758227596
 10
44.8841003758
 20
-42.7726128828
 10
44.8848806869
 20
-42.7848338436
 10
44.8853780897
 20
-42.794788713
 10
44.8855884425
 20
-42.8023945957
 10
44.8855099935
 20
-42.8075881565
 10
44.885143396
 20
-42.8103261479
  0
LINE
  5
34B
100
AcDbEntity
  8
RACCORDO
100
AcDbLine
 62
253
  6
CONTINUOUS
 10
39.8860763659
 20
-43.08006698
 11
39.8884349432
 21
-43.1276003583
  0
LWPOLYLINE
  5
34C
100
AcDbEntity
  8
RACCORDO
100
AcDbPolyline
 62
253
  6
CONTINUOUS
 90
10
 70
0
 10
39.8884349432
 20
-43.1276003583
 10
39.8902035981
 20
-43.1694856181
 10
39.8908475263
 20
-43.1878668821
 10
39.8913235946
 20
-43.2043317776
 10
39.8916278424
 20
-43.2187433227
 10
39.8917577385
 20
-43.2309816187
 10
39.891712202
 20
-43.2409448471
 10
39.891491612
 20
-43.2485501177
 10
39.8910978035
 20
-43.2537341572
 10
39.890534053
 20
-43.2564538364
  0
LWPOLYLINE
  5
34D
100
AcDbEntity
  8
RACCORDO
100
AcDbPolyline
 62
253
  6
CONTINUOUS
 90
9
 70
0
 10
39.8902035978
 20
43.7869492319
 10
39.890847526
 20
43.8053304954
 10
39.8913235943
 20
43.8217953906
 10
39.8916278421
 20
43.8362069355
 10
39.8917577381
 20
43.8484452312
 10
39.8917122017
 20
43.8584084596
 10
39.8914916116
 20
43.8660137301
 10
39.8910978032
 20
43.8711977696
 10
39.8905340527
 20
43.8739174489
  0
LINE
  5
34E
100
AcDbEntity
  8
RACCORDO
100
AcDbLine
 62
253
  6
CONTINUOUS
 10
39.888434943
 20
43.7450639729
 11
39.8902035978
 21
43.7869492319
  0
LINE
  5
34F
100
AcDbEntity
  8
RACCORDO
100
AcDbLine
 62
253
  6
CONTINUOUS
 10
39.8860763657
 20
43.6975305955
 11
39.888434943
 21
43.7450639729
  0
LWPOLYLINE
  5
350
100
AcDbEntity
  8
RACCORDO
100
AcDbPolyline
 62
253
  6
CONTINUOUS
 90
9
 70
0
 10
44.8801384444
 20
43.3409241397
 10
44.8817193648
 20
43.3592617318
 10
44.8830437017
 20
43.3756915968
 10
44.8841004271
 20
43.3900769209
 10
44.8848807416
 20
43.4022979155
 10
44.8853781474
 20
43.4122528147
 10
44.8855885025
 20
43.4198587227
 10
44.8855100552
 20
43.425052304
 10
44.8851434588
 20
43.427790311
  0
LINE
  5
351
100
AcDbEntity
  8
RACCORDO
100
AcDbLine
 62
253
  6
CONTINUOUS
 10
44.8762615383
 20
43.2991511872
 11
44.8801384444
 21
43.3409241397
  0
LINE
  5
352
100
AcDbEntity
  8
RACCORDO
100
AcDbLine
 62
253
  6
CONTINUOUS
 10
44.8715418486
 20
43.2517612395
 11
44.8762615383
 21
43.2991511872
  0
LWPOLYLINE
  5
353
100
AcDbEntity
  8
RACCORDO
100
AcDbPolyline
 62
253
  6
CONTINUOUS
 90
3
 70
0
 10
44.8632316603
 20
43.1736284785
 10
44.8661362542
 20
43.2003295011
 10
44.8715418486
 20
43.2517612395
  0
LINE
  5
354
100
AcDbEntity
  8
RACCORDO
100
AcDbLine
 62
253
  6
CONTINUOUS
 10
44.8990558003
 20
43.5487318087
 11
44.8850377981
 21
43.4278023268
  0
LWPOLYLINE
  5
355
100
AcDbEntity
  8
RACCORDO
100
AcDbPolyline
 62
253
  6
CONTINUOUS
 90
10
 70
0
 10
44.8850377981
 20
43.4278023268
 10
44.3311173276
 20
43.4892907109
 10
43.7768904093
 20
43.547803086
 10
43.2223730786
 20
43.6033379925
 10
42.6675645242
 20
43.6558956848
 10
42.1124976305
 20
43.7054730688
 10
41.5572390608
 20
43.7520646044
 10
41.0018218184
 20
43.7956686352
 10
40.4462451627
 20
43.8362864858
 10
39.8905252101
 20
43.8739180308
  0
LINE
  5
356
100
AcDbEntity
  8
RACCORDO
100
AcDbLine
 62
253
  6
CONTINUOUS
 10
44.8990558003
 20
-42.9312681913
 11
44.885051232
 21
-42.8103372147
  0
LWPOLYLINE
  5
357
100
AcDbEntity
  8
RACCORDO
100
AcDbPolyline
 62
253
  6
CONTINUOUS
 90
9
 70
0
 10
59.7564961102
 20
25.883861346
 10
59.7080951671
 20
26.3267059793
 10
59.6565160796
 20
26.7692653149
 10
59.6017587607
 20
27.2115589535
 10
59.5438241892
 20
27.6535629786
 10
59.4827144357
 20
28.0952099893
 10
59.4184305469
 20
28.5364761299
 10
59.3509725187
 20
28.977381059
 10
59.2803408925
 20
29.4179226885
  0
LWPOLYLINE
  5
358
100
AcDbEntity
  8
RACCORDO
100
AcDbPolyline
 62
253
  6
CONTINUOUS
 90
9
 70
0
 10
60.0377501665
 20
25.8990632719
 10
59.9891218161
 20
26.343402634
 10
59.9373004926
 20
26.7874738961
 10
59.882286576
 20
27.231257889
 10
59.8240811721
 20
27.6747283449
 10
59.7626863702
 20
28.1178519211
 10
59.6981039556
 20
28.5606023711
 10
59.6303351525
 20
29.0029605228
 10
59.5593816796
 20
29.4449036631
  0
LINE
  5
359
100
AcDbEntity
  8
RACCORDO
100
AcDbLine
 62
253
  6
CONTINUOUS
 10
60.0988117775
 20
25.2954561305
 11
60.0377501665
 21
25.8990632719
  0
LINE
  5
35A
100
AcDbEntity
  8
RACCORDO
100
AcDbLine
 62
253
  6
CONTINUOUS
 10
59.8173312007
 20
25.2816570138
 11
59.7564961102
 21
25.883861346
  0
LINE
  5
35B
100
AcDbEntity
  8
RACCORDO
100
AcDbLine
 62
253
  6
CONTINUOUS
 10
60.2203955712
 20
24.0229503988
 11
60.0988117775
 21
25.2954561305
  0
LINE
  5
35C
100
AcDbEntity
  8
RACCORDO
100
AcDbLine
 62
253
  6
CONTINUOUS
 10
59.9388078849
 20
24.0086939279
 11
59.8173312007
 21
25.2816570138
  0
LWPOLYLINE
  5
35D
100
AcDbEntity
  8
RACCORDO
100
AcDbPolyline
 62
253
  6
CONTINUOUS
 90
16
 70
0
 10
59.9388071975
 20
-23.3912299195
 10
60.2127349109
 20
-20.2365290253
 10
60.4475708815
 20
-17.0799909326
 10
60.6432896012
 20
-13.9217408943
 10
60.7998576401
 20
-10.7618580703
 10
60.9172695506
 20
-7.6005146041
 10
60.9955480437
 20
-4.4379756738
 10
61.034696202
 20
-1.2738287752
 10
61.0346964321
 20
1.8912607058
 10
60.9955485817
 20
5.0554103774
 10
60.9172700872
 20
8.2179565392
 10
60.7998580161
 20
11.3793100074
 10
60.6432898207
 20
14.5392005447
 10
60.4475710071
 20
17.6974543223
 10
60.2127349528
 20
20.8539938671
 10
59.9388071682
 20
24.0086939279
  0
LWPOLYLINE
  5
35E
100
AcDbEntity
  8
RACCORDO
100
AcDbPolyline
 62
253
  6
CONTINUOUS
 90
16
 70
0
 10
60.2203955712
 20
-23.4054867814
 10
60.4946069927
 20
-20.2494453284
 10
60.7296606082
 20
-17.0908771384
 10
60.9255440033
 20
-13.9302562976
 10
61.0822364089
 20
-10.7683600296
 10
61.1997581706
 20
-7.6053590004
 10
61.2781322957
 20
-4.4408157689
 10
61.31733791
 20
-1.2746598251
 10
61.3173380969
 20
1.8920931126
 10
61.2781328075
 20
5.0582518328
 10
61.199758801
 20
8.2228023659
 10
61.0822368537
 20
11.3858134639
 10
60.9255441485
 20
14.5477173126
 10
60.7296605546
 20
17.7083414992
 10
60.4946068593
 20
20.8669105545
 10
60.2203955712
 20
24.0229503988
  0
LINE
  5
35F
100
AcDbEntity
  8
RACCORDO
100
AcDbLine
 62
253
  6
CONTINUOUS
 10
59.8173312018
 20
-24.6641933853
 11
59.9388079216
 21
-23.3912299195
  0
LINE
  5
360
100
AcDbEntity
  8
RACCORDO
100
AcDbLine
 62
253
  6
CONTINUOUS
 10
60.0988118469
 20
-24.6779918046
 11
60.2203955712
 21
-23.4054867814
  0
LWPOLYLINE
  5
361
100
AcDbEntity
  8
RACCORDO
100
AcDbPolyline
 62
253
  6
CONTINUOUS
 90
10
 70
0
 10
59.2803408925
 20
-28.8004590711
 10
59.350972775
 20
-28.3599156855
 10
59.4184309884
 20
-27.9190094413
 10
59.4827149916
 20
-27.4777424269
 10
59.5438247798
 20
-27.0360949874
 10
59.6017593155
 20
-26.5940909749
 10
59.6565165547
 20
-26.151797781
 10
59.7080955275
 20
-25.7092393186
 10
59.7564963121
 20
-25.2663959908
 10
59.8173312018
 20
-24.6641933853
  0
LWPOLYLINE
  5
362
100
AcDbEntity
  8
RACCORDO
100
AcDbPolyline
 62
253
  6
CONTINUOUS
 90
10
 70
0
 10
59.559384014
 20
-28.8274258436
 10
59.6303362548
 20
-28.3854898808
 10
59.6981041989
 20
-27.9431371253
 10
59.7626860886
 20
-27.5003902837
 10
59.8240807251
 20
-27.0572680428
 10
59.8822862124
 20
-26.6137971217
 10
59.9373002496
 20
-26.1700122978
 10
59.989121669
 20
-25.7259403184
 10
60.0377501435
 20
-25.2815998725
 10
60.0988118469
 20
-24.6779918046
  0
LWPOLYLINE
  5
363
100
AcDbEntity
  8
RACCORDO
100
AcDbPolyline
 62
253
  6
CONTINUOUS
 90
43
 70
0
 10
59.5593816661
 20
29.4449036608
 10
59.4680210686
 20
29.9524076279
 10
59.3609260395
 20
30.4579356716
 10
59.2381010935
 20
30.9609920988
 10
59.0995158542
 20
31.4612621235
 10
58.9452457275
 20
31.9580586667
 10
58.775528554
 20
32.4503391602
 10
58.5904843331
 20
32.9376154403
 10
58.3902457454
 20
33.4194070081
 10
58.1751922521
 20
33.8947203215
 10
57.9456107711
 20
34.362954852
 10
57.701661592
 20
34.8238140188
 10
57.4436100285
 20
35.276791762
 10
57.171725186
 20
35.7214432356
 10
56.8862699803
 20
36.1573640713
 10
56.5875279364
 20
36.5841237575
 10
56.2757750828
 20
37.0013496493
 10
55.9513433202
 20
37.4086183814
 10
55.6146297419
 20
37.8054443852
 10
55.2659971366
 20
38.1914422777
 10
54.9057818154
 20
38.5662809276
 10
54.5343705143
 20
38.929581679
 10
54.1521535638
 20
39.2810058284
 10
53.7595058854
 20
39.620251309
 10
53.3568087498
 20
39.947013802
 10
52.9445017782
 20
40.2609770298
 10
52.5229638558
 20
40.5618928848
 10
52.0924905949
 20
40.8495667477
 10
51.6534868084
 20
41.1237470909
 10
51.206396722
 20
41.3841761873
 10
50.7515761461
 20
41.6306520733
 10
50.2893522775
 20
41.8630012006
 10
49.8202800345
 20
42.0809499518
 10
49.3450751615
 20
42.2841836613
 10
48.8641744539
 20
42.4725526448
 10
48.3780808846
 20
42.6458987105
 10
47.8876391009
 20
42.8039740064
 10
47.3933443816
 20
42.9466943557
 10
46.8956784855
 20
43.0739976699
 10
46.395486708
 20
43.1857583733
 10
45.8933824565
 20
43.2819531092
 10
45.3897374476
 20
43.3626246682
 10
44.8850378024
 20
43.4278023638
  0
LWPOLYLINE
  5
364
100
AcDbEntity
  8
RACCORDO
100
AcDbPolyline
 62
253
  6
CONTINUOUS
 90
43
 70
0
 10
59.2803408925
 20
29.4179226885
 10
59.1906153339
 20
29.9178203278
 10
59.0854510892
 20
30.414843489
 10
58.9648510815
 20
30.908990643
 10
58.8286910252
 20
31.4009383844
 10
58.6771010041
 20
31.8900070593
 10
58.5104662689
 20
32.3741622285
 10
58.3286850547
 20
32.8533598544
 10
58.1318666292
 20
33.3276445693
 10
57.9207140759
 20
33.7951177676
 10
57.6952236779
 20
34.2556043739
 10
57.4554076013
 20
34.7092836339
 10
57.2019935824
 20
35.154790922
 10
56.934951874
 20
35.5920891218
 10
56.6543207804
 20
36.0212222964
 10
56.3609305414
 20
36.4409496506
 10
56.0547206048
 20
36.8512737422
 10
55.7357597289
 20
37.2522014605
 10
55.4050723079
 20
37.6425004222
 10
55.0626397417
 20
38.0221174869
 10
54.7084880762
 20
38.3911174687
 10
54.3437086418
 20
38.7484465802
 10
53.9682862725
 20
39.0940630771
 10
53.5822423921
 20
39.4280218745
 10
53.1867229792
 20
39.7494154467
 10
52.7817437694
 20
40.0581933877
 10
52.3672937877
 20
40.3544200374
 10
51.944478569
 20
40.637360854
 10
51.5132679264
 20
40.9070044934
 10
51.0736951104
 20
41.1633761666
 10
50.6269603451
 20
41.4057966748
 10
50.1729309176
 20
41.6342760167
 10
49.7117408055
 20
41.8488173287
 10
49.244989745
 20
42.0487313748
 10
48.7726196015
 20
42.2339532536
 10
48.2946879305
 20
42.4045596727
 10
47.8129674744
 20
42.5600737465
 10
47.3274305947
 20
42.700409386
 10
46.8381026172
 20
42.8256623653
 10
46.3468352878
 20
42.9356281601
 10
45.8542445956
 20
43.0302409353
 10
45.3597107882
 20
43.1095734707
 10
44.8632316603
 20
43.1736284784
  0
LINE
  5
365
100
AcDbEntity
  8
0
100
AcDbLine
 62
7
  6
CONTINUOUS
 10
-92.4526140608
 20
-44.0558807523
 11
-92.4319958861
 21
-44.0502529845
  0
LWPOLYLINE
  5
366
100
AcDbEntity
  8
0
100
AcDbPolyline
 62
7
  6
CONTINUOUS
 90
3
 70
0
 10
-92.692202816
 20
-44.1134756716
 10
-92.5201286645
 20
-44.0735560893
 10
-92.4526140609
 20
-44.0558807524
  0
LWPOLYLINE
  5
367
100
AcDbEntity
  8
0
100
AcDbPolyline
 62
7
  6
CONTINUOUS
 90
3
 70
0
 10
-92.7241639009
 20
-44.1200919639
 10
-92.5791964103
 20
-44.0880832804
 10
-92.4526140609
 20
-44.0558807524
  0
LINE
  5
368
100
AcDbEntity
  8
0
100
AcDbLine
 62
7
  6
CONTINUOUS
 10
-92.868214593
 20
-44.1468615326
 11
-92.692202816
 21
-44.1134756716
  0
LINE
  5
369
100
AcDbEntity
  8
0
100
AcDbLine
 62
7
  6
CONTINUOUS
 10
-93.0401232786
 20
-44.172366063
 11
-92.8667909581
 21
-44.1465969723
  0
LINE
  5
36A
100
AcDbEntity
  8
0
100
AcDbLine
 62
7
  6
CONTINUOUS
 10
-93.2154564072
 20
-44.1912681913
 11
-93.0401232786
 21
-44.172366063
  0
LWPOLYLINE
  5
36B
100
AcDbEntity
  8
0
100
AcDbPolyline
 62
7
  6
CONTINUOUS
 90
3
 70
0
 10
-93.2154564072
 20
-44.1912681643
 10
-93.15274644
 20
-44.1853269145
 10
-93.0111165936
 20
-44.1685493023
  0
LWPOLYLINE
  5
36C
100
AcDbEntity
  8
0
100
AcDbPolyline
 62
253
  6
CONTINUOUS
 90
19
 70
0
 10
-93.2154564072
 20
-42.3729271464
 10
-93.0469298497
 20
-42.3637047197
 10
-92.8795317088
 20
-42.3474667912
 10
-92.7132873564
 20
-42.3242165487
 10
-92.5485522998
 20
-42.2940261479
 10
-92.3850159021
 20
-42.2568601259
 10
-92.2217580073
 20
-42.2123977323
 10
-92.0581613892
 20
-42.1601743334
 10
-91.8950909015
 20
-42.1001535465
 10
-91.7338679331
 20
-42.032642945
 10
-91.5748796829
 20
-41.9577238292
 10
-91.4180206283
 20
-41.8751961267
 10
-91.2638157381
 20
-41.7851537549
 10
-91.1122930998
 20
-41.6874272257
 10
-90.9638594364
 20
-41.582079322
 10
-90.8196042307
 20
-41.4697623076
 10
-90.680075288
 20
-41.3508705666
 10
-90.5452717483
 20
-41.2253596296
 10
-90.4154564072
 20
-41.0933883205
  0
LWPOLYLINE
  5
36D
100
AcDbEntity
  8
0
100
AcDbPolyline
 62
253
  6
CONTINUOUS
 90
19
 70
0
 10
-93.2154564072
 20
-42.4345439019
 10
-93.0471673307
 20
-42.4254076549
 10
-92.8800377537
 20
-42.4092110848
 10
-92.7140778945
 20
-42.3859560039
 10
-92.5496421836
 20
-42.3557165087
 10
-92.3863894765
 20
-42.3184540384
 10
-92.2233428302
 20
-42.2738288763
 10
-92.0598337763
 20
-42.2213441661
 10
-91.8967558891
 20
-42.1609562705
 10
-91.7354943827
 20
-42.0929915177
 10
-91.5764405862
 20
-42.0175337748
 10
-91.4194657124
 20
-41.9343650559
 10
-91.2651145942
 20
-41.8435838528
 10
-91.1134068673
 20
-41.745010091
 10
-90.96474829
 20
-41.6387024762
 10
-90.820262901
 20
-41.5253407969
 10
-90.6805133314
 20
-41.4053346182
 10
-90.5454897896
 20
-41.2786328596
 10
-90.4154564072
 20
-41.1453980373
  0
LWPOLYLINE
  5
36E
100
AcDbEntity
  8
0
100
AcDbPolyline
 62
253
  6
CONTINUOUS
 90
19
 70
0
 10
-93.2154564072
 20
-42.8579592947
 10
-93.0479990108
 20
-42.8515509933
 10
-92.8822347656
 20
-42.8377287815
 10
-92.7180138658
 20
-42.8165054662
 10
-92.5556595614
 20
-42.7879906426
 10
-92.3945281783
 20
-42.7521460172
 10
-92.2331015679
 20
-42.7084876959
 10
-92.0701975937
 20
-42.6562330599
 10
-91.9069696672
 20
-42.5952675354
 10
-91.7454293992
 20
-42.5261072933
 10
-91.5860193944
 20
-42.4488893695
 10
-91.4283643278
 20
-42.3632396445
 10
-91.2731696598
 20
-42.2693075031
 10
-91.1204214825
 20
-42.1668783746
 10
-90.9704567166
 20
-42.0559661363
 10
-90.8245644627
 20
-41.9373913801
 10
-90.6834031572
 20
-41.8116608425
 10
-90.5469402778
 20
-41.6787185146
 10
-90.4154564072
 20
-41.5387739328
  0
LWPOLYLINE
  5
36F
100
AcDbEntity
  8
0
100
AcDbPolyline
 62
253
  6
CONTINUOUS
 90
19
 70
0
 10
-93.2154564072
 20
-42.8858035383
 10
-93.0480273962
 20
-42.8795858056
 10
-92.8823431262
 20
-42.8659323314
 10
-92.7182388355
 20
-42.8448572027
 10
-92.5560323543
 20
-42.8164730373
 10
-92.3950542629
 20
-42.7807420911
 10
-92.2337432657
 20
-42.7371691719
 10
-92.0708699105
 20
-42.6849463667
 10
-91.9076099973
 20
-42.6239527885
 10
-91.7460371265
 20
-42.5547249653
 10
-91.5866022188
 20
-42.4774082175
 10
-91.4289044766
 20
-42.3916145043
 10
-91.2736599563
 20
-42.2974975203
 10
-91.1208546767
 20
-42.1948435859
 10
-90.9708170524
 20
-42.0836631666
 10
-90.8248407816
 20
-41.964782189
 10
-90.6835899861
 20
-41.8387131205
 10
-90.547034375
 20
-41.7054033525
 10
-90.4154564072
 20
-41.5650676008
  0
LINE
  5
370
100
AcDbEntity
  8
DRAFT
100
AcDbLine
 62
7
  6
CONTINUOUS
 10
-93.2154564072
 20
-44.6912681913
 11
-96.1988953374
 21
-44.5349127823
  0
LINE
  5
371
100
AcDbEntity
  8
RACCORDO
100
AcDbLine
 62
253
  6
CONTINUOUS
 10
-93.2154564072
 20
-43.3847033922
 11
-95.6680002181
 21
-43.2564543935
  0
LINE
  5
372
100
AcDbEntity
  8
RACCORDO
100
AcDbLine
 62
253
  6
CONTINUOUS
 10
-93.2154564072
 20
-42.9312681913
 11
-95.5383777464
 21
-42.8103372147
  0
LWPOLYLINE
  5
373
100
AcDbEntity
  8
0
100
AcDbPolyline
 62
253
  6
CONTINUOUS
 90
19
 70
0
 10
-90.4154564072
 20
-28.6182191809
 10
-90.5380725045
 20
-28.6332030432
 10
-90.6656978125
 20
-28.647584132
 10
-90.798135485
 20
-28.6613302032
 10
-90.935163104
 20
-28.6744066389
 10
-91.0766054807
 20
-28.6867836345
 10
-91.2223244883
 20
-28.6984366519
 10
-91.3721153438
 20
-28.7093375853
 10
-91.5257176441
 20
-28.7194541937
 10
-91.6828951726
 20
-28.7287562188
 10
-91.8433800121
 20
-28.737213436
 10
-92.0069316741
 20
-28.7448048873
 10
-92.1733565807
 20
-28.7515127767
 10
-92.3424570393
 20
-28.7573172425
 10
-92.5138869146
 20
-28.7621930183
 10
-92.6872172827
 20
-28.766120375
 10
-92.8620997712
 20
-28.7690899224
 10
-93.0382803525
 20
-28.7710944393
 10
-93.2154564072
 20
-28.7721254667
  0
LWPOLYLINE
  5
374
100
AcDbEntity
  8
0
100
AcDbPolyline
 62
253
  6
CONTINUOUS
 90
19
 70
0
 10
-90.4154564072
 20
-28.5488041209
 10
-90.5381143012
 20
-28.5632758384
 10
-90.6657796724
 20
-28.5771629998
 10
-90.7982551691
 20
-28.5904344256
 10
-90.9353185944
 20
-28.6030567102
 10
-91.0767936218
 20
-28.6150009645
 10
-91.2225395195
 20
-28.6262432914
 10
-91.3723505173
 20
-28.6367565131
 10
-91.5259665507
 20
-28.6465095618
 10
-91.6831507852
 20
-28.6554732164
 10
-91.8436356342
 20
-28.6636183557
 10
-92.0071801756
 20
-28.6709247626
 10
-92.1735890216
 20
-28.6773752215
 10
-92.3426625861
 20
-28.6829505637
 10
-92.5140569991
 20
-28.6876265777
 10
-92.6873479775
 20
-28.6913844186
 10
-92.8621892269
 20
-28.6942150729
 10
-93.0383260023
 20
-28.6961115475
 10
-93.2154564072
 20
-28.6970656979
  0
LINE
  5
375
100
AcDbEntity
  8
0
100
AcDbLine
 62
7
  6
CONTINUOUS
 10
-98.4161865334
 20
-28.5690695456
 11
-98.2657755067
 21
-28.5690695456
  0
LINE
  5
376
100
AcDbEntity
  8
0
100
AcDbLine
 62
253
  6
CONTINUOUS
 10
-98.4716789234
 20
-27.8113684193
 11
-98.3213098398
 21
-27.8113684193
  0
LINE
  5
377
100
AcDbEntity
  8
0
100
AcDbLine
 62
7
  6
CONTINUOUS
 10
-98.5109218959
 20
-27.2621926281
 11
-98.3605819105
 21
-27.2621926281
  0
LINE
  5
378
100
AcDbEntity
  8
0
100
AcDbLine
 62
7
  6
CONTINUOUS
 10
-98.5120327722
 20
-27.2456488193
 11
-98.3616936382
 21
-27.2456488193
  0
LINE
  5
379
100
AcDbEntity
  8
RACCORDO
100
AcDbLine
 62
253
  6
CONTINUOUS
 10
-93.2154564072
 20
-28.8548370762
 11
-96.3636516017
 21
-28.8274258436
  0
LINE
  5
37A
100
AcDbEntity
  8
0
100
AcDbLine
 62
253
  6
CONTINUOUS
 10
-92.867858947
 20
-24.6159931576
 11
-93.2154564072
 21
-24.6190720999
  0
LINE
  5
37B
100
AcDbEntity
  8
0
100
AcDbLine
 62
253
  6
CONTINUOUS
 10
-92.8676033388
 20
-24.8016824903
 11
-93.2154564072
 21
-24.8045099384
  0
LINE
  5
37C
100
AcDbEntity
  8
0
100
AcDbLine
 62
253
  6
CONTINUOUS
 10
-92.5243637121
 20
-24.8009190748
 11
-92.8676033388
 21
-24.8016824903
  0
LINE
  5
37D
100
AcDbEntity
  8
0
100
AcDbLine
 62
253
  6
CONTINUOUS
 10
-92.5248540848
 20
-24.615218267
 11
-92.867858947
 21
-24.6159931576
  0
LINE
  5
37E
100
AcDbEntity
  8
0
100
AcDbLine
 62
253
  6
CONTINUOUS
 10
-98.602082308
 20
-25.8315520647
 11
-98.4518119882
 21
-25.8315520647
  0
LINE
  5
37F
100
AcDbEntity
  8
0
100
AcDbLine
 62
7
  6
CONTINUOUS
 10
-98.4602998958
 20
-25.7365166721
 11
-98.6105654807
 21
-25.7365166721
  0
LINE
  5
380
100
AcDbEntity
  8
RACCORDO
100
AcDbLine
 62
253
  6
CONTINUOUS
 10
-98.5934203489
 20
-23.3912681913
 11
-96.9421845372
 21
-23.3912299195
  0
LINE
  5
381
100
AcDbEntity
  8
RACCORDO
100
AcDbLine
 62
253
  6
CONTINUOUS
 10
-93.2154564072
 20
-24.8548370762
 11
-96.5931100403
 21
-24.8370136619
  0
LINE
  5
382
100
AcDbEntity
  8
0
100
AcDbLine
 62
253
  6
CONTINUOUS
 10
-92.1876910861
 20
-24.8021919921
 11
-92.5243637121
 21
-24.8009190748
  0
LINE
  5
383
100
AcDbEntity
  8
0
100
AcDbLine
 62
253
  6
CONTINUOUS
 10
-92.1883664339
 20
-24.6167171393
 11
-92.5248540848
 21
-24.615218267
  0
LINE
  5
384
100
AcDbEntity
  8
0
100
AcDbLine
 62
253
  6
CONTINUOUS
 10
-91.8591107603
 20
-24.8054511893
 11
-92.1876910861
 21
-24.8021919921
  0
LINE
  5
385
100
AcDbEntity
  8
0
100
AcDbLine
 62
253
  6
CONTINUOUS
 10
-91.8598539643
 20
-24.6204363179
 11
-92.1883664339
 21
-24.6167171393
  0
LINE
  5
386
100
AcDbEntity
  8
0
100
AcDbLine
 62
253
  6
CONTINUOUS
 10
-91.5410514538
 20
-24.8106247489
 11
-91.8591107603
 21
-24.8054511893
  0
LINE
  5
387
100
AcDbEntity
  8
0
100
AcDbLine
 62
253
  6
CONTINUOUS
 10
-91.5417778539
 20
-24.6262974907
 11
-91.8598539643
 21
-24.6204363179
  0
LINE
  5
388
100
AcDbEntity
  8
0
100
AcDbLine
 62
253
  6
CONTINUOUS
 10
-91.2356217916
 20
-24.8176135029
 11
-91.5410514538
 21
-24.8106247489
  0
LINE
  5
389
100
AcDbEntity
  8
0
100
AcDbLine
 62
253
  6
CONTINUOUS
 10
-91.236253217
 20
-24.6341920261
 11
-91.5417778539
 21
-24.6262974907
  0
LINE
  5
38A
100
AcDbEntity
  8
0
100
AcDbLine
 62
253
  6
CONTINUOUS
 10
-90.9447726256
 20
-24.8262935535
 11
-91.2356217916
 21
-24.8176135029
  0
LINE
  5
38B
100
AcDbEntity
  8
0
100
AcDbLine
 62
253
  6
CONTINUOUS
 10
-90.6707482059
 20
-24.8365233456
 11
-90.9447726256
 21
-24.8262935535
  0
LINE
  5
38C
100
AcDbEntity
  8
0
100
AcDbLine
 62
253
  6
CONTINUOUS
 10
-90.4154564072
 20
-24.8481566259
 11
-90.6707482059
 21
-24.8365233456
  0
LWPOLYLINE
  5
38D
100
AcDbEntity
  8
0
100
AcDbPolyline
 62
253
  6
CONTINUOUS
 90
6
 70
0
 10
-90.4154564072
 20
-24.6686266665
 10
-90.5407714745
 20
-24.6618842324
 10
-90.670988152
 20
-24.6555164063
 10
-90.8058757187
 20
-24.6495433157
 10
-90.9452292088
 20
-24.6439840851
 10
-91.236253217
 20
-24.6341920261
  0
LWPOLYLINE
  5
38E
100
AcDbEntity
  8
RACCORDO
100
AcDbPolyline
 62
253
  6
CONTINUOUS
 90
16
 70
0
 10
-96.8764996927
 20
25.4407335806
 10
-96.8733308446
 20
25.4434206569
 10
-96.8673687519
 20
25.4459275193
 10
-96.8586696915
 20
25.4482305053
 10
-96.847315775
 20
25.4503078767
 10
-96.8334141735
 20
25.452140025
 10
-96.8170961059
 20
25.4537096561
 10
-96.7985156007
 20
25.4550019543
 10
-96.7778480414
 20
25.4560047212
 10
-96.755288512
 20
25.4567084918
 10
-96.7310499547
 20
25.4571066229
 10
-96.7053611603
 20
25.4571953566
 10
-96.6784646087
 20
25.4569738553
 10
-96.6506141799
 20
25.4564442098
 10
-96.6220727576
 20
25.4556114195
 10
-96.5931097479
 20
25.4544833452
  0
LWPOLYLINE
  5
38F
100
AcDbEntity
  8
RACCORDO
100
AcDbPolyline
 62
253
  6
CONTINUOUS
 90
16
 70
0
 10
-96.9421829181
 20
24.0087318087
 10
-96.9390336095
 20
24.0112878878
 10
-96.9330867189
 20
24.0136854386
 10
-96.9243984425
 20
24.0159018049
 10
-96.9130508815
 20
24.0179160429
 10
-96.8991512666
 20
24.0197091187
 10
-96.8828309446
 20
24.0212640883
 10
-96.864244137
 20
24.0225662578
 10
-96.8435664831
 20
24.0236033221
 10
-96.8209933796
 20
24.0243654813
 10
-96.796738135
 20
24.0248455332
 10
-96.7710299532
 20
24.0250389415
 10
-96.744111768
 20
24.0249438786
 10
-96.7162379472
 20
24.0245612428
 10
-96.6876718892
 20
24.0238946498
 10
-96.6586835337
 20
24.0229503988
  0
LWPOLYLINE
  5
390
100
AcDbEntity
  8
RACCORDO
100
AcDbPolyline
 62
253
  6
CONTINUOUS
 90
16
 70
0
 10
-96.942182902
 20
-23.3912681905
 10
-96.939033591
 20
-23.3938242692
 10
-96.9330866986
 20
-23.3962218196
 10
-96.9243984209
 20
-23.3984381856
 10
-96.9130508593
 20
-23.4004524232
 10
-96.8991512443
 20
-23.4022454987
 10
-96.8828309227
 20
-23.4038004681
 10
-96.8642441161
 20
-23.4051026373
 10
-96.8435664636
 20
-23.4061397014
 10
-96.820993362
 20
-23.4069018605
 10
-96.7967381195
 20
-23.4073819123
 10
-96.7710299402
 20
-23.4075753206
 10
-96.7441117577
 20
-23.4074802578
 10
-96.7162379398
 20
-23.407097622
 10
-96.6876718847
 20
-23.4064310292
 10
-96.6586835321
 20
-23.4054867784
  0
LWPOLYLINE
  5
391
100
AcDbEntity
  8
RACCORDO
100
AcDbPolyline
 62
253
  6
CONTINUOUS
 90
16
 70
0
 10
-96.8764996956
 20
-24.8232699633
 10
-96.8733308479
 20
-24.8259570396
 10
-96.8673687555
 20
-24.8284639021
 10
-96.8586696954
 20
-24.8307668882
 10
-96.847315779
 20
-24.8328442597
 10
-96.8334141775
 20
-24.834676408
 10
-96.8170961099
 20
-24.8362460392
 10
-96.7985156044
 20
-24.8375383374
 10
-96.7778480449
 20
-24.8385411044
 10
-96.7552885152
 20
-24.839244875
 10
-96.7310499575
 20
-24.8396430061
 10
-96.7053611627
 20
-24.8397317398
 10
-96.6784646106
 20
-24.8395102385
 10
-96.6506141812
 20
-24.838980593
 10
-96.6220727584
 20
-24.8381478027
 10
-96.5931097482
 20
-24.8370197283
  0
LWPOLYLINE
  5
392
100
AcDbEntity
  8
RACCORDO
100
AcDbPolyline
 62
253
  6
CONTINUOUS
 90
16
 70
0
 10
-96.6466483592
 20
29.4179226836
 10
-96.6433341371
 20
29.4223823401
 10
-96.6372539371
 20
29.4265897941
 10
-96.628464693
 20
29.4305056481
 10
-96.6170487053
 20
29.4340932347
 10
-96.6031128711
 20
29.4373189607
 10
-96.5867876825
 20
29.4401526208
 10
-96.5682260052
 20
29.4425676814
 10
-96.5476016468
 20
29.4445415283
 10
-96.5251077297
 20
29.4460556788
 10
-96.500954882
 20
29.4470959548
 10
-96.475369266
 20
29.4476526153
 10
-96.4485904601
 20
29.4477204478
 10
-96.4208692155
 20
29.4472988173
 10
-96.3924651079
 20
29.4463916716
 10
-96.3636441077
 20
29.4450075053
  0
LINE
  5
393
100
AcDbEntity
  8
DRAFT
100
AcDbLine
 62
7
  6
CONTINUOUS
 10
-92.4154564072
 20
3.8087318087
 11
-90.4154564072
 21
4.1613857701
  0
LINE
  5
394
100
AcDbEntity
  8
0
100
AcDbLine
 62
253
  6
CONTINUOUS
 10
-92.4154564072
 20
0.3087318087
 11
-93.2154564072
 21
0.3087318087
  0
LINE
  5
395
100
AcDbEntity
  8
RACCORDO
100
AcDbLine
 62
253
  6
CONTINUOUS
 10
-98.9051143524
 20
0.3087318087
 11
-98.9052196098
 21
0.3087318087
  0
LWPOLYLINE
  5
396
100
AcDbEntity
  8
RACCORDO
100
AcDbPolyline
 62
253
  6
CONTINUOUS
 90
16
 70
0
 10
-96.6466484211
 20
-28.8004590708
 10
-96.6433342444
 20
-28.8049187368
 10
-96.6372540822
 20
-28.8091262005
 10
-96.6284648682
 20
-28.813042064
 10
-96.6170489028
 20
-28.8166296599
 10
-96.6031130832
 20
-28.8198553946
 10
-96.5867879016
 20
-28.8226890629
 10
-96.5682262241
 20
-28.8251041309
 10
-96.5476018588
 20
-28.8270779844
 10
-96.5251079283
 20
-28.8285921405
 10
-96.5009550617
 20
-28.829632421
 10
-96.4753694218
 20
-28.8301890849
 10
-96.4485905879
 20
-28.8302569196
 10
-96.420869312
 20
-28.82983529
 10
-96.3924651709
 20
-28.8289281442
 10
-96.3636441358
 20
-28.8275439765
  0
LINE
  5
397
100
AcDbEntity
  8
DRAFT
100
AcDbLine
 62
7
  6
CONTINUOUS
 10
-90.4154564072
 20
-3.5439221527
 11
-92.4154564072
 21
-3.1912681913
  0
LINE
  5
398
100
AcDbEntity
  8
RACCORDO
100
AcDbLine
 62
253
  6
CONTINUOUS
 10
-98.4336440764
 20
-21.4072612269
 11
-98.4337571097
 21
-21.4070773292
  0
LWPOLYLINE
  5
399
100
AcDbEntity
  8
RACCORDO
100
AcDbPolyline
 62
253
  6
CONTINUOUS
 90
16
 70
0
 10
-95.9488319556
 20
43.6191318782
 10
-95.9435214662
 20
43.6459276519
 10
-95.9357881126
 20
43.6721332313
 10
-95.9256962336
 20
43.6975305955
 10
-95.91332979
 20
43.7219084477
 10
-95.8987916661
 20
43.7450639729
 10
-95.8822028139
 20
43.7668045255
 10
-95.8637012465
 20
43.7869492319
 10
-95.8434408905
 20
43.8053304954
 10
-95.8215903046
 20
43.8217953906
 10
-95.7983312778
 20
43.8362069355
 10
-95.7738573169
 20
43.8484452312
 10
-95.7483720363
 20
43.8584084596
 10
-95.7220874643
 20
43.8660137301
 10
-95.6952222793
 20
43.8711977696
 10
-95.6679999897
 20
43.8739174489
  0
LWPOLYLINE
  5
39A
100
AcDbEntity
  8
RACCORDO
100
AcDbPolyline
 62
253
  6
CONTINUOUS
 90
16
 70
0
 10
-95.8192539934
 20
43.1736284785
 10
-95.8139567081
 20
43.2003295011
 10
-95.8062338818
 20
43.2264462474
 10
-95.7961498235
 20
43.2517612395
 10
-95.7837885044
 20
43.276063676
 10
-95.7692528592
 20
43.2991511872
 10
-95.752663928
 20
43.3208315202
 10
-95.7341598492
 20
43.3409241397
 10
-95.7138947089
 20
43.3592617318
 10
-95.6920372577
 20
43.3756915968
 10
-95.6687695056
 20
43.3900769209
 10
-95.6442852065
 20
43.4022979155
 10
-95.6187882444
 20
43.4122528147
 10
-95.5924909362
 20
43.4198587227
 10
-95.5656122632
 20
43.425052304
 10
-95.5383760478
 20
43.427790311
  0
LWPOLYLINE
  5
39B
100
AcDbEntity
  8
RACCORDO
100
AcDbPolyline
 62
253
  6
CONTINUOUS
 90
16
 70
0
 10
-95.819254005
 20
-42.5561648627
 10
-95.8139566764
 20
-42.5828658473
 10
-95.806233813
 20
-42.6089825524
 10
-95.796149724
 20
-42.6342975012
 10
-95.7837883807
 20
-42.658599893
 10
-95.7692527176
 20
-42.6816873589
 10
-95.752663775
 20
-42.7033676466
 10
-95.7341596909
 20
-42.7234602219
 10
-95.7138945512
 20
-42.7417977714
 10
-95.692037106
 20
-42.758227596
 10
-95.6687693651
 20
-42.7726128828
 10
-95.6442850816
 20
-42.7848338436
 10
-95.6187881391
 20
-42.794788713
 10
-95.5924908539
 20
-42.8023945957
 10
-95.5656122066
 20
-42.8075881565
 10
-95.538376019
 20
-42.8103261479
  0
LWPOLYLINE
  5
39C
100
AcDbEntity
  8
RACCORDO
100
AcDbPolyline
 62
253
  6
CONTINUOUS
 90
16
 70
0
 10
-95.9488319583
 20
-43.0016682612
 10
-95.9435214692
 20
-43.0284640353
 10
-95.9357881158
 20
-43.0546696152
 10
-95.925696237
 20
-43.08006698
 10
-95.9133297934
 20
-43.1044448327
 10
-95.8987916695
 20
-43.1276003583
 10
-95.8822028172
 20
-43.1493409113
 10
-95.8637012497
 20
-43.1694856181
 10
-95.8434408934
 20
-43.1878668821
 10
-95.8215903072
 20
-43.2043317776
 10
-95.7983312801
 20
-43.2187433227
 10
-95.7738573188
 20
-43.2309816187
 10
-95.7483720378
 20
-43.2409448471
 10
-95.7220874655
 20
-43.2485501177
 10
-95.69522228
 20
-43.2537341572
 10
-95.66799999
 20
-43.2564538364
  0
LWPOLYLINE
  5
39D
100
AcDbEntity
  8
0
100
AcDbPolyline
 62
7
  6
CONTINUOUS
 90
7
 70
0
 10
-98.4566760504
 20
-25.7682550385
 10
-98.4575708662
 20
-25.7581246272
 10
-98.4583529494
 20
-25.7499678714
 10
-98.4590260514
 20
-25.7437057639
 10
-98.4595858971
 20
-25.7394173376
 10
-98.4600347145
 20
-25.7370633638
 10
-98.4602978687
 20
-25.736550779
  0
LWPOLYLINE
  5
39E
100
AcDbEntity
  8
0
100
AcDbPolyline
 62
7
  6
CONTINUOUS
 90
9
 70
0
 10
-98.6067642207
 20
-25.7703430961
 10
-98.6075752687
 20
-25.7610202453
 10
-98.6082850116
 20
-25.753342327
 10
-98.6088984554
 20
-25.7472193035
 10
-98.6094109133
 20
-25.7427412328
 10
-98.6098460886
 20
-25.7394992919
 10
-98.6102080354
 20
-25.7374256933
 10
-98.6104928223
 20
-25.7365882304
 10
-98.6105636636
 20
-25.7365472699
  0
LINE
  5
39F
100
AcDbEntity
  8
0
100
AcDbLine
 62
7
  6
CONTINUOUS
 10
-98.4545004322
 20
-25.7953577447
 11
-98.4566760504
 21
-25.7682550385
  0
LINE
  5
3A0
100
AcDbEntity
  8
0
100
AcDbLine
 62
7
  6
CONTINUOUS
 10
-98.6047102849
 20
-25.7961867585
 11
-98.6067642207
 21
-25.7703430961
  0
LINE
  5
3A1
100
AcDbEntity
  8
0
100
AcDbLine
 62
7
  6
CONTINUOUS
 10
-98.4518119881
 20
-25.8315520662
 11
-98.4545004322
 21
-25.7953577447
  0
LINE
  5
3A2
100
AcDbEntity
  8
0
100
AcDbLine
 62
7
  6
CONTINUOUS
 10
-98.5057308506
 20
-27.3319420236
 11
-98.5109218959
 21
-27.2621926281
  0
LINE
  5
3A3
100
AcDbEntity
  8
0
100
AcDbLine
 62
7
  6
CONTINUOUS
 10
-98.3546388586
 20
-27.3422747303
 11
-98.3605819105
 21
-27.2621926281
  0
LINE
  5
3A4
100
AcDbEntity
  8
0
100
AcDbLine
 62
7
  6
CONTINUOUS
 10
-98.4161865334
 20
-28.5690695456
 11
-98.4716789234
 21
-27.8113684192
  0
LINE
  5
3A5
100
AcDbEntity
  8
0
100
AcDbLine
 62
7
  6
CONTINUOUS
 10
-98.6012037983
 20
-25.8439291107
 11
-98.6047102849
 21
-25.7961867585
  0
LINE
  5
3A6
100
AcDbEntity
  8
0
100
AcDbLine
 62
7
  6
CONTINUOUS
 10
-98.2657755067
 20
-28.5690695456
 11
-98.3273274446
 21
-27.7267947174
  0
LINE
  5
3A7
100
AcDbEntity
  8
0
100
AcDbLine
 62
7
  6
CONTINUOUS
 10
-98.3273274446
 20
-27.7267947174
 11
-98.3546388586
 21
-27.3422747303
  0
LINE
  5
3A8
100
AcDbEntity
  8
0
100
AcDbLine
 62
7
  6
CONTINUOUS
 10
-98.4716789234
 20
-27.8113684192
 11
-98.5057308506
 21
-27.3319420236
  0
LINE
  5
3A9
100
AcDbEntity
  8
RACCORDO
100
AcDbLine
 62
253
  6
CONTINUOUS
 10
-96.3419902629
 20
-33.1776427853
 11
-96.4779791258
 21
-31.2724332426
  0
LINE
  5
3AA
100
AcDbEntity
  8
0
100
AcDbLine
 62
7
  6
CONTINUOUS
 10
-98.422495777
 20
-28.5690695456
 11
-98.4833715521
 21
-27.72010645
  0
LINE
  5
3AB
100
AcDbEntity
  8
RACCORDO
100
AcDbLine
 62
253
  6
CONTINUOUS
 10
-95.9564054307
 20
-38.4766914959
 11
-96.3419902629
 21
-33.1776427853
  0
LINE
  5
3AC
100
AcDbEntity
  8
RACCORDO
100
AcDbLine
 62
253
  6
CONTINUOUS
 10
-96.4779791258
 20
-31.2724332426
 11
-96.5798035493
 21
-29.7972606891
  0
LINE
  5
3AD
100
AcDbEntity
  8
0
100
AcDbLine
 62
7
  6
CONTINUOUS
 10
-98.5037062796
 20
-27.4737329119
 11
-98.5348937888
 21
-27.0152305443
  0
LINE
  5
3AE
100
AcDbEntity
  8
RACCORDO
100
AcDbLine
 62
253
  6
CONTINUOUS
 10
-95.6519858693
 20
-39.0029593553
 11
-96.1952327528
 21
-31.3405943568
  0
LINE
  5
3AF
100
AcDbEntity
  8
0
100
AcDbLine
 62
7
  6
CONTINUOUS
 10
-98.5109218959
 20
-27.2621926281
 11
-98.5120327722
 21
-27.2456488193
  0
LINE
  5
3B0
100
AcDbEntity
  8
0
100
AcDbLine
 62
7
  6
CONTINUOUS
 10
-98.3605819105
 20
-27.2621926281
 11
-98.3616936382
 21
-27.2456488193
  0
LINE
  5
3B1
100
AcDbEntity
  8
RACCORDO
100
AcDbLine
 62
253
  6
CONTINUOUS
 10
-96.1952327528
 20
-31.3405943568
 11
-96.2968766324
 21
-29.84043021
  0
LINE
  5
3B2
100
AcDbEntity
  8
0
100
AcDbLine
 62
7
  6
CONTINUOUS
 10
-98.4455453583
 20
-25.9235488686
 11
-98.4518119881
 21
-25.8315520662
  0
LINE
  5
3B3
100
AcDbEntity
  8
0
100
AcDbLine
 62
7
  6
CONTINUOUS
 10
-98.5330745143
 20
-27.0151006417
 11
-98.5114239144
 21
-27.3396175498
  0
LINE
  5
3B4
100
AcDbEntity
  8
RACCORDO
100
AcDbLine
 62
253
  6
CONTINUOUS
 10
-96.5798035493
 20
-29.7972606891
 11
-96.6754066293
 21
-28.3599156855
  0
LINE
  5
3B5
100
AcDbEntity
  8
RACCORDO
100
AcDbLine
 62
253
  6
CONTINUOUS
 10
-95.8919946778
 20
-39.4408217169
 11
-95.9564054307
 21
-38.4766914959
  0
LINE
  5
3B6
100
AcDbEntity
  8
0
100
AcDbLine
 62
7
  6
CONTINUOUS
 10
-98.5882429872
 20
-26.0393275634
 11
-98.6012037983
 21
-25.8439291107
  0
LINE
  5
3B7
100
AcDbEntity
  8
RACCORDO
100
AcDbLine
 62
253
  6
CONTINUOUS
 10
-96.2968766324
 20
-29.84043021
 11
-96.3923606101
 21
-28.3854898808
  0
LINE
  5
3B8
100
AcDbEntity
  8
0
100
AcDbLine
 62
7
  6
CONTINUOUS
 10
-98.5312059765
 20
-27.0148962779
 11
-98.5803631235
 21
-26.2463229872
  0
LINE
  5
3B9
100
AcDbEntity
  8
RACCORDO
100
AcDbLine
 62
253
  6
CONTINUOUS
 10
-96.6754066293
 20
-28.3599156855
 11
-96.7305206401
 21
-27.4777424269
  0
LINE
  5
3BA
100
AcDbEntity
  8
0
100
AcDbLine
 62
7
  6
CONTINUOUS
 10
-98.5862068318
 20
-26.2202621028
 11
-98.6119414656
 21
-25.8022370849
  0
LINE
  5
3BB
100
AcDbEntity
  8
0
100
AcDbLine
 62
7
  6
CONTINUOUS
 10
-98.5134056268
 20
-27.2213765071
 11
-98.5882429872
 21
-26.0393275634
  0
LINE
  5
3BC
100
AcDbEntity
  8
0
100
AcDbLine
 62
7
  6
CONTINUOUS
 10
-98.6092940075
 20
-25.8020755323
 11
-98.5838252916
 21
-26.2201113035
  0
LINE
  5
3BD
100
AcDbEntity
  8
0
100
AcDbLine
 62
7
  6
CONTINUOUS
 10
-98.3627672174
 20
-27.2263449291
 11
-98.4455453583
 21
-25.9235488686
  0
LINE
  5
3BE
100
AcDbEntity
  8
RACCORDO
100
AcDbLine
 62
253
  6
CONTINUOUS
 10
-95.8563462419
 20
-40.0199942683
 11
-95.8919946778
 21
-39.4408217169
  0
LWPOLYLINE
  5
3BF
100
AcDbEntity
  8
RACCORDO
100
AcDbPolyline
 62
253
  6
CONTINUOUS
 90
3
 70
0
 10
-96.7305206401
 20
-27.4777424269
 10
-96.7824239439
 20
-26.5940909749
 10
-96.8071625427
 20
-26.151797781
  0
LWPOLYLINE
  5
3C0
100
AcDbEntity
  8
0
100
AcDbPolyline
 62
7
  6
CONTINUOUS
 90
4
 70
0
 10
-98.3616936382
 20
-27.2456488193
 10
-98.3618428303
 20
-27.2425605752
 10
-98.3620693678
 20
-27.2383444961
 10
-98.3627672174
 20
-27.2263449291
  0
LWPOLYLINE
  5
3C1
100
AcDbEntity
  8
0
100
AcDbPolyline
 62
7
  6
CONTINUOUS
 90
4
 70
0
 10
-98.5120327722
 20
-27.2456488193
 10
-98.5121643021
 20
-27.2428793779
 10
-98.5123653002
 20
-27.2390971809
 10
-98.5134056268
 20
-27.2213765071
  0
LINE
  5
3C2
100
AcDbEntity
  8
ASSI
100
AcDbLine
 62
7
  6
CONTINUOUS
 10
-98.6057790725
 20
-23.1293785041
 11
-98.5934203489
 21
-23.3912681913
  0
LINE
  5
3C3
100
AcDbEntity
  8
RACCORDO
100
AcDbLine
 62
7
  6
CONTINUOUS
 10
-98.5304932897
 20
-19.0523553931
 11
-98.425508009
 21
-21.6044793733
  0
LWPOLYLINE
  5
3C4
100
AcDbEntity
  8
0
100
AcDbPolyline
 62
7
  6
CONTINUOUS
 90
6
 70
0
 10
-98.5803631235
 20
-26.2463229872
 10
-98.5807101379
 20
-26.2376279583
 10
-98.5809484085
 20
-26.2306624911
 10
-98.5810781703
 20
-26.2254265969
 10
-98.5810981897
 20
-26.2219385106
 10
-98.5810100248
 20
-26.2201800118
  0
LINE
  5
3C5
100
AcDbEntity
  8
RACCORDO
100
AcDbLine
 62
253
  6
CONTINUOUS
 10
-98.5687170794
 20
-18.0358155427
 11
-98.5027873221
 21
-19.7524292996
  0
LINE
  5
3C6
100
AcDbEntity
  8
RACCORDO
100
AcDbLine
 62
7
  6
CONTINUOUS
 10
-98.425508009
 20
-21.6044793733
 11
-98.4135125374
 21
-21.9180993999
  0
LINE
  5
3C7
100
AcDbEntity
  8
RACCORDO
100
AcDbLine
 62
253
  6
CONTINUOUS
 10
-98.4137087212
 20
-21.9093276582
 11
-98.4135125374
 21
-21.9180993999
  0
LINE
  5
3C8
100
AcDbEntity
  8
RACCORDO
100
AcDbLine
 62
7
  6
CONTINUOUS
 10
-98.4135125374
 20
-21.9180993999
 11
-98.4052831971
 21
-22.1625528119
  0
LINE
  5
3C9
100
AcDbEntity
  8
RACCORDO
100
AcDbLine
 62
253
  6
CONTINUOUS
 10
-98.6950087527
 20
-14.1935280505
 11
-98.6890161876
 21
-14.395177131
  0
LINE
  5
3CA
100
AcDbEntity
  8
RACCORDO
100
AcDbLine
 62
7
  6
CONTINUOUS
 10
-98.4052831971
 20
-22.1625528119
 11
-98.4004524144
 21
-22.3285089421
  0
LINE
  5
3CB
100
AcDbEntity
  8
RACCORDO
100
AcDbLine
 62
7
  6
CONTINUOUS
 10
-98.4004524144
 20
-22.3285089421
 11
-98.3974222675
 21
-22.4520158788
  0
LWPOLYLINE
  5
3CC
100
AcDbEntity
  8
RACCORDO
100
AcDbPolyline
 62
253
  6
CONTINUOUS
 90
3
 70
0
 10
-98.8253938255
 20
-8.6227056019
 10
-98.7873357247
 20
-10.5470473456
 10
-98.7418780065
 20
-12.4711511309
  0
LINE
  5
3CD
100
AcDbEntity
  8
RACCORDO
100
AcDbLine
 62
7
  6
CONTINUOUS
 10
-98.3974222675
 20
-22.4520158788
 11
-98.3956602418
 21
-22.5417101429
  0
LINE
  5
3CE
100
AcDbEntity
  8
RACCORDO
100
AcDbLine
 62
7
  6
CONTINUOUS
 10
-98.3956602418
 20
-22.5417101429
 11
-98.3947416846
 21
-22.605043954
  0
LWPOLYLINE
  5
3CF
100
AcDbEntity
  8
RACCORDO
100
AcDbPolyline
 62
253
  6
CONTINUOUS
 90
4
 70
0
 10
-98.3992070361
 20
-22.8343222
 10
-98.3995458908
 20
-22.8014710355
 10
-98.3974857815
 20
-22.7686839964
 10
-98.3949233952
 20
-22.7499342118
  0
LINE
  5
3D0
100
AcDbEntity
  8
RACCORDO
100
AcDbLine
 62
253
  6
CONTINUOUS
 10
-98.8823775656
 20
-4.4722300088
 11
-98.8786566764
 21
-4.8367135251
  0
LINE
  5
3D1
100
AcDbEntity
  8
RACCORDO
100
AcDbLine
 62
7
  6
CONTINUOUS
 10
-98.3947416846
 20
-22.605043954
 11
-98.3943427282
 21
-22.6482512068
  0
LINE
  5
3D2
100
AcDbEntity
  8
RACCORDO
100
AcDbLine
 62
253
  6
CONTINUOUS
 10
-98.9023854989
 20
-1.3436039131
 11
-98.8937817492
 21
-3.058760181
  0
LWPOLYLINE
  5
3D3
100
AcDbEntity
  8
RACCORDO
100
AcDbPolyline
 62
253
  6
CONTINUOUS
 90
10
 70
0
 10
-98.3942159789
 20
-22.6848736499
 10
-98.3936456409
 20
-22.7011414513
 10
-98.3937119229
 20
-22.7306963851
 10
-98.3939622103
 20
-22.7566053917
 10
-98.3944011355
 20
-22.7787913262
 10
-98.3950247077
 20
-22.7973313823
 10
-98.3958182963
 20
-22.8121609474
 10
-98.3967772734
 20
-22.8232584932
 10
-98.3979068112
 20
-22.8306455749
 10
-98.3992070377
 20
-22.8343222001
  0
LINE
  5
3D4
100
AcDbEntity
  8
RACCORDO
100
AcDbLine
 62
7
  6
CONTINUOUS
 10
-98.3943427282
 20
-22.6482512068
 11
-98.394223845
 21
-22.6763402786
  0
LWPOLYLINE
  5
3D5
100
AcDbEntity
  8
RACCORDO
100
AcDbPolyline
 62
7
  6
CONTINUOUS
 90
9
 70
0
 10
-98.9052196098
 20
0.3087318087
 10
-98.8996999539
 20
-2.0414767684
 10
-98.8823775656
 20
-4.4722300088
 10
-98.8532462874
 20
-6.9028697479
 10
-98.8123069965
 20
-9.3333366037
 10
-98.7595607561
 20
-11.7635742738
 10
-98.6950087527
 20
-14.1935280505
 10
-98.6186523643
 20
-16.6231415487
 10
-98.5304932897
 20
-19.0523553931
  0
LINE
  5
3D6
100
AcDbEntity
  8
RACCORDO
100
AcDbLine
 62
7
  6
CONTINUOUS
 10
-98.3942734742
 20
23.3242460915
 11
-98.3942161064
 21
23.3013817879
  0
LINE
  5
3D7
100
AcDbEntity
  8
RACCORDO
100
AcDbLine
 62
7
  6
CONTINUOUS
 10
-98.394223845
 20
-22.6763402786
 11
-98.3942448388
 21
-22.7006920019
  0
LINE
  5
3D8
100
AcDbEntity
  8
RACCORDO
100
AcDbLine
 62
253
  6
CONTINUOUS
 10
-98.3936456409
 20
23.3186050684
 11
-98.3942161064
 21
23.3013817879
  0
LINE
  5
3D9
100
AcDbEntity
  8
RACCORDO
100
AcDbLine
 62
7
  6
CONTINUOUS
 10
-98.3942161064
 20
23.3013817879
 11
-98.3942901419
 21
23.274806826
  0
LINE
  5
3DA
100
AcDbEntity
  8
RACCORDO
100
AcDbLine
 62
253
  6
CONTINUOUS
 10
-98.8996709712
 20
2.6650875314
 11
-98.8999444568
 21
2.5830512171
  0
LINE
  5
3DB
100
AcDbEntity
  8
RACCORDO
100
AcDbLine
 62
253
  6
CONTINUOUS
 10
-98.3937653171
 20
23.285700327
 11
-98.3942901419
 21
23.274806826
  0
LWPOLYLINE
  5
3DC
100
AcDbEntity
  8
RACCORDO
100
AcDbPolyline
 62
253
  6
CONTINUOUS
 90
3
 70
0
 10
-98.3944196621
 20
23.2550423942
 10
-98.3940738997
 20
23.249404352
 10
-98.3946180479
 20
23.2336273808
  0
LINE
  5
3DD
100
AcDbEntity
  8
RACCORDO
100
AcDbLine
 62
7
  6
CONTINUOUS
 10
-98.3942901419
 20
23.274806826
 11
-98.3946180479
 21
23.2336273808
  0
LWPOLYLINE
  5
3DE
100
AcDbEntity
  8
RACCORDO
100
AcDbPolyline
 62
253
  6
CONTINUOUS
 90
4
 70
0
 10
-98.3992087618
 20
23.4517858975
 10
-98.3995475943
 20
23.418934645
 10
-98.3974874676
 20
23.3861475054
 10
-98.3949231368
 20
23.3673834795
  0
LINE
  5
3DF
100
AcDbEntity
  8
RACCORDO
100
AcDbLine
 62
253
  6
CONTINUOUS
 10
-98.8823236167
 20
5.0953238825
 11
-98.8837426664
 21
4.93317435
  0
LINE
  5
3E0
100
AcDbEntity
  8
RACCORDO
100
AcDbLine
 62
7
  6
CONTINUOUS
 10
-98.3946180479
 20
23.2336273808
 11
-98.3952348329
 21
23.1857640823
  0
LINE
  5
3E1
100
AcDbEntity
  8
RACCORDO
100
AcDbLine
 62
253
  6
CONTINUOUS
 10
-98.3945677234
 20
23.209758502
 11
-98.3952348329
 21
23.1857640823
  0
LINE
  5
3E2
100
AcDbEntity
  8
RACCORDO
100
AcDbLine
 62
253
  6
CONTINUOUS
 10
-98.3954368254
 20
23.1727353076
 11
-98.395239107
 21
23.1671830653
  0
LINE
  5
3E3
100
AcDbEntity
  8
RACCORDO
100
AcDbLine
 62
253
  6
CONTINUOUS
 10
-98.8531725517
 20
7.5254482329
 11
-98.8554400005
 21
7.359041825
  0
LINE
  5
3E4
100
AcDbEntity
  8
RACCORDO
100
AcDbLine
 62
7
  6
CONTINUOUS
 10
-98.3952348329
 20
23.1857640823
 11
-98.3964455364
 21
23.1163113951
  0
LINE
  5
3E5
100
AcDbEntity
  8
RACCORDO
100
AcDbLine
 62
253
  6
CONTINUOUS
 10
-98.3960876693
 20
23.1217269108
 11
-98.3964455364
 21
23.1163113951
  0
LINE
  5
3E6
100
AcDbEntity
  8
RACCORDO
100
AcDbLine
 62
253
  6
CONTINUOUS
 10
-98.3970758095
 20
23.0854886352
 11
-98.397113061
 21
23.0733410998
  0
LINE
  5
3E7
100
AcDbEntity
  8
RACCORDO
100
AcDbLine
 62
253
  6
CONTINUOUS
 10
-98.7554207495
 20
12.5471158809
 11
-98.7594624037
 21
12.3851147657
  0
LINE
  5
3E8
100
AcDbEntity
  8
RACCORDO
100
AcDbLine
 62
253
  6
CONTINUOUS
 10
-98.812218434
 20
9.9553970621
 11
-98.8128859226
 21
9.9152887405
  0
LINE
  5
3E9
100
AcDbEntity
  8
RACCORDO
100
AcDbLine
 62
7
  6
CONTINUOUS
 10
-98.3964455364
 20
23.1163113951
 11
-98.3986015546
 21
23.0185198193
  0
LINE
  5
3EA
100
AcDbEntity
  8
RACCORDO
100
AcDbLine
 62
253
  6
CONTINUOUS
 10
-98.3983078692
 20
23.0222992144
 11
-98.3986015546
 21
23.0185198193
  0
LINE
  5
3EB
100
AcDbEntity
  8
RACCORDO
100
AcDbLine
 62
253
  6
CONTINUOUS
 10
-98.3995011376
 20
22.9823456467
 11
-98.399671271
 21
22.9686055292
  0
LINE
  5
3EC
100
AcDbEntity
  8
RACCORDO
100
AcDbLine
 62
253
  6
CONTINUOUS
 10
-98.6867251907
 20
15.0903508975
 11
-98.6949055893
 21
14.8145498281
  0
LINE
  5
3ED
100
AcDbEntity
  8
RACCORDO
100
AcDbLine
 62
7
  6
CONTINUOUS
 10
-98.3986015546
 20
23.0185198193
 11
-98.4021690727
 21
22.8840269401
  0
LINE
  5
3EE
100
AcDbEntity
  8
RACCORDO
100
AcDbLine
 62
7
  6
CONTINUOUS
 10
-98.4021690727
 20
22.8840269401
 11
-98.4085551795
 21
22.6786883064
  0
LWPOLYLINE
  5
3EF
100
AcDbEntity
  8
RACCORDO
100
AcDbPolyline
 62
7
  6
CONTINUOUS
 90
9
 70
0
 10
-98.5303955253
 20
19.672342014
 10
-98.6185492668
 20
17.2436467369
 10
-98.6949055893
 20
14.8145498281
 10
-98.7594624037
 20
12.3851147657
 10
-98.812218434
 20
9.9553970621
 10
-98.8531725517
 20
7.5254482329
 10
-98.8823236167
 20
5.0953238825
 10
-98.8996709712
 20
2.6650875314
 10
-98.9052196098
 20
0.3087318087
  0
LINE
  5
3F0
100
AcDbEntity
  8
RACCORDO
100
AcDbLine
 62
253
  6
CONTINUOUS
 10
-98.5252669955
 20
19.8015914409
 11
-98.5303955253
 21
19.672342014
  0
LINE
  5
3F1
100
AcDbEntity
  8
RACCORDO
100
AcDbLine
 62
7
  6
CONTINUOUS
 10
-98.4085551795
 20
22.6786883064
 11
-98.4181596975
 21
22.4095247282
  0
LINE
  5
3F2
100
AcDbEntity
  8
RACCORDO
100
AcDbLine
 62
7
  6
CONTINUOUS
 10
-98.4181596975
 20
22.4095247282
 11
-98.4317921146
 21
22.0705109252
  0
LINE
  5
3F3
100
AcDbEntity
  8
RACCORDO
100
AcDbLine
 62
7
  6
CONTINUOUS
 10
-98.4317921146
 20
22.0705109252
 11
-98.5303955253
 21
19.672342014
  0
LINE
  5
3F4
100
AcDbEntity
  8
ASSI
100
AcDbLine
 62
7
  6
CONTINUOUS
 10
-98.5934203489
 20
24.0087318087
 11
-98.6057790688
 21
23.7468422012
  0
LINE
  5
3F5
100
AcDbEntity
  8
RACCORDO
100
AcDbLine
 62
253
  6
CONTINUOUS
 10
-96.8071623275
 20
26.7692653149
 11
-96.7568745429
 21
27.6535629786
  0
LINE
  5
3F6
100
AcDbEntity
  8
RACCORDO
100
AcDbLine
 62
253
  6
CONTINUOUS
 10
-96.7568745429
 20
27.6535629786
 11
-96.7033643471
 21
28.5364761299
  0
LINE
  5
3F7
100
AcDbEntity
  8
RACCORDO
100
AcDbLine
 62
253
  6
CONTINUOUS
 10
-95.8920005525
 20
40.0581933877
 11
-95.8563519512
 21
40.637360854
  0
LINE
  5
3F8
100
AcDbEntity
  8
RACCORDO
100
AcDbLine
 62
253
  6
CONTINUOUS
 10
-96.7033643471
 20
28.5364761299
 11
-96.646648424
 21
29.4179226885
  0
LINE
  5
3F9
100
AcDbEntity
  8
RACCORDO
100
AcDbLine
 62
253
  6
CONTINUOUS
 10
-96.3923601658
 20
29.0029605228
 11
-96.2968738509
 21
30.4579356716
  0
LINE
  5
3FA
100
AcDbEntity
  8
RACCORDO
100
AcDbLine
 62
253
  6
CONTINUOUS
 10
-96.646648424
 20
29.4179226885
 11
-96.5460652957
 21
30.908990643
  0
LINE
  5
3FB
100
AcDbEntity
  8
RACCORDO
100
AcDbLine
 62
253
  6
CONTINUOUS
 10
-95.956411803
 20
39.0940630771
 11
-95.8920005525
 21
40.0581933877
  0
LINE
  5
3FC
100
AcDbEntity
  8
RACCORDO
100
AcDbLine
 62
253
  6
CONTINUOUS
 10
-96.2968738509
 20
30.4579356716
 11
-96.1952327196
 21
31.9580586667
  0
LINE
  5
3FD
100
AcDbEntity
  8
RACCORDO
100
AcDbLine
 62
253
  6
CONTINUOUS
 10
-96.5460652957
 20
30.908990643
 11
-96.4438480438
 21
32.3741622285
  0
LINE
  5
3FE
100
AcDbEntity
  8
RACCORDO
100
AcDbLine
 62
253
  6
CONTINUOUS
 10
-96.1952327196
 20
31.9580586667
 11
-96.0595311656
 21
33.8947203215
  0
LINE
  5
3FF
100
AcDbEntity
  8
RACCORDO
100
AcDbLine
 62
253
  6
CONTINUOUS
 10
-95.7779650917
 20
37.8054443852
 11
-95.6519972825
 21
39.620251309
  0
LINE
  5
400
100
AcDbEntity
  8
RACCORDO
100
AcDbLine
 62
253
  6
CONTINUOUS
 10
-96.0595311656
 20
33.8947203215
 11
-95.7779650917
 21
37.8054443852
  0
LINE
  5
401
100
AcDbEntity
  8
RACCORDO
100
AcDbLine
 62
253
  6
CONTINUOUS
 10
-96.4438480438
 20
32.3741622285
 11
-96.308516246
 21
34.2556043739
  0
LINE
  5
402
100
AcDbEntity
  8
RACCORDO
100
AcDbLine
 62
253
  6
CONTINUOUS
 10
-96.308516246
 20
34.2556043739
 11
-95.956411803
 21
39.0940630771
  0
LINE
  5
403
100
AcDbEntity
  8
RACCORDO
100
AcDbLine
 62
253
  6
CONTINUOUS
 10
-98.433844666
 20
22.0200668116
 11
-98.4339503318
 21
22.0200529643
  0
LWPOLYLINE
  5
404
100
AcDbEntity
  8
RACCORDO
100
AcDbPolyline
 62
7
  6
CONTINUOUS
 90
8
 70
0
 10
-98.3952741456
 20
23.3771735375
 10
-98.3953260507
 20
23.3778708724
 10
-98.3953513045
 20
23.3782443035
 10
-98.3953248607
 20
23.3777902063
 10
-98.3952697568
 20
23.3767219131
 10
-98.395194298
 20
23.3750692233
 10
-98.3951027445
 20
23.3727939634
 10
-98.3950045091
 20
23.3700136115
  0
LINE
  5
405
100
AcDbEntity
  8
RACCORDO
100
AcDbLine
 62
253
  6
CONTINUOUS
 10
-95.5919971853
 20
-39.9445942669
 11
-95.6519858693
 21
-39.0029593553
  0
LINE
  5
406
100
AcDbEntity
  8
RACCORDO
100
AcDbLine
 62
253
  6
CONTINUOUS
 10
-96.3923606101
 20
-28.3854898808
 11
-96.4473750221
 21
-27.5003902837
  0
LINE
  5
407
100
AcDbEntity
  8
RACCORDO
100
AcDbLine
 62
253
  6
CONTINUOUS
 10
-96.4473750221
 20
-27.5003902837
 11
-96.4991905062
 21
-26.6137971217
  0
LINE
  5
408
100
AcDbEntity
  8
RACCORDO
100
AcDbLine
 62
253
  6
CONTINUOUS
 10
-95.5596456329
 20
-40.5064482541
 11
-95.5919971853
 21
-39.9445942669
  0
LINE
  5
409
100
AcDbEntity
  8
RACCORDO
100
AcDbLine
 62
253
  6
CONTINUOUS
 10
-96.4991905062
 20
-26.6137971217
 11
-96.5477717923
 21
-25.7259403184
  0
LINE
  5
40A
100
AcDbEntity
  8
RACCORDO
100
AcDbLine
 62
253
  6
CONTINUOUS
 10
-96.8071625427
 20
-26.151797781
 11
-96.8542009493
 21
-25.2663959908
  0
LINE
  5
40B
100
AcDbEntity
  8
RACCORDO
100
AcDbLine
 62
253
  6
CONTINUOUS
 10
-96.5477717923
 20
-25.7259403184
 11
-96.6008908837
 21
-24.6779918046
  0
LINE
  5
40C
100
AcDbEntity
  8
RACCORDO
100
AcDbLine
 62
253
  6
CONTINUOUS
 10
-96.8542009493
 20
-25.2663959908
 11
-96.9069316387
 21
-24.186912263
  0
LINE
  5
40D
100
AcDbEntity
  8
RACCORDO
100
AcDbLine
 62
253
  6
CONTINUOUS
 10
-96.6008908837
 20
-24.6779918046
 11
-96.6379393901
 21
-23.8827416362
  0
LINE
  5
40E
100
AcDbEntity
  8
RACCORDO
100
AcDbLine
 62
253
  6
CONTINUOUS
 10
-96.9069316387
 20
-24.186912263
 11
-96.9421845372
 21
-23.3912299195
  0
LINE
  5
40F
100
AcDbEntity
  8
RACCORDO
100
AcDbLine
 62
253
  6
CONTINUOUS
 10
-96.6379393901
 20
-23.8827416362
 11
-96.6586835337
 21
-23.4054867814
  0
LWPOLYLINE
  5
410
100
AcDbEntity
  8
RACCORDO
100
AcDbPolyline
 62
253
  6
CONTINUOUS
 90
15
 70
0
 10
-96.9421845775
 20
-23.3912299195
 10
-97.0668464462
 20
-20.2365290253
 10
-97.173713002
 20
-17.0799909326
 10
-97.2627860015
 20
-13.9217408943
 10
-97.3340653973
 20
-10.7618580703
 10
-97.3875436398
 20
-7.6005146041
 10
-97.423208589
 20
-4.4379756738
 10
-97.4410516039
 20
-1.2738287752
 10
-97.4410516913
 20
1.8912607058
 10
-97.4232088334
 20
5.0554103774
 10
-97.387543953
 20
8.2179565392
 10
-97.3340656352
 20
11.3793100074
 10
-97.2627861022
 20
14.5392005447
 10
-97.1737130029
 20
17.6974543223
 10
-97.0668463935
 20
20.8539938671
  0
LWPOLYLINE
  5
411
100
AcDbEntity
  8
RACCORDO
100
AcDbPolyline
 62
253
  6
CONTINUOUS
 90
15
 70
0
 10
-96.6586835337
 20
-23.4054867814
 10
-96.7832698314
 20
-20.2494453284
 10
-96.8900695236
 20
-17.0908771384
 10
-96.9790826103
 20
-13.9302562976
 10
-97.0503179783
 20
-10.7683600296
 10
-97.1037667408
 20
-7.6053590004
 10
-97.1394022374
 20
-4.4408157689
 10
-97.1572156046
 20
-1.2746598251
 10
-97.1572157058
 20
1.8920931126
 10
-97.1394024706
 20
5.0582518328
 10
-97.1037669613
 20
8.2228023659
 10
-97.0503181155
 20
11.3858134639
 10
-96.9790826756
 20
14.5477173126
 10
-96.8900695558
 20
17.7083414992
 10
-96.7832698418
 20
20.8669105545
  0
LINE
  5
412
100
AcDbEntity
  8
RACCORDO
100
AcDbLine
 62
7
  6
CONTINUOUS
 10
-98.3950045091
 20
23.3700136115
 11
-98.3948011411
 21
23.3629518677
  0
LINE
  5
413
100
AcDbEntity
  8
RACCORDO
100
AcDbLine
 62
7
  6
CONTINUOUS
 10
-98.3948011411
 20
23.3629518677
 11
-98.394609072
 21
23.3540489317
  0
LINE
  5
414
100
AcDbEntity
  8
RACCORDO
100
AcDbLine
 62
7
  6
CONTINUOUS
 10
-98.394609072
 20
23.3540489317
 11
-98.3944443778
 21
23.3433842842
  0
LWPOLYLINE
  5
415
100
AcDbEntity
  8
RACCORDO
100
AcDbPolyline
 62
7
  6
CONTINUOUS
 90
3
 70
0
 10
-98.3944443778
 20
23.3433842842
 10
-98.3943189035
 20
23.3310409255
 10
-98.3942734742
 20
23.3242460915
  0
LINE
  5
416
100
AcDbEntity
  8
RACCORDO
100
AcDbLine
 62
7
  6
CONTINUOUS
 10
-98.3942448388
 20
-22.7006920019
 11
-98.3943289934
 21
-22.7148324376
  0
LINE
  5
417
100
AcDbEntity
  8
RACCORDO
100
AcDbLine
 62
7
  6
CONTINUOUS
 10
-98.3943289934
 20
-22.7148324376
 11
-98.3944617621
 21
-22.7272528322
  0
LINE
  5
418
100
AcDbEntity
  8
RACCORDO
100
AcDbLine
 62
7
  6
CONTINUOUS
 10
-98.3944617621
 20
-22.7272528322
 11
-98.3946342532
 21
-22.7379198612
  0
LINE
  5
419
100
AcDbEntity
  8
RACCORDO
100
AcDbLine
 62
7
  6
CONTINUOUS
 10
-98.3946342532
 20
-22.7379198612
 11
-98.3948339062
 21
-22.7467632542
  0
LWPOLYLINE
  5
41A
100
AcDbEntity
  8
RACCORDO
100
AcDbPolyline
 62
7
  6
CONTINUOUS
 90
5
 70
0
 10
-98.3948339062
 20
-22.7467632542
 10
-98.3950401388
 20
-22.7536008071
 10
-98.395138599
 20
-22.7562566514
 10
-98.395224796
 20
-22.7582981324
 10
-98.3952790159
 20
-22.7594466818
  0
LINE
  5
41B
100
AcDbEntity
  8
RACCORDO
100
AcDbLine
 62
253
  6
CONTINUOUS
 10
-97.0668463935
 20
20.8539938671
 11
-96.9284546672
 21
24.3270059479
  0
LINE
  5
41C
100
AcDbEntity
  8
RACCORDO
100
AcDbLine
 62
253
  6
CONTINUOUS
 10
-96.7832698418
 20
20.8669105545
 11
-96.6449778604
 21
24.3411287987
  0
LWPOLYLINE
  5
41D
100
AcDbEntity
  8
RACCORDO
100
AcDbPolyline
 62
253
  6
CONTINUOUS
 90
13
 70
0
 10
-95.5338781524
 20
41.6306520733
 10
-95.5236505747
 20
41.8630012006
 10
-95.515190415
 20
42.0809499518
 10
-95.5086359141
 20
42.2841836613
 10
-95.5040044302
 20
42.4725526448
 10
-95.501278605
 20
42.6458987105
 10
-95.5005446041
 20
42.8039740064
 10
-95.5018223808
 20
42.9466943557
 10
-95.5050919819
 20
43.0739976699
 10
-95.5103797131
 20
43.1857583733
 10
-95.5176943431
 20
43.2819531092
 10
-95.5270271033
 20
43.3626246682
 10
-95.5383779936
 20
43.4278023638
  0
LWPOLYLINE
  5
41E
100
AcDbEntity
  8
RACCORDO
100
AcDbPolyline
 62
253
  6
CONTINUOUS
 90
13
 70
0
 10
-95.8150626003
 20
41.4057966748
 10
-95.8047783014
 20
41.6342760167
 10
-95.7963049229
 20
41.8488173287
 10
-95.78970388
 20
42.0487313748
 10
-95.7850254825
 20
42.2339532536
 10
-95.7822913832
 20
42.4045596727
 10
-95.7815229641
 20
42.5600737465
 10
-95.7827654947
 20
42.700409386
 10
-95.7860321915
 20
42.8256623653
 10
-95.7912976383
 20
42.9356281601
 10
-95.7985689293
 20
43.0302409353
 10
-95.8078823912
 20
43.1095734707
 10
-95.8192539928
 20
43.1736284784
  0
LINE
  5
41F
100
AcDbEntity
  8
RACCORDO
100
AcDbLine
 62
253
  6
CONTINUOUS
 10
-96.6449778604
 20
24.3411287987
 11
-96.608547998
 21
25.1364244172
  0
LINE
  5
420
100
AcDbEntity
  8
RACCORDO
100
AcDbLine
 62
253
  6
CONTINUOUS
 10
-96.9284546672
 20
24.3270059479
 11
-96.8919635725
 21
25.1225715648
  0
LINE
  5
421
100
AcDbEntity
  8
RACCORDO
100
AcDbLine
 62
253
  6
CONTINUOUS
 10
-96.608547998
 20
25.1364244172
 11
-96.5708459494
 21
25.8990632719
  0
LINE
  5
422
100
AcDbEntity
  8
RACCORDO
100
AcDbLine
 62
253
  6
CONTINUOUS
 10
-96.8919635725
 20
25.1225715648
 11
-96.8542008613
 21
25.883861346
  0
LINE
  5
423
100
AcDbEntity
  8
RACCORDO
100
AcDbLine
 62
253
  6
CONTINUOUS
 10
-95.5596545836
 20
41.1237470909
 11
-95.5338781524
 21
41.6306520733
  0
LINE
  5
424
100
AcDbEntity
  8
RACCORDO
100
AcDbLine
 62
253
  6
CONTINUOUS
 10
-96.5708459494
 20
25.8990632719
 11
-96.5238877384
 21
26.7874738961
  0
LINE
  5
425
100
AcDbEntity
  8
RACCORDO
100
AcDbLine
 62
253
  6
CONTINUOUS
 10
-96.8542008613
 20
25.883861346
 11
-96.8071623275
 21
26.7692653149
  0
LWPOLYLINE
  5
426
100
AcDbEntity
  8
RACCORDO
100
AcDbPolyline
 62
253
  6
CONTINUOUS
 90
3
 70
0
 10
-95.8563519512
 20
40.637360854
 10
-95.8409136142
 20
40.9070044934
 10
-95.8150626003
 20
41.4057966748
  0
LINE
  5
427
100
AcDbEntity
  8
RACCORDO
100
AcDbLine
 62
253
  6
CONTINUOUS
 10
-96.5238877384
 20
26.7874738961
 11
-96.4736835636
 21
27.6747283449
  0
LINE
  5
428
100
AcDbEntity
  8
RACCORDO
100
AcDbLine
 62
253
  6
CONTINUOUS
 10
-95.5920071593
 20
40.5618928848
 11
-95.5596545836
 21
41.1237470909
  0
LWPOLYLINE
  5
429
100
AcDbEntity
  8
RACCORDO
100
AcDbPolyline
 62
253
  6
CONTINUOUS
 90
3
 70
0
 10
-96.4736835636
 20
27.6747283449
 10
-96.4202683117
 20
28.5606023711
 10
-96.3923601658
 20
29.0029605228
  0
LINE
  5
42A
100
AcDbEntity
  8
RACCORDO
100
AcDbLine
 62
253
  6
CONTINUOUS
 10
-95.6519972825
 20
39.620251309
 11
-95.5920071593
 21
40.5618928848
  0
LWPOLYLINE
  5
42B
100
AcDbEntity
  8
0
100
AcDbPolyline
 62
253
  6
CONTINUOUS
 90
4
 70
0
 10
-90.4154564072
 20
25.2860902839
 10
-90.5407714745
 20
25.2793478498
 10
-90.670988152
 20
25.2729800237
 10
-90.8058757187
 20
25.2670069332
  0
LINE
  5
42C
100
AcDbEntity
  8
DRAFT
100
AcDbLine
 62
7
  6
CONTINUOUS
 10
-93.2154564072
 20
-44.6912681913
 11
-93.2154564072
 21
45.3087318087
  0
LINE
  5
42D
100
AcDbEntity
  8
DRAFT
100
AcDbLine
 62
7
  6
CONTINUOUS
 10
-92.4154564072
 20
-3.1912681913
 11
-92.4154564072
 21
3.8087318087
  0
LINE
  5
42E
100
AcDbEntity
  8
0
100
AcDbLine
 62
253
  6
CONTINUOUS
 10
-90.4154564072
 20
25.4656202434
 11
-90.6707482059
 21
25.4539869631
  0
LINE
  5
42F
100
AcDbEntity
  8
0
100
AcDbLine
 62
253
  6
CONTINUOUS
 10
-90.8058757187
 20
25.2670069332
 11
-91.0887948426
 21
25.2563234272
  0
LINE
  5
430
100
AcDbEntity
  8
0
100
AcDbLine
 62
253
  6
CONTINUOUS
 10
-90.6707482059
 20
25.4539869631
 11
-90.9447726256
 21
25.443757171
  0
LINE
  5
431
100
AcDbEntity
  8
0
100
AcDbLine
 62
253
  6
CONTINUOUS
 10
-90.9447726256
 20
25.443757171
 11
-91.2356217916
 21
25.4350771204
  0
LINE
  5
432
100
AcDbEntity
  8
0
100
AcDbLine
 62
253
  6
CONTINUOUS
 10
-91.0887948426
 20
25.2563234272
 11
-91.3873232994
 21
25.2474626671
  0
LINE
  5
433
100
AcDbEntity
  8
0
100
AcDbLine
 62
253
  6
CONTINUOUS
 10
-91.2356217916
 20
25.4350771204
 11
-91.5410514538
 21
25.4280883664
  0
LINE
  5
434
100
AcDbEntity
  8
0
100
AcDbLine
 62
253
  6
CONTINUOUS
 10
-91.3873232994
 20
25.2474626671
 11
-91.6993644625
 21
25.2405683506
  0
LINE
  5
435
100
AcDbEntity
  8
0
100
AcDbLine
 62
253
  6
CONTINUOUS
 10
-91.5410514538
 20
25.4280883664
 11
-91.8591107603
 21
25.4229148067
  0
LINE
  5
436
100
AcDbEntity
  8
0
100
AcDbLine
 62
253
  6
CONTINUOUS
 10
-91.6993644625
 20
25.2405683506
 11
-92.0229652169
 21
25.2357672867
  0
LINE
  5
437
100
AcDbEntity
  8
0
100
AcDbLine
 62
253
  6
CONTINUOUS
 10
-91.8591107603
 20
25.4229148067
 11
-92.1876910861
 21
25.4196556096
  0
LINE
  5
438
100
AcDbEntity
  8
0
100
AcDbLine
 62
253
  6
CONTINUOUS
 10
-92.0229652169
 20
25.2357672867
 11
-92.3557255857
 21
25.233149649
  0
LINE
  5
439
100
AcDbEntity
  8
RACCORDO
100
AcDbLine
 62
253
  6
CONTINUOUS
 10
-93.2154564072
 20
25.4723006937
 11
-96.5931099989
 21
25.4544785125
  0
LINE
  5
43A
100
AcDbEntity
  8
0
100
AcDbLine
 62
253
  6
CONTINUOUS
 10
-92.1876910861
 20
25.4196556096
 11
-92.5243637121
 21
25.4183826923
  0
LINE
  5
43B
100
AcDbEntity
  8
RACCORDO
100
AcDbLine
 62
253
  6
CONTINUOUS
 10
-96.9421845207
 20
24.0086939279
 11
-98.5934203489
 21
24.0087318087
  0
LINE
  5
43C
100
AcDbEntity
  8
0
100
AcDbLine
 62
253
  6
CONTINUOUS
 10
-92.3557255857
 20
25.233149649
 11
-92.6956354298
 21
25.2327830124
  0
LINE
  5
43D
100
AcDbEntity
  8
0
100
AcDbLine
 62
253
  6
CONTINUOUS
 10
-92.5243637121
 20
25.4183826923
 11
-92.8676033388
 21
25.4191461078
  0
LWPOLYLINE
  5
43E
100
AcDbEntity
  8
0
100
AcDbPolyline
 62
253
  6
CONTINUOUS
 90
3
 70
0
 10
-92.6956354298
 20
25.2327830124
 10
-93.0412185039
 20
25.234706567
 10
-93.2154564072
 20
25.2365357173
  0
LINE
  5
43F
100
AcDbEntity
  8
0
100
AcDbLine
 62
253
  6
CONTINUOUS
 10
-92.8676033388
 20
25.4191461078
 11
-93.2154564072
 21
25.4219735559
  0
LWPOLYLINE
  5
440
100
AcDbEntity
  8
RACCORDO
100
AcDbPolyline
 62
253
  6
CONTINUOUS
 90
9
 70
0
 10
-98.3992070377
 20
23.4517858176
 10
-98.397906811
 20
23.4481091965
 10
-98.396777273
 20
23.4407221169
 10
-98.395818296
 20
23.4296245712
 10
-98.3950247076
 20
23.4147950027
 10
-98.3944011357
 20
23.3962549414
 10
-98.3939622105
 20
23.3740690038
 10
-98.3937119231
 20
23.3481599987
 10
-98.3942734742
 20
23.3242460915
  0
LINE
  5
441
100
AcDbEntity
  8
0
100
AcDbLine
 62
7
  6
CONTINUOUS
 10
-90.4154564072
 20
-42.8412681913
 11
-90.4154564072
 21
-24.6686266666
  0
LINE
  5
442
100
AcDbEntity
  8
DRAFT
100
AcDbLine
 62
7
  6
CONTINUOUS
 10
-90.4154564072
 20
-24.6686266666
 11
-90.4154564072
 21
-3.5439221527
  0
LINE
  5
443
100
AcDbEntity
  8
DRAFT
100
AcDbLine
 62
7
  6
CONTINUOUS
 10
-90.4154564072
 20
4.1613857701
 11
-90.4154564072
 21
25.2860902841
  0
LINE
  5
444
100
AcDbEntity
  8
0
100
AcDbLine
 62
7
  6
CONTINUOUS
 10
-90.4154564072
 20
25.2860902841
 11
-90.4154564072
 21
43.4587318087
  0
LWPOLYLINE
  5
445
100
AcDbEntity
  8
RACCORDO
100
AcDbPolyline
 62
253
  6
CONTINUOUS
 90
14
 70
0
 10
-95.5383777464
 20
-42.8103372147
 10
-95.5270282515
 20
-42.7451698522
 10
-95.517696353
 20
-42.6645118401
 10
-95.5103820509
 20
-42.568333183
 10
-95.5050940101
 20
-42.4565905593
 10
-95.5018235657
 20
-42.3293065225
 10
-95.5005447225
 20
-42.1866053863
 10
-95.5012774364
 20
-42.0285480999
 10
-95.5040017515
 20
-41.8552182366
 10
-95.508631805
 20
-41.6668631016
 10
-95.5151850218
 20
-41.4636394901
 10
-95.523643977
 20
-41.2456969213
 10
-95.5338705339
 20
-41.0133519227
 10
-95.5596456329
 20
-40.5064482541
  0
LWPOLYLINE
  5
446
100
AcDbEntity
  8
RACCORDO
100
AcDbPolyline
 62
253
  6
CONTINUOUS
 90
15
 70
0
 10
-95.8192539928
 20
-42.5561648609
 10
-95.8078829537
 20
-42.4921117478
 10
-95.7985698158
 20
-42.4127844122
 10
-95.7912986227
 20
-42.318180143
 10
-95.7860330657
 20
-42.2082275973
 10
-95.7827660682
 20
-42.0829911757
 10
-95.7815230324
 20
-41.9426710952
 10
-95.7822906007
 20
-41.7871708093
 10
-95.7850236147
 20
-41.6165771796
 10
-95.7897010237
 20
-41.4313650994
 10
-95.7963012256
 20
-41.2314569089
 10
-95.8047738214
 20
-41.0169184595
 10
-95.8150575227
 20
-40.7884398472
 10
-95.8271185178
 20
-40.5460173878
 10
-95.8563462419
 20
-40.0199942683
  0
LINE
  5
447
100
AcDbEntity
  8
RACCORDO
100
AcDbLine
 62
7
  6
CONTINUOUS
 10
-98.524887281
 20
-22.8502779478
 11
-98.3942626879
 21
-22.6637266956
  0
LINE
  5
448
100
AcDbEntity
  8
RACCORDO
100
AcDbLine
 62
253
  6
CONTINUOUS
 10
-98.3992070377
 20
-22.8343222001
 11
-98.605774228
 21
-23.1294817363
  0
LINE
  5
449
100
AcDbEntity
  8
RACCORDO
100
AcDbLine
 62
253
  6
CONTINUOUS
 10
-93.2154564072
 20
29.4723006937
 11
-96.3636509604
 21
29.4449036608
  0
LINE
  5
44A
100
AcDbEntity
  8
RACCORDO
100
AcDbLine
 62
7
  6
CONTINUOUS
 10
-98.524887281
 20
23.4677415653
 11
-98.3942624748
 21
23.2811900087
  0
LINE
  5
44B
100
AcDbEntity
  8
RACCORDO
100
AcDbLine
 62
253
  6
CONTINUOUS
 10
-98.605774228
 20
23.7469453539
 11
-98.3992070377
 21
23.4517858176
  0
LWPOLYLINE
  5
44C
100
AcDbEntity
  8
RACCORDO
100
AcDbPolyline
 62
253
  6
CONTINUOUS
 90
10
 70
0
 10
-95.8192539928
 20
43.1736284784
 10
-95.8330639878
 20
43.2350395775
 10
-95.8470166248
 20
43.2934739248
 10
-95.86111418
 20
43.3489319087
 10
-95.8753596529
 20
43.4014162587
 10
-95.8897541517
 20
43.4509249662
 10
-95.9042970582
 20
43.4974512855
 10
-95.9189894369
 20
43.5409931711
 10
-95.9338338699
 20
43.5815532771
 10
-95.9488319577
 20
43.6191318785
  0
LWPOLYLINE
  5
44D
100
AcDbEntity
  8
0
100
AcDbPolyline
 62
253
  6
CONTINUOUS
 90
19
 70
0
 10
-90.4154564072
 20
29.1662677383
 10
-90.5381143012
 20
29.1807394558
 10
-90.6657796724
 20
29.1946266173
 10
-90.7982551691
 20
29.207898043
 10
-90.9353185944
 20
29.2205203277
 10
-91.0767936218
 20
29.232464582
 10
-91.2225395195
 20
29.2437069088
 10
-91.3723505173
 20
29.2542201306
 10
-91.5259665507
 20
29.2639731792
 10
-91.6831507852
 20
29.2729368338
 10
-91.8436356342
 20
29.2810819732
 10
-92.0071801756
 20
29.2883883801
 10
-92.1735890216
 20
29.294838839
 10
-92.3426625861
 20
29.3004141811
 10
-92.5140569991
 20
29.3050901952
 10
-92.6873479775
 20
29.308848036
 10
-92.8621892269
 20
29.3116786904
 10
-93.0383260023
 20
29.313575165
 10
-93.2154564072
 20
29.3145293154
  0
LWPOLYLINE
  5
44E
100
AcDbEntity
  8
0
100
AcDbPolyline
 62
253
  6
CONTINUOUS
 90
19
 70
0
 10
-90.4154564072
 20
29.2356827983
 10
-90.5380725045
 20
29.2506666606
 10
-90.6656978125
 20
29.2650477494
 10
-90.798135485
 20
29.2787938206
 10
-90.935163104
 20
29.2918702563
 10
-91.0766054807
 20
29.3042472519
 10
-91.2223244883
 20
29.3159002693
 10
-91.3721153438
 20
29.3268012028
 10
-91.5257176441
 20
29.3369178111
 10
-91.6828951726
 20
29.3462198363
 10
-91.8433800121
 20
29.3546770535
 10
-92.0069316741
 20
29.3622685048
 10
-92.1733565807
 20
29.3689763942
 10
-92.3424570393
 20
29.37478086
 10
-92.5138869146
 20
29.3796566358
 10
-92.6872172827
 20
29.3835839925
 10
-92.8620997712
 20
29.3865535399
 10
-93.0382803525
 20
29.3885580567
 10
-93.2154564072
 20
29.3895890841
  0
LWPOLYLINE
  5
44F
100
AcDbEntity
  8
RACCORDO
100
AcDbPolyline
 62
253
  6
CONTINUOUS
 90
10
 70
0
 10
-95.5383787115
 20
43.4278023268
 10
-95.552191397
 20
43.4892907109
 10
-95.5661507463
 20
43.547803086
 10
-95.5802567594
 20
43.6033379925
 10
-95.5945084196
 20
43.6558956848
 10
-95.6089067436
 20
43.7054730688
 10
-95.6234547812
 20
43.7520646044
 10
-95.6381535492
 20
43.7956686352
 10
-95.6530020309
 20
43.8362864858
 10
-95.6680002263
 20
43.8739180308
  0
LWPOLYLINE
  5
450
100
AcDbEntity
  8
RACCORDO
100
AcDbPolyline
 62
253
  6
CONTINUOUS
 90
10
 70
0
 10
-95.6680002181
 20
-43.2564543935
 10
-95.653002088
 20
-43.2188230204
 10
-95.638153655
 20
-43.1782053215
 10
-95.623454919
 20
-43.134601412
 10
-95.6089069085
 20
-43.0880100002
 10
-95.594508595
 20
-43.0384326952
 10
-95.5802568932
 20
-42.9858748847
 10
-95.5661507747
 20
-42.9303395794
 10
-95.5521912679
 20
-42.8718265365
 10
-95.5383783729
 20
-42.8103371823
  0
LWPOLYLINE
  5
451
100
AcDbEntity
  8
RACCORDO
100
AcDbPolyline
 62
253
  6
CONTINUOUS
 90
10
 70
0
 10
-95.9488319577
 20
-43.0016682611
 10
-95.9338338843
 20
-42.9640897008
 10
-95.9189894623
 20
-42.9235296277
 10
-95.904297091
 20
-42.8799877667
 10
-95.8897541878
 20
-42.8334614663
 10
-95.8753596882
 20
-42.7839527693
 10
-95.8611142114
 20
-42.7314684137
 10
-95.8470166494
 20
-42.6760104052
 10
-95.833064002
 20
-42.6175760171
 10
-95.8192539928
 20
-42.5561648609
  0
LWPOLYLINE
  5
452
100
AcDbEntity
  8
RACCORDO
100
AcDbPolyline
 62
253
  6
CONTINUOUS
 90
3
 70
0
 10
-96.4796318639
 20
-44.2814208346
 10
-96.0606598966
 20
-43.2699083372
 10
-95.9488319577
 20
-43.0016682611
  0
LWPOLYLINE
  5
453
100
AcDbEntity
  8
RACCORDO
100
AcDbPolyline
 62
253
  6
CONTINUOUS
 90
3
 70
0
 10
-96.1988953478
 20
-44.5349127818
 10
-95.7797424579
 20
-43.5243146868
 10
-95.6680001829
 20
-43.2564543954
  0
LINE
  5
454
100
AcDbEntity
  8
RACCORDO
100
AcDbLine
 62
253
  6
CONTINUOUS
 10
-95.9488319577
 20
43.6191318785
 11
-96.3751934885
 21
44.6456288058
  0
LINE
  5
455
100
AcDbEntity
  8
RACCORDO
100
AcDbLine
 62
253
  6
CONTINUOUS
 10
-95.6680001897
 20
43.8739180327
 11
-96.1401616144
 21
45.0100414722
  0
LINE
  5
456
100
AcDbEntity
  8
RACCORDO
100
AcDbLine
 62
253
  6
CONTINUOUS
 10
-96.1401616144
 20
45.0100414722
 11
-96.1988953478
 21
45.1523763992
  0
LINE
  5
457
100
AcDbEntity
  8
RACCORDO
100
AcDbLine
 62
253
  6
CONTINUOUS
 10
-96.3751934885
 20
44.6456288058
 11
-96.4796318639
 21
44.8988844521
  0
LINE
  5
458
100
AcDbEntity
  8
RACCORDO
100
AcDbLine
 62
253
  6
CONTINUOUS
 10
-93.2154564072
 20
44.0021670096
 11
-95.6680001897
 21
43.8739180327
  0
LINE
  5
459
100
AcDbEntity
  8
RACCORDO
100
AcDbLine
 62
253
  6
CONTINUOUS
 10
-93.2154564072
 20
43.5487318087
 11
-95.5383787115
 21
43.4278023268
  0
LINE
  5
45A
100
AcDbEntity
  8
DRAFT
100
AcDbLine
 62
7
  6
CONTINUOUS
 10
-93.2154564072
 20
45.3087318087
 11
-96.1988953374
 21
45.1523763998
  0
LWPOLYLINE
  5
45B
100
AcDbEntity
  8
0
100
AcDbPolyline
 62
253
  6
CONTINUOUS
 90
19
 70
0
 10
-93.2154564072
 20
43.5032671558
 10
-93.0480273962
 20
43.4970494231
 10
-92.8823431262
 20
43.4833959489
 10
-92.7182388355
 20
43.4623208201
 10
-92.5560323543
 20
43.4339366548
 10
-92.3950542629
 20
43.3982057085
 10
-92.2337432657
 20
43.3546327894
 10
-92.0708699105
 20
43.3024099841
 10
-91.9076099973
 20
43.241416406
 10
-91.7460371265
 20
43.1721885827
 10
-91.5866022188
 20
43.0948718349
 10
-91.4289044766
 20
43.0090781217
 10
-91.2736599563
 20
42.9149611378
 10
-91.1208546767
 20
42.8123072034
 10
-90.9708170524
 20
42.7011267841
 10
-90.8248407816
 20
42.5822458065
 10
-90.6835899861
 20
42.456176738
 10
-90.547034375
 20
42.3228669699
 10
-90.4154564072
 20
42.1825312182
  0
LWPOLYLINE
  5
45C
100
AcDbEntity
  8
0
100
AcDbPolyline
 62
253
  6
CONTINUOUS
 90
19
 70
0
 10
-93.2154564072
 20
43.4754229121
 10
-93.0479990108
 20
43.4690146107
 10
-92.8822347656
 20
43.455192399
 10
-92.7180138658
 20
43.4339690837
 10
-92.5556595614
 20
43.40545426
 10
-92.3945281783
 20
43.3696096346
 10
-92.2331015679
 20
43.3259513134
 10
-92.0701975937
 20
43.2736966773
 10
-91.9069696672
 20
43.2127311529
 10
-91.7454293992
 20
43.1435709108
 10
-91.5860193944
 20
43.066352987
 10
-91.4283643278
 20
42.980703262
 10
-91.2731696598
 20
42.8867711206
 10
-91.1204214825
 20
42.7843419921
 10
-90.9704567166
 20
42.6734297538
 10
-90.8245644627
 20
42.5548549976
 10
-90.6834031572
 20
42.42912446
 10
-90.5469402778
 20
42.296182132
 10
-90.4154564072
 20
42.1562375502
  0
LWPOLYLINE
  5
45D
100
AcDbEntity
  8
0
100
AcDbPolyline
 62
253
  6
CONTINUOUS
 90
19
 70
0
 10
-93.2154564072
 20
43.0520075193
 10
-93.0471673307
 20
43.0428712723
 10
-92.8800377537
 20
43.0266747022
 10
-92.7140778945
 20
43.0034196214
 10
-92.5496421836
 20
42.9731801261
 10
-92.3863894765
 20
42.9359176558
 10
-92.2233428302
 20
42.8912924937
 10
-92.0598337763
 20
42.8388077836
 10
-91.8967558891
 20
42.778419888
 10
-91.7354943827
 20
42.7104551352
 10
-91.5764405862
 20
42.6349973923
 10
-91.4194657124
 20
42.5518286734
 10
-91.2651145942
 20
42.4610474703
 10
-91.1134068673
 20
42.3624737085
 10
-90.96474829
 20
42.2561660937
 10
-90.820262901
 20
42.1428044143
 10
-90.6805133314
 20
42.0227982357
 10
-90.5454897896
 20
41.896096477
 10
-90.4154564072
 20
41.7628616548
  0
LWPOLYLINE
  5
45E
100
AcDbEntity
  8
0
100
AcDbPolyline
 62
253
  6
CONTINUOUS
 90
19
 70
0
 10
-93.2154564072
 20
42.9903907639
 10
-93.0469298497
 20
42.9811683372
 10
-92.8795317088
 20
42.9649304086
 10
-92.7132873564
 20
42.9416801662
 10
-92.5485522998
 20
42.9114897653
 10
-92.3850159021
 20
42.8743237434
 10
-92.2217580073
 20
42.8298613497
 10
-92.0581613892
 20
42.7776379508
 10
-91.8950909015
 20
42.717617164
 10
-91.7338679331
 20
42.6501065625
 10
-91.5748796829
 20
42.5751874467
 10
-91.4180206283
 20
42.4926597442
 10
-91.2638157381
 20
42.4026173724
 10
-91.1122930998
 20
42.3048908431
 10
-90.9638594364
 20
42.1995429395
 10
-90.8196042307
 20
42.087225925
 10
-90.680075288
 20
41.9683341841
 10
-90.5452717483
 20
41.8428232471
 10
-90.4154564072
 20
41.7108519379
  0
LWPOLYLINE
  5
45F
100
AcDbEntity
  8
0
100
AcDbPolyline
 62
7
  6
CONTINUOUS
 90
3
 70
0
 10
-90.6488420133
 20
-43.0694057586
 10
-90.5394374878
 20
-42.966678271
 10
-90.4154564072
 20
-42.8412681913
  0
LWPOLYLINE
  5
460
100
AcDbEntity
  8
0
100
AcDbPolyline
 62
7
  6
CONTINUOUS
 90
4
 70
0
 10
-92.4319958861
 20
-44.0502529845
 10
-92.2878879419
 20
-44.0078690884
 10
-92.1420265104
 20
-43.9594219679
 10
-91.9963443342
 20
-43.9052739188
  0
LWPOLYLINE
  5
461
100
AcDbEntity
  8
0
100
AcDbPolyline
 62
7
  6
CONTINUOUS
 90
14
 70
0
 10
-92.4319958862
 20
-44.0502529845
 10
-92.3497256934
 20
-44.0267140565
 10
-92.1814247203
 20
-43.9730680247
 10
-92.0155667613
 20
-43.9127559708
 10
-91.8523388011
 20
-43.845864435
 10
-91.6919317116
 20
-43.7724675599
 10
-91.5346090687
 20
-43.692673314
 10
-91.3806194946
 20
-43.6066206814
 10
-91.2301398675
 20
-43.5144128278
 10
-91.0833543455
 20
-43.4161421566
 10
-90.9405832566
 20
-43.3119895534
 10
-90.8021875776
 20
-43.2022183246
 10
-90.6684171359
 20
-43.0870601143
 10
-90.6488420134
 20
-43.0694057587
  0
LINE
  5
462
100
AcDbEntity
  8
0
100
AcDbLine
 62
7
  6
CONTINUOUS
 10
-93.2154564072
 20
44.8087318087
 11
-93.0401232786
 21
44.7898296804
  0
LWPOLYLINE
  5
463
100
AcDbEntity
  8
0
100
AcDbPolyline
 62
7
  6
CONTINUOUS
 90
3
 70
0
 10
-93.0111165936
 20
44.7860129197
 10
-93.15274644
 20
44.802790532
 10
-93.2154564072
 20
44.8087317818
  0
LINE
  5
464
100
AcDbEntity
  8
0
100
AcDbLine
 62
7
  6
CONTINUOUS
 10
-93.0401232786
 20
44.7898296804
 11
-92.8667909581
 21
44.7640605898
  0
LINE
  5
465
100
AcDbEntity
  8
0
100
AcDbLine
 62
7
  6
CONTINUOUS
 10
-92.868214593
 20
44.7643251501
 11
-92.692202816
 21
44.7309392891
  0
LINE
  5
466
100
AcDbEntity
  8
0
100
AcDbLine
 62
7
  6
CONTINUOUS
 10
-92.5791964103
 20
44.7055468979
 11
-92.7241639009
 21
44.7375555814
  0
LWPOLYLINE
  5
467
100
AcDbEntity
  8
0
100
AcDbPolyline
 62
7
  6
CONTINUOUS
 90
3
 70
0
 10
-92.692202816
 20
44.7309392891
 10
-92.5201286645
 20
44.6910197068
 10
-92.4526140609
 20
44.6733443698
  0
LINE
  5
468
100
AcDbEntity
  8
0
100
AcDbLine
 62
7
  6
CONTINUOUS
 10
-92.4526140608
 20
44.6733443698
 11
-92.5791964103
 21
44.7055468979
  0
LINE
  5
469
100
AcDbEntity
  8
0
100
AcDbLine
 62
7
  6
CONTINUOUS
 10
-92.4526140608
 20
44.6733443698
 11
-92.4319958862
 21
44.667716602
  0
LWPOLYLINE
  5
46A
100
AcDbEntity
  8
0
100
AcDbPolyline
 62
7
  6
CONTINUOUS
 90
5
 70
0
 10
-92.4319958862
 20
44.667716602
 10
-92.3497256934
 20
44.644177674
 10
-92.1814247203
 20
44.5905316421
 10
-92.0155667613
 20
44.5302195882
 10
-91.8523388011
 20
44.4633280525
  0
LWPOLYLINE
  5
46B
100
AcDbEntity
  8
0
100
AcDbPolyline
 62
7
  6
CONTINUOUS
 90
4
 70
0
 10
-91.9963443342
 20
44.5227375363
 10
-92.1420265104
 20
44.5768855853
 10
-92.2878879419
 20
44.6253327058
 10
-92.4319958862
 20
44.667716602
  0
LWPOLYLINE
  5
46C
100
AcDbEntity
  8
0
100
AcDbPolyline
 62
7
  6
CONTINUOUS
 90
3
 70
0
 10
-90.6488420133
 20
43.6868693761
 10
-90.5394374878
 20
43.5841418885
 10
-90.4154564072
 20
43.4587318087
  0
LWPOLYLINE
  5
46D
100
AcDbEntity
  8
0
100
AcDbPolyline
 62
7
  6
CONTINUOUS
 90
9
 70
0
 10
-91.7065614017
 20
-43.7794877517
 10
-91.5627512076
 20
-43.707535354
 10
-91.4198497297
 20
-43.6293180248
 10
-91.2783054833
 20
-43.5448354843
 10
-91.1386885456
 20
-43.4541957721
 10
-91.0014656762
 20
-43.3574856774
 10
-90.8667872263
 20
-43.2545872623
 10
-90.7347507151
 20
-43.1453338468
 10
-90.6488420134
 20
-43.0694057587
  0
LWPOLYLINE
  5
46E
100
AcDbEntity
  8
0
100
AcDbPolyline
 62
7
  6
CONTINUOUS
 90
10
 70
0
 10
-91.8511290401
 20
44.4628035027
 10
-91.6919317116
 20
44.3899311773
 10
-91.5346090687
 20
44.3101369315
 10
-91.3806194946
 20
44.2240842989
 10
-91.2301398675
 20
44.1318764452
 10
-91.0833543455
 20
44.0336057741
 10
-90.9405832566
 20
43.9294531708
 10
-90.8021875776
 20
43.819681942
 10
-90.6684171359
 20
43.7045237318
 10
-90.6488420134
 20
43.6868693762
  0
LWPOLYLINE
  5
46F
100
AcDbEntity
  8
0
100
AcDbPolyline
 62
7
  6
CONTINUOUS
 90
9
 70
0
 10
-90.6488420134
 20
43.6868693762
 10
-90.7347507151
 20
43.7627974643
 10
-90.8667872263
 20
43.8720508797
 10
-91.0014656762
 20
43.9749492948
 10
-91.1386885456
 20
44.0716593895
 10
-91.2783054833
 20
44.1622991017
 10
-91.4198497297
 20
44.2467816422
 10
-91.5627512076
 20
44.3249989715
 10
-91.7065614017
 20
44.3969513692
  0
ARC
  5
470
100
AcDbEntity
  8
DRAFT
100
AcDbCircle
 62
7
  6
CONTINUOUS
 10
0.5289352113
 20
549.1229490017
 40
593.814217193
100
AcDbArc
 50
266.1984782932
 51
273.8015217068
  0
ARC
  5
471
100
AcDbEntity
  8
DRAFT
100
AcDbCircle
 62
7
  6
CONTINUOUS
 10
0.5289352113
 20
-548.5054853843
 40
593.814217193
100
AcDbArc
 50
86.1984782932
 51
93.8015217068
  0
ARC
  5
472
100
AcDbEntity
  8
DRAFT
100
AcDbCircle
 62
7
  6
CONTINUOUS
 10
-188.4710647887
 20
0.3087318087
 40
250.0
100
AcDbArc
 50
354.2231521942
 51
5.7768478058
  0
ARC
  5
473
100
AcDbEntity
  8
DRAFT
100
AcDbCircle
 62
7
  6
CONTINUOUS
 10
189.5289352113
 20
0.3087318087
 40
250.0
100
AcDbArc
 50
174.2231521942
 51
185.7768478058
  0
ARC
  5
474
100
AcDbEntity
  8
DRAFT
100
AcDbCircle
 62
7
  6
CONTINUOUS
 10
-31.9319589095
 20
60.5969327633
 40
104.2109306549
100
AcDbArc
 50
263.4379009685
 51
266.1984782932
  0
ARC
  5
475
100
AcDbEntity
  8
DRAFT
100
AcDbCircle
 62
7
  6
CONTINUOUS
 10
32.9898293322
 20
60.5969327633
 40
104.2109306549
100
AcDbArc
 50
273.8015217068
 51
276.5620990315
  0
ARC
  5
476
100
AcDbEntity
  8
DRAFT
100
AcDbCircle
 62
7
  6
CONTINUOUS
 10
32.9898293322
 20
-59.9794691458
 40
104.2109306549
100
AcDbArc
 50
83.4379009685
 51
86.1984782932
  0
ARC
  5
477
100
AcDbEntity
  8
DRAFT
100
AcDbCircle
 62
7
  6
CONTINUOUS
 10
-31.9319589095
 20
-59.9794691458
 40
104.2109306549
100
AcDbArc
 50
93.8015217068
 51
96.5620990315
  0
ARC
  5
478
100
AcDbEntity
  8
DRAFT
100
AcDbCircle
 62
7
  6
CONTINUOUS
 10
-1.1850524316
 20
-18.6386309736
 40
61.75799358
100
AcDbArc
 50
350.478178999
 51
354.2231521942
  0
ARC
  5
479
100
AcDbEntity
  8
DRAFT
100
AcDbCircle
 62
7
  6
CONTINUOUS
 10
-1.1850524316
 20
19.2560945911
 40
61.75799358
100
AcDbArc
 50
5.7768478058
 51
9.521821001
  0
ARC
  5
47A
100
AcDbEntity
  8
DRAFT
100
AcDbCircle
 62
7
  6
CONTINUOUS
 10
2.2429228543
 20
19.2560945911
 40
61.75799358
100
AcDbArc
 50
170.478178999
 51
174.2231521942
  0
ARC
  5
47B
100
AcDbEntity
  8
DRAFT
100
AcDbCircle
 62
7
  6
CONTINUOUS
 10
2.2429228543
 20
-18.6386309736
 40
61.75799358
100
AcDbArc
 50
185.7768478058
 51
189.521821001
  0
ARC
  5
47C
100
AcDbEntity
  8
DRAFT
100
AcDbCircle
 62
7
  6
CONTINUOUS
 10
42.9562955861
 20
-26.0426423517
 40
17.0
100
AcDbArc
 50
276.5620990315
 51
350.478178999
  0
ARC
  5
47D
100
AcDbEntity
  8
DRAFT
100
AcDbCircle
 62
7
  6
CONTINUOUS
 10
42.9562955861
 20
26.6601059691
 40
17.0
100
AcDbArc
 50
9.521821001
 51
83.4379009684
  0
ARC
  5
47E
100
AcDbEntity
  8
DRAFT
100
AcDbCircle
 62
7
  6
CONTINUOUS
 10
-41.8984251635
 20
26.6601059691
 40
17.0
100
AcDbArc
 50
96.5620990316
 51
170.478178999
  0
ARC
  5
47F
100
AcDbEntity
  8
DRAFT
100
AcDbCircle
 62
7
  6
CONTINUOUS
 10
-41.8984251635
 20
-26.0426423517
 40
17.0
100
AcDbArc
 50
189.521821001
 51
263.4379009685
  0
ARC
  5
480
100
AcDbEntity
  8
0
100
AcDbCircle
 62
7
  6
CONTINUOUS
 10
22.2289352113
 20
-21.3912681913
 40
0.8
100
AcDbArc
 50
269.9999999967
 51
360.0
  0
ARC
  5
481
100
AcDbEntity
  8
0
100
AcDbCircle
 62
7
  6
CONTINUOUS
 10
22.2289352113
 20
22.0087318087
 40
0.8
100
AcDbArc
 50
0.0
 51
90.0000000006
  0
ARC
  5
482
100
AcDbEntity
  8
0
100
AcDbCircle
 62
7
  6
CONTINUOUS
 10
-21.1710647887
 20
-21.3912681913
 40
0.8
100
AcDbArc
 50
179.9999999923
 51
270.0
  0
ARC
  5
483
100
AcDbEntity
  8
0
100
AcDbCircle
 62
7
  6
CONTINUOUS
 10
-21.1710647887
 20
22.0087318087
 40
0.8
100
AcDbArc
 50
90.0
 51
180.0000000077
  0
ARC
  5
484
100
AcDbEntity
  8
ASSI
100
AcDbCircle
 62
7
  6
CONTINUOUS
 10
97.7869976054
 20
-14.0723618204
 40
196.6014002287
100
AcDbArc
 50
182.7168379444
 51
183.40141728
  0
ARC
  5
485
100
AcDbEntity
  8
ASSI
100
AcDbCircle
 62
7
  6
CONTINUOUS
 10
97.7869976054
 20
-14.0723618204
 40
196.6014002287
100
AcDbArc
 50
184.2286300429
 51
188.8388788793
  0
ARC
  5
486
100
AcDbEntity
  8
ASSI
100
AcDbCircle
 62
7
  6
CONTINUOUS
 10
97.7869976054
 20
14.6898254379
 40
196.6014002287
100
AcDbArc
 50
171.1611211207
 51
177.2831620556
  0
ARC
  5
487
100
AcDbEntity
  8
RACCORDO
100
AcDbCircle
 62
7
  6
CONTINUOUS
 10
-98.1562689115
 20
-23.1083874162
 40
0.45
100
AcDbArc
 50
145.0
 51
182.6868060502
  0
ARC
  5
488
100
AcDbEntity
  8
RACCORDO
100
AcDbCircle
 62
7
  6
CONTINUOUS
 10
-98.1562689115
 20
23.7258510336
 40
0.45
100
AcDbArc
 50
177.3131939498
 51
215.0
  0
ARC
  5
489
100
AcDbEntity
  8
RACCORDO
100
AcDbCircle
 62
7
  6
CONTINUOUS
 10
-96.183194561
 20
44.8527875388
 40
0.3
100
AcDbArc
 50
93.0
 51
171.1611211173
  0
ARC
  5
48A
100
AcDbEntity
  8
RACCORDO
100
AcDbCircle
 62
7
  6
CONTINUOUS
 10
-96.183194561
 20
-44.2353239213
 40
0.3
100
AcDbArc
 50
188.8388788827
 51
267.0
  0
ENDSEC
  0
SECTION
  2
OBJECTS
  0
DICTIONARY
  5
C
100
AcDbDictionary
280
0
281
1
  3
ACAD_GROUP
350
D
  3
ACAD_MLINESTYLE
350
17
  3
ACAD_LAYOUT
350
1A
  3
ACAD_PLOTSETTINGS
350
19
  3
ACAD_PLOTSTYLENAME
350
E
  0
DICTIONARY
  5
D
102
{ACAD_REACTORS
330
C
102
}
100
AcDbDictionary
280
0
281
1
  0
ACDBDICTIONARYWDFLT
  5
E
102
{ACAD_REACTORS
330
C
102
}
100
AcDbDictionary
281
1
  3
Normal
350
F
100
AcDbDictionaryWithDefault
340
F
  0
DICTIONARY
  5
17
102
{ACAD_REACTORS
330
C
102
}
100
AcDbDictionary
280
0
281
1
  3
Standard
350
18
  0
DICTIONARY
  5
19
102
{ACAD_REACTORS
330
C
102
}
100
AcDbDictionary
281
1
  0
DICTIONARY
  5
1A
102
{ACAD_REACTORS
330
C
102
}
100
AcDbDictionary
281
1
  3
Model
350
48B
  3
Layout1
350
48C
  0
ACDBPLACEHOLDER
  5
F
102
{ACAD_REACTORS
330
E
102
}
  0
MLINESTYLE
  5
18
102
{ACAD_REACTORS
330
17
102
}
100
AcDbMlineStyle
  2
STANDARD
 70
0
  3

 62
256
 51
90.0
 52
90.0
 71
2
 49
0.5
 62
256
  6
BYLAYER
 49
-0.5
 62
256
  6
BYLAYER
  0
LAYOUT
  5
48B
102
{ACAD_REACTORS
330
1A
102
}
100
AcDbPlotSettings
  1

  2
none_device
  4
ISO_A4_(297.00_x_210.00_MM)
  6

 40
0.0
 41
0.0
 42
0.0
 43
0.0
 44
297.0
 45
210.0
 46
0.0
 47
0.0
 48
0.0
 49
0.0
140
0.0
141
0.0
142
1.0
143
1.0
 70
1024
 72
1
 73
0
 74
0
  7

 75
0
147
1.0
148
0.0
149
0.0
100
AcDbLayout
  1
Model
 70
0
 71
0
 10
0.0
 20
0.0
 11
297.0
 21
210.0
 12
0.0
 22
0.0
 32
0.0
 14
0.0
 24
0.0
 34
0.0
 15
0.0
 25
0.0
 35
0.0
146
0.0
 13
0.0
 23
0.0
 33
0.0
 16
1.0
 26
0.0
 36
0.0
 17
0.0
 27
1.0
 37
0.0
 76
0
330
211
345
0
346
0
  0
LAYOUT
  5
48C
102
{ACAD_REACTORS
330
1A
102
}
100
AcDbPlotSettings
  1

  2
none_device
  4
ISO_A4_(297.00_x_210.00_MM)
  6

 40
0.0
 41
0.0
 42
0.0
 43
0.0
 44
297.0
 45
210.0
 46
0.0
 47
0.0
 48
0.0
 49
0.0
140
0.0
141
0.0
142
1.0
143
1.0
 70
0
 72
1
 73
0
 74
0
  7

 75
0
147
1.0
148
0.0
149
0.0
100
AcDbLayout
  1
Layout1
 70
0
 71
1
 10
0.0
 20
0.0
 11
297.0
 21
210.0
 12
0.0
 22
0.0
 32
0.0
 14
0.0
 24
0.0
 34
0.0
 15
0.0
 25
0.0
 35
0.0
146
0.0
 13
0.0
 23
0.0
 33
0.0
 16
1.0
 26
0.0
 36
0.0
 17
0.0
 27
1.0
 37
0.0
 76
0
330
212
345
0
346
0
  0
ENDSEC
  0
EOF
