  0
SECTION
  2
HEADER
  9
$ACADVER
  1
AC1024
  9
$DWGCODEPAGE
  3
ANSI_1252
  9
$EXTMAX
 10
297.0
 20
210.0
 30
0.0
  9
$EXTMIN
 10
0.0
 20
0.0
 30
0.0
  9
$LIMMIN
 10
0.0
 20
0.0
  9
$LIMMAX
 10
297.0
 20
210.0
  9
$VIEWCTR
 10
148.5
 20
105.0
  9
$VIEWSIZE
 40
210.0
  9
$CLAYER
  8
0
  9
$LTSCALE
 40
16.335
  9
$CELTYPE
  6
BYLAYER
  9
$DIMSCALE
 40
1.0
  9
$DIMASZ
 40
3.0
  9
$DIMEXO
 40
0.5
  9
$DIMDLI
 40
11.286
  9
$DIMEXE
 40
1.5
  9
$DIMCEN
 40
2.673
  9
$DIMLFAC
 40
1.0
  9
$DIMBLK
  1
_FILLED
  9
$DIMALT
 70
0
  9
$DIMALTF
 40
0.0393700787
  9
$DIMTXT
 40
3.0
  9
$DIMTOL
 70
1
  9
$DIMLIM
 70
0
  9
$DIMTFAC
 40
1.0
  9
$DIMTP
 40
0.01
  9
$DIMTM
 40
0.01
  9
$DIMGAP
 40
0.625
  9
$DIMDSEP
 70
44
  9
$AUNITS
 70
0
  9
$PDMODE
 70
3
  9
$PDSIZE
 40
3.0
  9
$HANDSEED
  5
6CB
  9
$TILEMODE
 70
1
  9
$MEASUREMENT
 70
1
  9
$INSUNITS
 70
4
  0
ENDSEC
  0
SECTION
  2
CLASSES
  0
CLASS
  1
ACDBDICTIONARYWDFLT
  2
AcDbDictionaryWithDefault
  3
AutoCAD 2000
 90
0
 91
1
280
0
281
0
  0
CLASS
  1
ACDBPLACEHOLDER
  2
AcDbPlaceHolder
  3
AutoCAD 2000
 90
0
 91
1
280
0
281
0
  0
CLASS
  1
LAYOUT
  2
AcDbLayout
  3
AutoCAD 2000
 90
0
 91
0
280
0
281
0
  0
ENDSEC
  0
SECTION
  2
TABLES
  0
TABLE
  2
VPORT
  5
8
100
AcDbSymbolTable
 70
2
  0
VPORT
  5
1F4
100
AcDbSymbolTableRecord
100
AcDbViewportTableRecord
  2
*ACTIVE
 70
0
 10
0.0
 20
0.0
 11
1.0
 21
1.0
 12
148.5
 22
105.0
 13
0.0
 23
0.0
 14
1.0
 24
1.0
 15
0.0
 25
0.0
 16
0.0
 26
0.0
 36
1.0
 17
0.0
 27
0.0
 37
0.0
 40
210.0
 41
1.4142857143
 42
50.0
 43
0.0
 44
0.0
 50
0.0
 51
0.0
 71
0
 72
100
 73
1
 74
1
 75
0
 76
0
 77
0
 78
0
  0
ENDTAB
  0
TABLE
  2
LTYPE
  5
5
100
AcDbSymbolTable
 70
6
  0
LTYPE
  5
14
100
AcDbSymbolTableRecord
100
AcDbLinetypeTableRecord
  2
BYBLOCK
 70
0
  3

 72
65
 73
0
 40
0.0
  0
LTYPE
  5
15
100
AcDbSymbolTableRecord
100
AcDbLinetypeTableRecord
  2
BYLAYER
 70
0
  3

 72
65
 73
0
 40
0.0
  0
LTYPE
  5
16
100
AcDbSymbolTableRecord
100
AcDbLinetypeTableRecord
  2
CONTINUOUS
 70
64
  3
Solid line
 72
65
 73
0
 40
0.0
  0
LTYPE
  5
1F5
100
AcDbSymbolTableRecord
100
AcDbLinetypeTableRecord
  2
CENTER
 70
64
  3
____ _ ____ _ ____ _ ____ _ ____ _ ____ _ ____
 72
65
 73
4
 40
0.6
 49
0.375
 74
0
 49
-0.075
 74
0
 49
0.075
 74
0
 49
-0.075
 74
0
  0
LTYPE
  5
1F6
100
AcDbSymbolTableRecord
100
AcDbLinetypeTableRecord
  2
HIDDEN
 70
64
  3
- - - - - - - - - - - - - - - - - - - -
 72
65
 73
2
 40
0.2
 49
0.1
 74
0
 49
-0.1
 74
0
  0
LTYPE
  5
1F7
100
AcDbSymbolTableRecord
100
AcDbLinetypeTableRecord
  2
PHANTOM
 70
64
  3
_____ _ _ _____ _ _ _____ _ _ _____
 72
65
 73
6
 40
0.8
 49
0.45
 74
0
 49
-0.05
 74
0
 49
0.1
 74
0
 49
-0.05
 74
0
 49
0.1
 74
0
 49
-0.05
 74
0
  0
LTYPE
  5
1F8
100
AcDbSymbolTableRecord
100
AcDbLinetypeTableRecord
  2
DOT
 70
64
  3
. . . . . . . . . . . . . . . . . . . .
 72
65
 73
2
 40
0.2
 49
0.1
 74
0
 49
-0.1
 74
0
  0
LTYPE
  5
1F9
100
AcDbSymbolTableRecord
100
AcDbLinetypeTableRecord
  2
DASHED
 70
64
  3
- - - - - - - - - - - - - - - - - - - -
 72
65
 73
2
 40
0.2
 49
0.1
 74
0
 49
-0.1
 74
0
  0
ENDTAB
  0
TABLE
  2
LAYER
  5
2
100
AcDbSymbolTable
 70
36
  0
LAYER
  5
10
100
AcDbSymbolTableRecord
100
AcDbLayerTableRecord
  2
0
 70
0
 62
7
  6
CONTINUOUS
370
-3
390
F
  0
LAYER
  5
1FA
100
AcDbSymbolTableRecord
100
AcDbLayerTableRecord
  2
DEFAULT_1
 70
0
 62
7
  6
CENTER
370
-3
390
F
  0
LAYER
  5
1FB
100
AcDbSymbolTableRecord
100
AcDbLayerTableRecord
  2
DEFAULT_2
 70
0
 62
7
  6
HIDDEN
370
-3
390
F
  0
LAYER
  5
1FC
100
AcDbSymbolTableRecord
100
AcDbLayerTableRecord
  2
DEFAULT_3
 70
0
 62
7
  6
PHANTOM
370
-3
390
F
  0
LAYER
  5
1FD
100
AcDbSymbolTableRecord
100
AcDbLayerTableRecord
  2
ASSI
 70
0
 62
7
  6
CONTINUOUS
370
-3
390
F
  0
LAYER
  5
1FE
100
AcDbSymbolTableRecord
100
AcDbLayerTableRecord
  2
COORDINATE
 70
0
 62
7
  6
CONTINUOUS
370
-3
390
F
  0
LAYER
  5
1FF
100
AcDbSymbolTableRecord
100
AcDbLayerTableRecord
  2
COPY_PUBLISH
 70
0
 62
7
  6
CONTINUOUS
370
-3
390
F
  0
LAYER
  5
200
100
AcDbSymbolTableRecord
100
AcDbLayerTableRecord
  2
COSMETIC
 70
0
 62
7
  6
CONTINUOUS
370
-3
390
F
  0
LAYER
  5
201
100
AcDbSymbolTableRecord
100
AcDbLayerTableRecord
  2
COSMETICI
 70
0
 62
7
  6
CONTINUOUS
370
-3
390
F
  0
LAYER
  5
202
100
AcDbSymbolTableRecord
100
AcDbLayerTableRecord
  2
CURVA_VERNICE
 70
0
 62
7
  6
CONTINUOUS
370
-3
390
F
  0
LAYER
  5
203
100
AcDbSymbolTableRecord
100
AcDbLayerTableRecord
  2
CURVE
 70
0
 62
7
  6
CONTINUOUS
370
-3
390
F
  0
LAYER
  5
204
100
AcDbSymbolTableRecord
100
AcDbLayerTableRecord
  2
DRAFT
 70
0
 62
7
  6
CONTINUOUS
370
-3
390
F
  0
LAYER
  5
205
100
AcDbSymbolTableRecord
100
AcDbLayerTableRecord
  2
IMPORT_IGES
 70
0
 62
7
  6
CONTINUOUS
370
-3
390
F
  0
LAYER
  5
206
100
AcDbSymbolTableRecord
100
AcDbLayerTableRecord
  2
INTF_1
 70
0
 62
7
  6
CONTINUOUS
370
-3
390
F
  0
LAYER
  5
207
100
AcDbSymbolTableRecord
100
AcDbLayerTableRecord
  2
NOTE
 70
0
 62
7
  6
CONTINUOUS
370
-3
390
F
  0
LAYER
  5
208
100
AcDbSymbolTableRecord
100
AcDbLayerTableRecord
  2
PIANI
 70
0
 62
7
  6
CONTINUOUS
370
-3
390
F
  0
LAYER
  5
209
100
AcDbSymbolTableRecord
100
AcDbLayerTableRecord
  2
PUNTI
 70
0
 62
7
  6
CONTINUOUS
370
-3
390
F
  0
LAYER
  5
20A
100
AcDbSymbolTableRecord
100
AcDbLayerTableRecord
  2
RACCORDO
 70
0
 62
7
  6
CONTINUOUS
370
-3
390
F
  0
LAYER
  5
20B
100
AcDbSymbolTableRecord
100
AcDbLayerTableRecord
  2
SIMBOLI
 70
0
 62
7
  6
CONTINUOUS
370
-3
390
F
  0
LAYER
  5
20C
100
AcDbSymbolTableRecord
100
AcDbLayerTableRecord
  2
SMUSSO
 70
0
 62
7
  6
CONTINUOUS
370
-3
390
F
  0
LAYER
  5
20D
100
AcDbSymbolTableRecord
100
AcDbLayerTableRecord
  2
SNAPLINE
 70
0
 62
7
  6
CONTINUOUS
370
-3
390
F
  0
LAYER
  5
20E
100
AcDbSymbolTableRecord
100
AcDbLayerTableRecord
  2
SUPERFICI
 70
0
 62
7
  6
CONTINUOUS
370
-3
390
F
  0
LAYER
  5
20F
100
AcDbSymbolTableRecord
100
AcDbLayerTableRecord
  2
TRASH
 70
0
 62
7
  6
CONTINUOUS
370
-3
390
F
  0
LAYER
  5
210
100
AcDbSymbolTableRecord
100
AcDbLayerTableRecord
  2
XSEC_DATUMS
 70
0
 62
7
  6
CONTINUOUS
370
-3
390
F
  0
ENDTAB
  0
TABLE
  2
STYLE
  5
3
100
AcDbSymbolTable
 70
1
  0
STYLE
  5
11
100
AcDbSymbolTableRecord
100
AcDbTextStyleTableRecord
  2
STANDARD
 70
0
 40
0.0
 41
0.8
 50
0.0
 71
0
 42
0.2
  3
txt
  4

  0
STYLE
  5
211
100
AcDbSymbolTableRecord
100
AcDbTextStyleTableRecord
  2
TEXTSTYLE_1
 70
0
 40
0.0
 41
0.8
 50
0.0
 71
0
 42
0.2
  3
gdt
  4

  0
ENDTAB
  0
TABLE
  2
VIEW
  5
6
100
AcDbSymbolTable
 70
0
  0
ENDTAB
  0
TABLE
  2
UCS
  5
7
100
AcDbSymbolTable
 70
0
  0
ENDTAB
  0
TABLE
  2
APPID
  5
9
100
AcDbSymbolTable
 70
1
  0
APPID
  5
212
100
AcDbSymbolTableRecord
100
AcDbRegAppTableRecord
  2
ACAD
 70
0
  0
ENDTAB
  0
TABLE
  2
BLOCK_RECORD
  5
1
100
AcDbSymbolTable
 70
0
  0
BLOCK_RECORD
  5
213
100
AcDbSymbolTableRecord
100
AcDbBlockTableRecord
  2
*Model_Space
  0
BLOCK_RECORD
  5
214
100
AcDbSymbolTableRecord
100
AcDbBlockTableRecord
  2
*Paper_Space
  0
BLOCK_RECORD
  5
215
100
AcDbSymbolTableRecord
100
AcDbBlockTableRecord
  2
_FILLED
  0
BLOCK_RECORD
  5
216
100
AcDbSymbolTableRecord
100
AcDbBlockTableRecord
  2
*D0
  0
BLOCK_RECORD
  5
217
100
AcDbSymbolTableRecord
100
AcDbBlockTableRecord
  2
*D1
  0
BLOCK_RECORD
  5
218
100
AcDbSymbolTableRecord
100
AcDbBlockTableRecord
  2
*D2
  0
ENDTAB
  0
TABLE
  2
DIMSTYLE
  5
A
100
AcDbSymbolTable
 70
1
100
AcDbDimStyleTable
 71
0
  0
DIMSTYLE
105
219
100
AcDbSymbolTableRecord
100
AcDbDimStyleTableRecord
  2
STANDARD
 70
0
  3

  4

 40
1.0
 41
3.0
 42
0.5
 43
0.38
 44
1.5
 45
0.0
 46
0.0
 47
0.01
 48
0.01
140
3.0
141
0.09
142
0.0
143
25.4
144
1.0
145
0.0
146
1.0
147
0.625
 71
1
 72
0
 73
0
 74
0
 75
0
 76
0
 77
1
 78
8
 79
2
170
0
171
1
172
0
173
0
174
0
175
0
176
0
177
0
178
0
270
2
179
2
271
2
272
2
273
2
274
2
275
0
280
0
281
0
282
0
283
1
284
8
285
0
286
0
287
3
288
0
340
11
278
44
341
215
342
215
343
215
344
215
  0
DIMSTYLE
105
21A
100
AcDbSymbolTableRecord
100
AcDbDimStyleTableRecord
  2
DIMSTYLE_1
 70
0
  3

  4

 40
1.0
 41
3.0
 42
0.5
 43
0.38
 44
1.5
 45
0.0
 46
0.0
 47
0.0
 48
0.0
140
3.0
141
0.09
142
0.0
143
25.4
144
1.0
145
0.0
146
1.0
147
0.75
 71
0
 72
0
 73
0
 74
0
 75
0
 76
0
 77
1
 78
8
 79
2
170
0
171
1
172
0
173
0
174
0
175
0
176
0
177
0
178
0
270
2
179
2
271
2
272
2
273
2
274
2
275
0
280
0
281
0
282
0
283
1
284
8
285
0
286
0
287
3
288
0
340
11
278
44
341
215
342
215
343
215
344
215
  0
ENDTAB
  0
ENDSEC
  0
SECTION
  2
BLOCKS
  0
BLOCK
  5
20
100
AcDbEntity
  8
0
100
AcDbBlockBegin
  2
*Model_Space
 70
0
 10
0.0
 20
0.0
 30
0.0
  3
*Model_Space
  1

  0
ENDBLK
  5
21
100
AcDbEntity
  8
0
100
AcDbBlockEnd
  0
BLOCK
  5
1C
100
AcDbEntity
  8
0
100
AcDbBlockBegin
  2
*Paper_Space
 70
0
 10
0.0
 20
0.0
 30
0.0
  3
*Paper_Space
  1

  0
ENDBLK
  5
1D
100
AcDbEntity
  8
0
100
AcDbBlockEnd
  0
BLOCK
  5
21B
100
AcDbEntity
  8
0
100
AcDbBlockBegin
  2
_FILLED
 70
64
 10
0.0
 20
0.0
  3
_FILLED
  1

  0
SOLID
  5
21C
100
AcDbEntity
  8
0
  6
BYBLOCK
 62
0
100
AcDbTrace
 10
0.0
 20
0.0
 11
-1.0
 21
0.3166666667
 12
-1.0
 22
-0.3166666667
 13
-1.0
 23
-0.3166666667
  0
ENDBLK
  5
21D
100
AcDbEntity
  8
0
  6
BYBLOCK
 62
0
100
AcDbBlockEnd
  0
BLOCK
  5
21E
100
AcDbEntity
  8
0
100
AcDbBlockBegin
 62
7
  6
CONTINUOUS
  2
*D0
 70
65
 10
0.0
 20
0.0
  3
*D0
  1

  0
LINE
  5
21F
100
AcDbEntity
  8
0
100
AcDbLine
 62
7
  6
CONTINUOUS
 10
-48.0062736244
 20
0.1384133056
 11
-48.0062736244
 21
59.1384133056
  0
LINE
  5
220
100
AcDbEntity
  8
0
100
AcDbLine
 62
7
  6
CONTINUOUS
 10
73.9937263756
 20
0.1384133056
 11
73.9937263756
 21
59.1384133056
  0
LINE
  5
221
100
AcDbEntity
  8
0
100
AcDbLine
 62
7
  6
CONTINUOUS
 10
-48.0062736244
 20
57.6384133056
 11
12.9937263756
 21
57.6384133056
  0
LINE
  5
222
100
AcDbEntity
  8
0
100
AcDbLine
 62
7
  6
CONTINUOUS
 10
73.9937263756
 20
57.6384133056
 11
12.9937263756
 21
57.6384133056
  0
INSERT
  5
223
100
AcDbEntity
  8
0
100
AcDbBlockReference
 62
7
  6
CONTINUOUS
  2
_FILLED
 10
-48.0062736244
 20
57.6384133056
 41
3.0
 42
3.0
 43
3.0
 50
180.0
  0
INSERT
  5
224
100
AcDbEntity
  8
0
100
AcDbBlockReference
 62
7
  6
CONTINUOUS
  2
_FILLED
 10
73.9937263756
 20
57.6384133056
 41
3.0
 42
3.0
 43
3.0
  0
ENDBLK
  5
225
100
AcDbEntity
  8
0
  6
BYBLOCK
 62
0
100
AcDbBlockEnd
  0
BLOCK
  5
226
100
AcDbEntity
  8
0
100
AcDbBlockBegin
 62
7
  6
CONTINUOUS
  2
*D1
 70
65
 10
0.0
 20
0.0
  3
*D1
  1

  0
LINE
  5
227
100
AcDbEntity
  8
0
100
AcDbLine
 62
7
  6
CONTINUOUS
 10
13.4937263756
 20
44.6384133056
 11
87.4937263756
 21
44.6384133056
  0
LINE
  5
228
100
AcDbEntity
  8
0
100
AcDbLine
 62
7
  6
CONTINUOUS
 10
13.4937263756
 20
-45.3615866944
 11
87.4937263756
 21
-45.3615866944
  0
LINE
  5
229
100
AcDbEntity
  8
0
100
AcDbLine
 62
7
  6
CONTINUOUS
 10
85.9937263756
 20
44.6384133056
 11
85.9937263756
 21
-0.3615866944
  0
LINE
  5
22A
100
AcDbEntity
  8
0
100
AcDbLine
 62
7
  6
CONTINUOUS
 10
85.9937263756
 20
-45.3615866944
 11
85.9937263756
 21
-0.3615866944
  0
INSERT
  5
22B
100
AcDbEntity
  8
0
100
AcDbBlockReference
 62
7
  6
CONTINUOUS
  2
_FILLED
 10
85.9937263756
 20
44.6384133056
 41
3.0
 42
3.0
 43
3.0
 50
90.0
  0
INSERT
  5
22C
100
AcDbEntity
  8
0
100
AcDbBlockReference
 62
7
  6
CONTINUOUS
  2
_FILLED
 10
85.9937263756
 20
-45.3615866944
 41
3.0
 42
3.0
 43
3.0
 50
270.0
  0
ENDBLK
  5
22D
100
AcDbEntity
  8
0
  6
BYBLOCK
 62
0
100
AcDbBlockEnd
  0
BLOCK
  5
22E
100
AcDbEntity
  8
0
100
AcDbBlockBegin
 62
7
  6
CONTINUOUS
  2
*D2
 70
65
 10
0.0
 20
0.0
  3
*D2
  1

  0
LINE
  5
22F
100
AcDbEntity
  8
0
100
AcDbLine
 62
7
  6
CONTINUOUS
 10
-60.6292584862
 20
25.115771781
 11
-60.6292584862
 21
57.9448474876
  0
LINE
  5
230
100
AcDbEntity
  8
0
100
AcDbLine
 62
7
  6
CONTINUOUS
 10
-69.1292584862
 20
23.4528085786
 11
-69.1292584862
 21
57.9448474876
  0
LINE
  5
231
100
AcDbEntity
  8
0
100
AcDbLine
 62
7
  6
CONTINUOUS
 10
-60.6292584862
 20
56.4448474876
 11
-64.8792584862
 21
56.4448474876
  0
LINE
  5
232
100
AcDbEntity
  8
0
100
AcDbLine
 62
7
  6
CONTINUOUS
 10
-69.1292584862
 20
56.4448474876
 11
-64.8792584862
 21
56.4448474876
  0
LINE
  5
233
100
AcDbEntity
  8
0
100
AcDbLine
 62
7
  6
CONTINUOUS
 10
-64.8792584862
 20
56.4448474876
 11
-76.8435739005
 21
56.4448474876
  0
INSERT
  5
234
100
AcDbEntity
  8
0
100
AcDbBlockReference
 62
7
  6
CONTINUOUS
  2
_FILLED
 10
-60.6292584862
 20
56.4448474876
 41
3.0
 42
3.0
 43
3.0
  0
INSERT
  5
235
100
AcDbEntity
  8
0
100
AcDbBlockReference
 62
7
  6
CONTINUOUS
  2
_FILLED
 10
-69.1292584862
 20
56.4448474876
 41
3.0
 42
3.0
 43
3.0
 50
180.0
  0
ENDBLK
  5
236
100
AcDbEntity
  8
0
  6
BYBLOCK
 62
0
100
AcDbBlockEnd
  0
ENDSEC
  0
SECTION
  2
ENTITIES
  0
DIMENSION
  5
237
100
AcDbEntity
  8
0
100
AcDbDimension
 62
7
  6
CONTINUOUS
  2
*D0
 10
73.9937263756
 20
57.6384133056
 11
9.7794406613
 21
57.6384133056
 70
160
 71
2
 72
2
 41
0.9
 42
122.0
  3
DIMSTYLE_1
100
AcDbAlignedDimension
 13
-48.0062736244
 23
-0.3615866944
 14
73.9937263756
 24
-0.3615866944
100
AcDbRotatedDimension
  0
DIMENSION
  5
238
100
AcDbEntity
  8
0
100
AcDbDimension
 62
7
  6
CONTINUOUS
  2
*D1
 10
85.9937263756
 20
-45.3615866944
 11
85.9937263756
 21
-2.7187295515
 70
160
 71
2
 72
2
 41
0.9
 42
90.0
  3
DIMSTYLE_1
100
AcDbAlignedDimension
 13
12.9937263756
 23
44.6384133056
 14
12.9937263756
 24
-45.3615866944
 50
270.0
100
AcDbRotatedDimension
  0
DIMENSION
  5
239
100
AcDbEntity
  8
0
100
AcDbDimension
 62
7
  6
CONTINUOUS
  2
*D2
 10
-69.1292584862
 20
56.4448474876
 11
-76.8435739005
 21
56.4448474876
 70
160
 71
3
 72
2
 41
0.9
 42
8.5
  3
DIMSTYLE_1
100
AcDbAlignedDimension
 13
-60.6292584862
 23
24.615771781
 14
-69.1292584862
 24
22.9528085786
 50
180.0
100
AcDbRotatedDimension
  0
LWPOLYLINE
  5
23A
100
AcDbEntity
  8
0
100
AcDbPolyline
 62
7
  6
CONTINUOUS
 90
3
 70
0
 43
0.3500000006
 10
9.7794408073
 20
60.5312743835
 10
10.6365832787
 20
61.388412323
 10
10.6365832787
 20
58.3884114075
  0
LINE
  5
23B
100
AcDbEntity
  8
0
100
AcDbLine
 62
250
  6
CONTINUOUS
 10
-8.0843846244
 20
26.9681753056
 11
-7.9626106244
 21
27.0276983056
  0
LINE
  5
23C
100
AcDbEntity
  8
0
100
AcDbLine
 62
250
  6
CONTINUOUS
 10
-8.2384036244
 20
27.2062683056
 11
-8.4184616244
 21
27.1467453056
  0
LINE
  5
23D
100
AcDbEntity
  8
0
100
AcDbLine
 62
250
  6
CONTINUOUS
 10
-8.5278216244
 20
25.8967553056
 11
-8.3477636244
 21
25.9562783056
  0
LINE
  5
23E
100
AcDbEntity
  8
0
100
AcDbLine
 62
7
  6
CONTINUOUS
 10
8.3776193756
 20
-29.2393876944
 11
8.8926293756
 21
-29.2393876944
  0
LINE
  5
23F
100
AcDbEntity
  8
ASSI
100
AcDbLine
 62
7
  6
CONTINUOUS
 10
8.3776193756
 20
-29.2393876944
 11
8.8926293756
 21
-29.2393876944
  0
LINE
  5
240
100
AcDbEntity
  8
0
100
AcDbLine
 62
7
  6
CONTINUOUS
 10
10.0094413756
 20
-29.2393876944
 11
10.5938493756
 21
-29.2393876944
  0
LINE
  5
241
100
AcDbEntity
  8
ASSI
100
AcDbLine
 62
7
  6
CONTINUOUS
 10
10.0094413756
 20
-29.2393876944
 11
10.5938493756
 21
-29.2393876944
  0
LINE
  5
242
100
AcDbEntity
  8
0
100
AcDbLine
 62
7
  6
CONTINUOUS
 10
10.9084543756
 20
-29.2393876944
 11
11.4675433756
 21
-29.2393876944
  0
LINE
  5
243
100
AcDbEntity
  8
ASSI
100
AcDbLine
 62
7
  6
CONTINUOUS
 10
10.9084543756
 20
-29.2393876944
 11
11.4675433756
 21
-29.2393876944
  0
LINE
  5
244
100
AcDbEntity
  8
0
100
AcDbLine
 62
7
  6
CONTINUOUS
 10
12.2792393756
 20
-29.2393876944
 11
12.3612023756
 21
-29.2393876944
  0
LINE
  5
245
100
AcDbEntity
  8
ASSI
100
AcDbLine
 62
7
  6
CONTINUOUS
 10
12.2792393756
 20
-29.2393876944
 11
12.3612023756
 21
-29.2393876944
  0
LINE
  5
246
100
AcDbEntity
  8
0
100
AcDbLine
 62
7
  6
CONTINUOUS
 10
13.1761323756
 20
-29.2393876944
 11
13.7478383756
 21
-29.2393876944
  0
LINE
  5
247
100
AcDbEntity
  8
ASSI
100
AcDbLine
 62
7
  6
CONTINUOUS
 10
13.1761323756
 20
-29.2393876944
 11
13.7478383756
 21
-29.2393876944
  0
LINE
  5
248
100
AcDbEntity
  8
0
100
AcDbLine
 62
7
  6
CONTINUOUS
 10
13.8396063756
 20
-29.2393876944
 11
14.4176733756
 21
-29.2393876944
  0
LINE
  5
249
100
AcDbEntity
  8
ASSI
100
AcDbLine
 62
7
  6
CONTINUOUS
 10
13.8396063756
 20
-29.2393876944
 11
14.4176733756
 21
-29.2393876944
  0
LINE
  5
24A
100
AcDbEntity
  8
0
100
AcDbLine
 62
7
  6
CONTINUOUS
 10
15.5261923756
 20
-29.2393876944
 11
16.1421343756
 21
-29.2393876944
  0
LINE
  5
24B
100
AcDbEntity
  8
ASSI
100
AcDbLine
 62
7
  6
CONTINUOUS
 10
15.5261923756
 20
-29.2393876944
 11
16.1421343756
 21
-29.2393876944
  0
LINE
  5
24C
100
AcDbEntity
  8
0
100
AcDbLine
 62
7
  6
CONTINUOUS
 10
16.3137451779
 20
-29.2393880488
 11
16.8958017204
 21
-29.2393880488
  0
LINE
  5
24D
100
AcDbEntity
  8
ASSI
100
AcDbLine
 62
7
  6
CONTINUOUS
 10
16.3137451779
 20
-29.2393880488
 11
16.8958017204
 21
-29.2393880488
  0
LINE
  5
24E
100
AcDbEntity
  8
0
100
AcDbLine
 62
7
  6
CONTINUOUS
 10
17.7907419974
 20
-29.2393880488
 11
18.3528745875
 21
-29.2393880488
  0
LINE
  5
24F
100
AcDbEntity
  8
ASSI
100
AcDbLine
 62
7
  6
CONTINUOUS
 10
17.7907419974
 20
-29.2393880488
 11
18.3528745875
 21
-29.2393880488
  0
LINE
  5
250
100
AcDbEntity
  8
0
100
AcDbLine
 62
7
  6
CONTINUOUS
 10
14.5789333756
 20
-28.6804676944
 11
15.3748003756
 21
-28.6804676944
  0
LINE
  5
251
100
AcDbEntity
  8
ASSI
100
AcDbLine
 62
7
  6
CONTINUOUS
 10
14.5789333756
 20
-28.6804676944
 11
15.3748003756
 21
-28.6804676944
  0
LINE
  5
252
100
AcDbEntity
  8
0
100
AcDbLine
 62
7
  6
CONTINUOUS
 10
14.6984773756
 20
-28.2479776944
 11
15.2580063756
 21
-28.2479776944
  0
LINE
  5
253
100
AcDbEntity
  8
ASSI
100
AcDbLine
 62
7
  6
CONTINUOUS
 10
14.6984773756
 20
-28.2479776944
 11
15.2580063756
 21
-28.2479776944
  0
LINE
  5
254
100
AcDbEntity
  8
0
100
AcDbLine
 62
7
  6
CONTINUOUS
 10
16.8958017204
 20
-28.1437386191
 11
17.2091473379
 21
-28.1437386191
  0
LINE
  5
255
100
AcDbEntity
  8
ASSI
100
AcDbLine
 62
7
  6
CONTINUOUS
 10
16.8958017204
 20
-28.1437386191
 11
17.2091473379
 21
-28.1437386191
  0
LINE
  5
256
100
AcDbEntity
  8
0
100
AcDbLine
 62
7
  6
CONTINUOUS
 10
16.8764236296
 20
-27.685214781
 11
17.2104070187
 21
-27.685214781
  0
LINE
  5
257
100
AcDbEntity
  8
ASSI
100
AcDbLine
 62
7
  6
CONTINUOUS
 10
16.8764236296
 20
-27.685214781
 11
17.2104070187
 21
-27.685214781
  0
LINE
  5
258
100
AcDbEntity
  8
0
100
AcDbLine
 62
7
  6
CONTINUOUS
 10
7.4900583756
 20
-26.4396846944
 11
8.1249063756
 21
-26.4396846944
  0
LINE
  5
259
100
AcDbEntity
  8
ASSI
100
AcDbLine
 62
7
  6
CONTINUOUS
 10
7.4900583756
 20
-26.4396846944
 11
8.1249063756
 21
-26.4396846944
  0
LINE
  5
25A
100
AcDbEntity
  8
0
100
AcDbLine
 62
7
  6
CONTINUOUS
 10
9.2085573756
 20
-26.4396846944
 11
9.7925663756
 21
-26.4396846944
  0
LINE
  5
25B
100
AcDbEntity
  8
ASSI
100
AcDbLine
 62
7
  6
CONTINUOUS
 10
9.2085573756
 20
-26.4396846944
 11
9.7925663756
 21
-26.4396846944
  0
LINE
  5
25C
100
AcDbEntity
  8
0
100
AcDbLine
 62
7
  6
CONTINUOUS
 10
11.1612513756
 20
-26.4396846944
 11
11.7451763756
 21
-26.4396846944
  0
LINE
  5
25D
100
AcDbEntity
  8
ASSI
100
AcDbLine
 62
7
  6
CONTINUOUS
 10
11.1612513756
 20
-26.4396846944
 11
11.7451763756
 21
-26.4396846944
  0
LINE
  5
25E
100
AcDbEntity
  8
0
100
AcDbLine
 62
7
  6
CONTINUOUS
 10
12.9078203756
 20
-26.4396846944
 11
13.4860343756
 21
-26.4396846944
  0
LINE
  5
25F
100
AcDbEntity
  8
ASSI
100
AcDbLine
 62
7
  6
CONTINUOUS
 10
12.9078203756
 20
-26.4396846944
 11
13.4860343756
 21
-26.4396846944
  0
LINE
  5
260
100
AcDbEntity
  8
0
100
AcDbLine
 62
7
  6
CONTINUOUS
 10
14.7177713756
 20
-26.4396846944
 11
15.2831163756
 21
-26.4396846944
  0
LINE
  5
261
100
AcDbEntity
  8
ASSI
100
AcDbLine
 62
7
  6
CONTINUOUS
 10
14.7177713756
 20
-26.4396846944
 11
15.2831163756
 21
-26.4396846944
  0
LINE
  5
262
100
AcDbEntity
  8
0
100
AcDbLine
 62
7
  6
CONTINUOUS
 10
10.0094413756
 20
-26.4395166944
 11
10.5938493756
 21
-26.4395166944
  0
LINE
  5
263
100
AcDbEntity
  8
ASSI
100
AcDbLine
 62
7
  6
CONTINUOUS
 10
10.0094413756
 20
-26.4395166944
 11
10.5938493756
 21
-26.4395166944
  0
LINE
  5
264
100
AcDbEntity
  8
RACCORDO
100
AcDbLine
 62
250
  6
CONTINUOUS
 10
-31.3763942134
 20
-43.6015866944
 11
-31.3623443042
 21
-43.4804115425
  0
LINE
  5
265
100
AcDbEntity
  8
ASSI
100
AcDbLine
 62
250
  6
CONTINUOUS
 10
-31.3763942134
 20
-43.6015866944
 11
-31.3623443042
 21
-43.4804115425
  0
LINE
  5
266
100
AcDbEntity
  8
0
100
AcDbLine
 62
250
  6
CONTINUOUS
 10
-17.7095366244
 20
28.3372113056
 11
-18.5088496244
 21
25.5396153056
  0
LINE
  5
267
100
AcDbEntity
  8
0
100
AcDbLine
 62
250
  6
CONTINUOUS
 10
-7.9626106244
 20
27.0276983056
 11
-7.7669306244
 21
27.2657913056
  0
LINE
  5
268
100
AcDbEntity
  8
0
100
AcDbLine
 62
250
  6
CONTINUOUS
 10
-8.1114216244
 20
27.3253153056
 11
-8.2384036244
 21
27.2062683056
  0
LINE
  5
269
100
AcDbEntity
  8
0
100
AcDbLine
 62
250
  6
CONTINUOUS
 10
-8.3477636244
 20
25.9562783056
 11
-8.2207816244
 21
26.0753253056
  0
LINE
  5
26A
100
AcDbEntity
  8
0
100
AcDbLine
 62
250
  6
CONTINUOUS
 10
-3.9586886244
 20
28.1586413056
 11
-4.2126516244
 21
27.9205483056
  0
LINE
  5
26B
100
AcDbEntity
  8
0
100
AcDbLine
 62
250
  6
CONTINUOUS
 10
-8.3207266244
 20
25.5991383056
 11
-8.0719706244
 21
25.7777083056
  0
LINE
  5
26C
100
AcDbEntity
  8
0
100
AcDbLine
 62
250
  6
CONTINUOUS
 10
-3.8733676244
 20
27.8015013056
 11
-3.6881026244
 21
27.9205483056
  0
LINE
  5
26D
100
AcDbEntity
  8
0
100
AcDbLine
 62
250
  6
CONTINUOUS
 10
-2.6838736244
 20
26.0753253056
 11
-2.8691386244
 21
25.9562783056
  0
LINE
  5
26E
100
AcDbEntity
  8
0
100
AcDbLine
 62
250
  6
CONTINUOUS
 10
-3.7151396244
 20
28.2776883056
 11
-3.9586886244
 21
28.1586413056
  0
LINE
  5
26F
100
AcDbEntity
  8
0
100
AcDbLine
 62
250
  6
CONTINUOUS
 10
-2.8421006244
 20
25.5991383056
 11
-2.5985526244
 21
25.7181853056
  0
LINE
  5
270
100
AcDbEntity
  8
0
100
AcDbLine
 62
250
  6
CONTINUOUS
 10
5.4425353756
 20
27.0276983056
 11
5.1989883756
 21
26.9086513056
  0
LINE
  5
271
100
AcDbEntity
  8
0
100
AcDbLine
 62
250
  6
CONTINUOUS
 10
5.1667423756
 20
27.2062683056
 11
4.9866853756
 21
27.1467453056
  0
LINE
  5
272
100
AcDbEntity
  8
RACCORDO
100
AcDbLine
 62
250
  6
CONTINUOUS
 10
-46.1994194217
 20
-29.5251555793
 11
-46.0352341437
 21
-29.4975083371
  0
LINE
  5
273
100
AcDbEntity
  8
ASSI
100
AcDbLine
 62
250
  6
CONTINUOUS
 10
-46.1994194217
 20
-29.5251555793
 11
-46.0352341437
 21
-29.4975083371
  0
LINE
  5
274
100
AcDbEntity
  8
RACCORDO
100
AcDbLine
 62
250
  6
CONTINUOUS
 10
-46.7366392837
 20
-25.5251555793
 11
-46.5586176436
 21
-25.5071402391
  0
LINE
  5
275
100
AcDbEntity
  8
ASSI
100
AcDbLine
 62
250
  6
CONTINUOUS
 10
-46.7366392837
 20
-25.5251555793
 11
-46.5586176436
 21
-25.5071402391
  0
LINE
  5
276
100
AcDbEntity
  8
RACCORDO
100
AcDbLine
 62
250
  6
CONTINUOUS
 10
-46.4167226592
 20
-24.1051346678
 11
-4.4824807412
 21
-24.1051584239
  0
LINE
  5
277
100
AcDbEntity
  8
ASSI
100
AcDbLine
 62
250
  6
CONTINUOUS
 10
-46.4167226592
 20
-24.1051346678
 11
-4.4824807412
 21
-24.1051584239
  0
LINE
  5
278
100
AcDbEntity
  8
RACCORDO
100
AcDbLine
 62
250
  6
CONTINUOUS
 10
30.4699334923
 20
-24.1051584239
 11
72.4041753986
 21
-24.1051347922
  0
LINE
  5
279
100
AcDbEntity
  8
ASSI
100
AcDbLine
 62
250
  6
CONTINUOUS
 10
30.4699334923
 20
-24.1051584239
 11
72.4041753986
 21
-24.1051347922
  0
LINE
  5
27A
100
AcDbEntity
  8
RACCORDO
100
AcDbLine
 62
250
  6
CONTINUOUS
 10
45.507808193
 20
-23.1925132535
 11
-19.5203554795
 21
-23.1925132535
  0
LINE
  5
27B
100
AcDbEntity
  8
ASSI
100
AcDbLine
 62
250
  6
CONTINUOUS
 10
45.507808193
 20
-23.1925132535
 11
-19.5203554795
 21
-23.1925132535
  0
LINE
  5
27C
100
AcDbEntity
  8
RACCORDO
100
AcDbLine
 62
250
  6
CONTINUOUS
 10
46.0437174334
 20
-22.9797773609
 11
-20.0562725156
 21
-22.9797773609
  0
LINE
  5
27D
100
AcDbEntity
  8
ASSI
100
AcDbLine
 62
250
  6
CONTINUOUS
 10
46.0437174334
 20
-22.9797773609
 11
-20.0562725156
 21
-22.9797773609
  0
LINE
  5
27E
100
AcDbEntity
  8
0
100
AcDbLine
 62
7
  6
CONTINUOUS
 10
46.0437263756
 20
-22.8615866944
 11
-20.0562736244
 21
-22.8615866944
  0
LINE
  5
27F
100
AcDbEntity
  8
ASSI
100
AcDbLine
 62
7
  6
CONTINUOUS
 10
46.0437263756
 20
-22.8615866944
 11
-20.0562736244
 21
-22.8615866944
  0
LINE
  5
280
100
AcDbEntity
  8
0
100
AcDbLine
 62
250
  6
CONTINUOUS
 10
46.8437263756
 20
-22.0615866944
 11
46.9637059161
 21
-22.061576327
  0
LINE
  5
281
100
AcDbEntity
  8
ASSI
100
AcDbLine
 62
250
  6
CONTINUOUS
 10
46.8437263756
 20
-22.0615866944
 11
46.9637059161
 21
-22.061576327
  0
LINE
  5
282
100
AcDbEntity
  8
0
100
AcDbLine
 62
250
  6
CONTINUOUS
 10
-20.8562736244
 20
-22.0615866944
 11
-20.9762579008
 21
-22.0615757733
  0
LINE
  5
283
100
AcDbEntity
  8
ASSI
100
AcDbLine
 62
250
  6
CONTINUOUS
 10
-20.8562736244
 20
-22.0615866944
 11
-20.9762579008
 21
-22.0615757733
  0
LINE
  5
284
100
AcDbEntity
  8
RACCORDO
100
AcDbLine
 62
250
  6
CONTINUOUS
 10
-31.3763942134
 20
42.8784133056
 11
-31.3623581095
 21
42.7572366238
  0
LINE
  5
285
100
AcDbEntity
  8
ASSI
100
AcDbLine
 62
250
  6
CONTINUOUS
 10
-31.3763942134
 20
42.8784133056
 11
-31.3623581095
 21
42.7572366238
  0
LINE
  5
286
100
AcDbEntity
  8
RACCORDO
100
AcDbLine
 62
250
  6
CONTINUOUS
 10
-26.3763942134
 20
43.3318485065
 11
-26.3677738173
 21
43.2021498922
  0
LINE
  5
287
100
AcDbEntity
  8
ASSI
100
AcDbLine
 62
250
  6
CONTINUOUS
 10
-26.3763942134
 20
43.3318485065
 11
-26.3677738173
 21
43.2021498922
  0
LINE
  5
288
100
AcDbEntity
  8
0
100
AcDbLine
 62
250
  6
CONTINUOUS
 10
-23.5045566244
 20
27.7876833056
 11
-23.5045566244
 21
26.0891433056
  0
LINE
  5
289
100
AcDbEntity
  8
0
100
AcDbLine
 62
250
  6
CONTINUOUS
 10
-23.4046426244
 20
27.6877693056
 11
-23.4046426244
 21
26.1890573056
  0
LINE
  5
28A
100
AcDbEntity
  8
0
100
AcDbLine
 62
250
  6
CONTINUOUS
 10
-23.3047276244
 20
27.5878553056
 11
-23.3047276244
 21
26.2889713056
  0
LINE
  5
28B
100
AcDbEntity
  8
0
100
AcDbLine
 62
250
  6
CONTINUOUS
 10
-22.3555436244
 20
28.9366963056
 11
-22.3555436244
 21
27.7876833056
  0
LINE
  5
28C
100
AcDbEntity
  8
0
100
AcDbLine
 62
250
  6
CONTINUOUS
 10
-22.3555436244
 20
26.0891433056
 11
-22.3555436244
 21
24.9401303056
  0
LINE
  5
28D
100
AcDbEntity
  8
0
100
AcDbLine
 62
250
  6
CONTINUOUS
 10
-22.2556296244
 20
28.8367823056
 11
-22.2556296244
 21
27.6877693056
  0
LINE
  5
28E
100
AcDbEntity
  8
0
100
AcDbLine
 62
250
  6
CONTINUOUS
 10
-22.2556296244
 20
26.1890573056
 11
-22.2556296244
 21
25.0400443056
  0
LINE
  5
28F
100
AcDbEntity
  8
0
100
AcDbLine
 62
250
  6
CONTINUOUS
 10
-22.1557156244
 20
28.7368673056
 11
-22.1557156244
 21
27.5878553056
  0
LINE
  5
290
100
AcDbEntity
  8
0
100
AcDbLine
 62
250
  6
CONTINUOUS
 10
-22.1557156244
 20
26.2889713056
 11
-22.1557156244
 21
25.1399593056
  0
LINE
  5
291
100
AcDbEntity
  8
0
100
AcDbLine
 62
250
  6
CONTINUOUS
 10
-20.8568316244
 20
25.1399593056
 11
-20.8568316244
 21
26.2889713056
  0
LINE
  5
292
100
AcDbEntity
  8
0
100
AcDbLine
 62
250
  6
CONTINUOUS
 10
-20.8568316244
 20
27.5878553056
 11
-20.8568316244
 21
28.7368673056
  0
LINE
  5
293
100
AcDbEntity
  8
0
100
AcDbLine
 62
7
  6
CONTINUOUS
 10
-20.8562736244
 20
21.3384133056
 11
-20.8562736244
 21
-22.0615866944
  0
LINE
  5
294
100
AcDbEntity
  8
ASSI
100
AcDbLine
 62
7
  6
CONTINUOUS
 10
-20.8562736244
 20
21.3384133056
 11
-20.8562736244
 21
-22.0615866944
  0
LINE
  5
295
100
AcDbEntity
  8
0
100
AcDbLine
 62
250
  6
CONTINUOUS
 10
-20.7569176244
 20
25.0400443056
 11
-20.7569176244
 21
26.1890573056
  0
LINE
  5
296
100
AcDbEntity
  8
0
100
AcDbLine
 62
250
  6
CONTINUOUS
 10
-20.7569176244
 20
27.6877693056
 11
-20.7569176244
 21
28.8367823056
  0
LINE
  5
297
100
AcDbEntity
  8
0
100
AcDbLine
 62
250
  6
CONTINUOUS
 10
-20.6570036244
 20
24.9401303056
 11
-20.6570036244
 21
26.0891433056
  0
LINE
  5
298
100
AcDbEntity
  8
0
100
AcDbLine
 62
250
  6
CONTINUOUS
 10
-20.6570036244
 20
27.7876833056
 11
-20.6570036244
 21
28.9366963056
  0
LINE
  5
299
100
AcDbEntity
  8
0
100
AcDbLine
 62
250
  6
CONTINUOUS
 10
-20.0562736244
 20
-22.8615866944
 11
-20.0562725156
 21
-22.9797773609
  0
LINE
  5
29A
100
AcDbEntity
  8
0
100
AcDbLine
 62
250
  6
CONTINUOUS
 10
-20.0562736244
 20
22.1384133056
 11
-20.0562726064
 21
22.2566039721
  0
LINE
  5
29B
100
AcDbEntity
  8
RACCORDO
100
AcDbLine
 62
250
  6
CONTINUOUS
 10
-20.0562735955
 20
-23.1823760253
 11
-20.0562736244
 21
-22.9797773609
  0
LINE
  5
29C
100
AcDbEntity
  8
ASSI
100
AcDbLine
 62
250
  6
CONTINUOUS
 10
-20.0562735955
 20
-23.1823760253
 11
-20.0562736244
 21
-22.8615866944
  0
LINE
  5
29D
100
AcDbEntity
  8
RACCORDO
100
AcDbLine
 62
250
  6
CONTINUOUS
 10
-20.0562736245
 20
22.459202636
 11
-20.0562736244
 21
22.2566039721
  0
LINE
  5
29E
100
AcDbEntity
  8
ASSI
100
AcDbLine
 62
250
  6
CONTINUOUS
 10
-20.0562736245
 20
22.459202636
 11
-20.0562736244
 21
22.1384133056
  0
LINE
  5
29F
100
AcDbEntity
  8
0
100
AcDbLine
 62
250
  6
CONTINUOUS
 10
-19.7078196244
 20
26.2889713056
 11
-19.7078196244
 21
27.5878553056
  0
LINE
  5
2A0
100
AcDbEntity
  8
0
100
AcDbLine
 62
250
  6
CONTINUOUS
 10
-19.6079046244
 20
26.1890573056
 11
-19.6079046244
 21
27.6877693056
  0
LINE
  5
2A1
100
AcDbEntity
  8
0
100
AcDbLine
 62
250
  6
CONTINUOUS
 10
-19.5079906244
 20
26.0891433056
 11
-19.5079906244
 21
27.7876833056
  0
LINE
  5
2A2
100
AcDbEntity
  8
RACCORDO
100
AcDbLine
 62
250
  6
CONTINUOUS
 10
-26.3763942134
 20
-44.0550218953
 11
-26.3677732345
 21
-43.925323319
  0
LINE
  5
2A3
100
AcDbEntity
  8
ASSI
100
AcDbLine
 62
250
  6
CONTINUOUS
 10
-26.3763942134
 20
-44.0550218953
 11
-26.3677732345
 21
-43.925323319
  0
LINE
  5
2A4
100
AcDbEntity
  8
0
100
AcDbLine
 62
250
  6
CONTINUOUS
 10
-8.0375156244
 20
27.5038843056
 11
-8.1114216244
 21
27.3253153056
  0
LINE
  5
2A5
100
AcDbEntity
  8
0
100
AcDbLine
 62
250
  6
CONTINUOUS
 10
-7.7669306244
 20
27.2657913056
 11
-7.6930246244
 21
27.4443613056
  0
LINE
  5
2A6
100
AcDbEntity
  8
0
100
AcDbLine
 62
250
  6
CONTINUOUS
 10
-8.2207816244
 20
26.0753253056
 11
-8.1468756244
 21
26.2538953056
  0
LINE
  5
2A7
100
AcDbEntity
  8
0
100
AcDbLine
 62
250
  6
CONTINUOUS
 10
-7.8762906244
 20
26.0158023056
 11
-7.8023836244
 21
26.1943723056
  0
LINE
  5
2A8
100
AcDbEntity
  8
0
100
AcDbLine
 62
250
  6
CONTINUOUS
 10
-4.2126516244
 20
27.9205483056
 11
-4.3500486244
 21
27.6824553056
  0
LINE
  5
2A9
100
AcDbEntity
  8
0
100
AcDbLine
 62
250
  6
CONTINUOUS
 10
-4.0055566244
 20
27.6229313056
 11
-3.8733676244
 21
27.8015013056
  0
LINE
  5
2AA
100
AcDbEntity
  8
0
100
AcDbLine
 62
250
  6
CONTINUOUS
 10
-8.0719706244
 20
25.7777083056
 11
-7.8762906244
 21
26.0158023056
  0
LINE
  5
2AB
100
AcDbEntity
  8
0
100
AcDbLine
 62
250
  6
CONTINUOUS
 10
-2.5985526244
 20
25.7181853056
 11
-2.3445896244
 21
25.9562783056
  0
LINE
  5
2AC
100
AcDbEntity
  8
0
100
AcDbLine
 62
250
  6
CONTINUOUS
 10
5.2937243756
 20
27.3253153056
 11
5.1667423756
 21
27.2062683056
  0
LINE
  5
2AD
100
AcDbEntity
  8
RACCORDO
100
AcDbLine
 62
250
  6
CONTINUOUS
 10
72.7240920348
 20
-25.5251555793
 11
72.5460705274
 21
-25.5071389074
  0
LINE
  5
2AE
100
AcDbEntity
  8
ASSI
100
AcDbLine
 62
250
  6
CONTINUOUS
 10
72.7240920348
 20
-25.5251555793
 11
72.5460705274
 21
-25.5071389074
  0
LINE
  5
2AF
100
AcDbEntity
  8
RACCORDO
100
AcDbLine
 62
250
  6
CONTINUOUS
 10
72.1868721728
 20
-29.5251555793
 11
72.0226892478
 21
-29.4974941168
  0
LINE
  5
2B0
100
AcDbEntity
  8
ASSI
100
AcDbLine
 62
250
  6
CONTINUOUS
 10
72.1868721728
 20
-29.5251555793
 11
72.0226892478
 21
-29.4974941168
  0
LINE
  5
2B1
100
AcDbEntity
  8
0
100
AcDbLine
 62
250
  6
CONTINUOUS
 10
-16.1109106244
 20
28.3372113056
 11
-16.1109106244
 21
25.5396153056
  0
LINE
  5
2B2
100
AcDbEntity
  8
0
100
AcDbLine
 62
250
  6
CONTINUOUS
 10
-14.7121126244
 20
28.3372113056
 11
-14.7121126244
 21
25.5396153056
  0
LINE
  5
2B3
100
AcDbEntity
  8
0
100
AcDbLine
 62
250
  6
CONTINUOUS
 10
-13.1134856244
 20
28.3372113056
 11
-13.1134856244
 21
25.5396153056
  0
LINE
  5
2B4
100
AcDbEntity
  8
0
100
AcDbLine
 62
250
  6
CONTINUOUS
 10
-9.7713896244
 20
28.3372113056
 11
-10.0161476244
 21
25.5396153056
  0
LINE
  5
2B5
100
AcDbEntity
  8
0
100
AcDbLine
 62
250
  6
CONTINUOUS
 10
-9.5570886244
 20
26.7896053056
 11
-9.6352026244
 21
25.8967553056
  0
LINE
  5
2B6
100
AcDbEntity
  8
0
100
AcDbLine
 62
250
  6
CONTINUOUS
 10
-9.5258426244
 20
27.1467453056
 11
-9.4529366244
 21
27.9800713056
  0
LINE
  5
2B7
100
AcDbEntity
  8
0
100
AcDbLine
 62
250
  6
CONTINUOUS
 10
-4.3500486244
 20
27.6824553056
 11
-4.4343696244
 21
27.3848383056
  0
LINE
  5
2B8
100
AcDbEntity
  8
0
100
AcDbLine
 62
250
  6
CONTINUOUS
 10
-4.0846706244
 20
27.3848383056
 11
-4.0055566244
 21
27.6229313056
  0
LINE
  5
2B9
100
AcDbEntity
  8
0
100
AcDbLine
 62
250
  6
CONTINUOUS
 10
-6.0038096244
 20
28.0991183056
 11
-6.6689646244
 21
26.4919883056
  0
LINE
  5
2BA
100
AcDbEntity
  8
0
100
AcDbLine
 62
250
  6
CONTINUOUS
 10
-7.0437026244
 20
25.5396153056
 11
-6.7480776244
 21
26.2538953056
  0
LINE
  5
2BB
100
AcDbEntity
  8
0
100
AcDbLine
 62
250
  6
CONTINUOUS
 10
-2.6099676244
 20
26.2538953056
 11
-2.6838736244
 21
26.0753253056
  0
LINE
  5
2BC
100
AcDbEntity
  8
0
100
AcDbLine
 62
250
  6
CONTINUOUS
 10
-6.2161116244
 20
28.3372113056
 11
-7.3934016244
 21
25.5396153056
  0
LINE
  5
2BD
100
AcDbEntity
  8
0
100
AcDbLine
 62
250
  6
CONTINUOUS
 10
5.6382163756
 20
27.2657913056
 11
5.4425353756
 21
27.0276983056
  0
LINE
  5
2BE
100
AcDbEntity
  8
0
100
AcDbLine
 62
250
  6
CONTINUOUS
 10
-10.9819846244
 20
28.3372113056
 11
-10.9819846244
 21
25.5396153056
  0
LINE
  5
2BF
100
AcDbEntity
  8
0
100
AcDbLine
 62
250
  6
CONTINUOUS
 10
-8.0271006244
 20
27.6229313056
 11
-8.0375156244
 21
27.5038843056
  0
LINE
  5
2C0
100
AcDbEntity
  8
0
100
AcDbLine
 62
250
  6
CONTINUOUS
 10
-8.1468756244
 20
26.2538953056
 11
-8.1312536244
 21
26.4324653056
  0
LINE
  5
2C1
100
AcDbEntity
  8
0
100
AcDbLine
 62
250
  6
CONTINUOUS
 10
-7.6930246244
 20
27.4443613056
 11
-7.6721936244
 21
27.6824553056
  0
LINE
  5
2C2
100
AcDbEntity
  8
0
100
AcDbLine
 62
250
  6
CONTINUOUS
 10
-7.8023836244
 20
26.1943723056
 11
-7.7763456244
 21
26.4919883056
  0
LINE
  5
2C3
100
AcDbEntity
  8
0
100
AcDbLine
 62
250
  6
CONTINUOUS
 10
-4.4343696244
 20
27.3848383056
 11
-4.5124846244
 21
26.4919883056
  0
LINE
  5
2C4
100
AcDbEntity
  8
0
100
AcDbLine
 62
250
  6
CONTINUOUS
 10
-4.1627846244
 20
26.4919883056
 11
-4.0846706244
 21
27.3848383056
  0
LINE
  5
2C5
100
AcDbEntity
  8
0
100
AcDbLine
 62
250
  6
CONTINUOUS
 10
-2.3445896244
 20
25.9562783056
 11
-2.2602676244
 21
26.2538953056
  0
LINE
  5
2C6
100
AcDbEntity
  8
0
100
AcDbLine
 62
250
  6
CONTINUOUS
 10
5.3676303756
 20
27.5038843056
 11
5.2937243756
 21
27.3253153056
  0
LINE
  5
2C7
100
AcDbEntity
  8
0
100
AcDbLine
 62
250
  6
CONTINUOUS
 10
5.7121223756
 20
27.4443613056
 11
5.6382163756
 21
27.2657913056
  0
LINE
  5
2C8
100
AcDbEntity
  8
RACCORDO
100
AcDbLine
 62
250
  6
CONTINUOUS
 10
47.5702016257
 20
-0.3615866944
 11
46.9842772848
 21
-0.3615866944
  0
LINE
  5
2C9
100
AcDbEntity
  8
ASSI
100
AcDbLine
 62
250
  6
CONTINUOUS
 10
47.5702016257
 20
-0.3615866944
 11
46.9842772848
 21
-0.3615866944
  0
LINE
  5
2CA
100
AcDbEntity
  8
RACCORDO
100
AcDbLine
 62
250
  6
CONTINUOUS
 10
-21.5827488745
 20
-0.3615866944
 11
-20.9968245337
 21
-0.3615866944
  0
LINE
  5
2CB
100
AcDbEntity
  8
ASSI
100
AcDbLine
 62
250
  6
CONTINUOUS
 10
-21.5827488745
 20
-0.3615866944
 11
-20.9968245337
 21
-0.3615866944
  0
LWPOLYLINE
  5
2CC
100
AcDbEntity
  8
0
100
AcDbPolyline
 62
7
  6
CONTINUOUS
 90
13
 70
0
 43
0.3500000006
 10
84.386584259
 20
-0.3615861282
 10
83.1008682861
 20
-0.3615861282
 10
82.6722993164
 20
-0.1473016434
 10
82.2437303467
 20
0.2812695923
 10
82.2437303467
 20
0.4955563431
 10
82.6722993164
 20
0.9241275787
 10
83.1008682861
 20
1.1384143295
 10
84.386584259
 20
1.1384143295
 10
84.8151532288
 20
0.9241275787
 10
85.2437221985
 20
0.4955563431
 10
85.2437221985
 20
0.2812695923
 10
84.8151532288
 20
-0.1473016434
 10
84.386584259
 20
-0.3615861282
  0
LINE
  5
2CD
100
AcDbEntity
  8
0
100
AcDbLine
 62
250
  6
CONTINUOUS
 10
-16.9102236244
 20
25.5396153056
 11
-17.7095366244
 21
28.3372113056
  0
LINE
  5
2CE
100
AcDbEntity
  8
0
100
AcDbLine
 62
250
  6
CONTINUOUS
 10
-4.5124846244
 20
26.4919883056
 11
-4.4802386244
 21
26.1943723056
  0
LINE
  5
2CF
100
AcDbEntity
  8
0
100
AcDbLine
 62
250
  6
CONTINUOUS
 10
-2.1404926244
 20
27.6229313056
 11
-2.1727376244
 21
27.9205483056
  0
LINE
  5
2D0
100
AcDbEntity
  8
0
100
AcDbLine
 62
250
  6
CONTINUOUS
 10
-1.6117356244
 20
28.3372113056
 11
-1.6377736244
 21
28.0395943056
  0
LINE
  5
2D1
100
AcDbEntity
  8
0
100
AcDbLine
 62
250
  6
CONTINUOUS
 10
-0.7052416244
 20
28.0395943056
 11
-0.9239616244
 21
25.5396153056
  0
LINE
  5
2D2
100
AcDbEntity
  8
0
100
AcDbLine
 62
250
  6
CONTINUOUS
 10
-0.5742616244
 20
25.5396153056
 11
-0.3555426244
 21
28.0395943056
  0
LINE
  5
2D3
100
AcDbEntity
  8
0
100
AcDbLine
 62
250
  6
CONTINUOUS
 10
0.5769893756
 20
28.0395943056
 11
0.6030273756
 21
28.3372113056
  0
LINE
  5
2D4
100
AcDbEntity
  8
0
100
AcDbLine
 62
250
  6
CONTINUOUS
 10
1.0692933756
 20
28.3372113056
 11
0.8245353756
 21
25.5396153056
  0
LINE
  5
2D5
100
AcDbEntity
  8
0
100
AcDbLine
 62
250
  6
CONTINUOUS
 10
1.3200483756
 20
27.2062683056
 11
1.3877473756
 21
27.9800713056
  0
LINE
  5
2D6
100
AcDbEntity
  8
0
100
AcDbLine
 62
250
  6
CONTINUOUS
 10
1.2054813756
 20
25.8967553056
 11
1.2888023756
 21
26.8491283056
  0
LINE
  5
2D7
100
AcDbEntity
  8
0
100
AcDbLine
 62
250
  6
CONTINUOUS
 10
2.8041663756
 20
26.8491283056
 11
2.8354123756
 21
27.2062683056
  0
LINE
  5
2D8
100
AcDbEntity
  8
0
100
AcDbLine
 62
250
  6
CONTINUOUS
 10
2.9227323756
 20
25.5396153056
 11
2.9539783756
 21
25.8967553056
  0
LINE
  5
2D9
100
AcDbEntity
  8
0
100
AcDbLine
 62
250
  6
CONTINUOUS
 10
3.1362453756
 20
27.9800713056
 11
3.1674903756
 21
28.3372113056
  0
LINE
  5
2DA
100
AcDbEntity
  8
0
100
AcDbLine
 62
250
  6
CONTINUOUS
 10
3.3889983756
 20
25.5396153056
 11
3.6337563756
 21
28.3372113056
  0
LINE
  5
2DB
100
AcDbEntity
  8
0
100
AcDbLine
 62
250
  6
CONTINUOUS
 10
3.8480573756
 20
26.7896053056
 11
3.7386973756
 21
25.5396153056
  0
LINE
  5
2DC
100
AcDbEntity
  8
0
100
AcDbLine
 62
250
  6
CONTINUOUS
 10
3.8793033756
 20
27.1467453056
 11
3.9574173756
 21
28.0395943056
  0
LINE
  5
2DD
100
AcDbEntity
  8
0
100
AcDbLine
 62
250
  6
CONTINUOUS
 10
8.2755863756
 20
28.0991183056
 11
7.6104313756
 21
26.4919883056
  0
LINE
  5
2DE
100
AcDbEntity
  8
0
100
AcDbLine
 62
250
  6
CONTINUOUS
 10
7.2356923756
 20
25.5396153056
 11
7.5313173756
 21
26.2538953056
  0
LINE
  5
2DF
100
AcDbEntity
  8
0
100
AcDbLine
 62
250
  6
CONTINUOUS
 10
8.0632833756
 20
28.3372113056
 11
6.8859933756
 21
25.5396153056
  0
LINE
  5
2E0
100
AcDbEntity
  8
0
100
AcDbLine
 62
250
  6
CONTINUOUS
 10
-14.7121126244
 20
25.5396153056
 11
-16.1109106244
 21
28.3372113056
  0
LINE
  5
2E1
100
AcDbEntity
  8
0
100
AcDbLine
 62
7
  6
CONTINUOUS
 10
11.5936583756
 20
-27.4112336944
 11
12.2792393756
 21
-29.2393876944
  0
LINE
  5
2E2
100
AcDbEntity
  8
ASSI
100
AcDbLine
 62
7
  6
CONTINUOUS
 10
11.5936583756
 20
-27.4112336944
 11
12.2792393756
 21
-29.2393876944
  0
LINE
  5
2E3
100
AcDbEntity
  8
0
100
AcDbLine
 62
7
  6
CONTINUOUS
 10
12.3234123756
 20
-27.9940886944
 11
11.7451763756
 21
-26.4396846944
  0
LINE
  5
2E4
100
AcDbEntity
  8
ASSI
100
AcDbLine
 62
7
  6
CONTINUOUS
 10
12.3234123756
 20
-27.9940886944
 11
11.7451763756
 21
-26.4396846944
  0
LINE
  5
2E5
100
AcDbEntity
  8
0
100
AcDbLine
 62
7
  6
CONTINUOUS
 10
7.4900583756
 20
-26.4396846944
 11
8.3776193756
 21
-29.2393876944
  0
LINE
  5
2E6
100
AcDbEntity
  8
ASSI
100
AcDbLine
 62
7
  6
CONTINUOUS
 10
7.4900583756
 20
-26.4396846944
 11
8.3776193756
 21
-29.2393876944
  0
LINE
  5
2E7
100
AcDbEntity
  8
0
100
AcDbLine
 62
7
  6
CONTINUOUS
 10
8.6585803756
 20
-28.3668066944
 11
8.1249063756
 21
-26.4396846944
  0
LINE
  5
2E8
100
AcDbEntity
  8
ASSI
100
AcDbLine
 62
7
  6
CONTINUOUS
 10
8.6585803756
 20
-28.3668066944
 11
8.1249063756
 21
-26.4396846944
  0
LINE
  5
2E9
100
AcDbEntity
  8
0
100
AcDbLine
 62
250
  6
CONTINUOUS
 10
-5.0620716244
 20
25.5396153056
 11
-5.7498456244
 21
28.3372113056
  0
LINE
  5
2EA
100
AcDbEntity
  8
0
100
AcDbLine
 62
250
  6
CONTINUOUS
 10
-8.1312536244
 20
26.4324653056
 11
-8.1739136244
 21
26.6110353056
  0
LINE
  5
2EB
100
AcDbEntity
  8
0
100
AcDbLine
 62
250
  6
CONTINUOUS
 10
-7.7763456244
 20
26.4919883056
 11
-7.8190066244
 21
26.6705583056
  0
LINE
  5
2EC
100
AcDbEntity
  8
0
100
AcDbLine
 62
250
  6
CONTINUOUS
 10
-8.0697616244
 20
27.8015013056
 11
-8.0271006244
 21
27.6229313056
  0
LINE
  5
2ED
100
AcDbEntity
  8
0
100
AcDbLine
 62
250
  6
CONTINUOUS
 10
-7.6721936244
 20
27.6824553056
 11
-7.7148536244
 21
27.8610243056
  0
LINE
  5
2EE
100
AcDbEntity
  8
0
100
AcDbLine
 62
250
  6
CONTINUOUS
 10
-5.5824126244
 20
26.2538953056
 11
-5.4117716244
 21
25.5396153056
  0
LINE
  5
2EF
100
AcDbEntity
  8
0
100
AcDbLine
 62
250
  6
CONTINUOUS
 10
-5.6198656244
 20
26.4919883056
 11
-6.0038096244
 21
28.0991183056
  0
LINE
  5
2F0
100
AcDbEntity
  8
0
100
AcDbLine
 62
250
  6
CONTINUOUS
 10
-4.1253326244
 20
26.2538953056
 11
-4.1627846244
 21
26.4919883056
  0
LINE
  5
2F1
100
AcDbEntity
  8
0
100
AcDbLine
 62
250
  6
CONTINUOUS
 10
5.3832533756
 20
27.6824553056
 11
5.3676303756
 21
27.5038843056
  0
LINE
  5
2F2
100
AcDbEntity
  8
0
100
AcDbLine
 62
250
  6
CONTINUOUS
 10
5.7329533756
 20
27.6824553056
 11
5.7121223756
 21
27.4443613056
  0
LINE
  5
2F3
100
AcDbEntity
  8
0
100
AcDbLine
 62
250
  6
CONTINUOUS
 10
6.3147863756
 20
28.3372113056
 11
6.0700283756
 21
25.5396153056
  0
LINE
  5
2F4
100
AcDbEntity
  8
0
100
AcDbLine
 62
250
  6
CONTINUOUS
 10
6.4197273756
 20
25.5396153056
 11
6.6644853756
 21
28.3372113056
  0
LINE
  5
2F5
100
AcDbEntity
  8
0
100
AcDbLine
 62
250
  6
CONTINUOUS
 10
9.9283463756
 20
28.3372113056
 11
9.6835883756
 21
25.5396153056
  0
LINE
  5
2F6
100
AcDbEntity
  8
0
100
AcDbLine
 62
250
  6
CONTINUOUS
 10
10.0645343756
 20
25.8967553056
 11
10.2780463756
 21
28.3372113056
  0
LINE
  5
2F7
100
AcDbEntity
  8
0
100
AcDbLine
 62
250
  6
CONTINUOUS
 10
-7.8190066244
 20
26.6705583056
 11
-7.9730256244
 21
26.9086513056
  0
LINE
  5
2F8
100
AcDbEntity
  8
0
100
AcDbLine
 62
250
  6
CONTINUOUS
 10
-7.7148536244
 20
27.8610243056
 11
-7.8688736244
 21
28.0991183056
  0
LINE
  5
2F9
100
AcDbEntity
  8
0
100
AcDbLine
 62
250
  6
CONTINUOUS
 10
-4.4802386244
 20
26.1943723056
 11
-4.3845026244
 21
25.9562783056
  0
LINE
  5
2FA
100
AcDbEntity
  8
0
100
AcDbLine
 62
7
  6
CONTINUOUS
 10
16.1421343756
 20
-29.2393876944
 11
15.2831163756
 21
-26.4396846944
  0
LINE
  5
2FB
100
AcDbEntity
  8
ASSI
100
AcDbLine
 62
7
  6
CONTINUOUS
 10
16.1421343756
 20
-29.2393876944
 11
15.2831163756
 21
-26.4396846944
  0
LINE
  5
2FC
100
AcDbEntity
  8
0
100
AcDbLine
 62
7
  6
CONTINUOUS
 10
15.3748003756
 20
-28.6804676944
 11
15.5261923756
 21
-29.2393876944
  0
LINE
  5
2FD
100
AcDbEntity
  8
ASSI
100
AcDbLine
 62
7
  6
CONTINUOUS
 10
15.3748003756
 20
-28.6804676944
 11
15.5261923756
 21
-29.2393876944
  0
LINE
  5
2FE
100
AcDbEntity
  8
0
100
AcDbLine
 62
7
  6
CONTINUOUS
 10
14.9894633756
 20
-27.2089716944
 11
15.2580063756
 21
-28.2479776944
  0
LINE
  5
2FF
100
AcDbEntity
  8
ASSI
100
AcDbLine
 62
7
  6
CONTINUOUS
 10
14.9894633756
 20
-27.2089716944
 11
15.2580063756
 21
-28.2479776944
  0
LINE
  5
300
100
AcDbEntity
  8
0
100
AcDbLine
 62
250
  6
CONTINUOUS
 10
-2.5328526244
 20
27.8015013056
 11
-2.4901926244
 21
27.6229313056
  0
LINE
  5
301
100
AcDbEntity
  8
0
100
AcDbLine
 62
7
  6
CONTINUOUS
 10
13.7478383756
 20
-29.2393876944
 11
13.4860343756
 21
-26.4396846944
  0
LINE
  5
302
100
AcDbEntity
  8
ASSI
100
AcDbLine
 62
7
  6
CONTINUOUS
 10
13.7478383756
 20
-29.2393876944
 11
13.4860343756
 21
-26.4396846944
  0
LINE
  5
303
100
AcDbEntity
  8
0
100
AcDbLine
 62
7
  6
CONTINUOUS
 10
13.0560633756
 20
-27.4188556944
 11
13.1761323756
 21
-29.2393876944
  0
LINE
  5
304
100
AcDbEntity
  8
ASSI
100
AcDbLine
 62
7
  6
CONTINUOUS
 10
13.0560633756
 20
-27.4188556944
 11
13.1761323756
 21
-29.2393876944
  0
LINE
  5
305
100
AcDbEntity
  8
0
100
AcDbLine
 62
7
  6
CONTINUOUS
 10
10.0094413756
 20
-26.4395166944
 11
10.0094413756
 21
-29.2393876944
  0
LINE
  5
306
100
AcDbEntity
  8
ASSI
100
AcDbLine
 62
7
  6
CONTINUOUS
 10
10.0094413756
 20
-26.4395166944
 11
10.0094413756
 21
-29.2393876944
  0
LINE
  5
307
100
AcDbEntity
  8
0
100
AcDbLine
 62
7
  6
CONTINUOUS
 10
10.5938493756
 20
-29.2393876944
 11
10.5938493756
 21
-26.4395166944
  0
LINE
  5
308
100
AcDbEntity
  8
ASSI
100
AcDbLine
 62
7
  6
CONTINUOUS
 10
10.5938493756
 20
-29.2393876944
 11
10.5938493756
 21
-26.4395166944
  0
LINE
  5
309
100
AcDbEntity
  8
0
100
AcDbLine
 62
7
  6
CONTINUOUS
 10
11.4675433756
 20
-29.2393876944
 11
11.5936583756
 21
-27.4112336944
  0
LINE
  5
30A
100
AcDbEntity
  8
ASSI
100
AcDbLine
 62
7
  6
CONTINUOUS
 10
11.4675433756
 20
-29.2393876944
 11
11.5936583756
 21
-27.4112336944
  0
LINE
  5
30B
100
AcDbEntity
  8
0
100
AcDbLine
 62
250
  6
CONTINUOUS
 10
11.7817853756
 20
25.5396153056
 11
11.8130313756
 21
25.8967553056
  0
LINE
  5
30C
100
AcDbEntity
  8
0
100
AcDbLine
 62
7
  6
CONTINUOUS
 10
11.1612513756
 20
-26.4396846944
 11
10.9084543756
 21
-29.2393876944
  0
LINE
  5
30D
100
AcDbEntity
  8
ASSI
100
AcDbLine
 62
7
  6
CONTINUOUS
 10
11.1612513756
 20
-26.4396846944
 11
10.9084543756
 21
-29.2393876944
  0
LINE
  5
30E
100
AcDbEntity
  8
RACCORDO
100
AcDbLine
 62
250
  6
CONTINUOUS
 10
72.1868721728
 20
28.8019821905
 11
72.0226868948
 21
28.7743349484
  0
LINE
  5
30F
100
AcDbEntity
  8
ASSI
100
AcDbLine
 62
250
  6
CONTINUOUS
 10
72.1868721728
 20
28.8019821905
 11
72.0226868948
 21
28.7743349484
  0
LINE
  5
310
100
AcDbEntity
  8
RACCORDO
100
AcDbLine
 62
250
  6
CONTINUOUS
 10
72.7240920348
 20
24.8019821905
 11
72.5460703947
 21
24.7839668503
  0
LINE
  5
311
100
AcDbEntity
  8
ASSI
100
AcDbLine
 62
250
  6
CONTINUOUS
 10
72.7240920348
 20
24.8019821905
 11
72.5460703947
 21
24.7839668503
  0
LINE
  5
312
100
AcDbEntity
  8
0
100
AcDbLine
 62
250
  6
CONTINUOUS
 10
-8.1739136244
 20
26.6110353056
 11
-8.2800646244
 21
26.7300813056
  0
LINE
  5
313
100
AcDbEntity
  8
0
100
AcDbLine
 62
250
  6
CONTINUOUS
 10
-8.1759126244
 20
27.9205483056
 11
-8.0697616244
 21
27.8015013056
  0
LINE
  5
314
100
AcDbEntity
  8
0
100
AcDbLine
 62
250
  6
CONTINUOUS
 10
-4.3845026244
 20
25.9562783056
 11
-4.1722006244
 21
25.7181853056
  0
LINE
  5
315
100
AcDbEntity
  8
0
100
AcDbLine
 62
250
  6
CONTINUOUS
 10
-4.0243886244
 20
26.0753253056
 11
-4.1253326244
 21
26.2538953056
  0
LINE
  5
316
100
AcDbEntity
  8
0
100
AcDbLine
 62
250
  6
CONTINUOUS
 10
5.1989883756
 20
26.9086513056
 11
5.6037623756
 21
25.5396153056
  0
LINE
  5
317
100
AcDbEntity
  8
0
100
AcDbLine
 62
250
  6
CONTINUOUS
 10
5.1957793756
 20
25.5396153056
 11
4.8388733756
 21
26.7896053056
  0
LINE
  5
318
100
AcDbEntity
  8
0
100
AcDbLine
 62
250
  6
CONTINUOUS
 10
5.3405923756
 20
27.8610243056
 11
5.3832533756
 21
27.6824553056
  0
LINE
  5
319
100
AcDbEntity
  8
0
100
AcDbLine
 62
250
  6
CONTINUOUS
 10
5.6902923756
 20
27.8610243056
 11
5.7329533756
 21
27.6824553056
  0
LINE
  5
31A
100
AcDbEntity
  8
0
100
AcDbLine
 62
250
  6
CONTINUOUS
 10
8.6969813756
 20
26.2538953056
 11
8.8676233756
 21
25.5396153056
  0
LINE
  5
31B
100
AcDbEntity
  8
0
100
AcDbLine
 62
250
  6
CONTINUOUS
 10
8.6595293756
 20
26.4919883056
 11
8.2755863756
 21
28.0991183056
  0
LINE
  5
31C
100
AcDbEntity
  8
0
100
AcDbLine
 62
7
  6
CONTINUOUS
 10
16.3137451779
 20
-26.4723940354
 11
16.3137451779
 21
-29.2393880488
  0
LINE
  5
31D
100
AcDbEntity
  8
ASSI
100
AcDbLine
 62
7
  6
CONTINUOUS
 10
16.3137451779
 20
-26.4723940354
 11
16.3137451779
 21
-29.2393880488
  0
LINE
  5
31E
100
AcDbEntity
  8
0
100
AcDbLine
 62
7
  6
CONTINUOUS
 10
16.8764236296
 20
-27.685214781
 11
16.8764236296
 21
-26.9166414903
  0
LINE
  5
31F
100
AcDbEntity
  8
ASSI
100
AcDbLine
 62
7
  6
CONTINUOUS
 10
16.8764236296
 20
-27.685214781
 11
16.8764236296
 21
-26.9166414903
  0
LINE
  5
320
100
AcDbEntity
  8
0
100
AcDbLine
 62
7
  6
CONTINUOUS
 10
16.8958017204
 20
-29.2393880488
 11
16.8958017204
 21
-28.1437386191
  0
LINE
  5
321
100
AcDbEntity
  8
ASSI
100
AcDbLine
 62
7
  6
CONTINUOUS
 10
16.8958017204
 20
-29.2393880488
 11
16.8958017204
 21
-28.1437386191
  0
LINE
  5
322
100
AcDbEntity
  8
0
100
AcDbLine
 62
7
  6
CONTINUOUS
 10
17.8162295404
 20
-27.9325111312
 11
17.8162295404
 21
-27.9159673224
  0
LINE
  5
323
100
AcDbEntity
  8
ASSI
100
AcDbLine
 62
7
  6
CONTINUOUS
 10
17.8162295404
 20
-27.9325111312
 11
17.8162295404
 21
-27.9159673224
  0
LINE
  5
324
100
AcDbEntity
  8
0
100
AcDbLine
 62
7
  6
CONTINUOUS
 10
9.2085573756
 20
-26.4396846944
 11
8.6585803756
 21
-28.3668066944
  0
LINE
  5
325
100
AcDbEntity
  8
ASSI
100
AcDbLine
 62
7
  6
CONTINUOUS
 10
9.2085573756
 20
-26.4396846944
 11
8.6585803756
 21
-28.3668066944
  0
LINE
  5
326
100
AcDbEntity
  8
0
100
AcDbLine
 62
7
  6
CONTINUOUS
 10
8.8926293756
 20
-29.2393876944
 11
9.7925663756
 21
-26.4396846944
  0
LINE
  5
327
100
AcDbEntity
  8
ASSI
100
AcDbLine
 62
7
  6
CONTINUOUS
 10
8.8926293756
 20
-29.2393876944
 11
9.7925663756
 21
-26.4396846944
  0
LINE
  5
328
100
AcDbEntity
  8
0
100
AcDbLine
 62
7
  6
CONTINUOUS
 10
12.9078203756
 20
-26.4396846944
 11
12.3234123756
 21
-27.9940886944
  0
LINE
  5
329
100
AcDbEntity
  8
ASSI
100
AcDbLine
 62
7
  6
CONTINUOUS
 10
12.9078203756
 20
-26.4396846944
 11
12.3234123756
 21
-27.9940886944
  0
LINE
  5
32A
100
AcDbEntity
  8
0
100
AcDbLine
 62
250
  6
CONTINUOUS
 10
-2.8691386244
 20
25.9562783056
 11
-3.1074796244
 21
25.8967553056
  0
LINE
  5
32B
100
AcDbEntity
  8
0
100
AcDbLine
 62
250
  6
CONTINUOUS
 10
-3.1387246244
 20
25.5396153056
 11
-2.8421006244
 21
25.5991383056
  0
LINE
  5
32C
100
AcDbEntity
  8
0
100
AcDbLine
 62
250
  6
CONTINUOUS
 10
-8.6173496244
 20
25.5396153056
 11
-8.3207266244
 21
25.5991383056
  0
LINE
  5
32D
100
AcDbEntity
  8
0
100
AcDbLine
 62
250
  6
CONTINUOUS
 10
46.8437263756
 20
21.3384133056
 11
46.9637058939
 21
21.3384160155
  0
LINE
  5
32E
100
AcDbEntity
  8
ASSI
100
AcDbLine
 62
250
  6
CONTINUOUS
 10
46.8437263756
 20
21.3384133056
 11
46.9637058939
 21
21.3384160155
  0
LINE
  5
32F
100
AcDbEntity
  8
0
100
AcDbLine
 62
250
  6
CONTINUOUS
 10
-20.8562736244
 20
21.3384133056
 11
-20.9762579015
 21
21.3384018722
  0
LINE
  5
330
100
AcDbEntity
  8
ASSI
100
AcDbLine
 62
250
  6
CONTINUOUS
 10
-20.8562736244
 20
21.3384133056
 11
-20.9762579015
 21
21.3384018722
  0
LINE
  5
331
100
AcDbEntity
  8
0
100
AcDbLine
 62
7
  6
CONTINUOUS
 10
46.0437263756
 20
22.1384133056
 11
-20.0562736244
 21
22.1384133056
  0
LINE
  5
332
100
AcDbEntity
  8
ASSI
100
AcDbLine
 62
7
  6
CONTINUOUS
 10
46.0437263756
 20
22.1384133056
 11
-20.0562736244
 21
22.1384133056
  0
LINE
  5
333
100
AcDbEntity
  8
RACCORDO
100
AcDbLine
 62
250
  6
CONTINUOUS
 10
-20.0562726064
 20
22.2566039721
 11
46.043722908
 21
22.2566039721
  0
LINE
  5
334
100
AcDbEntity
  8
ASSI
100
AcDbLine
 62
250
  6
CONTINUOUS
 10
-20.0562726064
 20
22.2566039721
 11
46.043722908
 21
22.2566039721
  0
LINE
  5
335
100
AcDbEntity
  8
RACCORDO
100
AcDbLine
 62
250
  6
CONTINUOUS
 10
-19.5203556035
 20
22.4693398647
 11
45.507808317
 21
22.4693398647
  0
LINE
  5
336
100
AcDbEntity
  8
ASSI
100
AcDbLine
 62
250
  6
CONTINUOUS
 10
-19.5203556035
 20
22.4693398647
 11
45.507808317
 21
22.4693398647
  0
LINE
  5
337
100
AcDbEntity
  8
RACCORDO
100
AcDbLine
 62
250
  6
CONTINUOUS
 10
-4.4824807412
 20
23.3819850352
 11
-46.4167226474
 21
23.3819614035
  0
LINE
  5
338
100
AcDbEntity
  8
ASSI
100
AcDbLine
 62
250
  6
CONTINUOUS
 10
-4.4824807412
 20
23.3819850352
 11
-46.4167226474
 21
23.3819614035
  0
LINE
  5
339
100
AcDbEntity
  8
RACCORDO
100
AcDbLine
 62
250
  6
CONTINUOUS
 10
30.4699334923
 20
23.3819850352
 11
72.4041754103
 21
23.381961279
  0
LINE
  5
33A
100
AcDbEntity
  8
ASSI
100
AcDbLine
 62
250
  6
CONTINUOUS
 10
30.4699334923
 20
23.3819850352
 11
72.4041754103
 21
23.381961279
  0
LINE
  5
33B
100
AcDbEntity
  8
0
100
AcDbLine
 62
250
  6
CONTINUOUS
 10
-22.3555436244
 20
24.9401303056
 11
-20.6570036375
 21
24.9401303056
  0
LINE
  5
33C
100
AcDbEntity
  8
0
100
AcDbLine
 62
250
  6
CONTINUOUS
 10
-22.2556296244
 20
25.0400443056
 11
-20.75691762
 21
25.0400443056
  0
LINE
  5
33D
100
AcDbEntity
  8
0
100
AcDbLine
 62
250
  6
CONTINUOUS
 10
-22.1557156244
 20
25.1399593056
 11
-20.8568316271
 21
25.1399593056
  0
LINE
  5
33E
100
AcDbEntity
  8
0
100
AcDbLine
 62
250
  6
CONTINUOUS
 10
-10.0161476244
 20
25.5396153056
 11
-8.6173495959
 21
25.5396153056
  0
LINE
  5
33F
100
AcDbEntity
  8
0
100
AcDbLine
 62
250
  6
CONTINUOUS
 10
-7.3934016244
 20
25.5396153056
 11
-7.0437026108
 21
25.5396153056
  0
LINE
  5
340
100
AcDbEntity
  8
0
100
AcDbLine
 62
250
  6
CONTINUOUS
 10
-5.4117716244
 20
25.5396153056
 11
-5.0620716259
 21
25.5396153056
  0
LINE
  5
341
100
AcDbEntity
  8
0
100
AcDbLine
 62
250
  6
CONTINUOUS
 10
5.6037623756
 20
25.5396153056
 11
5.1957793839
 21
25.5396153056
  0
LINE
  5
342
100
AcDbEntity
  8
0
100
AcDbLine
 62
250
  6
CONTINUOUS
 10
-3.6632746244
 20
25.5396153056
 11
-3.1387246446
 21
25.5396153056
  0
LINE
  5
343
100
AcDbEntity
  8
0
100
AcDbLine
 62
250
  6
CONTINUOUS
 10
3.7386973756
 20
25.5396153056
 11
3.3889983724
 21
25.5396153056
  0
LINE
  5
344
100
AcDbEntity
  8
0
100
AcDbLine
 62
250
  6
CONTINUOUS
 10
-0.9239616244
 20
25.5396153056
 11
-0.5742616385
 21
25.5396153056
  0
LINE
  5
345
100
AcDbEntity
  8
0
100
AcDbLine
 62
250
  6
CONTINUOUS
 10
0.8245353756
 20
25.5396153056
 11
2.9227324442
 21
25.5396153056
  0
LINE
  5
346
100
AcDbEntity
  8
0
100
AcDbLine
 62
250
  6
CONTINUOUS
 10
6.0700283756
 20
25.5396153056
 11
6.4197273665
 21
25.5396153056
  0
LINE
  5
347
100
AcDbEntity
  8
0
100
AcDbLine
 62
250
  6
CONTINUOUS
 10
6.8859933756
 20
25.5396153056
 11
7.2356923697
 21
25.5396153056
  0
LINE
  5
348
100
AcDbEntity
  8
0
100
AcDbLine
 62
250
  6
CONTINUOUS
 10
8.8676233756
 20
25.5396153056
 11
9.217323367
 21
25.5396153056
  0
LINE
  5
349
100
AcDbEntity
  8
0
100
AcDbLine
 62
250
  6
CONTINUOUS
 10
9.6835883756
 20
25.5396153056
 11
11.7817852665
 21
25.5396153056
  0
LINE
  5
34A
100
AcDbEntity
  8
0
100
AcDbLine
 62
250
  6
CONTINUOUS
 10
11.8130313756
 20
25.8967553056
 11
10.064534388
 21
25.8967553056
  0
LINE
  5
34B
100
AcDbEntity
  8
0
100
AcDbLine
 62
250
  6
CONTINUOUS
 10
-9.6352026244
 20
25.8967553056
 11
-8.5278216744
 21
25.8967553056
  0
LINE
  5
34C
100
AcDbEntity
  8
0
100
AcDbLine
 62
250
  6
CONTINUOUS
 10
2.9539783756
 20
25.8967553056
 11
1.2054813976
 21
25.8967553056
  0
LINE
  5
34D
100
AcDbEntity
  8
0
100
AcDbLine
 62
250
  6
CONTINUOUS
 10
-3.1074796244
 20
25.8967553056
 11
-3.6320286204
 21
25.8967553056
  0
LINE
  5
34E
100
AcDbEntity
  8
0
100
AcDbLine
 62
250
  6
CONTINUOUS
 10
-23.5045566244
 20
26.0891433056
 11
-22.3555436473
 21
26.0891433056
  0
LINE
  5
34F
100
AcDbEntity
  8
0
100
AcDbLine
 62
250
  6
CONTINUOUS
 10
-20.6570036244
 20
26.0891433056
 11
-19.5079905656
 21
26.0891433056
  0
LINE
  5
350
100
AcDbEntity
  8
0
100
AcDbLine
 62
250
  6
CONTINUOUS
 10
-23.4046426244
 20
26.1890573056
 11
-22.2556295607
 21
26.1890573056
  0
LINE
  5
351
100
AcDbEntity
  8
0
100
AcDbLine
 62
250
  6
CONTINUOUS
 10
-20.7569176244
 20
26.1890573056
 11
-19.6079045924
 21
26.1890573056
  0
LINE
  5
352
100
AcDbEntity
  8
0
100
AcDbLine
 62
250
  6
CONTINUOUS
 10
-6.7480776244
 20
26.2538953056
 11
-5.5824126707
 21
26.2538953056
  0
LINE
  5
353
100
AcDbEntity
  8
0
100
AcDbLine
 62
250
  6
CONTINUOUS
 10
-2.2602676244
 20
26.2538953056
 11
-2.6099676179
 21
26.2538953056
  0
LINE
  5
354
100
AcDbEntity
  8
0
100
AcDbLine
 62
250
  6
CONTINUOUS
 10
7.5313173756
 20
26.2538953056
 11
8.6969814015
 21
26.2538953056
  0
LINE
  5
355
100
AcDbEntity
  8
0
100
AcDbLine
 62
250
  6
CONTINUOUS
 10
-23.3047276244
 20
26.2889713056
 11
-22.1557155637
 21
26.2889713056
  0
LINE
  5
356
100
AcDbEntity
  8
0
100
AcDbLine
 62
250
  6
CONTINUOUS
 10
-20.8568316244
 20
26.2889713056
 11
-19.7078196821
 21
26.2889713056
  0
LINE
  5
357
100
AcDbEntity
  8
0
100
AcDbLine
 62
250
  6
CONTINUOUS
 10
-17.1766606244
 20
26.3389283056
 11
-18.2424115781
 21
26.3389283056
  0
LINE
  5
358
100
AcDbEntity
  8
RACCORDO
100
AcDbLine
 62
250
  6
CONTINUOUS
 10
-46.7366392837
 20
24.8019821905
 11
-46.5586177762
 21
24.7839655187
  0
LINE
  5
359
100
AcDbEntity
  8
ASSI
100
AcDbLine
 62
250
  6
CONTINUOUS
 10
-46.7366392837
 20
24.8019821905
 11
-46.5586177762
 21
24.7839655187
  0
LINE
  5
35A
100
AcDbEntity
  8
RACCORDO
100
AcDbLine
 62
250
  6
CONTINUOUS
 10
-46.1994194217
 20
28.8019821905
 11
-46.0352364966
 21
28.774320728
  0
LINE
  5
35B
100
AcDbEntity
  8
ASSI
100
AcDbLine
 62
250
  6
CONTINUOUS
 10
-46.1994194217
 20
28.8019821905
 11
-46.0352364966
 21
28.774320728
  0
LINE
  5
35C
100
AcDbEntity
  8
0
100
AcDbLine
 62
250
  6
CONTINUOUS
 10
-3.9494826244
 20
25.5991383056
 11
-3.6632746244
 21
25.5396153056
  0
LINE
  5
35D
100
AcDbEntity
  8
0
100
AcDbLine
 62
250
  6
CONTINUOUS
 10
-3.6320286244
 20
25.8967553056
 11
-3.8599536244
 21
25.9562783056
  0
LINE
  5
35E
100
AcDbEntity
  8
0
100
AcDbLine
 62
250
  6
CONTINUOUS
 10
-8.2800646244
 20
26.7300813056
 11
-8.4497066244
 21
26.7896053056
  0
LINE
  5
35F
100
AcDbEntity
  8
0
100
AcDbLine
 62
250
  6
CONTINUOUS
 10
-8.3455546244
 20
27.9800713056
 11
-8.1759126244
 21
27.9205483056
  0
LINE
  5
360
100
AcDbEntity
  8
0
100
AcDbLine
 62
250
  6
CONTINUOUS
 10
-7.9730256244
 20
26.9086513056
 11
-8.0843846244
 21
26.9681753056
  0
LINE
  5
361
100
AcDbEntity
  8
0
100
AcDbLine
 62
250
  6
CONTINUOUS
 10
-4.1722006244
 20
25.7181853056
 11
-3.9494826244
 21
25.5991383056
  0
LINE
  5
362
100
AcDbEntity
  8
0
100
AcDbLine
 62
250
  6
CONTINUOUS
 10
-2.3850406244
 20
28.1586413056
 11
-2.6077586244
 21
28.2776883056
  0
LINE
  5
363
100
AcDbEntity
  8
0
100
AcDbLine
 62
250
  6
CONTINUOUS
 10
-3.8599536244
 20
25.9562783056
 11
-4.0243886244
 21
26.0753253056
  0
LINE
  5
364
100
AcDbEntity
  8
0
100
AcDbLine
 62
250
  6
CONTINUOUS
 10
-2.6972866244
 20
27.9205483056
 11
-2.5328526244
 21
27.8015013056
  0
LINE
  5
365
100
AcDbEntity
  8
0
100
AcDbLine
 62
250
  6
CONTINUOUS
 10
-7.8688736244
 20
28.0991183056
 11
-8.0863836244
 21
28.2776883056
  0
LINE
  5
366
100
AcDbEntity
  8
0
100
AcDbLine
 62
250
  6
CONTINUOUS
 10
-2.1727376244
 20
27.9205483056
 11
-2.3850406244
 21
28.1586413056
  0
LINE
  5
367
100
AcDbEntity
  8
0
100
AcDbLine
 62
250
  6
CONTINUOUS
 10
5.5362723756
 20
28.0991183056
 11
5.6902923756
 21
27.8610243056
  0
LINE
  5
368
100
AcDbEntity
  8
0
100
AcDbLine
 62
250
  6
CONTINUOUS
 10
9.2173233756
 20
25.5396153056
 11
8.5295483756
 21
28.3372113056
  0
LINE
  5
369
100
AcDbEntity
  8
0
100
AcDbLine
 62
7
  6
CONTINUOUS
 10
14.6984773756
 20
-28.2479776944
 11
14.9894633756
 21
-27.2089716944
  0
LINE
  5
36A
100
AcDbEntity
  8
ASSI
100
AcDbLine
 62
7
  6
CONTINUOUS
 10
14.6984773756
 20
-28.2479776944
 11
14.9894633756
 21
-27.2089716944
  0
LINE
  5
36B
100
AcDbEntity
  8
0
100
AcDbLine
 62
7
  6
CONTINUOUS
 10
14.4176733756
 20
-29.2393876944
 11
14.5789333756
 21
-28.6804676944
  0
LINE
  5
36C
100
AcDbEntity
  8
ASSI
100
AcDbLine
 62
7
  6
CONTINUOUS
 10
14.4176733756
 20
-29.2393876944
 11
14.5789333756
 21
-28.6804676944
  0
LINE
  5
36D
100
AcDbEntity
  8
0
100
AcDbLine
 62
7
  6
CONTINUOUS
 10
14.7177713756
 20
-26.4396846944
 11
13.8396063756
 21
-29.2393876944
  0
LINE
  5
36E
100
AcDbEntity
  8
ASSI
100
AcDbLine
 62
7
  6
CONTINUOUS
 10
14.7177713756
 20
-26.4396846944
 11
13.8396063756
 21
-29.2393876944
  0
LINE
  5
36F
100
AcDbEntity
  8
0
100
AcDbLine
 62
7
  6
CONTINUOUS
 10
12.3612023756
 20
-29.2393876944
 11
13.0560633756
 21
-27.4188556944
  0
LINE
  5
370
100
AcDbEntity
  8
ASSI
100
AcDbLine
 62
7
  6
CONTINUOUS
 10
12.3612023756
 20
-29.2393876944
 11
13.0560633756
 21
-27.4188556944
  0
LINE
  5
371
100
AcDbEntity
  8
0
100
AcDbLine
 62
250
  6
CONTINUOUS
 10
-3.6881026244
 20
27.9205483056
 11
-3.4497616244
 21
27.9800713056
  0
LINE
  5
372
100
AcDbEntity
  8
0
100
AcDbLine
 62
250
  6
CONTINUOUS
 10
-3.4185166244
 20
28.3372113056
 11
-3.7151396244
 21
28.2776883056
  0
LINE
  5
373
100
AcDbEntity
  8
0
100
AcDbLine
 62
250
  6
CONTINUOUS
 10
-6.6689646244
 20
26.4919883056
 11
-5.6198656464
 21
26.4919883056
  0
LINE
  5
374
100
AcDbEntity
  8
0
100
AcDbLine
 62
250
  6
CONTINUOUS
 10
7.6104313756
 20
26.4919883056
 11
8.6595294167
 21
26.4919883056
  0
LINE
  5
375
100
AcDbEntity
  8
0
100
AcDbLine
 62
250
  6
CONTINUOUS
 10
4.8388733756
 20
26.7896053056
 11
3.8480573638
 21
26.7896053056
  0
LINE
  5
376
100
AcDbEntity
  8
0
100
AcDbLine
 62
250
  6
CONTINUOUS
 10
-8.4497066244
 20
26.7896053056
 11
-9.5570885962
 21
26.7896053056
  0
LINE
  5
377
100
AcDbEntity
  8
0
100
AcDbLine
 62
250
  6
CONTINUOUS
 10
1.2888023756
 20
26.8491283056
 11
2.8041663719
 21
26.8491283056
  0
LINE
  5
378
100
AcDbEntity
  8
0
100
AcDbLine
 62
250
  6
CONTINUOUS
 10
4.9866853756
 20
27.1467453056
 11
3.8793034111
 21
27.1467453056
  0
LINE
  5
379
100
AcDbEntity
  8
0
100
AcDbLine
 62
250
  6
CONTINUOUS
 10
-8.4184616244
 20
27.1467453056
 11
-9.5258426626
 21
27.1467453056
  0
LINE
  5
37A
100
AcDbEntity
  8
0
100
AcDbLine
 62
250
  6
CONTINUOUS
 10
2.8354123756
 20
27.2062683056
 11
1.3200483675
 21
27.2062683056
  0
LINE
  5
37B
100
AcDbEntity
  8
0
100
AcDbLine
 62
250
  6
CONTINUOUS
 10
-19.7078196244
 20
27.5878553056
 11
-20.8568316812
 21
27.5878553056
  0
LINE
  5
37C
100
AcDbEntity
  8
0
100
AcDbLine
 62
250
  6
CONTINUOUS
 10
-22.1557156244
 20
27.5878553056
 11
-23.3047275718
 21
27.5878553056
  0
LINE
  5
37D
100
AcDbEntity
  8
0
100
AcDbLine
 62
250
  6
CONTINUOUS
 10
-2.4901926244
 20
27.6229313056
 11
-2.1404926175
 21
27.6229313056
  0
LINE
  5
37E
100
AcDbEntity
  8
0
100
AcDbLine
 62
250
  6
CONTINUOUS
 10
-19.6079046244
 20
27.6877693056
 11
-20.7569176664
 21
27.6877693056
  0
LINE
  5
37F
100
AcDbEntity
  8
0
100
AcDbLine
 62
250
  6
CONTINUOUS
 10
-22.2556296244
 20
27.6877693056
 11
-23.4046426027
 21
27.6877693056
  0
LINE
  5
380
100
AcDbEntity
  8
0
100
AcDbLine
 62
250
  6
CONTINUOUS
 10
-19.5079906244
 20
27.7876833056
 11
-20.6570035889
 21
27.7876833056
  0
LINE
  5
381
100
AcDbEntity
  8
0
100
AcDbLine
 62
250
  6
CONTINUOUS
 10
-22.3555436244
 20
27.7876833056
 11
-23.5045566743
 21
27.7876833056
  0
LINE
  5
382
100
AcDbEntity
  8
0
100
AcDbLine
 62
250
  6
CONTINUOUS
 10
-9.4529366244
 20
27.9800713056
 11
-8.3455545643
 21
27.9800713056
  0
LINE
  5
383
100
AcDbEntity
  8
0
100
AcDbLine
 62
250
  6
CONTINUOUS
 10
-3.4497616244
 20
27.9800713056
 11
-2.9252126185
 21
27.9800713056
  0
LINE
  5
384
100
AcDbEntity
  8
0
100
AcDbLine
 62
250
  6
CONTINUOUS
 10
1.3877473756
 20
27.9800713056
 11
3.1362453651
 21
27.9800713056
  0
LINE
  5
385
100
AcDbEntity
  8
0
100
AcDbLine
 62
250
  6
CONTINUOUS
 10
-1.6377736244
 20
28.0395943056
 11
-0.7052416163
 21
28.0395943056
  0
LINE
  5
386
100
AcDbEntity
  8
0
100
AcDbLine
 62
250
  6
CONTINUOUS
 10
-0.3555426244
 20
28.0395943056
 11
0.5769893514
 21
28.0395943056
  0
LINE
  5
387
100
AcDbEntity
  8
0
100
AcDbLine
 62
250
  6
CONTINUOUS
 10
3.9574173756
 20
28.0395943056
 11
5.0647993855
 21
28.0395943056
  0
LINE
  5
388
100
AcDbEntity
  8
0
100
AcDbLine
 62
250
  6
CONTINUOUS
 10
10.2780463756
 20
28.3372113056
 11
9.9283463749
 21
28.3372113056
  0
LINE
  5
389
100
AcDbEntity
  8
0
100
AcDbLine
 62
250
  6
CONTINUOUS
 10
8.5295483756
 20
28.3372113056
 11
8.0632833818
 21
28.3372113056
  0
LINE
  5
38A
100
AcDbEntity
  8
0
100
AcDbLine
 62
250
  6
CONTINUOUS
 10
6.6644853756
 20
28.3372113056
 11
6.3147863658
 21
28.3372113056
  0
LINE
  5
38B
100
AcDbEntity
  8
0
100
AcDbLine
 62
250
  6
CONTINUOUS
 10
3.1674903756
 20
28.3372113056
 11
1.0692932997
 21
28.3372113056
  0
LINE
  5
38C
100
AcDbEntity
  8
0
100
AcDbLine
 62
250
  6
CONTINUOUS
 10
0.6030273756
 20
28.3372113056
 11
-1.6117357253
 21
28.3372113056
  0
LINE
  5
38D
100
AcDbEntity
  8
0
100
AcDbLine
 62
250
  6
CONTINUOUS
 10
-2.8939676244
 20
28.3372113056
 11
-3.4185166024
 21
28.3372113056
  0
LINE
  5
38E
100
AcDbEntity
  8
0
100
AcDbLine
 62
250
  6
CONTINUOUS
 10
3.6337563756
 20
28.3372113056
 11
5.0325544134
 21
28.3372113056
  0
LINE
  5
38F
100
AcDbEntity
  8
0
100
AcDbLine
 62
250
  6
CONTINUOUS
 10
-5.7498456244
 20
28.3372113056
 11
-6.2161116345
 21
28.3372113056
  0
LINE
  5
390
100
AcDbEntity
  8
0
100
AcDbLine
 62
250
  6
CONTINUOUS
 10
-8.3725916244
 20
28.3372113056
 11
-9.7713895853
 21
28.3372113056
  0
LINE
  5
391
100
AcDbEntity
  8
0
100
AcDbLine
 62
250
  6
CONTINUOUS
 10
-12.3141736244
 20
28.3372113056
 11
-13.9127985973
 21
28.3372113056
  0
LINE
  5
392
100
AcDbEntity
  8
0
100
AcDbLine
 62
250
  6
CONTINUOUS
 10
-20.8568316244
 20
28.7368673056
 11
-22.1557156022
 21
28.7368673056
  0
LINE
  5
393
100
AcDbEntity
  8
0
100
AcDbLine
 62
250
  6
CONTINUOUS
 10
-20.7569176244
 20
28.8367823056
 11
-22.2556296835
 21
28.8367823056
  0
LINE
  5
394
100
AcDbEntity
  8
0
100
AcDbLine
 62
250
  6
CONTINUOUS
 10
-20.6570036244
 20
28.9366963056
 11
-22.3555436049
 21
28.9366963056
  0
LINE
  5
395
100
AcDbEntity
  8
0
100
AcDbLine
 62
250
  6
CONTINUOUS
 10
-8.0863836244
 20
28.2776883056
 11
-8.3725916244
 21
28.3372113056
  0
LINE
  5
396
100
AcDbEntity
  8
0
100
AcDbLine
 62
250
  6
CONTINUOUS
 10
-2.6077586244
 20
28.2776883056
 11
-2.8939676244
 21
28.3372113056
  0
LINE
  5
397
100
AcDbEntity
  8
0
100
AcDbLine
 62
250
  6
CONTINUOUS
 10
5.0325543756
 20
28.3372113056
 11
5.3187633756
 21
28.2776883056
  0
LINE
  5
398
100
AcDbEntity
  8
0
100
AcDbLine
 62
250
  6
CONTINUOUS
 10
-2.9252126244
 20
27.9800713056
 11
-2.6972866244
 21
27.9205483056
  0
LINE
  5
399
100
AcDbEntity
  8
0
100
AcDbLine
 62
250
  6
CONTINUOUS
 10
5.0647993756
 20
28.0395943056
 11
5.2344413756
 21
27.9800713056
  0
LINE
  5
39A
100
AcDbEntity
  8
0
100
AcDbLine
 62
250
  6
CONTINUOUS
 10
5.3187633756
 20
28.2776883056
 11
5.5362723756
 21
28.0991183056
  0
LINE
  5
39B
100
AcDbEntity
  8
0
100
AcDbLine
 62
250
  6
CONTINUOUS
 10
5.2344413756
 20
27.9800713056
 11
5.3405923756
 21
27.8610243056
  0
LINE
  5
39C
100
AcDbEntity
  8
RACCORDO
100
AcDbLine
 62
250
  6
CONTINUOUS
 10
46.0437263756
 20
-23.1823760248
 11
46.0437263756
 21
-22.9797773609
  0
LINE
  5
39D
100
AcDbEntity
  8
RACCORDO
100
AcDbLine
 62
250
  6
CONTINUOUS
 10
46.0437263496
 20
22.4592026365
 11
46.0437263756
 21
22.2566039721
  0
LINE
  5
39E
100
AcDbEntity
  8
0
100
AcDbLine
 62
250
  6
CONTINUOUS
 10
46.0437263756
 20
22.1384133056
 11
46.043722908
 21
22.2566039721
  0
LINE
  5
39F
100
AcDbEntity
  8
ASSI
100
AcDbLine
 62
250
  6
CONTINUOUS
 10
46.0437263756
 20
22.1384133056
 11
46.0437263496
 21
22.4592026365
  0
LINE
  5
3A0
100
AcDbEntity
  8
0
100
AcDbLine
 62
7
  6
CONTINUOUS
 10
46.8437263756
 20
21.3384133056
 11
46.8437263756
 21
-22.0615866944
  0
LINE
  5
3A1
100
AcDbEntity
  8
ASSI
100
AcDbLine
 62
7
  6
CONTINUOUS
 10
46.8437263756
 20
21.3384133056
 11
46.8437263756
 21
-22.0615866944
  0
LINE
  5
3A2
100
AcDbEntity
  8
0
100
AcDbLine
 62
250
  6
CONTINUOUS
 10
46.0437263756
 20
-22.8615866944
 11
46.0437174334
 21
-22.9797773609
  0
LINE
  5
3A3
100
AcDbEntity
  8
ASSI
100
AcDbLine
 62
250
  6
CONTINUOUS
 10
46.0437263756
 20
-22.8615866944
 11
46.0437263756
 21
-23.1823760248
  0
LINE
  5
3A4
100
AcDbEntity
  8
RACCORDO
100
AcDbLine
 62
250
  6
CONTINUOUS
 10
52.3638469645
 20
-44.0550218953
 11
52.3552265685
 21
-43.925323281
  0
LINE
  5
3A5
100
AcDbEntity
  8
ASSI
100
AcDbLine
 62
250
  6
CONTINUOUS
 10
52.3638469645
 20
-44.0550218953
 11
52.3552265685
 21
-43.925323281
  0
LINE
  5
3A6
100
AcDbEntity
  8
RACCORDO
100
AcDbLine
 62
250
  6
CONTINUOUS
 10
52.3638469645
 20
43.3318485065
 11
52.3552259856
 21
43.2021499303
  0
LINE
  5
3A7
100
AcDbEntity
  8
ASSI
100
AcDbLine
 62
250
  6
CONTINUOUS
 10
52.3638469645
 20
43.3318485065
 11
52.3552259856
 21
43.2021499303
  0
LINE
  5
3A8
100
AcDbEntity
  8
RACCORDO
100
AcDbLine
 62
250
  6
CONTINUOUS
 10
57.3638469645
 20
42.8784133056
 11
57.3497970553
 21
42.7572381538
  0
LINE
  5
3A9
100
AcDbEntity
  8
ASSI
100
AcDbLine
 62
250
  6
CONTINUOUS
 10
57.3638469645
 20
42.8784133056
 11
57.3497970553
 21
42.7572381538
  0
LWPOLYLINE
  5
3AA
100
AcDbEntity
  8
0
100
AcDbPolyline
 62
7
  6
CONTINUOUS
 90
7
 70
0
 43
0.3500000006
 10
15.3508691368
 20
58.3884114075
 10
13.850868679
 20
58.3884114075
 10
15.3508691368
 20
60.5312743835
 10
15.3508691368
 20
60.9598433533
 10
14.9222979012
 20
61.388412323
 10
14.2794410477
 20
61.388412323
 10
13.850868679
 20
60.7455588684
  0
LWPOLYLINE
  5
3AB
100
AcDbEntity
  8
0
100
AcDbPolyline
 62
7
  6
CONTINUOUS
 90
7
 70
0
 43
0.3500000006
 10
12.9937262077
 20
58.3884114075
 10
11.4937268829
 20
58.3884114075
 10
12.9937262077
 20
60.5312743835
 10
12.9937262077
 20
60.9598433533
 10
12.5651549721
 20
61.388412323
 10
11.9222981186
 20
61.388412323
 10
11.4937268829
 20
60.7455588684
  0
LINE
  5
3AC
100
AcDbEntity
  8
RACCORDO
100
AcDbLine
 62
250
  6
CONTINUOUS
 10
57.3638469645
 20
-43.6015866944
 11
57.3498108606
 21
-43.4804100126
  0
LINE
  5
3AD
100
AcDbEntity
  8
ASSI
100
AcDbLine
 62
250
  6
CONTINUOUS
 10
57.3638469645
 20
-43.6015866944
 11
57.3498108606
 21
-43.4804100126
  0
LWPOLYLINE
  5
3AE
100
AcDbEntity
  8
0
100
AcDbPolyline
 62
7
  6
CONTINUOUS
 90
10
 70
0
 43
0.3500000006
 10
85.2437221985
 20
-2.2901578217
 10
84.386584259
 20
-1.4330153503
 10
83.5294372559
 20
-1.2187285995
 10
82.6722993164
 20
-1.2187285995
 10
82.2437303467
 20
-1.6473009682
 10
82.2437303467
 20
-2.2901578217
 10
82.6722993164
 20
-2.7187290573
 10
83.5294372559
 20
-2.7187290573
 10
83.9580152893
 20
-2.2901578217
 10
83.9580152893
 20
-1.3615864334
  0
LINE
  5
3AF
100
AcDbEntity
  8
0
100
AcDbLine
 62
7
  6
CONTINUOUS
 10
-63.0095962217
 20
-44.8043429497
 11
-62.5022101014
 21
-44.6783502478
  0
LINE
  5
3B0
100
AcDbEntity
  8
ASSI
100
AcDbLine
 62
7
  6
CONTINUOUS
 10
-63.0095962217
 20
-44.8043429497
 11
-62.5022101014
 21
-44.6783502478
  0
LINE
  5
3B1
100
AcDbEntity
  8
0
100
AcDbLine
 62
7
  6
CONTINUOUS
 10
-63.4292584862
 20
-44.8615866732
 11
-63.0095962217
 21
-44.8043429497
  0
LINE
  5
3B2
100
AcDbEntity
  8
ASSI
100
AcDbLine
 62
7
  6
CONTINUOUS
 10
-63.4292584862
 20
-44.8615866732
 11
-63.0095962217
 21
-44.8043429497
  0
LINE
  5
3B3
100
AcDbEntity
  8
DRAFT
100
AcDbLine
 62
7
  6
CONTINUOUS
 10
-63.4292584862
 20
-45.3615866944
 11
-66.410448343
 21
-45.2053491544
  0
LINE
  5
3B4
100
AcDbEntity
  8
ASSI
100
AcDbLine
 62
7
  6
CONTINUOUS
 10
-63.4292584862
 20
-45.3615866944
 11
-66.410448343
 21
-45.2053491544
  0
LINE
  5
3B5
100
AcDbEntity
  8
RACCORDO
100
AcDbLine
 62
250
  6
CONTINUOUS
 10
-63.4292584862
 20
-44.0550218953
 11
-65.909515748
 21
-43.925323281
  0
LINE
  5
3B6
100
AcDbEntity
  8
ASSI
100
AcDbLine
 62
250
  6
CONTINUOUS
 10
-63.4292584862
 20
-44.0550218953
 11
-65.909515748
 21
-43.925323281
  0
LINE
  5
3B7
100
AcDbEntity
  8
RACCORDO
100
AcDbLine
 62
250
  6
CONTINUOUS
 10
-63.4292584862
 20
-43.6015866944
 11
-65.75690621
 21
-43.4804100126
  0
LINE
  5
3B8
100
AcDbEntity
  8
ASSI
100
AcDbLine
 62
250
  6
CONTINUOUS
 10
-63.4292584862
 20
-43.6015866944
 11
-65.75690621
 21
-43.4804100126
  0
LINE
  5
3B9
100
AcDbEntity
  8
0
100
AcDbLine
 62
7
  6
CONTINUOUS
 10
-68.9359750588
 20
-29.2393880488
 11
-68.7854810819
 21
-29.2393880488
  0
LINE
  5
3BA
100
AcDbEntity
  8
ASSI
100
AcDbLine
 62
7
  6
CONTINUOUS
 10
-68.9359750588
 20
-29.2393880488
 11
-68.7854810819
 21
-29.2393880488
  0
LINE
  5
3BB
100
AcDbEntity
  8
0
100
AcDbLine
 62
250
  6
CONTINUOUS
 10
-68.9964835275
 20
-28.4816869224
 11
-68.8460480362
 21
-28.4816869224
  0
LINE
  5
3BC
100
AcDbEntity
  8
ASSI
100
AcDbLine
 62
250
  6
CONTINUOUS
 10
-68.9964835275
 20
-28.4816869224
 11
-68.8460480362
 21
-28.4816869224
  0
LINE
  5
3BD
100
AcDbEntity
  8
0
100
AcDbLine
 62
7
  6
CONTINUOUS
 10
-69.0388630241
 20
-27.9325111312
 11
-68.8884677181
 21
-27.9325111312
  0
LINE
  5
3BE
100
AcDbEntity
  8
ASSI
100
AcDbLine
 62
7
  6
CONTINUOUS
 10
-69.0388630241
 20
-27.9325111312
 11
-68.8884677181
 21
-27.9325111312
  0
LINE
  5
3BF
100
AcDbEntity
  8
0
100
AcDbLine
 62
7
  6
CONTINUOUS
 10
-69.0400610257
 20
-27.9159673224
 11
-68.8896668931
 21
-27.9159673224
  0
LINE
  5
3C0
100
AcDbEntity
  8
ASSI
100
AcDbLine
 62
7
  6
CONTINUOUS
 10
-69.0400610257
 20
-27.9159673224
 11
-68.8896668931
 21
-27.9159673224
  0
LINE
  5
3C1
100
AcDbEntity
  8
RACCORDO
100
AcDbLine
 62
250
  6
CONTINUOUS
 10
-63.4292584862
 20
-29.5251555793
 11
-66.6062061336
 21
-29.4974941168
  0
LINE
  5
3C2
100
AcDbEntity
  8
ASSI
100
AcDbLine
 62
250
  6
CONTINUOUS
 10
-63.4292584862
 20
-29.5251555793
 11
-66.6062061336
 21
-29.4974941168
  0
LINE
  5
3C3
100
AcDbEntity
  8
0
100
AcDbLine
 62
250
  6
CONTINUOUS
 10
-69.1361236249
 20
-26.5018705679
 11
-68.9858232933
 21
-26.5018705679
  0
LINE
  5
3C4
100
AcDbEntity
  8
ASSI
100
AcDbLine
 62
250
  6
CONTINUOUS
 10
-69.1361236249
 20
-26.5018705679
 11
-68.9858232933
 21
-26.5018705679
  0
LINE
  5
3C5
100
AcDbEntity
  8
0
100
AcDbLine
 62
7
  6
CONTINUOUS
 10
-68.994656175
 20
-26.4068351752
 11
-69.1449502601
 21
-26.4068351752
  0
LINE
  5
3C6
100
AcDbEntity
  8
ASSI
100
AcDbLine
 62
7
  6
CONTINUOUS
 10
-68.994656175
 20
-26.4068351752
 11
-69.1449502601
 21
-26.4068351752
  0
LINE
  5
3C7
100
AcDbEntity
  8
RACCORDO
100
AcDbLine
 62
250
  6
CONTINUOUS
 10
-68.9843735337
 20
-24.1051584239
 11
-67.1886363928
 21
-24.1051347922
  0
LINE
  5
3C8
100
AcDbEntity
  8
ASSI
100
AcDbLine
 62
250
  6
CONTINUOUS
 10
-68.9843735337
 20
-24.1051584239
 11
-67.1886363928
 21
-24.1051347922
  0
LINE
  5
3C9
100
AcDbEntity
  8
RACCORDO
100
AcDbLine
 62
250
  6
CONTINUOUS
 10
-63.4292584862
 20
-25.5251555793
 11
-66.843462943
 21
-25.5071389074
  0
LINE
  5
3CA
100
AcDbEntity
  8
ASSI
100
AcDbLine
 62
250
  6
CONTINUOUS
 10
-63.4292584862
 20
-25.5251555793
 11
-66.843462943
 21
-25.5071389074
  0
LWPOLYLINE
  5
3CB
100
AcDbEntity
  8
0
100
AcDbPolyline
 62
7
  6
CONTINUOUS
 90
3
 70
0
 43
0.3500000006
 10
-73.772147049
 20
57.4805619507
 10
-73.8435737
 20
57.2662774658
 10
-73.9864315338
 20
56.9805617981
  0
LINE
  5
3CC
100
AcDbEntity
  8
RACCORDO
100
AcDbLine
 62
250
  6
CONTINUOUS
 10
-68.6548771039
 20
-22.0778757184
 11
-68.6552761943
 21
-22.0775638848
  0
LINE
  5
3CD
100
AcDbEntity
  8
ASSI
100
AcDbLine
 62
250
  6
CONTINUOUS
 10
-68.6548771039
 20
-22.0778757184
 11
-68.6552761943
 21
-22.0775638848
  0
LINE
  5
3CE
100
AcDbEntity
  8
DRAFT
100
AcDbLine
 62
7
  6
CONTINUOUS
 10
-62.6292584862
 20
3.1384133056
 11
-60.6292584862
 21
3.491067267
  0
LINE
  5
3CF
100
AcDbEntity
  8
ASSI
100
AcDbLine
 62
7
  6
CONTINUOUS
 10
-62.6292584862
 20
3.1384133056
 11
-60.6292584862
 21
3.491067267
  0
LINE
  5
3D0
100
AcDbEntity
  8
0
100
AcDbLine
 62
250
  6
CONTINUOUS
 10
-62.6292584862
 20
-0.3615866944
 11
-63.4292584862
 21
-0.3615866944
  0
LINE
  5
3D1
100
AcDbEntity
  8
ASSI
100
AcDbLine
 62
250
  6
CONTINUOUS
 10
-62.6292584862
 20
-0.3615866944
 11
-63.4292584862
 21
-0.3615866944
  0
LINE
  5
3D2
100
AcDbEntity
  8
RACCORDO
100
AcDbLine
 62
250
  6
CONTINUOUS
 10
-69.12627259
 20
-0.3615866944
 11
-69.1266587409
 21
-0.3615866944
  0
LINE
  5
3D3
100
AcDbEntity
  8
ASSI
100
AcDbLine
 62
250
  6
CONTINUOUS
 10
-69.12627259
 20
-0.3615866944
 11
-69.1266587409
 21
-0.3615866944
  0
LINE
  5
3D4
100
AcDbEntity
  8
DRAFT
100
AcDbLine
 62
7
  6
CONTINUOUS
 10
-60.6292584862
 20
-4.2142406558
 11
-62.6292584862
 21
-3.8615866944
  0
LINE
  5
3D5
100
AcDbEntity
  8
ASSI
100
AcDbLine
 62
7
  6
CONTINUOUS
 10
-60.6292584862
 20
-4.2142406558
 11
-62.6292584862
 21
-3.8615866944
  0
LWPOLYLINE
  5
3D6
100
AcDbEntity
  8
0
100
AcDbPolyline
 62
7
  6
CONTINUOUS
 90
4
 70
0
 43
0.3500000006
 10
-76.8435746155
 20
57.6234152527
 10
-76.8435746155
 20
58.4805622559
 10
-76.4150056458
 20
58.9091312256
 10
-75.7721431274
 20
58.9091312256
  0
LINE
  5
3D7
100
AcDbEntity
  8
RACCORDO
100
AcDbLine
 62
250
  6
CONTINUOUS
 10
-68.6211979475
 20
-23.2118681414
 11
-68.6222619596
 21
-23.1865752617
  0
LINE
  5
3D8
100
AcDbEntity
  8
ASSI
100
AcDbLine
 62
250
  6
CONTINUOUS
 10
-68.6211979475
 20
-23.2118681414
 11
-68.6222619596
 21
-23.1865752617
  0
LINE
  5
3D9
100
AcDbEntity
  8
RACCORDO
100
AcDbLine
 62
7
  6
CONTINUOUS
 10
-68.6552761956
 20
-22.0775638572
 11
-68.639911848
 21
-22.4710088617
  0
LINE
  5
3DA
100
AcDbEntity
  8
ASSI
100
AcDbLine
 62
7
  6
CONTINUOUS
 10
-68.6552761956
 20
-22.0775638572
 11
-68.639911848
 21
-22.4710088617
  0
LINE
  5
3DB
100
AcDbEntity
  8
RACCORDO
100
AcDbLine
 62
7
  6
CONTINUOUS
 10
-68.6399827785
 20
-22.4688188789
 11
-68.6326981741
 21
-22.6937315886
  0
LINE
  5
3DC
100
AcDbEntity
  8
ASSI
100
AcDbLine
 62
7
  6
CONTINUOUS
 10
-68.6399827785
 20
-22.4688188789
 11
-68.6326981741
 21
-22.6937315886
  0
LINE
  5
3DD
100
AcDbEntity
  8
RACCORDO
100
AcDbLine
 62
7
  6
CONTINUOUS
 10
-68.6326981741
 20
-22.6937315886
 11
-68.6271531501
 21
-22.9028137459
  0
LINE
  5
3DE
100
AcDbEntity
  8
ASSI
100
AcDbLine
 62
7
  6
CONTINUOUS
 10
-68.6326981741
 20
-22.6937315886
 11
-68.6271531501
 21
-22.9028137459
  0
LWPOLYLINE
  5
3DF
100
AcDbEntity
  8
RACCORDO
100
AcDbPolyline
 62
7
  6
CONTINUOUS
 90
3
 70
0
 10
-68.6272023253
 20
-22.900326321
 10
-68.6235804878
 20
-23.083529214
 10
-68.6222627804
 20
-23.1865406952
  0
LWPOLYLINE
  5
3E0
100
AcDbEntity
  8
ASSI
100
AcDbPolyline
 62
7
  6
CONTINUOUS
 90
3
 70
0
 10
-68.6272023253
 20
-22.900326321
 10
-68.6235804878
 20
-23.083529214
 10
-68.6222627804
 20
-23.1865406952
  0
LWPOLYLINE
  5
3E1
100
AcDbEntity
  8
RACCORDO
100
AcDbPolyline
 62
7
  6
CONTINUOUS
 90
4
 70
0
 10
-69.1266587409
 20
-0.3615866944
 10
-69.0746936317
 20
-7.5732829762
 10
-68.9164816327
 20
-14.8640335565
 10
-68.655275512
 20
-22.0775613924
  0
LWPOLYLINE
  5
3E2
100
AcDbEntity
  8
ASSI
100
AcDbPolyline
 62
7
  6
CONTINUOUS
 90
4
 70
0
 10
-69.1266587409
 20
-0.3615866944
 10
-69.0746936317
 20
-7.5732829762
 10
-68.9164816327
 20
-14.8640335565
 10
-68.655275512
 20
-22.0775613924
  0
LINE
  5
3E3
100
AcDbEntity
  8
RACCORDO
100
AcDbLine
 62
7
  6
CONTINUOUS
 10
-68.6222619596
 20
-23.1865752617
 11
-68.621709188
 21
-23.2874289246
  0
LINE
  5
3E4
100
AcDbEntity
  8
ASSI
100
AcDbLine
 62
7
  6
CONTINUOUS
 10
-68.6222619596
 20
-23.1865752617
 11
-68.621709188
 21
-23.2874289246
  0
LINE
  5
3E5
100
AcDbEntity
  8
RACCORDO
100
AcDbLine
 62
7
  6
CONTINUOUS
 10
-68.6218524517
 20
-23.2414019528
 11
-68.6217071813
 21
-23.2906121914
  0
LINE
  5
3E6
100
AcDbEntity
  8
ASSI
100
AcDbLine
 62
7
  6
CONTINUOUS
 10
-68.6218524517
 20
-23.2414019528
 11
-68.6217071813
 21
-23.2906121914
  0
LWPOLYLINE
  5
3E7
100
AcDbEntity
  8
RACCORDO
100
AcDbPolyline
 62
7
  6
CONTINUOUS
 90
8
 70
0
 10
-68.621709188
 20
-23.2874289246
 10
-68.621798194
 20
-23.3323198946
 10
-68.6221201225
 20
-23.3716299034
 10
-68.6226477394
 20
-23.4051683829
 10
-68.6233202432
 20
-23.4322425749
 10
-68.6240697283
 20
-23.4530185189
 10
-68.6247243903
 20
-23.4661917504
 10
-68.6249413207
 20
-23.4696066414
  0
LWPOLYLINE
  5
3E8
100
AcDbEntity
  8
ASSI
100
AcDbPolyline
 62
7
  6
CONTINUOUS
 90
8
 70
0
 10
-68.621709188
 20
-23.2874289246
 10
-68.621798194
 20
-23.3323198946
 10
-68.6221201225
 20
-23.3716299034
 10
-68.6226477394
 20
-23.4051683829
 10
-68.6233202432
 20
-23.4322425749
 10
-68.6240697283
 20
-23.4530185189
 10
-68.6247243903
 20
-23.4661917504
 10
-68.6249413207
 20
-23.4696066414
  0
LINE
  5
3E9
100
AcDbEntity
  8
RACCORDO
100
AcDbLine
 62
7
  6
CONTINUOUS
 10
-68.6217077511
 20
22.5665544515
 11
-68.6218557457
 21
22.5175810179
  0
LINE
  5
3EA
100
AcDbEntity
  8
ASSI
100
AcDbLine
 62
7
  6
CONTINUOUS
 10
-68.6217077511
 20
22.5665544515
 11
-68.6218557457
 21
22.5175810179
  0
LINE
  5
3EB
100
AcDbEntity
  8
RACCORDO
100
AcDbLine
 62
7
  6
CONTINUOUS
 10
-68.6218557457
 20
22.5175810179
 11
-68.6222619656
 21
22.4634002364
  0
LINE
  5
3EC
100
AcDbEntity
  8
ASSI
100
AcDbLine
 62
7
  6
CONTINUOUS
 10
-68.6218557457
 20
22.5175810179
 11
-68.6222619656
 21
22.4634002364
  0
LINE
  5
3ED
100
AcDbEntity
  8
RACCORDO
100
AcDbLine
 62
7
  6
CONTINUOUS
 10
-68.6222627896
 20
22.4633587459
 11
-68.6235022127
 21
22.3653732266
  0
LINE
  5
3EE
100
AcDbEntity
  8
ASSI
100
AcDbLine
 62
7
  6
CONTINUOUS
 10
-68.6222627896
 20
22.4633587459
 11
-68.6235022127
 21
22.3653732266
  0
LINE
  5
3EF
100
AcDbEntity
  8
RACCORDO
100
AcDbLine
 62
7
  6
CONTINUOUS
 10
-68.6235022127
 20
22.3653732266
 11
-68.6271531508
 21
22.1796403046
  0
LINE
  5
3F0
100
AcDbEntity
  8
ASSI
100
AcDbLine
 62
7
  6
CONTINUOUS
 10
-68.6235022127
 20
22.3653732266
 11
-68.6271531508
 21
22.1796403046
  0
LINE
  5
3F1
100
AcDbEntity
  8
RACCORDO
100
AcDbLine
 62
7
  6
CONTINUOUS
 10
-68.627082592
 20
22.1823081779
 11
-68.6325520017
 21
21.975506499
  0
LINE
  5
3F2
100
AcDbEntity
  8
ASSI
100
AcDbLine
 62
7
  6
CONTINUOUS
 10
-68.627082592
 20
22.1823081779
 11
-68.6325520017
 21
21.975506499
  0
LINE
  5
3F3
100
AcDbEntity
  8
RACCORDO
100
AcDbLine
 62
7
  6
CONTINUOUS
 10
-68.6325520017
 20
21.975506499
 11
-68.6399118477
 21
21.7478354879
  0
LINE
  5
3F4
100
AcDbEntity
  8
ASSI
100
AcDbLine
 62
7
  6
CONTINUOUS
 10
-68.6325520017
 20
21.975506499
 11
-68.6399118477
 21
21.7478354879
  0
LWPOLYLINE
  5
3F5
100
AcDbEntity
  8
RACCORDO
100
AcDbPolyline
 62
7
  6
CONTINUOUS
 90
4
 70
0
 10
-68.6554869207
 20
21.3495201029
 10
-68.9163880347
 20
14.1440883533
 10
-69.0746222827
 20
6.8550585334
 10
-69.1266587407
 20
-0.3615866944
  0
LWPOLYLINE
  5
3F6
100
AcDbEntity
  8
ASSI
100
AcDbPolyline
 62
7
  6
CONTINUOUS
 90
4
 70
0
 10
-68.6554869207
 20
21.3495201029
 10
-68.9163880347
 20
14.1440883533
 10
-69.0746222827
 20
6.8550585334
 10
-69.1266587407
 20
-0.3615866944
  0
LINE
  5
3F7
100
AcDbEntity
  8
RACCORDO
100
AcDbLine
 62
7
  6
CONTINUOUS
 10
-68.6398292457
 20
21.750041746
 11
-68.6554859772
 21
21.3495203619
  0
LINE
  5
3F8
100
AcDbEntity
  8
ASSI
100
AcDbLine
 62
7
  6
CONTINUOUS
 10
-68.6398292457
 20
21.750041746
 11
-68.6554859772
 21
21.3495203619
  0
LINE
  5
3F9
100
AcDbEntity
  8
RACCORDO
100
AcDbLine
 62
250
  6
CONTINUOUS
 10
-68.6211984051
 20
22.4886947736
 11
-68.6222623949
 21
22.4634002411
  0
LINE
  5
3FA
100
AcDbEntity
  8
ASSI
100
AcDbLine
 62
250
  6
CONTINUOUS
 10
-68.6211984051
 20
22.4886947736
 11
-68.6222623949
 21
22.4634002411
  0
LWPOLYLINE
  5
3FB
100
AcDbEntity
  8
RACCORDO
100
AcDbPolyline
 62
7
  6
CONTINUOUS
 90
9
 70
0
 10
-68.6249360045
 20
22.7466212519
 10
-68.6250356138
 20
22.747730866
 10
-68.6247390947
 20
22.7432700795
 10
-68.6240819958
 20
22.730121149
 10
-68.6233319508
 20
22.7094642515
 10
-68.6226607332
 20
22.6826298614
 10
-68.6221322269
 20
22.6494822744
 10
-68.6218062617
 20
22.6107278241
 10
-68.6217077511
 20
22.5665544515
  0
LWPOLYLINE
  5
3FC
100
AcDbEntity
  8
ASSI
100
AcDbPolyline
 62
7
  6
CONTINUOUS
 90
9
 70
0
 10
-68.6249360045
 20
22.7466212519
 10
-68.6250356138
 20
22.747730866
 10
-68.6247390947
 20
22.7432700795
 10
-68.6240819958
 20
22.730121149
 10
-68.6233319508
 20
22.7094642515
 10
-68.6226607332
 20
22.6826298614
 10
-68.6221322269
 20
22.6494822744
 10
-68.6218062617
 20
22.6107278241
 10
-68.6217077511
 20
22.5665544515
  0
LINE
  5
3FD
100
AcDbEntity
  8
RACCORDO
100
AcDbLine
 62
250
  6
CONTINUOUS
 10
-68.6551001529
 20
21.3495473343
 11
-68.6554869201
 21
21.3495201158
  0
LINE
  5
3FE
100
AcDbEntity
  8
ASSI
100
AcDbLine
 62
250
  6
CONTINUOUS
 10
-68.6551001529
 20
21.3495473343
 11
-68.6554869201
 21
21.3495201158
  0
LINE
  5
3FF
100
AcDbEntity
  8
DRAFT
100
AcDbLine
 62
7
  6
CONTINUOUS
 10
-63.4292584862
 20
-45.3615866944
 11
-63.4292584862
 21
44.6384133056
  0
LINE
  5
400
100
AcDbEntity
  8
ASSI
100
AcDbLine
 62
7
  6
CONTINUOUS
 10
-63.4292584862
 20
-45.3615866944
 11
-63.4292584862
 21
44.6384133056
  0
LINE
  5
401
100
AcDbEntity
  8
DRAFT
100
AcDbLine
 62
7
  6
CONTINUOUS
 10
-62.6292584862
 20
-3.8615866944
 11
-62.6292584862
 21
3.1384133056
  0
LINE
  5
402
100
AcDbEntity
  8
ASSI
100
AcDbLine
 62
7
  6
CONTINUOUS
 10
-62.6292584862
 20
-3.8615866944
 11
-62.6292584862
 21
3.1384133056
  0
LINE
  5
403
100
AcDbEntity
  8
RACCORDO
100
AcDbLine
 62
250
  6
CONTINUOUS
 10
-63.4292584862
 20
24.8019821905
 11
-66.843462904
 21
24.7839668503
  0
LINE
  5
404
100
AcDbEntity
  8
ASSI
100
AcDbLine
 62
250
  6
CONTINUOUS
 10
-63.4292584862
 20
24.8019821905
 11
-66.843462904
 21
24.7839668503
  0
LINE
  5
405
100
AcDbEntity
  8
RACCORDO
100
AcDbLine
 62
250
  6
CONTINUOUS
 10
-68.9843735337
 20
23.3819850352
 11
-67.1886363978
 21
23.381961279
  0
LINE
  5
406
100
AcDbEntity
  8
ASSI
100
AcDbLine
 62
250
  6
CONTINUOUS
 10
-68.9843735337
 20
23.3819850352
 11
-67.1886363978
 21
23.381961279
  0
LINE
  5
407
100
AcDbEntity
  8
0
100
AcDbLine
 62
7
  6
CONTINUOUS
 10
-60.6292584862
 20
-43.5115866944
 11
-60.6292584862
 21
-25.3389451697
  0
LINE
  5
408
100
AcDbEntity
  8
DRAFT
100
AcDbLine
 62
7
  6
CONTINUOUS
 10
-60.6292584862
 20
-25.3389451697
 11
-60.6292584862
 21
-4.2142406558
  0
LINE
  5
409
100
AcDbEntity
  8
ASSI
100
AcDbLine
 62
7
  6
CONTINUOUS
 10
-60.6292584862
 20
-43.5115866944
 11
-60.6292584862
 21
-4.2142406558
  0
LINE
  5
40A
100
AcDbEntity
  8
DRAFT
100
AcDbLine
 62
7
  6
CONTINUOUS
 10
-60.6292584862
 20
3.491067267
 11
-60.6292584862
 21
24.615771781
  0
LINE
  5
40B
100
AcDbEntity
  8
0
100
AcDbLine
 62
7
  6
CONTINUOUS
 10
-60.6292584862
 20
24.615771781
 11
-60.6292584862
 21
42.7884133056
  0
LINE
  5
40C
100
AcDbEntity
  8
ASSI
100
AcDbLine
 62
7
  6
CONTINUOUS
 10
-60.6292584862
 20
3.491067267
 11
-60.6292584862
 21
42.7884133056
  0
LINE
  5
40D
100
AcDbEntity
  8
RACCORDO
100
AcDbLine
 62
7
  6
CONTINUOUS
 10
-68.9941347194
 20
-23.8638836162
 11
-68.6217978203
 21
-23.3321314159
  0
LINE
  5
40E
100
AcDbEntity
  8
ASSI
100
AcDbLine
 62
7
  6
CONTINUOUS
 10
-68.9941347194
 20
-23.8638836162
 11
-68.6217978203
 21
-23.3321314159
  0
LINE
  5
40F
100
AcDbEntity
  8
RACCORDO
100
AcDbLine
 62
250
  6
CONTINUOUS
 10
-63.4292584862
 20
28.8019821905
 11
-66.6062055216
 21
28.7743349484
  0
LINE
  5
410
100
AcDbEntity
  8
ASSI
100
AcDbLine
 62
250
  6
CONTINUOUS
 10
-63.4292584862
 20
28.8019821905
 11
-66.6062055216
 21
28.7743349484
  0
LINE
  5
411
100
AcDbEntity
  8
RACCORDO
100
AcDbLine
 62
7
  6
CONTINUOUS
 10
-68.9941345985
 20
23.1407100547
 11
-68.6218023292
 21
22.6089644665
  0
LINE
  5
412
100
AcDbEntity
  8
ASSI
100
AcDbLine
 62
7
  6
CONTINUOUS
 10
-68.9941345985
 20
23.1407100547
 11
-68.6218023292
 21
22.6089644665
  0
LWPOLYLINE
  5
413
100
AcDbEntity
  8
0
100
AcDbPolyline
 62
7
  6
CONTINUOUS
 90
10
 70
0
 43
0.3500000006
 10
-73.8435737
 20
57.6948464355
 10
-73.772147049
 20
57.5519931335
 10
-73.772147049
 20
57.4805619507
 10
-73.915000351
 20
57.3377086487
 10
-73.9864315338
 20
57.3377086487
 10
-74.0578581848
 20
57.4091307678
 10
-74.0578581848
 20
57.4805619507
 10
-73.9864315338
 20
57.6234152527
 10
-73.915000351
 20
57.6948464355
 10
-73.8435737
 20
57.6948464355
  0
LINE
  5
414
100
AcDbEntity
  8
RACCORDO
100
AcDbLine
 62
250
  6
CONTINUOUS
 10
-63.4292584862
 20
43.3318485065
 11
-65.9095157617
 21
43.2021499303
  0
LINE
  5
415
100
AcDbEntity
  8
ASSI
100
AcDbLine
 62
250
  6
CONTINUOUS
 10
-63.4292584862
 20
43.3318485065
 11
-65.9095157617
 21
43.2021499303
  0
LINE
  5
416
100
AcDbEntity
  8
RACCORDO
100
AcDbLine
 62
250
  6
CONTINUOUS
 10
-63.4292584862
 20
42.8784133056
 11
-65.7569073162
 21
42.7572381538
  0
LINE
  5
417
100
AcDbEntity
  8
ASSI
100
AcDbLine
 62
250
  6
CONTINUOUS
 10
-63.4292584862
 20
42.8784133056
 11
-65.7569073162
 21
42.7572381538
  0
LINE
  5
418
100
AcDbEntity
  8
DRAFT
100
AcDbLine
 62
7
  6
CONTINUOUS
 10
-63.4292584862
 20
44.6384133056
 11
-66.410448343
 21
44.4821757656
  0
LINE
  5
419
100
AcDbEntity
  8
ASSI
100
AcDbLine
 62
7
  6
CONTINUOUS
 10
-63.4292584862
 20
44.6384133056
 11
-66.410448343
 21
44.4821757656
  0
LINE
  5
41A
100
AcDbEntity
  8
0
100
AcDbLine
 62
7
  6
CONTINUOUS
 10
-62.5022101014
 20
-44.6783502478
 11
-61.9922776415
 21
-44.4833546524
  0
LINE
  5
41B
100
AcDbEntity
  8
ASSI
100
AcDbLine
 62
7
  6
CONTINUOUS
 10
-62.5022101014
 20
-44.6783502478
 11
-61.9922776415
 21
-44.4833546524
  0
LWPOLYLINE
  5
41C
100
AcDbEntity
  8
0
100
AcDbPolyline
 62
7
  6
CONTINUOUS
 90
3
 70
0
 10
-62.5022101014
 20
43.9551768591
 10
-63.0095962217
 20
44.081169561
 10
-63.4292584862
 20
44.1384132845
  0
LWPOLYLINE
  5
41D
100
AcDbEntity
  8
ASSI
100
AcDbPolyline
 62
7
  6
CONTINUOUS
 90
3
 70
0
 10
-62.5022101014
 20
43.9551768591
 10
-63.0095962217
 20
44.081169561
 10
-63.4292584862
 20
44.1384132845
  0
LINE
  5
41E
100
AcDbEntity
  8
0
100
AcDbLine
 62
7
  6
CONTINUOUS
 10
-61.9922776415
 20
43.7601812637
 11
-62.5022101014
 21
43.9551768591
  0
LINE
  5
41F
100
AcDbEntity
  8
ASSI
100
AcDbLine
 62
7
  6
CONTINUOUS
 10
-61.9922776415
 20
43.7601812637
 11
-62.5022101014
 21
43.9551768591
  0
LINE
  5
420
100
AcDbEntity
  8
0
100
AcDbLine
 62
7
  6
CONTINUOUS
 10
-61.4926053631
 20
-44.2154638925
 11
-61.0595724144
 21
-43.9080899433
  0
LINE
  5
421
100
AcDbEntity
  8
ASSI
100
AcDbLine
 62
7
  6
CONTINUOUS
 10
-61.4926053631
 20
-44.2154638925
 11
-61.0595724144
 21
-43.9080899433
  0
LINE
  5
422
100
AcDbEntity
  8
0
100
AcDbLine
 62
7
  6
CONTINUOUS
 10
-61.9922776415
 20
-44.4833546524
 11
-61.4926053631
 21
-44.2154638925
  0
LINE
  5
423
100
AcDbEntity
  8
ASSI
100
AcDbLine
 62
7
  6
CONTINUOUS
 10
-61.9922776415
 20
-44.4833546524
 11
-61.4926053631
 21
-44.2154638925
  0
LWPOLYLINE
  5
424
100
AcDbEntity
  8
0
100
AcDbPolyline
 62
7
  6
CONTINUOUS
 90
8
 70
0
 43
0.3500000006
 10
-72.7721467438
 20
57.194846283
 10
-71.9150042725
 20
57.194846283
 10
-71.4864307709
 20
57.6234152527
 10
-71.4864307709
 20
58.4805622559
 10
-71.9150042725
 20
58.9091312256
 10
-72.7721467438
 20
58.9091312256
 10
-72.7721467438
 20
60.1948471985
 10
-71.4864307709
 20
60.1948471985
  0
LINE
  5
425
100
AcDbEntity
  8
0
100
AcDbLine
 62
7
  6
CONTINUOUS
 10
-61.4926053631
 20
43.4922905037
 11
-61.9922776415
 21
43.7601812637
  0
LINE
  5
426
100
AcDbEntity
  8
ASSI
100
AcDbLine
 62
7
  6
CONTINUOUS
 10
-61.4926053631
 20
43.4922905037
 11
-61.9922776415
 21
43.7601812637
  0
LINE
  5
427
100
AcDbEntity
  8
0
100
AcDbLine
 62
7
  6
CONTINUOUS
 10
-61.0595724144
 20
43.1849165545
 11
-61.4926053631
 21
43.4922905037
  0
LINE
  5
428
100
AcDbEntity
  8
ASSI
100
AcDbLine
 62
7
  6
CONTINUOUS
 10
-61.0595724144
 20
43.1849165545
 11
-61.4926053631
 21
43.4922905037
  0
LWPOLYLINE
  5
429
100
AcDbEntity
  8
0
100
AcDbPolyline
 62
7
  6
CONTINUOUS
 90
13
 70
0
 43
0.3500000006
 10
-76.4150056458
 20
58.9091312256
 10
-76.7007122498
 20
59.1234157104
 10
-76.7007122498
 20
59.7662782288
 10
-76.4150056458
 20
60.1948471985
 10
-75.7721431274
 20
60.1948471985
 10
-75.4864319916
 20
59.7662782288
 10
-75.4864319916
 20
59.1234157104
 10
-75.7721431274
 20
58.9091312256
 10
-75.3435741577
 20
58.4805622559
 10
-75.3435741577
 20
57.6234152527
 10
-75.7721431274
 20
57.194846283
 10
-76.4150056458
 20
57.194846283
 10
-76.8435746155
 20
57.6234152527
  0
ARC
  5
42A
100
AcDbEntity
  8
RACCORDO
100
AcDbCircle
 62
250
  6
CONTINUOUS
 10
-4641.5404482704
 20
-16.9360299787
 40
4688.5772618145
100
AcDbArc
 50
359.6692039546
 51
359.9123911285
  0
ARC
  5
42B
100
AcDbEntity
  8
ASSI
100
AcDbCircle
 62
250
  6
CONTINUOUS
 10
-4641.5404482704
 20
-16.9360299787
 40
4688.5772618145
100
AcDbArc
 50
359.6692039546
 51
359.9123911285
  0
ARC
  5
42C
100
AcDbEntity
  8
RACCORDO
100
AcDbCircle
 62
250
  6
CONTINUOUS
 10
12.9477958249
 20
-762.7795368186
 40
785.9198300015
100
AcDbArc
 50
91.2699753312
 51
92.3676939325
  0
ARC
  5
42D
100
AcDbEntity
  8
ASSI
100
AcDbCircle
 62
250
  6
CONTINUOUS
 10
12.9477958249
 20
-762.7795368186
 40
785.9198300015
100
AcDbArc
 50
91.2699753312
 51
92.3676939325
  0
ARC
  5
42E
100
AcDbEntity
  8
RACCORDO
100
AcDbCircle
 62
250
  6
CONTINUOUS
 10
12.9464256416
 20
-762.2438259729
 40
785.8191151275
100
AcDbArc
 50
91.270883653
 51
92.408607468
  0
ARC
  5
42F
100
AcDbEntity
  8
ASSI
100
AcDbCircle
 62
250
  6
CONTINUOUS
 10
12.9464256416
 20
-762.2438259729
 40
785.8191151275
100
AcDbArc
 50
91.270883653
 51
92.408607468
  0
ARC
  5
430
100
AcDbEntity
  8
RACCORDO
100
AcDbCircle
 62
250
  6
CONTINUOUS
 10
12.046567652
 20
-578.3463171555
 40
622.8541441407
100
AcDbArc
 50
86.2894504687
 51
86.7860826297
  0
ARC
  5
431
100
AcDbEntity
  8
ASSI
100
AcDbCircle
 62
250
  6
CONTINUOUS
 10
12.046567652
 20
-578.3463171555
 40
622.8541441407
100
AcDbArc
 50
86.2894504687
 51
86.7860826297
  0
ARC
  5
432
100
AcDbEntity
  8
RACCORDO
100
AcDbCircle
 62
250
  6
CONTINUOUS
 10
12.0372499339
 20
-577.7431881674
 40
622.0063757916
100
AcDbArc
 50
86.2842179526
 51
86.7815399171
  0
ARC
  5
433
100
AcDbEntity
  8
ASSI
100
AcDbCircle
 62
250
  6
CONTINUOUS
 10
12.0372499339
 20
-577.7431881674
 40
622.0063757916
100
AcDbArc
 50
86.2842179526
 51
86.7815399171
  0
ARC
  5
434
100
AcDbEntity
  8
RACCORDO
100
AcDbCircle
 62
250
  6
CONTINUOUS
 10
-198.8454896368
 20
-1.9192186272
 40
272.4271104218
100
AcDbArc
 50
5.3289224092
 51
5.6223502824
  0
ARC
  5
435
100
AcDbEntity
  8
ASSI
100
AcDbCircle
 62
250
  6
CONTINUOUS
 10
-198.8454896368
 20
-1.9192186272
 40
272.4271104218
100
AcDbArc
 50
5.3289224092
 51
5.6223502824
  0
ARC
  5
436
100
AcDbEntity
  8
RACCORDO
100
AcDbCircle
 62
250
  6
CONTINUOUS
 10
-198.0055274819
 20
-1.8874436905
 40
271.8630744594
100
AcDbArc
 50
5.3363048921
 51
5.6301184312
  0
ARC
  5
437
100
AcDbEntity
  8
ASSI
100
AcDbCircle
 62
250
  6
CONTINUOUS
 10
-198.0055274819
 20
-1.8874436905
 40
271.8630744594
100
AcDbArc
 50
5.3363048921
 51
5.6301184312
  0
ARC
  5
438
100
AcDbEntity
  8
RACCORDO
100
AcDbCircle
 62
250
  6
CONTINUOUS
 10
-181.6692463641
 20
-0.3615866944
 40
255.4556883077
100
AcDbArc
 50
354.6636828258
 51
5.3363171742
  0
ARC
  5
439
100
AcDbEntity
  8
ASSI
100
AcDbCircle
 62
250
  6
CONTINUOUS
 10
-181.6692463641
 20
-0.3615866944
 40
255.4556883077
100
AcDbArc
 50
354.6636828258
 51
5.3363171742
  0
ARC
  5
43A
100
AcDbEntity
  8
RACCORDO
100
AcDbCircle
 62
250
  6
CONTINUOUS
 10
-181.8159173425
 20
-0.3615867064
 40
255.3264800306
100
AcDbArc
 50
354.6641903744
 51
5.3358096029
  0
ARC
  5
43B
100
AcDbEntity
  8
ASSI
100
AcDbCircle
 62
250
  6
CONTINUOUS
 10
-181.8159173425
 20
-0.3615867064
 40
255.3264800306
100
AcDbArc
 50
354.6641903744
 51
5.3358096029
  0
ARC
  5
43C
100
AcDbEntity
  8
DRAFT
100
AcDbCircle
 62
7
  6
CONTINUOUS
 10
-176.0062736244
 20
-0.3615866944
 40
250.0
100
AcDbArc
 50
354.2231521942
 51
5.7768478058
  0
ARC
  5
43D
100
AcDbEntity
  8
ASSI
100
AcDbCircle
 62
7
  6
CONTINUOUS
 10
-176.0062736244
 20
-0.3615866944
 40
250.0
100
AcDbArc
 50
354.2231521942
 51
5.7768478058
  0
ARC
  5
43E
100
AcDbEntity
  8
DRAFT
100
AcDbCircle
 62
7
  6
CONTINUOUS
 10
-19.4671677453
 20
-60.6497876489
 40
104.2109306549
100
AcDbArc
 50
93.8015217068
 51
96.5620990315
  0
ARC
  5
43F
100
AcDbEntity
  8
ASSI
100
AcDbCircle
 62
7
  6
CONTINUOUS
 10
-19.4671677453
 20
-60.6497876489
 40
104.2109306549
100
AcDbArc
 50
93.8015217068
 51
96.5620990315
  0
ARC
  5
440
100
AcDbEntity
  8
RACCORDO
100
AcDbCircle
 62
250
  6
CONTINUOUS
 10
-19.6267351567
 20
-60.729549674
 40
104.1500829426
100
AcDbArc
 50
93.7110219549
 51
96.4698243645
  0
ARC
  5
441
100
AcDbEntity
  8
ASSI
100
AcDbCircle
 62
250
  6
CONTINUOUS
 10
-19.6267351567
 20
-60.729549674
 40
104.1500829426
100
AcDbArc
 50
93.7110219549
 51
96.4698243645
  0
ARC
  5
442
100
AcDbEntity
  8
RACCORDO
100
AcDbCircle
 62
250
  6
CONTINUOUS
 10
-19.6352469451
 20
-60.5881964602
 40
103.7619663843
100
AcDbArc
 50
93.7160637815
 51
96.4787500301
  0
ARC
  5
443
100
AcDbEntity
  8
ASSI
100
AcDbCircle
 62
250
  6
CONTINUOUS
 10
-19.6352469451
 20
-60.5881964602
 40
103.7619663843
100
AcDbArc
 50
93.7160637815
 51
96.4787500301
  0
ARC
  5
444
100
AcDbEntity
  8
RACCORDO
100
AcDbCircle
 62
250
  6
CONTINUOUS
 10
-96.166970892
 20
-44.6009500319
 40
100.7189014267
100
AcDbArc
 50
41.5340219008
 51
41.7673681973
  0
ARC
  5
445
100
AcDbEntity
  8
ASSI
100
AcDbCircle
 62
250
  6
CONTINUOUS
 10
-96.166970892
 20
-44.6009500319
 40
100.7189014267
100
AcDbArc
 50
41.5340219008
 51
41.7673681973
  0
ARC
  5
446
100
AcDbEntity
  8
RACCORDO
100
AcDbCircle
 62
250
  6
CONTINUOUS
 10
10.2393513449
 20
-19.3643927864
 40
62.6087899978
100
AcDbArc
 50
350.6858286182
 51
354.3694719331
  0
ARC
  5
447
100
AcDbEntity
  8
ASSI
100
AcDbCircle
 62
250
  6
CONTINUOUS
 10
10.2393513449
 20
-19.3643927864
 40
62.6087899978
100
AcDbArc
 50
350.6858286182
 51
354.3694719331
  0
ARC
  5
448
100
AcDbEntity
  8
RACCORDO
100
AcDbCircle
 62
250
  6
CONTINUOUS
 10
10.059014008
 20
-19.3696543196
 40
62.5127477849
100
AcDbArc
 50
350.6992505637
 51
354.3777925208
  0
ARC
  5
449
100
AcDbEntity
  8
ASSI
100
AcDbCircle
 62
250
  6
CONTINUOUS
 10
10.059014008
 20
-19.3696543196
 40
62.5127477849
100
AcDbArc
 50
350.6992505637
 51
354.3777925208
  0
ARC
  5
44A
100
AcDbEntity
  8
DRAFT
100
AcDbCircle
 62
7
  6
CONTINUOUS
 10
11.2797387326
 20
-19.3089494767
 40
61.75799358
100
AcDbArc
 50
350.478178999
 51
354.2231521942
  0
ARC
  5
44B
100
AcDbEntity
  8
ASSI
100
AcDbCircle
 62
7
  6
CONTINUOUS
 10
11.2797387326
 20
-19.3089494767
 40
61.75799358
100
AcDbArc
 50
350.478178999
 51
354.2231521942
  0
ARC
  5
44C
100
AcDbEntity
  8
RACCORDO
100
AcDbCircle
 62
250
  6
CONTINUOUS
 10
-9.9984939336
 20
-24.9667444769
 40
40.4775981269
100
AcDbArc
 50
1.2196615538
 51
1.8352613749
  0
ARC
  5
44D
100
AcDbEntity
  8
ASSI
100
AcDbCircle
 62
250
  6
CONTINUOUS
 10
-9.9984939336
 20
-24.9667444769
 40
40.4775981269
100
AcDbArc
 50
1.2196615538
 51
1.8352613749
  0
ARC
  5
44E
100
AcDbEntity
  8
DRAFT
100
AcDbCircle
 62
7
  6
CONTINUOUS
 10
-29.4336339992
 20
-26.7129608548
 40
17.0
100
AcDbArc
 50
189.521821001
 51
263.4379009685
  0
ARC
  5
44F
100
AcDbEntity
  8
ASSI
100
AcDbCircle
 62
7
  6
CONTINUOUS
 10
-29.4336339992
 20
-26.7129608548
 40
17.0
100
AcDbArc
 50
189.521821001
 51
263.4379009685
  0
ARC
  5
450
100
AcDbEntity
  8
RACCORDO
100
AcDbCircle
 62
250
  6
CONTINUOUS
 10
-20.0133164107
 20
-22.0562497908
 40
1.5493278212
100
AcDbArc
 50
228.2367555577
 51
267.599377782
  0
ARC
  5
451
100
AcDbEntity
  8
ASSI
100
AcDbCircle
 62
250
  6
CONTINUOUS
 10
-20.0133164107
 20
-22.0562497908
 40
1.5493278212
100
AcDbArc
 50
228.2367555577
 51
267.599377782
  0
ARC
  5
452
100
AcDbEntity
  8
RACCORDO
100
AcDbCircle
 62
7
  6
CONTINUOUS
 10
-20.028507939
 20
-22.0449404531
 40
1.1375524038
100
AcDbArc
 50
181.3819239155
 51
229.1463469238
  0
ARC
  5
453
100
AcDbEntity
  8
ASSI
100
AcDbCircle
 62
7
  6
CONTINUOUS
 10
-20.028507939
 20
-22.0449404531
 40
1.1375524038
100
AcDbArc
 50
181.3819239155
 51
229.1463469238
  0
ARC
  5
454
100
AcDbEntity
  8
RACCORDO
100
AcDbCircle
 62
250
  6
CONTINUOUS
 10
-20.0562882291
 20
-22.0598059799
 40
0.919971381
100
AcDbArc
 50
180.1102227278
 51
270.0009786346
  0
ARC
  5
455
100
AcDbEntity
  8
ASSI
100
AcDbCircle
 62
250
  6
CONTINUOUS
 10
-20.0562882291
 20
-22.0598059799
 40
0.919971381
100
AcDbArc
 50
180.1102227278
 51
270.0009786346
  0
ARC
  5
456
100
AcDbEntity
  8
0
100
AcDbCircle
 62
7
  6
CONTINUOUS
 10
-20.0562736244
 20
-22.0615866944
 40
0.8
100
AcDbArc
 50
179.9999999977
 51
270.0000000002
  0
ARC
  5
457
100
AcDbEntity
  8
ASSI
100
AcDbCircle
 62
7
  6
CONTINUOUS
 10
-20.0562736244
 20
-22.0615866944
 40
0.8
100
AcDbArc
 50
179.9999999977
 51
270.0000000002
  0
ARC
  5
458
100
AcDbEntity
  8
RACCORDO
100
AcDbCircle
 62
250
  6
CONTINUOUS
 10
-4641.5404481259
 20
16.2128565905
 40
4688.57726167
100
AcDbArc
 50
0.0876088715
 51
0.3307960454
  0
ARC
  5
459
100
AcDbEntity
  8
ASSI
100
AcDbCircle
 62
250
  6
CONTINUOUS
 10
-4641.5404481259
 20
16.2128565905
 40
4688.57726167
100
AcDbArc
 50
0.0876088715
 51
0.3307960454
  0
ARC
  5
45A
100
AcDbEntity
  8
RACCORDO
100
AcDbCircle
 62
250
  6
CONTINUOUS
 10
-198.8454589686
 20
1.1960422805
 40
272.4270796114
100
AcDbArc
 50
354.3776497047
 51
354.6710775849
  0
ARC
  5
45B
100
AcDbEntity
  8
ASSI
100
AcDbCircle
 62
250
  6
CONTINUOUS
 10
-198.8454589686
 20
1.1960422805
 40
272.4270796114
100
AcDbArc
 50
354.3776497047
 51
354.6710775849
  0
ARC
  5
45C
100
AcDbEntity
  8
RACCORDO
100
AcDbCircle
 62
250
  6
CONTINUOUS
 10
-198.005404652
 20
1.1642584911
 40
271.8629510635
100
AcDbArc
 50
354.3698817883
 51
354.6636951788
  0
ARC
  5
45D
100
AcDbEntity
  8
ASSI
100
AcDbCircle
 62
250
  6
CONTINUOUS
 10
-198.005404652
 20
1.1642584911
 40
271.8629510635
100
AcDbArc
 50
354.3698817883
 51
354.6636951788
  0
ARC
  5
45E
100
AcDbEntity
  8
DRAFT
100
AcDbCircle
 62
7
  6
CONTINUOUS
 10
-19.4671677453
 20
59.9266142602
 40
104.2109306549
100
AcDbArc
 50
263.4379009685
 51
266.1984782932
  0
ARC
  5
45F
100
AcDbEntity
  8
ASSI
100
AcDbCircle
 62
7
  6
CONTINUOUS
 10
-19.4671677453
 20
59.9266142602
 40
104.2109306549
100
AcDbArc
 50
263.4379009685
 51
266.1984782932
  0
ARC
  5
460
100
AcDbEntity
  8
RACCORDO
100
AcDbCircle
 62
250
  6
CONTINUOUS
 10
-19.6267474534
 20
60.0062382658
 40
104.1499444167
100
AcDbArc
 50
263.5301814426
 51
266.2889802026
  0
ARC
  5
461
100
AcDbEntity
  8
ASSI
100
AcDbCircle
 62
250
  6
CONTINUOUS
 10
-19.6267474534
 20
60.0062382658
 40
104.1499444167
100
AcDbArc
 50
263.5301814426
 51
266.2889802026
  0
ARC
  5
462
100
AcDbEntity
  8
RACCORDO
100
AcDbCircle
 62
250
  6
CONTINUOUS
 10
-19.6352469476
 20
59.8650230437
 40
103.7619663565
100
AcDbArc
 50
263.5212499695
 51
266.2839362188
  0
ARC
  5
463
100
AcDbEntity
  8
ASSI
100
AcDbCircle
 62
250
  6
CONTINUOUS
 10
-19.6352469476
 20
59.8650230437
 40
103.7619663565
100
AcDbArc
 50
263.5212499695
 51
266.2839362188
  0
ARC
  5
464
100
AcDbEntity
  8
RACCORDO
100
AcDbCircle
 62
250
  6
CONTINUOUS
 10
-96.123780694
 20
43.8393717548
 40
100.6611059882
100
AcDbArc
 50
318.2325607349
 51
318.4660422569
  0
ARC
  5
465
100
AcDbEntity
  8
ASSI
100
AcDbCircle
 62
250
  6
CONTINUOUS
 10
-96.123780694
 20
43.8393717548
 40
100.6611059882
100
AcDbArc
 50
318.2325607349
 51
318.4660422569
  0
ARC
  5
466
100
AcDbEntity
  8
RACCORDO
100
AcDbCircle
 62
250
  6
CONTINUOUS
 10
10.2362676201
 20
18.6408148872
 40
62.6118985326
100
AcDbArc
 50
5.6306208053
 51
9.3140931382
  0
ARC
  5
467
100
AcDbEntity
  8
ASSI
100
AcDbCircle
 62
250
  6
CONTINUOUS
 10
10.2362676201
 20
18.6408148872
 40
62.6118985326
100
AcDbArc
 50
5.6306208053
 51
9.3140931382
  0
ARC
  5
468
100
AcDbEntity
  8
RACCORDO
100
AcDbCircle
 62
250
  6
CONTINUOUS
 10
10.0555048944
 20
18.6460213472
 40
62.5162850427
100
AcDbArc
 50
5.6223115835
 51
9.300645332
  0
ARC
  5
469
100
AcDbEntity
  8
ASSI
100
AcDbCircle
 62
250
  6
CONTINUOUS
 10
10.0555048944
 20
18.6460213472
 40
62.5162850427
100
AcDbArc
 50
5.6223115835
 51
9.300645332
  0
ARC
  5
46A
100
AcDbEntity
  8
DRAFT
100
AcDbCircle
 62
7
  6
CONTINUOUS
 10
11.2797387326
 20
18.585776088
 40
61.75799358
100
AcDbArc
 50
5.7768478058
 51
9.521821001
  0
ARC
  5
46B
100
AcDbEntity
  8
ASSI
100
AcDbCircle
 62
7
  6
CONTINUOUS
 10
11.2797387326
 20
18.585776088
 40
61.75799358
100
AcDbArc
 50
5.7768478058
 51
9.521821001
  0
ARC
  5
46C
100
AcDbEntity
  8
RACCORDO
100
AcDbCircle
 62
250
  6
CONTINUOUS
 10
-9.9985503616
 20
24.2435711368
 40
40.4776545274
100
AcDbArc
 50
358.1647411142
 51
358.7803400093
  0
ARC
  5
46D
100
AcDbEntity
  8
ASSI
100
AcDbCircle
 62
250
  6
CONTINUOUS
 10
-9.9985503616
 20
24.2435711368
 40
40.4776545274
100
AcDbArc
 50
358.1647411142
 51
358.7803400093
  0
ARC
  5
46E
100
AcDbEntity
  8
DRAFT
100
AcDbCircle
 62
7
  6
CONTINUOUS
 10
-29.4336339992
 20
25.989787466
 40
17.0
100
AcDbArc
 50
96.5620990315
 51
170.478178999
  0
ARC
  5
46F
100
AcDbEntity
  8
ASSI
100
AcDbCircle
 62
7
  6
CONTINUOUS
 10
-29.4336339992
 20
25.989787466
 40
17.0
100
AcDbArc
 50
96.5620990315
 51
170.478178999
  0
ARC
  5
470
100
AcDbEntity
  8
RACCORDO
100
AcDbCircle
 62
250
  6
CONTINUOUS
 10
-20.0133381776
 20
21.3335463647
 40
1.548923741
100
AcDbArc
 50
92.4006271031
 51
179.2423078676
  0
ARC
  5
471
100
AcDbEntity
  8
ASSI
100
AcDbCircle
 62
250
  6
CONTINUOUS
 10
-20.0133381776
 20
21.3335463647
 40
1.548923741
100
AcDbArc
 50
92.4006271031
 51
179.2423078676
  0
ARC
  5
472
100
AcDbEntity
  8
RACCORDO
100
AcDbCircle
 62
7
  6
CONTINUOUS
 10
-20.027974197
 20
21.3215238879
 40
1.1380794051
100
AcDbArc
 50
130.8659727738
 51
178.8440752633
  0
ARC
  5
473
100
AcDbEntity
  8
ASSI
100
AcDbCircle
 62
7
  6
CONTINUOUS
 10
-20.027974197
 20
21.3215238879
 40
1.1380794051
100
AcDbArc
 50
130.8659727738
 51
178.8440752633
  0
ARC
  5
474
100
AcDbEntity
  8
RACCORDO
100
AcDbCircle
 62
250
  6
CONTINUOUS
 10
-20.0562881422
 20
21.3366325041
 40
0.9199714681
100
AcDbArc
 50
89.999032434
 51
179.8898037717
  0
ARC
  5
475
100
AcDbEntity
  8
ASSI
100
AcDbCircle
 62
250
  6
CONTINUOUS
 10
-20.0562881422
 20
21.3366325041
 40
0.9199714681
100
AcDbArc
 50
89.999032434
 51
179.8898037717
  0
ARC
  5
476
100
AcDbEntity
  8
0
100
AcDbCircle
 62
7
  6
CONTINUOUS
 10
-20.0562736244
 20
21.3384133056
 40
0.8
100
AcDbArc
 50
89.9999999998
 51
180.0000000025
  0
ARC
  5
477
100
AcDbEntity
  8
ASSI
100
AcDbCircle
 62
7
  6
CONTINUOUS
 10
-20.0562736244
 20
21.3384133056
 40
0.8
100
AcDbArc
 50
89.9999999998
 51
180.0000000025
  0
ARC
  5
478
100
AcDbEntity
  8
RACCORDO
100
AcDbCircle
 62
250
  6
CONTINUOUS
 10
12.9600403717
 20
762.4419454043
 40
786.3055886519
100
AcDbArc
 50
267.6325753336
 51
268.7297553727
  0
ARC
  5
479
100
AcDbEntity
  8
ASSI
100
AcDbCircle
 62
250
  6
CONTINUOUS
 10
12.9600403717
 20
762.4419454043
 40
786.3055886519
100
AcDbArc
 50
267.6325753336
 51
268.7297553727
  0
ARC
  5
47A
100
AcDbEntity
  8
RACCORDO
100
AcDbCircle
 62
250
  6
CONTINUOUS
 10
12.9592353649
 20
761.9194527445
 40
786.2181013073
100
AcDbArc
 50
267.5916812248
 51
268.7288276542
  0
ARC
  5
47B
100
AcDbEntity
  8
ASSI
100
AcDbCircle
 62
250
  6
CONTINUOUS
 10
12.9592353649
 20
761.9194527445
 40
786.2181013073
100
AcDbArc
 50
267.5916812248
 51
268.7288276542
  0
ARC
  5
47C
100
AcDbEntity
  8
RACCORDO
100
AcDbCircle
 62
250
  6
CONTINUOUS
 10
12.0465652337
 20
577.6231836586
 40
622.8541841055
100
AcDbArc
 50
273.2139173867
 51
273.7105495695
  0
ARC
  5
47D
100
AcDbEntity
  8
ASSI
100
AcDbCircle
 62
250
  6
CONTINUOUS
 10
12.0465652337
 20
577.6231836586
 40
622.8541841055
100
AcDbArc
 50
273.2139173867
 51
273.7105495695
  0
ARC
  5
47E
100
AcDbEntity
  8
RACCORDO
100
AcDbCircle
 62
250
  6
CONTINUOUS
 10
12.0372489767
 20
577.0200305774
 40
622.0063916191
100
AcDbArc
 50
273.2184600893
 51
273.7157820411
  0
ARC
  5
47F
100
AcDbEntity
  8
ASSI
100
AcDbCircle
 62
250
  6
CONTINUOUS
 10
12.0372489767
 20
577.0200305774
 40
622.0063916191
100
AcDbArc
 50
273.2184600893
 51
273.7157820411
  0
ARC
  5
480
100
AcDbEntity
  8
RACCORDO
100
AcDbCircle
 62
250
  6
CONTINUOUS
 10
12.9937263756
 20
-764.6850284659
 40
787.825871573
100
AcDbArc
 50
88.7297565245
 51
91.2702434755
  0
ARC
  5
481
100
AcDbEntity
  8
ASSI
100
AcDbCircle
 62
250
  6
CONTINUOUS
 10
12.9937263756
 20
-764.6850284659
 40
787.825871573
100
AcDbArc
 50
88.7297565245
 51
91.2702434755
  0
ARC
  5
482
100
AcDbEntity
  8
RACCORDO
100
AcDbCircle
 62
250
  6
CONTINUOUS
 10
13.0274101396
 20
-763.1651951997
 40
786.3056650894
100
AcDbArc
 50
87.6325753942
 51
88.729755333
  0
ARC
  5
483
100
AcDbEntity
  8
ASSI
100
AcDbCircle
 62
250
  6
CONTINUOUS
 10
13.0274101396
 20
-763.1651951997
 40
786.3056650894
100
AcDbArc
 50
87.6325753942
 51
88.729755333
  0
ARC
  5
484
100
AcDbEntity
  8
RACCORDO
100
AcDbCircle
 62
250
  6
CONTINUOUS
 10
13.0282158936
 20
-762.642672604
 40
786.2181477996
100
AcDbArc
 50
87.5916812584
 51
88.7288276206
  0
ARC
  5
485
100
AcDbEntity
  8
ASSI
100
AcDbCircle
 62
250
  6
CONTINUOUS
 10
13.0282158936
 20
-762.642672604
 40
786.2181477996
100
AcDbArc
 50
87.5916812584
 51
88.7288276206
  0
ARC
  5
486
100
AcDbEntity
  8
RACCORDO
100
AcDbCircle
 62
250
  6
CONTINUOUS
 10
12.9937263756
 20
-761.7112769133
 40
785.2877483904
100
AcDbArc
 50
88.7248042739
 51
91.2751957261
  0
ARC
  5
487
100
AcDbEntity
  8
ASSI
100
AcDbCircle
 62
250
  6
CONTINUOUS
 10
12.9937263756
 20
-761.7112769133
 40
785.2877483904
100
AcDbArc
 50
88.7248042739
 51
91.2751957261
  0
ARC
  5
488
100
AcDbEntity
  8
RACCORDO
100
AcDbCircle
 62
250
  6
CONTINUOUS
 10
13.9408875174
 20
-578.3463570471
 40
622.8541841052
100
AcDbArc
 50
93.2139173867
 51
93.7105495695
  0
ARC
  5
489
100
AcDbEntity
  8
ASSI
100
AcDbCircle
 62
250
  6
CONTINUOUS
 10
13.9408875174
 20
-578.3463570471
 40
622.8541841052
100
AcDbArc
 50
93.2139173867
 51
93.7105495695
  0
ARC
  5
48A
100
AcDbEntity
  8
RACCORDO
100
AcDbCircle
 62
250
  6
CONTINUOUS
 10
13.9502037745
 20
-577.7432039663
 40
622.0063916193
100
AcDbArc
 50
93.2184600893
 51
93.7157820411
  0
ARC
  5
48B
100
AcDbEntity
  8
ASSI
100
AcDbCircle
 62
250
  6
CONTINUOUS
 10
13.9502037745
 20
-577.7432039663
 40
622.0063916193
100
AcDbArc
 50
93.2184600893
 51
93.7157820411
  0
ARC
  5
48C
100
AcDbEntity
  8
RACCORDO
100
AcDbCircle
 62
250
  6
CONTINUOUS
 10
12.9937263756
 20
-561.3902075318
 40
605.8716019889
100
AcDbArc
 50
86.7856136878
 51
93.2143863122
  0
ARC
  5
48D
100
AcDbEntity
  8
ASSI
100
AcDbCircle
 62
250
  6
CONTINUOUS
 10
12.9937263756
 20
-561.3902075318
 40
605.8716019889
100
AcDbArc
 50
86.7856136878
 51
93.2143863122
  0
ARC
  5
48E
100
AcDbEntity
  8
RACCORDO
100
AcDbCircle
 62
250
  6
CONTINUOUS
 10
12.9937263756
 20
-560.4964703389
 40
604.7331612497
100
AcDbArc
 50
86.7802781033
 51
93.2197218967
  0
ARC
  5
48F
100
AcDbEntity
  8
ASSI
100
AcDbCircle
 62
250
  6
CONTINUOUS
 10
12.9937263756
 20
-560.4964703389
 40
604.7331612497
100
AcDbArc
 50
86.7802781033
 51
93.2197218967
  0
ARC
  5
490
100
AcDbEntity
  8
DRAFT
100
AcDbCircle
 62
7
  6
CONTINUOUS
 10
12.9937263756
 20
-549.1758038874
 40
593.814217193
100
AcDbArc
 50
86.1984782932
 51
93.8015217068
  0
ARC
  5
491
100
AcDbEntity
  8
ASSI
100
AcDbCircle
 62
7
  6
CONTINUOUS
 10
12.9937263756
 20
-549.1758038874
 40
593.814217193
100
AcDbArc
 50
86.1984782932
 51
93.8015217068
  0
ARC
  5
492
100
AcDbEntity
  8
RACCORDO
100
AcDbCircle
 62
250
  6
CONTINUOUS
 10
224.8329117211
 20
-1.9192156694
 40
272.4270796127
100
AcDbArc
 50
174.3776497047
 51
174.6710775849
  0
ARC
  5
493
100
AcDbEntity
  8
ASSI
100
AcDbCircle
 62
250
  6
CONTINUOUS
 10
224.8329117211
 20
-1.9192156694
 40
272.4270796127
100
AcDbArc
 50
174.3776497047
 51
174.6710775849
  0
ARC
  5
494
100
AcDbEntity
  8
RACCORDO
100
AcDbCircle
 62
250
  6
CONTINUOUS
 10
223.9928574055
 20
-1.8874318801
 40
271.8629510659
100
AcDbArc
 50
174.3698817883
 51
174.6636951788
  0
ARC
  5
495
100
AcDbEntity
  8
ASSI
100
AcDbCircle
 62
250
  6
CONTINUOUS
 10
223.9928574055
 20
-1.8874318801
 40
271.8629510659
100
AcDbArc
 50
174.3698817883
 51
174.6636951788
  0
ARC
  5
496
100
AcDbEntity
  8
RACCORDO
100
AcDbCircle
 62
250
  6
CONTINUOUS
 10
207.6566991152
 20
-0.3615866944
 40
255.4556883077
100
AcDbArc
 50
174.6636828258
 51
185.3363171742
  0
ARC
  5
497
100
AcDbEntity
  8
ASSI
100
AcDbCircle
 62
250
  6
CONTINUOUS
 10
207.6566991152
 20
-0.3615866944
 40
255.4556883077
100
AcDbArc
 50
174.6636828258
 51
185.3363171742
  0
ARC
  5
498
100
AcDbEntity
  8
RACCORDO
100
AcDbCircle
 62
250
  6
CONTINUOUS
 10
207.8033700937
 20
-0.3615866824
 40
255.3264800306
100
AcDbArc
 50
174.6641903744
 51
185.3358096029
  0
ARC
  5
499
100
AcDbEntity
  8
ASSI
100
AcDbCircle
 62
250
  6
CONTINUOUS
 10
207.8033700937
 20
-0.3615866824
 40
255.3264800306
100
AcDbArc
 50
174.6641903744
 51
185.3358096029
  0
ARC
  5
49A
100
AcDbEntity
  8
DRAFT
100
AcDbCircle
 62
7
  6
CONTINUOUS
 10
201.9937263756
 20
-0.3615866944
 40
250.0
100
AcDbArc
 50
174.2231521942
 51
185.7768478058
  0
ARC
  5
49B
100
AcDbEntity
  8
ASSI
100
AcDbCircle
 62
7
  6
CONTINUOUS
 10
201.9937263756
 20
-0.3615866944
 40
250.0
100
AcDbArc
 50
174.2231521942
 51
185.7768478058
  0
ARC
  5
49C
100
AcDbEntity
  8
DRAFT
100
AcDbCircle
 62
7
  6
CONTINUOUS
 10
45.4546204964
 20
-60.6497876489
 40
104.2109306549
100
AcDbArc
 50
83.4379009685
 51
86.1984782932
  0
ARC
  5
49D
100
AcDbEntity
  8
ASSI
100
AcDbCircle
 62
7
  6
CONTINUOUS
 10
45.4546204964
 20
-60.6497876489
 40
104.2109306549
100
AcDbArc
 50
83.4379009685
 51
86.1984782932
  0
ARC
  5
49E
100
AcDbEntity
  8
RACCORDO
100
AcDbCircle
 62
250
  6
CONTINUOUS
 10
45.6142002045
 20
-60.7294116545
 40
104.1499444166
100
AcDbArc
 50
83.5301814426
 51
86.2889802026
  0
ARC
  5
49F
100
AcDbEntity
  8
ASSI
100
AcDbCircle
 62
250
  6
CONTINUOUS
 10
45.6142002045
 20
-60.7294116545
 40
104.1499444166
100
AcDbArc
 50
83.5301814426
 51
86.2889802026
  0
ARC
  5
4A0
100
AcDbEntity
  8
RACCORDO
100
AcDbCircle
 62
250
  6
CONTINUOUS
 10
45.6226996987
 20
-60.5881964324
 40
103.7619663564
100
AcDbArc
 50
83.5212499695
 51
86.2839362188
  0
ARC
  5
4A1
100
AcDbEntity
  8
ASSI
100
AcDbCircle
 62
250
  6
CONTINUOUS
 10
45.6226996987
 20
-60.5881964324
 40
103.7619663564
100
AcDbArc
 50
83.5212499695
 51
86.2839362188
  0
ARC
  5
4A2
100
AcDbEntity
  8
RACCORDO
100
AcDbCircle
 62
250
  6
CONTINUOUS
 10
122.1049231231
 20
-44.5569177501
 40
100.6526509492
100
AcDbArc
 50
138.2325572382
 51
138.4661412669
  0
ARC
  5
4A3
100
AcDbEntity
  8
ASSI
100
AcDbCircle
 62
250
  6
CONTINUOUS
 10
122.1049231231
 20
-44.5569177501
 40
100.6526509492
100
AcDbArc
 50
138.2325572382
 51
138.4661412669
  0
ARC
  5
4A4
100
AcDbEntity
  8
RACCORDO
100
AcDbCircle
 62
250
  6
CONTINUOUS
 10
15.751185131
 20
-19.363988276
 40
62.6118985326
100
AcDbArc
 50
185.6306208053
 51
189.3140931382
  0
ARC
  5
4A5
100
AcDbEntity
  8
ASSI
100
AcDbCircle
 62
250
  6
CONTINUOUS
 10
15.751185131
 20
-19.363988276
 40
62.6118985326
100
AcDbArc
 50
185.6306208053
 51
189.3140931382
  0
ARC
  5
4A6
100
AcDbEntity
  8
RACCORDO
100
AcDbCircle
 62
250
  6
CONTINUOUS
 10
15.9319478567
 20
-19.369194736
 40
62.5162850428
100
AcDbArc
 50
185.6223115835
 51
189.300645332
  0
ARC
  5
4A7
100
AcDbEntity
  8
ASSI
100
AcDbCircle
 62
250
  6
CONTINUOUS
 10
15.9319478567
 20
-19.369194736
 40
62.5162850428
100
AcDbArc
 50
185.6223115835
 51
189.300645332
  0
ARC
  5
4A8
100
AcDbEntity
  8
DRAFT
100
AcDbCircle
 62
7
  6
CONTINUOUS
 10
14.7077140185
 20
-19.3089494767
 40
61.75799358
100
AcDbArc
 50
185.7768478058
 51
189.521821001
  0
ARC
  5
4A9
100
AcDbEntity
  8
ASSI
100
AcDbCircle
 62
7
  6
CONTINUOUS
 10
14.7077140185
 20
-19.3089494767
 40
61.75799358
100
AcDbArc
 50
185.7768478058
 51
189.521821001
  0
ARC
  5
4AA
100
AcDbEntity
  8
RACCORDO
100
AcDbCircle
 62
250
  6
CONTINUOUS
 10
35.986003136
 20
-24.9667445257
 40
40.4776545507
100
AcDbArc
 50
178.1647411152
 51
178.7803400099
  0
ARC
  5
4AB
100
AcDbEntity
  8
ASSI
100
AcDbCircle
 62
250
  6
CONTINUOUS
 10
35.986003136
 20
-24.9667445257
 40
40.4776545507
100
AcDbArc
 50
178.1647411152
 51
178.7803400099
  0
ARC
  5
4AC
100
AcDbEntity
  8
DRAFT
100
AcDbCircle
 62
7
  6
CONTINUOUS
 10
55.4210867504
 20
-26.7129608548
 40
17.0
100
AcDbArc
 50
276.5620990315
 51
350.478178999
  0
ARC
  5
4AD
100
AcDbEntity
  8
ASSI
100
AcDbCircle
 62
7
  6
CONTINUOUS
 10
55.4210867504
 20
-26.7129608548
 40
17.0
100
AcDbArc
 50
276.5620990315
 51
350.478178999
  0
ARC
  5
4AE
100
AcDbEntity
  8
RACCORDO
100
AcDbCircle
 62
250
  6
CONTINUOUS
 10
46.0007908232
 20
-22.0567196987
 40
1.548923741
100
AcDbArc
 50
272.4006804902
 51
359.242305893
  0
ARC
  5
4AF
100
AcDbEntity
  8
ASSI
100
AcDbCircle
 62
250
  6
CONTINUOUS
 10
46.0007908232
 20
-22.0567196987
 40
1.548923741
100
AcDbArc
 50
272.4006804902
 51
359.242305893
  0
ARC
  5
4B0
100
AcDbEntity
  8
RACCORDO
100
AcDbCircle
 62
250
  6
CONTINUOUS
 10
46.0437419284
 20
-22.0598069292
 40
0.919970431
100
AcDbArc
 50
269.9984744521
 51
359.8898018228
  0
ARC
  5
4B1
100
AcDbEntity
  8
ASSI
100
AcDbCircle
 62
250
  6
CONTINUOUS
 10
46.0437419284
 20
-22.0598069292
 40
0.919970431
100
AcDbArc
 50
269.9984744521
 51
359.8898018228
  0
ARC
  5
4B2
100
AcDbEntity
  8
0
100
AcDbCircle
 62
7
  6
CONTINUOUS
 10
46.0437263756
 20
-22.0615866944
 40
0.8
100
AcDbArc
 50
269.9999999981
 51
360.0
  0
ARC
  5
4B3
100
AcDbEntity
  8
ASSI
100
AcDbCircle
 62
7
  6
CONTINUOUS
 10
46.0437263756
 20
-22.0615866944
 40
0.8
100
AcDbArc
 50
269.9999999981
 51
360.0
  0
ARC
  5
4B4
100
AcDbEntity
  8
RACCORDO
100
AcDbCircle
 62
250
  6
CONTINUOUS
 10
4667.5279010178
 20
-16.9360299787
 40
4688.5772618108
100
AcDbArc
 50
180.0876088715
 51
180.3307960454
  0
ARC
  5
4B5
100
AcDbEntity
  8
ASSI
100
AcDbCircle
 62
250
  6
CONTINUOUS
 10
4667.5279010178
 20
-16.9360299787
 40
4688.5772618108
100
AcDbArc
 50
180.0876088715
 51
180.3307960454
  0
ARC
  5
4B6
100
AcDbEntity
  8
RACCORDO
100
AcDbCircle
 62
250
  6
CONTINUOUS
 10
224.8329423793
 20
1.1960452376
 40
272.4271104132
100
AcDbArc
 50
185.3289224092
 51
185.6223502824
  0
ARC
  5
4B7
100
AcDbEntity
  8
ASSI
100
AcDbCircle
 62
250
  6
CONTINUOUS
 10
224.8329423793
 20
1.1960452376
 40
272.4271104132
100
AcDbArc
 50
185.3289224092
 51
185.6223502824
  0
ARC
  5
4B8
100
AcDbEntity
  8
RACCORDO
100
AcDbCircle
 62
250
  6
CONTINUOUS
 10
223.9929802321
 20
1.1642703016
 40
271.8630744585
100
AcDbArc
 50
185.3363048921
 51
185.6301184312
  0
ARC
  5
4B9
100
AcDbEntity
  8
ASSI
100
AcDbCircle
 62
250
  6
CONTINUOUS
 10
223.9929802321
 20
1.1642703016
 40
271.8630744585
100
AcDbArc
 50
185.3363048921
 51
185.6301184312
  0
ARC
  5
4BA
100
AcDbEntity
  8
DRAFT
100
AcDbCircle
 62
7
  6
CONTINUOUS
 10
45.4546204964
 20
59.9266142602
 40
104.2109306549
100
AcDbArc
 50
273.8015217068
 51
276.5620990315
  0
ARC
  5
4BB
100
AcDbEntity
  8
ASSI
100
AcDbCircle
 62
7
  6
CONTINUOUS
 10
45.4546204964
 20
59.9266142602
 40
104.2109306549
100
AcDbArc
 50
273.8015217068
 51
276.5620990315
  0
ARC
  5
4BC
100
AcDbEntity
  8
RACCORDO
100
AcDbCircle
 62
250
  6
CONTINUOUS
 10
45.6141879078
 20
60.0063762852
 40
104.1500829426
100
AcDbArc
 50
273.7110219549
 51
276.4698243645
  0
ARC
  5
4BD
100
AcDbEntity
  8
ASSI
100
AcDbCircle
 62
250
  6
CONTINUOUS
 10
45.6141879078
 20
60.0063762852
 40
104.1500829426
100
AcDbArc
 50
273.7110219549
 51
276.4698243645
  0
ARC
  5
4BE
100
AcDbEntity
  8
RACCORDO
100
AcDbCircle
 62
250
  6
CONTINUOUS
 10
45.6226996962
 20
59.8650230714
 40
103.7619663843
100
AcDbArc
 50
273.7160637815
 51
276.4787500301
  0
ARC
  5
4BF
100
AcDbEntity
  8
ASSI
100
AcDbCircle
 62
250
  6
CONTINUOUS
 10
45.6226996962
 20
59.8650230714
 40
103.7619663843
100
AcDbArc
 50
273.7160637815
 51
276.4787500301
  0
ARC
  5
4C0
100
AcDbEntity
  8
RACCORDO
100
AcDbCircle
 62
250
  6
CONTINUOUS
 10
122.1572890978
 20
43.8803189081
 40
100.7227320643
100
AcDbArc
 50
221.5339951157
 51
221.7673610647
  0
ARC
  5
4C1
100
AcDbEntity
  8
ASSI
100
AcDbCircle
 62
250
  6
CONTINUOUS
 10
122.1572890978
 20
43.8803189081
 40
100.7227320643
100
AcDbArc
 50
221.5339951157
 51
221.7673610647
  0
ARC
  5
4C2
100
AcDbEntity
  8
RACCORDO
100
AcDbCircle
 62
250
  6
CONTINUOUS
 10
15.7481014062
 20
18.6412193976
 40
62.6087899978
100
AcDbArc
 50
170.6858286182
 51
174.3694719331
  0
ARC
  5
4C3
100
AcDbEntity
  8
ASSI
100
AcDbCircle
 62
250
  6
CONTINUOUS
 10
15.7481014062
 20
18.6412193976
 40
62.6087899978
100
AcDbArc
 50
170.6858286182
 51
174.3694719331
  0
ARC
  5
4C4
100
AcDbEntity
  8
RACCORDO
100
AcDbCircle
 62
250
  6
CONTINUOUS
 10
15.9284387431
 20
18.6464809308
 40
62.5127477848
100
AcDbArc
 50
170.6992505637
 51
174.3777925208
  0
ARC
  5
4C5
100
AcDbEntity
  8
ASSI
100
AcDbCircle
 62
250
  6
CONTINUOUS
 10
15.9284387431
 20
18.6464809308
 40
62.5127477848
100
AcDbArc
 50
170.6992505637
 51
174.3777925208
  0
ARC
  5
4C6
100
AcDbEntity
  8
DRAFT
100
AcDbCircle
 62
7
  6
CONTINUOUS
 10
14.7077140185
 20
18.585776088
 40
61.75799358
100
AcDbArc
 50
170.478178999
 51
174.2231521942
  0
ARC
  5
4C7
100
AcDbEntity
  8
ASSI
100
AcDbCircle
 62
7
  6
CONTINUOUS
 10
14.7077140185
 20
18.585776088
 40
61.75799358
100
AcDbArc
 50
170.478178999
 51
174.2231521942
  0
ARC
  5
4C8
100
AcDbEntity
  8
RACCORDO
100
AcDbCircle
 62
250
  6
CONTINUOUS
 10
35.9859431209
 20
24.2435710858
 40
40.4775945647
100
AcDbArc
 50
181.2196616536
 51
181.8352615332
  0
ARC
  5
4C9
100
AcDbEntity
  8
ASSI
100
AcDbCircle
 62
250
  6
CONTINUOUS
 10
35.9859431209
 20
24.2435710858
 40
40.4775945647
100
AcDbArc
 50
181.2196616536
 51
181.8352615332
  0
ARC
  5
4CA
100
AcDbEntity
  8
DRAFT
100
AcDbCircle
 62
7
  6
CONTINUOUS
 10
55.4210867504
 20
25.989787466
 40
17.0
100
AcDbArc
 50
9.521821001
 51
83.4379009684
  0
ARC
  5
4CB
100
AcDbEntity
  8
ASSI
100
AcDbCircle
 62
7
  6
CONTINUOUS
 10
55.4210867504
 20
25.989787466
 40
17.0
100
AcDbArc
 50
9.521821001
 51
83.4379009684
  0
ARC
  5
4CC
100
AcDbEntity
  8
RACCORDO
100
AcDbCircle
 62
250
  6
CONTINUOUS
 10
46.0007674382
 20
21.3330714193
 40
1.5493330088
100
AcDbArc
 50
48.2368307442
 51
87.5993218135
  0
ARC
  5
4CD
100
AcDbEntity
  8
ASSI
100
AcDbCircle
 62
250
  6
CONTINUOUS
 10
46.0007674382
 20
21.3330714193
 40
1.5493330088
100
AcDbArc
 50
48.2368307442
 51
87.5993218135
  0
ARC
  5
4CE
100
AcDbEntity
  8
RACCORDO
100
AcDbCircle
 62
250
  6
CONTINUOUS
 10
46.0437416101
 20
21.3366332218
 40
0.9199707502
100
AcDbArc
 50
0.1110324669
 51
90.0011647614
  0
ARC
  5
4CF
100
AcDbEntity
  8
ASSI
100
AcDbCircle
 62
250
  6
CONTINUOUS
 10
46.0437416101
 20
21.3366332218
 40
0.9199707502
100
AcDbArc
 50
0.1110324669
 51
90.0011647614
  0
ARC
  5
4D0
100
AcDbEntity
  8
0
100
AcDbCircle
 62
7
  6
CONTINUOUS
 10
46.0437263756
 20
21.3384133056
 40
0.8
100
AcDbArc
 50
0.0
 51
90.0000000007
  0
ARC
  5
4D1
100
AcDbEntity
  8
ASSI
100
AcDbCircle
 62
7
  6
CONTINUOUS
 10
46.0437263756
 20
21.3384133056
 40
0.8
100
AcDbArc
 50
0.0
 51
90.0000000007
  0
ARC
  5
4D2
100
AcDbEntity
  8
RACCORDO
100
AcDbCircle
 62
250
  6
CONTINUOUS
 10
12.9937263756
 20
763.9620980919
 40
787.8261145281
100
AcDbArc
 50
268.7297569163
 51
271.2702430837
  0
ARC
  5
4D3
100
AcDbEntity
  8
ASSI
100
AcDbCircle
 62
250
  6
CONTINUOUS
 10
12.9937263756
 20
763.9620980919
 40
787.8261145281
100
AcDbArc
 50
268.7297569163
 51
271.2702430837
  0
ARC
  5
4D4
100
AcDbEntity
  8
RACCORDO
100
AcDbCircle
 62
250
  6
CONTINUOUS
 10
13.0396591242
 20
762.0562832373
 40
785.91974978
100
AcDbArc
 50
271.2699753006
 51
272.3676940022
  0
ARC
  5
4D5
100
AcDbEntity
  8
ASSI
100
AcDbCircle
 62
250
  6
CONTINUOUS
 10
13.0396591242
 20
762.0562832373
 40
785.91974978
100
AcDbArc
 50
271.2699753006
 51
272.3676940022
  0
ARC
  5
4D6
100
AcDbEntity
  8
RACCORDO
100
AcDbCircle
 62
250
  6
CONTINUOUS
 10
13.0410267452
 20
761.5206639258
 40
785.8191264745
100
AcDbArc
 50
271.2708836612
 51
272.4086074598
  0
ARC
  5
4D7
100
AcDbEntity
  8
ASSI
100
AcDbCircle
 62
250
  6
CONTINUOUS
 10
13.0410267452
 20
761.5206639258
 40
785.8191264745
100
AcDbArc
 50
271.2708836612
 51
272.4086074598
  0
ARC
  5
4D8
100
AcDbEntity
  8
RACCORDO
100
AcDbCircle
 62
250
  6
CONTINUOUS
 10
12.9937263756
 20
760.9883429013
 40
785.2879877079
100
AcDbArc
 50
268.7248046626
 51
271.2751953374
  0
ARC
  5
4D9
100
AcDbEntity
  8
ASSI
100
AcDbCircle
 62
250
  6
CONTINUOUS
 10
12.9937263756
 20
760.9883429013
 40
785.2879877079
100
AcDbArc
 50
268.7248046626
 51
271.2751953374
  0
ARC
  5
4DA
100
AcDbEntity
  8
RACCORDO
100
AcDbCircle
 62
250
  6
CONTINUOUS
 10
13.9408850991
 20
577.6231437655
 40
622.8541441395
100
AcDbArc
 50
266.2894504687
 51
266.7860826297
  0
ARC
  5
4DB
100
AcDbEntity
  8
ASSI
100
AcDbCircle
 62
250
  6
CONTINUOUS
 10
13.9408850991
 20
577.6231437655
 40
622.8541441395
100
AcDbArc
 50
266.2894504687
 51
266.7860826297
  0
ARC
  5
4DC
100
AcDbEntity
  8
RACCORDO
100
AcDbCircle
 62
250
  6
CONTINUOUS
 10
13.9502028172
 20
577.0200147767
 40
622.0063757896
100
AcDbArc
 50
266.2842179526
 51
266.7815399171
  0
ARC
  5
4DD
100
AcDbEntity
  8
ASSI
100
AcDbCircle
 62
250
  6
CONTINUOUS
 10
13.9502028172
 20
577.0200147767
 40
622.0063757896
100
AcDbArc
 50
266.2842179526
 51
266.7815399171
  0
ARC
  5
4DE
100
AcDbEntity
  8
RACCORDO
100
AcDbCircle
 62
250
  6
CONTINUOUS
 10
12.9937263756
 20
560.667034143
 40
605.8716019888
100
AcDbArc
 50
266.7856136878
 51
273.2143863122
  0
ARC
  5
4DF
100
AcDbEntity
  8
ASSI
100
AcDbCircle
 62
250
  6
CONTINUOUS
 10
12.9937263756
 20
560.667034143
 40
605.8716019888
100
AcDbArc
 50
266.7856136878
 51
273.2143863122
  0
ARC
  5
4E0
100
AcDbEntity
  8
RACCORDO
100
AcDbCircle
 62
250
  6
CONTINUOUS
 10
12.9937263756
 20
559.77329695
 40
604.7331612496
100
AcDbArc
 50
266.7802781033
 51
273.2197218967
  0
ARC
  5
4E1
100
AcDbEntity
  8
ASSI
100
AcDbCircle
 62
250
  6
CONTINUOUS
 10
12.9937263756
 20
559.77329695
 40
604.7331612496
100
AcDbArc
 50
266.7802781033
 51
273.2197218967
  0
ARC
  5
4E2
100
AcDbEntity
  8
DRAFT
100
AcDbCircle
 62
7
  6
CONTINUOUS
 10
12.9937263756
 20
548.4526304986
 40
593.814217193
100
AcDbArc
 50
266.1984782932
 51
273.8015217068
  0
ARC
  5
4E3
100
AcDbEntity
  8
ASSI
100
AcDbCircle
 62
7
  6
CONTINUOUS
 10
12.9937263756
 20
548.4526304986
 40
593.814217193
100
AcDbArc
 50
266.1984782932
 51
273.8015217068
  0
ARC
  5
4E4
100
AcDbEntity
  8
RACCORDO
100
AcDbCircle
 62
250
  6
CONTINUOUS
 10
4667.5279008721
 20
16.2128565905
 40
4688.5772616651
100
AcDbArc
 50
179.6692039546
 51
179.9123911285
  0
ARC
  5
4E5
100
AcDbEntity
  8
ASSI
100
AcDbCircle
 62
250
  6
CONTINUOUS
 10
4667.5279008721
 20
16.2128565905
 40
4688.5772616651
100
AcDbArc
 50
179.6692039546
 51
179.9123911285
  0
ARC
  5
4E6
100
AcDbEntity
  8
0
100
AcDbCircle
 62
250
  6
CONTINUOUS
 10
-63.9038171342
 20
-39.2649753129
 40
4.4034713548
100
AcDbArc
 50
317.8035427088
 51
318.0416629411
  0
ARC
  5
4E7
100
AcDbEntity
  8
ASSI
100
AcDbCircle
 62
250
  6
CONTINUOUS
 10
-63.9038171342
 20
-39.2649753129
 40
4.4034713548
100
AcDbArc
 50
317.8035427088
 51
318.0416629411
  0
ARC
  5
4E8
100
AcDbEntity
  8
0
100
AcDbCircle
 62
7
  6
CONTINUOUS
 10
-63.8160506015
 20
-40.4848054883
 40
4.3951164325
100
AcDbArc
 50
308.841520599
 51
316.4751453806
  0
ARC
  5
4E9
100
AcDbEntity
  8
ASSI
100
AcDbCircle
 62
7
  6
CONTINUOUS
 10
-63.8160506015
 20
-40.4848054883
 40
4.3951164325
100
AcDbArc
 50
308.841520599
 51
316.4751453806
  0
ARC
  5
4EA
100
AcDbEntity
  8
0
100
AcDbCircle
 62
7
  6
CONTINUOUS
 10
-63.8149803125
 20
-40.4841706543
 40
4.3949941281
100
AcDbArc
 50
299.5902061648
 51
302.2724515326
  0
ARC
  5
4EB
100
AcDbEntity
  8
ASSI
100
AcDbCircle
 62
7
  6
CONTINUOUS
 10
-63.8149803125
 20
-40.4841706543
 40
4.3949941282
100
AcDbArc
 50
299.5902061648
 51
302.2724515326
  0
ARC
  5
4EC
100
AcDbEntity
  8
0
100
AcDbCircle
 62
7
  6
CONTINUOUS
 10
-63.8139435494
 20
-40.4836945894
 40
4.394973313
100
AcDbArc
 50
288.0856147507
 51
291.8894801631
  0
ARC
  5
4ED
100
AcDbEntity
  8
ASSI
100
AcDbCircle
 62
7
  6
CONTINUOUS
 10
-63.8139435494
 20
-40.4836945894
 40
4.394973313
100
AcDbArc
 50
288.0856147507
 51
291.889480163
  0
ARC
  5
4EE
100
AcDbEntity
  8
0
100
AcDbCircle
 62
7
  6
CONTINUOUS
 10
-63.8124602227
 20
-40.4853888573
 40
4.3929433277
100
AcDbArc
 50
275.0043401528
 51
281.2241776249
  0
ARC
  5
4EF
100
AcDbEntity
  8
ASSI
100
AcDbCircle
 62
7
  6
CONTINUOUS
 10
-63.8124602227
 20
-40.4853888573
 40
4.3929433277
100
AcDbArc
 50
275.0043401528
 51
281.2241776249
  0
ARC
  5
4F0
100
AcDbEntity
  8
0
100
AcDbCircle
 62
7
  6
CONTINUOUS
 10
-63.8119025293
 20
-40.4881342959
 40
4.3901418468
100
AcDbArc
 50
281.22401277
 51
284.5449199329
  0
ARC
  5
4F1
100
AcDbEntity
  8
ASSI
100
AcDbCircle
 62
7
  6
CONTINUOUS
 10
-63.8119025293
 20
-40.4881342959
 40
4.3901418468
100
AcDbArc
 50
281.22401277
 51
284.5449199329
  0
ARC
  5
4F2
100
AcDbEntity
  8
0
100
AcDbCircle
 62
7
  6
CONTINUOUS
 10
-63.8121435519
 20
-40.4889566691
 40
4.3894327895
100
AcDbArc
 50
302.2745000745
 51
308.8357818262
  0
ARC
  5
4F3
100
AcDbEntity
  8
ASSI
100
AcDbCircle
 62
7
  6
CONTINUOUS
 10
-63.8121435519
 20
-40.4889566691
 40
4.3894327895
100
AcDbArc
 50
302.2745000745
 51
308.8357818262
  0
ARC
  5
4F4
100
AcDbEntity
  8
0
100
AcDbCircle
 62
7
  6
CONTINUOUS
 10
-63.8117973078
 20
-40.489006647
 40
4.3892440734
100
AcDbArc
 50
291.889335527
 51
295.0877166716
  0
ARC
  5
4F5
100
AcDbEntity
  8
ASSI
100
AcDbCircle
 62
7
  6
CONTINUOUS
 10
-63.8117973078
 20
-40.489006647
 40
4.3892440734
100
AcDbArc
 50
291.889335527
 51
295.0877166716
  0
ARC
  5
4F6
100
AcDbEntity
  8
0
100
AcDbCircle
 62
7
  6
CONTINUOUS
 10
-63.8112244003
 20
-40.4908625279
 40
4.3873203692
100
AcDbArc
 50
295.0912171672
 51
299.5907068399
  0
ARC
  5
4F7
100
AcDbEntity
  8
ASSI
100
AcDbCircle
 62
7
  6
CONTINUOUS
 10
-63.8112244003
 20
-40.4908625279
 40
4.3873203692
100
AcDbArc
 50
295.0912171672
 51
299.5907068399
  0
ARC
  5
4F8
100
AcDbEntity
  8
0
100
AcDbCircle
 62
7
  6
CONTINUOUS
 10
-63.8106327469
 20
-40.4937688619
 40
4.3843689749
100
AcDbArc
 50
284.5473502488
 51
288.0853560881
  0
ARC
  5
4F9
100
AcDbEntity
  8
ASSI
100
AcDbCircle
 62
7
  6
CONTINUOUS
 10
-63.8106327469
 20
-40.4937688619
 40
4.3843689749
100
AcDbArc
 50
284.5473502488
 51
288.0853560881
  0
ARC
  5
4FA
100
AcDbEntity
  8
0
100
AcDbCircle
 62
250
  6
CONTINUOUS
 10
-63.7105117475
 20
-38.8628526986
 40
4.231911662
100
AcDbArc
 50
316.2496420859
 51
316.7273139582
  0
ARC
  5
4FB
100
AcDbEntity
  8
ASSI
100
AcDbCircle
 62
250
  6
CONTINUOUS
 10
-63.7105117475
 20
-38.8628526986
 40
4.231911662
100
AcDbArc
 50
316.2496420859
 51
316.7273139582
  0
ARC
  5
4FC
100
AcDbEntity
  8
RACCORDO
100
AcDbCircle
 62
250
  6
CONTINUOUS
 10
-65.8932880861
 20
-43.6252842106
 40
0.3004730618
100
AcDbArc
 50
190.2564628988
 51
266.904176797
  0
ARC
  5
4FD
100
AcDbEntity
  8
ASSI
100
AcDbCircle
 62
250
  6
CONTINUOUS
 10
-65.8932880861
 20
-43.6252842106
 40
0.3004730618
100
AcDbArc
 50
190.2564628988
 51
266.904176797
  0
ARC
  5
4FE
100
AcDbEntity
  8
RACCORDO
100
AcDbCircle
 62
250
  6
CONTINUOUS
 10
-66.0351390809
 20
-43.9514885721
 40
0.3002945496
100
AcDbArc
 50
190.320842527
 51
266.9453280721
  0
ARC
  5
4FF
100
AcDbEntity
  8
ASSI
100
AcDbCircle
 62
250
  6
CONTINUOUS
 10
-66.0351390809
 20
-43.9514885721
 40
0.3002945496
100
AcDbArc
 50
190.320842527
 51
266.9453280721
  0
ARC
  5
500
100
AcDbEntity
  8
RACCORDO
100
AcDbCircle
 62
7
  6
CONTINUOUS
 10
-66.4096349011
 20
-44.9049790752
 40
0.3000000096
100
AcDbArc
 50
190.5417016667
 51
267.0000001839
  0
ARC
  5
501
100
AcDbEntity
  8
ASSI
100
AcDbCircle
 62
7
  6
CONTINUOUS
 10
-66.4096349011
 20
-44.9049790752
 40
0.3000000096
100
AcDbArc
 50
190.5417016667
 51
267.0000001839
  0
ARC
  5
502
100
AcDbEntity
  8
RACCORDO
100
AcDbCircle
 62
250
  6
CONTINUOUS
 10
-86.2347782947
 20
-23.3845648975
 40
17.6144305807
100
AcDbArc
 50
0.6419413846
 51
0.8140255873
  0
ARC
  5
503
100
AcDbEntity
  8
ASSI
100
AcDbCircle
 62
250
  6
CONTINUOUS
 10
-86.2347782947
 20
-23.3845648975
 40
17.6144305807
100
AcDbArc
 50
0.6419413846
 51
0.8140255873
  0
ARC
  5
504
100
AcDbEntity
  8
RACCORDO
100
AcDbCircle
 62
250
  6
CONTINUOUS
 10
-68.2833358938
 20
-24.0729094587
 40
0.7021446691
100
AcDbArc
 50
145.0237149142
 51
157.5580532915
  0
ARC
  5
505
100
AcDbEntity
  8
ASSI
100
AcDbCircle
 62
250
  6
CONTINUOUS
 10
-68.2833358938
 20
-24.0729094587
 40
0.7021446691
100
AcDbArc
 50
145.0237149142
 51
157.5580532915
  0
ARC
  5
506
100
AcDbEntity
  8
RACCORDO
100
AcDbCircle
 62
250
  6
CONTINUOUS
 10
-67.9333793845
 20
-23.570938436
 40
0.7012943639
100
AcDbArc
 50
171.6714982357
 51
182.7195772912
  0
ARC
  5
507
100
AcDbEntity
  8
ASSI
100
AcDbCircle
 62
250
  6
CONTINUOUS
 10
-67.9333793845
 20
-23.570938436
 40
0.7012943639
100
AcDbArc
 50
171.6714982357
 51
182.7195772912
  0
ARC
  5
508
100
AcDbEntity
  8
RACCORDO
100
AcDbCircle
 62
7
  6
CONTINUOUS
 10
-68.4207303986
 20
-24.2653901353
 40
0.7
100
AcDbArc
 50
145.0
 51
182.7942555591
  0
ARC
  5
509
100
AcDbEntity
  8
ASSI
100
AcDbCircle
 62
7
  6
CONTINUOUS
 10
-68.4207303986
 20
-24.2653901353
 40
0.7
100
AcDbArc
 50
145.0
 51
182.7942555591
  0
ARC
  5
50A
100
AcDbEntity
  8
RACCORDO
100
AcDbCircle
 62
250
  6
CONTINUOUS
 10
-68.285546046
 20
-24.0716737841
 40
0.6996302471
100
AcDbArc
 50
157.5824884174
 51
182.7432554204
  0
ARC
  5
50B
100
AcDbEntity
  8
ASSI
100
AcDbCircle
 62
250
  6
CONTINUOUS
 10
-68.285546046
 20
-24.0716737841
 40
0.6996302471
100
AcDbArc
 50
157.5824884174
 51
182.7432554204
  0
ARC
  5
50C
100
AcDbEntity
  8
RACCORDO
100
AcDbCircle
 62
250
  6
CONTINUOUS
 10
-67.9375385304
 20
-23.5704099034
 40
0.6971025284
100
AcDbArc
 50
170.5768460755
 51
171.6649650877
  0
ARC
  5
50D
100
AcDbEntity
  8
ASSI
100
AcDbCircle
 62
250
  6
CONTINUOUS
 10
-67.9375385304
 20
-23.5704099034
 40
0.6971025284
100
AcDbArc
 50
170.5768460755
 51
171.6649650877
  0
ARC
  5
50E
100
AcDbEntity
  8
RACCORDO
100
AcDbCircle
 62
250
  6
CONTINUOUS
 10
122.9649370459
 20
-16.2238228803
 40
190.0352827095
100
AcDbArc
 50
182.8000411176
 51
184.0052831278
  0
ARC
  5
50F
100
AcDbEntity
  8
ASSI
100
AcDbCircle
 62
250
  6
CONTINUOUS
 10
122.9649370459
 20
-16.2238228803
 40
190.0352827095
100
AcDbArc
 50
182.8000411176
 51
184.0052831278
  0
ARC
  5
510
100
AcDbEntity
  8
RACCORDO
100
AcDbCircle
 62
250
  6
CONTINUOUS
 10
121.1637245475
 20
-16.2378553539
 40
188.5174905142
100
AcDbArc
 50
182.8143174878
 51
184.0257722958
  0
ARC
  5
511
100
AcDbEntity
  8
ASSI
100
AcDbCircle
 62
250
  6
CONTINUOUS
 10
121.1637245475
 20
-16.2378553539
 40
188.5174905142
100
AcDbArc
 50
182.8143174878
 51
184.0257722958
  0
ARC
  5
512
100
AcDbEntity
  8
RACCORDO
100
AcDbCircle
 62
250
  6
CONTINUOUS
 10
93.0393840486
 20
-17.6566846201
 40
160.0754646866
100
AcDbArc
 50
182.3138285126
 51
182.811039147
  0
ARC
  5
513
100
AcDbEntity
  8
ASSI
100
AcDbCircle
 62
250
  6
CONTINUOUS
 10
93.0393840486
 20
-17.6566846201
 40
160.0754646866
100
AcDbArc
 50
182.3138285126
 51
182.811039147
  0
ARC
  5
514
100
AcDbEntity
  8
RACCORDO
100
AcDbCircle
 62
250
  6
CONTINUOUS
 10
92.6791330017
 20
-17.6362200782
 40
159.9985954587
100
AcDbArc
 50
182.3171613723
 51
182.8149967999
  0
ARC
  5
515
100
AcDbEntity
  8
ASSI
100
AcDbCircle
 62
250
  6
CONTINUOUS
 10
92.6791330017
 20
-17.6362200782
 40
159.9985954587
100
AcDbArc
 50
182.3171613723
 51
182.8149967999
  0
ARC
  5
516
100
AcDbEntity
  8
0
100
AcDbCircle
 62
7
  6
CONTINUOUS
 10
84.9153481622
 20
-16.5718681352
 40
154.3719395409
100
AcDbArc
 50
184.4247750778
 51
184.7068945471
  0
ARC
  5
517
100
AcDbEntity
  8
ASSI
100
AcDbCircle
 62
7
  6
CONTINUOUS
 10
84.9153481622
 20
-16.5718681352
 40
154.3719395409
100
AcDbArc
 50
184.4247750778
 51
184.7068945471
  0
ARC
  5
518
100
AcDbEntity
  8
0
100
AcDbCircle
 62
7
  6
CONTINUOUS
 10
84.9149052143
 20
-16.5720530973
 40
154.2214969528
100
AcDbArc
 50
184.4290310972
 51
184.7114275309
  0
ARC
  5
519
100
AcDbEntity
  8
ASSI
100
AcDbCircle
 62
7
  6
CONTINUOUS
 10
84.9149052143
 20
-16.5720530973
 40
154.2214969528
100
AcDbArc
 50
184.4290310972
 51
184.7114275309
  0
ARC
  5
51A
100
AcDbEntity
  8
0
100
AcDbCircle
 62
7
  6
CONTINUOUS
 10
84.6537244788
 20
-16.7944801401
 40
154.0994425423
100
AcDbArc
 50
184.3155784854
 51
184.6321910547
  0
ARC
  5
51B
100
AcDbEntity
  8
ASSI
100
AcDbCircle
 62
7
  6
CONTINUOUS
 10
84.6537244788
 20
-16.7944801401
 40
154.0994425423
100
AcDbArc
 50
184.3155784854
 51
184.6321910547
  0
ARC
  5
51C
100
AcDbEntity
  8
0
100
AcDbCircle
 62
7
  6
CONTINUOUS
 10
84.6517259127
 20
-16.7945031692
 40
154.0994364922
100
AcDbArc
 50
184.0527097885
 51
184.2236740779
  0
ARC
  5
51D
100
AcDbEntity
  8
ASSI
100
AcDbCircle
 62
7
  6
CONTINUOUS
 10
84.6517259127
 20
-16.7945031692
 40
154.0994364922
100
AcDbArc
 50
184.0527097885
 51
184.2236740779
  0
ARC
  5
51E
100
AcDbEntity
  8
0
100
AcDbCircle
 62
7
  6
CONTINUOUS
 10
84.6534471181
 20
-16.7944977075
 40
154.0992360103
100
AcDbArc
 50
183.8906786705
 51
184.0526660396
  0
ARC
  5
51F
100
AcDbEntity
  8
ASSI
100
AcDbCircle
 62
7
  6
CONTINUOUS
 10
84.6534471181
 20
-16.7944977075
 40
154.0992360103
100
AcDbArc
 50
183.8906786705
 51
184.0526660396
  0
ARC
  5
520
100
AcDbEntity
  8
RACCORDO
100
AcDbCircle
 62
250
  6
CONTINUOUS
 10
85.2741776399
 20
-16.7947121863
 40
154.0273123503
100
AcDbArc
 50
182.7203950074
 51
190.1753159652
  0
ARC
  5
521
100
AcDbEntity
  8
ASSI
100
AcDbCircle
 62
250
  6
CONTINUOUS
 10
85.2741776399
 20
-16.7947121863
 40
154.0273123503
100
AcDbArc
 50
182.7203950074
 51
190.1753159652
  0
ARC
  5
522
100
AcDbEntity
  8
ASSI
100
AcDbCircle
 62
7
  6
CONTINUOUS
 10
84.6472541303
 20
-16.7945035879
 40
153.9501916421
100
AcDbArc
 50
184.6366901566
 51
190.5272252384
  0
ARC
  5
523
100
AcDbEntity
  8
ASSI
100
AcDbCircle
 62
7
  6
CONTINUOUS
 10
84.6472541303
 20
-16.7945035879
 40
153.9501916421
100
AcDbArc
 50
182.7862067284
 51
183.5799222865
  0
ARC
  5
524
100
AcDbEntity
  8
0
100
AcDbCircle
 62
7
  6
CONTINUOUS
 10
82.5945684847
 20
-16.8221967099
 40
152.0473497815
100
AcDbArc
 50
184.0970867301
 51
184.2703592514
  0
ARC
  5
525
100
AcDbEntity
  8
ASSI
100
AcDbCircle
 62
7
  6
CONTINUOUS
 10
82.5945684847
 20
-16.8221967099
 40
152.0473497815
100
AcDbArc
 50
184.0970867301
 51
184.2703592514
  0
ARC
  5
526
100
AcDbEntity
  8
RACCORDO
100
AcDbCircle
 62
250
  6
CONTINUOUS
 10
-85.7547402846
 20
22.6553094115
 40
17.1343545469
100
AcDbArc
 50
359.1882329839
 51
359.360349683
  0
ARC
  5
527
100
AcDbEntity
  8
ASSI
100
AcDbCircle
 62
250
  6
CONTINUOUS
 10
-85.7547402846
 20
22.6553094115
 40
17.1343545469
100
AcDbArc
 50
359.1882329839
 51
359.360349683
  0
ARC
  5
528
100
AcDbEntity
  8
RACCORDO
100
AcDbCircle
 62
250
  6
CONTINUOUS
 10
-68.2833349679
 20
23.3497347119
 40
0.7021446493
100
AcDbArc
 50
202.441821594
 51
214.9761509738
  0
ARC
  5
529
100
AcDbEntity
  8
ASSI
100
AcDbCircle
 62
250
  6
CONTINUOUS
 10
-68.2833349679
 20
23.3497347119
 40
0.7021446493
100
AcDbArc
 50
202.441821594
 51
214.9761509738
  0
ARC
  5
52A
100
AcDbEntity
  8
RACCORDO
100
AcDbCircle
 62
250
  6
CONTINUOUS
 10
-67.9333819724
 20
22.8477642324
 40
0.7012916562
100
AcDbArc
 50
177.280346168
 51
188.3131902096
  0
ARC
  5
52B
100
AcDbEntity
  8
ASSI
100
AcDbCircle
 62
250
  6
CONTINUOUS
 10
-67.9333819724
 20
22.8477642324
 40
0.7012916562
100
AcDbArc
 50
177.280346168
 51
188.3131902096
  0
ARC
  5
52C
100
AcDbEntity
  8
RACCORDO
100
AcDbCircle
 62
7
  6
CONTINUOUS
 10
-68.4207304498
 20
23.5422168196
 40
0.7
100
AcDbArc
 50
177.8484376933
 51
215.0
  0
ARC
  5
52D
100
AcDbEntity
  8
ASSI
100
AcDbCircle
 62
7
  6
CONTINUOUS
 10
-68.4207304498
 20
23.5422168196
 40
0.7
100
AcDbArc
 50
177.8484376933
 51
215.0
  0
ARC
  5
52E
100
AcDbEntity
  8
RACCORDO
100
AcDbCircle
 62
250
  6
CONTINUOUS
 10
-68.2855451147
 20
23.3484990459
 40
0.6996302363
100
AcDbArc
 50
177.2566378132
 51
202.4173864974
  0
ARC
  5
52F
100
AcDbEntity
  8
ASSI
100
AcDbCircle
 62
250
  6
CONTINUOUS
 10
-68.2855451147
 20
23.3484990459
 40
0.6996302363
100
AcDbArc
 50
177.2566378132
 51
202.4173864974
  0
ARC
  5
530
100
AcDbEntity
  8
RACCORDO
100
AcDbCircle
 62
250
  6
CONTINUOUS
 10
-67.9375245905
 20
22.8472381878
 40
0.6971165134
100
AcDbArc
 50
188.3196370861
 51
189.4231572835
  0
ARC
  5
531
100
AcDbEntity
  8
ASSI
100
AcDbCircle
 62
250
  6
CONTINUOUS
 10
-67.9375245905
 20
22.8472381878
 40
0.6971165134
100
AcDbArc
 50
188.3196370861
 51
189.4231572835
  0
ARC
  5
532
100
AcDbEntity
  8
0
100
AcDbCircle
 62
250
  6
CONTINUOUS
 10
-63.9038171357
 20
38.5418019228
 40
4.4034713568
100
AcDbArc
 50
41.958337059
 51
42.1964572911
  0
ARC
  5
533
100
AcDbEntity
  8
ASSI
100
AcDbCircle
 62
250
  6
CONTINUOUS
 10
-63.9038171357
 20
38.5418019228
 40
4.4034713568
100
AcDbArc
 50
41.958337059
 51
42.1964572911
  0
ARC
  5
534
100
AcDbEntity
  8
0
100
AcDbCircle
 62
7
  6
CONTINUOUS
 10
-63.8160506015
 20
39.7616320995
 40
4.3951164325
100
AcDbArc
 50
43.5248546194
 51
51.1584794011
  0
ARC
  5
535
100
AcDbEntity
  8
ASSI
100
AcDbCircle
 62
7
  6
CONTINUOUS
 10
-63.8160506015
 20
39.7616320995
 40
4.3951164325
100
AcDbArc
 50
43.5248546194
 51
51.1584794011
  0
ARC
  5
536
100
AcDbEntity
  8
0
100
AcDbCircle
 62
7
  6
CONTINUOUS
 10
-63.8149803125
 20
39.7609972655
 40
4.3949941282
100
AcDbArc
 50
57.7275484674
 51
60.4097938352
  0
ARC
  5
537
100
AcDbEntity
  8
ASSI
100
AcDbCircle
 62
7
  6
CONTINUOUS
 10
-63.8149803125
 20
39.7609972655
 40
4.3949941282
100
AcDbArc
 50
57.7275484674
 51
60.4097938352
  0
ARC
  5
538
100
AcDbEntity
  8
0
100
AcDbCircle
 62
7
  6
CONTINUOUS
 10
-63.8139435494
 20
39.7605212006
 40
4.394973313
100
AcDbArc
 50
68.1105198369
 51
71.9143852492
  0
ARC
  5
539
100
AcDbEntity
  8
ASSI
100
AcDbCircle
 62
7
  6
CONTINUOUS
 10
-63.8139435494
 20
39.7605212006
 40
4.394973313
100
AcDbArc
 50
68.110519837
 51
71.9143852492
  0
ARC
  5
53A
100
AcDbEntity
  8
0
100
AcDbCircle
 62
7
  6
CONTINUOUS
 10
-63.8124602227
 20
39.7622154685
 40
4.3929433277
100
AcDbArc
 50
78.7758223751
 51
84.9956598472
  0
ARC
  5
53B
100
AcDbEntity
  8
ASSI
100
AcDbCircle
 62
7
  6
CONTINUOUS
 10
-63.8124602227
 20
39.7622154685
 40
4.3929433277
100
AcDbArc
 50
78.7758223751
 51
84.9956598472
  0
ARC
  5
53C
100
AcDbEntity
  8
0
100
AcDbCircle
 62
7
  6
CONTINUOUS
 10
-63.8119025293
 20
39.7649609071
 40
4.3901418468
100
AcDbArc
 50
75.4550800671
 51
78.77598723
  0
ARC
  5
53D
100
AcDbEntity
  8
ASSI
100
AcDbCircle
 62
7
  6
CONTINUOUS
 10
-63.8119025293
 20
39.7649609071
 40
4.3901418468
100
AcDbArc
 50
75.4550800671
 51
78.77598723
  0
ARC
  5
53E
100
AcDbEntity
  8
0
100
AcDbCircle
 62
7
  6
CONTINUOUS
 10
-63.8121435519
 20
39.7657832804
 40
4.3894327895
100
AcDbArc
 50
51.1642181737
 51
57.7254999255
  0
ARC
  5
53F
100
AcDbEntity
  8
ASSI
100
AcDbCircle
 62
7
  6
CONTINUOUS
 10
-63.8121435519
 20
39.7657832804
 40
4.3894327895
100
AcDbArc
 50
51.1642181737
 51
57.7254999255
  0
ARC
  5
540
100
AcDbEntity
  8
0
100
AcDbCircle
 62
7
  6
CONTINUOUS
 10
-63.8117973078
 20
39.7658332582
 40
4.3892440734
100
AcDbArc
 50
64.9122833284
 51
68.110664473
  0
ARC
  5
541
100
AcDbEntity
  8
ASSI
100
AcDbCircle
 62
7
  6
CONTINUOUS
 10
-63.8117973078
 20
39.7658332582
 40
4.3892440734
100
AcDbArc
 50
64.9122833284
 51
68.110664473
  0
ARC
  5
542
100
AcDbEntity
  8
0
100
AcDbCircle
 62
7
  6
CONTINUOUS
 10
-63.8112244003
 20
39.7676891392
 40
4.3873203692
100
AcDbArc
 50
60.4092931601
 51
64.9087828329
  0
ARC
  5
543
100
AcDbEntity
  8
ASSI
100
AcDbCircle
 62
7
  6
CONTINUOUS
 10
-63.8112244003
 20
39.7676891392
 40
4.3873203692
100
AcDbArc
 50
60.4092931601
 51
64.9087828328
  0
ARC
  5
544
100
AcDbEntity
  8
0
100
AcDbCircle
 62
7
  6
CONTINUOUS
 10
-63.8106327469
 20
39.7705954731
 40
4.3843689749
100
AcDbArc
 50
71.9146439119
 51
75.4526497512
  0
ARC
  5
545
100
AcDbEntity
  8
ASSI
100
AcDbCircle
 62
7
  6
CONTINUOUS
 10
-63.8106327469
 20
39.7705954731
 40
4.3843689749
100
AcDbArc
 50
71.9146439119
 51
75.4526497512
  0
ARC
  5
546
100
AcDbEntity
  8
0
100
AcDbCircle
 62
250
  6
CONTINUOUS
 10
-63.7105117476
 20
38.1396793097
 40
4.2319116621
100
AcDbArc
 50
43.2726860418
 51
43.7503579141
  0
ARC
  5
547
100
AcDbEntity
  8
ASSI
100
AcDbCircle
 62
250
  6
CONTINUOUS
 10
-63.7105117476
 20
38.1396793097
 40
4.2319116621
100
AcDbArc
 50
43.2726860418
 51
43.7503579141
  0
ARC
  5
548
100
AcDbEntity
  8
RACCORDO
100
AcDbCircle
 62
250
  6
CONTINUOUS
 10
-65.8932880103
 20
42.9021107387
 40
0.3004730618
100
AcDbArc
 50
93.0958367961
 51
169.7435240657
  0
ARC
  5
549
100
AcDbEntity
  8
ASSI
100
AcDbCircle
 62
250
  6
CONTINUOUS
 10
-65.8932880103
 20
42.9021107387
 40
0.3004730618
100
AcDbArc
 50
93.0958367961
 51
169.7435240657
  0
ARC
  5
54A
100
AcDbEntity
  8
RACCORDO
100
AcDbCircle
 62
250
  6
CONTINUOUS
 10
-66.0351390007
 20
43.2283150856
 40
0.3002945496
100
AcDbArc
 50
93.0546862281
 51
169.6791418719
  0
ARC
  5
54B
100
AcDbEntity
  8
ASSI
100
AcDbCircle
 62
250
  6
CONTINUOUS
 10
-66.0351390007
 20
43.2283150856
 40
0.3002945496
100
AcDbArc
 50
93.0546862281
 51
169.6791418719
  0
ARC
  5
54C
100
AcDbEntity
  8
RACCORDO
100
AcDbCircle
 62
7
  6
CONTINUOUS
 10
-66.4096349011
 20
44.1818056865
 40
0.3000000096
100
AcDbArc
 50
92.9999998161
 51
169.4582983333
  0
ARC
  5
54D
100
AcDbEntity
  8
ASSI
100
AcDbCircle
 62
7
  6
CONTINUOUS
 10
-66.4096349011
 20
44.1818056865
 40
0.3000000096
100
AcDbArc
 50
92.9999998161
 51
169.4582983333
  0
ARC
  5
54E
100
AcDbEntity
  8
RACCORDO
100
AcDbCircle
 62
250
  6
CONTINUOUS
 10
123.1236328036
 20
15.4912163434
 40
190.1942498173
100
AcDbArc
 50
175.9952170326
 51
177.1994555396
  0
ARC
  5
54F
100
AcDbEntity
  8
ASSI
100
AcDbCircle
 62
250
  6
CONTINUOUS
 10
123.1236328036
 20
15.4912163434
 40
190.1942498173
100
AcDbArc
 50
175.9952170326
 51
177.1994555396
  0
ARC
  5
550
100
AcDbEntity
  8
RACCORDO
100
AcDbCircle
 62
250
  6
CONTINUOUS
 10
121.3151547533
 20
15.5056321873
 40
188.6691824251
100
AcDbArc
 50
175.9747147332
 51
177.1851954832
  0
ARC
  5
551
100
AcDbEntity
  8
ASSI
100
AcDbCircle
 62
250
  6
CONTINUOUS
 10
121.3151547533
 20
15.5056321873
 40
188.6691824251
100
AcDbArc
 50
175.9747147332
 51
177.1851954832
  0
ARC
  5
552
100
AcDbEntity
  8
RACCORDO
100
AcDbCircle
 62
250
  6
CONTINUOUS
 10
93.0395374684
 20
16.933504587
 40
160.0756182496
100
AcDbArc
 50
177.1889606936
 51
177.6861713282
  0
ARC
  5
553
100
AcDbEntity
  8
ASSI
100
AcDbCircle
 62
250
  6
CONTINUOUS
 10
93.0395374684
 20
16.933504587
 40
160.0756182496
100
AcDbArc
 50
177.1889606936
 51
177.6861713282
  0
ARC
  5
554
100
AcDbEntity
  8
RACCORDO
100
AcDbCircle
 62
250
  6
CONTINUOUS
 10
92.679141161
 20
16.9130463246
 40
159.998603626
100
AcDbArc
 50
177.1850032131
 51
177.6828386599
  0
ARC
  5
555
100
AcDbEntity
  8
ASSI
100
AcDbCircle
 62
250
  6
CONTINUOUS
 10
92.679141161
 20
16.9130463246
 40
159.998603626
100
AcDbArc
 50
177.1850032131
 51
177.6828386599
  0
ARC
  5
556
100
AcDbEntity
  8
RACCORDO
100
AcDbCircle
 62
250
  6
CONTINUOUS
 10
85.2741776399
 20
16.0715387975
 40
154.0273123503
100
AcDbArc
 50
169.8246840348
 51
177.2796049926
  0
ARC
  5
557
100
AcDbEntity
  8
ASSI
100
AcDbCircle
 62
250
  6
CONTINUOUS
 10
85.2741776399
 20
16.0715387975
 40
154.0273123503
100
AcDbArc
 50
169.8246840348
 51
177.2796049926
  0
ARC
  5
558
100
AcDbEntity
  8
ASSI
100
AcDbCircle
 62
7
  6
CONTINUOUS
 10
84.6472541303
 20
16.0713301991
 40
153.9501916421
100
AcDbArc
 50
169.4727747616
 51
177.2137933245
  0
ARC
  5
559
100
AcDbEntity
  8
RACCORDO
100
AcDbCircle
 62
250
  6
CONTINUOUS
 10
431.7275795151
 20
-0.3770587619
 40
500.8541419363
100
AcDbArc
 50
177.5132662704
 51
177.8228311205
  0
ARC
  5
55A
100
AcDbEntity
  8
ASSI
100
AcDbCircle
 62
250
  6
CONTINUOUS
 10
431.7275795151
 20
-0.3770587619
 40
500.8541419363
100
AcDbArc
 50
177.5132662704
 51
177.8228311205
  0
ARC
  5
55B
100
AcDbEntity
  8
RACCORDO
100
AcDbCircle
 62
250
  6
CONTINUOUS
 10
431.3954881664
 20
-0.3646352801
 40
500.5218183498
100
AcDbArc
 50
177.8228080532
 51
178.3270590977
  0
ARC
  5
55C
100
AcDbEntity
  8
ASSI
100
AcDbCircle
 62
250
  6
CONTINUOUS
 10
431.3954881664
 20
-0.3646352801
 40
500.5218183498
100
AcDbArc
 50
177.8228080532
 51
178.3270590977
  0
ARC
  5
55D
100
AcDbEntity
  8
RACCORDO
100
AcDbCircle
 62
250
  6
CONTINUOUS
 10
431.3513100492
 20
-0.3618704284
 40
500.4775833559
100
AcDbArc
 50
179.1857345722
 51
179.7088017394
  0
ARC
  5
55E
100
AcDbEntity
  8
ASSI
100
AcDbCircle
 62
250
  6
CONTINUOUS
 10
431.3513100492
 20
-0.3618704284
 40
500.4775833559
100
AcDbArc
 50
179.1857345722
 51
179.7088017394
  0
ARC
  5
55F
100
AcDbEntity
  8
RACCORDO
100
AcDbCircle
 62
250
  6
CONTINUOUS
 10
431.3181793294
 20
-0.3618520573
 40
500.4444456553
100
AcDbArc
 50
181.6716211558
 51
182.1641608946
  0
ARC
  5
560
100
AcDbEntity
  8
ASSI
100
AcDbCircle
 62
250
  6
CONTINUOUS
 10
431.3181793294
 20
-0.3618520573
 40
500.4444456553
100
AcDbArc
 50
181.6716211558
 51
182.1641608946
  0
ARC
  5
561
100
AcDbEntity
  8
RACCORDO
100
AcDbCircle
 62
250
  6
CONTINUOUS
 10
431.3032856538
 20
-0.3616074914
 40
500.4295582443
100
AcDbArc
 50
179.7088038983
 51
179.9999976187
  0
ARC
  5
562
100
AcDbEntity
  8
ASSI
100
AcDbCircle
 62
250
  6
CONTINUOUS
 10
431.3032856538
 20
-0.3616074914
 40
500.4295582443
100
AcDbArc
 50
179.7088038983
 51
179.9999976187
  0
ARC
  5
563
100
AcDbEntity
  8
RACCORDO
100
AcDbCircle
 62
250
  6
CONTINUOUS
 10
431.2505761078
 20
-0.3643874002
 40
500.3767949113
100
AcDbArc
 50
182.1641631102
 51
182.4870126954
  0
ARC
  5
564
100
AcDbEntity
  8
ASSI
100
AcDbCircle
 62
250
  6
CONTINUOUS
 10
431.2505761078
 20
-0.3643874002
 40
500.3767949113
100
AcDbArc
 50
182.1641631102
 51
182.4870126954
  0
ARC
  5
565
100
AcDbEntity
  8
RACCORDO
100
AcDbCircle
 62
250
  6
CONTINUOUS
 10
522.2294854402
 20
-0.3615866944
 40
589.6138948106
100
AcDbArc
 50
177.690707
 51
182.309293
  0
ARC
  5
566
100
AcDbEntity
  8
ASSI
100
AcDbCircle
 62
250
  6
CONTINUOUS
 10
522.2294854402
 20
-0.3615866944
 40
589.6138948106
100
AcDbArc
 50
177.690707
 51
182.309293
  0
ARC
  5
567
100
AcDbEntity
  8
RACCORDO
100
AcDbCircle
 62
250
  6
CONTINUOUS
 10
520.879352107
 20
-0.3615866921
 40
588.54712234
100
AcDbArc
 50
177.6879092179
 51
182.3120907947
  0
ARC
  5
568
100
AcDbEntity
  8
ASSI
100
AcDbCircle
 62
250
  6
CONTINUOUS
 10
520.879352107
 20
-0.3615866921
 40
588.54712234
100
AcDbArc
 50
177.6879092179
 51
182.3120907947
  0
ARC
  5
569
100
AcDbEntity
  8
RACCORDO
100
AcDbCircle
 62
250
  6
CONTINUOUS
 10
431.3391732938
 20
-0.3612290228
 40
500.46544886
100
AcDbArc
 50
180.8138984603
 51
181.6716223408
  0
ARC
  5
56A
100
AcDbEntity
  8
ASSI
100
AcDbCircle
 62
250
  6
CONTINUOUS
 10
431.3391732938
 20
-0.3612290228
 40
500.46544886
100
AcDbArc
 50
180.8138984603
 51
181.6716223408
  0
ARC
  5
56B
100
AcDbEntity
  8
RACCORDO
100
AcDbCircle
 62
250
  6
CONTINUOUS
 10
431.3258419353
 20
-0.3615248147
 40
500.4521146449
100
AcDbArc
 50
180.2968003908
 51
180.8138862794
  0
ARC
  5
56C
100
AcDbEntity
  8
ASSI
100
AcDbCircle
 62
250
  6
CONTINUOUS
 10
431.3258419353
 20
-0.3615248147
 40
500.4521146449
100
AcDbArc
 50
180.2968003908
 51
180.8138862794
  0
ARC
  5
56D
100
AcDbEntity
  8
RACCORDO
100
AcDbCircle
 62
250
  6
CONTINUOUS
 10
431.3145121446
 20
-0.3615771289
 40
500.4407847351
100
AcDbArc
 50
180.000001095
 51
180.2968011208
  0
ARC
  5
56E
100
AcDbEntity
  8
ASSI
100
AcDbCircle
 62
250
  6
CONTINUOUS
 10
431.3145121446
 20
-0.3615771289
 40
500.4407847351
100
AcDbArc
 50
180.000001095
 51
180.2968011208
  0
ARC
  5
56F
100
AcDbEntity
  8
RACCORDO
100
AcDbCircle
 62
250
  6
CONTINUOUS
 10
431.2811768148
 20
-0.3606823309
 40
500.4074403196
100
AcDbArc
 50
178.327129404
 51
179.1857564762
  0
ARC
  5
570
100
AcDbEntity
  8
ASSI
100
AcDbCircle
 62
250
  6
CONTINUOUS
 10
431.2811768148
 20
-0.3606823309
 40
500.4074403196
100
AcDbArc
 50
178.327129404
 51
179.1857564762
  0
SPLINE
  5
571
100
AcDbEntity
  8
0
100
AcDbSpline
 62
7
  6
CONTINUOUS
 70
0
 71
3
 72
9
 73
5
 74
0
 42
0.0000001
 43
0.0000001
 44
0.0000000001
 40
0.0
 40
0.0
 40
0.0
 40
0.0
 40
0.5204624602
 40
1.0
 40
1.0
 40
1.0
 40
1.0
 10
17.6643785101
 20
-27.2503724142
 30
0.0
 10
17.666186074
 20
-27.3713494601
 30
0.0
 10
17.5806532596
 20
-27.63558534
 30
0.0
 10
17.3218375026
 20
-27.6827258999
 30
0.0
 10
17.2104070187
 20
-27.685214781
 30
0.0
  0
SPLINE
  5
572
100
AcDbEntity
  8
0
100
AcDbSpline
 62
7
  6
CONTINUOUS
 70
0
 71
3
 72
9
 73
5
 74
0
 42
0.0000001
 43
0.0000001
 44
0.0000000001
 40
0.0
 40
0.0
 40
0.0
 40
0.0
 40
0.5011416538
 40
1.0
 40
1.0
 40
1.0
 40
1.0
 10
17.3342398057
 20
-26.9001589432
 30
0.0
 10
17.4198963058
 20
-26.9101004405
 30
0.0
 10
17.5932222448
 20
-26.9855620786
 30
0.0
 10
17.663096218
 20
-27.164549988
 30
0.0
 10
17.6643785343
 20
-27.2503724139
 30
0.0
  0
SPLINE
  5
573
100
AcDbEntity
  8
0
100
AcDbSpline
 62
7
  6
CONTINUOUS
 70
0
 71
3
 72
9
 73
5
 74
0
 42
0.0000001
 43
0.0000001
 44
0.0000000001
 40
0.0
 40
0.0
 40
0.0
 40
0.0
 40
0.2704041679
 40
1.0
 40
1.0
 40
1.0
 40
1.0
 10
16.8764236296
 20
-26.9166414903
 30
0.0
 10
16.9172127891
 20
-26.9096814549
 30
0.0
 10
17.0685298978
 20
-26.8867911979
 30
0.0
 10
17.2233375037
 20
-26.8872873585
 30
0.0
 10
17.3342398057
 20
-26.9001589434
 30
0.0
  0
SPLINE
  5
574
100
AcDbEntity
  8
0
100
AcDbSpline
 62
7
  6
CONTINUOUS
 70
0
 71
3
 72
9
 73
5
 74
0
 42
0.0000001
 43
0.0000001
 44
0.0000000001
 40
0.0
 40
0.0
 40
0.0
 40
0.0
 40
0.2957417834
 40
1.0
 40
1.0
 40
1.0
 40
1.0
 10
17.7559748053
 20
-26.5018705679
 30
0.0
 10
17.621346158
 20
-26.4532323164
 30
0.0
 10
17.1374376706
 20
-26.3739490675
 30
0.0
 10
16.6509908576
 20
-26.4227794533
 30
0.0
 10
16.3137451779
 20
-26.4723940354
 30
0.0
  0
SPLINE
  5
575
100
AcDbEntity
  8
0
100
AcDbSpline
 62
7
  6
CONTINUOUS
 70
0
 71
3
 72
8
 73
4
 74
0
 42
0.0000001
 43
0.0000001
 44
0.0000000001
 40
0.0
 40
0.0
 40
0.0
 40
0.0
 40
1.0
 40
1.0
 40
1.0
 40
1.0
 10
17.8162295404
 20
-27.9159673224
 30
0.0
 10
17.8285962351
 20
-27.9143716199
 30
0.0
 10
17.8402199025
 20
-27.9102409628
 30
0.0
 10
17.8513201332
 20
-27.9045456866
 30
0.0
  0
SPLINE
  5
576
100
AcDbEntity
  8
0
100
AcDbSpline
 62
7
  6
CONTINUOUS
 70
0
 71
3
 72
8
 73
4
 74
0
 42
0.0000001
 43
0.0000001
 44
0.0000000001
 40
0.0
 40
0.0
 40
0.0
 40
0.0
 40
1.0
 40
1.0
 40
1.0
 40
1.0
 10
17.8513201332
 20
-27.9045456866
 30
0.0
 10
17.8622944442
 20
-27.898915017
 30
0.0
 10
17.8727571268
 20
-27.8917550248
 30
0.0
 10
17.8829203829
 20
-27.8840033966
 30
0.0
  0
SPLINE
  5
577
100
AcDbEntity
  8
0
100
AcDbSpline
 62
7
  6
CONTINUOUS
 70
0
 71
3
 72
17
 73
13
 74
0
 42
0.0000001
 43
0.0000001
 44
0.0000000001
 40
0.0
 40
0.0
 40
0.0
 40
0.0
 40
0.0139225859
 40
0.131722618
 40
0.2907575411
 40
0.3860923536
 40
0.4950786833
 40
0.5836354502
 40
0.6632396515
 40
0.8018931514
 40
0.9164783432
 40
1.0
 40
1.0
 40
1.0
 40
1.0
 10
17.8829203829
 20
-27.8840033966
 30
0.0
 10
17.8893092872
 20
-27.8791305084
 30
0.0
 10
17.9486357014
 20
-27.8308157672
 30
0.0
 10
18.0666260766
 20
-27.7239981351
 30
0.0
 10
18.1668159903
 20
-27.5343754645
 30
0.0
 10
18.2114483008
 20
-27.3365560983
 30
0.0
 10
18.2156414169
 20
-27.1723701537
 30
0.0
 10
18.193543228
 20
-27.0190218133
 30
0.0
 10
18.1399848055
 20
-26.8560772389
 30
0.0
 10
18.0393911276
 20
-26.6963880038
 30
0.0
 10
17.8973606816
 20
-26.571506827
 30
0.0
 10
17.7997059124
 20
-26.5176467192
 30
0.0
 10
17.7559748053
 20
-26.5018705679
 30
0.0
  0
SPLINE
  5
578
100
AcDbEntity
  8
0
100
AcDbSpline
 62
7
  6
CONTINUOUS
 70
0
 71
3
 72
9
 73
5
 74
0
 42
0.0000001
 43
0.0000001
 44
0.0000000001
 40
0.0
 40
0.0
 40
0.0
 40
0.0
 40
0.2427307434
 40
1.0
 40
1.0
 40
1.0
 40
1.0
 10
18.1531055207
 20
-28.4816869224
 30
0.0
 10
18.1392393134
 20
-28.4307908248
 30
0.0
 10
18.0862974394
 20
-28.2253268028
 30
0.0
 10
17.9690943116
 20
-27.9934659587
 30
0.0
 10
17.8162295404
 20
-27.9325111312
 30
0.0
  0
SPLINE
  5
579
100
AcDbEntity
  8
0
100
AcDbSpline
 62
7
  6
CONTINUOUS
 70
0
 71
3
 72
9
 73
5
 74
0
 42
0.0000001
 43
0.0000001
 44
0.0000000001
 40
0.0
 40
0.0
 40
0.0
 40
0.0
 40
0.1980298616
 40
1.0
 40
1.0
 40
1.0
 40
1.0
 10
18.3528745875
 20
-29.2393880488
 30
0.0
 10
18.3393173583
 20
-29.1894713675
 30
0.0
 10
18.2729660532
 20
-28.9368383539
 30
0.0
 10
18.208167719
 20
-28.6837934497
 30
0.0
 10
18.1531055211
 20
-28.4816869223
 30
0.0
  0
SPLINE
  5
57A
100
AcDbEntity
  8
0
100
AcDbSpline
 62
7
  6
CONTINUOUS
 70
0
 71
3
 72
9
 73
5
 74
0
 42
0.0000001
 43
0.0000001
 44
0.0000000001
 40
0.0
 40
0.0
 40
0.0
 40
0.0
 40
0.5587152502
 40
1.0
 40
1.0
 40
1.0
 40
1.0
 10
17.5351284284
 20
-28.3902496427
 30
0.0
 10
17.5932237567
 20
-28.5448522817
 30
0.0
 10
17.6695941585
 20
-28.8310928535
 30
0.0
 10
17.7546987168
 20
-29.1140218671
 30
0.0
 10
17.7907419974
 20
-29.2393880488
 30
0.0
  0
SPLINE
  5
57B
100
AcDbEntity
  8
0
100
AcDbSpline
 62
7
  6
CONTINUOUS
 70
0
 71
3
 72
9
 73
5
 74
0
 42
0.0000001
 43
0.0000001
 44
0.0000000001
 40
0.0
 40
0.0
 40
0.0
 40
0.0
 40
0.3560705358
 40
1.0
 40
1.0
 40
1.0
 40
1.0
 10
17.2091473379
 20
-28.1437386191
 30
0.0
 10
17.2600742803
 20
-28.1437386191
 30
0.0
 10
17.406513098
 20
-28.1745629556
 30
0.0
 10
17.5027286207
 20
-28.304027696
 30
0.0
 10
17.5351284592
 20
-28.3902496312
 30
0.0
  0
SPLINE
  5
57C
100
AcDbEntity
  8
RACCORDO
100
AcDbSpline
 62
250
  6
CONTINUOUS
 70
0
 71
3
 72
15
 73
11
 74
0
 42
0.0000001
 43
0.0000001
 44
0.0000000001
 40
0.0
 40
0.0
 40
0.0
 40
0.0
 40
0.1248524529
 40
0.2497067341
 40
0.3745974203
 40
0.4995547361
 40
0.6245950248
 40
0.7497106345
 40
0.874865249
 40
1.0
 40
1.0
 40
1.0
 40
1.0
 10
71.7499443631
 20
28.7495867668
 30
0.0
 10
71.6061726367
 20
29.6274207084
 30
0.0
 10
71.1764280329
 20
31.3631775822
 30
0.0
 10
70.1233543844
 20
33.8275005546
 30
0.0
 10
68.6877162184
 20
36.0921603296
 30
0.0
 10
66.9056247625
 20
38.0972632923
 30
0.0
 10
64.8223272098
 20
39.7899230085
 30
0.0
 10
62.4914246152
 20
41.1244181594
 30
0.0
 10
59.9752677513
 20
42.0641162401
 30
0.0
 10
58.2164967615
 20
42.4105140021
 30
0.0
 10
57.3306508885
 20
42.5111223873
 30
0.0
  0
SPLINE
  5
57D
100
AcDbEntity
  8
RACCORDO
100
AcDbSpline
 62
250
  6
CONTINUOUS
 70
0
 71
3
 72
10
 73
6
 74
0
 42
0.0000001
 43
0.0000001
 44
0.0000000001
 40
0.0
 40
0.0
 40
0.0
 40
0.0
 40
0.2507420891
 40
0.5014470063
 40
1.0
 40
1.0
 40
1.0
 40
1.0
 10
47.0326780105
 20
22.4886947565
 30
0.0
 10
47.1123363165
 20
22.4175896122
 30
0.0
 10
47.2572640875
 20
22.2580984669
 30
0.0
 10
47.4741994452
 20
21.8894297264
 30
0.0
 10
47.5473121093
 20
21.5663278188
 30
0.0
 10
47.5496206505
 20
21.3540340431
 30
0.0
  0
LINE
  5
57E
100
AcDbEntity
  8
RACCORDO
100
AcDbLine
 62
250
  6
CONTINUOUS
 10
47.0326780105
 20
22.4886947565
 11
47.0313325176
 21
23.3819850352
  0
LINE
  5
57F
100
AcDbEntity
  8
RACCORDO
100
AcDbLine
 62
250
  6
CONTINUOUS
 10
47.0326780105
 20
-23.2118681453
 11
47.0313325176
 21
-24.1051584239
  0
SPLINE
  5
580
100
AcDbEntity
  8
RACCORDO
100
AcDbSpline
 62
250
  6
CONTINUOUS
 70
0
 71
3
 72
9
 73
5
 74
0
 42
0.0000001
 43
0.0000001
 44
0.0000000001
 40
0.0
 40
0.0
 40
0.0
 40
0.0
 40
0.2500732927
 40
1.0
 40
1.0
 40
1.0
 40
1.0
 10
47.5702016257
 20
-0.3615866926
 30
0.0
 10
47.5702009558
 20
-2.1717528847
 30
0.0
 10
47.5685141749
 20
-9.4102954289
 30
0.0
 10
47.5599130515
 20
-16.6488363274
 30
0.0
 10
47.5496206593
 20
-22.0772030164
 30
0.0
  0
SPLINE
  5
581
100
AcDbEntity
  8
RACCORDO
100
AcDbSpline
 62
250
  6
CONTINUOUS
 70
0
 71
3
 72
15
 73
11
 74
0
 42
0.0000001
 43
0.0000001
 44
0.0000000001
 40
0.0
 40
0.0
 40
0.0
 40
0.0
 40
0.1251347655
 40
0.2502893807
 40
0.3754049882
 40
0.5004452746
 40
0.6254025891
 40
0.7502932755
 40
0.8751475583
 40
1.0
 40
1.0
 40
1.0
 40
1.0
 10
-31.3431981374
 20
42.5111223873
 30
0.0
 10
-32.2290442555
 20
42.4105152431
 30
0.0
 10
-33.9878151809
 20
42.0641157757
 30
0.0
 10
-36.5039721374
 20
41.1244181667
 30
0.0
 10
-38.8348746867
 20
39.7899228485
 30
0.0
 10
-40.9181721586
 20
38.0972631426
 30
0.0
 10
-42.7002635845
 20
36.0921601514
 30
0.0
 10
-44.13590162
 20
33.8275003626
 30
0.0
 10
-45.1889756967
 20
31.3631774827
 30
0.0
 10
-45.6187188145
 20
29.6274204517
 30
0.0
 10
-45.762491612
 20
28.7495867668
 30
0.0
  0
SPLINE
  5
582
100
AcDbEntity
  8
RACCORDO
100
AcDbSpline
 62
250
  6
CONTINUOUS
 70
0
 71
3
 72
9
 73
5
 74
0
 42
0.0000001
 43
0.0000001
 44
0.0000000001
 40
0.0
 40
0.0
 40
0.0
 40
0.0
 40
0.2500732927
 40
1.0
 40
1.0
 40
1.0
 40
1.0
 10
-21.5827488746
 20
-0.3615866961
 30
0.0
 10
-21.5827482047
 20
1.4485794959
 30
0.0
 10
-21.5810614238
 20
8.6871220401
 30
0.0
 10
-21.5724603003
 20
15.9256629386
 30
0.0
 10
-21.5621679082
 20
21.3540296277
 30
0.0
  0
SPLINE
  5
583
100
AcDbEntity
  8
RACCORDO
100
AcDbSpline
 62
250
  6
CONTINUOUS
 70
0
 71
3
 72
9
 73
5
 74
0
 42
0.0000001
 43
0.0000001
 44
0.0000000001
 40
0.0
 40
0.0
 40
0.0
 40
0.0
 40
0.2498966327
 40
1.0
 40
1.0
 40
1.0
 40
1.0
 10
-21.5621678993
 20
-22.0772074318
 30
0.0
 10
-21.5655971505
 20
-20.2683228836
 30
0.0
 10
-21.5776343189
 20
-13.0297886786
 30
0.0
 10
-21.5827467639
 20
-5.7912430067
 30
0.0
 10
-21.5827488746
 20
-0.3615866961
 30
0.0
  0
SPLINE
  5
584
100
AcDbEntity
  8
RACCORDO
100
AcDbSpline
 62
250
  6
CONTINUOUS
 70
0
 71
3
 72
10
 73
6
 74
0
 42
0.0000001
 43
0.0000001
 44
0.0000000001
 40
0.0
 40
0.0
 40
0.0
 40
0.0
 40
0.2507420891
 40
0.5014470063
 40
1.0
 40
1.0
 40
1.0
 40
1.0
 10
-21.0452252594
 20
-23.2118681453
 30
0.0
 10
-21.1248835654
 20
-23.1407630009
 30
0.0
 10
-21.2698113364
 20
-22.9812718557
 30
0.0
 10
-21.486746694
 20
-22.6126031151
 30
0.0
 10
-21.5598593582
 20
-22.2895012076
 30
0.0
 10
-21.5621678993
 20
-22.0772074318
 30
0.0
  0
LINE
  5
585
100
AcDbEntity
  8
RACCORDO
100
AcDbLine
 62
250
  6
CONTINUOUS
 10
-21.0452252594
 20
-23.2118681453
 11
-21.0438797665
 21
-24.1051584239
  0
LINE
  5
586
100
AcDbEntity
  8
RACCORDO
100
AcDbLine
 62
250
  6
CONTINUOUS
 10
-21.0452252594
 20
22.4886947565
 11
-21.0438797665
 21
23.3819850352
  0
SPLINE
  5
587
100
AcDbEntity
  8
RACCORDO
100
AcDbSpline
 62
250
  6
CONTINUOUS
 70
0
 71
3
 72
9
 73
5
 74
0
 42
0.0000001
 43
0.0000001
 44
0.0000000001
 40
0.0
 40
0.0
 40
0.0
 40
0.0
 40
0.2498966327
 40
1.0
 40
1.0
 40
1.0
 40
1.0
 10
47.5496206505
 20
21.3540340431
 30
0.0
 10
47.5530499016
 20
19.5451494948
 30
0.0
 10
47.5650870701
 20
12.3066152898
 30
0.0
 10
47.570199515
 20
5.0680696179
 30
0.0
 10
47.5702016257
 20
-0.3615866926
 30
0.0
  0
SPLINE
  5
588
100
AcDbEntity
  8
RACCORDO
100
AcDbSpline
 62
250
  6
CONTINUOUS
 70
0
 71
3
 72
15
 73
11
 74
0
 42
0.0000001
 43
0.0000001
 44
0.0000000001
 40
0.0
 40
0.0
 40
0.0
 40
0.0
 40
0.1248524529
 40
0.2497067341
 40
0.3745974203
 40
0.4995547361
 40
0.6245950248
 40
0.7497106345
 40
0.874865249
 40
1.0
 40
1.0
 40
1.0
 40
1.0
 10
-45.762491612
 20
-29.4727601556
 30
0.0
 10
-45.6187198855
 20
-30.3505940972
 30
0.0
 10
-45.1889752818
 20
-32.0863509709
 30
0.0
 10
-44.1359016333
 20
-34.5506739434
 30
0.0
 10
-42.7002634673
 20
-36.8153337184
 30
0.0
 10
-40.9181720113
 20
-38.8204366811
 30
0.0
 10
-38.8348744587
 20
-40.5130963973
 30
0.0
 10
-36.5039718641
 20
-41.8475915482
 30
0.0
 10
-33.9878150002
 20
-42.7872896289
 30
0.0
 10
-32.2290440104
 20
-43.1336873909
 30
0.0
 10
-31.3431981374
 20
-43.2342957761
 30
0.0
  0
SPLINE
  5
589
100
AcDbEntity
  8
RACCORDO
100
AcDbSpline
 62
250
  6
CONTINUOUS
 70
0
 71
3
 72
14
 73
10
 74
0
 42
0.0000001
 43
0.0000001
 44
0.0000000001
 40
0.0
 40
0.0
 40
0.0
 40
0.0
 40
0.0280259358
 40
0.0856978524
 40
0.1725999176
 40
0.2877028979
 40
0.4297546008
 40
0.5971784121
 40
1.0
 40
1.0
 40
1.0
 40
1.0
 10
46.9637112638
 20
21.3384133056
 30
0.0
 10
46.9653226355
 20
21.3391537695
 30
0.0
 10
46.9708585829
 20
21.3396419452
 30
0.0
 10
46.9816181702
 20
21.340803931
 30
0.0
 10
46.9980858315
 20
21.3416159495
 30
0.0
 10
47.0198143087
 20
21.3425346382
 30
0.0
 10
47.0466780129
 20
21.3432982369
 30
0.0
 10
47.0917354172
 20
21.3442486427
 30
0.0
 10
47.1278188299
 20
21.3446356731
 30
0.0
 10
47.1533070619
 20
21.3448068135
 30
0.0
  0
SPLINE
  5
58A
100
AcDbEntity
  8
RACCORDO
100
AcDbSpline
 62
250
  6
CONTINUOUS
 70
0
 71
3
 72
14
 73
10
 74
0
 42
0.0000001
 43
0.0000001
 44
0.0000000001
 40
0.0
 40
0.0
 40
0.0
 40
0.0
 40
0.4028257799
 40
0.5702500294
 40
0.7123015984
 40
0.8274040302
 40
0.9143051693
 40
0.9719758162
 40
1.0
 40
1.0
 40
1.0
 40
1.0
 10
-21.1658266641
 20
21.344805926
 30
0.0
 10
-21.140341716
 20
21.3446348822
 30
0.0
 10
-21.1042630362
 20
21.3442479208
 30
0.0
 10
-21.0592116155
 20
21.3432979138
 30
0.0
 10
-21.0323516683
 20
21.3425344838
 30
0.0
 10
-21.0106263228
 20
21.3416155442
 30
0.0
 10
-20.9941611769
 20
21.3408032039
 30
0.0
 10
-20.9834032971
 20
21.3396413426
 30
0.0
 10
-20.9778683591
 20
21.3391534515
 30
0.0
 10
-20.9762572351
 20
21.3384133056
 30
0.0
  0
SPLINE
  5
58B
100
AcDbEntity
  8
RACCORDO
100
AcDbSpline
 62
250
  6
CONTINUOUS
 70
0
 71
3
 72
14
 73
10
 74
0
 42
0.0000001
 43
0.0000001
 44
0.0000000001
 40
0.0
 40
0.0
 40
0.0
 40
0.0
 40
0.4021656921
 40
0.5693507084
 40
0.7112401936
 40
0.8262845131
 40
0.9132620845
 40
0.9712113126
 40
1.0
 40
1.0
 40
1.0
 40
1.0
 10
-21.1658467746
 20
21.3445830556
 30
0.0
 10
-21.1403567443
 20
21.3438139099
 30
0.0
 10
-21.1042709303
 20
21.3425742988
 30
0.0
 10
-21.0592212551
 20
21.3405885636
 30
0.0
 10
-21.0323486668
 20
21.3391682925
 30
0.0
 10
-21.0106379541
 20
21.3376047834
 30
0.0
 10
-20.994111199
 20
21.3361764648
 30
0.0
 10
-20.9834218483
 20
21.3344327386
 30
0.0
 10
-20.9777448125
 20
21.3334908464
 30
0.0
 10
-20.9762657394
 20
21.3324208749
 30
0.0
  0
SPLINE
  5
58C
100
AcDbEntity
  8
RACCORDO
100
AcDbSpline
 62
250
  6
CONTINUOUS
 70
0
 71
3
 72
14
 73
10
 74
0
 42
0.0000001
 43
0.0000001
 44
0.0000000001
 40
0.0
 40
0.0
 40
0.0
 40
0.0
 40
0.4011471929
 40
0.5679881996
 40
0.7096631068
 40
0.8246374955
 40
0.9117339369
 40
0.9701016
 40
1.0
 40
1.0
 40
1.0
 40
1.0
 10
-21.1658538489
 20
-22.0673114899
 30
0.0
 10
-21.1403590465
 20
-22.0663906654
 30
0.0
 10
-21.104262515
 20
-22.0648629273
 30
0.0
 10
-21.0592199291
 20
-22.0621573176
 30
0.0
 10
-21.0323403647
 20
-22.0601577332
 30
0.0
 10
-21.0106354537
 20
-22.0580299481
 30
0.0
 10
-20.9940619951
 20
-22.0559920411
 30
0.0
 10
-20.983388592
 20
-22.0537354686
 30
0.0
 10
-20.9776203356
 20
-22.0522215275
 30
0.0
 10
-20.9762734527
 20
-22.0508793952
 30
0.0
  0
SPLINE
  5
58D
100
AcDbEntity
  8
RACCORDO
100
AcDbSpline
 62
250
  6
CONTINUOUS
 70
0
 71
3
 72
14
 73
10
 74
0
 42
0.0000001
 43
0.0000001
 44
0.0000000001
 40
0.0
 40
0.0
 40
0.0
 40
0.0
 40
0.4023548659
 40
0.5696133814
 40
0.7115565723
 40
0.8266203672
 40
0.9135740085
 40
0.9714392821
 40
1.0
 40
1.0
 40
1.0
 40
1.0
 10
-21.1657328108
 20
-22.0723746225
 30
0.0
 10
-21.140257234
 20
-22.0717693815
 30
0.0
 10
-21.1041911219
 20
-22.0707677128
 30
0.0
 10
-21.0591664889
 20
-22.0689869907
 30
0.0
 10
-21.0323130314
 20
-22.0676846293
 30
0.0
 10
-21.0106116329
 20
-22.0662622407
 30
0.0
 10
-20.9941092303
 20
-22.0649917058
 30
0.0
 10
-20.9834113246
 20
-22.0633894345
 30
0.0
 10
-20.9777718087
 20
-22.0625766634
 30
0.0
 10
-20.9762578873
 20
-22.0615866944
 30
0.0
  0
SPLINE
  5
58E
100
AcDbEntity
  8
RACCORDO
100
AcDbSpline
 62
250
  6
CONTINUOUS
 70
0
 71
3
 72
14
 73
10
 74
0
 42
0.0000001
 43
0.0000001
 44
0.0000000001
 40
0.0
 40
0.0
 40
0.0
 40
0.0
 40
0.0280283811
 40
0.0857012871
 40
0.172603054
 40
0.2877047873
 40
0.4297546681
 40
0.597176884
 40
1.0
 40
1.0
 40
1.0
 40
1.0
 10
46.9637058984
 20
-22.0615866944
 30
0.0
 10
46.9653171014
 20
-22.062328012
 30
0.0
 10
46.9708531963
 20
-22.0628188719
 30
0.0
 10
46.9816127983
 20
-22.0639852872
 30
0.0
 10
46.9980805976
 20
-22.0648033174
 30
0.0
 10
47.0198092276
 20
-22.0657275693
 30
0.0
 10
47.0466732878
 20
-22.0664947806
 30
0.0
 10
47.0917318031
 20
-22.067445842
 30
0.0
 10
47.1278163326
 20
-22.0678262489
 30
0.0
 10
47.1533054212
 20
-22.0679882635
 30
0.0
  0
SPLINE
  5
58F
100
AcDbEntity
  8
RACCORDO
100
AcDbSpline
 62
7
  6
CONTINUOUS
 70
0
 71
3
 72
9
 73
5
 74
0
 42
0.0000001
 43
0.0000001
 44
0.0000000001
 40
0.0
 40
0.0
 40
0.0
 40
0.0
 40
0.250073377
 40
1.0
 40
1.0
 40
1.0
 40
1.0
 10
-21.1864213193
 20
-0.3615866944
 30
0.0
 10
-21.1864238595
 20
1.4477843816
 30
0.0
 10
-21.1847154317
 20
8.6831449471
 30
0.0
 10
-21.1761574604
 20
15.9185039254
 30
0.0
 10
-21.1658531948
 20
21.3444837341
 30
0.0
  0
SPLINE
  5
590
100
AcDbEntity
  8
RACCORDO
100
AcDbSpline
 62
250
  6
CONTINUOUS
 70
0
 71
3
 72
9
 73
5
 74
0
 42
0.0000001
 43
0.0000001
 44
0.0000000001
 40
0.0
 40
0.0
 40
0.0
 40
0.0
 40
0.2623342527
 40
1.0
 40
1.0
 40
1.0
 40
1.0
 10
-21.5621760848
 20
-22.0727207231
 30
0.0
 10
-21.5275159507
 20
-22.0727050349
 30
0.0
 10
-21.3953953226
 20
-22.0722079946
 30
0.0
 10
-21.2632741043
 20
-22.0701613002
 30
0.0
 10
-21.1658538473
 20
-22.0673123183
 30
0.0
  0
SPLINE
  5
591
100
AcDbEntity
  8
RACCORDO
100
AcDbSpline
 62
7
  6
CONTINUOUS
 70
0
 71
3
 72
9
 73
5
 74
0
 42
0.0000001
 43
0.0000001
 44
0.0000000001
 40
0.0
 40
0.0
 40
0.0
 40
0.0
 40
0.24989679
 40
1.0
 40
1.0
 40
1.0
 40
1.0
 10
-21.1658538473
 20
-22.0673123183
 30
0.0
 10
-21.1692846418
 20
-20.2592508898
 30
0.0
 10
-21.1812914112
 20
-13.0240150154
 30
0.0
 10
-21.186429233
 20
-5.788767745
 30
0.0
 10
-21.1864213223
 20
-0.3615866944
 30
0.0
  0
LINE
  5
592
100
AcDbEntity
  8
RACCORDO
100
AcDbLine
 62
7
  6
CONTINUOUS
 10
-21.1657294834
 20
-22.0723745586
 11
-21.1658535101
 21
-22.0673122556
  0
SPLINE
  5
593
100
AcDbEntity
  8
RACCORDO
100
AcDbSpline
 62
250
  6
CONTINUOUS
 70
0
 71
3
 72
9
 73
5
 74
0
 42
0.0000001
 43
0.0000001
 44
0.0000000001
 40
0.0
 40
0.0
 40
0.0
 40
0.0
 40
0.2634097952
 40
1.0
 40
1.0
 40
1.0
 40
1.0
 10
-20.0782121387
 20
-23.6042132731
 30
0.0
 10
-20.0767066435
 20
-23.5671566818
 30
0.0
 10
-20.070651652
 20
-23.4264908316
 30
0.0
 10
-20.0634213215
 20
-23.2858715302
 30
0.0
 10
-20.0570315917
 20
-23.1823592832
 30
0.0
  0
SPLINE
  5
594
100
AcDbEntity
  8
RACCORDO
100
AcDbSpline
 62
7
  6
CONTINUOUS
 70
0
 71
3
 72
10
 73
6
 74
0
 42
0.0000001
 43
0.0000001
 44
0.0000000001
 40
0.0
 40
0.0
 40
0.0
 40
0.0
 40
0.2504437434
 40
0.500901659
 40
1.0
 40
1.0
 40
1.0
 40
1.0
 10
-20.0570315917
 20
-23.1823592832
 30
0.0
 10
-20.1221500267
 20
-23.181119057
 30
0.0
 10
-20.2523772057
 20
-23.1656332797
 30
0.0
 10
-20.5029120164
 20
-23.0933221709
 30
0.0
 10
-20.6745004089
 20
-22.9903390307
 30
0.0
 10
-20.7726136931
 20
-22.9053650427
 30
0.0
  0
LINE
  5
595
100
AcDbEntity
  8
RACCORDO
100
AcDbLine
 62
7
  6
CONTINUOUS
 10
-19.5203688073
 20
-23.1925132535
 11
-20.0562735955
 21
-23.1823760253
  0
SPLINE
  5
596
100
AcDbEntity
  8
RACCORDO
100
AcDbSpline
 62
250
  6
CONTINUOUS
 70
0
 71
3
 72
9
 73
5
 74
0
 42
0.0000001
 43
0.0000001
 44
0.0000000001
 40
0.0
 40
0.0
 40
0.0
 40
0.0
 40
0.2634096356
 40
1.0
 40
1.0
 40
1.0
 40
1.0
 10
46.0656648948
 20
-23.6042132805
 30
0.0
 10
46.064159412
 20
-23.5671569228
 30
0.0
 10
46.0581044638
 20
-23.4264918742
 30
0.0
 10
46.0508741739
 20
-23.2858733746
 30
0.0
 10
46.0444844886
 20
-23.1823616947
 30
0.0
  0
LINE
  5
597
100
AcDbEntity
  8
RACCORDO
100
AcDbLine
 62
7
  6
CONTINUOUS
 10
46.0437263756
 20
-23.1823760248
 11
45.5078215583
 21
-23.1925132535
  0
SPLINE
  5
598
100
AcDbEntity
  8
RACCORDO
100
AcDbSpline
 62
7
  6
CONTINUOUS
 70
0
 71
3
 72
10
 73
6
 74
0
 42
0.0000001
 43
0.0000001
 44
0.0000000001
 40
0.0
 40
0.0
 40
0.0
 40
0.0
 40
0.4990918078
 40
0.7495458886
 40
1.0
 40
1.0
 40
1.0
 40
1.0
 10
46.7600351394
 20
-22.9053296255
 30
0.0
 10
46.6620324055
 20
-22.9904256028
 30
0.0
 10
46.4903477397
 20
-23.0933126884
 30
0.0
 10
46.2398323855
 20
-23.1656138202
 30
0.0
 10
46.1096044012
 20
-23.1811193963
 30
0.0
 10
46.0444841589
 20
-23.1823562819
 30
0.0
  0
SPLINE
  5
599
100
AcDbEntity
  8
RACCORDO
100
AcDbSpline
 62
250
  6
CONTINUOUS
 70
0
 71
3
 72
9
 73
5
 74
0
 42
0.0000001
 43
0.0000001
 44
0.0000000001
 40
0.0
 40
0.0
 40
0.0
 40
0.0
 40
0.2623036793
 40
1.0
 40
1.0
 40
1.0
 40
1.0
 10
47.5495874136
 20
-22.0778757184
 30
0.0
 10
47.5149282402
 20
-22.0774348272
 30
0.0
 10
47.382801149
 20
-22.0753209971
 30
0.0
 10
47.250692446
 20
-22.0716702437
 30
0.0
 10
47.153292626
 20
-22.0676566339
 30
0.0
  0
SPLINE
  5
59A
100
AcDbEntity
  8
RACCORDO
100
AcDbSpline
 62
7
  6
CONTINUOUS
 70
0
 71
3
 72
11
 73
7
 74
0
 42
0.0000001
 43
0.0000001
 44
0.0000000001
 40
0.0
 40
0.0
 40
0.0
 40
0.0
 40
0.2499154598
 40
0.4998961474
 40
0.7499031917
 40
1.0
 40
1.0
 40
1.0
 40
1.0
 10
47.153292626
 20
-22.0676566339
 30
0.0
 10
47.1515637437
 20
-22.1468830056
 30
0.0
 10
47.131880429
 20
-22.3055284539
 30
0.0
 10
47.0532274235
 20
-22.5317234894
 30
0.0
 10
46.9294612595
 20
-22.7368199084
 30
0.0
 10
46.8199083635
 20
-22.8533284497
 30
0.0
 10
46.7600357275
 20
-22.9053302913
 30
0.0
  0
SPLINE
  5
59B
100
AcDbEntity
  8
RACCORDO
100
AcDbSpline
 62
7
  6
CONTINUOUS
 70
0
 71
3
 72
9
 73
5
 74
0
 42
0.0000001
 43
0.0000001
 44
0.0000000001
 40
0.0
 40
0.0
 40
0.0
 40
0.0
 40
0.2500733767
 40
1.0
 40
1.0
 40
1.0
 40
1.0
 10
47.1738740728
 20
-0.3615866944
 30
0.0
 10
47.1738767263
 20
-2.1709577689
 30
0.0
 10
47.1721733569
 20
-9.406318345
 30
0.0
 10
47.1635783626
 20
-16.6416772534
 30
0.0
 10
47.1533060494
 20
-22.0676571246
 30
0.0
  0
SPLINE
  5
59C
100
AcDbEntity
  8
RACCORDO
100
AcDbSpline
 62
250
  6
CONTINUOUS
 70
0
 71
3
 72
9
 73
5
 74
0
 42
0.0000001
 43
0.0000001
 44
0.0000000001
 40
0.0
 40
0.0
 40
0.0
 40
0.0
 40
0.2623342263
 40
1.0
 40
1.0
 40
1.0
 40
1.0
 10
47.5496288359
 20
21.3495473343
 30
0.0
 10
47.5149687238
 20
21.3495316461
 30
0.0
 10
47.3828481662
 20
21.3490346064
 30
0.0
 10
47.2507270184
 20
21.3469879141
 30
0.0
 10
47.1533068098
 20
21.3441389352
 30
0.0
  0
SPLINE
  5
59D
100
AcDbEntity
  8
RACCORDO
100
AcDbSpline
 62
7
  6
CONTINUOUS
 70
0
 71
3
 72
9
 73
5
 74
0
 42
0.0000001
 43
0.0000001
 44
0.0000000001
 40
0.0
 40
0.0
 40
0.0
 40
0.0
 40
0.2498967937
 40
1.0
 40
1.0
 40
1.0
 40
1.0
 10
47.1533068098
 20
21.3441389352
 30
0.0
 10
47.1567239928
 20
19.5360774535
 30
0.0
 10
47.1687574258
 20
12.3008416304
 30
0.0
 10
47.1738803344
 20
5.0655943298
 30
0.0
 10
47.1738740616
 20
-0.3615866944
 30
0.0
  0
SPLINE
  5
59E
100
AcDbEntity
  8
RACCORDO
100
AcDbSpline
 62
7
  6
CONTINUOUS
 70
0
 71
3
 72
13
 73
9
 74
0
 42
0.0000001
 43
0.0000001
 44
0.0000000001
 40
0.0
 40
0.0
 40
0.0
 40
0.0
 40
0.2499097084
 40
0.375027294
 40
0.5001398677
 40
0.6251883166
 40
0.7502492609
 40
1.0
 40
1.0
 40
1.0
 40
1.0
 10
46.7599703944
 20
22.1820831521
 30
0.0
 10
46.8199425414
 20
22.1301593198
 30
0.0
 10
46.9024843076
 20
22.042759647
 30
0.0
 10
46.9912268785
 20
21.9108707404
 30
0.0
 10
47.0476572526
 20
21.8057252019
 30
0.0
 10
47.0928307005
 20
21.6952549391
 30
0.0
 10
47.136661678
 20
21.5425416971
 30
0.0
 10
47.1515336731
 20
21.4233954948
 30
0.0
 10
47.1533203347
 20
21.3441392809
 30
0.0
  0
SPLINE
  5
59F
100
AcDbEntity
  8
RACCORDO
100
AcDbSpline
 62
250
  6
CONTINUOUS
 70
0
 71
3
 72
9
 73
5
 74
0
 42
0.0000001
 43
0.0000001
 44
0.0000000001
 40
0.0
 40
0.0
 40
0.0
 40
0.0
 40
0.2634103068
 40
1.0
 40
1.0
 40
1.0
 40
1.0
 10
46.0656648897
 20
22.8810398842
 30
0.0
 10
46.0641593691
 20
22.8439826766
 30
0.0
 10
46.0581042815
 20
22.7033147603
 30
0.0
 10
46.0508738259
 20
22.5626933938
 30
0.0
 10
46.0444839605
 20
22.4591797008
 30
0.0
  0
SPLINE
  5
5A0
100
AcDbEntity
  8
RACCORDO
100
AcDbSpline
 62
7
  6
CONTINUOUS
 70
0
 71
3
 72
11
 73
7
 74
0
 42
0.0000001
 43
0.0000001
 44
0.0000000001
 40
0.0
 40
0.0
 40
0.0
 40
0.0
 40
0.2500053751
 40
0.4999863419
 40
0.7500030454
 40
1.0
 40
1.0
 40
1.0
 40
1.0
 10
46.0444839605
 20
22.4591797008
 30
0.0
 10
46.1096068127
 20
22.4579481982
 30
0.0
 10
46.2397695015
 20
22.4424832722
 30
0.0
 10
46.4282929285
 20
22.3879810366
 30
0.0
 10
46.6046573383
 20
22.3016244868
 30
0.0
 10
46.7107231641
 20
22.224708591
 30
0.0
 10
46.759969877
 20
22.1820825663
 30
0.0
  0
LINE
  5
5A1
100
AcDbEntity
  8
RACCORDO
100
AcDbLine
 62
7
  6
CONTINUOUS
 10
45.5078215586
 20
22.4693398647
 11
46.0437263496
 21
22.4592026365
  0
SPLINE
  5
5A2
100
AcDbEntity
  8
RACCORDO
100
AcDbSpline
 62
250
  6
CONTINUOUS
 70
0
 71
3
 72
9
 73
5
 74
0
 42
0.0000001
 43
0.0000001
 44
0.0000000001
 40
0.0
 40
0.0
 40
0.0
 40
0.0
 40
0.2634096328
 40
1.0
 40
1.0
 40
1.0
 40
1.0
 10
-20.0782121437
 20
22.8810398917
 30
0.0
 10
-20.0767066609
 20
22.8439835344
 30
0.0
 10
-20.0706517127
 20
22.7033184858
 30
0.0
 10
-20.0634214228
 20
22.5626999862
 30
0.0
 10
-20.0570317374
 20
22.4591883059
 30
0.0
  0
LINE
  5
5A3
100
AcDbEntity
  8
RACCORDO
100
AcDbLine
 62
7
  6
CONTINUOUS
 10
-20.0562736245
 20
22.459202636
 11
-19.5203688076
 21
22.4693398647
  0
SPLINE
  5
5A4
100
AcDbEntity
  8
RACCORDO
100
AcDbSpline
 62
7
  6
CONTINUOUS
 70
0
 71
3
 72
10
 73
6
 74
0
 42
0.0000001
 43
0.0000001
 44
0.0000000001
 40
0.0
 40
0.0
 40
0.0
 40
0.0
 40
0.4990975533
 40
0.7495552997
 40
1.0
 40
1.0
 40
1.0
 40
1.0
 10
-20.7726156255
 20
22.1821937886
 30
0.0
 10
-20.6745139944
 20
22.2671809599
 30
0.0
 10
-20.5029075318
 20
22.370138928
 30
0.0
 10
-20.2523788672
 20
22.4424638253
 30
0.0
 10
-20.1221503064
 20
22.4579452035
 30
0.0
 10
-20.057031628
 20
22.45918646
 30
0.0
  0
SPLINE
  5
5A5
100
AcDbEntity
  8
RACCORDO
100
AcDbSpline
 62
250
  6
CONTINUOUS
 70
0
 71
3
 72
9
 73
5
 74
0
 42
0.0000001
 43
0.0000001
 44
0.0000000001
 40
0.0
 40
0.0
 40
0.0
 40
0.0
 40
0.2623042367
 40
1.0
 40
1.0
 40
1.0
 40
1.0
 10
-21.5621346625
 20
21.3547023296
 30
0.0
 10
-21.5274747838
 20
21.3542614295
 30
0.0
 10
-21.3953452847
 20
21.3521475513
 30
0.0
 10
-21.2632341741
 20
21.3484966986
 30
0.0
 10
-21.1658326556
 20
21.3444829475
 30
0.0
  0
SPLINE
  5
5A6
100
AcDbEntity
  8
RACCORDO
100
AcDbSpline
 62
250
  6
CONTINUOUS
 70
0
 71
3
 72
15
 73
11
 74
0
 42
0.0000001
 43
0.0000001
 44
0.0000000001
 40
0.0
 40
0.0
 40
0.0
 40
0.0
 40
0.3814417163
 40
0.5496945132
 40
0.6965530825
 40
0.8179723678
 40
0.9104955019
 40
0.9716272629
 40
0.9899228901
 40
1.0
 40
1.0
 40
1.0
 40
1.0
 10
57.3306508889
 20
-43.2342957774
 30
0.0
 10
57.3340185243
 20
-43.2655278804
 30
0.0
 10
57.3386543299
 20
-43.310559813
 30
0.0
 10
57.3439561469
 20
-43.3676805103
 30
0.0
 10
57.3469706934
 20
-43.4034995612
 30
0.0
 10
57.349164832
 20
-43.4331458033
 30
0.0
 10
57.3503787182
 20
-43.4557366242
 30
0.0
 10
57.3508662152
 20
-43.4699500834
 30
0.0
 10
57.3504912754
 20
-43.4772630541
 30
0.0
 10
57.350242756
 20
-43.4796399823
 30
0.0
 10
57.3499062545
 20
-43.4803985861
 30
0.0
  0
SPLINE
  5
5A7
100
AcDbEntity
  8
RACCORDO
100
AcDbSpline
 62
250
  6
CONTINUOUS
 70
0
 71
3
 72
15
 73
11
 74
0
 42
0.0000001
 43
0.0000001
 44
0.0000000001
 40
0.0
 40
0.0
 40
0.0
 40
0.0
 40
0.3814929392
 40
0.54975004
 40
0.6966044421
 40
0.8180147995
 40
0.9105271489
 40
0.9716472646
 40
0.9899354249
 40
1.0
 40
1.0
 40
1.0
 40
1.0
 10
52.3477293098
 20
-43.6787823669
 30
0.0
 10
52.3495901277
 20
-43.7101183142
 30
0.0
 10
52.3520569065
 20
-43.7552877086
 30
0.0
 10
52.3546168345
 20
-43.8125530624
 30
0.0
 10
52.3559168177
 20
-43.8484445744
 30
0.0
 10
52.3566970229
 20
-43.8781346145
 30
0.0
 10
52.3568401594
 20
-43.9007366763
 30
0.0
 10
52.3566598935
 20
-43.9149418274
 30
0.0
 10
52.3559498609
 20
-43.9222220243
 30
0.0
 10
52.3555960373
 20
-43.924580778
 30
0.0
 10
52.355228922
 20
-43.9253231266
 30
0.0
  0
SPLINE
  5
5A8
100
AcDbEntity
  8
RACCORDO
100
AcDbSpline
 62
250
  6
CONTINUOUS
 70
0
 71
3
 72
14
 73
10
 74
0
 42
0.0000001
 43
0.0000001
 44
0.0000000001
 40
0.0
 40
0.0
 40
0.0
 40
0.0
 40
0.3818193769
 40
0.5501726919
 40
0.6970821896
 40
0.8185064829
 40
0.9109859098
 40
0.9720030533
 40
1.0
 40
1.0
 40
1.0
 40
1.0
 10
46.9586714172
 20
-44.0052873202
 30
0.0
 10
46.9603030163
 20
-44.0365908474
 30
0.0
 10
46.9625038093
 20
-44.0817074768
 30
0.0
 10
46.9648541951
 20
-44.1388819893
 30
0.0
 10
46.9661515251
 20
-44.1747217489
 30
0.0
 10
46.9668726386
 20
-44.2043006635
 30
0.0
 10
46.9674318801
 20
-44.2269482175
 30
0.0
 10
46.9668988338
 20
-44.2416907789
 30
0.0
 10
46.9670556856
 20
-44.2491964309
 30
0.0
 10
46.9662801617
 20
-44.2513600936
 30
0.0
  0
SPLINE
  5
5A9
100
AcDbEntity
  8
RACCORDO
100
AcDbSpline
 62
250
  6
CONTINUOUS
 70
0
 71
3
 72
14
 73
10
 74
0
 42
0.0000001
 43
0.0000001
 44
0.0000000001
 40
0.0
 40
0.0
 40
0.0
 40
0.0
 40
0.3818193782
 40
0.5501726932
 40
0.6970821907
 40
0.8185064837
 40
0.9109859103
 40
0.9720030535
 40
1.0
 40
1.0
 40
1.0
 40
1.0
 10
-20.971218666
 20
-44.00528732
 30
0.0
 10
-20.9728502651
 20
-44.0365908466
 30
0.0
 10
-20.975051058
 20
-44.0817074751
 30
0.0
 10
-20.9774014437
 20
-44.1388819864
 30
0.0
 10
-20.9786987737
 20
-44.1747217452
 30
0.0
 10
-20.9794198871
 20
-44.204300659
 30
0.0
 10
-20.9799791286
 20
-44.2269482124
 30
0.0
 10
-20.9794460823
 20
-44.2416907734
 30
0.0
 10
-20.9796029341
 20
-44.2491964252
 30
0.0
 10
-20.9788274102
 20
-44.2513600878
 30
0.0
  0
SPLINE
  5
5AA
100
AcDbEntity
  8
RACCORDO
100
AcDbSpline
 62
250
  6
CONTINUOUS
 70
0
 71
3
 72
15
 73
11
 74
0
 42
0.0000001
 43
0.0000001
 44
0.0000000001
 40
0.0
 40
0.0
 40
0.0
 40
0.0
 40
0.381492938
 40
0.5497500386
 40
0.6966044407
 40
0.8180147982
 40
0.9105271479
 40
0.9716472641
 40
0.9899354246
 40
1.0
 40
1.0
 40
1.0
 40
1.0
 10
-26.3602765586
 20
-43.6787823668
 30
0.0
 10
-26.3621373766
 20
-43.7101183142
 30
0.0
 10
-26.3646041554
 20
-43.7552877089
 30
0.0
 10
-26.3671640834
 20
-43.812553063
 30
0.0
 10
-26.3684640667
 20
-43.8484445752
 30
0.0
 10
-26.3692442718
 20
-43.8781346156
 30
0.0
 10
-26.3693874083
 20
-43.9007366776
 30
0.0
 10
-26.3692071425
 20
-43.9149418289
 30
0.0
 10
-26.3684971099
 20
-43.922222026
 30
0.0
 10
-26.3681432862
 20
-43.9245807798
 30
0.0
 10
-26.367776171
 20
-43.9253231284
 30
0.0
  0
SPLINE
  5
5AB
100
AcDbEntity
  8
RACCORDO
100
AcDbSpline
 62
250
  6
CONTINUOUS
 70
0
 71
3
 72
15
 73
11
 74
0
 42
0.0000001
 43
0.0000001
 44
0.0000000001
 40
0.0
 40
0.0
 40
0.0
 40
0.0
 40
0.3814414989
 40
0.5496942642
 40
0.6965528408
 40
0.8179721631
 40
0.9104953552
 40
0.9716271873
 40
0.9899228526
 40
1.0
 40
1.0
 40
1.0
 40
1.0
 10
-31.3431981374
 20
-43.2342957762
 30
0.0
 10
-31.3465657806
 20
-43.2655279328
 30
0.0
 10
-31.3512015973
 20
-43.3105599482
 30
0.0
 10
-31.3565034283
 20
-43.3676807563
 30
0.0
 10
-31.3595179846
 20
-43.4034998904
 30
0.0
 10
-31.3617121313
 20
-43.4331462085
 30
0.0
 10
-31.3629260245
 20
-43.4557370953
 30
0.0
 10
-31.3634135247
 20
-43.4699505997
 30
0.0
 10
-31.3630385881
 20
-43.4772636005
 30
0.0
 10
-31.3627900687
 20
-43.4796405395
 30
0.0
 10
-31.3624535682
 20
-43.4803991492
 30
0.0
  0
SPLINE
  5
5AC
100
AcDbEntity
  8
RACCORDO
100
AcDbSpline
 62
250
  6
CONTINUOUS
 70
0
 71
3
 72
15
 73
11
 74
0
 42
0.0000001
 43
0.0000001
 44
0.0000000001
 40
0.0
 40
0.0
 40
0.0
 40
0.0
 40
0.3744589231
 40
0.5421670913
 40
0.6896540895
 40
0.8123547652
 40
0.9063980945
 40
0.969124565
 40
0.9883964594
 40
1.0
 40
1.0
 40
1.0
 40
1.0
 10
-45.7624916058
 20
-29.4727601489
 30
0.0
 10
-45.7963841004
 20
-29.478105284
 30
0.0
 10
-45.8455477275
 20
-29.4852824925
 30
0.0
 10
-45.9082732144
 20
-29.4930029908
 30
0.0
 10
-45.9481741338
 20
-29.4971651471
 30
0.0
 10
-45.9814708863
 20
-29.4998559351
 30
0.0
 10
-46.0070005922
 20
-29.5009173907
 30
0.0
 10
-46.0232662276
 20
-29.5007085285
 30
0.0
 10
-46.0316527868
 20
-29.4993333315
 30
0.0
 10
-46.034445306
 20
-29.4983451469
 30
0.0
 10
-46.0352164028
 20
-29.4976131259
 30
0.0
  0
SPLINE
  5
5AD
100
AcDbEntity
  8
RACCORDO
100
AcDbSpline
 62
250
  6
CONTINUOUS
 70
0
 71
3
 72
16
 73
12
 74
0
 42
0.0000001
 43
0.0000001
 44
0.0000000001
 40
0.0
 40
0.0
 40
0.0
 40
0.0
 40
0.3752285958
 40
0.5434035471
 40
0.6913004109
 40
0.8142654718
 40
0.9083208399
 40
0.9435924731
 40
0.970646798
 40
0.9893969985
 40
1.0
 40
1.0
 40
1.0
 40
1.0
 10
-46.2835916381
 20
-25.4939429664
 30
0.0
 10
-46.3179446334
 20
-25.4971900661
 30
0.0
 10
-46.3677353241
 20
-25.501490433
 30
0.0
 10
-46.4311509459
 20
-25.5059495103
 30
0.0
 10
-46.4714623974
 20
-25.5082660028
 30
0.0
 10
-46.5049886177
 20
-25.5096073466
 30
0.0
 10
-46.52820588
 20
-25.5099717684
 30
0.0
 10
-46.5425665091
 20
-25.5096111025
 30
0.0
 10
-46.550043921
 20
-25.5091479023
 30
0.0
 10
-46.5551173379
 20
-25.5084174234
 30
0.0
 10
-46.5578418309
 20
-25.5077367323
 30
0.0
 10
-46.5586171274
 20
-25.5071454229
 30
0.0
  0
SPLINE
  5
5AE
100
AcDbEntity
  8
RACCORDO
100
AcDbSpline
 62
250
  6
CONTINUOUS
 70
0
 71
3
 72
16
 73
12
 74
0
 42
0.0000001
 43
0.0000001
 44
0.0000000001
 40
0.0
 40
0.0
 40
0.0
 40
0.0
 40
0.3755541187
 40
0.5438812595
 40
0.6918987487
 40
0.8149322453
 40
0.9089764585
 40
0.9441974546
 40
0.9711556201
 40
0.9897351551
 40
1.0
 40
1.0
 40
1.0
 40
1.0
 10
-46.4167204256
 20
-24.1051584239
 30
0.0
 10
-46.4511132226
 20
-24.1082571923
 30
0.0
 10
-46.5009531595
 20
-24.112413228
 30
0.0
 10
-46.5644169015
 20
-24.1168658847
 30
0.0
 10
-46.6047492726
 20
-24.1192694184
 30
0.0
 10
-46.6382809264
 20
-24.1207829099
 30
0.0
 10
-46.6614883243
 20
-24.1213701751
 30
0.0
 10
-46.675837771
 20
-24.1212417495
 30
0.0
 10
-46.6832897751
 20
-24.1209607409
 30
0.0
 10
-46.6883346474
 20
-24.1204009887
 30
0.0
 10
-46.6910321319
 20
-24.1199058061
 30
0.0
 10
-46.6918311271
 20
-24.1194033524
 30
0.0
  0
SPLINE
  5
5AF
100
AcDbEntity
  8
RACCORDO
100
AcDbSpline
 62
250
  6
CONTINUOUS
 70
0
 71
3
 72
16
 73
12
 74
0
 42
0.0000001
 43
0.0000001
 44
0.0000000001
 40
0.0
 40
0.0
 40
0.0
 40
0.0
 40
0.3755541165
 40
0.5438812544
 40
0.6918987411
 40
0.8149322363
 40
0.9089764501
 40
0.9441974473
 40
0.9711556147
 40
0.9897351521
 40
1.0
 40
1.0
 40
1.0
 40
1.0
 10
-46.4167204245
 20
23.3819850345
 30
0.0
 10
-46.4511132178
 20
23.3850838024
 30
0.0
 10
-46.5009531491
 20
23.3892398375
 30
0.0
 10
-46.5644168839
 20
23.3936924934
 30
0.0
 10
-46.6047492502
 20
23.3960960268
 30
0.0
 10
-46.6382809003
 20
23.3976095181
 30
0.0
 10
-46.6614882958
 20
23.3981967832
 30
0.0
 10
-46.6758377413
 20
23.3980683576
 30
0.0
 10
-46.6832897452
 20
23.397787349
 30
0.0
 10
-46.6883346177
 20
23.397227597
 30
0.0
 10
-46.6910321023
 20
23.3967324143
 30
0.0
 10
-46.6918310978
 20
23.3962299609
 30
0.0
  0
SPLINE
  5
5B0
100
AcDbEntity
  8
RACCORDO
100
AcDbSpline
 62
250
  6
CONTINUOUS
 70
0
 71
3
 72
16
 73
12
 74
0
 42
0.0000001
 43
0.0000001
 44
0.0000000001
 40
0.0
 40
0.0
 40
0.0
 40
0.0
 40
0.3752285967
 40
0.5434035487
 40
0.6913004131
 40
0.8142654742
 40
0.9083208421
 40
0.943592475
 40
0.9706467994
 40
0.9893969993
 40
1.0
 40
1.0
 40
1.0
 40
1.0
 10
-46.2835916383
 20
24.7707695778
 30
0.0
 10
-46.3179446345
 20
24.7740166776
 30
0.0
 10
-46.3677353263
 20
24.7783170447
 30
0.0
 10
-46.4311509497
 20
24.7827761221
 30
0.0
 10
-46.4714624021
 20
24.7850926147
 30
0.0
 10
-46.5049886231
 20
24.7864339585
 30
0.0
 10
-46.5282058859
 20
24.7867983803
 30
0.0
 10
-46.5425665151
 20
24.7864377145
 30
0.0
 10
-46.5500439271
 20
24.7859745142
 30
0.0
 10
-46.5551173439
 20
24.7852440352
 30
0.0
 10
-46.5578418369
 20
24.7845633441
 30
0.0
 10
-46.5586171333
 20
24.7839720347
 30
0.0
  0
SPLINE
  5
5B1
100
AcDbEntity
  8
RACCORDO
100
AcDbSpline
 62
250
  6
CONTINUOUS
 70
0
 71
3
 72
15
 73
11
 74
0
 42
0.0000001
 43
0.0000001
 44
0.0000000001
 40
0.0
 40
0.0
 40
0.0
 40
0.0
 40
0.3744588193
 40
0.5421669924
 40
0.6896540154
 40
0.8123547233
 40
0.9063980811
 40
0.9691245678
 40
0.9883964634
 40
1.0
 40
1.0
 40
1.0
 40
1.0
 10
-45.7624916117
 20
28.7495867665
 30
0.0
 10
-45.7963841619
 20
28.7549319148
 30
0.0
 10
-45.8455478747
 20
28.7621091412
 30
0.0
 10
-45.9082734757
 20
28.7698296608
 30
0.0
 10
-45.9481744776
 20
28.7739918305
 30
0.0
 10
-45.9814713021
 20
28.7766826288
 30
0.0
 10
-46.0070010643
 20
28.7777440908
 30
0.0
 10
-46.0232667357
 20
28.7775352316
 30
0.0
 10
-46.0316533125
 20
28.776160034
 30
0.0
 10
-46.0344458375
 20
28.7751718486
 30
0.0
 10
-46.0352169354
 20
28.7744398265
 30
0.0
  0
SPLINE
  5
5B2
100
AcDbEntity
  8
RACCORDO
100
AcDbSpline
 62
250
  6
CONTINUOUS
 70
0
 71
3
 72
15
 73
11
 74
0
 42
0.0000001
 43
0.0000001
 44
0.0000000001
 40
0.0
 40
0.0
 40
0.0
 40
0.0
 40
0.3814417163
 40
0.5496945132
 40
0.6965530825
 40
0.8179723678
 40
0.9104955019
 40
0.9716272629
 40
0.9899228901
 40
1.0
 40
1.0
 40
1.0
 40
1.0
 10
-31.3431981378
 20
42.5111223886
 30
0.0
 10
-31.3465657732
 20
42.5423544916
 30
0.0
 10
-31.3512015788
 20
42.5873864243
 30
0.0
 10
-31.3565033958
 20
42.6445071215
 30
0.0
 10
-31.3595179423
 20
42.6803261724
 30
0.0
 10
-31.3617120809
 20
42.7099724146
 30
0.0
 10
-31.362925967
 20
42.7325632355
 30
0.0
 10
-31.363413464
 20
42.7467766946
 30
0.0
 10
-31.3630385243
 20
42.7540896653
 30
0.0
 10
-31.3627900049
 20
42.7564665935
 30
0.0
 10
-31.3624535034
 20
42.7572251973
 30
0.0
  0
SPLINE
  5
5B3
100
AcDbEntity
  8
RACCORDO
100
AcDbSpline
 62
250
  6
CONTINUOUS
 70
0
 71
3
 72
15
 73
11
 74
0
 42
0.0000001
 43
0.0000001
 44
0.0000000001
 40
0.0
 40
0.0
 40
0.0
 40
0.0
 40
0.3814929392
 40
0.54975004
 40
0.6966044421
 40
0.8180147995
 40
0.9105271489
 40
0.9716472646
 40
0.9899354249
 40
1.0
 40
1.0
 40
1.0
 40
1.0
 10
-26.3602765586
 20
42.9556089782
 30
0.0
 10
-26.3621373766
 20
42.9869449254
 30
0.0
 10
-26.3646041554
 20
43.0321143198
 30
0.0
 10
-26.3671640834
 20
43.0893796737
 30
0.0
 10
-26.3684640666
 20
43.1252711856
 30
0.0
 10
-26.3692442718
 20
43.1549612257
 30
0.0
 10
-26.3693874082
 20
43.1775632875
 30
0.0
 10
-26.3692071424
 20
43.1917684386
 30
0.0
 10
-26.3684971098
 20
43.1990486355
 30
0.0
 10
-26.3681432861
 20
43.2014073893
 30
0.0
 10
-26.3677761709
 20
43.2021497378
 30
0.0
  0
SPLINE
  5
5B4
100
AcDbEntity
  8
RACCORDO
100
AcDbSpline
 62
250
  6
CONTINUOUS
 70
0
 71
3
 72
14
 73
10
 74
0
 42
0.0000001
 43
0.0000001
 44
0.0000000001
 40
0.0
 40
0.0
 40
0.0
 40
0.0
 40
0.3818193769
 40
0.5501726919
 40
0.6970821896
 40
0.8185064829
 40
0.9109859098
 40
0.9720030533
 40
1.0
 40
1.0
 40
1.0
 40
1.0
 10
-20.9712186661
 20
43.2821139314
 30
0.0
 10
-20.9728502651
 20
43.3134174586
 30
0.0
 10
-20.9750510581
 20
43.358534088
 30
0.0
 10
-20.9774014439
 20
43.4157086005
 30
0.0
 10
-20.9786987739
 20
43.4515483602
 30
0.0
 10
-20.9794198874
 20
43.4811272748
 30
0.0
 10
-20.979979129
 20
43.5037748287
 30
0.0
 10
-20.9794460826
 20
43.5185173901
 30
0.0
 10
-20.9796029345
 20
43.5260230422
 30
0.0
 10
-20.9788274105
 20
43.5281867048
 30
0.0
  0
SPLINE
  5
5B5
100
AcDbEntity
  8
RACCORDO
100
AcDbSpline
 62
250
  6
CONTINUOUS
 70
0
 71
3
 72
14
 73
10
 74
0
 42
0.0000001
 43
0.0000001
 44
0.0000000001
 40
0.0
 40
0.0
 40
0.0
 40
0.0
 40
0.3818193785
 40
0.5501726935
 40
0.697082191
 40
0.818506484
 40
0.9109859105
 40
0.9720030536
 40
1.0
 40
1.0
 40
1.0
 40
1.0
 10
46.9586714172
 20
43.2821139312
 30
0.0
 10
46.9603030162
 20
43.3134174578
 30
0.0
 10
46.9625038091
 20
43.3585340862
 30
0.0
 10
46.9648541948
 20
43.4157085974
 30
0.0
 10
46.9661515248
 20
43.4515483561
 30
0.0
 10
46.9668726382
 20
43.4811272699
 30
0.0
 10
46.9674318797
 20
43.5037748231
 30
0.0
 10
46.9668988334
 20
43.5185173841
 30
0.0
 10
46.9670556852
 20
43.5260230359
 30
0.0
 10
46.9662801613
 20
43.5281866985
 30
0.0
  0
SPLINE
  5
5B6
100
AcDbEntity
  8
RACCORDO
100
AcDbSpline
 62
250
  6
CONTINUOUS
 70
0
 71
3
 72
15
 73
11
 74
0
 42
0.0000001
 43
0.0000001
 44
0.0000000001
 40
0.0
 40
0.0
 40
0.0
 40
0.0
 40
0.381492938
 40
0.5497500386
 40
0.6966044407
 40
0.8180147982
 40
0.9105271479
 40
0.9716472641
 40
0.9899354246
 40
1.0
 40
1.0
 40
1.0
 40
1.0
 10
52.3477293097
 20
42.9556089781
 30
0.0
 10
52.3495901277
 20
42.9869449255
 30
0.0
 10
52.3520569066
 20
43.0321143201
 30
0.0
 10
52.3546168346
 20
43.0893796742
 30
0.0
 10
52.3559168178
 20
43.1252711864
 30
0.0
 10
52.356697023
 20
43.1549612268
 30
0.0
 10
52.3568401595
 20
43.1775632889
 30
0.0
 10
52.3566598936
 20
43.1917684401
 30
0.0
 10
52.355949861
 20
43.1990486372
 30
0.0
 10
52.3555960374
 20
43.201407391
 30
0.0
 10
52.3552289221
 20
43.2021497396
 30
0.0
  0
SPLINE
  5
5B7
100
AcDbEntity
  8
RACCORDO
100
AcDbSpline
 62
250
  6
CONTINUOUS
 70
0
 71
3
 72
15
 73
11
 74
0
 42
0.0000001
 43
0.0000001
 44
0.0000000001
 40
0.0
 40
0.0
 40
0.0
 40
0.0
 40
0.3814414989
 40
0.5496942642
 40
0.6965528408
 40
0.8179721631
 40
0.9104953552
 40
0.9716271873
 40
0.9899228526
 40
1.0
 40
1.0
 40
1.0
 40
1.0
 10
57.3306508885
 20
42.5111223874
 30
0.0
 10
57.3340185317
 20
42.542354544
 30
0.0
 10
57.3386543484
 20
42.5873865594
 30
0.0
 10
57.3439561794
 20
42.6445073675
 30
0.0
 10
57.3469707357
 20
42.6803265016
 30
0.0
 10
57.3491648824
 20
42.7099728197
 30
0.0
 10
57.3503787756
 20
42.7325637066
 30
0.0
 10
57.3508662759
 20
42.7467772109
 30
0.0
 10
57.3504913392
 20
42.7540902117
 30
0.0
 10
57.3502428199
 20
42.7564671507
 30
0.0
 10
57.3499063193
 20
42.7572257604
 30
0.0
  0
SPLINE
  5
5B8
100
AcDbEntity
  8
RACCORDO
100
AcDbSpline
 62
250
  6
CONTINUOUS
 70
0
 71
3
 72
15
 73
11
 74
0
 42
0.0000001
 43
0.0000001
 44
0.0000000001
 40
0.0
 40
0.0
 40
0.0
 40
0.0
 40
0.3744589231
 40
0.5421670913
 40
0.6896540895
 40
0.8123547652
 40
0.9063980945
 40
0.969124565
 40
0.9883964594
 40
1.0
 40
1.0
 40
1.0
 40
1.0
 10
71.749944357
 20
28.7495867601
 30
0.0
 10
71.7838368515
 20
28.7549318953
 30
0.0
 10
71.8330004787
 20
28.7621091037
 30
0.0
 10
71.8957259656
 20
28.769829602
 30
0.0
 10
71.9356268849
 20
28.7739917583
 30
0.0
 10
71.9689236374
 20
28.7766825463
 30
0.0
 10
71.9944533434
 20
28.777744002
 30
0.0
 10
72.0107189788
 20
28.7775351397
 30
0.0
 10
72.0191055379
 20
28.7761599427
 30
0.0
 10
72.0218980572
 20
28.7751717581
 30
0.0
 10
72.0226691539
 20
28.7744397372
 30
0.0
  0
SPLINE
  5
5B9
100
AcDbEntity
  8
RACCORDO
100
AcDbSpline
 62
250
  6
CONTINUOUS
 70
0
 71
3
 72
16
 73
12
 74
0
 42
0.0000001
 43
0.0000001
 44
0.0000000001
 40
0.0
 40
0.0
 40
0.0
 40
0.0
 40
0.3752285958
 40
0.5434035471
 40
0.6913004109
 40
0.8142654718
 40
0.9083208399
 40
0.9435924731
 40
0.970646798
 40
0.9893969985
 40
1.0
 40
1.0
 40
1.0
 40
1.0
 10
72.2710443892
 20
24.7707695776
 30
0.0
 10
72.3053973845
 20
24.7740166773
 30
0.0
 10
72.3551880752
 20
24.7783170442
 30
0.0
 10
72.418603697
 20
24.7827761215
 30
0.0
 10
72.4589151485
 20
24.785092614
 30
0.0
 10
72.4924413688
 20
24.7864339578
 30
0.0
 10
72.5156586311
 20
24.7867983796
 30
0.0
 10
72.5300192602
 20
24.7864377138
 30
0.0
 10
72.5374966721
 20
24.7859745135
 30
0.0
 10
72.542570089
 20
24.7852440346
 30
0.0
 10
72.545294582
 20
24.7845633435
 30
0.0
 10
72.5460698786
 20
24.7839720341
 30
0.0
  0
SPLINE
  5
5BA
100
AcDbEntity
  8
RACCORDO
100
AcDbSpline
 62
250
  6
CONTINUOUS
 70
0
 71
3
 72
16
 73
12
 74
0
 42
0.0000001
 43
0.0000001
 44
0.0000000001
 40
0.0
 40
0.0
 40
0.0
 40
0.0
 40
0.3755541187
 40
0.5438812595
 40
0.6918987487
 40
0.8149322453
 40
0.9089764585
 40
0.9441974546
 40
0.9711556201
 40
0.9897351551
 40
1.0
 40
1.0
 40
1.0
 40
1.0
 10
72.4041731768
 20
23.3819850352
 30
0.0
 10
72.4385659737
 20
23.3850838036
 30
0.0
 10
72.4884059107
 20
23.3892398393
 30
0.0
 10
72.5518696527
 20
23.3936924959
 30
0.0
 10
72.5922020237
 20
23.3960960297
 30
0.0
 10
72.6257336775
 20
23.3976095212
 30
0.0
 10
72.6489410755
 20
23.3981967864
 30
0.0
 10
72.6632905221
 20
23.3980683608
 30
0.0
 10
72.6707425263
 20
23.3977873521
 30
0.0
 10
72.6757873985
 20
23.3972275999
 30
0.0
 10
72.678484883
 20
23.3967324173
 30
0.0
 10
72.6792838782
 20
23.3962299637
 30
0.0
  0
SPLINE
  5
5BB
100
AcDbEntity
  8
RACCORDO
100
AcDbSpline
 62
250
  6
CONTINUOUS
 70
0
 71
3
 72
16
 73
12
 74
0
 42
0.0000001
 43
0.0000001
 44
0.0000000001
 40
0.0
 40
0.0
 40
0.0
 40
0.0
 40
0.3755541165
 40
0.5438812544
 40
0.6918987411
 40
0.8149322363
 40
0.9089764501
 40
0.9441974473
 40
0.9711556147
 40
0.9897351521
 40
1.0
 40
1.0
 40
1.0
 40
1.0
 10
72.4041731757
 20
-24.1051584232
 30
0.0
 10
72.4385659689
 20
-24.1082571912
 30
0.0
 10
72.4884059002
 20
-24.1124132263
 30
0.0
 10
72.551869635
 20
-24.1168658822
 30
0.0
 10
72.5922020013
 20
-24.1192694156
 30
0.0
 10
72.6257336514
 20
-24.1207829068
 30
0.0
 10
72.6489410469
 20
-24.1213701719
 30
0.0
 10
72.6632904924
 20
-24.1212417464
 30
0.0
 10
72.6707424963
 20
-24.1209607378
 30
0.0
 10
72.6757873688
 20
-24.1204009857
 30
0.0
 10
72.6784848534
 20
-24.1199058031
 30
0.0
 10
72.6792838489
 20
-24.1194033496
 30
0.0
  0
SPLINE
  5
5BC
100
AcDbEntity
  8
RACCORDO
100
AcDbSpline
 62
250
  6
CONTINUOUS
 70
0
 71
3
 72
16
 73
12
 74
0
 42
0.0000001
 43
0.0000001
 44
0.0000000001
 40
0.0
 40
0.0
 40
0.0
 40
0.0
 40
0.3752285967
 40
0.5434035487
 40
0.6913004131
 40
0.8142654742
 40
0.9083208421
 40
0.943592475
 40
0.9706467994
 40
0.9893969993
 40
1.0
 40
1.0
 40
1.0
 40
1.0
 10
72.2710443895
 20
-25.4939429666
 30
0.0
 10
72.3053973856
 20
-25.4971900664
 30
0.0
 10
72.3551880775
 20
-25.5014904334
 30
0.0
 10
72.4186037008
 20
-25.5059495109
 30
0.0
 10
72.4589151532
 20
-25.5082660035
 30
0.0
 10
72.4924413743
 20
-25.5096073473
 30
0.0
 10
72.515658637
 20
-25.5099717691
 30
0.0
 10
72.5300192663
 20
-25.5096111032
 30
0.0
 10
72.5374966782
 20
-25.5091479029
 30
0.0
 10
72.542570095
 20
-25.508417424
 30
0.0
 10
72.545294588
 20
-25.5077367329
 30
0.0
 10
72.5460698845
 20
-25.5071454235
 30
0.0
  0
SPLINE
  5
5BD
100
AcDbEntity
  8
RACCORDO
100
AcDbSpline
 62
250
  6
CONTINUOUS
 70
0
 71
3
 72
9
 73
5
 74
0
 42
0.0000001
 43
0.0000001
 44
0.0000000001
 40
0.0
 40
0.0
 40
0.0
 40
0.0
 40
0.2498968027
 40
1.0
 40
1.0
 40
1.0
 40
1.0
 10
46.9637058939
 20
21.3384160155
 30
0.0
 10
46.967134653
 20
19.5308312044
 30
0.0
 10
46.9791369318
 20
12.2975029627
 30
0.0
 10
46.9842772987
 20
5.0641633394
 30
0.0
 10
46.9842772848
 20
-0.3615866944
 30
0.0
  0
SPLINE
  5
5BE
100
AcDbEntity
  8
RACCORDO
100
AcDbSpline
 62
250
  6
CONTINUOUS
 70
0
 71
3
 72
9
 73
5
 74
0
 42
0.0000001
 43
0.0000001
 44
0.0000000001
 40
0.0
 40
0.0
 40
0.0
 40
0.0
 40
0.2500737264
 40
1.0
 40
1.0
 40
1.0
 40
1.0
 10
46.9842772848
 20
-0.3615866944
 30
0.0
 10
46.9842772847
 20
-2.1704534163
 30
0.0
 10
46.9825624352
 20
-9.4037870509
 30
0.0
 10
46.9739954607
 20
-16.6371190705
 30
0.0
 10
46.9637059161
 20
-22.061576327
 30
0.0
  0
SPLINE
  5
5BF
100
AcDbEntity
  8
RACCORDO
100
AcDbSpline
 62
250
  6
CONTINUOUS
 70
0
 71
3
 72
15
 73
11
 74
0
 42
0.0000001
 43
0.0000001
 44
0.0000000001
 40
0.0
 40
0.0
 40
0.0
 40
0.0
 40
0.1251347655
 40
0.2502893807
 40
0.3754049882
 40
0.5004452746
 40
0.6254025891
 40
0.7502932755
 40
0.8751475583
 40
1.0
 40
1.0
 40
1.0
 40
1.0
 10
57.3306508885
 20
-43.2342957761
 30
0.0
 10
58.2164970066
 20
-43.1336886319
 30
0.0
 10
59.975267932
 20
-42.7872891645
 30
0.0
 10
62.4914248885
 20
-41.8475915555
 30
0.0
 10
64.8223274378
 20
-40.5130962373
 30
0.0
 10
66.9056249097
 20
-38.8204365314
 30
0.0
 10
68.6877163356
 20
-36.8153335401
 30
0.0
 10
70.1233543711
 20
-34.5506737514
 30
0.0
 10
71.1764284478
 20
-32.0863508715
 30
0.0
 10
71.6061715656
 20
-30.3505938404
 30
0.0
 10
71.7499443631
 20
-29.4727601556
 30
0.0
  0
LINE
  5
5C0
100
AcDbEntity
  8
RACCORDO
100
AcDbLine
 62
250
  6
CONTINUOUS
 10
-20.9762579008
 20
-22.0615757733
 11
-20.9762661898
 21
-22.055258394
  0
SPLINE
  5
5C1
100
AcDbEntity
  8
RACCORDO
100
AcDbSpline
 62
250
  6
CONTINUOUS
 70
0
 71
3
 72
9
 73
5
 74
0
 42
0.0000001
 43
0.0000001
 44
0.0000000001
 40
0.0
 40
0.0
 40
0.0
 40
0.0
 40
0.249897004
 40
1.0
 40
1.0
 40
1.0
 40
1.0
 10
-20.9762661898
 20
-22.055258394
 30
0.0
 10
-20.9796922638
 20
-20.2481994903
 30
0.0
 10
-20.9916866513
 20
-13.0169815796
 30
0.0
 10
-20.9968245357
 20
-5.785752299
 30
0.0
 10
-20.9968245337
 20
-0.3615866944
 30
0.0
  0
SPLINE
  5
5C2
100
AcDbEntity
  8
RACCORDO
100
AcDbSpline
 62
250
  6
CONTINUOUS
 70
0
 71
3
 72
9
 73
5
 74
0
 42
0.0000001
 43
0.0000001
 44
0.0000000001
 40
0.0
 40
0.0
 40
0.0
 40
0.0
 40
0.2500736085
 40
1.0
 40
1.0
 40
1.0
 40
1.0
 10
-20.9968245337
 20
-0.3615866944
 30
0.0
 10
-20.9968245344
 20
1.4467525212
 30
0.0
 10
-20.9951105089
 20
8.6779801617
 30
0.0
 10
-20.9865498781
 20
15.9092061907
 30
0.0
 10
-20.9762661899
 20
21.3320849679
 30
0.0
  0
LINE
  5
5C3
100
AcDbEntity
  8
RACCORDO
100
AcDbLine
 62
250
  6
CONTINUOUS
 10
-20.9762661899
 20
21.3320849679
 11
-20.9762579015
 21
21.3384018722
  0
SPLINE
  5
5C4
100
AcDbEntity
  8
RACCORDO
100
AcDbSpline
 62
250
  6
CONTINUOUS
 70
0
 71
3
 72
15
 73
11
 74
0
 42
0.0000001
 43
0.0000001
 44
0.0000000001
 40
0.0
 40
0.0
 40
0.0
 40
0.0
 40
0.1248571431
 40
0.2497163102
 40
0.3746109406
 40
0.4995700864
 40
0.6246093105
 40
0.7497210286
 40
0.87487012
 40
1.0
 40
1.0
 40
1.0
 40
1.0
 10
-46.0352341437
 20
-29.4975083371
 30
0.0
 10
-45.8887878341
 20
-30.3901320306
 30
0.0
 10
-45.4509878358
 20
-32.155054744
 30
0.0
 10
-44.3782827182
 20
-34.6602549874
 30
0.0
 10
-42.9162431274
 20
-36.9618087669
 30
0.0
 10
-41.1019822572
 20
-38.9988670231
 30
0.0
 10
-38.9818507778
 20
-40.7178862801
 30
0.0
 10
-36.6105590322
 20
-42.0727401684
 30
0.0
 10
-34.0515153128
 20
-43.0265914967
 30
0.0
 10
-32.2631009555
 20
-43.3782372772
 30
0.0
 10
-31.3623443088
 20
-43.4804115828
 30
0.0
  0
SPLINE
  5
5C5
100
AcDbEntity
  8
RACCORDO
100
AcDbSpline
 62
250
  6
CONTINUOUS
 70
0
 71
3
 72
15
 73
11
 74
0
 42
0.0000001
 43
0.0000001
 44
0.0000000001
 40
0.0
 40
0.0
 40
0.0
 40
0.0
 40
0.1251298892
 40
0.2502789817
 40
0.3753906979
 40
0.5004299195
 40
0.6253890638
 40
0.7502836941
 40
0.8751428624
 40
1.0
 40
1.0
 40
1.0
 40
1.0
 10
57.3498108606
 20
-43.4804100126
 30
0.0
 10
58.2505676261
 20
-43.378235974
 30
0.0
 10
60.0389816257
 20
-43.0265871199
 30
0.0
 10
62.5980247441
 20
-42.0727342459
 30
0.0
 10
64.9693153579
 20
-40.7178781496
 30
0.0
 10
67.0894453851
 20
-38.9988571177
 30
0.0
 10
68.9037045861
 20
-36.9617972848
 30
0.0
 10
70.3657420878
 20
-34.6602421813
 30
0.0
 10
71.4384456992
 20
-32.155041104
 30
0.0
 10
71.8762427431
 20
-30.3901177594
 30
0.0
 10
72.0226892278
 20
-29.4974941134
 30
0.0
  0
SPLINE
  5
5C6
100
AcDbEntity
  8
RACCORDO
100
AcDbSpline
 62
250
  6
CONTINUOUS
 70
0
 71
3
 72
15
 73
11
 74
0
 42
0.0000001
 43
0.0000001
 44
0.0000000001
 40
0.0
 40
0.0
 40
0.0
 40
0.0
 40
0.1251298892
 40
0.2502789817
 40
0.3753906979
 40
0.5004299195
 40
0.6253890638
 40
0.7502836941
 40
0.8751428624
 40
1.0
 40
1.0
 40
1.0
 40
1.0
 10
-31.3623581095
 20
42.7572366238
 30
0.0
 10
-32.263114875
 20
42.6550625853
 30
0.0
 10
-34.0515288746
 20
42.3034137311
 30
0.0
 10
-36.610571993
 20
41.3495608571
 30
0.0
 10
-38.9818626068
 20
39.9947047608
 30
0.0
 10
-41.101992634
 20
38.2756837289
 30
0.0
 10
-42.916251835
 20
36.238623896
 30
0.0
 10
-44.3782893367
 20
33.9370687925
 30
0.0
 10
-45.4509929481
 20
31.4318677152
 30
0.0
 10
-45.8887899919
 20
29.6669443706
 30
0.0
 10
-46.0352364766
 20
28.7743207246
 30
0.0
  0
SPLINE
  5
5C7
100
AcDbEntity
  8
RACCORDO
100
AcDbSpline
 62
250
  6
CONTINUOUS
 70
0
 71
3
 72
15
 73
11
 74
0
 42
0.0000001
 43
0.0000001
 44
0.0000000001
 40
0.0
 40
0.0
 40
0.0
 40
0.0
 40
0.1248571431
 40
0.2497163102
 40
0.3746109406
 40
0.4995700864
 40
0.6246093105
 40
0.7497210286
 40
0.87487012
 40
1.0
 40
1.0
 40
1.0
 40
1.0
 10
72.0226868948
 20
28.7743349484
 30
0.0
 10
71.8762405852
 20
29.6669586418
 30
0.0
 10
71.4384405869
 20
31.4318813552
 30
0.0
 10
70.3657354693
 20
33.9370815986
 30
0.0
 10
68.9036958786
 20
36.2386353781
 30
0.0
 10
67.0894350084
 20
38.2756936343
 30
0.0
 10
64.969303529
 20
39.9947128913
 30
0.0
 10
62.5980117833
 20
41.3495667796
 30
0.0
 10
60.0389680639
 20
42.3034181079
 30
0.0
 10
58.2505537066
 20
42.6550638884
 30
0.0
 10
57.34979706
 20
42.7572381941
 30
0.0
  0
SPLINE
  5
5C8
100
AcDbEntity
  8
RACCORDO
100
AcDbSpline
 62
250
  6
CONTINUOUS
 70
0
 71
3
 72
15
 73
11
 74
0
 42
0.0000001
 43
0.0000001
 44
0.0000000001
 40
0.0
 40
0.0
 40
0.0
 40
0.0
 40
0.3744588193
 40
0.5421669924
 40
0.6896540154
 40
0.8123547233
 40
0.9063980811
 40
0.9691245678
 40
0.9883964634
 40
1.0
 40
1.0
 40
1.0
 40
1.0
 10
71.7499443629
 20
-29.4727601553
 30
0.0
 10
71.7838369131
 20
-29.4781053035
 30
0.0
 10
71.8330006258
 20
-29.48528253
 30
0.0
 10
71.8957262268
 20
-29.4930030495
 30
0.0
 10
71.9356272287
 20
-29.4971652193
 30
0.0
 10
71.9689240533
 20
-29.4998560175
 30
0.0
 10
71.9944538155
 20
-29.5009174795
 30
0.0
 10
72.0107194869
 20
-29.5007086203
 30
0.0
 10
72.0191060636
 20
-29.4993334228
 30
0.0
 10
72.0218985886
 20
-29.4983452374
 30
0.0
 10
72.0226696865
 20
-29.4976132153
 30
0.0
  0
SPLINE
  5
5C9
100
AcDbEntity
  8
ASSI
100
AcDbSpline
 62
7
  6
CONTINUOUS
 70
0
 71
3
 72
9
 73
5
 74
0
 42
0.0000001
 43
0.0000001
 44
0.0000000001
 40
0.0
 40
0.0
 40
0.0
 40
0.0
 40
0.5204624602
 40
1.0
 40
1.0
 40
1.0
 40
1.0
 10
17.6643785101
 20
-27.2503724142
 30
0.0
 10
17.666186074
 20
-27.3713494601
 30
0.0
 10
17.5806532596
 20
-27.63558534
 30
0.0
 10
17.3218375026
 20
-27.6827258999
 30
0.0
 10
17.2104070187
 20
-27.685214781
 30
0.0
  0
SPLINE
  5
5CA
100
AcDbEntity
  8
ASSI
100
AcDbSpline
 62
7
  6
CONTINUOUS
 70
0
 71
3
 72
9
 73
5
 74
0
 42
0.0000001
 43
0.0000001
 44
0.0000000001
 40
0.0
 40
0.0
 40
0.0
 40
0.0
 40
0.5011416538
 40
1.0
 40
1.0
 40
1.0
 40
1.0
 10
17.3342398057
 20
-26.9001589432
 30
0.0
 10
17.4198963058
 20
-26.9101004405
 30
0.0
 10
17.5932222448
 20
-26.9855620786
 30
0.0
 10
17.663096218
 20
-27.164549988
 30
0.0
 10
17.6643785343
 20
-27.2503724139
 30
0.0
  0
SPLINE
  5
5CB
100
AcDbEntity
  8
ASSI
100
AcDbSpline
 62
7
  6
CONTINUOUS
 70
0
 71
3
 72
9
 73
5
 74
0
 42
0.0000001
 43
0.0000001
 44
0.0000000001
 40
0.0
 40
0.0
 40
0.0
 40
0.0
 40
0.2704041679
 40
1.0
 40
1.0
 40
1.0
 40
1.0
 10
16.8764236296
 20
-26.9166414903
 30
0.0
 10
16.9172127891
 20
-26.9096814549
 30
0.0
 10
17.0685298978
 20
-26.8867911979
 30
0.0
 10
17.2233375037
 20
-26.8872873585
 30
0.0
 10
17.3342398057
 20
-26.9001589434
 30
0.0
  0
SPLINE
  5
5CC
100
AcDbEntity
  8
ASSI
100
AcDbSpline
 62
7
  6
CONTINUOUS
 70
0
 71
3
 72
9
 73
5
 74
0
 42
0.0000001
 43
0.0000001
 44
0.0000000001
 40
0.0
 40
0.0
 40
0.0
 40
0.0
 40
0.2957417834
 40
1.0
 40
1.0
 40
1.0
 40
1.0
 10
17.7559748053
 20
-26.5018705679
 30
0.0
 10
17.621346158
 20
-26.4532323164
 30
0.0
 10
17.1374376706
 20
-26.3739490675
 30
0.0
 10
16.6509908576
 20
-26.4227794533
 30
0.0
 10
16.3137451779
 20
-26.4723940354
 30
0.0
  0
SPLINE
  5
5CD
100
AcDbEntity
  8
ASSI
100
AcDbSpline
 62
7
  6
CONTINUOUS
 70
0
 71
3
 72
8
 73
4
 74
0
 42
0.0000001
 43
0.0000001
 44
0.0000000001
 40
0.0
 40
0.0
 40
0.0
 40
0.0
 40
1.0
 40
1.0
 40
1.0
 40
1.0
 10
17.8162295404
 20
-27.9159673224
 30
0.0
 10
17.8285962351
 20
-27.9143716199
 30
0.0
 10
17.8402199025
 20
-27.9102409628
 30
0.0
 10
17.8513201332
 20
-27.9045456866
 30
0.0
  0
SPLINE
  5
5CE
100
AcDbEntity
  8
ASSI
100
AcDbSpline
 62
7
  6
CONTINUOUS
 70
0
 71
3
 72
8
 73
4
 74
0
 42
0.0000001
 43
0.0000001
 44
0.0000000001
 40
0.0
 40
0.0
 40
0.0
 40
0.0
 40
1.0
 40
1.0
 40
1.0
 40
1.0
 10
17.8513201332
 20
-27.9045456866
 30
0.0
 10
17.8622944442
 20
-27.898915017
 30
0.0
 10
17.8727571268
 20
-27.8917550248
 30
0.0
 10
17.8829203829
 20
-27.8840033966
 30
0.0
  0
SPLINE
  5
5CF
100
AcDbEntity
  8
ASSI
100
AcDbSpline
 62
7
  6
CONTINUOUS
 70
0
 71
3
 72
17
 73
13
 74
0
 42
0.0000001
 43
0.0000001
 44
0.0000000001
 40
0.0
 40
0.0
 40
0.0
 40
0.0
 40
0.0139225859
 40
0.131722618
 40
0.2907575411
 40
0.3860923536
 40
0.4950786833
 40
0.5836354502
 40
0.6632396515
 40
0.8018931514
 40
0.9164783432
 40
1.0
 40
1.0
 40
1.0
 40
1.0
 10
17.8829203829
 20
-27.8840033966
 30
0.0
 10
17.8893092872
 20
-27.8791305084
 30
0.0
 10
17.9486357014
 20
-27.8308157672
 30
0.0
 10
18.0666260766
 20
-27.7239981351
 30
0.0
 10
18.1668159903
 20
-27.5343754645
 30
0.0
 10
18.2114483008
 20
-27.3365560983
 30
0.0
 10
18.2156414169
 20
-27.1723701537
 30
0.0
 10
18.193543228
 20
-27.0190218133
 30
0.0
 10
18.1399848055
 20
-26.8560772389
 30
0.0
 10
18.0393911276
 20
-26.6963880038
 30
0.0
 10
17.8973606816
 20
-26.571506827
 30
0.0
 10
17.7997059124
 20
-26.5176467192
 30
0.0
 10
17.7559748053
 20
-26.5018705679
 30
0.0
  0
SPLINE
  5
5D0
100
AcDbEntity
  8
ASSI
100
AcDbSpline
 62
7
  6
CONTINUOUS
 70
0
 71
3
 72
9
 73
5
 74
0
 42
0.0000001
 43
0.0000001
 44
0.0000000001
 40
0.0
 40
0.0
 40
0.0
 40
0.0
 40
0.2427307434
 40
1.0
 40
1.0
 40
1.0
 40
1.0
 10
18.1531055207
 20
-28.4816869224
 30
0.0
 10
18.1392393134
 20
-28.4307908248
 30
0.0
 10
18.0862974394
 20
-28.2253268028
 30
0.0
 10
17.9690943116
 20
-27.9934659587
 30
0.0
 10
17.8162295404
 20
-27.9325111312
 30
0.0
  0
SPLINE
  5
5D1
100
AcDbEntity
  8
ASSI
100
AcDbSpline
 62
7
  6
CONTINUOUS
 70
0
 71
3
 72
9
 73
5
 74
0
 42
0.0000001
 43
0.0000001
 44
0.0000000001
 40
0.0
 40
0.0
 40
0.0
 40
0.0
 40
0.1980298616
 40
1.0
 40
1.0
 40
1.0
 40
1.0
 10
18.3528745875
 20
-29.2393880488
 30
0.0
 10
18.3393173583
 20
-29.1894713675
 30
0.0
 10
18.2729660532
 20
-28.9368383539
 30
0.0
 10
18.208167719
 20
-28.6837934497
 30
0.0
 10
18.1531055211
 20
-28.4816869223
 30
0.0
  0
SPLINE
  5
5D2
100
AcDbEntity
  8
ASSI
100
AcDbSpline
 62
7
  6
CONTINUOUS
 70
0
 71
3
 72
9
 73
5
 74
0
 42
0.0000001
 43
0.0000001
 44
0.0000000001
 40
0.0
 40
0.0
 40
0.0
 40
0.0
 40
0.5587152502
 40
1.0
 40
1.0
 40
1.0
 40
1.0
 10
17.5351284284
 20
-28.3902496427
 30
0.0
 10
17.5932237567
 20
-28.5448522817
 30
0.0
 10
17.6695941585
 20
-28.8310928535
 30
0.0
 10
17.7546987168
 20
-29.1140218671
 30
0.0
 10
17.7907419974
 20
-29.2393880488
 30
0.0
  0
SPLINE
  5
5D3
100
AcDbEntity
  8
ASSI
100
AcDbSpline
 62
7
  6
CONTINUOUS
 70
0
 71
3
 72
9
 73
5
 74
0
 42
0.0000001
 43
0.0000001
 44
0.0000000001
 40
0.0
 40
0.0
 40
0.0
 40
0.0
 40
0.3560705358
 40
1.0
 40
1.0
 40
1.0
 40
1.0
 10
17.2091473379
 20
-28.1437386191
 30
0.0
 10
17.2600742803
 20
-28.1437386191
 30
0.0
 10
17.406513098
 20
-28.1745629556
 30
0.0
 10
17.5027286207
 20
-28.304027696
 30
0.0
 10
17.5351284592
 20
-28.3902496312
 30
0.0
  0
SPLINE
  5
5D4
100
AcDbEntity
  8
ASSI
100
AcDbSpline
 62
250
  6
CONTINUOUS
 70
0
 71
3
 72
15
 73
11
 74
0
 42
0.0000001
 43
0.0000001
 44
0.0000000001
 40
0.0
 40
0.0
 40
0.0
 40
0.0
 40
0.3744588193
 40
0.5421669924
 40
0.6896540154
 40
0.8123547233
 40
0.9063980811
 40
0.9691245678
 40
0.9883964634
 40
1.0
 40
1.0
 40
1.0
 40
1.0
 10
-45.7624916117
 20
28.7495867665
 30
0.0
 10
-45.7963841619
 20
28.7549319148
 30
0.0
 10
-45.8455478747
 20
28.7621091412
 30
0.0
 10
-45.9082734757
 20
28.7698296608
 30
0.0
 10
-45.9481744776
 20
28.7739918305
 30
0.0
 10
-45.9814713021
 20
28.7766826288
 30
0.0
 10
-46.0070010643
 20
28.7777440908
 30
0.0
 10
-46.0232667357
 20
28.7775352316
 30
0.0
 10
-46.0316533125
 20
28.776160034
 30
0.0
 10
-46.0344458375
 20
28.7751718486
 30
0.0
 10
-46.0352169354
 20
28.7744398265
 30
0.0
  0
SPLINE
  5
5D5
100
AcDbEntity
  8
ASSI
100
AcDbSpline
 62
250
  6
CONTINUOUS
 70
0
 71
3
 72
16
 73
12
 74
0
 42
0.0000001
 43
0.0000001
 44
0.0000000001
 40
0.0
 40
0.0
 40
0.0
 40
0.0
 40
0.3752285967
 40
0.5434035487
 40
0.6913004131
 40
0.8142654742
 40
0.9083208421
 40
0.943592475
 40
0.9706467994
 40
0.9893969993
 40
1.0
 40
1.0
 40
1.0
 40
1.0
 10
-46.2835916383
 20
24.7707695778
 30
0.0
 10
-46.3179446345
 20
24.7740166776
 30
0.0
 10
-46.3677353263
 20
24.7783170447
 30
0.0
 10
-46.4311509497
 20
24.7827761221
 30
0.0
 10
-46.4714624021
 20
24.7850926147
 30
0.0
 10
-46.5049886231
 20
24.7864339585
 30
0.0
 10
-46.5282058859
 20
24.7867983803
 30
0.0
 10
-46.5425665151
 20
24.7864377145
 30
0.0
 10
-46.5500439271
 20
24.7859745142
 30
0.0
 10
-46.5551173439
 20
24.7852440352
 30
0.0
 10
-46.5578418369
 20
24.7845633441
 30
0.0
 10
-46.5586171333
 20
24.7839720347
 30
0.0
  0
SPLINE
  5
5D6
100
AcDbEntity
  8
ASSI
100
AcDbSpline
 62
250
  6
CONTINUOUS
 70
0
 71
3
 72
16
 73
12
 74
0
 42
0.0000001
 43
0.0000001
 44
0.0000000001
 40
0.0
 40
0.0
 40
0.0
 40
0.0
 40
0.3755541165
 40
0.5438812544
 40
0.6918987411
 40
0.8149322363
 40
0.9089764501
 40
0.9441974473
 40
0.9711556147
 40
0.9897351521
 40
1.0
 40
1.0
 40
1.0
 40
1.0
 10
-46.4167204245
 20
23.3819850345
 30
0.0
 10
-46.4511132178
 20
23.3850838024
 30
0.0
 10
-46.5009531491
 20
23.3892398375
 30
0.0
 10
-46.5644168839
 20
23.3936924934
 30
0.0
 10
-46.6047492502
 20
23.3960960268
 30
0.0
 10
-46.6382809003
 20
23.3976095181
 30
0.0
 10
-46.6614882958
 20
23.3981967832
 30
0.0
 10
-46.6758377413
 20
23.3980683576
 30
0.0
 10
-46.6832897452
 20
23.397787349
 30
0.0
 10
-46.6883346177
 20
23.397227597
 30
0.0
 10
-46.6910321023
 20
23.3967324143
 30
0.0
 10
-46.6918310978
 20
23.3962299609
 30
0.0
  0
SPLINE
  5
5D7
100
AcDbEntity
  8
ASSI
100
AcDbSpline
 62
250
  6
CONTINUOUS
 70
0
 71
3
 72
16
 73
12
 74
0
 42
0.0000001
 43
0.0000001
 44
0.0000000001
 40
0.0
 40
0.0
 40
0.0
 40
0.0
 40
0.3755541187
 40
0.5438812595
 40
0.6918987487
 40
0.8149322453
 40
0.9089764585
 40
0.9441974546
 40
0.9711556201
 40
0.9897351551
 40
1.0
 40
1.0
 40
1.0
 40
1.0
 10
-46.4167204256
 20
-24.1051584239
 30
0.0
 10
-46.4511132226
 20
-24.1082571923
 30
0.0
 10
-46.5009531595
 20
-24.112413228
 30
0.0
 10
-46.5644169015
 20
-24.1168658847
 30
0.0
 10
-46.6047492726
 20
-24.1192694184
 30
0.0
 10
-46.6382809264
 20
-24.1207829099
 30
0.0
 10
-46.6614883243
 20
-24.1213701751
 30
0.0
 10
-46.675837771
 20
-24.1212417495
 30
0.0
 10
-46.6832897751
 20
-24.1209607409
 30
0.0
 10
-46.6883346474
 20
-24.1204009887
 30
0.0
 10
-46.6910321319
 20
-24.1199058061
 30
0.0
 10
-46.6918311271
 20
-24.1194033524
 30
0.0
  0
SPLINE
  5
5D8
100
AcDbEntity
  8
ASSI
100
AcDbSpline
 62
250
  6
CONTINUOUS
 70
0
 71
3
 72
16
 73
12
 74
0
 42
0.0000001
 43
0.0000001
 44
0.0000000001
 40
0.0
 40
0.0
 40
0.0
 40
0.0
 40
0.3752285958
 40
0.5434035471
 40
0.6913004109
 40
0.8142654718
 40
0.9083208399
 40
0.9435924731
 40
0.970646798
 40
0.9893969985
 40
1.0
 40
1.0
 40
1.0
 40
1.0
 10
-46.2835916381
 20
-25.4939429664
 30
0.0
 10
-46.3179446334
 20
-25.4971900661
 30
0.0
 10
-46.3677353241
 20
-25.501490433
 30
0.0
 10
-46.4311509459
 20
-25.5059495103
 30
0.0
 10
-46.4714623974
 20
-25.5082660028
 30
0.0
 10
-46.5049886177
 20
-25.5096073466
 30
0.0
 10
-46.52820588
 20
-25.5099717684
 30
0.0
 10
-46.5425665091
 20
-25.5096111025
 30
0.0
 10
-46.550043921
 20
-25.5091479023
 30
0.0
 10
-46.5551173379
 20
-25.5084174234
 30
0.0
 10
-46.5578418309
 20
-25.5077367323
 30
0.0
 10
-46.5586171274
 20
-25.5071454229
 30
0.0
  0
SPLINE
  5
5D9
100
AcDbEntity
  8
ASSI
100
AcDbSpline
 62
250
  6
CONTINUOUS
 70
0
 71
3
 72
15
 73
11
 74
0
 42
0.0000001
 43
0.0000001
 44
0.0000000001
 40
0.0
 40
0.0
 40
0.0
 40
0.0
 40
0.3744589231
 40
0.5421670913
 40
0.6896540895
 40
0.8123547652
 40
0.9063980945
 40
0.969124565
 40
0.9883964594
 40
1.0
 40
1.0
 40
1.0
 40
1.0
 10
-45.7624916058
 20
-29.4727601489
 30
0.0
 10
-45.7963841004
 20
-29.478105284
 30
0.0
 10
-45.8455477275
 20
-29.4852824925
 30
0.0
 10
-45.9082732144
 20
-29.4930029908
 30
0.0
 10
-45.9481741338
 20
-29.4971651471
 30
0.0
 10
-45.9814708863
 20
-29.4998559351
 30
0.0
 10
-46.0070005922
 20
-29.5009173907
 30
0.0
 10
-46.0232662276
 20
-29.5007085285
 30
0.0
 10
-46.0316527868
 20
-29.4993333315
 30
0.0
 10
-46.034445306
 20
-29.4983451469
 30
0.0
 10
-46.0352164028
 20
-29.4976131259
 30
0.0
  0
SPLINE
  5
5DA
100
AcDbEntity
  8
ASSI
100
AcDbSpline
 62
250
  6
CONTINUOUS
 70
0
 71
3
 72
15
 73
11
 74
0
 42
0.0000001
 43
0.0000001
 44
0.0000000001
 40
0.0
 40
0.0
 40
0.0
 40
0.0
 40
0.3814414989
 40
0.5496942642
 40
0.6965528408
 40
0.8179721631
 40
0.9104953552
 40
0.9716271873
 40
0.9899228526
 40
1.0
 40
1.0
 40
1.0
 40
1.0
 10
-31.3431981374
 20
-43.2342957762
 30
0.0
 10
-31.3465657806
 20
-43.2655279328
 30
0.0
 10
-31.3512015973
 20
-43.3105599482
 30
0.0
 10
-31.3565034283
 20
-43.3676807563
 30
0.0
 10
-31.3595179846
 20
-43.4034998904
 30
0.0
 10
-31.3617121313
 20
-43.4331462085
 30
0.0
 10
-31.3629260245
 20
-43.4557370953
 30
0.0
 10
-31.3634135247
 20
-43.4699505997
 30
0.0
 10
-31.3630385881
 20
-43.4772636005
 30
0.0
 10
-31.3627900687
 20
-43.4796405395
 30
0.0
 10
-31.3624535682
 20
-43.4803991492
 30
0.0
  0
SPLINE
  5
5DB
100
AcDbEntity
  8
ASSI
100
AcDbSpline
 62
250
  6
CONTINUOUS
 70
0
 71
3
 72
15
 73
11
 74
0
 42
0.0000001
 43
0.0000001
 44
0.0000000001
 40
0.0
 40
0.0
 40
0.0
 40
0.0
 40
0.381492938
 40
0.5497500386
 40
0.6966044407
 40
0.8180147982
 40
0.9105271479
 40
0.9716472641
 40
0.9899354246
 40
1.0
 40
1.0
 40
1.0
 40
1.0
 10
-26.3602765586
 20
-43.6787823668
 30
0.0
 10
-26.3621373766
 20
-43.7101183142
 30
0.0
 10
-26.3646041554
 20
-43.7552877089
 30
0.0
 10
-26.3671640834
 20
-43.812553063
 30
0.0
 10
-26.3684640667
 20
-43.8484445752
 30
0.0
 10
-26.3692442718
 20
-43.8781346156
 30
0.0
 10
-26.3693874083
 20
-43.9007366776
 30
0.0
 10
-26.3692071425
 20
-43.9149418289
 30
0.0
 10
-26.3684971099
 20
-43.922222026
 30
0.0
 10
-26.3681432862
 20
-43.9245807798
 30
0.0
 10
-26.367776171
 20
-43.9253231284
 30
0.0
  0
SPLINE
  5
5DC
100
AcDbEntity
  8
ASSI
100
AcDbSpline
 62
250
  6
CONTINUOUS
 70
0
 71
3
 72
14
 73
10
 74
0
 42
0.0000001
 43
0.0000001
 44
0.0000000001
 40
0.0
 40
0.0
 40
0.0
 40
0.0
 40
0.3818193782
 40
0.5501726932
 40
0.6970821907
 40
0.8185064837
 40
0.9109859103
 40
0.9720030535
 40
1.0
 40
1.0
 40
1.0
 40
1.0
 10
-20.971218666
 20
-44.00528732
 30
0.0
 10
-20.9728502651
 20
-44.0365908466
 30
0.0
 10
-20.975051058
 20
-44.0817074751
 30
0.0
 10
-20.9774014437
 20
-44.1388819864
 30
0.0
 10
-20.9786987737
 20
-44.1747217452
 30
0.0
 10
-20.9794198871
 20
-44.204300659
 30
0.0
 10
-20.9799791286
 20
-44.2269482124
 30
0.0
 10
-20.9794460823
 20
-44.2416907734
 30
0.0
 10
-20.9796029341
 20
-44.2491964252
 30
0.0
 10
-20.9788274102
 20
-44.2513600878
 30
0.0
  0
SPLINE
  5
5DD
100
AcDbEntity
  8
ASSI
100
AcDbSpline
 62
250
  6
CONTINUOUS
 70
0
 71
3
 72
14
 73
10
 74
0
 42
0.0000001
 43
0.0000001
 44
0.0000000001
 40
0.0
 40
0.0
 40
0.0
 40
0.0
 40
0.3818193769
 40
0.5501726919
 40
0.6970821896
 40
0.8185064829
 40
0.9109859098
 40
0.9720030533
 40
1.0
 40
1.0
 40
1.0
 40
1.0
 10
46.9586714172
 20
-44.0052873202
 30
0.0
 10
46.9603030163
 20
-44.0365908474
 30
0.0
 10
46.9625038093
 20
-44.0817074768
 30
0.0
 10
46.9648541951
 20
-44.1388819893
 30
0.0
 10
46.9661515251
 20
-44.1747217489
 30
0.0
 10
46.9668726386
 20
-44.2043006635
 30
0.0
 10
46.9674318801
 20
-44.2269482175
 30
0.0
 10
46.9668988338
 20
-44.2416907789
 30
0.0
 10
46.9670556856
 20
-44.2491964309
 30
0.0
 10
46.9662801617
 20
-44.2513600936
 30
0.0
  0
SPLINE
  5
5DE
100
AcDbEntity
  8
ASSI
100
AcDbSpline
 62
250
  6
CONTINUOUS
 70
0
 71
3
 72
15
 73
11
 74
0
 42
0.0000001
 43
0.0000001
 44
0.0000000001
 40
0.0
 40
0.0
 40
0.0
 40
0.0
 40
0.3814929392
 40
0.54975004
 40
0.6966044421
 40
0.8180147995
 40
0.9105271489
 40
0.9716472646
 40
0.9899354249
 40
1.0
 40
1.0
 40
1.0
 40
1.0
 10
52.3477293098
 20
-43.6787823669
 30
0.0
 10
52.3495901277
 20
-43.7101183142
 30
0.0
 10
52.3520569065
 20
-43.7552877086
 30
0.0
 10
52.3546168345
 20
-43.8125530624
 30
0.0
 10
52.3559168177
 20
-43.8484445744
 30
0.0
 10
52.3566970229
 20
-43.8781346145
 30
0.0
 10
52.3568401594
 20
-43.9007366763
 30
0.0
 10
52.3566598935
 20
-43.9149418274
 30
0.0
 10
52.3559498609
 20
-43.9222220243
 30
0.0
 10
52.3555960373
 20
-43.924580778
 30
0.0
 10
52.355228922
 20
-43.9253231266
 30
0.0
  0
SPLINE
  5
5DF
100
AcDbEntity
  8
ASSI
100
AcDbSpline
 62
250
  6
CONTINUOUS
 70
0
 71
3
 72
15
 73
11
 74
0
 42
0.0000001
 43
0.0000001
 44
0.0000000001
 40
0.0
 40
0.0
 40
0.0
 40
0.0
 40
0.3814417163
 40
0.5496945132
 40
0.6965530825
 40
0.8179723678
 40
0.9104955019
 40
0.9716272629
 40
0.9899228901
 40
1.0
 40
1.0
 40
1.0
 40
1.0
 10
57.3306508889
 20
-43.2342957774
 30
0.0
 10
57.3340185243
 20
-43.2655278804
 30
0.0
 10
57.3386543299
 20
-43.310559813
 30
0.0
 10
57.3439561469
 20
-43.3676805103
 30
0.0
 10
57.3469706934
 20
-43.4034995612
 30
0.0
 10
57.349164832
 20
-43.4331458033
 30
0.0
 10
57.3503787182
 20
-43.4557366242
 30
0.0
 10
57.3508662152
 20
-43.4699500834
 30
0.0
 10
57.3504912754
 20
-43.4772630541
 30
0.0
 10
57.350242756
 20
-43.4796399823
 30
0.0
 10
57.3499062545
 20
-43.4803985861
 30
0.0
  0
SPLINE
  5
5E0
100
AcDbEntity
  8
ASSI
100
AcDbSpline
 62
250
  6
CONTINUOUS
 70
0
 71
3
 72
9
 73
5
 74
0
 42
0.0000001
 43
0.0000001
 44
0.0000000001
 40
0.0
 40
0.0
 40
0.0
 40
0.0
 40
0.2623042367
 40
1.0
 40
1.0
 40
1.0
 40
1.0
 10
-21.5621346625
 20
21.3547023296
 30
0.0
 10
-21.5274747838
 20
21.3542614295
 30
0.0
 10
-21.3953452847
 20
21.3521475513
 30
0.0
 10
-21.2632341741
 20
21.3484966986
 30
0.0
 10
-21.1658326556
 20
21.3444829475
 30
0.0
  0
SPLINE
  5
5E1
100
AcDbEntity
  8
ASSI
100
AcDbSpline
 62
7
  6
CONTINUOUS
 70
0
 71
3
 72
10
 73
6
 74
0
 42
0.0000001
 43
0.0000001
 44
0.0000000001
 40
0.0
 40
0.0
 40
0.0
 40
0.0
 40
0.4990975533
 40
0.7495552997
 40
1.0
 40
1.0
 40
1.0
 40
1.0
 10
-20.7726156255
 20
22.1821937886
 30
0.0
 10
-20.6745139944
 20
22.2671809599
 30
0.0
 10
-20.5029075318
 20
22.370138928
 30
0.0
 10
-20.2523788672
 20
22.4424638253
 30
0.0
 10
-20.1221503064
 20
22.4579452035
 30
0.0
 10
-20.057031628
 20
22.45918646
 30
0.0
  0
LINE
  5
5E2
100
AcDbEntity
  8
ASSI
100
AcDbLine
 62
7
  6
CONTINUOUS
 10
-20.0562736245
 20
22.459202636
 11
-19.5203688076
 21
22.4693398647
  0
SPLINE
  5
5E3
100
AcDbEntity
  8
ASSI
100
AcDbSpline
 62
250
  6
CONTINUOUS
 70
0
 71
3
 72
9
 73
5
 74
0
 42
0.0000001
 43
0.0000001
 44
0.0000000001
 40
0.0
 40
0.0
 40
0.0
 40
0.0
 40
0.2634096328
 40
1.0
 40
1.0
 40
1.0
 40
1.0
 10
-20.0782121437
 20
22.8810398917
 30
0.0
 10
-20.0767066609
 20
22.8439835344
 30
0.0
 10
-20.0706517127
 20
22.7033184858
 30
0.0
 10
-20.0634214228
 20
22.5626999862
 30
0.0
 10
-20.0570317374
 20
22.4591883059
 30
0.0
  0
LINE
  5
5E4
100
AcDbEntity
  8
ASSI
100
AcDbLine
 62
7
  6
CONTINUOUS
 10
45.5078215586
 20
22.4693398647
 11
46.0437263496
 21
22.4592026365
  0
SPLINE
  5
5E5
100
AcDbEntity
  8
ASSI
100
AcDbSpline
 62
7
  6
CONTINUOUS
 70
0
 71
3
 72
11
 73
7
 74
0
 42
0.0000001
 43
0.0000001
 44
0.0000000001
 40
0.0
 40
0.0
 40
0.0
 40
0.0
 40
0.2500053751
 40
0.4999863419
 40
0.7500030454
 40
1.0
 40
1.0
 40
1.0
 40
1.0
 10
46.0444839605
 20
22.4591797008
 30
0.0
 10
46.1096068127
 20
22.4579481982
 30
0.0
 10
46.2397695015
 20
22.4424832722
 30
0.0
 10
46.4282929285
 20
22.3879810366
 30
0.0
 10
46.6046573383
 20
22.3016244868
 30
0.0
 10
46.7107231641
 20
22.224708591
 30
0.0
 10
46.759969877
 20
22.1820825663
 30
0.0
  0
SPLINE
  5
5E6
100
AcDbEntity
  8
ASSI
100
AcDbSpline
 62
250
  6
CONTINUOUS
 70
0
 71
3
 72
9
 73
5
 74
0
 42
0.0000001
 43
0.0000001
 44
0.0000000001
 40
0.0
 40
0.0
 40
0.0
 40
0.0
 40
0.2634103068
 40
1.0
 40
1.0
 40
1.0
 40
1.0
 10
46.0656648897
 20
22.8810398842
 30
0.0
 10
46.0641593691
 20
22.8439826766
 30
0.0
 10
46.0581042815
 20
22.7033147603
 30
0.0
 10
46.0508738259
 20
22.5626933938
 30
0.0
 10
46.0444839605
 20
22.4591797008
 30
0.0
  0
SPLINE
  5
5E7
100
AcDbEntity
  8
ASSI
100
AcDbSpline
 62
7
  6
CONTINUOUS
 70
0
 71
3
 72
13
 73
9
 74
0
 42
0.0000001
 43
0.0000001
 44
0.0000000001
 40
0.0
 40
0.0
 40
0.0
 40
0.0
 40
0.2499097084
 40
0.375027294
 40
0.5001398677
 40
0.6251883166
 40
0.7502492609
 40
1.0
 40
1.0
 40
1.0
 40
1.0
 10
46.7599703944
 20
22.1820831521
 30
0.0
 10
46.8199425414
 20
22.1301593198
 30
0.0
 10
46.9024843076
 20
22.042759647
 30
0.0
 10
46.9912268785
 20
21.9108707404
 30
0.0
 10
47.0476572526
 20
21.8057252019
 30
0.0
 10
47.0928307005
 20
21.6952549391
 30
0.0
 10
47.136661678
 20
21.5425416971
 30
0.0
 10
47.1515336731
 20
21.4233954948
 30
0.0
 10
47.1533203347
 20
21.3441392809
 30
0.0
  0
SPLINE
  5
5E8
100
AcDbEntity
  8
ASSI
100
AcDbSpline
 62
7
  6
CONTINUOUS
 70
0
 71
3
 72
9
 73
5
 74
0
 42
0.0000001
 43
0.0000001
 44
0.0000000001
 40
0.0
 40
0.0
 40
0.0
 40
0.0
 40
0.2498967937
 40
1.0
 40
1.0
 40
1.0
 40
1.0
 10
47.1533068098
 20
21.3441389352
 30
0.0
 10
47.1567239928
 20
19.5360774535
 30
0.0
 10
47.1687574258
 20
12.3008416304
 30
0.0
 10
47.1738803344
 20
5.0655943298
 30
0.0
 10
47.1738740616
 20
-0.3615866944
 30
0.0
  0
SPLINE
  5
5E9
100
AcDbEntity
  8
ASSI
100
AcDbSpline
 62
250
  6
CONTINUOUS
 70
0
 71
3
 72
9
 73
5
 74
0
 42
0.0000001
 43
0.0000001
 44
0.0000000001
 40
0.0
 40
0.0
 40
0.0
 40
0.0
 40
0.2623342263
 40
1.0
 40
1.0
 40
1.0
 40
1.0
 10
47.5496288359
 20
21.3495473343
 30
0.0
 10
47.5149687238
 20
21.3495316461
 30
0.0
 10
47.3828481662
 20
21.3490346064
 30
0.0
 10
47.2507270184
 20
21.3469879141
 30
0.0
 10
47.1533068098
 20
21.3441389352
 30
0.0
  0
SPLINE
  5
5EA
100
AcDbEntity
  8
ASSI
100
AcDbSpline
 62
7
  6
CONTINUOUS
 70
0
 71
3
 72
9
 73
5
 74
0
 42
0.0000001
 43
0.0000001
 44
0.0000000001
 40
0.0
 40
0.0
 40
0.0
 40
0.0
 40
0.2500733767
 40
1.0
 40
1.0
 40
1.0
 40
1.0
 10
47.1738740728
 20
-0.3615866944
 30
0.0
 10
47.1738767263
 20
-2.1709577689
 30
0.0
 10
47.1721733569
 20
-9.406318345
 30
0.0
 10
47.1635783626
 20
-16.6416772534
 30
0.0
 10
47.1533060494
 20
-22.0676571246
 30
0.0
  0
SPLINE
  5
5EB
100
AcDbEntity
  8
ASSI
100
AcDbSpline
 62
7
  6
CONTINUOUS
 70
0
 71
3
 72
11
 73
7
 74
0
 42
0.0000001
 43
0.0000001
 44
0.0000000001
 40
0.0
 40
0.0
 40
0.0
 40
0.0
 40
0.2499154598
 40
0.4998961474
 40
0.7499031917
 40
1.0
 40
1.0
 40
1.0
 40
1.0
 10
47.153292626
 20
-22.0676566339
 30
0.0
 10
47.1515637437
 20
-22.1468830056
 30
0.0
 10
47.131880429
 20
-22.3055284539
 30
0.0
 10
47.0532274235
 20
-22.5317234894
 30
0.0
 10
46.9294612595
 20
-22.7368199084
 30
0.0
 10
46.8199083635
 20
-22.8533284497
 30
0.0
 10
46.7600357275
 20
-22.9053302913
 30
0.0
  0
SPLINE
  5
5EC
100
AcDbEntity
  8
ASSI
100
AcDbSpline
 62
250
  6
CONTINUOUS
 70
0
 71
3
 72
9
 73
5
 74
0
 42
0.0000001
 43
0.0000001
 44
0.0000000001
 40
0.0
 40
0.0
 40
0.0
 40
0.0
 40
0.2623036793
 40
1.0
 40
1.0
 40
1.0
 40
1.0
 10
47.5495874136
 20
-22.0778757184
 30
0.0
 10
47.5149282402
 20
-22.0774348272
 30
0.0
 10
47.382801149
 20
-22.0753209971
 30
0.0
 10
47.250692446
 20
-22.0716702437
 30
0.0
 10
47.153292626
 20
-22.0676566339
 30
0.0
  0
SPLINE
  5
5ED
100
AcDbEntity
  8
ASSI
100
AcDbSpline
 62
7
  6
CONTINUOUS
 70
0
 71
3
 72
10
 73
6
 74
0
 42
0.0000001
 43
0.0000001
 44
0.0000000001
 40
0.0
 40
0.0
 40
0.0
 40
0.0
 40
0.4990918078
 40
0.7495458886
 40
1.0
 40
1.0
 40
1.0
 40
1.0
 10
46.7600351394
 20
-22.9053296255
 30
0.0
 10
46.6620324055
 20
-22.9904256028
 30
0.0
 10
46.4903477397
 20
-23.0933126884
 30
0.0
 10
46.2398323855
 20
-23.1656138202
 30
0.0
 10
46.1096044012
 20
-23.1811193963
 30
0.0
 10
46.0444841589
 20
-23.1823562819
 30
0.0
  0
LINE
  5
5EE
100
AcDbEntity
  8
ASSI
100
AcDbLine
 62
7
  6
CONTINUOUS
 10
46.0437263756
 20
-23.1823760248
 11
45.5078215583
 21
-23.1925132535
  0
SPLINE
  5
5EF
100
AcDbEntity
  8
ASSI
100
AcDbSpline
 62
250
  6
CONTINUOUS
 70
0
 71
3
 72
9
 73
5
 74
0
 42
0.0000001
 43
0.0000001
 44
0.0000000001
 40
0.0
 40
0.0
 40
0.0
 40
0.0
 40
0.2634096356
 40
1.0
 40
1.0
 40
1.0
 40
1.0
 10
46.0656648948
 20
-23.6042132805
 30
0.0
 10
46.064159412
 20
-23.5671569228
 30
0.0
 10
46.0581044638
 20
-23.4264918742
 30
0.0
 10
46.0508741739
 20
-23.2858733746
 30
0.0
 10
46.0444844886
 20
-23.1823616947
 30
0.0
  0
LINE
  5
5F0
100
AcDbEntity
  8
ASSI
100
AcDbLine
 62
7
  6
CONTINUOUS
 10
-19.5203688073
 20
-23.1925132535
 11
-20.0562735955
 21
-23.1823760253
  0
SPLINE
  5
5F1
100
AcDbEntity
  8
ASSI
100
AcDbSpline
 62
7
  6
CONTINUOUS
 70
0
 71
3
 72
10
 73
6
 74
0
 42
0.0000001
 43
0.0000001
 44
0.0000000001
 40
0.0
 40
0.0
 40
0.0
 40
0.0
 40
0.2504437434
 40
0.500901659
 40
1.0
 40
1.0
 40
1.0
 40
1.0
 10
-20.0570315917
 20
-23.1823592832
 30
0.0
 10
-20.1221500267
 20
-23.181119057
 30
0.0
 10
-20.2523772057
 20
-23.1656332797
 30
0.0
 10
-20.5029120164
 20
-23.0933221709
 30
0.0
 10
-20.6745004089
 20
-22.9903390307
 30
0.0
 10
-20.7726136931
 20
-22.9053650427
 30
0.0
  0
SPLINE
  5
5F2
100
AcDbEntity
  8
ASSI
100
AcDbSpline
 62
250
  6
CONTINUOUS
 70
0
 71
3
 72
9
 73
5
 74
0
 42
0.0000001
 43
0.0000001
 44
0.0000000001
 40
0.0
 40
0.0
 40
0.0
 40
0.0
 40
0.2634097952
 40
1.0
 40
1.0
 40
1.0
 40
1.0
 10
-20.0782121387
 20
-23.6042132731
 30
0.0
 10
-20.0767066435
 20
-23.5671566818
 30
0.0
 10
-20.070651652
 20
-23.4264908316
 30
0.0
 10
-20.0634213215
 20
-23.2858715302
 30
0.0
 10
-20.0570315917
 20
-23.1823592832
 30
0.0
  0
LINE
  5
5F3
100
AcDbEntity
  8
ASSI
100
AcDbLine
 62
7
  6
CONTINUOUS
 10
-21.1657294834
 20
-22.0723745586
 11
-21.1658535101
 21
-22.0673122556
  0
SPLINE
  5
5F4
100
AcDbEntity
  8
ASSI
100
AcDbSpline
 62
7
  6
CONTINUOUS
 70
0
 71
3
 72
9
 73
5
 74
0
 42
0.0000001
 43
0.0000001
 44
0.0000000001
 40
0.0
 40
0.0
 40
0.0
 40
0.0
 40
0.24989679
 40
1.0
 40
1.0
 40
1.0
 40
1.0
 10
-21.1658538473
 20
-22.0673123183
 30
0.0
 10
-21.1692846418
 20
-20.2592508898
 30
0.0
 10
-21.1812914112
 20
-13.0240150154
 30
0.0
 10
-21.186429233
 20
-5.788767745
 30
0.0
 10
-21.1864213223
 20
-0.3615866944
 30
0.0
  0
SPLINE
  5
5F5
100
AcDbEntity
  8
ASSI
100
AcDbSpline
 62
250
  6
CONTINUOUS
 70
0
 71
3
 72
9
 73
5
 74
0
 42
0.0000001
 43
0.0000001
 44
0.0000000001
 40
0.0
 40
0.0
 40
0.0
 40
0.0
 40
0.2623342527
 40
1.0
 40
1.0
 40
1.0
 40
1.0
 10
-21.5621760848
 20
-22.0727207231
 30
0.0
 10
-21.5275159507
 20
-22.0727050349
 30
0.0
 10
-21.3953953226
 20
-22.0722079946
 30
0.0
 10
-21.2632741043
 20
-22.0701613002
 30
0.0
 10
-21.1658538473
 20
-22.0673123183
 30
0.0
  0
SPLINE
  5
5F6
100
AcDbEntity
  8
ASSI
100
AcDbSpline
 62
7
  6
CONTINUOUS
 70
0
 71
3
 72
9
 73
5
 74
0
 42
0.0000001
 43
0.0000001
 44
0.0000000001
 40
0.0
 40
0.0
 40
0.0
 40
0.0
 40
0.250073377
 40
1.0
 40
1.0
 40
1.0
 40
1.0
 10
-21.1864213193
 20
-0.3615866944
 30
0.0
 10
-21.1864238595
 20
1.4477843816
 30
0.0
 10
-21.1847154317
 20
8.6831449471
 30
0.0
 10
-21.1761574604
 20
15.9185039254
 30
0.0
 10
-21.1658531948
 20
21.3444837341
 30
0.0
  0
SPLINE
  5
5F7
100
AcDbEntity
  8
ASSI
100
AcDbSpline
 62
250
  6
CONTINUOUS
 70
0
 71
3
 72
14
 73
10
 74
0
 42
0.0000001
 43
0.0000001
 44
0.0000000001
 40
0.0
 40
0.0
 40
0.0
 40
0.0
 40
0.0280283811
 40
0.0857012871
 40
0.172603054
 40
0.2877047873
 40
0.4297546681
 40
0.597176884
 40
1.0
 40
1.0
 40
1.0
 40
1.0
 10
46.9637058984
 20
-22.0615866944
 30
0.0
 10
46.9653171014
 20
-22.062328012
 30
0.0
 10
46.9708531963
 20
-22.0628188719
 30
0.0
 10
46.9816127983
 20
-22.0639852872
 30
0.0
 10
46.9980805976
 20
-22.0648033174
 30
0.0
 10
47.0198092276
 20
-22.0657275693
 30
0.0
 10
47.0466732878
 20
-22.0664947806
 30
0.0
 10
47.0917318031
 20
-22.067445842
 30
0.0
 10
47.1278163326
 20
-22.0678262489
 30
0.0
 10
47.1533054212
 20
-22.0679882635
 30
0.0
  0
SPLINE
  5
5F8
100
AcDbEntity
  8
ASSI
100
AcDbSpline
 62
250
  6
CONTINUOUS
 70
0
 71
3
 72
14
 73
10
 74
0
 42
0.0000001
 43
0.0000001
 44
0.0000000001
 40
0.0
 40
0.0
 40
0.0
 40
0.0
 40
0.4023548659
 40
0.5696133814
 40
0.7115565723
 40
0.8266203672
 40
0.9135740085
 40
0.9714392821
 40
1.0
 40
1.0
 40
1.0
 40
1.0
 10
-21.1657328108
 20
-22.0723746225
 30
0.0
 10
-21.140257234
 20
-22.0717693815
 30
0.0
 10
-21.1041911219
 20
-22.0707677128
 30
0.0
 10
-21.0591664889
 20
-22.0689869907
 30
0.0
 10
-21.0323130314
 20
-22.0676846293
 30
0.0
 10
-21.0106116329
 20
-22.0662622407
 30
0.0
 10
-20.9941092303
 20
-22.0649917058
 30
0.0
 10
-20.9834113246
 20
-22.0633894345
 30
0.0
 10
-20.9777718087
 20
-22.0625766634
 30
0.0
 10
-20.9762578873
 20
-22.0615866944
 30
0.0
  0
SPLINE
  5
5F9
100
AcDbEntity
  8
ASSI
100
AcDbSpline
 62
250
  6
CONTINUOUS
 70
0
 71
3
 72
14
 73
10
 74
0
 42
0.0000001
 43
0.0000001
 44
0.0000000001
 40
0.0
 40
0.0
 40
0.0
 40
0.0
 40
0.4011471929
 40
0.5679881996
 40
0.7096631068
 40
0.8246374955
 40
0.9117339369
 40
0.9701016
 40
1.0
 40
1.0
 40
1.0
 40
1.0
 10
-21.1658538489
 20
-22.0673114899
 30
0.0
 10
-21.1403590465
 20
-22.0663906654
 30
0.0
 10
-21.104262515
 20
-22.0648629273
 30
0.0
 10
-21.0592199291
 20
-22.0621573176
 30
0.0
 10
-21.0323403647
 20
-22.0601577332
 30
0.0
 10
-21.0106354537
 20
-22.0580299481
 30
0.0
 10
-20.9940619951
 20
-22.0559920411
 30
0.0
 10
-20.983388592
 20
-22.0537354686
 30
0.0
 10
-20.9776203356
 20
-22.0522215275
 30
0.0
 10
-20.9762734527
 20
-22.0508793952
 30
0.0
  0
SPLINE
  5
5FA
100
AcDbEntity
  8
ASSI
100
AcDbSpline
 62
250
  6
CONTINUOUS
 70
0
 71
3
 72
14
 73
10
 74
0
 42
0.0000001
 43
0.0000001
 44
0.0000000001
 40
0.0
 40
0.0
 40
0.0
 40
0.0
 40
0.4021656921
 40
0.5693507084
 40
0.7112401936
 40
0.8262845131
 40
0.9132620845
 40
0.9712113126
 40
1.0
 40
1.0
 40
1.0
 40
1.0
 10
-21.1658467746
 20
21.3445830556
 30
0.0
 10
-21.1403567443
 20
21.3438139099
 30
0.0
 10
-21.1042709303
 20
21.3425742988
 30
0.0
 10
-21.0592212551
 20
21.3405885636
 30
0.0
 10
-21.0323486668
 20
21.3391682925
 30
0.0
 10
-21.0106379541
 20
21.3376047834
 30
0.0
 10
-20.994111199
 20
21.3361764648
 30
0.0
 10
-20.9834218483
 20
21.3344327386
 30
0.0
 10
-20.9777448125
 20
21.3334908464
 30
0.0
 10
-20.9762657394
 20
21.3324208749
 30
0.0
  0
SPLINE
  5
5FB
100
AcDbEntity
  8
ASSI
100
AcDbSpline
 62
250
  6
CONTINUOUS
 70
0
 71
3
 72
14
 73
10
 74
0
 42
0.0000001
 43
0.0000001
 44
0.0000000001
 40
0.0
 40
0.0
 40
0.0
 40
0.0
 40
0.4028257799
 40
0.5702500294
 40
0.7123015984
 40
0.8274040302
 40
0.9143051693
 40
0.9719758162
 40
1.0
 40
1.0
 40
1.0
 40
1.0
 10
-21.1658266641
 20
21.344805926
 30
0.0
 10
-21.140341716
 20
21.3446348822
 30
0.0
 10
-21.1042630362
 20
21.3442479208
 30
0.0
 10
-21.0592116155
 20
21.3432979138
 30
0.0
 10
-21.0323516683
 20
21.3425344838
 30
0.0
 10
-21.0106263228
 20
21.3416155442
 30
0.0
 10
-20.9941611769
 20
21.3408032039
 30
0.0
 10
-20.9834032971
 20
21.3396413426
 30
0.0
 10
-20.9778683591
 20
21.3391534515
 30
0.0
 10
-20.9762572351
 20
21.3384133056
 30
0.0
  0
SPLINE
  5
5FC
100
AcDbEntity
  8
ASSI
100
AcDbSpline
 62
250
  6
CONTINUOUS
 70
0
 71
3
 72
14
 73
10
 74
0
 42
0.0000001
 43
0.0000001
 44
0.0000000001
 40
0.0
 40
0.0
 40
0.0
 40
0.0
 40
0.0280259358
 40
0.0856978524
 40
0.1725999176
 40
0.2877028979
 40
0.4297546008
 40
0.5971784121
 40
1.0
 40
1.0
 40
1.0
 40
1.0
 10
46.9637112638
 20
21.3384133056
 30
0.0
 10
46.9653226355
 20
21.3391537695
 30
0.0
 10
46.9708585829
 20
21.3396419452
 30
0.0
 10
46.9816181702
 20
21.340803931
 30
0.0
 10
46.9980858315
 20
21.3416159495
 30
0.0
 10
47.0198143087
 20
21.3425346382
 30
0.0
 10
47.0466780129
 20
21.3432982369
 30
0.0
 10
47.0917354172
 20
21.3442486427
 30
0.0
 10
47.1278188299
 20
21.3446356731
 30
0.0
 10
47.1533070619
 20
21.3448068135
 30
0.0
  0
SPLINE
  5
5FD
100
AcDbEntity
  8
ASSI
100
AcDbSpline
 62
250
  6
CONTINUOUS
 70
0
 71
3
 72
15
 73
11
 74
0
 42
0.0000001
 43
0.0000001
 44
0.0000000001
 40
0.0
 40
0.0
 40
0.0
 40
0.0
 40
0.1251347655
 40
0.2502893807
 40
0.3754049882
 40
0.5004452746
 40
0.6254025891
 40
0.7502932755
 40
0.8751475583
 40
1.0
 40
1.0
 40
1.0
 40
1.0
 10
-31.3431981374
 20
42.5111223873
 30
0.0
 10
-32.2290442555
 20
42.4105152431
 30
0.0
 10
-33.9878151809
 20
42.0641157757
 30
0.0
 10
-36.5039721374
 20
41.1244181667
 30
0.0
 10
-38.8348746867
 20
39.7899228485
 30
0.0
 10
-40.9181721586
 20
38.0972631426
 30
0.0
 10
-42.7002635845
 20
36.0921601514
 30
0.0
 10
-44.13590162
 20
33.8275003626
 30
0.0
 10
-45.1889756967
 20
31.3631774827
 30
0.0
 10
-45.6187188145
 20
29.6274204517
 30
0.0
 10
-45.762491612
 20
28.7495867668
 30
0.0
  0
SPLINE
  5
5FE
100
AcDbEntity
  8
ASSI
100
AcDbSpline
 62
250
  6
CONTINUOUS
 70
0
 71
3
 72
9
 73
5
 74
0
 42
0.0000001
 43
0.0000001
 44
0.0000000001
 40
0.0
 40
0.0
 40
0.0
 40
0.0
 40
0.2498968027
 40
1.0
 40
1.0
 40
1.0
 40
1.0
 10
46.9637058939
 20
21.3384160155
 30
0.0
 10
46.967134653
 20
19.5308312044
 30
0.0
 10
46.9791369318
 20
12.2975029627
 30
0.0
 10
46.9842772987
 20
5.0641633394
 30
0.0
 10
46.9842772848
 20
-0.3615866944
 30
0.0
  0
SPLINE
  5
5FF
100
AcDbEntity
  8
ASSI
100
AcDbSpline
 62
250
  6
CONTINUOUS
 70
0
 71
3
 72
9
 73
5
 74
0
 42
0.0000001
 43
0.0000001
 44
0.0000000001
 40
0.0
 40
0.0
 40
0.0
 40
0.0
 40
0.2500737264
 40
1.0
 40
1.0
 40
1.0
 40
1.0
 10
46.9842772848
 20
-0.3615866944
 30
0.0
 10
46.9842772847
 20
-2.1704534163
 30
0.0
 10
46.9825624352
 20
-9.4037870509
 30
0.0
 10
46.9739954607
 20
-16.6371190705
 30
0.0
 10
46.9637059161
 20
-22.061576327
 30
0.0
  0
SPLINE
  5
600
100
AcDbEntity
  8
ASSI
100
AcDbSpline
 62
250
  6
CONTINUOUS
 70
0
 71
3
 72
9
 73
5
 74
0
 42
0.0000001
 43
0.0000001
 44
0.0000000001
 40
0.0
 40
0.0
 40
0.0
 40
0.0
 40
0.2500732927
 40
1.0
 40
1.0
 40
1.0
 40
1.0
 10
-21.5827488746
 20
-0.3615866961
 30
0.0
 10
-21.5827482047
 20
1.4485794959
 30
0.0
 10
-21.5810614238
 20
8.6871220401
 30
0.0
 10
-21.5724603003
 20
15.9256629386
 30
0.0
 10
-21.5621679082
 20
21.3540296277
 30
0.0
  0
SPLINE
  5
601
100
AcDbEntity
  8
ASSI
100
AcDbSpline
 62
250
  6
CONTINUOUS
 70
0
 71
3
 72
9
 73
5
 74
0
 42
0.0000001
 43
0.0000001
 44
0.0000000001
 40
0.0
 40
0.0
 40
0.0
 40
0.0
 40
0.2498966327
 40
1.0
 40
1.0
 40
1.0
 40
1.0
 10
-21.5621678993
 20
-22.0772074318
 30
0.0
 10
-21.5655971505
 20
-20.2683228836
 30
0.0
 10
-21.5776343189
 20
-13.0297886786
 30
0.0
 10
-21.5827467639
 20
-5.7912430067
 30
0.0
 10
-21.5827488746
 20
-0.3615866961
 30
0.0
  0
SPLINE
  5
602
100
AcDbEntity
  8
ASSI
100
AcDbSpline
 62
250
  6
CONTINUOUS
 70
0
 71
3
 72
10
 73
6
 74
0
 42
0.0000001
 43
0.0000001
 44
0.0000000001
 40
0.0
 40
0.0
 40
0.0
 40
0.0
 40
0.2507420891
 40
0.5014470063
 40
1.0
 40
1.0
 40
1.0
 40
1.0
 10
-21.0452252594
 20
-23.2118681453
 30
0.0
 10
-21.1248835654
 20
-23.1407630009
 30
0.0
 10
-21.2698113364
 20
-22.9812718557
 30
0.0
 10
-21.486746694
 20
-22.6126031151
 30
0.0
 10
-21.5598593582
 20
-22.2895012076
 30
0.0
 10
-21.5621678993
 20
-22.0772074318
 30
0.0
  0
LINE
  5
603
100
AcDbEntity
  8
ASSI
100
AcDbLine
 62
250
  6
CONTINUOUS
 10
-20.9762579008
 20
-22.0615757733
 11
-20.9762661898
 21
-22.055258394
  0
SPLINE
  5
604
100
AcDbEntity
  8
ASSI
100
AcDbSpline
 62
250
  6
CONTINUOUS
 70
0
 71
3
 72
9
 73
5
 74
0
 42
0.0000001
 43
0.0000001
 44
0.0000000001
 40
0.0
 40
0.0
 40
0.0
 40
0.0
 40
0.249897004
 40
1.0
 40
1.0
 40
1.0
 40
1.0
 10
-20.9762661898
 20
-22.055258394
 30
0.0
 10
-20.9796922638
 20
-20.2481994903
 30
0.0
 10
-20.9916866513
 20
-13.0169815796
 30
0.0
 10
-20.9968245357
 20
-5.785752299
 30
0.0
 10
-20.9968245337
 20
-0.3615866944
 30
0.0
  0
SPLINE
  5
605
100
AcDbEntity
  8
ASSI
100
AcDbSpline
 62
250
  6
CONTINUOUS
 70
0
 71
3
 72
9
 73
5
 74
0
 42
0.0000001
 43
0.0000001
 44
0.0000000001
 40
0.0
 40
0.0
 40
0.0
 40
0.0
 40
0.2500736085
 40
1.0
 40
1.0
 40
1.0
 40
1.0
 10
-20.9968245337
 20
-0.3615866944
 30
0.0
 10
-20.9968245344
 20
1.4467525212
 30
0.0
 10
-20.9951105089
 20
8.6779801617
 30
0.0
 10
-20.9865498781
 20
15.9092061907
 30
0.0
 10
-20.9762661899
 20
21.3320849679
 30
0.0
  0
LINE
  5
606
100
AcDbEntity
  8
ASSI
100
AcDbLine
 62
250
  6
CONTINUOUS
 10
-20.9762661899
 20
21.3320849679
 11
-20.9762579015
 21
21.3384018722
  0
LINE
  5
607
100
AcDbEntity
  8
ASSI
100
AcDbLine
 62
250
  6
CONTINUOUS
 10
-21.0452252594
 20
-23.2118681453
 11
-21.0438797665
 21
-24.1051584239
  0
LINE
  5
608
100
AcDbEntity
  8
ASSI
100
AcDbLine
 62
250
  6
CONTINUOUS
 10
-21.0452252594
 20
22.4886947565
 11
-21.0438797665
 21
23.3819850352
  0
SPLINE
  5
609
100
AcDbEntity
  8
ASSI
100
AcDbSpline
 62
250
  6
CONTINUOUS
 70
0
 71
3
 72
15
 73
11
 74
0
 42
0.0000001
 43
0.0000001
 44
0.0000000001
 40
0.0
 40
0.0
 40
0.0
 40
0.0
 40
0.1248571431
 40
0.2497163102
 40
0.3746109406
 40
0.4995700864
 40
0.6246093105
 40
0.7497210286
 40
0.87487012
 40
1.0
 40
1.0
 40
1.0
 40
1.0
 10
-46.0352341437
 20
-29.4975083371
 30
0.0
 10
-45.8887878341
 20
-30.3901320306
 30
0.0
 10
-45.4509878358
 20
-32.155054744
 30
0.0
 10
-44.3782827182
 20
-34.6602549874
 30
0.0
 10
-42.9162431274
 20
-36.9618087669
 30
0.0
 10
-41.1019822572
 20
-38.9988670231
 30
0.0
 10
-38.9818507778
 20
-40.7178862801
 30
0.0
 10
-36.6105590322
 20
-42.0727401684
 30
0.0
 10
-34.0515153128
 20
-43.0265914967
 30
0.0
 10
-32.2631009555
 20
-43.3782372772
 30
0.0
 10
-31.3623443088
 20
-43.4804115828
 30
0.0
  0
SPLINE
  5
60A
100
AcDbEntity
  8
ASSI
100
AcDbSpline
 62
250
  6
CONTINUOUS
 70
0
 71
3
 72
15
 73
11
 74
0
 42
0.0000001
 43
0.0000001
 44
0.0000000001
 40
0.0
 40
0.0
 40
0.0
 40
0.0
 40
0.1251347655
 40
0.2502893807
 40
0.3754049882
 40
0.5004452746
 40
0.6254025891
 40
0.7502932755
 40
0.8751475583
 40
1.0
 40
1.0
 40
1.0
 40
1.0
 10
57.3306508885
 20
-43.2342957761
 30
0.0
 10
58.2164970066
 20
-43.1336886319
 30
0.0
 10
59.975267932
 20
-42.7872891645
 30
0.0
 10
62.4914248885
 20
-41.8475915555
 30
0.0
 10
64.8223274378
 20
-40.5130962373
 30
0.0
 10
66.9056249097
 20
-38.8204365314
 30
0.0
 10
68.6877163356
 20
-36.8153335401
 30
0.0
 10
70.1233543711
 20
-34.5506737514
 30
0.0
 10
71.1764284478
 20
-32.0863508715
 30
0.0
 10
71.6061715656
 20
-30.3505938404
 30
0.0
 10
71.7499443631
 20
-29.4727601556
 30
0.0
  0
SPLINE
  5
60B
100
AcDbEntity
  8
ASSI
100
AcDbSpline
 62
250
  6
CONTINUOUS
 70
0
 71
3
 72
15
 73
11
 74
0
 42
0.0000001
 43
0.0000001
 44
0.0000000001
 40
0.0
 40
0.0
 40
0.0
 40
0.0
 40
0.1248524529
 40
0.2497067341
 40
0.3745974203
 40
0.4995547361
 40
0.6245950248
 40
0.7497106345
 40
0.874865249
 40
1.0
 40
1.0
 40
1.0
 40
1.0
 10
71.7499443631
 20
28.7495867668
 30
0.0
 10
71.6061726367
 20
29.6274207084
 30
0.0
 10
71.1764280329
 20
31.3631775822
 30
0.0
 10
70.1233543844
 20
33.8275005546
 30
0.0
 10
68.6877162184
 20
36.0921603296
 30
0.0
 10
66.9056247625
 20
38.0972632923
 30
0.0
 10
64.8223272098
 20
39.7899230085
 30
0.0
 10
62.4914246152
 20
41.1244181594
 30
0.0
 10
59.9752677513
 20
42.0641162401
 30
0.0
 10
58.2164967615
 20
42.4105140021
 30
0.0
 10
57.3306508885
 20
42.5111223873
 30
0.0
  0
SPLINE
  5
60C
100
AcDbEntity
  8
ASSI
100
AcDbSpline
 62
250
  6
CONTINUOUS
 70
0
 71
3
 72
10
 73
6
 74
0
 42
0.0000001
 43
0.0000001
 44
0.0000000001
 40
0.0
 40
0.0
 40
0.0
 40
0.0
 40
0.2507420891
 40
0.5014470063
 40
1.0
 40
1.0
 40
1.0
 40
1.0
 10
47.0326780105
 20
22.4886947565
 30
0.0
 10
47.1123363165
 20
22.4175896122
 30
0.0
 10
47.2572640875
 20
22.2580984669
 30
0.0
 10
47.4741994452
 20
21.8894297264
 30
0.0
 10
47.5473121093
 20
21.5663278188
 30
0.0
 10
47.5496206505
 20
21.3540340431
 30
0.0
  0
LINE
  5
60D
100
AcDbEntity
  8
ASSI
100
AcDbLine
 62
250
  6
CONTINUOUS
 10
47.0326780105
 20
22.4886947565
 11
47.0313325176
 21
23.3819850352
  0
LINE
  5
60E
100
AcDbEntity
  8
ASSI
100
AcDbLine
 62
250
  6
CONTINUOUS
 10
47.0326780105
 20
-23.2118681453
 11
47.0313325176
 21
-24.1051584239
  0
SPLINE
  5
60F
100
AcDbEntity
  8
ASSI
100
AcDbSpline
 62
250
  6
CONTINUOUS
 70
0
 71
3
 72
9
 73
5
 74
0
 42
0.0000001
 43
0.0000001
 44
0.0000000001
 40
0.0
 40
0.0
 40
0.0
 40
0.0
 40
0.2500732927
 40
1.0
 40
1.0
 40
1.0
 40
1.0
 10
47.5702016257
 20
-0.3615866926
 30
0.0
 10
47.5702009558
 20
-2.1717528847
 30
0.0
 10
47.5685141749
 20
-9.4102954289
 30
0.0
 10
47.5599130515
 20
-16.6488363274
 30
0.0
 10
47.5496206593
 20
-22.0772030164
 30
0.0
  0
SPLINE
  5
610
100
AcDbEntity
  8
ASSI
100
AcDbSpline
 62
250
  6
CONTINUOUS
 70
0
 71
3
 72
9
 73
5
 74
0
 42
0.0000001
 43
0.0000001
 44
0.0000000001
 40
0.0
 40
0.0
 40
0.0
 40
0.0
 40
0.2498966327
 40
1.0
 40
1.0
 40
1.0
 40
1.0
 10
47.5496206505
 20
21.3540340431
 30
0.0
 10
47.5530499016
 20
19.5451494948
 30
0.0
 10
47.5650870701
 20
12.3066152898
 30
0.0
 10
47.570199515
 20
5.0680696179
 30
0.0
 10
47.5702016257
 20
-0.3615866926
 30
0.0
  0
SPLINE
  5
611
100
AcDbEntity
  8
ASSI
100
AcDbSpline
 62
250
  6
CONTINUOUS
 70
0
 71
3
 72
15
 73
11
 74
0
 42
0.0000001
 43
0.0000001
 44
0.0000000001
 40
0.0
 40
0.0
 40
0.0
 40
0.0
 40
0.1248524529
 40
0.2497067341
 40
0.3745974203
 40
0.4995547361
 40
0.6245950248
 40
0.7497106345
 40
0.874865249
 40
1.0
 40
1.0
 40
1.0
 40
1.0
 10
-45.762491612
 20
-29.4727601556
 30
0.0
 10
-45.6187198855
 20
-30.3505940972
 30
0.0
 10
-45.1889752818
 20
-32.0863509709
 30
0.0
 10
-44.1359016333
 20
-34.5506739434
 30
0.0
 10
-42.7002634673
 20
-36.8153337184
 30
0.0
 10
-40.9181720113
 20
-38.8204366811
 30
0.0
 10
-38.8348744587
 20
-40.5130963973
 30
0.0
 10
-36.5039718641
 20
-41.8475915482
 30
0.0
 10
-33.9878150002
 20
-42.7872896289
 30
0.0
 10
-32.2290440104
 20
-43.1336873909
 30
0.0
 10
-31.3431981374
 20
-43.2342957761
 30
0.0
  0
SPLINE
  5
612
100
AcDbEntity
  8
ASSI
100
AcDbSpline
 62
250
  6
CONTINUOUS
 70
0
 71
3
 72
15
 73
11
 74
0
 42
0.0000001
 43
0.0000001
 44
0.0000000001
 40
0.0
 40
0.0
 40
0.0
 40
0.0
 40
0.1251298892
 40
0.2502789817
 40
0.3753906979
 40
0.5004299195
 40
0.6253890638
 40
0.7502836941
 40
0.8751428624
 40
1.0
 40
1.0
 40
1.0
 40
1.0
 10
57.3498108606
 20
-43.4804100126
 30
0.0
 10
58.2505676261
 20
-43.378235974
 30
0.0
 10
60.0389816257
 20
-43.0265871199
 30
0.0
 10
62.5980247441
 20
-42.0727342459
 30
0.0
 10
64.9693153579
 20
-40.7178781496
 30
0.0
 10
67.0894453851
 20
-38.9988571177
 30
0.0
 10
68.9037045861
 20
-36.9617972848
 30
0.0
 10
70.3657420878
 20
-34.6602421813
 30
0.0
 10
71.4384456992
 20
-32.155041104
 30
0.0
 10
71.8762427431
 20
-30.3901177594
 30
0.0
 10
72.0226892278
 20
-29.4974941134
 30
0.0
  0
SPLINE
  5
613
100
AcDbEntity
  8
ASSI
100
AcDbSpline
 62
250
  6
CONTINUOUS
 70
0
 71
3
 72
15
 73
11
 74
0
 42
0.0000001
 43
0.0000001
 44
0.0000000001
 40
0.0
 40
0.0
 40
0.0
 40
0.0
 40
0.1251298892
 40
0.2502789817
 40
0.3753906979
 40
0.5004299195
 40
0.6253890638
 40
0.7502836941
 40
0.8751428624
 40
1.0
 40
1.0
 40
1.0
 40
1.0
 10
-31.3623581095
 20
42.7572366238
 30
0.0
 10
-32.263114875
 20
42.6550625853
 30
0.0
 10
-34.0515288746
 20
42.3034137311
 30
0.0
 10
-36.610571993
 20
41.3495608571
 30
0.0
 10
-38.9818626068
 20
39.9947047608
 30
0.0
 10
-41.101992634
 20
38.2756837289
 30
0.0
 10
-42.916251835
 20
36.238623896
 30
0.0
 10
-44.3782893367
 20
33.9370687925
 30
0.0
 10
-45.4509929481
 20
31.4318677152
 30
0.0
 10
-45.8887899919
 20
29.6669443706
 30
0.0
 10
-46.0352364766
 20
28.7743207246
 30
0.0
  0
SPLINE
  5
614
100
AcDbEntity
  8
ASSI
100
AcDbSpline
 62
250
  6
CONTINUOUS
 70
0
 71
3
 72
15
 73
11
 74
0
 42
0.0000001
 43
0.0000001
 44
0.0000000001
 40
0.0
 40
0.0
 40
0.0
 40
0.0
 40
0.1248571431
 40
0.2497163102
 40
0.3746109406
 40
0.4995700864
 40
0.6246093105
 40
0.7497210286
 40
0.87487012
 40
1.0
 40
1.0
 40
1.0
 40
1.0
 10
72.0226868948
 20
28.7743349484
 30
0.0
 10
71.8762405852
 20
29.6669586418
 30
0.0
 10
71.4384405869
 20
31.4318813552
 30
0.0
 10
70.3657354693
 20
33.9370815986
 30
0.0
 10
68.9036958786
 20
36.2386353781
 30
0.0
 10
67.0894350084
 20
38.2756936343
 30
0.0
 10
64.969303529
 20
39.9947128913
 30
0.0
 10
62.5980117833
 20
41.3495667796
 30
0.0
 10
60.0389680639
 20
42.3034181079
 30
0.0
 10
58.2505537066
 20
42.6550638884
 30
0.0
 10
57.34979706
 20
42.7572381941
 30
0.0
  0
SPLINE
  5
615
100
AcDbEntity
  8
ASSI
100
AcDbSpline
 62
250
  6
CONTINUOUS
 70
0
 71
3
 72
15
 73
11
 74
0
 42
0.0000001
 43
0.0000001
 44
0.0000000001
 40
0.0
 40
0.0
 40
0.0
 40
0.0
 40
0.3744588193
 40
0.5421669924
 40
0.6896540154
 40
0.8123547233
 40
0.9063980811
 40
0.9691245678
 40
0.9883964634
 40
1.0
 40
1.0
 40
1.0
 40
1.0
 10
71.7499443629
 20
-29.4727601553
 30
0.0
 10
71.7838369131
 20
-29.4781053035
 30
0.0
 10
71.8330006258
 20
-29.48528253
 30
0.0
 10
71.8957262268
 20
-29.4930030495
 30
0.0
 10
71.9356272287
 20
-29.4971652193
 30
0.0
 10
71.9689240533
 20
-29.4998560175
 30
0.0
 10
71.9944538155
 20
-29.5009174795
 30
0.0
 10
72.0107194869
 20
-29.5007086203
 30
0.0
 10
72.0191060636
 20
-29.4993334228
 30
0.0
 10
72.0218985886
 20
-29.4983452374
 30
0.0
 10
72.0226696865
 20
-29.4976132153
 30
0.0
  0
SPLINE
  5
616
100
AcDbEntity
  8
ASSI
100
AcDbSpline
 62
250
  6
CONTINUOUS
 70
0
 71
3
 72
16
 73
12
 74
0
 42
0.0000001
 43
0.0000001
 44
0.0000000001
 40
0.0
 40
0.0
 40
0.0
 40
0.0
 40
0.3752285967
 40
0.5434035487
 40
0.6913004131
 40
0.8142654742
 40
0.9083208421
 40
0.943592475
 40
0.9706467994
 40
0.9893969993
 40
1.0
 40
1.0
 40
1.0
 40
1.0
 10
72.2710443895
 20
-25.4939429666
 30
0.0
 10
72.3053973856
 20
-25.4971900664
 30
0.0
 10
72.3551880775
 20
-25.5014904334
 30
0.0
 10
72.4186037008
 20
-25.5059495109
 30
0.0
 10
72.4589151532
 20
-25.5082660035
 30
0.0
 10
72.4924413743
 20
-25.5096073473
 30
0.0
 10
72.515658637
 20
-25.5099717691
 30
0.0
 10
72.5300192663
 20
-25.5096111032
 30
0.0
 10
72.5374966782
 20
-25.5091479029
 30
0.0
 10
72.542570095
 20
-25.508417424
 30
0.0
 10
72.545294588
 20
-25.5077367329
 30
0.0
 10
72.5460698845
 20
-25.5071454235
 30
0.0
  0
SPLINE
  5
617
100
AcDbEntity
  8
ASSI
100
AcDbSpline
 62
250
  6
CONTINUOUS
 70
0
 71
3
 72
16
 73
12
 74
0
 42
0.0000001
 43
0.0000001
 44
0.0000000001
 40
0.0
 40
0.0
 40
0.0
 40
0.0
 40
0.3755541165
 40
0.5438812544
 40
0.6918987411
 40
0.8149322363
 40
0.9089764501
 40
0.9441974473
 40
0.9711556147
 40
0.9897351521
 40
1.0
 40
1.0
 40
1.0
 40
1.0
 10
72.4041731757
 20
-24.1051584232
 30
0.0
 10
72.4385659689
 20
-24.1082571912
 30
0.0
 10
72.4884059002
 20
-24.1124132263
 30
0.0
 10
72.551869635
 20
-24.1168658822
 30
0.0
 10
72.5922020013
 20
-24.1192694156
 30
0.0
 10
72.6257336514
 20
-24.1207829068
 30
0.0
 10
72.6489410469
 20
-24.1213701719
 30
0.0
 10
72.6632904924
 20
-24.1212417464
 30
0.0
 10
72.6707424963
 20
-24.1209607378
 30
0.0
 10
72.6757873688
 20
-24.1204009857
 30
0.0
 10
72.6784848534
 20
-24.1199058031
 30
0.0
 10
72.6792838489
 20
-24.1194033496
 30
0.0
  0
SPLINE
  5
618
100
AcDbEntity
  8
ASSI
100
AcDbSpline
 62
250
  6
CONTINUOUS
 70
0
 71
3
 72
16
 73
12
 74
0
 42
0.0000001
 43
0.0000001
 44
0.0000000001
 40
0.0
 40
0.0
 40
0.0
 40
0.0
 40
0.3755541187
 40
0.5438812595
 40
0.6918987487
 40
0.8149322453
 40
0.9089764585
 40
0.9441974546
 40
0.9711556201
 40
0.9897351551
 40
1.0
 40
1.0
 40
1.0
 40
1.0
 10
72.4041731768
 20
23.3819850352
 30
0.0
 10
72.4385659737
 20
23.3850838036
 30
0.0
 10
72.4884059107
 20
23.3892398393
 30
0.0
 10
72.5518696527
 20
23.3936924959
 30
0.0
 10
72.5922020237
 20
23.3960960297
 30
0.0
 10
72.6257336775
 20
23.3976095212
 30
0.0
 10
72.6489410755
 20
23.3981967864
 30
0.0
 10
72.6632905221
 20
23.3980683608
 30
0.0
 10
72.6707425263
 20
23.3977873521
 30
0.0
 10
72.6757873985
 20
23.3972275999
 30
0.0
 10
72.678484883
 20
23.3967324173
 30
0.0
 10
72.6792838782
 20
23.3962299637
 30
0.0
  0
SPLINE
  5
619
100
AcDbEntity
  8
ASSI
100
AcDbSpline
 62
250
  6
CONTINUOUS
 70
0
 71
3
 72
16
 73
12
 74
0
 42
0.0000001
 43
0.0000001
 44
0.0000000001
 40
0.0
 40
0.0
 40
0.0
 40
0.0
 40
0.3752285958
 40
0.5434035471
 40
0.6913004109
 40
0.8142654718
 40
0.9083208399
 40
0.9435924731
 40
0.970646798
 40
0.9893969985
 40
1.0
 40
1.0
 40
1.0
 40
1.0
 10
72.2710443892
 20
24.7707695776
 30
0.0
 10
72.3053973845
 20
24.7740166773
 30
0.0
 10
72.3551880752
 20
24.7783170442
 30
0.0
 10
72.418603697
 20
24.7827761215
 30
0.0
 10
72.4589151485
 20
24.785092614
 30
0.0
 10
72.4924413688
 20
24.7864339578
 30
0.0
 10
72.5156586311
 20
24.7867983796
 30
0.0
 10
72.5300192602
 20
24.7864377138
 30
0.0
 10
72.5374966721
 20
24.7859745135
 30
0.0
 10
72.542570089
 20
24.7852440346
 30
0.0
 10
72.545294582
 20
24.7845633435
 30
0.0
 10
72.5460698786
 20
24.7839720341
 30
0.0
  0
SPLINE
  5
61A
100
AcDbEntity
  8
ASSI
100
AcDbSpline
 62
250
  6
CONTINUOUS
 70
0
 71
3
 72
15
 73
11
 74
0
 42
0.0000001
 43
0.0000001
 44
0.0000000001
 40
0.0
 40
0.0
 40
0.0
 40
0.0
 40
0.3744589231
 40
0.5421670913
 40
0.6896540895
 40
0.8123547652
 40
0.9063980945
 40
0.969124565
 40
0.9883964594
 40
1.0
 40
1.0
 40
1.0
 40
1.0
 10
71.749944357
 20
28.7495867601
 30
0.0
 10
71.7838368515
 20
28.7549318953
 30
0.0
 10
71.8330004787
 20
28.7621091037
 30
0.0
 10
71.8957259656
 20
28.769829602
 30
0.0
 10
71.9356268849
 20
28.7739917583
 30
0.0
 10
71.9689236374
 20
28.7766825463
 30
0.0
 10
71.9944533434
 20
28.777744002
 30
0.0
 10
72.0107189788
 20
28.7775351397
 30
0.0
 10
72.0191055379
 20
28.7761599427
 30
0.0
 10
72.0218980572
 20
28.7751717581
 30
0.0
 10
72.0226691539
 20
28.7744397372
 30
0.0
  0
SPLINE
  5
61B
100
AcDbEntity
  8
ASSI
100
AcDbSpline
 62
250
  6
CONTINUOUS
 70
0
 71
3
 72
15
 73
11
 74
0
 42
0.0000001
 43
0.0000001
 44
0.0000000001
 40
0.0
 40
0.0
 40
0.0
 40
0.0
 40
0.3814414989
 40
0.5496942642
 40
0.6965528408
 40
0.8179721631
 40
0.9104953552
 40
0.9716271873
 40
0.9899228526
 40
1.0
 40
1.0
 40
1.0
 40
1.0
 10
57.3306508885
 20
42.5111223874
 30
0.0
 10
57.3340185317
 20
42.542354544
 30
0.0
 10
57.3386543484
 20
42.5873865594
 30
0.0
 10
57.3439561794
 20
42.6445073675
 30
0.0
 10
57.3469707357
 20
42.6803265016
 30
0.0
 10
57.3491648824
 20
42.7099728197
 30
0.0
 10
57.3503787756
 20
42.7325637066
 30
0.0
 10
57.3508662759
 20
42.7467772109
 30
0.0
 10
57.3504913392
 20
42.7540902117
 30
0.0
 10
57.3502428199
 20
42.7564671507
 30
0.0
 10
57.3499063193
 20
42.7572257604
 30
0.0
  0
SPLINE
  5
61C
100
AcDbEntity
  8
ASSI
100
AcDbSpline
 62
250
  6
CONTINUOUS
 70
0
 71
3
 72
15
 73
11
 74
0
 42
0.0000001
 43
0.0000001
 44
0.0000000001
 40
0.0
 40
0.0
 40
0.0
 40
0.0
 40
0.381492938
 40
0.5497500386
 40
0.6966044407
 40
0.8180147982
 40
0.9105271479
 40
0.9716472641
 40
0.9899354246
 40
1.0
 40
1.0
 40
1.0
 40
1.0
 10
52.3477293097
 20
42.9556089781
 30
0.0
 10
52.3495901277
 20
42.9869449255
 30
0.0
 10
52.3520569066
 20
43.0321143201
 30
0.0
 10
52.3546168346
 20
43.0893796742
 30
0.0
 10
52.3559168178
 20
43.1252711864
 30
0.0
 10
52.356697023
 20
43.1549612268
 30
0.0
 10
52.3568401595
 20
43.1775632889
 30
0.0
 10
52.3566598936
 20
43.1917684401
 30
0.0
 10
52.355949861
 20
43.1990486372
 30
0.0
 10
52.3555960374
 20
43.201407391
 30
0.0
 10
52.3552289221
 20
43.2021497396
 30
0.0
  0
SPLINE
  5
61D
100
AcDbEntity
  8
ASSI
100
AcDbSpline
 62
250
  6
CONTINUOUS
 70
0
 71
3
 72
14
 73
10
 74
0
 42
0.0000001
 43
0.0000001
 44
0.0000000001
 40
0.0
 40
0.0
 40
0.0
 40
0.0
 40
0.3818193785
 40
0.5501726935
 40
0.697082191
 40
0.818506484
 40
0.9109859105
 40
0.9720030536
 40
1.0
 40
1.0
 40
1.0
 40
1.0
 10
46.9586714172
 20
43.2821139312
 30
0.0
 10
46.9603030162
 20
43.3134174578
 30
0.0
 10
46.9625038091
 20
43.3585340862
 30
0.0
 10
46.9648541948
 20
43.4157085974
 30
0.0
 10
46.9661515248
 20
43.4515483561
 30
0.0
 10
46.9668726382
 20
43.4811272699
 30
0.0
 10
46.9674318797
 20
43.5037748231
 30
0.0
 10
46.9668988334
 20
43.5185173841
 30
0.0
 10
46.9670556852
 20
43.5260230359
 30
0.0
 10
46.9662801613
 20
43.5281866985
 30
0.0
  0
SPLINE
  5
61E
100
AcDbEntity
  8
ASSI
100
AcDbSpline
 62
250
  6
CONTINUOUS
 70
0
 71
3
 72
14
 73
10
 74
0
 42
0.0000001
 43
0.0000001
 44
0.0000000001
 40
0.0
 40
0.0
 40
0.0
 40
0.0
 40
0.3818193769
 40
0.5501726919
 40
0.6970821896
 40
0.8185064829
 40
0.9109859098
 40
0.9720030533
 40
1.0
 40
1.0
 40
1.0
 40
1.0
 10
-20.9712186661
 20
43.2821139314
 30
0.0
 10
-20.9728502651
 20
43.3134174586
 30
0.0
 10
-20.9750510581
 20
43.358534088
 30
0.0
 10
-20.9774014439
 20
43.4157086005
 30
0.0
 10
-20.9786987739
 20
43.4515483602
 30
0.0
 10
-20.9794198874
 20
43.4811272748
 30
0.0
 10
-20.979979129
 20
43.5037748287
 30
0.0
 10
-20.9794460826
 20
43.5185173901
 30
0.0
 10
-20.9796029345
 20
43.5260230422
 30
0.0
 10
-20.9788274105
 20
43.5281867048
 30
0.0
  0
SPLINE
  5
61F
100
AcDbEntity
  8
ASSI
100
AcDbSpline
 62
250
  6
CONTINUOUS
 70
0
 71
3
 72
15
 73
11
 74
0
 42
0.0000001
 43
0.0000001
 44
0.0000000001
 40
0.0
 40
0.0
 40
0.0
 40
0.0
 40
0.3814929392
 40
0.54975004
 40
0.6966044421
 40
0.8180147995
 40
0.9105271489
 40
0.9716472646
 40
0.9899354249
 40
1.0
 40
1.0
 40
1.0
 40
1.0
 10
-26.3602765586
 20
42.9556089782
 30
0.0
 10
-26.3621373766
 20
42.9869449254
 30
0.0
 10
-26.3646041554
 20
43.0321143198
 30
0.0
 10
-26.3671640834
 20
43.0893796737
 30
0.0
 10
-26.3684640666
 20
43.1252711856
 30
0.0
 10
-26.3692442718
 20
43.1549612257
 30
0.0
 10
-26.3693874082
 20
43.1775632875
 30
0.0
 10
-26.3692071424
 20
43.1917684386
 30
0.0
 10
-26.3684971098
 20
43.1990486355
 30
0.0
 10
-26.3681432861
 20
43.2014073893
 30
0.0
 10
-26.3677761709
 20
43.2021497378
 30
0.0
  0
SPLINE
  5
620
100
AcDbEntity
  8
ASSI
100
AcDbSpline
 62
250
  6
CONTINUOUS
 70
0
 71
3
 72
15
 73
11
 74
0
 42
0.0000001
 43
0.0000001
 44
0.0000000001
 40
0.0
 40
0.0
 40
0.0
 40
0.0
 40
0.3814417163
 40
0.5496945132
 40
0.6965530825
 40
0.8179723678
 40
0.9104955019
 40
0.9716272629
 40
0.9899228901
 40
1.0
 40
1.0
 40
1.0
 40
1.0
 10
-31.3431981378
 20
42.5111223886
 30
0.0
 10
-31.3465657732
 20
42.5423544916
 30
0.0
 10
-31.3512015788
 20
42.5873864243
 30
0.0
 10
-31.3565033958
 20
42.6445071215
 30
0.0
 10
-31.3595179423
 20
42.6803261724
 30
0.0
 10
-31.3617120809
 20
42.7099724146
 30
0.0
 10
-31.362925967
 20
42.7325632355
 30
0.0
 10
-31.363413464
 20
42.7467766946
 30
0.0
 10
-31.3630385243
 20
42.7540896653
 30
0.0
 10
-31.3627900049
 20
42.7564665935
 30
0.0
 10
-31.3624535034
 20
42.7572251973
 30
0.0
  0
LINE
  5
621
100
AcDbEntity
  8
0
100
AcDbLine
 62
7
  6
CONTINUOUS
 10
-69.1435105395
 20
-26.4723940354
 11
-69.1166331368
 21
-26.8904470003
  0
LINE
  5
622
100
AcDbEntity
  8
RACCORDO
100
AcDbLine
 62
250
  6
CONTINUOUS
 10
-68.621198032
 20
-23.2118681453
 11
-68.6093796871
 21
-23.4688881297
  0
LINE
  5
623
100
AcDbEntity
  8
RACCORDO
100
AcDbLine
 62
250
  6
CONTINUOUS
 10
-68.6093796871
 20
-23.4688881297
 11
-68.579552655
 21
-24.1051584239
  0
SPLINE
  5
624
100
AcDbEntity
  8
RACCORDO
100
AcDbSpline
 62
250
  6
CONTINUOUS
 70
0
 71
3
 72
9
 73
5
 74
0
 42
0.0000001
 43
0.0000001
 44
0.0000000001
 40
0.0
 40
0.0
 40
0.0
 40
0.0
 40
0.5394402561
 40
1.0
 40
1.0
 40
1.0
 40
1.0
 10
-68.6549054822
 20
-22.0772030164
 30
0.0
 10
-68.6467301329
 20
-22.2672063283
 30
0.0
 10
-68.633473995
 20
-22.6195115358
 30
0.0
 10
-68.6244290814
 20
-22.9719640594
 30
0.0
 10
-68.6221254291
 20
-23.1343175853
 30
0.0
  0
LINE
  5
625
100
AcDbEntity
  8
RACCORDO
100
AcDbLine
 62
250
  6
CONTINUOUS
 10
-68.6214532669
 20
-23.1872171088
 11
-68.621198032
 21
-23.2118681453
  0
SPLINE
  5
626
100
AcDbEntity
  8
0
100
AcDbSpline
 62
7
  6
CONTINUOUS
 70
0
 71
3
 72
9
 73
5
 74
0
 42
0.0000001
 43
0.0000001
 44
0.0000000001
 40
0.0
 40
0.0
 40
0.0
 40
0.0
 40
0.5722682816
 40
1.0
 40
1.0
 40
1.0
 40
1.0
 10
-68.8460480418
 20
-28.4816868507
 30
0.0
 10
-68.8541635353
 20
-28.3769300533
 30
0.0
 10
-68.8683349264
 20
-28.1938750929
 30
0.0
 10
-68.8818928966
 20
-28.0107686299
 30
0.0
 10
-68.8884677181
 20
-27.9325111312
 30
0.0
  0
LINE
  5
627
100
AcDbEntity
  8
0
100
AcDbLine
 62
7
  6
CONTINUOUS
 10
-68.8884677181
 20
-27.9325111312
 11
-68.8896668931
 21
-27.9159673224
  0
SPLINE
  5
628
100
AcDbEntity
  8
0
100
AcDbSpline
 62
7
  6
CONTINUOUS
 70
0
 71
3
 72
16
 73
12
 74
0
 42
0.0000001
 43
0.0000001
 44
0.0000000001
 40
0.0
 40
0.0
 40
0.0
 40
0.0
 40
0.0144452898
 40
0.0380373623
 40
0.0897515352
 40
0.1481227552
 40
0.2136973082
 40
0.3587538059
 40
0.5123603895
 40
0.8048659529
 40
1.0
 40
1.0
 40
1.0
 40
1.0
 10
-68.8896668931
 20
-27.9159673224
 30
0.0
 10
-68.8899190008
 20
-27.9091472394
 30
0.0
 10
-68.8912695607
 20
-27.8912217695
 30
0.0
 10
-68.893941858
 20
-27.8489058365
 30
0.0
 10
-68.8982171582
 20
-27.7858920309
 30
0.0
 10
-68.9037524995
 20
-27.7030863079
 30
0.0
 10
-68.9123644925
 20
-27.5762867761
 30
0.0
 10
-68.9240567567
 20
-27.4045989996
 30
0.0
 10
-68.9429809619
 20
-27.1259402203
 30
0.0
 10
-68.9636250149
 20
-26.8236867539
 30
0.0
 10
-68.9788636376
 20
-26.5937994433
 30
0.0
 10
-68.9858232932
 20
-26.5018705697
 30
0.0
  0
LINE
  5
629
100
AcDbEntity
  8
RACCORDO
100
AcDbLine
 62
250
  6
CONTINUOUS
 10
-69.1198967838
 20
23.5763396979
 11
-69.1048378915
 21
23.5547438323
  0
LINE
  5
62A
100
AcDbEntity
  8
RACCORDO
100
AcDbLine
 62
250
  6
CONTINUOUS
 10
-69.1048378915
 20
23.5547438323
 11
-68.9843735337
 21
23.3819850352
  0
SPLINE
  5
62B
100
AcDbEntity
  8
0
100
AcDbSpline
 62
7
  6
CONTINUOUS
 70
0
 71
3
 72
15
 73
11
 74
0
 42
0.0000001
 43
0.0000001
 44
0.0000000001
 40
0.0
 40
0.0
 40
0.0
 40
0.0
 40
0.2773450526
 40
0.4976906017
 40
0.6677503848
 40
0.7950875452
 40
0.8876061722
 40
0.9509819727
 40
0.98765206
 40
1.0
 40
1.0
 40
1.0
 40
1.0
 10
-68.9858232932
 20
-26.5018705697
 30
0.0
 10
-68.9864895772
 20
-26.4930676302
 30
0.0
 10
-68.9877045159
 20
-26.4772767834
 30
0.0
 10
-68.9893954081
 20
-26.4560737326
 30
0.0
 10
-68.9908063962
 20
-26.439692257
 30
0.0
 10
-68.9918973696
 20
-26.4272354247
 30
0.0
 10
-68.9929094981
 20
-26.4184929863
 30
0.0
 10
-68.9934093244
 20
-26.4119223406
 30
0.0
 10
-68.9942854689
 20
-26.4091947596
 30
0.0
 10
-68.9942626834
 20
-26.4068360606
 30
0.0
 10
-68.9946556558
 20
-26.4068436153
 30
0.0
  0
LINE
  5
62C
100
AcDbEntity
  8
RACCORDO
100
AcDbLine
 62
250
  6
CONTINUOUS
 10
-68.9843735337
 20
-24.1051584239
 11
-69.1048380072
 21
-24.2779173629
  0
LINE
  5
62D
100
AcDbEntity
  8
RACCORDO
100
AcDbLine
 62
250
  6
CONTINUOUS
 10
-69.1048380072
 20
-24.2779173629
 11
-69.1198967873
 21
-24.299513065
  0
LINE
  5
62E
100
AcDbEntity
  8
0
100
AcDbLine
 62
7
  6
CONTINUOUS
 10
-69.0906411441
 20
-27.2505898732
 11
-69.0959076819
 21
-27.1728616202
  0
LINE
  5
62F
100
AcDbEntity
  8
0
100
AcDbLine
 62
7
  6
CONTINUOUS
 10
-69.0959076819
 20
-27.1728616202
 11
-69.1129885695
 21
-26.9166414903
  0
LINE
  5
630
100
AcDbEntity
  8
0
100
AcDbLine
 62
7
  6
CONTINUOUS
 10
-69.1129885695
 20
-26.9166414903
 11
-69.1137748214
 21
-26.8957488148
  0
SPLINE
  5
631
100
AcDbEntity
  8
0
100
AcDbSpline
 62
7
  6
CONTINUOUS
 70
0
 71
3
 72
9
 73
5
 74
0
 42
0.0000001
 43
0.0000001
 44
0.0000000001
 40
0.0
 40
0.0
 40
0.0
 40
0.0
 40
0.7181687728
 40
1.0
 40
1.0
 40
1.0
 40
1.0
 10
-69.1361236249
 20
-26.5018705679
 30
0.0
 10
-69.1377918535
 20
-26.4798114288
 30
0.0
 10
-69.1403649519
 20
-26.4491343063
 30
0.0
 10
-69.1428806643
 20
-26.4183993889
 30
0.0
 10
-69.1442131331
 20
-26.4098208606
 30
0.0
  0
SPLINE
  5
632
100
AcDbEntity
  8
0
100
AcDbSpline
 62
7
  6
CONTINUOUS
 70
0
 71
3
 72
9
 73
5
 74
0
 42
0.0000001
 43
0.0000001
 44
0.0000000001
 40
0.0
 40
0.0
 40
0.0
 40
0.0
 40
0.7389527776
 40
1.0
 40
1.0
 40
1.0
 40
1.0
 10
-69.1442131331
 20
-26.4098208606
 30
0.0
 10
-69.1443297122
 20
-26.4090703162
 30
0.0
 10
-69.1446114914
 20
-26.408347154
 30
0.0
 10
-69.1446817787
 20
-26.4068534746
 30
0.0
 10
-69.1449498474
 20
-26.4068418274
 30
0.0
  0
SPLINE
  5
633
100
AcDbEntity
  8
0
100
AcDbSpline
 62
7
  6
CONTINUOUS
 70
0
 71
3
 72
12
 73
8
 74
0
 42
0.0000001
 43
0.0000001
 44
0.0000000001
 40
0.0
 40
0.0
 40
0.0
 40
0.0
 40
0.0681202783
 40
0.1781684626
 40
0.4186985243
 40
0.6925349643
 40
1.0
 40
1.0
 40
1.0
 40
1.0
 10
-69.0400610257
 20
-27.9159673224
 30
0.0
 10
-69.0403301827
 20
-27.9086730327
 30
0.0
 10
-69.0417741146
 20
-27.8896306636
 30
0.0
 10
-69.0445962084
 20
-27.8448584423
 30
0.0
 10
-69.049123154
 20
-27.7781018916
 30
0.0
 10
-69.0549979828
 20
-27.6902376951
 30
0.0
 10
-69.059221125
 20
-27.6280929214
 30
0.0
 10
-69.0614522832
 20
-27.5952229294
 30
0.0
  0
LINE
  5
634
100
AcDbEntity
  8
0
100
AcDbLine
 62
7
  6
CONTINUOUS
 10
-69.0614522832
 20
-27.5952229294
 11
-69.0787201843
 21
-27.3411902937
  0
LINE
  5
635
100
AcDbEntity
  8
0
100
AcDbLine
 62
7
  6
CONTINUOUS
 10
-69.0787201843
 20
-27.3411902937
 11
-69.0861467817
 21
-27.2318425265
  0
LINE
  5
636
100
AcDbEntity
  8
0
100
AcDbLine
 62
7
  6
CONTINUOUS
 10
-69.0861467817
 20
-27.2318425265
 11
-69.103736925
 21
-26.972078297
  0
SPLINE
  5
637
100
AcDbEntity
  8
0
100
AcDbSpline
 62
7
  6
CONTINUOUS
 70
0
 71
3
 72
9
 73
5
 74
0
 42
0.0000001
 43
0.0000001
 44
0.0000000001
 40
0.0
 40
0.0
 40
0.0
 40
0.0
 40
0.6015865379
 40
1.0
 40
1.0
 40
1.0
 40
1.0
 10
-69.103736925
 20
-26.972078297
 30
0.0
 10
-69.1101175331
 20
-26.8777802506
 30
0.0
 10
-69.1208425008
 20
-26.7210403827
 30
0.0
 10
-69.1314023123
 20
-26.5642859394
 30
0.0
 10
-69.1361236249
 20
-26.5018705679
 30
0.0
  0
LINE
  5
638
100
AcDbEntity
  8
0
100
AcDbLine
 62
7
  6
CONTINUOUS
 10
-69.0388630241
 20
-27.9325111312
 11
-69.0400610257
 21
-27.9159673224
  0
LINE
  5
639
100
AcDbEntity
  8
0
100
AcDbLine
 62
7
  6
CONTINUOUS
 10
-68.9964835275
 20
-28.4816869224
 11
-69.0052095114
 21
-28.3684223386
  0
SPLINE
  5
63A
100
AcDbEntity
  8
0
100
AcDbSpline
 62
7
  6
CONTINUOUS
 70
0
 71
3
 72
9
 73
5
 74
0
 42
0.0000001
 43
0.0000001
 44
0.0000000001
 40
0.0
 40
0.0
 40
0.0
 40
0.0
 40
0.5789543888
 40
1.0
 40
1.0
 40
1.0
 40
1.0
 10
-69.0052095114
 20
-28.3684223386
 30
0.0
 10
-69.0116670831
 20
-28.2842952252
 30
0.0
 10
-69.0228702611
 20
-28.1389912739
 30
0.0
 10
-69.0337302258
 20
-27.9936576501
 30
0.0
 10
-69.0388630241
 20
-27.9325111312
 30
0.0
  0
LINE
  5
63B
100
AcDbEntity
  8
0
100
AcDbLine
 62
7
  6
CONTINUOUS
 10
-69.1183944976
 20
-26.9005607823
 11
-69.1190554938
 21
-26.8906056243
  0
LINE
  5
63C
100
AcDbEntity
  8
0
100
AcDbLine
 62
7
  6
CONTINUOUS
 10
-69.1190554938
 20
-26.8906056243
 11
-69.1462195756
 21
-26.4725732899
  0
LINE
  5
63D
100
AcDbEntity
  8
RACCORDO
100
AcDbLine
 62
250
  6
CONTINUOUS
 10
-66.3305635482
 20
43.2821139314
 11
-66.6896918193
 21
44.198448637
  0
LINE
  5
63E
100
AcDbEntity
  8
RACCORDO
100
AcDbLine
 62
250
  6
CONTINUOUS
 10
-66.6896918193
 20
44.198448637
 11
-66.7045714458
 21
44.2366909109
  0
LINE
  5
63F
100
AcDbEntity
  8
RACCORDO
100
AcDbLine
 62
250
  6
CONTINUOUS
 10
-66.4253356233
 20
-45.2045678459
 11
-66.410448336
 21
-45.1663804709
  0
LINE
  5
640
100
AcDbEntity
  8
RACCORDO
100
AcDbLine
 62
250
  6
CONTINUOUS
 10
-66.410448336
 20
-45.1663804709
 11
-66.0511416207
 21
-44.2513600936
  0
LINE
  5
641
100
AcDbEntity
  8
RACCORDO
100
AcDbLine
 62
250
  6
CONTINUOUS
 10
-66.7045714458
 20
-44.9598642996
 11
-66.6896918245
 21
-44.921622039
  0
LINE
  5
642
100
AcDbEntity
  8
RACCORDO
100
AcDbLine
 62
250
  6
CONTINUOUS
 10
-66.6896918245
 20
-44.921622039
 11
-66.3305635482
 21
-44.0052873202
  0
LINE
  5
643
100
AcDbEntity
  8
RACCORDO
100
AcDbLine
 62
250
  6
CONTINUOUS
 10
-68.9843735337
 20
23.3819850352
 11
-68.6338838954
 21
22.8810398917
  0
SPLINE
  5
644
100
AcDbEntity
  8
RACCORDO
100
AcDbSpline
 62
250
  6
CONTINUOUS
 70
0
 71
3
 72
13
 73
9
 74
0
 42
0.0000001
 43
0.0000001
 44
0.0000000001
 40
0.0
 40
0.0
 40
0.0
 40
0.0
 40
0.0357809916
 40
0.0967802036
 40
0.183780401
 40
0.2967815454
 40
0.5990945992
 40
1.0
 40
1.0
 40
1.0
 40
1.0
 10
-68.6338838954
 20
22.8810398917
 30
0.0
 10
-68.6326241903
 20
22.8792391709
 30
0.0
 10
-68.6308896368
 20
22.8733906774
 30
0.0
 10
-68.6288065326
 20
22.8623770852
 30
0.0
 10
-68.6269696013
 20
22.8464032515
 30
0.0
 10
-68.6245110566
 20
22.8156697038
 30
0.0
 10
-68.6223919534
 20
22.7655545695
 30
0.0
 10
-68.6215079383
 20
22.7223786054
 30
0.0
 10
-68.6211775731
 20
22.6977579627
 30
0.0
  0
SPLINE
  5
645
100
AcDbEntity
  8
RACCORDO
100
AcDbSpline
 62
250
  6
CONTINUOUS
 70
0
 71
3
 72
9
 73
5
 74
0
 42
0.0000001
 43
0.0000001
 44
0.0000000001
 40
0.0
 40
0.0
 40
0.0
 40
0.0
 40
0.2179375741
 40
1.0
 40
1.0
 40
1.0
 40
1.0
 10
-68.6211775731
 20
22.6977579627
 30
0.0
 10
-68.6209737986
 20
22.6825715592
 30
0.0
 10
-68.6203447389
 20
22.6128851059
 30
0.0
 10
-68.6206752034
 20
22.5431931064
 30
0.0
 10
-68.621198032
 20
22.4886947565
 30
0.0
  0
SPLINE
  5
646
100
AcDbEntity
  8
RACCORDO
100
AcDbSpline
 62
250
  6
CONTINUOUS
 70
0
 71
3
 72
9
 73
5
 74
0
 42
0.0000001
 43
0.0000001
 44
0.0000000001
 40
0.0
 40
0.0
 40
0.0
 40
0.0
 40
0.2806822075
 40
1.0
 40
1.0
 40
1.0
 40
1.0
 10
-68.621198032
 20
-23.2118681453
 30
0.0
 10
-68.6210118472
 20
-23.231276069
 30
0.0
 10
-68.6204899348
 20
-23.3004223592
 30
0.0
 10
-68.6205040963
 20
-23.3695765227
 30
0.0
 10
-68.6211560926
 20
-23.4193121573
 30
0.0
  0
SPLINE
  5
647
100
AcDbEntity
  8
RACCORDO
100
AcDbSpline
 62
250
  6
CONTINUOUS
 70
0
 71
3
 72
13
 73
9
 74
0
 42
0.0000001
 43
0.0000001
 44
0.0000000001
 40
0.0
 40
0.0
 40
0.0
 40
0.0
 40
0.4010000674
 40
0.7033636746
 40
0.8163631524
 40
0.9033448524
 40
0.9643002461
 40
1.0
 40
1.0
 40
1.0
 40
1.0
 10
-68.6211560926
 20
-23.4193121573
 30
0.0
 10
-68.6214817647
 20
-23.4441551042
 30
0.0
 10
-68.6223594731
 20
-23.4877196758
 30
0.0
 10
-68.624476978
 20
-23.538284991
 30
0.0
 10
-68.6269414609
 20
-23.5692915024
 30
0.0
 10
-68.6287836656
 20
-23.5854032672
 30
0.0
 10
-68.6308750944
 20
-23.5965057127
 30
0.0
 10
-68.6326160326
 20
-23.6024008432
 30
0.0
 10
-68.6338838954
 20
-23.6042132805
 30
0.0
  0
LINE
  5
648
100
AcDbEntity
  8
RACCORDO
100
AcDbLine
 62
250
  6
CONTINUOUS
 10
-68.6338838954
 20
-23.6042132805
 11
-68.9843735337
 21
-24.1051584239
  0
SPLINE
  5
649
100
AcDbEntity
  8
0
100
AcDbSpline
 62
250
  6
CONTINUOUS
 70
0
 71
3
 72
10
 73
6
 74
0
 42
0.0000001
 43
0.0000001
 44
0.0000000001
 40
0.0
 40
0.0
 40
0.0
 40
0.0
 40
0.2134709628
 40
0.4565089327
 40
1.0
 40
1.0
 40
1.0
 40
1.0
 10
-60.6292584862
 20
24.6157717808
 30
0.0
 10
-60.8282437021
 20
24.604552552
 30
0.0
 10
-61.2540732506
 20
24.585763003
 30
0.0
 10
-62.1874028598
 20
24.5612909952
 30
0.0
 10
-62.9218805168
 20
24.5600564949
 30
0.0
 10
-63.4292584862
 20
24.5662172142
 30
0.0
  0
SPLINE
  5
64A
100
AcDbEntity
  8
0
100
AcDbSpline
 62
250
  6
CONTINUOUS
 70
0
 71
3
 72
10
 73
6
 74
0
 42
0.0000001
 43
0.0000001
 44
0.0000000001
 40
0.0
 40
0.0
 40
0.0
 40
0.0
 40
0.2133784437
 40
0.4564062618
 40
1.0
 40
1.0
 40
1.0
 40
1.0
 10
-60.6292584862
 20
24.7953017403
 30
0.0
 10
-60.8282107927
 20
24.7853373474
 30
0.0
 10
-61.2539964155
 20
24.7686579172
 30
0.0
 10
-62.1873278255
 20
24.7469927821
 30
0.0
 10
-62.9218119395
 20
24.7460387475
 30
0.0
 10
-63.4292584862
 20
24.7516550528
 30
0.0
  0
LINE
  5
64B
100
AcDbEntity
  8
0
100
AcDbLine
 62
250
  6
CONTINUOUS
 10
-60.6292584862
 20
28.4959492352
 11
-60.6362906989
 21
28.4968111462
  0
SPLINE
  5
64C
100
AcDbEntity
  8
0
100
AcDbSpline
 62
250
  6
CONTINUOUS
 70
0
 71
3
 72
10
 73
6
 74
0
 42
0.0000001
 43
0.0000001
 44
0.0000000001
 40
0.0
 40
0.0
 40
0.0
 40
0.0
 40
0.2130325647
 40
0.4560716176
 40
1.0
 40
1.0
 40
1.0
 40
1.0
 10
-60.6362906989
 20
28.4968111462
 30
0.0
 10
-60.8335201455
 20
28.5209277093
 30
0.0
 10
-61.2569600968
 20
28.5628483018
 30
0.0
 10
-62.1877065766
 20
28.6247464111
 30
0.0
 10
-62.9219308091
 20
28.6428383232
 30
0.0
 10
-63.4292584862
 20
28.6442108123
 30
0.0
  0
SPLINE
  5
64D
100
AcDbEntity
  8
0
100
AcDbSpline
 62
250
  6
CONTINUOUS
 70
0
 71
3
 72
10
 73
6
 74
0
 42
0.0000001
 43
0.0000001
 44
0.0000000001
 40
0.0
 40
0.0
 40
0.0
 40
0.0
 40
0.2128321267
 40
0.4558331287
 40
1.0
 40
1.0
 40
1.0
 40
1.0
 10
-60.6292584862
 20
28.5653642952
 30
0.0
 10
-60.8267083423
 20
28.5904875973
 30
0.0
 10
-61.2508989662
 20
28.6341694801
 30
0.0
 10
-62.1839682105
 20
28.698744486
 30
0.0
 10
-62.9203530165
 20
28.7177188208
 30
0.0
 10
-63.4292584862
 20
28.719270581
 30
0.0
  0
SPLINE
  5
64E
100
AcDbEntity
  8
0
100
AcDbSpline
 62
250
  6
CONTINUOUS
 70
0
 71
3
 72
11
 73
7
 74
0
 42
0.0000001
 43
0.0000001
 44
0.0000000001
 40
0.0
 40
0.0
 40
0.0
 40
0.0
 40
0.2453504506
 40
0.4893568319
 40
0.739238164
 40
1.0
 40
1.0
 40
1.0
 40
1.0
 10
-63.4292584862
 20
42.3200722608
 30
0.0
 10
-63.1743276516
 20
42.311457194
 30
0.0
 10
-62.6661061674
 20
42.2455882339
 30
0.0
 10
-61.9328435949
 20
42.0004722086
 30
0.0
 10
-61.2462771271
 20
41.6110815173
 30
0.0
 10
-60.8410192366
 20
41.2619511232
 30
0.0
 10
-60.6535495531
 20
41.0661205712
 30
0.0
  0
SPLINE
  5
64F
100
AcDbEntity
  8
RACCORDO
100
AcDbSpline
 62
250
  6
CONTINUOUS
 70
0
 71
3
 72
21
 73
17
 74
0
 42
0.0000001
 43
0.0000001
 44
0.0000000001
 40
0.0
 40
0.0
 40
0.0
 40
0.0
 40
0.0065909801
 40
0.0150623805
 40
0.0254353875
 40
0.0377107701
 40
0.067922229
 40
0.1055394932
 40
0.1503220753
 40
0.2019687092
 40
0.2601265939
 40
0.3243981769
 40
0.4695006132
 40
0.6333930407
 40
0.8117672406
 40
1.0
 40
1.0
 40
1.0
 40
1.0
 10
-66.0363657619
 20
-43.2342957761
 30
0.0
 10
-66.0283999378
 20
-43.2050480757
 30
0.0
 10
-66.0152192085
 20
-43.1368787537
 30
0.0
 10
-66.0014581243
 20
-43.0206772327
 30
0.0
 10
-65.9915253885
 20
-42.8778475776
 30
0.0
 10
-65.9828229341
 20
-42.6348654331
 30
0.0
 10
-65.9835840205
 20
-42.2663458318
 30
0.0
 10
-65.9985897701
 20
-41.7486222192
 30
0.0
 10
-66.0274647493
 20
-41.1327683794
 30
0.0
 10
-66.0691603817
 20
-40.4230102441
 30
0.0
 10
-66.1225307892
 20
-39.6241783341
 30
0.0
 10
-66.2111492887
 20
-38.3969441858
 30
0.0
 10
-66.3434830347
 20
-36.6853286419
 30
0.0
 10
-66.5189373973
 20
-34.4507122667
 30
0.0
 10
-66.7054008278
 20
-32.0179847326
 30
0.0
 10
-66.8278307629
 20
-30.3363392075
 30
0.0
 10
-66.888612648
 20
-29.4727601556
 30
0.0
  0
SPLINE
  5
650
100
AcDbEntity
  8
0
100
AcDbSpline
 62
250
  6
CONTINUOUS
 70
0
 71
3
 72
11
 73
7
 74
0
 42
0.0000001
 43
0.0000001
 44
0.0000000001
 40
0.0
 40
0.0
 40
0.0
 40
0.0
 40
0.2444628352
 40
0.4877865625
 40
0.7378327342
 40
1.0
 40
1.0
 40
1.0
 40
1.0
 10
-63.4292584862
 20
42.3816890162
 30
0.0
 10
-63.1719713902
 20
42.373147873
 30
0.0
 10
-62.6587872898
 20
42.3059951759
 30
0.0
 10
-61.9185745315
 20
42.0544323292
 30
0.0
 10
-61.225525458
 20
41.6536880355
 30
0.0
 10
-60.8177085803
 20
41.2942916696
 30
0.0
 10
-60.6292584862
 20
41.0925431517
 30
0.0
  0
SPLINE
  5
651
100
AcDbEntity
  8
RACCORDO
100
AcDbSpline
 62
250
  6
CONTINUOUS
 70
0
 71
3
 72
9
 73
5
 74
0
 42
0.0000001
 43
0.0000001
 44
0.0000000001
 40
0.0
 40
0.0
 40
0.0
 40
0.0
 40
0.4394564686
 40
1.0
 40
1.0
 40
1.0
 40
1.0
 10
-66.1889463037
 20
-43.6787823668
 30
0.0
 10
-66.1597668479
 20
-43.616369262
 30
0.0
 10
-66.1040122257
 20
-43.469455336
 30
0.0
 10
-66.0594628307
 20
-43.3190873892
 30
0.0
 10
-66.0363657619
 20
-43.2342957761
 30
0.0
  0
SPLINE
  5
652
100
AcDbEntity
  8
RACCORDO
100
AcDbSpline
 62
250
  6
CONTINUOUS
 70
0
 71
3
 72
9
 73
5
 74
0
 42
0.0000001
 43
0.0000001
 44
0.0000000001
 40
0.0
 40
0.0
 40
0.0
 40
0.0
 40
0.2341587117
 40
1.0
 40
1.0
 40
1.0
 40
1.0
 10
-66.0511416207
 20
-44.2513600936
 30
0.0
 10
-66.040936446
 20
-44.2255570228
 30
0.0
 10
-65.9963345204
 20
-44.115765773
 30
0.0
 10
-65.94799705
 20
-44.0075132096
 30
0.0
 10
-65.9095157448
 20
-43.9253232812
 30
0.0
  0
SPLINE
  5
653
100
AcDbEntity
  8
0
100
AcDbSpline
 62
250
  6
CONTINUOUS
 70
0
 71
3
 72
11
 73
7
 74
0
 42
0.0000001
 43
0.0000001
 44
0.0000000001
 40
0.0
 40
0.0
 40
0.0
 40
0.0
 40
0.2396292419
 40
0.4783094419
 40
0.7288185306
 40
1.0
 40
1.0
 40
1.0
 40
1.0
 10
-63.4292584862
 20
42.805104409
 30
0.0
 10
-63.1767148799
 20
42.8010578784
 30
0.0
 10
-62.6718019495
 20
42.7414878904
 30
0.0
 10
-61.9391848848
 20
42.4934335935
 30
0.0
 10
-61.2440272561
 20
42.0838374473
 30
0.0
 10
-60.8335093603
 20
41.7112607125
 30
0.0
 10
-60.6415224283
 20
41.4995025893
 30
0.0
  0
SPLINE
  5
654
100
AcDbEntity
  8
RACCORDO
100
AcDbSpline
 62
250
  6
CONTINUOUS
 70
0
 71
3
 72
9
 73
5
 74
0
 42
0.0000001
 43
0.0000001
 44
0.0000000001
 40
0.0
 40
0.0
 40
0.0
 40
0.0
 40
0.2341636533
 40
1.0
 40
1.0
 40
1.0
 40
1.0
 10
-66.3305635482
 20
-44.0052873202
 30
0.0
 10
-66.3203596938
 20
-43.9794473436
 30
0.0
 10
-66.2757633486
 20
-43.8695005711
 30
0.0
 10
-66.2274276998
 20
-43.761091671
 30
0.0
 10
-66.1889463037
 20
-43.6787823668
 30
0.0
  0
SPLINE
  5
655
100
AcDbEntity
  8
RACCORDO
100
AcDbSpline
 62
250
  6
CONTINUOUS
 70
0
 71
3
 72
9
 73
5
 74
0
 42
0.0000001
 43
0.0000001
 44
0.0000000001
 40
0.0
 40
0.0
 40
0.0
 40
0.0
 40
0.439444081
 40
1.0
 40
1.0
 40
1.0
 40
1.0
 10
-65.909515748
 20
-43.925323281
 30
0.0
 10
-65.8803351947
 20
-43.8628462069
 30
0.0
 10
-65.8245739211
 20
-43.7157885795
 30
0.0
 10
-65.7800121504
 20
-43.5652811731
 30
0.0
 10
-65.7569068913
 20
-43.4804099774
 30
0.0
  0
SPLINE
  5
656
100
AcDbEntity
  8
0
100
AcDbSpline
 62
250
  6
CONTINUOUS
 70
0
 71
3
 72
11
 73
7
 74
0
 42
0.0000001
 43
0.0000001
 44
0.0000000001
 40
0.0
 40
0.0
 40
0.0
 40
0.0
 40
0.2390586735
 40
0.477233414
 40
0.7278248422
 40
1.0
 40
1.0
 40
1.0
 40
1.0
 10
-63.4292584862
 20
42.8329486526
 30
0.0
 10
-63.1757640869
 20
42.8291909452
 30
0.0
 10
-62.6687950044
 20
42.769604391
 30
0.0
 10
-61.9329517519
 20
42.5192967921
 30
0.0
 10
-61.2342135336
 20
42.1046559095
 30
0.0
 10
-60.8220219316
 20
41.7270537319
 30
0.0
 10
-60.6292584862
 20
41.5122127151
 30
0.0
  0
SPLINE
  5
657
100
AcDbEntity
  8
RACCORDO
100
AcDbSpline
 62
250
  6
CONTINUOUS
 70
0
 71
3
 72
21
 73
17
 74
0
 42
0.0000001
 43
0.0000001
 44
0.0000000001
 40
0.0
 40
0.0
 40
0.0
 40
0.0
 40
0.0065832935
 40
0.0150468041
 40
0.0254106074
 40
0.0376750809
 40
0.0678596337
 40
0.1054442774
 40
0.1501910405
 40
0.2018018748
 40
0.2599273479
 40
0.3241731537
 40
0.4692547142
 40
0.6331783566
 40
0.8116380048
 40
1.0
 40
1.0
 40
1.0
 40
1.0
 10
-65.75690621
 20
-43.4804100126
 30
0.0
 10
-65.7489404385
 20
-43.4506973865
 30
0.0
 10
-65.7357587632
 20
-43.3814770959
 30
0.0
 10
-65.7219812357
 20
-43.263511259
 30
0.0
 10
-65.7120180159
 20
-43.11852154
 30
0.0
 10
-65.7032522363
 20
-42.8718719438
 30
0.0
 10
-65.7039004513
 20
-42.4977918289
 30
0.0
 10
-65.7187366392
 20
-41.9722240495
 30
0.0
 10
-65.747407654
 20
-41.3469797741
 30
0.0
 10
-65.7888740541
 20
-40.6263070873
 30
0.0
 10
-65.8419993607
 20
-39.815068832
 30
0.0
 10
-65.9302755332
 20
-38.5684548276
 30
0.0
 10
-66.0621982339
 20
-36.8293480172
 30
0.0
 10
-66.2372119716
 20
-34.5582967203
 30
0.0
 10
-66.4233003172
 20
-32.085260694
 30
0.0
 10
-66.5455184972
 20
-30.3755622189
 30
0.0
 10
-66.6062065146
 20
-29.4974941134
 30
0.0
  0
SPLINE
  5
658
100
AcDbEntity
  8
RACCORDO
100
AcDbSpline
 62
250
  6
CONTINUOUS
 70
0
 71
3
 72
9
 73
5
 74
0
 42
0.0000001
 43
0.0000001
 44
0.0000000001
 40
0.0
 40
0.0
 40
0.0
 40
0.0
 40
0.2659236103
 40
1.0
 40
1.0
 40
1.0
 40
1.0
 10
-66.1889463037
 20
42.9556089781
 30
0.0
 10
-66.2023082178
 20
42.9841892783
 30
0.0
 10
-66.2518652588
 20
43.0919830304
 30
0.0
 10
-66.2985758523
 20
43.2011091193
 30
0.0
 10
-66.3305635482
 20
43.2821139314
 30
0.0
  0
SPLINE
  5
659
100
AcDbEntity
  8
RACCORDO
100
AcDbSpline
 62
250
  6
CONTINUOUS
 70
0
 71
3
 72
9
 73
5
 74
0
 42
0.0000001
 43
0.0000001
 44
0.0000000001
 40
0.0
 40
0.0
 40
0.0
 40
0.0
 40
0.5605435314
 40
1.0
 40
1.0
 40
1.0
 40
1.0
 10
-66.0363657619
 20
42.5111223873
 30
0.0
 10
-66.0594628254
 20
42.5959140019
 30
0.0
 10
-66.1040122229
 20
42.7462819489
 30
0.0
 10
-66.1597668555
 20
42.8931958696
 30
0.0
 10
-66.1889463037
 20
42.9556089781
 30
0.0
  0
SPLINE
  5
65A
100
AcDbEntity
  8
RACCORDO
100
AcDbSpline
 62
250
  6
CONTINUOUS
 70
0
 71
3
 72
21
 73
17
 74
0
 42
0.0000001
 43
0.0000001
 44
0.0000000001
 40
0.0
 40
0.0
 40
0.0
 40
0.0
 40
0.1882327775
 40
0.3666069724
 40
0.530499399
 40
0.6756018344
 40
0.7398734165
 40
0.7980313009
 40
0.8496779311
 40
0.8944605157
 40
0.932077771
 40
0.9622892298
 40
0.9745646265
 40
0.9849376261
 40
0.993409001
 40
1.0
 40
1.0
 40
1.0
 40
1.0
 10
-66.888612648
 20
28.7495867668
 30
0.0
 10
-66.8278308238
 20
29.6131659062
 30
0.0
 10
-66.7054007655
 20
31.2948114816
 30
0.0
 10
-66.5189373921
 20
33.7275390746
 30
0.0
 10
-66.3434830174
 20
35.962155416
 30
0.0
 10
-66.2111492747
 20
37.6737709469
 30
0.0
 10
-66.1225307825
 20
38.901005085
 30
0.0
 10
-66.0691603726
 20
39.6998369716
 30
0.0
 10
-66.0274647574
 20
40.4095951004
 30
0.0
 10
-65.9985897655
 20
41.0254488923
 30
0.0
 10
-65.9835840281
 20
41.5431724768
 30
0.0
 10
-65.9828229958
 20
41.9116920987
 30
0.0
 10
-65.9915253464
 20
42.1546742776
 30
0.0
 10
-66.0014580767
 20
42.2975038459
 30
0.0
 10
-66.0152193208
 20
42.4137052932
 30
0.0
 10
-66.0284000906
 20
42.4818745553
 30
0.0
 10
-66.0363657619
 20
42.5111223873
 30
0.0
  0
SPLINE
  5
65B
100
AcDbEntity
  8
0
100
AcDbSpline
 62
250
  6
CONTINUOUS
 70
0
 71
3
 72
10
 73
6
 74
0
 42
0.0000001
 43
0.0000001
 44
0.0000000001
 40
0.0
 40
0.0
 40
0.0
 40
0.0
 40
0.2134709628
 40
0.4565089327
 40
1.0
 40
1.0
 40
1.0
 40
1.0
 10
-60.6292584862
 20
-25.3389451696
 30
0.0
 10
-60.8282437021
 20
-25.3277259408
 30
0.0
 10
-61.2540732506
 20
-25.3089363918
 30
0.0
 10
-62.1874028598
 20
-25.284464384
 30
0.0
 10
-62.9218805168
 20
-25.2832298837
 30
0.0
 10
-63.4292584862
 20
-25.289390603
 30
0.0
  0
SPLINE
  5
65C
100
AcDbEntity
  8
RACCORDO
100
AcDbSpline
 62
250
  6
CONTINUOUS
 70
0
 71
3
 72
21
 73
17
 74
0
 42
0.0000001
 43
0.0000001
 44
0.0000000001
 40
0.0
 40
0.0
 40
0.0
 40
0.0
 40
0.1883621288
 40
0.3668218678
 40
0.5307455659
 40
0.6758271455
 40
0.7400729468
 40
0.7981984055
 40
0.8498092154
 40
0.8945559454
 40
0.9321405445
 40
0.9623250486
 40
0.9745894953
 40
0.9849532577
 40
0.9934167211
 40
1.0
 40
1.0
 40
1.0
 40
1.0
 10
-66.6062055216
 20
28.7743349484
 30
0.0
 10
-66.5455176675
 20
29.6524028936
 30
0.0
 10
-66.4232992462
 20
31.3621008503
 30
0.0
 10
-66.2372110234
 20
33.8351359509
 30
0.0
 10
-66.0621973473
 20
36.1061859648
 30
0.0
 10
-65.9302747709
 20
37.8452915339
 30
0.0
 10
-65.8419987429
 20
39.0919044172
 30
0.0
 10
-65.7888735462
 20
39.903141741
 30
0.0
 10
-65.7474073034
 20
40.6238134475
 30
0.0
 10
-65.7187364058
 20
41.2490566846
 30
0.0
 10
-65.703900392
 20
41.7746234044
 30
0.0
 10
-65.7032523639
 20
42.148702618
 30
0.0
 10
-65.7120181452
 20
42.3953514474
 30
0.0
 10
-65.7219814546
 20
42.5403404911
 30
0.0
 10
-65.735759224
 20
42.658305718
 30
0.0
 10
-65.7489409321
 20
42.7275256224
 30
0.0
 10
-65.7569065364
 20
42.7572381941
 30
0.0
  0
SPLINE
  5
65D
100
AcDbEntity
  8
RACCORDO
100
AcDbSpline
 62
250
  6
CONTINUOUS
 70
0
 71
3
 72
9
 73
5
 74
0
 42
0.0000001
 43
0.0000001
 44
0.0000000001
 40
0.0
 40
0.0
 40
0.0
 40
0.0
 40
0.2659286395
 40
1.0
 40
1.0
 40
1.0
 40
1.0
 10
-65.9095157617
 20
43.2021499303
 30
0.0
 10
-65.9228778091
 20
43.2306891316
 30
0.0
 10
-65.9724351828
 20
43.3383264043
 30
0.0
 10
-66.0191493338
 20
43.4472964444
 30
0.0
 10
-66.0511416207
 20
43.5281867048
 30
0.0
  0
LINE
  5
65E
100
AcDbEntity
  8
RACCORDO
100
AcDbLine
 62
250
  6
CONTINUOUS
 10
-66.0511416207
 20
43.5281867048
 11
-66.4104483309
 21
44.4432070689
  0
LINE
  5
65F
100
AcDbEntity
  8
RACCORDO
100
AcDbLine
 62
250
  6
CONTINUOUS
 10
-66.4104483309
 20
44.4432070689
 11
-66.4253356233
 21
44.4813944571
  0
SPLINE
  5
660
100
AcDbEntity
  8
RACCORDO
100
AcDbSpline
 62
250
  6
CONTINUOUS
 70
0
 71
3
 72
9
 73
5
 74
0
 42
0.0000001
 43
0.0000001
 44
0.0000000001
 40
0.0
 40
0.0
 40
0.0
 40
0.0
 40
0.5605557881
 40
1.0
 40
1.0
 40
1.0
 40
1.0
 10
-65.7569073162
 20
42.7572381538
 30
0.0
 10
-65.7800124961
 20
42.8421090439
 30
0.0
 10
-65.8245741872
 20
42.9926159265
 30
0.0
 10
-65.8803353088
 20
43.1396730436
 30
0.0
 10
-65.9095157656
 20
43.2021499301
 30
0.0
  0
SPLINE
  5
661
100
AcDbEntity
  8
RACCORDO
100
AcDbSpline
 62
250
  6
CONTINUOUS
 70
0
 71
3
 72
13
 73
9
 74
0
 42
0.0000001
 43
0.0000001
 44
0.0000000001
 40
0.0
 40
0.0
 40
0.0
 40
0.0
 40
0.0427811486
 40
0.1118820091
 40
0.2086412729
 40
0.3312317111
 40
0.6393626717
 40
1.0
 40
1.0
 40
1.0
 40
1.0
 10
-66.8886126444
 20
-29.4727601553
 30
0.0
 10
-66.8865924836
 20
-29.4763264429
 30
0.0
 10
-66.8769800474
 20
-29.4825254517
 30
0.0
 10
-66.8581646798
 20
-29.4886124419
 30
0.0
 10
-66.8308642125
 20
-29.4938770279
 30
0.0
 10
-66.780668411
 20
-29.4994637125
 30
0.0
 10
-66.7047452228
 20
-29.5017609775
 30
0.0
 10
-66.6406875884
 20
-29.4996826225
 30
0.0
 10
-66.6061981996
 20
-29.4976132153
 30
0.0
  0
SPLINE
  5
662
100
AcDbEntity
  8
RACCORDO
100
AcDbSpline
 62
250
  6
CONTINUOUS
 70
0
 71
3
 72
14
 73
10
 74
0
 42
0.0000001
 43
0.0000001
 44
0.0000000001
 40
0.0
 40
0.0
 40
0.0
 40
0.0
 40
0.0363101019
 40
0.1027776188
 40
0.1989359135
 40
0.3222272653
 40
0.4688257211
 40
0.6342071637
 40
1.0
 40
1.0
 40
1.0
 40
1.0
 10
-67.1263948743
 20
-25.4939429666
 30
0.0
 10
-67.1241274586
 20
-25.4965400395
 30
0.0
 10
-67.1142387457
 20
-25.4998263262
 30
0.0
 10
-67.0961214223
 20
-25.5035348216
 30
0.0
 10
-67.0689043273
 20
-25.5064280973
 30
0.0
 10
-67.0342893876
 20
-25.5085835064
 30
0.0
 10
-66.9929436073
 20
-25.5097711374
 30
0.0
 10
-66.9285980801
 20
-25.5100290933
 30
0.0
 10
-66.8781613759
 20
-25.5086559945
 30
0.0
 10
-66.8434626324
 20
-25.5071454235
 30
0.0
  0
SPLINE
  5
663
100
AcDbEntity
  8
RACCORDO
100
AcDbSpline
 62
250
  6
CONTINUOUS
 70
0
 71
3
 72
14
 73
10
 74
0
 42
0.0000001
 43
0.0000001
 44
0.0000000001
 40
0.0
 40
0.0
 40
0.0
 40
0.0
 40
0.0359085984
 40
0.1022433482
 40
0.1983920533
 40
0.321746036
 40
0.4684505447
 40
0.6339598783
 40
1.0
 40
1.0
 40
1.0
 40
1.0
 10
-67.1886354233
 20
-24.1051584232
 30
0.0
 10
-67.1863451785
 20
-24.1076846856
 30
0.0
 10
-67.1764723974
 20
-24.1107971305
 30
0.0
 10
-67.1583964327
 20
-24.114460897
 30
0.0
 10
-67.1311849381
 20
-24.1173507553
 30
0.0
 10
-67.096558825
 20
-24.1196135462
 30
0.0
 10
-67.0551863219
 20
-24.1209886832
 30
0.0
 10
-66.9907908518
 20
-24.1216246901
 30
0.0
 10
-66.9403054562
 20
-24.1206269148
 30
0.0
 10
-66.9055679216
 20
-24.1194033496
 30
0.0
  0
SPLINE
  5
664
100
AcDbEntity
  8
RACCORDO
100
AcDbSpline
 62
250
  6
CONTINUOUS
 70
0
 71
3
 72
14
 73
10
 74
0
 42
0.0000001
 43
0.0000001
 44
0.0000000001
 40
0.0
 40
0.0
 40
0.0
 40
0.0
 40
0.0359085862
 40
0.1022433269
 40
0.1983920275
 40
0.32174601
 40
0.4684505222
 40
0.6339598621
 40
1.0
 40
1.0
 40
1.0
 40
1.0
 10
-67.1886354378
 20
23.3819850352
 30
0.0
 10
-67.1863451952
 20
23.3845112981
 30
0.0
 10
-67.1764724147
 20
23.3876237436
 30
0.0
 10
-67.1583964524
 20
23.3912875104
 30
0.0
 10
-67.1311849574
 20
23.3941773691
 30
0.0
 10
-67.0965588429
 20
23.3964401603
 30
0.0
 10
-67.0551863369
 20
23.3978152975
 30
0.0
 10
-66.9907908612
 20
23.3984513046
 30
0.0
 10
-66.940305461
 20
23.397453529
 30
0.0
 10
-66.9055679231
 20
23.3962299637
 30
0.0
  0
SPLINE
  5
665
100
AcDbEntity
  8
RACCORDO
100
AcDbSpline
 62
250
  6
CONTINUOUS
 70
0
 71
3
 72
14
 73
10
 74
0
 42
0.0000001
 43
0.0000001
 44
0.0000000001
 40
0.0
 40
0.0
 40
0.0
 40
0.0
 40
0.0363101043
 40
0.102777623
 40
0.1989359185
 40
0.3222272703
 40
0.4688257254
 40
0.6342071667
 40
1.0
 40
1.0
 40
1.0
 40
1.0
 10
-67.1263948708
 20
24.7707695776
 30
0.0
 10
-67.1241274547
 20
24.7733666505
 30
0.0
 10
-67.1142387416
 20
24.776652937
 30
0.0
 10
-67.0961214178
 20
24.7803614323
 30
0.0
 10
-67.0689043229
 20
24.7832547079
 30
0.0
 10
-67.0342893837
 20
24.785410117
 30
0.0
 10
-66.992943604
 20
24.7865977479
 30
0.0
 10
-66.9285980781
 20
24.7868557038
 30
0.0
 10
-66.8781613749
 20
24.785482605
 30
0.0
 10
-66.8434626321
 20
24.7839720341
 30
0.0
  0
SPLINE
  5
666
100
AcDbEntity
  8
RACCORDO
100
AcDbSpline
 62
250
  6
CONTINUOUS
 70
0
 71
3
 72
13
 73
9
 74
0
 42
0.0000001
 43
0.0000001
 44
0.0000000001
 40
0.0
 40
0.0
 40
0.0
 40
0.0
 40
0.0427813244
 40
0.1118823467
 40
0.2086417064
 40
0.3312321675
 40
0.6393629821
 40
1.0
 40
1.0
 40
1.0
 40
1.0
 10
-66.8886125671
 20
28.7495867601
 30
0.0
 10
-66.8865923665
 20
28.753153043
 30
0.0
 10
-66.876979893
 20
28.759352023
 30
0.0
 10
-66.8581644817
 20
28.7654390065
 30
0.0
 10
-66.8308639954
 20
28.7707035754
 30
0.0
 10
-66.7806682103
 20
28.776290243
 30
0.0
 10
-66.7047450892
 20
28.7785874966
 30
0.0
 10
-66.6406875192
 20
28.7765091419
 30
0.0
 10
-66.6061981713
 20
28.7744397372
 30
0.0
  0
SPLINE
  5
667
100
AcDbEntity
  8
RACCORDO
100
AcDbSpline
 62
250
  6
CONTINUOUS
 70
0
 71
3
 72
11
 73
7
 74
0
 42
0.0000001
 43
0.0000001
 44
0.0000000001
 40
0.0
 40
0.0
 40
0.0
 40
0.0
 40
0.2493429483
 40
0.4992036842
 40
0.7495104066
 40
1.0
 40
1.0
 40
1.0
 40
1.0
 10
-66.0363657625
 20
42.5111223874
 30
0.0
 10
-66.0304792379
 20
42.5438198278
 30
0.0
 10
-66.007416145
 20
42.6077926422
 30
0.0
 10
-65.9432522399
 20
42.6866730153
 30
0.0
 10
-65.8567549528
 20
42.7403972303
 30
0.0
 10
-65.7902283754
 20
42.7553732584
 30
0.0
 10
-65.7569039529
 20
42.7572257604
 30
0.0
  0
SPLINE
  5
668
100
AcDbEntity
  8
0
100
AcDbSpline
 62
250
  6
CONTINUOUS
 70
0
 71
3
 72
10
 73
6
 74
0
 42
0.0000001
 43
0.0000001
 44
0.0000000001
 40
0.0
 40
0.0
 40
0.0
 40
0.0
 40
0.2133784437
 40
0.4564062618
 40
1.0
 40
1.0
 40
1.0
 40
1.0
 10
-60.6292584862
 20
-25.5184751291
 30
0.0
 10
-60.8282107927
 20
-25.5085107362
 30
0.0
 10
-61.2539964155
 20
-25.491831306
 30
0.0
 10
-62.1873278255
 20
-25.4701661708
 30
0.0
 10
-62.9218119395
 20
-25.4692121363
 30
0.0
 10
-63.4292584862
 20
-25.4748284415
 30
0.0
  0
SPLINE
  5
669
100
AcDbEntity
  8
RACCORDO
100
AcDbSpline
 62
250
  6
CONTINUOUS
 70
0
 71
3
 72
11
 73
7
 74
0
 42
0.0000001
 43
0.0000001
 44
0.0000000001
 40
0.0
 40
0.0
 40
0.0
 40
0.0
 40
0.2493429496
 40
0.4992036863
 40
0.7495104082
 40
1.0
 40
1.0
 40
1.0
 40
1.0
 10
-66.0363657694
 20
-43.2342957774
 30
0.0
 10
-66.0304791875
 20
-43.2669931709
 30
0.0
 10
-66.0074160078
 20
-43.3309658721
 30
0.0
 10
-65.9432520656
 20
-43.4098460675
 30
0.0
 10
-65.8567548213
 20
-43.4635701336
 30
0.0
 10
-65.7902283101
 20
-43.4785461015
 30
0.0
 10
-65.7569039232
 20
-43.4803985861
 30
0.0
  0
LINE
  5
66A
100
AcDbEntity
  8
0
100
AcDbLine
 62
250
  6
CONTINUOUS
 10
-60.6292584862
 20
-29.219122624
 11
-60.6362906989
 21
-29.219984535
  0
SPLINE
  5
66B
100
AcDbEntity
  8
0
100
AcDbSpline
 62
250
  6
CONTINUOUS
 70
0
 71
3
 72
10
 73
6
 74
0
 42
0.0000001
 43
0.0000001
 44
0.0000000001
 40
0.0
 40
0.0
 40
0.0
 40
0.0
 40
0.2130325647
 40
0.4560716176
 40
1.0
 40
1.0
 40
1.0
 40
1.0
 10
-60.6362906989
 20
-29.219984535
 30
0.0
 10
-60.8335201455
 20
-29.244101098
 30
0.0
 10
-61.2569600968
 20
-29.2860216905
 30
0.0
 10
-62.1877065766
 20
-29.3479197999
 30
0.0
 10
-62.9219308091
 20
-29.3660117119
 30
0.0
 10
-63.4292584862
 20
-29.367384201
 30
0.0
  0
SPLINE
  5
66C
100
AcDbEntity
  8
0
100
AcDbSpline
 62
250
  6
CONTINUOUS
 70
0
 71
3
 72
10
 73
6
 74
0
 42
0.0000001
 43
0.0000001
 44
0.0000000001
 40
0.0
 40
0.0
 40
0.0
 40
0.0
 40
0.2128321267
 40
0.4558331287
 40
1.0
 40
1.0
 40
1.0
 40
1.0
 10
-60.6292584862
 20
-29.288537684
 30
0.0
 10
-60.8267083423
 20
-29.3136609861
 30
0.0
 10
-61.2508989662
 20
-29.3573428689
 30
0.0
 10
-62.1839682105
 20
-29.4219178748
 30
0.0
 10
-62.9203530165
 20
-29.4408922095
 30
0.0
 10
-63.4292584862
 20
-29.4424439698
 30
0.0
  0
LINE
  5
66D
100
AcDbEntity
  8
RACCORDO
100
AcDbLine
 62
250
  6
CONTINUOUS
 10
-68.621198032
 20
22.4886947565
 11
-68.6214534966
 21
22.4640253808
  0
SPLINE
  5
66E
100
AcDbEntity
  8
RACCORDO
100
AcDbSpline
 62
250
  6
CONTINUOUS
 70
0
 71
3
 72
9
 73
5
 74
0
 42
0.0000001
 43
0.0000001
 44
0.0000000001
 40
0.0
 40
0.0
 40
0.0
 40
0.0
 40
0.4604192082
 40
1.0
 40
1.0
 40
1.0
 40
1.0
 10
-68.6221054192
 20
22.4125578747
 30
0.0
 10
-68.6243990772
 20
22.2500374401
 30
0.0
 10
-68.6334549382
 20
21.8971152541
 30
0.0
 10
-68.6466968653
 20
21.5443392418
 30
0.0
 10
-68.6549052905
 20
21.3540340431
 30
0.0
  0
SPLINE
  5
66F
100
AcDbEntity
  8
0
100
AcDbSpline
 62
250
  6
CONTINUOUS
 70
0
 71
3
 72
11
 73
7
 74
0
 42
0.0000001
 43
0.0000001
 44
0.0000000001
 40
0.0
 40
0.0
 40
0.0
 40
0.0
 40
0.2453504506
 40
0.4893568319
 40
0.739238164
 40
1.0
 40
1.0
 40
1.0
 40
1.0
 10
-63.4292584862
 20
-43.0432456495
 30
0.0
 10
-63.1743276516
 20
-43.0346305827
 30
0.0
 10
-62.6661061674
 20
-42.9687616227
 30
0.0
 10
-61.9328435949
 20
-42.7236455974
 30
0.0
 10
-61.2462771271
 20
-42.334254906
 30
0.0
 10
-60.8410192366
 20
-41.985124512
 30
0.0
 10
-60.6535495531
 20
-41.78929396
 30
0.0
  0
SPLINE
  5
670
100
AcDbEntity
  8
0
100
AcDbSpline
 62
250
  6
CONTINUOUS
 70
0
 71
3
 72
11
 73
7
 74
0
 42
0.0000001
 43
0.0000001
 44
0.0000000001
 40
0.0
 40
0.0
 40
0.0
 40
0.0
 40
0.2444628352
 40
0.4877865625
 40
0.7378327342
 40
1.0
 40
1.0
 40
1.0
 40
1.0
 10
-63.4292584862
 20
-43.104862405
 30
0.0
 10
-63.1719713902
 20
-43.0963212618
 30
0.0
 10
-62.6587872898
 20
-43.0291685646
 30
0.0
 10
-61.9185745315
 20
-42.777605718
 30
0.0
 10
-61.225525458
 20
-42.3768614243
 30
0.0
 10
-60.8177085803
 20
-42.0174650584
 30
0.0
 10
-60.6292584862
 20
-41.8157165404
 30
0.0
  0
SPLINE
  5
671
100
AcDbEntity
  8
0
100
AcDbSpline
 62
250
  6
CONTINUOUS
 70
0
 71
3
 72
11
 73
7
 74
0
 42
0.0000001
 43
0.0000001
 44
0.0000000001
 40
0.0
 40
0.0
 40
0.0
 40
0.0
 40
0.2396292419
 40
0.4783094419
 40
0.7288185306
 40
1.0
 40
1.0
 40
1.0
 40
1.0
 10
-63.4292584862
 20
-43.5282777978
 30
0.0
 10
-63.1767148799
 20
-43.5242312671
 30
0.0
 10
-62.6718019495
 20
-43.4646612792
 30
0.0
 10
-61.9391848848
 20
-43.2166069822
 30
0.0
 10
-61.2440272561
 20
-42.8070108361
 30
0.0
 10
-60.8335093603
 20
-42.4344341012
 30
0.0
 10
-60.6415224283
 20
-42.2226759781
 30
0.0
  0
SPLINE
  5
672
100
AcDbEntity
  8
0
100
AcDbSpline
 62
250
  6
CONTINUOUS
 70
0
 71
3
 72
11
 73
7
 74
0
 42
0.0000001
 43
0.0000001
 44
0.0000000001
 40
0.0
 40
0.0
 40
0.0
 40
0.0
 40
0.2390586735
 40
0.477233414
 40
0.7278248422
 40
1.0
 40
1.0
 40
1.0
 40
1.0
 10
-63.4292584862
 20
-43.5561220414
 30
0.0
 10
-63.1757640869
 20
-43.552364334
 30
0.0
 10
-62.6687950044
 20
-43.4927777798
 30
0.0
 10
-61.9329517519
 20
-43.2424701808
 30
0.0
 10
-61.2342135336
 20
-42.8278292983
 30
0.0
 10
-60.8220219316
 20
-42.4502271207
 30
0.0
 10
-60.6292584862
 20
-42.2353861039
 30
0.0
  0
LINE
  5
673
100
AcDbEntity
  8
RACCORDO
100
AcDbLine
 62
250
  6
CONTINUOUS
 10
-68.621198032
 20
22.4886947565
 11
-68.6093710012
 21
22.7459025847
  0
LINE
  5
674
100
AcDbEntity
  8
RACCORDO
100
AcDbLine
 62
250
  6
CONTINUOUS
 10
-68.6093710012
 20
22.7459025847
 11
-68.579552655
 21
23.3819850352
  0
LINE
  5
675
100
AcDbEntity
  8
ASSI
100
AcDbLine
 62
7
  6
CONTINUOUS
 10
-69.1435105395
 20
-26.4723940354
 11
-69.1166331368
 21
-26.8904470003
  0
SPLINE
  5
676
100
AcDbEntity
  8
ASSI
100
AcDbSpline
 62
250
  6
CONTINUOUS
 70
0
 71
3
 72
14
 73
10
 74
0
 42
0.0000001
 43
0.0000001
 44
0.0000000001
 40
0.0
 40
0.0
 40
0.0
 40
0.0
 40
0.0363101043
 40
0.102777623
 40
0.1989359185
 40
0.3222272703
 40
0.4688257254
 40
0.6342071667
 40
1.0
 40
1.0
 40
1.0
 40
1.0
 10
-67.1263948708
 20
24.7707695776
 30
0.0
 10
-67.1241274547
 20
24.7733666505
 30
0.0
 10
-67.1142387416
 20
24.776652937
 30
0.0
 10
-67.0961214178
 20
24.7803614323
 30
0.0
 10
-67.0689043229
 20
24.7832547079
 30
0.0
 10
-67.0342893837
 20
24.785410117
 30
0.0
 10
-66.992943604
 20
24.7865977479
 30
0.0
 10
-66.9285980781
 20
24.7868557038
 30
0.0
 10
-66.8781613749
 20
24.785482605
 30
0.0
 10
-66.8434626321
 20
24.7839720341
 30
0.0
  0
SPLINE
  5
677
100
AcDbEntity
  8
ASSI
100
AcDbSpline
 62
250
  6
CONTINUOUS
 70
0
 71
3
 72
13
 73
9
 74
0
 42
0.0000001
 43
0.0000001
 44
0.0000000001
 40
0.0
 40
0.0
 40
0.0
 40
0.0
 40
0.0427813244
 40
0.1118823467
 40
0.2086417064
 40
0.3312321675
 40
0.6393629821
 40
1.0
 40
1.0
 40
1.0
 40
1.0
 10
-66.8886125671
 20
28.7495867601
 30
0.0
 10
-66.8865923665
 20
28.753153043
 30
0.0
 10
-66.876979893
 20
28.759352023
 30
0.0
 10
-66.8581644817
 20
28.7654390065
 30
0.0
 10
-66.8308639954
 20
28.7707035754
 30
0.0
 10
-66.7806682103
 20
28.776290243
 30
0.0
 10
-66.7047450892
 20
28.7785874966
 30
0.0
 10
-66.6406875192
 20
28.7765091419
 30
0.0
 10
-66.6061981713
 20
28.7744397372
 30
0.0
  0
SPLINE
  5
678
100
AcDbEntity
  8
ASSI
100
AcDbSpline
 62
250
  6
CONTINUOUS
 70
0
 71
3
 72
11
 73
7
 74
0
 42
0.0000001
 43
0.0000001
 44
0.0000000001
 40
0.0
 40
0.0
 40
0.0
 40
0.0
 40
0.2493429483
 40
0.4992036842
 40
0.7495104066
 40
1.0
 40
1.0
 40
1.0
 40
1.0
 10
-66.0363657625
 20
42.5111223874
 30
0.0
 10
-66.0304792379
 20
42.5438198278
 30
0.0
 10
-66.007416145
 20
42.6077926422
 30
0.0
 10
-65.9432522399
 20
42.6866730153
 30
0.0
 10
-65.8567549528
 20
42.7403972303
 30
0.0
 10
-65.7902283754
 20
42.7553732584
 30
0.0
 10
-65.7569039529
 20
42.7572257604
 30
0.0
  0
LINE
  5
679
100
AcDbEntity
  8
ASSI
100
AcDbLine
 62
250
  6
CONTINUOUS
 10
-68.9843735337
 20
-24.1051584239
 11
-69.1048380072
 21
-24.2779173629
  0
LINE
  5
67A
100
AcDbEntity
  8
ASSI
100
AcDbLine
 62
250
  6
CONTINUOUS
 10
-69.1048380072
 20
-24.2779173629
 11
-69.1198967873
 21
-24.299513065
  0
SPLINE
  5
67B
100
AcDbEntity
  8
ASSI
100
AcDbSpline
 62
250
  6
CONTINUOUS
 70
0
 71
3
 72
9
 73
5
 74
0
 42
0.0000001
 43
0.0000001
 44
0.0000000001
 40
0.0
 40
0.0
 40
0.0
 40
0.0
 40
0.2341587117
 40
1.0
 40
1.0
 40
1.0
 40
1.0
 10
-66.0511416207
 20
-44.2513600936
 30
0.0
 10
-66.040936446
 20
-44.2255570228
 30
0.0
 10
-65.9963345204
 20
-44.115765773
 30
0.0
 10
-65.94799705
 20
-44.0075132096
 30
0.0
 10
-65.9095157448
 20
-43.9253232812
 30
0.0
  0
SPLINE
  5
67C
100
AcDbEntity
  8
ASSI
100
AcDbSpline
 62
250
  6
CONTINUOUS
 70
0
 71
3
 72
9
 73
5
 74
0
 42
0.0000001
 43
0.0000001
 44
0.0000000001
 40
0.0
 40
0.0
 40
0.0
 40
0.0
 40
0.439444081
 40
1.0
 40
1.0
 40
1.0
 40
1.0
 10
-65.909515748
 20
-43.925323281
 30
0.0
 10
-65.8803351947
 20
-43.8628462069
 30
0.0
 10
-65.8245739211
 20
-43.7157885795
 30
0.0
 10
-65.7800121504
 20
-43.5652811731
 30
0.0
 10
-65.7569068913
 20
-43.4804099774
 30
0.0
  0
SPLINE
  5
67D
100
AcDbEntity
  8
ASSI
100
AcDbSpline
 62
250
  6
CONTINUOUS
 70
0
 71
3
 72
21
 73
17
 74
0
 42
0.0000001
 43
0.0000001
 44
0.0000000001
 40
0.0
 40
0.0
 40
0.0
 40
0.0
 40
0.0065832935
 40
0.0150468041
 40
0.0254106074
 40
0.0376750809
 40
0.0678596337
 40
0.1054442774
 40
0.1501910405
 40
0.2018018748
 40
0.2599273479
 40
0.3241731537
 40
0.4692547142
 40
0.6331783566
 40
0.8116380048
 40
1.0
 40
1.0
 40
1.0
 40
1.0
 10
-65.75690621
 20
-43.4804100126
 30
0.0
 10
-65.7489404385
 20
-43.4506973865
 30
0.0
 10
-65.7357587632
 20
-43.3814770959
 30
0.0
 10
-65.7219812357
 20
-43.263511259
 30
0.0
 10
-65.7120180159
 20
-43.11852154
 30
0.0
 10
-65.7032522363
 20
-42.8718719438
 30
0.0
 10
-65.7039004513
 20
-42.4977918289
 30
0.0
 10
-65.7187366392
 20
-41.9722240495
 30
0.0
 10
-65.747407654
 20
-41.3469797741
 30
0.0
 10
-65.7888740541
 20
-40.6263070873
 30
0.0
 10
-65.8419993607
 20
-39.815068832
 30
0.0
 10
-65.9302755332
 20
-38.5684548276
 30
0.0
 10
-66.0621982339
 20
-36.8293480172
 30
0.0
 10
-66.2372119716
 20
-34.5582967203
 30
0.0
 10
-66.4233003172
 20
-32.085260694
 30
0.0
 10
-66.5455184972
 20
-30.3755622189
 30
0.0
 10
-66.6062065146
 20
-29.4974941134
 30
0.0
  0
SPLINE
  5
67E
100
AcDbEntity
  8
ASSI
100
AcDbSpline
 62
250
  6
CONTINUOUS
 70
0
 71
3
 72
11
 73
7
 74
0
 42
0.0000001
 43
0.0000001
 44
0.0000000001
 40
0.0
 40
0.0
 40
0.0
 40
0.0
 40
0.2493429496
 40
0.4992036863
 40
0.7495104082
 40
1.0
 40
1.0
 40
1.0
 40
1.0
 10
-66.0363657694
 20
-43.2342957774
 30
0.0
 10
-66.0304791875
 20
-43.2669931709
 30
0.0
 10
-66.0074160078
 20
-43.3309658721
 30
0.0
 10
-65.9432520656
 20
-43.4098460675
 30
0.0
 10
-65.8567548213
 20
-43.4635701336
 30
0.0
 10
-65.7902283101
 20
-43.4785461015
 30
0.0
 10
-65.7569039232
 20
-43.4803985861
 30
0.0
  0
SPLINE
  5
67F
100
AcDbEntity
  8
ASSI
100
AcDbSpline
 62
250
  6
CONTINUOUS
 70
0
 71
3
 72
21
 73
17
 74
0
 42
0.0000001
 43
0.0000001
 44
0.0000000001
 40
0.0
 40
0.0
 40
0.0
 40
0.0
 40
0.1883621288
 40
0.3668218678
 40
0.5307455659
 40
0.6758271455
 40
0.7400729468
 40
0.7981984055
 40
0.8498092154
 40
0.8945559454
 40
0.9321405445
 40
0.9623250486
 40
0.9745894953
 40
0.9849532577
 40
0.9934167211
 40
1.0
 40
1.0
 40
1.0
 40
1.0
 10
-66.6062055216
 20
28.7743349484
 30
0.0
 10
-66.5455176675
 20
29.6524028936
 30
0.0
 10
-66.4232992462
 20
31.3621008503
 30
0.0
 10
-66.2372110234
 20
33.8351359509
 30
0.0
 10
-66.0621973473
 20
36.1061859648
 30
0.0
 10
-65.9302747709
 20
37.8452915339
 30
0.0
 10
-65.8419987429
 20
39.0919044172
 30
0.0
 10
-65.7888735462
 20
39.903141741
 30
0.0
 10
-65.7474073034
 20
40.6238134475
 30
0.0
 10
-65.7187364058
 20
41.2490566846
 30
0.0
 10
-65.703900392
 20
41.7746234044
 30
0.0
 10
-65.7032523639
 20
42.148702618
 30
0.0
 10
-65.7120181452
 20
42.3953514474
 30
0.0
 10
-65.7219814546
 20
42.5403404911
 30
0.0
 10
-65.735759224
 20
42.658305718
 30
0.0
 10
-65.7489409321
 20
42.7275256224
 30
0.0
 10
-65.7569065364
 20
42.7572381941
 30
0.0
  0
SPLINE
  5
680
100
AcDbEntity
  8
ASSI
100
AcDbSpline
 62
250
  6
CONTINUOUS
 70
0
 71
3
 72
9
 73
5
 74
0
 42
0.0000001
 43
0.0000001
 44
0.0000000001
 40
0.0
 40
0.0
 40
0.0
 40
0.0
 40
0.2659286395
 40
1.0
 40
1.0
 40
1.0
 40
1.0
 10
-65.9095157617
 20
43.2021499303
 30
0.0
 10
-65.9228778091
 20
43.2306891316
 30
0.0
 10
-65.9724351828
 20
43.3383264043
 30
0.0
 10
-66.0191493338
 20
43.4472964444
 30
0.0
 10
-66.0511416207
 20
43.5281867048
 30
0.0
  0
LINE
  5
681
100
AcDbEntity
  8
ASSI
100
AcDbLine
 62
250
  6
CONTINUOUS
 10
-66.0511416207
 20
43.5281867048
 11
-66.4104483309
 21
44.4432070689
  0
LINE
  5
682
100
AcDbEntity
  8
ASSI
100
AcDbLine
 62
250
  6
CONTINUOUS
 10
-66.4104483309
 20
44.4432070689
 11
-66.4253356233
 21
44.4813944571
  0
SPLINE
  5
683
100
AcDbEntity
  8
ASSI
100
AcDbSpline
 62
250
  6
CONTINUOUS
 70
0
 71
3
 72
9
 73
5
 74
0
 42
0.0000001
 43
0.0000001
 44
0.0000000001
 40
0.0
 40
0.0
 40
0.0
 40
0.0
 40
0.5605557881
 40
1.0
 40
1.0
 40
1.0
 40
1.0
 10
-65.7569073162
 20
42.7572381538
 30
0.0
 10
-65.7800124961
 20
42.8421090439
 30
0.0
 10
-65.8245741872
 20
42.9926159265
 30
0.0
 10
-65.8803353088
 20
43.1396730436
 30
0.0
 10
-65.9095157656
 20
43.2021499301
 30
0.0
  0
SPLINE
  5
684
100
AcDbEntity
  8
ASSI
100
AcDbSpline
 62
250
  6
CONTINUOUS
 70
0
 71
3
 72
13
 73
9
 74
0
 42
0.0000001
 43
0.0000001
 44
0.0000000001
 40
0.0
 40
0.0
 40
0.0
 40
0.0
 40
0.0427811486
 40
0.1118820091
 40
0.2086412729
 40
0.3312317111
 40
0.6393626717
 40
1.0
 40
1.0
 40
1.0
 40
1.0
 10
-66.8886126444
 20
-29.4727601553
 30
0.0
 10
-66.8865924836
 20
-29.4763264429
 30
0.0
 10
-66.8769800474
 20
-29.4825254517
 30
0.0
 10
-66.8581646798
 20
-29.4886124419
 30
0.0
 10
-66.8308642125
 20
-29.4938770279
 30
0.0
 10
-66.780668411
 20
-29.4994637125
 30
0.0
 10
-66.7047452228
 20
-29.5017609775
 30
0.0
 10
-66.6406875884
 20
-29.4996826225
 30
0.0
 10
-66.6061981996
 20
-29.4976132153
 30
0.0
  0
SPLINE
  5
685
100
AcDbEntity
  8
ASSI
100
AcDbSpline
 62
250
  6
CONTINUOUS
 70
0
 71
3
 72
14
 73
10
 74
0
 42
0.0000001
 43
0.0000001
 44
0.0000000001
 40
0.0
 40
0.0
 40
0.0
 40
0.0
 40
0.0363101019
 40
0.1027776188
 40
0.1989359135
 40
0.3222272653
 40
0.4688257211
 40
0.6342071637
 40
1.0
 40
1.0
 40
1.0
 40
1.0
 10
-67.1263948743
 20
-25.4939429666
 30
0.0
 10
-67.1241274586
 20
-25.4965400395
 30
0.0
 10
-67.1142387457
 20
-25.4998263262
 30
0.0
 10
-67.0961214223
 20
-25.5035348216
 30
0.0
 10
-67.0689043273
 20
-25.5064280973
 30
0.0
 10
-67.0342893876
 20
-25.5085835064
 30
0.0
 10
-66.9929436073
 20
-25.5097711374
 30
0.0
 10
-66.9285980801
 20
-25.5100290933
 30
0.0
 10
-66.8781613759
 20
-25.5086559945
 30
0.0
 10
-66.8434626324
 20
-25.5071454235
 30
0.0
  0
SPLINE
  5
686
100
AcDbEntity
  8
ASSI
100
AcDbSpline
 62
7
  6
CONTINUOUS
 70
0
 71
3
 72
9
 73
5
 74
0
 42
0.0000001
 43
0.0000001
 44
0.0000000001
 40
0.0
 40
0.0
 40
0.0
 40
0.0
 40
0.5722682816
 40
1.0
 40
1.0
 40
1.0
 40
1.0
 10
-68.8460480418
 20
-28.4816868507
 30
0.0
 10
-68.8541635353
 20
-28.3769300533
 30
0.0
 10
-68.8683349264
 20
-28.1938750929
 30
0.0
 10
-68.8818928966
 20
-28.0107686299
 30
0.0
 10
-68.8884677181
 20
-27.9325111312
 30
0.0
  0
LINE
  5
687
100
AcDbEntity
  8
ASSI
100
AcDbLine
 62
7
  6
CONTINUOUS
 10
-68.8884677181
 20
-27.9325111312
 11
-68.8896668931
 21
-27.9159673224
  0
SPLINE
  5
688
100
AcDbEntity
  8
ASSI
100
AcDbSpline
 62
7
  6
CONTINUOUS
 70
0
 71
3
 72
16
 73
12
 74
0
 42
0.0000001
 43
0.0000001
 44
0.0000000001
 40
0.0
 40
0.0
 40
0.0
 40
0.0
 40
0.0144452898
 40
0.0380373623
 40
0.0897515352
 40
0.1481227552
 40
0.2136973082
 40
0.3587538059
 40
0.5123603895
 40
0.8048659529
 40
1.0
 40
1.0
 40
1.0
 40
1.0
 10
-68.8896668931
 20
-27.9159673224
 30
0.0
 10
-68.8899190008
 20
-27.9091472394
 30
0.0
 10
-68.8912695607
 20
-27.8912217695
 30
0.0
 10
-68.893941858
 20
-27.8489058365
 30
0.0
 10
-68.8982171582
 20
-27.7858920309
 30
0.0
 10
-68.9037524995
 20
-27.7030863079
 30
0.0
 10
-68.9123644925
 20
-27.5762867761
 30
0.0
 10
-68.9240567567
 20
-27.4045989996
 30
0.0
 10
-68.9429809619
 20
-27.1259402203
 30
0.0
 10
-68.9636250149
 20
-26.8236867539
 30
0.0
 10
-68.9788636376
 20
-26.5937994433
 30
0.0
 10
-68.9858232932
 20
-26.5018705697
 30
0.0
  0
SPLINE
  5
689
100
AcDbEntity
  8
ASSI
100
AcDbSpline
 62
7
  6
CONTINUOUS
 70
0
 71
3
 72
15
 73
11
 74
0
 42
0.0000001
 43
0.0000001
 44
0.0000000001
 40
0.0
 40
0.0
 40
0.0
 40
0.0
 40
0.2773450526
 40
0.4976906017
 40
0.6677503848
 40
0.7950875452
 40
0.8876061722
 40
0.9509819727
 40
0.98765206
 40
1.0
 40
1.0
 40
1.0
 40
1.0
 10
-68.9858232932
 20
-26.5018705697
 30
0.0
 10
-68.9864895772
 20
-26.4930676302
 30
0.0
 10
-68.9877045159
 20
-26.4772767834
 30
0.0
 10
-68.9893954081
 20
-26.4560737326
 30
0.0
 10
-68.9908063962
 20
-26.439692257
 30
0.0
 10
-68.9918973696
 20
-26.4272354247
 30
0.0
 10
-68.9929094981
 20
-26.4184929863
 30
0.0
 10
-68.9934093244
 20
-26.4119223406
 30
0.0
 10
-68.9942854689
 20
-26.4091947596
 30
0.0
 10
-68.9942626834
 20
-26.4068360606
 30
0.0
 10
-68.9946556558
 20
-26.4068436153
 30
0.0
  0
SPLINE
  5
68A
100
AcDbEntity
  8
ASSI
100
AcDbSpline
 62
250
  6
CONTINUOUS
 70
0
 71
3
 72
14
 73
10
 74
0
 42
0.0000001
 43
0.0000001
 44
0.0000000001
 40
0.0
 40
0.0
 40
0.0
 40
0.0
 40
0.0359085984
 40
0.1022433482
 40
0.1983920533
 40
0.321746036
 40
0.4684505447
 40
0.6339598783
 40
1.0
 40
1.0
 40
1.0
 40
1.0
 10
-67.1886354233
 20
-24.1051584232
 30
0.0
 10
-67.1863451785
 20
-24.1076846856
 30
0.0
 10
-67.1764723974
 20
-24.1107971305
 30
0.0
 10
-67.1583964327
 20
-24.114460897
 30
0.0
 10
-67.1311849381
 20
-24.1173507553
 30
0.0
 10
-67.096558825
 20
-24.1196135462
 30
0.0
 10
-67.0551863219
 20
-24.1209886832
 30
0.0
 10
-66.9907908518
 20
-24.1216246901
 30
0.0
 10
-66.9403054562
 20
-24.1206269148
 30
0.0
 10
-66.9055679216
 20
-24.1194033496
 30
0.0
  0
SPLINE
  5
68B
100
AcDbEntity
  8
ASSI
100
AcDbSpline
 62
250
  6
CONTINUOUS
 70
0
 71
3
 72
14
 73
10
 74
0
 42
0.0000001
 43
0.0000001
 44
0.0000000001
 40
0.0
 40
0.0
 40
0.0
 40
0.0
 40
0.0359085862
 40
0.1022433269
 40
0.1983920275
 40
0.32174601
 40
0.4684505222
 40
0.6339598621
 40
1.0
 40
1.0
 40
1.0
 40
1.0
 10
-67.1886354378
 20
23.3819850352
 30
0.0
 10
-67.1863451952
 20
23.3845112981
 30
0.0
 10
-67.1764724147
 20
23.3876237436
 30
0.0
 10
-67.1583964524
 20
23.3912875104
 30
0.0
 10
-67.1311849574
 20
23.3941773691
 30
0.0
 10
-67.0965588429
 20
23.3964401603
 30
0.0
 10
-67.0551863369
 20
23.3978152975
 30
0.0
 10
-66.9907908612
 20
23.3984513046
 30
0.0
 10
-66.940305461
 20
23.397453529
 30
0.0
 10
-66.9055679231
 20
23.3962299637
 30
0.0
  0
SPLINE
  5
68C
100
AcDbEntity
  8
ASSI
100
AcDbSpline
 62
250
  6
CONTINUOUS
 70
0
 71
3
 72
21
 73
17
 74
0
 42
0.0000001
 43
0.0000001
 44
0.0000000001
 40
0.0
 40
0.0
 40
0.0
 40
0.0
 40
0.0065909801
 40
0.0150623805
 40
0.0254353875
 40
0.0377107701
 40
0.067922229
 40
0.1055394932
 40
0.1503220753
 40
0.2019687092
 40
0.2601265939
 40
0.3243981769
 40
0.4695006132
 40
0.6333930407
 40
0.8117672406
 40
1.0
 40
1.0
 40
1.0
 40
1.0
 10
-66.0363657619
 20
-43.2342957761
 30
0.0
 10
-66.0283999378
 20
-43.2050480757
 30
0.0
 10
-66.0152192085
 20
-43.1368787537
 30
0.0
 10
-66.0014581243
 20
-43.0206772327
 30
0.0
 10
-65.9915253885
 20
-42.8778475776
 30
0.0
 10
-65.9828229341
 20
-42.6348654331
 30
0.0
 10
-65.9835840205
 20
-42.2663458318
 30
0.0
 10
-65.9985897701
 20
-41.7486222192
 30
0.0
 10
-66.0274647493
 20
-41.1327683794
 30
0.0
 10
-66.0691603817
 20
-40.4230102441
 30
0.0
 10
-66.1225307892
 20
-39.6241783341
 30
0.0
 10
-66.2111492887
 20
-38.3969441858
 30
0.0
 10
-66.3434830347
 20
-36.6853286419
 30
0.0
 10
-66.5189373973
 20
-34.4507122667
 30
0.0
 10
-66.7054008278
 20
-32.0179847326
 30
0.0
 10
-66.8278307629
 20
-30.3363392075
 30
0.0
 10
-66.888612648
 20
-29.4727601556
 30
0.0
  0
SPLINE
  5
68D
100
AcDbEntity
  8
ASSI
100
AcDbSpline
 62
250
  6
CONTINUOUS
 70
0
 71
3
 72
9
 73
5
 74
0
 42
0.0000001
 43
0.0000001
 44
0.0000000001
 40
0.0
 40
0.0
 40
0.0
 40
0.0
 40
0.4394564686
 40
1.0
 40
1.0
 40
1.0
 40
1.0
 10
-66.1889463037
 20
-43.6787823668
 30
0.0
 10
-66.1597668479
 20
-43.616369262
 30
0.0
 10
-66.1040122257
 20
-43.469455336
 30
0.0
 10
-66.0594628307
 20
-43.3190873892
 30
0.0
 10
-66.0363657619
 20
-43.2342957761
 30
0.0
  0
LINE
  5
68E
100
AcDbEntity
  8
ASSI
100
AcDbLine
 62
7
  6
CONTINUOUS
 10
-69.0906411441
 20
-27.2505898732
 11
-69.0959076819
 21
-27.1728616202
  0
LINE
  5
68F
100
AcDbEntity
  8
ASSI
100
AcDbLine
 62
7
  6
CONTINUOUS
 10
-69.0959076819
 20
-27.1728616202
 11
-69.1129885695
 21
-26.9166414903
  0
SPLINE
  5
690
100
AcDbEntity
  8
ASSI
100
AcDbSpline
 62
250
  6
CONTINUOUS
 70
0
 71
3
 72
9
 73
5
 74
0
 42
0.0000001
 43
0.0000001
 44
0.0000000001
 40
0.0
 40
0.0
 40
0.0
 40
0.0
 40
0.2341636533
 40
1.0
 40
1.0
 40
1.0
 40
1.0
 10
-66.3305635482
 20
-44.0052873202
 30
0.0
 10
-66.3203596938
 20
-43.9794473436
 30
0.0
 10
-66.2757633486
 20
-43.8695005711
 30
0.0
 10
-66.2274276998
 20
-43.761091671
 30
0.0
 10
-66.1889463037
 20
-43.6787823668
 30
0.0
  0
LINE
  5
691
100
AcDbEntity
  8
ASSI
100
AcDbLine
 62
7
  6
CONTINUOUS
 10
-69.1129885695
 20
-26.9166414903
 11
-69.1137748214
 21
-26.8957488148
  0
LINE
  5
692
100
AcDbEntity
  8
ASSI
100
AcDbLine
 62
250
  6
CONTINUOUS
 10
-66.4253356233
 20
-45.2045678459
 11
-66.410448336
 21
-45.1663804709
  0
LINE
  5
693
100
AcDbEntity
  8
ASSI
100
AcDbLine
 62
250
  6
CONTINUOUS
 10
-66.410448336
 20
-45.1663804709
 11
-66.0511416207
 21
-44.2513600936
  0
LINE
  5
694
100
AcDbEntity
  8
ASSI
100
AcDbLine
 62
250
  6
CONTINUOUS
 10
-66.7045714458
 20
-44.9598642996
 11
-66.6896918245
 21
-44.921622039
  0
LINE
  5
695
100
AcDbEntity
  8
ASSI
100
AcDbLine
 62
250
  6
CONTINUOUS
 10
-66.6896918245
 20
-44.921622039
 11
-66.3305635482
 21
-44.0052873202
  0
SPLINE
  5
696
100
AcDbEntity
  8
ASSI
100
AcDbSpline
 62
7
  6
CONTINUOUS
 70
0
 71
3
 72
9
 73
5
 74
0
 42
0.0000001
 43
0.0000001
 44
0.0000000001
 40
0.0
 40
0.0
 40
0.0
 40
0.0
 40
0.7181687728
 40
1.0
 40
1.0
 40
1.0
 40
1.0
 10
-69.1361236249
 20
-26.5018705679
 30
0.0
 10
-69.1377918535
 20
-26.4798114288
 30
0.0
 10
-69.1403649519
 20
-26.4491343063
 30
0.0
 10
-69.1428806643
 20
-26.4183993889
 30
0.0
 10
-69.1442131331
 20
-26.4098208606
 30
0.0
  0
SPLINE
  5
697
100
AcDbEntity
  8
ASSI
100
AcDbSpline
 62
7
  6
CONTINUOUS
 70
0
 71
3
 72
9
 73
5
 74
0
 42
0.0000001
 43
0.0000001
 44
0.0000000001
 40
0.0
 40
0.0
 40
0.0
 40
0.0
 40
0.7389527776
 40
1.0
 40
1.0
 40
1.0
 40
1.0
 10
-69.1442131331
 20
-26.4098208606
 30
0.0
 10
-69.1443297122
 20
-26.4090703162
 30
0.0
 10
-69.1446114914
 20
-26.408347154
 30
0.0
 10
-69.1446817787
 20
-26.4068534746
 30
0.0
 10
-69.1449498474
 20
-26.4068418274
 30
0.0
  0
SPLINE
  5
698
100
AcDbEntity
  8
ASSI
100
AcDbSpline
 62
7
  6
CONTINUOUS
 70
0
 71
3
 72
12
 73
8
 74
0
 42
0.0000001
 43
0.0000001
 44
0.0000000001
 40
0.0
 40
0.0
 40
0.0
 40
0.0
 40
0.0681202783
 40
0.1781684626
 40
0.4186985243
 40
0.6925349643
 40
1.0
 40
1.0
 40
1.0
 40
1.0
 10
-69.0400610257
 20
-27.9159673224
 30
0.0
 10
-69.0403301827
 20
-27.9086730327
 30
0.0
 10
-69.0417741146
 20
-27.8896306636
 30
0.0
 10
-69.0445962084
 20
-27.8448584423
 30
0.0
 10
-69.049123154
 20
-27.7781018916
 30
0.0
 10
-69.0549979828
 20
-27.6902376951
 30
0.0
 10
-69.059221125
 20
-27.6280929214
 30
0.0
 10
-69.0614522832
 20
-27.5952229294
 30
0.0
  0
LINE
  5
699
100
AcDbEntity
  8
ASSI
100
AcDbLine
 62
7
  6
CONTINUOUS
 10
-69.0614522832
 20
-27.5952229294
 11
-69.0787201843
 21
-27.3411902937
  0
LINE
  5
69A
100
AcDbEntity
  8
ASSI
100
AcDbLine
 62
7
  6
CONTINUOUS
 10
-69.0787201843
 20
-27.3411902937
 11
-69.0861467817
 21
-27.2318425265
  0
LINE
  5
69B
100
AcDbEntity
  8
ASSI
100
AcDbLine
 62
7
  6
CONTINUOUS
 10
-69.0861467817
 20
-27.2318425265
 11
-69.103736925
 21
-26.972078297
  0
SPLINE
  5
69C
100
AcDbEntity
  8
ASSI
100
AcDbSpline
 62
7
  6
CONTINUOUS
 70
0
 71
3
 72
9
 73
5
 74
0
 42
0.0000001
 43
0.0000001
 44
0.0000000001
 40
0.0
 40
0.0
 40
0.0
 40
0.0
 40
0.6015865379
 40
1.0
 40
1.0
 40
1.0
 40
1.0
 10
-69.103736925
 20
-26.972078297
 30
0.0
 10
-69.1101175331
 20
-26.8777802506
 30
0.0
 10
-69.1208425008
 20
-26.7210403827
 30
0.0
 10
-69.1314023123
 20
-26.5642859394
 30
0.0
 10
-69.1361236249
 20
-26.5018705679
 30
0.0
  0
LINE
  5
69D
100
AcDbEntity
  8
ASSI
100
AcDbLine
 62
7
  6
CONTINUOUS
 10
-69.0388630241
 20
-27.9325111312
 11
-69.0400610257
 21
-27.9159673224
  0
LINE
  5
69E
100
AcDbEntity
  8
ASSI
100
AcDbLine
 62
7
  6
CONTINUOUS
 10
-68.9964835275
 20
-28.4816869224
 11
-69.0052095114
 21
-28.3684223386
  0
SPLINE
  5
69F
100
AcDbEntity
  8
ASSI
100
AcDbSpline
 62
7
  6
CONTINUOUS
 70
0
 71
3
 72
9
 73
5
 74
0
 42
0.0000001
 43
0.0000001
 44
0.0000000001
 40
0.0
 40
0.0
 40
0.0
 40
0.0
 40
0.5789543888
 40
1.0
 40
1.0
 40
1.0
 40
1.0
 10
-69.0052095114
 20
-28.3684223386
 30
0.0
 10
-69.0116670831
 20
-28.2842952252
 30
0.0
 10
-69.0228702611
 20
-28.1389912739
 30
0.0
 10
-69.0337302258
 20
-27.9936576501
 30
0.0
 10
-69.0388630241
 20
-27.9325111312
 30
0.0
  0
SPLINE
  5
6A0
100
AcDbEntity
  8
ASSI
100
AcDbSpline
 62
250
  6
CONTINUOUS
 70
0
 71
3
 72
9
 73
5
 74
0
 42
0.0000001
 43
0.0000001
 44
0.0000000001
 40
0.0
 40
0.0
 40
0.0
 40
0.0
 40
0.2659236103
 40
1.0
 40
1.0
 40
1.0
 40
1.0
 10
-66.1889463037
 20
42.9556089781
 30
0.0
 10
-66.2023082178
 20
42.9841892783
 30
0.0
 10
-66.2518652588
 20
43.0919830304
 30
0.0
 10
-66.2985758523
 20
43.2011091193
 30
0.0
 10
-66.3305635482
 20
43.2821139314
 30
0.0
  0
SPLINE
  5
6A1
100
AcDbEntity
  8
ASSI
100
AcDbSpline
 62
250
  6
CONTINUOUS
 70
0
 71
3
 72
9
 73
5
 74
0
 42
0.0000001
 43
0.0000001
 44
0.0000000001
 40
0.0
 40
0.0
 40
0.0
 40
0.0
 40
0.5605435314
 40
1.0
 40
1.0
 40
1.0
 40
1.0
 10
-66.0363657619
 20
42.5111223873
 30
0.0
 10
-66.0594628254
 20
42.5959140019
 30
0.0
 10
-66.1040122229
 20
42.7462819489
 30
0.0
 10
-66.1597668555
 20
42.8931958696
 30
0.0
 10
-66.1889463037
 20
42.9556089781
 30
0.0
  0
LINE
  5
6A2
100
AcDbEntity
  8
ASSI
100
AcDbLine
 62
7
  6
CONTINUOUS
 10
-69.1183944976
 20
-26.9005607823
 11
-69.1190554938
 21
-26.8906056243
  0
LINE
  5
6A3
100
AcDbEntity
  8
ASSI
100
AcDbLine
 62
7
  6
CONTINUOUS
 10
-69.1190554938
 20
-26.8906056243
 11
-69.1462195756
 21
-26.4725732899
  0
LINE
  5
6A4
100
AcDbEntity
  8
ASSI
100
AcDbLine
 62
250
  6
CONTINUOUS
 10
-66.3305635482
 20
43.2821139314
 11
-66.6896918193
 21
44.198448637
  0
LINE
  5
6A5
100
AcDbEntity
  8
ASSI
100
AcDbLine
 62
250
  6
CONTINUOUS
 10
-66.6896918193
 20
44.198448637
 11
-66.7045714458
 21
44.2366909109
  0
SPLINE
  5
6A6
100
AcDbEntity
  8
ASSI
100
AcDbSpline
 62
250
  6
CONTINUOUS
 70
0
 71
3
 72
21
 73
17
 74
0
 42
0.0000001
 43
0.0000001
 44
0.0000000001
 40
0.0
 40
0.0
 40
0.0
 40
0.0
 40
0.1882327775
 40
0.3666069724
 40
0.530499399
 40
0.6756018344
 40
0.7398734165
 40
0.7980313009
 40
0.8496779311
 40
0.8944605157
 40
0.932077771
 40
0.9622892298
 40
0.9745646265
 40
0.9849376261
 40
0.993409001
 40
1.0
 40
1.0
 40
1.0
 40
1.0
 10
-66.888612648
 20
28.7495867668
 30
0.0
 10
-66.8278308238
 20
29.6131659062
 30
0.0
 10
-66.7054007655
 20
31.2948114816
 30
0.0
 10
-66.5189373921
 20
33.7275390746
 30
0.0
 10
-66.3434830174
 20
35.962155416
 30
0.0
 10
-66.2111492747
 20
37.6737709469
 30
0.0
 10
-66.1225307825
 20
38.901005085
 30
0.0
 10
-66.0691603726
 20
39.6998369716
 30
0.0
 10
-66.0274647574
 20
40.4095951004
 30
0.0
 10
-65.9985897655
 20
41.0254488923
 30
0.0
 10
-65.9835840281
 20
41.5431724768
 30
0.0
 10
-65.9828229958
 20
41.9116920987
 30
0.0
 10
-65.9915253464
 20
42.1546742776
 30
0.0
 10
-66.0014580767
 20
42.2975038459
 30
0.0
 10
-66.0152193208
 20
42.4137052932
 30
0.0
 10
-66.0284000906
 20
42.4818745553
 30
0.0
 10
-66.0363657619
 20
42.5111223873
 30
0.0
  0
LINE
  5
6A7
100
AcDbEntity
  8
ASSI
100
AcDbLine
 62
250
  6
CONTINUOUS
 10
-68.9843735337
 20
23.3819850352
 11
-68.6338838954
 21
22.8810398917
  0
SPLINE
  5
6A8
100
AcDbEntity
  8
ASSI
100
AcDbSpline
 62
250
  6
CONTINUOUS
 70
0
 71
3
 72
13
 73
9
 74
0
 42
0.0000001
 43
0.0000001
 44
0.0000000001
 40
0.0
 40
0.0
 40
0.0
 40
0.0
 40
0.0357809916
 40
0.0967802036
 40
0.183780401
 40
0.2967815454
 40
0.5990945992
 40
1.0
 40
1.0
 40
1.0
 40
1.0
 10
-68.6338838954
 20
22.8810398917
 30
0.0
 10
-68.6326241903
 20
22.8792391709
 30
0.0
 10
-68.6308896368
 20
22.8733906774
 30
0.0
 10
-68.6288065326
 20
22.8623770852
 30
0.0
 10
-68.6269696013
 20
22.8464032515
 30
0.0
 10
-68.6245110566
 20
22.8156697038
 30
0.0
 10
-68.6223919534
 20
22.7655545695
 30
0.0
 10
-68.6215079383
 20
22.7223786054
 30
0.0
 10
-68.6211775731
 20
22.6977579627
 30
0.0
  0
SPLINE
  5
6A9
100
AcDbEntity
  8
ASSI
100
AcDbSpline
 62
250
  6
CONTINUOUS
 70
0
 71
3
 72
9
 73
5
 74
0
 42
0.0000001
 43
0.0000001
 44
0.0000000001
 40
0.0
 40
0.0
 40
0.0
 40
0.0
 40
0.2179375741
 40
1.0
 40
1.0
 40
1.0
 40
1.0
 10
-68.6211775731
 20
22.6977579627
 30
0.0
 10
-68.6209737986
 20
22.6825715592
 30
0.0
 10
-68.6203447389
 20
22.6128851059
 30
0.0
 10
-68.6206752034
 20
22.5431931064
 30
0.0
 10
-68.621198032
 20
22.4886947565
 30
0.0
  0
SPLINE
  5
6AA
100
AcDbEntity
  8
ASSI
100
AcDbSpline
 62
250
  6
CONTINUOUS
 70
0
 71
3
 72
9
 73
5
 74
0
 42
0.0000001
 43
0.0000001
 44
0.0000000001
 40
0.0
 40
0.0
 40
0.0
 40
0.0
 40
0.2806822075
 40
1.0
 40
1.0
 40
1.0
 40
1.0
 10
-68.621198032
 20
-23.2118681453
 30
0.0
 10
-68.6210118472
 20
-23.231276069
 30
0.0
 10
-68.6204899348
 20
-23.3004223592
 30
0.0
 10
-68.6205040963
 20
-23.3695765227
 30
0.0
 10
-68.6211560926
 20
-23.4193121573
 30
0.0
  0
SPLINE
  5
6AB
100
AcDbEntity
  8
ASSI
100
AcDbSpline
 62
250
  6
CONTINUOUS
 70
0
 71
3
 72
13
 73
9
 74
0
 42
0.0000001
 43
0.0000001
 44
0.0000000001
 40
0.0
 40
0.0
 40
0.0
 40
0.0
 40
0.4010000674
 40
0.7033636746
 40
0.8163631524
 40
0.9033448524
 40
0.9643002461
 40
1.0
 40
1.0
 40
1.0
 40
1.0
 10
-68.6211560926
 20
-23.4193121573
 30
0.0
 10
-68.6214817647
 20
-23.4441551042
 30
0.0
 10
-68.6223594731
 20
-23.4877196758
 30
0.0
 10
-68.624476978
 20
-23.538284991
 30
0.0
 10
-68.6269414609
 20
-23.5692915024
 30
0.0
 10
-68.6287836656
 20
-23.5854032672
 30
0.0
 10
-68.6308750944
 20
-23.5965057127
 30
0.0
 10
-68.6326160326
 20
-23.6024008432
 30
0.0
 10
-68.6338838954
 20
-23.6042132805
 30
0.0
  0
LINE
  5
6AC
100
AcDbEntity
  8
ASSI
100
AcDbLine
 62
250
  6
CONTINUOUS
 10
-69.1198967838
 20
23.5763396979
 11
-69.1048378915
 21
23.5547438323
  0
LINE
  5
6AD
100
AcDbEntity
  8
ASSI
100
AcDbLine
 62
250
  6
CONTINUOUS
 10
-69.1048378915
 20
23.5547438323
 11
-68.9843735337
 21
23.3819850352
  0
LINE
  5
6AE
100
AcDbEntity
  8
ASSI
100
AcDbLine
 62
250
  6
CONTINUOUS
 10
-68.6338838954
 20
-23.6042132805
 11
-68.9843735337
 21
-24.1051584239
  0
SPLINE
  5
6AF
100
AcDbEntity
  8
ASSI
100
AcDbSpline
 62
250
  6
CONTINUOUS
 70
0
 71
3
 72
10
 73
6
 74
0
 42
0.0000001
 43
0.0000001
 44
0.0000000001
 40
0.0
 40
0.0
 40
0.0
 40
0.0
 40
0.2134709628
 40
0.4565089327
 40
1.0
 40
1.0
 40
1.0
 40
1.0
 10
-60.6292584862
 20
24.6157717808
 30
0.0
 10
-60.8282437021
 20
24.604552552
 30
0.0
 10
-61.2540732506
 20
24.585763003
 30
0.0
 10
-62.1874028598
 20
24.5612909952
 30
0.0
 10
-62.9218805168
 20
24.5600564949
 30
0.0
 10
-63.4292584862
 20
24.5662172142
 30
0.0
  0
SPLINE
  5
6B0
100
AcDbEntity
  8
ASSI
100
AcDbSpline
 62
250
  6
CONTINUOUS
 70
0
 71
3
 72
10
 73
6
 74
0
 42
0.0000001
 43
0.0000001
 44
0.0000000001
 40
0.0
 40
0.0
 40
0.0
 40
0.0
 40
0.2133784437
 40
0.4564062618
 40
1.0
 40
1.0
 40
1.0
 40
1.0
 10
-60.6292584862
 20
24.7953017403
 30
0.0
 10
-60.8282107927
 20
24.7853373474
 30
0.0
 10
-61.2539964155
 20
24.7686579172
 30
0.0
 10
-62.1873278255
 20
24.7469927821
 30
0.0
 10
-62.9218119395
 20
24.7460387475
 30
0.0
 10
-63.4292584862
 20
24.7516550528
 30
0.0
  0
LINE
  5
6B1
100
AcDbEntity
  8
ASSI
100
AcDbLine
 62
250
  6
CONTINUOUS
 10
-60.6292584862
 20
28.4959492352
 11
-60.6362906989
 21
28.4968111462
  0
SPLINE
  5
6B2
100
AcDbEntity
  8
ASSI
100
AcDbSpline
 62
250
  6
CONTINUOUS
 70
0
 71
3
 72
10
 73
6
 74
0
 42
0.0000001
 43
0.0000001
 44
0.0000000001
 40
0.0
 40
0.0
 40
0.0
 40
0.0
 40
0.2130325647
 40
0.4560716176
 40
1.0
 40
1.0
 40
1.0
 40
1.0
 10
-60.6362906989
 20
28.4968111462
 30
0.0
 10
-60.8335201455
 20
28.5209277093
 30
0.0
 10
-61.2569600968
 20
28.5628483018
 30
0.0
 10
-62.1877065766
 20
28.6247464111
 30
0.0
 10
-62.9219308091
 20
28.6428383232
 30
0.0
 10
-63.4292584862
 20
28.6442108123
 30
0.0
  0
SPLINE
  5
6B3
100
AcDbEntity
  8
ASSI
100
AcDbSpline
 62
250
  6
CONTINUOUS
 70
0
 71
3
 72
10
 73
6
 74
0
 42
0.0000001
 43
0.0000001
 44
0.0000000001
 40
0.0
 40
0.0
 40
0.0
 40
0.0
 40
0.2128321267
 40
0.4558331287
 40
1.0
 40
1.0
 40
1.0
 40
1.0
 10
-60.6292584862
 20
28.5653642952
 30
0.0
 10
-60.8267083423
 20
28.5904875973
 30
0.0
 10
-61.2508989662
 20
28.6341694801
 30
0.0
 10
-62.1839682105
 20
28.698744486
 30
0.0
 10
-62.9203530165
 20
28.7177188208
 30
0.0
 10
-63.4292584862
 20
28.719270581
 30
0.0
  0
SPLINE
  5
6B4
100
AcDbEntity
  8
ASSI
100
AcDbSpline
 62
250
  6
CONTINUOUS
 70
0
 71
3
 72
11
 73
7
 74
0
 42
0.0000001
 43
0.0000001
 44
0.0000000001
 40
0.0
 40
0.0
 40
0.0
 40
0.0
 40
0.2453504506
 40
0.4893568319
 40
0.739238164
 40
1.0
 40
1.0
 40
1.0
 40
1.0
 10
-63.4292584862
 20
42.3200722608
 30
0.0
 10
-63.1743276516
 20
42.311457194
 30
0.0
 10
-62.6661061674
 20
42.2455882339
 30
0.0
 10
-61.9328435949
 20
42.0004722086
 30
0.0
 10
-61.2462771271
 20
41.6110815173
 30
0.0
 10
-60.8410192366
 20
41.2619511232
 30
0.0
 10
-60.6535495531
 20
41.0661205712
 30
0.0
  0
SPLINE
  5
6B5
100
AcDbEntity
  8
ASSI
100
AcDbSpline
 62
250
  6
CONTINUOUS
 70
0
 71
3
 72
11
 73
7
 74
0
 42
0.0000001
 43
0.0000001
 44
0.0000000001
 40
0.0
 40
0.0
 40
0.0
 40
0.0
 40
0.2444628352
 40
0.4877865625
 40
0.7378327342
 40
1.0
 40
1.0
 40
1.0
 40
1.0
 10
-63.4292584862
 20
42.3816890162
 30
0.0
 10
-63.1719713902
 20
42.373147873
 30
0.0
 10
-62.6587872898
 20
42.3059951759
 30
0.0
 10
-61.9185745315
 20
42.0544323292
 30
0.0
 10
-61.225525458
 20
41.6536880355
 30
0.0
 10
-60.8177085803
 20
41.2942916696
 30
0.0
 10
-60.6292584862
 20
41.0925431517
 30
0.0
  0
SPLINE
  5
6B6
100
AcDbEntity
  8
ASSI
100
AcDbSpline
 62
250
  6
CONTINUOUS
 70
0
 71
3
 72
11
 73
7
 74
0
 42
0.0000001
 43
0.0000001
 44
0.0000000001
 40
0.0
 40
0.0
 40
0.0
 40
0.0
 40
0.2396292419
 40
0.4783094419
 40
0.7288185306
 40
1.0
 40
1.0
 40
1.0
 40
1.0
 10
-63.4292584862
 20
42.805104409
 30
0.0
 10
-63.1767148799
 20
42.8010578784
 30
0.0
 10
-62.6718019495
 20
42.7414878904
 30
0.0
 10
-61.9391848848
 20
42.4934335935
 30
0.0
 10
-61.2440272561
 20
42.0838374473
 30
0.0
 10
-60.8335093603
 20
41.7112607125
 30
0.0
 10
-60.6415224283
 20
41.4995025893
 30
0.0
  0
SPLINE
  5
6B7
100
AcDbEntity
  8
ASSI
100
AcDbSpline
 62
250
  6
CONTINUOUS
 70
0
 71
3
 72
11
 73
7
 74
0
 42
0.0000001
 43
0.0000001
 44
0.0000000001
 40
0.0
 40
0.0
 40
0.0
 40
0.0
 40
0.2390586735
 40
0.477233414
 40
0.7278248422
 40
1.0
 40
1.0
 40
1.0
 40
1.0
 10
-63.4292584862
 20
42.8329486526
 30
0.0
 10
-63.1757640869
 20
42.8291909452
 30
0.0
 10
-62.6687950044
 20
42.769604391
 30
0.0
 10
-61.9329517519
 20
42.5192967921
 30
0.0
 10
-61.2342135336
 20
42.1046559095
 30
0.0
 10
-60.8220219316
 20
41.7270537319
 30
0.0
 10
-60.6292584862
 20
41.5122127151
 30
0.0
  0
SPLINE
  5
6B8
100
AcDbEntity
  8
ASSI
100
AcDbSpline
 62
250
  6
CONTINUOUS
 70
0
 71
3
 72
10
 73
6
 74
0
 42
0.0000001
 43
0.0000001
 44
0.0000000001
 40
0.0
 40
0.0
 40
0.0
 40
0.0
 40
0.2134709628
 40
0.4565089327
 40
1.0
 40
1.0
 40
1.0
 40
1.0
 10
-60.6292584862
 20
-25.3389451696
 30
0.0
 10
-60.8282437021
 20
-25.3277259408
 30
0.0
 10
-61.2540732506
 20
-25.3089363918
 30
0.0
 10
-62.1874028598
 20
-25.284464384
 30
0.0
 10
-62.9218805168
 20
-25.2832298837
 30
0.0
 10
-63.4292584862
 20
-25.289390603
 30
0.0
  0
SPLINE
  5
6B9
100
AcDbEntity
  8
ASSI
100
AcDbSpline
 62
250
  6
CONTINUOUS
 70
0
 71
3
 72
10
 73
6
 74
0
 42
0.0000001
 43
0.0000001
 44
0.0000000001
 40
0.0
 40
0.0
 40
0.0
 40
0.0
 40
0.2133784437
 40
0.4564062618
 40
1.0
 40
1.0
 40
1.0
 40
1.0
 10
-60.6292584862
 20
-25.5184751291
 30
0.0
 10
-60.8282107927
 20
-25.5085107362
 30
0.0
 10
-61.2539964155
 20
-25.491831306
 30
0.0
 10
-62.1873278255
 20
-25.4701661708
 30
0.0
 10
-62.9218119395
 20
-25.4692121363
 30
0.0
 10
-63.4292584862
 20
-25.4748284415
 30
0.0
  0
LINE
  5
6BA
100
AcDbEntity
  8
ASSI
100
AcDbLine
 62
250
  6
CONTINUOUS
 10
-60.6292584862
 20
-29.219122624
 11
-60.6362906989
 21
-29.219984535
  0
SPLINE
  5
6BB
100
AcDbEntity
  8
ASSI
100
AcDbSpline
 62
250
  6
CONTINUOUS
 70
0
 71
3
 72
10
 73
6
 74
0
 42
0.0000001
 43
0.0000001
 44
0.0000000001
 40
0.0
 40
0.0
 40
0.0
 40
0.0
 40
0.2130325647
 40
0.4560716176
 40
1.0
 40
1.0
 40
1.0
 40
1.0
 10
-60.6362906989
 20
-29.219984535
 30
0.0
 10
-60.8335201455
 20
-29.244101098
 30
0.0
 10
-61.2569600968
 20
-29.2860216905
 30
0.0
 10
-62.1877065766
 20
-29.3479197999
 30
0.0
 10
-62.9219308091
 20
-29.3660117119
 30
0.0
 10
-63.4292584862
 20
-29.367384201
 30
0.0
  0
SPLINE
  5
6BC
100
AcDbEntity
  8
ASSI
100
AcDbSpline
 62
250
  6
CONTINUOUS
 70
0
 71
3
 72
10
 73
6
 74
0
 42
0.0000001
 43
0.0000001
 44
0.0000000001
 40
0.0
 40
0.0
 40
0.0
 40
0.0
 40
0.2128321267
 40
0.4558331287
 40
1.0
 40
1.0
 40
1.0
 40
1.0
 10
-60.6292584862
 20
-29.288537684
 30
0.0
 10
-60.8267083423
 20
-29.3136609861
 30
0.0
 10
-61.2508989662
 20
-29.3573428689
 30
0.0
 10
-62.1839682105
 20
-29.4219178748
 30
0.0
 10
-62.9203530165
 20
-29.4408922095
 30
0.0
 10
-63.4292584862
 20
-29.4424439698
 30
0.0
  0
SPLINE
  5
6BD
100
AcDbEntity
  8
ASSI
100
AcDbSpline
 62
250
  6
CONTINUOUS
 70
0
 71
3
 72
11
 73
7
 74
0
 42
0.0000001
 43
0.0000001
 44
0.0000000001
 40
0.0
 40
0.0
 40
0.0
 40
0.0
 40
0.2453504506
 40
0.4893568319
 40
0.739238164
 40
1.0
 40
1.0
 40
1.0
 40
1.0
 10
-63.4292584862
 20
-43.0432456495
 30
0.0
 10
-63.1743276516
 20
-43.0346305827
 30
0.0
 10
-62.6661061674
 20
-42.9687616227
 30
0.0
 10
-61.9328435949
 20
-42.7236455974
 30
0.0
 10
-61.2462771271
 20
-42.334254906
 30
0.0
 10
-60.8410192366
 20
-41.985124512
 30
0.0
 10
-60.6535495531
 20
-41.78929396
 30
0.0
  0
SPLINE
  5
6BE
100
AcDbEntity
  8
ASSI
100
AcDbSpline
 62
250
  6
CONTINUOUS
 70
0
 71
3
 72
11
 73
7
 74
0
 42
0.0000001
 43
0.0000001
 44
0.0000000001
 40
0.0
 40
0.0
 40
0.0
 40
0.0
 40
0.2444628352
 40
0.4877865625
 40
0.7378327342
 40
1.0
 40
1.0
 40
1.0
 40
1.0
 10
-63.4292584862
 20
-43.104862405
 30
0.0
 10
-63.1719713902
 20
-43.0963212618
 30
0.0
 10
-62.6587872898
 20
-43.0291685646
 30
0.0
 10
-61.9185745315
 20
-42.777605718
 30
0.0
 10
-61.225525458
 20
-42.3768614243
 30
0.0
 10
-60.8177085803
 20
-42.0174650584
 30
0.0
 10
-60.6292584862
 20
-41.8157165404
 30
0.0
  0
SPLINE
  5
6BF
100
AcDbEntity
  8
ASSI
100
AcDbSpline
 62
250
  6
CONTINUOUS
 70
0
 71
3
 72
11
 73
7
 74
0
 42
0.0000001
 43
0.0000001
 44
0.0000000001
 40
0.0
 40
0.0
 40
0.0
 40
0.0
 40
0.2396292419
 40
0.4783094419
 40
0.7288185306
 40
1.0
 40
1.0
 40
1.0
 40
1.0
 10
-63.4292584862
 20
-43.5282777978
 30
0.0
 10
-63.1767148799
 20
-43.5242312671
 30
0.0
 10
-62.6718019495
 20
-43.4646612792
 30
0.0
 10
-61.9391848848
 20
-43.2166069822
 30
0.0
 10
-61.2440272561
 20
-42.8070108361
 30
0.0
 10
-60.8335093603
 20
-42.4344341012
 30
0.0
 10
-60.6415224283
 20
-42.2226759781
 30
0.0
  0
SPLINE
  5
6C0
100
AcDbEntity
  8
ASSI
100
AcDbSpline
 62
250
  6
CONTINUOUS
 70
0
 71
3
 72
11
 73
7
 74
0
 42
0.0000001
 43
0.0000001
 44
0.0000000001
 40
0.0
 40
0.0
 40
0.0
 40
0.0
 40
0.2390586735
 40
0.477233414
 40
0.7278248422
 40
1.0
 40
1.0
 40
1.0
 40
1.0
 10
-63.4292584862
 20
-43.5561220414
 30
0.0
 10
-63.1757640869
 20
-43.552364334
 30
0.0
 10
-62.6687950044
 20
-43.4927777798
 30
0.0
 10
-61.9329517519
 20
-43.2424701808
 30
0.0
 10
-61.2342135336
 20
-42.8278292983
 30
0.0
 10
-60.8220219316
 20
-42.4502271207
 30
0.0
 10
-60.6292584862
 20
-42.2353861039
 30
0.0
  0
LINE
  5
6C1
100
AcDbEntity
  8
ASSI
100
AcDbLine
 62
250
  6
CONTINUOUS
 10
-68.621198032
 20
22.4886947565
 11
-68.6214534966
 21
22.4640253808
  0
SPLINE
  5
6C2
100
AcDbEntity
  8
ASSI
100
AcDbSpline
 62
250
  6
CONTINUOUS
 70
0
 71
3
 72
9
 73
5
 74
0
 42
0.0000001
 43
0.0000001
 44
0.0000000001
 40
0.0
 40
0.0
 40
0.0
 40
0.0
 40
0.4604192082
 40
1.0
 40
1.0
 40
1.0
 40
1.0
 10
-68.6221054192
 20
22.4125578747
 30
0.0
 10
-68.6243990772
 20
22.2500374401
 30
0.0
 10
-68.6334549382
 20
21.8971152541
 30
0.0
 10
-68.6466968653
 20
21.5443392418
 30
0.0
 10
-68.6549052905
 20
21.3540340431
 30
0.0
  0
LINE
  5
6C3
100
AcDbEntity
  8
ASSI
100
AcDbLine
 62
250
  6
CONTINUOUS
 10
-68.621198032
 20
22.4886947565
 11
-68.6093710012
 21
22.7459025847
  0
LINE
  5
6C4
100
AcDbEntity
  8
ASSI
100
AcDbLine
 62
250
  6
CONTINUOUS
 10
-68.6093710012
 20
22.7459025847
 11
-68.579552655
 21
23.3819850352
  0
LINE
  5
6C5
100
AcDbEntity
  8
ASSI
100
AcDbLine
 62
250
  6
CONTINUOUS
 10
-68.621198032
 20
-23.2118681453
 11
-68.6093796871
 21
-23.4688881297
  0
LINE
  5
6C6
100
AcDbEntity
  8
ASSI
100
AcDbLine
 62
250
  6
CONTINUOUS
 10
-68.6093796871
 20
-23.4688881297
 11
-68.579552655
 21
-24.1051584239
  0
SPLINE
  5
6C7
100
AcDbEntity
  8
ASSI
100
AcDbSpline
 62
250
  6
CONTINUOUS
 70
0
 71
3
 72
9
 73
5
 74
0
 42
0.0000001
 43
0.0000001
 44
0.0000000001
 40
0.0
 40
0.0
 40
0.0
 40
0.0
 40
0.5394402561
 40
1.0
 40
1.0
 40
1.0
 40
1.0
 10
-68.6549054822
 20
-22.0772030164
 30
0.0
 10
-68.6467301329
 20
-22.2672063283
 30
0.0
 10
-68.633473995
 20
-22.6195115358
 30
0.0
 10
-68.6244290814
 20
-22.9719640594
 30
0.0
 10
-68.6221254291
 20
-23.1343175853
 30
0.0
  0
LINE
  5
6C8
100
AcDbEntity
  8
ASSI
100
AcDbLine
 62
250
  6
CONTINUOUS
 10
-68.6214532669
 20
-23.1872171088
 11
-68.621198032
 21
-23.2118681453
  0
ENDSEC
  0
SECTION
  2
OBJECTS
  0
DICTIONARY
  5
C
100
AcDbDictionary
280
0
281
1
  3
ACAD_GROUP
350
D
  3
ACAD_MLINESTYLE
350
17
  3
ACAD_LAYOUT
350
1A
  3
ACAD_PLOTSETTINGS
350
19
  3
ACAD_PLOTSTYLENAME
350
E
  0
DICTIONARY
  5
D
102
{ACAD_REACTORS
330
C
102
}
100
AcDbDictionary
280
0
281
1
  0
ACDBDICTIONARYWDFLT
  5
E
102
{ACAD_REACTORS
330
C
102
}
100
AcDbDictionary
281
1
  3
Normal
350
F
100
AcDbDictionaryWithDefault
340
F
  0
DICTIONARY
  5
17
102
{ACAD_REACTORS
330
C
102
}
100
AcDbDictionary
280
0
281
1
  3
Standard
350
18
  0
DICTIONARY
  5
19
102
{ACAD_REACTORS
330
C
102
}
100
AcDbDictionary
281
1
  0
DICTIONARY
  5
1A
102
{ACAD_REACTORS
330
C
102
}
100
AcDbDictionary
281
1
  3
Model
350
6C9
  3
Layout1
350
6CA
  0
ACDBPLACEHOLDER
  5
F
102
{ACAD_REACTORS
330
E
102
}
  0
MLINESTYLE
  5
18
102
{ACAD_REACTORS
330
17
102
}
100
AcDbMlineStyle
  2
STANDARD
 70
0
  3

 62
256
 51
90.0
 52
90.0
 71
2
 49
0.5
 62
256
  6
BYLAYER
 49
-0.5
 62
256
  6
BYLAYER
  0
LAYOUT
  5
6C9
102
{ACAD_REACTORS
330
1A
102
}
100
AcDbPlotSettings
  1

  2
none_device
  4
ISO_A4_(297.00_x_210.00_MM)
  6

 40
0.0
 41
0.0
 42
0.0
 43
0.0
 44
297.0
 45
210.0
 46
0.0
 47
0.0
 48
0.0
 49
0.0
140
0.0
141
0.0
142
1.0
143
1.0
 70
1024
 72
1
 73
0
 74
0
  7

 75
0
147
1.0
148
0.0
149
0.0
100
AcDbLayout
  1
Model
 70
0
 71
0
 10
0.0
 20
0.0
 11
297.0
 21
210.0
 12
0.0
 22
0.0
 32
0.0
 14
0.0
 24
0.0
 34
0.0
 15
0.0
 25
0.0
 35
0.0
146
0.0
 13
0.0
 23
0.0
 33
0.0
 16
1.0
 26
0.0
 36
0.0
 17
0.0
 27
1.0
 37
0.0
 76
0
330
213
345
0
346
0
  0
LAYOUT
  5
6CA
102
{ACAD_REACTORS
330
1A
102
}
100
AcDbPlotSettings
  1

  2
none_device
  4
ISO_A4_(297.00_x_210.00_MM)
  6

 40
0.0
 41
0.0
 42
0.0
 43
0.0
 44
297.0
 45
210.0
 46
0.0
 47
0.0
 48
0.0
 49
0.0
140
0.0
141
0.0
142
1.0
143
1.0
 70
0
 72
1
 73
0
 74
0
  7

 75
0
147
1.0
148
0.0
149
0.0
100
AcDbLayout
  1
Layout1
 70
0
 71
1
 10
0.0
 20
0.0
 11
297.0
 21
210.0
 12
0.0
 22
0.0
 32
0.0
 14
0.0
 24
0.0
 34
0.0
 15
0.0
 25
0.0
 35
0.0
146
0.0
 13
0.0
 23
0.0
 33
0.0
 16
1.0
 26
0.0
 36
0.0
 17
0.0
 27
1.0
 37
0.0
 76
0
330
214
345
0
346
0
  0
ENDSEC
  0
EOF
