  0
SECTION
  2
HEADER
  9
$ACADVER
  1
AC1021
  9
$DWGCODEPAGE
  3
ANSI_1252
  9
$EXTMAX
 10
297.0
 20
210.0
 30
0.0
  9
$EXTMIN
 10
0.0
 20
0.0
 30
0.0
  9
$LIMMIN
 10
0.0
 20
0.0
  9
$LIMMAX
 10
297.0
 20
210.0
  9
$VIEWCTR
 10
148.5
 20
105.0
  9
$VIEWSIZE
 40
210.0
  9
$CLAYER
  8
0
  9
$LTSCALE
 40
16.335
  9
$CELTYPE
  6
BYLAYER
  9
$DIMSCALE
 40
1.0
  9
$DIMASZ
 40
3.0
  9
$DIMEXO
 40
1.85625
  9
$DIMDLI
 40
11.286
  9
$DIMEXE
 40
5.346
  9
$DIMCEN
 40
2.673
  9
$DIMLFAC
 40
1.0
  9
$DIMBLK
  1
_FILLED
  9
$DIMTXT
 40
3.0
  9
$DIMTOL
 70
1
  9
$DIMLIM
 70
0
  9
$DIMTFAC
 40
1.0
  9
$DIMTP
 40
0.01
  9
$DIMTM
 40
0.01
  9
$PDMODE
 70
3
  9
$PDSIZE
 40
3.0
  9
$HANDSEED
  5
6F2
  9
$TILEMODE
 70
1
  9
$MEASUREMENT
 70
1
  9
$INSUNITS
 70
4
  0
ENDSEC
  0
SECTION
  2
CLASSES
  0
CLASS
  1
ACDBDICTIONARYWDFLT
  2
AcDbDictionaryWithDefault
  3
AutoCAD 2000
 90
0
 91
1
280
0
281
0
  0
CLASS
  1
ACDBPLACEHOLDER
  2
AcDbPlaceHolder
  3
AutoCAD 2000
 90
0
 91
1
280
0
281
0
  0
CLASS
  1
LAYOUT
  2
AcDbLayout
  3
AutoCAD 2000
 90
0
 91
0
280
0
281
0
  0
ENDSEC
  0
SECTION
  2
TABLES
  0
TABLE
  2
VPORT
  5
8
100
AcDbSymbolTable
 70
2
  0
VPORT
  5
1F4
100
AcDbSymbolTableRecord
100
AcDbViewportTableRecord
  2
*ACTIVE
 70
0
 10
0.0
 20
0.0
 11
1.0
 21
1.0
 12
148.5
 22
105.0
 13
0.0
 23
0.0
 14
1.0
 24
1.0
 15
0.0
 25
0.0
 16
0.0
 26
0.0
 36
1.0
 17
0.0
 27
0.0
 37
0.0
 40
210.0
 41
1.4142857143
 42
50.0
 43
0.0
 44
0.0
 50
0.0
 51
0.0
 71
0
 72
100
 73
1
 74
1
 75
0
 76
0
 77
0
 78
0
  0
ENDTAB
  0
TABLE
  2
LTYPE
  5
5
100
AcDbSymbolTable
 70
6
  0
LTYPE
  5
14
100
AcDbSymbolTableRecord
100
AcDbLinetypeTableRecord
  2
BYBLOCK
 70
0
  3

 72
65
 73
0
 40
0.0
  0
LTYPE
  5
15
100
AcDbSymbolTableRecord
100
AcDbLinetypeTableRecord
  2
BYLAYER
 70
0
  3

 72
65
 73
0
 40
0.0
  0
LTYPE
  5
16
100
AcDbSymbolTableRecord
100
AcDbLinetypeTableRecord
  2
CONTINUOUS
 70
64
  3
Solid line
 72
65
 73
0
 40
0.0
  0
LTYPE
  5
1F5
100
AcDbSymbolTableRecord
100
AcDbLinetypeTableRecord
  2
CENTER
 70
64
  3
____ _ ____ _ ____ _ ____ _ ____ _ ____ _ ____
 72
65
 73
4
 40
0.6
 49
0.375
 74
0
 49
-0.075
 74
0
 49
0.075
 74
0
 49
-0.075
 74
0
  0
LTYPE
  5
1F6
100
AcDbSymbolTableRecord
100
AcDbLinetypeTableRecord
  2
HIDDEN
 70
64
  3
- - - - - - - - - - - - - - - - - - - -
 72
65
 73
2
 40
0.2
 49
0.1
 74
0
 49
-0.1
 74
0
  0
LTYPE
  5
1F7
100
AcDbSymbolTableRecord
100
AcDbLinetypeTableRecord
  2
PHANTOM
 70
64
  3
_____ _ _ _____ _ _ _____ _ _ _____
 72
65
 73
6
 40
0.8
 49
0.45
 74
0
 49
-0.05
 74
0
 49
0.1
 74
0
 49
-0.05
 74
0
 49
0.1
 74
0
 49
-0.05
 74
0
  0
LTYPE
  5
1F8
100
AcDbSymbolTableRecord
100
AcDbLinetypeTableRecord
  2
DOT
 70
64
  3
. . . . . . . . . . . . . . . . . . . .
 72
65
 73
2
 40
0.2
 49
0.1
 74
0
 49
-0.1
 74
0
  0
LTYPE
  5
1F9
100
AcDbSymbolTableRecord
100
AcDbLinetypeTableRecord
  2
DASHED
 70
64
  3
- - - - - - - - - - - - - - - - - - - -
 72
65
 73
2
 40
0.2
 49
0.1
 74
0
 49
-0.1
 74
0
  0
ENDTAB
  0
TABLE
  2
LAYER
  5
2
100
AcDbSymbolTable
 70
36
  0
LAYER
  5
10
100
AcDbSymbolTableRecord
100
AcDbLayerTableRecord
  2
0
 70
0
 62
7
  6
CONTINUOUS
370
-3
390
F
  0
LAYER
  5
1FA
100
AcDbSymbolTableRecord
100
AcDbLayerTableRecord
  2
DEFAULT_1
 70
0
 62
7
  6
CENTER
370
-3
390
F
  0
LAYER
  5
1FB
100
AcDbSymbolTableRecord
100
AcDbLayerTableRecord
  2
DEFAULT_2
 70
0
 62
7
  6
HIDDEN
370
-3
390
F
  0
LAYER
  5
1FC
100
AcDbSymbolTableRecord
100
AcDbLayerTableRecord
  2
DEFAULT_3
 70
0
 62
7
  6
PHANTOM
370
-3
390
F
  0
LAYER
  5
1FD
100
AcDbSymbolTableRecord
100
AcDbLayerTableRecord
  2
ASSI
 70
0
 62
7
  6
CONTINUOUS
370
-3
390
F
  0
LAYER
  5
1FE
100
AcDbSymbolTableRecord
100
AcDbLayerTableRecord
  2
COORDINATE
 70
0
 62
7
  6
CONTINUOUS
370
-3
390
F
  0
LAYER
  5
1FF
100
AcDbSymbolTableRecord
100
AcDbLayerTableRecord
  2
COPY_PUBLISH
 70
0
 62
7
  6
CONTINUOUS
370
-3
390
F
  0
LAYER
  5
200
100
AcDbSymbolTableRecord
100
AcDbLayerTableRecord
  2
COSMETIC
 70
0
 62
7
  6
CONTINUOUS
370
-3
390
F
  0
LAYER
  5
201
100
AcDbSymbolTableRecord
100
AcDbLayerTableRecord
  2
COSMETICI
 70
0
 62
7
  6
CONTINUOUS
370
-3
390
F
  0
LAYER
  5
202
100
AcDbSymbolTableRecord
100
AcDbLayerTableRecord
  2
CURVE
 70
0
 62
7
  6
CONTINUOUS
370
-3
390
F
  0
LAYER
  5
203
100
AcDbSymbolTableRecord
100
AcDbLayerTableRecord
  2
DRAFT
 70
0
 62
7
  6
CONTINUOUS
370
-3
390
F
  0
LAYER
  5
204
100
AcDbSymbolTableRecord
100
AcDbLayerTableRecord
  2
IMPORT_IGES
 70
0
 62
7
  6
CONTINUOUS
370
-3
390
F
  0
LAYER
  5
205
100
AcDbSymbolTableRecord
100
AcDbLayerTableRecord
  2
INTF_1
 70
0
 62
7
  6
CONTINUOUS
370
-3
390
F
  0
LAYER
  5
206
100
AcDbSymbolTableRecord
100
AcDbLayerTableRecord
  2
NOTE
 70
0
 62
7
  6
CONTINUOUS
370
-3
390
F
  0
LAYER
  5
207
100
AcDbSymbolTableRecord
100
AcDbLayerTableRecord
  2
PIANI
 70
0
 62
7
  6
CONTINUOUS
370
-3
390
F
  0
LAYER
  5
208
100
AcDbSymbolTableRecord
100
AcDbLayerTableRecord
  2
PIANI_ORIGINE
 70
0
 62
7
  6
CONTINUOUS
370
-3
390
F
  0
LAYER
  5
209
100
AcDbSymbolTableRecord
100
AcDbLayerTableRecord
  2
PUNTI
 70
0
 62
7
  6
CONTINUOUS
370
-3
390
F
  0
LAYER
  5
20A
100
AcDbSymbolTableRecord
100
AcDbLayerTableRecord
  2
RACCORDO
 70
0
 62
7
  6
CONTINUOUS
370
-3
390
F
  0
LAYER
  5
20B
100
AcDbSymbolTableRecord
100
AcDbLayerTableRecord
  2
SIMBOLI
 70
0
 62
7
  6
CONTINUOUS
370
-3
390
F
  0
LAYER
  5
20C
100
AcDbSymbolTableRecord
100
AcDbLayerTableRecord
  2
SMUSSO
 70
0
 62
7
  6
CONTINUOUS
370
-3
390
F
  0
LAYER
  5
20D
100
AcDbSymbolTableRecord
100
AcDbLayerTableRecord
  2
SNAPLINE
 70
0
 62
7
  6
CONTINUOUS
370
-3
390
F
  0
LAYER
  5
20E
100
AcDbSymbolTableRecord
100
AcDbLayerTableRecord
  2
SUPERFICI
 70
0
 62
7
  6
CONTINUOUS
370
-3
390
F
  0
LAYER
  5
20F
100
AcDbSymbolTableRecord
100
AcDbLayerTableRecord
  2
TRASH
 70
0
 62
7
  6
CONTINUOUS
370
-3
390
F
  0
LAYER
  5
210
100
AcDbSymbolTableRecord
100
AcDbLayerTableRecord
  2
XSEC_DATUMS
 70
0
 62
7
  6
CONTINUOUS
370
-3
390
F
  0
ENDTAB
  0
TABLE
  2
STYLE
  5
3
100
AcDbSymbolTable
 70
1
  0
STYLE
  5
11
100
AcDbSymbolTableRecord
100
AcDbTextStyleTableRecord
  2
STANDARD
 70
0
 40
0.0
 41
0.8
 50
0.0
 71
0
 42
0.2
  3
txt
  4

  0
STYLE
  5
211
100
AcDbSymbolTableRecord
100
AcDbTextStyleTableRecord
  2
TEXTSTYLE_1
 70
0
 40
0.0
 41
0.8
 50
0.0
 71
0
 42
0.2
  3
gdt
  4

  0
ENDTAB
  0
TABLE
  2
VIEW
  5
6
100
AcDbSymbolTable
 70
0
  0
ENDTAB
  0
TABLE
  2
UCS
  5
7
100
AcDbSymbolTable
 70
0
  0
ENDTAB
  0
TABLE
  2
APPID
  5
9
100
AcDbSymbolTable
 70
1
  0
APPID
  5
212
100
AcDbSymbolTableRecord
100
AcDbRegAppTableRecord
  2
ACAD
 70
0
  0
ENDTAB
  0
TABLE
  2
BLOCK_RECORD
  5
1
100
AcDbSymbolTable
 70
0
  0
BLOCK_RECORD
  5
213
100
AcDbSymbolTableRecord
100
AcDbBlockTableRecord
  2
*Model_Space
  0
BLOCK_RECORD
  5
214
100
AcDbSymbolTableRecord
100
AcDbBlockTableRecord
  2
*Paper_Space
  0
BLOCK_RECORD
  5
215
100
AcDbSymbolTableRecord
100
AcDbBlockTableRecord
  2
_FILLED
  0
BLOCK_RECORD
  5
216
100
AcDbSymbolTableRecord
100
AcDbBlockTableRecord
  2
*D0
  0
BLOCK_RECORD
  5
217
100
AcDbSymbolTableRecord
100
AcDbBlockTableRecord
  2
*D1
  0
BLOCK_RECORD
  5
218
100
AcDbSymbolTableRecord
100
AcDbBlockTableRecord
  2
*D2
  0
BLOCK_RECORD
  5
219
100
AcDbSymbolTableRecord
100
AcDbBlockTableRecord
  2
*D3
  0
BLOCK_RECORD
  5
21A
100
AcDbSymbolTableRecord
100
AcDbBlockTableRecord
  2
*D4
  0
ENDTAB
  0
TABLE
  2
DIMSTYLE
  5
A
100
AcDbSymbolTable
 70
1
100
AcDbDimStyleTable
 71
0
  0
DIMSTYLE
105
21B
100
AcDbSymbolTableRecord
100
AcDbDimStyleTableRecord
  2
STANDARD
 70
0
  3

  4

 40
1.0
 41
3.0
 42
0.0625
 43
0.38
 44
0.18
 45
0.0
 46
0.0
 47
0.01
 48
0.01
140
3.0
141
0.09
142
0.0
143
25.4
144
1.0
145
0.0
146
1.0
147
0.09
 71
1.0
 72
0.0
 73
0
 74
0
 75
0
 76
0
 77
1
 78
8
170
0
171
2
172
0
173
0
174
0
175
0
176
0
177
0
178
0
270
2
271
2
272
2
273
2
274
2
275
0
280
0
281
0
282
0
283
1
284
8
285
0
286
0
287
3
288
0
340
11
341
215
342
215
343
215
344
215
  0
DIMSTYLE
105
21C
100
AcDbSymbolTableRecord
100
AcDbDimStyleTableRecord
  2
DIMSTYLE_1
 70
0
  3

  4

 40
1.0
 41
3.0
 42
0.0625
 43
0.38
 44
0.18
 45
0.0
 46
0.0
 47
0.0
 48
0.0
140
3.0
141
0.09
142
0.0
143
25.4
144
1.0
145
0.0
146
1.0
147
0.09
 71
0.0
 72
0.0
 73
0
 74
0
 75
0
 76
0
 77
1
 78
8
170
0
171
2
172
0
173
0
174
0
175
0
176
0
177
0
178
0
270
2
271
2
272
2
273
2
274
2
275
0
280
0
281
0
282
0
283
1
284
8
285
0
286
0
287
3
288
0
340
11
341
215
342
215
343
215
344
215
  0
DIMSTYLE
105
21D
100
AcDbSymbolTableRecord
100
AcDbDimStyleTableRecord
  2
DIMSTYLE_2
 70
0
  3

  4

 40
1.0
 41
3.0
 42
0.0625
 43
0.38
 44
0.18
 45
0.0
 46
0.0
 47
0.0
 48
0.0
140
3.0
141
0.09
142
0.0
143
25.4
144
1.0
145
0.0
146
1.0
147
0.09
 71
0.0
 72
0.0
 73
0
 74
0
 75
0
 76
0
 77
1
 78
8
170
0
171
2
172
0
173
0
174
0
175
0
176
0
177
0
178
0
270
2
271
1
272
1
273
2
274
2
275
0
280
0
281
0
282
0
283
1
284
8
285
0
286
0
287
3
288
0
340
11
341
215
342
215
343
215
344
215
  0
ENDTAB
  0
ENDSEC
  0
SECTION
  2
BLOCKS
  0
BLOCK
  5
20
100
AcDbEntity
  8
0
100
AcDbBlockBegin
  2
*Model_Space
 70
0
 10
0.0
 20
0.0
 30
0.0
  3
*Model_Space
  1

  0
ENDBLK
  5
21
100
AcDbEntity
  8
0
100
AcDbBlockEnd
  0
BLOCK
  5
1C
100
AcDbEntity
  8
0
100
AcDbBlockBegin
  2
*Paper_Space
 70
0
 10
0.0
 20
0.0
 30
0.0
  3
*Paper_Space
  1

  0
ENDBLK
  5
1D
100
AcDbEntity
  8
0
100
AcDbBlockEnd
  0
BLOCK
  5
21E
100
AcDbEntity
  8
0
100
AcDbBlockBegin
  2
_FILLED
 70
64
 10
0.0
 20
0.0
  3
_FILLED
  1

  0
SOLID
  5
21F
100
AcDbEntity
  8
0
  6
BYBLOCK
 62
0
100
AcDbTrace
 10
0.0
 20
0.0
 11
-1.0
 21
0.3166666667
 12
-1.0
 22
-0.3166666667
 13
-1.0
 23
-0.3166666667
  0
ENDBLK
  5
220
100
AcDbEntity
  8
0
  6
BYBLOCK
 62
0
100
AcDbBlockEnd
  0
BLOCK
  5
221
100
AcDbEntity
  8
0
100
AcDbBlockBegin
 62
7
  6
CONTINUOUS
  2
*D0
 70
65
 10
0.0
 20
0.0
  3
*D0
  1

  0
MTEXT
  5
222
100
AcDbEntity
  8
0
100
AcDbMText
 62
7
  6
CONTINUOUS
  7
STANDARD
 71
2
 72
1
 10
1.6127700847
 20
71.3808883433
 30
0.0
 11
1.0
 21
0.0
 31
0.0
 44
0.9
  1
144,5
 40
3.0
 41
10.2857142857
  0
LINE
  5
223
100
AcDbEntity
  8
0
100
AcDbLine
 62
7
  6
CONTINUOUS
 10
73.8627700847
 20
0.6843269468
 11
73.8627700847
 21
69.1308883433
  0
LINE
  5
224
100
AcDbEntity
  8
0
100
AcDbLine
 62
7
  6
CONTINUOUS
 10
-70.6372299153
 20
1.4931038264
 11
-70.6372299153
 21
69.1308883433
  0
LINE
  5
225
100
AcDbEntity
  8
0
100
AcDbLine
 62
7
  6
CONTINUOUS
 10
73.8627700847
 20
67.6308883433
 11
1.6127700847
 21
67.6308883433
  0
LINE
  5
226
100
AcDbEntity
  8
0
100
AcDbLine
 62
7
  6
CONTINUOUS
 10
-70.6372299153
 20
67.6308883433
 11
1.6127700847
 21
67.6308883433
  0
INSERT
  5
227
100
AcDbEntity
  8
0
100
AcDbBlockReference
 62
7
  6
CONTINUOUS
  2
_FILLED
 10
73.8627700847
 20
67.6308883433
 41
3.0
 42
3.0
 43
3.0
  0
INSERT
  5
228
100
AcDbEntity
  8
0
100
AcDbBlockReference
 62
7
  6
CONTINUOUS
  2
_FILLED
 10
-70.6372299153
 20
67.6308883433
 41
3.0
 42
3.0
 43
3.0
 50
180.0
  0
ENDBLK
  5
229
100
AcDbEntity
  8
0
  6
BYBLOCK
 62
0
100
AcDbBlockEnd
  0
BLOCK
  5
22A
100
AcDbEntity
  8
0
100
AcDbBlockBegin
 62
7
  6
CONTINUOUS
  2
*D1
 70
65
 10
0.0
 20
0.0
  3
*D1
  1

  0
MTEXT
  5
22B
100
AcDbEntity
  8
0
100
AcDbMText
 62
7
  6
CONTINUOUS
  7
STANDARD
 71
2
 72
1
 10
92.6372299153
 20
-0.3691116567
 30
0.0
 11
0.0
 21
1.0
 31
0.0
 44
0.9
  1
90
 40
3.0
 41
4.7142857143
  0
LINE
  5
22C
100
AcDbEntity
  8
0
100
AcDbLine
 62
7
  6
CONTINUOUS
 10
2.0283435833
 20
44.6308876726
 11
97.8872299153
 21
44.6308876726
  0
LINE
  5
22D
100
AcDbEntity
  8
0
100
AcDbLine
 62
7
  6
CONTINUOUS
 10
3.4841419667
 20
-45.369110986
 11
97.8872299153
 21
-45.369110986
  0
LINE
  5
22E
100
AcDbEntity
  8
0
100
AcDbLine
 62
7
  6
CONTINUOUS
 10
96.3872299153
 20
44.6308876726
 11
96.3872299153
 21
-0.3691116567
  0
LINE
  5
22F
100
AcDbEntity
  8
0
100
AcDbLine
 62
7
  6
CONTINUOUS
 10
96.3872299153
 20
-45.369110986
 11
96.3872299153
 21
-0.3691116567
  0
INSERT
  5
230
100
AcDbEntity
  8
0
100
AcDbBlockReference
 62
7
  6
CONTINUOUS
  2
_FILLED
 10
96.3872299153
 20
44.6308876726
 41
3.0
 42
3.0
 43
3.0
 50
90.0
  0
INSERT
  5
231
100
AcDbEntity
  8
0
100
AcDbBlockReference
 62
7
  6
CONTINUOUS
  2
_FILLED
 10
96.3872299153
 20
-45.369110986
 41
3.0
 42
3.0
 43
3.0
 50
270.0
  0
ENDBLK
  5
232
100
AcDbEntity
  8
0
  6
BYBLOCK
 62
0
100
AcDbBlockEnd
  0
BLOCK
  5
233
100
AcDbEntity
  8
0
100
AcDbBlockBegin
 62
7
  6
CONTINUOUS
  2
*D2
 70
65
 10
0.0
 20
0.0
  3
*D2
  1

  0
MTEXT
  5
234
100
AcDbEntity
  8
0
100
AcDbMText
 62
7
  6
CONTINUOUS
  7
STANDARD
 71
3
 72
1
 10
-104.0916269579
 20
61.3808883433
 30
0.0
 11
1.0
 21
0.0
 31
0.0
 44
0.9
  1
9,1
 40
3.0
 41
5.7857142857
  0
LINE
  5
235
100
AcDbEntity
  8
0
100
AcDbLine
 62
7
  6
CONTINUOUS
 10
-91.1157345533
 20
41.9656144817
 11
-91.1157345533
 21
59.1308883433
  0
LINE
  5
236
100
AcDbEntity
  8
0
100
AcDbLine
 62
7
  6
CONTINUOUS
 10
-100.2466126959
 20
-0.7512510262
 11
-100.2466126959
 21
59.1308883433
  0
LINE
  5
237
100
AcDbEntity
  8
0
100
AcDbLine
 62
7
  6
CONTINUOUS
 10
-91.1157345533
 20
57.6308883433
 11
-87.1157345533
 21
57.6308883433
  0
LINE
  5
238
100
AcDbEntity
  8
0
100
AcDbLine
 62
7
  6
CONTINUOUS
 10
-87.1157345533
 20
57.6308883433
 11
-95.6811736246
 21
57.6308883433
  0
LINE
  5
239
100
AcDbEntity
  8
0
100
AcDbLine
 62
7
  6
CONTINUOUS
 10
-100.2466126959
 20
57.6308883433
 11
-109.8773412436
 21
57.6308883433
  0
LINE
  5
23A
100
AcDbEntity
  8
0
100
AcDbLine
 62
7
  6
CONTINUOUS
 10
-109.8773412436
 20
57.6308883433
 11
-95.6811736246
 21
57.6308883433
  0
INSERT
  5
23B
100
AcDbEntity
  8
0
100
AcDbBlockReference
 62
7
  6
CONTINUOUS
  2
_FILLED
 10
-91.1157345533
 20
57.6308883433
 41
3.0
 42
3.0
 43
3.0
 50
180.0
  0
INSERT
  5
23C
100
AcDbEntity
  8
0
100
AcDbBlockReference
 62
7
  6
CONTINUOUS
  2
_FILLED
 10
-100.2466126959
 20
57.6308883433
 41
3.0
 42
3.0
 43
3.0
  0
ENDBLK
  5
23D
100
AcDbEntity
  8
0
  6
BYBLOCK
 62
0
100
AcDbBlockEnd
  0
BLOCK
  5
23E
100
AcDbEntity
  8
0
100
AcDbBlockBegin
 62
7
  6
CONTINUOUS
  2
*D3
 70
65
 10
0.0
 20
0.0
  3
*D3
  1

  0
MTEXT
  5
23F
100
AcDbEntity
  8
0
100
AcDbMText
 62
7
  6
CONTINUOUS
  7
STANDARD
 71
2
 72
1
 10
1.6127700847
 20
61.3808883433
 30
0.0
 11
1.0
 21
0.0
 31
0.0
 44
0.9
  1
90,2
 40
3.0
 41
8.7857142857
  0
LINE
  5
240
100
AcDbEntity
  8
0
100
AcDbLine
 62
7
  6
CONTINUOUS
 10
46.7323842128
 20
21.8308883433
 11
46.7323842128
 21
59.1308883433
  0
LINE
  5
241
100
AcDbEntity
  8
0
100
AcDbLine
 62
7
  6
CONTINUOUS
 10
-43.5068440434
 20
21.8308883433
 11
-43.5068440434
 21
59.1308883433
  0
LINE
  5
242
100
AcDbEntity
  8
0
100
AcDbLine
 62
7
  6
CONTINUOUS
 10
46.7323842128
 20
57.6308883433
 11
1.6127700847
 21
57.6308883433
  0
LINE
  5
243
100
AcDbEntity
  8
0
100
AcDbLine
 62
7
  6
CONTINUOUS
 10
-43.5068440434
 20
57.6308883433
 11
1.6127700847
 21
57.6308883433
  0
INSERT
  5
244
100
AcDbEntity
  8
0
100
AcDbBlockReference
 62
7
  6
CONTINUOUS
  2
_FILLED
 10
46.7323842128
 20
57.6308883433
 41
3.0
 42
3.0
 43
3.0
  0
INSERT
  5
245
100
AcDbEntity
  8
0
100
AcDbBlockReference
 62
7
  6
CONTINUOUS
  2
_FILLED
 10
-43.5068440434
 20
57.6308883433
 41
3.0
 42
3.0
 43
3.0
 50
180.0
  0
ENDBLK
  5
246
100
AcDbEntity
  8
0
  6
BYBLOCK
 62
0
100
AcDbBlockEnd
  0
BLOCK
  5
247
100
AcDbEntity
  8
0
100
AcDbBlockBegin
 62
7
  6
CONTINUOUS
  2
*D4
 70
65
 10
0.0
 20
0.0
  3
*D4
  1

  0
MTEXT
  5
248
100
AcDbEntity
  8
0
100
AcDbMText
 62
7
  6
CONTINUOUS
  7
STANDARD
 71
2
 72
1
 10
82.6372299153
 20
-0.3691116567
 30
0.0
 11
0.0
 21
1.0
 31
0.0
 44
0.9
  1
45
 40
3.0
 41
4.5
  0
LINE
  5
249
100
AcDbEntity
  8
0
100
AcDbLine
 62
7
  6
CONTINUOUS
 10
46.4127700847
 20
22.1496266606
 11
87.8872299153
 21
22.1496266606
  0
LINE
  5
24A
100
AcDbEntity
  8
0
100
AcDbLine
 62
7
  6
CONTINUOUS
 10
46.4127700847
 20
-22.8878499741
 11
87.8872299153
 21
-22.8878499741
  0
LINE
  5
24B
100
AcDbEntity
  8
0
100
AcDbLine
 62
7
  6
CONTINUOUS
 10
86.3872299153
 20
22.1496266606
 11
86.3872299153
 21
-0.3691116567
  0
LINE
  5
24C
100
AcDbEntity
  8
0
100
AcDbLine
 62
7
  6
CONTINUOUS
 10
86.3872299153
 20
-22.8878499741
 11
86.3872299153
 21
-0.3691116567
  0
INSERT
  5
24D
100
AcDbEntity
  8
0
100
AcDbBlockReference
 62
7
  6
CONTINUOUS
  2
_FILLED
 10
86.3872299153
 20
22.1496266606
 41
3.0
 42
3.0
 43
3.0
 50
90.0
  0
INSERT
  5
24E
100
AcDbEntity
  8
0
100
AcDbBlockReference
 62
7
  6
CONTINUOUS
  2
_FILLED
 10
86.3872299153
 20
-22.8878499741
 41
3.0
 42
3.0
 43
3.0
 50
270.0
  0
ENDBLK
  5
24F
100
AcDbEntity
  8
0
  6
BYBLOCK
 62
0
100
AcDbBlockEnd
  0
ENDSEC
  0
SECTION
  2
ENTITIES
  0
DIMENSION
  5
250
100
AcDbEntity
  8
0
100
AcDbDimension
 62
7
  6
CONTINUOUS
  2
*D0
 10
-70.6372299153
 20
67.6308883433
 11
-3.5300870582
 21
69.8808883433
 70
160
 71
2
 42
144.5
  3
DIMSTYLE_1
100
AcDbAlignedDimension
 13
73.8627700847
 23
0.6843269468
 14
-70.6372299153
 24
1.4931038264
 50
180.0
100
AcDbRotatedDimension
  0
DIMENSION
  5
251
100
AcDbEntity
  8
0
100
AcDbDimension
 62
7
  6
CONTINUOUS
  2
*D1
 10
96.3872299153
 20
-45.369110986
 11
95.193403439
 21
-2.4763895066
 70
160
 71
2
 42
89.9999986586
  3
DIMSTYLE_1
100
AcDbAlignedDimension
 13
2.0283435833
 23
44.6308876726
 14
3.4841419667
 24
-45.369110986
 50
270.0
100
AcDbRotatedDimension
  0
DIMENSION
  5
252
100
AcDbEntity
  8
0
100
AcDbDimension
 62
7
  6
CONTINUOUS
  2
*D2
 10
-100.2466126959
 20
57.6308883433
 11
-112.7701983865
 21
59.8808883433
 70
160
 71
3
 42
9.1308781426
  3
DIMSTYLE_2
100
AcDbAlignedDimension
 13
-91.1157345533
 23
41.9656144817
 14
-100.2466126959
 24
-0.7512510262
 50
180.0
100
AcDbRotatedDimension
  0
DIMENSION
  5
253
100
AcDbEntity
  8
0
100
AcDbDimension
 62
7
  6
CONTINUOUS
  2
*D3
 10
-43.5068440434
 20
57.6308883433
 11
-2.7800870582
 21
59.8808883433
 70
160
 71
2
 42
90.2392282563
  3
DIMSTYLE_2
100
AcDbAlignedDimension
 13
46.7323842128
 23
21.8308883433
 14
-43.5068440434
 24
21.8308883433
 50
180.0
100
AcDbRotatedDimension
  0
DIMENSION
  5
254
100
AcDbEntity
  8
0
100
AcDbDimension
 62
7
  6
CONTINUOUS
  2
*D4
 10
86.3872299153
 20
-22.8878499741
 11
85.1453955516
 21
-2.3806041498
 70
160
 71
2
 42
45.0374766347
  3
DIMSTYLE_2
100
AcDbAlignedDimension
 13
46.4127700847
 23
22.1496266606
 14
46.4127700847
 24
-22.8878499741
 50
270.0
100
AcDbRotatedDimension
  0
LINE
  5
255
100
AcDbEntity
  8
RACCORDO
100
AcDbLine
 62
253
  6
CONTINUOUS
 10
-69.2144671746
 20
-25.3249649374
 11
-69.1516898852
 21
-25.9300194033
  0
LINE
  5
256
100
AcDbEntity
  8
RACCORDO
100
AcDbLine
 62
253
  6
CONTINUOUS
 10
-68.9429809674
 20
-25.3097408382
 11
-68.8804215398
 21
-25.9136410328
  0
LINE
  5
257
100
AcDbEntity
  8
DRAFT
100
AcDbLine
 62
7
  6
CONTINUOUS
 10
-69.3238541816
 20
-25.9494572128
 11
-69.3898479426
 21
-25.3117463102
  0
LINE
  5
258
100
AcDbEntity
  8
RACCORDO
100
AcDbLine
 62
253
  6
CONTINUOUS
 10
-69.2840633185
 20
-24.6222981094
 11
-69.2144671746
 21
-25.3249649374
  0
LINE
  5
259
100
AcDbEntity
  8
RACCORDO
100
AcDbLine
 62
253
  6
CONTINUOUS
 10
-69.0125322696
 20
-24.6067829063
 11
-68.9429809674
 21
-25.3097408382
  0
LINE
  5
25A
100
AcDbEntity
  8
DRAFT
100
AcDbLine
 62
7
  6
CONTINUOUS
 10
-69.3898479426
 20
-25.3117463102
 11
-69.4563770787
 21
-24.6390932156
  0
LWPOLYLINE
  5
25B
100
AcDbEntity
  8
DRAFT
100
AcDbPolyline
 62
7
  6
CONTINUOUS
 90
19
 70
0
 10
-69.4563770787
 20
-24.6390932156
 10
-69.7040267154
 20
-21.9493056269
 10
-69.9226427495
 20
-19.2573146501
 10
-70.1121816904
 20
-16.5631981333
 10
-70.272599832
 20
-13.8666319588
 10
-70.4038699062
 20
-11.1680967091
 10
-70.5059830278
 20
-8.4688781984
 10
-70.5789148632
 20
-5.769336694
 10
-70.6226558732
 20
-3.069270641
 10
-70.6372299153
 20
-0.369123754
 10
-70.6226560252
 20
2.3310255612
 10
-70.5789151622
 20
5.0310967603
 10
-70.5059834156
 20
7.7306429206
 10
-70.4038702973
 20
10.4298645007
 10
-70.2726001707
 20
13.1284023293
 10
-70.1121819595
 20
15.8249706745
 10
-69.9226429447
 20
18.5190889811
 10
-69.7040268208
 20
21.2110813397
 10
-69.4563770787
 20
23.9008699021
  0
LWPOLYLINE
  5
25C
100
AcDbEntity
  8
RACCORDO
100
AcDbPolyline
 62
253
  6
CONTINUOUS
 90
19
 70
0
 10
-69.2840645255
 20
23.8840624236
 10
-69.5315496461
 20
21.1972016439
 10
-69.7500044323
 20
18.507719826
 10
-69.9394000555
 20
15.8159288068
 10
-70.0997021645
 20
13.1222745653
 10
-70.2309002877
 20
10.4269436245
 10
-70.3329885158
 20
7.7298580827
 10
-70.405943221
 20
5.0310461544
 10
-70.4497291596
 20
2.3311186048
 10
-70.464325537
 20
-0.369128518
 10
-70.4497287923
 20
-3.0693758938
 10
-70.4059424817
 20
-5.769303659
 10
-70.3329874273
 20
-8.4681149506
 10
-70.2308989155
 20
-11.1651986566
 10
-70.0997005939
 20
-13.8605269124
 10
-69.9393983845
 20
-16.5541778513
 10
-69.7500027731
 20
-19.245965029
 10
-69.531548135
 20
-21.935442393
 10
-69.2840633185
 20
-24.6222981094
  0
LWPOLYLINE
  5
25D
100
AcDbEntity
  8
RACCORDO
100
AcDbPolyline
 62
253
  6
CONTINUOUS
 90
19
 70
0
 10
-69.0125334759
 20
23.8685472292
 10
-69.2598601802
 20
21.1830158092
 10
-69.4781970532
 20
18.4953364332
 10
-69.6675012264
 20
15.805585923
 10
-69.8277275738
 20
13.1137324878
 10
-69.9588515744
 20
10.4199623726
 10
-70.0608698394
 20
7.7246799986
 10
-70.1337761514
 20
5.0276726695
 10
-70.177540335
 20
2.3293092981
 10
-70.1921333966
 20
-0.3691326711
 10
-70.177539864
 20
-3.0675748644
 10
-70.1337752094
 20
-5.7659384
 10
-70.0608684814
 20
-8.4629450713
 10
-69.9588498269
 20
-11.1582259596
 10
-69.8277254942
 20
-13.8519937678
 10
-69.6674990184
 20
-16.5438433315
 10
-69.4781949707
 20
-19.2335881592
 10
-69.2598584311
 20
-21.9212602908
 10
-69.0125322696
 20
-24.6067829063
  0
LINE
  5
25E
100
AcDbEntity
  8
DRAFT
100
AcDbLine
 62
7
  6
CONTINUOUS
 10
-69.4563770787
 20
23.9008699021
 11
-69.3705051961
 21
24.7656803278
  0
LINE
  5
25F
100
AcDbEntity
  8
RACCORDO
100
AcDbLine
 62
253
  6
CONTINUOUS
 10
-68.9267783573
 20
24.7324567921
 11
-69.0125334759
 21
23.8685472292
  0
LINE
  5
260
100
AcDbEntity
  8
RACCORDO
100
AcDbLine
 62
253
  6
CONTINUOUS
 10
-69.1982545299
 20
24.7475648653
 11
-69.2840645255
 21
23.8840624236
  0
LWPOLYLINE
  5
261
100
AcDbEntity
  8
DRAFT
100
AcDbPolyline
 62
7
  6
CONTINUOUS
 90
10
 70
0
 10
-69.3705051961
 20
24.7656803278
 10
-69.3238547448
 20
25.2112293884
 10
-69.2739548584
 20
25.656528711
 10
-69.2208066992
 20
26.1015740134
 10
-69.1644123415
 20
26.5463830134
 10
-69.1047721975
 20
26.9909294518
 10
-69.0418850754
 20
27.4351431407
 10
-68.9757515839
 20
27.8789979131
 10
-68.9063740738
 20
28.3225115757
 10
-68.8337541041
 20
28.7656799653
  0
LWPOLYLINE
  5
262
100
AcDbEntity
  8
RACCORDO
100
AcDbPolyline
 62
253
  6
CONTINUOUS
 90
10
 70
0
 10
-68.3934293507
 20
28.7091561147
 10
-68.4655811705
 20
28.2686140037
 10
-68.5345137441
 20
27.8277128946
 10
-68.6002255577
 20
27.3864567381
 10
-68.6627153445
 20
26.9448210141
 10
-68.7219814928
 20
26.5028381777
 10
-68.7780221172
 20
26.060597718
 10
-68.8308358169
 20
25.6181321983
 10
-68.8804216031
 20
25.1754171964
 10
-68.9267783573
 20
24.7324567921
  0
LWPOLYLINE
  5
263
100
AcDbEntity
  8
RACCORDO
100
AcDbPolyline
 62
253
  6
CONTINUOUS
 90
10
 70
0
 10
-68.662565052
 20
28.7358459493
 10
-68.7350296446
 20
28.2940801761
 10
-68.8042615913
 20
27.8519070435
 10
-68.8702596975
 20
27.4093494399
 10
-68.9330241755
 20
26.9664207659
 10
-68.9925524733
 20
26.523156049
 10
-69.0488399036
 20
26.0796106729
 10
-69.1018851134
 20
25.6358197594
 10
-69.1516898059
 20
25.1917968207
 10
-69.1982545329
 20
24.7475648656
  0
LWPOLYLINE
  5
264
100
AcDbEntity
  8
DRAFT
100
AcDbPolyline
 62
7
  6
CONTINUOUS
 90
79
 70
0
 10
-68.8337541041
 20
28.7656799653
 10
-68.7521247919
 20
29.2122264903
 10
-68.660520997
 20
29.6513324517
 10
-68.558951328
 20
30.0829996186
 10
-68.4465582464
 20
30.5084562758
 10
-68.3242157125
 20
30.9264778994
 10
-68.1945312659
 20
31.3333906496
 10
-68.0572739547
 20
31.7289648003
 10
-67.9126940217
 20
32.1134427167
 10
-67.7641231487
 20
32.4838648114
 10
-67.6113320024
 20
32.8401503714
 10
-67.4545683954
 20
33.1823989239
 10
-67.2978804351
 20
33.5079261635
 10
-67.1417861058
 20
33.8155695256
 10
-66.9857834493
 20
34.1065151411
 10
-66.8323894623
 20
34.3816030742
 10
-66.6828394795
 20
34.6392593896
 10
-66.5359090858
 20
34.8810788726
 10
-66.390422727
 20
35.1126499563
 10
-66.2468419254
 20
35.3340585592
 10
-66.1047107103
 20
35.5452301806
 10
-65.9614746215
 20
35.7515056587
 10
-65.8171312106
 20
35.9534556255
 10
-65.6716857723
 20
36.1505139886
 10
-65.5225940531
 20
36.3463112746
 10
-65.3688315067
 20
36.5423209397
 10
-65.211424478
 20
36.7370696109
 10
-65.0509047075
 20
36.9297659775
 10
-64.8871391926
 20
37.1204759476
 10
-64.7202628898
 20
37.3091352089
 10
-64.551209546
 20
37.4947581636
 10
-64.3803454256
 20
37.6769475352
 10
-64.2073060891
 20
37.8561035521
 10
-64.0319291932
 20
38.0324373295
 10
-63.8541741764
 20
38.2060020131
 10
-63.6740831677
 20
38.376747011
 10
-63.4916177976
 20
38.5447276852
 10
-63.306570724
 20
38.7100845069
 10
-63.1191506386
 20
38.8726794674
 10
-62.9299431296
 20
39.0321503725
 10
-62.7393349544
 20
39.1882280173
 10
-62.5469403703
 20
39.341184576
 10
-62.3521861573
 20
39.4914698738
 10
-62.1555453118
 20
39.6388615937
 10
-61.9565456887
 20
39.7835844896
 10
-61.7531965053
 20
39.9267581909
 10
-61.5450299258
 20
40.0687753368
 10
-61.3325148427
 20
40.209244383
 10
-61.1150657281
 20
40.3481081535
 10
-60.8921751981
 20
40.485669883
 10
-60.6643516237
 20
40.6216275267
 10
-60.432532968
 20
40.7550164902
 10
-60.1966317952
 20
40.8858377226
 10
-59.9567360136
 20
41.0140924804
 10
-59.7140462254
 20
41.1388175387
 10
-59.4685977086
 20
41.259877888
 10
-59.2203549845
 20
41.3774115717
 10
-58.9704121341
 20
41.4908655949
 10
-58.7187310445
 20
41.6001830558
 10
-58.4653490288
 20
41.7054241211
 10
-58.211472994
 20
41.8062117216
 10
-57.9570523682
 20
41.9025175268
 10
-57.7021363863
 20
41.9943730988
 10
-57.4480814113
 20
42.081491367
 10
-57.1949366598
 20
42.1637556994
 10
-56.9426511234
 20
42.2412857667
 10
-56.6924307094
 20
42.3141489203
 10
-56.4448775038
 20
42.3821852325
 10
-56.1993874616
 20
42.4455571709
 10
-55.9553574055
 20
42.5048154087
 10
-55.71314556
 20
42.5599723849
 10
-55.4723918942
 20
42.6110174776
 10
-55.2314160371
 20
42.6584664358
 10
-54.9902788812
 20
42.7024106671
 10
-54.7489177871
 20
42.7427600353
 10
-54.5054671378
 20
42.7797577596
 10
-54.2593044082
 20
42.8134852071
 10
-54.0110501697
 20
42.8438619355
 10
-53.7607033941
 20
42.8708883466
  0
LWPOLYLINE
  5
265
100
AcDbEntity
  8
RACCORDO
100
AcDbPolyline
 62
253
  6
CONTINUOUS
 90
91
 70
0
 10
-68.3934293507
 20
-29.4473794281
 10
-68.2931504004
 20
-29.9774217691
 10
-68.182719149
 20
-30.4874317929
 10
-68.0621561442
 20
-30.977421469
 10
-67.9301558344
 20
-31.4470441088
 10
-67.7880622295
 20
-31.8966725495
 10
-67.6398670064
 20
-32.3273979278
 10
-67.4858617752
 20
-32.7391140294
 10
-67.3257836846
 20
-33.1319534213
 10
-67.1627881888
 20
-33.5073635199
 10
-66.9970312877
 20
-33.865443744
 10
-66.8283776323
 20
-34.2061189984
 10
-66.6595420179
 20
-34.5305727207
 10
-66.4908969601
 20
-34.8384822905
 10
-66.322084459
 20
-35.1301924055
 10
-66.1547205828
 20
-35.407884687
 10
-65.9901703566
 20
-35.6701299463
 10
-65.8270781883
 20
-35.9183755579
 10
-65.6629762018
 20
-36.159111818
 10
-65.4983160389
 20
-36.392614187
 10
-65.3326507594
 20
-36.6186153186
 10
-65.1621622782
 20
-36.8427834578
 10
-64.9867179046
 20
-37.0659181458
 10
-64.8064530562
 20
-37.2872206535
 10
-64.617950886
 20
-37.5099562472
 10
-64.4185234415
 20
-37.7371456809
 10
-64.2108611735
 20
-37.9657638415
 10
-63.9996150369
 20
-38.1900089875
 10
-63.7839861503
 20
-38.4099166666
 10
-63.5647765747
 20
-38.6254560111
 10
-63.3490386417
 20
-38.8307334301
 10
-63.138326309
 20
-39.023782548
 10
-62.9310874315
 20
-39.2065823945
 10
-62.7297144707
 20
-39.3791610326
 10
-62.5353863373
 20
-39.5406793066
 10
-62.3469244149
 20
-39.6919870534
 10
-62.1631844938
 20
-39.8356441934
 10
-61.9838913739
 20
-39.9720671323
 10
-61.8093200937
 20
-40.1008460234
 10
-61.6391517759
 20
-40.2232993832
 10
-61.47328209
 20
-40.3395683816
 10
-61.3118149385
 20
-40.4495166379
 10
-61.1547437927
 20
-40.5540452962
 10
-61.0020797918
 20
-40.6531925223
 10
-60.8538112339
 20
-40.7469237461
 10
-60.7098973581
 20
-40.8360303025
 10
-60.5704809836
 20
-40.9204923977
 10
-60.435418702
 20
-41.0003324976
 10
-60.3042404883
 20
-41.0764047485
 10
-60.1775719747
 20
-41.1484520398
 10
-60.0547870002
 20
-41.2167334069
 10
-59.9335380469
 20
-41.282876531
 10
-59.8138519004
 20
-41.3469756653
 10
-59.69570154
 20
-41.4089374822
 10
-59.5766590076
 20
-41.4701075921
 10
-59.4559281974
 20
-41.5309411459
 10
-59.334305244
 20
-41.5909832425
 10
-59.2117506745
 20
-41.6502141243
 10
-59.0880703248
 20
-41.708713974
 10
-58.9634583431
 20
-41.7664029138
 10
-58.8384576903
 20
-41.8230211501
 10
-58.7131080473
 20
-41.8785322385
 10
-58.5873696302
 20
-41.9329730374
 10
-58.461666152
 20
-41.9861937855
 10
-58.3362534636
 20
-42.0380902241
 10
-58.210875548
 20
-42.0887670699
 10
-58.0851883098
 20
-42.1383880167
 10
-57.9597324564
 20
-42.186789338
 10
-57.833967125
 20
-42.2341351412
 10
-57.7059259527
 20
-42.2810807233
 10
-57.5757117135
 20
-42.3276739651
 10
-57.443221624
 20
-42.3738671055
 10
-57.3061811173
 20
-42.420171779
 10
-57.1645360014
 20
-42.4666929811
 10
-57.0183405675
 20
-42.5133256558
 10
-56.8654830513
 20
-42.5602662395
 10
-56.7051404544
 20
-42.6078115243
 10
-56.5381359096
 20
-42.6556645653
 10
-56.3648267565
 20
-42.7031312821
 10
-56.1855113649
 20
-42.7501606919
 10
-55.999891197
 20
-42.7968039073
 10
-55.8074279924
 20
-42.8425202057
 10
-55.6083196618
 20
-42.8873320274
 10
-55.4023677945
 20
-42.9312172321
 10
-55.1884393384
 20
-42.9735684154
 10
-54.9664804919
 20
-43.0144737376
 10
-54.7365440233
 20
-43.0538454998
 10
-54.4976562455
 20
-43.090812725
 10
-54.2494918296
 20
-43.125085357
 10
-53.992374096
 20
-43.1569541178
 10
-53.7263019556
 20
-43.1864192946
  0
LWPOLYLINE
  5
266
100
AcDbEntity
  8
RACCORDO
100
AcDbPolyline
 62
253
  6
CONTINUOUS
 90
91
 70
0
 10
-68.6625646842
 20
-29.474071642
 10
-68.5631592564
 20
-30.0124807593
 10
-68.4501939844
 20
-30.5307554115
 10
-68.3253486053
 20
-31.0287381025
 10
-68.1903655137
 20
-31.5059253717
 10
-68.0467446768
 20
-31.9626779238
 10
-67.8956087377
 20
-32.4001971052
 10
-67.7383365305
 20
-32.8185141741
 10
-67.5762604671
 20
-33.2176669906
 10
-67.4101507372
 20
-33.5989222793
 10
-67.2410462715
 20
-33.9626638655
 10
-67.0701079799
 20
-34.3089074037
 10
-66.8980910754
 20
-34.6383934675
 10
-66.7260982556
 20
-34.9510901214
 10
-66.5548827031
 20
-35.2476034483
 10
-66.3844729954
 20
-35.5295975723
 10
-66.2165942591
 20
-35.7958057505
 10
-66.0509830591
 20
-36.0481097442
 10
-65.8842209586
 20
-36.2926421999
 10
-65.7164485295
 20
-36.5296984285
 10
-65.547894498
 20
-36.7593932785
 10
-65.3746537485
 20
-36.9871961241
 10
-65.1961235956
 20
-37.2137372397
 10
-65.012580731
 20
-37.4385102482
 10
-64.8209491094
 20
-37.6649780203
 10
-64.6183989879
 20
-37.8958429531
 10
-64.4071897438
 20
-38.1278665494
 10
-64.1919950402
 20
-38.3556688739
 10
-63.972732497
 20
-38.5793385906
 10
-63.7499939964
 20
-38.798264636
 10
-63.5301185179
 20
-39.0065456002
 10
-63.3155169155
 20
-39.2026560228
 10
-63.1050728905
 20
-39.388475706
 10
-62.9001055545
 20
-39.5636143072
 10
-62.7021944154
 20
-39.7275040459
 10
-62.5108083331
 20
-39.8813050689
 10
-62.3239621065
 20
-40.0271608151
 10
-62.1413797598
 20
-40.1657009162
 10
-61.9638890997
 20
-40.2966862353
 10
-61.7908919575
 20
-40.4209233624
 10
-61.6221427605
 20
-40.5389143402
 10
-61.4578469812
 20
-40.6508279938
 10
-61.2980127777
 20
-40.756963152
 10
-61.142697672
 20
-40.8575735545
 10
-60.9918810538
 20
-40.9529505947
 10
-60.8454679715
 20
-41.0434144013
 10
-60.703673111
 20
-41.1290800519
 10
-60.5663701179
 20
-41.2102580407
 10
-60.4329537644
 20
-41.2875005047
 10
-60.3040900349
 20
-41.3605898741
 10
-60.1792349624
 20
-41.4299966129
 10
-60.0559243789
 20
-41.4971963821
 10
-59.9341498315
 20
-41.5622568572
 10
-59.813959505
 20
-41.6252150205
 10
-59.6928902574
 20
-41.6873854221
 10
-59.5700783583
 20
-41.749184845
 10
-59.4463352318
 20
-41.8101783237
 10
-59.3216678555
 20
-41.8703492501
 10
-59.1958785207
 20
-41.9297777262
 10
-59.0691201156
 20
-41.9883763574
 10
-58.9419386731
 20
-42.0458891165
 10
-58.8144416993
 20
-42.1022753808
 10
-58.6865850592
 20
-42.1575636045
 10
-58.5587214427
 20
-42.211613164
 10
-58.4311601132
 20
-42.2643130617
 10
-58.3036856429
 20
-42.3157716009
 10
-58.1758602373
 20
-42.3661739963
 10
-58.0482506287
 20
-42.4153055898
 10
-57.9203662097
 20
-42.4633638395
 10
-57.7901500802
 20
-42.5110937869
 10
-57.6576906493
 20
-42.5584062066
 10
-57.5229265143
 20
-42.6052648998
 10
-57.3835305754
 20
-42.6523843874
 10
-57.2394352036
 20
-42.6996538911
 10
-57.0907125775
 20
-42.7469200303
 10
-56.9352137222
 20
-42.7947112378
 10
-56.772141021
 20
-42.8430667181
 10
-56.6023161586
 20
-42.8915305165
 10
-56.4260215406
 20
-42.9398216747
 10
-56.2436639601
 20
-42.9876328948
 10
-56.0549556095
 20
-43.0348386049
 10
-55.8591615088
 20
-43.0813949826
 10
-55.6565831493
 20
-43.126983407
 10
-55.4471528958
 20
-43.171364438
 10
-55.2295691491
 20
-43.214525696
 10
-55.0037876382
 20
-43.256159585
 10
-54.7699371179
 20
-43.29592104
 10
-54.526925753
 20
-43.3336464802
 10
-54.2744276284
 20
-43.3689966013
 10
-54.0128776244
 20
-43.40151365
 10
-53.7423357392
 20
-43.4307970825
  0
LWPOLYLINE
  5
267
100
AcDbEntity
  8
DRAFT
100
AcDbPolyline
 62
7
  6
CONTINUOUS
 90
9
 70
0
 10
-68.8337540474
 20
-29.5039036405
 10
-68.9063744989
 20
-29.0607318419
 10
-68.9757522408
 20
-28.6172165905
 10
-69.0418857151
 20
-28.1733620507
 10
-69.1047724003
 20
-27.7291517235
 10
-69.1644118619
 20
-27.2846104713
 10
-69.2208058085
 20
-26.8398045623
 10
-69.2739539978
 20
-26.3947589468
 10
-69.3238541816
 20
-25.9494572128
  0
LWPOLYLINE
  5
268
100
AcDbEntity
  8
RACCORDO
100
AcDbPolyline
 62
253
  6
CONTINUOUS
 90
9
 70
0
 10
-69.1516898852
 20
-25.9300194033
 10
-69.1018853201
 20
-26.3740412889
 10
-69.0488402099
 20
-26.8178315007
 10
-68.9925528522
 20
-27.2613764612
 10
-68.9330245848
 20
-27.7046411127
 10
-68.8702600595
 20
-28.1475702639
 10
-68.8042618063
 20
-28.59012895
 10
-68.7350296102
 20
-29.0323037044
 10
-68.6625646537
 20
-29.4740716367
  0
LWPOLYLINE
  5
269
100
AcDbEntity
  8
RACCORDO
100
AcDbPolyline
 62
253
  6
CONTINUOUS
 90
9
 70
0
 10
-68.8804215398
 20
-25.9136410328
 10
-68.8308357046
 20
-26.3563564246
 10
-68.7780219703
 20
-26.7988222012
 10
-68.7219813241
 20
-27.2410627819
 10
-68.6627151689
 20
-27.6830456064
 10
-68.6002253947
 20
-28.1246811944
 10
-68.5345136155
 20
-28.5659370938
 10
-68.4655810962
 20
-29.0068378219
 10
-68.3934293507
 20
-29.4473794281
  0
LINE
  5
26A
100
AcDbEntity
  8
RACCORDO
100
AcDbLine
 62
253
  6
CONTINUOUS
 10
-53.7607034302
 20
42.8708883433
 11
-53.7423451996
 21
42.6925728221
  0
LINE
  5
26B
100
AcDbEntity
  8
RACCORDO
100
AcDbLine
 62
253
  6
CONTINUOUS
 10
-53.7263019556
 20
42.4481959812
 11
-53.7308705336
 21
42.4981519842
  0
LINE
  5
26C
100
AcDbEntity
  8
RACCORDO
100
AcDbLine
 62
253
  6
CONTINUOUS
 10
-53.7308705336
 20
42.4981519842
 11
-53.7348654041
 21
42.5450147179
  0
LWPOLYLINE
  5
26D
100
AcDbEntity
  8
RACCORDO
100
AcDbPolyline
 62
253
  6
CONTINUOUS
 90
11
 70
0
 10
-53.7348654041
 20
42.5450147179
 10
-53.7381664444
 20
42.5873750559
 10
-53.7395248583
 20
42.6064624131
 10
-53.7406743947
 20
42.6239592553
 10
-53.741606396
 20
42.6397338054
 10
-53.7423138427
 20
42.6536672573
 10
-53.7427914068
 20
42.6656546716
 10
-53.7430354915
 20
42.675605765
 10
-53.7430442584
 20
42.6834455912
 10
-53.7428176415
 20
42.6891151044
 10
-53.7423573475
 20
42.6925716048
  0
LWPOLYLINE
  5
26E
100
AcDbEntity
  8
RACCORDO
100
AcDbPolyline
 62
253
  6
CONTINUOUS
 90
10
 70
0
 10
-53.738166442
 20
-43.3255983669
 10
-53.7395248556
 20
-43.3446857237
 10
-53.7406743919
 20
-43.3621825655
 10
-53.7416063932
 20
-43.3779571151
 10
-53.74231384
 20
-43.3918905667
 10
-53.7427914043
 20
-43.4038779806
 10
-53.7430354892
 20
-43.4138290738
 10
-53.7430442566
 20
-43.4216688996
 10
-53.7428176402
 20
-43.4273384126
 10
-53.742357347
 20
-43.4307949128
  0
LINE
  5
26F
100
AcDbEntity
  8
RACCORDO
100
AcDbLine
 62
253
  6
CONTINUOUS
 10
-53.7348654023
 20
-43.2832380297
 11
-53.738166442
 21
-43.3255983669
  0
LINE
  5
270
100
AcDbEntity
  8
RACCORDO
100
AcDbLine
 62
253
  6
CONTINUOUS
 10
-53.7308705326
 20
-43.2363752969
 11
-53.7348654023
 21
-43.2832380297
  0
LINE
  5
271
100
AcDbEntity
  8
RACCORDO
100
AcDbLine
 62
253
  6
CONTINUOUS
 10
-53.7263019556
 20
-43.1864192946
 11
-53.7308705326
 21
-43.2363752969
  0
LINE
  5
272
100
AcDbEntity
  8
RACCORDO
100
AcDbLine
 62
253
  6
CONTINUOUS
 10
-53.7607034302
 20
-43.6091116567
 11
-53.7423357392
 21
-43.4307970825
  0
LWPOLYLINE
  5
273
100
AcDbEntity
  8
RACCORDO
100
AcDbPolyline
 62
253
  6
CONTINUOUS
 90
91
 70
0
 10
56.951842125
 20
-43.1864192946
 10
57.2172742233
 20
-43.1570342517
 10
57.4738099875
 20
-43.1252515154
 10
57.7214505002
 20
-43.0910708002
 10
57.9598785693
 20
-43.0542030489
 10
58.1894133838
 20
-43.0149366562
 10
58.4110102249
 20
-42.9741376107
 10
58.6246121346
 20
-42.9318932731
 10
58.8302771012
 20
-42.8881158227
 10
59.029132339
 20
-42.8434086887
 10
59.2213681991
 20
-42.7977958937
 10
59.4067948308
 20
-42.7512531149
 10
59.5859688388
 20
-42.7043114495
 10
59.7592065547
 20
-42.6569145003
 10
59.9261918194
 20
-42.6091185299
 10
60.0865322644
 20
-42.5616238396
 10
60.2394171744
 20
-42.5147211327
 10
60.3856571332
 20
-42.4681198557
 10
60.5272916234
 20
-42.4216485169
 10
60.6642537273
 20
-42.3754142979
 10
60.7966102594
 20
-42.3293100841
 10
60.9266013726
 20
-42.2828428265
 10
61.054312976
 20
-42.2360659383
 10
61.1796591618
 20
-42.1889259001
 10
61.3046224862
 20
-42.1407690691
 10
61.4297197166
 20
-42.0914426934
 10
61.5544342321
 20
-42.041099161
 10
61.6791985988
 20
-41.9895423868
 10
61.8042899071
 20
-41.9366611326
 10
61.9294312325
 20
-41.8825661828
 10
62.0542241183
 20
-41.8273944708
 10
62.1787205418
 20
-41.7711042379
 10
62.3028686318
 20
-41.7137368278
 10
62.4261141084
 20
-41.6555539028
 10
62.5483049558
 20
-41.5966121128
 10
62.6695932101
 20
-41.5368544992
 10
62.7898806274
 20
-41.4763723819
 10
62.9083596007
 20
-41.4156202232
 10
63.0258376967
 20
-41.3541433405
 10
63.1446395424
 20
-41.2906690801
 10
63.2647385627
 20
-41.2253167275
 10
63.3861615414
 20
-41.1579661473
 10
63.5113134057
 20
-41.0869848803
 10
63.6408168764
 20
-41.0121159179
 10
63.7740497373
 20
-40.9336144396
 10
63.9115497107
 20
-40.8506155931
 10
64.0534630826
 20
-40.763097401
 10
64.1996441391
 20
-40.6710792841
 10
64.3501926856
 20
-40.5737579151
 10
64.5051374786
 20
-40.4711583963
 10
64.6644503213
 20
-40.3632521627
 10
64.8281456243
 20
-40.2491546981
 10
64.9962450295
 20
-40.128894486
 10
65.1687273394
 20
-40.002438402
 10
65.345542685
 20
-39.8688086396
 10
65.5266660729
 20
-39.728129986
 10
65.7121226558
 20
-39.580271544
 10
65.9019376824
 20
-39.4238707335
 10
66.0963074116
 20
-39.258919224
 10
66.2950352156
 20
-39.0854170123
 10
66.4975567254
 20
-38.9020123719
 10
66.7050399799
 20
-38.7074405681
 10
66.9163155071
 20
-38.5029548933
 10
67.1273120877
 20
-38.2909811462
 10
67.3387619057
 20
-38.0701164583
 10
67.549929801
 20
-37.8417543524
 10
67.7545432634
 20
-37.6125211097
 10
67.9500921449
 20
-37.3849266792
 10
68.1390836145
 20
-37.156462298
 10
68.322771309
 20
-36.9262300795
 10
68.5004584742
 20
-36.6955094663
 10
68.6728389119
 20
-36.4630205354
 10
68.8432514713
 20
-36.2240227422
 10
69.0117099474
 20
-35.9794264576
 10
69.1781960213
 20
-35.7283146358
 10
69.3459980559
 20
-35.4631975508
 10
69.5166507415
 20
-35.182512123
 10
69.6886098253
 20
-34.8878029655
 10
69.8605418877
 20
-34.5762344837
 10
70.0330247094
 20
-34.2470738366
 10
70.2054652511
 20
-33.9010302709
 10
70.3747707955
 20
-33.5374283909
 10
70.5410312337
 20
-33.1562878041
 10
70.7041353901
 20
-32.7575640105
 10
70.860685731
 20
-32.3404842447
 10
71.0108637798
 20
-31.9048904312
 10
71.1544592659
 20
-31.4509150522
 10
71.2874832998
 20
-30.9782205997
 10
71.4085935305
 20
-30.4866865348
 10
71.5190954776
 20
-29.9764097397
 10
71.6189695201
 20
-29.4473794281
  0
LWPOLYLINE
  5
274
100
AcDbEntity
  8
RACCORDO
100
AcDbPolyline
 62
253
  6
CONTINUOUS
 90
91
 70
0
 10
56.967885369
 20
-43.4307961355
 10
57.2377672791
 20
-43.4015893477
 10
57.4987180106
 20
-43.3691618664
 10
57.7506780726
 20
-43.333910526
 10
57.9932205919
 20
-43.2962881785
 10
58.226664371
 20
-43.2566316531
 10
58.4520789013
 20
-43.2151057186
 10
58.6693308448
 20
-43.1720541937
 10
58.8784699657
 20
-43.1277815302
 10
59.0807914574
 20
-43.0822997415
 10
59.2763544843
 20
-43.0358488024
 10
59.464866563
 20
-42.9887437995
 10
59.6470810309
 20
-42.9410224328
 10
59.8233031091
 20
-42.8928035236
 10
59.9931080156
 20
-42.8443969997
 10
60.1561785657
 20
-42.7960924491
 10
60.3117059804
 20
-42.7483409527
 10
60.4604742469
 20
-42.7011069836
 10
60.6045585807
 20
-42.6538867259
 10
60.7438753014
 20
-42.606838739
 10
60.8785044606
 20
-42.5600713646
 10
61.0107364884
 20
-42.5128856577
 10
61.1406174888
 20
-42.4653260792
 10
61.2680768457
 20
-42.4174779906
 10
61.3951850709
 20
-42.368594358
 10
61.5224093663
 20
-42.3184895429
 10
61.6492097662
 20
-42.2673700098
 10
61.7761119312
 20
-42.215016413
 10
61.9033514927
 20
-42.1613118663
 10
62.0305998945
 20
-42.1063749456
 10
62.1575313447
 20
-42.0503339036
 10
62.2842006668
 20
-41.9931545014
 10
62.4104856678
 20
-41.9348826012
 10
62.5358318579
 20
-41.8757766549
 10
62.6601307757
 20
-41.8159013775
 10
62.7835337407
 20
-41.7551976124
 10
62.9058926922
 20
-41.6937526479
 10
63.0263893602
 20
-41.6320075522
 10
63.1458980181
 20
-41.5695445138
 10
63.2667714133
 20
-41.5051148762
 10
63.3889119479
 20
-41.4387162922
 10
63.5123853346
 20
-41.370258512
 10
63.6397068794
 20
-41.2982487296
 10
63.7714174669
 20
-41.2222269767
 10
63.9068596519
 20
-41.1424138922
 10
64.0467042949
 20
-41.0582320241
 10
64.1910777707
 20
-40.9693803846
 10
64.3397657386
 20
-40.8757525662
 10
64.4929273221
 20
-40.7769967635
 10
64.6505979882
 20
-40.6728191249
 10
64.8127006689
 20
-40.562985925
 10
64.9792377243
 20
-40.4471987227
 10
65.1501535126
 20
-40.3251866905
 10
65.3255347922
 20
-40.1965650333
 10
65.50557205
 20
-40.0608505535
 10
65.6897759759
 20
-39.9180526508
 10
65.8781497282
 20
-39.7677866126
 10
66.0714090229
 20
-39.6090282774
 10
66.269177449
 20
-39.4415626345
 10
66.4709845837
 20
-39.2652243129
 10
66.6772683602
 20
-39.0789820323
 10
66.888636418
 20
-38.8814914947
 10
67.1032638268
 20
-38.6737199696
 10
67.3179930125
 20
-38.4582408915
 10
67.5334602553
 20
-38.2340004955
 10
67.7481094806
 20
-38.0021852582
 10
67.9559911975
 20
-37.7691722951
 10
68.1549681003
 20
-37.5377758929
 10
68.3473172628
 20
-37.3057466583
 10
68.5341091743
 20
-37.0719956164
 10
68.7146938687
 20
-36.8375474258
 10
68.8901195773
 20
-36.6012605332
 10
69.0636968341
 20
-36.3585987676
 10
69.2348192303
 20
-36.1101297206
 10
69.4039096313
 20
-35.8549171642
 10
69.5751416172
 20
-35.5858053919
 10
69.7488713982
 20
-35.3007624855
 10
69.923265649
 20
-35.0012004478
 10
70.0986450246
 20
-34.6848115935
 10
70.2744094104
 20
-34.350566667
 10
70.4491755576
 20
-33.9988643033
 10
70.6218787346
 20
-33.6295017045
 10
70.7913469284
 20
-33.2424388172
 10
70.956506904
 20
-32.8373199405
 10
71.1163287446
 20
-32.4135357884
 10
71.2695108456
 20
-31.9710731734
 10
71.414708516
 20
-31.5099290516
 10
71.5506578316
 20
-31.0296029659
 10
71.6759117666
 20
-30.5299982118
 10
71.7889120022
 20
-30.0114258998
 10
71.8881052521
 20
-29.474069268
  0
LWPOLYLINE
  5
275
100
AcDbEntity
  8
DRAFT
100
AcDbPolyline
 62
7
  6
CONTINUOUS
 90
9
 70
0
 10
56.9862435549
 20
-43.6091116608
 10
56.4316366583
 20
-43.6632152849
 10
55.8767841549
 20
-43.7145280734
 10
55.3216851529
 20
-43.7630505892
 10
54.7663246013
 20
-43.8087850398
 10
54.210715698
 20
-43.8517302562
 10
53.6548998923
 20
-43.8918816938
 10
53.0988903427
 20
-43.9292381258
 10
52.5426719166
 20
-43.9638016422
  0
LWPOLYLINE
  5
276
100
AcDbEntity
  8
DRAFT
100
AcDbPolyline
 62
7
  6
CONTINUOUS
 90
46
 70
0
 10
-53.7607033811
 20
-43.6091116613
 10
-54.208768492
 20
-43.5598065582
 10
-54.6652019301
 20
-43.495299941
 10
-55.1300106888
 20
-43.4155879452
 10
-55.6077479045
 20
-43.3200214024
 10
-56.0938741213
 20
-43.2092389153
 10
-56.5747568328
 20
-43.0851678026
 10
-57.0495877687
 20
-42.9466072076
 10
-57.5191863691
 20
-42.7947442791
 10
-57.9723581409
 20
-42.6350914668
 10
-58.4000534504
 20
-42.4713740137
 10
-58.8113237897
 20
-42.2998590765
 10
-59.2221255861
 20
-42.1148712448
 10
-59.6368494651
 20
-41.9156953123
 10
-60.0511097921
 20
-41.7030276447
 10
-60.4677012304
 20
-41.4733029383
 10
-60.8918647612
 20
-41.2230366949
 10
-61.3183633492
 20
-40.9556832661
 10
-61.7342721716
 20
-40.6780882175
 10
-62.1381885466
 20
-40.3893277661
 10
-62.5315094048
 20
-40.0903072966
 10
-62.9055046784
 20
-39.7906322448
 10
-63.2535218713
 20
-39.4961201965
 10
-63.5822030416
 20
-39.2009589812
 10
-63.9027596607
 20
-38.897311586
 10
-64.2173830409
 20
-38.5846463089
 10
-64.523873396
 20
-38.2634808583
 10
-64.8268556977
 20
-37.9275384055
 10
-65.128429053
 20
-37.5753049418
 10
-65.4264816699
 20
-37.2082666797
 10
-65.7193198067
 20
-36.8246386632
 10
-66.0071579593
 20
-36.4242879022
 10
-66.2897620575
 20
-36.0073161643
 10
-66.5647620157
 20
-35.5722870225
 10
-66.8328865571
 20
-35.1179022928
 10
-67.0933784346
 20
-34.6454251928
 10
-67.3416359501
 20
-34.1572630122
 10
-67.5780741977
 20
-33.6503634209
 10
-67.8022427367
 20
-33.1277505345
 10
-68.0082473592
 20
-32.6009642428
 10
-68.1947453128
 20
-32.0691272562
 10
-68.3630559929
 20
-31.5331216221
 10
-68.5112969283
 20
-31.0071568137
 10
-68.6388465845
 20
-30.495987997
 10
-68.7463316037
 20
-29.9948983114
 10
-68.8337540474
 20
-29.5039036405
  0
LINE
  5
277
100
AcDbEntity
  8
RACCORDO
100
AcDbLine
 62
253
  6
CONTINUOUS
 10
-48.7607034302
 20
43.2573493159
 11
-48.7505044738
 21
43.0783671614
  0
LWPOLYLINE
  5
278
100
AcDbEntity
  8
RACCORDO
100
AcDbPolyline
 62
7
  6
CONTINUOUS
 90
16
 70
0
 10
-43.7892726788
 20
-22.0755327356
 10
-43.7860462731
 20
-22.1397897153
 10
-43.7791578816
 20
-22.2037971256
 10
-43.7686192707
 20
-22.2673456922
 10
-43.7544381936
 20
-22.3303296958
 10
-43.7366376204
 20
-22.3925200483
 10
-43.7153000952
 20
-22.4535086384
 10
-43.690612474
 20
-22.512825889
 10
-43.6626552091
 20
-22.57044142
 10
-43.6313427822
 20
-22.6265925838
 10
-43.5966123264
 20
-22.6812812017
 10
-43.5585723911
 20
-22.7341642682
 10
-43.5173411224
 20
-22.7849602586
 10
-43.4730378199
 20
-22.8334419433
 10
-43.4257675384
 20
-22.8794311759
 10
-43.375671006
 20
-22.9227235222
  0
LINE
  5
279
100
AcDbEntity
  8
RACCORDO
100
AcDbLine
 62
253
  6
CONTINUOUS
 10
-48.74442128
 20
42.8337079071
 11
-48.7467814938
 21
42.8837936457
  0
LINE
  5
27A
100
AcDbEntity
  8
RACCORDO
100
AcDbLine
 62
253
  6
CONTINUOUS
 10
-48.7467814938
 20
42.8837936457
 11
-48.7487431316
 21
42.9307602491
  0
LWPOLYLINE
  5
27B
100
AcDbEntity
  8
SUPERFICI
100
AcDbPolyline
 62
7
  6
CONTINUOUS
 90
25
 70
0
 10
-43.5068440434
 20
-22.0691116567
 10
-43.5049708027
 20
-22.1226715386
 10
-43.4996065531
 20
-22.175993812
 10
-43.490773838
 20
-22.2288514757
 10
-43.4785094412
 20
-22.2810195823
 10
-43.4628656829
 20
-22.3322756542
 10
-43.4439103015
 20
-22.3824009487
 10
-43.4217234303
 20
-22.4311826794
 10
-43.396399311
 20
-22.4784123395
 10
-43.3680478681
 20
-22.5238867736
 10
-43.3367899053
 20
-22.5674125311
 10
-43.3027582808
 20
-22.6088044363
 10
-43.2661001483
 20
-22.6478849581
 10
-43.2269721205
 20
-22.6844879017
 10
-43.1855403706
 20
-22.7184581279
 10
-43.1419823931
 20
-22.7496510545
 10
-43.0964834914
 20
-22.7779345479
 10
-43.0492372582
 20
-22.8031884343
 10
-43.0004460745
 20
-22.8253049951
 10
-42.9503177405
 20
-22.8441906622
 10
-42.8990651363
 20
-22.8597654969
 10
-42.8469068979
 20
-22.8719630979
 10
-42.7940650359
 20
-22.8807318351
 10
-42.7407638826
 20
-22.8860349024
 10
-42.6872299153
 20
-22.8878499741
  0
LWPOLYLINE
  5
27C
100
AcDbEntity
  8
RACCORDO
100
AcDbPolyline
 62
253
  6
CONTINUOUS
 90
11
 70
0
 10
-48.7487431316
 20
42.9307602491
 10
-48.7502472482
 20
42.9731964189
 10
-48.7508130346
 20
42.992310704
 10
-48.7512486463
 20
43.009826992
 10
-48.7515508044
 20
43.0256134481
 10
-48.751717235
 20
43.0395512572
 10
-48.7517466853
 20
43.0515355175
 10
-48.7516389337
 20
43.0614760309
 10
-48.7513947911
 20
43.0692979808
 10
-48.7510160952
 20
43.0749424961
 10
-48.7505056961
 20
43.078367094
  0
LWPOLYLINE
  5
27D
100
AcDbEntity
  8
RACCORDO
100
AcDbPolyline
 62
253
  6
CONTINUOUS
 90
31
 70
0
 10
-44.1849546605
 20
-22.0854309077
 10
-44.1833780541
 20
-22.1334730625
 10
-44.1804843581
 20
-22.1806946924
 10
-44.1762735969
 20
-22.2270958074
 10
-44.170705309
 20
-22.272626662
 10
-44.1638200023
 20
-22.317337021
 10
-44.1557391516
 20
-22.3613761573
 10
-44.1464766771
 20
-22.404770588
 10
-44.136018694
 20
-22.4474938105
 10
-44.1244449657
 20
-22.4896155659
 10
-44.111774258
 20
-22.531132162
 10
-44.0979878338
 20
-22.5720473037
 10
-44.0831091988
 20
-22.6124418265
 10
-44.0671491031
 20
-22.6523349499
 10
-44.0500968209
 20
-22.6917074649
 10
-44.0319436428
 20
-22.7305825633
 10
-44.0126742224
 20
-22.7689998567
 10
-43.9923039272
 20
-22.8069197431
 10
-43.9708701178
 20
-22.8442465941
 10
-43.9483626724
 20
-22.8809826384
 10
-43.9247917293
 20
-22.9171256588
 10
-43.9002250372
 20
-22.9525733605
 10
-43.8746646051
 20
-22.9873218025
 10
-43.8481084349
 20
-23.0213749387
 10
-43.8206182615
 20
-23.0546423184
 10
-43.7921882826
 20
-23.0871216793
 10
-43.7628243058
 20
-23.1188152974
 10
-43.7326054782
 20
-23.1496395308
 10
-43.7015581817
 20
-23.179566504
 10
-43.6696560333
 20
-23.208624107
 10
-43.6368990317
 20
-23.2368123465
  0
LINE
  5
27E
100
AcDbEntity
  8
RACCORDO
100
AcDbLine
 62
253
  6
CONTINUOUS
 10
-43.6061890493
 20
-37.5099733396
 11
-43.5814138349
 21
-43.8395410948
  0
LINE
  5
27F
100
AcDbEntity
  8
RACCORDO
100
AcDbLine
 62
253
  6
CONTINUOUS
 10
-43.624117449
 20
-31.1414051065
 11
-43.6061890493
 21
-37.5099733396
  0
LINE
  5
280
100
AcDbEntity
  8
RACCORDO
100
AcDbLine
 62
253
  6
CONTINUOUS
 10
-43.5962483738
 20
-22.069121681
 11
-43.6066317592
 21
-16.8902279147
  0
LINE
  5
281
100
AcDbEntity
  8
0
100
AcDbLine
 62
7
  6
CONTINUOUS
 10
-43.5068440434
 20
-22.0691116567
 11
-43.5206100147
 21
-14.8380718246
  0
LINE
  5
282
100
AcDbEntity
  8
RACCORDO
100
AcDbLine
 62
253
  6
CONTINUOUS
 10
-44.1984138675
 20
-15.0321956386
 11
-44.1849546605
 21
-22.0854309077
  0
LINE
  5
283
100
AcDbEntity
  8
RACCORDO
100
AcDbLine
 62
7
  6
CONTINUOUS
 10
-43.8030187336
 20
-14.8436127258
 11
-43.7892962158
 21
-22.0755327071
  0
LINE
  5
284
100
AcDbEntity
  8
RACCORDO
100
AcDbLine
 62
253
  6
CONTINUOUS
 10
-43.6066317592
 20
-16.8902279147
 11
-43.6141850238
 21
-11.7225465815
  0
LINE
  5
285
100
AcDbEntity
  8
RACCORDO
100
AcDbLine
 62
253
  6
CONTINUOUS
 10
-43.6368990317
 20
-23.2368123465
 11
-43.624117449
 21
-31.1414051065
  0
LINE
  5
286
100
AcDbEntity
  8
RACCORDO
100
AcDbLine
 62
253
  6
CONTINUOUS
 10
-44.2070588451
 20
-7.4377514908
 11
-44.1984138675
 21
-15.0321956386
  0
LINE
  5
287
100
AcDbEntity
  8
RACCORDO
100
AcDbLine
 62
7
  6
CONTINUOUS
 10
-43.811245855
 20
-7.6077142438
 11
-43.8030187336
 21
-14.8436127258
  0
LINE
  5
288
100
AcDbEntity
  8
0
100
AcDbLine
 62
7
  6
CONTINUOUS
 10
-43.5206100147
 20
-14.8380718246
 11
-43.528870099
 21
-7.6045473662
  0
LINE
  5
289
100
AcDbEntity
  8
RACCORDO
100
AcDbLine
 62
253
  6
CONTINUOUS
 10
-43.6141850238
 20
-11.7225465815
 11
-43.6190822897
 21
-6.3271760013
  0
LINE
  5
28A
100
AcDbEntity
  8
RACCORDO
100
AcDbLine
 62
253
  6
CONTINUOUS
 10
-43.6190822897
 20
-6.3271760013
 11
-43.6209435528
 21
-0.3691116567
  0
LINE
  5
28B
100
AcDbEntity
  8
0
100
AcDbLine
 62
7
  6
CONTINUOUS
 10
-43.528870099
 20
-7.6045473662
 11
-43.5316239692
 21
-0.3691116567
  0
LINE
  5
28C
100
AcDbEntity
  8
RACCORDO
100
AcDbLine
 62
253
  6
CONTINUOUS
 10
-44.2096615488
 20
-0.3691116562
 11
-44.2070588451
 21
-7.4377514908
  0
LINE
  5
28D
100
AcDbEntity
  8
RACCORDO
100
AcDbLine
 62
7
  6
CONTINUOUS
 10
-43.8139855961
 20
-0.3691116567
 11
-43.811245855
 21
-7.6077142438
  0
LINE
  5
28E
100
AcDbEntity
  8
RACCORDO
100
AcDbLine
 62
253
  6
CONTINUOUS
 10
-42.6872299153
 20
22.4367682986
 11
-42.6872299153
 21
22.1496266606
  0
LINE
  5
28F
100
AcDbEntity
  8
RACCORDO
100
AcDbLine
 62
253
  6
CONTINUOUS
 10
-42.6872299155
 20
-23.174991612
 11
-42.6872299153
 21
-22.8878499741
  0
LINE
  5
290
100
AcDbEntity
  8
RACCORDO
100
AcDbLine
 62
253
  6
CONTINUOUS
 10
-44.2070448142
 20
6.7185402074
 11
-44.2096615488
 21
-0.3691116562
  0
LINE
  5
291
100
AcDbEntity
  8
RACCORDO
100
AcDbLine
 62
7
  6
CONTINUOUS
 10
-43.8112481712
 20
6.8687506798
 11
-43.8139856151
 21
-0.3691116567
  0
LINE
  5
292
100
AcDbEntity
  8
0
100
AcDbLine
 62
7
  6
CONTINUOUS
 10
-43.5316239692
 20
-0.3691116567
 11
-43.528870099
 21
6.8663240527
  0
LINE
  5
293
100
AcDbEntity
  8
RACCORDO
100
AcDbLine
 62
253
  6
CONTINUOUS
 10
-43.6209435528
 20
-0.3691116567
 11
-43.6155405339
 21
9.7866513507
  0
LINE
  5
294
100
AcDbEntity
  8
RACCORDO
100
AcDbLine
 62
253
  6
CONTINUOUS
 10
-44.198376754
 20
14.3180556916
 11
-44.2070448142
 21
6.7185402074
  0
LINE
  5
295
100
AcDbEntity
  8
RACCORDO
100
AcDbLine
 62
7
  6
CONTINUOUS
 10
-43.8030172028
 20
14.104597631
 11
-43.8112481712
 21
6.8687506798
  0
LINE
  5
296
100
AcDbEntity
  8
0
100
AcDbLine
 62
7
  6
CONTINUOUS
 10
-43.528870099
 20
6.8663240527
 11
-43.5206100147
 21
14.0998485112
  0
LINE
  5
297
100
AcDbEntity
  8
RACCORDO
100
AcDbLine
 62
253
  6
CONTINUOUS
 10
-43.6368990317
 20
22.4985890331
 11
-43.6285656005
 21
28.2738243062
  0
LWPOLYLINE
  5
298
100
AcDbEntity
  8
RACCORDO
100
AcDbPolyline
 62
253
  6
CONTINUOUS
 90
3
 70
0
 10
-43.6155405339
 20
9.7866513507
 10
-43.5995539446
 20
19.8189827221
 10
-43.5962483839
 20
21.3308931997
  0
LINE
  5
299
100
AcDbEntity
  8
0
100
AcDbLine
 62
7
  6
CONTINUOUS
 10
-43.5206100147
 20
14.0998485112
 11
-43.5068440434
 21
21.3308883433
  0
LINE
  5
29A
100
AcDbEntity
  8
RACCORDO
100
AcDbLine
 62
253
  6
CONTINUOUS
 10
-44.184954657
 20
21.3472078093
 11
-44.198376754
 21
14.3180556916
  0
LINE
  5
29B
100
AcDbEntity
  8
RACCORDO
100
AcDbLine
 62
7
  6
CONTINUOUS
 10
-43.7892961009
 20
21.3373023432
 11
-43.8030172028
 21
14.104597631
  0
LINE
  5
29C
100
AcDbEntity
  8
RACCORDO
100
AcDbLine
 62
253
  6
CONTINUOUS
 10
-43.6285656005
 20
28.2738243062
 11
-43.6189045224
 21
32.5295986018
  0
LINE
  5
29D
100
AcDbEntity
  8
RACCORDO
100
AcDbLine
 62
253
  6
CONTINUOUS
 10
-43.6189045224
 20
32.5295986018
 11
-43.6061890493
 21
36.7717500262
  0
LWPOLYLINE
  5
29E
100
AcDbEntity
  8
RACCORDO
100
AcDbPolyline
 62
253
  6
CONTINUOUS
 90
3
 70
0
 10
-43.6061890493
 20
36.7717500262
 10
-43.5904302618
 20
40.9965663247
 10
-43.581413834
 20
43.1013177815
  0
LWPOLYLINE
  5
29F
100
AcDbEntity
  8
RACCORDO
100
AcDbPolyline
 62
253
  6
CONTINUOUS
 90
6
 70
0
 10
-43.5163273277
 20
-44.0486372857
 10
-43.5165586815
 20
-44.0605899405
 10
-43.51667578
 20
-44.0705007352
 10
-43.5166777436
 20
-44.0782952042
 10
-43.5165645574
 20
-44.0839147829
 10
-43.5163370719
 20
-44.0873172479
  0
LWPOLYLINE
  5
2A0
100
AcDbEntity
  8
RACCORDO
100
AcDbPolyline
 62
253
  6
CONTINUOUS
 90
49
 70
0
 10
-43.5962540219
 20
21.3308932
 10
-43.5953146903
 20
21.3701364815
 10
-43.5925955285
 20
21.4102757894
 10
-43.587972358
 20
21.4512234375
 10
-43.581219923
 20
21.4934385664
 10
-43.5722677637
 20
21.5362399473
 10
-43.561466931
 20
21.5778616727
 10
-43.5490453166
 20
21.6179261167
 10
-43.5350506025
 20
21.6566968424
 10
-43.5198941776
 20
21.6934682676
 10
-43.503901004
 20
21.727996515
 10
-43.4871646045
 20
21.7605532131
 10
-43.4698154582
 20
21.7912532961
 10
-43.452033507
 20
21.8201000854
 10
-43.4339555318
 20
21.8471614567
 10
-43.415604369
 20
21.8726435238
 10
-43.3971359296
 20
21.8965376218
 10
-43.3786258306
 20
21.9189372453
 10
-43.3599194064
 20
21.9401728995
 10
-43.3411046927
 20
21.9602534298
 10
-43.3222333749
 20
21.9792261317
 10
-43.3030337074
 20
21.997430758
 10
-43.2835138139
 20
22.0148936764
 10
-43.2637320897
 20
22.0315957592
 10
-43.2434427733
 20
22.0477587681
 10
-43.222594688
 20
22.0634134863
 10
-43.2012644449
 20
22.0784925539
 10
-43.1793738253
 20
22.0930400651
 10
-43.156840284
 20
22.1070881599
 10
-43.133765132
 20
22.1205514521
 10
-43.110351398
 20
22.1333063458
 10
-43.0865628987
 20
22.1453748893
 10
-43.0624788486
 20
22.1567185748
 10
-43.0385003327
 20
22.1671730346
 10
-43.0147594359
 20
22.1767292006
 10
-42.9911955403
 20
22.1854584589
 10
-42.967935802
 20
22.193358721
 10
-42.9451424222
 20
22.2004288011
 10
-42.9227159862
 20
22.2067520448
 10
-42.9003840052
 20
22.212438422
 10
-42.8782353353
 20
22.2174882237
 10
-42.8562191438
 20
22.2219355473
 10
-42.8338378934
 20
22.2258806427
 10
-42.8110866814
 20
22.2293034614
 10
-42.7879923067
 20
22.2321789992
 10
-42.7640941076
 20
22.2345254921
 10
-42.7392449448
 20
22.2362918755
 10
-42.7136164874
 20
22.2373983535
 10
-42.6872264341
 20
22.2377812763
  0
LWPOLYLINE
  5
2A1
100
AcDbEntity
  8
RACCORDO
100
AcDbPolyline
 62
253
  6
CONTINUOUS
 90
7
 70
0
 10
-43.5889025451
 20
-44.0311642742
 10
-43.5892471872
 20
-44.0450693837
 10
-43.589479104
 20
-44.0570223951
 10
-43.5895965529
 20
-44.0669334952
 10
-43.5895986514
 20
-44.0747282135
 10
-43.5894853838
 20
-44.0803479817
 10
-43.589257601
 20
-44.0837505735
  0
LWPOLYLINE
  5
2A2
100
AcDbEntity
  8
RACCORDO
100
AcDbPolyline
 62
253
  6
CONTINUOUS
 90
9
 70
0
 10
-48.7508130347
 20
-43.7305340174
 10
-48.7512486463
 20
-43.7480503054
 10
-48.7515508045
 20
-43.7638367615
 10
-48.751717235
 20
-43.7777745705
 10
-48.7517466853
 20
-43.7897588309
 10
-48.7516389337
 20
-43.7996993442
 10
-48.7513947911
 20
-43.8075212942
 10
-48.7510160952
 20
-43.8131658095
 10
-48.7505056961
 20
-43.8165904074
  0
LINE
  5
2A3
100
AcDbEntity
  8
RACCORDO
100
AcDbLine
 62
253
  6
CONTINUOUS
 10
-48.7495555452
 20
-43.6908513119
 11
-48.7508130347
 21
-43.7305340174
  0
LWPOLYLINE
  5
2A4
100
AcDbEntity
  8
0
100
AcDbPolyline
 62
7
  6
CONTINUOUS
 90
25
 70
0
 10
-43.5068440434
 20
21.3308883433
 10
-43.5049708027
 20
21.3844482252
 10
-43.4996065531
 20
21.4377704986
 10
-43.490773838
 20
21.4906281623
 10
-43.4785094412
 20
21.5427962689
 10
-43.4628656829
 20
21.5940523407
 10
-43.4439103015
 20
21.6441776352
 10
-43.4217234303
 20
21.6929593659
 10
-43.396399311
 20
21.7401890261
 10
-43.3680478681
 20
21.7856634602
 10
-43.3367899053
 20
21.8291892177
 10
-43.3027582808
 20
21.8705811229
 10
-43.2661001483
 20
21.9096616447
 10
-43.2269721205
 20
21.9462645883
 10
-43.1855403706
 20
21.9802348145
 10
-43.1419823931
 20
22.0114277411
 10
-43.0964834914
 20
22.0397112345
 10
-43.0492372582
 20
22.0649651209
 10
-43.0004460745
 20
22.0870816816
 10
-42.9503177405
 20
22.1059673488
 10
-42.8990651363
 20
22.1215421835
 10
-42.8469068979
 20
22.1337397844
 10
-42.7940650359
 20
22.1425085217
 10
-42.7407638826
 20
22.147811589
 10
-42.6872299153
 20
22.1496266606
  0
LINE
  5
2A5
100
AcDbEntity
  8
RACCORDO
100
AcDbLine
 62
253
  6
CONTINUOUS
 10
-48.7478161222
 20
-43.6459810695
 11
-48.7495555452
 21
-43.6908513119
  0
LWPOLYLINE
  5
2A6
100
AcDbEntity
  8
RACCORDO
100
AcDbPolyline
 62
253
  6
CONTINUOUS
 90
3
 70
0
 10
-48.74442128
 20
-43.5719312205
 10
-48.7456470336
 20
-43.5972715949
 10
-48.7478161222
 20
-43.6459810695
  0
LINE
  5
2A7
100
AcDbEntity
  8
RACCORDO
100
AcDbLine
 62
253
  6
CONTINUOUS
 10
-48.7607034302
 20
-43.9955726293
 11
-48.7505044169
 21
-43.8165904779
  0
LWPOLYLINE
  5
2A8
100
AcDbEntity
  8
RACCORDO
100
AcDbPolyline
 62
7
  6
CONTINUOUS
 90
16
 70
0
 10
-43.3756785881
 20
22.1845095145
 10
-43.4249786774
 20
22.141938072
 10
-43.4716749733
 20
22.0966263476
 10
-43.5156425923
 20
22.0487064588
 10
-43.5567692816
 20
21.9982952902
 10
-43.5948751296
 20
21.9456227747
 10
-43.6297513236
 20
21.8910413378
 10
-43.6612555051
 20
21.83490498
 10
-43.6894505607
 20
21.777180611
 10
-43.7143854887
 20
21.7176663015
 10
-43.7359563829
 20
21.6564092991
 10
-43.7539685967
 20
21.5938753705
 10
-43.7683297605
 20
21.5305037974
 10
-43.7790121043
 20
21.4665340606
 10
-43.7859994356
 20
21.4020611596
 10
-43.7892760359
 20
21.337302377
  0
LWPOLYLINE
  5
2A9
100
AcDbEntity
  8
RACCORDO
100
AcDbPolyline
 62
253
  6
CONTINUOUS
 90
31
 70
0
 10
-43.6368990317
 20
22.4985890331
 10
-43.6696450284
 20
22.470410477
 10
-43.7015365263
 20
22.4413634404
 10
-43.7325735271
 20
22.4114479164
 10
-43.7627818676
 20
22.3806367086
 10
-43.7921357119
 20
22.348956999
 10
-43.8205575504
 20
22.3164903497
 10
-43.8480420243
 20
22.2832343155
 10
-43.8745944871
 20
22.2491913278
 10
-43.9001534954
 20
22.2144502642
 10
-43.9247216746
 20
22.1790062171
 10
-43.9482963884
 20
22.1428640812
 10
-43.9708082983
 20
22.1061274393
 10
-43.9922471161
 20
22.0687983365
 10
-44.0126231135
 20
22.0308747162
 10
-44.0318977893
 20
21.99245401
 10
-44.0500553356
 20
21.9535764476
 10
-44.0671115393
 20
21.9142017898
 10
-44.0830752902
 20
21.8743067663
 10
-44.0979572794
 20
21.8339108619
 10
-44.1117467917
 20
21.7929945812
 10
-44.1244206059
 20
21.7514761828
 10
-44.1359975723
 20
21.7093519782
 10
-44.1464588121
 20
21.6666256429
 10
-44.1557245082
 20
21.6232264795
 10
-44.1638086696
 20
21.5791810079
 10
-44.1706972521
 20
21.5344626935
 10
-44.1762683535
 20
21.4889212536
 10
-44.1804813235
 20
21.442506587
 10
-44.1833767662
 20
21.3952687755
 10
-44.184954657
 20
21.3472078093
  0
LWPOLYLINE
  5
2AA
100
AcDbEntity
  8
RACCORDO
100
AcDbPolyline
 62
253
  6
CONTINUOUS
 90
9
 70
0
 10
52.5251350798
 20
-43.5401864197
 10
53.0799024082
 20
-43.505667309
 10
53.6342643947
 20
-43.4683735235
 10
54.1882269256
 20
-43.4283009441
 10
54.7417859853
 20
-43.3854528749
 10
55.2949276481
 20
-43.3398400459
 10
55.8476478503
 20
-43.2914657085
 10
56.3999523963
 20
-43.2403256345
 10
56.951842125
 20
-43.1864192946
  0
LWPOLYLINE
  5
2AB
100
AcDbEntity
  8
RACCORDO
100
AcDbPolyline
 62
253
  6
CONTINUOUS
 90
9
 70
0
 10
52.5323063319
 20
-43.7848290058
 10
53.0881899146
 20
-43.7502824082
 10
53.6436809614
 20
-43.7129547942
 10
54.1987563586
 20
-43.6728509618
 10
54.7534124217
 20
-43.6299744603
 10
55.3076638931
 20
-43.5843271143
 10
55.8615071017
 20
-43.5359118947
 10
56.414919018
 20
-43.4847335437
 10
56.9678853683
 20
-43.4307961293
  0
LINE
  5
2AC
100
AcDbEntity
  8
RACCORDO
100
AcDbLine
 62
253
  6
CONTINUOUS
 10
51.3966148438
 20
-43.6030812435
 11
52.5251350798
 21
-43.5401864197
  0
LINE
  5
2AD
100
AcDbEntity
  8
DRAFT
100
AcDbLine
 62
7
  6
CONTINUOUS
 10
52.5426719166
 20
-43.9638016422
 11
51.4048407328
 21
-44.0271192806
  0
LINE
  5
2AE
100
AcDbEntity
  8
RACCORDO
100
AcDbLine
 62
253
  6
CONTINUOUS
 10
51.4028929893
 20
-43.8476879185
 11
52.5323063319
 21
-43.7848290058
  0
LINE
  5
2AF
100
AcDbEntity
  8
DRAFT
100
AcDbLine
 62
7
  6
CONTINUOUS
 10
51.4048407328
 20
-44.0271192806
 11
49.6601233547
 21
-44.1195807014
  0
LINE
  5
2B0
100
AcDbEntity
  8
RACCORDO
100
AcDbLine
 62
253
  6
CONTINUOUS
 10
48.5359119468
 20
-43.9978792667
 11
51.4028929893
 21
-43.8476879185
  0
LINE
  5
2B1
100
AcDbEntity
  8
RACCORDO
100
AcDbLine
 62
253
  6
CONTINUOUS
 10
48.528654695
 20
-43.7535250581
 11
51.3966148438
 21
-43.6030812435
  0
LINE
  5
2B2
100
AcDbEntity
  8
DRAFT
100
AcDbLine
 62
7
  6
CONTINUOUS
 10
49.6601233547
 20
-44.1195807014
 11
47.9146658464
 21
-44.2087730637
  0
LINE
  5
2B3
100
AcDbEntity
  8
DRAFT
100
AcDbLine
 62
7
  6
CONTINUOUS
 10
47.9146658464
 20
-44.2087730637
 11
46.7506330687
 21
-44.2664163452
  0
LINE
  5
2B4
100
AcDbEntity
  8
RACCORDO
100
AcDbLine
 62
253
  6
CONTINUOUS
 10
46.7418772413
 20
-44.0873172481
 11
48.5359119468
 21
-43.9978792667
  0
LINE
  5
2B5
100
AcDbEntity
  8
RACCORDO
100
AcDbLine
 62
253
  6
CONTINUOUS
 10
46.7340498922
 20
-43.8431137796
 11
48.528654695
 21
-43.7535250581
  0
LWPOLYLINE
  5
2B6
100
AcDbEntity
  8
DRAFT
100
AcDbPolyline
 62
7
  6
CONTINUOUS
 90
16
 70
0
 10
46.7506330687
 20
-44.2664163452
 10
40.7493260059
 20
-44.5404627566
 10
34.7422676966
 20
-44.7754104641
 10
28.7294550288
 20
-44.9712967416
 10
22.7094818142
 20
-45.128256404
 10
16.6837405167
 20
-45.2462116229
 10
10.6564223964
 20
-45.3248719145
 10
4.6278452355
 20
-45.3641470835
 10
-1.4023321066
 20
-45.3641469885
 10
-7.4309082216
 20
-45.3248716601
 10
-13.458224167
 20
-45.246211244
 10
-19.4839622439
 20
-45.1282559314
 10
-25.5039314412
 20
-44.971296255
 10
-31.5167393783
 20
-44.7754100598
 10
-37.5237921603
 20
-44.5404625144
 10
-43.5250928993
 20
-44.2664163452
  0
LWPOLYLINE
  5
2B7
100
AcDbEntity
  8
RACCORDO
100
AcDbPolyline
 62
253
  6
CONTINUOUS
 90
48
 70
0
 10
-42.2036254221
 20
-44.1505292048
 10
-40.8495062664
 20
-44.213776303
 10
-39.4539570805
 20
-44.2768772048
 10
-38.019188498
 20
-44.3395490191
 10
-36.5429432378
 20
-44.4017021583
 10
-35.0184917702
 20
-44.4634046983
 10
-33.4457863697
 20
-44.5244195784
 10
-31.824813662
 20
-44.5845008136
 10
-30.14888576
 20
-44.6436245926
 10
-28.4179629923
 20
-44.7014930455
 10
-26.63200745
 20
-44.7577983714
 10
-24.7843229149
 20
-44.8124134612
 10
-22.8745767029
 20
-44.8649774787
 10
-20.9030646187
 20
-44.9150996458
 10
-18.8640345823
 20
-44.962513778
 10
-16.7429087951
 20
-45.0070635508
 10
-14.5542806415
 20
-45.0479293547
 10
-12.3361832579
 20
-45.0840594363
 10
-10.0938250258
 20
-45.115175621
 10
-7.8221012104
 20
-45.141152465
 10
-5.5436057173
 20
-45.1615978644
 10
-3.2659732985
 20
-45.1764221549
 10
-0.9816578836
 20
-45.1856538748
 10
1.3095229411
 20
-45.1892441168
 10
3.607505162
 20
-45.1871421223
 10
5.9122676773
 20
-45.1792971989
 10
8.2240561277
 20
-45.1656564868
 10
10.5530665714
 20
-45.1460677842
 10
12.8890074207
 20
-45.1205253901
 10
15.2013836975
 20
-45.089426457
 10
17.499580327
 20
-45.0527878539
 10
19.7740898794
 20
-45.0109022891
 10
21.9661186966
 20
-44.9652401054
 10
24.0526352863
 20
-44.9169468392
 10
26.056670021
 20
-44.8661273745
 10
27.9885619297
 20
-44.8130215341
 10
29.8475313907
 20
-44.7581043851
 10
31.6344089222
 20
-44.7017885039
 10
33.3619434658
 20
-44.6440535303
 10
35.0301702317
 20
-44.5852309542
 10
36.6391371648
 20
-44.5256403885
 10
38.2015928417
 20
-44.4650863773
 10
39.7175285368
 20
-44.40380527
 10
41.1870115602
 20
-44.3420234211
 10
42.6228874028
 20
-44.2793922775
 10
44.0294476038
 20
-44.2158714972
 10
45.4024379957
 20
-44.1517968463
 10
46.7418772413
 20
-44.0873172481
  0
LWPOLYLINE
  5
2B8
100
AcDbEntity
  8
RACCORDO
100
AcDbPolyline
 62
253
  6
CONTINUOUS
 90
48
 70
0
 10
-42.1960637112
 20
-43.9067479117
 10
-40.8421721636
 20
-43.9700443822
 10
-39.4468344187
 20
-44.0330032607
 10
-38.0123101651
 20
-44.0957462478
 10
-36.5363386828
 20
-44.1581517619
 10
-35.0121384517
 20
-44.219855038
 10
-33.4396997174
 20
-44.2809249471
 10
-31.8190309657
 20
-44.3412929219
 10
-30.1433773675
 20
-44.4003882644
 10
-28.4127361253
 20
-44.4582906274
 10
-26.6271085995
 20
-44.5149209153
 10
-24.7797453417
 20
-44.5694706183
 10
-22.8703143625
 20
-44.622037173
 10
-20.8991460472
 20
-44.6725240031
 10
-18.8604834158
 20
-44.7198319609
 10
-16.7397102579
 20
-44.764169102
 10
-14.5514409001
 20
-44.8053285063
 10
-12.3337634179
 20
-44.8415890106
 10
-10.0918119877
 20
-44.872596332
 10
-7.8204511411
 20
-44.8987061131
 10
-5.5423641379
 20
-44.9192622883
 10
-3.2651426624
 20
-44.9340964498
 10
-0.9811939188
 20
-44.9433778097
 10
1.3095757916
 20
-44.9469566211
 10
3.6071472232
 20
-44.9448350515
 10
5.9115407457
 20
-44.9370109672
 10
8.2229096411
 20
-44.9233279725
 10
10.5515036701
 20
-44.9035592486
 10
12.8870741711
 20
-44.8779308099
 10
15.199026832
 20
-44.8469653524
 10
17.4967798927
 20
-44.8100967984
 10
19.770916453
 20
-44.7678897144
 10
21.96258934
 20
-44.7225630218
 10
24.0487320305
 20
-44.6744370634
 10
26.052413352
 20
-44.6231903747
 10
27.9839883657
 20
-44.5700797417
 10
29.8426390288
 20
-44.5152731908
 10
31.6291852209
 20
-44.4586019326
 10
33.3564374885
 20
-44.4008179386
 10
35.0243943851
 20
-44.3420501722
 10
36.6330588833
 20
-44.2821691965
 10
38.1952470956
 20
-44.2215396325
 10
39.7109343607
 20
-44.1602699448
 10
41.1801465483
 20
-44.0982513511
 10
42.6157747572
 20
-44.035522697
 10
44.0221161358
 20
-43.9720968272
 10
45.3948743358
 20
-43.9079605759
 10
46.7340498922
 20
-43.8431137796
  0
LINE
  5
2B9
100
AcDbEntity
  8
DRAFT
100
AcDbLine
 62
7
  6
CONTINUOUS
 10
-43.5250928993
 20
-44.2664163452
 11
-45.271024753
 21
-44.1794060563
  0
LINE
  5
2BA
100
AcDbEntity
  8
RACCORDO
100
AcDbLine
 62
253
  6
CONTINUOUS
 10
-45.3103717814
 20
-43.9978792665
 11
-42.2036254221
 21
-44.1505292048
  0
LINE
  5
2BB
100
AcDbEntity
  8
RACCORDO
100
AcDbLine
 62
253
  6
CONTINUOUS
 10
-45.8768653198
 20
-43.7241441619
 11
-42.1960637112
 21
-43.9067479117
  0
LINE
  5
2BC
100
AcDbEntity
  8
DRAFT
100
AcDbLine
 62
7
  6
CONTINUOUS
 10
-45.271024753
 20
-44.1794060563
 11
-47.0162396504
 21
-44.0891231607
  0
LINE
  5
2BD
100
AcDbEntity
  8
RACCORDO
100
AcDbLine
 62
253
  6
CONTINUOUS
 10
-48.1773527752
 20
-43.8476879209
 11
-45.3103717814
 21
-43.9978792665
  0
LINE
  5
2BE
100
AcDbEntity
  8
DRAFT
100
AcDbLine
 62
7
  6
CONTINUOUS
 10
-47.0162396504
 20
-44.0891231607
 11
-48.7607034302
 21
-43.9955726293
  0
LINE
  5
2BF
100
AcDbEntity
  8
RACCORDO
100
AcDbLine
 62
253
  6
CONTINUOUS
 10
-48.74442128
 20
-43.5719312205
 11
-45.8768653198
 21
-43.7241441619
  0
LWPOLYLINE
  5
2C0
100
AcDbEntity
  8
DRAFT
100
AcDbPolyline
 62
7
  6
CONTINUOUS
 90
10
 70
0
 10
-48.7607034302
 20
-43.9955726293
 10
-49.3171312424
 20
-43.9638016755
 10
-49.8733492887
 20
-43.9292381855
 10
-50.4293585836
 20
-43.8918817732
 10
-50.9851742582
 20
-43.8517303506
 10
-51.5407831554
 20
-43.8087851424
 10
-52.09614383
 20
-43.7630506871
 10
-52.6512430858
 20
-43.7145281517
 10
-53.2060959722
 20
-43.6632153307
 10
-53.7607033811
 20
-43.6091116613
  0
LWPOLYLINE
  5
2C1
100
AcDbEntity
  8
RACCORDO
100
AcDbPolyline
 62
253
  6
CONTINUOUS
 90
10
 70
0
 10
-53.7423357385
 20
-43.430797076
 10
-53.189069671
 20
-43.4847629187
 10
-52.6354327458
 20
-43.5359599424
 10
-52.0814393427
 20
-43.5843852076
 10
-51.5271122175
 20
-43.6300351316
 10
-50.9724554892
 20
-43.6729078415
 10
-50.4174555893
 20
-43.7130025668
 10
-49.8621166334
 20
-43.7503168841
 10
-49.3064614198
 20
-43.7848471744
 10
-48.1773527752
 20
-43.8476879209
  0
LWPOLYLINE
  5
2C2
100
AcDbEntity
  8
RACCORDO
100
AcDbPolyline
 62
253
  6
CONTINUOUS
 90
10
 70
0
 10
-53.7263019556
 20
-43.1864192946
 10
-53.1741078645
 20
-43.2403526632
 10
-52.6215749705
 20
-43.2915121442
 10
-52.0687024395
 20
-43.3398982687
 10
-51.5154843846
 20
-43.3855141182
 10
-50.9619249599
 20
-43.4283575909
 10
-50.4080383574
 20
-43.4684214029
 10
-49.8538286865
 20
-43.5057033985
 10
-49.299289979
 20
-43.5402065493
 10
-48.74442128
 20
-43.5719312205
  0
LWPOLYLINE
  5
2C3
100
AcDbEntity
  8
RACCORDO
100
AcDbPolyline
 62
7
  6
CONTINUOUS
 90
13
 70
0
 10
-43.375671006
 20
-22.9227235222
 10
-43.3267482132
 20
-22.9603747804
 10
-43.2757824349
 20
-22.9953095941
 10
-43.2229827822
 20
-23.0273785952
 10
-43.1685825678
 20
-23.0564554197
 10
-43.1125950369
 20
-23.0825374293
 10
-43.0550248932
 20
-23.1055976634
 10
-42.9960530787
 20
-23.125529062
 10
-42.9359946742
 20
-23.1421946452
 10
-42.8749560021
 20
-23.1555340324
 10
-42.8130271728
 20
-23.1654884969
 10
-42.7503895447
 20
-23.1719955464
 10
-42.6872299155
 20
-23.1749953784
  0
LWPOLYLINE
  5
2C4
100
AcDbEntity
  8
RACCORDO
100
AcDbPolyline
 62
253
  6
CONTINUOUS
 90
28
 70
0
 10
-43.6368990317
 20
-23.2368123465
 10
-43.6077401226
 20
-23.2606205366
 10
-43.5780447023
 20
-23.2836746889
 10
-43.5478127721
 20
-23.3059748081
 10
-43.5170274773
 20
-23.3275315407
 10
-43.4857056745
 20
-23.3483342492
 10
-43.4538979321
 20
-23.368351013
 10
-43.4215983343
 20
-23.3875856706
 10
-43.3888127979
 20
-23.406034392
 10
-43.3556096398
 20
-23.4236537535
 10
-43.3219908032
 20
-23.4404350815
 10
-43.2879543449
 20
-23.4563870575
 10
-43.2535627524
 20
-23.4714922906
 10
-43.218823349
 20
-23.4857507068
 10
-43.1837288104
 20
-23.4991623869
 10
-43.1483196519
 20
-23.5117101721
 10
-43.1125912207
 20
-23.523397773
 10
-43.0765481676
 20
-23.5342214849
 10
-43.0402449627
 20
-23.544153026
 10
-43.0036818966
 20
-23.5531896603
 10
-42.9668586759
 20
-23.5613341287
 10
-42.9298288944
 20
-23.5685663641
 10
-42.8925937361
 20
-23.5748845583
 10
-42.8551520135
 20
-23.580290523
 10
-42.8175537632
 20
-23.5847696205
 10
-42.7798156628
 20
-23.5883169722
 10
-42.7419210303
 20
-23.5909374588
 10
-42.7038698633
 20
-23.5926310809
  0
LINE
  5
2C5
100
AcDbEntity
  8
RACCORDO
100
AcDbLine
 62
253
  6
CONTINUOUS
 10
-43.5163370719
 20
43.3490939346
 11
-43.5250928993
 21
43.5281930318
  0
LINE
  5
2C6
100
AcDbEntity
  8
RACCORDO
100
AcDbLine
 62
253
  6
CONTINUOUS
 10
-43.5814139388
 20
43.1013177762
 11
-43.5846688014
 21
43.1752864883
  0
LINE
  5
2C7
100
AcDbEntity
  8
RACCORDO
100
AcDbLine
 62
253
  6
CONTINUOUS
 10
-43.5085097228
 20
43.1048904662
 11
-43.511758285
 21
43.1788577485
  0
LINE
  5
2C8
100
AcDbEntity
  8
RACCORDO
100
AcDbLine
 62
253
  6
CONTINUOUS
 10
-42.6880000584
 20
22.4367567377
 11
-42.6936500511
 21
22.5668541685
  0
LINE
  5
2C9
100
AcDbEntity
  8
RACCORDO
100
AcDbLine
 62
253
  6
CONTINUOUS
 10
-43.5846688014
 20
43.1752864883
 11
-43.5872222748
 21
43.2406263772
  0
LINE
  5
2CA
100
AcDbEntity
  8
RACCORDO
100
AcDbLine
 62
253
  6
CONTINUOUS
 10
-43.511758285
 20
43.1788577485
 11
-43.5143066854
 21
43.2441960921
  0
LINE
  5
2CB
100
AcDbEntity
  8
RACCORDO
100
AcDbLine
 62
253
  6
CONTINUOUS
 10
-42.6936500511
 20
22.5668541685
 11
-42.6990184626
 21
22.7081365302
  0
LWPOLYLINE
  5
2CC
100
AcDbEntity
  8
RACCORDO
100
AcDbPolyline
 62
253
  6
CONTINUOUS
 90
9
 70
0
 10
-43.5872222748
 20
43.2406263772
 10
-43.5884477672
 20
43.2771882341
 10
-43.5889025451
 20
43.2929409608
 10
-43.5892471872
 20
43.3068460703
 10
-43.589479104
 20
43.3187990817
 10
-43.5895965529
 20
43.3287101818
 10
-43.5895986514
 20
43.3365049002
 10
-43.5894853838
 20
43.3421246683
 10
-43.589257601
 20
43.3455272602
  0
LINE
  5
2CD
100
AcDbEntity
  8
RACCORDO
100
AcDbLine
 62
253
  6
CONTINUOUS
 10
-43.5143066854
 20
43.2441960921
 11
-43.5155296533
 21
43.2807569794
  0
LINE
  5
2CE
100
AcDbEntity
  8
RACCORDO
100
AcDbLine
 62
253
  6
CONTINUOUS
 10
-42.6990184626
 20
22.7081365302
 11
-42.7038698605
 21
22.8544077621
  0
LWPOLYLINE
  5
2CF
100
AcDbEntity
  8
RACCORDO
100
AcDbPolyline
 62
253
  6
CONTINUOUS
 90
7
 70
0
 10
-43.5155296533
 20
43.2807569794
 10
-43.5163273277
 20
43.3104139723
 10
-43.5165586815
 20
43.3223666271
 10
-43.51667578
 20
43.3322774219
 10
-43.5166777436
 20
43.3400718909
 10
-43.5165645574
 20
43.3456914696
 10
-43.5163370719
 20
43.3490939346
  0
LINE
  5
2D0
100
AcDbEntity
  8
RACCORDO
100
AcDbLine
 62
253
  6
CONTINUOUS
 10
-43.5155296533
 20
-44.0189802928
 11
-43.5163273277
 21
-44.0486372857
  0
LINE
  5
2D1
100
AcDbEntity
  8
RACCORDO
100
AcDbLine
 62
253
  6
CONTINUOUS
 10
-43.5878862708
 20
-43.9979295673
 11
-43.5889025451
 21
-44.0311642742
  0
LINE
  5
2D2
100
AcDbEntity
  8
RACCORDO
100
AcDbLine
 62
253
  6
CONTINUOUS
 10
-43.5143066854
 20
-43.9824194055
 11
-43.5155296533
 21
-44.0189802928
  0
LINE
  5
2D3
100
AcDbEntity
  8
RACCORDO
100
AcDbLine
 62
253
  6
CONTINUOUS
 10
-42.6990184686
 20
-23.4463598806
 11
-42.7038698632
 21
-23.5926310808
  0
LINE
  5
2D4
100
AcDbEntity
  8
RACCORDO
100
AcDbLine
 62
253
  6
CONTINUOUS
 10
-43.5856074735
 20
-43.9364806304
 11
-43.5878862708
 21
-43.9979295673
  0
LINE
  5
2D5
100
AcDbEntity
  8
RACCORDO
100
AcDbLine
 62
253
  6
CONTINUOUS
 10
-42.6936500563
 20
-23.3050775594
 11
-42.6990184686
 21
-23.4463598806
  0
LINE
  5
2D6
100
AcDbEntity
  8
RACCORDO
100
AcDbLine
 62
253
  6
CONTINUOUS
 10
-43.511758285
 20
-43.9170810619
 11
-43.5143066854
 21
-43.9824194055
  0
LWPOLYLINE
  5
2D7
100
AcDbEntity
  8
RACCORDO
100
AcDbPolyline
 62
253
  6
CONTINUOUS
 90
3
 70
0
 10
-43.5814139388
 20
-43.8395410896
 10
-43.582564127
 20
-43.8648572473
 10
-43.5856074735
 20
-43.9364806304
  0
LINE
  5
2D8
100
AcDbEntity
  8
RACCORDO
100
AcDbLine
 62
253
  6
CONTINUOUS
 10
-43.5085097228
 20
-43.8431137796
 11
-43.511758285
 21
-43.9170810619
  0
LINE
  5
2D9
100
AcDbEntity
  8
RACCORDO
100
AcDbLine
 62
253
  6
CONTINUOUS
 10
-42.6880000822
 20
-23.1749806356
 11
-42.6936500563
 21
-23.3050775594
  0
LINE
  5
2DA
100
AcDbEntity
  8
RACCORDO
100
AcDbLine
 62
253
  6
CONTINUOUS
 10
-43.5163370719
 20
-44.0873172481
 11
-43.5250928993
 21
-44.2664163452
  0
LWPOLYLINE
  5
2DB
100
AcDbEntity
  8
0
100
AcDbPolyline
 62
7
  6
CONTINUOUS
 90
25
 70
0
 10
4.932788887
 20
-26.5099189977
 10
4.9926702597
 20
-26.5011965487
 10
5.0524912951
 20
-26.4929844107
 10
5.1122519903
 20
-26.4852825891
 10
5.1719122333
 20
-26.4780400581
 10
5.2315121303
 20
-26.4713078528
 10
5.2911720051
 20
-26.4652390709
 10
5.3509050021
 20
-26.4598271154
 10
5.4106979694
 20
-26.4550785927
 10
5.4706317843
 20
-26.4511664072
 10
5.5307158812
 20
-26.4480832658
 10
5.5909408161
 20
-26.445836469
 10
5.651359146
 20
-26.4446208114
 10
5.7120328984
 20
-26.4444332249
 10
5.7729000335
 20
-26.4452767796
 10
5.8338270047
 20
-26.447355476
 10
5.8948246276
 20
-26.4506012023
 10
5.9558820717
 20
-26.4550820622
 10
6.0168333176
 20
-26.4612063741
 10
6.0778067007
 20
-26.4688837408
 10
6.1386738652
 20
-26.4782045312
 10
6.1988837487
 20
-26.4898481975
 10
6.2582526526
 20
-26.5040411943
 10
6.3169642459
 20
-26.5205569881
 10
6.3750185144
 20
-26.5393955302
  0
LWPOLYLINE
  5
2DC
100
AcDbEntity
  8
RACCORDO
100
AcDbPolyline
 62
7
  6
CONTINUOUS
 90
13
 70
0
 10
45.9127700847
 20
-23.1749961293
 10
45.9754430226
 20
-23.1720307308
 10
46.0377212886
 20
-23.1655976555
 10
46.099409753
 20
-23.1557367247
 10
46.1603673131
 20
-23.1424822294
 10
46.2204609522
 20
-23.1258765586
 10
46.2795178744
 20
-23.1059861773
 10
46.3372051628
 20
-23.0829431237
 10
46.3933553059
 20
-23.0568443581
 10
46.4479621288
 20
-23.0277061377
 10
46.5009307353
 20
-22.9955720861
 10
46.5520767605
 20
-22.9605420389
 10
46.6012192602
 20
-22.9227334417
  0
LWPOLYLINE
  5
2DD
100
AcDbEntity
  8
RACCORDO
100
AcDbPolyline
 62
253
  6
CONTINUOUS
 90
25
 70
0
 10
45.9294100327
 20
-23.5926310809
 10
45.9732547705
 20
-23.5905725064
 10
46.0167236429
 20
-23.5873271813
 10
46.0598166537
 20
-23.5828951042
 10
46.1025399802
 20
-23.5772594032
 10
46.1448874519
 20
-23.5704369469
 10
46.1868405504
 20
-23.5624783456
 10
46.2284018751
 20
-23.5533859977
 10
46.2695688315
 20
-23.5431574992
 10
46.3103151107
 20
-23.5318362562
 10
46.350637554
 20
-23.5194280378
 10
46.3905393233
 20
-23.5059270676
 10
46.4300035905
 20
-23.4913594327
 10
46.4690377188
 20
-23.4757298609
 10
46.5076343468
 20
-23.4590336155
 10
46.5457545595
 20
-23.4412825858
 10
46.5834284219
 20
-23.4224612452
 10
46.6206258693
 20
-23.4025851097
 10
46.6572177919
 20
-23.3817126331
 10
46.693211369
 20
-23.359821032
 10
46.72859942
 20
-23.336933078
 10
46.7632312949
 20
-23.3131755587
 10
46.7970567762
 20
-23.2885907332
 10
46.8301260788
 20
-23.2631363312
 10
46.8624392011
 20
-23.2368123465
  0
LWPOLYLINE
  5
2DE
100
AcDbEntity
  8
0
100
AcDbPolyline
 62
7
  6
CONTINUOUS
 90
31
 70
0
 10
5.8294507279
 20
-27.7227397433
 10
5.8534855947
 20
-27.7219748624
 10
5.8774121632
 20
-27.7204591851
 10
5.9012304353
 20
-27.7181927096
 10
5.9249905149
 20
-27.7152361528
 10
5.9486423017
 20
-27.7115287925
 10
5.9720354925
 20
-27.706888466
 10
5.9951762423
 20
-27.701342621
 10
6.0180584001
 20
-27.6948637964
 10
6.0405132049
 20
-27.6871874609
 10
6.0626393776
 20
-27.6782892507
 10
6.0843382017
 20
-27.6681935009
 10
6.1051447594
 20
-27.6567087207
 10
6.1250218096
 20
-27.643738724
 10
6.1440065958
 20
-27.6293796472
 10
6.1617459258
 20
-27.6137284781
 10
6.1781202693
 20
-27.5966772966
 10
6.1932491547
 20
-27.5783339613
 10
6.2071379764
 20
-27.5591191379
 10
6.2197618235
 20
-27.5390515746
 10
6.2311456023
 20
-27.5181124758
 10
6.2413694315
 20
-27.4966662117
 10
6.2504332416
 20
-27.4747757036
 10
6.2583370966
 20
-27.4523780014
 10
6.2651613161
 20
-27.4296486849
 10
6.2709390621
 20
-27.4066004323
 10
6.2756371668
 20
-27.3832205455
 10
6.279236456
 20
-27.3596465494
 10
6.2817305361
 20
-27.3359242839
 10
6.2831257947
 20
-27.3120078987
 10
6.2834222287
 20
-27.287897388
  0
LINE
  5
2DF
100
AcDbEntity
  8
0
100
AcDbLine
 62
7
  6
CONTINUOUS
 10
6.9719182966
 20
-29.2769130111
 11
6.4097857066
 21
-29.2769130111
  0
LINE
  5
2E0
100
AcDbEntity
  8
0
100
AcDbLine
 62
7
  6
CONTINUOUS
 10
5.5148454296
 20
-29.2769130111
 11
4.932788887
 21
-29.2769130111
  0
LINE
  5
2E1
100
AcDbEntity
  8
0
100
AcDbLine
 62
7
  6
CONTINUOUS
 10
4.7611780847
 20
-29.2769126567
 11
4.1452360847
 21
-29.2769126567
  0
LINE
  5
2E2
100
AcDbEntity
  8
0
100
AcDbLine
 62
7
  6
CONTINUOUS
 10
3.0367170847
 20
-29.2769126567
 11
2.4586500847
 21
-29.2769126567
  0
LINE
  5
2E3
100
AcDbEntity
  8
0
100
AcDbLine
 62
7
  6
CONTINUOUS
 10
2.3668820847
 20
-29.2769126567
 11
1.7951760847
 21
-29.2769126567
  0
LINE
  5
2E4
100
AcDbEntity
  8
0
100
AcDbLine
 62
7
  6
CONTINUOUS
 10
0.9802460847
 20
-29.2769126567
 11
0.8982830847
 21
-29.2769126567
  0
LINE
  5
2E5
100
AcDbEntity
  8
0
100
AcDbLine
 62
7
  6
CONTINUOUS
 10
0.0865870847
 20
-29.2769126567
 11
-0.4725019153
 21
-29.2769126567
  0
LINE
  5
2E6
100
AcDbEntity
  8
0
100
AcDbLine
 62
7
  6
CONTINUOUS
 10
-0.7871069153
 20
-29.2769126567
 11
-1.3715149153
 21
-29.2769126567
  0
LINE
  5
2E7
100
AcDbEntity
  8
0
100
AcDbLine
 62
7
  6
CONTINUOUS
 10
-2.4883269153
 20
-29.2769126567
 11
-3.0033369153
 21
-29.2769126567
  0
LINE
  5
2E8
100
AcDbEntity
  8
0
100
AcDbLine
 62
7
  6
CONTINUOUS
 10
3.9938440847
 20
-28.7179926567
 11
3.1979770847
 21
-28.7179926567
  0
LINE
  5
2E9
100
AcDbEntity
  8
0
100
AcDbLine
 62
7
  6
CONTINUOUS
 10
3.8770500847
 20
-28.2855026567
 11
3.3175210847
 21
-28.2855026567
  0
LINE
  5
2EA
100
AcDbEntity
  8
0
100
AcDbLine
 62
7
  6
CONTINUOUS
 10
5.828191047
 20
-28.1812635815
 11
5.5148454296
 21
-28.1812635815
  0
LINE
  5
2EB
100
AcDbEntity
  8
0
100
AcDbLine
 62
7
  6
CONTINUOUS
 10
5.8294507279
 20
-27.7227397433
 11
5.4954673388
 21
-27.7227397433
  0
LINE
  5
2EC
100
AcDbEntity
  8
0
100
AcDbLine
 62
7
  6
CONTINUOUS
 10
3.9021600847
 20
-26.4772096567
 11
3.3368150847
 21
-26.4772096567
  0
LINE
  5
2ED
100
AcDbEntity
  8
0
100
AcDbLine
 62
7
  6
CONTINUOUS
 10
2.1050780847
 20
-26.4772096567
 11
1.5268640847
 21
-26.4772096567
  0
LINE
  5
2EE
100
AcDbEntity
  8
0
100
AcDbLine
 62
7
  6
CONTINUOUS
 10
0.3642200847
 20
-26.4772096567
 11
-0.2197049153
 21
-26.4772096567
  0
LINE
  5
2EF
100
AcDbEntity
  8
0
100
AcDbLine
 62
7
  6
CONTINUOUS
 10
-1.5883899153
 20
-26.4772096567
 11
-2.1723989153
 21
-26.4772096567
  0
LINE
  5
2F0
100
AcDbEntity
  8
0
100
AcDbLine
 62
7
  6
CONTINUOUS
 10
-3.2560499153
 20
-26.4772096567
 11
-3.8908979153
 21
-26.4772096567
  0
LINE
  5
2F1
100
AcDbEntity
  8
0
100
AcDbLine
 62
7
  6
CONTINUOUS
 10
-0.7871069153
 20
-26.4770416567
 11
-1.3715149153
 21
-26.4770416567
  0
LINE
  5
2F2
100
AcDbEntity
  8
0
100
AcDbLine
 62
253
  6
CONTINUOUS
 10
46.8607040105
 20
-24.7463746289
 11
-43.6351638411
 21
-24.7463746289
  0
LINE
  5
2F3
100
AcDbEntity
  8
RACCORDO
100
AcDbLine
 62
253
  6
CONTINUOUS
 10
46.8607040105
 20
-24.7463746289
 11
72.2244088772
 21
-24.746374629
  0
LINE
  5
2F4
100
AcDbEntity
  8
RACCORDO
100
AcDbLine
 62
253
  6
CONTINUOUS
 10
-43.6351638411
 20
-24.7463746289
 11
-68.9988687078
 21
-24.746374629
  0
LWPOLYLINE
  5
2F5
100
AcDbEntity
  8
RACCORDO
100
AcDbPolyline
 62
253
  6
CONTINUOUS
 90
16
 70
0
 10
-41.7382088605
 20
-23.1885311393
 10
-35.9629400661
 20
-23.3566212601
 10
-30.1860486677
 20
-23.5007011133
 10
-24.4075346655
 20
-23.6207706987
 10
-18.6270336217
 20
-23.7168320408
 10
-12.8449099739
 20
-23.7888831151
 10
-7.0622570352
 20
-23.8369178484
 10
-1.2790865338
 20
-23.8609342192
 10
4.5046132585
 20
-23.860934249
 10
10.2877842131
 20
-23.8369179294
 10
16.0704380348
 20
-23.7888832395
 10
21.8525630188
 20
-23.7168322002
 10
27.6330659218
 20
-23.6207708652
 10
33.4115823296
 20
-23.5007012523
 10
39.1884766565
 20
-23.3566213436
 10
44.9637489024
 20
-23.1885311393
  0
LWPOLYLINE
  5
2F6
100
AcDbEntity
  8
RACCORDO
100
AcDbPolyline
 62
253
  6
CONTINUOUS
 90
16
 70
0
 10
-42.7038698633
 20
-23.5926310809
 10
-36.8001548484
 20
-23.7684164774
 10
-30.8946463048
 20
-23.9190906257
 10
-24.9873930321
 20
-24.0446545801
 10
-19.0781146958
 20
-24.1451117589
 10
-13.1671885349
 20
-24.2204603466
 10
-7.2556495106
 20
-24.27069329
 10
-1.3435466056
 20
-24.2958084228
 10
4.5690728053
 20
-24.2958084546
 10
10.4811761852
 20
-24.270693376
 10
16.3927161341
 20
-24.2204604786
 10
22.3036436943
 20
-24.1451119279
 10
28.2129239799
 20
-24.0446547564
 10
34.1201797768
 20
-23.9190907728
 10
40.0256913943
 20
-23.7684165657
 10
45.9294100327
 20
-23.5926310809
  0
LWPOLYLINE
  5
2F7
100
AcDbEntity
  8
0
100
AcDbPolyline
 62
7
  6
CONTINUOUS
 90
10
 70
0
 10
5.9532835147
 20
-26.9376839056
 10
5.9044172212
 20
-26.9327576233
 10
5.8549926234
 20
-26.9295086343
 10
5.8050097299
 20
-26.927936946
 10
5.7543915608
 20
-26.928026399
 10
5.7032151132
 20
-26.929793156
 10
5.6517113616
 20
-26.9332857011
 10
5.5999573037
 20
-26.9385201889
 10
5.5478759597
 20
-26.9454804448
 10
5.4954673388
 20
-26.9541664527
  0
LINE
  5
2F8
100
AcDbEntity
  8
RACCORDO
100
AcDbLine
 62
253
  6
CONTINUOUS
 10
-43.3756692366
 20
-22.9227213699
 11
-43.5455056642
 21
-23.1274289292
  0
LINE
  5
2F9
100
AcDbEntity
  8
RACCORDO
100
AcDbLine
 62
253
  6
CONTINUOUS
 10
-43.5455056642
 20
-23.1274289292
 11
-43.6368989746
 21
-23.2368122385
  0
LWPOLYLINE
  5
2FA
100
AcDbEntity
  8
RACCORDO
100
AcDbPolyline
 62
253
  6
CONTINUOUS
 90
16
 70
0
 10
-68.3934293481
 20
-29.4473794256
 10
-68.4205313743
 20
-29.4516590007
 10
-68.4471857983
 20
-29.4556938074
 10
-68.4731650543
 20
-29.459449398
 10
-68.4982473411
 20
-29.4628937088
 10
-68.5222185154
 20
-29.4659973336
 10
-68.5448739202
 20
-29.468733775
 10
-68.5660201321
 20
-29.4710796702
 10
-68.5854766125
 20
-29.4730149911
 10
-68.6030772492
 20
-29.4745232147
 10
-68.6186717744
 20
-29.4755914643
 10
-68.6321270478
 20
-29.4762106198
 10
-68.6433281934
 20
-29.4763753952
 10
-68.6521795798
 20
-29.4760843838
 10
-68.6586056373
 20
-29.4753400701
 10
-68.6625515024
 20
-29.474148809
  0
LINE
  5
2FB
100
AcDbEntity
  8
RACCORDO
100
AcDbLine
 62
253
  6
CONTINUOUS
 10
-69.3705051961
 20
-25.5039036413
 11
-69.1982544617
 21
-25.4857888529
  0
LINE
  5
2FC
100
AcDbEntity
  8
RACCORDO
100
AcDbLine
 62
253
  6
CONTINUOUS
 10
-69.2840633185
 20
-24.6222981094
 11
-69.4563770787
 21
-24.6390932156
  0
LWPOLYLINE
  5
2FD
100
AcDbEntity
  8
RACCORDO
100
AcDbPolyline
 62
253
  6
CONTINUOUS
 90
15
 70
0
 10
-68.9267783572
 20
-25.4706801055
 10
-68.9812315471
 20
-25.4757268569
 10
-69.0075383794
 20
-25.4779871447
 10
-69.032927976
 20
-25.4800455623
 10
-69.0571816782
 20
-25.4818843824
 10
-69.0800906094
 20
-25.4834877688
 10
-69.1014574746
 20
-25.4848419128
 10
-69.1210982593
 20
-25.4859351525
 10
-69.1388438141
 20
-25.4867580726
 10
-69.1545413116
 20
-25.487303586
 10
-69.1680555628
 20
-25.4875669947
 10
-69.179270181
 20
-25.4875460302
 10
-69.1880885842
 20
-25.4872408731
 10
-69.194434827
 20
-25.4866541513
 10
-69.1982542547
 20
-25.4857909179
  0
LINE
  5
2FE
100
AcDbEntity
  8
RACCORDO
100
AcDbLine
 62
253
  6
CONTINUOUS
 10
-68.9988687078
 20
-24.7463746289
 11
-69.0533532757
 21
-24.7513135103
  0
LINE
  5
2FF
100
AcDbEntity
  8
RACCORDO
100
AcDbLine
 62
253
  6
CONTINUOUS
 10
-69.0125322696
 20
-24.6067829063
 11
-69.0670206518
 21
-24.611690194
  0
LWPOLYLINE
  5
300
100
AcDbEntity
  8
RACCORDO
100
AcDbPolyline
 62
253
  6
CONTINUOUS
 90
13
 70
0
 10
-69.0533532757
 20
-24.7513135103
 10
-69.1050762609
 20
-24.7555793123
 10
-69.1293407762
 20
-24.7574129069
 10
-69.1522585655
 20
-24.7590253054
 10
-69.1736321293
 20
-24.7604026125
 10
-69.1932772761
 20
-24.761532959
 10
-69.2110247092
 20
-24.7624066039
 10
-69.226721486
 20
-24.7630160184
 10
-69.240232336
 20
-24.7633559505
 10
-69.2514408263
 20
-24.763423471
 10
-69.260250365
 20
-24.763217998
 10
-69.2665850341
 20
-24.7627413021
 10
-69.270390243
 20
-24.7619974913
  0
LWPOLYLINE
  5
301
100
AcDbEntity
  8
RACCORDO
100
AcDbPolyline
 62
253
  6
CONTINUOUS
 90
13
 70
0
 10
-69.0670206518
 20
-24.611690194
 10
-69.1187468997
 20
-24.615928351
 10
-69.1430127875
 20
-24.6177499061
 10
-69.165931752
 20
-24.6193515948
 10
-69.1873062781
 20
-24.6207196139
 10
-69.2069521605
 20
-24.6218421738
 10
-69.2247000914
 20
-24.6227096003
 10
-69.2403971196
 20
-24.6233144179
 10
-69.2539079683
 20
-24.6236514144
 10
-69.2651162012
 20
-24.6237176854
 10
-69.2739252261
 20
-24.6235126599
 10
-69.280259127
 20
-24.6230381048
 10
-69.2840633184
 20
-24.6222981098
  0
LINE
  5
302
100
AcDbEntity
  8
RACCORDO
100
AcDbLine
 62
253
  6
CONTINUOUS
 10
-43.7892781907
 20
-22.0752711354
 11
-43.8703560048
 21
-22.0784266222
  0
LINE
  5
303
100
AcDbEntity
  8
RACCORDO
100
AcDbLine
 62
253
  6
CONTINUOUS
 10
-43.8703560048
 20
-22.0784266222
 11
-43.956619174
 21
-22.0811838456
  0
LINE
  5
304
100
AcDbEntity
  8
RACCORDO
100
AcDbLine
 62
253
  6
CONTINUOUS
 10
-43.956619174
 20
-22.0811838456
 11
-44.0465589514
 21
-22.0834945945
  0
LWPOLYLINE
  5
305
100
AcDbEntity
  8
RACCORDO
100
AcDbPolyline
 62
253
  6
CONTINUOUS
 90
10
 70
0
 10
-43.7120936586
 20
-22.074639928
 10
-43.6901245412
 20
-22.0742003326
 10
-43.670233319
 20
-22.0737003314
 10
-43.6525211726
 20
-22.0731467078
 10
-43.6370792727
 20
-22.0725465544
 10
-43.6239859668
 20
-22.0719072493
 10
-43.613306962
 20
-22.071236341
 10
-43.6050975693
 20
-22.0705415336
 10
-43.5994013313
 20
-22.0698306638
 10
-43.5962483939
 20
-22.0691116567
  0
LWPOLYLINE
  5
306
100
AcDbEntity
  8
RACCORDO
100
AcDbPolyline
 62
253
  6
CONTINUOUS
 90
3
 70
0
 10
-44.0465589514
 20
-22.0834945945
 10
-44.1386063425
 20
-22.0853176873
 10
-44.1849175742
 20
-22.0860360968
  0
LINE
  5
307
100
AcDbEntity
  8
RACCORDO
100
AcDbLine
 62
7
  6
CONTINUOUS
 10
44.9638777729
 20
-23.1885311393
 11
45.9127700847
 21
-23.174991612
  0
LWPOLYLINE
  5
308
100
AcDbEntity
  8
RACCORDO
100
AcDbPolyline
 62
253
  6
CONTINUOUS
 90
3
 70
0
 10
-43.7892962158
 20
-22.0755327071
 10
-43.7618067368
 20
-22.0753121328
 10
-43.7120936586
 20
-22.074639928
  0
LINE
  5
309
100
AcDbEntity
  8
0
100
AcDbLine
 62
7
  6
CONTINUOUS
 10
31.1475126278
 20
-22.9031745456
 11
45.9127700847
 21
-22.8878499741
  0
LINE
  5
30A
100
AcDbEntity
  8
0
100
AcDbLine
 62
7
  6
CONTINUOUS
 10
16.380728527
 20
-22.9123694585
 11
31.1475126278
 21
-22.9031745456
  0
LINE
  5
30B
100
AcDbEntity
  8
RACCORDO
100
AcDbLine
 62
253
  6
CONTINUOUS
 10
44.9637489024
 20
-23.1885311393
 11
-41.7382088605
 21
-23.1885311393
  0
LINE
  5
30C
100
AcDbEntity
  8
RACCORDO
100
AcDbLine
 62
253
  6
CONTINUOUS
 10
45.9127665942
 20
-22.9760045901
 11
-42.687228718
 21
-22.9760045901
  0
LINE
  5
30D
100
AcDbEntity
  8
0
100
AcDbLine
 62
7
  6
CONTINUOUS
 10
1.6127700847
 20
-22.9154346021
 11
16.380728527
 21
-22.9123694585
  0
LINE
  5
30E
100
AcDbEntity
  8
RACCORDO
100
AcDbLine
 62
253
  6
CONTINUOUS
 10
-43.5068440434
 20
-22.0691116567
 11
-43.5962483738
 21
-22.069121681
  0
LINE
  5
30F
100
AcDbEntity
  8
RACCORDO
100
AcDbLine
 62
253
  6
CONTINUOUS
 10
46.7323842128
 20
-22.0691116567
 11
46.8217885535
 21
-22.0691164099
  0
LINE
  5
310
100
AcDbEntity
  8
0
100
AcDbLine
 62
7
  6
CONTINUOUS
 10
-13.1551883576
 20
-22.9123694585
 11
1.6127700847
 21
-22.9154346021
  0
LINE
  5
311
100
AcDbEntity
  8
0
100
AcDbLine
 62
7
  6
CONTINUOUS
 10
-27.9219724584
 20
-22.9031745456
 11
-13.1551883576
 21
-22.9123694585
  0
LINE
  5
312
100
AcDbEntity
  8
0
100
AcDbLine
 62
7
  6
CONTINUOUS
 10
-42.6872299153
 20
-22.8878499741
 11
-27.9219724584
 21
-22.9031745456
  0
LINE
  5
313
100
AcDbEntity
  8
RACCORDO
100
AcDbLine
 62
253
  6
CONTINUOUS
 10
47.3179968397
 20
-22.0802850541
 11
47.4105048002
 21
-22.0806581104
  0
LINE
  5
314
100
AcDbEntity
  8
RACCORDO
100
AcDbLine
 62
253
  6
CONTINUOUS
 10
47.2267934077
 20
-22.0793867347
 11
47.3179968397
 21
-22.0802850541
  0
LINE
  5
315
100
AcDbEntity
  8
RACCORDO
100
AcDbLine
 62
253
  6
CONTINUOUS
 10
47.0148164016
 20
-22.0755256921
 11
46.961553588
 21
-22.0749918442
  0
LWPOLYLINE
  5
316
100
AcDbEntity
  8
RACCORDO
100
AcDbPolyline
 62
253
  6
CONTINUOUS
 90
52
 70
0
 10
-42.687228718
 20
-22.97600459
 10
-42.7094386642
 20
-22.9757332722
 10
-42.7313024619
 20
-22.9749354991
 10
-42.7528083435
 20
-22.9736358319
 10
-42.7738005845
 20
-22.9718725783
 10
-42.7944154614
 20
-22.969662777
 10
-42.8150776546
 20
-22.9669689094
 10
-42.8358137987
 20
-22.9637788554
 10
-42.8565731502
 20
-22.9600918145
 10
-42.8776567781
 20
-22.955835653
 10
-42.8991485652
 20
-22.9509588492
 10
-42.9209264146
 20
-22.9454534495
 10
-42.9429761429
 20
-22.9392901213
 10
-42.9653642817
 20
-22.932412548
 10
-42.9879755504
 20
-22.9248174324
 10
-43.0105272558
 20
-22.9165753053
 10
-43.0329882926
 20
-22.9076845896
 10
-43.0553495039
 20
-22.8981359862
 10
-43.0773747756
 20
-22.888027371
 10
-43.0989918149
 20
-22.8774021937
 10
-43.1202492169
 20
-22.8662464457
 10
-43.1411018582
 20
-22.8545924725
 10
-43.1614786485
 20
-22.8424939343
 10
-43.1814336795
 20
-22.8299328813
 10
-43.2011045561
 20
-22.8168253655
 10
-43.2204294109
 20
-22.8032097546
 10
-43.2394403192
 20
-22.7890606305
 10
-43.2583922114
 20
-22.7741654319
 10
-43.2772356536
 20
-22.758522813
 10
-43.2959528896
 20
-22.7421059938
 10
-43.314805633
 20
-22.7246183364
 10
-43.3337569056
 20
-22.7059971546
 10
-43.3527135619
 20
-22.6862311995
 10
-43.3718048613
 20
-22.6650588722
 10
-43.3909671207
 20
-22.6423892252
 10
-43.4100600255
 20
-22.6182139622
 10
-43.4290561196
 20
-22.5923718939
 10
-43.4478569232
 20
-22.5647647746
 10
-43.4662848773
 20
-22.5353992186
 10
-43.4841728517
 20
-22.5042732296
 10
-43.5014661377
 20
-22.4711624801
 10
-43.5178857653
 20
-22.4362435868
 10
-43.5330010495
 20
-22.4001704509
 10
-43.5467950383
 20
-22.3627705959
 10
-43.5590849242
 20
-22.3242976531
 10
-43.5694469283
 20
-22.2861487906
 10
-43.5778565633
 20
-22.2489787292
 10
-43.5845640265
 20
-22.2123357664
 10
-43.5896989469
 20
-22.1759933836
 10
-43.5933271006
 20
-22.1399174209
 10
-43.5954916816
 20
-22.1042738376
 10
-43.5962540098
 20
-22.0691216816
  0
LINE
  5
317
100
AcDbEntity
  8
RACCORDO
100
AcDbLine
 62
7
  6
CONTINUOUS
 10
-42.6872299155
 20
-23.174991612
 11
-41.7383376068
 21
-23.1885311393
  0
LINE
  5
318
100
AcDbEntity
  8
RACCORDO
100
AcDbLine
 62
253
  6
CONTINUOUS
 10
47.138490615
 20
-22.0779787026
 11
47.2267934077
 21
-22.0793867347
  0
LWPOLYLINE
  5
319
100
AcDbEntity
  8
RACCORDO
100
AcDbPolyline
 62
253
  6
CONTINUOUS
 90
10
 70
0
 10
46.961553588
 20
-22.0749918442
 10
46.9156467143
 20
-22.0741770373
 10
46.8957525615
 20
-22.0736783652
 10
46.8780390257
 20
-22.0731273077
 10
46.8625962356
 20
-22.0725306117
 10
46.8495039002
 20
-22.0718951481
 10
46.8388306177
 20
-22.0712280325
 10
46.8306300451
 20
-22.0705366642
 10
46.824942025
 20
-22.0698286486
 10
46.8217941888
 20
-22.0691116567
  0
LWPOLYLINE
  5
31A
100
AcDbEntity
  8
RACCORDO
100
AcDbPolyline
 62
253
  6
CONTINUOUS
 90
3
 70
0
 10
47.0148375445
 20
-22.0749660326
 10
47.0546354341
 20
-22.0760849603
 10
47.138490615
 20
-22.0779787026
  0
LWPOLYLINE
  5
31B
100
AcDbEntity
  8
RACCORDO
100
AcDbPolyline
 62
253
  6
CONTINUOUS
 90
12
 70
0
 10
72.3442897737
 20
-24.6159005839
 10
72.3685556607
 20
-24.6177221367
 10
72.3914746244
 20
-24.6193238234
 10
72.4128491498
 20
-24.6206918407
 10
72.4324950315
 20
-24.6218143991
 10
72.4502429618
 20
-24.6226818244
 10
72.4659399893
 20
-24.6232866412
 10
72.4794508375
 20
-24.6236236371
 10
72.4906590701
 20
-24.623689908
 10
72.4994680947
 20
-24.6234848827
 10
72.5058019955
 20
-24.623010328
 10
72.5096061868
 20
-24.6222703338
  0
LWPOLYLINE
  5
31C
100
AcDbEntity
  8
RACCORDO
100
AcDbPolyline
 62
253
  6
CONTINUOUS
 90
12
 70
0
 10
72.3306164303
 20
-24.7555793123
 10
72.3548809457
 20
-24.7574129069
 10
72.3777987349
 20
-24.7590253054
 10
72.3991722988
 20
-24.7604026125
 10
72.4188174455
 20
-24.761532959
 10
72.4365648786
 20
-24.7624066039
 10
72.4522616554
 20
-24.7630160184
 10
72.4657725054
 20
-24.7633559505
 10
72.4769809957
 20
-24.763423471
 10
72.4857905345
 20
-24.763217998
 10
72.4921252035
 20
-24.7627413021
 10
72.4959304124
 20
-24.7619974913
  0
LINE
  5
31D
100
AcDbEntity
  8
RACCORDO
100
AcDbLine
 62
253
  6
CONTINUOUS
 10
72.2925635274
 20
-24.6116624322
 11
72.3442897737
 21
-24.6159005839
  0
LINE
  5
31E
100
AcDbEntity
  8
RACCORDO
100
AcDbLine
 62
253
  6
CONTINUOUS
 10
72.2788934451
 20
-24.7513135103
 11
72.3306164303
 21
-24.7555793123
  0
LWPOLYLINE
  5
31F
100
AcDbEntity
  8
RACCORDO
100
AcDbPolyline
 62
253
  6
CONTINUOUS
 90
14
 70
0
 10
72.2067717164
 20
-25.475726857
 10
72.2330785485
 20
-25.4779871448
 10
72.2584681451
 20
-25.4800455625
 10
72.2827218471
 20
-25.4818843826
 10
72.3056307782
 20
-25.483487769
 10
72.3269976433
 20
-25.484841913
 10
72.3466384278
 20
-25.4859351526
 10
72.3643839824
 20
-25.4867580727
 10
72.3800814798
 20
-25.4873035861
 10
72.3935957309
 20
-25.4875669948
 10
72.4048103489
 20
-25.4875460302
 10
72.413628752
 20
-25.487240873
 10
72.4199749947
 20
-25.4866541512
 10
72.4237944223
 20
-25.4857909177
  0
LINE
  5
320
100
AcDbEntity
  8
RACCORDO
100
AcDbLine
 62
253
  6
CONTINUOUS
 10
72.2380751466
 20
-24.6067551507
 11
72.2925635274
 21
-24.6116624322
  0
LINE
  5
321
100
AcDbEntity
  8
RACCORDO
100
AcDbLine
 62
253
  6
CONTINUOUS
 10
72.2244088772
 20
-24.7463746289
 11
72.2788934451
 21
-24.7513135103
  0
LINE
  5
322
100
AcDbEntity
  8
RACCORDO
100
AcDbLine
 62
253
  6
CONTINUOUS
 10
72.1523185267
 20
-25.4706801055
 11
72.2067717164
 21
-25.475726857
  0
LINE
  5
323
100
AcDbEntity
  8
RACCORDO
100
AcDbLine
 62
253
  6
CONTINUOUS
 10
72.5960453655
 20
-25.5039036413
 11
72.4237946993
 21
-25.4857881787
  0
LWPOLYLINE
  5
324
100
AcDbEntity
  8
RACCORDO
100
AcDbPolyline
 62
253
  6
CONTINUOUS
 90
16
 70
0
 10
71.61896952
 20
-29.447379428
 10
71.6460715601
 20
-29.4516590117
 10
71.672725999
 20
-29.4556938268
 10
71.6987052708
 20
-29.4594494254
 10
71.7237875741
 20
-29.4628937436
 10
71.747758765
 20
-29.4659973751
 10
71.7704141864
 20
-29.4687338222
 10
71.7915604144
 20
-29.4710797222
 10
71.8110169102
 20
-29.4730150465
 10
71.8286175613
 20
-29.474523272
 10
71.8442120998
 20
-29.4755915222
 10
71.8576673851
 20
-29.4762106766
 10
71.8688685409
 20
-29.4763754491
 10
71.8777199358
 20
-29.476084433
 10
71.8841459998
 20
-29.4753401129
 10
71.8880918695
 20
-29.4741488434
  0
LWPOLYLINE
  5
325
100
AcDbEntity
  8
0
100
AcDbPolyline
 62
7
  6
CONTINUOUS
 90
51
 70
0
 10
6.3750185144
 20
-26.5393955302
 10
6.4058654481
 20
-26.5518761976
 10
6.4368772189
 20
-26.5669079579
 10
6.4680538166
 20
-26.584490762
 10
6.4995188303
 20
-26.6045307433
 10
6.5311486491
 20
-26.6271216464
 10
6.5625724613
 20
-26.6525448184
 10
6.5940136553
 20
-26.6808312808
 10
6.6252488168
 20
-26.7119498131
 10
6.6552369319
 20
-26.7460883678
 10
6.6841017294
 20
-26.7837037081
 10
6.7117194571
 20
-26.8243387695
 10
6.7366778939
 20
-26.866810798
 10
6.7586733422
 20
-26.9114578394
 10
6.7780095047
 20
-26.9579416157
 10
6.7941852871
 20
-27.0040650768
 10
6.8067508515
 20
-27.0494462419
 10
6.8161560711
 20
-27.0944671425
 10
6.8232494298
 20
-27.1380769456
 10
6.8280696477
 20
-27.1799206293
 10
6.8305780349
 20
-27.2203533858
 10
6.8315069556
 20
-27.2593897629
 10
6.8309773336
 20
-27.2970210891
 10
6.8288682641
 20
-27.3332561783
 10
6.8255493623
 20
-27.3681358006
 10
6.8210396387
 20
-27.4016549346
 10
6.8153200961
 20
-27.4338187273
 10
6.8087033347
 20
-27.4646831931
 10
6.8012012179
 20
-27.494236285
 10
6.7928018909
 20
-27.5224901583
 10
6.7837823737
 20
-27.5495371221
 10
6.7741592515
 20
-27.5753775365
 10
6.7639159441
 20
-27.6000111302
 10
6.7532797214
 20
-27.6235292555
 10
6.7422799538
 20
-27.6459213004
 10
6.7308872733
 20
-27.6671979492
 10
6.7192408411
 20
-27.6874824896
 10
6.7073471078
 20
-27.7067904085
 10
6.6951996237
 20
-27.7251062744
 10
6.6829181976
 20
-27.7425069896
 10
6.6705021433
 20
-27.7589724752
 10
6.6579521469
 20
-27.7745228548
 10
6.6453900757
 20
-27.789295328
 10
6.6328120135
 20
-27.8032801281
 10
6.6202218756
 20
-27.8164870543
 10
6.6077532771
 20
-27.8290826473
 10
6.5954167244
 20
-27.841081294
 10
6.5832017098
 20
-27.8524686291
 10
6.5712103276
 20
-27.8633680589
 10
6.5594711832
 20
-27.8737851679
 10
6.5479556699
 20
-27.8837143867
  0
LWPOLYLINE
  5
326
100
AcDbEntity
  8
0
100
AcDbPolyline
 62
7
  6
CONTINUOUS
 90
3
 70
0
 10
6.4352732496
 20
-27.9700360936
 10
6.4600135728
 20
-27.981565758
 10
6.4833804382
 20
-27.9944411296
  0
LWPOLYLINE
  5
327
100
AcDbEntity
  8
0
100
AcDbPolyline
 62
7
  6
CONTINUOUS
 90
24
 70
0
 10
6.4833804382
 20
-27.9944411296
 10
6.5053738434
 20
-28.0086621825
 10
6.5259755169
 20
-28.0244821187
 10
6.5452037257
 20
-28.041647672
 10
6.5631132775
 20
-28.0593991296
 10
6.5796133919
 20
-28.0776014239
 10
6.5947948518
 20
-28.0963895929
 10
6.6089848132
 20
-28.1154091109
 10
6.6221997814
 20
-28.134579789
 10
6.6344232543
 20
-28.1539818037
 10
6.6459328767
 20
-28.173501191
 10
6.6567748446
 20
-28.1931479907
 10
6.6669029645
 20
-28.2129121551
 10
6.6764562967
 20
-28.2326495966
 10
6.6854444356
 20
-28.2523416987
 10
6.6938577896
 20
-28.2720070791
 10
6.7018066403
 20
-28.2915575077
 10
6.7092925729
 20
-28.310963484
 10
6.7163140048
 20
-28.3302545151
 10
6.722976465
 20
-28.349430885
 10
6.7292702068
 20
-28.3684712914
 10
6.7352049789
 20
-28.387397043
 10
6.740915554
 20
-28.4062723383
 10
6.7463946786
 20
-28.4250956532
  0
LINE
  5
328
100
AcDbEntity
  8
RACCORDO
100
AcDbLine
 62
253
  6
CONTINUOUS
 10
-43.4572114414
 20
22.2830449335
 11
-43.6368990347
 21
22.4985890388
  0
LINE
  5
329
100
AcDbEntity
  8
RACCORDO
100
AcDbLine
 62
253
  6
CONTINUOUS
 10
-43.3756803571
 20
22.1845116662
 11
-43.4572114414
 21
22.2830449335
  0
LINE
  5
32A
100
AcDbEntity
  8
RACCORDO
100
AcDbLine
 62
253
  6
CONTINUOUS
 10
-68.8337540473
 20
-29.5039036413
 11
-68.6625646537
 21
-29.4740716367
  0
LINE
  5
32B
100
AcDbEntity
  8
RACCORDO
100
AcDbLine
 62
253
  6
CONTINUOUS
 10
72.5096061976
 20
-24.6222703344
 11
72.6819172481
 21
-24.6390932156
  0
LINE
  5
32C
100
AcDbEntity
  8
RACCORDO
100
AcDbLine
 62
253
  6
CONTINUOUS
 10
72.0592942167
 20
-29.5039036413
 11
71.8881052214
 21
-29.4740692627
  0
LINE
  5
32D
100
AcDbEntity
  8
0
100
AcDbLine
 62
7
  6
CONTINUOUS
 10
-3.0033369153
 20
-29.2769126567
 11
-3.8908979153
 21
-26.4772096567
  0
LINE
  5
32E
100
AcDbEntity
  8
0
100
AcDbLine
 62
7
  6
CONTINUOUS
 10
0.8982830847
 20
-29.2769126567
 11
0.2127020847
 21
-27.4487586567
  0
LINE
  5
32F
100
AcDbEntity
  8
0
100
AcDbLine
 62
7
  6
CONTINUOUS
 10
0.3642200847
 20
-26.4772096567
 11
0.9424560847
 21
-28.0316136567
  0
LINE
  5
330
100
AcDbEntity
  8
0
100
AcDbLine
 62
7
  6
CONTINUOUS
 10
-3.2560499153
 20
-26.4772096567
 11
-2.7223759153
 21
-28.4043316567
  0
LINE
  5
331
100
AcDbEntity
  8
0
100
AcDbLine
 62
7
  6
CONTINUOUS
 10
2.1050780847
 20
-26.4772096567
 11
2.3668820847
 21
-29.2769126567
  0
LINE
  5
332
100
AcDbEntity
  8
0
100
AcDbLine
 62
7
  6
CONTINUOUS
 10
1.7951760847
 20
-29.2769126567
 11
1.6751070847
 21
-27.4563806567
  0
LINE
  5
333
100
AcDbEntity
  8
0
100
AcDbLine
 62
7
  6
CONTINUOUS
 10
-1.3715149153
 20
-29.2769126567
 11
-1.3715149153
 21
-26.4770416567
  0
LINE
  5
334
100
AcDbEntity
  8
0
100
AcDbLine
 62
7
  6
CONTINUOUS
 10
-0.7871069153
 20
-26.4770416567
 11
-0.7871069153
 21
-29.2769126567
  0
LINE
  5
335
100
AcDbEntity
  8
RACCORDO
100
AcDbLine
 62
253
  6
CONTINUOUS
 10
-43.6209435528
 20
-0.3691116567
 11
-44.2096615488
 21
-0.3691116567
  0
LINE
  5
336
100
AcDbEntity
  8
RACCORDO
100
AcDbLine
 62
253
  6
CONTINUOUS
 10
46.8464837222
 20
-0.3691116567
 11
47.4352017182
 21
-0.3691116567
  0
LWPOLYLINE
  5
337
100
AcDbEntity
  8
0
100
AcDbPolyline
 62
7
  6
CONTINUOUS
 90
19
 70
0
 10
6.1541721437
 20
-28.4277746014
 10
6.1449128398
 20
-28.4050350469
 10
6.1345185405
 20
-28.3829923527
 10
6.1229892443
 20
-28.3616465429
 10
6.1103128067
 20
-28.3409055149
 10
6.09650137
 20
-28.3208614153
 10
6.0815913638
 20
-28.30179065
 10
6.065596392
 20
-28.2836578978
 10
6.0485028513
 20
-28.2664985353
 10
6.0303063631
 20
-28.2506950309
 10
6.0109184554
 20
-28.2362399427
 10
5.9904276041
 20
-28.2231407754
 10
5.9690948552
 20
-28.2118024316
 10
5.946849813
 20
-28.2023709086
 10
5.9237628822
 20
-28.1947002662
 10
5.9003063108
 20
-28.1887575014
 10
5.8766375185
 20
-28.1845316218
 10
5.8525990955
 20
-28.1820336463
 10
5.828191047
 20
-28.1812635815
  0
LINE
  5
338
100
AcDbEntity
  8
0
100
AcDbLine
 62
7
  6
CONTINUOUS
 10
3.9021600847
 20
-26.4772096567
 11
4.7611780847
 21
-29.2769126567
  0
LWPOLYLINE
  5
339
100
AcDbEntity
  8
0
100
AcDbPolyline
 62
7
  6
CONTINUOUS
 90
8
 70
0
 10
6.2435549072
 20
-28.7019459468
 10
6.2318840222
 20
-28.6624388867
 10
6.219960212
 20
-28.6230523342
 10
6.2077831961
 20
-28.583790225
 10
6.1951374368
 20
-28.5446333135
 10
6.1819510866
 20
-28.5055751902
 10
6.1682959894
 20
-28.4666222831
 10
6.1541721437
 20
-28.4277746014
  0
LINE
  5
33A
100
AcDbEntity
  8
0
100
AcDbLine
 62
7
  6
CONTINUOUS
 10
6.4097857066
 20
-29.2769130111
 11
6.3121230317
 21
-28.9421608605
  0
LWPOLYLINE
  5
33B
100
AcDbEntity
  8
0
100
AcDbPolyline
 62
7
  6
CONTINUOUS
 90
4
 70
0
 10
6.3121230317
 20
-28.9421608605
 10
6.2890200021
 20
-28.861396907
 10
6.2777051357
 20
-28.821302922
 10
6.2435549072
 20
-28.7019459468
  0
LINE
  5
33C
100
AcDbEntity
  8
0
100
AcDbLine
 62
7
  6
CONTINUOUS
 10
6.7463946786
 20
-28.4250956532
 11
6.7568368735
 21
-28.4626596919
  0
LINE
  5
33D
100
AcDbEntity
  8
0
100
AcDbLine
 62
7
  6
CONTINUOUS
 10
4.1452360847
 20
-29.2769126567
 11
3.9938440847
 21
-28.7179926567
  0
LINE
  5
33E
100
AcDbEntity
  8
0
100
AcDbLine
 62
7
  6
CONTINUOUS
 10
6.7568368735
 20
-28.4626596919
 11
6.7671127736
 21
-28.5003428397
  0
LINE
  5
33F
100
AcDbEntity
  8
0
100
AcDbLine
 62
7
  6
CONTINUOUS
 10
6.7671127736
 20
-28.5003428397
 11
6.8416578241
 21
-28.7798064748
  0
LINE
  5
340
100
AcDbEntity
  8
0
100
AcDbLine
 62
7
  6
CONTINUOUS
 10
6.8416578241
 20
-28.7798064748
 11
6.9719182966
 21
-29.2769130111
  0
LINE
  5
341
100
AcDbEntity
  8
0
100
AcDbLine
 62
7
  6
CONTINUOUS
 10
3.8770500847
 20
-28.2855026567
 11
3.6085070847
 21
-27.2464966567
  0
LWPOLYLINE
  5
342
100
AcDbEntity
  8
0
100
AcDbPolyline
 62
7
  6
CONTINUOUS
 90
19
 70
0
 10
6.2834222287
 20
-27.287897388
 10
6.2820601126
 20
-27.2613343427
 10
6.278535604
 20
-27.2347735568
 10
6.2728486967
 20
-27.2082150315
 10
6.2650471443
 20
-27.1814331433
 10
6.2550831807
 20
-27.1546535121
 10
6.2428135219
 20
-27.1285530279
 10
6.2281302437
 20
-27.1030208053
 10
6.211141261
 20
-27.0781677763
 10
6.1920270529
 20
-27.0550036145
 10
6.1705805816
 20
-27.0337164481
 10
6.1470088861
 20
-27.0141182549
 10
6.1221135679
 20
-26.9966545222
 10
6.0959124099
 20
-26.9814702702
 10
6.0683876397
 20
-26.9684205745
 10
6.0402875315
 20
-26.9575160084
 10
6.0118615149
 20
-26.9487601152
 10
5.9828601737
 20
-26.942149408
 10
5.9532835147
 20
-26.9376839056
  0
LINE
  5
343
100
AcDbEntity
  8
0
100
AcDbLine
 62
7
  6
CONTINUOUS
 10
4.932788887
 20
-29.2769130111
 11
4.932788887
 21
-26.5099189977
  0
LINE
  5
344
100
AcDbEntity
  8
0
100
AcDbLine
 62
7
  6
CONTINUOUS
 10
5.4954673388
 20
-26.9541664527
 11
5.4954673388
 21
-27.7227397433
  0
LINE
  5
345
100
AcDbEntity
  8
0
100
AcDbLine
 62
7
  6
CONTINUOUS
 10
5.5148454296
 20
-28.1812635815
 11
5.5148454296
 21
-29.2769130111
  0
LINE
  5
346
100
AcDbEntity
  8
0
100
AcDbLine
 62
7
  6
CONTINUOUS
 10
6.4352732496
 20
-27.9534922848
 11
6.4352732496
 21
-27.9700360936
  0
LINE
  5
347
100
AcDbEntity
  8
0
100
AcDbLine
 62
7
  6
CONTINUOUS
 10
0.2127020847
 20
-27.4487586567
 11
0.0865870847
 21
-29.2769126567
  0
LINE
  5
348
100
AcDbEntity
  8
0
100
AcDbLine
 62
7
  6
CONTINUOUS
 10
-0.4725019153
 20
-29.2769126567
 11
-0.2197049153
 21
-26.4772096567
  0
LINE
  5
349
100
AcDbEntity
  8
0
100
AcDbLine
 62
7
  6
CONTINUOUS
 10
-2.7223759153
 20
-28.4043316567
 11
-2.1723989153
 21
-26.4772096567
  0
LINE
  5
34A
100
AcDbEntity
  8
0
100
AcDbLine
 62
7
  6
CONTINUOUS
 10
-1.5883899153
 20
-26.4772096567
 11
-2.4883269153
 21
-29.2769126567
  0
LINE
  5
34B
100
AcDbEntity
  8
0
100
AcDbLine
 62
7
  6
CONTINUOUS
 10
3.6085070847
 20
-27.2464966567
 11
3.3175210847
 21
-28.2855026567
  0
LINE
  5
34C
100
AcDbEntity
  8
0
100
AcDbLine
 62
7
  6
CONTINUOUS
 10
3.1979770847
 20
-28.7179926567
 11
3.0367170847
 21
-29.2769126567
  0
LINE
  5
34D
100
AcDbEntity
  8
0
100
AcDbLine
 62
7
  6
CONTINUOUS
 10
2.4586500847
 20
-29.2769126567
 11
3.3368150847
 21
-26.4772096567
  0
LINE
  5
34E
100
AcDbEntity
  8
0
100
AcDbLine
 62
7
  6
CONTINUOUS
 10
0.9424560847
 20
-28.0316136567
 11
1.5268640847
 21
-26.4772096567
  0
LINE
  5
34F
100
AcDbEntity
  8
0
100
AcDbLine
 62
7
  6
CONTINUOUS
 10
1.6751070847
 20
-27.4563806567
 11
0.9802460847
 21
-29.2769126567
  0
LINE
  5
350
100
AcDbEntity
  8
RACCORDO
100
AcDbLine
 62
253
  6
CONTINUOUS
 10
72.0592942167
 20
28.7656803279
 11
71.8881048231
 21
28.7358483233
  0
LWPOLYLINE
  5
351
100
AcDbEntity
  8
RACCORDO
100
AcDbPolyline
 62
253
  6
CONTINUOUS
 90
16
 70
0
 10
71.6189695175
 20
28.7091561122
 10
71.6460715437
 20
28.7134356873
 10
71.6727259677
 20
28.717470494
 10
71.6987052237
 20
28.7212260846
 10
71.7237875105
 20
28.7246703954
 10
71.7477586848
 20
28.7277740202
 10
71.7704140896
 20
28.7305104616
 10
71.7915603015
 20
28.7328563568
 10
71.8110167819
 20
28.7347916777
 10
71.8286174186
 20
28.7362999012
 10
71.8442119438
 20
28.7373681509
 10
71.8576672172
 20
28.7379873064
 10
71.8688683628
 20
28.7381520818
 10
71.8777197492
 20
28.7378610703
 10
71.8841458067
 20
28.7371167567
 10
71.8880916718
 20
28.7359254956
  0
LINE
  5
352
100
AcDbEntity
  8
RACCORDO
100
AcDbLine
 62
253
  6
CONTINUOUS
 10
72.5960453655
 20
24.7656803279
 11
72.4237946311
 21
24.7475655395
  0
LINE
  5
353
100
AcDbEntity
  8
RACCORDO
100
AcDbLine
 62
253
  6
CONTINUOUS
 10
72.5096046949
 20
23.8840624236
 11
72.6819172481
 21
23.9008699021
  0
LWPOLYLINE
  5
354
100
AcDbEntity
  8
RACCORDO
100
AcDbPolyline
 62
253
  6
CONTINUOUS
 90
15
 70
0
 10
72.1523185266
 20
24.7324567921
 10
72.2067717165
 20
24.7375035435
 10
72.2330785487
 20
24.7397638313
 10
72.2584681454
 20
24.7418222489
 10
72.2827218476
 20
24.743661069
 10
72.3056307788
 20
24.7452644554
 10
72.326997644
 20
24.7466185994
 10
72.3466384287
 20
24.7477118391
 10
72.3643839835
 20
24.7485347591
 10
72.380081481
 20
24.7490802726
 10
72.3935957322
 20
24.7493436813
 10
72.4048103504
 20
24.7493227168
 10
72.4136287536
 20
24.7490175597
 10
72.4199749964
 20
24.7484308379
 10
72.4237944241
 20
24.7475676045
  0
LINE
  5
355
100
AcDbEntity
  8
RACCORDO
100
AcDbLine
 62
253
  6
CONTINUOUS
 10
72.2244088772
 20
24.0081513155
 11
72.2788934451
 21
24.0130901969
  0
LINE
  5
356
100
AcDbEntity
  8
RACCORDO
100
AcDbLine
 62
253
  6
CONTINUOUS
 10
72.2380736453
 20
23.8685472292
 11
72.2925620278
 21
23.8734545141
  0
LWPOLYLINE
  5
357
100
AcDbEntity
  8
RACCORDO
100
AcDbPolyline
 62
253
  6
CONTINUOUS
 90
13
 70
0
 10
72.2788934451
 20
24.0130901969
 10
72.3306164302
 20
24.0173559988
 10
72.3548809456
 20
24.0191895935
 10
72.3777987349
 20
24.020801992
 10
72.3991722987
 20
24.0221792991
 10
72.4188174455
 20
24.0233096456
 10
72.4365648786
 20
24.0241832905
 10
72.4522616554
 20
24.0247927049
 10
72.4657725054
 20
24.0251326371
 10
72.4769809957
 20
24.0252001576
 10
72.4857905344
 20
24.0249946846
 10
72.4921252035
 20
24.0245179886
 10
72.4959304124
 20
24.0237741779
  0
LWPOLYLINE
  5
358
100
AcDbEntity
  8
RACCORDO
100
AcDbPolyline
 62
253
  6
CONTINUOUS
 90
13
 70
0
 10
72.2925620278
 20
23.8734545141
 10
72.344288276
 20
23.8776926688
 10
72.3685541639
 20
23.8795142228
 10
72.3914731285
 20
23.8811159106
 10
72.4128476547
 20
23.8824839289
 10
72.4324935372
 20
23.8836064881
 10
72.4502414682
 20
23.8844739141
 10
72.4659384963
 20
23.8850787313
 10
72.479449345
 20
23.8854157276
 10
72.4906575779
 20
23.8854819985
 10
72.4994666028
 20
23.8852769731
 10
72.5058005036
 20
23.8848024182
 10
72.5096046949
 20
23.8840624236
  0
LWPOLYLINE
  5
359
100
AcDbEntity
  8
RACCORDO
100
AcDbPolyline
 62
253
  6
CONTINUOUS
 90
6
 70
0
 10
46.8625886073
 20
21.3358738886
 10
46.8495035699
 20
21.3349077624
 10
46.8388333194
 20
21.3339210554
 10
46.8306324913
 20
21.3329188197
 10
46.8249430767
 20
21.3319061874
 10
46.8217942073
 20
21.3308883433
  0
LWPOLYLINE
  5
35A
100
AcDbEntity
  8
RACCORDO
100
AcDbPolyline
 62
253
  6
CONTINUOUS
 90
12
 70
0
 10
46.9873509999
 20
21.3356872371
 10
46.9615748257
 20
21.3345513215
 10
46.9376409741
 20
21.3333423469
 10
46.9156720805
 20
21.3320665083
 10
46.8957807121
 20
21.3307303429
 10
46.8780687907
 20
21.3293406972
 10
46.862627071
 20
21.3279046914
 10
46.8495346754
 20
21.3264296838
 10
46.8388586884
 20
21.3249232321
 10
46.8306538129
 20
21.3233930552
 10
46.8249620903
 20
21.3218469937
 10
46.8218126844
 20
21.3202929694
  0
LWPOLYLINE
  5
35B
100
AcDbEntity
  8
RACCORDO
100
AcDbPolyline
 62
253
  6
CONTINUOUS
 90
12
 70
0
 10
-69.1187481019
 20
23.8776926682
 10
-69.1430139887
 20
23.8795142221
 10
-69.1659329524
 20
23.8811159098
 10
-69.1873074776
 20
23.882483928
 10
-69.2069533592
 20
23.8836064872
 10
-69.2247012895
 20
23.8844739131
 10
-69.240398317
 20
23.8850787303
 10
-69.2539091652
 20
23.8854157265
 10
-69.2651173978
 20
23.8854819974
 10
-69.2739264225
 20
23.885276972
 10
-69.2802603233
 20
23.8848024171
 10
-69.2840645148
 20
23.8840624225
  0
LWPOLYLINE
  5
35C
100
AcDbEntity
  8
RACCORDO
100
AcDbPolyline
 62
253
  6
CONTINUOUS
 90
12
 70
0
 10
-69.1050762609
 20
24.0173559988
 10
-69.1293407763
 20
24.0191895935
 10
-69.1522585655
 20
24.020801992
 10
-69.1736321294
 20
24.0221792991
 10
-69.1932772761
 20
24.0233096456
 10
-69.2110247092
 20
24.0241832905
 10
-69.226721486
 20
24.0247927049
 10
-69.240232336
 20
24.0251326371
 10
-69.2514408263
 20
24.0252001576
 10
-69.2602503651
 20
24.0249946846
 10
-69.2665850341
 20
24.0245179886
 10
-69.270390243
 20
24.0237741779
  0
LINE
  5
35D
100
AcDbEntity
  8
RACCORDO
100
AcDbLine
 62
253
  6
CONTINUOUS
 10
-69.0670218559
 20
23.8734545137
 11
-69.1187481019
 21
23.8776926682
  0
LINE
  5
35E
100
AcDbEntity
  8
RACCORDO
100
AcDbLine
 62
253
  6
CONTINUOUS
 10
-69.0533532757
 20
24.0130901969
 11
-69.1050762609
 21
24.0173559988
  0
LWPOLYLINE
  5
35F
100
AcDbEntity
  8
RACCORDO
100
AcDbPolyline
 62
253
  6
CONTINUOUS
 90
14
 70
0
 10
-68.981231547
 20
24.7375035436
 10
-69.0075383791
 20
24.7397638314
 10
-69.0329279757
 20
24.7418222491
 10
-69.0571816777
 20
24.7436610692
 10
-69.0800906088
 20
24.7452644555
 10
-69.1014574739
 20
24.7466185996
 10
-69.1210982584
 20
24.7477118392
 10
-69.138843813
 20
24.7485347593
 10
-69.1545413104
 20
24.7490802727
 10
-69.1680555615
 20
24.7493436814
 10
-69.1792701795
 20
24.7493227168
 10
-69.1880885826
 20
24.7490175596
 10
-69.1944348253
 20
24.7484308378
 10
-69.1982542529
 20
24.7475676043
  0
LINE
  5
360
100
AcDbEntity
  8
RACCORDO
100
AcDbLine
 62
253
  6
CONTINUOUS
 10
-69.0125334754
 20
23.868547229
 11
-69.0670218559
 21
23.8734545137
  0
LINE
  5
361
100
AcDbEntity
  8
RACCORDO
100
AcDbLine
 62
253
  6
CONTINUOUS
 10
-68.9988687078
 20
24.0081513155
 11
-69.0533532757
 21
24.0130901969
  0
LINE
  5
362
100
AcDbEntity
  8
RACCORDO
100
AcDbLine
 62
253
  6
CONTINUOUS
 10
-68.9267783573
 20
24.7324567921
 11
-68.981231547
 21
24.7375035436
  0
LINE
  5
363
100
AcDbEntity
  8
RACCORDO
100
AcDbLine
 62
253
  6
CONTINUOUS
 10
-69.2840645255
 20
23.8840624236
 11
-69.4563770787
 21
23.9008699021
  0
LINE
  5
364
100
AcDbEntity
  8
RACCORDO
100
AcDbLine
 62
253
  6
CONTINUOUS
 10
-69.3705051961
 20
24.7656803279
 11
-69.1982545299
 21
24.7475648653
  0
LWPOLYLINE
  5
365
100
AcDbEntity
  8
RACCORDO
100
AcDbPolyline
 62
253
  6
CONTINUOUS
 90
16
 70
0
 10
-68.3934293506
 20
28.7091561146
 10
-68.4205313907
 20
28.7134356983
 10
-68.4471858296
 20
28.7174705133
 10
-68.4731651014
 20
28.7212261119
 10
-68.4982474047
 20
28.7246704302
 10
-68.5222185956
 20
28.7277740617
 10
-68.544874017
 20
28.7305105088
 10
-68.566020245
 20
28.7328564087
 10
-68.5854767408
 20
28.734791733
 10
-68.6030773919
 20
28.7362999586
 10
-68.6186719304
 20
28.7373682087
 10
-68.6321272157
 20
28.7379873631
 10
-68.6433283715
 20
28.7381521357
 10
-68.6521797664
 20
28.7378611196
 10
-68.6586058304
 20
28.7371167994
 10
-68.6625517001
 20
28.73592553
  0
LINE
  5
366
100
AcDbEntity
  8
RACCORDO
100
AcDbLine
 62
253
  6
CONTINUOUS
 10
-68.8337540473
 20
28.7656803279
 11
-68.662565052
 21
28.7358459493
  0
LINE
  5
367
100
AcDbEntity
  8
RACCORDO
100
AcDbLine
 62
253
  6
CONTINUOUS
 10
46.6012177722
 20
22.184508114
 11
46.7710491331
 21
22.389209266
  0
LINE
  5
368
100
AcDbEntity
  8
RACCORDO
100
AcDbLine
 62
253
  6
CONTINUOUS
 10
46.7710491331
 20
22.389209266
 11
46.8624392248
 21
22.4985890779
  0
LWPOLYLINE
  5
369
100
AcDbEntity
  8
0
100
AcDbPolyline
 62
7
  6
CONTINUOUS
 90
10
 70
0
 10
6.5479556699
 20
-27.8837143867
 10
6.5257337588
 20
-27.9025184526
 10
6.5150273598
 20
-27.9113933094
 10
6.5043089618
 20
-27.9197257889
 10
6.4936416147
 20
-27.9276294522
 10
6.4829622678
 20
-27.9349907503
 10
6.4718298642
 20
-27.9413078566
 10
6.4600973846
 20
-27.9464135038
 10
6.4479118467
 20
-27.9504749778
 10
6.4352732496
 20
-27.9534922848
  0
LWPOLYLINE
  5
36A
100
AcDbEntity
  8
RACCORDO
100
AcDbPolyline
 62
7
  6
CONTINUOUS
 90
13
 70
0
 10
-42.6872299153
 20
22.4367720037
 10
-42.7501763252
 20
22.4337869541
 10
-42.8125919518
 20
22.4273205676
 10
-42.8742833762
 20
22.4174354382
 10
-42.93506424
 20
22.4042005439
 10
-42.9948583064
 20
22.3876730262
 10
-43.0536444178
 20
22.367886384
 10
-43.1110923898
 20
22.3449668233
 10
-43.1670347534
 20
22.319008343
 10
-43.2215968508
 20
22.2899504274
 10
-43.2747142661
 20
22.2577836042
 10
-43.3261417967
 20
22.2226047816
 10
-43.3756785881
 20
22.1845095145
  0
LWPOLYLINE
  5
36B
100
AcDbEntity
  8
RACCORDO
100
AcDbPolyline
 62
253
  6
CONTINUOUS
 90
28
 70
0
 10
-42.7038698633
 20
22.8544077675
 10
-42.74190816
 20
22.8527150885
 10
-42.7797916899
 20
22.8500957848
 10
-42.8175204553
 20
22.8465498558
 10
-42.8551112535
 20
22.8420725215
 10
-42.8925472918
 20
22.8366685598
 10
-42.9297781876
 20
22.8303523056
 10
-42.9668051252
 20
22.8231219163
 10
-43.0036269239
 20
22.8149792311
 10
-43.040189654
 20
22.8059441078
 10
-43.0764936166
 20
22.7960137735
 10
-43.1125385132
 20
22.7851909964
 10
-43.1482695147
 20
22.7735039456
 10
-43.1836819634
 20
22.7609562931
 10
-43.2187805186
 20
22.7475443612
 10
-43.2535243262
 20
22.7332852943
 10
-43.2879207258
 20
22.7181789736
 10
-43.3219623785
 20
22.702225511
 10
-43.3555864115
 20
22.6854423971
 10
-43.3887948531
 20
22.6678208426
 10
-43.4215856749
 20
22.6493696289
 10
-43.4538899186
 20
22.6301326029
 10
-43.4857016444
 20
22.610113519
 10
-43.517026791
 20
22.5893086144
 10
-43.547814218
 20
22.5677504604
 10
-43.5780468779
 20
22.5454499113
 10
-43.6077418162
 20
22.5223961037
 10
-43.6368990317
 20
22.4985890331
  0
LINE
  5
36C
100
AcDbEntity
  8
RACCORDO
100
AcDbLine
 62
253
  6
CONTINUOUS
 10
46.9873509999
 20
21.3356872371
 11
47.095895313
 21
21.3402032784
  0
LINE
  5
36D
100
AcDbEntity
  8
RACCORDO
100
AcDbLine
 62
253
  6
CONTINUOUS
 10
47.095895313
 20
21.3402032784
 11
47.1821588553
 21
21.3429605181
  0
LINE
  5
36E
100
AcDbEntity
  8
RACCORDO
100
AcDbLine
 62
253
  6
CONTINUOUS
 10
47.1821588553
 20
21.3429605181
 11
47.2720987868
 21
21.3452712735
  0
LWPOLYLINE
  5
36F
100
AcDbEntity
  8
RACCORDO
100
AcDbPolyline
 62
253
  6
CONTINUOUS
 90
3
 70
0
 10
47.2720987868
 20
21.3452712735
 10
47.364146399
 20
21.3470943719
 10
47.4104577436
 20
21.3478127833
  0
LINE
  5
370
100
AcDbEntity
  8
RACCORDO
100
AcDbLine
 62
7
  6
CONTINUOUS
 10
-41.7383376065
 20
22.4503078258
 11
-42.6872299153
 21
22.4367682986
  0
LINE
  5
371
100
AcDbEntity
  8
0
100
AcDbLine
 62
7
  6
CONTINUOUS
 10
-42.6872299153
 20
22.1496266606
 11
-27.9219724584
 21
22.1649512322
  0
LINE
  5
372
100
AcDbEntity
  8
0
100
AcDbLine
 62
7
  6
CONTINUOUS
 10
-27.9219724584
 20
22.1649512322
 11
-13.1551883576
 21
22.1741461451
  0
LINE
  5
373
100
AcDbEntity
  8
RACCORDO
100
AcDbLine
 62
253
  6
CONTINUOUS
 10
46.7323842128
 20
21.3308883433
 11
46.8217942046
 21
21.3308869424
  0
LINE
  5
374
100
AcDbEntity
  8
0
100
AcDbLine
 62
7
  6
CONTINUOUS
 10
-13.1551883576
 20
22.1741461451
 11
1.6127700847
 21
22.1772112886
  0
LINE
  5
375
100
AcDbEntity
  8
RACCORDO
100
AcDbLine
 62
253
  6
CONTINUOUS
 10
-42.6872264341
 20
22.2377812766
 11
45.9127673914
 21
22.2377812766
  0
LINE
  5
376
100
AcDbEntity
  8
RACCORDO
100
AcDbLine
 62
253
  6
CONTINUOUS
 10
-41.7382088603
 20
22.4503078258
 11
44.9637489026
 21
22.4503078258
  0
LINE
  5
377
100
AcDbEntity
  8
0
100
AcDbLine
 62
253
  6
CONTINUOUS
 10
-43.6351638411
 20
24.0081513155
 11
46.8607040105
 21
24.0081513155
  0
LINE
  5
378
100
AcDbEntity
  8
RACCORDO
100
AcDbLine
 62
253
  6
CONTINUOUS
 10
46.8607040105
 20
24.0081513155
 11
72.2244088791
 21
24.0081512962
  0
LINE
  5
379
100
AcDbEntity
  8
RACCORDO
100
AcDbLine
 62
253
  6
CONTINUOUS
 10
-43.6351638411
 20
24.0081513155
 11
-68.9988687078
 21
24.0081513156
  0
LINE
  5
37A
100
AcDbEntity
  8
RACCORDO
100
AcDbLine
 62
253
  6
CONTINUOUS
 10
-43.5068440434
 20
21.3308883433
 11
-43.5962483839
 21
21.3308931997
  0
LINE
  5
37B
100
AcDbEntity
  8
0
100
AcDbLine
 62
7
  6
CONTINUOUS
 10
1.6127700847
 20
22.1772112886
 11
16.380728527
 21
22.1741461451
  0
LINE
  5
37C
100
AcDbEntity
  8
0
100
AcDbLine
 62
7
  6
CONTINUOUS
 10
16.380728527
 20
22.1741461451
 11
31.1475126278
 21
22.1649512322
  0
LINE
  5
37D
100
AcDbEntity
  8
0
100
AcDbLine
 62
7
  6
CONTINUOUS
 10
31.1475126278
 20
22.1649512322
 11
45.9127700847
 21
22.1496266606
  0
LINE
  5
37E
100
AcDbEntity
  8
RACCORDO
100
AcDbLine
 62
253
  6
CONTINUOUS
 10
-44.092456645
 20
21.3420617405
 11
-44.1849646308
 21
21.342434797
  0
LINE
  5
37F
100
AcDbEntity
  8
RACCORDO
100
AcDbLine
 62
253
  6
CONTINUOUS
 10
-44.0012531848
 20
21.3411634206
 11
-44.092456645
 21
21.3420617405
  0
LINE
  5
380
100
AcDbEntity
  8
RACCORDO
100
AcDbLine
 62
253
  6
CONTINUOUS
 10
-43.7892760359
 20
21.337302377
 11
-43.7360133194
 21
21.3367685268
  0
LWPOLYLINE
  5
381
100
AcDbEntity
  8
RACCORDO
100
AcDbPolyline
 62
253
  6
CONTINUOUS
 90
7
 70
0
 10
47.0147737254
 20
21.3392043211
 10
46.9872729092
 20
21.3395839741
 10
46.9614910009
 20
21.3396634518
 10
46.9375587898
 20
21.3394357545
 10
46.9155992591
 20
21.3387947422
 10
46.8957214406
 20
21.3378239052
 10
46.8625886073
 20
21.3358738886
  0
LWPOLYLINE
  5
382
100
AcDbEntity
  8
RACCORDO
100
AcDbPolyline
 62
253
  6
CONTINUOUS
 90
49
 70
0
 10
45.9127673914
 20
22.2377812764
 10
45.9376369735
 20
22.2374411757
 10
45.9618827528
 20
22.2364535484
 10
45.9854894398
 20
22.2348676969
 10
46.0082640965
 20
22.232751074
 10
46.0303774376
 20
22.2301408682
 10
46.0523584425
 20
22.2269995708
 10
46.0742190727
 20
22.2233291303
 10
46.0959225551
 20
22.2191395162
 10
46.1179139688
 20
22.2143319568
 10
46.1402516564
 20
22.2088596278
 10
46.16283486
 20
22.202712224
 10
46.1858565717
 20
22.1957952495
 10
46.2094734212
 20
22.188000557
 10
46.2334610547
 20
22.1793390702
 10
46.2574425584
 20
22.1699070564
 10
46.2813991556
 20
22.1596871023
 10
46.3052932814
 20
22.1486698781
 10
46.3287431564
 20
22.1370253179
 10
46.3516303681
 20
22.1248308175
 10
46.3740487272
 20
22.1120545186
 10
46.3959520492
 20
22.0987369449
 10
46.4172704734
 20
22.0849407734
 10
46.43805717
 20
22.0706523186
 10
46.4584451996
 20
22.0557883167
 10
46.4783389915
 20
22.0404229606
 10
46.4978059527
 20
22.0245088043
 10
46.5171903676
 20
22.0077375524
 10
46.5364480866
 20
21.9900926681
 10
46.5555366143
 20
21.9715562083
 10
46.5747445474
 20
21.9517578987
 10
46.5940218509
 20
21.9306181809
 10
46.6132476965
 20
21.9081293276
 10
46.632540566
 20
21.8839796113
 10
46.6518541185
 20
21.8579987924
 10
46.6709613502
 20
21.8302429738
 10
46.6896768133
 20
21.8007299615
 10
46.7077754396
 20
21.769562945
 10
46.7251864679
 20
21.7365852931
 10
46.7419067859
 20
21.7014192147
 10
46.7578371923
 20
21.6637291551
 10
46.7725914957
 20
21.6238015079
 10
46.7857528028
 20
21.5822206303
 10
46.7973386632
 20
21.5382304051
 10
46.8068988336
 20
21.4926840396
 10
46.8138484328
 20
21.4487287754
 10
46.8183777855
 20
21.4075431782
 10
46.820939761
 20
21.3682319262
 10
46.8217942057
 20
21.3308869424
  0
LINE
  5
383
100
AcDbEntity
  8
RACCORDO
100
AcDbLine
 62
7
  6
CONTINUOUS
 10
45.9127700849
 20
22.4367682986
 11
44.9638777732
 21
22.4503078258
  0
LINE
  5
384
100
AcDbEntity
  8
RACCORDO
100
AcDbLine
 62
253
  6
CONTINUOUS
 10
-43.9129503745
 20
21.3397553878
 11
-44.0012531848
 21
21.3411634206
  0
LWPOLYLINE
  5
385
100
AcDbEntity
  8
RACCORDO
100
AcDbPolyline
 62
253
  6
CONTINUOUS
 90
10
 70
0
 10
-43.7360133194
 20
21.3367685268
 10
-43.6901064904
 20
21.3359537186
 10
-43.6702123448
 20
21.3354550461
 10
-43.6524988158
 20
21.3349039884
 10
-43.637056034
 20
21.3343072927
 10
-43.6239637058
 20
21.3336718296
 10
-43.6132904295
 20
21.3330047149
 10
-43.6050898621
 20
21.3323133476
 10
-43.5994018461
 20
21.3316053334
 10
-43.5962540129
 20
21.3308883433
  0
LWPOLYLINE
  5
386
100
AcDbEntity
  8
RACCORDO
100
AcDbPolyline
 62
253
  6
CONTINUOUS
 90
3
 70
0
 10
-43.7892973752
 20
21.3367427192
 10
-43.8290952314
 20
21.337861646
 10
-43.9129503745
 20
21.3397553878
  0
LWPOLYLINE
  5
387
100
AcDbEntity
  8
RACCORDO
100
AcDbPolyline
 62
253
  6
CONTINUOUS
 90
16
 70
0
 10
44.9637489026
 20
22.4503078258
 10
39.1884766562
 20
22.6183980302
 10
33.411582329
 20
22.7624779389
 10
27.633065921
 20
22.8825475518
 10
21.8525630179
 20
22.9786088868
 10
16.0704380339
 20
23.0506599261
 10
10.2877842123
 20
23.098694616
 10
4.5046132577
 20
23.1227109356
 10
-1.2790865347
 20
23.1227109058
 10
-7.0622570361
 20
23.098694535
 10
-12.8449099748
 20
23.0506598017
 10
-18.6270336226
 20
22.9786087273
 10
-24.4075346663
 20
22.8825473853
 10
-30.1860486684
 20
22.7624777999
 10
-35.9629400663
 20
22.6183979467
 10
-41.7382088603
 20
22.4503078258
  0
LWPOLYLINE
  5
388
100
AcDbEntity
  8
RACCORDO
100
AcDbPolyline
 62
253
  6
CONTINUOUS
 90
16
 70
0
 10
45.9294100327
 20
22.8544077675
 10
40.0256913943
 20
23.0301932523
 10
34.1201797768
 20
23.1808674594
 10
28.2129239799
 20
23.306431443
 10
22.3036436943
 20
23.4068886145
 10
16.3927161341
 20
23.4822371652
 10
10.4811761852
 20
23.5324700626
 10
4.5690728053
 20
23.5575851411
 10
-1.3435466056
 20
23.5575851094
 10
-7.2556495106
 20
23.5324699765
 10
-13.1671885349
 20
23.4822370331
 10
-19.0781146958
 20
23.4068884455
 10
-24.9873930321
 20
23.3064312667
 10
-30.8946463048
 20
23.1808673123
 10
-36.8001548484
 20
23.0301931639
 10
-42.7038698633
 20
22.8544077675
  0
LINE
  5
389
100
AcDbEntity
  8
RACCORDO
100
AcDbLine
 62
253
  6
CONTINUOUS
 10
46.6827520056
 20
-23.0212687228
 11
46.8624392041
 21
-23.2368123522
  0
LINE
  5
38A
100
AcDbEntity
  8
RACCORDO
100
AcDbLine
 62
253
  6
CONTINUOUS
 10
46.601220639
 20
-22.9227351189
 11
46.6827520056
 21
-23.0212687228
  0
LINE
  5
38B
100
AcDbEntity
  8
RACCORDO
100
AcDbLine
 62
253
  6
CONTINUOUS
 10
51.9862435996
 20
-43.9955726293
 11
51.9760446432
 21
-43.8165904748
  0
LWPOLYLINE
  5
38C
100
AcDbEntity
  8
RACCORDO
100
AcDbPolyline
 62
7
  6
CONTINUOUS
 90
16
 70
0
 10
47.0147106933
 20
21.3416644871
 10
47.0111842116
 20
21.4063126684
 10
47.0039671106
 20
21.4705967181
 10
46.9930914614
 20
21.5343154221
 10
46.9785728783
 20
21.5974392033
 10
46.9604318244
 20
21.6597041755
 10
46.9388154032
 20
21.7205416521
 10
46.9139807475
 20
21.7794195696
 10
46.8860121573
 20
21.8364274109
 10
46.8547709019
 20
21.8919441111
 10
46.8201993808
 20
21.9459608432
 10
46.7824450993
 20
21.9981229372
 10
46.7415723784
 20
22.0482512224
 10
46.6976690395
 20
22.0961546426
 10
46.6508515602
 20
22.1416309238
 10
46.6012191531
 20
22.1845097937
  0
LINE
  5
38D
100
AcDbEntity
  8
RACCORDO
100
AcDbLine
 62
253
  6
CONTINUOUS
 10
46.7418772413
 20
-44.0873172481
 11
46.7506330687
 21
-44.2664163452
  0
LINE
  5
38E
100
AcDbEntity
  8
RACCORDO
100
AcDbLine
 62
253
  6
CONTINUOUS
 10
51.9699614494
 20
-43.5719312205
 11
51.9723216632
 21
-43.6220169592
  0
LINE
  5
38F
100
AcDbEntity
  8
RACCORDO
100
AcDbLine
 62
253
  6
CONTINUOUS
 10
46.7340498922
 20
-43.8431137796
 11
46.7372984544
 21
-43.917081062
  0
LINE
  5
390
100
AcDbEntity
  8
RACCORDO
100
AcDbLine
 62
253
  6
CONTINUOUS
 10
46.8069541082
 20
-43.8395410896
 11
46.8102089708
 21
-43.9135098017
  0
LINE
  5
391
100
AcDbEntity
  8
RACCORDO
100
AcDbLine
 62
253
  6
CONTINUOUS
 10
45.9135402667
 20
-23.1749808571
 11
45.9191902308
 21
-23.3050777703
  0
LINE
  5
392
100
AcDbEntity
  8
RACCORDO
100
AcDbLine
 62
253
  6
CONTINUOUS
 10
51.9723216632
 20
-43.6220169592
 11
51.974283301
 21
-43.6689835625
  0
LINE
  5
393
100
AcDbEntity
  8
RACCORDO
100
AcDbLine
 62
253
  6
CONTINUOUS
 10
46.7372984544
 20
-43.917081062
 11
46.7398468548
 21
-43.9824194056
  0
LINE
  5
394
100
AcDbEntity
  8
RACCORDO
100
AcDbLine
 62
253
  6
CONTINUOUS
 10
46.8102089708
 20
-43.9135098017
 11
46.8127624442
 21
-43.9788496907
  0
LINE
  5
395
100
AcDbEntity
  8
RACCORDO
100
AcDbLine
 62
253
  6
CONTINUOUS
 10
45.9191902308
 20
-23.3050777703
 11
45.9245586346
 21
-23.4463599965
  0
LWPOLYLINE
  5
396
100
AcDbEntity
  8
SUPERFICI
100
AcDbPolyline
 62
7
  6
CONTINUOUS
 90
25
 70
0
 10
46.7323842128
 20
21.3308883433
 10
46.7305109721
 20
21.3844482252
 10
46.7251467225
 20
21.4377704986
 10
46.7163140074
 20
21.4906281623
 10
46.7040496106
 20
21.5427962689
 10
46.6884058523
 20
21.5940523407
 10
46.6694504709
 20
21.6441776352
 10
46.6472635997
 20
21.6929593659
 10
46.6219394804
 20
21.7401890261
 10
46.5935880375
 20
21.7856634602
 10
46.5623300747
 20
21.8291892177
 10
46.5282984502
 20
21.8705811229
 10
46.4916403177
 20
21.9096616447
 10
46.4525122899
 20
21.9462645883
 10
46.41108054
 20
21.9802348145
 10
46.3675225625
 20
22.0114277411
 10
46.3220236608
 20
22.0397112345
 10
46.2747774276
 20
22.0649651209
 10
46.2259862439
 20
22.0870816816
 10
46.1758579099
 20
22.1059673488
 10
46.1246053057
 20
22.1215421835
 10
46.0724470673
 20
22.1337397844
 10
46.0196052053
 20
22.1425085217
 10
45.966304052
 20
22.147811589
 10
45.9127700847
 20
22.1496266606
  0
LWPOLYLINE
  5
397
100
AcDbEntity
  8
RACCORDO
100
AcDbPolyline
 62
253
  6
CONTINUOUS
 90
31
 70
0
 10
47.4104948299
 20
21.3472075943
 10
47.4089182235
 20
21.395249749
 10
47.4060245275
 20
21.442471379
 10
47.4018137663
 20
21.488872494
 10
47.3962454784
 20
21.5344033486
 10
47.3893601717
 20
21.5791137076
 10
47.381279321
 20
21.6231528439
 10
47.3720168465
 20
21.6665472745
 10
47.3615588634
 20
21.7092704971
 10
47.3499851351
 20
21.7513922525
 10
47.3373144274
 20
21.7929088485
 10
47.3235280032
 20
21.8338239902
 10
47.3086493682
 20
21.8742185131
 10
47.2926892725
 20
21.9141116365
 10
47.2756369903
 20
21.9534841515
 10
47.2574838122
 20
21.9923592499
 10
47.2382143918
 20
22.0307765433
 10
47.2178440966
 20
22.0686964296
 10
47.1964102872
 20
22.1060232807
 10
47.1739028418
 20
22.1427593249
 10
47.1503318987
 20
22.1789023453
 10
47.1257652066
 20
22.2143500471
 10
47.1002047745
 20
22.2490984891
 10
47.0736486043
 20
22.2831516253
 10
47.0461584309
 20
22.316419005
 10
47.017728452
 20
22.3488983658
 10
46.9883644752
 20
22.3805919839
 10
46.9581456476
 20
22.4114162174
 10
46.9270983511
 20
22.4413431906
 10
46.8951962027
 20
22.4704007936
 10
46.8624392011
 20
22.4985890331
  0
LINE
  5
398
100
AcDbEntity
  8
RACCORDO
100
AcDbLine
 62
253
  6
CONTINUOUS
 10
46.8127624442
 20
-43.9788496907
 11
46.8139879366
 21
-44.0154115476
  0
LINE
  5
399
100
AcDbEntity
  8
RACCORDO
100
AcDbLine
 62
253
  6
CONTINUOUS
 10
46.7398468548
 20
-43.9824194056
 11
46.7410698227
 21
-44.0189802928
  0
LINE
  5
39A
100
AcDbEntity
  8
RACCORDO
100
AcDbLine
 62
253
  6
CONTINUOUS
 10
45.9245586346
 20
-23.4463599965
 11
45.9294100281
 21
-23.592631072
  0
LWPOLYLINE
  5
39B
100
AcDbEntity
  8
RACCORDO
100
AcDbPolyline
 62
253
  6
CONTINUOUS
 90
7
 70
0
 10
46.8139879366
 20
-44.0154115476
 10
46.8147873566
 20
-44.0450693837
 10
46.8150192734
 20
-44.0570223951
 10
46.8151367223
 20
-44.0669334953
 10
46.8151388208
 20
-44.0747282136
 10
46.8150255532
 20
-44.0803479817
 10
46.8147977704
 20
-44.0837505736
  0
LWPOLYLINE
  5
39C
100
AcDbEntity
  8
RACCORDO
100
AcDbPolyline
 62
253
  6
CONTINUOUS
 90
7
 70
0
 10
46.7410698227
 20
-44.0189802928
 10
46.7418674971
 20
-44.0486372858
 10
46.7420988509
 20
-44.0605899406
 10
46.7422159494
 20
-44.0705007354
 10
46.742217913
 20
-44.0782952043
 10
46.7421047268
 20
-44.083914783
 10
46.7418772413
 20
-44.0873172481
  0
LINE
  5
39D
100
AcDbEntity
  8
RACCORDO
100
AcDbLine
 62
253
  6
CONTINUOUS
 10
46.8317292187
 20
36.7717500262
 11
46.8069540056
 21
43.1013177813
  0
LINE
  5
39E
100
AcDbEntity
  8
RACCORDO
100
AcDbLine
 62
253
  6
CONTINUOUS
 10
46.8496576184
 20
30.4031817931
 11
46.8317292187
 21
36.7717500262
  0
LINE
  5
39F
100
AcDbEntity
  8
SUPERFICI
100
AcDbLine
 62
7
  6
CONTINUOUS
 10
46.7461501841
 20
14.0998485112
 11
46.7323842128
 21
21.3308883433
  0
LINE
  5
3A0
100
AcDbEntity
  8
RACCORDO
100
AcDbLine
 62
253
  6
CONTINUOUS
 10
46.8217942046
 20
21.3308869424
 11
46.8326082083
 21
15.8982865873
  0
LINE
  5
3A1
100
AcDbEntity
  8
RACCORDO
100
AcDbLine
 62
7
  6
CONTINUOUS
 10
47.0285583355
 20
14.1040832021
 11
47.0148374215
 21
21.3367442737
  0
LINE
  5
3A2
100
AcDbEntity
  8
RACCORDO
100
AcDbLine
 62
253
  6
CONTINUOUS
 10
47.4239540369
 20
14.2939723254
 11
47.4104948299
 21
21.3472075943
  0
LINE
  5
3A3
100
AcDbEntity
  8
RACCORDO
100
AcDbLine
 62
253
  6
CONTINUOUS
 10
46.8326082083
 20
15.8982865873
 11
46.8403171235
 21
10.4757364982
  0
LINE
  5
3A4
100
AcDbEntity
  8
RACCORDO
100
AcDbLine
 62
253
  6
CONTINUOUS
 10
46.8624392011
 20
22.4985890331
 11
46.8496576184
 21
30.4031817931
  0
LINE
  5
3A5
100
AcDbEntity
  8
SUPERFICI
100
AcDbLine
 62
7
  6
CONTINUOUS
 10
46.7544102684
 20
6.8663240527
 11
46.7461501841
 21
14.0998485112
  0
LINE
  5
3A6
100
AcDbEntity
  8
RACCORDO
100
AcDbLine
 62
7
  6
CONTINUOUS
 10
47.0367883286
 20
6.868279635
 11
47.0285583355
 21
14.1040832021
  0
LINE
  5
3A7
100
AcDbEntity
  8
RACCORDO
100
AcDbLine
 62
253
  6
CONTINUOUS
 10
47.4325990145
 20
6.6995281775
 11
47.4239540369
 21
14.2939723254
  0
LINE
  5
3A8
100
AcDbEntity
  8
RACCORDO
100
AcDbLine
 62
253
  6
CONTINUOUS
 10
46.8403171235
 20
10.4757364982
 11
46.8449422021
 21
5.0531139237
  0
LINE
  5
3A9
100
AcDbEntity
  8
SUPERFICI
100
AcDbLine
 62
7
  6
CONTINUOUS
 10
46.7571641386
 20
-0.3691116567
 11
46.7544102684
 21
6.8663240527
  0
LINE
  5
3AA
100
AcDbEntity
  8
RACCORDO
100
AcDbLine
 62
253
  6
CONTINUOUS
 10
45.9127700847
 20
22.1496266606
 11
45.9127700849
 21
22.4367682986
  0
LINE
  5
3AB
100
AcDbEntity
  8
RACCORDO
100
AcDbLine
 62
253
  6
CONTINUOUS
 10
45.9127700847
 20
-22.8878499741
 11
45.9127700847
 21
-23.174991612
  0
LINE
  5
3AC
100
AcDbEntity
  8
RACCORDO
100
AcDbLine
 62
253
  6
CONTINUOUS
 10
46.8449422021
 20
5.0531139237
 11
46.8464837222
 21
-0.3691116567
  0
LINE
  5
3AD
100
AcDbEntity
  8
RACCORDO
100
AcDbLine
 62
7
  6
CONTINUOUS
 10
47.0395257795
 20
-0.3691116567
 11
47.0367883286
 21
6.868279635
  0
LINE
  5
3AE
100
AcDbEntity
  8
RACCORDO
100
AcDbLine
 62
253
  6
CONTINUOUS
 10
47.4352017182
 20
-0.3691116572
 11
47.4325990145
 21
6.6995281775
  0
LINE
  5
3AF
100
AcDbEntity
  8
RACCORDO
100
AcDbLine
 62
253
  6
CONTINUOUS
 10
46.8464837222
 20
-0.3691116567
 11
46.8446551789
 21
-6.2858992889
  0
LINE
  5
3B0
100
AcDbEntity
  8
SUPERFICI
100
AcDbLine
 62
7
  6
CONTINUOUS
 10
46.7544102684
 20
-7.6045473662
 11
46.7571641386
 21
-0.3691116567
  0
LINE
  5
3B1
100
AcDbEntity
  8
RACCORDO
100
AcDbLine
 62
7
  6
CONTINUOUS
 10
47.0367883405
 20
-7.606973908
 11
47.0395257845
 21
-0.3691116567
  0
LINE
  5
3B2
100
AcDbEntity
  8
RACCORDO
100
AcDbLine
 62
253
  6
CONTINUOUS
 10
47.4325849836
 20
-7.4567635206
 11
47.4352017182
 21
-0.3691116572
  0
LINE
  5
3B3
100
AcDbEntity
  8
RACCORDO
100
AcDbLine
 62
253
  6
CONTINUOUS
 10
46.8446551789
 20
-6.2858992889
 11
46.8394899385
 21
-11.9224138067
  0
LINE
  5
3B4
100
AcDbEntity
  8
SUPERFICI
100
AcDbLine
 62
7
  6
CONTINUOUS
 10
46.7461501841
 20
-14.8380718246
 11
46.7544102684
 21
-7.6045473662
  0
LINE
  5
3B5
100
AcDbEntity
  8
RACCORDO
100
AcDbLine
 62
7
  6
CONTINUOUS
 10
47.0285573724
 20
-14.8428208594
 11
47.0367883405
 21
-7.606973908
  0
LINE
  5
3B6
100
AcDbEntity
  8
RACCORDO
100
AcDbLine
 62
253
  6
CONTINUOUS
 10
47.4239169234
 20
-15.0562790048
 11
47.4325849836
 21
-7.4567635206
  0
LINE
  5
3B7
100
AcDbEntity
  8
RACCORDO
100
AcDbLine
 62
253
  6
CONTINUOUS
 10
46.8394899385
 20
-11.9224138067
 11
46.8309168161
 21
-17.5992839185
  0
LINE
  5
3B8
100
AcDbEntity
  8
RACCORDO
100
AcDbLine
 62
253
  6
CONTINUOUS
 10
46.8624392011
 20
-23.2368123465
 11
46.8541057699
 21
-29.0120476196
  0
LINE
  5
3B9
100
AcDbEntity
  8
SUPERFICI
100
AcDbLine
 62
7
  6
CONTINUOUS
 10
46.7323842128
 20
-22.0691116567
 11
46.7461501841
 21
-14.8380718246
  0
LINE
  5
3BA
100
AcDbEntity
  8
RACCORDO
100
AcDbLine
 62
253
  6
CONTINUOUS
 10
46.8309168161
 20
-17.5992839185
 11
46.8217885535
 21
-22.0691164099
  0
LINE
  5
3BB
100
AcDbEntity
  8
RACCORDO
100
AcDbLine
 62
7
  6
CONTINUOUS
 10
47.0148362702
 20
-22.0755256577
 11
47.0285573724
 21
-14.8428208594
  0
LINE
  5
3BC
100
AcDbEntity
  8
RACCORDO
100
AcDbLine
 62
253
  6
CONTINUOUS
 10
47.4104948264
 20
-22.0854311227
 11
47.4239169234
 21
-15.0562790048
  0
LINE
  5
3BD
100
AcDbEntity
  8
RACCORDO
100
AcDbLine
 62
253
  6
CONTINUOUS
 10
46.8541057699
 20
-29.0120476196
 11
46.8444446918
 21
-33.2678219152
  0
LINE
  5
3BE
100
AcDbEntity
  8
RACCORDO
100
AcDbLine
 62
253
  6
CONTINUOUS
 10
46.8444446918
 20
-33.2678219152
 11
46.8317292187
 21
-37.5099733396
  0
LWPOLYLINE
  5
3BF
100
AcDbEntity
  8
RACCORDO
100
AcDbPolyline
 62
253
  6
CONTINUOUS
 90
3
 70
0
 10
46.8317292187
 20
-37.5099733396
 10
46.8159704316
 20
-41.7347896381
 10
46.8069540041
 20
-43.8395410948
  0
LWPOLYLINE
  5
3C0
100
AcDbEntity
  8
RACCORDO
100
AcDbPolyline
 62
253
  6
CONTINUOUS
 90
6
 70
0
 10
46.7418674971
 20
43.3104139722
 10
46.7420988509
 20
43.322366627
 10
46.7422159494
 20
43.3322774218
 10
46.742217913
 20
43.3400718907
 10
46.7421047268
 20
43.3456914694
 10
46.7418772413
 20
43.3490939344
  0
LWPOLYLINE
  5
3C1
100
AcDbEntity
  8
RACCORDO
100
AcDbPolyline
 62
253
  6
CONTINUOUS
 90
6
 70
0
 10
46.8147873566
 20
43.3068460703
 10
46.8150192734
 20
43.3187990817
 10
46.8151367223
 20
43.3287101818
 10
46.8151388208
 20
43.3365049001
 10
46.8150255532
 20
43.3421246683
 10
46.8147977704
 20
43.3455272601
  0
LWPOLYLINE
  5
3C2
100
AcDbEntity
  8
RACCORDO
100
AcDbPolyline
 62
253
  6
CONTINUOUS
 90
49
 70
0
 10
46.8217941915
 20
-22.0691164102
 10
46.8208552283
 20
-22.1083518026
 10
46.8181369731
 20
-22.1484850117
 10
46.8135150321
 20
-22.1894283733
 10
46.8067638933
 20
-22.2316412525
 10
46.7978128696
 20
-22.2744421773
 10
46.7870129156
 20
-22.3160645427
 10
46.7745916986
 20
-22.3561308986
 10
46.7605968201
 20
-22.3949045269
 10
46.7454400753
 20
-22.4316785219
 10
46.7294466744
 20
-22.4662085898
 10
46.7127100259
 20
-22.4987668004
 10
46.6953606438
 20
-22.5294681184
 10
46.6775785533
 20
-22.5583158028
 10
46.6595005231
 20
-22.5853778199
 10
46.6411492468
 20
-22.6108605282
 10
46.6226805525
 20
-22.6347553658
 10
46.6041701369
 20
-22.657155714
 10
46.585463418
 20
-22.6783919889
 10
46.5666484636
 20
-22.6984730168
 10
46.5477769469
 20
-22.7174461244
 10
46.5285771471
 20
-22.7356510595
 10
46.5090572214
 20
-22.753114175
 10
46.4892755479
 20
-22.769816374
 10
46.4689863091
 20
-22.7859794765
 10
46.4481383109
 20
-22.8016342831
 10
46.4268081846
 20
-22.8167134206
 10
46.404917706
 20
-22.8312609904
 10
46.3823843718
 20
-22.8453091101
 10
46.3593094549
 20
-22.8587724227
 10
46.3358958512
 20
-22.8715274052
 10
46.3121073224
 20
-22.8835961216
 10
46.2880231264
 20
-22.8949400264
 10
46.2640443586
 20
-22.9053947329
 10
46.240303061
 20
-22.9149511799
 10
46.2167386533
 20
-22.9236807282
 10
46.1934784287
 20
-22.9315812367
 10
46.1706846255
 20
-22.9386515127
 10
46.1482577973
 20
-22.9449749177
 10
46.1259254942
 20
-22.9506614169
 10
46.1037766047
 20
-22.9557113006
 10
46.0817602681
 20
-22.9601586801
 10
46.0593788942
 20
-22.9641038204
 10
46.03662758
 20
-22.9675266747
 10
46.0135331258
 20
-22.9704022402
 10
45.9896348183
 20
-22.9727487595
 10
45.9647855008
 20
-22.9745151667
 10
45.9391568598
 20
-22.975621661
 10
45.9127665942
 20
-22.9760045897
  0
LINE
  5
3C3
100
AcDbEntity
  8
RACCORDO
100
AcDbLine
 62
253
  6
CONTINUOUS
 10
46.7410698227
 20
43.2807569793
 11
46.7418674971
 21
43.3104139722
  0
LINE
  5
3C4
100
AcDbEntity
  8
RACCORDO
100
AcDbLine
 62
253
  6
CONTINUOUS
 10
46.8139879366
 20
43.2771882341
 11
46.8147873566
 21
43.3068460703
  0
LINE
  5
3C5
100
AcDbEntity
  8
RACCORDO
100
AcDbLine
 62
253
  6
CONTINUOUS
 10
45.9245586431
 20
22.7081367101
 11
45.9294100326
 21
22.8544077674
  0
LINE
  5
3C6
100
AcDbEntity
  8
RACCORDO
100
AcDbLine
 62
253
  6
CONTINUOUS
 10
46.7398468548
 20
43.2441960921
 11
46.7410698227
 21
43.2807569793
  0
LINE
  5
3C7
100
AcDbEntity
  8
RACCORDO
100
AcDbLine
 62
253
  6
CONTINUOUS
 10
46.8127624442
 20
43.2406263772
 11
46.8139879366
 21
43.2771882341
  0
LWPOLYLINE
  5
3C8
100
AcDbEntity
  8
SUPERFICI
100
AcDbPolyline
 62
7
  6
CONTINUOUS
 90
25
 70
0
 10
46.7323842128
 20
-22.0691116567
 10
46.7305109721
 20
-22.1226715386
 10
46.7251467225
 20
-22.175993812
 10
46.7163140074
 20
-22.2288514757
 10
46.7040496106
 20
-22.2810195823
 10
46.6884058523
 20
-22.3322756542
 10
46.6694504709
 20
-22.3824009487
 10
46.6472635997
 20
-22.4311826794
 10
46.6219394804
 20
-22.4784123395
 10
46.5935880375
 20
-22.5238867736
 10
46.5623300747
 20
-22.5674125311
 10
46.5282984502
 20
-22.6088044363
 10
46.4916403177
 20
-22.6478849581
 10
46.4525122899
 20
-22.6844879017
 10
46.41108054
 20
-22.7184581279
 10
46.3675225625
 20
-22.7496510545
 10
46.3220236608
 20
-22.7779345479
 10
46.2747774276
 20
-22.8031884343
 10
46.2259862439
 20
-22.8253049951
 10
46.1758579099
 20
-22.8441906622
 10
46.1246053057
 20
-22.8597654969
 10
46.0724470673
 20
-22.8719630979
 10
46.0196052053
 20
-22.8807318351
 10
45.966304052
 20
-22.8860349024
 10
45.9127700847
 20
-22.8878499741
  0
LINE
  5
3C9
100
AcDbEntity
  8
RACCORDO
100
AcDbLine
 62
253
  6
CONTINUOUS
 10
45.9191902367
 20
22.5668545157
 11
45.9245586431
 21
22.7081367101
  0
LINE
  5
3CA
100
AcDbEntity
  8
RACCORDO
100
AcDbLine
 62
253
  6
CONTINUOUS
 10
46.7372984544
 20
43.1788577485
 11
46.7398468548
 21
43.2441960921
  0
LINE
  5
3CB
100
AcDbEntity
  8
RACCORDO
100
AcDbLine
 62
253
  6
CONTINUOUS
 10
46.8102089708
 20
43.1752864883
 11
46.8127624442
 21
43.2406263772
  0
LINE
  5
3CC
100
AcDbEntity
  8
RACCORDO
100
AcDbLine
 62
253
  6
CONTINUOUS
 10
51.9723216632
 20
42.8837936457
 11
51.974283301
 21
42.930760249
  0
LINE
  5
3CD
100
AcDbEntity
  8
RACCORDO
100
AcDbLine
 62
253
  6
CONTINUOUS
 10
46.7340498922
 20
43.1048904662
 11
46.7372984544
 21
43.1788577485
  0
LINE
  5
3CE
100
AcDbEntity
  8
RACCORDO
100
AcDbLine
 62
253
  6
CONTINUOUS
 10
46.8069541082
 20
43.1013177762
 11
46.8102089708
 21
43.1752864883
  0
LINE
  5
3CF
100
AcDbEntity
  8
RACCORDO
100
AcDbLine
 62
253
  6
CONTINUOUS
 10
45.9135402516
 20
22.4367573222
 11
45.9191902367
 21
22.5668545157
  0
LINE
  5
3D0
100
AcDbEntity
  8
RACCORDO
100
AcDbLine
 62
253
  6
CONTINUOUS
 10
51.9699614494
 20
42.8337079071
 11
51.9723216632
 21
42.8837936457
  0
LINE
  5
3D1
100
AcDbEntity
  8
RACCORDO
100
AcDbLine
 62
253
  6
CONTINUOUS
 10
46.7418772413
 20
43.3490939346
 11
46.7506330687
 21
43.5281930318
  0
LINE
  5
3D2
100
AcDbEntity
  8
RACCORDO
100
AcDbLine
 62
253
  6
CONTINUOUS
 10
51.9862435996
 20
43.2573493159
 11
51.9760445863
 21
43.0783671645
  0
LWPOLYLINE
  5
3D3
100
AcDbEntity
  8
RACCORDO
100
AcDbPolyline
 62
7
  6
CONTINUOUS
 90
16
 70
0
 10
46.6012192602
 20
-22.9227334417
 10
46.6505109799
 20
-22.8801690034
 10
46.697201396
 20
-22.8348637752
 10
46.741165548
 20
-22.7869493889
 10
46.7822915531
 20
-22.7365416072
 10
46.8203990176
 20
-22.6838699699
 10
46.8552777502
 20
-22.6292878934
 10
46.8867846974
 20
-22.5731500373
 10
46.9149827682
 20
-22.5154231289
 10
46.9399205225
 20
-22.4559049891
 10
46.9614935164
 20
-22.3946428514
 10
46.9795068552
 20
-22.3321037634
 10
46.9938684253
 20
-22.2687291132
 10
47.0045512516
 20
-22.2047581146
 10
47.0115390976
 20
-22.1402844595
 10
47.0148164016
 20
-22.0755256921
  0
LWPOLYLINE
  5
3D4
100
AcDbEntity
  8
RACCORDO
100
AcDbPolyline
 62
253
  6
CONTINUOUS
 90
31
 70
0
 10
46.8624392011
 20
-23.2368123465
 10
46.8951851978
 20
-23.2086337904
 10
46.9270766957
 20
-23.1795867538
 10
46.9581136965
 20
-23.1496712299
 10
46.988322037
 20
-23.118860022
 10
47.0176758813
 20
-23.0871803124
 10
47.0460977198
 20
-23.0547136631
 10
47.0735821937
 20
-23.0214576289
 10
47.1001346565
 20
-22.9874146412
 10
47.1256936648
 20
-22.9526735776
 10
47.150261844
 20
-22.9172295305
 10
47.1738365578
 20
-22.8810873946
 10
47.1963484677
 20
-22.8443507527
 10
47.2177872855
 20
-22.8070216499
 10
47.2381632829
 20
-22.7690980296
 10
47.2574379587
 20
-22.7306773235
 10
47.275595505
 20
-22.691799761
 10
47.2926517087
 20
-22.6524251032
 10
47.3086154596
 20
-22.6125300797
 10
47.3234974488
 20
-22.5721341753
 10
47.3372869611
 20
-22.5312178947
 10
47.3499607753
 20
-22.4896994962
 10
47.3615377417
 20
-22.4475752916
 10
47.3719989815
 20
-22.4048489564
 10
47.3812646775
 20
-22.3614497929
 10
47.389348839
 20
-22.3174043213
 10
47.3962374215
 20
-22.2726860069
 10
47.4018085229
 20
-22.2271445671
 10
47.4060214929
 20
-22.1807299005
 10
47.4089169356
 20
-22.1334920889
 10
47.4104948264
 20
-22.0854311227
  0
LWPOLYLINE
  5
3D5
100
AcDbEntity
  8
RACCORDO
100
AcDbPolyline
 62
253
  6
CONTINUOUS
 90
91
 70
0
 10
-53.7263019556
 20
42.4481959812
 10
-53.9917340538
 20
42.4188109382
 10
-54.2482698181
 20
42.387028202
 10
-54.4959103307
 20
42.3528474868
 10
-54.7343383999
 20
42.3159797354
 10
-54.9638732144
 20
42.2767133428
 10
-55.1854700555
 20
42.2359142972
 10
-55.3990719651
 20
42.1936699597
 10
-55.6047369317
 20
42.1498925093
 10
-55.8035921694
 20
42.1051853753
 10
-55.9958280296
 20
42.0595725803
 10
-56.1812546612
 20
42.0130298015
 10
-56.3604286692
 20
41.9660881361
 10
-56.5336663852
 20
41.9186911869
 10
-56.7006516498
 20
41.8708952165
 10
-56.8609920948
 20
41.8234005262
 10
-57.0138770048
 20
41.7764978194
 10
-57.1601169636
 20
41.7298965423
 10
-57.3017514538
 20
41.6834252035
 10
-57.4387135577
 20
41.6371909846
 10
-57.5710700898
 20
41.5910867708
 10
-57.701061203
 20
41.5446195132
 10
-57.8287728064
 20
41.4978426249
 10
-57.9541189922
 20
41.4507025867
 10
-58.0790823167
 20
41.4025457557
 10
-58.204179547
 20
41.35321938
 10
-58.3288940625
 20
41.3028758476
 10
-58.4536584292
 20
41.2513190734
 10
-58.5787497375
 20
41.1984378192
 10
-58.7038910629
 20
41.1443428694
 10
-58.8286839487
 20
41.0891711575
 10
-58.9531803722
 20
41.0328809246
 10
-59.0773284622
 20
40.9755135144
 10
-59.2005739388
 20
40.9173305895
 10
-59.3227647862
 20
40.8583887995
 10
-59.4440530406
 20
40.7986311859
 10
-59.5643404578
 20
40.7381490686
 10
-59.6828194311
 20
40.6773969098
 10
-59.8002975272
 20
40.6159200272
 10
-59.9190993728
 20
40.5524457668
 10
-60.0391983932
 20
40.4870934142
 10
-60.1606213718
 20
40.4197428339
 10
-60.2857732361
 20
40.348761567
 10
-60.4152767068
 20
40.2738926046
 10
-60.5485095677
 20
40.1953911263
 10
-60.6860095411
 20
40.1123922798
 10
-60.827922913
 20
40.0248740877
 10
-60.9741039695
 20
39.9328559708
 10
-61.124652516
 20
39.8355346018
 10
-61.2795973091
 20
39.732935083
 10
-61.4389101517
 20
39.6250288494
 10
-61.6026054547
 20
39.5109313848
 10
-61.7707048599
 20
39.3906711727
 10
-61.9431871698
 20
39.2642150887
 10
-62.1200025154
 20
39.1305853263
 10
-62.3011259033
 20
38.9899066727
 10
-62.4865824862
 20
38.8420482307
 10
-62.6763975128
 20
38.6856474202
 10
-62.870767242
 20
38.5206959107
 10
-63.069495046
 20
38.3471936991
 10
-63.2720165558
 20
38.1637890586
 10
-63.4794998103
 20
37.9692172548
 10
-63.6907753375
 20
37.7647315801
 10
-63.9017719181
 20
37.552757833
 10
-64.1132217361
 20
37.331893145
 10
-64.3243896316
 20
37.103531039
 10
-64.5290030939
 20
36.8742977963
 10
-64.7245519755
 20
36.6467033658
 10
-64.9135434451
 20
36.4182389844
 10
-65.0972311398
 20
36.1880067659
 10
-65.274918305
 20
35.9572861526
 10
-65.4472987428
 20
35.7247972216
 10
-65.6177113022
 20
35.4857994284
 10
-65.7861697783
 20
35.2412031437
 10
-65.9526558523
 20
34.9900913218
 10
-66.1204578869
 20
34.7249742366
 10
-66.2911105726
 20
34.4442888088
 10
-66.4630696564
 20
34.1495796512
 10
-66.6350017189
 20
33.8380111693
 10
-66.8074845406
 20
33.5088505219
 10
-66.9799250824
 20
33.1628069561
 10
-67.1492306268
 20
32.799205076
 10
-67.315491065
 20
32.4180644889
 10
-67.4785952215
 20
32.0193406952
 10
-67.6351455623
 20
31.6022609294
 10
-67.785323611
 20
31.1666671158
 10
-67.928919097
 20
30.712691737
 10
-68.0619431309
 20
30.2399972846
 10
-68.1830533614
 20
29.7484632201
 10
-68.2935553084
 20
29.2381864256
 10
-68.3934293507
 20
28.7091561147
  0
LWPOLYLINE
  5
3D6
100
AcDbEntity
  8
RACCORDO
100
AcDbPolyline
 62
253
  6
CONTINUOUS
 90
91
 70
0
 10
-53.7423451996
 20
42.6925728221
 10
-54.0122271097
 20
42.6633660343
 10
-54.2731778412
 20
42.630938553
 10
-54.5251379031
 20
42.5956872126
 10
-54.7676804225
 20
42.5580648651
 10
-55.0011242015
 20
42.5184083396
 10
-55.2265387318
 20
42.4768824052
 10
-55.4437906753
 20
42.4338308803
 10
-55.6529297961
 20
42.3895582168
 10
-55.8552512879
 20
42.3440764281
 10
-56.0508143148
 20
42.297625489
 10
-56.2393263934
 20
42.2505204861
 10
-56.4215408613
 20
42.2027991194
 10
-56.5977629396
 20
42.1545802102
 10
-56.7675678461
 20
42.1061736864
 10
-56.9306383961
 20
42.0578691357
 10
-57.0861658109
 20
42.0101176393
 10
-57.2349340773
 20
41.9628836703
 10
-57.3790184111
 20
41.9156634125
 10
-57.5183351318
 20
41.8686154256
 10
-57.652964291
 20
41.8218480512
 10
-57.7851963189
 20
41.7746623443
 10
-57.9150773192
 20
41.7271027658
 10
-58.0425366761
 20
41.6792546773
 10
-58.1696449013
 20
41.6303710446
 10
-58.2968691967
 20
41.5802662296
 10
-58.4236695966
 20
41.5291466964
 10
-58.5505717616
 20
41.4767930997
 10
-58.6778113231
 20
41.423088553
 10
-58.8050597249
 20
41.3681516322
 10
-58.9319911751
 20
41.3121105902
 10
-59.0586604972
 20
41.2549311881
 10
-59.1849454982
 20
41.1966592878
 10
-59.3102916884
 20
41.1375533416
 10
-59.4345906061
 20
41.0776780641
 10
-59.5579935712
 20
41.016974299
 10
-59.6803525226
 20
40.9555293346
 10
-59.8008491906
 20
40.8937842389
 10
-59.9203578485
 20
40.8313212005
 10
-60.0412312437
 20
40.7668915629
 10
-60.1633717783
 20
40.7004929788
 10
-60.286845165
 20
40.6320351987
 10
-60.4141667098
 20
40.5600254163
 10
-60.5458772973
 20
40.4840036634
 10
-60.6813194823
 20
40.4041905789
 10
-60.8211641253
 20
40.3200087108
 10
-60.9655376011
 20
40.2311570713
 10
-61.114225569
 20
40.1375292529
 10
-61.2673871525
 20
40.0387734502
 10
-61.4250578186
 20
39.9345958116
 10
-61.5871604993
 20
39.8247626117
 10
-61.7536975547
 20
39.7089754094
 10
-61.924613343
 20
39.5869633772
 10
-62.0999946226
 20
39.45834172
 10
-62.2800318804
 20
39.3226272402
 10
-62.4642358063
 20
39.1798293376
 10
-62.6526095586
 20
39.0295632993
 10
-62.8458688534
 20
38.8708049641
 10
-63.0436372794
 20
38.7033393212
 10
-63.2454444141
 20
38.5270009996
 10
-63.4517281906
 20
38.340758719
 10
-63.6630962484
 20
38.1432681815
 10
-63.8777236572
 20
37.9354966563
 10
-64.0924528429
 20
37.7200175782
 10
-64.3079200858
 20
37.4957771822
 10
-64.5225693111
 20
37.2639619449
 10
-64.730451028
 20
37.0309489817
 10
-64.9294279309
 20
36.7995525795
 10
-65.1217770934
 20
36.5675233448
 10
-65.3085690051
 20
36.3337723028
 10
-65.4891536995
 20
36.0993241121
 10
-65.6645794081
 20
35.8630372194
 10
-65.838156665
 20
35.6203754538
 10
-66.0092790613
 20
35.3719064067
 10
-66.1783694623
 20
35.1166938501
 10
-66.3496014482
 20
34.8475820778
 10
-66.5233312293
 20
34.5625391713
 10
-66.6977254802
 20
34.2629771334
 10
-66.8731048558
 20
33.946588279
 10
-67.0488692416
 20
33.6123433523
 10
-67.2236353888
 20
33.2606409884
 10
-67.3963385659
 20
32.8912783894
 10
-67.5658067597
 20
32.504215502
 10
-67.7309667353
 20
32.0990966252
 10
-67.8907885759
 20
31.6753124731
 10
-68.0439706768
 20
31.232849858
 10
-68.1891683471
 20
30.7717057363
 10
-68.3251176626
 20
30.2913796509
 10
-68.4503715975
 20
29.7917748972
 10
-68.5633718329
 20
29.2732025857
 10
-68.6625650827
 20
28.7358459546
  0
LWPOLYLINE
  5
3D7
100
AcDbEntity
  8
DRAFT
100
AcDbPolyline
 62
7
  6
CONTINUOUS
 90
9
 70
0
 10
-53.7607033941
 20
42.8708883466
 10
-53.2059013916
 20
42.9250092898
 10
-52.6509019016
 20
42.9763345541
 10
-52.0957040351
 20
43.0248647035
 10
-51.5402918768
 20
43.0706012646
 10
-50.9846794936
 20
43.1135437514
 10
-50.4289109392
 20
43.1536896655
 10
-49.8730002439
 20
43.1910384623
 10
-49.3169314113
 20
43.2255915503
  0
LWPOLYLINE
  5
3D8
100
AcDbEntity
  8
RACCORDO
100
AcDbPolyline
 62
253
  6
CONTINUOUS
 90
9
 70
0
 10
-49.2995949104
 20
42.8019631063
 10
-49.8543622388
 20
42.7674439956
 10
-50.4087242253
 20
42.7301502101
 10
-50.9626867562
 20
42.6900776307
 10
-51.5162458159
 20
42.6472295615
 10
-52.0693874787
 20
42.6016167325
 10
-52.6221076809
 20
42.5532423951
 10
-53.1744122269
 20
42.5021023211
 10
-53.7263019556
 20
42.4481959812
  0
LWPOLYLINE
  5
3D9
100
AcDbEntity
  8
RACCORDO
100
AcDbPolyline
 62
253
  6
CONTINUOUS
 90
9
 70
0
 10
-49.3067661625
 20
43.0466056924
 10
-49.8626497452
 20
43.0120590948
 10
-50.418140792
 20
42.9747314808
 10
-50.9732161892
 20
42.9346276484
 10
-51.5278722523
 20
42.8917511468
 10
-52.0821237237
 20
42.8461038009
 10
-52.6359669323
 20
42.7976885813
 10
-53.1893788486
 20
42.7465102303
 10
-53.7423451989
 20
42.6925728158
  0
LINE
  5
3DA
100
AcDbEntity
  8
RACCORDO
100
AcDbLine
 62
253
  6
CONTINUOUS
 10
-48.1710746744
 20
42.86485793
 11
-49.2995949104
 21
42.8019631063
  0
LINE
  5
3DB
100
AcDbEntity
  8
RACCORDO
100
AcDbLine
 62
253
  6
CONTINUOUS
 10
-48.1773528199
 20
43.1094646051
 11
-49.3067661625
 21
43.0466056924
  0
LINE
  5
3DC
100
AcDbEntity
  8
DRAFT
100
AcDbLine
 62
7
  6
CONTINUOUS
 10
-49.3169314113
 20
43.2255915503
 11
-48.1793005887
 21
43.2888959658
  0
LINE
  5
3DD
100
AcDbEntity
  8
DRAFT
100
AcDbLine
 62
7
  6
CONTINUOUS
 10
-48.1793005887
 20
43.2888959658
 11
-46.4345834066
 21
43.3813573766
  0
LINE
  5
3DE
100
AcDbEntity
  8
RACCORDO
100
AcDbLine
 62
253
  6
CONTINUOUS
 10
-45.3031145256
 20
43.0153017447
 11
-48.1710746744
 21
42.86485793
  0
LINE
  5
3DF
100
AcDbEntity
  8
RACCORDO
100
AcDbLine
 62
253
  6
CONTINUOUS
 10
-45.3103717774
 20
43.2596559533
 11
-48.1773528199
 21
43.1094646051
  0
LINE
  5
3E0
100
AcDbEntity
  8
DRAFT
100
AcDbLine
 62
7
  6
CONTINUOUS
 10
-46.4345834066
 20
43.3813573766
 11
-44.6891260015
 21
43.4705497338
  0
LINE
  5
3E1
100
AcDbEntity
  8
DRAFT
100
AcDbLine
 62
7
  6
CONTINUOUS
 10
-44.6891260015
 20
43.4705497338
 11
-43.5250928993
 21
43.5281930318
  0
LINE
  5
3E2
100
AcDbEntity
  8
RACCORDO
100
AcDbLine
 62
253
  6
CONTINUOUS
 10
-43.5085097228
 20
43.1048904662
 11
-45.3031145256
 21
43.0153017447
  0
LINE
  5
3E3
100
AcDbEntity
  8
RACCORDO
100
AcDbLine
 62
253
  6
CONTINUOUS
 10
-43.5163370719
 20
43.3490939346
 11
-45.3103717774
 21
43.2596559533
  0
LINE
  5
3E4
100
AcDbEntity
  8
RACCORDO
100
AcDbLine
 62
253
  6
CONTINUOUS
 10
-41.5518487201
 20
43.1988768081
 11
-43.5085097228
 21
43.1048904662
  0
LINE
  5
3E5
100
AcDbEntity
  8
RACCORDO
100
AcDbLine
 62
253
  6
CONTINUOUS
 10
-41.5593045666
 20
43.442648353
 11
-43.5163370719
 21
43.3490939346
  0
LWPOLYLINE
  5
3E6
100
AcDbEntity
  8
DRAFT
100
AcDbPolyline
 62
7
  6
CONTINUOUS
 90
16
 70
0
 10
-43.5250928993
 20
43.5281930318
 10
-37.5237847709
 20
43.8022394679
 10
-31.5167260223
 20
44.0371871884
 10
-25.5039135415
 20
44.2330734669
 10
-19.4839414139
 20
44.3900331089
 10
-13.4582018296
 20
44.5079882954
 10
-7.430885229
 20
44.5866485717
 10
-1.4023091696
 20
44.6259237571
 10
4.6278672646
 20
44.6259236952
 10
10.6564428116
 20
44.5866484013
 10
16.68375852
 20
44.5079880251
 10
22.7094966996
 20
44.3900327536
 10
28.7294665127
 20
44.2330730912
 10
34.7422756362
 20
44.0371868733
 10
40.7493301175
 20
43.8022392781
 10
46.7506330687
 20
43.5281930318
  0
LINE
  5
3E7
100
AcDbEntity
  8
RACCORDO
100
AcDbLine
 62
253
  6
CONTINUOUS
 10
-39.3704419923
 20
43.5423631179
 11
-41.5593045666
 21
43.442648353
  0
LWPOLYLINE
  5
3E8
100
AcDbEntity
  8
RACCORDO
100
AcDbPolyline
 62
253
  6
CONTINUOUS
 90
4
 70
0
 10
-36.945108428
 20
43.4028154322
 10
-38.1820257546
 20
43.3503339552
 10
-39.3633266628
 20
43.2984349803
 10
-41.5518487201
 20
43.1988768081
  0
LWPOLYLINE
  5
3E9
100
AcDbEntity
  8
RACCORDO
100
AcDbPolyline
 62
253
  6
CONTINUOUS
 90
46
 70
0
 10
45.3885743054
 20
43.4142307077
 10
43.9911047386
 20
43.4794081855
 10
42.5494437441
 20
43.5444267523
 10
41.066010099
 20
43.6089758953
 10
39.5383336087
 20
43.6729557048
 10
37.9590501944
 20
43.7364365141
 10
36.328107234
 20
43.7991553842
 10
34.6454894995
 20
43.860839241
 10
32.9038777631
 20
43.9214540367
 10
31.103229546
 20
43.9806674276
 10
29.2435006245
 20
44.0381357264
 10
27.3173589478
 20
44.0937070254
 10
25.3231960908
 20
44.1470082944
 10
23.2625940812
 20
44.1975634577
 10
21.1330231348
 20
44.2449833042
 10
18.9143223486
 20
44.2891696307
 10
16.6266799728
 20
44.3291534614
 10
14.3281313502
 20
44.3636270629
 10
12.0293945704
 20
44.3923880375
 10
9.7198835019
 20
44.4155264394
 10
7.4257038988
 20
44.4327973876
 10
5.1525282687
 20
44.4442946662
 10
2.8947739442
 20
44.4501817615
 10
0.6616543321
 20
44.450581345
 10
-1.5467940888
 20
44.4456720946
 10
-3.7305316109
 20
44.4356308206
 10
-5.8803441963
 20
44.4207066401
 10
-7.9960202115
 20
44.4011376983
 10
-10.0777077792
 20
44.3771562342
 10
-12.1167327352
 20
44.3491214135
 10
-14.1115966701
 20
44.3173417953
 10
-16.0637354072
 20
44.2820760799
 10
-17.9688872045
 20
44.2436846931
 10
-19.8263495106
 20
44.2024740288
 10
-21.6367978039
 20
44.1587140153
 10
-23.3980480447
 20
44.1127389054
 10
-25.1101107917
 20
44.0648288211
 10
-26.7729803366
 20
44.0152564058
 10
-28.3844720088
 20
43.9643573366
 10
-29.944629191
 20
43.9123988889
 10
-31.4534759505
 20
43.8596402649
 10
-32.908808436
 20
43.8064148451
 10
-34.3106576788
 20
43.7529744237
 10
-35.6590549231
 20
43.6995614461
 10
-36.9517971546
 20
43.64650188
 10
-39.3704419923
 20
43.5423631179
  0
LWPOLYLINE
  5
3EA
100
AcDbEntity
  8
RACCORDO
100
AcDbPolyline
 62
253
  6
CONTINUOUS
 90
44
 70
0
 10
45.3810235242
 20
43.1704845896
 10
43.9837883627
 20
43.2357086887
 10
42.5423436764
 20
43.3005628425
 10
41.059162452
 20
43.3651833976
 10
39.531770572
 20
43.4294341421
 10
37.9527463673
 20
43.4929064198
 10
36.3220795342
 20
43.5556785997
 10
34.639778978
 20
43.6176726598
 10
32.8984510773
 20
43.6782456169
 10
31.0980910783
 20
43.7374885381
 10
29.2387021468
 20
43.7953109949
 10
27.3129015513
 20
43.8507981182
 10
25.3190684779
 20
43.9040784203
 10
23.258821952
 20
43.9550243689
 10
21.129637787
 20
44.0023374744
 10
18.9113050326
 20
44.0462109905
 10
16.624032571
 20
44.0864529629
 10
14.3259254033
 20
44.1211875812
 10
12.0276149597
 20
44.1498616657
 10
9.7184686359
 20
44.1730298521
 10
7.4246954191
 20
44.1904781948
 10
5.151932406
 20
44.2019974516
 10
2.8945414688
 20
44.2077975444
 10
0.6618190752
 20
44.2082930855
 10
-1.5462308944
 20
44.2034013769
 10
-3.7296133763
 20
44.1932050215
 10
-5.8790446011
 20
44.1783664288
 10
-7.9943421519
 20
44.1588142345
 10
-10.0756895414
 20
44.1346191529
 10
-12.114351265
 20
44.1066566931
 10
-14.1088515496
 20
44.0749084681
 10
-16.060667314
 20
44.0393919568
 10
-17.965491409
 20
44.0010366007
 10
-19.822619991
 20
43.9598520462
 10
-21.6327580668
 20
43.9158277457
 10
-23.3937110825
 20
43.8698630938
 10
-25.1054648456
 20
43.8219652767
 10
-26.7680347219
 20
43.772126391
 10
-28.379269887
 20
43.7212235089
 10
-29.9391674465
 20
43.6692671958
 10
-31.4477314969
 20
43.6162464669
 10
-32.9028211902
 20
43.5630064153
 10
-34.3044382432
 20
43.5095616047
 10
-36.945108428
 20
43.4028154322
  0
LINE
  5
3EB
100
AcDbEntity
  8
RACCORDO
100
AcDbLine
 62
253
  6
CONTINUOUS
 10
48.5359119508
 20
43.2596559531
 11
45.3885743054
 21
43.4142307077
  0
LINE
  5
3EC
100
AcDbEntity
  8
DRAFT
100
AcDbLine
 62
7
  6
CONTINUOUS
 10
46.7506330687
 20
43.5281930318
 11
48.4965649224
 21
43.4411827429
  0
LINE
  5
3ED
100
AcDbEntity
  8
RACCORDO
100
AcDbLine
 62
253
  6
CONTINUOUS
 10
49.1024054891
 20
42.9859208485
 11
45.3810235242
 21
43.1704845896
  0
LINE
  5
3EE
100
AcDbEntity
  8
DRAFT
100
AcDbLine
 62
7
  6
CONTINUOUS
 10
48.4965649224
 20
43.4411827429
 11
50.2417798198
 21
43.3508998473
  0
LINE
  5
3EF
100
AcDbEntity
  8
RACCORDO
100
AcDbLine
 62
253
  6
CONTINUOUS
 10
51.4028929446
 20
43.1094646075
 11
48.5359119508
 21
43.2596559531
  0
LINE
  5
3F0
100
AcDbEntity
  8
RACCORDO
100
AcDbLine
 62
253
  6
CONTINUOUS
 10
51.9699614494
 20
42.8337079071
 11
49.1024054891
 21
42.9859208485
  0
LINE
  5
3F1
100
AcDbEntity
  8
DRAFT
100
AcDbLine
 62
7
  6
CONTINUOUS
 10
50.2417798198
 20
43.3508998473
 11
51.9862435996
 21
43.2573493159
  0
LWPOLYLINE
  5
3F2
100
AcDbEntity
  8
DRAFT
100
AcDbPolyline
 62
7
  6
CONTINUOUS
 90
10
 70
0
 10
51.9862435996
 20
43.2573493159
 10
52.5426714118
 20
43.2255783621
 10
53.0988894581
 20
43.1910148721
 10
53.654898753
 20
43.1536584598
 10
54.2107144276
 20
43.1135070371
 10
54.7663233248
 20
43.0705618289
 10
55.3216839994
 20
43.0248273737
 10
55.8767832552
 20
42.9763048383
 10
56.4316361416
 20
42.9249920172
 10
56.9862435505
 20
42.8708883478
  0
LWPOLYLINE
  5
3F3
100
AcDbEntity
  8
RACCORDO
100
AcDbPolyline
 62
253
  6
CONTINUOUS
 90
10
 70
0
 10
56.9678759079
 20
42.6925737626
 10
56.4146098404
 20
42.7465396053
 10
55.8609729152
 20
42.797736629
 10
55.3069795121
 20
42.8461618942
 10
54.7526523869
 20
42.8918118182
 10
54.1979956586
 20
42.9346845281
 10
53.6429957587
 20
42.9747792533
 10
53.0876568028
 20
43.0120935707
 10
52.5320015892
 20
43.046623861
 10
51.4028929446
 20
43.1094646075
  0
LWPOLYLINE
  5
3F4
100
AcDbEntity
  8
RACCORDO
100
AcDbPolyline
 62
253
  6
CONTINUOUS
 90
10
 70
0
 10
56.951842125
 20
42.4481959812
 10
56.3996480339
 20
42.5021293497
 10
55.8471151399
 20
42.5532888308
 10
55.2942426089
 20
42.6016749553
 10
54.741024554
 20
42.6472908048
 10
54.1874651292
 20
42.6901342775
 10
53.6335785268
 20
42.7301980894
 10
53.0793688559
 20
42.7674800851
 10
52.5248301484
 20
42.8019832359
 10
51.9699614494
 20
42.8337079071
  0
LWPOLYLINE
  5
3F5
100
AcDbEntity
  8
DRAFT
100
AcDbPolyline
 62
7
  6
CONTINUOUS
 90
46
 70
0
 10
56.9862435505
 20
42.8708883478
 10
57.4343086614
 20
42.8215832447
 10
57.8907420995
 20
42.7570766276
 10
58.3555508582
 20
42.6773646318
 10
58.8332880739
 20
42.581798089
 10
59.3194142907
 20
42.4710156019
 10
59.8002970022
 20
42.3469444892
 10
60.2751279381
 20
42.2083838941
 10
60.7447265385
 20
42.0565209657
 10
61.1978983103
 20
41.8968681534
 10
61.6255936198
 20
41.7331507003
 10
62.0368639591
 20
41.5616357631
 10
62.4476657555
 20
41.3766479314
 10
62.8623896345
 20
41.1774719989
 10
63.2766499615
 20
40.9648043312
 10
63.6932413998
 20
40.7350796248
 10
64.1174049306
 20
40.4848133815
 10
64.5439035186
 20
40.2174599526
 10
64.959812341
 20
39.9398649041
 10
65.363728716
 20
39.6511044527
 10
65.7570495742
 20
39.3520839831
 10
66.1310448478
 20
39.0524089314
 10
66.4790620407
 20
38.7578968831
 10
66.807743211
 20
38.4627356678
 10
67.1282998301
 20
38.1590882726
 10
67.4429232103
 20
37.8464229955
 10
67.7494135654
 20
37.5252575449
 10
68.0523958671
 20
37.1893150921
 10
68.3539692224
 20
36.8370816284
 10
68.6520218393
 20
36.4700433663
 10
68.9448599761
 20
36.0864153498
 10
69.2326981287
 20
35.6860645888
 10
69.5153022269
 20
35.2690928508
 10
69.7903021851
 20
34.8340637091
 10
70.0584267265
 20
34.3796789794
 10
70.318918604
 20
33.9072018794
 10
70.5671761195
 20
33.4190396987
 10
70.8036143671
 20
32.9121401075
 10
71.0277829061
 20
32.3895272211
 10
71.2337875286
 20
31.8627409294
 10
71.4202854822
 20
31.3309039428
 10
71.5885961623
 20
30.7948983087
 10
71.7368370977
 20
30.2689335003
 10
71.8643867539
 20
29.7577646835
 10
71.9718717731
 20
29.256674998
 10
72.0592942168
 20
28.7656803271
  0
LWPOLYLINE
  5
3F6
100
AcDbEntity
  8
RACCORDO
100
AcDbPolyline
 62
7
  6
CONTINUOUS
 90
13
 70
0
 10
46.6012191531
 20
22.1845097937
 10
46.5522577003
 20
22.2221872348
 10
46.5012962473
 20
22.2571132466
 10
46.4485127241
 20
22.289169856
 10
46.3941034626
 20
22.3182485708
 10
46.3381499959
 20
22.3443125582
 10
46.2806132298
 20
22.3673611815
 10
46.2216620086
 20
22.3872867119
 10
46.1616217896
 20
22.4039502542
 10
46.1005820791
 20
22.4172933921
 10
46.0386437204
 20
22.4272541754
 10
45.9759757836
 20
22.4337683776
 10
45.9127700849
 20
22.436772766
  0
LWPOLYLINE
  5
3F7
100
AcDbEntity
  8
RACCORDO
100
AcDbPolyline
 62
253
  6
CONTINUOUS
 90
25
 70
0
 10
46.8624392011
 20
22.4985890331
 10
46.8301233852
 20
22.5249147859
 10
46.7970531491
 20
22.5503698464
 10
46.7632284944
 20
22.5749542206
 10
46.7285995647
 20
22.5987098144
 10
46.693216219
 20
22.6215947332
 10
46.6572280318
 20
22.6434832832
 10
46.6206421238
 20
22.6643528898
 10
46.5834513754
 20
22.6842261393
 10
46.545784
 20
22.7030450791
 10
46.5076699501
 20
22.7207943348
 10
46.4690792729
 20
22.7374892915
 10
46.4300503232
 20
22.7531181365
 10
46.3905904488
 20
22.7676856697
 10
46.3506923
 20
22.7811871001
 10
46.3103721855
 20
22.7935962278
 10
46.269626939
 20
22.8049188826
 10
46.2284597233
 20
22.8151492418
 10
46.18689634
 20
22.824243627
 10
46.1449393857
 20
22.8322044988
 10
46.1025862587
 20
22.8390294019
 10
46.0598549627
 20
22.8446672841
 10
46.0167514965
 20
22.8491011291
 10
45.9732698545
 20
22.8523479565
 10
45.9294100327
 20
22.8544077675
  0
LINE
  5
3F8
100
AcDbEntity
  8
RACCORDO
100
AcDbLine
 62
253
  6
CONTINUOUS
 10
56.9862435996
 20
-43.6091116567
 11
56.967885369
 21
-43.4307961355
  0
LINE
  5
3F9
100
AcDbEntity
  8
RACCORDO
100
AcDbLine
 62
253
  6
CONTINUOUS
 10
56.951842125
 20
-43.1864192946
 11
56.956410703
 21
-43.2363752976
  0
LINE
  5
3FA
100
AcDbEntity
  8
RACCORDO
100
AcDbLine
 62
253
  6
CONTINUOUS
 10
56.956410703
 20
-43.2363752976
 11
56.9604055735
 21
-43.2832380313
  0
LWPOLYLINE
  5
3FB
100
AcDbEntity
  8
RACCORDO
100
AcDbPolyline
 62
253
  6
CONTINUOUS
 90
11
 70
0
 10
56.9604055735
 20
-43.2832380313
 10
56.9637066138
 20
-43.3255983693
 10
56.9650650277
 20
-43.3446857265
 10
56.9662145641
 20
-43.3621825687
 10
56.9671465654
 20
-43.3779571188
 10
56.9678540121
 20
-43.3918905707
 10
56.9683315762
 20
-43.403877985
 10
56.9685756609
 20
-43.4138290785
 10
56.9685844278
 20
-43.4216689046
 10
56.9683578109
 20
-43.4273384178
 10
56.9678975169
 20
-43.4307949183
  0
LWPOLYLINE
  5
3FC
100
AcDbEntity
  8
RACCORDO
100
AcDbPolyline
 62
253
  6
CONTINUOUS
 90
11
 70
0
 10
51.974283301
 20
-43.6689835625
 10
51.9757874176
 20
-43.7114197323
 10
51.976353204
 20
-43.7305340174
 10
51.9767888157
 20
-43.7480503054
 10
51.9770909738
 20
-43.7638367615
 10
51.9772574044
 20
-43.7777745706
 10
51.9772868547
 20
-43.789758831
 10
51.9771791031
 20
-43.7996993443
 10
51.9769349605
 20
-43.8075212942
 10
51.9765562646
 20
-43.8131658095
 10
51.9760458655
 20
-43.8165904074
  0
LWPOLYLINE
  5
3FD
100
AcDbEntity
  8
RACCORDO
100
AcDbPolyline
 62
253
  6
CONTINUOUS
 90
9
 70
0
 10
51.9763532041
 20
42.992310704
 10
51.9767888157
 20
43.0098269919
 10
51.9770909739
 20
43.0256134481
 10
51.9772574044
 20
43.0395512571
 10
51.9772868547
 20
43.0515355175
 10
51.9771791031
 20
43.0614760308
 10
51.9769349605
 20
43.0692979807
 10
51.9765562646
 20
43.0749424961
 10
51.9760458655
 20
43.078367094
  0
LWPOLYLINE
  5
3FE
100
AcDbEntity
  8
RACCORDO
100
AcDbPolyline
 62
253
  6
CONTINUOUS
 90
3
 70
0
 10
51.974283301
 20
42.930760249
 10
51.9750957146
 20
42.9526279985
 10
51.9763532041
 20
42.992310704
  0
LWPOLYLINE
  5
3FF
100
AcDbEntity
  8
RACCORDO
100
AcDbPolyline
 62
253
  6
CONTINUOUS
 90
10
 70
0
 10
56.9637066114
 20
42.5873750535
 10
56.965065025
 20
42.6064624102
 10
56.9662145613
 20
42.6239592521
 10
56.9671465626
 20
42.6397338017
 10
56.9678540094
 20
42.6536672533
 10
56.9683315737
 20
42.6656546672
 10
56.9685756586
 20
42.6756057604
 10
56.968584426
 20
42.6834455862
 10
56.9683578096
 20
42.6891150992
 10
56.9678975164
 20
42.6925715994
  0
LINE
  5
400
100
AcDbEntity
  8
RACCORDO
100
AcDbLine
 62
253
  6
CONTINUOUS
 10
56.9604055717
 20
42.5450147163
 11
56.9637066114
 21
42.5873750535
  0
LINE
  5
401
100
AcDbEntity
  8
RACCORDO
100
AcDbLine
 62
253
  6
CONTINUOUS
 10
56.956410702
 20
42.4981519834
 11
56.9604055717
 21
42.5450147163
  0
LINE
  5
402
100
AcDbEntity
  8
RACCORDO
100
AcDbLine
 62
253
  6
CONTINUOUS
 10
56.951842125
 20
42.4481959812
 11
56.956410702
 21
42.4981519834
  0
LINE
  5
403
100
AcDbEntity
  8
RACCORDO
100
AcDbLine
 62
253
  6
CONTINUOUS
 10
56.9862435996
 20
42.8708883433
 11
56.9678759086
 21
42.6925737691
  0
LINE
  5
404
100
AcDbEntity
  8
RACCORDO
100
AcDbLine
 62
253
  6
CONTINUOUS
 10
72.1685211368
 20
24.5715175247
 11
72.1059617092
 21
25.1754177194
  0
LINE
  5
405
100
AcDbEntity
  8
RACCORDO
100
AcDbLine
 62
253
  6
CONTINUOUS
 10
72.440007344
 20
24.586741624
 11
72.3772300546
 21
25.1917960899
  0
LINE
  5
406
100
AcDbEntity
  8
DRAFT
100
AcDbLine
 62
7
  6
CONTINUOUS
 10
72.549394351
 20
25.2112338994
 11
72.6153881172
 21
24.5735229452
  0
LINE
  5
407
100
AcDbEntity
  8
RACCORDO
100
AcDbLine
 62
253
  6
CONTINUOUS
 10
72.2380736453
 20
23.8685472292
 11
72.1685211368
 21
24.5715175247
  0
LINE
  5
408
100
AcDbEntity
  8
RACCORDO
100
AcDbLine
 62
253
  6
CONTINUOUS
 10
72.5096046949
 20
23.8840624236
 11
72.440007344
 21
24.586741624
  0
LINE
  5
409
100
AcDbEntity
  8
DRAFT
100
AcDbLine
 62
7
  6
CONTINUOUS
 10
72.6153881172
 20
24.5735229452
 11
72.6819172481
 21
23.9008699021
  0
LWPOLYLINE
  5
40A
100
AcDbEntity
  8
DRAFT
100
AcDbPolyline
 62
7
  6
CONTINUOUS
 90
19
 70
0
 10
72.6819172481
 20
23.9008699021
 10
72.9295668848
 20
21.2110823129
 10
73.1481829189
 20
18.5190913355
 10
73.3377218599
 20
15.8249748183
 10
73.4981400015
 20
13.1284086435
 10
73.6294100757
 20
10.4298733936
 10
73.7315231973
 20
7.7306548824
 10
73.8044550326
 20
5.0311133772
 10
73.8481960426
 20
2.331047323
 10
73.8627700847
 20
-0.3690995644
 10
73.8481961946
 20
-3.0692488789
 10
73.8044553315
 20
-5.7693200767
 10
73.731523585
 20
-8.4688662357
 10
73.6294104666
 20
-11.1680878147
 10
73.4981403402
 20
-13.8666256422
 10
73.3377221289
 20
-16.5631939868
 10
73.1481831142
 20
-19.2573122934
 10
72.9295669902
 20
-21.9493046524
 10
72.6819172481
 20
-24.6390932156
  0
LWPOLYLINE
  5
40B
100
AcDbEntity
  8
RACCORDO
100
AcDbPolyline
 62
253
  6
CONTINUOUS
 90
19
 70
0
 10
72.238075147
 20
-24.6067551509
 10
72.4854015541
 20
-21.9212252414
 10
72.7037381629
 20
-19.233547356
 10
72.8930421049
 20
-16.5437983164
 10
73.0532682552
 20
-13.8519463133
 10
73.1843920919
 20
-11.1581776097
 10
73.2864102239
 20
-8.4628966824
 10
73.359316432
 20
-5.7658908527
 10
73.4030805428
 20
-3.0675290156
 10
73.417673566
 20
-0.3690886167
 10
73.4030800298
 20
2.3293519614
 10
73.3593154059
 20
5.027713846
 10
73.2864087449
 20
7.7247188559
 10
73.1843901962
 20
10.4199980563
 10
73.0532660056
 20
13.1137641664
 10
72.8930397022
 20
15.8056120962
 10
72.7037358552
 20
18.4953553789
 10
72.4853995463
 20
21.1830260299
 10
72.2380736453
 20
23.8685472292
  0
LWPOLYLINE
  5
40C
100
AcDbEntity
  8
RACCORDO
100
AcDbPolyline
 62
253
  6
CONTINUOUS
 90
19
 70
0
 10
72.5096061976
 20
-24.6222703344
 10
72.7570910197
 20
-21.9354110626
 10
72.9755455419
 20
-19.2459307344
 10
73.1649409349
 20
-16.554141186
 10
73.3252428479
 20
-13.8604883775
 10
73.456440807
 20
-11.1651588498
 10
73.5585289006
 20
-8.4680747564
 10
73.6314835016
 20
-5.7692643292
 10
73.675269368
 20
-3.0693383149
 10
73.6898657064
 20
-0.369092764
 10
73.6752689572
 20
2.331152995
 10
73.6314826779
 20
5.031079108
 10
73.5585276908
 20
7.7298887365
 10
73.4564392835
 20
10.4269707529
 10
73.3252411036
 20
13.1222973093
 10
73.1649390685
 20
15.8159466127
 10
72.9755436604
 20
18.5077322433
 10
72.7570892538
 20
21.1972081248
 10
72.5096046949
 20
23.8840624236
  0
LINE
  5
40D
100
AcDbEntity
  8
RACCORDO
100
AcDbLine
 62
253
  6
CONTINUOUS
 10
72.1523185267
 20
-25.4706801055
 11
72.238075147
 21
-24.6067551509
  0
LINE
  5
40E
100
AcDbEntity
  8
DRAFT
100
AcDbLine
 62
7
  6
CONTINUOUS
 10
72.6819172481
 20
-24.6390932156
 11
72.5960453655
 21
-25.5039036413
  0
LINE
  5
40F
100
AcDbEntity
  8
RACCORDO
100
AcDbLine
 62
253
  6
CONTINUOUS
 10
72.4237946993
 20
-25.4857881787
 11
72.5096061976
 21
-24.6222703344
  0
LWPOLYLINE
  5
410
100
AcDbEntity
  8
DRAFT
100
AcDbPolyline
 62
7
  6
CONTINUOUS
 90
10
 70
0
 10
72.5960453655
 20
-25.5039036413
 10
72.5493944944
 20
-25.949455989
 10
72.4994944238
 20
-26.3947568041
 10
72.4463463173
 20
-26.8398018055
 10
72.3899524295
 20
-27.2846074032
 10
72.3303129959
 20
-27.7291486485
 10
72.2674262872
 20
-28.1733592787
 10
72.2012927307
 20
-28.6172144331
 10
72.1319148547
 20
-29.0607306086
 10
72.0592942168
 20
-29.5039036405
  0
LWPOLYLINE
  5
411
100
AcDbEntity
  8
RACCORDO
100
AcDbPolyline
 62
253
  6
CONTINUOUS
 90
9
 70
0
 10
72.3772300546
 20
25.1917960899
 10
72.3274254895
 20
25.6358179755
 10
72.2743803793
 20
26.0796081872
 10
72.2180930216
 20
26.5231531478
 10
72.1585647542
 20
26.9664177993
 10
72.0958002289
 20
27.4093469505
 10
72.0298019757
 20
27.8519056366
 10
71.9605697796
 20
28.294080391
 10
71.8881048231
 20
28.7358483233
  0
LWPOLYLINE
  5
412
100
AcDbEntity
  8
RACCORDO
100
AcDbPolyline
 62
253
  6
CONTINUOUS
 90
9
 70
0
 10
72.1059617092
 20
25.1754177194
 10
72.056375874
 20
25.6181331112
 10
72.0035621397
 20
26.0605988878
 10
71.9475214935
 20
26.5028394685
 10
71.8882553383
 20
26.944822293
 10
71.8257655641
 20
27.386457881
 10
71.7600537849
 20
27.8277137804
 10
71.6911212656
 20
28.2686145085
 10
71.6189695201
 20
28.7091561147
  0
LWPOLYLINE
  5
413
100
AcDbEntity
  8
RACCORDO
100
AcDbPolyline
 62
253
  6
CONTINUOUS
 90
10
 70
0
 10
71.6189695201
 20
-29.4473794281
 10
71.6911213399
 20
-29.0068373171
 10
71.7600539135
 20
-28.565936208
 10
71.8257657271
 20
-28.1246800515
 10
71.8882555139
 20
-27.6830443276
 10
71.9475216622
 20
-27.2410614911
 10
72.0035622866
 20
-26.7988210315
 10
72.0563759863
 20
-26.3563555117
 10
72.1059617725
 20
-25.9136405098
 10
72.1523185267
 20
-25.4706801055
  0
LWPOLYLINE
  5
414
100
AcDbEntity
  8
RACCORDO
100
AcDbPolyline
 62
253
  6
CONTINUOUS
 90
10
 70
0
 10
71.8881052214
 20
-29.4740692627
 10
71.960569814
 20
-29.0323034896
 10
72.0298017607
 20
-28.5901303569
 10
72.0957998669
 20
-28.1475727534
 10
72.1585643449
 20
-27.7046440793
 10
72.2180926427
 20
-27.2613793624
 10
72.274380073
 20
-26.8178339863
 10
72.3274252828
 20
-26.3740430728
 10
72.3772299753
 20
-25.9300201342
 10
72.4237947023
 20
-25.485788179
  0
LWPOLYLINE
  5
415
100
AcDbEntity
  8
DRAFT
100
AcDbPolyline
 62
7
  6
CONTINUOUS
 90
46
 70
0
 10
72.0592942168
 20
-29.5039036405
 10
71.9719784497
 20
-29.994341333
 10
71.8646384006
 20
-30.4948782827
 10
71.7372719933
 20
-31.0054986347
 10
71.5892469755
 20
-31.5309280547
 10
71.4211904541
 20
-32.0664026293
 10
71.2350016639
 20
-32.5976865973
 10
71.0293646352
 20
-33.1238869903
 10
70.8056186629
 20
-33.645892115
 10
70.5696643847
 20
-34.1521686838
 10
70.3219685796
 20
-34.6396713801
 10
70.0620997504
 20
-35.1114737736
 10
69.7946168701
 20
-35.5652387148
 10
69.5202846482
 20
-35.9997067195
 10
69.2383667878
 20
-36.4161720654
 10
68.9511680677
 20
-36.8161297021
 10
68.6589378744
 20
-37.1994754459
 10
68.3614463186
 20
-37.5663444169
 10
68.0602757781
 20
-37.9185867853
 10
67.7575292251
 20
-38.2547349511
 10
67.4511163649
 20
-38.5762839148
 10
67.1363273369
 20
-38.8895192204
 10
66.8152590244
 20
-39.194006195
 10
66.4858230936
 20
-39.4901930919
 10
66.1370320144
 20
-39.7856761193
 10
65.7622510435
 20
-40.0862269302
 10
65.3681254263
 20
-40.3860685586
 10
64.9635872748
 20
-40.6754768299
 10
64.5473607291
 20
-40.9534596633
 10
64.1207273449
 20
-41.2210279604
 10
63.6964506854
 20
-41.4714781452
 10
63.2798145404
 20
-41.7013622307
 10
62.8655311683
 20
-41.9141584176
 10
62.4505044583
 20
-42.1135547743
 10
62.038857422
 20
-42.2989655731
 10
61.626462171
 20
-42.470995226
 10
61.1978488388
 20
-42.6351098017
 10
60.7441353038
 20
-42.7949516181
 10
60.274201717
 20
-42.9468861519
 10
59.7992207954
 20
-43.0854635627
 10
59.3184349014
 20
-43.2094943157
 10
58.8325904575
 20
-43.3201817092
 10
58.3551127742
 20
-43.4156682006
 10
57.89047226
 20
-43.495338427
 10
57.4341848487
 20
-43.559818294
 10
56.9862435549
 20
-43.6091116608
  0
LWPOLYLINE
  5
416
100
AcDbEntity
  8
RACCORDO
100
AcDbPolyline
 62
253
  6
CONTINUOUS
 90
91
 70
0
 10
71.6189695201
 20
28.7091561147
 10
71.5186905698
 20
29.2391984557
 10
71.4082593184
 20
29.7492084794
 10
71.2876963136
 20
30.2391981556
 10
71.1556960038
 20
30.7088207953
 10
71.0136023989
 20
31.158449236
 10
70.8654071758
 20
31.5891746144
 10
70.7114019446
 20
32.000890716
 10
70.551323854
 20
32.3937301079
 10
70.3883283582
 20
32.7691402065
 10
70.2225714571
 20
33.1272204306
 10
70.0539178017
 20
33.467895685
 10
69.8850821873
 20
33.7923494073
 10
69.7164371295
 20
34.1002589771
 10
69.5476246284
 20
34.391969092
 10
69.3802607522
 20
34.6696613735
 10
69.215710526
 20
34.9319066328
 10
69.0526183577
 20
35.1801522444
 10
68.8885163712
 20
35.4208885046
 10
68.7238562083
 20
35.6543908736
 10
68.5581909288
 20
35.8803920052
 10
68.3877024476
 20
36.1045601444
 10
68.212258074
 20
36.3276948324
 10
68.0319932256
 20
36.5489973401
 10
67.8434910554
 20
36.7717329337
 10
67.644063611
 20
36.9989223674
 10
67.4364013429
 20
37.227540528
 10
67.2251552063
 20
37.451785674
 10
67.0095263197
 20
37.6716933532
 10
66.7903167441
 20
37.8872326976
 10
66.5745788111
 20
38.0925101167
 10
66.3638664784
 20
38.2855592346
 10
66.1566276009
 20
38.4683590811
 10
65.9552546401
 20
38.6409377192
 10
65.7609265067
 20
38.8024559931
 10
65.5724645843
 20
38.95376374
 10
65.3887246632
 20
39.09742088
 10
65.2094315433
 20
39.2338438189
 10
65.0348602631
 20
39.3626227099
 10
64.8646919453
 20
39.4850760698
 10
64.6988222594
 20
39.6013450682
 10
64.5373551079
 20
39.7112933244
 10
64.3802839621
 20
39.8158219827
 10
64.2276199612
 20
39.9149692089
 10
64.0793514033
 20
40.0087004327
 10
63.9354375275
 20
40.0978069891
 10
63.796021153
 20
40.1822690842
 10
63.6609588714
 20
40.2621091842
 10
63.5297806577
 20
40.3381814351
 10
63.4031121441
 20
40.4102287264
 10
63.2803271695
 20
40.4785100935
 10
63.1590782163
 20
40.5446532175
 10
63.0393920698
 20
40.6087523519
 10
62.9212417094
 20
40.6707141688
 10
62.802199177
 20
40.7318842787
 10
62.6814683668
 20
40.7927178325
 10
62.5598454134
 20
40.8527599291
 10
62.4372908439
 20
40.9119908108
 10
62.3136104942
 20
40.9704906605
 10
62.1889985125
 20
41.0281796003
 10
62.0639978597
 20
41.0847978367
 10
61.9386482167
 20
41.1403089251
 10
61.8129097996
 20
41.194749724
 10
61.6872063214
 20
41.2479704721
 10
61.561793633
 20
41.2998669107
 10
61.4364157174
 20
41.3505437565
 10
61.3107284792
 20
41.4001647033
 10
61.1852726258
 20
41.4485660246
 10
61.0595072944
 20
41.4959118278
 10
60.9314661221
 20
41.5428574099
 10
60.8012518829
 20
41.5894506517
 10
60.6687617934
 20
41.6356437921
 10
60.5317212867
 20
41.6819484656
 10
60.3900761708
 20
41.7284696677
 10
60.2438807369
 20
41.7751023423
 10
60.0910232207
 20
41.8220429261
 10
59.9306806238
 20
41.8695882109
 10
59.763676079
 20
41.9174412519
 10
59.5903669259
 20
41.9649079686
 10
59.4110515343
 20
42.0119373785
 10
59.2254313664
 20
42.0585805939
 10
59.0329681618
 20
42.1042968923
 10
58.8338598312
 20
42.1491087139
 10
58.6279079639
 20
42.1929939186
 10
58.4139795078
 20
42.235345102
 10
58.1920206613
 20
42.2762504242
 10
57.9620841927
 20
42.3156221864
 10
57.7231964149
 20
42.3525894116
 10
57.475031999
 20
42.3868620436
 10
57.2179142654
 20
42.4187308044
 10
56.951842125
 20
42.4481959812
  0
LWPOLYLINE
  5
417
100
AcDbEntity
  8
RACCORDO
100
AcDbPolyline
 62
253
  6
CONTINUOUS
 90
91
 70
0
 10
71.8881048536
 20
28.7358483286
 10
71.7886994258
 20
29.2742574459
 10
71.6757341538
 20
29.7925320981
 10
71.5508887747
 20
30.2905147891
 10
71.4159056831
 20
30.7677020583
 10
71.2722848462
 20
31.2244546104
 10
71.1211489071
 20
31.6619737918
 10
70.9638766999
 20
32.0802908607
 10
70.8018006365
 20
32.4794436772
 10
70.6356909066
 20
32.8606989658
 10
70.4665864409
 20
33.224440552
 10
70.2956481493
 20
33.5706840903
 10
70.1236312448
 20
33.9001701541
 10
69.951638425
 20
34.212866808
 10
69.7804228725
 20
34.5093801349
 10
69.6100131648
 20
34.7913742588
 10
69.4421344285
 20
35.0575824371
 10
69.2765232285
 20
35.3098864308
 10
69.109761128
 20
35.5544188865
 10
68.9419886989
 20
35.7914751151
 10
68.7734346674
 20
36.021169965
 10
68.6001939179
 20
36.2489728107
 10
68.421663765
 20
36.4755139263
 10
68.2381209004
 20
36.7002869347
 10
68.0464892788
 20
36.9267547069
 10
67.8439391573
 20
37.1576196396
 10
67.6327299132
 20
37.389643236
 10
67.4175352096
 20
37.6174455605
 10
67.1982726664
 20
37.8411152772
 10
66.9755341658
 20
38.0600413225
 10
66.7556586873
 20
38.2683222868
 10
66.5410570849
 20
38.4644327094
 10
66.3306130599
 20
38.6502523926
 10
66.1256457239
 20
38.8253909938
 10
65.9277345848
 20
38.9892807325
 10
65.7363485025
 20
39.1430817555
 10
65.5495022759
 20
39.2889375016
 10
65.3669199292
 20
39.4274776027
 10
65.1894292691
 20
39.5584629219
 10
65.0164321269
 20
39.6827000489
 10
64.8476829299
 20
39.8006910268
 10
64.6833871506
 20
39.9126046803
 10
64.5235529471
 20
40.0187398386
 10
64.3682378414
 20
40.119350241
 10
64.2174212232
 20
40.2147272813
 10
64.0710081409
 20
40.3051910878
 10
63.9292132804
 20
40.3908567385
 10
63.7919102873
 20
40.4720347273
 10
63.6584939338
 20
40.5492771913
 10
63.5296302043
 20
40.6223665607
 10
63.4047751318
 20
40.6917732995
 10
63.2814645483
 20
40.7589730687
 10
63.1596900009
 20
40.8240335438
 10
63.0394996744
 20
40.8869917071
 10
62.9184304268
 20
40.9491621087
 10
62.7956185277
 20
41.0109615316
 10
62.6718754012
 20
41.0719550103
 10
62.5472080249
 20
41.1321259366
 10
62.4214186901
 20
41.1915544128
 10
62.294660285
 20
41.250153044
 10
62.1674788425
 20
41.3076658031
 10
62.0399818687
 20
41.3640520674
 10
61.9121252286
 20
41.419340291
 10
61.7842616121
 20
41.4733898506
 10
61.6567002826
 20
41.5260897482
 10
61.5292258123
 20
41.5775482875
 10
61.4014004067
 20
41.6279506828
 10
61.2737907981
 20
41.6770822764
 10
61.1459063791
 20
41.7251405261
 10
61.0156902496
 20
41.7728704735
 10
60.8832308187
 20
41.8201828932
 10
60.7484666836
 20
41.8670415863
 10
60.6090707448
 20
41.914161074
 10
60.464975373
 20
41.9614305777
 10
60.3162527469
 20
42.0086967169
 10
60.1607538916
 20
42.0564879244
 10
59.9976811904
 20
42.1048434047
 10
59.827856328
 20
42.1533072031
 10
59.65156171
 20
42.2015983612
 10
59.4692041295
 20
42.2494095814
 10
59.2804957789
 20
42.2966152915
 10
59.0847016782
 20
42.3431716692
 10
58.8821233187
 20
42.3887600936
 10
58.6726930652
 20
42.4331411246
 10
58.4551093185
 20
42.4763023825
 10
58.2293278076
 20
42.5179362716
 10
57.9954772873
 20
42.5576977266
 10
57.7524659224
 20
42.5954231668
 10
57.4999677978
 20
42.6307732879
 10
57.2384177938
 20
42.6632903366
 10
56.9678759086
 20
42.6925737691
  0
LWPOLYLINE
  5
418
100
AcDbEntity
  8
DRAFT
100
AcDbPolyline
 62
7
  6
CONTINUOUS
 90
9
 70
0
 10
72.0592942168
 20
28.7656803271
 10
72.1319146683
 20
28.3225085285
 10
72.2012924101
 20
27.8789932771
 10
72.2674258845
 20
27.4351387373
 10
72.3303125697
 20
26.9909284101
 10
72.3899520313
 20
26.5463871579
 10
72.4463459779
 20
26.1015812489
 10
72.4994941672
 20
25.6565356334
 10
72.549394351
 20
25.2112338994
  0
LINE
  5
419
100
AcDbEntity
  8
RACCORDO
100
AcDbLine
 62
253
  6
CONTINUOUS
 10
-94.8702694166
 20
-43.6599638709
 11
-94.8843314482
 21
-43.6629876473
  0
LINE
  5
41A
100
AcDbEntity
  8
RACCORDO
100
AcDbLine
 62
7
  6
CONTINUOUS
 10
-95.3732372676
 20
-45.0414853351
 11
-95.3312430845
 21
-45.0341244254
  0
LINE
  5
41B
100
AcDbEntity
  8
RACCORDO
100
AcDbLine
 62
253
  6
CONTINUOUS
 10
-94.9005959788
 20
-43.6656764499
 11
-94.8843314784
 21
-43.6629877082
  0
LINE
  5
41C
100
AcDbEntity
  8
RACCORDO
100
AcDbLine
 62
253
  6
CONTINUOUS
 10
-94.838778316
 20
-43.2942686371
 11
-94.7394171059
 21
-43.2781092791
  0
LINE
  5
41D
100
AcDbEntity
  8
DRAFT
100
AcDbLine
 62
7
  6
CONTINUOUS
 10
-97.5270810183
 20
-45.1892938446
 11
-95.4717095331
 21
-45.3691155495
  0
LWPOLYLINE
  5
41E
100
AcDbEntity
  8
RACCORDO
100
AcDbPolyline
 62
253
  6
CONTINUOUS
 90
9
 70
0
 10
-94.2733725014
 20
-42.9101972414
 10
-93.8949967643
 20
-42.8433772108
 10
-93.5184081039
 20
-42.7671758054
 10
-93.1438367128
 20
-42.6816394351
 10
-92.7715171893
 20
-42.5868215025
 10
-92.4016882153
 20
-42.4827830662
 10
-92.0345811844
 20
-42.369589944
 10
-91.6704202386
 20
-42.2473119759
 10
-91.309430465
 20
-42.1160253625
  0
LINE
  5
41F
100
AcDbEntity
  8
RACCORDO
100
AcDbLine
 62
253
  6
CONTINUOUS
 10
-94.5622959948
 20
-42.9538460864
 11
-94.2733725014
 21
-42.9101972414
  0
LWPOLYLINE
  5
420
100
AcDbEntity
  8
RACCORDO
100
AcDbPolyline
 62
253
  6
CONTINUOUS
 90
7
 70
0
 10
-94.4937088807
 20
-42.6910236956
 10
-94.175527953
 20
-42.6432911818
 10
-93.8103010541
 20
-42.5795054292
 10
-93.4467248386
 20
-42.5069768901
 10
-93.0850082901
 20
-42.4257471755
 10
-92.7253605758
 20
-42.3358631789
 10
-92.3679908889
 20
-42.2373771983
  0
LWPOLYLINE
  5
421
100
AcDbEntity
  8
RACCORDO
100
AcDbPolyline
 62
253
  6
CONTINUOUS
 90
7
 70
0
 10
-94.3967767761
 20
-42.3172355003
 10
-94.0473134756
 20
-42.265248665
 10
-93.699163758
 20
-42.2053205048
 10
-93.3525100028
 20
-42.1374823285
 10
-93.0075344219
 20
-42.0617730694
 10
-92.6644171256
 20
-41.9782287959
 10
-92.3233360114
 20
-41.8868828493
  0
LINE
  5
422
100
AcDbEntity
  8
RACCORDO
100
AcDbLine
 62
253
  6
CONTINUOUS
 10
-94.8827212357
 20
-43.6091116567
 11
-96.9316576896
 21
-43.4307961355
  0
LINE
  5
423
100
AcDbEntity
  8
RACCORDO
100
AcDbLine
 62
253
  6
CONTINUOUS
 10
-95.0274955425
 20
-43.9955726293
 11
-97.0765953143
 21
-43.8165904748
  0
LINE
  5
424
100
AcDbEntity
  8
RACCORDO
100
AcDbLine
 62
253
  6
CONTINUOUS
 10
-97.1868836246
 20
-44.0873172481
 11
-95.1373266831
 21
-44.2664163452
  0
LWPOLYLINE
  5
425
100
AcDbEntity
  8
RACCORDO
100
AcDbPolyline
 62
253
  6
CONTINUOUS
 90
8
 70
0
 10
-91.1539084662
 20
-28.8320676967
 10
-91.1701804986
 20
-28.8357124445
 10
-91.1890048747
 20
-28.8391050785
 10
-91.2101859296
 20
-28.8422103348
 10
-91.2335035029
 20
-28.8449959367
 10
-91.2587152263
 20
-28.8474329302
 10
-91.2855590437
 20
-28.8494959844
 10
-91.3137559343
 20
-28.8511636557
  0
LWPOLYLINE
  5
426
100
AcDbEntity
  8
RACCORDO
100
AcDbPolyline
 62
253
  6
CONTINUOUS
 90
10
 70
0
 10
-95.1347840239
 20
-29.2456756385
 10
-94.7010859798
 20
-29.2086395059
 10
-94.2688677752
 20
-29.1698690124
 10
-93.8384752373
 20
-29.1293986578
 10
-93.4102473334
 20
-29.0873295509
 10
-92.9845320928
 20
-29.0436339766
 10
-92.5616865011
 20
-28.9981520042
 10
-92.1420545171
 20
-28.9508538302
 10
-91.7259666353
 20
-28.9018431039
 10
-91.313755931
 20
-28.8511591499
  0
LWPOLYLINE
  5
427
100
AcDbEntity
  8
RACCORDO
100
AcDbPolyline
 62
253
  6
CONTINUOUS
 90
10
 70
0
 10
-95.13187104
 20
-29.2890002742
 10
-94.6984790788
 20
-29.2530804879
 10
-94.2665774615
 20
-29.2152310745
 10
-93.8365113966
 20
-29.1754822754
 10
-93.4086236511
 20
-29.1338657357
 10
-92.9832572201
 20
-29.0904148151
 10
-92.5607549919
 20
-29.0451646025
 10
-92.1414555653
 20
-28.9981514179
 10
-91.7256930408
 20
-28.949412743
 10
-91.313799655
 20
-28.8989875566
  0
LINE
  5
428
100
AcDbEntity
  8
RACCORDO
100
AcDbLine
 62
253
  6
CONTINUOUS
 10
-95.7535724409
 20
-29.4522733478
 11
-95.5775139478
 21
-29.4382153873
  0
LINE
  5
429
100
AcDbEntity
  8
0
100
AcDbLine
 62
7
  6
CONTINUOUS
 10
-100.0158628303
 20
-29.2769130111
 11
-99.9155401287
 21
-29.2769130111
  0
LINE
  5
42A
100
AcDbEntity
  8
0
100
AcDbLine
 62
253
  6
CONTINUOUS
 10
-100.0752836195
 20
-28.5192118847
 11
-99.9750019284
 21
-28.5192118847
  0
LINE
  5
42B
100
AcDbEntity
  8
0
100
AcDbLine
 62
7
  6
CONTINUOUS
 10
-100.1163421526
 20
-27.9700360936
 11
-100.0160884502
 21
-27.9700360936
  0
LINE
  5
42C
100
AcDbEntity
  8
0
100
AcDbLine
 62
7
  6
CONTINUOUS
 10
-100.1175192124
 20
-27.9534922848
 11
-100.0172663287
 21
-27.9534922848
  0
LINE
  5
42D
100
AcDbEntity
  8
RACCORDO
100
AcDbLine
 62
253
  6
CONTINUOUS
 10
-95.7494498529
 20
-29.5039036413
 11
-97.7356768755
 21
-29.4740692627
  0
LWPOLYLINE
  5
42E
100
AcDbEntity
  8
RACCORDO
100
AcDbPolyline
 62
253
  6
CONTINUOUS
 90
13
 70
0
 10
-95.7116884038
 20
-24.6142381906
 10
-95.7172286545
 20
-24.6157985779
 10
-95.7240153655
 20
-24.6173512072
 10
-95.7319860302
 20
-24.6188822117
 10
-95.7410672404
 20
-24.6203779239
 10
-95.7511753628
 20
-24.621825001
 10
-95.7622173082
 20
-24.623210548
 10
-95.7740913896
 20
-24.6245222362
 10
-95.7866882578
 20
-24.6257484173
 10
-95.7998919085
 20
-24.6268782296
 10
-95.8135807503
 20
-24.6279016992
 10
-95.8276287246
 20
-24.6288098308
 10
-95.8419064657
 20
-24.6295946914
  0
LWPOLYLINE
  5
42F
100
AcDbEntity
  8
RACCORDO
100
AcDbPolyline
 62
253
  6
CONTINUOUS
 90
8
 70
0
 10
-91.1532032374
 20
-25.0867950165
 10
-91.1691843805
 20
-25.0889475615
 10
-91.1876798852
 20
-25.0909543292
 10
-91.2085011309
 20
-25.0927948542
 10
-91.231435779
 20
-25.0944503665
 10
-91.256249938
 20
-25.095903983
 10
-91.2826905488
 20
-25.0971408793
 10
-91.3104879654
 20
-25.0981484414
  0
LWPOLYLINE
  5
430
100
AcDbEntity
  8
RACCORDO
100
AcDbPolyline
 62
253
  6
CONTINUOUS
 90
8
 70
0
 10
-91.153197779
 20
-25.0570024537
 10
-91.1691766698
 20
-25.0591519513
 10
-91.1876696267
 20
-25.061155901
 10
-91.2084880836
 20
-25.0629938693
 10
-91.2314197616
 20
-25.0646471148
 10
-91.2562308344
 20
-25.0660987798
 10
-91.282668312
 20
-25.067334062
 10
-91.3104626204
 20
-25.0683403657
  0
LINE
  5
431
100
AcDbEntity
  8
RACCORDO
100
AcDbLine
 62
253
  6
CONTINUOUS
 10
-91.9648380617
 20
-25.150678984
 11
-91.3104879642
 21
-25.0981484416
  0
LINE
  5
432
100
AcDbEntity
  8
RACCORDO
100
AcDbLine
 62
253
  6
CONTINUOUS
 10
-91.9650241069
 20
-25.1208487819
 11
-91.3104626203
 21
-25.0683402106
  0
LINE
  5
433
100
AcDbEntity
  8
RACCORDO
100
AcDbLine
 62
253
  6
CONTINUOUS
 10
-92.6288074106
 20
-25.2006635114
 11
-91.9648380617
 21
-25.150678984
  0
LINE
  5
434
100
AcDbEntity
  8
RACCORDO
100
AcDbLine
 62
253
  6
CONTINUOUS
 10
-92.6292154315
 20
-25.1708131549
 11
-91.9650241069
 21
-25.1208487819
  0
LINE
  5
435
100
AcDbEntity
  8
RACCORDO
100
AcDbLine
 62
253
  6
CONTINUOUS
 10
-91.9699081121
 20
-24.3106791771
 11
-91.3097988617
 21
-24.2618083564
  0
LINE
  5
436
100
AcDbEntity
  8
RACCORDO
100
AcDbLine
 62
253
  6
CONTINUOUS
 10
-93.3010563097
 20
-25.24800108
 11
-92.6288074106
 21
-25.2006635114
  0
LINE
  5
437
100
AcDbEntity
  8
RACCORDO
100
AcDbLine
 62
253
  6
CONTINUOUS
 10
-93.3016951844
 20
-25.2181323102
 11
-92.6292154315
 21
-25.1708131549
  0
LINE
  5
438
100
AcDbEntity
  8
RACCORDO
100
AcDbLine
 62
253
  6
CONTINUOUS
 10
-92.6398789034
 20
-24.357013134
 11
-91.9699081121
 21
-24.3106791771
  0
LINE
  5
439
100
AcDbEntity
  8
RACCORDO
100
AcDbLine
 62
253
  6
CONTINUOUS
 10
-93.9802264497
 20
-25.2925959793
 11
-93.3010563097
 21
-25.24800108
  0
LINE
  5
43A
100
AcDbEntity
  8
RACCORDO
100
AcDbLine
 62
253
  6
CONTINUOUS
 10
-93.9811021357
 20
-25.2627103946
 11
-93.3016951844
 21
-25.2181323102
  0
LINE
  5
43B
100
AcDbEntity
  8
RACCORDO
100
AcDbLine
 62
253
  6
CONTINUOUS
 10
-93.318333955
 20
-24.4007148777
 11
-92.6398789034
 21
-24.357013134
  0
LINE
  5
43C
100
AcDbEntity
  8
RACCORDO
100
AcDbLine
 62
253
  6
CONTINUOUS
 10
-94.6649433931
 20
-25.334357953
 11
-93.9802264497
 21
-25.2925959793
  0
LINE
  5
43D
100
AcDbEntity
  8
RACCORDO
100
AcDbLine
 62
253
  6
CONTINUOUS
 10
-94.6660606396
 20
-25.3044571395
 11
-93.9811021357
 21
-25.2627103946
  0
LINE
  5
43E
100
AcDbEntity
  8
RACCORDO
100
AcDbLine
 62
253
  6
CONTINUOUS
 10
-94.0038761813
 20
-24.4416943497
 11
-93.318333955
 21
-24.4007148777
  0
LINE
  5
43F
100
AcDbEntity
  8
RACCORDO
100
AcDbLine
 62
253
  6
CONTINUOUS
 10
-95.3538248125
 20
-25.373202723
 11
-94.6649433931
 21
-25.334357953
  0
LINE
  5
440
100
AcDbEntity
  8
RACCORDO
100
AcDbLine
 62
253
  6
CONTINUOUS
 10
-95.3551868996
 20
-25.343288238
 11
-94.6660606396
 21
-25.3044571395
  0
LINE
  5
441
100
AcDbEntity
  8
RACCORDO
100
AcDbLine
 62
253
  6
CONTINUOUS
 10
-94.6950922013
 20
-24.4798670518
 11
-94.0038761813
 21
-24.4416943497
  0
LINE
  5
442
100
AcDbEntity
  8
RACCORDO
100
AcDbLine
 62
253
  6
CONTINUOUS
 10
-95.9816404861
 20
-25.4723614901
 11
-95.8058218144
 21
-25.4630611934
  0
LINE
  5
443
100
AcDbEntity
  8
RACCORDO
100
AcDbLine
 62
253
  6
CONTINUOUS
 10
-95.3905603517
 20
-24.5151545041
 11
-94.6950922013
 21
-24.4798670518
  0
LINE
  5
444
100
AcDbEntity
  8
RACCORDO
100
AcDbLine
 62
253
  6
CONTINUOUS
 10
-96.0175130391
 20
-24.6378528683
 11
-95.8419066085
 21
-24.6295911655
  0
LINE
  5
445
100
AcDbEntity
  8
0
100
AcDbLine
 62
253
  6
CONTINUOUS
 10
-100.2112402396
 20
-26.5393955302
 11
-100.1110524053
 21
-26.5393955302
  0
LINE
  5
446
100
AcDbEntity
  8
0
100
AcDbLine
 62
7
  6
CONTINUOUS
 10
-100.1184630898
 20
-26.4443601375
 11
-100.2186468156
 21
-26.4443601375
  0
LINE
  5
447
100
AcDbEntity
  8
RACCORDO
100
AcDbLine
 62
253
  6
CONTINUOUS
 10
-99.6660586294
 20
-24.7463746289
 11
-98.2630897862
 21
-24.746374629
  0
LINE
  5
448
100
AcDbEntity
  8
0
100
AcDbLine
 62
253
  6
CONTINUOUS
 10
-99.6660586294
 20
-24.7463746289
 11
-100.2158535218
 21
-24.7463746289
  0
LINE
  5
449
100
AcDbEntity
  8
RACCORDO
100
AcDbLine
 62
253
  6
CONTINUOUS
 10
-97.996343905
 20
-24.6222703344
 11
-96.0174546849
 21
-24.6390932156
  0
LINE
  5
44A
100
AcDbEntity
  8
RACCORDO
100
AcDbLine
 62
253
  6
CONTINUOUS
 10
-95.979971998
 20
-25.5039036413
 11
-97.9596804391
 21
-25.4857881787
  0
LINE
  5
44B
100
AcDbEntity
  8
RACCORDO
100
AcDbLine
 62
253
  6
CONTINUOUS
 10
-99.7756140424
 20
-22.0806273733
 11
-99.7753829715
 21
-22.0806581104
  0
LWPOLYLINE
  5
44C
100
AcDbEntity
  8
RACCORDO
100
AcDbPolyline
 62
253
  6
CONTINUOUS
 90
16
 70
0
 10
-98.0074577603
 20
28.7091561122
 10
-98.0035141508
 20
28.7134356873
 10
-97.997060573
 20
28.717470494
 10
-97.9881521252
 20
28.7212260846
 10
-97.9768648643
 20
28.7246703954
 10
-97.9632951569
 20
28.7277740202
 10
-97.9475588561
 20
28.7305104616
 10
-97.9297903125
 20
28.7328563568
 10
-97.9101412274
 20
28.7347916777
 10
-97.8887793574
 20
28.7362999012
 10
-97.8658870822
 20
28.7373681509
 10
-97.8416598476
 20
28.7379873064
 10
-97.8163044966
 20
28.7381520818
 10
-97.7900375039
 20
28.7378610703
 10
-97.7630831274
 20
28.7371167567
 10
-97.7356714934
 20
28.7359254956
  0
LWPOLYLINE
  5
44D
100
AcDbEntity
  8
RACCORDO
100
AcDbPolyline
 62
253
  6
CONTINUOUS
 90
16
 70
0
 10
-98.231991378
 20
24.7324567921
 10
-98.2281837992
 20
24.7350608515
 10
-98.2218386516
 20
24.7375035435
 10
-98.2130105804
 20
24.7397638313
 10
-98.2017756143
 20
24.7418222489
 10
-98.1882305105
 20
24.743661069
 10
-98.1724919214
 20
24.7452644554
 10
-98.15469539
 20
24.7466185994
 10
-98.1349941826
 20
24.7477118391
 10
-98.113557969
 20
24.7485347591
 10
-98.090571361
 20
24.7490802726
 10
-98.0662323225
 20
24.7493436813
 10
-98.0407504649
 20
24.7493227168
 10
-98.0143452417
 20
24.7490175597
 10
-97.9872440586
 20
24.7484308379
 10
-97.959680315
 20
24.7475676045
  0
LWPOLYLINE
  5
44E
100
AcDbEntity
  8
RACCORDO
100
AcDbPolyline
 62
253
  6
CONTINUOUS
 90
16
 70
0
 10
-98.2630897862
 20
24.0081513155
 10
-98.2592917469
 20
24.0106947511
 10
-98.2529537856
 20
24.0130901969
 10
-98.2441305212
 20
24.0153170095
 10
-98.2328979902
 20
24.0173559988
 10
-98.2193529914
 20
24.0191895935
 10
-98.2036122521
 20
24.020801992
 10
-98.1858114218
 20
24.0221792991
 10
-98.166103903
 20
24.0233096456
 10
-98.1446595301
 20
24.0241832905
 10
-98.1216631048
 20
24.0247927049
 10
-98.097312804
 20
24.0251326371
 10
-98.0718184722
 20
24.0252001576
 10
-98.0453998126
 20
24.0249946846
 10
-98.0182844941
 20
24.0245179886
 10
-97.9907061893
 20
24.0237741779
  0
LWPOLYLINE
  5
44F
100
AcDbEntity
  8
RACCORDO
100
AcDbPolyline
 62
253
  6
CONTINUOUS
 90
16
 70
0
 10
-98.2687301124
 20
23.8685472292
 10
-98.2649325
 20
23.8710744378
 10
-98.2585948605
 20
23.8734545141
 10
-98.2497718116
 20
23.8756669467
 10
-98.2385393901
 20
23.8776926688
 10
-98.2249943968
 20
23.8795142228
 10
-98.2092535622
 20
23.8811159106
 10
-98.1914525405
 20
23.8824839289
 10
-98.1717447406
 20
23.8836064881
 10
-98.1503000038
 20
23.8844739141
 10
-98.1273031406
 20
23.8850787313
 10
-98.1029523374
 20
23.8854157276
 10
-98.0774574489
 20
23.8854819985
 10
-98.0510381896
 20
23.8852769731
 10
-98.0239222401
 20
23.8848024182
 10
-97.9963432852
 20
23.8840624236
  0
LWPOLYLINE
  5
450
100
AcDbEntity
  8
RACCORDO
100
AcDbPolyline
 62
253
  6
CONTINUOUS
 90
16
 70
0
 10
-98.2687307272
 20
-24.6067551507
 10
-98.264933114
 20
-24.6092823575
 10
-98.258595474
 20
-24.6116624322
 10
-98.2497724247
 20
-24.6138748632
 10
-98.238540003
 20
-24.6159005839
 10
-98.2249950096
 20
-24.6177221367
 10
-98.2092541752
 20
-24.6193238234
 10
-98.1914531537
 20
-24.6206918407
 10
-98.1717453542
 20
-24.6218143991
 10
-98.150300618
 20
-24.6226818244
 10
-98.1273037553
 20
-24.6232866412
 10
-98.1029529528
 20
-24.6236236371
 10
-98.0774580651
 20
-24.623689908
 10
-98.0510388066
 20
-24.6234848827
 10
-98.0239228581
 20
-24.623010328
 10
-97.996343904
 20
-24.6222703338
  0
LWPOLYLINE
  5
451
100
AcDbEntity
  8
RACCORDO
100
AcDbPolyline
 62
253
  6
CONTINUOUS
 90
16
 70
0
 10
-98.2630897862
 20
-24.7463746289
 10
-98.2592917469
 20
-24.7489180646
 10
-98.2529537857
 20
-24.7513135103
 10
-98.2441305212
 20
-24.7535403229
 10
-98.2328979902
 20
-24.7555793123
 10
-98.2193529914
 20
-24.7574129069
 10
-98.2036122521
 20
-24.7590253054
 10
-98.1858114218
 20
-24.7604026125
 10
-98.1661039031
 20
-24.761532959
 10
-98.1446595301
 20
-24.7624066039
 10
-98.1216631048
 20
-24.7630160184
 10
-98.097312804
 20
-24.7633559505
 10
-98.0718184722
 20
-24.763423471
 10
-98.0453998126
 20
-24.763217998
 10
-98.0182844941
 20
-24.7627413021
 10
-97.9907061893
 20
-24.7619974913
  0
LWPOLYLINE
  5
452
100
AcDbEntity
  8
RACCORDO
100
AcDbPolyline
 62
253
  6
CONTINUOUS
 90
16
 70
0
 10
-98.2319913791
 20
-25.4706801055
 10
-98.2281838002
 20
-25.473284165
 10
-98.2218386524
 20
-25.475726857
 10
-98.213010581
 20
-25.4779871448
 10
-98.2017756148
 20
-25.4800455625
 10
-98.1882305109
 20
-25.4818843826
 10
-98.1724919217
 20
-25.483487769
 10
-98.1546953902
 20
-25.484841913
 10
-98.1349941828
 20
-25.4859351526
 10
-98.1135579691
 20
-25.4867580727
 10
-98.090571361
 20
-25.4873035861
 10
-98.0662323225
 20
-25.4875669948
 10
-98.0407504649
 20
-25.4875460302
 10
-98.0143452418
 20
-25.487240873
 10
-97.9872440587
 20
-25.4866541512
 10
-97.9596803151
 20
-25.4857909177
  0
LWPOLYLINE
  5
453
100
AcDbEntity
  8
0
100
AcDbPolyline
 62
7
  6
CONTINUOUS
 90
7
 70
0
 10
-100.2186449753
 20
-26.4443905122
 10
-100.2186023703
 20
-26.4444332249
 10
-100.2184162807
 20
-26.4452767796
 10
-100.2181532095
 20
-26.447355476
 10
-100.217817202
 20
-26.4506012023
 10
-100.2174040664
 20
-26.4550820622
 10
-100.2168892886
 20
-26.4612063741
  0
LWPOLYLINE
  5
454
100
AcDbEntity
  8
RACCORDO
100
AcDbPolyline
 62
253
  6
CONTINUOUS
 90
16
 70
0
 10
-98.0074577899
 20
-29.447379428
 10
-98.0035141962
 20
-29.4516590117
 10
-97.9970606315
 20
-29.4556938268
 10
-97.9881521941
 20
-29.4594494254
 10
-97.9768649411
 20
-29.4628937436
 10
-97.9632952388
 20
-29.4659973751
 10
-97.9475589405
 20
-29.4687338222
 10
-97.929790397
 20
-29.4710797222
 10
-97.9101413096
 20
-29.4730150465
 10
-97.8887794352
 20
-29.474523272
 10
-97.8658871536
 20
-29.4755915222
 10
-97.841659911
 20
-29.4762106766
 10
-97.8163045505
 20
-29.4763754491
 10
-97.7900375472
 20
-29.476084433
 10
-97.7630831592
 20
-29.4753401129
 10
-97.7356715133
 20
-29.4741488434
  0
LINE
  5
455
100
AcDbEntity
  8
RACCORDO
100
AcDbLine
 62
253
  6
CONTINUOUS
 10
-99.7753912774
 20
21.3475505129
 11
-99.7751501717
 21
21.3478127833
  0
LWPOLYLINE
  5
456
100
AcDbEntity
  8
RACCORDO
100
AcDbPolyline
 62
253
  6
CONTINUOUS
 90
16
 70
0
 10
-97.4556988823
 20
43.1048904662
 10
-97.4498661268
 20
43.1302061763
 10
-97.4418609699
 20
43.1549238433
 10
-97.4317435592
 20
43.1788577485
 10
-97.4195899128
 20
43.2018280621
 10
-97.4054913484
 20
43.2236621942
 10
-97.389553797
 20
43.2441960921
 10
-97.371897007
 20
43.263275472
 10
-97.3526536444
 20
43.2807569793
 10
-97.3319682962
 20
43.2965092648
 10
-97.3099963838
 20
43.3104139722
 10
-97.2869029955
 20
43.322366627
 10
-97.2628616457
 20
43.3322774218
 10
-97.2380529714
 20
43.3400718907
 10
-97.2126633753
 20
43.3456914694
 10
-97.1868836246
 20
43.3490939344
  0
LWPOLYLINE
  5
457
100
AcDbEntity
  8
RACCORDO
100
AcDbPolyline
 62
253
  6
CONTINUOUS
 90
16
 70
0
 10
-97.4545857751
 20
43.1013177762
 10
-97.4487534581
 20
43.1266339338
 10
-97.4407486557
 20
43.1513520807
 10
-97.4306315146
 20
43.1752864883
 10
-97.4184780536
 20
43.198257317
 10
-97.4043795921
 20
43.2200919674
 10
-97.3884420637
 20
43.2406263772
 10
-97.3707852207
 20
43.2597062539
 10
-97.351541734
 20
43.2771882341
 10
-97.3308561963
 20
43.2929409608
 10
-97.3088840357
 20
43.3068460703
 10
-97.2857903477
 20
43.3187990817
 10
-97.2617486549
 20
43.3287101818
 10
-97.2369396031
 20
43.3365049001
 10
-97.2115496038
 20
43.3421246683
 10
-97.1857694336
 20
43.3455272601
  0
LWPOLYLINE
  5
458
100
AcDbEntity
  8
RACCORDO
100
AcDbPolyline
 62
7
  6
CONTINUOUS
 90
16
 70
0
 10
-97.7955522213
 20
-44.9470064425
 10
-97.7903114355
 20
-44.9695611087
 10
-97.7823977173
 20
-44.9942542386
 10
-97.7723812243
 20
-45.018171753
 10
-97.7603367883
 20
-45.0411349676
 10
-97.7463543916
 20
-45.0629723271
 10
-97.7305384947
 20
-45.0835206874
 10
-97.7130072559
 20
-45.1026265345
 10
-97.6938916486
 20
-45.1201471312
 10
-97.6733344828
 20
-45.1359515833
 10
-97.6514893383
 20
-45.149921818
 10
-97.6285194171
 20
-45.1619534653
 10
-97.6045963243
 20
-45.1719566384
 10
-97.579898786
 20
-45.1798566047
 10
-97.5546113142
 20
-45.1855943447
 10
-97.5270810189
 20
-45.1892938516
  0
LWPOLYLINE
  5
459
100
AcDbEntity
  8
RACCORDO
100
AcDbPolyline
 62
253
  6
CONTINUOUS
 90
16
 70
0
 10
-97.4556988822
 20
-43.8431137796
 10
-97.4498661268
 20
-43.8684294898
 10
-97.4418609699
 20
-43.8931471568
 10
-97.4317435592
 20
-43.917081062
 10
-97.4195899128
 20
-43.9400513755
 10
-97.4054913485
 20
-43.9618855077
 10
-97.3895537971
 20
-43.9824194056
 10
-97.371897007
 20
-44.0014987855
 10
-97.3526536444
 20
-44.0189802928
 10
-97.3319682963
 20
-44.0347325784
 10
-97.3099963839
 20
-44.0486372858
 10
-97.2869029955
 20
-44.0605899406
 10
-97.2628616457
 20
-44.0705007354
 10
-97.2380529715
 20
-44.0782952043
 10
-97.2126633753
 20
-44.083914783
 10
-97.1868836246
 20
-44.0873172481
  0
LWPOLYLINE
  5
45A
100
AcDbEntity
  8
RACCORDO
100
AcDbPolyline
 62
253
  6
CONTINUOUS
 90
16
 70
0
 10
-97.4545857751
 20
-43.8395410896
 10
-97.4487534581
 20
-43.8648572473
 10
-97.4407486557
 20
-43.8895753941
 10
-97.4306315146
 20
-43.9135098017
 10
-97.4184780536
 20
-43.9364806304
 10
-97.4043795921
 20
-43.9583152808
 10
-97.3884420637
 20
-43.9788496907
 10
-97.3707852207
 20
-43.9979295674
 10
-97.351541734
 20
-44.0154115476
 10
-97.3308561963
 20
-44.0311642742
 10
-97.3088840357
 20
-44.0450693837
 10
-97.2857903477
 20
-44.0570223951
 10
-97.2617486549
 20
-44.0669334953
 10
-97.2369396031
 20
-44.0747282136
 10
-97.2115496038
 20
-44.0803479817
 10
-97.1857694336
 20
-44.0837505736
  0
LWPOLYLINE
  5
45B
100
AcDbEntity
  8
RACCORDO
100
AcDbPolyline
 62
253
  6
CONTINUOUS
 90
16
 70
0
 10
-97.3453989572
 20
-43.5719312205
 10
-97.3395903956
 20
-43.597271595
 10
-97.331605636
 20
-43.6220169592
 10
-97.3215047749
 20
-43.6459810695
 10
-97.3093638356
 20
-43.6689835625
 10
-97.2952741957
 20
-43.6908513119
 10
-97.2793418994
 20
-43.7114197323
 10
-97.2616868597
 20
-43.7305340174
 10
-97.2424419556
 20
-43.7480503054
 10
-97.221752032
 20
-43.7638367615
 10
-97.1997728097
 20
-43.7777745706
 10
-97.1766697131
 20
-43.789758831
 10
-97.1526166255
 20
-43.7996993443
 10
-97.1277945803
 20
-43.8075212942
 10
-97.1023903981
 20
-43.8131658095
 10
-97.0765952812
 20
-43.8165904074
  0
LWPOLYLINE
  5
45C
100
AcDbEntity
  8
RACCORDO
100
AcDbPolyline
 62
253
  6
CONTINUOUS
 90
16
 70
0
 10
-97.3453989571
 20
42.8337079071
 10
-97.3395903955
 20
42.8590482815
 10
-97.3316056359
 20
42.8837936457
 10
-97.3215047749
 20
42.9077577561
 10
-97.3093638356
 20
42.930760249
 10
-97.2952741956
 20
42.9526279985
 10
-97.2793418994
 20
42.9731964189
 10
-97.2616868597
 20
42.992310704
 10
-97.2424419556
 20
43.0098269919
 10
-97.221752032
 20
43.0256134481
 10
-97.1997728097
 20
43.0395512571
 10
-97.1766697131
 20
43.0515355175
 10
-97.1526166256
 20
43.0614760308
 10
-97.1277945804
 20
43.0692979807
 10
-97.1023903982
 20
43.0749424961
 10
-97.0765952813
 20
43.078367094
  0
LWPOLYLINE
  5
45D
100
AcDbEntity
  8
RACCORDO
100
AcDbPolyline
 62
253
  6
CONTINUOUS
 90
16
 70
0
 10
-97.2004502987
 20
42.4481959812
 10
-97.1946515152
 20
42.4734684184
 10
-97.1866750707
 20
42.4981519834
 10
-97.1765810398
 20
42.5220607723
 10
-97.1644454455
 20
42.5450147163
 10
-97.1503596869
 20
42.566840938
 10
-97.1344298507
 20
42.5873750535
 10
-97.1167759124
 20
42.6064624102
 10
-97.0975308323
 20
42.6239592521
 10
-97.0768395546
 20
42.6397338017
 10
-97.0548579155
 20
42.6536672533
 10
-97.0317514693
 20
42.6656546672
 10
-97.0076942421
 20
42.6756057604
 10
-96.9828674205
 20
42.6834455862
 10
-96.9574579876
 20
42.6891150992
 10
-96.9316573142
 20
42.6925715994
  0
LWPOLYLINE
  5
45E
100
AcDbEntity
  8
RACCORDO
100
AcDbPolyline
 62
253
  6
CONTINUOUS
 90
6
 70
0
 10
-93.1157338262
 20
-3.7012917305
 10
-93.1164986587
 20
-3.7015016385
 10
-93.1187872763
 20
-3.7017099411
 10
-93.1225821771
 20
-3.7019150452
 10
-93.1278543383
 20
-3.7021153821
 10
-93.1345634396
 20
-3.7023094196
  0
LINE
  5
45F
100
AcDbEntity
  8
RACCORDO
100
AcDbLine
 62
253
  6
CONTINUOUS
 10
-93.1345634396
 20
-3.7023094196
 11
-93.1520766354
 21
-3.7026727201
  0
LINE
  5
460
100
AcDbEntity
  8
RACCORDO
100
AcDbLine
 62
253
  6
CONTINUOUS
 10
-93.1520766354
 20
-3.7026727201
 11
-93.1745870258
 21
-3.7029938532
  0
LINE
  5
461
100
AcDbEntity
  8
RACCORDO
100
AcDbLine
 62
253
  6
CONTINUOUS
 10
-93.1745870258
 20
-3.7029938532
 11
-93.2161820747
 21
-3.7033754651
  0
LINE
  5
462
100
AcDbEntity
  8
RACCORDO
100
AcDbLine
 62
253
  6
CONTINUOUS
 10
-93.2161820747
 20
-3.7033754651
 11
-93.2645945254
 21
-3.703614374
  0
LINE
  5
463
100
AcDbEntity
  8
RACCORDO
100
AcDbLine
 62
253
  6
CONTINUOUS
 10
-91.1266696961
 20
-4.3896680613
 11
-91.1345401941
 21
-4.3894257808
  0
LINE
  5
464
100
AcDbEntity
  8
RACCORDO
100
AcDbLine
 62
253
  6
CONTINUOUS
 10
-91.1345401941
 20
-4.3894257808
 11
-91.1447551553
 21
-4.3890434974
  0
LINE
  5
465
100
AcDbEntity
  8
RACCORDO
100
AcDbLine
 62
253
  6
CONTINUOUS
 10
-91.1447551553
 20
-4.3890434974
 11
-91.1644664809
 21
-4.3882023847
  0
LINE
  5
466
100
AcDbEntity
  8
RACCORDO
100
AcDbLine
 62
253
  6
CONTINUOUS
 10
-91.1644664809
 20
-4.3882023847
 11
-91.2082627118
 21
-4.3861046631
  0
LWPOLYLINE
  5
467
100
AcDbEntity
  8
RACCORDO
100
AcDbPolyline
 62
253
  6
CONTINUOUS
 90
3
 70
0
 10
-91.2082627118
 20
-4.3861046631
 10
-91.2882549207
 20
-4.3818980381
 10
-91.3009802293
 20
-4.3811974336
  0
LWPOLYLINE
  5
468
100
AcDbEntity
  8
RACCORDO
100
AcDbPolyline
 62
253
  6
CONTINUOUS
 90
16
 70
0
 10
-97.2004502986
 20
-43.1864192946
 10
-97.1946515155
 20
-43.2116917322
 10
-97.1866750713
 20
-43.2363752976
 10
-97.1765810406
 20
-43.2602840869
 10
-97.1644454464
 20
-43.2832380313
 10
-97.1503596879
 20
-43.3050642534
 10
-97.1344298518
 20
-43.3255983693
 10
-97.1167759135
 20
-43.3446857265
 10
-97.0975308334
 20
-43.3621825687
 10
-97.0768395557
 20
-43.3779571188
 10
-97.0548579164
 20
-43.3918905707
 10
-97.0317514701
 20
-43.403877985
 10
-97.0076942427
 20
-43.4138290785
 10
-96.9828674209
 20
-43.4216689046
 10
-96.9574579877
 20
-43.4273384178
 10
-96.9316573141
 20
-43.4307949183
  0
LWPOLYLINE
  5
469
100
AcDbEntity
  8
0
100
AcDbPolyline
 62
7
  6
CONTINUOUS
 90
7
 70
0
 10
-100.1167074341
 20
-26.4611744728
 10
-100.1172227013
 20
-26.4550496155
 10
-100.1176360446
 20
-26.450571667
 10
-100.1179720242
 20
-26.4473316578
 10
-100.1182348138
 20
-26.4452619508
 10
-100.1184203869
 20
-26.4444301914
 10
-100.1184612125
 20
-26.4443911013
  0
LINE
  5
46A
100
AcDbEntity
  8
0
100
AcDbLine
 62
7
  6
CONTINUOUS
 10
-99.9155401287
 20
-29.2769130111
 11
-99.9683515007
 21
-28.6065592749
  0
LINE
  5
46B
100
AcDbEntity
  8
0
100
AcDbLine
 62
7
  6
CONTINUOUS
 10
-100.0686080955
 20
-28.6069478754
 11
-100.0158628303
 21
-29.2769130111
  0
LINE
  5
46C
100
AcDbEntity
  8
0
100
AcDbLine
 62
7
  6
CONTINUOUS
 10
-100.2168892886
 20
-26.4612063741
 11
-100.2155643261
 21
-26.4782045312
  0
LINE
  5
46D
100
AcDbEntity
  8
0
100
AcDbLine
 62
7
  6
CONTINUOUS
 10
-100.1153803954
 20
-26.4781878779
 11
-100.1167074341
 21
-26.4611744728
  0
LINE
  5
46E
100
AcDbEntity
  8
0
100
AcDbLine
 62
7
  6
CONTINUOUS
 10
-100.1163421526
 20
-27.9700360936
 11
-100.0686080955
 21
-28.6069478754
  0
LINE
  5
46F
100
AcDbEntity
  8
0
100
AcDbLine
 62
7
  6
CONTINUOUS
 10
-99.9683515007
 20
-28.6065592749
 11
-100.0160884502
 21
-27.9700360936
  0
LINE
  5
470
100
AcDbEntity
  8
0
100
AcDbLine
 62
7
  6
CONTINUOUS
 10
-100.1175192124
 20
-27.9534922848
 11
-100.1163421526
 21
-27.9700360936
  0
LINE
  5
471
100
AcDbEntity
  8
0
100
AcDbLine
 62
7
  6
CONTINUOUS
 10
-100.0160884502
 20
-27.9700360936
 11
-100.0172663287
 21
-27.9534922848
  0
LINE
  5
472
100
AcDbEntity
  8
0
100
AcDbLine
 62
7
  6
CONTINUOUS
 10
-100.2155643261
 20
-26.4782045312
 11
-100.2125403474
 21
-26.5205569881
  0
LINE
  5
473
100
AcDbEntity
  8
0
100
AcDbLine
 62
7
  6
CONTINUOUS
 10
-100.1123533842
 20
-26.520555603
 11
-100.1153803954
 21
-26.4781878779
  0
LINE
  5
474
100
AcDbEntity
  8
0
100
AcDbLine
 62
7
  6
CONTINUOUS
 10
-100.2125403474
 20
-26.5205569881
 11
-100.1179578165
 21
-27.9464135038
  0
LINE
  5
475
100
AcDbEntity
  8
0
100
AcDbLine
 62
7
  6
CONTINUOUS
 10
-100.0177615798
 20
-27.9455537811
 11
-100.1123533842
 21
-26.520555603
  0
LINE
  5
476
100
AcDbEntity
  8
0
100
AcDbLine
 62
7
  6
CONTINUOUS
 10
-100.2176743926
 20
-26.5100125515
 11
-100.1913396067
 21
-26.9279660809
  0
LINE
  5
477
100
AcDbEntity
  8
SUPERFICI
100
AcDbLine
 62
7
  6
CONTINUOUS
 10
-100.1232521365
 20
-26.4391294117
 11
-100.1229202679
 21
-26.4446049263
  0
LINE
  5
478
100
AcDbEntity
  8
0
100
AcDbLine
 62
7
  6
CONTINUOUS
 10
-100.0172663287
 20
-27.9534922848
 11
-100.0177615798
 21
-27.9455537811
  0
LINE
  5
479
100
AcDbEntity
  8
0
100
AcDbLine
 62
7
  6
CONTINUOUS
 10
-100.1179578165
 20
-27.9464135038
 11
-100.1175192124
 21
-27.9534922848
  0
LWPOLYLINE
  5
47A
100
AcDbEntity
  8
RACCORDO
100
AcDbPolyline
 62
253
  6
CONTINUOUS
 90
10
 70
0
 10
-99.6660586294
 20
-24.7463746289
 10
-99.5460899651
 20
-26.8802153235
 10
-99.3945822299
 20
-29.0120476196
 10
-99.2115685714
 20
-31.1414051065
 10
-98.9970890299
 20
-33.2678219152
 10
-98.7511905302
 20
-35.3908328198
 10
-98.4739268712
 20
-37.5099733396
 10
-98.1653587138
 20
-39.624779841
 10
-97.8255535676
 20
-41.7347896381
 10
-97.4545857767
 20
-43.8395410948
  0
LINE
  5
47B
100
AcDbEntity
  8
SUPERFICI
100
AcDbLine
 62
7
  6
CONTINUOUS
 10
-100.2388502891
 20
-24.270693333
 11
-100.2374969159
 21
-24.2989499315
  0
LINE
  5
47C
100
AcDbEntity
  8
RACCORDO
100
AcDbLine
 62
253
  6
CONTINUOUS
 10
-99.737450886
 20
-23.2368123465
 11
-99.6660586294
 21
-24.7463746289
  0
LINE
  5
47D
100
AcDbEntity
  8
RACCORDO
100
AcDbLine
 62
253
  6
CONTINUOUS
 10
-99.7382917885
 20
-23.2165321535
 11
-99.7374510103
 21
-23.2368123522
  0
LINE
  5
47E
100
AcDbEntity
  8
RACCORDO
100
AcDbLine
 62
253
  6
CONTINUOUS
 10
-99.8689915572
 20
-19.8057993734
 11
-99.8720509594
 21
-19.732897652
  0
LINE
  5
47F
100
AcDbEntity
  8
RACCORDO
100
AcDbLine
 62
7
  6
CONTINUOUS
 10
-99.7686176726
 20
-22.2474746749
 11
-99.7563197541
 21
-22.5699942094
  0
LINE
  5
480
100
AcDbEntity
  8
RACCORDO
100
AcDbLine
 62
253
  6
CONTINUOUS
 10
-99.9545719645
 20
-17.4627422741
 11
-99.9601971863
 21
-17.3041808433
  0
LINE
  5
481
100
AcDbEntity
  8
RACCORDO
100
AcDbLine
 62
7
  6
CONTINUOUS
 10
-99.7563197541
 20
-22.5699942094
 11
-99.7488473468
 21
-22.7942036278
  0
LINE
  5
482
100
AcDbEntity
  8
RACCORDO
100
AcDbLine
 62
253
  6
CONTINUOUS
 10
-100.0310286257
 20
-15.0562790048
 11
-100.0365470131
 21
-14.8750621461
  0
LWPOLYLINE
  5
483
100
AcDbEntity
  8
RACCORDO
100
AcDbPolyline
 62
7
  6
CONTINUOUS
 90
3
 70
0
 10
-99.7488473468
 20
-22.7942036278
 10
-99.7430675583
 20
-22.9966603502
 10
-99.7415407086
 20
-23.0584080454
  0
LINE
  5
484
100
AcDbEntity
  8
RACCORDO
100
AcDbLine
 62
253
  6
CONTINUOUS
 10
-99.7404801087
 20
-23.0871803124
 11
-99.7415407086
 21
-23.0584080454
  0
LINE
  5
485
100
AcDbEntity
  8
RACCORDO
100
AcDbLine
 62
253
  6
CONTINUOUS
 10
-100.0984501715
 20
-12.545271962
 11
-100.1010983373
 21
-12.4456054674
  0
LINE
  5
486
100
AcDbEntity
  8
RACCORDO
100
AcDbLine
 62
253
  6
CONTINUOUS
 10
-100.153849874
 20
-10.0158660516
 11
-100.154441497
 21
-9.9731893035
  0
LINE
  5
487
100
AcDbEntity
  8
RACCORDO
100
AcDbLine
 62
253
  6
CONTINUOUS
 10
-100.1948005049
 20
-7.5858951117
 11
-100.1964159285
 21
-7.4567635206
  0
LINE
  5
488
100
AcDbEntity
  8
RACCORDO
100
AcDbLine
 62
253
  6
CONTINUOUS
 10
-100.1966848777
 20
6.6995281775
 11
-100.1948707928
 21
6.842797023
  0
LINE
  5
489
100
AcDbEntity
  8
RACCORDO
100
AcDbLine
 62
253
  6
CONTINUOUS
 10
-100.1548789427
 20
9.2121503333
 11
-100.1539323155
 21
9.2733661085
  0
LINE
  5
48A
100
AcDbEntity
  8
RACCORDO
100
AcDbLine
 62
253
  6
CONTINUOUS
 10
-100.1011871178
 20
11.7037039418
 11
-100.0990349904
 21
11.7831171989
  0
LINE
  5
48B
100
AcDbEntity
  8
RACCORDO
100
AcDbLine
 62
253
  6
CONTINUOUS
 10
-100.036636311
 20
14.1337592825
 11
-100.0317352053
 21
14.2939723254
  0
LINE
  5
48C
100
AcDbEntity
  8
RACCORDO
100
AcDbLine
 62
7
  6
CONTINUOUS
 10
-99.7416575683
 20
22.3152835347
 11
-99.746877018
 21
22.1212765504
  0
LINE
  5
48D
100
AcDbEntity
  8
RACCORDO
100
AcDbLine
 62
253
  6
CONTINUOUS
 10
-99.746877018
 20
22.1212765504
 11
-99.7459348337
 21
22.1427593249
  0
LINE
  5
48E
100
AcDbEntity
  8
RACCORDO
100
AcDbLine
 62
253
  6
CONTINUOUS
 10
-99.9602811768
 20
16.56347686
 11
-99.9552310476
 21
16.7052261817
  0
LINE
  5
48F
100
AcDbEntity
  8
RACCORDO
100
AcDbLine
 62
7
  6
CONTINUOUS
 10
-99.746877018
 20
22.1212765504
 11
-99.753808822
 21
21.9040164331
  0
LWPOLYLINE
  5
490
100
AcDbEntity
  8
RACCORDO
100
AcDbPolyline
 62
7
  6
CONTINUOUS
 90
9
 70
0
 10
-99.8721238119
 20
18.9927928646
 10
-99.9602811768
 20
16.56347686
 10
-100.036636311
 20
14.1337592825
 10
-100.1011871178
 20
11.7037039418
 10
-100.1539323155
 20
9.2733661085
 10
-100.1948707928
 20
6.842797023
 10
-100.224001436
 20
4.4120520332
 10
-100.2413235757
 20
1.9811952662
 10
-100.2468431987
 20
-0.3691116567
  0
LINE
  5
491
100
AcDbEntity
  8
RACCORDO
100
AcDbLine
 62
253
  6
CONTINUOUS
 10
-99.8721238119
 20
18.9927928646
 11
-99.8694293386
 21
19.0563117024
  0
LINE
  5
492
100
AcDbEntity
  8
RACCORDO
100
AcDbLine
 62
7
  6
CONTINUOUS
 10
-99.753808822
 20
21.9040164331
 11
-99.7654533141
 21
21.5881430846
  0
LINE
  5
493
100
AcDbEntity
  8
RACCORDO
100
AcDbLine
 62
253
  6
CONTINUOUS
 10
-99.7654533141
 20
21.5881430846
 11
-99.7638445686
 21
21.6231528439
  0
LINE
  5
494
100
AcDbEntity
  8
RACCORDO
100
AcDbLine
 62
253
  6
CONTINUOUS
 10
-99.7382925082
 20
22.4783107724
 11
-99.7374518633
 21
22.4985890779
  0
LINE
  5
495
100
AcDbEntity
  8
RACCORDO
100
AcDbLine
 62
7
  6
CONTINUOUS
 10
-99.7654533141
 20
21.5881430846
 11
-99.8721238119
 21
18.9927928646
  0
LINE
  5
496
100
AcDbEntity
  8
COPY_PUBLISH
100
AcDbLine
 62
7
  6
CONTINUOUS
 10
-100.2374969159
 20
23.5607266185
 11
-100.2388502891
 21
23.5324700199
  0
LWPOLYLINE
  5
497
100
AcDbEntity
  8
RACCORDO
100
AcDbPolyline
 62
253
  6
CONTINUOUS
 90
3
 70
0
 10
-99.737450886
 20
22.4985890331
 10
-99.6782741402
 20
23.7565730016
 10
-99.6660586294
 20
24.0081513155
  0
LWPOLYLINE
  5
498
100
AcDbEntity
  8
RACCORDO
100
AcDbPolyline
 62
253
  6
CONTINUOUS
 90
10
 70
0
 10
-99.6660586294
 20
24.0081513155
 10
-99.5460899651
 20
26.1419920101
 10
-99.3945822299
 20
28.2738243062
 10
-99.2115685714
 20
30.4031817931
 10
-98.9970890299
 20
32.5295986017
 10
-98.7511905302
 20
34.6526095063
 10
-98.4739268712
 20
36.7717500262
 10
-98.1653587138
 20
38.8865565275
 10
-97.8255535676
 20
40.9965663246
 10
-97.4545857766
 20
43.1013177813
  0
LWPOLYLINE
  5
499
100
AcDbEntity
  8
RACCORDO
100
AcDbPolyline
 62
253
  6
CONTINUOUS
 90
19
 70
0
 10
-92.9504642366
 20
3.1600302388
 10
-92.9459694956
 20
3.1615610197
 10
-92.9417599128
 20
3.164512576
 10
-92.9378660924
 20
3.1688634522
 10
-92.9343163433
 20
3.1745820191
 10
-92.9311364719
 20
3.1816267055
 10
-92.9283495954
 20
3.1899463029
 10
-92.9259759748
 20
3.1994803349
 10
-92.9240328685
 20
3.2101594899
 10
-92.922534405
 20
3.2219061277
 10
-92.9214914787
 20
3.2346348529
 10
-92.9209116725
 20
3.2482531273
 10
-92.9207992023
 20
3.2626619342
 10
-92.9211548851
 20
3.2777565163
 10
-92.9219761345
 20
3.2934271384
 10
-92.9232569796
 20
3.3095598734
 10
-92.9249881079
 20
3.3260374353
 10
-92.9271569337
 20
3.3427400316
 10
-92.9297476891
 20
3.3595462341
  0
LINE
  5
49A
100
AcDbEntity
  8
RACCORDO
100
AcDbLine
 62
253
  6
CONTINUOUS
 10
-100.2468431987
 20
-0.3691116567
 11
-100.2466126955
 21
-0.3691116567
  0
LINE
  5
49B
100
AcDbEntity
  8
RACCORDO
100
AcDbLine
 62
253
  6
CONTINUOUS
 10
-93.1157345533
 20
-0.3691116567
 11
-96.5063202793
 21
-0.3691116567
  0
LINE
  5
49C
100
AcDbEntity
  8
RACCORDO
100
AcDbLine
 62
253
  6
CONTINUOUS
 10
-91.3009821117
 20
-4.3811972581
 11
-92.929739955
 21
-4.0977719534
  0
LINE
  5
49D
100
AcDbEntity
  8
RACCORDO
100
AcDbLine
 62
7
  6
CONTINUOUS
 10
-91.2810049178
 20
-4.1926239938
 11
-92.9504641888
 21
-3.8982532811
  0
LINE
  5
49E
100
AcDbEntity
  8
DRAFT
100
AcDbLine
 62
7
  6
CONTINUOUS
 10
-95.6437001292
 20
-31.0054986347
 11
-95.04640759
 21
-38.8895192204
  0
LINE
  5
49F
100
AcDbEntity
  8
RACCORDO
100
AcDbLine
 62
253
  6
CONTINUOUS
 10
-97.7177568231
 20
-33.5374283909
 11
-97.8363242971
 21
-31.9048904312
  0
LWPOLYLINE
  5
4A0
100
AcDbEntity
  8
RACCORDO
100
AcDbPolyline
 62
7
  6
CONTINUOUS
 90
9
 70
0
 10
-99.7378862577
 20
22.7417447204
 10
-99.7379322122
 20
22.7423849469
 10
-99.7380031291
 20
22.7434532282
 10
-99.7379870299
 20
22.7431533979
 10
-99.7379036326
 20
22.741432449
 10
-99.7377860352
 20
22.7386420842
 10
-99.7376468575
 20
22.7348290425
 10
-99.7374932883
 20
22.7299140115
 10
-99.7373390157
 20
22.7240680413
  0
LINE
  5
4A1
100
AcDbEntity
  8
RACCORDO
100
AcDbLine
 62
253
  6
CONTINUOUS
 10
-95.4847511127
 20
-30.763625446
 11
-94.882587004
 21
-38.8007761675
  0
LINE
  5
4A2
100
AcDbEntity
  8
RACCORDO
100
AcDbLine
 62
253
  6
CONTINUOUS
 10
-97.3356748359
 20
-38.7074405681
 11
-97.7177568231
 21
-33.5374283909
  0
LINE
  5
4A3
100
AcDbEntity
  8
DRAFT
100
AcDbLine
 62
7
  6
CONTINUOUS
 10
-95.04640759
 20
-38.8895192204
 11
-94.9814531766
 21
-39.7856761193
  0
LINE
  5
4A4
100
AcDbEntity
  8
RACCORDO
100
AcDbLine
 62
253
  6
CONTINUOUS
 10
-97.4467011771
 20
-33.6295017045
 11
-97.5649159513
 21
-31.9710731734
  0
LINE
  5
4A5
100
AcDbEntity
  8
RACCORDO
100
AcDbLine
 62
253
  6
CONTINUOUS
 10
-97.8363242971
 20
-31.9048904312
 11
-97.9364170321
 21
-30.4866865348
  0
LINE
  5
4A6
100
AcDbEntity
  8
RACCORDO
100
AcDbLine
 62
253
  6
CONTINUOUS
 10
-97.0657534626
 20
-38.8814914947
 11
-97.4467011771
 21
-33.6295017045
  0
LINE
  5
4A7
100
AcDbEntity
  8
RACCORDO
100
AcDbLine
 62
253
  6
CONTINUOUS
 10
-94.882587004
 20
-38.8007761675
 11
-94.8256189948
 21
-39.6048919716
  0
LINE
  5
4A8
100
AcDbEntity
  8
RACCORDO
100
AcDbLine
 62
253
  6
CONTINUOUS
 10
-95.4481173801
 20
-29.4130682716
 11
-94.7592988811
 21
-38.7187625446
  0
LINE
  5
4A9
100
AcDbEntity
  8
RACCORDO
100
AcDbLine
 62
253
  6
CONTINUOUS
 10
-94.7592988811
 20
-38.7187625446
 11
-94.7029547155
 21
-39.5180362918
  0
LINE
  5
4AA
100
AcDbEntity
  8
RACCORDO
100
AcDbLine
 62
253
  6
CONTINUOUS
 10
-97.5649159513
 20
-31.9710731734
 11
-97.6646539899
 21
-30.5299982118
  0
LINE
  5
4AB
100
AcDbEntity
  8
RACCORDO
100
AcDbLine
 62
253
  6
CONTINUOUS
 10
-97.9364170321
 20
-30.4866865348
 11
-98.0074577911
 21
-29.4473794281
  0
LINE
  5
4AC
100
AcDbEntity
  8
DRAFT
100
AcDbLine
 62
7
  6
CONTINUOUS
 10
-95.7794860641
 20
-29.0607306086
 11
-95.6437001292
 21
-31.0054986347
  0
LINE
  5
4AD
100
AcDbEntity
  8
RACCORDO
100
AcDbLine
 62
253
  6
CONTINUOUS
 10
-95.6072521893
 20
-28.9978717001
 11
-95.4847511127
 21
-30.763625446
  0
LINE
  5
4AE
100
AcDbEntity
  8
RACCORDO
100
AcDbLine
 62
253
  6
CONTINUOUS
 10
-97.2757248709
 20
-39.580271544
 11
-97.3356748359
 21
-38.7074405681
  0
LINE
  5
4AF
100
AcDbEntity
  8
RACCORDO
100
AcDbLine
 62
253
  6
CONTINUOUS
 10
-97.6646539899
 20
-30.5299982118
 11
-97.7648479185
 21
-29.0323034896
  0
LINE
  5
4B0
100
AcDbEntity
  8
DRAFT
100
AcDbLine
 62
7
  6
CONTINUOUS
 10
-94.9814531766
 20
-39.7856761193
 11
-94.9213413137
 21
-40.6754768299
  0
LINE
  5
4B1
100
AcDbEntity
  8
0
100
AcDbLine
 62
7
  6
CONTINUOUS
 10
-94.5244195869
 20
-37.8767287214
 11
-94.4704020106
 21
-38.6866807086
  0
LINE
  5
4B2
100
AcDbEntity
  8
RACCORDO
100
AcDbLine
 62
253
  6
CONTINUOUS
 10
-95.506311532
 20
-28.5340279675
 11
-95.44811738
 21
-29.4130682716
  0
LINE
  5
4B3
100
AcDbEntity
  8
RACCORDO
100
AcDbLine
 62
253
  6
CONTINUOUS
 10
-96.9963726409
 20
-39.9180526508
 11
-97.0657534626
 21
-38.8814914947
  0
LINE
  5
4B4
100
AcDbEntity
  8
RACCORDO
100
AcDbLine
 62
253
  6
CONTINUOUS
 10
-94.8256189948
 20
-39.6048919716
 11
-94.7807715367
 21
-40.2796812544
  0
LINE
  5
4B5
100
AcDbEntity
  8
RACCORDO
100
AcDbLine
 62
253
  6
CONTINUOUS
 10
-98.0074577911
 20
-29.4473794281
 11
-98.0648769272
 21
-28.565936208
  0
LINE
  5
4B6
100
AcDbEntity
  8
RACCORDO
100
AcDbLine
 62
253
  6
CONTINUOUS
 10
-94.7029547155
 20
-39.5180362918
 11
-94.6586412113
 21
-40.1886114182
  0
LINE
  5
4B7
100
AcDbEntity
  8
0
100
AcDbLine
 62
7
  6
CONTINUOUS
 10
-94.4704020106
 20
-38.6866807086
 11
-94.4491183896
 21
-39.0219815273
  0
LINE
  5
4B8
100
AcDbEntity
  8
DRAFT
100
AcDbLine
 62
7
  6
CONTINUOUS
 10
-95.8362500594
 20
-28.1733592787
 11
-95.7794860641
 21
-29.0607306086
  0
LINE
  5
4B9
100
AcDbEntity
  8
RACCORDO
100
AcDbLine
 62
253
  6
CONTINUOUS
 10
-95.6634677694
 20
-28.1160036313
 11
-95.6072521893
 21
-28.9978717001
  0
LINE
  5
4BA
100
AcDbEntity
  8
RACCORDO
100
AcDbLine
 62
253
  6
CONTINUOUS
 10
-97.232916441
 20
-40.2491546981
 11
-97.2757248709
 21
-39.580271544
  0
LWPOLYLINE
  5
4BB
100
AcDbEntity
  8
0
100
AcDbPolyline
 62
7
  6
CONTINUOUS
 90
3
 70
0
 10
-95.2171363763
 20
-27.9575669545
 10
-95.1907180486
 20
-28.3872899588
 10
-94.5244195869
 20
-37.8767287214
  0
LINE
  5
4BC
100
AcDbEntity
  8
RACCORDO
100
AcDbLine
 62
253
  6
CONTINUOUS
 10
-97.7648479185
 20
-29.0323034896
 11
-97.8199955326
 21
-28.1475727534
  0
LINE
  5
4BD
100
AcDbEntity
  8
RACCORDO
100
AcDbLine
 62
253
  6
CONTINUOUS
 10
-95.5601644677
 20
-27.6534987204
 11
-95.506311532
 21
-28.5340279675
  0
LINE
  5
4BE
100
AcDbEntity
  8
RACCORDO
100
AcDbLine
 62
253
  6
CONTINUOUS
 10
-94.7807715367
 20
-40.2796812544
 11
-94.7553397024
 21
-40.6915136412
  0
LINE
  5
4BF
100
AcDbEntity
  8
RACCORDO
100
AcDbLine
 62
253
  6
CONTINUOUS
 10
-96.9565484925
 20
-40.562985925
 11
-96.9963726409
 21
-39.9180526508
  0
LINE
  5
4C0
100
AcDbEntity
  8
RACCORDO
100
AcDbLine
 62
253
  6
CONTINUOUS
 10
-94.6586412113
 20
-40.1886114182
 11
-94.6335243299
 21
-40.5979660291
  0
LINE
  5
4C1
100
AcDbEntity
  8
DRAFT
100
AcDbLine
 62
7
  6
CONTINUOUS
 10
-94.9213413137
 20
-40.6754768299
 11
-94.8882652661
 21
-41.2210279604
  0
LINE
  5
4C2
100
AcDbEntity
  8
RACCORDO
100
AcDbLine
 62
253
  6
CONTINUOUS
 10
-98.0648769272
 20
-28.565936208
 11
-98.1180122013
 21
-27.6830443276
  0
LINE
  5
4C3
100
AcDbEntity
  8
DRAFT
100
AcDbLine
 62
7
  6
CONTINUOUS
 10
-95.8885998232
 20
-27.2846074032
 11
-95.8362500594
 21
-28.1733592787
  0
LINE
  5
4C4
100
AcDbEntity
  8
RACCORDO
100
AcDbLine
 62
253
  6
CONTINUOUS
 10
-95.715318621
 20
-27.232689087
 11
-95.6634677694
 21
-28.1160036313
  0
LINE
  5
4C5
100
AcDbEntity
  8
RACCORDO
100
AcDbLine
 62
253
  6
CONTINUOUS
 10
-97.2080375734
 20
-40.6710792841
 11
-97.232916441
 21
-40.2491546981
  0
LINE
  5
4C6
100
AcDbEntity
  8
RACCORDO
100
AcDbLine
 62
253
  6
CONTINUOUS
 10
-97.8199955326
 20
-28.1475727534
 11
-97.8708661476
 21
-27.2613793624
  0
LINE
  5
4C7
100
AcDbEntity
  8
RACCORDO
100
AcDbLine
 62
253
  6
CONTINUOUS
 10
-94.6335243299
 20
-40.5979660291
 11
-94.6184944382
 21
-40.8605865449
  0
LINE
  5
4C8
100
AcDbEntity
  8
RACCORDO
100
AcDbLine
 62
253
  6
CONTINUOUS
 10
-94.7553397024
 20
-40.6915136412
 11
-94.7367341852
 21
-41.0167588662
  0
LINE
  5
4C9
100
AcDbEntity
  8
RACCORDO
100
AcDbLine
 62
253
  6
CONTINUOUS
 10
-95.6096573695
 20
-26.7716442682
 11
-95.5601644677
 21
-27.6534987204
  0
LINE
  5
4CA
100
AcDbEntity
  8
RACCORDO
100
AcDbLine
 62
253
  6
CONTINUOUS
 10
-96.9335604807
 20
-40.9693803846
 11
-96.9565484925
 21
-40.562985925
  0
LINE
  5
4CB
100
AcDbEntity
  8
RACCORDO
100
AcDbLine
 62
253
  6
CONTINUOUS
 10
-98.1180122013
 20
-27.6830443276
 11
-98.1668489124
 21
-26.7988210315
  0
LINE
  5
4CC
100
AcDbEntity
  8
DRAFT
100
AcDbLine
 62
7
  6
CONTINUOUS
 10
-95.9365101308
 20
-26.3947568041
 11
-95.8885998232
 21
-27.2846074032
  0
LINE
  5
4CD
100
AcDbEntity
  8
RACCORDO
100
AcDbLine
 62
253
  6
CONTINUOUS
 10
-95.762775598
 20
-26.3482962529
 11
-95.715318621
 21
-27.232689087
  0
LINE
  5
4CE
100
AcDbEntity
  8
RACCORDO
100
AcDbLine
 62
253
  6
CONTINUOUS
 10
-94.7367341852
 20
-41.0167588662
 11
-94.727111172
 21
-41.1966488654
  0
LINE
  5
4CF
100
AcDbEntity
  8
RACCORDO
100
AcDbLine
 62
253
  6
CONTINUOUS
 10
-97.1896267901
 20
-41.0121159179
 11
-97.2080375734
 21
-40.6710792841
  0
LWPOLYLINE
  5
4D0
100
AcDbEntity
  8
DRAFT
100
AcDbPolyline
 62
7
  6
CONTINUOUS
 90
16
 70
0
 10
-94.8882652661
 20
-41.2210279604
 10
-94.8623422035
 20
-41.7013622307
 10
-94.8524396624
 20
-41.9141584176
 10
-94.8441693891
 20
-42.1135547743
 10
-94.8374347321
 20
-42.2989655731
 10
-94.8324475212
 20
-42.470995226
 10
-94.8292091588
 20
-42.6351098017
 10
-94.8275656746
 20
-42.7949516181
 10
-94.8275919587
 20
-42.9468861519
 10
-94.8296164345
 20
-43.0854635627
 10
-94.8339208723
 20
-43.2094943157
 10
-94.8402630969
 20
-43.3201817092
 10
-94.8482884031
 20
-43.4156682006
 10
-94.8579401274
 20
-43.495338427
 10
-94.869401349
 20
-43.559818294
 10
-94.8827212372
 20
-43.6091116608
  0
LINE
  5
4D1
100
AcDbEntity
  8
RACCORDO
100
AcDbLine
 62
253
  6
CONTINUOUS
 10
-97.8708661476
 20
-27.2613793624
 11
-97.9174334849
 21
-26.3740430728
  0
LINE
  5
4D2
100
AcDbEntity
  8
RACCORDO
100
AcDbLine
 62
253
  6
CONTINUOUS
 10
-96.9165475387
 20
-41.2982487296
 11
-96.9335604807
 21
-40.9693803846
  0
LINE
  5
4D3
100
AcDbEntity
  8
RACCORDO
100
AcDbLine
 62
253
  6
CONTINUOUS
 10
-95.654759241
 20
-25.8889070627
 11
-95.6096573695
 21
-26.7716442682
  0
LINE
  5
4D4
100
AcDbEntity
  8
RACCORDO
100
AcDbLine
 62
253
  6
CONTINUOUS
 10
-98.1668489124
 20
-26.7988210315
 11
-98.2113588669
 21
-25.9136405098
  0
LINE
  5
4D5
100
AcDbEntity
  8
RACCORDO
100
AcDbLine
 62
253
  6
CONTINUOUS
 10
-97.1759638711
 20
-41.2906690801
 11
-97.1896267901
 21
-41.0121159179
  0
LINE
  5
4D6
100
AcDbEntity
  8
DRAFT
100
AcDbLine
 62
7
  6
CONTINUOUS
 10
-95.9843854418
 20
-25.407826644
 11
-95.9365101308
 21
-26.3947568041
  0
LINE
  5
4D7
100
AcDbEntity
  8
RACCORDO
100
AcDbLine
 62
253
  6
CONTINUOUS
 10
-95.810061607
 20
-25.3704879444
 11
-95.762775598
 21
-26.3482962529
  0
LINE
  5
4D8
100
AcDbEntity
  8
RACCORDO
100
AcDbLine
 62
253
  6
CONTINUOUS
 10
-97.9174334849
 20
-26.3740430728
 11
-97.9632990764
 21
-25.4053778943
  0
LINE
  5
4D9
100
AcDbEntity
  8
RACCORDO
100
AcDbLine
 62
253
  6
CONTINUOUS
 10
-96.9038654983
 20
-41.5695445138
 11
-96.9165475387
 21
-41.2982487296
  0
LINE
  5
4DA
100
AcDbEntity
  8
RACCORDO
100
AcDbLine
 62
253
  6
CONTINUOUS
 10
-97.1677345352
 20
-41.4763723819
 11
-97.1759638711
 21
-41.2906690801
  0
LINE
  5
4DB
100
AcDbEntity
  8
RACCORDO
100
AcDbLine
 62
253
  6
CONTINUOUS
 10
-95.8303967448
 20
-24.9074934572
 11
-95.810061607
 21
-25.3704879444
  0
LINE
  5
4DC
100
AcDbEntity
  8
RACCORDO
100
AcDbLine
 62
253
  6
CONTINUOUS
 10
-98.2113588669
 20
-25.9136405098
 11
-98.2531100594
 21
-24.9878320567
  0
LINE
  5
4DD
100
AcDbEntity
  8
DRAFT
100
AcDbLine
 62
7
  6
CONTINUOUS
 10
-96.0135386407
 20
-24.7351958227
 11
-95.9843854418
 21
-25.407826644
  0
LINE
  5
4DE
100
AcDbEntity
  8
RACCORDO
100
AcDbLine
 62
253
  6
CONTINUOUS
 10
-97.9632990764
 20
-25.4053778943
 11
-97.996343905
 21
-24.6222703344
  0
LINE
  5
4DF
100
AcDbEntity
  8
RACCORDO
100
AcDbLine
 62
253
  6
CONTINUOUS
 10
-96.896079995
 20
-41.7551976124
 11
-96.9038654983
 21
-41.5695445138
  0
LWPOLYLINE
  5
4E0
100
AcDbEntity
  8
RACCORDO
100
AcDbPolyline
 62
253
  6
CONTINUOUS
 90
18
 70
0
 10
-98.2531100594
 20
-24.9878320567
 10
-98.3708608046
 20
-21.9212252414
 10
-98.4609507968
 20
-19.233547356
 10
-98.5390195154
 20
-16.5437983164
 10
-98.605083639
 20
-13.8519463133
 10
-98.6591456571
 20
-11.1581776097
 10
-98.7011996783
 20
-8.4628966824
 10
-98.7312485064
 20
-5.7658908527
 10
-98.7492823158
 20
-3.0675290156
 10
-98.7552921709
 20
-0.3690886167
 10
-98.7492821109
 20
2.3293519614
 10
-98.7312480959
 20
5.027713846
 10
-98.7011990704
 20
7.7247188559
 10
-98.6591448768
 20
10.4199980563
 10
-98.6050827228
 20
13.1137641664
 10
-98.5390185214
 20
15.8056120962
 10
-98.460949811
 20
18.4953553789
 10
-98.3708599354
 20
21.1830260299
  0
LINE
  5
4E1
100
AcDbEntity
  8
RACCORDO
100
AcDbLine
 62
253
  6
CONTINUOUS
 10
-97.1606124803
 20
-41.6555539028
 11
-97.1677345352
 21
-41.4763723819
  0
LWPOLYLINE
  5
4E2
100
AcDbEntity
  8
RACCORDO
100
AcDbPolyline
 62
253
  6
CONTINUOUS
 90
18
 70
0
 10
-97.996343905
 20
-24.6222703344
 10
-98.0983970604
 20
-21.9354110626
 10
-98.1884409574
 20
-19.2459307344
 10
-98.2664780063
 20
-16.554141186
 10
-98.332507451
 20
-13.8604883775
 10
-98.3865344513
 20
-11.1651588498
 10
-98.4285649442
 20
-8.4680747564
 10
-98.458596732
 20
-5.7692643292
 10
-98.4766191295
 20
-3.0693383149
 10
-98.4826263939
 20
-0.369092764
 10
-98.4766189601
 20
2.331152995
 10
-98.4585963922
 20
5.031079108
 10
-98.4285644453
 20
7.7298887365
 10
-98.3865338239
 20
10.4269707529
 10
-98.3325067339
 20
13.1222973093
 10
-98.2664772394
 20
15.8159466127
 10
-98.1884401839
 20
18.5077322433
 10
-98.0983963335
 20
21.1972081248
  0
LINE
  5
4E3
100
AcDbEntity
  8
RACCORDO
100
AcDbLine
 62
253
  6
CONTINUOUS
 10
-96.8893897796
 20
-41.9348826012
 11
-96.896079995
 21
-41.7551976124
  0
LINE
  5
4E4
100
AcDbEntity
  8
RACCORDO
100
AcDbLine
 62
253
  6
CONTINUOUS
 10
-97.1546830906
 20
-41.8273944708
 11
-97.1606124803
 21
-41.6555539028
  0
LINE
  5
4E5
100
AcDbEntity
  8
RACCORDO
100
AcDbLine
 62
253
  6
CONTINUOUS
 10
-96.8839272748
 20
-42.1063749456
 11
-96.8893897796
 21
-41.9348826012
  0
LINE
  5
4E6
100
AcDbEntity
  8
RACCORDO
100
AcDbLine
 62
253
  6
CONTINUOUS
 10
-97.1500497622
 20
-41.9895423868
 11
-97.1546830906
 21
-41.8273944708
  0
LINE
  5
4E7
100
AcDbEntity
  8
RACCORDO
100
AcDbLine
 62
253
  6
CONTINUOUS
 10
-96.8797743575
 20
-42.2673700098
 11
-96.8839272748
 21
-42.1063749456
  0
LINE
  5
4E8
100
AcDbEntity
  8
RACCORDO
100
AcDbLine
 62
253
  6
CONTINUOUS
 10
-97.147695741
 20
-42.0914426934
 11
-97.1500497622
 21
-41.9895423868
  0
LINE
  5
4E9
100
AcDbEntity
  8
RACCORDO
100
AcDbLine
 62
253
  6
CONTINUOUS
 10
-99.7384927751
 20
-23.1795867538
 11
-99.7390886287
 21
-23.1720796308
  0
LINE
  5
4EA
100
AcDbEntity
  8
RACCORDO
100
AcDbLine
 62
7
  6
CONTINUOUS
 10
-99.7415407086
 20
-23.0584080454
 11
-99.7390886287
 21
-23.1720796308
  0
LINE
  5
4EB
100
AcDbEntity
  8
RACCORDO
100
AcDbLine
 62
253
  6
CONTINUOUS
 10
-96.8777321931
 20
-42.368594358
 11
-96.8797743575
 21
-42.2673700098
  0
LINE
  5
4EC
100
AcDbEntity
  8
RACCORDO
100
AcDbLine
 62
7
  6
CONTINUOUS
 10
-99.7373390157
 20
22.7240680413
 11
-99.7370521586
 21
22.7095882624
  0
LINE
  5
4ED
100
AcDbEntity
  8
RACCORDO
100
AcDbLine
 62
253
  6
CONTINUOUS
 10
-97.1459102874
 20
-42.1889259001
 11
-97.147695741
 21
-42.0914426934
  0
LINE
  5
4EE
100
AcDbEntity
  8
RACCORDO
100
AcDbLine
 62
7
  6
CONTINUOUS
 10
-99.7390886287
 20
-23.1720796308
 11
-99.7374960596
 21
-23.2692225502
  0
LWPOLYLINE
  5
4EF
100
AcDbEntity
  8
RACCORDO
100
AcDbPolyline
 62
253
  6
CONTINUOUS
 90
14
 70
0
 10
-99.7359696345
 20
22.7374892915
 10
-99.7361859482
 20
22.7531181365
 10
-99.7364605066
 20
22.7676856697
 10
-99.7367937743
 20
22.7811871001
 10
-99.7371866336
 20
22.7935962278
 10
-99.7376389441
 20
22.8049188826
 10
-99.7381509465
 20
22.8151492418
 10
-99.7387240915
 20
22.824243627
 10
-99.7393582382
 20
22.8322044988
 10
-99.7400535905
 20
22.8390294019
 10
-99.7408121123
 20
22.8446672841
 10
-99.7416344659
 20
22.8491011291
 10
-99.742520009
 20
22.8523479565
 10
-99.7434687382
 20
22.8544077675
  0
LINE
  5
4F0
100
AcDbEntity
  8
RACCORDO
100
AcDbLine
 62
253
  6
CONTINUOUS
 10
-96.8762602761
 20
-42.4653260792
 11
-96.8777321931
 21
-42.368594358
  0
LINE
  5
4F1
100
AcDbEntity
  8
RACCORDO
100
AcDbLine
 62
253
  6
CONTINUOUS
 10
-99.7363557495
 20
-23.3131755587
 11
-99.7372932206
 21
-23.2854177313
  0
LINE
  5
4F2
100
AcDbEntity
  8
RACCORDO
100
AcDbLine
 62
253
  6
CONTINUOUS
 10
-100.1964159285
 20
-7.4567635206
 11
-100.2248374348
 21
-5.0372475437
  0
LINE
  5
4F3
100
AcDbEntity
  8
RACCORDO
100
AcDbLine
 62
7
  6
CONTINUOUS
 10
-99.7370521586
 20
22.7095882624
 11
-99.7368187351
 21
22.6915837518
  0
LINE
  5
4F4
100
AcDbEntity
  8
RACCORDO
100
AcDbLine
 62
253
  6
CONTINUOUS
 10
-97.1446968572
 20
-42.2828428265
 11
-97.1459102874
 21
-42.1889259001
  0
LINE
  5
4F5
100
AcDbEntity
  8
RACCORDO
100
AcDbLine
 62
7
  6
CONTINUOUS
 10
-99.7375484026
 20
-23.2654413593
 11
-99.7368520325
 21
-23.3308536172
  0
LINE
  5
4F6
100
AcDbEntity
  8
RACCORDO
100
AcDbLine
 62
253
  6
CONTINUOUS
 10
-99.7359065657
 20
-23.359821032
 11
-99.7367559242
 21
-23.3449592894
  0
LINE
  5
4F7
100
AcDbEntity
  8
RACCORDO
100
AcDbLine
 62
253
  6
CONTINUOUS
 10
-96.8753426166
 20
-42.5600713646
 11
-96.8762602761
 21
-42.4653260792
  0
LINE
  5
4F8
100
AcDbEntity
  8
RACCORDO
100
AcDbLine
 62
7
  6
CONTINUOUS
 10
-99.7368710965
 20
-23.3280319078
 11
-99.7368668654
 21
-23.3286118878
  0
LINE
  5
4F9
100
AcDbEntity
  8
RACCORDO
100
AcDbLine
 62
253
  6
CONTINUOUS
 10
-100.241295025
 20
-2.7254885053
 11
-100.2413002524
 21
-2.6746774354
  0
LINE
  5
4FA
100
AcDbEntity
  8
RACCORDO
100
AcDbLine
 62
7
  6
CONTINUOUS
 10
-99.7368187351
 20
22.6915837518
 11
-99.7366621773
 21
22.6702287706
  0
LINE
  5
4FB
100
AcDbEntity
  8
RACCORDO
100
AcDbLine
 62
253
  6
CONTINUOUS
 10
-99.7357130209
 20
22.7030450791
 11
-99.7359696345
 21
22.7374892915
  0
LINE
  5
4FC
100
AcDbEntity
  8
RACCORDO
100
AcDbLine
 62
253
  6
CONTINUOUS
 10
-97.1440385056
 20
-42.3754142979
 11
-97.1446968572
 21
-42.2828428265
  0
LINE
  5
4FD
100
AcDbEntity
  8
RACCORDO
100
AcDbLine
 62
253
  6
CONTINUOUS
 10
-99.7356915056
 20
-23.4025851097
 11
-99.736637586
 21
-23.3712147356
  0
LINE
  5
4FE
100
AcDbEntity
  8
RACCORDO
100
AcDbLine
 62
7
  6
CONTINUOUS
 10
-99.7368520325
 20
-23.3308536172
 11
-99.736637586
 21
-23.3712147356
  0
LWPOLYLINE
  5
4FF
100
AcDbEntity
  8
RACCORDO
100
AcDbPolyline
 62
7
  6
CONTINUOUS
 90
10
 70
0
 10
-100.2468431986
 20
-0.3691116567
 10
-100.241295025
 20
-2.7254885053
 10
-100.2239491121
 20
-5.1557479591
 10
-100.1948005049
 20
-7.5858951117
 10
-100.153849874
 20
-10.0158660516
 10
-100.1010983373
 20
-12.4456054674
 10
-100.0365470131
 20
-14.8750621461
 10
-99.9601971863
 20
-17.3041808433
 10
-99.8720509594
 20
-19.732897652
 10
-99.7686176726
 20
-22.2474746749
  0
LINE
  5
500
100
AcDbEntity
  8
RACCORDO
100
AcDbLine
 62
253
  6
CONTINUOUS
 10
-97.1439675803
 20
41.6819484656
 11
-97.1443233033
 21
41.7751023423
  0
LINE
  5
501
100
AcDbEntity
  8
RACCORDO
100
AcDbLine
 62
253
  6
CONTINUOUS
 10
-96.8750332514
 20
-42.6538867259
 11
-96.8753426166
 21
-42.5600713646
  0
LINE
  5
502
100
AcDbEntity
  8
RACCORDO
100
AcDbLine
 62
7
  6
CONTINUOUS
 10
-99.7366621773
 20
22.6702287706
 11
-99.7366152972
 21
22.6460637327
  0
LINE
  5
503
100
AcDbEntity
  8
RACCORDO
100
AcDbLine
 62
7
  6
CONTINUOUS
 10
-99.736637586
 20
-23.3712147356
 11
-99.7366203179
 21
-23.3948611299
  0
LINE
  5
504
100
AcDbEntity
  8
RACCORDO
100
AcDbLine
 62
253
  6
CONTINUOUS
 10
-99.7366621773
 20
22.6702287706
 11
-99.7357130209
 21
22.7030450791
  0
LINE
  5
505
100
AcDbEntity
  8
RACCORDO
100
AcDbLine
 62
253
  6
CONTINUOUS
 10
-99.7357130755
 20
-23.4412825858
 11
-99.7366503265
 21
-23.4057202972
  0
LINE
  5
506
100
AcDbEntity
  8
RACCORDO
100
AcDbLine
 62
253
  6
CONTINUOUS
 10
-99.7366152972
 20
22.6460637327
 11
-99.7356915235
 21
22.6643528898
  0
LINE
  5
507
100
AcDbEntity
  8
RACCORDO
100
AcDbLine
 62
7
  6
CONTINUOUS
 10
-99.7366203179
 20
-23.3948611299
 11
-99.736703915
 21
-23.4159384392
  0
LINE
  5
508
100
AcDbEntity
  8
RACCORDO
100
AcDbLine
 62
253
  6
CONTINUOUS
 10
-96.8753537849
 20
41.8201828932
 11
-96.8750329144
 21
41.914161074
  0
LINE
  5
509
100
AcDbEntity
  8
RACCORDO
100
AcDbLine
 62
7
  6
CONTINUOUS
 10
-99.7366152972
 20
22.6460637327
 11
-99.7367749466
 21
22.6036850882
  0
LINE
  5
50A
100
AcDbEntity
  8
RACCORDO
100
AcDbLine
 62
253
  6
CONTINUOUS
 10
-97.1443069672
 20
41.5894506517
 11
-97.1439675803
 21
41.6819484656
  0
LINE
  5
50B
100
AcDbEntity
  8
RACCORDO
100
AcDbLine
 62
253
  6
CONTINUOUS
 10
-100.2413365025
 20
1.9285679908
 11
-100.2413235757
 21
1.9811952662
  0
LINE
  5
50C
100
AcDbEntity
  8
RACCORDO
100
AcDbLine
 62
253
  6
CONTINUOUS
 10
-99.7367749466
 20
22.6036850882
 11
-99.7357691512
 21
22.6434832832
  0
LINE
  5
50D
100
AcDbEntity
  8
RACCORDO
100
AcDbLine
 62
7
  6
CONTINUOUS
 10
-99.736703915
 20
-23.4159384392
 11
-99.7368698041
 21
-23.4345284949
  0
LINE
  5
50E
100
AcDbEntity
  8
RACCORDO
100
AcDbLine
 62
7
  6
CONTINUOUS
 10
-99.7367749466
 20
22.6036850882
 11
-99.7372059003
 21
22.554799932
  0
LINE
  5
50F
100
AcDbEntity
  8
RACCORDO
100
AcDbLine
 62
253
  6
CONTINUOUS
 10
-96.8762850345
 20
41.7251405261
 11
-96.8753537849
 21
41.8201828932
  0
LINE
  5
510
100
AcDbEntity
  8
RACCORDO
100
AcDbLine
 62
253
  6
CONTINUOUS
 10
-97.1452550476
 20
41.4959118278
 11
-97.1443069672
 21
41.5894506517
  0
LINE
  5
511
100
AcDbEntity
  8
RACCORDO
100
AcDbLine
 62
253
  6
CONTINUOUS
 10
-100.2249699079
 20
4.2848006555
 11
-100.224001436
 21
4.4120520332
  0
LINE
  5
512
100
AcDbEntity
  8
RACCORDO
100
AcDbLine
 62
253
  6
CONTINUOUS
 10
-99.7371697684
 20
22.5584929855
 11
-99.7363557267
 21
22.5749542206
  0
LINE
  5
513
100
AcDbEntity
  8
RACCORDO
100
AcDbLine
 62
7
  6
CONTINUOUS
 10
-99.7371697684
 20
22.5584929855
 11
-99.737942975
 21
22.4999500842
  0
LINE
  5
514
100
AcDbEntity
  8
RACCORDO
100
AcDbLine
 62
7
  6
CONTINUOUS
 10
-99.7368698041
 20
-23.4345284949
 11
-99.7370975814
 21
-23.4505190403
  0
LINE
  5
515
100
AcDbEntity
  8
RACCORDO
100
AcDbLine
 62
253
  6
CONTINUOUS
 10
-96.8777753124
 20
41.6279506828
 11
-96.8762850345
 21
41.7251405261
  0
LINE
  5
516
100
AcDbEntity
  8
RACCORDO
100
AcDbLine
 62
253
  6
CONTINUOUS
 10
-97.1467778374
 20
41.4001647033
 11
-97.1452550476
 21
41.4959118278
  0
LINE
  5
517
100
AcDbEntity
  8
RACCORDO
100
AcDbLine
 62
253
  6
CONTINUOUS
 10
-99.737942975
 20
22.4999500842
 11
-99.7370294693
 21
22.5249147859
  0
LINE
  5
518
100
AcDbEntity
  8
RACCORDO
100
AcDbLine
 62
7
  6
CONTINUOUS
 10
-99.737942975
 20
22.4999500842
 11
-99.7391790373
 21
22.4291385797
  0
LINE
  5
519
100
AcDbEntity
  8
RACCORDO
100
AcDbLine
 62
253
  6
CONTINUOUS
 10
-96.8798432912
 20
41.5260897482
 11
-96.8777753124
 21
41.6279506828
  0
LINE
  5
51A
100
AcDbEntity
  8
RACCORDO
100
AcDbLine
 62
253
  6
CONTINUOUS
 10
-97.1488686513
 20
41.2998669107
 11
-97.1467778374
 21
41.4001647033
  0
LINE
  5
51B
100
AcDbEntity
  8
RACCORDO
100
AcDbLine
 62
7
  6
CONTINUOUS
 10
-99.7391790373
 20
22.4291385797
 11
-99.7416575683
 21
22.3152835347
  0
LWPOLYLINE
  5
51C
100
AcDbEntity
  8
RACCORDO
100
AcDbPolyline
 62
7
  6
CONTINUOUS
 90
8
 70
0
 10
-99.7370975814
 20
-23.4505190403
 10
-99.7373637247
 20
-23.4632992933
 10
-99.7375037144
 20
-23.4684972108
 10
-99.737643806
 20
-23.4729621748
 10
-99.7377771856
 20
-23.4766399415
 10
-99.7378882509
 20
-23.4793130188
 10
-99.7379682348
 20
-23.4810119021
 10
-99.7379909475
 20
-23.4814506069
  0
LINE
  5
51D
100
AcDbEntity
  8
RACCORDO
100
AcDbLine
 62
253
  6
CONTINUOUS
 10
-96.8840460853
 20
41.3640520674
 11
-96.8798432912
 21
41.5260897482
  0
LINE
  5
51E
100
AcDbEntity
  8
RACCORDO
100
AcDbLine
 62
253
  6
CONTINUOUS
 10
-97.1531136432
 20
41.1403089251
 11
-97.1488686513
 21
41.2998669107
  0
LINE
  5
51F
100
AcDbEntity
  8
RACCORDO
100
AcDbLine
 62
253
  6
CONTINUOUS
 10
-96.8895669931
 20
41.1915544128
 11
-96.8840460853
 21
41.3640520674
  0
LINE
  5
520
100
AcDbEntity
  8
RACCORDO
100
AcDbLine
 62
253
  6
CONTINUOUS
 10
-97.1586784525
 20
40.9704906605
 11
-97.1531136432
 21
41.1403089251
  0
LINE
  5
521
100
AcDbEntity
  8
RACCORDO
100
AcDbLine
 62
253
  6
CONTINUOUS
 10
-96.8963190743
 20
41.0109615316
 11
-96.8895669931
 21
41.1915544128
  0
LINE
  5
522
100
AcDbEntity
  8
RACCORDO
100
AcDbLine
 62
253
  6
CONTINUOUS
 10
-97.1654743096
 20
40.7927178325
 11
-97.1586784525
 21
40.9704906605
  0
LINE
  5
523
100
AcDbEntity
  8
RACCORDO
100
AcDbLine
 62
253
  6
CONTINUOUS
 10
-98.3708599354
 20
21.1830260299
 11
-98.2531100592
 21
24.2496087466
  0
LINE
  5
524
100
AcDbEntity
  8
DRAFT
100
AcDbLine
 62
7
  6
CONTINUOUS
 10
-96.0055200352
 20
24.1891684997
 11
-96.1200930314
 21
21.2110823129
  0
LINE
  5
525
100
AcDbEntity
  8
RACCORDO
100
AcDbLine
 62
253
  6
CONTINUOUS
 10
-98.0983963335
 20
21.1972081248
 11
-97.9773453359
 21
24.3454850524
  0
LINE
  5
526
100
AcDbEntity
  8
RACCORDO
100
AcDbLine
 62
253
  6
CONTINUOUS
 10
-97.1733787163
 20
40.6087523519
 11
-97.1654743096
 21
40.7927178325
  0
LINE
  5
527
100
AcDbEntity
  8
RACCORDO
100
AcDbLine
 62
253
  6
CONTINUOUS
 10
-96.9071076637
 20
40.7589730687
 11
-96.8963190743
 21
41.0109615316
  0
LINE
  5
528
100
AcDbEntity
  8
DRAFT
100
AcDbLine
 62
7
  6
CONTINUOUS
 10
-95.979971998
 20
24.7656803279
 11
-96.0055200352
 21
24.1891684997
  0
LINE
  5
529
100
AcDbEntity
  8
RACCORDO
100
AcDbLine
 62
253
  6
CONTINUOUS
 10
-97.9773453359
 20
24.3454850524
 11
-97.939097799
 21
25.1917960899
  0
LINE
  5
52A
100
AcDbEntity
  8
RACCORDO
100
AcDbLine
 62
253
  6
CONTINUOUS
 10
-98.2531100592
 20
24.2496087466
 11
-98.2113588424
 21
25.1754177194
  0
LINE
  5
52B
100
AcDbEntity
  8
RACCORDO
100
AcDbLine
 62
253
  6
CONTINUOUS
 10
-95.7848507061
 20
25.1675509109
 11
-95.8224354836
 21
24.3544936572
  0
LINE
  5
52C
100
AcDbEntity
  8
RACCORDO
100
AcDbLine
 62
253
  6
CONTINUOUS
 10
-97.1863490417
 20
40.3381814351
 11
-97.1733787163
 21
40.6087523519
  0
LINE
  5
52D
100
AcDbEntity
  8
RACCORDO
100
AcDbLine
 62
253
  6
CONTINUOUS
 10
-96.9209408587
 20
40.4720347273
 11
-96.9071076637
 21
40.7589730687
  0
LINE
  5
52E
100
AcDbEntity
  8
DRAFT
100
AcDbLine
 62
7
  6
CONTINUOUS
 10
-95.9365100216
 20
25.6565356334
 11
-95.979971998
 21
24.7656803279
  0
LINE
  5
52F
100
AcDbEntity
  8
RACCORDO
100
AcDbLine
 62
253
  6
CONTINUOUS
 10
-97.939097799
 20
25.1917960899
 11
-97.8946893385
 21
26.0796081872
  0
LINE
  5
530
100
AcDbEntity
  8
RACCORDO
100
AcDbLine
 62
253
  6
CONTINUOUS
 10
-98.2113588424
 20
25.1754177194
 11
-98.1668488509
 21
26.0605988878
  0
LINE
  5
531
100
AcDbEntity
  8
RACCORDO
100
AcDbLine
 62
253
  6
CONTINUOUS
 10
-95.7395979686
 20
26.052381014
 11
-95.7848507061
 21
25.1675509109
  0
LINE
  5
532
100
AcDbEntity
  8
RACCORDO
100
AcDbLine
 62
253
  6
CONTINUOUS
 10
-95.6096573695
 20
26.0334209547
 11
-95.654759241
 21
25.1506837491
  0
LINE
  5
533
100
AcDbEntity
  8
RACCORDO
100
AcDbLine
 62
253
  6
CONTINUOUS
 10
-97.2038154608
 20
40.0087004327
 11
-97.1863490417
 21
40.3381814351
  0
LINE
  5
534
100
AcDbEntity
  8
RACCORDO
100
AcDbLine
 62
253
  6
CONTINUOUS
 10
-96.9396865067
 20
40.119350241
 11
-96.9209408587
 21
40.4720347273
  0
LINE
  5
535
100
AcDbEntity
  8
DRAFT
100
AcDbLine
 62
7
  6
CONTINUOUS
 10
-95.8885996501
 20
26.5463871579
 11
-95.9365100216
 21
25.6565356334
  0
LINE
  5
536
100
AcDbEntity
  8
DRAFT
100
AcDbLine
 62
7
  6
CONTINUOUS
 10
-94.8622625683
 20
40.9648043312
 11
-94.8881509437
 21
40.4848133815
  0
LINE
  5
537
100
AcDbEntity
  8
RACCORDO
100
AcDbLine
 62
253
  6
CONTINUOUS
 10
-97.8946893385
 20
26.0796081872
 11
-97.8459671046
 21
26.9664177993
  0
LINE
  5
538
100
AcDbEntity
  8
RACCORDO
100
AcDbLine
 62
253
  6
CONTINUOUS
 10
-98.1668488509
 20
26.0605988878
 11
-98.1180121275
 21
26.944822293
  0
LINE
  5
539
100
AcDbEntity
  8
RACCORDO
100
AcDbLine
 62
253
  6
CONTINUOUS
 10
-95.6899403131
 20
26.9362880629
 11
-95.7395979686
 21
26.052381014
  0
LINE
  5
53A
100
AcDbEntity
  8
RACCORDO
100
AcDbLine
 62
253
  6
CONTINUOUS
 10
-95.5601644652
 20
26.9152754489
 11
-95.6096573695
 21
26.0334209547
  0
LINE
  5
53B
100
AcDbEntity
  8
RACCORDO
100
AcDbLine
 62
253
  6
CONTINUOUS
 10
-94.731015538
 20
40.3842723076
 11
-94.7483996003
 21
40.0716599113
  0
LINE
  5
53C
100
AcDbEntity
  8
RACCORDO
100
AcDbLine
 62
253
  6
CONTINUOUS
 10
-97.2274085499
 20
39.6013450682
 11
-97.2038154608
 21
40.0087004327
  0
LINE
  5
53D
100
AcDbEntity
  8
RACCORDO
100
AcDbLine
 62
253
  6
CONTINUOUS
 10
-96.965011703
 20
39.6827000489
 11
-96.9396865067
 21
40.119350241
  0
LINE
  5
53E
100
AcDbEntity
  8
DRAFT
100
AcDbLine
 62
7
  6
CONTINUOUS
 10
-95.8362498891
 20
27.4351387373
 11
-95.8885996501
 21
26.5463871579
  0
LINE
  5
53F
100
AcDbEntity
  8
RACCORDO
100
AcDbLine
 62
253
  6
CONTINUOUS
 10
-94.6229476753
 20
40.0427773355
 11
-94.6439420258
 21
39.6863025718
  0
LINE
  5
540
100
AcDbEntity
  8
RACCORDO
100
AcDbLine
 62
253
  6
CONTINUOUS
 10
-97.8459671046
 20
26.9664177993
 11
-97.7929551869
 21
27.8519056366
  0
LINE
  5
541
100
AcDbEntity
  8
RACCORDO
100
AcDbLine
 62
253
  6
CONTINUOUS
 10
-98.1180121275
 20
26.944822293
 11
-98.0648768711
 21
27.8277137804
  0
LINE
  5
542
100
AcDbEntity
  8
DRAFT
100
AcDbLine
 62
7
  6
CONTINUOUS
 10
-94.8881509437
 20
40.4848133815
 11
-94.92117435
 21
39.9398649041
  0
LINE
  5
543
100
AcDbEntity
  8
RACCORDO
100
AcDbLine
 62
253
  6
CONTINUOUS
 10
-94.7483996003
 20
40.0716599113
 11
-94.7710346474
 21
39.6957178325
  0
LINE
  5
544
100
AcDbEntity
  8
RACCORDO
100
AcDbLine
 62
253
  6
CONTINUOUS
 10
-95.50631154
 20
27.7958045285
 11
-95.5601644652
 21
26.9152754489
  0
LINE
  5
545
100
AcDbEntity
  8
RACCORDO
100
AcDbLine
 62
253
  6
CONTINUOUS
 10
-95.6359044097
 20
27.8189035177
 11
-95.6899403131
 21
26.9362880629
  0
LINE
  5
546
100
AcDbEntity
  8
0
100
AcDbLine
 62
7
  6
CONTINUOUS
 10
-95.1632663436
 20
28.0784448146
 11
-95.2171363763
 21
27.2193436411
  0
LINE
  5
547
100
AcDbEntity
  8
RACCORDO
100
AcDbLine
 62
253
  6
CONTINUOUS
 10
-97.0087192698
 20
38.9892807325
 11
-96.965011703
 21
39.6827000489
  0
LINE
  5
548
100
AcDbEntity
  8
RACCORDO
100
AcDbLine
 62
253
  6
CONTINUOUS
 10
-97.2683693091
 20
38.95376374
 11
-97.2274085499
 21
39.6013450682
  0
LINE
  5
549
100
AcDbEntity
  8
DRAFT
100
AcDbLine
 62
7
  6
CONTINUOUS
 10
-95.7794859811
 20
28.3225085285
 11
-95.8362498891
 21
27.4351387373
  0
LINE
  5
54A
100
AcDbEntity
  8
RACCORDO
100
AcDbLine
 62
253
  6
CONTINUOUS
 10
-94.6439420258
 20
39.6863025718
 11
-94.6802155311
 21
39.1176345243
  0
LINE
  5
54B
100
AcDbEntity
  8
RACCORDO
100
AcDbLine
 62
253
  6
CONTINUOUS
 10
-97.7929551869
 20
27.8519056366
 11
-97.7356767155
 21
28.7358483233
  0
LINE
  5
54C
100
AcDbEntity
  8
RACCORDO
100
AcDbLine
 62
253
  6
CONTINUOUS
 10
-98.0648768711
 20
27.8277137804
 11
-98.0074577911
 21
28.7091561147
  0
LINE
  5
54D
100
AcDbEntity
  8
RACCORDO
100
AcDbLine
 62
253
  6
CONTINUOUS
 10
-94.7710346474
 20
39.6957178325
 11
-94.8101294962
 21
39.0942331093
  0
LINE
  5
54E
100
AcDbEntity
  8
0
100
AcDbLine
 62
7
  6
CONTINUOUS
 10
-94.4600591358
 20
38.1098688191
 11
-94.5094106809
 21
37.3590300232
  0
LINE
  5
54F
100
AcDbEntity
  8
RACCORDO
100
AcDbLine
 62
253
  6
CONTINUOUS
 10
-97.7356766268
 20
28.7358483286
 11
-97.6304784748
 21
30.2905147891
  0
LINE
  5
550
100
AcDbEntity
  8
RACCORDO
100
AcDbLine
 62
253
  6
CONTINUOUS
 10
-98.0074577911
 20
28.7091561147
 11
-97.9363788262
 21
29.7492084794
  0
LINE
  5
551
100
AcDbEntity
  8
RACCORDO
100
AcDbLine
 62
253
  6
CONTINUOUS
 10
-95.4238183697
 20
29.0267474155
 11
-95.50631154
 21
27.7958045285
  0
LINE
  5
552
100
AcDbEntity
  8
DRAFT
100
AcDbLine
 62
7
  6
CONTINUOUS
 10
-94.92117435
 20
39.9398649041
 11
-94.9811041161
 21
39.0524089314
  0
LINE
  5
553
100
AcDbEntity
  8
RACCORDO
100
AcDbLine
 62
253
  6
CONTINUOUS
 10
-95.553067158
 20
29.0536403364
 11
-95.6359044097
 21
27.8189035177
  0
LINE
  5
554
100
AcDbEntity
  8
RACCORDO
100
AcDbLine
 62
253
  6
CONTINUOUS
 10
-97.3269698254
 20
38.0925101167
 11
-97.2683693091
 21
38.95376374
  0
LINE
  5
555
100
AcDbEntity
  8
RACCORDO
100
AcDbLine
 62
253
  6
CONTINUOUS
 10
-97.0868265003
 20
37.8411152772
 11
-97.0087192698
 21
38.9892807325
  0
LINE
  5
556
100
AcDbEntity
  8
RACCORDO
100
AcDbLine
 62
253
  6
CONTINUOUS
 10
-94.6802155311
 20
39.1176345243
 11
-94.7300710459
 21
38.389742337
  0
LINE
  5
557
100
AcDbEntity
  8
0
100
AcDbLine
 62
7
  6
CONTINUOUS
 10
-94.5094106809
 20
37.3590300232
 11
-94.5924221426
 21
36.1657525372
  0
LINE
  5
558
100
AcDbEntity
  8
DRAFT
100
AcDbLine
 62
7
  6
CONTINUOUS
 10
-95.6435811229
 20
30.2689335003
 11
-95.7794859811
 21
28.3225085285
  0
LINE
  5
559
100
AcDbEntity
  8
RACCORDO
100
AcDbLine
 62
253
  6
CONTINUOUS
 10
-97.6304784748
 20
30.2905147891
 11
-97.5049154423
 21
32.0802908607
  0
LINE
  5
55A
100
AcDbEntity
  8
0
100
AcDbLine
 62
7
  6
CONTINUOUS
 10
-94.8744623868
 20
32.2560815716
 11
-95.1632663436
 21
28.0784448146
  0
LINE
  5
55B
100
AcDbEntity
  8
RACCORDO
100
AcDbLine
 62
253
  6
CONTINUOUS
 10
-97.9363788262
 20
29.7492084794
 11
-97.8059397602
 21
31.5891746144
  0
LINE
  5
55C
100
AcDbEntity
  8
RACCORDO
100
AcDbLine
 62
253
  6
CONTINUOUS
 10
-94.8101294962
 20
39.0942331093
 11
-94.8723653514
 21
38.2038791082
  0
LINE
  5
55D
100
AcDbEntity
  8
0
100
AcDbLine
 62
7
  6
CONTINUOUS
 10
-94.5924221426
 20
36.1657525372
 11
-94.8744623868
 21
32.2560815716
  0
LINE
  5
55E
100
AcDbEntity
  8
RACCORDO
100
AcDbLine
 62
253
  6
CONTINUOUS
 10
-97.5049154423
 20
32.0802908607
 11
-97.3505557892
 21
34.212866808
  0
LINE
  5
55F
100
AcDbEntity
  8
RACCORDO
100
AcDbLine
 62
253
  6
CONTINUOUS
 10
-97.2521164488
 20
35.5544188865
 11
-97.0868265003
 21
37.8411152772
  0
LINE
  5
560
100
AcDbEntity
  8
RACCORDO
100
AcDbLine
 62
253
  6
CONTINUOUS
 10
-97.3505557892
 20
34.212866808
 11
-97.2521164488
 21
35.5544188865
  0
LINE
  5
561
100
AcDbEntity
  8
RACCORDO
100
AcDbLine
 62
253
  6
CONTINUOUS
 10
-97.8059397602
 20
31.5891746144
 11
-97.6683833009
 21
33.467895685
  0
LINE
  5
562
100
AcDbEntity
  8
DRAFT
100
AcDbLine
 62
7
  6
CONTINUOUS
 10
-94.9811041161
 20
39.0524089314
 11
-95.0458291681
 21
38.1590882726
  0
LINE
  5
563
100
AcDbEntity
  8
RACCORDO
100
AcDbLine
 62
253
  6
CONTINUOUS
 10
-95.3499945846
 20
31.8808484495
 11
-95.553067158
 21
29.0536403364
  0
LINE
  5
564
100
AcDbEntity
  8
RACCORDO
100
AcDbLine
 62
253
  6
CONTINUOUS
 10
-94.7300710459
 20
38.389742337
 11
-94.8029318657
 21
37.38560625
  0
LINE
  5
565
100
AcDbEntity
  8
RACCORDO
100
AcDbLine
 62
253
  6
CONTINUOUS
 10
-95.2044434767
 20
32.0782605425
 11
-95.4238183697
 21
29.0267474155
  0
LINE
  5
566
100
AcDbEntity
  8
DRAFT
100
AcDbLine
 62
7
  6
CONTINUOUS
 10
-95.4878043459
 20
32.3895272211
 11
-95.6435811229
 21
30.2689335003
  0
LINE
  5
567
100
AcDbEntity
  8
RACCORDO
100
AcDbLine
 62
253
  6
CONTINUOUS
 10
-97.5226034416
 20
35.4208885046
 11
-97.3269698254
 21
38.0925101167
  0
LINE
  5
568
100
AcDbEntity
  8
RACCORDO
100
AcDbLine
 62
253
  6
CONTINUOUS
 10
-97.6683833009
 20
33.467895685
 11
-97.5226034416
 21
35.4208885046
  0
LINE
  5
569
100
AcDbEntity
  8
RACCORDO
100
AcDbLine
 62
253
  6
CONTINUOUS
 10
-94.8723653514
 20
38.2038791082
 11
-94.9646816128
 21
36.9569016344
  0
LINE
  5
56A
100
AcDbEntity
  8
RACCORDO
100
AcDbLine
 62
253
  6
CONTINUOUS
 10
-94.8029318657
 20
37.38560625
 11
-95.0192021699
 21
34.5336795079
  0
LINE
  5
56B
100
AcDbEntity
  8
RACCORDO
100
AcDbLine
 62
253
  6
CONTINUOUS
 10
-95.0192021699
 20
34.5336795079
 11
-95.2044434767
 21
32.0782605425
  0
LINE
  5
56C
100
AcDbEntity
  8
RACCORDO
100
AcDbLine
 62
253
  6
CONTINUOUS
 10
-94.9646816128
 20
36.9569016344
 11
-95.3499945846
 21
31.8808484495
  0
LINE
  5
56D
100
AcDbEntity
  8
DRAFT
100
AcDbLine
 62
7
  6
CONTINUOUS
 10
-95.0458291681
 20
38.1590882726
 11
-95.1742080679
 21
36.4700433663
  0
LINE
  5
56E
100
AcDbEntity
  8
DRAFT
100
AcDbLine
 62
7
  6
CONTINUOUS
 10
-95.1742080679
 20
36.4700433663
 11
-95.2672336074
 21
35.2690928508
  0
LINE
  5
56F
100
AcDbEntity
  8
DRAFT
100
AcDbLine
 62
7
  6
CONTINUOUS
 10
-95.2672336074
 20
35.2690928508
 11
-95.4878043459
 21
32.3895272211
  0
LWPOLYLINE
  5
570
100
AcDbEntity
  8
RACCORDO
100
AcDbPolyline
 62
253
  6
CONTINUOUS
 90
19
 70
0
 10
-92.9297480975
 20
3.3595462004
 10
-92.9618204582
 20
3.3525307434
 10
-92.9927497462
 20
3.3432685308
 10
-93.0225336333
 20
3.3317591732
 10
-93.0513220086
 20
3.3178756216
 10
-93.0789607223
 20
3.3017442298
 10
-93.1049908384
 20
3.2837449594
 10
-93.1293692981
 20
3.2638518777
 10
-93.1521340665
 20
3.2420908871
 10
-93.1729469477
 20
3.2189201198
 10
-93.1917629215
 20
3.194330032
 10
-93.2086223458
 20
3.1683307072
 10
-93.2233149402
 20
3.1414100601
 10
-93.2358017203
 20
3.1135885182
 10
-93.2461182372
 20
3.0848465955
 10
-93.2541662951
 20
3.0556125487
 10
-93.2599125766
 20
3.0260295306
 10
-93.2633886283
 20
2.9959555204
 10
-93.2645939764
 20
2.965391083
  0
LINE
  5
571
100
AcDbEntity
  8
RACCORDO
100
AcDbLine
 62
7
  6
CONTINUOUS
 10
-92.9504641888
 20
3.1600299677
 11
-91.2810049178
 21
3.4544006803
  0
LINE
  5
572
100
AcDbEntity
  8
RACCORDO
100
AcDbLine
 62
253
  6
CONTINUOUS
 10
-92.9297480975
 20
3.3595462004
 11
-91.3009814354
 21
3.6429742219
  0
LINE
  5
573
100
AcDbEntity
  8
RACCORDO
100
AcDbLine
 62
253
  6
CONTINUOUS
 10
-91.3009780694
 20
3.6429742314
 11
-91.2208722967
 21
3.6472428589
  0
LINE
  5
574
100
AcDbEntity
  8
RACCORDO
100
AcDbLine
 62
253
  6
CONTINUOUS
 10
-91.2208722967
 20
3.6472428589
 11
-91.1679530475
 21
3.6498216597
  0
LINE
  5
575
100
AcDbEntity
  8
RACCORDO
100
AcDbLine
 62
253
  6
CONTINUOUS
 10
-91.1679530475
 20
3.6498216597
 11
-91.1472145676
 21
3.6507214759
  0
LINE
  5
576
100
AcDbEntity
  8
RACCORDO
100
AcDbLine
 62
253
  6
CONTINUOUS
 10
-91.1472145676
 20
3.6507214759
 11
-91.1360651812
 21
3.6511482326
  0
LWPOLYLINE
  5
577
100
AcDbEntity
  8
RACCORDO
100
AcDbPolyline
 62
253
  6
CONTINUOUS
 90
8
 70
0
 10
-91.1360651812
 20
3.6511482326
 10
-91.1272406859
 20
3.6514300395
 10
-91.1237415079
 20
3.6515137634
 10
-91.1208647429
 20
3.6515601791
 10
-91.1186221731
 20
3.6515679953
 10
-91.1170186788
 20
3.6515370569
 10
-91.1160556648
 20
3.6514683338
 10
-91.1157345533
 20
3.6513622342
  0
LINE
  5
578
100
AcDbEntity
  8
RACCORDO
100
AcDbLine
 62
253
  6
CONTINUOUS
 10
-93.2645939761
 20
2.9653910855
 11
-93.2014065439
 21
2.9650397111
  0
LINE
  5
579
100
AcDbEntity
  8
RACCORDO
100
AcDbLine
 62
253
  6
CONTINUOUS
 10
-93.2014065439
 20
2.9650397111
 11
-93.1627464404
 21
2.9646158943
  0
LWPOLYLINE
  5
57A
100
AcDbEntity
  8
RACCORDO
100
AcDbPolyline
 62
253
  6
CONTINUOUS
 90
8
 70
0
 10
-93.1627464404
 20
2.9646158943
 10
-93.1426581718
 20
2.9642723601
 10
-93.1345636215
 20
2.9640861051
 10
-93.1278546915
 20
2.9638920672
 10
-93.1225826707
 20
2.96369173
 10
-93.1187878769
 20
2.9634866256
 10
-93.1164993369
 20
2.9632783227
 10
-93.1157345533
 20
2.9630684145
  0
LINE
  5
57B
100
AcDbEntity
  8
0
100
AcDbLine
 62
7
  6
CONTINUOUS
 10
-94.4491183896
 20
-39.0219815273
 11
-94.4156593233
 21
-39.5784879748
  0
LINE
  5
57C
100
AcDbEntity
  8
0
100
AcDbLine
 62
7
  6
CONTINUOUS
 10
-95.2668645078
 20
-27.0971571776
 11
-95.2171363763
 21
-27.9575669545
  0
LINE
  5
57D
100
AcDbEntity
  8
0
100
AcDbLine
 62
7
  6
CONTINUOUS
 10
-94.4156593233
 20
-39.5784879748
 11
-94.3914899994
 21
-40.018492615
  0
LINE
  5
57E
100
AcDbEntity
  8
0
100
AcDbLine
 62
7
  6
CONTINUOUS
 10
-95.3124320875
 20
-26.2356443582
 11
-95.2668645078
 21
-27.0971571776
  0
LINE
  5
57F
100
AcDbEntity
  8
RACCORDO
100
AcDbLine
 62
253
  6
CONTINUOUS
 10
-94.6184944382
 20
-40.8605865449
 11
-94.602673388
 21
-41.1588066696
  0
LINE
  5
580
100
AcDbEntity
  8
RACCORDO
100
AcDbLine
 62
253
  6
CONTINUOUS
 10
-94.727111172
 20
-41.1966488654
 11
-94.7154050994
 21
-41.4316930533
  0
LINE
  5
581
100
AcDbEntity
  8
0
100
AcDbLine
 62
7
  6
CONTINUOUS
 10
-94.3914899994
 20
-40.018492615
 11
-94.3742588894
 21
-40.3684491215
  0
LINE
  5
582
100
AcDbEntity
  8
RACCORDO
100
AcDbLine
 62
253
  6
CONTINUOUS
 10
-94.602673388
 20
-41.1588066696
 11
-94.5914926996
 21
-41.3910158709
  0
LINE
  5
583
100
AcDbEntity
  8
0
100
AcDbLine
 62
7
  6
CONTINUOUS
 10
-95.3593876212
 20
-25.2503680071
 11
-95.3124320875
 21
-26.2356443582
  0
LINE
  5
584
100
AcDbEntity
  8
RACCORDO
100
AcDbLine
 62
253
  6
CONTINUOUS
 10
-95.6962530616
 20
-24.9845276072
 11
-95.654759241
 21
-25.8889070627
  0
LINE
  5
585
100
AcDbEntity
  8
0
100
AcDbLine
 62
7
  6
CONTINUOUS
 10
-94.3742588894
 20
-40.3684491215
 11
-94.3648823576
 21
-40.5809057827
  0
LINE
  5
586
100
AcDbEntity
  8
RACCORDO
100
AcDbLine
 62
253
  6
CONTINUOUS
 10
-94.7154050994
 20
-41.4316930533
 11
-94.7053354721
 21
-41.658151206
  0
LINE
  5
587
100
AcDbEntity
  8
RACCORDO
100
AcDbLine
 62
253
  6
CONTINUOUS
 10
-94.5914926996
 20
-41.3910158709
 11
-94.5842316347
 21
-41.558706962
  0
LINE
  5
588
100
AcDbEntity
  8
0
100
AcDbLine
 62
7
  6
CONTINUOUS
 10
-95.3905603517
 20
-24.5151545041
 11
-95.3593876212
 21
-25.2503680071
  0
LINE
  5
589
100
AcDbEntity
  8
RACCORDO
100
AcDbLine
 62
253
  6
CONTINUOUS
 10
-95.8749007707
 20
-23.8002434079
 11
-95.8303967448
 21
-24.9074934572
  0
LINE
  5
58A
100
AcDbEntity
  8
RACCORDO
100
AcDbLine
 62
253
  6
CONTINUOUS
 10
-95.7446652482
 20
-23.785377522
 11
-95.6962530616
 21
-24.9845276072
  0
LINE
  5
58B
100
AcDbEntity
  8
RACCORDO
100
AcDbLine
 62
253
  6
CONTINUOUS
 10
-94.7053354721
 20
-41.658151206
 11
-94.6991229415
 21
-41.8160838546
  0
LINE
  5
58C
100
AcDbEntity
  8
0
100
AcDbLine
 62
7
  6
CONTINUOUS
 10
-94.3648823576
 20
-40.5809057827
 11
-94.3578343464
 21
-40.7602664568
  0
LINE
  5
58D
100
AcDbEntity
  8
RACCORDO
100
AcDbLine
 62
253
  6
CONTINUOUS
 10
-94.5842316347
 20
-41.558706962
 11
-94.5781269034
 21
-41.7156631463
  0
LINE
  5
58E
100
AcDbEntity
  8
RACCORDO
100
AcDbLine
 62
253
  6
CONTINUOUS
 10
-95.9411292898
 20
-22.0386463206
 11
-95.8749007707
 21
-23.8002434079
  0
LINE
  5
58F
100
AcDbEntity
  8
RACCORDO
100
AcDbLine
 62
253
  6
CONTINUOUS
 10
-95.8108579216
 20
-22.0248765705
 11
-95.7446652482
 21
-23.785377522
  0
LINE
  5
590
100
AcDbEntity
  8
RACCORDO
100
AcDbLine
 62
253
  6
CONTINUOUS
 10
-94.6991229415
 20
-41.8160838546
 11
-94.6942525924
 21
-41.9562724335
  0
LINE
  5
591
100
AcDbEntity
  8
0
100
AcDbLine
 62
7
  6
CONTINUOUS
 10
-94.3578343464
 20
-40.7602664568
 11
-94.3524276707
 21
-40.9164994717
  0
LINE
  5
592
100
AcDbEntity
  8
RACCORDO
100
AcDbLine
 62
253
  6
CONTINUOUS
 10
-94.5781269034
 20
-41.7156631463
 11
-94.5733501058
 21
-41.8549726379
  0
LINE
  5
593
100
AcDbEntity
  8
RACCORDO
100
AcDbLine
 62
253
  6
CONTINUOUS
 10
-94.6942525924
 20
-41.9562724335
 11
-94.6907250401
 21
-42.074206383
  0
LINE
  5
594
100
AcDbEntity
  8
0
100
AcDbLine
 62
7
  6
CONTINUOUS
 10
-94.3524276707
 20
-40.9164994717
 11
-94.3481953523
 21
-41.0582514764
  0
LINE
  5
595
100
AcDbEntity
  8
RACCORDO
100
AcDbLine
 62
253
  6
CONTINUOUS
 10
-94.5733501058
 20
-41.8549726379
 11
-94.5698989048
 21
-41.9721744671
  0
LINE
  5
596
100
AcDbEntity
  8
RACCORDO
100
AcDbLine
 62
253
  6
CONTINUOUS
 10
-94.6907250401
 20
-42.074206383
 11
-94.6875807974
 21
-42.2010547767
  0
LINE
  5
597
100
AcDbEntity
  8
0
100
AcDbLine
 62
7
  6
CONTINUOUS
 10
-94.3481953523
 20
-41.0582514764
 11
-94.344914272
 21
-41.1923511316
  0
LINE
  5
598
100
AcDbEntity
  8
RACCORDO
100
AcDbLine
 62
253
  6
CONTINUOUS
 10
-94.5698989048
 20
-41.9721744671
 11
-94.5668317631
 21
-42.0982745202
  0
LINE
  5
599
100
AcDbEntity
  8
RACCORDO
100
AcDbLine
 62
253
  6
CONTINUOUS
 10
-94.6866831733
 20
42.0352239091
 11
-94.6856124167
 21
41.9900466873
  0
LINE
  5
59A
100
AcDbEntity
  8
RACCORDO
100
AcDbLine
 62
253
  6
CONTINUOUS
 10
-94.5656373353
 20
41.9063744561
 11
-94.5646977093
 21
41.8620453499
  0
LINE
  5
59B
100
AcDbEntity
  8
RACCORDO
100
AcDbLine
 62
253
  6
CONTINUOUS
 10
-94.6875807974
 20
-42.2010547767
 11
-94.6859688237
 21
-42.2830317499
  0
LINE
  5
59C
100
AcDbEntity
  8
RACCORDO
100
AcDbLine
 62
253
  6
CONTINUOUS
 10
-94.5668317631
 20
-42.0982745202
 11
-94.5652679045
 21
-42.1797555635
  0
LINE
  5
59D
100
AcDbEntity
  8
0
100
AcDbLine
 62
7
  6
CONTINUOUS
 10
-94.344914272
 20
-41.1923511316
 11
-94.3425250297
 21
-41.320182399
  0
LINE
  5
59E
100
AcDbEntity
  8
RACCORDO
100
AcDbLine
 62
253
  6
CONTINUOUS
 10
-94.6856124167
 20
41.9900466873
 11
-94.6848271817
 21
41.946084459
  0
LINE
  5
59F
100
AcDbEntity
  8
RACCORDO
100
AcDbLine
 62
253
  6
CONTINUOUS
 10
-94.5646977093
 20
41.8620453499
 11
-94.5640157421
 21
41.8186686242
  0
LINE
  5
5A0
100
AcDbEntity
  8
0
100
AcDbLine
 62
7
  6
CONTINUOUS
 10
-94.3425245535
 20
41.0133602425
 11
-94.3414494707
 21
40.9448966949
  0
LINE
  5
5A1
100
AcDbEntity
  8
RACCORDO
100
AcDbLine
 62
253
  6
CONTINUOUS
 10
-94.6859688237
 20
-42.2830317499
 11
-94.6848130278
 21
-42.3605648854
  0
LINE
  5
5A2
100
AcDbEntity
  8
RACCORDO
100
AcDbLine
 62
253
  6
CONTINUOUS
 10
-94.5652679045
 20
-42.1797555635
 11
-94.5641558621
 21
-42.2568226995
  0
LINE
  5
5A3
100
AcDbEntity
  8
0
100
AcDbLine
 62
7
  6
CONTINUOUS
 10
-94.3425250297
 20
-41.320182399
 11
-94.3414653617
 21
-41.4015600037
  0
LWPOLYLINE
  5
5A4
100
AcDbEntity
  8
RACCORDO
100
AcDbPolyline
 62
253
  6
CONTINUOUS
 90
14
 70
0
 10
-96.2965965342
 20
-6.8399787619
 10
-96.2844633674
 20
-7.8861381059
 10
-96.2700032932
 20
-8.9680952573
 10
-96.2528329679
 20
-10.0975761727
 10
-96.2328967414
 20
-11.2627736373
 10
-96.2106153836
 20
-12.4322551228
 10
-96.1859182973
 20
-13.6079985144
 10
-96.1588150472
 20
-14.7879655868
 10
-96.1302469144
 20
-15.9347467938
 10
-96.1007414031
 20
-17.0360987393
 10
-96.0701854613
 20
-18.1042814999
 10
-96.0387738259
 20
-19.1386761
 10
-96.0066795676
 20
-20.1392914812
 10
-95.9411292898
 20
-22.0386463206
  0
LWPOLYLINE
  5
5A5
100
AcDbEntity
  8
RACCORDO
100
AcDbPolyline
 62
253
  6
CONTINUOUS
 90
14
 70
0
 10
-96.1661263696
 20
-6.835808772
 10
-96.1540003093
 20
-7.8812975771
 10
-96.1395482148
 20
-8.9625643071
 10
-96.1223876662
 20
-10.0913094326
 10
-96.1024632378
 20
-11.2557492625
 10
-96.0801945619
 20
-12.4244956868
 10
-96.0555110489
 20
-13.5995046415
 10
-96.0284231705
 20
-14.7787170997
 10
-95.9998715537
 20
-15.9247695742
 10
-95.970382483
 20
-17.0254422099
 10
-95.9398431248
 20
-18.0929648572
 10
-95.9084491167
 20
-19.1267006418
 10
-95.8763729865
 20
-20.1266835027
 10
-95.8108579216
 20
-22.0248765705
  0
LINE
  5
5A6
100
AcDbEntity
  8
RACCORDO
100
AcDbLine
 62
253
  6
CONTINUOUS
 10
-94.6848271817
 20
41.946084459
 11
-94.6842725757
 21
41.9025199367
  0
LWPOLYLINE
  5
5A7
100
AcDbEntity
  8
RACCORDO
100
AcDbPolyline
 62
253
  6
CONTINUOUS
 90
17
 70
0
 10
-97.1443233033
 20
41.7751023423
 10
-97.1448466748
 20
41.8220429261
 10
-97.1456140035
 20
41.8695882109
 10
-97.1466218069
 20
41.9174412519
 10
-97.1479638162
 20
41.9649079686
 10
-97.1496248881
 20
42.0119373785
 10
-97.1516048617
 20
42.0585805939
 10
-97.1540204285
 20
42.1042968923
 10
-97.1568481711
 20
42.1491087139
 10
-97.1600937278
 20
42.1929939186
 10
-97.1639154659
 20
42.235345102
 10
-97.1682893139
 20
42.2762504242
 10
-97.1732163375
 20
42.3156221864
 10
-97.1788897473
 20
42.3525894116
 10
-97.1853640322
 20
42.3868620436
 10
-97.19255599
 20
42.4187308044
 10
-97.2004502986
 20
42.4481959812
  0
LWPOLYLINE
  5
5A8
100
AcDbEntity
  8
RACCORDO
100
AcDbPolyline
 62
253
  6
CONTINUOUS
 90
17
 70
0
 10
-96.8754288975
 20
42.0086967169
 10
-96.8759442916
 20
42.0564879244
 10
-96.8767105098
 20
42.1048434047
 10
-96.8777529426
 20
42.1533072031
 10
-96.879092728
 20
42.2015983612
 10
-96.8807552686
 20
42.2494095814
 10
-96.8827721297
 20
42.2966152915
 10
-96.8851779505
 20
42.3431716692
 10
-96.8880055455
 20
42.3887600936
 10
-96.8912933231
 20
42.4331411246
 10
-96.8950972529
 20
42.4763023825
 10
-96.899464852
 20
42.5179362716
 10
-96.9044399115
 20
42.5576977266
 10
-96.9100884156
 20
42.5954231668
 10
-96.9164726625
 20
42.6307732879
 10
-96.923643407
 20
42.6632903366
 10
-96.931657982
 20
42.6925737691
  0
LINE
  5
5A9
100
AcDbEntity
  8
RACCORDO
100
AcDbLine
 62
253
  6
CONTINUOUS
 10
-94.5640157421
 20
41.8186686242
 11
-94.5635465603
 21
41.7754847278
  0
LINE
  5
5AA
100
AcDbEntity
  8
RACCORDO
100
AcDbLine
 62
253
  6
CONTINUOUS
 10
-96.3147104962
 20
-4.843526402
 11
-96.2965965342
 21
-6.8399787619
  0
LINE
  5
5AB
100
AcDbEntity
  8
RACCORDO
100
AcDbLine
 62
253
  6
CONTINUOUS
 10
-96.1842295925
 20
-4.8406679197
 11
-96.1661263696
 21
-6.835808772
  0
LINE
  5
5AC
100
AcDbEntity
  8
RACCORDO
100
AcDbLine
 62
253
  6
CONTINUOUS
 10
-94.6848130278
 20
-42.3605648854
 11
-94.6840728685
 21
-42.4359783028
  0
LINE
  5
5AD
100
AcDbEntity
  8
RACCORDO
100
AcDbLine
 62
253
  6
CONTINUOUS
 10
-94.5641558621
 20
-42.2568226995
 11
-94.5634567311
 21
-42.331771397
  0
LINE
  5
5AE
100
AcDbEntity
  8
0
100
AcDbLine
 62
7
  6
CONTINUOUS
 10
-94.3414494707
 20
40.9448966949
 11
-94.3408459076
 21
40.8746583373
  0
LINE
  5
5AF
100
AcDbEntity
  8
0
100
AcDbLine
 62
7
  6
CONTINUOUS
 10
-94.3414653617
 20
-41.4015600037
 11
-94.3408515388
 21
-41.4797068093
  0
LINE
  5
5B0
100
AcDbEntity
  8
RACCORDO
100
AcDbLine
 62
253
  6
CONTINUOUS
 10
-96.3256915621
 20
-2.9710983371
 11
-96.3147104962
 21
-4.843526402
  0
LINE
  5
5B1
100
AcDbEntity
  8
RACCORDO
100
AcDbLine
 62
253
  6
CONTINUOUS
 10
-96.1952043409
 20
-2.9694324647
 11
-96.1842295925
 21
-4.8406679197
  0
LINE
  5
5B2
100
AcDbEntity
  8
RACCORDO
100
AcDbLine
 62
253
  6
CONTINUOUS
 10
-94.6842725757
 20
41.9025199367
 11
-94.6838078118
 21
41.8361575402
  0
LINE
  5
5B3
100
AcDbEntity
  8
RACCORDO
100
AcDbLine
 62
253
  6
CONTINUOUS
 10
-94.5635465603
 20
41.7754847278
 11
-94.5631859674
 21
41.7082710867
  0
LINE
  5
5B4
100
AcDbEntity
  8
RACCORDO
100
AcDbLine
 62
253
  6
CONTINUOUS
 10
-94.6840728685
 20
-42.4359783028
 11
-94.6837435772
 21
-42.5088810926
  0
LWPOLYLINE
  5
5B5
100
AcDbEntity
  8
0
100
AcDbPolyline
 62
7
  6
CONTINUOUS
 90
10
 70
0
 10
-95.8777758227
 20
-0.3691116567
 10
-95.8717620459
 20
-3.0562774174
 10
-95.8537206978
 20
-5.7431062431
 10
-95.8236517595
 20
-8.4292671442
 10
-95.7815542552
 20
-11.1144671464
 10
-95.7274257879
 20
-13.7984068375
 10
-95.6612649362
 20
-16.4807456464
 10
-95.5830695737
 20
-19.1611844409
 10
-95.4928358039
 20
-21.8394308297
 10
-95.3905602801
 20
-24.5151545006
  0
LINE
  5
5B6
100
AcDbEntity
  8
RACCORDO
100
AcDbLine
 62
253
  6
CONTINUOUS
 10
-96.8750329144
 20
41.914161074
 11
-96.8754288975
 21
42.0086967169
  0
LINE
  5
5B7
100
AcDbEntity
  8
RACCORDO
100
AcDbLine
 62
253
  6
CONTINUOUS
 10
-96.3307180932
 20
-1.2083418244
 11
-96.3256915621
 21
-2.9710983371
  0
LINE
  5
5B8
100
AcDbEntity
  8
RACCORDO
100
AcDbLine
 62
253
  6
CONTINUOUS
 10
-96.2002275047
 20
-1.2078212017
 11
-96.1952043409
 21
-2.9694324647
  0
LINE
  5
5B9
100
AcDbEntity
  8
RACCORDO
100
AcDbLine
 62
253
  6
CONTINUOUS
 10
-94.5634567311
 20
-42.331771397
 11
-94.5631651376
 21
-42.4042221216
  0
LINE
  5
5BA
100
AcDbEntity
  8
0
100
AcDbLine
 62
7
  6
CONTINUOUS
 10
-94.3408515388
 20
-41.4797068093
 11
-94.3406789281
 21
-41.5546537839
  0
LINE
  5
5BB
100
AcDbEntity
  8
0
100
AcDbLine
 62
7
  6
CONTINUOUS
 10
-94.3408459076
 20
40.8746583373
 11
-94.3406792488
 21
40.8021345242
  0
LINE
  5
5BC
100
AcDbEntity
  8
RACCORDO
100
AcDbLine
 62
253
  6
CONTINUOUS
 10
-96.3307252488
 20
0.4649581925
 11
-96.3307180932
 21
-1.2083418244
  0
LINE
  5
5BD
100
AcDbEntity
  8
RACCORDO
100
AcDbLine
 62
253
  6
CONTINUOUS
 10
-96.2002346497
 20
0.4644395789
 11
-96.2002275047
 21
-1.2078212017
  0
LINE
  5
5BE
100
AcDbEntity
  8
RACCORDO
100
AcDbLine
 62
253
  6
CONTINUOUS
 10
-94.6838078118
 20
41.8361575402
 11
-94.683752429
 21
41.7660422737
  0
LINE
  5
5BF
100
AcDbEntity
  8
RACCORDO
100
AcDbLine
 62
253
  6
CONTINUOUS
 10
-94.5631859674
 20
41.7082710867
 11
-94.5632330987
 21
41.6373724211
  0
LINE
  5
5C0
100
AcDbEntity
  8
RACCORDO
100
AcDbLine
 62
253
  6
CONTINUOUS
 10
-94.6837435772
 20
-42.5088810926
 11
-94.6838238394
 21
-42.5783766927
  0
LINE
  5
5C1
100
AcDbEntity
  8
RACCORDO
100
AcDbLine
 62
253
  6
CONTINUOUS
 10
-96.3256808871
 20
2.2353492849
 11
-96.3307252488
 21
0.4649581925
  0
LINE
  5
5C2
100
AcDbEntity
  8
RACCORDO
100
AcDbLine
 62
253
  6
CONTINUOUS
 10
-96.1951936719
 20
2.2336818348
 11
-96.2002346497
 21
0.4644395789
  0
LINE
  5
5C3
100
AcDbEntity
  8
RACCORDO
100
AcDbLine
 62
253
  6
CONTINUOUS
 10
-94.5631651376
 20
-42.4042221216
 11
-94.56327899
 21
-42.4732921975
  0
LINE
  5
5C4
100
AcDbEntity
  8
0
100
AcDbLine
 62
7
  6
CONTINUOUS
 10
-94.3406792488
 20
40.8021345242
 11
-94.3409372803
 21
40.7263810719
  0
LINE
  5
5C5
100
AcDbEntity
  8
0
100
AcDbLine
 62
7
  6
CONTINUOUS
 10
-94.3406789281
 20
-41.5546537839
 11
-94.3409262849
 21
-41.6263813683
  0
LINE
  5
5C6
100
AcDbEntity
  8
RACCORDO
100
AcDbLine
 62
253
  6
CONTINUOUS
 10
-94.683752429
 20
41.7660422737
 11
-94.6841111449
 21
41.6925662158
  0
LINE
  5
5C7
100
AcDbEntity
  8
RACCORDO
100
AcDbLine
 62
253
  6
CONTINUOUS
 10
-94.5632330987
 20
41.6373724211
 11
-94.5636899709
 21
41.5634354831
  0
LINE
  5
5C8
100
AcDbEntity
  8
RACCORDO
100
AcDbLine
 62
253
  6
CONTINUOUS
 10
-94.6838238394
 20
-42.5783766927
 11
-94.6843092571
 21
-42.6442276409
  0
LINE
  5
5C9
100
AcDbEntity
  8
RACCORDO
100
AcDbLine
 62
253
  6
CONTINUOUS
 10
-94.56327899
 20
-42.4732921975
 11
-94.5637941866
 21
-42.5387395111
  0
LINE
  5
5CA
100
AcDbEntity
  8
0
100
AcDbLine
 62
7
  6
CONTINUOUS
 10
-94.3409372803
 20
40.7263810719
 11
-94.3416399845
 21
40.6474333263
  0
LINE
  5
5CB
100
AcDbEntity
  8
0
100
AcDbLine
 62
7
  6
CONTINUOUS
 10
-94.3409262849
 20
-41.6263813683
 11
-94.3416105384
 21
-41.6958485528
  0
LINE
  5
5CC
100
AcDbEntity
  8
RACCORDO
100
AcDbLine
 62
253
  6
CONTINUOUS
 10
-94.6841111449
 20
41.6925662158
 11
-94.6848852845
 21
41.6166007689
  0
LINE
  5
5CD
100
AcDbEntity
  8
RACCORDO
100
AcDbLine
 62
253
  6
CONTINUOUS
 10
-94.5636899709
 20
41.5634354831
 11
-94.5645614526
 21
41.4872904046
  0
LINE
  5
5CE
100
AcDbEntity
  8
RACCORDO
100
AcDbLine
 62
253
  6
CONTINUOUS
 10
-94.6843092571
 20
-42.6442276409
 11
-94.6848773001
 21
-42.68756514
  0
LINE
  5
5CF
100
AcDbEntity
  8
RACCORDO
100
AcDbLine
 62
253
  6
CONTINUOUS
 10
-94.5637941866
 20
-42.5387395111
 11
-94.5643803425
 21
-42.5818096317
  0
LINE
  5
5D0
100
AcDbEntity
  8
0
100
AcDbLine
 62
7
  6
CONTINUOUS
 10
-94.3416399845
 20
40.6474333263
 11
-94.3427909248
 21
40.5652627502
  0
LINE
  5
5D1
100
AcDbEntity
  8
RACCORDO
100
AcDbLine
 62
253
  6
CONTINUOUS
 10
-94.6848852845
 20
41.6166007689
 11
-94.6860822543
 21
41.5383364103
  0
LINE
  5
5D2
100
AcDbEntity
  8
RACCORDO
100
AcDbLine
 62
253
  6
CONTINUOUS
 10
-94.5645614526
 20
41.4872904046
 11
-94.5658575185
 21
41.4084873479
  0
LWPOLYLINE
  5
5D3
100
AcDbEntity
  8
0
100
AcDbPolyline
 62
7
  6
CONTINUOUS
 90
19
 70
0
 10
-94.3416105384
 20
-41.6958485528
 10
-94.3427680931
 20
-41.7635433746
 10
-94.3435463164
 20
-41.797032746
 10
-94.3444694365
 20
-41.8302340418
 10
-94.3455565465
 20
-41.8633684827
 10
-94.3468161012
 20
-41.8963860088
 10
-94.3482579964
 20
-41.9292036726
 10
-94.3499083373
 20
-41.961946143
 10
-94.351787822
 20
-41.9945266098
 10
-94.3539133523
 20
-42.0268443551
 10
-94.3563162261
 20
-42.0589607968
 10
-94.3590270612
 20
-42.0907626177
 10
-94.3620743493
 20
-42.1220869494
 10
-94.3654946506
 20
-42.1528729129
 10
-94.3693167149
 20
-42.1829438879
 10
-94.373586256
 20
-42.212116605
 10
-94.3783683317
 20
-42.2402503941
 10
-94.3837115413
 20
-42.2670912909
 10
-94.3900724766
 20
-42.2939243436
  0
LINE
  5
5D4
100
AcDbEntity
  8
RACCORDO
100
AcDbLine
 62
253
  6
CONTINUOUS
 10
-94.6848773001
 20
-42.68756514
 11
-94.6856770008
 21
-42.7313692764
  0
LWPOLYLINE
  5
5D5
100
AcDbEntity
  8
RACCORDO
100
AcDbPolyline
 62
253
  6
CONTINUOUS
 90
3
 70
0
 10
-94.5643803425
 20
-42.5818096317
 10
-94.5651973402
 20
-42.6253459415
 10
-94.5657102981
 20
-42.6475919203
  0
LINE
  5
5D6
100
AcDbEntity
  8
RACCORDO
100
AcDbLine
 62
253
  6
CONTINUOUS
 10
-94.6860822543
 20
41.5383364103
 11
-94.6877508618
 21
41.4551192463
  0
LINE
  5
5D7
100
AcDbEntity
  8
0
100
AcDbLine
 62
7
  6
CONTINUOUS
 10
-94.3427909248
 20
40.5652627502
 11
-94.3453079745
 21
40.4362370436
  0
LINE
  5
5D8
100
AcDbEntity
  8
RACCORDO
100
AcDbLine
 62
253
  6
CONTINUOUS
 10
-94.5658575185
 20
41.4084873479
 11
-94.5676636083
 21
41.3228170078
  0
LINE
  5
5D9
100
AcDbEntity
  8
RACCORDO
100
AcDbLine
 62
253
  6
CONTINUOUS
 10
-94.6856770008
 20
-42.7313692764
 11
-94.6867623449
 21
-42.7763716647
  0
LINE
  5
5DA
100
AcDbEntity
  8
0
100
AcDbLine
 62
7
  6
CONTINUOUS
 10
-94.3453079745
 20
40.4362370436
 11
-94.3487173287
 21
40.3011130594
  0
LINE
  5
5DB
100
AcDbEntity
  8
RACCORDO
100
AcDbLine
 62
253
  6
CONTINUOUS
 10
-94.6877508618
 20
41.4551192463
 11
-94.6910091957
 21
41.3257377942
  0
LINE
  5
5DC
100
AcDbEntity
  8
RACCORDO
100
AcDbLine
 62
253
  6
CONTINUOUS
 10
-94.5676636083
 20
41.3228170078
 11
-94.5712251576
 21
41.1866504128
  0
LWPOLYLINE
  5
5DD
100
AcDbEntity
  8
RACCORDO
100
AcDbPolyline
 62
253
  6
CONTINUOUS
 90
14
 70
0
 10
-96.0677468953
 20
17.448527895
 10
-96.0977589717
 20
16.4051527494
 10
-96.1268960648
 20
15.3255150066
 10
-96.1552472288
 20
14.1979216218
 10
-96.1822843219
 20
13.0340421034
 10
-96.2071671469
 20
11.865004099
 10
-96.2299081885
 20
10.6886172818
 10
-96.2504297876
 20
9.50711729
 10
-96.2681574882
 20
8.3583190822
 10
-96.283123155
 20
7.2546627975
 10
-96.2957107544
 20
6.1837906715
 10
-96.3060902455
 20
5.1463367431
 10
-96.3144346043
 20
4.1423463111
 10
-96.3256808871
 20
2.2353492849
  0
LWPOLYLINE
  5
5DE
100
AcDbEntity
  8
RACCORDO
100
AcDbPolyline
 62
253
  6
CONTINUOUS
 90
14
 70
0
 10
-95.9374054721
 20
17.4371745007
 10
-95.9674013299
 20
16.394442534
 10
-95.9965221853
 20
15.3154718661
 10
-96.0248570302
 20
14.1885943624
 10
-96.0518789081
 20
13.0254556777
 10
-96.0767481185
 20
11.8571443343
 10
-96.0994762325
 20
10.6814952127
 10
-96.1199857496
 20
9.5007613742
 10
-96.137703441
 20
8.352707811
 10
-96.1526608998
 20
7.2497519502
 10
-96.1652411216
 20
6.1795662335
 10
-96.1756142807
 20
5.1427976193
 10
-96.1839538616
 20
4.1394651382
 10
-96.1951936719
 20
2.2336818348
  0
LINE
  5
5DF
100
AcDbEntity
  8
RACCORDO
100
AcDbLine
 62
253
  6
CONTINUOUS
 10
-94.6910091957
 20
41.3257377942
 11
-94.6946585018
 21
41.2055473635
  0
LINE
  5
5E0
100
AcDbEntity
  8
RACCORDO
100
AcDbLine
 62
253
  6
CONTINUOUS
 10
-96.0054521804
 20
19.438322671
 11
-96.0677468953
 21
17.448527895
  0
LINE
  5
5E1
100
AcDbEntity
  8
RACCORDO
100
AcDbLine
 62
253
  6
CONTINUOUS
 10
-95.8751456993
 20
19.4257085529
 11
-95.9374054721
 21
17.4371745007
  0
LINE
  5
5E2
100
AcDbEntity
  8
0
100
AcDbLine
 62
7
  6
CONTINUOUS
 10
-94.3487173287
 20
40.3011130594
 11
-94.3530875264
 21
40.1580539092
  0
LINE
  5
5E3
100
AcDbEntity
  8
RACCORDO
100
AcDbLine
 62
253
  6
CONTINUOUS
 10
-94.5712251576
 20
41.1866504128
 11
-94.5752216007
 21
41.0597260016
  0
LWPOLYLINE
  5
5E4
100
AcDbEntity
  8
DRAFT
100
AcDbPolyline
 62
7
  6
CONTINUOUS
 90
18
 70
0
 10
-96.1200930314
 20
21.2110823129
 10
-96.2106296725
 20
18.5190913355
 10
-96.2890828325
 20
15.8249748183
 10
-96.3554764045
 20
13.1284086435
 10
-96.4098011862
 20
10.4298733936
 10
-96.4520365743
 20
7.7306548824
 10
-96.482194406
 20
5.0311133772
 10
-96.5002890314
 20
2.331047323
 10
-96.5063203063
 20
-0.3690995644
 10
-96.5002891362
 20
-3.0692488789
 10
-96.48219456
 20
-5.7693200767
 10
-96.4520367346
 20
-8.4688662357
 10
-96.4098013447
 20
-11.1680878147
 10
-96.3554765461
 20
-13.8666256422
 10
-96.2890829438
 20
-16.5631939868
 10
-96.210629745
 20
-19.2573122934
 10
-96.1200930645
 20
-21.9493046524
 10
-96.0135386407
 20
-24.7351958227
  0
LWPOLYLINE
  5
5E5
100
AcDbEntity
  8
0
100
AcDbPolyline
 62
7
  6
CONTINUOUS
 90
9
 70
0
 10
-95.4928358039
 20
21.1012075163
 10
-95.5830695737
 20
18.4229611276
 10
-95.6612649362
 20
15.742522333
 10
-95.7274257879
 20
13.0601835241
 10
-95.7815542552
 20
10.376243833
 10
-95.8236517595
 20
7.6910438307
 10
-95.8537206978
 20
5.0048829297
 10
-95.8717620459
 20
2.318054104
 10
-95.8777758227
 20
-0.3691116567
  0
LINE
  5
5E6
100
AcDbEntity
  8
RACCORDO
100
AcDbLine
 62
253
  6
CONTINUOUS
 10
-95.9410402742
 20
21.3028879596
 11
-96.0054521804
 21
19.438322671
  0
LINE
  5
5E7
100
AcDbEntity
  8
RACCORDO
100
AcDbLine
 62
253
  6
CONTINUOUS
 10
-95.8107685393
 20
21.2891281809
 11
-95.8751456993
 21
19.4257085529
  0
LINE
  5
5E8
100
AcDbEntity
  8
RACCORDO
100
AcDbLine
 62
253
  6
CONTINUOUS
 10
-94.6946585018
 20
41.2055473635
 11
-94.6996525055
 21
41.0636601061
  0
LINE
  5
5E9
100
AcDbEntity
  8
0
100
AcDbLine
 62
7
  6
CONTINUOUS
 10
-94.3530875264
 20
40.1580539092
 11
-94.3586395797
 21
40.0003518706
  0
LINE
  5
5EA
100
AcDbEntity
  8
RACCORDO
100
AcDbLine
 62
253
  6
CONTINUOUS
 10
-94.5752216007
 20
41.0597260016
 11
-94.580575304
 21
40.9123684087
  0
LINE
  5
5EB
100
AcDbEntity
  8
RACCORDO
100
AcDbLine
 62
253
  6
CONTINUOUS
 10
-95.8751036233
 20
23.0568290964
 11
-95.9410402742
 21
21.3028879596
  0
LINE
  5
5EC
100
AcDbEntity
  8
RACCORDO
100
AcDbLine
 62
253
  6
CONTINUOUS
 10
-95.7448678703
 20
23.0419697827
 11
-95.8107685393
 21
21.2891281809
  0
LINE
  5
5ED
100
AcDbEntity
  8
RACCORDO
100
AcDbLine
 62
253
  6
CONTINUOUS
 10
-94.6996525055
 20
41.0636601061
 11
-94.7059600712
 21
40.9049616979
  0
LINE
  5
5EE
100
AcDbEntity
  8
0
100
AcDbLine
 62
7
  6
CONTINUOUS
 10
-94.3586395797
 20
40.0003518706
 11
-94.3658420029
 21
39.8198160177
  0
LINE
  5
5EF
100
AcDbEntity
  8
0
100
AcDbLine
 62
7
  6
CONTINUOUS
 10
-95.3755089103
 20
24.1427273819
 11
-95.4928358039
 21
21.1012075163
  0
LINE
  5
5F0
100
AcDbEntity
  8
RACCORDO
100
AcDbLine
 62
253
  6
CONTINUOUS
 10
-94.580575304
 20
40.9123684087
 11
-94.5871719383
 21
40.750508604
  0
LINE
  5
5F1
100
AcDbEntity
  8
RACCORDO
100
AcDbLine
 62
253
  6
CONTINUOUS
 10
-95.8224354836
 20
24.3544936572
 11
-95.8751036233
 21
23.0568290964
  0
LINE
  5
5F2
100
AcDbEntity
  8
RACCORDO
100
AcDbLine
 62
253
  6
CONTINUOUS
 10
-95.6881897729
 20
24.4313967196
 11
-95.7448678703
 21
23.0419697827
  0
LINE
  5
5F3
100
AcDbEntity
  8
0
100
AcDbLine
 62
7
  6
CONTINUOUS
 10
-95.3336511358
 20
25.0663046172
 11
-95.3755089103
 21
24.1427273819
  0
LINE
  5
5F4
100
AcDbEntity
  8
RACCORDO
100
AcDbLine
 62
253
  6
CONTINUOUS
 10
-94.7059600712
 20
40.9049616979
 11
-94.7161051676
 21
40.6787236656
  0
LINE
  5
5F5
100
AcDbEntity
  8
RACCORDO
100
AcDbLine
 62
253
  6
CONTINUOUS
 10
-95.654759241
 20
25.1506837491
 11
-95.6881897729
 21
24.4313967196
  0
LINE
  5
5F6
100
AcDbEntity
  8
0
100
AcDbLine
 62
7
  6
CONTINUOUS
 10
-94.3658420029
 20
39.8198160177
 11
-94.3791143043
 21
39.5273786606
  0
LINE
  5
5F7
100
AcDbEntity
  8
RACCORDO
100
AcDbLine
 62
253
  6
CONTINUOUS
 10
-94.5871719383
 20
40.750508604
 11
-94.597593319
 21
40.5230384492
  0
LWPOLYLINE
  5
5F8
100
AcDbEntity
  8
RACCORDO
100
AcDbPolyline
 62
253
  6
CONTINUOUS
 90
3
 70
0
 10
-94.7161051676
 20
40.6787236656
 10
-94.7278711204
 20
40.4438615367
 10
-94.731015538
 20
40.3842723076
  0
LINE
  5
5F9
100
AcDbEntity
  8
0
100
AcDbLine
 62
7
  6
CONTINUOUS
 10
-95.2901694225
 20
25.9283028946
 11
-95.3336511358
 21
25.0663046172
  0
LINE
  5
5FA
100
AcDbEntity
  8
0
100
AcDbLine
 62
7
  6
CONTINUOUS
 10
-94.3791143043
 20
39.5273786606
 11
-94.3979029045
 21
39.158883672
  0
LINE
  5
5FB
100
AcDbEntity
  8
RACCORDO
100
AcDbLine
 62
253
  6
CONTINUOUS
 10
-94.597593319
 20
40.5230384492
 11
-94.6127254807
 21
40.2280707415
  0
LINE
  5
5FC
100
AcDbEntity
  8
RACCORDO
100
AcDbLine
 62
253
  6
CONTINUOUS
 10
-94.6127254807
 20
40.2280707415
 11
-94.6229476753
 21
40.0427773355
  0
LINE
  5
5FD
100
AcDbEntity
  8
0
100
AcDbLine
 62
7
  6
CONTINUOUS
 10
-94.3979029045
 20
39.158883672
 11
-94.4240507109
 21
38.6964944284
  0
LWPOLYLINE
  5
5FE
100
AcDbEntity
  8
0
100
AcDbPolyline
 62
7
  6
CONTINUOUS
 90
3
 70
0
 10
-95.2171363763
 20
27.2193436411
 10
-95.2425192499
 20
26.7892921261
 10
-95.2901694225
 20
25.9283028946
  0
LINE
  5
5FF
100
AcDbEntity
  8
0
100
AcDbLine
 62
7
  6
CONTINUOUS
 10
-94.4240507109
 20
38.6964944284
 11
-94.4600591358
 21
38.1098688191
  0
LWPOLYLINE
  5
600
100
AcDbEntity
  8
RACCORDO
100
AcDbPolyline
 62
253
  6
CONTINUOUS
 90
4
 70
0
 10
-99.7374092782
 20
-23.4649907268
 10
-99.7412459416
 20
-23.4948776833
 10
-99.7440675204
 20
-23.5437142955
 10
-99.7434685465
 20
-23.592631072
  0
LWPOLYLINE
  5
601
100
AcDbEntity
  8
RACCORDO
100
AcDbPolyline
 62
253
  6
CONTINUOUS
 90
4
 70
0
 10
-99.7374104906
 20
22.7267764949
 10
-99.7412460223
 20
22.7566543889
 10
-99.7440676548
 20
22.805490995
 10
-99.7434687374
 20
22.8544077674
  0
LWPOLYLINE
  5
602
100
AcDbEntity
  8
RACCORDO
100
AcDbPolyline
 62
253
  6
CONTINUOUS
 90
11
 70
0
 10
-91.2957152604
 20
-4.2852931581
 10
-91.2971671824
 20
-4.2682166091
 10
-91.2994395041
 20
-4.2522685594
 10
-91.3025090149
 20
-4.2376119096
 10
-91.3063443614
 20
-4.2243963691
 10
-91.3109063679
 20
-4.2127569275
 10
-91.3161484359
 20
-4.2028124753
 10
-91.3220170206
 20
-4.1946645896
 10
-91.3284521778
 20
-4.1883964968
 10
-91.3353881757
 20
-4.1840722219
 10
-91.3427541671
 20
-4.1817359351
  0
LWPOLYLINE
  5
603
100
AcDbEntity
  8
RACCORDO
100
AcDbPolyline
 62
253
  6
CONTINUOUS
 90
19
 70
0
 10
-93.2645939766
 20
-3.7036143946
 10
-93.2633993302
 20
-3.7341326574
 10
-93.2599296947
 20
-3.7641789598
 10
-93.2541855409
 20
-3.7937527361
 10
-93.2461328257
 20
-3.8230056433
 10
-93.2358073605
 20
-3.8517848867
 10
-93.2233148266
 20
-3.8796332949
 10
-93.2086233606
 20
-3.9065568422
 10
-93.191768258
 20
-3.9325486179
 10
-93.1729562193
 20
-3.9571323376
 10
-93.15214636
 20
-3.9803017384
 10
-93.1293842269
 20
-4.0020625426
 10
-93.1050060198
 20
-4.0219567822
 10
-93.0789720356
 20
-4.0399594068
 10
-93.0513270794
 20
-4.056095495
 10
-93.0225333163
 20
-4.0699826912
 10
-92.9927459695
 20
-4.0814938444
 10
-92.9618140734
 20
-4.0907568018
 10
-92.929739955
 20
-4.0977719534
  0
LINE
  5
604
100
AcDbEntity
  8
RACCORDO
100
AcDbLine
 62
253
  6
CONTINUOUS
 10
-94.5694474591
 20
42.0218535796
 11
-94.5676386518
 21
41.9749344211
  0
LINE
  5
605
100
AcDbEntity
  8
RACCORDO
100
AcDbLine
 62
253
  6
CONTINUOUS
 10
-94.6898829264
 20
42.1287056423
 11
-94.6880876872
 21
42.0814985586
  0
LWPOLYLINE
  5
606
100
AcDbEntity
  8
RACCORDO
100
AcDbPolyline
 62
253
  6
CONTINUOUS
 90
3
 70
0
 10
-94.5676386518
 20
41.9749344211
 10
-94.5662187276
 20
41.9289427667
 10
-94.5656373353
 20
41.9063744561
  0
LINE
  5
607
100
AcDbEntity
  8
RACCORDO
100
AcDbLine
 62
253
  6
CONTINUOUS
 10
-94.6880876872
 20
42.0814985586
 11
-94.6866831733
 21
42.0352239091
  0
LINE
  5
608
100
AcDbEntity
  8
RACCORDO
100
AcDbLine
 62
253
  6
CONTINUOUS
 10
-91.3140886368
 20
-41.5665241969
 11
-91.3027154281
 21
-43.0776222775
  0
LINE
  5
609
100
AcDbEntity
  8
RACCORDO
100
AcDbLine
 62
253
  6
CONTINUOUS
 10
-91.3037707311
 20
14.5500534
 11
-91.3009814354
 21
3.6429742219
  0
LINE
  5
60A
100
AcDbEntity
  8
RACCORDO
100
AcDbLine
 62
7
  6
CONTINUOUS
 10
-93.1157345533
 20
-3.7012917305
 11
-93.1157345533
 21
2.9630684171
  0
LINE
  5
60B
100
AcDbEntity
  8
RACCORDO
100
AcDbLine
 62
7
  6
CONTINUOUS
 10
-91.1157345533
 20
42.0615020815
 11
-91.1157345533
 21
3.6513622309
  0
LINE
  5
60C
100
AcDbEntity
  8
RACCORDO
100
AcDbLine
 62
7
  6
CONTINUOUS
 10
-91.1157345533
 20
-4.3895855444
 11
-91.1157345533
 21
-42.7997253949
  0
LINE
  5
60D
100
AcDbEntity
  8
RACCORDO
100
AcDbLine
 62
253
  6
CONTINUOUS
 10
-93.2645939766
 20
-3.7036143946
 11
-93.2645939764
 21
2.965391083
  0
LINE
  5
60E
100
AcDbEntity
  8
RACCORDO
100
AcDbLine
 62
253
  6
CONTINUOUS
 10
-91.3009821117
 20
-4.3811972581
 11
-91.3035079976
 21
-14.786454903
  0
LWPOLYLINE
  5
60F
100
AcDbEntity
  8
RACCORDO
100
AcDbPolyline
 62
253
  6
CONTINUOUS
 90
3
 70
0
 10
-91.3035079976
 20
-14.786454903
 10
-91.3133201493
 20
-28.4371749817
 10
-91.3140709651
 20
-40.1983663599
  0
LINE
  5
610
100
AcDbEntity
  8
RACCORDO
100
AcDbLine
 62
253
  6
CONTINUOUS
 10
-91.3140709651
 20
-40.1983663599
 11
-91.3140964985
 21
-41.5650580768
  0
LINE
  5
611
100
AcDbEntity
  8
RACCORDO
100
AcDbLine
 62
253
  6
CONTINUOUS
 10
-91.3140964985
 20
40.8268347637
 11
-91.3037707311
 21
14.5500534
  0
LINE
  5
612
100
AcDbEntity
  8
RACCORDO
100
AcDbLine
 62
253
  6
CONTINUOUS
 10
-91.3116121782
 20
41.1520318914
 11
-91.3140886368
 21
40.8283008835
  0
LWPOLYLINE
  5
613
100
AcDbEntity
  8
RACCORDO
100
AcDbPolyline
 62
253
  6
CONTINUOUS
 90
3
 70
0
 10
-91.3027154281
 20
42.3393989641
 10
-91.3113029404
 20
41.1780716171
 10
-91.3116044684
 20
41.1526778687
  0
LINE
  5
614
100
AcDbEntity
  8
RACCORDO
100
AcDbLine
 62
253
  6
CONTINUOUS
 10
-94.5657102981
 20
-42.6475919203
 11
-94.5669710989
 21
-42.692847278
  0
LINE
  5
615
100
AcDbEntity
  8
RACCORDO
100
AcDbLine
 62
253
  6
CONTINUOUS
 10
-94.6867623449
 20
-42.7763716647
 11
-94.6881812282
 21
-42.8224557127
  0
LWPOLYLINE
  5
616
100
AcDbEntity
  8
RACCORDO
100
AcDbPolyline
 62
253
  6
CONTINUOUS
 90
15
 70
0
 10
-94.5669710989
 20
-42.692847278
 10
-94.5685911194
 20
-42.7391090592
 10
-94.5695554193
 20
-42.7625870353
 10
-94.5706333085
 20
-42.7862512344
 10
-94.5718331672
 20
-42.8100468249
 10
-94.5731688528
 20
-42.8339990108
 10
-94.5746502383
 20
-42.858035686
 10
-94.5762870609
 20
-42.882084545
 10
-94.5780951763
 20
-42.9061536276
 10
-94.5800848327
 20
-42.9301517739
 10
-94.5822674811
 20
-42.9540012543
 10
-94.5846636637
 20
-42.9777072053
 10
-94.5872851379
 20
-43.0011547471
 10
-94.5901468635
 20
-43.0242411973
 10
-94.5932785228
 20
-43.0469549349
  0
LWPOLYLINE
  5
617
100
AcDbEntity
  8
RACCORDO
100
AcDbPolyline
 62
253
  6
CONTINUOUS
 90
20
 70
0
 10
-94.6881812282
 20
-42.8224557127
 10
-94.6899902199
 20
-42.8694545565
 10
-94.6910620473
 20
-42.8932650623
 10
-94.6922564771
 20
-42.9172089838
 10
-94.6935874717
 20
-42.9413058649
 10
-94.6950653298
 20
-42.9654879018
 10
-94.6966993878
 20
-42.9896867728
 10
-94.6985046531
 20
-43.0139039741
 10
-94.7004927943
 20
-43.0380529406
 10
-94.7026760419
 20
-43.0620543207
 10
-94.7050732039
 20
-43.0859002861
 10
-94.7076967631
 20
-43.1094903493
 10
-94.7105631478
 20
-43.1327257578
 10
-94.7137008325
 20
-43.1555754899
 10
-94.7171276972
 20
-43.1779186722
 10
-94.7208612469
 20
-43.1996323499
 10
-94.7249338406
 20
-43.2206517419
 10
-94.7293714849
 20
-43.2408503846
 10
-94.7341917053
 20
-43.2600548068
 10
-94.739417106
 20
-43.2781092791
  0
LWPOLYLINE
  5
618
100
AcDbEntity
  8
RACCORDO
100
AcDbPolyline
 62
253
  6
CONTINUOUS
 90
11
 70
0
 10
-91.2957135744
 20
3.5470680056
 10
-91.2971656401
 20
3.5299912194
 10
-91.2994381381
 20
3.5140430069
 10
-91.3025078553
 20
3.4993862776
 10
-91.3063434346
 20
3.4861707484
 10
-91.3109056961
 20
3.4745314147
 10
-91.3161480367
 20
3.4645871709
 10
-91.3220169063
 20
3.4564395966
 10
-91.3284523552
 20
3.4501719184
 10
-91.3353886458
 20
3.44584816
 10
-91.3427549246
 20
3.4435124881
  0
LWPOLYLINE
  5
619
100
AcDbEntity
  8
RACCORDO
100
AcDbPolyline
 62
253
  6
CONTINUOUS
 90
6
 70
0
 10
-91.3009813783
 20
-4.3811973909
 10
-91.2982799105
 20
-4.3612609843
 10
-91.2963874764
 20
-4.34150268
 10
-91.2953234061
 20
-4.3221242984
 10
-91.2950985686
 20
-4.3033237787
 10
-91.2957152604
 20
-4.2852931581
  0
LWPOLYLINE
  5
61A
100
AcDbEntity
  8
RACCORDO
100
AcDbPolyline
 62
253
  6
CONTINUOUS
 90
19
 70
0
 10
-92.9297982787
 20
-4.0980710405
 10
-92.927181089
 20
-4.0811305341
 10
-92.9249962819
 20
-4.0643271278
 10
-92.9232573525
 20
-4.0477834648
 10
-92.9219750832
 20
-4.0316296452
 10
-92.9211548056
 20
-4.0159699773
 10
-92.9207994739
 20
-4.0008856334
 10
-92.9209119002
 20
-3.9864768124
 10
-92.9214916604
 20
-3.9728585022
 10
-92.9225345407
 20
-3.9601297215
 10
-92.9240329602
 20
-3.9483830115
 10
-92.9259760262
 20
-3.9377037735
 10
-92.9283496116
 20
-3.928169655
 10
-92.9311364576
 20
-3.9198499767
 10
-92.9343163056
 20
-3.9128052143
 10
-92.9378660453
 20
-3.9070865734
 10
-92.9417598748
 20
-3.9027356349
 10
-92.9459694852
 20
-3.8997840434
 10
-92.9504642736
 20
-3.8982532661
  0
LWPOLYLINE
  5
61B
100
AcDbEntity
  8
RACCORDO
100
AcDbPolyline
 62
253
  6
CONTINUOUS
 90
8
 70
0
 10
-91.1157345533
 20
-4.3895855338
 10
-91.115925455
 20
-4.3896742237
 10
-91.1165200019
 20
-4.3897381281
 10
-91.1175509921
 20
-4.3897770179
 10
-91.1190544848
 20
-4.3897921921
 10
-91.1210619895
 20
-4.3897817831
 10
-91.1235921001
 20
-4.389740773
 10
-91.1266696961
 20
-4.3896680613
  0
LWPOLYLINE
  5
61C
100
AcDbEntity
  8
RACCORDO
100
AcDbPolyline
 62
253
  6
CONTINUOUS
 90
6
 70
0
 10
-91.3009795162
 20
3.6429741538
 10
-91.2982780104
 20
3.6230373081
 10
-91.2963855744
 20
3.6032785798
 10
-91.2953215392
 20
3.5838998023
 10
-91.295096774
 20
3.5650989279
 10
-91.2957135744
 20
3.5470680056
  0
LWPOLYLINE
  5
61D
100
AcDbEntity
  8
RACCORDO
100
AcDbPolyline
 62
253
  6
CONTINUOUS
 90
4
 70
0
 10
-91.1157345533
 20
40.5471444839
 10
-91.117296689
 20
40.5776006098
 10
-91.1219668282
 20
40.6077395584
 10
-91.1296963348
 20
40.6372474553
  0
LWPOLYLINE
  5
61E
100
AcDbEntity
  8
RACCORDO
100
AcDbPolyline
 62
253
  6
CONTINUOUS
 90
6
 70
0
 10
-91.1157345533
 20
40.8716068617
 10
-91.1172743091
 20
40.9019328652
 10
-91.1218777711
 20
40.9319475711
 10
-91.1294976843
 20
40.9613428772
 10
-91.1400558302
 20
40.9898170396
 10
-91.153443829
 20
41.0170777699
  0
LWPOLYLINE
  5
61F
100
AcDbEntity
  8
RACCORDO
100
AcDbPolyline
 62
253
  6
CONTINUOUS
 90
13
 70
0
 10
-91.1157345533
 20
41.0975273714
 10
-91.1172547953
 20
41.1276629063
 10
-91.1218001137
 20
41.1574930194
 10
-91.1293244421
 20
41.1867153839
 10
-91.1397515217
 20
41.2150338331
 10
-91.1529756747
 20
41.2421613609
 10
-91.168862875
 20
41.2678230314
 10
-91.1872521066
 20
41.2917587651
 10
-91.2079569956
 20
41.3137259747
 10
-91.2307676992
 20
41.3335020237
 10
-91.2554530319
 20
41.3508864832
 10
-91.2817628094
 20
41.3657031626
 10
-91.3094303834
 20
41.3778018957
  0
LWPOLYLINE
  5
620
100
AcDbEntity
  8
RACCORDO
100
AcDbPolyline
 62
253
  6
CONTINUOUS
 90
13
 70
0
 10
-91.1157345533
 20
-41.8357506848
 10
-91.1172547945
 20
-41.865886261
 10
-91.1218001139
 20
-41.8957164145
 10
-91.129324445
 20
-41.9249388182
 10
-91.1397515289
 20
-41.9532573043
 10
-91.1529756878
 20
-41.9803848661
 10
-91.1688628954
 20
-42.0060465669
 10
-91.1872521355
 20
-42.0299823266
 10
-91.2079570341
 20
-42.0519495572
 10
-91.2307677481
 20
-42.0717256218
 10
-91.2554530918
 20
-42.0891100909
 10
-91.2817628807
 20
-42.1039267734
 10
-91.309430466
 20
-42.1160255031
  0
LWPOLYLINE
  5
621
100
AcDbEntity
  8
RACCORDO
100
AcDbPolyline
 62
253
  6
CONTINUOUS
 90
8
 70
0
 10
-91.1157345533
 20
-41.6098301752
 10
-91.1172743091
 20
-41.6401561778
 10
-91.1218777709
 20
-41.6701708829
 10
-91.1294976841
 20
-41.6995661883
 10
-91.1400558298
 20
-41.72804035
 10
-91.1534438283
 20
-41.7553010796
 10
-91.1695242514
 20
-41.7810685448
 10
-91.1881320327
 20
-41.8050782415
  0
LWPOLYLINE
  5
622
100
AcDbEntity
  8
RACCORDO
100
AcDbPolyline
 62
253
  6
CONTINUOUS
 90
6
 70
0
 10
-91.1157345533
 20
-41.2853677973
 10
-91.1172966894
 20
-41.315823923
 10
-91.1219668289
 20
-41.3459628712
 10
-91.1296963359
 20
-41.3754707678
 10
-91.1404047133
 20
-41.4040403105
 10
-91.1539804417
 20
-41.4313739692
  0
LWPOLYLINE
  5
623
100
AcDbEntity
  8
RACCORDO
100
AcDbPolyline
 62
253
  6
CONTINUOUS
 90
6
 70
0
 10
-94.5932785228
 20
-43.0469549349
 10
-94.5966979949
 20
-43.0691690446
 10
-94.6004217998
 20
-43.0907485199
 10
-94.6044823291
 20
-43.1116338336
 10
-94.6089055571
 20
-43.1317031662
 10
-94.6100744487
 20
-43.1365911094
  0
LWPOLYLINE
  5
624
100
AcDbEntity
  8
RACCORDO
100
AcDbPolyline
 62
253
  6
CONTINUOUS
 90
15
 70
0
 10
-99.7434687382
 20
-23.5926310809
 10
-99.7425203109
 20
-23.5905725064
 10
-99.7416350028
 20
-23.5873271813
 10
-99.7408128173
 20
-23.5828951042
 10
-99.7400543855
 20
-23.5772594032
 10
-99.7393590559
 20
-23.5704369469
 10
-99.7387248973
 20
-23.5624783456
 10
-99.7381517085
 20
-23.5533859977
 10
-99.7376396276
 20
-23.5431574992
 10
-99.7371872284
 20
-23.5318362562
 10
-99.7367942725
 20
-23.5194280378
 10
-99.7364608981
 20
-23.5059270676
 10
-99.7361862403
 20
-23.4913594327
 10
-99.735969837
 20
-23.4757298609
 10
-99.7357130755
 20
-23.4412825858
  0
LINE
  5
625
100
AcDbEntity
  8
RACCORDO
100
AcDbLine
 62
7
  6
CONTINUOUS
 10
-100.1117050384
 20
23.1257129639
 11
-99.7368706967
 21
22.590394046
  0
LINE
  5
626
100
AcDbEntity
  8
RACCORDO
100
AcDbLine
 62
253
  6
CONTINUOUS
 10
-99.7434687382
 20
22.8544077675
 11
-100.2374851487
 21
23.5607075435
  0
LWPOLYLINE
  5
627
100
AcDbEntity
  8
RACCORDO
100
AcDbPolyline
 62
253
  6
CONTINUOUS
 90
14
 70
0
 10
-94.5965639896
 20
42.330120849
 10
-94.5931360003
 20
42.307749899
 10
-94.589999196
 20
42.2848843908
 10
-94.5871354658
 20
42.2616557298
 10
-94.584513863
 20
42.2380695588
 10
-94.5821190916
 20
42.2142290005
 10
-94.5799393164
 20
42.1902515487
 10
-94.5779534091
 20
42.1661272138
 10
-94.5761497365
 20
42.1419326732
 10
-94.5745180496
 20
42.1177614048
 10
-94.5730422524
 20
42.0936050099
 10
-94.5717124883
 20
42.0695360343
 10
-94.5705188537
 20
42.0456273242
 10
-94.5694474591
 20
42.0218535796
  0
LINE
  5
628
100
AcDbEntity
  8
RACCORDO
100
AcDbLine
 62
7
  6
CONTINUOUS
 10
-94.6100744487
 20
-43.1365911094
 11
-94.6125487799
 21
-43.1464145952
  0
LINE
  5
629
100
AcDbEntity
  8
SUPERFICI
100
AcDbLine
 62
7
  6
CONTINUOUS
 10
-94.6125500812
 20
-43.1464195822
 11
-94.3908663168
 21
-42.2969424421
  0
LWPOLYLINE
  5
62A
100
AcDbEntity
  8
RACCORDO
100
AcDbPolyline
 62
253
  6
CONTINUOUS
 90
19
 70
0
 10
-97.2004502986
 20
-43.1864192946
 10
-97.1925735374
 20
-43.1570342517
 10
-97.1853959847
 20
-43.1252515154
 10
-97.1789328227
 20
-43.0910708002
 10
-97.1732665074
 20
-43.0542030489
 10
-97.1683430355
 20
-43.0149366562
 10
-97.1639709445
 20
-42.9741376107
 10
-97.1601493697
 20
-42.9318932731
 10
-97.1569020269
 20
-42.8881158227
 10
-97.1540715034
 20
-42.8434086887
 10
-97.1516522087
 20
-42.7977958937
 10
-97.1496673982
 20
-42.7512531149
 10
-97.1480009974
 20
-42.7043114495
 10
-97.1466530137
 20
-42.6569145003
 10
-97.145638556
 20
-42.6091185299
 10
-97.1448647098
 20
-42.5616238396
 10
-97.1443352968
 20
-42.5147211327
 10
-97.1440632298
 20
-42.4681198557
 10
-97.1440385056
 20
-42.3754142979
  0
LWPOLYLINE
  5
62B
100
AcDbEntity
  8
RACCORDO
100
AcDbPolyline
 62
253
  6
CONTINUOUS
 90
18
 70
0
 10
-96.9316576896
 20
-43.4307961355
 10
-96.9236620118
 20
-43.4015893477
 10
-96.9165056566
 20
-43.3691618664
 10
-96.9101318173
 20
-43.333910526
 10
-96.9044900987
 20
-43.2962881785
 10
-96.8995188777
 20
-43.2566316531
 10
-96.8951529911
 20
-43.2151057186
 10
-96.8913490549
 20
-43.1720541937
 10
-96.888059737
 20
-43.1277815302
 10
-96.8852293407
 20
-43.0822997415
 10
-96.8828197523
 20
-43.0358488024
 10
-96.8807982643
 20
-42.9887437995
 10
-96.8791302287
 20
-42.9410224328
 10
-96.8777842206
 20
-42.8928035236
 10
-96.8767352866
 20
-42.8443969997
 10
-96.8759626499
 20
-42.7960924491
 10
-96.8754409823
 20
-42.7483409527
 10
-96.8750332514
 20
-42.6538867259
  0
LINE
  5
62C
100
AcDbEntity
  8
RACCORDO
100
AcDbLine
 62
253
  6
CONTINUOUS
 10
-97.7955539008
 20
-44.9469976759
 11
-97.7746252376
 21
-44.8779308099
  0
LINE
  5
62D
100
AcDbEntity
  8
RACCORDO
100
AcDbLine
 62
253
  6
CONTINUOUS
 10
-97.7122873468
 20
-44.6744370634
 11
-97.6804400275
 21
-44.5700797417
  0
LWPOLYLINE
  5
62E
100
AcDbEntity
  8
RACCORDO
100
AcDbPolyline
 62
253
  6
CONTINUOUS
 90
3
 70
0
 10
-97.7746252376
 20
-44.8779308099
 10
-97.765099532
 20
-44.8469653524
 10
-97.7411841077
 20
-44.7678897144
  0
LINE
  5
62F
100
AcDbEntity
  8
RACCORDO
100
AcDbLine
 62
253
  6
CONTINUOUS
 10
-97.5270809951
 20
-45.1892938466
 11
-97.3231858242
 21
-44.5256403885
  0
LINE
  5
630
100
AcDbEntity
  8
RACCORDO
100
AcDbLine
 62
253
  6
CONTINUOUS
 10
-97.7411841077
 20
-44.7678897144
 11
-97.7122873468
 21
-44.6744370634
  0
LINE
  5
631
100
AcDbEntity
  8
RACCORDO
100
AcDbLine
 62
253
  6
CONTINUOUS
 10
-97.6804400275
 20
-44.5700797417
 11
-97.4545857767
 21
-43.8395410948
  0
LINE
  5
632
100
AcDbEntity
  8
RACCORDO
100
AcDbLine
 62
253
  6
CONTINUOUS
 10
-97.3231858242
 20
-44.5256403885
 11
-97.1857694336
 21
-44.0837505735
  0
LWPOLYLINE
  5
633
100
AcDbEntity
  8
RACCORDO
100
AcDbPolyline
 62
253
  6
CONTINUOUS
 90
10
 70
0
 10
-97.4545857767
 20
-43.8395410948
 10
-97.4454389147
 20
-43.8112233642
 10
-97.4355456483
 20
-43.7825513647
 10
-97.4249060489
 20
-43.7535250581
 10
-97.4135202033
 20
-43.7241441605
 10
-97.4013881596
 20
-43.6944088784
 10
-97.3885099404
 20
-43.6643199095
 10
-97.3748856094
 20
-43.6338774597
 10
-97.3605152572
 20
-43.6030812435
 10
-97.3453989571
 20
-43.5719312205
  0
LWPOLYLINE
  5
634
100
AcDbEntity
  8
RACCORDO
100
AcDbPolyline
 62
253
  6
CONTINUOUS
 90
10
 70
0
 10
-97.1857694336
 20
-44.0837505735
 10
-97.1766220632
 20
-44.0554807875
 10
-97.1667288412
 20
-44.0268569891
 10
-97.1560897813
 20
-43.9978792667
 10
-97.144704888
 20
-43.9685476997
 10
-97.132574223
 20
-43.9388625156
 10
-97.1196978941
 20
-43.90882403
 10
-97.1060759694
 20
-43.8784324705
 10
-97.091708442
 20
-43.8476879185
 10
-97.0765953143
 20
-43.8165904741
  0
LINE
  5
635
100
AcDbEntity
  8
RACCORDO
100
AcDbLine
 62
253
  6
CONTINUOUS
 10
-100.2374851487
 20
-24.2989308569
 11
-99.7434687382
 21
-23.5926310809
  0
LINE
  5
636
100
AcDbEntity
  8
RACCORDO
100
AcDbLine
 62
7
  6
CONTINUOUS
 10
-100.1117050384
 20
-23.8639362773
 11
-99.736870484
 21
-23.3286170556
  0
LWPOLYLINE
  5
637
100
AcDbEntity
  8
RACCORDO
100
AcDbPolyline
 62
253
  6
CONTINUOUS
 90
10
 70
0
 10
-97.2004502986
 20
42.4481959812
 10
-97.2175571614
 20
42.5021293497
 10
-97.2344101705
 20
42.5532888308
 10
-97.2510109796
 20
42.6016749553
 10
-97.2673608303
 20
42.6472908048
 10
-97.2834612749
 20
42.6901342775
 10
-97.2993142518
 20
42.7301980894
 10
-97.3149210862
 20
42.7674800851
 10
-97.330282414
 20
42.8019832359
 10
-97.3453989571
 20
42.8337079071
  0
LWPOLYLINE
  5
638
100
AcDbEntity
  8
RACCORDO
100
AcDbPolyline
 62
253
  6
CONTINUOUS
 90
10
 70
0
 10
-96.9316579871
 20
42.6925737626
 10
-96.9487652219
 20
42.7465396053
 10
-96.965618302
 20
42.797736629
 10
-96.9822187508
 20
42.8461618942
 10
-96.9985678548
 20
42.8918118182
 10
-97.0146671246
 20
42.9346845281
 10
-97.0305183897
 20
42.9747792533
 10
-97.0461230041
 20
43.0120935707
 10
-97.0614816941
 20
43.046623861
 10
-97.0765953158
 20
43.0783671645
  0
LWPOLYLINE
  5
639
100
AcDbEntity
  8
RACCORDO
100
AcDbPolyline
 62
253
  6
CONTINUOUS
 90
3
 70
0
 10
-97.7934875204
 20
44.2019974516
 10
-97.7952997632
 20
44.2077975444
 10
-97.7955674553
 20
44.2087037717
  0
LINE
  5
63A
100
AcDbEntity
  8
RACCORDO
100
AcDbLine
 62
253
  6
CONTINUOUS
 10
-97.4545857767
 20
43.1013177813
 11
-97.5955055397
 21
43.5556785997
  0
LINE
  5
63B
100
AcDbEntity
  8
RACCORDO
100
AcDbLine
 62
253
  6
CONTINUOUS
 10
-97.1857694336
 20
43.3455272602
 11
-97.4176638369
 21
44.0937070254
  0
LINE
  5
63C
100
AcDbEntity
  8
RACCORDO
100
AcDbLine
 62
253
  6
CONTINUOUS
 10
-97.5955055397
 20
43.5556785997
 11
-97.7026310508
 21
43.9040784203
  0
LINE
  5
63D
100
AcDbEntity
  8
RACCORDO
100
AcDbLine
 62
253
  6
CONTINUOUS
 10
-97.4176638369
 20
44.0937070254
 11
-97.5268100424
 21
44.4501817615
  0
LWPOLYLINE
  5
63E
100
AcDbEntity
  8
RACCORDO
100
AcDbPolyline
 62
253
  6
CONTINUOUS
 90
3
 70
0
 10
-97.7688916301
 20
44.1211875812
 10
-97.7847488603
 20
44.1730298521
 10
-97.7934875204
 20
44.2019974516
  0
LWPOLYLINE
  5
63F
100
AcDbEntity
  8
RACCORDO
100
AcDbPolyline
 62
253
  6
CONTINUOUS
 90
3
 70
0
 10
-97.7026310508
 20
43.9040784203
 10
-97.7180731829
 20
43.9550243689
 10
-97.7462221881
 20
44.0462109905
  0
LINE
  5
640
100
AcDbEntity
  8
RACCORDO
100
AcDbLine
 62
253
  6
CONTINUOUS
 10
-97.7462221881
 20
44.0462109905
 11
-97.7688916301
 21
44.1211875812
  0
LINE
  5
641
100
AcDbEntity
  8
RACCORDO
100
AcDbLine
 62
7
  6
CONTINUOUS
 10
-94.6100272808
 20
42.398173126
 11
-94.6211114862
 21
42.4381048267
  0
LINE
  5
642
100
AcDbEntity
  8
RACCORDO
100
AcDbLine
 62
7
  6
CONTINUOUS
 10
-95.2116322734
 20
44.1845851657
 11
-95.2136026175
 21
44.1917056573
  0
LWPOLYLINE
  5
643
100
AcDbEntity
  8
DRAFT
100
AcDbPolyline
 62
7
  6
CONTINUOUS
 90
15
 70
0
 10
-94.8827212373
 20
42.8708883478
 10
-94.8693972468
 20
42.8215832447
 10
-94.8579332537
 20
42.7570766276
 10
-94.8482799753
 20
42.6773646318
 10
-94.8402547235
 20
42.581798089
 10
-94.8339132983
 20
42.4710156019
 10
-94.8296093251
 20
42.3469444892
 10
-94.8275889042
 20
42.2083838941
 10
-94.8275680973
 20
42.0565209657
 10
-94.8292094617
 20
41.8968681534
 10
-94.8324334292
 20
41.7331507003
 10
-94.837401261
 20
41.5616357631
 10
-94.8441186258
 20
41.3766479314
 10
-94.8523749745
 20
41.1774719989
 10
-94.8622625683
 20
40.9648043312
  0
LINE
  5
644
100
AcDbEntity
  8
SUPERFICI
100
AcDbLine
 62
7
  6
CONTINUOUS
 10
-94.3900783246
 20
41.5556996983
 11
-94.612550081
 21
42.4081962679
  0
LINE
  5
645
100
AcDbEntity
  8
RACCORDO
100
AcDbLine
 62
7
  6
CONTINUOUS
 10
-94.6125487697
 20
42.4081912429
 11
-94.6100275764
 21
42.3981749317
  0
LWPOLYLINE
  5
646
100
AcDbEntity
  8
RACCORDO
100
AcDbPolyline
 62
253
  6
CONTINUOUS
 90
5
 70
0
 10
-94.6100275764
 20
42.3981749317
 10
-94.6088288356
 20
42.393153256
 10
-94.6043794101
 20
42.3729119149
 10
-94.6003002504
 20
42.3518595763
 10
-94.5965639896
 20
42.330120849
  0
LWPOLYLINE
  5
647
100
AcDbEntity
  8
0
100
AcDbPolyline
 62
7
  6
CONTINUOUS
 90
18
 70
0
 10
-94.3900729648
 20
41.5557010971
 10
-94.3834216567
 20
41.5275173989
 10
-94.3779800839
 20
41.4998992054
 10
-94.3731260876
 20
41.4709544261
 10
-94.3688079403
 20
41.4409571811
 10
-94.3649557997
 20
41.4100589733
 10
-94.3615202437
 20
41.3784592553
 10
-94.3584702587
 20
41.3463463149
 10
-94.3557677531
 20
41.3137828278
 10
-94.3533830327
 20
41.2809421393
 10
-94.351282468
 20
41.2479441285
 10
-94.3494322913
 20
41.2147213219
 10
-94.3478149415
 20
41.1813826527
 10
-94.3464094701
 20
41.1480194314
 10
-94.3451887952
 20
41.1144923687
 10
-94.3441426661
 20
41.0808896509
 10
-94.3432612354
 20
41.0472608375
 10
-94.3425245535
 20
41.0133602425
  0
LINE
  5
648
100
AcDbEntity
  8
RACCORDO
100
AcDbLine
 62
7
  6
CONTINUOUS
 10
-94.6210901531
 20
-43.1762611329
 11
-94.6100741773
 21
-43.1365894133
  0
LINE
  5
649
100
AcDbEntity
  8
RACCORDO
100
AcDbLine
 62
7
  6
CONTINUOUS
 10
-94.8738903835
 20
-43.8223258518
 11
-94.8758602748
 21
-43.8292631825
  0
LINE
  5
64A
100
AcDbEntity
  8
RACCORDO
100
AcDbLine
 62
253
  6
CONTINUOUS
 10
-95.2920302144
 20
-44.9045203043
 11
-95.3310252714
 21
-45.0334026112
  0
LINE
  5
64B
100
AcDbEntity
  8
DRAFT
100
AcDbLine
 62
7
  6
CONTINUOUS
 10
-95.1373266831
 20
-44.2664163452
 11
-95.4717212808
 21
-45.3690562882
  0
LINE
  5
64C
100
AcDbEntity
  8
RACCORDO
100
AcDbLine
 62
7
  6
CONTINUOUS
 10
-95.2136026175
 20
-44.9299289707
 11
-95.009414475
 21
-44.2612342423
  0
LINE
  5
64D
100
AcDbEntity
  8
RACCORDO
100
AcDbLine
 62
253
  6
CONTINUOUS
 10
-95.0820129839
 20
-44.2168102303
 11
-95.2920302144
 21
-44.9045203043
  0
LINE
  5
64E
100
AcDbEntity
  8
RACCORDO
100
AcDbLine
 62
253
  6
CONTINUOUS
 10
-94.9942517105
 20
-43.9325750816
 11
-95.0820129839
 21
-44.2168102303
  0
LINE
  5
64F
100
AcDbEntity
  8
RACCORDO
100
AcDbLine
 62
7
  6
CONTINUOUS
 10
-94.8738903712
 20
-43.8223258136
 11
-95.009414475
 21
-44.2612342423
  0
LWPOLYLINE
  5
650
100
AcDbEntity
  8
DRAFT
100
AcDbPolyline
 62
7
  6
CONTINUOUS
 90
4
 70
0
 10
-94.8827212372
 20
-43.6091116608
 10
-94.8997893009
 20
-43.6632152849
 10
-94.9166077142
 20
-43.7145280734
 10
-94.9331785767
 20
-43.7630505892
  0
LINE
  5
651
100
AcDbEntity
  8
RACCORDO
100
AcDbLine
 62
7
  6
CONTINUOUS
 10
-94.63578778
 20
-43.2226057926
 11
-94.6210798186
 21
-43.1762239154
  0
LWPOLYLINE
  5
652
100
AcDbEntity
  8
RACCORDO
100
AcDbPolyline
 62
253
  6
CONTINUOUS
 90
6
 70
0
 10
-94.7394171059
 20
-43.2781092791
 10
-94.7565136105
 20
-43.3319853106
 10
-94.7733581048
 20
-43.383087411
 10
-94.7899522068
 20
-43.431413875
 10
-94.8062977609
 20
-43.4769637849
 10
-94.8223958917
 20
-43.5197348958
  0
LWPOLYLINE
  5
653
100
AcDbEntity
  8
RACCORDO
100
AcDbPolyline
 62
7
  6
CONTINUOUS
 90
3
 70
0
 10
-94.8758602757
 20
-43.8292631872
 10
-94.8684596035
 20
-43.8061777233
 10
-94.8592798921
 20
-43.7793649258
  0
LINE
  5
654
100
AcDbEntity
  8
RACCORDO
100
AcDbLine
 62
7
  6
CONTINUOUS
 10
-94.6532863742
 20
-43.2758981797
 11
-94.63578778
 21
-43.2226057926
  0
LWPOLYLINE
  5
655
100
AcDbEntity
  8
RACCORDO
100
AcDbPolyline
 62
253
  6
CONTINUOUS
 90
5
 70
0
 10
-94.8758792952
 20
-43.8293244541
 10
-94.878146755
 20
-43.8360549404
 10
-94.8837012684
 20
-43.8493122787
 10
-94.8905027741
 20
-43.8619757819
 10
-94.8984886401
 20
-43.8739288326
  0
LWPOLYLINE
  5
656
100
AcDbEntity
  8
RACCORDO
100
AcDbPolyline
 62
253
  6
CONTINUOUS
 90
3
 70
0
 10
-94.6210901327
 20
-43.1762611394
 10
-94.623192117
 20
-43.1824011328
 10
-94.628766706
 20
-43.1955875604
  0
LWPOLYLINE
  5
657
100
AcDbEntity
  8
DRAFT
100
AcDbPolyline
 62
7
  6
CONTINUOUS
 90
7
 70
0
 10
-94.9331785767
 20
-43.7630505892
 10
-94.9495041276
 20
-43.8087850398
 10
-94.9655857751
 20
-43.8517302562
 10
-94.9814242942
 20
-43.8918816938
 10
-94.9970210293
 20
-43.9292381258
 10
-95.0123776946
 20
-43.9638016422
 10
-95.0274955425
 20
-43.9955726293
  0
LWPOLYLINE
  5
658
100
AcDbEntity
  8
RACCORDO
100
AcDbPolyline
 62
7
  6
CONTINUOUS
 90
3
 70
0
 10
-94.6882690656
 20
-43.3759729656
 10
-94.6707863723
 20
-43.3270690463
 10
-94.6532863742
 20
-43.2758981797
  0
LWPOLYLINE
  5
659
100
AcDbEntity
  8
RACCORDO
100
AcDbPolyline
 62
253
  6
CONTINUOUS
 90
13
 70
0
 10
-91.1157345533
 20
-28.8589896719
 10
-91.1172940811
 20
-28.8633203638
 10
-91.1219564505
 20
-28.8676060302
 10
-91.1296731875
 20
-28.8718021135
 10
-91.1403640624
 20
-28.8758649878
 10
-91.1539179238
 20
-28.8797524119
 10
-91.1701938541
 20
-28.8834239688
 10
-91.1890226348
 20
-28.886841486
 10
-91.210208506
 20
-28.889969432
 10
-91.2335312012
 20
-28.8927752859
 10
-91.2587482378
 20
-28.8952298758
 10
-91.285597438
 20
-28.8973076816
 10
-91.3137996546
 20
-28.8989871007
  0
LWPOLYLINE
  5
65A
100
AcDbEntity
  8
RACCORDO
100
AcDbPolyline
 62
253
  6
CONTINUOUS
 90
6
 70
0
 10
-91.1157345533
 20
-28.8114572551
 10
-91.1172936861
 20
-28.8157561344
 10
-91.1219548799
 20
-28.8200103303
 10
-91.1296696852
 20
-28.8241756236
 10
-91.1403579126
 20
-28.8282087194
 10
-91.1539084662
 20
-28.8320676967
  0
LINE
  5
65B
100
AcDbEntity
  8
RACCORDO
100
AcDbLine
 62
7
  6
CONTINUOUS
 10
-94.8592798921
 20
-43.7793649258
 11
-94.849309563
 21
-43.7520488079
  0
LWPOLYLINE
  5
65C
100
AcDbEntity
  8
RACCORDO
100
AcDbPolyline
 62
253
  6
CONTINUOUS
 90
13
 70
0
 10
-91.1157345533
 20
23.5005561959
 10
-91.117258111
 20
23.5030315826
 10
-91.1218133061
 20
23.5054818806
 10
-91.1293538712
 20
23.5078822147
 10
-91.1398032166
 20
23.5102082316
 10
-91.1530552076
 20
23.5124363057
 10
-91.1689752434
 20
23.5145437789
 10
-91.1874016234
 20
23.5165092595
 10
-91.2081471901
 20
23.5183127982
 10
-91.23100123
 20
23.5199360489
 10
-91.2557316136
 20
23.5213625241
 10
-91.2820871534
 20
23.5225777618
 10
-91.3098001552
 20
23.5235694314
  0
LWPOLYLINE
  5
65D
100
AcDbEntity
  8
RACCORDO
100
AcDbPolyline
 62
253
  6
CONTINUOUS
 90
6
 70
0
 10
-94.8223958915
 20
42.7815115817
 10
-94.8062977604
 20
42.7387404701
 10
-94.7899522068
 20
42.6931905616
 10
-94.7733581063
 20
42.6448641021
 10
-94.7565136144
 20
42.5937620092
 10
-94.739417113
 20
42.5398859883
  0
LWPOLYLINE
  5
65E
100
AcDbEntity
  8
RACCORDO
100
AcDbPolyline
 62
7
  6
CONTINUOUS
 90
6
 70
0
 10
-94.6884701686
 20
42.6382989358
 10
-94.7059605767
 20
42.6848853947
 10
-94.7235431877
 20
42.7292886312
 10
-94.7412641518
 20
42.7714790863
 10
-94.7591222348
 20
42.8112984193
 10
-94.7746929194
 20
42.8437385876
  0
LWPOLYLINE
  5
65F
100
AcDbEntity
  8
RACCORDO
100
AcDbPolyline
 62
7
  6
CONTINUOUS
 90
3
 70
0
 10
-94.8494248907
 20
43.0141322449
 10
-94.8593863801
 20
43.0414427514
 10
-94.8685573284
 20
43.0682499356
  0
LWPOLYLINE
  5
660
100
AcDbEntity
  8
RACCORDO
100
AcDbPolyline
 62
253
  6
CONTINUOUS
 90
6
 70
0
 10
-91.1157345533
 20
28.0732339417
 10
-91.1172936879
 20
28.0775328209
 10
-91.1219548832
 20
28.0817870166
 10
-91.1296696898
 20
28.0859523097
 10
-91.1403579182
 20
28.0899854053
 10
-91.1539084727
 20
28.0938443824
  0
LWPOLYLINE
  5
661
100
AcDbEntity
  8
RACCORDO
100
AcDbPolyline
 62
253
  6
CONTINUOUS
 90
13
 70
0
 10
-91.1157345533
 20
28.1207663585
 10
-91.1172940812
 20
28.1250970504
 10
-91.1219564507
 20
28.1293827167
 10
-91.1296731878
 20
28.1335788
 10
-91.1403640628
 20
28.1376416742
 10
-91.1539179242
 20
28.1415290983
 10
-91.1701938546
 20
28.1452006552
 10
-91.1890226353
 20
28.1486181723
 10
-91.2102085065
 20
28.1517461183
 10
-91.2335312017
 20
28.1545519722
 10
-91.2587482383
 20
28.1570065621
 10
-91.2855974385
 20
28.159084368
 10
-91.313799655
 20
28.1607637871
  0
LWPOLYLINE
  5
662
100
AcDbEntity
  8
RACCORDO
100
AcDbPolyline
 62
253
  6
CONTINUOUS
 90
3
 70
0
 10
-94.6211114862
 20
42.4381048267
 10
-94.6231921383
 20
42.4441778105
 10
-94.6287667263
 20
42.4573642355
  0
LWPOLYLINE
  5
663
100
AcDbEntity
  8
RACCORDO
100
AcDbPolyline
 62
7
  6
CONTINUOUS
 90
3
 70
0
 10
-94.6534920646
 20
42.5382888425
 10
-94.6709895001
 20
42.58942684
 10
-94.6884701686
 20
42.6382989358
  0
LWPOLYLINE
  5
664
100
AcDbEntity
  8
DRAFT
100
AcDbPolyline
 62
7
  6
CONTINUOUS
 90
4
 70
0
 10
-94.9331786108
 20
43.0248273737
 10
-94.9166077418
 20
42.9763048383
 10
-94.8997893173
 20
42.9249920172
 10
-94.8827212373
 20
42.8708883478
  0
LWPOLYLINE
  5
665
100
AcDbEntity
  8
RACCORDO
100
AcDbPolyline
 62
253
  6
CONTINUOUS
 90
5
 70
0
 10
-94.8758792759
 20
43.0911010802
 10
-94.8781467305
 20
43.0978315487
 10
-94.8837012424
 20
43.1110888805
 10
-94.890502747
 20
43.1237523785
 10
-94.8984886125
 20
43.1357054256
  0
LINE
  5
666
100
AcDbEntity
  8
RACCORDO
100
AcDbLine
 62
7
  6
CONTINUOUS
 10
-94.6359966352
 20
42.4850307277
 11
-94.6534920646
 21
42.5382888425
  0
LINE
  5
667
100
AcDbEntity
  8
RACCORDO
100
AcDbLine
 62
7
  6
CONTINUOUS
 10
-94.8685573284
 20
43.0682499356
 11
-94.8758602123
 21
43.0910396692
  0
LWPOLYLINE
  5
668
100
AcDbEntity
  8
DRAFT
100
AcDbPolyline
 62
7
  6
CONTINUOUS
 90
10
 70
0
 10
-95.1373266831
 20
43.5281930318
 10
-95.128203612
 20
43.4995531552
 10
-95.1183102822
 20
43.4705497394
 10
-95.1076467755
 20
43.4411827429
 10
-95.0962132047
 20
43.4114518968
 10
-95.0840096137
 20
43.3813573857
 10
-95.0710359831
 20
43.3508998473
 10
-95.0572923605
 20
43.3200794655
 10
-95.0427788552
 20
43.2888959697
 10
-95.0274955425
 20
43.2573493159
  0
LINE
  5
669
100
AcDbEntity
  8
RACCORDO
100
AcDbLine
 62
7
  6
CONTINUOUS
 10
-94.6208516329
 20
42.4372810308
 11
-94.6359966352
 21
42.4850307277
  0
LINE
  5
66A
100
AcDbEntity
  8
RACCORDO
100
AcDbLine
 62
7
  6
CONTINUOUS
 10
-94.8738903712
 20
43.0841025002
 11
-95.10976004
 21
43.8503590397
  0
LINE
  5
66B
100
AcDbEntity
  8
RACCORDO
100
AcDbLine
 62
253
  6
CONTINUOUS
 10
-95.2190054465
 20
43.9259520014
 11
-94.9942517105
 21
43.1943517682
  0
LINE
  5
66C
100
AcDbEntity
  8
RACCORDO
100
AcDbLine
 62
7
  6
CONTINUOUS
 10
-95.10976004
 20
43.8503590397
 11
-95.2136026175
 21
44.1917056573
  0
LINE
  5
66D
100
AcDbEntity
  8
RACCORDO
100
AcDbLine
 62
253
  6
CONTINUOUS
 10
-95.3312430845
 20
44.2959011119
 11
-95.2190054465
 21
43.9259520014
  0
LINE
  5
66E
100
AcDbEntity
  8
DRAFT
100
AcDbLine
 62
7
  6
CONTINUOUS
 10
-95.4717212803
 20
44.6308329772
 11
-95.1373266831
 21
43.5281930318
  0
LWPOLYLINE
  5
66F
100
AcDbEntity
  8
RACCORDO
100
AcDbPolyline
 62
253
  6
CONTINUOUS
 90
19
 70
0
 10
-94.7394171131
 20
42.5398859883
 10
-94.7341488387
 20
42.5216721114
 10
-94.7292944966
 20
42.5022984449
 10
-94.7248306064
 20
42.4819267564
 10
-94.7207393508
 20
42.4607391784
 10
-94.7169933372
 20
42.4388650746
 10
-94.7135580104
 20
42.4163644088
 10
-94.710415248
 20
42.3933623501
 10
-94.7075469025
 20
42.3699836566
 10
-94.704923285
 20
42.3462538813
 10
-94.7025276224
 20
42.3222725044
 10
-94.700347327
 20
42.2981423853
 10
-94.6983630202
 20
42.2738664166
 10
-94.6965622922
 20
42.2495229564
 10
-94.6949334524
 20
42.2252009977
 10
-94.6934612704
 20
42.200898518
 10
-94.6921362812
 20
42.176684156
 10
-94.6909481654
 20
42.1526264216
 10
-94.6898829264
 20
42.1287056423
  0
LINE
  5
670
100
AcDbEntity
  8
RACCORDO
100
AcDbLine
 62
7
  6
CONTINUOUS
 10
-94.8738903609
 20
43.0841024682
 11
-94.8758602123
 21
43.0910396692
  0
LWPOLYLINE
  5
671
100
AcDbEntity
  8
RACCORDO
100
AcDbPolyline
 62
7
  6
CONTINUOUS
 90
3
 70
0
 10
-94.849309563
 20
-43.7520488079
 10
-94.8385407953
 20
-43.7242268598
 10
-94.826969476
 20
-43.6959055075
  0
LWPOLYLINE
  5
672
100
AcDbEntity
  8
RACCORDO
100
AcDbPolyline
 62
253
  6
CONTINUOUS
 90
4
 70
0
 10
-94.8223958917
 20
-43.5197348958
 10
-94.8382471769
 20
-43.5597239259
 10
-94.8538526935
 20
-43.5969293392
 10
-94.8692137877
 20
-43.6313509035
  0
LWPOLYLINE
  5
673
100
AcDbEntity
  8
RACCORDO
100
AcDbPolyline
 62
7
  6
CONTINUOUS
 90
4
 70
0
 10
-94.826969476
 20
-43.6959055075
 10
-94.8145959301
 20
-43.6670997549
 10
-94.8014177412
 20
-43.637815816
 10
-94.7874289487
 20
-43.6080514319
  0
LWPOLYLINE
  5
674
100
AcDbEntity
  8
DRAFT
100
AcDbPolyline
 62
7
  6
CONTINUOUS
 90
9
 70
0
 10
-95.0427788539
 20
-44.0271192806
 10
-95.0572923589
 20
-44.0583027757
 10
-95.0710359822
 20
-44.0891231586
 10
-95.0840096148
 20
-44.1195807014
 10
-95.0962132082
 20
-44.1496752189
 10
-95.10764678
 20
-44.1794060683
 10
-95.1183102859
 20
-44.2087730637
 10
-95.1282036141
 20
-44.2377764755
 10
-95.1373266831
 20
-44.2664163452
  0
LWPOLYLINE
  5
675
100
AcDbEntity
  8
RACCORDO
100
AcDbPolyline
 62
253
  6
CONTINUOUS
 90
10
 70
0
 10
-97.0765953143
 20
-43.8165904748
 10
-97.0614733342
 20
-43.7848290058
 10
-97.0461081414
 20
-43.7502824082
 10
-97.0304989777
 20
-43.7129547942
 10
-97.014645223
 20
-43.6728509618
 10
-96.9985456156
 20
-43.6299744603
 10
-96.982198405
 20
-43.5843271143
 10
-96.965602173
 20
-43.5359118947
 10
-96.9487557423
 20
-43.4847335437
 10
-96.9316576925
 20
-43.4307961293
  0
LWPOLYLINE
  5
676
100
AcDbEntity
  8
RACCORDO
100
AcDbPolyline
 62
253
  6
CONTINUOUS
 90
10
 70
0
 10
-97.3453989571
 20
-43.5719312205
 10
-97.3302743872
 20
-43.5401864197
 10
-97.3149064642
 20
-43.505667309
 10
-97.29929478
 20
-43.4683735235
 10
-97.2834392246
 20
-43.4283009441
 10
-97.2673385748
 20
-43.3854528749
 10
-97.2509905726
 20
-43.3398400459
 10
-97.2343937717
 20
-43.2914657085
 10
-97.217547459
 20
-43.2403256345
 10
-97.2004502986
 20
-43.1864192946
  0
LINE
  5
677
100
AcDbEntity
  8
RACCORDO
100
AcDbLine
 62
253
  6
CONTINUOUS
 10
-94.8692137877
 20
-43.6313509035
 11
-94.8843314784
 21
-43.6629877082
  0
LWPOLYLINE
  5
678
100
AcDbEntity
  8
RACCORDO
100
AcDbPolyline
 62
253
  6
CONTINUOUS
 90
6
 70
0
 10
-91.1157345533
 20
-25.0746531077
 10
-91.1172642797
 20
-25.0771836146
 10
-91.1218378577
 20
-25.0796883149
 10
-91.1294086453
 20
-25.0821416654
 10
-91.1398994341
 20
-25.0845186462
 10
-91.1532032374
 20
-25.0867950165
  0
LWPOLYLINE
  5
679
100
AcDbEntity
  8
RACCORDO
100
AcDbPolyline
 62
253
  6
CONTINUOUS
 90
6
 70
0
 10
-91.1157345533
 20
-25.0448779607
 10
-91.1172640519
 20
-25.0474048229
 10
-91.1218369519
 20
-25.0499059194
 10
-91.129406625
 20
-25.0523557472
 10
-91.1398958858
 20
-25.0547293262
 10
-91.153197779
 20
-25.0570024537
  0
LWPOLYLINE
  5
67A
100
AcDbEntity
  8
RACCORDO
100
AcDbPolyline
 62
253
  6
CONTINUOUS
 90
13
 70
0
 10
-91.1157345533
 20
-24.2387795093
 10
-91.1172580983
 20
-24.2412591287
 10
-91.1218132585
 20
-24.2437135493
 10
-91.1293537671
 20
-24.2461178283
 10
-91.1398030356
 20
-24.2484475323
 10
-91.153054931
 20
-24.2506789853
 10
-91.1689748543
 20
-24.2527895091
 10
-91.1874011074
 20
-24.254757654
 10
-91.2081465354
 20
-24.2565634164
 10
-91.2310004279
 20
-24.2581884419
 10
-91.2557306585
 20
-24.2596162118
 10
-91.2820860432
 20
-24.2608322112
 10
-91.3097988912
 20
-24.2618240758
  0
LINE
  5
67B
100
AcDbEntity
  8
RACCORDO
100
AcDbLine
 62
253
  6
CONTINUOUS
 10
-97.9963432852
 20
23.8840624236
 11
-96.0174546849
 21
23.9008699021
  0
LINE
  5
67C
100
AcDbEntity
  8
0
100
AcDbLine
 62
253
  6
CONTINUOUS
 10
-100.2158535218
 20
24.0081513155
 11
-99.6660586294
 21
24.0081513155
  0
LINE
  5
67D
100
AcDbEntity
  8
RACCORDO
100
AcDbLine
 62
253
  6
CONTINUOUS
 10
-99.6660586294
 20
24.0081513155
 11
-98.263089787
 21
24.0081512962
  0
LINE
  5
67E
100
AcDbEntity
  8
RACCORDO
100
AcDbLine
 62
253
  6
CONTINUOUS
 10
-96.0175130391
 20
23.8996295549
 11
-95.8419066085
 21
23.891367852
  0
LINE
  5
67F
100
AcDbEntity
  8
RACCORDO
100
AcDbLine
 62
253
  6
CONTINUOUS
 10
-95.3905603517
 20
23.7769311906
 11
-94.6950922017
 21
23.7416437384
  0
LINE
  5
680
100
AcDbEntity
  8
RACCORDO
100
AcDbLine
 62
253
  6
CONTINUOUS
 10
-94.6950922017
 20
23.7416437384
 11
-94.0038761821
 21
23.7034710363
  0
LINE
  5
681
100
AcDbEntity
  8
RACCORDO
100
AcDbLine
 62
253
  6
CONTINUOUS
 10
-94.0038761821
 20
23.7034710363
 11
-93.3183339563
 21
23.6624915644
  0
LINE
  5
682
100
AcDbEntity
  8
RACCORDO
100
AcDbLine
 62
253
  6
CONTINUOUS
 10
-93.3183339563
 20
23.6624915644
 11
-92.6398789052
 21
23.6187898207
  0
LINE
  5
683
100
AcDbEntity
  8
RACCORDO
100
AcDbLine
 62
253
  6
CONTINUOUS
 10
-92.6398789052
 20
23.6187898207
 11
-91.9699081136
 21
23.5724558638
  0
LINE
  5
684
100
AcDbEntity
  8
RACCORDO
100
AcDbLine
 62
253
  6
CONTINUOUS
 10
-91.9699081136
 20
23.5724558638
 11
-91.3097988617
 21
23.5235850429
  0
LWPOLYLINE
  5
685
100
AcDbEntity
  8
RACCORDO
100
AcDbPolyline
 62
253
  6
CONTINUOUS
 90
6
 70
0
 10
-91.1157345533
 20
24.3066546473
 10
-91.117264052
 20
24.3091814687
 10
-91.1218369524
 20
24.311682525
 10
-91.1294066261
 20
24.3141323141
 10
-91.1398958878
 20
24.3165058564
 10
-91.153197782
 20
24.3187789498
  0
LWPOLYLINE
  5
686
100
AcDbEntity
  8
RACCORDO
100
AcDbPolyline
 62
253
  6
CONTINUOUS
 90
6
 70
0
 10
-91.1157345533
 20
24.3364297943
 10
-91.1172642793
 20
24.3389603012
 10
-91.1218378571
 20
24.3414650015
 10
-91.1294086444
 20
24.3439183519
 10
-91.139899433
 20
24.3462953328
 10
-91.1532032361
 20
24.3485717031
  0
LINE
  5
687
100
AcDbEntity
  8
RACCORDO
100
AcDbLine
 62
7
  6
CONTINUOUS
 10
-94.7746738101
 20
42.8437001122
 11
-94.7875895818
 21
42.8701629968
  0
LWPOLYLINE
  5
688
100
AcDbEntity
  8
RACCORDO
100
AcDbPolyline
 62
253
  6
CONTINUOUS
 90
10
 70
0
 10
-97.0765953159
 20
43.0783671638
 10
-97.0917084432
 20
43.1094646075
 10
-97.1060759702
 20
43.1402091589
 10
-97.1196978946
 20
43.1706007178
 10
-97.1325742233
 20
43.2006392028
 10
-97.144704888
 20
43.2303243864
 10
-97.1560897812
 20
43.2596559531
 10
-97.1667288411
 20
43.2886336754
 10
-97.1766220631
 20
43.3172574739
 10
-97.1857694336
 20
43.3455272602
  0
LWPOLYLINE
  5
689
100
AcDbEntity
  8
RACCORDO
100
AcDbPolyline
 62
253
  6
CONTINUOUS
 90
10
 70
0
 10
-97.3453989571
 20
42.8337079071
 10
-97.360515258
 20
42.8648579316
 10
-97.3748856106
 20
42.8956541487
 10
-97.3885099417
 20
42.9260965989
 10
-97.4013881606
 20
42.9561855674
 10
-97.4135202039
 20
42.9859208485
 10
-97.4249060491
 20
43.0153017453
 10
-97.4355456484
 20
43.0443280514
 10
-97.4454389147
 20
43.0730000508
 10
-97.4545857766
 20
43.1013177813
  0
LINE
  5
68A
100
AcDbEntity
  8
RACCORDO
100
AcDbLine
 62
253
  6
CONTINUOUS
 10
-94.8843314784
 20
42.9247643948
 11
-94.8692137877
 21
42.89312759
  0
LWPOLYLINE
  5
68B
100
AcDbEntity
  8
DRAFT
100
AcDbPolyline
 62
7
  6
CONTINUOUS
 90
7
 70
0
 10
-95.0274955425
 20
43.2573493159
 10
-95.0123777078
 20
43.2255783621
 10
-94.9970210534
 20
43.1910148721
 10
-94.9814243264
 20
43.1536584598
 10
-94.9655858116
 20
43.1135070371
 10
-94.9495041647
 20
43.0705618289
 10
-94.9331786108
 20
43.0248273737
  0
LWPOLYLINE
  5
68C
100
AcDbEntity
  8
RACCORDO
100
AcDbPolyline
 62
7
  6
CONTINUOUS
 90
4
 70
0
 10
-94.7875895818
 20
42.8701629968
 10
-94.8015691671
 20
42.8999217316
 10
-94.8147382227
 20
42.929200036
 10
-94.8271027077
 20
42.9580001672
  0
LWPOLYLINE
  5
68D
100
AcDbEntity
  8
RACCORDO
100
AcDbPolyline
 62
253
  6
CONTINUOUS
 90
4
 70
0
 10
-94.9278569129
 20
43.0178683818
 10
-94.9141133367
 20
42.9871934506
 10
-94.8996048526
 20
42.9561587551
 10
-94.8843314784
 20
42.9247643948
  0
LWPOLYLINE
  5
68E
100
AcDbEntity
  8
RACCORDO
100
AcDbPolyline
 62
253
  6
CONTINUOUS
 90
3
 70
0
 10
-94.8692137877
 20
42.89312759
 10
-94.8538526935
 20
42.8587060257
 10
-94.8382471769
 20
42.8215006125
  0
LINE
  5
68F
100
AcDbEntity
  8
RACCORDO
100
AcDbLine
 62
7
  6
CONTINUOUS
 10
-94.8271027077
 20
42.9580001672
 11
-94.8386650381
 21
42.9863159068
  0
LINE
  5
690
100
AcDbEntity
  8
RACCORDO
100
AcDbLine
 62
253
  6
CONTINUOUS
 10
-94.8382471769
 20
42.8215006125
 11
-94.8223958915
 21
42.7815115817
  0
LINE
  5
691
100
AcDbEntity
  8
RACCORDO
100
AcDbLine
 62
7
  6
CONTINUOUS
 10
-94.8386650381
 20
42.9863159068
 11
-94.8494248907
 21
43.0141322449
  0
LWPOLYLINE
  5
692
100
AcDbEntity
  8
RACCORDO
100
AcDbPolyline
 62
253
  6
CONTINUOUS
 90
10
 70
0
 10
-91.129696965
 20
40.6357851536
 10
-91.1404058186
 20
40.6643545702
 10
-91.1539821418
 20
40.6916880499
 10
-91.1702845413
 20
40.7175009224
 10
-91.1891432321
 20
40.7415243541
 10
-91.2103618065
 20
40.7635081477
 10
-91.233719279
 20
40.7832233485
 10
-91.2589723884
 20
40.8004646281
 10
-91.2858581306
 20
40.8150524238
 10
-91.3140964986
 20
40.8268348077
  0
LWPOLYLINE
  5
693
100
AcDbEntity
  8
RACCORDO
100
AcDbPolyline
 62
7
  6
CONTINUOUS
 90
6
 70
0
 10
-94.7746913435
 20
-43.5819587291
 10
-94.7589206806
 20
-43.5490877603
 10
-94.7410643122
 20
-43.5092413095
 10
-94.7233439604
 20
-43.4670228165
 10
-94.7057608706
 20
-43.4225901984
 10
-94.6882690656
 20
-43.3759729656
  0
LINE
  5
694
100
AcDbEntity
  8
DRAFT
100
AcDbLine
 62
7
  6
CONTINUOUS
 10
-95.0274955425
 20
-43.9955726293
 11
-95.0427788539
 21
-44.0271192806
  0
LWPOLYLINE
  5
695
100
AcDbEntity
  8
RACCORDO
100
AcDbPolyline
 62
253
  6
CONTINUOUS
 90
4
 70
0
 10
-94.8843314784
 20
-43.6629877082
 10
-94.8996048527
 20
-43.6943820685
 10
-94.9141133367
 20
-43.725416764
 10
-94.9278569129
 20
-43.7560916953
  0
LINE
  5
696
100
AcDbEntity
  8
RACCORDO
100
AcDbLine
 62
7
  6
CONTINUOUS
 10
-94.7874289487
 20
-43.6080514319
 11
-94.7746738688
 21
-43.5819235438
  0
LINE
  5
697
100
AcDbEntity
  8
RACCORDO
100
AcDbLine
 62
7
  6
CONTINUOUS
 10
-94.7746738688
 20
-43.5819235438
 11
-94.7746913438
 21
-43.581958729
  0
LWPOLYLINE
  5
698
100
AcDbEntity
  8
RACCORDO
100
AcDbPolyline
 62
253
  6
CONTINUOUS
 90
11
 70
0
 10
-94.628766706
 20
-43.1955875604
 10
-94.6355868563
 20
-43.2081774345
 10
-94.6435897683
 20
-43.2200548287
 10
-94.6527017513
 20
-43.2311103773
 10
-94.6628389023
 20
-43.241242282
 10
-94.6739078787
 20
-43.2503572495
 10
-94.6858067573
 20
-43.2583713505
 10
-94.6984259734
 20
-43.2652107927
 10
-94.7116493293
 20
-43.2708125999
 10
-94.7253550642
 20
-43.2751251922
 10
-94.7394169758
 20
-43.2781088606
  0
LWPOLYLINE
  5
699
100
AcDbEntity
  8
RACCORDO
100
AcDbPolyline
 62
253
  6
CONTINUOUS
 90
3
 70
0
 10
-94.7746913438
 20
-43.581958729
 10
-94.7805241007
 20
-43.5925927504
 10
-94.7885220494
 20
-43.6045285147
  0
LINE
  5
69A
100
AcDbEntity
  8
RACCORDO
100
AcDbLine
 62
253
  6
CONTINUOUS
 10
-95.675662876
 20
-25.447197767
 11
-95.3551868996
 21
-25.343288238
  0
LINE
  5
69B
100
AcDbEntity
  8
RACCORDO
100
AcDbLine
 62
253
  6
CONTINUOUS
 10
-95.7116885632
 20
-24.6142342535
 11
-95.3905604359
 21
-24.515154231
  0
LWPOLYLINE
  5
69C
100
AcDbEntity
  8
RACCORDO
100
AcDbPolyline
 62
253
  6
CONTINUOUS
 90
13
 70
0
 10
-95.6756628758
 20
-25.4471977687
 10
-95.681196891
 20
-25.4487877722
 10
-95.6879773687
 20
-25.4503750076
 10
-95.6959418766
 20
-25.45194487
 10
-95.7050170802
 20
-25.453482914
 10
-95.715119418
 20
-25.4549749875
 10
-95.7261558713
 20
-25.4564073615
 10
-95.7380248204
 20
-25.4577668566
 10
-95.7506169801
 20
-25.4590409647
 10
-95.7638164064
 20
-25.4602179638
 10
-95.7775015637
 20
-25.4612870258
 10
-95.791546444
 20
-25.4622383168
 10
-95.8058217272
 20
-25.463063087
  0
LINE
  5
69D
100
AcDbEntity
  8
RACCORDO
100
AcDbLine
 62
253
  6
CONTINUOUS
 10
-95.979971998
 20
24.7656803279
 11
-97.9596804086
 21
24.7475655395
  0
LINE
  5
69E
100
AcDbEntity
  8
RACCORDO
100
AcDbLine
 62
253
  6
CONTINUOUS
 10
-95.9816404863
 20
24.7341381765
 11
-95.8058218145
 21
24.7248378787
  0
LINE
  5
69F
100
AcDbEntity
  8
RACCORDO
100
AcDbLine
 62
253
  6
CONTINUOUS
 10
-95.3551868996
 20
24.6050649246
 11
-94.6660606402
 21
24.5662338261
  0
LINE
  5
6A0
100
AcDbEntity
  8
RACCORDO
100
AcDbLine
 62
253
  6
CONTINUOUS
 10
-95.3538248125
 20
24.6349794095
 11
-94.6649433931
 21
24.5961346395
  0
LINE
  5
6A1
100
AcDbEntity
  8
RACCORDO
100
AcDbLine
 62
253
  6
CONTINUOUS
 10
-94.6660606402
 20
24.5662338261
 11
-93.9811021369
 21
24.5244870812
  0
LINE
  5
6A2
100
AcDbEntity
  8
RACCORDO
100
AcDbLine
 62
253
  6
CONTINUOUS
 10
-94.6649433931
 20
24.5961346395
 11
-93.9802264497
 21
24.5543726659
  0
LINE
  5
6A3
100
AcDbEntity
  8
RACCORDO
100
AcDbLine
 62
253
  6
CONTINUOUS
 10
-93.9811021369
 20
24.5244870812
 11
-93.3016951862
 21
24.4799089969
  0
LINE
  5
6A4
100
AcDbEntity
  8
RACCORDO
100
AcDbLine
 62
253
  6
CONTINUOUS
 10
-93.9802264497
 20
24.5543726659
 11
-93.3010563097
 21
24.5097777666
  0
LINE
  5
6A5
100
AcDbEntity
  8
RACCORDO
100
AcDbLine
 62
253
  6
CONTINUOUS
 10
-93.3016951862
 20
24.4799089969
 11
-92.629215434
 21
24.4325898417
  0
LINE
  5
6A6
100
AcDbEntity
  8
RACCORDO
100
AcDbLine
 62
253
  6
CONTINUOUS
 10
-93.3010563097
 20
24.5097777666
 11
-92.6288074106
 21
24.462440198
  0
LINE
  5
6A7
100
AcDbEntity
  8
RACCORDO
100
AcDbLine
 62
253
  6
CONTINUOUS
 10
-92.629215434
 20
24.4325898417
 11
-91.965024109
 21
24.3826254687
  0
LINE
  5
6A8
100
AcDbEntity
  8
RACCORDO
100
AcDbLine
 62
253
  6
CONTINUOUS
 10
-92.6288074106
 20
24.462440198
 11
-91.9648380617
 21
24.4124556706
  0
LINE
  5
6A9
100
AcDbEntity
  8
RACCORDO
100
AcDbLine
 62
253
  6
CONTINUOUS
 10
-91.965024109
 20
24.3826254687
 11
-91.3104626203
 21
24.3301168972
  0
LINE
  5
6AA
100
AcDbEntity
  8
RACCORDO
100
AcDbLine
 62
253
  6
CONTINUOUS
 10
-91.9648380617
 20
24.4124556706
 11
-91.3104879642
 21
24.3599251282
  0
LWPOLYLINE
  5
6AB
100
AcDbEntity
  8
RACCORDO
100
AcDbPolyline
 62
253
  6
CONTINUOUS
 90
8
 70
0
 10
-91.153197782
 20
24.3187789498
 10
-91.169176674
 20
24.3209284165
 10
-91.1876696324
 20
24.3229323392
 10
-91.2084880908
 20
24.3247702848
 10
-91.2314197705
 20
24.3264235124
 10
-91.256230845
 20
24.3278751649
 10
-91.2826683243
 20
24.3291104404
 10
-91.3104626345
 20
24.3301167432
  0
LWPOLYLINE
  5
6AC
100
AcDbEntity
  8
RACCORDO
100
AcDbPolyline
 62
253
  6
CONTINUOUS
 90
8
 70
0
 10
-91.1532032361
 20
24.3485717031
 10
-91.1691843792
 20
24.3507242481
 10
-91.1876798837
 20
24.3527310159
 10
-91.2085011294
 20
24.3545715409
 10
-91.2314357775
 20
24.3562270533
 10
-91.2562499366
 20
24.3576806697
 10
-91.2826905474
 20
24.3589175661
 10
-91.3104879642
 20
24.3599251282
  0
LWPOLYLINE
  5
6AD
100
AcDbEntity
  8
RACCORDO
100
AcDbPolyline
 62
253
  6
CONTINUOUS
 90
13
 70
0
 10
-95.7116886968
 20
23.876007127
 10
-95.7172289753
 20
23.8775667379
 10
-95.7240157082
 20
23.879118737
 10
-95.7319863887
 20
23.8806492624
 10
-95.7410676085
 20
23.8821446498
 10
-95.7511757341
 20
23.8835915586
 10
-95.7622176764
 20
23.8849770942
 10
-95.7740917483
 20
23.8862889272
 10
-95.7866886008
 20
23.8875154068
 10
-95.7998922297
 20
23.8886456681
 10
-95.8135810439
 20
23.8896697321
 10
-95.8276289848
 20
23.8905785973
 10
-95.8419066874
 20
23.8913643232
  0
LWPOLYLINE
  5
6AE
100
AcDbEntity
  8
RACCORDO
100
AcDbPolyline
 62
253
  6
CONTINUOUS
 90
13
 70
0
 10
-95.675662876
 20
24.7089744518
 10
-95.6811968911
 20
24.7105644568
 10
-95.6879773687
 20
24.7121516935
 10
-95.6959418765
 20
24.7137215569
 10
-95.7050170799
 20
24.7152596016
 10
-95.7151194177
 20
24.7167516756
 10
-95.726155871
 20
24.7181840498
 10
-95.7380248201
 20
24.719543545
 10
-95.7506169798
 20
24.720817653
 10
-95.7638164061
 20
24.7219946518
 10
-95.7775015635
 20
24.7230637134
 10
-95.7915464439
 20
24.7240150039
 10
-95.8058217271
 20
24.7248397737
  0
LINE
  5
6AF
100
AcDbEntity
  8
RACCORDO
100
AcDbLine
 62
253
  6
CONTINUOUS
 10
-95.7116885632
 20
23.8760109401
 11
-95.3905604359
 21
23.7769309176
  0
LINE
  5
6B0
100
AcDbEntity
  8
RACCORDO
100
AcDbLine
 62
253
  6
CONTINUOUS
 10
-95.675662876
 20
24.7089744536
 11
-95.3551868996
 21
24.6050649246
  0
LWPOLYLINE
  5
6B1
100
AcDbEntity
  8
RACCORDO
100
AcDbPolyline
 62
253
  6
CONTINUOUS
 90
3
 70
0
 10
-94.7746929194
 20
42.8437385876
 10
-94.7805241004
 20
42.854369437
 10
-94.7885220492
 20
42.8663052012
  0
LWPOLYLINE
  5
6B2
100
AcDbEntity
  8
RACCORDO
100
AcDbPolyline
 62
253
  6
CONTINUOUS
 90
11
 70
0
 10
-94.6287667263
 20
42.4573642355
 10
-94.6355868755
 20
42.4699541073
 10
-94.643589786
 20
42.4818314997
 10
-94.6527017674
 20
42.4928870469
 10
-94.6628389166
 20
42.5030189508
 10
-94.6739078911
 20
42.5121339179
 10
-94.6858067677
 20
42.5201480191
 10
-94.6984259817
 20
42.526987462
 10
-94.7116493355
 20
42.5325892703
 10
-94.7253550683
 20
42.5369018641
 10
-94.7394169779
 20
42.5398855346
  0
LINE
  5
6B3
100
AcDbEntity
  8
RACCORDO
100
AcDbLine
 62
7
  6
CONTINUOUS
 10
-94.7746738098
 20
42.8437001123
 11
-94.7746929194
 21
42.8437385876
  0
LWPOLYLINE
  5
6B4
100
AcDbEntity
  8
RACCORDO
100
AcDbPolyline
 62
253
  6
CONTINUOUS
 90
4
 70
0
 10
-91.1539821423
 20
-41.4299113627
 10
-91.1702845418
 20
-41.4557242351
 10
-91.1891432327
 20
-41.4797476666
 10
-91.210361807
 20
-41.5017314601
  0
LINE
  5
6B5
100
AcDbEntity
  8
RACCORDO
100
AcDbLine
 62
253
  6
CONTINUOUS
 10
-95.4481173801
 20
-29.4130682716
 11
-95.1347915988
 21
-29.2456614609
  0
LWPOLYLINE
  5
6B6
100
AcDbEntity
  8
RACCORDO
100
AcDbPolyline
 62
253
  6
CONTINUOUS
 90
13
 70
0
 10
-95.4481155304
 20
-29.4130953653
 10
-95.4535622837
 20
-29.4156654855
 10
-95.4602575021
 20
-29.4182223021
 10
-95.4681395368
 20
-29.4207422991
 10
-95.4771358115
 20
-29.4232022994
 10
-95.4871634903
 20
-29.4255796783
 10
-95.4981302406
 20
-29.4278525719
 10
-95.5099350831
 20
-29.4300000782
 10
-95.5224693218
 20
-29.4320024499
 10
-95.5356175446
 20
-29.4338412756
 10
-95.5492586862
 20
-29.4354996502
 10
-95.5632671427
 20
-29.4369623299
 10
-95.577513928
 20
-29.4382158728
  0
LINE
  5
6B7
100
AcDbEntity
  8
RACCORDO
100
AcDbLine
 62
253
  6
CONTINUOUS
 10
-95.7494498529
 20
28.7656803279
 11
-97.7356767155
 21
28.7358483233
  0
LINE
  5
6B8
100
AcDbEntity
  8
RACCORDO
100
AcDbLine
 62
253
  6
CONTINUOUS
 10
-95.7535724409
 20
28.7140500344
 11
-95.5775139478
 21
28.6999920739
  0
LWPOLYLINE
  5
6B9
100
AcDbEntity
  8
RACCORDO
100
AcDbPolyline
 62
253
  6
CONTINUOUS
 90
10
 70
0
 10
-95.13187104
 20
28.5507769607
 10
-94.6984790792
 20
28.5148571745
 10
-94.2665774623
 20
28.4770077611
 10
-93.8365113978
 20
28.4372589621
 10
-93.4086236528
 20
28.3956424205
 10
-92.9832572223
 20
28.3521914981
 10
-92.5607549942
 20
28.3069412893
 10
-92.1414555672
 20
28.259928116
 10
-91.7256930419
 20
28.2111894577
 10
-91.313799655
 20
28.1607642931
  0
LWPOLYLINE
  5
6BA
100
AcDbEntity
  8
RACCORDO
100
AcDbPolyline
 62
253
  6
CONTINUOUS
 90
10
 70
0
 10
-95.1347840239
 20
28.5074523251
 10
-94.70108598
 20
28.4704161924
 10
-94.2688677756
 20
28.4316456988
 10
-93.838475238
 20
28.3911753442
 10
-93.4102473343
 20
28.3491062364
 10
-92.984532094
 20
28.3054106613
 10
-92.5616865023
 20
28.259928691
 10
-92.1420545181
 20
28.212630523
 10
-91.725966636
 20
28.1636198057
 10
-91.3137559311
 20
28.1129358638
  0
LWPOLYLINE
  5
6BB
100
AcDbEntity
  8
RACCORDO
100
AcDbPolyline
 62
253
  6
CONTINUOUS
 90
8
 70
0
 10
-91.1539084727
 20
28.0938443824
 10
-91.1701805057
 20
28.09748913
 10
-91.189004882
 20
28.1008817637
 10
-91.2101859371
 20
28.1039870198
 10
-91.2335035101
 20
28.1067726216
 10
-91.2587152332
 20
28.1092096148
 10
-91.2855590501
 20
28.1112726689
 10
-91.31375594
 20
28.1129403399
  0
LWPOLYLINE
  5
6BC
100
AcDbEntity
  8
RACCORDO
100
AcDbPolyline
 62
253
  6
CONTINUOUS
 90
13
 70
0
 10
-95.4481155178
 20
28.6748720518
 10
-95.4535622564
 20
28.6774421882
 10
-95.4602574631
 20
28.6799990179
 10
-95.468139489
 20
28.682519025
 10
-95.4771357579
 20
28.6849790324
 10
-95.4871634336
 20
28.6873564159
 10
-95.4981301835
 20
28.6896293115
 10
-95.509935028
 20
28.6917768177
 10
-95.5224692711
 20
28.6937791874
 10
-95.5356175003
 20
28.6956180097
 10
-95.5492586501
 20
28.6972763798
 10
-95.5632671162
 20
28.6987390543
 10
-95.5775139123
 20
28.6999925917
  0
LINE
  5
6BD
100
AcDbEntity
  8
RACCORDO
100
AcDbLine
 62
253
  6
CONTINUOUS
 10
-95.4481174189
 20
28.6748443937
 11
-95.1347917021
 21
28.5074379542
  0
LINE
  5
6BE
100
AcDbEntity
  8
RACCORDO
100
AcDbLine
 62
253
  6
CONTINUOUS
 10
-91.1534454912
 20
41.0164320526
 11
-91.1695266002
 21
41.0421998699
  0
LWPOLYLINE
  5
6BF
100
AcDbEntity
  8
RACCORDO
100
AcDbPolyline
 62
253
  6
CONTINUOUS
 90
6
 70
0
 10
-94.8984886401
 20
-43.8739288326
 10
-94.9075853289
 20
-43.885061356
 10
-94.9177090742
 20
-43.8952708321
 10
-94.9287666529
 20
-43.9044632408
 10
-94.9406562428
 20
-43.9125539271
 10
-94.9532683607
 20
-43.9194683806
  0
LWPOLYLINE
  5
6C0
100
AcDbEntity
  8
RACCORDO
100
AcDbPolyline
 62
253
  6
CONTINUOUS
 90
8
 70
0
 10
-94.7885220494
 20
-43.6045285147
 10
-94.7976296027
 20
-43.6156419107
 10
-94.8077628979
 20
-43.6258306059
 10
-94.8188286276
 20
-43.6350007828
 10
-94.830724898
 20
-43.6430680023
 10
-94.843342168
 20
-43.6499579814
 10
-94.8565642573
 20
-43.6556072772
 10
-94.8702694166
 20
-43.6599638709
  0
LWPOLYLINE
  5
6C1
100
AcDbEntity
  8
RACCORDO
100
AcDbPolyline
 62
253
  6
CONTINUOUS
 90
8
 70
0
 10
-94.7885220492
 20
42.8663052012
 10
-94.7976296025
 20
42.8774185971
 10
-94.8077628979
 20
42.8876072923
 10
-94.8188286276
 20
42.8967774691
 10
-94.830724898
 20
42.9048446885
 10
-94.843342168
 20
42.9117346676
 10
-94.8565642574
 20
42.9173839632
 10
-94.8702694167
 20
42.9217405569
  0
LWPOLYLINE
  5
6C2
100
AcDbEntity
  8
RACCORDO
100
AcDbPolyline
 62
253
  6
CONTINUOUS
 90
6
 70
0
 10
-94.8984886125
 20
43.1357054256
 10
-94.9075853011
 20
43.1468379469
 10
-94.9177090469
 20
43.1570474225
 10
-94.9287666265
 20
43.1662398323
 10
-94.9406562177
 20
43.1743305211
 10
-94.9532683375
 20
43.1812449786
  0
LINE
  5
6C3
100
AcDbEntity
  8
RACCORDO
100
AcDbLine
 62
253
  6
CONTINUOUS
 10
-91.1695242522
 20
41.0428452356
 11
-91.1881320339
 21
41.0668549327
  0
LINE
  5
6C4
100
AcDbEntity
  8
RACCORDO
100
AcDbLine
 62
253
  6
CONTINUOUS
 10
-91.1881351572
 20
-41.8044331203
 11
-91.209080136
 21
-41.8264387026
  0
LWPOLYLINE
  5
6C5
100
AcDbEntity
  8
RACCORDO
100
AcDbPolyline
 62
253
  6
CONTINUOUS
 90
6
 70
0
 10
-91.1881351572
 20
41.0662098068
 10
-91.2090801361
 20
41.0882153892
 10
-91.2321465261
 20
41.1079907187
 10
-91.2570975391
 20
41.1253327917
 10
-91.2836770407
 20
41.1400635831
 10
-91.3116121787
 20
41.152031874
  0
LINE
  5
6C6
100
AcDbEntity
  8
RACCORDO
100
AcDbLine
 62
253
  6
CONTINUOUS
 10
-91.2090761628
 20
-41.8270837092
 11
-91.2321416493
 21
-41.8468590609
  0
LINE
  5
6C7
100
AcDbEntity
  8
RACCORDO
100
AcDbLine
 62
253
  6
CONTINUOUS
 10
-91.2103577467
 20
-41.5031950247
 11
-91.233714298
 21
-41.5229107117
  0
LINE
  5
6C8
100
AcDbEntity
  8
RACCORDO
100
AcDbLine
 62
253
  6
CONTINUOUS
 10
-91.232146526
 20
-41.8462140322
 11
-91.2570975391
 21
-41.8635561052
  0
LWPOLYLINE
  5
6C9
100
AcDbEntity
  8
RACCORDO
100
AcDbPolyline
 62
253
  6
CONTINUOUS
 90
4
 70
0
 10
-91.2337192796
 20
-41.5214466608
 10
-91.2589723889
 20
-41.5386879404
 10
-91.2858581312
 20
-41.5532757359
 10
-91.314096499
 20
-41.5650581198
  0
LINE
  5
6CA
100
AcDbEntity
  8
RACCORDO
100
AcDbLine
 62
253
  6
CONTINUOUS
 10
-91.2570917241
 20
-41.864201302
 11
-91.2836702737
 21
-41.8789324135
  0
LWPOLYLINE
  5
6CB
100
AcDbEntity
  8
RACCORDO
100
AcDbPolyline
 62
253
  6
CONTINUOUS
 90
4
 70
0
 10
-94.9532683607
 20
-43.9194683806
 10
-94.9664868703
 20
-43.9251429218
 10
-94.9801900514
 20
-43.9295252882
 10
-94.9942517214
 20
-43.9325751161
  0
LINE
  5
6CC
100
AcDbEntity
  8
RACCORDO
100
AcDbLine
 62
253
  6
CONTINUOUS
 10
-91.2836770406
 20
-41.8782868966
 11
-91.3116121787
 21
-41.8902551875
  0
LINE
  5
6CD
100
AcDbEntity
  8
RACCORDO
100
AcDbLine
 62
253
  6
CONTINUOUS
 10
-91.6608751287
 20
-42.0141609651
 11
-91.3116121785
 21
-41.8902552049
  0
LINE
  5
6CE
100
AcDbEntity
  8
RACCORDO
100
AcDbLine
 62
253
  6
CONTINUOUS
 10
-92.0131058371
 20
-42.1303462835
 11
-91.6609093612
 21
-42.0148320542
  0
LINE
  5
6CF
100
AcDbEntity
  8
RACCORDO
100
AcDbLine
 62
253
  6
CONTINUOUS
 10
-92.3678700508
 20
-42.2366623119
 11
-92.0130287293
 21
-42.129652215
  0
LWPOLYLINE
  5
6D0
100
AcDbEntity
  8
RACCORDO
100
AcDbPolyline
 62
253
  6
CONTINUOUS
 90
4
 70
0
 10
-92.3231849642
 20
-41.8853592926
 10
-91.9843721188
 20
-41.7862725723
 10
-91.647950578
 20
-41.6794868404
 10
-91.3140964993
 20
-41.5650580771
  0
LWPOLYLINE
  5
6D1
100
AcDbEntity
  8
RACCORDO
100
AcDbPolyline
 62
7
  6
CONTINUOUS
 90
16
 70
0
 10
-97.527081038
 20
44.4510705898
 10
-97.5546113584
 20
44.4473710783
 10
-97.5798988341
 20
44.441633335
 10
-97.6045963752
 20
44.4337333648
 10
-97.6285194697
 20
44.4237301878
 10
-97.6514893915
 20
44.4116985364
 10
-97.6733345356
 20
44.397728298
 10
-97.6938916999
 20
44.3819238424
 10
-97.7130073049
 20
44.3644032429
 10
-97.7305385407
 20
44.3452973937
 10
-97.7463544342
 20
44.324749032
 10
-97.7603368271
 20
44.3029116721
 10
-97.772381259
 20
44.2799484583
 10
-97.7823977478
 20
44.2560309459
 10
-97.7903114623
 20
44.2313378193
 10
-97.7955522405
 20
44.2087831806
  0
LINE
  5
6D2
100
AcDbEntity
  8
DRAFT
100
AcDbLine
 62
7
  6
CONTINUOUS
 10
-95.4717095331
 20
44.630892236
 11
-97.5270810328
 21
44.4510705299
  0
LINE
  5
6D3
100
AcDbEntity
  8
RACCORDO
100
AcDbLine
 62
253
  6
CONTINUOUS
 10
-95.0274955425
 20
43.2573493159
 11
-97.0765953158
 21
43.0783671645
  0
LINE
  5
6D4
100
AcDbEntity
  8
RACCORDO
100
AcDbLine
 62
253
  6
CONTINUOUS
 10
-97.1868836246
 20
43.3490939346
 11
-95.1373266831
 21
43.5281930318
  0
LINE
  5
6D5
100
AcDbEntity
  8
RACCORDO
100
AcDbLine
 62
253
  6
CONTINUOUS
 10
-94.8827212357
 20
42.8708883433
 11
-96.931657982
 21
42.6925737691
  0
LWPOLYLINE
  5
6D6
100
AcDbEntity
  8
RACCORDO
100
AcDbPolyline
 62
253
  6
CONTINUOUS
 90
10
 70
0
 10
-94.3962540534
 20
41.577351422
 10
-94.0468627659
 20
41.5254074961
 10
-93.6987811498
 20
41.465514214
 10
-93.3521914964
 20
41.3977028941
 10
-93.0072747986
 20
41.3220088828
 10
-92.6642122187
 20
41.2384718687
 10
-92.3231849641
 20
41.1471359791
 10
-91.9843721187
 20
41.048049259
 10
-91.647950578
 20
40.9412635272
 10
-91.3140964993
 20
40.826834764
  0
LWPOLYLINE
  5
6D7
100
AcDbEntity
  8
RACCORDO
100
AcDbPolyline
 62
253
  6
CONTINUOUS
 90
10
 70
0
 10
-94.4935096472
 20
41.9520369313
 10
-94.1751783047
 20
41.9042821218
 10
-93.8099982848
 20
41.8405060506
 10
-93.4464684705
 20
41.7679894571
 10
-93.0847977569
 20
41.6867739324
 10
-92.7251952385
 20
41.5969063517
 10
-92.3678700508
 20
41.4984389984
 10
-92.0130287293
 20
41.3914289016
 10
-91.6608751287
 20
41.2759376517
 10
-91.3116121785
 20
41.1520318915
  0
LINE
  5
6D8
100
AcDbEntity
  8
RACCORDO
100
AcDbLine
 62
253
  6
CONTINUOUS
 10
-94.5622959948
 20
42.215622773
 11
-94.273372492
 21
42.1719739265
  0
LINE
  5
6D9
100
AcDbEntity
  8
RACCORDO
100
AcDbLine
 62
253
  6
CONTINUOUS
 10
-94.8387806023
 20
42.5560457064
 11
-94.739417113
 21
42.5398859883
  0
LINE
  5
6DA
100
AcDbEntity
  8
RACCORDO
100
AcDbLine
 62
253
  6
CONTINUOUS
 10
-94.9005959802
 20
42.9274531367
 11
-94.8843314784
 21
42.9247643948
  0
LWPOLYLINE
  5
6DB
100
AcDbEntity
  8
RACCORDO
100
AcDbPolyline
 62
253
  6
CONTINUOUS
 90
9
 70
0
 10
-94.273372492
 20
42.1719739265
 10
-93.8949967457
 20
42.1051538938
 10
-93.5184080761
 20
42.028952486
 10
-93.1438366729
 20
41.943416112
 10
-92.7715171373
 20
41.8485981752
 10
-92.4016881606
 20
41.7445597367
 10
-92.0345811392
 20
41.631366616
 10
-91.6704202118
 20
41.5090886531
 10
-91.309430465
 20
41.3778020491
  0
LINE
  5
6DC
100
AcDbEntity
  8
RACCORDO
100
AcDbLine
 62
253
  6
CONTINUOUS
 10
-94.8702694167
 20
42.9217405569
 11
-94.8843314483
 21
42.9247643332
  0
LWPOLYLINE
  5
6DD
100
AcDbEntity
  8
RACCORDO
100
AcDbPolyline
 62
253
  6
CONTINUOUS
 90
4
 70
0
 10
-94.9532683375
 20
43.1812449786
 10
-94.9664868493
 20
43.1869195252
 10
-94.9801900331
 20
43.1913018985
 10
-94.9942517061
 20
43.1943517345
  0
LINE
  5
6DE
100
AcDbEntity
  8
RACCORDO
100
AcDbLine
 62
7
  6
CONTINUOUS
 10
-95.373237267
 20
44.3032620216
 11
-95.3312430845
 21
44.2959011119
  0
ARC
  5
6DF
100
AcDbEntity
  8
SUPERFICI
100
AcDbCircle
 62
7
  6
CONTINUOUS
 10
399.0894228873
 20
-0.3691116567
 40
499.9
100
AcDbArc
 50
182.7437545672
 51
182.7950958822
  0
ARC
  5
6E0
100
AcDbEntity
  8
COPY_PUBLISH
100
AcDbCircle
 62
7
  6
CONTINUOUS
 10
399.0894228873
 20
-0.3691116567
 40
499.9
100
AcDbArc
 50
177.2049041178
 51
177.2562454328
  0
ARC
  5
6E1
100
AcDbEntity
  8
SUPERFICI
100
AcDbCircle
 62
7
  6
CONTINUOUS
 10
44.1029847632
 20
-17.7003880573
 40
144.4907367643
100
AcDbArc
 50
184.5954394349
 51
190.8689043155
  0
ARC
  5
6E2
100
AcDbEntity
  8
SUPERFICI
100
AcDbCircle
 62
7
  6
CONTINUOUS
 10
44.1029847632
 20
-17.7003880573
 40
144.4907367643
100
AcDbArc
 50
182.7950958822
 51
183.4673415763
  0
ARC
  5
6E3
100
AcDbEntity
  8
COPY_PUBLISH
100
AcDbCircle
 62
7
  6
CONTINUOUS
 10
44.1029847632
 20
16.9621647439
 40
144.4907367643
100
AcDbArc
 50
169.1318664805
 51
177.2049041178
  0
ARC
  5
6E4
100
AcDbEntity
  8
RACCORDO
100
AcDbCircle
 62
7
  6
CONTINUOUS
 10
-97.123888351
 20
-28.7642411927
 40
15.4518261794
100
AcDbArc
 50
278.0954924049
 51
292.13130363
  0
ARC
  5
6E5
100
AcDbEntity
  8
RACCORDO
100
AcDbCircle
 62
7
  6
CONTINUOUS
 10
-97.123888351
 20
28.0260178792
 40
15.4518261794
100
AcDbArc
 50
67.86869637
 51
81.9037707873
  0
ARC
  5
6E6
100
AcDbEntity
  8
RACCORDO
100
AcDbCircle
 62
7
  6
CONTINUOUS
 10
-99.5382997929
 20
23.5272181624
 40
0.7
100
AcDbArc
 50
177.2562452597
 51
215.0
  0
ARC
  5
6E7
100
AcDbEntity
  8
RACCORDO
100
AcDbCircle
 62
7
  6
CONTINUOUS
 10
-99.5382997929
 20
-24.2654414758
 40
0.7
100
AcDbArc
 50
145.0
 51
182.7437547403
  0
ARC
  5
6E8
100
AcDbEntity
  8
RACCORDO
100
AcDbCircle
 62
7
  6
CONTINUOUS
 10
-91.4157345533
 20
-42.7997254255
 40
0.3
100
AcDbArc
 50
292.1313058253
 51
0.0000058272
  0
ARC
  5
6E9
100
AcDbEntity
  8
RACCORDO
100
AcDbCircle
 62
7
  6
CONTINUOUS
 10
-91.4157345533
 20
42.061502112
 40
0.3
100
AcDbArc
 50
359.9999941728
 51
67.8686941747
  0
ARC
  5
6EA
100
AcDbEntity
  8
RACCORDO
100
AcDbCircle
 62
7
  6
CONTINUOUS
 10
-91.3157345632
 20
-4.3895855426
 40
0.2
100
AcDbArc
 50
359.9999994975
 51
79.9999971064
  0
ARC
  5
6EB
100
AcDbEntity
  8
RACCORDO
100
AcDbCircle
 62
7
  6
CONTINUOUS
 10
-91.3157345533
 20
3.6513622309
 40
0.2
100
AcDbArc
 50
280.0
 51
360.0
  0
ARC
  5
6EC
100
AcDbEntity
  8
RACCORDO
100
AcDbCircle
 62
7
  6
CONTINUOUS
 10
-92.9157345533
 20
2.9630684171
 40
0.2
100
AcDbArc
 50
100.0000000008
 51
179.9946580071
  0
ARC
  5
6ED
100
AcDbEntity
  8
RACCORDO
100
AcDbCircle
 62
7
  6
CONTINUOUS
 10
-92.9157345533
 20
-3.7012917305
 40
0.2
100
AcDbArc
 50
180.0047448973
 51
259.9999999995
  0
ARC
  5
6EE
100
AcDbEntity
  8
RACCORDO
100
AcDbCircle
 62
7
  6
CONTINUOUS
 10
-95.3571408516
 20
44.1481536729
 40
0.15
100
AcDbArc
 50
16.8788408515
 51
80.0579648859
  0
ARC
  5
6EF
100
AcDbEntity
  8
RACCORDO
100
AcDbCircle
 62
7
  6
CONTINUOUS
 10
-95.3571408516
 20
-44.8863769863
 40
0.15
100
AcDbArc
 50
279.9420351141
 51
343.1211591484
  0
ENDSEC
  0
SECTION
  2
OBJECTS
  0
DICTIONARY
  5
C
100
AcDbDictionary
280
0
281
1
  3
ACAD_GROUP
350
D
  3
ACAD_MLINESTYLE
350
17
  3
ACAD_LAYOUT
350
1A
  3
ACAD_PLOTSETTINGS
350
19
  3
ACAD_PLOTSTYLENAME
350
E
  0
DICTIONARY
  5
D
102
{ACAD_REACTORS
330
C
102
}
100
AcDbDictionary
280
0
281
1
  0
ACDBDICTIONARYWDFLT
  5
E
102
{ACAD_REACTORS
330
C
102
}
100
AcDbDictionary
281
1
  3
Normal
350
F
100
AcDbDictionaryWithDefault
340
F
  0
DICTIONARY
  5
17
102
{ACAD_REACTORS
330
C
102
}
100
AcDbDictionary
280
0
281
1
  3
Standard
350
18
  0
DICTIONARY
  5
19
102
{ACAD_REACTORS
330
C
102
}
100
AcDbDictionary
281
1
  0
DICTIONARY
  5
1A
102
{ACAD_REACTORS
330
C
102
}
100
AcDbDictionary
281
1
  3
Model
350
6F0
  3
Layout1
350
6F1
  0
ACDBPLACEHOLDER
  5
F
102
{ACAD_REACTORS
330
E
102
}
  0
MLINESTYLE
  5
18
102
{ACAD_REACTORS
330
17
102
}
100
AcDbMlineStyle
  2
STANDARD
 70
0
  3

 62
256
 51
90.0
 52
90.0
 71
2
 49
0.5
 62
256
  6
BYLAYER
 49
-0.5
 62
256
  6
BYLAYER
  0
LAYOUT
  5
6F0
102
{ACAD_REACTORS
330
1A
102
}
100
AcDbPlotSettings
  1

  2
none_device
  4
ISO_A4_(297.00_x_210.00_MM)
  6

 40
0.0
 41
0.0
 42
0.0
 43
0.0
 44
297.0
 45
210.0
 46
0.0
 47
0.0
 48
0.0
 49
0.0
140
0.0
141
0.0
142
1.0
143
1.0
 70
1024
 72
1
 73
0
 74
0
  7

 75
0
147
1.0
148
0.0
149
0.0
100
AcDbLayout
  1
Model
 70
0
 71
0
 10
0.0
 20
0.0
 11
297.0
 21
210.0
 12
0.0
 22
0.0
 32
0.0
 14
0.0
 24
0.0
 34
0.0
 15
0.0
 25
0.0
 35
0.0
146
0.0
 13
0.0
 23
0.0
 33
0.0
 16
1.0
 26
0.0
 36
0.0
 17
0.0
 27
1.0
 37
0.0
 76
0
330
213
345
0
346
0
  0
LAYOUT
  5
6F1
102
{ACAD_REACTORS
330
1A
102
}
100
AcDbPlotSettings
  1

  2
none_device
  4
ISO_A4_(297.00_x_210.00_MM)
  6

 40
0.0
 41
0.0
 42
0.0
 43
0.0
 44
297.0
 45
210.0
 46
0.0
 47
0.0
 48
0.0
 49
0.0
140
0.0
141
0.0
142
1.0
143
1.0
 70
0
 72
1
 73
0
 74
0
  7

 75
0
147
1.0
148
0.0
149
0.0
100
AcDbLayout
  1
Layout1
 70
0
 71
1
 10
0.0
 20
0.0
 11
297.0
 21
210.0
 12
0.0
 22
0.0
 32
0.0
 14
0.0
 24
0.0
 34
0.0
 15
0.0
 25
0.0
 35
0.0
146
0.0
 13
0.0
 23
0.0
 33
0.0
 16
1.0
 26
0.0
 36
0.0
 17
0.0
 27
1.0
 37
0.0
 76
0
330
214
345
0
346
0
  0
ENDSEC
  0
EOF
