  0
SECTION
  2
HEADER
  9
$ACADVER
  1
AC1024
  9
$DWGCODEPAGE
  3
ANSI_1252
  9
$EXTMAX
 10
297.0
 20
210.0
 30
0.0
  9
$EXTMIN
 10
0.0
 20
0.0
 30
0.0
  9
$LIMMIN
 10
0.0
 20
0.0
  9
$LIMMAX
 10
297.0
 20
210.0
  9
$VIEWCTR
 10
148.5
 20
105.0
  9
$VIEWSIZE
 40
210.0
  9
$CLAYER
  8
0
  9
$LTSCALE
 40
16.335
  9
$CELTYPE
  6
BYLAYER
  9
$DIMSCALE
 40
1.0
  9
$DIMASZ
 40
3.0
  9
$DIMEXO
 40
0.5
  9
$DIMDLI
 40
11.286
  9
$DIMEXE
 40
1.5
  9
$DIMCEN
 40
2.673
  9
$DIMLFAC
 40
1.0
  9
$DIMBLK
  1
_FILLED
  9
$DIMALT
 70
0
  9
$DIMALTF
 40
0.0393700787
  9
$DIMTXT
 40
3.0
  9
$DIMTOL
 70
1
  9
$DIMLIM
 70
0
  9
$DIMTFAC
 40
1.0
  9
$DIMTP
 40
0.01
  9
$DIMTM
 40
0.01
  9
$DIMGAP
 40
0.625
  9
$DIMDSEP
 70
44
  9
$AUNITS
 70
0
  9
$PDMODE
 70
3
  9
$PDSIZE
 40
3.0
  9
$HANDSEED
  5
6BD
  9
$TILEMODE
 70
1
  9
$MEASUREMENT
 70
1
  9
$INSUNITS
 70
4
  0
ENDSEC
  0
SECTION
  2
CLASSES
  0
CLASS
  1
ACDBDICTIONARYWDFLT
  2
AcDbDictionaryWithDefault
  3
AutoCAD 2000
 90
0
 91
1
280
0
281
0
  0
CLASS
  1
ACDBPLACEHOLDER
  2
AcDbPlaceHolder
  3
AutoCAD 2000
 90
0
 91
1
280
0
281
0
  0
CLASS
  1
LAYOUT
  2
AcDbLayout
  3
AutoCAD 2000
 90
0
 91
0
280
0
281
0
  0
ENDSEC
  0
SECTION
  2
TABLES
  0
TABLE
  2
VPORT
  5
8
100
AcDbSymbolTable
 70
2
  0
VPORT
  5
1F4
100
AcDbSymbolTableRecord
100
AcDbViewportTableRecord
  2
*ACTIVE
 70
0
 10
0.0
 20
0.0
 11
1.0
 21
1.0
 12
148.5
 22
105.0
 13
0.0
 23
0.0
 14
1.0
 24
1.0
 15
0.0
 25
0.0
 16
0.0
 26
0.0
 36
1.0
 17
0.0
 27
0.0
 37
0.0
 40
210.0
 41
1.4142857143
 42
50.0
 43
0.0
 44
0.0
 50
0.0
 51
0.0
 71
0
 72
100
 73
1
 74
1
 75
0
 76
0
 77
0
 78
0
  0
ENDTAB
  0
TABLE
  2
LTYPE
  5
5
100
AcDbSymbolTable
 70
6
  0
LTYPE
  5
14
100
AcDbSymbolTableRecord
100
AcDbLinetypeTableRecord
  2
BYBLOCK
 70
0
  3

 72
65
 73
0
 40
0.0
  0
LTYPE
  5
15
100
AcDbSymbolTableRecord
100
AcDbLinetypeTableRecord
  2
BYLAYER
 70
0
  3

 72
65
 73
0
 40
0.0
  0
LTYPE
  5
16
100
AcDbSymbolTableRecord
100
AcDbLinetypeTableRecord
  2
CONTINUOUS
 70
64
  3
Solid line
 72
65
 73
0
 40
0.0
  0
LTYPE
  5
1F5
100
AcDbSymbolTableRecord
100
AcDbLinetypeTableRecord
  2
CENTER
 70
64
  3
____ _ ____ _ ____ _ ____ _ ____ _ ____ _ ____
 72
65
 73
4
 40
0.6
 49
0.375
 74
0
 49
-0.075
 74
0
 49
0.075
 74
0
 49
-0.075
 74
0
  0
LTYPE
  5
1F6
100
AcDbSymbolTableRecord
100
AcDbLinetypeTableRecord
  2
HIDDEN
 70
64
  3
- - - - - - - - - - - - - - - - - - - -
 72
65
 73
2
 40
0.2
 49
0.1
 74
0
 49
-0.1
 74
0
  0
LTYPE
  5
1F7
100
AcDbSymbolTableRecord
100
AcDbLinetypeTableRecord
  2
PHANTOM
 70
64
  3
_____ _ _ _____ _ _ _____ _ _ _____
 72
65
 73
6
 40
0.8
 49
0.45
 74
0
 49
-0.05
 74
0
 49
0.1
 74
0
 49
-0.05
 74
0
 49
0.1
 74
0
 49
-0.05
 74
0
  0
LTYPE
  5
1F8
100
AcDbSymbolTableRecord
100
AcDbLinetypeTableRecord
  2
DOT
 70
64
  3
. . . . . . . . . . . . . . . . . . . .
 72
65
 73
2
 40
0.2
 49
0.1
 74
0
 49
-0.1
 74
0
  0
LTYPE
  5
1F9
100
AcDbSymbolTableRecord
100
AcDbLinetypeTableRecord
  2
DASHED
 70
64
  3
- - - - - - - - - - - - - - - - - - - -
 72
65
 73
2
 40
0.2
 49
0.1
 74
0
 49
-0.1
 74
0
  0
ENDTAB
  0
TABLE
  2
LAYER
  5
2
100
AcDbSymbolTable
 70
36
  0
LAYER
  5
10
100
AcDbSymbolTableRecord
100
AcDbLayerTableRecord
  2
0
 70
0
 62
7
  6
CONTINUOUS
370
-3
390
F
  0
LAYER
  5
1FA
100
AcDbSymbolTableRecord
100
AcDbLayerTableRecord
  2
DEFAULT_1
 70
0
 62
7
  6
CENTER
370
-3
390
F
  0
LAYER
  5
1FB
100
AcDbSymbolTableRecord
100
AcDbLayerTableRecord
  2
DEFAULT_2
 70
0
 62
7
  6
HIDDEN
370
-3
390
F
  0
LAYER
  5
1FC
100
AcDbSymbolTableRecord
100
AcDbLayerTableRecord
  2
DEFAULT_3
 70
0
 62
7
  6
PHANTOM
370
-3
390
F
  0
LAYER
  5
1FD
100
AcDbSymbolTableRecord
100
AcDbLayerTableRecord
  2
ASSI
 70
0
 62
7
  6
CONTINUOUS
370
-3
390
F
  0
LAYER
  5
1FE
100
AcDbSymbolTableRecord
100
AcDbLayerTableRecord
  2
COORDINATE
 70
0
 62
7
  6
CONTINUOUS
370
-3
390
F
  0
LAYER
  5
1FF
100
AcDbSymbolTableRecord
100
AcDbLayerTableRecord
  2
COPY_PUBLISH
 70
0
 62
7
  6
CONTINUOUS
370
-3
390
F
  0
LAYER
  5
200
100
AcDbSymbolTableRecord
100
AcDbLayerTableRecord
  2
COSMETIC
 70
0
 62
7
  6
CONTINUOUS
370
-3
390
F
  0
LAYER
  5
201
100
AcDbSymbolTableRecord
100
AcDbLayerTableRecord
  2
COSMETICI
 70
0
 62
7
  6
CONTINUOUS
370
-3
390
F
  0
LAYER
  5
202
100
AcDbSymbolTableRecord
100
AcDbLayerTableRecord
  2
CURVE
 70
0
 62
7
  6
CONTINUOUS
370
-3
390
F
  0
LAYER
  5
203
100
AcDbSymbolTableRecord
100
AcDbLayerTableRecord
  2
CURVE_VERNICIATO
 70
0
 62
7
  6
CONTINUOUS
370
-3
390
F
  0
LAYER
  5
204
100
AcDbSymbolTableRecord
100
AcDbLayerTableRecord
  2
DRAFT
 70
0
 62
7
  6
CONTINUOUS
370
-3
390
F
  0
LAYER
  5
205
100
AcDbSymbolTableRecord
100
AcDbLayerTableRecord
  2
IMPORT_IGES
 70
0
 62
7
  6
CONTINUOUS
370
-3
390
F
  0
LAYER
  5
206
100
AcDbSymbolTableRecord
100
AcDbLayerTableRecord
  2
INTF_1
 70
0
 62
7
  6
CONTINUOUS
370
-3
390
F
  0
LAYER
  5
207
100
AcDbSymbolTableRecord
100
AcDbLayerTableRecord
  2
NOTE
 70
0
 62
7
  6
CONTINUOUS
370
-3
390
F
  0
LAYER
  5
208
100
AcDbSymbolTableRecord
100
AcDbLayerTableRecord
  2
PIANI
 70
0
 62
7
  6
CONTINUOUS
370
-3
390
F
  0
LAYER
  5
209
100
AcDbSymbolTableRecord
100
AcDbLayerTableRecord
  2
PUNTI
 70
0
 62
7
  6
CONTINUOUS
370
-3
390
F
  0
LAYER
  5
20A
100
AcDbSymbolTableRecord
100
AcDbLayerTableRecord
  2
RACCORDO
 70
0
 62
7
  6
CONTINUOUS
370
-3
390
F
  0
LAYER
  5
20B
100
AcDbSymbolTableRecord
100
AcDbLayerTableRecord
  2
SIMBOLI
 70
0
 62
7
  6
CONTINUOUS
370
-3
390
F
  0
LAYER
  5
20C
100
AcDbSymbolTableRecord
100
AcDbLayerTableRecord
  2
SMUSSO
 70
0
 62
7
  6
CONTINUOUS
370
-3
390
F
  0
LAYER
  5
20D
100
AcDbSymbolTableRecord
100
AcDbLayerTableRecord
  2
SNAPLINE
 70
0
 62
7
  6
CONTINUOUS
370
-3
390
F
  0
LAYER
  5
20E
100
AcDbSymbolTableRecord
100
AcDbLayerTableRecord
  2
SUPERFICI
 70
0
 62
7
  6
CONTINUOUS
370
-3
390
F
  0
LAYER
  5
20F
100
AcDbSymbolTableRecord
100
AcDbLayerTableRecord
  2
TRASH
 70
0
 62
7
  6
CONTINUOUS
370
-3
390
F
  0
LAYER
  5
210
100
AcDbSymbolTableRecord
100
AcDbLayerTableRecord
  2
XSEC_DATUMS
 70
0
 62
7
  6
CONTINUOUS
370
-3
390
F
  0
ENDTAB
  0
TABLE
  2
STYLE
  5
3
100
AcDbSymbolTable
 70
1
  0
STYLE
  5
11
100
AcDbSymbolTableRecord
100
AcDbTextStyleTableRecord
  2
STANDARD
 70
0
 40
0.0
 41
0.8
 50
0.0
 71
0
 42
0.2
  3
txt
  4

  0
STYLE
  5
211
100
AcDbSymbolTableRecord
100
AcDbTextStyleTableRecord
  2
TEXTSTYLE_1
 70
0
 40
0.0
 41
0.8
 50
0.0
 71
0
 42
0.2
  3
gdt
  4

  0
ENDTAB
  0
TABLE
  2
VIEW
  5
6
100
AcDbSymbolTable
 70
0
  0
ENDTAB
  0
TABLE
  2
UCS
  5
7
100
AcDbSymbolTable
 70
0
  0
ENDTAB
  0
TABLE
  2
APPID
  5
9
100
AcDbSymbolTable
 70
1
  0
APPID
  5
212
100
AcDbSymbolTableRecord
100
AcDbRegAppTableRecord
  2
ACAD
 70
0
  0
ENDTAB
  0
TABLE
  2
BLOCK_RECORD
  5
1
100
AcDbSymbolTable
 70
0
  0
BLOCK_RECORD
  5
213
100
AcDbSymbolTableRecord
100
AcDbBlockTableRecord
  2
*Model_Space
  0
BLOCK_RECORD
  5
214
100
AcDbSymbolTableRecord
100
AcDbBlockTableRecord
  2
*Paper_Space
  0
BLOCK_RECORD
  5
215
100
AcDbSymbolTableRecord
100
AcDbBlockTableRecord
  2
_FILLED
  0
BLOCK_RECORD
  5
216
100
AcDbSymbolTableRecord
100
AcDbBlockTableRecord
  2
*D0
  0
BLOCK_RECORD
  5
217
100
AcDbSymbolTableRecord
100
AcDbBlockTableRecord
  2
*D1
  0
BLOCK_RECORD
  5
218
100
AcDbSymbolTableRecord
100
AcDbBlockTableRecord
  2
*D2
  0
ENDTAB
  0
TABLE
  2
DIMSTYLE
  5
A
100
AcDbSymbolTable
 70
1
100
AcDbDimStyleTable
 71
0
  0
DIMSTYLE
105
219
100
AcDbSymbolTableRecord
100
AcDbDimStyleTableRecord
  2
STANDARD
 70
0
  3

  4

 40
1.0
 41
3.0
 42
0.5
 43
0.38
 44
1.5
 45
0.0
 46
0.0
 47
0.01
 48
0.01
140
3.0
141
0.09
142
0.0
143
25.4
144
1.0
145
0.0
146
1.0
147
0.625
 71
1
 72
0
 73
0
 74
0
 75
0
 76
0
 77
1
 78
8
 79
2
170
0
171
1
172
0
173
0
174
0
175
0
176
0
177
0
178
0
270
2
179
2
271
2
272
2
273
2
274
2
275
0
280
0
281
0
282
0
283
1
284
8
285
0
286
0
287
3
288
0
340
11
278
44
341
215
342
215
343
215
344
215
  0
DIMSTYLE
105
21A
100
AcDbSymbolTableRecord
100
AcDbDimStyleTableRecord
  2
DIMSTYLE_1
 70
0
  3

  4

 40
1.0
 41
3.0
 42
0.5
 43
0.38
 44
1.5
 45
0.0
 46
0.0
 47
0.0
 48
0.0
140
3.0
141
0.09
142
0.0
143
25.4
144
1.0
145
0.0
146
1.0
147
0.75
 71
0
 72
0
 73
0
 74
0
 75
0
 76
0
 77
1
 78
8
 79
2
170
0
171
1
172
0
173
0
174
0
175
0
176
0
177
0
178
0
270
2
179
2
271
2
272
2
273
2
274
2
275
0
280
0
281
0
282
0
283
1
284
8
285
0
286
0
287
3
288
0
340
11
278
44
341
215
342
215
343
215
344
215
  0
ENDTAB
  0
ENDSEC
  0
SECTION
  2
BLOCKS
  0
BLOCK
  5
20
100
AcDbEntity
  8
0
100
AcDbBlockBegin
  2
*Model_Space
 70
0
 10
0.0
 20
0.0
 30
0.0
  3
*Model_Space
  1

  0
ENDBLK
  5
21
100
AcDbEntity
  8
0
100
AcDbBlockEnd
  0
BLOCK
  5
1C
100
AcDbEntity
  8
0
100
AcDbBlockBegin
  2
*Paper_Space
 70
0
 10
0.0
 20
0.0
 30
0.0
  3
*Paper_Space
  1

  0
ENDBLK
  5
1D
100
AcDbEntity
  8
0
100
AcDbBlockEnd
  0
BLOCK
  5
21B
100
AcDbEntity
  8
0
100
AcDbBlockBegin
  2
_FILLED
 70
64
 10
0.0
 20
0.0
  3
_FILLED
  1

  0
SOLID
  5
21C
100
AcDbEntity
  8
0
  6
BYBLOCK
 62
0
100
AcDbTrace
 10
0.0
 20
0.0
 11
-1.0
 21
0.3166666667
 12
-1.0
 22
-0.3166666667
 13
-1.0
 23
-0.3166666667
  0
ENDBLK
  5
21D
100
AcDbEntity
  8
0
  6
BYBLOCK
 62
0
100
AcDbBlockEnd
  0
BLOCK
  5
21E
100
AcDbEntity
  8
0
100
AcDbBlockBegin
 62
7
  6
CONTINUOUS
  2
*D0
 70
65
 10
0.0
 20
0.0
  3
*D0
  1

  0
LINE
  5
21F
100
AcDbEntity
  8
0
100
AcDbLine
 62
7
  6
CONTINUOUS
 10
271.2850868749
 20
108.8927580991
 11
271.2850868749
 21
167.8927580991
  0
LINE
  5
220
100
AcDbEntity
  8
0
100
AcDbLine
 62
7
  6
CONTINUOUS
 10
126.7850868749
 20
108.8927580991
 11
126.7850868749
 21
167.8927580991
  0
LINE
  5
221
100
AcDbEntity
  8
0
100
AcDbLine
 62
7
  6
CONTINUOUS
 10
271.2850868749
 20
166.3927580991
 11
199.0350868749
 21
166.3927580991
  0
LINE
  5
222
100
AcDbEntity
  8
0
100
AcDbLine
 62
7
  6
CONTINUOUS
 10
126.7850868749
 20
166.3927580991
 11
199.0350868749
 21
166.3927580991
  0
INSERT
  5
223
100
AcDbEntity
  8
0
100
AcDbBlockReference
 62
7
  6
CONTINUOUS
  2
_FILLED
 10
271.2850868749
 20
166.3927580991
 41
3.0
 42
3.0
 43
3.0
  0
INSERT
  5
224
100
AcDbEntity
  8
0
100
AcDbBlockReference
 62
7
  6
CONTINUOUS
  2
_FILLED
 10
126.7850868749
 20
166.3927580991
 41
3.0
 42
3.0
 43
3.0
 50
180.0
  0
ENDBLK
  5
225
100
AcDbEntity
  8
0
  6
BYBLOCK
 62
0
100
AcDbBlockEnd
  0
BLOCK
  5
226
100
AcDbEntity
  8
0
100
AcDbBlockBegin
 62
7
  6
CONTINUOUS
  2
*D1
 70
65
 10
0.0
 20
0.0
  3
*D1
  1

  0
LINE
  5
227
100
AcDbEntity
  8
0
100
AcDbLine
 62
7
  6
CONTINUOUS
 10
199.5350868749
 20
153.3927580991
 11
284.7350868749
 21
153.3927580991
  0
LINE
  5
228
100
AcDbEntity
  8
0
100
AcDbLine
 62
7
  6
CONTINUOUS
 10
199.5350868749
 20
63.3927580991
 11
284.7350868749
 21
63.3927580991
  0
LINE
  5
229
100
AcDbEntity
  8
0
100
AcDbLine
 62
7
  6
CONTINUOUS
 10
283.2350868749
 20
153.3927580991
 11
283.2350868749
 21
108.3927580991
  0
LINE
  5
22A
100
AcDbEntity
  8
0
100
AcDbLine
 62
7
  6
CONTINUOUS
 10
283.2350868749
 20
63.3927580991
 11
283.2350868749
 21
108.3927580991
  0
INSERT
  5
22B
100
AcDbEntity
  8
0
100
AcDbBlockReference
 62
7
  6
CONTINUOUS
  2
_FILLED
 10
283.2350868749
 20
153.3927580991
 41
3.0
 42
3.0
 43
3.0
 50
90.0
  0
INSERT
  5
22C
100
AcDbEntity
  8
0
100
AcDbBlockReference
 62
7
  6
CONTINUOUS
  2
_FILLED
 10
283.2350868749
 20
63.3927580991
 41
3.0
 42
3.0
 43
3.0
 50
270.0
  0
ENDBLK
  5
22D
100
AcDbEntity
  8
0
  6
BYBLOCK
 62
0
100
AcDbBlockEnd
  0
BLOCK
  5
22E
100
AcDbEntity
  8
0
100
AcDbBlockBegin
 62
7
  6
CONTINUOUS
  2
*D2
 70
65
 10
0.0
 20
0.0
  3
*D2
  1

  0
LINE
  5
22F
100
AcDbEntity
  8
0
100
AcDbLine
 62
7
  6
CONTINUOUS
 10
112.6240555569
 20
150.291955558
 11
112.6240555569
 21
167.8927580991
  0
LINE
  5
230
100
AcDbEntity
  8
0
100
AcDbLine
 62
7
  6
CONTINUOUS
 10
104.1240555569
 20
132.1712693481
 11
104.1240555569
 21
167.8927580991
  0
LINE
  5
231
100
AcDbEntity
  8
0
100
AcDbLine
 62
7
  6
CONTINUOUS
 10
112.6240555569
 20
166.3927580991
 11
116.6240555569
 21
166.3927580991
  0
LINE
  5
232
100
AcDbEntity
  8
0
100
AcDbLine
 62
7
  6
CONTINUOUS
 10
116.6240555569
 20
166.3927580991
 11
108.3740555569
 21
166.3927580991
  0
LINE
  5
233
100
AcDbEntity
  8
0
100
AcDbLine
 62
7
  6
CONTINUOUS
 10
104.1240555569
 20
166.3927580991
 11
100.1240555569
 21
166.3927580991
  0
LINE
  5
234
100
AcDbEntity
  8
0
100
AcDbLine
 62
7
  6
CONTINUOUS
 10
100.1240555569
 20
166.3927580991
 11
108.3740555569
 21
166.3927580991
  0
INSERT
  5
235
100
AcDbEntity
  8
0
100
AcDbBlockReference
 62
7
  6
CONTINUOUS
  2
_FILLED
 10
112.6240555569
 20
166.3927580991
 41
3.0
 42
3.0
 43
3.0
 50
180.0
  0
INSERT
  5
236
100
AcDbEntity
  8
0
100
AcDbBlockReference
 62
7
  6
CONTINUOUS
  2
_FILLED
 10
104.1240555569
 20
166.3927580991
 41
3.0
 42
3.0
 43
3.0
  0
ENDBLK
  5
237
100
AcDbEntity
  8
0
  6
BYBLOCK
 62
0
100
AcDbBlockEnd
  0
ENDSEC
  0
SECTION
  2
ENTITIES
  0
DIMENSION
  5
238
100
AcDbEntity
  8
0
100
AcDbDimension
 62
7
  6
CONTINUOUS
  2
*D0
 10
126.7850868749
 20
166.3927580991
 11
193.892229732
 21
166.3927580991
 70
160
 71
2
 72
2
 41
0.9
 42
144.5
  3
DIMSTYLE_1
100
AcDbAlignedDimension
 13
271.2850868749
 23
108.3927580991
 14
126.7850868749
 24
108.3927580991
 50
180.0
100
AcDbRotatedDimension
  0
DIMENSION
  5
239
100
AcDbEntity
  8
0
100
AcDbDimension
 62
7
  6
CONTINUOUS
  2
*D1
 10
283.2350868749
 20
63.3927580991
 11
283.2350868749
 21
106.035615242
 70
160
 71
2
 72
2
 41
0.9
 42
90.0
  3
DIMSTYLE_1
100
AcDbAlignedDimension
 13
199.0350868749
 23
153.3927580991
 14
199.0350868749
 24
63.3927580991
 50
270.0
100
AcDbRotatedDimension
  0
DIMENSION
  5
23A
100
AcDbEntity
  8
0
100
AcDbDimension
 62
7
  6
CONTINUOUS
  2
*D2
 10
104.1240555569
 20
166.3927580991
 11
105.2669126997
 21
166.3927580991
 70
160
 71
2
 72
2
 41
0.9
 42
8.5
  3
DIMSTYLE_1
100
AcDbAlignedDimension
 13
112.6240555569
 23
149.791955558
 14
104.1240555569
 24
131.6712693481
 50
180.0
100
AcDbRotatedDimension
  0
LINE
  5
23B
100
AcDbEntity
  8
RACCORDO
100
AcDbLine
 62
250
  6
CONTINUOUS
 10
143.66161336
 20
151.6327580991
 11
143.6741769356
 21
151.508211061
  0
LINE
  5
23C
100
AcDbEntity
  8
ASSI
100
AcDbLine
 62
250
  6
CONTINUOUS
 10
143.66161336
 20
151.6327580991
 11
143.6741769356
 21
151.508211061
  0
LINE
  5
23D
100
AcDbEntity
  8
RACCORDO
100
AcDbLine
 62
250
  6
CONTINUOUS
 10
148.66161336
 20
152.0192190717
 11
148.6688520993
 21
151.886616299
  0
LINE
  5
23E
100
AcDbEntity
  8
ASSI
100
AcDbLine
 62
250
  6
CONTINUOUS
 10
148.66161336
 20
152.0192190717
 11
148.6688520993
 21
151.886616299
  0
LINE
  5
23F
100
AcDbEntity
  8
0
100
AcDbLine
 62
250
  6
CONTINUOUS
 10
151.2868038749
 20
136.5420280991
 11
151.2868038749
 21
134.8434880991
  0
LINE
  5
240
100
AcDbEntity
  8
0
100
AcDbLine
 62
250
  6
CONTINUOUS
 10
151.3867178749
 20
136.4421140991
 11
151.3867178749
 21
134.9434020991
  0
LINE
  5
241
100
AcDbEntity
  8
0
100
AcDbLine
 62
250
  6
CONTINUOUS
 10
151.4866328749
 20
136.3422000991
 11
151.4866328749
 21
135.0433160991
  0
LINE
  5
242
100
AcDbEntity
  8
0
100
AcDbLine
 62
250
  6
CONTINUOUS
 10
152.4358168749
 20
137.6910410991
 11
152.4358168749
 21
136.5420280991
  0
LINE
  5
243
100
AcDbEntity
  8
0
100
AcDbLine
 62
250
  6
CONTINUOUS
 10
152.4358168749
 20
134.8434880991
 11
152.4358168749
 21
133.6944750991
  0
LINE
  5
244
100
AcDbEntity
  8
0
100
AcDbLine
 62
250
  6
CONTINUOUS
 10
152.5357308749
 20
137.5911270991
 11
152.5357308749
 21
136.4421140991
  0
LINE
  5
245
100
AcDbEntity
  8
0
100
AcDbLine
 62
250
  6
CONTINUOUS
 10
152.5357308749
 20
134.9434020991
 11
152.5357308749
 21
133.7943890991
  0
LINE
  5
246
100
AcDbEntity
  8
0
100
AcDbLine
 62
250
  6
CONTINUOUS
 10
152.6356448749
 20
137.4912120991
 11
152.6356448749
 21
136.3422000991
  0
LINE
  5
247
100
AcDbEntity
  8
0
100
AcDbLine
 62
250
  6
CONTINUOUS
 10
152.6356448749
 20
135.0433160991
 11
152.6356448749
 21
133.8943040991
  0
LINE
  5
248
100
AcDbEntity
  8
RACCORDO
100
AcDbLine
 62
250
  6
CONTINUOUS
 10
148.66161336
 20
64.7662971265
 11
148.6688525839
 21
64.8988998731
  0
LINE
  5
249
100
AcDbEntity
  8
ASSI
100
AcDbLine
 62
250
  6
CONTINUOUS
 10
148.66161336
 20
64.7662971265
 11
148.6688525839
 21
64.8988998731
  0
LINE
  5
24A
100
AcDbEntity
  8
RACCORDO
100
AcDbLine
 62
250
  6
CONTINUOUS
 10
143.66161336
 20
65.1527580991
 11
143.6741908586
 21
65.2773037972
  0
LINE
  5
24B
100
AcDbEntity
  8
ASSI
100
AcDbLine
 62
250
  6
CONTINUOUS
 10
143.66161336
 20
65.1527580991
 11
143.6741908586
 21
65.2773037972
  0
LINE
  5
24C
100
AcDbEntity
  8
0
100
AcDbLine
 62
250
  6
CONTINUOUS
 10
157.0818238749
 20
137.0915560991
 11
156.2825108749
 21
134.2939600991
  0
LINE
  5
24D
100
AcDbEntity
  8
0
100
AcDbLine
 62
250
  6
CONTINUOUS
 10
166.8287498749
 20
135.7820430991
 11
167.0244298749
 21
136.0201360991
  0
LWPOLYLINE
  5
24E
100
AcDbEntity
  8
0
100
AcDbPolyline
 62
7
  6
CONTINUOUS
 90
3
 70
0
 43
0.3500000006
 10
193.8922371826
 20
169.2856173706
 10
194.7493751221
 20
170.1427553101
 10
194.7493751221
 20
167.1427543945
  0
LINE
  5
24F
100
AcDbEntity
  8
0
100
AcDbLine
 62
250
  6
CONTINUOUS
 10
166.6799388749
 20
136.0796600991
 11
166.5529568749
 21
135.9606130991
  0
LINE
  5
250
100
AcDbEntity
  8
0
100
AcDbLine
 62
250
  6
CONTINUOUS
 10
166.4435968749
 20
134.7106230991
 11
166.5705788749
 21
134.8296700991
  0
LINE
  5
251
100
AcDbEntity
  8
0
100
AcDbLine
 62
250
  6
CONTINUOUS
 10
166.4706338749
 20
134.3534830991
 11
166.7193898749
 21
134.5320530991
  0
LINE
  5
252
100
AcDbEntity
  8
0
100
AcDbLine
 62
250
  6
CONTINUOUS
 10
170.9179928749
 20
136.5558460991
 11
171.1032578749
 21
136.6748930991
  0
LINE
  5
253
100
AcDbEntity
  8
0
100
AcDbLine
 62
250
  6
CONTINUOUS
 10
166.7069758749
 20
135.7225200991
 11
166.8287498749
 21
135.7820430991
  0
LINE
  5
254
100
AcDbEntity
  8
0
100
AcDbLine
 62
250
  6
CONTINUOUS
 10
171.0762208749
 20
137.0320330991
 11
170.8326718749
 21
136.9129860991
  0
LINE
  5
255
100
AcDbEntity
  8
0
100
AcDbLine
 62
250
  6
CONTINUOUS
 10
166.5529568749
 20
135.9606130991
 11
166.3728988749
 21
135.9010900991
  0
LINE
  5
256
100
AcDbEntity
  8
0
100
AcDbLine
 62
250
  6
CONTINUOUS
 10
166.2635388749
 20
134.6511000991
 11
166.4435968749
 21
134.7106230991
  0
LINE
  5
257
100
AcDbEntity
  8
0
100
AcDbLine
 62
7
  6
CONTINUOUS
 10
204.3942350868
 20
79.5149567447
 11
203.8321024967
 21
79.5149567447
  0
LINE
  5
258
100
AcDbEntity
  8
ASSI
100
AcDbLine
 62
7
  6
CONTINUOUS
 10
204.3942350868
 20
79.5149567447
 11
203.8321024967
 21
79.5149567447
  0
LINE
  5
259
100
AcDbEntity
  8
0
100
AcDbLine
 62
7
  6
CONTINUOUS
 10
202.9371622197
 20
79.5149567447
 11
202.3551056772
 21
79.5149567447
  0
LINE
  5
25A
100
AcDbEntity
  8
ASSI
100
AcDbLine
 62
7
  6
CONTINUOUS
 10
202.9371622197
 20
79.5149567447
 11
202.3551056772
 21
79.5149567447
  0
LINE
  5
25B
100
AcDbEntity
  8
0
100
AcDbLine
 62
7
  6
CONTINUOUS
 10
202.1834948749
 20
79.5149570991
 11
201.5675528749
 21
79.5149570991
  0
LINE
  5
25C
100
AcDbEntity
  8
ASSI
100
AcDbLine
 62
7
  6
CONTINUOUS
 10
202.1834948749
 20
79.5149570991
 11
201.5675528749
 21
79.5149570991
  0
LINE
  5
25D
100
AcDbEntity
  8
0
100
AcDbLine
 62
7
  6
CONTINUOUS
 10
200.4590338749
 20
79.5149570991
 11
199.8809668749
 21
79.5149570991
  0
LINE
  5
25E
100
AcDbEntity
  8
ASSI
100
AcDbLine
 62
7
  6
CONTINUOUS
 10
200.4590338749
 20
79.5149570991
 11
199.8809668749
 21
79.5149570991
  0
LINE
  5
25F
100
AcDbEntity
  8
0
100
AcDbLine
 62
7
  6
CONTINUOUS
 10
199.7891988749
 20
79.5149570991
 11
199.2174928749
 21
79.5149570991
  0
LINE
  5
260
100
AcDbEntity
  8
ASSI
100
AcDbLine
 62
7
  6
CONTINUOUS
 10
199.7891988749
 20
79.5149570991
 11
199.2174928749
 21
79.5149570991
  0
LINE
  5
261
100
AcDbEntity
  8
0
100
AcDbLine
 62
7
  6
CONTINUOUS
 10
198.4025628749
 20
79.5149570991
 11
198.3205998749
 21
79.5149570991
  0
LINE
  5
262
100
AcDbEntity
  8
ASSI
100
AcDbLine
 62
7
  6
CONTINUOUS
 10
198.4025628749
 20
79.5149570991
 11
198.3205998749
 21
79.5149570991
  0
LINE
  5
263
100
AcDbEntity
  8
0
100
AcDbLine
 62
7
  6
CONTINUOUS
 10
197.5089038749
 20
79.5149570991
 11
196.9498148749
 21
79.5149570991
  0
LINE
  5
264
100
AcDbEntity
  8
ASSI
100
AcDbLine
 62
7
  6
CONTINUOUS
 10
197.5089038749
 20
79.5149570991
 11
196.9498148749
 21
79.5149570991
  0
LINE
  5
265
100
AcDbEntity
  8
0
100
AcDbLine
 62
7
  6
CONTINUOUS
 10
196.6352098749
 20
79.5149570991
 11
196.0508018749
 21
79.5149570991
  0
LINE
  5
266
100
AcDbEntity
  8
ASSI
100
AcDbLine
 62
7
  6
CONTINUOUS
 10
196.6352098749
 20
79.5149570991
 11
196.0508018749
 21
79.5149570991
  0
LINE
  5
267
100
AcDbEntity
  8
0
100
AcDbLine
 62
7
  6
CONTINUOUS
 10
194.9339898749
 20
79.5149570991
 11
194.4189798749
 21
79.5149570991
  0
LINE
  5
268
100
AcDbEntity
  8
ASSI
100
AcDbLine
 62
7
  6
CONTINUOUS
 10
194.9339898749
 20
79.5149570991
 11
194.4189798749
 21
79.5149570991
  0
LINE
  5
269
100
AcDbEntity
  8
0
100
AcDbLine
 62
7
  6
CONTINUOUS
 10
201.4161608749
 20
80.0738770991
 11
200.6202938749
 21
80.0738770991
  0
LINE
  5
26A
100
AcDbEntity
  8
ASSI
100
AcDbLine
 62
7
  6
CONTINUOUS
 10
201.4161608749
 20
80.0738770991
 11
200.6202938749
 21
80.0738770991
  0
LINE
  5
26B
100
AcDbEntity
  8
0
100
AcDbLine
 62
7
  6
CONTINUOUS
 10
201.2993668749
 20
80.5063670991
 11
200.7398378749
 21
80.5063670991
  0
LINE
  5
26C
100
AcDbEntity
  8
ASSI
100
AcDbLine
 62
7
  6
CONTINUOUS
 10
201.2993668749
 20
80.5063670991
 11
200.7398378749
 21
80.5063670991
  0
LINE
  5
26D
100
AcDbEntity
  8
0
100
AcDbLine
 62
7
  6
CONTINUOUS
 10
203.2505078371
 20
80.6106061743
 11
202.9371622197
 21
80.6106061743
  0
LINE
  5
26E
100
AcDbEntity
  8
ASSI
100
AcDbLine
 62
7
  6
CONTINUOUS
 10
203.2505078371
 20
80.6106061743
 11
202.9371622197
 21
80.6106061743
  0
LINE
  5
26F
100
AcDbEntity
  8
0
100
AcDbLine
 62
250
  6
CONTINUOUS
 10
153.9345288749
 20
133.8943040991
 11
153.9345288749
 21
135.0433160991
  0
LINE
  5
270
100
AcDbEntity
  8
0
100
AcDbLine
 62
250
  6
CONTINUOUS
 10
153.9345288749
 20
136.3422000991
 11
153.9345288749
 21
137.4912120991
  0
LINE
  5
271
100
AcDbEntity
  8
0
100
AcDbLine
 62
7
  6
CONTINUOUS
 10
153.9350868749
 20
130.0927580991
 11
153.9350868749
 21
86.6927580991
  0
LINE
  5
272
100
AcDbEntity
  8
ASSI
100
AcDbLine
 62
7
  6
CONTINUOUS
 10
153.9350868749
 20
130.0927580991
 11
153.9350868749
 21
86.6927580991
  0
LINE
  5
273
100
AcDbEntity
  8
0
100
AcDbLine
 62
250
  6
CONTINUOUS
 10
154.0344428749
 20
133.7943890991
 11
154.0344428749
 21
134.9434020991
  0
LINE
  5
274
100
AcDbEntity
  8
0
100
AcDbLine
 62
250
  6
CONTINUOUS
 10
154.0344428749
 20
136.4421140991
 11
154.0344428749
 21
137.5911270991
  0
LINE
  5
275
100
AcDbEntity
  8
0
100
AcDbLine
 62
250
  6
CONTINUOUS
 10
154.1343568749
 20
133.6944750991
 11
154.1343568749
 21
134.8434880991
  0
LINE
  5
276
100
AcDbEntity
  8
0
100
AcDbLine
 62
250
  6
CONTINUOUS
 10
154.1343568749
 20
136.5420280991
 11
154.1343568749
 21
137.6910410991
  0
LINE
  5
277
100
AcDbEntity
  8
RACCORDO
100
AcDbLine
 62
250
  6
CONTINUOUS
 10
154.7350868749
 20
131.2090990178
 11
154.7350868749
 21
131.0107943329
  0
LINE
  5
278
100
AcDbEntity
  8
RACCORDO
100
AcDbLine
 62
250
  6
CONTINUOUS
 10
154.7350868152
 20
85.5764171813
 11
154.7350868748
 21
85.7747218652
  0
LINE
  5
279
100
AcDbEntity
  8
0
100
AcDbLine
 62
250
  6
CONTINUOUS
 10
154.7350868749
 20
85.8927580991
 11
154.7350817889
 21
85.7747218652
  0
LINE
  5
27A
100
AcDbEntity
  8
ASSI
100
AcDbLine
 62
250
  6
CONTINUOUS
 10
154.7350868749
 20
85.8927580991
 11
154.7350868152
 21
85.5764171813
  0
LINE
  5
27B
100
AcDbEntity
  8
0
100
AcDbLine
 62
250
  6
CONTINUOUS
 10
154.7350868749
 20
130.8927580991
 11
154.7350813596
 21
131.0107943329
  0
LINE
  5
27C
100
AcDbEntity
  8
ASSI
100
AcDbLine
 62
250
  6
CONTINUOUS
 10
154.7350868749
 20
130.8927580991
 11
154.7350868749
 21
131.2090990178
  0
LINE
  5
27D
100
AcDbEntity
  8
0
100
AcDbLine
 62
250
  6
CONTINUOUS
 10
155.0835408749
 20
135.0433160991
 11
155.0835408749
 21
136.3422000991
  0
LINE
  5
27E
100
AcDbEntity
  8
0
100
AcDbLine
 62
250
  6
CONTINUOUS
 10
155.1834558749
 20
134.9434020991
 11
155.1834558749
 21
136.4421140991
  0
LINE
  5
27F
100
AcDbEntity
  8
0
100
AcDbLine
 62
250
  6
CONTINUOUS
 10
155.2833698749
 20
134.8434880991
 11
155.2833698749
 21
136.5420280991
  0
LINE
  5
280
100
AcDbEntity
  8
0
100
AcDbLine
 62
250
  6
CONTINUOUS
 10
158.6804498749
 20
137.0915560991
 11
158.6804498749
 21
134.2939600991
  0
LINE
  5
281
100
AcDbEntity
  8
0
100
AcDbLine
 62
250
  6
CONTINUOUS
 10
166.7538448749
 20
136.2582290991
 11
166.6799388749
 21
136.0796600991
  0
LINE
  5
282
100
AcDbEntity
  8
0
100
AcDbLine
 62
250
  6
CONTINUOUS
 10
167.0244298749
 20
136.0201360991
 11
167.0983358749
 21
136.1987060991
  0
LINE
  5
283
100
AcDbEntity
  8
0
100
AcDbLine
 62
250
  6
CONTINUOUS
 10
166.5705788749
 20
134.8296700991
 11
166.6444848749
 21
135.0082400991
  0
LINE
  5
284
100
AcDbEntity
  8
0
100
AcDbLine
 62
250
  6
CONTINUOUS
 10
166.9150698749
 20
134.7701470991
 11
166.9889768749
 21
134.9487170991
  0
LINE
  5
285
100
AcDbEntity
  8
0
100
AcDbLine
 62
250
  6
CONTINUOUS
 10
168.7875508749
 20
136.8534630991
 11
168.1223958749
 21
135.2463330991
  0
LINE
  5
286
100
AcDbEntity
  8
0
100
AcDbLine
 62
250
  6
CONTINUOUS
 10
167.7476578749
 20
134.2939600991
 11
168.0432828749
 21
135.0082400991
  0
LINE
  5
287
100
AcDbEntity
  8
0
100
AcDbLine
 62
250
  6
CONTINUOUS
 10
168.5752488749
 20
137.0915560991
 11
167.3979588749
 21
134.2939600991
  0
LINE
  5
288
100
AcDbEntity
  8
0
100
AcDbLine
 62
250
  6
CONTINUOUS
 10
170.5787088749
 20
136.6748930991
 11
170.4413118749
 21
136.4368000991
  0
LINE
  5
289
100
AcDbEntity
  8
0
100
AcDbLine
 62
250
  6
CONTINUOUS
 10
170.7858038749
 20
136.3772760991
 11
170.9179928749
 21
136.5558460991
  0
LINE
  5
28A
100
AcDbEntity
  8
0
100
AcDbLine
 62
250
  6
CONTINUOUS
 10
166.7193898749
 20
134.5320530991
 11
166.9150698749
 21
134.7701470991
  0
LINE
  5
28B
100
AcDbEntity
  8
0
100
AcDbLine
 62
250
  6
CONTINUOUS
 10
170.8326718749
 20
136.9129860991
 11
170.5787088749
 21
136.6748930991
  0
LINE
  5
28C
100
AcDbEntity
  8
0
100
AcDbLine
 62
250
  6
CONTINUOUS
 10
172.1928078749
 20
134.4725300991
 11
172.4467708749
 21
134.7106230991
  0
LINE
  5
28D
100
AcDbEntity
  8
0
100
AcDbLine
 62
250
  6
CONTINUOUS
 10
180.0850848749
 20
136.0796600991
 11
179.9581028749
 21
135.9606130991
  0
LINE
  5
28E
100
AcDbEntity
  8
0
100
AcDbLine
 62
250
  6
CONTINUOUS
 10
172.1074868749
 20
134.8296700991
 11
171.9222218749
 21
134.7106230991
  0
LINE
  5
28F
100
AcDbEntity
  8
0
100
AcDbLine
 62
250
  6
CONTINUOUS
 10
171.9492598749
 20
134.3534830991
 11
172.1928078749
 21
134.4725300991
  0
LINE
  5
290
100
AcDbEntity
  8
0
100
AcDbLine
 62
250
  6
CONTINUOUS
 10
180.2338958749
 20
135.7820430991
 11
179.9903488749
 21
135.6629960991
  0
LINE
  5
291
100
AcDbEntity
  8
0
100
AcDbLine
 62
250
  6
CONTINUOUS
 10
179.9581028749
 20
135.9606130991
 11
179.7780458749
 21
135.9010900991
  0
LINE
  5
292
100
AcDbEntity
  8
0
100
AcDbLine
 62
7
  6
CONTINUOUS
 10
203.251767518
 20
81.0691300125
 11
202.9177841289
 21
81.0691300125
  0
LINE
  5
293
100
AcDbEntity
  8
ASSI
100
AcDbLine
 62
7
  6
CONTINUOUS
 10
203.251767518
 20
81.0691300125
 11
202.9177841289
 21
81.0691300125
  0
LINE
  5
294
100
AcDbEntity
  8
0
100
AcDbLine
 62
7
  6
CONTINUOUS
 10
201.3244768749
 20
82.3146600991
 11
200.7591318749
 21
82.3146600991
  0
LINE
  5
295
100
AcDbEntity
  8
ASSI
100
AcDbLine
 62
7
  6
CONTINUOUS
 10
201.3244768749
 20
82.3146600991
 11
200.7591318749
 21
82.3146600991
  0
LINE
  5
296
100
AcDbEntity
  8
0
100
AcDbLine
 62
7
  6
CONTINUOUS
 10
199.5273948749
 20
82.3146600991
 11
198.9491808749
 21
82.3146600991
  0
LINE
  5
297
100
AcDbEntity
  8
ASSI
100
AcDbLine
 62
7
  6
CONTINUOUS
 10
199.5273948749
 20
82.3146600991
 11
198.9491808749
 21
82.3146600991
  0
LINE
  5
298
100
AcDbEntity
  8
0
100
AcDbLine
 62
7
  6
CONTINUOUS
 10
197.7865368749
 20
82.3146600991
 11
197.2026118749
 21
82.3146600991
  0
LINE
  5
299
100
AcDbEntity
  8
ASSI
100
AcDbLine
 62
7
  6
CONTINUOUS
 10
197.7865368749
 20
82.3146600991
 11
197.2026118749
 21
82.3146600991
  0
LINE
  5
29A
100
AcDbEntity
  8
0
100
AcDbLine
 62
7
  6
CONTINUOUS
 10
195.8339268749
 20
82.3146600991
 11
195.2499178749
 21
82.3146600991
  0
LINE
  5
29B
100
AcDbEntity
  8
ASSI
100
AcDbLine
 62
7
  6
CONTINUOUS
 10
195.8339268749
 20
82.3146600991
 11
195.2499178749
 21
82.3146600991
  0
LINE
  5
29C
100
AcDbEntity
  8
0
100
AcDbLine
 62
7
  6
CONTINUOUS
 10
194.1662668749
 20
82.3146600991
 11
193.5314188749
 21
82.3146600991
  0
LINE
  5
29D
100
AcDbEntity
  8
ASSI
100
AcDbLine
 62
7
  6
CONTINUOUS
 10
194.1662668749
 20
82.3146600991
 11
193.5314188749
 21
82.3146600991
  0
LINE
  5
29E
100
AcDbEntity
  8
0
100
AcDbLine
 62
7
  6
CONTINUOUS
 10
196.6352098749
 20
82.3148280991
 11
196.0508018749
 21
82.3148280991
  0
LINE
  5
29F
100
AcDbEntity
  8
ASSI
100
AcDbLine
 62
7
  6
CONTINUOUS
 10
196.6352098749
 20
82.3148280991
 11
196.0508018749
 21
82.3148280991
  0
LINE
  5
2A0
100
AcDbEntity
  8
RACCORDO
100
AcDbLine
 62
250
  6
CONTINUOUS
 10
128.3688311323
 20
84.6928693858
 11
173.2299458591
 21
84.6928473125
  0
LINE
  5
2A1
100
AcDbEntity
  8
ASSI
100
AcDbLine
 62
250
  6
CONTINUOUS
 10
128.3688311323
 20
84.6928693858
 11
173.2299458591
 21
84.6928473125
  0
LINE
  5
2A2
100
AcDbEntity
  8
RACCORDO
100
AcDbLine
 62
250
  6
CONTINUOUS
 10
224.8402278906
 20
84.6928473125
 11
269.7013426105
 21
84.6928693125
  0
LINE
  5
2A3
100
AcDbEntity
  8
ASSI
100
AcDbLine
 62
250
  6
CONTINUOUS
 10
224.8402278906
 20
84.6928473125
 11
269.7013426105
 21
84.6928693125
  0
LINE
  5
2A4
100
AcDbEntity
  8
RACCORDO
100
AcDbLine
 62
250
  6
CONTINUOUS
 10
242.3221895131
 20
85.5619859726
 11
155.7479842096
 21
85.5619859726
  0
LINE
  5
2A5
100
AcDbEntity
  8
ASSI
100
AcDbLine
 62
250
  6
CONTINUOUS
 10
242.3221895131
 20
85.5619859726
 11
155.7479842096
 21
85.5619859726
  0
LINE
  5
2A6
100
AcDbEntity
  8
RACCORDO
100
AcDbLine
 62
250
  6
CONTINUOUS
 10
243.3350705983
 20
85.7747218652
 11
154.7350817889
 21
85.7747218652
  0
LINE
  5
2A7
100
AcDbEntity
  8
ASSI
100
AcDbLine
 62
250
  6
CONTINUOUS
 10
243.3350705983
 20
85.7747218652
 11
154.7350817889
 21
85.7747218652
  0
LINE
  5
2A8
100
AcDbEntity
  8
0
100
AcDbLine
 62
7
  6
CONTINUOUS
 10
243.3350868749
 20
85.8927580991
 11
154.7350868749
 21
85.8927580991
  0
LINE
  5
2A9
100
AcDbEntity
  8
ASSI
100
AcDbLine
 62
7
  6
CONTINUOUS
 10
243.3350868749
 20
85.8927580991
 11
154.7350868749
 21
85.8927580991
  0
LINE
  5
2AA
100
AcDbEntity
  8
0
100
AcDbLine
 62
250
  6
CONTINUOUS
 10
244.1350868749
 20
86.6927580991
 11
244.2549118927
 21
86.6927672011
  0
LINE
  5
2AB
100
AcDbEntity
  8
ASSI
100
AcDbLine
 62
250
  6
CONTINUOUS
 10
244.1350868749
 20
86.6927580991
 11
244.2549118927
 21
86.6927672011
  0
LINE
  5
2AC
100
AcDbEntity
  8
0
100
AcDbLine
 62
250
  6
CONTINUOUS
 10
153.9350868749
 20
86.6927580991
 11
153.8152570831
 21
86.6927935484
  0
LINE
  5
2AD
100
AcDbEntity
  8
ASSI
100
AcDbLine
 62
250
  6
CONTINUOUS
 10
153.9350868749
 20
86.6927580991
 11
153.8152570831
 21
86.6927935484
  0
LINE
  5
2AE
100
AcDbEntity
  8
0
100
AcDbLine
 62
250
  6
CONTINUOUS
 10
160.0792478749
 20
137.0915560991
 11
160.0792478749
 21
134.2939600991
  0
LINE
  5
2AF
100
AcDbEntity
  8
0
100
AcDbLine
 62
250
  6
CONTINUOUS
 10
161.6778748749
 20
137.0915560991
 11
161.6778748749
 21
134.2939600991
  0
LINE
  5
2B0
100
AcDbEntity
  8
0
100
AcDbLine
 62
250
  6
CONTINUOUS
 10
163.8093758749
 20
137.0915560991
 11
163.8093758749
 21
134.2939600991
  0
LINE
  5
2B1
100
AcDbEntity
  8
0
100
AcDbLine
 62
250
  6
CONTINUOUS
 10
165.0199708749
 20
137.0915560991
 11
164.7752128749
 21
134.2939600991
  0
LINE
  5
2B2
100
AcDbEntity
  8
0
100
AcDbLine
 62
250
  6
CONTINUOUS
 10
165.2342718749
 20
135.5439500991
 11
165.1561578749
 21
134.6511000991
  0
LINE
  5
2B3
100
AcDbEntity
  8
0
100
AcDbLine
 62
250
  6
CONTINUOUS
 10
165.2655178749
 20
135.9010900991
 11
165.3384238749
 21
136.7344160991
  0
LINE
  5
2B4
100
AcDbEntity
  8
0
100
AcDbLine
 62
250
  6
CONTINUOUS
 10
166.7642598749
 20
136.3772760991
 11
166.7538448749
 21
136.2582290991
  0
LINE
  5
2B5
100
AcDbEntity
  8
0
100
AcDbLine
 62
250
  6
CONTINUOUS
 10
166.6444848749
 20
135.0082400991
 11
166.6601068749
 21
135.1868100991
  0
LINE
  5
2B6
100
AcDbEntity
  8
0
100
AcDbLine
 62
250
  6
CONTINUOUS
 10
167.0983358749
 20
136.1987060991
 11
167.1191668749
 21
136.4368000991
  0
LINE
  5
2B7
100
AcDbEntity
  8
0
100
AcDbLine
 62
250
  6
CONTINUOUS
 10
166.9889768749
 20
134.9487170991
 11
167.0150148749
 21
135.2463330991
  0
LINE
  5
2B8
100
AcDbEntity
  8
0
100
AcDbLine
 62
250
  6
CONTINUOUS
 10
170.4413118749
 20
136.4368000991
 11
170.3569908749
 21
136.1391830991
  0
LINE
  5
2B9
100
AcDbEntity
  8
0
100
AcDbLine
 62
250
  6
CONTINUOUS
 10
172.4467708749
 20
134.7106230991
 11
172.5310928749
 21
135.0082400991
  0
LINE
  5
2BA
100
AcDbEntity
  8
0
100
AcDbLine
 62
250
  6
CONTINUOUS
 10
170.7066898749
 20
136.1391830991
 11
170.7858038749
 21
136.3772760991
  0
LINE
  5
2BB
100
AcDbEntity
  8
0
100
AcDbLine
 62
250
  6
CONTINUOUS
 10
172.1813928749
 20
135.0082400991
 11
172.1074868749
 21
134.8296700991
  0
LINE
  5
2BC
100
AcDbEntity
  8
0
100
AcDbLine
 62
250
  6
CONTINUOUS
 10
180.4295768749
 20
136.0201360991
 11
180.2338958749
 21
135.7820430991
  0
LINE
  5
2BD
100
AcDbEntity
  8
RACCORDO
100
AcDbLine
 62
250
  6
CONTINUOUS
 10
128.5885627429
 20
79.2579661145
 11
128.7534297558
 21
79.2857118502
  0
LINE
  5
2BE
100
AcDbEntity
  8
ASSI
100
AcDbLine
 62
250
  6
CONTINUOUS
 10
128.5885627429
 20
79.2579661145
 11
128.7534297558
 21
79.2857118502
  0
LINE
  5
2BF
100
AcDbEntity
  8
RACCORDO
100
AcDbLine
 62
250
  6
CONTINUOUS
 10
128.0518115941
 20
83.2579661145
 11
128.2303241934
 21
83.2760102216
  0
LINE
  5
2C0
100
AcDbEntity
  8
ASSI
100
AcDbLine
 62
250
  6
CONTINUOUS
 10
128.0518115941
 20
83.2579661145
 11
128.2303241934
 21
83.2760102216
  0
LINE
  5
2C1
100
AcDbEntity
  8
RACCORDO
100
AcDbLine
 62
250
  6
CONTINUOUS
 10
270.0183621556
 20
83.2579661145
 11
269.8398496877
 21
83.2760115413
  0
LINE
  5
2C2
100
AcDbEntity
  8
ASSI
100
AcDbLine
 62
250
  6
CONTINUOUS
 10
270.0183621556
 20
83.2579661145
 11
269.8398496877
 21
83.2760115413
  0
LINE
  5
2C3
100
AcDbEntity
  8
RACCORDO
100
AcDbLine
 62
250
  6
CONTINUOUS
 10
269.4816110068
 20
79.2579661145
 11
269.3167464208
 21
79.2857265354
  0
LINE
  5
2C4
100
AcDbEntity
  8
ASSI
100
AcDbLine
 62
250
  6
CONTINUOUS
 10
269.4816110068
 20
79.2579661145
 11
269.3167464208
 21
79.2857265354
  0
LINE
  5
2C5
100
AcDbEntity
  8
0
100
AcDbLine
 62
250
  6
CONTINUOUS
 10
157.8811368749
 20
134.2939600991
 11
157.0818238749
 21
137.0915560991
  0
LINE
  5
2C6
100
AcDbEntity
  8
0
100
AcDbLine
 62
250
  6
CONTINUOUS
 10
170.2788758749
 20
135.2463330991
 11
170.3111218749
 21
134.9487170991
  0
LINE
  5
2C7
100
AcDbEntity
  8
0
100
AcDbLine
 62
250
  6
CONTINUOUS
 10
170.3569908749
 20
136.1391830991
 11
170.2788758749
 21
135.2463330991
  0
LINE
  5
2C8
100
AcDbEntity
  8
0
100
AcDbLine
 62
250
  6
CONTINUOUS
 10
170.6285758749
 20
135.2463330991
 11
170.7066898749
 21
136.1391830991
  0
LINE
  5
2C9
100
AcDbEntity
  8
0
100
AcDbLine
 62
250
  6
CONTINUOUS
 10
173.1796248749
 20
137.0915560991
 11
173.1535868749
 21
136.7939390991
  0
LINE
  5
2CA
100
AcDbEntity
  8
0
100
AcDbLine
 62
250
  6
CONTINUOUS
 10
174.0861188749
 20
136.7939390991
 11
173.8673988749
 21
134.2939600991
  0
LINE
  5
2CB
100
AcDbEntity
  8
0
100
AcDbLine
 62
250
  6
CONTINUOUS
 10
174.2170988749
 20
134.2939600991
 11
174.4358178749
 21
136.7939390991
  0
LINE
  5
2CC
100
AcDbEntity
  8
0
100
AcDbLine
 62
250
  6
CONTINUOUS
 10
175.3683498749
 20
136.7939390991
 11
175.3943878749
 21
137.0915560991
  0
LINE
  5
2CD
100
AcDbEntity
  8
0
100
AcDbLine
 62
250
  6
CONTINUOUS
 10
175.8606538749
 20
137.0915560991
 11
175.6158958749
 21
134.2939600991
  0
LINE
  5
2CE
100
AcDbEntity
  8
0
100
AcDbLine
 62
250
  6
CONTINUOUS
 10
176.1114088749
 20
135.9606130991
 11
176.1791078749
 21
136.7344160991
  0
LINE
  5
2CF
100
AcDbEntity
  8
0
100
AcDbLine
 62
250
  6
CONTINUOUS
 10
175.9968418749
 20
134.6511000991
 11
176.0801628749
 21
135.6034730991
  0
LINE
  5
2D0
100
AcDbEntity
  8
0
100
AcDbLine
 62
250
  6
CONTINUOUS
 10
180.1589908749
 20
136.2582290991
 11
180.0850848749
 21
136.0796600991
  0
LINE
  5
2D1
100
AcDbEntity
  8
0
100
AcDbLine
 62
250
  6
CONTINUOUS
 10
180.5034828749
 20
136.1987060991
 11
180.4295768749
 21
136.0201360991
  0
LINE
  5
2D2
100
AcDbEntity
  8
0
100
AcDbLine
 62
250
  6
CONTINUOUS
 10
183.0669468749
 20
136.8534630991
 11
182.4017918749
 21
135.2463330991
  0
LINE
  5
2D3
100
AcDbEntity
  8
0
100
AcDbLine
 62
250
  6
CONTINUOUS
 10
182.0270528749
 20
134.2939600991
 11
182.3226778749
 21
135.0082400991
  0
LINE
  5
2D4
100
AcDbEntity
  8
0
100
AcDbLine
 62
250
  6
CONTINUOUS
 10
182.8546438749
 20
137.0915560991
 11
181.6773538749
 21
134.2939600991
  0
LINE
  5
2D5
100
AcDbEntity
  8
0
100
AcDbLine
 62
250
  6
CONTINUOUS
 10
160.0792478749
 20
134.2939600991
 11
158.6804498749
 21
137.0915560991
  0
LINE
  5
2D6
100
AcDbEntity
  8
0
100
AcDbLine
 62
250
  6
CONTINUOUS
 10
166.6601068749
 20
135.1868100991
 11
166.6174468749
 21
135.3653800991
  0
LINE
  5
2D7
100
AcDbEntity
  8
0
100
AcDbLine
 62
250
  6
CONTINUOUS
 10
167.0150148749
 20
135.2463330991
 11
166.9723538749
 21
135.4249030991
  0
LINE
  5
2D8
100
AcDbEntity
  8
0
100
AcDbLine
 62
250
  6
CONTINUOUS
 10
166.7215988749
 20
136.5558460991
 11
166.7642598749
 21
136.3772760991
  0
LINE
  5
2D9
100
AcDbEntity
  8
0
100
AcDbLine
 62
250
  6
CONTINUOUS
 10
167.1191668749
 20
136.4368000991
 11
167.0765068749
 21
136.6153690991
  0
LINE
  5
2DA
100
AcDbEntity
  8
0
100
AcDbLine
 62
250
  6
CONTINUOUS
 10
172.6508678749
 20
136.3772760991
 11
172.6186228749
 21
136.6748930991
  0
LINE
  5
2DB
100
AcDbEntity
  8
0
100
AcDbLine
 62
250
  6
CONTINUOUS
 10
177.5955268749
 20
135.6034730991
 11
177.6267728749
 21
135.9606130991
  0
LINE
  5
2DC
100
AcDbEntity
  8
0
100
AcDbLine
 62
250
  6
CONTINUOUS
 10
177.7140928749
 20
134.2939600991
 11
177.7453388749
 21
134.6511000991
  0
LINE
  5
2DD
100
AcDbEntity
  8
0
100
AcDbLine
 62
250
  6
CONTINUOUS
 10
177.9276058749
 20
136.7344160991
 11
177.9588508749
 21
137.0915560991
  0
LINE
  5
2DE
100
AcDbEntity
  8
0
100
AcDbLine
 62
250
  6
CONTINUOUS
 10
178.1803588749
 20
134.2939600991
 11
178.4251168749
 21
137.0915560991
  0
LINE
  5
2DF
100
AcDbEntity
  8
0
100
AcDbLine
 62
250
  6
CONTINUOUS
 10
178.6394178749
 20
135.5439500991
 11
178.5300578749
 21
134.2939600991
  0
LINE
  5
2E0
100
AcDbEntity
  8
0
100
AcDbLine
 62
250
  6
CONTINUOUS
 10
178.6706638749
 20
135.9010900991
 11
178.7487778749
 21
136.7939390991
  0
LINE
  5
2E1
100
AcDbEntity
  8
0
100
AcDbLine
 62
250
  6
CONTINUOUS
 10
180.1746138749
 20
136.4368000991
 11
180.1589908749
 21
136.2582290991
  0
LINE
  5
2E2
100
AcDbEntity
  8
0
100
AcDbLine
 62
250
  6
CONTINUOUS
 10
180.5243138749
 20
136.4368000991
 11
180.5034828749
 21
136.1987060991
  0
LINE
  5
2E3
100
AcDbEntity
  8
0
100
AcDbLine
 62
250
  6
CONTINUOUS
 10
181.1061468749
 20
137.0915560991
 11
180.8613888749
 21
134.2939600991
  0
LINE
  5
2E4
100
AcDbEntity
  8
0
100
AcDbLine
 62
250
  6
CONTINUOUS
 10
181.2110878749
 20
134.2939600991
 11
181.4558458749
 21
137.0915560991
  0
LWPOLYLINE
  5
2E5
100
AcDbEntity
  8
0
100
AcDbPolyline
 62
7
  6
CONTINUOUS
 90
3
 70
0
 43
0.3500000006
 10
201.0350835571
 20
167.428479126
 10
200.963661438
 20
167.2141946411
 10
200.8207990723
 20
166.9284699097
  0
LINE
  5
2E6
100
AcDbEntity
  8
RACCORDO
100
AcDbLine
 62
250
  6
CONTINUOUS
 10
153.2080658453
 20
108.3927580991
 11
153.7946879706
 21
108.3927580991
  0
LINE
  5
2E7
100
AcDbEntity
  8
ASSI
100
AcDbLine
 62
250
  6
CONTINUOUS
 10
153.2080658453
 20
108.3927580991
 11
153.7946879706
 21
108.3927580991
  0
LINE
  5
2E8
100
AcDbEntity
  8
RACCORDO
100
AcDbLine
 62
250
  6
CONTINUOUS
 10
244.8621079044
 20
108.3927580991
 11
244.2754857791
 21
108.3927580991
  0
LINE
  5
2E9
100
AcDbEntity
  8
ASSI
100
AcDbLine
 62
250
  6
CONTINUOUS
 10
244.8621079044
 20
108.3927580991
 11
244.2754857791
 21
108.3927580991
  0
LWPOLYLINE
  5
2EA
100
AcDbEntity
  8
0
100
AcDbPolyline
 62
7
  6
CONTINUOUS
 90
13
 70
0
 43
0.3500000006
 10
281.6279478149
 20
108.3927591248
 10
280.3422227783
 20
108.3927591248
 10
279.9136538086
 20
108.6070436096
 10
279.4850848389
 20
109.0356125793
 10
279.4850848389
 20
109.2498970642
 10
279.9136538086
 20
109.6784750977
 10
280.3422227783
 20
109.8927595825
 10
281.6279478149
 20
109.8927595825
 10
282.0565167847
 20
109.6784750977
 10
282.4850857544
 20
109.2498970642
 10
282.4850857544
 20
109.0356125793
 10
282.0565167847
 20
108.6070436096
 10
281.6279478149
 20
108.3927591248
  0
LINE
  5
2EB
100
AcDbEntity
  8
0
100
AcDbLine
 62
250
  6
CONTINUOUS
 10
170.3111218749
 20
134.9487170991
 11
170.4068578749
 21
134.7106230991
  0
LINE
  5
2EC
100
AcDbEntity
  8
0
100
AcDbLine
 62
250
  6
CONTINUOUS
 10
169.7292888749
 20
134.2939600991
 11
169.0415148749
 21
137.0915560991
  0
LINE
  5
2ED
100
AcDbEntity
  8
0
100
AcDbLine
 62
250
  6
CONTINUOUS
 10
169.2089478749
 20
135.0082400991
 11
169.3795888749
 21
134.2939600991
  0
LINE
  5
2EE
100
AcDbEntity
  8
0
100
AcDbLine
 62
250
  6
CONTINUOUS
 10
169.1714948749
 20
135.2463330991
 11
168.7875508749
 21
136.8534630991
  0
LINE
  5
2EF
100
AcDbEntity
  8
0
100
AcDbLine
 62
250
  6
CONTINUOUS
 10
172.2585078749
 20
136.5558460991
 11
172.3011678749
 21
136.3772760991
  0
LINE
  5
2F0
100
AcDbEntity
  8
0
100
AcDbLine
 62
250
  6
CONTINUOUS
 10
170.6660278749
 20
135.0082400991
 11
170.6285758749
 21
135.2463330991
  0
LINE
  5
2F1
100
AcDbEntity
  8
0
100
AcDbLine
 62
250
  6
CONTINUOUS
 10
184.7197068749
 20
137.0915560991
 11
184.4749488749
 21
134.2939600991
  0
LINE
  5
2F2
100
AcDbEntity
  8
0
100
AcDbLine
 62
250
  6
CONTINUOUS
 10
184.8558948749
 20
134.6511000991
 11
185.0694068749
 21
137.0915560991
  0
LINE
  5
2F3
100
AcDbEntity
  8
0
100
AcDbLine
 62
250
  6
CONTINUOUS
 10
186.5731458749
 20
134.2939600991
 11
186.6043918749
 21
134.6511000991
  0
LINE
  5
2F4
100
AcDbEntity
  8
0
100
AcDbLine
 62
250
  6
CONTINUOUS
 10
166.6174468749
 20
135.3653800991
 11
166.5112958749
 21
135.4844260991
  0
LINE
  5
2F5
100
AcDbEntity
  8
0
100
AcDbLine
 62
250
  6
CONTINUOUS
 10
166.9723538749
 20
135.4249030991
 11
166.8183348749
 21
135.6629960991
  0
LINE
  5
2F6
100
AcDbEntity
  8
0
100
AcDbLine
 62
250
  6
CONTINUOUS
 10
167.0765068749
 20
136.6153690991
 11
166.9224868749
 21
136.8534630991
  0
LINE
  5
2F7
100
AcDbEntity
  8
0
100
AcDbLine
 62
250
  6
CONTINUOUS
 10
170.7669718749
 20
134.8296700991
 11
170.6660278749
 21
135.0082400991
  0
LINE
  5
2F8
100
AcDbEntity
  8
0
100
AcDbLine
 62
7
  6
CONTINUOUS
 10
197.6350188749
 20
81.3431110991
 11
198.3205998749
 21
79.5149570991
  0
LINE
  5
2F9
100
AcDbEntity
  8
ASSI
100
AcDbLine
 62
7
  6
CONTINUOUS
 10
197.6350188749
 20
81.3431110991
 11
198.3205998749
 21
79.5149570991
  0
LINE
  5
2FA
100
AcDbEntity
  8
0
100
AcDbLine
 62
7
  6
CONTINUOUS
 10
198.3647728749
 20
80.7602560991
 11
197.7865368749
 21
82.3146600991
  0
LINE
  5
2FB
100
AcDbEntity
  8
ASSI
100
AcDbLine
 62
7
  6
CONTINUOUS
 10
198.3647728749
 20
80.7602560991
 11
197.7865368749
 21
82.3146600991
  0
LINE
  5
2FC
100
AcDbEntity
  8
0
100
AcDbLine
 62
7
  6
CONTINUOUS
 10
193.5314188749
 20
82.3146600991
 11
194.4189798749
 21
79.5149570991
  0
LINE
  5
2FD
100
AcDbEntity
  8
ASSI
100
AcDbLine
 62
7
  6
CONTINUOUS
 10
193.5314188749
 20
82.3146600991
 11
194.4189798749
 21
79.5149570991
  0
LINE
  5
2FE
100
AcDbEntity
  8
0
100
AcDbLine
 62
250
  6
CONTINUOUS
 10
179.9903488749
 20
135.6629960991
 11
180.3951228749
 21
134.2939600991
  0
LINE
  5
2FF
100
AcDbEntity
  8
0
100
AcDbLine
 62
250
  6
CONTINUOUS
 10
179.9871398749
 20
134.2939600991
 11
179.6302338749
 21
135.5439500991
  0
LINE
  5
300
100
AcDbEntity
  8
0
100
AcDbLine
 62
7
  6
CONTINUOUS
 10
194.6999408749
 20
80.3875380991
 11
194.1662668749
 21
82.3146600991
  0
LINE
  5
301
100
AcDbEntity
  8
ASSI
100
AcDbLine
 62
7
  6
CONTINUOUS
 10
194.6999408749
 20
80.3875380991
 11
194.1662668749
 21
82.3146600991
  0
LINE
  5
302
100
AcDbEntity
  8
0
100
AcDbLine
 62
250
  6
CONTINUOUS
 10
180.1319528749
 20
136.6153690991
 11
180.1746138749
 21
136.4368000991
  0
LINE
  5
303
100
AcDbEntity
  8
0
100
AcDbLine
 62
250
  6
CONTINUOUS
 10
180.4816528749
 20
136.6153690991
 11
180.5243138749
 21
136.4368000991
  0
LINE
  5
304
100
AcDbEntity
  8
RACCORDO
100
AcDbLine
 62
250
  6
CONTINUOUS
 10
269.4816110068
 20
137.5275500837
 11
269.3167439939
 21
137.499804348
  0
LINE
  5
305
100
AcDbEntity
  8
ASSI
100
AcDbLine
 62
250
  6
CONTINUOUS
 10
269.4816110068
 20
137.5275500837
 11
269.3167439939
 21
137.499804348
  0
LINE
  5
306
100
AcDbEntity
  8
0
100
AcDbLine
 62
250
  6
CONTINUOUS
 10
166.9224868749
 20
136.8534630991
 11
166.7049768749
 21
137.0320330991
  0
LINE
  5
307
100
AcDbEntity
  8
0
100
AcDbLine
 62
250
  6
CONTINUOUS
 10
166.6154478749
 20
136.6748930991
 11
166.7215988749
 21
136.5558460991
  0
LINE
  5
308
100
AcDbEntity
  8
0
100
AcDbLine
 62
250
  6
CONTINUOUS
 10
170.4068578749
 20
134.7106230991
 11
170.6191598749
 21
134.4725300991
  0
LINE
  5
309
100
AcDbEntity
  8
0
100
AcDbLine
 62
250
  6
CONTINUOUS
 10
172.6186228749
 20
136.6748930991
 11
172.4063198749
 21
136.9129860991
  0
LINE
  5
30A
100
AcDbEntity
  8
0
100
AcDbLine
 62
7
  6
CONTINUOUS
 10
202.1834948749
 20
79.5149570991
 11
201.3244768749
 21
82.3146600991
  0
LINE
  5
30B
100
AcDbEntity
  8
ASSI
100
AcDbLine
 62
7
  6
CONTINUOUS
 10
202.1834948749
 20
79.5149570991
 11
201.3244768749
 21
82.3146600991
  0
LINE
  5
30C
100
AcDbEntity
  8
0
100
AcDbLine
 62
7
  6
CONTINUOUS
 10
201.4161608749
 20
80.0738770991
 11
201.5675528749
 21
79.5149570991
  0
LINE
  5
30D
100
AcDbEntity
  8
ASSI
100
AcDbLine
 62
7
  6
CONTINUOUS
 10
201.4161608749
 20
80.0738770991
 11
201.5675528749
 21
79.5149570991
  0
LINE
  5
30E
100
AcDbEntity
  8
0
100
AcDbLine
 62
7
  6
CONTINUOUS
 10
201.0308238749
 20
81.5453730991
 11
201.2993668749
 21
80.5063670991
  0
LINE
  5
30F
100
AcDbEntity
  8
ASSI
100
AcDbLine
 62
7
  6
CONTINUOUS
 10
201.0308238749
 20
81.5453730991
 11
201.2993668749
 21
80.5063670991
  0
LINE
  5
310
100
AcDbEntity
  8
0
100
AcDbLine
 62
250
  6
CONTINUOUS
 10
184.0086838749
 20
134.2939600991
 11
183.3209088749
 21
137.0915560991
  0
LINE
  5
311
100
AcDbEntity
  8
0
100
AcDbLine
 62
250
  6
CONTINUOUS
 10
183.4883418749
 20
135.0082400991
 11
183.6589838749
 21
134.2939600991
  0
LINE
  5
312
100
AcDbEntity
  8
0
100
AcDbLine
 62
250
  6
CONTINUOUS
 10
183.4508898749
 20
135.2463330991
 11
183.0669468749
 21
136.8534630991
  0
LINE
  5
313
100
AcDbEntity
  8
0
100
AcDbLine
 62
7
  6
CONTINUOUS
 10
199.7891988749
 20
79.5149570991
 11
199.5273948749
 21
82.3146600991
  0
LINE
  5
314
100
AcDbEntity
  8
ASSI
100
AcDbLine
 62
7
  6
CONTINUOUS
 10
199.7891988749
 20
79.5149570991
 11
199.5273948749
 21
82.3146600991
  0
LINE
  5
315
100
AcDbEntity
  8
0
100
AcDbLine
 62
7
  6
CONTINUOUS
 10
199.0974238749
 20
81.3354890991
 11
199.2174928749
 21
79.5149570991
  0
LINE
  5
316
100
AcDbEntity
  8
ASSI
100
AcDbLine
 62
7
  6
CONTINUOUS
 10
199.0974238749
 20
81.3354890991
 11
199.2174928749
 21
79.5149570991
  0
LINE
  5
317
100
AcDbEntity
  8
0
100
AcDbLine
 62
7
  6
CONTINUOUS
 10
196.0508018749
 20
82.3148280991
 11
196.0508018749
 21
79.5149570991
  0
LINE
  5
318
100
AcDbEntity
  8
ASSI
100
AcDbLine
 62
7
  6
CONTINUOUS
 10
196.0508018749
 20
82.3148280991
 11
196.0508018749
 21
79.5149570991
  0
LWPOLYLINE
  5
319
100
AcDbEntity
  8
0
100
AcDbPolyline
 62
7
  6
CONTINUOUS
 90
2
 70
0
 43
0.3500000006
 10
196.6065133667
 20
167.1427543945
 10
196.6065133667
 20
168.642763916
  0
LINE
  5
31A
100
AcDbEntity
  8
0
100
AcDbLine
 62
7
  6
CONTINUOUS
 10
196.6352098749
 20
79.5149570991
 11
196.6352098749
 21
82.3148280991
  0
LINE
  5
31B
100
AcDbEntity
  8
ASSI
100
AcDbLine
 62
7
  6
CONTINUOUS
 10
196.6352098749
 20
79.5149570991
 11
196.6352098749
 21
82.3148280991
  0
LWPOLYLINE
  5
31C
100
AcDbEntity
  8
0
100
AcDbPolyline
 62
7
  6
CONTINUOUS
 90
2
 70
0
 43
0.3500000006
 10
198.9636608276
 20
167.1427543945
 10
198.9636608276
 20
168.642763916
  0
LINE
  5
31D
100
AcDbEntity
  8
0
100
AcDbLine
 62
7
  6
CONTINUOUS
 10
202.3551056772
 20
82.2819507581
 11
202.3551056772
 21
79.5149567447
  0
LINE
  5
31E
100
AcDbEntity
  8
ASSI
100
AcDbLine
 62
7
  6
CONTINUOUS
 10
202.3551056772
 20
82.2819507581
 11
202.3551056772
 21
79.5149567447
  0
LINE
  5
31F
100
AcDbEntity
  8
0
100
AcDbLine
 62
7
  6
CONTINUOUS
 10
197.5089038749
 20
79.5149570991
 11
197.6350188749
 21
81.3431110991
  0
LINE
  5
320
100
AcDbEntity
  8
ASSI
100
AcDbLine
 62
7
  6
CONTINUOUS
 10
197.5089038749
 20
79.5149570991
 11
197.6350188749
 21
81.3431110991
  0
LINE
  5
321
100
AcDbEntity
  8
0
100
AcDbLine
 62
7
  6
CONTINUOUS
 10
197.2026118749
 20
82.3146600991
 11
196.9498148749
 21
79.5149570991
  0
LINE
  5
322
100
AcDbEntity
  8
ASSI
100
AcDbLine
 62
7
  6
CONTINUOUS
 10
197.2026118749
 20
82.3146600991
 11
196.9498148749
 21
79.5149570991
  0
LINE
  5
323
100
AcDbEntity
  8
0
100
AcDbLine
 62
7
  6
CONTINUOUS
 10
195.2499178749
 20
82.3146600991
 11
194.6999408749
 21
80.3875380991
  0
LINE
  5
324
100
AcDbEntity
  8
ASSI
100
AcDbLine
 62
7
  6
CONTINUOUS
 10
195.2499178749
 20
82.3146600991
 11
194.6999408749
 21
80.3875380991
  0
LINE
  5
325
100
AcDbEntity
  8
RACCORDO
100
AcDbLine
 62
250
  6
CONTINUOUS
 10
270.0183621556
 20
133.5275500837
 11
269.8398495563
 21
133.5095059765
  0
LINE
  5
326
100
AcDbEntity
  8
ASSI
100
AcDbLine
 62
250
  6
CONTINUOUS
 10
270.0183621556
 20
133.5275500837
 11
269.8398495563
 21
133.5095059765
  0
LINE
  5
327
100
AcDbEntity
  8
0
100
AcDbLine
 62
250
  6
CONTINUOUS
 10
153.9350868749
 20
130.0927580991
 11
153.8152570832
 21
130.0927226693
  0
LINE
  5
328
100
AcDbEntity
  8
ASSI
100
AcDbLine
 62
250
  6
CONTINUOUS
 10
153.9350868749
 20
130.0927580991
 11
153.8152570832
 21
130.0927226693
  0
LINE
  5
329
100
AcDbEntity
  8
0
100
AcDbLine
 62
250
  6
CONTINUOUS
 10
244.1350868749
 20
130.0927580991
 11
244.2549118936
 21
130.0927482741
  0
LINE
  5
32A
100
AcDbEntity
  8
ASSI
100
AcDbLine
 62
250
  6
CONTINUOUS
 10
244.1350868749
 20
130.0927580991
 11
244.2549118936
 21
130.0927482741
  0
LINE
  5
32B
100
AcDbEntity
  8
RACCORDO
100
AcDbLine
 62
250
  6
CONTINUOUS
 10
128.0518115941
 20
133.5275500837
 11
128.230324062
 21
133.5095046569
  0
LINE
  5
32C
100
AcDbEntity
  8
ASSI
100
AcDbLine
 62
250
  6
CONTINUOUS
 10
128.0518115941
 20
133.5275500837
 11
128.230324062
 21
133.5095046569
  0
LINE
  5
32D
100
AcDbEntity
  8
RACCORDO
100
AcDbLine
 62
250
  6
CONTINUOUS
 10
128.5885627429
 20
137.5275500837
 11
128.7534273289
 21
137.4997896628
  0
LINE
  5
32E
100
AcDbEntity
  8
ASSI
100
AcDbLine
 62
250
  6
CONTINUOUS
 10
128.5885627429
 20
137.5275500837
 11
128.7534273289
 21
137.4997896628
  0
LINE
  5
32F
100
AcDbEntity
  8
0
100
AcDbLine
 62
250
  6
CONTINUOUS
 10
166.5112958749
 20
135.4844260991
 11
166.3416538749
 21
135.5439500991
  0
LINE
  5
330
100
AcDbEntity
  8
0
100
AcDbLine
 62
250
  6
CONTINUOUS
 10
166.4458058749
 20
136.7344160991
 11
166.6154478749
 21
136.6748930991
  0
LINE
  5
331
100
AcDbEntity
  8
0
100
AcDbLine
 62
250
  6
CONTINUOUS
 10
166.8183348749
 20
135.6629960991
 11
166.7069758749
 21
135.7225200991
  0
LINE
  5
332
100
AcDbEntity
  8
0
100
AcDbLine
 62
250
  6
CONTINUOUS
 10
170.6191598749
 20
134.4725300991
 11
170.8418778749
 21
134.3534830991
  0
LINE
  5
333
100
AcDbEntity
  8
0
100
AcDbLine
 62
250
  6
CONTINUOUS
 10
172.4063198749
 20
136.9129860991
 11
172.1836018749
 21
137.0320330991
  0
LINE
  5
334
100
AcDbEntity
  8
0
100
AcDbLine
 62
250
  6
CONTINUOUS
 10
170.9314068749
 20
134.7106230991
 11
170.7669718749
 21
134.8296700991
  0
LINE
  5
335
100
AcDbEntity
  8
0
100
AcDbLine
 62
250
  6
CONTINUOUS
 10
172.0940738749
 20
136.6748930991
 11
172.2585078749
 21
136.5558460991
  0
LINE
  5
336
100
AcDbEntity
  8
0
100
AcDbLine
 62
250
  6
CONTINUOUS
 10
180.1101238749
 20
137.0320330991
 11
180.3276328749
 21
136.8534630991
  0
LINE
  5
337
100
AcDbEntity
  8
0
100
AcDbLine
 62
250
  6
CONTINUOUS
 10
180.0258018749
 20
136.7344160991
 11
180.1319528749
 21
136.6153690991
  0
LINE
  5
338
100
AcDbEntity
  8
0
100
AcDbLine
 62
250
  6
CONTINUOUS
 10
180.3276328749
 20
136.8534630991
 11
180.4816528749
 21
136.6153690991
  0
LINE
  5
339
100
AcDbEntity
  8
0
100
AcDbLine
 62
7
  6
CONTINUOUS
 10
202.9177841289
 20
81.0691300125
 11
202.9177841289
 21
81.8377033032
  0
LINE
  5
33A
100
AcDbEntity
  8
ASSI
100
AcDbLine
 62
7
  6
CONTINUOUS
 10
202.9177841289
 20
81.0691300125
 11
202.9177841289
 21
81.8377033032
  0
LINE
  5
33B
100
AcDbEntity
  8
0
100
AcDbLine
 62
7
  6
CONTINUOUS
 10
202.9371622197
 20
79.5149567447
 11
202.9371622197
 21
80.6106061743
  0
LINE
  5
33C
100
AcDbEntity
  8
ASSI
100
AcDbLine
 62
7
  6
CONTINUOUS
 10
202.9371622197
 20
79.5149567447
 11
202.9371622197
 21
80.6106061743
  0
LINE
  5
33D
100
AcDbEntity
  8
0
100
AcDbLine
 62
7
  6
CONTINUOUS
 10
203.8575900397
 20
80.8218336622
 11
203.8575900397
 21
80.8383774711
  0
LINE
  5
33E
100
AcDbEntity
  8
ASSI
100
AcDbLine
 62
7
  6
CONTINUOUS
 10
203.8575900397
 20
80.8218336622
 11
203.8575900397
 21
80.8383774711
  0
LINE
  5
33F
100
AcDbEntity
  8
0
100
AcDbLine
 62
7
  6
CONTINUOUS
 10
200.7398378749
 20
80.5063670991
 11
201.0308238749
 21
81.5453730991
  0
LINE
  5
340
100
AcDbEntity
  8
ASSI
100
AcDbLine
 62
7
  6
CONTINUOUS
 10
200.7398378749
 20
80.5063670991
 11
201.0308238749
 21
81.5453730991
  0
LINE
  5
341
100
AcDbEntity
  8
0
100
AcDbLine
 62
7
  6
CONTINUOUS
 10
200.4590338749
 20
79.5149570991
 11
200.6202938749
 21
80.0738770991
  0
LINE
  5
342
100
AcDbEntity
  8
ASSI
100
AcDbLine
 62
7
  6
CONTINUOUS
 10
200.4590338749
 20
79.5149570991
 11
200.6202938749
 21
80.0738770991
  0
LINE
  5
343
100
AcDbEntity
  8
0
100
AcDbLine
 62
7
  6
CONTINUOUS
 10
200.7591318749
 20
82.3146600991
 11
199.8809668749
 21
79.5149570991
  0
LINE
  5
344
100
AcDbEntity
  8
ASSI
100
AcDbLine
 62
7
  6
CONTINUOUS
 10
200.7591318749
 20
82.3146600991
 11
199.8809668749
 21
79.5149570991
  0
LINE
  5
345
100
AcDbEntity
  8
0
100
AcDbLine
 62
7
  6
CONTINUOUS
 10
194.9339898749
 20
79.5149570991
 11
195.8339268749
 21
82.3146600991
  0
LINE
  5
346
100
AcDbEntity
  8
ASSI
100
AcDbLine
 62
7
  6
CONTINUOUS
 10
194.9339898749
 20
79.5149570991
 11
195.8339268749
 21
82.3146600991
  0
LINE
  5
347
100
AcDbEntity
  8
0
100
AcDbLine
 62
7
  6
CONTINUOUS
 10
198.9491808749
 20
82.3146600991
 11
198.3647728749
 21
80.7602560991
  0
LINE
  5
348
100
AcDbEntity
  8
ASSI
100
AcDbLine
 62
7
  6
CONTINUOUS
 10
198.9491808749
 20
82.3146600991
 11
198.3647728749
 21
80.7602560991
  0
LINE
  5
349
100
AcDbEntity
  8
0
100
AcDbLine
 62
7
  6
CONTINUOUS
 10
198.4025628749
 20
79.5149570991
 11
199.0974238749
 21
81.3354890991
  0
LINE
  5
34A
100
AcDbEntity
  8
ASSI
100
AcDbLine
 62
7
  6
CONTINUOUS
 10
198.4025628749
 20
79.5149570991
 11
199.0974238749
 21
81.3354890991
  0
LINE
  5
34B
100
AcDbEntity
  8
0
100
AcDbLine
 62
250
  6
CONTINUOUS
 10
171.9222218749
 20
134.7106230991
 11
171.6838808749
 21
134.6511000991
  0
LINE
  5
34C
100
AcDbEntity
  8
0
100
AcDbLine
 62
250
  6
CONTINUOUS
 10
171.6526358749
 20
134.2939600991
 11
171.9492598749
 21
134.3534830991
  0
LINE
  5
34D
100
AcDbEntity
  8
0
100
AcDbLine
 62
250
  6
CONTINUOUS
 10
166.1740108749
 20
134.2939600991
 11
166.4706338749
 21
134.3534830991
  0
LINE
  5
34E
100
AcDbEntity
  8
0
100
AcDbLine
 62
7
  6
CONTINUOUS
 10
243.3350868749
 20
130.8927580991
 11
154.7350868749
 21
130.8927580991
  0
LINE
  5
34F
100
AcDbEntity
  8
ASSI
100
AcDbLine
 62
7
  6
CONTINUOUS
 10
243.3350868749
 20
130.8927580991
 11
154.7350868749
 21
130.8927580991
  0
LINE
  5
350
100
AcDbEntity
  8
RACCORDO
100
AcDbLine
 62
250
  6
CONTINUOUS
 10
154.7350813596
 20
131.0107943329
 11
243.3350833288
 21
131.0107943329
  0
LINE
  5
351
100
AcDbEntity
  8
ASSI
100
AcDbLine
 62
250
  6
CONTINUOUS
 10
154.7350813596
 20
131.0107943329
 11
243.3350833288
 21
131.0107943329
  0
LINE
  5
352
100
AcDbEntity
  8
RACCORDO
100
AcDbLine
 62
250
  6
CONTINUOUS
 10
155.7479841009
 20
131.2235302256
 11
242.3221896216
 21
131.2235302256
  0
LINE
  5
353
100
AcDbEntity
  8
ASSI
100
AcDbLine
 62
250
  6
CONTINUOUS
 10
155.7479841009
 20
131.2235302256
 11
242.3221896216
 21
131.2235302256
  0
LINE
  5
354
100
AcDbEntity
  8
RACCORDO
100
AcDbLine
 62
250
  6
CONTINUOUS
 10
173.2299458591
 20
132.0926688857
 11
128.3688311392
 21
132.0926468857
  0
LINE
  5
355
100
AcDbEntity
  8
ASSI
100
AcDbLine
 62
250
  6
CONTINUOUS
 10
173.2299458591
 20
132.0926688857
 11
128.3688311392
 21
132.0926468857
  0
LINE
  5
356
100
AcDbEntity
  8
RACCORDO
100
AcDbLine
 62
250
  6
CONTINUOUS
 10
224.8402278906
 20
132.0926688857
 11
269.7013426174
 21
132.0926468124
  0
LINE
  5
357
100
AcDbEntity
  8
ASSI
100
AcDbLine
 62
250
  6
CONTINUOUS
 10
224.8402278906
 20
132.0926688857
 11
269.7013426174
 21
132.0926468124
  0
LINE
  5
358
100
AcDbEntity
  8
0
100
AcDbLine
 62
250
  6
CONTINUOUS
 10
152.4358168749
 20
133.6944750991
 11
154.1343568781
 21
133.6944750991
  0
LINE
  5
359
100
AcDbEntity
  8
0
100
AcDbLine
 62
250
  6
CONTINUOUS
 10
152.5357308749
 20
133.7943890991
 11
154.0344428738
 21
133.7943890991
  0
LINE
  5
35A
100
AcDbEntity
  8
0
100
AcDbLine
 62
250
  6
CONTINUOUS
 10
152.6356448749
 20
133.8943040991
 11
153.9345288816
 21
133.8943040991
  0
LINE
  5
35B
100
AcDbEntity
  8
0
100
AcDbLine
 62
250
  6
CONTINUOUS
 10
180.3951228749
 20
134.2939600991
 11
179.9871398681
 21
134.2939600991
  0
LINE
  5
35C
100
AcDbEntity
  8
0
100
AcDbLine
 62
250
  6
CONTINUOUS
 10
178.5300578749
 20
134.2939600991
 11
178.1803588728
 21
134.2939600991
  0
LINE
  5
35D
100
AcDbEntity
  8
0
100
AcDbLine
 62
250
  6
CONTINUOUS
 10
164.7752128749
 20
134.2939600991
 11
166.1740108261
 21
134.2939600991
  0
LINE
  5
35E
100
AcDbEntity
  8
0
100
AcDbLine
 62
250
  6
CONTINUOUS
 10
167.3979588749
 20
134.2939600991
 11
167.747657884
 21
134.2939600991
  0
LINE
  5
35F
100
AcDbEntity
  8
0
100
AcDbLine
 62
250
  6
CONTINUOUS
 10
169.3795888749
 20
134.2939600991
 11
169.7292888827
 21
134.2939600991
  0
LINE
  5
360
100
AcDbEntity
  8
0
100
AcDbLine
 62
250
  6
CONTINUOUS
 10
171.1280858749
 20
134.2939600991
 11
171.6526358696
 21
134.2939600991
  0
LINE
  5
361
100
AcDbEntity
  8
0
100
AcDbLine
 62
250
  6
CONTINUOUS
 10
173.8673988749
 20
134.2939600991
 11
174.217098887
 21
134.2939600991
  0
LINE
  5
362
100
AcDbEntity
  8
0
100
AcDbLine
 62
250
  6
CONTINUOUS
 10
175.6158958749
 20
134.2939600991
 11
177.7140927934
 21
134.2939600991
  0
LINE
  5
363
100
AcDbEntity
  8
0
100
AcDbLine
 62
250
  6
CONTINUOUS
 10
180.8613888749
 20
134.2939600991
 11
181.2110878779
 21
134.2939600991
  0
LINE
  5
364
100
AcDbEntity
  8
0
100
AcDbLine
 62
250
  6
CONTINUOUS
 10
181.6773538749
 20
134.2939600991
 11
182.0270528627
 21
134.2939600991
  0
LINE
  5
365
100
AcDbEntity
  8
0
100
AcDbLine
 62
250
  6
CONTINUOUS
 10
183.6589838749
 20
134.2939600991
 11
184.0086838775
 21
134.2939600991
  0
LINE
  5
366
100
AcDbEntity
  8
0
100
AcDbLine
 62
250
  6
CONTINUOUS
 10
184.4749488749
 20
134.2939600991
 11
186.5731459653
 21
134.2939600991
  0
LINE
  5
367
100
AcDbEntity
  8
0
100
AcDbLine
 62
250
  6
CONTINUOUS
 10
186.6043918749
 20
134.6511000991
 11
184.8558948686
 21
134.6511000991
  0
LINE
  5
368
100
AcDbEntity
  8
0
100
AcDbLine
 62
250
  6
CONTINUOUS
 10
177.7453388749
 20
134.6511000991
 11
175.9968418883
 21
134.6511000991
  0
LINE
  5
369
100
AcDbEntity
  8
0
100
AcDbLine
 62
250
  6
CONTINUOUS
 10
171.6838808749
 20
134.6511000991
 11
171.1593318793
 21
134.6511000991
  0
LINE
  5
36A
100
AcDbEntity
  8
0
100
AcDbLine
 62
250
  6
CONTINUOUS
 10
165.1561578749
 20
134.6511000991
 11
166.2635388599
 21
134.6511000991
  0
LINE
  5
36B
100
AcDbEntity
  8
0
100
AcDbLine
 62
250
  6
CONTINUOUS
 10
151.2868038749
 20
134.8434880991
 11
152.4358168809
 21
134.8434880991
  0
LINE
  5
36C
100
AcDbEntity
  8
0
100
AcDbLine
 62
250
  6
CONTINUOUS
 10
154.1343568749
 20
134.8434880991
 11
155.2833698351
 21
134.8434880991
  0
LINE
  5
36D
100
AcDbEntity
  8
0
100
AcDbLine
 62
250
  6
CONTINUOUS
 10
151.3867178749
 20
134.9434020991
 11
152.5357308407
 21
134.9434020991
  0
LINE
  5
36E
100
AcDbEntity
  8
0
100
AcDbLine
 62
250
  6
CONTINUOUS
 10
154.0344428749
 20
134.9434020991
 11
155.1834558402
 21
134.9434020991
  0
LINE
  5
36F
100
AcDbEntity
  8
0
100
AcDbLine
 62
250
  6
CONTINUOUS
 10
172.5310928749
 20
135.0082400991
 11
172.1813928777
 21
135.0082400991
  0
LINE
  5
370
100
AcDbEntity
  8
0
100
AcDbLine
 62
250
  6
CONTINUOUS
 10
168.0432828749
 20
135.0082400991
 11
169.2089478249
 21
135.0082400991
  0
LINE
  5
371
100
AcDbEntity
  8
0
100
AcDbLine
 62
250
  6
CONTINUOUS
 10
182.3226778749
 20
135.0082400991
 11
183.4883418565
 21
135.0082400991
  0
LINE
  5
372
100
AcDbEntity
  8
0
100
AcDbLine
 62
250
  6
CONTINUOUS
 10
151.4866328749
 20
135.0433160991
 11
152.6356448697
 21
135.0433160991
  0
LINE
  5
373
100
AcDbEntity
  8
0
100
AcDbLine
 62
250
  6
CONTINUOUS
 10
153.9345288749
 20
135.0433160991
 11
155.0835408265
 21
135.0433160991
  0
LINE
  5
374
100
AcDbEntity
  8
0
100
AcDbLine
 62
250
  6
CONTINUOUS
 10
157.6146998749
 20
135.0932730991
 11
156.5489488778
 21
135.0932730991
  0
LINE
  5
375
100
AcDbEntity
  8
0
100
AcDbLine
 62
250
  6
CONTINUOUS
 10
168.1223958749
 20
135.2463330991
 11
169.171494927
 21
135.2463330991
  0
LINE
  5
376
100
AcDbEntity
  8
0
100
AcDbLine
 62
250
  6
CONTINUOUS
 10
182.4017918749
 20
135.2463330991
 11
183.4508898598
 21
135.2463330991
  0
LINE
  5
377
100
AcDbEntity
  8
0
100
AcDbLine
 62
250
  6
CONTINUOUS
 10
179.6302338749
 20
135.5439500991
 11
178.6394178696
 21
135.5439500991
  0
LINE
  5
378
100
AcDbEntity
  8
0
100
AcDbLine
 62
250
  6
CONTINUOUS
 10
166.3416538749
 20
135.5439500991
 11
165.2342718817
 21
135.5439500991
  0
LINE
  5
379
100
AcDbEntity
  8
0
100
AcDbLine
 62
250
  6
CONTINUOUS
 10
176.0801628749
 20
135.6034730991
 11
177.5955268719
 21
135.6034730991
  0
LINE
  5
37A
100
AcDbEntity
  8
0
100
AcDbLine
 62
250
  6
CONTINUOUS
 10
179.7780458749
 20
135.9010900991
 11
178.6706639207
 21
135.9010900991
  0
LINE
  5
37B
100
AcDbEntity
  8
0
100
AcDbLine
 62
250
  6
CONTINUOUS
 10
166.3728988749
 20
135.9010900991
 11
165.2655178865
 21
135.9010900991
  0
LINE
  5
37C
100
AcDbEntity
  8
0
100
AcDbLine
 62
250
  6
CONTINUOUS
 10
177.6267728749
 20
135.9606130991
 11
176.1114088631
 21
135.9606130991
  0
LINE
  5
37D
100
AcDbEntity
  8
0
100
AcDbLine
 62
250
  6
CONTINUOUS
 10
155.0835408749
 20
136.3422000991
 11
153.9345288761
 21
136.3422000991
  0
LINE
  5
37E
100
AcDbEntity
  8
0
100
AcDbLine
 62
250
  6
CONTINUOUS
 10
152.6356448749
 20
136.3422000991
 11
151.4866328352
 21
136.3422000991
  0
LINE
  5
37F
100
AcDbEntity
  8
0
100
AcDbLine
 62
250
  6
CONTINUOUS
 10
172.3011678749
 20
136.3772760991
 11
172.650867876
 21
136.3772760991
  0
LINE
  5
380
100
AcDbEntity
  8
0
100
AcDbLine
 62
250
  6
CONTINUOUS
 10
155.1834558749
 20
136.4421140991
 11
154.0344428303
 21
136.4421140991
  0
LINE
  5
381
100
AcDbEntity
  8
0
100
AcDbLine
 62
250
  6
CONTINUOUS
 10
152.5357308749
 20
136.4421140991
 11
151.3867179027
 21
136.4421140991
  0
LINE
  5
382
100
AcDbEntity
  8
0
100
AcDbLine
 62
250
  6
CONTINUOUS
 10
155.2833698749
 20
136.5420280991
 11
154.1343569114
 21
136.5420280991
  0
LINE
  5
383
100
AcDbEntity
  8
0
100
AcDbLine
 62
250
  6
CONTINUOUS
 10
152.4358168749
 20
136.5420280991
 11
151.286803903
 21
136.5420280991
  0
LINE
  5
384
100
AcDbEntity
  8
0
100
AcDbLine
 62
250
  6
CONTINUOUS
 10
165.3384238749
 20
136.7344160991
 11
166.445805865
 21
136.7344160991
  0
LINE
  5
385
100
AcDbEntity
  8
0
100
AcDbLine
 62
250
  6
CONTINUOUS
 10
171.3415988749
 20
136.7344160991
 11
171.8661478814
 21
136.7344160991
  0
LINE
  5
386
100
AcDbEntity
  8
0
100
AcDbLine
 62
250
  6
CONTINUOUS
 10
176.1791078749
 20
136.7344160991
 11
177.9276058579
 21
136.7344160991
  0
LINE
  5
387
100
AcDbEntity
  8
0
100
AcDbLine
 62
250
  6
CONTINUOUS
 10
173.1535868749
 20
136.7939390991
 11
174.0861189125
 21
136.7939390991
  0
LINE
  5
388
100
AcDbEntity
  8
0
100
AcDbLine
 62
250
  6
CONTINUOUS
 10
174.4358178749
 20
136.7939390991
 11
175.368349899
 21
136.7939390991
  0
LINE
  5
389
100
AcDbEntity
  8
0
100
AcDbLine
 62
250
  6
CONTINUOUS
 10
178.7487778749
 20
136.7939390991
 11
179.8561598651
 21
136.7939390991
  0
LINE
  5
38A
100
AcDbEntity
  8
0
100
AcDbLine
 62
250
  6
CONTINUOUS
 10
185.0694068749
 20
137.0915560991
 11
184.719706886
 21
137.0915560991
  0
LINE
  5
38B
100
AcDbEntity
  8
0
100
AcDbLine
 62
250
  6
CONTINUOUS
 10
183.3209088749
 20
137.0915560991
 11
182.8546438571
 21
137.0915560991
  0
LINE
  5
38C
100
AcDbEntity
  8
0
100
AcDbLine
 62
250
  6
CONTINUOUS
 10
181.4558458749
 20
137.0915560991
 11
181.1061468777
 21
137.0915560991
  0
LINE
  5
38D
100
AcDbEntity
  8
0
100
AcDbLine
 62
250
  6
CONTINUOUS
 10
177.9588508749
 20
137.0915560991
 11
175.8606539031
 21
137.0915560991
  0
LINE
  5
38E
100
AcDbEntity
  8
0
100
AcDbLine
 62
250
  6
CONTINUOUS
 10
175.3943878749
 20
137.0915560991
 11
173.1796248567
 21
137.0915560991
  0
LINE
  5
38F
100
AcDbEntity
  8
0
100
AcDbLine
 62
250
  6
CONTINUOUS
 10
171.8973928749
 20
137.0915560991
 11
171.3728438697
 21
137.0915560991
  0
LINE
  5
390
100
AcDbEntity
  8
0
100
AcDbLine
 62
250
  6
CONTINUOUS
 10
169.0415148749
 20
137.0915560991
 11
168.5752488595
 21
137.0915560991
  0
LINE
  5
391
100
AcDbEntity
  8
0
100
AcDbLine
 62
250
  6
CONTINUOUS
 10
166.4187688749
 20
137.0915560991
 11
165.0199708697
 21
137.0915560991
  0
LINE
  5
392
100
AcDbEntity
  8
0
100
AcDbLine
 62
250
  6
CONTINUOUS
 10
162.4771868749
 20
137.0915560991
 11
160.8785618576
 21
137.0915560991
  0
LINE
  5
393
100
AcDbEntity
  8
0
100
AcDbLine
 62
250
  6
CONTINUOUS
 10
178.4251168749
 20
137.0915560991
 11
179.8239148649
 21
137.0915560991
  0
LINE
  5
394
100
AcDbEntity
  8
0
100
AcDbLine
 62
250
  6
CONTINUOUS
 10
153.9345288749
 20
137.4912120991
 11
152.6356448592
 21
137.4912120991
  0
LINE
  5
395
100
AcDbEntity
  8
0
100
AcDbLine
 62
250
  6
CONTINUOUS
 10
154.0344428749
 20
137.5911270991
 11
152.5357308302
 21
137.5911270991
  0
LINE
  5
396
100
AcDbEntity
  8
0
100
AcDbLine
 62
250
  6
CONTINUOUS
 10
154.1343568749
 20
137.6910410991
 11
152.4358168428
 21
137.6910410991
  0
LINE
  5
397
100
AcDbEntity
  8
0
100
AcDbLine
 62
250
  6
CONTINUOUS
 10
170.8418778749
 20
134.3534830991
 11
171.1280858749
 21
134.2939600991
  0
LINE
  5
398
100
AcDbEntity
  8
0
100
AcDbLine
 62
250
  6
CONTINUOUS
 10
166.7049768749
 20
137.0320330991
 11
166.4187688749
 21
137.0915560991
  0
LINE
  5
399
100
AcDbEntity
  8
0
100
AcDbLine
 62
250
  6
CONTINUOUS
 10
172.1836018749
 20
137.0320330991
 11
171.8973928749
 21
137.0915560991
  0
LINE
  5
39A
100
AcDbEntity
  8
0
100
AcDbLine
 62
250
  6
CONTINUOUS
 10
179.8239148749
 20
137.0915560991
 11
180.1101238749
 21
137.0320330991
  0
LINE
  5
39B
100
AcDbEntity
  8
0
100
AcDbLine
 62
250
  6
CONTINUOUS
 10
171.1593318749
 20
134.6511000991
 11
170.9314068749
 21
134.7106230991
  0
LINE
  5
39C
100
AcDbEntity
  8
0
100
AcDbLine
 62
250
  6
CONTINUOUS
 10
171.8661478749
 20
136.7344160991
 11
172.0940738749
 21
136.6748930991
  0
LINE
  5
39D
100
AcDbEntity
  8
0
100
AcDbLine
 62
250
  6
CONTINUOUS
 10
179.8561598749
 20
136.7939390991
 11
180.0258018749
 21
136.7344160991
  0
LINE
  5
39E
100
AcDbEntity
  8
0
100
AcDbLine
 62
250
  6
CONTINUOUS
 10
171.1032578749
 20
136.6748930991
 11
171.3415988749
 21
136.7344160991
  0
LINE
  5
39F
100
AcDbEntity
  8
0
100
AcDbLine
 62
250
  6
CONTINUOUS
 10
171.3728438749
 20
137.0915560991
 11
171.0762208749
 21
137.0320330991
  0
LWPOLYLINE
  5
3A0
100
AcDbEntity
  8
0
100
AcDbPolyline
 62
7
  6
CONTINUOUS
 90
10
 70
0
 43
0.3500000006
 10
200.963661438
 20
167.6427636108
 10
201.0350835571
 20
167.4999012451
 10
201.0350835571
 20
167.428479126
 10
200.8922211914
 20
167.2856167603
 10
200.8207990723
 20
167.2856167603
 10
200.7493769531
 20
167.3570388794
 10
200.7493769531
 20
167.428479126
 10
200.8207990723
 20
167.5713233643
 10
200.8922211914
 20
167.6427636108
 10
200.963661438
 20
167.6427636108
  0
LINE
  5
3A1
100
AcDbEntity
  8
RACCORDO
100
AcDbLine
 62
250
  6
CONTINUOUS
 10
243.3350869284
 20
131.209099017
 11
243.3350868749
 21
131.0107943329
  0
LINE
  5
3A2
100
AcDbEntity
  8
RACCORDO
100
AcDbLine
 62
250
  6
CONTINUOUS
 10
243.3350868747
 20
85.5764171804
 11
243.3350868749
 21
85.7747218652
  0
LINE
  5
3A3
100
AcDbEntity
  8
0
100
AcDbLine
 62
250
  6
CONTINUOUS
 10
243.3350868749
 20
130.8927580991
 11
243.3350833288
 21
131.0107943329
  0
LINE
  5
3A4
100
AcDbEntity
  8
ASSI
100
AcDbLine
 62
250
  6
CONTINUOUS
 10
243.3350868749
 20
130.8927580991
 11
243.3350869284
 21
131.209099017
  0
LINE
  5
3A5
100
AcDbEntity
  8
0
100
AcDbLine
 62
7
  6
CONTINUOUS
 10
244.1350868749
 20
130.0927580991
 11
244.1350868749
 21
86.6927580991
  0
LINE
  5
3A6
100
AcDbEntity
  8
ASSI
100
AcDbLine
 62
7
  6
CONTINUOUS
 10
244.1350868749
 20
130.0927580991
 11
244.1350868749
 21
86.6927580991
  0
LINE
  5
3A7
100
AcDbEntity
  8
0
100
AcDbLine
 62
250
  6
CONTINUOUS
 10
243.3350868749
 20
85.8927580991
 11
243.3350705983
 21
85.7747218652
  0
LINE
  5
3A8
100
AcDbEntity
  8
ASSI
100
AcDbLine
 62
250
  6
CONTINUOUS
 10
243.3350868749
 20
85.8927580991
 11
243.3350868747
 21
85.5764171804
  0
LWPOLYLINE
  5
3A9
100
AcDbEntity
  8
0
100
AcDbPolyline
 62
7
  6
CONTINUOUS
 90
8
 70
0
 43
0.3500000006
 10
202.0350838623
 20
167.1427543945
 10
202.8922218018
 20
167.1427543945
 10
203.3208088989
 20
167.5713233643
 10
203.3208088989
 20
168.4284794312
 10
202.8922218018
 20
168.8570484009
 10
202.0350838623
 20
168.8570484009
 10
202.0350838623
 20
170.1427553101
 10
203.3208088989
 20
170.1427553101
  0
LWPOLYLINE
  5
3AA
100
AcDbEntity
  8
0
100
AcDbPolyline
 62
7
  6
CONTINUOUS
 90
3
 70
0
 43
0.3500000006
 10
199.4636519165
 20
167.7856078491
 10
197.9636605225
 20
167.7856078491
 10
198.6065139771
 20
170.1427553101
  0
LWPOLYLINE
  5
3AB
100
AcDbEntity
  8
0
100
AcDbPolyline
 62
7
  6
CONTINUOUS
 90
3
 70
0
 43
0.3500000006
 10
197.106522583
 20
167.7856078491
 10
195.6065130615
 20
167.7856078491
 10
196.2493665161
 20
170.1427553101
  0
LINE
  5
3AC
100
AcDbEntity
  8
RACCORDO
100
AcDbLine
 62
250
  6
CONTINUOUS
 10
254.4085603897
 20
65.1527580991
 11
254.3959968141
 21
65.2773051372
  0
LINE
  5
3AD
100
AcDbEntity
  8
ASSI
100
AcDbLine
 62
250
  6
CONTINUOUS
 10
254.4085603897
 20
65.1527580991
 11
254.3959968141
 21
65.2773051372
  0
LINE
  5
3AE
100
AcDbEntity
  8
RACCORDO
100
AcDbLine
 62
250
  6
CONTINUOUS
 10
249.4085603897
 20
64.7662971265
 11
249.4013216504
 21
64.8988998991
  0
LINE
  5
3AF
100
AcDbEntity
  8
ASSI
100
AcDbLine
 62
250
  6
CONTINUOUS
 10
249.4085603897
 20
64.7662971265
 11
249.4013216504
 21
64.8988998991
  0
LINE
  5
3B0
100
AcDbEntity
  8
RACCORDO
100
AcDbLine
 62
250
  6
CONTINUOUS
 10
249.4085603897
 20
152.0192190717
 11
249.4013211658
 21
151.8866163251
  0
LINE
  5
3B1
100
AcDbEntity
  8
ASSI
100
AcDbLine
 62
250
  6
CONTINUOUS
 10
249.4085603897
 20
152.0192190717
 11
249.4013211658
 21
151.8866163251
  0
LINE
  5
3B2
100
AcDbEntity
  8
RACCORDO
100
AcDbLine
 62
250
  6
CONTINUOUS
 10
254.4085603897
 20
151.6327580991
 11
254.3959828911
 21
151.508212401
  0
LINE
  5
3B3
100
AcDbEntity
  8
ASSI
100
AcDbLine
 62
250
  6
CONTINUOUS
 10
254.4085603897
 20
151.6327580991
 11
254.3959828911
 21
151.508212401
  0
LWPOLYLINE
  5
3B4
100
AcDbEntity
  8
0
100
AcDbPolyline
 62
7
  6
CONTINUOUS
 90
10
 70
0
 43
0.3500000006
 10
282.4850857544
 20
106.4641896973
 10
281.6279478149
 20
107.3213276367
 10
280.7708098755
 20
107.5356121216
 10
279.9136538086
 20
107.5356121216
 10
279.4850848389
 20
107.1070431519
 10
279.4850848389
 20
106.4641896973
 10
279.9136538086
 20
106.0356116638
 10
280.7708098755
 20
106.0356116638
 10
281.1993788452
 20
106.4641896973
 10
281.1993788452
 20
107.3927588196
  0
LINE
  5
3B5
100
AcDbEntity
  8
0
100
AcDbLine
 62
7
  6
CONTINUOUS
 10
110.1055487601
 20
63.9265886145
 11
110.4842610309
 21
64.0017274971
  0
LINE
  5
3B6
100
AcDbEntity
  8
ASSI
100
AcDbLine
 62
7
  6
CONTINUOUS
 10
110.1055487601
 20
63.9265886145
 11
110.4842610309
 21
64.0017274971
  0
LINE
  5
3B7
100
AcDbEntity
  8
0
100
AcDbLine
 62
7
  6
CONTINUOUS
 10
109.8240555569
 20
63.8927581521
 11
110.1055487601
 21
63.9265886145
  0
LINE
  5
3B8
100
AcDbEntity
  8
ASSI
100
AcDbLine
 62
7
  6
CONTINUOUS
 10
109.8240555569
 20
63.8927581521
 11
110.1055487601
 21
63.9265886145
  0
LINE
  5
3B9
100
AcDbEntity
  8
0
100
AcDbLine
 62
7
  6
CONTINUOUS
 10
112.6240555569
 20
66.3927580991
 11
112.602239193
 21
66.3927580991
  0
LINE
  5
3BA
100
AcDbEntity
  8
ASSI
100
AcDbLine
 62
7
  6
CONTINUOUS
 10
112.6240555569
 20
66.3927580991
 11
112.602239193
 21
66.3927580991
  0
LINE
  5
3BB
100
AcDbEntity
  8
DRAFT
100
AcDbLine
 62
7
  6
CONTINUOUS
 10
109.8240555569
 20
63.3927580991
 11
106.8420671
 21
63.549037492
  0
LINE
  5
3BC
100
AcDbEntity
  8
ASSI
100
AcDbLine
 62
7
  6
CONTINUOUS
 10
109.8240555569
 20
63.3927580991
 11
106.8420671
 21
63.549037492
  0
LINE
  5
3BD
100
AcDbEntity
  8
RACCORDO
100
AcDbLine
 62
250
  6
CONTINUOUS
 10
109.8240555569
 20
64.7662971265
 11
107.2900766787
 21
64.8988998991
  0
LINE
  5
3BE
100
AcDbEntity
  8
ASSI
100
AcDbLine
 62
250
  6
CONTINUOUS
 10
109.8240555569
 20
64.7662971265
 11
107.2900766787
 21
64.8988998991
  0
LINE
  5
3BF
100
AcDbEntity
  8
RACCORDO
100
AcDbLine
 62
250
  6
CONTINUOUS
 10
109.8240555569
 20
65.1527580991
 11
107.4354966862
 21
65.2773051372
  0
LINE
  5
3C0
100
AcDbEntity
  8
ASSI
100
AcDbLine
 62
250
  6
CONTINUOUS
 10
109.8240555569
 20
65.1527580991
 11
107.4354966862
 21
65.2773051372
  0
LINE
  5
3C1
100
AcDbEntity
  8
0
100
AcDbLine
 62
7
  6
CONTINUOUS
 10
104.3141507766
 20
79.5149567447
 11
104.4646441163
 21
79.5149567447
  0
LINE
  5
3C2
100
AcDbEntity
  8
ASSI
100
AcDbLine
 62
7
  6
CONTINUOUS
 10
104.3141507766
 20
79.5149567447
 11
104.4646441163
 21
79.5149567447
  0
LINE
  5
3C3
100
AcDbEntity
  8
0
100
AcDbLine
 62
250
  6
CONTINUOUS
 10
104.2540246897
 20
80.2726578711
 11
104.4044598346
 21
80.2726578711
  0
LINE
  5
3C4
100
AcDbEntity
  8
ASSI
100
AcDbLine
 62
250
  6
CONTINUOUS
 10
104.2540246897
 20
80.2726578711
 11
104.4044598346
 21
80.2726578711
  0
LINE
  5
3C5
100
AcDbEntity
  8
0
100
AcDbLine
 62
7
  6
CONTINUOUS
 10
104.2122912432
 20
80.8218336622
 11
104.3626864789
 21
80.8218336622
  0
LINE
  5
3C6
100
AcDbEntity
  8
ASSI
100
AcDbLine
 62
7
  6
CONTINUOUS
 10
104.2122912432
 20
80.8218336622
 11
104.3626864789
 21
80.8218336622
  0
LINE
  5
3C7
100
AcDbEntity
  8
0
100
AcDbLine
 62
7
  6
CONTINUOUS
 10
104.2110917208
 20
80.8383774711
 11
104.3614857865
 21
80.8383774711
  0
LINE
  5
3C8
100
AcDbEntity
  8
ASSI
100
AcDbLine
 62
7
  6
CONTINUOUS
 10
104.2110917208
 20
80.8383774711
 11
104.3614857865
 21
80.8383774711
  0
LINE
  5
3C9
100
AcDbEntity
  8
RACCORDO
100
AcDbLine
 62
250
  6
CONTINUOUS
 10
109.8240555569
 20
79.2579661145
 11
106.6339681375
 21
79.2857265354
  0
LINE
  5
3CA
100
AcDbEntity
  8
ASSI
100
AcDbLine
 62
250
  6
CONTINUOUS
 10
109.8240555569
 20
79.2579661145
 11
106.6339681375
 21
79.2857265354
  0
LINE
  5
3CB
100
AcDbEntity
  8
0
100
AcDbLine
 62
250
  6
CONTINUOUS
 10
104.1149905227
 20
82.2524742256
 11
104.2652910508
 21
82.2524742256
  0
LINE
  5
3CC
100
AcDbEntity
  8
ASSI
100
AcDbLine
 62
250
  6
CONTINUOUS
 10
104.1149905227
 20
82.2524742256
 11
104.2652910508
 21
82.2524742256
  0
LINE
  5
3CD
100
AcDbEntity
  8
0
100
AcDbLine
 62
7
  6
CONTINUOUS
 10
104.2576859025
 20
82.3475096183
 11
104.1073913318
 21
82.3475096183
  0
LINE
  5
3CE
100
AcDbEntity
  8
ASSI
100
AcDbLine
 62
7
  6
CONTINUOUS
 10
104.2576859025
 20
82.3475096183
 11
104.1073913318
 21
82.3475096183
  0
LINE
  5
3CF
100
AcDbEntity
  8
RACCORDO
100
AcDbLine
 62
250
  6
CONTINUOUS
 10
104.3028665156
 20
84.6928473125
 11
106.0557885066
 21
84.6928693125
  0
LINE
  5
3D0
100
AcDbEntity
  8
ASSI
100
AcDbLine
 62
250
  6
CONTINUOUS
 10
104.3028665156
 20
84.6928473125
 11
106.0557885066
 21
84.6928693125
  0
LINE
  5
3D1
100
AcDbEntity
  8
RACCORDO
100
AcDbLine
 62
250
  6
CONTINUOUS
 10
109.8240555569
 20
83.2579661145
 11
106.400475356
 21
83.2760115413
  0
LINE
  5
3D2
100
AcDbEntity
  8
ASSI
100
AcDbLine
 62
250
  6
CONTINUOUS
 10
109.8240555569
 20
83.2579661145
 11
106.400475356
 21
83.2760115413
  0
LINE
  5
3D3
100
AcDbEntity
  8
DRAFT
100
AcDbLine
 62
7
  6
CONTINUOUS
 10
110.6240555569
 20
111.8927580991
 11
112.6240555569
 21
112.2454120605
  0
LINE
  5
3D4
100
AcDbEntity
  8
ASSI
100
AcDbLine
 62
7
  6
CONTINUOUS
 10
110.6240555569
 20
111.8927580991
 11
112.6240555569
 21
112.2454120605
  0
LINE
  5
3D5
100
AcDbEntity
  8
0
100
AcDbLine
 62
250
  6
CONTINUOUS
 10
110.6240555569
 20
108.3927580991
 11
109.8240555569
 21
108.3927580991
  0
LINE
  5
3D6
100
AcDbEntity
  8
ASSI
100
AcDbLine
 62
250
  6
CONTINUOUS
 10
110.6240555569
 20
108.3927580991
 11
109.8240555569
 21
108.3927580991
  0
LINE
  5
3D7
100
AcDbEntity
  8
RACCORDO
100
AcDbLine
 62
250
  6
CONTINUOUS
 10
104.1261620291
 20
108.3927580991
 11
104.1259320853
 21
108.3927580991
  0
LINE
  5
3D8
100
AcDbEntity
  8
ASSI
100
AcDbLine
 62
250
  6
CONTINUOUS
 10
104.1261620291
 20
108.3927580991
 11
104.1259320853
 21
108.3927580991
  0
LINE
  5
3D9
100
AcDbEntity
  8
RACCORDO
100
AcDbLine
 62
250
  6
CONTINUOUS
 10
104.597623244
 20
86.676099779
 11
104.5973829105
 21
86.6763530187
  0
LINE
  5
3DA
100
AcDbEntity
  8
ASSI
100
AcDbLine
 62
250
  6
CONTINUOUS
 10
104.597623244
 20
86.676099779
 11
104.5973829105
 21
86.6763530187
  0
LWPOLYLINE
  5
3DB
100
AcDbEntity
  8
0
100
AcDbPolyline
 62
7
  6
CONTINUOUS
 90
3
 70
0
 43
0.3500000006
 10
108.3383453979
 20
167.428479126
 10
108.2669142151
 20
167.2141946411
 10
108.1240518494
 20
166.9284699097
  0
LINE
  5
3DC
100
AcDbEntity
  8
DRAFT
100
AcDbLine
 62
7
  6
CONTINUOUS
 10
112.6240555569
 20
104.5401041377
 11
110.6240555569
 21
104.8927580991
  0
LINE
  5
3DD
100
AcDbEntity
  8
ASSI
100
AcDbLine
 62
7
  6
CONTINUOUS
 10
112.6240555569
 20
104.5401041377
 11
110.6240555569
 21
104.8927580991
  0
LINE
  5
3DE
100
AcDbEntity
  8
RACCORDO
100
AcDbLine
 62
250
  6
CONTINUOUS
 10
104.635661045
 20
85.5129461273
 11
104.634815976
 21
85.5334517193
  0
LINE
  5
3DF
100
AcDbEntity
  8
ASSI
100
AcDbLine
 62
250
  6
CONTINUOUS
 10
104.635661045
 20
85.5129461273
 11
104.634815976
 21
85.5334517193
  0
LWPOLYLINE
  5
3E0
100
AcDbEntity
  8
RACCORDO
100
AcDbPolyline
 62
7
  6
CONTINUOUS
 90
5
 70
0
 10
104.5973829105
 20
86.6763530187
 10
104.6136155591
 20
86.2710891134
 10
104.621685536
 20
86.0392986175
 10
104.6281176738
 20
85.8270341019
 10
104.632772278
 20
85.6399256253
  0
LWPOLYLINE
  5
3E1
100
AcDbEntity
  8
ASSI
100
AcDbPolyline
 62
7
  6
CONTINUOUS
 90
5
 70
0
 10
104.5973829105
 20
86.6763530187
 10
104.6136155591
 20
86.2710891134
 10
104.621685536
 20
86.0392986175
 10
104.6281176738
 20
85.8270341019
 10
104.632772278
 20
85.6399256253
  0
LINE
  5
3E2
100
AcDbEntity
  8
RACCORDO
100
AcDbLine
 62
7
  6
CONTINUOUS
 10
104.632772278
 20
85.6399256253
 11
104.6354586142
 21
85.4908474205
  0
LINE
  5
3E3
100
AcDbEntity
  8
ASSI
100
AcDbLine
 62
7
  6
CONTINUOUS
 10
104.632772278
 20
85.6399256253
 11
104.6354586142
 21
85.4908474205
  0
LWPOLYLINE
  5
3E4
100
AcDbEntity
  8
RACCORDO
100
AcDbPolyline
 62
7
  6
CONTINUOUS
 90
8
 70
0
 10
104.6354586142
 20
85.4908474205
 10
104.6363106374
 20
85.4048896508
 10
104.6364203181
 20
85.3689148667
 10
104.6363390407
 20
85.3379367897
 10
104.6360963805
 20
85.3122984027
 10
104.6357371691
 20
85.2923388546
 10
104.6353391361
 20
85.2784844365
 10
104.6351668336
 20
85.2740802946
  0
LWPOLYLINE
  5
3E5
100
AcDbEntity
  8
ASSI
100
AcDbPolyline
 62
7
  6
CONTINUOUS
 90
8
 70
0
 10
104.6354586142
 20
85.4908474205
 10
104.6363106374
 20
85.4048896508
 10
104.6364203181
 20
85.3689148667
 10
104.6363390407
 20
85.3379367897
 10
104.6360963805
 20
85.3122984027
 10
104.6357371691
 20
85.2923388546
 10
104.6353391361
 20
85.2784844365
 10
104.6351668336
 20
85.2740802946
  0
LWPOLYLINE
  5
3E6
100
AcDbEntity
  8
RACCORDO
100
AcDbPolyline
 62
7
  6
CONTINUOUS
 90
4
 70
0
 10
104.1259320853
 20
108.3927580991
 10
104.1779046568
 20
101.1809232596
 10
104.3361394318
 20
93.890050363
 10
104.5973848163
 20
86.6763552145
  0
LWPOLYLINE
  5
3E7
100
AcDbEntity
  8
ASSI
100
AcDbPolyline
 62
7
  6
CONTINUOUS
 90
4
 70
0
 10
104.1259320853
 20
108.3927580991
 10
104.1779046568
 20
101.1809232596
 10
104.3361394318
 20
93.890050363
 10
104.5973848163
 20
86.6763552145
  0
LINE
  5
3E8
100
AcDbEntity
  8
RACCORDO
100
AcDbLine
 62
7
  6
CONTINUOUS
 10
104.6361698389
 20
131.3615538227
 11
104.6356318181
 21
131.3081758709
  0
LINE
  5
3E9
100
AcDbEntity
  8
ASSI
100
AcDbLine
 62
7
  6
CONTINUOUS
 10
104.6361698389
 20
131.3615538227
 11
104.6356318181
 21
131.3081758709
  0
LINE
  5
3EA
100
AcDbEntity
  8
RACCORDO
100
AcDbLine
 62
7
  6
CONTINUOUS
 10
104.6356572918
 20
131.3099278677
 11
104.6348159641
 21
131.2520640467
  0
LINE
  5
3EB
100
AcDbEntity
  8
ASSI
100
AcDbLine
 62
7
  6
CONTINUOUS
 10
104.6356572918
 20
131.3099278677
 11
104.6348159641
 21
131.2520640467
  0
LWPOLYLINE
  5
3EC
100
AcDbEntity
  8
RACCORDO
100
AcDbPolyline
 62
7
  6
CONTINUOUS
 90
4
 70
0
 10
104.6348137617
 20
131.2519989817
 10
104.6328757523
 20
131.1504076068
 10
104.6282539217
 20
130.9634089612
 10
104.6218383997
 20
130.7509072478
  0
LWPOLYLINE
  5
3ED
100
AcDbEntity
  8
ASSI
100
AcDbPolyline
 62
7
  6
CONTINUOUS
 90
4
 70
0
 10
104.6348137617
 20
131.2519989817
 10
104.6328757523
 20
131.1504076068
 10
104.6282539217
 20
130.9634089612
 10
104.6218383997
 20
130.7509072478
  0
LWPOLYLINE
  5
3EE
100
AcDbEntity
  8
RACCORDO
100
AcDbPolyline
 62
7
  6
CONTINUOUS
 90
4
 70
0
 10
104.5971632588
 20
130.104060021
 10
104.3362295045
 20
122.898572031
 10
104.1779751071
 20
115.6094789069
 10
104.1259320852
 20
108.3927580991
  0
LWPOLYLINE
  5
3EF
100
AcDbEntity
  8
ASSI
100
AcDbPolyline
 62
7
  6
CONTINUOUS
 90
4
 70
0
 10
104.5971632588
 20
130.104060021
 10
104.3362295045
 20
122.898572031
 10
104.1779751071
 20
115.6094789069
 10
104.1259320852
 20
108.3927580991
  0
LWPOLYLINE
  5
3F0
100
AcDbEntity
  8
RACCORDO
100
AcDbPolyline
 62
7
  6
CONTINUOUS
 90
3
 70
0
 10
104.6218383997
 20
130.7509072478
 10
104.604233704
 20
130.272652045
 10
104.5971629039
 20
130.1040602381
  0
LWPOLYLINE
  5
3F1
100
AcDbEntity
  8
ASSI
100
AcDbPolyline
 62
7
  6
CONTINUOUS
 90
3
 70
0
 10
104.6218383997
 20
130.7509072478
 10
104.604233704
 20
130.272652045
 10
104.5971629039
 20
130.1040602381
  0
LINE
  5
3F2
100
AcDbEntity
  8
RACCORDO
100
AcDbLine
 62
250
  6
CONTINUOUS
 10
104.6356598075
 20
131.2725701277
 11
104.6348148289
 21
131.2520640656
  0
LINE
  5
3F3
100
AcDbEntity
  8
ASSI
100
AcDbLine
 62
250
  6
CONTINUOUS
 10
104.6356598075
 20
131.2725701277
 11
104.6348148289
 21
131.2520640656
  0
LINE
  5
3F4
100
AcDbEntity
  8
RACCORDO
100
AcDbLine
 62
250
  6
CONTINUOUS
 10
104.5973936675
 20
130.1040839713
 11
104.5971632601
 21
130.1040600471
  0
LINE
  5
3F5
100
AcDbEntity
  8
ASSI
100
AcDbLine
 62
250
  6
CONTINUOUS
 10
104.5973936675
 20
130.1040839713
 11
104.5971632601
 21
130.1040600471
  0
LWPOLYLINE
  5
3F6
100
AcDbEntity
  8
RACCORDO
100
AcDbPolyline
 62
7
  6
CONTINUOUS
 90
8
 70
0
 10
104.6350299769
 20
131.5143056826
 10
104.6350480239
 20
131.5139584967
 10
104.6353690315
 20
131.506180745
 10
104.6358035818
 20
131.4902055891
 10
104.6361739128
 20
131.4669974366
 10
104.6363887531
 20
131.437000065
 10
104.6363948474
 20
131.4006379691
 10
104.636157323
 20
131.3581999979
  0
LWPOLYLINE
  5
3F7
100
AcDbEntity
  8
ASSI
100
AcDbPolyline
 62
7
  6
CONTINUOUS
 90
8
 70
0
 10
104.6350299769
 20
131.5143056826
 10
104.6350480239
 20
131.5139584967
 10
104.6353690315
 20
131.506180745
 10
104.6358035818
 20
131.4902055891
 10
104.6361739128
 20
131.4669974366
 10
104.6363887531
 20
131.437000065
 10
104.6363948474
 20
131.4006379691
 10
104.636157323
 20
131.3581999979
  0
LWPOLYLINE
  5
3F8
100
AcDbEntity
  8
0
100
AcDbPolyline
 62
7
  6
CONTINUOUS
 90
4
 70
0
 43
0.3500000006
 10
105.2669132996
 20
167.5713233643
 10
105.2669132996
 20
168.4284794312
 10
105.6954822693
 20
168.8570484009
 10
106.3383447876
 20
168.8570484009
  0
LINE
  5
3F9
100
AcDbEntity
  8
DRAFT
100
AcDbLine
 62
7
  6
CONTINUOUS
 10
109.8240555569
 20
63.3927580991
 11
109.8240555569
 21
153.3927580991
  0
LINE
  5
3FA
100
AcDbEntity
  8
ASSI
100
AcDbLine
 62
7
  6
CONTINUOUS
 10
109.8240555569
 20
63.3927580991
 11
109.8240555569
 21
153.3927580991
  0
LINE
  5
3FB
100
AcDbEntity
  8
DRAFT
100
AcDbLine
 62
7
  6
CONTINUOUS
 10
110.6240555569
 20
104.8927580991
 11
110.6240555569
 21
111.8927580991
  0
LINE
  5
3FC
100
AcDbEntity
  8
ASSI
100
AcDbLine
 62
7
  6
CONTINUOUS
 10
110.6240555569
 20
104.8927580991
 11
110.6240555569
 21
111.8927580991
  0
LINE
  5
3FD
100
AcDbEntity
  8
RACCORDO
100
AcDbLine
 62
250
  6
CONTINUOUS
 10
109.8240555569
 20
133.5275500837
 11
106.4004753941
 21
133.5095059765
  0
LINE
  5
3FE
100
AcDbEntity
  8
ASSI
100
AcDbLine
 62
250
  6
CONTINUOUS
 10
109.8240555569
 20
133.5275500837
 11
106.4004753941
 21
133.5095059765
  0
LINE
  5
3FF
100
AcDbEntity
  8
RACCORDO
100
AcDbLine
 62
250
  6
CONTINUOUS
 10
104.3028665156
 20
132.0926688857
 11
106.0557885037
 21
132.0926468124
  0
LINE
  5
400
100
AcDbEntity
  8
ASSI
100
AcDbLine
 62
250
  6
CONTINUOUS
 10
104.3028665156
 20
132.0926688857
 11
106.0557885037
 21
132.0926468124
  0
LINE
  5
401
100
AcDbEntity
  8
0
100
AcDbLine
 62
7
  6
CONTINUOUS
 10
112.6240555569
 20
65.2427581187
 11
112.6240555569
 21
83.4439635751
  0
LINE
  5
402
100
AcDbEntity
  8
DRAFT
100
AcDbLine
 62
7
  6
CONTINUOUS
 10
112.6240555569
 20
83.4439635751
 11
112.6240555569
 21
104.5401041377
  0
LINE
  5
403
100
AcDbEntity
  8
ASSI
100
AcDbLine
 62
7
  6
CONTINUOUS
 10
112.6240555569
 20
65.2427581187
 11
112.6240555569
 21
104.5401041377
  0
LINE
  5
404
100
AcDbEntity
  8
DRAFT
100
AcDbLine
 62
7
  6
CONTINUOUS
 10
112.6240555569
 20
112.2454120605
 11
112.6240555569
 21
133.3415526232
  0
LINE
  5
405
100
AcDbEntity
  8
0
100
AcDbLine
 62
7
  6
CONTINUOUS
 10
112.6240555569
 20
133.3415526232
 11
112.6240555569
 21
151.5427580769
  0
LINE
  5
406
100
AcDbEntity
  8
ASSI
100
AcDbLine
 62
7
  6
CONTINUOUS
 10
112.6240555569
 20
112.2454120605
 11
112.6240555569
 21
151.5427580769
  0
LINE
  5
407
100
AcDbEntity
  8
RACCORDO
100
AcDbLine
 62
7
  6
CONTINUOUS
 10
104.6361617747
 20
85.4239508586
 11
104.2613781305
 21
84.8887043442
  0
LINE
  5
408
100
AcDbEntity
  8
ASSI
100
AcDbLine
 62
7
  6
CONTINUOUS
 10
104.6361617747
 20
85.4239508586
 11
104.2613781305
 21
84.8887043442
  0
LINE
  5
409
100
AcDbEntity
  8
RACCORDO
100
AcDbLine
 62
250
  6
CONTINUOUS
 10
109.8240555569
 20
137.5275500837
 11
106.6339687929
 21
137.499804348
  0
LINE
  5
40A
100
AcDbEntity
  8
ASSI
100
AcDbLine
 62
250
  6
CONTINUOUS
 10
109.8240555569
 20
137.5275500837
 11
106.6339687929
 21
137.499804348
  0
LINE
  5
40B
100
AcDbEntity
  8
RACCORDO
100
AcDbLine
 62
7
  6
CONTINUOUS
 10
104.2613782742
 20
131.8968116488
 11
104.6361760447
 21
131.3615449599
  0
LINE
  5
40C
100
AcDbEntity
  8
ASSI
100
AcDbLine
 62
7
  6
CONTINUOUS
 10
104.2613782742
 20
131.8968116488
 11
104.6361760447
 21
131.3615449599
  0
LINE
  5
40D
100
AcDbEntity
  8
RACCORDO
100
AcDbLine
 62
250
  6
CONTINUOUS
 10
109.8240555569
 20
152.0192190717
 11
107.2900766714
 21
151.8866163251
  0
LINE
  5
40E
100
AcDbEntity
  8
ASSI
100
AcDbLine
 62
250
  6
CONTINUOUS
 10
109.8240555569
 20
152.0192190717
 11
107.2900766714
 21
151.8866163251
  0
LINE
  5
40F
100
AcDbEntity
  8
RACCORDO
100
AcDbLine
 62
250
  6
CONTINUOUS
 10
109.8240555569
 20
151.6327580991
 11
107.4354956653
 21
151.508212401
  0
LINE
  5
410
100
AcDbEntity
  8
ASSI
100
AcDbLine
 62
250
  6
CONTINUOUS
 10
109.8240555569
 20
151.6327580991
 11
107.4354956653
 21
151.508212401
  0
LINE
  5
411
100
AcDbEntity
  8
0
100
AcDbLine
 62
7
  6
CONTINUOUS
 10
112.6240555569
 20
150.3927580991
 11
112.602239193
 21
150.3927580991
  0
LINE
  5
412
100
AcDbEntity
  8
ASSI
100
AcDbLine
 62
7
  6
CONTINUOUS
 10
112.6240555569
 20
150.3927580991
 11
112.602239193
 21
150.3927580991
  0
LINE
  5
413
100
AcDbEntity
  8
DRAFT
100
AcDbLine
 62
7
  6
CONTINUOUS
 10
109.8240555569
 20
153.3927580991
 11
106.8420671
 21
153.2364787062
  0
LINE
  5
414
100
AcDbEntity
  8
ASSI
100
AcDbLine
 62
7
  6
CONTINUOUS
 10
109.8240555569
 20
153.3927580991
 11
106.8420671
 21
153.2364787062
  0
LINE
  5
415
100
AcDbEntity
  8
0
100
AcDbLine
 62
7
  6
CONTINUOUS
 10
110.4842610309
 20
64.0017274971
 11
110.8587781689
 21
64.1112414156
  0
LINE
  5
416
100
AcDbEntity
  8
ASSI
100
AcDbLine
 62
7
  6
CONTINUOUS
 10
110.4842610309
 20
64.0017274971
 11
110.8587781689
 21
64.1112414156
  0
LWPOLYLINE
  5
417
100
AcDbEntity
  8
0
100
AcDbPolyline
 62
7
  6
CONTINUOUS
 90
3
 70
0
 10
110.4842610309
 20
152.7837887011
 10
110.1055487601
 20
152.8589275837
 10
109.8240555569
 20
152.8927580461
  0
LWPOLYLINE
  5
418
100
AcDbEntity
  8
ASSI
100
AcDbPolyline
 62
7
  6
CONTINUOUS
 90
3
 70
0
 10
110.4842610309
 20
152.7837887011
 10
110.1055487601
 20
152.8589275837
 10
109.8240555569
 20
152.8927580461
  0
LINE
  5
419
100
AcDbEntity
  8
0
100
AcDbLine
 62
7
  6
CONTINUOUS
 10
110.8597512906
 20
152.6739902285
 11
110.4842610309
 21
152.7837887011
  0
LINE
  5
41A
100
AcDbEntity
  8
ASSI
100
AcDbLine
 62
7
  6
CONTINUOUS
 10
110.8597512906
 20
152.6739902285
 11
110.4842610309
 21
152.7837887011
  0
LINE
  5
41B
100
AcDbEntity
  8
0
100
AcDbLine
 62
7
  6
CONTINUOUS
 10
112.6240555569
 20
151.5427580977
 11
112.3483596075
 21
151.8087895077
  0
LINE
  5
41C
100
AcDbEntity
  8
ASSI
100
AcDbLine
 62
7
  6
CONTINUOUS
 10
112.6240555569
 20
151.5427580977
 11
112.3483596075
 21
151.8087895077
  0
LWPOLYLINE
  5
41D
100
AcDbEntity
  8
0
100
AcDbPolyline
 62
7
  6
CONTINUOUS
 90
10
 70
0
 43
0.3500000006
 10
108.2669142151
 20
167.6427636108
 10
108.3383453979
 20
167.4999012451
 10
108.3383453979
 20
167.428479126
 10
108.1954830322
 20
167.2856167603
 10
108.1240518494
 20
167.2856167603
 10
108.0526297302
 20
167.3570388794
 10
108.0526297302
 20
167.428479126
 10
108.1240518494
 20
167.5713233643
 10
108.1954830322
 20
167.6427636108
 10
108.2669142151
 20
167.6427636108
  0
LWPOLYLINE
  5
41E
100
AcDbEntity
  8
0
100
AcDbPolyline
 62
7
  6
CONTINUOUS
 90
3
 70
0
 10
111.9948085331
 20
64.6952146857
 10
112.3483596075
 20
64.9767266905
 10
112.6240555569
 20
65.2427581005
  0
LWPOLYLINE
  5
41F
100
AcDbEntity
  8
ASSI
100
AcDbPolyline
 62
7
  6
CONTINUOUS
 90
3
 70
0
 10
111.9948085331
 20
64.6952146857
 10
112.3483596075
 20
64.9767266905
 10
112.6240555569
 20
65.2427581005
  0
LINE
  5
420
100
AcDbEntity
  8
0
100
AcDbLine
 62
7
  6
CONTINUOUS
 10
111.619679047
 20
64.4547177828
 11
111.9948085331
 21
64.6952146857
  0
LINE
  5
421
100
AcDbEntity
  8
ASSI
100
AcDbLine
 62
7
  6
CONTINUOUS
 10
111.619679047
 20
64.4547177828
 11
111.9948085331
 21
64.6952146857
  0
LINE
  5
422
100
AcDbEntity
  8
0
100
AcDbLine
 62
7
  6
CONTINUOUS
 10
111.2450093251
 20
64.2637281253
 11
111.619679047
 21
64.4547177828
  0
LINE
  5
423
100
AcDbEntity
  8
ASSI
100
AcDbLine
 62
7
  6
CONTINUOUS
 10
111.2450093251
 20
64.2637281253
 11
111.619679047
 21
64.4547177828
  0
LINE
  5
424
100
AcDbEntity
  8
0
100
AcDbLine
 62
7
  6
CONTINUOUS
 10
110.8597512906
 20
64.1115259697
 11
111.2450093251
 21
64.2637281253
  0
LINE
  5
425
100
AcDbEntity
  8
ASSI
100
AcDbLine
 62
7
  6
CONTINUOUS
 10
110.8597512906
 20
64.1115259697
 11
111.2450093251
 21
64.2637281253
  0
LWPOLYLINE
  5
426
100
AcDbEntity
  8
0
100
AcDbPolyline
 62
7
  6
CONTINUOUS
 90
8
 70
0
 43
0.3500000006
 10
109.3383457031
 20
167.1427543945
 10
110.1954836426
 20
167.1427543945
 10
110.6240526123
 20
167.5713233643
 10
110.6240526123
 20
168.4284794312
 10
110.1954836426
 20
168.8570484009
 10
109.3383457031
 20
168.8570484009
 10
109.3383457031
 20
170.1427553101
 10
110.6240526123
 20
170.1427553101
  0
LWPOLYLINE
  5
427
100
AcDbEntity
  8
0
100
AcDbPolyline
 62
7
  6
CONTINUOUS
 90
3
 70
0
 10
111.619679047
 20
152.3307984154
 10
111.2450093251
 20
152.5217880729
 10
110.8597512906
 20
152.6739902285
  0
LWPOLYLINE
  5
428
100
AcDbEntity
  8
ASSI
100
AcDbPolyline
 62
7
  6
CONTINUOUS
 90
3
 70
0
 10
111.619679047
 20
152.3307984154
 10
111.2450093251
 20
152.5217880729
 10
110.8597512906
 20
152.6739902285
  0
LINE
  5
429
100
AcDbEntity
  8
0
100
AcDbLine
 62
7
  6
CONTINUOUS
 10
111.9948085331
 20
152.0903015125
 11
111.619679047
 21
152.3307984154
  0
LINE
  5
42A
100
AcDbEntity
  8
ASSI
100
AcDbLine
 62
7
  6
CONTINUOUS
 10
111.9948085331
 20
152.0903015125
 11
111.619679047
 21
152.3307984154
  0
LWPOLYLINE
  5
42B
100
AcDbEntity
  8
0
100
AcDbPolyline
 62
7
  6
CONTINUOUS
 90
13
 70
0
 43
0.3500000006
 10
105.6954822693
 20
168.8570484009
 10
105.4097666016
 20
169.0713328857
 10
105.4097666016
 20
169.7141863403
 10
105.6954822693
 20
170.1427553101
 10
106.3383447876
 20
170.1427553101
 10
106.6240513916
 20
169.7141863403
 10
106.6240513916
 20
169.0713328857
 10
106.3383447876
 20
168.8570484009
 10
106.7669137573
 20
168.4284794312
 10
106.7669137573
 20
167.5713233643
 10
106.3383447876
 20
167.1427543945
 10
105.6954822693
 20
167.1427543945
 10
105.2669132996
 20
167.5713233643
  0
LINE
  5
42C
100
AcDbEntity
  8
0
100
AcDbLine
 62
7
  6
CONTINUOUS
 10
112.3483596075
 20
151.8087895077
 11
111.9948085331
 21
152.0903015125
  0
LINE
  5
42D
100
AcDbEntity
  8
ASSI
100
AcDbLine
 62
7
  6
CONTINUOUS
 10
112.3483596075
 20
151.8087895077
 11
111.9948085331
 21
152.0903015125
  0
ARC
  5
42E
100
AcDbEntity
  8
RACCORDO
100
AcDbCircle
 62
250
  6
CONTINUOUS
 10
-6015.4618332659
 20
91.8834568683
 40
6259.7494633214
100
AcDbArc
 50
359.7528712102
 51
359.9341840001
  0
ARC
  5
42F
100
AcDbEntity
  8
ASSI
100
AcDbCircle
 62
250
  6
CONTINUOUS
 10
-6015.4618332659
 20
91.8834568683
 40
6259.7494633214
100
AcDbArc
 50
359.7528712102
 51
359.9341840001
  0
ARC
  5
430
100
AcDbEntity
  8
RACCORDO
100
AcDbCircle
 62
250
  6
CONTINUOUS
 10
194.4643436196
 20
-881.7542005364
 40
1035.0997100685
100
AcDbArc
 50
86.957649056
 51
87.2438830556
  0
ARC
  5
431
100
AcDbEntity
  8
ASSI
100
AcDbCircle
 62
250
  6
CONTINUOUS
 10
194.4643436196
 20
-881.7542005364
 40
1035.0997100685
100
AcDbArc
 50
86.957649056
 51
87.2438830556
  0
ARC
  5
432
100
AcDbEntity
  8
RACCORDO
100
AcDbCircle
 62
250
  6
CONTINUOUS
 10
194.4360116968
 20
-881.1560080731
 40
1034.2569291918
100
AcDbArc
 50
86.953902539
 51
87.2404783179
  0
ARC
  5
433
100
AcDbEntity
  8
ASSI
100
AcDbCircle
 62
250
  6
CONTINUOUS
 10
194.4360116968
 20
-881.1560080731
 40
1034.2569291918
100
AcDbArc
 50
86.953902539
 51
87.2404783179
  0
ARC
  5
434
100
AcDbEntity
  8
RACCORDO
100
AcDbCircle
 62
250
  6
CONTINUOUS
 10
-1.3297824415
 20
106.8449755368
 40
272.2045474557
100
AcDbArc
 50
5.3219803367
 51
5.6187918265
  0
ARC
  5
435
100
AcDbEntity
  8
ASSI
100
AcDbCircle
 62
250
  6
CONTINUOUS
 10
-1.3297824415
 20
106.8449755368
 40
272.2045474557
100
AcDbArc
 50
5.3219803367
 51
5.6187918265
  0
ARC
  5
436
100
AcDbEntity
  8
RACCORDO
100
AcDbCircle
 62
250
  6
CONTINUOUS
 10
-0.541146938
 20
106.8767433964
 40
271.6895053339
100
AcDbArc
 50
5.3283861518
 51
5.625537018
  0
ARC
  5
437
100
AcDbEntity
  8
ASSI
100
AcDbCircle
 62
250
  6
CONTINUOUS
 10
-0.541146938
 20
106.8767433964
 40
271.6895053339
100
AcDbArc
 50
5.3283861518
 51
5.625537018
  0
ARC
  5
438
100
AcDbEntity
  8
RACCORDO
100
AcDbCircle
 62
250
  6
CONTINUOUS
 10
15.7179602329
 20
108.3927580991
 40
255.3598737892
100
AcDbArc
 50
354.671519563
 51
5.328480437
  0
ARC
  5
439
100
AcDbEntity
  8
ASSI
100
AcDbCircle
 62
250
  6
CONTINUOUS
 10
15.7179602329
 20
108.3927580991
 40
255.3598737892
100
AcDbArc
 50
354.671519563
 51
5.328480437
  0
ARC
  5
43A
100
AcDbEntity
  8
RACCORDO
100
AcDbCircle
 62
250
  6
CONTINUOUS
 10
15.6166563002
 20
108.392758092
 40
255.1876022417
100
AcDbArc
 50
354.6711232958
 51
5.3288766909
  0
ARC
  5
43B
100
AcDbEntity
  8
ASSI
100
AcDbCircle
 62
250
  6
CONTINUOUS
 10
15.6166563002
 20
108.392758092
 40
255.1876022417
100
AcDbArc
 50
354.6711232958
 51
5.3288766909
  0
ARC
  5
43C
100
AcDbEntity
  8
DRAFT
100
AcDbCircle
 62
7
  6
CONTINUOUS
 10
21.2850868749
 20
108.3927580991
 40
250.0
100
AcDbArc
 50
354.229781
 51
5.770219
  0
ARC
  5
43D
100
AcDbEntity
  8
ASSI
100
AcDbCircle
 62
7
  6
CONTINUOUS
 10
21.2850868749
 20
108.3927580991
 40
250.0
100
AcDbArc
 50
354.229781
 51
5.770219
  0
ARC
  5
43E
100
AcDbEntity
  8
RACCORDO
100
AcDbCircle
 62
250
  6
CONTINUOUS
 10
154.5748673224
 20
40.779250085
 40
111.2642253505
100
AcDbArc
 50
93.0427467061
 51
95.6223554499
  0
ARC
  5
43F
100
AcDbEntity
  8
ASSI
100
AcDbCircle
 62
250
  6
CONTINUOUS
 10
154.5748673224
 20
40.779250085
 40
111.2642253505
100
AcDbArc
 50
93.0427467061
 51
95.6223554499
  0
ARC
  5
440
100
AcDbEntity
  8
RACCORDO
100
AcDbCircle
 62
250
  6
CONTINUOUS
 10
154.5684184146
 20
40.8878995063
 40
110.9084496343
100
AcDbArc
 50
93.0463201592
 51
95.6290810993
  0
ARC
  5
441
100
AcDbEntity
  8
ASSI
100
AcDbCircle
 62
250
  6
CONTINUOUS
 10
154.5684184146
 20
40.8878995063
 40
110.9084496343
100
AcDbArc
 50
93.0463201592
 51
95.6290810993
  0
ARC
  5
442
100
AcDbEntity
  8
DRAFT
100
AcDbCircle
 62
7
  6
CONTINUOUS
 10
154.7033294181
 20
41.3139748965
 40
110.8699843096
100
AcDbArc
 50
93.1238065837
 51
95.7156518873
  0
ARC
  5
443
100
AcDbEntity
  8
ASSI
100
AcDbCircle
 62
7
  6
CONTINUOUS
 10
154.7033294181
 20
41.3139748965
 40
110.8699843096
100
AcDbArc
 50
93.1238065837
 51
95.7156518873
  0
ARC
  5
444
100
AcDbEntity
  8
RACCORDO
100
AcDbCircle
 62
250
  6
CONTINUOUS
 10
190.51232698
 20
89.4113912209
 40
62.5834704305
100
AcDbArc
 50
185.6260378728
 51
189.3110875476
  0
ARC
  5
445
100
AcDbEntity
  8
ASSI
100
AcDbCircle
 62
250
  6
CONTINUOUS
 10
190.51232698
 20
89.4113912209
 40
62.5834704305
100
AcDbArc
 50
185.6260378728
 51
189.3110875476
  0
ARC
  5
446
100
AcDbEntity
  8
RACCORDO
100
AcDbCircle
 62
250
  6
CONTINUOUS
 10
190.6795015618
 20
89.4061702691
 40
62.4764173727
100
AcDbArc
 50
185.618760296
 51
189.2993295791
  0
ARC
  5
447
100
AcDbEntity
  8
ASSI
100
AcDbCircle
 62
250
  6
CONTINUOUS
 10
190.6795015618
 20
89.4061702691
 40
62.4764173727
100
AcDbArc
 50
185.618760296
 51
189.2993295791
  0
ARC
  5
448
100
AcDbEntity
  8
DRAFT
100
AcDbCircle
 62
7
  6
CONTINUOUS
 10
189.4948242224
 20
89.4668552934
 40
61.7559236485
100
AcDbArc
 50
185.770219
 51
189.5152598733
  0
ARC
  5
449
100
AcDbEntity
  8
ASSI
100
AcDbCircle
 62
7
  6
CONTINUOUS
 10
189.4948242224
 20
89.4668552934
 40
61.7559236485
100
AcDbArc
 50
185.770219
 51
189.5152598733
  0
ARC
  5
44A
100
AcDbEntity
  8
RACCORDO
100
AcDbCircle
 62
250
  6
CONTINUOUS
 10
106.9528073412
 20
92.4461661728
 40
60.8343129877
100
AcDbArc
 50
39.2764325079
 51
39.6601085123
  0
ARC
  5
44B
100
AcDbEntity
  8
ASSI
100
AcDbCircle
 62
250
  6
CONTINUOUS
 10
106.9528073412
 20
92.4461661728
 40
60.8343129877
100
AcDbArc
 50
39.2764325079
 51
39.6601085123
  0
ARC
  5
44C
100
AcDbEntity
  8
RACCORDO
100
AcDbCircle
 62
250
  6
CONTINUOUS
 10
176.4337129167
 20
83.8312554329
 40
48.4141821585
100
AcDbArc
 50
1.0197049465
 51
1.5342607271
  0
ARC
  5
44D
100
AcDbEntity
  8
ASSI
100
AcDbCircle
 62
250
  6
CONTINUOUS
 10
176.4337129167
 20
83.8312554329
 40
48.4141821585
100
AcDbArc
 50
1.0197049465
 51
1.5342607271
  0
ARC
  5
44E
100
AcDbEntity
  8
RACCORDO
100
AcDbCircle
 62
250
  6
CONTINUOUS
 10
183.2025042976
 20
84.2867107035
 40
28.4974386149
100
AcDbArc
 50
177.4061107753
 51
178.2441762658
  0
ARC
  5
44F
100
AcDbEntity
  8
ASSI
100
AcDbCircle
 62
250
  6
CONTINUOUS
 10
183.2025042976
 20
84.2867107035
 40
28.4974386149
100
AcDbArc
 50
177.4061107753
 51
178.2441762658
  0
ARC
  5
450
100
AcDbEntity
  8
DRAFT
100
AcDbCircle
 62
7
  6
CONTINUOUS
 10
145.354670089
 20
82.0682409155
 40
17.0
100
AcDbArc
 50
189.5152598733
 51
264.2843481127
  0
ARC
  5
451
100
AcDbEntity
  8
ASSI
100
AcDbCircle
 62
7
  6
CONTINUOUS
 10
145.354670089
 20
82.0682409155
 40
17.0
100
AcDbArc
 50
189.5152598733
 51
264.2843481127
  0
ARC
  5
452
100
AcDbEntity
  8
RACCORDO
100
AcDbCircle
 62
250
  6
CONTINUOUS
 10
154.7672995445
 20
86.6974186482
 40
1.538319158
100
AcDbArc
 50
230.3519534284
 51
268.1801021322
  0
ARC
  5
453
100
AcDbEntity
  8
ASSI
100
AcDbCircle
 62
250
  6
CONTINUOUS
 10
154.7672995445
 20
86.6974186482
 40
1.538319158
100
AcDbArc
 50
230.3519534284
 51
268.1801021322
  0
ARC
  5
454
100
AcDbEntity
  8
RACCORDO
100
AcDbCircle
 62
7
  6
CONTINUOUS
 10
154.7562310162
 20
86.7097051703
 40
1.1334496413
100
AcDbArc
 50
181.4048929356
 51
231.1144505895
  0
ARC
  5
455
100
AcDbEntity
  8
ASSI
100
AcDbCircle
 62
7
  6
CONTINUOUS
 10
154.7562310162
 20
86.7097051703
 40
1.1334496413
100
AcDbArc
 50
181.4048929356
 51
231.1144505895
  0
ARC
  5
456
100
AcDbEntity
  8
RACCORDO
100
AcDbCircle
 62
250
  6
CONTINUOUS
 10
154.7350729813
 20
86.6945394416
 40
0.919817577
100
AcDbArc
 50
180.1087523999
 51
270.0005486276
  0
ARC
  5
457
100
AcDbEntity
  8
ASSI
100
AcDbCircle
 62
250
  6
CONTINUOUS
 10
154.7350729813
 20
86.6945394416
 40
0.919817577
100
AcDbArc
 50
180.1087523999
 51
270.0005486276
  0
ARC
  5
458
100
AcDbEntity
  8
0
100
AcDbCircle
 62
7
  6
CONTINUOUS
 10
154.7350868749
 20
86.6927580991
 40
0.8
100
AcDbArc
 50
179.9999999924
 51
270.0
  0
ARC
  5
459
100
AcDbEntity
  8
ASSI
100
AcDbCircle
 62
7
  6
CONTINUOUS
 10
154.7350868749
 20
86.6927580991
 40
0.8
100
AcDbArc
 50
179.9999999924
 51
270.0
  0
ARC
  5
45A
100
AcDbEntity
  8
RACCORDO
100
AcDbCircle
 62
250
  6
CONTINUOUS
 10
-6015.4650734689
 20
124.9020543199
 40
6259.7527035281
100
AcDbArc
 50
0.0658160117
 51
0.2471287078
  0
ARC
  5
45B
100
AcDbEntity
  8
ASSI
100
AcDbCircle
 62
250
  6
CONTINUOUS
 10
-6015.4650734689
 20
124.9020543199
 40
6259.7527035281
100
AcDbArc
 50
0.0658160117
 51
0.2471287078
  0
ARC
  5
45C
100
AcDbEntity
  8
RACCORDO
100
AcDbCircle
 62
250
  6
CONTINUOUS
 10
-1.3297612191
 20
109.9405386185
 40
272.2045261352
100
AcDbArc
 50
354.3812081641
 51
354.6780196616
  0
ARC
  5
45D
100
AcDbEntity
  8
ASSI
100
AcDbCircle
 62
250
  6
CONTINUOUS
 10
-1.3297612191
 20
109.9405386185
 40
272.2045261352
100
AcDbArc
 50
354.3812081641
 51
354.6780196616
  0
ARC
  5
45E
100
AcDbEntity
  8
RACCORDO
100
AcDbCircle
 62
250
  6
CONTINUOUS
 10
-0.5410263382
 20
109.9087612189
 40
271.6893841796
100
AcDbArc
 50
354.3744631995
 51
354.6716139186
  0
ARC
  5
45F
100
AcDbEntity
  8
ASSI
100
AcDbCircle
 62
250
  6
CONTINUOUS
 10
-0.5410263382
 20
109.9087612189
 40
271.6893841796
100
AcDbArc
 50
354.3744631995
 51
354.6716139186
  0
ARC
  5
460
100
AcDbEntity
  8
RACCORDO
100
AcDbCircle
 62
250
  6
CONTINUOUS
 10
154.5748559974
 20
176.0061167876
 40
111.2640756342
100
AcDbArc
 50
264.3776500231
 51
266.9572552858
  0
ARC
  5
461
100
AcDbEntity
  8
ASSI
100
AcDbCircle
 62
250
  6
CONTINUOUS
 10
154.5748559974
 20
176.0061167876
 40
111.2640756342
100
AcDbArc
 50
264.3776500231
 51
266.9572552858
  0
ARC
  5
462
100
AcDbEntity
  8
RACCORDO
100
AcDbCircle
 62
250
  6
CONTINUOUS
 10
154.5684184115
 20
175.8976166506
 40
110.9084495929
100
AcDbArc
 50
264.3709189002
 51
266.9536798413
  0
ARC
  5
463
100
AcDbEntity
  8
ASSI
100
AcDbCircle
 62
250
  6
CONTINUOUS
 10
154.5684184115
 20
175.8976166506
 40
110.9084495929
100
AcDbArc
 50
264.3709189002
 51
266.9536798413
  0
ARC
  5
464
100
AcDbEntity
  8
DRAFT
100
AcDbCircle
 62
7
  6
CONTINUOUS
 10
154.7033294181
 20
175.4715413017
 40
110.8699843096
100
AcDbArc
 50
264.2843481127
 51
266.8761934163
  0
ARC
  5
465
100
AcDbEntity
  8
ASSI
100
AcDbCircle
 62
7
  6
CONTINUOUS
 10
154.7033294181
 20
175.4715413017
 40
110.8699843096
100
AcDbArc
 50
264.2843481127
 51
266.8761934163
  0
ARC
  5
466
100
AcDbEntity
  8
RACCORDO
100
AcDbCircle
 62
250
  6
CONTINUOUS
 10
190.509699931
 20
127.3744694126
 40
62.5808222691
100
AcDbArc
 50
170.6888481247
 51
174.3740413763
  0
ARC
  5
467
100
AcDbEntity
  8
ASSI
100
AcDbCircle
 62
250
  6
CONTINUOUS
 10
190.509699931
 20
127.3744694126
 40
62.5808222691
100
AcDbArc
 50
170.6888481247
 51
174.3740413763
  0
ARC
  5
468
100
AcDbEntity
  8
RACCORDO
100
AcDbCircle
 62
250
  6
CONTINUOUS
 10
190.6765577097
 20
127.379731354
 40
62.4734499282
100
AcDbArc
 50
170.7005829786
 51
174.3813271463
  0
ARC
  5
469
100
AcDbEntity
  8
ASSI
100
AcDbCircle
 62
250
  6
CONTINUOUS
 10
190.6765577097
 20
127.379731354
 40
62.4734499282
100
AcDbArc
 50
170.7005829786
 51
174.3813271463
  0
ARC
  5
46A
100
AcDbEntity
  8
DRAFT
100
AcDbCircle
 62
7
  6
CONTINUOUS
 10
189.4948242224
 20
127.3186609048
 40
61.7559236485
100
AcDbArc
 50
170.4847401267
 51
174.229781
  0
ARC
  5
46B
100
AcDbEntity
  8
ASSI
100
AcDbCircle
 62
7
  6
CONTINUOUS
 10
189.4948242224
 20
127.3186609048
 40
61.7559236485
100
AcDbArc
 50
170.4847401267
 51
174.229781
  0
ARC
  5
46C
100
AcDbEntity
  8
RACCORDO
100
AcDbCircle
 62
250
  6
CONTINUOUS
 10
106.7524163274
 20
124.5042771492
 40
61.0938446144
100
AcDbArc
 50
320.3407615208
 51
320.7228067144
  0
ARC
  5
46D
100
AcDbEntity
  8
ASSI
100
AcDbCircle
 62
250
  6
CONTINUOUS
 10
106.7524163274
 20
124.5042771492
 40
61.0938446144
100
AcDbArc
 50
320.3407615208
 51
320.7228067144
  0
ARC
  5
46E
100
AcDbEntity
  8
RACCORDO
100
AcDbCircle
 62
250
  6
CONTINUOUS
 10
176.4336279892
 20
132.9542608397
 40
48.4142670576
100
AcDbArc
 50
358.4657418759
 51
358.9802966833
  0
ARC
  5
46F
100
AcDbEntity
  8
ASSI
100
AcDbCircle
 62
250
  6
CONTINUOUS
 10
176.4336279892
 20
132.9542608397
 40
48.4142670576
100
AcDbArc
 50
358.4657418759
 51
358.9802966833
  0
ARC
  5
470
100
AcDbEntity
  8
RACCORDO
100
AcDbCircle
 62
250
  6
CONTINUOUS
 10
183.1906015722
 20
132.4983527183
 40
28.4855275557
100
AcDbArc
 50
181.7556472168
 51
182.5941141169
  0
ARC
  5
471
100
AcDbEntity
  8
ASSI
100
AcDbCircle
 62
250
  6
CONTINUOUS
 10
183.1906015722
 20
132.4983527183
 40
28.4855275557
100
AcDbArc
 50
181.7556472168
 51
182.5941141169
  0
ARC
  5
472
100
AcDbEntity
  8
DRAFT
100
AcDbCircle
 62
7
  6
CONTINUOUS
 10
145.354670089
 20
134.7172752827
 40
17.0
100
AcDbArc
 50
95.7156518873
 51
170.4847401267
  0
ARC
  5
473
100
AcDbEntity
  8
ASSI
100
AcDbCircle
 62
7
  6
CONTINUOUS
 10
145.354670089
 20
134.7172752827
 40
17.0
100
AcDbArc
 50
95.7156518873
 51
170.4847401267
  0
ARC
  5
474
100
AcDbEntity
  8
RACCORDO
100
AcDbCircle
 62
250
  6
CONTINUOUS
 10
154.7672995104
 20
130.08809764
 40
1.5383190669
100
AcDbArc
 50
91.8198967048
 51
179.1944153919
  0
ARC
  5
475
100
AcDbEntity
  8
ASSI
100
AcDbCircle
 62
250
  6
CONTINUOUS
 10
154.7672995104
 20
130.08809764
 40
1.5383190669
100
AcDbArc
 50
91.8198967048
 51
179.1944153919
  0
ARC
  5
476
100
AcDbEntity
  8
RACCORDO
100
AcDbCircle
 62
7
  6
CONTINUOUS
 10
154.7562407758
 20
130.0758177456
 40
1.1334525245
100
AcDbArc
 50
128.8861274696
 51
178.8331664303
  0
ARC
  5
477
100
AcDbEntity
  8
ASSI
100
AcDbCircle
 62
7
  6
CONTINUOUS
 10
154.7562407758
 20
130.0758177456
 40
1.1334525245
100
AcDbArc
 50
128.8861274696
 51
178.8331664303
  0
ARC
  5
478
100
AcDbEntity
  8
RACCORDO
100
AcDbCircle
 62
250
  6
CONTINUOUS
 10
154.7350729621
 20
130.0909767759
 40
0.9198175578
100
AcDbArc
 50
89.9994769164
 51
179.891247587
  0
ARC
  5
479
100
AcDbEntity
  8
ASSI
100
AcDbCircle
 62
250
  6
CONTINUOUS
 10
154.7350729621
 20
130.0909767759
 40
0.9198175578
100
AcDbArc
 50
89.9994769164
 51
179.891247587
  0
ARC
  5
47A
100
AcDbEntity
  8
0
100
AcDbCircle
 62
7
  6
CONTINUOUS
 10
154.7350868749
 20
130.0927580991
 40
0.8
100
AcDbArc
 50
90.0
 51
180.0000000076
  0
ARC
  5
47B
100
AcDbEntity
  8
ASSI
100
AcDbCircle
 62
7
  6
CONTINUOUS
 10
154.7350868749
 20
130.0927580991
 40
0.8
100
AcDbArc
 50
90.0
 51
180.0000000076
  0
ARC
  5
47C
100
AcDbEntity
  8
RACCORDO
100
AcDbCircle
 62
250
  6
CONTINUOUS
 10
194.4643405113
 20
1098.5397779167
 40
1035.0997713293
100
AcDbArc
 50
272.7561169534
 51
273.0423509629
  0
ARC
  5
47D
100
AcDbEntity
  8
ASSI
100
AcDbCircle
 62
250
  6
CONTINUOUS
 10
194.4643405113
 20
1098.5397779167
 40
1035.0997713293
100
AcDbArc
 50
272.7561169534
 51
273.0423509629
  0
ARC
  5
47E
100
AcDbEntity
  8
RACCORDO
100
AcDbCircle
 62
250
  6
CONTINUOUS
 10
194.4360097988
 20
1097.9415616637
 40
1034.2569666323
100
AcDbArc
 50
272.7595216867
 51
273.0460974559
  0
ARC
  5
47F
100
AcDbEntity
  8
ASSI
100
AcDbCircle
 62
250
  6
CONTINUOUS
 10
194.4360097988
 20
1097.9415616637
 40
1034.2569666323
100
AcDbArc
 50
272.7595216867
 51
273.0460974559
  0
ARC
  5
480
100
AcDbEntity
  8
RACCORDO
100
AcDbCircle
 62
250
  6
CONTINUOUS
 10
199.0350868749
 20
-1261.3074969649
 40
1393.2043068645
100
AcDbArc
 50
88.9390967671
 51
91.0609032329
  0
ARC
  5
481
100
AcDbEntity
  8
ASSI
100
AcDbCircle
 62
250
  6
CONTINUOUS
 10
199.0350868749
 20
-1261.3074969649
 40
1393.2043068645
100
AcDbArc
 50
88.9390967671
 51
91.0609032329
  0
ARC
  5
482
100
AcDbEntity
  8
RACCORDO
100
AcDbCircle
 62
250
  6
CONTINUOUS
 10
199.0944332884
 20
-1256.8400093675
 40
1388.7364864744
100
AcDbArc
 50
88.216243213
 51
88.93813216
  0
ARC
  5
483
100
AcDbEntity
  8
ASSI
100
AcDbCircle
 62
250
  6
CONTINUOUS
 10
199.0944332884
 20
-1256.8400093675
 40
1388.7364864744
100
AcDbArc
 50
88.216243213
 51
88.93813216
  0
ARC
  5
484
100
AcDbEntity
  8
RACCORDO
100
AcDbCircle
 62
250
  6
CONTINUOUS
 10
198.9580862787
 20
-1256.1292350986
 40
1388.0255071081
100
AcDbArc
 50
91.0616829505
 51
91.7839416721
  0
ARC
  5
485
100
AcDbEntity
  8
ASSI
100
AcDbCircle
 62
250
  6
CONTINUOUS
 10
198.9580862787
 20
-1256.1292350986
 40
1388.0255071081
100
AcDbArc
 50
91.0616829505
 51
91.7839416721
  0
ARC
  5
486
100
AcDbEntity
  8
RACCORDO
100
AcDbCircle
 62
250
  6
CONTINUOUS
 10
199.0350868748
 20
-1255.6065084975
 40
1387.9390880774
100
AcDbArc
 50
88.934671645
 51
91.065328355
  0
ARC
  5
487
100
AcDbEntity
  8
ASSI
100
AcDbCircle
 62
250
  6
CONTINUOUS
 10
199.0350868748
 20
-1255.6065084975
 40
1387.9390880774
100
AcDbArc
 50
88.934671645
 51
91.065328355
  0
ARC
  5
488
100
AcDbEntity
  8
RACCORDO
100
AcDbCircle
 62
250
  6
CONTINUOUS
 10
199.0963857934
 20
-1255.4126717545
 40
1387.7441463437
100
AcDbArc
 50
88.1725202639
 51
88.9370532615
  0
ARC
  5
489
100
AcDbEntity
  8
ASSI
100
AcDbCircle
 62
250
  6
CONTINUOUS
 10
199.0963857934
 20
-1255.4126717545
 40
1387.7441463437
100
AcDbArc
 50
88.1725202639
 51
88.9370532615
  0
ARC
  5
48A
100
AcDbEntity
  8
RACCORDO
100
AcDbCircle
 62
250
  6
CONTINUOUS
 10
198.954901398
 20
-1254.6640690238
 40
1386.9953220811
100
AcDbArc
 50
91.0627403537
 51
91.8276861209
  0
ARC
  5
48B
100
AcDbEntity
  8
ASSI
100
AcDbCircle
 62
250
  6
CONTINUOUS
 10
198.954901398
 20
-1254.6640690238
 40
1386.9953220811
100
AcDbArc
 50
91.0627403537
 51
91.8276861209
  0
ARC
  5
48C
100
AcDbEntity
  8
RACCORDO
100
AcDbCircle
 62
250
  6
CONTINUOUS
 10
203.6058332382
 20
-881.7542617158
 40
1035.0997713267
100
AcDbArc
 50
92.7561169534
 51
93.0423509629
  0
ARC
  5
48D
100
AcDbEntity
  8
ASSI
100
AcDbCircle
 62
250
  6
CONTINUOUS
 10
203.6058332382
 20
-881.7542617158
 40
1035.0997713267
100
AcDbArc
 50
92.7561169534
 51
93.0423509629
  0
ARC
  5
48E
100
AcDbEntity
  8
RACCORDO
100
AcDbCircle
 62
250
  6
CONTINUOUS
 10
203.6341717073
 20
-881.1561952977
 40
1034.257116665
100
AcDbArc
 50
92.7595216633
 51
93.0460974439
  0
ARC
  5
48F
100
AcDbEntity
  8
ASSI
100
AcDbCircle
 62
250
  6
CONTINUOUS
 10
203.6341717073
 20
-881.1561952977
 40
1034.257116665
100
AcDbArc
 50
92.7595216633
 51
93.0460974439
  0
ARC
  5
490
100
AcDbEntity
  8
RACCORDO
100
AcDbCircle
 62
250
  6
CONTINUOUS
 10
199.0350868749
 20
-786.6409840174
 40
939.876731858
100
AcDbArc
 50
87.2433928878
 51
92.7566071122
  0
ARC
  5
491
100
AcDbEntity
  8
ASSI
100
AcDbCircle
 62
250
  6
CONTINUOUS
 10
199.0350868749
 20
-786.6409840174
 40
939.876731858
100
AcDbArc
 50
87.2433928878
 51
92.7566071122
  0
ARC
  5
492
100
AcDbEntity
  8
RACCORDO
100
AcDbCircle
 62
250
  6
CONTINUOUS
 10
199.0350869714
 20
-785.0629013173
 40
938.0538342527
100
AcDbArc
 50
87.2384885956
 51
92.7615113571
  0
ARC
  5
493
100
AcDbEntity
  8
ASSI
100
AcDbCircle
 62
250
  6
CONTINUOUS
 10
199.0350869714
 20
-785.0629013173
 40
938.0538342527
100
AcDbArc
 50
87.2384885956
 51
92.7615113571
  0
ARC
  5
494
100
AcDbEntity
  8
DRAFT
100
AcDbCircle
 62
7
  6
CONTINUOUS
 10
199.0350868749
 20
-770.9979554861
 40
924.3907135852
100
AcDbArc
 50
86.8761934164
 51
93.1238065836
  0
ARC
  5
495
100
AcDbEntity
  8
ASSI
100
AcDbCircle
 62
7
  6
CONTINUOUS
 10
199.0350868749
 20
-770.9979554861
 40
924.3907135852
100
AcDbArc
 50
86.8761934164
 51
93.1238065836
  0
ARC
  5
496
100
AcDbEntity
  8
RACCORDO
100
AcDbCircle
 62
250
  6
CONTINUOUS
 10
243.4953177523
 20
40.7793994106
 40
111.2640756342
100
AcDbArc
 50
84.3776500231
 51
86.9572552858
  0
ARC
  5
497
100
AcDbEntity
  8
ASSI
100
AcDbCircle
 62
250
  6
CONTINUOUS
 10
243.4953177523
 20
40.7793994106
 40
111.2640756342
100
AcDbArc
 50
84.3776500231
 51
86.9572552858
  0
ARC
  5
498
100
AcDbEntity
  8
RACCORDO
100
AcDbCircle
 62
250
  6
CONTINUOUS
 10
243.5017553382
 20
40.8878995475
 40
110.908449593
100
AcDbArc
 50
84.3709189002
 51
86.9536798413
  0
ARC
  5
499
100
AcDbEntity
  8
ASSI
100
AcDbCircle
 62
250
  6
CONTINUOUS
 10
243.5017553382
 20
40.8878995475
 40
110.908449593
100
AcDbArc
 50
84.3709189002
 51
86.9536798413
  0
ARC
  5
49A
100
AcDbEntity
  8
DRAFT
100
AcDbCircle
 62
7
  6
CONTINUOUS
 10
243.3668443316
 20
41.3139748965
 40
110.8699843096
100
AcDbArc
 50
84.2843481127
 51
86.8761934163
  0
ARC
  5
49B
100
AcDbEntity
  8
ASSI
100
AcDbCircle
 62
7
  6
CONTINUOUS
 10
243.3668443316
 20
41.3139748965
 40
110.8699843096
100
AcDbArc
 50
84.2843481127
 51
86.8761934163
  0
ARC
  5
49C
100
AcDbEntity
  8
RACCORDO
100
AcDbCircle
 62
250
  6
CONTINUOUS
 10
207.5604738187
 20
89.4110467856
 40
62.5808222691
100
AcDbArc
 50
350.6888481247
 51
354.3740413763
  0
ARC
  5
49D
100
AcDbEntity
  8
ASSI
100
AcDbCircle
 62
250
  6
CONTINUOUS
 10
207.5604738187
 20
89.4110467856
 40
62.5808222691
100
AcDbArc
 50
350.6888481247
 51
354.3740413763
  0
ARC
  5
49E
100
AcDbEntity
  8
RACCORDO
100
AcDbCircle
 62
250
  6
CONTINUOUS
 10
207.3936160399
 20
89.4057848442
 40
62.4734499283
100
AcDbArc
 50
350.7005829786
 51
354.3813271462
  0
ARC
  5
49F
100
AcDbEntity
  8
ASSI
100
AcDbCircle
 62
250
  6
CONTINUOUS
 10
207.3936160399
 20
89.4057848442
 40
62.4734499283
100
AcDbArc
 50
350.7005829786
 51
354.3813271462
  0
ARC
  5
4A0
100
AcDbEntity
  8
DRAFT
100
AcDbCircle
 62
7
  6
CONTINUOUS
 10
208.5753495273
 20
89.4668552934
 40
61.7559236485
100
AcDbArc
 50
350.4847401267
 51
354.229781
  0
ARC
  5
4A1
100
AcDbEntity
  8
ASSI
100
AcDbCircle
 62
7
  6
CONTINUOUS
 10
208.5753495273
 20
89.4668552934
 40
61.7559236485
100
AcDbArc
 50
350.4847401267
 51
354.229781
  0
ARC
  5
4A2
100
AcDbEntity
  8
RACCORDO
100
AcDbCircle
 62
250
  6
CONTINUOUS
 10
291.3179703041
 20
92.2810629886
 40
61.0941208677
100
AcDbArc
 50
140.3407618253
 51
140.7227982184
  0
ARC
  5
4A3
100
AcDbEntity
  8
ASSI
100
AcDbCircle
 62
250
  6
CONTINUOUS
 10
291.3179703041
 20
92.2810629886
 40
61.0941208677
100
AcDbArc
 50
140.3407618253
 51
140.7227982184
  0
ARC
  5
4A4
100
AcDbEntity
  8
RACCORDO
100
AcDbCircle
 62
250
  6
CONTINUOUS
 10
221.6365457586
 20
83.8312553585
 40
48.4142670557
100
AcDbArc
 50
178.4657418758
 51
178.9802966832
  0
ARC
  5
4A5
100
AcDbEntity
  8
ASSI
100
AcDbCircle
 62
250
  6
CONTINUOUS
 10
221.6365457586
 20
83.8312553585
 40
48.4142670557
100
AcDbArc
 50
178.4657418758
 51
178.9802966832
  0
ARC
  5
4A6
100
AcDbEntity
  8
RACCORDO
100
AcDbCircle
 62
250
  6
CONTINUOUS
 10
214.8795728756
 20
84.2871635046
 40
28.4855268572
100
AcDbArc
 50
1.75564721
 51
2.5941141307
  0
ARC
  5
4A7
100
AcDbEntity
  8
ASSI
100
AcDbCircle
 62
250
  6
CONTINUOUS
 10
214.8795728756
 20
84.2871635046
 40
28.4855268572
100
AcDbArc
 50
1.75564721
 51
2.5941141307
  0
ARC
  5
4A8
100
AcDbEntity
  8
DRAFT
100
AcDbCircle
 62
7
  6
CONTINUOUS
 10
252.7155036607
 20
82.0682409155
 40
17.0
100
AcDbArc
 50
275.7156518873
 51
350.4847401267
  0
ARC
  5
4A9
100
AcDbEntity
  8
ASSI
100
AcDbCircle
 62
7
  6
CONTINUOUS
 10
252.7155036607
 20
82.0682409155
 40
17.0
100
AcDbArc
 50
275.7156518873
 51
350.4847401267
  0
ARC
  5
4AA
100
AcDbEntity
  8
RACCORDO
100
AcDbCircle
 62
250
  6
CONTINUOUS
 10
243.3028729518
 20
86.6974219593
 40
1.5383225072
100
AcDbArc
 50
271.819940611
 51
359.1944140243
  0
ARC
  5
4AB
100
AcDbEntity
  8
ASSI
100
AcDbCircle
 62
250
  6
CONTINUOUS
 10
243.3028729518
 20
86.6974219593
 40
1.5383225072
100
AcDbArc
 50
271.819940611
 51
359.1944140243
  0
ARC
  5
4AC
100
AcDbEntity
  8
RACCORDO
100
AcDbCircle
 62
7
  6
CONTINUOUS
 10
243.3138251939
 20
86.7097534318
 40
1.1335719737
100
AcDbArc
 50
308.88862622
 51
358.8304787569
  0
ARC
  5
4AD
100
AcDbEntity
  8
ASSI
100
AcDbCircle
 62
7
  6
CONTINUOUS
 10
243.3138251939
 20
86.7097534318
 40
1.1335719737
100
AcDbArc
 50
308.88862622
 51
358.8304787569
  0
ARC
  5
4AE
100
AcDbEntity
  8
RACCORDO
100
AcDbCircle
 62
250
  6
CONTINUOUS
 10
243.3351011524
 20
86.6945390603
 40
0.9198171929
100
AcDbArc
 50
269.9980967718
 51
359.8896301434
  0
ARC
  5
4AF
100
AcDbEntity
  8
ASSI
100
AcDbCircle
 62
250
  6
CONTINUOUS
 10
243.3351011524
 20
86.6945390603
 40
0.9198171929
100
AcDbArc
 50
269.9980967718
 51
359.8896301434
  0
ARC
  5
4B0
100
AcDbEntity
  8
0
100
AcDbCircle
 62
7
  6
CONTINUOUS
 10
243.3350868749
 20
86.6927580991
 40
0.8
100
AcDbArc
 50
269.9999999965
 51
360.0
  0
ARC
  5
4B1
100
AcDbEntity
  8
ASSI
100
AcDbCircle
 62
7
  6
CONTINUOUS
 10
243.3350868749
 20
86.6927580991
 40
0.8
100
AcDbArc
 50
269.9999999965
 51
360.0
  0
ARC
  5
4B2
100
AcDbEntity
  8
RACCORDO
100
AcDbCircle
 62
250
  6
CONTINUOUS
 10
399.3999349545
 20
106.8449775811
 40
272.2045261208
100
AcDbArc
 50
174.381208164
 51
174.6780196616
  0
ARC
  5
4B3
100
AcDbEntity
  8
ASSI
100
AcDbCircle
 62
250
  6
CONTINUOUS
 10
399.3999349545
 20
106.8449775811
 40
272.2045261208
100
AcDbArc
 50
174.381208164
 51
174.6780196616
  0
ARC
  5
4B4
100
AcDbEntity
  8
RACCORDO
100
AcDbCircle
 62
250
  6
CONTINUOUS
 10
398.6112000952
 20
106.8767549786
 40
271.6893841869
100
AcDbArc
 50
174.3744631995
 51
174.6716139186
  0
ARC
  5
4B5
100
AcDbEntity
  8
ASSI
100
AcDbCircle
 62
250
  6
CONTINUOUS
 10
398.6112000952
 20
106.8767549786
 40
271.6893841869
100
AcDbArc
 50
174.3744631995
 51
174.6716139186
  0
ARC
  5
4B6
100
AcDbEntity
  8
RACCORDO
100
AcDbCircle
 62
250
  6
CONTINUOUS
 10
382.3522135168
 20
108.3927580991
 40
255.3598737892
100
AcDbArc
 50
174.671519563
 51
185.328480437
  0
ARC
  5
4B7
100
AcDbEntity
  8
ASSI
100
AcDbCircle
 62
250
  6
CONTINUOUS
 10
382.3522135168
 20
108.3927580991
 40
255.3598737892
100
AcDbArc
 50
174.671519563
 51
185.328480437
  0
ARC
  5
4B8
100
AcDbEntity
  8
RACCORDO
100
AcDbCircle
 62
250
  6
CONTINUOUS
 10
382.4535174495
 20
108.3927581061
 40
255.1876022417
100
AcDbArc
 50
174.6711232958
 51
185.3288766909
  0
ARC
  5
4B9
100
AcDbEntity
  8
ASSI
100
AcDbCircle
 62
250
  6
CONTINUOUS
 10
382.4535174495
 20
108.3927581061
 40
255.1876022417
100
AcDbArc
 50
174.6711232958
 51
185.3288766909
  0
ARC
  5
4BA
100
AcDbEntity
  8
DRAFT
100
AcDbCircle
 62
7
  6
CONTINUOUS
 10
376.7850868748
 20
108.3927580991
 40
250.0
100
AcDbArc
 50
174.229781
 51
185.770219
  0
ARC
  5
4BB
100
AcDbEntity
  8
ASSI
100
AcDbCircle
 62
7
  6
CONTINUOUS
 10
376.7850868748
 20
108.3927580991
 40
250.0
100
AcDbArc
 50
174.229781
 51
185.770219
  0
ARC
  5
4BC
100
AcDbEntity
  8
RACCORDO
100
AcDbCircle
 62
250
  6
CONTINUOUS
 10
6413.2808327967
 20
91.8830684988
 40
6259.4982888221
100
AcDbArc
 50
180.065815086
 51
180.2471351519
  0
ARC
  5
4BD
100
AcDbEntity
  8
ASSI
100
AcDbCircle
 62
250
  6
CONTINUOUS
 10
6413.2808327967
 20
91.8830684988
 40
6259.4982888221
100
AcDbArc
 50
180.065815086
 51
180.2471351519
  0
ARC
  5
4BE
100
AcDbEntity
  8
RACCORDO
100
AcDbCircle
 62
250
  6
CONTINUOUS
 10
399.3999561956
 20
109.9405406618
 40
272.2045474601
100
AcDbArc
 50
185.3219803367
 51
185.6187918265
  0
ARC
  5
4BF
100
AcDbEntity
  8
ASSI
100
AcDbCircle
 62
250
  6
CONTINUOUS
 10
399.3999561956
 20
109.9405406618
 40
272.2045474601
100
AcDbArc
 50
185.3219803367
 51
185.6187918265
  0
ARC
  5
4C0
100
AcDbEntity
  8
RACCORDO
100
AcDbCircle
 62
250
  6
CONTINUOUS
 10
398.6113206866
 20
109.9087728017
 40
271.6895053328
100
AcDbArc
 50
185.3283861518
 51
185.625537018
  0
ARC
  5
4C1
100
AcDbEntity
  8
ASSI
100
AcDbCircle
 62
250
  6
CONTINUOUS
 10
398.6113206866
 20
109.9087728017
 40
271.6895053328
100
AcDbArc
 50
185.3283861518
 51
185.625537018
  0
ARC
  5
4C2
100
AcDbEntity
  8
RACCORDO
100
AcDbCircle
 62
250
  6
CONTINUOUS
 10
243.4953064273
 20
176.0062661132
 40
111.2642253504
100
AcDbArc
 50
273.0427467061
 51
275.6223554499
  0
ARC
  5
4C3
100
AcDbEntity
  8
ASSI
100
AcDbCircle
 62
250
  6
CONTINUOUS
 10
243.4953064273
 20
176.0062661132
 40
111.2642253504
100
AcDbArc
 50
273.0427467061
 51
275.6223554499
  0
ARC
  5
4C4
100
AcDbEntity
  8
RACCORDO
100
AcDbCircle
 62
250
  6
CONTINUOUS
 10
243.5017553351
 20
175.8976166917
 40
110.9084496341
100
AcDbArc
 50
273.0463201592
 51
275.6290810993
  0
ARC
  5
4C5
100
AcDbEntity
  8
ASSI
100
AcDbCircle
 62
250
  6
CONTINUOUS
 10
243.5017553351
 20
175.8976166917
 40
110.9084496341
100
AcDbArc
 50
273.0463201592
 51
275.6290810993
  0
ARC
  5
4C6
100
AcDbEntity
  8
DRAFT
100
AcDbCircle
 62
7
  6
CONTINUOUS
 10
243.3668443316
 20
175.4715413017
 40
110.8699843096
100
AcDbArc
 50
273.1238065837
 51
275.7156518873
  0
ARC
  5
4C7
100
AcDbEntity
  8
ASSI
100
AcDbCircle
 62
7
  6
CONTINUOUS
 10
243.3668443316
 20
175.4715413017
 40
110.8699843096
100
AcDbArc
 50
273.1238065837
 51
275.7156518873
  0
ARC
  5
4C8
100
AcDbEntity
  8
RACCORDO
100
AcDbCircle
 62
250
  6
CONTINUOUS
 10
207.5578467698
 20
127.3741249773
 40
62.5834704304
100
AcDbArc
 50
5.6260378728
 51
9.3110875476
  0
ARC
  5
4C9
100
AcDbEntity
  8
ASSI
100
AcDbCircle
 62
250
  6
CONTINUOUS
 10
207.5578467698
 20
127.3741249773
 40
62.5834704304
100
AcDbArc
 50
5.6260378728
 51
9.3110875476
  0
ARC
  5
4CA
100
AcDbEntity
  8
RACCORDO
100
AcDbCircle
 62
250
  6
CONTINUOUS
 10
207.390672188
 20
127.3793459291
 40
62.4764173726
100
AcDbArc
 50
5.618760296
 51
9.2993295791
  0
ARC
  5
4CB
100
AcDbEntity
  8
ASSI
100
AcDbCircle
 62
250
  6
CONTINUOUS
 10
207.390672188
 20
127.3793459291
 40
62.4764173726
100
AcDbArc
 50
5.618760296
 51
9.2993295791
  0
ARC
  5
4CC
100
AcDbEntity
  8
DRAFT
100
AcDbCircle
 62
7
  6
CONTINUOUS
 10
208.5753495273
 20
127.3186609048
 40
61.7559236485
100
AcDbArc
 50
5.770219
 51
9.5152598733
  0
ARC
  5
4CD
100
AcDbEntity
  8
ASSI
100
AcDbCircle
 62
7
  6
CONTINUOUS
 10
208.5753495273
 20
127.3186609048
 40
61.7559236485
100
AcDbArc
 50
5.770219
 51
9.5152598733
  0
ARC
  5
4CE
100
AcDbEntity
  8
RACCORDO
100
AcDbCircle
 62
250
  6
CONTINUOUS
 10
291.1193991895
 20
124.3410240517
 40
60.8369463314
100
AcDbArc
 50
219.276449735
 51
219.6601003785
  0
ARC
  5
4CF
100
AcDbEntity
  8
ASSI
100
AcDbCircle
 62
250
  6
CONTINUOUS
 10
291.1193991895
 20
124.3410240517
 40
60.8369463314
100
AcDbArc
 50
219.276449735
 51
219.6601003785
  0
ARC
  5
4D0
100
AcDbEntity
  8
RACCORDO
100
AcDbCircle
 62
250
  6
CONTINUOUS
 10
221.6364552049
 20
132.9542607611
 40
48.4141765323
100
AcDbArc
 50
181.0197050554
 51
181.5342609006
  0
ARC
  5
4D1
100
AcDbEntity
  8
ASSI
100
AcDbCircle
 62
250
  6
CONTINUOUS
 10
221.6364552049
 20
132.9542607611
 40
48.4141765323
100
AcDbArc
 50
181.0197050554
 51
181.5342609006
  0
ARC
  5
4D2
100
AcDbEntity
  8
RACCORDO
100
AcDbCircle
 62
250
  6
CONTINUOUS
 10
214.867697713
 20
132.4988038037
 40
28.4974103157
100
AcDbArc
 50
357.4061247774
 51
358.2441779242
  0
ARC
  5
4D3
100
AcDbEntity
  8
ASSI
100
AcDbCircle
 62
250
  6
CONTINUOUS
 10
214.867697713
 20
132.4988038037
 40
28.4974103157
100
AcDbArc
 50
357.4061247774
 51
358.2441779242
  0
ARC
  5
4D4
100
AcDbEntity
  8
DRAFT
100
AcDbCircle
 62
7
  6
CONTINUOUS
 10
252.7155036607
 20
134.7172752827
 40
17.0
100
AcDbArc
 50
9.5152598733
 51
84.2843481127
  0
ARC
  5
4D5
100
AcDbEntity
  8
ASSI
100
AcDbCircle
 62
7
  6
CONTINUOUS
 10
252.7155036607
 20
134.7172752827
 40
17.0
100
AcDbArc
 50
9.5152598733
 51
84.2843481127
  0
ARC
  5
4D6
100
AcDbEntity
  8
RACCORDO
100
AcDbCircle
 62
250
  6
CONTINUOUS
 10
243.3028729121
 20
130.088094134
 40
1.5383226133
100
AcDbArc
 50
50.3519975259
 51
88.1800580348
  0
ARC
  5
4D7
100
AcDbEntity
  8
ASSI
100
AcDbCircle
 62
250
  6
CONTINUOUS
 10
243.3028729121
 20
130.088094134
 40
1.5383226133
100
AcDbArc
 50
50.3519975259
 51
88.1800580348
  0
ARC
  5
4D8
100
AcDbEntity
  8
RACCORDO
100
AcDbCircle
 62
250
  6
CONTINUOUS
 10
243.3351016313
 20
130.0909776196
 40
0.919816713
100
AcDbArc
 50
0.1102948747
 51
90.0011400735
  0
ARC
  5
4D9
100
AcDbEntity
  8
ASSI
100
AcDbCircle
 62
250
  6
CONTINUOUS
 10
243.3351016313
 20
130.0909776196
 40
0.919816713
100
AcDbArc
 50
0.1102948747
 51
90.0011400735
  0
ARC
  5
4DA
100
AcDbEntity
  8
0
100
AcDbCircle
 62
7
  6
CONTINUOUS
 10
243.3350868749
 20
130.0927580991
 40
0.8
100
AcDbArc
 50
0.0
 51
90.0000000008
  0
ARC
  5
4DB
100
AcDbEntity
  8
ASSI
100
AcDbCircle
 62
7
  6
CONTINUOUS
 10
243.3350868749
 20
130.0927580991
 40
0.8
100
AcDbArc
 50
0.0
 51
90.0000000008
  0
ARC
  5
4DC
100
AcDbEntity
  8
RACCORDO
100
AcDbCircle
 62
250
  6
CONTINUOUS
 10
199.0350868749
 20
1478.0930799824
 40
1393.2043736724
100
AcDbArc
 50
268.939096818
 51
271.060903182
  0
ARC
  5
4DD
100
AcDbEntity
  8
ASSI
100
AcDbCircle
 62
250
  6
CONTINUOUS
 10
199.0350868749
 20
1478.0930799824
 40
1393.2043736724
100
AcDbArc
 50
268.939096818
 51
271.060903182
  0
ARC
  5
4DE
100
AcDbEntity
  8
RACCORDO
100
AcDbCircle
 62
250
  6
CONTINUOUS
 10
198.9757379364
 20
1473.6254157987
 40
1388.7363766795
100
AcDbArc
 50
268.2162431795
 51
268.9381321803
  0
ARC
  5
4DF
100
AcDbEntity
  8
ASSI
100
AcDbCircle
 62
250
  6
CONTINUOUS
 10
198.9757379364
 20
1473.6254157987
 40
1388.7363766795
100
AcDbArc
 50
268.2162431795
 51
268.9381321803
  0
ARC
  5
4E0
100
AcDbEntity
  8
RACCORDO
100
AcDbCircle
 62
250
  6
CONTINUOUS
 10
199.1120906766
 20
1472.9146087408
 40
1388.0253645173
100
AcDbArc
 50
271.0616829272
 51
271.7839417174
  0
ARC
  5
4E1
100
AcDbEntity
  8
ASSI
100
AcDbCircle
 62
250
  6
CONTINUOUS
 10
199.1120906766
 20
1472.9146087408
 40
1388.0253645173
100
AcDbArc
 50
271.0616829272
 51
271.7839417174
  0
ARC
  5
4E2
100
AcDbEntity
  8
RACCORDO
100
AcDbCircle
 62
250
  6
CONTINUOUS
 10
199.0350868748
 20
1472.3920870622
 40
1387.9391504331
100
AcDbArc
 50
268.9346716929
 51
271.0653283071
  0
ARC
  5
4E3
100
AcDbEntity
  8
ASSI
100
AcDbCircle
 62
250
  6
CONTINUOUS
 10
199.0350868748
 20
1472.3920870622
 40
1387.9391504331
100
AcDbArc
 50
268.9346716929
 51
271.0653283071
  0
ARC
  5
4E4
100
AcDbEntity
  8
RACCORDO
100
AcDbCircle
 62
250
  6
CONTINUOUS
 10
198.9737865486
 20
1472.1981321556
 40
1387.74409053
100
AcDbArc
 50
268.1725202485
 51
268.9370532769
  0
ARC
  5
4E5
100
AcDbEntity
  8
ASSI
100
AcDbCircle
 62
250
  6
CONTINUOUS
 10
198.9737865486
 20
1472.1981321556
 40
1387.74409053
100
AcDbArc
 50
268.1725202485
 51
268.9370532769
  0
ARC
  5
4E6
100
AcDbEntity
  8
RACCORDO
100
AcDbCircle
 62
250
  6
CONTINUOUS
 10
199.1152724886
 20
1471.4495797967
 40
1386.9953166542
100
AcDbArc
 50
271.0627403522
 51
271.8276861224
  0
ARC
  5
4E7
100
AcDbEntity
  8
ASSI
100
AcDbCircle
 62
250
  6
CONTINUOUS
 10
199.1152724886
 20
1471.4495797967
 40
1386.9953166542
100
AcDbArc
 50
271.0627403522
 51
271.8276861224
  0
ARC
  5
4E8
100
AcDbEntity
  8
RACCORDO
100
AcDbCircle
 62
250
  6
CONTINUOUS
 10
203.6058301301
 20
1098.5397167343
 40
1035.0997100683
100
AcDbArc
 50
266.957649056
 51
267.2438830556
  0
ARC
  5
4E9
100
AcDbEntity
  8
ASSI
100
AcDbCircle
 62
250
  6
CONTINUOUS
 10
203.6058301301
 20
1098.5397167343
 40
1035.0997100683
100
AcDbArc
 50
266.957649056
 51
267.2438830556
  0
ARC
  5
4EA
100
AcDbEntity
  8
RACCORDO
100
AcDbCircle
 62
250
  6
CONTINUOUS
 10
203.6341698094
 20
1097.9416741077
 40
1034.2570792288
100
AcDbArc
 50
266.953902551
 51
267.2404783413
  0
ARC
  5
4EB
100
AcDbEntity
  8
ASSI
100
AcDbCircle
 62
250
  6
CONTINUOUS
 10
203.6341698094
 20
1097.9416741077
 40
1034.2570792288
100
AcDbArc
 50
266.953902551
 51
267.2404783413
  0
ARC
  5
4EC
100
AcDbEntity
  8
RACCORDO
100
AcDbCircle
 62
250
  6
CONTINUOUS
 10
199.0350868749
 20
1003.4265002157
 40
939.8767318581
100
AcDbArc
 50
267.2433928878
 51
272.7566071122
  0
ARC
  5
4ED
100
AcDbEntity
  8
ASSI
100
AcDbCircle
 62
250
  6
CONTINUOUS
 10
199.0350868749
 20
1003.4265002157
 40
939.8767318581
100
AcDbArc
 50
267.2433928878
 51
272.7566071122
  0
ARC
  5
4EE
100
AcDbEntity
  8
RACCORDO
100
AcDbCircle
 62
250
  6
CONTINUOUS
 10
199.0350869689
 20
1001.8484175154
 40
938.0538342527
100
AcDbArc
 50
267.2384886423
 51
272.7615114038
  0
ARC
  5
4EF
100
AcDbEntity
  8
ASSI
100
AcDbCircle
 62
250
  6
CONTINUOUS
 10
199.0350869689
 20
1001.8484175154
 40
938.0538342527
100
AcDbArc
 50
267.2384886423
 51
272.7615114038
  0
ARC
  5
4F0
100
AcDbEntity
  8
DRAFT
100
AcDbCircle
 62
7
  6
CONTINUOUS
 10
199.0350868749
 20
987.7834716843
 40
924.3907135852
100
AcDbArc
 50
266.8761934164
 51
273.1238065836
  0
ARC
  5
4F1
100
AcDbEntity
  8
ASSI
100
AcDbCircle
 62
7
  6
CONTINUOUS
 10
199.0350868749
 20
987.7834716843
 40
924.3907135852
100
AcDbArc
 50
266.8761934164
 51
273.1238065836
  0
ARC
  5
4F2
100
AcDbEntity
  8
RACCORDO
100
AcDbCircle
 62
250
  6
CONTINUOUS
 10
6413.2775863378
 20
124.9024527191
 40
6259.4950423596
100
AcDbArc
 50
179.7528647659
 51
179.9341849258
  0
ARC
  5
4F3
100
AcDbEntity
  8
ASSI
100
AcDbCircle
 62
250
  6
CONTINUOUS
 10
6413.2775863378
 20
124.9024527191
 40
6259.4950423596
100
AcDbArc
 50
179.7528647659
 51
179.9341849258
  0
ARC
  5
4F4
100
AcDbEntity
  8
0
100
AcDbCircle
 62
7
  6
CONTINUOUS
 10
109.1000823204
 20
69.4457587027
 40
4.6460645767
100
AcDbArc
 50
319.0961816104
 51
319.3308760071
  0
ARC
  5
4F5
100
AcDbEntity
  8
ASSI
100
AcDbCircle
 62
7
  6
CONTINUOUS
 10
109.1000823204
 20
69.4457587027
 40
4.6460645767
100
AcDbArc
 50
319.0961816104
 51
319.3308760071
  0
ARC
  5
4F6
100
AcDbEntity
  8
0
100
AcDbCircle
 62
7
  6
CONTINUOUS
 10
109.1094020682
 20
69.4376873742
 40
4.6337355849
100
AcDbArc
 50
318.919257496
 51
319.0961556528
  0
ARC
  5
4F7
100
AcDbEntity
  8
ASSI
100
AcDbCircle
 62
7
  6
CONTINUOUS
 10
109.1094020682
 20
69.4376873742
 40
4.6337355849
100
AcDbArc
 50
318.919257496
 51
319.0961556528
  0
ARC
  5
4F8
100
AcDbEntity
  8
0
100
AcDbCircle
 62
250
  6
CONTINUOUS
 10
109.2660141091
 20
69.5718958472
 40
4.4752947325
100
AcDbArc
 50
318.4216763176
 51
318.6207834153
  0
ARC
  5
4F9
100
AcDbEntity
  8
ASSI
100
AcDbCircle
 62
250
  6
CONTINUOUS
 10
109.2660141091
 20
69.5718958472
 40
4.4752947325
100
AcDbArc
 50
318.4216763176
 51
318.6207834153
  0
ARC
  5
4FA
100
AcDbEntity
  8
0
100
AcDbCircle
 62
250
  6
CONTINUOUS
 10
109.279954721
 20
69.5298745504
 40
4.4516895811
100
AcDbArc
 50
317.1212911592
 51
318.6942694299
  0
ARC
  5
4FB
100
AcDbEntity
  8
ASSI
100
AcDbCircle
 62
250
  6
CONTINUOUS
 10
109.279954721
 20
69.5298745504
 40
4.4516895811
100
AcDbArc
 50
317.1212911592
 51
318.6942694299
  0
ARC
  5
4FC
100
AcDbEntity
  8
0
100
AcDbCircle
 62
7
  6
CONTINUOUS
 10
109.4394729269
 20
68.2701790807
 40
4.3944947914
100
AcDbArc
 50
288.8430433015
 51
295.1072805873
  0
ARC
  5
4FD
100
AcDbEntity
  8
ASSI
100
AcDbCircle
 62
7
  6
CONTINUOUS
 10
109.4394729269
 20
68.2701790807
 40
4.3944947914
100
AcDbArc
 50
288.8430433015
 51
295.1072805873
  0
ARC
  5
4FE
100
AcDbEntity
  8
0
100
AcDbCircle
 62
7
  6
CONTINUOUS
 10
109.4394103595
 20
68.2684268445
 40
4.3929418858
100
AcDbArc
 50
297.1021496338
 51
303.8750035323
  0
ARC
  5
4FF
100
AcDbEntity
  8
ASSI
100
AcDbCircle
 62
7
  6
CONTINUOUS
 10
109.4394103595
 20
68.2684268445
 40
4.3929418858
100
AcDbArc
 50
297.1021496338
 51
303.8750035323
  0
ARC
  5
500
100
AcDbEntity
  8
0
100
AcDbCircle
 62
7
  6
CONTINUOUS
 10
109.4409482926
 20
68.2682881666
 40
4.3922698628
100
AcDbArc
 50
275.0038723485
 51
282.6157973139
  0
ARC
  5
501
100
AcDbEntity
  8
ASSI
100
AcDbCircle
 62
7
  6
CONTINUOUS
 10
109.4409482926
 20
68.2682881666
 40
4.3922698628
100
AcDbArc
 50
275.0038723485
 51
282.6157973139
  0
ARC
  5
502
100
AcDbEntity
  8
0
100
AcDbCircle
 62
7
  6
CONTINUOUS
 10
109.4393729486
 20
68.2672022151
 40
4.3919729593
100
AcDbArc
 50
307.9988598812
 51
316.4772802582
  0
ARC
  5
503
100
AcDbEntity
  8
ASSI
100
AcDbCircle
 62
7
  6
CONTINUOUS
 10
109.4393729486
 20
68.2672022151
 40
4.3919729593
100
AcDbArc
 50
307.9988598812
 51
316.4772802582
  0
ARC
  5
504
100
AcDbEntity
  8
0
100
AcDbCircle
 62
7
  6
CONTINUOUS
 10
109.4415972364
 20
68.2645654442
 40
4.3884960737
100
AcDbArc
 50
282.618670035
 51
288.7681710185
  0
ARC
  5
505
100
AcDbEntity
  8
ASSI
100
AcDbCircle
 62
7
  6
CONTINUOUS
 10
109.4415972364
 20
68.2645654442
 40
4.3884960737
100
AcDbArc
 50
282.618670035
 51
288.7681710185
  0
ARC
  5
506
100
AcDbEntity
  8
0
100
AcDbCircle
 62
7
  6
CONTINUOUS
 10
109.444132017
 20
68.2612755132
 40
4.3843726826
100
AcDbArc
 50
303.8758640437
 51
307.9975333785
  0
ARC
  5
507
100
AcDbEntity
  8
ASSI
100
AcDbCircle
 62
7
  6
CONTINUOUS
 10
109.444132017
 20
68.2612755132
 40
4.3843726826
100
AcDbArc
 50
303.8758640437
 51
307.9975333785
  0
ARC
  5
508
100
AcDbEntity
  8
0
100
AcDbCircle
 62
7
  6
CONTINUOUS
 10
109.4450707623
 20
68.2574958142
 40
4.3806346733
100
AcDbArc
 50
295.1113714164
 51
297.1007385282
  0
ARC
  5
509
100
AcDbEntity
  8
ASSI
100
AcDbCircle
 62
7
  6
CONTINUOUS
 10
109.4450707623
 20
68.2574958142
 40
4.3806346733
100
AcDbArc
 50
295.1113714164
 51
297.1007385282
  0
ARC
  5
50A
100
AcDbEntity
  8
0
100
AcDbCircle
 62
250
  6
CONTINUOUS
 10
109.4877136875
 20
69.8991656276
 40
4.2754158465
100
AcDbArc
 50
316.7585245943
 51
317.1870149853
  0
ARC
  5
50B
100
AcDbEntity
  8
ASSI
100
AcDbCircle
 62
250
  6
CONTINUOUS
 10
109.4877136875
 20
69.8991656276
 40
4.2754158465
100
AcDbArc
 50
316.7585245943
 51
317.1870149853
  0
ARC
  5
50C
100
AcDbEntity
  8
RACCORDO
100
AcDbCircle
 62
250
  6
CONTINUOUS
 10
107.3061916046
 20
65.1988296635
 40
0.300360741
100
AcDbArc
 50
190.1515604866
 51
266.9245216379
  0
ARC
  5
50D
100
AcDbEntity
  8
ASSI
100
AcDbCircle
 62
250
  6
CONTINUOUS
 10
107.3061916046
 20
65.1988296635
 40
0.300360741
100
AcDbArc
 50
190.1515604866
 51
266.9245216379
  0
ARC
  5
50E
100
AcDbEntity
  8
RACCORDO
100
AcDbCircle
 62
250
  6
CONTINUOUS
 10
107.1952187321
 20
64.9371061227
 40
0.3001733782
100
AcDbArc
 50
190.2062146536
 51
266.9713036409
  0
ARC
  5
50F
100
AcDbEntity
  8
ASSI
100
AcDbCircle
 62
250
  6
CONTINUOUS
 10
107.1952187321
 20
64.9371061227
 40
0.3001733782
100
AcDbArc
 50
190.2062146536
 51
266.9713036409
  0
ARC
  5
510
100
AcDbEntity
  8
RACCORDO
100
AcDbCircle
 62
7
  6
CONTINUOUS
 10
106.8438380089
 20
63.8493571447
 40
0.3000000125
100
AcDbArc
 50
190.5200680482
 51
267.0000001478
  0
ARC
  5
511
100
AcDbEntity
  8
ASSI
100
AcDbCircle
 62
7
  6
CONTINUOUS
 10
106.8438380089
 20
63.8493571447
 40
0.3000000125
100
AcDbArc
 50
190.5200680482
 51
267.0000001478
  0
ARC
  5
512
100
AcDbEntity
  8
RACCORDO
100
AcDbCircle
 62
250
  6
CONTINUOUS
 10
105.0045140608
 20
84.7260287355
 40
0.702432961
100
AcDbArc
 50
170.1788744405
 51
182.7075419373
  0
ARC
  5
513
100
AcDbEntity
  8
ASSI
100
AcDbCircle
 62
250
  6
CONTINUOUS
 10
105.0045140608
 20
84.7260287355
 40
0.702432961
100
AcDbArc
 50
170.1788744405
 51
182.7075419373
  0
ARC
  5
514
100
AcDbEntity
  8
RACCORDO
100
AcDbCircle
 62
250
  6
CONTINUOUS
 10
105.3300714701
 20
85.1927962339
 40
0.7013190834
100
AcDbArc
 50
173.323764452
 51
182.6905248818
  0
ARC
  5
515
100
AcDbEntity
  8
ASSI
100
AcDbCircle
 62
250
  6
CONTINUOUS
 10
105.3300714701
 20
85.1927962339
 40
0.7013190834
100
AcDbArc
 50
173.323764452
 51
182.6905248818
  0
ARC
  5
516
100
AcDbEntity
  8
RACCORDO
100
AcDbCircle
 62
7
  6
CONTINUOUS
 10
104.8347841136
 20
84.487200199
 40
0.7
100
AcDbArc
 50
145.0
 51
182.8058480519
  0
ARC
  5
517
100
AcDbEntity
  8
ASSI
100
AcDbCircle
 62
7
  6
CONTINUOUS
 10
104.8347841136
 20
84.487200199
 40
0.7
100
AcDbArc
 50
145.0
 51
182.8058480519
  0
ARC
  5
518
100
AcDbEntity
  8
RACCORDO
100
AcDbCircle
 62
250
  6
CONTINUOUS
 10
105.0016421927
 20
84.7262528113
 40
0.6995671917
100
AcDbArc
 50
144.9977378522
 51
167.9504633772
  0
ARC
  5
519
100
AcDbEntity
  8
ASSI
100
AcDbCircle
 62
250
  6
CONTINUOUS
 10
105.0016421927
 20
84.7262528113
 40
0.6995671917
100
AcDbArc
 50
144.9977378522
 51
167.9504633772
  0
ARC
  5
51A
100
AcDbEntity
  8
RACCORDO
100
AcDbCircle
 62
250
  6
CONTINUOUS
 10
104.9998870406
 20
84.7266498221
 40
0.6977678315
100
AcDbArc
 50
167.9522585994
 51
170.164319158
  0
ARC
  5
51B
100
AcDbEntity
  8
ASSI
100
AcDbCircle
 62
250
  6
CONTINUOUS
 10
104.9998870406
 20
84.7266498221
 40
0.6977678315
100
AcDbArc
 50
167.9522585994
 51
170.164319158
  0
ARC
  5
51C
100
AcDbEntity
  8
RACCORDO
100
AcDbCircle
 62
250
  6
CONTINUOUS
 10
300.8581816714
 20
92.6527928606
 40
194.6836500197
100
AcDbArc
 50
182.7606731737
 51
183.937051321
  0
ARC
  5
51D
100
AcDbEntity
  8
ASSI
100
AcDbCircle
 62
250
  6
CONTINUOUS
 10
300.8581816714
 20
92.6527928606
 40
194.6836500197
100
AcDbArc
 50
182.7606731737
 51
183.937051321
  0
ARC
  5
51E
100
AcDbEntity
  8
RACCORDO
100
AcDbCircle
 62
250
  6
CONTINUOUS
 10
299.0203267135
 20
92.6383998219
 40
193.1290414592
100
AcDbArc
 50
182.7747260505
 51
183.9571568431
  0
ARC
  5
51F
100
AcDbEntity
  8
ASSI
100
AcDbCircle
 62
250
  6
CONTINUOUS
 10
299.0203267135
 20
92.6383998219
 40
193.1290414592
100
AcDbArc
 50
182.7747260505
 51
183.9571568431
  0
ARC
  5
520
100
AcDbEntity
  8
RACCORDO
100
AcDbCircle
 62
250
  6
CONTINUOUS
 10
267.4428606473
 20
91.0729983836
 40
161.2310232682
100
AcDbArc
 50
182.2729280605
 51
182.7718533058
  0
ARC
  5
521
100
AcDbEntity
  8
ASSI
100
AcDbCircle
 62
250
  6
CONTINUOUS
 10
267.4428606473
 20
91.0729983836
 40
161.2310232682
100
AcDbArc
 50
182.2729280605
 51
182.7718533058
  0
ARC
  5
522
100
AcDbEntity
  8
RACCORDO
100
AcDbCircle
 62
250
  6
CONTINUOUS
 10
267.0813250854
 20
91.0932762667
 40
161.1526873486
100
AcDbArc
 50
182.2761816107
 51
182.7757317878
  0
ARC
  5
523
100
AcDbEntity
  8
ASSI
100
AcDbCircle
 62
250
  6
CONTINUOUS
 10
267.0813250854
 20
91.0932762667
 40
161.1526873486
100
AcDbArc
 50
182.2761816107
 51
182.7757317878
  0
ARC
  5
524
100
AcDbEntity
  8
0
100
AcDbCircle
 62
7
  6
CONTINUOUS
 10
258.7031034133
 20
92.1474662178
 40
154.9049030594
100
AcDbArc
 50
184.3965331896
 51
184.6776707774
  0
ARC
  5
525
100
AcDbEntity
  8
ASSI
100
AcDbCircle
 62
7
  6
CONTINUOUS
 10
258.7031034133
 20
92.1474662178
 40
154.9049030594
100
AcDbArc
 50
184.3965331896
 51
184.6776707774
  0
ARC
  5
526
100
AcDbEntity
  8
0
100
AcDbCircle
 62
7
  6
CONTINUOUS
 10
258.7027944797
 20
92.1473503582
 40
154.7545941029
100
AcDbArc
 50
184.4007687873
 51
184.6821811694
  0
ARC
  5
527
100
AcDbEntity
  8
ASSI
100
AcDbCircle
 62
7
  6
CONTINUOUS
 10
258.7027944797
 20
92.1473503582
 40
154.7545941029
100
AcDbArc
 50
184.4007687873
 51
184.6821811694
  0
ARC
  5
528
100
AcDbEntity
  8
RACCORDO
100
AcDbCircle
 62
250
  6
CONTINUOUS
 10
259.1397281365
 20
92.0205375749
 40
154.6395496476
100
AcDbArc
 50
182.7160128542
 51
190.1067690152
  0
ARC
  5
529
100
AcDbEntity
  8
ASSI
100
AcDbCircle
 62
250
  6
CONTINUOUS
 10
259.1397281365
 20
92.0205375749
 40
154.6395496476
100
AcDbArc
 50
182.7160128542
 51
190.1067690152
  0
ARC
  5
52A
100
AcDbEntity
  8
ASSI
100
AcDbCircle
 62
7
  6
CONTINUOUS
 10
258.5460178594
 20
92.0206572547
 40
154.5957284012
100
AcDbArc
 50
184.6398966709
 51
190.5036175889
  0
ARC
  5
52B
100
AcDbEntity
  8
ASSI
100
AcDbCircle
 62
7
  6
CONTINUOUS
 10
258.5460178594
 20
92.0206572547
 40
154.5957284012
100
AcDbArc
 50
182.7959555114
 51
183.5874674225
  0
ARC
  5
52C
100
AcDbEntity
  8
RACCORDO
100
AcDbCircle
 62
250
  6
CONTINUOUS
 10
105.0045152283
 20
132.059485772
 40
0.7024329509
100
AcDbArc
 50
177.2923248286
 51
189.8209808666
  0
ARC
  5
52D
100
AcDbEntity
  8
ASSI
100
AcDbCircle
 62
250
  6
CONTINUOUS
 10
105.0045152283
 20
132.059485772
 40
0.7024329509
100
AcDbArc
 50
177.2923248286
 51
189.8209808666
  0
ARC
  5
52E
100
AcDbEntity
  8
RACCORDO
100
AcDbCircle
 62
250
  6
CONTINUOUS
 10
105.3299975463
 20
131.5927186619
 40
0.7012475286
100
AcDbArc
 50
177.3090853803
 51
186.4415841606
  0
ARC
  5
52F
100
AcDbEntity
  8
ASSI
100
AcDbCircle
 62
250
  6
CONTINUOUS
 10
105.3299975463
 20
131.5927186619
 40
0.7012475286
100
AcDbArc
 50
177.3090853803
 51
186.4415841606
  0
ARC
  5
530
100
AcDbEntity
  8
RACCORDO
100
AcDbCircle
 62
7
  6
CONTINUOUS
 10
104.8347840516
 20
132.2983160877
 40
0.7
100
AcDbArc
 50
177.1941518962
 51
215.0
  0
ARC
  5
531
100
AcDbEntity
  8
ASSI
100
AcDbCircle
 62
7
  6
CONTINUOUS
 10
104.8347840516
 20
132.2983160877
 40
0.7
100
AcDbArc
 50
177.1941518962
 51
215.0
  0
ARC
  5
532
100
AcDbEntity
  8
RACCORDO
100
AcDbCircle
 62
250
  6
CONTINUOUS
 10
105.0016433613
 20
132.0592617031
 40
0.6995671831
100
AcDbArc
 50
192.0494091793
 51
215.0020942828
  0
ARC
  5
533
100
AcDbEntity
  8
ASSI
100
AcDbCircle
 62
250
  6
CONTINUOUS
 10
105.0016433613
 20
132.0592617031
 40
0.6995671831
100
AcDbArc
 50
192.0494091793
 51
215.0020942828
  0
ARC
  5
534
100
AcDbEntity
  8
RACCORDO
100
AcDbCircle
 62
250
  6
CONTINUOUS
 10
104.9998882202
 20
132.0588646991
 40
0.6977678351
100
AcDbArc
 50
189.835536123
 51
192.0476139923
  0
ARC
  5
535
100
AcDbEntity
  8
ASSI
100
AcDbCircle
 62
250
  6
CONTINUOUS
 10
104.9998882202
 20
132.0588646991
 40
0.6977678351
100
AcDbArc
 50
189.835536123
 51
192.0476139923
  0
ARC
  5
536
100
AcDbEntity
  8
0
100
AcDbCircle
 62
7
  6
CONTINUOUS
 10
109.0994239566
 20
147.3391903644
 40
4.6469335297
100
AcDbArc
 50
40.669137702
 51
40.8748655438
  0
ARC
  5
537
100
AcDbEntity
  8
ASSI
100
AcDbCircle
 62
7
  6
CONTINUOUS
 10
109.0994239566
 20
147.3391903644
 40
4.6469335297
100
AcDbArc
 50
40.669137702
 51
40.8748655438
  0
ARC
  5
538
100
AcDbEntity
  8
0
100
AcDbCircle
 62
7
  6
CONTINUOUS
 10
109.1087486823
 20
147.3472605061
 40
4.6346015511
100
AcDbArc
 50
40.8748658419
 51
41.0807305729
  0
ARC
  5
539
100
AcDbEntity
  8
ASSI
100
AcDbCircle
 62
7
  6
CONTINUOUS
 10
109.1087486823
 20
147.3472605061
 40
4.6346015511
100
AcDbArc
 50
40.8748658419
 51
41.0807305729
  0
ARC
  5
53A
100
AcDbEntity
  8
0
100
AcDbCircle
 62
250
  6
CONTINUOUS
 10
109.2660141118
 20
147.2136203534
 40
4.4752947289
100
AcDbArc
 50
41.3792165846
 51
41.5783236825
  0
ARC
  5
53B
100
AcDbEntity
  8
ASSI
100
AcDbCircle
 62
250
  6
CONTINUOUS
 10
109.2660141118
 20
147.2136203534
 40
4.4752947289
100
AcDbArc
 50
41.3792165846
 51
41.5783236825
  0
ARC
  5
53C
100
AcDbEntity
  8
0
100
AcDbCircle
 62
250
  6
CONTINUOUS
 10
109.279954721
 20
147.2556416479
 40
4.451689581
100
AcDbArc
 50
41.30573057
 51
42.8787088409
  0
ARC
  5
53D
100
AcDbEntity
  8
ASSI
100
AcDbCircle
 62
250
  6
CONTINUOUS
 10
109.279954721
 20
147.2556416479
 40
4.451689581
100
AcDbArc
 50
41.30573057
 51
42.8787088409
  0
ARC
  5
53E
100
AcDbEntity
  8
0
100
AcDbCircle
 62
7
  6
CONTINUOUS
 10
109.4394729269
 20
148.5153371175
 40
4.3944947914
100
AcDbArc
 50
64.8927194127
 51
71.1569566985
  0
ARC
  5
53F
100
AcDbEntity
  8
ASSI
100
AcDbCircle
 62
7
  6
CONTINUOUS
 10
109.4394729269
 20
148.5153371175
 40
4.3944947914
100
AcDbArc
 50
64.8927194127
 51
71.1569566985
  0
ARC
  5
540
100
AcDbEntity
  8
0
100
AcDbCircle
 62
7
  6
CONTINUOUS
 10
109.4394103595
 20
148.5170893537
 40
4.3929418858
100
AcDbArc
 50
56.1249964677
 51
62.8978503661
  0
ARC
  5
541
100
AcDbEntity
  8
ASSI
100
AcDbCircle
 62
7
  6
CONTINUOUS
 10
109.4394103595
 20
148.5170893537
 40
4.3929418858
100
AcDbArc
 50
56.1249964677
 51
62.8978503661
  0
ARC
  5
542
100
AcDbEntity
  8
0
100
AcDbCircle
 62
7
  6
CONTINUOUS
 10
109.4409482926
 20
148.5172280316
 40
4.3922698628
100
AcDbArc
 50
77.3842026861
 51
84.9961276515
  0
ARC
  5
543
100
AcDbEntity
  8
ASSI
100
AcDbCircle
 62
7
  6
CONTINUOUS
 10
109.4409482926
 20
148.5172280316
 40
4.3922698628
100
AcDbArc
 50
77.3842026861
 51
84.9961276515
  0
ARC
  5
544
100
AcDbEntity
  8
0
100
AcDbCircle
 62
7
  6
CONTINUOUS
 10
109.4393729485
 20
148.518313983
 40
4.3919729594
100
AcDbArc
 50
43.5227197418
 51
52.0011401187
  0
ARC
  5
545
100
AcDbEntity
  8
ASSI
100
AcDbCircle
 62
7
  6
CONTINUOUS
 10
109.4393729485
 20
148.518313983
 40
4.3919729594
100
AcDbArc
 50
43.5227197418
 51
52.0011401187
  0
ARC
  5
546
100
AcDbEntity
  8
0
100
AcDbCircle
 62
7
  6
CONTINUOUS
 10
109.4415972364
 20
148.520950754
 40
4.3884960736
100
AcDbArc
 50
71.2318289815
 51
77.381329965
  0
ARC
  5
547
100
AcDbEntity
  8
ASSI
100
AcDbCircle
 62
7
  6
CONTINUOUS
 10
109.4415972364
 20
148.520950754
 40
4.3884960736
100
AcDbArc
 50
71.2318289815
 51
77.381329965
  0
ARC
  5
548
100
AcDbEntity
  8
0
100
AcDbCircle
 62
7
  6
CONTINUOUS
 10
109.444132017
 20
148.524240685
 40
4.3843726826
100
AcDbArc
 50
52.0024666215
 51
56.1241359563
  0
ARC
  5
549
100
AcDbEntity
  8
ASSI
100
AcDbCircle
 62
7
  6
CONTINUOUS
 10
109.444132017
 20
148.524240685
 40
4.3843726826
100
AcDbArc
 50
52.0024666215
 51
56.1241359563
  0
ARC
  5
54A
100
AcDbEntity
  8
0
100
AcDbCircle
 62
7
  6
CONTINUOUS
 10
109.4450707623
 20
148.528020384
 40
4.3806346733
100
AcDbArc
 50
62.8992614718
 51
64.8886285836
  0
ARC
  5
54B
100
AcDbEntity
  8
ASSI
100
AcDbCircle
 62
7
  6
CONTINUOUS
 10
109.4450707623
 20
148.528020384
 40
4.3806346733
100
AcDbArc
 50
62.8992614718
 51
64.8886285836
  0
ARC
  5
54C
100
AcDbEntity
  8
0
100
AcDbCircle
 62
250
  6
CONTINUOUS
 10
109.4877136887
 20
146.8863505717
 40
4.2754158448
100
AcDbArc
 50
42.8129850146
 51
43.2414754057
  0
ARC
  5
54D
100
AcDbEntity
  8
ASSI
100
AcDbCircle
 62
250
  6
CONTINUOUS
 10
109.4877136887
 20
146.8863505717
 40
4.2754158448
100
AcDbArc
 50
42.8129850146
 51
43.2414754057
  0
ARC
  5
54E
100
AcDbEntity
  8
RACCORDO
100
AcDbCircle
 62
250
  6
CONTINUOUS
 10
107.3061916855
 20
151.5866864453
 40
0.300360741
100
AcDbArc
 50
93.0754928629
 51
169.848425442
  0
ARC
  5
54F
100
AcDbEntity
  8
ASSI
100
AcDbCircle
 62
250
  6
CONTINUOUS
 10
107.3061916855
 20
151.5866864453
 40
0.300360741
100
AcDbArc
 50
93.0754928629
 51
169.848425442
  0
ARC
  5
550
100
AcDbEntity
  8
RACCORDO
100
AcDbCircle
 62
250
  6
CONTINUOUS
 10
107.1952188166
 20
151.8484099749
 40
0.3001733782
100
AcDbArc
 50
93.0287114348
 51
169.793769301
  0
ARC
  5
551
100
AcDbEntity
  8
ASSI
100
AcDbCircle
 62
250
  6
CONTINUOUS
 10
107.1952188166
 20
151.8484099749
 40
0.3001733782
100
AcDbArc
 50
93.0287114348
 51
169.793769301
  0
ARC
  5
552
100
AcDbEntity
  8
RACCORDO
100
AcDbCircle
 62
7
  6
CONTINUOUS
 10
106.8438380089
 20
152.9361590535
 40
0.3000000125
100
AcDbArc
 50
92.9999998522
 51
169.4799319518
  0
ARC
  5
553
100
AcDbEntity
  8
ASSI
100
AcDbCircle
 62
7
  6
CONTINUOUS
 10
106.8438380089
 20
152.9361590535
 40
0.3000000125
100
AcDbArc
 50
92.9999998522
 51
169.4799319518
  0
ARC
  5
554
100
AcDbEntity
  8
RACCORDO
100
AcDbCircle
 62
250
  6
CONTINUOUS
 10
301.1000471984
 20
124.1185730853
 40
194.9259163921
100
AcDbArc
 50
176.063676176
 51
177.2385961323
  0
ARC
  5
555
100
AcDbEntity
  8
ASSI
100
AcDbCircle
 62
250
  6
CONTINUOUS
 10
301.1000471984
 20
124.1185730853
 40
194.9259163921
100
AcDbArc
 50
176.063676176
 51
177.2385961323
  0
ARC
  5
556
100
AcDbEntity
  8
RACCORDO
100
AcDbCircle
 62
250
  6
CONTINUOUS
 10
299.2539483049
 20
124.1333760541
 40
193.3630543228
100
AcDbArc
 50
176.0435586861
 51
177.2245584203
  0
ARC
  5
557
100
AcDbEntity
  8
ASSI
100
AcDbCircle
 62
250
  6
CONTINUOUS
 10
299.2539483049
 20
124.1333760541
 40
193.3630543228
100
AcDbArc
 50
176.0435586861
 51
177.2245584203
  0
ARC
  5
558
100
AcDbEntity
  8
RACCORDO
100
AcDbCircle
 62
250
  6
CONTINUOUS
 10
267.4430121656
 20
125.7125113595
 40
161.2311749233
100
AcDbArc
 50
177.2281465373
 51
177.7270717828
  0
ARC
  5
559
100
AcDbEntity
  8
ASSI
100
AcDbCircle
 62
250
  6
CONTINUOUS
 10
267.4430121656
 20
125.7125113595
 40
161.2311749233
100
AcDbArc
 50
177.2281465373
 51
177.7270717828
  0
ARC
  5
55A
100
AcDbEntity
  8
RACCORDO
100
AcDbCircle
 62
250
  6
CONTINUOUS
 10
267.0813303662
 20
125.6922396991
 40
161.1526926344
100
AcDbArc
 50
177.2242682206
 51
177.7238184073
  0
ARC
  5
55B
100
AcDbEntity
  8
ASSI
100
AcDbCircle
 62
250
  6
CONTINUOUS
 10
267.0813303662
 20
125.6922396991
 40
161.1526926344
100
AcDbArc
 50
177.2242682206
 51
177.7238184073
  0
ARC
  5
55C
100
AcDbEntity
  8
RACCORDO
100
AcDbCircle
 62
250
  6
CONTINUOUS
 10
259.1397280668
 20
124.7649786289
 40
154.6395495776
100
AcDbArc
 50
169.8932309825
 51
177.2839871466
  0
ARC
  5
55D
100
AcDbEntity
  8
ASSI
100
AcDbCircle
 62
250
  6
CONTINUOUS
 10
259.1397280668
 20
124.7649786289
 40
154.6395495776
100
AcDbArc
 50
169.8932309825
 51
177.2839871466
  0
ARC
  5
55E
100
AcDbEntity
  8
ASSI
100
AcDbCircle
 62
7
  6
CONTINUOUS
 10
258.5460178594
 20
124.7648589435
 40
154.5957284012
100
AcDbArc
 50
169.4963824111
 51
177.2040445534
  0
ARC
  5
55F
100
AcDbEntity
  8
RACCORDO
100
AcDbCircle
 62
250
  6
CONTINUOUS
 10
604.7355362698
 20
108.3851343147
 40
500.6095029319
100
AcDbArc
 50
177.512878731
 51
178.3887705251
  0
ARC
  5
560
100
AcDbEntity
  8
ASSI
100
AcDbCircle
 62
250
  6
CONTINUOUS
 10
604.7355362698
 20
108.3851343147
 40
500.6095029319
100
AcDbArc
 50
177.512878731
 51
178.3887705251
  0
ARC
  5
561
100
AcDbEntity
  8
RACCORDO
100
AcDbCircle
 62
250
  6
CONTINUOUS
 10
604.5404629474
 20
108.392606522
 40
500.4143010075
100
AcDbArc
 50
179.2166175582
 51
179.9631572739
  0
ARC
  5
562
100
AcDbEntity
  8
ASSI
100
AcDbCircle
 62
250
  6
CONTINUOUS
 10
604.5404629474
 20
108.392606522
 40
500.4143010075
100
AcDbArc
 50
179.2166175582
 51
179.9631572739
  0
ARC
  5
563
100
AcDbEntity
  8
RACCORDO
100
AcDbCircle
 62
250
  6
CONTINUOUS
 10
604.5101121913
 20
108.3923506781
 40
500.383942693
100
AcDbArc
 50
181.6111617967
 51
182.4873226354
  0
ARC
  5
564
100
AcDbEntity
  8
ASSI
100
AcDbCircle
 62
250
  6
CONTINUOUS
 10
604.5101121913
 20
108.3923506781
 40
500.383942693
100
AcDbArc
 50
181.6111617967
 51
182.4873226354
  0
ARC
  5
565
100
AcDbEntity
  8
RACCORDO
100
AcDbCircle
 62
250
  6
CONTINUOUS
 10
705.4041543824
 20
108.3927580991
 40
599.5346484075
100
AcDbArc
 50
177.7331183657
 51
182.2668816343
  0
ARC
  5
566
100
AcDbEntity
  8
ASSI
100
AcDbCircle
 62
250
  6
CONTINUOUS
 10
705.4041543824
 20
108.3927580991
 40
599.5346484075
100
AcDbArc
 50
177.7331183657
 51
182.2668816343
  0
ARC
  5
567
100
AcDbEntity
  8
RACCORDO
100
AcDbCircle
 62
250
  6
CONTINUOUS
 10
704.055805595
 20
108.3927581006
 40
598.4694689017
100
AcDbArc
 50
177.7304460194
 51
182.2695539879
  0
ARC
  5
568
100
AcDbEntity
  8
ASSI
100
AcDbCircle
 62
250
  6
CONTINUOUS
 10
704.055805595
 20
108.3927581006
 40
598.4694689017
100
AcDbArc
 50
177.7304460194
 51
182.2695539879
  0
ARC
  5
569
100
AcDbEntity
  8
RACCORDO
100
AcDbCircle
 62
250
  6
CONTINUOUS
 10
604.5301999441
 20
108.39296424
 40
500.4040397554
100
AcDbArc
 50
181.1939264329
 51
181.6111673527
  0
ARC
  5
56A
100
AcDbEntity
  8
ASSI
100
AcDbCircle
 62
250
  6
CONTINUOUS
 10
604.5301999441
 20
108.39296424
 40
500.4040397554
100
AcDbArc
 50
181.1939264329
 51
181.6111673527
  0
ARC
  5
56B
100
AcDbEntity
  8
RACCORDO
100
AcDbCircle
 62
250
  6
CONTINUOUS
 10
604.5246271839
 20
108.3928450333
 40
500.3984657212
100
AcDbArc
 50
180.0373733936
 51
181.1939260821
  0
ARC
  5
56C
100
AcDbEntity
  8
ASSI
100
AcDbCircle
 62
250
  6
CONTINUOUS
 10
604.5246271839
 20
108.3928450333
 40
500.3984657212
100
AcDbArc
 50
180.0373733936
 51
181.1939260821
  0
ARC
  5
56D
100
AcDbEntity
  8
RACCORDO
100
AcDbCircle
 62
250
  6
CONTINUOUS
 10
604.5104313472
 20
108.3931184354
 40
500.3842652154
100
AcDbArc
 50
178.8053071844
 51
179.2166291537
  0
ARC
  5
56E
100
AcDbEntity
  8
ASSI
100
AcDbCircle
 62
250
  6
CONTINUOUS
 10
604.5104313472
 20
108.3931184354
 40
500.3842652154
100
AcDbArc
 50
178.8053071844
 51
179.2166291537
  0
ARC
  5
56F
100
AcDbEntity
  8
RACCORDO
100
AcDbCircle
 62
250
  6
CONTINUOUS
 10
604.4108181647
 20
108.3951868515
 40
500.2846305608
100
AcDbArc
 50
178.3888756928
 51
178.8053061595
  0
ARC
  5
570
100
AcDbEntity
  8
ASSI
100
AcDbCircle
 62
250
  6
CONTINUOUS
 10
604.4108181647
 20
108.3951868515
 40
500.2846305608
100
AcDbArc
 50
178.3888756928
 51
178.8053061595
  0
SPLINE
  5
571
100
AcDbEntity
  8
0
100
AcDbSpline
 62
7
  6
CONTINUOUS
 70
0
 71
3
 72
9
 73
5
 74
0
 42
0.0000001
 43
0.0000001
 44
0.0000000001
 40
0.0
 40
0.0
 40
0.0
 40
0.0
 40
0.3560705344
 40
1.0
 40
1.0
 40
1.0
 40
1.0
 10
203.2505078371
 20
80.6106061743
 30
0.0
 10
203.3014347796
 20
80.6106061743
 30
0.0
 10
203.4478735979
 20
80.5797818378
 30
0.0
 10
203.5440891208
 20
80.4503170965
 30
0.0
 10
203.576488959
 20
80.3640951608
 30
0.0
  0
SPLINE
  5
572
100
AcDbEntity
  8
0
100
AcDbSpline
 62
7
  6
CONTINUOUS
 70
0
 71
3
 72
9
 73
5
 74
0
 42
0.0000001
 43
0.0000001
 44
0.0000000001
 40
0.0
 40
0.0
 40
0.0
 40
0.0
 40
0.5587152494
 40
1.0
 40
1.0
 40
1.0
 40
1.0
 10
203.5764889283
 20
80.3640951492
 30
0.0
 10
203.6345842563
 20
80.2094925107
 30
0.0
 10
203.7109546579
 20
79.9232519394
 30
0.0
 10
203.7960592161
 20
79.6403229264
 30
0.0
 10
203.8321024967
 20
79.5149567447
 30
0.0
  0
SPLINE
  5
573
100
AcDbEntity
  8
0
100
AcDbSpline
 62
7
  6
CONTINUOUS
 70
0
 71
3
 72
9
 73
5
 74
0
 42
0.0000001
 43
0.0000001
 44
0.0000000001
 40
0.0
 40
0.0
 40
0.0
 40
0.0
 40
0.1980298616
 40
1.0
 40
1.0
 40
1.0
 40
1.0
 10
204.3942350868
 20
79.5149567447
 30
0.0
 10
204.3806778575
 20
79.5648734259
 30
0.0
 10
204.3143265525
 20
79.8175064396
 30
0.0
 10
204.2495282183
 20
80.0705513438
 30
0.0
 10
204.1944660204
 20
80.2726578712
 30
0.0
  0
SPLINE
  5
574
100
AcDbEntity
  8
0
100
AcDbSpline
 62
7
  6
CONTINUOUS
 70
0
 71
3
 72
9
 73
5
 74
0
 42
0.0000001
 43
0.0000001
 44
0.0000000001
 40
0.0
 40
0.0
 40
0.0
 40
0.0
 40
0.2427307434
 40
1.0
 40
1.0
 40
1.0
 40
1.0
 10
204.19446602
 20
80.2726578711
 30
0.0
 10
204.1805998127
 20
80.3235539687
 30
0.0
 10
204.1276579387
 20
80.5290179907
 30
0.0
 10
204.0104548109
 20
80.7608788348
 30
0.0
 10
203.8575900397
 20
80.8218336622
 30
0.0
  0
SPLINE
  5
575
100
AcDbEntity
  8
0
100
AcDbSpline
 62
7
  6
CONTINUOUS
 70
0
 71
3
 72
8
 73
4
 74
0
 42
0.0000001
 43
0.0000001
 44
0.0000000001
 40
0.0
 40
0.0
 40
0.0
 40
0.0
 40
1.0
 40
1.0
 40
1.0
 40
1.0
 10
203.8575900397
 20
80.8383774711
 30
0.0
 10
203.8693018786
 20
80.8398886761
 30
0.0
 10
203.8803472979
 20
80.8436734759
 30
0.0
 10
203.890912819
 20
80.8489076637
 30
0.0
  0
SPLINE
  5
576
100
AcDbEntity
  8
0
100
AcDbSpline
 62
7
  6
CONTINUOUS
 70
0
 71
3
 72
8
 73
4
 74
0
 42
0.0000001
 43
0.0000001
 44
0.0000000001
 40
0.0
 40
0.0
 40
0.0
 40
0.0
 40
1.0
 40
1.0
 40
1.0
 40
1.0
 10
203.890912819
 20
80.8489076637
 30
0.0
 10
203.9013615509
 20
80.8540839937
 30
0.0
 10
203.9113409353
 20
80.8606778463
 30
0.0
 10
203.9210313761
 20
80.8678920451
 30
0.0
  0
SPLINE
  5
577
100
AcDbEntity
  8
0
100
AcDbSpline
 62
7
  6
CONTINUOUS
 70
0
 71
3
 72
17
 73
13
 74
0
 42
0.0000001
 43
0.0000001
 44
0.0000000001
 40
0.0
 40
0.0
 40
0.0
 40
0.0
 40
0.0162372545
 40
0.1337607687
 40
0.2924223812
 40
0.3875334096
 40
0.4962639103
 40
0.5846128034
 40
0.6640301458
 40
0.8023581775
 40
0.9166743977
 40
1.0
 40
1.0
 40
1.0
 40
1.0
 10
203.9210313761
 20
80.8678920451
 30
0.0
 10
203.9285484967
 20
80.8734882821
 30
0.0
 10
203.9890413971
 20
80.9226646349
 30
0.0
 10
204.1079865759
 20
81.0303466584
 30
0.0
 10
204.2081764895
 20
81.219969329
 30
0.0
 10
204.2528088001
 20
81.4177886952
 30
0.0
 10
204.2570019162
 20
81.5819746398
 30
0.0
 10
204.2349037273
 20
81.7353229802
 30
0.0
 10
204.1813453048
 20
81.8982675546
 30
0.0
 10
204.0807516269
 20
82.0579567897
 30
0.0
 10
203.9387211809
 20
82.1828379665
 30
0.0
 10
203.8410664117
 20
82.2366980743
 30
0.0
 10
203.7973353046
 20
82.2524742256
 30
0.0
  0
SPLINE
  5
578
100
AcDbEntity
  8
0
100
AcDbSpline
 62
7
  6
CONTINUOUS
 70
0
 71
3
 72
9
 73
5
 74
0
 42
0.0000001
 43
0.0000001
 44
0.0000000001
 40
0.0
 40
0.0
 40
0.0
 40
0.0
 40
0.2957417834
 40
1.0
 40
1.0
 40
1.0
 40
1.0
 10
203.7973353046
 20
82.2524742256
 30
0.0
 10
203.6627066573
 20
82.3011124771
 30
0.0
 10
203.1787981699
 20
82.3803957259
 30
0.0
 10
202.6923513569
 20
82.3315653402
 30
0.0
 10
202.3551056772
 20
82.2819507581
 30
0.0
  0
SPLINE
  5
579
100
AcDbEntity
  8
0
100
AcDbSpline
 62
7
  6
CONTINUOUS
 70
0
 71
3
 72
9
 73
5
 74
0
 42
0.0000001
 43
0.0000001
 44
0.0000000001
 40
0.0
 40
0.0
 40
0.0
 40
0.0
 40
0.2704041679
 40
1.0
 40
1.0
 40
1.0
 40
1.0
 10
202.9177841289
 20
81.8377033032
 30
0.0
 10
202.9585732883
 20
81.8446633386
 30
0.0
 10
203.1098903971
 20
81.8675535956
 30
0.0
 10
203.264698003
 20
81.867057435
 30
0.0
 10
203.375600305
 20
81.8541858501
 30
0.0
  0
SPLINE
  5
57A
100
AcDbEntity
  8
0
100
AcDbSpline
 62
7
  6
CONTINUOUS
 70
0
 71
3
 72
9
 73
5
 74
0
 42
0.0000001
 43
0.0000001
 44
0.0000000001
 40
0.0
 40
0.0
 40
0.0
 40
0.0
 40
0.5011416534
 40
1.0
 40
1.0
 40
1.0
 40
1.0
 10
203.375600305
 20
81.8541858503
 30
0.0
 10
203.4612568051
 20
81.844244353
 30
0.0
 10
203.6345827442
 20
81.7687827148
 30
0.0
 10
203.7044567174
 20
81.5897948052
 30
0.0
 10
203.7057390336
 20
81.5039723793
 30
0.0
  0
SPLINE
  5
57B
100
AcDbEntity
  8
0
100
AcDbSpline
 62
7
  6
CONTINUOUS
 70
0
 71
3
 72
9
 73
5
 74
0
 42
0.0000001
 43
0.0000001
 44
0.0000000001
 40
0.0
 40
0.0
 40
0.0
 40
0.0
 40
0.52046246
 40
1.0
 40
1.0
 40
1.0
 40
1.0
 10
203.7057390094
 20
81.5039723789
 30
0.0
 10
203.7075465732
 20
81.3829953331
 30
0.0
 10
203.6220137588
 20
81.1187594534
 30
0.0
 10
203.3631980019
 20
81.0716188935
 30
0.0
 10
203.251767518
 20
81.0691300125
 30
0.0
  0
SPLINE
  5
57C
100
AcDbEntity
  8
RACCORDO
100
AcDbSpline
 62
250
  6
CONTINUOUS
 70
0
 71
3
 72
9
 73
5
 74
0
 42
0.0000001
 43
0.0000001
 44
0.0000000001
 40
0.0
 40
0.0
 40
0.0
 40
0.0
 40
0.2498970319
 40
1.0
 40
1.0
 40
1.0
 40
1.0
 10
153.2286493296
 20
86.6765206397
 30
0.0
 10
153.2252197596
 20
88.4854594495
 30
0.0
 10
153.2131784766
 20
95.7241992239
 30
0.0
 10
153.2080685537
 20
102.9629504749
 30
0.0
 10
153.2080658453
 20
108.3927580991
 30
0.0
  0
SPLINE
  5
57D
100
AcDbEntity
  8
RACCORDO
100
AcDbSpline
 62
250
  6
CONTINUOUS
 70
0
 71
3
 72
11
 73
7
 74
0
 42
0.0000001
 43
0.0000001
 44
0.0000000001
 40
0.0
 40
0.0
 40
0.0
 40
0.0
 40
0.2500807744
 40
0.5001173561
 40
0.7500852886
 40
1.0
 40
1.0
 40
1.0
 40
1.0
 10
153.7857444001
 20
85.5129460524
 30
0.0
 10
153.7004333734
 20
85.5835677078
 30
0.0
 10
153.5446629614
 20
85.743863841
 30
0.0
 10
153.3684509584
 20
86.0284571642
 30
0.0
 10
153.2577263612
 20
86.3441349335
 30
0.0
 10
153.2298928256
 20
86.5658519483
 30
0.0
 10
153.2286493296
 20
86.6765206397
 30
0.0
  0
LINE
  5
57E
100
AcDbEntity
  8
RACCORDO
100
AcDbLine
 62
250
  6
CONTINUOUS
 10
153.7857444001
 20
85.5129460524
 11
153.7866736424
 21
84.6928473125
  0
SPLINE
  5
57F
100
AcDbEntity
  8
RACCORDO
100
AcDbSpline
 62
250
  6
CONTINUOUS
 70
0
 71
3
 72
15
 73
11
 74
0
 42
0.0000001
 43
0.0000001
 44
0.0000000001
 40
0.0
 40
0.0
 40
0.0
 40
0.0
 40
0.1248526899
 40
0.2497149137
 40
0.3746174475
 40
0.4995853034
 40
0.6246298549
 40
0.7497405837
 40
0.8748819137
 40
1.0
 40
1.0
 40
1.0
 40
1.0
 10
269.0459999474
 20
137.4750522739
 30
0.0
 10
268.9005980066
 20
138.3629684913
 30
0.0
 10
268.4641889938
 20
140.1185129537
 30
0.0
 10
267.3916622125
 20
142.6084179897
 30
0.0
 10
265.9282622507
 20
144.8924832633
 30
0.0
 10
264.1118151824
 20
146.9087992141
 30
0.0
 10
261.9897104182
 20
148.6029491693
 30
0.0
 10
259.6179689476
 20
149.9282143586
 30
0.0
 10
257.0615190358
 20
150.8475702264
 30
0.0
 10
255.277852279
 20
151.1730666083
 30
0.0
 10
254.3805461948
 20
151.26152004
 30
0.0
  0
SPLINE
  5
580
100
AcDbEntity
  8
RACCORDO
100
AcDbSpline
 62
250
  6
CONTINUOUS
 70
0
 71
3
 72
11
 73
7
 74
0
 42
0.0000001
 43
0.0000001
 44
0.0000000001
 40
0.0
 40
0.0
 40
0.0
 40
0.0
 40
0.2500807744
 40
0.5001173561
 40
0.7500852886
 40
1.0
 40
1.0
 40
1.0
 40
1.0
 10
244.2844293496
 20
131.2725701458
 30
0.0
 10
244.3697403763
 20
131.2019484904
 30
0.0
 10
244.5255107883
 20
131.0416523572
 30
0.0
 10
244.7017227913
 20
130.757059034
 30
0.0
 10
244.8124473885
 20
130.4413812647
 30
0.0
 10
244.8402809241
 20
130.2196642499
 30
0.0
 10
244.8415244201
 20
130.1089955585
 30
0.0
  0
LINE
  5
581
100
AcDbEntity
  8
RACCORDO
100
AcDbLine
 62
250
  6
CONTINUOUS
 10
244.2835001073
 20
132.0926688857
 11
244.2844293496
 21
131.2725701458
  0
LINE
  5
582
100
AcDbEntity
  8
RACCORDO
100
AcDbLine
 62
250
  6
CONTINUOUS
 10
244.2844293496
 20
85.5129460524
 11
244.2835001073
 21
84.6928473125
  0
SPLINE
  5
583
100
AcDbEntity
  8
RACCORDO
100
AcDbSpline
 62
250
  6
CONTINUOUS
 70
0
 71
3
 72
9
 73
5
 74
0
 42
0.0000001
 43
0.0000001
 44
0.0000000001
 40
0.0
 40
0.0
 40
0.0
 40
0.0
 40
0.2500730681
 40
1.0
 40
1.0
 40
1.0
 40
1.0
 10
244.8621079044
 20
108.3927580991
 30
0.0
 10
244.8621070909
 20
106.5825417559
 30
0.0
 10
244.8604181429
 20
99.3437921652
 30
0.0
 10
244.8518183445
 20
92.1050442176
 30
0.0
 10
244.8415244197
 20
86.676520635
 30
0.0
  0
SPLINE
  5
584
100
AcDbEntity
  8
RACCORDO
100
AcDbSpline
 62
250
  6
CONTINUOUS
 70
0
 71
3
 72
9
 73
5
 74
0
 42
0.0000001
 43
0.0000001
 44
0.0000000001
 40
0.0
 40
0.0
 40
0.0
 40
0.0
 40
0.2498970319
 40
1.0
 40
1.0
 40
1.0
 40
1.0
 10
244.8415244201
 20
130.1089955585
 30
0.0
 10
244.8449539901
 20
128.3000567487
 30
0.0
 10
244.8569952731
 20
121.0613169743
 30
0.0
 10
244.862105196
 20
113.8225657232
 30
0.0
 10
244.8621079044
 20
108.3927580991
 30
0.0
  0
LINE
  5
585
100
AcDbEntity
  8
RACCORDO
100
AcDbLine
 62
250
  6
CONTINUOUS
 10
153.7866736424
 20
132.0926688857
 11
153.7857444001
 21
131.2725701458
  0
SPLINE
  5
586
100
AcDbEntity
  8
RACCORDO
100
AcDbSpline
 62
250
  6
CONTINUOUS
 70
0
 71
3
 72
15
 73
11
 74
0
 42
0.0000001
 43
0.0000001
 44
0.0000000001
 40
0.0
 40
0.0
 40
0.0
 40
0.0
 40
0.1251181034
 40
0.250259434
 40
0.3753701603
 40
0.5004147102
 40
0.6253825652
 40
0.7502850987
 40
0.8751473235
 40
1.0
 40
1.0
 40
1.0
 40
1.0
 10
254.3805461948
 20
65.5239961582
 30
0.0
 10
255.2778525287
 20
65.6124483151
 30
0.0
 10
257.061519261
 20
65.9379464562
 30
0.0
 10
259.617969271
 20
66.8573018494
 30
0.0
 10
261.9897106959
 20
68.1825672175
 30
0.0
 10
264.1118153761
 20
69.8767171733
 30
0.0
 10
265.9282624083
 20
71.8930331654
 30
0.0
 10
267.3916622226
 20
74.1770984543
 30
0.0
 10
268.4641894386
 20
76.667003377
 30
0.0
 10
268.9005968887
 20
78.4225479878
 30
0.0
 10
269.0459999474
 20
79.3104639243
 30
0.0
  0
SPLINE
  5
587
100
AcDbEntity
  8
RACCORDO
100
AcDbSpline
 62
250
  6
CONTINUOUS
 70
0
 71
3
 72
9
 73
5
 74
0
 42
0.0000001
 43
0.0000001
 44
0.0000000001
 40
0.0
 40
0.0
 40
0.0
 40
0.0
 40
0.2626685555
 40
1.0
 40
1.0
 40
1.0
 40
1.0
 10
153.2286850225
 20
130.1094164192
 30
0.0
 10
153.2632208915
 20
130.1089466965
 30
0.0
 10
153.3946946507
 20
130.106728422
 30
0.0
 10
153.5261489563
 20
130.1029828355
 30
0.0
 10
153.6230168023
 20
130.0988991421
 30
0.0
  0
SPLINE
  5
588
100
AcDbEntity
  8
RACCORDO
100
AcDbSpline
 62
7
  6
CONTINUOUS
 70
0
 71
3
 72
10
 73
6
 74
0
 42
0.0000001
 43
0.0000001
 44
0.0000000001
 40
0.0
 40
0.0
 40
0.0
 40
0.0
 40
0.4991512402
 40
0.7495642752
 40
1.0
 40
1.0
 40
1.0
 40
1.0
 10
154.0446899677
 20
130.9580893574
 30
0.0
 10
154.1412139726
 20
131.0358981361
 30
0.0
 10
154.307260546
 20
131.1296960745
 30
0.0
 10
154.547627363
 20
131.1947817546
 30
0.0
 10
154.6720665251
 20
131.2082344787
 30
0.0
 10
154.7342640631
 20
131.2091124096
 30
0.0
  0
LINE
  5
589
100
AcDbEntity
  8
RACCORDO
100
AcDbLine
 62
7
  6
CONTINUOUS
 10
154.7350868749
 20
131.2090990178
 11
155.747961581
 21
131.2235302256
  0
LINE
  5
58A
100
AcDbEntity
  8
RACCORDO
100
AcDbLine
 62
7
  6
CONTINUOUS
 10
242.3222121584
 20
131.2235302256
 11
243.3350869284
 21
131.209099017
  0
SPLINE
  5
58B
100
AcDbEntity
  8
RACCORDO
100
AcDbSpline
 62
7
  6
CONTINUOUS
 70
0
 71
3
 72
10
 73
6
 74
0
 42
0.0000001
 43
0.0000001
 44
0.0000000001
 40
0.0
 40
0.0
 40
0.0
 40
0.0
 40
0.2504368333
 40
0.5008496538
 40
1.0
 40
1.0
 40
1.0
 40
1.0
 10
243.3359099605
 20
131.2091192921
 30
0.0
 10
243.3981078844
 20
131.2082502118
 30
0.0
 10
243.5225418694
 20
131.1947455686
 30
0.0
 10
243.7629210803
 20
131.1297181119
 30
0.0
 10
243.928957143
 20
131.0358937797
 30
0.0
 10
244.0254894734
 20
130.9580957271
 30
0.0
  0
SPLINE
  5
58C
100
AcDbEntity
  8
RACCORDO
100
AcDbSpline
 62
7
  6
CONTINUOUS
 70
0
 71
3
 72
11
 73
7
 74
0
 42
0.0000001
 43
0.0000001
 44
0.0000000001
 40
0.0
 40
0.0
 40
0.0
 40
0.0
 40
0.2500987131
 40
0.5001177422
 40
0.7500794175
 40
1.0
 40
1.0
 40
1.0
 40
1.0
 10
244.0254895103
 20
130.9580957725
 30
0.0
 10
244.0895246179
 20
130.9064986256
 30
0.0
 10
244.2066175986
 20
130.7888375155
 30
0.0
 10
244.3396300449
 20
130.5789215621
 30
0.0
 10
244.4242554264
 20
130.3452657175
 30
0.0
 10
244.4453173416
 20
130.1807366032
 30
0.0
 10
244.4471758397
 20
130.0985801881
 30
0.0
  0
SPLINE
  5
58D
100
AcDbEntity
  8
RACCORDO
100
AcDbSpline
 62
250
  6
CONTINUOUS
 70
0
 71
3
 72
9
 73
5
 74
0
 42
0.0000001
 43
0.0000001
 44
0.0000000001
 40
0.0
 40
0.0
 40
0.0
 40
0.0
 40
0.2627016818
 40
1.0
 40
1.0
 40
1.0
 40
1.0
 10
244.8415330336
 20
130.1040839713
 30
0.0
 10
244.8069948621
 20
130.1040569643
 30
0.0
 10
244.6755234397
 20
130.1035206556
 30
0.0
 10
244.5440517794
 20
130.1014468428
 30
0.0
 10
244.4471593592
 20
130.0985796742
 30
0.0
  0
SPLINE
  5
58E
100
AcDbEntity
  8
RACCORDO
100
AcDbSpline
 62
7
  6
CONTINUOUS
 70
0
 71
3
 72
9
 73
5
 74
0
 42
0.0000001
 43
0.0000001
 44
0.0000000001
 40
0.0
 40
0.0
 40
0.0
 40
0.0
 40
0.2498967748
 40
1.0
 40
1.0
 40
1.0
 40
1.0
 10
244.4471593592
 20
130.0985796742
 30
0.0
 10
244.4505762763
 20
128.2905103369
 30
0.0
 10
244.4625978664
 20
121.0552425152
 30
0.0
 10
244.4677369168
 20
113.8199632489
 30
0.0
 10
244.4677278996
 20
108.3927580992
 30
0.0
  0
SPLINE
  5
58F
100
AcDbEntity
  8
RACCORDO
100
AcDbSpline
 62
7
  6
CONTINUOUS
 70
0
 71
3
 72
9
 73
5
 74
0
 42
0.0000001
 43
0.0000001
 44
0.0000000001
 40
0.0
 40
0.0
 40
0.0
 40
0.0
 40
0.250073395
 40
1.0
 40
1.0
 40
1.0
 40
1.0
 10
244.4677278928
 20
108.3927580992
 30
0.0
 10
244.467730758
 20
106.5833810123
 30
0.0
 10
244.4660314868
 20
99.3479969226
 30
0.0
 10
244.457433855
 20
92.1126145001
 30
0.0
 10
244.4471587945
 20
86.6866171336
 30
0.0
  0
SPLINE
  5
590
100
AcDbEntity
  8
RACCORDO
100
AcDbSpline
 62
250
  6
CONTINUOUS
 70
0
 71
3
 72
9
 73
5
 74
0
 42
0.0000001
 43
0.0000001
 44
0.0000000001
 40
0.0
 40
0.0
 40
0.0
 40
0.0
 40
0.2626671037
 40
1.0
 40
1.0
 40
1.0
 40
1.0
 10
244.8414887272
 20
86.676099779
 30
0.0
 10
244.8069546655
 20
86.6765694771
 30
0.0
 10
244.6754870593
 20
86.6787876234
 30
0.0
 10
244.5440389061
 20
86.6825329511
 30
0.0
 10
244.4471753955
 20
86.6866162781
 30
0.0
  0
SPLINE
  5
591
100
AcDbEntity
  8
RACCORDO
100
AcDbSpline
 62
7
  6
CONTINUOUS
 70
0
 71
3
 72
10
 73
6
 74
0
 42
0.0000001
 43
0.0000001
 44
0.0000000001
 40
0.0
 40
0.0
 40
0.0
 40
0.0
 40
0.4991496898
 40
0.7495622702
 40
1.0
 40
1.0
 40
1.0
 40
1.0
 10
244.0254896697
 20
85.8274196363
 30
0.0
 10
243.9289371168
 20
85.7496474484
 30
0.0
 10
243.7629234808
 20
85.655794499
 30
0.0
 10
243.5225398674
 20
85.5907831688
 30
0.0
 10
243.3981083715
 20
85.5772525294
 30
0.0
 10
243.3359102775
 20
85.5763911034
 30
0.0
  0
LINE
  5
592
100
AcDbEntity
  8
RACCORDO
100
AcDbLine
 62
7
  6
CONTINUOUS
 10
243.3350868747
 20
85.5764171804
 11
242.3222121606
 21
85.5619859726
  0
LINE
  5
593
100
AcDbEntity
  8
RACCORDO
100
AcDbLine
 62
7
  6
CONTINUOUS
 10
155.7479615786
 20
85.5619859726
 11
154.7350868152
 21
85.5764171813
  0
SPLINE
  5
594
100
AcDbEntity
  8
RACCORDO
100
AcDbSpline
 62
7
  6
CONTINUOUS
 70
0
 71
3
 72
10
 73
6
 74
0
 42
0.0000001
 43
0.0000001
 44
0.0000000001
 40
0.0
 40
0.0
 40
0.0
 40
0.0
 40
0.2504356274
 40
0.5008488128
 40
1.0
 40
1.0
 40
1.0
 40
1.0
 10
154.7342640952
 20
85.576403453
 30
0.0
 10
154.6720665507
 20
85.5772816106
 30
0.0
 10
154.5476274139
 20
85.5907349055
 30
0.0
 10
154.3072602589
 20
85.6558198603
 30
0.0
 10
154.1412138126
 20
85.749618381
 30
0.0
 10
154.0446896805
 20
85.827427089
 30
0.0
  0
LINE
  5
595
100
AcDbEntity
  8
RACCORDO
100
AcDbLine
 62
7
  6
CONTINUOUS
 10
153.6231220902
 20
86.6819157616
 11
153.6230027531
 21
86.6869361544
  0
SPLINE
  5
596
100
AcDbEntity
  8
RACCORDO
100
AcDbSpline
 62
250
  6
CONTINUOUS
 70
0
 71
3
 72
9
 73
5
 74
0
 42
0.0000001
 43
0.0000001
 44
0.0000000001
 40
0.0
 40
0.0
 40
0.0
 40
0.0
 40
0.2627016838
 40
1.0
 40
1.0
 40
1.0
 40
1.0
 10
153.2286407161
 20
86.6814322269
 30
0.0
 10
153.2631788862
 20
86.6814592339
 30
0.0
 10
153.3946503023
 20
86.6819955426
 30
0.0
 10
153.5261219563
 20
86.6840693552
 30
0.0
 10
153.6230143716
 20
86.6869365232
 30
0.0
  0
SPLINE
  5
597
100
AcDbEntity
  8
RACCORDO
100
AcDbSpline
 62
7
  6
CONTINUOUS
 70
0
 71
3
 72
9
 73
5
 74
0
 42
0.0000001
 43
0.0000001
 44
0.0000000001
 40
0.0
 40
0.0
 40
0.0
 40
0.0
 40
0.249896769
 40
1.0
 40
1.0
 40
1.0
 40
1.0
 10
153.6230143716
 20
86.6869365232
 30
0.0
 10
153.6195821215
 20
88.4950057901
 30
0.0
 10
153.6075872791
 20
95.7302736673
 30
0.0
 10
153.602436214
 20
102.9655529062
 30
0.0
 10
153.6024458455
 20
108.392758099
 30
0.0
  0
SPLINE
  5
598
100
AcDbEntity
  8
RACCORDO
100
AcDbSpline
 62
7
  6
CONTINUOUS
 70
0
 71
3
 72
9
 73
5
 74
0
 42
0.0000001
 43
0.0000001
 44
0.0000000001
 40
0.0
 40
0.0
 40
0.0
 40
0.0
 40
0.2500733955
 40
1.0
 40
1.0
 40
1.0
 40
1.0
 10
153.6024458598
 20
108.392758099
 30
0.0
 10
153.6024431346
 20
110.2021351894
 30
0.0
 10
153.6041477763
 20
117.4375192703
 30
0.0
 10
153.6127064258
 20
124.6729017689
 30
0.0
 10
153.6230149846
 20
130.0988990701
 30
0.0
  0
SPLINE
  5
599
100
AcDbEntity
  8
RACCORDO
100
AcDbSpline
 62
250
  6
CONTINUOUS
 70
0
 71
3
 72
14
 73
10
 74
0
 42
0.0000001
 43
0.0000001
 44
0.0000000001
 40
0.0
 40
0.0
 40
0.0
 40
0.0
 40
0.0279747638
 40
0.0856448161
 40
0.172583514
 40
0.2877440668
 40
0.4298537743
 40
0.5973108988
 40
1.0
 40
1.0
 40
1.0
 40
1.0
 10
244.2549118771
 20
86.6927580991
 30
0.0
 10
244.2565423808
 20
86.6920077989
 30
0.0
 10
244.2621536819
 20
86.6915182597
 30
0.0
 10
244.2730616594
 20
86.6903393794
 30
0.0
 10
244.289765923
 20
86.6895184438
 30
0.0
 10
244.311807608
 20
86.6885886457
 30
0.0
 10
244.3390564149
 20
86.6878198482
 30
0.0
 10
244.3847409188
 20
86.6868699351
 30
0.0
 10
244.4213223376
 20
86.6864953888
 30
0.0
 10
244.4471582673
 20
86.6863392677
 30
0.0
  0
SPLINE
  5
59A
100
AcDbEntity
  8
RACCORDO
100
AcDbSpline
 62
250
  6
CONTINUOUS
 70
0
 71
3
 72
14
 73
10
 74
0
 42
0.0000001
 43
0.0000001
 44
0.0000000001
 40
0.0
 40
0.0
 40
0.0
 40
0.0
 40
0.027969931
 40
0.0856380703
 40
0.1725768644
 40
0.2877389107
 40
0.4298509818
 40
0.5973105442
 40
1.0
 40
1.0
 40
1.0
 40
1.0
 10
244.2549161292
 20
130.0927580991
 30
0.0
 10
244.2565471592
 20
130.093506503
 30
0.0
 10
244.2621579373
 20
130.0939924241
 30
0.0
 10
244.2730663575
 20
130.095165641
 30
0.0
 10
244.289770722
 20
130.0959798984
 30
0.0
 10
244.3118129239
 20
130.0969037893
 30
0.0
 10
244.3390621382
 20
130.0976691548
 30
0.0
 10
244.3847468811
 20
130.0986194312
 30
0.0
 10
244.4213282545
 20
130.0990022092
 30
0.0
 10
244.4471640912
 20
130.0991688776
 30
0.0
  0
SPLINE
  5
59B
100
AcDbEntity
  8
RACCORDO
100
AcDbSpline
 62
250
  6
CONTINUOUS
 70
0
 71
3
 72
14
 73
10
 74
0
 42
0.0000001
 43
0.0000001
 44
0.0000000001
 40
0.0
 40
0.0
 40
0.0
 40
0.0
 40
0.4026902545
 40
0.5701496996
 40
0.7122616159
 40
0.8274235829
 40
0.9143623128
 40
0.9720303542
 40
1.0
 40
1.0
 40
1.0
 40
1.0
 10
153.6230219864
 20
130.0991682502
 30
0.0
 10
153.6488564553
 20
130.099001858
 30
0.0
 10
153.6854358625
 20
130.0986193458
 30
0.0
 10
153.7311181375
 20
130.097669583
 30
0.0
 10
153.758365832
 20
130.0969043832
 30
0.0
 10
153.780406799
 20
130.0959801618
 30
0.0
 10
153.7971101778
 20
130.0951654296
 30
0.0
 10
153.8080180003
 20
130.0939921517
 30
0.0
 10
153.8136283899
 20
130.0935063215
 30
0.0
 10
153.8152593744
 20
130.0927580989
 30
0.0
  0
SPLINE
  5
59C
100
AcDbEntity
  8
RACCORDO
100
AcDbSpline
 62
250
  6
CONTINUOUS
 70
0
 71
3
 72
14
 73
10
 74
0
 42
0.0000001
 43
0.0000001
 44
0.0000000001
 40
0.0
 40
0.0
 40
0.0
 40
0.0
 40
0.4020359615
 40
0.5692588081
 40
0.7112108656
 40
0.826315133
 40
0.9133287115
 40
0.9712720146
 40
1.0
 40
1.0
 40
1.0
 40
1.0
 10
153.6230177025
 20
130.0989713949
 30
0.0
 10
153.6488551506
 20
130.098213535
 30
0.0
 10
153.6854388772
 20
130.0969866945
 30
0.0
 10
153.7311151277
 20
130.0949938773
 30
0.0
 10
153.7583730311
 20
130.0935629365
 30
0.0
 10
153.7803966984
 20
130.0919875183
 30
0.0
 10
153.7971615557
 20
130.0905523168
 30
0.0
 10
153.8079972671
 20
130.0887910063
 30
0.0
 10
153.81375281
 20
130.0878479309
 30
0.0
 10
153.8152492779
 20
130.0867652742
 30
0.0
  0
SPLINE
  5
59D
100
AcDbEntity
  8
RACCORDO
100
AcDbSpline
 62
250
  6
CONTINUOUS
 70
0
 71
3
 72
14
 73
10
 74
0
 42
0.0000001
 43
0.0000001
 44
0.0000000001
 40
0.0
 40
0.0
 40
0.0
 40
0.0
 40
0.4022271942
 40
0.5695230868
 40
0.7115277377
 40
0.8266509584
 40
0.9136407192
 40
0.971500151
 40
1.0
 40
1.0
 40
1.0
 40
1.0
 10
153.6231228771
 20
86.6819157769
 30
0.0
 10
153.6489469667
 20
86.6825207927
 30
0.0
 10
153.6855123503
 20
86.6835238396
 30
0.0
 10
153.7311658748
 20
86.6853112421
 30
0.0
 10
153.7584059951
 20
86.6866196375
 30
0.0
 10
153.7804215595
 20
86.6880513652
 30
0.0
 10
153.7971623464
 20
86.6893272294
 30
0.0
 10
153.8080077522
 20
86.690945033
 30
0.0
 10
153.813724938
 20
86.6917569576
 30
0.0
 10
153.815257128
 20
86.6927580991
 30
0.0
  0
SPLINE
  5
59E
100
AcDbEntity
  8
RACCORDO
100
AcDbSpline
 62
250
  6
CONTINUOUS
 70
0
 71
3
 72
14
 73
10
 74
0
 42
0.0000001
 43
0.0000001
 44
0.0000000001
 40
0.0
 40
0.0
 40
0.0
 40
0.0
 40
0.4010318182
 40
0.5679136288
 40
0.7096517212
 40
0.8246854772
 40
0.9118158779
 40
0.9701725797
 40
1.0
 40
1.0
 40
1.0
 40
1.0
 10
153.6230143701
 20
86.6869373331
 30
0.0
 10
153.6488560281
 20
86.6878587031
 30
0.0
 10
153.685449517
 20
86.6893900409
 30
0.0
 10
153.7311179398
 20
86.6921080459
 30
0.0
 10
153.7583825822
 20
86.694118886
 30
0.0
 10
153.7803996643
 20
86.6962617731
 30
0.0
 10
153.797211889
 20
86.6983118751
 30
0.0
 10
153.8080297762
 20
86.7005895365
 30
0.0
 10
153.8138793098
 20
86.7021090913
 30
0.0
 10
153.8152415622
 20
86.7034667047
 30
0.0
  0
SPLINE
  5
59F
100
AcDbEntity
  8
RACCORDO
100
AcDbSpline
 62
250
  6
CONTINUOUS
 70
0
 71
3
 72
15
 73
11
 74
0
 42
0.0000001
 43
0.0000001
 44
0.0000000001
 40
0.0
 40
0.0
 40
0.0
 40
0.0
 40
0.3749203864
 40
0.5426415178
 40
0.6900592608
 40
0.8126511231
 40
0.9065823186
 40
0.9692156548
 40
0.9884465418
 40
1.0
 40
1.0
 40
1.0
 40
1.0
 10
269.0459999471
 20
79.3104639246
 30
0.0
 10
269.0796862665
 20
79.3051651592
 30
0.0
 10
269.1285311295
 20
79.29804227
 30
0.0
 10
269.1908292084
 20
79.2903607119
 30
0.0
 10
269.2304190392
 20
79.2862109714
 30
0.0
 10
269.2634415094
 20
79.283513668
 30
0.0
 10
269.2887532553
 20
79.2824270954
 30
0.0
 10
269.3048757666
 20
79.2825974355
 30
0.0
 10
269.3131887962
 20
79.2839281808
 30
0.0
 10
269.3159582284
 20
79.2848862688
 30
0.0
 10
269.3167262222
 20
79.2856035109
 30
0.0
  0
SPLINE
  5
5A0
100
AcDbEntity
  8
RACCORDO
100
AcDbSpline
 62
250
  6
CONTINUOUS
 70
0
 71
3
 72
16
 73
12
 74
0
 42
0.0000001
 43
0.0000001
 44
0.0000000001
 40
0.0
 40
0.0
 40
0.0
 40
0.0
 40
0.3756804183
 40
0.5438530014
 40
0.6916642342
 40
0.8145076195
 40
0.908446507
 40
0.9436713308
 40
0.9706900823
 40
0.9894157767
 40
1.0
 40
1.0
 40
1.0
 40
1.0
 10
269.5669150638
 20
83.2891816668
 30
0.0
 10
269.6010479578
 20
83.2859678449
 30
0.0
 10
269.650500088
 20
83.2817071978
 30
0.0
 10
269.713464566
 20
83.27727964
 30
0.0
 10
269.7534486453
 20
83.2749753053
 30
0.0
 10
269.7866889032
 20
83.2736332956
 30
0.0
 10
269.8097023227
 20
83.2732572971
 30
0.0
 10
269.8239357221
 20
83.2735998715
 30
0.0
 10
269.8313464467
 20
83.2740476436
 30
0.0
 10
269.8363764126
 20
83.2747609671
 30
0.0
 10
269.8390770184
 20
83.2754246262
 30
0.0
 10
269.8398490502
 20
83.2760050752
 30
0.0
  0
SPLINE
  5
5A1
100
AcDbEntity
  8
RACCORDO
100
AcDbSpline
 62
250
  6
CONTINUOUS
 70
0
 71
3
 72
16
 73
12
 74
0
 42
0.0000001
 43
0.0000001
 44
0.0000000001
 40
0.0
 40
0.0
 40
0.0
 40
0.0
 40
0.3760097639
 40
0.5443336181
 40
0.6922636773
 40
0.8151735392
 40
0.9090998456
 40
0.944273739
 40
0.9711964665
 40
0.9897522373
 40
1.0
 40
1.0
 40
1.0
 40
1.0
 10
269.7013405437
 20
84.6928473131
 30
0.0
 10
269.7355107158
 20
84.6897810335
 30
0.0
 10
269.7850083197
 20
84.6856640381
 30
0.0
 10
269.8480159571
 20
84.6812424707
 30
0.0
 10
269.888017349
 20
84.6788511292
 30
0.0
 10
269.9212599989
 20
84.677337219
 30
0.0
 10
269.9442613599
 20
84.6767388927
 30
0.0
 10
269.9584823495
 20
84.6768495502
 30
0.0
 10
269.9658669432
 20
84.6771156967
 30
0.0
 10
269.9708685973
 20
84.6776582412
 30
0.0
 10
269.9735414315
 20
84.6781374663
 30
0.0
 10
269.9743371154
 20
84.6786285269
 30
0.0
  0
SPLINE
  5
5A2
100
AcDbEntity
  8
RACCORDO
100
AcDbSpline
 62
250
  6
CONTINUOUS
 70
0
 71
3
 72
16
 73
12
 74
0
 42
0.0000001
 43
0.0000001
 44
0.0000000001
 40
0.0
 40
0.0
 40
0.0
 40
0.0
 40
0.3760097656
 40
0.5443336225
 40
0.6922636842
 40
0.8151735475
 40
0.9090998534
 40
0.9442737458
 40
0.9711964716
 40
0.98975224
 40
1.0
 40
1.0
 40
1.0
 40
1.0
 10
269.7013405448
 20
132.0926688857
 30
0.0
 10
269.7355107206
 20
132.0957351658
 30
0.0
 10
269.7850083299
 20
132.0998521618
 30
0.0
 10
269.8480159744
 20
132.1042737299
 30
0.0
 10
269.888017371
 20
132.1066650717
 30
0.0
 10
269.9212600246
 20
132.1081789822
 30
0.0
 10
269.9442613879
 20
132.1087773086
 30
0.0
 10
269.9584823787
 20
132.1086666511
 30
0.0
 10
269.9658669727
 20
132.1084005046
 30
0.0
 10
269.9708686266
 20
132.1078579599
 30
0.0
 10
269.9735414607
 20
132.1073787348
 30
0.0
 10
269.9743371443
 20
132.106887674
 30
0.0
  0
SPLINE
  5
5A3
100
AcDbEntity
  8
RACCORDO
100
AcDbSpline
 62
250
  6
CONTINUOUS
 70
0
 71
3
 72
16
 73
12
 74
0
 42
0.0000001
 43
0.0000001
 44
0.0000000001
 40
0.0
 40
0.0
 40
0.0
 40
0.0
 40
0.3756804175
 40
0.543853
 40
0.6916642322
 40
0.8145076173
 40
0.908446505
 40
0.9436713291
 40
0.970690081
 40
0.989415776
 40
1.0
 40
1.0
 40
1.0
 40
1.0
 10
269.5669150635
 20
133.4963345312
 30
0.0
 10
269.6010479568
 20
133.499548353
 30
0.0
 10
269.6505000858
 20
133.503809
 30
0.0
 10
269.7134645623
 20
133.5082365576
 30
0.0
 10
269.7534486406
 20
133.5105408922
 30
0.0
 10
269.7866888978
 20
133.5118829019
 30
0.0
 10
269.8097023169
 20
133.5122589004
 30
0.0
 10
269.8239357161
 20
133.511916326
 30
0.0
 10
269.8313464407
 20
133.5114685539
 30
0.0
 10
269.8363764066
 20
133.5107552305
 30
0.0
 10
269.8390770125
 20
133.5100915714
 30
0.0
 10
269.8398490443
 20
133.5095111224
 30
0.0
  0
SPLINE
  5
5A4
100
AcDbEntity
  8
RACCORDO
100
AcDbSpline
 62
250
  6
CONTINUOUS
 70
0
 71
3
 72
15
 73
11
 74
0
 42
0.0000001
 43
0.0000001
 44
0.0000000001
 40
0.0
 40
0.0
 40
0.0
 40
0.0
 40
0.374920498
 40
0.5426416259
 40
0.6900593442
 40
0.8126511731
 40
0.9065823379
 40
0.9692156551
 40
0.9884465392
 40
1.0
 40
1.0
 40
1.0
 40
1.0
 10
269.0459999407
 20
137.4750522672
 30
0.0
 10
269.0796862028
 20
137.4803510193
 30
0.0
 10
269.1285309775
 20
137.4874738899
 30
0.0
 10
269.1908289389
 20
137.4951554262
 30
0.0
 10
269.2304186847
 20
137.4993051529
 30
0.0
 10
269.2634410804
 20
137.5020024456
 30
0.0
 10
269.2887527678
 20
137.5030890115
 30
0.0
 10
269.3048752416
 20
137.5029186681
 30
0.0
 10
269.3131882525
 20
137.5015879232
 30
0.0
 10
269.3159576784
 20
137.5006298358
 30
0.0
 10
269.3167256708
 20
137.4999125948
 30
0.0
  0
SPLINE
  5
5A5
100
AcDbEntity
  8
RACCORDO
100
AcDbSpline
 62
250
  6
CONTINUOUS
 70
0
 71
3
 72
15
 73
11
 74
0
 42
0.0000001
 43
0.0000001
 44
0.0000000001
 40
0.0
 40
0.0
 40
0.0
 40
0.0
 40
0.3813722774
 40
0.54962305
 40
0.6964917688
 40
0.8179270041
 40
0.9104665532
 40
0.9716120685
 40
0.9899140492
 40
1.0
 40
1.0
 40
1.0
 40
1.0
 10
254.3805461948
 20
151.26152004
 30
0.0
 10
254.3834539149
 20
151.2928335024
 30
0.0
 10
254.3874240466
 20
151.337982074
 30
0.0
 10
254.3918747571
 20
151.3952450178
 30
0.0
 10
254.3943523553
 20
151.4311538985
 30
0.0
 10
254.3960984237
 20
151.4608722704
 30
0.0
 10
254.3969660106
 20
151.4835117875
 30
0.0
 10
254.3972314078
 20
151.4977535343
 30
0.0
 10
254.3967359511
 20
151.5050705523
 30
0.0
 10
254.3964456916
 20
151.5074479956
 30
0.0
 10
254.3960936219
 20
151.5082014945
 30
0.0
  0
SPLINE
  5
5A6
100
AcDbEntity
  8
RACCORDO
100
AcDbSpline
 62
250
  6
CONTINUOUS
 70
0
 71
3
 72
15
 73
11
 74
0
 42
0.0000001
 43
0.0000001
 44
0.0000000001
 40
0.0
 40
0.0
 40
0.0
 40
0.0
 40
0.3815157861
 40
0.5498160581
 40
0.69671718
 40
0.8181648805
 40
0.9106914023
 40
0.9717840279
 40
0.9900282883
 40
1.0
 40
1.0
 40
1.0
 40
1.0
 10
249.3957930639
 20
151.639624186
 30
0.0
 10
249.3973097873
 20
151.6710263969
 30
0.0
 10
249.3993026484
 20
151.7162905148
 30
0.0
 10
249.4013208336
 20
151.7736701189
 30
0.0
 10
249.4023121489
 20
151.8096349067
 30
0.0
 10
249.4028696659
 20
151.8393794711
 30
0.0
 10
249.4028845848
 20
151.8620208265
 30
0.0
 10
249.4026620145
 20
151.876233029
 30
0.0
 10
249.4019822157
 20
151.8835193934
 30
0.0
 10
249.4016619808
 20
151.885867375
 30
0.0
 10
249.4013236148
 20
151.8866161947
 30
0.0
  0
SPLINE
  5
5A7
100
AcDbEntity
  8
RACCORDO
100
AcDbSpline
 62
250
  6
CONTINUOUS
 70
0
 71
3
 72
14
 73
10
 74
0
 42
0.0000001
 43
0.0000001
 44
0.0000000001
 40
0.0
 40
0.0
 40
0.0
 40
0.0
 40
0.3818528803
 40
0.5502615656
 40
0.6972299744
 40
0.8187003346
 40
0.9111952937
 40
0.9721731103
 40
1.0
 40
1.0
 40
1.0
 40
1.0
 10
244.2293959079
 20
151.9015965559
 30
0.0
 10
244.2308177024
 20
151.9329696408
 30
0.0
 10
244.2327602661
 20
151.9781855353
 30
0.0
 10
244.2349094286
 20
152.0354856999
 30
0.0
 10
244.2361347419
 20
152.0714000794
 30
0.0
 10
244.2368899259
 20
152.1010567283
 30
0.0
 10
244.2374932284
 20
152.123707536
 30
0.0
 10
244.2372092218
 20
152.1385351934
 30
0.0
 10
244.2374216213
 20
152.1459454442
 30
0.0
 10
244.23687109
 20
152.1481668492
 30
0.0
  0
SPLINE
  5
5A8
100
AcDbEntity
  8
RACCORDO
100
AcDbSpline
 62
250
  6
CONTINUOUS
 70
0
 71
3
 72
14
 73
10
 74
0
 42
0.0000001
 43
0.0000001
 44
0.0000000001
 40
0.0
 40
0.0
 40
0.0
 40
0.0
 40
0.3818528786
 40
0.5502615636
 40
0.6972299725
 40
0.818700333
 40
0.9111952924
 40
0.9721731096
 40
1.0
 40
1.0
 40
1.0
 40
1.0
 10
153.8407778418
 20
151.9015965559
 30
0.0
 10
153.8393560473
 20
151.9329696411
 30
0.0
 10
153.8374134836
 20
151.9781855362
 30
0.0
 10
153.8352643211
 20
152.0354857014
 30
0.0
 10
153.8340390076
 20
152.0714000814
 30
0.0
 10
153.8332838237
 20
152.1010567309
 30
0.0
 10
153.8326805212
 20
152.1237075391
 30
0.0
 10
153.8329645277
 20
152.1385351968
 30
0.0
 10
153.8327521283
 20
152.1459454478
 30
0.0
 10
153.8333026595
 20
152.1481668529
 30
0.0
  0
SPLINE
  5
5A9
100
AcDbEntity
  8
RACCORDO
100
AcDbSpline
 62
250
  6
CONTINUOUS
 70
0
 71
3
 72
15
 73
11
 74
0
 42
0.0000001
 43
0.0000001
 44
0.0000000001
 40
0.0
 40
0.0
 40
0.0
 40
0.0
 40
0.3815157869
 40
0.5498160591
 40
0.696717181
 40
0.8181648813
 40
0.910691403
 40
0.9717840282
 40
0.9900282885
 40
1.0
 40
1.0
 40
1.0
 40
1.0
 10
148.6743806858
 20
151.6396241861
 30
0.0
 10
148.6728639624
 20
151.6710263968
 30
0.0
 10
148.6708711013
 20
151.7162905146
 30
0.0
 10
148.6688529161
 20
151.7736701184
 30
0.0
 10
148.6678616009
 20
151.809634906
 30
0.0
 10
148.6673040838
 20
151.8393794702
 30
0.0
 10
148.6672891649
 20
151.8620208254
 30
0.0
 10
148.6675117352
 20
151.8762330277
 30
0.0
 10
148.6681915341
 20
151.883519392
 30
0.0
 10
148.668511769
 20
151.8858673736
 30
0.0
 10
148.6688501349
 20
151.8866161932
 30
0.0
  0
SPLINE
  5
5AA
100
AcDbEntity
  8
RACCORDO
100
AcDbSpline
 62
250
  6
CONTINUOUS
 70
0
 71
3
 72
15
 73
11
 74
0
 42
0.0000001
 43
0.0000001
 44
0.0000000001
 40
0.0
 40
0.0
 40
0.0
 40
0.0
 40
0.3813724933
 40
0.549623296
 40
0.6964920061
 40
0.8179272038
 40
0.9104666954
 40
0.9716121411
 40
0.989914085
 40
1.0
 40
1.0
 40
1.0
 40
1.0
 10
143.6896275549
 20
151.2615200399
 30
0.0
 10
143.686719842
 20
151.2928334466
 30
0.0
 10
143.6827497206
 20
151.3379819324
 30
0.0
 10
143.6782990229
 20
151.3952447615
 30
0.0
 10
143.6758214334
 20
151.4311535565
 30
0.0
 10
143.6740753721
 20
151.4608718504
 30
0.0
 10
143.6732077913
 20
151.4835113003
 30
0.0
 10
143.6729423968
 20
151.4977530013
 30
0.0
 10
143.6734378559
 20
151.505069989
 30
0.0
 10
143.6737281154
 20
151.5074474216
 30
0.0
 10
143.6740801859
 20
151.5082009147
 30
0.0
  0
SPLINE
  5
5AB
100
AcDbEntity
  8
RACCORDO
100
AcDbSpline
 62
250
  6
CONTINUOUS
 70
0
 71
3
 72
15
 73
11
 74
0
 42
0.0000001
 43
0.0000001
 44
0.0000000001
 40
0.0
 40
0.0
 40
0.0
 40
0.0
 40
0.3749203864
 40
0.5426415178
 40
0.6900592608
 40
0.8126511231
 40
0.9065823186
 40
0.9692156548
 40
0.9884465418
 40
1.0
 40
1.0
 40
1.0
 40
1.0
 10
129.0241738026
 20
137.4750522736
 30
0.0
 10
128.9904874832
 20
137.480351039
 30
0.0
 10
128.9416426202
 20
137.4874739282
 30
0.0
 10
128.8793445413
 20
137.4951554863
 30
0.0
 10
128.8397547105
 20
137.4993052268
 30
0.0
 10
128.8067322403
 20
137.5020025302
 30
0.0
 10
128.7814204944
 20
137.5030891028
 30
0.0
 10
128.7652979831
 20
137.5029187627
 30
0.0
 10
128.7569849535
 20
137.5015880174
 30
0.0
 10
128.7542155213
 20
137.5006299294
 30
0.0
 10
128.7534475275
 20
137.4999126873
 30
0.0
  0
SPLINE
  5
5AC
100
AcDbEntity
  8
RACCORDO
100
AcDbSpline
 62
250
  6
CONTINUOUS
 70
0
 71
3
 72
16
 73
12
 74
0
 42
0.0000001
 43
0.0000001
 44
0.0000000001
 40
0.0
 40
0.0
 40
0.0
 40
0.0
 40
0.3756804183
 40
0.5438530014
 40
0.6916642342
 40
0.8145076195
 40
0.908446507
 40
0.9436713308
 40
0.9706900823
 40
0.9894157767
 40
1.0
 40
1.0
 40
1.0
 40
1.0
 10
128.5032586859
 20
133.4963345314
 30
0.0
 10
128.4691257919
 20
133.4995483533
 30
0.0
 10
128.4196736617
 20
133.5038090004
 30
0.0
 10
128.3567091837
 20
133.5082365582
 30
0.0
 10
128.3167251044
 20
133.5105408928
 30
0.0
 10
128.2834848465
 20
133.5118829026
 30
0.0
 10
128.260471427
 20
133.5122589011
 30
0.0
 10
128.2462380276
 20
133.5119163267
 30
0.0
 10
128.238827303
 20
133.5114685546
 30
0.0
 10
128.2337973371
 20
133.5107552311
 30
0.0
 10
128.2310967313
 20
133.510091572
 30
0.0
 10
128.2303246995
 20
133.509511123
 30
0.0
  0
SPLINE
  5
5AD
100
AcDbEntity
  8
RACCORDO
100
AcDbSpline
 62
250
  6
CONTINUOUS
 70
0
 71
3
 72
16
 73
12
 74
0
 42
0.0000001
 43
0.0000001
 44
0.0000000001
 40
0.0
 40
0.0
 40
0.0
 40
0.0
 40
0.3760097639
 40
0.5443336181
 40
0.6922636773
 40
0.8151735392
 40
0.9090998456
 40
0.944273739
 40
0.9711964665
 40
0.9897522373
 40
1.0
 40
1.0
 40
1.0
 40
1.0
 10
128.368833206
 20
132.0926688851
 30
0.0
 10
128.3346630339
 20
132.0957351647
 30
0.0
 10
128.28516543
 20
132.0998521601
 30
0.0
 10
128.2221577926
 20
132.1042737275
 30
0.0
 10
128.1821564007
 20
132.106665069
 30
0.0
 10
128.1489137508
 20
132.1081789792
 30
0.0
 10
128.1259123898
 20
132.1087773055
 30
0.0
 10
128.1116914002
 20
132.108666648
 30
0.0
 10
128.1043068065
 20
132.1084005015
 30
0.0
 10
128.0993051524
 20
132.107857957
 30
0.0
 10
128.0966323182
 20
132.1073787319
 30
0.0
 10
128.0958366343
 20
132.1068876712
 30
0.0
  0
SPLINE
  5
5AE
100
AcDbEntity
  8
RACCORDO
100
AcDbSpline
 62
250
  6
CONTINUOUS
 70
0
 71
3
 72
16
 73
12
 74
0
 42
0.0000001
 43
0.0000001
 44
0.0000000001
 40
0.0
 40
0.0
 40
0.0
 40
0.0
 40
0.3760097656
 40
0.5443336225
 40
0.6922636842
 40
0.8151735475
 40
0.9090998534
 40
0.9442737458
 40
0.9711964716
 40
0.98975224
 40
1.0
 40
1.0
 40
1.0
 40
1.0
 10
128.3688332049
 20
84.6928473125
 30
0.0
 10
128.3346630291
 20
84.6897810324
 30
0.0
 10
128.2851654198
 20
84.6856640364
 30
0.0
 10
128.2221577753
 20
84.6812424683
 30
0.0
 10
128.1821563787
 20
84.6788511265
 30
0.0
 10
128.1489137251
 20
84.677337216
 30
0.0
 10
128.1259123618
 20
84.6767388896
 30
0.0
 10
128.111691371
 20
84.6768495471
 30
0.0
 10
128.104306777
 20
84.6771156936
 30
0.0
 10
128.0993051231
 20
84.6776582383
 30
0.0
 10
128.096632289
 20
84.6781374634
 30
0.0
 10
128.0958366054
 20
84.6786285242
 30
0.0
  0
SPLINE
  5
5AF
100
AcDbEntity
  8
RACCORDO
100
AcDbSpline
 62
250
  6
CONTINUOUS
 70
0
 71
3
 72
16
 73
12
 74
0
 42
0.0000001
 43
0.0000001
 44
0.0000000001
 40
0.0
 40
0.0
 40
0.0
 40
0.0
 40
0.3756804175
 40
0.543853
 40
0.6916642322
 40
0.8145076173
 40
0.908446505
 40
0.9436713291
 40
0.970690081
 40
0.989415776
 40
1.0
 40
1.0
 40
1.0
 40
1.0
 10
128.5032586862
 20
83.289181667
 30
0.0
 10
128.4691257929
 20
83.2859678452
 30
0.0
 10
128.4196736639
 20
83.2817071982
 30
0.0
 10
128.3567091874
 20
83.2772796406
 30
0.0
 10
128.3167251091
 20
83.274975306
 30
0.0
 10
128.2834848519
 20
83.2736332963
 30
0.0
 10
128.2604714328
 20
83.2732572978
 30
0.0
 10
128.2462380336
 20
83.2735998722
 30
0.0
 10
128.2388273091
 20
83.2740476443
 30
0.0
 10
128.2337973431
 20
83.2747609677
 30
0.0
 10
128.2310967372
 20
83.2754246268
 30
0.0
 10
128.2303247054
 20
83.2760050758
 30
0.0
  0
SPLINE
  5
5B0
100
AcDbEntity
  8
RACCORDO
100
AcDbSpline
 62
250
  6
CONTINUOUS
 70
0
 71
3
 72
15
 73
11
 74
0
 42
0.0000001
 43
0.0000001
 44
0.0000000001
 40
0.0
 40
0.0
 40
0.0
 40
0.0
 40
0.374920498
 40
0.5426416259
 40
0.6900593442
 40
0.8126511731
 40
0.9065823379
 40
0.9692156551
 40
0.9884465392
 40
1.0
 40
1.0
 40
1.0
 40
1.0
 10
129.024173809
 20
79.310463931
 30
0.0
 10
128.9904875469
 20
79.3051651789
 30
0.0
 10
128.9416427722
 20
79.2980423083
 30
0.0
 10
128.8793448108
 20
79.290360772
 30
0.0
 10
128.839755065
 20
79.2862110453
 30
0.0
 10
128.8067326693
 20
79.2835137526
 30
0.0
 10
128.7814209819
 20
79.2824271867
 30
0.0
 10
128.7652985081
 20
79.2825975301
 30
0.0
 10
128.7569854972
 20
79.283928275
 30
0.0
 10
128.7542160713
 20
79.2848863624
 30
0.0
 10
128.7534480789
 20
79.2856036034
 30
0.0
  0
SPLINE
  5
5B1
100
AcDbEntity
  8
RACCORDO
100
AcDbSpline
 62
250
  6
CONTINUOUS
 70
0
 71
3
 72
15
 73
11
 74
0
 42
0.0000001
 43
0.0000001
 44
0.0000000001
 40
0.0
 40
0.0
 40
0.0
 40
0.0
 40
0.3813722774
 40
0.54962305
 40
0.6964917688
 40
0.8179270041
 40
0.9104665532
 40
0.9716120685
 40
0.9899140492
 40
1.0
 40
1.0
 40
1.0
 40
1.0
 10
143.6896275549
 20
65.5239961582
 30
0.0
 10
143.6867198348
 20
65.4926826957
 30
0.0
 10
143.6827497032
 20
65.4475341242
 30
0.0
 10
143.6782989926
 20
65.3902711804
 30
0.0
 10
143.6758213944
 20
65.3543622997
 30
0.0
 10
143.674075326
 20
65.3246439278
 30
0.0
 10
143.6732077391
 20
65.3020044107
 30
0.0
 10
143.6729423419
 20
65.2877626639
 30
0.0
 10
143.6734377986
 20
65.2804456459
 30
0.0
 10
143.6737280581
 20
65.2780682026
 30
0.0
 10
143.6740801278
 20
65.2773147037
 30
0.0
  0
SPLINE
  5
5B2
100
AcDbEntity
  8
RACCORDO
100
AcDbSpline
 62
250
  6
CONTINUOUS
 70
0
 71
3
 72
15
 73
11
 74
0
 42
0.0000001
 43
0.0000001
 44
0.0000000001
 40
0.0
 40
0.0
 40
0.0
 40
0.0
 40
0.3815157861
 40
0.5498160581
 40
0.69671718
 40
0.8181648805
 40
0.9106914023
 40
0.9717840279
 40
0.9900282883
 40
1.0
 40
1.0
 40
1.0
 40
1.0
 10
148.6743806859
 20
65.1458920122
 30
0.0
 10
148.6728639624
 20
65.1144898013
 30
0.0
 10
148.6708711013
 20
65.0692256834
 30
0.0
 10
148.6688529161
 20
65.0118460793
 30
0.0
 10
148.6678616009
 20
64.9758812915
 30
0.0
 10
148.6673040838
 20
64.9461367271
 30
0.0
 10
148.6672891649
 20
64.9234953717
 30
0.0
 10
148.6675117352
 20
64.9092831692
 30
0.0
 10
148.668191534
 20
64.9019968048
 30
0.0
 10
148.6685117689
 20
64.8996488232
 30
0.0
 10
148.6688501349
 20
64.8989000035
 30
0.0
  0
SPLINE
  5
5B3
100
AcDbEntity
  8
RACCORDO
100
AcDbSpline
 62
250
  6
CONTINUOUS
 70
0
 71
3
 72
14
 73
10
 74
0
 42
0.0000001
 43
0.0000001
 44
0.0000000001
 40
0.0
 40
0.0
 40
0.0
 40
0.0
 40
0.38185288
 40
0.5502615653
 40
0.6972299741
 40
0.8187003343
 40
0.9111952934
 40
0.9721731102
 40
1.0
 40
1.0
 40
1.0
 40
1.0
 10
153.8407778418
 20
64.8839196423
 30
0.0
 10
153.8393560473
 20
64.8525465574
 30
0.0
 10
153.8374134836
 20
64.8073306628
 30
0.0
 10
153.8352643211
 20
64.7500304982
 30
0.0
 10
153.8340390077
 20
64.7141161187
 30
0.0
 10
153.8332838238
 20
64.6844594697
 30
0.0
 10
153.8326805213
 20
64.6618086619
 30
0.0
 10
153.8329645278
 20
64.6469810045
 30
0.0
 10
153.8327521284
 20
64.6395707537
 30
0.0
 10
153.8333026597
 20
64.6373493487
 30
0.0
  0
SPLINE
  5
5B4
100
AcDbEntity
  8
RACCORDO
100
AcDbSpline
 62
250
  6
CONTINUOUS
 70
0
 71
3
 72
14
 73
10
 74
0
 42
0.0000001
 43
0.0000001
 44
0.0000000001
 40
0.0
 40
0.0
 40
0.0
 40
0.0
 40
0.3818528786
 40
0.5502615636
 40
0.6972299725
 40
0.818700333
 40
0.9111952924
 40
0.9721731096
 40
1.0
 40
1.0
 40
1.0
 40
1.0
 10
244.2293959079
 20
64.8839196423
 30
0.0
 10
244.2308177024
 20
64.8525465571
 30
0.0
 10
244.2327602661
 20
64.807330662
 30
0.0
 10
244.2349094286
 20
64.7500304968
 30
0.0
 10
244.2361347421
 20
64.7141161168
 30
0.0
 10
244.236889926
 20
64.6844594673
 30
0.0
 10
244.2374932285
 20
64.6618086591
 30
0.0
 10
244.237209222
 20
64.6469810014
 30
0.0
 10
244.2374216214
 20
64.6395707504
 30
0.0
 10
244.2368710902
 20
64.6373493453
 30
0.0
  0
SPLINE
  5
5B5
100
AcDbEntity
  8
RACCORDO
100
AcDbSpline
 62
250
  6
CONTINUOUS
 70
0
 71
3
 72
15
 73
11
 74
0
 42
0.0000001
 43
0.0000001
 44
0.0000000001
 40
0.0
 40
0.0
 40
0.0
 40
0.0
 40
0.3815157869
 40
0.5498160591
 40
0.696717181
 40
0.8181648813
 40
0.910691403
 40
0.9717840282
 40
0.9900282885
 40
1.0
 40
1.0
 40
1.0
 40
1.0
 10
249.3957930639
 20
65.1458920121
 30
0.0
 10
249.3973097873
 20
65.1144898014
 30
0.0
 10
249.3993026484
 20
65.0692256836
 30
0.0
 10
249.4013208336
 20
65.0118460798
 30
0.0
 10
249.4023121488
 20
64.9758812922
 30
0.0
 10
249.4028696659
 20
64.946136728
 30
0.0
 10
249.4028845848
 20
64.9234953728
 30
0.0
 10
249.4026620145
 20
64.9092831704
 30
0.0
 10
249.4019822156
 20
64.9019968062
 30
0.0
 10
249.4016619807
 20
64.8996488246
 30
0.0
 10
249.4013236148
 20
64.898900005
 30
0.0
  0
SPLINE
  5
5B6
100
AcDbEntity
  8
RACCORDO
100
AcDbSpline
 62
250
  6
CONTINUOUS
 70
0
 71
3
 72
15
 73
11
 74
0
 42
0.0000001
 43
0.0000001
 44
0.0000000001
 40
0.0
 40
0.0
 40
0.0
 40
0.0
 40
0.3813724933
 40
0.549623296
 40
0.6964920061
 40
0.8179272038
 40
0.9104666954
 40
0.9716121411
 40
0.989914085
 40
1.0
 40
1.0
 40
1.0
 40
1.0
 10
254.3805461948
 20
65.5239961583
 30
0.0
 10
254.3834539077
 20
65.4926827516
 30
0.0
 10
254.3874240291
 20
65.4475342658
 30
0.0
 10
254.3918747268
 20
65.3902714367
 30
0.0
 10
254.3943523163
 20
65.3543626417
 30
0.0
 10
254.3960983776
 20
65.3246443478
 30
0.0
 10
254.3969659584
 20
65.3020048979
 30
0.0
 10
254.3972313529
 20
65.2877631969
 30
0.0
 10
254.3967358938
 20
65.2804462092
 30
0.0
 10
254.3964456343
 20
65.2780687766
 30
0.0
 10
254.3960935638
 20
65.2773152835
 30
0.0
  0
SPLINE
  5
5B7
100
AcDbEntity
  8
RACCORDO
100
AcDbSpline
 62
250
  6
CONTINUOUS
 70
0
 71
3
 72
15
 73
11
 74
0
 42
0.0000001
 43
0.0000001
 44
0.0000000001
 40
0.0
 40
0.0
 40
0.0
 40
0.0
 40
0.1248526899
 40
0.2497149137
 40
0.3746174475
 40
0.4995853034
 40
0.6246298549
 40
0.7497405837
 40
0.8748819137
 40
1.0
 40
1.0
 40
1.0
 40
1.0
 10
129.0241738023
 20
79.3104639243
 30
0.0
 10
129.1695757431
 20
78.4225477069
 30
0.0
 10
129.6059847559
 20
76.6670032445
 30
0.0
 10
130.6785115372
 20
74.1770982085
 30
0.0
 10
132.141911499
 20
71.8930329349
 30
0.0
 10
133.9583585673
 20
69.8767169841
 30
0.0
 10
136.0804633315
 20
68.1825670289
 30
0.0
 10
138.4522048021
 20
66.8573018396
 30
0.0
 10
141.0086547139
 20
65.9379459718
 30
0.0
 10
142.7923214707
 20
65.6124495899
 30
0.0
 10
143.6896275549
 20
65.5239961582
 30
0.0
  0
SPLINE
  5
5B8
100
AcDbEntity
  8
RACCORDO
100
AcDbSpline
 62
250
  6
CONTINUOUS
 70
0
 71
3
 72
15
 73
11
 74
0
 42
0.0000001
 43
0.0000001
 44
0.0000000001
 40
0.0
 40
0.0
 40
0.0
 40
0.0
 40
0.1248574606
 40
0.2497243403
 40
0.3746303977
 40
0.4995996581
 40
0.6246429204
 40
0.7497498787
 40
0.8748861542
 40
1.0
 40
1.0
 40
1.0
 40
1.0
 10
128.7534297558
 20
79.2857118502
 30
0.0
 10
128.9014977486
 20
78.3829012066
 30
0.0
 10
129.3459590581
 20
76.5979808782
 30
0.0
 10
130.4381651987
 20
74.0668936033
 30
0.0
 10
131.9280789021
 20
71.7456600852
 30
0.0
 10
133.7768826958
 20
69.6971727518
 30
0.0
 10
135.9360879602
 20
67.9765409858
 30
0.0
 10
138.3485573626
 20
66.6309308886
 30
0.0
 10
140.9482803473
 20
65.6976157603
 30
0.0
 10
142.7618529187
 20
65.3671458625
 30
0.0
 10
143.674190855
 20
65.2773037619
 30
0.0
  0
LINE
  5
5B9
100
AcDbEntity
  8
RACCORDO
100
AcDbLine
 62
250
  6
CONTINUOUS
 10
153.8152570831
 20
86.6927935484
 11
153.8152485471
 21
86.6992955337
  0
SPLINE
  5
5BA
100
AcDbEntity
  8
RACCORDO
100
AcDbSpline
 62
250
  6
CONTINUOUS
 70
0
 71
3
 72
9
 73
5
 74
0
 42
0.0000001
 43
0.0000001
 44
0.0000000001
 40
0.0
 40
0.0
 40
0.0
 40
0.0
 40
0.2498968324
 40
1.0
 40
1.0
 40
1.0
 40
1.0
 10
153.8152485471
 20
86.6992955337
 30
0.0
 10
153.811822094
 20
88.5063357749
 30
0.0
 10
153.7998262827
 20
95.7374839727
 30
0.0
 10
153.7946879494
 20
102.9686435433
 30
0.0
 10
153.7946879706
 20
108.3927580991
 30
0.0
  0
SPLINE
  5
5BB
100
AcDbEntity
  8
RACCORDO
100
AcDbSpline
 62
250
  6
CONTINUOUS
 70
0
 71
3
 72
9
 73
5
 74
0
 42
0.0000001
 43
0.0000001
 44
0.0000000001
 40
0.0
 40
0.0
 40
0.0
 40
0.0
 40
0.250073761
 40
1.0
 40
1.0
 40
1.0
 40
1.0
 10
153.7946879706
 20
108.3927580991
 30
0.0
 10
153.7946879632
 20
110.2010809839
 30
0.0
 10
153.7964021383
 20
117.4322389115
 30
0.0
 10
153.8049637159
 20
124.6633952272
 30
0.0
 10
153.8152485471
 20
130.08622062
 30
0.0
  0
LINE
  5
5BC
100
AcDbEntity
  8
RACCORDO
100
AcDbLine
 62
250
  6
CONTINUOUS
 10
153.8152485471
 20
130.08622062
 11
153.8152570832
 21
130.0927226693
  0
SPLINE
  5
5BD
100
AcDbEntity
  8
RACCORDO
100
AcDbSpline
 62
250
  6
CONTINUOUS
 70
0
 71
3
 72
15
 73
11
 74
0
 42
0.0000001
 43
0.0000001
 44
0.0000000001
 40
0.0
 40
0.0
 40
0.0
 40
0.0
 40
0.1251181034
 40
0.250259434
 40
0.3753701603
 40
0.5004147102
 40
0.6253825652
 40
0.7502850987
 40
0.8751473235
 40
1.0
 40
1.0
 40
1.0
 40
1.0
 10
143.6896275549
 20
151.26152004
 30
0.0
 10
142.792321221
 20
151.1730678831
 30
0.0
 10
141.0086544887
 20
150.847569742
 30
0.0
 10
138.4522044787
 20
149.9282143488
 30
0.0
 10
136.0804630538
 20
148.6029489807
 30
0.0
 10
133.9583583736
 20
146.9087990249
 30
0.0
 10
132.1419113414
 20
144.8924830328
 30
0.0
 10
130.6785115271
 20
142.6084177439
 30
0.0
 10
129.6059843111
 20
140.1185128212
 30
0.0
 10
129.169576861
 20
138.3629682104
 30
0.0
 10
129.0241738023
 20
137.4750522739
 30
0.0
  0
SPLINE
  5
5BE
100
AcDbEntity
  8
RACCORDO
100
AcDbSpline
 62
250
  6
CONTINUOUS
 70
0
 71
3
 72
9
 73
5
 74
0
 42
0.0000001
 43
0.0000001
 44
0.0000000001
 40
0.0
 40
0.0
 40
0.0
 40
0.0
 40
0.2498966668
 40
1.0
 40
1.0
 40
1.0
 40
1.0
 10
244.2549118936
 20
130.0927482741
 30
0.0
 10
244.2583410758
 20
128.2851654906
 30
0.0
 10
244.270344804
 20
121.0518414286
 30
0.0
 10
244.2754858042
 20
113.8185059822
 30
0.0
 10
244.2754857791
 20
108.3927580991
 30
0.0
  0
SPLINE
  5
5BF
100
AcDbEntity
  8
RACCORDO
100
AcDbSpline
 62
250
  6
CONTINUOUS
 70
0
 71
3
 72
9
 73
5
 74
0
 42
0.0000001
 43
0.0000001
 44
0.0000000001
 40
0.0
 40
0.0
 40
0.0
 40
0.0
 40
0.250073838
 40
1.0
 40
1.0
 40
1.0
 40
1.0
 10
244.2754857791
 20
108.3927580991
 30
0.0
 10
244.2754857857
 20
106.5838904639
 30
0.0
 10
244.2737707621
 20
99.3505564066
 30
0.0
 10
244.265202689
 20
92.1172239647
 30
0.0
 10
244.2549118927
 20
86.6927672011
 30
0.0
  0
SPLINE
  5
5C0
100
AcDbEntity
  8
RACCORDO
100
AcDbSpline
 62
250
  6
CONTINUOUS
 70
0
 71
3
 72
9
 73
5
 74
0
 42
0.0000001
 43
0.0000001
 44
0.0000000001
 40
0.0
 40
0.0
 40
0.0
 40
0.0
 40
0.2500730681
 40
1.0
 40
1.0
 40
1.0
 40
1.0
 10
153.2080658453
 20
108.3927580991
 30
0.0
 10
153.2080666588
 20
110.2029744423
 30
0.0
 10
153.2097556068
 20
117.441724033
 30
0.0
 10
153.2183554052
 20
124.6804719806
 30
0.0
 10
153.22864933
 20
130.1089955632
 30
0.0
  0
SPLINE
  5
5C1
100
AcDbEntity
  8
RACCORDO
100
AcDbSpline
 62
250
  6
CONTINUOUS
 70
0
 71
3
 72
15
 73
11
 74
0
 42
0.0000001
 43
0.0000001
 44
0.0000000001
 40
0.0
 40
0.0
 40
0.0
 40
0.0
 40
0.1251138574
 40
0.2502501339
 40
0.37535709
 40
0.5004003505
 40
0.6253696099
 40
0.7502756666
 40
0.8751425469
 40
1.0
 40
1.0
 40
1.0
 40
1.0
 10
254.3959968141
 20
65.2773051372
 30
0.0
 10
255.3083348999
 20
65.367146962
 30
0.0
 10
257.1219071968
 20
65.6976200176
 30
0.0
 10
259.7216296381
 20
66.6309367614
 30
0.0
 10
262.1340979408
 20
67.9765491671
 30
0.0
 10
264.2933017596
 20
69.6971828135
 30
0.0
 10
266.1421038639
 20
71.7456718329
 30
0.0
 10
267.6320154198
 20
74.0669067712
 30
0.0
 10
268.7242200008
 20
76.5979949428
 30
0.0
 10
269.1686782253
 20
78.382915943
 30
0.0
 10
269.3167464025
 20
79.2857265384
 30
0.0
  0
SPLINE
  5
5C2
100
AcDbEntity
  8
RACCORDO
100
AcDbSpline
 62
250
  6
CONTINUOUS
 70
0
 71
3
 72
15
 73
11
 74
0
 42
0.0000001
 43
0.0000001
 44
0.0000000001
 40
0.0
 40
0.0
 40
0.0
 40
0.0
 40
0.1248574606
 40
0.2497243403
 40
0.3746303977
 40
0.4995996581
 40
0.6246429204
 40
0.7497498787
 40
0.8748861542
 40
1.0
 40
1.0
 40
1.0
 40
1.0
 10
269.3167439939
 20
137.499804348
 30
0.0
 10
269.1686760011
 20
138.4026149916
 30
0.0
 10
268.7242146916
 20
140.18753532
 30
0.0
 10
267.632008551
 20
142.7186225949
 30
0.0
 10
266.1420948476
 20
145.039856113
 30
0.0
 10
264.2932910539
 20
147.0883434464
 30
0.0
 10
262.1340857896
 20
148.8089752124
 30
0.0
 10
259.7216163872
 20
150.1545853096
 30
0.0
 10
257.1218934024
 20
151.0879004379
 30
0.0
 10
255.308320831
 20
151.4183703357
 30
0.0
 10
254.3959828947
 20
151.5082124363
 30
0.0
  0
SPLINE
  5
5C3
100
AcDbEntity
  8
RACCORDO
100
AcDbSpline
 62
250
  6
CONTINUOUS
 70
0
 71
3
 72
15
 73
11
 74
0
 42
0.0000001
 43
0.0000001
 44
0.0000000001
 40
0.0
 40
0.0
 40
0.0
 40
0.0
 40
0.1251138574
 40
0.2502501339
 40
0.37535709
 40
0.5004003505
 40
0.6253696099
 40
0.7502756666
 40
0.8751425469
 40
1.0
 40
1.0
 40
1.0
 40
1.0
 10
143.6741769356
 20
151.508211061
 30
0.0
 10
142.7618388498
 20
151.4183692362
 30
0.0
 10
140.9482665529
 20
151.0878961806
 30
0.0
 10
138.3485441116
 20
150.1545794368
 30
0.0
 10
135.9360758089
 20
148.8089670311
 30
0.0
 10
133.7768719901
 20
147.0883333847
 30
0.0
 10
131.9280698858
 20
145.0398443653
 30
0.0
 10
130.4381583299
 20
142.718609427
 30
0.0
 10
129.3459537489
 20
140.1875212554
 30
0.0
 10
128.9014955244
 20
138.4026002552
 30
0.0
 10
128.7534273472
 20
137.4997896597
 30
0.0
  0
SPLINE
  5
5C4
100
AcDbEntity
  8
ASSI
100
AcDbSpline
 62
7
  6
CONTINUOUS
 70
0
 71
3
 72
9
 73
5
 74
0
 42
0.0000001
 43
0.0000001
 44
0.0000000001
 40
0.0
 40
0.0
 40
0.0
 40
0.0
 40
0.3560705344
 40
1.0
 40
1.0
 40
1.0
 40
1.0
 10
203.2505078371
 20
80.6106061743
 30
0.0
 10
203.3014347796
 20
80.6106061743
 30
0.0
 10
203.4478735979
 20
80.5797818378
 30
0.0
 10
203.5440891208
 20
80.4503170965
 30
0.0
 10
203.576488959
 20
80.3640951608
 30
0.0
  0
SPLINE
  5
5C5
100
AcDbEntity
  8
ASSI
100
AcDbSpline
 62
7
  6
CONTINUOUS
 70
0
 71
3
 72
9
 73
5
 74
0
 42
0.0000001
 43
0.0000001
 44
0.0000000001
 40
0.0
 40
0.0
 40
0.0
 40
0.0
 40
0.5587152494
 40
1.0
 40
1.0
 40
1.0
 40
1.0
 10
203.5764889283
 20
80.3640951492
 30
0.0
 10
203.6345842563
 20
80.2094925107
 30
0.0
 10
203.7109546579
 20
79.9232519394
 30
0.0
 10
203.7960592161
 20
79.6403229264
 30
0.0
 10
203.8321024967
 20
79.5149567447
 30
0.0
  0
SPLINE
  5
5C6
100
AcDbEntity
  8
ASSI
100
AcDbSpline
 62
7
  6
CONTINUOUS
 70
0
 71
3
 72
9
 73
5
 74
0
 42
0.0000001
 43
0.0000001
 44
0.0000000001
 40
0.0
 40
0.0
 40
0.0
 40
0.0
 40
0.1980298616
 40
1.0
 40
1.0
 40
1.0
 40
1.0
 10
204.3942350868
 20
79.5149567447
 30
0.0
 10
204.3806778575
 20
79.5648734259
 30
0.0
 10
204.3143265525
 20
79.8175064396
 30
0.0
 10
204.2495282183
 20
80.0705513438
 30
0.0
 10
204.1944660204
 20
80.2726578712
 30
0.0
  0
SPLINE
  5
5C7
100
AcDbEntity
  8
ASSI
100
AcDbSpline
 62
7
  6
CONTINUOUS
 70
0
 71
3
 72
9
 73
5
 74
0
 42
0.0000001
 43
0.0000001
 44
0.0000000001
 40
0.0
 40
0.0
 40
0.0
 40
0.0
 40
0.2427307434
 40
1.0
 40
1.0
 40
1.0
 40
1.0
 10
204.19446602
 20
80.2726578711
 30
0.0
 10
204.1805998127
 20
80.3235539687
 30
0.0
 10
204.1276579387
 20
80.5290179907
 30
0.0
 10
204.0104548109
 20
80.7608788348
 30
0.0
 10
203.8575900397
 20
80.8218336622
 30
0.0
  0
SPLINE
  5
5C8
100
AcDbEntity
  8
ASSI
100
AcDbSpline
 62
7
  6
CONTINUOUS
 70
0
 71
3
 72
8
 73
4
 74
0
 42
0.0000001
 43
0.0000001
 44
0.0000000001
 40
0.0
 40
0.0
 40
0.0
 40
0.0
 40
1.0
 40
1.0
 40
1.0
 40
1.0
 10
203.8575900397
 20
80.8383774711
 30
0.0
 10
203.8693018786
 20
80.8398886761
 30
0.0
 10
203.8803472979
 20
80.8436734759
 30
0.0
 10
203.890912819
 20
80.8489076637
 30
0.0
  0
SPLINE
  5
5C9
100
AcDbEntity
  8
ASSI
100
AcDbSpline
 62
7
  6
CONTINUOUS
 70
0
 71
3
 72
8
 73
4
 74
0
 42
0.0000001
 43
0.0000001
 44
0.0000000001
 40
0.0
 40
0.0
 40
0.0
 40
0.0
 40
1.0
 40
1.0
 40
1.0
 40
1.0
 10
203.890912819
 20
80.8489076637
 30
0.0
 10
203.9013615509
 20
80.8540839937
 30
0.0
 10
203.9113409353
 20
80.8606778463
 30
0.0
 10
203.9210313761
 20
80.8678920451
 30
0.0
  0
SPLINE
  5
5CA
100
AcDbEntity
  8
ASSI
100
AcDbSpline
 62
7
  6
CONTINUOUS
 70
0
 71
3
 72
17
 73
13
 74
0
 42
0.0000001
 43
0.0000001
 44
0.0000000001
 40
0.0
 40
0.0
 40
0.0
 40
0.0
 40
0.0162372545
 40
0.1337607687
 40
0.2924223812
 40
0.3875334096
 40
0.4962639103
 40
0.5846128034
 40
0.6640301458
 40
0.8023581775
 40
0.9166743977
 40
1.0
 40
1.0
 40
1.0
 40
1.0
 10
203.9210313761
 20
80.8678920451
 30
0.0
 10
203.9285484967
 20
80.8734882821
 30
0.0
 10
203.9890413971
 20
80.9226646349
 30
0.0
 10
204.1079865759
 20
81.0303466584
 30
0.0
 10
204.2081764895
 20
81.219969329
 30
0.0
 10
204.2528088001
 20
81.4177886952
 30
0.0
 10
204.2570019162
 20
81.5819746398
 30
0.0
 10
204.2349037273
 20
81.7353229802
 30
0.0
 10
204.1813453048
 20
81.8982675546
 30
0.0
 10
204.0807516269
 20
82.0579567897
 30
0.0
 10
203.9387211809
 20
82.1828379665
 30
0.0
 10
203.8410664117
 20
82.2366980743
 30
0.0
 10
203.7973353046
 20
82.2524742256
 30
0.0
  0
SPLINE
  5
5CB
100
AcDbEntity
  8
ASSI
100
AcDbSpline
 62
7
  6
CONTINUOUS
 70
0
 71
3
 72
9
 73
5
 74
0
 42
0.0000001
 43
0.0000001
 44
0.0000000001
 40
0.0
 40
0.0
 40
0.0
 40
0.0
 40
0.2957417834
 40
1.0
 40
1.0
 40
1.0
 40
1.0
 10
203.7973353046
 20
82.2524742256
 30
0.0
 10
203.6627066573
 20
82.3011124771
 30
0.0
 10
203.1787981699
 20
82.3803957259
 30
0.0
 10
202.6923513569
 20
82.3315653402
 30
0.0
 10
202.3551056772
 20
82.2819507581
 30
0.0
  0
SPLINE
  5
5CC
100
AcDbEntity
  8
ASSI
100
AcDbSpline
 62
7
  6
CONTINUOUS
 70
0
 71
3
 72
9
 73
5
 74
0
 42
0.0000001
 43
0.0000001
 44
0.0000000001
 40
0.0
 40
0.0
 40
0.0
 40
0.0
 40
0.2704041679
 40
1.0
 40
1.0
 40
1.0
 40
1.0
 10
202.9177841289
 20
81.8377033032
 30
0.0
 10
202.9585732883
 20
81.8446633386
 30
0.0
 10
203.1098903971
 20
81.8675535956
 30
0.0
 10
203.264698003
 20
81.867057435
 30
0.0
 10
203.375600305
 20
81.8541858501
 30
0.0
  0
SPLINE
  5
5CD
100
AcDbEntity
  8
ASSI
100
AcDbSpline
 62
7
  6
CONTINUOUS
 70
0
 71
3
 72
9
 73
5
 74
0
 42
0.0000001
 43
0.0000001
 44
0.0000000001
 40
0.0
 40
0.0
 40
0.0
 40
0.0
 40
0.5011416534
 40
1.0
 40
1.0
 40
1.0
 40
1.0
 10
203.375600305
 20
81.8541858503
 30
0.0
 10
203.4612568051
 20
81.844244353
 30
0.0
 10
203.6345827442
 20
81.7687827148
 30
0.0
 10
203.7044567174
 20
81.5897948052
 30
0.0
 10
203.7057390336
 20
81.5039723793
 30
0.0
  0
SPLINE
  5
5CE
100
AcDbEntity
  8
ASSI
100
AcDbSpline
 62
7
  6
CONTINUOUS
 70
0
 71
3
 72
9
 73
5
 74
0
 42
0.0000001
 43
0.0000001
 44
0.0000000001
 40
0.0
 40
0.0
 40
0.0
 40
0.0
 40
0.52046246
 40
1.0
 40
1.0
 40
1.0
 40
1.0
 10
203.7057390094
 20
81.5039723789
 30
0.0
 10
203.7075465732
 20
81.3829953331
 30
0.0
 10
203.6220137588
 20
81.1187594534
 30
0.0
 10
203.3631980019
 20
81.0716188935
 30
0.0
 10
203.251767518
 20
81.0691300125
 30
0.0
  0
SPLINE
  5
5CF
100
AcDbEntity
  8
ASSI
100
AcDbSpline
 62
250
  6
CONTINUOUS
 70
0
 71
3
 72
15
 73
11
 74
0
 42
0.0000001
 43
0.0000001
 44
0.0000000001
 40
0.0
 40
0.0
 40
0.0
 40
0.0
 40
0.374920498
 40
0.5426416259
 40
0.6900593442
 40
0.8126511731
 40
0.9065823379
 40
0.9692156551
 40
0.9884465392
 40
1.0
 40
1.0
 40
1.0
 40
1.0
 10
129.024173809
 20
79.310463931
 30
0.0
 10
128.9904875469
 20
79.3051651789
 30
0.0
 10
128.9416427722
 20
79.2980423083
 30
0.0
 10
128.8793448108
 20
79.290360772
 30
0.0
 10
128.839755065
 20
79.2862110453
 30
0.0
 10
128.8067326693
 20
79.2835137526
 30
0.0
 10
128.7814209819
 20
79.2824271867
 30
0.0
 10
128.7652985081
 20
79.2825975301
 30
0.0
 10
128.7569854972
 20
79.283928275
 30
0.0
 10
128.7542160713
 20
79.2848863624
 30
0.0
 10
128.7534480789
 20
79.2856036034
 30
0.0
  0
SPLINE
  5
5D0
100
AcDbEntity
  8
ASSI
100
AcDbSpline
 62
250
  6
CONTINUOUS
 70
0
 71
3
 72
16
 73
12
 74
0
 42
0.0000001
 43
0.0000001
 44
0.0000000001
 40
0.0
 40
0.0
 40
0.0
 40
0.0
 40
0.3756804175
 40
0.543853
 40
0.6916642322
 40
0.8145076173
 40
0.908446505
 40
0.9436713291
 40
0.970690081
 40
0.989415776
 40
1.0
 40
1.0
 40
1.0
 40
1.0
 10
128.5032586862
 20
83.289181667
 30
0.0
 10
128.4691257929
 20
83.2859678452
 30
0.0
 10
128.4196736639
 20
83.2817071982
 30
0.0
 10
128.3567091874
 20
83.2772796406
 30
0.0
 10
128.3167251091
 20
83.274975306
 30
0.0
 10
128.2834848519
 20
83.2736332963
 30
0.0
 10
128.2604714328
 20
83.2732572978
 30
0.0
 10
128.2462380336
 20
83.2735998722
 30
0.0
 10
128.2388273091
 20
83.2740476443
 30
0.0
 10
128.2337973431
 20
83.2747609677
 30
0.0
 10
128.2310967372
 20
83.2754246268
 30
0.0
 10
128.2303247054
 20
83.2760050758
 30
0.0
  0
SPLINE
  5
5D1
100
AcDbEntity
  8
ASSI
100
AcDbSpline
 62
250
  6
CONTINUOUS
 70
0
 71
3
 72
16
 73
12
 74
0
 42
0.0000001
 43
0.0000001
 44
0.0000000001
 40
0.0
 40
0.0
 40
0.0
 40
0.0
 40
0.3760097656
 40
0.5443336225
 40
0.6922636842
 40
0.8151735475
 40
0.9090998534
 40
0.9442737458
 40
0.9711964716
 40
0.98975224
 40
1.0
 40
1.0
 40
1.0
 40
1.0
 10
128.3688332049
 20
84.6928473125
 30
0.0
 10
128.3346630291
 20
84.6897810324
 30
0.0
 10
128.2851654198
 20
84.6856640364
 30
0.0
 10
128.2221577753
 20
84.6812424683
 30
0.0
 10
128.1821563787
 20
84.6788511265
 30
0.0
 10
128.1489137251
 20
84.677337216
 30
0.0
 10
128.1259123618
 20
84.6767388896
 30
0.0
 10
128.111691371
 20
84.6768495471
 30
0.0
 10
128.104306777
 20
84.6771156936
 30
0.0
 10
128.0993051231
 20
84.6776582383
 30
0.0
 10
128.096632289
 20
84.6781374634
 30
0.0
 10
128.0958366054
 20
84.6786285242
 30
0.0
  0
SPLINE
  5
5D2
100
AcDbEntity
  8
ASSI
100
AcDbSpline
 62
250
  6
CONTINUOUS
 70
0
 71
3
 72
16
 73
12
 74
0
 42
0.0000001
 43
0.0000001
 44
0.0000000001
 40
0.0
 40
0.0
 40
0.0
 40
0.0
 40
0.3760097639
 40
0.5443336181
 40
0.6922636773
 40
0.8151735392
 40
0.9090998456
 40
0.944273739
 40
0.9711964665
 40
0.9897522373
 40
1.0
 40
1.0
 40
1.0
 40
1.0
 10
128.368833206
 20
132.0926688851
 30
0.0
 10
128.3346630339
 20
132.0957351647
 30
0.0
 10
128.28516543
 20
132.0998521601
 30
0.0
 10
128.2221577926
 20
132.1042737275
 30
0.0
 10
128.1821564007
 20
132.106665069
 30
0.0
 10
128.1489137508
 20
132.1081789792
 30
0.0
 10
128.1259123898
 20
132.1087773055
 30
0.0
 10
128.1116914002
 20
132.108666648
 30
0.0
 10
128.1043068065
 20
132.1084005015
 30
0.0
 10
128.0993051524
 20
132.107857957
 30
0.0
 10
128.0966323182
 20
132.1073787319
 30
0.0
 10
128.0958366343
 20
132.1068876712
 30
0.0
  0
SPLINE
  5
5D3
100
AcDbEntity
  8
ASSI
100
AcDbSpline
 62
250
  6
CONTINUOUS
 70
0
 71
3
 72
16
 73
12
 74
0
 42
0.0000001
 43
0.0000001
 44
0.0000000001
 40
0.0
 40
0.0
 40
0.0
 40
0.0
 40
0.3756804183
 40
0.5438530014
 40
0.6916642342
 40
0.8145076195
 40
0.908446507
 40
0.9436713308
 40
0.9706900823
 40
0.9894157767
 40
1.0
 40
1.0
 40
1.0
 40
1.0
 10
128.5032586859
 20
133.4963345314
 30
0.0
 10
128.4691257919
 20
133.4995483533
 30
0.0
 10
128.4196736617
 20
133.5038090004
 30
0.0
 10
128.3567091837
 20
133.5082365582
 30
0.0
 10
128.3167251044
 20
133.5105408928
 30
0.0
 10
128.2834848465
 20
133.5118829026
 30
0.0
 10
128.260471427
 20
133.5122589011
 30
0.0
 10
128.2462380276
 20
133.5119163267
 30
0.0
 10
128.238827303
 20
133.5114685546
 30
0.0
 10
128.2337973371
 20
133.5107552311
 30
0.0
 10
128.2310967313
 20
133.510091572
 30
0.0
 10
128.2303246995
 20
133.509511123
 30
0.0
  0
SPLINE
  5
5D4
100
AcDbEntity
  8
ASSI
100
AcDbSpline
 62
250
  6
CONTINUOUS
 70
0
 71
3
 72
15
 73
11
 74
0
 42
0.0000001
 43
0.0000001
 44
0.0000000001
 40
0.0
 40
0.0
 40
0.0
 40
0.0
 40
0.3749203864
 40
0.5426415178
 40
0.6900592608
 40
0.8126511231
 40
0.9065823186
 40
0.9692156548
 40
0.9884465418
 40
1.0
 40
1.0
 40
1.0
 40
1.0
 10
129.0241738026
 20
137.4750522736
 30
0.0
 10
128.9904874832
 20
137.480351039
 30
0.0
 10
128.9416426202
 20
137.4874739282
 30
0.0
 10
128.8793445413
 20
137.4951554863
 30
0.0
 10
128.8397547105
 20
137.4993052268
 30
0.0
 10
128.8067322403
 20
137.5020025302
 30
0.0
 10
128.7814204944
 20
137.5030891028
 30
0.0
 10
128.7652979831
 20
137.5029187627
 30
0.0
 10
128.7569849535
 20
137.5015880174
 30
0.0
 10
128.7542155213
 20
137.5006299294
 30
0.0
 10
128.7534475275
 20
137.4999126873
 30
0.0
  0
SPLINE
  5
5D5
100
AcDbEntity
  8
ASSI
100
AcDbSpline
 62
250
  6
CONTINUOUS
 70
0
 71
3
 72
15
 73
11
 74
0
 42
0.0000001
 43
0.0000001
 44
0.0000000001
 40
0.0
 40
0.0
 40
0.0
 40
0.0
 40
0.3813724933
 40
0.549623296
 40
0.6964920061
 40
0.8179272038
 40
0.9104666954
 40
0.9716121411
 40
0.989914085
 40
1.0
 40
1.0
 40
1.0
 40
1.0
 10
143.6896275549
 20
151.2615200399
 30
0.0
 10
143.686719842
 20
151.2928334466
 30
0.0
 10
143.6827497206
 20
151.3379819324
 30
0.0
 10
143.6782990229
 20
151.3952447615
 30
0.0
 10
143.6758214334
 20
151.4311535565
 30
0.0
 10
143.6740753721
 20
151.4608718504
 30
0.0
 10
143.6732077913
 20
151.4835113003
 30
0.0
 10
143.6729423968
 20
151.4977530013
 30
0.0
 10
143.6734378559
 20
151.505069989
 30
0.0
 10
143.6737281154
 20
151.5074474216
 30
0.0
 10
143.6740801859
 20
151.5082009147
 30
0.0
  0
SPLINE
  5
5D6
100
AcDbEntity
  8
ASSI
100
AcDbSpline
 62
250
  6
CONTINUOUS
 70
0
 71
3
 72
15
 73
11
 74
0
 42
0.0000001
 43
0.0000001
 44
0.0000000001
 40
0.0
 40
0.0
 40
0.0
 40
0.0
 40
0.3815157869
 40
0.5498160591
 40
0.696717181
 40
0.8181648813
 40
0.910691403
 40
0.9717840282
 40
0.9900282885
 40
1.0
 40
1.0
 40
1.0
 40
1.0
 10
148.6743806858
 20
151.6396241861
 30
0.0
 10
148.6728639624
 20
151.6710263968
 30
0.0
 10
148.6708711013
 20
151.7162905146
 30
0.0
 10
148.6688529161
 20
151.7736701184
 30
0.0
 10
148.6678616009
 20
151.809634906
 30
0.0
 10
148.6673040838
 20
151.8393794702
 30
0.0
 10
148.6672891649
 20
151.8620208254
 30
0.0
 10
148.6675117352
 20
151.8762330277
 30
0.0
 10
148.6681915341
 20
151.883519392
 30
0.0
 10
148.668511769
 20
151.8858673736
 30
0.0
 10
148.6688501349
 20
151.8866161932
 30
0.0
  0
SPLINE
  5
5D7
100
AcDbEntity
  8
ASSI
100
AcDbSpline
 62
250
  6
CONTINUOUS
 70
0
 71
3
 72
14
 73
10
 74
0
 42
0.0000001
 43
0.0000001
 44
0.0000000001
 40
0.0
 40
0.0
 40
0.0
 40
0.0
 40
0.3818528786
 40
0.5502615636
 40
0.6972299725
 40
0.818700333
 40
0.9111952924
 40
0.9721731096
 40
1.0
 40
1.0
 40
1.0
 40
1.0
 10
153.8407778418
 20
151.9015965559
 30
0.0
 10
153.8393560473
 20
151.9329696411
 30
0.0
 10
153.8374134836
 20
151.9781855362
 30
0.0
 10
153.8352643211
 20
152.0354857014
 30
0.0
 10
153.8340390076
 20
152.0714000814
 30
0.0
 10
153.8332838237
 20
152.1010567309
 30
0.0
 10
153.8326805212
 20
152.1237075391
 30
0.0
 10
153.8329645277
 20
152.1385351968
 30
0.0
 10
153.8327521283
 20
152.1459454478
 30
0.0
 10
153.8333026595
 20
152.1481668529
 30
0.0
  0
SPLINE
  5
5D8
100
AcDbEntity
  8
ASSI
100
AcDbSpline
 62
250
  6
CONTINUOUS
 70
0
 71
3
 72
14
 73
10
 74
0
 42
0.0000001
 43
0.0000001
 44
0.0000000001
 40
0.0
 40
0.0
 40
0.0
 40
0.0
 40
0.3818528803
 40
0.5502615656
 40
0.6972299744
 40
0.8187003346
 40
0.9111952937
 40
0.9721731103
 40
1.0
 40
1.0
 40
1.0
 40
1.0
 10
244.2293959079
 20
151.9015965559
 30
0.0
 10
244.2308177024
 20
151.9329696408
 30
0.0
 10
244.2327602661
 20
151.9781855353
 30
0.0
 10
244.2349094286
 20
152.0354856999
 30
0.0
 10
244.2361347419
 20
152.0714000794
 30
0.0
 10
244.2368899259
 20
152.1010567283
 30
0.0
 10
244.2374932284
 20
152.123707536
 30
0.0
 10
244.2372092218
 20
152.1385351934
 30
0.0
 10
244.2374216213
 20
152.1459454442
 30
0.0
 10
244.23687109
 20
152.1481668492
 30
0.0
  0
SPLINE
  5
5D9
100
AcDbEntity
  8
ASSI
100
AcDbSpline
 62
250
  6
CONTINUOUS
 70
0
 71
3
 72
15
 73
11
 74
0
 42
0.0000001
 43
0.0000001
 44
0.0000000001
 40
0.0
 40
0.0
 40
0.0
 40
0.0
 40
0.3815157861
 40
0.5498160581
 40
0.69671718
 40
0.8181648805
 40
0.9106914023
 40
0.9717840279
 40
0.9900282883
 40
1.0
 40
1.0
 40
1.0
 40
1.0
 10
249.3957930639
 20
151.639624186
 30
0.0
 10
249.3973097873
 20
151.6710263969
 30
0.0
 10
249.3993026484
 20
151.7162905148
 30
0.0
 10
249.4013208336
 20
151.7736701189
 30
0.0
 10
249.4023121489
 20
151.8096349067
 30
0.0
 10
249.4028696659
 20
151.8393794711
 30
0.0
 10
249.4028845848
 20
151.8620208265
 30
0.0
 10
249.4026620145
 20
151.876233029
 30
0.0
 10
249.4019822157
 20
151.8835193934
 30
0.0
 10
249.4016619808
 20
151.885867375
 30
0.0
 10
249.4013236148
 20
151.8866161947
 30
0.0
  0
SPLINE
  5
5DA
100
AcDbEntity
  8
ASSI
100
AcDbSpline
 62
250
  6
CONTINUOUS
 70
0
 71
3
 72
15
 73
11
 74
0
 42
0.0000001
 43
0.0000001
 44
0.0000000001
 40
0.0
 40
0.0
 40
0.0
 40
0.0
 40
0.3813722774
 40
0.54962305
 40
0.6964917688
 40
0.8179270041
 40
0.9104665532
 40
0.9716120685
 40
0.9899140492
 40
1.0
 40
1.0
 40
1.0
 40
1.0
 10
254.3805461948
 20
151.26152004
 30
0.0
 10
254.3834539149
 20
151.2928335024
 30
0.0
 10
254.3874240466
 20
151.337982074
 30
0.0
 10
254.3918747571
 20
151.3952450178
 30
0.0
 10
254.3943523553
 20
151.4311538985
 30
0.0
 10
254.3960984237
 20
151.4608722704
 30
0.0
 10
254.3969660106
 20
151.4835117875
 30
0.0
 10
254.3972314078
 20
151.4977535343
 30
0.0
 10
254.3967359511
 20
151.5050705523
 30
0.0
 10
254.3964456916
 20
151.5074479956
 30
0.0
 10
254.3960936219
 20
151.5082014945
 30
0.0
  0
SPLINE
  5
5DB
100
AcDbEntity
  8
ASSI
100
AcDbSpline
 62
250
  6
CONTINUOUS
 70
0
 71
3
 72
15
 73
11
 74
0
 42
0.0000001
 43
0.0000001
 44
0.0000000001
 40
0.0
 40
0.0
 40
0.0
 40
0.0
 40
0.374920498
 40
0.5426416259
 40
0.6900593442
 40
0.8126511731
 40
0.9065823379
 40
0.9692156551
 40
0.9884465392
 40
1.0
 40
1.0
 40
1.0
 40
1.0
 10
269.0459999407
 20
137.4750522672
 30
0.0
 10
269.0796862028
 20
137.4803510193
 30
0.0
 10
269.1285309775
 20
137.4874738899
 30
0.0
 10
269.1908289389
 20
137.4951554262
 30
0.0
 10
269.2304186847
 20
137.4993051529
 30
0.0
 10
269.2634410804
 20
137.5020024456
 30
0.0
 10
269.2887527678
 20
137.5030890115
 30
0.0
 10
269.3048752416
 20
137.5029186681
 30
0.0
 10
269.3131882525
 20
137.5015879232
 30
0.0
 10
269.3159576784
 20
137.5006298358
 30
0.0
 10
269.3167256708
 20
137.4999125948
 30
0.0
  0
SPLINE
  5
5DC
100
AcDbEntity
  8
ASSI
100
AcDbSpline
 62
250
  6
CONTINUOUS
 70
0
 71
3
 72
16
 73
12
 74
0
 42
0.0000001
 43
0.0000001
 44
0.0000000001
 40
0.0
 40
0.0
 40
0.0
 40
0.0
 40
0.3756804175
 40
0.543853
 40
0.6916642322
 40
0.8145076173
 40
0.908446505
 40
0.9436713291
 40
0.970690081
 40
0.989415776
 40
1.0
 40
1.0
 40
1.0
 40
1.0
 10
269.5669150635
 20
133.4963345312
 30
0.0
 10
269.6010479568
 20
133.499548353
 30
0.0
 10
269.6505000858
 20
133.503809
 30
0.0
 10
269.7134645623
 20
133.5082365576
 30
0.0
 10
269.7534486406
 20
133.5105408922
 30
0.0
 10
269.7866888978
 20
133.5118829019
 30
0.0
 10
269.8097023169
 20
133.5122589004
 30
0.0
 10
269.8239357161
 20
133.511916326
 30
0.0
 10
269.8313464407
 20
133.5114685539
 30
0.0
 10
269.8363764066
 20
133.5107552305
 30
0.0
 10
269.8390770125
 20
133.5100915714
 30
0.0
 10
269.8398490443
 20
133.5095111224
 30
0.0
  0
SPLINE
  5
5DD
100
AcDbEntity
  8
ASSI
100
AcDbSpline
 62
250
  6
CONTINUOUS
 70
0
 71
3
 72
16
 73
12
 74
0
 42
0.0000001
 43
0.0000001
 44
0.0000000001
 40
0.0
 40
0.0
 40
0.0
 40
0.0
 40
0.3760097656
 40
0.5443336225
 40
0.6922636842
 40
0.8151735475
 40
0.9090998534
 40
0.9442737458
 40
0.9711964716
 40
0.98975224
 40
1.0
 40
1.0
 40
1.0
 40
1.0
 10
269.7013405448
 20
132.0926688857
 30
0.0
 10
269.7355107206
 20
132.0957351658
 30
0.0
 10
269.7850083299
 20
132.0998521618
 30
0.0
 10
269.8480159744
 20
132.1042737299
 30
0.0
 10
269.888017371
 20
132.1066650717
 30
0.0
 10
269.9212600246
 20
132.1081789822
 30
0.0
 10
269.9442613879
 20
132.1087773086
 30
0.0
 10
269.9584823787
 20
132.1086666511
 30
0.0
 10
269.9658669727
 20
132.1084005046
 30
0.0
 10
269.9708686266
 20
132.1078579599
 30
0.0
 10
269.9735414607
 20
132.1073787348
 30
0.0
 10
269.9743371443
 20
132.106887674
 30
0.0
  0
SPLINE
  5
5DE
100
AcDbEntity
  8
ASSI
100
AcDbSpline
 62
250
  6
CONTINUOUS
 70
0
 71
3
 72
16
 73
12
 74
0
 42
0.0000001
 43
0.0000001
 44
0.0000000001
 40
0.0
 40
0.0
 40
0.0
 40
0.0
 40
0.3760097639
 40
0.5443336181
 40
0.6922636773
 40
0.8151735392
 40
0.9090998456
 40
0.944273739
 40
0.9711964665
 40
0.9897522373
 40
1.0
 40
1.0
 40
1.0
 40
1.0
 10
269.7013405437
 20
84.6928473131
 30
0.0
 10
269.7355107158
 20
84.6897810335
 30
0.0
 10
269.7850083197
 20
84.6856640381
 30
0.0
 10
269.8480159571
 20
84.6812424707
 30
0.0
 10
269.888017349
 20
84.6788511292
 30
0.0
 10
269.9212599989
 20
84.677337219
 30
0.0
 10
269.9442613599
 20
84.6767388927
 30
0.0
 10
269.9584823495
 20
84.6768495502
 30
0.0
 10
269.9658669432
 20
84.6771156967
 30
0.0
 10
269.9708685973
 20
84.6776582412
 30
0.0
 10
269.9735414315
 20
84.6781374663
 30
0.0
 10
269.9743371154
 20
84.6786285269
 30
0.0
  0
SPLINE
  5
5DF
100
AcDbEntity
  8
ASSI
100
AcDbSpline
 62
250
  6
CONTINUOUS
 70
0
 71
3
 72
16
 73
12
 74
0
 42
0.0000001
 43
0.0000001
 44
0.0000000001
 40
0.0
 40
0.0
 40
0.0
 40
0.0
 40
0.3756804183
 40
0.5438530014
 40
0.6916642342
 40
0.8145076195
 40
0.908446507
 40
0.9436713308
 40
0.9706900823
 40
0.9894157767
 40
1.0
 40
1.0
 40
1.0
 40
1.0
 10
269.5669150638
 20
83.2891816668
 30
0.0
 10
269.6010479578
 20
83.2859678449
 30
0.0
 10
269.650500088
 20
83.2817071978
 30
0.0
 10
269.713464566
 20
83.27727964
 30
0.0
 10
269.7534486453
 20
83.2749753053
 30
0.0
 10
269.7866889032
 20
83.2736332956
 30
0.0
 10
269.8097023227
 20
83.2732572971
 30
0.0
 10
269.8239357221
 20
83.2735998715
 30
0.0
 10
269.8313464467
 20
83.2740476436
 30
0.0
 10
269.8363764126
 20
83.2747609671
 30
0.0
 10
269.8390770184
 20
83.2754246262
 30
0.0
 10
269.8398490502
 20
83.2760050752
 30
0.0
  0
SPLINE
  5
5E0
100
AcDbEntity
  8
ASSI
100
AcDbSpline
 62
250
  6
CONTINUOUS
 70
0
 71
3
 72
15
 73
11
 74
0
 42
0.0000001
 43
0.0000001
 44
0.0000000001
 40
0.0
 40
0.0
 40
0.0
 40
0.0
 40
0.3749203864
 40
0.5426415178
 40
0.6900592608
 40
0.8126511231
 40
0.9065823186
 40
0.9692156548
 40
0.9884465418
 40
1.0
 40
1.0
 40
1.0
 40
1.0
 10
269.0459999471
 20
79.3104639246
 30
0.0
 10
269.0796862665
 20
79.3051651592
 30
0.0
 10
269.1285311295
 20
79.29804227
 30
0.0
 10
269.1908292084
 20
79.2903607119
 30
0.0
 10
269.2304190392
 20
79.2862109714
 30
0.0
 10
269.2634415094
 20
79.283513668
 30
0.0
 10
269.2887532553
 20
79.2824270954
 30
0.0
 10
269.3048757666
 20
79.2825974355
 30
0.0
 10
269.3131887962
 20
79.2839281808
 30
0.0
 10
269.3159582284
 20
79.2848862688
 30
0.0
 10
269.3167262222
 20
79.2856035109
 30
0.0
  0
SPLINE
  5
5E1
100
AcDbEntity
  8
ASSI
100
AcDbSpline
 62
250
  6
CONTINUOUS
 70
0
 71
3
 72
14
 73
10
 74
0
 42
0.0000001
 43
0.0000001
 44
0.0000000001
 40
0.0
 40
0.0
 40
0.0
 40
0.0
 40
0.4010318182
 40
0.5679136288
 40
0.7096517212
 40
0.8246854772
 40
0.9118158779
 40
0.9701725797
 40
1.0
 40
1.0
 40
1.0
 40
1.0
 10
153.6230143701
 20
86.6869373331
 30
0.0
 10
153.6488560281
 20
86.6878587031
 30
0.0
 10
153.685449517
 20
86.6893900409
 30
0.0
 10
153.7311179398
 20
86.6921080459
 30
0.0
 10
153.7583825822
 20
86.694118886
 30
0.0
 10
153.7803996643
 20
86.6962617731
 30
0.0
 10
153.797211889
 20
86.6983118751
 30
0.0
 10
153.8080297762
 20
86.7005895365
 30
0.0
 10
153.8138793098
 20
86.7021090913
 30
0.0
 10
153.8152415622
 20
86.7034667047
 30
0.0
  0
SPLINE
  5
5E2
100
AcDbEntity
  8
ASSI
100
AcDbSpline
 62
250
  6
CONTINUOUS
 70
0
 71
3
 72
14
 73
10
 74
0
 42
0.0000001
 43
0.0000001
 44
0.0000000001
 40
0.0
 40
0.0
 40
0.0
 40
0.0
 40
0.4022271942
 40
0.5695230868
 40
0.7115277377
 40
0.8266509584
 40
0.9136407192
 40
0.971500151
 40
1.0
 40
1.0
 40
1.0
 40
1.0
 10
153.6231228771
 20
86.6819157769
 30
0.0
 10
153.6489469667
 20
86.6825207927
 30
0.0
 10
153.6855123503
 20
86.6835238396
 30
0.0
 10
153.7311658748
 20
86.6853112421
 30
0.0
 10
153.7584059951
 20
86.6866196375
 30
0.0
 10
153.7804215595
 20
86.6880513652
 30
0.0
 10
153.7971623464
 20
86.6893272294
 30
0.0
 10
153.8080077522
 20
86.690945033
 30
0.0
 10
153.813724938
 20
86.6917569576
 30
0.0
 10
153.815257128
 20
86.6927580991
 30
0.0
  0
SPLINE
  5
5E3
100
AcDbEntity
  8
ASSI
100
AcDbSpline
 62
250
  6
CONTINUOUS
 70
0
 71
3
 72
14
 73
10
 74
0
 42
0.0000001
 43
0.0000001
 44
0.0000000001
 40
0.0
 40
0.0
 40
0.0
 40
0.0
 40
0.4020359615
 40
0.5692588081
 40
0.7112108656
 40
0.826315133
 40
0.9133287115
 40
0.9712720146
 40
1.0
 40
1.0
 40
1.0
 40
1.0
 10
153.6230177025
 20
130.0989713949
 30
0.0
 10
153.6488551506
 20
130.098213535
 30
0.0
 10
153.6854388772
 20
130.0969866945
 30
0.0
 10
153.7311151277
 20
130.0949938773
 30
0.0
 10
153.7583730311
 20
130.0935629365
 30
0.0
 10
153.7803966984
 20
130.0919875183
 30
0.0
 10
153.7971615557
 20
130.0905523168
 30
0.0
 10
153.8079972671
 20
130.0887910063
 30
0.0
 10
153.81375281
 20
130.0878479309
 30
0.0
 10
153.8152492779
 20
130.0867652742
 30
0.0
  0
SPLINE
  5
5E4
100
AcDbEntity
  8
ASSI
100
AcDbSpline
 62
250
  6
CONTINUOUS
 70
0
 71
3
 72
14
 73
10
 74
0
 42
0.0000001
 43
0.0000001
 44
0.0000000001
 40
0.0
 40
0.0
 40
0.0
 40
0.0
 40
0.4026902545
 40
0.5701496996
 40
0.7122616159
 40
0.8274235829
 40
0.9143623128
 40
0.9720303542
 40
1.0
 40
1.0
 40
1.0
 40
1.0
 10
153.6230219864
 20
130.0991682502
 30
0.0
 10
153.6488564553
 20
130.099001858
 30
0.0
 10
153.6854358625
 20
130.0986193458
 30
0.0
 10
153.7311181375
 20
130.097669583
 30
0.0
 10
153.758365832
 20
130.0969043832
 30
0.0
 10
153.780406799
 20
130.0959801618
 30
0.0
 10
153.7971101778
 20
130.0951654296
 30
0.0
 10
153.8080180003
 20
130.0939921517
 30
0.0
 10
153.8136283899
 20
130.0935063215
 30
0.0
 10
153.8152593744
 20
130.0927580989
 30
0.0
  0
SPLINE
  5
5E5
100
AcDbEntity
  8
ASSI
100
AcDbSpline
 62
250
  6
CONTINUOUS
 70
0
 71
3
 72
14
 73
10
 74
0
 42
0.0000001
 43
0.0000001
 44
0.0000000001
 40
0.0
 40
0.0
 40
0.0
 40
0.0
 40
0.027969931
 40
0.0856380703
 40
0.1725768644
 40
0.2877389107
 40
0.4298509818
 40
0.5973105442
 40
1.0
 40
1.0
 40
1.0
 40
1.0
 10
244.2549161292
 20
130.0927580991
 30
0.0
 10
244.2565471592
 20
130.093506503
 30
0.0
 10
244.2621579373
 20
130.0939924241
 30
0.0
 10
244.2730663575
 20
130.095165641
 30
0.0
 10
244.289770722
 20
130.0959798984
 30
0.0
 10
244.3118129239
 20
130.0969037893
 30
0.0
 10
244.3390621382
 20
130.0976691548
 30
0.0
 10
244.3847468811
 20
130.0986194312
 30
0.0
 10
244.4213282545
 20
130.0990022092
 30
0.0
 10
244.4471640912
 20
130.0991688776
 30
0.0
  0
SPLINE
  5
5E6
100
AcDbEntity
  8
ASSI
100
AcDbSpline
 62
250
  6
CONTINUOUS
 70
0
 71
3
 72
14
 73
10
 74
0
 42
0.0000001
 43
0.0000001
 44
0.0000000001
 40
0.0
 40
0.0
 40
0.0
 40
0.0
 40
0.0279747638
 40
0.0856448161
 40
0.172583514
 40
0.2877440668
 40
0.4298537743
 40
0.5973108988
 40
1.0
 40
1.0
 40
1.0
 40
1.0
 10
244.2549118771
 20
86.6927580991
 30
0.0
 10
244.2565423808
 20
86.6920077989
 30
0.0
 10
244.2621536819
 20
86.6915182597
 30
0.0
 10
244.2730616594
 20
86.6903393794
 30
0.0
 10
244.289765923
 20
86.6895184438
 30
0.0
 10
244.311807608
 20
86.6885886457
 30
0.0
 10
244.3390564149
 20
86.6878198482
 30
0.0
 10
244.3847409188
 20
86.6868699351
 30
0.0
 10
244.4213223376
 20
86.6864953888
 30
0.0
 10
244.4471582673
 20
86.6863392677
 30
0.0
  0
SPLINE
  5
5E7
100
AcDbEntity
  8
ASSI
100
AcDbSpline
 62
7
  6
CONTINUOUS
 70
0
 71
3
 72
9
 73
5
 74
0
 42
0.0000001
 43
0.0000001
 44
0.0000000001
 40
0.0
 40
0.0
 40
0.0
 40
0.0
 40
0.2500733955
 40
1.0
 40
1.0
 40
1.0
 40
1.0
 10
153.6024458598
 20
108.392758099
 30
0.0
 10
153.6024431346
 20
110.2021351894
 30
0.0
 10
153.6041477763
 20
117.4375192703
 30
0.0
 10
153.6127064258
 20
124.6729017689
 30
0.0
 10
153.6230149846
 20
130.0988990701
 30
0.0
  0
SPLINE
  5
5E8
100
AcDbEntity
  8
ASSI
100
AcDbSpline
 62
7
  6
CONTINUOUS
 70
0
 71
3
 72
9
 73
5
 74
0
 42
0.0000001
 43
0.0000001
 44
0.0000000001
 40
0.0
 40
0.0
 40
0.0
 40
0.0
 40
0.249896769
 40
1.0
 40
1.0
 40
1.0
 40
1.0
 10
153.6230143716
 20
86.6869365232
 30
0.0
 10
153.6195821215
 20
88.4950057901
 30
0.0
 10
153.6075872791
 20
95.7302736673
 30
0.0
 10
153.602436214
 20
102.9655529062
 30
0.0
 10
153.6024458455
 20
108.392758099
 30
0.0
  0
SPLINE
  5
5E9
100
AcDbEntity
  8
ASSI
100
AcDbSpline
 62
250
  6
CONTINUOUS
 70
0
 71
3
 72
9
 73
5
 74
0
 42
0.0000001
 43
0.0000001
 44
0.0000000001
 40
0.0
 40
0.0
 40
0.0
 40
0.0
 40
0.2627016838
 40
1.0
 40
1.0
 40
1.0
 40
1.0
 10
153.2286407161
 20
86.6814322269
 30
0.0
 10
153.2631788862
 20
86.6814592339
 30
0.0
 10
153.3946503023
 20
86.6819955426
 30
0.0
 10
153.5261219563
 20
86.6840693552
 30
0.0
 10
153.6230143716
 20
86.6869365232
 30
0.0
  0
LINE
  5
5EA
100
AcDbEntity
  8
ASSI
100
AcDbLine
 62
7
  6
CONTINUOUS
 10
153.6231220902
 20
86.6819157616
 11
153.6230027531
 21
86.6869361544
  0
SPLINE
  5
5EB
100
AcDbEntity
  8
ASSI
100
AcDbSpline
 62
7
  6
CONTINUOUS
 70
0
 71
3
 72
10
 73
6
 74
0
 42
0.0000001
 43
0.0000001
 44
0.0000000001
 40
0.0
 40
0.0
 40
0.0
 40
0.0
 40
0.2504356274
 40
0.5008488128
 40
1.0
 40
1.0
 40
1.0
 40
1.0
 10
154.7342640952
 20
85.576403453
 30
0.0
 10
154.6720665507
 20
85.5772816106
 30
0.0
 10
154.5476274139
 20
85.5907349055
 30
0.0
 10
154.3072602589
 20
85.6558198603
 30
0.0
 10
154.1412138126
 20
85.749618381
 30
0.0
 10
154.0446896805
 20
85.827427089
 30
0.0
  0
LINE
  5
5EC
100
AcDbEntity
  8
ASSI
100
AcDbLine
 62
7
  6
CONTINUOUS
 10
155.7479615786
 20
85.5619859726
 11
154.7350868152
 21
85.5764171813
  0
LINE
  5
5ED
100
AcDbEntity
  8
ASSI
100
AcDbLine
 62
7
  6
CONTINUOUS
 10
243.3350868747
 20
85.5764171804
 11
242.3222121606
 21
85.5619859726
  0
SPLINE
  5
5EE
100
AcDbEntity
  8
ASSI
100
AcDbSpline
 62
7
  6
CONTINUOUS
 70
0
 71
3
 72
10
 73
6
 74
0
 42
0.0000001
 43
0.0000001
 44
0.0000000001
 40
0.0
 40
0.0
 40
0.0
 40
0.0
 40
0.4991496898
 40
0.7495622702
 40
1.0
 40
1.0
 40
1.0
 40
1.0
 10
244.0254896697
 20
85.8274196363
 30
0.0
 10
243.9289371168
 20
85.7496474484
 30
0.0
 10
243.7629234808
 20
85.655794499
 30
0.0
 10
243.5225398674
 20
85.5907831688
 30
0.0
 10
243.3981083715
 20
85.5772525294
 30
0.0
 10
243.3359102775
 20
85.5763911034
 30
0.0
  0
SPLINE
  5
5EF
100
AcDbEntity
  8
ASSI
100
AcDbSpline
 62
250
  6
CONTINUOUS
 70
0
 71
3
 72
9
 73
5
 74
0
 42
0.0000001
 43
0.0000001
 44
0.0000000001
 40
0.0
 40
0.0
 40
0.0
 40
0.0
 40
0.2626671037
 40
1.0
 40
1.0
 40
1.0
 40
1.0
 10
244.8414887272
 20
86.676099779
 30
0.0
 10
244.8069546655
 20
86.6765694771
 30
0.0
 10
244.6754870593
 20
86.6787876234
 30
0.0
 10
244.5440389061
 20
86.6825329511
 30
0.0
 10
244.4471753955
 20
86.6866162781
 30
0.0
  0
SPLINE
  5
5F0
100
AcDbEntity
  8
ASSI
100
AcDbSpline
 62
7
  6
CONTINUOUS
 70
0
 71
3
 72
9
 73
5
 74
0
 42
0.0000001
 43
0.0000001
 44
0.0000000001
 40
0.0
 40
0.0
 40
0.0
 40
0.0
 40
0.250073395
 40
1.0
 40
1.0
 40
1.0
 40
1.0
 10
244.4677278928
 20
108.3927580992
 30
0.0
 10
244.467730758
 20
106.5833810123
 30
0.0
 10
244.4660314868
 20
99.3479969226
 30
0.0
 10
244.457433855
 20
92.1126145001
 30
0.0
 10
244.4471587945
 20
86.6866171336
 30
0.0
  0
SPLINE
  5
5F1
100
AcDbEntity
  8
ASSI
100
AcDbSpline
 62
7
  6
CONTINUOUS
 70
0
 71
3
 72
9
 73
5
 74
0
 42
0.0000001
 43
0.0000001
 44
0.0000000001
 40
0.0
 40
0.0
 40
0.0
 40
0.0
 40
0.2498967748
 40
1.0
 40
1.0
 40
1.0
 40
1.0
 10
244.4471593592
 20
130.0985796742
 30
0.0
 10
244.4505762763
 20
128.2905103369
 30
0.0
 10
244.4625978664
 20
121.0552425152
 30
0.0
 10
244.4677369168
 20
113.8199632489
 30
0.0
 10
244.4677278996
 20
108.3927580992
 30
0.0
  0
SPLINE
  5
5F2
100
AcDbEntity
  8
ASSI
100
AcDbSpline
 62
250
  6
CONTINUOUS
 70
0
 71
3
 72
9
 73
5
 74
0
 42
0.0000001
 43
0.0000001
 44
0.0000000001
 40
0.0
 40
0.0
 40
0.0
 40
0.0
 40
0.2627016818
 40
1.0
 40
1.0
 40
1.0
 40
1.0
 10
244.8415330336
 20
130.1040839713
 30
0.0
 10
244.8069948621
 20
130.1040569643
 30
0.0
 10
244.6755234397
 20
130.1035206556
 30
0.0
 10
244.5440517794
 20
130.1014468428
 30
0.0
 10
244.4471593592
 20
130.0985796742
 30
0.0
  0
SPLINE
  5
5F3
100
AcDbEntity
  8
ASSI
100
AcDbSpline
 62
7
  6
CONTINUOUS
 70
0
 71
3
 72
11
 73
7
 74
0
 42
0.0000001
 43
0.0000001
 44
0.0000000001
 40
0.0
 40
0.0
 40
0.0
 40
0.0
 40
0.2500987131
 40
0.5001177422
 40
0.7500794175
 40
1.0
 40
1.0
 40
1.0
 40
1.0
 10
244.0254895103
 20
130.9580957725
 30
0.0
 10
244.0895246179
 20
130.9064986256
 30
0.0
 10
244.2066175986
 20
130.7888375155
 30
0.0
 10
244.3396300449
 20
130.5789215621
 30
0.0
 10
244.4242554264
 20
130.3452657175
 30
0.0
 10
244.4453173416
 20
130.1807366032
 30
0.0
 10
244.4471758397
 20
130.0985801881
 30
0.0
  0
SPLINE
  5
5F4
100
AcDbEntity
  8
ASSI
100
AcDbSpline
 62
7
  6
CONTINUOUS
 70
0
 71
3
 72
10
 73
6
 74
0
 42
0.0000001
 43
0.0000001
 44
0.0000000001
 40
0.0
 40
0.0
 40
0.0
 40
0.0
 40
0.2504368333
 40
0.5008496538
 40
1.0
 40
1.0
 40
1.0
 40
1.0
 10
243.3359099605
 20
131.2091192921
 30
0.0
 10
243.3981078844
 20
131.2082502118
 30
0.0
 10
243.5225418694
 20
131.1947455686
 30
0.0
 10
243.7629210803
 20
131.1297181119
 30
0.0
 10
243.928957143
 20
131.0358937797
 30
0.0
 10
244.0254894734
 20
130.9580957271
 30
0.0
  0
LINE
  5
5F5
100
AcDbEntity
  8
ASSI
100
AcDbLine
 62
7
  6
CONTINUOUS
 10
242.3222121584
 20
131.2235302256
 11
243.3350869284
 21
131.209099017
  0
LINE
  5
5F6
100
AcDbEntity
  8
ASSI
100
AcDbLine
 62
7
  6
CONTINUOUS
 10
154.7350868749
 20
131.2090990178
 11
155.747961581
 21
131.2235302256
  0
SPLINE
  5
5F7
100
AcDbEntity
  8
ASSI
100
AcDbSpline
 62
7
  6
CONTINUOUS
 70
0
 71
3
 72
10
 73
6
 74
0
 42
0.0000001
 43
0.0000001
 44
0.0000000001
 40
0.0
 40
0.0
 40
0.0
 40
0.0
 40
0.4991512402
 40
0.7495642752
 40
1.0
 40
1.0
 40
1.0
 40
1.0
 10
154.0446899677
 20
130.9580893574
 30
0.0
 10
154.1412139726
 20
131.0358981361
 30
0.0
 10
154.307260546
 20
131.1296960745
 30
0.0
 10
154.547627363
 20
131.1947817546
 30
0.0
 10
154.6720665251
 20
131.2082344787
 30
0.0
 10
154.7342640631
 20
131.2091124096
 30
0.0
  0
SPLINE
  5
5F8
100
AcDbEntity
  8
ASSI
100
AcDbSpline
 62
250
  6
CONTINUOUS
 70
0
 71
3
 72
9
 73
5
 74
0
 42
0.0000001
 43
0.0000001
 44
0.0000000001
 40
0.0
 40
0.0
 40
0.0
 40
0.0
 40
0.2626685555
 40
1.0
 40
1.0
 40
1.0
 40
1.0
 10
153.2286850225
 20
130.1094164192
 30
0.0
 10
153.2632208915
 20
130.1089466965
 30
0.0
 10
153.3946946507
 20
130.106728422
 30
0.0
 10
153.5261489563
 20
130.1029828355
 30
0.0
 10
153.6230168023
 20
130.0988991421
 30
0.0
  0
SPLINE
  5
5F9
100
AcDbEntity
  8
ASSI
100
AcDbSpline
 62
250
  6
CONTINUOUS
 70
0
 71
3
 72
15
 73
11
 74
0
 42
0.0000001
 43
0.0000001
 44
0.0000000001
 40
0.0
 40
0.0
 40
0.0
 40
0.0
 40
0.1248526899
 40
0.2497149137
 40
0.3746174475
 40
0.4995853034
 40
0.6246298549
 40
0.7497405837
 40
0.8748819137
 40
1.0
 40
1.0
 40
1.0
 40
1.0
 10
269.0459999474
 20
137.4750522739
 30
0.0
 10
268.9005980066
 20
138.3629684913
 30
0.0
 10
268.4641889938
 20
140.1185129537
 30
0.0
 10
267.3916622125
 20
142.6084179897
 30
0.0
 10
265.9282622507
 20
144.8924832633
 30
0.0
 10
264.1118151824
 20
146.9087992141
 30
0.0
 10
261.9897104182
 20
148.6029491693
 30
0.0
 10
259.6179689476
 20
149.9282143586
 30
0.0
 10
257.0615190358
 20
150.8475702264
 30
0.0
 10
255.277852279
 20
151.1730666083
 30
0.0
 10
254.3805461948
 20
151.26152004
 30
0.0
  0
SPLINE
  5
5FA
100
AcDbEntity
  8
ASSI
100
AcDbSpline
 62
250
  6
CONTINUOUS
 70
0
 71
3
 72
11
 73
7
 74
0
 42
0.0000001
 43
0.0000001
 44
0.0000000001
 40
0.0
 40
0.0
 40
0.0
 40
0.0
 40
0.2500807744
 40
0.5001173561
 40
0.7500852886
 40
1.0
 40
1.0
 40
1.0
 40
1.0
 10
244.2844293496
 20
131.2725701458
 30
0.0
 10
244.3697403763
 20
131.2019484904
 30
0.0
 10
244.5255107883
 20
131.0416523572
 30
0.0
 10
244.7017227913
 20
130.757059034
 30
0.0
 10
244.8124473885
 20
130.4413812647
 30
0.0
 10
244.8402809241
 20
130.2196642499
 30
0.0
 10
244.8415244201
 20
130.1089955585
 30
0.0
  0
LINE
  5
5FB
100
AcDbEntity
  8
ASSI
100
AcDbLine
 62
250
  6
CONTINUOUS
 10
244.2835001073
 20
132.0926688857
 11
244.2844293496
 21
131.2725701458
  0
LINE
  5
5FC
100
AcDbEntity
  8
ASSI
100
AcDbLine
 62
250
  6
CONTINUOUS
 10
244.2844293496
 20
85.5129460524
 11
244.2835001073
 21
84.6928473125
  0
SPLINE
  5
5FD
100
AcDbEntity
  8
ASSI
100
AcDbSpline
 62
250
  6
CONTINUOUS
 70
0
 71
3
 72
9
 73
5
 74
0
 42
0.0000001
 43
0.0000001
 44
0.0000000001
 40
0.0
 40
0.0
 40
0.0
 40
0.0
 40
0.2500730681
 40
1.0
 40
1.0
 40
1.0
 40
1.0
 10
244.8621079044
 20
108.3927580991
 30
0.0
 10
244.8621070909
 20
106.5825417559
 30
0.0
 10
244.8604181429
 20
99.3437921652
 30
0.0
 10
244.8518183445
 20
92.1050442176
 30
0.0
 10
244.8415244197
 20
86.676520635
 30
0.0
  0
SPLINE
  5
5FE
100
AcDbEntity
  8
ASSI
100
AcDbSpline
 62
250
  6
CONTINUOUS
 70
0
 71
3
 72
9
 73
5
 74
0
 42
0.0000001
 43
0.0000001
 44
0.0000000001
 40
0.0
 40
0.0
 40
0.0
 40
0.0
 40
0.2498970319
 40
1.0
 40
1.0
 40
1.0
 40
1.0
 10
244.8415244201
 20
130.1089955585
 30
0.0
 10
244.8449539901
 20
128.3000567487
 30
0.0
 10
244.8569952731
 20
121.0613169743
 30
0.0
 10
244.862105196
 20
113.8225657232
 30
0.0
 10
244.8621079044
 20
108.3927580991
 30
0.0
  0
LINE
  5
5FF
100
AcDbEntity
  8
ASSI
100
AcDbLine
 62
250
  6
CONTINUOUS
 10
153.8152570831
 20
86.6927935484
 11
153.8152485471
 21
86.6992955337
  0
SPLINE
  5
600
100
AcDbEntity
  8
ASSI
100
AcDbSpline
 62
250
  6
CONTINUOUS
 70
0
 71
3
 72
9
 73
5
 74
0
 42
0.0000001
 43
0.0000001
 44
0.0000000001
 40
0.0
 40
0.0
 40
0.0
 40
0.0
 40
0.2498968324
 40
1.0
 40
1.0
 40
1.0
 40
1.0
 10
153.8152485471
 20
86.6992955337
 30
0.0
 10
153.811822094
 20
88.5063357749
 30
0.0
 10
153.7998262827
 20
95.7374839727
 30
0.0
 10
153.7946879494
 20
102.9686435433
 30
0.0
 10
153.7946879706
 20
108.3927580991
 30
0.0
  0
SPLINE
  5
601
100
AcDbEntity
  8
ASSI
100
AcDbSpline
 62
250
  6
CONTINUOUS
 70
0
 71
3
 72
9
 73
5
 74
0
 42
0.0000001
 43
0.0000001
 44
0.0000000001
 40
0.0
 40
0.0
 40
0.0
 40
0.0
 40
0.250073761
 40
1.0
 40
1.0
 40
1.0
 40
1.0
 10
153.7946879706
 20
108.3927580991
 30
0.0
 10
153.7946879632
 20
110.2010809839
 30
0.0
 10
153.7964021383
 20
117.4322389115
 30
0.0
 10
153.8049637159
 20
124.6633952272
 30
0.0
 10
153.8152485471
 20
130.08622062
 30
0.0
  0
LINE
  5
602
100
AcDbEntity
  8
ASSI
100
AcDbLine
 62
250
  6
CONTINUOUS
 10
153.8152485471
 20
130.08622062
 11
153.8152570832
 21
130.0927226693
  0
SPLINE
  5
603
100
AcDbEntity
  8
ASSI
100
AcDbSpline
 62
250
  6
CONTINUOUS
 70
0
 71
3
 72
9
 73
5
 74
0
 42
0.0000001
 43
0.0000001
 44
0.0000000001
 40
0.0
 40
0.0
 40
0.0
 40
0.0
 40
0.2498966668
 40
1.0
 40
1.0
 40
1.0
 40
1.0
 10
244.2549118936
 20
130.0927482741
 30
0.0
 10
244.2583410758
 20
128.2851654906
 30
0.0
 10
244.270344804
 20
121.0518414286
 30
0.0
 10
244.2754858042
 20
113.8185059822
 30
0.0
 10
244.2754857791
 20
108.3927580991
 30
0.0
  0
SPLINE
  5
604
100
AcDbEntity
  8
ASSI
100
AcDbSpline
 62
250
  6
CONTINUOUS
 70
0
 71
3
 72
9
 73
5
 74
0
 42
0.0000001
 43
0.0000001
 44
0.0000000001
 40
0.0
 40
0.0
 40
0.0
 40
0.0
 40
0.250073838
 40
1.0
 40
1.0
 40
1.0
 40
1.0
 10
244.2754857791
 20
108.3927580991
 30
0.0
 10
244.2754857857
 20
106.5838904639
 30
0.0
 10
244.2737707621
 20
99.3505564066
 30
0.0
 10
244.265202689
 20
92.1172239647
 30
0.0
 10
244.2549118927
 20
86.6927672011
 30
0.0
  0
SPLINE
  5
605
100
AcDbEntity
  8
ASSI
100
AcDbSpline
 62
250
  6
CONTINUOUS
 70
0
 71
3
 72
15
 73
11
 74
0
 42
0.0000001
 43
0.0000001
 44
0.0000000001
 40
0.0
 40
0.0
 40
0.0
 40
0.0
 40
0.1248526899
 40
0.2497149137
 40
0.3746174475
 40
0.4995853034
 40
0.6246298549
 40
0.7497405837
 40
0.8748819137
 40
1.0
 40
1.0
 40
1.0
 40
1.0
 10
129.0241738023
 20
79.3104639243
 30
0.0
 10
129.1695757431
 20
78.4225477069
 30
0.0
 10
129.6059847559
 20
76.6670032445
 30
0.0
 10
130.6785115372
 20
74.1770982085
 30
0.0
 10
132.141911499
 20
71.8930329349
 30
0.0
 10
133.9583585673
 20
69.8767169841
 30
0.0
 10
136.0804633315
 20
68.1825670289
 30
0.0
 10
138.4522048021
 20
66.8573018396
 30
0.0
 10
141.0086547139
 20
65.9379459718
 30
0.0
 10
142.7923214707
 20
65.6124495899
 30
0.0
 10
143.6896275549
 20
65.5239961582
 30
0.0
  0
SPLINE
  5
606
100
AcDbEntity
  8
ASSI
100
AcDbSpline
 62
250
  6
CONTINUOUS
 70
0
 71
3
 72
15
 73
11
 74
0
 42
0.0000001
 43
0.0000001
 44
0.0000000001
 40
0.0
 40
0.0
 40
0.0
 40
0.0
 40
0.1251181034
 40
0.250259434
 40
0.3753701603
 40
0.5004147102
 40
0.6253825652
 40
0.7502850987
 40
0.8751473235
 40
1.0
 40
1.0
 40
1.0
 40
1.0
 10
143.6896275549
 20
151.26152004
 30
0.0
 10
142.792321221
 20
151.1730678831
 30
0.0
 10
141.0086544887
 20
150.847569742
 30
0.0
 10
138.4522044787
 20
149.9282143488
 30
0.0
 10
136.0804630538
 20
148.6029489807
 30
0.0
 10
133.9583583736
 20
146.9087990249
 30
0.0
 10
132.1419113414
 20
144.8924830328
 30
0.0
 10
130.6785115271
 20
142.6084177439
 30
0.0
 10
129.6059843111
 20
140.1185128212
 30
0.0
 10
129.169576861
 20
138.3629682104
 30
0.0
 10
129.0241738023
 20
137.4750522739
 30
0.0
  0
SPLINE
  5
607
100
AcDbEntity
  8
ASSI
100
AcDbSpline
 62
250
  6
CONTINUOUS
 70
0
 71
3
 72
9
 73
5
 74
0
 42
0.0000001
 43
0.0000001
 44
0.0000000001
 40
0.0
 40
0.0
 40
0.0
 40
0.0
 40
0.2500730681
 40
1.0
 40
1.0
 40
1.0
 40
1.0
 10
153.2080658453
 20
108.3927580991
 30
0.0
 10
153.2080666588
 20
110.2029744423
 30
0.0
 10
153.2097556068
 20
117.441724033
 30
0.0
 10
153.2183554052
 20
124.6804719806
 30
0.0
 10
153.22864933
 20
130.1089955632
 30
0.0
  0
SPLINE
  5
608
100
AcDbEntity
  8
ASSI
100
AcDbSpline
 62
250
  6
CONTINUOUS
 70
0
 71
3
 72
9
 73
5
 74
0
 42
0.0000001
 43
0.0000001
 44
0.0000000001
 40
0.0
 40
0.0
 40
0.0
 40
0.0
 40
0.2498970319
 40
1.0
 40
1.0
 40
1.0
 40
1.0
 10
153.2286493296
 20
86.6765206397
 30
0.0
 10
153.2252197596
 20
88.4854594495
 30
0.0
 10
153.2131784766
 20
95.7241992239
 30
0.0
 10
153.2080685537
 20
102.9629504749
 30
0.0
 10
153.2080658453
 20
108.3927580991
 30
0.0
  0
SPLINE
  5
609
100
AcDbEntity
  8
ASSI
100
AcDbSpline
 62
250
  6
CONTINUOUS
 70
0
 71
3
 72
11
 73
7
 74
0
 42
0.0000001
 43
0.0000001
 44
0.0000000001
 40
0.0
 40
0.0
 40
0.0
 40
0.0
 40
0.2500807744
 40
0.5001173561
 40
0.7500852886
 40
1.0
 40
1.0
 40
1.0
 40
1.0
 10
153.7857444001
 20
85.5129460524
 30
0.0
 10
153.7004333734
 20
85.5835677078
 30
0.0
 10
153.5446629614
 20
85.743863841
 30
0.0
 10
153.3684509584
 20
86.0284571642
 30
0.0
 10
153.2577263612
 20
86.3441349335
 30
0.0
 10
153.2298928256
 20
86.5658519483
 30
0.0
 10
153.2286493296
 20
86.6765206397
 30
0.0
  0
LINE
  5
60A
100
AcDbEntity
  8
ASSI
100
AcDbLine
 62
250
  6
CONTINUOUS
 10
153.7857444001
 20
85.5129460524
 11
153.7866736424
 21
84.6928473125
  0
LINE
  5
60B
100
AcDbEntity
  8
ASSI
100
AcDbLine
 62
250
  6
CONTINUOUS
 10
153.7866736424
 20
132.0926688857
 11
153.7857444001
 21
131.2725701458
  0
SPLINE
  5
60C
100
AcDbEntity
  8
ASSI
100
AcDbSpline
 62
250
  6
CONTINUOUS
 70
0
 71
3
 72
15
 73
11
 74
0
 42
0.0000001
 43
0.0000001
 44
0.0000000001
 40
0.0
 40
0.0
 40
0.0
 40
0.0
 40
0.1251181034
 40
0.250259434
 40
0.3753701603
 40
0.5004147102
 40
0.6253825652
 40
0.7502850987
 40
0.8751473235
 40
1.0
 40
1.0
 40
1.0
 40
1.0
 10
254.3805461948
 20
65.5239961582
 30
0.0
 10
255.2778525287
 20
65.6124483151
 30
0.0
 10
257.061519261
 20
65.9379464562
 30
0.0
 10
259.617969271
 20
66.8573018494
 30
0.0
 10
261.9897106959
 20
68.1825672175
 30
0.0
 10
264.1118153761
 20
69.8767171733
 30
0.0
 10
265.9282624083
 20
71.8930331654
 30
0.0
 10
267.3916622226
 20
74.1770984543
 30
0.0
 10
268.4641894386
 20
76.667003377
 30
0.0
 10
268.9005968887
 20
78.4225479878
 30
0.0
 10
269.0459999474
 20
79.3104639243
 30
0.0
  0
SPLINE
  5
60D
100
AcDbEntity
  8
ASSI
100
AcDbSpline
 62
250
  6
CONTINUOUS
 70
0
 71
3
 72
15
 73
11
 74
0
 42
0.0000001
 43
0.0000001
 44
0.0000000001
 40
0.0
 40
0.0
 40
0.0
 40
0.0
 40
0.1251138574
 40
0.2502501339
 40
0.37535709
 40
0.5004003505
 40
0.6253696099
 40
0.7502756666
 40
0.8751425469
 40
1.0
 40
1.0
 40
1.0
 40
1.0
 10
254.3959968141
 20
65.2773051372
 30
0.0
 10
255.3083348999
 20
65.367146962
 30
0.0
 10
257.1219071968
 20
65.6976200176
 30
0.0
 10
259.7216296381
 20
66.6309367614
 30
0.0
 10
262.1340979408
 20
67.9765491671
 30
0.0
 10
264.2933017596
 20
69.6971828135
 30
0.0
 10
266.1421038639
 20
71.7456718329
 30
0.0
 10
267.6320154198
 20
74.0669067712
 30
0.0
 10
268.7242200008
 20
76.5979949428
 30
0.0
 10
269.1686782253
 20
78.382915943
 30
0.0
 10
269.3167464025
 20
79.2857265384
 30
0.0
  0
SPLINE
  5
60E
100
AcDbEntity
  8
ASSI
100
AcDbSpline
 62
250
  6
CONTINUOUS
 70
0
 71
3
 72
15
 73
11
 74
0
 42
0.0000001
 43
0.0000001
 44
0.0000000001
 40
0.0
 40
0.0
 40
0.0
 40
0.0
 40
0.1248574606
 40
0.2497243403
 40
0.3746303977
 40
0.4995996581
 40
0.6246429204
 40
0.7497498787
 40
0.8748861542
 40
1.0
 40
1.0
 40
1.0
 40
1.0
 10
269.3167439939
 20
137.499804348
 30
0.0
 10
269.1686760011
 20
138.4026149916
 30
0.0
 10
268.7242146916
 20
140.18753532
 30
0.0
 10
267.632008551
 20
142.7186225949
 30
0.0
 10
266.1420948476
 20
145.039856113
 30
0.0
 10
264.2932910539
 20
147.0883434464
 30
0.0
 10
262.1340857896
 20
148.8089752124
 30
0.0
 10
259.7216163872
 20
150.1545853096
 30
0.0
 10
257.1218934024
 20
151.0879004379
 30
0.0
 10
255.308320831
 20
151.4183703357
 30
0.0
 10
254.3959828947
 20
151.5082124363
 30
0.0
  0
SPLINE
  5
60F
100
AcDbEntity
  8
ASSI
100
AcDbSpline
 62
250
  6
CONTINUOUS
 70
0
 71
3
 72
15
 73
11
 74
0
 42
0.0000001
 43
0.0000001
 44
0.0000000001
 40
0.0
 40
0.0
 40
0.0
 40
0.0
 40
0.1251138574
 40
0.2502501339
 40
0.37535709
 40
0.5004003505
 40
0.6253696099
 40
0.7502756666
 40
0.8751425469
 40
1.0
 40
1.0
 40
1.0
 40
1.0
 10
143.6741769356
 20
151.508211061
 30
0.0
 10
142.7618388498
 20
151.4183692362
 30
0.0
 10
140.9482665529
 20
151.0878961806
 30
0.0
 10
138.3485441116
 20
150.1545794368
 30
0.0
 10
135.9360758089
 20
148.8089670311
 30
0.0
 10
133.7768719901
 20
147.0883333847
 30
0.0
 10
131.9280698858
 20
145.0398443653
 30
0.0
 10
130.4381583299
 20
142.718609427
 30
0.0
 10
129.3459537489
 20
140.1875212554
 30
0.0
 10
128.9014955244
 20
138.4026002552
 30
0.0
 10
128.7534273472
 20
137.4997896597
 30
0.0
  0
SPLINE
  5
610
100
AcDbEntity
  8
ASSI
100
AcDbSpline
 62
250
  6
CONTINUOUS
 70
0
 71
3
 72
15
 73
11
 74
0
 42
0.0000001
 43
0.0000001
 44
0.0000000001
 40
0.0
 40
0.0
 40
0.0
 40
0.0
 40
0.1248574606
 40
0.2497243403
 40
0.3746303977
 40
0.4995996581
 40
0.6246429204
 40
0.7497498787
 40
0.8748861542
 40
1.0
 40
1.0
 40
1.0
 40
1.0
 10
128.7534297558
 20
79.2857118502
 30
0.0
 10
128.9014977486
 20
78.3829012066
 30
0.0
 10
129.3459590581
 20
76.5979808782
 30
0.0
 10
130.4381651987
 20
74.0668936033
 30
0.0
 10
131.9280789021
 20
71.7456600852
 30
0.0
 10
133.7768826958
 20
69.6971727518
 30
0.0
 10
135.9360879602
 20
67.9765409858
 30
0.0
 10
138.3485573626
 20
66.6309308886
 30
0.0
 10
140.9482803473
 20
65.6976157603
 30
0.0
 10
142.7618529187
 20
65.3671458625
 30
0.0
 10
143.674190855
 20
65.2773037619
 30
0.0
  0
SPLINE
  5
611
100
AcDbEntity
  8
ASSI
100
AcDbSpline
 62
250
  6
CONTINUOUS
 70
0
 71
3
 72
15
 73
11
 74
0
 42
0.0000001
 43
0.0000001
 44
0.0000000001
 40
0.0
 40
0.0
 40
0.0
 40
0.0
 40
0.3813724933
 40
0.549623296
 40
0.6964920061
 40
0.8179272038
 40
0.9104666954
 40
0.9716121411
 40
0.989914085
 40
1.0
 40
1.0
 40
1.0
 40
1.0
 10
254.3805461948
 20
65.5239961583
 30
0.0
 10
254.3834539077
 20
65.4926827516
 30
0.0
 10
254.3874240291
 20
65.4475342658
 30
0.0
 10
254.3918747268
 20
65.3902714367
 30
0.0
 10
254.3943523163
 20
65.3543626417
 30
0.0
 10
254.3960983776
 20
65.3246443478
 30
0.0
 10
254.3969659584
 20
65.3020048979
 30
0.0
 10
254.3972313529
 20
65.2877631969
 30
0.0
 10
254.3967358938
 20
65.2804462092
 30
0.0
 10
254.3964456343
 20
65.2780687766
 30
0.0
 10
254.3960935638
 20
65.2773152835
 30
0.0
  0
SPLINE
  5
612
100
AcDbEntity
  8
ASSI
100
AcDbSpline
 62
250
  6
CONTINUOUS
 70
0
 71
3
 72
15
 73
11
 74
0
 42
0.0000001
 43
0.0000001
 44
0.0000000001
 40
0.0
 40
0.0
 40
0.0
 40
0.0
 40
0.3815157869
 40
0.5498160591
 40
0.696717181
 40
0.8181648813
 40
0.910691403
 40
0.9717840282
 40
0.9900282885
 40
1.0
 40
1.0
 40
1.0
 40
1.0
 10
249.3957930639
 20
65.1458920121
 30
0.0
 10
249.3973097873
 20
65.1144898014
 30
0.0
 10
249.3993026484
 20
65.0692256836
 30
0.0
 10
249.4013208336
 20
65.0118460798
 30
0.0
 10
249.4023121488
 20
64.9758812922
 30
0.0
 10
249.4028696659
 20
64.946136728
 30
0.0
 10
249.4028845848
 20
64.9234953728
 30
0.0
 10
249.4026620145
 20
64.9092831704
 30
0.0
 10
249.4019822156
 20
64.9019968062
 30
0.0
 10
249.4016619807
 20
64.8996488246
 30
0.0
 10
249.4013236148
 20
64.898900005
 30
0.0
  0
SPLINE
  5
613
100
AcDbEntity
  8
ASSI
100
AcDbSpline
 62
250
  6
CONTINUOUS
 70
0
 71
3
 72
14
 73
10
 74
0
 42
0.0000001
 43
0.0000001
 44
0.0000000001
 40
0.0
 40
0.0
 40
0.0
 40
0.0
 40
0.3818528786
 40
0.5502615636
 40
0.6972299725
 40
0.818700333
 40
0.9111952924
 40
0.9721731096
 40
1.0
 40
1.0
 40
1.0
 40
1.0
 10
244.2293959079
 20
64.8839196423
 30
0.0
 10
244.2308177024
 20
64.8525465571
 30
0.0
 10
244.2327602661
 20
64.807330662
 30
0.0
 10
244.2349094286
 20
64.7500304968
 30
0.0
 10
244.2361347421
 20
64.7141161168
 30
0.0
 10
244.236889926
 20
64.6844594673
 30
0.0
 10
244.2374932285
 20
64.6618086591
 30
0.0
 10
244.237209222
 20
64.6469810014
 30
0.0
 10
244.2374216214
 20
64.6395707504
 30
0.0
 10
244.2368710902
 20
64.6373493453
 30
0.0
  0
SPLINE
  5
614
100
AcDbEntity
  8
ASSI
100
AcDbSpline
 62
250
  6
CONTINUOUS
 70
0
 71
3
 72
14
 73
10
 74
0
 42
0.0000001
 43
0.0000001
 44
0.0000000001
 40
0.0
 40
0.0
 40
0.0
 40
0.0
 40
0.38185288
 40
0.5502615653
 40
0.6972299741
 40
0.8187003343
 40
0.9111952934
 40
0.9721731102
 40
1.0
 40
1.0
 40
1.0
 40
1.0
 10
153.8407778418
 20
64.8839196423
 30
0.0
 10
153.8393560473
 20
64.8525465574
 30
0.0
 10
153.8374134836
 20
64.8073306628
 30
0.0
 10
153.8352643211
 20
64.7500304982
 30
0.0
 10
153.8340390077
 20
64.7141161187
 30
0.0
 10
153.8332838238
 20
64.6844594697
 30
0.0
 10
153.8326805213
 20
64.6618086619
 30
0.0
 10
153.8329645278
 20
64.6469810045
 30
0.0
 10
153.8327521284
 20
64.6395707537
 30
0.0
 10
153.8333026597
 20
64.6373493487
 30
0.0
  0
SPLINE
  5
615
100
AcDbEntity
  8
ASSI
100
AcDbSpline
 62
250
  6
CONTINUOUS
 70
0
 71
3
 72
15
 73
11
 74
0
 42
0.0000001
 43
0.0000001
 44
0.0000000001
 40
0.0
 40
0.0
 40
0.0
 40
0.0
 40
0.3815157861
 40
0.5498160581
 40
0.69671718
 40
0.8181648805
 40
0.9106914023
 40
0.9717840279
 40
0.9900282883
 40
1.0
 40
1.0
 40
1.0
 40
1.0
 10
148.6743806859
 20
65.1458920122
 30
0.0
 10
148.6728639624
 20
65.1144898013
 30
0.0
 10
148.6708711013
 20
65.0692256834
 30
0.0
 10
148.6688529161
 20
65.0118460793
 30
0.0
 10
148.6678616009
 20
64.9758812915
 30
0.0
 10
148.6673040838
 20
64.9461367271
 30
0.0
 10
148.6672891649
 20
64.9234953717
 30
0.0
 10
148.6675117352
 20
64.9092831692
 30
0.0
 10
148.668191534
 20
64.9019968048
 30
0.0
 10
148.6685117689
 20
64.8996488232
 30
0.0
 10
148.6688501349
 20
64.8989000035
 30
0.0
  0
SPLINE
  5
616
100
AcDbEntity
  8
ASSI
100
AcDbSpline
 62
250
  6
CONTINUOUS
 70
0
 71
3
 72
15
 73
11
 74
0
 42
0.0000001
 43
0.0000001
 44
0.0000000001
 40
0.0
 40
0.0
 40
0.0
 40
0.0
 40
0.3813722774
 40
0.54962305
 40
0.6964917688
 40
0.8179270041
 40
0.9104665532
 40
0.9716120685
 40
0.9899140492
 40
1.0
 40
1.0
 40
1.0
 40
1.0
 10
143.6896275549
 20
65.5239961582
 30
0.0
 10
143.6867198348
 20
65.4926826957
 30
0.0
 10
143.6827497032
 20
65.4475341242
 30
0.0
 10
143.6782989926
 20
65.3902711804
 30
0.0
 10
143.6758213944
 20
65.3543622997
 30
0.0
 10
143.674075326
 20
65.3246439278
 30
0.0
 10
143.6732077391
 20
65.3020044107
 30
0.0
 10
143.6729423419
 20
65.2877626639
 30
0.0
 10
143.6734377986
 20
65.2804456459
 30
0.0
 10
143.6737280581
 20
65.2780682026
 30
0.0
 10
143.6740801278
 20
65.2773147037
 30
0.0
  0
LINE
  5
617
100
AcDbEntity
  8
0
100
AcDbLine
 62
7
  6
CONTINUOUS
 10
110.8535509206
 20
152.6761023255
 11
110.858792669
 21
152.6743172739
  0
LINE
  5
618
100
AcDbEntity
  8
0
100
AcDbLine
 62
7
  6
CONTINUOUS
 10
110.8535509206
 20
64.1094138727
 11
110.858792669
 21
64.1111989243
  0
SPLINE
  5
619
100
AcDbEntity
  8
RACCORDO
100
AcDbSpline
 62
250
  6
CONTINUOUS
 70
0
 71
3
 72
9
 73
5
 74
0
 42
0.0000001
 43
0.0000001
 44
0.0000000001
 40
0.0
 40
0.0
 40
0.0
 40
0.0
 40
0.2349013709
 40
1.0
 40
1.0
 40
1.0
 40
1.0
 10
106.8998046597
 20
64.8839199711
 30
0.0
 10
106.9067099074
 20
64.9051062043
 30
0.0
 10
106.9382263691
 20
64.9946062382
 30
0.0
 10
106.9775439523
 20
65.0812488253
 30
0.0
 10
107.010542588
 20
65.1458920122
 30
0.0
  0
LINE
  5
61A
100
AcDbEntity
  8
RACCORDO
100
AcDbLine
 62
250
  6
CONTINUOUS
 10
104.3028665156
 20
84.6928473125
 11
104.1542062729
 21
84.479591374
  0
LINE
  5
61B
100
AcDbEntity
  8
RACCORDO
100
AcDbLine
 62
250
  6
CONTINUOUS
 10
104.1542062729
 20
84.479591374
 11
104.1356250561
 21
84.4529366291
  0
SPLINE
  5
61C
100
AcDbEntity
  8
0
100
AcDbSpline
 62
250
  6
CONTINUOUS
 70
0
 71
3
 72
11
 73
7
 74
0
 42
0.0000001
 43
0.0000001
 44
0.0000000001
 40
0.0
 40
0.0
 40
0.0
 40
0.0
 40
0.2431567153
 40
0.4853523988
 40
0.7355870393
 40
1.0
 40
1.0
 40
1.0
 40
1.0
 10
109.8240555569
 20
151.1352438986
 30
0.0
 10
110.0806594953
 20
151.1296894031
 30
0.0
 10
110.5933301222
 20
151.0668986426
 30
0.0
 10
111.3335374421
 20
150.8158734513
 30
0.0
 10
112.0275333476
 20
150.4097165408
 30
0.0
 10
112.4352488959
 20
150.0442448704
 30
0.0
 10
112.6240555569
 20
149.8386981473
 30
0.0
  0
SPLINE
  5
61D
100
AcDbEntity
  8
0
100
AcDbSpline
 62
250
  6
CONTINUOUS
 70
0
 71
3
 72
13
 73
9
 74
0
 42
0.0000001
 43
0.0000001
 44
0.0000000001
 40
0.0
 40
0.0
 40
0.0
 40
0.0
 40
0.1201074556
 40
0.2379458254
 40
0.355616023
 40
0.4750483892
 40
0.7256029894
 40
1.0
 40
1.0
 40
1.0
 40
1.0
 10
109.8240555569
 20
151.4964182283
 30
0.0
 10
109.9512139858
 20
151.4967525195
 30
0.0
 10
110.2034023352
 20
151.4841307634
 30
0.0
 10
110.5757867828
 20
151.4240868781
 30
0.0
 10
110.9389305466
 20
151.3245510218
 30
0.0
 10
111.4199576766
 20
151.1346091989
 30
0.0
 10
112.0102232466
 20
150.7820853067
 30
0.0
 10
112.4209619252
 20
150.4009326704
 30
0.0
 10
112.6137548234
 20
150.1836195181
 30
0.0
  0
SPLINE
  5
61E
100
AcDbEntity
  8
0
100
AcDbSpline
 62
250
  6
CONTINUOUS
 70
0
 71
3
 72
13
 73
9
 74
0
 42
0.0000001
 43
0.0000001
 44
0.0000000001
 40
0.0
 40
0.0
 40
0.0
 40
0.0
 40
0.1205070283
 40
0.2386640773
 40
0.3565396606
 40
0.4760297537
 40
0.7262898982
 40
1.0
 40
1.0
 40
1.0
 40
1.0
 10
109.8240555569
 20
151.5199620146
 30
0.0
 10
109.9474223351
 20
151.5205228566
 30
0.0
 10
110.1920284216
 20
151.5090931054
 30
0.0
 10
110.5533581517
 20
151.4530485257
 30
0.0
 10
110.9058725502
 20
151.3597078877
 30
0.0
 10
111.3729855684
 20
151.1813232083
 30
0.0
 10
111.9478409632
 20
150.8497614913
 30
0.0
 10
112.3514629975
 20
150.4901196891
 30
0.0
 10
112.5421341696
 20
150.2847876284
 30
0.0
  0
LINE
  5
61F
100
AcDbEntity
  8
0
100
AcDbLine
 62
7
  6
CONTINUOUS
 10
104.4044598289
 20
80.2726579446
 11
104.3626864789
 21
80.8218336622
  0
LINE
  5
620
100
AcDbEntity
  8
0
100
AcDbLine
 62
7
  6
CONTINUOUS
 10
104.3626864789
 20
80.8218336622
 11
104.3614857865
 21
80.8383774711
  0
SPLINE
  5
621
100
AcDbEntity
  8
0
100
AcDbSpline
 62
7
  6
CONTINUOUS
 70
0
 71
3
 72
14
 73
10
 74
0
 42
0.0000001
 43
0.0000001
 44
0.0000000001
 40
0.0
 40
0.0
 40
0.0
 40
0.0
 40
0.0380428945
 40
0.0897609518
 40
0.213709581
 40
0.3587664464
 40
0.5123747909
 40
0.804885817
 40
1.0
 40
1.0
 40
1.0
 40
1.0
 10
104.3614857865
 20
80.8383774711
 30
0.0
 10
104.3605443812
 20
80.8563263585
 30
0.0
 10
104.3572498453
 20
80.8986117942
 30
0.0
 10
104.3505625528
 20
80.9993559442
 30
0.0
 10
104.3399374079
 20
81.1505122238
 30
0.0
 10
104.32626156
 20
81.3497087444
 30
0.0
 10
104.3072282955
 20
81.6283639739
 30
0.0
 10
104.2868143629
 20
81.9306290646
 30
0.0
 10
104.271764846
 20
82.1605191404
 30
0.0
 10
104.2652910509
 20
82.2524742244
 30
0.0
  0
SPLINE
  5
622
100
AcDbEntity
  8
0
100
AcDbSpline
 62
7
  6
CONTINUOUS
 70
0
 71
3
 72
17
 73
13
 74
0
 42
0.0000001
 43
0.0000001
 44
0.0000000001
 40
0.0
 40
0.0
 40
0.0
 40
0.0
 40
0.2776352299
 40
0.498175065
 40
0.6683398583
 40
0.7957218805
 40
0.8882463452
 40
0.9515410798
 40
0.972999109
 40
0.9880310027
 40
0.9969203865
 40
1.0
 40
1.0
 40
1.0
 40
1.0
 10
104.2652910509
 20
82.2524742244
 30
0.0
 10
104.264671415
 20
82.2612769418
 30
0.0
 10
104.2635500806
 20
82.2770709065
 30
0.0
 10
104.2620084334
 20
82.2982596233
 30
0.0
 10
104.2607678324
 20
82.314675326
 30
0.0
 10
104.2597929422
 20
82.3270465685
 30
0.0
 10
104.2590200727
 20
82.3359883727
 30
0.0
 10
104.2585181671
 20
82.3416522895
 30
0.0
 10
104.2581494971
 20
82.3447364931
 30
0.0
 10
104.2580090179
 20
82.3462766853
 30
0.0
 10
104.2578027841
 20
82.3469341405
 30
0.0
 10
104.2577842913
 20
82.3475038494
 30
0.0
 10
104.2576864651
 20
82.3475004845
 30
0.0
  0
SPLINE
  5
623
100
AcDbEntity
  8
0
100
AcDbSpline
 62
250
  6
CONTINUOUS
 70
0
 71
3
 72
11
 73
7
 74
0
 42
0.0000001
 43
0.0000001
 44
0.0000000001
 40
0.0
 40
0.0
 40
0.0
 40
0.0
 40
0.2431567153
 40
0.4853523988
 40
0.7355870393
 40
1.0
 40
1.0
 40
1.0
 40
1.0
 10
109.8240555569
 20
65.6502722996
 30
0.0
 10
110.0806594953
 20
65.6558267951
 30
0.0
 10
110.5933301222
 20
65.7186175556
 30
0.0
 10
111.3335374421
 20
65.9696427469
 30
0.0
 10
112.0275333476
 20
66.3757996574
 30
0.0
 10
112.4352488959
 20
66.7412713278
 30
0.0
 10
112.6240555569
 20
66.9468180509
 30
0.0
  0
SPLINE
  5
624
100
AcDbEntity
  8
0
100
AcDbSpline
 62
250
  6
CONTINUOUS
 70
0
 71
3
 72
13
 73
9
 74
0
 42
0.0000001
 43
0.0000001
 44
0.0000000001
 40
0.0
 40
0.0
 40
0.0
 40
0.0
 40
0.1201074556
 40
0.2379458254
 40
0.355616023
 40
0.4750483892
 40
0.7256029894
 40
1.0
 40
1.0
 40
1.0
 40
1.0
 10
109.8240555569
 20
65.2890979699
 30
0.0
 10
109.9512139858
 20
65.2887636787
 30
0.0
 10
110.2034023352
 20
65.3013854348
 30
0.0
 10
110.5757867828
 20
65.3614293201
 30
0.0
 10
110.9389305466
 20
65.4609651764
 30
0.0
 10
111.4199576766
 20
65.6509069993
 30
0.0
 10
112.0102232466
 20
66.0034308915
 30
0.0
 10
112.4209619252
 20
66.3845835278
 30
0.0
 10
112.6137548234
 20
66.6018966801
 30
0.0
  0
SPLINE
  5
625
100
AcDbEntity
  8
0
100
AcDbSpline
 62
250
  6
CONTINUOUS
 70
0
 71
3
 72
13
 73
9
 74
0
 42
0.0000001
 43
0.0000001
 44
0.0000000001
 40
0.0
 40
0.0
 40
0.0
 40
0.0
 40
0.1205070283
 40
0.2386640773
 40
0.3565396606
 40
0.4760297537
 40
0.7262898982
 40
1.0
 40
1.0
 40
1.0
 40
1.0
 10
109.8240555569
 20
65.2655541836
 30
0.0
 10
109.9474223351
 20
65.2649933416
 30
0.0
 10
110.1920284216
 20
65.2764230928
 30
0.0
 10
110.5533581517
 20
65.3324676725
 30
0.0
 10
110.9058725502
 20
65.4258083105
 30
0.0
 10
111.3729855684
 20
65.6041929899
 30
0.0
 10
111.9478409632
 20
65.9357547069
 30
0.0
 10
112.3514629975
 20
66.2953965091
 30
0.0
 10
112.5421341696
 20
66.5007285698
 30
0.0
  0
SPLINE
  5
626
100
AcDbEntity
  8
RACCORDO
100
AcDbSpline
 62
250
  6
CONTINUOUS
 70
0
 71
3
 72
9
 73
5
 74
0
 42
0.0000001
 43
0.0000001
 44
0.0000000001
 40
0.0
 40
0.0
 40
0.0
 40
0.0
 40
0.2656707806
 40
1.0
 40
1.0
 40
1.0
 40
1.0
 10
107.010542588
 20
151.639624186
 30
0.0
 10
106.9990847653
 20
151.6620696649
 30
0.0
 10
106.9573441659
 20
151.7472405552
 30
0.0
 10
106.9213902672
 20
151.8353686667
 30
0.0
 10
106.8998046599
 20
151.9015962264
 30
0.0
  0
SPLINE
  5
627
100
AcDbEntity
  8
RACCORDO
100
AcDbSpline
 62
250
  6
CONTINUOUS
 70
0
 71
3
 72
9
 73
5
 74
0
 42
0.0000001
 43
0.0000001
 44
0.0000000001
 40
0.0
 40
0.0
 40
0.0
 40
0.0
 40
0.5667980641
 40
1.0
 40
1.0
 40
1.0
 40
1.0
 10
107.1559846294
 20
151.26152004
 30
0.0
 10
107.132845427
 20
151.3345377828
 30
0.0
 10
107.0894473668
 20
151.462543255
 30
0.0
 10
107.0371594955
 20
151.5874825173
 30
0.0
 10
107.010542588
 20
151.639624186
 30
0.0
  0
SPLINE
  5
628
100
AcDbEntity
  8
RACCORDO
100
AcDbSpline
 62
250
  6
CONTINUOUS
 70
0
 71
3
 72
22
 73
18
 74
0
 42
0.0000001
 43
0.0000001
 44
0.0000000001
 40
0.0
 40
0.0
 40
0.0
 40
0.0
 40
0.1900128876
 40
0.3698897876
 40
0.5348541267
 40
0.6103408718
 40
0.6804681663
 40
0.74475378
 40
0.8027524896
 40
0.8540609027
 40
0.8983229648
 40
0.9352366289
 40
0.9645633233
 40
0.9763300106
 40
0.9861517526
 40
0.9940322231
 40
1.0
 40
1.0
 40
1.0
 40
1.0
 10
106.3517180102
 20
137.4750522739
 30
0.0
 10
106.4121316763
 20
138.3483054179
 30
0.0
 10
106.5329123454
 20
140.0480104694
 30
0.0
 10
106.7143849297
 20
142.5052546898
 30
0.0
 10
106.8588987502
 20
144.4361974839
 30
0.0
 10
106.9633373744
 20
145.8631357875
 30
0.0
 10
107.0317553276
 20
146.8276672679
 30
0.0
 10
107.0912299676
 20
147.7120631495
 30
0.0
 10
107.1404319785
 20
148.5102519812
 30
0.0
 10
107.1781336685
 20
149.216708987
 30
0.0
 10
107.2033350121
 20
149.8265375141
 30
0.0
 10
107.2151014782
 20
150.3354773515
 30
0.0
 10
107.213545153
 20
150.6949476221
 30
0.0
 10
107.2032208596
 20
150.9292984622
 30
0.0
 10
107.1923903432
 20
151.0646809384
 30
0.0
 10
107.1779452819
 20
151.1727858148
 30
0.0
 10
107.1642883444
 20
151.2353120452
 30
0.0
 10
107.1559846294
 20
151.26152004
 30
0.0
  0
LINE
  5
629
100
AcDbEntity
  8
0
100
AcDbLine
 62
7
  6
CONTINUOUS
 10
104.1355521165
 20
81.8638956439
 11
104.1084655385
 21
82.281849912
  0
LINE
  5
62A
100
AcDbEntity
  8
RACCORDO
100
AcDbLine
 62
250
  6
CONTINUOUS
 10
104.635659412
 20
131.2725701458
 11
104.6353342928
 21
131.2534210571
  0
SPLINE
  5
62B
100
AcDbEntity
  8
RACCORDO
100
AcDbSpline
 62
250
  6
CONTINUOUS
 70
0
 71
3
 72
9
 73
5
 74
0
 42
0.0000001
 43
0.0000001
 44
0.0000000001
 40
0.0
 40
0.0
 40
0.0
 40
0.0
 40
0.4499181377
 40
1.0
 40
1.0
 40
1.0
 40
1.0
 10
104.6353342928
 20
131.2534210571
 30
0.0
 10
104.632331601
 20
131.0817185174
 30
0.0
 10
104.621355283
 20
130.7001692568
 30
0.0
 10
104.606664441
 20
130.3187602867
 30
0.0
 10
104.5976070159
 20
130.1089955585
 30
0.0
  0
LINE
  5
62C
100
AcDbEntity
  8
RACCORDO
100
AcDbLine
 62
250
  6
CONTINUOUS
 10
104.6738896135
 20
132.0926688857
 11
104.6467629846
 21
131.5137635592
  0
LINE
  5
62D
100
AcDbEntity
  8
RACCORDO
100
AcDbLine
 62
250
  6
CONTINUOUS
 10
104.6467629846
 20
131.5137635592
 11
104.635659412
 21
131.2725701458
  0
LINE
  5
62E
100
AcDbEntity
  8
RACCORDO
100
AcDbLine
 62
250
  6
CONTINUOUS
 10
104.635659412
 20
85.5129460524
 11
104.646630761
 21
85.2746099852
  0
LINE
  5
62F
100
AcDbEntity
  8
RACCORDO
100
AcDbLine
 62
250
  6
CONTINUOUS
 10
104.646630761
 20
85.2746099852
 11
104.6738896135
 21
84.6928473125
  0
SPLINE
  5
630
100
AcDbEntity
  8
RACCORDO
100
AcDbSpline
 62
250
  6
CONTINUOUS
 70
0
 71
3
 72
9
 73
5
 74
0
 42
0.0000001
 43
0.0000001
 44
0.0000000001
 40
0.0
 40
0.0
 40
0.0
 40
0.0
 40
0.5500742872
 40
1.0
 40
1.0
 40
1.0
 40
1.0
 10
104.5976070161
 20
86.676520635
 30
0.0
 10
104.6066463581
 20
86.4667689941
 30
0.0
 10
104.6213611368
 20
86.0853810044
 30
0.0
 10
104.6323301426
 20
85.7038513757
 30
0.0
 10
104.6353332487
 20
85.53215492
 30
0.0
  0
LINE
  5
631
100
AcDbEntity
  8
RACCORDO
100
AcDbLine
 62
250
  6
CONTINUOUS
 10
104.6353332487
 20
85.53215492
 11
104.635659412
 21
85.5129460524
  0
LINE
  5
632
100
AcDbEntity
  8
RACCORDO
100
AcDbLine
 62
250
  6
CONTINUOUS
 10
104.1261620295
 20
108.3927580991
 11
104.1262684526
 21
108.0664031331
  0
LINE
  5
633
100
AcDbEntity
  8
RACCORDO
100
AcDbLine
 62
250
  6
CONTINUOUS
 10
104.1262653964
 20
108.7143863444
 11
104.1261620295
 21
108.3927580991
  0
LINE
  5
634
100
AcDbEntity
  8
RACCORDO
100
AcDbLine
 62
250
  6
CONTINUOUS
 10
106.8998046724
 20
151.9015962966
 11
106.5627983831
 21
152.9472901854
  0
LINE
  5
635
100
AcDbEntity
  8
RACCORDO
100
AcDbLine
 62
250
  6
CONTINUOUS
 10
106.5627983831
 20
152.9472901854
 11
106.5488807494
 21
152.9909329355
  0
LINE
  5
636
100
AcDbEntity
  8
0
100
AcDbLine
 62
7
  6
CONTINUOUS
 10
104.2540246897
 20
80.2726578711
 11
104.2453431977
 21
80.3860930805
  0
LINE
  5
637
100
AcDbEntity
  8
0
100
AcDbLine
 62
7
  6
CONTINUOUS
 10
104.2453431977
 20
80.3860930805
 11
104.2122912432
 21
80.8218336622
  0
LINE
  5
638
100
AcDbEntity
  8
0
100
AcDbLine
 62
7
  6
CONTINUOUS
 10
104.2122912432
 20
80.8218336622
 11
104.2110917208
 21
80.8383774711
  0
LINE
  5
639
100
AcDbEntity
  8
0
100
AcDbLine
 62
7
  6
CONTINUOUS
 10
104.2110917208
 20
80.8383774711
 11
104.191023598
 21
81.1301962788
  0
LINE
  5
63A
100
AcDbEntity
  8
0
100
AcDbLine
 62
7
  6
CONTINUOUS
 10
104.191023598
 20
81.1301962788
 11
104.1687623159
 21
81.4542964817
  0
LINE
  5
63B
100
AcDbEntity
  8
0
100
AcDbLine
 62
7
  6
CONTINUOUS
 10
104.1687623159
 20
81.4542964817
 11
104.1613071443
 21
81.56388813
  0
LINE
  5
63C
100
AcDbEntity
  8
0
100
AcDbLine
 62
7
  6
CONTINUOUS
 10
104.1613071443
 20
81.56388813
 11
104.1440232057
 21
81.8202839243
  0
LINE
  5
63D
100
AcDbEntity
  8
0
100
AcDbLine
 62
7
  6
CONTINUOUS
 10
104.1440232057
 20
81.8202839243
 11
104.1149905227
 21
82.2524742256
  0
SPLINE
  5
63E
100
AcDbEntity
  8
0
100
AcDbSpline
 62
7
  6
CONTINUOUS
 70
0
 71
3
 72
11
 73
7
 74
0
 42
0.0000001
 43
0.0000001
 44
0.0000000001
 40
0.0
 40
0.0
 40
0.0
 40
0.0
 40
0.4656363607
 40
0.7594083141
 40
0.9268832167
 40
1.0
 40
1.0
 40
1.0
 40
1.0
 10
104.1149905227
 20
82.2524742256
 30
0.0
 10
104.1139585928
 20
82.2671470678
 30
0.0
 10
104.1122251649
 20
82.2910699177
 30
0.0
 10
104.1101090803
 20
82.3202827286
 30
0.0
 10
104.1085736772
 20
82.3370790867
 30
0.0
 10
104.107980893
 20
82.3446728985
 30
0.0
 10
104.107562609
 20
82.3469444088
 30
0.0
  0
LINE
  5
63F
100
AcDbEntity
  8
RACCORDO
100
AcDbLine
 62
250
  6
CONTINUOUS
 10
104.3028665156
 20
132.0926688857
 11
104.6295254849
 21
131.6256407669
  0
SPLINE
  5
640
100
AcDbEntity
  8
RACCORDO
100
AcDbSpline
 62
250
  6
CONTINUOUS
 70
0
 71
3
 72
13
 73
9
 74
0
 42
0.0000001
 43
0.0000001
 44
0.0000000001
 40
0.0
 40
0.0
 40
0.0
 40
0.0
 40
0.0332834211
 40
0.0924943351
 40
0.1782129985
 40
0.2904506123
 40
0.5937681556
 40
1.0
 40
1.0
 40
1.0
 40
1.0
 10
104.6295254849
 20
131.6256407669
 30
0.0
 10
104.6304013202
 20
131.6243893708
 30
0.0
 10
104.6314826684
 20
131.6201469785
 30
0.0
 10
104.6328380222
 20
131.6121602244
 30
0.0
 10
104.6339767877
 20
131.6003679816
 30
0.0
 10
104.6355005458
 20
131.5774347334
 30
0.0
 10
104.6367028799
 20
131.5397160428
 30
0.0
 10
104.6371215848
 20
131.5071618743
 30
0.0
 10
104.637248689
 20
131.4885195228
 30
0.0
  0
SPLINE
  5
641
100
AcDbEntity
  8
RACCORDO
100
AcDbSpline
 62
250
  6
CONTINUOUS
 70
0
 71
3
 72
9
 73
5
 74
0
 42
0.0000001
 43
0.0000001
 44
0.0000000001
 40
0.0
 40
0.0
 40
0.0
 40
0.0
 40
0.2096295885
 40
1.0
 40
1.0
 40
1.0
 40
1.0
 10
104.637248689
 20
131.4885195228
 30
0.0
 10
104.6373515734
 20
131.4734294753
 30
0.0
 10
104.6374898277
 20
131.401442774
 30
0.0
 10
104.6365981814
 20
131.3294580152
 30
0.0
 10
104.635659412
 20
131.2725701458
 30
0.0
  0
SPLINE
  5
642
100
AcDbEntity
  8
RACCORDO
100
AcDbSpline
 62
250
  6
CONTINUOUS
 70
0
 71
3
 72
9
 73
5
 74
0
 42
0.0000001
 43
0.0000001
 44
0.0000000001
 40
0.0
 40
0.0
 40
0.0
 40
0.0
 40
0.2891865772
 40
1.0
 40
1.0
 40
1.0
 40
1.0
 10
104.635659412
 20
85.5129460524
 30
0.0
 10
104.6360028937
 20
85.4921315514
 30
0.0
 10
104.6370490582
 20
85.4201540205
 30
0.0
 10
104.6375975496
 20
85.3481639765
 30
0.0
 10
104.637248689
 20
85.2969966737
 30
0.0
  0
SPLINE
  5
643
100
AcDbEntity
  8
RACCORDO
100
AcDbSpline
 62
250
  6
CONTINUOUS
 70
0
 71
3
 72
13
 73
9
 74
0
 42
0.0000001
 43
0.0000001
 44
0.0000000001
 40
0.0
 40
0.0
 40
0.0
 40
0.0
 40
0.4062318844
 40
0.7095493203
 40
0.8217869038
 40
0.9075056586
 40
0.9667166838
 40
1.0
 40
1.0
 40
1.0
 40
1.0
 10
104.637248689
 20
85.2969966737
 30
0.0
 10
104.6371215848
 20
85.2783543206
 30
0.0
 10
104.6367028797
 20
85.2458001559
 30
0.0
 10
104.6355005471
 20
85.2080814692
 30
0.0
 10
104.6339767867
 20
85.1851482249
 30
0.0
 10
104.6328380218
 20
85.1733559719
 30
0.0
 10
104.6314826637
 20
85.1653692188
 30
0.0
 10
104.6304013253
 20
85.1611268179
 30
0.0
 10
104.6295254849
 20
85.1598754313
 30
0.0
  0
LINE
  5
644
100
AcDbEntity
  8
RACCORDO
100
AcDbLine
 62
250
  6
CONTINUOUS
 10
104.6295254849
 20
85.1598754313
 11
104.3028665156
 21
84.6928473125
  0
SPLINE
  5
645
100
AcDbEntity
  8
0
100
AcDbSpline
 62
250
  6
CONTINUOUS
 70
0
 71
3
 72
10
 73
6
 74
0
 42
0.0000001
 43
0.0000001
 44
0.0000000001
 40
0.0
 40
0.0
 40
0.0
 40
0.0
 40
0.2131920325
 40
0.4562240761
 40
1.0
 40
1.0
 40
1.0
 40
1.0
 10
112.6240555569
 20
133.341552623
 30
0.0
 10
112.4253153953
 20
133.3306705832
 30
0.0
 10
111.9997380251
 20
133.3124101543
 30
0.0
 10
111.0664119754
 20
133.2884251416
 30
0.0
 10
110.3316980387
 20
133.2868440787
 30
0.0
 10
109.8240555569
 20
133.292478052
 30
0.0
  0
SPLINE
  5
646
100
AcDbEntity
  8
0
100
AcDbSpline
 62
250
  6
CONTINUOUS
 70
0
 71
3
 72
10
 73
6
 74
0
 42
0.0000001
 43
0.0000001
 44
0.0000000001
 40
0.0
 40
0.0
 40
0.0
 40
0.0
 40
0.2131019493
 40
0.4561239675
 40
1.0
 40
1.0
 40
1.0
 40
1.0
 10
112.6240555569
 20
133.5204604481
 30
0.0
 10
112.4253487122
 20
133.510809111
 30
0.0
 10
111.9998153076
 20
133.4946211658
 30
0.0
 10
111.0664868372
 20
133.4734124607
 30
0.0
 10
110.331764465
 20
133.4721451906
 30
0.0
 10
109.8240555569
 20
133.4772804997
 30
0.0
  0
LINE
  5
647
100
AcDbEntity
  8
0
100
AcDbLine
 62
250
  6
CONTINUOUS
 10
112.6240555569
 20
137.2217260612
 11
112.617160515
 21
137.2225734444
  0
SPLINE
  5
648
100
AcDbEntity
  8
0
100
AcDbSpline
 62
250
  6
CONTINUOUS
 70
0
 71
3
 72
10
 73
6
 74
0
 42
0.0000001
 43
0.0000001
 44
0.0000000001
 40
0.0
 40
0.0
 40
0.0
 40
0.0
 40
0.2127985696
 40
0.4558337522
 40
1.0
 40
1.0
 40
1.0
 40
1.0
 10
112.617160515
 20
137.2225734444
 30
0.0
 10
112.4201416097
 20
137.2467304322
 30
0.0
 10
111.996904285
 20
137.2887519313
 30
0.0
 10
111.0661169069
 20
137.3510222466
 30
0.0
 10
110.3316400051
 20
137.3696010277
 30
0.0
 10
109.8240555569
 20
137.3714074781
 30
0.0
  0
SPLINE
  5
649
100
AcDbEntity
  8
0
100
AcDbSpline
 62
250
  6
CONTINUOUS
 70
0
 71
3
 72
10
 73
6
 74
0
 42
0.0000001
 43
0.0000001
 44
0.0000000001
 40
0.0
 40
0.0
 40
0.0
 40
0.0
 40
0.2126002355
 40
0.4555977883
 40
1.0
 40
1.0
 40
1.0
 40
1.0
 10
112.6240555569
 20
137.2896520037
 30
0.0
 10
112.4268224507
 20
137.3147926387
 30
0.0
 10
112.0028512123
 20
137.3585361844
 30
0.0
 10
111.06978661
 20
137.4234334702
 30
0.0
 10
110.3331899042
 20
137.4428942367
 30
0.0
 10
109.8240555569
 20
137.4448949425
 30
0.0
  0
SPLINE
  5
64A
100
AcDbEntity
  8
0
100
AcDbSpline
 62
250
  6
CONTINUOUS
 70
0
 71
3
 72
11
 73
7
 74
0
 42
0.0000001
 43
0.0000001
 44
0.0000000001
 40
0.0
 40
0.0
 40
0.0
 40
0.0
 40
0.24413477
 40
0.4870925456
 40
0.7371486949
 40
1.0
 40
1.0
 40
1.0
 40
1.0
 10
109.8240555569
 20
151.0785527959
 30
0.0
 10
110.0786482941
 20
151.0727230469
 30
0.0
 10
110.5869731781
 20
151.0108027736
 30
0.0
 10
111.3209977637
 20
150.7657240028
 30
0.0
 10
112.0090354345
 20
150.3705438325
 30
0.0
 10
112.4144023092
 20
150.0150640013
 30
0.0
 10
112.6022382888
 20
149.8153294317
 30
0.0
  0
SPLINE
  5
64B
100
AcDbEntity
  8
0
100
AcDbSpline
 62
250
  6
CONTINUOUS
 70
0
 71
3
 72
10
 73
6
 74
0
 42
0.0000001
 43
0.0000001
 44
0.0000000001
 40
0.0
 40
0.0
 40
0.0
 40
0.0
 40
0.2131920325
 40
0.4562240761
 40
1.0
 40
1.0
 40
1.0
 40
1.0
 10
112.6240555569
 20
83.4439635752
 30
0.0
 10
112.4253153953
 20
83.454845615
 30
0.0
 10
111.9997380251
 20
83.4731060439
 30
0.0
 10
111.0664119754
 20
83.4970910566
 30
0.0
 10
110.3316980387
 20
83.4986721195
 30
0.0
 10
109.8240555569
 20
83.4930381462
 30
0.0
  0
SPLINE
  5
64C
100
AcDbEntity
  8
0
100
AcDbSpline
 62
250
  6
CONTINUOUS
 70
0
 71
3
 72
10
 73
6
 74
0
 42
0.0000001
 43
0.0000001
 44
0.0000000001
 40
0.0
 40
0.0
 40
0.0
 40
0.0
 40
0.2131019493
 40
0.4561239675
 40
1.0
 40
1.0
 40
1.0
 40
1.0
 10
112.6240555569
 20
83.2650557501
 30
0.0
 10
112.4253487122
 20
83.2747070872
 30
0.0
 10
111.9998153076
 20
83.2908950324
 30
0.0
 10
111.0664868372
 20
83.3121037374
 30
0.0
 10
110.331764465
 20
83.3133710075
 30
0.0
 10
109.8240555569
 20
83.3082356985
 30
0.0
  0
SPLINE
  5
64D
100
AcDbEntity
  8
RACCORDO
100
AcDbSpline
 62
250
  6
CONTINUOUS
 70
0
 71
3
 72
9
 73
5
 74
0
 42
0.0000001
 43
0.0000001
 44
0.0000000001
 40
0.0
 40
0.0
 40
0.0
 40
0.0
 40
0.234889612
 40
1.0
 40
1.0
 40
1.0
 40
1.0
 10
107.1793585968
 20
64.6373493453
 30
0.0
 10
107.1862638117
 20
64.6585018034
 30
0.0
 10
107.2177796071
 20
64.747862119
 30
0.0
 10
107.2570884703
 20
64.8343635408
 30
0.0
 10
107.2900766836
 20
64.8988998989
 30
0.0
  0
LINE
  5
64E
100
AcDbEntity
  8
0
100
AcDbLine
 62
250
  6
CONTINUOUS
 10
112.6240555569
 20
79.563790137
 11
112.617160515
 21
79.5629427538
  0
SPLINE
  5
64F
100
AcDbEntity
  8
0
100
AcDbSpline
 62
250
  6
CONTINUOUS
 70
0
 71
3
 72
10
 73
6
 74
0
 42
0.0000001
 43
0.0000001
 44
0.0000000001
 40
0.0
 40
0.0
 40
0.0
 40
0.0
 40
0.2127985696
 40
0.4558337522
 40
1.0
 40
1.0
 40
1.0
 40
1.0
 10
112.617160515
 20
79.5629427538
 30
0.0
 10
112.4201416097
 20
79.538785766
 30
0.0
 10
111.996904285
 20
79.4967642669
 30
0.0
 10
111.0661169069
 20
79.4344939516
 30
0.0
 10
110.3316400051
 20
79.4159151705
 30
0.0
 10
109.8240555569
 20
79.4141087201
 30
0.0
  0
SPLINE
  5
650
100
AcDbEntity
  8
RACCORDO
100
AcDbSpline
 62
250
  6
CONTINUOUS
 70
0
 71
3
 72
9
 73
5
 74
0
 42
0.0000001
 43
0.0000001
 44
0.0000000001
 40
0.0
 40
0.0
 40
0.0
 40
0.0
 40
0.433187918
 40
1.0
 40
1.0
 40
1.0
 40
1.0
 10
107.2900766787
 20
64.8988998991
 30
0.0
 10
107.3166871575
 20
64.9510868691
 30
0.0
 10
107.3689647241
 20
65.0761282523
 30
0.0
 10
107.4123581797
 20
65.2042310526
 30
0.0
 10
107.4354960898
 20
65.277305168
 30
0.0
  0
SPLINE
  5
651
100
AcDbEntity
  8
RACCORDO
100
AcDbSpline
 62
250
  6
CONTINUOUS
 70
0
 71
3
 72
22
 73
18
 74
0
 42
0.0000001
 43
0.0000001
 44
0.0000000001
 40
0.0
 40
0.0
 40
0.0
 40
0.0
 40
0.0059601958
 40
0.0138336051
 40
0.0236473857
 40
0.0354047019
 40
0.0647082804
 40
0.1015936536
 40
0.1458243257
 40
0.197101092
 40
0.2550708972
 40
0.3193332952
 40
0.3894456667
 40
0.4649278624
 40
0.6299191664
 40
0.8098718191
 40
1.0
 40
1.0
 40
1.0
 40
1.0
 10
107.4354966862
 20
65.2773051372
 30
0.0
 10
107.4437993266
 20
65.3039376431
 30
0.0
 10
107.4574508848
 20
65.367436613
 30
0.0
 10
107.4719036882
 20
65.4771940489
 30
0.0
 10
107.4827549737
 20
65.614639668
 30
0.0
 10
107.493128155
 20
65.8525571223
 30
0.0
 10
107.4947774445
 20
66.2174938745
 30
0.0
 10
107.483156139
 20
66.7342010984
 30
0.0
 10
107.4581339289
 20
67.3533879587
 30
0.0
 10
107.4206374399
 20
68.0707667574
 30
0.0
 10
107.3716584619
 20
68.8814031498
 30
0.0
 10
107.3124165913
 20
69.7797224234
 30
0.0
 10
107.2442337962
 20
70.7595890529
 30
0.0
 10
107.1401049025
 20
72.2095512496
 30
0.0
 10
106.9959486414
 20
74.1720669375
 30
0.0
 10
106.8148503778
 20
76.6699143113
 30
0.0
 10
106.694284835
 20
78.3978789171
 30
0.0
 10
106.6339677892
 20
79.2857265384
 30
0.0
  0
SPLINE
  5
652
100
AcDbEntity
  8
RACCORDO
100
AcDbSpline
 62
250
  6
CONTINUOUS
 70
0
 71
3
 72
22
 73
18
 74
0
 42
0.0000001
 43
0.0000001
 44
0.0000000001
 40
0.0
 40
0.0
 40
0.0
 40
0.0
 40
0.1901283225
 40
0.3700810701
 40
0.535072432
 40
0.6105546418
 40
0.6806670175
 40
0.7449294099
 40
0.8028991996
 40
0.8541759402
 40
0.8984065779
 40
0.9352919048
 40
0.9645954324
 40
0.9763527205
 40
0.9861664588
 40
0.9940398195
 40
1.0
 40
1.0
 40
1.0
 40
1.0
 10
106.6339687929
 20
137.499804348
 30
0.0
 10
106.6942857011
 20
138.3876517969
 30
0.0
 10
106.8148514397
 20
140.1156158522
 30
0.0
 10
106.9959495772
 20
142.6134622348
 30
0.0
 10
107.1401057811
 20
144.5759768383
 30
0.0
 10
107.2442345769
 20
146.0259380171
 30
0.0
 10
107.3124172819
 20
147.0058037785
 30
0.0
 10
107.3716590405
 20
147.9041221246
 30
0.0
 10
107.4206379081
 20
148.7147575328
 30
0.0
 10
107.4581342413
 20
149.4321353029
 30
0.0
 10
107.4831563369
 20
150.0513210809
 30
0.0
 10
107.4947774746
 20
150.568027204
 30
0.0
 10
107.4931280034
 20
150.9329630205
 30
0.0
 10
107.4827548239
 20
151.1708796815
 30
0.0
 10
107.4719034566
 20
151.3083246036
 30
0.0
 10
107.4574504214
 20
151.4180814145
 30
0.0
 10
107.4437988191
 20
151.4815799802
 30
0.0
 10
107.4354963474
 20
151.5082124363
 30
0.0
  0
SPLINE
  5
653
100
AcDbEntity
  8
RACCORDO
100
AcDbSpline
 62
250
  6
CONTINUOUS
 70
0
 71
3
 72
9
 73
5
 74
0
 42
0.0000001
 43
0.0000001
 44
0.0000000001
 40
0.0
 40
0.0
 40
0.0
 40
0.0
 40
0.5668119432
 40
1.0
 40
1.0
 40
1.0
 40
1.0
 10
107.4354956653
 20
151.508212401
 30
0.0
 10
107.4123578342
 20
151.5812862433
 30
0.0
 10
107.3689644668
 20
151.7093885801
 30
0.0
 10
107.3166870552
 20
151.8344295163
 30
0.0
 10
107.2900766653
 20
151.8866163248
 30
0.0
  0
SPLINE
  5
654
100
AcDbEntity
  8
RACCORDO
100
AcDbSpline
 62
250
  6
CONTINUOUS
 70
0
 71
3
 72
9
 73
5
 74
0
 42
0.0000001
 43
0.0000001
 44
0.0000000001
 40
0.0
 40
0.0
 40
0.0
 40
0.0
 40
0.2656830887
 40
1.0
 40
1.0
 40
1.0
 40
1.0
 10
107.2900766714
 20
151.8866163251
 30
0.0
 10
107.2786221149
 20
151.9090254005
 30
0.0
 10
107.2368939661
 20
151.9940553583
 30
0.0
 10
107.2009448162
 20
152.0820426829
 30
0.0
 10
107.1793585968
 20
152.1481668529
 30
0.0
  0
LINE
  5
655
100
AcDbEntity
  8
RACCORDO
100
AcDbLine
 62
250
  6
CONTINUOUS
 10
107.1793585968
 20
152.1481668529
 11
106.8420671147
 21
153.1921754375
  0
LINE
  5
656
100
AcDbEntity
  8
RACCORDO
100
AcDbLine
 62
250
  6
CONTINUOUS
 10
106.8420671147
 20
153.1921754375
 11
106.8281372734
 21
153.2357478406
  0
SPLINE
  5
657
100
AcDbEntity
  8
0
100
AcDbSpline
 62
250
  6
CONTINUOUS
 70
0
 71
3
 72
10
 73
6
 74
0
 42
0.0000001
 43
0.0000001
 44
0.0000000001
 40
0.0
 40
0.0
 40
0.0
 40
0.0
 40
0.2126002355
 40
0.4555977883
 40
1.0
 40
1.0
 40
1.0
 40
1.0
 10
112.6240555569
 20
79.4958641945
 30
0.0
 10
112.4268224507
 20
79.4707235595
 30
0.0
 10
112.0028512123
 20
79.4269800138
 30
0.0
 10
111.06978661
 20
79.362082728
 30
0.0
 10
110.3331899042
 20
79.3426219615
 30
0.0
 10
109.8240555569
 20
79.3406212557
 30
0.0
  0
SPLINE
  5
658
100
AcDbEntity
  8
0
100
AcDbSpline
 62
250
  6
CONTINUOUS
 70
0
 71
3
 72
11
 73
7
 74
0
 42
0.0000001
 43
0.0000001
 44
0.0000000001
 40
0.0
 40
0.0
 40
0.0
 40
0.0
 40
0.24413477
 40
0.4870925456
 40
0.7371486949
 40
1.0
 40
1.0
 40
1.0
 40
1.0
 10
109.8240555569
 20
65.7069634022
 30
0.0
 10
110.0786482941
 20
65.7127931513
 30
0.0
 10
110.5869731781
 20
65.7747134246
 30
0.0
 10
111.3209977637
 20
66.0197921954
 30
0.0
 10
112.0090354345
 20
66.4149723657
 30
0.0
 10
112.4144023092
 20
66.7704521969
 30
0.0
 10
112.6022382888
 20
66.9701867665
 30
0.0
  0
LINE
  5
659
100
AcDbEntity
  8
RACCORDO
100
AcDbLine
 62
250
  6
CONTINUOUS
 10
106.8281372734
 20
63.5497683576
 11
106.8420670988
 21
63.5933407111
  0
LINE
  5
65A
100
AcDbEntity
  8
RACCORDO
100
AcDbLine
 62
250
  6
CONTINUOUS
 10
106.8420670988
 20
63.5933407111
 11
107.1793585968
 21
64.6373493453
  0
LINE
  5
65B
100
AcDbEntity
  8
RACCORDO
100
AcDbLine
 62
250
  6
CONTINUOUS
 10
106.5488807494
 20
63.7945832627
 11
106.5627983673
 21
63.8382259631
  0
LINE
  5
65C
100
AcDbEntity
  8
RACCORDO
100
AcDbLine
 62
250
  6
CONTINUOUS
 10
106.5627983673
 20
63.8382259631
 11
106.8998046722
 21
64.8839199012
  0
SPLINE
  5
65D
100
AcDbEntity
  8
RACCORDO
100
AcDbSpline
 62
250
  6
CONTINUOUS
 70
0
 71
3
 72
11
 73
7
 74
0
 42
0.0000001
 43
0.0000001
 44
0.0000000001
 40
0.0
 40
0.0
 40
0.0
 40
0.0
 40
0.2495173378
 40
0.499424021
 40
0.7496533766
 40
1.0
 40
1.0
 40
1.0
 40
1.0
 10
107.15598463
 20
65.5239961583
 30
0.0
 10
107.1618398316
 20
65.4912247109
 30
0.0
 10
107.1848501178
 20
65.4271058248
 30
0.0
 10
107.249006373
 20
65.3480160665
 30
0.0
 10
107.3355575418
 20
65.294154221
 30
0.0
 10
107.4021488928
 20
65.2791579873
 30
0.0
 10
107.4354990729
 20
65.2773152835
 30
0.0
  0
SPLINE
  5
65E
100
AcDbEntity
  8
RACCORDO
100
AcDbSpline
 62
250
  6
CONTINUOUS
 70
0
 71
3
 72
11
 73
7
 74
0
 42
0.0000001
 43
0.0000001
 44
0.0000000001
 40
0.0
 40
0.0
 40
0.0
 40
0.0
 40
0.2495173367
 40
0.4994240193
 40
0.7496533753
 40
1.0
 40
1.0
 40
1.0
 40
1.0
 10
107.1559846291
 20
151.26152004
 30
0.0
 10
107.1618397718
 20
151.2942915362
 30
0.0
 10
107.1848499697
 20
151.3584105398
 30
0.0
 10
107.2490061889
 20
151.4375004815
 30
0.0
 10
107.3355574043
 20
151.4913624796
 30
0.0
 10
107.402148825
 20
151.5063587736
 30
0.0
 10
107.4354990423
 20
151.5082014945
 30
0.0
  0
SPLINE
  5
65F
100
AcDbEntity
  8
RACCORDO
100
AcDbSpline
 62
250
  6
CONTINUOUS
 70
0
 71
3
 72
13
 73
9
 74
0
 42
0.0000001
 43
0.0000001
 44
0.0000000001
 40
0.0
 40
0.0
 40
0.0
 40
0.0
 40
0.0434505205
 40
0.1131655964
 40
0.2102904598
 40
0.3329704884
 40
0.6405505974
 40
1.0
 40
1.0
 40
1.0
 40
1.0
 10
106.3517180904
 20
137.4750522672
 30
0.0
 10
106.3538854374
 20
137.4786013921
 30
0.0
 10
106.3636338518
 20
137.484704669
 30
0.0
 10
106.3826128514
 20
137.4907855085
 30
0.0
 10
106.4099852983
 20
137.4960173453
 30
0.0
 10
106.4601237215
 20
137.501596336
 30
0.0
 10
106.5358052464
 20
137.5039371042
 30
0.0
 10
106.599633397
 20
137.501933249
 30
0.0
 10
106.6339762252
 20
137.4999125948
 30
0.0
  0
SPLINE
  5
660
100
AcDbEntity
  8
RACCORDO
100
AcDbSpline
 62
250
  6
CONTINUOUS
 70
0
 71
3
 72
14
 73
10
 74
0
 42
0.0000001
 43
0.0000001
 44
0.0000000001
 40
0.0
 40
0.0
 40
0.0
 40
0.0
 40
0.0372105206
 40
0.1043783646
 40
0.2009207508
 40
0.3242779417
 40
0.4706552085
 40
0.6355765299
 40
1.0
 40
1.0
 40
1.0
 40
1.0
 10
106.1177119735
 20
133.4963345312
 30
0.0
 10
106.1201450369
 20
133.4988922873
 30
0.0
 10
106.1301183422
 20
133.5021404077
 30
0.0
 10
106.1484697517
 20
133.5058331412
 30
0.0
 10
106.1757474674
 20
133.5087085324
 30
0.0
 10
106.2103664487
 20
133.5108564357
 30
0.0
 10
106.2516150979
 20
133.5120477672
 30
0.0
 10
106.3157137691
 20
133.5123289148
 30
0.0
 10
106.3659346965
 20
133.5109915306
 30
0.0
 10
106.40047566
 20
133.5095111224
 30
0.0
  0
SPLINE
  5
661
100
AcDbEntity
  8
RACCORDO
100
AcDbSpline
 62
250
  6
CONTINUOUS
 70
0
 71
3
 72
14
 73
10
 74
0
 42
0.0000001
 43
0.0000001
 44
0.0000000001
 40
0.0
 40
0.0
 40
0.0
 40
0.0
 40
0.0368305939
 40
0.1038753634
 40
0.2004117706
 40
0.3238305264
 40
0.4703089464
 40
0.6353502425
 40
1.0
 40
1.0
 40
1.0
 40
1.0
 10
106.0557893798
 20
132.0926688857
 30
0.0
 10
106.0582473969
 20
132.095152804
 30
0.0
 10
106.0682026582
 20
132.0982340446
 30
0.0
 10
106.0865196266
 20
132.1018781385
 30
0.0
 10
106.1137913375
 20
132.1047525159
 30
0.0
 10
106.14842223
 20
132.1070068447
 30
0.0
 10
106.1896962541
 20
132.1083856782
 30
0.0
 10
106.2538419808
 20
132.1090439057
 30
0.0
 10
106.3041088519
 20
132.1080813703
 30
0.0
 10
106.3386865915
 20
132.106887674
 30
0.0
  0
SPLINE
  5
662
100
AcDbEntity
  8
RACCORDO
100
AcDbSpline
 62
250
  6
CONTINUOUS
 70
0
 71
3
 72
14
 73
10
 74
0
 42
0.0000001
 43
0.0000001
 44
0.0000000001
 40
0.0
 40
0.0
 40
0.0
 40
0.0
 40
0.036830606
 40
0.1038753844
 40
0.2004117959
 40
0.323830552
 40
0.4703089685
 40
0.6353502585
 40
1.0
 40
1.0
 40
1.0
 40
1.0
 10
106.0557893936
 20
84.6928473131
 30
0.0
 10
106.0582474127
 20
84.6903633955
 30
0.0
 10
106.0682026748
 20
84.6872821553
 30
0.0
 10
106.0865196456
 20
84.6836380619
 30
0.0
 10
106.1137913561
 20
84.6807636848
 30
0.0
 10
106.1484222473
 20
84.6785093564
 30
0.0
 10
106.1896962686
 20
84.6771305231
 30
0.0
 10
106.2538419899
 20
84.6764722957
 30
0.0
 10
106.3041088565
 20
84.6774348309
 30
0.0
 10
106.338686593
 20
84.6786285269
 30
0.0
  0
SPLINE
  5
663
100
AcDbEntity
  8
RACCORDO
100
AcDbSpline
 62
250
  6
CONTINUOUS
 70
0
 71
3
 72
14
 73
10
 74
0
 42
0.0000001
 43
0.0000001
 44
0.0000000001
 40
0.0
 40
0.0
 40
0.0
 40
0.0
 40
0.0372105182
 40
0.1043783605
 40
0.2009207459
 40
0.3242779367
 40
0.4706552042
 40
0.6355765269
 40
1.0
 40
1.0
 40
1.0
 40
1.0
 10
106.1177119701
 20
83.2891816668
 30
0.0
 10
106.1201450332
 20
83.2866239106
 30
0.0
 10
106.1301183383
 20
83.2833757901
 30
0.0
 10
106.1484697475
 20
83.2796830565
 30
0.0
 10
106.1757474632
 20
83.2768076652
 30
0.0
 10
106.2103664448
 20
83.2746597619
 30
0.0
 10
106.2516150948
 20
83.2734684303
 30
0.0
 10
106.3157137671
 20
83.2731872826
 30
0.0
 10
106.3659346955
 20
83.274524667
 30
0.0
 10
106.4004756597
 20
83.2760050752
 30
0.0
  0
SPLINE
  5
664
100
AcDbEntity
  8
RACCORDO
100
AcDbSpline
 62
250
  6
CONTINUOUS
 70
0
 71
3
 72
13
 73
9
 74
0
 42
0.0000001
 43
0.0000001
 44
0.0000000001
 40
0.0
 40
0.0
 40
0.0
 40
0.0
 40
0.0434503361
 40
0.1131652453
 40
0.2102900104
 40
0.3329700158
 40
0.6405502759
 40
1.0
 40
1.0
 40
1.0
 40
1.0
 10
106.3517180135
 20
79.3104639246
 30
0.0
 10
106.3538853199
 20
79.306914794
 30
0.0
 10
106.3636336963
 20
79.3008114891
 30
0.0
 10
106.3826126503
 20
79.2947306418
 30
0.0
 10
106.4099850775
 20
79.2894987879
 30
0.0
 10
106.4601235169
 20
79.2839197794
 30
0.0
 10
106.5358051099
 20
79.2815789992
 30
0.0
 10
106.599633326
 20
79.2835828544
 30
0.0
 10
106.6339761959
 20
79.2856035109
 30
0.0
  0
SPLINE
  5
665
100
AcDbEntity
  8
RACCORDO
100
AcDbSpline
 62
250
  6
CONTINUOUS
 70
0
 71
3
 72
22
 73
18
 74
0
 42
0.0000001
 43
0.0000001
 44
0.0000000001
 40
0.0
 40
0.0
 40
0.0
 40
0.0
 40
0.0059677579
 40
0.0138482547
 40
0.0236700045
 40
0.0354366774
 40
0.0647633723
 40
0.1016770456
 40
0.1459391052
 40
0.1972475224
 40
0.2552462328
 40
0.319531848
 40
0.3896591438
 40
0.4651458897
 40
0.6301102293
 40
0.8099871339
 40
1.0
 40
1.0
 40
1.0
 40
1.0
 10
107.1559846294
 20
65.5239961582
 30
0.0
 10
107.1642885077
 20
65.5502040092
 30
0.0
 10
107.1779453896
 20
65.612730314
 30
0.0
 10
107.1923902919
 20
65.7208352668
 30
0.0
 10
107.2032208176
 20
65.856217836
 30
0.0
 10
107.2135452194
 20
66.0905686426
 30
0.0
 10
107.2151014853
 20
66.4500388961
 30
0.0
 10
107.2033350075
 20
66.9589787641
 30
0.0
 10
107.178133677
 20
67.5688073425
 30
0.0
 10
107.1404319686
 20
68.2752643583
 30
0.0
 10
107.0912299599
 20
69.0734532204
 30
0.0
 10
107.0317553131
 20
69.9578491194
 30
0.0
 10
106.9633373571
 20
70.9223806172
 30
0.0
 10
106.8588987306
 20
72.3493189339
 30
0.0
 10
106.7143849199
 20
74.2802617574
 30
0.0
 10
106.5329122878
 20
76.7375059005
 30
0.0
 10
106.4121317189
 20
78.4372108821
 30
0.0
 10
106.3517180102
 20
79.3104639243
 30
0.0
  0
SPLINE
  5
666
100
AcDbEntity
  8
RACCORDO
100
AcDbSpline
 62
250
  6
CONTINUOUS
 70
0
 71
3
 72
9
 73
5
 74
0
 42
0.0000001
 43
0.0000001
 44
0.0000000001
 40
0.0
 40
0.0
 40
0.0
 40
0.0
 40
0.4332019359
 40
1.0
 40
1.0
 40
1.0
 40
1.0
 10
107.010542588
 20
65.1458920122
 30
0.0
 10
107.0371595015
 20
65.1980336778
 30
0.0
 10
107.0894473644
 20
65.3229729447
 30
0.0
 10
107.1328454229
 20
65.4509784167
 30
0.0
 10
107.1559846294
 20
65.5239961582
 30
0.0
  0
LINE
  5
667
100
AcDbEntity
  8
RACCORDO
100
AcDbLine
 62
250
  6
CONTINUOUS
 10
104.135625063
 20
132.3325795798
 11
104.1542064111
 21
132.3059246496
  0
LINE
  5
668
100
AcDbEntity
  8
RACCORDO
100
AcDbLine
 62
250
  6
CONTINUOUS
 10
104.1542064111
 20
132.3059246496
 11
104.3028665156
 21
132.0926688857
  0
LINE
  5
669
100
AcDbEntity
  8
ASSI
100
AcDbLine
 62
7
  6
CONTINUOUS
 10
110.8535509206
 20
152.6761023255
 11
110.858792669
 21
152.6743172739
  0
LINE
  5
66A
100
AcDbEntity
  8
ASSI
100
AcDbLine
 62
7
  6
CONTINUOUS
 10
110.8535509206
 20
64.1094138727
 11
110.858792669
 21
64.1111989243
  0
SPLINE
  5
66B
100
AcDbEntity
  8
ASSI
100
AcDbSpline
 62
250
  6
CONTINUOUS
 70
0
 71
3
 72
22
 73
18
 74
0
 42
0.0000001
 43
0.0000001
 44
0.0000000001
 40
0.0
 40
0.0
 40
0.0
 40
0.0
 40
0.0059677579
 40
0.0138482547
 40
0.0236700045
 40
0.0354366774
 40
0.0647633723
 40
0.1016770456
 40
0.1459391052
 40
0.1972475224
 40
0.2552462328
 40
0.319531848
 40
0.3896591438
 40
0.4651458897
 40
0.6301102293
 40
0.8099871339
 40
1.0
 40
1.0
 40
1.0
 40
1.0
 10
107.1559846294
 20
65.5239961582
 30
0.0
 10
107.1642885077
 20
65.5502040092
 30
0.0
 10
107.1779453896
 20
65.612730314
 30
0.0
 10
107.1923902919
 20
65.7208352668
 30
0.0
 10
107.2032208176
 20
65.856217836
 30
0.0
 10
107.2135452194
 20
66.0905686426
 30
0.0
 10
107.2151014853
 20
66.4500388961
 30
0.0
 10
107.2033350075
 20
66.9589787641
 30
0.0
 10
107.178133677
 20
67.5688073425
 30
0.0
 10
107.1404319686
 20
68.2752643583
 30
0.0
 10
107.0912299599
 20
69.0734532204
 30
0.0
 10
107.0317553131
 20
69.9578491194
 30
0.0
 10
106.9633373571
 20
70.9223806172
 30
0.0
 10
106.8588987306
 20
72.3493189339
 30
0.0
 10
106.7143849199
 20
74.2802617574
 30
0.0
 10
106.5329122878
 20
76.7375059005
 30
0.0
 10
106.4121317189
 20
78.4372108821
 30
0.0
 10
106.3517180102
 20
79.3104639243
 30
0.0
  0
SPLINE
  5
66C
100
AcDbEntity
  8
ASSI
100
AcDbSpline
 62
250
  6
CONTINUOUS
 70
0
 71
3
 72
9
 73
5
 74
0
 42
0.0000001
 43
0.0000001
 44
0.0000000001
 40
0.0
 40
0.0
 40
0.0
 40
0.0
 40
0.4332019359
 40
1.0
 40
1.0
 40
1.0
 40
1.0
 10
107.010542588
 20
65.1458920122
 30
0.0
 10
107.0371595015
 20
65.1980336778
 30
0.0
 10
107.0894473644
 20
65.3229729447
 30
0.0
 10
107.1328454229
 20
65.4509784167
 30
0.0
 10
107.1559846294
 20
65.5239961582
 30
0.0
  0
SPLINE
  5
66D
100
AcDbEntity
  8
ASSI
100
AcDbSpline
 62
250
  6
CONTINUOUS
 70
0
 71
3
 72
9
 73
5
 74
0
 42
0.0000001
 43
0.0000001
 44
0.0000000001
 40
0.0
 40
0.0
 40
0.0
 40
0.0
 40
0.2349013709
 40
1.0
 40
1.0
 40
1.0
 40
1.0
 10
106.8998046597
 20
64.8839199711
 30
0.0
 10
106.9067099074
 20
64.9051062043
 30
0.0
 10
106.9382263691
 20
64.9946062382
 30
0.0
 10
106.9775439523
 20
65.0812488253
 30
0.0
 10
107.010542588
 20
65.1458920122
 30
0.0
  0
LINE
  5
66E
100
AcDbEntity
  8
ASSI
100
AcDbLine
 62
250
  6
CONTINUOUS
 10
104.3028665156
 20
84.6928473125
 11
104.1542062729
 21
84.479591374
  0
LINE
  5
66F
100
AcDbEntity
  8
ASSI
100
AcDbLine
 62
250
  6
CONTINUOUS
 10
104.1542062729
 20
84.479591374
 11
104.1356250561
 21
84.4529366291
  0
SPLINE
  5
670
100
AcDbEntity
  8
ASSI
100
AcDbSpline
 62
250
  6
CONTINUOUS
 70
0
 71
3
 72
22
 73
18
 74
0
 42
0.0000001
 43
0.0000001
 44
0.0000000001
 40
0.0
 40
0.0
 40
0.0
 40
0.0
 40
0.0059601958
 40
0.0138336051
 40
0.0236473857
 40
0.0354047019
 40
0.0647082804
 40
0.1015936536
 40
0.1458243257
 40
0.197101092
 40
0.2550708972
 40
0.3193332952
 40
0.3894456667
 40
0.4649278624
 40
0.6299191664
 40
0.8098718191
 40
1.0
 40
1.0
 40
1.0
 40
1.0
 10
107.4354966862
 20
65.2773051372
 30
0.0
 10
107.4437993266
 20
65.3039376431
 30
0.0
 10
107.4574508848
 20
65.367436613
 30
0.0
 10
107.4719036882
 20
65.4771940489
 30
0.0
 10
107.4827549737
 20
65.614639668
 30
0.0
 10
107.493128155
 20
65.8525571223
 30
0.0
 10
107.4947774445
 20
66.2174938745
 30
0.0
 10
107.483156139
 20
66.7342010984
 30
0.0
 10
107.4581339289
 20
67.3533879587
 30
0.0
 10
107.4206374399
 20
68.0707667574
 30
0.0
 10
107.3716584619
 20
68.8814031498
 30
0.0
 10
107.3124165913
 20
69.7797224234
 30
0.0
 10
107.2442337962
 20
70.7595890529
 30
0.0
 10
107.1401049025
 20
72.2095512496
 30
0.0
 10
106.9959486414
 20
74.1720669375
 30
0.0
 10
106.8148503778
 20
76.6699143113
 30
0.0
 10
106.694284835
 20
78.3978789171
 30
0.0
 10
106.6339677892
 20
79.2857265384
 30
0.0
  0
SPLINE
  5
671
100
AcDbEntity
  8
ASSI
100
AcDbSpline
 62
250
  6
CONTINUOUS
 70
0
 71
3
 72
11
 73
7
 74
0
 42
0.0000001
 43
0.0000001
 44
0.0000000001
 40
0.0
 40
0.0
 40
0.0
 40
0.0
 40
0.2495173367
 40
0.4994240193
 40
0.7496533753
 40
1.0
 40
1.0
 40
1.0
 40
1.0
 10
107.1559846291
 20
151.26152004
 30
0.0
 10
107.1618397718
 20
151.2942915362
 30
0.0
 10
107.1848499697
 20
151.3584105398
 30
0.0
 10
107.2490061889
 20
151.4375004815
 30
0.0
 10
107.3355574043
 20
151.4913624796
 30
0.0
 10
107.402148825
 20
151.5063587736
 30
0.0
 10
107.4354990423
 20
151.5082014945
 30
0.0
  0
SPLINE
  5
672
100
AcDbEntity
  8
ASSI
100
AcDbSpline
 62
250
  6
CONTINUOUS
 70
0
 71
3
 72
13
 73
9
 74
0
 42
0.0000001
 43
0.0000001
 44
0.0000000001
 40
0.0
 40
0.0
 40
0.0
 40
0.0
 40
0.0434505205
 40
0.1131655964
 40
0.2102904598
 40
0.3329704884
 40
0.6405505974
 40
1.0
 40
1.0
 40
1.0
 40
1.0
 10
106.3517180904
 20
137.4750522672
 30
0.0
 10
106.3538854374
 20
137.4786013921
 30
0.0
 10
106.3636338518
 20
137.484704669
 30
0.0
 10
106.3826128514
 20
137.4907855085
 30
0.0
 10
106.4099852983
 20
137.4960173453
 30
0.0
 10
106.4601237215
 20
137.501596336
 30
0.0
 10
106.5358052464
 20
137.5039371042
 30
0.0
 10
106.599633397
 20
137.501933249
 30
0.0
 10
106.6339762252
 20
137.4999125948
 30
0.0
  0
SPLINE
  5
673
100
AcDbEntity
  8
ASSI
100
AcDbSpline
 62
250
  6
CONTINUOUS
 70
0
 71
3
 72
14
 73
10
 74
0
 42
0.0000001
 43
0.0000001
 44
0.0000000001
 40
0.0
 40
0.0
 40
0.0
 40
0.0
 40
0.0372105206
 40
0.1043783646
 40
0.2009207508
 40
0.3242779417
 40
0.4706552085
 40
0.6355765299
 40
1.0
 40
1.0
 40
1.0
 40
1.0
 10
106.1177119735
 20
133.4963345312
 30
0.0
 10
106.1201450369
 20
133.4988922873
 30
0.0
 10
106.1301183422
 20
133.5021404077
 30
0.0
 10
106.1484697517
 20
133.5058331412
 30
0.0
 10
106.1757474674
 20
133.5087085324
 30
0.0
 10
106.2103664487
 20
133.5108564357
 30
0.0
 10
106.2516150979
 20
133.5120477672
 30
0.0
 10
106.3157137691
 20
133.5123289148
 30
0.0
 10
106.3659346965
 20
133.5109915306
 30
0.0
 10
106.40047566
 20
133.5095111224
 30
0.0
  0
SPLINE
  5
674
100
AcDbEntity
  8
ASSI
100
AcDbSpline
 62
250
  6
CONTINUOUS
 70
0
 71
3
 72
14
 73
10
 74
0
 42
0.0000001
 43
0.0000001
 44
0.0000000001
 40
0.0
 40
0.0
 40
0.0
 40
0.0
 40
0.0368305939
 40
0.1038753634
 40
0.2004117706
 40
0.3238305264
 40
0.4703089464
 40
0.6353502425
 40
1.0
 40
1.0
 40
1.0
 40
1.0
 10
106.0557893798
 20
132.0926688857
 30
0.0
 10
106.0582473969
 20
132.095152804
 30
0.0
 10
106.0682026582
 20
132.0982340446
 30
0.0
 10
106.0865196266
 20
132.1018781385
 30
0.0
 10
106.1137913375
 20
132.1047525159
 30
0.0
 10
106.14842223
 20
132.1070068447
 30
0.0
 10
106.1896962541
 20
132.1083856782
 30
0.0
 10
106.2538419808
 20
132.1090439057
 30
0.0
 10
106.3041088519
 20
132.1080813703
 30
0.0
 10
106.3386865915
 20
132.106887674
 30
0.0
  0
SPLINE
  5
675
100
AcDbEntity
  8
ASSI
100
AcDbSpline
 62
250
  6
CONTINUOUS
 70
0
 71
3
 72
14
 73
10
 74
0
 42
0.0000001
 43
0.0000001
 44
0.0000000001
 40
0.0
 40
0.0
 40
0.0
 40
0.0
 40
0.036830606
 40
0.1038753844
 40
0.2004117959
 40
0.323830552
 40
0.4703089685
 40
0.6353502585
 40
1.0
 40
1.0
 40
1.0
 40
1.0
 10
106.0557893936
 20
84.6928473131
 30
0.0
 10
106.0582474127
 20
84.6903633955
 30
0.0
 10
106.0682026748
 20
84.6872821553
 30
0.0
 10
106.0865196456
 20
84.6836380619
 30
0.0
 10
106.1137913561
 20
84.6807636848
 30
0.0
 10
106.1484222473
 20
84.6785093564
 30
0.0
 10
106.1896962686
 20
84.6771305231
 30
0.0
 10
106.2538419899
 20
84.6764722957
 30
0.0
 10
106.3041088565
 20
84.6774348309
 30
0.0
 10
106.338686593
 20
84.6786285269
 30
0.0
  0
SPLINE
  5
676
100
AcDbEntity
  8
ASSI
100
AcDbSpline
 62
250
  6
CONTINUOUS
 70
0
 71
3
 72
14
 73
10
 74
0
 42
0.0000001
 43
0.0000001
 44
0.0000000001
 40
0.0
 40
0.0
 40
0.0
 40
0.0
 40
0.0372105182
 40
0.1043783605
 40
0.2009207459
 40
0.3242779367
 40
0.4706552042
 40
0.6355765269
 40
1.0
 40
1.0
 40
1.0
 40
1.0
 10
106.1177119701
 20
83.2891816668
 30
0.0
 10
106.1201450332
 20
83.2866239106
 30
0.0
 10
106.1301183383
 20
83.2833757901
 30
0.0
 10
106.1484697475
 20
83.2796830565
 30
0.0
 10
106.1757474632
 20
83.2768076652
 30
0.0
 10
106.2103664448
 20
83.2746597619
 30
0.0
 10
106.2516150948
 20
83.2734684303
 30
0.0
 10
106.3157137671
 20
83.2731872826
 30
0.0
 10
106.3659346955
 20
83.274524667
 30
0.0
 10
106.4004756597
 20
83.2760050752
 30
0.0
  0
SPLINE
  5
677
100
AcDbEntity
  8
ASSI
100
AcDbSpline
 62
250
  6
CONTINUOUS
 70
0
 71
3
 72
13
 73
9
 74
0
 42
0.0000001
 43
0.0000001
 44
0.0000000001
 40
0.0
 40
0.0
 40
0.0
 40
0.0
 40
0.0434503361
 40
0.1131652453
 40
0.2102900104
 40
0.3329700158
 40
0.6405502759
 40
1.0
 40
1.0
 40
1.0
 40
1.0
 10
106.3517180135
 20
79.3104639246
 30
0.0
 10
106.3538853199
 20
79.306914794
 30
0.0
 10
106.3636336963
 20
79.3008114891
 30
0.0
 10
106.3826126503
 20
79.2947306418
 30
0.0
 10
106.4099850775
 20
79.2894987879
 30
0.0
 10
106.4601235169
 20
79.2839197794
 30
0.0
 10
106.5358051099
 20
79.2815789992
 30
0.0
 10
106.599633326
 20
79.2835828544
 30
0.0
 10
106.6339761959
 20
79.2856035109
 30
0.0
  0
SPLINE
  5
678
100
AcDbEntity
  8
ASSI
100
AcDbSpline
 62
250
  6
CONTINUOUS
 70
0
 71
3
 72
22
 73
18
 74
0
 42
0.0000001
 43
0.0000001
 44
0.0000000001
 40
0.0
 40
0.0
 40
0.0
 40
0.0
 40
0.1901283225
 40
0.3700810701
 40
0.535072432
 40
0.6105546418
 40
0.6806670175
 40
0.7449294099
 40
0.8028991996
 40
0.8541759402
 40
0.8984065779
 40
0.9352919048
 40
0.9645954324
 40
0.9763527205
 40
0.9861664588
 40
0.9940398195
 40
1.0
 40
1.0
 40
1.0
 40
1.0
 10
106.6339687929
 20
137.499804348
 30
0.0
 10
106.6942857011
 20
138.3876517969
 30
0.0
 10
106.8148514397
 20
140.1156158522
 30
0.0
 10
106.9959495772
 20
142.6134622348
 30
0.0
 10
107.1401057811
 20
144.5759768383
 30
0.0
 10
107.2442345769
 20
146.0259380171
 30
0.0
 10
107.3124172819
 20
147.0058037785
 30
0.0
 10
107.3716590405
 20
147.9041221246
 30
0.0
 10
107.4206379081
 20
148.7147575328
 30
0.0
 10
107.4581342413
 20
149.4321353029
 30
0.0
 10
107.4831563369
 20
150.0513210809
 30
0.0
 10
107.4947774746
 20
150.568027204
 30
0.0
 10
107.4931280034
 20
150.9329630205
 30
0.0
 10
107.4827548239
 20
151.1708796815
 30
0.0
 10
107.4719034566
 20
151.3083246036
 30
0.0
 10
107.4574504214
 20
151.4180814145
 30
0.0
 10
107.4437988191
 20
151.4815799802
 30
0.0
 10
107.4354963474
 20
151.5082124363
 30
0.0
  0
SPLINE
  5
679
100
AcDbEntity
  8
ASSI
100
AcDbSpline
 62
250
  6
CONTINUOUS
 70
0
 71
3
 72
11
 73
7
 74
0
 42
0.0000001
 43
0.0000001
 44
0.0000000001
 40
0.0
 40
0.0
 40
0.0
 40
0.0
 40
0.2495173378
 40
0.499424021
 40
0.7496533766
 40
1.0
 40
1.0
 40
1.0
 40
1.0
 10
107.15598463
 20
65.5239961583
 30
0.0
 10
107.1618398316
 20
65.4912247109
 30
0.0
 10
107.1848501178
 20
65.4271058248
 30
0.0
 10
107.249006373
 20
65.3480160665
 30
0.0
 10
107.3355575418
 20
65.294154221
 30
0.0
 10
107.4021488928
 20
65.2791579873
 30
0.0
 10
107.4354990729
 20
65.2773152835
 30
0.0
  0
LINE
  5
67A
100
AcDbEntity
  8
ASSI
100
AcDbLine
 62
7
  6
CONTINUOUS
 10
104.4044598289
 20
80.2726579446
 11
104.3626864789
 21
80.8218336622
  0
LINE
  5
67B
100
AcDbEntity
  8
ASSI
100
AcDbLine
 62
7
  6
CONTINUOUS
 10
104.3626864789
 20
80.8218336622
 11
104.3614857865
 21
80.8383774711
  0
SPLINE
  5
67C
100
AcDbEntity
  8
ASSI
100
AcDbSpline
 62
7
  6
CONTINUOUS
 70
0
 71
3
 72
14
 73
10
 74
0
 42
0.0000001
 43
0.0000001
 44
0.0000000001
 40
0.0
 40
0.0
 40
0.0
 40
0.0
 40
0.0380428945
 40
0.0897609518
 40
0.213709581
 40
0.3587664464
 40
0.5123747909
 40
0.804885817
 40
1.0
 40
1.0
 40
1.0
 40
1.0
 10
104.3614857865
 20
80.8383774711
 30
0.0
 10
104.3605443812
 20
80.8563263585
 30
0.0
 10
104.3572498453
 20
80.8986117942
 30
0.0
 10
104.3505625528
 20
80.9993559442
 30
0.0
 10
104.3399374079
 20
81.1505122238
 30
0.0
 10
104.32626156
 20
81.3497087444
 30
0.0
 10
104.3072282955
 20
81.6283639739
 30
0.0
 10
104.2868143629
 20
81.9306290646
 30
0.0
 10
104.271764846
 20
82.1605191404
 30
0.0
 10
104.2652910509
 20
82.2524742244
 30
0.0
  0
SPLINE
  5
67D
100
AcDbEntity
  8
ASSI
100
AcDbSpline
 62
7
  6
CONTINUOUS
 70
0
 71
3
 72
17
 73
13
 74
0
 42
0.0000001
 43
0.0000001
 44
0.0000000001
 40
0.0
 40
0.0
 40
0.0
 40
0.0
 40
0.2776352299
 40
0.498175065
 40
0.6683398583
 40
0.7957218805
 40
0.8882463452
 40
0.9515410798
 40
0.972999109
 40
0.9880310027
 40
0.9969203865
 40
1.0
 40
1.0
 40
1.0
 40
1.0
 10
104.2652910509
 20
82.2524742244
 30
0.0
 10
104.264671415
 20
82.2612769418
 30
0.0
 10
104.2635500806
 20
82.2770709065
 30
0.0
 10
104.2620084334
 20
82.2982596233
 30
0.0
 10
104.2607678324
 20
82.314675326
 30
0.0
 10
104.2597929422
 20
82.3270465685
 30
0.0
 10
104.2590200727
 20
82.3359883727
 30
0.0
 10
104.2585181671
 20
82.3416522895
 30
0.0
 10
104.2581494971
 20
82.3447364931
 30
0.0
 10
104.2580090179
 20
82.3462766853
 30
0.0
 10
104.2578027841
 20
82.3469341405
 30
0.0
 10
104.2577842913
 20
82.3475038494
 30
0.0
 10
104.2576864651
 20
82.3475004845
 30
0.0
  0
SPLINE
  5
67E
100
AcDbEntity
  8
ASSI
100
AcDbSpline
 62
250
  6
CONTINUOUS
 70
0
 71
3
 72
9
 73
5
 74
0
 42
0.0000001
 43
0.0000001
 44
0.0000000001
 40
0.0
 40
0.0
 40
0.0
 40
0.0
 40
0.2656707806
 40
1.0
 40
1.0
 40
1.0
 40
1.0
 10
107.010542588
 20
151.639624186
 30
0.0
 10
106.9990847653
 20
151.6620696649
 30
0.0
 10
106.9573441659
 20
151.7472405552
 30
0.0
 10
106.9213902672
 20
151.8353686667
 30
0.0
 10
106.8998046599
 20
151.9015962264
 30
0.0
  0
SPLINE
  5
67F
100
AcDbEntity
  8
ASSI
100
AcDbSpline
 62
250
  6
CONTINUOUS
 70
0
 71
3
 72
9
 73
5
 74
0
 42
0.0000001
 43
0.0000001
 44
0.0000000001
 40
0.0
 40
0.0
 40
0.0
 40
0.0
 40
0.5667980641
 40
1.0
 40
1.0
 40
1.0
 40
1.0
 10
107.1559846294
 20
151.26152004
 30
0.0
 10
107.132845427
 20
151.3345377828
 30
0.0
 10
107.0894473668
 20
151.462543255
 30
0.0
 10
107.0371594955
 20
151.5874825173
 30
0.0
 10
107.010542588
 20
151.639624186
 30
0.0
  0
SPLINE
  5
680
100
AcDbEntity
  8
ASSI
100
AcDbSpline
 62
250
  6
CONTINUOUS
 70
0
 71
3
 72
22
 73
18
 74
0
 42
0.0000001
 43
0.0000001
 44
0.0000000001
 40
0.0
 40
0.0
 40
0.0
 40
0.0
 40
0.1900128876
 40
0.3698897876
 40
0.5348541267
 40
0.6103408718
 40
0.6804681663
 40
0.74475378
 40
0.8027524896
 40
0.8540609027
 40
0.8983229648
 40
0.9352366289
 40
0.9645633233
 40
0.9763300106
 40
0.9861517526
 40
0.9940322231
 40
1.0
 40
1.0
 40
1.0
 40
1.0
 10
106.3517180102
 20
137.4750522739
 30
0.0
 10
106.4121316763
 20
138.3483054179
 30
0.0
 10
106.5329123454
 20
140.0480104694
 30
0.0
 10
106.7143849297
 20
142.5052546898
 30
0.0
 10
106.8588987502
 20
144.4361974839
 30
0.0
 10
106.9633373744
 20
145.8631357875
 30
0.0
 10
107.0317553276
 20
146.8276672679
 30
0.0
 10
107.0912299676
 20
147.7120631495
 30
0.0
 10
107.1404319785
 20
148.5102519812
 30
0.0
 10
107.1781336685
 20
149.216708987
 30
0.0
 10
107.2033350121
 20
149.8265375141
 30
0.0
 10
107.2151014782
 20
150.3354773515
 30
0.0
 10
107.213545153
 20
150.6949476221
 30
0.0
 10
107.2032208596
 20
150.9292984622
 30
0.0
 10
107.1923903432
 20
151.0646809384
 30
0.0
 10
107.1779452819
 20
151.1727858148
 30
0.0
 10
107.1642883444
 20
151.2353120452
 30
0.0
 10
107.1559846294
 20
151.26152004
 30
0.0
  0
LINE
  5
681
100
AcDbEntity
  8
ASSI
100
AcDbLine
 62
250
  6
CONTINUOUS
 10
104.635659412
 20
131.2725701458
 11
104.6353342928
 21
131.2534210571
  0
SPLINE
  5
682
100
AcDbEntity
  8
ASSI
100
AcDbSpline
 62
250
  6
CONTINUOUS
 70
0
 71
3
 72
9
 73
5
 74
0
 42
0.0000001
 43
0.0000001
 44
0.0000000001
 40
0.0
 40
0.0
 40
0.0
 40
0.0
 40
0.4499181377
 40
1.0
 40
1.0
 40
1.0
 40
1.0
 10
104.6353342928
 20
131.2534210571
 30
0.0
 10
104.632331601
 20
131.0817185174
 30
0.0
 10
104.621355283
 20
130.7001692568
 30
0.0
 10
104.606664441
 20
130.3187602867
 30
0.0
 10
104.5976070159
 20
130.1089955585
 30
0.0
  0
LINE
  5
683
100
AcDbEntity
  8
ASSI
100
AcDbLine
 62
250
  6
CONTINUOUS
 10
104.6738896135
 20
132.0926688857
 11
104.6467629846
 21
131.5137635592
  0
LINE
  5
684
100
AcDbEntity
  8
ASSI
100
AcDbLine
 62
250
  6
CONTINUOUS
 10
104.6467629846
 20
131.5137635592
 11
104.635659412
 21
131.2725701458
  0
LINE
  5
685
100
AcDbEntity
  8
ASSI
100
AcDbLine
 62
250
  6
CONTINUOUS
 10
104.635659412
 20
85.5129460524
 11
104.646630761
 21
85.2746099852
  0
LINE
  5
686
100
AcDbEntity
  8
ASSI
100
AcDbLine
 62
250
  6
CONTINUOUS
 10
104.646630761
 20
85.2746099852
 11
104.6738896135
 21
84.6928473125
  0
LINE
  5
687
100
AcDbEntity
  8
ASSI
100
AcDbLine
 62
250
  6
CONTINUOUS
 10
106.8281372734
 20
63.5497683576
 11
106.8420670988
 21
63.5933407111
  0
LINE
  5
688
100
AcDbEntity
  8
ASSI
100
AcDbLine
 62
250
  6
CONTINUOUS
 10
106.8420670988
 20
63.5933407111
 11
107.1793585968
 21
64.6373493453
  0
LINE
  5
689
100
AcDbEntity
  8
ASSI
100
AcDbLine
 62
250
  6
CONTINUOUS
 10
106.5488807494
 20
63.7945832627
 11
106.5627983673
 21
63.8382259631
  0
LINE
  5
68A
100
AcDbEntity
  8
ASSI
100
AcDbLine
 62
250
  6
CONTINUOUS
 10
106.5627983673
 20
63.8382259631
 11
106.8998046722
 21
64.8839199012
  0
SPLINE
  5
68B
100
AcDbEntity
  8
ASSI
100
AcDbSpline
 62
250
  6
CONTINUOUS
 70
0
 71
3
 72
9
 73
5
 74
0
 42
0.0000001
 43
0.0000001
 44
0.0000000001
 40
0.0
 40
0.0
 40
0.0
 40
0.0
 40
0.5500742872
 40
1.0
 40
1.0
 40
1.0
 40
1.0
 10
104.5976070161
 20
86.676520635
 30
0.0
 10
104.6066463581
 20
86.4667689941
 30
0.0
 10
104.6213611368
 20
86.0853810044
 30
0.0
 10
104.6323301426
 20
85.7038513757
 30
0.0
 10
104.6353332487
 20
85.53215492
 30
0.0
  0
LINE
  5
68C
100
AcDbEntity
  8
ASSI
100
AcDbLine
 62
250
  6
CONTINUOUS
 10
104.6353332487
 20
85.53215492
 11
104.635659412
 21
85.5129460524
  0
LINE
  5
68D
100
AcDbEntity
  8
ASSI
100
AcDbLine
 62
250
  6
CONTINUOUS
 10
104.1261620295
 20
108.3927580991
 11
104.1262684526
 21
108.0664031331
  0
LINE
  5
68E
100
AcDbEntity
  8
ASSI
100
AcDbLine
 62
250
  6
CONTINUOUS
 10
104.1262653964
 20
108.7143863444
 11
104.1261620295
 21
108.3927580991
  0
LINE
  5
68F
100
AcDbEntity
  8
ASSI
100
AcDbLine
 62
7
  6
CONTINUOUS
 10
104.1355521165
 20
81.8638956439
 11
104.1084655385
 21
82.281849912
  0
LINE
  5
690
100
AcDbEntity
  8
ASSI
100
AcDbLine
 62
250
  6
CONTINUOUS
 10
106.8998046724
 20
151.9015962966
 11
106.5627983831
 21
152.9472901854
  0
LINE
  5
691
100
AcDbEntity
  8
ASSI
100
AcDbLine
 62
250
  6
CONTINUOUS
 10
106.5627983831
 20
152.9472901854
 11
106.5488807494
 21
152.9909329355
  0
LINE
  5
692
100
AcDbEntity
  8
ASSI
100
AcDbLine
 62
250
  6
CONTINUOUS
 10
104.3028665156
 20
132.0926688857
 11
104.6295254849
 21
131.6256407669
  0
SPLINE
  5
693
100
AcDbEntity
  8
ASSI
100
AcDbSpline
 62
250
  6
CONTINUOUS
 70
0
 71
3
 72
13
 73
9
 74
0
 42
0.0000001
 43
0.0000001
 44
0.0000000001
 40
0.0
 40
0.0
 40
0.0
 40
0.0
 40
0.0332834211
 40
0.0924943351
 40
0.1782129985
 40
0.2904506123
 40
0.5937681556
 40
1.0
 40
1.0
 40
1.0
 40
1.0
 10
104.6295254849
 20
131.6256407669
 30
0.0
 10
104.6304013202
 20
131.6243893708
 30
0.0
 10
104.6314826684
 20
131.6201469785
 30
0.0
 10
104.6328380222
 20
131.6121602244
 30
0.0
 10
104.6339767877
 20
131.6003679816
 30
0.0
 10
104.6355005458
 20
131.5774347334
 30
0.0
 10
104.6367028799
 20
131.5397160428
 30
0.0
 10
104.6371215848
 20
131.5071618743
 30
0.0
 10
104.637248689
 20
131.4885195228
 30
0.0
  0
SPLINE
  5
694
100
AcDbEntity
  8
ASSI
100
AcDbSpline
 62
250
  6
CONTINUOUS
 70
0
 71
3
 72
9
 73
5
 74
0
 42
0.0000001
 43
0.0000001
 44
0.0000000001
 40
0.0
 40
0.0
 40
0.0
 40
0.0
 40
0.2096295885
 40
1.0
 40
1.0
 40
1.0
 40
1.0
 10
104.637248689
 20
131.4885195228
 30
0.0
 10
104.6373515734
 20
131.4734294753
 30
0.0
 10
104.6374898277
 20
131.401442774
 30
0.0
 10
104.6365981814
 20
131.3294580152
 30
0.0
 10
104.635659412
 20
131.2725701458
 30
0.0
  0
SPLINE
  5
695
100
AcDbEntity
  8
ASSI
100
AcDbSpline
 62
250
  6
CONTINUOUS
 70
0
 71
3
 72
9
 73
5
 74
0
 42
0.0000001
 43
0.0000001
 44
0.0000000001
 40
0.0
 40
0.0
 40
0.0
 40
0.0
 40
0.2891865772
 40
1.0
 40
1.0
 40
1.0
 40
1.0
 10
104.635659412
 20
85.5129460524
 30
0.0
 10
104.6360028937
 20
85.4921315514
 30
0.0
 10
104.6370490582
 20
85.4201540205
 30
0.0
 10
104.6375975496
 20
85.3481639765
 30
0.0
 10
104.637248689
 20
85.2969966737
 30
0.0
  0
SPLINE
  5
696
100
AcDbEntity
  8
ASSI
100
AcDbSpline
 62
250
  6
CONTINUOUS
 70
0
 71
3
 72
13
 73
9
 74
0
 42
0.0000001
 43
0.0000001
 44
0.0000000001
 40
0.0
 40
0.0
 40
0.0
 40
0.0
 40
0.4062318844
 40
0.7095493203
 40
0.8217869038
 40
0.9075056586
 40
0.9667166838
 40
1.0
 40
1.0
 40
1.0
 40
1.0
 10
104.637248689
 20
85.2969966737
 30
0.0
 10
104.6371215848
 20
85.2783543206
 30
0.0
 10
104.6367028797
 20
85.2458001559
 30
0.0
 10
104.6355005471
 20
85.2080814692
 30
0.0
 10
104.6339767867
 20
85.1851482249
 30
0.0
 10
104.6328380218
 20
85.1733559719
 30
0.0
 10
104.6314826637
 20
85.1653692188
 30
0.0
 10
104.6304013253
 20
85.1611268179
 30
0.0
 10
104.6295254849
 20
85.1598754313
 30
0.0
  0
LINE
  5
697
100
AcDbEntity
  8
ASSI
100
AcDbLine
 62
7
  6
CONTINUOUS
 10
104.2540246897
 20
80.2726578711
 11
104.2453431977
 21
80.3860930805
  0
LINE
  5
698
100
AcDbEntity
  8
ASSI
100
AcDbLine
 62
7
  6
CONTINUOUS
 10
104.2453431977
 20
80.3860930805
 11
104.2122912432
 21
80.8218336622
  0
LINE
  5
699
100
AcDbEntity
  8
ASSI
100
AcDbLine
 62
7
  6
CONTINUOUS
 10
104.2122912432
 20
80.8218336622
 11
104.2110917208
 21
80.8383774711
  0
LINE
  5
69A
100
AcDbEntity
  8
ASSI
100
AcDbLine
 62
7
  6
CONTINUOUS
 10
104.2110917208
 20
80.8383774711
 11
104.191023598
 21
81.1301962788
  0
LINE
  5
69B
100
AcDbEntity
  8
ASSI
100
AcDbLine
 62
7
  6
CONTINUOUS
 10
104.191023598
 20
81.1301962788
 11
104.1687623159
 21
81.4542964817
  0
LINE
  5
69C
100
AcDbEntity
  8
ASSI
100
AcDbLine
 62
7
  6
CONTINUOUS
 10
104.1687623159
 20
81.4542964817
 11
104.1613071443
 21
81.56388813
  0
LINE
  5
69D
100
AcDbEntity
  8
ASSI
100
AcDbLine
 62
7
  6
CONTINUOUS
 10
104.1613071443
 20
81.56388813
 11
104.1440232057
 21
81.8202839243
  0
LINE
  5
69E
100
AcDbEntity
  8
ASSI
100
AcDbLine
 62
7
  6
CONTINUOUS
 10
104.1440232057
 20
81.8202839243
 11
104.1149905227
 21
82.2524742256
  0
SPLINE
  5
69F
100
AcDbEntity
  8
ASSI
100
AcDbSpline
 62
7
  6
CONTINUOUS
 70
0
 71
3
 72
11
 73
7
 74
0
 42
0.0000001
 43
0.0000001
 44
0.0000000001
 40
0.0
 40
0.0
 40
0.0
 40
0.0
 40
0.4656363607
 40
0.7594083141
 40
0.9268832167
 40
1.0
 40
1.0
 40
1.0
 40
1.0
 10
104.1149905227
 20
82.2524742256
 30
0.0
 10
104.1139585928
 20
82.2671470678
 30
0.0
 10
104.1122251649
 20
82.2910699177
 30
0.0
 10
104.1101090803
 20
82.3202827286
 30
0.0
 10
104.1085736772
 20
82.3370790867
 30
0.0
 10
104.107980893
 20
82.3446728985
 30
0.0
 10
104.107562609
 20
82.3469444088
 30
0.0
  0
LINE
  5
6A0
100
AcDbEntity
  8
ASSI
100
AcDbLine
 62
250
  6
CONTINUOUS
 10
104.135625063
 20
132.3325795798
 11
104.1542064111
 21
132.3059246496
  0
LINE
  5
6A1
100
AcDbEntity
  8
ASSI
100
AcDbLine
 62
250
  6
CONTINUOUS
 10
104.1542064111
 20
132.3059246496
 11
104.3028665156
 21
132.0926688857
  0
LINE
  5
6A2
100
AcDbEntity
  8
ASSI
100
AcDbLine
 62
250
  6
CONTINUOUS
 10
104.6295254849
 20
85.1598754313
 11
104.3028665156
 21
84.6928473125
  0
SPLINE
  5
6A3
100
AcDbEntity
  8
ASSI
100
AcDbSpline
 62
250
  6
CONTINUOUS
 70
0
 71
3
 72
10
 73
6
 74
0
 42
0.0000001
 43
0.0000001
 44
0.0000000001
 40
0.0
 40
0.0
 40
0.0
 40
0.0
 40
0.2131920325
 40
0.4562240761
 40
1.0
 40
1.0
 40
1.0
 40
1.0
 10
112.6240555569
 20
133.341552623
 30
0.0
 10
112.4253153953
 20
133.3306705832
 30
0.0
 10
111.9997380251
 20
133.3124101543
 30
0.0
 10
111.0664119754
 20
133.2884251416
 30
0.0
 10
110.3316980387
 20
133.2868440787
 30
0.0
 10
109.8240555569
 20
133.292478052
 30
0.0
  0
SPLINE
  5
6A4
100
AcDbEntity
  8
ASSI
100
AcDbSpline
 62
250
  6
CONTINUOUS
 70
0
 71
3
 72
10
 73
6
 74
0
 42
0.0000001
 43
0.0000001
 44
0.0000000001
 40
0.0
 40
0.0
 40
0.0
 40
0.0
 40
0.2131019493
 40
0.4561239675
 40
1.0
 40
1.0
 40
1.0
 40
1.0
 10
112.6240555569
 20
133.5204604481
 30
0.0
 10
112.4253487122
 20
133.510809111
 30
0.0
 10
111.9998153076
 20
133.4946211658
 30
0.0
 10
111.0664868372
 20
133.4734124607
 30
0.0
 10
110.331764465
 20
133.4721451906
 30
0.0
 10
109.8240555569
 20
133.4772804997
 30
0.0
  0
LINE
  5
6A5
100
AcDbEntity
  8
ASSI
100
AcDbLine
 62
250
  6
CONTINUOUS
 10
112.6240555569
 20
137.2217260612
 11
112.617160515
 21
137.2225734444
  0
SPLINE
  5
6A6
100
AcDbEntity
  8
ASSI
100
AcDbSpline
 62
250
  6
CONTINUOUS
 70
0
 71
3
 72
10
 73
6
 74
0
 42
0.0000001
 43
0.0000001
 44
0.0000000001
 40
0.0
 40
0.0
 40
0.0
 40
0.0
 40
0.2127985696
 40
0.4558337522
 40
1.0
 40
1.0
 40
1.0
 40
1.0
 10
112.617160515
 20
137.2225734444
 30
0.0
 10
112.4201416097
 20
137.2467304322
 30
0.0
 10
111.996904285
 20
137.2887519313
 30
0.0
 10
111.0661169069
 20
137.3510222466
 30
0.0
 10
110.3316400051
 20
137.3696010277
 30
0.0
 10
109.8240555569
 20
137.3714074781
 30
0.0
  0
SPLINE
  5
6A7
100
AcDbEntity
  8
ASSI
100
AcDbSpline
 62
250
  6
CONTINUOUS
 70
0
 71
3
 72
10
 73
6
 74
0
 42
0.0000001
 43
0.0000001
 44
0.0000000001
 40
0.0
 40
0.0
 40
0.0
 40
0.0
 40
0.2126002355
 40
0.4555977883
 40
1.0
 40
1.0
 40
1.0
 40
1.0
 10
112.6240555569
 20
137.2896520037
 30
0.0
 10
112.4268224507
 20
137.3147926387
 30
0.0
 10
112.0028512123
 20
137.3585361844
 30
0.0
 10
111.06978661
 20
137.4234334702
 30
0.0
 10
110.3331899042
 20
137.4428942367
 30
0.0
 10
109.8240555569
 20
137.4448949425
 30
0.0
  0
SPLINE
  5
6A8
100
AcDbEntity
  8
ASSI
100
AcDbSpline
 62
250
  6
CONTINUOUS
 70
0
 71
3
 72
11
 73
7
 74
0
 42
0.0000001
 43
0.0000001
 44
0.0000000001
 40
0.0
 40
0.0
 40
0.0
 40
0.0
 40
0.24413477
 40
0.4870925456
 40
0.7371486949
 40
1.0
 40
1.0
 40
1.0
 40
1.0
 10
109.8240555569
 20
151.0785527959
 30
0.0
 10
110.0786482941
 20
151.0727230469
 30
0.0
 10
110.5869731781
 20
151.0108027736
 30
0.0
 10
111.3209977637
 20
150.7657240028
 30
0.0
 10
112.0090354345
 20
150.3705438325
 30
0.0
 10
112.4144023092
 20
150.0150640013
 30
0.0
 10
112.6022382888
 20
149.8153294317
 30
0.0
  0
SPLINE
  5
6A9
100
AcDbEntity
  8
ASSI
100
AcDbSpline
 62
250
  6
CONTINUOUS
 70
0
 71
3
 72
10
 73
6
 74
0
 42
0.0000001
 43
0.0000001
 44
0.0000000001
 40
0.0
 40
0.0
 40
0.0
 40
0.0
 40
0.2131920325
 40
0.4562240761
 40
1.0
 40
1.0
 40
1.0
 40
1.0
 10
112.6240555569
 20
83.4439635752
 30
0.0
 10
112.4253153953
 20
83.454845615
 30
0.0
 10
111.9997380251
 20
83.4731060439
 30
0.0
 10
111.0664119754
 20
83.4970910566
 30
0.0
 10
110.3316980387
 20
83.4986721195
 30
0.0
 10
109.8240555569
 20
83.4930381462
 30
0.0
  0
SPLINE
  5
6AA
100
AcDbEntity
  8
ASSI
100
AcDbSpline
 62
250
  6
CONTINUOUS
 70
0
 71
3
 72
10
 73
6
 74
0
 42
0.0000001
 43
0.0000001
 44
0.0000000001
 40
0.0
 40
0.0
 40
0.0
 40
0.0
 40
0.2131019493
 40
0.4561239675
 40
1.0
 40
1.0
 40
1.0
 40
1.0
 10
112.6240555569
 20
83.2650557501
 30
0.0
 10
112.4253487122
 20
83.2747070872
 30
0.0
 10
111.9998153076
 20
83.2908950324
 30
0.0
 10
111.0664868372
 20
83.3121037374
 30
0.0
 10
110.331764465
 20
83.3133710075
 30
0.0
 10
109.8240555569
 20
83.3082356985
 30
0.0
  0
LINE
  5
6AB
100
AcDbEntity
  8
ASSI
100
AcDbLine
 62
250
  6
CONTINUOUS
 10
112.6240555569
 20
79.563790137
 11
112.617160515
 21
79.5629427538
  0
SPLINE
  5
6AC
100
AcDbEntity
  8
ASSI
100
AcDbSpline
 62
250
  6
CONTINUOUS
 70
0
 71
3
 72
10
 73
6
 74
0
 42
0.0000001
 43
0.0000001
 44
0.0000000001
 40
0.0
 40
0.0
 40
0.0
 40
0.0
 40
0.2127985696
 40
0.4558337522
 40
1.0
 40
1.0
 40
1.0
 40
1.0
 10
112.617160515
 20
79.5629427538
 30
0.0
 10
112.4201416097
 20
79.538785766
 30
0.0
 10
111.996904285
 20
79.4967642669
 30
0.0
 10
111.0661169069
 20
79.4344939516
 30
0.0
 10
110.3316400051
 20
79.4159151705
 30
0.0
 10
109.8240555569
 20
79.4141087201
 30
0.0
  0
SPLINE
  5
6AD
100
AcDbEntity
  8
ASSI
100
AcDbSpline
 62
250
  6
CONTINUOUS
 70
0
 71
3
 72
10
 73
6
 74
0
 42
0.0000001
 43
0.0000001
 44
0.0000000001
 40
0.0
 40
0.0
 40
0.0
 40
0.0
 40
0.2126002355
 40
0.4555977883
 40
1.0
 40
1.0
 40
1.0
 40
1.0
 10
112.6240555569
 20
79.4958641945
 30
0.0
 10
112.4268224507
 20
79.4707235595
 30
0.0
 10
112.0028512123
 20
79.4269800138
 30
0.0
 10
111.06978661
 20
79.362082728
 30
0.0
 10
110.3331899042
 20
79.3426219615
 30
0.0
 10
109.8240555569
 20
79.3406212557
 30
0.0
  0
SPLINE
  5
6AE
100
AcDbEntity
  8
ASSI
100
AcDbSpline
 62
250
  6
CONTINUOUS
 70
0
 71
3
 72
11
 73
7
 74
0
 42
0.0000001
 43
0.0000001
 44
0.0000000001
 40
0.0
 40
0.0
 40
0.0
 40
0.0
 40
0.24413477
 40
0.4870925456
 40
0.7371486949
 40
1.0
 40
1.0
 40
1.0
 40
1.0
 10
109.8240555569
 20
65.7069634022
 30
0.0
 10
110.0786482941
 20
65.7127931513
 30
0.0
 10
110.5869731781
 20
65.7747134246
 30
0.0
 10
111.3209977637
 20
66.0197921954
 30
0.0
 10
112.0090354345
 20
66.4149723657
 30
0.0
 10
112.4144023092
 20
66.7704521969
 30
0.0
 10
112.6022382888
 20
66.9701867665
 30
0.0
  0
SPLINE
  5
6AF
100
AcDbEntity
  8
ASSI
100
AcDbSpline
 62
250
  6
CONTINUOUS
 70
0
 71
3
 72
9
 73
5
 74
0
 42
0.0000001
 43
0.0000001
 44
0.0000000001
 40
0.0
 40
0.0
 40
0.0
 40
0.0
 40
0.5668119432
 40
1.0
 40
1.0
 40
1.0
 40
1.0
 10
107.4354956653
 20
151.508212401
 30
0.0
 10
107.4123578342
 20
151.5812862433
 30
0.0
 10
107.3689644668
 20
151.7093885801
 30
0.0
 10
107.3166870552
 20
151.8344295163
 30
0.0
 10
107.2900766653
 20
151.8866163248
 30
0.0
  0
SPLINE
  5
6B0
100
AcDbEntity
  8
ASSI
100
AcDbSpline
 62
250
  6
CONTINUOUS
 70
0
 71
3
 72
11
 73
7
 74
0
 42
0.0000001
 43
0.0000001
 44
0.0000000001
 40
0.0
 40
0.0
 40
0.0
 40
0.0
 40
0.2431567153
 40
0.4853523988
 40
0.7355870393
 40
1.0
 40
1.0
 40
1.0
 40
1.0
 10
109.8240555569
 20
151.1352438986
 30
0.0
 10
110.0806594953
 20
151.1296894031
 30
0.0
 10
110.5933301222
 20
151.0668986426
 30
0.0
 10
111.3335374421
 20
150.8158734513
 30
0.0
 10
112.0275333476
 20
150.4097165408
 30
0.0
 10
112.4352488959
 20
150.0442448704
 30
0.0
 10
112.6240555569
 20
149.8386981473
 30
0.0
  0
SPLINE
  5
6B1
100
AcDbEntity
  8
ASSI
100
AcDbSpline
 62
250
  6
CONTINUOUS
 70
0
 71
3
 72
13
 73
9
 74
0
 42
0.0000001
 43
0.0000001
 44
0.0000000001
 40
0.0
 40
0.0
 40
0.0
 40
0.0
 40
0.1201074556
 40
0.2379458254
 40
0.355616023
 40
0.4750483892
 40
0.7256029894
 40
1.0
 40
1.0
 40
1.0
 40
1.0
 10
109.8240555569
 20
151.4964182283
 30
0.0
 10
109.9512139858
 20
151.4967525195
 30
0.0
 10
110.2034023352
 20
151.4841307634
 30
0.0
 10
110.5757867828
 20
151.4240868781
 30
0.0
 10
110.9389305466
 20
151.3245510218
 30
0.0
 10
111.4199576766
 20
151.1346091989
 30
0.0
 10
112.0102232466
 20
150.7820853067
 30
0.0
 10
112.4209619252
 20
150.4009326704
 30
0.0
 10
112.6137548234
 20
150.1836195181
 30
0.0
  0
SPLINE
  5
6B2
100
AcDbEntity
  8
ASSI
100
AcDbSpline
 62
250
  6
CONTINUOUS
 70
0
 71
3
 72
13
 73
9
 74
0
 42
0.0000001
 43
0.0000001
 44
0.0000000001
 40
0.0
 40
0.0
 40
0.0
 40
0.0
 40
0.1205070283
 40
0.2386640773
 40
0.3565396606
 40
0.4760297537
 40
0.7262898982
 40
1.0
 40
1.0
 40
1.0
 40
1.0
 10
109.8240555569
 20
151.5199620146
 30
0.0
 10
109.9474223351
 20
151.5205228566
 30
0.0
 10
110.1920284216
 20
151.5090931054
 30
0.0
 10
110.5533581517
 20
151.4530485257
 30
0.0
 10
110.9058725502
 20
151.3597078877
 30
0.0
 10
111.3729855684
 20
151.1813232083
 30
0.0
 10
111.9478409632
 20
150.8497614913
 30
0.0
 10
112.3514629975
 20
150.4901196891
 30
0.0
 10
112.5421341696
 20
150.2847876284
 30
0.0
  0
SPLINE
  5
6B3
100
AcDbEntity
  8
ASSI
100
AcDbSpline
 62
250
  6
CONTINUOUS
 70
0
 71
3
 72
9
 73
5
 74
0
 42
0.0000001
 43
0.0000001
 44
0.0000000001
 40
0.0
 40
0.0
 40
0.0
 40
0.0
 40
0.2656830887
 40
1.0
 40
1.0
 40
1.0
 40
1.0
 10
107.2900766714
 20
151.8866163251
 30
0.0
 10
107.2786221149
 20
151.9090254005
 30
0.0
 10
107.2368939661
 20
151.9940553583
 30
0.0
 10
107.2009448162
 20
152.0820426829
 30
0.0
 10
107.1793585968
 20
152.1481668529
 30
0.0
  0
LINE
  5
6B4
100
AcDbEntity
  8
ASSI
100
AcDbLine
 62
250
  6
CONTINUOUS
 10
107.1793585968
 20
152.1481668529
 11
106.8420671147
 21
153.1921754375
  0
LINE
  5
6B5
100
AcDbEntity
  8
ASSI
100
AcDbLine
 62
250
  6
CONTINUOUS
 10
106.8420671147
 20
153.1921754375
 11
106.8281372734
 21
153.2357478406
  0
SPLINE
  5
6B6
100
AcDbEntity
  8
ASSI
100
AcDbSpline
 62
250
  6
CONTINUOUS
 70
0
 71
3
 72
9
 73
5
 74
0
 42
0.0000001
 43
0.0000001
 44
0.0000000001
 40
0.0
 40
0.0
 40
0.0
 40
0.0
 40
0.234889612
 40
1.0
 40
1.0
 40
1.0
 40
1.0
 10
107.1793585968
 20
64.6373493453
 30
0.0
 10
107.1862638117
 20
64.6585018034
 30
0.0
 10
107.2177796071
 20
64.747862119
 30
0.0
 10
107.2570884703
 20
64.8343635408
 30
0.0
 10
107.2900766836
 20
64.8988998989
 30
0.0
  0
SPLINE
  5
6B7
100
AcDbEntity
  8
ASSI
100
AcDbSpline
 62
250
  6
CONTINUOUS
 70
0
 71
3
 72
11
 73
7
 74
0
 42
0.0000001
 43
0.0000001
 44
0.0000000001
 40
0.0
 40
0.0
 40
0.0
 40
0.0
 40
0.2431567153
 40
0.4853523988
 40
0.7355870393
 40
1.0
 40
1.0
 40
1.0
 40
1.0
 10
109.8240555569
 20
65.6502722996
 30
0.0
 10
110.0806594953
 20
65.6558267951
 30
0.0
 10
110.5933301222
 20
65.7186175556
 30
0.0
 10
111.3335374421
 20
65.9696427469
 30
0.0
 10
112.0275333476
 20
66.3757996574
 30
0.0
 10
112.4352488959
 20
66.7412713278
 30
0.0
 10
112.6240555569
 20
66.9468180509
 30
0.0
  0
SPLINE
  5
6B8
100
AcDbEntity
  8
ASSI
100
AcDbSpline
 62
250
  6
CONTINUOUS
 70
0
 71
3
 72
13
 73
9
 74
0
 42
0.0000001
 43
0.0000001
 44
0.0000000001
 40
0.0
 40
0.0
 40
0.0
 40
0.0
 40
0.1201074556
 40
0.2379458254
 40
0.355616023
 40
0.4750483892
 40
0.7256029894
 40
1.0
 40
1.0
 40
1.0
 40
1.0
 10
109.8240555569
 20
65.2890979699
 30
0.0
 10
109.9512139858
 20
65.2887636787
 30
0.0
 10
110.2034023352
 20
65.3013854348
 30
0.0
 10
110.5757867828
 20
65.3614293201
 30
0.0
 10
110.9389305466
 20
65.4609651764
 30
0.0
 10
111.4199576766
 20
65.6509069993
 30
0.0
 10
112.0102232466
 20
66.0034308915
 30
0.0
 10
112.4209619252
 20
66.3845835278
 30
0.0
 10
112.6137548234
 20
66.6018966801
 30
0.0
  0
SPLINE
  5
6B9
100
AcDbEntity
  8
ASSI
100
AcDbSpline
 62
250
  6
CONTINUOUS
 70
0
 71
3
 72
13
 73
9
 74
0
 42
0.0000001
 43
0.0000001
 44
0.0000000001
 40
0.0
 40
0.0
 40
0.0
 40
0.0
 40
0.1205070283
 40
0.2386640773
 40
0.3565396606
 40
0.4760297537
 40
0.7262898982
 40
1.0
 40
1.0
 40
1.0
 40
1.0
 10
109.8240555569
 20
65.2655541836
 30
0.0
 10
109.9474223351
 20
65.2649933416
 30
0.0
 10
110.1920284216
 20
65.2764230928
 30
0.0
 10
110.5533581517
 20
65.3324676725
 30
0.0
 10
110.9058725502
 20
65.4258083105
 30
0.0
 10
111.3729855684
 20
65.6041929899
 30
0.0
 10
111.9478409632
 20
65.9357547069
 30
0.0
 10
112.3514629975
 20
66.2953965091
 30
0.0
 10
112.5421341696
 20
66.5007285698
 30
0.0
  0
SPLINE
  5
6BA
100
AcDbEntity
  8
ASSI
100
AcDbSpline
 62
250
  6
CONTINUOUS
 70
0
 71
3
 72
9
 73
5
 74
0
 42
0.0000001
 43
0.0000001
 44
0.0000000001
 40
0.0
 40
0.0
 40
0.0
 40
0.0
 40
0.433187918
 40
1.0
 40
1.0
 40
1.0
 40
1.0
 10
107.2900766787
 20
64.8988998991
 30
0.0
 10
107.3166871575
 20
64.9510868691
 30
0.0
 10
107.3689647241
 20
65.0761282523
 30
0.0
 10
107.4123581797
 20
65.2042310526
 30
0.0
 10
107.4354960898
 20
65.277305168
 30
0.0
  0
ENDSEC
  0
SECTION
  2
OBJECTS
  0
DICTIONARY
  5
C
100
AcDbDictionary
280
0
281
1
  3
ACAD_GROUP
350
D
  3
ACAD_MLINESTYLE
350
17
  3
ACAD_LAYOUT
350
1A
  3
ACAD_PLOTSETTINGS
350
19
  3
ACAD_PLOTSTYLENAME
350
E
  0
DICTIONARY
  5
D
102
{ACAD_REACTORS
330
C
102
}
100
AcDbDictionary
280
0
281
1
  0
ACDBDICTIONARYWDFLT
  5
E
102
{ACAD_REACTORS
330
C
102
}
100
AcDbDictionary
281
1
  3
Normal
350
F
100
AcDbDictionaryWithDefault
340
F
  0
DICTIONARY
  5
17
102
{ACAD_REACTORS
330
C
102
}
100
AcDbDictionary
280
0
281
1
  3
Standard
350
18
  0
DICTIONARY
  5
19
102
{ACAD_REACTORS
330
C
102
}
100
AcDbDictionary
281
1
  0
DICTIONARY
  5
1A
102
{ACAD_REACTORS
330
C
102
}
100
AcDbDictionary
281
1
  3
Model
350
6BB
  3
Layout1
350
6BC
  0
ACDBPLACEHOLDER
  5
F
102
{ACAD_REACTORS
330
E
102
}
  0
MLINESTYLE
  5
18
102
{ACAD_REACTORS
330
17
102
}
100
AcDbMlineStyle
  2
STANDARD
 70
0
  3

 62
256
 51
90.0
 52
90.0
 71
2
 49
0.5
 62
256
  6
BYLAYER
 49
-0.5
 62
256
  6
BYLAYER
  0
LAYOUT
  5
6BB
102
{ACAD_REACTORS
330
1A
102
}
100
AcDbPlotSettings
  1

  2
none_device
  4
ISO_A4_(297.00_x_210.00_MM)
  6

 40
0.0
 41
0.0
 42
0.0
 43
0.0
 44
297.0
 45
210.0
 46
0.0
 47
0.0
 48
0.0
 49
0.0
140
0.0
141
0.0
142
1.0
143
1.0
 70
1024
 72
1
 73
0
 74
0
  7

 75
0
147
1.0
148
0.0
149
0.0
100
AcDbLayout
  1
Model
 70
0
 71
0
 10
0.0
 20
0.0
 11
297.0
 21
210.0
 12
0.0
 22
0.0
 32
0.0
 14
0.0
 24
0.0
 34
0.0
 15
0.0
 25
0.0
 35
0.0
146
0.0
 13
0.0
 23
0.0
 33
0.0
 16
1.0
 26
0.0
 36
0.0
 17
0.0
 27
1.0
 37
0.0
 76
0
330
213
345
0
346
0
  0
LAYOUT
  5
6BC
102
{ACAD_REACTORS
330
1A
102
}
100
AcDbPlotSettings
  1

  2
none_device
  4
ISO_A4_(297.00_x_210.00_MM)
  6

 40
0.0
 41
0.0
 42
0.0
 43
0.0
 44
297.0
 45
210.0
 46
0.0
 47
0.0
 48
0.0
 49
0.0
140
0.0
141
0.0
142
1.0
143
1.0
 70
0
 72
1
 73
0
 74
0
  7

 75
0
147
1.0
148
0.0
149
0.0
100
AcDbLayout
  1
Layout1
 70
0
 71
1
 10
0.0
 20
0.0
 11
297.0
 21
210.0
 12
0.0
 22
0.0
 32
0.0
 14
0.0
 24
0.0
 34
0.0
 15
0.0
 25
0.0
 35
0.0
146
0.0
 13
0.0
 23
0.0
 33
0.0
 16
1.0
 26
0.0
 36
0.0
 17
0.0
 27
1.0
 37
0.0
 76
0
330
214
345
0
346
0
  0
ENDSEC
  0
EOF
