  0
SECTION
  2
HEADER
  9
$ACADVER
  1
AC1021
  9
$DWGCODEPAGE
  3
ANSI_1252
  9
$EXTMAX
 10
297.0
 20
210.0
 30
0.0
  9
$EXTMIN
 10
0.0
 20
0.0
 30
0.0
  9
$LIMMIN
 10
0.0
 20
0.0
  9
$LIMMAX
 10
297.0
 20
210.0
  9
$VIEWCTR
 10
148.5
 20
105.0
  9
$VIEWSIZE
 40
210.0
  9
$CLAYER
  8
0
  9
$LTSCALE
 40
16.335
  9
$CELTYPE
  6
BYLAYER
  9
$DIMSCALE
 40
1.0
  9
$DIMASZ
 40
3.0
  9
$DIMEXO
 40
1.85625
  9
$DIMDLI
 40
11.286
  9
$DIMEXE
 40
5.346
  9
$DIMCEN
 40
2.673
  9
$DIMLFAC
 40
1.0
  9
$DIMBLK
  1
_FILLED
  9
$DIMTXT
 40
3.0
  9
$DIMTOL
 70
1
  9
$DIMLIM
 70
0
  9
$DIMTFAC
 40
1.0
  9
$DIMTP
 40
0.01
  9
$DIMTM
 40
0.01
  9
$PDMODE
 70
3
  9
$PDSIZE
 40
3.0
  9
$HANDSEED
  5
69A
  9
$TILEMODE
 70
1
  9
$MEASUREMENT
 70
1
  9
$INSUNITS
 70
4
  0
ENDSEC
  0
SECTION
  2
CLASSES
  0
CLASS
  1
ACDBDICTIONARYWDFLT
  2
AcDbDictionaryWithDefault
  3
AutoCAD 2000
 90
0
 91
1
280
0
281
0
  0
CLASS
  1
ACDBPLACEHOLDER
  2
AcDbPlaceHolder
  3
AutoCAD 2000
 90
0
 91
1
280
0
281
0
  0
CLASS
  1
LAYOUT
  2
AcDbLayout
  3
AutoCAD 2000
 90
0
 91
0
280
0
281
0
  0
ENDSEC
  0
SECTION
  2
TABLES
  0
TABLE
  2
VPORT
  5
8
100
AcDbSymbolTable
 70
2
  0
VPORT
  5
1F4
100
AcDbSymbolTableRecord
100
AcDbViewportTableRecord
  2
*ACTIVE
 70
0
 10
0.0
 20
0.0
 11
1.0
 21
1.0
 12
148.5
 22
105.0
 13
0.0
 23
0.0
 14
1.0
 24
1.0
 15
0.0
 25
0.0
 16
0.0
 26
0.0
 36
1.0
 17
0.0
 27
0.0
 37
0.0
 40
210.0
 41
1.4142857143
 42
50.0
 43
0.0
 44
0.0
 50
0.0
 51
0.0
 71
0
 72
100
 73
1
 74
1
 75
0
 76
0
 77
0
 78
0
  0
ENDTAB
  0
TABLE
  2
LTYPE
  5
5
100
AcDbSymbolTable
 70
6
  0
LTYPE
  5
14
100
AcDbSymbolTableRecord
100
AcDbLinetypeTableRecord
  2
BYBLOCK
 70
0
  3

 72
65
 73
0
 40
0.0
  0
LTYPE
  5
15
100
AcDbSymbolTableRecord
100
AcDbLinetypeTableRecord
  2
BYLAYER
 70
0
  3

 72
65
 73
0
 40
0.0
  0
LTYPE
  5
16
100
AcDbSymbolTableRecord
100
AcDbLinetypeTableRecord
  2
CONTINUOUS
 70
64
  3
Solid line
 72
65
 73
0
 40
0.0
  0
LTYPE
  5
1F5
100
AcDbSymbolTableRecord
100
AcDbLinetypeTableRecord
  2
CENTER
 70
64
  3
____ _ ____ _ ____ _ ____ _ ____ _ ____ _ ____
 72
65
 73
4
 40
0.6
 49
0.375
 74
0
 49
-0.075
 74
0
 49
0.075
 74
0
 49
-0.075
 74
0
  0
LTYPE
  5
1F6
100
AcDbSymbolTableRecord
100
AcDbLinetypeTableRecord
  2
HIDDEN
 70
64
  3
- - - - - - - - - - - - - - - - - - - -
 72
65
 73
2
 40
0.2
 49
0.1
 74
0
 49
-0.1
 74
0
  0
LTYPE
  5
1F7
100
AcDbSymbolTableRecord
100
AcDbLinetypeTableRecord
  2
PHANTOM
 70
64
  3
_____ _ _ _____ _ _ _____ _ _ _____
 72
65
 73
6
 40
0.8
 49
0.45
 74
0
 49
-0.05
 74
0
 49
0.1
 74
0
 49
-0.05
 74
0
 49
0.1
 74
0
 49
-0.05
 74
0
  0
LTYPE
  5
1F8
100
AcDbSymbolTableRecord
100
AcDbLinetypeTableRecord
  2
DOT
 70
64
  3
. . . . . . . . . . . . . . . . . . . .
 72
65
 73
2
 40
0.2
 49
0.1
 74
0
 49
-0.1
 74
0
  0
LTYPE
  5
1F9
100
AcDbSymbolTableRecord
100
AcDbLinetypeTableRecord
  2
DASHED
 70
64
  3
- - - - - - - - - - - - - - - - - - - -
 72
65
 73
2
 40
0.2
 49
0.1
 74
0
 49
-0.1
 74
0
  0
ENDTAB
  0
TABLE
  2
LAYER
  5
2
100
AcDbSymbolTable
 70
36
  0
LAYER
  5
10
100
AcDbSymbolTableRecord
100
AcDbLayerTableRecord
  2
0
 70
0
 62
7
  6
CONTINUOUS
370
-3
390
F
  0
LAYER
  5
1FA
100
AcDbSymbolTableRecord
100
AcDbLayerTableRecord
  2
DEFAULT_1
 70
0
 62
7
  6
CENTER
370
-3
390
F
  0
LAYER
  5
1FB
100
AcDbSymbolTableRecord
100
AcDbLayerTableRecord
  2
DEFAULT_2
 70
0
 62
7
  6
HIDDEN
370
-3
390
F
  0
LAYER
  5
1FC
100
AcDbSymbolTableRecord
100
AcDbLayerTableRecord
  2
DEFAULT_3
 70
0
 62
7
  6
PHANTOM
370
-3
390
F
  0
LAYER
  5
1FD
100
AcDbSymbolTableRecord
100
AcDbLayerTableRecord
  2
ASSI
 70
0
 62
7
  6
CONTINUOUS
370
-3
390
F
  0
LAYER
  5
1FE
100
AcDbSymbolTableRecord
100
AcDbLayerTableRecord
  2
COORDINATE
 70
0
 62
7
  6
CONTINUOUS
370
-3
390
F
  0
LAYER
  5
1FF
100
AcDbSymbolTableRecord
100
AcDbLayerTableRecord
  2
COPY_PUBLISH
 70
0
 62
7
  6
CONTINUOUS
370
-3
390
F
  0
LAYER
  5
200
100
AcDbSymbolTableRecord
100
AcDbLayerTableRecord
  2
COSMETIC
 70
0
 62
7
  6
CONTINUOUS
370
-3
390
F
  0
LAYER
  5
201
100
AcDbSymbolTableRecord
100
AcDbLayerTableRecord
  2
COSMETICI
 70
0
 62
7
  6
CONTINUOUS
370
-3
390
F
  0
LAYER
  5
202
100
AcDbSymbolTableRecord
100
AcDbLayerTableRecord
  2
CURVE
 70
0
 62
7
  6
CONTINUOUS
370
-3
390
F
  0
LAYER
  5
203
100
AcDbSymbolTableRecord
100
AcDbLayerTableRecord
  2
DRAFT
 70
0
 62
7
  6
CONTINUOUS
370
-3
390
F
  0
LAYER
  5
204
100
AcDbSymbolTableRecord
100
AcDbLayerTableRecord
  2
IMPORT_IGES
 70
0
 62
7
  6
CONTINUOUS
370
-3
390
F
  0
LAYER
  5
205
100
AcDbSymbolTableRecord
100
AcDbLayerTableRecord
  2
INTF_1
 70
0
 62
7
  6
CONTINUOUS
370
-3
390
F
  0
LAYER
  5
206
100
AcDbSymbolTableRecord
100
AcDbLayerTableRecord
  2
NOTE
 70
0
 62
7
  6
CONTINUOUS
370
-3
390
F
  0
LAYER
  5
207
100
AcDbSymbolTableRecord
100
AcDbLayerTableRecord
  2
PIANI
 70
0
 62
7
  6
CONTINUOUS
370
-3
390
F
  0
LAYER
  5
208
100
AcDbSymbolTableRecord
100
AcDbLayerTableRecord
  2
PUNTI
 70
0
 62
7
  6
CONTINUOUS
370
-3
390
F
  0
LAYER
  5
209
100
AcDbSymbolTableRecord
100
AcDbLayerTableRecord
  2
RACCORDO
 70
0
 62
7
  6
CONTINUOUS
370
-3
390
F
  0
LAYER
  5
20A
100
AcDbSymbolTableRecord
100
AcDbLayerTableRecord
  2
SIMBOLI
 70
0
 62
7
  6
CONTINUOUS
370
-3
390
F
  0
LAYER
  5
20B
100
AcDbSymbolTableRecord
100
AcDbLayerTableRecord
  2
SMUSSO
 70
0
 62
7
  6
CONTINUOUS
370
-3
390
F
  0
LAYER
  5
20C
100
AcDbSymbolTableRecord
100
AcDbLayerTableRecord
  2
SNAPLINE
 70
0
 62
7
  6
CONTINUOUS
370
-3
390
F
  0
LAYER
  5
20D
100
AcDbSymbolTableRecord
100
AcDbLayerTableRecord
  2
SUPERFICI
 70
0
 62
7
  6
CONTINUOUS
370
-3
390
F
  0
LAYER
  5
20E
100
AcDbSymbolTableRecord
100
AcDbLayerTableRecord
  2
TRASH
 70
0
 62
7
  6
CONTINUOUS
370
-3
390
F
  0
LAYER
  5
20F
100
AcDbSymbolTableRecord
100
AcDbLayerTableRecord
  2
XSEC_DATUMS
 70
0
 62
7
  6
CONTINUOUS
370
-3
390
F
  0
ENDTAB
  0
TABLE
  2
STYLE
  5
3
100
AcDbSymbolTable
 70
1
  0
STYLE
  5
11
100
AcDbSymbolTableRecord
100
AcDbTextStyleTableRecord
  2
STANDARD
 70
0
 40
0.0
 41
0.8
 50
0.0
 71
0
 42
0.2
  3
txt
  4

  0
STYLE
  5
210
100
AcDbSymbolTableRecord
100
AcDbTextStyleTableRecord
  2
TEXTSTYLE_1
 70
0
 40
0.0
 41
0.8
 50
0.0
 71
0
 42
0.2
  3
gdt
  4

  0
ENDTAB
  0
TABLE
  2
VIEW
  5
6
100
AcDbSymbolTable
 70
0
  0
ENDTAB
  0
TABLE
  2
UCS
  5
7
100
AcDbSymbolTable
 70
0
  0
ENDTAB
  0
TABLE
  2
APPID
  5
9
100
AcDbSymbolTable
 70
1
  0
APPID
  5
211
100
AcDbSymbolTableRecord
100
AcDbRegAppTableRecord
  2
ACAD
 70
0
  0
ENDTAB
  0
TABLE
  2
BLOCK_RECORD
  5
1
100
AcDbSymbolTable
 70
0
  0
BLOCK_RECORD
  5
212
100
AcDbSymbolTableRecord
100
AcDbBlockTableRecord
  2
*Model_Space
  0
BLOCK_RECORD
  5
213
100
AcDbSymbolTableRecord
100
AcDbBlockTableRecord
  2
*Paper_Space
  0
BLOCK_RECORD
  5
214
100
AcDbSymbolTableRecord
100
AcDbBlockTableRecord
  2
_FILLED
  0
BLOCK_RECORD
  5
215
100
AcDbSymbolTableRecord
100
AcDbBlockTableRecord
  2
*D0
  0
BLOCK_RECORD
  5
216
100
AcDbSymbolTableRecord
100
AcDbBlockTableRecord
  2
*D1
  0
BLOCK_RECORD
  5
217
100
AcDbSymbolTableRecord
100
AcDbBlockTableRecord
  2
*D2
  0
BLOCK_RECORD
  5
218
100
AcDbSymbolTableRecord
100
AcDbBlockTableRecord
  2
*D3
  0
BLOCK_RECORD
  5
219
100
AcDbSymbolTableRecord
100
AcDbBlockTableRecord
  2
*D4
  0
ENDTAB
  0
TABLE
  2
DIMSTYLE
  5
A
100
AcDbSymbolTable
 70
1
100
AcDbDimStyleTable
 71
0
  0
DIMSTYLE
105
21A
100
AcDbSymbolTableRecord
100
AcDbDimStyleTableRecord
  2
STANDARD
 70
0
  3

  4

 40
1.0
 41
3.0
 42
0.0625
 43
0.38
 44
0.18
 45
0.0
 46
0.0
 47
0.01
 48
0.01
140
3.0
141
0.09
142
0.0
143
25.4
144
1.0
145
0.0
146
1.0
147
0.09
 71
1.0
 72
0.0
 73
0
 74
0
 75
0
 76
0
 77
1
 78
8
170
0
171
2
172
0
173
0
174
0
175
0
176
0
177
0
178
0
270
2
271
2
272
2
273
2
274
2
275
0
280
0
281
0
282
0
283
1
284
8
285
0
286
0
287
3
288
0
340
11
341
214
342
214
343
214
344
214
  0
DIMSTYLE
105
21B
100
AcDbSymbolTableRecord
100
AcDbDimStyleTableRecord
  2
DIMSTYLE_1
 70
0
  3

  4

 40
1.0
 41
3.0
 42
0.0625
 43
0.38
 44
0.18
 45
0.0
 46
0.0
 47
0.0
 48
0.0
140
3.0
141
0.09
142
0.0
143
25.4
144
1.0
145
0.0
146
1.0
147
0.09
 71
0.0
 72
0.0
 73
0
 74
0
 75
0
 76
0
 77
1
 78
8
170
0
171
2
172
0
173
0
174
0
175
0
176
0
177
0
178
0
270
2
271
2
272
2
273
2
274
2
275
0
280
0
281
0
282
0
283
1
284
8
285
0
286
0
287
3
288
0
340
11
341
214
342
214
343
214
344
214
  0
DIMSTYLE
105
21C
100
AcDbSymbolTableRecord
100
AcDbDimStyleTableRecord
  2
DIMSTYLE_2
 70
0
  3

  4

 40
1.0
 41
3.0
 42
0.0625
 43
0.38
 44
0.18
 45
0.0
 46
0.0
 47
0.0
 48
0.0
140
3.0
141
0.09
142
0.0
143
25.4
144
1.0
145
0.0
146
1.0
147
0.09
 71
0.0
 72
0.0
 73
0
 74
0
 75
0
 76
0
 77
1
 78
8
170
0
171
2
172
0
173
0
174
0
175
0
176
0
177
0
178
0
270
2
271
1
272
1
273
2
274
2
275
0
280
0
281
0
282
0
283
1
284
8
285
0
286
0
287
3
288
0
340
11
341
214
342
214
343
214
344
214
  0
ENDTAB
  0
ENDSEC
  0
SECTION
  2
BLOCKS
  0
BLOCK
  5
20
100
AcDbEntity
  8
0
100
AcDbBlockBegin
  2
*Model_Space
 70
0
 10
0.0
 20
0.0
 30
0.0
  3
*Model_Space
  1

  0
ENDBLK
  5
21
100
AcDbEntity
  8
0
100
AcDbBlockEnd
  0
BLOCK
  5
1C
100
AcDbEntity
  8
0
100
AcDbBlockBegin
  2
*Paper_Space
 70
0
 10
0.0
 20
0.0
 30
0.0
  3
*Paper_Space
  1

  0
ENDBLK
  5
1D
100
AcDbEntity
  8
0
100
AcDbBlockEnd
  0
BLOCK
  5
21D
100
AcDbEntity
  8
0
100
AcDbBlockBegin
  2
_FILLED
 70
64
 10
0.0
 20
0.0
  3
_FILLED
  1

  0
SOLID
  5
21E
100
AcDbEntity
  8
0
  6
BYBLOCK
 62
0
100
AcDbTrace
 10
0.0
 20
0.0
 11
-1.0
 21
0.3166666667
 12
-1.0
 22
-0.3166666667
 13
-1.0
 23
-0.3166666667
  0
ENDBLK
  5
21F
100
AcDbEntity
  8
0
  6
BYBLOCK
 62
0
100
AcDbBlockEnd
  0
BLOCK
  5
220
100
AcDbEntity
  8
0
100
AcDbBlockBegin
 62
7
  6
CONTINUOUS
  2
*D0
 70
65
 10
0.0
 20
0.0
  3
*D0
  1

  0
MTEXT
  5
221
100
AcDbEntity
  8
0
100
AcDbMText
 62
7
  6
CONTINUOUS
  7
STANDARD
 71
2
 72
1
 10
4.9696278382
 20
71.3236274869
 30
0.0
 11
1.0
 21
0.0
 31
0.0
 44
0.9
  1
210
 40
3.0
 41
6.4285714286
  0
LINE
  5
222
100
AcDbEntity
  8
0
100
AcDbLine
 62
7
  6
CONTINUOUS
 10
109.9696278382
 20
0.0736274869
 11
109.9696278382
 21
69.0736274869
  0
LINE
  5
223
100
AcDbEntity
  8
0
100
AcDbLine
 62
7
  6
CONTINUOUS
 10
-100.0303721618
 20
0.0736274869
 11
-100.0303721618
 21
69.0736274869
  0
LINE
  5
224
100
AcDbEntity
  8
0
100
AcDbLine
 62
7
  6
CONTINUOUS
 10
109.9696278382
 20
67.5736274869
 11
4.9696278382
 21
67.5736274869
  0
LINE
  5
225
100
AcDbEntity
  8
0
100
AcDbLine
 62
7
  6
CONTINUOUS
 10
-100.0303721618
 20
67.5736274869
 11
4.9696278382
 21
67.5736274869
  0
INSERT
  5
226
100
AcDbEntity
  8
0
100
AcDbBlockReference
 62
7
  6
CONTINUOUS
  2
_FILLED
 10
109.9696278382
 20
67.5736274869
 41
3.0
 42
3.0
 43
3.0
  0
INSERT
  5
227
100
AcDbEntity
  8
0
100
AcDbBlockReference
 62
7
  6
CONTINUOUS
  2
_FILLED
 10
-100.0303721618
 20
67.5736274869
 41
3.0
 42
3.0
 43
3.0
 50
180.0
  0
ENDBLK
  5
228
100
AcDbEntity
  8
0
  6
BYBLOCK
 62
0
100
AcDbBlockEnd
  0
BLOCK
  5
229
100
AcDbEntity
  8
0
100
AcDbBlockBegin
 62
7
  6
CONTINUOUS
  2
*D1
 70
65
 10
0.0
 20
0.0
  3
*D1
  1

  0
MTEXT
  5
22A
100
AcDbEntity
  8
0
100
AcDbMText
 62
7
  6
CONTINUOUS
  7
STANDARD
 71
2
 72
1
 10
129.2803721618
 20
-0.4263725131
 30
0.0
 11
0.0
 21
1.0
 31
0.0
 44
0.9
  1
90
 40
3.0
 41
4.7142857143
  0
LINE
  5
22B
100
AcDbEntity
  8
0
100
AcDbLine
 62
7
  6
CONTINUOUS
 10
5.4696278382
 20
44.5736274869
 11
134.5303721618
 21
44.5736274869
  0
LINE
  5
22C
100
AcDbEntity
  8
0
100
AcDbLine
 62
7
  6
CONTINUOUS
 10
5.4696278382
 20
-45.4263725131
 11
134.5303721618
 21
-45.4263725131
  0
LINE
  5
22D
100
AcDbEntity
  8
0
100
AcDbLine
 62
7
  6
CONTINUOUS
 10
133.0303721618
 20
44.5736274869
 11
133.0303721618
 21
-0.4263725131
  0
LINE
  5
22E
100
AcDbEntity
  8
0
100
AcDbLine
 62
7
  6
CONTINUOUS
 10
133.0303721618
 20
-45.4263725131
 11
133.0303721618
 21
-0.4263725131
  0
INSERT
  5
22F
100
AcDbEntity
  8
0
100
AcDbBlockReference
 62
7
  6
CONTINUOUS
  2
_FILLED
 10
133.0303721618
 20
44.5736274869
 41
3.0
 42
3.0
 43
3.0
 50
90.0
  0
INSERT
  5
230
100
AcDbEntity
  8
0
100
AcDbBlockReference
 62
7
  6
CONTINUOUS
  2
_FILLED
 10
133.0303721618
 20
-45.4263725131
 41
3.0
 42
3.0
 43
3.0
 50
270.0
  0
ENDBLK
  5
231
100
AcDbEntity
  8
0
  6
BYBLOCK
 62
0
100
AcDbBlockEnd
  0
BLOCK
  5
232
100
AcDbEntity
  8
0
100
AcDbBlockBegin
 62
7
  6
CONTINUOUS
  2
*D2
 70
65
 10
0.0
 20
0.0
  3
*D2
  1

  0
MTEXT
  5
233
100
AcDbEntity
  8
0
100
AcDbMText
 62
7
  6
CONTINUOUS
  7
STANDARD
 71
3
 72
1
 10
-141.7971763403
 20
61.3236274869
 30
0.0
 11
1.0
 21
0.0
 31
0.0
 44
0.9
  1
9,1
 40
3.0
 41
5.7857142857
  0
LINE
  5
234
100
AcDbEntity
  8
0
100
AcDbLine
 62
7
  6
CONTINUOUS
 10
-129.410894655
 20
42.7277774252
 11
-129.410894655
 21
59.0736274869
  0
LINE
  5
235
100
AcDbEntity
  8
0
100
AcDbLine
 62
7
  6
CONTINUOUS
 10
-138.5390135812
 20
3.0155526069
 11
-138.5390135812
 21
59.0736274869
  0
LINE
  5
236
100
AcDbEntity
  8
0
100
AcDbLine
 62
7
  6
CONTINUOUS
 10
-129.410894655
 20
57.5736274869
 11
-125.410894655
 21
57.5736274869
  0
LINE
  5
237
100
AcDbEntity
  8
0
100
AcDbLine
 62
7
  6
CONTINUOUS
 10
-125.410894655
 20
57.5736274869
 11
-133.9749541181
 21
57.5736274869
  0
LINE
  5
238
100
AcDbEntity
  8
0
100
AcDbLine
 62
7
  6
CONTINUOUS
 10
-138.5390135812
 20
57.5736274869
 11
-147.582890626
 21
57.5736274869
  0
LINE
  5
239
100
AcDbEntity
  8
0
100
AcDbLine
 62
7
  6
CONTINUOUS
 10
-147.582890626
 20
57.5736274869
 11
-133.9749541181
 21
57.5736274869
  0
INSERT
  5
23A
100
AcDbEntity
  8
0
100
AcDbBlockReference
 62
7
  6
CONTINUOUS
  2
_FILLED
 10
-129.410894655
 20
57.5736274869
 41
3.0
 42
3.0
 43
3.0
 50
180.0
  0
INSERT
  5
23B
100
AcDbEntity
  8
0
100
AcDbBlockReference
 62
7
  6
CONTINUOUS
  2
_FILLED
 10
-138.5390135812
 20
57.5736274869
 41
3.0
 42
3.0
 43
3.0
  0
ENDBLK
  5
23C
100
AcDbEntity
  8
0
  6
BYBLOCK
 62
0
100
AcDbBlockEnd
  0
BLOCK
  5
23D
100
AcDbEntity
  8
0
100
AcDbBlockBegin
 62
7
  6
CONTINUOUS
  2
*D3
 70
65
 10
0.0
 20
0.0
  3
*D3
  1

  0
MTEXT
  5
23E
100
AcDbEntity
  8
0
100
AcDbMText
 62
7
  6
CONTINUOUS
  7
STANDARD
 71
2
 72
1
 10
4.9696278382
 20
61.3236274869
 30
0.0
 11
1.0
 21
0.0
 31
0.0
 44
0.9
  1
157,7
 40
3.0
 41
10.2857142857
  0
LINE
  5
23F
100
AcDbEntity
  8
0
100
AcDbLine
 62
7
  6
CONTINUOUS
 10
-73.9001047925
 20
21.7736274869
 11
-73.9001047925
 21
59.0736274869
  0
LINE
  5
240
100
AcDbEntity
  8
0
100
AcDbLine
 62
7
  6
CONTINUOUS
 10
83.8393604689
 20
21.7736274869
 11
83.8393604689
 21
59.0736274869
  0
LINE
  5
241
100
AcDbEntity
  8
0
100
AcDbLine
 62
7
  6
CONTINUOUS
 10
-73.9001047925
 20
57.5736274869
 11
4.9696278382
 21
57.5736274869
  0
LINE
  5
242
100
AcDbEntity
  8
0
100
AcDbLine
 62
7
  6
CONTINUOUS
 10
83.8393604689
 20
57.5736274869
 11
4.9696278382
 21
57.5736274869
  0
INSERT
  5
243
100
AcDbEntity
  8
0
100
AcDbBlockReference
 62
7
  6
CONTINUOUS
  2
_FILLED
 10
-73.9001047925
 20
57.5736274869
 41
3.0
 42
3.0
 43
3.0
 50
180.0
  0
INSERT
  5
244
100
AcDbEntity
  8
0
100
AcDbBlockReference
 62
7
  6
CONTINUOUS
  2
_FILLED
 10
83.8393604689
 20
57.5736274869
 41
3.0
 42
3.0
 43
3.0
  0
ENDBLK
  5
245
100
AcDbEntity
  8
0
  6
BYBLOCK
 62
0
100
AcDbBlockEnd
  0
BLOCK
  5
246
100
AcDbEntity
  8
0
100
AcDbBlockBegin
 62
7
  6
CONTINUOUS
  2
*D4
 70
65
 10
0.0
 20
0.0
  3
*D4
  1

  0
MTEXT
  5
247
100
AcDbEntity
  8
0
100
AcDbMText
 62
7
  6
CONTINUOUS
  7
STANDARD
 71
2
 72
1
 10
119.2803721618
 20
-0.4263725131
 30
0.0
 11
0.0
 21
1.0
 31
0.0
 44
0.9
  1
45
 40
3.0
 41
4.5
  0
LINE
  5
248
100
AcDbEntity
  8
0
100
AcDbLine
 62
7
  6
CONTINUOUS
 10
83.5196278382
 20
22.0920508885
 11
124.5303721618
 21
22.0920508885
  0
LINE
  5
249
100
AcDbEntity
  8
0
100
AcDbLine
 62
7
  6
CONTINUOUS
 10
83.5196278382
 20
-22.9447959146
 11
124.5303721618
 21
-22.9447959146
  0
LINE
  5
24A
100
AcDbEntity
  8
0
100
AcDbLine
 62
7
  6
CONTINUOUS
 10
123.0303721618
 20
22.0920508885
 11
123.0303721618
 21
-0.4263725131
  0
LINE
  5
24B
100
AcDbEntity
  8
0
100
AcDbLine
 62
7
  6
CONTINUOUS
 10
123.0303721618
 20
-22.9447959146
 11
123.0303721618
 21
-0.4263725131
  0
INSERT
  5
24C
100
AcDbEntity
  8
0
100
AcDbBlockReference
 62
7
  6
CONTINUOUS
  2
_FILLED
 10
123.0303721618
 20
22.0920508885
 41
3.0
 42
3.0
 43
3.0
 50
90.0
  0
INSERT
  5
24D
100
AcDbEntity
  8
0
100
AcDbBlockReference
 62
7
  6
CONTINUOUS
  2
_FILLED
 10
123.0303721618
 20
-22.9447959146
 41
3.0
 42
3.0
 43
3.0
 50
270.0
  0
ENDBLK
  5
24E
100
AcDbEntity
  8
0
  6
BYBLOCK
 62
0
100
AcDbBlockEnd
  0
ENDSEC
  0
SECTION
  2
ENTITIES
  0
DIMENSION
  5
24F
100
AcDbEntity
  8
0
100
AcDbDimension
 62
7
  6
CONTINUOUS
  2
*D0
 10
-100.0303721618
 20
67.5736274869
 11
1.7553421239
 21
69.8236274869
 70
160
 71
2
 42
210.0
  3
DIMSTYLE_1
100
AcDbAlignedDimension
 13
109.9696278382
 23
0.0736274869
 14
-100.0303721618
 24
0.0736274869
 50
180.0
100
AcDbRotatedDimension
  0
DIMENSION
  5
250
100
AcDbEntity
  8
0
100
AcDbDimension
 62
7
  6
CONTINUOUS
  2
*D1
 10
133.0303721618
 20
-45.4263725131
 11
131.8365456855
 21
-2.533650363
 70
160
 71
2
 42
90.0
  3
DIMSTYLE_1
100
AcDbAlignedDimension
 13
5.4696278382
 23
44.5736274869
 14
5.4696278382
 24
-45.4263725131
 50
270.0
100
AcDbRotatedDimension
  0
DIMENSION
  5
251
100
AcDbEntity
  8
0
100
AcDbDimension
 62
7
  6
CONTINUOUS
  2
*D2
 10
-138.5390135812
 20
57.5736274869
 11
-150.4757477689
 21
59.8236274869
 70
160
 71
3
 42
9.1281189261
  3
DIMSTYLE_2
100
AcDbAlignedDimension
 13
-129.410894655
 23
42.7277774252
 14
-138.5390135812
 24
3.0155526069
 50
180.0
100
AcDbRotatedDimension
  0
DIMENSION
  5
252
100
AcDbEntity
  8
0
100
AcDbDimension
 62
7
  6
CONTINUOUS
  2
*D3
 10
83.8393604689
 20
57.5736274869
 11
-0.1732293046
 21
59.8236274869
 70
160
 71
2
 42
157.7394652614
  3
DIMSTYLE_2
100
AcDbAlignedDimension
 13
-73.9001047925
 23
21.7736274869
 14
83.8393604689
 24
21.7736274869
100
AcDbRotatedDimension
  0
DIMENSION
  5
253
100
AcDbEntity
  8
0
100
AcDbDimension
 62
7
  6
CONTINUOUS
  2
*D4
 10
123.0303721618
 20
-22.9447959146
 11
121.7885377981
 21
-2.4378650062
 70
160
 71
2
 42
45.0368468031
  3
DIMSTYLE_2
100
AcDbAlignedDimension
 13
83.5196278382
 23
22.0920508885
 14
83.5196278382
 24
-22.9447959146
 50
270.0
100
AcDbRotatedDimension
  0
LINE
  5
254
100
AcDbEntity
  8
DRAFT
100
AcDbLine
 62
7
  6
CONTINUOUS
 10
-98.7206409042
 20
-25.9712574287
 11
-98.7827184762
 21
-25.371716807
  0
LINE
  5
255
100
AcDbEntity
  8
RACCORDO
100
AcDbLine
 62
253
  6
CONTINUOUS
 10
-98.6126910077
 20
-25.3238432402
 11
-98.5477092868
 21
-25.9517873777
  0
LINE
  5
256
100
AcDbEntity
  8
RACCORDO
100
AcDbLine
 62
253
  6
CONTINUOUS
 10
-98.3451275791
 20
-25.3084328416
 11
-98.2803440864
 21
-25.9352565451
  0
LINE
  5
257
100
AcDbEntity
  8
RACCORDO
100
AcDbLine
 62
253
  6
CONTINUOUS
 10
-98.6630667969
 20
-24.8160024137
 11
-98.6126910077
 21
-25.3238432402
  0
LINE
  5
258
100
AcDbEntity
  8
RACCORDO
100
AcDbLine
 62
253
  6
CONTINUOUS
 10
-98.3954862463
 20
-24.8004314291
 11
-98.3451275791
 21
-25.3084328416
  0
LINE
  5
259
100
AcDbEntity
  8
DRAFT
100
AcDbLine
 62
7
  6
CONTINUOUS
 10
-98.7827184762
 20
-25.371716807
 11
-98.8361547289
 21
-24.8329814784
  0
LWPOLYLINE
  5
25A
100
AcDbEntity
  8
DRAFT
100
AcDbPolyline
 62
7
  6
CONTINUOUS
 90
19
 70
0
 10
-98.8361547289
 20
-24.8329814784
 10
-99.0864869757
 20
-22.1294137398
 10
-99.3075227466
 20
-19.4232381414
 10
-99.4991994979
 20
-16.7145334801
 10
-99.6614578033
 20
-14.0029077239
 10
-99.7942550237
 20
-11.2889114659
 10
-99.8975679643
 20
-8.5740385537
 10
-99.9713628057
 20
-5.8586568128
 10
-100.015624262
 20
-3.1425597608
 10
-100.0303721618
 20
-0.4263805845
 10
-100.0156243309
 20
2.2898009244
 10
-99.9713629379
 20
5.0059028243
 10
-99.8975681216
 20
7.7212887036
 10
-99.7942551431
 20
10.43616392
 10
-99.6614578503
 20
13.1501617726
 10
-99.4991994908
 20
15.861788563
 10
-99.3075227216
 20
18.5704937479
 10
-99.0864869528
 20
21.2766693097
 10
-98.8361547289
 20
23.9802364522
  0
LWPOLYLINE
  5
25B
100
AcDbEntity
  8
RACCORDO
100
AcDbPolyline
 62
253
  6
CONTINUOUS
 90
19
 70
0
 10
-98.6630667969
 20
23.9632573875
 10
-98.9132306158
 20
21.2625445186
 10
-99.1340926187
 20
18.5587966259
 10
-99.3256117329
 20
15.8523113979
 10
-99.4877443812
 20
13.1434708882
 10
-99.6204616116
 20
10.4325724438
 10
-99.7237373955
 20
7.719786539
 10
-99.7975395406
 20
5.0052814142
 10
-99.8418345439
 20
2.2896322923
 10
-99.8566011753
 20
-0.426379499
 10
-99.8418343876
 20
-3.1423916877
 10
-99.7975392131
 20
-5.8580414975
 10
-99.7237368969
 20
-8.5725468456
 10
-99.6204609593
 20
-11.2853324586
 10
-99.4877436068
 20
-13.9962301475
 10
-99.3256109222
 20
-16.705068837
 10
-99.1340919074
 20
-19.4115509829
 10
-98.9132301633
 20
-22.1152947364
 10
-98.6630667969
 20
-24.8160024137
  0
LWPOLYLINE
  5
25C
100
AcDbEntity
  8
RACCORDO
100
AcDbPolyline
 62
253
  6
CONTINUOUS
 90
19
 70
0
 10
-98.3954862463
 20
23.9476864029
 10
-98.645560374
 20
21.2482964966
 10
-98.8663725146
 20
18.5463520628
 10
-99.0578610653
 20
15.8419308663
 10
-99.2199656949
 20
13.1348953413
 10
-99.3526465353
 20
10.4255395829
 10
-99.4558853751
 20
7.7145896309
 10
-99.5296641302
 20
5.0019154554
 10
-99.5739494665
 20
2.2878059567
 10
-99.5887151985
 20
-0.4263836562
 10
-99.5739492022
 20
-3.1405736373
 10
-99.5296636009
 20
-5.8546837716
 10
-99.4558846022
 20
-8.5673581474
 10
-99.3526454867
 20
-11.2783081549
 10
-99.2199643931
 20
-13.9876635336
 10
-99.0578597199
 20
-16.6946966701
 10
-98.8663714008
 20
-19.399112946
 10
-98.6455597078
 20
-22.1010504533
 10
-98.3954862463
 20
-24.8004314291
  0
LINE
  5
25D
100
AcDbEntity
  8
DRAFT
100
AcDbLine
 62
7
  6
CONTINUOUS
 10
-98.8361547289
 20
23.9802364522
 11
-98.7672367538
 21
24.6728743463
  0
LINE
  5
25E
100
AcDbEntity
  8
RACCORDO
100
AcDbLine
 62
253
  6
CONTINUOUS
 10
-98.5942146536
 20
24.6547360779
 11
-98.6630667969
 21
23.9632573875
  0
LINE
  5
25F
100
AcDbEntity
  8
RACCORDO
100
AcDbLine
 62
253
  6
CONTINUOUS
 10
-98.3266568612
 20
24.6394629417
 11
-98.3954862463
 21
23.9476864029
  0
LWPOLYLINE
  5
260
100
AcDbEntity
  8
DRAFT
100
AcDbPolyline
 62
7
  6
CONTINUOUS
 90
10
 70
0
 10
-98.7672367538
 20
24.6728743463
 10
-98.7206415157
 20
25.1185074666
 10
-98.6707980331
 20
25.5638698816
 10
-98.6177079223
 20
26.0089572056
 10
-98.5613738143
 20
26.4537868243
 10
-98.5017965446
 20
26.8983326075
 10
-98.4389752209
 20
27.3425249563
 10
-98.3729109363
 20
27.7863378353
 10
-98.3036067026
 20
28.2297887253
 10
-98.2310646867
 20
28.6728733686
  0
LWPOLYLINE
  5
261
100
AcDbEntity
  8
RACCORDO
100
AcDbPolyline
 62
253
  6
CONTINUOUS
 90
10
 70
0
 10
-97.7937514036
 20
28.6162369593
 10
-97.8658443135
 20
28.1757662946
 10
-97.9347216156
 20
27.7349165294
 10
-98.0003812134
 20
27.2936917038
 10
-98.0628212233
 20
26.8520674521
 10
-98.1220395518
 20
26.4100762579
 10
-98.1780339786
 20
25.9678075137
 10
-98.2308026829
 20
25.5252938142
 10
-98.2803441611
 20
25.0825108976
 10
-98.3266568612
 20
24.6394629417
  0
LWPOLYLINE
  5
262
100
AcDbEntity
  8
RACCORDO
100
AcDbPolyline
 62
253
  6
CONTINUOUS
 90
10
 70
0
 10
-98.0591306158
 20
28.643052563
 10
-98.1315188668
 20
28.2013373598
 10
-98.2006771631
 20
27.7592031548
 10
-98.2666040251
 20
27.316672952
 10
-98.3292990116
 20
26.8737629331
 10
-98.3887597314
 20
26.4305053291
 10
-98.4449822561
 20
25.9869472729
 10
-98.4979651185
 20
25.5431210726
 10
-98.5477092189
 20
25.0990429778
 10
-98.5942146564
 20
24.6547360782
  0
LWPOLYLINE
  5
263
100
AcDbEntity
  8
DRAFT
100
AcDbPolyline
 62
7
  6
CONTINUOUS
 90
49
 70
0
 10
-98.2310646867
 20
28.6728733686
 10
-98.1507879188
 20
29.1211991377
 10
-98.0559951799
 20
29.5732669768
 10
-97.9466891795
 20
30.0290688865
 10
-97.8221715955
 20
30.4917802261
 10
-97.6831456754
 20
30.9582067551
 10
-97.5317243955
 20
31.4187949443
 10
-97.3671117624
 20
31.8730288092
 10
-97.1901265665
 20
32.3214263176
 10
-97.005315495
 20
32.7560028364
 10
-96.8142537193
 20
33.1727277757
 10
-96.6153957166
 20
33.5756545851
 10
-96.408607927
 20
33.968929214
 10
-96.1948361432
 20
34.3521242118
 10
-95.973154035
 20
34.7256805223
 10
-95.7406151485
 20
35.0950373316
 10
-95.4963483525
 20
35.4622253551
 10
-95.2412389242
 20
35.8252156899
 10
-94.9749735319
 20
36.1833534862
 10
-94.697630544
 20
36.5366379865
 10
-94.4091459679
 20
36.8850752403
 10
-94.1089932688
 20
37.2280221581
 10
-93.7971669094
 20
37.5655809511
 10
-93.4736860931
 20
37.8976566712
 10
-93.1380615128
 20
38.2233123315
 10
-92.7896059688
 20
38.5431035071
 10
-92.4290190308
 20
38.8564841114
 10
-92.0578907576
 20
39.160868507
 10
-91.6755637467
 20
39.4563756014
 10
-91.2827039984
 20
39.7429019328
 10
-90.8828841104
 20
40.0175339408
 10
-90.4769665124
 20
40.279452603
 10
-90.0640904034
 20
40.5294981127
 10
-89.6452408636
 20
40.7672487129
 10
-89.2205936569
 20
40.9926082435
 10
-88.7899695971
 20
41.2056925787
 10
-88.353819823
 20
41.4063979772
 10
-87.9120126724
 20
41.5948427513
 10
-87.4646718602
 20
41.7709260255
 10
-87.0126301388
 20
41.9342150198
 10
-86.555688685
 20
42.0847151894
 10
-86.0940336353
 20
42.2224362689
 10
-85.6290736229
 20
42.3469516308
 10
-85.1608072308
 20
42.4582174514
 10
-84.689218952
 20
42.556289721
 10
-84.2156950418
 20
42.6408909334
 10
-83.7406908187
 20
42.7119314246
 10
-83.2637308364
 20
42.7695092376
 10
-82.7848044335
 20
42.813627487
  0
LWPOLYLINE
  5
264
100
AcDbEntity
  8
RACCORDO
100
AcDbPolyline
 62
253
  6
CONTINUOUS
 90
97
 70
0
 10
-98.0591307386
 20
-29.4957969909
 10
-98.0179097841
 20
-29.731340918
 10
-97.9702819116
 20
-29.981784574
 10
-97.915550017
 20
-30.2469439932
 10
-97.8525519595
 20
-30.528432121
 10
-97.7808695347
 20
-30.8241645911
 10
-97.7011583028
 20
-31.1284336808
 10
-97.6128995064
 20
-31.440944375
 10
-97.5155567682
 20
-31.7614538629
 10
-97.4103513772
 20
-32.0844506075
 10
-97.2968957541
 20
-32.4101676023
 10
-97.1751464112
 20
-32.7378041895
 10
-97.0475579181
 20
-33.0605370519
 10
-96.9141075537
 20
-33.3787707416
 10
-96.7751345153
 20
-33.6920279218
 10
-96.6344958019
 20
-33.9926001678
 10
-96.4942703204
 20
-34.2777816868
 10
-96.3536860972
 20
-34.550750223
 10
-96.2127355686
 20
-34.8127597643
 10
-96.0738607704
 20
-35.0605729963
 10
-95.9357680838
 20
-35.2977055993
 10
-95.7922369222
 20
-35.5351624654
 10
-95.6408686614
 20
-35.7764011626
 10
-95.483822971
 20
-36.0174705316
 10
-95.3211764306
 20
-36.2579793043
 10
-95.1522126373
 20
-36.4986934394
 10
-94.9774585564
 20
-36.7385733863
 10
-94.7989989854
 20
-36.9746814634
 10
-94.6167220372
 20
-37.2072322626
 10
-94.4308687065
 20
-37.4359798246
 10
-94.2443643633
 20
-37.6575618659
 10
-94.0579306767
 20
-37.8715489663
 10
-93.8712937669
 20
-38.0786670189
 10
-93.6861268914
 20
-38.2775054005
 10
-93.5034275123
 20
-38.4675332706
 10
-93.3227673428
 20
-38.6497131309
 10
-93.1437394099
 20
-38.8248891422
 10
-92.9664550015
 20
-38.9933340064
 10
-92.7913148572
 20
-39.1550324403
 10
-92.6183101952
 20
-39.3103395845
 10
-92.4472952372
 20
-39.459697432
 10
-92.2788288635
 20
-39.6029171222
 10
-92.113960226
 20
-39.7394351719
 10
-91.9529439086
 20
-39.8693900682
 10
-91.7959442327
 20
-39.9929947956
 10
-91.6439024217
 20
-40.1098578147
 10
-91.4976794202
 20
-40.2196860178
 10
-91.356800415
 20
-40.323183905
 10
-91.2201732796
 20
-40.4214367953
 10
-91.0882484131
 20
-40.5143682877
 10
-90.9608264526
 20
-40.6023542209
 10
-90.8357618476
 20
-40.6870485775
 10
-90.7131168438
 20
-40.7685310071
 10
-90.5929533543
 20
-40.846877975
 10
-90.4730434404
 20
-40.9236149521
 10
-90.3530731574
 20
-40.9989679855
 10
-90.2333755044
 20
-41.0727528585
 10
-90.1126403547
 20
-41.1457846906
 10
-89.9903274072
 20
-41.2183658925
 10
-89.8669564806
 20
-41.2901636566
 10
-89.7427927436
 20
-41.3610131545
 10
-89.6177936993
 20
-41.4309321043
 10
-89.4919935611
 20
-41.4998948854
 10
-89.3657819902
 20
-41.5676886628
 10
-89.2392073594
 20
-41.6342954331
 10
-89.1122320598
 20
-41.6997428986
 10
-88.9851317798
 20
-41.7639000531
 10
-88.8584006232
 20
-41.8265398052
 10
-88.731591136
 20
-41.8879052718
 10
-88.6035560589
 20
-41.948547999
 10
-88.4746718029
 20
-42.0082735656
 10
-88.3445789902
 20
-42.0672322807
 10
-88.210987438
 20
-42.1264047983
 10
-88.0738819644
 20
-42.1857038362
 10
-87.9332465727
 20
-42.2450404191
 10
-87.7867418794
 20
-42.3052660077
 10
-87.6340267672
 20
-42.366337323
 10
-87.4753590865
 20
-42.4279627866
 10
-87.3092567091
 20
-42.4905046448
 10
-87.1353906699
 20
-42.5538346868
 10
-86.9539488492
 20
-42.6176231486
 10
-86.7641993346
 20
-42.6818492073
 10
-86.5658227448
 20
-42.7463142217
 10
-86.35897479
 20
-42.8106499832
 10
-86.1436276117
 20
-42.8745435425
 10
-85.9199331925
 20
-42.9376232883
 10
-85.6876168494
 20
-42.9996296855
 10
-85.4460104205
 20
-43.060373704
 10
-85.1955902752
 20
-43.1193519348
 10
-84.9358386914
 20
-43.1762898009
 10
-84.6645835193
 20
-43.2311869233
 10
-84.3818434457
 20
-43.2834881225
 10
-84.0875884539
 20
-43.3326307263
 10
-83.7795415627
 20
-43.3783528066
 10
-83.4569359254
 20
-43.420014355
 10
-83.1205407884
 20
-43.4567300079
 10
-82.7703939409
 20
-43.4877010645
  0
LWPOLYLINE
  5
265
100
AcDbEntity
  8
RACCORDO
100
AcDbPolyline
 62
253
  6
CONTINUOUS
 90
97
 70
0
 10
-97.7937514036
 20
-29.4689819855
 10
-97.7544463505
 20
-29.7011414892
 10
-97.7074162163
 20
-29.9475775443
 10
-97.6526558451
 20
-30.2082831904
 10
-97.5903607432
 20
-30.4852791694
 10
-97.5203239037
 20
-30.7765281252
 10
-97.4419395487
 20
-31.0759382593
 10
-97.3548446504
 20
-31.3834574524
 10
-97.2593981153
 20
-31.6991253341
 10
-97.1560836908
 20
-32.0169943072
 10
-97.0442766017
 20
-32.3374199137
 10
-96.9246043587
 20
-32.6600401928
 10
-96.7994355315
 20
-32.9778398442
 10
-96.6680568181
 20
-33.2909610306
 10
-96.5311906269
 20
-33.5992651079
 10
-96.3933644142
 20
-33.8953258599
 10
-96.2557350477
 20
-34.176165431
 10
-96.1171583669
 20
-34.4447773477
 10
-95.9787112309
 20
-34.7026966609
 10
-95.8426424296
 20
-34.9468651039
 10
-95.7067116163
 20
-35.1803540077
 10
-95.5652586459
 20
-35.4138852406
 10
-95.4164204274
 20
-35.6512647117
 10
-95.2620626897
 20
-35.8886835378
 10
-95.1021166967
 20
-36.1254353884
 10
-94.9358839429
 20
-36.362295143
 10
-94.7640665412
 20
-36.5984870576
 10
-94.5886971627
 20
-36.830981313
 10
-94.4094042678
 20
-37.059836458
 10
-94.2265634355
 20
-37.2849974551
 10
-94.0433281518
 20
-37.5032681943
 10
-93.860044413
 20
-37.7139406208
 10
-93.6763694443
 20
-37.9177307169
 10
-93.4944231022
 20
-38.1135810814
 10
-93.3148730121
 20
-38.3007584482
 10
-93.137053283
 20
-38.4800048354
 10
-92.9610829798
 20
-38.6524756264
 10
-92.7868502544
 20
-38.8183591912
 10
-92.6144677391
 20
-38.9774737179
 10
-92.4443909305
 20
-39.1304182563
 10
-92.2762917657
 20
-39.2774801811
 10
-92.1104984186
 20
-39.4183775696
 10
-91.9484504303
 20
-39.5528552248
 10
-91.7901892327
 20
-39.6808380861
 10
-91.6356727753
 20
-39.8024064802
 10
-91.4862150505
 20
-39.9175382677
 10
-91.3425071883
 20
-40.0257609868
 10
-91.2038569286
 20
-40.127551831
 10
-91.0695031702
 20
-40.2243125083
 10
-90.9398328309
 20
-40.3158956512
 10
-90.8144580431
 20
-40.4024517548
 10
-90.6914558732
 20
-40.4858281941
 10
-90.5708909561
 20
-40.566107438
 10
-90.4526981259
 20
-40.6432087151
 10
-90.3347601791
 20
-40.7187335301
 10
-90.2168002643
 20
-40.7929438481
 10
-90.0990951069
 20
-40.865578426
 10
-89.980358196
 20
-40.9374533182
 10
-89.8600782697
 20
-41.0088991993
 10
-89.738766684
 20
-41.0795856782
 10
-89.6166709435
 20
-41.1493370473
 10
-89.4937456493
 20
-41.2181645908
 10
-89.3700361816
 20
-41.2860574414
 10
-89.2459261436
 20
-41.352806755
 10
-89.1214441346
 20
-41.4183836485
 10
-88.9965614278
 20
-41.4828175142
 10
-88.87157557
 20
-41.5459869949
 10
-88.7469517328
 20
-41.6076783129
 10
-88.6222245141
 20
-41.6681058156
 10
-88.4962956621
 20
-41.7277902416
 10
-88.3695519198
 20
-41.7866212992
 10
-88.2416064817
 20
-41.8447095905
 10
-88.1102010263
 20
-41.9029069007
 10
-87.9753682018
 20
-41.9613011649
 10
-87.8370756384
 20
-42.0198043676
 10
-87.6929677856
 20
-42.0790040632
 10
-87.5427827808
 20
-42.1391053807
 10
-87.3867830673
 20
-42.1999028336
 10
-87.2233997035
 20
-42.261367929
 10
-87.0524001916
 20
-42.3236641941
 10
-86.8740176602
 20
-42.3866277459
 10
-86.6873814974
 20
-42.4497390997
 10
-86.4922580939
 20
-42.5131245785
 10
-86.2888814226
 20
-42.5766577421
 10
-86.0770818365
 20
-42.6394402941
 10
-85.8570472012
 20
-42.7014710228
 10
-85.628589324
 20
-42.7627514647
 10
-85.3909738187
 20
-42.8223878631
 10
-85.144674608
 20
-42.8803981276
 10
-84.8892164814
 20
-42.9367650546
 10
-84.6224404431
 20
-42.9905426127
 10
-84.3443684121
 20
-43.0419332352
 10
-84.0549756827
 20
-43.0907354825
 10
-83.7520317432
 20
-43.135397969
 10
-83.4347907411
 20
-43.1754041362
 10
-83.1039925004
 20
-43.2112719326
 10
-82.7596337579
 20
-43.2430019258
  0
LWPOLYLINE
  5
266
100
AcDbEntity
  8
DRAFT
100
AcDbPolyline
 62
7
  6
CONTINUOUS
 90
9
 70
0
 10
-98.2310645334
 20
-29.5256193722
 10
-98.3036070014
 20
-29.0825315295
 10
-98.3729114472
 20
-28.6390792006
 10
-98.4389757053
 20
-28.1952666444
 10
-98.5017965937
 20
-27.7510777009
 10
-98.5613731934
 20
-27.3065370878
 10
-98.6177069125
 20
-26.8617104451
 10
-98.6707970843
 20
-26.4166225812
 10
-98.7206409042
 20
-25.9712574287
  0
LWPOLYLINE
  5
267
100
AcDbEntity
  8
RACCORDO
100
AcDbPolyline
 62
253
  6
CONTINUOUS
 90
9
 70
0
 10
-98.5477092868
 20
-25.9517873777
 10
-98.4979653023
 20
-26.3958645102
 10
-98.4449825305
 20
-26.8396900694
 10
-98.3887600581
 20
-27.2832478508
 10
-98.3292993506
 20
-27.7265054999
 10
-98.2666043494
 20
-28.1694157457
 10
-98.2006774485
 20
-28.6119463112
 10
-98.1315190791
 20
-29.0540810599
 10
-98.0591307167
 20
-29.4957969872
  0
LWPOLYLINE
  5
268
100
AcDbEntity
  8
RACCORDO
100
AcDbPolyline
 62
253
  6
CONTINUOUS
 90
9
 70
0
 10
-98.2803440864
 20
-25.9352565451
 10
-98.2308025502
 20
-26.3780399256
 10
-98.1780338046
 20
-26.8205539313
 10
-98.1220393514
 20
-27.2628228215
 10
-98.0628210135
 20
-27.7048140042
 10
-98.0003810181
 20
-28.1464380955
 10
-97.9347214612
 20
-28.5876626147
 10
-97.8658442242
 20
-29.0285119247
 10
-97.7937514036
 20
-29.4689819855
  0
LINE
  5
269
100
AcDbEntity
  8
RACCORDO
100
AcDbLine
 62
253
  6
CONTINUOUS
 10
-82.7848044345
 20
42.8136274869
 11
-82.7703939059
 21
42.634956041
  0
LINE
  5
26A
100
AcDbEntity
  8
RACCORDO
100
AcDbLine
 62
253
  6
CONTINUOUS
 10
-82.7596337578
 20
42.3902568992
 11
-82.7631071987
 21
42.4403072015
  0
LINE
  5
26B
100
AcDbEntity
  8
RACCORDO
100
AcDbLine
 62
253
  6
CONTINUOUS
 10
-82.7631071987
 20
42.4403072015
 11
-82.7660776413
 21
42.4872524685
  0
LWPOLYLINE
  5
26C
100
AcDbEntity
  8
RACCORDO
100
AcDbPolyline
 62
253
  6
CONTINUOUS
 90
11
 70
0
 10
-82.7660776413
 20
42.4872524685
 10
-82.7684557496
 20
42.5296808278
 10
-82.7693995693
 20
42.5487960196
 10
-82.7701700021
 20
42.5663162524
 10
-82.7707612444
 20
42.5821095481
 10
-82.7711688425
 20
42.5960569372
 10
-82.7713897259
 20
42.6080533555
 10
-82.7714222307
 20
42.6180084351
 10
-82.7712661119
 20
42.6258471855
 10
-82.7709225456
 20
42.6315105581
 10
-82.7703941198
 20
42.6349558912
  0
LWPOLYLINE
  5
26D
100
AcDbEntity
  8
RACCORDO
100
AcDbPolyline
 62
7
  6
CONTINUOUS
 90
19
 70
0
 10
-74.1860455377
 20
-22.1328158398
 10
-74.1836428318
 20
-22.18599511
 10
-74.1786850065
 20
-22.2392172172
 10
-74.1711513912
 20
-22.2923562157
 10
-74.160996306
 20
-22.3453866281
 10
-74.1482262917
 20
-22.3980979756
 10
-74.1329384279
 20
-22.450097046
 10
-74.1152014216
 20
-22.501193507
 10
-74.0950388291
 20
-22.5513283665
 10
-74.072528729
 20
-22.6003220739
 10
-74.0477646293
 20
-22.6480161448
 10
-74.0207985985
 20
-22.6943701713
 10
-73.9916405715
 20
-22.7393802273
 10
-73.9602897924
 20
-22.7830319989
 10
-73.9268696045
 20
-22.8251346121
 10
-73.8915950761
 20
-22.8654262017
 10
-73.8546166267
 20
-22.9037855608
 10
-73.8159954811
 20
-22.9401992324
 10
-73.7758495158
 20
-22.9745964007
  0
LINE
  5
26E
100
AcDbEntity
  8
RACCORDO
100
AcDbLine
 62
253
  6
CONTINUOUS
 10
-77.7848044345
 20
43.0974611957
 11
-77.7780804458
 21
42.9183875204
  0
LWPOLYLINE
  5
26F
100
AcDbEntity
  8
SUPERFICI
100
AcDbPolyline
 62
7
  6
CONTINUOUS
 90
25
 70
0
 10
-73.9001047925
 20
-22.1263725131
 10
-73.8982303906
 20
-22.1799382404
 10
-73.8928565408
 20
-22.2333137269
 10
-73.8839965305
 20
-22.2862700319
 10
-73.8716564614
 20
-22.3386592952
 10
-73.8558913695
 20
-22.3901712732
 10
-73.8368574207
 20
-22.4403507444
 10
-73.8147667272
 20
-22.4888075886
 10
-73.7896790036
 20
-22.5355543631
 10
-73.761520071
 20
-22.5807346902
 10
-73.730261952
 20
-22.6242900089
 10
-73.6961034067
 20
-22.6658488974
 10
-73.6592943367
 20
-22.7050799251
 10
-73.6199918008
 20
-22.7418152713
 10
-73.5783646892
 20
-22.7758960507
 10
-73.53474783
 20
-22.8070720556
 10
-73.4895082444
 20
-22.8351477257
 10
-73.442708225
 20
-22.8601478348
 10
-73.3942214101
 20
-22.8821404269
 10
-73.3440511381
 20
-22.9010638099
 10
-73.2925743743
 20
-22.9167167297
 10
-73.2402189913
 20
-22.9289542027
 10
-73.1872843016
 20
-22.9377213487
 10
-73.1339259962
 20
-22.9430070421
 10
-73.0803721618
 20
-22.9447959146
  0
LWPOLYLINE
  5
270
100
AcDbEntity
  8
RACCORDO
100
AcDbPolyline
 62
253
  6
CONTINUOUS
 90
34
 70
0
 10
-74.5792846345
 20
-22.1430876032
 10
-74.5777570713
 20
-22.1891320238
 10
-74.5750273393
 20
-22.2343298814
 10
-74.5710954656
 20
-22.2786811856
 10
-74.5659261581
 20
-22.3221098939
 10
-74.55955476
 20
-22.3646920682
 10
-74.5520872476
 20
-22.4066558729
 10
-74.5435426867
 20
-22.4480350439
 10
-74.5339020513
 20
-22.488795858
 10
-74.5232141765
 20
-22.529065287
 10
-74.5115006968
 20
-22.5688421395
 10
-74.4987400118
 20
-22.6081276168
 10
-74.4849161028
 20
-22.6470522769
 10
-74.4700424487
 20
-22.6856444978
 10
-74.4541056029
 20
-22.7238759083
 10
-74.4370491584
 20
-22.7617919404
 10
-74.4187883236
 20
-22.799540493
 10
-74.399407923
 20
-22.8369736722
 10
-74.3791059699
 20
-22.8736932249
 10
-74.3577799472
 20
-22.909756794
 10
-74.3355323909
 20
-22.9451067498
 10
-74.312868876
 20
-22.9791719398
 10
-74.2898484494
 20
-23.0117916278
 10
-74.2664120545
 20
-23.0431265739
 10
-74.2428880954
 20
-23.073087876
 10
-74.2193412104
 20
-23.1015921673
 10
-74.1957067397
 20
-23.1287228367
 10
-74.1721191359
 20
-23.1546411147
 10
-74.1485882683
 20
-23.1793533067
 10
-74.1251042459
 20
-23.2028531238
 10
-74.101771881
 20
-23.2252829023
 10
-74.0786261043
 20
-23.2466900912
 10
-74.055631964
 20
-23.2670272541
 10
-74.0327894498
 20
-23.2862943968
  0
LINE
  5
271
100
AcDbEntity
  8
RACCORDO
100
AcDbLine
 62
253
  6
CONTINUOUS
 10
-77.7749388647
 20
42.6735278982
 11
-77.777088395
 21
42.7476737728
  0
LINE
  5
272
100
AcDbEntity
  8
RACCORDO
100
AcDbLine
 62
253
  6
CONTINUOUS
 10
-77.777088395
 20
42.7476737728
 11
-77.7781458535
 21
42.7925975858
  0
LWPOLYLINE
  5
273
100
AcDbEntity
  8
RACCORDO
100
AcDbPolyline
 62
253
  6
CONTINUOUS
 90
10
 70
0
 10
-77.7781458535
 20
42.7925975858
 10
-77.7788643898
 20
42.8323219974
 10
-77.77908939
 20
42.8498539022
 10
-77.7792223912
 20
42.8656521388
 10
-77.7792623914
 20
42.8795976844
 10
-77.7792090894
 20
42.8915854743
 10
-77.7790628865
 20
42.9015251933
 10
-77.7788248844
 20
42.9093419563
 10
-77.7784968761
 20
42.9149768723
 10
-77.7780813328
 20
42.9183874883
  0
LINE
  5
274
100
AcDbEntity
  8
RACCORDO
100
AcDbLine
 62
253
  6
CONTINUOUS
 10
-73.9895484752
 20
-22.1263811422
 11
-73.9963820863
 21
-18.8927785395
  0
LINE
  5
275
100
AcDbEntity
  8
RACCORDO
100
AcDbLine
 62
253
  6
CONTINUOUS
 10
-74.0191268888
 20
-35.375344554
 11
-74.0013765631
 21
-43.6580070845
  0
LINE
  5
276
100
AcDbEntity
  8
RACCORDO
100
AcDbLine
 62
253
  6
CONTINUOUS
 10
-74.5940440834
 20
-14.2202902014
 11
-74.5792846345
 21
-22.1430876032
  0
LINE
  5
277
100
AcDbEntity
  8
RACCORDO
100
AcDbLine
 62
7
  6
CONTINUOUS
 10
-74.1997826466
 20
-14.9014253097
 11
-74.1860690347
 21
-22.1328158297
  0
LINE
  5
278
100
AcDbEntity
  8
RACCORDO
100
AcDbLine
 62
7
  6
CONTINUOUS
 10
-74.2080182464
 20
-7.6655104575
 11
-74.1997826466
 21
-14.9014253097
  0
LINE
  5
279
100
AcDbEntity
  8
RACCORDO
100
AcDbLine
 62
253
  6
CONTINUOUS
 10
-74.0300367136
 20
-27.0325645183
 11
-74.0191268888
 21
-35.375344554
  0
LINE
  5
27A
100
AcDbEntity
  8
RACCORDO
100
AcDbLine
 62
253
  6
CONTINUOUS
 10
-74.0327894498
 20
-23.2862943968
 11
-74.0300367136
 21
-27.0325645183
  0
LINE
  5
27B
100
AcDbEntity
  8
RACCORDO
100
AcDbLine
 62
253
  6
CONTINUOUS
 10
-74.6030764684
 20
-4.7384383934
 11
-74.5940440834
 21
-14.2202902014
  0
LINE
  5
27C
100
AcDbEntity
  8
RACCORDO
100
AcDbLine
 62
7
  6
CONTINUOUS
 10
-74.210754966
 20
-0.4263725132
 11
-74.2080182464
 21
-7.6655104575
  0
LINE
  5
27D
100
AcDbEntity
  8
RACCORDO
100
AcDbLine
 62
253
  6
CONTINUOUS
 10
-74.6030823911
 20
3.8759264575
 11
-74.6030764684
 21
-4.7384383934
  0
LINE
  5
27E
100
AcDbEntity
  8
RACCORDO
100
AcDbLine
 62
7
  6
CONTINUOUS
 10
-74.2080191927
 20
6.8122923111
 11
-74.2107549833
 21
-0.4263725132
  0
LINE
  5
27F
100
AcDbEntity
  8
RACCORDO
100
AcDbLine
 62
253
  6
CONTINUOUS
 10
-74.5973314004
 20
10.8808880531
 11
-74.6030823911
 21
3.8759264575
  0
LINE
  5
280
100
AcDbEntity
  8
RACCORDO
100
AcDbLine
 62
253
  6
CONTINUOUS
 10
-74.0327894498
 20
22.4335493707
 11
-74.027953
 21
28.26957946
  0
LINE
  5
281
100
AcDbEntity
  8
RACCORDO
100
AcDbLine
 62
7
  6
CONTINUOUS
 10
-74.1997814371
 20
14.0481623076
 11
-74.2080191927
 21
6.8122923111
  0
LINE
  5
282
100
AcDbEntity
  8
RACCORDO
100
AcDbLine
 62
253
  6
CONTINUOUS
 10
-74.027953
 20
28.26957946
 11
-74.019126889
 21
34.5225995279
  0
LWPOLYLINE
  5
283
100
AcDbEntity
  8
RACCORDO
100
AcDbPolyline
 62
253
  6
CONTINUOUS
 90
3
 70
0
 10
-74.5792846245
 20
21.2903476582
 10
-74.5850192102
 20
18.572032157
 10
-74.5973314004
 20
10.8808880531
  0
LINE
  5
284
100
AcDbEntity
  8
RACCORDO
100
AcDbLine
 62
7
  6
CONTINUOUS
 10
-74.1860690929
 20
21.280064989
 11
-74.1997814371
 21
14.0481623076
  0
LWPOLYLINE
  5
285
100
AcDbEntity
  8
RACCORDO
100
AcDbPolyline
 62
253
  6
CONTINUOUS
 90
3
 70
0
 10
-74.019126889
 20
34.5225995279
 10
-74.0064525026
 20
40.741799245
 10
-74.0013765608
 20
42.8052620584
  0
LWPOLYLINE
  5
286
100
AcDbEntity
  8
RACCORDO
100
AcDbPolyline
 62
253
  6
CONTINUOUS
 90
8
 70
0
 10
-77.77908939
 20
-43.7025989284
 10
-77.7792223912
 20
-43.718397165
 10
-77.7792623915
 20
-43.7323427106
 10
-77.7792090894
 20
-43.7443305005
 10
-77.7790628866
 20
-43.7542702195
 10
-77.7788248844
 20
-43.7620869825
 10
-77.7784968761
 20
-43.7677218985
 10
-77.7780813328
 20
-43.7711325145
  0
LINE
  5
287
100
AcDbEntity
  8
RACCORDO
100
AcDbLine
 62
253
  6
CONTINUOUS
 10
-77.7785490858
 20
-43.6659335346
 11
-77.77908939
 21
-43.7025989284
  0
LINE
  5
288
100
AcDbEntity
  8
RACCORDO
100
AcDbLine
 62
253
  6
CONTINUOUS
 10
-77.7776577307
 20
-43.6234493861
 11
-77.7785490858
 21
-43.6659335346
  0
LWPOLYLINE
  5
289
100
AcDbEntity
  8
RACCORDO
100
AcDbPolyline
 62
253
  6
CONTINUOUS
 90
52
 70
0
 10
-73.9895541221
 20
21.2736321675
 10
-73.9887124753
 20
21.3106744354
 10
-73.9862881429
 20
21.3485352848
 10
-73.9821744917
 20
21.387141451
 10
-73.976187619
 20
21.4268631192
 10
-73.9682617689
 20
21.46714686
 10
-73.958652645
 20
21.5065555594
 10
-73.9475082005
 20
21.5448200056
 10
-73.9348653829
 20
21.5820962937
 10
-73.9210865295
 20
21.6176613625
 10
-73.9064369683
 20
21.6512955727
 10
-73.8909957077
 20
21.6832235201
 10
-73.8749275416
 20
21.7134362155
 10
-73.8584095107
 20
21.7419075817
 10
-73.8415537473
 20
21.7687200823
 10
-73.8244054947
 20
21.7940314979
 10
-73.8071023121
 20
21.8178399605
 10
-73.7897242513
 20
21.8402205171
 10
-73.7721867322
 20
21.8614281896
 10
-73.7545858892
 20
21.8814653959
 10
-73.7369692443
 20
21.900389202
 10
-73.719128574
 20
21.9185015083
 10
-73.7010962416
 20
21.9358203463
 10
-73.6829174019
 20
21.9523512056
 10
-73.6643574203
 20
21.9683353918
 10
-73.6453947557
 20
21.9837968857
 10
-73.6260843272
 20
21.9986963844
 10
-73.6062767965
 20
22.0131466628
 10
-73.5859144606
 20
22.0271729601
 10
-73.5650698842
 20
22.0407086226
 10
-73.5437815873
 20
22.0537178278
 10
-73.5219911399
 20
22.0662231509
 10
-73.4997793146
 20
22.0781653361
 10
-73.4774066299
 20
22.0894085677
 10
-73.4548883855
 20
22.0999616705
 10
-73.432255668
 20
22.1098256418
 10
-73.4098124942
 20
22.1188967112
 10
-73.3876858521
 20
22.1271693692
 10
-73.3658091017
 20
22.1347131524
 10
-73.3442025671
 20
22.1415596055
 10
-73.3229892315
 20
22.147710974
 10
-73.3020938981
 20
22.1532293003
 10
-73.2812310722
 20
22.1582138196
 10
-73.2604604971
 20
22.1626637432
 10
-73.2397508188
 20
22.1665990534
 10
-73.2186675258
 20
22.170097731
 10
-73.1972005579
 20
22.1731398393
 10
-73.1753773437
 20
22.1756997854
 10
-73.1528117955
 20
22.17778693
 10
-73.1293808216
 20
22.1793557429
 10
-73.1052282838
 20
22.1803378773
 10
-73.080369016
 20
22.1806776001
  0
LWPOLYLINE
  5
28A
100
AcDbEntity
  8
RACCORDO
100
AcDbPolyline
 62
253
  6
CONTINUOUS
 90
3
 70
0
 10
-77.7749388647
 20
-43.5262729244
 10
-77.7757238218
 20
-43.551646846
 10
-77.7776577307
 20
-43.6234493861
  0
LWPOLYLINE
  5
28B
100
AcDbEntity
  8
0
100
AcDbPolyline
 62
7
  6
CONTINUOUS
 90
25
 70
0
 10
-73.9001047925
 20
21.2736274869
 10
-73.8982303906
 20
21.3271932142
 10
-73.8928565408
 20
21.3805687007
 10
-73.8839965305
 20
21.4335250058
 10
-73.8716564614
 20
21.485914269
 10
-73.8558913695
 20
21.537426247
 10
-73.8368574207
 20
21.5876057182
 10
-73.8147667272
 20
21.6360625624
 10
-73.7896790036
 20
21.6828093369
 10
-73.761520071
 20
21.727989664
 10
-73.730261952
 20
21.7715449827
 10
-73.6961034067
 20
21.8131038712
 10
-73.6592943367
 20
21.8523348989
 10
-73.6199918008
 20
21.8890702452
 10
-73.5783646892
 20
21.9231510245
 10
-73.53474783
 20
21.9543270294
 10
-73.4895082444
 20
21.9824026995
 10
-73.442708225
 20
22.0074028086
 10
-73.3942214101
 20
22.0293954007
 10
-73.3440511381
 20
22.0483187837
 10
-73.2925743743
 20
22.0639717035
 10
-73.2402189913
 20
22.0762091765
 10
-73.1872843016
 20
22.0849763225
 10
-73.1339259962
 20
22.0902620159
 10
-73.0803721618
 20
22.0920508885
  0
LINE
  5
28C
100
AcDbEntity
  8
RACCORDO
100
AcDbLine
 62
253
  6
CONTINUOUS
 10
-77.7848044345
 20
-43.9502062219
 11
-77.7780803188
 21
-43.7711325512
  0
LWPOLYLINE
  5
28D
100
AcDbEntity
  8
RACCORDO
100
AcDbPolyline
 62
253
  6
CONTINUOUS
 90
10
 70
0
 10
-82.7684557466
 20
-43.3824259131
 10
-82.7693995664
 20
-43.4015411148
 10
-82.7701699996
 20
-43.4190613572
 10
-82.7707612427
 20
-43.4348546619
 10
-82.7711688418
 20
-43.4488020595
 10
-82.7713897265
 20
-43.4607984855
 10
-82.771422233
 20
-43.4707535719
 10
-82.7712661164
 20
-43.4785923282
 10
-82.7709225527
 20
-43.4842557056
 10
-82.7703941299
 20
-43.4877010425
  0
LINE
  5
28E
100
AcDbEntity
  8
RACCORDO
100
AcDbLine
 62
253
  6
CONTINUOUS
 10
-82.7660776387
 20
-43.3399975334
 11
-82.7684557466
 21
-43.3824259131
  0
LINE
  5
28F
100
AcDbEntity
  8
RACCORDO
100
AcDbLine
 62
253
  6
CONTINUOUS
 10
-82.7631071973
 20
-43.2930522465
 11
-82.7660776387
 21
-43.3399975334
  0
LINE
  5
290
100
AcDbEntity
  8
RACCORDO
100
AcDbLine
 62
253
  6
CONTINUOUS
 10
-82.7596337579
 20
-43.2430019258
 11
-82.7631071973
 21
-43.2930522465
  0
LINE
  5
291
100
AcDbEntity
  8
RACCORDO
100
AcDbLine
 62
253
  6
CONTINUOUS
 10
-82.7848044345
 20
-43.6663725131
 11
-82.7703939409
 21
-43.4877010645
  0
LINE
  5
292
100
AcDbEntity
  8
RACCORDO
100
AcDbLine
 62
253
  6
CONTINUOUS
 10
-73.9628293507
 20
43.0513991229
 11
-73.9689257368
 21
43.2304956863
  0
LINE
  5
293
100
AcDbEntity
  8
RACCORDO
100
AcDbLine
 62
253
  6
CONTINUOUS
 10
-74.0013766976
 20
42.8052620537
 11
-74.0056164785
 21
42.9448295148
  0
LINE
  5
294
100
AcDbEntity
  8
RACCORDO
100
AcDbLine
 62
253
  6
CONTINUOUS
 10
-73.9565951781
 20
42.8067894678
 11
-73.9608304791
 21
42.9463554313
  0
LINE
  5
295
100
AcDbEntity
  8
RACCORDO
100
AcDbLine
 62
253
  6
CONTINUOUS
 10
-74.0056164785
 20
42.9448295148
 11
-74.0069537556
 21
42.9972377628
  0
LINE
  5
296
100
AcDbEntity
  8
RACCORDO
100
AcDbLine
 62
253
  6
CONTINUOUS
 10
-73.9608304791
 20
42.9463554313
 11
-73.9621661494
 21
42.9987630062
  0
LINE
  5
297
100
AcDbEntity
  8
RACCORDO
100
AcDbLine
 62
253
  6
CONTINUOUS
 10
-73.0810065105
 20
22.3741137504
 11
-73.0862903225
 21
22.5941798626
  0
LWPOLYLINE
  5
298
100
AcDbEntity
  8
RACCORDO
100
AcDbPolyline
 62
253
  6
CONTINUOUS
 90
6
 70
0
 10
-74.0069537556
 20
42.9972377628
 10
-74.0074853806
 20
43.0231351382
 10
-74.0076363915
 20
43.0330577848
 10
-74.0077091584
 20
43.0408583235
 10
-74.0077031337
 20
43.0464780249
 10
-74.0076183625
 20
43.0498745788
  0
LWPOLYLINE
  5
299
100
AcDbEntity
  8
RACCORDO
100
AcDbPolyline
 62
253
  6
CONTINUOUS
 90
6
 70
0
 10
-73.9621661494
 20
42.9987630062
 10
-73.9626970199
 20
43.0246600345
 10
-73.9628477579
 20
43.0345825472
 10
-73.9629203244
 20
43.0423829815
 10
-73.9629141733
 20
43.0480026097
 10
-73.9628293507
 20
43.0513991229
  0
LINE
  5
29A
100
AcDbEntity
  8
RACCORDO
100
AcDbLine
 62
253
  6
CONTINUOUS
 10
-73.0862903225
 20
22.5941798626
 11
-73.0900484165
 21
22.7848252171
  0
LINE
  5
29B
100
AcDbEntity
  8
0
100
AcDbLine
 62
7
  6
CONTINUOUS
 10
-73.9001047925
 20
-22.1263725131
 11
-73.9138726986
 21
-14.8953306966
  0
LINE
  5
29C
100
AcDbEntity
  8
RACCORDO
100
AcDbLine
 62
253
  6
CONTINUOUS
 10
-73.9963820863
 20
-18.8927785395
 11
-74.0048141476
 21
-13.8475205958
  0
LINE
  5
29D
100
AcDbEntity
  8
RACCORDO
100
AcDbLine
 62
253
  6
CONTINUOUS
 10
-74.0048141476
 20
-13.8475205958
 11
-74.0108702607
 21
-8.4805263346
  0
LINE
  5
29E
100
AcDbEntity
  8
0
100
AcDbLine
 62
7
  6
CONTINUOUS
 10
-73.9138726986
 20
-14.8953306966
 11
-73.9221339428
 21
-7.6618064035
  0
LINE
  5
29F
100
AcDbEntity
  8
RACCORDO
100
AcDbLine
 62
253
  6
CONTINUOUS
 10
-74.0108702607
 20
-8.4805263346
 11
-74.0139376679
 21
-2.5482644108
  0
LINE
  5
2A0
100
AcDbEntity
  8
0
100
AcDbLine
 62
7
  6
CONTINUOUS
 10
-73.9221339428
 20
-7.6618064035
 11
-73.9248881987
 21
-0.4263725131
  0
LINE
  5
2A1
100
AcDbEntity
  8
RACCORDO
100
AcDbLine
 62
253
  6
CONTINUOUS
 10
-73.0803721618
 20
22.3741189565
 11
-73.0803721618
 21
22.0920508885
  0
LINE
  5
2A2
100
AcDbEntity
  8
RACCORDO
100
AcDbLine
 62
253
  6
CONTINUOUS
 10
-73.0803721619
 20
-23.2268639827
 11
-73.0803721618
 21
-22.9447959146
  0
LINE
  5
2A3
100
AcDbEntity
  8
RACCORDO
100
AcDbLine
 62
253
  6
CONTINUOUS
 10
-74.0139376679
 20
-2.5482644108
 11
-74.013686392
 21
2.7760737543
  0
LINE
  5
2A4
100
AcDbEntity
  8
0
100
AcDbLine
 62
7
  6
CONTINUOUS
 10
-73.9248881987
 20
-0.4263725131
 11
-73.9221339428
 21
6.8090613773
  0
LINE
  5
2A5
100
AcDbEntity
  8
RACCORDO
100
AcDbLine
 62
253
  6
CONTINUOUS
 10
-74.013686392
 20
2.7760737543
 11
-74.0048649787
 21
12.949493672
  0
LINE
  5
2A6
100
AcDbEntity
  8
0
100
AcDbLine
 62
7
  6
CONTINUOUS
 10
-73.9221339428
 20
6.8090613773
 11
-73.9138726986
 21
14.0425856704
  0
LWPOLYLINE
  5
2A7
100
AcDbEntity
  8
RACCORDO
100
AcDbPolyline
 62
253
  6
CONTINUOUS
 90
3
 70
0
 10
-74.0048649787
 20
12.949493672
 10
-73.9926609747
 20
19.8567903382
 10
-73.989548483
 20
21.2736321672
  0
LINE
  5
2A8
100
AcDbEntity
  8
0
100
AcDbLine
 62
7
  6
CONTINUOUS
 10
-73.9138726986
 20
14.0425856704
 11
-73.9001047925
 21
21.2736274869
  0
LWPOLYLINE
  5
2A9
100
AcDbEntity
  8
RACCORDO
100
AcDbPolyline
 62
253
  6
CONTINUOUS
 90
4
 70
0
 10
-74.0076363915
 20
-43.885802811
 10
-74.0077091584
 20
-43.8936033497
 10
-74.0077031337
 20
-43.8992230511
 10
-74.0076183625
 20
-43.902619605
  0
LWPOLYLINE
  5
2AA
100
AcDbEntity
  8
RACCORDO
100
AcDbPolyline
 62
253
  6
CONTINUOUS
 90
4
 70
0
 10
-73.9628477581
 20
-43.88732758
 10
-73.9629203247
 20
-43.8951280147
 10
-73.9629141735
 20
-43.9007476433
 10
-73.962829351
 20
-43.9041441567
  0
LINE
  5
2AB
100
AcDbEntity
  8
RACCORDO
100
AcDbLine
 62
253
  6
CONTINUOUS
 10
-74.0072572628
 20
-43.8639101166
 11
-74.0076363915
 21
-43.885802811
  0
LINE
  5
2AC
100
AcDbEntity
  8
RACCORDO
100
AcDbLine
 62
253
  6
CONTINUOUS
 10
-73.9624692457
 20
-43.8654351799
 11
-73.9628477581
 21
-43.88732758
  0
LINE
  5
2AD
100
AcDbEntity
  8
RACCORDO
100
AcDbLine
 62
253
  6
CONTINUOUS
 10
-73.0852697394
 20
-23.400566596
 11
-73.0900484182
 21
-23.6375702491
  0
LINE
  5
2AE
100
AcDbEntity
  8
RACCORDO
100
AcDbLine
 62
253
  6
CONTINUOUS
 10
-74.0061302634
 20
-43.8166896709
 11
-74.0072572628
 21
-43.8639101166
  0
LINE
  5
2AF
100
AcDbEntity
  8
RACCORDO
100
AcDbLine
 62
253
  6
CONTINUOUS
 10
-73.9613436703
 20
-43.8182153515
 11
-73.9624692457
 21
-43.8654351799
  0
LINE
  5
2B0
100
AcDbEntity
  8
RACCORDO
100
AcDbLine
 62
253
  6
CONTINUOUS
 10
-73.0810065092
 20
-23.2268587777
 11
-73.0852697394
 21
-23.400566596
  0
LINE
  5
2B1
100
AcDbEntity
  8
RACCORDO
100
AcDbLine
 62
253
  6
CONTINUOUS
 10
-73.9581934285
 20
-43.7096592283
 11
-73.9613436703
 21
-43.8182153515
  0
LINE
  5
2B2
100
AcDbEntity
  8
RACCORDO
100
AcDbLine
 62
253
  6
CONTINUOUS
 10
-74.0029765791
 20
-43.7081322924
 11
-74.0061302634
 21
-43.8166896709
  0
LINE
  5
2B3
100
AcDbEntity
  8
RACCORDO
100
AcDbLine
 62
253
  6
CONTINUOUS
 10
-74.0013766976
 20
-43.6580070799
 11
-74.0029765791
 21
-43.7081322924
  0
LINE
  5
2B4
100
AcDbEntity
  8
RACCORDO
100
AcDbLine
 62
253
  6
CONTINUOUS
 10
-73.9565951781
 20
-43.659534494
 11
-73.9581934285
 21
-43.7096592283
  0
LINE
  5
2B5
100
AcDbEntity
  8
RACCORDO
100
AcDbLine
 62
253
  6
CONTINUOUS
 10
-73.9628293507
 20
-43.9041441491
 11
-73.9689257368
 21
-44.0832407125
  0
LWPOLYLINE
  5
2B6
100
AcDbEntity
  8
RACCORDO
100
AcDbPolyline
 62
7
  6
CONTINUOUS
 90
19
 70
0
 10
-73.7758514865
 20
22.1218534162
 10
-73.8165579479
 20
22.0869519142
 10
-73.8555501365
 20
22.0501196143
 10
-73.8927469846
 20
22.011428435
 10
-73.9280895029
 20
21.9709238925
 10
-73.9614456469
 20
21.9287513907
 10
-73.9926472916
 20
21.885156043
 10
-74.0215815588
 20
21.8403601343
 10
-74.0482823253
 20
21.794360388
 10
-74.0728045166
 20
21.7470512076
 10
-74.0950939512
 20
21.6984667794
 10
-74.1150626197
 20
21.648781098
 10
-74.1326803591
 20
21.598079067
 10
-74.1479244158
 20
21.5464123737
 10
-74.1607099601
 20
21.4939487207
 10
-74.170934694
 20
21.4409490507
 10
-74.1785626629
 20
21.3875815135
 10
-74.183603747
 20
21.3339131095
 10
-74.1860465711
 20
21.2800649968
  0
LWPOLYLINE
  5
2B7
100
AcDbEntity
  8
RACCORDO
100
AcDbPolyline
 62
253
  6
CONTINUOUS
 90
34
 70
0
 10
-74.0327894498
 20
22.4335493707
 10
-74.0552803533
 20
22.4145735858
 10
-74.0778853394
 20
22.3946018988
 10
-74.1006044177
 20
22.3736343041
 10
-74.1234457624
 20
22.3517408555
 10
-74.1464012178
 20
22.3288514879
 10
-74.1694462994
 20
22.3047560163
 10
-74.1925971806
 20
22.2794675677
 10
-74.2158377102
 20
22.252972999
 10
-74.23909492
 20
22.2250227169
 10
-74.2624511569
 20
22.1955274398
 10
-74.2858240993
 20
22.1645764261
 10
-74.3088937737
 20
22.1321878903
 10
-74.3317516922
 20
22.0981522696
 10
-74.3543063585
 20
22.0626790998
 10
-74.3759632691
 20
22.0264152489
 10
-74.3966091107
 20
21.9894131275
 10
-74.4163571794
 20
21.9516203102
 10
-74.4349528642
 20
21.9135264219
 10
-74.4522899926
 20
21.8753085271
 10
-74.4684747027
 20
21.8367895568
 10
-74.4835708435
 20
21.7979279401
 10
-74.4975906823
 20
21.7587596816
 10
-74.5105219186
 20
21.7192487702
 10
-74.522391551
 20
21.6792456092
 10
-74.5332238424
 20
21.6387497522
 10
-74.5429944951
 20
21.5977616355
 10
-74.5516576659
 20
21.5561329833
 10
-74.5592351735
 20
21.5138982605
 10
-74.5657051586
 20
21.4710229887
 10
-74.5709562567
 20
21.4272554718
 10
-74.574951328
 20
21.3825118032
 10
-74.5777274599
 20
21.3368758687
 10
-74.5792846245
 20
21.2903476582
  0
LWPOLYLINE
  5
2B8
100
AcDbEntity
  8
RACCORDO
100
AcDbPolyline
 62
7
  6
CONTINUOUS
 90
16
 70
0
 10
-73.7758495158
 20
-22.9745964007
 10
-73.7364840586
 20
-23.0053262595
 10
-73.6957512882
 20
-23.0342880894
 10
-73.6537220823
 20
-23.061421519
 10
-73.6105272747
 20
-23.0866358223
 10
-73.5662666517
 20
-23.1098812387
 10
-73.5209802002
 20
-23.1311419349
 10
-73.4747750211
 20
-23.1503624159
 10
-73.4277071557
 20
-23.1675150748
 10
-73.3797895602
 20
-23.1825860577
 10
-73.3310991535
 20
-23.195538138
 10
-73.2817679266
 20
-23.2063151109
 10
-73.2319264505
 20
-23.214861939
 10
-73.1816953963
 20
-23.2211461524
 10
-73.1311432437
 20
-23.2251541381
 10
-73.0803721619
 20
-23.2268661181
  0
LWPOLYLINE
  5
2B9
100
AcDbEntity
  8
RACCORDO
100
AcDbPolyline
 62
253
  6
CONTINUOUS
 90
28
 70
0
 10
-74.0327894498
 20
-23.2862943968
 10
-74.0032437587
 20
-23.3102975235
 10
-73.97316835
 20
-23.3335104046
 10
-73.9425632247
 20
-23.355933045
 10
-73.911414198
 20
-23.3775727534
 10
-73.8797354568
 20
-23.3984222307
 10
-73.8475695604
 20
-23.4184595702
 10
-73.814911551
 20
-23.4376899898
 10
-73.781766388
 20
-23.4561082803
 10
-73.7481915058
 20
-23.4736768951
 10
-73.7141830359
 20
-23.4903904311
 10
-73.679744848
 20
-23.5062542993
 10
-73.644945984
 20
-23.5212471745
 10
-73.6097931877
 20
-23.5353684016
 10
-73.574279716
 20
-23.5486186428
 10
-73.5384543797
 20
-23.5609785487
 10
-73.5023125487
 20
-23.5724513949
 10
-73.4658588534
 20
-23.5830339118
 10
-73.4291559956
 20
-23.5926969319
 10
-73.3922038288
 20
-23.6014372068
 10
-73.3550024993
 20
-23.6092579896
 10
-73.3176151474
 20
-23.6161398655
 10
-73.2800429087
 20
-23.6220802559
 10
-73.2422846468
 20
-23.6270817429
 10
-73.2044000941
 20
-23.6311326523
 10
-73.1664091611
 20
-23.6342290933
 10
-73.128291936
 20
-23.6363749588
 10
-73.0900484182
 20
-23.6375702491
  0
LWPOLYLINE
  5
2BA
100
AcDbEntity
  8
RACCORDO
100
AcDbPolyline
 62
253
  6
CONTINUOUS
 90
97
 70
0
 10
92.6988894343
 20
-43.2430019258
 10
93.0453978168
 20
-43.211072186
 10
93.3785691131
 20
-43.174873819
 10
93.6984066575
 20
-43.1344062338
 10
94.0043217766
 20
-43.089121574
 10
94.2969093145
 20
-43.0395662422
 10
94.5779465868
 20
-42.9873812441
 10
94.8474207987
 20
-42.9327505579
 10
95.1053476034
 20
-42.8754891777
 10
95.3535453267
 20
-42.8166851411
 10
95.5920339705
 20
-42.7564903202
 10
95.8207947398
 20
-42.6947521951
 10
96.0415868753
 20
-42.6321025871
 10
96.2548532967
 20
-42.5685018973
 10
96.4601514976
 20
-42.5039893146
 10
96.6579120385
 20
-42.4393151658
 10
96.8483186674
 20
-42.3744444134
 10
97.0311874432
 20
-42.3094120414
 10
97.206396928
 20
-42.2450737956
 10
97.3734659006
 20
-42.1816567028
 10
97.5328748895
 20
-42.1189341277
 10
97.68594485
 20
-42.0570815638
 10
97.8322626249
 20
-41.996370209
 10
97.9722406788
 20
-41.9365293214
 10
98.1084385381
 20
-41.8769213802
 10
98.2409019974
 20
-41.8176387195
 10
98.3695849223
 20
-41.758589142
 10
98.4969092734
 20
-41.6988579935
 10
98.6233362382
 20
-41.6383004193
 10
98.7484046663
 20
-41.5770609817
 10
98.8731532716
 20
-41.5146588492
 10
98.9979762107
 20
-41.4509150581
 10
99.122479511
 20
-41.3860080489
 10
99.2465197604
 20
-41.3199929981
 10
99.3701524839
 20
-41.2528304691
 10
99.4933222678
 20
-41.1845594021
 10
99.6157192442
 20
-41.1153525886
 10
99.7372976054
 20
-41.0452246807
 10
99.8581031734
 20
-40.9741606082
 10
99.9779634699
 20
-40.9022886503
 10
100.0963868095
 20
-40.8299325406
 10
100.2138647952
 20
-40.7567682358
 10
100.3316999778
 20
-40.6819521657
 10
100.4497210705
 20
-40.6056735113
 10
100.5680995072
 20
-40.5277423131
 10
100.6886522206
 20
-40.4467456905
 10
100.811438464
 20
-40.3627520153
 10
100.9363994699
 20
-40.2756912691
 10
101.0651755093
 20
-40.1839420919
 10
101.1981498922
 20
-40.0873319664
 10
101.3349401402
 20
-39.9860304976
 10
101.4760381131
 20
-39.8789285638
 10
101.621973933
 20
-39.7656555278
 10
101.7722183936
 20
-39.6465778495
 10
101.9256743352
 20
-39.5216915434
 10
102.0823455542
 20
-39.3909599378
 10
102.2422287266
 20
-39.2544150872
 10
102.4042157542
 20
-39.112156019
 10
102.5678984374
 20
-38.9645740037
 10
102.7336848474
 20
-38.811272935
 10
102.9016910906
 20
-38.6511701961
 10
103.0717899984
 20
-38.484529927
 10
103.2441081182
 20
-38.3110816161
 10
103.419141956
 20
-38.1289390067
 10
103.5977928217
 20
-37.9371685897
 10
103.7791579413
 20
-37.7366943509
 10
103.9610271861
 20
-37.528415606
 10
104.1439509901
 20
-37.3113384659
 10
104.3273758095
 20
-37.0864476608
 10
104.5074349995
 20
-36.8576133787
 10
104.6836179302
 20
-36.6249833185
 10
104.8564311637
 20
-36.388405977
 10
105.0235339737
 20
-36.1513075291
 10
105.1841750114
 20
-35.9144791703
 10
105.3391020282
 20
-35.6771307677
 10
105.4882235173
 20
-35.4403194353
 10
105.6295007005
 20
-35.2081285417
 10
105.7649699202
 20
-34.976478396
 10
105.9006505637
 20
-34.7341754769
 10
106.0387627277
 20
-34.4783222408
 10
106.1770780635
 20
-34.2118033216
 10
106.3149396919
 20
-33.9320899915
 10
106.4537069926
 20
-33.6358574355
 10
106.5920073001
 20
-33.3264132957
 10
106.7250862134
 20
-33.0111810574
 10
106.8522666279
 20
-32.690093716
 10
106.974215538
 20
-32.3632132839
 10
107.088200163
 20
-32.0381676158
 10
107.1935513611
 20
-31.7152112172
 10
107.2909349556
 20
-31.3940956694
 10
107.3796277847
 20
-31.08170419
 10
107.4592079923
 20
-30.7779586093
 10
107.5301020406
 20
-30.482950547
 10
107.5928669842
 20
-30.2038257189
 10
107.6476943619
 20
-29.9429736162
 10
107.6944057871
 20
-29.6980231674
 10
107.7330070801
 20
-29.4689819855
  0
LWPOLYLINE
  5
2BB
100
AcDbEntity
  8
RACCORDO
100
AcDbPolyline
 62
253
  6
CONTINUOUS
 90
97
 70
0
 10
92.7096495823
 20
-43.4877010672
 10
93.0619671914
 20
-43.4565149889
 10
93.4007699873
 20
-43.4194673934
 10
93.7260166744
 20
-43.3773478753
 10
94.0370875765
 20
-43.3310100549
 10
94.3345922871
 20
-43.2811057121
 10
94.6203473498
 20
-43.2279784546
 10
94.8943492092
 20
-43.1722162695
 10
95.1566132067
 20
-43.1143851387
 10
95.4089589236
 20
-43.0545844497
 10
95.6514457538
 20
-42.9932385034
 10
95.884072074
 20
-42.9307708591
 10
96.1085448352
 20
-42.8670936552
 10
96.3253835156
 20
-42.8023710076
 10
96.5341826379
 20
-42.737026661
 10
96.7352467346
 20
-42.6712641552
 10
96.9288406212
 20
-42.6052788776
 10
97.1148437115
 20
-42.5393857056
 10
97.2929828325
 20
-42.4739567479
 10
97.4628316044
 20
-42.4094312697
 10
97.6249684662
 20
-42.345861904
 10
97.7806157047
 20
-42.2830018089
 10
97.9293644307
 20
-42.2212298377
 10
98.0717151281
 20
-42.1605449181
 10
98.210207119
 20
-42.1000155791
 10
98.3448714599
 20
-42.039735133
 10
98.4757158151
 20
-41.9798047528
 10
98.6051912411
 20
-41.9191666312
 10
98.7337331798
 20
-41.8576365029
 10
98.8608917886
 20
-41.7954492582
 10
98.9877491687
 20
-41.7320848266
 10
99.1146845313
 20
-41.6673393607
 10
99.2412777261
 20
-41.6014124616
 10
99.3674032146
 20
-41.5343626618
 10
99.4931284041
 20
-41.4661478599
 10
99.6183818475
 20
-41.3968005251
 10
99.7428458198
 20
-41.3264967103
 10
99.8664833643
 20
-41.2552635563
 10
99.9893394822
 20
-41.1830814533
 10
100.1112266694
 20
-41.1100694905
 10
100.2316426836
 20
-41.0365496518
 10
100.3511076116
 20
-40.9622256183
 10
100.4709511214
 20
-40.8862592324
 10
100.5909457185
 20
-40.8087639196
 10
100.7112956725
 20
-40.7295766636
 10
100.8339261368
 20
-40.647358863
 10
100.9587742915
 20
-40.5620412022
 10
101.085777928
 20
-40.4735510604
 10
101.2167857666
 20
-40.3804410779
 10
101.3520132296
 20
-40.2823432122
 10
101.4910116258
 20
-40.1793576568
 10
101.6345679444
 20
-40.0706504873
 10
101.783023956
 20
-39.9556626223
 10
101.9356978374
 20
-39.8346054713
 10
102.0918183157
 20
-39.7077881907
 10
102.2512056155
 20
-39.5750603875
 10
102.4136760612
 20
-39.4362777407
 10
102.5784698831
 20
-39.2918018731
 10
102.744953482
 20
-39.141925302
 10
102.9133939961
 20
-38.9861345795
 10
103.0843561467
 20
-38.8235768831
 10
103.2573906091
 20
-38.6543120182
 10
103.4324437804
 20
-38.478008446
 10
103.6105827847
 20
-38.2931224393
 10
103.7924050199
 20
-38.0984380331
 10
103.9766639002
 20
-37.8946640434
 10
104.1616793614
 20
-37.6831265829
 10
104.3479032299
 20
-37.4627895663
 10
104.5343300409
 20
-37.2343001363
 10
104.717369601
 20
-37.0017568073
 10
104.8966722876
 20
-36.7655239641
 10
105.0724380191
 20
-36.5252518103
 10
105.2422723075
 20
-36.2842848441
 10
105.4056331484
 20
-36.0437010825
 10
105.5632700912
 20
-35.8027100025
 10
105.7149097242
 20
-35.5620376418
 10
105.858242281
 20
-35.3259289443
 10
105.9958751892
 20
-35.0906690053
 10
106.1343649603
 20
-34.8447608391
 10
106.2749389407
 20
-34.5848407058
 10
106.4152384465
 20
-34.3139927568
 10
106.5557514888
 20
-34.0299810332
 10
106.6973672815
 20
-33.7292459467
 10
106.8377604613
 20
-33.4148159342
 10
106.9729584306
 20
-33.0944464575
 10
107.1026362452
 20
-32.7683986374
 10
107.2266778989
 20
-32.4364265261
 10
107.3423313433
 20
-32.1059988262
 10
107.4496480317
 20
-31.7778401221
 10
107.5489712882
 20
-31.4518019126
 10
107.6388101526
 20
-31.1343256768
 10
107.7197514266
 20
-30.82564756
 10
107.7923490102
 20
-30.5261060889
 10
107.8557719627
 20
-30.2424428508
 10
107.9104635862
 20
-29.9771052843
 10
107.9577455284
 20
-29.7281580389
 10
107.9983863141
 20
-29.495797593
  0
LWPOLYLINE
  5
2BC
100
AcDbEntity
  8
DRAFT
100
AcDbPolyline
 62
7
  6
CONTINUOUS
 90
9
 70
0
 10
92.7240601072
 20
-43.6663725134
 10
92.1691964224
 20
-43.70829109
 10
91.614151699
 20
-43.7476143633
 10
91.0589253663
 20
-43.7843427436
 10
90.5035042044
 20
-43.8184778643
 10
89.9479002294
 20
-43.8500188341
 10
89.3921506967
 20
-43.8789622377
 10
88.8362675895
 20
-43.9053071312
 10
88.2802376193
 20
-43.9290550422
  0
LWPOLYLINE
  5
2BD
100
AcDbEntity
  8
RACCORDO
100
AcDbPolyline
 62
253
  6
CONTINUOUS
 90
10
 70
0
 10
-82.7703939404
 20
-43.4877010584
 10
-82.2164114507
 20
-43.529555417
 10
-81.6622189052
 20
-43.5688218369
 10
-81.1078284935
 20
-43.6054991675
 10
-80.5532495253
 20
-43.6395864544
 10
-79.9984967608
 20
-43.6710825105
 10
-79.4435905743
 20
-43.6999859566
 10
-78.88854574
 20
-43.7262958465
 10
-78.3333715849
 20
-43.7500116102
 10
-77.7780803188
 20
-43.7711325512
  0
LWPOLYLINE
  5
2BE
100
AcDbEntity
  8
RACCORDO
100
AcDbPolyline
 62
253
  6
CONTINUOUS
 90
10
 70
0
 10
-82.7596337579
 20
-43.2430019258
 10
-82.2064776386
 20
-43.2848353809
 10
-81.6531360757
 20
-43.3240793547
 10
-81.0996085691
 20
-43.360734236
 10
-80.5458786534
 20
-43.3948018071
 10
-79.9919617334
 20
-43.4262809888
 10
-79.4379050888
 20
-43.4551678403
 10
-78.8837240946
 20
-43.4814612327
 10
-78.3294022198
 20
-43.505162848
 10
-77.7749388647
 20
-43.5262729244
  0
LWPOLYLINE
  5
2BF
100
AcDbEntity
  8
DRAFT
100
AcDbPolyline
 62
7
  6
CONTINUOUS
 90
46
 70
0
 10
-82.7848044313
 20
-43.6663725133
 10
-83.3020033039
 20
-43.6181160032
 10
-83.8166940025
 20
-43.5542192694
 10
-84.328889869
 20
-43.4746782977
 10
-84.8392892786
 20
-43.3793174379
 10
-85.3472188996
 20
-43.2683014001
 10
-85.8506333222
 20
-43.1421355247
 10
-86.3493652983
 20
-43.0007764395
 10
-86.8436023484
 20
-42.8442517422
 10
-87.3318293
 20
-42.6731726059
 10
-87.8136003111
 20
-42.4876896389
 10
-88.289375425
 20
-42.2876328245
 10
-88.7589964057
 20
-42.0731318789
 10
-89.2228958236
 20
-41.8440409402
 10
-89.6806496374
 20
-41.6004828205
 10
-90.1308127236
 20
-41.3429900081
 10
-90.5734747406
 20
-41.0713563311
 10
-91.0085476555
 20
-40.7857629525
 10
-91.4343172174
 20
-40.4873244133
 10
-91.8510963461
 20
-40.175564855
 10
-92.2585663825
 20
-39.8509354155
 10
-92.6540626879
 20
-39.5159447948
 10
-93.0375245687
 20
-39.1701486637
 10
-93.408999664
 20
-38.8139717124
 10
-93.7659833087
 20
-38.4512334589
 10
-94.1075978954
 20
-38.0825136417
 10
-94.4347034673
 20
-37.7072230799
 10
-94.7474012671
 20
-37.3274349792
 10
-95.0455992536
 20
-36.9431942755
 10
-95.3293713645
 20
-36.5544518401
 10
-95.5990688254
 20
-36.1631445942
 10
-95.853544919
 20
-35.7716280596
 10
-96.0939299884
 20
-35.377549291
 10
-96.323990407
 20
-34.9757793356
 10
-96.5445179899
 20
-34.5664475724
 10
-96.7547009622
 20
-34.1494154921
 10
-96.9558956947
 20
-33.719141302
 10
-97.1499790311
 20
-33.2711708104
 10
-97.3350431632
 20
-32.8099358443
 10
-97.5067678337
 20
-32.3432266556
 10
-97.6643292746
 20
-31.8706120389
 10
-97.8085275
 20
-31.3925224805
 10
-97.9374893792
 20
-30.9180586439
 10
-98.0505911937
 20
-30.450264014
 10
-98.1484506417
 20
-29.9861147869
 10
-98.2310645334
 20
-29.5256193722
  0
LINE
  5
2C0
100
AcDbEntity
  8
RACCORDO
100
AcDbLine
 62
253
  6
CONTINUOUS
 10
-73.7758490926
 20
-22.974595877
 11
-73.8558724478
 21
-23.0725283036
  0
LINE
  5
2C1
100
AcDbEntity
  8
RACCORDO
100
AcDbLine
 62
253
  6
CONTINUOUS
 10
-73.8558724478
 20
-23.0725283036
 11
-73.9725441892
 21
-23.2138738988
  0
LINE
  5
2C2
100
AcDbEntity
  8
RACCORDO
100
AcDbLine
 62
253
  6
CONTINUOUS
 10
-73.9725441892
 20
-23.2138738988
 11
-74.0327894263
 21
-23.2862943197
  0
LWPOLYLINE
  5
2C3
100
AcDbEntity
  8
RACCORDO
100
AcDbPolyline
 62
253
  6
CONTINUOUS
 90
9
 70
0
 10
88.2686588786
 20
-43.5051628033
 10
88.8229815455
 20
-43.4814611484
 10
89.3771631415
 20
-43.4551677213
 10
89.9312202715
 20
-43.4262808317
 10
90.4851374865
 20
-43.3948016168
 10
91.0388672857
 20
-43.3607340423
 10
91.5923941904
 20
-43.3240791958
 10
92.1457347399
 20
-43.2848352865
 10
92.6988894343
 20
-43.2430019258
  0
LWPOLYLINE
  5
2C4
100
AcDbEntity
  8
RACCORDO
100
AcDbPolyline
 62
253
  6
CONTINUOUS
 90
9
 70
0
 10
88.2726272849
 20
-43.7500116093
 10
88.8278013829
 20
-43.726295848
 10
89.3828462063
 20
-43.6999859588
 10
89.9377524615
 20
-43.6710825092
 10
90.4925053409
 20
-43.6395864461
 10
91.0470843706
 20
-43.6054991547
 10
91.601474757
 20
-43.5688218248
 10
92.1556672239
 20
-43.5295554099
 10
92.7096495818
 20
-43.4877010611
  0
LINE
  5
2C5
100
AcDbEntity
  8
DRAFT
100
AcDbLine
 62
7
  6
CONTINUOUS
 10
88.2802376193
 20
-43.9290550422
 11
86.8762050508
 21
-43.9803086409
  0
LINE
  5
2C6
100
AcDbEntity
  8
DRAFT
100
AcDbLine
 62
7
  6
CONTINUOUS
 10
86.8762050508
 20
-43.9803086409
 11
83.9081814132
 21
-44.0832407125
  0
LINE
  5
2C7
100
AcDbEntity
  8
RACCORDO
100
AcDbLine
 62
253
  6
CONTINUOUS
 10
83.9468740424
 20
-43.9026196049
 11
88.2726272849
 21
-43.7500116093
  0
LINE
  5
2C8
100
AcDbEntity
  8
RACCORDO
100
AcDbLine
 62
253
  6
CONTINUOUS
 10
83.8958508545
 20
-43.659534494
 11
88.2686588786
 21
-43.5051628033
  0
LWPOLYLINE
  5
2C9
100
AcDbEntity
  8
DRAFT
100
AcDbPolyline
 62
7
  6
CONTINUOUS
 90
18
 70
0
 10
83.9081814132
 20
-44.0832407125
 10
75.1611525043
 20
-44.3646371475
 10
66.4072183485
 20
-44.6129999508
 10
57.6463745215
 20
-44.8283625226
 10
48.8773641029
 20
-45.0108471611
 10
40.1014316806
 20
-45.1603861563
 10
31.3223233269
 20
-45.276721833
 10
22.5402107628
 20
-45.3598069654
 10
13.7549047175
 20
-45.4097172182
 10
4.9696087215
 20
-45.4263725131
 10
-3.8156869865
 20
-45.4097170754
 10
-12.6009919338
 20
-45.3598066797
 10
-21.3831022392
 20
-45.2767214401
 10
-30.1622069072
 20
-45.1603856956
 10
-38.938134483
 20
-45.0108466682
 10
-47.7071393432
 20
-44.8283620572
 10
-56.4679770495
 20
-44.6129995806
 10
-65.2219043725
 20
-44.3646369325
  0
LWPOLYLINE
  5
2CA
100
AcDbEntity
  8
RACCORDO
100
AcDbPolyline
 62
253
  6
CONTINUOUS
 90
18
 70
0
 10
-65.208635571
 20
-44.1854466115
 10
-56.4493986268
 20
-44.4338232827
 10
-47.6849087202
 20
-44.6492280148
 10
-38.9149064075
 20
-44.8316176916
 10
-30.1405710533
 20
-44.9809294905
 10
-21.3638521008
 20
-45.0970969883
 10
-12.5864062445
 20
-45.1800752271
 10
-3.8084335535
 20
-45.2298636517
 10
4.9703016296
 20
-45.2464608374
 10
13.7491733842
 20
-45.2298580402
 10
22.5273552882
 20
-45.1800624215
 10
31.3047823321
 20
-45.0970779901
 10
40.0810129015
 20
-44.9809115454
 10
48.8546324437
 20
-44.8316087968
 10
57.6241161454
 20
-44.6492291097
 10
66.3884257405
 20
-44.4338293338
 10
75.1476788858
 20
-44.1854530365
 10
83.9468740424
 20
-43.9026196049
  0
LWPOLYLINE
  5
2CB
100
AcDbEntity
  8
RACCORDO
100
AcDbPolyline
 62
253
  6
CONTINUOUS
 90
18
 70
0
 10
-65.2027660671
 20
-43.9415215293
 10
-56.444153036
 20
-44.1903621357
 10
-47.6807525289
 20
-44.4060882651
 10
-38.911440502
 20
-44.5887958221
 10
-30.137330382
 20
-44.7384411317
 10
-21.3617731169
 20
-44.8548409244
 10
-12.58539912
 20
-44.9379589855
 10
-3.8075622839
 20
-44.9878586521
 10
4.9703021874
 20
-45.0044994976
 10
13.7483031124
 20
-44.9878508501
 10
22.5263490549
 20
-44.9379433804
 10
31.3027044269
 20
-44.8548218687
 10
40.077773752
 20
-44.7384266683
 10
48.8511681998
 20
-44.5887903082
 10
57.6199611867
 20
-44.4060893457
 10
66.383180739
 20
-44.1903652157
 10
75.1418094444
 20
-43.9415242499
 10
83.8958508545
 20
-43.659534494
  0
LINE
  5
2CC
100
AcDbEntity
  8
DRAFT
100
AcDbLine
 62
7
  6
CONTINUOUS
 10
-65.2219043725
 20
-44.3646369325
 11
-74.392972017
 21
-44.0687674365
  0
LINE
  5
2CD
100
AcDbEntity
  8
RACCORDO
100
AcDbLine
 62
253
  6
CONTINUOUS
 10
-74.0013765631
 20
-43.6580070845
 11
-65.2027660671
 21
-43.9415215293
  0
LINE
  5
2CE
100
AcDbEntity
  8
DRAFT
100
AcDbLine
 62
7
  6
CONTINUOUS
 10
-74.392972017
 20
-44.0687674365
 11
-77.360886457
 21
-43.9652959359
  0
LINE
  5
2CF
100
AcDbEntity
  8
RACCORDO
100
AcDbLine
 62
253
  6
CONTINUOUS
 10
-77.7780803188
 20
-43.7711325507
 11
-65.208635571
 21
-44.1854466115
  0
LINE
  5
2D0
100
AcDbEntity
  8
RACCORDO
100
AcDbLine
 62
253
  6
CONTINUOUS
 10
-77.7749388647
 20
-43.5262729244
 11
-74.0013765631
 21
-43.6580070845
  0
LWPOLYLINE
  5
2D1
100
AcDbEntity
  8
DRAFT
100
AcDbPolyline
 62
7
  6
CONTINUOUS
 90
10
 70
0
 10
-77.360886457
 20
-43.9652959359
 10
-78.3409814192
 20
-43.9290550664
 10
-78.8970109963
 20
-43.905307175
 10
-79.4528938409
 20
-43.8789622963
 10
-80.0086432413
 20
-43.8500189049
 10
-80.5642472144
 20
-43.8184779425
 10
-81.1196685065
 20
-43.7843428191
 10
-81.6748951019
 20
-43.7476144239
 10
-82.2299402199
 20
-43.7082911254
 10
-82.7848044313
 20
-43.6663725133
  0
LINE
  5
2D2
100
AcDbEntity
  8
RACCORDO
100
AcDbLine
 62
253
  6
CONTINUOUS
 10
-73.9132151747
 20
22.2894409662
 11
-74.0327894563
 21
22.4335493919
  0
LWPOLYLINE
  5
2D3
100
AcDbEntity
  8
RACCORDO
100
AcDbPolyline
 62
253
  6
CONTINUOUS
 90
3
 70
0
 10
-73.7758519235
 20
22.121853957
 10
-73.8015621871
 20
22.1534214918
 10
-73.9132151747
 20
22.2894409662
  0
LWPOLYLINE
  5
2D4
100
AcDbEntity
  8
0
100
AcDbPolyline
 62
7
  6
CONTINUOUS
 90
19
 70
0
 10
8.2896466405
 20
-26.5671798541
 10
8.3912790676
 20
-26.5525637294
 10
8.4903469282
 20
-26.5397547779
 10
8.5868502159
 20
-26.5287530293
 10
8.6807591144
 20
-26.5195028538
 10
8.7721034278
 20
-26.5120599272
 10
8.8609725809
 20
-26.5065912324
 10
8.9474035344
 20
-26.5031664065
 10
9.0313593159
 20
-26.5017158349
 10
9.1128184504
 20
-26.502197617
 10
9.1917480352
 20
-26.5045874419
 10
9.2681809634
 20
-26.5089096135
 10
9.3421944533
 20
-26.5151951465
 10
9.4139529503
 20
-26.5233633783
 10
9.4832920007
 20
-26.533494936
 10
9.5497954743
 20
-26.5458627584
 10
9.6133246582
 20
-26.5605577975
 10
9.6740182572
 20
-26.5774890231
 10
9.731876268
 20
-26.5966563866
  0
LWPOLYLINE
  5
2D5
100
AcDbEntity
  8
RACCORDO
100
AcDbPolyline
 62
253
  6
CONTINUOUS
 90
25
 70
0
 10
83.0293040946
 20
-23.6375702491
 10
83.0732981302
 20
-23.6360898141
 10
83.1169649228
 20
-23.6333906384
 10
83.1603044737
 20
-23.6294727209
 10
83.2033286739
 20
-23.6243206712
 10
83.2460256341
 20
-23.6179498767
 10
83.2883596845
 20
-23.6104065026
 10
83.3303330502
 20
-23.6016916618
 10
83.371943507
 20
-23.591804236
 10
83.4131487104
 20
-23.580787044
 10
83.4539450743
 20
-23.5686448507
 10
83.4943361849
 20
-23.5553728838
 10
83.5342904567
 20
-23.5409996556
 10
83.5738149641
 20
-23.5255286678
 10
83.612902632
 20
-23.5089564096
 10
83.6515006502
 20
-23.491300874
 10
83.6896341154
 20
-23.4725484265
 10
83.7272779294
 20
-23.4527126907
 10
83.7643039886
 20
-23.4318525468
 10
83.8007135208
 20
-23.4099506603
 10
83.8365052959
 20
-23.3870243535
 10
83.8715475243
 20
-23.3631844925
 10
83.905796275
 20
-23.3384680289
 10
83.9392954761
 20
-23.3128379991
 10
83.9720451262
 20
-23.2862943968
  0
LWPOLYLINE
  5
2D6
100
AcDbEntity
  8
RACCORDO
100
AcDbPolyline
 62
7
  6
CONTINUOUS
 90
16
 70
0
 10
83.0196278382
 20
-23.2268665755
 10
83.0699898152
 20
-23.2251773939
 10
83.1202181088
 20
-23.221220892
 10
83.1702057313
 20
-23.2150056473
 10
83.219900037
 20
-23.2065312106
 10
83.2691764582
 20
-23.1958189973
 10
83.317843607
 20
-23.1829290962
 10
83.3657625127
 20
-23.1679192027
 10
83.4128741687
 20
-23.1508131169
 10
83.4591411781
 20
-23.1316262028
 10
83.5045146976
 20
-23.1103782872
 10
83.548893821
 20
-23.0871169826
 10
83.5922316323
 20
-23.0618641086
 10
83.6344554043
 20
-23.0346491669
 10
83.6754478448
 20
-23.0055382239
 10
83.7151075295
 20
-22.9745989042
  0
LWPOLYLINE
  5
2D7
100
AcDbEntity
  8
0
100
AcDbPolyline
 62
7
  6
CONTINUOUS
 90
31
 70
0
 10
9.1863084814
 20
-27.7800005997
 10
9.2108029769
 20
-27.7792188737
 10
9.2351834433
 20
-27.7776539525
 10
9.2594498813
 20
-27.7753058345
 10
9.2836891093
 20
-27.7722269296
 10
9.3078143101
 20
-27.7683648218
 10
9.3315650314
 20
-27.7635622676
 10
9.3549265197
 20
-27.7578317935
 10
9.3779135298
 20
-27.7511608587
 10
9.4003098713
 20
-27.7433546143
 10
9.4221650262
 20
-27.7343948797
 10
9.4434295137
 20
-27.7242998078
 10
9.4637386987
 20
-27.7129290422
 10
9.4830455634
 20
-27.7002161149
 10
9.5013971261
 20
-27.6862274489
 10
9.5185698054
 20
-27.6710220206
 10
9.5344717494
 20
-27.6545229465
 10
9.5491948095
 20
-27.6368070538
 10
9.5627909587
 20
-27.6181638902
 10
9.5752618318
 20
-27.5986033705
 10
9.5866057927
 20
-27.5781155301
 10
9.5968699083
 20
-27.5569601101
 10
9.6060688773
 20
-27.535154507
 10
9.6141879993
 20
-27.5126812849
 10
9.6212302415
 20
-27.4897479498
 10
9.6272186341
 20
-27.4663400242
 10
9.632130145
 20
-27.4424719566
 10
9.6358986489
 20
-27.4183946568
 10
9.6385021031
 20
-27.3941917608
 10
9.6399625482
 20
-27.3697796218
 10
9.6402799831
 20
-27.3451582333
  0
LINE
  5
2D8
100
AcDbEntity
  8
0
100
AcDbLine
 62
7
  6
CONTINUOUS
 10
10.3287760501
 20
-29.3341738675
 11
9.7666434601
 21
-29.3341738675
  0
LINE
  5
2D9
100
AcDbEntity
  8
0
100
AcDbLine
 62
7
  6
CONTINUOUS
 10
8.8717031831
 20
-29.3341738675
 11
8.2896466405
 21
-29.3341738675
  0
LINE
  5
2DA
100
AcDbEntity
  8
0
100
AcDbLine
 62
7
  6
CONTINUOUS
 10
8.1180358382
 20
-29.3341735131
 11
7.5020938382
 21
-29.3341735131
  0
LINE
  5
2DB
100
AcDbEntity
  8
0
100
AcDbLine
 62
7
  6
CONTINUOUS
 10
6.3935748382
 20
-29.3341735131
 11
5.8155078382
 21
-29.3341735131
  0
LINE
  5
2DC
100
AcDbEntity
  8
0
100
AcDbLine
 62
7
  6
CONTINUOUS
 10
5.7237398382
 20
-29.3341735131
 11
5.1520338382
 21
-29.3341735131
  0
LINE
  5
2DD
100
AcDbEntity
  8
0
100
AcDbLine
 62
7
  6
CONTINUOUS
 10
4.3371038382
 20
-29.3341735131
 11
4.2551408382
 21
-29.3341735131
  0
LINE
  5
2DE
100
AcDbEntity
  8
0
100
AcDbLine
 62
7
  6
CONTINUOUS
 10
3.4434448382
 20
-29.3341735131
 11
2.8843558382
 21
-29.3341735131
  0
LINE
  5
2DF
100
AcDbEntity
  8
0
100
AcDbLine
 62
7
  6
CONTINUOUS
 10
2.5697508382
 20
-29.3341735131
 11
1.9853428382
 21
-29.3341735131
  0
LINE
  5
2E0
100
AcDbEntity
  8
0
100
AcDbLine
 62
7
  6
CONTINUOUS
 10
0.8685308382
 20
-29.3341735131
 11
0.3535208382
 21
-29.3341735131
  0
LINE
  5
2E1
100
AcDbEntity
  8
0
100
AcDbLine
 62
7
  6
CONTINUOUS
 10
7.3507018382
 20
-28.7752535131
 11
6.5548348382
 21
-28.7752535131
  0
LINE
  5
2E2
100
AcDbEntity
  8
0
100
AcDbLine
 62
7
  6
CONTINUOUS
 10
7.2339078382
 20
-28.3427635131
 11
6.6743788382
 21
-28.3427635131
  0
LINE
  5
2E3
100
AcDbEntity
  8
0
100
AcDbLine
 62
7
  6
CONTINUOUS
 10
9.1850488005
 20
-28.2385244379
 11
8.8717031831
 21
-28.2385244379
  0
LINE
  5
2E4
100
AcDbEntity
  8
0
100
AcDbLine
 62
7
  6
CONTINUOUS
 10
9.1863084814
 20
-27.7800005997
 11
8.8523250923
 21
-27.7800005997
  0
LINE
  5
2E5
100
AcDbEntity
  8
0
100
AcDbLine
 62
7
  6
CONTINUOUS
 10
7.2590178382
 20
-26.5344705131
 11
6.6936728382
 21
-26.5344705131
  0
LINE
  5
2E6
100
AcDbEntity
  8
0
100
AcDbLine
 62
7
  6
CONTINUOUS
 10
5.4619358382
 20
-26.5344705131
 11
4.8837218382
 21
-26.5344705131
  0
LINE
  5
2E7
100
AcDbEntity
  8
0
100
AcDbLine
 62
7
  6
CONTINUOUS
 10
3.7210778382
 20
-26.5344705131
 11
3.1371528382
 21
-26.5344705131
  0
LINE
  5
2E8
100
AcDbEntity
  8
0
100
AcDbLine
 62
7
  6
CONTINUOUS
 10
1.7684678382
 20
-26.5344705131
 11
1.1844588382
 21
-26.5344705131
  0
LINE
  5
2E9
100
AcDbEntity
  8
0
100
AcDbLine
 62
7
  6
CONTINUOUS
 10
0.1008078382
 20
-26.5344705131
 11
-0.5340401618
 21
-26.5344705131
  0
LINE
  5
2EA
100
AcDbEntity
  8
0
100
AcDbLine
 62
7
  6
CONTINUOUS
 10
2.5697508382
 20
-26.5343025131
 11
1.9853428382
 21
-26.5343025131
  0
LINE
  5
2EB
100
AcDbEntity
  8
0
100
AcDbLine
 62
253
  6
CONTINUOUS
 10
-74.0316904378
 20
-24.940845158
 11
83.9709461142
 21
-24.940845158
  0
LINE
  5
2EC
100
AcDbEntity
  8
RACCORDO
100
AcDbLine
 62
253
  6
CONTINUOUS
 10
83.9709461142
 20
-24.940845158
 11
108.3209164184
 21
-24.9408451581
  0
LINE
  5
2ED
100
AcDbEntity
  8
RACCORDO
100
AcDbLine
 62
253
  6
CONTINUOUS
 10
-74.0316904378
 20
-24.940845158
 11
-98.381660742
 21
-24.9408451581
  0
LWPOLYLINE
  5
2EE
100
AcDbEntity
  8
RACCORDO
100
AcDbPolyline
 62
253
  6
CONTINUOUS
 90
16
 70
0
 10
-70.7587851157
 20
-23.2459491758
 10
-60.6680227311
 20
-23.4152519341
 10
-50.575134601
 20
-23.5603665831
 10
-40.4801207253
 20
-23.6812931228
 10
-30.3824980027
 20
-23.7780299941
 10
-20.2827495345
 20
-23.850578756
 10
-10.1823246251
 20
-23.8989440859
 10
-0.0812556654
 20
-23.9231275456
 10
10.0204897356
 20
-23.9231275732
 10
20.1215594467
 20
-23.8989441608
 10
30.2219858475
 20
-23.8505788704
 10
40.3217365584
 20
-23.7780301398
 10
50.4193623088
 20
-23.6812932746
 10
60.5143800086
 20
-23.5603667097
 10
70.607272748
 20
-23.4152520101
 10
80.6980405271
 20
-23.2459491758
  0
LWPOLYLINE
  5
2EF
100
AcDbEntity
  8
RACCORDO
100
AcDbPolyline
 62
253
  6
CONTINUOUS
 90
16
 70
0
 10
-73.0900484182
 20
-23.6375702491
 10
-62.6888031803
 20
-23.8176767234
 10
-52.2852792386
 20
-23.9720493824
 10
-41.8795057066
 20
-24.1006893319
 10
-31.4710466483
 20
-24.2035960228
 10
-21.0603957703
 20
-24.2807716858
 10
-10.6489765045
 20
-24.3322213272
 10
-0.2368182629
 20
-24.3579468094
 10
10.1760509949
 20
-24.3579468398
 10
20.5882100362
 20
-24.3322214093
 10
30.9996308809
 20
-24.2807718111
 10
41.4102841375
 20
-24.2035961825
 10
51.8187464356
 20
-24.1006894982
 10
62.224524089
 20
-23.9720495211
 10
72.6280530132
 20
-23.8176768066
 10
83.0293040946
 20
-23.6375702491
  0
LWPOLYLINE
  5
2F0
100
AcDbEntity
  8
0
100
AcDbPolyline
 62
7
  6
CONTINUOUS
 90
10
 70
0
 10
9.3101412684
 20
-26.994944762
 10
9.2613821974
 20
-26.9900229321
 10
9.2120379156
 20
-26.9867752398
 10
9.1621084258
 20
-26.9852016925
 10
9.1115165897
 20
-26.9852834075
 10
9.0603395512
 20
-26.9870392708
 10
9.0088087368
 20
-26.9905259368
 10
8.9570012909
 20
-26.9957622838
 10
8.904840075
 20
-27.0027294132
 10
8.8523250923
 20
-27.011427309
  0
LWPOLYLINE
  5
2F1
100
AcDbEntity
  8
RACCORDO
100
AcDbPolyline
 62
253
  6
CONTINUOUS
 90
15
 70
0
 10
-98.3266568611
 20
-25.4922079678
 10
-98.3804795422
 20
-25.4971804333
 10
-98.4064449877
 20
-25.4994126168
 10
-98.4314852224
 20
-25.5014497817
 10
-98.4553885973
 20
-25.503274709
 10
-98.4779530726
 20
-25.5048719739
 10
-98.4989879252
 20
-25.5062280756
 10
-98.518315361
 20
-25.5073315519
 10
-98.5357720177
 20
-25.5081730759
 10
-98.5512103453
 20
-25.5087455347
 10
-98.5644998535
 20
-25.5090440896
 10
-98.5755282148
 20
-25.5090662172
 10
-98.5842022133
 20
-25.5088117304
 10
-98.5904485335
 20
-25.5082827803
 10
-98.5942143791
 20
-25.5074838376
  0
LINE
  5
2F2
100
AcDbEntity
  8
RACCORDO
100
AcDbLine
 62
253
  6
CONTINUOUS
 10
-98.381660742
 20
-24.940845158
 11
-98.4355043783
 21
-24.945738892
  0
LINE
  5
2F3
100
AcDbEntity
  8
RACCORDO
100
AcDbLine
 62
253
  6
CONTINUOUS
 10
-98.3954862463
 20
-24.8004314291
 11
-98.4493329883
 21
-24.8052936773
  0
LWPOLYLINE
  5
2F4
100
AcDbEntity
  8
RACCORDO
100
AcDbPolyline
 62
253
  6
CONTINUOUS
 90
13
 70
0
 10
-98.4355043783
 20
-24.945738892
 10
-98.4865270861
 20
-24.9499710043
 10
-98.5104370896
 20
-24.9517933039
 10
-98.5330067444
 20
-24.9533986523
 10
-98.5540452039
 20
-24.9547734747
 10
-98.5733745694
 20
-24.9559061459
 10
-98.5908313938
 20
-24.9567870881
 10
-98.6062680642
 20
-24.9574088521
 10
-98.6195540499
 20
-24.9577661804
 10
-98.6305770061
 20
-24.9578560514
 10
-98.6392437238
 20
-24.9576777053
 10
-98.6454809183
 20
-24.95723265
 10
-98.6492358486
 20
-24.9565246489
  0
LWPOLYLINE
  5
2F5
100
AcDbEntity
  8
RACCORDO
100
AcDbPolyline
 62
253
  6
CONTINUOUS
 90
13
 70
0
 10
-98.4493329883
 20
-24.8052936773
 10
-98.5003581947
 20
-24.8094982046
 10
-98.5242691882
 20
-24.8113084712
 10
-98.5468396461
 20
-24.8129030984
 10
-98.5678787136
 20
-24.8142686021
 10
-98.5872084853
 20
-24.8153934356
 10
-98.6046655095
 20
-24.8162680875
 10
-98.6201021702
 20
-24.8168851616
 10
-98.6333879357
 20
-24.8172394401
 10
-98.6444104622
 20
-24.8173279271
 10
-98.6530765436
 20
-24.8171498745
 10
-98.6593129
 20
-24.8167067878
 10
-98.6630667969
 20
-24.8160024137
  0
LINE
  5
2F6
100
AcDbEntity
  8
RACCORDO
100
AcDbLine
 62
253
  6
CONTINUOUS
 10
-74.1860498123
 20
-22.1326165748
 11
-74.2664703651
 21
-22.1358454513
  0
LINE
  5
2F7
100
AcDbEntity
  8
RACCORDO
100
AcDbLine
 62
253
  6
CONTINUOUS
 10
-74.2664703651
 20
-22.1358454513
 11
-74.3521228927
 21
-22.1386846404
  0
LINE
  5
2F8
100
AcDbEntity
  8
RACCORDO
100
AcDbLine
 62
253
  6
CONTINUOUS
 10
-74.3521228927
 20
-22.1386846404
 11
-74.4415208994
 21
-22.1410848954
  0
LWPOLYLINE
  5
2F9
100
AcDbEntity
  8
RACCORDO
100
AcDbPolyline
 62
253
  6
CONTINUOUS
 90
3
 70
0
 10
-74.4415208994
 20
-22.1410848954
 10
-74.5331172086
 20
-22.1430039002
 10
-74.5792432855
 20
-22.1437722241
  0
LWPOLYLINE
  5
2FA
100
AcDbEntity
  8
RACCORDO
100
AcDbPolyline
 62
253
  6
CONTINUOUS
 90
10
 70
0
 10
-74.1075092801
 20
-22.1319386448
 10
-74.0851396935
 20
-22.1315001121
 10
-74.0648815944
 20
-22.130999379
 10
-74.0468401846
 20
-22.13044341
 10
-74.031110229
 20
-22.1298394985
 10
-74.0177731569
 20
-22.1291952408
 10
-74.0068972728
 20
-22.1285184106
 10
-73.998540048
 20
-22.1278169457
 10
-73.9927466969
 20
-22.1270989232
 10
-73.9895484926
 20
-22.1263725131
  0
LINE
  5
2FB
100
AcDbEntity
  8
RACCORDO
100
AcDbLine
 62
7
  6
CONTINUOUS
 10
80.6985455024
 20
-23.2459491758
 11
83.0196278382
 21
-23.2268639827
  0
LWPOLYLINE
  5
2FC
100
AcDbEntity
  8
RACCORDO
100
AcDbPolyline
 62
253
  6
CONTINUOUS
 90
3
 70
0
 10
-74.1860690347
 20
-22.1328158297
 10
-74.1581061053
 20
-22.1326026691
 10
-74.1075092801
 20
-22.1319386448
  0
LINE
  5
2FD
100
AcDbEntity
  8
0
100
AcDbLine
 62
7
  6
CONTINUOUS
 10
57.0038256469
 20
-22.9604867384
 11
83.0196278382
 21
-22.9447959146
  0
LINE
  5
2FE
100
AcDbEntity
  8
0
100
AcDbLine
 62
7
  6
CONTINUOUS
 10
30.9870869407
 20
-22.9699012951
 11
57.0038256469
 21
-22.9604867384
  0
LINE
  5
2FF
100
AcDbEntity
  8
RACCORDO
100
AcDbLine
 62
253
  6
CONTINUOUS
 10
80.6980405271
 20
-23.2459491758
 11
-70.7587851157
 21
-23.2459491758
  0
LINE
  5
300
100
AcDbEntity
  8
RACCORDO
100
AcDbLine
 62
253
  6
CONTINUOUS
 10
83.0196246891
 20
-23.0334226266
 11
-73.0803710749
 21
-23.0334226266
  0
LINE
  5
301
100
AcDbEntity
  8
0
100
AcDbLine
 62
7
  6
CONTINUOUS
 10
4.9696278382
 20
-22.973039544
 11
30.9870869407
 21
-22.9699012951
  0
LINE
  5
302
100
AcDbEntity
  8
RACCORDO
100
AcDbLine
 62
253
  6
CONTINUOUS
 10
-73.9001047925
 20
-22.1263725131
 11
-73.9895484752
 21
-22.1263811422
  0
LINE
  5
303
100
AcDbEntity
  8
RACCORDO
100
AcDbLine
 62
253
  6
CONTINUOUS
 10
83.8393604689
 20
-22.1263725131
 11
83.9288041594
 21
-22.1263772182
  0
LINE
  5
304
100
AcDbEntity
  8
0
100
AcDbLine
 62
7
  6
CONTINUOUS
 10
-34.0563446966
 20
-22.9659785451
 11
4.9696278382
 21
-22.973039544
  0
LINE
  5
305
100
AcDbEntity
  8
0
100
AcDbLine
 62
7
  6
CONTINUOUS
 10
-73.0803721618
 20
-22.9447959146
 11
-34.0563446966
 21
-22.9659785451
  0
LINE
  5
306
100
AcDbEntity
  8
RACCORDO
100
AcDbLine
 62
253
  6
CONTINUOUS
 10
84.4264388537
 20
-22.1377568691
 11
84.5185500964
 21
-22.1381661015
  0
LINE
  5
307
100
AcDbEntity
  8
RACCORDO
100
AcDbLine
 62
7
  6
CONTINUOUS
 10
-73.0803721619
 20
-23.2268639827
 11
-70.7592898351
 21
-23.2459491758
  0
LINE
  5
308
100
AcDbEntity
  8
RACCORDO
100
AcDbLine
 62
253
  6
CONTINUOUS
 10
84.1253022442
 20
-22.1328100217
 11
84.0711133749
 21
-22.1322880571
  0
LINE
  5
309
100
AcDbEntity
  8
RACCORDO
100
AcDbLine
 62
253
  6
CONTINUOUS
 10
84.3357330445
 20
-22.1368271413
 11
84.4264388537
 21
-22.1377568691
  0
LWPOLYLINE
  5
30A
100
AcDbEntity
  8
RACCORDO
100
AcDbPolyline
 62
253
  6
CONTINUOUS
 90
52
 70
0
 10
-73.0803710749
 20
-23.0334226265
 10
-73.1025390347
 20
-23.0331523803
 10
-73.1243544216
 20
-23.0323581008
 10
-73.1458055688
 20
-23.0310647575
 10
-73.1667341612
 20
-23.0293112707
 10
-73.1872793215
 20
-23.0271149282
 10
-73.2078739685
 20
-23.0244375938
 10
-73.228544459
 20
-23.0212671218
 10
-73.2492405323
 20
-23.0176025455
 10
-73.2702725023
 20
-23.0133698758
 10
-73.2917265682
 20
-23.0085163919
 10
-73.3134782048
 20
-23.0030337846
 10
-73.3355151739
 20
-22.9968913674
 10
-73.3579065306
 20
-22.9900310785
 10
-73.3805339713
 20
-22.9824492965
 10
-73.4031084508
 20
-22.9742176261
 10
-73.4255991446
 20
-22.9653337684
 10
-73.4479961535
 20
-22.9557881012
 10
-73.4700558252
 20
-22.9456812787
 10
-73.4917045895
 20
-22.9350574547
 10
-73.5129923226
 20
-22.9239022127
 10
-73.5338705964
 20
-22.9122498917
 10
-73.5542665166
 20
-22.9001556751
 10
-73.5742363667
 20
-22.8876009153
 10
-73.5939204853
 20
-22.8745003702
 10
-73.6132553533
 20
-22.860893743
 10
-73.6322749232
 20
-22.8467546223
 10
-73.6512416196
 20
-22.8318648498
 10
-73.6701061728
 20
-22.8162221368
 10
-73.6888498719
 20
-22.7997996743
 10
-73.7077393687
 20
-22.7822955265
 10
-73.7267353973
 20
-22.7636474394
 10
-73.7457451755
 20
-22.7438419119
 10
-73.7649054182
 20
-22.7226066726
 10
-73.7841483395
 20
-22.6998511414
 10
-73.8033329024
 20
-22.675563202
 10
-73.822441084
 20
-22.649562495
 10
-73.8413815705
 20
-22.6217287221
 10
-73.8599569779
 20
-22.5920838619
 10
-73.8779710748
 20
-22.5606646931
 10
-73.8953784559
 20
-22.5272238747
 10
-73.9118844846
 20
-22.4919616405
 10
-73.9270118094
 20
-22.4556509084
 10
-73.9407377857
 20
-22.4181828226
 10
-73.952919416
 20
-22.3797626977
 10
-73.9631642434
 20
-22.3417415627
 10
-73.9714567817
 20
-22.3047795315
 10
-73.9780556132
 20
-22.2684211588
 10
-73.9831058447
 20
-22.2323749774
 10
-73.9866753084
 20
-22.1965836349
 10
-73.9888042161
 20
-22.1612331379
 10
-73.989554113
 20
-22.1263811428
  0
LINE
  5
30B
100
AcDbEntity
  8
RACCORDO
100
AcDbLine
 62
253
  6
CONTINUOUS
 10
84.2480081151
 20
-22.1353929205
 11
84.3357330445
 21
-22.1368271413
  0
LWPOLYLINE
  5
30C
100
AcDbEntity
  8
RACCORDO
100
AcDbPolyline
 62
253
  6
CONTINUOUS
 90
10
 70
0
 10
84.0711133749
 20
-22.1322880571
 10
84.0243769316
 20
-22.1314770011
 10
84.0041159171
 20
-22.1309774936
 10
83.9860730902
 20
-22.1304240337
 10
83.9703421682
 20
-22.1298235622
 10
83.9570060031
 20
-22.1291831458
 10
83.9461359068
 20
-22.1285101143
 10
83.9377876658
 20
-22.1278120932
 10
83.9320026989
 20
-22.1270969227
 10
83.9288097061
 20
-22.1263725131
  0
LWPOLYLINE
  5
30D
100
AcDbEntity
  8
RACCORDO
100
AcDbPolyline
 62
253
  6
CONTINUOUS
 90
3
 70
0
 10
84.1253258135
 20
-22.1323515269
 10
84.164790053
 20
-22.1334786017
 10
84.2480081151
 20
-22.1353929205
  0
LWPOLYLINE
  5
30E
100
AcDbEntity
  8
RACCORDO
100
AcDbPolyline
 62
253
  6
CONTINUOUS
 90
12
 70
0
 10
108.4396138676
 20
-24.8094982041
 10
108.4635248604
 20
-24.8113084707
 10
108.4860953177
 20
-24.8129030978
 10
108.5071343846
 20
-24.8142686015
 10
108.5264641558
 20
-24.815393435
 10
108.5439211795
 20
-24.8162680868
 10
108.5593578398
 20
-24.8168851609
 10
108.5726436051
 20
-24.8172394394
 10
108.5836661315
 20
-24.8173279264
 10
108.5923322129
 20
-24.8171498738
 10
108.5985685694
 20
-24.8167067871
 10
108.6023224666
 20
-24.816002413
  0
LWPOLYLINE
  5
30F
100
AcDbEntity
  8
RACCORDO
100
AcDbPolyline
 62
253
  6
CONTINUOUS
 90
12
 70
0
 10
108.4257827625
 20
-24.9499710043
 10
108.4496927661
 20
-24.9517933039
 10
108.4722624208
 20
-24.9533986523
 10
108.4933008804
 20
-24.9547734747
 10
108.5126302458
 20
-24.9559061459
 10
108.5300870702
 20
-24.9567870881
 10
108.5455237407
 20
-24.9574088521
 10
108.5588097264
 20
-24.9577661804
 10
108.5698326825
 20
-24.9578560514
 10
108.5784994002
 20
-24.9576777053
 10
108.5847365947
 20
-24.95723265
 10
108.588491525
 20
-24.956524649
  0
LWPOLYLINE
  5
310
100
AcDbEntity
  8
RACCORDO
100
AcDbPolyline
 62
253
  6
CONTINUOUS
 90
13
 70
0
 10
108.345700664
 20
-25.499412617
 10
108.3707408986
 20
-25.5014497818
 10
108.3946442734
 20
-25.5032747092
 10
108.4172087486
 20
-25.504871974
 10
108.438243601
 20
-25.5062280758
 10
108.4575710367
 20
-25.5073315521
 10
108.4750276933
 20
-25.5081730761
 10
108.4904660207
 20
-25.5087455348
 10
108.5037555289
 20
-25.5090440897
 10
108.51478389
 20
-25.5090662172
 10
108.5234578884
 20
-25.5088117304
 10
108.5297042085
 20
-25.5082827802
 10
108.533470054
 20
-25.5074838375
  0
LINE
  5
311
100
AcDbEntity
  8
RACCORDO
100
AcDbLine
 62
253
  6
CONTINUOUS
 10
108.3885886627
 20
-24.8052936769
 11
108.4396138676
 21
-24.8094982041
  0
LINE
  5
312
100
AcDbEntity
  8
RACCORDO
100
AcDbLine
 62
253
  6
CONTINUOUS
 10
108.3747600547
 20
-24.945738892
 11
108.4257827625
 21
-24.9499710043
  0
LWPOLYLINE
  5
313
100
AcDbEntity
  8
0
100
AcDbPolyline
 62
7
  6
CONTINUOUS
 90
54
 70
0
 10
9.731876268
 20
-26.5966563866
 10
9.7608399452
 20
-26.6082736638
 10
9.7900438721
 20
-26.6222248044
 10
9.8194880457
 20
-26.6385097666
 10
9.8492740125
 20
-26.6570502298
 10
9.8793002198
 20
-26.6779244109
 10
9.9092620152
 20
-26.7013670566
 10
9.9393649457
 20
-26.7273955521
 10
9.9694034569
 20
-26.755992346
 10
9.9984562441
 20
-26.7873397535
 10
10.0266074881
 20
-26.8217333908
 10
10.0537730011
 20
-26.8588773934
 10
10.0787789291
 20
-26.8980668668
 10
10.1014683215
 20
-26.9395867606
 10
10.1219981278
 20
-26.9831518901
 10
10.1396653501
 20
-27.0272022737
 10
10.1541049072
 20
-27.0717393153
 10
10.1656818878
 20
-27.1167615446
 10
10.1747885536
 20
-27.1607048536
 10
10.1812924996
 20
-27.2032009747
 10
10.1853261409
 20
-27.2446183088
 10
10.1876789698
 20
-27.2844978696
 10
10.1884709479
 20
-27.3226178816
 10
10.1875821207
 20
-27.3592002879
 10
10.1854421054
 20
-27.3944516917
 10
10.1820882737
 20
-27.4284338035
 10
10.1774832585
 20
-27.4610850353
 10
10.1719445673
 20
-27.4924270273
 10
10.1654844499
 20
-27.5224370878
 10
10.1580906597
 20
-27.5511380196
 10
10.1500439587
 20
-27.5786196972
 10
10.1413626861
 20
-27.6048712334
 10
10.1320285046
 20
-27.629903607
 10
10.1222671617
 20
-27.6538394802
 10
10.1120969196
 20
-27.6766897778
 10
10.1014995171
 20
-27.6984436472
 10
10.0906459156
 20
-27.7191910747
 10
10.0795585363
 20
-27.7389241105
 10
10.0682149585
 20
-27.7576507625
 10
10.0567188808
 20
-27.7754849463
 10
10.0450699967
 20
-27.7924356682
 10
10.0332686128
 20
-27.8084939664
 10
10.021419347
 20
-27.8237467972
 10
10.0095187887
 20
-27.8381710455
 10
9.9975703484
 20
-27.8517898613
 10
9.9856888758
 20
-27.8647595927
 10
9.9738813432
 20
-27.8770854476
 10
9.962140778
 20
-27.8887622419
 10
9.950561113
 20
-27.8999307286
 10
9.9391517069
 20
-27.9106043189
 10
9.9279032007
 20
-27.9207696176
 10
9.9168814505
 20
-27.9305271633
 10
9.9061144711
 20
-27.9398884092
 10
9.8955742474
 20
-27.9488419134
  0
LWPOLYLINE
  5
314
100
AcDbEntity
  8
0
100
AcDbPolyline
 62
7
  6
CONTINUOUS
 90
3
 70
0
 10
9.7921310031
 20
-28.02729695
 10
9.8159845881
 20
-28.0382957072
 10
9.8386405766
 20
-28.0506654364
  0
LWPOLYLINE
  5
315
100
AcDbEntity
  8
0
100
AcDbPolyline
 62
7
  6
CONTINUOUS
 90
24
 70
0
 10
9.8386405766
 20
-28.0506654364
 10
9.8600989677
 20
-28.0644061124
 10
9.8803704898
 20
-28.0797529634
 10
9.8994444126
 20
-28.0964706977
 10
9.9172885486
 20
-28.1138535225
 10
9.9338006428
 20
-28.1317841879
 10
9.9490829505
 20
-28.15037991
 10
9.9634100506
 20
-28.169286621
 10
9.9767913636
 20
-28.1884330317
 10
9.9892174699
 20
-28.2078904142
 10
10.0009346879
 20
-28.2275185553
 10
10.0119838475
 20
-28.2473283579
 10
10.0223241195
 20
-28.267308908
 10
10.0320793334
 20
-28.2872872769
 10
10.0412568008
 20
-28.307246278
 10
10.0498492109
 20
-28.3272030977
 10
10.0579584601
 20
-28.3470363754
 10
10.0655838089
 20
-28.3667139423
 10
10.0727259975
 20
-28.3862679747
 10
10.079489142
 20
-28.405673634
 10
10.0858596929
 20
-28.4248966471
 10
10.0918512004
 20
-28.4439712958
 10
10.0976084297
 20
-28.4629755723
 10
10.103124618
 20
-28.4819060923
  0
LINE
  5
316
100
AcDbEntity
  8
RACCORDO
100
AcDbLine
 62
253
  6
CONTINUOUS
 10
-98.2310645334
 20
-29.5256193725
 11
-98.0591307167
 21
-29.4957969872
  0
LWPOLYLINE
  5
317
100
AcDbEntity
  8
RACCORDO
100
AcDbPolyline
 62
253
  6
CONTINUOUS
 90
16
 70
0
 10
-97.7937514032
 20
-29.4689819852
 10
-97.8205671782
 20
-29.4732007288
 10
-97.8469141116
 20
-29.4771808816
 10
-97.8725712409
 20
-29.4808890636
 10
-97.8973233887
 20
-29.4842941754
 10
-97.9209629676
 20
-29.4873676595
 10
-97.9432917206
 20
-29.4900837395
 10
-97.9641223845
 20
-29.4924196366
 10
-97.9832802596
 20
-29.4943557604
 10
-98.0006046757
 20
-29.4958758732
 10
-98.015950339
 20
-29.4969672263
 10
-98.0291885508
 20
-29.4976206668
 10
-98.0402082869
 20
-29.4978307145
 10
-98.0489171287
 20
-29.4975956078
 10
-98.0552420381
 20
-29.4969173183
 10
-98.0591299703
 20
-29.4958015346
  0
LINE
  5
318
100
AcDbEntity
  8
RACCORDO
100
AcDbLine
 62
253
  6
CONTINUOUS
 10
-98.7672367538
 20
-25.5256193725
 11
-98.5942145872
 21
-25.5074817614
  0
LINE
  5
319
100
AcDbEntity
  8
RACCORDO
100
AcDbLine
 62
253
  6
CONTINUOUS
 10
-98.6630667969
 20
-24.8160024137
 11
-98.8361547289
 21
-24.8329814784
  0
LINE
  5
31A
100
AcDbEntity
  8
RACCORDO
100
AcDbLine
 62
253
  6
CONTINUOUS
 10
108.3347419222
 20
-24.8004314289
 11
108.3885886627
 21
-24.8052936769
  0
LINE
  5
31B
100
AcDbEntity
  8
RACCORDO
100
AcDbLine
 62
253
  6
CONTINUOUS
 10
108.3209164184
 20
-24.940845158
 11
108.3747600547
 21
-24.945738892
  0
LWPOLYLINE
  5
31C
100
AcDbEntity
  8
RACCORDO
100
AcDbPolyline
 62
253
  6
CONTINUOUS
 90
3
 70
0
 10
108.2659125376
 20
-25.4922079679
 10
108.2930640317
 20
-25.4947720983
 10
108.345700664
 20
-25.499412617
  0
LINE
  5
31D
100
AcDbEntity
  8
RACCORDO
100
AcDbLine
 62
253
  6
CONTINUOUS
 10
108.6023224733
 20
-24.8160024137
 11
108.7754104053
 21
-24.8329814784
  0
LINE
  5
31E
100
AcDbEntity
  8
RACCORDO
100
AcDbLine
 62
253
  6
CONTINUOUS
 10
108.7064924303
 20
-25.5256193725
 11
108.53347033
 21
-25.5074811041
  0
LWPOLYLINE
  5
31F
100
AcDbEntity
  8
RACCORDO
100
AcDbPolyline
 62
253
  6
CONTINUOUS
 90
16
 70
0
 10
107.7330070799
 20
-29.4689819854
 10
107.7598228545
 20
-29.4732007254
 10
107.7861697873
 20
-29.4771808748
 10
107.8118269158
 20
-29.4808890535
 10
107.8365790628
 20
-29.4842941623
 10
107.8602186407
 20
-29.4873676438
 10
107.8825473926
 20
-29.4900837217
 10
107.9033780553
 20
-29.4924196173
 10
107.9225359292
 20
-29.4943557402
 10
107.939860344
 20
-29.4958758528
 10
107.955206006
 20
-29.4969672065
 10
107.9684442165
 20
-29.4976206486
 10
107.9794639511
 20
-29.4978306987
 10
107.9881727915
 20
-29.4975955953
 10
107.9944976994
 20
-29.4969173101
 10
107.9983856302
 20
-29.4958015317
  0
LINE
  5
320
100
AcDbEntity
  8
RACCORDO
100
AcDbLine
 62
253
  6
CONTINUOUS
 10
108.1703202098
 20
-29.5256193725
 11
107.9983862923
 21
-29.4957975892
  0
LINE
  5
321
100
AcDbEntity
  8
0
100
AcDbLine
 62
7
  6
CONTINUOUS
 10
0.3535208382
 20
-29.3341735131
 11
-0.5340401618
 21
-26.5344705131
  0
LINE
  5
322
100
AcDbEntity
  8
RACCORDO
100
AcDbLine
 62
253
  6
CONTINUOUS
 10
83.9535028307
 20
-0.4263725131
 11
84.5432489652
 21
-0.4263725131
  0
LINE
  5
323
100
AcDbEntity
  8
RACCORDO
100
AcDbLine
 62
253
  6
CONTINUOUS
 10
-74.0142471543
 20
-0.4263725131
 11
-74.6039932887
 21
-0.4263725131
  0
LWPOLYLINE
  5
324
100
AcDbEntity
  8
0
100
AcDbPolyline
 62
7
  6
CONTINUOUS
 90
19
 70
0
 10
9.5110298984
 20
-28.4850354611
 10
9.5016325568
 20
-28.4619753078
 10
9.49106454
 20
-28.4396311063
 10
9.4793258476
 20
-28.4180028822
 10
9.466385925
 20
-28.396977683
 10
9.452275326
 20
-28.3766685068
 10
9.4370857132
 20
-28.3574143149
 10
9.4208286229
 20
-28.3392016152
 10
9.4034925193
 20
-28.322043961
 10
9.3851344582
 20
-28.3063208991
 10
9.3656820114
 20
-28.2920505973
 10
9.3452076088
 20
-28.2792149544
 10
9.3239855943
 20
-28.2681391249
 10
9.3019760701
 20
-28.2589599361
 10
9.2792189371
 20
-28.2515406165
 10
9.256108238
 20
-28.245795921
 10
9.2327753213
 20
-28.2416974423
 10
9.2090888416
 20
-28.2392736125
 10
9.1850488005
 20
-28.2385244379
  0
LINE
  5
325
100
AcDbEntity
  8
0
100
AcDbLine
 62
7
  6
CONTINUOUS
 10
4.2551408382
 20
-29.3341735131
 11
3.5695598382
 21
-27.5060195131
  0
LINE
  5
326
100
AcDbEntity
  8
0
100
AcDbLine
 62
7
  6
CONTINUOUS
 10
3.7210778382
 20
-26.5344705131
 11
4.2993138382
 21
-28.0888745131
  0
LINE
  5
327
100
AcDbEntity
  8
0
100
AcDbLine
 62
7
  6
CONTINUOUS
 10
7.2590178382
 20
-26.5344705131
 11
8.1180358382
 21
-29.3341735131
  0
LWPOLYLINE
  5
328
100
AcDbEntity
  8
0
100
AcDbPolyline
 62
7
  6
CONTINUOUS
 90
8
 70
0
 10
9.6004193861
 20
-28.759229825
 10
9.5887476695
 20
-28.7197195062
 10
9.5768229602
 20
-28.6803295237
 10
9.564644982
 20
-28.6410638194
 10
9.551998237
 20
-28.6019034473
 10
9.5388108922
 20
-28.5628420978
 10
9.5251547795
 20
-28.5238860993
 10
9.5110298984
 20
-28.4850354611
  0
LINE
  5
329
100
AcDbEntity
  8
0
100
AcDbLine
 62
7
  6
CONTINUOUS
 10
9.7292973153
 20
-29.2058059618
 11
9.704782486
 21
-29.1223301686
  0
LINE
  5
32A
100
AcDbEntity
  8
0
100
AcDbLine
 62
7
  6
CONTINUOUS
 10
0.1008078382
 20
-26.5344705131
 11
0.6344818382
 21
-28.4615925131
  0
LINE
  5
32B
100
AcDbEntity
  8
0
100
AcDbLine
 62
7
  6
CONTINUOUS
 10
7.5020938382
 20
-29.3341735131
 11
7.3507018382
 21
-28.7752535131
  0
LINE
  5
32C
100
AcDbEntity
  8
0
100
AcDbLine
 62
7
  6
CONTINUOUS
 10
7.2339078382
 20
-28.3427635131
 11
6.9653648382
 21
-27.3037575131
  0
LINE
  5
32D
100
AcDbEntity
  8
0
100
AcDbLine
 62
7
  6
CONTINUOUS
 10
5.4619358382
 20
-26.5344705131
 11
5.7237398382
 21
-29.3341735131
  0
LINE
  5
32E
100
AcDbEntity
  8
0
100
AcDbLine
 62
7
  6
CONTINUOUS
 10
5.1520338382
 20
-29.3341735131
 11
5.0319648382
 21
-27.5136415131
  0
LWPOLYLINE
  5
32F
100
AcDbEntity
  8
0
100
AcDbPolyline
 62
7
  6
CONTINUOUS
 90
22
 70
0
 10
9.6402799831
 20
-27.3451582333
 10
9.6392268362
 20
-27.3224938162
 10
9.6365932451
 20
-27.2997601824
 10
9.6323792084
 20
-27.2769573303
 10
9.6266123327
 20
-27.2539484997
 10
9.6192650088
 20
-27.2308704447
 10
9.6102544117
 20
-27.208133449
 10
9.5995625405
 20
-27.1856806424
 10
9.5872073939
 20
-27.1635689161
 10
9.5731601471
 20
-27.1423792249
 10
9.5572973501
 20
-27.1221230154
 10
9.539742452
 20
-27.1027888941
 10
9.5208369779
 20
-27.0849235853
 10
9.5004959852
 20
-27.068666637
 10
9.4788044179
 20
-27.0538785716
 10
9.4563586323
 20
-27.0406875867
 10
9.4332424834
 20
-27.029151
 10
9.4093721187
 20
-27.0192115478
 10
9.385092334
 20
-27.010825552
 10
9.3605180623
 20
-27.0039784636
 10
9.3355343732
 20
-26.9986848633
 10
9.3101412684
 20
-26.994944762
  0
LINE
  5
330
100
AcDbEntity
  8
0
100
AcDbLine
 62
7
  6
CONTINUOUS
 10
1.9853428382
 20
-29.3341735131
 11
1.9853428382
 21
-26.5343025131
  0
LINE
  5
331
100
AcDbEntity
  8
0
100
AcDbLine
 62
7
  6
CONTINUOUS
 10
2.5697508382
 20
-26.5343025131
 11
2.5697508382
 21
-29.3341735131
  0
LINE
  5
332
100
AcDbEntity
  8
0
100
AcDbLine
 62
7
  6
CONTINUOUS
 10
8.2896466405
 20
-29.3341738675
 11
8.2896466405
 21
-26.5671798541
  0
LINE
  5
333
100
AcDbEntity
  8
0
100
AcDbLine
 62
7
  6
CONTINUOUS
 10
8.8523250923
 20
-27.011427309
 11
8.8523250923
 21
-27.7800005997
  0
LINE
  5
334
100
AcDbEntity
  8
0
100
AcDbLine
 62
7
  6
CONTINUOUS
 10
8.8717031831
 20
-28.2385244379
 11
8.8717031831
 21
-29.3341738675
  0
LINE
  5
335
100
AcDbEntity
  8
0
100
AcDbLine
 62
7
  6
CONTINUOUS
 10
3.5695598382
 20
-27.5060195131
 11
3.4434448382
 21
-29.3341735131
  0
LINE
  5
336
100
AcDbEntity
  8
0
100
AcDbLine
 62
7
  6
CONTINUOUS
 10
2.8843558382
 20
-29.3341735131
 11
3.1371528382
 21
-26.5344705131
  0
LINE
  5
337
100
AcDbEntity
  8
0
100
AcDbLine
 62
7
  6
CONTINUOUS
 10
0.6344818382
 20
-28.4615925131
 11
1.1844588382
 21
-26.5344705131
  0
LINE
  5
338
100
AcDbEntity
  8
0
100
AcDbLine
 62
7
  6
CONTINUOUS
 10
9.7666434601
 20
-29.3341738675
 11
9.7292973153
 21
-29.2058059618
  0
LINE
  5
339
100
AcDbEntity
  8
0
100
AcDbLine
 62
7
  6
CONTINUOUS
 10
9.704782486
 20
-29.1223301686
 11
9.6689905907
 21
-28.9994557876
  0
LWPOLYLINE
  5
33A
100
AcDbEntity
  8
0
100
AcDbPolyline
 62
7
  6
CONTINUOUS
 90
4
 70
0
 10
9.6689905907
 20
-28.9994557876
 10
9.6458870605
 20
-28.9186904691
 10
9.6345716716
 20
-28.8785947355
 10
9.6004193861
 20
-28.759229825
  0
LINE
  5
33B
100
AcDbEntity
  8
0
100
AcDbLine
 62
7
  6
CONTINUOUS
 10
10.103124618
 20
-28.4819060923
 11
10.1136192151
 21
-28.5196441709
  0
LINE
  5
33C
100
AcDbEntity
  8
0
100
AcDbLine
 62
7
  6
CONTINUOUS
 10
10.1136192151
 20
-28.5196441709
 11
10.1239469515
 21
-28.5575121112
  0
LINE
  5
33D
100
AcDbEntity
  8
0
100
AcDbLine
 62
7
  6
CONTINUOUS
 10
10.1239469515
 20
-28.5575121112
 11
10.1986697111
 21
-28.8376548273
  0
LINE
  5
33E
100
AcDbEntity
  8
0
100
AcDbLine
 62
7
  6
CONTINUOUS
 10
10.1986697111
 20
-28.8376548273
 11
10.3287760501
 21
-29.3341738675
  0
LINE
  5
33F
100
AcDbEntity
  8
0
100
AcDbLine
 62
7
  6
CONTINUOUS
 10
9.7921310031
 20
-28.0107531411
 11
9.7921310031
 21
-28.02729695
  0
LINE
  5
340
100
AcDbEntity
  8
0
100
AcDbLine
 62
7
  6
CONTINUOUS
 10
6.9653648382
 20
-27.3037575131
 11
6.6743788382
 21
-28.3427635131
  0
LINE
  5
341
100
AcDbEntity
  8
0
100
AcDbLine
 62
7
  6
CONTINUOUS
 10
6.5548348382
 20
-28.7752535131
 11
6.3935748382
 21
-29.3341735131
  0
LINE
  5
342
100
AcDbEntity
  8
0
100
AcDbLine
 62
7
  6
CONTINUOUS
 10
5.8155078382
 20
-29.3341735131
 11
6.6936728382
 21
-26.5344705131
  0
LINE
  5
343
100
AcDbEntity
  8
0
100
AcDbLine
 62
7
  6
CONTINUOUS
 10
1.7684678382
 20
-26.5344705131
 11
0.8685308382
 21
-29.3341735131
  0
LINE
  5
344
100
AcDbEntity
  8
0
100
AcDbLine
 62
7
  6
CONTINUOUS
 10
4.2993138382
 20
-28.0888745131
 11
4.8837218382
 21
-26.5344705131
  0
LINE
  5
345
100
AcDbEntity
  8
0
100
AcDbLine
 62
7
  6
CONTINUOUS
 10
5.0319648382
 20
-27.5136415131
 11
4.3371038382
 21
-29.3341735131
  0
LINE
  5
346
100
AcDbEntity
  8
RACCORDO
100
AcDbLine
 62
253
  6
CONTINUOUS
 10
108.1703202098
 20
28.6728743463
 11
107.9983863932
 21
28.643051961
  0
LWPOLYLINE
  5
347
100
AcDbEntity
  8
RACCORDO
100
AcDbPolyline
 62
253
  6
CONTINUOUS
 90
16
 70
0
 10
107.7330070796
 20
28.616236959
 10
107.7598228546
 20
28.6204557026
 10
107.786169788
 20
28.6244358555
 10
107.8118269173
 20
28.6281440374
 10
107.8365790652
 20
28.6315491492
 10
107.860218644
 20
28.6346226333
 10
107.8825473971
 20
28.6373387133
 10
107.9033780609
 20
28.6396746104
 10
107.922535936
 20
28.6416107342
 10
107.9398603522
 20
28.643130847
 10
107.9552060155
 20
28.6442222001
 10
107.9684442273
 20
28.6448756406
 10
107.9794639634
 20
28.6450856884
 10
107.9881728051
 20
28.6448505816
 10
107.9944977145
 20
28.6441722921
 10
107.9983856468
 20
28.6430565084
  0
LINE
  5
348
100
AcDbEntity
  8
RACCORDO
100
AcDbLine
 62
253
  6
CONTINUOUS
 10
108.7064924303
 20
24.6728743463
 11
108.5334702636
 21
24.6547367352
  0
LINE
  5
349
100
AcDbEntity
  8
RACCORDO
100
AcDbLine
 62
253
  6
CONTINUOUS
 10
108.6023224733
 20
23.9632573875
 11
108.7754104053
 21
23.9802364522
  0
LWPOLYLINE
  5
34A
100
AcDbEntity
  8
RACCORDO
100
AcDbPolyline
 62
253
  6
CONTINUOUS
 90
15
 70
0
 10
108.2659125375
 20
24.6394629416
 10
108.3197352186
 20
24.6444354071
 10
108.3457006641
 20
24.6466675906
 10
108.3707408988
 20
24.6487047555
 10
108.3946442738
 20
24.6505296828
 10
108.417208749
 20
24.6521269477
 10
108.4382436016
 20
24.6534830494
 10
108.4575710375
 20
24.6545865257
 10
108.4750276941
 20
24.6554280497
 10
108.4904660217
 20
24.6560005085
 10
108.50375553
 20
24.6562990634
 10
108.5147838912
 20
24.656321191
 10
108.5234578898
 20
24.6560667042
 10
108.5297042099
 20
24.6555377541
 10
108.5334700556
 20
24.6547388114
  0
LINE
  5
34B
100
AcDbEntity
  8
RACCORDO
100
AcDbLine
 62
253
  6
CONTINUOUS
 10
108.3209164184
 20
24.0881001318
 11
108.3747600547
 21
24.0929938659
  0
LINE
  5
34C
100
AcDbEntity
  8
RACCORDO
100
AcDbLine
 62
253
  6
CONTINUOUS
 10
108.3347419227
 20
23.9476864029
 11
108.3885886647
 21
23.9525486511
  0
LWPOLYLINE
  5
34D
100
AcDbEntity
  8
RACCORDO
100
AcDbPolyline
 62
253
  6
CONTINUOUS
 90
13
 70
0
 10
108.3747600547
 20
24.0929938659
 10
108.4257827625
 20
24.0972259781
 10
108.4496927661
 20
24.0990482777
 10
108.4722624208
 20
24.1006536261
 10
108.4933008803
 20
24.1020284486
 10
108.5126302458
 20
24.1031611197
 10
108.5300870702
 20
24.1040420619
 10
108.5455237407
 20
24.1046638259
 10
108.5588097264
 20
24.1050211542
 10
108.5698326825
 20
24.1051110252
 10
108.5784994002
 20
24.1049326791
 10
108.5847365947
 20
24.1044876238
 10
108.588491525
 20
24.1037796228
  0
LWPOLYLINE
  5
34E
100
AcDbEntity
  8
RACCORDO
100
AcDbPolyline
 62
253
  6
CONTINUOUS
 90
13
 70
0
 10
108.3885886647
 20
23.9525486511
 10
108.4396138711
 20
23.9567531784
 10
108.4635248646
 20
23.958563445
 10
108.4860953225
 20
23.9601580722
 10
108.5071343901
 20
23.9615235759
 10
108.5264641618
 20
23.9626484095
 10
108.5439211859
 20
23.9635230613
 10
108.5593578466
 20
23.9641401354
 10
108.5726436121
 20
23.9644944139
 10
108.5836661386
 20
23.9645829009
 10
108.5923322201
 20
23.9644048483
 10
108.5985685764
 20
23.9639617616
 10
108.6023224733
 20
23.9632573875
  0
LWPOLYLINE
  5
34F
100
AcDbEntity
  8
RACCORDO
100
AcDbPolyline
 62
253
  6
CONTINUOUS
 90
6
 70
0
 10
83.9703344235
 20
21.2786626271
 10
83.9570057618
 20
21.2776875383
 10
83.9461387906
 20
21.276691235
 10
83.9377902918
 20
21.275678923
 10
83.932003888
 20
21.2746558917
 10
83.9288098144
 20
21.2736274869
  0
LINE
  5
350
100
AcDbEntity
  8
RACCORDO
100
AcDbLine
 62
253
  6
CONTINUOUS
 10
84.1253041229
 20
21.2798714884
 11
84.1647709534
 21
21.2815313197
  0
LWPOLYLINE
  5
351
100
AcDbEntity
  8
RACCORDO
100
AcDbPolyline
 62
253
  6
CONTINUOUS
 90
12
 70
0
 10
-98.5003581912
 20
23.9567531779
 10
-98.524269184
 20
23.9585634445
 10
-98.5468396412
 20
23.9601580717
 10
-98.5678787082
 20
23.9615235753
 10
-98.5872084794
 20
23.9626484088
 10
-98.604665503
 20
23.9635230606
 10
-98.6201021634
 20
23.9641401347
 10
-98.6333879287
 20
23.9644944132
 10
-98.6444104551
 20
23.9645829002
 10
-98.6530765365
 20
23.9644048476
 10
-98.659312893
 20
23.9639617609
 10
-98.6630667902
 20
23.9632573868
  0
LWPOLYLINE
  5
352
100
AcDbEntity
  8
RACCORDO
100
AcDbPolyline
 62
253
  6
CONTINUOUS
 90
12
 70
0
 10
-98.4865270861
 20
24.0972259781
 10
-98.5104370896
 20
24.0990482777
 10
-98.5330067444
 20
24.1006536261
 10
-98.5540452039
 20
24.1020284486
 10
-98.5733745694
 20
24.1031611197
 10
-98.5908313938
 20
24.1040420619
 10
-98.6062680642
 20
24.1046638259
 10
-98.6195540499
 20
24.1050211542
 10
-98.6305770061
 20
24.1051110252
 10
-98.6392437238
 20
24.1049326791
 10
-98.6454809183
 20
24.1044876238
 10
-98.6492358486
 20
24.1037796228
  0
LWPOLYLINE
  5
353
100
AcDbEntity
  8
RACCORDO
100
AcDbPolyline
 62
253
  6
CONTINUOUS
 90
13
 70
0
 10
-98.4064449875
 20
24.6466675908
 10
-98.4314852222
 20
24.6487047556
 10
-98.455388597
 20
24.650529683
 10
-98.4779530721
 20
24.6521269478
 10
-98.4989879246
 20
24.6534830496
 10
-98.5183153603
 20
24.6545865259
 10
-98.5357720168
 20
24.6554280499
 10
-98.5512103443
 20
24.6560005086
 10
-98.5644998524
 20
24.6562990635
 10
-98.5755282135
 20
24.656321191
 10
-98.584202212
 20
24.6560667042
 10
-98.590448532
 20
24.655537754
 10
-98.5942143776
 20
24.6547388113
  0
LINE
  5
354
100
AcDbEntity
  8
RACCORDO
100
AcDbLine
 62
253
  6
CONTINUOUS
 10
-98.4493329863
 20
23.9525486508
 11
-98.5003581912
 21
23.9567531779
  0
LINE
  5
355
100
AcDbEntity
  8
RACCORDO
100
AcDbLine
 62
253
  6
CONTINUOUS
 10
-98.4355043783
 20
24.0929938659
 11
-98.4865270861
 21
24.0972259781
  0
LINE
  5
356
100
AcDbEntity
  8
RACCORDO
100
AcDbLine
 62
253
  6
CONTINUOUS
 10
-98.3954862458
 20
23.9476864027
 11
-98.4493329863
 21
23.9525486508
  0
LINE
  5
357
100
AcDbEntity
  8
RACCORDO
100
AcDbLine
 62
253
  6
CONTINUOUS
 10
-98.381660742
 20
24.0881001318
 11
-98.4355043783
 21
24.0929938659
  0
LWPOLYLINE
  5
358
100
AcDbEntity
  8
RACCORDO
100
AcDbPolyline
 62
253
  6
CONTINUOUS
 90
3
 70
0
 10
-98.3266568612
 20
24.6394629417
 10
-98.3538083552
 20
24.6420270721
 10
-98.4064449875
 20
24.6466675908
  0
LINE
  5
359
100
AcDbEntity
  8
RACCORDO
100
AcDbLine
 62
253
  6
CONTINUOUS
 10
-98.6630667969
 20
23.9632573875
 11
-98.8361547289
 21
23.9802364522
  0
LINE
  5
35A
100
AcDbEntity
  8
RACCORDO
100
AcDbLine
 62
253
  6
CONTINUOUS
 10
-98.7672367538
 20
24.6728743463
 11
-98.5942146536
 21
24.6547360779
  0
LWPOLYLINE
  5
35B
100
AcDbEntity
  8
RACCORDO
100
AcDbPolyline
 62
253
  6
CONTINUOUS
 90
16
 70
0
 10
-97.7937514035
 20
28.6162369592
 10
-97.8205671781
 20
28.6204556992
 10
-97.8469141108
 20
28.6244358486
 10
-97.8725712394
 20
28.6281440273
 10
-97.8973233863
 20
28.6315491361
 10
-97.9209629642
 20
28.6346226176
 10
-97.9432917162
 20
28.6373386955
 10
-97.9641223789
 20
28.6396745911
 10
-97.9832802528
 20
28.641610714
 10
-98.0006046676
 20
28.6431308266
 10
-98.0159503296
 20
28.6442221804
 10
-98.02918854
 20
28.6448756224
 10
-98.0402082747
 20
28.6450856725
 10
-98.048917115
 20
28.6448505691
 10
-98.055242023
 20
28.6441722839
 10
-98.0591299538
 20
28.6430565055
  0
LINE
  5
35C
100
AcDbEntity
  8
RACCORDO
100
AcDbLine
 62
253
  6
CONTINUOUS
 10
-98.2310645334
 20
28.6728743463
 11
-98.0591306158
 21
28.643052563
  0
LWPOLYLINE
  5
35D
100
AcDbEntity
  8
RACCORDO
100
AcDbPolyline
 62
253
  6
CONTINUOUS
 90
13
 70
0
 10
84.125325784
 20
21.2796078759
 10
84.0973659393
 20
21.278549627
 10
84.0711356873
 20
21.2774102311
 10
84.0467721825
 20
21.2761956459
 10
84.0244028188
 20
21.2749122224
 10
84.0041445628
 20
21.2735666715
 10
83.9861033424
 20
21.2721660289
 10
83.9703734929
 20
21.2707176183
 10
83.9570372637
 20
21.2692290134
 10
83.9461643884
 20
21.2677079977
 10
83.9378117198
 20
21.2661625247
 10
83.9320229331
 20
21.2646006752
 10
83.928828297
 20
21.2630306162
  0
LINE
  5
35E
100
AcDbEntity
  8
RACCORDO
100
AcDbLine
 62
253
  6
CONTINUOUS
 10
84.1647709534
 20
21.2815313197
 11
84.247989119
 21
21.2845719299
  0
LWPOLYLINE
  5
35F
100
AcDbEntity
  8
RACCORDO
100
AcDbPolyline
 62
7
  6
CONTINUOUS
 90
16
 70
0
 10
-73.0803721618
 20
22.3741210258
 10
-73.1309853654
 20
22.3724171916
 10
-73.1813816989
 20
22.3684318111
 10
-73.23145428
 20
22.3621847591
 10
-73.2811337588
 20
22.3536908606
 10
-73.3303161237
 20
22.3429799631
 10
-73.3788656552
 20
22.3301056139
 10
-73.4266457713
 20
22.3151268034
 10
-73.4735974694
 20
22.2980725357
 10
-73.5197320469
 20
22.2789432811
 10
-73.5650007495
 20
22.2577568095
 10
-73.6093013048
 20
22.2345563438
 10
-73.6526270318
 20
22.2093333284
 10
-73.6949139792
 20
22.1820986357
 10
-73.736024888
 20
22.1529185985
 10
-73.7758514865
 20
22.1218534162
  0
LWPOLYLINE
  5
360
100
AcDbEntity
  8
RACCORDO
100
AcDbPolyline
 62
253
  6
CONTINUOUS
 90
28
 70
0
 10
-73.0900484182
 20
22.7848252229
 10
-73.1282791789
 20
22.7836307072
 10
-73.1663854245
 20
22.7814858755
 10
-73.204367156
 20
22.7783907272
 10
-73.2422444027
 20
22.7743414738
 10
-73.2799971364
 20
22.769341902
 10
-73.3175652711
 20
22.7634033735
 10
-73.3549499402
 20
22.7565232738
 10
-73.3921500111
 20
22.7487042141
 10
-73.4291019989
 20
22.7399653947
 10
-73.4658057657
 20
22.7303035284
 10
-73.5022614498
 20
22.7197218976
 10
-73.5384059802
 20
22.7082495563
 10
-73.5742347195
 20
22.69588974
 10
-73.609752305
 20
22.6826392073
 10
-73.6449095775
 20
22.6685172961
 10
-73.6797133001
 20
22.6535233019
 10
-73.7141567091
 20
22.6376579222
 10
-73.7481703548
 20
22.6209425977
 10
-73.7817504446
 20
22.6033718116
 10
-73.8149007701
 20
22.5849510727
 10
-73.847563258
 20
22.5657183596
 10
-73.8797329189
 20
22.5456788097
 10
-73.9114147407
 20
22.524827277
 10
-73.9425656164
 20
22.5031863155
 10
-73.9731711761
 20
22.4807634404
 10
-74.0032457877
 20
22.4575511271
 10
-74.0327894498
 20
22.4335493707
  0
LINE
  5
361
100
AcDbEntity
  8
RACCORDO
100
AcDbLine
 62
253
  6
CONTINUOUS
 10
84.247989119
 20
21.2845719299
 11
84.3357043704
 21
21.2871974557
  0
LINE
  5
362
100
AcDbEntity
  8
RACCORDO
100
AcDbLine
 62
253
  6
CONTINUOUS
 10
84.3357043704
 20
21.2871974557
 11
84.4263986684
 21
21.289361795
  0
LINE
  5
363
100
AcDbEntity
  8
RACCORDO
100
AcDbLine
 62
253
  6
CONTINUOUS
 10
84.4263986684
 20
21.289361795
 11
84.5184989619
 21
21.2910271979
  0
LINE
  5
364
100
AcDbEntity
  8
RACCORDO
100
AcDbLine
 62
7
  6
CONTINUOUS
 10
-70.7592898348
 20
22.3932041496
 11
-73.0803721618
 21
22.3741189565
  0
LINE
  5
365
100
AcDbEntity
  8
0
100
AcDbLine
 62
7
  6
CONTINUOUS
 10
-73.0803721618
 20
22.0920508885
 11
-47.0645699705
 21
22.1077417122
  0
LINE
  5
366
100
AcDbEntity
  8
0
100
AcDbLine
 62
7
  6
CONTINUOUS
 10
-47.0645699705
 20
22.1077417122
 11
-21.0478312642
 21
22.1171562689
  0
LINE
  5
367
100
AcDbEntity
  8
RACCORDO
100
AcDbLine
 62
253
  6
CONTINUOUS
 10
83.8393604689
 20
21.2736274869
 11
83.9288098105
 21
21.2736267413
  0
LINE
  5
368
100
AcDbEntity
  8
0
100
AcDbLine
 62
7
  6
CONTINUOUS
 10
-21.0478312642
 20
22.1171562689
 11
4.9696278382
 21
22.1202945178
  0
LINE
  5
369
100
AcDbEntity
  8
RACCORDO
100
AcDbLine
 62
253
  6
CONTINUOUS
 10
-73.080369016
 20
22.1806776004
 11
83.0196252288
 21
22.1806776004
  0
LINE
  5
36A
100
AcDbEntity
  8
RACCORDO
100
AcDbLine
 62
253
  6
CONTINUOUS
 10
-70.7587851156
 20
22.3932041496
 11
80.6980405272
 21
22.3932041496
  0
LINE
  5
36B
100
AcDbEntity
  8
0
100
AcDbLine
 62
253
  6
CONTINUOUS
 10
83.9709461142
 20
24.0881001318
 11
-74.0316904378
 21
24.0881001318
  0
LINE
  5
36C
100
AcDbEntity
  8
RACCORDO
100
AcDbLine
 62
253
  6
CONTINUOUS
 10
83.9709461142
 20
24.0881001318
 11
108.3209164184
 21
24.0881001319
  0
LINE
  5
36D
100
AcDbEntity
  8
RACCORDO
100
AcDbLine
 62
253
  6
CONTINUOUS
 10
-74.0316904378
 20
24.0881001318
 11
-98.381660742
 21
24.0881001319
  0
LINE
  5
36E
100
AcDbEntity
  8
RACCORDO
100
AcDbLine
 62
253
  6
CONTINUOUS
 10
-73.9001047925
 20
21.2736274869
 11
-73.989548483
 21
21.2736321672
  0
LINE
  5
36F
100
AcDbEntity
  8
0
100
AcDbLine
 62
7
  6
CONTINUOUS
 10
4.9696278382
 20
22.1202945178
 11
30.9870869407
 21
22.1171562689
  0
LINE
  5
370
100
AcDbEntity
  8
0
100
AcDbLine
 62
7
  6
CONTINUOUS
 10
30.9870869407
 20
22.1171562689
 11
57.0038256469
 21
22.1077417122
  0
LINE
  5
371
100
AcDbEntity
  8
0
100
AcDbLine
 62
7
  6
CONTINUOUS
 10
57.0038256469
 20
22.1077417122
 11
83.0196278382
 21
22.0920508885
  0
LINE
  5
372
100
AcDbEntity
  8
RACCORDO
100
AcDbLine
 62
253
  6
CONTINUOUS
 10
-74.4871831778
 20
21.2850118429
 11
-74.5792944199
 21
21.2854210754
  0
LINE
  5
373
100
AcDbEntity
  8
RACCORDO
100
AcDbLine
 62
7
  6
CONTINUOUS
 10
83.0196278383
 20
22.3741189565
 11
80.6985455027
 21
22.3932041496
  0
LINE
  5
374
100
AcDbEntity
  8
RACCORDO
100
AcDbLine
 62
253
  6
CONTINUOUS
 10
-74.1860465711
 20
21.2800649968
 11
-74.1318577001
 21
21.2795430356
  0
LINE
  5
375
100
AcDbEntity
  8
RACCORDO
100
AcDbLine
 62
253
  6
CONTINUOUS
 10
-74.3964773693
 20
21.2840821152
 11
-74.4871831778
 21
21.2850118429
  0
LWPOLYLINE
  5
376
100
AcDbEntity
  8
RACCORDO
100
AcDbPolyline
 62
253
  6
CONTINUOUS
 90
7
 70
0
 10
84.1252606403
 20
21.2820472713
 10
84.0972861139
 20
21.2824170261
 10
84.0710500263
 20
21.282487251
 10
84.0466882296
 20
21.2822511523
 10
84.0243284785
 20
21.2816035501
 10
84.0040841231
 20
21.2806272972
 10
83.9703344235
 20
21.2786626271
  0
LWPOLYLINE
  5
377
100
AcDbEntity
  8
RACCORDO
100
AcDbPolyline
 62
253
  6
CONTINUOUS
 90
49
 70
0
 10
83.0196252288
 20
22.1806776001
 10
83.0444493607
 20
22.1803388029
 10
83.0686373173
 20
22.1793556832
 10
83.0921739682
 20
22.1777784122
 10
83.1148634096
 20
22.1756755334
 10
83.1368797489
 20
22.1730848251
 10
83.1587616598
 20
22.1699682908
 10
83.18052128
 20
22.1663280596
 10
83.2021220845
 20
22.1621742439
 10
83.2240188437
 20
22.1574064701
 10
83.2462700468
 20
22.1519775922
 10
83.268775046
 20
22.14587682
 10
83.2917362102
 20
22.1390065932
 10
83.3153139517
 20
22.1312565222
 10
83.3392797507
 20
22.1226371881
 10
83.3632538933
 20
22.1132440669
 10
83.3872206681
 20
22.1030571182
 10
83.411138588
 20
22.0920671861
 10
83.4346129606
 20
22.0804488817
 10
83.4575231513
 20
22.0682806097
 10
83.4799651651
 20
22.0555295988
 10
83.5018872553
 20
22.0422397547
 10
83.523218626
 20
22.0284748826
 10
83.5440139466
 20
22.0142211074
 10
83.5644048019
 20
21.9993971852
 10
83.5842927321
 20
21.9840803183
 10
83.6037491176
 20
21.9682212796
 10
83.6231268004
 20
21.9515060997
 10
83.642381092
 20
21.933918659
 10
83.661470232
 20
21.9154403044
 10
83.6806921603
 20
21.8956919526
 10
83.6999928491
 20
21.8745968575
 10
83.7192541757
 20
21.8521426546
 10
83.7386111349
 20
21.8279949912
 10
83.7580166679
 20
21.8019773575
 10
83.777236867
 20
21.7741461892
 10
83.7960894161
 20
21.744503905
 10
83.8143558629
 20
21.7131263204
 10
83.8319431603
 20
21.6798766262
 10
83.8488126188
 20
21.6444357303
 10
83.8648638371
 20
21.6064699339
 10
83.8797098634
 20
21.566266614
 10
83.8929153002
 20
21.5244749316
 10
83.9045020203
 20
21.4803621965
 10
83.9140369484
 20
21.4347670399
 10
83.9209478092
 20
21.3908466767
 10
83.9254371781
 20
21.3497833967
 10
83.9279680994
 20
21.3106796657
 10
83.9288098111
 20
21.2736267413
  0
LWPOLYLINE
  5
378
100
AcDbEntity
  8
RACCORDO
100
AcDbPolyline
 62
253
  6
CONTINUOUS
 90
16
 70
0
 10
80.6980405272
 20
22.3932041496
 10
70.6072727478
 20
22.5625069839
 10
60.5143800081
 20
22.7076216835
 10
50.419362308
 20
22.8285482484
 10
40.3217365575
 20
22.9252851137
 10
30.2219858467
 20
22.9978338442
 10
20.1215594459
 20
23.0461991346
 10
10.0204897348
 20
23.070382547
 10
-0.0812556662
 20
23.0703825194
 10
-10.1823246259
 20
23.0461990597
 10
-20.2827495354
 20
22.9978337298
 10
-30.3824980035
 20
22.9252849679
 10
-40.480120726
 20
22.8285480966
 10
-50.5751346015
 20
22.7076215569
 10
-60.6680227314
 20
22.5625069079
 10
-70.7587851156
 20
22.3932041496
  0
LWPOLYLINE
  5
379
100
AcDbEntity
  8
RACCORDO
100
AcDbPolyline
 62
253
  6
CONTINUOUS
 90
16
 70
0
 10
83.0293040946
 20
22.7848252229
 10
72.6280530132
 20
22.9649317805
 10
62.2245240889
 20
23.1193044949
 10
51.8187464355
 20
23.247944472
 10
41.4102841374
 20
23.3508511563
 10
30.9996308808
 20
23.4280267849
 10
20.5882100361
 20
23.4794763831
 10
10.1760509947
 20
23.5052018136
 10
-0.236818263
 20
23.5052017833
 10
-10.6489765047
 20
23.479476301
 10
-21.0603957704
 20
23.4280266596
 10
-31.4710466485
 20
23.3508509966
 10
-41.8795057067
 20
23.2479443057
 10
-52.2852792386
 20
23.1193043563
 10
-62.6888031803
 20
22.9649316972
 10
-73.0900484182
 20
22.7848252229
  0
LINE
  5
37A
100
AcDbEntity
  8
RACCORDO
100
AcDbLine
 62
253
  6
CONTINUOUS
 10
-74.3087524403
 20
21.2826478944
 11
-74.3964773693
 21
21.2840821152
  0
LWPOLYLINE
  5
37B
100
AcDbEntity
  8
RACCORDO
100
AcDbPolyline
 62
253
  6
CONTINUOUS
 90
10
 70
0
 10
-74.1318577001
 20
21.2795430356
 10
-74.0851212561
 20
21.2787319811
 10
-74.0648602415
 20
21.2782324737
 10
-74.0468174145
 20
21.2776790136
 10
-74.0310864924
 20
21.2770785416
 10
-74.0177503273
 20
21.2764381243
 10
-74.0068802309
 20
21.2757650919
 10
-73.9985319899
 20
21.2750670696
 10
-73.9927470231
 20
21.2743518978
 10
-73.9895540303
 20
21.2736274869
  0
LWPOLYLINE
  5
37C
100
AcDbEntity
  8
RACCORDO
100
AcDbPolyline
 62
253
  6
CONTINUOUS
 90
3
 70
0
 10
-74.1860701371
 20
21.2796065007
 10
-74.2255343773
 20
21.2807335755
 10
-74.3087524403
 20
21.2826478944
  0
LWPOLYLINE
  5
37D
100
AcDbEntity
  8
0
100
AcDbPolyline
 62
7
  6
CONTINUOUS
 90
10
 70
0
 10
9.8955742474
 20
-27.9488419134
 10
9.8751949789
 20
-27.9658142455
 10
9.8653559338
 20
-27.9738330811
 10
9.8554808314
 20
-27.9813066668
 10
9.845593788
 20
-27.9882981315
 10
9.835670687
 20
-27.9947443575
 10
9.8253945555
 20
-28.000252272
 10
9.8146597357
 20
-28.004690857
 10
9.803571885
 20
-28.0081911451
 10
9.7921310031
 20
-28.0107531411
  0
LINE
  5
37E
100
AcDbEntity
  8
RACCORDO
100
AcDbLine
 62
253
  6
CONTINUOUS
 10
83.7151104937
 20
22.1218576269
 11
83.7951325131
 21
22.2197876406
  0
LINE
  5
37F
100
AcDbEntity
  8
RACCORDO
100
AcDbLine
 62
253
  6
CONTINUOUS
 10
83.7951325131
 20
22.2197876406
 11
83.911801684
 21
22.3611302889
  0
LINE
  5
380
100
AcDbEntity
  8
RACCORDO
100
AcDbLine
 62
253
  6
CONTINUOUS
 10
83.911801684
 20
22.3611302889
 11
83.9720451464
 21
22.4335494368
  0
LWPOLYLINE
  5
381
100
AcDbEntity
  8
RACCORDO
100
AcDbPolyline
 62
253
  6
CONTINUOUS
 90
97
 70
0
 10
-82.7596337579
 20
42.3902568996
 10
-83.1061421404
 20
42.3583271598
 10
-83.4393134366
 20
42.3221287928
 10
-83.7591509811
 20
42.2816612076
 10
-84.0650661002
 20
42.2363765478
 10
-84.357653638
 20
42.186821216
 10
-84.6386909103
 20
42.1346362179
 10
-84.9081651222
 20
42.0800055318
 10
-85.1660919269
 20
42.0227441515
 10
-85.4142896502
 20
41.9639401149
 10
-85.652778294
 20
41.903745294
 10
-85.8815390634
 20
41.8420071689
 10
-86.1023311988
 20
41.7793575609
 10
-86.3155976203
 20
41.7157568712
 10
-86.5208958212
 20
41.6512442884
 10
-86.718656362
 20
41.5865701396
 10
-86.9090629909
 20
41.5216993872
 10
-87.0919317668
 20
41.4566670153
 10
-87.2671412515
 20
41.3923287694
 10
-87.4342102241
 20
41.3289116767
 10
-87.593619213
 20
41.2661891015
 10
-87.7466891736
 20
41.2043365376
 10
-87.8930069484
 20
41.1436251828
 10
-88.0329850024
 20
41.0837842953
 10
-88.1691828617
 20
41.024176354
 10
-88.3016463209
 20
40.9648936933
 10
-88.4303292459
 20
40.9058441159
 10
-88.557653597
 20
40.8461129673
 10
-88.6840805617
 20
40.7855553931
 10
-88.8091489899
 20
40.7243159555
 10
-88.9338975951
 20
40.661913823
 10
-89.0587205343
 20
40.5981700319
 10
-89.1832238346
 20
40.5332630227
 10
-89.307264084
 20
40.4672479719
 10
-89.4308968074
 20
40.4000854429
 10
-89.5540665914
 20
40.3318143759
 10
-89.6764635678
 20
40.2626075624
 10
-89.7980419289
 20
40.1924796545
 10
-89.918847497
 20
40.121415582
 10
-90.0387077934
 20
40.0495436241
 10
-90.1571311331
 20
39.9771875145
 10
-90.2746091188
 20
39.9040232096
 10
-90.3924443014
 20
39.8292071395
 10
-90.5104653941
 20
39.7529284851
 10
-90.6288438308
 20
39.674997287
 10
-90.7493965442
 20
39.5940006643
 10
-90.8721827876
 20
39.5100069891
 10
-90.9971437935
 20
39.4229462429
 10
-91.1259198329
 20
39.3311970657
 10
-91.2588942158
 20
39.2345869402
 10
-91.3956844638
 20
39.1332854714
 10
-91.5367824367
 20
39.0261835376
 10
-91.6827182566
 20
38.9129105016
 10
-91.8329627172
 20
38.7938328233
 10
-91.9864186588
 20
38.6689465172
 10
-92.1430898778
 20
38.5382149115
 10
-92.3029730502
 20
38.401670061
 10
-92.4649600778
 20
38.2594109928
 10
-92.628642761
 20
38.1118289775
 10
-92.794429171
 20
37.9585279088
 10
-92.9624354142
 20
37.7984251698
 10
-93.132534322
 20
37.6317849008
 10
-93.3048524419
 20
37.4583365899
 10
-93.4798862796
 20
37.2761939804
 10
-93.6585371454
 20
37.0844235634
 10
-93.8399022649
 20
36.8839493246
 10
-94.0217715098
 20
36.6756705798
 10
-94.2046953137
 20
36.4585934397
 10
-94.3881201332
 20
36.2337026345
 10
-94.5681793231
 20
36.0048683525
 10
-94.7443622538
 20
35.7722382922
 10
-94.9171754874
 20
35.5356609507
 10
-95.0842782974
 20
35.2985625028
 10
-95.244919335
 20
35.061734144
 10
-95.3998463519
 20
34.8243857414
 10
-95.548967841
 20
34.587574409
 10
-95.6902450241
 20
34.3553835154
 10
-95.8257142438
 20
34.1237333697
 10
-95.9613948873
 20
33.8814304506
 10
-96.0995070514
 20
33.6255772144
 10
-96.2378223872
 20
33.3590582953
 10
-96.3756840156
 20
33.0793449652
 10
-96.5144513162
 20
32.7831124092
 10
-96.6527516237
 20
32.4736682694
 10
-96.785830537
 20
32.1584360311
 10
-96.9130109515
 20
31.8373486897
 10
-97.0349598616
 20
31.5104682576
 10
-97.1489444866
 20
31.1854225896
 10
-97.2542956847
 20
30.8624661909
 10
-97.3516792792
 20
30.5413506431
 10
-97.4403721082
 20
30.2289591638
 10
-97.5199523159
 20
29.925213583
 10
-97.5908463642
 20
29.6302055208
 10
-97.6536113078
 20
29.3510806927
 10
-97.7084386854
 20
29.09022859
 10
-97.7551501107
 20
28.8452781412
 10
-97.7937514036
 20
28.6162369593
  0
LWPOLYLINE
  5
382
100
AcDbEntity
  8
RACCORDO
100
AcDbPolyline
 62
253
  6
CONTINUOUS
 90
97
 70
0
 10
-82.7703939059
 20
42.634956041
 10
-83.122711515
 20
42.6037699627
 10
-83.4615143109
 20
42.5667223672
 10
-83.7867609979
 20
42.5246028491
 10
-84.0978319001
 20
42.4782650287
 10
-84.3953366106
 20
42.4283606859
 10
-84.6810916734
 20
42.3752334285
 10
-84.9550935327
 20
42.3194712434
 10
-85.2173575302
 20
42.2616401125
 10
-85.4697032472
 20
42.2018394235
 10
-85.7121900773
 20
42.1404934773
 10
-85.9448163976
 20
42.0780258329
 10
-86.1692891587
 20
42.0143486291
 10
-86.3861278391
 20
41.9496259814
 10
-86.5949269614
 20
41.8842816348
 10
-86.7959910582
 20
41.818519129
 10
-86.9895849447
 20
41.7525338515
 10
-87.175588035
 20
41.6866406794
 10
-87.353727156
 20
41.6212117217
 10
-87.5235759279
 20
41.5566862435
 10
-87.6857127897
 20
41.4931168778
 10
-87.8413600282
 20
41.4302567827
 10
-87.9901087543
 20
41.3684848115
 10
-88.1324594516
 20
41.3077998919
 10
-88.2709514426
 20
41.2472705529
 10
-88.4056157834
 20
41.1869901069
 10
-88.5364601387
 20
41.1270597266
 10
-88.6659355647
 20
41.066421605
 10
-88.7944775033
 20
41.0048914768
 10
-88.9216361122
 20
40.942704232
 10
-89.0484934923
 20
40.8793398004
 10
-89.1754288548
 20
40.8145943345
 10
-89.3020220497
 20
40.7486674354
 10
-89.4281475382
 20
40.6816176356
 10
-89.5538727277
 20
40.6134028337
 10
-89.6791261711
 20
40.5440554989
 10
-89.8035901434
 20
40.4737516841
 10
-89.9272276879
 20
40.4025185302
 10
-90.0500838058
 20
40.3303364271
 10
-90.171970993
 20
40.2573244643
 10
-90.2923870072
 20
40.1838046256
 10
-90.4118519352
 20
40.1094805921
 10
-90.531695445
 20
40.0335142062
 10
-90.651690042
 20
39.9560188934
 10
-90.7720399961
 20
39.8768316374
 10
-90.8946704603
 20
39.7946138368
 10
-91.0195186151
 20
39.709296176
 10
-91.1465222516
 20
39.6208060342
 10
-91.2775300902
 20
39.5276960517
 10
-91.4127575532
 20
39.429598186
 10
-91.5517559494
 20
39.3266126306
 10
-91.695312268
 20
39.2179054611
 10
-91.8437682796
 20
39.1029175961
 10
-91.996442161
 20
38.9818604451
 10
-92.1525626393
 20
38.8550431645
 10
-92.3119499391
 20
38.7223153613
 10
-92.4744203848
 20
38.5835327145
 10
-92.6392142067
 20
38.4390568468
 10
-92.8056978056
 20
38.2891802758
 10
-92.9741383197
 20
38.1333895532
 10
-93.1451004703
 20
37.9708318569
 10
-93.3181349327
 20
37.801566992
 10
-93.493188104
 20
37.6252634197
 10
-93.6713271084
 20
37.4403774131
 10
-93.8531493435
 20
37.2456930068
 10
-94.0374082238
 20
37.0419190171
 10
-94.2224236851
 20
36.8303815567
 10
-94.4086475535
 20
36.6100445401
 10
-94.5950743645
 20
36.38155511
 10
-94.7781139247
 20
36.149011781
 10
-94.9574166113
 20
35.9127789378
 10
-95.1331823427
 20
35.672506784
 10
-95.3030166311
 20
35.4315398178
 10
-95.4663774721
 20
35.1909560562
 10
-95.6240144148
 20
34.9499649762
 10
-95.7756540478
 20
34.7092926155
 10
-95.9189866047
 20
34.473183918
 10
-96.0566195129
 20
34.2379239789
 10
-96.195109284
 20
33.9920158128
 10
-96.3356832644
 20
33.7320956795
 10
-96.4759827701
 20
33.4612477305
 10
-96.6164958125
 20
33.1772360069
 10
-96.7581116052
 20
32.8765009203
 10
-96.8985047849
 20
32.5620709078
 10
-97.0337027542
 20
32.2417014312
 10
-97.1633805688
 20
31.9156536111
 10
-97.2874222225
 20
31.5836814998
 10
-97.4030756669
 20
31.2532537999
 10
-97.5103923553
 20
30.9250950958
 10
-97.6097156118
 20
30.5990568864
 10
-97.6995544761
 20
30.2815806506
 10
-97.7804957501
 20
29.9729025337
 10
-97.8530933338
 20
29.6733610627
 10
-97.9165162863
 20
29.3896978246
 10
-97.9712079098
 20
29.1243602581
 10
-98.0184898519
 20
28.8754130127
 10
-98.0591306377
 20
28.6430525668
  0
LWPOLYLINE
  5
383
100
AcDbEntity
  8
DRAFT
100
AcDbPolyline
 62
7
  6
CONTINUOUS
 90
9
 70
0
 10
-82.7848044335
 20
42.813627487
 10
-82.2299437219
 20
42.8555458757
 10
-81.6749007077
 20
42.8948690399
 10
-81.1196748198
 20
42.9315973901
 10
-80.5642521438
 20
42.9657326021
 10
-80.0086453902
 20
42.9972737423
 10
-79.4528938981
 20
43.0262172673
 10
-78.8970103456
 20
43.052562191
 10
-78.3409807493
 20
43.0763100834
  0
LWPOLYLINE
  5
384
100
AcDbEntity
  8
RACCORDO
100
AcDbPolyline
 62
253
  6
CONTINUOUS
 90
9
 70
0
 10
-78.3294032022
 20
42.6524177772
 10
-78.8837258691
 20
42.6287161222
 10
-79.4379074651
 20
42.6024226951
 10
-79.991964595
 20
42.5735358055
 10
-80.5458818101
 20
42.5420565906
 10
-81.0996116093
 20
42.5079890161
 10
-81.653138514
 20
42.4713341696
 10
-82.2064790634
 20
42.4320902603
 10
-82.7596337579
 20
42.3902568996
  0
LWPOLYLINE
  5
385
100
AcDbEntity
  8
RACCORDO
100
AcDbPolyline
 62
253
  6
CONTINUOUS
 90
9
 70
0
 10
-78.3333716085
 20
42.8972665831
 10
-78.8885457064
 20
42.8735508218
 10
-79.4435905299
 20
42.8472409326
 10
-79.9984967851
 20
42.818337483
 10
-80.5532496645
 20
42.7868414199
 10
-81.1078286941
 20
42.7527541285
 10
-81.6622190806
 20
42.7160767986
 10
-82.2164115475
 20
42.6768103837
 10
-82.7703939054
 20
42.634956035
  0
LINE
  5
386
100
AcDbEntity
  8
DRAFT
100
AcDbLine
 62
7
  6
CONTINUOUS
 10
-78.3409807493
 20
43.0763100834
 11
-76.9369492109
 21
43.1275636205
  0
LINE
  5
387
100
AcDbEntity
  8
RACCORDO
100
AcDbLine
 62
253
  6
CONTINUOUS
 10
-73.9565951781
 20
42.8067894678
 11
-78.3294032022
 21
42.6524177772
  0
LINE
  5
388
100
AcDbEntity
  8
RACCORDO
100
AcDbLine
 62
253
  6
CONTINUOUS
 10
-74.0076183651
 20
43.0498745787
 11
-78.3333716085
 21
42.8972665831
  0
LINE
  5
389
100
AcDbEntity
  8
DRAFT
100
AcDbLine
 62
7
  6
CONTINUOUS
 10
-76.9369492109
 20
43.1275636205
 11
-73.9689257368
 21
43.2304956863
  0
LWPOLYLINE
  5
38A
100
AcDbEntity
  8
DRAFT
100
AcDbPolyline
 62
7
  6
CONTINUOUS
 90
18
 70
0
 10
-73.9689257368
 20
43.2304956863
 10
-65.2218962493
 20
43.511892131
 10
-56.4679619276
 20
43.7602549381
 10
-47.7071183472
 20
43.9756175077
 10
-38.9381087443
 20
44.1581021334
 10
-30.1621775503
 20
44.3076411099
 10
-21.383070368
 20
44.4239767759
 10
-12.600958812
 20
44.5070619117
 10
-3.8156537179
 20
44.5569721761
 10
4.9696415342
 20
44.5736274869
 10
13.754936739
 20
44.5569720712
 10
22.5402413905
 20
44.5070617019
 10
31.3223516577
 20
44.423976485
 10
40.1014565255
 20
44.3076407609
 10
48.8773845586
 20
44.15810175
 10
57.6463902424
 20
43.9756171395
 10
66.4072291748
 20
43.760254643
 10
75.1611580902
 20
43.5118919587
  0
LWPOLYLINE
  5
38B
100
AcDbEntity
  8
RACCORDO
100
AcDbPolyline
 62
253
  6
CONTINUOUS
 90
18
 70
0
 10
75.1417291371
 20
43.0887822465
 10
66.3829887235
 20
43.3376257477
 10
57.6196260612
 20
43.5533519264
 10
48.8505995821
 20
43.7360548114
 10
40.0769402389
 20
43.8856926084
 10
31.3017515566
 20
44.0020876816
 10
22.5255525017
 20
44.0852062967
 10
13.7478084152
 20
44.1351093068
 10
4.9700414215
 20
44.1517544715
 10
-3.8077684573
 20
44.135111822
 10
-12.5856186247
 20
44.0852113273
 10
-21.3619530947
 20
44.0020938458
 10
-30.1373255377
 20
43.8856973649
 10
-38.9111979771
 20
43.7360567768
 10
-47.6803759956
 20
43.5533518106
 10
-56.4437983432
 20
43.3376249592
 10
-65.202536886
 20
43.0887814964
 10
-73.9565951781
 20
42.8067894678
  0
LWPOLYLINE
  5
38C
100
AcDbEntity
  8
RACCORDO
100
AcDbPolyline
 62
253
  6
CONTINUOUS
 90
18
 70
0
 10
75.1475990791
 20
43.3327104236
 10
66.3882346477
 20
43.5810893647
 10
57.6237822227
 20
43.796491659
 10
48.8540651749
 20
43.9788744966
 10
40.0801806888
 20
44.128179109
 10
31.303830598
 20
44.2443437618
 10
22.5265597862
 20
44.327323411
 10
13.748679795
 20
44.3771148799
 10
4.9700420655
 20
44.3937158113
 10
-3.808638535
 20
44.3771178509
 10
-12.5866246028
 20
44.3273285499
 10
-21.3640308815
 20
44.2443499337
 10
-30.1405647893
 20
44.1281845584
 10
-38.9146623473
 20
43.9788772793
 10
-47.6845309279
 20
43.7964915598
 10
-56.4490431948
 20
43.5810876647
 10
-65.208406129
 20
43.332708526
 10
-74.0076183651
 20
43.0498745787
  0
LINE
  5
38D
100
AcDbEntity
  8
RACCORDO
100
AcDbLine
 62
253
  6
CONTINUOUS
 10
83.9406322366
 20
42.8052620584
 11
75.1417291371
 21
43.0887822465
  0
LINE
  5
38E
100
AcDbEntity
  8
DRAFT
100
AcDbLine
 62
7
  6
CONTINUOUS
 10
75.1611580902
 20
43.5118919587
 11
84.3322276935
 21
43.2160224103
  0
LINE
  5
38F
100
AcDbEntity
  8
DRAFT
100
AcDbLine
 62
7
  6
CONTINUOUS
 10
84.3322276935
 20
43.2160224103
 11
87.3001421334
 21
43.1125509097
  0
LINE
  5
390
100
AcDbEntity
  8
RACCORDO
100
AcDbLine
 62
253
  6
CONTINUOUS
 10
87.7141945412
 20
42.6735278982
 11
83.9406322366
 21
42.8052620585
  0
LINE
  5
391
100
AcDbEntity
  8
RACCORDO
100
AcDbLine
 62
253
  6
CONTINUOUS
 10
87.7173359952
 20
42.9183875245
 11
75.1475990791
 21
43.3327104236
  0
LWPOLYLINE
  5
392
100
AcDbEntity
  8
DRAFT
100
AcDbPolyline
 62
7
  6
CONTINUOUS
 90
10
 70
0
 10
87.3001421334
 20
43.1125509097
 10
88.2802370956
 20
43.0763100402
 10
88.8362666727
 20
43.0525621488
 10
89.3921495174
 20
43.0262172701
 10
89.9478989177
 20
42.9972738787
 10
90.5035028908
 20
42.9657329164
 10
91.0589241829
 20
42.9315977929
 10
91.6141507783
 20
42.8948693977
 10
92.1691958964
 20
42.8555460992
 10
92.7240601078
 20
42.8136274871
  0
LWPOLYLINE
  5
393
100
AcDbEntity
  8
RACCORDO
100
AcDbPolyline
 62
253
  6
CONTINUOUS
 90
10
 70
0
 10
92.7096496168
 20
42.6349560322
 10
92.1556671271
 20
42.6768103909
 10
91.6014745816
 20
42.7160768107
 10
91.04708417
 20
42.7527541414
 10
90.4925052017
 20
42.7868414282
 10
89.9377524373
 20
42.8183374844
 10
89.3828462508
 20
42.8472409304
 10
88.8278014165
 20
42.8735508203
 10
88.2726272614
 20
42.897266584
 10
87.7173359952
 20
42.918387525
  0
LWPOLYLINE
  5
394
100
AcDbEntity
  8
RACCORDO
100
AcDbPolyline
 62
253
  6
CONTINUOUS
 90
10
 70
0
 10
92.6988894343
 20
42.3902568996
 10
92.145733315
 20
42.4320903547
 10
91.5923917522
 20
42.4713343285
 10
91.0388642456
 20
42.5079892098
 10
90.4851343298
 20
42.5420567809
 10
89.9312174099
 20
42.5735359626
 10
89.3771607652
 20
42.6024228141
 10
88.822979771
 20
42.6287162065
 10
88.2686578962
 20
42.6524178218
 10
87.7141945412
 20
42.6735278982
  0
LINE
  5
395
100
AcDbEntity
  8
RACCORDO
100
AcDbLine
 62
253
  6
CONTINUOUS
 10
83.8524710714
 20
-23.1421862588
 11
83.9720451327
 21
-23.2862944181
  0
LWPOLYLINE
  5
396
100
AcDbEntity
  8
RACCORDO
100
AcDbPolyline
 62
253
  6
CONTINUOUS
 90
3
 70
0
 10
83.7151076337
 20
-22.9745990331
 10
83.7408180207
 20
-23.0061667155
 10
83.8524710714
 20
-23.1421862588
  0
LWPOLYLINE
  5
397
100
AcDbEntity
  8
DRAFT
100
AcDbPolyline
 62
7
  6
CONTINUOUS
 90
46
 70
0
 10
92.7240601078
 20
42.8136274871
 10
93.2412589803
 20
42.765370977
 10
93.7559496789
 20
42.7014742432
 10
94.2681455455
 20
42.6219332715
 10
94.7785449551
 20
42.5265724117
 10
95.286474576
 20
42.4155563739
 10
95.7898889986
 20
42.2893904985
 10
96.2886209747
 20
42.1480314133
 10
96.7828580248
 20
41.991506716
 10
97.2710849764
 20
41.8204275797
 10
97.7528559875
 20
41.6349446127
 10
98.2286311014
 20
41.4348877983
 10
98.6982520822
 20
41.2203868527
 10
99.1621515
 20
40.991295914
 10
99.6199053138
 20
40.7477377943
 10
100.0700684
 20
40.4902449819
 10
100.5127304171
 20
40.2186113049
 10
100.947803332
 20
39.9330179263
 10
101.3735728938
 20
39.6345793872
 10
101.7903520226
 20
39.3228198288
 10
102.197822059
 20
38.9981903893
 10
102.5933183643
 20
38.6631997686
 10
102.9767802452
 20
38.3174036375
 10
103.3482553404
 20
37.9612266862
 10
103.7052389851
 20
37.5984884328
 10
104.0468535718
 20
37.2297686156
 10
104.3739591437
 20
36.8544780538
 10
104.6866569435
 20
36.474689953
 10
104.98485493
 20
36.0904492493
 10
105.268627041
 20
35.701706814
 10
105.5383245018
 20
35.310399568
 10
105.7928005954
 20
34.9188830334
 10
106.0331856648
 20
34.5248042648
 10
106.2632460835
 20
34.1230343094
 10
106.4837736663
 20
33.7137025462
 10
106.6939566387
 20
33.2966704659
 10
106.8951513712
 20
32.8663962758
 10
107.0892347076
 20
32.4184257842
 10
107.2742988396
 20
31.9571908181
 10
107.4460235102
 20
31.4904816294
 10
107.603584951
 20
31.0178670127
 10
107.7477831764
 20
30.5397774544
 10
107.8767450556
 20
30.0653136177
 10
107.9898468702
 20
29.5975189878
 10
108.0877063181
 20
29.1333697607
 10
108.1703202099
 20
28.672874346
  0
LWPOLYLINE
  5
398
100
AcDbEntity
  8
RACCORDO
100
AcDbPolyline
 62
7
  6
CONTINUOUS
 90
19
 70
0
 10
83.7151075295
 20
-22.9745989042
 10
83.7558135605
 20
-22.9396973891
 10
83.7948055659
 20
-22.9028649983
 10
83.8320025379
 20
-22.8641735326
 10
83.8673456384
 20
-22.8236683055
 10
83.9007027232
 20
-22.7814946482
 10
83.9319052527
 20
-22.7378978764
 10
83.9608401619
 20
-22.693100388
 10
83.987541317
 20
-22.6470990782
 10
84.0120637042
 20
-22.5997886025
 10
84.0343533366
 20
-22.5512029525
 10
84.0543221191
 20
-22.5015160683
 10
84.0719396393
 20
-22.4508132741
 10
84.0871830569
 20
-22.3991465104
 10
84.0999677786
 20
-22.3466834596
 10
84.1101917196
 20
-22.2936851869
 10
84.117819001
 20
-22.2403198096
 10
84.1228595856
 20
-22.186654327
 10
84.1253022442
 20
-22.1328100217
  0
LWPOLYLINE
  5
399
100
AcDbEntity
  8
RACCORDO
100
AcDbPolyline
 62
253
  6
CONTINUOUS
 90
34
 70
0
 10
83.9720451262
 20
-23.2862943968
 10
83.9945360297
 20
-23.267318612
 10
84.0171410159
 20
-23.247346925
 10
84.0398600941
 20
-23.2263793303
 10
84.0627014388
 20
-23.2044858817
 10
84.0856568942
 20
-23.1815965141
 10
84.1087019758
 20
-23.1575010425
 10
84.1318528571
 20
-23.1322125939
 10
84.1550933866
 20
-23.1057180252
 10
84.1783505964
 20
-23.0777677431
 10
84.2017068334
 20
-23.048272466
 10
84.2250797757
 20
-23.0173214523
 10
84.2481494501
 20
-22.9849329165
 10
84.2710073687
 20
-22.9508972958
 10
84.293562035
 20
-22.915424126
 10
84.3152189455
 20
-22.8791602751
 10
84.3358647872
 20
-22.8421581537
 10
84.3556128558
 20
-22.8043653364
 10
84.3742085406
 20
-22.7662714481
 10
84.3915456691
 20
-22.7280535533
 10
84.4077303791
 20
-22.689534583
 10
84.4228265199
 20
-22.6506729663
 10
84.4368463588
 20
-22.6115047078
 10
84.449777595
 20
-22.5719937964
 10
84.4616472274
 20
-22.5319906354
 10
84.4724795188
 20
-22.4914947784
 10
84.4822501715
 20
-22.4505066617
 10
84.4909133423
 20
-22.4088780094
 10
84.4984908499
 20
-22.3666432867
 10
84.504960835
 20
-22.3237680149
 10
84.5102119331
 20
-22.280000498
 10
84.5142070044
 20
-22.2352568294
 10
84.5169831363
 20
-22.1896208949
 10
84.518540301
 20
-22.1430926844
  0
LWPOLYLINE
  5
39A
100
AcDbEntity
  8
RACCORDO
100
AcDbPolyline
 62
7
  6
CONTINUOUS
 90
16
 70
0
 10
83.7151105852
 20
22.1218577402
 10
83.6756509867
 20
22.1526435053
 10
83.6348526405
 20
22.181632966
 10
83.5928098115
 20
22.2087600255
 10
83.54961996
 20
22.2339650916
 10
83.5053595343
 20
22.2572085647
 10
83.460094943
 20
22.2784545667
 10
83.4139238566
 20
22.2976557205
 10
83.3668789537
 20
22.3147941115
 10
83.3189899292
 20
22.3298515706
 10
83.2703349891
 20
22.3427942098
 10
83.2210353571
 20
22.3535660321
 10
83.1712197609
 20
22.3621112792
 10
83.1209933825
 20
22.3683975841
 10
83.0704272183
 20
22.3724083451
 10
83.0196278383
 20
22.3741215146
  0
LWPOLYLINE
  5
39B
100
AcDbEntity
  8
RACCORDO
100
AcDbPolyline
 62
253
  6
CONTINUOUS
 90
25
 70
0
 10
83.9720451262
 20
22.4335493707
 10
83.9392923284
 20
22.4600950704
 10
83.905791782
 20
22.4857260419
 10
83.8715434886
 20
22.5104422916
 10
83.836503866
 20
22.5342804191
 10
83.8007164991
 20
22.5572038368
 10
83.7643121398
 20
22.5791027701
 10
83.72729198
 20
22.5999600832
 10
83.68965483
 20
22.6197929241
 10
83.6515278695
 20
22.6385429444
 10
83.6129360854
 20
22.656196667
 10
83.5738544922
 20
22.67276758
 10
83.5343353111
 20
22.6882377821
 10
83.4943855999
 20
22.7026108522
 10
83.4539983015
 20
22.7158832206
 10
83.4132044636
 20
22.728026263
 10
83.372000496
 20
22.7390448079
 10
83.3303899889
 20
22.748934034
 10
83.2884147604
 20
22.7576508424
 10
83.2460770367
 20
22.7651964102
 10
83.2033745908
 20
22.7715695654
 10
83.1603425606
 20
22.7767236853
 10
83.1169926583
 20
22.7806432298
 10
83.0733131701
 20
22.783343742
 10
83.0293040946
 20
22.7848252229
  0
LWPOLYLINE
  5
39C
100
AcDbEntity
  8
SUPERFICI
100
AcDbPolyline
 62
7
  6
CONTINUOUS
 90
25
 70
0
 10
83.8393604689
 20
21.2736274869
 10
83.837486067
 20
21.3271932142
 10
83.8321122172
 20
21.3805687007
 10
83.8232522069
 20
21.4335250058
 10
83.8109121378
 20
21.485914269
 10
83.7951470459
 20
21.537426247
 10
83.7761130971
 20
21.5876057182
 10
83.7540224036
 20
21.6360625624
 10
83.7289346801
 20
21.6828093369
 10
83.7007757474
 20
21.727989664
 10
83.6695176284
 20
21.7715449827
 10
83.6353590831
 20
21.8131038712
 10
83.5985500132
 20
21.8523348989
 10
83.5592474773
 20
21.8890702452
 10
83.5176203656
 20
21.9231510245
 10
83.4740035065
 20
21.9543270294
 10
83.4287639208
 20
21.9824026995
 10
83.3819639015
 20
22.0074028086
 10
83.3334770865
 20
22.0293954007
 10
83.2833068146
 20
22.0483187837
 10
83.2318300508
 20
22.0639717035
 10
83.1794746677
 20
22.0762091765
 10
83.126539978
 20
22.0849763225
 10
83.0731816726
 20
22.0902620159
 10
83.0196278382
 20
22.0920508885
  0
LINE
  5
39D
100
AcDbEntity
  8
RACCORDO
100
AcDbLine
 62
253
  6
CONTINUOUS
 10
83.9020850271
 20
-43.9041441491
 11
83.9081814132
 21
-44.0832407125
  0
LINE
  5
39E
100
AcDbEntity
  8
RACCORDO
100
AcDbLine
 62
253
  6
CONTINUOUS
 10
83.8958508545
 20
-43.659534494
 11
83.9000861555
 21
-43.7991004575
  0
LINE
  5
39F
100
AcDbEntity
  8
RACCORDO
100
AcDbLine
 62
253
  6
CONTINUOUS
 10
83.940632374
 20
-43.6580070799
 11
83.944872155
 21
-43.797574541
  0
LINE
  5
3A0
100
AcDbEntity
  8
RACCORDO
100
AcDbLine
 62
253
  6
CONTINUOUS
 10
83.9000861555
 20
-43.7991004575
 11
83.9014218259
 21
-43.8515080324
  0
LINE
  5
3A1
100
AcDbEntity
  8
RACCORDO
100
AcDbLine
 62
253
  6
CONTINUOUS
 10
83.944872155
 20
-43.797574541
 11
83.946209432
 21
-43.849982789
  0
LINE
  5
3A2
100
AcDbEntity
  8
RACCORDO
100
AcDbLine
 62
253
  6
CONTINUOUS
 10
83.020262202
 20
-23.2268592974
 11
83.0255460022
 21
-23.4469250044
  0
LWPOLYLINE
  5
3A3
100
AcDbEntity
  8
RACCORDO
100
AcDbPolyline
 62
253
  6
CONTINUOUS
 90
6
 70
0
 10
83.9014218259
 20
-43.8515080324
 10
83.9019526964
 20
-43.8774050607
 10
83.9021034343
 20
-43.8873275733
 10
83.9021760008
 20
-43.8951280077
 10
83.9021698497
 20
-43.9007476359
 10
83.9020850271
 20
-43.9041441491
  0
LWPOLYLINE
  5
3A4
100
AcDbEntity
  8
RACCORDO
100
AcDbPolyline
 62
253
  6
CONTINUOUS
 90
6
 70
0
 10
83.946209432
 20
-43.849982789
 10
83.9467410571
 20
-43.8758801644
 10
83.9468920679
 20
-43.885802811
 10
83.9469648349
 20
-43.8936033497
 10
83.9469588101
 20
-43.8992230511
 10
83.946874039
 20
-43.902619605
  0
LINE
  5
3A5
100
AcDbEntity
  8
RACCORDO
100
AcDbLine
 62
253
  6
CONTINUOUS
 10
83.0255460022
 20
-23.4469250044
 11
83.0293040918
 21
-23.6375702397
  0
LINE
  5
3A6
100
AcDbEntity
  8
SUPERFICI
100
AcDbLine
 62
7
  6
CONTINUOUS
 10
83.853128375
 20
14.0425856704
 11
83.8393604689
 21
21.2736274869
  0
LINE
  5
3A7
100
AcDbEntity
  8
RACCORDO
100
AcDbLine
 62
253
  6
CONTINUOUS
 10
83.9583825655
 20
34.5225995279
 11
83.9406322366
 21
42.8052620585
  0
LINE
  5
3A8
100
AcDbEntity
  8
RACCORDO
100
AcDbLine
 62
253
  6
CONTINUOUS
 10
83.9288098105
 20
21.2736267413
 11
83.9389292571
 21
16.2439461611
  0
LINE
  5
3A9
100
AcDbEntity
  8
RACCORDO
100
AcDbLine
 62
7
  6
CONTINUOUS
 10
84.139037948
 20
14.0481262014
 11
84.125325784
 21
21.2796078759
  0
LINE
  5
3AA
100
AcDbEntity
  8
RACCORDO
100
AcDbLine
 62
253
  6
CONTINUOUS
 10
84.5332997599
 20
13.367545175
 11
84.5185403109
 21
21.290342577
  0
LINE
  5
3AB
100
AcDbEntity
  8
RACCORDO
100
AcDbLine
 62
253
  6
CONTINUOUS
 10
83.9389292571
 20
16.2439461611
 11
83.9467089717
 21
10.9558780568
  0
LINE
  5
3AC
100
AcDbEntity
  8
SUPERFICI
100
AcDbLine
 62
7
  6
CONTINUOUS
 10
83.8613896192
 20
6.8090613773
 11
83.853128375
 21
14.0425856704
  0
LINE
  5
3AD
100
AcDbEntity
  8
RACCORDO
100
AcDbLine
 62
7
  6
CONTINUOUS
 10
84.1472743848
 20
6.8122894704
 11
84.139037948
 21
14.0481262014
  0
LINE
  5
3AE
100
AcDbEntity
  8
RACCORDO
100
AcDbLine
 62
253
  6
CONTINUOUS
 10
83.9467089717
 20
10.9558780568
 11
83.9517233153
 21
5.3989969463
  0
LWPOLYLINE
  5
3AF
100
AcDbEntity
  8
RACCORDO
100
AcDbPolyline
 62
253
  6
CONTINUOUS
 90
3
 70
0
 10
83.9720451262
 20
22.4335493707
 10
83.96929239
 20
26.1798194921
 10
83.9583825655
 20
34.5225995279
  0
LINE
  5
3B0
100
AcDbEntity
  8
RACCORDO
100
AcDbLine
 62
253
  6
CONTINUOUS
 10
84.5423321449
 20
3.8856933671
 11
84.5332997599
 21
13.367545175
  0
LINE
  5
3B1
100
AcDbEntity
  8
SUPERFICI
100
AcDbLine
 62
7
  6
CONTINUOUS
 10
83.8641438751
 20
-0.4263725131
 11
83.8613896192
 21
6.8090613773
  0
LINE
  5
3B2
100
AcDbEntity
  8
RACCORDO
100
AcDbLine
 62
253
  6
CONTINUOUS
 10
83.0196278382
 20
22.0920508885
 11
83.0196278383
 21
22.3741189565
  0
LINE
  5
3B3
100
AcDbEntity
  8
RACCORDO
100
AcDbLine
 62
253
  6
CONTINUOUS
 10
83.0196278382
 20
-22.9447959146
 11
83.0196278382
 21
-23.2268639827
  0
LINE
  5
3B4
100
AcDbEntity
  8
RACCORDO
100
AcDbLine
 62
253
  6
CONTINUOUS
 10
83.9517233153
 20
5.3989969463
 11
83.9535028307
 21
-0.4263725131
  0
LINE
  5
3B5
100
AcDbEntity
  8
RACCORDO
100
AcDbLine
 62
7
  6
CONTINUOUS
 10
84.1500106484
 20
-0.426372513
 11
84.1472743848
 21
6.8122894704
  0
LINE
  5
3B6
100
AcDbEntity
  8
RACCORDO
100
AcDbLine
 62
253
  6
CONTINUOUS
 10
84.5423380675
 20
-4.7286714837
 11
84.5423321449
 21
3.8856933671
  0
LINE
  5
3B7
100
AcDbEntity
  8
SUPERFICI
100
AcDbLine
 62
7
  6
CONTINUOUS
 10
83.8613896192
 20
-7.6618064035
 11
83.8641438751
 21
-0.4263725131
  0
LINE
  5
3B8
100
AcDbEntity
  8
RACCORDO
100
AcDbLine
 62
253
  6
CONTINUOUS
 10
83.9535028307
 20
-0.4263725131
 11
83.9514568406
 21
-6.6856983959
  0
LINE
  5
3B9
100
AcDbEntity
  8
RACCORDO
100
AcDbLine
 62
7
  6
CONTINUOUS
 10
84.1472748691
 20
-7.6650373403
 11
84.1500106597
 21
-0.426372513
  0
LINE
  5
3BA
100
AcDbEntity
  8
RACCORDO
100
AcDbLine
 62
253
  6
CONTINUOUS
 10
83.9720451262
 20
-23.2862943968
 11
83.9672086764
 21
-29.1223244862
  0
LINE
  5
3BB
100
AcDbEntity
  8
RACCORDO
100
AcDbLine
 62
253
  6
CONTINUOUS
 10
84.5365870769
 20
-11.7336330793
 11
84.5423380675
 21
-4.7286714837
  0
LINE
  5
3BC
100
AcDbEntity
  8
RACCORDO
100
AcDbLine
 62
253
  6
CONTINUOUS
 10
83.9514568406
 20
-6.6856983959
 11
83.945963886
 21
-12.4187806313
  0
LINE
  5
3BD
100
AcDbEntity
  8
SUPERFICI
100
AcDbLine
 62
7
  6
CONTINUOUS
 10
83.853128375
 20
-14.8953306966
 11
83.8613896192
 21
-7.6618064035
  0
LINE
  5
3BE
100
AcDbEntity
  8
RACCORDO
100
AcDbLine
 62
7
  6
CONTINUOUS
 10
84.1390371135
 20
-14.9009073365
 11
84.1472748691
 21
-7.6650373403
  0
LINE
  5
3BF
100
AcDbEntity
  8
RACCORDO
100
AcDbLine
 62
253
  6
CONTINUOUS
 10
83.945963886
 20
-12.4187806313
 11
83.9374699445
 21
-17.911233782
  0
LINE
  5
3C0
100
AcDbEntity
  8
RACCORDO
100
AcDbLine
 62
253
  6
CONTINUOUS
 10
83.9672086764
 20
-29.1223244862
 11
83.9583825653
 21
-35.375344554
  0
LINE
  5
3C1
100
AcDbEntity
  8
SUPERFICI
100
AcDbLine
 62
7
  6
CONTINUOUS
 10
83.8393604689
 20
-22.1263725131
 11
83.853128375
 21
-14.8953306966
  0
LWPOLYLINE
  5
3C2
100
AcDbEntity
  8
RACCORDO
100
AcDbPolyline
 62
253
  6
CONTINUOUS
 90
3
 70
0
 10
84.518540301
 20
-22.1430926844
 10
84.5242748866
 20
-19.4247771832
 10
84.5365870769
 20
-11.7336330793
  0
LINE
  5
3C3
100
AcDbEntity
  8
RACCORDO
100
AcDbLine
 62
253
  6
CONTINUOUS
 10
83.9374699445
 20
-17.911233782
 11
83.9288041594
 21
-22.1263772182
  0
LWPOLYLINE
  5
3C4
100
AcDbEntity
  8
RACCORDO
100
AcDbPolyline
 62
253
  6
CONTINUOUS
 90
3
 70
0
 10
83.9583825653
 20
-35.375344554
 10
83.9457081801
 20
-41.5945442711
 10
83.940632239
 20
-43.6580070846
  0
LINE
  5
3C5
100
AcDbEntity
  8
RACCORDO
100
AcDbLine
 62
7
  6
CONTINUOUS
 10
84.1253247693
 20
-22.1328100139
 11
84.1390371135
 21
-14.9009073365
  0
LWPOLYLINE
  5
3C6
100
AcDbEntity
  8
RACCORDO
100
AcDbPolyline
 62
253
  6
CONTINUOUS
 90
4
 70
0
 10
83.9021034345
 20
43.0345825538
 10
83.9021760011
 20
43.0423829885
 10
83.90216985
 20
43.0480026171
 10
83.9020850274
 20
43.0513991305
  0
LWPOLYLINE
  5
3C7
100
AcDbEntity
  8
RACCORDO
100
AcDbPolyline
 62
253
  6
CONTINUOUS
 90
4
 70
0
 10
83.9468920679
 20
43.0330577848
 10
83.9469648349
 20
43.0408583235
 10
83.9469588101
 20
43.0464780249
 10
83.946874039
 20
43.0498745788
  0
LINE
  5
3C8
100
AcDbEntity
  8
RACCORDO
100
AcDbLine
 62
253
  6
CONTINUOUS
 10
83.9017249222
 20
43.0126901537
 11
83.9021034345
 21
43.0345825538
  0
LINE
  5
3C9
100
AcDbEntity
  8
RACCORDO
100
AcDbLine
 62
253
  6
CONTINUOUS
 10
83.9465129393
 20
43.0111650904
 11
83.9468920679
 21
43.0330577848
  0
LINE
  5
3CA
100
AcDbEntity
  8
RACCORDO
100
AcDbLine
 62
253
  6
CONTINUOUS
 10
83.0245254194
 20
22.5478217303
 11
83.0293040946
 21
22.7848252229
  0
LWPOLYLINE
  5
3CB
100
AcDbEntity
  8
RACCORDO
100
AcDbPolyline
 62
253
  6
CONTINUOUS
 90
52
 70
0
 10
83.9288097985
 20
-22.1263772185
 10
83.927968377
 20
-22.1634142343
 10
83.9255445499
 20
-22.2012717177
 10
83.9214314595
 20
-22.2398764075
 10
83.9154448331
 20
-22.2795992826
 10
83.9075187323
 20
-22.3198860511
 10
83.8979092419
 20
-22.3592971511
 10
83.8867646814
 20
-22.3975624798
 10
83.8741218763
 20
-22.4348390679
 10
83.8603431011
 20
-22.4704042086
 10
83.8456937235
 20
-22.5040382505
 10
83.8302527681
 20
-22.5359658247
 10
83.8141848397
 20
-22.5661783318
 10
83.7976668355
 20
-22.5946498855
 10
83.7808109785
 20
-22.6214627285
 10
83.7636626571
 20
-22.6467744061
 10
83.7463595164
 20
-22.6705829524
 10
83.7289815442
 20
-22.692963526
 10
83.7114440957
 20
-22.7141712372
 10
83.693843278
 20
-22.7342085297
 10
83.6762266354
 20
-22.753132439
 10
83.6583859459
 20
-22.7712448619
 10
83.6403535677
 20
-22.7885638317
 10
83.6221746585
 20
-22.8050948332
 10
83.603614597
 20
-22.8210791602
 10
83.5846518448
 20
-22.8365407909
 10
83.5653413184
 20
-22.851440424
 10
83.5455336854
 20
-22.8658908295
 10
83.5251712357
 20
-22.8799172515
 10
83.5043265415
 20
-22.893453031
 10
83.483038152
 20
-22.9064623278
 10
83.4612476489
 20
-22.9189677145
 10
83.4390357967
 20
-22.9309099434
 10
83.4166631163
 20
-22.9421532007
 10
83.3941449336
 20
-22.9527063026
 10
83.3715123119
 20
-22.9625702619
 10
83.3490691938
 20
-22.9716413397
 10
83.3269425323
 20
-22.9799140349
 10
83.3050657191
 20
-22.9874578675
 10
83.2834591026
 20
-22.9943043712
 10
83.2622456646
 20
-23.0004557907
 10
83.2413502096
 20
-23.0059741668
 10
83.2204872718
 20
-23.0109587272
 10
83.1997166053
 20
-23.0154086821
 10
83.1790068462
 20
-23.0193440171
 10
83.157923483
 20
-23.022842714
 10
83.1364564589
 20
-23.0258848365
 10
83.1146331996
 20
-23.0284447927
 10
83.092067607
 20
-23.0305319454
 10
83.0686365861
 20
-23.0321007644
 10
83.0444840021
 20
-23.0330829023
 10
83.0196246891
 20
-23.0334226263
  0
LINE
  5
3CC
100
AcDbEntity
  8
RACCORDO
100
AcDbLine
 62
253
  6
CONTINUOUS
 10
83.9005993467
 20
42.9654703253
 11
83.9017249222
 21
43.0126901537
  0
LINE
  5
3CD
100
AcDbEntity
  8
RACCORDO
100
AcDbLine
 62
253
  6
CONTINUOUS
 10
83.9453859399
 20
42.9639446447
 11
83.9465129393
 21
43.0111650904
  0
LINE
  5
3CE
100
AcDbEntity
  8
RACCORDO
100
AcDbLine
 62
253
  6
CONTINUOUS
 10
83.0202621857
 20
22.3741137515
 11
83.0245254194
 21
22.5478217303
  0
LINE
  5
3CF
100
AcDbEntity
  8
RACCORDO
100
AcDbLine
 62
253
  6
CONTINUOUS
 10
83.8974491049
 20
42.8569142021
 11
83.9005993467
 21
42.9654703253
  0
LINE
  5
3D0
100
AcDbEntity
  8
RACCORDO
100
AcDbLine
 62
253
  6
CONTINUOUS
 10
83.9422322555
 20
42.8553872662
 11
83.9453859399
 21
42.9639446447
  0
LINE
  5
3D1
100
AcDbEntity
  8
RACCORDO
100
AcDbLine
 62
253
  6
CONTINUOUS
 10
83.8958508545
 20
42.8067894678
 11
83.8974491049
 21
42.8569142021
  0
LINE
  5
3D2
100
AcDbEntity
  8
RACCORDO
100
AcDbLine
 62
253
  6
CONTINUOUS
 10
83.940632374
 20
42.8052620537
 11
83.9422322555
 21
42.8553872662
  0
LINE
  5
3D3
100
AcDbEntity
  8
RACCORDO
100
AcDbLine
 62
253
  6
CONTINUOUS
 10
83.9020850272
 20
43.0513991229
 11
83.9081814133
 21
43.2304956863
  0
LWPOLYLINE
  5
3D4
100
AcDbEntity
  8
SUPERFICI
100
AcDbPolyline
 62
7
  6
CONTINUOUS
 90
25
 70
0
 10
83.8393604689
 20
-22.1263725131
 10
83.837486067
 20
-22.1799382404
 10
83.8321122172
 20
-22.2333137269
 10
83.8232522069
 20
-22.2862700319
 10
83.8109121378
 20
-22.3386592952
 10
83.7951470459
 20
-22.3901712732
 10
83.7761130971
 20
-22.4403507444
 10
83.7540224036
 20
-22.4888075886
 10
83.7289346801
 20
-22.5355543631
 10
83.7007757474
 20
-22.5807346902
 10
83.6695176284
 20
-22.6242900089
 10
83.6353590831
 20
-22.6658488974
 10
83.5985500132
 20
-22.7050799251
 10
83.5592474773
 20
-22.7418152713
 10
83.5176203656
 20
-22.7758960507
 10
83.4740035065
 20
-22.8070720556
 10
83.4287639208
 20
-22.8351477257
 10
83.3819639015
 20
-22.8601478348
 10
83.3334770865
 20
-22.8821404269
 10
83.2833068146
 20
-22.9010638099
 10
83.2318300508
 20
-22.9167167297
 10
83.1794746677
 20
-22.9289542027
 10
83.126539978
 20
-22.9377213487
 10
83.0731816726
 20
-22.9430070421
 10
83.0196278382
 20
-22.9447959146
  0
LINE
  5
3D5
100
AcDbEntity
  8
RACCORDO
100
AcDbLine
 62
253
  6
CONTINUOUS
 10
92.7240601109
 20
-43.6663725131
 11
92.7096495823
 21
-43.4877010672
  0
LINE
  5
3D6
100
AcDbEntity
  8
RACCORDO
100
AcDbLine
 62
253
  6
CONTINUOUS
 10
92.6988894342
 20
-43.2430019254
 11
92.7023628751
 21
-43.2930522277
  0
LINE
  5
3D7
100
AcDbEntity
  8
RACCORDO
100
AcDbLine
 62
253
  6
CONTINUOUS
 10
92.7023628751
 20
-43.2930522277
 11
92.7053333177
 21
-43.3399974947
  0
LWPOLYLINE
  5
3D8
100
AcDbEntity
  8
RACCORDO
100
AcDbPolyline
 62
253
  6
CONTINUOUS
 90
11
 70
0
 10
92.7053333177
 20
-43.3399974947
 10
92.707711426
 20
-43.382425854
 10
92.7086552457
 20
-43.4015410458
 10
92.7094256785
 20
-43.4190612786
 10
92.7100169209
 20
-43.4348545743
 10
92.710424519
 20
-43.4488019634
 10
92.7106454023
 20
-43.4607983817
 10
92.7106779071
 20
-43.4707534613
 10
92.7105217883
 20
-43.4785922117
 10
92.7101782221
 20
-43.4842555842
 10
92.7096497963
 20
-43.4877009174
  0
LWPOLYLINE
  5
3D9
100
AcDbEntity
  8
RACCORDO
100
AcDbPolyline
 62
7
  6
CONTINUOUS
 90
19
 70
0
 10
84.1251962523
 20
21.28448678
 10
84.1225013305
 20
21.338152864
 10
84.1172311743
 20
21.3918149382
 10
84.109368657
 20
21.445335355
 10
84.0988860528
 20
21.4987818036
 10
84.0857696636
 20
21.551903851
 10
84.0701050933
 20
21.6041200357
 10
84.0520009471
 20
21.6550966274
 10
84.0315415485
 20
21.7048535108
 10
84.0088635926
 20
21.7533281244
 10
83.9840845602
 20
21.8004605913
 10
83.9572186612
 20
21.8462141631
 10
83.9282216515
 20
21.8905952148
 10
83.8971076062
 20
21.9335488215
 10
83.8640288846
 20
21.9749057693
 10
83.829179488
 20
22.0144844565
 10
83.792696633
 20
22.0521882729
 10
83.7546432751
 20
22.0879947714
 10
83.7151105852
 20
22.1218577402
  0
LINE
  5
3DA
100
AcDbEntity
  8
RACCORDO
100
AcDbLine
 62
253
  6
CONTINUOUS
 10
87.7240601109
 20
-43.9502062219
 11
87.7173361223
 21
-43.7711325466
  0
LWPOLYLINE
  5
3DB
100
AcDbEntity
  8
RACCORDO
100
AcDbPolyline
 62
253
  6
CONTINUOUS
 90
34
 70
0
 10
84.5185403109
 20
21.290342577
 10
84.5170127477
 20
21.3363869976
 10
84.5142830157
 20
21.3815848552
 10
84.5103511421
 20
21.4259361595
 10
84.5051818345
 20
21.4693648677
 10
84.4988104365
 20
21.511947042
 10
84.4913429241
 20
21.5539108467
 10
84.4827983631
 20
21.5952900177
 10
84.4731577278
 20
21.6360508318
 10
84.462469853
 20
21.6763202608
 10
84.4507563732
 20
21.7160971133
 10
84.4379956882
 20
21.7553825906
 10
84.4241717792
 20
21.7943072507
 10
84.4092981252
 20
21.8328994716
 10
84.3933612793
 20
21.8711308821
 10
84.3763048348
 20
21.9090469143
 10
84.358044
 20
21.9467954668
 10
84.3386635994
 20
21.984228646
 10
84.3183616463
 20
22.0209481988
 10
84.2970356237
 20
22.0570117678
 10
84.2747880673
 20
22.0923617236
 10
84.2521245525
 20
22.1264269136
 10
84.2291041258
 20
22.1590466016
 10
84.2056677309
 20
22.1903815477
 10
84.1821437718
 20
22.2203428498
 10
84.1585968868
 20
22.2488471411
 10
84.1349624161
 20
22.2759778105
 10
84.1113748123
 20
22.3018960885
 10
84.0878439448
 20
22.3266082805
 10
84.0643599223
 20
22.3501080976
 10
84.0410275574
 20
22.3725378761
 10
84.0178817807
 20
22.3939450651
 10
83.9948876405
 20
22.4142822279
 10
83.9720451262
 20
22.4335493707
  0
LINE
  5
3DC
100
AcDbEntity
  8
RACCORDO
100
AcDbLine
 62
253
  6
CONTINUOUS
 10
87.7141945412
 20
-43.5262729244
 11
87.7163440715
 21
-43.600418799
  0
LINE
  5
3DD
100
AcDbEntity
  8
RACCORDO
100
AcDbLine
 62
253
  6
CONTINUOUS
 10
87.7163440715
 20
-43.600418799
 11
87.7174015299
 21
-43.645342612
  0
LWPOLYLINE
  5
3DE
100
AcDbEntity
  8
RACCORDO
100
AcDbPolyline
 62
253
  6
CONTINUOUS
 90
10
 70
0
 10
87.7174015299
 20
-43.645342612
 10
87.7181200662
 20
-43.6850670236
 10
87.7183450664
 20
-43.7025989284
 10
87.7184780676
 20
-43.718397165
 10
87.7185180679
 20
-43.7323427106
 10
87.7184647658
 20
-43.7443305005
 10
87.718318563
 20
-43.7542702195
 10
87.7180805608
 20
-43.7620869825
 10
87.7177525526
 20
-43.7677218985
 10
87.7173370093
 20
-43.7711325145
  0
LWPOLYLINE
  5
3DF
100
AcDbEntity
  8
RACCORDO
100
AcDbPolyline
 62
253
  6
CONTINUOUS
 90
8
 70
0
 10
87.7183450664
 20
42.8498539022
 10
87.7184780677
 20
42.8656521388
 10
87.7185180679
 20
42.8795976844
 10
87.7184647658
 20
42.8915854743
 10
87.718318563
 20
42.9015251933
 10
87.7180805609
 20
42.9093419563
 10
87.7177525526
 20
42.9149768723
 10
87.7173370093
 20
42.9183874884
  0
LINE
  5
3E0
100
AcDbEntity
  8
RACCORDO
100
AcDbLine
 62
253
  6
CONTINUOUS
 10
87.7178047622
 20
42.8131885085
 11
87.7183450664
 21
42.8498539022
  0
LINE
  5
3E1
100
AcDbEntity
  8
RACCORDO
100
AcDbLine
 62
253
  6
CONTINUOUS
 10
87.7169134072
 20
42.7707043599
 11
87.7178047622
 21
42.8131885085
  0
LWPOLYLINE
  5
3E2
100
AcDbEntity
  8
RACCORDO
100
AcDbPolyline
 62
253
  6
CONTINUOUS
 90
3
 70
0
 10
87.7141945412
 20
42.6735278982
 10
87.7149794982
 20
42.6989018198
 10
87.7169134072
 20
42.7707043599
  0
LINE
  5
3E3
100
AcDbEntity
  8
RACCORDO
100
AcDbLine
 62
253
  6
CONTINUOUS
 10
87.7240601109
 20
43.0974611957
 11
87.7173359952
 21
42.918387525
  0
LWPOLYLINE
  5
3E4
100
AcDbEntity
  8
RACCORDO
100
AcDbPolyline
 62
253
  6
CONTINUOUS
 90
10
 70
0
 10
92.707711423
 20
42.5296808869
 10
92.7086552428
 20
42.5487960887
 10
92.709425676
 20
42.566316331
 10
92.7100169191
 20
42.5821096357
 10
92.7104245182
 20
42.5960570333
 10
92.710645403
 20
42.6080534593
 10
92.7106779095
 20
42.6180085457
 10
92.7105217929
 20
42.625847302
 10
92.7101782292
 20
42.6315106794
 10
92.7096498064
 20
42.6349560164
  0
LINE
  5
3E5
100
AcDbEntity
  8
RACCORDO
100
AcDbLine
 62
253
  6
CONTINUOUS
 10
92.7053333152
 20
42.4872525072
 11
92.707711423
 21
42.5296808869
  0
LINE
  5
3E6
100
AcDbEntity
  8
RACCORDO
100
AcDbLine
 62
253
  6
CONTINUOUS
 10
92.7023628737
 20
42.4403072203
 11
92.7053333152
 21
42.4872525072
  0
LINE
  5
3E7
100
AcDbEntity
  8
RACCORDO
100
AcDbLine
 62
253
  6
CONTINUOUS
 10
92.6988894343
 20
42.3902568996
 11
92.7023628737
 21
42.4403072203
  0
LINE
  5
3E8
100
AcDbEntity
  8
RACCORDO
100
AcDbLine
 62
253
  6
CONTINUOUS
 10
92.7240601109
 20
42.8136274869
 11
92.7096496173
 21
42.6349560383
  0
LINE
  5
3E9
100
AcDbEntity
  8
RACCORDO
100
AcDbLine
 62
253
  6
CONTINUOUS
 10
108.5519466841
 20
24.471098214
 11
108.4869649632
 21
25.0990423515
  0
LINE
  5
3EA
100
AcDbEntity
  8
DRAFT
100
AcDbLine
 62
7
  6
CONTINUOUS
 10
108.6598965806
 20
25.1185124026
 11
108.7219741562
 21
24.5189717444
  0
LINE
  5
3EB
100
AcDbEntity
  8
RACCORDO
100
AcDbLine
 62
253
  6
CONTINUOUS
 10
108.2843832555
 20
24.4556878154
 11
108.2195997628
 21
25.082511519
  0
LINE
  5
3EC
100
AcDbEntity
  8
RACCORDO
100
AcDbLine
 62
253
  6
CONTINUOUS
 10
108.3347419227
 20
23.9476864029
 11
108.2843832555
 21
24.4556878154
  0
LINE
  5
3ED
100
AcDbEntity
  8
RACCORDO
100
AcDbLine
 62
253
  6
CONTINUOUS
 10
108.6023224733
 20
23.9632573875
 11
108.5519466841
 21
24.471098214
  0
LINE
  5
3EE
100
AcDbEntity
  8
DRAFT
100
AcDbLine
 62
7
  6
CONTINUOUS
 10
108.7219741562
 20
24.5189717444
 11
108.7754104053
 21
23.9802364522
  0
LWPOLYLINE
  5
3EF
100
AcDbEntity
  8
DRAFT
100
AcDbPolyline
 62
7
  6
CONTINUOUS
 90
19
 70
0
 10
108.7754104053
 20
23.9802364522
 10
109.0257426521
 20
21.2766687141
 10
109.246778423
 20
18.5704931161
 10
109.4384551743
 20
15.8617884549
 10
109.6007134797
 20
13.1501626986
 10
109.7335107001
 20
10.4361664405
 10
109.8368236407
 20
7.7212935281
 10
109.9106184821
 20
5.0059117869
 10
109.9548799385
 20
2.2898147347
 10
109.9696278382
 20
-0.4263644417
 10
109.9548800074
 20
-3.1425459505
 10
109.9106186144
 20
-5.8586478502
 10
109.836823798
 20
-8.5740337293
 10
109.7335108196
 20
-11.2889089455
 10
109.6007135268
 20
-14.0029067979
 10
109.4384551673
 20
-16.7145335883
 10
109.246778398
 20
-19.4232387733
 10
109.0257426292
 20
-22.1294143354
 10
108.7754104053
 20
-24.8329814784
  0
LWPOLYLINE
  5
3F0
100
AcDbEntity
  8
RACCORDO
100
AcDbPolyline
 62
253
  6
CONTINUOUS
 90
19
 70
0
 10
108.6023224733
 20
-24.8160024137
 10
108.8524862893
 20
-22.1152895783
 10
109.0733482888
 20
-19.4115417347
 10
109.2648673997
 20
-16.7050565713
 10
109.4270000446
 20
-13.996216155
 10
109.5597172728
 20
-11.2853178195
 10
109.6629930577
 20
-8.5725319994
 10
109.7367952065
 20
-5.8580269254
 10
109.7810902147
 20
-3.1423778302
 10
109.7958568517
 20
-0.4263660295
 10
109.7810900689
 20
2.2896462131
 10
109.7367948974
 20
5.0052961127
 10
109.6629925814
 20
7.7198015715
 10
109.5597166397
 20
10.432587342
 10
109.4269992785
 20
13.1434852092
 10
109.2648665859
 20
15.8523240058
 10
109.0733475685
 20
18.5588061573
 10
108.8524858279
 20
21.2625498458
 10
108.6023224733
 20
23.9632573875
  0
LWPOLYLINE
  5
3F1
100
AcDbEntity
  8
RACCORDO
100
AcDbPolyline
 62
253
  6
CONTINUOUS
 90
19
 70
0
 10
108.3347419227
 20
-24.8004314291
 10
108.5848160467
 20
-22.1010415564
 10
108.8056281841
 20
-19.3990971716
 10
108.9971167321
 20
-16.6946760396
 10
109.1592213591
 20
-13.9876406079
 10
109.2919021975
 20
-11.2782849584
 10
109.3951410374
 20
-8.5673350909
 10
109.468919796
 20
-5.8546609663
 10
109.5132051379
 20
-3.1405514942
 10
109.5279708749
 20
-0.426361872
 10
109.5132048829
 20
2.2878281629
 10
109.4689192851
 20
5.0019383871
 10
109.3951402867
 20
7.7146128735
 10
109.2919011652
 20
10.4255630383
 10
109.1592200624
 20
13.134918595
 10
108.9971153836
 20
15.8419518388
 10
108.8056270649
 20
18.5463681205
 10
108.584815376
 20
21.2483055628
 10
108.3347419227
 20
23.9476864029
  0
LINE
  5
3F2
100
AcDbEntity
  8
RACCORDO
100
AcDbLine
 62
253
  6
CONTINUOUS
 10
108.2659125376
 20
-25.4922079679
 11
108.3347419227
 21
-24.8004314291
  0
LINE
  5
3F3
100
AcDbEntity
  8
RACCORDO
100
AcDbLine
 62
253
  6
CONTINUOUS
 10
108.53347033
 20
-25.5074811041
 11
108.6023224733
 21
-24.8160024137
  0
LINE
  5
3F4
100
AcDbEntity
  8
DRAFT
100
AcDbLine
 62
7
  6
CONTINUOUS
 10
108.7754104053
 20
-24.8329814784
 11
108.7064924303
 21
-25.5256193725
  0
LWPOLYLINE
  5
3F5
100
AcDbEntity
  8
DRAFT
100
AcDbPolyline
 62
7
  6
CONTINUOUS
 90
10
 70
0
 10
108.7064924303
 20
-25.5256193725
 10
108.6598967277
 20
-25.9712561717
 10
108.6100530238
 20
-26.4166203809
 10
108.5569629368
 20
-26.8617076152
 10
108.5006292779
 20
-27.3065339407
 10
108.4410527064
 20
-27.7510745498
 10
108.3782317937
 20
-28.195263806
 10
108.3121674515
 20
-28.6390769923
 10
108.2428628684
 20
-29.0825302676
 10
108.1703202098
 20
-29.5256193724
  0
LWPOLYLINE
  5
3F6
100
AcDbEntity
  8
RACCORDO
100
AcDbPolyline
 62
253
  6
CONTINUOUS
 90
10
 70
0
 10
107.7330070801
 20
-29.4689819855
 10
107.80509999
 20
-29.0285113208
 10
107.873977292
 20
-28.5876615556
 10
107.9396368898
 20
-28.14643673
 10
108.0020768997
 20
-27.7048124782
 10
108.0612952282
 20
-27.2628212841
 10
108.117289655
 20
-26.8205525399
 10
108.1700583594
 20
-26.3780388404
 10
108.2195998375
 20
-25.9352559237
 10
108.2659125376
 20
-25.4922079679
  0
LWPOLYLINE
  5
3F7
100
AcDbEntity
  8
RACCORDO
100
AcDbPolyline
 62
253
  6
CONTINUOUS
 90
10
 70
0
 10
107.9983862923
 20
-29.4957975892
 10
108.0707745432
 20
-29.054082386
 10
108.1399328395
 20
-28.611948181
 10
108.2058597016
 20
-28.1694179782
 10
108.2685546881
 20
-27.7265079593
 10
108.3280154078
 20
-27.2832503553
 10
108.3842379325
 20
-26.8396922991
 10
108.4372207949
 20
-26.3958660987
 10
108.4869648953
 20
-25.951788004
 10
108.5334703328
 20
-25.5074811044
  0
LWPOLYLINE
  5
3F8
100
AcDbEntity
  8
DRAFT
100
AcDbPolyline
 62
7
  6
CONTINUOUS
 90
46
 70
0
 10
108.1703202098
 20
-29.5256193724
 10
108.0799833008
 20
-30.0204231568
 10
107.9750519338
 20
-30.5120081551
 10
107.8555360257
 20
-31.0003711473
 10
107.7212530169
 20
-31.4861922067
 10
107.5724054338
 20
-31.9687849804
 10
107.4095826201
 20
-32.4460990083
 10
107.2327457052
 20
-32.9179910092
 10
107.0419575233
 20
-33.3846042199
 10
106.8379624582
 20
-33.8443222568
 10
106.6209804678
 20
-34.2966491503
 10
106.3908168063
 20
-34.7420865088
 10
106.1475944735
 20
-35.1805167
 10
105.8911203504
 20
-35.6123740108
 10
105.6216110319
 20
-36.0372311622
 10
105.3398041417
 20
-36.4536803826
 10
105.0455686645
 20
-36.8617536529
 10
104.7390578763
 20
-37.2614311882
 10
104.4214357187
 20
-37.6512313468
 10
104.092724985
 20
-38.0310201614
 10
103.752922055
 20
-38.4009486618
 10
103.4031502867
 20
-38.7599659345
 10
103.0437590778
 20
-39.1077682979
 10
102.6744135932
 20
-39.4446797039
 10
102.2952095377
 20
-39.7705921219
 10
101.905648823
 20
-40.0859046098
 10
101.5062394894
 20
-40.3902380947
 10
101.0985846983
 20
-40.6823187614
 10
100.6827348497
 20
-40.9620226547
 10
100.25864329
 20
-41.2294960225
 10
99.8277652557
 20
-41.4838722415
 10
99.3901877763
 20
-41.725007061
 10
98.9458211989
 20
-41.9530669607
 10
98.4958535885
 20
-42.1676520539
 10
98.0406388399
 20
-42.3686822006
 10
97.5798146244
 20
-42.556257789
 10
97.113493023
 20
-42.7302494257
 10
96.641219595
 20
-42.8908093742
 10
96.1634354767
 20
-43.0378024227
 10
95.6815944782
 20
-43.1706675039
 10
95.1955700139
 20
-43.289371242
 10
94.7054701574
 20
-43.3939608642
 10
94.2130990737
 20
-43.4839956485
 10
93.7190505301
 20
-43.5593319688
 10
93.222708202
 20
-43.6201230732
 10
92.7240601072
 20
-43.6663725134
  0
LWPOLYLINE
  5
3F9
100
AcDbEntity
  8
RACCORDO
100
AcDbPolyline
 62
253
  6
CONTINUOUS
 90
97
 70
0
 10
107.9983864151
 20
28.6430519648
 10
107.9571654605
 20
28.8785958918
 10
107.9095375881
 20
29.1290395478
 10
107.8548056934
 20
29.3941989671
 10
107.7918076359
 20
29.6756870949
 10
107.7201252111
 20
29.9714195649
 10
107.6404139792
 20
30.2756886546
 10
107.5521551829
 20
30.5881993489
 10
107.4548124446
 20
30.9087088368
 10
107.3496070536
 20
31.2317055813
 10
107.2361514305
 20
31.5574225761
 10
107.1144020877
 20
31.8850591634
 10
106.9868135945
 20
32.2077920257
 10
106.8533632301
 20
32.5260257155
 10
106.7143901917
 20
32.8392828957
 10
106.5737514783
 20
33.1398551417
 10
106.4335259968
 20
33.4250366606
 10
106.2929417736
 20
33.6980051969
 10
106.151991245
 20
33.9600147381
 10
106.0131164468
 20
34.2078279701
 10
105.8750237602
 20
34.4449605731
 10
105.7314925986
 20
34.6824174393
 10
105.5801243378
 20
34.9236561365
 10
105.4230786474
 20
35.1647255055
 10
105.260432107
 20
35.4052342781
 10
105.0914683137
 20
35.6459484132
 10
104.9167142328
 20
35.8858283601
 10
104.7382546618
 20
36.1219364372
 10
104.5559777136
 20
36.3544872364
 10
104.3701243829
 20
36.5832347984
 10
104.1836200397
 20
36.8048168398
 10
103.9971863531
 20
37.0188039402
 10
103.8105494433
 20
37.2259219927
 10
103.6253825678
 20
37.4247603744
 10
103.4426831887
 20
37.6147882444
 10
103.2620230192
 20
37.7969681047
 10
103.0829950862
 20
37.972144116
 10
102.9057106778
 20
38.1405889803
 10
102.7305705336
 20
38.3022874141
 10
102.5575658716
 20
38.4575945584
 10
102.3865509136
 20
38.6069524059
 10
102.2180845399
 20
38.7501720961
 10
102.0532159024
 20
38.8866901458
 10
101.892199585
 20
39.016645042
 10
101.7351999091
 20
39.1402497695
 10
101.5831580981
 20
39.2571127886
 10
101.4369350966
 20
39.3669409916
 10
101.2960560914
 20
39.4704388788
 10
101.159428956
 20
39.5686917691
 10
101.0275040895
 20
39.6616232616
 10
100.900082129
 20
39.7496091948
 10
100.775017524
 20
39.8343035513
 10
100.6523725202
 20
39.9157859809
 10
100.5322090307
 20
39.9941329489
 10
100.4122991168
 20
40.0708699259
 10
100.2923288338
 20
40.1462229594
 10
100.1726311808
 20
40.2200078324
 10
100.0518960311
 20
40.2930396644
 10
99.9295830836
 20
40.3656208663
 10
99.806212157
 20
40.4374186304
 10
99.68204842
 20
40.5082681283
 10
99.5570493757
 20
40.5781870781
 10
99.4312492375
 20
40.6471498592
 10
99.3050376666
 20
40.7149436366
 10
99.1784630358
 20
40.7815504069
 10
99.0514877362
 20
40.8469978724
 10
98.9243874562
 20
40.9111550269
 10
98.7976562996
 20
40.973794779
 10
98.6708468124
 20
41.0351602456
 10
98.5428117353
 20
41.0958029728
 10
98.4139274793
 20
41.1555285394
 10
98.2838346666
 20
41.2144872545
 10
98.1502431144
 20
41.2736597721
 10
98.0131376408
 20
41.33295881
 10
97.8725022491
 20
41.3922953929
 10
97.7259975558
 20
41.4525209815
 10
97.5732824436
 20
41.5135922969
 10
97.4146147629
 20
41.5752177604
 10
97.2485123855
 20
41.6377596186
 10
97.0746463462
 20
41.7010896606
 10
96.8932045256
 20
41.7648781224
 10
96.703455011
 20
41.8291041812
 10
96.5050784212
 20
41.8935691955
 10
96.2982304663
 20
41.957904957
 10
96.0828832881
 20
42.0217985164
 10
95.8591888689
 20
42.0848782621
 10
95.6268725258
 20
42.1468846593
 10
95.3852660969
 20
42.2076286779
 10
95.1348459515
 20
42.2666069086
 10
94.8750943678
 20
42.3235447747
 10
94.6038391956
 20
42.3784418972
 10
94.321099122
 20
42.4307430963
 10
94.0268441302
 20
42.4798857001
 10
93.7187972391
 20
42.5256077804
 10
93.3961916017
 20
42.5672693288
 10
93.0597964648
 20
42.6039849818
 10
92.7096496173
 20
42.6349560383
  0
LWPOLYLINE
  5
3FA
100
AcDbEntity
  8
RACCORDO
100
AcDbPolyline
 62
253
  6
CONTINUOUS
 90
97
 70
0
 10
107.7330070801
 20
28.6162369593
 10
107.6937020269
 20
28.848396463
 10
107.6466718928
 20
29.0948325181
 10
107.5919115215
 20
29.3555381642
 10
107.5296164196
 20
29.6325341432
 10
107.4595795801
 20
29.9237830991
 10
107.3811952251
 20
30.2231932331
 10
107.2941003269
 20
30.5307124263
 10
107.1986537917
 20
30.8463803079
 10
107.0953393672
 20
31.1642492811
 10
106.9835322781
 20
31.4846748876
 10
106.8638600351
 20
31.8072951666
 10
106.7386912079
 20
32.125094818
 10
106.6073124945
 20
32.4382160045
 10
106.4704463033
 20
32.7465200817
 10
106.3326200906
 20
33.0425808337
 10
106.1949907241
 20
33.3234204049
 10
106.0564140433
 20
33.5920323215
 10
105.9179669073
 20
33.8499516347
 10
105.781898106
 20
34.0941200778
 10
105.6459672927
 20
34.3276089816
 10
105.5045143223
 20
34.5611402144
 10
105.3556761038
 20
34.7985196856
 10
105.2013183661
 20
35.0359385116
 10
105.0413723731
 20
35.2726903623
 10
104.8751396193
 20
35.5095501168
 10
104.7033222176
 20
35.7457420315
 10
104.5279528391
 20
35.9782362869
 10
104.3486599442
 20
36.2070914319
 10
104.1658191119
 20
36.432252429
 10
103.9825838282
 20
36.6505231681
 10
103.7993000894
 20
36.8611955947
 10
103.6156251207
 20
37.0649856907
 10
103.4336787786
 20
37.2608360553
 10
103.2541286885
 20
37.448013422
 10
103.0763089594
 20
37.6272598093
 10
102.9003386562
 20
37.7997306002
 10
102.7261059308
 20
37.9656141651
 10
102.5537234155
 20
38.1247286918
 10
102.3836466069
 20
38.2776732301
 10
102.2155474421
 20
38.424735155
 10
102.049754095
 20
38.5656325435
 10
101.8877061067
 20
38.7001101987
 10
101.7294449091
 20
38.82809306
 10
101.5749284517
 20
38.9496614541
 10
101.4254707269
 20
39.0647932415
 10
101.2817628647
 20
39.1730159606
 10
101.143112605
 20
39.2748068048
 10
101.0087588466
 20
39.3715674821
 10
100.8790885073
 20
39.463150625
 10
100.7537137195
 20
39.5497067286
 10
100.6307115496
 20
39.6330831679
 10
100.5101466325
 20
39.7133624119
 10
100.3919538023
 20
39.790463689
 10
100.2740158555
 20
39.8659885039
 10
100.1560559407
 20
39.9401988219
 10
100.0383507833
 20
40.0128333999
 10
99.9196138724
 20
40.084708292
 10
99.7993339461
 20
40.1561541731
 10
99.6780223604
 20
40.2268406521
 10
99.5559266199
 20
40.2965920211
 10
99.4330013257
 20
40.3654195646
 10
99.309291858
 20
40.4333124152
 10
99.18518182
 20
40.5000617289
 10
99.060699811
 20
40.5656386223
 10
98.9358171042
 20
40.630072488
 10
98.8108312464
 20
40.6932419687
 10
98.6862074092
 20
40.7549332867
 10
98.5614801905
 20
40.8153607894
 10
98.4355513385
 20
40.8750452154
 10
98.3088075962
 20
40.933876273
 10
98.1808621581
 20
40.9919645643
 10
98.0494567027
 20
41.0501618745
 10
97.9146238782
 20
41.1085561387
 10
97.7763313148
 20
41.1670593415
 10
97.6322234619
 20
41.226259037
 10
97.4820384571
 20
41.2863603545
 10
97.3260387437
 20
41.3471578074
 10
97.1626553799
 20
41.4086229028
 10
96.991655868
 20
41.470919168
 10
96.8132733366
 20
41.5338827197
 10
96.6266371738
 20
41.5969940735
 10
96.4315137703
 20
41.6603795524
 10
96.228137099
 20
41.7239127159
 10
96.0163375129
 20
41.7866952679
 10
95.7963028776
 20
41.8487259966
 10
95.5678450004
 20
41.9100064385
 10
95.3302294951
 20
41.9696428369
 10
95.0839302843
 20
42.0276531014
 10
94.8284721578
 20
42.0840200284
 10
94.5616961195
 20
42.1377975866
 10
94.2836240884
 20
42.189188209
 10
93.994231359
 20
42.2379904563
 10
93.6912874196
 20
42.2826529428
 10
93.3740464175
 20
42.32265911
 10
93.0432481768
 20
42.3585269064
 10
92.6988894343
 20
42.3902568996
  0
LWPOLYLINE
  5
3FB
100
AcDbEntity
  8
DRAFT
100
AcDbPolyline
 62
7
  6
CONTINUOUS
 90
9
 70
0
 10
108.1703202099
 20
28.672874346
 10
108.2428626778
 20
28.2297865033
 10
108.3121671236
 20
27.7863341744
 10
108.3782313818
 20
27.3425216182
 10
108.4410522701
 20
26.8983326747
 10
108.5006288698
 20
26.4537920616
 10
108.5569625889
 20
26.0089654189
 10
108.6100527607
 20
25.563877555
 10
108.6598965806
 20
25.1185124026
  0
LWPOLYLINE
  5
3FC
100
AcDbEntity
  8
RACCORDO
100
AcDbPolyline
 62
253
  6
CONTINUOUS
 90
9
 70
0
 10
108.4869649632
 20
25.0990423515
 10
108.4372209787
 20
25.543119484
 10
108.3842382069
 20
25.9869450432
 10
108.3280157346
 20
26.4305028246
 10
108.2685550271
 20
26.8737604737
 10
108.2058600258
 20
27.3166707195
 10
108.139933125
 20
27.759201285
 10
108.0707747556
 20
28.2013360337
 10
107.9983863932
 20
28.643051961
  0
LWPOLYLINE
  5
3FD
100
AcDbEntity
  8
RACCORDO
100
AcDbPolyline
 62
253
  6
CONTINUOUS
 90
9
 70
0
 10
108.2195997628
 20
25.082511519
 10
108.1700582266
 20
25.5252948994
 10
108.1172894811
 20
25.9678089051
 10
108.0612950278
 20
26.4100777953
 10
108.0020766899
 20
26.852068978
 10
107.9396366946
 20
27.2936930693
 10
107.8739771376
 20
27.7349175885
 10
107.8050999006
 20
28.1757668985
 10
107.7330070801
 20
28.6162369593
  0
LINE
  5
3FE
100
AcDbEntity
  8
RACCORDO
100
AcDbLine
 62
253
  6
CONTINUOUS
 10
-133.3156465607
 20
-43.7494909117
 11
-133.3293756142
 21
-43.7522322002
  0
LINE
  5
3FF
100
AcDbEntity
  8
RACCORDO
100
AcDbLine
 62
7
  6
CONTINUOUS
 10
-133.6233456288
 20
-45.0934279862
 11
-133.6998109862
 21
-45.1057526514
  0
LINE
  5
400
100
AcDbEntity
  8
RACCORDO
100
AcDbLine
 62
253
  6
CONTINUOUS
 10
-133.1461564578
 20
-43.3370891119
 11
-133.2439540726
 21
-43.3515993024
  0
LINE
  5
401
100
AcDbEntity
  8
DRAFT
100
AcDbLine
 62
7
  6
CONTINUOUS
 10
-135.824635734
 20
-45.2464608375
 11
-133.7682358723
 21
-45.4263725131
  0
LWPOLYLINE
  5
402
100
AcDbEntity
  8
RACCORDO
100
AcDbPolyline
 62
253
  6
CONTINUOUS
 90
9
 70
0
 10
-129.9764066907
 20
-42.1127128667
 10
-130.3338693276
 20
-42.21043169
 10
-130.693575683
 20
-42.2995627917
 10
-131.0553203149
 20
-42.3800549781
 10
-131.4188944403
 20
-42.451861507
 10
-131.784086003
 20
-42.514940375
 10
-132.150684159
 20
-42.5692552037
 10
-132.518479448
 20
-42.6147750002
 10
-132.8434645362
 20
-42.6471153281
  0
LINE
  5
403
100
AcDbEntity
  8
RACCORDO
100
AcDbLine
 62
253
  6
CONTINUOUS
 10
-132.4056815829
 20
-42.3367649622
 11
-132.7593928993
 21
-42.3717057782
  0
LINE
  5
404
100
AcDbEntity
  8
RACCORDO
100
AcDbLine
 62
253
  6
CONTINUOUS
 10
-133.2931466861
 20
-43.6663725131
 11
-135.3420097606
 21
-43.4877010672
  0
LINE
  5
405
100
AcDbEntity
  8
RACCORDO
100
AcDbLine
 62
253
  6
CONTINUOUS
 10
-135.5248406266
 20
-43.9041441491
 11
-133.4765719069
 21
-44.0832407125
  0
LINE
  5
406
100
AcDbEntity
  8
RACCORDO
100
AcDbLine
 62
253
  6
CONTINUOUS
 10
-133.4223585391
 20
-43.9502062219
 11
-135.4706258284
 21
-43.7711325466
  0
LWPOLYLINE
  5
407
100
AcDbEntity
  8
RACCORDO
100
AcDbPolyline
 62
7
  6
CONTINUOUS
 90
4
 70
0
 10
-129.4588489288
 20
-29.1105126954
 10
-129.4730023781
 20
-29.1134040629
 10
-129.4887501887
 20
-29.1162231428
 10
-129.5059868182
 20
-29.11894365
  0
LINE
  5
408
100
AcDbEntity
  8
RACCORDO
100
AcDbLine
 62
7
  6
CONTINUOUS
 10
-129.5059868182
 20
-29.11894365
 11
-129.5245967464
 21
-29.1215398518
  0
LWPOLYLINE
  5
409
100
AcDbEntity
  8
RACCORDO
100
AcDbPolyline
 62
7
  6
CONTINUOUS
 90
5
 70
0
 10
-129.5245967464
 20
-29.1215398518
 10
-129.544455249
 20
-29.123986823
 10
-129.5654292336
 20
-29.1262607096
 10
-129.587378132
 20
-29.1283389751
 10
-129.6101548421
 20
-29.130200628
  0
LINE
  5
40A
100
AcDbEntity
  8
RACCORDO
100
AcDbLine
 62
253
  6
CONTINUOUS
 10
-129.506003006
 20
-29.1631868297
 11
-129.5246160892
 21
-29.1654597777
  0
LWPOLYLINE
  5
40B
100
AcDbEntity
  8
RACCORDO
100
AcDbPolyline
 62
253
  6
CONTINUOUS
 90
4
 70
0
 10
-129.5246160892
 20
-29.1654597777
 10
-129.5444778724
 20
-29.167510052
 10
-129.565455214
 20
-29.1693239655
 10
-129.5874074946
 20
-29.1708894151
  0
LINE
  5
40C
100
AcDbEntity
  8
RACCORDO
100
AcDbLine
 62
253
  6
CONTINUOUS
 10
-133.9033013914
 20
-29.4605435581
 11
-134.0755207062
 21
-29.4737927318
  0
LWPOLYLINE
  5
40D
100
AcDbEntity
  8
RACCORDO
100
AcDbPolyline
 62
253
  6
CONTINUOUS
 90
10
 70
0
 10
-129.6101333907
 20
-29.13055242
 10
-130.0253873026
 20
-29.1539792917
 10
-130.4444902327
 20
-29.1754215329
 10
-130.867104791
 20
-29.1948616614
 10
-131.2928798023
 20
-29.2122704899
 10
-131.7214833933
 20
-29.2276472083
 10
-132.1526039964
 20
-29.2410190433
 10
-132.5859063433
 20
-29.2523879534
 10
-133.0210310138
 20
-29.2617309911
 10
-133.4576280352
 20
-29.2690401343
  0
LWPOLYLINE
  5
40E
100
AcDbEntity
  8
RACCORDO
100
AcDbPolyline
 62
253
  6
CONTINUOUS
 90
10
 70
0
 10
-129.5874074946
 20
-29.1708894151
 10
-130.0251937733
 20
-29.1956738826
 10
-130.4440395269
 20
-29.2170640291
 10
-130.8663883772
 20
-29.2364852841
 10
-131.2919008364
 20
-29.2539223456
 10
-131.7202349344
 20
-29.2693609368
 10
-132.1510464941
 20
-29.2827877997
 10
-132.5839892871
 20
-29.2941918524
 10
-133.0187153118
 20
-29.303564216
 10
-133.4548751635
 20
-29.3108973575
  0
LINE
  5
40F
100
AcDbEntity
  8
0
100
AcDbLine
 62
7
  6
CONTINUOUS
 10
-138.3250028754
 20
-29.3341738675
 11
-138.2246829459
 21
-29.3341738675
  0
LINE
  5
410
100
AcDbEntity
  8
0
100
AcDbLine
 62
253
  6
CONTINUOUS
 10
-138.3837922728
 20
-28.5764727411
 11
-138.2835136683
 21
-28.5764727411
  0
LINE
  5
411
100
AcDbEntity
  8
0
100
AcDbLine
 62
7
  6
CONTINUOUS
 10
-138.4240306207
 20
-28.02729695
 11
-138.3237801644
 21
-28.02729695
  0
LINE
  5
412
100
AcDbEntity
  8
0
100
AcDbLine
 62
7
  6
CONTINUOUS
 10
-138.4252007813
 20
-28.0107531411
 11
-138.3249511492
 21
-28.0107531411
  0
LINE
  5
413
100
AcDbEntity
  8
RACCORDO
100
AcDbLine
 62
253
  6
CONTINUOUS
 10
-134.0715335799
 20
-29.5256193725
 11
-136.0661223125
 21
-29.4957975892
  0
LWPOLYLINE
  5
414
100
AcDbEntity
  8
RACCORDO
100
AcDbPolyline
 62
253
  6
CONTINUOUS
 90
9
 70
0
 10
-135.7436200088
 20
42.9257827089
 10
-135.7276819573
 20
42.9463554349
 10
-135.7100199044
 20
42.9654703253
 10
-135.6907668239
 20
42.9829834684
 10
-135.6700676679
 20
42.9987630115
 10
-135.648078276
 20
43.0126901537
 10
-135.6249642015
 20
43.0246600407
 10
-135.6008994654
 20
43.0345825538
 10
-135.5760652457
 20
43.0423829885
  0
LWPOLYLINE
  5
415
100
AcDbEntity
  8
RACCORDO
100
AcDbPolyline
 62
253
  6
CONTINUOUS
 90
8
 70
0
 10
-129.4577150427
 20
-25.2928605487
 10
-129.471546603
 20
-25.2945347111
 10
-129.4869433815
 20
-25.2961091689
 10
-129.503804691
 20
-25.2975735874
 10
-129.5220202667
 20
-25.2989183517
 10
-129.5414709878
 20
-25.3001346296
 10
-129.5620296562
 20
-25.3012144288
 10
-129.5835618282
 20
-25.3021506497
  0
LWPOLYLINE
  5
416
100
AcDbEntity
  8
RACCORDO
100
AcDbPolyline
 62
253
  6
CONTINUOUS
 90
8
 70
0
 10
-129.4577082825
 20
-25.264338535
 10
-129.471537922
 20
-25.2659960985
 10
-129.4869326047
 20
-25.2675555927
 10
-129.5037916721
 20
-25.2690068516
 10
-129.5220048903
 20
-25.2703404168
 10
-129.5414531715
 20
-25.2715475993
 10
-129.5620093525
 20
-25.2726205367
 10
-129.5835390258
 20
-25.2735522442
  0
LINE
  5
417
100
AcDbEntity
  8
RACCORDO
100
AcDbLine
 62
253
  6
CONTINUOUS
 10
-134.1217442156
 20
-25.4852667975
 11
-134.2938316615
 21
-25.4939686961
  0
LINE
  5
418
100
AcDbEntity
  8
RACCORDO
100
AcDbLine
 62
253
  6
CONTINUOUS
 10
-134.1497881018
 20
-24.8237134304
 11
-134.3211645026
 21
-24.8315788798
  0
LINE
  5
419
100
AcDbEntity
  8
RACCORDO
100
AcDbLine
 62
253
  6
CONTINUOUS
 10
-129.5835618282
 20
-25.3021506497
 11
-130.4851039379
 21
-25.3328338842
  0
LINE
  5
41A
100
AcDbEntity
  8
RACCORDO
100
AcDbLine
 62
253
  6
CONTINUOUS
 10
-129.5835390258
 20
-25.2735522442
 11
-130.4853296097
 21
-25.3043745473
  0
LINE
  5
41B
100
AcDbEntity
  8
RACCORDO
100
AcDbLine
 62
253
  6
CONTINUOUS
 10
-129.5830417536
 20
-24.6171549965
 11
-130.4905222781
 21
-24.647474224
  0
LINE
  5
41C
100
AcDbEntity
  8
RACCORDO
100
AcDbLine
 62
253
  6
CONTINUOUS
 10
-130.4851039379
 20
-25.3328338842
 11
-131.3806209555
 21
-25.3574672097
  0
LINE
  5
41D
100
AcDbEntity
  8
RACCORDO
100
AcDbLine
 62
253
  6
CONTINUOUS
 10
-130.4853296097
 20
-25.3043745473
 11
-131.3811397101
 21
-25.328994025
  0
LINE
  5
41E
100
AcDbEntity
  8
RACCORDO
100
AcDbLine
 62
253
  6
CONTINUOUS
 10
-130.4905222781
 20
-24.647474224
 11
-131.3924552867
 21
-24.6717317598
  0
LINE
  5
41F
100
AcDbEntity
  8
RACCORDO
100
AcDbLine
 62
253
  6
CONTINUOUS
 10
-131.3806209555
 20
-25.3574672097
 11
-132.2892488872
 21
-25.3766602338
  0
LINE
  5
420
100
AcDbEntity
  8
RACCORDO
100
AcDbLine
 62
253
  6
CONTINUOUS
 10
-131.3811397101
 20
-25.328994025
 11
-132.2900839638
 21
-25.3481759362
  0
LINE
  5
421
100
AcDbEntity
  8
RACCORDO
100
AcDbLine
 62
253
  6
CONTINUOUS
 10
-131.3924552867
 20
-24.6717317598
 11
-132.3078316889
 21
-24.6906211568
  0
LWPOLYLINE
  5
422
100
AcDbEntity
  8
RACCORDO
100
AcDbPolyline
 62
253
  6
CONTINUOUS
 90
3
 70
0
 10
-132.2892488872
 20
-25.3766602338
 10
-133.2077123732
 20
-25.3903437737
 10
-133.6695987202
 20
-25.3951032889
  0
LWPOLYLINE
  5
423
100
AcDbEntity
  8
RACCORDO
100
AcDbPolyline
 62
253
  6
CONTINUOUS
 90
3
 70
0
 10
-132.2900839638
 20
-25.3481759362
 10
-133.208813325
 20
-25.3618500518
 10
-133.6708166724
 20
-25.366605861
  0
LWPOLYLINE
  5
424
100
AcDbEntity
  8
RACCORDO
100
AcDbPolyline
 62
253
  6
CONTINUOUS
 90
3
 70
0
 10
-132.3078316889
 20
-24.6906211568
 10
-133.2332179796
 20
-24.7040710429
 10
-133.6986126818
 20
-24.708740126
  0
LINE
  5
425
100
AcDbEntity
  8
0
100
AcDbLine
 62
253
  6
CONTINUOUS
 10
-138.5181391573
 20
-26.5966563866
 11
-138.4179549144
 21
-26.5966563866
  0
LINE
  5
426
100
AcDbEntity
  8
0
100
AcDbLine
 62
7
  6
CONTINUOUS
 10
-138.4242301321
 20
-26.5016209939
 11
-138.5244103295
 21
-26.5016209939
  0
LINE
  5
427
100
AcDbEntity
  8
0
100
AcDbLine
 62
253
  6
CONTINUOUS
 10
-138.510894655
 20
-24.940845158
 11
-137.9576517902
 21
-24.940845158
  0
LINE
  5
428
100
AcDbEntity
  8
RACCORDO
100
AcDbLine
 62
253
  6
CONTINUOUS
 10
-137.9576517902
 20
-24.940845158
 11
-136.5754887112
 21
-24.9408451581
  0
LINE
  5
429
100
AcDbEntity
  8
RACCORDO
100
AcDbLine
 62
253
  6
CONTINUOUS
 10
-136.309000184
 20
-24.8160024137
 11
-134.3211001293
 21
-24.8329814784
  0
LINE
  5
42A
100
AcDbEntity
  8
RACCORDO
100
AcDbLine
 62
253
  6
CONTINUOUS
 10
-134.2922311904
 20
-25.5256193725
 11
-136.2807347326
 21
-25.5074811041
  0
LINE
  5
42B
100
AcDbEntity
  8
RACCORDO
100
AcDbLine
 62
253
  6
CONTINUOUS
 10
-135.7573674801
 20
42.9023806098
 11
-135.7432734709
 21
42.9242565392
  0
LINE
  5
42C
100
AcDbEntity
  8
RACCORDO
100
AcDbLine
 62
253
  6
CONTINUOUS
 10
-138.0792592345
 20
-22.1381446882
 11
-138.0791697347
 21
-22.1381661015
  0
LWPOLYLINE
  5
42D
100
AcDbEntity
  8
RACCORDO
100
AcDbPolyline
 62
253
  6
CONTINUOUS
 90
16
 70
0
 10
-136.5810165666
 20
-24.8004314289
 10
-136.5769073354
 20
-24.8029349696
 10
-136.5703115984
 20
-24.8052936769
 10
-136.5612851291
 20
-24.8074876057
 10
-136.5499042547
 20
-24.8094982041
 10
-136.5362652115
 20
-24.8113084707
 10
-136.5204833307
 20
-24.8129030978
 10
-136.5026920632
 20
-24.8142686015
 10
-136.4830418511
 20
-24.815393435
 10
-136.4616988559
 20
-24.8162680868
 10
-136.4388435529
 20
-24.8168851609
 10
-136.4146692056
 20
-24.8172394394
 10
-136.3893802313
 20
-24.8173279264
 10
-136.3631904725
 20
-24.8171498738
 10
-136.3363213886
 20
-24.8167067871
 10
-136.3090001834
 20
-24.816002413
  0
LWPOLYLINE
  5
42E
100
AcDbEntity
  8
RACCORDO
100
AcDbPolyline
 62
253
  6
CONTINUOUS
 90
16
 70
0
 10
-136.5754887112
 20
-24.940845158
 10
-136.5713794032
 20
-24.9433648657
 10
-136.5647836335
 20
-24.945738892
 10
-136.5557571752
 20
-24.9479471625
 10
-136.5443763551
 20
-24.9499710043
 10
-136.530737408
 20
-24.9517933039
 10
-136.5149556635
 20
-24.9533986523
 10
-136.4971645701
 20
-24.9547734747
 10
-136.4775145673
 20
-24.9559061459
 10
-136.4561718135
 20
-24.9567870881
 10
-136.4333167804
 20
-24.9574088521
 10
-136.4091427278
 20
-24.9577661804
 10
-136.3838540687
 20
-24.9578560514
 10
-136.3576646411
 20
-24.9576777053
 10
-136.3307958999
 20
-24.95723265
 10
-136.3034750443
 20
-24.956524649
  0
LWPOLYLINE
  5
42F
100
AcDbEntity
  8
RACCORDO
100
AcDbPolyline
 62
253
  6
CONTINUOUS
 90
16
 70
0
 10
-136.5526949008
 20
-25.4922079679
 10
-136.5485798322
 20
-25.4947720983
 10
-136.5419798402
 20
-25.4971804334
 10
-136.5329507103
 20
-25.499412617
 10
-136.5215687599
 20
-25.5014497818
 10
-136.5079301934
 20
-25.5032747092
 10
-136.4921502887
 20
-25.504871974
 10
-136.4743624234
 20
-25.5062280758
 10
-136.4547169467
 20
-25.5073315521
 10
-136.4333799094
 20
-25.5081730761
 10
-136.4105316595
 20
-25.5087455348
 10
-136.3863653188
 20
-25.5090440897
 10
-136.3610851498
 20
-25.5090662172
 10
-136.3349048295
 20
-25.5088117304
 10
-136.3080456433
 20
-25.5082827802
 10
-136.2807346148
 20
-25.5074838375
  0
LWPOLYLINE
  5
430
100
AcDbEntity
  8
RACCORDO
100
AcDbPolyline
 62
253
  6
CONTINUOUS
 90
16
 70
0
 10
-136.3375775324
 20
28.616236959
 10
-136.3333449455
 20
28.6204557026
 10
-136.3266519742
 20
28.6244358555
 10
-136.3175547502
 20
28.6281440374
 10
-136.3061295687
 20
28.6315491492
 10
-136.2924722488
 20
28.6346226333
 10
-136.2766973294
 20
28.6373387133
 10
-136.2589371095
 20
28.6396746104
 10
-136.2393405376
 20
28.6416107342
 10
-136.2180719634
 20
28.643130847
 10
-136.1953097589
 20
28.6442222001
 10
-136.1712448228
 20
28.6448756406
 10
-136.1460789792
 20
28.6450856884
 10
-136.1200232852
 20
28.6448505816
 10
-136.0932962608
 20
28.6441722921
 10
-136.0661220561
 20
28.6430565084
  0
LWPOLYLINE
  5
431
100
AcDbEntity
  8
RACCORDO
100
AcDbPolyline
 62
253
  6
CONTINUOUS
 90
16
 70
0
 10
-136.5526948997
 20
24.6394629416
 10
-136.5485798313
 20
24.642027072
 10
-136.5419798394
 20
24.6444354071
 10
-136.5329507096
 20
24.6466675906
 10
-136.5215687594
 20
24.6487047555
 10
-136.507930193
 20
24.6505296828
 10
-136.4921502884
 20
24.6521269477
 10
-136.4743624232
 20
24.6534830494
 10
-136.4547169466
 20
24.6545865257
 10
-136.4333799092
 20
24.6554280497
 10
-136.4105316594
 20
24.6560005085
 10
-136.3863653188
 20
24.6562990634
 10
-136.3610851497
 20
24.656321191
 10
-136.3349048294
 20
24.6560667042
 10
-136.3080456432
 20
24.6555377541
 10
-136.2807346146
 20
24.6547388114
  0
LWPOLYLINE
  5
432
100
AcDbEntity
  8
RACCORDO
100
AcDbPolyline
 62
253
  6
CONTINUOUS
 90
16
 70
0
 10
-136.5754887112
 20
24.0881001318
 10
-136.5713794032
 20
24.0906198395
 10
-136.5647836335
 20
24.0929938659
 10
-136.5557571752
 20
24.0952021363
 10
-136.5443763551
 20
24.0972259781
 10
-136.530737408
 20
24.0990482777
 10
-136.5149556635
 20
24.1006536261
 10
-136.4971645701
 20
24.1020284486
 10
-136.4775145673
 20
24.1031611197
 10
-136.4561718135
 20
24.1040420619
 10
-136.4333167804
 20
24.1046638259
 10
-136.4091427278
 20
24.1050211542
 10
-136.3838540687
 20
24.1051110252
 10
-136.3576646411
 20
24.1049326791
 10
-136.3307958999
 20
24.1044876238
 10
-136.3034750443
 20
24.1037796228
  0
LWPOLYLINE
  5
433
100
AcDbEntity
  8
RACCORDO
100
AcDbPolyline
 62
253
  6
CONTINUOUS
 90
16
 70
0
 10
-136.5810165718
 20
23.9476864029
 10
-136.576907341
 20
23.9501899438
 10
-136.5703116043
 20
23.9525486511
 10
-136.5612851351
 20
23.95474258
 10
-136.5499042608
 20
23.9567531784
 10
-136.5362652175
 20
23.958563445
 10
-136.5204833365
 20
23.9601580722
 10
-136.5026920687
 20
23.9615235759
 10
-136.4830418562
 20
23.9626484095
 10
-136.4616988604
 20
23.9635230613
 10
-136.4388435569
 20
23.9641401354
 10
-136.414669209
 20
23.9644944139
 10
-136.389380234
 20
23.9645829009
 10
-136.3631904745
 20
23.9644048483
 10
-136.3363213899
 20
23.9639617616
 10
-136.309000184
 20
23.9632573875
  0
LWPOLYLINE
  5
434
100
AcDbEntity
  8
RACCORDO
100
AcDbPolyline
 62
253
  6
CONTINUOUS
 90
16
 70
0
 10
-136.3375775359
 20
-29.4689819854
 10
-136.3333449475
 20
-29.4732007254
 10
-136.3266519751
 20
-29.4771808748
 10
-136.3175547501
 20
-29.4808890535
 10
-136.3061295679
 20
-29.4842941623
 10
-136.2924722473
 20
-29.4873676438
 10
-136.2766973276
 20
-29.4900837217
 10
-136.2589371074
 20
-29.4924196173
 10
-136.2393405355
 20
-29.4943557402
 10
-136.2180719614
 20
-29.4958758528
 10
-136.1953097572
 20
-29.4969672065
 10
-136.1712448214
 20
-29.4976206486
 10
-136.1460789783
 20
-29.4978306987
 10
-136.1200232848
 20
-29.4975955953
 10
-136.0932962609
 20
-29.4969173101
 10
-136.0661220568
 20
-29.4958015317
  0
LWPOLYLINE
  5
435
100
AcDbEntity
  8
RACCORDO
100
AcDbPolyline
 62
253
  6
CONTINUOUS
 90
16
 70
0
 10
-135.739507592
 20
42.6735278982
 10
-135.7337109106
 20
42.6989018198
 10
-135.7257351777
 20
42.7236793353
 10
-135.7156404818
 20
42.7476737728
 10
-135.7035028757
 20
42.7707043599
 10
-135.6894138032
 20
42.7925975858
 10
-135.6734794103
 20
42.8131885085
 10
-135.6558197458
 20
42.8323219974
 10
-135.6365678561
 20
42.8498539022
 10
-135.6158687837
 20
42.8656521388
 10
-135.593878474
 20
42.8795976844
 10
-135.5707626002
 20
42.8915854743
 10
-135.5466953158
 20
42.9015251933
 10
-135.521857942
 20
42.9093419563
 10
-135.4964376017
 20
42.9149768723
 10
-135.47062581
 20
42.9183874884
  0
LWPOLYLINE
  5
436
100
AcDbEntity
  8
RACCORDO
100
AcDbPolyline
 62
253
  6
CONTINUOUS
 90
5
 70
0
 10
-135.7937523537
 20
42.8067894678
 10
-135.7879452458
 20
42.8321508419
 10
-135.7799604272
 20
42.8569142021
 10
-135.7698580138
 20
42.8808931105
 10
-135.7577140646
 20
42.903907035
  0
LINE
  5
437
100
AcDbEntity
  8
RACCORDO
100
AcDbLine
 62
253
  6
CONTINUOUS
 10
-138.0790227886
 20
21.2908539394
 11
-138.0789266986
 21
21.2910271979
  0
LWPOLYLINE
  5
438
100
AcDbEntity
  8
RACCORDO
100
AcDbPolyline
 62
7
  6
CONTINUOUS
 90
16
 70
0
 10
-136.0930441392
 20
-45.0044994977
 10
-136.0877585237
 20
-45.0271206594
 10
-136.0798047917
 20
-45.0518206204
 10
-136.0697463476
 20
-45.0757408589
 10
-136.0576584443
 20
-45.0987024113
 10
-136.0436315188
 20
-45.1205334864
 10
-136.0277705157
 20
-45.1410707502
 10
-136.0101941014
 20
-45.160160549
 10
-135.9910337763
 20
-45.1776600588
 10
-135.970432891
 20
-45.1934383535
 10
-135.9485455742
 20
-45.2073773843
 10
-135.9255355794
 20
-45.2193728634
 10
-135.9015750598
 20
-45.2293350435
 10
-135.8768432799
 20
-45.2371893901
 10
-135.851525275
 20
-45.2428771387
 10
-135.824635734
 20
-45.2464608375
  0
LWPOLYLINE
  5
439
100
AcDbEntity
  8
RACCORDO
100
AcDbPolyline
 62
253
  6
CONTINUOUS
 90
16
 70
0
 10
-135.7937523536
 20
-43.659534494
 10
-135.7879452452
 20
-43.6848958676
 10
-135.7799604261
 20
-43.7096592272
 10
-135.7698580123
 20
-43.733638135
 10
-135.7577140628
 20
-43.7566520589
 10
-135.7436200067
 20
-43.7785277322
 10
-135.7276819551
 20
-43.7991004575
 10
-135.7100199022
 20
-43.8182153474
 10
-135.6907668216
 20
-43.8357284899
 10
-135.6700676657
 20
-43.8515080324
 10
-135.6480782739
 20
-43.8654351741
 10
-135.6249641997
 20
-43.8774050607
 10
-135.6008994637
 20
-43.8873275733
 10
-135.5760652443
 20
-43.8951280077
 10
-135.5506485129
 20
-43.9007476359
 10
-135.5248406266
 20
-43.9041441491
  0
LWPOLYLINE
  5
43A
100
AcDbEntity
  8
RACCORDO
100
AcDbPolyline
 62
253
  6
CONTINUOUS
 90
16
 70
0
 10
-135.6108120885
 20
-43.2430019254
 10
-135.6050156791
 20
-43.2683227961
 10
-135.5970411121
 20
-43.2930522277
 10
-135.5869484594
 20
-43.3170039358
 10
-135.5748137477
 20
-43.3399974947
 10
-135.5607283867
 20
-43.361859696
 10
-135.5447984801
 20
-43.382425854
 10
-135.5271440262
 20
-43.4015410458
 10
-135.5078980144
 20
-43.4190612786
 10
-135.4872054228
 20
-43.4348545743
 10
-135.4652221268
 20
-43.4488019634
 10
-135.4421137244
 20
-43.4607983817
 10
-135.4180542888
 20
-43.4707534613
 10
-135.3932250575
 20
-43.4785922117
 10
-135.3678130666
 20
-43.4842555842
 10
-135.3420097421
 20
-43.4877009174
  0
LWPOLYLINE
  5
43B
100
AcDbEntity
  8
RACCORDO
100
AcDbPolyline
 62
253
  6
CONTINUOUS
 90
16
 70
0
 10
-135.739507592
 20
-43.5262729244
 10
-135.7337109106
 20
-43.551646846
 10
-135.7257351777
 20
-43.5764243615
 10
-135.7156404818
 20
-43.600418799
 10
-135.7035028756
 20
-43.6234493861
 10
-135.6894138031
 20
-43.645342612
 10
-135.6734794103
 20
-43.6659335346
 10
-135.6558197457
 20
-43.6850670236
 10
-135.6365678561
 20
-43.7025989284
 10
-135.6158687837
 20
-43.718397165
 10
-135.5938784739
 20
-43.7323427106
 10
-135.5707626002
 20
-43.7443305005
 10
-135.5466953158
 20
-43.7542702195
 10
-135.5218579419
 20
-43.7620869825
 10
-135.4964376017
 20
-43.7677218985
 10
-135.47062581
 20
-43.7711325145
  0
LWPOLYLINE
  5
43C
100
AcDbEntity
  8
RACCORDO
100
AcDbPolyline
 62
253
  6
CONTINUOUS
 90
16
 70
0
 10
-135.6108120909
 20
42.3902568996
 10
-135.6050156903
 20
42.4155777792
 10
-135.5970411311
 20
42.4403072203
 10
-135.5869484846
 20
42.4642589383
 10
-135.574813778
 20
42.4872525072
 10
-135.5607284208
 20
42.5091147188
 10
-135.5447985166
 20
42.5296808869
 10
-135.527144064
 20
42.5487960887
 10
-135.5078980521
 20
42.566316331
 10
-135.4872054594
 20
42.5821096357
 10
-135.4652221613
 20
42.5960570333
 10
-135.4421137557
 20
42.6080534593
 10
-135.4180543162
 20
42.6180085457
 10
-135.3932250802
 20
42.625847302
 10
-135.367813084
 20
42.6315106794
 10
-135.3420097537
 20
42.6349560164
  0
LWPOLYLINE
  5
43D
100
AcDbEntity
  8
RACCORDO
100
AcDbPolyline
 62
253
  6
CONTINUOUS
 90
6
 70
0
 10
-131.410894646
 20
-3.7585525869
 10
-131.4116595081
 20
-3.7587624682
 10
-131.4139482479
 20
-3.7589707443
 10
-131.4177433598
 20
-3.759175822
 10
-131.4230158165
 20
-3.7593761328
 10
-131.4297252911
 20
-3.7595701446
  0
LINE
  5
43E
100
AcDbEntity
  8
RACCORDO
100
AcDbLine
 62
253
  6
CONTINUOUS
 10
-131.4297252911
 20
-3.7595701446
 11
-131.4472394235
 21
-3.759933395
  0
LINE
  5
43F
100
AcDbEntity
  8
RACCORDO
100
AcDbLine
 62
253
  6
CONTINUOUS
 10
-131.4472394235
 20
-3.759933395
 11
-131.4697509456
 21
-3.7602544809
  0
LINE
  5
440
100
AcDbEntity
  8
RACCORDO
100
AcDbLine
 62
253
  6
CONTINUOUS
 10
-131.4697509456
 20
-3.7602544809
 11
-131.5113479642
 21
-3.7606360302
  0
LINE
  5
441
100
AcDbEntity
  8
RACCORDO
100
AcDbLine
 62
253
  6
CONTINUOUS
 10
-131.5113479642
 20
-3.7606360302
 11
-131.5597626421
 21
-3.76087489
  0
LINE
  5
442
100
AcDbEntity
  8
RACCORDO
100
AcDbLine
 62
253
  6
CONTINUOUS
 10
-129.418327279
 20
-4.4470092355
 11
-129.4220378471
 21
-4.4469237355
  0
LINE
  5
443
100
AcDbEntity
  8
RACCORDO
100
AcDbLine
 62
253
  6
CONTINUOUS
 10
-129.4220378471
 20
-4.4469237355
 11
-129.4266615966
 21
-4.4467868167
  0
LINE
  5
444
100
AcDbEntity
  8
RACCORDO
100
AcDbLine
 62
253
  6
CONTINUOUS
 10
-129.4266615966
 20
-4.4467868167
 11
-129.4356038294
 21
-4.4464710575
  0
LINE
  5
445
100
AcDbEntity
  8
RACCORDO
100
AcDbLine
 62
253
  6
CONTINUOUS
 10
-129.4356038294
 20
-4.4464710575
 11
-129.4523068103
 21
-4.4457865588
  0
LINE
  5
446
100
AcDbEntity
  8
RACCORDO
100
AcDbLine
 62
253
  6
CONTINUOUS
 10
-129.4523068103
 20
-4.4457865588
 11
-129.4835482287
 21
-4.4443425683
  0
LINE
  5
447
100
AcDbEntity
  8
RACCORDO
100
AcDbLine
 62
253
  6
CONTINUOUS
 10
-129.4835482287
 20
-4.4443425683
 11
-129.5492386348
 21
-4.4409937479
  0
LINE
  5
448
100
AcDbEntity
  8
RACCORDO
100
AcDbLine
 62
253
  6
CONTINUOUS
 10
-129.5492386348
 20
-4.4409937479
 11
-129.5961839825
 21
-4.4384534505
  0
LWPOLYLINE
  5
449
100
AcDbEntity
  8
0
100
AcDbPolyline
 62
7
  6
CONTINUOUS
 90
3
 70
0
 10
-138.5244081723
 20
-26.5016569271
 10
-138.5243304064
 20
-26.502197617
 10
-138.524128379
 20
-26.5045874419
  0
LWPOLYLINE
  5
44A
100
AcDbEntity
  8
0
100
AcDbPolyline
 62
7
  6
CONTINUOUS
 90
3
 70
0
 10
-138.4239489657
 20
-26.5045756853
 10
-138.4241507665
 20
-26.5021917547
 10
-138.4242279906
 20
-26.5016566393
  0
LINE
  5
44B
100
AcDbEntity
  8
0
100
AcDbLine
 62
7
  6
CONTINUOUS
 10
-138.2246829459
 20
-29.3341738675
 11
-138.2769207537
 21
-28.664057157
  0
LINE
  5
44C
100
AcDbEntity
  8
0
100
AcDbLine
 62
7
  6
CONTINUOUS
 10
-138.3771728181
 20
-28.6644698376
 11
-138.3250028754
 21
-29.3341738675
  0
LINE
  5
44D
100
AcDbEntity
  8
0
100
AcDbLine
 62
7
  6
CONTINUOUS
 10
-138.4240306207
 20
-28.02729695
 11
-138.3771728181
 21
-28.6644698376
  0
LINE
  5
44E
100
AcDbEntity
  8
0
100
AcDbLine
 62
7
  6
CONTINUOUS
 10
-138.2769207537
 20
-28.664057157
 11
-138.3249511492
 21
-28.0107531411
  0
LINE
  5
44F
100
AcDbEntity
  8
0
100
AcDbLine
 62
7
  6
CONTINUOUS
 10
-138.4231966681
 20
-26.5151786547
 11
-138.4239489657
 21
-26.5045756853
  0
LINE
  5
450
100
AcDbEntity
  8
0
100
AcDbLine
 62
7
  6
CONTINUOUS
 10
-138.524128379
 20
-26.5045874419
 11
-138.5233763195
 21
-26.5151951465
  0
LINE
  5
451
100
AcDbEntity
  8
0
100
AcDbLine
 62
7
  6
CONTINUOUS
 10
-138.3249511492
 20
-28.0107531411
 11
-138.3806460584
 21
-27.1842954354
  0
LINE
  5
452
100
AcDbEntity
  8
0
100
AcDbLine
 62
7
  6
CONTINUOUS
 10
-138.4823873454
 20
-27.1607048536
 11
-138.4240306207
 21
-28.02729695
  0
LINE
  5
453
100
AcDbEntity
  8
0
100
AcDbLine
 62
7
  6
CONTINUOUS
 10
-138.4171554333
 20
-26.6093689454
 11
-138.4231966681
 21
-26.5151786547
  0
LINE
  5
454
100
AcDbEntity
  8
0
100
AcDbLine
 62
7
  6
CONTINUOUS
 10
-138.5233763195
 20
-26.5151951465
 11
-138.5174089429
 21
-26.6082736638
  0
LINE
  5
455
100
AcDbEntity
  8
0
100
AcDbLine
 62
7
  6
CONTINUOUS
 10
-138.5174089429
 20
-26.6082736638
 11
-138.4823873454
 21
-27.1607048536
  0
LINE
  5
456
100
AcDbEntity
  8
0
100
AcDbLine
 62
7
  6
CONTINUOUS
 10
-138.3806460584
 20
-27.1842954354
 11
-138.4171554333
 21
-26.6093689454
  0
LINE
  5
457
100
AcDbEntity
  8
SUPERFICI
100
AcDbLine
 62
7
  6
CONTINUOUS
 10
-138.4260295853
 20
-26.4962402964
 11
-138.4257015783
 21
-26.5017017987
  0
LWPOLYLINE
  5
458
100
AcDbEntity
  8
RACCORDO
100
AcDbPolyline
 62
253
  6
CONTINUOUS
 90
10
 70
0
 10
-137.9576517902
 20
-24.940845158
 10
-137.8395843079
 20
-27.0325645183
 10
-137.6908177723
 20
-29.1223244862
 10
-137.5113842622
 20
-31.209674444
 10
-137.3013224689
 20
-33.2941642937
 10
-137.0606776885
 20
-35.375344554
 10
-136.7895018116
 20
-37.4527664574
 10
-136.4878533125
 20
-39.5259820464
 10
-136.1557972357
 20
-41.5945442711
 10
-135.7934051832
 20
-43.6580070846
  0
LINE
  5
459
100
AcDbEntity
  8
SUPERFICI
100
AcDbLine
 62
7
  6
CONTINUOUS
 10
-138.5403990273
 20
-24.3322213683
 11
-138.5390128795
 21
-24.3611624669
  0
LINE
  5
45A
100
AcDbEntity
  8
RACCORDO
100
AcDbLine
 62
253
  6
CONTINUOUS
 10
-138.036622925
 20
-23.2745673334
 11
-137.9576517902
 21
-24.940845158
  0
LINE
  5
45B
100
AcDbEntity
  8
RACCORDO
100
AcDbLine
 62
7
  6
CONTINUOUS
 10
-138.1757083704
 20
-19.7903948205
 11
-138.0656156368
 21
-22.4639321365
  0
LINE
  5
45C
100
AcDbEntity
  8
RACCORDO
100
AcDbLine
 62
253
  6
CONTINUOUS
 10
-138.1757083704
 20
-19.7903948205
 11
-138.1896472502
 21
-19.4247771832
  0
LINE
  5
45D
100
AcDbEntity
  8
RACCORDO
100
AcDbLine
 62
253
  6
CONTINUOUS
 10
-138.0656156368
 20
-22.4639321365
 11
-138.0660699119
 21
-22.4505066617
  0
LINE
  5
45E
100
AcDbEntity
  8
RACCORDO
100
AcDbLine
 62
7
  6
CONTINUOUS
 10
-138.0656156368
 20
-22.4639321365
 11
-138.0483332437
 21
-22.9168887038
  0
LINE
  5
45F
100
AcDbEntity
  8
RACCORDO
100
AcDbLine
 62
7
  6
CONTINUOUS
 10
-138.0483332437
 20
-22.9168887038
 11
-138.0397095905
 21
-23.1724868008
  0
LWPOLYLINE
  5
460
100
AcDbEntity
  8
RACCORDO
100
AcDbPolyline
 62
253
  6
CONTINUOUS
 90
5
 70
0
 10
-138.2830238605
 20
-16.7834831293
 10
-138.360312982
 20
-14.2193279384
 10
-138.4226798288
 20
-11.7336330793
 10
-138.4713196173
 20
-9.3252716669
 10
-138.5073987618
 20
-6.990668172
  0
LINE
  5
461
100
AcDbEntity
  8
RACCORDO
100
AcDbLine
 62
7
  6
CONTINUOUS
 10
-138.0397095905
 20
-23.1724868008
 11
-138.0352853597
 21
-23.3220384333
  0
LINE
  5
462
100
AcDbEntity
  8
RACCORDO
100
AcDbLine
 62
7
  6
CONTINUOUS
 10
-138.0357327842
 20
-23.3058272479
 11
-138.0328237657
 21
-23.4222476247
  0
LINE
  5
463
100
AcDbEntity
  8
RACCORDO
100
AcDbLine
 62
253
  6
CONTINUOUS
 10
-138.0311705254
 20
-23.491300874
 11
-138.0319225005
 21
-23.468201043
  0
LINE
  5
464
100
AcDbEntity
  8
RACCORDO
100
AcDbLine
 62
7
  6
CONTINUOUS
 10
-138.0328237657
 20
-23.4222476247
 11
-138.0319225005
 21
-23.468201043
  0
LWPOLYLINE
  5
465
100
AcDbEntity
  8
RACCORDO
100
AcDbPolyline
 62
7
  6
CONTINUOUS
 90
9
 70
0
 10
-138.5505495654
 20
-0.4263725131
 10
-138.5450006934
 20
-2.7827843975
 10
-138.5276525278
 20
-5.2130765472
 10
-138.4985001301
 20
-7.6432527677
 10
-138.4575442201
 20
-10.0732507455
 10
-138.4047858237
 20
-12.503017632
 10
-138.3402259311
 20
-14.9325035592
 10
-138.2638660069
 20
-17.3616517053
 10
-138.1757083704
 20
-19.7903948205
  0
LINE
  5
466
100
AcDbEntity
  8
RACCORDO
100
AcDbLine
 62
253
  6
CONTINUOUS
 10
-138.5459669273
 20
1.6938762155
 11
-138.5450291135
 21
1.9239965166
  0
LINE
  5
467
100
AcDbEntity
  8
RACCORDO
100
AcDbLine
 62
253
  6
CONTINUOUS
 10
-138.531878258
 20
3.8856933671
 11
-138.5277043382
 21
4.3549126358
  0
LWPOLYLINE
  5
468
100
AcDbEntity
  8
RACCORDO
100
AcDbPolyline
 62
253
  6
CONTINUOUS
 90
6
 70
0
 10
-138.5072529021
 20
6.1490306965
 10
-138.4711601416
 20
8.4814862366
 10
-138.4225791837
 20
10.8853388389
 10
-138.3602864449
 20
13.367545175
 10
-138.283036286
 20
15.9303585675
 10
-138.2639438951
 20
16.5066065743
  0
LINE
  5
469
100
AcDbEntity
  8
RACCORDO
100
AcDbLine
 62
253
  6
CONTINUOUS
 10
-138.031957147
 20
22.6134143465
 11
-138.0311707416
 21
22.6385429444
  0
LINE
  5
46A
100
AcDbEntity
  8
RACCORDO
100
AcDbLine
 62
7
  6
CONTINUOUS
 10
-138.031957147
 20
22.6134143465
 11
-138.0329885556
 21
22.5620193349
  0
LINE
  5
46B
100
AcDbEntity
  8
RACCORDO
100
AcDbLine
 62
253
  6
CONTINUOUS
 10
-138.0329885556
 20
22.5620193349
 11
-138.0323379074
 21
22.5791027701
  0
LINE
  5
46C
100
AcDbEntity
  8
RACCORDO
100
AcDbLine
 62
7
  6
CONTINUOUS
 10
-138.0329885556
 20
22.5620193349
 11
-138.0352186863
 21
22.4717473951
  0
LINE
  5
46D
100
AcDbEntity
  8
RACCORDO
100
AcDbLine
 62
253
  6
CONTINUOUS
 10
-138.0351210537
 20
22.475487094
 11
-138.0339969522
 21
22.5104422916
  0
LINE
  5
46E
100
AcDbEntity
  8
RACCORDO
100
AcDbLine
 62
7
  6
CONTINUOUS
 10
-138.0351210537
 20
22.475487094
 11
-138.03985762
 21
22.3150465241
  0
LINE
  5
46F
100
AcDbEntity
  8
RACCORDO
100
AcDbLine
 62
253
  6
CONTINUOUS
 10
-138.03985762
 20
22.3150465241
 11
-138.0393537168
 21
22.3266082805
  0
LINE
  5
470
100
AcDbEntity
  8
RACCORDO
100
AcDbLine
 62
7
  6
CONTINUOUS
 10
-138.03985762
 20
22.3150465241
 11
-138.0510301712
 21
21.9891907016
  0
LWPOLYLINE
  5
471
100
AcDbEntity
  8
RACCORDO
100
AcDbPolyline
 62
7
  6
CONTINUOUS
 90
9
 70
0
 10
-138.1757733008
 20
18.935973211
 10
-138.2639438951
 20
16.5066065743
 10
-138.3403107252
 20
14.0768346815
 10
-138.4048714622
 20
11.6467250813
 10
-138.4576246412
 20
9.2163345779
 10
-138.4985692744
 20
6.7857128482
 10
-138.5277043382
 20
4.3549126358
 10
-138.5450291135
 20
1.9239965166
 10
-138.5505495654
 20
-0.4263725131
  0
LINE
  5
472
100
AcDbEntity
  8
RACCORDO
100
AcDbLine
 62
253
  6
CONTINUOUS
 10
-138.1896739311
 20
18.5713303537
 11
-138.1757733008
 21
18.935973211
  0
LINE
  5
473
100
AcDbEntity
  8
RACCORDO
100
AcDbLine
 62
7
  6
CONTINUOUS
 10
-138.0510301712
 20
21.9891907016
 11
-138.0690443442
 21
21.527215824
  0
LINE
  5
474
100
AcDbEntity
  8
RACCORDO
100
AcDbLine
 62
7
  6
CONTINUOUS
 10
-138.0690443442
 20
21.527215824
 11
-138.1757733008
 21
18.935973211
  0
LINE
  5
475
100
AcDbEntity
  8
RACCORDO
100
AcDbLine
 62
253
  6
CONTINUOUS
 10
-138.0366239971
 20
22.4218175303
 11
-137.9975687421
 21
23.2608586186
  0
LINE
  5
476
100
AcDbEntity
  8
COPY_PUBLISH
100
AcDbLine
 62
7
  6
CONTINUOUS
 10
-138.5390128795
 20
23.5084174414
 11
-138.5403990273
 21
23.4794763427
  0
LINE
  5
477
100
AcDbEntity
  8
RACCORDO
100
AcDbLine
 62
253
  6
CONTINUOUS
 10
-137.9975687421
 20
23.2608586186
 11
-137.9576517902
 21
24.0881001318
  0
LWPOLYLINE
  5
478
100
AcDbEntity
  8
RACCORDO
100
AcDbPolyline
 62
253
  6
CONTINUOUS
 90
10
 70
0
 10
-137.9576517902
 20
24.0881001318
 10
-137.8395843079
 20
26.1798194921
 10
-137.6908177723
 20
28.26957946
 10
-137.5113842622
 20
30.3569294178
 10
-137.3013224689
 20
32.4414192676
 10
-137.0606776885
 20
34.5225995279
 10
-136.7895018116
 20
36.6000214312
 10
-136.4878533125
 20
38.6732370203
 10
-136.1557972358
 20
40.741799245
 10
-135.7934051832
 20
42.8052620585
  0
LWPOLYLINE
  5
479
100
AcDbEntity
  8
RACCORDO
100
AcDbPolyline
 62
253
  6
CONTINUOUS
 90
19
 70
0
 10
-131.2456243217
 20
3.1027692878
 10
-131.2411305986
 20
3.1042998876
 10
-131.2369220304
 20
3.1072512828
 10
-131.2330292142
 20
3.1116020181
 10
-131.2294804515
 20
3.1173204644
 10
-131.2263015421
 20
3.1243650502
 10
-131.2235155965
 20
3.1326845647
 10
-131.2211428693
 20
3.1422185292
 10
-131.2192006117
 20
3.1528976314
 10
-131.2177029455
 20
3.1646442308
 10
-131.2166607591
 20
3.1773729302
 10
-131.21608163
 20
3.1909911906
 10
-131.2159697688
 20
3.2053999985
 10
-131.2163259882
 20
3.2204945968
 10
-131.2171476981
 20
3.2361652484
 10
-131.2184289242
 20
3.2522980258
 10
-131.2201603516
 20
3.2687756421
 10
-131.2223293922
 20
3.285478303
 10
-131.2249202768
 20
3.3022845785
  0
LINE
  5
47A
100
AcDbEntity
  8
RACCORDO
100
AcDbLine
 62
253
  6
CONTINUOUS
 10
-138.5505495654
 20
-0.4263725131
 11
-138.550460242
 21
-0.4263725131
  0
LINE
  5
47B
100
AcDbEntity
  8
RACCORDO
100
AcDbLine
 62
253
  6
CONTINUOUS
 10
-131.410894655
 20
-0.4263725131
 11
-134.7986214967
 21
-0.4263725131
  0
LINE
  5
47C
100
AcDbEntity
  8
RACCORDO
100
AcDbLine
 62
253
  6
CONTINUOUS
 10
-129.5961859096
 20
-4.4384531608
 11
-131.2248945918
 21
-4.1550368847
  0
LINE
  5
47D
100
AcDbEntity
  8
RACCORDO
100
AcDbLine
 62
7
  6
CONTINUOUS
 10
-129.5761650195
 20
-4.2498848501
 11
-131.2456242906
 21
-3.9555141375
  0
LWPOLYLINE
  5
47E
100
AcDbEntity
  8
0
100
AcDbPolyline
 62
7
  6
CONTINUOUS
 90
7
 70
0
 10
-133.4576280352
 20
-29.2690401343
 10
-133.4571623625
 20
-29.2754894693
 10
-133.4567692027
 20
-29.2821541391
 10
-133.4563050773
 20
-29.2890248077
 10
-133.4557928197
 20
-29.2961028969
 10
-133.4553170351
 20
-29.3033938227
 10
-133.4548751639
 20
-29.3108973575
  0
LINE
  5
47F
100
AcDbEntity
  8
RACCORDO
100
AcDbLine
 62
253
  6
CONTINUOUS
 10
-135.8864393224
 20
-36.1513075291
 11
-136.1231465974
 21
-32.690093716
  0
LINE
  5
480
100
AcDbEntity
  8
DRAFT
100
AcDbLine
 62
7
  6
CONTINUOUS
 10
-134.0054962689
 20
-30.5120081551
 11
-133.5343144427
 21
-37.2614311882
  0
LINE
  5
481
100
AcDbEntity
  8
DRAFT
100
AcDbLine
 62
7
  6
CONTINUOUS
 10
-133.5343144427
 20
-37.2614311882
 11
-133.4317505953
 21
-38.7599659345
  0
LINE
  5
482
100
AcDbEntity
  8
RACCORDO
100
AcDbLine
 62
253
  6
CONTINUOUS
 10
-136.1231465974
 20
-32.690093716
 11
-136.2711287771
 21
-30.482950547
  0
LINE
  5
483
100
AcDbEntity
  8
RACCORDO
100
AcDbLine
 62
253
  6
CONTINUOUS
 10
-133.9318508719
 20
-29.020509541
 11
-133.3204390467
 21
-37.8990773654
  0
LINE
  5
484
100
AcDbEntity
  8
0
100
AcDbLine
 62
7
  6
CONTINUOUS
 10
-133.4548751635
 20
-29.3108973575
 11
-132.9199765926
 21
-37.2077728898
  0
LINE
  5
485
100
AcDbEntity
  8
DRAFT
100
AcDbLine
 62
7
  6
CONTINUOUS
 10
-134.1003897637
 20
-29.0825302676
 11
-134.0054962689
 21
-30.5120081551
  0
LINE
  5
486
100
AcDbEntity
  8
RACCORDO
100
AcDbLine
 62
253
  6
CONTINUOUS
 10
-133.3204390467
 20
-37.8990773654
 11
-133.2506042437
 21
-38.9513334283
  0
LINE
  5
487
100
AcDbEntity
  8
RACCORDO
100
AcDbLine
 62
253
  6
CONTINUOUS
 10
-135.8961845892
 20
-32.1059988262
 11
-136.0352558685
 21
-29.9771052843
  0
LINE
  5
488
100
AcDbEntity
  8
RACCORDO
100
AcDbLine
 62
253
  6
CONTINUOUS
 10
-136.2711287771
 20
-30.482950547
 11
-136.3656952664
 21
-29.0285113208
  0
LINE
  5
489
100
AcDbEntity
  8
RACCORDO
100
AcDbLine
 62
253
  6
CONTINUOUS
 10
-135.7206471113
 20
-38.6511701961
 11
-135.8864393224
 21
-36.1513075291
  0
LINE
  5
48A
100
AcDbEntity
  8
RACCORDO
100
AcDbLine
 62
253
  6
CONTINUOUS
 10
-133.1841893442
 20
-38.0022577824
 11
-133.1173716107
 21
-39.0232954605
  0
LINE
  5
48B
100
AcDbEntity
  8
RACCORDO
100
AcDbLine
 62
253
  6
CONTINUOUS
 10
-136.0352558685
 20
-29.9771052843
 11
-136.094171112
 21
-29.054082386
  0
LINE
  5
48C
100
AcDbEntity
  8
DRAFT
100
AcDbLine
 62
7
  6
CONTINUOUS
 10
-133.4317505953
 20
-38.7599659345
 11
-133.3662289491
 21
-39.7705921219
  0
LINE
  5
48D
100
AcDbEntity
  8
0
100
AcDbLine
 62
7
  6
CONTINUOUS
 10
-132.9199765926
 20
-37.2077728898
 11
-132.8507000764
 21
-38.2769267177
  0
LINE
  5
48E
100
AcDbEntity
  8
RACCORDO
100
AcDbLine
 62
253
  6
CONTINUOUS
 10
-133.8298902599
 20
-28.557282707
 11
-133.1841893442
 21
-38.0022577824
  0
LINE
  5
48F
100
AcDbEntity
  8
RACCORDO
100
AcDbLine
 62
253
  6
CONTINUOUS
 10
-135.4615032322
 20
-38.6543120182
 11
-135.8961845892
 21
-32.1059988262
  0
LINE
  5
490
100
AcDbEntity
  8
0
100
AcDbLine
 62
7
  6
CONTINUOUS
 10
-133.5122761803
 20
-28.4106340768
 11
-133.4571723468
 21
-29.2690260275
  0
LINE
  5
491
100
AcDbEntity
  8
RACCORDO
100
AcDbLine
 62
253
  6
CONTINUOUS
 10
-133.2506042437
 20
-38.9513334283
 11
-133.1994958982
 21
-39.7674435681
  0
LINE
  5
492
100
AcDbEntity
  8
RACCORDO
100
AcDbLine
 62
253
  6
CONTINUOUS
 10
-133.9863686246
 20
-28.1390529277
 11
-133.9318508719
 21
-29.020509541
  0
LINE
  5
493
100
AcDbEntity
  8
DRAFT
100
AcDbLine
 62
7
  6
CONTINUOUS
 10
-134.1548573204
 20
-28.195263806
 11
-134.1003897637
 21
-29.0825302676
  0
LINE
  5
494
100
AcDbEntity
  8
DRAFT
100
AcDbLine
 62
7
  6
CONTINUOUS
 10
-133.3662289491
 20
-39.7705921219
 11
-133.3286156824
 21
-40.3902380947
  0
LWPOLYLINE
  5
495
100
AcDbEntity
  8
0
100
AcDbPolyline
 62
7
  6
CONTINUOUS
 90
3
 70
0
 10
-132.8507000764
 20
-38.2769267177
 10
-132.8068082739
 20
-38.9954228959
 10
-132.7967403974
 20
-39.1680201345
  0
LINE
  5
496
100
AcDbEntity
  8
RACCORDO
100
AcDbLine
 62
253
  6
CONTINUOUS
 10
-133.1173716107
 20
-39.0232954605
 11
-133.0667955828
 21
-39.8470503552
  0
LINE
  5
497
100
AcDbEntity
  8
RACCORDO
100
AcDbLine
 62
253
  6
CONTINUOUS
 10
-135.6597292761
 20
-39.6465778495
 11
-135.7206471113
 21
-38.6511701961
  0
LINE
  5
498
100
AcDbEntity
  8
RACCORDO
100
AcDbLine
 62
253
  6
CONTINUOUS
 10
-136.3656952664
 20
-29.0285113208
 11
-136.4187763249
 21
-28.14643673
  0
LINE
  5
499
100
AcDbEntity
  8
RACCORDO
100
AcDbLine
 62
253
  6
CONTINUOUS
 10
-136.094171112
 20
-29.054082386
 11
-136.1471299486
 21
-28.1694179782
  0
LINE
  5
49A
100
AcDbEntity
  8
RACCORDO
100
AcDbLine
 62
253
  6
CONTINUOUS
 10
-135.397582737
 20
-39.7077881907
 11
-135.4615032322
 21
-38.6543120182
  0
LINE
  5
49B
100
AcDbEntity
  8
RACCORDO
100
AcDbLine
 62
253
  6
CONTINUOUS
 10
-133.8818673022
 20
-27.6769580396
 11
-133.8298902599
 21
-28.557282707
  0
LWPOLYLINE
  5
49C
100
AcDbEntity
  8
RACCORDO
100
AcDbPolyline
 62
253
  6
CONTINUOUS
 90
3
 70
0
 10
-138.0311636405
 20
22.6929325683
 10
-138.0336337557
 20
22.7368295133
 10
-138.0330390199
 20
22.7848252229
  0
LINE
  5
49D
100
AcDbEntity
  8
RACCORDO
100
AcDbLine
 62
253
  6
CONTINUOUS
 10
-133.1994958982
 20
-39.7674435681
 11
-133.1642508723
 21
-40.3716784444
  0
LINE
  5
49E
100
AcDbEntity
  8
DRAFT
100
AcDbLine
 62
7
  6
CONTINUOUS
 10
-134.2049986515
 20
-27.3065339407
 11
-134.1548573204
 21
-28.195263806
  0
LINE
  5
49F
100
AcDbEntity
  8
RACCORDO
100
AcDbLine
 62
253
  6
CONTINUOUS
 10
-134.0361996606
 20
-27.2557755066
 11
-133.9863686246
 21
-28.1390529277
  0
LINE
  5
4A0
100
AcDbEntity
  8
DRAFT
100
AcDbLine
 62
7
  6
CONTINUOUS
 10
-133.3286156824
 20
-40.3902380947
 11
-133.2964950685
 21
-40.9620226547
  0
LINE
  5
4A1
100
AcDbEntity
  8
RACCORDO
100
AcDbLine
 62
253
  6
CONTINUOUS
 10
-133.0667955828
 20
-39.8470503552
 11
-133.0368639707
 21
-40.3735347858
  0
LWPOLYLINE
  5
4A2
100
AcDbEntity
  8
0
100
AcDbPolyline
 62
7
  6
CONTINUOUS
 90
3
 70
0
 10
-133.5864763406
 20
-27.1201776605
 10
-133.5628703142
 20
-27.5507139383
 10
-133.5122761803
 20
-28.4106340768
  0
LINE
  5
4A3
100
AcDbEntity
  8
RACCORDO
100
AcDbLine
 62
253
  6
CONTINUOUS
 10
-135.6242740062
 20
-40.2756912691
 11
-135.6597292761
 21
-39.6465778495
  0
LINE
  5
4A4
100
AcDbEntity
  8
RACCORDO
100
AcDbLine
 62
253
  6
CONTINUOUS
 10
-136.4187763249
 20
-28.14643673
 11
-136.4676513706
 21
-27.2628212841
  0
LINE
  5
4A5
100
AcDbEntity
  8
RACCORDO
100
AcDbLine
 62
253
  6
CONTINUOUS
 10
-135.3598945307
 20
-40.3804410779
 11
-135.397582737
 21
-39.7077881907
  0
LINE
  5
4A6
100
AcDbEntity
  8
RACCORDO
100
AcDbLine
 62
253
  6
CONTINUOUS
 10
-136.1471299486
 20
-28.1694179782
 11
-136.1958893694
 21
-27.2832503553
  0
LINE
  5
4A7
100
AcDbEntity
  8
RACCORDO
100
AcDbLine
 62
253
  6
CONTINUOUS
 10
-133.9291847064
 20
-26.7949556149
 11
-133.8818673022
 21
-27.6769580396
  0
LINE
  5
4A8
100
AcDbEntity
  8
RACCORDO
100
AcDbLine
 62
253
  6
CONTINUOUS
 10
-133.1642508723
 20
-40.3716784444
 11
-133.1409704339
 21
-40.8053384211
  0
LINE
  5
4A9
100
AcDbEntity
  8
RACCORDO
100
AcDbLine
 62
253
  6
CONTINUOUS
 10
-133.0368639707
 20
-40.3735347858
 11
-133.0149176378
 21
-40.7928510044
  0
LINE
  5
4AA
100
AcDbEntity
  8
DRAFT
100
AcDbLine
 62
7
  6
CONTINUOUS
 10
-134.2507919876
 20
-26.4166203809
 11
-134.2049986515
 21
-27.3065339407
  0
LINE
  5
4AB
100
AcDbEntity
  8
RACCORDO
100
AcDbLine
 62
253
  6
CONTINUOUS
 10
-134.0813294166
 20
-26.371095746
 11
-134.0361996606
 21
-27.2557755066
  0
LINE
  5
4AC
100
AcDbEntity
  8
RACCORDO
100
AcDbLine
 62
253
  6
CONTINUOUS
 10
-136.4676513706
 20
-27.2628212841
 11
-136.5122931677
 21
-26.3780388404
  0
LINE
  5
4AD
100
AcDbEntity
  8
RACCORDO
100
AcDbLine
 62
253
  6
CONTINUOUS
 10
-135.5995417039
 20
-40.7567682358
 11
-135.6242740062
 21
-40.2756912691
  0
LINE
  5
4AE
100
AcDbEntity
  8
RACCORDO
100
AcDbLine
 62
253
  6
CONTINUOUS
 10
-135.3339679936
 20
-40.8862592324
 11
-135.3598945307
 21
-40.3804410779
  0
LINE
  5
4AF
100
AcDbEntity
  8
RACCORDO
100
AcDbLine
 62
253
  6
CONTINUOUS
 10
-136.1958893694
 20
-27.2832503553
 11
-136.2404288688
 21
-26.3958660987
  0
LWPOLYLINE
  5
4B0
100
AcDbEntity
  8
DRAFT
100
AcDbPolyline
 62
7
  6
CONTINUOUS
 90
17
 70
0
 10
-133.2964950685
 20
-40.9620226547
 10
-133.2703013739
 20
-41.4838722415
 10
-133.2595844547
 20
-41.725007061
 10
-133.2504906571
 20
-41.9530669607
 10
-133.2430453328
 20
-42.1676520539
 10
-133.2372767693
 20
-42.3686822006
 10
-133.2332244041
 20
-42.556257789
 10
-133.2309327354
 20
-42.7302494257
 10
-133.2304260043
 20
-42.8908093742
 10
-133.2317209569
 20
-43.0378024227
 10
-133.234854763
 20
-43.1706675039
 10
-133.239860944
 20
-43.289371242
 10
-133.2467404574
 20
-43.3939608642
 10
-133.2554946062
 20
-43.4839956485
 10
-133.2661378659
 20
-43.5593319688
 10
-133.2786862149
 20
-43.6201230732
 10
-133.2931466862
 20
-43.6663725134
  0
LINE
  5
4B1
100
AcDbEntity
  8
RACCORDO
100
AcDbLine
 62
253
  6
CONTINUOUS
 10
-133.9718212902
 20
-25.9117693492
 11
-133.9291847064
 21
-26.7949556149
  0
LINE
  5
4B2
100
AcDbEntity
  8
RACCORDO
100
AcDbLine
 62
253
  6
CONTINUOUS
 10
-133.1409704339
 20
-40.8053384211
 11
-133.1233319697
 21
-41.1659252715
  0
LINE
  5
4B3
100
AcDbEntity
  8
RACCORDO
100
AcDbLine
 62
253
  6
CONTINUOUS
 10
-135.3168762604
 20
-41.2552635563
 11
-135.3339679936
 21
-40.8862592324
  0
LINE
  5
4B4
100
AcDbEntity
  8
RACCORDO
100
AcDbLine
 62
253
  6
CONTINUOUS
 10
-135.582959129
 20
-41.1153525886
 11
-135.5995417039
 21
-40.7567682358
  0
LINE
  5
4B5
100
AcDbEntity
  8
DRAFT
100
AcDbLine
 62
7
  6
CONTINUOUS
 10
-134.2955996005
 20
-25.4486693209
 11
-134.2507919876
 21
-26.4166203809
  0
LINE
  5
4B6
100
AcDbEntity
  8
RACCORDO
100
AcDbLine
 62
253
  6
CONTINUOUS
 10
-136.5122931677
 20
-26.3780388404
 11
-136.5579357643
 21
-25.3696926293
  0
LINE
  5
4B7
100
AcDbEntity
  8
RACCORDO
100
AcDbLine
 62
253
  6
CONTINUOUS
 10
-134.131723882
 20
-25.2648698528
 11
-134.0813294166
 21
-26.371095746
  0
LINE
  5
4B8
100
AcDbEntity
  8
RACCORDO
100
AcDbLine
 62
253
  6
CONTINUOUS
 10
-136.2404288688
 20
-26.3958660987
 11
-136.2859632651
 21
-25.3850575631
  0
LINE
  5
4B9
100
AcDbEntity
  8
RACCORDO
100
AcDbLine
 62
253
  6
CONTINUOUS
 10
-134.0074862371
 20
-25.1021991045
 11
-133.9718212902
 21
-25.9117693492
  0
LINE
  5
4BA
100
AcDbEntity
  8
RACCORDO
100
AcDbLine
 62
7
  6
CONTINUOUS
 10
-138.0312175958
 20
22.7050137297
 11
-138.0312339595
 21
22.7054195517
  0
LINE
  5
4BB
100
AcDbEntity
  8
RACCORDO
100
AcDbLine
 62
253
  6
CONTINUOUS
 10
-135.3052922103
 20
-41.5343626618
 11
-135.3168762604
 21
-41.2552635563
  0
LINE
  5
4BC
100
AcDbEntity
  8
DRAFT
100
AcDbLine
 62
7
  6
CONTINUOUS
 10
-134.3211001293
 20
-24.8329814784
 11
-134.2955996005
 21
-25.4486693209
  0
LINE
  5
4BD
100
AcDbEntity
  8
RACCORDO
100
AcDbLine
 62
253
  6
CONTINUOUS
 10
-136.5579357643
 20
-25.3696926293
 11
-136.5810165718
 21
-24.8004314291
  0
LINE
  5
4BE
100
AcDbEntity
  8
RACCORDO
100
AcDbLine
 62
253
  6
CONTINUOUS
 10
-136.2859632651
 20
-25.3850575631
 11
-136.309000184
 21
-24.8160024137
  0
LINE
  5
4BF
100
AcDbEntity
  8
RACCORDO
100
AcDbLine
 62
253
  6
CONTINUOUS
 10
-135.5718180099
 20
-41.3860080489
 11
-135.582959129
 21
-41.1153525886
  0
LINE
  5
4C0
100
AcDbEntity
  8
RACCORDO
100
AcDbLine
 62
253
  6
CONTINUOUS
 10
-134.1819725165
 20
-23.9924139634
 11
-134.131723882
 21
-25.2648698528
  0
LWPOLYLINE
  5
4C1
100
AcDbEntity
  8
RACCORDO
100
AcDbPolyline
 62
253
  6
CONTINUOUS
 90
18
 70
0
 10
-136.5810165718
 20
-24.8004314291
 10
-136.6810193876
 20
-22.1010415564
 10
-136.7691970134
 20
-19.3990971716
 10
-136.8455834571
 20
-16.6946760396
 10
-136.9102106667
 20
-13.9876406079
 10
-136.9630865326
 20
-11.2782849584
 10
-137.0042064528
 20
-8.5673350909
 10
-137.0335813643
 20
-5.8546609663
 10
-137.051209032
 20
-3.1405514942
 10
-137.0570831534
 20
-0.426361872
 10
-137.05120894
 20
2.2878281629
 10
-137.0335811722
 20
5.0019383871
 10
-137.004206157
 20
7.7146128735
 10
-136.9630861346
 20
10.4255630383
 10
-136.910210172
 20
13.134918595
 10
-136.8455829132
 20
15.8419518388
 10
-136.7691965171
 20
18.5463681205
 10
-136.6810190611
 20
21.2483055628
  0
LWPOLYLINE
  5
4C2
100
AcDbEntity
  8
RACCORDO
100
AcDbPolyline
 62
253
  6
CONTINUOUS
 90
18
 70
0
 10
-136.309000184
 20
-24.8160024137
 10
-136.4089347704
 20
-22.1152895783
 10
-136.4970748121
 20
-19.4115417347
 10
-136.5734372053
 20
-16.7050565713
 10
-136.6380358451
 20
-13.996216155
 10
-136.6908811804
 20
-11.2853178195
 10
-136.7319821916
 20
-8.5725319994
 10
-136.761343656
 20
-5.8580269254
 10
-136.7789612427
 20
-3.1423778302
 10
-136.7848329788
 20
-0.4263660295
 10
-136.7789611847
 20
2.2896462131
 10
-136.7613435329
 20
5.0052961127
 10
-136.731982002
 20
7.7198015715
 10
-136.6908809287
 20
10.432587342
 10
-136.6380355407
 20
13.1434852092
 10
-136.5734368819
 20
15.8523240058
 10
-136.4970745256
 20
18.5588061573
 10
-136.4089345867
 20
21.2625498458
  0
LINE
  5
4C3
100
AcDbEntity
  8
RACCORDO
100
AcDbLine
 62
253
  6
CONTINUOUS
 10
-134.2467227578
 20
-22.2222968874
 11
-134.1819725165
 21
-23.9924139634
  0
LINE
  5
4C4
100
AcDbEntity
  8
RACCORDO
100
AcDbLine
 62
253
  6
CONTINUOUS
 10
-135.295777718
 20
-41.7954492582
 11
-135.3052922103
 21
-41.5343626618
  0
LINE
  5
4C5
100
AcDbEntity
  8
RACCORDO
100
AcDbLine
 62
253
  6
CONTINUOUS
 10
-135.562777702
 20
-41.6383004193
 11
-135.5718180099
 21
-41.3860080489
  0
LWPOLYLINE
  5
4C6
100
AcDbEntity
  8
RACCORDO
100
AcDbPolyline
 62
7
  6
CONTINUOUS
 90
3
 70
0
 10
-138.0312787887
 20
22.7066401691
 10
-138.0312959121
 20
22.7071916354
 10
-138.031291311
 20
22.7070028722
  0
LINE
  5
4C7
100
AcDbEntity
  8
RACCORDO
100
AcDbLine
 62
253
  6
CONTINUOUS
 10
-135.2900029733
 20
-41.9798047528
 11
-135.295777718
 21
-41.7954492582
  0
LINE
  5
4C8
100
AcDbEntity
  8
RACCORDO
100
AcDbLine
 62
253
  6
CONTINUOUS
 10
-135.5573201406
 20
-41.8176387195
 11
-135.562777702
 21
-41.6383004193
  0
LINE
  5
4C9
100
AcDbEntity
  8
RACCORDO
100
AcDbLine
 62
253
  6
CONTINUOUS
 10
-135.2852677682
 20
-42.1605449181
 11
-135.2900029733
 21
-41.9798047528
  0
LINE
  5
4CA
100
AcDbEntity
  8
RACCORDO
100
AcDbLine
 62
253
  6
CONTINUOUS
 10
-135.5528713653
 20
-41.996370209
 11
-135.5573201406
 21
-41.8176387195
  0
LINE
  5
4CB
100
AcDbEntity
  8
RACCORDO
100
AcDbLine
 62
253
  6
CONTINUOUS
 10
-135.2826818244
 20
-42.2830018089
 11
-135.2852677682
 21
-42.1605449181
  0
LINE
  5
4CC
100
AcDbEntity
  8
RACCORDO
100
AcDbLine
 62
253
  6
CONTINUOUS
 10
-135.5505353775
 20
-42.1189341277
 11
-135.5528713653
 21
-41.996370209
  0
LINE
  5
4CD
100
AcDbEntity
  8
RACCORDO
100
AcDbLine
 62
253
  6
CONTINUOUS
 10
-135.2806409854
 20
-42.4094312697
 11
-135.2826818244
 21
-42.2830018089
  0
LINE
  5
4CE
100
AcDbEntity
  8
RACCORDO
100
AcDbLine
 62
253
  6
CONTINUOUS
 10
-138.030671754
 20
-23.5255286678
 11
-138.031391613
 21
-23.505870091
  0
LINE
  5
4CF
100
AcDbEntity
  8
RACCORDO
100
AcDbLine
 62
7
  6
CONTINUOUS
 10
-138.0312744387
 20
22.7061748684
 11
-138.0312235123
 21
22.7025589294
  0
LINE
  5
4D0
100
AcDbEntity
  8
RACCORDO
100
AcDbLine
 62
7
  6
CONTINUOUS
 10
-138.0319225005
 20
-23.468201043
 11
-138.031391613
 21
-23.505870091
  0
LINE
  5
4D1
100
AcDbEntity
  8
RACCORDO
100
AcDbLine
 62
253
  6
CONTINUOUS
 10
-135.548804918
 20
-42.2450737956
 11
-135.5505353775
 21
-42.1189341277
  0
LINE
  5
4D2
100
AcDbEntity
  8
RACCORDO
100
AcDbLine
 62
253
  6
CONTINUOUS
 10
-135.2793297541
 20
-42.5393857056
 11
-135.2806409854
 21
-42.4094312697
  0
LINE
  5
4D3
100
AcDbEntity
  8
RACCORDO
100
AcDbLine
 62
253
  6
CONTINUOUS
 10
-138.0303975577
 20
-23.5553728838
 11
-138.0311967712
 21
-23.5281478759
  0
LINE
  5
4D4
100
AcDbEntity
  8
RACCORDO
100
AcDbLine
 62
7
  6
CONTINUOUS
 10
-138.031391613
 20
-23.505870091
 11
-138.0311967712
 21
-23.5281478759
  0
LINE
  5
4D5
100
AcDbEntity
  8
RACCORDO
100
AcDbLine
 62
7
  6
CONTINUOUS
 10
-138.0312235123
 20
22.7025589294
 11
-138.0311779442
 21
22.6966921128
  0
LWPOLYLINE
  5
4D6
100
AcDbEntity
  8
RACCORDO
100
AcDbPolyline
 62
253
  6
CONTINUOUS
 90
10
 70
0
 10
-138.0303495841
 20
22.728026263
 10
-138.0304115045
 20
22.7390448079
 10
-138.0305309357
 20
22.748934034
 10
-138.0307093558
 20
22.7576508424
 10
-138.0309467328
 20
22.7651964102
 10
-138.031243197
 20
22.7715695654
 10
-138.031600464
 20
22.7767236853
 10
-138.032019124
 20
22.7806432298
 10
-138.0324986387
 20
22.783343742
 10
-138.03303902
 20
22.7848252229
  0
LWPOLYLINE
  5
4D7
100
AcDbEntity
  8
RACCORDO
100
AcDbPolyline
 62
253
  6
CONTINUOUS
 90
16
 70
0
 10
-135.2790129453
 20
41.8291041812
 10
-135.2793306804
 20
41.8935691955
 10
-135.2799874695
 20
41.957904957
 10
-135.2810163353
 20
42.0217985164
 10
-135.2824583363
 20
42.0848782621
 10
-135.2843576684
 20
42.1468846593
 10
-135.2867580917
 20
42.2076286779
 10
-135.2897049712
 20
42.2666069086
 10
-135.293254651
 20
42.3235447747
 10
-135.2974876111
 20
42.3784418972
 10
-135.3024765893
 20
42.4307430963
 10
-135.3082944258
 20
42.4798857001
 10
-135.3150543852
 20
42.5256077804
 10
-135.3228658198
 20
42.5672693288
 10
-135.331816677
 20
42.6039849818
 10
-135.3420097595
 20
42.6349560383
  0
LINE
  5
4D8
100
AcDbEntity
  8
RACCORDO
100
AcDbLine
 62
7
  6
CONTINUOUS
 10
-138.0311967712
 20
-23.5281478759
 11
-138.031158478
 21
-23.5399235128
  0
LINE
  5
4D9
100
AcDbEntity
  8
RACCORDO
100
AcDbLine
 62
7
  6
CONTINUOUS
 10
-138.0311779442
 20
22.6966921128
 11
-138.0311580985
 21
22.6887710606
  0
LWPOLYLINE
  5
4DA
100
AcDbEntity
  8
RACCORDO
100
AcDbPolyline
 62
253
  6
CONTINUOUS
 90
17
 70
0
 10
-135.5478697547
 20
41.5338827197
 10
-135.5478986715
 20
41.5969940735
 10
-135.5482211587
 20
41.6603795524
 10
-135.5488280643
 20
41.7239127159
 10
-135.5498691283
 20
41.7866952679
 10
-135.5513161898
 20
41.8487259966
 10
-135.5531611531
 20
41.9100064385
 10
-135.5555829467
 20
41.9696428369
 10
-135.5585321683
 20
42.0276531014
 10
-135.5620161893
 20
42.0840200284
 10
-135.5662923552
 20
42.1377975866
 10
-135.5712943532
 20
42.189188209
 10
-135.5770288794
 20
42.2379904563
 10
-135.5838505978
 20
42.2826529428
 10
-135.5918481796
 20
42.32265911
 10
-135.6008501147
 20
42.3585269064
 10
-135.6108120909
 20
42.3902568996
  0
LINE
  5
4DB
100
AcDbEntity
  8
RACCORDO
100
AcDbLine
 62
7
  6
CONTINUOUS
 10
-138.031158478
 20
-23.5399235128
 11
-138.0311770667
 21
-23.5492648688
  0
LINE
  5
4DC
100
AcDbEntity
  8
RACCORDO
100
AcDbLine
 62
253
  6
CONTINUOUS
 10
-135.2792403869
 20
41.7010896606
 11
-135.2790129453
 21
41.8291041812
  0
LINE
  5
4DD
100
AcDbEntity
  8
RACCORDO
100
AcDbLine
 62
253
  6
CONTINUOUS
 10
-138.0303976573
 20
22.7026108522
 11
-138.0303495841
 21
22.728026263
  0
LINE
  5
4DE
100
AcDbEntity
  8
RACCORDO
100
AcDbLine
 62
7
  6
CONTINUOUS
 10
-138.0311580985
 20
22.6887710606
 11
-138.0312069945
 21
22.6736699824
  0
LINE
  5
4DF
100
AcDbEntity
  8
RACCORDO
100
AcDbLine
 62
253
  6
CONTINUOUS
 10
-135.5486407635
 20
41.4086229028
 11
-135.5478697547
 21
41.5338827197
  0
LINE
  5
4E0
100
AcDbEntity
  8
RACCORDO
100
AcDbLine
 62
7
  6
CONTINUOUS
 10
-138.0311770667
 20
-23.5492648688
 11
-138.0312315219
 21
-23.5560056564
  0
LINE
  5
4E1
100
AcDbEntity
  8
RACCORDO
100
AcDbLine
 62
7
  6
CONTINUOUS
 10
-138.0312069945
 20
22.6736699824
 11
-138.0313782587
 21
22.6543281004
  0
LINE
  5
4E2
100
AcDbEntity
  8
RACCORDO
100
AcDbLine
 62
253
  6
CONTINUOUS
 10
-138.0306719461
 20
22.67276758
 11
-138.0303976573
 21
22.7026108522
  0
LINE
  5
4E3
100
AcDbEntity
  8
RACCORDO
100
AcDbLine
 62
253
  6
CONTINUOUS
 10
-135.2804019842
 20
41.5752177604
 11
-135.2792403869
 21
41.7010896606
  0
LINE
  5
4E4
100
AcDbEntity
  8
RACCORDO
100
AcDbLine
 62
253
  6
CONTINUOUS
 10
-135.5502068851
 20
41.2863603545
 11
-135.5486407635
 21
41.4086229028
  0
LWPOLYLINE
  5
4E5
100
AcDbEntity
  8
RACCORDO
100
AcDbPolyline
 62
7
  6
CONTINUOUS
 90
3
 70
0
 10
-138.0313782587
 20
22.6543281004
 10
-138.0318100251
 20
22.6223452867
 10
-138.031957147
 20
22.6134143465
  0
LINE
  5
4E6
100
AcDbEntity
  8
RACCORDO
100
AcDbLine
 62
253
  6
CONTINUOUS
 10
-138.0313782587
 20
22.6543281004
 11
-138.0306719461
 21
22.67276758
  0
LINE
  5
4E7
100
AcDbEntity
  8
RACCORDO
100
AcDbLine
 62
7
  6
CONTINUOUS
 10
-138.0312315219
 20
-23.5560056564
 11
-138.0312977519
 21
-23.5599403728
  0
LINE
  5
4E8
100
AcDbEntity
  8
RACCORDO
100
AcDbLine
 62
253
  6
CONTINUOUS
 10
-135.2822730766
 20
41.4525209815
 11
-135.2804019842
 21
41.5752177604
  0
LINE
  5
4E9
100
AcDbEntity
  8
RACCORDO
100
AcDbLine
 62
253
  6
CONTINUOUS
 10
-135.5523751539
 20
41.1670593415
 11
-135.5502068851
 21
41.2863603545
  0
LINE
  5
4EA
100
AcDbEntity
  8
RACCORDO
100
AcDbLine
 62
253
  6
CONTINUOUS
 10
-135.2860832836
 20
41.2736597721
 11
-135.2822730766
 21
41.4525209815
  0
LINE
  5
4EB
100
AcDbEntity
  8
RACCORDO
100
AcDbLine
 62
253
  6
CONTINUOUS
 10
-135.5565799183
 20
40.9919645643
 11
-135.5523751539
 21
41.1670593415
  0
LINE
  5
4EC
100
AcDbEntity
  8
RACCORDO
100
AcDbLine
 62
253
  6
CONTINUOUS
 10
-135.2909195633
 20
41.0958029728
 11
-135.2860832836
 21
41.2736597721
  0
LINE
  5
4ED
100
AcDbEntity
  8
RACCORDO
100
AcDbLine
 62
253
  6
CONTINUOUS
 10
-135.561810781
 20
40.8153607894
 11
-135.5565799183
 21
40.9919645643
  0
LWPOLYLINE
  5
4EE
100
AcDbEntity
  8
DRAFT
100
AcDbPolyline
 62
7
  6
CONTINUOUS
 90
18
 70
0
 10
-134.4214299727
 20
21.2766687141
 10
-134.5098941622
 20
18.5704931161
 10
-134.5865264265
 20
15.8617884549
 10
-134.6513652258
 20
13.1501626986
 10
-134.7044083368
 20
10.4361664405
 10
-134.7456383514
 20
7.7212935281
 10
-134.7750744178
 20
5.0059117869
 10
-134.7927352358
 20
2.2898147347
 10
-134.7986215142
 20
-0.4263644417
 10
-134.7927353043
 20
-3.1425459505
 10
-134.7750745022
 20
-5.8586478502
 10
-134.7456384142
 20
-8.5740337293
 10
-134.7044083796
 20
-11.2889089455
 10
-134.6513652463
 20
-14.0029067979
 10
-134.5865264237
 20
-16.7145335883
 10
-134.5098941405
 20
-19.4232387733
 10
-134.4214299489
 20
-22.1294143354
 10
-134.3211001293
 20
-24.8329814784
  0
LINE
  5
4EF
100
AcDbEntity
  8
RACCORDO
100
AcDbLine
 62
253
  6
CONTINUOUS
 10
-135.2968495714
 20
40.9111550269
 11
-135.2909195633
 21
41.0958029728
  0
LINE
  5
4F0
100
AcDbEntity
  8
RACCORDO
100
AcDbLine
 62
253
  6
CONTINUOUS
 10
-135.5681815434
 20
40.630072488
 11
-135.561810781
 21
40.8153607894
  0
LINE
  5
4F1
100
AcDbEntity
  8
RACCORDO
100
AcDbLine
 62
253
  6
CONTINUOUS
 10
-135.3066500023
 20
40.6471498592
 11
-135.2968495714
 21
40.9111550269
  0
LINE
  5
4F2
100
AcDbEntity
  8
RACCORDO
100
AcDbLine
 62
253
  6
CONTINUOUS
 10
-135.5785713882
 20
40.3654195646
 11
-135.5681815434
 21
40.630072488
  0
LINE
  5
4F3
100
AcDbEntity
  8
DRAFT
100
AcDbLine
 62
7
  6
CONTINUOUS
 10
-134.3086713671
 20
24.2880993682
 11
-134.4214299727
 21
21.2766687141
  0
LINE
  5
4F4
100
AcDbEntity
  8
RACCORDO
100
AcDbLine
 62
253
  6
CONTINUOUS
 10
-134.1378906664
 20
24.2651204718
 11
-134.2144895778
 21
22.2682901616
  0
LINE
  5
4F5
100
AcDbEntity
  8
RACCORDO
100
AcDbLine
 62
253
  6
CONTINUOUS
 10
-136.6810190611
 20
21.2483055628
 11
-136.5630762985
 21
24.394426639
  0
LINE
  5
4F6
100
AcDbEntity
  8
RACCORDO
100
AcDbLine
 62
253
  6
CONTINUOUS
 10
-136.4089345867
 20
21.2625498458
 11
-136.2910917419
 21
24.4098820536
  0
LINE
  5
4F7
100
AcDbEntity
  8
RACCORDO
100
AcDbLine
 62
253
  6
CONTINUOUS
 10
-135.3185013287
 20
40.3656208663
 11
-135.3066500023
 21
40.6471498592
  0
LINE
  5
4F8
100
AcDbEntity
  8
RACCORDO
100
AcDbLine
 62
253
  6
CONTINUOUS
 10
-136.2910917419
 20
24.4098820536
 11
-136.2611116511
 21
25.0990423515
  0
LINE
  5
4F9
100
AcDbEntity
  8
RACCORDO
100
AcDbLine
 62
253
  6
CONTINUOUS
 10
-136.5630762985
 20
24.394426639
 11
-136.5330239213
 21
25.082511519
  0
LINE
  5
4FA
100
AcDbEntity
  8
RACCORDO
100
AcDbLine
 62
253
  6
CONTINUOUS
 10
-134.1021270597
 20
25.0755701677
 11
-134.1378906664
 21
24.2651204718
  0
LINE
  5
4FB
100
AcDbEntity
  8
DRAFT
100
AcDbLine
 62
7
  6
CONTINUOUS
 10
-134.2720557798
 20
25.1185124026
 11
-134.3086713671
 21
24.2880993682
  0
LINE
  5
4FC
100
AcDbEntity
  8
RACCORDO
100
AcDbLine
 62
253
  6
CONTINUOUS
 10
-135.5943172163
 20
40.0128333999
 11
-135.5785713882
 21
40.3654195646
  0
LINE
  5
4FD
100
AcDbEntity
  8
RACCORDO
100
AcDbLine
 62
253
  6
CONTINUOUS
 10
-133.9510876596
 20
25.5007757259
 11
-134.0013252753
 21
24.3964804312
  0
LINE
  5
4FE
100
AcDbEntity
  8
RACCORDO
100
AcDbLine
 62
253
  6
CONTINUOUS
 10
-135.3358929075
 20
39.9941329489
 11
-135.3185013287
 21
40.3656208663
  0
LINE
  5
4FF
100
AcDbEntity
  8
RACCORDO
100
AcDbLine
 62
253
  6
CONTINUOUS
 10
-136.2611116511
 20
25.0990423515
 11
-136.2186878815
 21
25.9869450432
  0
LINE
  5
500
100
AcDbEntity
  8
RACCORDO
100
AcDbLine
 62
253
  6
CONTINUOUS
 10
-136.5330239213
 20
25.082511519
 11
-136.4905027893
 21
25.9678089051
  0
LINE
  5
501
100
AcDbEntity
  8
RACCORDO
100
AcDbLine
 62
253
  6
CONTINUOUS
 10
-134.0593528902
 20
25.9608396168
 11
-134.1021270597
 21
25.0755701677
  0
LINE
  5
502
100
AcDbEntity
  8
DRAFT
100
AcDbLine
 62
7
  6
CONTINUOUS
 10
-134.2284398548
 20
26.0089654189
 11
-134.2720557798
 21
25.1185124026
  0
LINE
  5
503
100
AcDbEntity
  8
DRAFT
100
AcDbLine
 62
7
  6
CONTINUOUS
 10
-133.2649951292
 20
40.7477377943
 11
-133.2907216145
 21
40.2186113049
  0
LINE
  5
504
100
AcDbEntity
  8
RACCORDO
100
AcDbLine
 62
253
  6
CONTINUOUS
 10
-135.6131797979
 20
39.6330831679
 11
-135.5943172163
 21
40.0128333999
  0
LINE
  5
505
100
AcDbEntity
  8
RACCORDO
100
AcDbLine
 62
253
  6
CONTINUOUS
 10
-133.9061106656
 20
26.3833700711
 11
-133.9510876596
 21
25.5007757259
  0
LINE
  5
506
100
AcDbEntity
  8
RACCORDO
100
AcDbLine
 62
253
  6
CONTINUOUS
 10
-133.1287410662
 20
40.198475745
 11
-133.1484290329
 21
39.8096273413
  0
LINE
  5
507
100
AcDbEntity
  8
RACCORDO
100
AcDbLine
 62
253
  6
CONTINUOUS
 10
-135.3629757963
 20
39.4704388788
 11
-135.3358929075
 21
39.9941329489
  0
LINE
  5
508
100
AcDbEntity
  8
RACCORDO
100
AcDbLine
 62
253
  6
CONTINUOUS
 10
-136.2186878815
 20
25.9869450432
 11
-136.1720358893
 21
26.8737604737
  0
LINE
  5
509
100
AcDbEntity
  8
RACCORDO
100
AcDbLine
 62
253
  6
CONTINUOUS
 10
-136.4905027893
 20
25.9678089051
 11
-136.4437404056
 21
26.852068978
  0
LINE
  5
50A
100
AcDbEntity
  8
RACCORDO
100
AcDbLine
 62
253
  6
CONTINUOUS
 10
-133.0176546986
 20
39.8856343927
 11
-133.0405685745
 21
39.4532404308
  0
LINE
  5
50B
100
AcDbEntity
  8
RACCORDO
100
AcDbLine
 62
253
  6
CONTINUOUS
 10
-134.0118711254
 20
26.8448817477
 11
-134.0593528902
 21
25.9608396168
  0
LINE
  5
50C
100
AcDbEntity
  8
DRAFT
100
AcDbLine
 62
7
  6
CONTINUOUS
 10
-134.1804692801
 20
26.8983326747
 11
-134.2284398548
 21
26.0089654189
  0
LWPOLYLINE
  5
50D
100
AcDbEntity
  8
RACCORDO
100
AcDbPolyline
 62
253
  6
CONTINUOUS
 90
3
 70
0
 10
-138.0311646284
 20
-23.5456968177
 10
-138.0336336112
 20
-23.5895745257
 10
-138.0330388182
 20
-23.6375702397
  0
LINE
  5
50E
100
AcDbEntity
  8
RACCORDO
100
AcDbLine
 62
253
  6
CONTINUOUS
 10
-135.6441085448
 20
39.0647932415
 11
-135.6131797979
 21
39.6330831679
  0
LINE
  5
50F
100
AcDbEntity
  8
DRAFT
100
AcDbLine
 62
7
  6
CONTINUOUS
 10
-133.2907216145
 20
40.2186113049
 11
-133.3229557838
 21
39.6345793872
  0
LINE
  5
510
100
AcDbEntity
  8
RACCORDO
100
AcDbLine
 62
253
  6
CONTINUOUS
 10
-133.1484290329
 20
39.8096273413
 11
-133.1784404312
 21
39.2695586844
  0
LINE
  5
511
100
AcDbEntity
  8
RACCORDO
100
AcDbLine
 62
253
  6
CONTINUOUS
 10
-133.8564599119
 20
27.2646159366
 11
-133.9061106656
 21
26.3833700711
  0
LINE
  5
512
100
AcDbEntity
  8
RACCORDO
100
AcDbLine
 62
253
  6
CONTINUOUS
 10
-135.4037163139
 20
38.7501720961
 11
-135.3629757963
 21
39.4704388788
  0
LINE
  5
513
100
AcDbEntity
  8
RACCORDO
100
AcDbLine
 62
253
  6
CONTINUOUS
 10
-136.1720358893
 20
26.8737604737
 11
-136.1211745449
 21
27.759201285
  0
LWPOLYLINE
  5
514
100
AcDbEntity
  8
0
100
AcDbPolyline
 62
7
  6
CONTINUOUS
 90
7
 70
0
 10
-133.4548751639
 20
28.4581523313
 10
-133.4553192675
 20
28.4506136847
 10
-133.45579665
 20
28.4433017032
 10
-133.4563092213
 20
28.4362165764
 10
-133.4567719776
 20
28.4293528665
 10
-133.4571639313
 20
28.4227092754
 10
-133.4576280287
 20
28.416295108
  0
LINE
  5
515
100
AcDbEntity
  8
RACCORDO
100
AcDbLine
 62
253
  6
CONTINUOUS
 10
-136.4437404056
 20
26.852068978
 11
-136.392761633
 21
27.7349175885
  0
LINE
  5
516
100
AcDbEntity
  8
RACCORDO
100
AcDbLine
 62
253
  6
CONTINUOUS
 10
-133.0405685745
 20
39.4532404308
 11
-133.0757936769
 21
38.8432696155
  0
LINE
  5
517
100
AcDbEntity
  8
DRAFT
100
AcDbLine
 62
7
  6
CONTINUOUS
 10
-134.1281643215
 20
27.7863341744
 11
-134.1804692801
 21
26.8983326747
  0
LINE
  5
518
100
AcDbEntity
  8
0
100
AcDbLine
 62
7
  6
CONTINUOUS
 10
-133.5122761803
 20
27.5578890506
 11
-133.5628703142
 21
26.6979689121
  0
LINE
  5
519
100
AcDbEntity
  8
RACCORDO
100
AcDbLine
 62
253
  6
CONTINUOUS
 10
-133.9596944558
 20
27.7272655519
 11
-134.0118711254
 21
26.8448817477
  0
LINE
  5
51A
100
AcDbEntity
  8
RACCORDO
100
AcDbLine
 62
253
  6
CONTINUOUS
 10
-135.6907351956
 20
38.2776732301
 11
-135.6441085448
 21
39.0647932415
  0
LINE
  5
51B
100
AcDbEntity
  8
DRAFT
100
AcDbLine
 62
7
  6
CONTINUOUS
 10
-133.3229557838
 20
39.6345793872
 11
-133.3612476251
 21
38.9981903893
  0
LINE
  5
51C
100
AcDbEntity
  8
RACCORDO
100
AcDbLine
 62
253
  6
CONTINUOUS
 10
-133.1784404312
 20
39.2695586844
 11
-133.2260447094
 21
38.4844362558
  0
LINE
  5
51D
100
AcDbEntity
  8
RACCORDO
100
AcDbLine
 62
253
  6
CONTINUOUS
 10
-135.47327086
 20
37.6147882444
 11
-135.4037163139
 21
38.7501720961
  0
LINE
  5
51E
100
AcDbEntity
  8
RACCORDO
100
AcDbLine
 62
253
  6
CONTINUOUS
 10
-133.8021565809
 20
28.1440194059
 11
-133.8564599119
 21
27.2646159366
  0
LINE
  5
51F
100
AcDbEntity
  8
0
100
AcDbLine
 62
7
  6
CONTINUOUS
 10
-132.8063160834
 20
38.1510012925
 11
-132.8620981176
 21
37.2440435681
  0
LINE
  5
520
100
AcDbEntity
  8
RACCORDO
100
AcDbLine
 62
253
  6
CONTINUOUS
 10
-136.392761633
 20
27.7349175885
 11
-136.337577537
 21
28.6162369593
  0
LINE
  5
521
100
AcDbEntity
  8
RACCORDO
100
AcDbLine
 62
253
  6
CONTINUOUS
 10
-133.0757936769
 20
38.8432696155
 11
-133.1261459371
 21
38.0329690603
  0
LINE
  5
522
100
AcDbEntity
  8
RACCORDO
100
AcDbLine
 62
253
  6
CONTINUOUS
 10
-136.1211745449
 20
27.759201285
 11
-136.0510443791
 21
28.8785958918
  0
LINE
  5
523
100
AcDbEntity
  8
DRAFT
100
AcDbLine
 62
7
  6
CONTINUOUS
 10
-134.0715335799
 20
28.672874346
 11
-134.1281643215
 21
27.7863341744
  0
LINE
  5
524
100
AcDbEntity
  8
0
100
AcDbLine
 62
7
  6
CONTINUOUS
 10
-133.4571723468
 20
28.4162810013
 11
-133.5122761803
 21
27.5578890506
  0
LINE
  5
525
100
AcDbEntity
  8
RACCORDO
100
AcDbLine
 62
253
  6
CONTINUOUS
 10
-135.781363353
 20
36.8611955947
 11
-135.6907351956
 21
38.2776732301
  0
LINE
  5
526
100
AcDbEntity
  8
RACCORDO
100
AcDbLine
 62
253
  6
CONTINUOUS
 10
-136.0510443791
 20
28.8785958918
 11
-135.9189509292
 21
30.9087088368
  0
LINE
  5
527
100
AcDbEntity
  8
DRAFT
100
AcDbLine
 62
7
  6
CONTINUOUS
 10
-133.3612476251
 20
38.9981903893
 11
-133.4281904364
 21
37.9612266862
  0
LINE
  5
528
100
AcDbEntity
  8
0
100
AcDbLine
 62
7
  6
CONTINUOUS
 10
-132.8620981176
 20
37.2440435681
 11
-132.9360187429
 21
36.113519888
  0
LINE
  5
529
100
AcDbEntity
  8
RACCORDO
100
AcDbLine
 62
253
  6
CONTINUOUS
 10
-133.2260447094
 20
38.4844362558
 11
-133.2906510601
 21
37.4889683562
  0
LINE
  5
52A
100
AcDbEntity
  8
RACCORDO
100
AcDbLine
 62
253
  6
CONTINUOUS
 10
-136.337577537
 20
28.6162369593
 11
-136.2112379111
 21
30.5307124263
  0
LINE
  5
52B
100
AcDbEntity
  8
RACCORDO
100
AcDbLine
 62
253
  6
CONTINUOUS
 10
-135.9189509292
 20
30.9087088368
 11
-135.6664351768
 21
34.6824174393
  0
LINE
  5
52C
100
AcDbEntity
  8
RACCORDO
100
AcDbLine
 62
253
  6
CONTINUOUS
 10
-135.6664351768
 20
34.6824174393
 11
-135.47327086
 21
37.6147882444
  0
LINE
  5
52D
100
AcDbEntity
  8
RACCORDO
100
AcDbLine
 62
253
  6
CONTINUOUS
 10
-133.8212360448
 20
29.8339108873
 11
-133.9596944558
 21
27.7272655519
  0
LINE
  5
52E
100
AcDbEntity
  8
RACCORDO
100
AcDbLine
 62
253
  6
CONTINUOUS
 10
-133.1261459371
 20
38.0329690603
 11
-133.2006828657
 21
36.904593601
  0
LINE
  5
52F
100
AcDbEntity
  8
RACCORDO
100
AcDbLine
 62
253
  6
CONTINUOUS
 10
-136.2112379111
 20
30.5307124263
 11
-135.781363353
 21
36.8611955947
  0
LWPOLYLINE
  5
530
100
AcDbEntity
  8
0
100
AcDbPolyline
 62
7
  6
CONTINUOUS
 90
3
 70
0
 10
-132.9360187429
 20
36.113519888
 10
-133.117362243
 20
33.4591289741
 10
-133.4548751635
 20
28.4581523313
  0
LINE
  5
531
100
AcDbEntity
  8
DRAFT
100
AcDbLine
 62
7
  6
CONTINUOUS
 10
-133.4281904364
 20
37.9612266862
 11
-133.5297101691
 21
36.474689953
  0
LINE
  5
532
100
AcDbEntity
  8
RACCORDO
100
AcDbLine
 62
253
  6
CONTINUOUS
 10
-133.2906510601
 20
37.4889683562
 11
-133.3886819029
 21
36.0523915451
  0
LINE
  5
533
100
AcDbEntity
  8
RACCORDO
100
AcDbLine
 62
253
  6
CONTINUOUS
 10
-133.3509505049
 20
34.7295774372
 11
-133.8021565809
 21
28.1440194059
  0
LINE
  5
534
100
AcDbEntity
  8
RACCORDO
100
AcDbLine
 62
253
  6
CONTINUOUS
 10
-133.2006828657
 20
36.904593601
 11
-133.3509505049
 21
34.7295774372
  0
LINE
  5
535
100
AcDbEntity
  8
RACCORDO
100
AcDbLine
 62
253
  6
CONTINUOUS
 10
-133.3886819029
 20
36.0523915451
 11
-133.8212360448
 21
29.8339108873
  0
LINE
  5
536
100
AcDbEntity
  8
DRAFT
100
AcDbLine
 62
7
  6
CONTINUOUS
 10
-133.7537387906
 20
33.2966704659
 11
-134.0715335799
 21
28.672874346
  0
LINE
  5
537
100
AcDbEntity
  8
DRAFT
100
AcDbLine
 62
7
  6
CONTINUOUS
 10
-133.5297101691
 20
36.474689953
 11
-133.7537387906
 21
33.2966704659
  0
LWPOLYLINE
  5
538
100
AcDbEntity
  8
RACCORDO
100
AcDbPolyline
 62
253
  6
CONTINUOUS
 90
22
 70
0
 10
-131.2248434471
 20
3.3023062479
 10
-131.2523609621
 20
3.2964757073
 10
-131.2790780353
 20
3.2889628719
 10
-131.3049932519
 20
3.2797676764
 10
-131.3302033509
 20
3.2688138368
 10
-131.3546089706
 20
3.2561775187
 10
-131.3779142172
 20
3.2420873966
 10
-131.400094981
 20
3.2265314107
 10
-131.4211722039
 20
3.2095216665
 10
-131.4409170558
 20
3.1913231966
 10
-131.4593108483
 20
3.1719227335
 10
-131.4763691763
 20
3.1513337152
 10
-131.4919144237
 20
3.1298613248
 10
-131.505920847
 20
3.1075066694
 10
-131.5184115482
 20
3.0842689049
 10
-131.5292822114
 20
3.0604503522
 10
-131.5385155243
 20
3.0360645578
 10
-131.5461269258
 20
3.0110982814
 10
-131.5520614208
 20
2.9858136976
 10
-131.5563003626
 20
2.9602983059
 10
-131.5588614406
 20
2.9344649163
 10
-131.5597443999
 20
2.9083136749
  0
LINE
  5
539
100
AcDbEntity
  8
RACCORDO
100
AcDbLine
 62
7
  6
CONTINUOUS
 10
-131.2456242906
 20
3.1027691113
 11
-129.5761650195
 21
3.397139824
  0
LINE
  5
53A
100
AcDbEntity
  8
RACCORDO
100
AcDbLine
 62
253
  6
CONTINUOUS
 10
-131.2248434471
 20
3.3023062479
 11
-129.596183699
 21
3.5857083831
  0
LINE
  5
53B
100
AcDbEntity
  8
RACCORDO
100
AcDbLine
 62
253
  6
CONTINUOUS
 10
-129.5961816451
 20
3.5857082472
 11
-129.5068215844
 21
3.5904469603
  0
LINE
  5
53C
100
AcDbEntity
  8
RACCORDO
100
AcDbLine
 62
253
  6
CONTINUOUS
 10
-129.5068215844
 20
3.5904469603
 11
-129.4608647753
 21
3.5926622078
  0
LINE
  5
53D
100
AcDbEntity
  8
RACCORDO
100
AcDbLine
 62
253
  6
CONTINUOUS
 10
-129.4608647753
 20
3.5926622078
 11
-129.4425971915
 21
3.5934507735
  0
LINE
  5
53E
100
AcDbEntity
  8
RACCORDO
100
AcDbLine
 62
253
  6
CONTINUOUS
 10
-129.4425971915
 20
3.5934507735
 11
-129.4319404882
 21
3.5938598644
  0
LWPOLYLINE
  5
53F
100
AcDbEntity
  8
RACCORDO
100
AcDbPolyline
 62
253
  6
CONTINUOUS
 90
8
 70
0
 10
-129.4319404882
 20
3.5938598644
 10
-129.4230665945
 20
3.5941498553
 10
-129.4194436798
 20
3.5942398063
 10
-129.4164115043
 20
3.5942941567
 10
-129.4140209946
 20
3.5943076354
 10
-129.4122956802
 20
3.5942787793
 10
-129.4112477267
 20
3.5942098827
 10
-129.4108946551
 20
3.5941013892
  0
LINE
  5
540
100
AcDbEntity
  8
RACCORDO
100
AcDbLine
 62
253
  6
CONTINUOUS
 10
-131.5597626121
 20
2.9081298652
 11
-131.4965724074
 21
2.9077785723
  0
LINE
  5
541
100
AcDbEntity
  8
RACCORDO
100
AcDbLine
 62
253
  6
CONTINUOUS
 10
-131.4965724074
 20
2.9077785723
 11
-131.4579101051
 21
2.9073548296
  0
LWPOLYLINE
  5
542
100
AcDbEntity
  8
RACCORDO
100
AcDbPolyline
 62
253
  6
CONTINUOUS
 90
8
 70
0
 10
-131.4579101051
 20
2.9073548296
 10
-131.4378204604
 20
2.9070113476
 10
-131.4297252907
 20
2.9068251187
 10
-131.4230158202
 20
2.9066311068
 10
-131.4177433672
 20
2.9064307959
 10
-131.4139482581
 20
2.9062257182
 10
-131.4116595191
 20
2.9060174422
 10
-131.410894655
 20
2.9058075609
  0
LINE
  5
543
100
AcDbEntity
  8
0
100
AcDbLine
 62
7
  6
CONTINUOUS
 10
-132.7967403974
 20
-39.1680201345
 11
-132.7687611791
 21
-39.6699470232
  0
LINE
  5
544
100
AcDbEntity
  8
0
100
AcDbLine
 62
7
  6
CONTINUOUS
 10
-133.6302977982
 20
-26.2582288372
 11
-133.5864763406
 21
-27.1201776605
  0
LINE
  5
545
100
AcDbEntity
  8
0
100
AcDbLine
 62
7
  6
CONTINUOUS
 10
-132.7687611791
 20
-39.6699470232
 11
-132.7455074525
 21
-40.1269974425
  0
LINE
  5
546
100
AcDbEntity
  8
RACCORDO
100
AcDbLine
 62
253
  6
CONTINUOUS
 10
-133.0149176378
 20
-40.7928510044
 11
-132.9984760932
 21
-41.1396811065
  0
LINE
  5
547
100
AcDbEntity
  8
0
100
AcDbLine
 62
7
  6
CONTINUOUS
 10
-132.7455074525
 20
-40.1269974425
 11
-132.728302196
 21
-40.5100773624
  0
LINE
  5
548
100
AcDbEntity
  8
RACCORDO
100
AcDbLine
 62
253
  6
CONTINUOUS
 10
-133.1233319697
 20
-41.1659252715
 11
-133.1117369616
 21
-41.4295409683
  0
LINE
  5
549
100
AcDbEntity
  8
RACCORDO
100
AcDbLine
 62
253
  6
CONTINUOUS
 10
-132.9984760932
 20
-41.1396811065
 11
-132.9873987551
 21
-41.4014958512
  0
LINE
  5
54A
100
AcDbEntity
  8
0
100
AcDbLine
 62
7
  6
CONTINUOUS
 10
-133.6986126818
 20
-24.708740126
 11
-133.6302977982
 21
-26.2582288372
  0
LINE
  5
54B
100
AcDbEntity
  8
RACCORDO
100
AcDbLine
 62
253
  6
CONTINUOUS
 10
-134.0515488178
 20
-23.9771961236
 11
-134.0074862371
 21
-25.1021991045
  0
LINE
  5
54C
100
AcDbEntity
  8
0
100
AcDbLine
 62
7
  6
CONTINUOUS
 10
-132.728302196
 20
-40.5100773624
 11
-132.719963478
 21
-40.7214683858
  0
LINE
  5
54D
100
AcDbEntity
  8
RACCORDO
100
AcDbLine
 62
253
  6
CONTINUOUS
 10
-133.1117369616
 20
-41.4295409683
 11
-133.1039383024
 21
-41.6266552228
  0
LINE
  5
54E
100
AcDbEntity
  8
RACCORDO
100
AcDbLine
 62
253
  6
CONTINUOUS
 10
-132.9873987551
 20
-41.4014958512
 11
-132.9800095706
 21
-41.5979489372
  0
LINE
  5
54F
100
AcDbEntity
  8
RACCORDO
100
AcDbLine
 62
253
  6
CONTINUOUS
 10
-134.1162912431
 20
-22.2081741393
 11
-134.0515488178
 21
-23.9771961236
  0
LINE
  5
550
100
AcDbEntity
  8
RACCORDO
100
AcDbLine
 62
253
  6
CONTINUOUS
 10
-133.1039383024
 20
-41.6266552228
 11
-133.0970572323
 21
-41.8239210556
  0
LINE
  5
551
100
AcDbEntity
  8
0
100
AcDbLine
 62
7
  6
CONTINUOUS
 10
-132.719963478
 20
-40.7214683858
 11
-132.7130432175
 21
-40.9227640026
  0
LWPOLYLINE
  5
552
100
AcDbEntity
  8
RACCORDO
100
AcDbPolyline
 62
253
  6
CONTINUOUS
 90
22
 70
0
 10
-131.5597460397
 20
-3.7610426024
 10
-131.5588835891
 20
-3.7870902276
 10
-131.5563356918
 20
-3.8128601341
 10
-131.5521025975
 20
-3.8383521752
 10
-131.5461629812
 20
-3.8636730221
 10
-131.5385391179
 20
-3.8887156903
 10
-131.5292968982
 20
-3.9131595572
 10
-131.5184250952
 20
-3.9369929249
 10
-131.5059368113
 20
-3.9602271875
 10
-131.4919346263
 20
-3.9825763968
 10
-131.4763970137
 20
-4.0040447699
 10
-131.4593481369
 20
-4.0246278273
 10
-131.4409591466
 20
-4.044026638
 10
-131.421210537
 20
-4.0622318692
 10
-131.4001249187
 20
-4.079252681
 10
-131.3779364071
 20
-4.0948179737
 10
-131.3546239141
 20
-4.1089138679
 10
-131.3302116957
 20
-4.1215541978
 10
-131.3050013564
 20
-4.1325095455
 10
-131.279094152
 20
-4.1417034984
 10
-131.252391429
 20
-4.1492125894
 10
-131.2248945918
 20
-4.1550368847
  0
LINE
  5
553
100
AcDbEntity
  8
RACCORDO
100
AcDbLine
 62
253
  6
CONTINUOUS
 10
-132.9800095706
 20
-41.5979489372
 11
-132.9736681556
 21
-41.7923700652
  0
LINE
  5
554
100
AcDbEntity
  8
RACCORDO
100
AcDbLine
 62
253
  6
CONTINUOUS
 10
-133.0970572323
 20
-41.8239210556
 11
-133.09152587
 21
-42.0125687652
  0
LINE
  5
555
100
AcDbEntity
  8
0
100
AcDbLine
 62
7
  6
CONTINUOUS
 10
-132.7130432175
 20
-40.9227640026
 11
-132.7074760212
 21
-41.1182671058
  0
LINE
  5
556
100
AcDbEntity
  8
RACCORDO
100
AcDbLine
 62
253
  6
CONTINUOUS
 10
-132.9674848181
 20
41.8920649139
 11
-132.965817012
 21
41.8341889074
  0
LINE
  5
557
100
AcDbEntity
  8
RACCORDO
100
AcDbLine
 62
253
  6
CONTINUOUS
 10
-133.0883387846
 20
41.9931081327
 11
-133.0866924515
 21
41.9349143928
  0
LINE
  5
558
100
AcDbEntity
  8
RACCORDO
100
AcDbLine
 62
253
  6
CONTINUOUS
 10
-132.9736681556
 20
-41.7923700652
 11
-132.9687795302
 21
-41.9742889266
  0
LINE
  5
559
100
AcDbEntity
  8
RACCORDO
100
AcDbLine
 62
253
  6
CONTINUOUS
 10
-133.09152587
 20
-42.0125687652
 11
-133.0887275048
 21
-42.1276213147
  0
LINE
  5
55A
100
AcDbEntity
  8
RACCORDO
100
AcDbLine
 62
253
  6
CONTINUOUS
 10
-132.9687795302
 20
-41.9742889266
 11
-132.9664143398
 21
-42.0835983811
  0
LINE
  5
55B
100
AcDbEntity
  8
RACCORDO
100
AcDbLine
 62
253
  6
CONTINUOUS
 10
-132.965817012
 20
41.8341889074
 11
-132.9645763905
 21
41.7763009449
  0
LWPOLYLINE
  5
55C
100
AcDbEntity
  8
0
100
AcDbPolyline
 62
7
  6
CONTINUOUS
 90
20
 70
0
 10
-132.7074760212
 20
-41.1182671058
 10
-132.7034606434
 20
-41.3047318963
 10
-132.7020867347
 20
-41.3928488776
 10
-132.7011487916
 20
-41.4771988262
 10
-132.7006621772
 20
-41.557778552
 10
-132.7006306719
 20
-41.6334700958
 10
-132.7010143551
 20
-41.7031712958
 10
-132.7017710313
 20
-41.7684145222
 10
-132.7029272724
 20
-41.8318115139
 10
-132.704533049
 20
-41.8937300429
 10
-132.7066240911
 20
-41.9533812459
 10
-132.7092711156
 20
-42.0111695163
 10
-132.7125729501
 20
-42.0676420134
 10
-132.716522288
 20
-42.1216570863
 10
-132.7210269271
 20
-42.1713622922
 10
-132.7261306342
 20
-42.2167392452
 10
-132.7318830509
 20
-42.2578055513
 10
-132.7381163521
 20
-42.2935008176
 10
-132.74470043
 20
-42.3238116265
 10
-132.751896311
 20
-42.3502279542
  0
LINE
  5
55D
100
AcDbEntity
  8
RACCORDO
100
AcDbLine
 62
253
  6
CONTINUOUS
 10
-133.0866924515
 20
41.9349143928
 11
-133.0854760516
 21
41.8767258701
  0
LINE
  5
55E
100
AcDbEntity
  8
RACCORDO
100
AcDbLine
 62
253
  6
CONTINUOUS
 10
-133.0887275048
 20
-42.1276213147
 11
-133.0866750511
 21
-42.2313758612
  0
LINE
  5
55F
100
AcDbEntity
  8
RACCORDO
100
AcDbLine
 62
253
  6
CONTINUOUS
 10
-132.9664143398
 20
-42.0835983811
 11
-132.9647719716
 21
-42.1809127138
  0
LINE
  5
560
100
AcDbEntity
  8
RACCORDO
100
AcDbLine
 62
253
  6
CONTINUOUS
 10
-132.9645763905
 20
41.7763009449
 11
-132.963681589
 21
41.7169360016
  0
LINE
  5
561
100
AcDbEntity
  8
RACCORDO
100
AcDbLine
 62
253
  6
CONTINUOUS
 10
-133.0854760516
 20
41.8767258701
 11
-133.0846075994
 21
41.8170621307
  0
LINE
  5
562
100
AcDbEntity
  8
RACCORDO
100
AcDbLine
 62
253
  6
CONTINUOUS
 10
-133.0866750511
 20
-42.2313758612
 11
-133.0847703054
 21
-42.366842798
  0
LWPOLYLINE
  5
563
100
AcDbEntity
  8
RACCORDO
100
AcDbPolyline
 62
253
  6
CONTINUOUS
 90
14
 70
0
 10
-134.5945776591
 20
-6.8946842863
 10
-134.5828241601
 20
-7.9448360736
 10
-134.5687925512
 20
-9.0320766516
 10
-134.5521052571
 20
-10.1680716852
 10
-134.5326988441
 20
-11.341062306
 10
-134.510965506
 20
-12.5199258642
 10
-134.4868101561
 20
-13.7074198044
 10
-134.4602455612
 20
-14.9007088299
 10
-134.4322260714
 20
-16.0603360198
 10
-134.4032802971
 20
-17.1735664199
 10
-134.3732902808
 20
-18.2531537026
 10
-134.3424647138
 20
-19.2979191687
 10
-134.3109773855
 20
-20.3078694066
 10
-134.2467227578
 20
-22.2222968874
  0
LWPOLYLINE
  5
564
100
AcDbEntity
  8
RACCORDO
100
AcDbPolyline
 62
253
  6
CONTINUOUS
 90
14
 70
0
 10
-134.4640933687
 20
-6.8904095121
 10
-134.4523421553
 20
-7.9398669216
 10
-134.4383127643
 20
-9.0263898853
 10
-134.421628335
 20
-10.1616229435
 10
-134.4022257342
 20
-11.3338302526
 10
-134.3804961845
 20
-12.5119304701
 10
-134.3563444274
 20
-13.6986638948
 10
-134.3297841357
 20
-14.8911782387
 10
-134.3017695154
 20
-16.0500584016
 10
-134.2728280451
 20
-17.1625933282
 10
-134.2428418782
 20
-18.241509405
 10
-134.2120208629
 20
-19.2856082291
 10
-134.1805382636
 20
-20.29491855
 10
-134.1162912431
 20
-22.2081741393
  0
LINE
  5
565
100
AcDbEntity
  8
RACCORDO
100
AcDbLine
 62
253
  6
CONTINUOUS
 10
-132.9647719716
 20
-42.1809127138
 11
-132.9633216997
 21
-42.3086904528
  0
LINE
  5
566
100
AcDbEntity
  8
RACCORDO
100
AcDbLine
 62
253
  6
CONTINUOUS
 10
-132.963681589
 20
41.7169360016
 11
-132.9631019086
 21
41.6550465874
  0
LINE
  5
567
100
AcDbEntity
  8
RACCORDO
100
AcDbLine
 62
253
  6
CONTINUOUS
 10
-134.6120821267
 20
-4.8936746997
 11
-134.5945776591
 21
-6.8946842863
  0
LINE
  5
568
100
AcDbEntity
  8
RACCORDO
100
AcDbLine
 62
253
  6
CONTINUOUS
 10
-134.4815945049
 20
-4.8907492356
 11
-134.4640933687
 21
-6.8904095121
  0
LINE
  5
569
100
AcDbEntity
  8
RACCORDO
100
AcDbLine
 62
253
  6
CONTINUOUS
 10
-133.0846075994
 20
41.8170621307
 11
-133.0840580969
 21
41.7548181709
  0
LINE
  5
56A
100
AcDbEntity
  8
RACCORDO
100
AcDbLine
 62
253
  6
CONTINUOUS
 10
-133.0847703054
 20
-42.366842798
 11
-133.0840998883
 21
-42.4462151691
  0
LINE
  5
56B
100
AcDbEntity
  8
RACCORDO
100
AcDbLine
 62
253
  6
CONTINUOUS
 10
-134.6226568097
 20
-3.0211256647
 11
-134.6120821267
 21
-4.8936746997
  0
LINE
  5
56C
100
AcDbEntity
  8
RACCORDO
100
AcDbLine
 62
253
  6
CONTINUOUS
 10
-134.4921672939
 20
-3.0194254791
 11
-134.4815945049
 21
-4.8907492356
  0
LINE
  5
56D
100
AcDbEntity
  8
RACCORDO
100
AcDbLine
 62
253
  6
CONTINUOUS
 10
-132.9633216997
 20
-42.3086904528
 11
-132.9629014786
 21
-42.3841786679
  0
LINE
  5
56E
100
AcDbEntity
  8
RACCORDO
100
AcDbLine
 62
253
  6
CONTINUOUS
 10
-132.9631019086
 20
41.6550465874
 11
-132.9628427856
 21
41.589696973
  0
LINE
  5
56F
100
AcDbEntity
  8
RACCORDO
100
AcDbLine
 62
253
  6
CONTINUOUS
 10
-133.0840998883
 20
-42.4462151691
 11
-133.0838368105
 21
-42.518783494
  0
LWPOLYLINE
  5
570
100
AcDbEntity
  8
0
100
AcDbPolyline
 62
7
  6
CONTINUOUS
 90
10
 70
0
 10
-134.1745164589
 20
-0.4263725131
 10
-134.1686492477
 20
-3.1292790076
 10
-134.1510451952
 20
-5.8317592111
 10
-134.1217006057
 20
-8.5335110101
 10
-134.0806099606
 20
-11.234255998
 10
-134.027764044
 20
-13.9336006957
 10
-133.9631548007
 20
-16.6310705116
 10
-133.886772157
 20
-19.3262724542
 10
-133.7985978391
 20
-22.0189292487
 10
-133.6986126818
 20
-24.708740126
  0
LINE
  5
571
100
AcDbEntity
  8
RACCORDO
100
AcDbLine
 62
253
  6
CONTINUOUS
 10
-133.0840580969
 20
41.7548181709
 11
-133.0838313381
 21
41.6891263352
  0
LINE
  5
572
100
AcDbEntity
  8
RACCORDO
100
AcDbLine
 62
253
  6
CONTINUOUS
 10
-134.6274806935
 20
-1.2621836944
 11
-134.6226568097
 21
-3.0211256647
  0
LINE
  5
573
100
AcDbEntity
  8
RACCORDO
100
AcDbLine
 62
253
  6
CONTINUOUS
 10
-134.4969900232
 20
-1.261650743
 11
-134.4921672939
 21
-3.0194254791
  0
LINE
  5
574
100
AcDbEntity
  8
RACCORDO
100
AcDbLine
 62
253
  6
CONTINUOUS
 10
-134.6274880325
 20
0.4039163217
 11
-134.6274806935
 21
-1.2621836944
  0
LINE
  5
575
100
AcDbEntity
  8
RACCORDO
100
AcDbLine
 62
253
  6
CONTINUOUS
 10
-134.4969973782
 20
0.4033855568
 11
-134.4969900232
 21
-1.261650743
  0
LINE
  5
576
100
AcDbEntity
  8
RACCORDO
100
AcDbLine
 62
253
  6
CONTINUOUS
 10
-132.9629014786
 20
-42.3841786679
 11
-132.9628618938
 21
-42.4535921037
  0
LINE
  5
577
100
AcDbEntity
  8
RACCORDO
100
AcDbLine
 62
253
  6
CONTINUOUS
 10
-132.9628427856
 20
41.589696973
 11
-132.9629435349
 21
41.5195608131
  0
LINE
  5
578
100
AcDbEntity
  8
RACCORDO
100
AcDbLine
 62
253
  6
CONTINUOUS
 10
-133.0838368105
 20
-42.518783494
 11
-133.0839441067
 21
-42.5862371323
  0
LINE
  5
579
100
AcDbEntity
  8
RACCORDO
100
AcDbLine
 62
253
  6
CONTINUOUS
 10
-133.0838313381
 20
41.6891263352
 11
-133.0839691674
 21
41.6186407741
  0
LINE
  5
57A
100
AcDbEntity
  8
RACCORDO
100
AcDbLine
 62
253
  6
CONTINUOUS
 10
-134.6226560565
 20
2.1685621449
 11
-134.6274880325
 21
0.4039163217
  0
LINE
  5
57B
100
AcDbEntity
  8
RACCORDO
100
AcDbLine
 62
253
  6
CONTINUOUS
 10
-134.4921665404
 20
2.1668619885
 11
-134.4969973782
 21
0.4033855568
  0
LINE
  5
57C
100
AcDbEntity
  8
RACCORDO
100
AcDbLine
 62
253
  6
CONTINUOUS
 10
-132.9628618938
 20
-42.4535921037
 11
-132.9631777697
 21
-42.518444972
  0
LINE
  5
57D
100
AcDbEntity
  8
RACCORDO
100
AcDbLine
 62
253
  6
CONTINUOUS
 10
-134.6118620659
 20
4.0716207485
 11
-134.6226560565
 21
2.1685621449
  0
LINE
  5
57E
100
AcDbEntity
  8
RACCORDO
100
AcDbLine
 62
253
  6
CONTINUOUS
 10
-134.4813744809
 20
4.0686761303
 11
-134.4921665404
 21
2.1668619885
  0
LINE
  5
57F
100
AcDbEntity
  8
RACCORDO
100
AcDbLine
 62
253
  6
CONTINUOUS
 10
-132.9629435349
 20
41.5195608131
 11
-132.9634276935
 21
41.4431542123
  0
LINE
  5
580
100
AcDbEntity
  8
RACCORDO
100
AcDbLine
 62
253
  6
CONTINUOUS
 10
-133.0839691674
 20
41.6186407741
 11
-133.0844936916
 21
41.5417972854
  0
LINE
  5
581
100
AcDbEntity
  8
RACCORDO
100
AcDbLine
 62
253
  6
CONTINUOUS
 10
-133.0839441067
 20
-42.5862371323
 11
-133.0843929719
 21
-42.6496300606
  0
LINE
  5
582
100
AcDbEntity
  8
RACCORDO
100
AcDbLine
 62
253
  6
CONTINUOUS
 10
-132.9631777697
 20
-42.518444972
 11
-132.9638139724
 21
-42.5801207055
  0
LINE
  5
583
100
AcDbEntity
  8
RACCORDO
100
AcDbLine
 62
253
  6
CONTINUOUS
 10
-132.9634276935
 20
41.4431542123
 11
-132.9643442623
 21
41.359151276
  0
LINE
  5
584
100
AcDbEntity
  8
RACCORDO
100
AcDbLine
 62
253
  6
CONTINUOUS
 10
-133.0844936916
 20
41.5417972854
 11
-133.0854601998
 21
41.4573400542
  0
LINE
  5
585
100
AcDbEntity
  8
RACCORDO
100
AcDbLine
 62
253
  6
CONTINUOUS
 10
-133.0843929719
 20
-42.6496300606
 11
-133.0851571118
 21
-42.71027792
  0
LINE
  5
586
100
AcDbEntity
  8
RACCORDO
100
AcDbLine
 62
253
  6
CONTINUOUS
 10
-132.9643442623
 20
41.359151276
 11
-132.9657744524
 21
41.2657132418
  0
LINE
  5
587
100
AcDbEntity
  8
RACCORDO
100
AcDbLine
 62
253
  6
CONTINUOUS
 10
-133.0854601998
 20
41.4573400542
 11
-133.086944822
 21
41.3634594119
  0
LINE
  5
588
100
AcDbEntity
  8
RACCORDO
100
AcDbLine
 62
253
  6
CONTINUOUS
 10
-132.9638139724
 20
-42.5801207055
 11
-132.9647709776
 21
-42.6394607701
  0
LINE
  5
589
100
AcDbEntity
  8
0
100
AcDbLine
 62
7
  6
CONTINUOUS
 10
-132.7021576056
 20
40.5347281412
 11
-132.7053961004
 21
40.3540418968
  0
LINE
  5
58A
100
AcDbEntity
  8
RACCORDO
100
AcDbLine
 62
253
  6
CONTINUOUS
 10
-133.0851571118
 20
-42.71027792
 11
-133.0862650856
 21
-42.7692589161
  0
LINE
  5
58B
100
AcDbEntity
  8
RACCORDO
100
AcDbLine
 62
253
  6
CONTINUOUS
 10
-132.9657744524
 20
41.2657132418
 11
-132.9678705255
 21
41.1608419615
  0
LINE
  5
58C
100
AcDbEntity
  8
RACCORDO
100
AcDbLine
 62
253
  6
CONTINUOUS
 10
-133.086944822
 20
41.3634594119
 11
-133.0891074385
 21
41.2578925837
  0
LWPOLYLINE
  5
58D
100
AcDbEntity
  8
RACCORDO
100
AcDbPolyline
 62
253
  6
CONTINUOUS
 90
17
 70
0
 10
-132.9647709776
 20
-42.6394607701
 10
-132.9660857503
 20
-42.6974299101
 10
-132.9668972265
 20
-42.7261931794
 10
-132.96782382
 20
-42.7548764207
 10
-132.968872116
 20
-42.7834321527
 10
-132.9700623581
 20
-42.8121147603
 10
-132.9714055732
 20
-42.8408562631
 10
-132.9729116926
 20
-42.8695605333
 10
-132.974606251
 20
-42.898382208
 10
-132.9765046514
 20
-42.9272177127
 10
-132.9786215477
 20
-42.9559167392
 10
-132.9809884048
 20
-42.9845072124
 10
-132.983648627
 20
-43.0130549777
 10
-132.9865992585
 20
-43.0411346588
 10
-132.9897948334
 20
-43.0680882673
 10
-132.9932532748
 20
-43.0939117367
 10
-132.9969721051
 20
-43.1184172332
  0
LINE
  5
58E
100
AcDbEntity
  8
0
100
AcDbLine
 62
7
  6
CONTINUOUS
 10
-132.7053961004
 20
40.3540418968
 11
-132.7102584949
 21
40.1623910301
  0
LINE
  5
58F
100
AcDbEntity
  8
RACCORDO
100
AcDbLine
 62
253
  6
CONTINUOUS
 10
-132.9678705255
 20
41.1608419615
 11
-132.9724808704
 21
40.980438388
  0
LWPOLYLINE
  5
590
100
AcDbEntity
  8
RACCORDO
100
AcDbPolyline
 62
253
  6
CONTINUOUS
 90
23
 70
0
 10
-133.0862650856
 20
-42.7692589161
 10
-133.0877576592
 20
-42.8271337204
 10
-133.0886742495
 20
-42.8559746246
 10
-133.0897128663
 20
-42.884678012
 10
-133.0908939719
 20
-42.9135118177
 10
-133.092228879
 20
-42.9424093772
 10
-133.0937275872
 20
-42.971265965
 10
-133.0954156743
 20
-43.0002360851
 10
-133.097308765
 20
-43.0292240966
 10
-133.0994216902
 20
-43.058077938
 10
-133.1017854308
 20
-43.0868143553
 10
-133.1044446092
 20
-43.1155134547
 10
-133.107396609
 20
-43.1437483604
 10
-133.1105935862
 20
-43.1708370363
 10
-133.1140549366
 20
-43.196792002
 10
-133.1177810988
 20
-43.2214335935
 10
-133.1216654551
 20
-43.2440345007
 10
-133.1256973478
 20
-43.2646609946
 10
-133.1298680549
 20
-43.2834032768
 10
-133.1340381951
 20
-43.2998569209
 10
-133.1381376804
 20
-43.3140773008
 10
-133.1421845285
 20
-43.3264282529
 10
-133.1461564578
 20
-43.3370891119
  0
LWPOLYLINE
  5
591
100
AcDbEntity
  8
RACCORDO
100
AcDbPolyline
 62
253
  6
CONTINUOUS
 90
12
 70
0
 10
-134.3707587058
 20
17.4885332533
 10
-134.4002161284
 20
16.4343278793
 10
-134.4288295113
 20
15.3423255872
 10
-134.4567024762
 20
14.1997164817
 10
-134.4832823836
 20
13.0192806821
 10
-134.5076832116
 20
11.835329848
 10
-134.5299127933
 20
10.6464862288
 10
-134.5499232778
 20
9.4541890189
 10
-134.5671597554
 20
8.2970335222
 10
-134.5816621566
 20
7.1880389539
 10
-134.5938246746
 20
6.1142828825
 10
-134.6118620659
 20
4.0716207485
  0
LWPOLYLINE
  5
592
100
AcDbEntity
  8
RACCORDO
100
AcDbPolyline
 62
253
  6
CONTINUOUS
 90
12
 70
0
 10
-134.2403098617
 20
17.4768618541
 10
-134.2697636343
 20
16.4233090917
 10
-134.2983728102
 20
15.3319883727
 10
-134.3262410734
 20
14.1901124361
 10
-134.3528168762
 20
13.0104369952
 10
-134.3772141812
 20
11.827238618
 10
-134.3994399357
 20
10.639160971
 10
-134.4194465954
 20
9.4476560485
 10
-134.4366802174
 20
8.2912721677
 10
-134.4511803686
 20
7.1830057469
 10
-134.4633405239
 20
6.1099593143
 10
-134.4813744809
 20
4.0686761303
  0
LINE
  5
593
100
AcDbEntity
  8
RACCORDO
100
AcDbLine
 62
253
  6
CONTINUOUS
 10
-133.0891074385
 20
41.2578925837
 11
-133.0938342727
 21
41.0764836573
  0
LINE
  5
594
100
AcDbEntity
  8
RACCORDO
100
AcDbLine
 62
253
  6
CONTINUOUS
 10
-134.30967163
 20
19.495886643
 11
-134.3707587058
 21
17.4885332533
  0
LINE
  5
595
100
AcDbEntity
  8
RACCORDO
100
AcDbLine
 62
253
  6
CONTINUOUS
 10
-134.1792316995
 20
19.4829406624
 11
-134.2403098617
 21
17.4768618541
  0
LWPOLYLINE
  5
596
100
AcDbEntity
  8
0
100
AcDbPolyline
 62
7
  6
CONTINUOUS
 90
9
 70
0
 10
-133.7985978391
 20
21.1661842227
 10
-133.886772157
 20
18.4735274284
 10
-133.9631548007
 20
15.7783254858
 10
-134.027764044
 20
13.0808556697
 10
-134.0806099606
 20
10.3815109716
 10
-134.1217006057
 20
7.6807659836
 10
-134.1510451952
 20
4.9790141845
 10
-134.1686492477
 20
2.2765339812
 10
-134.1745164589
 20
-0.4263725131
  0
LINE
  5
597
100
AcDbEntity
  8
0
100
AcDbLine
 62
7
  6
CONTINUOUS
 10
-132.7102584949
 20
40.1623910301
 11
-132.7166175381
 21
39.9620900684
  0
LINE
  5
598
100
AcDbEntity
  8
RACCORDO
100
AcDbLine
 62
253
  6
CONTINUOUS
 10
-132.9724808704
 20
40.980438388
 11
-132.9788041345
 21
40.7797952621
  0
LINE
  5
599
100
AcDbEntity
  8
RACCORDO
100
AcDbLine
 62
253
  6
CONTINUOUS
 10
-133.0938342727
 20
41.0764836573
 11
-133.1002894215
 21
40.8748551806
  0
LINE
  5
59A
100
AcDbEntity
  8
RACCORDO
100
AcDbLine
 62
253
  6
CONTINUOUS
 10
-134.1161783046
 20
21.3586422865
 11
-134.1792316995
 21
19.4829406624
  0
LWPOLYLINE
  5
59B
100
AcDbEntity
  8
RACCORDO
100
AcDbPolyline
 62
253
  6
CONTINUOUS
 90
3
 70
0
 10
-134.2144895778
 20
22.2682901616
 10
-134.2466105568
 20
21.3727456281
 10
-134.30967163
 20
19.495886643
  0
LINE
  5
59C
100
AcDbEntity
  8
RACCORDO
100
AcDbLine
 62
253
  6
CONTINUOUS
 10
-134.0517505194
 20
23.119149848
 11
-134.1161783046
 21
21.3586422865
  0
LINE
  5
59D
100
AcDbEntity
  8
0
100
AcDbLine
 62
7
  6
CONTINUOUS
 10
-132.7166175381
 20
39.9620900684
 11
-132.7241970832
 21
39.7582920689
  0
LINE
  5
59E
100
AcDbEntity
  8
RACCORDO
100
AcDbLine
 62
253
  6
CONTINUOUS
 10
-132.9788041345
 20
40.7797952621
 11
-132.9863661226
 21
40.5748775184
  0
LINE
  5
59F
100
AcDbEntity
  8
RACCORDO
100
AcDbLine
 62
253
  6
CONTINUOUS
 10
-133.1002894215
 20
40.8748551806
 11
-133.1079898752
 21
40.6688924343
  0
LINE
  5
5A0
100
AcDbEntity
  8
0
100
AcDbLine
 62
7
  6
CONTINUOUS
 10
-133.6838766468
 20
24.219572846
 11
-133.7985978391
 21
21.1661842227
  0
LINE
  5
5A1
100
AcDbEntity
  8
RACCORDO
100
AcDbLine
 62
253
  6
CONTINUOUS
 10
-134.0013252753
 20
24.3964804312
 11
-134.0517505194
 21
23.119149848
  0
LINE
  5
5A2
100
AcDbEntity
  8
RACCORDO
100
AcDbLine
 62
253
  6
CONTINUOUS
 10
-132.9863661226
 20
40.5748775184
 11
-132.99758098
 21
40.3070599117
  0
LINE
  5
5A3
100
AcDbEntity
  8
RACCORDO
100
AcDbLine
 62
253
  6
CONTINUOUS
 10
-133.1079898752
 20
40.6688924343
 11
-133.1193978923
 21
40.3995689252
  0
LINE
  5
5A4
100
AcDbEntity
  8
0
100
AcDbLine
 62
7
  6
CONTINUOUS
 10
-133.6505132294
 20
24.9740712656
 11
-133.6838766468
 21
24.219572846
  0
LINE
  5
5A5
100
AcDbEntity
  8
0
100
AcDbLine
 62
7
  6
CONTINUOUS
 10
-132.7241970832
 20
39.7582920689
 11
-132.7395224216
 21
39.4017213818
  0
LINE
  5
5A6
100
AcDbEntity
  8
RACCORDO
100
AcDbLine
 62
253
  6
CONTINUOUS
 10
-133.1193978923
 20
40.3995689252
 11
-133.1287410662
 21
40.198475745
  0
LWPOLYLINE
  5
5A7
100
AcDbEntity
  8
RACCORDO
100
AcDbPolyline
 62
253
  6
CONTINUOUS
 90
3
 70
0
 10
-132.99758098
 20
40.3070599117
 10
-133.013773843
 20
39.963094377
 10
-133.0176546986
 20
39.8856343927
  0
LINE
  5
5A8
100
AcDbEntity
  8
0
100
AcDbLine
 62
7
  6
CONTINUOUS
 10
-133.6089524266
 20
25.8365958991
 11
-133.6505132294
 21
24.9740712656
  0
LINE
  5
5A9
100
AcDbEntity
  8
0
100
AcDbLine
 62
7
  6
CONTINUOUS
 10
-132.7395224216
 20
39.4017213818
 11
-132.7606222132
 21
38.9717873596
  0
LINE
  5
5AA
100
AcDbEntity
  8
0
100
AcDbLine
 62
7
  6
CONTINUOUS
 10
-133.5628703142
 20
26.6979689121
 11
-133.6089524266
 21
25.8365958991
  0
LINE
  5
5AB
100
AcDbEntity
  8
0
100
AcDbLine
 62
7
  6
CONTINUOUS
 10
-132.7606222132
 20
38.9717873596
 11
-132.7867927908
 21
38.4893636252
  0
LINE
  5
5AC
100
AcDbEntity
  8
0
100
AcDbLine
 62
7
  6
CONTINUOUS
 10
-132.7867927908
 20
38.4893636252
 11
-132.8063160834
 21
38.1510012925
  0
LWPOLYLINE
  5
5AD
100
AcDbEntity
  8
RACCORDO
100
AcDbPolyline
 62
253
  6
CONTINUOUS
 90
11
 70
0
 10
-129.5909143638
 20
-4.3425487105
 10
-129.592364557
 20
-4.3254722169
 10
-129.594634933
 20
-4.3095242696
 10
-129.5977023008
 20
-4.2948677709
 10
-129.6015353284
 20
-4.2816524314
 10
-129.6060948629
 20
-4.270013241
 10
-129.6113343303
 20
-4.2600690897
 10
-129.6172002115
 20
-4.2519215534
 10
-129.6236325886
 20
-4.2456538561
 10
-129.6305657575
 20
-4.2413300201
 10
-129.6379288983
 20
-4.2389942119
  0
LINE
  5
5AE
100
AcDbEntity
  8
RACCORDO
100
AcDbLine
 62
253
  6
CONTINUOUS
 10
-129.6239244881
 20
-41.7682356806
 11
-129.6206758144
 21
-42.0692653936
  0
LINE
  5
5AF
100
AcDbEntity
  8
RACCORDO
100
AcDbLine
 62
253
  6
CONTINUOUS
 10
-129.6206758144
 20
-42.0692653936
 11
-129.6203699881
 21
-42.1081555574
  0
LWPOLYLINE
  5
5B0
100
AcDbEntity
  8
RACCORDO
100
AcDbPolyline
 62
253
  6
CONTINUOUS
 90
3
 70
0
 10
-129.6101333907
 20
-29.13055242
 10
-129.6100940075
 20
-29.1363225479
 10
-129.6101542459
 20
-29.1462363406
  0
LINE
  5
5B1
100
AcDbEntity
  8
RACCORDO
100
AcDbLine
 62
253
  6
CONTINUOUS
 10
-129.6101529565
 20
28.2932545838
 11
-129.6100923605
 21
28.2834627101
  0
LINE
  5
5B2
100
AcDbEntity
  8
RACCORDO
100
AcDbLine
 62
253
  6
CONTINUOUS
 10
-129.6101383509
 20
28.2778076532
 11
-129.6057841282
 21
24.3543517801
  0
LINE
  5
5B3
100
AcDbEntity
  8
RACCORDO
100
AcDbLine
 62
253
  6
CONTINUOUS
 10
-129.6144666748
 20
42.5118577741
 11
-129.614461401
 21
42.4964709284
  0
LINE
  5
5B4
100
AcDbEntity
  8
RACCORDO
100
AcDbLine
 62
253
  6
CONTINUOUS
 10
-129.6057841282
 20
24.3543517801
 11
-129.5985057673
 21
12.2681950987
  0
LINE
  5
5B5
100
AcDbEntity
  8
RACCORDO
100
AcDbLine
 62
7
  6
CONTINUOUS
 10
-131.410894655
 20
2.905811264
 11
-131.410894655
 21
-3.7585525869
  0
LINE
  5
5B6
100
AcDbEntity
  8
RACCORDO
100
AcDbLine
 62
253
  6
CONTINUOUS
 10
-129.6250811555
 20
-40.9839977536
 11
-129.6239357689
 21
-41.7670161687
  0
LINE
  5
5B7
100
AcDbEntity
  8
RACCORDO
100
AcDbLine
 62
253
  6
CONTINUOUS
 10
-129.5985057673
 20
12.2681950987
 11
-129.596183699
 21
3.5857083831
  0
LINE
  5
5B8
100
AcDbEntity
  8
RACCORDO
100
AcDbLine
 62
7
  6
CONTINUOUS
 10
-129.410894655
 20
42.2277774252
 11
-129.410894655
 21
3.5941013746
  0
LINE
  5
5B9
100
AcDbEntity
  8
DRAFT
100
AcDbLine
 62
7
  6
CONTINUOUS
 10
-129.410894655
 20
-15.3062613103
 11
-129.410894655
 21
-16.9492291369
  0
LINE
  5
5BA
100
AcDbEntity
  8
DRAFT
100
AcDbLine
 62
7
  6
CONTINUOUS
 10
-129.410894655
 20
-17.9017948431
 11
-129.410894655
 21
-19.5541708403
  0
LINE
  5
5BB
100
AcDbEntity
  8
RACCORDO
100
AcDbLine
 62
7
  6
CONTINUOUS
 10
-129.410894655
 20
-4.4468464007
 11
-129.410894655
 21
-43.0805224514
  0
LINE
  5
5BC
100
AcDbEntity
  8
RACCORDO
100
AcDbLine
 62
253
  6
CONTINUOUS
 10
-131.5597460397
 20
-3.7610426024
 11
-131.5597443999
 21
2.9083136749
  0
LINE
  5
5BD
100
AcDbEntity
  8
RACCORDO
100
AcDbLine
 62
253
  6
CONTINUOUS
 10
-129.6203699881
 20
-42.1081555574
 11
-129.6144666748
 21
-43.3646028003
  0
LINE
  5
5BE
100
AcDbEntity
  8
RACCORDO
100
AcDbLine
 62
253
  6
CONTINUOUS
 10
-129.5961859096
 20
-4.4384531608
 11
-129.5988724119
 21
-15.0257412277
  0
LINE
  5
5BF
100
AcDbEntity
  8
RACCORDO
100
AcDbLine
 62
253
  6
CONTINUOUS
 10
-129.6101592054
 20
28.3087627462
 11
-129.6101529565
 21
28.2932545838
  0
LINE
  5
5C0
100
AcDbEntity
  8
RACCORDO
100
AcDbLine
 62
253
  6
CONTINUOUS
 10
-129.5988724119
 20
-15.0257412277
 11
-129.6055369715
 21
-24.8509464238
  0
LINE
  5
5C1
100
AcDbEntity
  8
RACCORDO
100
AcDbLine
 62
253
  6
CONTINUOUS
 10
-129.6055369715
 20
-24.8509464238
 11
-129.6101383509
 21
-29.1305526807
  0
LINE
  5
5C2
100
AcDbEntity
  8
RACCORDO
100
AcDbLine
 62
253
  6
CONTINUOUS
 10
-129.6101542459
 20
-29.1462363406
 11
-129.6250811555
 21
-40.9839977536
  0
LINE
  5
5C3
100
AcDbEntity
  8
RACCORDO
100
AcDbLine
 62
253
  6
CONTINUOUS
 10
-129.6242128622
 20
40.8742518177
 11
-129.6101592054
 21
28.3087627462
  0
LINE
  5
5C4
100
AcDbEntity
  8
RACCORDO
100
AcDbLine
 62
253
  6
CONTINUOUS
 10
-129.6100923605
 20
28.2834627101
 11
-129.6101333362
 21
28.2778073893
  0
LINE
  5
5C5
100
AcDbEntity
  8
RACCORDO
100
AcDbLine
 62
253
  6
CONTINUOUS
 10
-129.614461401
 20
42.4964709284
 11
-129.6205650431
 21
41.2293799341
  0
LINE
  5
5C6
100
AcDbEntity
  8
RACCORDO
100
AcDbLine
 62
253
  6
CONTINUOUS
 10
-129.6235952662
 20
40.9513314901
 11
-129.6242128622
 21
40.8742518177
  0
LINE
  5
5C7
100
AcDbEntity
  8
RACCORDO
100
AcDbLine
 62
253
  6
CONTINUOUS
 10
-129.6205650431
 20
41.2293799341
 11
-129.6212315361
 21
41.1660824476
  0
LINE
  5
5C8
100
AcDbEntity
  8
RACCORDO
100
AcDbLine
 62
253
  6
CONTINUOUS
 10
-129.6212315361
 20
41.1660824476
 11
-129.6235952662
 21
40.9513314901
  0
LWPOLYLINE
  5
5C9
100
AcDbEntity
  8
RACCORDO
100
AcDbPolyline
 62
253
  6
CONTINUOUS
 90
11
 70
0
 10
-129.5909125964
 20
3.4898022367
 10
-129.5923629019
 20
3.4727255836
 10
-129.5946334138
 20
3.4567775329
 10
-129.5977009388
 20
3.4421209932
 10
-129.6015341423
 20
3.4289056804
 10
-129.6060938683
 20
3.4172665883
 10
-129.6113335394
 20
3.4073226097
 10
-129.6171996325
 20
3.3991753218
 10
-129.6236322258
 20
3.3929079489
 10
-129.6305656108
 20
3.3885845118
 10
-129.637928963
 20
3.3862491743
  0
LWPOLYLINE
  5
5CA
100
AcDbEntity
  8
RACCORDO
100
AcDbPolyline
 62
253
  6
CONTINUOUS
 90
6
 70
0
 10
-129.5961853457
 20
-4.4384532639
 10
-129.5934834473
 20
-4.4185167264
 10
-129.5915903025
 20
-4.3987583204
 10
-129.5905252492
 20
-4.3793798704
 10
-129.5902991665
 20
-4.3605793203
 10
-129.5909143638
 20
-4.3425487105
  0
LWPOLYLINE
  5
5CB
100
AcDbEntity
  8
RACCORDO
100
AcDbPolyline
 62
253
  6
CONTINUOUS
 90
19
 70
0
 10
-131.2249205477
 20
-4.1550295831
 10
-131.2223296647
 20
-4.1382233917
 10
-131.2201606187
 20
-4.1215208016
 10
-131.2184291795
 20
-4.1050432417
 10
-131.217147936
 20
-4.0889105062
 10
-131.2163262039
 20
-4.0732398813
 10
-131.2159699584
 20
-4.0581452926
 10
-131.2160817908
 20
-4.043736478
 10
-131.2166608895
 20
-4.0301181965
 10
-131.2177030452
 20
-4.0173894626
 10
-131.219200682
 20
-4.0056428173
 10
-131.2211429123
 20
-3.9949636616
 10
-131.2235156155
 20
-3.9854296402
 10
-131.22630154
 20
-3.9771100709
 10
-131.2294804329
 20
-3.9700654327
 10
-131.2330291875
 20
-3.9643469354
 10
-131.2369220067
 20
-3.9599961563
 10
-131.2411305886
 20
-3.9570447336
 10
-131.2456243373
 20
-3.9555141292
  0
LWPOLYLINE
  5
5CC
100
AcDbEntity
  8
RACCORDO
100
AcDbPolyline
 62
253
  6
CONTINUOUS
 90
11
 70
0
 10
-138.03303902
 20
-23.6375702491
 10
-138.0324987983
 20
-23.6360898141
 10
-138.0320193976
 20
-23.6333906384
 10
-138.0316008057
 20
-23.6294727209
 10
-138.0312435515
 20
-23.6243206712
 10
-138.0309470542
 20
-23.6179498767
 10
-138.0307096269
 20
-23.6104065026
 10
-138.0305311419
 20
-23.6016916618
 10
-138.0304116286
 20
-23.591804236
 10
-138.030349629
 20
-23.580787044
 10
-138.0303975577
 20
-23.5553728838
  0
LWPOLYLINE
  5
5CD
100
AcDbEntity
  8
RACCORDO
100
AcDbPolyline
 62
253
  6
CONTINUOUS
 90
10
 70
0
 10
-129.410894655
 20
-4.4468464007
 10
-129.410993745
 20
-4.4469095009
 10
-129.4112861345
 20
-4.4469612482
 10
-129.4117644826
 20
-4.4470015792
 10
-129.4124180591
 20
-4.4470301164
 10
-129.4132412576
 20
-4.4470471273
 10
-129.414241731
 20
-4.4470535116
 10
-129.41542043
 20
-4.4470497082
 10
-129.4167763521
 20
-4.4470351577
 10
-129.418327279
 20
-4.4470092355
  0
LWPOLYLINE
  5
5CE
100
AcDbEntity
  8
RACCORDO
100
AcDbPolyline
 62
253
  6
CONTINUOUS
 90
6
 70
0
 10
-129.5961834086
 20
3.585708152
 10
-129.5934814908
 20
3.5657712966
 10
-129.5915883531
 20
3.546012586
 10
-129.5905233338
 20
3.5266338545
 10
-129.5902973119
 20
3.507833055
 10
-129.5909125964
 20
3.4898022367
  0
LWPOLYLINE
  5
5CF
100
AcDbEntity
  8
RACCORDO
100
AcDbPolyline
 62
253
  6
CONTINUOUS
 90
7
 70
0
 10
-129.410894655
 20
40.6278105986
 10
-129.4119806449
 20
40.6532547067
 10
-129.4152307864
 20
40.6785145986
 10
-129.4206215484
 20
40.7034073906
 10
-129.4281139014
 20
40.727752857
 10
-129.4376536005
 20
40.7513747347
 10
-129.4491715778
 20
40.7741019994
  0
LINE
  5
5D0
100
AcDbEntity
  8
RACCORDO
100
AcDbLine
 62
253
  6
CONTINUOUS
 10
-129.410894655
 20
40.8675012022
 11
-129.4119656371
 21
40.8928171632
  0
LWPOLYLINE
  5
5D1
100
AcDbEntity
  8
RACCORDO
100
AcDbPolyline
 62
253
  6
CONTINUOUS
 90
16
 70
0
 10
-129.410894655
 20
40.9827233268
 10
-129.4119593011
 20
41.007962571
 10
-129.4151456851
 20
41.0330226761
 10
-129.4204311912
 20
41.0577257741
 10
-129.4277783047
 20
41.0818965311
 10
-129.4371348784
 20
41.1053633915
 10
-129.4484345026
 20
41.1279597958
 10
-129.4615969766
 20
41.1495253627
 10
-129.4765288778
 20
41.1699070273
 10
-129.4931242248
 20
41.1889601276
 10
-129.5112652296
 20
41.2065494315
 10
-129.5308231338
 20
41.2225500962
 10
-129.5516591223
 20
41.2368485546
 10
-129.5736253086
 20
41.2493433212
 10
-129.5965657843
 20
41.2599457125
 10
-129.6203177261
 20
41.2685804765
  0
LWPOLYLINE
  5
5D2
100
AcDbEntity
  8
RACCORDO
100
AcDbPolyline
 62
253
  6
CONTINUOUS
 90
16
 70
0
 10
-129.410894655
 20
-41.835468353
 10
-129.411959301
 20
-41.8607075789
 10
-129.4151456849
 20
-41.8857676659
 10
-129.4204311908
 20
-41.9104707462
 10
-129.4277783041
 20
-41.9346414862
 10
-129.4371348776
 20
-41.9581083304
 10
-129.4484345016
 20
-41.9807047196
 10
-129.4615969753
 20
-42.0022702725
 10
-129.4765288762
 20
-42.0226519245
 10
-129.4931242228
 20
-42.0417050139
 10
-129.5112652273
 20
-42.0592943085
 10
-129.5308231312
 20
-42.0752949657
 10
-129.5516591193
 20
-42.0895934187
 10
-129.5736253052
 20
-42.1020881819
 10
-129.5965657807
 20
-42.1126905722
 10
-129.6203177222
 20
-42.1213253374
  0
LWPOLYLINE
  5
5D3
100
AcDbEntity
  8
RACCORDO
100
AcDbPolyline
 62
253
  6
CONTINUOUS
 90
10
 70
0
 10
-129.4108946551
 20
-41.7202462284
 10
-129.4119656367
 20
-41.745562183
 10
-129.4151709357
 20
-41.7706973847
 10
-129.4204876667
 20
-41.7954723713
 10
-129.4278778689
 20
-41.8197102524
 10
-129.4372887772
 20
-41.8432379723
 10
-129.4486531987
 20
-41.8658875459
 10
-129.4618899929
 20
-41.8874972581
 10
-129.4769046507
 20
-41.907912818
 10
-129.4935899691
 20
-41.9269884611
  0
LWPOLYLINE
  5
5D4
100
AcDbEntity
  8
RACCORDO
100
AcDbPolyline
 62
253
  6
CONTINUOUS
 90
8
 70
0
 10
-129.410894655
 20
-41.4817852627
 10
-129.4119805964
 20
-41.5072286374
 10
-129.4152305575
 20
-41.532487812
 10
-129.4206210099
 20
-41.5573799201
 10
-129.4281129289
 20
-41.5817247527
 10
-129.4376520759
 20
-41.6053460629
 10
-129.4491693912
 20
-41.6280728416
 10
-129.4625814941
 20
-41.6497405559
  0
LWPOLYLINE
  5
5D5
100
AcDbEntity
  8
RACCORDO
100
AcDbPolyline
 62
253
  6
CONTINUOUS
 90
6
 70
0
 10
-132.9969721051
 20
-43.1184172332
 10
-133.0008466652
 20
-43.1408995598
 10
-133.0048682639
 20
-43.1614256207
 10
-133.0090272227
 20
-43.180070313
 10
-133.0131834117
 20
-43.1964288741
 10
-133.0155579453
 20
-43.204866057
  0
LINE
  5
5D6
100
AcDbEntity
  8
RACCORDO
100
AcDbLine
 62
253
  6
CONTINUOUS
 10
-136.0930441392
 20
-45.0044994977
 11
-135.9614911894
 21
-44.4060893457
  0
LINE
  5
5D7
100
AcDbEntity
  8
RACCORDO
100
AcDbLine
 62
253
  6
CONTINUOUS
 10
-135.824635734
 20
-45.2464608375
 11
-135.6928553774
 21
-44.6492291097
  0
LINE
  5
5D8
100
AcDbEntity
  8
RACCORDO
100
AcDbLine
 62
253
  6
CONTINUOUS
 10
-135.9614911894
 20
-44.4060893457
 11
-135.7937523536
 21
-43.659534494
  0
LINE
  5
5D9
100
AcDbEntity
  8
RACCORDO
100
AcDbLine
 62
253
  6
CONTINUOUS
 10
-135.6928553774
 20
-44.6492291097
 11
-135.5248406266
 21
-43.9041441491
  0
LWPOLYLINE
  5
5DA
100
AcDbEntity
  8
RACCORDO
100
AcDbPolyline
 62
253
  6
CONTINUOUS
 90
10
 70
0
 10
-135.7934051832
 20
-43.6580070846
 10
-135.789847242
 20
-43.6436731284
 10
-135.7856815811
 20
-43.6292633498
 10
-135.7809082205
 20
-43.6147777448
 10
-135.7755271849
 20
-43.6002162574
 10
-135.7695384922
 20
-43.5855789353
 10
-135.7629421579
 20
-43.5708659296
 10
-135.7557382084
 20
-43.5560772879
 10
-135.7479266762
 20
-43.5412129542
 10
-135.7276631164
 20
-43.5051628033
  0
LWPOLYLINE
  5
5DB
100
AcDbEntity
  8
RACCORDO
100
AcDbPolyline
 62
253
  6
CONTINUOUS
 90
10
 70
0
 10
-135.5244928992
 20
-43.9026196049
 10
-135.5209358503
 20
-43.8883126044
 10
-135.5167717276
 20
-43.8739298885
 10
-135.512000532
 20
-43.8594714448
 10
-135.5066222648
 20
-43.8449372667
 10
-135.5006369524
 20
-43.8303274166
 10
-135.4940446367
 20
-43.8156419873
 10
-135.4868453469
 20
-43.8008810384
 10
-135.479039079
 20
-43.7860445613
 10
-135.4587898688
 20
-43.7500116093
  0
LINE
  5
5DC
100
AcDbEntity
  8
RACCORDO
100
AcDbLine
 62
7
  6
CONTINUOUS
 10
-138.4132226337
 20
23.0734054627
 11
-138.0336975009
 21
22.5313874008
  0
LINE
  5
5DD
100
AcDbEntity
  8
RACCORDO
100
AcDbLine
 62
253
  6
CONTINUOUS
 10
-138.03303902
 20
22.7848252229
 11
-138.5389971339
 21
23.5083949612
  0
LINE
  5
5DE
100
AcDbEntity
  8
RACCORDO
100
AcDbLine
 62
253
  6
CONTINUOUS
 10
-135.5244928993
 20
43.049874579
 11
-135.6928570683
 21
43.796491659
  0
LINE
  5
5DF
100
AcDbEntity
  8
RACCORDO
100
AcDbLine
 62
253
  6
CONTINUOUS
 10
-135.7934051832
 20
42.8052620584
 11
-135.961492883
 21
43.5533519264
  0
LINE
  5
5E0
100
AcDbEntity
  8
RACCORDO
100
AcDbLine
 62
253
  6
CONTINUOUS
 10
-135.6928570683
 20
43.796491659
 11
-135.824635734
 21
44.3937158113
  0
LINE
  5
5E1
100
AcDbEntity
  8
RACCORDO
100
AcDbLine
 62
253
  6
CONTINUOUS
 10
-135.961492883
 20
43.5533519264
 11
-136.0930441392
 21
44.1517544715
  0
LWPOLYLINE
  5
5E2
100
AcDbEntity
  8
RACCORDO
100
AcDbPolyline
 62
253
  6
CONTINUOUS
 90
14
 70
0
 10
-132.9974633006
 20
42.2686839667
 10
-132.9937253118
 20
42.2444516059
 10
-132.9901988457
 20
42.2185273064
 10
-132.9868779851
 20
42.1908751501
 10
-132.9837731125
 20
42.1615664418
 10
-132.9809746412
 20
42.1316051938
 10
-132.9784910931
 20
42.1014953066
 10
-132.976272077
 20
42.0711114326
 10
-132.9742998188
 20
42.040660243
 10
-132.9725586235
 20
42.0103734515
 10
-132.9710264023
 20
41.9803336767
 10
-132.9696785959
 20
41.9504968211
 10
-132.9685043662
 20
41.9210696505
 10
-132.9674848181
 20
41.8920649139
  0
LINE
  5
5E3
100
AcDbEntity
  8
RACCORDO
100
AcDbLine
 62
253
  6
CONTINUOUS
 10
-133.6231223009
 20
-45.0923832179
 11
-133.6232918144
 21
-45.093176421
  0
LINE
  5
5E4
100
AcDbEntity
  8
RACCORDO
100
AcDbLine
 62
253
  6
CONTINUOUS
 10
-133.5908146722
 20
-44.9419921073
 11
-133.6228242532
 21
-45.090988929
  0
LINE
  5
5E5
100
AcDbEntity
  8
DRAFT
100
AcDbLine
 62
7
  6
CONTINUOUS
 10
-133.6400146298
 20
-44.8283625226
 11
-133.7682358723
 21
-45.4263725131
  0
LINE
  5
5E6
100
AcDbEntity
  8
RACCORDO
100
AcDbLine
 62
7
  6
CONTINUOUS
 10
-133.4799166468
 20
-44.8784189253
 11
-133.5033708202
 21
-44.9871654141
  0
LINE
  5
5E7
100
AcDbEntity
  8
RACCORDO
100
AcDbLine
 62
253
  6
CONTINUOUS
 10
-133.4466894876
 20
-44.2801593499
 11
-133.5908146722
 21
-44.9419921073
  0
LINE
  5
5E8
100
AcDbEntity
  8
0
100
AcDbLine
 62
7
  6
CONTINUOUS
 10
-133.062697473
 20
-43.3266923147
 11
-133.2372785558
 21
-44.1263725131
  0
LINE
  5
5E9
100
AcDbEntity
  8
RACCORDO
100
AcDbLine
 62
7
  6
CONTINUOUS
 10
-133.3361452498
 20
-44.2203750015
 11
-133.4799166468
 21
-44.8784189253
  0
LINE
  5
5EA
100
AcDbEntity
  8
DRAFT
100
AcDbLine
 62
7
  6
CONTINUOUS
 10
-133.4765719069
 20
-44.0832407125
 11
-133.6400146298
 21
-44.8283625226
  0
LINE
  5
5EB
100
AcDbEntity
  8
RACCORDO
100
AcDbLine
 62
253
  6
CONTINUOUS
 10
-133.3307916401
 20
-43.7585360598
 11
-133.4466894876
 21
-44.2801593499
  0
LINE
  5
5EC
100
AcDbEntity
  8
RACCORDO
100
AcDbLine
 62
7
  6
CONTINUOUS
 10
-133.208592154
 20
-43.6482852145
 11
-133.3361452498
 21
-44.2203750015
  0
LWPOLYLINE
  5
5ED
100
AcDbEntity
  8
RACCORDO
100
AcDbPolyline
 62
253
  6
CONTINUOUS
 90
3
 70
0
 10
-129.410894655
 20
-29.1321430289
 10
-129.4119001785
 20
-29.1356185843
 10
-129.414909982
 20
-29.1390709289
  0
LWPOLYLINE
  5
5EE
100
AcDbEntity
  8
RACCORDO
100
AcDbPolyline
 62
253
  6
CONTINUOUS
 90
18
 70
0
 10
-135.6108120909
 20
-43.2430019258
 10
-135.6007868906
 20
-43.211072186
 10
-135.5917295436
 20
-43.174873819
 10
-135.5836837838
 20
-43.1344062338
 10
-135.5768184752
 20
-43.089121574
 10
-135.5710462339
 20
-43.0395662422
 10
-135.56601923
 20
-42.9873812441
 10
-135.5617367997
 20
-42.9327505579
 10
-135.5582611177
 20
-42.8754891777
 10
-135.5553288441
 20
-42.8166851411
 10
-135.5529356385
 20
-42.7564903202
 10
-135.5511321802
 20
-42.6947521951
 10
-135.5497289976
 20
-42.6321025871
 10
-135.5487249795
 20
-42.5685018973
 10
-135.5481547202
 20
-42.5039893146
 10
-135.5478779279
 20
-42.4393151658
 10
-135.5479053188
 20
-42.3744444134
 10
-135.548804918
 20
-42.2450737956
  0
LWPOLYLINE
  5
5EF
100
AcDbEntity
  8
RACCORDO
100
AcDbPolyline
 62
253
  6
CONTINUOUS
 90
17
 70
0
 10
-135.3420097606
 20
-43.4877010672
 10
-135.3317563834
 20
-43.4565149889
 10
-135.322749656
 20
-43.4194673934
 10
-135.3148880019
 20
-43.3773478753
 10
-135.3080812739
 20
-43.3310100549
 10
-135.3022250092
 20
-43.2811057121
 10
-135.2972144476
 20
-43.2279784546
 10
-135.2929746357
 20
-43.1722162695
 10
-135.2894302286
 20
-43.1143851387
 10
-135.286503341
 20
-43.0545844497
 10
-135.2841380656
 20
-42.9932385034
 10
-135.2822793584
 20
-42.9307708591
 10
-135.2808750563
 20
-42.8670936552
 10
-135.279882745
 20
-42.8023710076
 10
-135.2792650258
 20
-42.737026661
 10
-135.2789903129
 20
-42.6712641552
 10
-135.2793297541
 20
-42.5393857056
  0
LINE
  5
5F0
100
AcDbEntity
  8
RACCORDO
100
AcDbLine
 62
253
  6
CONTINUOUS
 10
-138.5389971339
 20
-24.3611399874
 11
-138.03303902
 21
-23.6375702491
  0
LINE
  5
5F1
100
AcDbEntity
  8
RACCORDO
100
AcDbLine
 62
7
  6
CONTINUOUS
 10
-138.4132226337
 20
-23.9261504889
 11
-138.0336971569
 21
-23.3841319357
  0
LWPOLYLINE
  5
5F2
100
AcDbEntity
  8
RACCORDO
100
AcDbPolyline
 62
253
  6
CONTINUOUS
 90
8
 70
0
 10
-129.410894655
 20
28.237646452
 10
-129.4118999041
 20
28.2411039284
 10
-129.4149088767
 20
28.2445382341
 10
-129.4199014082
 20
28.2479263541
 10
-129.426844041
 20
28.2512455828
 10
-129.4356902487
 20
28.2544736762
 10
-129.4463807482
 20
28.2575890012
 10
-129.4588438968
 20
28.2605706803
  0
LWPOLYLINE
  5
5F3
100
AcDbEntity
  8
RACCORDO
100
AcDbPolyline
 62
253
  6
CONTINUOUS
 90
3
 70
0
 10
-129.4108946551
 20
28.2793980027
 10
-129.411899977
 20
28.2829045198
 10
-129.414909577
 20
28.2863873583
  0
LWPOLYLINE
  5
5F4
100
AcDbEntity
  8
RACCORDO
100
AcDbPolyline
 62
253
  6
CONTINUOUS
 90
6
 70
0
 10
-133.0155513232
 20
42.3520983508
 10
-133.0132505927
 20
42.3439312368
 10
-133.0092278903
 20
42.3281649038
 10
-133.0052309476
 20
42.3104058531
 10
-133.0013115914
 20
42.2906658693
 10
-132.9974633006
 20
42.2686839667
  0
LWPOLYLINE
  5
5F5
100
AcDbEntity
  8
0
100
AcDbPolyline
 62
7
  6
CONTINUOUS
 90
18
 70
0
 10
-132.7518966639
 20
41.4974829578
 10
-132.7446470845
 20
41.4708444592
 10
-132.7380386009
 20
41.4403545601
 10
-132.7317824818
 20
41.4044176478
 10
-132.7260114491
 20
41.3630483775
 10
-132.7208973672
 20
41.3173401552
 10
-132.7163893654
 20
41.267281026
 10
-132.7124424513
 20
41.2128908422
 10
-132.7091504988
 20
41.1560692601
 10
-132.7065198583
 20
41.0980093875
 10
-132.7044474428
 20
41.038134748
 10
-132.7028595729
 20
40.975958461
 10
-132.7017207128
 20
40.9122277519
 10
-132.7009829242
 20
40.8466124231
 10
-132.7006210614
 20
40.7765282336
 10
-132.7006774476
 20
40.7004424468
 10
-132.7011911221
 20
40.6194572107
 10
-132.7021576056
 20
40.5347281412
  0
LWPOLYLINE
  5
5F6
100
AcDbEntity
  8
RACCORDO
100
AcDbPolyline
 62
7
  6
CONTINUOUS
 90
3
 70
0
 10
-133.2085036901
 20
42.7952538158
 10
-133.2051052393
 20
42.7814992159
 10
-133.2009003979
 20
42.7668643523
  0
LWPOLYLINE
  5
5F7
100
AcDbEntity
  8
DRAFT
100
AcDbPolyline
 62
7
  6
CONTINUOUS
 90
9
 70
0
 10
-133.4765719069
 20
43.2304956863
 10
-133.4730530884
 20
43.2160224103
 10
-133.4689079952
 20
43.2014720272
 10
-133.4641366504
 20
43.1868445325
 10
-133.4587390855
 20
43.1721398766
 10
-133.4527153181
 20
43.1573581002
 10
-133.446065353
 20
43.1424993348
 10
-133.4387892112
 20
43.1275636213
 10
-133.4308869297
 20
43.1125509097
  0
LINE
  5
5F8
100
AcDbEntity
  8
RACCORDO
100
AcDbLine
 62
253
  6
CONTINUOUS
 10
-133.3459034756
 20
43.4118590373
 11
-133.208592154
 21
42.7955401883
  0
LINE
  5
5F9
100
AcDbEntity
  8
RACCORDO
100
AcDbLine
 62
253
  6
CONTINUOUS
 10
-133.4661042757
 20
43.515752285
 11
-133.330791633
 21
42.9057910146
  0
LINE
  5
5FA
100
AcDbEntity
  8
DRAFT
100
AcDbLine
 62
7
  6
CONTINUOUS
 10
-133.6400145525
 20
43.9756171395
 11
-133.4765719069
 21
43.2304956863
  0
LINE
  5
5FB
100
AcDbEntity
  8
0
100
AcDbLine
 62
7
  6
CONTINUOUS
 10
-133.2372785558
 20
43.2736274869
 11
-133.0626993752
 21
42.4739559169
  0
LINE
  5
5FC
100
AcDbEntity
  8
RACCORDO
100
AcDbLine
 62
253
  6
CONTINUOUS
 10
-133.5038406319
 20
44.1366076832
 11
-133.3459034756
 21
43.4118590373
  0
LINE
  5
5FD
100
AcDbEntity
  8
RACCORDO
100
AcDbLine
 62
253
  6
CONTINUOUS
 10
-133.6233456288
 20
44.24068296
 11
-133.4661042757
 21
43.515752285
  0
LINE
  5
5FE
100
AcDbEntity
  8
DRAFT
100
AcDbLine
 62
7
  6
CONTINUOUS
 10
-133.7682358723
 20
44.5736274869
 11
-133.6400145525
 21
43.9756171395
  0
LINE
  5
5FF
100
AcDbEntity
  8
RACCORDO
100
AcDbLine
 62
253
  6
CONTINUOUS
 10
-129.4119656681
 20
40.8924577491
 11
-129.4151710584
 21
40.9175933216
  0
LWPOLYLINE
  5
600
100
AcDbEntity
  8
RACCORDO
100
AcDbPolyline
 62
253
  6
CONTINUOUS
 90
3
 70
0
 10
-133.2009006032
 20
-43.6196100448
 10
-133.2051052393
 20
-43.6342442421
 10
-133.2085036901
 20
-43.647998842
  0
LINE
  5
601
100
AcDbEntity
  8
RACCORDO
100
AcDbLine
 62
7
  6
CONTINUOUS
 10
-133.0155579453
 20
-43.204866057
 11
-133.0172948977
 21
-43.2106531273
  0
LINE
  5
602
100
AcDbEntity
  8
RACCORDO
100
AcDbLine
 62
7
  6
CONTINUOUS
 10
-133.2008086149
 20
-43.6193118563
 11
-133.2009006032
 21
-43.6196100448
  0
LINE
  5
603
100
AcDbEntity
  8
SUPERFICI
100
AcDbLine
 62
7
  6
CONTINUOUS
 10
-133.0172961187
 20
-43.2106570858
 11
-132.7518867766
 21
-42.3502308952
  0
LINE
  5
604
100
AcDbEntity
  8
RACCORDO
100
AcDbLine
 62
253
  6
CONTINUOUS
 10
-133.1927008898
 20
-43.5968424619
 11
-133.208592154
 21
-43.6482852145
  0
LINE
  5
605
100
AcDbEntity
  8
RACCORDO
100
AcDbLine
 62
7
  6
CONTINUOUS
 10
-133.2372785558
 20
-44.1263725131
 11
-133.5038947202
 21
-44.9896047134
  0
LWPOLYLINE
  5
606
100
AcDbEntity
  8
RACCORDO
100
AcDbPolyline
 62
7
  6
CONTINUOUS
 90
9
 70
0
 10
-133.2008947941
 20
-43.6195897664
 10
-133.1978175451
 20
-43.61023187
 10
-133.1945519439
 20
-43.6013924445
 10
-133.1908663914
 20
-43.5923331739
 10
-133.1867750999
 20
-43.5830879791
 10
-133.1823171122
 20
-43.573735193
 10
-133.1775078133
 20
-43.5643043556
 10
-133.1723370893
 20
-43.5547797924
 10
-133.1680946837
 20
-43.5473600842
  0
LINE
  5
607
100
AcDbEntity
  8
RACCORDO
100
AcDbLine
 62
7
  6
CONTINUOUS
 10
-133.0295088401
 20
-43.2454145821
 11
-133.017308463
 21
-43.210653352
  0
LINE
  5
608
100
AcDbEntity
  8
RACCORDO
100
AcDbLine
 62
253
  6
CONTINUOUS
 10
-133.2085921224
 20
-43.6482850743
 11
-133.2133419374
 21
-43.6614466439
  0
LWPOLYLINE
  5
609
100
AcDbEntity
  8
RACCORDO
100
AcDbPolyline
 62
7
  6
CONTINUOUS
 90
8
 70
0
 10
-129.4108946551
 20
-29.0904538924
 10
-129.4119002176
 20
-29.0931229525
 10
-129.4149096497
 20
-29.0958976358
 10
-129.4199027819
 20
-29.0987549152
 10
-129.4268461501
 20
-29.10167058
 10
-129.4356932197
 20
-29.1046194535
 10
-129.4463846974
 20
-29.1075756222
 10
-129.4588489288
 20
-29.1105126954
  0
LWPOLYLINE
  5
60A
100
AcDbEntity
  8
RACCORDO
100
AcDbPolyline
 62
253
  6
CONTINUOUS
 90
8
 70
0
 10
-129.410894655
 20
-25.2793358651
 10
-129.4118755858
 20
-25.2813733112
 10
-129.4148119538
 20
-25.2833973906
 10
-129.4196845567
 20
-25.2853948284
 10
-129.4264615301
 20
-25.2873525238
 10
-129.4350985559
 20
-25.289257636
 10
-129.4455391522
 20
-25.2910976681
 10
-129.4577150427
 20
-25.2928605487
  0
LWPOLYLINE
  5
60B
100
AcDbEntity
  8
RACCORDO
100
AcDbPolyline
 62
253
  6
CONTINUOUS
 90
8
 70
0
 10
-129.410894655
 20
-25.2509597311
 10
-129.4118754389
 20
-25.2529745974
 10
-129.4148113715
 20
-25.254976321
 10
-129.4196832562
 20
-25.2569518443
 10
-129.4264592379
 20
-25.258888281
 10
-129.4350950116
 20
-25.2607730003
 10
-129.4455341119
 20
-25.2625937097
 10
-129.4577082825
 20
-25.264338535
  0
LWPOLYLINE
  5
60C
100
AcDbEntity
  8
RACCORDO
100
AcDbPolyline
 62
253
  6
CONTINUOUS
 90
15
 70
0
 10
-129.410894655
 20
-24.5946626199
 10
-129.4118722479
 20
-24.5966681461
 10
-129.4147986977
 20
-24.5986606034
 10
-129.4196549316
 20
-24.6006270078
 10
-129.4264092993
 20
-24.6025545453
 10
-129.4350177798
 20
-24.6044306551
 10
-129.445424268
 20
-24.6062431115
 10
-129.4575609402
 20
-24.6079801037
 10
-129.4713486966
 20
-24.6096303129
 10
-129.4866976766
 20
-24.6111829857
 10
-129.5035078441
 20
-24.6126280044
 10
-129.5216696403
 20
-24.6139559531
 10
-129.5410646968
 20
-24.6151581787
 10
-129.5615666078
 20
-24.6162268476
 10
-129.5830417536
 20
-24.6171549965
  0
LWPOLYLINE
  5
60D
100
AcDbEntity
  8
RACCORDO
100
AcDbPolyline
 62
253
  6
CONTINUOUS
 90
16
 70
0
 10
-129.410894655
 20
23.7419175937
 10
-129.411872268
 20
23.7439237404
 10
-129.4147987357
 20
23.7459168054
 10
-129.4196549851
 20
23.7478837982
 10
-129.426409366
 20
23.7498118965
 10
-129.4350178572
 20
23.7516885343
 10
-129.4454243536
 20
23.753501483
 10
-129.4575610315
 20
23.7552389257
 10
-129.4713487913
 20
23.7568895374
 10
-129.4866977722
 20
23.758442563
 10
-129.5035079384
 20
23.7598878795
 10
-129.5216697311
 20
23.7612160659
 10
-129.5410647822
 20
23.7624184683
 10
-129.561566686
 20
23.7634872501
 10
-129.5830418229
 20
23.7644154433
 10
-130.0456424786
 20
23.7806151696
  0
LWPOLYLINE
  5
60E
100
AcDbEntity
  8
RACCORDO
100
AcDbPolyline
 62
253
  6
CONTINUOUS
 90
8
 70
0
 10
-129.410894655
 20
24.4265908389
 10
-129.4118755914
 20
24.4286095753
 10
-129.4148119762
 20
24.4306151497
 10
-129.4196846069
 20
24.432594485
 10
-129.4264616185
 20
24.4345346759
 10
-129.4350986927
 20
24.4364230729
 10
-129.4455393468
 20
24.4382473652
 10
-129.4577153037
 20
24.4399956614
  0
LWPOLYLINE
  5
60F
100
AcDbEntity
  8
RACCORDO
100
AcDbPolyline
 62
253
  6
CONTINUOUS
 90
8
 70
0
 10
-129.410894655
 20
24.3982147049
 10
-129.4118754389
 20
24.4002444816
 10
-129.4148113621
 20
24.4022609541
 10
-129.419683228
 20
24.4042509073
 10
-129.4264591819
 20
24.4062012995
 10
-129.4350949192
 20
24.4080993476
 10
-129.445533975
 20
24.4099326108
 10
-129.4577080935
 20
24.4116890719
  0
LWPOLYLINE
  5
610
100
AcDbEntity
  8
RACCORDO
100
AcDbPolyline
 62
253
  6
CONTINUOUS
 90
10
 70
0
 10
-135.6108120909
 20
42.3902568996
 10
-135.6275728439
 20
42.4320903547
 10
-135.6437161941
 20
42.4713343285
 10
-135.6592433177
 20
42.5079892098
 10
-135.6741555764
 20
42.5420567809
 10
-135.6884534507
 20
42.5735359626
 10
-135.7021368553
 20
42.6024228141
 10
-135.7152064123
 20
42.6287162065
 10
-135.7276631371
 20
42.6524178218
 10
-135.7479266765
 20
42.6884679284
  0
LWPOLYLINE
  5
611
100
AcDbEntity
  8
RACCORDO
100
AcDbPolyline
 62
253
  6
CONTINUOUS
 90
10
 70
0
 10
-135.3420097596
 20
42.6349560322
 10
-135.3587607443
 20
42.6768103909
 10
-135.374894956
 20
42.7160768107
 10
-135.3904132442
 20
42.7527541414
 10
-135.4053165301
 20
42.7868414282
 10
-135.4196053914
 20
42.8183374844
 10
-135.4332801901
 20
42.8472409304
 10
-135.4463414799
 20
42.8735508203
 10
-135.4587898694
 20
42.897266584
 10
-135.4790390805
 20
42.9332995379
  0
LWPOLYLINE
  5
612
100
AcDbEntity
  8
RACCORDO
100
AcDbPolyline
 62
253
  6
CONTINUOUS
 90
21
 70
0
 10
-133.1461564639
 20
42.4843441009
 10
-133.1421609243
 20
42.4736153308
 10
-133.1381382258
 20
42.4613336783
 10
-133.1341055806
 20
42.4473605763
 10
-133.1300695993
 20
42.4315042885
 10
-133.1260613676
 20
42.4136529859
 10
-133.1221315627
 20
42.3938140306
 10
-133.1182731164
 20
42.3717132592
 10
-133.1145275827
 20
42.3473468429
 10
-133.1109980105
 20
42.3212930706
 10
-133.107675418
 20
42.2935030623
 10
-133.1045689807
 20
42.2640315119
 10
-133.1017716901
 20
42.2339114955
 10
-133.0992915686
 20
42.2036492038
 10
-133.0970768335
 20
42.1731013136
 10
-133.0951102824
 20
42.1424878355
 10
-133.0933761599
 20
42.1120459169
 10
-133.0918519861
 20
42.0818481438
 10
-133.0905129031
 20
42.0518468109
 10
-133.0893481508
 20
42.0222611471
 10
-133.0883387846
 20
41.9931081327
  0
LINE
  5
613
100
AcDbEntity
  8
RACCORDO
100
AcDbLine
 62
253
  6
CONTINUOUS
 10
-133.2085036965
 20
42.7952539624
 11
-133.2132582737
 21
42.8084270583
  0
LINE
  5
614
100
AcDbEntity
  8
RACCORDO
100
AcDbLine
 62
7
  6
CONTINUOUS
 10
-133.0176594363
 20
42.3590446815
 11
-133.0295355584
 21
42.3927355725
  0
LWPOLYLINE
  5
615
100
AcDbEntity
  8
DRAFT
100
AcDbPolyline
 62
7
  6
CONTINUOUS
 90
15
 70
0
 10
-133.2931466862
 20
42.8136274871
 10
-133.2781841784
 20
42.765370977
 10
-133.2652790188
 20
42.7014742432
 10
-133.2544232275
 20
42.6219332715
 10
-133.2455987338
 20
42.5265724117
 10
-133.238788636
 20
42.4155563739
 10
-133.2339909571
 20
42.2893904985
 10
-133.2312054244
 20
42.1480314133
 10
-133.2303933951
 20
41.991506716
 10
-133.2315100173
 20
41.8204275797
 10
-133.2345331065
 20
41.6349446127
 10
-133.2394369822
 20
41.4348877983
 10
-133.2461756391
 20
41.2203868527
 10
-133.2547072715
 20
40.991295914
 10
-133.2649951292
 20
40.7477377943
  0
LINE
  5
616
100
AcDbEntity
  8
RACCORDO
100
AcDbLine
 62
253
  6
CONTINUOUS
 10
-133.1766490322
 20
42.6921348142
 11
-133.2008086149
 21
42.7665668301
  0
LINE
  5
617
100
AcDbEntity
  8
RACCORDO
100
AcDbLine
 62
253
  6
CONTINUOUS
 10
-133.2009006032
 20
42.7668650186
 11
-133.208592154
 21
42.7955401883
  0
LINE
  5
618
100
AcDbEntity
  8
RACCORDO
100
AcDbLine
 62
7
  6
CONTINUOUS
 10
-133.2372785558
 20
43.2736274869
 11
-133.5038947202
 21
44.1368596872
  0
LINE
  5
619
100
AcDbEntity
  8
RACCORDO
100
AcDbLine
 62
7
  6
CONTINUOUS
 10
-133.2008086149
 20
42.7665668301
 11
-133.2009006032
 21
42.7668650186
  0
LINE
  5
61A
100
AcDbEntity
  8
SUPERFICI
100
AcDbLine
 62
7
  6
CONTINUOUS
 10
-132.7518868156
 20
41.4974859956
 11
-133.0172961197
 21
42.3579120628
  0
LINE
  5
61B
100
AcDbEntity
  8
RACCORDO
100
AcDbLine
 62
7
  6
CONTINUOUS
 10
-133.0155514493
 20
42.3520987366
 11
-133.0176594363
 21
42.3590446815
  0
LWPOLYLINE
  5
61C
100
AcDbEntity
  8
RACCORDO
100
AcDbPolyline
 62
253
  6
CONTINUOUS
 90
8
 70
0
 10
-129.4151709366
 20
40.9179523713
 10
-129.4204876682
 20
40.942727364
 10
-129.4278778709
 20
40.9669652509
 10
-129.4372887796
 20
40.9904929763
 10
-129.4486532016
 20
41.0131425551
 10
-129.4618899962
 20
41.0347522719
 10
-129.4769046544
 20
41.055167836
 10
-129.4935899731
 20
41.0742434826
  0
LWPOLYLINE
  5
61D
100
AcDbEntity
  8
DRAFT
100
AcDbPolyline
 62
7
  6
CONTINUOUS
 90
9
 70
0
 10
-133.2931466862
 20
-43.6663725134
 10
-133.309960653
 20
-43.70829109
 10
-133.3261580787
 20
-43.7476143633
 10
-133.3417402005
 20
-43.7843427436
 10
-133.3567083421
 20
-43.8184778643
 10
-133.3710631457
 20
-43.8500188341
 10
-133.3848048247
 20
-43.8789622377
 10
-133.3979340689
 20
-43.9053071312
 10
-133.4104517916
 20
-43.9290550422
  0
LINE
  5
61E
100
AcDbEntity
  8
RACCORDO
100
AcDbLine
 62
7
  6
CONTINUOUS
 10
-133.0431131147
 20
-43.2792753041
 11
-133.0295053294
 21
-43.2454045862
  0
LWPOLYLINE
  5
61F
100
AcDbEntity
  8
RACCORDO
100
AcDbPolyline
 62
253
  6
CONTINUOUS
 90
4
 70
0
 10
-133.1461564578
 20
-43.3370891119
 10
-133.1629795752
 20
-43.3789119239
 10
-133.1791775244
 20
-43.4181269322
 10
-133.1947519586
 20
-43.4547363779
  0
LWPOLYLINE
  5
620
100
AcDbEntity
  8
0
100
AcDbPolyline
 62
7
  6
CONTINUOUS
 90
10
 70
0
 10
-132.7593928993
 20
-42.3717057782
 10
-132.7759955578
 20
-42.4129186912
 10
-132.7919914409
 20
-42.4515914161
 10
-132.8073818343
 20
-42.4877214505
 10
-132.8221683951
 20
-42.5213083849
 10
-132.8363494623
 20
-42.5523505284
 10
-132.8499216694
 20
-42.5808445707
 10
-132.8628843266
 20
-42.6067903547
 10
-132.875242688
 20
-42.6301874514
 10
-132.8870026283
 20
-42.6510332556
  0
LINE
  5
621
100
AcDbEntity
  8
RACCORDO
100
AcDbLine
 62
7
  6
CONTINUOUS
 10
-133.0594762365
 20
-43.3190754479
 11
-133.0431131147
 21
-43.2792753041
  0
LWPOLYLINE
  5
622
100
AcDbEntity
  8
RACCORDO
100
AcDbPolyline
 62
7
  6
CONTINUOUS
 90
3
 70
0
 10
-133.091692597
 20
-43.3940541633
 10
-133.0756943872
 20
-43.3574245392
 10
-133.0594762365
 20
-43.3190754479
  0
LWPOLYLINE
  5
623
100
AcDbEntity
  8
RACCORDO
100
AcDbPolyline
 62
253
  6
CONTINUOUS
 90
3
 70
0
 10
-133.1947519586
 20
-43.4547363779
 10
-133.209705184
 20
-43.4887436699
 10
-133.2240379582
 20
-43.5201498956
  0
LINE
  5
624
100
AcDbEntity
  8
RACCORDO
100
AcDbLine
 62
7
  6
CONTINUOUS
 10
-133.1074875303
 20
-43.4289109407
 11
-133.091692597
 21
-43.3940541633
  0
LINE
  5
625
100
AcDbEntity
  8
RACCORDO
100
AcDbLine
 62
253
  6
CONTINUOUS
 10
-133.0295088222
 20
-43.2454145894
 11
-133.0359534792
 21
-43.2592580771
  0
LWPOLYLINE
  5
626
100
AcDbEntity
  8
RACCORDO
100
AcDbPolyline
 62
253
  6
CONTINUOUS
 90
5
 70
0
 10
-133.2133419374
 20
-43.6614466439
 10
-133.2192991686
 20
-43.6741078853
 10
-133.2264119074
 20
-43.6861584682
 10
-133.2346181766
 20
-43.6974933826
 10
-133.2438464714
 20
-43.7080138554
  0
LWPOLYLINE
  5
627
100
AcDbEntity
  8
RACCORDO
100
AcDbPolyline
 62
253
  6
CONTINUOUS
 90
3
 70
0
 10
-133.2240379582
 20
-43.5201498956
 10
-133.2377497953
 20
-43.5489546021
 10
-133.2508416724
 20
-43.5751601589
  0
LWPOLYLINE
  5
628
100
AcDbEntity
  8
RACCORDO
100
AcDbPolyline
 62
253
  6
CONTINUOUS
 90
9
 70
0
 10
-135.4587898688
 20
-43.7500116093
 10
-135.4463414805
 20
-43.726295848
 10
-135.433280191
 20
-43.6999859588
 10
-135.4196053909
 20
-43.6710825092
 10
-135.4053165268
 20
-43.6395864461
 10
-135.3904132392
 20
-43.6054991547
 10
-135.3748949515
 20
-43.5688218248
 10
-135.3587607418
 20
-43.5295554099
 10
-135.3420097607
 20
-43.4877010611
  0
LWPOLYLINE
  5
629
100
AcDbEntity
  8
RACCORDO
100
AcDbPolyline
 62
253
  6
CONTINUOUS
 90
9
 70
0
 10
-135.7276631164
 20
-43.5051628033
 10
-135.7152063722
 20
-43.4814611484
 10
-135.7021367981
 20
-43.4551677213
 10
-135.6884533787
 20
-43.4262808317
 10
-135.6741554938
 20
-43.3948016168
 10
-135.659243234
 20
-43.3607340423
 10
-135.6437161228
 20
-43.3240791958
 10
-135.6275727997
 20
-43.2848352865
 10
-135.6108120909
 20
-43.2430019258
  0
LINE
  5
62A
100
AcDbEntity
  8
RACCORDO
100
AcDbLine
 62
253
  6
CONTINUOUS
 10
-136.309000184
 20
23.9632573875
 11
-134.3211001293
 21
23.9802364522
  0
LINE
  5
62B
100
AcDbEntity
  8
RACCORDO
100
AcDbLine
 62
253
  6
CONTINUOUS
 10
-137.9576517902
 20
24.0881001318
 11
-136.5754887112
 21
24.0881001319
  0
LINE
  5
62C
100
AcDbEntity
  8
0
100
AcDbLine
 62
253
  6
CONTINUOUS
 10
-137.9576517902
 20
24.0881001318
 11
-138.510894655
 21
24.0881001318
  0
LINE
  5
62D
100
AcDbEntity
  8
RACCORDO
100
AcDbLine
 62
253
  6
CONTINUOUS
 10
-132.769485752
 20
23.8452845595
 11
-133.6986126818
 21
23.8559950999
  0
LINE
  5
62E
100
AcDbEntity
  8
RACCORDO
100
AcDbLine
 62
253
  6
CONTINUOUS
 10
-131.8486863047
 20
23.8291076221
 11
-132.769485752
 21
23.8452845595
  0
LINE
  5
62F
100
AcDbEntity
  8
RACCORDO
100
AcDbLine
 62
253
  6
CONTINUOUS
 10
-130.939604282
 20
23.8075239038
 11
-131.8486863047
 21
23.8291076221
  0
LINE
  5
630
100
AcDbEntity
  8
RACCORDO
100
AcDbLine
 62
253
  6
CONTINUOUS
 10
-130.0456424786
 20
23.7806151696
 11
-130.939604282
 21
23.8075239038
  0
LWPOLYLINE
  5
631
100
AcDbEntity
  8
RACCORDO
100
AcDbPolyline
 62
253
  6
CONTINUOUS
 90
9
 70
0
 10
-135.4790390805
 20
42.9332995379
 10
-135.4868453476
 20
42.9481360136
 10
-135.4940446368
 20
42.9628969613
 10
-135.5006369522
 20
42.97758239
 10
-135.5066222645
 20
42.9921922397
 10
-135.5120005317
 20
43.0067264177
 10
-135.5167717274
 20
43.0211848616
 10
-135.5209358502
 20
43.0355675779
 10
-135.5244928993
 20
43.049874579
  0
LWPOLYLINE
  5
632
100
AcDbEntity
  8
RACCORDO
100
AcDbPolyline
 62
253
  6
CONTINUOUS
 90
9
 70
0
 10
-135.7479266765
 20
42.6884679284
 10
-135.7557382087
 20
42.7033322623
 10
-135.7629421582
 20
42.718120904
 10
-135.7695384923
 20
42.7328339093
 10
-135.7755271848
 20
42.7474712309
 10
-135.7809082203
 20
42.762032718
 10
-135.7856815809
 20
42.776518323
 10
-135.7898472419
 20
42.7909281018
 10
-135.7934051832
 20
42.8052620585
  0
LWPOLYLINE
  5
633
100
AcDbEntity
  8
RACCORDO
100
AcDbPolyline
 62
253
  6
CONTINUOUS
 90
3
 70
0
 10
-133.2508416724
 20
42.7224151327
 10
-133.2377497953
 20
42.6962095759
 10
-133.2240379581
 20
42.667404869
  0
LWPOLYLINE
  5
634
100
AcDbEntity
  8
RACCORDO
100
AcDbPolyline
 62
7
  6
CONTINUOUS
 90
5
 70
0
 10
-133.1076594617
 20
42.5765376293
 10
-133.123373082
 20
42.6097521171
 10
-133.1390570252
 20
42.6412765543
 10
-133.1546670636
 20
42.670811882
 10
-133.1682042848
 20
42.6947434948
  0
LWPOLYLINE
  5
635
100
AcDbEntity
  8
RACCORDO
100
AcDbPolyline
 62
253
  6
CONTINUOUS
 90
5
 70
0
 10
-133.2132582737
 20
42.8084270583
 10
-133.2192223603
 20
42.821098835
 10
-133.2263438962
 20
42.8331586748
 10
-133.2345607175
 20
42.8445013009
 10
-133.2438011007
 20
42.8550276979
  0
LINE
  5
636
100
AcDbEntity
  8
RACCORDO
100
AcDbLine
 62
253
  6
CONTINUOUS
 10
-133.0295355584
 20
42.3927355725
 11
-133.0359534908
 21
42.4065130446
  0
LWPOLYLINE
  5
637
100
AcDbEntity
  8
RACCORDO
100
AcDbPolyline
 62
253
  6
CONTINUOUS
 90
3
 70
0
 10
-133.2240379581
 20
42.667404869
 10
-133.2097051836
 20
42.6359986429
 10
-133.1947519586
 20
42.6019913517
  0
LINE
  5
638
100
AcDbEntity
  8
RACCORDO
100
AcDbLine
 62
7
  6
CONTINUOUS
 10
-133.0918700753
 20
42.5417082942
 11
-133.1076594617
 21
42.5765376293
  0
LWPOLYLINE
  5
639
100
AcDbEntity
  8
RACCORDO
100
AcDbPolyline
 62
253
  6
CONTINUOUS
 90
4
 70
0
 10
-133.1947519586
 20
42.6019913517
 10
-133.1791775257
 20
42.565381909
 10
-133.1629795784
 20
42.5261669056
 10
-133.1461564638
 20
42.4843441009
  0
LWPOLYLINE
  5
63A
100
AcDbEntity
  8
RACCORDO
100
AcDbPolyline
 62
7
  6
CONTINUOUS
 90
3
 70
0
 10
-133.0596682546
 20
42.4667911012
 10
-133.075878599
 20
42.505108326
 10
-133.0918700753
 20
42.5417082942
  0
LINE
  5
63B
100
AcDbEntity
  8
RACCORDO
100
AcDbLine
 62
7
  6
CONTINUOUS
 10
-133.0433143489
 20
42.427026022
 11
-133.0596682546
 21
42.4667911012
  0
LINE
  5
63C
100
AcDbEntity
  8
RACCORDO
100
AcDbLine
 62
7
  6
CONTINUOUS
 10
-133.029181655
 20
42.3918539269
 11
-133.0433143489
 21
42.427026022
  0
LWPOLYLINE
  5
63D
100
AcDbEntity
  8
RACCORDO
100
AcDbPolyline
 62
253
  6
CONTINUOUS
 90
3
 70
0
 10
-133.2508416724
 20
-43.5751601589
 10
-133.2633157183
 20
-43.5987709565
 10
-133.2751733583
 20
-43.6197903622
  0
LWPOLYLINE
  5
63E
100
AcDbEntity
  8
DRAFT
100
AcDbPolyline
 62
7
  6
CONTINUOUS
 90
10
 70
0
 10
-133.4104517916
 20
-43.9290550422
 10
-133.4308869272
 20
-43.9652959314
 10
-133.4387892079
 20
-43.9803086409
 10
-133.4460653502
 20
-43.995244355
 10
-133.4527153178
 20
-44.0101031254
 10
-133.458739088
 20
-44.0248849093
 10
-133.4641366542
 20
-44.0395895697
 10
-133.4689079983
 20
-44.0542170638
 10
-133.4730530901
 20
-44.0687674432
 10
-133.4765719069
 20
-44.0832407125
  0
LWPOLYLINE
  5
63F
100
AcDbEntity
  8
RACCORDO
100
AcDbPolyline
 62
7
  6
CONTINUOUS
 90
5
 70
0
 10
-133.1682001413
 20
-43.5474814623
 10
-133.1544992993
 20
-43.5232501342
 10
-133.1388901079
 20
-43.4936953997
 10
-133.1232047973
 20
-43.4621497088
 10
-133.1074875303
 20
-43.4289109407
  0
LINE
  5
640
100
AcDbEntity
  8
RACCORDO
100
AcDbLine
 62
7
  6
CONTINUOUS
 10
-133.1680946837
 20
-43.5473600842
 11
-133.1681814177
 21
-43.5475082955
  0
LWPOLYLINE
  5
641
100
AcDbEntity
  8
RACCORDO
100
AcDbPolyline
 62
253
  6
CONTINUOUS
 90
11
 70
0
 10
-133.0359534792
 20
-43.2592580771
 10
-133.0430667505
 20
-43.2712905727
 10
-133.0512772386
 20
-43.282605062
 10
-133.0605131594
 20
-43.2931026226
 10
-133.0706937633
 20
-43.3026914748
 10
-133.0817300415
 20
-43.3112877833
 10
-133.093525504
 20
-43.3188163911
 10
-133.1059770232
 20
-43.3252114756
 10
-133.1189757357
 20
-43.330417125
 10
-133.1324079939
 20
-43.3343878265
 10
-133.1461563598
 20
-43.3370888645
  0
LINE
  5
642
100
AcDbEntity
  8
RACCORDO
100
AcDbLine
 62
253
  6
CONTINUOUS
 10
-133.6708168483
 20
-25.3666017144
 11
-133.9913855983
 21
-25.4697014062
  0
LINE
  5
643
100
AcDbEntity
  8
RACCORDO
100
AcDbLine
 62
253
  6
CONTINUOUS
 10
-133.6986126818
 20
-24.708740126
 11
-134.019367699
 21
-24.8080050969
  0
LWPOLYLINE
  5
644
100
AcDbEntity
  8
RACCORDO
100
AcDbPolyline
 62
253
  6
CONTINUOUS
 90
13
 70
0
 10
-134.0193676102
 20
-24.8080073416
 10
-134.0249100073
 20
-24.8096061493
 10
-134.0317028199
 20
-24.8111956434
 10
-134.0396832861
 20
-24.8127618967
 10
-134.0487776758
 20
-24.8142911965
 10
-134.0589019717
 20
-24.815770171
 10
-134.0699626454
 20
-24.8171859134
 10
-134.0818575207
 20
-24.8185261003
 10
-134.0944767177
 20
-24.8197791061
 10
-134.1077036672
 20
-24.8209341101
 10
-134.1214161873
 20
-24.8219811965
 10
-134.1354876119
 20
-24.822911446
 10
-134.1497879603
 20
-24.8237170181
  0
LWPOLYLINE
  5
645
100
AcDbEntity
  8
RACCORDO
100
AcDbPolyline
 62
253
  6
CONTINUOUS
 90
13
 70
0
 10
-133.9913840141
 20
-25.4697357403
 10
-133.9969307387
 20
-25.4713146047
 10
-134.0037256322
 20
-25.4728868194
 10
-134.0117060195
 20
-25.4744379685
 10
-134.0207982873
 20
-25.4759538213
 10
-134.0309185816
 20
-25.4774204905
 10
-134.0419735872
 20
-25.4788245599
 10
-134.05386136
 20
-25.4801531716
 10
-134.066472264
 20
-25.4813941478
 10
-134.0796900053
 20
-25.4825361287
 10
-134.0933926919
 20
-25.4835686663
 10
-134.1074539577
 20
-25.4844823201
 10
-134.1217441313
 20
-25.4852687468
  0
LINE
  5
646
100
AcDbEntity
  8
RACCORDO
100
AcDbLine
 62
253
  6
CONTINUOUS
 10
-134.2922311904
 20
24.6728743463
 11
-136.2807347043
 21
24.6547367352
  0
LINE
  5
647
100
AcDbEntity
  8
RACCORDO
100
AcDbLine
 62
253
  6
CONTINUOUS
 10
-132.7484426444
 20
24.5029600844
 11
-133.6708166724
 21
24.5138608348
  0
LINE
  5
648
100
AcDbEntity
  8
RACCORDO
100
AcDbLine
 62
253
  6
CONTINUOUS
 10
-132.7474574554
 20
24.5314492145
 11
-133.6695987202
 21
24.5423582627
  0
LINE
  5
649
100
AcDbEntity
  8
RACCORDO
100
AcDbLine
 62
253
  6
CONTINUOUS
 10
-131.8342070012
 20
24.4865251467
 11
-132.7484426444
 21
24.5029600844
  0
LINE
  5
64A
100
AcDbEntity
  8
RACCORDO
100
AcDbLine
 62
253
  6
CONTINUOUS
 10
-131.8334997798
 20
24.5150035195
 11
-132.7474574554
 21
24.5314492145
  0
LINE
  5
64B
100
AcDbEntity
  8
RACCORDO
100
AcDbLine
 62
253
  6
CONTINUOUS
 10
-130.9314206009
 20
24.4646146984
 11
-131.8342070012
 21
24.4865251467
  0
LINE
  5
64C
100
AcDbEntity
  8
RACCORDO
100
AcDbLine
 62
253
  6
CONTINUOUS
 10
-130.9310205805
 20
24.4930804653
 11
-131.8334997798
 21
24.5150035195
  0
LWPOLYLINE
  5
64D
100
AcDbEntity
  8
RACCORDO
100
AcDbPolyline
 62
253
  6
CONTINUOUS
 90
3
 70
0
 10
-129.5835383343
 20
24.4209479828
 10
-130.0433860568
 20
24.4373085793
 10
-130.9314206009
 20
24.4646146984
  0
LWPOLYLINE
  5
64E
100
AcDbEntity
  8
RACCORDO
100
AcDbPolyline
 62
253
  6
CONTINUOUS
 90
3
 70
0
 10
-129.5835627092
 20
24.4492292574
 10
-130.0432730604
 20
24.4657590735
 10
-130.9310205805
 20
24.4930804653
  0
LINE
  5
64F
100
AcDbEntity
  8
RACCORDO
100
AcDbLine
 62
253
  6
CONTINUOUS
 10
-134.1497881018
 20
23.9709684042
 11
-134.3211645026
 21
23.9788338537
  0
LINE
  5
650
100
AcDbEntity
  8
RACCORDO
100
AcDbLine
 62
253
  6
CONTINUOUS
 10
-134.1217442157
 20
24.6325217699
 11
-134.2938316617
 21
24.6412236697
  0
LWPOLYLINE
  5
651
100
AcDbEntity
  8
RACCORDO
100
AcDbPolyline
 62
253
  6
CONTINUOUS
 90
8
 70
0
 10
-129.4577153037
 20
24.4399956614
 10
-129.4715469382
 20
24.4416565668
 10
-129.4869437978
 20
24.4432192585
 10
-129.5038051939
 20
24.4446735557
 10
-129.5220208607
 20
24.4460099863
 10
-129.5414716761
 20
24.4472198492
 10
-129.5620304406
 20
24.448295271
 10
-129.5835627092
 20
24.4492292574
  0
LWPOLYLINE
  5
652
100
AcDbEntity
  8
RACCORDO
100
AcDbPolyline
 62
253
  6
CONTINUOUS
 90
8
 70
0
 10
-129.4577080935
 20
24.4116890719
 10
-129.4715376742
 20
24.413357216
 10
-129.4869322921
 20
24.4149261055
 10
-129.5037912896
 20
24.4163854519
 10
-129.5220044339
 20
24.4177256828
 10
-129.5414526383
 20
24.418938005
 10
-129.5620087405
 20
24.4200144612
 10
-129.5835383343
 20
24.4209479828
  0
LWPOLYLINE
  5
653
100
AcDbEntity
  8
RACCORDO
100
AcDbPolyline
 62
253
  6
CONTINUOUS
 90
13
 70
0
 10
-133.9917811407
 20
24.616924597
 10
-133.9973180194
 20
24.6185059205
 10
-134.0041063628
 20
24.6200819603
 10
-134.0120834239
 20
24.6216381812
 10
-134.0211754649
 20
24.6231602225
 10
-134.0312984561
 20
24.6246340573
 10
-134.0423588597
 20
24.6260461215
 10
-134.0542544654
 20
24.6273834033
 10
-134.0668753319
 20
24.6286335657
 10
-134.0801048266
 20
24.6297850873
 10
-134.0938206901
 20
24.6308273569
 10
-134.1078961657
 20
24.6317507712
 10
-134.1222011749
 20
24.6325468265
  0
LWPOLYLINE
  5
654
100
AcDbEntity
  8
RACCORDO
100
AcDbPolyline
 62
253
  6
CONTINUOUS
 90
13
 70
0
 10
-134.0193677519
 20
23.9552578168
 10
-134.0249101784
 20
23.9568558158
 10
-134.0317030171
 20
23.9584445886
 10
-134.0396835056
 20
23.9600102157
 10
-134.0487779137
 20
23.9615389913
 10
-134.0589022238
 20
23.9630175498
 10
-134.0699629072
 20
23.9644329892
 10
-134.0818577876
 20
23.9657729904
 10
-134.0944769851
 20
23.967025931
 10
-134.1077039301
 20
23.9681809924
 10
-134.121416441
 20
23.9692282599
 10
-134.1354878516
 20
23.9701588142
 10
-134.1497881812
 20
23.9709648138
  0
LINE
  5
655
100
AcDbEntity
  8
RACCORDO
100
AcDbLine
 62
253
  6
CONTINUOUS
 10
-133.6986126818
 20
23.8559950999
 11
-134.019367699
 21
23.9552600708
  0
LINE
  5
656
100
AcDbEntity
  8
RACCORDO
100
AcDbLine
 62
253
  6
CONTINUOUS
 10
-133.6708168483
 20
24.5138566882
 11
-133.9913855983
 21
24.61695638
  0
LWPOLYLINE
  5
657
100
AcDbEntity
  8
RACCORDO
100
AcDbPolyline
 62
253
  6
CONTINUOUS
 90
5
 70
0
 10
-133.1682042848
 20
42.6947434948
 10
-133.1721022849
 20
42.7010230898
 10
-133.1803174962
 20
42.7123621918
 10
-133.1895560959
 20
42.7228846471
 10
-133.1997374429
 20
42.7324986082
  0
LWPOLYLINE
  5
658
100
AcDbEntity
  8
RACCORDO
100
AcDbPolyline
 62
253
  6
CONTINUOUS
 90
11
 70
0
 10
-133.0359534908
 20
42.4065130446
 10
-133.0430667615
 20
42.4185455392
 10
-133.0512772489
 20
42.4298600275
 10
-133.0605131688
 20
42.4403575874
 10
-133.0706937718
 20
42.449946439
 10
-133.0817300489
 20
42.4585427472
 10
-133.0935255102
 20
42.4660713547
 10
-133.1059770282
 20
42.4724664393
 10
-133.1189757395
 20
42.4776720889
 10
-133.1324079964
 20
42.4816427909
 10
-133.1461563611
 20
42.4843438295
  0
LINE
  5
659
100
AcDbEntity
  8
RACCORDO
100
AcDbLine
 62
7
  6
CONTINUOUS
 10
-133.1681128679
 20
42.6945875591
 11
-133.1682042848
 21
42.6947434948
  0
LWPOLYLINE
  5
65A
100
AcDbEntity
  8
RACCORDO
100
AcDbPolyline
 62
7
  6
CONTINUOUS
 90
9
 70
0
 10
-133.168094318
 20
42.6946144313
 10
-133.172422838
 20
42.7021881725
 10
-133.1775750757
 20
42.7116871434
 10
-133.1823683965
 20
42.7210941542
 10
-133.186812695
 20
42.7304247449
 10
-133.1908924297
 20
42.7396494508
 10
-133.1945685784
 20
42.7486902673
 10
-133.1978268361
 20
42.7575133904
 10
-133.2008946168
 20
42.7668441545
  0
LWPOLYLINE
  5
65B
100
AcDbEntity
  8
0
100
AcDbPolyline
 62
7
  6
CONTINUOUS
 90
10
 70
0
 10
-132.8870026283
 20
41.7982882294
 10
-132.875242688
 20
41.7774424252
 10
-132.8628843266
 20
41.7540453285
 10
-132.8499216694
 20
41.7280995445
 10
-132.8363494623
 20
41.6996055022
 10
-132.8221683951
 20
41.6685633587
 10
-132.8073818343
 20
41.6349764243
 10
-132.7919914409
 20
41.5988463899
 10
-132.7759955578
 20
41.5601736651
 10
-132.7593928993
 20
41.518960752
  0
LWPOLYLINE
  5
65C
100
AcDbEntity
  8
RACCORDO
100
AcDbPolyline
 62
253
  6
CONTINUOUS
 90
3
 70
0
 10
-133.2751733583
 20
42.767045336
 10
-133.2633157183
 20
42.7460259303
 10
-133.2508416724
 20
42.7224151327
  0
LWPOLYLINE
  5
65D
100
AcDbEntity
  8
DRAFT
100
AcDbPolyline
 62
7
  6
CONTINUOUS
 90
10
 70
0
 10
-133.4308869297
 20
43.1125509097
 10
-133.4104518025
 20
43.0763100402
 10
-133.3979340896
 20
43.0525621488
 10
-133.3848048532
 20
43.0262172701
 10
-133.371063179
 20
42.9972738787
 10
-133.3567083767
 20
42.9657329164
 10
-133.3417402331
 20
42.9315977929
 10
-133.3261581055
 20
42.8948693977
 10
-133.3099606692
 20
42.8555460992
 10
-133.2931466862
 20
42.8136274871
  0
LWPOLYLINE
  5
65E
100
AcDbEntity
  8
RACCORDO
100
AcDbPolyline
 62
253
  6
CONTINUOUS
 90
5
 70
0
 10
-133.1681814177
 20
-43.5475082955
 10
-133.172130238
 20
-43.5538763742
 10
-133.1803401342
 20
-43.5652116116
 10
-133.1895726459
 20
-43.5757311015
 10
-133.1997472571
 20
-43.5853431042
  0
LWPOLYLINE
  5
65F
100
AcDbEntity
  8
RACCORDO
100
AcDbPolyline
 62
253
  6
CONTINUOUS
 90
9
 70
0
 10
-129.414909982
 20
-29.1390709289
 10
-129.4199038895
 20
-29.1424769788
 10
-129.4268484248
 20
-29.1458139597
 10
-129.435697036
 20
-29.1490595604
 10
-129.4463904073
 20
-29.1521920821
 10
-129.4588568566
 20
-29.1551905836
 10
-129.4730128165
 20
-29.1580350222
 10
-129.4887633938
 20
-29.1607063876
 10
-129.506003006
 20
-29.1631868297
  0
LINE
  5
660
100
AcDbEntity
  8
RACCORDO
100
AcDbLine
 62
253
  6
CONTINUOUS
 10
-133.4575346219
 20
-29.2692171738
 11
-133.7732588749
 21
-29.4358061379
  0
LWPOLYLINE
  5
661
100
AcDbEntity
  8
RACCORDO
100
AcDbPolyline
 62
253
  6
CONTINUOUS
 90
13
 70
0
 10
-133.7736530426
 20
-29.4358437933
 10
-133.7791267313
 20
-29.4383937491
 10
-133.7858486826
 20
-29.4409269806
 10
-133.7937569607
 20
-29.443420129
 10
-133.8027786943
 20
-29.4458502117
 10
-133.8128307686
 20
-29.4481948149
 10
-133.8238205982
 20
-29.450432299
 10
-133.8356469471
 20
-29.4525420245
 10
-133.8482008591
 20
-29.4545045416
 10
-133.8613666869
 20
-29.4563017489
 10
-133.8750231442
 20
-29.4579170691
 10
-133.8890444219
 20
-29.4593356008
 10
-133.9033013517
 20
-29.4605442554
  0
LINE
  5
662
100
AcDbEntity
  8
RACCORDO
100
AcDbLine
 62
253
  6
CONTINUOUS
 10
-134.0715335799
 20
28.6728743463
 11
-136.0661223515
 21
28.643051961
  0
LWPOLYLINE
  5
663
100
AcDbEntity
  8
RACCORDO
100
AcDbPolyline
 62
253
  6
CONTINUOUS
 90
9
 70
0
 10
-130.0253874089
 20
28.3012342705
 10
-130.4444904504
 20
28.3226765169
 10
-130.8671050692
 20
28.3421166473
 10
-131.2928800713
 20
28.3595254741
 10
-131.7214835993
 20
28.3749021891
 10
-132.1526041379
 20
28.3882740212
 10
-132.5859064367
 20
28.3996429294
 10
-133.0210310578
 20
28.4089859657
 10
-133.4576280287
 20
28.416295108
  0
LWPOLYLINE
  5
664
100
AcDbEntity
  8
RACCORDO
100
AcDbPolyline
 62
253
  6
CONTINUOUS
 90
9
 70
0
 10
-130.0251937802
 20
28.3429298856
 10
-130.444039536
 20
28.3643194182
 10
-130.8663883868
 20
28.3837402583
 10
-131.291900845
 20
28.4011771795
 10
-131.7202349412
 20
28.4166158403
 10
-132.151046499
 20
28.4300427736
 10
-132.5839892904
 20
28.4414468263
 10
-133.0187153134
 20
28.4508191898
 10
-133.4548751635
 20
28.4581523313
  0
LINE
  5
665
100
AcDbEntity
  8
RACCORDO
100
AcDbLine
 62
253
  6
CONTINUOUS
 10
-133.9033031757
 20
28.607771601
 11
-134.075527921
 21
28.6210442943
  0
LWPOLYLINE
  5
666
100
AcDbEntity
  8
RACCORDO
100
AcDbPolyline
 62
253
  6
CONTINUOUS
 90
9
 70
0
 10
-129.4588438968
 20
28.2605706803
 10
-129.4729961723
 20
28.2633987317
 10
-129.4887427326
 20
28.266054203
 10
-129.5059780516
 20
28.2685192986
 10
-129.5245866263
 20
28.2707774985
 10
-129.5444437507
 20
28.2728136694
 10
-129.5654163516
 20
28.2746141657
 10
-129.5873638803
 20
28.2761669214
 10
-130.0253874089
 20
28.3012342705
  0
LWPOLYLINE
  5
667
100
AcDbEntity
  8
RACCORDO
100
AcDbPolyline
 62
253
  6
CONTINUOUS
 90
13
 70
0
 10
-133.7732611482
 20
28.5830255284
 10
-133.7787447372
 20
28.5855734734
 10
-133.7854731328
 20
28.588105695
 10
-133.7933844777
 20
28.5905988396
 10
-133.802406034
 20
28.5930299199
 10
-133.8124548722
 20
28.5953765069
 10
-133.8234386408
 20
28.5976169352
 10
-133.8352563827
 20
28.5997305285
 10
-133.84779946
 20
28.601697789
 10
-133.860952579
 20
28.6035005566
 10
-133.8745948363
 20
28.605122184
 10
-133.8886008295
 20
28.6065476901
 10
-133.9028418143
 20
28.6077638959
  0
LINE
  5
668
100
AcDbEntity
  8
RACCORDO
100
AcDbLine
 62
253
  6
CONTINUOUS
 10
-133.4575346168
 20
28.4164721449
 11
-133.7732588749
 21
28.5830611117
  0
LWPOLYLINE
  5
669
100
AcDbEntity
  8
RACCORDO
100
AcDbPolyline
 62
253
  6
CONTINUOUS
 90
14
 70
0
 10
-129.414909577
 20
28.2863873583
 10
-129.4199032804
 20
28.2898230698
 10
-129.4268476127
 20
28.2931885221
 10
-129.435696023
 20
28.2964610546
 10
-129.4463891972
 20
28.2996186303
 10
-129.4588554548
 20
28.3026399832
 10
-129.4730112294
 20
28.3055047611
 10
-129.4887616295
 20
28.3081936618
 10
-129.5060010739
 20
28.3106885628
 10
-129.524614
 20
28.3129726425
 10
-129.544475638
 20
28.3150304932
 10
-129.5654528476
 20
28.3168482239
 10
-129.5874050104
 20
28.318413554
 10
-130.0251937802
 20
28.3429298856
  0
LWPOLYLINE
  5
66A
100
AcDbEntity
  8
RACCORDO
100
AcDbPolyline
 62
253
  6
CONTINUOUS
 90
10
 70
0
 10
-129.4491715778
 20
40.7741019994
 10
-129.4625844426
 20
40.7957701039
 10
-129.4777950852
 20
40.8162221693
 10
-129.4946933797
 20
40.8353101209
 10
-129.5131569816
 20
40.8528957603
 10
-129.5330522138
 20
40.8688517658
 10
-129.5542350336
 20
40.8830626145
 10
-129.5765520766
 20
40.8954254185
 10
-129.5998417661
 20
40.9058506696
 10
-129.6239354839
 20
40.9142628878
  0
LWPOLYLINE
  5
66B
100
AcDbEntity
  8
RACCORDO
100
AcDbPolyline
 62
253
  6
CONTINUOUS
 90
5
 70
0
 10
-129.4625844885
 20
-41.6485127246
 10
-129.4777951254
 20
-41.6689645295
 10
-129.4946934115
 20
-41.6880522531
 10
-129.5131570027
 20
-41.7056377004
 10
-129.5330522219
 20
-41.7215935528
  0
LWPOLYLINE
  5
66C
100
AcDbEntity
  8
RACCORDO
100
AcDbPolyline
 62
253
  6
CONTINUOUS
 90
7
 70
0
 10
-129.4935921876
 20
-41.9266310616
 10
-129.5118294913
 20
-41.9442306372
 10
-129.5314881365
 20
-41.9602283774
 10
-129.5524277588
 20
-41.9745100569
 10
-129.5744988476
 20
-41.9869737036
 10
-129.5975438136
 20
-41.9975303259
 10
-129.6213981139
 20
-42.0061045487
  0
LWPOLYLINE
  5
66D
100
AcDbEntity
  8
RACCORDO
100
AcDbPolyline
 62
253
  6
CONTINUOUS
 90
7
 70
0
 10
-133.2438464714
 20
-43.7080138554
 10
-133.2540163827
 20
-43.7176282104
 10
-133.2650392924
 20
-43.7262526628
 10
-133.2768191557
 20
-43.7338120581
 10
-133.2892533419
 20
-43.7402405251
 10
-133.3022335119
 20
-43.7454820385
 10
-133.3156465607
 20
-43.7494909117
  0
LWPOLYLINE
  5
66E
100
AcDbEntity
  8
RACCORDO
100
AcDbPolyline
 62
253
  6
CONTINUOUS
 90
5
 70
0
 10
-133.1997374429
 20
42.7324986082
 10
-133.2107726665
 20
42.7411201567
 10
-133.2225654438
 20
42.7486740378
 10
-133.2350128412
 20
42.7550943166
 10
-133.2480062097
 20
42.7603249515
  0
LWPOLYLINE
  5
66F
100
AcDbEntity
  8
RACCORDO
100
AcDbPolyline
 62
253
  6
CONTINUOUS
 90
7
 70
0
 10
-133.2438011007
 20
42.8550276979
 10
-133.2539843889
 20
42.8646459756
 10
-133.2650216905
 20
42.8732721665
 10
-133.276816665
 20
42.8808309678
 10
-133.2892663681
 20
42.8872563965
 10
-133.3022621337
 20
42.8924923547
 10
-133.3156905203
 20
42.8964931232
  0
LWPOLYLINE
  5
670
100
AcDbEntity
  8
RACCORDO
100
AcDbPolyline
 62
253
  6
CONTINUOUS
 90
7
 70
0
 10
-129.4935921954
 20
41.0738861543
 10
-129.5118294999
 20
41.0914857373
 10
-129.5314881459
 20
41.1074834833
 10
-129.5524277689
 20
41.1217651668
 10
-129.5744988584
 20
41.1342288156
 10
-129.597543825
 20
41.144785438
 10
-129.6213981258
 20
41.153359659
  0
LWPOLYLINE
  5
671
100
AcDbEntity
  8
RACCORDO
100
AcDbPolyline
 62
253
  6
CONTINUOUS
 90
5
 70
0
 10
-133.1997472571
 20
-43.5853431042
 10
-133.2107752348
 20
-43.5939637929
 10
-133.2225604049
 20
-43.6015179873
 10
-133.2349999919
 20
-43.6079398085
 10
-133.2479855115
 20
-43.6131732513
  0
LINE
  5
672
100
AcDbEntity
  8
RACCORDO
100
AcDbLine
 62
253
  6
CONTINUOUS
 10
-129.5330454677
 20
-41.7228218587
 11
-129.5542272241
 21
-41.7370329655
  0
LWPOLYLINE
  5
673
100
AcDbEntity
  8
RACCORDO
100
AcDbPolyline
 62
253
  6
CONTINUOUS
 90
3
 70
0
 10
-129.5542350269
 20
-41.7358042902
 10
-129.5765520535
 20
-41.7481670271
 10
-129.5998417255
 20
-41.7585922575
  0
LINE
  5
674
100
AcDbEntity
  8
RACCORDO
100
AcDbLine
 62
253
  6
CONTINUOUS
 10
-129.5998318091
 20
-41.7598219964
 11
-129.6239244785
 21
-41.768234937
  0
LWPOLYLINE
  5
675
100
AcDbEntity
  8
RACCORDO
100
AcDbPolyline
 62
253
  6
CONTINUOUS
 90
10
 70
0
 10
-129.6203177295
 20
-42.1213254079
 10
-129.9811025057
 20
-42.2307031192
 10
-130.3444576977
 20
-42.3312606515
 10
-130.7101675147
 20
-42.4229375279
 10
-131.0780179933
 20
-42.5056792341
 10
-131.4477873909
 20
-42.5794350201
 10
-131.8192461568
 20
-42.6441587265
 10
-132.1921701519
 20
-42.6998114225
 10
-132.5663409391
 20
-42.7463606328
 10
-132.883845346
 20
-42.7780252121
  0
LINE
  5
676
100
AcDbEntity
  8
RACCORDO
100
AcDbLine
 62
253
  6
CONTINUOUS
 10
-129.6213981129
 20
-42.0061046198
 11
-129.9763938529
 21
-42.1123427883
  0
LWPOLYLINE
  5
677
100
AcDbEntity
  8
RACCORDO
100
AcDbPolyline
 62
253
  6
CONTINUOUS
 90
3
 70
0
 10
-133.2479855115
 20
-43.6131732513
 10
-133.2614037169
 20
-43.6171726739
 10
-133.2751375884
 20
-43.6199031965
  0
LWPOLYLINE
  5
678
100
AcDbEntity
  8
RACCORDO
100
AcDbPolyline
 62
253
  6
CONTINUOUS
 90
9
 70
0
 10
-129.6239244881
 20
-41.7682356806
 10
-129.9652644141
 20
-41.867068223
 10
-130.3087925496
 20
-41.958053188
 10
-130.654327406
 20
-42.0411425099
 10
-131.0016864357
 20
-42.1162923233
 10
-131.3506861248
 20
-42.1834629003
 10
-131.7011420901
 20
-42.2426186688
 10
-132.0528691822
 20
-42.2937283469
 10
-132.4056815829
 20
-42.3367649622
  0
LWPOLYLINE
  5
679
100
AcDbEntity
  8
RACCORDO
100
AcDbPolyline
 62
253
  6
CONTINUOUS
 90
3
 70
0
 10
-135.5757179162
 20
43.0408583235
 10
-135.5503009891
 20
43.0464780249
 10
-135.5244928993
 20
43.0498745788
  0
LWPOLYLINE
  5
67A
100
AcDbEntity
  8
RACCORDO
100
AcDbPolyline
 62
7
  6
CONTINUOUS
 90
16
 70
0
 10
-135.824635734
 20
44.3937158113
 10
-135.8515252543
 20
44.3901321162
 10
-135.876843256
 20
44.3844443704
 10
-135.9015750336
 20
44.3765900269
 10
-135.9255355519
 20
44.36662785
 10
-135.9485455462
 20
44.3546323743
 10
-135.9704328634
 20
44.3406933465
 10
-135.99103375
 20
44.3249150546
 10
-136.010194077
 20
44.3074155471
 10
-136.0277704938
 20
44.28832575
 10
-136.0436314998
 20
44.2677884872
 10
-136.0576584284
 20
44.2459574124
 10
-136.069746335
 20
44.2229958593
 10
-136.0798047825
 20
44.199075619
 10
-136.0877585176
 20
44.1743756553
 10
-136.0930441392
 20
44.1517544715
  0
LINE
  5
67B
100
AcDbEntity
  8
DRAFT
100
AcDbLine
 62
7
  6
CONTINUOUS
 10
-133.7682358723
 20
44.5736274869
 11
-135.824635734
 21
44.3937158113
  0
LINE
  5
67C
100
AcDbEntity
  8
RACCORDO
100
AcDbLine
 62
253
  6
CONTINUOUS
 10
-133.4223585391
 20
43.0974611957
 11
-135.4706258311
 21
42.918387525
  0
LINE
  5
67D
100
AcDbEntity
  8
RACCORDO
100
AcDbLine
 62
253
  6
CONTINUOUS
 10
-135.5248406266
 20
43.0513991229
 11
-133.4765719069
 21
43.2304956863
  0
LINE
  5
67E
100
AcDbEntity
  8
RACCORDO
100
AcDbLine
 62
253
  6
CONTINUOUS
 10
-133.2931466861
 20
42.8136274869
 11
-135.3420097595
 21
42.6349560383
  0
LINE
  5
67F
100
AcDbEntity
  8
RACCORDO
100
AcDbLine
 62
253
  6
CONTINUOUS
 10
-132.4051915404
 20
41.4826205644
 11
-132.758837561
 21
41.5175537611
  0
LINE
  5
680
100
AcDbEntity
  8
RACCORDO
100
AcDbLine
 62
253
  6
CONTINUOUS
 10
-133.1461564638
 20
42.4843441009
 11
-133.2438978992
 21
42.4988459492
  0
LINE
  5
681
100
AcDbEntity
  8
RACCORDO
100
AcDbLine
 62
253
  6
CONTINUOUS
 10
-133.3156905203
 20
42.8964931232
 11
-133.3294343131
 21
42.8992237662
  0
LWPOLYLINE
  5
682
100
AcDbEntity
  8
RACCORDO
100
AcDbPolyline
 62
253
  6
CONTINUOUS
 90
9
 70
0
 10
-129.6239352856
 20
40.9142726133
 10
-129.9652155675
 20
41.0130686414
 10
-130.3086830344
 20
41.1040211487
 10
-130.6541562846
 20
41.1870821412
 10
-131.0014528668
 20
41.2622082435
 10
-131.3503893514
 20
41.3293593794
 10
-131.7007814357
 20
41.3884987477
 10
-132.0524440687
 20
41.4395946524
 10
-132.4051915404
 20
41.4826205644
  0
LWPOLYLINE
  5
683
100
AcDbEntity
  8
RACCORDO
100
AcDbPolyline
 62
253
  6
CONTINUOUS
 90
3
 70
0
 10
-133.2480062097
 20
42.7603249515
 10
-133.2614321332
 20
42.7643202843
 10
-133.2751734202
 20
42.76704544
  0
LWPOLYLINE
  5
684
100
AcDbEntity
  8
RACCORDO
100
AcDbPolyline
 62
253
  6
CONTINUOUS
 90
10
 70
0
 10
-129.6213981129
 20
41.1533595936
 10
-129.9763938529
 20
41.2595977621
 10
-130.3338349067
 20
41.3573046326
 10
-130.6935160199
 20
41.4464240985
 10
-131.0552306516
 20
41.5269049847
 10
-131.4187710936
 20
41.5987010764
 10
-131.7839285896
 20
41.661771146
 10
-132.1504934544
 20
41.7160789767
 10
-132.5182551942
 20
41.7615933831
 10
-132.8433325846
 20
41.7939425299
  0
LWPOLYLINE
  5
685
100
AcDbEntity
  8
RACCORDO
100
AcDbPolyline
 62
253
  6
CONTINUOUS
 90
10
 70
0
 10
-129.6203177295
 20
41.2685803817
 10
-129.9811025285
 20
41.3779580997
 10
-130.344457736
 20
41.4785156354
 10
-130.7101675609
 20
41.5701925128
 10
-131.0780180372
 20
41.6529342173
 10
-131.4477874246
 20
41.7266900002
 10
-131.8192461802
 20
41.7914137041
 10
-132.1921701676
 20
41.8470663984
 10
-132.566340947
 20
41.8936156075
 10
-132.883845346
 20
41.925280186
  0
LINE
  5
686
100
AcDbEntity
  8
RACCORDO
100
AcDbLine
 62
7
  6
CONTINUOUS
 10
-133.6233456288
 20
44.24068296
 11
-133.699810984
 21
44.2530076248
  0
ARC
  5
687
100
AcDbEntity
  8
SUPERFICI
100
AcDbCircle
 62
7
  6
CONTINUOUS
 10
360.887784389
 20
-0.4263725131
 40
500.0
100
AcDbArc
 50
182.7437734683
 51
182.8102783156
  0
ARC
  5
688
100
AcDbEntity
  8
COPY_PUBLISH
100
AcDbCircle
 62
7
  6
CONTINUOUS
 10
360.887784389
 20
-0.4263725131
 40
500.0
100
AcDbArc
 50
177.1897216844
 51
177.2562265317
  0
ARC
  5
689
100
AcDbEntity
  8
SUPERFICI
100
AcDbCircle
 62
7
  6
CONTINUOUS
 10
3.9894011193
 20
-17.9457934103
 40
142.6718789556
100
AcDbArc
 50
184.5783464918
 51
190.9327603117
  0
ARC
  5
68A
100
AcDbEntity
  8
SUPERFICI
100
AcDbCircle
 62
7
  6
CONTINUOUS
 10
3.9894011193
 20
-17.9457934103
 40
142.6718789556
100
AcDbArc
 50
182.8102783156
 51
183.4358435852
  0
ARC
  5
68B
100
AcDbEntity
  8
COPY_PUBLISH
100
AcDbCircle
 62
7
  6
CONTINUOUS
 10
3.9894011193
 20
17.0930483841
 40
142.6718789556
100
AcDbArc
 50
169.0672390822
 51
177.1897216844
  0
ARC
  5
68C
100
AcDbEntity
  8
RACCORDO
100
AcDbCircle
 62
7
  6
CONTINUOUS
 10
-134.5850725708
 20
-28.7210164281
 40
15.4642020425
100
AcDbArc
 50
275.0
 51
288.7492216085
  0
ARC
  5
68D
100
AcDbEntity
  8
RACCORDO
100
AcDbCircle
 62
7
  6
CONTINUOUS
 10
-134.5850725708
 20
27.8682714019
 40
15.4642020425
100
AcDbArc
 50
71.2507783915
 51
85.0
  0
ARC
  5
68E
100
AcDbEntity
  8
RACCORDO
100
AcDbCircle
 62
7
  6
CONTINUOUS
 10
-137.839816065
 20
23.4749087716
 40
0.7
100
AcDbArc
 50
177.2562264526
 51
215.0
  0
ARC
  5
68F
100
AcDbEntity
  8
RACCORDO
100
AcDbCircle
 62
7
  6
CONTINUOUS
 10
-137.839816065
 20
-24.3276537978
 40
0.7
100
AcDbArc
 50
145.0
 51
182.7437735474
  0
ARC
  5
690
100
AcDbEntity
  8
RACCORDO
100
AcDbCircle
 62
7
  6
CONTINUOUS
 10
-129.710894655
 20
42.2277774506
 40
0.3
100
AcDbArc
 50
359.9999951396
 51
71.2507768293
  0
ARC
  5
691
100
AcDbEntity
  8
RACCORDO
100
AcDbCircle
 62
7
  6
CONTINUOUS
 10
-129.710894655
 20
-43.0805224768
 40
0.3
100
AcDbArc
 50
288.7492231707
 51
0.0000048604
  0
ARC
  5
692
100
AcDbEntity
  8
RACCORDO
100
AcDbCircle
 62
7
  6
CONTINUOUS
 10
-131.210894655
 20
-3.7585525869
 40
0.2
100
AcDbArc
 50
180.0019914696
 51
259.9998490757
  0
ARC
  5
693
100
AcDbEntity
  8
RACCORDO
100
AcDbCircle
 62
7
  6
CONTINUOUS
 10
-131.210894655
 20
2.9058075607
 40
0.2
100
AcDbArc
 50
100.0001414993
 51
179.9984124003
  0
ARC
  5
694
100
AcDbEntity
  8
RACCORDO
100
AcDbCircle
 62
7
  6
CONTINUOUS
 10
-129.610894655
 20
3.5941013746
 40
0.2
100
AcDbArc
 50
280.0
 51
360.0
  0
ARC
  5
695
100
AcDbEntity
  8
RACCORDO
100
AcDbCircle
 62
7
  6
CONTINUOUS
 10
-129.610894655
 20
-4.4468464007
 40
0.2
100
AcDbArc
 50
359.9999992879
 51
80.0
  0
ARC
  5
696
100
AcDbEntity
  8
RACCORDO
100
AcDbCircle
 62
7
  6
CONTINUOUS
 10
-133.6472145313
 20
44.092594218
 40
0.15
100
AcDbArc
 50
17.1637214534
 51
80.8438292334
  0
ARC
  5
697
100
AcDbEntity
  8
RACCORDO
100
AcDbCircle
 62
7
  6
CONTINUOUS
 10
-133.6472145313
 20
-44.9453392442
 40
0.15
100
AcDbArc
 50
279.1561707666
 51
342.8362785466
  0
ENDSEC
  0
SECTION
  2
OBJECTS
  0
DICTIONARY
  5
C
100
AcDbDictionary
280
0
281
1
  3
ACAD_GROUP
350
D
  3
ACAD_MLINESTYLE
350
17
  3
ACAD_LAYOUT
350
1A
  3
ACAD_PLOTSETTINGS
350
19
  3
ACAD_PLOTSTYLENAME
350
E
  0
DICTIONARY
  5
D
102
{ACAD_REACTORS
330
C
102
}
100
AcDbDictionary
280
0
281
1
  0
ACDBDICTIONARYWDFLT
  5
E
102
{ACAD_REACTORS
330
C
102
}
100
AcDbDictionary
281
1
  3
Normal
350
F
100
AcDbDictionaryWithDefault
340
F
  0
DICTIONARY
  5
17
102
{ACAD_REACTORS
330
C
102
}
100
AcDbDictionary
280
0
281
1
  3
Standard
350
18
  0
DICTIONARY
  5
19
102
{ACAD_REACTORS
330
C
102
}
100
AcDbDictionary
281
1
  0
DICTIONARY
  5
1A
102
{ACAD_REACTORS
330
C
102
}
100
AcDbDictionary
281
1
  3
Model
350
698
  3
Layout1
350
699
  0
ACDBPLACEHOLDER
  5
F
102
{ACAD_REACTORS
330
E
102
}
  0
MLINESTYLE
  5
18
102
{ACAD_REACTORS
330
17
102
}
100
AcDbMlineStyle
  2
STANDARD
 70
0
  3

 62
256
 51
90.0
 52
90.0
 71
2
 49
0.5
 62
256
  6
BYLAYER
 49
-0.5
 62
256
  6
BYLAYER
  0
LAYOUT
  5
698
102
{ACAD_REACTORS
330
1A
102
}
100
AcDbPlotSettings
  1

  2
none_device
  4
ISO_A4_(297.00_x_210.00_MM)
  6

 40
0.0
 41
0.0
 42
0.0
 43
0.0
 44
297.0
 45
210.0
 46
0.0
 47
0.0
 48
0.0
 49
0.0
140
0.0
141
0.0
142
1.0
143
1.0
 70
1024
 72
1
 73
0
 74
0
  7

 75
0
147
1.0
148
0.0
149
0.0
100
AcDbLayout
  1
Model
 70
0
 71
0
 10
0.0
 20
0.0
 11
297.0
 21
210.0
 12
0.0
 22
0.0
 32
0.0
 14
0.0
 24
0.0
 34
0.0
 15
0.0
 25
0.0
 35
0.0
146
0.0
 13
0.0
 23
0.0
 33
0.0
 16
1.0
 26
0.0
 36
0.0
 17
0.0
 27
1.0
 37
0.0
 76
0
330
212
345
0
346
0
  0
LAYOUT
  5
699
102
{ACAD_REACTORS
330
1A
102
}
100
AcDbPlotSettings
  1

  2
none_device
  4
ISO_A4_(297.00_x_210.00_MM)
  6

 40
0.0
 41
0.0
 42
0.0
 43
0.0
 44
297.0
 45
210.0
 46
0.0
 47
0.0
 48
0.0
 49
0.0
140
0.0
141
0.0
142
1.0
143
1.0
 70
0
 72
1
 73
0
 74
0
  7

 75
0
147
1.0
148
0.0
149
0.0
100
AcDbLayout
  1
Layout1
 70
0
 71
1
 10
0.0
 20
0.0
 11
297.0
 21
210.0
 12
0.0
 22
0.0
 32
0.0
 14
0.0
 24
0.0
 34
0.0
 15
0.0
 25
0.0
 35
0.0
146
0.0
 13
0.0
 23
0.0
 33
0.0
 16
1.0
 26
0.0
 36
0.0
 17
0.0
 27
1.0
 37
0.0
 76
0
330
213
345
0
346
0
  0
ENDSEC
  0
EOF
