  0
SECTION
  2
HEADER
  9
$ACADVER
  1
AC1021
  9
$DWGCODEPAGE
  3
ANSI_1252
  9
$EXTMAX
 10
297.0
 20
210.0
 30
0.0
  9
$EXTMIN
 10
0.0
 20
0.0
 30
0.0
  9
$LIMMIN
 10
0.0
 20
0.0
  9
$LIMMAX
 10
297.0
 20
210.0
  9
$VIEWCTR
 10
148.5
 20
105.0
  9
$VIEWSIZE
 40
210.0
  9
$CLAYER
  8
0
  9
$LTSCALE
 40
16.335
  9
$CELTYPE
  6
BYLAYER
  9
$DIMSCALE
 40
1.0
  9
$DIMASZ
 40
3.0
  9
$DIMEXO
 40
1.85625
  9
$DIMDLI
 40
11.286
  9
$DIMEXE
 40
5.346
  9
$DIMCEN
 40
2.673
  9
$DIMLFAC
 40
1.0
  9
$DIMBLK
  1
_FILLED
  9
$DIMTXT
 40
3.0
  9
$DIMTOL
 70
1
  9
$DIMLIM
 70
0
  9
$DIMTFAC
 40
1.0
  9
$DIMTP
 40
0.01
  9
$DIMTM
 40
0.01
  9
$PDMODE
 70
3
  9
$PDSIZE
 40
3.0
  9
$HANDSEED
  5
543
  9
$TILEMODE
 70
1
  9
$MEASUREMENT
 70
1
  9
$INSUNITS
 70
4
  0
ENDSEC
  0
SECTION
  2
CLASSES
  0
CLASS
  1
ACDBDICTIONARYWDFLT
  2
AcDbDictionaryWithDefault
  3
AutoCAD 2000
 90
0
 91
1
280
0
281
0
  0
CLASS
  1
ACDBPLACEHOLDER
  2
AcDbPlaceHolder
  3
AutoCAD 2000
 90
0
 91
1
280
0
281
0
  0
CLASS
  1
LAYOUT
  2
AcDbLayout
  3
AutoCAD 2000
 90
0
 91
0
280
0
281
0
  0
ENDSEC
  0
SECTION
  2
TABLES
  0
TABLE
  2
VPORT
  5
8
100
AcDbSymbolTable
 70
2
  0
VPORT
  5
1F4
100
AcDbSymbolTableRecord
100
AcDbViewportTableRecord
  2
*ACTIVE
 70
0
 10
0.0
 20
0.0
 11
1.0
 21
1.0
 12
148.5
 22
105.0
 13
0.0
 23
0.0
 14
1.0
 24
1.0
 15
0.0
 25
0.0
 16
0.0
 26
0.0
 36
1.0
 17
0.0
 27
0.0
 37
0.0
 40
210.0
 41
1.4142857143
 42
50.0
 43
0.0
 44
0.0
 50
0.0
 51
0.0
 71
0
 72
100
 73
1
 74
1
 75
0
 76
0
 77
0
 78
0
  0
ENDTAB
  0
TABLE
  2
LTYPE
  5
5
100
AcDbSymbolTable
 70
6
  0
LTYPE
  5
14
100
AcDbSymbolTableRecord
100
AcDbLinetypeTableRecord
  2
BYBLOCK
 70
0
  3

 72
65
 73
0
 40
0.0
  0
LTYPE
  5
15
100
AcDbSymbolTableRecord
100
AcDbLinetypeTableRecord
  2
BYLAYER
 70
0
  3

 72
65
 73
0
 40
0.0
  0
LTYPE
  5
16
100
AcDbSymbolTableRecord
100
AcDbLinetypeTableRecord
  2
CONTINUOUS
 70
64
  3
Solid line
 72
65
 73
0
 40
0.0
  0
LTYPE
  5
1F5
100
AcDbSymbolTableRecord
100
AcDbLinetypeTableRecord
  2
CENTER
 70
64
  3
____ _ ____ _ ____ _ ____ _ ____ _ ____ _ ____
 72
65
 73
4
 40
0.6
 49
0.375
 74
0
 49
-0.075
 74
0
 49
0.075
 74
0
 49
-0.075
 74
0
  0
LTYPE
  5
1F6
100
AcDbSymbolTableRecord
100
AcDbLinetypeTableRecord
  2
HIDDEN
 70
64
  3
- - - - - - - - - - - - - - - - - - - -
 72
65
 73
2
 40
0.2
 49
0.1
 74
0
 49
-0.1
 74
0
  0
LTYPE
  5
1F7
100
AcDbSymbolTableRecord
100
AcDbLinetypeTableRecord
  2
PHANTOM
 70
64
  3
_____ _ _ _____ _ _ _____ _ _ _____
 72
65
 73
6
 40
0.8
 49
0.45
 74
0
 49
-0.05
 74
0
 49
0.1
 74
0
 49
-0.05
 74
0
 49
0.1
 74
0
 49
-0.05
 74
0
  0
LTYPE
  5
1F8
100
AcDbSymbolTableRecord
100
AcDbLinetypeTableRecord
  2
DOT
 70
64
  3
. . . . . . . . . . . . . . . . . . . .
 72
65
 73
2
 40
0.2
 49
0.1
 74
0
 49
-0.1
 74
0
  0
LTYPE
  5
1F9
100
AcDbSymbolTableRecord
100
AcDbLinetypeTableRecord
  2
DASHED
 70
64
  3
- - - - - - - - - - - - - - - - - - - -
 72
65
 73
2
 40
0.2
 49
0.1
 74
0
 49
-0.1
 74
0
  0
ENDTAB
  0
TABLE
  2
LAYER
  5
2
100
AcDbSymbolTable
 70
36
  0
LAYER
  5
10
100
AcDbSymbolTableRecord
100
AcDbLayerTableRecord
  2
0
 70
0
 62
7
  6
CONTINUOUS
370
-3
390
F
  0
LAYER
  5
1FA
100
AcDbSymbolTableRecord
100
AcDbLayerTableRecord
  2
DEFAULT_1
 70
0
 62
7
  6
CENTER
370
-3
390
F
  0
LAYER
  5
1FB
100
AcDbSymbolTableRecord
100
AcDbLayerTableRecord
  2
DEFAULT_2
 70
0
 62
7
  6
HIDDEN
370
-3
390
F
  0
LAYER
  5
1FC
100
AcDbSymbolTableRecord
100
AcDbLayerTableRecord
  2
DEFAULT_3
 70
0
 62
7
  6
PHANTOM
370
-3
390
F
  0
LAYER
  5
1FD
100
AcDbSymbolTableRecord
100
AcDbLayerTableRecord
  2
ASSI
 70
0
 62
7
  6
CONTINUOUS
370
-3
390
F
  0
LAYER
  5
1FE
100
AcDbSymbolTableRecord
100
AcDbLayerTableRecord
  2
COORDINATE
 70
0
 62
7
  6
CONTINUOUS
370
-3
390
F
  0
LAYER
  5
1FF
100
AcDbSymbolTableRecord
100
AcDbLayerTableRecord
  2
COPY_PUBLISH
 70
0
 62
7
  6
CONTINUOUS
370
-3
390
F
  0
LAYER
  5
200
100
AcDbSymbolTableRecord
100
AcDbLayerTableRecord
  2
COSMETIC
 70
0
 62
7
  6
CONTINUOUS
370
-3
390
F
  0
LAYER
  5
201
100
AcDbSymbolTableRecord
100
AcDbLayerTableRecord
  2
COSMETICI
 70
0
 62
7
  6
CONTINUOUS
370
-3
390
F
  0
LAYER
  5
202
100
AcDbSymbolTableRecord
100
AcDbLayerTableRecord
  2
CURVE
 70
0
 62
7
  6
CONTINUOUS
370
-3
390
F
  0
LAYER
  5
203
100
AcDbSymbolTableRecord
100
AcDbLayerTableRecord
  2
DRAFT
 70
0
 62
7
  6
CONTINUOUS
370
-3
390
F
  0
LAYER
  5
204
100
AcDbSymbolTableRecord
100
AcDbLayerTableRecord
  2
IMPORT_IGES
 70
0
 62
7
  6
CONTINUOUS
370
-3
390
F
  0
LAYER
  5
205
100
AcDbSymbolTableRecord
100
AcDbLayerTableRecord
  2
NOTE
 70
0
 62
7
  6
CONTINUOUS
370
-3
390
F
  0
LAYER
  5
206
100
AcDbSymbolTableRecord
100
AcDbLayerTableRecord
  2
PIANI
 70
0
 62
7
  6
CONTINUOUS
370
-3
390
F
  0
LAYER
  5
207
100
AcDbSymbolTableRecord
100
AcDbLayerTableRecord
  2
PUNTI
 70
0
 62
7
  6
CONTINUOUS
370
-3
390
F
  0
LAYER
  5
208
100
AcDbSymbolTableRecord
100
AcDbLayerTableRecord
  2
RACCORDO
 70
0
 62
7
  6
CONTINUOUS
370
-3
390
F
  0
LAYER
  5
209
100
AcDbSymbolTableRecord
100
AcDbLayerTableRecord
  2
SIMBOLI
 70
0
 62
7
  6
CONTINUOUS
370
-3
390
F
  0
LAYER
  5
20A
100
AcDbSymbolTableRecord
100
AcDbLayerTableRecord
  2
SMUSSO
 70
0
 62
7
  6
CONTINUOUS
370
-3
390
F
  0
LAYER
  5
20B
100
AcDbSymbolTableRecord
100
AcDbLayerTableRecord
  2
SNAPLINE
 70
0
 62
7
  6
CONTINUOUS
370
-3
390
F
  0
LAYER
  5
20C
100
AcDbSymbolTableRecord
100
AcDbLayerTableRecord
  2
SUPERFICI
 70
0
 62
7
  6
CONTINUOUS
370
-3
390
F
  0
LAYER
  5
20D
100
AcDbSymbolTableRecord
100
AcDbLayerTableRecord
  2
TRASH
 70
0
 62
7
  6
CONTINUOUS
370
-3
390
F
  0
LAYER
  5
20E
100
AcDbSymbolTableRecord
100
AcDbLayerTableRecord
  2
XSEC_DATUMS
 70
0
 62
7
  6
CONTINUOUS
370
-3
390
F
  0
ENDTAB
  0
TABLE
  2
STYLE
  5
3
100
AcDbSymbolTable
 70
1
  0
STYLE
  5
11
100
AcDbSymbolTableRecord
100
AcDbTextStyleTableRecord
  2
STANDARD
 70
0
 40
0.0
 41
0.8
 50
0.0
 71
0
 42
0.2
  3
txt
  4

  0
STYLE
  5
20F
100
AcDbSymbolTableRecord
100
AcDbTextStyleTableRecord
  2
TEXTSTYLE_1
 70
0
 40
0.0
 41
0.8
 50
0.0
 71
0
 42
0.2
  3
gdt
  4

  0
ENDTAB
  0
TABLE
  2
VIEW
  5
6
100
AcDbSymbolTable
 70
0
  0
ENDTAB
  0
TABLE
  2
UCS
  5
7
100
AcDbSymbolTable
 70
0
  0
ENDTAB
  0
TABLE
  2
APPID
  5
9
100
AcDbSymbolTable
 70
1
  0
APPID
  5
210
100
AcDbSymbolTableRecord
100
AcDbRegAppTableRecord
  2
ACAD
 70
0
  0
ENDTAB
  0
TABLE
  2
BLOCK_RECORD
  5
1
100
AcDbSymbolTable
 70
0
  0
BLOCK_RECORD
  5
211
100
AcDbSymbolTableRecord
100
AcDbBlockTableRecord
  2
*Model_Space
  0
BLOCK_RECORD
  5
212
100
AcDbSymbolTableRecord
100
AcDbBlockTableRecord
  2
*Paper_Space
  0
BLOCK_RECORD
  5
213
100
AcDbSymbolTableRecord
100
AcDbBlockTableRecord
  2
_FILLED
  0
BLOCK_RECORD
  5
214
100
AcDbSymbolTableRecord
100
AcDbBlockTableRecord
  2
*D0
  0
BLOCK_RECORD
  5
215
100
AcDbSymbolTableRecord
100
AcDbBlockTableRecord
  2
*D1
  0
BLOCK_RECORD
  5
216
100
AcDbSymbolTableRecord
100
AcDbBlockTableRecord
  2
*D2
  0
ENDTAB
  0
TABLE
  2
DIMSTYLE
  5
A
100
AcDbSymbolTable
 70
1
100
AcDbDimStyleTable
 71
0
  0
DIMSTYLE
105
217
100
AcDbSymbolTableRecord
100
AcDbDimStyleTableRecord
  2
STANDARD
 70
0
  3

  4

 40
1.0
 41
3.0
 42
0.0625
 43
0.38
 44
0.18
 45
0.0
 46
0.0
 47
0.01
 48
0.01
140
3.0
141
0.09
142
0.0
143
25.4
144
1.0
145
0.0
146
1.0
147
0.09
 71
1.0
 72
0.0
 73
0
 74
0
 75
0
 76
0
 77
1
 78
8
170
0
171
2
172
0
173
0
174
0
175
0
176
0
177
0
178
0
270
2
271
2
272
2
273
2
274
2
275
0
280
0
281
0
282
0
283
1
284
8
285
0
286
0
287
3
288
0
340
11
341
213
342
213
343
213
344
213
  0
DIMSTYLE
105
218
100
AcDbSymbolTableRecord
100
AcDbDimStyleTableRecord
  2
DIMSTYLE_1
 70
0
  3

  4

 40
1.0
 41
3.0
 42
0.0625
 43
0.38
 44
0.18
 45
0.0
 46
0.0
 47
0.0
 48
0.0
140
3.0
141
0.09
142
0.0
143
25.4
144
1.0
145
0.0
146
1.0
147
0.09
 71
0.0
 72
0.0
 73
0
 74
0
 75
0
 76
0
 77
1
 78
8
170
0
171
2
172
0
173
0
174
0
175
0
176
0
177
0
178
0
270
2
271
2
272
2
273
2
274
2
275
0
280
0
281
0
282
0
283
1
284
8
285
0
286
0
287
3
288
0
340
11
341
213
342
213
343
213
344
213
  0
ENDTAB
  0
ENDSEC
  0
SECTION
  2
BLOCKS
  0
BLOCK
  5
20
100
AcDbEntity
  8
0
100
AcDbBlockBegin
  2
*Model_Space
 70
0
 10
0.0
 20
0.0
 30
0.0
  3
*Model_Space
  1

  0
ENDBLK
  5
21
100
AcDbEntity
  8
0
100
AcDbBlockEnd
  0
BLOCK
  5
1C
100
AcDbEntity
  8
0
100
AcDbBlockBegin
  2
*Paper_Space
 70
0
 10
0.0
 20
0.0
 30
0.0
  3
*Paper_Space
  1

  0
ENDBLK
  5
1D
100
AcDbEntity
  8
0
100
AcDbBlockEnd
  0
BLOCK
  5
219
100
AcDbEntity
  8
0
100
AcDbBlockBegin
  2
_FILLED
 70
64
 10
0.0
 20
0.0
  3
_FILLED
  1

  0
SOLID
  5
21A
100
AcDbEntity
  8
0
  6
BYBLOCK
 62
0
100
AcDbTrace
 10
0.0
 20
0.0
 11
-1.0
 21
0.3166666667
 12
-1.0
 22
-0.3166666667
 13
-1.0
 23
-0.3166666667
  0
ENDBLK
  5
21B
100
AcDbEntity
  8
0
  6
BYBLOCK
 62
0
100
AcDbBlockEnd
  0
BLOCK
  5
21C
100
AcDbEntity
  8
0
100
AcDbBlockBegin
 62
7
  6
CONTINUOUS
  2
*D0
 70
65
 10
0.0
 20
0.0
  3
*D0
  1

  0
MTEXT
  5
21D
100
AcDbEntity
  8
0
100
AcDbMText
 62
7
  6
CONTINUOUS
  7
STANDARD
 71
2
 72
1
 10
-0.1435686413
 20
62.2709849272
 30
0.0
 11
1.0
 21
0.0
 31
0.0
 44
0.9
  1
210
 40
3.0
 41
6.4285714286
  0
LINE
  5
21E
100
AcDbEntity
  8
0
100
AcDbLine
 62
7
  6
CONTINUOUS
 10
-105.1435686413
 20
1.0209849272
 11
-105.1435686413
 21
60.0209849272
  0
LINE
  5
21F
100
AcDbEntity
  8
0
100
AcDbLine
 62
7
  6
CONTINUOUS
 10
104.8564313587
 20
1.0209849272
 11
104.8564313587
 21
60.0209849272
  0
LINE
  5
220
100
AcDbEntity
  8
0
100
AcDbLine
 62
7
  6
CONTINUOUS
 10
-105.1435686413
 20
58.5209849272
 11
-0.1435686413
 21
58.5209849272
  0
LINE
  5
221
100
AcDbEntity
  8
0
100
AcDbLine
 62
7
  6
CONTINUOUS
 10
104.8564313587
 20
58.5209849272
 11
-0.1435686413
 21
58.5209849272
  0
INSERT
  5
222
100
AcDbEntity
  8
0
100
AcDbBlockReference
 62
7
  6
CONTINUOUS
  2
_FILLED
 10
-105.1435686413
 20
58.5209849272
 41
3.0
 42
3.0
 43
3.0
 50
180.0
  0
INSERT
  5
223
100
AcDbEntity
  8
0
100
AcDbBlockReference
 62
7
  6
CONTINUOUS
  2
_FILLED
 10
104.8564313587
 20
58.5209849272
 41
3.0
 42
3.0
 43
3.0
  0
ENDBLK
  5
224
100
AcDbEntity
  8
0
  6
BYBLOCK
 62
0
100
AcDbBlockEnd
  0
BLOCK
  5
225
100
AcDbEntity
  8
0
100
AcDbBlockBegin
 62
7
  6
CONTINUOUS
  2
*D1
 70
65
 10
0.0
 20
0.0
  3
*D1
  1

  0
MTEXT
  5
226
100
AcDbEntity
  8
0
100
AcDbMText
 62
7
  6
CONTINUOUS
  7
STANDARD
 71
2
 72
1
 10
114.1559127162
 20
0.5209849272
 30
0.0
 11
0.0
 21
1.0
 31
0.0
 44
0.9
  1
90
 40
3.0
 41
4.7142857143
  0
LINE
  5
227
100
AcDbEntity
  8
0
100
AcDbLine
 62
7
  6
CONTINUOUS
 10
0.3564313587
 20
45.5209849272
 11
119.4059127162
 21
45.5209849272
  0
LINE
  5
228
100
AcDbEntity
  8
0
100
AcDbLine
 62
7
  6
CONTINUOUS
 10
0.3564313587
 20
-44.4790150728
 11
119.4059127162
 21
-44.4790150728
  0
LINE
  5
229
100
AcDbEntity
  8
0
100
AcDbLine
 62
7
  6
CONTINUOUS
 10
117.9059127162
 20
45.5209849272
 11
117.9059127162
 21
0.5209849272
  0
LINE
  5
22A
100
AcDbEntity
  8
0
100
AcDbLine
 62
7
  6
CONTINUOUS
 10
117.9059127162
 20
-44.4790150728
 11
117.9059127162
 21
0.5209849272
  0
INSERT
  5
22B
100
AcDbEntity
  8
0
100
AcDbBlockReference
 62
7
  6
CONTINUOUS
  2
_FILLED
 10
117.9059127162
 20
45.5209849272
 41
3.0
 42
3.0
 43
3.0
 50
90.0
  0
INSERT
  5
22C
100
AcDbEntity
  8
0
100
AcDbBlockReference
 62
7
  6
CONTINUOUS
  2
_FILLED
 10
117.9059127162
 20
-44.4790150728
 41
3.0
 42
3.0
 43
3.0
 50
270.0
  0
ENDBLK
  5
22D
100
AcDbEntity
  8
0
  6
BYBLOCK
 62
0
100
AcDbBlockEnd
  0
BLOCK
  5
22E
100
AcDbEntity
  8
0
100
AcDbBlockBegin
 62
7
  6
CONTINUOUS
  2
*D2
 70
65
 10
0.0
 20
0.0
  3
*D2
  1

  0
MTEXT
  5
22F
100
AcDbEntity
  8
0
100
AcDbMText
 62
7
  6
CONTINUOUS
  7
STANDARD
 71
2
 72
1
 10
-127.3578856668
 20
62.2709849272
 30
0.0
 11
1.0
 21
0.0
 31
0.0
 44
0.9
  1
8,5
 40
3.0
 41
6.2142857143
  0
LINE
  5
230
100
AcDbEntity
  8
0
100
AcDbLine
 62
7
  6
CONTINUOUS
 10
-123.1078856668
 20
42.4165723175
 11
-123.1078856668
 21
60.0209849272
  0
LINE
  5
231
100
AcDbEntity
  8
0
100
AcDbLine
 62
7
  6
CONTINUOUS
 10
-131.6078856668
 20
24.7208957139
 11
-131.6078856668
 21
60.0209849272
  0
LINE
  5
232
100
AcDbEntity
  8
0
100
AcDbLine
 62
7
  6
CONTINUOUS
 10
-123.1078856668
 20
58.5209849272
 11
-119.1078856668
 21
58.5209849272
  0
LINE
  5
233
100
AcDbEntity
  8
0
100
AcDbLine
 62
7
  6
CONTINUOUS
 10
-119.1078856668
 20
58.5209849272
 11
-127.3578856668
 21
58.5209849272
  0
LINE
  5
234
100
AcDbEntity
  8
0
100
AcDbLine
 62
7
  6
CONTINUOUS
 10
-131.6078856668
 20
58.5209849272
 11
-135.6078856668
 21
58.5209849272
  0
LINE
  5
235
100
AcDbEntity
  8
0
100
AcDbLine
 62
7
  6
CONTINUOUS
 10
-135.6078856668
 20
58.5209849272
 11
-127.3578856668
 21
58.5209849272
  0
INSERT
  5
236
100
AcDbEntity
  8
0
100
AcDbBlockReference
 62
7
  6
CONTINUOUS
  2
_FILLED
 10
-123.1078856668
 20
58.5209849272
 41
3.0
 42
3.0
 43
3.0
 50
180.0
  0
INSERT
  5
237
100
AcDbEntity
  8
0
100
AcDbBlockReference
 62
7
  6
CONTINUOUS
  2
_FILLED
 10
-131.6078856668
 20
58.5209849272
 41
3.0
 42
3.0
 43
3.0
  0
ENDBLK
  5
238
100
AcDbEntity
  8
0
  6
BYBLOCK
 62
0
100
AcDbBlockEnd
  0
ENDSEC
  0
SECTION
  2
ENTITIES
  0
DIMENSION
  5
239
100
AcDbEntity
  8
0
100
AcDbDimension
 62
7
  6
CONTINUOUS
  2
*D0
 10
104.8564313587
 20
58.5209849272
 11
-3.3578543556
 21
60.7709849272
 70
160
 71
2
 42
210.0
  3
DIMSTYLE_1
100
AcDbAlignedDimension
 13
-105.1435686413
 23
1.0209849272
 14
104.8564313587
 24
1.0209849272
100
AcDbRotatedDimension
  0
DIMENSION
  5
23A
100
AcDbEntity
  8
0
100
AcDbDimension
 62
7
  6
CONTINUOUS
  2
*D1
 10
117.9059127162
 20
-44.4790150728
 11
116.7120862399
 21
-1.5862929227
 70
160
 71
2
 42
90.0
  3
DIMSTYLE_1
100
AcDbAlignedDimension
 13
0.3564313587
 23
45.5209849272
 14
0.3564313587
 24
-44.4790150728
 50
270.0
100
AcDbRotatedDimension
  0
DIMENSION
  5
23B
100
AcDbEntity
  8
0
100
AcDbDimension
 62
7
  6
CONTINUOUS
  2
*D2
 10
-131.6078856668
 20
58.5209849272
 11
-130.465028524
 21
60.7709849272
 70
160
 71
2
 42
8.5
  3
DIMSTYLE_1
100
AcDbAlignedDimension
 13
-123.1078856668
 23
42.4165723175
 14
-131.6078856668
 24
24.7208957139
 50
180.0
100
AcDbRotatedDimension
  0
LWPOLYLINE
  5
23C
100
AcDbEntity
  8
RACCORDO
100
AcDbPolyline
 62
253
  6
CONTINUOUS
 90
9
 70
0
 10
-103.6555237532
 20
-25.004695679
 10
-103.6069706201
 20
-25.4490056014
 10
-103.555232642
 20
-25.8930470459
 10
-103.5003102507
 20
-26.3368003374
 10
-103.4422045335
 20
-26.7802400641
 10
-103.380917442
 20
-27.2233350977
 10
-103.3164506689
 20
-27.6660600433
 10
-103.2488054404
 20
-28.1083952205
 10
-103.1779834314
 20
-28.550318087
  0
LWPOLYLINE
  5
23D
100
AcDbEntity
  8
RACCORDO
100
AcDbPolyline
 62
253
  6
CONTINUOUS
 90
9
 70
0
 10
-103.386761708
 20
-24.9902219804
 10
-103.3383983244
 20
-25.4332214305
 10
-103.2868613863
 20
-25.8759365261
 10
-103.2321531834
 20
-26.3183835323
 10
-103.174274612
 20
-26.7605391212
 10
-103.1132252278
 20
-27.202340411
 10
-103.04900614
 20
-27.6437641534
 10
-102.9816199578
 20
-28.0848266939
 10
-102.9110686381
 20
-28.5255245976
  0
LINE
  5
23E
100
AcDbEntity
  8
RACCORDO
100
AcDbLine
 62
253
  6
CONTINUOUS
 10
-103.7157974851
 20
-24.4082721127
 11
-103.6555237532
 21
-25.004695679
  0
LINE
  5
23F
100
AcDbEntity
  8
RACCORDO
100
AcDbLine
 62
253
  6
CONTINUOUS
 10
-103.4468539738
 20
-24.3949590107
 11
-103.386761708
 21
-24.9902219804
  0
LINE
  5
240
100
AcDbEntity
  8
RACCORDO
100
AcDbLine
 62
253
  6
CONTINUOUS
 10
-103.8319623709
 20
-23.1931447449
 11
-103.7157974851
 21
-24.4082721127
  0
LINE
  5
241
100
AcDbEntity
  8
RACCORDO
100
AcDbLine
 62
253
  6
CONTINUOUS
 10
-103.5630034168
 20
-23.1789068397
 11
-103.4468539738
 21
-24.3949590107
  0
LWPOLYLINE
  5
242
100
AcDbEntity
  8
RACCORDO
100
AcDbPolyline
 62
253
  6
CONTINUOUS
 90
16
 70
0
 10
-103.8319623709
 20
24.2351145993
 10
-104.1065876387
 20
21.0814016603
 10
-104.3420846122
 20
17.9243518799
 10
-104.5384102712
 20
14.7644395984
 10
-104.6955249119
 20
11.6022052543
 10
-104.813400669
 20
8.4380588247
 10
-104.8920132176
 20
5.2722795311
 10
-104.931336161
 20
2.104984277
 10
-104.9313363072
 20
-1.0629908304
 10
-104.8920136362
 20
-4.2302872016
 10
-104.8134012893
 20
-7.3960690092
 10
-104.6955256221
 20
-10.5602190665
 10
-104.5384109665
 20
-13.722457307
 10
-104.3420851973
 20
-16.8823734707
 10
-104.1065879954
 20
-20.0394273976
 10
-103.8319623709
 20
-23.1931447449
  0
LWPOLYLINE
  5
243
100
AcDbEntity
  8
RACCORDO
100
AcDbPolyline
 62
253
  6
CONTINUOUS
 90
16
 70
0
 10
-103.5630030673
 20
24.2208766737
 10
-103.837507348
 20
21.0684912715
 10
-104.0729665917
 20
17.9134642692
 10
-104.2692937092
 20
14.7559201597
 10
-104.4263993005
 20
11.5956977281
 10
-104.544239943
 20
8.4332084926
 10
-104.6228200301
 20
5.2694370439
 10
-104.6621267855
 20
2.1041527143
 10
-104.6621269359
 20
-1.0621606716
 10
-104.6228204216
 20
-4.2274461149
 10
-104.5442404851
 20
-7.3912201219
 10
-104.4263999289
 20
-10.5537130286
 10
-104.2692943292
 20
-13.7139392493
 10
-104.0729670989
 20
-16.871486934
 10
-103.8375076481
 20
-20.0265176287
 10
-103.5630030658
 20
-23.1789068397
  0
LINE
  5
244
100
AcDbEntity
  8
RACCORDO
100
AcDbLine
 62
253
  6
CONTINUOUS
 10
-103.4468539737
 20
25.436928866
 11
-103.5630034187
 21
24.2208766737
  0
LINE
  5
245
100
AcDbEntity
  8
RACCORDO
100
AcDbLine
 62
253
  6
CONTINUOUS
 10
-103.7157975585
 20
25.4502412176
 11
-103.8319623709
 21
24.2351145993
  0
LWPOLYLINE
  5
246
100
AcDbEntity
  8
RACCORDO
100
AcDbPolyline
 62
253
  6
CONTINUOUS
 90
10
 70
0
 10
-102.9110686381
 20
29.5674944521
 10
-102.9816201749
 20
29.1267950582
 10
-103.049006514
 20
28.6857314006
 10
-103.1132256988
 20
28.2443069143
 10
-103.1742751133
 20
27.8025052556
 10
-103.2321536557
 20
27.3603496717
 10
-103.2868617916
 20
26.9179030402
 10
-103.3383986319
 20
26.4751886878
 10
-103.3867618803
 20
26.0321903511
 10
-103.4468539737
 20
25.436928866
  0
LWPOLYLINE
  5
247
100
AcDbEntity
  8
RACCORDO
100
AcDbPolyline
 62
253
  6
CONTINUOUS
 90
10
 70
0
 10
-103.1779855378
 20
29.5922751058
 10
-103.2488064132
 20
29.150358865
 10
-103.3164508521
 20
28.7080286684
 10
-103.3809171439
 20
28.265307052
 10
-103.4422040833
 20
27.8222132634
 10
-103.5003098779
 20
27.3787731189
 10
-103.5552323867
 20
26.9350190256
 10
-103.6069704658
 20
26.4909768231
 10
-103.6555237295
 20
26.046665758
 10
-103.7157975585
 20
25.4502412176
  0
LWPOLYLINE
  5
248
100
AcDbEntity
  8
RACCORDO
100
AcDbPolyline
 62
253
  6
CONTINUOUS
 90
46
 70
0
 10
-103.1779834205
 20
-28.5503180852
 10
-103.0904062005
 20
-29.0391552681
 10
-102.9882757307
 20
-29.5259227971
 10
-102.8716179721
 20
-30.0101820687
 10
-102.740432512
 20
-30.4916399973
 10
-102.5948030451
 20
-30.9697077676
 10
-102.4349407649
 20
-31.4435135174
 10
-102.2609712273
 20
-31.9126120154
 10
-102.0730191792
 20
-32.3765986007
 10
-101.8713858327
 20
-32.8346903696
 10
-101.6563196686
 20
-33.2863648956
 10
-101.4279685444
 20
-33.7313506133
 10
-101.186532992
 20
-34.1692615772
 10
-100.9322166533
 20
-34.5997463424
 10
-100.6652710536
 20
-35.0223960081
 10
-100.3859931505
 20
-35.43675236
 10
-100.0946513585
 20
-35.8424527748
 10
-99.7915151807
 20
-36.2391563063
 10
-99.4769126711
 20
-36.6264579372
 10
-99.151160606
 20
-37.0040119381
 10
-98.8145506876
 20
-37.3715233447
 10
-98.4673934179
 20
-37.728680896
 10
-98.1100162977
 20
-38.0751862778
 10
-97.7427515036
 20
-38.4107554899
 10
-97.3659291297
 20
-38.735112764
 10
-96.9798997577
 20
-39.0479910748
 10
-96.5850181774
 20
-39.3491374945
 10
-96.1816311786
 20
-39.6383115048
 10
-95.7701241316
 20
-39.9152688861
 10
-95.3508568426
 20
-40.179799689
 10
-94.9241436687
 20
-40.431724923
 10
-94.490380173
 20
-40.6708338345
 10
-94.0499443042
 20
-40.8969413467
 10
-93.6031249249
 20
-41.1099098392
 10
-93.1503315554
 20
-41.3095552855
 10
-92.6919505286
 20
-41.4957192429
 10
-92.2282340428
 20
-41.668298135
 10
-91.7595094863
 20
-41.8271616207
 10
-91.2862617373
 20
-41.972138054
 10
-90.8089834078
 20
-42.1030737206
 10
-90.3280038577
 20
-42.2198772479
 10
-89.8438341269
 20
-42.3224250676
 10
-89.35725281
 20
-42.4105717602
 10
-88.8688103985
 20
-42.4842589509
 10
-88.3788215789
 20
-42.5434810021
 10
-87.8877178733
 20
-42.5882219655
  0
LWPOLYLINE
  5
249
100
AcDbEntity
  8
RACCORDO
100
AcDbPolyline
 62
253
  6
CONTINUOUS
 90
46
 70
0
 10
-102.9110686381
 20
-28.5255245976
 10
-102.8249693752
 20
-29.0071722898
 10
-102.7246089056
 20
-29.4859649392
 10
-102.6099956698
 20
-29.9619001302
 10
-102.4810204379
 20
-30.4355572239
 10
-102.3378094315
 20
-30.9063521203
 10
-102.1807255939
 20
-31.372538968
 10
-102.0097042444
 20
-31.8340643167
 10
-101.82483
 20
-32.2909813656
 10
-101.6266916866
 20
-32.7417075748
 10
-101.4152990177
 20
-33.1861023498
 10
-101.1906633047
 20
-33.6243103902
 10
-100.9533767448
 20
-34.0551800586
 10
-100.7033933121
 20
-34.478725626
 10
-100.4407794418
 20
-34.8949404334
 10
-100.166296233
 20
-35.3026440821
 10
-99.8799173013
 20
-35.7018074063
 10
-99.5816877281
 20
-36.0924707596
 10
-99.2724754456
 20
-36.4735605465
 10
-98.9522726184
 20
-36.8450348412
 10
-98.6211028837
 20
-37.2069497792
 10
-98.2798804857
 20
-37.5583810107
 10
-97.9285870707
 20
-37.8993063045
 10
-97.5672529458
 20
-38.229764304
 10
-97.1968640388
 20
-38.5489237039
 10
-96.8174025043
 20
-38.8567617174
 10
-96.4288935878
 20
-39.1533189406
 10
-96.0323862578
 20
-39.4378604662
 10
-95.6278789124
 20
-39.7103552933
 10
-95.2153755533
 20
-39.9708527221
 10
-94.7959318147
 20
-40.2187391639
 10
-94.3695440179
 20
-40.4539914167
 10
-93.9362131159
 20
-40.6766504815
 10
-93.496999944
 20
-40.8861994905
 10
-93.0519038197
 20
-41.0826186343
 10
-92.6009177106
 20
-41.265944111
 10
-92.145091282
 20
-41.4357430836
 10
-91.6843301523
 20
-41.5920160419
 10
-91.2187163808
 20
-41.7347766401
 10
-90.7495628096
 20
-41.8636114906
 10
-90.2767405612
 20
-41.9784864509
 10
-89.8003620889
 20
-42.0794468968
 10
-89.3221010674
 20
-42.1661981287
 10
-88.842508843
 20
-42.2386445074
 10
-88.3610145721
 20
-42.2968893301
 10
-87.8776079273
 20
-42.3409354117
  0
LINE
  5
24A
100
AcDbEntity
  8
RACCORDO
100
AcDbLine
 62
253
  6
CONTINUOUS
 10
-87.8980009141
 20
43.7609849272
 11
-87.8877296948
 21
43.6301909148
  0
LINE
  5
24B
100
AcDbEntity
  8
RACCORDO
100
AcDbLine
 62
253
  6
CONTINUOUS
 10
-87.8776079267
 20
43.3829052639
 11
-87.8811150113
 21
43.4345827262
  0
LINE
  5
24C
100
AcDbEntity
  8
RACCORDO
100
AcDbLine
 62
253
  6
CONTINUOUS
 10
-87.8811150113
 20
43.4345827262
 11
-87.8840919354
 21
43.4829619488
  0
LWPOLYLINE
  5
24D
100
AcDbEntity
  8
RACCORDO
100
AcDbPolyline
 62
253
  6
CONTINUOUS
 90
11
 70
0
 10
-87.8840919354
 20
43.4829619488
 10
-87.886443449
 20
43.5264949866
 10
-87.8873603125
 20
43.5460015933
 10
-87.8880943131
 20
43.5637889537
 10
-87.8886395679
 20
43.5797145006
 10
-87.8889917065
 20
43.5936505896
 10
-87.8891479065
 20
43.6054855219
 10
-87.889106916
 20
43.6151244395
 10
-87.8888690636
 20
43.6224900857
 10
-87.8884362555
 20
43.6275234245
 10
-87.8878119609
 20
43.630184113
  0
LINE
  5
24E
100
AcDbEntity
  8
RACCORDO
100
AcDbLine
 62
253
  6
CONTINUOUS
 10
-82.8980009141
 20
44.044818636
 11
-82.8930788969
 21
43.9069450916
  0
LINE
  5
24F
100
AcDbEntity
  8
RACCORDO
100
AcDbLine
 62
253
  6
CONTINUOUS
 10
-82.8903625073
 20
43.659488179
 11
-82.8924991403
 21
43.7360212175
  0
LINE
  5
250
100
AcDbEntity
  8
RACCORDO
100
AcDbLine
 62
253
  6
CONTINUOUS
 10
-82.8924991403
 20
43.7360212175
 11
-82.8935281171
 21
43.7822362295
  0
LWPOLYLINE
  5
251
100
AcDbEntity
  8
RACCORDO
100
AcDbPolyline
 62
253
  6
CONTINUOUS
 90
10
 70
0
 10
-82.8935281171
 20
43.7822362295
 10
-82.8942007857
 20
43.8228599595
 10
-82.8943963093
 20
43.840660594
 10
-82.894495616
 20
43.8565921648
 10
-82.8944979095
 20
43.8705269353
 10
-82.8944031715
 20
43.8823531793
 10
-82.8942121614
 20
43.891976076
 10
-82.8939264109
 20
43.8993184709
 10
-82.893548211
 20
43.9043214939
 10
-82.893080594
 20
43.9069450318
  0
LINE
  5
252
100
AcDbEntity
  8
RACCORDO
100
AcDbLine
 62
253
  6
CONTINUOUS
 10
-79.7010710768
 20
-21.1956337942
 11
-79.7134109911
 21
-13.2402225003
  0
LINE
  5
253
100
AcDbEntity
  8
RACCORDO
100
AcDbLine
 62
253
  6
CONTINUOUS
 10
-79.7134109911
 20
-13.2402225003
 11
-79.719795822
 21
-6.0337835607
  0
LINE
  5
254
100
AcDbEntity
  8
RACCORDO
100
AcDbLine
 62
253
  6
CONTINUOUS
 10
-79.719795822
 20
-6.0337835607
 11
-79.7216583391
 21
0.5209849272
  0
LINE
  5
255
100
AcDbEntity
  8
RACCORDO
100
AcDbLine
 62
253
  6
CONTINUOUS
 10
-79.7216583391
 20
0.5209849272
 11
-79.7197892291
 21
7.0873425955
  0
LINE
  5
256
100
AcDbEntity
  8
RACCORDO
100
AcDbLine
 62
253
  6
CONTINUOUS
 10
-79.7197892291
 20
7.0873425955
 11
-79.7134007079
 21
14.2907261779
  0
LINE
  5
257
100
AcDbEntity
  8
RACCORDO
100
AcDbLine
 62
253
  6
CONTINUOUS
 10
-79.7134007079
 20
14.2907261779
 11
-79.7010710756
 21
22.2376036649
  0
LWPOLYLINE
  5
258
100
AcDbEntity
  8
RACCORDO
100
AcDbPolyline
 62
253
  6
CONTINUOUS
 90
8
 70
0
 10
-82.8943963094
 20
-42.7986907404
 10
-82.8944956161
 20
-42.8146223112
 10
-82.8944979096
 20
-42.8285570819
 10
-82.8944031715
 20
-42.8403833259
 10
-82.8942121615
 20
-42.8500062227
 10
-82.893926411
 20
-42.8573486176
 10
-82.893548211
 20
-42.8623516407
 10
-82.893080594
 20
-42.8649751786
  0
LINE
  5
259
100
AcDbEntity
  8
RACCORDO
100
AcDbLine
 62
253
  6
CONTINUOUS
 10
-82.8939106128
 20
-42.7613631296
 11
-82.8943963094
 21
-42.7986907404
  0
LINE
  5
25A
100
AcDbEntity
  8
RACCORDO
100
AcDbLine
 62
253
  6
CONTINUOUS
 10
-82.8930563655
 20
-42.7177689935
 11
-82.8939106128
 21
-42.7613631296
  0
LINE
  5
25B
100
AcDbEntity
  8
RACCORDO
100
AcDbLine
 62
253
  6
CONTINUOUS
 10
-82.8918609094
 20
-42.6693036487
 11
-82.8930563655
 21
-42.7177689935
  0
LINE
  5
25C
100
AcDbEntity
  8
RACCORDO
100
AcDbLine
 62
253
  6
CONTINUOUS
 10
-82.8903625073
 20
-42.6175183245
 11
-82.8918609094
 21
-42.6693036487
  0
LWPOLYLINE
  5
25D
100
AcDbEntity
  8
RACCORDO
100
AcDbPolyline
 62
253
  6
CONTINUOUS
 90
22
 70
0
 10
-79.7010710756
 20
22.2376036649
 10
-79.6988856048
 20
22.2996652312
 10
-79.6941509895
 20
22.3615883554
 10
-79.6868672996
 20
22.423373039
 10
-79.6770302889
 20
22.4851536027
 10
-79.6646443405
 20
22.5467957268
 10
-79.6497224661
 20
22.6078964585
 10
-79.6322392206
 20
22.6684560824
 10
-79.6122201775
 20
22.7284743294
 10
-79.5897548694
 20
22.7875474292
 10
-79.5648081957
 20
22.8456676675
 10
-79.5374153642
 20
22.9028427866
 10
-79.5077713547
 20
22.9586922124
 10
-79.4758685168
 20
23.0131870029
 10
-79.4417145745
 20
23.0663561385
 10
-79.4055275498
 20
23.1179059384
 10
-79.3672984243
 20
23.167817666
 10
-79.3270362531
 20
23.2161101017
 10
-79.2849861482
 20
23.2625458465
 10
-79.2412298097
 20
23.3070457839
 10
-79.1956855348
 20
23.3496890764
 10
-79.1483533172
 20
23.3904757455
  0
LINE
  5
25E
100
AcDbEntity
  8
RACCORDO
100
AcDbLine
 62
253
  6
CONTINUOUS
 10
-82.8980009141
 20
-43.0028487816
 11
-82.8930784612
 21
-42.8649752526
  0
LWPOLYLINE
  5
25F
100
AcDbEntity
  8
RACCORDO
100
AcDbPolyline
 62
7
  6
CONTINUOUS
 90
19
 70
0
 10
-79.309139667
 20
22.2272125627
 10
-79.306618861
 20
22.2826288166
 10
-79.3014013509
 20
22.3376880651
 10
-79.2935148597
 20
22.3922448971
 10
-79.2829963343
 20
22.4462489392
 10
-79.2698901722
 20
22.499587054
 10
-79.2542749153
 20
22.5520387784
 10
-79.2362575309
 20
22.6033577079
 10
-79.2159229667
 20
22.6534349935
 10
-79.1933194358
 20
22.7022560561
 10
-79.1685249386
 20
22.7497485614
 10
-79.14152919
 20
22.7959514357
 10
-79.1122202876
 20
22.8410227397
 10
-79.0806213215
 20
22.8848762486
 10
-79.0469371187
 20
22.9272202819
 10
-79.0113207617
 20
22.9678617274
 10
-78.9738203739
 20
23.0067193588
 10
-78.9344302449
 20
23.0437518154
 10
-78.8932100756
 20
23.0789000765
  0
LWPOLYLINE
  5
260
100
AcDbEntity
  8
RACCORDO
100
AcDbPolyline
 62
253
  6
CONTINUOUS
 90
10
 70
0
 10
-87.8864434721
 20
-42.4845253734
 10
-87.8873603387
 20
-42.5040320202
 10
-87.8880943422
 20
-42.521819419
 10
-87.8886395995
 20
-42.5377450021
 10
-87.8889917403
 20
-42.5516811245
 10
-87.8891479421
 20
-42.5635160867
 10
-87.889106953
 20
-42.5731550306
 10
-87.8888691016
 20
-42.580520699
 10
-87.8884362941
 20
-42.5855540554
 10
-87.8878119997
 20
-42.588214757
  0
LINE
  5
261
100
AcDbEntity
  8
RACCORDO
100
AcDbLine
 62
253
  6
CONTINUOUS
 10
-87.8840919514
 20
-42.4409922527
 11
-87.8864434721
 21
-42.4845253734
  0
LINE
  5
262
100
AcDbEntity
  8
RACCORDO
100
AcDbLine
 62
253
  6
CONTINUOUS
 10
-87.8811150197
 20
-42.3926129486
 11
-87.8840919514
 21
-42.4409922527
  0
LINE
  5
263
100
AcDbEntity
  8
RACCORDO
100
AcDbLine
 62
253
  6
CONTINUOUS
 10
-87.8776079273
 20
-42.3409354117
 11
-87.8811150197
 21
-42.3926129486
  0
LINE
  5
264
100
AcDbEntity
  8
RACCORDO
100
AcDbLine
 62
253
  6
CONTINUOUS
 10
-87.8980009141
 20
-42.7190150728
 11
-87.8877178718
 21
-42.588221946
  0
LINE
  5
265
100
AcDbEntity
  8
RACCORDO
100
AcDbLine
 62
253
  6
CONTINUOUS
 10
-79.1174143876
 20
43.7883264788
 11
-79.1211284483
 21
43.9110043702
  0
LINE
  5
266
100
AcDbEntity
  8
RACCORDO
100
AcDbLine
 62
253
  6
CONTINUOUS
 10
-79.1211284483
 20
43.9110043702
 11
-79.1226517836
 21
43.9693769466
  0
LINE
  5
267
100
AcDbEntity
  8
RACCORDO
100
AcDbLine
 62
253
  6
CONTINUOUS
 10
-78.1994647706
 20
23.5511625159
 11
-78.1942320078
 21
23.3316840836
  0
LWPOLYLINE
  5
268
100
AcDbEntity
  8
RACCORDO
100
AcDbPolyline
 62
253
  6
CONTINUOUS
 90
7
 70
0
 10
-79.1226517836
 20
43.9693769466
 10
-79.1232995426
 20
43.9992084987
 10
-79.1235043901
 20
44.0110179025
 10
-79.1236274803
 20
44.0206245837
 10
-79.1236678267
 20
44.0279515612
 10
-79.1236251061
 20
44.0329401216
 10
-79.1234996608
 20
44.0355502899
  0
LINE
  5
269
100
AcDbEntity
  8
RACCORDO
100
AcDbLine
 62
253
  6
CONTINUOUS
 10
-78.2031865729
 20
23.7411769289
 11
-78.1994647706
 21
23.5511625159
  0
LINE
  5
26A
100
AcDbEntity
  8
RACCORDO
100
AcDbLine
 62
253
  6
CONTINUOUS
 10
-79.1212721827
 20
-41.1280544324
 11
-79.1174161625
 21
-42.7463565643
  0
LINE
  5
26B
100
AcDbEntity
  8
RACCORDO
100
AcDbLine
 62
7
  6
CONTINUOUS
 10
-79.3091447895
 20
-21.1849625086
 11
-79.3205706761
 21
-13.9533475472
  0
LINE
  5
26C
100
AcDbEntity
  8
RACCORDO
100
AcDbLine
 62
253
  6
CONTINUOUS
 10
-79.141542587
 20
-29.7303715931
 11
-79.1212721827
 21
-41.1280544324
  0
LINE
  5
26D
100
AcDbEntity
  8
RACCORDO
100
AcDbLine
 62
253
  6
CONTINUOUS
 10
-79.1133931881
 20
-21.1789814514
 11
-79.1242189249
 21
-14.4128794111
  0
LINE
  5
26E
100
AcDbEntity
  8
RACCORDO
100
AcDbLine
 62
253
  6
CONTINUOUS
 10
-79.1242189249
 20
-14.4128794111
 11
-79.1299730569
 21
-9.0352120861
  0
LINE
  5
26F
100
AcDbEntity
  8
RACCORDO
100
AcDbLine
 62
7
  6
CONTINUOUS
 10
-79.3205706761
 20
-13.9533475472
 11
-79.327434623
 21
-6.7175660387
  0
LINE
  5
270
100
AcDbEntity
  8
RACCORDO
100
AcDbLine
 62
253
  6
CONTINUOUS
 10
-79.1483533172
 20
-22.348505891
 11
-79.141542587
 21
-29.7303715931
  0
LINE
  5
271
100
AcDbEntity
  8
RACCORDO
100
AcDbLine
 62
253
  6
CONTINUOUS
 10
-79.1299730569
 20
-9.0352120861
 11
-79.1332793964
 21
-3.3903690574
  0
LINE
  5
272
100
AcDbEntity
  8
0
100
AcDbLine
 62
253
  6
CONTINUOUS
 10
-78.1935686413
 20
-21.9790150728
 11
-78.1935339733
 21
-22.0970456213
  0
LINE
  5
273
100
AcDbEntity
  8
RACCORDO
100
AcDbLine
 62
7
  6
CONTINUOUS
 10
-79.327434623
 20
-6.7175660387
 11
-79.3297131111
 21
0.5209849272
  0
LINE
  5
274
100
AcDbEntity
  8
0
100
AcDbLine
 62
7
  6
CONTINUOUS
 10
-78.9935686413
 20
22.2209849272
 11
-78.9935686413
 21
-21.1790150728
  0
LINE
  5
275
100
AcDbEntity
  8
RACCORDO
100
AcDbLine
 62
253
  6
CONTINUOUS
 10
-78.1935686412
 20
23.331689484
 11
-78.1935686413
 21
23.1390154758
  0
LINE
  5
276
100
AcDbEntity
  8
RACCORDO
100
AcDbLine
 62
253
  6
CONTINUOUS
 10
-78.1935687455
 20
-22.2897196286
 11
-78.1935686412
 21
-22.0970456213
  0
LINE
  5
277
100
AcDbEntity
  8
RACCORDO
100
AcDbLine
 62
253
  6
CONTINUOUS
 10
-79.1332793964
 20
-3.3903690574
 11
-79.1337731606
 21
2.4914760417
  0
LINE
  5
278
100
AcDbEntity
  8
0
100
AcDbLine
 62
253
  6
CONTINUOUS
 10
-78.1935686413
 20
23.0209849272
 11
-78.193533977
 21
23.1390154758
  0
LINE
  5
279
100
AcDbEntity
  8
RACCORDO
100
AcDbLine
 62
7
  6
CONTINUOUS
 10
-79.3297130969
 20
0.5209849272
 11
-79.3274345329
 21
7.7596560702
  0
LINE
  5
27A
100
AcDbEntity
  8
RACCORDO
100
AcDbLine
 62
253
  6
CONTINUOUS
 10
-79.1337731606
 20
2.4914760417
 11
-79.1313793446
 21
8.2251918613
  0
LINE
  5
27B
100
AcDbEntity
  8
RACCORDO
100
AcDbLine
 62
7
  6
CONTINUOUS
 10
-79.3274345329
 20
7.7596560702
 11
-79.3205704422
 21
14.9955106749
  0
LINE
  5
27C
100
AcDbEntity
  8
RACCORDO
100
AcDbLine
 62
253
  6
CONTINUOUS
 10
-79.1483533172
 20
23.3904757455
 11
-79.141542587
 21
30.7723414477
  0
LINE
  5
27D
100
AcDbEntity
  8
RACCORDO
100
AcDbLine
 62
253
  6
CONTINUOUS
 10
-79.1313793446
 20
8.2251918613
 11
-79.1218288485
 21
17.1884657302
  0
LINE
  5
27E
100
AcDbEntity
  8
RACCORDO
100
AcDbLine
 62
7
  6
CONTINUOUS
 10
-79.3205704422
 20
14.9955106749
 11
-79.3091442505
 21
22.2272126452
  0
LINE
  5
27F
100
AcDbEntity
  8
RACCORDO
100
AcDbLine
 62
253
  6
CONTINUOUS
 10
-79.141542587
 20
30.7723414477
 11
-79.1282659773
 21
38.925049938
  0
LINE
  5
280
100
AcDbEntity
  8
RACCORDO
100
AcDbLine
 62
253
  6
CONTINUOUS
 10
-79.1218288485
 20
17.1884657302
 11
-79.1133931882
 21
22.2209512732
  0
LINE
  5
281
100
AcDbEntity
  8
RACCORDO
100
AcDbLine
 62
253
  6
CONTINUOUS
 10
-79.1282659773
 20
38.925049938
 11
-79.1174161592
 21
43.7883264189
  0
LWPOLYLINE
  5
282
100
AcDbEntity
  8
RACCORDO
100
AcDbPolyline
 62
253
  6
CONTINUOUS
 90
5
 70
0
 10
-79.1235043901
 20
-42.9690480475
 10
-79.1236274803
 20
-42.9786547287
 10
-79.1236678267
 20
-42.9859817061
 10
-79.1236251061
 20
-42.9909702664
 10
-79.1234996608
 20
-42.9935804347
  0
LINE
  5
283
100
AcDbEntity
  8
RACCORDO
100
AcDbLine
 62
253
  6
CONTINUOUS
 10
-79.1230145793
 20
-42.9433211502
 11
-79.1235043901
 21
-42.9690480475
  0
LINE
  5
284
100
AcDbEntity
  8
RACCORDO
100
AcDbLine
 62
253
  6
CONTINUOUS
 10
-78.2031865717
 20
-22.6992070704
 11
-78.1984538855
 21
-22.4629761006
  0
LINE
  5
285
100
AcDbEntity
  8
RACCORDO
100
AcDbLine
 62
253
  6
CONTINUOUS
 10
-78.1984538855
 20
-22.4629761006
 11
-78.194232269
 21
-22.2897253876
  0
LINE
  5
286
100
AcDbEntity
  8
RACCORDO
100
AcDbLine
 62
253
  6
CONTINUOUS
 10
-79.1217049244
 20
-42.8901143553
 11
-79.1230145793
 21
-42.9433211502
  0
LWPOLYLINE
  5
287
100
AcDbEntity
  8
RACCORDO
100
AcDbPolyline
 62
253
  6
CONTINUOUS
 90
31
 70
0
 10
-79.113393209
 20
22.2209512732
 10
-79.1120845586
 20
22.2682877397
 10
-79.1083301687
 20
22.3156053186
 10
-79.1021225565
 20
22.3627766473
 10
-79.093461765
 20
22.4096684301
 10
-79.0823533925
 20
22.4561562858
 10
-79.068806207
 20
22.5021245877
 10
-79.05282348
 20
22.5474794721
 10
-79.0344404247
 20
22.5920523997
 10
-79.0137370032
 20
22.6356218218
 10
-78.9907795848
 20
22.6780449766
 10
-78.9656170669
 20
22.7192261293
 10
-78.9383314299
 20
22.7590270875
 10
-78.9090111424
 20
22.7973212741
 10
-78.8777260183
 20
22.8340223154
 10
-78.8445376101
 20
22.8690571761
 10
-78.8095171518
 20
22.9023415314
 10
-78.7727715908
 20
22.9337625675
 10
-78.7344225562
 20
22.9632112245
 10
-78.6945770155
 20
22.9906036948
 10
-78.6533432158
 20
23.0158657754
 10
-78.610855823
 20
23.0389179653
 10
-78.5672403514
 20
23.0596967771
 10
-78.5226112257
 20
23.0781507206
 10
-78.477092598
 20
23.0942310452
 10
-78.4307727585
 20
23.1079059765
 10
-78.3838165718
 20
23.1191268313
 10
-78.3364701675
 20
23.1278476267
 10
-78.2889058471
 20
23.1340614917
 10
-78.2412170096
 20
23.1377804628
 10
-78.193533977
 20
23.1390154697
  0
LWPOLYLINE
  5
288
100
AcDbEntity
  8
RACCORDO
100
AcDbPolyline
 62
253
  6
CONTINUOUS
 90
3
 70
0
 10
-79.1174143876
 20
-42.7463566244
 10
-79.1182488457
 20
-42.7725512176
 10
-79.1217049244
 20
-42.8901143553
  0
LWPOLYLINE
  5
289
100
AcDbEntity
  8
RACCORDO
100
AcDbPolyline
 62
253
  6
CONTINUOUS
 90
16
 70
0
 10
-79.1483533172
 20
23.3904757455
 10
-79.0936261988
 20
23.4338292832
 10
-79.0368542859
 20
23.4746313458
 10
-78.9780375849
 20
23.5128819617
 10
-78.9168531827
 20
23.5487729208
 10
-78.8536240028
 20
23.5821124839
 10
-78.7893188053
 20
23.612325388
 10
-78.7239145111
 20
23.6392526121
 10
-78.657434205
 20
23.6630532277
 10
-78.5909158923
 20
23.6836291129
 10
-78.5243313997
 20
23.7008732276
 10
-78.4577089
 20
23.7148926463
 10
-78.3921709171
 20
23.7259104146
 10
-78.3280916241
 20
23.7340008859
 10
-78.2650968437
 20
23.7390897225
 10
-78.2031865729
 20
23.7411769289
  0
LWPOLYLINE
  5
28A
100
AcDbEntity
  8
RACCORDO
100
AcDbPolyline
 62
7
  6
CONTINUOUS
 90
16
 70
0
 10
-78.8932155727
 20
23.0789069246
 10
-78.8527240946
 20
23.1102802141
 10
-78.8110327449
 20
23.1396944543
 10
-78.7683065615
 20
23.1670723822
 10
-78.7246598859
 20
23.1923568893
 10
-78.680125093
 20
23.2155516608
 10
-78.634666687
 20
23.2366959799
 10
-78.588405423
 20
23.2557578949
 10
-78.5414137067
 20
23.2727316038
 10
-78.4935750636
 20
23.2876569818
 10
-78.444897229
 20
23.3005070273
 10
-78.395570257
 20
23.3112081306
 10
-78.3457437256
 20
23.3197088542
 10
-78.2955250661
 20
23.3259699325
 10
-78.2449861125
 20
23.329967729
 10
-78.1942323438
 20
23.3316958247
  0
LWPOLYLINE
  5
28B
100
AcDbEntity
  8
RACCORDO
100
AcDbPolyline
 62
253
  6
CONTINUOUS
 90
46
 70
0
 10
87.5904706446
 20
-42.3409354117
 10
88.0740576485
 20
-42.2968626918
 10
88.5556821042
 20
-42.238596212
 10
89.0353543434
 20
-42.1661331573
 10
89.5136295544
 20
-42.0793711546
 10
89.9899720501
 20
-41.9784049205
 10
90.4627551286
 20
-41.8635263851
 10
90.9318781502
 20
-41.7346906446
 10
91.397458174
 20
-41.5919313713
 10
91.8581938838
 20
-41.4356577668
 10
92.3140102524
 20
-41.2658538451
 10
92.7649946318
 20
-41.0825214452
 10
93.2100877914
 20
-40.8860962079
 10
93.6492931426
 20
-40.6765430228
 10
94.0826149866
 20
-40.4538806128
 10
94.5089937806
 20
-40.2186253911
 10
94.9284287114
 20
-39.9707364471
 10
95.3409233169
 20
-39.7102368928
 10
95.7454228361
 20
-39.4377395917
 10
96.1419239997
 20
-39.1531946932
 10
96.5304276773
 20
-38.8566337474
 10
96.9098835763
 20
-38.5487925858
 10
97.2802660689
 20
-38.2296307728
 10
97.6415933819
 20
-37.8991709359
 10
97.9928794099
 20
-37.5582448255
 10
98.3340933027
 20
-37.2068144813
 10
98.6652539566
 20
-36.8449014542
 10
98.9854485776
 20
-36.4734284936
 10
99.2946541058
 20
-36.0923389609
 10
99.5928777996
 20
-35.7016752837
 10
99.8792514448
 20
-35.3025109623
 10
100.1537300989
 20
-34.8948053029
 10
100.4163400072
 20
-34.4785878101
 10
100.6663193722
 20
-34.0550398076
 10
100.9036013138
 20
-33.6241688426
 10
101.128232303
 20
-33.185959757
 10
101.3396207788
 20
-32.7415624497
 10
101.5377559562
 20
-32.2908309134
 10
101.7226275933
 20
-31.8339070467
 10
101.8936459181
 20
-31.372375569
 10
102.0507270749
 20
-30.9061773033
 10
102.1939349808
 20
-30.4353716758
 10
102.3229034748
 20
-29.9617246665
 10
102.4375052791
 20
-29.4858271046
 10
102.5378507138
 20
-29.0070929379
 10
102.6239313555
 20
-28.5255245976
  0
LWPOLYLINE
  5
28C
100
AcDbEntity
  8
RACCORDO
100
AcDbPolyline
 62
253
  6
CONTINUOUS
 90
46
 70
0
 10
87.6005924122
 20
-42.5882210604
 10
88.0918297534
 20
-42.5434655521
 10
88.5819131297
 20
-42.4842263193
 10
89.0704111729
 20
-42.4105226909
 10
89.5569980634
 20
-42.3223659159
 10
90.0411354865
 20
-42.2198161418
 10
90.5220796282
 20
-42.1030133527
 10
90.9993269176
 20
-41.9720792897
 10
91.4725407318
 20
-41.827107266
 10
91.9412402142
 20
-41.6682471423
 10
92.4049472894
 20
-41.4956670879
 10
92.8633271792
 20
-41.3094990073
 10
93.3161181052
 20
-41.1098500018
 10
93.7629303297
 20
-40.8968803263
 10
94.203357946
 20
-40.6707726074
 10
94.6371133322
 20
-40.4316638942
 10
95.0638186071
 20
-40.1797392233
 10
95.4830781699
 20
-39.9152093656
 10
95.8945786362
 20
-39.6382526337
 10
96.2979608815
 20
-39.3490783442
 10
96.6928387243
 20
-39.0479311206
 10
97.0788641281
 20
-38.7350523854
 10
97.4556820606
 20
-38.4106953236
 10
97.8229422497
 20
-38.0751267579
 10
98.1803142949
 20
-37.7286228083
 10
98.5274655032
 20
-37.3714681309
 10
98.8640690501
 20
-37.0039605027
 10
99.1898158153
 20
-36.6264096503
 10
99.5044144844
 20
-36.2391098723
 10
99.8075477095
 20
-35.8424073772
 10
100.0988872503
 20
-35.4367072589
 10
100.3781637146
 20
-35.0223501233
 10
100.6451084103
 20
-34.5996988133
 10
100.8994237082
 20
-34.1692125315
 10
101.1408576091
 20
-33.7313010974
 10
101.3692070205
 20
-33.2863150813
 10
101.5842722141
 20
-32.8346387052
 10
101.7859057433
 20
-32.3765421593
 10
101.9738583486
 20
-31.9125490952
 10
102.1478278782
 20
-31.4434446079
 10
102.3076902556
 20
-30.969631447
 10
102.4533192341
 20
-30.4915567833
 10
102.5845015601
 20
-30.0101007388
 10
102.7011537018
 20
-29.5258550939
 10
102.8032776496
 20
-29.0391103624
 10
102.8908482427
 20
-28.5503052493
  0
LWPOLYLINE
  5
28D
100
AcDbEntity
  8
RACCORDO
100
AcDbPolyline
 62
253
  6
CONTINUOUS
 90
9
 70
0
 10
83.1613951725
 20
-42.8444758866
 10
83.7167670023
 20
-42.8214119274
 10
84.2720454111
 20
-42.7957835941
 10
84.8272375081
 20
-42.7675901482
 10
85.3823127899
 20
-42.7368327792
 10
85.9372031897
 20
-42.7035154834
 10
86.4918782809
 20
-42.6676407851
 10
87.0463452289
 20
-42.6292088586
 10
87.6005924108
 20
-42.5882210433
  0
LWPOLYLINE
  5
28E
100
AcDbEntity
  8
RACCORDO
100
AcDbPolyline
 62
253
  6
CONTINUOUS
 90
9
 70
0
 10
83.1578642246
 20
-42.5970316761
 10
83.7123983667
 20
-42.573982933
 10
84.2668281556
 20
-42.5483718914
 10
84.8211826573
 20
-42.5201963909
 10
85.3754337751
 20
-42.4894581176
 10
85.9294962562
 20
-42.456162605
 10
86.483341985
 20
-42.420311496
 10
87.0369999738
 20
-42.3819025432
 10
87.5904706446
 20
-42.3409354117
  0
LINE
  5
28F
100
AcDbEntity
  8
RACCORDO
100
AcDbLine
 62
253
  6
CONTINUOUS
 10
81.7648726567
 20
-42.6464565444
 11
83.1578642246
 21
-42.5970316761
  0
LINE
  5
290
100
AcDbEntity
  8
RACCORDO
100
AcDbLine
 62
253
  6
CONTINUOUS
 10
81.3495182457
 20
-42.9082382579
 11
83.1613951725
 21
-42.8444758866
  0
LINE
  5
291
100
AcDbEntity
  8
RACCORDO
100
AcDbLine
 62
253
  6
CONTINUOUS
 10
80.5118428493
 20
-42.9368611619
 11
81.3495182457
 21
-42.9082382579
  0
LINE
  5
292
100
AcDbEntity
  8
RACCORDO
100
AcDbLine
 62
253
  6
CONTINUOUS
 10
80.5072542037
 20
-42.6895345408
 11
81.7648726567
 21
-42.6464565444
  0
LINE
  5
293
100
AcDbEntity
  8
RACCORDO
100
AcDbLine
 62
253
  6
CONTINUOUS
 10
79.6687863662
 20
-42.7180334799
 11
80.5072542037
 21
-42.6895345408
  0
LINE
  5
294
100
AcDbEntity
  8
RACCORDO
100
AcDbLine
 62
253
  6
CONTINUOUS
 10
79.2552484829
 20
-42.979466454
 11
80.5118428493
 21
-42.9368611619
  0
LWPOLYLINE
  5
295
100
AcDbEntity
  8
RACCORDO
100
AcDbPolyline
 62
253
  6
CONTINUOUS
 90
10
 70
0
 10
-87.8877178718
 20
-42.588221946
 10
-87.333477531
 20
-42.6292092155
 10
-86.7790157168
 20
-42.6676407747
 10
-86.2243440499
 20
-42.7035152603
 10
-85.6694549409
 20
-42.7368324984
 10
-85.1143792369
 20
-42.7675899122
 10
-84.5591862718
 20
-42.7957834207
 10
-84.0039069714
 20
-42.8214118097
 10
-83.4485338038
 20
-42.8444758338
 10
-79.9612609716
 20
-42.9653085861
  0
LWPOLYLINE
  5
296
100
AcDbEntity
  8
RACCORDO
100
AcDbPolyline
 62
253
  6
CONTINUOUS
 90
10
 70
0
 10
-87.8776079273
 20
-42.3409354117
 10
-87.3241375395
 20
-42.3819025238
 10
-86.7704797624
 20
-42.4203114631
 10
-86.216634174
 20
-42.4561625643
 10
-85.662571761
 20
-42.4894580762
 10
-85.1083206398
 20
-42.5201963545
 10
-84.5539660659
 20
-42.548371862
 10
-83.9995361367
 20
-42.5739829114
 10
-83.4450017854
 20
-42.5970316643
 10
-80.3751629826
 20
-42.7038060058
  0
LWPOLYLINE
  5
297
100
AcDbEntity
  8
RACCORDO
100
AcDbPolyline
 62
7
  6
CONTINUOUS
 90
19
 70
0
 10
-78.8932097787
 20
-22.0369304518
 10
-78.9342332074
 20
-22.0019580908
 10
-78.9734406769
 20
-21.9651238716
 10
-79.0107735057
 20
-21.926486529
 10
-79.0462337502
 20
-21.8860925182
 10
-79.0797796424
 20
-21.8440171911
 10
-79.1112739289
 20
-21.8004325046
 10
-79.1405219929
 20
-21.7556098404
 10
-79.1674884956
 20
-21.7096479623
 10
-79.1922656245
 20
-21.6624220904
 10
-79.2148466362
 20
-21.6139391188
 10
-79.2351801355
 20
-21.5642279939
 10
-79.2532579013
 20
-21.5131906981
 10
-79.2689667144
 20
-21.4609953197
 10
-79.2822111034
 20
-21.4078189203
 10
-79.292950697
 20
-21.353569528
 10
-79.3010946179
 20
-21.29824563
 10
-79.3065226779
 20
-21.2419946529
 10
-79.3091454382
 20
-21.18496253
  0
LWPOLYLINE
  5
298
100
AcDbEntity
  8
RACCORDO
100
AcDbPolyline
 62
253
  6
CONTINUOUS
 90
22
 70
0
 10
-79.1483533172
 20
-22.348505891
 10
-79.1956855309
 20
-22.3077192184
 10
-79.2412298036
 20
-22.2650759239
 10
-79.2849861416
 20
-22.220575986
 10
-79.3270362486
 20
-22.1741402432
 10
-79.3672984236
 20
-22.1258478111
 10
-79.4055275516
 20
-22.0759360859
 10
-79.4417145761
 20
-22.0243862861
 10
-79.475868517
 20
-21.9712171495
 10
-79.5077713538
 20
-21.9167223583
 10
-79.5374153633
 20
-21.8608729324
 10
-79.5648081953
 20
-21.8036978134
 10
-79.5897548692
 20
-21.7455775752
 10
-79.6122201771
 20
-21.6865044754
 10
-79.6322392199
 20
-21.6264862281
 10
-79.6497224658
 20
-21.5659266042
 10
-79.6646443422
 20
-21.5048258733
 10
-79.6770302932
 20
-21.4431837501
 10
-79.6868673054
 20
-21.3814031854
 10
-79.694150995
 20
-21.3196184981
 10
-79.6988856087
 20
-21.2576953681
 10
-79.7010710768
 20
-21.1956337942
  0
LWPOLYLINE
  5
299
100
AcDbEntity
  8
RACCORDO
100
AcDbPolyline
 62
253
  6
CONTINUOUS
 90
18
 70
0
 10
-70.363030882
 20
-43.2719570802
 10
-61.5977363443
 20
-43.5177520347
 10
-52.8277353464
 20
-43.7309182389
 10
-44.0521123474
 20
-43.9114331763
 10
-35.2720223301
 20
-44.0592186412
 10
-26.4906916309
 20
-44.1741799185
 10
-17.7090251322
 20
-44.2562980391
 10
-8.9263604153
 20
-44.3055780941
 10
-0.1435738201
 20
-44.3220059531
 10
8.6392133326
 20
-44.3055781308
 10
17.421879583
 20
-44.2562981009
 10
26.2035483824
 20
-44.1741799854
 10
34.9848829513
 20
-44.0592186728
 10
43.7649776052
 20
-43.9114331291
 10
52.540603393
 20
-43.7309181193
 10
61.310604461
 20
-43.517751893
 10
70.075897222
 20
-43.2719569714
 10
79.2552484829
 20
-42.979466454
  0
LWPOLYLINE
  5
29A
100
AcDbEntity
  8
RACCORDO
100
AcDbPolyline
 62
253
  6
CONTINUOUS
 90
18
 70
0
 10
-70.3574164404
 20
-43.0253565672
 10
-61.592837581
 20
-43.2715722431
 10
-52.8236768875
 20
-43.485031414
 10
-44.0487693866
 20
-43.6658262752
 10
-35.2692715211
 20
-43.8139100426
 10
-26.4886611939
 20
-43.9290969493
 10
-17.7077134233
 20
-44.0113469106
 10
-8.9256401071
 20
-44.0607235594
 10
-0.1435736028
 20
-44.0771910676
 10
8.6384934589
 20
-44.0607235895
 10
17.420568308
 20
-44.0113469708
 10
26.2015183782
 20
-43.9290970115
 10
34.982132582
 20
-43.8139100481
 10
43.7616350909
 20
-43.6658261957
 10
52.5365453626
 20
-43.4850312846
 10
61.3057060749
 20
-43.2715721199
 10
70.0702830805
 20
-43.0253564853
 10
79.6687863662
 20
-42.7180334799
  0
LINE
  5
29B
100
AcDbEntity
  8
RACCORDO
100
AcDbLine
 62
253
  6
CONTINUOUS
 10
-79.9612609716
 20
-42.9653085861
 11
-70.363030882
 21
-43.2719570802
  0
LINE
  5
29C
100
AcDbEntity
  8
RACCORDO
100
AcDbLine
 62
253
  6
CONTINUOUS
 10
-80.3751629826
 20
-42.7038060058
 11
-70.3574164404
 21
-43.0253565672
  0
LINE
  5
29D
100
AcDbEntity
  8
RACCORDO
100
AcDbLine
 62
253
  6
CONTINUOUS
 10
-78.9727178741
 20
-22.1348683034
 11
-78.8932097787
 21
-22.0369304518
  0
LINE
  5
29E
100
AcDbEntity
  8
RACCORDO
100
AcDbLine
 62
253
  6
CONTINUOUS
 10
-79.0885549431
 20
-22.2761366441
 11
-78.9727178741
 21
-22.1348683034
  0
LINE
  5
29F
100
AcDbEntity
  8
RACCORDO
100
AcDbLine
 62
253
  6
CONTINUOUS
 10
-79.148353305
 20
-22.3485058509
 11
-79.0885549431
 21
-22.2761366441
  0
LWPOLYLINE
  5
2A0
100
AcDbEntity
  8
0
100
AcDbPolyline
 62
7
  6
CONTINUOUS
 90
7
 70
0
 10
4.6789345236
 20
-27.0333957008
 10
4.6898246884
 20
-27.0310391412
 10
4.7004305323
 20
-27.0277738253
 10
4.7107520556
 20
-27.0235997489
 10
4.7207000015
 20
-27.0184038855
 10
4.7303636272
 20
-27.0122992492
 10
4.7400107039
 20
-27.0056248977
  0
LWPOLYLINE
  5
2A1
100
AcDbEntity
  8
0
100
AcDbPolyline
 62
7
  6
CONTINUOUS
 90
10
 70
0
 10
3.7391286128
 20
-26.0340698687
 10
3.791742936
 20
-26.025360883
 10
3.8439787614
 20
-26.0183873449
 10
3.895836086
 20
-26.01314927
 10
3.9473921865
 20
-26.0096680998
 10
3.99856978
 20
-26.0079224121
 10
4.0491370238
 20
-26.0078479211
 10
4.0990166353
 20
-26.0094231969
 10
4.1482858912
 20
-26.012669666
 10
4.1969447888
 20
-26.0175873217
  0
LINE
  5
2A2
100
AcDbEntity
  8
0
100
AcDbLine
 62
7
  6
CONTINUOUS
 10
5.2155795706
 20
-28.3568164271
 11
4.6534469805
 21
-28.3568164271
  0
LINE
  5
2A3
100
AcDbEntity
  8
0
100
AcDbLine
 62
7
  6
CONTINUOUS
 10
3.7585067035
 20
-28.3568164271
 11
3.176450161
 21
-28.3568164271
  0
LINE
  5
2A4
100
AcDbEntity
  8
0
100
AcDbLine
 62
7
  6
CONTINUOUS
 10
3.0048393587
 20
-28.3568160728
 11
2.3888973587
 21
-28.3568160728
  0
LINE
  5
2A5
100
AcDbEntity
  8
0
100
AcDbLine
 62
7
  6
CONTINUOUS
 10
1.2803783587
 20
-28.3568160728
 11
0.7023113587
 21
-28.3568160728
  0
LINE
  5
2A6
100
AcDbEntity
  8
0
100
AcDbLine
 62
7
  6
CONTINUOUS
 10
0.6105433587
 20
-28.3568160728
 11
0.0388373587
 21
-28.3568160728
  0
LINE
  5
2A7
100
AcDbEntity
  8
0
100
AcDbLine
 62
7
  6
CONTINUOUS
 10
-0.7760926413
 20
-28.3568160728
 11
-0.8580556413
 21
-28.3568160728
  0
LINE
  5
2A8
100
AcDbEntity
  8
0
100
AcDbLine
 62
7
  6
CONTINUOUS
 10
-1.6697516413
 20
-28.3568160728
 11
-2.2288406413
 21
-28.3568160728
  0
LINE
  5
2A9
100
AcDbEntity
  8
0
100
AcDbLine
 62
7
  6
CONTINUOUS
 10
-2.5434456413
 20
-28.3568160728
 11
-3.1278536413
 21
-28.3568160728
  0
LINE
  5
2AA
100
AcDbEntity
  8
0
100
AcDbLine
 62
7
  6
CONTINUOUS
 10
-4.2446656413
 20
-28.3568160728
 11
-4.7596756413
 21
-28.3568160728
  0
LINE
  5
2AB
100
AcDbEntity
  8
0
100
AcDbLine
 62
7
  6
CONTINUOUS
 10
2.2375053587
 20
-27.7978960728
 11
1.4416383587
 21
-27.7978960728
  0
LINE
  5
2AC
100
AcDbEntity
  8
0
100
AcDbLine
 62
7
  6
CONTINUOUS
 10
2.1207113587
 20
-27.3654060728
 11
1.5611823587
 21
-27.3654060728
  0
LINE
  5
2AD
100
AcDbEntity
  8
0
100
AcDbLine
 62
7
  6
CONTINUOUS
 10
4.071852321
 20
-27.2611669975
 11
3.7585067035
 21
-27.2611669975
  0
LINE
  5
2AE
100
AcDbEntity
  8
0
100
AcDbLine
 62
7
  6
CONTINUOUS
 10
4.0731120018
 20
-26.8026431594
 11
3.7391286128
 21
-26.8026431594
  0
LINE
  5
2AF
100
AcDbEntity
  8
RACCORDO
100
AcDbLine
 62
253
  6
CONTINUOUS
 10
-79.1483534435
 20
23.3904761566
 11
-79.0296574475
 21
23.2464633267
  0
LWPOLYLINE
  5
2B0
100
AcDbEntity
  8
RACCORDO
100
AcDbPolyline
 62
253
  6
CONTINUOUS
 90
3
 70
0
 10
-79.0296574475
 20
23.2464633267
 10
-78.9187661887
 20
23.1104821625
 10
-78.8932155727
 20
23.0789069246
  0
LWPOLYLINE
  5
2B1
100
AcDbEntity
  8
RACCORDO
100
AcDbPolyline
 62
253
  6
CONTINUOUS
 90
3
 70
0
 10
-45.2037837019
 20
24.220895787
 10
-45.2032442605
 20
24.1697099843
 10
-45.1982319301
 20
23.7862123333
  0
LWPOLYLINE
  5
2B2
100
AcDbEntity
  8
RACCORDO
100
AcDbPolyline
 62
253
  6
CONTINUOUS
 90
3
 70
0
 10
-45.2037836899
 20
-23.1789258605
 10
-45.1988951184
 20
-22.7872182972
 10
-45.1982319301
 20
-22.7442424789
  0
LWPOLYLINE
  5
2B3
100
AcDbEntity
  8
RACCORDO
100
AcDbPolyline
 62
253
  6
CONTINUOUS
 90
17
 70
0
 10
-103.455211205
 20
-24.5490749945
 10
-103.5006193516
 20
-24.5529763486
 10
-103.5224854585
 20
-24.554720295
 10
-103.5436113327
 20
-24.5563117456
 10
-103.5638662974
 20
-24.5577408564
 10
-103.5831250627
 20
-24.5589987872
 10
-103.6012685009
 20
-24.560077757
 10
-103.6181843834
 20
-24.5609710918
 10
-103.6337680747
 20
-24.5616732656
 10
-103.6479231798
 20
-24.562179935
 10
-103.6605621405
 20
-24.5624879661
 10
-103.6716067766
 20
-24.5625954534
 10
-103.6809887701
 20
-24.5625017321
 10
-103.6886500875
 20
-24.5622073818
 10
-103.6945433387
 20
-24.5617142233
 10
-103.69863207
 20
-24.5610253072
 10
-103.7008909903
 20
-24.5601448948
  0
LWPOLYLINE
  5
2B4
100
AcDbEntity
  8
RACCORDO
100
AcDbPolyline
 62
253
  6
CONTINUOUS
 90
13
 70
0
 10
-103.6747469011
 20
-23.188027172
 10
-103.7142806795
 20
-23.1907309264
 10
-103.7324304987
 20
-23.1918450705
 10
-103.7493501443
 20
-23.1927911966
 10
-103.7649348669
 20
-23.1935634473
 10
-103.7790881819
 20
-23.1941570414
 10
-103.7917224663
 20
-23.1945683042
 10
-103.8027595016
 20
-23.1947946895
 10
-103.8121309576
 20
-23.1948347957
 10
-103.8197788158
 20
-23.1946883745
 10
-103.8256557284
 20
-23.1943563324
 10
-103.8297253117
 20
-23.1938407252
 10
-103.8319623709
 20
-23.1931447449
  0
LWPOLYLINE
  5
2B5
100
AcDbEntity
  8
RACCORDO
100
AcDbPolyline
 62
253
  6
CONTINUOUS
 90
13
 70
0
 10
-79.3091447868
 20
-21.1849639389
 10
-79.2810453158
 20
-21.1839054058
 10
-79.2547064242
 20
-21.1827641097
 10
-79.2302678329
 20
-21.1815461052
 10
-79.2078591827
 20
-21.1802578532
 10
-79.1875993456
 20
-21.1789061877
 10
-79.169595795
 20
-21.1774982789
 10
-79.1539440352
 20
-21.1760415955
 10
-79.1407270948
 20
-21.1745438647
 10
-79.1300150864
 20
-21.1730130316
 10
-79.1218648343
 20
-21.171457217
 10
-79.1163195737
 20
-21.169884674
 10
-79.1134087208
 20
-21.1683037446
  0
LINE
  5
2B6
100
AcDbEntity
  8
RACCORDO
100
AcDbLine
 62
253
  6
CONTINUOUS
 10
-79.3893545083
 20
-21.1870608438
 11
-79.3091447895
 21
-21.1849625086
  0
LWPOLYLINE
  5
2B7
100
AcDbEntity
  8
RACCORDO
100
AcDbPolyline
 62
253
  6
CONTINUOUS
 90
10
 70
0
 10
77.9160492902
 20
-22.6992070744
 10
74.2507464309
 20
-22.7652224939
 10
70.5851168732
 20
-22.8280590661
 10
66.9191618826
 20
-22.887716846
 10
63.2528835353
 20
-22.9441953595
 10
59.5862822777
 20
-22.997495183
 10
55.9193569264
 20
-23.0476179435
 10
52.2521079229
 20
-23.0945642122
 10
48.584537333
 20
-23.1383335045
 10
44.9166464071
 20
-23.1789258594
  0
LWPOLYLINE
  5
2B8
100
AcDbEntity
  8
RACCORDO
100
AcDbPolyline
 62
253
  6
CONTINUOUS
 90
10
 70
0
 10
75.4472589795
 20
-22.3097815139
 10
72.0554785894
 20
-22.3689270567
 10
68.6634146569
 20
-22.4253542477
 10
65.2710671818
 20
-22.479063087
 10
61.8784336937
 20
-22.5300531396
 10
58.485516663
 20
-22.5783248404
 10
55.0923235019
 20
-22.6238794942
 10
51.6988566809
 20
-22.666717536
 10
48.3051137295
 20
-22.7068385309
 10
44.9110946475
 20
-22.7442424789
  0
LINE
  5
2B9
100
AcDbEntity
  8
RACCORDO
100
AcDbLine
 62
253
  6
CONTINUOUS
 10
-79.4747448275
 20
-21.1886955829
 11
-79.3893545083
 21
-21.1870608438
  0
LINE
  5
2BA
100
AcDbEntity
  8
RACCORDO
100
AcDbLine
 62
253
  6
CONTINUOUS
 10
-79.5638444013
 20
-21.1898387244
 11
-79.4747448275
 21
-21.1886955829
  0
LWPOLYLINE
  5
2BB
100
AcDbEntity
  8
RACCORDO
100
AcDbPolyline
 62
253
  6
CONTINUOUS
 90
10
 70
0
 10
44.9166464071
 20
-23.1789258594
 10
34.906743586
 20
-23.2737761847
 10
24.8950724232
 20
-23.3449120944
 10
14.881658329
 20
-23.3923351538
 10
4.8654066324
 20
-23.4160464226
 10
-5.1525377125
 20
-23.4160464314
 10
-15.1687900294
 20
-23.3923351736
 10
-25.182205364
 20
-23.3449121142
 10
-35.1938783877
 20
-23.2737761979
 10
-45.2037836897
 20
-23.1789258594
  0
LWPOLYLINE
  5
2BC
100
AcDbEntity
  8
RACCORDO
100
AcDbPolyline
 62
253
  6
CONTINUOUS
 90
10
 70
0
 10
44.9110946475
 20
-22.7442424789
 10
34.9023996863
 20
-22.8386615491
 10
24.891978817
 20
-22.9094758534
 10
14.8798320396
 20
-22.9566853918
 10
4.8648089556
 20
-22.9802901665
 10
-5.1519400364
 20
-22.9802901753
 10
-15.1669637406
 20
-22.9566854116
 10
-25.1791117583
 20
-22.9094758732
 10
-35.1895344882
 20
-22.8386615623
 10
-45.1982319302
 20
-22.7442424789
  0
LINE
  5
2BD
100
AcDbEntity
  8
RACCORDO
100
AcDbLine
 62
7
  6
CONTINUOUS
 10
77.9064313586
 20
-22.2897196295
 11
75.4473224355
 21
-22.3097815139
  0
LWPOLYLINE
  5
2BE
100
AcDbEntity
  8
RACCORDO
100
AcDbPolyline
 62
253
  6
CONTINUOUS
 90
3
 70
0
 10
-79.7010795291
 20
-21.1905921372
 10
-79.6551181259
 20
-21.1904711968
 10
-79.5638444013
 20
-21.1898387244
  0
LINE
  5
2BF
100
AcDbEntity
  8
0
100
AcDbLine
 62
253
  6
CONTINUOUS
 10
78.7064313587
 20
-21.1790150728
 11
78.8262511454
 21
-21.1789987053
  0
LINE
  5
2C0
100
AcDbEntity
  8
0
100
AcDbLine
 62
7
  6
CONTINUOUS
 10
2.1458213587
 20
-25.5571130728
 11
1.5804763587
 21
-25.5571130728
  0
LINE
  5
2C1
100
AcDbEntity
  8
0
100
AcDbLine
 62
7
  6
CONTINUOUS
 10
0.3487393587
 20
-25.5571130728
 11
-0.2294746413
 21
-25.5571130728
  0
LINE
  5
2C2
100
AcDbEntity
  8
0
100
AcDbLine
 62
7
  6
CONTINUOUS
 10
-1.3921186413
 20
-25.5571130728
 11
-1.9760436413
 21
-25.5571130728
  0
LINE
  5
2C3
100
AcDbEntity
  8
0
100
AcDbLine
 62
7
  6
CONTINUOUS
 10
-3.3447286413
 20
-25.5571130728
 11
-3.9287376413
 21
-25.5571130728
  0
LINE
  5
2C4
100
AcDbEntity
  8
0
100
AcDbLine
 62
7
  6
CONTINUOUS
 10
-5.0123886413
 20
-25.5571130728
 11
-5.6472366413
 21
-25.5571130728
  0
LINE
  5
2C5
100
AcDbEntity
  8
0
100
AcDbLine
 62
7
  6
CONTINUOUS
 10
-2.5434456413
 20
-25.5569450728
 11
-3.1278536413
 21
-25.5569450728
  0
LINE
  5
2C6
100
AcDbEntity
  8
RACCORDO
100
AcDbLine
 62
253
  6
CONTINUOUS
 10
-103.5630034168
 20
-23.1789068397
 11
-45.2037836897
 21
-23.1789258594
  0
LINE
  5
2C7
100
AcDbEntity
  8
RACCORDO
100
AcDbLine
 62
253
  6
CONTINUOUS
 10
44.9166464071
 20
-23.1789258594
 11
103.275866136
 21
-23.1789068192
  0
LINE
  5
2C8
100
AcDbEntity
  8
RACCORDO
100
AcDbLine
 62
253
  6
CONTINUOUS
 10
75.4472589795
 20
-22.3097815139
 11
-75.7343962849
 21
-22.3097815139
  0
LINE
  5
2C9
100
AcDbEntity
  8
RACCORDO
100
AcDbLine
 62
253
  6
CONTINUOUS
 10
77.9063823743
 20
-22.0970456213
 11
-78.1935339733
 21
-22.0970456213
  0
LINE
  5
2CA
100
AcDbEntity
  8
0
100
AcDbLine
 62
7
  6
CONTINUOUS
 10
77.9064313587
 20
-21.9790150728
 11
-78.1935686413
 21
-21.9790150728
  0
LINE
  5
2CB
100
AcDbEntity
  8
0
100
AcDbLine
 62
253
  6
CONTINUOUS
 10
-78.9935686413
 20
-21.1790150728
 11
-79.1133931881
 21
-21.1789814514
  0
LINE
  5
2CC
100
AcDbEntity
  8
RACCORDO
100
AcDbLine
 62
7
  6
CONTINUOUS
 10
-75.7344597411
 20
-22.3097815139
 11
-78.1935687455
 21
-22.2897196286
  0
LINE
  5
2CD
100
AcDbEntity
  8
RACCORDO
100
AcDbLine
 62
253
  6
CONTINUOUS
 10
78.9778866924
 20
-21.1850859319
 11
79.022006581
 21
-21.1854561978
  0
LWPOLYLINE
  5
2CE
100
AcDbEntity
  8
RACCORDO
100
AcDbPolyline
 62
253
  6
CONTINUOUS
 90
10
 70
0
 10
-45.1982319302
 20
-22.7442424789
 10
-48.5922514681
 20
-22.7068385253
 10
-51.9859947636
 20
-22.6667175259
 10
-55.3794618166
 20
-22.6238794808
 10
-58.7726550999
 20
-22.5783248244
 10
-62.1655721408
 20
-22.5300531223
 10
-65.5582055215
 20
-22.4790630706
 10
-68.9505527694
 20
-22.4253542346
 10
-72.3426163572
 20
-22.3689270491
 10
-75.7343962849
 20
-22.3097815139
  0
LWPOLYLINE
  5
2CF
100
AcDbEntity
  8
RACCORDO
100
AcDbPolyline
 62
253
  6
CONTINUOUS
 90
10
 70
0
 10
-45.2037836897
 20
-23.1789258594
 10
-48.8716751511
 20
-23.1383334978
 10
-52.5392461394
 20
-23.0945642003
 10
-56.2064954041
 20
-23.0476179277
 10
-59.873420875
 20
-22.9974951645
 10
-63.5400221152
 20
-22.9441953398
 10
-67.2063003209
 20
-22.8877168275
 10
-70.8722550503
 20
-22.8280590514
 10
-74.5378842228
 20
-22.7652224854
 10
-78.2031865728
 20
-22.6992070744
  0
LWPOLYLINE
  5
2D0
100
AcDbEntity
  8
RACCORDO
100
AcDbPolyline
 62
253
  6
CONTINUOUS
 90
7
 70
0
 10
-79.3090880726
 20
-21.1874549992
 10
-79.2809759299
 20
-21.1878463041
 10
-79.2546321022
 20
-21.1879313279
 10
-79.2301951409
 20
-21.1877033192
 10
-79.2077949603
 20
-21.1870551352
 10
-79.1875472753
 20
-21.1860715173
 10
-79.1539106348
 20
-21.1840916787
  0
LINE
  5
2D1
100
AcDbEntity
  8
RACCORDO
100
AcDbLine
 62
253
  6
CONTINUOUS
 10
78.9384848042
 20
-21.1845129594
 11
78.9778866924
 21
-21.1850859319
  0
LINE
  5
2D2
100
AcDbEntity
  8
RACCORDO
100
AcDbLine
 62
253
  6
CONTINUOUS
 10
79.4138939057
 20
-21.1961555497
 11
79.3221341873
 21
-21.1945408384
  0
LINE
  5
2D3
100
AcDbEntity
  8
RACCORDO
100
AcDbLine
 62
253
  6
CONTINUOUS
 10
79.3221341873
 20
-21.1945408384
 11
79.231764659
 21
-21.1924300718
  0
LWPOLYLINE
  5
2D4
100
AcDbEntity
  8
RACCORDO
100
AcDbPolyline
 62
253
  6
CONTINUOUS
 90
31
 70
0
 10
-78.1935339733
 20
-22.0970456153
 10
-78.2412173576
 20
-22.0958105902
 10
-78.2889067973
 20
-22.0920915382
 10
-78.3364719623
 20
-22.08587749
 10
-78.3838200368
 20
-22.0771562447
 10
-78.4307780928
 20
-22.0659346987
 10
-78.4770982388
 20
-22.052259363
 10
-78.5226145088
 20
-22.0361796079
 10
-78.5672399229
 20
-22.0177271127
 10
-78.6108521716
 20
-21.9969499695
 10
-78.653336893
 20
-21.9738995696
 10
-78.6945685058
 20
-21.9486393665
 10
-78.7344137259
 20
-21.9212477889
 10
-78.7727651877
 20
-21.8917979037
 10
-78.8095145589
 20
-21.8603740152
 10
-78.844538285
 20
-21.8270866456
 10
-78.8777291051
 20
-21.7920490262
 10
-78.9090161558
 20
-21.7553452159
 10
-78.9383373495
 20
-21.7170490664
 10
-78.9656226296
 20
-21.6772476856
 10
-78.9907841398
 20
-21.636067208
 10
-79.0137406166
 20
-21.5936448505
 10
-79.0344433329
 20
-21.5500759865
 10
-79.0528257354
 20
-21.505503714
 10
-79.0688078828
 20
-21.4601495493
 10
-79.0823545691
 20
-21.414182018
 10
-79.0934625249
 20
-21.3676949854
 10
-79.1021229873
 20
-21.3208040662
 10
-79.1083303617
 20
-21.2736336331
 10
-79.1120846072
 20
-21.2263169764
 10
-79.113393209
 20
-21.1789814514
  0
LWPOLYLINE
  5
2D5
100
AcDbEntity
  8
0
100
AcDbPolyline
 62
7
  6
CONTINUOUS
 90
19
 70
0
 10
4.071852321
 20
-27.2611669975
 10
4.0946137173
 20
-27.2618282191
 10
4.1171162119
 20
-27.2640112931
 10
4.1393598035
 20
-27.2677162149
 10
4.1613943607
 20
-27.2728521159
 10
4.1831700122
 20
-27.2795098456
 10
4.2045371462
 20
-27.2879619688
 10
4.2255967802
 20
-27.2983609529
 10
4.2462478933
 20
-27.3105542803
 10
4.2660378175
 20
-27.3243570317
 10
4.2848795021
 20
-27.3398369182
 10
4.3028599955
 20
-27.3569261595
 10
4.3197877791
 20
-27.3752366057
 10
4.3356372027
 20
-27.3947236157
 10
4.3504339159
 20
-27.415431764
 10
4.3640633511
 20
-27.4371067382
 10
4.3764873193
 20
-27.45966375
 10
4.3877440099
 20
-27.4831875262
 10
4.3978334232
 20
-27.5076780331
  0
LINE
  5
2D6
100
AcDbEntity
  8
RACCORDO
100
AcDbLine
 62
253
  6
CONTINUOUS
 10
79.231764659
 20
-21.1924300718
 11
79.1443431843
 21
-21.1898598474
  0
LWPOLYLINE
  5
2D7
100
AcDbEntity
  8
RACCORDO
100
AcDbPolyline
 62
253
  6
CONTINUOUS
 90
16
 70
0
 10
-78.2031865728
 20
-22.6992070744
 10
-78.2650968419
 20
-22.6971198552
 10
-78.3280916213
 20
-22.6920310107
 10
-78.3921709138
 20
-22.6839405367
 10
-78.4577088973
 20
-22.672922773
 10
-78.5243313982
 20
-22.6589033639
 10
-78.5909158922
 20
-22.6416592574
 10
-78.6574342067
 20
-22.6210833775
 10
-78.7239145148
 20
-22.5972827659
 10
-78.7893188095
 20
-22.5703555427
 10
-78.8536240044
 20
-22.540142634
 10
-78.9168531804
 20
-22.5068030634
 10
-78.9780375801
 20
-22.4709120994
 10
-79.0368542812
 20
-22.4326614833
 10
-79.0936261957
 20
-22.3918594234
 10
-79.1483533172
 20
-22.348505891
  0
LWPOLYLINE
  5
2D8
100
AcDbEntity
  8
RACCORDO
100
AcDbPolyline
 62
7
  6
CONTINUOUS
 90
16
 70
0
 10
-78.194232269
 20
-22.2897253876
 10
-78.2447154202
 20
-22.2880129808
 10
-78.2950444282
 20
-22.2840487871
 10
-78.3451139104
 20
-22.2778316131
 10
-78.3948575504
 20
-22.2693760701
 10
-78.4441613296
 20
-22.2587140247
 10
-78.4928571016
 20
-22.245893714
 10
-78.5407599513
 20
-22.230981377
 10
-78.5878540787
 20
-22.2140007941
 10
-78.6342191481
 20
-22.1949221987
 10
-78.6797745783
 20
-22.1737545161
 10
-78.7244059503
 20
-22.1505265667
 10
-78.7681366094
 20
-22.1252060238
 10
-78.8109307778
 20
-22.0977931093
 10
-78.8526785918
 20
-22.0683439952
 10
-78.8932152997
 20
-22.0369373297
  0
LWPOLYLINE
  5
2D9
100
AcDbEntity
  8
RACCORDO
100
AcDbPolyline
 62
253
  6
CONTINUOUS
 90
3
 70
0
 10
79.1443431843
 20
-21.1898598474
 10
79.0613787815
 20
-21.1868753071
 10
79.0220179922
 20
-21.1852433864
  0
LWPOLYLINE
  5
2DA
100
AcDbEntity
  8
0
100
AcDbPolyline
 62
7
  6
CONTINUOUS
 90
22
 70
0
 10
4.1969447888
 20
-26.0175873217
 10
4.2223311878
 20
-26.0213273306
 10
4.2473056226
 20
-26.0266180541
 10
4.2718680917
 20
-26.0334594818
 10
4.2961311862
 20
-26.0418361394
 10
4.3199823122
 20
-26.051763471
 10
4.3430836911
 20
-26.0632878381
 10
4.3655142342
 20
-26.0764561228
 10
4.3871950277
 20
-26.0912213916
 10
4.4075515547
 20
-26.1074892794
 10
4.4265326005
 20
-26.1254485783
 10
4.4441893785
 20
-26.1449104266
 10
4.4601010159
 20
-26.1652139926
 10
4.474085622
 20
-26.1862756005
 10
4.4863250887
 20
-26.2081788817
 10
4.4969442181
 20
-26.2305139923
 10
4.505977133
 20
-26.2533284694
 10
4.5133897126
 20
-26.2765747485
 10
4.5192043944
 20
-26.2997003612
 10
4.5234286587
 20
-26.3225211609
 10
4.526055028
 20
-26.345221304
 10
4.5270835036
 20
-26.3678007939
  0
LINE
  5
2DB
100
AcDbEntity
  8
RACCORDO
100
AcDbLine
 62
253
  6
CONTINUOUS
 10
-103.3442610129
 20
-28.5782619322
 11
-103.1779834205
 21
-28.5503180852
  0
LWPOLYLINE
  5
2DC
100
AcDbEntity
  8
RACCORDO
100
AcDbPolyline
 62
253
  6
CONTINUOUS
 90
19
 70
0
 10
-102.9110686318
 20
-28.5255245922
 10
-102.9340548971
 20
-28.5290630827
 10
-102.9567245525
 20
-28.5324288194
 10
-102.9789383965
 20
-28.535601135
 10
-103.0005600265
 20
-28.5385605502
 10
-103.0214566762
 20
-28.5412888929
 10
-103.0415000312
 20
-28.5437694098
 10
-103.0605670165
 20
-28.5459868696
 10
-103.0785405525
 20
-28.547927656
 10
-103.0953102739
 20
-28.5495798518
 10
-103.1107732074
 20
-28.5509333118
 10
-103.1248344037
 20
-28.5519797251
 10
-103.1374075212
 20
-28.5527126664
 10
-103.1484153552
 20
-28.553127635
 10
-103.157790313
 20
-28.5532220828
 10
-103.1654748282
 20
-28.5529954299
 10
-103.1714217145
 20
-28.5524490681
 10
-103.1755944556
 20
-28.5515863522
 10
-103.1779674289
 20
-28.5504125797
  0
LINE
  5
2DD
100
AcDbEntity
  8
RACCORDO
100
AcDbLine
 62
253
  6
CONTINUOUS
 10
-103.8804332334
 20
-24.5782619322
 11
-103.7008914962
 21
-24.5601398068
  0
LINE
  5
2DE
100
AcDbEntity
  8
RACCORDO
100
AcDbLine
 62
253
  6
CONTINUOUS
 10
-103.4319500435
 20
-24.5469417192
 11
-103.455211205
 21
-24.5490749945
  0
LINE
  5
2DF
100
AcDbEntity
  8
RACCORDO
100
AcDbLine
 62
253
  6
CONTINUOUS
 10
-103.5630016298
 20
-23.1789258594
 11
-103.6092382
 21
-23.1829151978
  0
LWPOLYLINE
  5
2E0
100
AcDbEntity
  8
RACCORDO
100
AcDbPolyline
 62
253
  6
CONTINUOUS
 90
3
 70
0
 10
-103.6092382
 20
-23.1829151978
 10
-103.6536076948
 20
-23.1864543008
 10
-103.6747469011
 20
-23.188027172
  0
LWPOLYLINE
  5
2E1
100
AcDbEntity
  8
RACCORDO
100
AcDbPolyline
 62
253
  6
CONTINUOUS
 90
6
 70
0
 10
-79.1539106348
 20
-21.1840916787
 10
-79.1407002978
 20
-21.1831090357
 10
-79.1299934271
 20
-21.1821046885
 10
-79.1218467854
 20
-21.1810839616
 10
-79.1163035624
 20
-21.1800522665
 10
-79.1133931454
 20
-21.1790150728
  0
LWPOLYLINE
  5
2E2
100
AcDbEntity
  8
RACCORDO
100
AcDbPolyline
 62
253
  6
CONTINUOUS
 90
12
 70
0
 10
103.4271433792
 20
-23.190730924
 10
103.4452931963
 20
-23.191845068
 10
103.4622128399
 20
-23.192791194
 10
103.4777975607
 20
-23.1935634445
 10
103.4919508741
 20
-23.1941570385
 10
103.5045851572
 20
-23.1945683013
 10
103.5156221914
 20
-23.1947946865
 10
103.5249936466
 20
-23.1948347927
 10
103.5326415042
 20
-23.1946883715
 10
103.5385184167
 20
-23.1943563295
 10
103.542588
 20
-23.1938407224
 10
103.5448250596
 20
-23.1931447421
  0
LINE
  5
2E3
100
AcDbEntity
  8
RACCORDO
100
AcDbLine
 62
253
  6
CONTINUOUS
 10
103.3876096054
 20
-23.1880271701
 11
103.4271433792
 21
-23.190730924
  0
LWPOLYLINE
  5
2E4
100
AcDbEntity
  8
RACCORDO
100
AcDbPolyline
 62
253
  6
CONTINUOUS
 90
15
 70
0
 10
103.2353481781
 20
-24.5547202954
 10
103.2564740528
 20
-24.5563117461
 10
103.276729018
 20
-24.5577408569
 10
103.2959877837
 20
-24.5589987877
 10
103.3141312224
 20
-24.5600777576
 10
103.3310471053
 20
-24.5609710924
 10
103.346630797
 20
-24.5616732662
 10
103.3607859024
 20
-24.5621799357
 10
103.3734248633
 20
-24.5624879668
 10
103.3844694996
 20
-24.5625954541
 10
103.3938514933
 20
-24.5625017327
 10
103.4015128108
 20
-24.5622073824
 10
103.4074060619
 20
-24.561714224
 10
103.4114947933
 20
-24.5610253078
 10
103.4137537134
 20
-24.5601448954
  0
LINE
  5
2E5
100
AcDbEntity
  8
RACCORDO
100
AcDbLine
 62
253
  6
CONTINUOUS
 10
103.3445890145
 20
-23.1847467842
 11
103.3876096054
 21
-23.1880271701
  0
LINE
  5
2E6
100
AcDbEntity
  8
RACCORDO
100
AcDbLine
 62
253
  6
CONTINUOUS
 10
103.1910109864
 20
-24.551090694
 11
103.2353481781
 21
-24.5547202954
  0
LWPOLYLINE
  5
2E7
100
AcDbEntity
  8
RACCORDO
100
AcDbPolyline
 62
253
  6
CONTINUOUS
 90
3
 70
0
 10
103.2758643459
 20
-23.1789258588
 10
103.2991453162
 20
-23.1809708758
 10
103.3445890145
 20
-23.1847467842
  0
LINE
  5
2E8
100
AcDbEntity
  8
RACCORDO
100
AcDbLine
 62
253
  6
CONTINUOUS
 10
103.1448127612
 20
-24.5469417194
 11
103.1910109864
 21
-24.551090694
  0
LINE
  5
2E9
100
AcDbEntity
  8
RACCORDO
100
AcDbLine
 62
253
  6
CONTINUOUS
 10
103.5932959507
 20
-24.5782619322
 11
103.4137543431
 21
-24.5601385034
  0
LWPOLYLINE
  5
2EA
100
AcDbEntity
  8
RACCORDO
100
AcDbPolyline
 62
253
  6
CONTINUOUS
 90
19
 70
0
 10
102.6239313552
 20
-28.5255245973
 10
102.6469176506
 20
-28.529063095
 10
102.6695873382
 20
-28.5324288388
 10
102.691801216
 20
-28.5356011615
 10
102.7134228807
 20
-28.5385605836
 10
102.7343195656
 20
-28.541288933
 10
102.7543629558
 20
-28.5437694564
 10
102.7734299758
 20
-28.5459869221
 10
102.7914035456
 20
-28.5479277141
 10
102.8081732994
 20
-28.549579915
 10
102.8236362634
 20
-28.5509333795
 10
102.837697488
 20
-28.5519797967
 10
102.8502706311
 20
-28.5527127412
 10
102.8612784879
 20
-28.5531277124
 10
102.8706534653
 20
-28.5532221621
 10
102.8783379966
 20
-28.5529955105
 10
102.8842848954
 20
-28.5524491491
 10
102.8884576451
 20
-28.551586433
 10
102.8908306232
 20
-28.5504126596
  0
LWPOLYLINE
  5
2EB
100
AcDbEntity
  8
0
100
AcDbPolyline
 62
7
  6
CONTINUOUS
 90
22
 70
0
 10
4.6186797884
 20
-25.6192989462
 10
4.5700390424
 20
-25.6029144716
 10
4.5192393599
 20
-25.5881387477
 10
4.466280743
 20
-25.5749718038
 10
4.4110831515
 20
-25.5634562792
 10
4.3537266302
 20
-25.5535495838
 10
4.2944513087
 20
-25.5451238967
 10
4.2333158531
 20
-25.5381715901
 10
4.1702616026
 20
-25.5327003196
 10
4.1053526954
 20
-25.5286051835
 10
4.0386442655
 20
-25.5258232234
 10
3.9700811846
 20
-25.524417409
 10
3.8995621973
 20
-25.5244717268
 10
3.8270446065
 20
-25.5260139511
 10
3.7525711164
 20
-25.5290163046
 10
3.6761685735
 20
-25.5334794419
 10
3.5978772982
 20
-25.5394447985
 10
3.5176569783
 20
-25.5468709202
 10
3.4354135111
 20
-25.5556341248
 10
3.3511155318
 20
-25.565693175
 10
3.2647944137
 20
-25.5770892775
 10
3.176450161
 20
-25.5898224138
  0
LWPOLYLINE
  5
2EC
100
AcDbEntity
  8
RACCORDO
100
AcDbPolyline
 62
253
  6
CONTINUOUS
 90
10
 70
0
 10
78.8262543587
 20
22.2209849272
 10
78.8283702706
 20
22.2215667992
 10
78.8321734574
 20
22.2221438158
 10
78.8376521851
 20
22.2227118273
 10
78.8447895603
 20
22.2232666866
 10
78.8535621709
 20
22.2238043499
 10
78.8639390514
 20
22.2243209133
 10
78.8758843003
 20
22.2248125197
 10
78.8893580432
 20
22.2252753431
 10
78.9043142756
 20
22.2257057029
  0
LINE
  5
2ED
100
AcDbEntity
  8
RACCORDO
100
AcDbLine
 62
253
  6
CONTINUOUS
 10
-79.7216583391
 20
0.5209849272
 11
-79.1339675456
 21
0.5209849272
  0
LINE
  5
2EE
100
AcDbEntity
  8
RACCORDO
100
AcDbLine
 62
253
  6
CONTINUOUS
 10
79.4345210564
 20
0.5209849272
 11
78.8468302629
 21
0.5209849272
  0
LINE
  5
2EF
100
AcDbEntity
  8
RACCORDO
100
AcDbLine
 62
253
  6
CONTINUOUS
 10
103.0571237303
 20
-28.5782619322
 11
102.8908482551
 21
-28.5503052514
  0
LINE
  5
2F0
100
AcDbEntity
  8
RACCORDO
100
AcDbLine
 62
253
  6
CONTINUOUS
 10
103.0571237303
 20
29.6202317867
 11
102.8908461378
 21
29.5922879397
  0
LWPOLYLINE
  5
2F1
100
AcDbEntity
  8
RACCORDO
100
AcDbPolyline
 62
253
  6
CONTINUOUS
 90
19
 70
0
 10
102.6239313492
 20
29.5674944466
 10
102.6469176144
 20
29.5710329372
 10
102.6695872698
 20
29.5743986739
 10
102.6918011138
 20
29.5775709895
 10
102.7134227438
 20
29.5805304047
 10
102.7343193936
 20
29.5832587473
 10
102.7543627485
 20
29.5857392643
 10
102.7734297338
 20
29.5879567241
 10
102.7914032698
 20
29.5898975105
 10
102.8081729913
 20
29.5915497063
 10
102.8236359247
 20
29.5929031663
 10
102.8376971211
 20
29.5939495796
 10
102.8502702385
 20
29.5946825208
 10
102.8612780725
 20
29.5950974894
 10
102.8706530303
 20
29.5951919373
 10
102.8783375455
 20
29.5949652844
 10
102.8842844319
 20
29.5944189226
 10
102.8884571729
 20
29.5935562067
 10
102.8908301463
 20
29.5923824342
  0
LWPOLYLINE
  5
2F2
100
AcDbEntity
  8
RACCORDO
100
AcDbPolyline
 62
253
  6
CONTINUOUS
 90
11
 70
0
 10
78.8262511174
 20
-21.1790150728
 10
78.8283712976
 20
-21.179599662
 10
78.8321815546
 20
-21.1801798394
 10
78.8376680914
 20
-21.1807513209
 10
78.84481095
 20
-21.1813098586
 10
78.8535853266
 20
-21.1818512506
 10
78.8639626372
 20
-21.1823713432
 10
78.8759084875
 20
-21.182866045
 10
78.8893817967
 20
-21.1833313764
 10
78.9043368491
 20
-21.1837634702
 10
78.9384848042
 20
-21.1845129594
  0
LINE
  5
2F3
100
AcDbEntity
  8
0
100
AcDbLine
 62
7
  6
CONTINUOUS
 10
-5.6472366413
 20
-25.5571130728
 11
-4.7596756413
 21
-28.3568160728
  0
LINE
  5
2F4
100
AcDbEntity
  8
RACCORDO
100
AcDbLine
 62
253
  6
CONTINUOUS
 10
103.5932959507
 20
25.6202317867
 11
103.4137542135
 21
25.6021096613
  0
LINE
  5
2F5
100
AcDbEntity
  8
RACCORDO
100
AcDbLine
 62
253
  6
CONTINUOUS
 10
103.1448127609
 20
25.5889115737
 11
103.1910109851
 21
25.5930605482
  0
LINE
  5
2F6
100
AcDbEntity
  8
RACCORDO
100
AcDbLine
 62
253
  6
CONTINUOUS
 10
103.2758643472
 20
24.2208957139
 11
103.3221009174
 21
24.2248850523
  0
LWPOLYLINE
  5
2F7
100
AcDbEntity
  8
RACCORDO
100
AcDbPolyline
 62
253
  6
CONTINUOUS
 90
16
 70
0
 10
103.1910109851
 20
25.5930605482
 10
103.2353481758
 20
25.5966901495
 10
103.25647405
 20
25.5982816001
 10
103.2767290147
 20
25.5997107108
 10
103.29598778
 20
25.6009686416
 10
103.3141312182
 20
25.6020476115
 10
103.3310471007
 20
25.6029409462
 10
103.3466307921
 20
25.60364312
 10
103.3607858972
 20
25.6041497895
 10
103.3734248578
 20
25.6044578206
 10
103.3844694939
 20
25.6045653079
 10
103.3938514875
 20
25.6044715865
 10
103.4015128049
 20
25.6041772363
 10
103.407406056
 20
25.6036840778
 10
103.4114947874
 20
25.6029951617
 10
103.4137537076
 20
25.6021147493
  0
LINE
  5
2F8
100
AcDbEntity
  8
RACCORDO
100
AcDbLine
 62
253
  6
CONTINUOUS
 10
103.3221009174
 20
24.2248850523
 11
103.3664704121
 21
24.2284241552
  0
LWPOLYLINE
  5
2F9
100
AcDbEntity
  8
RACCORDO
100
AcDbPolyline
 62
253
  6
CONTINUOUS
 90
14
 70
0
 10
103.3664704121
 20
24.2284241552
 10
103.4078757691
 20
24.2314255163
 10
103.4271433968
 20
24.2327007808
 10
103.4452932161
 20
24.233814925
 10
103.4622128616
 20
24.2347610511
 10
103.4777975843
 20
24.2355333017
 10
103.4919508992
 20
24.2361268959
 10
103.5045851837
 20
24.2365381587
 10
103.5156222189
 20
24.2367645439
 10
103.5249936749
 20
24.2368046501
 10
103.5326415331
 20
24.236658229
 10
103.5385184458
 20
24.2363261869
 10
103.542588029
 20
24.2358105797
 10
103.5448250882
 20
24.2351145993
  0
LINE
  5
2FA
100
AcDbEntity
  8
RACCORDO
100
AcDbLine
 62
253
  6
CONTINUOUS
 10
79.1022201005
 20
22.2290307629
 11
79.0220074889
 21
22.2269323621
  0
LWPOLYLINE
  5
2FB
100
AcDbEntity
  8
RACCORDO
100
AcDbPolyline
 62
253
  6
CONTINUOUS
 90
3
 70
0
 10
78.9043142756
 20
22.2257057029
 10
78.9384659573
 20
22.2264551233
 10
78.9575453939
 20
22.226767462
  0
LWPOLYLINE
  5
2FC
100
AcDbEntity
  8
RACCORDO
100
AcDbPolyline
 62
253
  6
CONTINUOUS
 90
3
 70
0
 10
79.2317911
 20
22.231299861
 10
79.1876109845
 20
22.2306654922
 10
79.1022201005
 20
22.2290307629
  0
LINE
  5
2FD
100
AcDbEntity
  8
RACCORDO
100
AcDbLine
 62
253
  6
CONTINUOUS
 10
-79.5188982621
 20
22.2343998294
 11
-79.4314746978
 21
22.2318295137
  0
LWPOLYLINE
  5
2FE
100
AcDbEntity
  8
RACCORDO
100
AcDbPolyline
 62
253
  6
CONTINUOUS
 90
12
 70
0
 10
-79.309143686
 20
22.2272558658
 10
-79.2547047418
 20
22.2255306936
 10
-79.2302657426
 20
22.224608162
 10
-79.2078565975
 20
22.2236594611
 10
-79.1875961951
 20
22.2226842234
 10
-79.169592049
 20
22.2216683794
 10
-79.153939678
 20
22.2206104478
 10
-79.1407221016
 20
22.2195227061
 10
-79.1300094355
 20
22.2184109233
 10
-79.1218585075
 20
22.2172809967
 10
-79.1163125562
 20
22.2161389206
 10
-79.1134010012
 20
22.2149907535
  0
LWPOLYLINE
  5
2FF
100
AcDbEntity
  8
RACCORDO
100
AcDbPolyline
 62
253
  6
CONTINUOUS
 90
3
 70
0
 10
-79.4314746978
 20
22.2318295137
 10
-79.3485043332
 20
22.2288446972
 10
-79.309139667
 20
22.2272125627
  0
LWPOLYLINE
  5
300
100
AcDbEntity
  8
RACCORDO
100
AcDbPolyline
 62
253
  6
CONTINUOUS
 90
12
 70
0
 10
-103.7142806619
 20
24.2327007785
 10
-103.732430479
 20
24.2338149225
 10
-103.7493501226
 20
24.2347610484
 10
-103.7649348434
 20
24.2355332989
 10
-103.7790881568
 20
24.236126893
 10
-103.7917224399
 20
24.2365381557
 10
-103.8027594741
 20
24.2367645409
 10
-103.8121309292
 20
24.2368046471
 10
-103.8197787869
 20
24.236658226
 10
-103.8256556993
 20
24.236326184
 10
-103.8297252827
 20
24.2358105768
 10
-103.8319623423
 20
24.2351145966
  0
LINE
  5
301
100
AcDbEntity
  8
RACCORDO
100
AcDbLine
 62
253
  6
CONTINUOUS
 10
-103.6747468881
 20
24.2299970246
 11
-103.7142806619
 21
24.2327007785
  0
LWPOLYLINE
  5
302
100
AcDbEntity
  8
RACCORDO
100
AcDbPolyline
 62
253
  6
CONTINUOUS
 90
15
 70
0
 10
-103.5224854607
 20
25.5966901499
 10
-103.5436113355
 20
25.5982816006
 10
-103.5638663006
 20
25.5997107113
 10
-103.5831250664
 20
25.6009686422
 10
-103.601268505
 20
25.6020476121
 10
-103.618184388
 20
25.6029409468
 10
-103.6337680796
 20
25.6036431207
 10
-103.6479231851
 20
25.6041497902
 10
-103.6605621459
 20
25.6044578212
 10
-103.6716067823
 20
25.6045653085
 10
-103.680988776
 20
25.6044715872
 10
-103.6886500935
 20
25.6041772369
 10
-103.6945433446
 20
25.6036840785
 10
-103.698632076
 20
25.6029951623
 10
-103.7008909961
 20
25.6021147498
  0
LINE
  5
303
100
AcDbEntity
  8
RACCORDO
100
AcDbLine
 62
253
  6
CONTINUOUS
 10
-103.6317262971
 20
24.2267166387
 11
-103.6747468881
 21
24.2299970246
  0
LINE
  5
304
100
AcDbEntity
  8
RACCORDO
100
AcDbLine
 62
253
  6
CONTINUOUS
 10
-103.4781482691
 20
25.5930605485
 11
-103.5224854607
 21
25.5966901499
  0
LWPOLYLINE
  5
305
100
AcDbEntity
  8
RACCORDO
100
AcDbPolyline
 62
253
  6
CONTINUOUS
 90
3
 70
0
 10
-103.5630016286
 20
24.2208957133
 10
-103.5862825988
 20
24.2229407302
 10
-103.6317262971
 20
24.2267166387
  0
LINE
  5
306
100
AcDbEntity
  8
RACCORDO
100
AcDbLine
 62
253
  6
CONTINUOUS
 10
-103.4319500438
 20
25.5889115739
 11
-103.4781482691
 21
25.5930605485
  0
LINE
  5
307
100
AcDbEntity
  8
RACCORDO
100
AcDbLine
 62
253
  6
CONTINUOUS
 10
-103.8804332334
 20
25.6202317867
 11
-103.7008916258
 21
25.6021083578
  0
LWPOLYLINE
  5
308
100
AcDbEntity
  8
RACCORDO
100
AcDbPolyline
 62
253
  6
CONTINUOUS
 90
19
 70
0
 10
-102.9110686378
 20
29.5674944518
 10
-102.9340549333
 20
29.5710329495
 10
-102.9567246209
 20
29.5743986933
 10
-102.9789384986
 20
29.577571016
 10
-103.0005601633
 20
29.5805304381
 10
-103.0214568483
 20
29.5832587875
 10
-103.0415002385
 20
29.5857393108
 10
-103.0605672585
 20
29.5879567766
 10
-103.0785408282
 20
29.5898975686
 10
-103.095310582
 20
29.5915497695
 10
-103.110773546
 20
29.592903234
 10
-103.1248347707
 20
29.5939496512
 10
-103.1374079138
 20
29.5946825957
 10
-103.1484157706
 20
29.5950975669
 10
-103.1577907479
 20
29.5951920166
 10
-103.1654752793
 20
29.5949653649
 10
-103.1714221781
 20
29.5944190036
 10
-103.1755949278
 20
29.5935562875
 10
-103.1779679058
 20
29.5923825141
  0
LINE
  5
309
100
AcDbEntity
  8
RACCORDO
100
AcDbLine
 62
253
  6
CONTINUOUS
 10
-103.3442610129
 20
29.6202317867
 11
-103.1779855378
 21
29.5922751058
  0
LINE
  5
30A
100
AcDbEntity
  8
0
100
AcDbLine
 62
7
  6
CONTINUOUS
 10
-1.5436366413
 20
-26.5286620728
 11
-0.8580556413
 21
-28.3568160728
  0
LINE
  5
30B
100
AcDbEntity
  8
0
100
AcDbLine
 62
7
  6
CONTINUOUS
 10
-0.8138826413
 20
-27.1115170728
 11
-1.3921186413
 21
-25.5571130728
  0
LWPOLYLINE
  5
30C
100
AcDbEntity
  8
0
100
AcDbPolyline
 62
7
  6
CONTINUOUS
 90
8
 70
0
 10
4.3978334232
 20
-27.5076780331
 10
4.4119591246
 20
-27.5465310013
 10
4.4256160592
 20
-27.5854895026
 10
4.4388042276
 20
-27.6245535286
 10
4.4514518135
 20
-27.6637168461
 10
4.4636306343
 20
-27.7029856711
 10
4.475556141
 20
-27.7423786676
 10
4.4872286041
 20
-27.7818918913
  0
LINE
  5
30D
100
AcDbEntity
  8
0
100
AcDbLine
 62
7
  6
CONTINUOUS
 10
3.0048393587
 20
-28.3568160728
 11
2.1458213587
 21
-25.5571130728
  0
LINE
  5
30E
100
AcDbEntity
  8
0
100
AcDbLine
 62
7
  6
CONTINUOUS
 10
4.5558027098
 20
-28.0221282223
 11
4.6534469805
 21
-28.3568164271
  0
LWPOLYLINE
  5
30F
100
AcDbEntity
  8
0
100
AcDbPolyline
 62
7
  6
CONTINUOUS
 90
4
 70
0
 10
4.4872286041
 20
-27.7818918913
 10
4.5213827875
 20
-27.9012640674
 10
4.5326986716
 20
-27.9413614687
 10
4.5558027098
 20
-28.0221282223
  0
LINE
  5
310
100
AcDbEntity
  8
0
100
AcDbLine
 62
7
  6
CONTINUOUS
 10
-4.4787146413
 20
-27.4842350728
 11
-5.0123886413
 21
-25.5571130728
  0
LINE
  5
311
100
AcDbEntity
  8
0
100
AcDbLine
 62
7
  6
CONTINUOUS
 10
2.2375053587
 20
-27.7978960728
 11
2.3888973587
 21
-28.3568160728
  0
LINE
  5
312
100
AcDbEntity
  8
0
100
AcDbLine
 62
7
  6
CONTINUOUS
 10
1.8521683587
 20
-26.3264000728
 11
2.1207113587
 21
-27.3654060728
  0
LINE
  5
313
100
AcDbEntity
  8
0
100
AcDbLine
 62
7
  6
CONTINUOUS
 10
0.6105433587
 20
-28.3568160728
 11
0.3487393587
 21
-25.5571130728
  0
LINE
  5
314
100
AcDbEntity
  8
0
100
AcDbLine
 62
7
  6
CONTINUOUS
 10
-0.0812316413
 20
-26.5362840728
 11
0.0388373587
 21
-28.3568160728
  0
LINE
  5
315
100
AcDbEntity
  8
0
100
AcDbLine
 62
7
  6
CONTINUOUS
 10
-3.1278536413
 20
-25.5569450728
 11
-3.1278536413
 21
-28.3568160728
  0
LINE
  5
316
100
AcDbEntity
  8
0
100
AcDbLine
 62
7
  6
CONTINUOUS
 10
-2.5434456413
 20
-28.3568160728
 11
-2.5434456413
 21
-25.5569450728
  0
LINE
  5
317
100
AcDbEntity
  8
0
100
AcDbLine
 62
7
  6
CONTINUOUS
 10
3.176450161
 20
-25.5898224138
 11
3.176450161
 21
-28.3568164271
  0
LINE
  5
318
100
AcDbEntity
  8
0
100
AcDbLine
 62
7
  6
CONTINUOUS
 10
3.7391286128
 20
-26.8026431594
 11
3.7391286128
 21
-26.0340698687
  0
LINE
  5
319
100
AcDbEntity
  8
0
100
AcDbLine
 62
7
  6
CONTINUOUS
 10
3.7585067035
 20
-28.3568164271
 11
3.7585067035
 21
-27.2611669975
  0
LINE
  5
31A
100
AcDbEntity
  8
0
100
AcDbLine
 62
7
  6
CONTINUOUS
 10
4.6789345236
 20
-27.0499395096
 11
4.6789345236
 21
-27.0333957008
  0
LWPOLYLINE
  5
31B
100
AcDbEntity
  8
0
100
AcDbPolyline
 62
7
  6
CONTINUOUS
 90
31
 70
0
 10
4.5270835036
 20
-26.3678007939
 10
4.526745303
 20
-26.392884972
 10
4.5252252759
 20
-26.4177407923
 10
4.5225234235
 20
-26.4423682617
 10
4.5186030111
 20
-26.4668833358
 10
4.5135007757
 20
-26.4911700701
 10
4.5073269258
 20
-26.5148806326
 10
4.5000966609
 20
-26.537975435
 10
4.4917947835
 20
-26.5604941016
 10
4.4824859068
 20
-26.5822076374
 10
4.4721992591
 20
-26.6030950107
 10
4.4609056135
 20
-26.623177299
 10
4.4485819007
 20
-26.642288682
 10
4.4352510462
 20
-26.6604344012
 10
4.4208901254
 20
-26.6776092635
 10
4.405407294
 20
-26.6936318033
 10
4.3887339031
 20
-26.7084499767
 10
4.370938602
 20
-26.7221158765
 10
4.3521354923
 20
-26.7346042446
 10
4.3322717611
 20
-26.7458735335
 10
4.3114002208
 20
-26.7559653293
 10
4.2897934106
 20
-26.7649790707
 10
4.2674581418
 20
-26.7729039761
 10
4.244387602
 20
-26.779750852
 10
4.2208338939
 20
-26.7856515143
 10
4.1967609505
 20
-26.7906056757
 10
4.1722048375
 20
-26.7946136375
 10
4.1475258566
 20
-26.7978080947
 10
4.1228441079
 20
-26.8002332808
 10
4.0980394899
 20
-26.8018449684
 10
4.0731120018
 20
-26.8026431594
  0
LINE
  5
31C
100
AcDbEntity
  8
0
100
AcDbLine
 62
7
  6
CONTINUOUS
 10
-1.6697516413
 20
-28.3568160728
 11
-1.5436366413
 21
-26.5286620728
  0
LINE
  5
31D
100
AcDbEntity
  8
0
100
AcDbLine
 62
7
  6
CONTINUOUS
 10
-1.9760436413
 20
-25.5571130728
 11
-2.2288406413
 21
-28.3568160728
  0
LINE
  5
31E
100
AcDbEntity
  8
0
100
AcDbLine
 62
7
  6
CONTINUOUS
 10
-3.9287376413
 20
-25.5571130728
 11
-4.4787146413
 21
-27.4842350728
  0
LINE
  5
31F
100
AcDbEntity
  8
0
100
AcDbLine
 62
7
  6
CONTINUOUS
 10
-4.2446656413
 20
-28.3568160728
 11
-3.3447286413
 21
-25.5571130728
  0
LWPOLYLINE
  5
320
100
AcDbEntity
  8
RACCORDO
100
AcDbPolyline
 62
253
  6
CONTINUOUS
 90
10
 70
0
 10
-78.2031865729
 20
23.7411769289
 10
-74.5378877242
 20
23.8071922817
 10
-70.8722611862
 20
23.8700288057
 10
-67.2063082247
 20
23.9296865558
 10
-63.5400309314
 20
23.9861650602
 10
-59.8734297369
 20
24.0394648931
 10
-56.2065034106
 20
24.0895876744
 10
-52.5392523781
 20
24.1365339729
 10
-48.8716787211
 20
24.1803033063
 10
-45.2037836898
 20
24.2208957139
  0
LWPOLYLINE
  5
321
100
AcDbEntity
  8
RACCORDO
100
AcDbPolyline
 62
253
  6
CONTINUOUS
 90
10
 70
0
 10
-75.7343964654
 20
23.3517513684
 10
-72.3426195035
 20
23.4108968547
 10
-68.9505581366
 20
23.4673240049
 10
-65.5582123647
 20
23.521032819
 10
-62.1655797174
 20
23.572022864
 10
-58.772662665
 20
23.620294573
 10
-55.379468619
 20
23.6658492445
 10
-51.9860000497
 20
23.7086873115
 10
-48.5922544869
 20
23.7488083411
 10
-45.1982319303
 20
23.7862123333
  0
LWPOLYLINE
  5
322
100
AcDbEntity
  8
RACCORDO
100
AcDbPolyline
 62
253
  6
CONTINUOUS
 90
3
 70
0
 10
78.9575453939
 20
22.226767462
 10
78.9993873985
 20
22.2272520455
 10
79.0220078366
 20
22.22741883
  0
LWPOLYLINE
  5
323
100
AcDbEntity
  8
RACCORDO
100
AcDbPolyline
 62
253
  6
CONTINUOUS
 90
10
 70
0
 10
-45.1982319303
 20
23.7862123333
 10
-35.1895700718
 20
23.8806313428
 10
-25.1791651345
 20
23.9514455982
 10
-15.1670171184
 20
23.9986550997
 10
-5.151963765
 20
24.0222598449
 10
4.8648326672
 20
24.0222598362
 10
14.8798854021
 20
23.99865508
 10
24.8920321812
 20
23.9514455786
 10
34.902435263
 20
23.8806313297
 10
44.9110946476
 20
23.7862123333
  0
LWPOLYLINE
  5
324
100
AcDbEntity
  8
RACCORDO
100
AcDbPolyline
 62
253
  6
CONTINUOUS
 90
10
 70
0
 10
-45.2037836897
 20
24.2208957139
 10
-35.1939133947
 20
24.3157459791
 10
-25.1822578759
 20
24.3868818405
 10
-15.1688425432
 20
24.4343048633
 10
-5.1525610571
 20
24.4580161027
 10
4.86542996
 20
24.4580160939
 10
14.8817108276
 20
24.4343048435
 10
24.8951249231
 20
24.3868818207
 10
34.9067785863
 20
24.3157459659
 10
44.9166464071
 20
24.2208957139
  0
LINE
  5
325
100
AcDbEntity
  8
RACCORDO
100
AcDbLine
 62
253
  6
CONTINUOUS
 10
79.3221712159
 20
22.2321895609
 11
79.2317911
 21
22.231299861
  0
LINE
  5
326
100
AcDbEntity
  8
RACCORDO
100
AcDbLine
 62
7
  6
CONTINUOUS
 10
-78.1935686412
 20
23.331689484
 11
-75.7344597275
 21
23.3517513684
  0
LINE
  5
327
100
AcDbEntity
  8
RACCORDO
100
AcDbLine
 62
253
  6
CONTINUOUS
 10
79.4139422464
 20
22.2325619917
 11
79.3221712159
 21
22.2321895609
  0
LINE
  5
328
100
AcDbEntity
  8
0
100
AcDbLine
 62
253
  6
CONTINUOUS
 10
-78.9935686413
 20
22.2209849272
 11
-79.1133931882
 21
22.2209512732
  0
LINE
  5
329
100
AcDbEntity
  8
0
100
AcDbLine
 62
7
  6
CONTINUOUS
 10
77.9064313587
 20
23.0209849272
 11
-78.1935686413
 21
23.0209849272
  0
LINE
  5
32A
100
AcDbEntity
  8
RACCORDO
100
AcDbLine
 62
253
  6
CONTINUOUS
 10
-78.193533977
 20
23.1390154758
 11
77.9063885329
 21
23.1390154758
  0
LINE
  5
32B
100
AcDbEntity
  8
RACCORDO
100
AcDbLine
 62
253
  6
CONTINUOUS
 10
-75.7343964654
 20
23.3517513684
 11
75.4472591598
 21
23.3517513684
  0
LINE
  5
32C
100
AcDbEntity
  8
RACCORDO
100
AcDbLine
 62
253
  6
CONTINUOUS
 10
-45.2037836897
 20
24.2208957139
 11
-103.5630034187
 21
24.2208766737
  0
LINE
  5
32D
100
AcDbEntity
  8
RACCORDO
100
AcDbLine
 62
253
  6
CONTINUOUS
 10
44.9166464071
 20
24.2208957139
 11
103.2758661341
 21
24.2208766942
  0
LINE
  5
32E
100
AcDbEntity
  8
0
100
AcDbLine
 62
253
  6
CONTINUOUS
 10
78.7064313587
 20
22.2209849272
 11
78.8262511549
 21
22.2209626847
  0
LINE
  5
32F
100
AcDbEntity
  8
RACCORDO
100
AcDbLine
 62
7
  6
CONTINUOUS
 10
75.4473224223
 20
23.3517513684
 11
77.9064314526
 21
23.3316894832
  0
LWPOLYLINE
  5
330
100
AcDbEntity
  8
RACCORDO
100
AcDbPolyline
 62
253
  6
CONTINUOUS
 90
10
 70
0
 10
44.9110946476
 20
23.7862123333
 10
48.3051167482
 20
23.7488083468
 10
51.6988619671
 20
23.7086873216
 10
55.0923303043
 20
23.6658492579
 10
58.4855242283
 20
23.6202945889
 10
61.8784412707
 20
23.5720228813
 10
65.2710740256
 20
23.5210328354
 10
68.6634200244
 20
23.467324018
 10
72.0554817358
 20
23.4108968623
 10
75.4472591598
 20
23.3517513684
  0
LWPOLYLINE
  5
331
100
AcDbEntity
  8
RACCORDO
100
AcDbPolyline
 62
253
  6
CONTINUOUS
 90
12
 70
0
 10
-79.30913551
 20
22.2274188901
 10
-79.2547013578
 20
22.2269084312
 10
-79.2302630963
 20
22.2265398219
 10
-79.2078536129
 20
22.2261031897
 10
-79.1875922247
 20
22.2256047801
 10
-79.1695871085
 20
22.2250512575
 10
-79.1539339325
 20
22.2244496413
 10
-79.140715561
 20
22.2238072553
 10
-79.1300021232
 20
22.2231316962
 10
-79.1218504574
 20
22.2224307797
 10
-79.1163038092
 20
22.2217124897
 10
-79.1133916022
 20
22.2209849271
  0
LWPOLYLINE
  5
332
100
AcDbEntity
  8
RACCORDO
100
AcDbPolyline
 62
253
  6
CONTINUOUS
 90
10
 70
0
 10
44.9166464071
 20
24.2208957139
 10
48.5845409031
 20
24.1803033131
 10
52.2521141619
 20
24.1365339849
 10
55.9193649332
 20
24.0895876901
 10
59.5862911396
 20
24.0394649115
 10
63.2528923513
 20
23.9861650798
 10
66.919169786
 20
23.9296865743
 10
70.5851230087
 20
23.8700288204
 10
74.250749932
 20
23.8071922903
 10
77.9160492902
 20
23.7411769289
  0
LINE
  5
333
100
AcDbEntity
  8
RACCORDO
100
AcDbLine
 62
253
  6
CONTINUOUS
 10
-79.7010311884
 20
22.2381254041
 11
-79.6092694144
 21
22.2365106508
  0
LINE
  5
334
100
AcDbEntity
  8
RACCORDO
100
AcDbLine
 62
253
  6
CONTINUOUS
 10
-79.6092694144
 20
22.2365106508
 11
-79.5188982621
 21
22.2343998294
  0
LWPOLYLINE
  5
335
100
AcDbEntity
  8
RACCORDO
100
AcDbPolyline
 62
253
  6
CONTINUOUS
 90
31
 70
0
 10
77.9063885329
 20
23.1390154679
 10
77.9564647789
 20
23.137654006
 10
78.0058469328
 20
23.1336275977
 10
78.0543991462
 20
23.1270364054
 10
78.1017954868
 20
23.1180298665
 10
78.148125638
 20
23.1066952355
 10
78.1938694065
 20
23.0929531605
 10
78.2391112287
 20
23.0767485852
 10
78.2835063488
 20
23.0581755494
 10
78.3268734258
 20
23.0373043609
 10
78.369081605
 20
23.014199301
 10
78.4100282348
 20
22.9889163937
 10
78.4495842036
 20
22.961534636
 10
78.4876369342
 20
22.9321346795
 10
78.5240902145
 20
22.9007955725
 10
78.5588472925
 20
22.8676045649
 10
78.5918167926
 20
22.8326530815
 10
78.6229087568
 20
22.7960382547
 10
78.6520363386
 20
22.7578632894
 10
78.6791321237
 20
22.718217497
 10
78.7041132568
 20
22.6772258
 10
78.7268867673
 20
22.635056026
 10
78.747400695
 20
22.5918323107
 10
78.7656122135
 20
22.5476729837
 10
78.7814671041
 20
22.5027480812
 10
78.7949048242
 20
22.4573207714
 10
78.8059593188
 20
22.4113857197
 10
78.8146793189
 20
22.3646999071
 10
78.8210173892
 20
22.3172569437
 10
78.824892569
 20
22.2693018801
 10
78.8262559049
 20
22.2209626839
  0
LWPOLYLINE
  5
336
100
AcDbEntity
  8
RACCORDO
100
AcDbPolyline
 62
7
  6
CONTINUOUS
 90
16
 70
0
 10
77.9070950041
 20
23.3316959518
 10
77.95747533
 20
23.3299909867
 10
78.0077409595
 20
23.3260392804
 10
78.0577877964
 20
23.3198342616
 10
78.1075571346
 20
23.3113842471
 10
78.1569225441
 20
23.300716921
 10
78.2056851056
 20
23.2878814431
 10
78.2536583803
 20
23.2729397679
 10
78.300829593
 20
23.2559172667
 10
78.3472579737
 20
23.2368007104
 10
78.3928679895
 20
23.2156060602
 10
78.4375405619
 20
23.1923577157
 10
78.4812693108
 20
23.1670310655
 10
78.5240072126
 20
23.1396362256
 10
78.5656587653
 20
23.1102330377
 10
78.6060713917
 20
23.0788990064
  0
LWPOLYLINE
  5
337
100
AcDbEntity
  8
RACCORDO
100
AcDbPolyline
 62
253
  6
CONTINUOUS
 90
16
 70
0
 10
77.9160492902
 20
23.7411769289
 10
77.9780407645
 20
23.7390822925
 10
78.0410999909
 20
23.7339844925
 10
78.1052269725
 20
23.7258835248
 10
78.1707954241
 20
23.7148515284
 10
78.237431635
 20
23.7008163483
 10
78.3040144691
 20
23.6835615343
 10
78.3705119264
 20
23.6629821849
 10
78.4369560073
 20
23.6391831674
 10
78.5023215744
 20
23.6122626796
 10
78.566585421
 20
23.5820648524
 10
78.6297707482
 20
23.5487455049
 10
78.6909220305
 20
23.5128703697
 10
78.7497207559
 20
23.4746280094
 10
78.8064854261
 20
23.4338298108
 10
78.8612160345
 20
23.3904757455
  0
LWPOLYLINE
  5
338
100
AcDbEntity
  8
0
100
AcDbPolyline
 62
7
  6
CONTINUOUS
 90
27
 70
0
 10
5.0101919881
 20
-27.5779713969
 10
5.004461971
 20
-27.5568329748
 10
4.9986204527
 20
-27.5357000349
 10
4.9927449399
 20
-27.5146179237
 10
4.9867579257
 20
-27.493541297
 10
4.9804268894
 20
-27.4723341142
 10
4.9737378654
 20
-27.45097929
 10
4.9667048186
 20
-27.4294939022
 10
4.9591371233
 20
-27.4077931488
 10
4.9510165482
 20
-27.3858081927
 10
4.9423613234
 20
-27.3636078569
 10
4.9330355153
 20
-27.3413138309
 10
4.923039299
 20
-27.3188839941
 10
4.9123724982
 20
-27.2963604612
 10
4.9008986517
 20
-27.2739912862
 10
4.8886422255
 20
-27.2517692278
 10
4.8755787525
 20
-27.2297015381
 10
4.8614983725
 20
-27.2080580279
 10
4.8464573052
 20
-27.1868194882
 10
4.8303993301
 20
-27.1660051545
 10
4.8129459262
 20
-27.145942522
 10
4.7939423987
 20
-27.1264470483
 10
4.7735434416
 20
-27.1077033155
 10
4.7518346181
 20
-27.0905925363
 10
4.7288444503
 20
-27.0754084837
 10
4.7045444184
 20
-27.0618574644
 10
4.6789345236
 20
-27.0499395096
  0
LINE
  5
339
100
AcDbEntity
  8
0
100
AcDbLine
 62
7
  6
CONTINUOUS
 10
5.0856137693
 20
-27.8608330876
 11
5.0101919881
 21
-27.5779713969
  0
LINE
  5
33A
100
AcDbEntity
  8
0
100
AcDbLine
 62
7
  6
CONTINUOUS
 10
5.2155795706
 20
-28.3568164271
 11
5.0856137693
 21
-27.8608330876
  0
LINE
  5
33B
100
AcDbEntity
  8
0
100
AcDbLine
 62
7
  6
CONTINUOUS
 10
1.5611823587
 20
-27.3654060728
 11
1.8521683587
 21
-26.3264000728
  0
LINE
  5
33C
100
AcDbEntity
  8
0
100
AcDbLine
 62
7
  6
CONTINUOUS
 10
1.2803783587
 20
-28.3568160728
 11
1.4416383587
 21
-27.7978960728
  0
LINE
  5
33D
100
AcDbEntity
  8
0
100
AcDbLine
 62
7
  6
CONTINUOUS
 10
1.5804763587
 20
-25.5571130728
 11
0.7023113587
 21
-28.3568160728
  0
LINE
  5
33E
100
AcDbEntity
  8
0
100
AcDbLine
 62
7
  6
CONTINUOUS
 10
-0.2294746413
 20
-25.5571130728
 11
-0.8138826413
 21
-27.1115170728
  0
LINE
  5
33F
100
AcDbEntity
  8
0
100
AcDbLine
 62
7
  6
CONTINUOUS
 10
-0.7760926413
 20
-28.3568160728
 11
-0.0812316413
 21
-26.5362840728
  0
LWPOLYLINE
  5
340
100
AcDbEntity
  8
0
100
AcDbPolyline
 62
7
  6
CONTINUOUS
 90
4
 70
0
 10
4.7400107039
 20
-27.0056248977
 10
4.7496513022
 20
-26.9984235366
 10
4.7592753516
 20
-26.9906524495
 10
4.7792597094
 20
-26.9741184566
  0
LWPOLYLINE
  5
341
100
AcDbEntity
  8
0
100
AcDbPolyline
 62
7
  6
CONTINUOUS
 90
54
 70
0
 10
4.7792597094
 20
-26.9741184566
 10
4.7896200181
 20
-26.9653555433
 10
4.8002192178
 20
-26.9561910307
 10
4.8110816965
 20
-26.9466451722
 10
4.8221830666
 20
-26.9366977042
 10
4.8334680452
 20
-26.9262450533
 10
4.8449465659
 20
-26.9153011746
 10
4.8566086955
 20
-26.9038520981
 10
4.8683693507
 20
-26.891752359
 10
4.8802399107
 20
-26.8790083935
 10
4.8922089967
 20
-26.8656137431
 10
4.9041573879
 20
-26.8514035936
 10
4.9160793745
 20
-26.8363614785
 10
4.9279806665
 20
-26.8205038313
 10
4.9397591734
 20
-26.8037151808
 10
4.9514199501
 20
-26.7859935235
 10
4.9629579418
 20
-26.767340819
 10
4.9742558924
 20
-26.7476475333
 10
4.9853310828
 20
-26.7269178562
 10
4.9961662319
 20
-26.7051475409
 10
5.0065922404
 20
-26.6822143895
 10
5.0166344743
 20
-26.6581217215
 10
5.0262675667
 20
-26.6328661441
 10
5.0352463193
 20
-26.6063153796
 10
5.0435915949
 20
-26.5784575366
 10
5.0512825289
 20
-26.5493044125
 10
5.0580113305
 20
-26.5187592518
 10
5.0637926084
 20
-26.4868283811
 10
5.0686117506
 20
-26.4535053597
 10
5.0721171346
 20
-26.4186742687
 10
5.0743524676
 20
-26.3823150744
 10
5.0752740374
 20
-26.3444476709
 10
5.0743990902
 20
-26.3050160193
 10
5.0718034849
 20
-26.2637128056
 10
5.0674113549
 20
-26.2208451723
 10
5.0605123579
 20
-26.1772788068
 10
5.0509427823
 20
-26.1327989269
 10
5.0388663302
 20
-26.0876202339
 10
5.0240637803
 20
-26.0432527754
 10
5.0062606181
 20
-25.9998181074
 10
4.9857313521
 20
-25.9571947771
 10
4.9630802994
 20
-25.9165284672
 10
4.938131381
 20
-25.8779633412
 10
4.9110606762
 20
-25.841355442
 10
4.8830007462
 20
-25.8074183576
 10
4.8540020265
 20
-25.7764250686
 10
4.8240140879
 20
-25.748102822
 10
4.7940181978
 20
-25.7223466199
 10
4.7642362188
 20
-25.6992026686
 10
4.7344462958
 20
-25.6786249199
 10
4.7049641194
 20
-25.6603699714
 10
4.6758949218
 20
-25.6443567189
 10
4.6471334772
 20
-25.6306663641
 10
4.6186797884
 20
-25.6192989462
  0
LWPOLYLINE
  5
342
100
AcDbEntity
  8
RACCORDO
100
AcDbPolyline
 62
253
  6
CONTINUOUS
 90
46
 70
0
 10
-87.8776079273
 20
43.3829052662
 10
-88.3611949312
 20
43.3388325463
 10
-88.8428193869
 20
43.2805660665
 10
-89.3224916261
 20
43.2081030118
 10
-89.800766837
 20
43.1213410091
 10
-90.2771093328
 20
43.0203747749
 10
-90.7498924113
 20
42.9054962396
 10
-91.2190154329
 20
42.7766604991
 10
-91.6845954567
 20
42.6339012258
 10
-92.1453311665
 20
42.4776276213
 10
-92.6011475351
 20
42.3078236996
 10
-93.0521319145
 20
42.1244912996
 10
-93.4972250741
 20
41.9280660624
 10
-93.9364304253
 20
41.7185128772
 10
-94.3697522693
 20
41.4958504672
 10
-94.7961310633
 20
41.2605952456
 10
-95.215565994
 20
41.0127063015
 10
-95.6280605995
 20
40.7522067473
 10
-96.0325601188
 20
40.4797094461
 10
-96.4290612823
 20
40.1951645476
 10
-96.81756496
 20
39.8986036019
 10
-97.197020859
 20
39.5907624403
 10
-97.5674033515
 20
39.2716006273
 10
-97.9287306646
 20
38.9411407904
 10
-98.2800166926
 20
38.60021468
 10
-98.6212305854
 20
38.2487843358
 10
-98.9523912392
 20
37.8868713087
 10
-99.2725858602
 20
37.515398348
 10
-99.5817913884
 20
37.1343088154
 10
-99.8800150822
 20
36.7436451381
 10
-100.1663887274
 20
36.3444808168
 10
-100.4408673816
 20
35.9367751573
 10
-100.7034772898
 20
35.5205576646
 10
-100.9534566549
 20
35.097009662
 10
-101.1907385965
 20
34.6661386971
 10
-101.4153695857
 20
34.2279296115
 10
-101.6267580615
 20
33.7835323042
 10
-101.8248932389
 20
33.3328007679
 10
-102.0097648759
 20
32.8758769012
 10
-102.1807832008
 20
32.4143454234
 10
-102.3378643575
 20
31.9481471578
 10
-102.4810722634
 20
31.4773415302
 10
-102.6100407574
 20
31.003694521
 10
-102.7246425618
 20
30.527796959
 10
-102.8249879965
 20
30.0490627924
 10
-102.9110686381
 20
29.5674944521
  0
LWPOLYLINE
  5
343
100
AcDbEntity
  8
RACCORDO
100
AcDbPolyline
 62
253
  6
CONTINUOUS
 90
46
 70
0
 10
-87.8877296948
 20
43.6301909148
 10
-88.3789670361
 20
43.5854354065
 10
-88.8690504124
 20
43.5261961738
 10
-89.3575484556
 20
43.4524925454
 10
-89.8441353461
 20
43.3643357703
 10
-90.3282727692
 20
43.2617859962
 10
-90.8092169108
 20
43.1449832072
 10
-91.2864642003
 20
43.0140491442
 10
-91.7596780144
 20
42.8690771205
 10
-92.2283774968
 20
42.7102169968
 10
-92.6920845721
 20
42.5376369424
 10
-93.1504644618
 20
42.3514688617
 10
-93.6032553879
 20
42.1518198563
 10
-94.0500676124
 20
41.9388501808
 10
-94.4904952287
 20
41.7127424618
 10
-94.9242506149
 20
41.4736337487
 10
-95.3509558897
 20
41.2217090778
 10
-95.7702154526
 20
40.95717922
 10
-96.1817159189
 20
40.6802224882
 10
-96.5850981641
 20
40.3910481987
 10
-96.979976007
 20
40.089900975
 10
-97.3660014108
 20
39.7770222399
 10
-97.7428193432
 20
39.4526651781
 10
-98.1100795323
 20
39.1170966124
 10
-98.4674515776
 20
38.7705926628
 10
-98.8146027858
 20
38.4134379854
 10
-99.1512063327
 20
38.0459303572
 10
-99.476953098
 20
37.6683795048
 10
-99.7915517671
 20
37.2810797268
 10
-100.0946849922
 20
36.8843772317
 10
-100.3860245329
 20
36.4786771134
 10
-100.6653009973
 20
36.0643199778
 10
-100.932245693
 20
35.6416686678
 10
-101.1865609909
 20
35.2111823859
 10
-101.4279948917
 20
34.7732709519
 10
-101.6563443031
 20
34.3282849358
 10
-101.8714094968
 20
33.8766085596
 10
-102.0730430259
 20
33.4185120138
 10
-102.2609956313
 20
32.9545189497
 10
-102.4349651608
 20
32.4854144624
 10
-102.5948275383
 20
32.0116013014
 10
-102.7404565167
 20
31.5335266377
 10
-102.8716388428
 20
31.0520705933
 10
-102.9882909844
 20
30.5678249484
 10
-103.0904149323
 20
30.0810802169
 10
-103.1779855253
 20
29.5922751037
  0
LWPOLYLINE
  5
344
100
AcDbEntity
  8
RACCORDO
100
AcDbPolyline
 62
253
  6
CONTINUOUS
 90
9
 70
0
 10
-83.4450015073
 20
43.6390015306
 10
-83.9995356494
 20
43.6159527874
 10
-84.5539654382
 20
43.5903417458
 10
-85.1083199399
 20
43.5621662454
 10
-85.6625710578
 20
43.5314279721
 10
-86.2166335389
 20
43.4981324594
 10
-86.7704792676
 20
43.4622813505
 10
-87.3241372565
 20
43.4238723976
 10
-87.8776079273
 20
43.3829052662
  0
LWPOLYLINE
  5
345
100
AcDbEntity
  8
RACCORDO
100
AcDbPolyline
 62
253
  6
CONTINUOUS
 90
9
 70
0
 10
-83.4485324552
 20
43.8864457411
 10
-84.003904285
 20
43.8633817819
 10
-84.5591826938
 20
43.8377534486
 10
-85.1143747908
 20
43.8095600027
 10
-85.6694500726
 20
43.7788026337
 10
-86.2243404723
 20
43.7454853378
 10
-86.7790155636
 20
43.7096106396
 10
-87.3334825116
 20
43.6711787131
 10
-87.8877296935
 20
43.6301908977
  0
LINE
  5
346
100
AcDbEntity
  8
RACCORDO
100
AcDbLine
 62
253
  6
CONTINUOUS
 10
-81.6366555284
 20
43.9502081123
 11
-83.4485324552
 21
43.8864457411
  0
LINE
  5
347
100
AcDbEntity
  8
RACCORDO
100
AcDbLine
 62
253
  6
CONTINUOUS
 10
-80.7943915012
 20
43.7315043948
 11
-83.4450015073
 21
43.6390015306
  0
LINE
  5
348
100
AcDbEntity
  8
RACCORDO
100
AcDbLine
 62
253
  6
CONTINUOUS
 10
-79.1174161592
 20
43.7883264189
 11
-80.7943915012
 21
43.7315043948
  0
LINE
  5
349
100
AcDbEntity
  8
RACCORDO
100
AcDbLine
 62
253
  6
CONTINUOUS
 10
-79.5423857656
 20
44.0214363085
 11
-81.6366555284
 21
43.9502081123
  0
LWPOLYLINE
  5
34A
100
AcDbEntity
  8
RACCORDO
100
AcDbPolyline
 62
253
  6
CONTINUOUS
 90
18
 70
0
 10
70.070278643
 20
44.0673264302
 10
61.305699476
 20
44.3135421133
 10
52.5365388819
 20
44.5270012848
 10
43.7616320452
 20
44.7077961351
 10
34.9821352507
 20
44.8558798851
 10
26.2015259286
 20
44.9710667811
 10
17.4205790764
 20
45.0533167453
 10
8.6385066124
 20
45.102693404
 10
-0.1435595175
 20
45.119160922
 10
-8.9256269576
 20
45.1026934538
 10
-17.7077026628
 20
45.0533168449
 10
-26.4886536539
 20
44.9710668886
 10
-35.2692688626
 20
44.8558799145
 10
-44.0487724412
 20
44.7077960445
 10
-52.8236833752
 20
44.5270011226
 10
-61.5928441849
 20
44.3135419585
 10
-70.3574208806
 20
44.0673263313
 10
-79.1174161592
 20
43.788326429
  0
LWPOLYLINE
  5
34B
100
AcDbEntity
  8
RACCORDO
100
AcDbPolyline
 62
253
  6
CONTINUOUS
 90
18
 70
0
 10
70.0758927834
 20
44.3139269592
 10
61.3105978617
 20
44.5597219207
 10
52.5405969118
 20
44.7728881192
 10
43.7649745589
 20
44.9534030401
 10
34.98488562
 20
45.1011884871
 10
26.2035559334
 20
45.2161497551
 10
17.4218903524
 20
45.2982678748
 10
8.6392264872
 20
45.347547936
 10
-0.1435597337
 20
45.3639758076
 10
-8.9263472646
 20
45.3475479979
 10
-17.7090143707
 20
45.2982679741
 10
-26.4906840903
 20
45.2161498576
 10
-35.2720196718
 20
45.1011885357
 10
-44.0521154026
 20
44.953402974
 10
-52.8277418346
 20
44.7728879477
 10
-61.5977429487
 20
44.5597217159
 10
-70.3630353234
 20
44.3139268013
 10
-79.5423857656
 20
44.0214363085
  0
LINE
  5
34C
100
AcDbEntity
  8
RACCORDO
100
AcDbLine
 62
253
  6
CONTINUOUS
 10
79.6741236889
 20
44.0072784406
 11
70.0758927834
 21
44.3139269592
  0
LINE
  5
34D
100
AcDbEntity
  8
RACCORDO
100
AcDbLine
 62
253
  6
CONTINUOUS
 10
80.0880256999
 20
43.7457758603
 11
70.070278643
 21
44.0673264302
  0
LINE
  5
34E
100
AcDbEntity
  8
RACCORDO
100
AcDbLine
 62
253
  6
CONTINUOUS
 10
80.9264710154
 20
43.7171889742
 11
80.0880256999
 21
43.7457758603
  0
LINE
  5
34F
100
AcDbEntity
  8
RACCORDO
100
AcDbLine
 62
253
  6
CONTINUOUS
 10
80.9306862078
 20
43.9645414901
 11
79.6741236889
 21
44.0072784406
  0
LINE
  5
350
100
AcDbEntity
  8
RACCORDO
100
AcDbLine
 62
253
  6
CONTINUOUS
 10
81.7683375417
 20
43.9358309376
 11
80.9306862078
 21
43.9645414901
  0
LINE
  5
351
100
AcDbEntity
  8
RACCORDO
100
AcDbLine
 62
253
  6
CONTINUOUS
 10
82.1840555252
 20
43.6739792493
 11
80.9264710154
 21
43.7171889742
  0
LWPOLYLINE
  5
352
100
AcDbEntity
  8
RACCORDO
100
AcDbPolyline
 62
253
  6
CONTINUOUS
 90
10
 70
0
 10
87.6005805891
 20
43.6301918004
 10
87.0463402484
 20
43.6711790699
 10
86.4918784341
 20
43.7096106292
 10
85.9372067673
 20
43.7454851147
 10
85.3823176582
 20
43.7788023528
 10
84.8272419543
 20
43.8095597667
 10
84.2720489891
 20
43.8377532751
 10
83.7167696888
 20
43.8633816642
 10
83.1613965211
 20
43.8864456883
 10
81.7683375417
 20
43.9358309376
  0
LWPOLYLINE
  5
353
100
AcDbEntity
  8
RACCORDO
100
AcDbPolyline
 62
253
  6
CONTINUOUS
 90
10
 70
0
 10
87.5904706446
 20
43.3829052662
 10
87.0370002569
 20
43.4238723783
 10
86.4833424798
 20
43.4622813176
 10
85.9294968914
 20
43.4981324187
 10
85.3754344783
 20
43.5314279307
 10
84.8211833571
 20
43.5621662089
 10
84.2668287832
 20
43.5903417164
 10
83.712398854
 20
43.6159527658
 10
83.1578645028
 20
43.6390015188
 10
82.1840555252
 20
43.6739792493
  0
LINE
  5
354
100
AcDbEntity
  8
RACCORDO
100
AcDbLine
 62
253
  6
CONTINUOUS
 10
78.6855749776
 20
23.1768312739
 11
78.606063797
 21
23.0788895451
  0
LINE
  5
355
100
AcDbEntity
  8
RACCORDO
100
AcDbLine
 62
253
  6
CONTINUOUS
 10
78.8014156574
 20
23.3181040684
 11
78.6855749776
 21
23.1768312739
  0
LINE
  5
356
100
AcDbEntity
  8
RACCORDO
100
AcDbLine
 62
253
  6
CONTINUOUS
 10
78.8612160224
 20
23.3904757054
 11
78.8014156574
 21
23.3181040684
  0
LINE
  5
357
100
AcDbEntity
  8
RACCORDO
100
AcDbLine
 62
253
  6
CONTINUOUS
 10
78.861216163
 20
-22.3485063101
 11
78.7425088743
 21
-22.2044786978
  0
LWPOLYLINE
  5
358
100
AcDbEntity
  8
RACCORDO
100
AcDbPolyline
 62
253
  6
CONTINUOUS
 90
3
 70
0
 10
78.7425088743
 20
-22.2044786978
 10
78.631608686
 20
-22.0684868671
 10
78.6060567154
 20
-22.0369101303
  0
LWPOLYLINE
  5
359
100
AcDbEntity
  8
RACCORDO
100
AcDbPolyline
 62
253
  6
CONTINUOUS
 90
3
 70
0
 10
44.9166464186
 20
-23.178925928
 10
44.9161069773
 20
-23.1277401291
 10
44.9110946475
 20
-22.7442424789
  0
LWPOLYLINE
  5
35A
100
AcDbEntity
  8
RACCORDO
100
AcDbPolyline
 62
253
  6
CONTINUOUS
 90
3
 70
0
 10
44.9166464073
 20
24.220895715
 10
44.9117578358
 20
23.8291881517
 10
44.9110946475
 20
23.7862123333
  0
LWPOLYLINE
  5
35B
100
AcDbEntity
  8
RACCORDO
100
AcDbPolyline
 62
253
  6
CONTINUOUS
 90
16
 70
0
 10
78.8612160345
 20
-22.348505891
 10
78.8064854317
 20
-22.3918599658
 10
78.7497207645
 20
-22.4326581692
 10
78.6909220395
 20
-22.4709005297
 10
78.6297707534
 20
-22.5067756575
 10
78.5665854197
 20
-22.540094993
 10
78.502321569
 20
-22.5702928129
 10
78.4369560025
 20
-22.5972133023
 10
78.3705119246
 20
-22.6210123262
 10
78.3040144698
 20
-22.6415916822
 10
78.2374316369
 20
-22.6588465033
 10
78.1707954268
 20
-22.6728816908
 10
78.1052269754
 20
-22.6839136904
 10
78.0410999934
 20
-22.6920146557
 10
77.978040766
 20
-22.6971124489
 10
77.9160492902
 20
-22.6992070744
  0
LWPOLYLINE
  5
35C
100
AcDbEntity
  8
RACCORDO
100
AcDbPolyline
 62
7
  6
CONTINUOUS
 90
16
 70
0
 10
78.6060567154
 20
-22.0369101303
 10
78.5655601823
 20
-22.0683439373
 10
78.523836173
 20
-22.0978110493
 10
78.4810414271
 20
-22.125236077
 10
78.4372735257
 20
-22.1505536736
 10
78.3925852421
 20
-22.1737645927
 10
78.3469887064
 20
-22.1949213036
 10
78.3006162247
 20
-22.2140128109
 10
78.2535289976
 20
-22.2310181509
 10
78.2056295137
 20
-22.2459464605
 10
78.1569217207
 20
-22.2587642304
 10
78.1076016695
 20
-22.2694141578
 10
78.0578571416
 20
-22.2778559143
 10
78.0078098497
 20
-22.2840621585
 10
77.9575214466
 20
-22.2880181147
 10
77.9070951045
 20
-22.2897275446
  0
LWPOLYLINE
  5
35D
100
AcDbEntity
  8
RACCORDO
100
AcDbPolyline
 62
7
  6
CONTINUOUS
 90
19
 70
0
 10
78.606063797
 20
23.0788895451
 10
78.6473986935
 20
23.0436559601
 10
78.6868896431
 20
23.0065257379
 10
78.7244764034
 20
22.9675590382
 10
78.760165456
 20
22.9267929881
 10
78.7939064767
 20
22.8843155293
 10
78.8255427513
 20
22.8403390132
 10
78.8548806759
 20
22.7951486398
 10
78.8818882632
 20
22.7488400855
 10
78.9066540864
 20
22.7013004244
 10
78.9291791891
 20
22.6525327495
 10
78.949415914
 20
22.6025786977
 10
78.9673483069
 20
22.5513896814
 10
78.9828948123
 20
22.4990615239
 10
78.9959447009
 20
22.4458502016
 10
79.0064273964
 20
22.3919391664
 10
79.0142953326
 20
22.3374279878
 10
79.0195031704
 20
22.2823775811
 10
79.0220178034
 20
22.2269326766
  0
LWPOLYLINE
  5
35E
100
AcDbEntity
  8
RACCORDO
100
AcDbPolyline
 62
253
  6
CONTINUOUS
 90
22
 70
0
 10
78.8612160345
 20
23.3904757455
 10
78.9085482482
 20
23.3496890729
 10
78.9540925209
 20
23.3070457783
 10
78.9978488589
 20
23.2625458405
 10
79.039898966
 20
23.2161100977
 10
79.0801611409
 20
23.1678176655
 10
79.118390269
 20
23.1179059403
 10
79.1545772935
 20
23.0663561405
 10
79.1887312344
 20
23.0131870039
 10
79.2206340712
 20
22.9586922127
 10
79.2502780807
 20
22.9028427868
 10
79.2776709126
 20
22.8456676678
 10
79.3026175866
 20
22.7875474296
 10
79.3250828945
 20
22.7284743298
 10
79.3451019373
 20
22.6684560826
 10
79.3625851831
 20
22.6078964586
 10
79.3775070595
 20
22.5467957278
 10
79.3898930106
 20
22.4851536046
 10
79.3997300227
 20
22.4233730398
 10
79.4070137123
 20
22.3615883526
 10
79.4117483261
 20
22.2996652226
 10
79.4139337942
 20
22.2376036487
  0
LINE
  5
35F
100
AcDbEntity
  8
RACCORDO
100
AcDbLine
 62
253
  6
CONTINUOUS
 10
82.6108636314
 20
-43.0028487816
 11
82.6059416142
 21
-42.8649752372
  0
LINE
  5
360
100
AcDbEntity
  8
RACCORDO
100
AcDbLine
 62
253
  6
CONTINUOUS
 10
78.8302771049
 20
-42.7463566243
 11
78.8339911656
 21
-42.8690345158
  0
LINE
  5
361
100
AcDbEntity
  8
RACCORDO
100
AcDbLine
 62
253
  6
CONTINUOUS
 10
82.6032252247
 20
-42.6175183245
 11
82.6053618577
 21
-42.6940513631
  0
LINE
  5
362
100
AcDbEntity
  8
RACCORDO
100
AcDbLine
 62
253
  6
CONTINUOUS
 10
78.8339911656
 20
-42.8690345158
 11
78.8355145009
 21
-42.9274070921
  0
LINE
  5
363
100
AcDbEntity
  8
RACCORDO
100
AcDbLine
 62
253
  6
CONTINUOUS
 10
77.9123274976
 20
-22.5091931116
 11
77.9070947252
 21
-22.2897142291
  0
LINE
  5
364
100
AcDbEntity
  8
RACCORDO
100
AcDbLine
 62
253
  6
CONTINUOUS
 10
82.6053618577
 20
-42.6940513631
 11
82.6063908344
 21
-42.740266375
  0
LWPOLYLINE
  5
365
100
AcDbEntity
  8
RACCORDO
100
AcDbPolyline
 62
253
  6
CONTINUOUS
 90
7
 70
0
 10
78.8355145009
 20
-42.9274070921
 10
78.83616226
 20
-42.9572386443
 10
78.8363671075
 20
-42.969048048
 10
78.8364901976
 20
-42.9786547293
 10
78.836530544
 20
-42.9859817068
 10
78.8364878234
 20
-42.9909702671
 10
78.8363623781
 20
-42.9935804354
  0
LINE
  5
366
100
AcDbEntity
  8
RACCORDO
100
AcDbLine
 62
253
  6
CONTINUOUS
 10
77.9160492902
 20
-22.6992070744
 11
77.9123274976
 21
-22.5091931116
  0
LWPOLYLINE
  5
367
100
AcDbEntity
  8
RACCORDO
100
AcDbPolyline
 62
253
  6
CONTINUOUS
 90
10
 70
0
 10
82.6063908344
 20
-42.740266375
 10
82.607063503
 20
-42.780890105
 10
82.6072590267
 20
-42.7986907395
 10
82.6073583334
 20
-42.8146223103
 10
82.6073606269
 20
-42.8285570809
 10
82.6072658888
 20
-42.8403833248
 10
82.6070748788
 20
-42.8500062215
 10
82.6067891282
 20
-42.8573486164
 10
82.6064109283
 20
-42.8623516394
 10
82.6059433113
 20
-42.8649751773
  0
LINE
  5
368
100
AcDbEntity
  8
RACCORDO
100
AcDbLine
 62
253
  6
CONTINUOUS
 10
78.8522324442
 20
32.4067507779
 11
78.8302790797
 21
43.788326412
  0
LINE
  5
369
100
AcDbEntity
  8
RACCORDO
100
AcDbLine
 62
7
  6
CONTINUOUS
 10
79.0220074889
 20
22.2269323621
 11
79.0334338734
 21
14.9958507544
  0
LINE
  5
36A
100
AcDbEntity
  8
RACCORDO
100
AcDbLine
 62
253
  6
CONTINUOUS
 10
79.4139337942
 20
22.2376036487
 11
79.4262737084
 21
14.2821923547
  0
LINE
  5
36B
100
AcDbEntity
  8
RACCORDO
100
AcDbLine
 62
253
  6
CONTINUOUS
 10
78.8262511549
 20
22.2209626847
 11
78.8408800865
 21
12.1906406936
  0
LINE
  5
36C
100
AcDbEntity
  8
RACCORDO
100
AcDbLine
 62
7
  6
CONTINUOUS
 10
79.0334338734
 20
14.9958507544
 11
79.040296965
 21
7.7599875554
  0
LINE
  5
36D
100
AcDbEntity
  8
RACCORDO
100
AcDbLine
 62
253
  6
CONTINUOUS
 10
79.4262737084
 20
14.2821923547
 11
79.4326585393
 21
7.0757534151
  0
LINE
  5
36E
100
AcDbEntity
  8
RACCORDO
100
AcDbLine
 62
253
  6
CONTINUOUS
 10
78.8408800865
 20
12.1906406936
 11
78.8451760642
 21
6.6740043102
  0
LINE
  5
36F
100
AcDbEntity
  8
RACCORDO
100
AcDbLine
 62
253
  6
CONTINUOUS
 10
78.8522324442
 20
32.4067507779
 11
78.8612160345
 21
23.3904757455
  0
LINE
  5
370
100
AcDbEntity
  8
0
100
AcDbLine
 62
253
  6
CONTINUOUS
 10
77.9064313587
 20
23.0209849272
 11
77.9063885329
 21
23.1390154758
  0
LINE
  5
371
100
AcDbEntity
  8
RACCORDO
100
AcDbLine
 62
253
  6
CONTINUOUS
 10
77.9064314526
 20
23.3316894832
 11
77.9064313585
 21
23.1390154758
  0
LINE
  5
372
100
AcDbEntity
  8
RACCORDO
100
AcDbLine
 62
253
  6
CONTINUOUS
 10
77.9064313586
 20
-22.2897196295
 11
77.9064313587
 21
-22.0970456213
  0
LINE
  5
373
100
AcDbEntity
  8
0
100
AcDbLine
 62
7
  6
CONTINUOUS
 10
78.7064313587
 20
22.2209849272
 11
78.7064313587
 21
-21.1790150728
  0
LINE
  5
374
100
AcDbEntity
  8
RACCORDO
100
AcDbLine
 62
253
  6
CONTINUOUS
 10
78.8451760642
 20
6.6740043102
 11
78.8468302629
 21
0.5209849272
  0
LINE
  5
375
100
AcDbEntity
  8
RACCORDO
100
AcDbLine
 62
7
  6
CONTINUOUS
 10
79.040296965
 20
7.7599875554
 11
79.0425758228
 21
0.5209849273
  0
LINE
  5
376
100
AcDbEntity
  8
RACCORDO
100
AcDbLine
 62
253
  6
CONTINUOUS
 10
79.4326585393
 20
7.0757534151
 11
79.4345210564
 21
0.5209849272
  0
LINE
  5
377
100
AcDbEntity
  8
0
100
AcDbLine
 62
253
  6
CONTINUOUS
 10
77.9064313587
 20
-21.9790150728
 11
77.9063823743
 21
-22.0970456213
  0
LINE
  5
378
100
AcDbEntity
  8
RACCORDO
100
AcDbLine
 62
253
  6
CONTINUOUS
 10
78.8468302629
 20
0.5209849272
 11
78.8451264998
 21
-5.7365812265
  0
LINE
  5
379
100
AcDbEntity
  8
RACCORDO
100
AcDbLine
 62
7
  6
CONTINUOUS
 10
79.0425758174
 20
0.5209849273
 11
79.0402976326
 21
-6.7177590401
  0
LINE
  5
37A
100
AcDbEntity
  8
RACCORDO
100
AcDbLine
 62
253
  6
CONTINUOUS
 10
79.4345210564
 20
0.5209849272
 11
79.4326519465
 21
-6.045372741
  0
LINE
  5
37B
100
AcDbEntity
  8
RACCORDO
100
AcDbLine
 62
253
  6
CONTINUOUS
 10
78.8451264998
 20
-5.7365812265
 11
78.8405515519
 21
-11.4687621901
  0
LINE
  5
37C
100
AcDbEntity
  8
RACCORDO
100
AcDbLine
 62
253
  6
CONTINUOUS
 10
78.8612160345
 20
-22.348505891
 11
78.8563364027
 21
-28.0943968213
  0
LINE
  5
37D
100
AcDbEntity
  8
RACCORDO
100
AcDbLine
 62
7
  6
CONTINUOUS
 10
79.0402976326
 20
-6.7177590401
 11
79.0334322135
 21
-13.9536703038
  0
LINE
  5
37E
100
AcDbEntity
  8
RACCORDO
100
AcDbLine
 62
253
  6
CONTINUOUS
 10
79.4326519465
 20
-6.045372741
 11
79.4262634253
 21
-13.2487563234
  0
LINE
  5
37F
100
AcDbEntity
  8
RACCORDO
100
AcDbLine
 62
253
  6
CONTINUOUS
 10
78.8405515519
 20
-11.4687621901
 11
78.8312531118
 21
-18.355992285
  0
LINE
  5
380
100
AcDbEntity
  8
RACCORDO
100
AcDbLine
 62
253
  6
CONTINUOUS
 10
78.8563364027
 20
-28.0943968213
 11
78.8471623724
 21
-34.628166097
  0
LINE
  5
381
100
AcDbEntity
  8
RACCORDO
100
AcDbLine
 62
7
  6
CONTINUOUS
 10
79.0334322135
 20
-13.9536703038
 11
79.022006986
 21
-21.1852427854
  0
LINE
  5
382
100
AcDbEntity
  8
RACCORDO
100
AcDbLine
 62
253
  6
CONTINUOUS
 10
79.4262634253
 20
-13.2487563234
 11
79.4139337929
 21
-21.1956338104
  0
LINE
  5
383
100
AcDbEntity
  8
RACCORDO
100
AcDbLine
 62
253
  6
CONTINUOUS
 10
78.8312531118
 20
-18.355992285
 11
78.8262511454
 21
-21.1789987053
  0
LWPOLYLINE
  5
384
100
AcDbEntity
  8
RACCORDO
100
AcDbPolyline
 62
253
  6
CONTINUOUS
 90
3
 70
0
 10
78.8471623724
 20
-34.628166097
 10
78.8341350093
 20
-41.1280544263
 10
78.8302790764
 20
-42.7463565577
  0
LWPOLYLINE
  5
385
100
AcDbEntity
  8
RACCORDO
100
AcDbPolyline
 62
253
  6
CONTINUOUS
 90
5
 70
0
 10
78.8363671075
 20
44.0110179019
 10
78.8364901976
 20
44.0206245831
 10
78.836530544
 20
44.0279515605
 10
78.8364878234
 20
44.0329401208
 10
78.8363623781
 20
44.035550289
  0
LINE
  5
386
100
AcDbEntity
  8
RACCORDO
100
AcDbLine
 62
253
  6
CONTINUOUS
 10
82.6067733301
 20
43.803332984
 11
82.6072590267
 21
43.8406605948
  0
LINE
  5
387
100
AcDbEntity
  8
RACCORDO
100
AcDbLine
 62
253
  6
CONTINUOUS
 10
78.8358772966
 20
43.9852910046
 11
78.8363671075
 21
44.0110179019
  0
LINE
  5
388
100
AcDbEntity
  8
RACCORDO
100
AcDbLine
 62
253
  6
CONTINUOUS
 10
82.6059190828
 20
43.759738848
 11
82.6067733301
 21
43.803332984
  0
LINE
  5
389
100
AcDbEntity
  8
RACCORDO
100
AcDbLine
 62
253
  6
CONTINUOUS
 10
77.91604929
 20
23.7411769283
 11
77.9113165969
 21
23.5049461367
  0
LINE
  5
38A
100
AcDbEntity
  8
RACCORDO
100
AcDbLine
 62
253
  6
CONTINUOUS
 10
82.6047236267
 20
43.7112735032
 11
82.6059190828
 21
43.759738848
  0
LINE
  5
38B
100
AcDbEntity
  8
RACCORDO
100
AcDbLine
 62
253
  6
CONTINUOUS
 10
77.9113165969
 20
23.5049461367
 11
77.9070950041
 21
23.3316959518
  0
LINE
  5
38C
100
AcDbEntity
  8
RACCORDO
100
AcDbLine
 62
253
  6
CONTINUOUS
 10
78.8345676417
 20
43.9320842098
 11
78.8358772966
 21
43.9852910046
  0
LWPOLYLINE
  5
38D
100
AcDbEntity
  8
RACCORDO
100
AcDbPolyline
 62
253
  6
CONTINUOUS
 90
31
 70
0
 10
78.8262558937
 20
-21.1789987046
 10
78.8249667132
 20
-21.2259541865
 10
78.8212705788
 20
-21.2728963802
 10
78.815159446
 20
-21.3197008937
 10
78.8066288484
 20
-21.3662550823
 10
78.7956853356
 20
-21.4124192899
 10
78.7823531947
 20
-21.458028863
 10
78.7666536694
 20
-21.502965916
 10
78.7486199005
 20
-21.5470987835
 10
78.7283188466
 20
-21.5902487982
 10
78.7058142965
 20
-21.6322807603
 10
78.6811555951
 20
-21.6731004309
 10
78.6544057851
 20
-21.7125984426
 10
78.6256345406
 20
-21.7506663754
 10
78.5949176787
 20
-21.7872011797
 10
78.5623349504
 20
-21.8221066963
 10
78.5279651414
 20
-21.8552942674
 10
78.4919045484
 20
-21.8866644539
 10
78.4542687562
 20
-21.9161144193
 10
78.4151527266
 20
-21.9435694009
 10
78.3746692096
 20
-21.968951527
 10
78.332973011
 20
-21.9921711487
 10
78.2903572983
 20
-22.0130928616
 10
78.2467714958
 20
-22.0317674025
 10
78.2018296437
 20
-22.0483243456
 10
78.1555377999
 20
-22.0626736001
 10
78.108088695
 20
-22.0746691001
 10
78.0593479636
 20
-22.0842461072
 10
78.0093506917
 20
-22.0912701298
 10
77.9583129099
 20
-22.0955817294
 10
77.9063823743
 20
-22.0970456119
  0
LINE
  5
38E
100
AcDbEntity
  8
RACCORDO
100
AcDbLine
 62
253
  6
CONTINUOUS
 10
82.6032252247
 20
43.659488179
 11
82.6047236267
 21
43.7112735032
  0
LWPOLYLINE
  5
38F
100
AcDbEntity
  8
RACCORDO
100
AcDbPolyline
 62
253
  6
CONTINUOUS
 90
3
 70
0
 10
78.8302771049
 20
43.7883264789
 10
78.831111563
 20
43.8145210721
 10
78.8345676417
 20
43.9320842098
  0
LWPOLYLINE
  5
390
100
AcDbEntity
  8
RACCORDO
100
AcDbPolyline
 62
253
  6
CONTINUOUS
 90
22
 70
0
 10
79.4139337929
 20
-21.1956338104
 10
79.4117483221
 20
-21.2576953767
 10
79.4070137068
 20
-21.319618501
 10
79.3997300169
 20
-21.3814031846
 10
79.3898930062
 20
-21.4431837484
 10
79.3775070578
 20
-21.5048258726
 10
79.3625851833
 20
-21.5659266044
 10
79.3451019378
 20
-21.6264862284
 10
79.3250828946
 20
-21.6865044756
 10
79.3026175865
 20
-21.7455775754
 10
79.2776709127
 20
-21.8036978138
 10
79.2502780811
 20
-21.860872933
 10
79.2206340716
 20
-21.9167223588
 10
79.1887312337
 20
-21.9712171493
 10
79.1545772913
 20
-22.0243862848
 10
79.1183902666
 20
-22.0759360847
 10
79.0801611411
 20
-22.1258478122
 10
79.03989897
 20
-22.1741402478
 10
78.9978488652
 20
-22.2205759924
 10
78.9540925268
 20
-22.2650759297
 10
78.908548252
 20
-22.3077192221
 10
78.8612160345
 20
-22.348505891
  0
LINE
  5
391
100
AcDbEntity
  8
RACCORDO
100
AcDbLine
 62
253
  6
CONTINUOUS
 10
82.6108636314
 20
44.044818636
 11
82.6059411785
 21
43.9069451071
  0
LWPOLYLINE
  5
392
100
AcDbEntity
  8
RACCORDO
100
AcDbPolyline
 62
7
  6
CONTINUOUS
 90
19
 70
0
 10
79.0220179922
 20
-21.1852433864
 10
79.0195349905
 20
-21.2398815908
 10
79.0144208547
 20
-21.2943013636
 10
79.0066837719
 20
-21.3483599077
 10
78.9963421055
 20
-21.4020171449
 10
78.9834187899
 20
-21.4551487187
 10
78.9679717777
 20
-21.5075039721
 10
78.9500884193
 20
-21.5588382828
 10
78.9298449081
 20
-21.6090333248
 10
78.907298114
 20
-21.658021584
 10
78.8825202206
 20
-21.7057162745
 10
78.8554941627
 20
-21.7521612598
 10
78.826119645
 20
-21.7975019299
 10
78.794419825
 20
-21.8416619232
 10
78.7605921252
 20
-21.8843320165
 10
78.724802911
 20
-21.9252643061
 10
78.6871089922
 20
-21.9643597623
 10
78.6475034734
 20
-22.0015919149
 10
78.606049139
 20
-22.0369006919
  0
LINE
  5
393
100
AcDbEntity
  8
RACCORDO
100
AcDbLine
 62
253
  6
CONTINUOUS
 10
87.6108636314
 20
-42.7190150728
 11
87.6005924122
 21
-42.5882210604
  0
LINE
  5
394
100
AcDbEntity
  8
RACCORDO
100
AcDbLine
 62
253
  6
CONTINUOUS
 10
87.5904706441
 20
-42.3409354095
 11
87.5939777286
 21
-42.3926128718
  0
LINE
  5
395
100
AcDbEntity
  8
RACCORDO
100
AcDbLine
 62
253
  6
CONTINUOUS
 10
87.5939777286
 20
-42.3926128718
 11
87.5969546527
 21
-42.4409920943
  0
LWPOLYLINE
  5
396
100
AcDbEntity
  8
RACCORDO
100
AcDbPolyline
 62
253
  6
CONTINUOUS
 90
11
 70
0
 10
87.5969546527
 20
-42.4409920943
 10
87.5993061664
 20
-42.4845251321
 10
87.6002230298
 20
-42.5040317388
 10
87.6009570305
 20
-42.5218190992
 10
87.6015022852
 20
-42.5377446461
 10
87.6018544238
 20
-42.5516807351
 10
87.6020106238
 20
-42.5635156674
 10
87.6019696334
 20
-42.573154585
 10
87.6017317809
 20
-42.5805202313
 10
87.6012989729
 20
-42.58555357
 10
87.6006746782
 20
-42.5882142586
  0
LWPOLYLINE
  5
397
100
AcDbEntity
  8
RACCORDO
100
AcDbPolyline
 62
253
  6
CONTINUOUS
 90
8
 70
0
 10
82.6072590267
 20
43.8406605948
 10
82.6073583334
 20
43.8565921657
 10
82.6073606269
 20
43.8705269363
 10
82.6072658889
 20
43.8823531804
 10
82.6070748788
 20
43.8919760772
 10
82.6067891283
 20
43.8993184721
 10
82.6064109284
 20
43.9043214951
 10
82.6059433114
 20
43.9069450331
  0
LWPOLYLINE
  5
398
100
AcDbEntity
  8
RACCORDO
100
AcDbPolyline
 62
253
  6
CONTINUOUS
 90
10
 70
0
 10
87.5993061894
 20
43.5264952278
 10
87.600223056
 20
43.5460018747
 10
87.6009570595
 20
43.5637892735
 10
87.6015023168
 20
43.5797148566
 10
87.6018544576
 20
43.5936509789
 10
87.6020106594
 20
43.6054859412
 10
87.6019696704
 20
43.6151248851
 10
87.6017318189
 20
43.6224905534
 10
87.6012990115
 20
43.6275239098
 10
87.6006747171
 20
43.6301846115
  0
LINE
  5
399
100
AcDbEntity
  8
RACCORDO
100
AcDbLine
 62
253
  6
CONTINUOUS
 10
87.5969546687
 20
43.4829621072
 11
87.5993061894
 21
43.5264952278
  0
LINE
  5
39A
100
AcDbEntity
  8
RACCORDO
100
AcDbLine
 62
253
  6
CONTINUOUS
 10
87.593977737
 20
43.4345828031
 11
87.5969546687
 21
43.4829621072
  0
LINE
  5
39B
100
AcDbEntity
  8
RACCORDO
100
AcDbLine
 62
253
  6
CONTINUOUS
 10
87.5904706446
 20
43.3829052662
 11
87.593977737
 21
43.4345828031
  0
LINE
  5
39C
100
AcDbEntity
  8
RACCORDO
100
AcDbLine
 62
253
  6
CONTINUOUS
 10
87.6108636314
 20
43.7609849272
 11
87.6005805891
 21
43.6301918004
  0
LWPOLYLINE
  5
39D
100
AcDbEntity
  8
RACCORDO
100
AcDbPolyline
 62
253
  6
CONTINUOUS
 90
9
 70
0
 10
103.0996244253
 20
26.0321918348
 10
103.0512610417
 20
26.475191285
 10
102.9997241036
 20
26.9179063806
 10
102.9450159007
 20
27.3603533868
 10
102.8871373293
 20
27.8025089756
 10
102.8260879452
 20
28.2443102655
 10
102.7618688574
 20
28.6857340079
 10
102.6944826752
 20
29.1267965484
 10
102.6239313555
 20
29.5674944521
  0
LWPOLYLINE
  5
39E
100
AcDbEntity
  8
RACCORDO
100
AcDbPolyline
 62
253
  6
CONTINUOUS
 90
9
 70
0
 10
103.3683864705
 20
26.0466655335
 10
103.3198333374
 20
26.4909754558
 10
103.2680953594
 20
26.9350169003
 10
103.213172968
 20
27.3787701919
 10
103.1550672509
 20
27.8222099185
 10
103.0937801593
 20
28.2653049522
 10
103.0293133862
 20
28.7080298978
 10
102.9616681578
 20
29.150365075
 10
102.8908461488
 20
29.5922879415
  0
LINE
  5
39F
100
AcDbEntity
  8
RACCORDO
100
AcDbLine
 62
253
  6
CONTINUOUS
 10
103.1597166911
 20
25.4369288652
 11
103.0996244253
 21
26.0321918348
  0
LINE
  5
3A0
100
AcDbEntity
  8
RACCORDO
100
AcDbLine
 62
253
  6
CONTINUOUS
 10
103.4286602025
 20
25.4502419672
 11
103.3683864705
 21
26.0466655335
  0
LINE
  5
3A1
100
AcDbEntity
  8
RACCORDO
100
AcDbLine
 62
253
  6
CONTINUOUS
 10
103.5448250883
 20
24.2351145993
 11
103.4286602025
 21
25.4502419672
  0
LINE
  5
3A2
100
AcDbEntity
  8
RACCORDO
100
AcDbLine
 62
253
  6
CONTINUOUS
 10
103.2758661341
 20
24.2208766942
 11
103.1597166911
 21
25.4369288652
  0
LWPOLYLINE
  5
3A3
100
AcDbEntity
  8
RACCORDO
100
AcDbPolyline
 62
253
  6
CONTINUOUS
 90
16
 70
0
 10
103.2758657846
 20
-23.1789068192
 10
103.5503700659
 20
-20.0265214085
 10
103.7858293099
 20
-16.8714944004
 10
103.9821564275
 20
-13.7139502879
 10
104.1392620187
 20
-10.5537278572
 10
104.2571026608
 20
-7.3912386253
 10
104.3356827477
 20
-4.22746718
 10
104.3749895029
 20
-1.0621828525
 10
104.3749896532
 20
2.1041305315
 10
104.3356831389
 20
5.2694159734
 10
104.2571032023
 20
8.4331899797
 10
104.1392626461
 20
11.5956828861
 10
103.9821570463
 20
14.7559091064
 10
103.7858298161
 20
17.9134567905
 10
103.5503703653
 20
21.0684874842
 10
103.2758657831
 20
24.2208766942
  0
LWPOLYLINE
  5
3A4
100
AcDbEntity
  8
RACCORDO
100
AcDbPolyline
 62
253
  6
CONTINUOUS
 90
16
 70
0
 10
103.5448250883
 20
-23.1931447449
 10
103.8194503568
 20
-20.0394317972
 10
104.0549473305
 20
-16.8823820111
 10
104.2512729895
 20
-13.7224697266
 10
104.4083876299
 20
-10.5602353833
 10
104.5262633867
 20
-7.3960889574
 10
104.6048759351
 20
-4.2303096672
 10
104.6441988784
 20
-1.0630144152
 10
104.6441990245
 20
2.1049606903
 10
104.6048763535
 20
5.27225706
 10
104.5262640065
 20
8.438038867
 10
104.4083883393
 20
11.6021889241
 10
104.2512736837
 20
14.7644271641
 10
104.0549479145
 20
17.9243433271
 10
103.8194507127
 20
21.0813972531
 10
103.5448250883
 20
24.2351145993
  0
LINE
  5
3A5
100
AcDbEntity
  8
RACCORDO
100
AcDbLine
 62
253
  6
CONTINUOUS
 10
103.1597166911
 20
-24.3949590115
 11
103.275866136
 21
-23.1789068192
  0
LINE
  5
3A6
100
AcDbEntity
  8
RACCORDO
100
AcDbLine
 62
253
  6
CONTINUOUS
 10
103.4286602758
 20
-24.4082713632
 11
103.5448250883
 21
-23.1931447449
  0
LWPOLYLINE
  5
3A7
100
AcDbEntity
  8
RACCORDO
100
AcDbPolyline
 62
253
  6
CONTINUOUS
 90
10
 70
0
 10
102.6239313555
 20
-28.5255245976
 10
102.6944828922
 20
-28.0848252038
 10
102.7618692313
 20
-27.6437615461
 10
102.8260884161
 20
-27.2023370598
 10
102.8871378306
 20
-26.7605354011
 10
102.9450163731
 20
-26.3183798173
 10
102.9997245089
 20
-25.8759331858
 10
103.0512613492
 20
-25.4332188334
 10
103.0996245977
 20
-24.9902204966
 10
103.1597166911
 20
-24.3949590115
  0
LWPOLYLINE
  5
3A8
100
AcDbEntity
  8
RACCORDO
100
AcDbPolyline
 62
253
  6
CONTINUOUS
 90
10
 70
0
 10
102.8908482551
 20
-28.5503052514
 10
102.9616691305
 20
-28.1083890106
 10
103.0293135695
 20
-27.666058814
 10
103.0937798613
 20
-27.2233371976
 10
103.1550668007
 20
-26.780243409
 10
103.2131725952
 20
-26.3368032644
 10
103.268095104
 20
-25.8930491712
 10
103.3198331831
 20
-25.4490069687
 10
103.3683864469
 20
-25.0046959036
 10
103.4286602758
 20
-24.4082713632
  0
LWPOLYLINE
  5
3A9
100
AcDbEntity
  8
RACCORDO
100
AcDbPolyline
 62
253
  6
CONTINUOUS
 90
46
 70
0
 10
102.8908461378
 20
29.5922879397
 10
102.8032689178
 20
30.0811251225
 10
102.7011384481
 20
30.5678926515
 10
102.5844806894
 20
31.0521519231
 10
102.4532952293
 20
31.5336098517
 10
102.3076657624
 20
32.0116776221
 10
102.1478034823
 20
32.4854833719
 10
101.9738339446
 20
32.9545818699
 10
101.7858818966
 20
33.4185684552
 10
101.58424855
 20
33.8766602241
 10
101.3691823859
 20
34.3283347501
 10
101.1408312617
 20
34.7733204678
 10
100.8993957093
 20
35.2112314317
 10
100.6450793707
 20
35.6417161969
 10
100.3781337709
 20
36.0643658626
 10
100.0988558678
 20
36.4787222145
 10
99.8075140758
 20
36.8844226292
 10
99.504377898
 20
37.2811261608
 10
99.1897753885
 20
37.6684277917
 10
98.8640233233
 20
38.0459817925
 10
98.5274134049
 20
38.4134931992
 10
98.1802561352
 20
38.7706507505
 10
97.822879015
 20
39.1171561322
 10
97.4556142209
 20
39.4527253443
 10
97.078791847
 20
39.7770826185
 10
96.692762475
 20
40.0899609293
 10
96.2978808947
 20
40.391107349
 10
95.894493896
 20
40.6802813593
 10
95.482986849
 20
40.9572387406
 10
95.0637195599
 20
41.2217695435
 10
94.6370063861
 20
41.4736947775
 10
94.2032428903
 20
41.712803689
 10
93.7628070215
 20
41.9389112011
 10
93.3159876422
 20
42.1518796937
 10
92.8631942728
 20
42.3515251399
 10
92.4048132459
 20
42.5376890974
 10
91.9410967602
 20
42.7102679895
 10
91.4723722036
 20
42.8691314751
 10
90.9991244546
 20
43.0141079084
 10
90.5218461251
 20
43.1450435751
 10
90.040866575
 20
43.2618471024
 10
89.5566968443
 20
43.3643949221
 10
89.0701155274
 20
43.4525416146
 10
88.5816731158
 20
43.5262288054
 10
88.0916842962
 20
43.5854508565
 10
87.6005805907
 20
43.63019182
  0
LWPOLYLINE
  5
3AA
100
AcDbEntity
  8
RACCORDO
100
AcDbPolyline
 62
253
  6
CONTINUOUS
 90
46
 70
0
 10
102.6239313555
 20
29.5674944521
 10
102.5378320925
 20
30.0491421443
 10
102.437471623
 20
30.5279347936
 10
102.3228583871
 20
31.0038699846
 10
102.1938831552
 20
31.4775270784
 10
102.0506721488
 20
31.9483219748
 10
101.8935883112
 20
32.4145088225
 10
101.7225669617
 20
32.8760341712
 10
101.5376927173
 20
33.3329512201
 10
101.3395544039
 20
33.7836774293
 10
101.128161735
 20
34.2280722043
 10
100.903526022
 20
34.6662802447
 10
100.6662394622
 20
35.097149913
 10
100.4162560294
 20
35.5206954805
 10
100.1536421592
 20
35.9369102878
 10
99.8791589503
 20
36.3446139365
 10
99.5927800187
 20
36.7437772608
 10
99.2945504454
 20
37.1344406141
 10
98.985338163
 20
37.515530401
 10
98.6651353357
 20
37.8870046956
 10
98.333965601
 20
38.2489196336
 10
97.992743203
 20
38.6003508651
 10
97.641449788
 20
38.941276159
 10
97.2801156631
 20
39.2717341584
 10
96.9097267561
 20
39.5908935584
 10
96.5302652216
 20
39.8987315718
 10
96.1417563051
 20
40.1952887951
 10
95.7452489752
 20
40.4798303207
 10
95.3407416298
 20
40.7523251477
 10
94.9282382707
 20
41.0128225766
 10
94.508794532
 20
41.2607090184
 10
94.0824067353
 20
41.4959612712
 10
93.6490758333
 20
41.718620336
 10
93.2098626614
 20
41.9281693449
 10
92.764766537
 20
42.1245884887
 10
92.313780428
 20
42.3079139654
 10
91.8579539994
 20
42.4777129381
 10
91.3971928697
 20
42.6339858964
 10
90.9315790981
 20
42.7767464945
 10
90.4624255269
 20
42.9055813451
 10
89.9896032786
 20
43.0204563054
 10
89.5132248063
 20
43.1214167513
 10
89.0349637847
 20
43.2081679832
 10
88.5553715604
 20
43.2806143619
 10
88.0738772894
 20
43.3388591846
 10
87.5904706446
 20
43.3829052662
  0
LINE
  5
3AB
100
AcDbEntity
  8
0
100
AcDbLine
 62
7
  6
CONTINUOUS
 10
-125.111761481
 20
-43.8344895934
 11
-125.0849643989
 21
-43.8269264171
  0
LINE
  5
3AC
100
AcDbEntity
  8
0
100
AcDbLine
 62
7
  6
CONTINUOUS
 10
-125.1440282417
 20
-43.8433530966
 11
-125.111761481
 21
-43.8344895934
  0
LINE
  5
3AD
100
AcDbEntity
  8
0
100
AcDbLine
 62
7
  6
CONTINUOUS
 10
-125.1728479563
 20
-43.8510461414
 11
-125.1440282417
 21
-43.8433530966
  0
LINE
  5
3AE
100
AcDbEntity
  8
0
100
AcDbLine
 62
7
  6
CONTINUOUS
 10
-125.2128232166
 20
-43.8613645162
 11
-125.1275864491
 21
-43.8388697739
  0
LINE
  5
3AF
100
AcDbEntity
  8
0
100
AcDbLine
 62
7
  6
CONTINUOUS
 10
-125.2170878753
 20
-43.862447958
 11
-125.1873837916
 21
-43.8548466848
  0
LINE
  5
3B0
100
AcDbEntity
  8
0
100
AcDbLine
 62
7
  6
CONTINUOUS
 10
-125.2476864645
 20
-43.8700473699
 11
-125.2170878753
 21
-43.862447958
  0
LINE
  5
3B1
100
AcDbEntity
  8
0
100
AcDbLine
 62
7
  6
CONTINUOUS
 10
-125.2793972777
 20
-43.8776773422
 11
-125.2476864645
 21
-43.8700473699
  0
LINE
  5
3B2
100
AcDbEntity
  8
0
100
AcDbLine
 62
7
  6
CONTINUOUS
 10
-125.3849387353
 20
-43.9012808155
 11
-125.2128232166
 21
-43.8613645162
  0
LINE
  5
3B3
100
AcDbEntity
  8
0
100
AcDbLine
 62
7
  6
CONTINUOUS
 10
-125.3456555856
 20
-43.8928189096
 11
-125.312078201
 21
-43.8852805874
  0
LINE
  5
3B4
100
AcDbEntity
  8
0
100
AcDbLine
 62
7
  6
CONTINUOUS
 10
-125.3799312979
 20
-43.9002296825
 11
-125.3456555856
 21
-43.8928189096
  0
LINE
  5
3B5
100
AcDbEntity
  8
0
100
AcDbLine
 62
7
  6
CONTINUOUS
 10
-125.415060888
 20
-43.9075285836
 11
-125.3799312979
 21
-43.9002296825
  0
LINE
  5
3B6
100
AcDbEntity
  8
0
100
AcDbLine
 62
7
  6
CONTINUOUS
 10
-125.4511375609
 20
-43.9147134994
 11
-125.415060888
 21
-43.9075285836
  0
LINE
  5
3B7
100
AcDbEntity
  8
0
100
AcDbLine
 62
7
  6
CONTINUOUS
 10
-125.5584776802
 20
-43.9342334618
 11
-125.3849387353
 21
-43.9012808155
  0
LWPOLYLINE
  5
3B8
100
AcDbEntity
  8
0
100
AcDbPolyline
 62
7
  6
CONTINUOUS
 90
8
 70
0
 10
-125.6248791491
 20
-43.9449534617
 10
-125.6049298857
 20
-43.9418455026
 10
-125.585154162
 20
-43.9386717952
 10
-125.5655176497
 20
-43.9354288245
 10
-125.5459856654
 20
-43.9321123604
 10
-125.5265919349
 20
-43.9287296102
 10
-125.5074043183
 20
-43.9252945827
 10
-125.4884189327
 20
-43.9218091766
  0
LINE
  5
3B9
100
AcDbEntity
  8
0
100
AcDbLine
 62
7
  6
CONTINUOUS
 10
-125.7330083281
 20
-43.9601620818
 11
-125.5584776802
 21
-43.9342334618
  0
LWPOLYLINE
  5
3BA
100
AcDbEntity
  8
0
100
AcDbPolyline
 62
7
  6
CONTINUOUS
 90
7
 70
0
 10
-125.7931201828
 20
-43.9674498432
 10
-125.7712182072
 20
-43.9648954437
 10
-125.7495178716
 20
-43.9622544391
 10
-125.7280417325
 20
-43.9595326342
 10
-125.706768224
 20
-43.9567303291
 10
-125.6858048049
 20
-43.9538653142
 10
-125.6652319191
 20
-43.9509535489
  0
LINE
  5
3BB
100
AcDbEntity
  8
0
100
AcDbLine
 62
7
  6
CONTINUOUS
 10
-125.9078856668
 20
-43.9790150728
 11
-125.7330083281
 21
-43.9601620818
  0
LWPOLYLINE
  5
3BC
100
AcDbEntity
  8
0
100
AcDbPolyline
 62
7
  6
CONTINUOUS
 90
3
 70
0
 10
-125.8808064385
 20
-43.9765611828
 10
-125.859035397
 20
-43.9744652914
 10
-125.8370300122
 20
-43.9722352876
  0
LINE
  5
3BD
100
AcDbEntity
  8
0
100
AcDbLine
 62
7
  6
CONTINUOUS
 10
-125.9078856668
 20
-43.9790150728
 11
-125.8808064385
 21
-43.9765611828
  0
LWPOLYLINE
  5
3BE
100
AcDbEntity
  8
0
100
AcDbPolyline
 62
253
  6
CONTINUOUS
 90
22
 70
0
 10
-125.9078856668
 20
-42.172569971
 10
-125.7609617346
 20
-42.1689195887
 10
-125.6154194285
 20
-42.1594646931
 10
-125.4712308941
 20
-42.1442551281
 10
-125.3284845467
 20
-42.1233602242
 10
-125.18703401
 20
-42.0968197279
 10
-125.0465112594
 20
-42.0645934219
 10
-124.906672455
 20
-42.0265670389
 10
-124.767797551
 20
-41.98272732
 10
-124.6303193017
 20
-41.9331636167
 10
-124.4945018613
 20
-41.8779684747
 10
-124.3601000314
 20
-41.8170384364
 10
-124.2268276027
 20
-41.7501662235
 10
-124.0944064125
 20
-41.6770368403
 10
-123.9633817258
 20
-41.5977645508
 10
-123.8347333902
 20
-41.5128485246
 10
-123.7094047706
 20
-41.4229579473
 10
-123.5866409301
 20
-41.3275923622
 10
-123.4649694212
 20
-41.2253979218
 10
-123.344136956
 20
-41.1157128302
 10
-123.2250044018
 20
-40.998833367
 10
-123.1078856668
 20
-40.874602463
  0
LWPOLYLINE
  5
3BF
100
AcDbEntity
  8
0
100
AcDbPolyline
 62
253
  6
CONTINUOUS
 90
22
 70
0
 10
-125.9078856668
 20
-42.2205251782
 10
-125.7610254482
 20
-42.2172405579
 10
-125.6156131684
 20
-42.2080754448
 10
-125.4716067896
 20
-42.1930826504
 10
-125.329088168
 20
-42.1723356615
 10
-125.1878889642
 20
-42.1458766804
 10
-125.0476047979
 20
-42.113662075
 10
-124.9079587673
 20
-42.07556542
 10
-124.7692425148
 20
-42.0315699778
 10
-124.6319205302
 20
-41.981774175
 10
-124.4962689699
 20
-41.9262795175
 10
-124.3620074945
 20
-41.8649720149
 10
-124.2288142299
 20
-41.7976244497
 10
-124.0963802197
 20
-41.7238939686
 10
-123.9652758069
 20
-41.6438996703
 10
-123.8365324214
 20
-41.5581735886
 10
-123.7111453584
 20
-41.4674328853
 10
-123.5883015269
 20
-41.3711375602
 10
-123.4664196775
 20
-41.2678249527
 10
-123.3452163163
 20
-41.1567740897
 10
-123.2255974419
 20
-41.038295563
 10
-123.1078856668
 20
-40.912211371
  0
LWPOLYLINE
  5
3C0
100
AcDbEntity
  8
0
100
AcDbPolyline
 62
253
  6
CONTINUOUS
 90
22
 70
0
 10
-125.9078856668
 20
-42.4874507086
 10
-125.7600861147
 20
-42.489700793
 10
-125.6146433802
 20
-42.4853665883
 10
-125.4713585569
 20
-42.4745611257
 10
-125.3302677122
 20
-42.4574301371
 10
-125.1909390121
 20
-42.4340717883
 10
-125.0525019181
 20
-42.404420988
 10
-124.9142717644
 20
-42.3682198454
 10
-124.7767293134
 20
-42.3254309557
 10
-124.6407839669
 20
-42.2762946995
 10
-124.5069329738
 20
-42.2210785081
 10
-124.3744438282
 20
-42.1595715113
 10
-124.2424709073
 20
-42.0912909436
 10
-124.1103296
 20
-42.015588581
 10
-123.9789058346
 20
-41.9326643494
 10
-123.8497770215
 20
-41.8433982783
 10
-123.7245018456
 20
-41.7490302014
 10
-123.6016661775
 20
-41.648646501
 10
-123.4785167377
 20
-41.5396652042
 10
-123.3544202873
 20
-41.420740483
 10
-123.2307450029
 20
-41.292328541
 10
-123.1078856668
 20
-41.1540257142
  0
LWPOLYLINE
  5
3C1
100
AcDbEntity
  8
0
100
AcDbPolyline
 62
253
  6
CONTINUOUS
 90
22
 70
0
 10
-125.9078856668
 20
-42.5031668714
 10
-125.7599437568
 20
-42.5059099717
 10
-125.6144596981
 20
-42.5020057333
 10
-125.4712173733
 20
-42.4915746375
 10
-125.3302474599
 20
-42.4747708451
 10
-125.1910903304
 20
-42.4516996849
 10
-125.0528269781
 20
-42.4222950661
 10
-124.9147303739
 20
-42.3862858969
 10
-124.7773009749
 20
-42.3436327295
 10
-124.641495097
 20
-42.2945914259
 10
-124.5078370545
 20
-42.2394497707
 10
-124.3755452481
 20
-42.1779876756
 10
-124.2437115192
 20
-42.109691987
 10
-124.111608453
 20
-42.0338800989
 10
-123.9801588374
 20
-41.9507620568
 10
-123.8510000011
 20
-41.8612563188
 10
-123.7257516826
 20
-41.766659819
 10
-123.6029381244
 20
-41.6660212113
 10
-123.479683076
 20
-41.5566413784
 10
-123.3553147807
 20
-41.4371078433
 10
-123.2312485924
 20
-41.3078915131
 10
-123.1078856668
 20
-41.1685639544
  0
LINE
  5
3C2
100
AcDbEntity
  8
DRAFT
100
AcDbLine
 62
7
  6
CONTINUOUS
 10
-125.9078856668
 20
-44.4790150728
 11
-128.9037981334
 21
-44.3220059535
  0
LINE
  5
3C3
100
AcDbEntity
  8
RACCORDO
100
AcDbLine
 62
253
  6
CONTINUOUS
 10
-125.9078856668
 20
-43.0028487816
 11
-128.5403454862
 21
-42.8649752372
  0
LINE
  5
3C4
100
AcDbEntity
  8
RACCORDO
100
AcDbLine
 62
253
  6
CONTINUOUS
 10
-125.9078856668
 20
-42.7190150728
 11
-128.4112671537
 21
-42.5882210604
  0
LWPOLYLINE
  5
3C5
100
AcDbEntity
  8
0
100
AcDbPolyline
 62
253
  6
CONTINUOUS
 90
19
 70
0
 10
-123.1078856668
 20
-28.340061404
 10
-123.2302476828
 20
-28.3547766918
 10
-123.3577324506
 20
-28.3689334763
 10
-123.4901519115
 20
-28.3825000012
 10
-123.6273253757
 20
-28.3954450931
 10
-123.7690528447
 20
-28.4077357398
 10
-123.9150943135
 20
-28.4193391268
 10
-124.0652327407
 20
-28.4302278699
 10
-124.2192120701
 20
-28.4403717322
 10
-124.3767037126
 20
-28.4497367866
 10
-124.5374026753
 20
-28.4582940437
 10
-124.7010871773
 20
-28.4660265635
 10
-124.867549972
 20
-28.4729186141
 10
-125.0365737924
 20
-28.4789524705
 10
-125.2078198675
 20
-28.484105905
 10
-125.3808882564
 20
-28.4883621106
 10
-125.5554393805
 20
-28.4917133589
 10
-125.7312064075
 20
-28.4941537904
 10
-125.9078856668
 20
-28.4956765418
  0
LWPOLYLINE
  5
3C6
100
AcDbEntity
  8
0
100
AcDbPolyline
 62
253
  6
CONTINUOUS
 90
19
 70
0
 10
-123.1078856668
 20
-28.2726959877
 10
-123.2302894082
 20
-28.2869233704
 10
-123.3578122971
 20
-28.3006080893
 10
-123.4902653973
 20
-28.3137194331
 10
-123.627466883
 20
-28.326227233
 10
-123.7692162467
 20
-28.3380996058
 10
-123.9152738014
 20
-28.3493049166
 10
-124.0654217008
 20
-28.3598166734
 10
-124.219404017
 20
-28.3696056985
 10
-124.376894345
 20
-28.3786393596
 10
-124.5375891405
 20
-28.3868897116
 10
-124.7012653758
 20
-28.3943402984
 10
-124.8677140497
 20
-28.4009758371
 10
-125.0367163308
 20
-28.4067791669
 10
-125.2079354481
 20
-28.4117289281
 10
-125.3809751862
 20
-28.4158090138
 10
-125.5554976603
 20
-28.4190119739
 10
-125.7312355123
 20
-28.4213321024
 10
-125.9078856668
 20
-28.4227627589
  0
LINE
  5
3C7
100
AcDbEntity
  8
0
100
AcDbLine
 62
7
  6
CONTINUOUS
 10
-131.4229724752
 20
-28.3568164271
 11
-131.2724796918
 21
-28.3568164271
  0
LINE
  5
3C8
100
AcDbEntity
  8
0
100
AcDbLine
 62
253
  6
CONTINUOUS
 10
-131.4827192241
 20
-27.5991153008
 11
-131.3322845947
 21
-27.5991153008
  0
LINE
  5
3C9
100
AcDbEntity
  8
0
100
AcDbLine
 62
7
  6
CONTINUOUS
 10
-131.5238458496
 20
-27.0499395096
 11
-131.3734510639
 21
-27.0499395096
  0
LINE
  5
3CA
100
AcDbEntity
  8
0
100
AcDbLine
 62
7
  6
CONTINUOUS
 10
-131.5250453683
 20
-27.0333957008
 11
-131.3746517527
 21
-27.0333957008
  0
LINE
  5
3CB
100
AcDbEntity
  8
RACCORDO
100
AcDbLine
 62
253
  6
CONTINUOUS
 10
-125.9078856668
 20
-28.5782619322
 11
-129.125142864
 21
-28.5503052514
  0
LINE
  5
3CC
100
AcDbEntity
  8
0
100
AcDbLine
 62
253
  6
CONTINUOUS
 10
-125.5591591688
 20
-24.3414288966
 11
-125.9078856668
 21
-24.3435736937
  0
LINE
  5
3CD
100
AcDbEntity
  8
0
100
AcDbLine
 62
253
  6
CONTINUOUS
 10
-125.5590015002
 20
-24.5260853004
 11
-125.9078856668
 21
-24.5280634385
  0
LINE
  5
3CE
100
AcDbEntity
  8
0
100
AcDbLine
 62
253
  6
CONTINUOUS
 10
-131.6210420908
 20
-25.6192989462
 11
-131.4707420014
 21
-25.6192989462
  0
LINE
  5
3CF
100
AcDbEntity
  8
0
100
AcDbLine
 62
7
  6
CONTINUOUS
 10
-131.4772602458
 20
-25.5242635536
 11
-131.6275544944
 21
-25.5242635536
  0
LINE
  5
3D0
100
AcDbEntity
  8
RACCORDO
100
AcDbLine
 62
253
  6
CONTINUOUS
 10
-131.4289935746
 20
-23.1789258594
 11
-129.6920537147
 21
-23.1789068192
  0
LINE
  5
3D1
100
AcDbEntity
  8
0
100
AcDbLine
 62
253
  6
CONTINUOUS
 10
-125.2148936749
 20
-24.5259367895
 11
-125.5590015002
 21
-24.5260853004
  0
LINE
  5
3D2
100
AcDbEntity
  8
0
100
AcDbLine
 62
253
  6
CONTINUOUS
 10
-125.2152081348
 20
-24.3413322681
 11
-125.5591591688
 21
-24.3414288966
  0
LINE
  5
3D3
100
AcDbEntity
  8
RACCORDO
100
AcDbLine
 62
253
  6
CONTINUOUS
 10
-125.9078856668
 20
-24.5782619322
 11
-129.3511531796
 21
-24.5601385034
  0
LINE
  5
3D4
100
AcDbEntity
  8
0
100
AcDbLine
 62
253
  6
CONTINUOUS
 10
-124.877598925
 20
-24.5275903099
 11
-125.2148936749
 21
-24.5259367895
  0
LINE
  5
3D5
100
AcDbEntity
  8
0
100
AcDbLine
 62
253
  6
CONTINUOUS
 10
-124.8780466112
 20
-24.3432531353
 11
-125.2152081348
 21
-24.3413322681
  0
LINE
  5
3D6
100
AcDbEntity
  8
0
100
AcDbLine
 62
253
  6
CONTINUOUS
 10
-124.5488044204
 20
-24.5309953884
 11
-124.877598925
 21
-24.5275903099
  0
LINE
  5
3D7
100
AcDbEntity
  8
0
100
AcDbLine
 62
253
  6
CONTINUOUS
 10
-124.5493122154
 20
-24.3471366338
 11
-124.8780466112
 21
-24.3432531353
  0
LINE
  5
3D8
100
AcDbEntity
  8
0
100
AcDbLine
 62
253
  6
CONTINUOUS
 10
-124.2310035087
 20
-24.5360789432
 11
-124.5488044204
 21
-24.5309953884
  0
LINE
  5
3D9
100
AcDbEntity
  8
0
100
AcDbLine
 62
253
  6
CONTINUOUS
 10
-124.2315317391
 20
-24.3529020031
 11
-124.5493122154
 21
-24.3471366338
  0
LINE
  5
3DA
100
AcDbEntity
  8
0
100
AcDbLine
 62
253
  6
CONTINUOUS
 10
-123.9262234751
 20
-24.5427469174
 11
-124.2310035087
 21
-24.5360789432
  0
LINE
  5
3DB
100
AcDbEntity
  8
0
100
AcDbLine
 62
253
  6
CONTINUOUS
 10
-123.9267272533
 20
-24.3604454874
 11
-124.2315317391
 21
-24.3529020031
  0
LINE
  5
3DC
100
AcDbEntity
  8
0
100
AcDbLine
 62
253
  6
CONTINUOUS
 10
-123.6361506047
 20
-24.5508919171
 11
-123.9262234751
 21
-24.5427469174
  0
LINE
  5
3DD
100
AcDbEntity
  8
0
100
AcDbLine
 62
253
  6
CONTINUOUS
 10
-123.6365541201
 20
-24.3696497617
 11
-123.9267272533
 21
-24.3604454874
  0
LINE
  5
3DE
100
AcDbEntity
  8
0
100
AcDbLine
 62
253
  6
CONTINUOUS
 10
-123.3627357245
 20
-24.5603990367
 11
-123.6361506047
 21
-24.5508919171
  0
LINE
  5
3DF
100
AcDbEntity
  8
0
100
AcDbLine
 62
253
  6
CONTINUOUS
 10
-123.1078856668
 20
-24.5711464275
 11
-123.3627357245
 21
-24.5603990367
  0
LWPOLYLINE
  5
3E0
100
AcDbEntity
  8
0
100
AcDbPolyline
 62
253
  6
CONTINUOUS
 90
4
 70
0
 10
-123.1078856668
 20
-24.3925275054
 10
-123.2329891696
 20
-24.3862916524
 10
-123.3629664063
 20
-24.3803885637
 10
-123.6365541201
 20
-24.3696497617
  0
LWPOLYLINE
  5
3E1
100
AcDbEntity
  8
RACCORDO
100
AcDbPolyline
 62
253
  6
CONTINUOUS
 90
19
 70
0
 10
-129.6335568512
 20
25.5889115737
 10
-129.6302290016
 20
25.591044849
 10
-129.6250777698
 20
25.5930605482
 10
-129.6181350196
 20
25.594946203
 10
-129.6094436963
 20
25.5966901495
 10
-129.5990575611
 20
25.5982816001
 10
-129.587040859
 20
25.5997107108
 10
-129.5734679209
 20
25.6009686416
 10
-129.5584227039
 20
25.6020476115
 10
-129.5419982723
 20
25.6029409462
 10
-129.5242962216
 20
25.60364312
 10
-129.5054260503
 20
25.6041497895
 10
-129.4855044823
 20
25.6044578206
 10
-129.4646547451
 20
25.6045653079
 10
-129.4430058076
 20
25.6044715865
 10
-129.4206915823
 20
25.6041772363
 10
-129.3978500966
 20
25.6036840778
 10
-129.3746226398
 20
25.6029951617
 10
-129.3511528883
 20
25.6021147493
  0
LWPOLYLINE
  5
3E2
100
AcDbEntity
  8
RACCORDO
100
AcDbPolyline
 62
253
  6
CONTINUOUS
 90
19
 70
0
 10
-129.6920529824
 20
24.2208957139
 10
-129.6887359685
 20
24.2229407311
 10
-129.6835931575
 20
24.2248850523
 10
-129.6766563887
 20
24.2267166401
 10
-129.6679686073
 20
24.2284241552
 10
-129.6575835994
 20
24.2299970265
 10
-129.6455656582
 20
24.2314255163
 10
-129.6319891867
 20
24.2327007808
 10
-129.6169382365
 20
24.233814925
 10
-129.6005059878
 20
24.2347610511
 10
-129.5827941724
 20
24.2355333017
 10
-129.5639124437
 20
24.2361268959
 10
-129.5439776983
 20
24.2365381587
 10
-129.5231133516
 20
24.2367645439
 10
-129.5014485747
 20
24.2368046501
 10
-129.4791174936
 20
24.236658229
 10
-129.4562583597
 20
24.2363261869
 10
-129.4330126935
 20
24.2358105797
 10
-129.4095244084
 20
24.2351145993
  0
LWPOLYLINE
  5
3E3
100
AcDbEntity
  8
RACCORDO
100
AcDbPolyline
 62
253
  6
CONTINUOUS
 90
19
 70
0
 10
-129.6920529697
 20
-23.1789258588
 10
-129.6887359539
 20
-23.1809708758
 10
-129.6835931416
 20
-23.1829151967
 10
-129.6766563716
 20
-23.1847467842
 10
-129.6679685895
 20
-23.1864542991
 10
-129.6575835812
 20
-23.1880271701
 10
-129.6455656399
 20
-23.1894556597
 10
-129.6319891686
 20
-23.190730924
 10
-129.616938219
 20
-23.191845068
 10
-129.6005059711
 20
-23.192791194
 10
-129.5827941567
 20
-23.1935634445
 10
-129.5639124293
 20
-23.1941570385
 10
-129.5439776853
 20
-23.1945683013
 10
-129.5231133404
 20
-23.1947946865
 10
-129.5014485652
 20
-23.1948347927
 10
-129.4791174861
 20
-23.1946883715
 10
-129.4562583542
 20
-23.1943563295
 10
-129.43301269
 20
-23.1938407224
 10
-129.4095244069
 20
-23.1931447421
  0
LWPOLYLINE
  5
3E4
100
AcDbEntity
  8
RACCORDO
100
AcDbPolyline
 62
253
  6
CONTINUOUS
 90
19
 70
0
 10
-129.6335568542
 20
-24.5469417194
 10
-129.6302290049
 20
-24.5490749947
 10
-129.6250777735
 20
-24.551090694
 10
-129.6181350235
 20
-24.5529763489
 10
-129.6094437003
 20
-24.5547202954
 10
-129.5990575652
 20
-24.5563117461
 10
-129.587040863
 20
-24.5577408569
 10
-129.5734679248
 20
-24.5589987877
 10
-129.5584227077
 20
-24.5600777576
 10
-129.5419982759
 20
-24.5609710924
 10
-129.524296225
 20
-24.5616732662
 10
-129.5054260534
 20
-24.5621799357
 10
-129.4855044851
 20
-24.5624879668
 10
-129.4646547475
 20
-24.5625954541
 10
-129.4430058097
 20
-24.5625017327
 10
-129.4206915839
 20
-24.5622073824
 10
-129.3978500978
 20
-24.561714224
 10
-129.3746226405
 20
-24.5610253078
 10
-129.3511528886
 20
-24.5601448954
  0
LWPOLYLINE
  5
3E5
100
AcDbEntity
  8
RACCORDO
100
AcDbPolyline
 62
253
  6
CONTINUOUS
 90
19
 70
0
 10
-129.4070567065
 20
29.5674944466
 10
-129.4036289053
 20
29.5710329372
 10
-129.3983946272
 20
29.5743986739
 10
-129.3913860129
 20
29.5775709895
 10
-129.3826460984
 20
29.5805304047
 10
-129.3722285505
 20
29.5832587473
 10
-129.3601973376
 20
29.5857392643
 10
-129.3466263364
 20
29.5879567241
 10
-129.3315988789
 20
29.5898975105
 10
-129.3152072402
 20
29.5915497063
 10
-129.2975520721
 20
29.5929031663
 10
-129.2787417848
 20
29.5939495796
 10
-129.258891882
 20
29.5946825208
 10
-129.2381242504
 20
29.5950974894
 10
-129.2165664125
 20
29.5951919373
 10
-129.1943507427
 20
29.5949652844
 10
-129.1716136549
 20
29.5944189226
 10
-129.1484947647
 20
29.5935562067
 10
-129.1251360322
 20
29.5923824342
  0
LWPOLYLINE
  5
3E6
100
AcDbEntity
  8
RACCORDO
100
AcDbPolyline
 62
253
  6
CONTINUOUS
 90
19
 70
0
 10
-129.4070567691
 20
-28.5255245973
 10
-129.4036290002
 20
-28.529063095
 10
-129.3983947499
 20
-28.5324288388
 10
-129.3913861588
 20
-28.5356011615
 10
-129.3826462629
 20
-28.5385605836
 10
-129.372228729
 20
-28.541288933
 10
-129.3601975255
 20
-28.5437694564
 10
-129.3466265293
 20
-28.5459869221
 10
-129.3315990725
 20
-28.5479277141
 10
-129.3152074302
 20
-28.549579915
 10
-129.2975522547
 20
-28.5509333795
 10
-129.2787419566
 20
-28.5519797967
 10
-129.2588920395
 20
-28.5527127412
 10
-129.2381243908
 20
-28.5531277124
 10
-129.2165665332
 20
-28.5532221621
 10
-129.1943508417
 20
-28.5529955105
 10
-129.1716137304
 20
-28.5524491491
 10
-129.1484948155
 20
-28.551586433
 10
-129.1251360575
 20
-28.5504126596
  0
LINE
  5
3E7
100
AcDbEntity
  8
DRAFT
100
AcDbLine
 62
7
  6
CONTINUOUS
 10
-125.1078856668
 20
4.0209849272
 11
-123.1078856668
 21
4.3736388887
  0
LINE
  5
3E8
100
AcDbEntity
  8
0
100
AcDbLine
 62
253
  6
CONTINUOUS
 10
-125.1078856668
 20
0.5209849272
 11
-125.9078856668
 21
0.5209849272
  0
LINE
  5
3E9
100
AcDbEntity
  8
RACCORDO
100
AcDbLine
 62
253
  6
CONTINUOUS
 10
-131.6114580573
 20
0.5209849272
 11
-131.6115460979
 21
0.5209849272
  0
LINE
  5
3EA
100
AcDbEntity
  8
DRAFT
100
AcDbLine
 62
7
  6
CONTINUOUS
 10
-123.1078856668
 20
-3.3316690342
 11
-125.1078856668
 21
-2.9790150728
  0
LINE
  5
3EB
100
AcDbEntity
  8
RACCORDO
100
AcDbLine
 62
253
  6
CONTINUOUS
 10
-131.1398689464
 20
-21.1961555497
 11
-131.1399636588
 21
-21.1959887411
  0
LWPOLYLINE
  5
3EC
100
AcDbEntity
  8
RACCORDO
100
AcDbPolyline
 62
253
  6
CONTINUOUS
 90
16
 70
0
 10
-128.820006512
 20
43.659488179
 10
-128.8141553035
 20
43.6856941267
 10
-128.805982852
 20
43.7112735032
 10
-128.7955546827
 20
43.7360212178
 10
-128.7829544067
 20
43.759738848
 10
-128.7682830507
 20
43.78223623
 10
-128.751658247
 20
43.803332984
 10
-128.7332132901
 20
43.8228599602
 10
-128.7130960683
 20
43.8406605948
 10
-128.6914678778
 20
43.8565921657
 10
-128.6685021295
 20
43.8705269363
 10
-128.6443829585
 20
43.8823531804
 10
-128.6193037479
 20
43.8919760772
 10
-128.5934655781
 20
43.8993184721
 10
-128.5670756149
 20
43.9043214951
 10
-128.5403454481
 20
43.9069450331
  0
LWPOLYLINE
  5
3ED
100
AcDbEntity
  8
RACCORDO
100
AcDbPolyline
 62
253
  6
CONTINUOUS
 90
16
 70
0
 10
-128.8744410946
 20
43.7883264789
 10
-128.8685806196
 20
43.8145210721
 10
-128.8604000011
 20
43.8400875334
 10
-128.8499647929
 20
43.864820991
 10
-128.8373586156
 20
43.8885232477
 10
-128.8226824865
 20
43.9110043701
 10
-128.8060540099
 20
43.9320842098
 10
-128.7876064352
 20
43.9515938475
 10
-128.7674875884
 20
43.9693769462
 10
-128.7458586882
 20
43.9852910046
 10
-128.7228930538
 20
43.9992084983
 10
-128.6987747159
 20
44.0110179019
 10
-128.6736969424
 20
44.0206245831
 10
-128.6478606894
 20
44.0279515605
 10
-128.6214729908
 20
44.0329401208
 10
-128.5947452994
 20
44.035550289
  0
LWPOLYLINE
  5
3EE
100
AcDbEntity
  8
RACCORDO
100
AcDbPolyline
 62
253
  6
CONTINUOUS
 90
16
 70
0
 10
-128.8744410941
 20
-42.7463566243
 10
-128.8685806192
 20
-42.7725512175
 10
-128.8604000007
 20
-42.798117679
 10
-128.8499647926
 20
-42.8228511365
 10
-128.8373586154
 20
-42.8465533934
 10
-128.8226824863
 20
-42.8690345158
 10
-128.8060540098
 20
-42.8901143555
 10
-128.7876064351
 20
-42.9096239933
 10
-128.7674875884
 20
-42.9274070921
 10
-128.7458586882
 20
-42.9433211506
 10
-128.7228930538
 20
-42.9572386443
 10
-128.698774716
 20
-42.969048048
 10
-128.6736969425
 20
-42.9786547293
 10
-128.6478606894
 20
-42.9859817068
 10
-128.6214729908
 20
-42.9909702671
 10
-128.5947452995
 20
-42.9935804354
  0
LWPOLYLINE
  5
3EF
100
AcDbEntity
  8
RACCORDO
100
AcDbPolyline
 62
253
  6
CONTINUOUS
 90
16
 70
0
 10
-128.8200065119
 20
-42.6175183245
 10
-128.8141553034
 20
-42.6437242721
 10
-128.8059828518
 20
-42.6693036485
 10
-128.7955546825
 20
-42.6940513631
 10
-128.7829544064
 20
-42.7177689931
 10
-128.7682830504
 20
-42.740266375
 10
-128.7516582466
 20
-42.761363129
 10
-128.7332132897
 20
-42.780890105
 10
-128.7130960679
 20
-42.7986907395
 10
-128.6914678775
 20
-42.8146223103
 10
-128.6685021292
 20
-42.8285570809
 10
-128.6443829582
 20
-42.8403833248
 10
-128.6193037476
 20
-42.8500062215
 10
-128.5934655779
 20
-42.8573486164
 10
-128.5670756147
 20
-42.8623516394
 10
-128.540345448
 20
-42.8649751773
  0
LWPOLYLINE
  5
3F0
100
AcDbEntity
  8
RACCORDO
100
AcDbPolyline
 62
253
  6
CONTINUOUS
 90
16
 70
0
 10
-128.6908386242
 20
43.3829052662
 10
-128.6849844946
 20
43.409054837
 10
-128.676810635
 20
43.4345828031
 10
-128.6663825596
 20
43.4592845554
 10
-128.6537838505
 20
43.4829621072
 10
-128.6391154873
 20
43.5054256805
 10
-128.6224950385
 20
43.5264952278
 10
-128.6040557185
 20
43.5460018747
 10
-128.5839453202
 20
43.5637892735
 10
-128.5623250303
 20
43.5797148566
 10
-128.5393681375
 20
43.5936509789
 10
-128.5152586434
 20
43.6054859412
 10
-128.4901897878
 20
43.6151248851
 10
-128.4643625
 20
43.6224905534
 10
-128.4379837882
 20
43.6275239098
 10
-128.4112650801
 20
43.6301846115
  0
LWPOLYLINE
  5
3F1
100
AcDbEntity
  8
RACCORDO
100
AcDbPolyline
 62
253
  6
CONTINUOUS
 90
16
 70
0
 10
-128.6908386114
 20
-42.3409354095
 10
-128.6849844445
 20
-42.3670849442
 10
-128.6768105532
 20
-42.3926128718
 10
-128.666382452
 20
-42.4173145838
 10
-128.6537837228
 20
-42.4409920943
 10
-128.6391153455
 20
-42.4634556261
 10
-128.6224948882
 20
-42.4845251321
 10
-128.6040555651
 20
-42.5040317388
 10
-128.583945169
 20
-42.5218190992
 10
-128.5623248861
 20
-42.5377446461
 10
-128.5393680048
 20
-42.5516807351
 10
-128.5152585262
 20
-42.5635156674
 10
-128.4901896896
 20
-42.573154585
 10
-128.4643624237
 20
-42.5805202313
 10
-128.4379837361
 20
-42.58555357
 10
-128.4112650539
 20
-42.5882142586
  0
LWPOLYLINE
  5
3F2
100
AcDbEntity
  8
0
100
AcDbPolyline
 62
7
  6
CONTINUOUS
 90
4
 70
0
 10
-131.4768667137
 20
-25.5285800658
 10
-131.4770902253
 20
-25.525806669
 10
-131.4772277856
 20
-25.5244122921
 10
-131.4772606995
 20
-25.5242563179
  0
LWPOLYLINE
  5
3F3
100
AcDbEntity
  8
0
100
AcDbPolyline
 62
7
  6
CONTINUOUS
 90
4
 70
0
 10
-131.6271592997
 20
-25.5286051835
 10
-131.6273831463
 20
-25.5258232234
 10
-131.6275213165
 20
-25.524417409
 10
-131.6275549711
 20
-25.5242559422
  0
LINE
  5
3F4
100
AcDbEntity
  8
0
100
AcDbLine
 62
7
  6
CONTINUOUS
 10
-131.2724796918
 20
-28.3568164271
 11
-131.325547549
 21
-27.686901963
  0
LINE
  5
3F5
100
AcDbEntity
  8
0
100
AcDbLine
 62
7
  6
CONTINUOUS
 10
-131.4229724752
 20
-28.3568164271
 11
-131.4759542134
 21
-27.6873504689
  0
LINE
  5
3F6
100
AcDbEntity
  8
0
100
AcDbLine
 62
7
  6
CONTINUOUS
 10
-131.325547549
 20
-27.686901963
 11
-131.3746517527
 21
-27.0333957008
  0
LINE
  5
3F7
100
AcDbEntity
  8
0
100
AcDbLine
 62
7
  6
CONTINUOUS
 10
-131.4759542134
 20
-27.6873504689
 11
-131.5250453683
 21
-27.0333957008
  0
LINE
  5
3F8
100
AcDbEntity
  8
0
100
AcDbLine
 62
7
  6
CONTINUOUS
 10
-131.6264623167
 20
-25.5381715901
 11
-131.6271592997
 21
-25.5286051835
  0
LINE
  5
3F9
100
AcDbEntity
  8
0
100
AcDbLine
 62
7
  6
CONTINUOUS
 10
-131.4761694614
 20
-25.5381397543
 11
-131.4768667137
 21
-25.5285800658
  0
LINE
  5
3FA
100
AcDbEntity
  8
0
100
AcDbLine
 62
7
  6
CONTINUOUS
 10
-131.5250453683
 20
-27.0333957008
 11
-131.5843495038
 21
-26.1772788068
  0
LINE
  5
3FB
100
AcDbEntity
  8
0
100
AcDbLine
 62
7
  6
CONTINUOUS
 10
-131.3746517527
 20
-27.0333957008
 11
-131.4350159603
 21
-26.162343749
  0
LINE
  5
3FC
100
AcDbEntity
  8
0
100
AcDbLine
 62
7
  6
CONTINUOUS
 10
-131.6202987305
 20
-25.6306663641
 11
-131.6264623167
 21
-25.5381715901
  0
LINE
  5
3FD
100
AcDbEntity
  8
0
100
AcDbLine
 62
7
  6
CONTINUOUS
 10
-131.469966038
 20
-25.6311546685
 11
-131.4761694614
 21
-25.5381397543
  0
LINE
  5
3FE
100
AcDbEntity
  8
RACCORDO
100
AcDbLine
 62
253
  6
CONTINUOUS
 10
-129.0286216829
 20
-30.0101007388
 11
-129.1540788303
 21
-28.1083890106
  0
LINE
  5
3FF
100
AcDbEntity
  8
0
100
AcDbLine
 62
7
  6
CONTINUOUS
 10
-131.4350159603
 20
-26.162343749
 11
-131.469966038
 21
-25.6311546685
  0
LINE
  5
400
100
AcDbEntity
  8
0
100
AcDbLine
 62
7
  6
CONTINUOUS
 10
-131.5843495038
 20
-26.1772788068
 11
-131.6202987305
 21
-25.6306663641
  0
LINE
  5
401
100
AcDbEntity
  8
RACCORDO
100
AcDbLine
 62
253
  6
CONTINUOUS
 10
-128.8220486119
 20
-37.2068144813
 11
-129.4360570846
 21
-28.0848252038
  0
LINE
  5
402
100
AcDbEntity
  8
RACCORDO
100
AcDbLine
 62
253
  6
CONTINUOUS
 10
-128.5646143934
 20
-37.0039605027
 11
-129.0286216829
 21
-30.0101007388
  0
LINE
  5
403
100
AcDbEntity
  8
RACCORDO
100
AcDbLine
 62
253
  6
CONTINUOUS
 10
-129.4360570846
 20
-28.0848252038
 11
-129.4911881413
 21
-27.2023370598
  0
LINE
  5
404
100
AcDbEntity
  8
RACCORDO
100
AcDbLine
 62
253
  6
CONTINUOUS
 10
-128.51964469
 20
-37.7286228083
 11
-128.5646143934
 21
-37.0039605027
  0
LINE
  5
405
100
AcDbEntity
  8
RACCORDO
100
AcDbLine
 62
253
  6
CONTINUOUS
 10
-129.1540788303
 20
-28.1083890106
 11
-129.2090874264
 21
-27.2233371976
  0
LINE
  5
406
100
AcDbEntity
  8
RACCORDO
100
AcDbLine
 62
253
  6
CONTINUOUS
 10
-129.4911881413
 20
-27.2023370598
 11
-129.5424932841
 21
-26.3183798173
  0
LWPOLYLINE
  5
407
100
AcDbEntity
  8
RACCORDO
100
AcDbPolyline
 62
253
  6
CONTINUOUS
 90
3
 70
0
 10
-128.7232939008
 20
-38.8566337474
 10
-128.740667419
 20
-38.5487925858
 10
-128.8220486119
 20
-37.2068144813
  0
LWPOLYLINE
  5
408
100
AcDbEntity
  8
RACCORDO
100
AcDbPolyline
 62
253
  6
CONTINUOUS
 90
13
 70
0
 10
-131.0579401278
 20
-23.1789258594
 10
-130.9714178395
 20
-24.8184892112
 10
-130.8674897922
 20
-26.4570411358
 10
-130.7461677076
 20
-28.0943968213
 10
-130.6074652699
 20
-29.7303715909
 10
-130.451398123
 20
-31.3647809235
 10
-130.2779838699
 20
-32.9974404746
 10
-130.0872420709
 20
-34.628166097
 10
-129.8791942386
 20
-36.2567738616
 10
-129.6538638356
 20
-37.8830800784
 10
-129.411276276
 20
-39.5069013167
 10
-129.151458922
 20
-41.1280544263
 10
-128.8744410785
 20
-42.7463565577
  0
LWPOLYLINE
  5
409
100
AcDbEntity
  8
RACCORDO
100
AcDbPolyline
 62
253
  6
CONTINUOUS
 90
3
 70
0
 10
-129.5424932841
 20
-26.3183798173
 10
-129.5899516069
 20
-25.4332188334
 10
-129.6122358711
 20
-24.9902204966
  0
LINE
  5
40A
100
AcDbEntity
  8
ASSI
100
AcDbLine
 62
7
  6
CONTINUOUS
 10
-131.5968339583
 20
-23.4082271018
 11
-131.5963059481
 21
-23.4190079771
  0
LINE
  5
40B
100
AcDbEntity
  8
RACCORDO
100
AcDbLine
 62
253
  6
CONTINUOUS
 10
-131.0579401278
 20
-23.1789258594
 11
-131.0971684407
 21
-22.3366813192
  0
LINE
  5
40C
100
AcDbEntity
  8
RACCORDO
100
AcDbLine
 62
253
  6
CONTINUOUS
 10
-131.2510940462
 20
-18.4642420567
 11
-131.2367253855
 21
-18.8411332499
  0
LINE
  5
40D
100
AcDbEntity
  8
RACCORDO
100
AcDbLine
 62
7
  6
CONTINUOUS
 10
-131.2367253855
 20
-18.8411332499
 11
-131.1261673471
 21
-21.525683792
  0
LINE
  5
40E
100
AcDbEntity
  8
RACCORDO
100
AcDbLine
 62
253
  6
CONTINUOUS
 10
-131.1269252374
 20
-21.5048258726
 11
-131.1261673471
 21
-21.525683792
  0
LINE
  5
40F
100
AcDbEntity
  8
RACCORDO
100
AcDbLine
 62
7
  6
CONTINUOUS
 10
-131.1261673471
 20
-21.525683792
 11
-131.1088801806
 21
-21.9793200422
  0
LINE
  5
410
100
AcDbEntity
  8
RACCORDO
100
AcDbLine
 62
7
  6
CONTINUOUS
 10
-131.1088801806
 20
-21.9793200422
 11
-131.0996913643
 21
-22.252411533
  0
LINE
  5
411
100
AcDbEntity
  8
RACCORDO
100
AcDbLine
 62
7
  6
CONTINUOUS
 10
-131.0996913643
 20
-22.252411533
 11
-131.0944030812
 21
-22.4385959383
  0
LINE
  5
412
100
AcDbEntity
  8
RACCORDO
100
AcDbLine
 62
7
  6
CONTINUOUS
 10
-131.0947955443
 20
-22.4232040194
 11
-131.0933501008
 21
-22.4836864478
  0
LINE
  5
413
100
AcDbEntity
  8
RACCORDO
100
AcDbLine
 62
253
  6
CONTINUOUS
 10
-131.0927439305
 20
-22.5138934176
 11
-131.0919349855
 21
-22.540094993
  0
LINE
  5
414
100
AcDbEntity
  8
RACCORDO
100
AcDbLine
 62
7
  6
CONTINUOUS
 10
-131.0933501008
 20
-22.4836864478
 11
-131.0924222405
 21
-22.5322749441
  0
LWPOLYLINE
  5
415
100
AcDbEntity
  8
RACCORDO
100
AcDbPolyline
 62
253
  6
CONTINUOUS
 90
5
 70
0
 10
-131.5683633655
 20
-6.045372741
 10
-131.5324151195
 20
-8.3717818819
 10
-131.4840516629
 20
-10.7689126586
 10
-131.4219233964
 20
-13.2487563234
 10
-131.3446660861
 20
-15.8152424998
  0
LWPOLYLINE
  5
416
100
AcDbEntity
  8
RACCORDO
100
AcDbPolyline
 62
253
  6
CONTINUOUS
 90
3
 70
0
 10
-131.0935485672
 20
-22.6992070744
 10
-131.094147554
 20
-22.6513733193
 10
-131.091690571
 20
-22.6074257447
  0
LWPOLYLINE
  5
417
100
AcDbEntity
  8
RACCORDO
100
AcDbPolyline
 62
253
  6
CONTINUOUS
 90
10
 70
0
 10
-131.0919605663
 20
-22.5644970156
 10
-131.0910908015
 20
-22.5972133023
 10
-131.0909082869
 20
-22.6210123262
 10
-131.0908739325
 20
-22.6415916822
 10
-131.0909934444
 20
-22.6588465033
 10
-131.0912618516
 20
-22.6728816908
 10
-131.0916539073
 20
-22.6839136904
 10
-131.0921613454
 20
-22.6920146557
 10
-131.0927928562
 20
-22.6971124489
 10
-131.0935485672
 20
-22.6992070744
  0
LINE
  5
418
100
AcDbEntity
  8
RACCORDO
100
AcDbLine
 62
7
  6
CONTINUOUS
 10
-131.0924222405
 20
-22.5322749441
 11
-131.0919605663
 21
-22.5644970156
  0
LWPOLYLINE
  5
419
100
AcDbEntity
  8
RACCORDO
100
AcDbPolyline
 62
253
  6
CONTINUOUS
 90
10
 70
0
 10
-131.4289950205
 20
-23.178925928
 10
-131.4295541561
 20
-23.1277401291
 10
-131.4263709272
 20
-23.0766506383
 10
-131.4194623581
 20
-23.0259306897
 10
-131.408865397
 20
-22.9758515407
 10
-131.3946367178
 20
-22.9266810216
 10
-131.3768524175
 20
-22.8786821034
 10
-131.3556076091
 20
-22.8321114912
 10
-131.3310159129
 20
-22.7872182512
 10
-131.3032088488
 20
-22.7442424789
  0
LINE
  5
41A
100
AcDbEntity
  8
RACCORDO
100
AcDbLine
 62
7
  6
CONTINUOUS
 10
-131.0919605663
 20
-22.5644970156
 11
-131.0917665338
 21
-22.5843386937
  0
LINE
  5
41B
100
AcDbEntity
  8
RACCORDO
100
AcDbLine
 62
7
  6
CONTINUOUS
 10
-131.0917348725
 20
23.6578627637
 11
-131.0916972515
 21
23.6520069695
  0
LINE
  5
41C
100
AcDbEntity
  8
RACCORDO
100
AcDbLine
 62
7
  6
CONTINUOUS
 10
-131.0917665338
 20
-22.5843386937
 11
-131.0916894393
 21
-22.6002618656
  0
LWPOLYLINE
  5
41D
100
AcDbEntity
  8
RACCORDO
100
AcDbPolyline
 62
7
  6
CONTINUOUS
 90
9
 70
0
 10
-131.6115460979
 20
0.5209849272
 10
-131.6060249928
 20
-1.8293555697
 10
-131.5886981653
 20
-4.2602428357
 10
-131.5595596487
 20
-6.6910141652
 10
-131.5186101628
 20
-9.121607109
 10
-131.4658507271
 20
-11.5519690683
 10
-131.4012823257
 20
-13.9820504582
 10
-131.3249064337
 20
-16.4117943962
 10
-131.2367253855
 20
-18.8411332499
  0
LINE
  5
41E
100
AcDbEntity
  8
RACCORDO
100
AcDbLine
 62
7
  6
CONTINUOUS
 10
-131.0916972515
 20
23.6520069695
 11
-131.0916866777
 21
23.6443532799
  0
LINE
  5
41F
100
AcDbEntity
  8
RACCORDO
100
AcDbLine
 62
7
  6
CONTINUOUS
 10
-131.0916894393
 20
-22.6002618656
 11
-131.0916923937
 21
-22.6085812761
  0
LINE
  5
420
100
AcDbEntity
  8
RACCORDO
100
AcDbLine
 62
7
  6
CONTINUOUS
 10
-131.0916866777
 20
23.6443532799
 11
-131.0917433503
 21
23.629652649
  0
LINE
  5
421
100
AcDbEntity
  8
RACCORDO
100
AcDbLine
 62
253
  6
CONTINUOUS
 10
-131.6059965473
 20
2.8773729466
 11
-131.6069974424
 21
2.6334048574
  0
LINE
  5
422
100
AcDbEntity
  8
RACCORDO
100
AcDbLine
 62
7
  6
CONTINUOUS
 10
-131.0916923937
 20
-22.6085812761
 11
-131.091726688
 21
-22.6149712966
  0
LINE
  5
423
100
AcDbEntity
  8
RACCORDO
100
AcDbLine
 62
253
  6
CONTINUOUS
 10
-131.5886462581
 20
5.3076409759
 11
-131.5930001534
 21
4.8183436505
  0
LWPOLYLINE
  5
424
100
AcDbEntity
  8
RACCORDO
100
AcDbPolyline
 62
253
  6
CONTINUOUS
 90
10
 70
0
 10
-131.4289935979
 20
24.220895715
 10
-131.4295528696
 20
24.1697099715
 10
-131.4263697844
 20
24.1186205259
 10
-131.4194613659
 20
24.0679006112
 10
-131.4088645613
 20
24.0178214843
 10
-131.3946360435
 20
23.9686509747
 10
-131.3768519087
 20
23.9206520529
 10
-131.3556072686
 20
23.8740814233
 10
-131.3310157424
 20
23.8291881517
 10
-131.3032088488
 20
23.7862123333
  0
LINE
  5
425
100
AcDbEntity
  8
RACCORDO
100
AcDbLine
 62
7
  6
CONTINUOUS
 10
-131.0917433503
 20
23.629652649
 11
-131.0919865254
 21
23.6043105039
  0
LWPOLYLINE
  5
426
100
AcDbEntity
  8
RACCORDO
100
AcDbPolyline
 62
253
  6
CONTINUOUS
 90
3
 70
0
 10
-131.0935485553
 20
23.7411769283
 10
-131.0941477529
 20
23.6933430004
 10
-131.0916904028
 20
23.6493857144
  0
LINE
  5
427
100
AcDbEntity
  8
RACCORDO
100
AcDbLine
 62
253
  6
CONTINUOUS
 10
-131.0910908009
 20
23.6391831674
 11
-131.0919865254
 21
23.6043105039
  0
LINE
  5
428
100
AcDbEntity
  8
RACCORDO
100
AcDbLine
 62
7
  6
CONTINUOUS
 10
-131.0919865254
 20
23.6043105039
 11
-131.092601392
 21
23.5637436208
  0
LINE
  5
429
100
AcDbEntity
  8
RACCORDO
100
AcDbLine
 62
253
  6
CONTINUOUS
 10
-131.0919349853
 20
23.5820648524
 11
-131.092601392
 21
23.5637436208
  0
LINE
  5
42A
100
AcDbEntity
  8
RACCORDO
100
AcDbLine
 62
7
  6
CONTINUOUS
 10
-131.092601392
 20
23.5637436208
 11
-131.0936107037
 21
23.5138369647
  0
LINE
  5
42B
100
AcDbEntity
  8
RACCORDO
100
AcDbLine
 62
7
  6
CONTINUOUS
 10
-131.0936107037
 20
23.5138369647
 11
-131.095900837
 21
23.4237976274
  0
LINE
  5
42C
100
AcDbEntity
  8
RACCORDO
100
AcDbLine
 62
253
  6
CONTINUOUS
 10
-131.0954251554
 20
23.4338298108
 11
-131.0957930258
 21
23.4276661483
  0
LINE
  5
42D
100
AcDbEntity
  8
RACCORDO
100
AcDbLine
 62
253
  6
CONTINUOUS
 10
-131.0966925394
 20
23.3953567887
 11
-131.0966505532
 21
23.3904757455
  0
LINE
  5
42E
100
AcDbEntity
  8
RACCORDO
100
AcDbLine
 62
7
  6
CONTINUOUS
 10
-131.0957930258
 20
23.4276661483
 11
-131.1011174166
 21
23.2488638001
  0
LINE
  5
42F
100
AcDbEntity
  8
RACCORDO
100
AcDbLine
 62
253
  6
CONTINUOUS
 10
-131.1005579379
 20
23.2625458405
 11
-131.1011174166
 21
23.2488638001
  0
LWPOLYLINE
  5
430
100
AcDbEntity
  8
RACCORDO
100
AcDbPolyline
 62
253
  6
CONTINUOUS
 90
6
 70
0
 10
-131.3248274113
 20
17.4560974985
 10
-131.3448717951
 20
16.8509150138
 10
-131.4221582963
 20
14.2821923547
 10
-131.4842885828
 20
11.8003818621
 10
-131.5326258074
 20
9.4018933411
 10
-131.5685153563
 20
7.0757534151
  0
LWPOLYLINE
  5
431
100
AcDbEntity
  8
RACCORDO
100
AcDbPolyline
 62
7
  6
CONTINUOUS
 90
9
 70
0
 10
-131.236658976
 20
19.8848176365
 10
-131.3248274113
 20
17.4560974985
 10
-131.4011966973
 20
15.0269725067
 10
-131.4657645087
 20
12.5975100177
 10
-131.5185293686
 20
10.1677669448
 10
-131.5594902917
 20
7.7377930406
 10
-131.5886462581
 20
5.3076409759
 10
-131.6059965473
 20
2.8773729466
 10
-131.6115460979
 20
0.5209849272
  0
LINE
  5
432
100
AcDbEntity
  8
RACCORDO
100
AcDbLine
 62
7
  6
CONTINUOUS
 10
-131.1011174166
 20
23.2488638001
 11
-131.1131386371
 21
22.9028680119
  0
LINE
  5
433
100
AcDbEntity
  8
RACCORDO
100
AcDbLine
 62
253
  6
CONTINUOUS
 10
-131.236658976
 20
19.8848176365
 11
-131.2512251563
 21
19.5027593802
  0
LINE
  5
434
100
AcDbEntity
  8
RACCORDO
100
AcDbLine
 62
7
  6
CONTINUOUS
 10
-131.1131386371
 20
22.9028680119
 11
-131.1317386923
 21
22.4316542703
  0
LINE
  5
435
100
AcDbEntity
  8
RACCORDO
100
AcDbLine
 62
7
  6
CONTINUOUS
 10
-131.1317386923
 20
22.4316542703
 11
-131.236658976
 21
19.8848176365
  0
LINE
  5
436
100
AcDbEntity
  8
RACCORDO
100
AcDbLine
 62
253
  6
CONTINUOUS
 10
-131.0579401278
 20
24.2208957139
 11
-131.0971589262
 21
23.3786477842
  0
LINE
  5
437
100
AcDbEntity
  8
ASSI
100
AcDbLine
 62
7
  6
CONTINUOUS
 10
-131.5963059429
 20
24.4609779374
 11
-131.5968320069
 21
24.450236828
  0
LINE
  5
438
100
AcDbEntity
  8
RACCORDO
100
AcDbLine
 62
253
  6
CONTINUOUS
 10
-129.6122357997
 20
26.0321918348
 11
-129.5667042741
 21
26.9179063806
  0
LWPOLYLINE
  5
439
100
AcDbEntity
  8
RACCORDO
100
AcDbPolyline
 62
253
  6
CONTINUOUS
 90
13
 70
0
 10
-131.0579401278
 20
24.2208957139
 10
-130.9714178395
 20
25.8604590657
 10
-130.8674897922
 20
27.4990109903
 10
-130.7461677076
 20
29.1363666757
 10
-130.6074652699
 20
30.7723414453
 10
-130.451398123
 20
32.4067507779
 10
-130.2779838699
 20
34.039410329
 10
-130.0872420709
 20
35.6701359514
 10
-129.8791942386
 20
37.298743716
 10
-129.6538638356
 20
38.9250499328
 10
-129.411276276
 20
40.5488711711
 10
-129.151458922
 20
42.1700242806
 10
-128.8744410784
 20
43.788326412
  0
LINE
  5
43A
100
AcDbEntity
  8
RACCORDO
100
AcDbLine
 62
253
  6
CONTINUOUS
 10
-129.5667042741
 20
26.9179063806
 11
-129.5173193951
 21
27.8025089756
  0
LINE
  5
43B
100
AcDbEntity
  8
RACCORDO
100
AcDbLine
 62
253
  6
CONTINUOUS
 10
-128.7790849765
 20
38.941276159
 11
-128.7232867986
 21
39.8987315718
  0
LINE
  5
43C
100
AcDbEntity
  8
RACCORDO
100
AcDbLine
 62
253
  6
CONTINUOUS
 10
-129.5173193951
 20
27.8025089756
 11
-129.4641008194
 21
28.6857340079
  0
LINE
  5
43D
100
AcDbEntity
  8
RACCORDO
100
AcDbLine
 62
253
  6
CONTINUOUS
 10
-129.2090875531
 20
28.2653049522
 11
-129.1540784364
 21
29.150365075
  0
LINE
  5
43E
100
AcDbEntity
  8
RACCORDO
100
AcDbLine
 62
253
  6
CONTINUOUS
 10
-128.8941263943
 20
37.1344406141
 11
-128.7790849765
 21
38.941276159
  0
LINE
  5
43F
100
AcDbEntity
  8
RACCORDO
100
AcDbLine
 62
253
  6
CONTINUOUS
 10
-128.6658508588
 20
36.4787222145
 11
-128.5196411473
 21
38.7706507505
  0
LINE
  5
440
100
AcDbEntity
  8
RACCORDO
100
AcDbLine
 62
253
  6
CONTINUOUS
 10
-129.4641008194
 20
28.6857340079
 11
-129.4070567721
 21
29.5674944521
  0
LINE
  5
441
100
AcDbEntity
  8
RACCORDO
100
AcDbLine
 62
253
  6
CONTINUOUS
 10
-129.1540784364
 20
29.150365075
 11
-128.9328905377
 21
32.4854833719
  0
LINE
  5
442
100
AcDbEntity
  8
RACCORDO
100
AcDbLine
 62
253
  6
CONTINUOUS
 10
-128.9328905377
 20
32.4854833719
 11
-128.6658508588
 21
36.4787222145
  0
LINE
  5
443
100
AcDbEntity
  8
RACCORDO
100
AcDbLine
 62
253
  6
CONTINUOUS
 10
-129.4070567721
 20
29.5674944521
 11
-129.2143882686
 21
32.4145088225
  0
LINE
  5
444
100
AcDbEntity
  8
RACCORDO
100
AcDbLine
 62
253
  6
CONTINUOUS
 10
-129.2143882686
 20
32.4145088225
 11
-128.8941263943
 21
37.1344406141
  0
LINE
  5
445
100
AcDbEntity
  8
RACCORDO
100
AcDbLine
 62
253
  6
CONTINUOUS
 10
-131.1401098525
 20
22.2325619917
 11
-131.1401980556
 21
22.2325448826
  0
LINE
  5
446
100
AcDbEntity
  8
RACCORDO
100
AcDbLine
 62
253
  6
CONTINUOUS
 10
-128.4604819504
 20
-38.7350523854
 11
-128.51964469
 21
-37.7286228083
  0
LINE
  5
447
100
AcDbEntity
  8
RACCORDO
100
AcDbLine
 62
253
  6
CONTINUOUS
 10
-129.2090874264
 20
-27.2233371976
 11
-129.2602821893
 21
-26.3368032644
  0
LINE
  5
448
100
AcDbEntity
  8
RACCORDO
100
AcDbLine
 62
253
  6
CONTINUOUS
 10
-128.4271076705
 20
-39.3490783442
 11
-128.4604819504
 21
-38.7350523854
  0
LINE
  5
449
100
AcDbEntity
  8
RACCORDO
100
AcDbLine
 62
253
  6
CONTINUOUS
 10
-129.2602821893
 20
-26.3368032644
 11
-129.3076394244
 21
-25.4490069687
  0
LINE
  5
44A
100
AcDbEntity
  8
RACCORDO
100
AcDbLine
 62
253
  6
CONTINUOUS
 10
-128.6924113928
 20
-39.4377395917
 11
-128.7232939008
 21
-38.8566337474
  0
LINE
  5
44B
100
AcDbEntity
  8
RACCORDO
100
AcDbLine
 62
253
  6
CONTINUOUS
 10
-128.3990621553
 20
-39.9152093656
 11
-128.4271076705
 21
-39.3490783442
  0
LINE
  5
44C
100
AcDbEntity
  8
RACCORDO
100
AcDbLine
 62
253
  6
CONTINUOUS
 10
-129.3076394244
 20
-25.4490069687
 11
-129.3582088989
 21
-24.4082713632
  0
LINE
  5
44D
100
AcDbEntity
  8
RACCORDO
100
AcDbLine
 62
253
  6
CONTINUOUS
 10
-128.6670065718
 20
-39.9707364471
 11
-128.6924113928
 21
-39.4377395917
  0
LINE
  5
44E
100
AcDbEntity
  8
RACCORDO
100
AcDbLine
 62
253
  6
CONTINUOUS
 10
-129.6122358711
 20
-24.9902204966
 11
-129.6543408569
 21
-24.0909786361
  0
LINE
  5
44F
100
AcDbEntity
  8
RACCORDO
100
AcDbLine
 62
253
  6
CONTINUOUS
 10
-129.3582088989
 20
-24.4082713632
 11
-129.3913498344
 21
-23.648853107
  0
LINE
  5
450
100
AcDbEntity
  8
RACCORDO
100
AcDbLine
 62
253
  6
CONTINUOUS
 10
-129.6543408569
 20
-24.0909786361
 11
-129.6861249639
 21
-23.3309353009
  0
LINE
  5
451
100
AcDbEntity
  8
RACCORDO
100
AcDbLine
 62
253
  6
CONTINUOUS
 10
-129.3913498344
 20
-23.648853107
 11
-129.4095244085
 21
-23.1931447449
  0
LWPOLYLINE
  5
452
100
AcDbEntity
  8
RACCORDO
100
AcDbPolyline
 62
253
  6
CONTINUOUS
 90
15
 70
0
 10
-129.6861249639
 20
-23.3309353009
 10
-129.805282414
 20
-20.0265214085
 10
-129.9022431012
 20
-16.8714944004
 10
-129.9829917966
 20
-13.7139502879
 10
-130.0475775329
 20
-10.5537278572
 10
-130.0960146983
 20
-7.3912386253
 10
-130.1283009271
 20
-4.22746718
 10
-130.1444475912
 20
-1.0621828525
 10
-130.1444476465
 20
2.1041305315
 10
-130.1283010884
 20
5.2694159734
 10
-130.0960149377
 20
8.4331899797
 10
-130.0475777996
 20
11.5956828861
 10
-129.9829920503
 20
14.7559091064
 10
-129.9022433117
 20
17.9134567905
 10
-129.8052825405
 20
21.0684874842
  0
LWPOLYLINE
  5
453
100
AcDbEntity
  8
RACCORDO
100
AcDbPolyline
 62
253
  6
CONTINUOUS
 90
15
 70
0
 10
-129.4095244085
 20
-23.1931447449
 10
-129.522628536
 20
-20.0394317972
 10
-129.6195596294
 20
-16.8823820111
 10
-129.7003176887
 20
-13.7224697266
 10
-129.7648908063
 20
-10.5602353833
 10
-129.8132908898
 20
-7.3960889574
 10
-129.845553662
 20
-4.2303096672
 10
-129.8616910388
 20
-1.0630144152
 10
-129.8616911044
 20
2.1049606903
 10
-129.8455538332
 20
5.27225706
 10
-129.813291131
 20
8.438038867
 10
-129.7648910922
 20
11.6021889241
 10
-129.7003179747
 20
14.7644271641
 10
-129.6195598646
 20
17.9243433271
 10
-129.5226286758
 20
21.0813972531
  0
LINE
  5
454
100
AcDbEntity
  8
RACCORDO
100
AcDbLine
 62
7
  6
CONTINUOUS
 10
-131.0918162939
 20
23.6635428858
 11
-131.0918193284
 21
23.6636446239
  0
LINE
  5
455
100
AcDbEntity
  8
RACCORDO
100
AcDbLine
 62
7
  6
CONTINUOUS
 10
-131.0918184603
 20
23.6636023518
 11
-131.0918050325
 21
23.6629865
  0
LINE
  5
456
100
AcDbEntity
  8
RACCORDO
100
AcDbLine
 62
7
  6
CONTINUOUS
 10
-131.0917832827
 20
23.6617709137
 11
-131.0917348725
 21
23.6578627637
  0
LWPOLYLINE
  5
457
100
AcDbEntity
  8
RACCORDO
100
AcDbPolyline
 62
7
  6
CONTINUOUS
 90
3
 70
0
 10
-131.091726688
 20
-22.6149712966
 10
-131.0917756722
 20
-22.6193095345
 10
-131.0917848982
 20
-22.6198997907
  0
LWPOLYLINE
  5
458
100
AcDbEntity
  8
RACCORDO
100
AcDbPolyline
 62
253
  6
CONTINUOUS
 90
15
 70
0
 10
-128.3675791695
 20
41.712803689
 10
-128.3600466021
 20
41.9389112011
 10
-128.354087931
 20
42.1518796937
 10
-128.3497097266
 20
42.3515251399
 10
-128.3469054186
 20
42.5376890974
 10
-128.3457508745
 20
42.7102679895
 10
-128.3462546095
 20
42.8691314751
 10
-128.3484081085
 20
43.0141079084
 10
-128.3522616935
 20
43.1450435751
 10
-128.3578291092
 20
43.2618471024
 10
-128.365096611
 20
43.3643949221
 10
-128.3740732873
 20
43.4525416146
 10
-128.3847621675
 20
43.5262288054
 10
-128.3971602223
 20
43.5854508565
 10
-128.4112674516
 20
43.63019182
  0
LWPOLYLINE
  5
459
100
AcDbEntity
  8
RACCORDO
100
AcDbPolyline
 62
253
  6
CONTINUOUS
 90
15
 70
0
 10
-128.6473851508
 20
41.4959612712
 10
-128.6398300824
 20
41.718620336
 10
-128.6338264524
 20
41.9281693449
 10
-128.6294055834
 20
42.1245884887
 10
-128.6265861432
 20
42.3079139654
 10
-128.6253992793
 20
42.4777129381
 10
-128.6258732614
 20
42.6339858964
 10
-128.628019759
 20
42.7767464945
 10
-128.6318533249
 20
42.9055813451
 10
-128.6374051187
 20
43.0204563054
 10
-128.6446755265
 20
43.1214167513
 10
-128.6536434635
 20
43.2081679832
 10
-128.6643144169
 20
43.2806143619
 10
-128.6767105447
 20
43.3388591846
 10
-128.6908386242
 20
43.3829052662
  0
LINE
  5
45A
100
AcDbEntity
  8
RACCORDO
100
AcDbLine
 62
253
  6
CONTINUOUS
 10
-129.8052825405
 20
21.0684874842
 11
-129.6800535323
 21
24.524927254
  0
LINE
  5
45B
100
AcDbEntity
  8
RACCORDO
100
AcDbLine
 62
253
  6
CONTINUOUS
 10
-129.5226286758
 20
21.0813972531
 11
-129.3975505191
 21
24.5389247134
  0
LINE
  5
45C
100
AcDbEntity
  8
RACCORDO
100
AcDbLine
 62
253
  6
CONTINUOUS
 10
-128.3870855601
 20
41.2217695435
 11
-128.3675791695
 21
41.712803689
  0
LINE
  5
45D
100
AcDbEntity
  8
RACCORDO
100
AcDbLine
 62
253
  6
CONTINUOUS
 10
-128.6670014218
 20
41.0128225766
 11
-128.6473851508
 21
41.4959612712
  0
LINE
  5
45E
100
AcDbEntity
  8
RACCORDO
100
AcDbLine
 62
253
  6
CONTINUOUS
 10
-129.3975505191
 20
24.5389247134
 11
-129.3651220923
 21
25.2983688494
  0
LINE
  5
45F
100
AcDbEntity
  8
RACCORDO
100
AcDbLine
 62
253
  6
CONTINUOUS
 10
-129.6800535323
 20
24.524927254
 11
-129.6475557027
 21
25.2849411226
  0
LINE
  5
460
100
AcDbEntity
  8
RACCORDO
100
AcDbLine
 62
253
  6
CONTINUOUS
 10
-129.3651220923
 20
25.2983688494
 11
-129.3298765131
 21
26.0466655335
  0
LINE
  5
461
100
AcDbEntity
  8
RACCORDO
100
AcDbLine
 62
253
  6
CONTINUOUS
 10
-129.6475557027
 20
25.2849411226
 11
-129.6122357997
 21
26.0321918348
  0
LINE
  5
462
100
AcDbEntity
  8
RACCORDO
100
AcDbLine
 62
253
  6
CONTINUOUS
 10
-128.4123970416
 20
40.6802813593
 11
-128.3870855601
 21
41.2217695435
  0
LINE
  5
463
100
AcDbEntity
  8
RACCORDO
100
AcDbLine
 62
253
  6
CONTINUOUS
 10
-128.6924052799
 20
40.4798303207
 11
-128.6670014218
 21
41.0128225766
  0
LINE
  5
464
100
AcDbEntity
  8
RACCORDO
100
AcDbLine
 62
253
  6
CONTINUOUS
 10
-129.3298765131
 20
26.0466655335
 11
-129.2844420912
 21
26.9350169003
  0
LINE
  5
465
100
AcDbEntity
  8
RACCORDO
100
AcDbLine
 62
253
  6
CONTINUOUS
 10
-128.4431759445
 20
40.0899609293
 11
-128.4123970416
 21
40.6802813593
  0
LINE
  5
466
100
AcDbEntity
  8
RACCORDO
100
AcDbLine
 62
253
  6
CONTINUOUS
 10
-128.7232867986
 20
39.8987315718
 11
-128.6924052799
 21
40.4798303207
  0
LWPOLYLINE
  5
467
100
AcDbEntity
  8
RACCORDO
100
AcDbPolyline
 62
253
  6
CONTINUOUS
 90
3
 70
0
 10
-129.2844420912
 20
26.9350169003
 10
-129.2351622293
 20
27.8222099185
 10
-129.2090875531
 20
28.2653049522
  0
LWPOLYLINE
  5
468
100
AcDbEntity
  8
RACCORDO
100
AcDbPolyline
 62
253
  6
CONTINUOUS
 90
3
 70
0
 10
-128.5196411473
 20
38.7706507505
 10
-128.4987866512
 20
39.1171561322
 10
-128.4431759445
 20
40.0899609293
  0
LWPOLYLINE
  5
469
100
AcDbEntity
  8
0
100
AcDbPolyline
 62
253
  6
CONTINUOUS
 90
3
 70
0
 10
-123.1078856668
 20
25.4344973599
 10
-123.2329891696
 20
25.4282615068
 10
-123.3629664063
 20
25.4223584182
  0
LINE
  5
46A
100
AcDbEntity
  8
DRAFT
100
AcDbLine
 62
7
  6
CONTINUOUS
 10
-125.9078856668
 20
-44.4790150728
 11
-125.9078856668
 21
45.5209849272
  0
LINE
  5
46B
100
AcDbEntity
  8
DRAFT
100
AcDbLine
 62
7
  6
CONTINUOUS
 10
-125.1078856668
 20
-2.9790150728
 11
-125.1078856668
 21
4.0209849272
  0
LINE
  5
46C
100
AcDbEntity
  8
0
100
AcDbLine
 62
253
  6
CONTINUOUS
 10
-123.1078856668
 20
25.6131162819
 11
-123.3627357245
 21
25.6023688912
  0
LINE
  5
46D
100
AcDbEntity
  8
0
100
AcDbLine
 62
253
  6
CONTINUOUS
 10
-123.3629664063
 20
25.4223584182
 11
-123.6365541201
 21
25.4116196161
  0
LINE
  5
46E
100
AcDbEntity
  8
0
100
AcDbLine
 62
253
  6
CONTINUOUS
 10
-123.3627357245
 20
25.6023688912
 11
-123.6361506047
 21
25.5928617716
  0
LINE
  5
46F
100
AcDbEntity
  8
0
100
AcDbLine
 62
253
  6
CONTINUOUS
 10
-123.6365541201
 20
25.4116196161
 11
-123.9267272533
 21
25.4024153419
  0
LINE
  5
470
100
AcDbEntity
  8
0
100
AcDbLine
 62
253
  6
CONTINUOUS
 10
-123.6361506047
 20
25.5928617716
 11
-123.9262234751
 21
25.5847167719
  0
LINE
  5
471
100
AcDbEntity
  8
0
100
AcDbLine
 62
253
  6
CONTINUOUS
 10
-123.9267272533
 20
25.4024153419
 11
-124.2315317391
 21
25.3948718576
  0
LINE
  5
472
100
AcDbEntity
  8
0
100
AcDbLine
 62
253
  6
CONTINUOUS
 10
-123.9262234751
 20
25.5847167719
 11
-124.2310035087
 21
25.5780487976
  0
LINE
  5
473
100
AcDbEntity
  8
0
100
AcDbLine
 62
253
  6
CONTINUOUS
 10
-124.2315317391
 20
25.3948718576
 11
-124.5493122154
 21
25.3891064883
  0
LINE
  5
474
100
AcDbEntity
  8
0
100
AcDbLine
 62
253
  6
CONTINUOUS
 10
-124.2310035087
 20
25.5780487976
 11
-124.5488044204
 21
25.5729652429
  0
LINE
  5
475
100
AcDbEntity
  8
0
100
AcDbLine
 62
253
  6
CONTINUOUS
 10
-124.5493122154
 20
25.3891064883
 11
-124.8780466112
 21
25.3852229898
  0
LINE
  5
476
100
AcDbEntity
  8
0
100
AcDbLine
 62
253
  6
CONTINUOUS
 10
-124.5488044204
 20
25.5729652429
 11
-124.877598925
 21
25.5695601643
  0
LINE
  5
477
100
AcDbEntity
  8
RACCORDO
100
AcDbLine
 62
253
  6
CONTINUOUS
 10
-125.9078856668
 20
25.6202317867
 11
-129.351153143
 21
25.6021096613
  0
LINE
  5
478
100
AcDbEntity
  8
0
100
AcDbLine
 62
253
  6
CONTINUOUS
 10
-124.8780466112
 20
25.3852229898
 11
-125.2152081348
 21
25.3833021226
  0
LINE
  5
479
100
AcDbEntity
  8
0
100
AcDbLine
 62
253
  6
CONTINUOUS
 10
-124.877598925
 20
25.5695601643
 11
-125.2148936749
 21
25.5679066439
  0
LINE
  5
47A
100
AcDbEntity
  8
RACCORDO
100
AcDbLine
 62
253
  6
CONTINUOUS
 10
-131.4289935746
 20
24.2208957139
 11
-129.692053714
 21
24.2208766942
  0
LINE
  5
47B
100
AcDbEntity
  8
0
100
AcDbLine
 62
253
  6
CONTINUOUS
 10
-125.2152081348
 20
25.3833021226
 11
-125.5591591688
 21
25.3833987511
  0
LINE
  5
47C
100
AcDbEntity
  8
0
100
AcDbLine
 62
253
  6
CONTINUOUS
 10
-125.2148936749
 20
25.5679066439
 11
-125.5590015002
 21
25.5680551549
  0
LINE
  5
47D
100
AcDbEntity
  8
0
100
AcDbLine
 62
253
  6
CONTINUOUS
 10
-125.5590015002
 20
25.5680551549
 11
-125.9078856668
 21
25.570033293
  0
LINE
  5
47E
100
AcDbEntity
  8
0
100
AcDbLine
 62
253
  6
CONTINUOUS
 10
-125.5591591688
 20
25.3833987511
 11
-125.9078856668
 21
25.3855435482
  0
LWPOLYLINE
  5
47F
100
AcDbEntity
  8
RACCORDO
100
AcDbPolyline
 62
253
  6
CONTINUOUS
 90
9
 70
0
 10
-131.0935485672
 20
23.7411769289
 10
-131.0927928567
 20
23.7390822925
 10
-131.0921613462
 20
23.7339844925
 10
-131.0916539083
 20
23.7258835248
 10
-131.0912618524
 20
23.7148515284
 10
-131.0909934449
 20
23.7008163483
 10
-131.0908739326
 20
23.6835615343
 10
-131.0909082867
 20
23.6629821849
 10
-131.0910908009
 20
23.6391831674
  0
LINE
  5
480
100
AcDbEntity
  8
0
100
AcDbLine
 62
7
  6
CONTINUOUS
 10
-123.1078856668
 20
-42.6290150669
 11
-123.1078856668
 21
-24.3925275056
  0
LINE
  5
481
100
AcDbEntity
  8
DRAFT
100
AcDbLine
 62
7
  6
CONTINUOUS
 10
-123.1078856668
 20
-24.3925275056
 11
-123.1078856668
 21
-3.3316690342
  0
LINE
  5
482
100
AcDbEntity
  8
DRAFT
100
AcDbLine
 62
7
  6
CONTINUOUS
 10
-123.1078856668
 20
4.3736388887
 11
-123.1078856668
 21
25.4344973601
  0
LINE
  5
483
100
AcDbEntity
  8
0
100
AcDbLine
 62
7
  6
CONTINUOUS
 10
-123.1078856668
 20
25.4344973601
 11
-123.1078856668
 21
43.6709849272
  0
LWPOLYLINE
  5
484
100
AcDbEntity
  8
RACCORDO
100
AcDbPolyline
 62
253
  6
CONTINUOUS
 90
3
 70
0
 10
-128.9037981401
 20
-44.3220059531
 10
-128.8096171429
 20
-43.9114331291
 10
-128.7677602444
 20
-43.7309181193
  0
LINE
  5
485
100
AcDbEntity
  8
RACCORDO
100
AcDbLine
 62
253
  6
CONTINUOUS
 10
-129.183054658
 20
-44.0771910676
 11
-129.047215093
 21
-43.4850312846
  0
LINE
  5
486
100
AcDbEntity
  8
RACCORDO
100
AcDbLine
 62
253
  6
CONTINUOUS
 10
-129.047215093
 20
-43.4850312846
 11
-128.8744410765
 21
-42.7463565689
  0
LINE
  5
487
100
AcDbEntity
  8
RACCORDO
100
AcDbLine
 62
253
  6
CONTINUOUS
 10
-131.0935485672
 20
-22.6992070744
 11
-131.5963058332
 21
-23.4190103223
  0
LINE
  5
488
100
AcDbEntity
  8
RACCORDO
100
AcDbLine
 62
7
  6
CONTINUOUS
 10
-131.4705572518
 20
-22.9832407671
 11
-131.0942263959
 21
-22.4457846054
  0
LINE
  5
489
100
AcDbEntity
  8
RACCORDO
100
AcDbLine
 62
253
  6
CONTINUOUS
 10
-125.9078856668
 20
29.6202317867
 11
-129.1251422585
 21
29.5922879397
  0
LINE
  5
48A
100
AcDbEntity
  8
RACCORDO
100
AcDbLine
 62
7
  6
CONTINUOUS
 10
-131.4705571208
 20
24.0252104344
 11
-131.094226262
 21
23.4877542686
  0
LINE
  5
48B
100
AcDbEntity
  8
RACCORDO
100
AcDbLine
 62
253
  6
CONTINUOUS
 10
-131.5963058423
 20
24.4609799914
 11
-131.0935485672
 21
23.7411769289
  0
LINE
  5
48C
100
AcDbEntity
  8
RACCORDO
100
AcDbLine
 62
253
  6
CONTINUOUS
 10
-128.8744410765
 20
43.7883264233
 11
-129.0472151267
 21
44.5270012848
  0
LWPOLYLINE
  5
48D
100
AcDbEntity
  8
RACCORDO
100
AcDbPolyline
 62
253
  6
CONTINUOUS
 90
3
 70
0
 10
-128.7677602782
 20
44.7728881192
 10
-128.9000737019
 20
45.347547936
 10
-128.9037981401
 20
45.3639758076
  0
LINE
  5
48E
100
AcDbEntity
  8
RACCORDO
100
AcDbLine
 62
253
  6
CONTINUOUS
 10
-129.0472151267
 20
44.5270012848
 11
-129.183054658
 21
45.119160922
  0
LINE
  5
48F
100
AcDbEntity
  8
RACCORDO
100
AcDbLine
 62
253
  6
CONTINUOUS
 10
-128.7677602444
 20
-43.7309181193
 11
-128.5947452995
 21
-42.9935804354
  0
LWPOLYLINE
  5
490
100
AcDbEntity
  8
RACCORDO
100
AcDbPolyline
 62
253
  6
CONTINUOUS
 90
10
 70
0
 10
-128.8744410785
 20
-42.7463565577
 10
-128.8707975708
 20
-42.7322169982
 10
-128.8665528415
 20
-42.7180334799
 10
-128.8617069063
 20
-42.7038060009
 10
-128.8562597957
 20
-42.6895345408
 10
-128.8502115155
 20
-42.6752191159
 10
-128.8435620385
 20
-42.6608597784
 10
-128.8363113618
 20
-42.6464565444
 10
-128.8284595145
 20
-42.6320093938
 10
-128.808115796
 20
-42.5970316761
  0
LWPOLYLINE
  5
491
100
AcDbEntity
  8
RACCORDO
100
AcDbPolyline
 62
253
  6
CONTINUOUS
 90
10
 70
0
 10
-128.5947452995
 20
-42.9935804354
 10
-128.5911031846
 20
-42.979466454
 10
-128.5868604901
 20
-42.9653085802
 10
-128.5820172159
 20
-42.9511068187
 10
-128.5765733592
 20
-42.9368611619
 10
-128.570528923
 20
-42.9225716271
 10
-128.563883916
 20
-42.9082382579
 10
-128.5566383413
 20
-42.8938610726
 10
-128.5487921959
 20
-42.879440064
 10
-128.5284648408
 20
-42.8444758866
  0
LWPOLYLINE
  5
492
100
AcDbEntity
  8
RACCORDO
100
AcDbPolyline
 62
253
  6
CONTINUOUS
 90
17
 70
0
 10
-128.4112671537
 20
-42.5882210604
 10
-128.3971570055
 20
-42.5434655521
 10
-128.3847570638
 20
-42.4842263193
 10
-128.3740673286
 20
-42.4105226909
 10
-128.3650912178
 20
-42.3223659159
 10
-128.3578253135
 20
-42.2198161418
 10
-128.3522593618
 20
-42.1030133527
 10
-128.3484067126
 20
-41.9720792897
 10
-128.346254016
 20
-41.827107266
 10
-128.345750969
 20
-41.6682471423
 10
-128.3469060718
 20
-41.4956670879
 10
-128.3497108242
 20
-41.3094990073
 10
-128.3540894216
 20
-41.1098500018
 10
-128.3600484545
 20
-40.8968803263
 10
-128.3675813325
 20
-40.6707726074
 10
-128.3765924798
 20
-40.4316638942
 10
-128.3990621553
 20
-39.9152093656
  0
LWPOLYLINE
  5
493
100
AcDbEntity
  8
RACCORDO
100
AcDbPolyline
 62
253
  6
CONTINUOUS
 90
16
 70
0
 10
-128.6908386242
 20
-42.3409354117
 10
-128.6767068937
 20
-42.2968626918
 10
-128.6643080164
 20
-42.238596212
 10
-128.653635468
 20
-42.1661331573
 10
-128.6446679813
 20
-42.0793711546
 10
-128.6373997396
 20
-41.9784049205
 10
-128.6318500135
 20
-41.8635263851
 10
-128.6280176958
 20
-41.7346906446
 10
-128.6258723484
 20
-41.5919313713
 10
-128.625399464
 20
-41.4356577668
 10
-128.626587289
 20
-41.2658538451
 10
-128.6294075154
 20
-41.0825214452
 10
-128.6338290969
 20
-40.8860962079
 10
-128.6398334316
 20
-40.6765430228
 10
-128.6473891597
 20
-40.4538806128
 10
-128.6670065718
 20
-39.9707364471
  0
LWPOLYLINE
  5
494
100
AcDbEntity
  8
0
100
AcDbPolyline
 62
253
  6
CONTINUOUS
 90
19
 70
0
 10
-123.1078856668
 20
29.3146658422
 10
-123.2302894082
 20
29.3288932249
 10
-123.3578122971
 20
29.3425779438
 10
-123.4902653973
 20
29.3556892875
 10
-123.627466883
 20
29.3681970875
 10
-123.7692162467
 20
29.3800694602
 10
-123.9152738014
 20
29.3912747711
 10
-124.0654217008
 20
29.4017865279
 10
-124.219404017
 20
29.4115755529
 10
-124.376894345
 20
29.4206092141
 10
-124.5375891405
 20
29.4288595661
 10
-124.7012653758
 20
29.4363101529
 10
-124.8677140497
 20
29.4429456916
 10
-125.0367163308
 20
29.4487490213
 10
-125.2079354481
 20
29.4536987825
 10
-125.3809751862
 20
29.4577788682
 10
-125.5554976603
 20
29.4609818284
 10
-125.7312355123
 20
29.4633019569
 10
-125.9078856668
 20
29.4647326133
  0
LWPOLYLINE
  5
495
100
AcDbEntity
  8
0
100
AcDbPolyline
 62
253
  6
CONTINUOUS
 90
19
 70
0
 10
-123.1078856668
 20
29.3820312584
 10
-123.2302476828
 20
29.3967465463
 10
-123.3577324506
 20
29.4109033307
 10
-123.4901519115
 20
29.4244698556
 10
-123.6273253757
 20
29.4374149476
 10
-123.7690528447
 20
29.4497055943
 10
-123.9150943135
 20
29.4613089812
 10
-124.0652327407
 20
29.4721977244
 10
-124.2192120701
 20
29.4823415867
 10
-124.3767037126
 20
29.4917066411
 10
-124.5374026753
 20
29.5002638982
 10
-124.7010871773
 20
29.5079964179
 10
-124.867549972
 20
29.5148884686
 10
-125.0365737924
 20
29.5209223249
 10
-125.2078198675
 20
29.5260757595
 10
-125.3808882564
 20
29.530331965
 10
-125.5554393805
 20
29.5336832133
 10
-125.7312064075
 20
29.5361236449
 10
-125.9078856668
 20
29.5376463963
  0
LINE
  5
496
100
AcDbEntity
  8
RACCORDO
100
AcDbLine
 62
253
  6
CONTINUOUS
 10
-128.5947452995
 20
44.0355502899
 11
-128.7677602782
 21
44.7728881192
  0
LWPOLYLINE
  5
497
100
AcDbEntity
  8
RACCORDO
100
AcDbPolyline
 62
253
  6
CONTINUOUS
 90
10
 70
0
 10
-128.6908386242
 20
43.3829052662
 10
-128.7076552167
 20
43.4238723783
 10
-128.7238542363
 20
43.4622813176
 10
-128.7394366322
 20
43.4981324187
 10
-128.7544039254
 20
43.5314279307
 10
-128.7687559798
 20
43.5621662089
 10
-128.7824915546
 20
43.5903417164
 10
-128.7956110168
 20
43.6159527658
 10
-128.8081157901
 20
43.6390015188
 10
-128.828459515
 20
43.6739792493
  0
LWPOLYLINE
  5
498
100
AcDbEntity
  8
RACCORDO
100
AcDbPolyline
 62
253
  6
CONTINUOUS
 90
10
 70
0
 10
-128.4112678297
 20
43.6301918004
 10
-128.428071251
 20
43.6711790699
 10
-128.444259285
 20
43.7096106292
 10
-128.4598319316
 20
43.7454851147
 10
-128.4747891605
 20
43.7788023528
 10
-128.489131002
 20
43.8095597667
 10
-128.5028575472
 20
43.8377532751
 10
-128.5159688265
 20
43.8633816642
 10
-128.5284648094
 20
43.8864456883
 10
-128.5487922026
 20
43.921409931
  0
LWPOLYLINE
  5
499
100
AcDbEntity
  8
RACCORDO
100
AcDbPolyline
 62
253
  6
CONTINUOUS
 90
9
 70
0
 10
-128.5284648408
 20
-42.8444758866
 10
-128.5159688899
 20
-42.8214119274
 10
-128.5028576333
 20
-42.7957835941
 10
-128.4891311154
 20
-42.7675901482
 10
-128.474789292
 20
-42.7368327792
 10
-128.4598320304
 20
-42.7035154834
 10
-128.4442592865
 20
-42.6676407851
 10
-128.4280711045
 20
-42.6292088586
 10
-128.4112674844
 20
-42.5882210433
  0
LWPOLYLINE
  5
49A
100
AcDbEntity
  8
RACCORDO
100
AcDbPolyline
 62
253
  6
CONTINUOUS
 90
9
 70
0
 10
-128.808115796
 20
-42.5970316761
 10
-128.795611028
 20
-42.573982933
 10
-128.78249157
 20
-42.5483718914
 10
-128.7687559977
 20
-42.5201963909
 10
-128.7544039438
 20
-42.4894581176
 10
-128.7394366496
 20
-42.456162605
 10
-128.7238542506
 20
-42.420311496
 10
-128.7076552253
 20
-42.3819025432
 10
-128.6908386242
 20
-42.3409354117
  0
LINE
  5
49B
100
AcDbEntity
  8
RACCORDO
100
AcDbLine
 62
253
  6
CONTINUOUS
 10
-125.9078856668
 20
44.044818636
 11
-128.540345488
 21
43.9069451071
  0
LINE
  5
49C
100
AcDbEntity
  8
RACCORDO
100
AcDbLine
 62
253
  6
CONTINUOUS
 10
-125.9078856668
 20
43.7609849272
 11
-128.4112678297
 21
43.6301918004
  0
LWPOLYLINE
  5
49D
100
AcDbEntity
  8
0
100
AcDbPolyline
 62
253
  6
CONTINUOUS
 90
22
 70
0
 10
-125.9078856668
 20
43.5451367259
 10
-125.7599437568
 20
43.5478798262
 10
-125.6144596981
 20
43.5439755878
 10
-125.4712173733
 20
43.533544492
 10
-125.3302474599
 20
43.5167406996
 10
-125.1910903304
 20
43.4936695394
 10
-125.0528269781
 20
43.4642649206
 10
-124.9147303739
 20
43.4282557513
 10
-124.7773009749
 20
43.385602584
 10
-124.641495097
 20
43.3365612804
 10
-124.5078370545
 20
43.2814196252
 10
-124.3755452481
 20
43.2199575301
 10
-124.2437115192
 20
43.1516618415
 10
-124.111608453
 20
43.0758499533
 10
-123.9801588374
 20
42.9927319112
 10
-123.8510000011
 20
42.9032261733
 10
-123.7257516826
 20
42.8086296734
 10
-123.6029381244
 20
42.7079910658
 10
-123.479683076
 20
42.5986112328
 10
-123.3553147807
 20
42.4790776977
 10
-123.2312485924
 20
42.3498613676
 10
-123.1078856668
 20
42.2105338089
  0
LWPOLYLINE
  5
49E
100
AcDbEntity
  8
0
100
AcDbPolyline
 62
253
  6
CONTINUOUS
 90
22
 70
0
 10
-125.9078856668
 20
43.5294205631
 10
-125.7600861147
 20
43.5316706474
 10
-125.6146433802
 20
43.5273364427
 10
-125.4713585569
 20
43.5165309801
 10
-125.3302677122
 20
43.4993999916
 10
-125.1909390121
 20
43.4760416428
 10
-125.0525019181
 20
43.4463908425
 10
-124.9142717644
 20
43.4101896998
 10
-124.7767293134
 20
43.3674008102
 10
-124.6407839669
 20
43.318264554
 10
-124.5069329738
 20
43.2630483625
 10
-124.3744438282
 20
43.2015413657
 10
-124.2424709073
 20
43.133260798
 10
-124.1103296
 20
43.0575584354
 10
-123.9789058346
 20
42.9746342038
 10
-123.8497770215
 20
42.8853681328
 10
-123.7245018456
 20
42.7910000559
 10
-123.6016661775
 20
42.6906163555
 10
-123.4785167377
 20
42.5816350586
 10
-123.3544202873
 20
42.4627103375
 10
-123.2307450029
 20
42.3342983955
 10
-123.1078856668
 20
42.1959955686
  0
LWPOLYLINE
  5
49F
100
AcDbEntity
  8
RACCORDO
100
AcDbPolyline
 62
253
  6
CONTINUOUS
 90
9
 70
0
 10
-128.5487922026
 20
43.921409931
 10
-128.5566383467
 20
43.9358309376
 10
-128.5638839203
 20
43.9502081213
 10
-128.5705289267
 20
43.9645414901
 10
-128.5765733626
 20
43.9788310249
 10
-128.5820172188
 20
43.9930766811
 10
-128.5868604921
 20
44.0072784406
 10
-128.5911031857
 20
44.0214363119
 10
-128.5947452995
 20
44.0355502899
  0
LWPOLYLINE
  5
4A0
100
AcDbEntity
  8
RACCORDO
100
AcDbPolyline
 62
253
  6
CONTINUOUS
 90
9
 70
0
 10
-128.828459515
 20
43.6739792493
 10
-128.8363113628
 20
43.6884264009
 10
-128.8435620399
 20
43.7028296357
 10
-128.8502115172
 20
43.7171889742
 10
-128.8562597977
 20
43.7315044001
 10
-128.8617069081
 20
43.7457758603
 10
-128.8665528428
 20
43.7600033385
 10
-128.8707975715
 20
43.774186855
 10
-128.8744410784
 20
43.788326412
  0
LINE
  5
4A1
100
AcDbEntity
  8
DRAFT
100
AcDbLine
 62
7
  6
CONTINUOUS
 10
-125.9078856668
 20
45.5209849272
 11
-128.9037981286
 21
45.3639758082
  0
LWPOLYLINE
  5
4A2
100
AcDbEntity
  8
0
100
AcDbPolyline
 62
253
  6
CONTINUOUS
 90
22
 70
0
 10
-125.9078856668
 20
43.2624950327
 10
-125.7610254482
 20
43.2592104124
 10
-125.6156131684
 20
43.2500452993
 10
-125.4716067896
 20
43.2350525049
 10
-125.329088168
 20
43.214305516
 10
-125.1878889642
 20
43.1878465349
 10
-125.0476047979
 20
43.1556319295
 10
-124.9079587673
 20
43.1175352745
 10
-124.7692425148
 20
43.0735398323
 10
-124.6319205302
 20
43.0237440294
 10
-124.4962689699
 20
42.9682493719
 10
-124.3620074945
 20
42.9069418694
 10
-124.2288142299
 20
42.8395943042
 10
-124.0963802197
 20
42.7658638231
 10
-123.9652758069
 20
42.6858695248
 10
-123.8365324214
 20
42.6001434431
 10
-123.7111453584
 20
42.5094027398
 10
-123.5883015269
 20
42.4131074147
 10
-123.4664196775
 20
42.3097948072
 10
-123.3452163163
 20
42.1987439442
 10
-123.2255974419
 20
42.0802654175
 10
-123.1078856668
 20
41.9541812255
  0
LWPOLYLINE
  5
4A3
100
AcDbEntity
  8
0
100
AcDbPolyline
 62
253
  6
CONTINUOUS
 90
22
 70
0
 10
-125.9078856668
 20
43.2145398255
 10
-125.7609617346
 20
43.2108894431
 10
-125.6154194285
 20
43.2014345476
 10
-125.4712308941
 20
43.1862249825
 10
-125.3284845467
 20
43.1653300786
 10
-125.18703401
 20
43.1387895824
 10
-125.0465112594
 20
43.1065632763
 10
-124.906672455
 20
43.0685368934
 10
-124.767797551
 20
43.0246971745
 10
-124.6303193017
 20
42.9751334712
 10
-124.4945018613
 20
42.9199383291
 10
-124.3601000314
 20
42.8590082909
 10
-124.2268276027
 20
42.7921360779
 10
-124.0944064125
 20
42.7190066948
 10
-123.9633817258
 20
42.6397344053
 10
-123.8347333902
 20
42.5548183791
 10
-123.7094047706
 20
42.4649278018
 10
-123.5866409301
 20
42.3695622167
 10
-123.4649694212
 20
42.2673677763
 10
-123.344136956
 20
42.1576826847
 10
-123.2250044018
 20
42.0408032215
 10
-123.1078856668
 20
41.9165723175
  0
LWPOLYLINE
  5
4A4
100
AcDbEntity
  8
0
100
AcDbPolyline
 62
7
  6
CONTINUOUS
 90
4
 70
0
 10
-125.8311559344
 20
45.0135908892
 10
-125.8544260575
 20
45.0159773292
 10
-125.8773105771
 20
45.0182018853
 10
-125.9078856668
 20
45.0209849272
  0
LINE
  5
4A5
100
AcDbEntity
  8
0
100
AcDbLine
 62
7
  6
CONTINUOUS
 10
-123.2318667474
 20
-42.7544251525
 11
-123.1078856668
 21
-42.6290150728
  0
LWPOLYLINE
  5
4A6
100
AcDbEntity
  8
0
100
AcDbPolyline
 62
7
  6
CONTINUOUS
 90
5
 70
0
 10
-123.2450603393
 20
-42.7671912157
 10
-123.207125444
 20
-42.7301947166
 10
-123.1677686867
 20
-42.6908490732
 10
-123.1319602064
 20
-42.6541668109
 10
-123.1078856668
 20
-42.6290150727
  0
LINE
  5
4A7
100
AcDbEntity
  8
0
100
AcDbLine
 62
7
  6
CONTINUOUS
 10
-123.2799493182
 20
-42.8004413119
 11
-123.2450603393
 21
-42.7671912157
  0
LINE
  5
4A8
100
AcDbEntity
  8
0
100
AcDbLine
 62
7
  6
CONTINUOUS
 10
-123.3608463955
 20
-42.8748069958
 11
-123.2318667474
 21
-42.7544251525
  0
LWPOLYLINE
  5
4A9
100
AcDbEntity
  8
0
100
AcDbPolyline
 62
7
  6
CONTINUOUS
 90
3
 70
0
 10
-123.3727270289
 20
-42.8854186638
 10
-123.3443413503
 20
-42.8599355975
 10
-123.313234815
 20
-42.8314923697
  0
LINE
  5
4AA
100
AcDbEntity
  8
0
100
AcDbLine
 62
7
  6
CONTINUOUS
 10
-123.4438906509
 20
-42.9473934627
 11
-123.3608463955
 21
-42.8748069958
  0
LINE
  5
4AB
100
AcDbEntity
  8
0
100
AcDbLine
 62
7
  6
CONTINUOUS
 10
-124.7039115208
 20
-43.6989262788
 11
-124.6809872834
 21
-43.6899648314
  0
LINE
  5
4AC
100
AcDbEntity
  8
0
100
AcDbLine
 62
7
  6
CONTINUOUS
 10
-124.7269158749
 20
-43.7077706021
 11
-124.7039115208
 21
-43.6989262788
  0
LINE
  5
4AD
100
AcDbEntity
  8
0
100
AcDbLine
 62
7
  6
CONTINUOUS
 10
-124.7497998271
 20
-43.7164220642
 11
-124.7269158749
 21
-43.7077706021
  0
LINE
  5
4AE
100
AcDbEntity
  8
0
100
AcDbLine
 62
7
  6
CONTINUOUS
 10
-124.772428408
 20
-43.7248341543
 11
-124.7497998271
 21
-43.7164220642
  0
LINE
  5
4AF
100
AcDbEntity
  8
0
100
AcDbLine
 62
7
  6
CONTINUOUS
 10
-124.8271507798
 20
-43.7445953324
 11
-124.8055762821
 21
-43.7369021949
  0
LINE
  5
4B0
100
AcDbEntity
  8
0
100
AcDbLine
 62
7
  6
CONTINUOUS
 10
-124.8487385058
 20
-43.7521666394
 11
-124.8271507798
 21
-43.7445953324
  0
LINE
  5
4B1
100
AcDbEntity
  8
0
100
AcDbLine
 62
7
  6
CONTINUOUS
 10
-124.8705774331
 20
-43.7596979578
 11
-124.8487385058
 21
-43.7521666394
  0
LINE
  5
4B2
100
AcDbEntity
  8
0
100
AcDbLine
 62
7
  6
CONTINUOUS
 10
-124.8930066454
 20
-43.7672994713
 11
-124.8705774331
 21
-43.7596979578
  0
LINE
  5
4B3
100
AcDbEntity
  8
0
100
AcDbLine
 62
7
  6
CONTINUOUS
 10
-124.9164082682
 20
-43.775087268
 11
-124.8930066454
 21
-43.7672994713
  0
LINE
  5
4B4
100
AcDbEntity
  8
0
100
AcDbLine
 62
7
  6
CONTINUOUS
 10
-124.9410261551
 20
-43.7831227687
 11
-124.9164082682
 21
-43.775087268
  0
LINE
  5
4B5
100
AcDbEntity
  8
0
100
AcDbLine
 62
7
  6
CONTINUOUS
 10
-125.0094273274
 20
-43.8046114802
 11
-124.9810012928
 21
-43.7958302204
  0
LINE
  5
4B6
100
AcDbEntity
  8
0
100
AcDbLine
 62
7
  6
CONTINUOUS
 10
-125.0391138428
 20
-43.8135574555
 11
-125.0094273274
 21
-43.8046114802
  0
LINE
  5
4B7
100
AcDbEntity
  8
0
100
AcDbLine
 62
7
  6
CONTINUOUS
 10
-125.0697036717
 20
-43.8225369007
 11
-125.0391138428
 21
-43.8135574555
  0
LWPOLYLINE
  5
4B8
100
AcDbEntity
  8
0
100
AcDbPolyline
 62
7
  6
CONTINUOUS
 90
6
 70
0
 10
-125.111761481
 20
-43.8344895934
 10
-125.042154953
 20
-43.814460938
 10
-124.87385398
 20
-43.7608149062
 10
-124.7079960209
 20
-43.7005028523
 10
-124.5447680608
 20
-43.6336113165
 10
-124.3844186259
 20
-43.5602422386
  0
LINE
  5
4B9
100
AcDbEntity
  8
0
100
AcDbLine
 62
7
  6
CONTINUOUS
 10
-125.9078856668
 20
45.0209849272
 11
-125.7330548393
 21
45.0021369505
  0
LWPOLYLINE
  5
4BA
100
AcDbEntity
  8
0
100
AcDbPolyline
 62
7
  6
CONTINUOUS
 90
7
 70
0
 10
-125.6664699378
 20
44.9931014333
 10
-125.6904635696
 20
44.9964807631
 10
-125.7142249359
 20
44.9996944775
 10
-125.7378353976
 20
45.0027570484
 10
-125.7612872525
 20
45.0056702804
 10
-125.7845849804
 20
45.0084375157
 10
-125.8078277591
 20
45.011072437
  0
LINE
  5
4BB
100
AcDbEntity
  8
0
100
AcDbLine
 62
7
  6
CONTINUOUS
 10
-125.7330548393
 20
45.0021369505
 11
-125.5588242087
 21
44.9762548342
  0
LWPOLYLINE
  5
4BC
100
AcDbEntity
  8
0
100
AcDbPolyline
 62
7
  6
CONTINUOUS
 90
6
 70
0
 10
-125.4924414966
 20
44.9645247091
 10
-125.5175282177
 20
44.9690877985
 10
-125.5426926749
 20
44.9735141451
 10
-125.5679729217
 20
44.9778091673
 10
-125.5930260902
 20
44.9819160563
 10
-125.617736409
 20
44.9858213173
  0
LINE
  5
4BD
100
AcDbEntity
  8
0
100
AcDbLine
 62
7
  6
CONTINUOUS
 10
-125.5580405829
 20
44.9761383335
 11
-125.3853117165
 21
44.9433215327
  0
LWPOLYLINE
  5
4BE
100
AcDbEntity
  8
0
100
AcDbPolyline
 62
7
  6
CONTINUOUS
 90
7
 70
0
 10
-125.3106486843
 20
44.926923366
 10
-125.3310447215
 20
44.9315425057
 10
-125.3519864595
 20
44.936179149
 10
-125.3736395996
 20
44.9408606602
 10
-125.3961154405
 20
44.9455993191
 10
-125.4193082473
 20
44.950360652
 10
-125.4430593383
 20
44.9551017994
  0
LINE
  5
4BF
100
AcDbEntity
  8
0
100
AcDbLine
 62
7
  6
CONTINUOUS
 10
-125.3853117165
 20
44.9433215327
 11
-125.2128121811
 21
44.9033318105
  0
LINE
  5
4C0
100
AcDbEntity
  8
0
100
AcDbLine
 62
7
  6
CONTINUOUS
 10
-125.2525574536
 20
44.9132054575
 11
-125.2715342576
 21
44.9177785037
  0
LINE
  5
4C1
100
AcDbEntity
  8
0
100
AcDbLine
 62
7
  6
CONTINUOUS
 10
-125.2156228356
 20
44.9040480938
 11
-125.2525574536
 21
44.9132054575
  0
LWPOLYLINE
  5
4C2
100
AcDbEntity
  8
0
100
AcDbPolyline
 62
7
  6
CONTINUOUS
 90
4
 70
0
 10
-125.1413934494
 20
44.8846091251
 10
-125.1601054206
 20
44.8896404707
 10
-125.1787061284
 20
44.894554081
 10
-125.2156228356
 20
44.9040480938
  0
LINE
  5
4C3
100
AcDbEntity
  8
0
100
AcDbLine
 62
7
  6
CONTINUOUS
 10
-125.2128121811
 20
44.9033318105
 11
-125.0425253402
 21
44.8565326081
  0
LINE
  5
4C4
100
AcDbEntity
  8
0
100
AcDbLine
 62
7
  6
CONTINUOUS
 10
-125.0673480306
 20
44.8638238523
 11
-125.102998389
 21
44.8740063986
  0
LINE
  5
4C5
100
AcDbEntity
  8
0
100
AcDbLine
 62
7
  6
CONTINUOUS
 10
-125.0350857918
 20
44.8543268762
 11
-125.0673480306
 21
44.8638238523
  0
LINE
  5
4C6
100
AcDbEntity
  8
0
100
AcDbLine
 62
7
  6
CONTINUOUS
 10
-125.0048018833
 20
44.8451668301
 11
-125.0350857918
 21
44.8543268762
  0
LINE
  5
4C7
100
AcDbEntity
  8
0
100
AcDbLine
 62
7
  6
CONTINUOUS
 10
-124.9768055362
 20
44.8364860382
 11
-125.0048018833
 21
44.8451668301
  0
LINE
  5
4C8
100
AcDbEntity
  8
0
100
AcDbLine
 62
7
  6
CONTINUOUS
 10
-125.0425253402
 20
44.8565326081
 11
-124.8738963521
 21
44.8027982668
  0
LINE
  5
4C9
100
AcDbEntity
  8
0
100
AcDbLine
 62
7
  6
CONTINUOUS
 10
-124.9153598796
 20
44.8167113502
 11
-124.9387331563
 21
44.8243509451
  0
LINE
  5
4CA
100
AcDbEntity
  8
0
100
AcDbLine
 62
7
  6
CONTINUOUS
 10
-124.8929961162
 20
44.8092657889
 11
-124.9153598796
 21
44.8167113502
  0
LINE
  5
4CB
100
AcDbEntity
  8
0
100
AcDbLine
 62
7
  6
CONTINUOUS
 10
-124.8712838695
 20
44.801909289
 11
-124.8929961162
 21
44.8092657889
  0
LINE
  5
4CC
100
AcDbEntity
  8
0
100
AcDbLine
 62
7
  6
CONTINUOUS
 10
-124.8499720487
 20
44.7945653168
 11
-124.8712838695
 21
44.801909289
  0
LINE
  5
4CD
100
AcDbEntity
  8
0
100
AcDbLine
 62
7
  6
CONTINUOUS
 10
-124.828711008
 20
44.7871166298
 11
-124.8499720487
 21
44.7945653168
  0
LINE
  5
4CE
100
AcDbEntity
  8
0
100
AcDbLine
 62
7
  6
CONTINUOUS
 10
-124.8070085494
 20
44.7793867065
 11
-124.828711008
 21
44.7871166298
  0
LWPOLYLINE
  5
4CF
100
AcDbEntity
  8
0
100
AcDbPolyline
 62
7
  6
CONTINUOUS
 90
4
 70
0
 10
-124.87385398
 20
44.8027847606
 10
-124.7079960209
 20
44.7424727067
 10
-124.5447680608
 20
44.675581171
 10
-124.384346919
 20
44.6021775206
  0
LINE
  5
4D0
100
AcDbEntity
  8
0
100
AcDbLine
 62
7
  6
CONTINUOUS
 10
-124.7505855077
 20
44.7586863673
 11
-124.7734552569
 21
44.7671823818
  0
LINE
  5
4D1
100
AcDbEntity
  8
0
100
AcDbLine
 62
7
  6
CONTINUOUS
 10
-124.727459861
 20
44.7499478074
 11
-124.7505855077
 21
44.7586863673
  0
LINE
  5
4D2
100
AcDbEntity
  8
0
100
AcDbLine
 62
7
  6
CONTINUOUS
 10
-124.7041123442
 20
44.7409739844
 11
-124.727459861
 21
44.7499478074
  0
LINE
  5
4D3
100
AcDbEntity
  8
0
100
AcDbLine
 62
7
  6
CONTINUOUS
 10
-124.6806610923
 20
44.7318061023
 11
-124.7041123442
 21
44.7409739844
  0
LWPOLYLINE
  5
4D4
100
AcDbEntity
  8
0
100
AcDbPolyline
 62
7
  6
CONTINUOUS
 90
4
 70
0
 10
-123.442931525
 20
43.9885457398
 10
-123.3608463955
 20
43.9167768503
 10
-123.2318667474
 20
43.796395007
 10
-123.1123378951
 20
43.6756666257
  0
LWPOLYLINE
  5
4D5
100
AcDbEntity
  8
0
100
AcDbPolyline
 62
7
  6
CONTINUOUS
 90
5
 70
0
 10
-123.3097617991
 20
43.8702523775
 10
-123.3310470725
 20
43.8898164155
 10
-123.3523370815
 20
43.9091286659
 10
-123.3736380543
 20
43.9281990461
 10
-123.3947234114
 20
43.9468326197
  0
LWPOLYLINE
  5
4D6
100
AcDbEntity
  8
0
100
AcDbPolyline
 62
7
  6
CONTINUOUS
 90
6
 70
0
 10
-123.1868089632
 20
43.7519785418
 10
-123.2063521868
 20
43.7714010897
 10
-123.2263524045
 20
43.7910275906
 10
-123.2467921531
 20
43.8108288522
 10
-123.267498877
 20
43.8306293039
 10
-123.2884959707
 20
43.8504457876
  0
LINE
  5
4D7
100
AcDbEntity
  8
0
100
AcDbLine
 62
7
  6
CONTINUOUS
 10
-123.1310364331
 20
43.6951789166
 11
-123.1491089537
 21
43.7138110219
  0
LINE
  5
4D8
100
AcDbEntity
  8
0
100
AcDbLine
 62
7
  6
CONTINUOUS
 10
-123.1310364331
 20
43.6951789166
 11
-123.1078856668
 21
43.6709849272
  0
LWPOLYLINE
  5
4D9
100
AcDbEntity
  8
0
100
AcDbPolyline
 62
7
  6
CONTINUOUS
 90
4
 70
0
 10
-123.4438906509
 20
-42.9473934627
 10
-123.4233843845
 20
-42.9298095201
 10
-123.3987910366
 20
-42.9084298529
 10
-123.3727270289
 20
-42.8854186638
  0
LWPOLYLINE
  5
4DA
100
AcDbEntity
  8
0
100
AcDbPolyline
 62
7
  6
CONTINUOUS
 90
4
 70
0
 10
-123.7034736828
 20
-43.1522419316
 10
-123.6330125163
 20
-43.0997364349
 10
-123.4946168372
 20
-42.9899652061
 10
-123.4438906509
 20
-42.9473934627
  0
LINE
  5
4DB
100
AcDbEntity
  8
0
100
AcDbLine
 62
7
  6
CONTINUOUS
 10
-123.7274191797
 20
-43.1695908956
 11
-123.7034736828
 21
-43.1522419316
  0
LINE
  5
4DC
100
AcDbEntity
  8
0
100
AcDbLine
 62
7
  6
CONTINUOUS
 10
-123.7725555663
 20
-43.2016306856
 11
-123.7509206779
 21
-43.186380229
  0
LINE
  5
4DD
100
AcDbEntity
  8
0
100
AcDbLine
 62
7
  6
CONTINUOUS
 10
-123.7925840714
 20
-43.2155756258
 11
-123.7725555663
 21
-43.2016306856
  0
LINE
  5
4DE
100
AcDbEntity
  8
0
100
AcDbLine
 62
7
  6
CONTINUOUS
 10
-123.8110922411
 20
-43.2283157781
 11
-123.7925840714
 21
-43.2155756258
  0
LINE
  5
4DF
100
AcDbEntity
  8
0
100
AcDbLine
 62
7
  6
CONTINUOUS
 10
-123.828243275
 20
-43.2399976989
 11
-123.8110922411
 21
-43.2283157781
  0
LINE
  5
4E0
100
AcDbEntity
  8
0
100
AcDbLine
 62
7
  6
CONTINUOUS
 10
-123.8444612455
 20
-43.2509354172
 11
-123.828243275
 21
-43.2399976989
  0
LINE
  5
4E1
100
AcDbEntity
  8
0
100
AcDbLine
 62
7
  6
CONTINUOUS
 10
-123.8899587055
 20
-43.2810641861
 11
-123.8675821533
 21
-43.2663478949
  0
LINE
  5
4E2
100
AcDbEntity
  8
0
100
AcDbLine
 62
7
  6
CONTINUOUS
 10
-123.9120201827
 20
-43.2953830027
 11
-123.8899587055
 21
-43.2810641861
  0
LINE
  5
4E3
100
AcDbEntity
  8
0
100
AcDbLine
 62
7
  6
CONTINUOUS
 10
-123.9341801847
 20
-43.3095778032
 11
-123.9120201827
 21
-43.2953830027
  0
LINE
  5
4E4
100
AcDbEntity
  8
0
100
AcDbLine
 62
7
  6
CONTINUOUS
 10
-123.9568608396
 20
-43.3239132773
 11
-123.9341801847
 21
-43.3095778032
  0
LINE
  5
4E5
100
AcDbEntity
  8
0
100
AcDbLine
 62
7
  6
CONTINUOUS
 10
-123.9806042705
 20
-43.3387138963
 11
-123.9568608396
 21
-43.3239132773
  0
LINE
  5
4E6
100
AcDbEntity
  8
0
100
AcDbLine
 62
7
  6
CONTINUOUS
 10
-124.0325573193
 20
-43.3703739713
 11
-124.0148423412
 21
-43.3596892913
  0
LINE
  5
4E7
100
AcDbEntity
  8
0
100
AcDbLine
 62
7
  6
CONTINUOUS
 10
-124.0501189216
 20
-43.380854243
 11
-124.0325573193
 21
-43.3703739713
  0
LINE
  5
4E8
100
AcDbEntity
  8
0
100
AcDbLine
 62
7
  6
CONTINUOUS
 10
-124.0746324176
 20
-43.3952986739
 11
-124.0501189216
 21
-43.380854243
  0
LINE
  5
4E9
100
AcDbEntity
  8
0
100
AcDbLine
 62
7
  6
CONTINUOUS
 10
-124.0969165939
 20
-43.40824479
 11
-124.0746324176
 21
-43.3952986739
  0
LINE
  5
4EA
100
AcDbEntity
  8
0
100
AcDbLine
 62
7
  6
CONTINUOUS
 10
-124.1172434373
 20
-43.4199019727
 11
-124.0969165939
 21
-43.40824479
  0
LINE
  5
4EB
100
AcDbEntity
  8
0
100
AcDbLine
 62
7
  6
CONTINUOUS
 10
-124.1356483213
 20
-43.4303331613
 11
-124.1172434373
 21
-43.4199019727
  0
LINE
  5
4EC
100
AcDbEntity
  8
0
100
AcDbLine
 62
7
  6
CONTINUOUS
 10
-124.186866919
 20
-43.4587510391
 11
-124.1661741242
 21
-43.4473773763
  0
LINE
  5
4ED
100
AcDbEntity
  8
0
100
AcDbLine
 62
7
  6
CONTINUOUS
 10
-124.2055219807
 20
-43.4688810855
 11
-124.186866919
 21
-43.4587510391
  0
LINE
  5
4EE
100
AcDbEntity
  8
0
100
AcDbLine
 62
7
  6
CONTINUOUS
 10
-124.2234999502
 20
-43.4785334531
 11
-124.2055219807
 21
-43.4688810855
  0
LINE
  5
4EF
100
AcDbEntity
  8
0
100
AcDbLine
 62
7
  6
CONTINUOUS
 10
-124.2415942817
 20
-43.4881400752
 11
-124.2234999502
 21
-43.4785334531
  0
LINE
  5
4F0
100
AcDbEntity
  8
0
100
AcDbLine
 62
7
  6
CONTINUOUS
 10
-124.2605308362
 20
-43.4980784164
 11
-124.2415942817
 21
-43.4881400752
  0
LWPOLYLINE
  5
4F1
100
AcDbEntity
  8
0
100
AcDbPolyline
 62
7
  6
CONTINUOUS
 90
6
 70
0
 10
-124.2985748645
 20
-43.5176913273
 10
-124.2270383284
 20
-43.4804201955
 10
-124.0730487542
 20
-43.3943675629
 10
-123.9225691271
 20
-43.3021597093
 10
-123.7757836052
 20
-43.2038890381
 10
-123.7034736828
 20
-43.1522419316
  0
LINE
  5
4F2
100
AcDbEntity
  8
0
100
AcDbLine
 62
7
  6
CONTINUOUS
 10
-124.2985748645
 20
-43.5176913273
 11
-124.2816050402
 21
-43.509000866
  0
LINE
  5
4F3
100
AcDbEntity
  8
0
100
AcDbLine
 62
7
  6
CONTINUOUS
 10
-124.3843609713
 20
-43.5602144414
 11
-124.2985748645
 21
-43.5176913273
  0
LINE
  5
4F4
100
AcDbEntity
  8
0
100
AcDbLine
 62
7
  6
CONTINUOUS
 10
-124.4055011496
 20
-43.5703373831
 11
-124.3849671964
 21
-43.560506671
  0
LINE
  5
4F5
100
AcDbEntity
  8
0
100
AcDbLine
 62
7
  6
CONTINUOUS
 10
-124.4250619645
 20
-43.5795806443
 11
-124.4055011496
 21
-43.5703373831
  0
LINE
  5
4F6
100
AcDbEntity
  8
0
100
AcDbLine
 62
7
  6
CONTINUOUS
 10
-124.4446528113
 20
-43.5887201296
 11
-124.4250619645
 21
-43.5795806443
  0
LINE
  5
4F7
100
AcDbEntity
  8
0
100
AcDbLine
 62
7
  6
CONTINUOUS
 10
-124.5023868048
 20
-43.6149756489
 11
-124.4804375049
 21
-43.6051124013
  0
LINE
  5
4F8
100
AcDbEntity
  8
0
100
AcDbLine
 62
7
  6
CONTINUOUS
 10
-124.5201128285
 20
-43.6228358638
 11
-124.5023868048
 21
-43.6149756489
  0
LINE
  5
4F9
100
AcDbEntity
  8
0
100
AcDbLine
 62
7
  6
CONTINUOUS
 10
-124.5392188033
 20
-43.6312033787
 11
-124.5201128285
 21
-43.6228358638
  0
LINE
  5
4FA
100
AcDbEntity
  8
0
100
AcDbLine
 62
7
  6
CONTINUOUS
 10
-124.5599840761
 20
-43.6401752894
 11
-124.5392188033
 21
-43.6312033787
  0
LINE
  5
4FB
100
AcDbEntity
  8
0
100
AcDbLine
 62
7
  6
CONTINUOUS
 10
-124.5828362995
 20
-43.6499026496
 11
-124.5599840761
 21
-43.6401752894
  0
LINE
  5
4FC
100
AcDbEntity
  8
0
100
AcDbLine
 62
7
  6
CONTINUOUS
 10
-124.6084419089
 20
-43.6606212988
 11
-124.5828362995
 21
-43.6499026496
  0
LWPOLYLINE
  5
4FD
100
AcDbEntity
  8
0
100
AcDbPolyline
 62
7
  6
CONTINUOUS
 90
3
 70
0
 10
-124.6809872834
 20
-43.6899648314
 10
-124.669758833
 20
-43.6855212759
 10
-124.6479751675
 20
-43.6767984394
  0
LINE
  5
4FE
100
AcDbEntity
  8
0
100
AcDbLine
 62
7
  6
CONTINUOUS
 10
-124.6573027502
 20
44.722519882
 11
-124.6806610923
 21
44.7318061023
  0
LINE
  5
4FF
100
AcDbEntity
  8
0
100
AcDbLine
 62
7
  6
CONTINUOUS
 10
-124.6350000319
 20
44.7135083014
 11
-124.6573027502
 21
44.722519882
  0
LINE
  5
500
100
AcDbEntity
  8
0
100
AcDbLine
 62
7
  6
CONTINUOUS
 10
-124.5859230527
 20
44.6931747331
 11
-124.6043066455
 21
44.7008729818
  0
LINE
  5
501
100
AcDbEntity
  8
0
100
AcDbLine
 62
7
  6
CONTINUOUS
 10
-124.5613402842
 20
44.6827266996
 11
-124.5859230527
 21
44.6931747331
  0
LINE
  5
502
100
AcDbEntity
  8
0
100
AcDbLine
 62
7
  6
CONTINUOUS
 10
-124.5395439702
 20
44.6733147055
 11
-124.5613402842
 21
44.6827266996
  0
LINE
  5
503
100
AcDbEntity
  8
0
100
AcDbLine
 62
7
  6
CONTINUOUS
 10
-124.5197850613
 20
44.6646612266
 11
-124.5395439702
 21
44.6733147055
  0
LINE
  5
504
100
AcDbEntity
  8
0
100
AcDbLine
 62
7
  6
CONTINUOUS
 10
-124.5015692776
 20
44.6565807259
 11
-124.5197850613
 21
44.6646612266
  0
LINE
  5
505
100
AcDbEntity
  8
0
100
AcDbLine
 62
7
  6
CONTINUOUS
 10
-124.4790933522
 20
44.6464735332
 11
-124.5015692776
 21
44.6565807259
  0
LINE
  5
506
100
AcDbEntity
  8
0
100
AcDbLine
 62
7
  6
CONTINUOUS
 10
-124.4277468306
 20
44.6228099988
 11
-124.4477847155
 21
44.6321401872
  0
LINE
  5
507
100
AcDbEntity
  8
0
100
AcDbLine
 62
7
  6
CONTINUOUS
 10
-124.4077584183
 20
44.6133799223
 11
-124.4277468306
 21
44.6228099988
  0
LWPOLYLINE
  5
508
100
AcDbEntity
  8
0
100
AcDbPolyline
 62
7
  6
CONTINUOUS
 90
3
 70
0
 10
-124.384346919
 20
44.6021775206
 10
-124.3867649888
 20
44.6033424729
 10
-124.4077584183
 20
44.6133799223
  0
LINE
  5
509
100
AcDbEntity
  8
0
100
AcDbLine
 62
7
  6
CONTINUOUS
 10
-124.384346919
 20
44.6021775206
 11
-124.2985757023
 21
44.5596616085
  0
LINE
  5
50A
100
AcDbEntity
  8
0
100
AcDbLine
 62
7
  6
CONTINUOUS
 10
-124.2764578862
 20
44.5483163636
 11
-124.2985757023
 21
44.5596616085
  0
LWPOLYLINE
  5
50B
100
AcDbEntity
  8
0
100
AcDbPolyline
 62
7
  6
CONTINUOUS
 90
6
 70
0
 10
-124.2985757023
 20
44.5596616085
 10
-124.2270383284
 20
44.52239005
 10
-124.0730487542
 20
44.4363374174
 10
-123.9225691271
 20
44.3441295637
 10
-123.7757836052
 20
44.2458588926
 10
-123.7037072153
 20
44.1943821784
  0
LINE
  5
50C
100
AcDbEntity
  8
0
100
AcDbLine
 62
7
  6
CONTINUOUS
 10
-124.2291772581
 20
44.5235291492
 11
-124.2473920849
 21
44.5331652517
  0
LINE
  5
50D
100
AcDbEntity
  8
0
100
AcDbLine
 62
7
  6
CONTINUOUS
 10
-124.2111327804
 20
44.5138749289
 11
-124.2291772581
 21
44.5235291492
  0
LINE
  5
50E
100
AcDbEntity
  8
0
100
AcDbLine
 62
7
  6
CONTINUOUS
 10
-124.1926494974
 20
44.5038734275
 11
-124.2111327804
 21
44.5138749289
  0
LINE
  5
50F
100
AcDbEntity
  8
0
100
AcDbLine
 62
7
  6
CONTINUOUS
 10
-124.1730671725
 20
44.4931520404
 11
-124.1926494974
 21
44.5038734275
  0
LINE
  5
510
100
AcDbEntity
  8
0
100
AcDbLine
 62
7
  6
CONTINUOUS
 10
-124.1515197079
 20
44.4812046342
 11
-124.1730671725
 21
44.4931520404
  0
LINE
  5
511
100
AcDbEntity
  8
0
100
AcDbLine
 62
7
  6
CONTINUOUS
 10
-124.1144351513
 20
44.4602698813
 11
-124.1337492937
 21
44.4712321313
  0
LINE
  5
512
100
AcDbEntity
  8
0
100
AcDbLine
 62
7
  6
CONTINUOUS
 10
-124.093029586
 20
44.4479690461
 11
-124.1144351513
 21
44.4602698813
  0
LINE
  5
513
100
AcDbEntity
  8
0
100
AcDbLine
 62
7
  6
CONTINUOUS
 10
-124.0690127111
 20
44.4339760376
 11
-124.093029586
 21
44.4479690461
  0
LINE
  5
514
100
AcDbEntity
  8
0
100
AcDbLine
 62
7
  6
CONTINUOUS
 10
-124.0518653264
 20
44.4238602482
 11
-124.0690127111
 21
44.4339760376
  0
LINE
  5
515
100
AcDbEntity
  8
0
100
AcDbLine
 62
7
  6
CONTINUOUS
 10
-124.0345129428
 20
44.4135163823
 11
-124.0518653264
 21
44.4238602482
  0
LINE
  5
516
100
AcDbEntity
  8
0
100
AcDbLine
 62
7
  6
CONTINUOUS
 10
-124.0176096825
 20
44.4033357613
 11
-124.0345129428
 21
44.4135163823
  0
LINE
  5
517
100
AcDbEntity
  8
0
100
AcDbLine
 62
7
  6
CONTINUOUS
 10
-123.9581288532
 20
44.3666788761
 11
-123.978929481
 21
44.3796466357
  0
LINE
  5
518
100
AcDbEntity
  8
0
100
AcDbLine
 62
7
  6
CONTINUOUS
 10
-123.9382268107
 20
44.3541195909
 11
-123.9581288532
 21
44.3666788761
  0
LINE
  5
519
100
AcDbEntity
  8
0
100
AcDbLine
 62
7
  6
CONTINUOUS
 10
-123.9187830953
 20
44.3417047782
 11
-123.9382268107
 21
44.3541195909
  0
LINE
  5
51A
100
AcDbEntity
  8
0
100
AcDbLine
 62
7
  6
CONTINUOUS
 10
-123.8996332099
 20
44.3293363213
 11
-123.9187830953
 21
44.3417047782
  0
LINE
  5
51B
100
AcDbEntity
  8
0
100
AcDbLine
 62
7
  6
CONTINUOUS
 10
-123.8807681493
 20
44.3170133768
 11
-123.8996332099
 21
44.3293363213
  0
LINE
  5
51C
100
AcDbEntity
  8
0
100
AcDbLine
 62
7
  6
CONTINUOUS
 10
-123.8622348832
 20
44.3047720051
 11
-123.8807681493
 21
44.3170133768
  0
LINE
  5
51D
100
AcDbEntity
  8
0
100
AcDbLine
 62
7
  6
CONTINUOUS
 10
-123.8116074563
 20
44.2706382883
 11
-123.8309648576
 21
44.2838103904
  0
LINE
  5
51E
100
AcDbEntity
  8
0
100
AcDbLine
 62
7
  6
CONTINUOUS
 10
-123.7916084147
 20
44.2568700011
 11
-123.8116074563
 21
44.2706382883
  0
LINE
  5
51F
100
AcDbEntity
  8
0
100
AcDbLine
 62
7
  6
CONTINUOUS
 10
-123.7707360921
 20
44.242325506
 11
-123.7916084147
 21
44.2568700011
  0
LINE
  5
520
100
AcDbEntity
  8
0
100
AcDbLine
 62
7
  6
CONTINUOUS
 10
-123.7486175349
 20
44.2267150509
 11
-123.7707360921
 21
44.242325506
  0
LINE
  5
521
100
AcDbEntity
  8
0
100
AcDbLine
 62
7
  6
CONTINUOUS
 10
-123.7037072153
 20
44.1943821784
 11
-123.724579691
 21
44.209516347
  0
LWPOLYLINE
  5
522
100
AcDbEntity
  8
0
100
AcDbPolyline
 62
7
  6
CONTINUOUS
 90
4
 70
0
 10
-123.7037072153
 20
44.1943821784
 10
-123.6330125163
 20
44.1417062893
 10
-123.4946168372
 20
44.0319350605
 10
-123.442931525
 20
43.9885457399
  0
LINE
  5
523
100
AcDbEntity
  8
0
100
AcDbLine
 62
7
  6
CONTINUOUS
 10
-123.4155410506
 20
43.9649956832
 11
-123.442931525
 21
43.9885457399
  0
ARC
  5
524
100
AcDbEntity
  8
DRAFT
100
AcDbCircle
 62
7
  6
CONTINUOUS
 10
-0.1435686413
 20
2275.8812209232
 40
2320.360235996
100
AcDbArc
 50
267.9561426
 51
272.0438574
  0
ARC
  5
525
100
AcDbEntity
  8
DRAFT
100
AcDbCircle
 62
7
  6
CONTINUOUS
 10
-0.1435686413
 20
-2274.8392510688
 40
2320.360235996
100
AcDbArc
 50
87.9561426
 51
92.0438574
  0
ARC
  5
526
100
AcDbEntity
  8
DRAFT
100
AcDbCircle
 62
7
  6
CONTINUOUS
 10
-145.1435686413
 20
0.5209849272
 40
250.0
100
AcDbArc
 50
354.2379687704
 51
5.7620312296
  0
ARC
  5
527
100
AcDbEntity
  8
DRAFT
100
AcDbCircle
 62
7
  6
CONTINUOUS
 10
144.8564313587
 20
0.5209849272
 40
250.0
100
AcDbArc
 50
174.2379687704
 51
185.7620312296
  0
ARC
  5
528
100
AcDbEntity
  8
DRAFT
100
AcDbCircle
 62
7
  6
CONTINUOUS
 10
-78.6519236054
 20
75.9776186012
 40
119.0562085366
100
AcDbArc
 50
265.5458418448
 51
267.9561426
  0
ARC
  5
529
100
AcDbEntity
  8
DRAFT
100
AcDbCircle
 62
7
  6
CONTINUOUS
 10
78.3647863227
 20
75.9776186012
 40
119.0562085366
100
AcDbArc
 50
272.0438574
 51
274.4541581552
  0
ARC
  5
52A
100
AcDbEntity
  8
DRAFT
100
AcDbCircle
 62
7
  6
CONTINUOUS
 10
78.3647863227
 20
-74.9356487467
 40
119.0562085366
100
AcDbArc
 50
85.5458418448
 51
87.9561426
  0
ARC
  5
52B
100
AcDbEntity
  8
DRAFT
100
AcDbCircle
 62
7
  6
CONTINUOUS
 10
-78.6519236054
 20
-74.9356487467
 40
119.0562085366
100
AcDbArc
 50
92.0438574
 51
94.4541581552
  0
ARC
  5
52C
100
AcDbEntity
  8
DRAFT
100
AcDbCircle
 62
7
  6
CONTINUOUS
 10
-42.4390751318
 20
-18.378409663
 40
61.7533695723
100
AcDbArc
 50
185.7620312296
 51
189.5071556128
  0
ARC
  5
52D
100
AcDbEntity
  8
DRAFT
100
AcDbCircle
 62
7
  6
CONTINUOUS
 10
42.1519378491
 20
-18.378409663
 40
61.7533695723
100
AcDbArc
 50
350.4928443872
 51
354.2379687704
  0
ARC
  5
52E
100
AcDbEntity
  8
DRAFT
100
AcDbCircle
 62
7
  6
CONTINUOUS
 10
42.1519378491
 20
19.4203795175
 40
61.7533695723
100
AcDbArc
 50
5.7620312296
 51
9.5071556128
  0
ARC
  5
52F
100
AcDbEntity
  8
DRAFT
100
AcDbCircle
 62
7
  6
CONTINUOUS
 10
-42.4390751318
 20
19.4203795175
 40
61.7533695723
100
AcDbArc
 50
170.4928443872
 51
174.2379687704
  0
ARC
  5
530
100
AcDbEntity
  8
DRAFT
100
AcDbCircle
 62
7
  6
CONTINUOUS
 10
-86.5777563323
 20
-25.7703586586
 40
17.0
100
AcDbArc
 50
189.5071556128
 51
265.5458418448
  0
ARC
  5
531
100
AcDbEntity
  8
DRAFT
100
AcDbCircle
 62
7
  6
CONTINUOUS
 10
86.2906190496
 20
-25.7703586586
 40
17.0
100
AcDbArc
 50
274.4541581552
 51
350.4928443872
  0
ARC
  5
532
100
AcDbEntity
  8
DRAFT
100
AcDbCircle
 62
7
  6
CONTINUOUS
 10
86.2906190496
 20
26.8123285131
 40
17.0
100
AcDbArc
 50
9.5071556128
 51
85.5458418448
  0
ARC
  5
533
100
AcDbEntity
  8
DRAFT
100
AcDbCircle
 62
7
  6
CONTINUOUS
 10
-86.5777563323
 20
26.8123285131
 40
17.0
100
AcDbArc
 50
94.4541581552
 51
170.4928443872
  0
ARC
  5
534
100
AcDbEntity
  8
0
100
AcDbCircle
 62
7
  6
CONTINUOUS
 10
77.9064313587
 20
-21.1790150728
 40
0.8
100
AcDbArc
 50
269.9999999948
 51
360.0
  0
ARC
  5
535
100
AcDbEntity
  8
0
100
AcDbCircle
 62
7
  6
CONTINUOUS
 10
77.9064313587
 20
22.2209849272
 40
0.8
100
AcDbArc
 50
0.0
 51
90.0000000046
  0
ARC
  5
536
100
AcDbEntity
  8
0
100
AcDbCircle
 62
7
  6
CONTINUOUS
 10
-78.1935686413
 20
-21.1790150728
 40
0.8
100
AcDbArc
 50
179.9999999964
 51
270.0000000037
  0
ARC
  5
537
100
AcDbEntity
  8
0
100
AcDbCircle
 62
7
  6
CONTINUOUS
 10
-78.1935686413
 20
22.2209849272
 40
0.8
100
AcDbArc
 50
89.9999999963
 51
180.0000000036
  0
ARC
  5
538
100
AcDbEntity
  8
ASSI
100
AcDbCircle
 62
7
  6
CONTINUOUS
 10
22.8140766356
 20
16.8930857717
 40
154.5957284012
100
AcDbArc
 50
169.4799311847
 51
177.1940903297
  0
ARC
  5
539
100
AcDbEntity
  8
ASSI
100
AcDbCircle
 62
7
  6
CONTINUOUS
 10
22.8140766356
 20
16.8930857717
 40
154.5957284012
100
AcDbArc
 50
177.1980759373
 51
177.2039876478
  0
ARC
  5
53A
100
AcDbEntity
  8
ASSI
100
AcDbCircle
 62
7
  6
CONTINUOUS
 10
22.8140766356
 20
-15.8511159172
 40
154.5957284012
100
AcDbArc
 50
184.6398927282
 51
190.5200688241
  0
ARC
  5
53B
100
AcDbEntity
  8
ASSI
100
AcDbCircle
 62
7
  6
CONTINUOUS
 10
22.8140766356
 20
-15.8511159172
 40
154.5957284012
100
AcDbArc
 50
182.7960124133
 51
182.801909268
  0
ARC
  5
53C
100
AcDbEntity
  8
ASSI
100
AcDbCircle
 62
7
  6
CONTINUOUS
 10
22.8140766356
 20
-15.8511159172
 40
154.5957284012
100
AcDbArc
 50
182.8059096312
 51
183.5874052986
  0
ARC
  5
53D
100
AcDbEntity
  8
RACCORDO
100
AcDbCircle
 62
7
  6
CONTINUOUS
 10
-130.8971489867
 20
-23.3847416532
 40
0.7
100
AcDbArc
 50
145.0
 51
182.805910186
  0
ARC
  5
53E
100
AcDbEntity
  8
RACCORDO
100
AcDbCircle
 62
7
  6
CONTINUOUS
 10
-130.897149051
 20
24.4267115995
 40
0.7
100
AcDbArc
 50
177.1940897741
 51
215.0
  0
ARC
  5
53F
100
AcDbEntity
  8
RACCORDO
100
AcDbCircle
 62
7
  6
CONTINUOUS
 10
-128.8880973532
 20
45.0643869472
 40
0.3
100
AcDbArc
 50
93.0
 51
169.4799311653
  0
ARC
  5
540
100
AcDbEntity
  8
RACCORDO
100
AcDbCircle
 62
7
  6
CONTINUOUS
 10
-128.8880973532
 20
-44.0224170927
 40
0.3
100
AcDbArc
 50
190.5200688347
 51
267.0
  0
ENDSEC
  0
SECTION
  2
OBJECTS
  0
DICTIONARY
  5
C
100
AcDbDictionary
280
0
281
1
  3
ACAD_GROUP
350
D
  3
ACAD_MLINESTYLE
350
17
  3
ACAD_LAYOUT
350
1A
  3
ACAD_PLOTSETTINGS
350
19
  3
ACAD_PLOTSTYLENAME
350
E
  0
DICTIONARY
  5
D
102
{ACAD_REACTORS
330
C
102
}
100
AcDbDictionary
280
0
281
1
  0
ACDBDICTIONARYWDFLT
  5
E
102
{ACAD_REACTORS
330
C
102
}
100
AcDbDictionary
281
1
  3
Normal
350
F
100
AcDbDictionaryWithDefault
340
F
  0
DICTIONARY
  5
17
102
{ACAD_REACTORS
330
C
102
}
100
AcDbDictionary
280
0
281
1
  3
Standard
350
18
  0
DICTIONARY
  5
19
102
{ACAD_REACTORS
330
C
102
}
100
AcDbDictionary
281
1
  0
DICTIONARY
  5
1A
102
{ACAD_REACTORS
330
C
102
}
100
AcDbDictionary
281
1
  3
Model
350
541
  3
Layout1
350
542
  0
ACDBPLACEHOLDER
  5
F
102
{ACAD_REACTORS
330
E
102
}
  0
MLINESTYLE
  5
18
102
{ACAD_REACTORS
330
17
102
}
100
AcDbMlineStyle
  2
STANDARD
 70
0
  3

 62
256
 51
90.0
 52
90.0
 71
2
 49
0.5
 62
256
  6
BYLAYER
 49
-0.5
 62
256
  6
BYLAYER
  0
LAYOUT
  5
541
102
{ACAD_REACTORS
330
1A
102
}
100
AcDbPlotSettings
  1

  2
none_device
  4
ISO_A4_(297.00_x_210.00_MM)
  6

 40
0.0
 41
0.0
 42
0.0
 43
0.0
 44
297.0
 45
210.0
 46
0.0
 47
0.0
 48
0.0
 49
0.0
140
0.0
141
0.0
142
1.0
143
1.0
 70
1024
 72
1
 73
0
 74
0
  7

 75
0
147
1.0
148
0.0
149
0.0
100
AcDbLayout
  1
Model
 70
0
 71
0
 10
0.0
 20
0.0
 11
297.0
 21
210.0
 12
0.0
 22
0.0
 32
0.0
 14
0.0
 24
0.0
 34
0.0
 15
0.0
 25
0.0
 35
0.0
146
0.0
 13
0.0
 23
0.0
 33
0.0
 16
1.0
 26
0.0
 36
0.0
 17
0.0
 27
1.0
 37
0.0
 76
0
330
211
345
0
346
0
  0
LAYOUT
  5
542
102
{ACAD_REACTORS
330
1A
102
}
100
AcDbPlotSettings
  1

  2
none_device
  4
ISO_A4_(297.00_x_210.00_MM)
  6

 40
0.0
 41
0.0
 42
0.0
 43
0.0
 44
297.0
 45
210.0
 46
0.0
 47
0.0
 48
0.0
 49
0.0
140
0.0
141
0.0
142
1.0
143
1.0
 70
0
 72
1
 73
0
 74
0
  7

 75
0
147
1.0
148
0.0
149
0.0
100
AcDbLayout
  1
Layout1
 70
0
 71
1
 10
0.0
 20
0.0
 11
297.0
 21
210.0
 12
0.0
 22
0.0
 32
0.0
 14
0.0
 24
0.0
 34
0.0
 15
0.0
 25
0.0
 35
0.0
146
0.0
 13
0.0
 23
0.0
 33
0.0
 16
1.0
 26
0.0
 36
0.0
 17
0.0
 27
1.0
 37
0.0
 76
0
330
212
345
0
346
0
  0
ENDSEC
  0
EOF
