  0
SECTION
  2
HEADER
  9
$ACADVER
  1
AC1021
  9
$DWGCODEPAGE
  3
ANSI_1252
  9
$EXTMAX
 10
297.0
 20
210.0
 30
0.0
  9
$EXTMIN
 10
0.0
 20
0.0
 30
0.0
  9
$LIMMIN
 10
0.0
 20
0.0
  9
$LIMMAX
 10
297.0
 20
210.0
  9
$VIEWCTR
 10
148.5
 20
105.0
  9
$VIEWSIZE
 40
210.0
  9
$CLAYER
  8
0
  9
$LTSCALE
 40
16.335
  9
$CELTYPE
  6
BYLAYER
  9
$DIMSCALE
 40
1.0
  9
$DIMASZ
 40
3.0
  9
$DIMEXO
 40
1.85625
  9
$DIMDLI
 40
11.286
  9
$DIMEXE
 40
5.346
  9
$DIMCEN
 40
2.673
  9
$DIMLFAC
 40
1.0
  9
$DIMBLK
  1
_FILLED
  9
$DIMTXT
 40
3.0
  9
$DIMTOL
 70
1
  9
$DIMLIM
 70
0
  9
$DIMTFAC
 40
1.0
  9
$DIMTP
 40
0.01
  9
$DIMTM
 40
0.01
  9
$PDMODE
 70
3
  9
$PDSIZE
 40
3.0
  9
$HANDSEED
  5
4A8
  9
$TILEMODE
 70
1
  9
$MEASUREMENT
 70
1
  9
$INSUNITS
 70
4
  0
ENDSEC
  0
SECTION
  2
CLASSES
  0
CLASS
  1
ACDBDICTIONARYWDFLT
  2
AcDbDictionaryWithDefault
  3
AutoCAD 2000
 90
0
 91
1
280
0
281
0
  0
CLASS
  1
ACDBPLACEHOLDER
  2
AcDbPlaceHolder
  3
AutoCAD 2000
 90
0
 91
1
280
0
281
0
  0
CLASS
  1
LAYOUT
  2
AcDbLayout
  3
AutoCAD 2000
 90
0
 91
0
280
0
281
0
  0
ENDSEC
  0
SECTION
  2
TABLES
  0
TABLE
  2
VPORT
  5
8
100
AcDbSymbolTable
 70
2
  0
VPORT
  5
1F4
100
AcDbSymbolTableRecord
100
AcDbViewportTableRecord
  2
*ACTIVE
 70
0
 10
0.0
 20
0.0
 11
1.0
 21
1.0
 12
148.5
 22
105.0
 13
0.0
 23
0.0
 14
1.0
 24
1.0
 15
0.0
 25
0.0
 16
0.0
 26
0.0
 36
1.0
 17
0.0
 27
0.0
 37
0.0
 40
210.0
 41
1.4142857143
 42
50.0
 43
0.0
 44
0.0
 50
0.0
 51
0.0
 71
0
 72
100
 73
1
 74
1
 75
0
 76
0
 77
0
 78
0
  0
ENDTAB
  0
TABLE
  2
LTYPE
  5
5
100
AcDbSymbolTable
 70
6
  0
LTYPE
  5
14
100
AcDbSymbolTableRecord
100
AcDbLinetypeTableRecord
  2
BYBLOCK
 70
0
  3

 72
65
 73
0
 40
0.0
  0
LTYPE
  5
15
100
AcDbSymbolTableRecord
100
AcDbLinetypeTableRecord
  2
BYLAYER
 70
0
  3

 72
65
 73
0
 40
0.0
  0
LTYPE
  5
16
100
AcDbSymbolTableRecord
100
AcDbLinetypeTableRecord
  2
CONTINUOUS
 70
64
  3
Solid line
 72
65
 73
0
 40
0.0
  0
LTYPE
  5
1F5
100
AcDbSymbolTableRecord
100
AcDbLinetypeTableRecord
  2
CENTER
 70
64
  3
____ _ ____ _ ____ _ ____ _ ____ _ ____ _ ____
 72
65
 73
4
 40
0.6
 49
0.375
 74
0
 49
-0.075
 74
0
 49
0.075
 74
0
 49
-0.075
 74
0
  0
LTYPE
  5
1F6
100
AcDbSymbolTableRecord
100
AcDbLinetypeTableRecord
  2
HIDDEN
 70
64
  3
- - - - - - - - - - - - - - - - - - - -
 72
65
 73
2
 40
0.2
 49
0.1
 74
0
 49
-0.1
 74
0
  0
LTYPE
  5
1F7
100
AcDbSymbolTableRecord
100
AcDbLinetypeTableRecord
  2
PHANTOM
 70
64
  3
_____ _ _ _____ _ _ _____ _ _ _____
 72
65
 73
6
 40
0.8
 49
0.45
 74
0
 49
-0.05
 74
0
 49
0.1
 74
0
 49
-0.05
 74
0
 49
0.1
 74
0
 49
-0.05
 74
0
  0
LTYPE
  5
1F8
100
AcDbSymbolTableRecord
100
AcDbLinetypeTableRecord
  2
DOT
 70
64
  3
. . . . . . . . . . . . . . . . . . . .
 72
65
 73
2
 40
0.2
 49
0.1
 74
0
 49
-0.1
 74
0
  0
LTYPE
  5
1F9
100
AcDbSymbolTableRecord
100
AcDbLinetypeTableRecord
  2
DASHED
 70
64
  3
- - - - - - - - - - - - - - - - - - - -
 72
65
 73
2
 40
0.2
 49
0.1
 74
0
 49
-0.1
 74
0
  0
ENDTAB
  0
TABLE
  2
LAYER
  5
2
100
AcDbSymbolTable
 70
36
  0
LAYER
  5
10
100
AcDbSymbolTableRecord
100
AcDbLayerTableRecord
  2
0
 70
0
 62
7
  6
CONTINUOUS
370
-3
390
F
  0
LAYER
  5
1FA
100
AcDbSymbolTableRecord
100
AcDbLayerTableRecord
  2
DEFAULT_1
 70
0
 62
7
  6
CENTER
370
-3
390
F
  0
LAYER
  5
1FB
100
AcDbSymbolTableRecord
100
AcDbLayerTableRecord
  2
DEFAULT_2
 70
0
 62
7
  6
HIDDEN
370
-3
390
F
  0
LAYER
  5
1FC
100
AcDbSymbolTableRecord
100
AcDbLayerTableRecord
  2
DEFAULT_3
 70
0
 62
7
  6
PHANTOM
370
-3
390
F
  0
LAYER
  5
1FD
100
AcDbSymbolTableRecord
100
AcDbLayerTableRecord
  2
ASSI
 70
0
 62
7
  6
CONTINUOUS
370
-3
390
F
  0
LAYER
  5
1FE
100
AcDbSymbolTableRecord
100
AcDbLayerTableRecord
  2
COORDINATE
 70
0
 62
7
  6
CONTINUOUS
370
-3
390
F
  0
LAYER
  5
1FF
100
AcDbSymbolTableRecord
100
AcDbLayerTableRecord
  2
COPY_PUBLISH
 70
0
 62
7
  6
CONTINUOUS
370
-3
390
F
  0
LAYER
  5
200
100
AcDbSymbolTableRecord
100
AcDbLayerTableRecord
  2
COSMETIC
 70
0
 62
7
  6
CONTINUOUS
370
-3
390
F
  0
LAYER
  5
201
100
AcDbSymbolTableRecord
100
AcDbLayerTableRecord
  2
COSMETICI
 70
0
 62
7
  6
CONTINUOUS
370
-3
390
F
  0
LAYER
  5
202
100
AcDbSymbolTableRecord
100
AcDbLayerTableRecord
  2
CURVE
 70
0
 62
7
  6
CONTINUOUS
370
-3
390
F
  0
LAYER
  5
203
100
AcDbSymbolTableRecord
100
AcDbLayerTableRecord
  2
DRAFT
 70
0
 62
7
  6
CONTINUOUS
370
-3
390
F
  0
LAYER
  5
204
100
AcDbSymbolTableRecord
100
AcDbLayerTableRecord
  2
IMPORT_IGES
 70
0
 62
7
  6
CONTINUOUS
370
-3
390
F
  0
LAYER
  5
205
100
AcDbSymbolTableRecord
100
AcDbLayerTableRecord
  2
INTFCLR_377
 70
0
 62
7
  6
CONTINUOUS
370
-3
390
F
  0
LAYER
  5
206
100
AcDbSymbolTableRecord
100
AcDbLayerTableRecord
  2
INTFCLR_4497
 70
0
 62
7
  6
CONTINUOUS
370
-3
390
F
  0
LAYER
  5
207
100
AcDbSymbolTableRecord
100
AcDbLayerTableRecord
  2
INTFCLR_9765
 70
0
 62
7
  6
CONTINUOUS
370
-3
390
F
  0
LAYER
  5
208
100
AcDbSymbolTableRecord
100
AcDbLayerTableRecord
  2
INTF_1
 70
0
 62
7
  6
CONTINUOUS
370
-3
390
F
  0
LAYER
  5
209
100
AcDbSymbolTableRecord
100
AcDbLayerTableRecord
  2
INTF_2
 70
0
 62
7
  6
CONTINUOUS
370
-3
390
F
  0
LAYER
  5
20A
100
AcDbSymbolTableRecord
100
AcDbLayerTableRecord
  2
INTF_3
 70
0
 62
7
  6
CONTINUOUS
370
-3
390
F
  0
LAYER
  5
20B
100
AcDbSymbolTableRecord
100
AcDbLayerTableRecord
  2
INTF_7
 70
0
 62
7
  6
CONTINUOUS
370
-3
390
F
  0
LAYER
  5
20C
100
AcDbSymbolTableRecord
100
AcDbLayerTableRecord
  2
INTF_9
 70
0
 62
7
  6
CONTINUOUS
370
-3
390
F
  0
LAYER
  5
20D
100
AcDbSymbolTableRecord
100
AcDbLayerTableRecord
  2
NOTE
 70
0
 62
7
  6
CONTINUOUS
370
-3
390
F
  0
LAYER
  5
20E
100
AcDbSymbolTableRecord
100
AcDbLayerTableRecord
  2
PIANI
 70
0
 62
7
  6
CONTINUOUS
370
-3
390
F
  0
LAYER
  5
20F
100
AcDbSymbolTableRecord
100
AcDbLayerTableRecord
  2
PUNTI
 70
0
 62
7
  6
CONTINUOUS
370
-3
390
F
  0
LAYER
  5
210
100
AcDbSymbolTableRecord
100
AcDbLayerTableRecord
  2
RACCORDO
 70
0
 62
7
  6
CONTINUOUS
370
-3
390
F
  0
LAYER
  5
211
100
AcDbSymbolTableRecord
100
AcDbLayerTableRecord
  2
SIMBOLI
 70
0
 62
7
  6
CONTINUOUS
370
-3
390
F
  0
LAYER
  5
212
100
AcDbSymbolTableRecord
100
AcDbLayerTableRecord
  2
SMUSSO
 70
0
 62
7
  6
CONTINUOUS
370
-3
390
F
  0
LAYER
  5
213
100
AcDbSymbolTableRecord
100
AcDbLayerTableRecord
  2
SNAPLINE
 70
0
 62
7
  6
CONTINUOUS
370
-3
390
F
  0
LAYER
  5
214
100
AcDbSymbolTableRecord
100
AcDbLayerTableRecord
  2
SUPERFICI
 70
0
 62
7
  6
CONTINUOUS
370
-3
390
F
  0
LAYER
  5
215
100
AcDbSymbolTableRecord
100
AcDbLayerTableRecord
  2
TRASH
 70
0
 62
7
  6
CONTINUOUS
370
-3
390
F
  0
LAYER
  5
216
100
AcDbSymbolTableRecord
100
AcDbLayerTableRecord
  2
XSEC_DATUMS
 70
0
 62
7
  6
CONTINUOUS
370
-3
390
F
  0
ENDTAB
  0
TABLE
  2
STYLE
  5
3
100
AcDbSymbolTable
 70
1
  0
STYLE
  5
11
100
AcDbSymbolTableRecord
100
AcDbTextStyleTableRecord
  2
STANDARD
 70
0
 40
0.0
 41
0.8
 50
0.0
 71
0
 42
0.2
  3
txt
  4

  0
STYLE
  5
217
100
AcDbSymbolTableRecord
100
AcDbTextStyleTableRecord
  2
TEXTSTYLE_1
 70
0
 40
0.0
 41
0.8
 50
0.0
 71
0
 42
0.2
  3
gdt
  4

  0
ENDTAB
  0
TABLE
  2
VIEW
  5
6
100
AcDbSymbolTable
 70
0
  0
ENDTAB
  0
TABLE
  2
UCS
  5
7
100
AcDbSymbolTable
 70
0
  0
ENDTAB
  0
TABLE
  2
APPID
  5
9
100
AcDbSymbolTable
 70
1
  0
APPID
  5
218
100
AcDbSymbolTableRecord
100
AcDbRegAppTableRecord
  2
ACAD
 70
0
  0
ENDTAB
  0
TABLE
  2
BLOCK_RECORD
  5
1
100
AcDbSymbolTable
 70
0
  0
BLOCK_RECORD
  5
219
100
AcDbSymbolTableRecord
100
AcDbBlockTableRecord
  2
*Model_Space
  0
BLOCK_RECORD
  5
21A
100
AcDbSymbolTableRecord
100
AcDbBlockTableRecord
  2
*Paper_Space
  0
BLOCK_RECORD
  5
21B
100
AcDbSymbolTableRecord
100
AcDbBlockTableRecord
  2
_FILLED
  0
BLOCK_RECORD
  5
21C
100
AcDbSymbolTableRecord
100
AcDbBlockTableRecord
  2
*D0
  0
BLOCK_RECORD
  5
21D
100
AcDbSymbolTableRecord
100
AcDbBlockTableRecord
  2
*D1
  0
BLOCK_RECORD
  5
21E
100
AcDbSymbolTableRecord
100
AcDbBlockTableRecord
  2
*D2
  0
ENDTAB
  0
TABLE
  2
DIMSTYLE
  5
A
100
AcDbSymbolTable
 70
1
100
AcDbDimStyleTable
 71
0
  0
DIMSTYLE
105
21F
100
AcDbSymbolTableRecord
100
AcDbDimStyleTableRecord
  2
STANDARD
 70
0
  3

  4

 40
1.0
 41
3.0
 42
0.0625
 43
0.38
 44
0.18
 45
0.0
 46
0.0
 47
0.01
 48
0.01
140
3.0
141
0.09
142
0.0
143
25.4
144
1.0
145
0.0
146
1.0
147
0.09
 71
1.0
 72
0.0
 73
0
 74
0
 75
0
 76
0
 77
1
 78
8
170
0
171
2
172
0
173
0
174
0
175
0
176
0
177
0
178
0
270
2
271
2
272
2
273
2
274
2
275
0
280
0
281
0
282
0
283
1
284
8
285
0
286
0
287
3
288
0
340
11
341
21B
342
21B
343
21B
344
21B
  0
DIMSTYLE
105
220
100
AcDbSymbolTableRecord
100
AcDbDimStyleTableRecord
  2
DIMSTYLE_1
 70
0
  3

  4

 40
1.0
 41
3.0
 42
0.0625
 43
0.38
 44
0.18
 45
0.0
 46
0.0
 47
0.0
 48
0.0
140
3.0
141
0.09
142
0.0
143
25.4
144
1.0
145
0.0
146
1.0
147
0.09
 71
0.0
 72
0.0
 73
0
 74
0
 75
0
 76
0
 77
1
 78
8
170
0
171
2
172
0
173
0
174
0
175
0
176
0
177
0
178
0
270
2
271
2
272
2
273
2
274
2
275
0
280
0
281
0
282
0
283
1
284
8
285
0
286
0
287
3
288
0
340
11
341
21B
342
21B
343
21B
344
21B
  0
DIMSTYLE
105
221
100
AcDbSymbolTableRecord
100
AcDbDimStyleTableRecord
  2
DIMSTYLE_2
 70
0
  3

  4

 40
1.0
 41
3.0
 42
0.0625
 43
0.38
 44
0.18
 45
0.0
 46
0.0
 47
0.0
 48
0.0
140
3.0
141
0.09
142
0.0
143
25.4
144
1.0
145
0.0
146
1.0
147
0.09
 71
0.0
 72
0.0
 73
0
 74
0
 75
0
 76
0
 77
1
 78
8
170
0
171
2
172
0
173
0
174
0
175
0
176
0
177
0
178
0
270
2
271
1
272
1
273
2
274
2
275
0
280
0
281
0
282
0
283
1
284
8
285
0
286
0
287
3
288
0
340
11
341
21B
342
21B
343
21B
344
21B
  0
ENDTAB
  0
ENDSEC
  0
SECTION
  2
BLOCKS
  0
BLOCK
  5
20
100
AcDbEntity
  8
0
100
AcDbBlockBegin
  2
*Model_Space
 70
0
 10
0.0
 20
0.0
 30
0.0
  3
*Model_Space
  1

  0
ENDBLK
  5
21
100
AcDbEntity
  8
0
100
AcDbBlockEnd
  0
BLOCK
  5
1C
100
AcDbEntity
  8
0
100
AcDbBlockBegin
  2
*Paper_Space
 70
0
 10
0.0
 20
0.0
 30
0.0
  3
*Paper_Space
  1

  0
ENDBLK
  5
1D
100
AcDbEntity
  8
0
100
AcDbBlockEnd
  0
BLOCK
  5
222
100
AcDbEntity
  8
0
100
AcDbBlockBegin
  2
_FILLED
 70
64
 10
0.0
 20
0.0
  3
_FILLED
  1

  0
SOLID
  5
223
100
AcDbEntity
  8
0
  6
BYBLOCK
 62
0
100
AcDbTrace
 10
0.0
 20
0.0
 11
-1.0
 21
0.3166666667
 12
-1.0
 22
-0.3166666667
 13
-1.0
 23
-0.3166666667
  0
ENDBLK
  5
224
100
AcDbEntity
  8
0
  6
BYBLOCK
 62
0
100
AcDbBlockEnd
  0
BLOCK
  5
225
100
AcDbEntity
  8
0
100
AcDbBlockBegin
 62
7
  6
CONTINUOUS
  2
*D0
 70
65
 10
0.0
 20
0.0
  3
*D0
  1

  0
MTEXT
  5
226
100
AcDbEntity
  8
0
100
AcDbMText
 62
7
  6
CONTINUOUS
  7
STANDARD
 71
2
 72
1
 10
185.0081327602
 20
102.6960284128
 30
0.0
 11
0.0
 21
1.0
 31
0.0
 44
0.9
  1
82
 40
3.0
 41
4.7142857143
  0
LINE
  5
227
100
AcDbEntity
  8
0
100
AcDbLine
 62
7
  6
CONTINUOUS
 10
159.2581327602
 20
143.6960284128
 11
190.2581327602
 21
143.6960284128
  0
LINE
  5
228
100
AcDbEntity
  8
0
100
AcDbLine
 62
7
  6
CONTINUOUS
 10
159.2581327602
 20
61.6960284128
 11
190.2581327602
 21
61.6960284128
  0
LINE
  5
229
100
AcDbEntity
  8
0
100
AcDbLine
 62
7
  6
CONTINUOUS
 10
188.7581327602
 20
143.6960284128
 11
188.7581327602
 21
102.6960284128
  0
LINE
  5
22A
100
AcDbEntity
  8
0
100
AcDbLine
 62
7
  6
CONTINUOUS
 10
188.7581327602
 20
61.6960284128
 11
188.7581327602
 21
102.6960284128
  0
INSERT
  5
22B
100
AcDbEntity
  8
0
100
AcDbBlockReference
 62
7
  6
CONTINUOUS
  2
_FILLED
 10
188.7581327602
 20
143.6960284128
 41
3.0
 42
3.0
 43
3.0
 50
90.0
  0
INSERT
  5
22C
100
AcDbEntity
  8
0
100
AcDbBlockReference
 62
7
  6
CONTINUOUS
  2
_FILLED
 10
188.7581327602
 20
61.6960284128
 41
3.0
 42
3.0
 43
3.0
 50
270.0
  0
ENDBLK
  5
22D
100
AcDbEntity
  8
0
  6
BYBLOCK
 62
0
100
AcDbBlockEnd
  0
BLOCK
  5
22E
100
AcDbEntity
  8
0
100
AcDbBlockBegin
 62
7
  6
CONTINUOUS
  2
*D1
 70
65
 10
0.0
 20
0.0
  3
*D1
  1

  0
MTEXT
  5
22F
100
AcDbEntity
  8
0
100
AcDbMText
 62
7
  6
CONTINUOUS
  7
STANDARD
 71
2
 72
1
 10
158.7581327602
 20
164.4460284128
 30
0.0
 11
1.0
 21
0.0
 31
0.0
 44
0.9
  1
40
 40
3.0
 41
4.7142857143
  0
LINE
  5
230
100
AcDbEntity
  8
0
100
AcDbLine
 62
7
  6
CONTINUOUS
 10
178.7581327602
 20
103.1960284127
 11
178.7581327602
 21
162.1960284128
  0
LINE
  5
231
100
AcDbEntity
  8
0
100
AcDbLine
 62
7
  6
CONTINUOUS
 10
138.7581327602
 20
103.1960284128
 11
138.7581327602
 21
162.1960284128
  0
LINE
  5
232
100
AcDbEntity
  8
0
100
AcDbLine
 62
7
  6
CONTINUOUS
 10
178.7581327602
 20
160.6960284128
 11
158.7581327602
 21
160.6960284128
  0
LINE
  5
233
100
AcDbEntity
  8
0
100
AcDbLine
 62
7
  6
CONTINUOUS
 10
138.7581327602
 20
160.6960284128
 11
158.7581327602
 21
160.6960284128
  0
INSERT
  5
234
100
AcDbEntity
  8
0
100
AcDbBlockReference
 62
7
  6
CONTINUOUS
  2
_FILLED
 10
178.7581327602
 20
160.6960284128
 41
3.0
 42
3.0
 43
3.0
  0
INSERT
  5
235
100
AcDbEntity
  8
0
100
AcDbBlockReference
 62
7
  6
CONTINUOUS
  2
_FILLED
 10
138.7581327602
 20
160.6960284128
 41
3.0
 42
3.0
 43
3.0
 50
180.0
  0
ENDBLK
  5
236
100
AcDbEntity
  8
0
  6
BYBLOCK
 62
0
100
AcDbBlockEnd
  0
BLOCK
  5
237
100
AcDbEntity
  8
0
100
AcDbBlockBegin
 62
7
  6
CONTINUOUS
  2
*D2
 70
65
 10
0.0
 20
0.0
  3
*D2
  1

  0
MTEXT
  5
238
100
AcDbEntity
  8
0
100
AcDbMText
 62
7
  6
CONTINUOUS
  7
STANDARD
 71
2
 72
1
 10
119.2758934683
 20
164.4460284128
 30
0.0
 11
1.0
 21
0.0
 31
0.0
 44
0.9
  1
8,2
 40
3.0
 41
6.4285714286
  0
LINE
  5
239
100
AcDbEntity
  8
0
100
AcDbLine
 62
7
  6
CONTINUOUS
 10
123.3848941986
 20
129.5405331161
 11
123.3848941986
 21
162.1960284128
  0
LINE
  5
23A
100
AcDbEntity
  8
0
100
AcDbLine
 62
7
  6
CONTINUOUS
 10
115.166892738
 20
103.1960283573
 11
115.166892738
 21
162.1960284128
  0
LINE
  5
23B
100
AcDbEntity
  8
0
100
AcDbLine
 62
7
  6
CONTINUOUS
 10
123.3848941986
 20
160.6960284128
 11
127.3848941986
 21
160.6960284128
  0
LINE
  5
23C
100
AcDbEntity
  8
0
100
AcDbLine
 62
7
  6
CONTINUOUS
 10
127.3848941986
 20
160.6960284128
 11
119.2758934683
 21
160.6960284128
  0
LINE
  5
23D
100
AcDbEntity
  8
0
100
AcDbLine
 62
7
  6
CONTINUOUS
 10
115.166892738
 20
160.6960284128
 11
111.166892738
 21
160.6960284128
  0
LINE
  5
23E
100
AcDbEntity
  8
0
100
AcDbLine
 62
7
  6
CONTINUOUS
 10
111.166892738
 20
160.6960284128
 11
119.2758934683
 21
160.6960284128
  0
INSERT
  5
23F
100
AcDbEntity
  8
0
100
AcDbBlockReference
 62
7
  6
CONTINUOUS
  2
_FILLED
 10
123.3848941986
 20
160.6960284128
 41
3.0
 42
3.0
 43
3.0
 50
180.0
  0
INSERT
  5
240
100
AcDbEntity
  8
0
100
AcDbBlockReference
 62
7
  6
CONTINUOUS
  2
_FILLED
 10
115.166892738
 20
160.6960284128
 41
3.0
 42
3.0
 43
3.0
  0
ENDBLK
  5
241
100
AcDbEntity
  8
0
  6
BYBLOCK
 62
0
100
AcDbBlockEnd
  0
ENDSEC
  0
SECTION
  2
ENTITIES
  0
DIMENSION
  5
242
100
AcDbEntity
  8
0
100
AcDbDimension
 62
7
  6
CONTINUOUS
  2
*D0
 10
188.7581327602
 20
61.6960284128
 11
187.5643062839
 21
100.5887505628
 70
160
 71
2
 42
82.0
  3
DIMSTYLE_1
100
AcDbAlignedDimension
 13
159.2581327602
 23
143.6960284128
 14
159.2581327602
 24
61.6960284128
 50
270.0
100
AcDbRotatedDimension
  0
DIMENSION
  5
243
100
AcDbEntity
  8
0
100
AcDbDimension
 62
7
  6
CONTINUOUS
  2
*D1
 10
138.7581327602
 20
160.6960284128
 11
156.400989903
 21
162.9460284128
 70
160
 71
2
 42
40.0
  3
DIMSTYLE_1
100
AcDbAlignedDimension
 13
178.7581327602
 23
103.1960284127
 14
138.7581327602
 24
103.1960284128
 50
180.0
100
AcDbRotatedDimension
  0
DIMENSION
  5
244
100
AcDbEntity
  8
0
100
AcDbDimension
 62
7
  6
CONTINUOUS
  2
*D2
 10
115.166892738
 20
160.6960284128
 11
116.061607754
 21
162.9460284128
 70
160
 71
2
 42
8.2180014606
  3
DIMSTYLE_2
100
AcDbAlignedDimension
 13
123.3848941986
 23
129.5405331161
 14
115.166892738
 24
103.1960283573
 50
180.0
100
AcDbRotatedDimension
  0
LWPOLYLINE
  5
245
100
AcDbEntity
  8
RACCORDO
100
AcDbPolyline
 62
253
  6
CONTINUOUS
 90
31
 70
0
 10
147.4943513596
 20
142.295936373
 10
147.0977510002
 20
142.1645557453
 10
146.705873672
 20
142.0177201478
 10
146.3193330049
 20
141.8555753386
 10
145.9385001593
 20
141.6781799849
 10
145.5642293837
 20
141.4858227269
 10
145.1978119506
 20
141.2791141045
 10
144.8399378943
 20
141.0584699725
 10
144.4909934874
 20
140.8241553603
 10
144.1517364349
 20
140.5766972324
 10
143.8227843108
 20
140.3166162772
 10
143.5044645116
 20
140.0442438428
 10
143.1970738553
 20
139.7598590433
 10
142.900956513
 20
139.4637966314
 10
142.6166574351
 20
139.1566197271
 10
142.3447469117
 20
138.8389755711
 10
142.0857206837
 20
138.5115348497
 10
141.8397955589
 20
138.1746698645
 10
141.6071085596
 20
137.8285943784
 10
141.3879918388
 20
137.4738093645
 10
141.1827839217
 20
137.11087334
 10
140.9916659944
 20
136.7400656971
 10
140.8149319442
 20
136.3618892114
 10
140.6528947521
 20
135.9769459072
 10
140.5057792409
 20
135.5856613791
 10
140.3738372056
 20
135.1885692091
 10
140.2573263762
 20
134.7863024425
 10
140.1564652004
 20
134.3794469712
 10
140.0714510053
 20
133.9686082111
 10
140.0024576582
 20
133.5544103713
 10
139.9496343671
 20
133.1374809417
  0
LWPOLYLINE
  5
246
100
AcDbEntity
  8
RACCORDO
100
AcDbPolyline
 62
253
  6
CONTINUOUS
 90
31
 70
0
 10
147.5605604108
 20
142.0569094876
 10
147.1722242368
 20
141.9287048962
 10
146.7896879539
 20
141.785759142
 10
146.4129267963
 20
141.6280656628
 10
146.041085914
 20
141.4552377398
 10
145.674975211
 20
141.2676470532
 10
145.3170711152
 20
141.0664244449
 10
144.9675998915
 20
140.8515171792
 10
144.626304598
 20
140.6229614392
 10
144.2949429971
 20
140.3820223792
 10
143.9736974372
 20
140.1287338017
 10
143.662370571
 20
139.8630451944
 10
143.3621567854
 20
139.5860966383
 10
143.0730113179
 20
139.2977305036
 10
142.7949789907
 20
138.9980883076
 10
142.5293944524
 20
138.6887609086
 10
142.2764472847
 20
138.3698585485
 10
142.0359631879
 20
138.0412573806
 10
141.8087360048
 20
137.7041995684
 10
141.5947904443
 20
137.3586478983
 10
141.3941299335
 20
137.0046283541
 10
141.2075200918
 20
136.6434803111
 10
141.0349975942
 20
136.27513681
 10
140.8765652716
 20
135.899656616
 10
140.7329405012
 20
135.5185704528
 10
140.6041873534
 20
135.1317781044
 10
140.4902905228
 20
134.7393751593
 10
140.3918491846
 20
134.343189221
 10
140.3090807803
 20
133.943830004
 10
140.2418222781
 20
133.5406875768
 10
140.1901028788
 20
133.1337618512
  0
LWPOLYLINE
  5
247
100
AcDbEntity
  8
RACCORDO
100
AcDbPolyline
 62
253
  6
CONTINUOUS
 90
10
 70
0
 10
169.0862251401
 20
62.851424814
 10
169.1912216243
 20
62.8744552436
 10
169.2959780024
 20
62.8985295144
 10
169.4004838621
 20
62.9236450443
 10
169.504719977
 20
62.9497968613
 10
169.6086848808
 20
62.9769842859
 10
169.7123946388
 20
63.0052118068
 10
169.8158475098
 20
63.0344797595
 10
169.919024177
 20
63.0647834505
 10
170.0219141608
 20
63.0961204525
  0
LWPOLYLINE
  5
248
100
AcDbEntity
  8
RACCORDO
100
AcDbPolyline
 62
253
  6
CONTINUOUS
 90
10
 70
0
 10
169.0440020243
 20
63.0967797549
 10
169.1463152234
 20
63.1192155491
 10
169.2483781632
 20
63.1426642972
 10
169.3501911114
 20
63.1671260757
 10
169.4517590883
 20
63.1926019815
 10
169.5530775973
 20
63.2190910798
 10
169.6541326256
 20
63.2465904033
 10
169.7549196686
 20
63.2750990228
 10
169.8554437299
 20
63.3046180477
 10
169.9557050526
 20
63.3351475725
  0
LWPOLYLINE
  5
249
100
AcDbEntity
  8
RACCORDO
100
AcDbPolyline
 62
253
  6
CONTINUOUS
 90
22
 70
0
 10
164.1063025312
 20
62.1006790633
 10
164.345642779
 20
62.1225850945
 10
164.5847808567
 20
62.1458826991
 10
164.8237087679
 20
62.1705698413
 10
165.0624089491
 20
62.1966433488
 10
165.3008830415
 20
62.2241020748
 10
165.5391518254
 20
62.2529474612
 10
165.7772113815
 20
62.2831783291
 10
166.0150496741
 20
62.3147924418
 10
166.2526752329
 20
62.3477903834
 10
166.4900800811
 20
62.3821706013
 10
166.7272562462
 20
62.4179314933
 10
166.9642121996
 20
62.4550740815
 10
167.2009399665
 20
62.4935969683
 10
167.437431547
 20
62.5334987018
 10
167.6736952958
 20
62.5747807315
 10
167.9097231278
 20
62.617441794
 10
168.1455071031
 20
62.6614806016
 10
168.381055701
 20
62.7068990759
 10
168.6163663556
 20
62.7536972374
 10
168.8514255171
 20
62.8018728818
 10
169.08622514
 20
62.8514248144
  0
LWPOLYLINE
  5
24A
100
AcDbEntity
  8
RACCORDO
100
AcDbPolyline
 62
253
  6
CONTINUOUS
 90
22
 70
0
 10
164.0905339858
 20
62.3501062646
 10
164.3285715315
 20
62.3718924352
 10
164.566403906
 20
62.3950594797
 10
164.8040315707
 20
62.4196075045
 10
165.0414580415
 20
62.4455379134
 10
165.2786807109
 20
62.4728495342
 10
165.515690845
 20
62.5015386185
 10
165.7524887211
 20
62.5316050525
 10
165.9890749333
 20
62.5630492172
 10
166.2254412111
 20
62.5958681144
 10
166.4615879704
 20
62.6300616626
 10
166.6975156264
 20
62.6656302453
 10
166.9332158952
 20
62.7025715704
 10
167.1686891928
 20
62.7408855772
 10
167.4039358901
 20
62.7805726623
 10
167.6389476241
 20
62.8216312284
 10
167.8737249875
 20
62.8640612728
 10
168.1082681264
 20
62.9078631671
 10
168.342567996
 20
62.953035884
 10
168.5766218108
 20
62.9995792145
 10
168.8104330437
 20
63.0474937686
 10
169.0440020243
 20
63.0967797549
  0
LWPOLYLINE
  5
24B
100
AcDbEntity
  8
RACCORDO
100
AcDbPolyline
 62
253
  6
CONTINUOUS
 90
10
 70
0
 10
153.4099444997
 20
62.1006806627
 10
154.5961317398
 20
62.0073338313
 10
155.7839954112
 20
61.9372845843
 10
156.9730841632
 20
61.8905644338
 10
158.1630094791
 20
61.8671956442
 10
159.3532554582
 20
61.8671956387
 10
160.5431789776
 20
61.8905643647
 10
161.7322641407
 20
61.9372842923
 10
162.9201224394
 20
62.0073330497
 10
164.1063025353
 20
62.1006790182
  0
LWPOLYLINE
  5
24C
100
AcDbEntity
  8
RACCORDO
100
AcDbPolyline
 62
253
  6
CONTINUOUS
 90
10
 70
0
 10
153.4257315345
 20
62.3501062646
 10
154.6091885864
 20
62.2569995624
 10
155.793391724
 20
62.1871760382
 10
156.9783552416
 20
62.1406302314
 10
158.164629226
 20
62.1173586496
 10
159.3516946244
 20
62.1173592988
 10
160.5379627763
 20
62.1406316921
 10
161.7229146272
 20
62.187177499
 10
162.9071002648
 20
62.2570005363
 10
164.0905339858
 20
62.3501062646
  0
LWPOLYLINE
  5
24D
100
AcDbEntity
  8
RACCORDO
100
AcDbPolyline
 62
253
  6
CONTINUOUS
 90
22
 70
0
 10
148.4300404006
 20
62.8514248101
 10
148.6648468952
 20
62.8018714482
 10
148.8999123788
 20
62.7536945693
 10
149.135228803
 20
62.7068953581
 10
149.3707826878
 20
62.6614759951
 10
149.606571393
 20
62.6174364649
 10
149.8426031774
 20
62.5747748746
 10
150.078870017
 20
62.5334925123
 10
150.3153639052
 20
62.4935906125
 10
150.5520932206
 20
62.455067708
 10
150.7890499698
 20
62.4179252359
 10
151.0262261672
 20
62.3821645818
 10
151.2636302827
 20
62.3477847105
 10
151.501254351
 20
62.3147872093
 10
151.7390903846
 20
62.2831736188
 10
151.9771468856
 20
62.2529433447
 10
152.2154124175
 20
62.2240985389
 10
152.4538824598
 20
62.1966404443
 10
152.6925759609
 20
62.1705677999
 10
152.9314939471
 20
62.1458817675
 10
153.170619461
 20
62.1225854043
 10
153.409944503
 20
62.1006806998
  0
LWPOLYLINE
  5
24E
100
AcDbEntity
  8
RACCORDO
100
AcDbPolyline
 62
253
  6
CONTINUOUS
 90
22
 70
0
 10
148.472263496
 20
63.0967797549
 10
148.7058407365
 20
63.0474920783
 10
148.939659351
 20
62.9995760789
 10
149.1737196691
 20
62.953031548
 10
149.4080251287
 20
62.9078578971
 10
149.6425729793
 20
62.8640553136
 10
149.8773542814
 20
62.8216247607
 10
150.112369224
 20
62.7805658582
 10
150.3476183569
 20
62.7408786172
 10
150.5830932937
 20
62.702564596
 10
150.8187943996
 20
62.6656233982
 10
151.0547220963
 20
62.6300550843
 10
151.2908680938
 20
62.5958619046
 10
151.5272328012
 20
62.5630434767
 10
151.7638166404
 20
62.5315998813
 10
152.0006113524
 20
62.5015340718
 10
152.237617576
 20
62.4728456625
 10
152.4748355438
 20
62.445534772
 10
152.7122563995
 20
62.4196051185
 10
152.9498774946
 20
62.3950578639
 10
153.1877023859
 20
62.3718916148
 10
153.4257315345
 20
62.3501062646
  0
LWPOLYLINE
  5
24F
100
AcDbEntity
  8
RACCORDO
100
AcDbPolyline
 62
253
  6
CONTINUOUS
 90
10
 70
0
 10
147.4943513596
 20
63.0961204525
 10
147.5972456183
 20
63.0647821722
 10
147.7004253537
 20
63.0344776428
 10
147.8038800749
 20
63.0052092554
 10
147.9075902395
 20
62.9769817242
 10
148.0115543097
 20
62.9497946154
 10
148.1157889884
 20
62.9236432439
 10
148.2202930216
 20
62.8985282205
 10
148.3250469642
 20
62.8744545543
 10
148.4300404005
 20
62.8514248097
  0
LWPOLYLINE
  5
250
100
AcDbEntity
  8
RACCORDO
100
AcDbPolyline
 62
253
  6
CONTINUOUS
 90
10
 70
0
 10
147.5605606782
 20
63.3351475107
 10
147.660827453
 20
63.304616429
 10
147.761355697
 20
63.2750962465
 10
147.8621456533
 20
63.2465868683
 10
147.9632024581
 20
63.2190871959
 10
148.0645214742
 20
63.1925981477
 10
148.1660882909
 20
63.1671226586
 10
148.2678982791
 20
63.1426616527
 10
148.3699565915
 20
63.1192140436
 10
148.472263496
 20
63.0967797549
  0
LWPOLYLINE
  5
251
100
AcDbEntity
  8
RACCORDO
100
AcDbPolyline
 62
253
  6
CONTINUOUS
 90
13
 70
0
 10
140.1901028812
 20
72.2582949755
 10
140.1583907968
 20
72.2555622962
 10
140.1277493296
 20
72.2532132112
 10
140.0985469825
 20
72.2512759711
 10
140.0711349514
 20
72.2497738739
 10
140.0458429013
 20
72.2487249841
 10
140.0229750015
 20
72.248141916
 10
140.0028062679
 20
72.2480316818
 10
139.9855792557
 20
72.2483956072
 10
139.9715011416
 20
72.2492293154
 10
139.9607412332
 20
72.2505227802
 10
139.9534289321
 20
72.2522604458
 10
139.9496521783
 20
72.2544214147
  0
LINE
  5
252
100
AcDbEntity
  8
0
100
AcDbLine
 62
7
  6
CONTINUOUS
 10
154.1920257602
 20
73.8182274128
 11
154.7070357602
 21
73.8182274128
  0
LINE
  5
253
100
AcDbEntity
  8
0
100
AcDbLine
 62
7
  6
CONTINUOUS
 10
155.8238477602
 20
73.8182274128
 11
156.4082557602
 21
73.8182274128
  0
LINE
  5
254
100
AcDbEntity
  8
0
100
AcDbLine
 62
7
  6
CONTINUOUS
 10
156.7228607602
 20
73.8182274128
 11
157.2819497602
 21
73.8182274128
  0
LINE
  5
255
100
AcDbEntity
  8
0
100
AcDbLine
 62
7
  6
CONTINUOUS
 10
158.0936457602
 20
73.8182274128
 11
158.1756087602
 21
73.8182274128
  0
LINE
  5
256
100
AcDbEntity
  8
0
100
AcDbLine
 62
7
  6
CONTINUOUS
 10
158.9905387602
 20
73.8182274128
 11
159.5622447602
 21
73.8182274128
  0
LINE
  5
257
100
AcDbEntity
  8
0
100
AcDbLine
 62
7
  6
CONTINUOUS
 10
159.6540127602
 20
73.8182274128
 11
160.2320797602
 21
73.8182274128
  0
LINE
  5
258
100
AcDbEntity
  8
0
100
AcDbLine
 62
7
  6
CONTINUOUS
 10
161.3405987602
 20
73.8182274128
 11
161.9565407602
 21
73.8182274128
  0
LINE
  5
259
100
AcDbEntity
  8
0
100
AcDbLine
 62
7
  6
CONTINUOUS
 10
162.1281515625
 20
73.8182270584
 11
162.710208105
 21
73.8182270584
  0
LINE
  5
25A
100
AcDbEntity
  8
0
100
AcDbLine
 62
7
  6
CONTINUOUS
 10
163.605148382
 20
73.8182270584
 11
164.1672809721
 21
73.8182270584
  0
LWPOLYLINE
  5
25B
100
AcDbEntity
  8
RACCORDO
100
AcDbPolyline
 62
253
  6
CONTINUOUS
 90
13
 70
0
 10
177.3261626416
 20
72.2582949742
 10
177.3578748355
 20
72.2555622748
 10
177.3885164206
 20
72.2532131704
 10
177.4177188906
 20
72.251275912
 10
177.4451310464
 20
72.249773798
 10
177.4704232202
 20
72.2487248931
 10
177.4932912395
 20
72.2481418119
 10
177.5134600857
 20
72.2480315666
 10
177.5306872012
 20
72.2483954833
 10
177.5447654068
 20
72.2492291852
 10
177.5555253933
 20
72.250522646
 10
177.5628377573
 20
72.2522603101
 10
177.5666145577
 20
72.2544212798
  0
LWPOLYLINE
  5
25C
100
AcDbEntity
  8
0
100
AcDbPolyline
 62
7
  6
CONTINUOUS
 90
6
 70
0
 10
163.6306359251
 20
75.1416477847
 10
163.6425399404
 20
75.144254542
 10
163.6543485268
 20
75.1481192626
 10
163.6660617049
 20
75.153241954
 10
163.6776599159
 20
75.1598500411
 10
163.6891627571
 20
75.1677161235
  0
LWPOLYLINE
  5
25D
100
AcDbEntity
  8
0
100
AcDbPolyline
 62
7
  6
CONTINUOUS
 90
10
 70
0
 10
162.6908300143
 20
76.1409736168
 10
162.7427115047
 20
76.1495823271
 10
162.7942902076
 20
76.1564990284
 10
162.8455660007
 20
76.161723704
 10
162.8964717885
 20
76.1652594656
 10
162.9470744245
 20
76.1671031803
 10
162.9975747045
 20
76.1672454708
 10
163.0480394716
 20
76.1656832125
 10
163.0984016231
 20
76.1624195335
 10
163.1486610279
 20
76.1574544416
  0
LINE
  5
25E
100
AcDbEntity
  8
RACCORDO
100
AcDbLine
 62
253
  6
CONTINUOUS
 10
139.7867870933
 20
72.2363512273
 11
139.9496365518
 21
72.2545555252
  0
LINE
  5
25F
100
AcDbEntity
  8
RACCORDO
100
AcDbLine
 62
253
  6
CONTINUOUS
 10
139.457819739
 20
76.2536870464
 11
139.6361523258
 21
76.2631349667
  0
LWPOLYLINE
  5
260
100
AcDbEntity
  8
RACCORDO
100
AcDbPolyline
 62
253
  6
CONTINUOUS
 90
13
 70
0
 10
139.8767173347
 20
76.2578071745
 10
139.8448519778
 20
76.2567393496
 10
139.8140775519
 20
76.2559396525
 10
139.784765149
 20
76.2554177262
 10
139.7572682318
 20
76.2551798643
 10
139.7319183707
 20
76.2552289351
 10
139.709021246
 20
76.2555643468
 10
139.6888529619
 20
76.256182055
 10
139.6716567168
 20
76.257074611
 10
139.657639871
 20
76.2582312519
 10
139.646971446
 20
76.2596380305
 10
139.6397800867
 20
76.2612779831
 10
139.6361525098
 20
76.2631313345
  0
LINE
  5
261
100
AcDbEntity
  8
0
100
AcDbLine
 62
7
  6
CONTINUOUS
 10
160.3933397602
 20
74.3771474128
 11
161.1892067602
 21
74.3771474128
  0
LINE
  5
262
100
AcDbEntity
  8
0
100
AcDbLine
 62
7
  6
CONTINUOUS
 10
161.0724127602
 20
74.8096374128
 11
160.5128837602
 21
74.8096374128
  0
LINE
  5
263
100
AcDbEntity
  8
0
100
AcDbLine
 62
7
  6
CONTINUOUS
 10
162.710208105
 20
74.913876488
 11
163.0235537225
 21
74.913876488
  0
LINE
  5
264
100
AcDbEntity
  8
0
100
AcDbLine
 62
7
  6
CONTINUOUS
 10
163.0248134033
 20
75.3724003262
 11
162.6908300143
 21
75.3724003262
  0
LINE
  5
265
100
AcDbEntity
  8
0
100
AcDbLine
 62
7
  6
CONTINUOUS
 10
161.0975227602
 20
76.6179304128
 11
160.5321777602
 21
76.6179304128
  0
LINE
  5
266
100
AcDbEntity
  8
0
100
AcDbLine
 62
7
  6
CONTINUOUS
 10
159.3004407602
 20
76.6179304128
 11
158.7222267602
 21
76.6179304128
  0
LINE
  5
267
100
AcDbEntity
  8
0
100
AcDbLine
 62
7
  6
CONTINUOUS
 10
157.5595827602
 20
76.6179304128
 11
156.9756577602
 21
76.6179304128
  0
LINE
  5
268
100
AcDbEntity
  8
0
100
AcDbLine
 62
7
  6
CONTINUOUS
 10
155.6069727602
 20
76.6179304128
 11
155.0229637602
 21
76.6179304128
  0
LINE
  5
269
100
AcDbEntity
  8
0
100
AcDbLine
 62
7
  6
CONTINUOUS
 10
153.9393127602
 20
76.6179304128
 11
153.3044647602
 21
76.6179304128
  0
LINE
  5
26A
100
AcDbEntity
  8
0
100
AcDbLine
 62
7
  6
CONTINUOUS
 10
156.4082557602
 20
76.6180984128
 11
155.8238477602
 21
76.6180984128
  0
LWPOLYLINE
  5
26B
100
AcDbEntity
  8
0
100
AcDbPolyline
 62
7
  6
CONTINUOUS
 90
22
 70
0
 10
163.0235537225
 20
74.913876488
 10
163.0463820514
 20
74.9131192118
 10
163.0687114564
 20
74.9109702223
 10
163.0905418928
 20
74.9074295245
 10
163.111999185
 20
74.9024557343
 10
163.1329574193
 20
74.8960902548
 10
163.1530389587
 20
74.8884572745
 10
163.1721377422
 20
74.8795016917
 10
163.1903597811
 20
74.8692786422
 10
163.2076455759
 20
74.8580776689
 10
163.2239360606
 20
74.8459121523
 10
163.2392902892
 20
74.8327687484
 10
163.2538259617
 20
74.8188969062
 10
163.2675687579
 20
74.8043183809
 10
163.2804930028
 20
74.7890114504
 10
163.2926393749
 20
74.7731603393
 10
163.3040138693
 20
74.7568062299
 10
163.3146105113
 20
74.7399079677
 10
163.3244520307
 20
74.7225262669
 10
163.3335460132
 20
74.7046813743
 10
163.3418848998
 20
74.6863530708
 10
163.3494687047
 20
74.6675413711
  0
LWPOLYLINE
  5
26C
100
AcDbEntity
  8
RACCORDO
100
AcDbPolyline
 62
253
  6
CONTINUOUS
 90
13
 70
0
 10
177.6395481856
 20
76.2578071745
 10
177.6714135427
 20
76.2567393496
 10
177.702187969
 20
76.2559396525
 10
177.7315003722
 20
76.2554177261
 10
177.7589972898
 20
76.2551798642
 10
177.7843471513
 20
76.255228935
 10
177.8072442763
 20
76.2555643467
 10
177.8274125608
 20
76.2561820548
 10
177.8446088063
 20
76.2570746108
 10
177.8586256524
 20
76.2582312517
 10
177.8692940776
 20
76.2596380303
 10
177.8764854372
 20
76.2612779829
 10
177.8801130143
 20
76.2631313343
  0
LINE
  5
26D
100
AcDbEntity
  8
RACCORDO
100
AcDbLine
 62
253
  6
CONTINUOUS
 10
178.0584457814
 20
76.2536870464
 11
177.8801132368
 21
76.2631357888
  0
LINE
  5
26E
100
AcDbEntity
  8
RACCORDO
100
AcDbLine
 62
253
  6
CONTINUOUS
 10
177.7294784271
 20
72.2363512273
 11
177.5666310995
 21
72.2545758898
  0
LWPOLYLINE
  5
26F
100
AcDbEntity
  8
0
100
AcDbPolyline
 62
7
  6
CONTINUOUS
 90
25
 70
0
 10
163.1486610279
 20
76.1574544416
 10
163.1715340904
 20
76.1540909884
 10
163.1939185113
 20
76.1495766446
 10
163.2158142591
 20
76.1439114176
 10
163.237272126
 20
76.1370763178
 10
163.2582412577
 20
76.1290903554
 10
163.2785691593
 20
76.12001054
 10
163.2982826637
 20
76.1098402948
 10
163.3173548933
 20
76.0985762269
 10
163.3355528026
 20
76.0862651228
 10
163.3528699178
 20
76.0728834904
 10
163.3693126922
 20
76.0584548609
 10
163.3846674927
 20
76.0430965562
 10
163.3988787108
 20
76.0267678152
 10
163.4120019663
 20
76.0095094424
 10
163.4239904909
 20
75.9915611009
 10
163.4348424868
 20
75.9729267986
 10
163.4445597895
 20
75.9536025648
 10
163.4531010994
 20
75.9338160829
 10
163.4604819644
 20
75.9135829904
 10
163.4666868951
 20
75.8928876774
 10
163.4716280522
 20
75.871910945
 10
163.4752761843
 20
75.8507130643
 10
163.4776606195
 20
75.8292337813
 10
163.4787813957
 20
75.8074731054
  0
LWPOLYLINE
  5
270
100
AcDbEntity
  8
RACCORDO
100
AcDbPolyline
 62
253
  6
CONTINUOUS
 90
10
 70
0
 10
139.9496344208
 20
133.1374809357
 10
139.9035859728
 20
132.6931480443
 10
139.860336717
 20
132.2485071184
 10
139.8198889307
 20
131.8035755037
 10
139.7822445225
 20
131.3583681204
 10
139.7474058531
 20
130.9129047893
 10
139.7153755789
 20
130.4672102477
 10
139.6861556296
 20
130.0213043693
 10
139.6597473647
 20
129.5752021483
 10
139.6152334056
 20
128.7049729852
  0
LWPOLYLINE
  5
271
100
AcDbEntity
  8
RACCORDO
100
AcDbPolyline
 62
253
  6
CONTINUOUS
 90
10
 70
0
 10
140.1901028788
 20
133.1337618512
 10
140.1440653428
 20
132.6903587881
 10
140.1008205879
 20
132.2466915356
 10
140.0603752979
 20
131.8027638896
 10
140.0227401651
 20
131.3585683249
 10
139.9879170982
 20
130.9141199783
 10
139.9558991384
 20
130.4694566779
 10
139.9266875571
 20
130.0245936153
 10
139.9002919399
 20
129.5795233176
 10
139.8767173347
 20
129.134249651
  0
LWPOLYLINE
  5
272
100
AcDbEntity
  8
0
100
AcDbPolyline
 62
253
  6
CONTINUOUS
 90
10
 70
0
 10
147.2342139217
 20
125.3108014494
 10
147.2515774918
 20
125.3306250116
 10
147.2700044506
 20
125.350686807
 10
147.2894948207
 20
125.3709868311
 10
147.3100117354
 20
125.3915731022
 10
147.3315921124
 20
125.4123975917
 10
147.3543466599
 20
125.4333162269
 10
147.3783123102
 20
125.4542809834
 10
147.4034522129
 20
125.4753398818
 10
147.4297664132
 20
125.4964929199
  0
LWPOLYLINE
  5
273
100
AcDbEntity
  8
0
100
AcDbPolyline
 62
253
  6
CONTINUOUS
 90
10
 70
0
 10
147.6523390006
 20
124.9620224814
 10
147.6632950733
 20
124.9745124523
 10
147.6748786782
 20
124.9872129979
 10
147.6871106783
 20
125.0000961857
 10
147.7000085047
 20
125.0131289123
 10
147.7135955602
 20
125.0262833822
 10
147.7279018477
 20
125.0395363514
 10
147.7429508142
 20
125.052855308
 10
147.7587584608
 20
125.0661991413
 10
147.7753432365
 20
125.0795281385
  0
LWPOLYLINE
  5
274
100
AcDbEntity
  8
0
100
AcDbPolyline
 62
253
  6
CONTINUOUS
 90
13
 70
0
 10
147.4297664132
 20
125.4964929199
 10
147.4905841014
 20
125.5415300746
 10
147.5537953444
 20
125.5830558634
 10
147.6194002479
 20
125.6210704198
 10
147.6878265249
 20
125.6557742731
 10
147.7586468281
 20
125.6869671261
 10
147.8305786513
 20
125.7140478741
 10
147.903585607
 20
125.7368281303
 10
147.9777045083
 20
125.7554964793
 10
148.0517625103
 20
125.770017268
 10
148.1253687505
 20
125.7803786455
 10
148.1989144685
 20
125.7865925622
 10
148.2723999041
 20
125.7886590429
  0
LWPOLYLINE
  5
275
100
AcDbEntity
  8
0
100
AcDbPolyline
 62
253
  6
CONTINUOUS
 90
13
 70
0
 10
147.7753432365
 20
125.0795281385
 10
147.8136624682
 20
125.1079074199
 10
147.8536826875
 20
125.1342774204
 10
147.895305733
 20
125.1585256508
 10
147.9385536537
 20
125.1806054297
 10
147.9831914387
 20
125.2003370938
 10
148.028694298
 20
125.2174812693
 10
148.0748613346
 20
125.232000111
 10
148.1215890757
 20
125.2438970003
 10
148.1684582626
 20
125.253116933
 10
148.2152232291
 20
125.2596948159
 10
148.2618255117
 20
125.2637058865
 10
148.3081250357
 20
125.2652118679
  0
LWPOLYLINE
  5
276
100
AcDbEntity
  8
RACCORDO
100
AcDbPolyline
 62
253
  6
CONTINUOUS
 90
13
 70
0
 10
139.6985059027
 20
80.0812553761
 10
139.6666711078
 20
80.080186068
 10
139.6359341104
 20
80.0792925074
 10
139.6066650742
 20
80.0785854552
 10
139.5792164841
 20
80.0780734266
 10
139.5539189018
 20
80.0777625878
 10
139.5310769842
 20
80.0776566823
 10
139.5109658153
 20
80.0777569855
 10
139.4938275922
 20
80.0780622893
 10
139.4798687097
 20
80.0785689172
 10
139.4692572735
 20
80.0792707677
 10
139.4621210765
 20
80.0801593886
 10
139.4585460595
 20
80.0812240782
  0
LWPOLYLINE
  5
277
100
AcDbEntity
  8
0
100
AcDbPolyline
 62
253
  6
CONTINUOUS
 90
14
 70
0
 10
147.1180768467
 20
80.9761820397
 10
147.1590220872
 20
80.9770333541
 10
147.1982445237
 20
80.978035408
 10
147.2354328979
 20
80.9791802493
 10
147.2702920933
 20
80.980458793
 10
147.302545477
 20
80.9818608928
 10
147.3319370952
 20
80.9833754221
 10
147.3582337043
 20
80.9849903619
 10
147.3812266217
 20
80.9866928967
 10
147.400733382
 20
80.9884695155
 10
147.4165991851
 20
80.9903061197
 10
147.4286981243
 20
80.9921881343
 10
147.4369341859
 20
80.9941006243
 10
147.4412420108
 20
80.9960284128
  0
LINE
  5
278
100
AcDbEntity
  8
0
100
AcDbLine
 62
253
  6
CONTINUOUS
 10
147.0323287668
 20
80.9749574027
 11
147.1180768467
 21
80.9761820397
  0
LWPOLYLINE
  5
279
100
AcDbEntity
  8
0
100
AcDbPolyline
 62
253
  6
CONTINUOUS
 90
10
 70
0
 10
169.2438656162
 20
79.6033977826
 10
166.9164460401
 20
79.5956417841
 10
164.5869715482
 20
79.5898247979
 10
162.2560275772
 20
79.5859468132
 10
159.9241968219
 20
79.5840078227
 10
157.5920683906
 20
79.5840078228
 10
155.2602376661
 20
79.5859468134
 10
152.9292937568
 20
79.5898247981
 10
150.5998193573
 20
79.5956417842
 10
148.2723999041
 20
79.6033977826
  0
LWPOLYLINE
  5
27A
100
AcDbEntity
  8
0
100
AcDbPolyline
 62
253
  6
CONTINUOUS
 90
10
 70
0
 10
169.208140053
 20
80.1268449324
 10
166.8876910003
 20
80.1191147847
 10
164.5663525398
 20
80.1133171775
 10
162.2441246714
 20
80.1094521108
 10
159.9204131289
 20
80.1075195892
 10
157.5958121785
 20
80.1075196082
 10
155.2721046195
 20
80.1094521535
 10
152.9498847181
 20
80.1133172204
 10
150.628558208
 20
80.1191148137
 10
148.3081250893
 20
80.1268449333
  0
LWPOLYLINE
  5
27B
100
AcDbEntity
  8
0
100
AcDbPolyline
 62
253
  6
CONTINUOUS
 90
3
 70
0
 10
146.8992129489
 20
80.9743784228
 10
146.9437167751
 20
80.9744002933
 10
147.0323287668
 20
80.9749574027
  0
LINE
  5
27C
100
AcDbEntity
  8
0
100
AcDbLine
 62
253
  6
CONTINUOUS
 10
147.5081327602
 20
80.9960284128
 11
147.4412420707
 21
80.9959932361
  0
LINE
  5
27D
100
AcDbEntity
  8
0
100
AcDbLine
 62
253
  6
CONTINUOUS
 10
147.2342139217
 20
80.0812553761
 11
139.6985060206
 21
80.0812526767
  0
LINE
  5
27E
100
AcDbEntity
  8
0
100
AcDbLine
 62
253
  6
CONTINUOUS
 10
170.2820515987
 20
80.0812553761
 11
177.8177594884
 21
80.0812524151
  0
LINE
  5
27F
100
AcDbEntity
  8
0
100
AcDbLine
 62
7
  6
CONTINUOUS
 10
169.2081327602
 20
80.1960284128
 11
148.3081327602
 21
80.1960284128
  0
LINE
  5
280
100
AcDbEntity
  8
0
100
AcDbLine
 62
253
  6
CONTINUOUS
 10
170.0081327602
 20
80.9960284128
 11
170.0750234499
 21
80.9959933821
  0
LINE
  5
281
100
AcDbEntity
  8
0
100
AcDbLine
 62
253
  6
CONTINUOUS
 10
170.617052269
 20
80.9743785759
 11
170.5280585421
 21
80.9745939187
  0
LWPOLYLINE
  5
282
100
AcDbEntity
  8
0
100
AcDbPolyline
 62
253
  6
CONTINUOUS
 90
16
 70
0
 10
170.5280585421
 20
80.9745939187
 10
170.4405308014
 20
80.9754883126
 10
170.3981874488
 20
80.9761821194
 10
170.3572419567
 20
80.9770334227
 10
170.3180192615
 20
80.9780354667
 10
170.2808306282
 20
80.9791802992
 10
170.2459711794
 20
80.9804588352
 10
170.213717554
 20
80.9818609283
 10
170.1843257114
 20
80.9833754518
 10
170.1580289002
 20
80.9849903865
 10
170.1350358076
 20
80.9866929167
 10
170.115528903
 20
80.9884695314
 10
170.09966299
 20
80.9903061316
 10
170.0875639776
 20
80.9921881424
 10
170.0793278818
 20
80.9941006284
 10
170.0750200627
 20
80.9960284125
  0
LWPOLYLINE
  5
283
100
AcDbEntity
  8
0
100
AcDbPolyline
 62
253
  6
CONTINUOUS
 90
13
 70
0
 10
148.2723999041
 20
79.6033977826
 10
148.1989144678
 20
79.6054642587
 10
148.1253687494
 20
79.6116781726
 10
148.051762509
 20
79.6220395492
 10
147.9777045073
 20
79.6365603394
 10
147.9035856065
 20
79.6552286917
 10
147.8305786515
 20
79.6780089511
 10
147.7586468296
 20
79.7050897018
 10
147.6878265278
 20
79.7362825572
 10
147.6194002515
 20
79.7709864117
 10
147.5537953476
 20
79.8090009674
 10
147.4905841033
 20
79.8505267543
 10
147.4297664132
 20
79.8955639056
  0
LWPOLYLINE
  5
284
100
AcDbEntity
  8
0
100
AcDbPolyline
 62
253
  6
CONTINUOUS
 90
13
 70
0
 10
148.3081250893
 20
80.1268449573
 10
148.2618255414
 20
80.1283509372
 10
148.2152232409
 20
80.1323620082
 10
148.1684582626
 20
80.1389398924
 10
148.1215890719
 20
80.1481598261
 10
148.0748613329
 20
80.160056715
 10
148.0286942983
 20
80.1745755561
 10
147.9831914389
 20
80.1917197316
 10
147.9385536539
 20
80.2114513957
 10
147.8953057332
 20
80.2335311746
 10
147.8536826876
 20
80.2577794051
 10
147.8136624683
 20
80.2841494056
 10
147.7753432365
 20
80.312528687
  0
LWPOLYLINE
  5
285
100
AcDbEntity
  8
RACCORDO
100
AcDbPolyline
 62
253
  6
CONTINUOUS
 90
13
 70
0
 10
177.8177596179
 20
80.0812553761
 10
177.8495944126
 20
80.080186068
 10
177.8803314097
 20
80.0792925073
 10
177.9096004456
 20
80.0785854552
 10
177.9370490353
 20
80.0780734266
 10
177.9623466172
 20
80.0777625879
 10
177.9851885344
 20
80.0776566824
 10
178.0052997029
 20
80.0777569856
 10
178.0224379255
 20
80.0780622894
 10
178.0363968077
 20
80.0785689173
 10
178.0470082435
 20
80.0792707678
 10
178.0541444401
 20
80.0801593887
 10
178.0577194569
 20
80.0812240783
  0
LWPOLYLINE
  5
286
100
AcDbEntity
  8
0
100
AcDbPolyline
 62
7
  6
CONTINUOUS
 90
28
 70
0
 10
163.5709979293
 20
76.5555215277
 10
163.5219819879
 20
76.5717818872
 10
163.4724194985
 20
76.5863001646
 10
163.422310577
 20
76.5990763252
 10
163.3715296122
 20
76.609971608
 10
163.3202024513
 20
76.6191247159
 10
163.2687063831
 20
76.6269518207
 10
163.2171040615
 20
76.6334746913
 10
163.1653330353
 20
76.6386715329
 10
163.1135829014
 20
76.6428931839
 10
163.0618886145
 20
76.6462078916
 10
163.0102153771
 20
76.6485473989
 10
162.9586481297
 20
76.6500577925
 10
162.9073245846
 20
76.6507536773
 10
162.8561071711
 20
76.650620446
 10
162.8046678795
 20
76.6497603682
 10
162.7530446775
 20
76.648193448
 10
162.7011997011
 20
76.6458996837
 10
162.6486911624
 20
76.6429213375
 10
162.5955268394
 20
76.6392732628
 10
162.5416990338
 20
76.6349406125
 10
162.4867427198
 20
76.6299210984
 10
162.430659441
 20
76.6242196847
 10
162.3734477243
 20
76.6178314173
 10
162.3146380035
 20
76.6107391322
 10
162.2540737769
 20
76.6029371127
 10
162.1919116161
 20
76.5944310898
 10
162.1281515625
 20
76.5852210717
  0
LWPOLYLINE
  5
287
100
AcDbEntity
  8
0
100
AcDbPolyline
 62
253
  6
CONTINUOUS
 90
10
 70
0
 10
147.7753432365
 20
80.312528687
 10
147.7587705055
 20
80.325847763
 10
147.7429714609
 20
80.3391836684
 10
147.7279278365
 20
80.3524969345
 10
147.7136238022
 20
80.3657466879
 10
147.7000361063
 20
80.3789006056
 10
147.687134961
 20
80.3919355825
 10
147.6748971489
 20
80.4048239706
 10
147.6633053955
 20
80.4175328259
 10
147.6523390006
 20
80.4300343441
  0
LWPOLYLINE
  5
288
100
AcDbEntity
  8
0
100
AcDbPolyline
 62
253
  6
CONTINUOUS
 90
10
 70
0
 10
147.4297664132
 20
79.8955639056
 10
147.4034707019
 20
79.9167008401
 10
147.3783444535
 20
79.9377474475
 10
147.3543876229
 20
79.9587037259
 10
147.3316367779
 20
79.9796174118
 10
147.3100552691
 20
80.0004407649
 10
147.289533237
 20
80.0210305648
 10
147.2700340469
 20
80.0413390668
 10
147.2515942827
 20
80.0614140054
 10
147.2342139217
 20
80.0812553761
  0
LWPOLYLINE
  5
289
100
AcDbEntity
  8
0
100
AcDbPolyline
 62
253
  6
CONTINUOUS
 90
13
 70
0
 10
147.2342139217
 20
80.0812553761
 10
147.1831934511
 20
80.1434443891
 10
147.1360087119
 20
80.2086457972
 10
147.0926593811
 20
80.2768596522
 10
147.0528662563
 20
80.3485594149
 10
147.0169081776
 20
80.4232717405
 10
146.9856221009
 20
80.4995764471
 10
146.9592314383
 20
80.5775048492
 10
146.9375131996
 20
80.6570256942
 10
146.920634985
 20
80.73662489
 10
146.9086530166
 20
80.8157977247
 10
146.9015121192
 20
80.8950489023
 10
146.8992129483
 20
80.9743784225
  0
LWPOLYLINE
  5
28A
100
AcDbEntity
  8
0
100
AcDbPolyline
 62
253
  6
CONTINUOUS
 90
13
 70
0
 10
147.6523390006
 20
80.4300343441
 10
147.6204319305
 20
80.4693748458
 10
147.5906519537
 20
80.5108099432
 10
147.5631539778
 20
80.5542375923
 10
147.5380195665
 20
80.5996801771
 10
147.5154819047
 20
80.6468834624
 10
147.4958414645
 20
80.6952770439
 10
147.4791586796
 20
80.7446661581
 10
147.4654729324
 20
80.7948877838
 10
147.4548915099
 20
80.8453607328
 10
147.4473829086
 20
80.8957574767
 10
147.4428560973
 20
80.9460264671
 10
147.4412421158
 20
80.9959932362
  0
LWPOLYLINE
  5
28B
100
AcDbEntity
  8
RACCORDO
100
AcDbPolyline
 62
253
  6
CONTINUOUS
 90
31
 70
0
 10
140.1901028788
 20
72.2582949743
 10
140.2418356623
 20
71.8513039329
 10
140.3091048875
 20
71.4481147637
 10
140.3918813298
 20
71.0487273637
 10
140.4903275559
 20
70.6525373917
 10
140.6042265478
 20
70.260148938
 10
140.7329804588
 20
69.8733727829
 10
140.8766050015
 20
69.4922994852
 10
141.0350357042
 20
69.1168338583
 10
141.2075553209
 20
68.7485049084
 10
141.3941617868
 20
68.3873700324
 10
141.5948176658
 20
68.0333636398
 10
141.8087551803
 20
67.6878274943
 10
142.0359706403
 20
67.3507885748
 10
142.2764396066
 20
67.0222086676
 10
142.5293668794
 20
66.7033293299
 10
142.7949225909
 20
66.3940300048
 10
143.0729213365
 20
66.0944176401
 10
143.3620396186
 20
65.8060726206
 10
143.6622405973
 20
65.5291290741
 10
143.9735610315
 20
65.263436779
 10
144.2947937078
 20
65.0101475393
 10
144.6261267032
 20
64.7692178794
 10
144.9673869515
 20
64.5406745576
 10
145.3168316932
 20
64.3257733276
 10
145.6747158452
 20
64.124548159
 10
146.0408151436
 20
63.936948539
 10
146.4126741925
 20
63.7641025708
 10
146.7894900934
 20
63.6063810249
 10
147.1721106716
 20
63.4633981001
 10
147.5605606816
 20
63.3351472366
  0
LWPOLYLINE
  5
28C
100
AcDbEntity
  8
RACCORDO
100
AcDbPolyline
 62
253
  6
CONTINUOUS
 90
31
 70
0
 10
139.9496365518
 20
72.2545555252
 10
140.0024591204
 20
71.8376364967
 10
140.0714512578
 20
71.4234472626
 10
140.1564639607
 20
71.0126153061
 10
140.257323875
 20
70.6057636912
 10
140.3738336534
 20
70.2034990377
 10
140.5057738494
 20
69.8064106631
 10
140.6528859109
 20
69.4151331028
 10
140.8149183572
 20
69.0301982133
 10
140.9916468428
 20
68.6520301209
 10
141.1827591552
 20
68.2812293391
 10
141.3879607202
 20
67.9183001005
 10
141.6070684626
 20
67.5635246474
 10
141.8397429047
 20
67.217462094
 10
142.0856521185
 20
66.8806121848
 10
142.3446586179
 20
66.5531885385
 10
142.6165419493
 20
66.2355668314
 10
142.9008091729
 20
65.9284133255
 10
143.1969004837
 20
65.6323645323
 10
143.5042801799
 20
65.3479770172
 10
143.8225972901
 20
65.0755944106
 10
144.1515411868
 20
64.8155079043
 10
144.4907740268
 20
64.5680551034
 10
144.8396871654
 20
64.3337482424
 10
145.1975380158
 20
64.1131043588
 10
145.5639403219
 20
63.9063898464
 10
145.9382053638
 20
63.7140211854
 10
146.3190610554
 20
63.5366018032
 10
146.7056608373
 20
63.3744211551
 10
147.0976285406
 20
63.2275442917
 10
147.4943513596
 20
63.0961204525
  0
LWPOLYLINE
  5
28D
100
AcDbEntity
  8
RACCORDO
100
AcDbPolyline
 62
253
  6
CONTINUOUS
 90
9
 70
0
 10
139.659747466
 20
75.8168528661
 10
139.6861557882
 20
75.3707499088
 10
139.715375787
 20
74.9248435468
 10
139.7474060432
 20
74.479149506
 10
139.7822446676
 20
74.0336869271
 10
139.8198891913
 20
73.5884783525
 10
139.8603373597
 20
73.1435428755
 10
139.9035872422
 20
72.6988961515
 10
139.9496365985
 20
72.2545555304
  0
LWPOLYLINE
  5
28E
100
AcDbEntity
  8
RACCORDO
100
AcDbPolyline
 62
253
  6
CONTINUOUS
 90
9
 70
0
 10
139.9002921384
 20
75.812530405
 10
139.9266879165
 20
75.3674577883
 10
139.9558996198
 20
74.9225931902
 10
139.9879176735
 20
74.4779291467
 10
140.0227407929
 20
74.0334808394
 10
140.060375899
 20
73.5892860678
 10
140.1008210702
 20
73.1453599589
 10
140.144065625
 20
72.7016949959
 10
140.1901028788
 20
72.2582949743
  0
LINE
  5
28F
100
AcDbEntity
  8
RACCORDO
100
AcDbLine
 62
253
  6
CONTINUOUS
 10
139.8557301887
 20
76.6823468819
 11
139.9002921384
 21
75.812530405
  0
LINE
  5
290
100
AcDbEntity
  8
RACCORDO
100
AcDbLine
 62
253
  6
CONTINUOUS
 10
139.6152334516
 20
76.6870829043
 11
139.659747466
 21
75.8168528661
  0
LINE
  5
291
100
AcDbEntity
  8
RACCORDO
100
AcDbLine
 62
253
  6
CONTINUOUS
 10
139.7360272073
 20
79.2311204748
 11
139.8557301887
 21
76.6823468819
  0
LINE
  5
292
100
AcDbEntity
  8
RACCORDO
100
AcDbLine
 62
253
  6
CONTINUOUS
 10
139.4959379188
 20
79.2322768175
 11
139.6152334516
 21
76.6870829043
  0
LINE
  5
293
100
AcDbEntity
  8
RACCORDO
100
AcDbLine
 62
253
  6
CONTINUOUS
 10
139.4585460593
 20
80.0812240782
 11
139.4959379188
 21
79.2322768175
  0
LWPOLYLINE
  5
294
100
AcDbEntity
  8
RACCORDO
100
AcDbPolyline
 62
253
  6
CONTINUOUS
 90
15
 70
0
 10
139.3534830133
 20
122.7356906688
 10
139.2560589449
 20
120.0144041629
 10
139.1686571719
 20
117.1469598061
 10
139.0931541265
 20
114.1011132659
 10
139.0332336006
 20
110.9091452136
 10
138.9923365967
 20
107.6678972688
 10
138.9713155964
 20
104.3774508003
 10
138.9712412537
 20
101.037949563
 10
138.9921255357
 20
97.7463750548
 10
139.0329239969
 20
94.5025669883
 10
139.092805066
 20
91.3069116764
 10
139.16832326
 20
88.2571643151
 10
139.255784994
 20
85.3859102347
 10
139.3533203751
 20
82.6606011852
 10
139.4585460593
 20
80.0812240782
  0
LWPOLYLINE
  5
295
100
AcDbEntity
  8
RACCORDO
100
AcDbPolyline
 62
253
  6
CONTINUOUS
 90
15
 70
0
 10
139.589863871
 20
122.7356746529
 10
139.4927411699
 20
120.0143886538
 10
139.4076864384
 20
117.1469385896
 10
139.3333511093
 20
114.1010985086
 10
139.2723382876
 20
110.9091427673
 10
139.2308041663
 20
107.6678898753
 10
139.2107686296
 20
104.377443122
 10
139.2106883872
 20
101.0379573486
 10
139.2305924342
 20
97.7463824958
 10
139.2720423363
 20
94.5025694628
 10
139.3330096248
 20
91.306926486
 10
139.4073514581
 20
88.2571855799
 10
139.4924672726
 20
85.38592577
 10
139.58970178
 20
82.660617282
 10
139.7360272073
 20
79.2311204748
  0
LINE
  5
296
100
AcDbEntity
  8
RACCORDO
100
AcDbLine
 62
253
  6
CONTINUOUS
 10
139.4959378863
 20
126.15977928
 11
139.3534830133
 21
122.7356906688
  0
LINE
  5
297
100
AcDbEntity
  8
RACCORDO
100
AcDbLine
 62
253
  6
CONTINUOUS
 10
139.7747406813
 20
127.0108077228
 11
139.589863871
 21
122.7356746529
  0
LINE
  5
298
100
AcDbEntity
  8
RACCORDO
100
AcDbLine
 62
253
  6
CONTINUOUS
 10
139.6152334056
 20
128.7049729852
 11
139.4959378863
 21
126.15977928
  0
LINE
  5
299
100
AcDbEntity
  8
RACCORDO
100
AcDbLine
 62
253
  6
CONTINUOUS
 10
139.8767173347
 20
129.134249651
 11
139.7747406813
 21
127.0108077228
  0
LWPOLYLINE
  5
29A
100
AcDbEntity
  8
0
100
AcDbPolyline
 62
253
  6
CONTINUOUS
 90
10
 70
0
 10
147.4297664132
 20
79.8955639056
 10
147.4372722411
 20
78.0475495331
 10
147.4465389138
 20
76.2008728239
 10
147.4575650232
 20
74.3558146172
 10
147.4703487663
 20
72.5126554067
 10
147.4848883283
 20
70.671675597
 10
147.5011818786
 20
68.8331554594
 10
147.5192270615
 20
66.9973746917
 10
147.539021001
 20
65.1646123764
 10
147.5605606816
 20
63.3351472366
  0
LINE
  5
29B
100
AcDbEntity
  8
0
100
AcDbLine
 62
253
  6
CONTINUOUS
 10
147.4412420707
 20
80.9959932361
 11
147.4275689355
 21
88.2270709944
  0
LINE
  5
29C
100
AcDbEntity
  8
0
100
AcDbLine
 62
253
  6
CONTINUOUS
 10
146.8992129483
 20
80.9743784225
 11
146.8855765245
 21
88.2123984199
  0
LINE
  5
29D
100
AcDbEntity
  8
0
100
AcDbLine
 62
253
  6
CONTINUOUS
 10
146.8855765245
 20
88.2123984199
 11
146.8774123626
 21
95.4534526549
  0
LINE
  5
29E
100
AcDbEntity
  8
0
100
AcDbLine
 62
253
  6
CONTINUOUS
 10
147.4275689355
 20
88.2270709944
 11
147.4193645676
 21
95.4606062979
  0
LINE
  5
29F
100
AcDbEntity
  8
0
100
AcDbLine
 62
253
  6
CONTINUOUS
 10
146.8774123626
 20
95.4534526549
 11
146.8746816711
 21
102.696028272
  0
LINE
  5
2A0
100
AcDbEntity
  8
0
100
AcDbLine
 62
253
  6
CONTINUOUS
 10
147.4193645676
 20
95.4606062979
 11
147.4166292852
 21
102.6960320279
  0
LINE
  5
2A1
100
AcDbEntity
  8
0
100
AcDbLine
 62
7
  6
CONTINUOUS
 10
147.5081327602
 20
124.3960284128
 11
147.5081327602
 21
80.9960284128
  0
LINE
  5
2A2
100
AcDbEntity
  8
0
100
AcDbLine
 62
253
  6
CONTINUOUS
 10
146.8746816711
 20
102.696028272
 11
146.8774123625
 21
109.9386039607
  0
LINE
  5
2A3
100
AcDbEntity
  8
0
100
AcDbLine
 62
253
  6
CONTINUOUS
 10
147.4166292852
 20
102.6960320279
 11
147.4193645742
 21
109.9314583556
  0
LINE
  5
2A4
100
AcDbEntity
  8
0
100
AcDbLine
 62
253
  6
CONTINUOUS
 10
146.8774123625
 20
109.9386039607
 11
146.8855765244
 21
117.1796582975
  0
LINE
  5
2A5
100
AcDbEntity
  8
0
100
AcDbLine
 62
253
  6
CONTINUOUS
 10
147.4193645742
 20
109.9314583556
 11
147.4275689426
 21
117.1649914838
  0
LINE
  5
2A6
100
AcDbEntity
  8
0
100
AcDbLine
 62
253
  6
CONTINUOUS
 10
146.8855765244
 20
117.1796582975
 11
146.8992129483
 21
124.417678403
  0
LINE
  5
2A7
100
AcDbEntity
  8
0
100
AcDbLine
 62
253
  6
CONTINUOUS
 10
147.4275689426
 20
117.1649914838
 11
147.4412420704
 21
124.3960634434
  0
LWPOLYLINE
  5
2A8
100
AcDbEntity
  8
0
100
AcDbPolyline
 62
253
  6
CONTINUOUS
 90
10
 70
0
 10
147.4297664132
 20
125.4964929199
 10
147.4372722411
 20
127.3445072823
 10
147.4465389137
 20
129.1911839817
 10
147.4575650231
 20
131.0362421789
 10
147.4703487762
 20
132.8794013807
 10
147.4848883482
 20
134.720381182
 10
147.5011818781
 20
136.5589013093
 10
147.5192270004
 20
138.3946820641
 10
147.5390208497
 20
140.2274443646
 10
147.5605604108
 20
142.0569094876
  0
LWPOLYLINE
  5
2A9
100
AcDbEntity
  8
0
100
AcDbPolyline
 62
253
  6
CONTINUOUS
 90
13
 70
0
 10
146.8992129483
 20
124.417678403
 10
146.9015125626
 20
124.4970161751
 10
146.9086549031
 20
124.576275492
 10
146.9206393142
 20
124.6554563534
 10
146.9375215966
 20
124.7350646281
 10
146.9592449023
 20
124.8145944396
 10
146.9856397539
 20
124.892528201
 10
147.0169292792
 20
124.9688333926
 10
147.0528899288
 20
125.0435425961
 10
147.0926824577
 20
125.1152359363
 10
147.1360272628
 20
125.1834401706
 10
147.1832043098
 20
125.2486286577
 10
147.2342139217
 20
125.3108014494
  0
LWPOLYLINE
  5
2AA
100
AcDbEntity
  8
0
100
AcDbPolyline
 62
253
  6
CONTINUOUS
 90
13
 70
0
 10
147.4412421153
 20
124.3960634433
 10
147.4428563444
 20
124.4460343939
 10
147.4473839218
 20
124.4963078342
 10
147.4548938647
 20
124.5467092457
 10
147.4654774633
 20
124.5971878706
 10
147.4791661669
 20
124.6474152365
 10
147.4958518054
 20
124.6968076195
 10
147.515494231
 20
124.7452012975
 10
147.5380328704
 20
124.7924024893
 10
147.5631668659
 20
124.8378409798
 10
147.5906626853
 20
124.8812627683
 10
147.6204384577
 20
124.9226905152
 10
147.6523390006
 20
124.9620224814
  0
LINE
  5
2AB
100
AcDbEntity
  8
0
100
AcDbLine
 62
7
  6
CONTINUOUS
 10
157.4080647602
 20
75.6463814128
 11
158.0936457602
 21
73.8182274128
  0
LINE
  5
2AC
100
AcDbEntity
  8
0
100
AcDbLine
 62
7
  6
CONTINUOUS
 10
153.3044647602
 20
76.6179304128
 11
154.1920257602
 21
73.8182274128
  0
LINE
  5
2AD
100
AcDbEntity
  8
0
100
AcDbLine
 62
7
  6
CONTINUOUS
 10
154.4729867602
 20
74.6908084128
 11
153.9393127602
 21
76.6179304128
  0
LWPOLYLINE
  5
2AE
100
AcDbEntity
  8
0
100
AcDbPolyline
 62
253
  6
CONTINUOUS
 90
19
 70
0
 10
148.2723999058
 20
125.7886590418
 10
148.2725474461
 20
125.7451498605
 10
148.2729644553
 20
125.7017874096
 10
148.2736477755
 20
125.6589000502
 10
148.2745922323
 20
125.6168125455
 10
148.2757906739
 20
125.5758436021
 10
148.2772340251
 20
125.5363034562
 10
148.2789113561
 20
125.4984915245
 10
148.2808099654
 20
125.4626941367
 10
148.2829154759
 20
125.4291823677
 10
148.2852119436
 20
125.3982099844
 10
148.2876819785
 20
125.3700115243
 10
148.2903068765
 20
125.3448005196
 10
148.2930667605
 20
125.3227678798
 10
148.2959407313
 20
125.3040804466
 10
148.298907026
 20
125.28887973
 10
148.3019431824
 20
125.277280837
 10
148.3050262091
 20
125.2693716
 10
148.3081327602
 20
125.2652119113
  0
LINE
  5
2AF
100
AcDbEntity
  8
0
100
AcDbLine
 62
253
  6
CONTINUOUS
 10
148.3081327602
 20
125.1960284128
 11
148.3081250357
 21
125.2652118921
  0
LINE
  5
2B0
100
AcDbEntity
  8
0
100
AcDbLine
 62
253
  6
CONTINUOUS
 10
148.3081327602
 20
80.1960284128
 11
148.3081250893
 21
80.1268449333
  0
LWPOLYLINE
  5
2B1
100
AcDbEntity
  8
0
100
AcDbPolyline
 62
253
  6
CONTINUOUS
 90
19
 70
0
 10
148.2724001357
 20
79.603397939
 10
148.2725476462
 20
79.6469072324
 10
148.2729646277
 20
79.6902698288
 10
148.2736479224
 20
79.733157362
 10
148.274592356
 20
79.7752450633
 10
148.2757907767
 20
79.8162142207
 10
148.2772341094
 20
79.8557545925
 10
148.2789114243
 20
79.8935667566
 10
148.2808100197
 20
79.9293643778
 10
148.2829155185
 20
79.9628763763
 10
148.2852119764
 20
79.9938489802
 10
148.2876820035
 20
80.0220476473
 10
148.2903068951
 20
80.0472588413
 10
148.2930667742
 20
80.0692916488
 10
148.2959407413
 20
80.0879792248
 10
148.298907033
 20
80.1031800565
 10
148.3019431869
 20
80.1147790344
 10
148.3050262114
 20
80.1226883246
 10
148.3081327601
 20
80.1268480334
  0
LINE
  5
2B2
100
AcDbEntity
  8
0
100
AcDbLine
 62
253
  6
CONTINUOUS
 10
170.282051156
 20
125.3108012009
 11
170.1808059334
 21
125.2237301107
  0
LINE
  5
2B3
100
AcDbEntity
  8
0
100
AcDbLine
 62
253
  6
CONTINUOUS
 10
170.1808059334
 20
125.2237301107
 11
170.083928215
 21
125.141270345
  0
LINE
  5
2B4
100
AcDbEntity
  8
0
100
AcDbLine
 62
253
  6
CONTINUOUS
 10
170.083928215
 20
125.141270345
 11
170.0252164996
 21
125.0917957053
  0
LINE
  5
2B5
100
AcDbEntity
  8
0
100
AcDbLine
 62
253
  6
CONTINUOUS
 10
170.0252164996
 20
125.0917957053
 11
169.9734107378
 21
125.0485819038
  0
LWPOLYLINE
  5
2B6
100
AcDbEntity
  8
0
100
AcDbPolyline
 62
253
  6
CONTINUOUS
 90
8
 70
0
 10
169.9734107378
 20
125.0485819038
 10
169.9301618886
 20
125.0130060898
 10
169.912188933
 20
124.9984472765
 10
169.8968482167
 20
124.9862020036
 10
169.8842622046
 20
124.9763680249
 10
169.8745313705
 20
124.9690238453
 10
169.8677333957
 20
124.9642280935
 10
169.8639225482
 20
124.962019054
  0
LWPOLYLINE
  5
2B7
100
AcDbEntity
  8
0
100
AcDbPolyline
 62
253
  6
CONTINUOUS
 90
7
 70
0
 10
169.9301652447
 20
80.3790479386
 10
169.9121924877
 20
80.3936065665
 10
169.8968519357
 20
80.4058516825
 10
169.8842660497
 20
80.4156855361
 10
169.8745353006
 20
80.4230296251
 10
169.8677373674
 20
80.427825323
 10
169.8639265168
 20
80.4300343466
  0
LINE
  5
2B8
100
AcDbEntity
  8
0
100
AcDbLine
 62
253
  6
CONTINUOUS
 10
169.9734136125
 20
80.3434725639
 11
169.9301652447
 21
80.3790479386
  0
LINE
  5
2B9
100
AcDbEntity
  8
0
100
AcDbLine
 62
253
  6
CONTINUOUS
 10
170.0252188179
 20
80.30025926
 11
169.9734136125
 21
80.3434725639
  0
LINE
  5
2BA
100
AcDbEntity
  8
0
100
AcDbLine
 62
253
  6
CONTINUOUS
 10
170.1152975698
 20
80.2241864945
 11
170.0252188179
 21
80.30025926
  0
LINE
  5
2BB
100
AcDbEntity
  8
0
100
AcDbLine
 62
253
  6
CONTINUOUS
 10
170.2144256353
 20
80.1395101564
 11
170.1152975698
 21
80.2241864945
  0
LINE
  5
2BC
100
AcDbEntity
  8
0
100
AcDbLine
 62
253
  6
CONTINUOUS
 10
170.2820515981
 20
80.0812553765
 11
170.2144256353
 21
80.1395101564
  0
LINE
  5
2BD
100
AcDbEntity
  8
0
100
AcDbLine
 62
7
  6
CONTINUOUS
 10
158.1378187602
 20
75.0635264128
 11
157.5595827602
 21
76.6179304128
  0
LINE
  5
2BE
100
AcDbEntity
  8
0
100
AcDbLine
 62
253
  6
CONTINUOUS
 10
170.0864991017
 20
125.4964929166
 11
170.0317066979
 21
125.4264698656
  0
LINE
  5
2BF
100
AcDbEntity
  8
0
100
AcDbLine
 62
253
  6
CONTINUOUS
 10
170.0317066979
 20
125.4264698656
 11
169.9774262016
 21
125.3579287743
  0
LINE
  5
2C0
100
AcDbEntity
  8
0
100
AcDbLine
 62
253
  6
CONTINUOUS
 10
169.9774262016
 20
125.3579287743
 11
169.9253740978
 21
125.2930370832
  0
LWPOLYLINE
  5
2C1
100
AcDbEntity
  8
0
100
AcDbPolyline
 62
253
  6
CONTINUOUS
 90
12
 70
0
 10
169.9253740978
 20
125.2930370832
 10
169.8771964038
 20
125.2338468294
 10
169.8550426906
 20
125.2069833702
 10
169.8344166188
 20
125.1822297568
 10
169.8154815739
 20
125.1597820704
 10
169.7983875464
 20
125.1398181261
 10
169.7832699432
 20
125.1224960644
 10
169.7702485157
 20
125.1079530989
 10
169.7594264107
 20
125.0963044288
 10
169.7508893534
 20
125.087642327
 10
169.7447049684
 20
125.0820354086
 10
169.7409222443
 20
125.0795280878
  0
LWPOLYLINE
  5
2C2
100
AcDbEntity
  8
0
100
AcDbPolyline
 62
253
  6
CONTINUOUS
 90
11
 70
0
 10
169.8771950983
 20
80.1582116202
 10
169.8550412248
 20
80.1850752957
 10
169.8344149985
 20
80.2098291159
 10
169.8154798086
 20
80.2322769955
 10
169.798385649
 20
80.252241115
 10
169.7832679298
 20
80.2695633302
 10
169.7702464049
 20
80.2841064243
 10
169.7594242234
 20
80.2957551952
 10
169.7508871126
 20
80.3044173682
 10
169.7447026985
 20
80.3100243264
 10
169.7409199706
 20
80.3125316547
  0
LINE
  5
2C3
100
AcDbEntity
  8
0
100
AcDbLine
 62
253
  6
CONTINUOUS
 10
169.9253731146
 20
80.0990209261
 11
169.8771950983
 21
80.1582116202
  0
LINE
  5
2C4
100
AcDbEntity
  8
0
100
AcDbLine
 62
253
  6
CONTINUOUS
 10
169.9774255156
 20
80.0341288187
 11
169.9253731146
 21
80.0990209261
  0
LINE
  5
2C5
100
AcDbEntity
  8
0
100
AcDbLine
 62
253
  6
CONTINUOUS
 10
170.0317062498
 20
79.9655873789
 11
169.9774255156
 21
80.0341288187
  0
LINE
  5
2C6
100
AcDbEntity
  8
0
100
AcDbLine
 62
253
  6
CONTINUOUS
 10
170.0864987993
 20
79.8955640904
 11
170.0317062498
 21
79.9655873789
  0
LWPOLYLINE
  5
2C7
100
AcDbEntity
  8
0
100
AcDbPolyline
 62
7
  6
CONTINUOUS
 90
6
 70
0
 10
163.3494687047
 20
74.6675413711
 10
163.3789386086
 20
74.5814206371
 10
163.4078222339
 20
74.4931351947
 10
163.4361194171
 20
74.4026853902
 10
163.463401351
 20
74.3099355767
 10
163.5174906711
 20
74.1183534536
  0
LINE
  5
2C8
100
AcDbEntity
  8
0
100
AcDbLine
 62
7
  6
CONTINUOUS
 10
161.9565407602
 20
73.8182274128
 11
161.0975227602
 21
76.6179304128
  0
LINE
  5
2C9
100
AcDbEntity
  8
0
100
AcDbLine
 62
7
  6
CONTINUOUS
 10
163.5174906711
 20
74.1183534536
 11
163.605148382
 21
73.8182270584
  0
LINE
  5
2CA
100
AcDbEntity
  8
0
100
AcDbLine
 62
7
  6
CONTINUOUS
 10
161.1892067602
 20
74.3771474128
 11
161.3405987602
 21
73.8182274128
  0
LINE
  5
2CB
100
AcDbEntity
  8
0
100
AcDbLine
 62
7
  6
CONTINUOUS
 10
160.8038697602
 20
75.8486434128
 11
161.0724127602
 21
74.8096374128
  0
LINE
  5
2CC
100
AcDbEntity
  8
0
100
AcDbLine
 62
7
  6
CONTINUOUS
 10
159.5622447602
 20
73.8182274128
 11
159.3004407602
 21
76.6179304128
  0
LINE
  5
2CD
100
AcDbEntity
  8
RACCORDO
100
AcDbLine
 62
253
  6
CONTINUOUS
 10
153.3950968485
 20
143.4558631332
 11
153.4099629893
 21
143.2913777623
  0
LINE
  5
2CE
100
AcDbEntity
  8
RACCORDO
100
AcDbLine
 62
253
  6
CONTINUOUS
 10
153.4257315346
 20
143.0419505607
 11
153.4204205558
 21
143.1065708304
  0
LWPOLYLINE
  5
2CF
100
AcDbEntity
  8
RACCORDO
100
AcDbPolyline
 62
253
  6
CONTINUOUS
 90
10
 70
0
 10
153.4204205558
 20
143.1065708304
 10
153.4159293302
 20
143.1654491344
 10
153.4140640204
 20
143.1917893867
 10
153.412484885
 20
143.2156092302
 10
153.4112119436
 20
143.2366066901
 10
153.4102613338
 20
143.2545155723
 10
153.4096451068
 20
143.269108838
 10
153.4093710748
 20
143.2802014819
 10
153.4094427119
 20
143.2876528776
 10
153.4098591099
 20
143.2913685606
  0
LINE
  5
2D0
100
AcDbEntity
  8
0
100
AcDbLine
 62
7
  6
CONTINUOUS
 10
158.8704697602
 20
75.6387594128
 11
158.9905387602
 21
73.8182274128
  0
LINE
  5
2D1
100
AcDbEntity
  8
0
100
AcDbLine
 62
7
  6
CONTINUOUS
 10
155.8238477602
 20
76.6180984128
 11
155.8238477602
 21
73.8182274128
  0
LINE
  5
2D2
100
AcDbEntity
  8
0
100
AcDbLine
 62
7
  6
CONTINUOUS
 10
156.4082557602
 20
73.8182274128
 11
156.4082557602
 21
76.6180984128
  0
LWPOLYLINE
  5
2D3
100
AcDbEntity
  8
RACCORDO
100
AcDbPolyline
 62
253
  6
CONTINUOUS
 90
8
 70
0
 10
153.4140640245
 20
62.2002674768
 10
153.4124848896
 20
62.1764476392
 10
153.4112119486
 20
62.1554501845
 10
153.410261339
 20
62.1375413065
 10
153.4096451122
 20
62.1229480441
 10
153.4093710803
 20
62.1118554022
 10
153.4094427174
 20
62.1044040074
 10
153.4098591152
 20
62.1006883241
  0
LINE
  5
2D4
100
AcDbEntity
  8
RACCORDO
100
AcDbLine
 62
253
  6
CONTINUOUS
 10
153.4180571701
 20
62.2551344499
 11
153.4140640245
 21
62.2002674768
  0
LWPOLYLINE
  5
2D5
100
AcDbEntity
  8
RACCORDO
100
AcDbPolyline
 62
253
  6
CONTINUOUS
 90
3
 70
0
 10
153.4257315355
 20
62.3501062688
 10
153.4229895359
 20
62.3172776312
 10
153.4180571701
 20
62.2551344499
  0
LINE
  5
2D6
100
AcDbEntity
  8
RACCORDO
100
AcDbLine
 62
253
  6
CONTINUOUS
 10
153.3950968485
 20
61.9361936923
 11
153.4099444997
 21
62.1006806627
  0
LWPOLYLINE
  5
2D7
100
AcDbEntity
  8
RACCORDO
100
AcDbPolyline
 62
253
  6
CONTINUOUS
 90
13
 70
0
 10
148.4722634961
 20
63.0967797551
 10
148.4656578656
 20
63.0646240472
 10
148.4594007548
 20
63.0334723917
 10
148.453571055
 20
63.0037175561
 10
148.4482422683
 20
62.9757346962
 10
148.4434815814
 20
62.9498766265
 10
148.439349018
 20
62.9264693715
 10
148.4358966826
 20
62.9058080556
 10
148.4331681029
 20
62.8881531812
 10
148.4311976815
 20
62.8737273454
 10
148.430010262
 20
62.8627124323
 10
148.4296208157
 20
62.8552473205
 10
148.4300342527
 20
62.851426132
  0
LINE
  5
2D8
100
AcDbEntity
  8
RACCORDO
100
AcDbLine
 62
253
  6
CONTINUOUS
 10
148.396767774
 20
62.6974487714
 11
148.4300404006
 21
62.8514248101
  0
LWPOLYLINE
  5
2D9
100
AcDbEntity
  8
RACCORDO
100
AcDbPolyline
 62
253
  6
CONTINUOUS
 90
9
 70
0
 10
169.9908025303
 20
142.1748173228
 10
169.9980144956
 20
142.1999997446
 10
170.0044077722
 20
142.2227955073
 10
170.0099020916
 20
142.2429184065
 10
170.0144284717
 20
142.260115796
 10
170.017930083
 20
142.2741717598
 10
170.0203629623
 20
142.284909823
 10
170.0216965644
 20
142.2921951675
 10
170.0219141457
 20
142.2959363248
  0
LWPOLYLINE
  5
2DA
100
AcDbEntity
  8
RACCORDO
100
AcDbPolyline
 62
253
  6
CONTINUOUS
 90
10
 70
0
 10
147.5334030959
 20
63.2444924123
 10
147.5254629892
 20
63.2172395001
 10
147.5182510237
 20
63.1920570777
 10
147.5118577469
 20
63.1692613144
 10
147.5063634273
 20
63.1491384146
 10
147.5018370471
 20
63.1319410246
 10
147.4983354356
 20
63.1178850604
 10
147.4959025562
 20
63.1071469968
 10
147.494568954
 20
63.0998616519
 10
147.4943513726
 20
63.0961204945
  0
LINE
  5
2DB
100
AcDbEntity
  8
RACCORDO
100
AcDbLine
 62
253
  6
CONTINUOUS
 10
169.9742938653
 20
142.1185831746
 11
169.9908025303
 21
142.1748173228
  0
LINE
  5
2DC
100
AcDbEntity
  8
RACCORDO
100
AcDbLine
 62
253
  6
CONTINUOUS
 10
169.9557082505
 20
142.0569083132
 11
169.9742938653
 21
142.1185831746
  0
LINE
  5
2DD
100
AcDbEntity
  8
RACCORDO
100
AcDbLine
 62
253
  6
CONTINUOUS
 10
169.9557082294
 20
63.3351485555
 11
169.9742937595
 21
63.2734739505
  0
LWPOLYLINE
  5
2DE
100
AcDbEntity
  8
RACCORDO
100
AcDbPolyline
 62
253
  6
CONTINUOUS
 90
10
 70
0
 10
169.9742937595
 20
63.2734739505
 10
169.9908023387
 20
63.2172400716
 10
169.9980142637
 20
63.1920577795
 10
170.0044075032
 20
63.1692621385
 10
170.0099017895
 20
63.1491393497
 10
170.0144281415
 20
63.1319420563
 10
170.0179297303
 20
63.1178861718
 10
170.0203625934
 20
63.107148169
 10
170.0216961858
 20
63.0998628643
 10
170.0219137642
 20
63.0961217255
  0
LINE
  5
2DF
100
AcDbEntity
  8
0
100
AcDbLine
 62
7
  6
CONTINUOUS
 10
164.0363123365
 20
74.3180324368
 11
163.9674955855
 21
74.5759880882
  0
LWPOLYLINE
  5
2E0
100
AcDbEntity
  8
0
100
AcDbPolyline
 62
7
  6
CONTINUOUS
 90
28
 70
0
 10
163.9674955855
 20
74.5759880882
 10
163.9595212923
 20
74.6062469594
 10
163.9515375064
 20
74.6354858131
 10
163.9435442635
 20
74.6637045993
 10
163.9356176953
 20
74.6908452057
 10
163.9276817426
 20
74.716965649
 10
163.9195081363
 20
74.7422400825
 10
163.9110508509
 20
74.7666575144
 10
163.9023559434
 20
74.7902288669
 10
163.8933332414
 20
74.813161182
 10
163.8839940705
 20
74.8354717249
 10
163.8743271177
 20
74.8571431833
 10
163.864208233
 20
74.8783307476
 10
163.8536621416
 20
74.8990553858
 10
163.8426641129
 20
74.919296097
 10
163.8310157917
 20
74.9391451265
 10
163.8186907072
 20
74.9587000105
 10
163.8057153021
 20
74.9778631895
 10
163.7919705839
 20
74.9964342624
 10
163.7774570615
 20
75.0144388271
 10
163.7621742083
 20
75.0318512513
 10
163.7460014873
 20
75.0483942758
 10
163.7288765496
 20
75.0641138046
 10
163.7108617421
 20
75.0789638899
 10
163.6920235972
 20
75.0925294797
 10
163.6723843165
 20
75.1046722019
 10
163.6519217503
 20
75.1155303746
 10
163.6306359251
 20
75.1251039759
  0
LINE
  5
2E1
100
AcDbEntity
  8
0
100
AcDbLine
 62
7
  6
CONTINUOUS
 10
164.1672809721
 20
73.8182270584
 11
164.0363123365
 21
74.3180324368
  0
LINE
  5
2E2
100
AcDbEntity
  8
RACCORDO
100
AcDbLine
 62
253
  6
CONTINUOUS
 10
148.396767774
 20
142.6946080541
 11
148.4300402824
 21
142.5406319905
  0
LWPOLYLINE
  5
2E3
100
AcDbEntity
  8
RACCORDO
100
AcDbPolyline
 62
253
  6
CONTINUOUS
 90
13
 70
0
 10
148.4722634962
 20
142.2952770701
 10
148.4656578664
 20
142.3274327751
 10
148.4594007565
 20
142.3585844273
 10
148.4535710574
 20
142.3883392596
 10
148.4482422715
 20
142.4163221161
 10
148.4434815853
 20
142.4421801824
 10
148.4393490226
 20
142.4655874341
 10
148.4358966878
 20
142.486248747
 10
148.4331681087
 20
142.5039036186
 10
148.4311976878
 20
142.5183294521
 10
148.4300102687
 20
142.5293443632
 10
148.4296208226
 20
142.5368094733
 10
148.4300342597
 20
142.5406306608
  0
LINE
  5
2E4
100
AcDbEntity
  8
RACCORDO
100
AcDbLine
 62
253
  6
CONTINUOUS
 10
164.1211686718
 20
61.9361936923
 11
164.1063025312
 21
62.1006790633
  0
LINE
  5
2E5
100
AcDbEntity
  8
RACCORDO
100
AcDbLine
 62
253
  6
CONTINUOUS
 10
164.0905339857
 20
62.3501062648
 11
164.0958449646
 21
62.2854859951
  0
LWPOLYLINE
  5
2E6
100
AcDbEntity
  8
RACCORDO
100
AcDbPolyline
 62
253
  6
CONTINUOUS
 90
10
 70
0
 10
164.0958449646
 20
62.2854859951
 10
164.1003361901
 20
62.2266076911
 10
164.1022015
 20
62.2002674388
 10
164.1037806353
 20
62.1764475953
 10
164.1050535767
 20
62.1554501354
 10
164.1060041866
 20
62.1375412532
 10
164.1066204136
 20
62.1229479875
 10
164.1068944455
 20
62.1118553436
 10
164.1068228084
 20
62.1044039479
 10
164.1064064104
 20
62.100688265
  0
LINE
  5
2E7
100
AcDbEntity
  8
0
100
AcDbLine
 62
7
  6
CONTINUOUS
 10
162.1281515625
 20
76.5852210717
 11
162.1281515625
 21
73.8182270584
  0
LINE
  5
2E8
100
AcDbEntity
  8
0
100
AcDbLine
 62
7
  6
CONTINUOUS
 10
162.6908300143
 20
75.3724003262
 11
162.6908300143
 21
76.1409736168
  0
LINE
  5
2E9
100
AcDbEntity
  8
0
100
AcDbLine
 62
7
  6
CONTINUOUS
 10
162.710208105
 20
73.8182270584
 11
162.710208105
 21
74.913876488
  0
LWPOLYLINE
  5
2EA
100
AcDbEntity
  8
RACCORDO
100
AcDbPolyline
 62
253
  6
CONTINUOUS
 90
8
 70
0
 10
164.1022014959
 20
143.1917893487
 10
164.1037806307
 20
143.2156091863
 10
164.1050535717
 20
143.236606641
 10
164.1060041813
 20
143.254515519
 10
164.1066204081
 20
143.2691087814
 10
164.10689444
 20
143.2802014233
 10
164.106822803
 20
143.2876528181
 10
164.1064064051
 20
143.2913685014
  0
LINE
  5
2EB
100
AcDbEntity
  8
0
100
AcDbLine
 62
7
  6
CONTINUOUS
 10
157.2819497602
 20
73.8182274128
 11
157.4080647602
 21
75.6463814128
  0
LINE
  5
2EC
100
AcDbEntity
  8
RACCORDO
100
AcDbLine
 62
253
  6
CONTINUOUS
 10
164.0982083502
 20
143.1369223756
 11
164.1022014959
 21
143.1917893487
  0
LWPOLYLINE
  5
2ED
100
AcDbEntity
  8
RACCORDO
100
AcDbPolyline
 62
253
  6
CONTINUOUS
 90
3
 70
0
 10
164.0905339849
 20
143.0419505567
 10
164.0932759845
 20
143.0747791943
 10
164.0982083502
 20
143.1369223756
  0
LINE
  5
2EE
100
AcDbEntity
  8
0
100
AcDbLine
 62
7
  6
CONTINUOUS
 10
156.9756577602
 20
76.6179304128
 11
156.7228607602
 21
73.8182274128
  0
LINE
  5
2EF
100
AcDbEntity
  8
RACCORDO
100
AcDbLine
 62
253
  6
CONTINUOUS
 10
164.1211686718
 20
143.4558631332
 11
164.1063210198
 21
143.2913761628
  0
LWPOLYLINE
  5
2F0
100
AcDbEntity
  8
RACCORDO
100
AcDbPolyline
 62
253
  6
CONTINUOUS
 90
13
 70
0
 10
169.0440020242
 20
142.2952770704
 10
169.0506076548
 20
142.3274327783
 10
169.0568647655
 20
142.3585844338
 10
169.0626944653
 20
142.3883392694
 10
169.068023252
 20
142.4163221293
 10
169.0727839389
 20
142.442180199
 10
169.0769165023
 20
142.465587454
 10
169.0803688378
 20
142.4862487699
 10
169.0830974175
 20
142.5039036443
 10
169.0850678388
 20
142.5183294801
 10
169.0862552583
 20
142.5293443932
 10
169.0866447047
 20
142.536809505
 10
169.0862312677
 20
142.5406306935
  0
LINE
  5
2F1
100
AcDbEntity
  8
RACCORDO
100
AcDbLine
 62
253
  6
CONTINUOUS
 10
169.1194977463
 20
142.6946080541
 11
169.0862306022
 21
142.5406308414
  0
LINE
  5
2F2
100
AcDbEntity
  8
0
100
AcDbLine
 62
7
  6
CONTINUOUS
 10
155.0229637602
 20
76.6179304128
 11
154.4729867602
 21
74.6908084128
  0
LWPOLYLINE
  5
2F3
100
AcDbEntity
  8
RACCORDO
100
AcDbPolyline
 62
253
  6
CONTINUOUS
 90
3
 70
0
 10
147.5605572698
 20
63.3351485122
 10
147.5510610857
 20
63.303819348
 10
147.5334030959
 20
63.2444924123
  0
LWPOLYLINE
  5
2F4
100
AcDbEntity
  8
RACCORDO
100
AcDbPolyline
 62
253
  6
CONTINUOUS
 90
12
 70
0
 10
147.5605572909
 20
142.05690827
 10
147.5419717609
 20
142.118582875
 10
147.5334032457
 20
142.1475639766
 10
147.5254631816
 20
142.1748167539
 10
147.5182512566
 20
142.199999046
 10
147.5118580171
 20
142.222794687
 10
147.5063637308
 20
142.2429174758
 10
147.5018373789
 20
142.2601147692
 10
147.49833579
 20
142.2741706537
 10
147.495902927
 20
142.2849086565
 10
147.4945693346
 20
142.2921939612
 10
147.4943517562
 20
142.2959351
  0
LINE
  5
2F5
100
AcDbEntity
  8
RACCORDO
100
AcDbLine
 62
253
  6
CONTINUOUS
 10
169.1194977463
 20
62.6974487714
 11
169.0862251401
 21
62.851424814
  0
LWPOLYLINE
  5
2F6
100
AcDbEntity
  8
RACCORDO
100
AcDbPolyline
 62
253
  6
CONTINUOUS
 90
13
 70
0
 10
169.0440020241
 20
63.0967797554
 10
169.0506076539
 20
63.0646240505
 10
169.0568647638
 20
63.0334723983
 10
169.0626944629
 20
63.0037175661
 10
169.0680232487
 20
62.9757347097
 10
169.0727839349
 20
62.9498766434
 10
169.0769164976
 20
62.9264693918
 10
169.0803688324
 20
62.9058080789
 10
169.0830974115
 20
62.8881532074
 10
169.0850678324
 20
62.873727374
 10
169.0862552515
 20
62.8627124629
 10
169.0866446976
 20
62.8552473528
 10
169.0862312605
 20
62.8514261654
  0
LINE
  5
2F7
100
AcDbEntity
  8
0
100
AcDbLine
 62
7
  6
CONTINUOUS
 10
163.6306359251
 20
75.1251039759
 11
163.6306359251
 21
75.1416477847
  0
LWPOLYLINE
  5
2F8
100
AcDbEntity
  8
0
100
AcDbPolyline
 62
7
  6
CONTINUOUS
 90
34
 70
0
 10
163.4787813957
 20
75.8074731054
 10
163.4786455254
 20
75.7854779718
 10
163.477478963
 20
75.7633111933
 10
163.4752817403
 20
75.7409727759
 10
163.4720494408
 20
75.7183119133
 10
163.4677865436
 20
75.6954794278
 10
163.4625064267
 20
75.6729277531
 10
163.4561696159
 20
75.6506472651
 10
163.4488156522
 20
75.6286475704
 10
163.4405764352
 20
75.6074099183
 10
163.4314650303
 20
75.5870315061
 10
163.4214684198
 20
75.5674150877
 10
163.4106793692
 20
75.5487502269
 10
163.3991435431
 20
75.5310844281
 10
163.3868152997
 20
75.5143701344
 10
163.3736504366
 20
75.4986543133
 10
163.3596284298
 20
75.4839421504
 10
163.3447698067
 20
75.4702284142
 10
163.329091937
 20
75.457544447
 10
163.3125844755
 20
75.4459468822
 10
163.2952577461
 20
75.4353790476
 10
163.2771601172
 20
75.4257023306
 10
163.2582421235
 20
75.4168901314
 10
163.2385531948
 20
75.4089690248
 10
163.2182900426
 20
75.4018801655
 10
163.1973792318
 20
75.3956245705
 10
163.1758941487
 20
75.3902012058
 10
163.1542517388
 20
75.385548151
 10
163.1324840315
 20
75.3816922421
 10
163.1105589475
 20
75.3786066331
 10
163.0887972785
 20
75.3761488827
 10
163.0673059462
 20
75.3742715096
 10
163.045977994
 20
75.3730219912
 10
163.0248134033
 20
75.3724003262
  0
LINE
  5
2F9
100
AcDbEntity
  8
0
100
AcDbLine
 62
7
  6
CONTINUOUS
 10
154.7070357602
 20
73.8182274128
 11
155.6069727602
 21
76.6179304128
  0
LINE
  5
2FA
100
AcDbEntity
  8
0
100
AcDbLine
 62
253
  6
CONTINUOUS
 10
147.4297664187
 20
79.8955639089
 11
147.4845588225
 21
79.9655869599
  0
LINE
  5
2FB
100
AcDbEntity
  8
0
100
AcDbLine
 62
253
  6
CONTINUOUS
 10
147.4845588225
 20
79.9655869599
 11
147.5388393187
 21
80.0341280512
  0
LINE
  5
2FC
100
AcDbEntity
  8
0
100
AcDbLine
 62
253
  6
CONTINUOUS
 10
147.5388393187
 20
80.0341280512
 11
147.5908914226
 21
80.0990197423
  0
LWPOLYLINE
  5
2FD
100
AcDbEntity
  8
0
100
AcDbPolyline
 62
253
  6
CONTINUOUS
 90
12
 70
0
 10
147.5908914226
 20
80.0990197423
 10
147.6390691165
 20
80.1582099961
 10
147.6612228297
 20
80.1850734553
 10
147.6818489015
 20
80.2098270687
 10
147.7007839464
 20
80.2322747551
 10
147.717877974
 20
80.2522386994
 10
147.7329955771
 20
80.2695607611
 10
147.7460170046
 20
80.2841037266
 10
147.7568391096
 20
80.2957523967
 10
147.765376167
 20
80.3044144985
 10
147.7715605519
 20
80.3100214169
 10
147.775343276
 20
80.3125287377
  0
LWPOLYLINE
  5
2FE
100
AcDbEntity
  8
0
100
AcDbPolyline
 62
253
  6
CONTINUOUS
 90
11
 70
0
 10
147.6390703432
 20
125.2338453022
 10
147.6612242073
 20
125.2069816395
 10
147.6818504246
 20
125.1822278314
 10
147.700785606
 20
125.1597799632
 10
147.717879758
 20
125.139815854
 10
147.7329974705
 20
125.1224936479
 10
147.7460189898
 20
125.1079505613
 10
147.7568411669
 20
125.0963017962
 10
147.7653782747
 20
125.0876396274
 10
147.7715626872
 20
125.0820326715
 10
147.775345415
 20
125.0795253435
  0
LINE
  5
2FF
100
AcDbEntity
  8
0
100
AcDbLine
 62
253
  6
CONTINUOUS
 10
147.5908923457
 20
125.2930359705
 11
147.6390703432
 21
125.2338453022
  0
LINE
  5
300
100
AcDbEntity
  8
0
100
AcDbLine
 62
253
  6
CONTINUOUS
 10
147.538839962
 20
125.3579280534
 11
147.5908923457
 21
125.2930359705
  0
LINE
  5
301
100
AcDbEntity
  8
0
100
AcDbLine
 62
253
  6
CONTINUOUS
 10
147.4845592418
 20
125.4264694726
 11
147.538839962
 21
125.3579280534
  0
LINE
  5
302
100
AcDbEntity
  8
0
100
AcDbLine
 62
253
  6
CONTINUOUS
 10
147.4297667009
 20
125.4964927472
 11
147.4845592418
 21
125.4264694726
  0
LWPOLYLINE
  5
303
100
AcDbEntity
  8
0
100
AcDbPolyline
 62
253
  6
CONTINUOUS
 90
19
 70
0
 10
169.2438656145
 20
79.6033977837
 10
169.2437180742
 20
79.646906965
 10
169.2433010651
 20
79.6902694159
 10
169.2426177448
 20
79.7331567753
 10
169.241673288
 20
79.77524428
 10
169.2404748464
 20
79.8162132234
 10
169.2390314953
 20
79.8557533693
 10
169.2373541642
 20
79.893565301
 10
169.2354555549
 20
79.9293626888
 10
169.2333500444
 20
79.9628744578
 10
169.2310535768
 20
79.9938468411
 10
169.2285835418
 20
80.0220453012
 10
169.2259586439
 20
80.0472563059
 10
169.2231987599
 20
80.0692889457
 10
169.220324789
 20
80.0879763789
 10
169.2173584943
 20
80.1031770955
 10
169.214322338
 20
80.1147759885
 10
169.2112393112
 20
80.1226852255
 10
169.2081327602
 20
80.1268449142
  0
LINE
  5
304
100
AcDbEntity
  8
0
100
AcDbLine
 62
253
  6
CONTINUOUS
 10
169.2081327602
 20
80.1960284128
 11
169.208140053
 21
80.1268449324
  0
LINE
  5
305
100
AcDbEntity
  8
0
100
AcDbLine
 62
7
  6
CONTINUOUS
 10
170.0081327602
 20
124.3960284128
 11
170.0081327602
 21
80.9960284128
  0
LINE
  5
306
100
AcDbEntity
  8
0
100
AcDbLine
 62
253
  6
CONTINUOUS
 10
169.2081327602
 20
125.1960284128
 11
169.2081399967
 21
125.2652118933
  0
LWPOLYLINE
  5
307
100
AcDbEntity
  8
0
100
AcDbPolyline
 62
253
  6
CONTINUOUS
 90
19
 70
0
 10
169.2438653762
 20
125.7886588808
 10
169.2437178668
 20
125.7451495833
 10
169.2433008863
 20
125.7017869815
 10
169.2426175926
 20
125.6588994419
 10
169.2416731598
 20
125.6168117334
 10
169.2404747398
 20
125.5758425681
 10
169.2390314078
 20
125.5363021879
 10
169.2373540936
 20
125.4984900152
 10
169.2354554986
 20
125.4626923853
 10
169.2333500003
 20
125.4291803783
 10
169.2310535428
 20
125.3982077663
 10
169.228583516
 20
125.3700090915
 10
169.2259586246
 20
125.3447978905
 10
169.2231987457
 20
125.3227650767
 10
169.2203247787
 20
125.3040774953
 10
169.2173584871
 20
125.2888766594
 10
169.2143223333
 20
125.2772776782
 10
169.2112393089
 20
125.269368386
 10
169.2081327602
 20
125.2652086763
  0
LINE
  5
308
100
AcDbEntity
  8
0
100
AcDbLine
 62
7
  6
CONTINUOUS
 10
160.5128837602
 20
74.8096374128
 11
160.8038697602
 21
75.8486434128
  0
LINE
  5
309
100
AcDbEntity
  8
0
100
AcDbLine
 62
7
  6
CONTINUOUS
 10
160.2320797602
 20
73.8182274128
 11
160.3933397602
 21
74.3771474128
  0
LINE
  5
30A
100
AcDbEntity
  8
0
100
AcDbLine
 62
7
  6
CONTINUOUS
 10
160.5321777602
 20
76.6179304128
 11
159.6540127602
 21
73.8182274128
  0
LINE
  5
30B
100
AcDbEntity
  8
0
100
AcDbLine
 62
7
  6
CONTINUOUS
 10
158.7222267602
 20
76.6179304128
 11
158.1378187602
 21
75.0635264128
  0
LINE
  5
30C
100
AcDbEntity
  8
0
100
AcDbLine
 62
7
  6
CONTINUOUS
 10
158.1756087602
 20
73.8182274128
 11
158.8704697602
 21
75.6387594128
  0
LINE
  5
30D
100
AcDbEntity
  8
0
100
AcDbLine
 62
253
  6
CONTINUOUS
 10
147.2342143643
 20
80.0812556246
 11
147.335459587
 21
80.1683267148
  0
LINE
  5
30E
100
AcDbEntity
  8
0
100
AcDbLine
 62
253
  6
CONTINUOUS
 10
147.335459587
 20
80.1683267148
 11
147.4323373053
 21
80.2507864805
  0
LINE
  5
30F
100
AcDbEntity
  8
0
100
AcDbLine
 62
253
  6
CONTINUOUS
 10
147.4323373053
 20
80.2507864805
 11
147.4910490207
 21
80.3002611202
  0
LINE
  5
310
100
AcDbEntity
  8
0
100
AcDbLine
 62
253
  6
CONTINUOUS
 10
147.4910490207
 20
80.3002611202
 11
147.5428547825
 21
80.3434749217
  0
LWPOLYLINE
  5
311
100
AcDbEntity
  8
0
100
AcDbPolyline
 62
253
  6
CONTINUOUS
 90
8
 70
0
 10
147.5428547825
 20
80.3434749217
 10
147.5861036318
 20
80.3790507357
 10
147.6040765873
 20
80.393609549
 10
147.6194173036
 20
80.4058548219
 10
147.6320033158
 20
80.4156888006
 10
147.6417341498
 20
80.4230329802
 10
147.6485321247
 20
80.427828732
 10
147.6523429721
 20
80.4300377715
  0
LWPOLYLINE
  5
312
100
AcDbEntity
  8
0
100
AcDbPolyline
 62
253
  6
CONTINUOUS
 90
7
 70
0
 10
147.5861002757
 20
125.0130088869
 10
147.6040730326
 20
124.998450259
 10
147.6194135846
 20
124.986205143
 10
147.6319994706
 20
124.9763712894
 10
147.6417302197
 20
124.9690272004
 10
147.6485281529
 20
124.9642315025
 10
147.6523390035
 20
124.9620224789
  0
LINE
  5
313
100
AcDbEntity
  8
0
100
AcDbLine
 62
253
  6
CONTINUOUS
 10
147.5428519078
 20
125.0485842616
 11
147.5861002757
 21
125.0130088869
  0
LINE
  5
314
100
AcDbEntity
  8
0
100
AcDbLine
 62
253
  6
CONTINUOUS
 10
147.4910467024
 20
125.0917975655
 11
147.5428519078
 21
125.0485842616
  0
LINE
  5
315
100
AcDbEntity
  8
0
100
AcDbLine
 62
253
  6
CONTINUOUS
 10
147.4009679505
 20
125.167870331
 11
147.4910467024
 21
125.0917975655
  0
LINE
  5
316
100
AcDbEntity
  8
0
100
AcDbLine
 62
253
  6
CONTINUOUS
 10
147.301839885
 20
125.2525466691
 11
147.4009679505
 21
125.167870331
  0
LINE
  5
317
100
AcDbEntity
  8
0
100
AcDbLine
 62
253
  6
CONTINUOUS
 10
147.2342139223
 20
125.3108014491
 11
147.301839885
 21
125.2525466691
  0
LWPOLYLINE
  5
318
100
AcDbEntity
  8
0
100
AcDbPolyline
 62
253
  6
CONTINUOUS
 90
10
 70
0
 10
170.0864991071
 20
125.4964929199
 10
170.0789932795
 20
127.3445072247
 10
170.0697266071
 20
129.1911838896
 10
170.0587004979
 20
131.0362420754
 10
170.0459167578
 20
132.8794012957
 10
170.0313771984
 20
134.7203811384
 10
170.0150836422
 20
136.5589013098
 10
169.9970384425
 20
138.3946821048
 10
169.9772444779
 20
140.2274444481
 10
169.9557047643
 20
142.0569096167
  0
LINE
  5
319
100
AcDbEntity
  8
0
100
AcDbLine
 62
253
  6
CONTINUOUS
 10
170.0750234497
 20
124.3960635894
 11
170.0886965849
 21
117.1649858311
  0
LINE
  5
31A
100
AcDbEntity
  8
0
100
AcDbLine
 62
253
  6
CONTINUOUS
 10
170.6170525721
 20
124.417678403
 11
170.6306889959
 21
117.1796584056
  0
LINE
  5
31B
100
AcDbEntity
  8
0
100
AcDbLine
 62
253
  6
CONTINUOUS
 10
170.0886965849
 20
117.1649858311
 11
170.0969009528
 21
109.9314505276
  0
LINE
  5
31C
100
AcDbEntity
  8
0
100
AcDbLine
 62
253
  6
CONTINUOUS
 10
170.6306889959
 20
117.1796584056
 11
170.6388531577
 21
109.9386041706
  0
LINE
  5
31D
100
AcDbEntity
  8
0
100
AcDbLine
 62
253
  6
CONTINUOUS
 10
170.0969009528
 20
109.9314505276
 11
170.0996362352
 21
102.6960247976
  0
LINE
  5
31E
100
AcDbEntity
  8
0
100
AcDbLine
 62
253
  6
CONTINUOUS
 10
170.6388531577
 20
109.9386041706
 11
170.6415838492
 21
102.6960285535
  0
LINE
  5
31F
100
AcDbEntity
  8
0
100
AcDbLine
 62
253
  6
CONTINUOUS
 10
170.0996362352
 20
102.6960247976
 11
170.0969009461
 21
95.4605984699
  0
LINE
  5
320
100
AcDbEntity
  8
0
100
AcDbLine
 62
253
  6
CONTINUOUS
 10
170.6415838492
 20
102.6960285535
 11
170.6388531578
 21
95.4534528648
  0
LINE
  5
321
100
AcDbEntity
  8
0
100
AcDbLine
 62
253
  6
CONTINUOUS
 10
170.0969009461
 20
95.4605984699
 11
170.0886965777
 21
88.2270653417
  0
LINE
  5
322
100
AcDbEntity
  8
0
100
AcDbLine
 62
253
  6
CONTINUOUS
 10
170.6388531578
 20
95.4534528648
 11
170.630688996
 21
88.212398528
  0
LINE
  5
323
100
AcDbEntity
  8
0
100
AcDbLine
 62
253
  6
CONTINUOUS
 10
170.0886965777
 20
88.2270653417
 11
170.0750234499
 21
80.9959933821
  0
LINE
  5
324
100
AcDbEntity
  8
0
100
AcDbLine
 62
253
  6
CONTINUOUS
 10
170.630688996
 20
88.212398528
 11
170.6170525721
 21
80.9743784225
  0
LWPOLYLINE
  5
325
100
AcDbEntity
  8
0
100
AcDbPolyline
 62
253
  6
CONTINUOUS
 90
10
 70
0
 10
170.0864991071
 20
79.8955639056
 10
170.0789932796
 20
78.0475496116
 10
170.0697266072
 20
76.2008729572
 10
170.0587004982
 20
74.3558147815
 10
170.0459167473
 20
72.5126555703
 10
170.0313771774
 20
70.6716757363
 10
170.0150836428
 20
68.8331555756
 10
169.9970385069
 20
66.9973747942
 10
169.9772446373
 20
65.1646124664
 10
169.9557050494
 20
63.3351473154
  0
LWPOLYLINE
  5
326
100
AcDbEntity
  8
0
100
AcDbPolyline
 62
253
  6
CONTINUOUS
 90
13
 70
0
 10
170.6170525721
 20
80.9743784225
 10
170.6147529577
 20
80.8950406504
 10
170.6076106173
 20
80.8157813335
 10
170.5956262062
 20
80.7366004721
 10
170.5787439238
 20
80.6569921974
 10
170.5570206181
 20
80.5774623859
 10
170.5306257664
 20
80.4995286245
 10
170.4993362411
 20
80.4232234329
 10
170.4633755915
 20
80.3485142294
 10
170.4235830627
 20
80.2768208892
 10
170.3802382575
 20
80.2086166549
 10
170.3330612105
 20
80.1434281678
 10
170.2820515987
 20
80.0812553761
  0
LWPOLYLINE
  5
327
100
AcDbEntity
  8
0
100
AcDbPolyline
 62
253
  6
CONTINUOUS
 90
13
 70
0
 10
170.075023405
 20
80.9959933822
 10
170.073409176
 20
80.9460224316
 10
170.0688815985
 20
80.8957489913
 10
170.0613716556
 20
80.8453475798
 10
170.050788057
 20
80.7948689549
 10
170.0370993534
 20
80.744641589
 10
170.020413715
 20
80.695249206
 10
170.0007712893
 20
80.646855528
 10
169.9782326499
 20
80.5996543362
 10
169.9530986544
 20
80.5542158457
 10
169.9256028351
 20
80.5107940572
 10
169.8958270627
 20
80.4693663103
 10
169.8639265197
 20
80.4300343441
  0
LWPOLYLINE
  5
328
100
AcDbEntity
  8
RACCORDO
100
AcDbPolyline
 62
253
  6
CONTINUOUS
 90
9
 70
0
 10
177.6159733819
 20
129.5795264205
 10
177.5895776038
 20
130.0245990372
 10
177.5603659006
 20
130.4694636353
 10
177.5283478468
 20
130.9141276788
 10
177.4935247275
 20
131.3585759861
 10
177.4558896213
 20
131.8027707577
 10
177.4154444501
 20
132.2466968666
 10
177.3721998953
 20
132.6903618296
 10
177.3261626415
 20
133.1337618512
  0
LWPOLYLINE
  5
329
100
AcDbEntity
  8
RACCORDO
100
AcDbPolyline
 62
253
  6
CONTINUOUS
 90
9
 70
0
 10
177.8565180544
 20
129.5752039594
 10
177.8301097321
 20
130.0213069167
 10
177.8008897333
 20
130.4672132787
 10
177.7688594771
 20
130.9129073195
 10
177.7340208528
 20
131.3583698984
 10
177.696376329
 20
131.803578473
 10
177.6559281606
 20
132.24851395
 10
177.6126782781
 20
132.693160674
 10
177.5666289218
 20
133.1375012951
  0
LINE
  5
32A
100
AcDbEntity
  8
RACCORDO
100
AcDbLine
 62
253
  6
CONTINUOUS
 10
177.6605353316
 20
128.7097099436
 11
177.6159733819
 21
129.5795264205
  0
LINE
  5
32B
100
AcDbEntity
  8
RACCORDO
100
AcDbLine
 62
253
  6
CONTINUOUS
 10
177.9010320687
 20
128.7049739212
 11
177.8565180544
 21
129.5752039594
  0
LINE
  5
32C
100
AcDbEntity
  8
RACCORDO
100
AcDbLine
 62
253
  6
CONTINUOUS
 10
177.7802383131
 20
126.1609363507
 11
177.6605353316
 21
128.7097099436
  0
LINE
  5
32D
100
AcDbEntity
  8
RACCORDO
100
AcDbLine
 62
253
  6
CONTINUOUS
 10
178.0203276016
 20
126.159780008
 11
177.9010320687
 21
128.7049739212
  0
LINE
  5
32E
100
AcDbEntity
  8
RACCORDO
100
AcDbLine
 62
253
  6
CONTINUOUS
 10
178.0577194611
 20
125.3108327473
 11
178.0203276016
 21
126.159780008
  0
LWPOLYLINE
  5
32F
100
AcDbEntity
  8
RACCORDO
100
AcDbPolyline
 62
253
  6
CONTINUOUS
 90
15
 70
0
 10
177.9264016493
 20
82.6563821723
 10
178.0235243504
 20
85.377668171
 10
178.1085790819
 20
88.2451182349
 10
178.182914411
 20
91.2909583156
 10
178.2439272327
 20
94.4829140565
 10
178.285461354
 20
97.7241669483
 10
178.3054968908
 20
101.0146137016
 10
178.3055771331
 20
104.354099475
 10
178.2856730862
 20
107.645674328
 10
178.244223184
 20
110.8894873613
 10
178.1832558955
 20
114.0851303384
 10
178.1089140623
 20
117.1348712449
 10
178.0237982478
 20
120.0061310551
 10
177.9265637404
 20
122.7314395433
 10
177.7802383131
 20
126.1609363507
  0
LWPOLYLINE
  5
330
100
AcDbEntity
  8
RACCORDO
100
AcDbPolyline
 62
253
  6
CONTINUOUS
 90
15
 70
0
 10
178.162782507
 20
82.6563661563
 10
178.2602065754
 20
85.3776526619
 10
178.3476083484
 20
88.2450970184
 10
178.4231113938
 20
91.2909435583
 10
178.4830319197
 20
94.4829116103
 10
178.5239289236
 20
97.7241595549
 10
178.5449499239
 20
101.0146060233
 10
178.5450242666
 20
104.3541072607
 10
178.5241399847
 20
107.645681769
 10
178.4833415234
 20
110.8894898358
 10
178.4234604543
 20
114.0851451481
 10
178.3479422604
 20
117.1348925098
 10
178.2604805264
 20
120.0061465904
 10
178.1629451453
 20
122.7314556401
 10
178.0577194611
 20
125.3108327473
  0
LINE
  5
331
100
AcDbEntity
  8
RACCORDO
100
AcDbLine
 62
253
  6
CONTINUOUS
 10
178.0203276341
 20
79.2322775455
 11
178.162782507
 21
82.6563661563
  0
LINE
  5
332
100
AcDbEntity
  8
RACCORDO
100
AcDbLine
 62
253
  6
CONTINUOUS
 10
177.741524839
 20
78.3812491027
 11
177.9264016493
 21
82.6563821723
  0
LINE
  5
333
100
AcDbEntity
  8
RACCORDO
100
AcDbLine
 62
253
  6
CONTINUOUS
 10
177.9010321147
 20
76.6870838403
 11
178.0203276341
 21
79.2322775455
  0
LINE
  5
334
100
AcDbEntity
  8
RACCORDO
100
AcDbLine
 62
253
  6
CONTINUOUS
 10
177.6395481856
 20
76.2578071745
 11
177.741524839
 21
78.3812491027
  0
LWPOLYLINE
  5
335
100
AcDbEntity
  8
RACCORDO
100
AcDbPolyline
 62
253
  6
CONTINUOUS
 90
10
 70
0
 10
177.5666310995
 20
72.2545758898
 10
177.6126795475
 20
72.6989087812
 10
177.6559288033
 20
73.1435497071
 10
177.6963765896
 20
73.5884813217
 10
177.7340209978
 20
74.0336887051
 10
177.7688596672
 20
74.4791520362
 10
177.8008899415
 20
74.9248465778
 10
177.8301098908
 20
75.3707524562
 10
177.8565181556
 20
75.8168546772
 10
177.9010321147
 20
76.6870838403
  0
LWPOLYLINE
  5
336
100
AcDbEntity
  8
RACCORDO
100
AcDbPolyline
 62
253
  6
CONTINUOUS
 90
10
 70
0
 10
177.3261626415
 20
72.2582949743
 10
177.3722001776
 20
72.7016980374
 10
177.4154449324
 20
73.1453652899
 10
177.4558902225
 20
73.5892929359
 10
177.4935253552
 20
74.0334885006
 10
177.5283484222
 20
74.4779368472
 10
177.560366382
 20
74.9226001476
 10
177.5895779633
 20
75.3674632102
 10
177.6159735804
 20
75.8125335079
 10
177.6395481856
 20
76.2578071745
  0
LWPOLYLINE
  5
337
100
AcDbEntity
  8
RACCORDO
100
AcDbPolyline
 62
253
  6
CONTINUOUS
 90
13
 70
0
 10
177.8177596176
 20
125.3108014494
 10
177.8495944125
 20
125.3118707575
 10
177.8803314099
 20
125.3127643181
 10
177.9096004462
 20
125.3134713703
 10
177.9370490362
 20
125.3139833989
 10
177.9623466186
 20
125.3142942377
 10
177.9851885361
 20
125.3144001432
 10
178.0052997051
 20
125.31429984
 10
178.0224379281
 20
125.3139945362
 10
178.0363968106
 20
125.3134879083
 10
178.0470082468
 20
125.3127860578
 10
178.0541444438
 20
125.3118974369
 10
178.0577194609
 20
125.3108327473
  0
LWPOLYLINE
  5
338
100
AcDbEntity
  8
0
100
AcDbPolyline
 62
253
  6
CONTINUOUS
 90
14
 70
0
 10
170.3981886737
 20
124.4158747858
 10
170.3572434332
 20
124.4150234714
 10
170.3180209967
 20
124.4140214175
 10
170.2808326225
 20
124.4128765762
 10
170.2459734271
 20
124.4115980325
 10
170.2137200433
 20
124.4101959327
 10
170.1843284251
 20
124.4086814034
 10
170.158031816
 20
124.4070664636
 10
170.1350388986
 20
124.4053639288
 10
170.1155321383
 20
124.40358731
 10
170.0996663352
 20
124.4017507058
 10
170.087567396
 20
124.3998686912
 10
170.0793313344
 20
124.3979562012
 10
170.0750235095
 20
124.3960284128
  0
LINE
  5
339
100
AcDbEntity
  8
0
100
AcDbLine
 62
253
  6
CONTINUOUS
 10
170.4839367536
 20
124.4170994228
 11
170.3981886737
 21
124.4158747858
  0
LINE
  5
33A
100
AcDbEntity
  8
0
100
AcDbLine
 62
253
  6
CONTINUOUS
 10
170.0081327602
 20
124.3960284128
 11
170.0750234497
 21
124.3960635894
  0
LWPOLYLINE
  5
33B
100
AcDbEntity
  8
0
100
AcDbPolyline
 62
253
  6
CONTINUOUS
 90
3
 70
0
 10
170.6170525715
 20
124.4176784027
 10
170.5725487452
 20
124.4176565322
 10
170.4839367536
 20
124.4170994228
  0
LINE
  5
33C
100
AcDbEntity
  8
0
100
AcDbLine
 62
253
  6
CONTINUOUS
 10
147.5081327602
 20
124.3960284128
 11
147.4412420704
 21
124.3960634434
  0
LINE
  5
33D
100
AcDbEntity
  8
0
100
AcDbLine
 62
253
  6
CONTINUOUS
 10
146.8992132514
 20
124.4176782496
 11
146.9882069782
 21
124.4174629068
  0
LWPOLYLINE
  5
33E
100
AcDbEntity
  8
0
100
AcDbPolyline
 62
253
  6
CONTINUOUS
 90
16
 70
0
 10
146.9882069782
 20
124.4174629068
 10
147.075734719
 20
124.4165685129
 10
147.1180780715
 20
124.4158747061
 10
147.1590235637
 20
124.4150234028
 10
147.1982462588
 20
124.4140213588
 10
147.2354348921
 20
124.4128765263
 10
147.2702943409
 20
124.4115979903
 10
147.3025479663
 20
124.4101958972
 10
147.331939809
 20
124.4086813737
 10
147.3582366201
 20
124.407066439
 10
147.3812297127
 20
124.4053639088
 10
147.4007366173
 20
124.4035872941
 10
147.4166025304
 20
124.4017506939
 10
147.4287015427
 20
124.3998686831
 10
147.4369376386
 20
124.3979561971
 10
147.4412454576
 20
124.396028413
  0
LWPOLYLINE
  5
33F
100
AcDbEntity
  8
RACCORDO
100
AcDbPolyline
 62
253
  6
CONTINUOUS
 90
13
 70
0
 10
139.6985059024
 20
125.3108014494
 10
139.6666711077
 20
125.3118707575
 10
139.6359341107
 20
125.3127643182
 10
139.6066650747
 20
125.3134713703
 10
139.579216485
 20
125.3139833989
 10
139.5539189031
 20
125.3142942376
 10
139.531076986
 20
125.3144001431
 10
139.5109658174
 20
125.3142998399
 10
139.4938275948
 20
125.3139945361
 10
139.4798687126
 20
125.3134879082
 10
139.4692572768
 20
125.3127860577
 10
139.4621210802
 20
125.3118974368
 10
139.4585460635
 20
125.3108327472
  0
LWPOLYLINE
  5
340
100
AcDbEntity
  8
0
100
AcDbPolyline
 62
253
  6
CONTINUOUS
 90
10
 70
0
 10
170.2820515987
 20
80.0812553761
 10
170.2646880288
 20
80.0614318143
 10
170.2462610703
 20
80.041370019
 10
170.2267707004
 20
80.0210699951
 10
170.2062537857
 20
80.0004837241
 10
170.1846734087
 20
79.9796592346
 10
170.1619188612
 20
79.9587405993
 10
170.1379532107
 20
79.9377758426
 10
170.1128133078
 20
79.916716944
 10
170.0864991071
 20
79.8955639056
  0
LWPOLYLINE
  5
341
100
AcDbEntity
  8
0
100
AcDbPolyline
 62
253
  6
CONTINUOUS
 90
10
 70
0
 10
169.8639265197
 20
80.4300343441
 10
169.8529704472
 20
80.4175443734
 10
169.8413868425
 20
80.4048438279
 10
169.8291548425
 20
80.3919606403
 10
169.8162570161
 20
80.3789279137
 10
169.8026699606
 20
80.3657734438
 10
169.7883636731
 20
80.3525204745
 10
169.7733147065
 20
80.3392015178
 10
169.7575070597
 20
80.3258576844
 10
169.7409222839
 20
80.312528687
  0
LWPOLYLINE
  5
342
100
AcDbEntity
  8
0
100
AcDbPolyline
 62
7
  6
CONTINUOUS
 90
48
 70
0
 10
163.7467463655
 20
75.2143703663
 10
163.758855483
 20
75.2248798868
 10
163.7711689011
 20
75.2359089781
 10
163.7837083946
 20
75.2474420373
 10
163.7964522043
 20
75.2594946853
 10
163.8093099298
 20
75.2722383074
 10
163.8223029593
 20
75.2856672187
 10
163.8354099221
 20
75.2997871317
 10
163.8484762804
 20
75.3147865365
 10
163.8614970671
 20
75.3306884865
 10
163.8744772642
 20
75.3474699701
 10
163.8872772548
 20
75.3652503889
 10
163.8998933374
 20
75.3840336227
 10
163.912329219
 20
75.4038158473
 10
163.9244563897
 20
75.4247049157
 10
163.9363002665
 20
75.4467161079
 10
163.9478354233
 20
75.469834216
 10
163.958857075
 20
75.49412137
 10
163.9693781888
 20
75.5195468293
 10
163.9793857614
 20
75.5461414205
 10
163.9886360323
 20
75.5740596364
 10
163.9971547669
 20
75.6033304247
 10
164.0049161227
 20
75.6339249506
 10
164.0115988976
 20
75.6659110454
 10
164.0172140435
 20
75.6992832373
 10
164.0217504691
 20
75.7340471308
 10
164.0248538639
 20
75.7702871831
 10
164.0265676668
 20
75.8080682912
 10
164.0268482143
 20
75.8473257175
 10
164.0252104843
 20
75.8879494693
 10
164.0217894812
 20
75.930037172
 10
164.0164498677
 20
75.9734913632
 10
164.0083010217
 20
76.0179093901
 10
163.9972512735
 20
76.0635801046
 10
163.9833917798
 20
76.1102147848
 10
163.9661061145
 20
76.1565443071
 10
163.9449715086
 20
76.2027579021
 10
163.9204101905
 20
76.2486662983
 10
163.8930734245
 20
76.2924324171
 10
163.8627930709
 20
76.3337278486
 10
163.8297371446
 20
76.3728807254
 10
163.79506149
 20
76.4090386286
 10
163.7585706563
 20
76.442134241
 10
163.7204603114
 20
76.4722345844
 10
163.6824733093
 20
76.4986886952
 10
163.6451908537
 20
76.5212794908
 10
163.6080323109
 20
76.5402238001
 10
163.5709979293
 20
76.5555215277
  0
LWPOLYLINE
  5
343
100
AcDbEntity
  8
0
100
AcDbPolyline
 62
253
  6
CONTINUOUS
 90
13
 70
0
 10
169.7409222839
 20
80.312528687
 10
169.7025876243
 20
80.2841386117
 10
169.6625542037
 20
80.2577616427
 10
169.6209206559
 20
80.2335098022
 10
169.57766487
 20
80.2114290291
 10
169.533022679
 20
80.1916987051
 10
169.487520697
 20
80.1745581088
 10
169.4413634973
 20
80.1600451519
 10
169.3946515076
 20
80.148154209
 10
169.3477953115
 20
80.1389378796
 10
169.3010374011
 20
80.1323614524
 10
169.2544389842
 20
80.1283508742
 10
169.208140053
 20
80.1268449551
  0
LWPOLYLINE
  5
344
100
AcDbEntity
  8
0
100
AcDbPolyline
 62
253
  6
CONTINUOUS
 90
13
 70
0
 10
170.0864991071
 20
79.8955639056
 10
170.0256505489
 20
79.8505079148
 10
169.9624146698
 20
79.8089687414
 10
169.8967913649
 20
79.7709462517
 10
169.8283520546
 20
79.7362410893
 10
169.7575249532
 20
79.705052378
 10
169.6855951674
 20
79.6779777029
 10
169.612604074
 20
79.655205711
 10
169.5385098723
 20
79.6365475574
 10
169.464473041
 20
79.6220345948
 10
169.39088032
 20
79.6116772407
 10
169.3173445918
 20
79.6054649782
 10
169.2438656162
 20
79.6033977826
  0
LWPOLYLINE
  5
345
100
AcDbEntity
  8
0
100
AcDbPolyline
 62
7
  6
CONTINUOUS
 90
5
 70
0
 10
163.6891627571
 20
75.1677161235
 10
163.7006289725
 20
75.1761579661
 10
163.7119894778
 20
75.1850084136
 10
163.723313369
 20
75.1944346353
 10
163.7467463655
 20
75.2143703663
  0
LINE
  5
346
100
AcDbEntity
  8
RACCORDO
100
AcDbLine
 62
253
  6
CONTINUOUS
 10
178.0584457814
 20
129.1383697791
 11
177.8801131945
 21
129.1289218588
  0
LWPOLYLINE
  5
347
100
AcDbEntity
  8
RACCORDO
100
AcDbPolyline
 62
253
  6
CONTINUOUS
 90
13
 70
0
 10
177.6395481857
 20
129.134249651
 10
177.6714135425
 20
129.1353174759
 10
177.7021879685
 20
129.136117173
 10
177.7315003713
 20
129.1366390993
 10
177.7589972885
 20
129.1368769612
 10
177.7843471496
 20
129.1368278904
 10
177.8072442743
 20
129.1364924787
 10
177.8274125584
 20
129.1358747705
 10
177.8446088035
 20
129.1349822145
 10
177.8586256493
 20
129.1338255736
 10
177.8692940743
 20
129.132418795
 10
177.8764854336
 20
129.1307788424
 10
177.8801130105
 20
129.128925491
  0
LWPOLYLINE
  5
348
100
AcDbEntity
  8
0
100
AcDbPolyline
 62
253
  6
CONTINUOUS
 90
10
 70
0
 10
148.3081250357
 20
125.2652118921
 10
150.6285742738
 20
125.2729420402
 10
152.9499128733
 20
125.2787396478
 10
155.2721408342
 20
125.2826047147
 10
157.5958524229
 20
125.2845372363
 10
159.920453373
 20
125.2845372173
 10
162.2441608854
 20
125.282604672
 10
164.5663806936
 20
125.2787396053
 10
166.887707064
 20
125.2729420124
 10
169.2081399967
 20
125.2652118933
  0
LWPOLYLINE
  5
349
100
AcDbEntity
  8
0
100
AcDbPolyline
 62
253
  6
CONTINUOUS
 90
10
 70
0
 10
148.2723999041
 20
125.7886590429
 10
150.5998194737
 20
125.7964150414
 10
152.9292939607
 20
125.8022320276
 10
155.2602379283
 20
125.8061100123
 10
157.5920686817
 20
125.8080490028
 10
159.9241971127
 20
125.8080490027
 10
162.2560278387
 20
125.8061100121
 10
164.5869717513
 20
125.8022320275
 10
166.9164461561
 20
125.7964150414
 10
169.2438656162
 20
125.7886590429
  0
LINE
  5
34A
100
AcDbEntity
  8
0
100
AcDbLine
 62
7
  6
CONTINUOUS
 10
169.2081327602
 20
125.1960284128
 11
148.3081327602
 21
125.1960284128
  0
LINE
  5
34B
100
AcDbEntity
  8
0
100
AcDbLine
 62
253
  6
CONTINUOUS
 10
147.2342139217
 20
125.3108014494
 11
139.698506032
 21
125.3108044104
  0
LINE
  5
34C
100
AcDbEntity
  8
0
100
AcDbLine
 62
253
  6
CONTINUOUS
 10
170.2820515987
 20
125.3108014494
 11
177.8177594998
 21
125.3108041488
  0
LWPOLYLINE
  5
34D
100
AcDbEntity
  8
0
100
AcDbPolyline
 62
253
  6
CONTINUOUS
 90
13
 70
0
 10
169.2438656162
 20
125.7886590429
 10
169.3173445925
 20
125.7865918521
 10
169.3908803211
 20
125.7803795925
 10
169.4644730423
 20
125.7700222394
 10
169.5385098733
 20
125.7555092752
 10
169.6126040745
 20
125.7368511182
 10
169.6855951671
 20
125.7140791229
 10
169.7575249516
 20
125.6870044449
 10
169.8283520514
 20
125.655815731
 10
169.896791361
 20
125.6211105673
 10
169.9624146664
 20
125.5830880783
 10
170.0256505467
 20
125.541548907
 10
170.0864991071
 20
125.4964929199
  0
LWPOLYLINE
  5
34E
100
AcDbEntity
  8
0
100
AcDbPolyline
 62
253
  6
CONTINUOUS
 90
13
 70
0
 10
169.2081399967
 20
125.2652118707
 10
169.2544389531
 20
125.2637059532
 10
169.3010373888
 20
125.2596953746
 10
169.3477953115
 20
125.2531189459
 10
169.3946515116
 20
125.2439026156
 10
169.4413634991
 20
125.232011673
 10
169.4875206967
 20
125.2174987167
 10
169.5330226787
 20
125.2003581205
 10
169.5776648698
 20
125.1806277965
 10
169.6209206558
 20
125.1585470234
 10
169.6625542036
 20
125.1342951829
 10
169.7025876243
 20
125.1079182138
 10
169.7409222839
 20
125.0795281385
  0
LWPOLYLINE
  5
34F
100
AcDbEntity
  8
RACCORDO
100
AcDbPolyline
 62
253
  6
CONTINUOUS
 90
13
 70
0
 10
139.8767173348
 20
129.134249651
 10
139.8448519776
 20
129.1353174759
 10
139.8140775513
 20
129.136117173
 10
139.7847651481
 20
129.1366390994
 10
139.7572682305
 20
129.1368769613
 10
139.7319183691
 20
129.1368278905
 10
139.709021244
 20
129.1364924788
 10
139.6888529595
 20
129.1358747707
 10
139.6716567141
 20
129.1349822147
 10
139.6576398679
 20
129.1338255738
 10
139.6469714427
 20
129.1324187952
 10
139.6397800832
 20
129.1307788426
 10
139.636152506
 20
129.1289254912
  0
LINE
  5
350
100
AcDbEntity
  8
RACCORDO
100
AcDbLine
 62
253
  6
CONTINUOUS
 10
139.457819739
 20
129.1383697791
 11
139.6361522835
 21
129.1289210367
  0
LWPOLYLINE
  5
351
100
AcDbEntity
  8
0
100
AcDbPolyline
 62
253
  6
CONTINUOUS
 90
10
 70
0
 10
169.7409222839
 20
125.0795281385
 10
169.7574950151
 20
125.0662090623
 10
169.7732940598
 20
125.0528731567
 10
169.7883376844
 20
125.0395598905
 10
169.8026417188
 20
125.026310137
 10
169.8162294147
 20
125.0131562193
 10
169.8291305598
 20
125.0001212425
 10
169.8413683719
 20
124.9872328544
 10
169.852960125
 20
124.9745239994
 10
169.8639265197
 20
124.9620224814
  0
LWPOLYLINE
  5
352
100
AcDbEntity
  8
0
100
AcDbPolyline
 62
253
  6
CONTINUOUS
 90
10
 70
0
 10
170.0864991071
 20
125.4964929199
 10
170.1127948188
 20
125.4753559851
 10
170.1379210676
 20
125.4543093773
 10
170.1618778983
 20
125.4333530988
 10
170.1846287434
 20
125.4124394128
 10
170.2062102522
 20
125.3916160596
 10
170.2267322842
 20
125.3710262598
 10
170.2462314741
 20
125.350717758
 10
170.264671238
 20
125.3306428197
 10
170.2820515987
 20
125.3108014494
  0
LWPOLYLINE
  5
353
100
AcDbEntity
  8
0
100
AcDbPolyline
 62
253
  6
CONTINUOUS
 90
13
 70
0
 10
170.2820515987
 20
125.3108014494
 10
170.3330720692
 20
125.2486124364
 10
170.3802568084
 20
125.1834110283
 10
170.4236061393
 20
125.1151971733
 10
170.463399264
 20
125.0434974106
 10
170.4993573427
 20
124.968785085
 10
170.5306434194
 20
124.8924803784
 10
170.557034082
 20
124.8145519763
 10
170.5787523207
 20
124.7350311313
 10
170.5956305354
 20
124.6554319355
 10
170.6076125038
 20
124.5762591008
 10
170.6147534011
 20
124.4970079232
 10
170.6170525721
 20
124.417678403
  0
LWPOLYLINE
  5
354
100
AcDbEntity
  8
0
100
AcDbPolyline
 62
253
  6
CONTINUOUS
 90
13
 70
0
 10
169.8639265197
 20
124.9620224814
 10
169.8958335899
 20
124.9226819797
 10
169.9256135667
 20
124.8812468823
 10
169.9531115425
 20
124.8378192332
 10
169.9782459538
 20
124.7923766484
 10
170.0007836157
 20
124.7451733631
 10
170.0204240558
 20
124.6967797816
 10
170.0371068407
 20
124.6473906674
 10
170.0507925879
 20
124.5971690417
 10
170.0613740104
 20
124.5466960927
 10
170.0688826117
 20
124.4962993488
 10
170.0734094231
 20
124.4460303584
 10
170.0750234046
 20
124.3960635893
  0
LWPOLYLINE
  5
355
100
AcDbEntity
  8
RACCORDO
100
AcDbPolyline
 62
253
  6
CONTINUOUS
 90
31
 70
0
 10
177.3261626415
 20
133.1337618512
 10
177.2744298581
 20
133.5407528926
 10
177.2071606328
 20
133.9439420618
 10
177.1243841905
 20
134.3433294618
 10
177.0259379644
 20
134.7395194338
 10
176.9120389726
 20
135.1319078875
 10
176.7832850615
 20
135.5186840426
 10
176.6396605188
 20
135.8997573403
 10
176.4812298162
 20
136.2752229672
 10
176.3087101994
 20
136.6435519171
 10
176.1221037335
 20
137.0046867931
 10
175.9214478546
 20
137.3586931857
 10
175.7075103401
 20
137.7042293312
 10
175.4802948801
 20
138.0412682507
 10
175.2398259137
 20
138.3698481579
 10
174.9868986409
 20
138.6887274956
 10
174.7213429295
 20
138.9980268207
 10
174.4433441839
 20
139.2976391854
 10
174.1542259017
 20
139.5859842049
 10
173.8540249231
 20
139.8629277514
 10
173.5427044888
 20
140.1286200465
 10
173.2214718126
 20
140.3819092862
 10
172.8901388171
 20
140.6228389461
 10
172.5488785689
 20
140.8513822679
 10
172.1994338271
 20
141.0662834979
 10
171.8415496779
 20
141.2675086655
 10
171.4754503823
 20
141.4551082845
 10
171.1035913278
 20
141.6279542547
 10
170.7267754104
 20
141.7856758068
 10
170.3441548074
 20
141.9286587409
 10
169.9557047643
 20
142.0569096167
  0
LWPOLYLINE
  5
356
100
AcDbEntity
  8
RACCORDO
100
AcDbPolyline
 62
253
  6
CONTINUOUS
 90
31
 70
0
 10
177.5666289686
 20
133.1375013003
 10
177.5138063999
 20
133.5544203288
 10
177.4448142625
 20
133.9686095629
 10
177.3598015596
 20
134.3794415194
 10
177.2589416453
 20
134.7862931343
 10
177.1424318669
 20
135.1885577878
 10
177.0104916709
 20
135.5856461624
 10
176.8633796095
 20
135.9769237227
 10
176.7013471631
 20
136.3618586122
 10
176.5246186776
 20
136.7400267046
 10
176.3335063652
 20
137.1108274864
 10
176.1283048001
 20
137.473756725
 10
175.9091970577
 20
137.8285321781
 10
175.6765226157
 20
138.1745947315
 10
175.4306134018
 20
138.5114446407
 10
175.1716069025
 20
138.838868287
 10
174.8997235711
 20
139.1564899941
 10
174.6154563474
 20
139.4636435
 10
174.3193650367
 20
139.7596922932
 10
174.0119853404
 20
140.0440798083
 10
173.6936682303
 20
140.3164624149
 10
173.3647243336
 20
140.5765489212
 10
173.0254914935
 20
140.8240017221
 10
172.676578355
 20
141.0583085831
 10
172.3187275046
 20
141.2789524667
 10
171.9523251985
 20
141.4856669791
 10
171.5780601565
 20
141.6780356401
 10
171.1972044649
 20
141.8554550223
 10
170.810604683
 20
142.0176356704
 10
170.4186369797
 20
142.1645125338
 10
170.0219141608
 20
142.295936373
  0
LINE
  5
357
100
AcDbEntity
  8
RACCORDO
100
AcDbLine
 62
253
  6
CONTINUOUS
 10
177.7294784271
 20
133.1557055982
 11
177.5666289686
 21
133.1375013003
  0
LWPOLYLINE
  5
358
100
AcDbEntity
  8
RACCORDO
100
AcDbPolyline
 62
253
  6
CONTINUOUS
 90
13
 70
0
 10
177.3261626391
 20
133.13376185
 10
177.3578747235
 20
133.1364945293
 10
177.3885161908
 20
133.1388436143
 10
177.4177185378
 20
133.1407808544
 10
177.4451305689
 20
133.1422829516
 10
177.4704226191
 20
133.1433318414
 10
177.4932905189
 20
133.1439149095
 10
177.5134592524
 20
133.1440251437
 10
177.5306862647
 20
133.1436612183
 10
177.5447643788
 20
133.1428275101
 10
177.5555242872
 20
133.1415340453
 10
177.5628365882
 20
133.1397963797
 10
177.566613342
 20
133.1376354108
  0
LWPOLYLINE
  5
359
100
AcDbEntity
  8
RACCORDO
100
AcDbPolyline
 62
253
  6
CONTINUOUS
 90
13
 70
0
 10
140.1901028788
 20
133.1337618513
 10
140.1583906848
 20
133.1364945507
 10
140.1277490997
 20
133.1388436551
 10
140.0985466298
 20
133.1407809135
 10
140.0711344739
 20
133.1422830275
 10
140.0458423001
 20
133.1433319324
 10
140.0229742808
 20
133.1439150136
 10
140.0028054347
 20
133.1440252589
 10
139.9855783192
 20
133.1436613422
 10
139.9715001135
 20
133.1428276403
 10
139.960740127
 20
133.1415341795
 10
139.9534277631
 20
133.1397965154
 10
139.9496509626
 20
133.1376355457
  0
LINE
  5
35A
100
AcDbEntity
  8
RACCORDO
100
AcDbLine
 62
253
  6
CONTINUOUS
 10
139.7867870933
 20
133.1557055982
 11
139.9496344208
 21
133.1374809357
  0
LWPOLYLINE
  5
35B
100
AcDbEntity
  8
RACCORDO
100
AcDbPolyline
 62
253
  6
CONTINUOUS
 90
31
 70
0
 10
170.0219141608
 20
63.0961204525
 10
170.4185145202
 20
63.2275010802
 10
170.8103918483
 20
63.3743366777
 10
171.1969325154
 20
63.5364814869
 10
171.5777653611
 20
63.7138768406
 10
171.9520361366
 20
63.9062340986
 10
172.3184535698
 20
64.112942721
 10
172.6763276261
 20
64.333586853
 10
173.025272033
 20
64.5679014652
 10
173.3645290854
 20
64.8153595931
 10
173.6934812095
 20
65.0754405483
 10
174.0118010088
 20
65.3478129827
 10
174.3191916651
 20
65.6321977822
 10
174.6153090074
 20
65.9282601941
 10
174.8996080852
 20
66.2354370984
 10
175.1715186087
 20
66.5530812544
 10
175.4305448366
 20
66.8805219758
 10
175.6764699614
 20
67.217386961
 10
175.9091569607
 20
67.5634624471
 10
176.1282736816
 20
67.918247461
 10
176.3334815987
 20
68.2811834855
 10
176.5245995259
 20
68.6519911284
 10
176.7013335762
 20
69.0301676141
 10
176.8633707683
 20
69.4151109183
 10
177.0104862795
 20
69.8063954464
 10
177.1424283147
 20
70.2034876164
 10
177.2589391441
 20
70.605754383
 10
177.3598003199
 20
71.0126098543
 10
177.4448145151
 20
71.4234486144
 10
177.5138078622
 20
71.8376464542
 10
177.5666311532
 20
72.2545758838
  0
LWPOLYLINE
  5
35C
100
AcDbEntity
  8
RACCORDO
100
AcDbPolyline
 62
253
  6
CONTINUOUS
 90
31
 70
0
 10
169.9557050494
 20
63.3351473154
 10
170.3440412502
 20
63.4633519168
 10
170.7265775531
 20
63.6062976785
 10
171.1033387241
 20
63.7639911627
 10
171.4751796108
 20
63.9368190873
 10
171.8412903115
 20
64.1244097731
 10
172.1991944051
 20
64.3256323806
 10
172.5486656288
 20
64.5405396463
 10
172.8899609224
 20
64.7690953863
 10
173.2213225232
 20
65.0100344463
 10
173.5425680831
 20
65.2633230238
 10
173.8538949494
 20
65.5290116311
 10
174.1541087349
 20
65.8059601872
 10
174.4432542024
 20
66.0943263219
 10
174.7212865296
 20
66.3939685179
 10
174.9868710679
 20
66.7032959169
 10
175.2398182357
 20
67.022198277
 10
175.4803023324
 20
67.3507994449
 10
175.7075295156
 20
67.6878572571
 10
175.9214750761
 20
68.0334089272
 10
176.1221355869
 20
68.3874284714
 10
176.3087454286
 20
68.7485765144
 10
176.4812679262
 20
69.1169200155
 10
176.6397002488
 20
69.4924002095
 10
176.7833250191
 20
69.8734863727
 10
176.912078167
 20
70.2602787211
 10
177.0259749975
 20
70.6526816662
 10
177.1244163358
 20
71.0488676045
 10
177.2071847401
 20
71.4482268215
 10
177.2744432422
 20
71.8513692487
 10
177.3261626415
 20
72.2582949743
  0
LWPOLYLINE
  5
35D
100
AcDbEntity
  8
RACCORDO
100
AcDbPolyline
 62
253
  6
CONTINUOUS
 90
10
 70
0
 10
148.472263496
 20
142.2952770706
 10
148.3699512581
 20
142.2728415039
 10
148.2678890656
 20
142.2493929395
 10
148.1660766506
 20
142.2249313009
 10
148.0645090305
 20
142.1994555092
 10
147.9631906641
 20
142.1729664812
 10
147.8621354525
 20
142.1454671301
 10
147.7613478629
 20
142.1169583668
 10
147.660822929
 20
142.0874391001
 10
147.5605604077
 20
142.0569092353
  0
LWPOLYLINE
  5
35E
100
AcDbEntity
  8
RACCORDO
100
AcDbPolyline
 62
253
  6
CONTINUOUS
 90
10
 70
0
 10
148.4300402824
 20
142.5406319905
 10
148.3250446938
 20
142.5176017611
 10
148.2202889311
 20
142.4935276434
 10
148.1157834086
 20
142.4684122111
 10
148.0115472806
 20
142.4422604092
 10
147.9075820894
 20
142.4150729264
 10
147.8038719917
 20
142.3868453268
 10
147.7004188022
 20
142.3575772942
 10
147.5972417648
 20
142.327273501
 10
147.4943513596
 20
142.295936373
  0
LWPOLYLINE
  5
35F
100
AcDbEntity
  8
RACCORDO
100
AcDbPolyline
 62
253
  6
CONTINUOUS
 90
22
 70
0
 10
153.4257315345
 20
143.0419505609
 10
153.1876939889
 20
143.0201643903
 10
152.9498616143
 20
142.9969973458
 10
152.7122339496
 20
142.972449321
 10
152.4748074788
 20
142.9465189121
 10
152.2375848094
 20
142.9192072913
 10
152.0005746754
 20
142.890518207
 10
151.7637767993
 20
142.860451773
 10
151.527190587
 20
142.8290076083
 10
151.2908243092
 20
142.7961887111
 10
151.0546775499
 20
142.7619951629
 10
150.8187498939
 20
142.7264265802
 10
150.5830496251
 20
142.6894852551
 10
150.3475763276
 20
142.6511712483
 10
150.1123296302
 20
142.6114841632
 10
149.8773178962
 20
142.5704255971
 10
149.6425405329
 20
142.5279955527
 10
149.4079973939
 20
142.4841936584
 10
149.1736975243
 20
142.4390209415
 10
148.9396437096
 20
142.392477611
 10
148.7058324766
 20
142.3445630569
 10
148.472263496
 20
142.2952770706
  0
LWPOLYLINE
  5
360
100
AcDbEntity
  8
RACCORDO
100
AcDbPolyline
 62
253
  6
CONTINUOUS
 90
22
 70
0
 10
153.4099629893
 20
143.2913777623
 10
153.1706227415
 20
143.269471731
 10
152.9314846637
 20
143.2461741264
 10
152.6925567525
 20
143.2214869842
 10
152.4538565712
 20
143.1954134767
 10
152.2153824788
 20
143.1679547507
 10
151.9771136949
 20
143.1391093643
 10
151.7390541388
 20
143.1088784964
 10
151.5012158463
 20
143.0772643837
 10
151.2635902874
 20
143.0442664421
 10
151.0261854392
 20
143.0098862242
 10
150.7890092742
 20
142.9741253322
 10
150.5520533207
 20
142.936982744
 10
150.3153255538
 20
142.8984598572
 10
150.0788339733
 20
142.8585581237
 10
149.8425702245
 20
142.817276094
 10
149.6065423961
 20
142.7746150321
 10
149.3707584245
 20
142.7305762253
 10
149.1352098194
 20
142.6851577496
 10
148.899899143
 20
142.6383595837
 10
148.6648399488
 20
142.5901839324
 10
148.4300402825
 20
142.5406319901
  0
LWPOLYLINE
  5
361
100
AcDbEntity
  8
RACCORDO
100
AcDbPolyline
 62
253
  6
CONTINUOUS
 90
10
 70
0
 10
164.0905339858
 20
143.0419505609
 10
162.9070775144
 20
143.1350572796
 10
161.7228743829
 20
143.2048808036
 10
160.5379102963
 20
143.2514265935
 10
159.3516345952
 20
143.274698125
 10
158.164566905
 20
143.2746974088
 10
156.9782976053
 20
143.251424982
 10
155.7933463237
 20
143.204879192
 10
154.6091623991
 20
143.1350562051
 10
153.4257315345
 20
143.0419505609
  0
LWPOLYLINE
  5
362
100
AcDbEntity
  8
RACCORDO
100
AcDbPolyline
 62
253
  6
CONTINUOUS
 90
10
 70
0
 10
164.1063210198
 20
143.2913761628
 10
162.9201343613
 20
143.3847229535
 10
161.7322706968
 20
143.4547722117
 10
160.5431813749
 20
143.5014923912
 10
159.3532543367
 20
143.5248611989
 10
158.1630060585
 20
143.5248611485
 10
156.9730813895
 20
143.501492309
 10
155.7839968006
 20
143.4547723071
 10
154.5961402218
 20
143.3847235775
 10
153.4099629852
 20
143.2913778073
  0
LWPOLYLINE
  5
363
100
AcDbEntity
  8
RACCORDO
100
AcDbPolyline
 62
253
  6
CONTINUOUS
 90
22
 70
0
 10
169.0440020243
 20
142.2952770706
 10
168.8104247838
 20
142.3445647472
 10
168.5766061693
 20
142.3924807466
 10
168.3425458512
 20
142.4390252775
 10
168.1082403917
 20
142.4841989284
 10
167.873692541
 20
142.5280015119
 10
167.6389112389
 20
142.5704320648
 10
167.4038962964
 20
142.6114909673
 10
167.1686471634
 20
142.6511782083
 10
166.9331722267
 20
142.6894922295
 10
166.6974711207
 20
142.7264334273
 10
166.461543424
 20
142.7620017412
 10
166.2253974266
 20
142.7961949209
 10
165.9890327192
 20
142.8290133488
 10
165.75244888
 20
142.8604569442
 10
165.5156541679
 20
142.8905227537
 10
165.2786479443
 20
142.919211163
 10
165.0414299766
 20
142.9465220535
 10
164.8040091209
 20
142.972451707
 10
164.5663880258
 20
142.9969989616
 10
164.3285631345
 20
143.0201652107
 10
164.0905339858
 20
143.0419505609
  0
LWPOLYLINE
  5
364
100
AcDbEntity
  8
RACCORDO
100
AcDbPolyline
 62
253
  6
CONTINUOUS
 90
22
 70
0
 10
169.0862306022
 20
142.5406308414
 10
168.8514216746
 20
142.590184743
 10
168.6163543628
 20
142.6383620097
 10
168.3810367174
 20
142.6851614674
 10
168.1454824245
 20
142.7305809078
 10
167.9096939231
 20
142.7746203981
 10
167.6736623429
 20
142.8172819509
 10
167.4373955033
 20
142.8585643132
 10
167.2009016152
 20
142.898466213
 10
166.9641722997
 20
142.9369891175
 10
166.7272155505
 20
142.9741315896
 10
166.4900393532
 20
143.0098922437
 10
166.2526352377
 20
143.044272115
 10
166.0150111693
 20
143.0772696162
 10
165.7771751357
 20
143.1088832067
 10
165.5391186347
 20
143.1391134808
 10
165.3008531029
 20
143.1679582866
 10
165.0623830606
 20
143.1954163812
 10
164.8236895594
 20
143.2214890256
 10
164.5847715731
 20
143.246175058
 10
164.3456460588
 20
143.2694714212
 10
164.1063210164
 20
143.2913761258
  0
LWPOLYLINE
  5
365
100
AcDbEntity
  8
RACCORDO
100
AcDbPolyline
 62
253
  6
CONTINUOUS
 90
10
 70
0
 10
169.9557047677
 20
142.0569093366
 10
169.8554392454
 20
142.0874400639
 10
169.7549119026
 20
142.1169599967
 10
169.6541224964
 20
142.1454692299
 10
169.553065837
 20
142.1729688844
 10
169.4517466151
 20
142.1994580195
 10
169.350179402
 20
142.2249336332
 10
169.2483688803
 20
142.2493947793
 10
169.1463098436
 20
142.2728425663
 10
169.0440020243
 20
142.2952770706
  0
LWPOLYLINE
  5
366
100
AcDbEntity
  8
RACCORDO
100
AcDbPolyline
 62
253
  6
CONTINUOUS
 90
10
 70
0
 10
170.0219141608
 20
142.295936373
 10
169.9190202335
 20
142.3272745542
 10
169.8158408222
 20
142.3575789937
 10
169.7123864179
 20
142.3868473002
 10
169.6086764611
 20
142.4150747864
 10
169.5047125905
 20
142.4422618566
 10
169.400478409
 20
142.4684131206
 10
169.2959752749
 20
142.4935279524
 10
169.1912225335
 20
142.5176013778
 10
169.0862306022
 20
142.5406308414
  0
LWPOLYLINE
  5
367
100
AcDbEntity
  8
0
100
AcDbPolyline
 62
7
  6
CONTINUOUS
 90
19
 70
0
 10
121.3848941986
 20
62.4227981767
 10
121.5128547262
 20
62.4590312019
 10
121.6392699605
 20
62.4993441556
 10
121.7641399016
 20
62.5437370379
 10
121.887599509
 20
62.5922732681
 10
122.0095138231
 20
62.6448894269
 10
122.1294779654
 20
62.701395256
 10
122.2474701234
 20
62.7617943846
 10
122.3635121096
 20
62.8260831835
 10
122.4772644827
 20
62.8940605071
 10
122.588726981
 20
62.9657388865
 10
122.6978998662
 20
63.0411057907
 10
122.804444482
 20
63.119922481
 10
122.9083570914
 20
63.2022027118
 10
123.0096414314
 20
63.2879327286
 10
123.1079700567
 20
63.3768325297
 10
123.2032338187
 20
63.4688087811
 10
123.295541866
 20
63.5639548166
 10
123.3848941986
 20
63.6622706364
  0
LWPOLYLINE
  5
368
100
AcDbEntity
  8
0
100
AcDbPolyline
 62
253
  6
CONTINUOUS
 90
16
 70
0
 10
120.5848941986
 20
62.434192315
 10
120.7969817802
 20
62.4508766879
 10
121.0078863801
 20
62.4787112425
 10
121.2170174915
 20
62.5176180456
 10
121.4237895732
 20
62.5674881628
 10
121.6276236891
 20
62.628181964
 10
121.8279491287
 20
62.6995295142
 10
122.0242050057
 20
62.7813310489
 10
122.2158418279
 20
62.8733575341
 10
122.4023230359
 20
62.9753513069
 10
122.5831265055
 20
63.0870267975
 10
122.7577460093
 20
63.2080713282
 10
122.9256926342
 20
63.3381459894
 10
123.0864961507
 20
63.4768865881
 10
123.2397063286
 20
63.6239046679
 10
123.3848941986
 20
63.7787885962
  0
LWPOLYLINE
  5
369
100
AcDbEntity
  8
0
100
AcDbPolyline
 62
253
  6
CONTINUOUS
 90
16
 70
0
 10
120.5848941986
 20
63.1861728439
 10
120.7969817802
 20
63.2025464929
 10
121.0078863801
 20
63.2298626667
 10
121.2170174915
 20
63.2680448832
 10
121.4237895732
 20
63.316986237
 10
121.6276236891
 20
63.3765496983
 10
121.8279491287
 20
63.4465684969
 10
122.0242050057
 20
63.5268465888
 10
122.2158418279
 20
63.6171592053
 10
122.4023230359
 20
63.7172534822
 10
122.5831265055
 20
63.8268491679
 10
122.7577460093
 20
63.9456394081
 10
122.9256926342
 20
64.0732916048
 10
123.0864961507
 20
64.2094483477
 10
123.2397063286
 20
64.3537284148
 10
123.3848941986
 20
64.5057278396
  0
LINE
  5
36A
100
AcDbEntity
  8
RACCORDO
100
AcDbLine
 62
253
  6
CONTINUOUS
 10
120.5848941986
 20
62.6974487714
 11
117.5790435179
 21
62.851424814
  0
LINE
  5
36B
100
AcDbEntity
  8
RACCORDO
100
AcDbLine
 62
253
  6
CONTINUOUS
 10
120.5848941986
 20
61.9361936923
 11
117.4335343708
 21
62.1006790633
  0
LINE
  5
36C
100
AcDbEntity
  8
DRAFT
100
AcDbLine
 62
7
  6
CONTINUOUS
 10
120.5848941986
 20
61.6960284128
 11
117.3811282492
 21
61.8639306715
  0
LWPOLYLINE
  5
36D
100
AcDbEntity
  8
0
100
AcDbPolyline
 62
253
  6
CONTINUOUS
 90
16
 70
0
 10
120.5848941986
 20
72.2914888246
 10
120.7969817802
 20
72.2933360912
 10
121.0078863801
 20
72.2964178878
 10
121.2170174915
 20
72.3007255857
 10
121.4237895732
 20
72.3062471239
 10
121.6276236891
 20
72.3129670429
 10
121.8279491287
 20
72.3208665275
 10
122.0242050057
 20
72.3299234604
 10
122.2158418279
 20
72.3401124831
 10
122.4023230359
 20
72.3514050676
 10
122.5831265055
 20
72.3637695962
 10
122.7577460093
 20
72.3771714497
 10
122.9256926342
 20
72.3915731046
 10
123.0864961507
 20
72.4069342379
 10
123.2397063286
 20
72.4232118405
 10
123.3848941986
 20
72.440360337
  0
LINE
  5
36E
100
AcDbEntity
  8
RACCORDO
100
AcDbLine
 62
253
  6
CONTINUOUS
 10
120.5848941986
 20
72.2363512273
 11
117.4581853971
 21
72.2545758898
  0
LWPOLYLINE
  5
36F
100
AcDbEntity
  8
0
100
AcDbPolyline
 62
7
  6
CONTINUOUS
 90
15
 70
0
 10
115.2969701535
 20
76.6507960284
 10
115.296053186
 20
76.650620446
 10
115.2946816211
 20
76.6497603682
 10
115.2933712371
 20
76.648193448
 10
115.2921225915
 20
76.6458996837
 10
115.2909213385
 20
76.6429213375
 10
115.2897674232
 20
76.6392732628
 10
115.2886624205
 20
76.6349406125
 10
115.2875954386
 20
76.6299210984
 10
115.2865675157
 20
76.6242196847
 10
115.2855803251
 20
76.6178314173
 10
115.2846250475
 20
76.6107391322
 10
115.2837003625
 20
76.6029371127
 10
115.2828118346
 20
76.5944310898
 10
115.2819616177
 20
76.5852210717
  0
LWPOLYLINE
  5
370
100
AcDbEntity
  8
0
100
AcDbPolyline
 62
253
  6
CONTINUOUS
 90
4
 70
0
 10
122.9256926342
 20
76.3281268129
 10
123.0864961507
 20
76.3354935527
 10
123.2397063286
 20
76.3432998037
 10
123.3848941986
 20
76.3515237094
  0
LINE
  5
371
100
AcDbEntity
  8
0
100
AcDbLine
 62
253
  6
CONTINUOUS
 10
122.5831265055
 20
76.3147930825
 11
122.9256926342
 21
76.3281268129
  0
LINE
  5
372
100
AcDbEntity
  8
0
100
AcDbLine
 62
253
  6
CONTINUOUS
 10
122.2158418279
 20
76.3034478391
 11
122.5831265055
 21
76.3147930825
  0
LINE
  5
373
100
AcDbEntity
  8
0
100
AcDbLine
 62
253
  6
CONTINUOUS
 10
121.8279491287
 20
76.2942180548
 11
122.2158418279
 21
76.3034478391
  0
LINE
  5
374
100
AcDbEntity
  8
0
100
AcDbLine
 62
253
  6
CONTINUOUS
 10
121.4237895732
 20
76.2872070264
 11
121.8279491287
 21
76.2942180548
  0
LINE
  5
375
100
AcDbEntity
  8
0
100
AcDbLine
 62
253
  6
CONTINUOUS
 10
121.0078863801
 20
76.2824932189
 11
121.4237895732
 21
76.2872070264
  0
LINE
  5
376
100
AcDbEntity
  8
0
100
AcDbLine
 62
253
  6
CONTINUOUS
 10
120.5848941986
 20
76.2801293877
 11
121.0078863801
 21
76.2824932189
  0
LINE
  5
377
100
AcDbEntity
  8
0
100
AcDbLine
 62
7
  6
CONTINUOUS
 10
115.4657796518
 20
73.8182274128
 11
115.4933183026
 21
73.8182274128
  0
LINE
  5
378
100
AcDbEntity
  8
0
100
AcDbLine
 62
7
  6
CONTINUOUS
 10
115.4971713958
 20
73.8182270584
 11
115.7090485366
 21
73.8182270584
  0
LINE
  5
379
100
AcDbEntity
  8
0
100
AcDbLine
 62
7
  6
CONTINUOUS
 10
115.4198831336
 20
74.3771474128
 11
115.430939964
 21
74.3771474128
  0
LINE
  5
37A
100
AcDbEntity
  8
0
100
AcDbLine
 62
253
  6
CONTINUOUS
 10
115.4870456156
 20
74.5759880882
 11
115.6376445756
 21
74.5759880882
  0
LINE
  5
37B
100
AcDbEntity
  8
0
100
AcDbLine
 62
7
  6
CONTINUOUS
 10
115.3936459864
 20
74.8096374128
 11
115.3858691929
 21
74.8096374128
  0
LINE
  5
37C
100
AcDbEntity
  8
0
100
AcDbLine
 62
7
  6
CONTINUOUS
 10
115.4203609345
 20
74.913876488
 11
115.429158327
 21
74.913876488
  0
LINE
  5
37D
100
AcDbEntity
  8
0
100
AcDbLine
 62
7
  6
CONTINUOUS
 10
115.4314219183
 20
75.1251039759
 11
115.5819645859
 21
75.1251039759
  0
LINE
  5
37E
100
AcDbEntity
  8
0
100
AcDbLine
 62
7
  6
CONTINUOUS
 10
115.4301272655
 20
75.1416477847
 11
115.5806686296
 21
75.1416477847
  0
LINE
  5
37F
100
AcDbEntity
  8
0
100
AcDbLine
 62
7
  6
CONTINUOUS
 10
115.3933474745
 20
75.3724003262
 11
115.3839936437
 21
75.3724003262
  0
LINE
  5
380
100
AcDbEntity
  8
0
100
AcDbLine
 62
7
  6
CONTINUOUS
 10
115.3270777376
 20
76.1409736168
 11
115.3389117868
 21
76.1409736168
  0
LINE
  5
381
100
AcDbEntity
  8
RACCORDO
100
AcDbLine
 62
253
  6
CONTINUOUS
 10
120.5848941986
 20
76.2536870464
 11
117.1773335881
 21
76.2631357888
  0
LINE
  5
382
100
AcDbEntity
  8
0
100
AcDbLine
 62
253
  6
CONTINUOUS
 10
115.592825061
 20
79.6033977826
 11
115.2181713251
 21
79.583765449
  0
LINE
  5
383
100
AcDbEntity
  8
0
100
AcDbLine
 62
253
  6
CONTINUOUS
 10
115.3243036743
 20
76.5555215277
 11
115.4747385264
 21
76.5555215277
  0
LINE
  5
384
100
AcDbEntity
  8
0
100
AcDbLine
 62
7
  6
CONTINUOUS
 10
115.259642229
 20
76.6179304128
 11
115.2819616177
 21
76.6179304128
  0
LINE
  5
385
100
AcDbEntity
  8
0
100
AcDbLine
 62
7
  6
CONTINUOUS
 10
115.2419700026
 20
76.6179304128
 11
115.2517061217
 21
76.6179304128
  0
LINE
  5
386
100
AcDbEntity
  8
0
100
AcDbLine
 62
7
  6
CONTINUOUS
 10
115.4473781435
 20
76.6507799319
 11
115.2969712483
 21
76.6507799319
  0
LINE
  5
387
100
AcDbEntity
  8
0
100
AcDbLine
 62
253
  6
CONTINUOUS
 10
115.6487767025
 20
80.0812553761
 11
116.7094844353
 21
80.0812524151
  0
LWPOLYLINE
  5
388
100
AcDbEntity
  8
RACCORDO
100
AcDbPolyline
 62
253
  6
CONTINUOUS
 90
13
 70
0
 10
116.8995769683
 20
76.2578071745
 10
116.9078667399
 20
76.2567393496
 10
116.9195951976
 20
76.2559396525
 10
116.9346209143
 20
76.2554177261
 10
116.9527627029
 20
76.2551798642
 10
116.9738018013
 20
76.255228935
 10
116.9974845105
 20
76.2555643467
 10
117.0235252533
 20
76.2561820548
 10
117.0516100185
 20
76.2570746108
 10
117.081400147
 20
76.2582312517
 10
117.1125364156
 20
76.2596380303
 10
117.144643369
 20
76.2612779829
 10
117.1773338465
 20
76.2631313343
  0
LWPOLYLINE
  5
389
100
AcDbEntity
  8
RACCORDO
100
AcDbPolyline
 62
253
  6
CONTINUOUS
 90
13
 70
0
 10
117.1808704484
 20
133.13376185
 10
117.1891916186
 20
133.1364945293
 10
117.2009367449
 20
133.1388436143
 10
117.215964577
 20
133.1407808544
 10
117.2340943859
 20
133.1422829516
 10
117.2551081374
 20
133.1433318414
 10
117.278753114
 20
133.1439149095
 10
117.3047449545
 20
133.1440251437
 10
117.3327710736
 20
133.1436612183
 10
117.3624944211
 20
133.1428275101
 10
117.3935575356
 20
133.1415340453
 10
117.4255868431
 20
133.1397963797
 10
117.4581971499
 20
133.1376354108
  0
LINE
  5
38A
100
AcDbEntity
  8
0
100
AcDbLine
 62
253
  6
CONTINUOUS
 10
115.6370126927
 20
80.9743785759
 11
115.6351818963
 21
80.9743962368
  0
LWPOLYLINE
  5
38B
100
AcDbEntity
  8
RACCORDO
100
AcDbPolyline
 62
253
  6
CONTINUOUS
 90
13
 70
0
 10
116.7094843237
 20
80.0812553761
 10
116.7178069691
 20
80.080186068
 10
116.7295671798
 20
80.0792925073
 10
116.7446233284
 20
80.0785854552
 10
116.7627940947
 20
80.0780734266
 10
116.7838606493
 20
80.0777625879
 10
116.8075692892
 20
80.0776566824
 10
116.8336344927
 20
80.0777569856
 10
116.8617423584
 20
80.0780622894
 10
116.891554385
 20
80.0785689173
 10
116.9227115485
 20
80.0792707678
 10
116.954838625
 20
80.0801593887
 10
116.9875487104
 20
80.0812240783
  0
LWPOLYLINE
  5
38C
100
AcDbEntity
  8
0
100
AcDbPolyline
 62
7
  6
CONTINUOUS
 90
5
 70
0
 10
115.3331325909
 20
76.1673935074
 10
115.3337612543
 20
76.1672454708
 10
115.3353423507
 20
76.1656832125
 10
115.337059193
 20
76.1624195335
 10
115.3389117868
 20
76.1574544416
  0
LWPOLYLINE
  5
38D
100
AcDbEntity
  8
RACCORDO
100
AcDbPolyline
 62
253
  6
CONTINUOUS
 90
13
 70
0
 10
117.1808704359
 20
72.2582949742
 10
117.189191498
 20
72.2555622748
 10
117.2009365368
 20
72.2532131704
 10
117.2159643026
 20
72.251275912
 10
117.2340940663
 20
72.249773798
 10
117.255107793
 20
72.2487248931
 10
117.2787527644
 20
72.2481418119
 10
117.3047446181
 20
72.2480315666
 10
117.332770767
 20
72.2483954833
 10
117.362494159
 20
72.2492291852
 10
117.3935573304
 20
72.250522646
 10
117.4255867048
 20
72.2522603101
 10
117.4581970858
 20
72.2544212798
  0
LWPOLYLINE
  5
38E
100
AcDbEntity
  8
0
100
AcDbPolyline
 62
7
  6
CONTINUOUS
 90
11
 70
0
 10
115.429158327
 20
74.913876488
 10
115.4298858627
 20
74.9131192118
 10
115.4307132409
 20
74.9109702223
 10
115.4316402932
 20
74.9074295245
 10
115.4326739428
 20
74.9024557343
 10
115.4338071007
 20
74.8960902548
 10
115.435018468
 20
74.8884572745
 10
115.4363090862
 20
74.8795016917
 10
115.4376776086
 20
74.8692786422
 10
115.4390989678
 20
74.8580776689
 10
115.4405701775
 20
74.8459121523
  0
LWPOLYLINE
  5
38F
100
AcDbEntity
  8
RACCORDO
100
AcDbPolyline
 62
253
  6
CONTINUOUS
 90
13
 70
0
 10
117.153462605
 20
143.0419505567
 10
117.1609279574
 20
143.0747791943
 10
117.1720483374
 20
143.1065708127
 10
117.1866827668
 20
143.1369223756
 10
117.2046457186
 20
143.1654491029
 10
117.2257094687
 20
143.1917893487
 10
117.2496069825
 20
143.2156091863
 10
117.2760353009
 20
143.236606641
 10
117.3046593804
 20
143.254515519
 10
117.335116341
 20
143.2691087814
 10
117.3670200665
 20
143.2802014233
 10
117.3999660993
 20
143.2876528181
 10
117.4335367682
 20
143.2913685014
  0
LWPOLYLINE
  5
390
100
AcDbEntity
  8
RACCORDO
100
AcDbPolyline
 62
253
  6
CONTINUOUS
 90
13
 70
0
 10
117.2992733491
 20
142.2952770704
 10
117.306830939
 20
142.3274327783
 10
117.3180186108
 20
142.3585844338
 10
117.3326953076
 20
142.3883392694
 10
117.3506759821
 20
142.4163221293
 10
117.3717339298
 20
142.442180199
 10
117.3956036473
 20
142.465587454
 10
117.4219841794
 20
142.4862487699
 10
117.4505429143
 20
142.5039036443
 10
117.4809197768
 20
142.5183294801
 10
117.5127317682
 20
142.5293443932
 10
117.5455777955
 20
142.536809505
 10
117.5790437284
 20
142.5406306935
  0
LWPOLYLINE
  5
391
100
AcDbEntity
  8
RACCORDO
100
AcDbPolyline
 62
253
  6
CONTINUOUS
 90
13
 70
0
 10
117.3289525976
 20
142.0569083132
 10
117.3365860991
 20
142.0882374769
 10
117.3478326644
 20
142.1185831746
 10
117.3625510909
 20
142.1475644112
 10
117.3805565865
 20
142.1748173228
 10
117.4016230894
 20
142.1999997446
 10
117.4254861061
 20
142.2227955073
 10
117.4518460329
 20
142.2429184065
 10
117.4803719165
 20
142.260115796
 10
117.5107056099
 20
142.2741717598
 10
117.5424662688
 20
142.284909823
 10
117.575255133
 20
142.2921951675
 10
117.6086605332
 20
142.2959363248
  0
LWPOLYLINE
  5
392
100
AcDbEntity
  8
0
100
AcDbPolyline
 62
7
  6
CONTINUOUS
 90
11
 70
0
 10
115.3389117868
 20
76.1574544416
 10
115.3398394786
 20
76.1540909884
 10
115.3408382177
 20
76.1495766446
 10
115.3419078839
 20
76.1439114176
 10
115.3430513018
 20
76.1370763178
 10
115.3442655174
 20
76.1290903554
 10
115.3455417155
 20
76.12001054
 10
115.3468804161
 20
76.1098402948
 10
115.3482810016
 20
76.0985762269
 10
115.3497328226
 20
76.0862651228
 10
115.3512372997
 20
76.0728834904
  0
LWPOLYLINE
  5
393
100
AcDbEntity
  8
RACCORDO
100
AcDbPolyline
 62
253
  6
CONTINUOUS
 90
13
 70
0
 10
117.3289528694
 20
63.3351485555
 10
117.3365864779
 20
63.3038195165
 10
117.347833124
 20
63.2734739505
 10
117.3625516051
 20
63.2444928489
 10
117.3805571294
 20
63.2172400716
 10
117.4016236361
 20
63.1920577795
 10
117.4254866335
 20
63.1692621385
 10
117.4518465196
 20
63.1491393497
 10
117.480372344
 20
63.1319420563
 10
117.5107059624
 20
63.1178861718
 10
117.5424665339
 20
63.107148169
 10
117.5752553018
 20
63.0998628643
 10
117.6086606004
 20
63.0961217255
  0
LWPOLYLINE
  5
394
100
AcDbEntity
  8
RACCORDO
100
AcDbPolyline
 62
253
  6
CONTINUOUS
 90
13
 70
0
 10
117.2992733504
 20
63.0967797554
 10
117.3068309434
 20
63.0646240505
 10
117.3180186176
 20
63.0334723983
 10
117.3326953162
 20
63.0037175661
 10
117.350675992
 20
62.9757347097
 10
117.3717339404
 20
62.9498766434
 10
117.3956036578
 20
62.9264693918
 10
117.4219841895
 20
62.9058080789
 10
117.4505429234
 20
62.8881532074
 10
117.4809197845
 20
62.873727374
 10
117.5127317742
 20
62.8627124629
 10
117.5455777995
 20
62.8552473528
 10
117.5790437301
 20
62.8514261654
  0
LWPOLYLINE
  5
395
100
AcDbEntity
  8
RACCORDO
100
AcDbPolyline
 62
253
  6
CONTINUOUS
 90
13
 70
0
 10
117.153462581
 20
62.3501062648
 10
117.1609279289
 20
62.3172776205
 10
117.1720483057
 20
62.2854859951
 10
117.1866827333
 20
62.2551344252
 10
117.2046456847
 20
62.2266076911
 10
117.2257094356
 20
62.2002674388
 10
117.2496069514
 20
62.1764475953
 10
117.2760352728
 20
62.1554501354
 10
117.3046593562
 20
62.1375412532
 10
117.3351163215
 20
62.1229479875
 10
117.3670200522
 20
62.1118553436
 10
117.3999660905
 20
62.1044039479
 10
117.433536765
 20
62.100688265
  0
LWPOLYLINE
  5
396
100
AcDbEntity
  8
0
100
AcDbPolyline
 62
7
  6
CONTINUOUS
 90
13
 70
0
 10
115.4747385507
 20
76.555521312
 10
115.4715459057
 20
76.5743831833
 10
115.4685159544
 20
76.5909234907
 10
115.4656487451
 20
76.6051421813
 10
115.4629539058
 20
76.616814464
 10
115.4604223851
 20
76.6261650446
 10
115.4580258097
 20
76.6338681355
 10
115.4557620657
 20
76.6400120257
 10
115.4536329888
 20
76.6445083955
 10
115.4516154666
 20
76.6477665615
 10
115.4497048911
 20
76.6498549512
 10
115.4479056054
 20
76.6507051281
 10
115.4473802342
 20
76.6507492193
  0
LWPOLYLINE
  5
397
100
AcDbEntity
  8
0
100
AcDbPolyline
 62
7
  6
CONTINUOUS
 90
15
 70
0
 10
115.3243036743
 20
76.5555215277
 10
115.3215847282
 20
76.5717818872
 10
115.3189857263
 20
76.5863001646
 10
115.3165067166
 20
76.5990763252
 10
115.3141533338
 20
76.609971608
 10
115.3119203106
 20
76.6191247159
 10
115.3097911227
 20
76.6269518207
 10
115.3077661593
 20
76.6334746913
 10
115.3058449638
 20
76.6386715329
 10
115.3040093141
 20
76.6428931839
 10
115.3022554824
 20
76.6462078916
 10
115.3005869829
 20
76.6485473989
 10
115.2989962374
 20
76.6500577925
 10
115.2974860133
 20
76.6507536773
 10
115.2969701535
 20
76.6507960284
  0
LWPOLYLINE
  5
398
100
AcDbEntity
  8
0
100
AcDbPolyline
 62
7
  6
CONTINUOUS
 90
7
 70
0
 10
115.3419756649
 20
76.4090386286
 10
115.3384221879
 20
76.442134241
 10
115.3350377546
 20
76.4722345844
 10
115.3319253818
 20
76.4986886952
 10
115.329117384
 20
76.5212794908
 10
115.3265773071
 20
76.5402238001
 10
115.3243036743
 20
76.5555215277
  0
LINE
  5
399
100
AcDbEntity
  8
0
100
AcDbLine
 62
7
  6
CONTINUOUS
 10
115.4436540338
 20
74.8188969062
 11
115.4468805055
 21
74.7890114504
  0
LINE
  5
39A
100
AcDbEntity
  8
0
100
AcDbLine
 62
7
  6
CONTINUOUS
 10
115.4938758251
 20
76.3950967486
 11
115.4872734227
 21
76.4566238991
  0
LINE
  5
39B
100
AcDbEntity
  8
0
100
AcDbLine
 62
7
  6
CONTINUOUS
 10
115.4489602351
 20
74.9778631895
 11
115.4431930345
 21
75.0318512513
  0
LINE
  5
39C
100
AcDbEntity
  8
0
100
AcDbLine
 62
7
  6
CONTINUOUS
 10
115.599368582
 20
74.9793124417
 11
115.5949508841
 21
75.0208785906
  0
LINE
  5
39D
100
AcDbEntity
  8
0
100
AcDbLine
 62
7
  6
CONTINUOUS
 10
115.3512372997
 20
76.0728834904
 11
115.3543844699
 21
76.0430965562
  0
LINE
  5
39E
100
AcDbEntity
  8
0
100
AcDbLine
 62
7
  6
CONTINUOUS
 10
115.4468805055
 20
74.7890114504
 11
115.4519031204
 21
74.7399079677
  0
LINE
  5
39F
100
AcDbEntity
  8
0
100
AcDbLine
 62
7
  6
CONTINUOUS
 10
115.6058689245
 20
74.9151822081
 11
115.599368582
 21
74.9793124417
  0
LINE
  5
3A0
100
AcDbEntity
  8
0
100
AcDbLine
 62
7
  6
CONTINUOUS
 10
115.3495888698
 20
76.3337278486
 11
115.3419756649
 21
76.4090386286
  0
LINE
  5
3A1
100
AcDbEntity
  8
0
100
AcDbLine
 62
7
  6
CONTINUOUS
 10
115.4568928892
 20
74.8990553858
 11
115.4489602351
 21
74.9778631895
  0
LINE
  5
3A2
100
AcDbEntity
  8
0
100
AcDbLine
 62
7
  6
CONTINUOUS
 10
115.5013672936
 20
76.3202011841
 11
115.4938758251
 21
76.3950967486
  0
LINE
  5
3A3
100
AcDbEntity
  8
0
100
AcDbLine
 62
7
  6
CONTINUOUS
 10
115.3543844699
 20
76.0430965562
 11
115.3576775648
 21
76.0095094424
  0
LINE
  5
3A4
100
AcDbEntity
  8
0
100
AcDbLine
 62
7
  6
CONTINUOUS
 10
115.4519031204
 20
74.7399079677
 11
115.4570970713
 21
74.6863530708
  0
LINE
  5
3A5
100
AcDbEntity
  8
0
100
AcDbLine
 62
7
  6
CONTINUOUS
 10
115.6182644505
 20
74.7863909344
 11
115.6058689245
 21
74.9151822081
  0
LINE
  5
3A6
100
AcDbEntity
  8
0
100
AcDbLine
 62
7
  6
CONTINUOUS
 10
115.4695319439
 20
74.7666575144
 11
115.4568928892
 21
74.8990553858
  0
LINE
  5
3A7
100
AcDbEntity
  8
0
100
AcDbLine
 62
7
  6
CONTINUOUS
 10
115.3576044499
 20
76.2486662983
 11
115.3495888698
 21
76.3337278486
  0
LINE
  5
3A8
100
AcDbEntity
  8
0
100
AcDbLine
 62
7
  6
CONTINUOUS
 10
115.7090485366
 20
73.8182270584
 11
115.6456591231
 21
74.4888624521
  0
LINE
  5
3A9
100
AcDbEntity
  8
0
100
AcDbLine
 62
7
  6
CONTINUOUS
 10
115.4570970713
 20
74.6863530708
 11
115.5386631728
 21
73.8182270584
  0
LINE
  5
3AA
100
AcDbEntity
  8
0
100
AcDbLine
 62
7
  6
CONTINUOUS
 10
115.5583775003
 20
73.8182270584
 11
115.4950032548
 21
74.4893930553
  0
LINE
  5
3AB
100
AcDbEntity
  8
0
100
AcDbLine
 62
7
  6
CONTINUOUS
 10
115.5096365274
 20
76.23142454
 11
115.5013672936
 21
76.3202011841
  0
LINE
  5
3AC
100
AcDbEntity
  8
0
100
AcDbLine
 62
7
  6
CONTINUOUS
 10
115.4950032548
 20
74.4893930553
 11
115.4695319439
 21
74.7666575144
  0
LINE
  5
3AD
100
AcDbEntity
  8
0
100
AcDbLine
 62
7
  6
CONTINUOUS
 10
115.6456591231
 20
74.4888624521
 11
115.6182644505
 21
74.7863909344
  0
LINE
  5
3AE
100
AcDbEntity
  8
0
100
AcDbLine
 62
7
  6
CONTINUOUS
 10
115.3576775648
 20
76.0095094424
 11
115.3610572356
 21
75.9729267986
  0
LINE
  5
3AF
100
AcDbEntity
  8
0
100
AcDbLine
 62
7
  6
CONTINUOUS
 10
115.4933183026
 20
73.8182274128
 11
115.4364312638
 21
74.4399977965
  0
LINE
  5
3B0
100
AcDbEntity
  8
0
100
AcDbLine
 62
7
  6
CONTINUOUS
 10
115.430939964
 20
74.3771474128
 11
115.48114777
 21
73.8182274128
  0
LINE
  5
3B1
100
AcDbEntity
  8
0
100
AcDbLine
 62
7
  6
CONTINUOUS
 10
115.3657707793
 20
76.1565443071
 11
115.3576044499
 21
76.2486662983
  0
LINE
  5
3B2
100
AcDbEntity
  8
ASSI
100
AcDbLine
 62
7
  6
CONTINUOUS
 10
115.6092043532
 20
73.8150005635
 11
115.6097281426
 21
73.8089929459
  0
LINE
  5
3B3
100
AcDbEntity
  8
0
100
AcDbLine
 62
7
  6
CONTINUOUS
 10
115.5180073761
 20
76.1359025656
 11
115.5096365274
 21
76.23142454
  0
LINE
  5
3B4
100
AcDbEntity
  8
0
100
AcDbLine
 62
7
  6
CONTINUOUS
 10
115.4364312638
 20
74.4399977965
 11
115.3823774041
 21
75.0619952096
  0
LINE
  5
3B5
100
AcDbEntity
  8
0
100
AcDbLine
 62
7
  6
CONTINUOUS
 10
115.3610572356
 20
75.9729267986
 11
115.366199448
 21
75.9135829904
  0
LINE
  5
3B6
100
AcDbEntity
  8
0
100
AcDbLine
 62
7
  6
CONTINUOUS
 10
115.5117403333
 20
73.8182270584
 11
115.4499293316
 21
74.5485860299
  0
LINE
  5
3B7
100
AcDbEntity
  8
0
100
AcDbLine
 62
7
  6
CONTINUOUS
 10
115.4605648521
 20
73.8182274128
 11
115.3891732028
 21
74.6618060334
  0
LINE
  5
3B8
100
AcDbEntity
  8
0
100
AcDbLine
 62
7
  6
CONTINUOUS
 10
115.3823774041
 20
75.0619952096
 11
115.3311570949
 21
75.6842152149
  0
LINE
  5
3B9
100
AcDbEntity
  8
0
100
AcDbLine
 62
7
  6
CONTINUOUS
 10
115.3772394778
 20
76.0179093901
 11
115.3657707793
 21
76.1565443071
  0
LINE
  5
3BA
100
AcDbEntity
  8
0
100
AcDbLine
 62
7
  6
CONTINUOUS
 10
115.4657796518
 20
73.8182274128
 11
115.4198831336
 21
74.3771474128
  0
LINE
  5
3BB
100
AcDbEntity
  8
0
100
AcDbLine
 62
7
  6
CONTINUOUS
 10
115.4499293316
 20
74.5485860299
 11
115.4203609345
 21
74.913876488
  0
LINE
  5
3BC
100
AcDbEntity
  8
0
100
AcDbLine
 62
7
  6
CONTINUOUS
 10
115.5298949653
 20
75.9906725589
 11
115.5180073761
 21
76.1359025656
  0
LINE
  5
3BD
100
AcDbEntity
  8
0
100
AcDbLine
 62
7
  6
CONTINUOUS
 10
115.366199448
 20
75.9135829904
 11
115.3712788956
 21
75.8507130643
  0
LINE
  5
3BE
100
AcDbEntity
  8
0
100
AcDbLine
 62
7
  6
CONTINUOUS
 10
115.5819645859
 20
75.1251039759
 11
115.5806686296
 21
75.1416477847
  0
LINE
  5
3BF
100
AcDbEntity
  8
0
100
AcDbLine
 62
7
  6
CONTINUOUS
 10
115.4314219183
 20
75.1251039759
 11
115.4301272655
 21
75.1416477847
  0
LINE
  5
3C0
100
AcDbEntity
  8
0
100
AcDbLine
 62
7
  6
CONTINUOUS
 10
115.3891732028
 20
74.6618060334
 11
115.3326034874
 21
75.3731159583
  0
LINE
  5
3C1
100
AcDbEntity
  8
0
100
AcDbLine
 62
7
  6
CONTINUOUS
 10
115.3097411758
 20
75.8486434128
 11
115.3936459864
 21
74.8096374128
  0
LINE
  5
3C2
100
AcDbEntity
  8
0
100
AcDbLine
 62
7
  6
CONTINUOUS
 10
115.3311570949
 20
75.6842152149
 11
115.2827718207
 21
76.3066400632
  0
LINE
  5
3C3
100
AcDbEntity
  8
0
100
AcDbLine
 62
7
  6
CONTINUOUS
 10
115.3903402646
 20
75.8473257175
 11
115.3772394778
 21
76.0179093901
  0
LINE
  5
3C4
100
AcDbEntity
  8
0
100
AcDbLine
 62
7
  6
CONTINUOUS
 10
115.2827718207
 20
76.3066400632
 11
115.259642229
 21
76.6179304128
  0
LINE
  5
3C5
100
AcDbEntity
  8
0
100
AcDbLine
 62
7
  6
CONTINUOUS
 10
115.3326034874
 20
75.3731159583
 11
115.2859824607
 21
75.9954269839
  0
LINE
  5
3C6
100
AcDbEntity
  8
0
100
AcDbLine
 62
7
  6
CONTINUOUS
 10
115.3712788956
 20
75.8507130643
 11
115.3761922675
 21
75.7854779718
  0
LINE
  5
3C7
100
AcDbEntity
  8
0
100
AcDbLine
 62
7
  6
CONTINUOUS
 10
115.543133325
 20
75.8161702883
 11
115.5298949653
 21
75.9906725589
  0
LINE
  5
3C8
100
AcDbEntity
  8
0
100
AcDbLine
 62
7
  6
CONTINUOUS
 10
115.3151019832
 20
75.6842674016
 11
115.4147600653
 21
74.3767289208
  0
LINE
  5
3C9
100
AcDbEntity
  8
0
100
AcDbLine
 62
7
  6
CONTINUOUS
 10
115.3858691929
 20
74.8096374128
 11
115.3342519629
 21
75.5022497212
  0
LWPOLYLINE
  5
3CA
100
AcDbEntity
  8
0
100
AcDbPolyline
 62
7
  6
CONTINUOUS
 90
3
 70
0
 10
115.3839936437
 20
75.3724003262
 10
115.3332069232
 20
76.0555622419
 10
115.3270777376
 20
76.1409736168
  0
LINE
  5
3CB
100
AcDbEntity
  8
0
100
AcDbLine
 62
7
  6
CONTINUOUS
 10
115.3342519629
 20
75.5022497212
 11
115.3097411758
 21
75.8486434128
  0
LWPOLYLINE
  5
3CC
100
AcDbEntity
  8
0
100
AcDbPolyline
 62
253
  6
CONTINUOUS
 90
3
 70
0
 10
115.6487767098
 20
80.0812553765
 10
115.6467379858
 20
80.1104091641
 10
115.6467994975
 20
80.1158540979
  0
LINE
  5
3CD
100
AcDbEntity
  8
0
100
AcDbLine
 62
7
  6
CONTINUOUS
 10
115.2859824607
 20
75.9954269839
 11
115.2419700026
 21
76.6179304128
  0
LINE
  5
3CE
100
AcDbEntity
  8
0
100
AcDbLine
 62
7
  6
CONTINUOUS
 10
115.4009435099
 20
75.6992832373
 11
115.3903402646
 21
75.8473257175
  0
LINE
  5
3CF
100
AcDbEntity
  8
0
100
AcDbLine
 62
7
  6
CONTINUOUS
 10
115.2819616177
 20
76.5852210717
 11
115.4971713958
 21
73.8182270584
  0
LINE
  5
3D0
100
AcDbEntity
  8
0
100
AcDbLine
 62
7
  6
CONTINUOUS
 10
115.5536935044
 20
75.6666702847
 11
115.543133325
 21
75.8161702883
  0
LINE
  5
3D1
100
AcDbEntity
  8
0
100
AcDbLine
 62
7
  6
CONTINUOUS
 10
115.3761922675
 20
75.7854779718
 11
115.3825180882
 21
75.6954794278
  0
LINE
  5
3D2
100
AcDbEntity
  8
ASSI
100
AcDbLine
 62
7
  6
CONTINUOUS
 10
115.3886756785
 20
76.6566476378
 11
115.3890757565
 21
76.65077091
  0
LINE
  5
3D3
100
AcDbEntity
  8
0
100
AcDbLine
 62
7
  6
CONTINUOUS
 10
115.2517061217
 20
76.6179304128
 11
115.3151019832
 21
75.6842674016
  0
LINE
  5
3D4
100
AcDbEntity
  8
0
100
AcDbLine
 62
7
  6
CONTINUOUS
 10
115.4092962852
 20
75.5740596364
 11
115.4009435099
 21
75.6992832373
  0
LWPOLYLINE
  5
3D5
100
AcDbEntity
  8
0
100
AcDbPolyline
 62
253
  6
CONTINUOUS
 90
9
 70
0
 10
115.7386581014
 20
78.0475496116
 10
115.8581919827
 20
76.2008729572
 10
116.0004214224
 20
74.3558147815
 10
116.1653248258
 20
72.5126555703
 10
116.3528771135
 20
70.6716757363
 10
116.5630497119
 20
68.8331555756
 10
116.7958106388
 20
66.9973747942
 10
117.0511245214
 20
65.1646124664
 10
117.3289525362
 20
63.3351473154
  0
LINE
  5
3D6
100
AcDbEntity
  8
0
100
AcDbLine
 62
7
  6
CONTINUOUS
 10
115.3825180882
 20
75.6954794278
 11
115.3869013523
 21
75.6286475704
  0
LINE
  5
3D7
100
AcDbEntity
  8
0
100
AcDbLine
 62
7
  6
CONTINUOUS
 10
115.5619494966
 20
75.5404712808
 11
115.5536935044
 21
75.6666702847
  0
LINE
  5
3D8
100
AcDbEntity
  8
0
100
AcDbLine
 62
7
  6
CONTINUOUS
 10
115.4157285826
 20
75.469834216
 11
115.4092962852
 21
75.5740596364
  0
LINE
  5
3D9
100
AcDbEntity
  8
0
100
AcDbLine
 62
7
  6
CONTINUOUS
 10
115.3869013523
 20
75.6286475704
 11
115.390628005
 21
75.5674150877
  0
LINE
  5
3DA
100
AcDbEntity
  8
0
100
AcDbLine
 62
7
  6
CONTINUOUS
 10
115.5682134579
 20
75.4361921698
 11
115.5619494966
 21
75.5404712808
  0
LINE
  5
3DB
100
AcDbEntity
  8
0
100
AcDbLine
 62
7
  6
CONTINUOUS
 10
115.390628005
 20
75.5674150877
 11
115.3926599066
 21
75.5310844281
  0
LINE
  5
3DC
100
AcDbEntity
  8
0
100
AcDbLine
 62
7
  6
CONTINUOUS
 10
115.420581977
 20
75.3840336227
 11
115.4157285826
 21
75.469834216
  0
LINE
  5
3DD
100
AcDbEntity
  8
0
100
AcDbLine
 62
7
  6
CONTINUOUS
 10
115.5718155353
 20
75.3708691485
 11
115.5682134579
 21
75.4361921698
  0
LWPOLYLINE
  5
3DE
100
AcDbEntity
  8
0
100
AcDbPolyline
 62
253
  6
CONTINUOUS
 90
3
 70
0
 10
115.7386581014
 20
78.0475496116
 10
115.6400789449
 20
79.9306228488
 10
115.640500779
 20
79.9449883246
  0
LINE
  5
3DF
100
AcDbEntity
  8
0
100
AcDbLine
 62
7
  6
CONTINUOUS
 10
115.4233325208
 20
75.3306884865
 11
115.420581977
 21
75.3840336227
  0
LINE
  5
3E0
100
AcDbEntity
  8
0
100
AcDbLine
 62
7
  6
CONTINUOUS
 10
115.3926599066
 20
75.5310844281
 11
115.3943084214
 21
75.4986543133
  0
LINE
  5
3E1
100
AcDbEntity
  8
0
100
AcDbLine
 62
7
  6
CONTINUOUS
 10
115.5745912462
 20
75.3157307798
 11
115.5718155353
 21
75.3708691485
  0
LINE
  5
3E2
100
AcDbEntity
  8
0
100
AcDbLine
 62
7
  6
CONTINUOUS
 10
115.4254414552
 20
75.2856672187
 11
115.4233325208
 21
75.3306884865
  0
LINE
  5
3E3
100
AcDbEntity
  8
0
100
AcDbLine
 62
7
  6
CONTINUOUS
 10
115.5766859811
 20
75.2694649089
 11
115.5745912462
 21
75.3157307798
  0
LWPOLYLINE
  5
3E4
100
AcDbEntity
  8
0
100
AcDbPolyline
 62
7
  6
CONTINUOUS
 90
18
 70
0
 10
115.3943084214
 20
75.4986543133
 10
115.3955579077
 20
75.4702284142
 10
115.3960318428
 20
75.457544447
 10
115.3963999844
 20
75.4459468822
 10
115.3966669993
 20
75.4353790476
 10
115.3968450275
 20
75.4257023306
 10
115.3969346915
 20
75.4168901314
 10
115.3969356396
 20
75.4089690248
 10
115.3968585336
 20
75.4018801655
 10
115.396701189
 20
75.3956245705
 10
115.3964660732
 20
75.3902012058
 10
115.3961706109
 20
75.385548151
 10
115.3958137025
 20
75.3816922421
 10
115.3953964454
 20
75.3786066331
 10
115.3949392668
 20
75.3761488827
 10
115.3944488495
 20
75.3742715096
 10
115.3939182811
 20
75.3730219912
 10
115.3933474745
 20
75.3724003262
  0
LINE
  5
3E5
100
AcDbEntity
  8
0
100
AcDbLine
 62
7
  6
CONTINUOUS
 10
115.4275323307
 20
75.2359089781
 11
115.4254414552
 21
75.2856672187
  0
LINE
  5
3E6
100
AcDbEntity
  8
0
100
AcDbLine
 62
7
  6
CONTINUOUS
 10
115.5791989657
 20
75.2068878891
 11
115.5766859811
 21
75.2694649089
  0
LINE
  5
3E7
100
AcDbEntity
  8
0
100
AcDbLine
 62
7
  6
CONTINUOUS
 10
115.4297797429
 20
75.1761579661
 11
115.4275323307
 21
75.2359089781
  0
LWPOLYLINE
  5
3E8
100
AcDbEntity
  8
0
100
AcDbPolyline
 62
253
  6
CONTINUOUS
 90
10
 70
0
 10
115.6400755543
 20
125.4614342605
 10
115.7386581021
 20
127.3445072247
 10
115.8581919842
 20
129.1911838896
 10
116.000421425
 20
131.0362420754
 10
116.1653248305
 20
132.8794012957
 10
116.3528771205
 20
134.7203811384
 10
116.5630497191
 20
136.5589013098
 10
116.7958106436
 20
138.3946821048
 10
117.0511245221
 20
140.2274444481
 10
117.3289525311
 20
142.0569096167
  0
LWPOLYLINE
  5
3E9
100
AcDbEntity
  8
0
100
AcDbPolyline
 62
253
  6
CONTINUOUS
 90
3
 70
0
 10
115.6487821922
 20
125.3108012009
 10
115.6467427433
 20
125.2816473119
 10
115.6468040617
 20
125.2762049417
  0
LWPOLYLINE
  5
3EA
100
AcDbEntity
  8
RACCORDO
100
AcDbPolyline
 62
253
  6
CONTINUOUS
 90
13
 70
0
 10
116.7094843254
 20
125.3108014494
 10
116.7178069704
 20
125.3118707575
 10
116.7295671807
 20
125.3127643181
 10
116.744623329
 20
125.3134713703
 10
116.7627940949
 20
125.3139833989
 10
116.7838606493
 20
125.3142942377
 10
116.807569289
 20
125.3144001432
 10
116.8336344924
 20
125.31429984
 10
116.861742358
 20
125.3139945362
 10
116.8915543846
 20
125.3134879083
 10
116.9227115481
 20
125.3127860578
 10
116.9548386247
 20
125.3118974369
 10
116.9875487102
 20
125.3108327473
  0
LWPOLYLINE
  5
3EB
100
AcDbEntity
  8
0
100
AcDbPolyline
 62
7
  6
CONTINUOUS
 90
5
 70
0
 10
115.4377356647
 20
75.0789638899
 10
115.4360333402
 20
75.0925294797
 10
115.4344194008
 20
75.1046722019
 10
115.4328822381
 20
75.1155303746
 10
115.4314219183
 20
75.1251039759
  0
LWPOLYLINE
  5
3EC
100
AcDbEntity
  8
0
100
AcDbPolyline
 62
7
  6
CONTINUOUS
 90
5
 70
0
 10
115.5904736507
 20
75.0607397517
 10
115.5882718386
 20
75.0790648619
 10
115.5861273475
 20
75.0957609661
 10
115.5840246864
 20
75.1111073483
 10
115.5819645859
 20
75.1251039759
  0
LWPOLYLINE
  5
3ED
100
AcDbEntity
  8
0
100
AcDbPolyline
 62
7
  6
CONTINUOUS
 90
6
 70
0
 10
115.4872734227
 20
76.4566238991
 10
115.4843273977
 20
76.4822866833
 10
115.4816028417
 20
76.5049715819
 10
115.4790963555
 20
76.5247995745
 10
115.4768086155
 20
76.5416495077
 10
115.4747385507
 20
76.555521312
  0
LINE
  5
3EE
100
AcDbEntity
  8
0
100
AcDbLine
 62
7
  6
CONTINUOUS
 10
115.4405701775
 20
74.8459121523
 11
115.4436540338
 21
74.8188969062
  0
LWPOLYLINE
  5
3EF
100
AcDbEntity
  8
0
100
AcDbPolyline
 62
7
  6
CONTINUOUS
 90
3
 70
0
 10
115.4431930345
 20
75.0318512513
 10
115.4413358629
 20
75.0483942758
 10
115.4377356647
 20
75.0789638899
  0
LINE
  5
3F0
100
AcDbEntity
  8
0
100
AcDbLine
 62
7
  6
CONTINUOUS
 10
115.5949508841
 20
75.0208785906
 11
115.5904736507
 21
75.0607397517
  0
LINE
  5
3F1
100
AcDbEntity
  8
RACCORDO
100
AcDbLine
 62
253
  6
CONTINUOUS
 10
117.2118410113
 20
71.8513692487
 11
117.1127993922
 21
73.1453652899
  0
LINE
  5
3F2
100
AcDbEntity
  8
RACCORDO
100
AcDbLine
 62
253
  6
CONTINUOUS
 10
117.1127993922
 20
73.1453652899
 11
117.0479211856
 21
74.0334885006
  0
LINE
  5
3F3
100
AcDbEntity
  8
RACCORDO
100
AcDbLine
 62
253
  6
CONTINUOUS
 10
117.3902255825
 20
73.1435497071
 11
117.3254408819
 21
74.0336887051
  0
LINE
  5
3F4
100
AcDbEntity
  8
RACCORDO
100
AcDbLine
 62
253
  6
CONTINUOUS
 10
117.0479211856
 20
74.0334885006
 11
116.9862121351
 21
74.9226001476
  0
LINE
  5
3F5
100
AcDbEntity
  8
RACCORDO
100
AcDbLine
 62
253
  6
CONTINUOUS
 10
117.3254408819
 20
74.0336887051
 11
117.2638281386
 21
74.9248465778
  0
LINE
  5
3F6
100
AcDbEntity
  8
RACCORDO
100
AcDbLine
 62
253
  6
CONTINUOUS
 10
116.9862121351
 20
74.9226001476
 11
116.9276690492
 21
75.8125335079
  0
LINE
  5
3F7
100
AcDbEntity
  8
RACCORDO
100
AcDbLine
 62
253
  6
CONTINUOUS
 10
117.2638281386
 20
74.9248465778
 11
117.2053747265
 21
75.8168546772
  0
LINE
  5
3F8
100
AcDbEntity
  8
RACCORDO
100
AcDbLine
 62
253
  6
CONTINUOUS
 10
116.9276690492
 20
75.8125335079
 11
116.8737638872
 21
76.6823470079
  0
LINE
  5
3F9
100
AcDbEntity
  8
RACCORDO
100
AcDbLine
 62
253
  6
CONTINUOUS
 10
117.2053747265
 20
75.8168546772
 11
117.1515641741
 21
76.6870838403
  0
LINE
  5
3FA
100
AcDbEntity
  8
0
100
AcDbLine
 62
253
  6
CONTINUOUS
 10
115.6392356406
 20
125.541548907
 11
115.6418379414
 21
125.4964929199
  0
LINE
  5
3FB
100
AcDbEntity
  8
RACCORDO
100
AcDbLine
 62
253
  6
CONTINUOUS
 10
116.8737638872
 20
76.6823470079
 11
116.8256567396
 21
77.5316576852
  0
LINE
  5
3FC
100
AcDbEntity
  8
RACCORDO
100
AcDbLine
 62
253
  6
CONTINUOUS
 10
117.1515641741
 20
76.6870838403
 11
117.1035370135
 21
77.5351966694
  0
LINE
  5
3FD
100
AcDbEntity
  8
0
100
AcDbLine
 62
7
  6
CONTINUOUS
 10
115.6393310635
 20
125.4681885271
 11
115.6405004407
 21
125.4470748137
  0
LINE
  5
3FE
100
AcDbEntity
  8
RACCORDO
100
AcDbLine
 62
253
  6
CONTINUOUS
 10
116.8256567396
 20
77.5316576852
 11
116.7822412227
 21
78.3812491027
  0
LINE
  5
3FF
100
AcDbEntity
  8
RACCORDO
100
AcDbLine
 62
253
  6
CONTINUOUS
 10
117.1035370135
 20
77.5351966694
 11
117.0601920876
 21
78.3836000776
  0
LINE
  5
400
100
AcDbEntity
  8
0
100
AcDbLine
 62
7
  6
CONTINUOUS
 10
115.640499095
 20
125.4470402433
 11
115.6417693536
 21
125.4214987514
  0
LINE
  5
401
100
AcDbEntity
  8
0
100
AcDbLine
 62
253
  6
CONTINUOUS
 10
115.6418379414
 20
125.4964929199
 11
115.6438891989
 21
125.4543093773
  0
LINE
  5
402
100
AcDbEntity
  8
RACCORDO
100
AcDbLine
 62
253
  6
CONTINUOUS
 10
116.7822412227
 20
78.3812491027
 11
116.7435171617
 21
79.2311208754
  0
LINE
  5
403
100
AcDbEntity
  8
RACCORDO
100
AcDbLine
 62
253
  6
CONTINUOUS
 10
117.0601920876
 20
78.3836000776
 11
117.0215293258
 21
79.2322775455
  0
LINE
  5
404
100
AcDbEntity
  8
0
100
AcDbLine
 62
7
  6
CONTINUOUS
 10
115.6417693536
 20
125.4214987514
 11
115.6431471409
 21
125.3901347169
  0
LINE
  5
405
100
AcDbEntity
  8
0
100
AcDbLine
 62
253
  6
CONTINUOUS
 10
115.6438891989
 20
125.4543093773
 11
115.6456352968
 21
125.4124394128
  0
LINE
  5
406
100
AcDbEntity
  8
0
100
AcDbLine
 62
7
  6
CONTINUOUS
 10
115.4937566609
 20
84.5319041432
 11
115.6372437233
 21
80.924963597
  0
LINE
  5
407
100
AcDbEntity
  8
RACCORDO
100
AcDbLine
 62
253
  6
CONTINUOUS
 10
116.7435171617
 20
79.2311208754
 11
116.7094844353
 21
80.0812524151
  0
LINE
  5
408
100
AcDbEntity
  8
RACCORDO
100
AcDbLine
 62
253
  6
CONTINUOUS
 10
117.0215293258
 20
79.2322775455
 11
116.9875487102
 21
80.0812240782
  0
LWPOLYLINE
  5
409
100
AcDbEntity
  8
0
100
AcDbPolyline
 62
7
  6
CONTINUOUS
 90
3
 70
0
 10
115.6431471409
 20
125.3901347169
 10
115.6444231907
 20
125.3566638171
 10
115.6455837211
 20
125.3211420907
  0
LWPOLYLINE
  5
40A
100
AcDbEntity
  8
0
100
AcDbPolyline
 62
7
  6
CONTINUOUS
 90
12
 70
0
 10
115.6372437233
 20
80.924963597
 10
115.6401600601
 20
80.8477976618
 10
115.6426799166
 20
80.7713227149
 10
115.6447976421
 20
80.6957990078
 10
115.6465174468
 20
80.6214743308
 10
115.6478363954
 20
80.548609249
 10
115.6487529688
 20
80.4774629441
 10
115.6492785702
 20
80.408283506
 10
115.6494237486
 20
80.3413147808
 10
115.6491936831
 20
80.276774844
 10
115.6486033349
 20
80.2148813825
 10
115.6476699908
 20
80.1558637664
  0
LWPOLYLINE
  5
40B
100
AcDbEntity
  8
RACCORDO
100
AcDbPolyline
 62
253
  6
CONTINUOUS
 90
15
 70
0
 10
116.9875487102
 20
80.0812240782
 10
116.8937404887
 20
82.6563661563
 10
116.8108125698
 20
85.3776526619
 10
116.7387649535
 20
88.2450970184
 10
116.6756436423
 20
91.2909435583
 10
116.6234026336
 20
94.4829116103
 10
116.5879039199
 20
97.7241595549
 10
116.57109205
 20
101.0146060233
 10
116.571022475
 20
104.3541072607
 10
116.5877235408
 20
107.645681769
 10
116.623153636
 20
110.8894898358
 10
116.6753543721
 20
114.0851451481
 10
116.7384789294
 20
117.1348925098
 10
116.8105783684
 20
120.0061465904
 10
116.8936016286
 20
122.7314556401
  0
LWPOLYLINE
  5
40C
100
AcDbEntity
  8
0
100
AcDbPolyline
 62
253
  6
CONTINUOUS
 90
10
 70
0
 10
115.6402693368
 20
80.8950406504
 10
115.6431236404
 20
80.8157813335
 10
115.6455736597
 20
80.7366004721
 10
115.6476396051
 20
80.6569921974
 10
115.6493079427
 20
80.5774623859
 10
115.6505304053
 20
80.4995286245
 10
115.6512918273
 20
80.4232234329
 10
115.6516187579
 20
80.3485142294
 10
115.6515241303
 20
80.2768208892
 10
115.6510154839
 20
80.2086166549
  0
LWPOLYLINE
  5
40D
100
AcDbEntity
  8
RACCORDO
100
AcDbPolyline
 62
253
  6
CONTINUOUS
 90
15
 70
0
 10
116.7094844392
 20
80.0812524151
 10
116.6196962748
 20
82.6563821723
 10
116.5360247855
 20
85.377668171
 10
116.4607430522
 20
88.2451182349
 10
116.3959014081
 20
91.2909583156
 10
116.3447873376
 20
94.4829140565
 10
116.3099090114
 20
97.7241669483
 10
116.2917916999
 20
101.0146137016
 10
116.2917290488
 20
104.354099475
 10
116.3097286646
 20
107.645674328
 10
116.3445204476
 20
110.8894873613
 10
116.3956014537
 20
114.0851303384
 10
116.4604570776
 20
117.1348712449
 10
116.5357897536
 20
120.0061310551
 10
116.6195564773
 20
122.7314395433
  0
LINE
  5
40E
100
AcDbEntity
  8
0
100
AcDbLine
 62
7
  6
CONTINUOUS
 10
115.3754185857
 20
88.1642693088
 11
115.493890475
 21
84.528538019
  0
LINE
  5
40F
100
AcDbEntity
  8
0
100
AcDbLine
 62
253
  6
CONTINUOUS
 10
115.6456352968
 20
125.4124394128
 11
115.6477123099
 21
125.350717758
  0
LINE
  5
410
100
AcDbEntity
  8
0
100
AcDbLine
 62
253
  6
CONTINUOUS
 10
115.6400755543
 20
125.4614342605
 11
115.6404972841
 21
125.4470746432
  0
LINE
  5
411
100
AcDbEntity
  8
0
100
AcDbLine
 62
7
  6
CONTINUOUS
 10
115.6455837211
 20
125.3211420907
 11
115.6467994975
 21
125.2762027276
  0
LINE
  5
412
100
AcDbEntity
  8
0
100
AcDbLine
 62
7
  6
CONTINUOUS
 10
115.2833764744
 20
91.7974001251
 11
115.3756117417
 21
88.1576003322
  0
LINE
  5
413
100
AcDbEntity
  8
0
100
AcDbLine
 62
253
  6
CONTINUOUS
 10
115.6477123099
 20
125.350717758
 11
115.6487767025
 21
125.3108014494
  0
LINE
  5
414
100
AcDbEntity
  8
0
100
AcDbLine
 62
7
  6
CONTINUOUS
 10
115.6468053488
 20
125.2761517085
 11
115.6475383619
 21
125.2429143303
  0
LINE
  5
415
100
AcDbEntity
  8
0
100
AcDbLine
 62
253
  6
CONTINUOUS
 10
115.6487767025
 20
125.3108014494
 11
115.6500973858
 21
125.2486124364
  0
LINE
  5
416
100
AcDbEntity
  8
0
100
AcDbLine
 62
7
  6
CONTINUOUS
 10
115.2176365873
 20
95.4310838081
 11
115.2835213754
 21
91.7907287319
  0
LWPOLYLINE
  5
417
100
AcDbEntity
  8
0
100
AcDbPolyline
 62
7
  6
CONTINUOUS
 90
11
 70
0
 10
115.6475383619
 20
125.2429143303
 10
115.6485111901
 20
125.1842609544
 10
115.6491426105
 20
125.1227007251
 10
115.6494159653
 20
125.0584622332
 10
115.6493152821
 20
124.9917621839
 10
115.6488346914
 20
124.9228170861
 10
115.6479644415
 20
124.8518681575
 10
115.6466920461
 20
124.7791626423
 10
115.6450177417
 20
124.7049586386
 10
115.6429452743
 20
124.6295169239
 10
115.6404699817
 20
124.5530867392
  0
LINE
  5
418
100
AcDbEntity
  8
0
100
AcDbLine
 62
253
  6
CONTINUOUS
 10
115.6500973858
 20
125.2486124364
 11
115.6510156955
 21
125.1834110283
  0
LINE
  5
419
100
AcDbEntity
  8
0
100
AcDbLine
 62
7
  6
CONTINUOUS
 10
115.1782012386
 20
99.0651319537
 11
115.2177331999
 21
95.4244106801
  0
LWPOLYLINE
  5
41A
100
AcDbEntity
  8
0
100
AcDbPolyline
 62
253
  6
CONTINUOUS
 90
11
 70
0
 10
115.6510156955
 20
125.1834110283
 10
115.6515243013
 20
125.1151971733
 10
115.6516187111
 20
125.0434974106
 10
115.6512914453
 20
124.968785085
 10
115.6505297712
 20
124.8924803784
 10
115.649307205
 20
124.8145519763
 10
115.6476388425
 20
124.7350311313
 10
115.6455729561
 20
124.6554319355
 10
115.6431230838
 20
124.5762591008
 10
115.6402690145
 20
124.4970079232
 10
115.4933790159
 20
120.7991418525
  0
LWPOLYLINE
  5
41B
100
AcDbEntity
  8
0
100
AcDbPolyline
 62
253
  6
CONTINUOUS
 90
7
 70
0
 10
115.5928250846
 20
79.6033977837
 10
115.5926068871
 20
79.646906965
 10
115.5961624732
 20
79.6902694159
 10
115.6034649185
 20
79.7331567753
 10
115.6144589253
 20
79.77524428
 10
115.6290612418
 20
79.8162132234
 10
115.6312779251
 20
79.8210556397
  0
LINE
  5
41C
100
AcDbEntity
  8
0
100
AcDbLine
 62
7
  6
CONTINUOUS
 10
115.1650718739
 20
102.6993657657
 11
115.1782495528
 21
99.0584576686
  0
LINE
  5
41D
100
AcDbEntity
  8
0
100
AcDbLine
 62
7
  6
CONTINUOUS
 10
115.1782495528
 20
106.3335991569
 11
115.1650718739
 21
102.6926910598
  0
LWPOLYLINE
  5
41E
100
AcDbEntity
  8
0
100
AcDbPolyline
 62
253
  6
CONTINUOUS
 90
7
 70
0
 10
115.5928284074
 20
125.7886588808
 10
115.5926097715
 20
125.7451495833
 10
115.5961649446
 20
125.7017869815
 10
115.6034670049
 20
125.6588994419
 10
115.6144606569
 20
125.6168117334
 10
115.6290626506
 20
125.5758425681
 10
115.63127406
 20
125.5710115666
  0
LINE
  5
41F
100
AcDbEntity
  8
0
100
AcDbLine
 62
7
  6
CONTINUOUS
 10
115.2177331999
 20
109.9676461454
 11
115.1782012386
 21
106.3269248718
  0
LINE
  5
420
100
AcDbEntity
  8
0
100
AcDbLine
 62
253
  6
CONTINUOUS
 10
115.6510154839
 20
80.2086166549
 11
115.6500972343
 21
80.1434281678
  0
LINE
  5
421
100
AcDbEntity
  8
0
100
AcDbLine
 62
7
  6
CONTINUOUS
 10
115.2835213754
 20
113.6013280936
 11
115.2176365873
 21
109.9609730174
  0
LINE
  5
422
100
AcDbEntity
  8
0
100
AcDbLine
 62
253
  6
CONTINUOUS
 10
115.6500972343
 20
80.1434281678
 11
115.648278445
 21
80.0614318143
  0
LINE
  5
423
100
AcDbEntity
  8
0
100
AcDbLine
 62
7
  6
CONTINUOUS
 10
115.3756117417
 20
117.2344564933
 11
115.2833764744
 21
113.5946567004
  0
LINE
  5
424
100
AcDbEntity
  8
0
100
AcDbLine
 62
7
  6
CONTINUOUS
 10
115.6476699908
 20
80.1558637664
 11
115.6464596147
 21
80.1027253466
  0
LWPOLYLINE
  5
425
100
AcDbEntity
  8
0
100
AcDbPolyline
 62
7
  6
CONTINUOUS
 90
3
 70
0
 10
115.6467994975
 20
80.1158540979
 10
115.6457687666
 20
80.0771573483
 10
115.6446316684
 20
80.0413662678
  0
LINE
  5
426
100
AcDbEntity
  8
0
100
AcDbLine
 62
253
  6
CONTINUOUS
 10
115.648278445
 20
80.0614318143
 11
115.6470821905
 21
80.0210699951
  0
LWPOLYLINE
  5
427
100
AcDbEntity
  8
0
100
AcDbPolyline
 62
253
  6
CONTINUOUS
 90
12
 70
0
 10
115.4933790159
 20
120.7991418525
 10
115.3758522133
 20
117.1796584056
 10
115.2844355975
 20
113.5594166798
 10
115.2191347588
 20
109.9386041706
 10
115.1799532973
 20
106.3174107291
 10
115.166892738
 20
102.6960285535
 10
115.1799532954
 20
99.074646356
 10
115.2191347558
 20
95.4534528648
 10
115.2844355941
 20
91.8326403024
 10
115.3758522102
 20
88.212398528
 10
115.4933790138
 20
84.5929150288
 10
115.6402693368
 20
80.8950406504
  0
LINE
  5
428
100
AcDbEntity
  8
0
100
AcDbLine
 62
7
  6
CONTINUOUS
 10
115.493998014
 20
120.8668183492
 11
115.3754185857
 21
117.2277875167
  0
LINE
  5
429
100
AcDbEntity
  8
0
100
AcDbLine
 62
253
  6
CONTINUOUS
 10
115.6470821905
 20
80.0210699951
 11
115.6456369066
 21
79.9796592346
  0
LINE
  5
42A
100
AcDbEntity
  8
0
100
AcDbLine
 62
7
  6
CONTINUOUS
 10
115.6446316684
 20
80.0413662678
 11
115.643377065
 21
80.0076009753
  0
LINE
  5
42B
100
AcDbEntity
  8
RACCORDO
100
AcDbLine
 62
253
  6
CONTINUOUS
 10
116.6195564773
 20
122.7314395433
 11
116.7259144065
 21
125.7359007893
  0
LINE
  5
42C
100
AcDbEntity
  8
RACCORDO
100
AcDbLine
 62
253
  6
CONTINUOUS
 10
116.8936016286
 20
122.7314556401
 11
117.0039537668
 21
125.735340146
  0
LINE
  5
42D
100
AcDbEntity
  8
0
100
AcDbLine
 62
7
  6
CONTINUOUS
 10
115.6404699817
 20
124.5530867392
 11
115.4937566609
 21
120.8601526823
  0
LINE
  5
42E
100
AcDbEntity
  8
0
100
AcDbLine
 62
7
  6
CONTINUOUS
 10
115.643377065
 20
80.0076009753
 11
115.642018388
 21
79.9759186771
  0
LINE
  5
42F
100
AcDbEntity
  8
0
100
AcDbLine
 62
253
  6
CONTINUOUS
 10
115.6456369066
 20
79.9796592346
 11
115.6438904041
 21
79.9377758426
  0
LINE
  5
430
100
AcDbEntity
  8
RACCORDO
100
AcDbLine
 62
253
  6
CONTINUOUS
 10
116.7259144065
 20
125.7359007893
 11
116.7622927774
 21
126.5859074161
  0
LINE
  5
431
100
AcDbEntity
  8
RACCORDO
100
AcDbLine
 62
253
  6
CONTINUOUS
 10
117.0039537668
 20
125.735340146
 11
117.040275484
 21
126.5841521892
  0
LWPOLYLINE
  5
432
100
AcDbEntity
  8
0
100
AcDbPolyline
 62
7
  6
CONTINUOUS
 90
6
 70
0
 10
115.5806686296
 20
75.1416477847
 10
115.5808540984
 20
75.1457508068
 10
115.5809195375
 20
75.1511471173
 10
115.5808649034
 20
75.157836727
 10
115.5806627514
 20
75.166073025
 10
115.5791989657
 20
75.2068878891
  0
LINE
  5
433
100
AcDbEntity
  8
0
100
AcDbLine
 62
7
  6
CONTINUOUS
 10
115.642018388
 20
79.9759186771
 11
115.6404993471
 21
79.9450211736
  0
LINE
  5
434
100
AcDbEntity
  8
RACCORDO
100
AcDbLine
 62
253
  6
CONTINUOUS
 10
116.7622927774
 20
126.5859074161
 11
116.8033625813
 21
127.4356378355
  0
LINE
  5
435
100
AcDbEntity
  8
RACCORDO
100
AcDbLine
 62
253
  6
CONTINUOUS
 10
117.040275484
 20
126.5841521892
 11
117.0812793276
 21
127.4326954575
  0
LINE
  5
436
100
AcDbEntity
  8
0
100
AcDbLine
 62
253
  6
CONTINUOUS
 10
115.6438904041
 20
79.9377758426
 11
115.6418379414
 21
79.8955639056
  0
LINE
  5
437
100
AcDbEntity
  8
RACCORDO
100
AcDbLine
 62
253
  6
CONTINUOUS
 10
117.0812793276
 20
127.4326954575
 11
117.1269653719
 21
128.280953657
  0
LINE
  5
438
100
AcDbEntity
  8
RACCORDO
100
AcDbLine
 62
253
  6
CONTINUOUS
 10
116.8033625813
 20
127.4356378355
 11
116.8491238397
 21
128.2850920806
  0
LINE
  5
439
100
AcDbEntity
  8
0
100
AcDbLine
 62
253
  6
CONTINUOUS
 10
115.6418379414
 20
79.8955639056
 11
115.639235641
 21
79.8505079148
  0
LWPOLYLINE
  5
43A
100
AcDbEntity
  8
0
100
AcDbPolyline
 62
7
  6
CONTINUOUS
 90
6
 70
0
 10
115.640500779
 20
79.9449883246
 10
115.6387832659
 20
79.9146874123
 10
115.6375653778
 20
79.8956861165
 10
115.6363373518
 20
79.8782566872
 10
115.6351094932
 20
79.8623477429
 10
115.6338926529
 20
79.8479303443
  0
LINE
  5
43B
100
AcDbEntity
  8
RACCORDO
100
AcDbLine
 62
253
  6
CONTINUOUS
 10
116.8491238397
 20
128.2850920806
 11
116.899576968
 21
129.134249651
  0
LINE
  5
43C
100
AcDbEntity
  8
RACCORDO
100
AcDbLine
 62
253
  6
CONTINUOUS
 10
117.1269653719
 20
128.280953657
 11
117.1773336358
 21
129.1289218589
  0
LINE
  5
43D
100
AcDbEntity
  8
RACCORDO
100
AcDbLine
 62
253
  6
CONTINUOUS
 10
117.1773336118
 20
129.1289218588
 11
117.2342064238
 21
130.0213069167
  0
LINE
  5
43E
100
AcDbEntity
  8
RACCORDO
100
AcDbLine
 62
253
  6
CONTINUOUS
 10
116.899576968
 20
129.134249651
 11
116.9565470289
 21
130.0245990372
  0
LINE
  5
43F
100
AcDbEntity
  8
RACCORDO
100
AcDbLine
 62
253
  6
CONTINUOUS
 10
117.2342064238
 20
130.0213069167
 11
117.2942395013
 21
130.9129073195
  0
LINE
  5
440
100
AcDbEntity
  8
RACCORDO
100
AcDbLine
 62
253
  6
CONTINUOUS
 10
116.9565470289
 20
130.0245990372
 11
117.0166704158
 21
130.9141276788
  0
LWPOLYLINE
  5
441
100
AcDbEntity
  8
RACCORDO
100
AcDbPolyline
 62
253
  6
CONTINUOUS
 90
30
 70
0
 10
117.4890852149
 20
133.5544203288
 10
117.5178114797
 20
133.9686095629
 10
117.544366642
 20
134.3794415194
 10
117.5687335081
 20
134.7862931343
 10
117.5909292715
 20
135.1885577878
 10
117.6110055128
 20
135.5856461624
 10
117.6289347789
 20
135.9769237227
 10
117.6447445229
 20
136.3618586122
 10
117.6585686851
 20
136.7400267046
 10
117.6703873387
 20
137.1108274864
 10
117.6802204106
 20
137.473756725
 10
117.6882616217
 20
137.8285321781
 10
117.6944980682
 20
138.1745947315
 10
117.6989426539
 20
138.5114446407
 10
117.7018278114
 20
138.838868287
 10
117.7031429079
 20
139.1564899941
 10
117.7028985762
 20
139.4636435
 10
117.7013591471
 20
139.7596922932
 10
117.6985183854
 20
140.0440798083
 10
117.6943825262
 20
140.3164624149
 10
117.6892346058
 20
140.5765489212
 10
117.6830720971
 20
140.8240017221
 10
117.675897527
 20
141.0583085831
 10
117.6680015129
 20
141.2789524667
 10
117.6593844756
 20
141.4856669791
 10
117.6500459942
 20
141.6780356401
 10
117.6402754235
 20
141.8554550223
 10
117.6301692151
 20
142.0176356704
 10
117.6196309175
 20
142.1645125338
 10
117.6086605305
 20
142.295936373
  0
LWPOLYLINE
  5
442
100
AcDbEntity
  8
0
100
AcDbPolyline
 62
253
  6
CONTINUOUS
 90
12
 70
0
 10
115.639235641
 20
79.8505079148
 10
115.6363236185
 20
79.8089687414
 10
115.6331020577
 20
79.7709462517
 10
115.6295485289
 20
79.7362410893
 10
115.6256874168
 20
79.705052378
 10
115.6215874385
 20
79.6779777029
 10
115.6172420045
 20
79.655205711
 10
115.612656785
 20
79.6365475574
 10
115.6079154249
 20
79.6220345948
 10
115.6030442732
 20
79.6116772407
 10
115.5980143527
 20
79.6054649782
 10
115.592825061
 20
79.6033977826
  0
LWPOLYLINE
  5
443
100
AcDbEntity
  8
RACCORDO
100
AcDbPolyline
 62
253
  6
CONTINUOUS
 90
30
 70
0
 10
117.2118450862
 20
133.5407528926
 10
117.2405801237
 20
133.9439420618
 10
117.2670962443
 20
134.3433294618
 10
117.2914563221
 20
134.7395194338
 10
117.3136781401
 20
135.1319078875
 10
117.3337152797
 20
135.5186840426
 10
117.3515993773
 20
135.8997573403
 10
117.3674100491
 20
136.2752229672
 10
117.3811557327
 20
136.6435519171
 10
117.392891686
 20
137.0046867931
 10
117.4027054708
 20
137.3586931857
 10
117.4106362639
 20
137.7042293312
 10
117.4167581085
 20
138.0412682507
 10
117.4211672086
 20
138.3698481579
 10
117.4239167173
 20
138.6887274956
 10
117.4250867
 20
138.9980268207
 10
117.4247920451
 20
139.2976391854
 10
117.4231075753
 20
139.5859842049
 10
117.4201093061
 20
139.8629277514
 10
117.4159120131
 20
140.1286200465
 10
117.410609769
 20
140.3819092862
 10
117.4042770796
 20
140.6228389461
 10
117.3970332493
 20
140.8513822679
 10
117.3889922758
 20
141.0662834979
 10
117.3802017195
 20
141.2675086655
 10
117.3707839917
 20
141.4551082845
 10
117.3608933819
 20
141.6279542547
 10
117.3505970648
 20
141.7856758068
 10
117.3399284384
 20
141.9286587409
 10
117.3289525311
 20
142.0569096167
  0
LINE
  5
444
100
AcDbEntity
  8
RACCORDO
100
AcDbLine
 62
253
  6
CONTINUOUS
 10
117.2942395013
 20
130.9129073195
 11
117.357436163
 21
131.803578473
  0
LINE
  5
445
100
AcDbEntity
  8
RACCORDO
100
AcDbLine
 62
253
  6
CONTINUOUS
 10
117.0166704158
 20
130.9141276788
 11
117.0799643346
 21
131.8027707577
  0
LWPOLYLINE
  5
446
100
AcDbEntity
  8
0
100
AcDbPolyline
 62
7
  6
CONTINUOUS
 90
6
 70
0
 10
115.4301272655
 20
75.1416477847
 10
115.4303202762
 20
75.144254542
 10
115.4304127835
 20
75.1481192626
 10
115.4304048618
 20
75.153241954
 10
115.4302782026
 20
75.1598500411
 10
115.4297797429
 20
75.1761579661
  0
LWPOLYLINE
  5
447
100
AcDbEntity
  8
RACCORDO
100
AcDbPolyline
 62
253
  6
CONTINUOUS
 90
3
 70
0
 10
117.0799643346
 20
131.8027707577
 10
117.1464337678
 20
132.6903618296
 10
117.2118450862
 20
133.5407528926
  0
LINE
  5
448
100
AcDbEntity
  8
RACCORDO
100
AcDbLine
 62
253
  6
CONTINUOUS
 10
117.357436163
 20
131.803578473
 11
117.4890852149
 21
133.5544203288
  0
LWPOLYLINE
  5
449
100
AcDbEntity
  8
0
100
AcDbPolyline
 62
7
  6
CONTINUOUS
 90
7
 70
0
 10
115.3270777376
 20
76.1409736168
 10
115.3278651428
 20
76.1495823271
 10
115.3287838333
 20
76.1564990284
 10
115.3298332552
 20
76.161723704
 10
115.3310107979
 20
76.1652594656
 10
115.3323180948
 20
76.1671031803
 10
115.3331325909
 20
76.1673935074
  0
LWPOLYLINE
  5
44A
100
AcDbEntity
  8
0
100
AcDbPolyline
 62
7
  6
CONTINUOUS
 90
6
 70
0
 10
115.6338926529
 20
79.8479303443
 10
115.6326965471
 20
79.8349534296
 10
115.6315305972
 20
79.8233595806
 10
115.6304109324
 20
79.8131501356
 10
115.6293646315
 20
79.8043970872
 10
115.6284035424
 20
79.7970207573
  0
LWPOLYLINE
  5
44B
100
AcDbEntity
  8
RACCORDO
100
AcDbPolyline
 62
253
  6
CONTINUOUS
 90
13
 70
0
 10
116.8995769677
 20
129.134249651
 10
116.9078667397
 20
129.1353174759
 10
116.9195951977
 20
129.136117173
 10
116.9346209146
 20
129.1366390993
 10
116.9527627034
 20
129.1368769612
 10
116.973801802
 20
129.1368278904
 10
116.9974845112
 20
129.1364924787
 10
117.0235252541
 20
129.1358747705
 10
117.0516100192
 20
129.1349822145
 10
117.0814001476
 20
129.1338255736
 10
117.1125364162
 20
129.132418795
 10
117.1446433693
 20
129.1307788424
 10
117.1773338467
 20
129.128925491
  0
LINE
  5
44C
100
AcDbEntity
  8
0
100
AcDbLine
 62
253
  6
CONTINUOUS
 10
115.6370091685
 20
124.4176784027
 11
115.6351788284
 21
124.4176607246
  0
LINE
  5
44D
100
AcDbEntity
  8
0
100
AcDbLine
 62
253
  6
CONTINUOUS
 10
115.6487767025
 20
125.3108014494
 11
116.7094844255
 21
125.3108041488
  0
LWPOLYLINE
  5
44E
100
AcDbEntity
  8
0
100
AcDbPolyline
 62
7
  6
CONTINUOUS
 90
10
 70
0
 10
115.6287430369
 20
125.5925039758
 10
115.6298050705
 20
125.5840667546
 10
115.6309506851
 20
125.5740954187
 10
115.6321626038
 20
125.5625380052
 10
115.6333931744
 20
125.5496839968
 10
115.6346286231
 20
125.5355599575
 10
115.6358594665
 20
125.5201632632
 10
115.6370575236
 20
125.5037746601
 10
115.6382164281
 20
125.4864428431
 10
115.6393310635
 20
125.4681885271
  0
LWPOLYLINE
  5
44F
100
AcDbEntity
  8
RACCORDO
100
AcDbPolyline
 62
253
  6
CONTINUOUS
 90
10
 70
0
 10
117.3289524868
 20
142.0569093366
 10
117.3260752832
 20
142.0874400639
 10
117.3230928713
 20
142.1169599967
 10
117.3200051957
 20
142.1454692299
 10
117.3168120184
 20
142.1729688844
 10
117.3135135407
 20
142.1994580195
 10
117.3101103667
 20
142.2249336332
 10
117.3066026911
 20
142.2493947793
 10
117.3029903361
 20
142.2728425663
 10
117.2992733476
 20
142.2952770706
  0
LWPOLYLINE
  5
450
100
AcDbEntity
  8
RACCORDO
100
AcDbPolyline
 62
253
  6
CONTINUOUS
 90
10
 70
0
 10
117.6086605305
 20
142.295936373
 10
117.6057891904
 20
142.3272745542
 10
117.6028129266
 20
142.3575789937
 10
117.599731739
 20
142.3868473002
 10
117.5965455355
 20
142.4150747864
 10
117.5932544083
 20
142.4422618566
 10
117.589858634
 20
142.4684131206
 10
117.5863583048
 20
142.4935279524
 10
117.5827533286
 20
142.5176013778
 10
117.5790437052
 20
142.5406308414
  0
LINE
  5
451
100
AcDbEntity
  8
DRAFT
100
AcDbLine
 62
7
  6
CONTINUOUS
 10
120.5848941986
 20
61.6960462335
 11
120.5848941986
 21
143.696010592
  0
LINE
  5
452
100
AcDbEntity
  8
0
100
AcDbLine
 62
7
  6
CONTINUOUS
 10
121.3848941986
 20
62.4227981764
 11
121.3848941986
 21
62.3195598246
  0
LWPOLYLINE
  5
453
100
AcDbEntity
  8
RACCORDO
100
AcDbPolyline
 62
253
  6
CONTINUOUS
 90
31
 70
0
 10
117.6086605305
 20
63.0961204525
 10
117.6196276674
 20
63.2275010802
 10
117.6301635968
 20
63.3743366777
 10
117.6402683186
 20
63.5364814869
 10
117.6500385
 20
63.7138768406
 10
117.6593774738
 20
63.9062340986
 10
117.6679952389
 20
64.112942721
 10
117.675892112
 20
64.333586853
 10
117.6830677763
 20
64.5679014652
 10
117.68923128
 20
64.8153595931
 10
117.6943799546
 20
65.0754405483
 10
117.6985164686
 20
65.3478129827
 10
117.7013578756
 20
65.6321977822
 10
117.7028980196
 20
65.9282601941
 10
117.7031430567
 20
66.2354370984
 10
117.7018285092
 20
66.5530812544
 10
117.6989436613
 20
66.8805219758
 10
117.6944992288
 20
67.217386961
 10
117.6882628806
 20
67.5634624471
 10
117.6802217559
 20
67.918247461
 10
117.6703887155
 20
68.2811834855
 10
117.6585700103
 20
68.6519911284
 10
117.6447456628
 20
69.0301676141
 10
117.6289356505
 20
69.4151109183
 10
117.6110061573
 20
69.8063954464
 10
117.5909298377
 20
70.2034876164
 10
117.5687340371
 20
70.605754383
 10
117.5443669757
 20
71.0126098543
 10
117.5178113934
 20
71.4234486144
 10
117.4890845503
 20
71.8376464542
 10
117.3902255825
 20
73.1435497071
  0
LWPOLYLINE
  5
454
100
AcDbEntity
  8
RACCORDO
100
AcDbPolyline
 62
253
  6
CONTINUOUS
 90
30
 70
0
 10
117.3289525362
 20
63.3351473154
 10
117.3399262325
 20
63.4633519168
 10
117.3505923842
 20
63.6062976785
 10
117.3608865471
 20
63.7639911627
 10
117.3707764667
 20
63.9368190873
 10
117.380195046
 20
64.1244097731
 10
117.3889865834
 20
64.3256323806
 10
117.3970282572
 20
64.5405396463
 10
117.4042732283
 20
64.7690953863
 10
117.4106071043
 20
65.0100344463
 10
117.4159102284
 20
65.2633230238
 10
117.4201080754
 20
65.5290116311
 10
117.4231066446
 20
65.8059601872
 10
117.4247914485
 20
66.0943263219
 10
117.4250865514
 20
66.3939685179
 10
117.4239169249
 20
66.7032959169
 10
117.4211673621
 20
67.022198277
 10
117.4167579062
 20
67.3507994449
 10
117.4106356421
 20
67.6878572571
 10
117.4027043898
 20
68.0334089272
 10
117.3928899639
 20
68.3874284714
 10
117.3811532293
 20
68.7485765144
 10
117.3674065865
 20
69.1169200155
 10
117.3515948043
 20
69.4924002095
 10
117.3337096095
 20
69.8734863727
 10
117.3136708718
 20
70.2602787211
 10
117.2914474554
 20
70.6526816662
 10
117.2670873169
 20
71.0488676045
 10
117.2405730225
 20
71.4482268215
 10
117.2118410113
 20
71.8513692487
  0
LWPOLYLINE
  5
455
100
AcDbEntity
  8
0
100
AcDbPolyline
 62
7
  6
CONTINUOUS
 90
5
 70
0
 10
115.6284035424
 20
79.7970207573
 10
115.6275560393
 20
79.7910661891
 10
115.626896509
 20
79.7868304451
 10
115.6264472385
 20
79.7841947545
 10
115.6262783547
 20
79.7832887085
  0
LINE
  5
456
100
AcDbEntity
  8
0
100
AcDbLine
 62
7
  6
CONTINUOUS
 10
115.6272258843
 20
79.7889458131
 11
115.6270685287
 21
79.7878988335
  0
LINE
  5
457
100
AcDbEntity
  8
RACCORDO
100
AcDbLine
 62
253
  6
CONTINUOUS
 10
120.5848941986
 20
129.1383697791
 11
117.1773336118
 21
129.1289218588
  0
LINE
  5
458
100
AcDbEntity
  8
0
100
AcDbLine
 62
253
  6
CONTINUOUS
 10
120.5848941986
 20
129.1119274378
 11
121.0078863801
 21
129.1095636066
  0
LINE
  5
459
100
AcDbEntity
  8
0
100
AcDbLine
 62
253
  6
CONTINUOUS
 10
121.0078863801
 20
129.1095636066
 11
121.4237895732
 21
129.1048497991
  0
LINE
  5
45A
100
AcDbEntity
  8
0
100
AcDbLine
 62
253
  6
CONTINUOUS
 10
121.4237895732
 20
129.1048497991
 11
121.8279491287
 21
129.0978387707
  0
LINE
  5
45B
100
AcDbEntity
  8
0
100
AcDbLine
 62
253
  6
CONTINUOUS
 10
121.8279491287
 20
129.0978387707
 11
122.2158418279
 21
129.0886089864
  0
LINE
  5
45C
100
AcDbEntity
  8
0
100
AcDbLine
 62
253
  6
CONTINUOUS
 10
122.2158418279
 20
129.0886089864
 11
122.5831265055
 21
129.077263743
  0
LINE
  5
45D
100
AcDbEntity
  8
0
100
AcDbLine
 62
253
  6
CONTINUOUS
 10
115.2181713251
 20
125.8082913765
 11
115.592825061
 21
125.7886590429
  0
LWPOLYLINE
  5
45E
100
AcDbEntity
  8
0
100
AcDbPolyline
 62
7
  6
CONTINUOUS
 90
8
 70
0
 10
115.6278822392
 20
125.6018985639
 10
115.6271268879
 20
125.6049565195
 10
115.6264745581
 20
125.6078197668
 10
115.6262988232
 20
125.6086628608
 10
115.6265274672
 20
125.6074105777
 10
115.6270404241
 20
125.6043352818
 10
115.627792978
 20
125.5993804408
 10
115.6287430369
 20
125.5925039758
  0
LINE
  5
45F
100
AcDbEntity
  8
0
100
AcDbLine
 62
7
  6
CONTINUOUS
 10
123.3848941986
 20
63.6622706364
 11
123.3848941986
 21
141.8460106034
  0
LWPOLYLINE
  5
460
100
AcDbEntity
  8
RACCORDO
100
AcDbPolyline
 62
253
  6
CONTINUOUS
 90
10
 70
0
 10
117.5790435179
 20
62.851424814
 10
117.5827532962
 20
62.8744552436
 10
117.5863583945
 20
62.8985295144
 10
117.5898588129
 20
62.9236450443
 10
117.5932546444
 20
62.9497968613
 10
117.5965457959
 20
62.9769842859
 10
117.5997319883
 20
63.0052118068
 10
117.6028131282
 20
63.0344797595
 10
117.605789309
 20
63.0647834505
 10
117.6086605305
 20
63.0961204525
  0
LWPOLYLINE
  5
461
100
AcDbEntity
  8
RACCORDO
100
AcDbPolyline
 62
253
  6
CONTINUOUS
 90
10
 70
0
 10
117.2992733476
 20
63.0967797549
 10
117.3029905159
 20
63.1192155491
 10
117.3066030041
 20
63.1426642972
 10
117.3101107632
 20
63.1671260757
 10
117.3135139558
 20
63.1926019815
 10
117.3168123954
 20
63.2190910798
 10
117.3200055114
 20
63.2465904033
 10
117.3230931126
 20
63.2750990228
 10
117.3260754228
 20
63.3046180477
 10
117.3289524956
 20
63.3351475725
  0
LINE
  5
462
100
AcDbEntity
  8
RACCORDO
100
AcDbLine
 62
253
  6
CONTINUOUS
 10
117.5540287116
 20
62.7068990759
 11
117.5790435103
 21
62.8514248144
  0
LINE
  5
463
100
AcDbEntity
  8
RACCORDO
100
AcDbLine
 62
253
  6
CONTINUOUS
 10
117.2742063619
 20
62.953035884
 11
117.2992733476
 21
63.0967797549
  0
LINE
  5
464
100
AcDbEntity
  8
RACCORDO
100
AcDbLine
 62
253
  6
CONTINUOUS
 10
117.5304197332
 20
62.5747807315
 11
117.5540287116
 21
62.7068990759
  0
LINE
  5
465
100
AcDbEntity
  8
RACCORDO
100
AcDbLine
 62
253
  6
CONTINUOUS
 10
117.2505478963
 20
62.8216312284
 11
117.2742063619
 21
62.953035884
  0
LINE
  5
466
100
AcDbEntity
  8
RACCORDO
100
AcDbLine
 62
253
  6
CONTINUOUS
 10
117.5154620322
 20
62.4935969683
 11
117.5304197332
 21
62.5747807315
  0
LINE
  5
467
100
AcDbEntity
  8
RACCORDO
100
AcDbLine
 62
253
  6
CONTINUOUS
 10
117.2355588952
 20
62.7408855772
 11
117.2505478963
 21
62.8216312284
  0
LINE
  5
468
100
AcDbEntity
  8
RACCORDO
100
AcDbLine
 62
253
  6
CONTINUOUS
 10
117.5011304491
 20
62.4179314933
 11
117.5154620322
 21
62.4935969683
  0
LINE
  5
469
100
AcDbEntity
  8
RACCORDO
100
AcDbLine
 62
253
  6
CONTINUOUS
 10
117.2211972686
 20
62.6656302453
 11
117.2355588952
 21
62.7408855772
  0
LINE
  5
46A
100
AcDbEntity
  8
RACCORDO
100
AcDbLine
 62
253
  6
CONTINUOUS
 10
117.4874255436
 20
62.3477903834
 11
117.5011304491
 21
62.4179314933
  0
LINE
  5
46B
100
AcDbEntity
  8
RACCORDO
100
AcDbLine
 62
253
  6
CONTINUOUS
 10
117.2074636665
 20
62.5958681144
 11
117.2211972686
 21
62.6656302453
  0
LWPOLYLINE
  5
46C
100
AcDbEntity
  8
RACCORDO
100
AcDbPolyline
 62
253
  6
CONTINUOUS
 90
9
 70
0
 10
117.1534625795
 20
62.3501062646
 10
117.1588301075
 20
62.3718924352
 10
117.1643563999
 20
62.3950594797
 10
117.1700411127
 20
62.4196075045
 10
117.1758838636
 20
62.4455379134
 10
117.1818844827
 20
62.4728495342
 10
117.18804296
 20
62.5015386185
 10
117.1943591034
 20
62.5316050525
 10
117.2074636665
 20
62.5958681144
  0
LINE
  5
46D
100
AcDbEntity
  8
RACCORDO
100
AcDbLine
 62
253
  6
CONTINUOUS
 10
120.5848941986
 20
133.1557055982
 11
117.4581878473
 21
133.1375013003
  0
LWPOLYLINE
  5
46E
100
AcDbEntity
  8
0
100
AcDbPolyline
 62
253
  6
CONTINUOUS
 90
16
 70
0
 10
120.5848941986
 20
133.1005680009
 10
120.7969817802
 20
133.0987207343
 10
121.0078863801
 20
133.0956389377
 10
121.2170174915
 20
133.0913312398
 10
121.4237895732
 20
133.0858097016
 10
121.6276236891
 20
133.0790897826
 10
121.8279491287
 20
133.071190298
 10
122.0242050057
 20
133.0621333651
 10
122.2158418279
 20
133.0519443424
 10
122.4023230359
 20
133.0406517579
 10
122.5831265055
 20
133.0282872293
 10
122.7577460093
 20
133.0148853758
 10
122.9256926342
 20
133.0004837209
 10
123.0864961507
 20
132.9851225876
 10
123.2397063286
 20
132.968844985
 10
123.3848941986
 20
132.9516964885
  0
LWPOLYLINE
  5
46F
100
AcDbEntity
  8
0
100
AcDbPolyline
 62
253
  6
CONTINUOUS
 90
5
 70
0
 10
122.5831265055
 20
129.077263743
 10
122.9256926342
 20
129.0639300126
 10
123.0864961507
 20
129.0565632728
 10
123.2397063286
 20
129.0487570218
 10
123.3848941986
 20
129.0405331161
  0
LWPOLYLINE
  5
470
100
AcDbEntity
  8
0
100
AcDbPolyline
 62
253
  6
CONTINUOUS
 90
12
 70
0
 10
115.592825061
 20
125.7886590429
 10
115.598014353
 20
125.7865918521
 10
115.6030442737
 20
125.7803795925
 10
115.6079154254
 20
125.7700222394
 10
115.6126567854
 20
125.7555092752
 10
115.6172420047
 20
125.7368511182
 10
115.6215874385
 20
125.7140791229
 10
115.6256874166
 20
125.6870044449
 10
115.6295485285
 20
125.655815731
 10
115.6331020571
 20
125.6211105673
 10
115.6363236179
 20
125.5830880783
 10
115.6392356406
 20
125.541548907
  0
LWPOLYLINE
  5
471
100
AcDbEntity
  8
RACCORDO
100
AcDbPolyline
 62
253
  6
CONTINUOUS
 90
7
 70
0
 10
117.1880419941
 20
142.8905227537
 10
117.181883643
 20
142.919211163
 10
117.1758831622
 20
142.9465220535
 10
117.170040568
 20
142.972451707
 10
117.1643560291
 20
142.9969989616
 10
117.1588299197
 20
143.0201652107
 10
117.1534625795
 20
143.0419505609
  0
LWPOLYLINE
  5
472
100
AcDbEntity
  8
RACCORDO
100
AcDbPolyline
 62
253
  6
CONTINUOUS
 90
7
 70
0
 10
117.4680445023
 20
143.1391134808
 10
117.461899115
 20
143.1679582866
 10
117.4559110596
 20
143.1954163812
 10
117.4500805762
 20
143.2214890256
 10
117.4444077445
 20
143.246175058
 10
117.4388924847
 20
143.2694714212
 10
117.4335347968
 20
143.2913761258
  0
LINE
  5
473
100
AcDbEntity
  8
RACCORDO
100
AcDbLine
 62
253
  6
CONTINUOUS
 10
117.2008315285
 20
142.8290133488
 11
117.1880419941
 21
142.8905227537
  0
LINE
  5
474
100
AcDbEntity
  8
RACCORDO
100
AcDbLine
 62
253
  6
CONTINUOUS
 10
117.4808073773
 20
143.0772696162
 11
117.4680445023
 21
143.1391134808
  0
LINE
  5
475
100
AcDbEntity
  8
RACCORDO
100
AcDbLine
 62
253
  6
CONTINUOUS
 10
117.2142506071
 20
142.7620017412
 11
117.2008315285
 21
142.8290133488
  0
LINE
  5
476
100
AcDbEntity
  8
RACCORDO
100
AcDbLine
 62
253
  6
CONTINUOUS
 10
117.4941983631
 20
143.0098922437
 11
117.4808073773
 21
143.0772696162
  0
LINE
  5
477
100
AcDbEntity
  8
RACCORDO
100
AcDbLine
 62
253
  6
CONTINUOUS
 10
117.228298277
 20
142.6894922295
 11
117.2142506071
 21
142.7620017412
  0
LINE
  5
478
100
AcDbEntity
  8
RACCORDO
100
AcDbLine
 62
253
  6
CONTINUOUS
 10
117.5082167485
 20
142.9369891175
 11
117.4941983631
 21
143.0098922437
  0
LINE
  5
479
100
AcDbEntity
  8
RACCORDO
100
AcDbLine
 62
253
  6
CONTINUOUS
 10
117.2429738075
 20
142.6114909673
 11
117.228298277
 21
142.6894922295
  0
LINE
  5
47A
100
AcDbEntity
  8
RACCORDO
100
AcDbLine
 62
253
  6
CONTINUOUS
 10
117.5228615639
 20
142.8585643132
 11
117.5082167485
 21
142.9369891175
  0
LINE
  5
47B
100
AcDbEntity
  8
RACCORDO
100
AcDbLine
 62
253
  6
CONTINUOUS
 10
117.2661627606
 20
142.4841989284
 11
117.2429738075
 21
142.6114909673
  0
LINE
  5
47C
100
AcDbEntity
  8
RACCORDO
100
AcDbLine
 62
253
  6
CONTINUOUS
 10
117.5460019656
 20
142.7305809078
 11
117.5228615639
 21
142.8585643132
  0
LWPOLYLINE
  5
47D
100
AcDbEntity
  8
RACCORDO
100
AcDbPolyline
 62
253
  6
CONTINUOUS
 90
3
 70
0
 10
117.2992733476
 20
142.2952770706
 10
117.290760662
 20
142.3445647472
 10
117.2661627606
 20
142.4841989284
  0
LWPOLYLINE
  5
47E
100
AcDbEntity
  8
RACCORDO
100
AcDbPolyline
 62
253
  6
CONTINUOUS
 90
3
 70
0
 10
117.5790437044
 20
142.5406308414
 10
117.570548905
 20
142.590184743
 10
117.5460019656
 20
142.7305809078
  0
LWPOLYLINE
  5
47F
100
AcDbEntity
  8
RACCORDO
100
AcDbPolyline
 62
253
  6
CONTINUOUS
 90
9
 70
0
 10
117.4335343708
 20
62.1006790633
 10
117.4388924087
 20
62.1225850945
 10
117.4444079648
 20
62.1458826991
 10
117.4500810389
 20
62.1705698413
 10
117.4559116984
 20
62.1966433488
 10
117.461899876
 20
62.2241020748
 10
117.4680453696
 20
62.2529474612
 10
117.4743482452
 20
62.2831783291
 10
117.4874255436
 20
62.3477903834
  0
LINE
  5
480
100
AcDbEntity
  8
RACCORDO
100
AcDbLine
 62
253
  6
CONTINUOUS
 10
117.3745773591
 20
61.8642739891
 11
117.4335352338
 21
62.1006790182
  0
LINE
  5
481
100
AcDbEntity
  8
RACCORDO
100
AcDbLine
 62
253
  6
CONTINUOUS
 10
117.0943701209
 20
62.1144500187
 11
117.1534625795
 21
62.3501062646
  0
LINE
  5
482
100
AcDbEntity
  8
RACCORDO
100
AcDbLine
 62
253
  6
CONTINUOUS
 10
117.1534625795
 20
143.0419505609
 11
117.0943701066
 21
143.2776067213
  0
LINE
  5
483
100
AcDbEntity
  8
RACCORDO
100
AcDbLine
 62
253
  6
CONTINUOUS
 10
117.4335355063
 20
143.2913761628
 11
117.3748796763
 21
143.5265694367
  0
LINE
  5
484
100
AcDbEntity
  8
RACCORDO
100
AcDbLine
 62
253
  6
CONTINUOUS
 10
120.5848941986
 20
142.6946080541
 11
117.5790437044
 21
142.5406308414
  0
LINE
  5
485
100
AcDbEntity
  8
DRAFT
100
AcDbLine
 62
7
  6
CONTINUOUS
 10
120.5848941986
 20
143.6960284128
 11
117.3811282682
 21
143.528126155
  0
LINE
  5
486
100
AcDbEntity
  8
RACCORDO
100
AcDbLine
 62
253
  6
CONTINUOUS
 10
120.5848941986
 20
143.4558631332
 11
117.4335355063
 21
143.2913761628
  0
LWPOLYLINE
  5
487
100
AcDbEntity
  8
0
100
AcDbPolyline
 62
253
  6
CONTINUOUS
 90
16
 70
0
 10
120.5848941986
 20
142.2058839816
 10
120.7969817802
 20
142.1895103326
 10
121.0078863801
 20
142.1621941588
 10
121.2170174915
 20
142.1240119423
 10
121.4237895732
 20
142.0750705885
 10
121.6276236891
 20
142.0155071272
 10
121.8279491287
 20
141.9454883286
 10
122.0242050057
 20
141.8652102367
 10
122.2158418279
 20
141.7748976202
 10
122.4023230359
 20
141.6748033433
 10
122.5831265055
 20
141.5652076576
 10
122.7577460093
 20
141.4464174174
 10
122.9256926342
 20
141.3187652207
 10
123.0864961507
 20
141.1826084778
 10
123.2397063286
 20
141.0383284107
 10
123.3848941986
 20
140.8863289859
  0
LWPOLYLINE
  5
488
100
AcDbEntity
  8
0
100
AcDbPolyline
 62
253
  6
CONTINUOUS
 90
16
 70
0
 10
120.5848941986
 20
142.9578645105
 10
120.7969817802
 20
142.9411801376
 10
121.0078863801
 20
142.913345583
 10
121.2170174915
 20
142.8744387799
 10
121.4237895732
 20
142.8245686627
 10
121.6276236891
 20
142.7638748615
 10
121.8279491287
 20
142.6925273113
 10
122.0242050057
 20
142.6107257766
 10
122.2158418279
 20
142.5186992914
 10
122.4023230359
 20
142.4167055186
 10
122.5831265055
 20
142.305030028
 10
122.7577460093
 20
142.1839854973
 10
122.9256926342
 20
142.0539108361
 10
123.0864961507
 20
141.9151702374
 10
123.2397063286
 20
141.7681521576
 10
123.3848941986
 20
141.6132682293
  0
ARC
  5
489
100
AcDbEntity
  8
DRAFT
100
AcDbCircle
 62
7
  6
CONTINUOUS
 10
-321.2418672398
 20
102.6960284127
 40
500.0
100
AcDbArc
 50
356.968516687
 51
3.031483313
  0
ARC
  5
48A
100
AcDbEntity
  8
DRAFT
100
AcDbCircle
 62
7
  6
CONTINUOUS
 10
638.7581327602
 20
102.6960284128
 40
500.0
100
AcDbArc
 50
176.968516687
 51
183.031483313
  0
ARC
  5
48B
100
AcDbEntity
  8
DRAFT
100
AcDbCircle
 62
7
  6
CONTINUOUS
 10
108.1564019584
 20
79.9556148377
 40
70.0
100
AcDbArc
 50
353.66882044
 51
356.968516687
  0
ARC
  5
48C
100
AcDbEntity
  8
DRAFT
100
AcDbCircle
 62
7
  6
CONTINUOUS
 10
108.1564019584
 20
125.4364419878
 40
70.0
100
AcDbArc
 50
3.031483313
 51
6.33117956
  0
ARC
  5
48D
100
AcDbEntity
  8
DRAFT
100
AcDbCircle
 62
7
  6
CONTINUOUS
 10
209.3598635619
 20
125.4364419878
 40
70.0
100
AcDbArc
 50
173.66882044
 51
176.968516687
  0
ARC
  5
48E
100
AcDbEntity
  8
DRAFT
100
AcDbCircle
 62
7
  6
CONTINUOUS
 10
209.3598635619
 20
79.9556148377
 40
70.0
100
AcDbArc
 50
183.031483313
 51
186.33117956
  0
ARC
  5
48F
100
AcDbEntity
  8
DRAFT
100
AcDbCircle
 62
7
  6
CONTINUOUS
 10
158.7581327602
 20
121.6960284128
 40
60.0
100
AcDbArc
 50
264.8718338568
 51
275.1281661432
  0
ARC
  5
490
100
AcDbEntity
  8
DRAFT
100
AcDbCircle
 62
7
  6
CONTINUOUS
 10
158.7581327602
 20
83.6960284128
 40
60.0
100
AcDbArc
 50
84.8718338568
 51
95.1281661432
  0
ARC
  5
491
100
AcDbEntity
  8
DRAFT
100
AcDbCircle
 62
7
  6
CONTINUOUS
 10
157.0634134121
 20
102.8119206411
 40
41.04
100
AcDbArc
 50
257.8087471083
 51
264.8718338568
  0
ARC
  5
492
100
AcDbEntity
  8
DRAFT
100
AcDbCircle
 62
7
  6
CONTINUOUS
 10
160.4528521082
 20
102.8119206411
 40
41.04
100
AcDbArc
 50
275.1281661432
 51
282.1912528917
  0
ARC
  5
493
100
AcDbEntity
  8
DRAFT
100
AcDbCircle
 62
7
  6
CONTINUOUS
 10
160.4528521082
 20
102.5801361844
 40
41.04
100
AcDbArc
 50
77.8087471083
 51
84.8718338568
  0
ARC
  5
494
100
AcDbEntity
  8
DRAFT
100
AcDbCircle
 62
7
  6
CONTINUOUS
 10
157.0634134121
 20
102.5801361844
 40
41.04
100
AcDbArc
 50
95.1281661432
 51
102.1912528917
  0
ARC
  5
495
100
AcDbEntity
  8
DRAFT
100
AcDbCircle
 62
7
  6
CONTINUOUS
 10
166.7965664106
 20
73.4493783661
 40
11.0
100
AcDbArc
 50
282.1912528917
 51
353.66882044
  0
ARC
  5
496
100
AcDbEntity
  8
DRAFT
100
AcDbCircle
 62
7
  6
CONTINUOUS
 10
166.7965664106
 20
131.9426784594
 40
11.0
100
AcDbArc
 50
6.33117956
 51
77.8087471083
  0
ARC
  5
497
100
AcDbEntity
  8
DRAFT
100
AcDbCircle
 62
7
  6
CONTINUOUS
 10
150.7196991098
 20
131.9426784594
 40
11.0
100
AcDbArc
 50
102.1912528917
 51
173.66882044
  0
ARC
  5
498
100
AcDbEntity
  8
DRAFT
100
AcDbCircle
 62
7
  6
CONTINUOUS
 10
150.7196991098
 20
73.4493783661
 40
11.0
100
AcDbArc
 50
186.33117956
 51
257.8087471083
  0
ARC
  5
499
100
AcDbEntity
  8
0
100
AcDbCircle
 62
7
  6
CONTINUOUS
 10
169.2081327602
 20
124.3960284128
 40
0.8
100
AcDbArc
 50
0.0
 51
90.0
  0
ARC
  5
49A
100
AcDbEntity
  8
0
100
AcDbCircle
 62
7
  6
CONTINUOUS
 10
148.3081327602
 20
80.9960284128
 40
0.8
100
AcDbArc
 50
180.0
 51
270.0
  0
ARC
  5
49B
100
AcDbEntity
  8
0
100
AcDbCircle
 62
7
  6
CONTINUOUS
 10
169.2081327602
 20
80.9960284128
 40
0.8
100
AcDbArc
 50
270.0
 51
360.0
  0
ARC
  5
49C
100
AcDbEntity
  8
0
100
AcDbCircle
 62
7
  6
CONTINUOUS
 10
148.3081327602
 20
124.3960284128
 40
0.8
100
AcDbArc
 50
90.0
 51
180.0
  0
ARC
  5
49D
100
AcDbEntity
  8
ASSI
100
AcDbCircle
 62
7
  6
CONTINUOUS
 10
265.1046398177
 20
86.8461141331
 40
150.0623042126
100
AcDbArc
 50
184.9840291098
 51
189.4760221396
  0
ARC
  5
49E
100
AcDbEntity
  8
ASSI
100
AcDbCircle
 62
7
  6
CONTINUOUS
 10
265.1046398177
 20
86.8461141331
 40
150.0623042126
100
AcDbArc
 50
182.7731108121
 51
183.8934693565
  0
ARC
  5
49F
100
AcDbEntity
  8
ASSI
100
AcDbCircle
 62
7
  6
CONTINUOUS
 10
265.1046398177
 20
118.5459426924
 40
150.0623042126
100
AcDbArc
 50
170.5239778898
 51
177.2268891879
  0
ARC
  5
4A0
100
AcDbEntity
  8
0
100
AcDbCircle
 62
7
  6
CONTINUOUS
 10
120.3744696364
 20
66.2111682453
 40
4.0206499937
100
AcDbArc
 50
273.0
 51
284.5549713429
  0
ARC
  5
4A1
100
AcDbEntity
  8
0
100
AcDbCircle
 62
7
  6
CONTINUOUS
 10
120.3744696364
 20
139.1808885802
 40
4.0206499937
100
AcDbArc
 50
41.5185832875
 51
87.0
  0
ARC
  5
4A2
100
AcDbEntity
  8
0
100
AcDbCircle
 62
7
  6
CONTINUOUS
 10
115.7175842781
 20
125.7840945961
 40
0.5
100
AcDbArc
 50
177.2260549747
 51
262.2852723751
  0
ARC
  5
4A3
100
AcDbEntity
  8
0
100
AcDbCircle
 62
7
  6
CONTINUOUS
 10
115.7175842781
 20
79.6079622294
 40
0.5
100
AcDbArc
 50
98.1820381268
 51
182.7739450253
  0
ARC
  5
4A4
100
AcDbEntity
  8
RACCORDO
100
AcDbCircle
 62
7
  6
CONTINUOUS
 10
117.3902723903
 20
62.1638622565
 40
0.3000000008
100
AcDbArc
 50
189.4861686321
 51
266.9999997403
  0
ARC
  5
4A5
100
AcDbEntity
  8
RACCORDO
100
AcDbCircle
 62
7
  6
CONTINUOUS
 10
117.3902723903
 20
143.2281945689
 40
0.3000000008
100
AcDbArc
 50
93.0000002597
 51
170.5138313679
  0
ENDSEC
  0
SECTION
  2
OBJECTS
  0
DICTIONARY
  5
C
100
AcDbDictionary
280
0
281
1
  3
ACAD_GROUP
350
D
  3
ACAD_MLINESTYLE
350
17
  3
ACAD_LAYOUT
350
1A
  3
ACAD_PLOTSETTINGS
350
19
  3
ACAD_PLOTSTYLENAME
350
E
  0
DICTIONARY
  5
D
102
{ACAD_REACTORS
330
C
102
}
100
AcDbDictionary
280
0
281
1
  0
ACDBDICTIONARYWDFLT
  5
E
102
{ACAD_REACTORS
330
C
102
}
100
AcDbDictionary
281
1
  3
Normal
350
F
100
AcDbDictionaryWithDefault
340
F
  0
DICTIONARY
  5
17
102
{ACAD_REACTORS
330
C
102
}
100
AcDbDictionary
280
0
281
1
  3
Standard
350
18
  0
DICTIONARY
  5
19
102
{ACAD_REACTORS
330
C
102
}
100
AcDbDictionary
281
1
  0
DICTIONARY
  5
1A
102
{ACAD_REACTORS
330
C
102
}
100
AcDbDictionary
281
1
  3
Model
350
4A6
  3
Layout1
350
4A7
  0
ACDBPLACEHOLDER
  5
F
102
{ACAD_REACTORS
330
E
102
}
  0
MLINESTYLE
  5
18
102
{ACAD_REACTORS
330
17
102
}
100
AcDbMlineStyle
  2
STANDARD
 70
0
  3

 62
256
 51
90.0
 52
90.0
 71
2
 49
0.5
 62
256
  6
BYLAYER
 49
-0.5
 62
256
  6
BYLAYER
  0
LAYOUT
  5
4A6
102
{ACAD_REACTORS
330
1A
102
}
100
AcDbPlotSettings
  1

  2
none_device
  4
ISO_A4_(297.00_x_210.00_MM)
  6

 40
0.0
 41
0.0
 42
0.0
 43
0.0
 44
297.0
 45
210.0
 46
0.0
 47
0.0
 48
0.0
 49
0.0
140
0.0
141
0.0
142
1.0
143
1.0
 70
1024
 72
1
 73
0
 74
0
  7

 75
0
147
1.0
148
0.0
149
0.0
100
AcDbLayout
  1
Model
 70
0
 71
0
 10
0.0
 20
0.0
 11
297.0
 21
210.0
 12
0.0
 22
0.0
 32
0.0
 14
0.0
 24
0.0
 34
0.0
 15
0.0
 25
0.0
 35
0.0
146
0.0
 13
0.0
 23
0.0
 33
0.0
 16
1.0
 26
0.0
 36
0.0
 17
0.0
 27
1.0
 37
0.0
 76
0
330
219
345
0
346
0
  0
LAYOUT
  5
4A7
102
{ACAD_REACTORS
330
1A
102
}
100
AcDbPlotSettings
  1

  2
none_device
  4
ISO_A4_(297.00_x_210.00_MM)
  6

 40
0.0
 41
0.0
 42
0.0
 43
0.0
 44
297.0
 45
210.0
 46
0.0
 47
0.0
 48
0.0
 49
0.0
140
0.0
141
0.0
142
1.0
143
1.0
 70
0
 72
1
 73
0
 74
0
  7

 75
0
147
1.0
148
0.0
149
0.0
100
AcDbLayout
  1
Layout1
 70
0
 71
1
 10
0.0
 20
0.0
 11
297.0
 21
210.0
 12
0.0
 22
0.0
 32
0.0
 14
0.0
 24
0.0
 34
0.0
 15
0.0
 25
0.0
 35
0.0
146
0.0
 13
0.0
 23
0.0
 33
0.0
 16
1.0
 26
0.0
 36
0.0
 17
0.0
 27
1.0
 37
0.0
 76
0
330
21A
345
0
346
0
  0
ENDSEC
  0
EOF
