  0
SECTION
  2
HEADER
  9
$ACADVER
  1
AC1021
  9
$DWGCODEPAGE
  3
ANSI_1252
  9
$EXTMAX
 10
297.0
 20
210.0
 30
0.0
  9
$EXTMIN
 10
0.0
 20
0.0
 30
0.0
  9
$LIMMIN
 10
0.0
 20
0.0
  9
$LIMMAX
 10
297.0
 20
210.0
  9
$VIEWCTR
 10
148.5
 20
105.0
  9
$VIEWSIZE
 40
210.0
  9
$CLAYER
  8
0
  9
$LTSCALE
 40
16.335
  9
$CELTYPE
  6
BYLAYER
  9
$DIMSCALE
 40
1.0
  9
$DIMASZ
 40
3.0
  9
$DIMEXO
 40
1.85625
  9
$DIMDLI
 40
11.286
  9
$DIMEXE
 40
5.346
  9
$DIMCEN
 40
2.673
  9
$DIMLFAC
 40
1.0
  9
$DIMBLK
  1
_FILLED
  9
$DIMTXT
 40
3.0
  9
$DIMTOL
 70
1
  9
$DIMLIM
 70
0
  9
$DIMTFAC
 40
1.0
  9
$DIMTP
 40
0.01
  9
$DIMTM
 40
0.01
  9
$PDMODE
 70
3
  9
$PDSIZE
 40
3.0
  9
$HANDSEED
  5
57D
  9
$TILEMODE
 70
1
  9
$MEASUREMENT
 70
1
  9
$INSUNITS
 70
4
  0
ENDSEC
  0
SECTION
  2
CLASSES
  0
CLASS
  1
ACDBDICTIONARYWDFLT
  2
AcDbDictionaryWithDefault
  3
AutoCAD 2000
 90
0
 91
1
280
0
281
0
  0
CLASS
  1
ACDBPLACEHOLDER
  2
AcDbPlaceHolder
  3
AutoCAD 2000
 90
0
 91
1
280
0
281
0
  0
CLASS
  1
LAYOUT
  2
AcDbLayout
  3
AutoCAD 2000
 90
0
 91
0
280
0
281
0
  0
ENDSEC
  0
SECTION
  2
TABLES
  0
TABLE
  2
VPORT
  5
8
100
AcDbSymbolTable
 70
2
  0
VPORT
  5
1F4
100
AcDbSymbolTableRecord
100
AcDbViewportTableRecord
  2
*ACTIVE
 70
0
 10
0.0
 20
0.0
 11
1.0
 21
1.0
 12
148.5
 22
105.0
 13
0.0
 23
0.0
 14
1.0
 24
1.0
 15
0.0
 25
0.0
 16
0.0
 26
0.0
 36
1.0
 17
0.0
 27
0.0
 37
0.0
 40
210.0
 41
1.4142857143
 42
50.0
 43
0.0
 44
0.0
 50
0.0
 51
0.0
 71
0
 72
100
 73
1
 74
1
 75
0
 76
0
 77
0
 78
0
  0
ENDTAB
  0
TABLE
  2
LTYPE
  5
5
100
AcDbSymbolTable
 70
6
  0
LTYPE
  5
14
100
AcDbSymbolTableRecord
100
AcDbLinetypeTableRecord
  2
BYBLOCK
 70
0
  3

 72
65
 73
0
 40
0.0
  0
LTYPE
  5
15
100
AcDbSymbolTableRecord
100
AcDbLinetypeTableRecord
  2
BYLAYER
 70
0
  3

 72
65
 73
0
 40
0.0
  0
LTYPE
  5
16
100
AcDbSymbolTableRecord
100
AcDbLinetypeTableRecord
  2
CONTINUOUS
 70
64
  3
Solid line
 72
65
 73
0
 40
0.0
  0
LTYPE
  5
1F5
100
AcDbSymbolTableRecord
100
AcDbLinetypeTableRecord
  2
CENTER
 70
64
  3
____ _ ____ _ ____ _ ____ _ ____ _ ____ _ ____
 72
65
 73
4
 40
0.6
 49
0.375
 74
0
 49
-0.075
 74
0
 49
0.075
 74
0
 49
-0.075
 74
0
  0
LTYPE
  5
1F6
100
AcDbSymbolTableRecord
100
AcDbLinetypeTableRecord
  2
HIDDEN
 70
64
  3
- - - - - - - - - - - - - - - - - - - -
 72
65
 73
2
 40
0.2
 49
0.1
 74
0
 49
-0.1
 74
0
  0
LTYPE
  5
1F7
100
AcDbSymbolTableRecord
100
AcDbLinetypeTableRecord
  2
PHANTOM
 70
64
  3
_____ _ _ _____ _ _ _____ _ _ _____
 72
65
 73
6
 40
0.8
 49
0.45
 74
0
 49
-0.05
 74
0
 49
0.1
 74
0
 49
-0.05
 74
0
 49
0.1
 74
0
 49
-0.05
 74
0
  0
LTYPE
  5
1F8
100
AcDbSymbolTableRecord
100
AcDbLinetypeTableRecord
  2
DOT
 70
64
  3
. . . . . . . . . . . . . . . . . . . .
 72
65
 73
2
 40
0.2
 49
0.1
 74
0
 49
-0.1
 74
0
  0
LTYPE
  5
1F9
100
AcDbSymbolTableRecord
100
AcDbLinetypeTableRecord
  2
DASHED
 70
64
  3
- - - - - - - - - - - - - - - - - - - -
 72
65
 73
2
 40
0.2
 49
0.1
 74
0
 49
-0.1
 74
0
  0
ENDTAB
  0
TABLE
  2
LAYER
  5
2
100
AcDbSymbolTable
 70
36
  0
LAYER
  5
10
100
AcDbSymbolTableRecord
100
AcDbLayerTableRecord
  2
0
 70
0
 62
7
  6
CONTINUOUS
370
-3
390
F
  0
LAYER
  5
1FA
100
AcDbSymbolTableRecord
100
AcDbLayerTableRecord
  2
DEFAULT_1
 70
0
 62
7
  6
CENTER
370
-3
390
F
  0
LAYER
  5
1FB
100
AcDbSymbolTableRecord
100
AcDbLayerTableRecord
  2
DEFAULT_2
 70
0
 62
7
  6
HIDDEN
370
-3
390
F
  0
LAYER
  5
1FC
100
AcDbSymbolTableRecord
100
AcDbLayerTableRecord
  2
DEFAULT_3
 70
0
 62
7
  6
PHANTOM
370
-3
390
F
  0
LAYER
  5
1FD
100
AcDbSymbolTableRecord
100
AcDbLayerTableRecord
  2
ASSI
 70
0
 62
7
  6
CONTINUOUS
370
-3
390
F
  0
LAYER
  5
1FE
100
AcDbSymbolTableRecord
100
AcDbLayerTableRecord
  2
COORDINATE
 70
0
 62
7
  6
CONTINUOUS
370
-3
390
F
  0
LAYER
  5
1FF
100
AcDbSymbolTableRecord
100
AcDbLayerTableRecord
  2
COPY_PUBLISH
 70
0
 62
7
  6
CONTINUOUS
370
-3
390
F
  0
LAYER
  5
200
100
AcDbSymbolTableRecord
100
AcDbLayerTableRecord
  2
COSMETIC
 70
0
 62
7
  6
CONTINUOUS
370
-3
390
F
  0
LAYER
  5
201
100
AcDbSymbolTableRecord
100
AcDbLayerTableRecord
  2
COSMETICI
 70
0
 62
7
  6
CONTINUOUS
370
-3
390
F
  0
LAYER
  5
202
100
AcDbSymbolTableRecord
100
AcDbLayerTableRecord
  2
CURVE
 70
0
 62
7
  6
CONTINUOUS
370
-3
390
F
  0
LAYER
  5
203
100
AcDbSymbolTableRecord
100
AcDbLayerTableRecord
  2
DRAFT
 70
0
 62
7
  6
CONTINUOUS
370
-3
390
F
  0
LAYER
  5
204
100
AcDbSymbolTableRecord
100
AcDbLayerTableRecord
  2
IMPORT_IGES
 70
0
 62
7
  6
CONTINUOUS
370
-3
390
F
  0
LAYER
  5
205
100
AcDbSymbolTableRecord
100
AcDbLayerTableRecord
  2
INTFCLR_377
 70
0
 62
7
  6
CONTINUOUS
370
-3
390
F
  0
LAYER
  5
206
100
AcDbSymbolTableRecord
100
AcDbLayerTableRecord
  2
INTFCLR_4497
 70
0
 62
7
  6
CONTINUOUS
370
-3
390
F
  0
LAYER
  5
207
100
AcDbSymbolTableRecord
100
AcDbLayerTableRecord
  2
INTFCLR_473
 70
0
 62
7
  6
CONTINUOUS
370
-3
390
F
  0
LAYER
  5
208
100
AcDbSymbolTableRecord
100
AcDbLayerTableRecord
  2
INTFCLR_6927
 70
0
 62
7
  6
CONTINUOUS
370
-3
390
F
  0
LAYER
  5
209
100
AcDbSymbolTableRecord
100
AcDbLayerTableRecord
  2
INTFCLR_9765
 70
0
 62
7
  6
CONTINUOUS
370
-3
390
F
  0
LAYER
  5
20A
100
AcDbSymbolTableRecord
100
AcDbLayerTableRecord
  2
INTF_1
 70
0
 62
7
  6
CONTINUOUS
370
-3
390
F
  0
LAYER
  5
20B
100
AcDbSymbolTableRecord
100
AcDbLayerTableRecord
  2
INTF_2
 70
0
 62
7
  6
CONTINUOUS
370
-3
390
F
  0
LAYER
  5
20C
100
AcDbSymbolTableRecord
100
AcDbLayerTableRecord
  2
INTF_3
 70
0
 62
7
  6
CONTINUOUS
370
-3
390
F
  0
LAYER
  5
20D
100
AcDbSymbolTableRecord
100
AcDbLayerTableRecord
  2
INTF_7
 70
0
 62
7
  6
CONTINUOUS
370
-3
390
F
  0
LAYER
  5
20E
100
AcDbSymbolTableRecord
100
AcDbLayerTableRecord
  2
INTF_9
 70
0
 62
7
  6
CONTINUOUS
370
-3
390
F
  0
LAYER
  5
20F
100
AcDbSymbolTableRecord
100
AcDbLayerTableRecord
  2
NOTE
 70
0
 62
7
  6
CONTINUOUS
370
-3
390
F
  0
LAYER
  5
210
100
AcDbSymbolTableRecord
100
AcDbLayerTableRecord
  2
PIANI
 70
0
 62
7
  6
CONTINUOUS
370
-3
390
F
  0
LAYER
  5
211
100
AcDbSymbolTableRecord
100
AcDbLayerTableRecord
  2
PUNTI
 70
0
 62
7
  6
CONTINUOUS
370
-3
390
F
  0
LAYER
  5
212
100
AcDbSymbolTableRecord
100
AcDbLayerTableRecord
  2
RACCORDO
 70
0
 62
7
  6
CONTINUOUS
370
-3
390
F
  0
LAYER
  5
213
100
AcDbSymbolTableRecord
100
AcDbLayerTableRecord
  2
SIMBOLI
 70
0
 62
7
  6
CONTINUOUS
370
-3
390
F
  0
LAYER
  5
214
100
AcDbSymbolTableRecord
100
AcDbLayerTableRecord
  2
SMUSSO
 70
0
 62
7
  6
CONTINUOUS
370
-3
390
F
  0
LAYER
  5
215
100
AcDbSymbolTableRecord
100
AcDbLayerTableRecord
  2
SNAPLINE
 70
0
 62
7
  6
CONTINUOUS
370
-3
390
F
  0
LAYER
  5
216
100
AcDbSymbolTableRecord
100
AcDbLayerTableRecord
  2
SUPERFICI
 70
0
 62
7
  6
CONTINUOUS
370
-3
390
F
  0
LAYER
  5
217
100
AcDbSymbolTableRecord
100
AcDbLayerTableRecord
  2
TRASH
 70
0
 62
7
  6
CONTINUOUS
370
-3
390
F
  0
LAYER
  5
218
100
AcDbSymbolTableRecord
100
AcDbLayerTableRecord
  2
XSEC_DATUMS
 70
0
 62
7
  6
CONTINUOUS
370
-3
390
F
  0
ENDTAB
  0
TABLE
  2
STYLE
  5
3
100
AcDbSymbolTable
 70
1
  0
STYLE
  5
11
100
AcDbSymbolTableRecord
100
AcDbTextStyleTableRecord
  2
STANDARD
 70
0
 40
0.0
 41
0.8
 50
0.0
 71
0
 42
0.2
  3
txt
  4

  0
STYLE
  5
219
100
AcDbSymbolTableRecord
100
AcDbTextStyleTableRecord
  2
TEXTSTYLE_1
 70
0
 40
0.0
 41
0.8
 50
0.0
 71
0
 42
0.2
  3
gdt
  4

  0
ENDTAB
  0
TABLE
  2
VIEW
  5
6
100
AcDbSymbolTable
 70
0
  0
ENDTAB
  0
TABLE
  2
UCS
  5
7
100
AcDbSymbolTable
 70
0
  0
ENDTAB
  0
TABLE
  2
APPID
  5
9
100
AcDbSymbolTable
 70
1
  0
APPID
  5
21A
100
AcDbSymbolTableRecord
100
AcDbRegAppTableRecord
  2
ACAD
 70
0
  0
ENDTAB
  0
TABLE
  2
BLOCK_RECORD
  5
1
100
AcDbSymbolTable
 70
0
  0
BLOCK_RECORD
  5
21B
100
AcDbSymbolTableRecord
100
AcDbBlockTableRecord
  2
*Model_Space
  0
BLOCK_RECORD
  5
21C
100
AcDbSymbolTableRecord
100
AcDbBlockTableRecord
  2
*Paper_Space
  0
BLOCK_RECORD
  5
21D
100
AcDbSymbolTableRecord
100
AcDbBlockTableRecord
  2
_FILLED
  0
BLOCK_RECORD
  5
21E
100
AcDbSymbolTableRecord
100
AcDbBlockTableRecord
  2
*D0
  0
BLOCK_RECORD
  5
21F
100
AcDbSymbolTableRecord
100
AcDbBlockTableRecord
  2
*D1
  0
BLOCK_RECORD
  5
220
100
AcDbSymbolTableRecord
100
AcDbBlockTableRecord
  2
*D2
  0
ENDTAB
  0
TABLE
  2
DIMSTYLE
  5
A
100
AcDbSymbolTable
 70
1
100
AcDbDimStyleTable
 71
0
  0
DIMSTYLE
105
221
100
AcDbSymbolTableRecord
100
AcDbDimStyleTableRecord
  2
STANDARD
 70
0
  3

  4

 40
1.0
 41
3.0
 42
0.0625
 43
0.38
 44
0.18
 45
0.0
 46
0.0
 47
0.01
 48
0.01
140
3.0
141
0.09
142
0.0
143
25.4
144
1.0
145
0.0
146
1.0
147
0.09
 71
1.0
 72
0.0
 73
0
 74
0
 75
0
 76
0
 77
1
 78
8
170
0
171
2
172
0
173
0
174
0
175
0
176
0
177
0
178
0
270
2
271
2
272
2
273
2
274
2
275
0
280
0
281
0
282
0
283
1
284
8
285
0
286
0
287
3
288
0
340
11
341
21D
342
21D
343
21D
344
21D
  0
DIMSTYLE
105
222
100
AcDbSymbolTableRecord
100
AcDbDimStyleTableRecord
  2
DIMSTYLE_1
 70
0
  3

  4

 40
1.0
 41
3.0
 42
0.0625
 43
0.38
 44
0.18
 45
0.0
 46
0.0
 47
0.0
 48
0.0
140
3.0
141
0.09
142
0.0
143
25.4
144
1.0
145
0.0
146
1.0
147
0.09
 71
0.0
 72
0.0
 73
0
 74
0
 75
0
 76
0
 77
1
 78
8
170
0
171
2
172
0
173
0
174
0
175
0
176
0
177
0
178
0
270
2
271
2
272
2
273
2
274
2
275
0
280
0
281
0
282
0
283
1
284
8
285
0
286
0
287
3
288
0
340
11
341
21D
342
21D
343
21D
344
21D
  0
ENDTAB
  0
ENDSEC
  0
SECTION
  2
BLOCKS
  0
BLOCK
  5
20
100
AcDbEntity
  8
0
100
AcDbBlockBegin
  2
*Model_Space
 70
0
 10
0.0
 20
0.0
 30
0.0
  3
*Model_Space
  1

  0
ENDBLK
  5
21
100
AcDbEntity
  8
0
100
AcDbBlockEnd
  0
BLOCK
  5
1C
100
AcDbEntity
  8
0
100
AcDbBlockBegin
  2
*Paper_Space
 70
0
 10
0.0
 20
0.0
 30
0.0
  3
*Paper_Space
  1

  0
ENDBLK
  5
1D
100
AcDbEntity
  8
0
100
AcDbBlockEnd
  0
BLOCK
  5
223
100
AcDbEntity
  8
0
100
AcDbBlockBegin
  2
_FILLED
 70
64
 10
0.0
 20
0.0
  3
_FILLED
  1

  0
SOLID
  5
224
100
AcDbEntity
  8
0
  6
BYBLOCK
 62
0
100
AcDbTrace
 10
0.0
 20
0.0
 11
-1.0
 21
0.3166666667
 12
-1.0
 22
-0.3166666667
 13
-1.0
 23
-0.3166666667
  0
ENDBLK
  5
225
100
AcDbEntity
  8
0
  6
BYBLOCK
 62
0
100
AcDbBlockEnd
  0
BLOCK
  5
226
100
AcDbEntity
  8
0
100
AcDbBlockBegin
 62
7
  6
CONTINUOUS
  2
*D0
 70
65
 10
0.0
 20
0.0
  3
*D0
  1

  0
MTEXT
  5
227
100
AcDbEntity
  8
0
100
AcDbMText
 62
7
  6
CONTINUOUS
  7
STANDARD
 71
2
 72
1
 10
152.0605358589
 20
194.0150727651
 30
0.0
 11
1.0
 21
0.0
 31
0.0
 44
0.9
  1
40
 40
3.0
 41
4.7142857143
  0
LINE
  5
228
100
AcDbEntity
  8
0
100
AcDbLine
 62
7
  6
CONTINUOUS
 10
132.0605358589
 20
132.7650727651
 11
132.0605358589
 21
191.7650727651
  0
LINE
  5
229
100
AcDbEntity
  8
0
100
AcDbLine
 62
7
  6
CONTINUOUS
 10
172.0605358589
 20
132.7650727651
 11
172.0605358589
 21
191.7650727651
  0
LINE
  5
22A
100
AcDbEntity
  8
0
100
AcDbLine
 62
7
  6
CONTINUOUS
 10
132.0605358589
 20
190.2650727651
 11
152.0605358589
 21
190.2650727651
  0
LINE
  5
22B
100
AcDbEntity
  8
0
100
AcDbLine
 62
7
  6
CONTINUOUS
 10
172.0605358589
 20
190.2650727651
 11
152.0605358589
 21
190.2650727651
  0
INSERT
  5
22C
100
AcDbEntity
  8
0
100
AcDbBlockReference
 62
7
  6
CONTINUOUS
  2
_FILLED
 10
132.0605358589
 20
190.2650727651
 41
3.0
 42
3.0
 43
3.0
 50
180.0
  0
INSERT
  5
22D
100
AcDbEntity
  8
0
100
AcDbBlockReference
 62
7
  6
CONTINUOUS
  2
_FILLED
 10
172.0605358589
 20
190.2650727651
 41
3.0
 42
3.0
 43
3.0
  0
ENDBLK
  5
22E
100
AcDbEntity
  8
0
  6
BYBLOCK
 62
0
100
AcDbBlockEnd
  0
BLOCK
  5
22F
100
AcDbEntity
  8
0
100
AcDbBlockBegin
 62
7
  6
CONTINUOUS
  2
*D1
 70
65
 10
0.0
 20
0.0
  3
*D1
  1

  0
MTEXT
  5
230
100
AcDbEntity
  8
0
100
AcDbMText
 62
7
  6
CONTINUOUS
  7
STANDARD
 71
2
 72
1
 10
178.3105358589
 20
103.7650727651
 30
0.0
 11
0.0
 21
1.0
 31
0.0
 44
0.9
  1
139
 40
3.0
 41
6.2142857143
  0
LINE
  5
231
100
AcDbEntity
  8
0
100
AcDbLine
 62
7
  6
CONTINUOUS
 10
152.5605358589
 20
173.2650727651
 11
183.5605358589
 21
173.2650727651
  0
LINE
  5
232
100
AcDbEntity
  8
0
100
AcDbLine
 62
7
  6
CONTINUOUS
 10
152.5605358589
 20
34.2650727651
 11
183.5605358589
 21
34.2650727651
  0
LINE
  5
233
100
AcDbEntity
  8
0
100
AcDbLine
 62
7
  6
CONTINUOUS
 10
182.0605358589
 20
173.2650727651
 11
182.0605358589
 21
103.7650727651
  0
LINE
  5
234
100
AcDbEntity
  8
0
100
AcDbLine
 62
7
  6
CONTINUOUS
 10
182.0605358589
 20
34.2650727651
 11
182.0605358589
 21
103.7650727651
  0
INSERT
  5
235
100
AcDbEntity
  8
0
100
AcDbBlockReference
 62
7
  6
CONTINUOUS
  2
_FILLED
 10
182.0605358589
 20
173.2650727651
 41
3.0
 42
3.0
 43
3.0
 50
90.0
  0
INSERT
  5
236
100
AcDbEntity
  8
0
100
AcDbBlockReference
 62
7
  6
CONTINUOUS
  2
_FILLED
 10
182.0605358589
 20
34.2650727651
 41
3.0
 42
3.0
 43
3.0
 50
270.0
  0
ENDBLK
  5
237
100
AcDbEntity
  8
0
  6
BYBLOCK
 62
0
100
AcDbBlockEnd
  0
BLOCK
  5
238
100
AcDbEntity
  8
0
100
AcDbBlockBegin
 62
7
  6
CONTINUOUS
  2
*D2
 70
65
 10
0.0
 20
0.0
  3
*D2
  1

  0
MTEXT
  5
239
100
AcDbEntity
  8
0
100
AcDbMText
 62
7
  6
CONTINUOUS
  7
STANDARD
 71
2
 72
1
 10
108.7868815009
 20
194.0150727651
 30
0.0
 11
1.0
 21
0.0
 31
0.0
 44
0.9
  1
8,7
 40
3.0
 41
6.4285714286
  0
LINE
  5
23A
100
AcDbEntity
  8
0
100
AcDbLine
 62
7
  6
CONTINUOUS
 10
113.1368815009
 20
170.9553733382
 11
113.1368815009
 21
191.7650727651
  0
LINE
  5
23B
100
AcDbEntity
  8
0
100
AcDbLine
 62
7
  6
CONTINUOUS
 10
104.4368815009
 20
110.005285774
 11
104.4368815009
 21
191.7650727651
  0
LINE
  5
23C
100
AcDbEntity
  8
0
100
AcDbLine
 62
7
  6
CONTINUOUS
 10
113.1368815009
 20
190.2650727651
 11
117.1368815009
 21
190.2650727651
  0
LINE
  5
23D
100
AcDbEntity
  8
0
100
AcDbLine
 62
7
  6
CONTINUOUS
 10
117.1368815009
 20
190.2650727651
 11
108.7868815009
 21
190.2650727651
  0
LINE
  5
23E
100
AcDbEntity
  8
0
100
AcDbLine
 62
7
  6
CONTINUOUS
 10
104.4368815009
 20
190.2650727651
 11
100.4368815009
 21
190.2650727651
  0
LINE
  5
23F
100
AcDbEntity
  8
0
100
AcDbLine
 62
7
  6
CONTINUOUS
 10
100.4368815009
 20
190.2650727651
 11
108.7868815009
 21
190.2650727651
  0
INSERT
  5
240
100
AcDbEntity
  8
0
100
AcDbBlockReference
 62
7
  6
CONTINUOUS
  2
_FILLED
 10
113.1368815009
 20
190.2650727651
 41
3.0
 42
3.0
 43
3.0
 50
180.0
  0
INSERT
  5
241
100
AcDbEntity
  8
0
100
AcDbBlockReference
 62
7
  6
CONTINUOUS
  2
_FILLED
 10
104.4368815009
 20
190.2650727651
 41
3.0
 42
3.0
 43
3.0
  0
ENDBLK
  5
242
100
AcDbEntity
  8
0
  6
BYBLOCK
 62
0
100
AcDbBlockEnd
  0
ENDSEC
  0
SECTION
  2
ENTITIES
  0
DIMENSION
  5
243
100
AcDbEntity
  8
0
100
AcDbDimension
 62
7
  6
CONTINUOUS
  2
*D0
 10
172.0605358589
 20
190.2650727651
 11
149.7033930018
 21
192.5150727651
 70
160
 71
2
 42
40.0
  3
DIMSTYLE_1
100
AcDbAlignedDimension
 13
132.0605358589
 23
132.7650727651
 14
172.0605358589
 24
132.7650727651
100
AcDbRotatedDimension
  0
DIMENSION
  5
244
100
AcDbEntity
  8
0
100
AcDbDimension
 62
7
  6
CONTINUOUS
  2
*D1
 10
182.0605358589
 20
34.2650727651
 11
181.2027645947
 21
100.9872974175
 70
160
 71
2
 42
139.0
  3
DIMSTYLE_1
100
AcDbAlignedDimension
 13
152.5605358589
 23
173.2650727651
 14
152.5605358589
 24
34.2650727651
 50
270.0
100
AcDbRotatedDimension
  0
DIMENSION
  5
245
100
AcDbEntity
  8
0
100
AcDbDimension
 62
7
  6
CONTINUOUS
  2
*D2
 10
104.4368815009
 20
190.2650727651
 11
105.5725957866
 21
192.5150727651
 70
160
 71
2
 42
8.7
  3
DIMSTYLE_1
100
AcDbAlignedDimension
 13
113.1368815009
 23
170.9553733382
 14
104.4368815009
 24
110.005285774
 50
180.0
100
AcDbRotatedDimension
  0
LWPOLYLINE
  5
246
100
AcDbEntity
  8
RACCORDO
100
AcDbPolyline
 62
253
  6
CONTINUOUS
 90
34
 70
0
 10
140.7967544583
 20
171.8649807253
 10
140.4361019742
 20
171.7462103267
 10
140.0792510737
 20
171.6146427649
 10
139.7266649598
 20
171.4703793052
 10
139.3786234214
 20
171.3134563298
 10
139.0357732814
 20
171.1440783502
 10
138.6990978463
 20
170.9626815803
 10
138.3690716956
 20
170.7695230984
 10
138.0460542464
 20
170.5648143996
 10
137.7307944815
 20
170.3490403843
 10
137.4238513486
 20
170.1226494251
 10
137.1253852406
 20
169.8858272449
 10
136.8355269754
 20
169.6386967097
 10
136.5545022678
 20
169.3814519117
 10
136.2827913857
 20
169.1145347526
 10
136.0208930761
 20
168.8384528287
 10
135.7691848081
 20
168.5536648252
 10
135.5278698773
 20
168.2604652963
 10
135.2971581684
 20
167.9591413675
 10
135.0773526864
 20
167.6501330887
 10
134.868667981
 20
167.3337901768
 10
134.6711966847
 20
167.0102533814
 10
134.4851701499
 20
166.6798828023
 10
134.3108486441
 20
166.3431230029
 10
134.148390188
 20
166.0002304639
 10
133.9980112147
 20
165.6516000137
 10
133.8599320848
 20
165.2976797167
 10
133.7343210074
 20
164.9388077398
 10
133.621358904
 20
164.5753882246
 10
133.5212321028
 20
164.2079021587
 10
133.434102878
 20
163.8368115539
 10
133.3601142631
 20
163.4625800541
 10
133.2993906864
 20
163.0856719288
 10
133.2520411379
 20
162.7065594715
  0
LWPOLYLINE
  5
247
100
AcDbEntity
  8
RACCORDO
100
AcDbPolyline
 62
253
  6
CONTINUOUS
 90
34
 70
0
 10
140.8631910054
 20
171.62603747
 10
140.5100962695
 20
171.5101540636
 10
140.1616343152
 20
171.38202994
 10
139.8177863144
 20
171.2416602068
 10
139.4779071474
 20
171.0887741432
 10
139.1426073908
 20
170.9236313654
 10
138.8137544008
 20
170.7470222978
 10
138.4914540983
 20
170.5588668891
 10
138.1755753702
 20
170.3592328501
 10
137.8676341864
 20
170.1491328283
 10
137.5678518363
 20
169.9286487203
 10
137.2759927109
 20
169.6976861132
 10
136.9928916581
 20
169.4569940323
 10
136.7184547939
 20
169.2064212722
 10
136.4527717419
 20
168.9461065248
 10
136.1969567159
 20
168.6772348898
 10
135.9511404573
 20
168.3998502506
 10
135.7151987711
 20
168.113897648
 10
135.4898672977
 20
167.8204155717
 10
135.2752121467
 20
167.5194382843
 10
135.0711832227
 20
167.2109220835
 10
134.8783448258
 20
166.8957901182
 10
134.6967052723
 20
166.5739930532
 10
134.5262806355
 20
166.2455725402
 10
134.3676491067
 20
165.9115899251
 10
134.2208464084
 20
165.5720044477
 10
134.0858685764
 20
165.2268514258
 10
133.9632357447
 20
164.8773082804
 10
133.8529951745
 20
164.5232985233
 10
133.7551372902
 20
164.1648956817
 10
133.6700973264
 20
163.8035044031
 10
133.5980337749
 20
163.4395933388
 10
133.5388293434
 20
163.0726939223
 10
133.4925059776
 20
162.7028062036
  0
LWPOLYLINE
  5
248
100
AcDbEntity
  8
RACCORDO
100
AcDbPolyline
 62
253
  6
CONTINUOUS
 90
10
 70
0
 10
162.3886282388
 20
35.4204691664
 10
162.4936246977
 20
35.4434995902
 10
162.5983810569
 20
35.4675738563
 10
162.702886904
 20
35.4926893827
 10
162.8071230128
 20
35.5188411975
 10
162.9110879168
 20
35.5460286215
 10
163.0147976813
 20
35.5742561435
 10
163.1182505649
 20
35.6035240993
 10
163.2214272508
 20
35.6338277954
 10
163.3243172595
 20
35.6651648048
  0
LWPOLYLINE
  5
249
100
AcDbEntity
  8
RACCORDO
100
AcDbPolyline
 62
253
  6
CONTINUOUS
 90
10
 70
0
 10
162.3464051231
 20
35.6658241072
 10
162.4487182975
 20
35.6882598956
 10
162.5507812189
 20
35.7117086392
 10
162.6525941549
 20
35.7361704144
 10
162.7541705435
 20
35.7616487899
 10
162.8554974706
 20
35.7881403593
 10
162.9565356694
 20
35.8156347404
 10
163.057272217
 20
35.8441285316
 10
163.1577205341
 20
35.8736253132
 10
163.2578808632
 20
35.9041251789
  0
LWPOLYLINE
  5
24A
100
AcDbEntity
  8
RACCORDO
100
AcDbPolyline
 62
253
  6
CONTINUOUS
 90
22
 70
0
 10
157.40870563
 20
34.6697234156
 10
157.6480458777
 20
34.6916294468
 10
157.8871839555
 20
34.7149270515
 10
158.1261118666
 20
34.7396141936
 10
158.3648120479
 20
34.7656877011
 10
158.6032861402
 20
34.7931464271
 10
158.8415549241
 20
34.8219918135
 10
159.0796144802
 20
34.8522226815
 10
159.3174527728
 20
34.8838367942
 10
159.5550783317
 20
34.9168347357
 10
159.7924831798
 20
34.9512149536
 10
160.0296593449
 20
34.9869758456
 10
160.2666152983
 20
35.0241184339
 10
160.5033430652
 20
35.0626413206
 10
160.7398346457
 20
35.1025430542
 10
160.9760983946
 20
35.1438250838
 10
161.2121262266
 20
35.1864861464
 10
161.4479102019
 20
35.2305249539
 10
161.6834587997
 20
35.2759434283
 10
161.9187694543
 20
35.3227415897
 10
162.1538286158
 20
35.3709172341
 10
162.3886282387
 20
35.4204691668
  0
LWPOLYLINE
  5
24B
100
AcDbEntity
  8
RACCORDO
100
AcDbPolyline
 62
253
  6
CONTINUOUS
 90
22
 70
0
 10
157.3929370845
 20
34.9191506169
 10
157.6309746302
 20
34.9409367875
 10
157.8688070048
 20
34.964103832
 10
158.1064346694
 20
34.9886518568
 10
158.3438611403
 20
35.0145822657
 10
158.5810838096
 20
35.0418938865
 10
158.8180939437
 20
35.0705829708
 10
159.0548918198
 20
35.1006494048
 10
159.291478032
 20
35.1320935695
 10
159.5278443098
 20
35.1649124667
 10
159.7639910691
 20
35.1991060149
 10
159.9999187251
 20
35.2346745976
 10
160.2356189939
 20
35.2716159228
 10
160.4710922915
 20
35.3099299295
 10
160.7063389889
 20
35.3496170146
 10
160.9413507228
 20
35.3906755808
 10
161.1761280862
 20
35.4331056251
 10
161.4106712252
 20
35.4769075195
 10
161.6449710948
 20
35.5220802363
 10
161.8790249095
 20
35.5686235668
 10
162.1128361424
 20
35.616538121
 10
162.3464051231
 20
35.6658241072
  0
LWPOLYLINE
  5
24C
100
AcDbEntity
  8
RACCORDO
100
AcDbPolyline
 62
253
  6
CONTINUOUS
 90
10
 70
0
 10
146.7123475984
 20
34.6697250151
 10
147.898534809
 20
34.5763781857
 10
149.0863984581
 20
34.5063289392
 10
150.275487195
 20
34.4596087881
 10
151.4654125032
 20
34.4362399973
 10
152.6556584819
 20
34.4362399903
 10
153.8455820086
 20
34.459608715
 10
155.0346671868
 20
34.506328642
 10
156.222525508
 20
34.5763774
 10
157.408705634
 20
34.6697233705
  0
LWPOLYLINE
  5
24D
100
AcDbEntity
  8
RACCORDO
100
AcDbPolyline
 62
253
  6
CONTINUOUS
 90
10
 70
0
 10
146.7281346333
 20
34.9191506169
 10
147.9115916556
 20
34.826043916
 10
149.0957947709
 20
34.7562203925
 10
150.2807582737
 20
34.7096745857
 10
151.4670322504
 20
34.6864030028
 10
152.6540976484
 20
34.6864036502
 10
153.8403658076
 20
34.7096760425
 10
155.0253176733
 20
34.7562218493
 10
156.2095033334
 20
34.8260448873
 10
157.3929370845
 20
34.9191506169
  0
LWPOLYLINE
  5
24E
100
AcDbEntity
  8
RACCORDO
100
AcDbPolyline
 62
253
  6
CONTINUOUS
 90
22
 70
0
 10
141.7324434993
 20
35.4204691624
 10
141.967249994
 20
35.3709158005
 10
142.2023154775
 20
35.3227389216
 10
142.4376319017
 20
35.2759397104
 10
142.6731857866
 20
35.2305203474
 10
142.9089744917
 20
35.1864808172
 10
143.1450062762
 20
35.1438192269
 10
143.3812731157
 20
35.1025368646
 10
143.6177670039
 20
35.0626349648
 10
143.8544963194
 20
35.0241120603
 10
144.0914530686
 20
34.9869695882
 10
144.3286292659
 20
34.9512089341
 10
144.5660333814
 20
34.9168290628
 10
144.8036574498
 20
34.8838315617
 10
145.0414934834
 20
34.8522179711
 10
145.2795499843
 20
34.821987697
 10
145.5178155162
 20
34.7931428912
 10
145.7562855585
 20
34.7656847966
 10
145.9949790597
 20
34.7396121522
 10
146.2338970458
 20
34.7149261198
 10
146.4730225598
 20
34.6916297567
 10
146.7123476018
 20
34.6697250521
  0
LWPOLYLINE
  5
24F
100
AcDbEntity
  8
RACCORDO
100
AcDbPolyline
 62
253
  6
CONTINUOUS
 90
22
 70
0
 10
141.7746665947
 20
35.6658241072
 10
142.0082438352
 20
35.6165364306
 10
142.2420624497
 20
35.5686204312
 10
142.4761227678
 20
35.5220759003
 10
142.7104282274
 20
35.4769022494
 10
142.9449760781
 20
35.4330996659
 10
143.1797573802
 20
35.390669113
 10
143.4147723227
 20
35.3496102105
 10
143.6500214556
 20
35.3099229696
 10
143.8854963924
 20
35.2716089483
 10
144.1211974983
 20
35.2346677505
 10
144.357125195
 20
35.1990994366
 10
144.5932711925
 20
35.1649062569
 10
144.8296358999
 20
35.1320878291
 10
145.0662197391
 20
35.1006442336
 10
145.3030144511
 20
35.0705784241
 10
145.5400206747
 20
35.0418900148
 10
145.7772386425
 20
35.0145791243
 10
146.0146594982
 20
34.9886494708
 10
146.2522805933
 20
34.9641022162
 10
146.4901054846
 20
34.9409359671
 10
146.7281346333
 20
34.9191506169
  0
LWPOLYLINE
  5
250
100
AcDbEntity
  8
RACCORDO
100
AcDbPolyline
 62
253
  6
CONTINUOUS
 90
10
 70
0
 10
140.7967544583
 20
35.6651648048
 10
140.8996487425
 20
35.6338265169
 10
141.0028284972
 20
35.6035219822
 10
141.1062832313
 20
35.5742535917
 10
141.2099934025
 20
35.5460260594
 10
141.3139574729
 20
35.5188389512
 10
141.4181921453
 20
35.492687582
 10
141.5226961657
 20
35.4675725621
 10
141.627450089
 20
35.4434989008
 10
141.7324434992
 20
35.420469162
  0
LWPOLYLINE
  5
251
100
AcDbEntity
  8
RACCORDO
100
AcDbPolyline
 62
253
  6
CONTINUOUS
 90
10
 70
0
 10
140.8631900729
 20
35.9041254086
 10
140.9633562957
 20
35.8736238563
 10
141.0638091267
 20
35.8441258197
 10
141.1645488083
 20
35.815631205
 10
141.2655888572
 20
35.7881364534
 10
141.3669162547
 20
35.7616449449
 10
141.4684914463
 20
35.736166997
 10
141.570301422
 20
35.7117059944
 10
141.6723597155
 20
35.6882583899
 10
141.7746665947
 20
35.6658241072
  0
LWPOLYLINE
  5
252
100
AcDbEntity
  8
0
100
AcDbPolyline
 62
7
  6
CONTINUOUS
 90
7
 70
0
 10
156.9330390238
 20
47.710692137
 10
156.9438579328
 20
47.7129238364
 10
156.9546321985
 20
47.716270454
 10
156.9653618377
 20
47.7207319958
 10
156.9760456771
 20
47.7264821464
 10
156.9866849218
 20
47.7333472398
 10
156.9972831476
 20
47.7408062534
  0
LWPOLYLINE
  5
253
100
AcDbEntity
  8
0
100
AcDbPolyline
 62
7
  6
CONTINUOUS
 90
10
 70
0
 10
155.993233113
 20
48.7100179691
 10
156.0452410421
 20
48.7186391217
 10
156.0969040968
 20
48.7255631675
 10
156.1482221552
 20
48.7307900897
 10
156.1991141537
 20
48.7343203502
 10
156.2496609149
 20
48.7361534658
 10
156.3001051401
 20
48.7362880086
 10
156.350527641
 20
48.7347235038
 10
156.4008473467
 20
48.7314604296
 10
156.4510641267
 20
48.7264987939
  0
LINE
  5
254
100
AcDbEntity
  8
RACCORDO
100
AcDbLine
 62
253
  6
CONTINUOUS
 10
133.089190192
 20
44.8053955797
 11
133.2520428154
 21
44.8235704213
  0
LWPOLYLINE
  5
255
100
AcDbEntity
  8
RACCORDO
100
AcDbPolyline
 62
253
  6
CONTINUOUS
 90
16
 70
0
 10
133.4925059786
 20
44.8273393271
 10
133.4670626892
 20
44.82512348
 10
133.4422565735
 20
44.8231492426
 10
133.4182786292
 20
44.8214318157
 10
133.3953134771
 20
44.8199844229
 10
133.3735379399
 20
44.8188182085
 10
133.353119681
 20
44.8179421519
 10
133.3342159128
 20
44.8173629984
 10
133.3169721873
 20
44.8170852073
 10
133.3015212742
 20
44.8171109175
 10
133.2879821398
 20
44.817439931
 10
133.27645903
 20
44.8180697145
 10
133.2670406684
 20
44.8189954189
 10
133.2597995727
 20
44.8202099168
 10
133.2547914965
 20
44.8217038568
 10
133.2520550001
 20
44.8234657363
  0
LINE
  5
256
100
AcDbEntity
  8
RACCORDO
100
AcDbLine
 62
253
  6
CONTINUOUS
 10
132.7602228377
 20
48.8227313987
 11
132.9385554247
 21
48.8321793167
  0
LWPOLYLINE
  5
257
100
AcDbEntity
  8
RACCORDO
100
AcDbPolyline
 62
253
  6
CONTINUOUS
 90
16
 70
0
 10
133.1791204334
 20
48.8268515268
 10
133.1535530089
 20
48.8259761831
 10
133.1286354117
 20
48.8252710172
 10
133.104560011
 20
48.8247414733
 10
133.0815126738
 20
48.8243916395
 10
133.0596713305
 20
48.8242242166
 10
133.039204601
 20
48.8242404971
 10
133.0202704926
 20
48.8244403554
 10
133.0030151806
 20
48.8248222485
 10
132.9875718797
 20
48.8253832281
 10
132.9740598155
 20
48.8261189633
 10
132.962583304
 20
48.8270237741
 10
132.9532309461
 20
48.8280906752
 10
132.9460749442
 20
48.8293114298
 10
132.941170544
 20
48.8306766135
 10
132.9385556086
 20
48.8321756868
  0
LINE
  5
258
100
AcDbEntity
  8
0
100
AcDbLine
 62
7
  6
CONTINUOUS
 10
147.4944288589
 20
46.3872717651
 11
148.0094388589
 21
46.3872717651
  0
LINE
  5
259
100
AcDbEntity
  8
0
100
AcDbLine
 62
7
  6
CONTINUOUS
 10
149.1262508589
 20
46.3872717651
 11
149.7106588589
 21
46.3872717651
  0
LINE
  5
25A
100
AcDbEntity
  8
0
100
AcDbLine
 62
7
  6
CONTINUOUS
 10
150.0252638589
 20
46.3872717651
 11
150.5843528589
 21
46.3872717651
  0
LINE
  5
25B
100
AcDbEntity
  8
0
100
AcDbLine
 62
7
  6
CONTINUOUS
 10
151.3960488589
 20
46.3872717651
 11
151.4780118589
 21
46.3872717651
  0
LINE
  5
25C
100
AcDbEntity
  8
0
100
AcDbLine
 62
7
  6
CONTINUOUS
 10
152.2929418589
 20
46.3872717651
 11
152.8646478589
 21
46.3872717651
  0
LINE
  5
25D
100
AcDbEntity
  8
0
100
AcDbLine
 62
7
  6
CONTINUOUS
 10
152.9564158589
 20
46.3872717651
 11
153.5344828589
 21
46.3872717651
  0
LINE
  5
25E
100
AcDbEntity
  8
0
100
AcDbLine
 62
7
  6
CONTINUOUS
 10
154.6430018589
 20
46.3872717651
 11
155.2589438589
 21
46.3872717651
  0
LINE
  5
25F
100
AcDbEntity
  8
0
100
AcDbLine
 62
7
  6
CONTINUOUS
 10
155.4305546612
 20
46.3872714107
 11
156.0126112038
 21
46.3872714107
  0
LINE
  5
260
100
AcDbEntity
  8
0
100
AcDbLine
 62
7
  6
CONTINUOUS
 10
156.9075514808
 20
46.3872714107
 11
157.4696840708
 21
46.3872714107
  0
LINE
  5
261
100
AcDbEntity
  8
0
100
AcDbLine
 62
7
  6
CONTINUOUS
 10
153.6957428589
 20
46.9461917651
 11
154.4916098589
 21
46.9461917651
  0
LINE
  5
262
100
AcDbEntity
  8
0
100
AcDbLine
 62
7
  6
CONTINUOUS
 10
154.3748158589
 20
47.3786817651
 11
153.8152868589
 21
47.3786817651
  0
LINE
  5
263
100
AcDbEntity
  8
0
100
AcDbLine
 62
7
  6
CONTINUOUS
 10
156.0126112038
 20
47.4829208403
 11
156.3259568212
 21
47.4829208403
  0
LINE
  5
264
100
AcDbEntity
  8
0
100
AcDbLine
 62
7
  6
CONTINUOUS
 10
156.3272165021
 20
47.9414446785
 11
155.993233113
 21
47.9414446785
  0
LINE
  5
265
100
AcDbEntity
  8
0
100
AcDbLine
 62
7
  6
CONTINUOUS
 10
154.3999258589
 20
49.1869747651
 11
153.8345808589
 21
49.1869747651
  0
LINE
  5
266
100
AcDbEntity
  8
0
100
AcDbLine
 62
7
  6
CONTINUOUS
 10
152.6028438589
 20
49.1869747651
 11
152.0246298589
 21
49.1869747651
  0
LINE
  5
267
100
AcDbEntity
  8
0
100
AcDbLine
 62
7
  6
CONTINUOUS
 10
150.8619858589
 20
49.1869747651
 11
150.2780608589
 21
49.1869747651
  0
LINE
  5
268
100
AcDbEntity
  8
0
100
AcDbLine
 62
7
  6
CONTINUOUS
 10
148.9093758589
 20
49.1869747651
 11
148.3253668589
 21
49.1869747651
  0
LINE
  5
269
100
AcDbEntity
  8
0
100
AcDbLine
 62
7
  6
CONTINUOUS
 10
147.2417158589
 20
49.1869747651
 11
146.6068678589
 21
49.1869747651
  0
LINE
  5
26A
100
AcDbEntity
  8
0
100
AcDbLine
 62
7
  6
CONTINUOUS
 10
149.7106588589
 20
49.1871427651
 11
149.1262508589
 21
49.1871427651
  0
LWPOLYLINE
  5
26B
100
AcDbEntity
  8
0
100
AcDbPolyline
 62
7
  6
CONTINUOUS
 90
22
 70
0
 10
156.3259568212
 20
47.4829208403
 10
156.3487364676
 20
47.4821675993
 10
156.371022103
 20
47.4800271834
 10
156.3928136829
 20
47.4764995972
 10
156.4142363727
 20
47.4715445243
 10
156.435164918
 20
47.4652023001
 10
156.455223659
 20
47.4575939111
 10
156.4743058816
 20
47.448666482
 10
156.49251825
 20
47.4384729221
 10
156.5098052001
 20
47.427292893
 10
156.5261126938
 20
47.4151349191
 10
156.5414947555
 20
47.4019905131
 10
156.5560579345
 20
47.3881138108
 10
156.569824385
 20
47.373528007
 10
156.5827719575
 20
47.3582099405
 10
156.594940757
 20
47.3423442042
 10
156.6063370617
 20
47.3259713344
 10
156.6169546137
 20
47.3090508231
 10
156.6268147209
 20
47.2916456918
 10
156.6359244951
 20
47.2737769563
 10
156.6442768511
 20
47.2554236286
 10
156.6518718035
 20
47.2365857234
  0
LWPOLYLINE
  5
26C
100
AcDbEntity
  8
RACCORDO
100
AcDbPolyline
 62
253
  6
CONTINUOUS
 90
16
 70
0
 10
170.9419512843
 20
48.8268515268
 10
170.967518709
 20
48.8259761831
 10
170.9924363065
 20
48.8252710172
 10
171.0165117075
 20
48.8247414733
 10
171.039559045
 20
48.8243916394
 10
171.0614003885
 20
48.8242242165
 10
171.0818671184
 20
48.824240497
 10
171.1008012271
 20
48.8244403553
 10
171.1180565394
 20
48.8248222483
 10
171.1334998405
 20
48.8253832279
 10
171.147011905
 20
48.8261189631
 10
171.1584884168
 20
48.8270237739
 10
171.1678407749
 20
48.828090675
 10
171.174996777
 20
48.8293114296
 10
171.1799011774
 20
48.8306766133
 10
171.182516113
 20
48.8321756866
  0
LINE
  5
26D
100
AcDbEntity
  8
RACCORDO
100
AcDbLine
 62
253
  6
CONTINUOUS
 10
171.3608488801
 20
48.8227313987
 11
171.1825163354
 21
48.8321801385
  0
LWPOLYLINE
  5
26E
100
AcDbEntity
  8
RACCORDO
100
AcDbPolyline
 62
253
  6
CONTINUOUS
 90
16
 70
0
 10
170.6285657403
 20
44.8273393266
 10
170.6540090967
 20
44.825123467
 10
170.6788152837
 20
44.8231492174
 10
170.7027933025
 20
44.8214317789
 10
170.725758531
 20
44.819984375
 10
170.7475341452
 20
44.8188181503
 10
170.7679524806
 20
44.8179420842
 10
170.7868563236
 20
44.8173629222
 10
170.8041001211
 20
44.8170851237
 10
170.8195511022
 20
44.8171108274
 10
170.8330902999
 20
44.8174398356
 10
170.8446134672
 20
44.818069615
 10
170.8540318799
 20
44.8189953166
 10
170.8612730195
 20
44.8202098126
 10
170.8662811319
 20
44.8217037521
 10
170.8690176565
 20
44.8234656321
  0
LINE
  5
26F
100
AcDbEntity
  8
RACCORDO
100
AcDbLine
 62
253
  6
CONTINUOUS
 10
171.0318815258
 20
44.8053955797
 11
170.8690305423
 21
44.8235860628
  0
LWPOLYLINE
  5
270
100
AcDbEntity
  8
0
100
AcDbPolyline
 62
7
  6
CONTINUOUS
 90
25
 70
0
 10
156.4510641267
 20
48.7264987939
 10
156.4738970741
 20
48.7231414596
 10
156.4962401197
 20
48.7186390863
 10
156.518093232
 20
48.7129916812
 10
156.5395048644
 20
48.7061809387
 10
156.5604265021
 20
48.698225185
 10
156.580712669
 20
48.6891793777
 10
156.6003904815
 20
48.6790485386
 10
156.6194327787
 20
48.6678276759
 10
156.6376126827
 20
48.6555567278
 10
156.6549264844
 20
48.6422127864
 10
156.6713778716
 20
48.6278187987
 10
156.686751082
 20
48.6124834859
 10
156.700992761
 20
48.5961631643
 10
156.7141562731
 20
48.5789015616
 10
156.7261859573
 20
48.5609385094
 10
156.7370791662
 20
48.5422752302
 10
156.7468385843
 20
48.5229105394
 10
156.7554165679
 20
48.503080647
 10
156.7628267525
 20
48.482800876
 10
156.7690555615
 20
48.4620559312
 10
156.7740145491
 20
48.4410360829
 10
156.7776742619
 20
48.4198047583
 10
156.780064231
 20
48.3982985468
 10
156.7811844944
 20
48.3765174577
  0
LINE
  5
271
100
AcDbEntity
  8
RACCORDO
100
AcDbLine
 62
253
  6
CONTINUOUS
 10
133.0009090015
 20
52.6502997285
 11
132.950476233
 21
52.6486724565
  0
LWPOLYLINE
  5
272
100
AcDbEntity
  8
0
100
AcDbPolyline
 62
253
  6
CONTINUOUS
 90
14
 70
0
 10
140.5077474545
 20
53.5468595106
 10
140.5401185492
 20
53.5478137634
 10
140.570811825
 20
53.5488697339
 10
140.5996463877
 20
53.5500211986
 10
140.626452298
 20
53.5512613713
 10
140.6510715724
 20
53.5525829429
 10
140.6733591148
 20
53.5539781245
 10
140.6931835713
 20
53.5554386934
 10
140.7104281043
 20
53.5569560418
 10
140.7249910815
 20
53.558521227
 10
140.7367866744
 20
53.5601250242
 10
140.7457453645
 20
53.5617579815
 10
140.7518143529
 20
53.5634104749
 10
140.7549578713
 20
53.5650727651
  0
LWPOLYLINE
  5
273
100
AcDbEntity
  8
RACCORDO
100
AcDbPolyline
 62
253
  6
CONTINUOUS
 90
13
 70
0
 10
132.950476233
 20
52.6486724565
 10
132.9034218995
 20
52.6475115682
 10
132.8816195828
 20
52.6471177789
 10
132.8611944092
 20
52.6468527977
 10
132.8423038621
 20
52.6467186676
 10
132.8250935926
 20
52.6467164229
 10
132.8096962964
 20
52.6468460808
 10
132.796230691
 20
52.6471066416
 10
132.7848005995
 20
52.6474960965
 10
132.7754941512
 20
52.6480114424
 10
132.7683831011
 20
52.6486487061
 10
132.7635222773
 20
52.649402974
 10
132.7609491582
 20
52.6502684305
  0
LINE
  5
274
100
AcDbEntity
  8
0
100
AcDbLine
 62
253
  6
CONTINUOUS
 10
140.4387437015
 20
53.5452780214
 11
140.5077474545
 21
53.5468595106
  0
LINE
  5
275
100
AcDbEntity
  8
0
100
AcDbLine
 62
253
  6
CONTINUOUS
 10
140.3654248919
 20
53.5441624941
 11
140.4387437015
 21
53.5452780214
  0
LINE
  5
276
100
AcDbEntity
  8
0
100
AcDbLine
 62
253
  6
CONTINUOUS
 10
140.2895169267
 20
53.5435391878
 11
140.3654248919
 21
53.5441624941
  0
LINE
  5
277
100
AcDbEntity
  8
0
100
AcDbLine
 62
253
  6
CONTINUOUS
 10
162.5462687119
 20
52.1839839199
 11
157.8893756864
 21
52.1726714859
  0
LINE
  5
278
100
AcDbEntity
  8
0
100
AcDbLine
 62
253
  6
CONTINUOUS
 10
162.5105432297
 20
52.7076019535
 11
157.8687557279
 21
52.6963272151
  0
LINE
  5
279
100
AcDbEntity
  8
0
100
AcDbLine
 62
253
  6
CONTINUOUS
 10
157.8893756864
 20
52.1726714859
 11
153.2265997085
 21
52.1678233128
  0
LINE
  5
27A
100
AcDbEntity
  8
0
100
AcDbLine
 62
253
  6
CONTINUOUS
 10
157.8687557279
 20
52.6963272151
 11
153.2228162569
 21
52.6914952019
  0
LINE
  5
27B
100
AcDbEntity
  8
0
100
AcDbLine
 62
253
  6
CONTINUOUS
 10
140.8105358589
 20
53.5650727651
 11
140.7549579275
 21
53.5650369366
  0
LINE
  5
27C
100
AcDbEntity
  8
0
100
AcDbLine
 62
253
  6
CONTINUOUS
 10
140.5512918322
 20
52.6502997284
 11
133.0009090436
 21
52.6502987623
  0
LINE
  5
27D
100
AcDbEntity
  8
0
100
AcDbLine
 62
253
  6
CONTINUOUS
 10
163.5697798856
 20
52.6502997284
 11
171.1201626794
 21
52.6502988807
  0
LINE
  5
27E
100
AcDbEntity
  8
0
100
AcDbLine
 62
7
  6
CONTINUOUS
 10
162.5105358589
 20
52.7650727651
 11
141.6105358589
 21
52.7650727651
  0
LINE
  5
27F
100
AcDbEntity
  8
0
100
AcDbLine
 62
253
  6
CONTINUOUS
 10
140.2128066548
 20
53.5434227749
 11
140.2895169267
 21
53.5435391878
  0
LINE
  5
280
100
AcDbEntity
  8
0
100
AcDbLine
 62
253
  6
CONTINUOUS
 10
153.2265997085
 20
52.1678233128
 11
148.5626407615
 21
52.1694393701
  0
LINE
  5
281
100
AcDbEntity
  8
0
100
AcDbLine
 62
253
  6
CONTINUOUS
 10
153.2228162569
 20
52.6914952019
 11
148.5745076459
 21
52.693105902
  0
LINE
  5
282
100
AcDbEntity
  8
0
100
AcDbLine
 62
253
  6
CONTINUOUS
 10
163.3105358589
 20
53.5650727651
 11
163.3661137906
 21
53.5650370868
  0
LWPOLYLINE
  5
283
100
AcDbEntity
  8
0
100
AcDbPolyline
 62
253
  6
CONTINUOUS
 90
3
 70
0
 10
148.5626407615
 20
52.1694393701
 10
143.9022212066
 20
52.1775196671
 10
141.5748030059
 20
52.1839839199
  0
LWPOLYLINE
  5
284
100
AcDbEntity
  8
0
100
AcDbPolyline
 62
253
  6
CONTINUOUS
 90
3
 70
0
 10
148.5745076459
 20
52.693105902
 10
143.9309612103
 20
52.7011592684
 10
141.6105281012
 20
52.7076019543
  0
LINE
  5
285
100
AcDbEntity
  8
0
100
AcDbLine
 62
253
  6
CONTINUOUS
 10
163.9082647464
 20
53.5434229355
 11
163.8315542397
 21
53.5435393189
  0
LINE
  5
286
100
AcDbEntity
  8
0
100
AcDbLine
 62
253
  6
CONTINUOUS
 10
163.8315542397
 20
53.5435393189
 11
163.7556459315
 21
53.5441625991
  0
LINE
  5
287
100
AcDbEntity
  8
0
100
AcDbLine
 62
253
  6
CONTINUOUS
 10
163.7556459315
 20
53.5441625991
 11
163.6823267051
 21
53.5452781039
  0
LWPOLYLINE
  5
288
100
AcDbEntity
  8
RACCORDO
100
AcDbPolyline
 62
253
  6
CONTINUOUS
 90
12
 70
0
 10
171.2176498181
 20
52.6475115682
 10
171.2394521347
 20
52.6471177789
 10
171.2598773082
 20
52.6468527977
 10
171.2787678553
 20
52.6467186676
 10
171.2959781247
 20
52.6467164229
 10
171.3113754207
 20
52.6468460808
 10
171.3248410261
 20
52.6471066417
 10
171.3362711174
 20
52.6474960965
 10
171.3455775657
 20
52.6480114425
 10
171.3526886157
 20
52.6486487061
 10
171.3575494394
 20
52.649402974
 10
171.3601225585
 20
52.6502684305
  0
LWPOLYLINE
  5
289
100
AcDbEntity
  8
0
100
AcDbPolyline
 62
253
  6
CONTINUOUS
 90
15
 70
0
 10
163.6823267051
 20
53.5452781039
 10
163.6133224967
 20
53.5468595742
 10
163.5809511707
 20
53.5478138189
 10
163.5502576669
 20
53.548869782
 10
163.5214228833
 20
53.5500212402
 10
163.4946167632
 20
53.5512614071
 10
163.4699972935
 20
53.5525829734
 10
163.4477095737
 20
53.5539781504
 10
163.4278849608
 20
53.5554387152
 10
163.4106402949
 20
53.5569560597
 10
163.3960772106
 20
53.5585212412
 10
163.3842815382
 20
53.5601250349
 10
163.3753227978
 20
53.5617579887
 10
163.3692537895
 20
53.5634104784
 10
163.366110282
 20
53.5650727648
  0
LINE
  5
28A
100
AcDbEntity
  8
RACCORDO
100
AcDbLine
 62
253
  6
CONTINUOUS
 10
171.1705954847
 20
52.6486724565
 11
171.2176498181
 21
52.6475115682
  0
LWPOLYLINE
  5
28B
100
AcDbEntity
  8
0
100
AcDbPolyline
 62
253
  6
CONTINUOUS
 90
13
 70
0
 10
141.5748030059
 20
52.1839839199
 10
141.5011973683
 20
52.1860263247
 10
141.4275397547
 20
52.192265522
 10
141.3538299212
 20
52.2027015371
 10
141.2796683247
 20
52.2173483864
 10
141.2054541264
 20
52.2361921547
 10
141.1323850706
 20
52.2591909942
 10
141.0604262807
 20
52.2865381981
 10
140.9896122032
 20
52.3180406745
 10
140.9212444259
 20
52.3530770025
 10
140.8557566564
 20
52.3914401133
 10
140.7927148208
 20
52.4333373108
 10
140.7321188152
 20
52.4787687302
  0
LWPOLYLINE
  5
28C
100
AcDbEntity
  8
0
100
AcDbPolyline
 62
253
  6
CONTINUOUS
 90
13
 70
0
 10
141.6105281012
 20
52.7076019747
 10
141.5643933082
 20
52.7090710743
 10
141.5179549379
 20
52.7130628778
 10
141.4713555483
 20
52.7196396664
 10
141.4246548495
 20
52.7288773014
 10
141.3781026791
 20
52.7408107399
 10
141.3321250798
 20
52.7553831738
 10
141.2868282493
 20
52.7725965723
 10
141.2424152897
 20
52.792411162
 10
141.1994158576
 20
52.8145823331
 10
141.1580669439
 20
52.838925953
 10
141.1183463655
 20
52.8653929658
 10
141.0803527644
 20
52.8938675493
  0
LINE
  5
28D
100
AcDbEntity
  8
RACCORDO
100
AcDbLine
 62
253
  6
CONTINUOUS
 10
171.1201627164
 20
52.6502997284
 11
171.1705954847
 21
52.6486724565
  0
LWPOLYLINE
  5
28E
100
AcDbEntity
  8
0
100
AcDbPolyline
 62
7
  6
CONTINUOUS
 90
28
 70
0
 10
156.873401028
 20
49.12456588
 10
156.8245706061
 20
49.1407720908
 10
156.7751904316
 20
49.1552481188
 10
156.7252606187
 20
49.1679939295
 10
156.6746545275
 20
49.1788728481
 10
156.6234990307
 20
49.1880214918
 10
156.5721744977
 20
49.1958497759
 10
156.5207413786
 20
49.2023778768
 10
156.4691394245
 20
49.2075855923
 10
156.4175679233
 20
49.211822281
 10
156.3660671979
 20
49.2151554549
 10
156.3145970824
 20
49.2175175922
 10
156.2632361042
 20
49.2190555057
 10
156.2121307146
 20
49.2197849279
 10
156.161134603
 20
49.2196901238
 10
156.1098871278
 20
49.2188707075
 10
156.058425363
 20
49.2173480706
 10
156.006712336
 20
49.2151008237
 10
155.9542763039
 20
49.2121644097
 10
155.9011250105
 20
49.2085545793
 10
155.8472507895
 20
49.2042555878
 10
155.7921587599
 20
49.1992556363
 10
155.7358502763
 20
49.1935599452
 10
155.6783240531
 20
49.1871633042
 10
155.6190812342
 20
49.1800382691
 10
155.5579555547
 20
49.1721756969
 10
155.4951133498
 20
49.1635847457
 10
155.4305546612
 20
49.1542654241
  0
LWPOLYLINE
  5
28F
100
AcDbEntity
  8
0
100
AcDbPolyline
 62
253
  6
CONTINUOUS
 90
13
 70
0
 10
140.7321188152
 20
155.0513768
 10
140.7927148192
 20
155.0968082232
 10
140.8557566538
 20
155.138705423
 10
140.9212444232
 20
155.1770685346
 10
140.9896122013
 20
155.2121048613
 10
141.0604262805
 20
155.243607335
 10
141.1323850717
 20
155.2709545359
 10
141.205454128
 20
155.2939533721
 10
141.2796683265
 20
155.3127971369
 10
141.3538299229
 20
155.3274439845
 10
141.4275397561
 20
155.3378800006
 10
141.5011973691
 20
155.3441192007
 10
141.5748030059
 20
155.3461616103
  0
LWPOLYLINE
  5
290
100
AcDbEntity
  8
0
100
AcDbPolyline
 62
253
  6
CONTINUOUS
 90
13
 70
0
 10
141.0803527644
 20
154.6362779809
 10
141.1183463657
 20
154.6647525645
 10
141.1580669442
 20
154.6912195773
 10
141.199415858
 20
154.7155631972
 10
141.2424152902
 20
154.7377343684
 10
141.2868282498
 20
154.7575489581
 10
141.3321250803
 20
154.7747623566
 10
141.3781026815
 20
154.789334791
 10
141.4246548539
 20
154.8012682298
 10
141.4713555486
 20
154.8105058637
 10
141.5179549256
 20
154.817082651
 10
141.5643932771
 20
154.821074454
 10
141.610528045
 20
154.8225435552
  0
LWPOLYLINE
  5
291
100
AcDbEntity
  8
0
100
AcDbPolyline
 62
253
  6
CONTINUOUS
 90
10
 70
0
 10
140.7321188152
 20
52.4787687302
 10
140.7081377613
 20
52.4982326363
 10
140.6851507114
 20
52.5176236137
 10
140.6631576306
 20
52.5369416607
 10
140.6421873405
 20
52.5562245001
 10
140.622210956
 20
52.5754344063
 10
140.6031418894
 20
52.5944582034
 10
140.5849512662
 20
52.6132581628
 10
140.5676679199
 20
52.6318720056
 10
140.5512918322
 20
52.6502997284
  0
LWPOLYLINE
  5
292
100
AcDbEntity
  8
0
100
AcDbPolyline
 62
253
  6
CONTINUOUS
 90
10
 70
0
 10
141.0803527644
 20
52.8938675493
 10
141.0653166656
 20
52.9060769354
 10
141.0509322157
 20
52.9182984847
 10
141.0371851454
 20
52.9305014774
 10
141.0240631896
 20
52.9426539634
 10
141.0115482181
 20
52.9547305858
 10
140.9996168742
 20
52.9667130814
 10
140.9882510211
 20
52.9785794987
 10
140.9774372776
 20
52.9903036423
 10
140.9671595096
 20
53.0018632553
  0
LWPOLYLINE
  5
293
100
AcDbEntity
  8
0
100
AcDbPolyline
 62
253
  6
CONTINUOUS
 90
10
 70
0
 10
140.5512918322
 20
154.8798458017
 10
140.5676529693
 20
154.8982578166
 10
140.584924927
 20
154.9168600544
 10
140.6031077237
 20
154.9356525118
 10
140.6221722919
 20
154.9546731442
 10
140.6421477403
 20
154.9738839885
 10
140.6631213583
 20
154.9931711653
 10
140.6851222655
 20
155.0124967145
 10
140.7081214061
 20
155.0318985933
 10
140.7321188152
 20
155.0513768
  0
LWPOLYLINE
  5
294
100
AcDbEntity
  8
0
100
AcDbPolyline
 62
253
  6
CONTINUOUS
 90
10
 70
0
 10
140.9671595096
 20
154.5282822749
 10
140.9774281165
 20
154.5398317663
 10
140.9882346602
 20
154.5515486178
 10
140.9995954099
 20
154.5634104634
 10
141.0115238851
 20
154.5753909827
 10
141.0240383669
 20
154.5874680921
 10
141.0371623626
 20
154.5996233887
 10
141.0509141518
 20
154.6118313544
 10
141.0653061467
 20
154.6240598568
 10
141.0803527644
 20
154.6362779809
  0
LWPOLYLINE
  5
295
100
AcDbEntity
  8
0
100
AcDbPolyline
 62
253
  6
CONTINUOUS
 90
13
 70
0
 10
140.5512918322
 20
52.6502997284
 10
140.49978688
 20
52.712195371
 10
140.4521400001
 20
52.7771692752
 10
140.4083508547
 20
52.8452214936
 10
140.3681308761
 20
52.9168323145
 10
140.3317682449
 20
52.991521568
 10
140.3001279656
 20
53.0678485947
 10
140.273439107
 20
53.1458480333
 10
140.2514730146
 20
53.2254853088
 10
140.2344083637
 20
53.3052158812
 10
140.2223050724
 20
53.3845248895
 10
140.2151042812
 20
53.4639271874
 10
140.2128066548
 20
53.5434227748
  0
LWPOLYLINE
  5
296
100
AcDbEntity
  8
0
100
AcDbPolyline
 62
253
  6
CONTINUOUS
 90
13
 70
0
 10
140.9671595096
 20
53.0018632553
 10
140.9351100448
 20
53.0408231199
 10
140.9051824344
 20
53.0819112162
 10
140.8775360209
 20
53.1250253165
 10
140.8522555248
 20
53.1701879677
 10
140.829580181
 20
53.2171431571
 10
140.8098179847
 20
53.2653156073
 10
140.793032411
 20
53.3145077703
 10
140.7792652793
 20
53.3645530801
 10
140.7686272874
 20
53.4148624037
 10
140.761087473
 20
53.4651027673
 10
140.756554163
 20
53.5152203019
 10
140.7549579609
 20
53.5650369367
  0
LWPOLYLINE
  5
297
100
AcDbEntity
  8
0
100
AcDbPolyline
 62
253
  6
CONTINUOUS
 90
9
 70
0
 10
163.2360725985
 20
52.9371627585
 10
163.2188152469
 20
52.9514635709
 10
163.2034010754
 20
52.9641128373
 10
163.1899214516
 20
52.9750355792
 10
163.1784562764
 20
52.9841670517
 10
163.1690735097
 20
52.9914531279
 10
163.1618287679
 20
52.9968506194
 10
163.1567649944
 20
53.0003275327
 10
163.1539122049
 20
53.0018632582
  0
LINE
  5
298
100
AcDbEntity
  8
0
100
AcDbLine
 62
253
  6
CONTINUOUS
 10
163.569779426
 20
154.879845543
 11
163.482985637
 21
154.8040655404
  0
LINE
  5
299
100
AcDbEntity
  8
0
100
AcDbLine
 62
253
  6
CONTINUOUS
 10
163.482985637
 20
154.8040655404
 11
163.3986774725
 21
154.7311143072
  0
LINE
  5
29A
100
AcDbEntity
  8
0
100
AcDbLine
 62
253
  6
CONTINUOUS
 10
163.3986774725
 20
154.7311143072
 11
163.3213349137
 21
154.6648683405
  0
LINE
  5
29B
100
AcDbEntity
  8
0
100
AcDbLine
 62
253
  6
CONTINUOUS
 10
163.3213349137
 20
154.6648683405
 11
163.2756945485
 21
154.6261883581
  0
LWPOLYLINE
  5
29C
100
AcDbEntity
  8
0
100
AcDbPolyline
 62
253
  6
CONTINUOUS
 90
10
 70
0
 10
163.2756945485
 20
154.6261883581
 10
163.236069346
 20
154.592980041
 10
163.2188117964
 20
154.5786790437
 10
163.2033974498
 20
154.5660296113
 10
163.1899176768
 20
154.5551067253
 10
163.1784523808
 20
154.5459751327
 10
163.1690695239
 20
154.5386889624
 10
163.1618247242
 20
154.5332914043
 10
163.1567609262
 20
154.5298144532
 10
163.1539081464
 20
154.5282787194
  0
LINE
  5
29D
100
AcDbEntity
  8
0
100
AcDbLine
 62
253
  6
CONTINUOUS
 10
140.7344378632
 20
75.2650727651
 11
132.5094616704
 21
75.2650727651
  0
LINE
  5
29E
100
AcDbEntity
  8
0
100
AcDbLine
 62
253
  6
CONTINUOUS
 10
163.3866338546
 20
75.2650727651
 11
171.6116100474
 21
75.2650727651
  0
LINE
  5
29F
100
AcDbEntity
  8
RACCORDO
100
AcDbLine
 62
253
  6
CONTINUOUS
 10
132.0605358589
 20
75.2650727651
 11
132.5094616704
 21
75.2650727651
  0
LINE
  5
2A0
100
AcDbEntity
  8
RACCORDO
100
AcDbLine
 62
253
  6
CONTINUOUS
 10
172.0605358589
 20
75.2650727651
 11
171.6116100474
 21
75.2650727651
  0
LINE
  5
2A1
100
AcDbEntity
  8
0
100
AcDbLine
 62
253
  6
CONTINUOUS
 10
163.27569735
 20
52.9039548561
 11
163.2360725985
 21
52.9371627585
  0
LINE
  5
2A2
100
AcDbEntity
  8
0
100
AcDbLine
 62
253
  6
CONTINUOUS
 10
163.3213372169
 20
52.8652753247
 11
163.27569735
 21
52.9039548561
  0
LINE
  5
2A3
100
AcDbEntity
  8
0
100
AcDbLine
 62
253
  6
CONTINUOUS
 10
163.3986790167
 20
52.7990300344
 11
163.3213372169
 21
52.8652753247
  0
LINE
  5
2A4
100
AcDbEntity
  8
0
100
AcDbLine
 62
253
  6
CONTINUOUS
 10
163.4829865228
 20
52.7260793753
 11
163.3986790167
 21
52.7990300344
  0
LINE
  5
2A5
100
AcDbEntity
  8
0
100
AcDbLine
 62
253
  6
CONTINUOUS
 10
163.5697798849
 20
52.6502997288
 11
163.4829865228
 21
52.7260793753
  0
LWPOLYLINE
  5
2A6
100
AcDbEntity
  8
RACCORDO
100
AcDbPolyline
 62
253
  6
CONTINUOUS
 90
9
 70
0
 10
132.9621476272
 20
48.3859496998
 10
132.9885527732
 20
47.9398923379
 10
133.0177694891
 20
47.4940246845
 10
133.0497957855
 20
47.0483719102
 10
133.0846304862
 20
46.6029437112
 10
133.1222737233
 20
46.1577343413
 10
133.1627248002
 20
45.7127535219
 10
133.2059816975
 20
45.2680264089
 10
133.2520428482
 20
44.823570425
  0
LWPOLYLINE
  5
2A7
100
AcDbEntity
  8
RACCORDO
100
AcDbPolyline
 62
253
  6
CONTINUOUS
 90
9
 70
0
 10
133.2026921016
 20
48.381627121
 10
133.2290847446
 20
47.9365999948
 10
133.2582933256
 20
47.4917740174
 10
133.2903072949
 20
47.0471500421
 10
133.3251263586
 20
46.6027349371
 10
133.3627604362
 20
46.1585415775
 10
133.4032086523
 20
45.7145768079
 10
133.4464593796
 20
45.2708414498
 10
133.4925059776
 20
44.8273393266
  0
LINE
  5
2A8
100
AcDbEntity
  8
RACCORDO
100
AcDbLine
 62
253
  6
CONTINUOUS
 10
133.1581332874
 20
49.2513912342
 11
133.2026921016
 21
48.381627121
  0
LINE
  5
2A9
100
AcDbEntity
  8
RACCORDO
100
AcDbLine
 62
253
  6
CONTINUOUS
 10
132.9176365504
 20
49.2561272553
 11
132.9621476272
 21
48.3859496998
  0
LINE
  5
2AA
100
AcDbEntity
  8
RACCORDO
100
AcDbLine
 62
253
  6
CONTINUOUS
 10
133.0384302888
 20
51.8001652122
 11
133.1581332874
 21
49.2513912342
  0
LINE
  5
2AB
100
AcDbEntity
  8
RACCORDO
100
AcDbLine
 62
253
  6
CONTINUOUS
 10
132.7983410175
 20
51.8013211698
 11
132.9176365504
 21
49.2561272553
  0
LINE
  5
2AC
100
AcDbEntity
  8
RACCORDO
100
AcDbLine
 62
253
  6
CONTINUOUS
 10
132.760949158
 20
52.6502684305
 11
132.7983410175
 21
51.8013211698
  0
LINE
  5
2AD
100
AcDbEntity
  8
RACCORDO
100
AcDbLine
 62
253
  6
CONTINUOUS
 10
133.0009090436
 20
52.6502987623
 11
133.0384302888
 21
51.8001652122
  0
LINE
  5
2AE
100
AcDbEntity
  8
RACCORDO
100
AcDbLine
 62
253
  6
CONTINUOUS
 10
132.798340985
 20
155.7288236323
 11
132.6582720108
 21
152.3714321749
  0
LINE
  5
2AF
100
AcDbEntity
  8
RACCORDO
100
AcDbLine
 62
253
  6
CONTINUOUS
 10
133.117044306
 20
157.4294434926
 11
133.0009090384
 21
154.8798466494
  0
LINE
  5
2B0
100
AcDbEntity
  8
RACCORDO
100
AcDbLine
 62
253
  6
CONTINUOUS
 10
132.9176365044
 20
158.274017339
 11
132.798340985
 21
155.7288236323
  0
LINE
  5
2B1
100
AcDbEntity
  8
RACCORDO
100
AcDbLine
 62
253
  6
CONTINUOUS
 10
133.1791204334
 20
158.7032940033
 11
133.117044306
 21
157.4294434926
  0
LWPOLYLINE
  5
2B2
100
AcDbEntity
  8
RACCORDO
100
AcDbPolyline
 62
253
  6
CONTINUOUS
 90
10
 70
0
 10
133.2520411755
 20
162.7065594674
 10
133.205980546
 20
162.2621076662
 10
133.1627240178
 20
161.8173836945
 10
133.1222731779
 20
161.3724049725
 10
133.0846300211
 20
160.9271961064
 10
133.0497953158
 20
160.481767363
 10
133.0177690629
 20
160.0361146402
 10
132.9885524612
 20
159.5902481836
 10
132.9621474474
 20
159.144192616
 10
132.9176365044
 20
158.274017339
  0
LWPOLYLINE
  5
2B3
100
AcDbEntity
  8
RACCORDO
100
AcDbPolyline
 62
253
  6
CONTINUOUS
 90
10
 70
0
 10
133.4925059776
 20
162.7028062036
 10
133.4464589626
 20
162.2592995921
 10
133.4032079405
 20
161.8155608648
 10
133.3627595504
 20
161.3715938463
 10
133.325125437
 20
160.9273993578
 10
133.290306455
 20
160.4829842459
 10
133.2582926264
 20
160.0383613897
 10
133.2290842239
 20
159.593537659
 10
133.2026918146
 20
159.1485139069
 10
133.1791204334
 20
158.7032940033
  0
LINE
  5
2B4
100
AcDbEntity
  8
0
100
AcDbLine
 62
253
  6
CONTINUOUS
 10
163.3889529006
 20
155.0513767987
 11
163.3413679888
 21
154.9912776185
  0
LINE
  5
2B5
100
AcDbEntity
  8
0
100
AcDbLine
 62
253
  6
CONTINUOUS
 10
163.3413679888
 20
154.9912776185
 11
163.2939941741
 21
154.9320478756
  0
LINE
  5
2B6
100
AcDbEntity
  8
0
100
AcDbLine
 62
253
  6
CONTINUOUS
 10
163.2939941741
 20
154.9320478756
 11
163.2479450385
 21
154.8750798408
  0
LINE
  5
2B7
100
AcDbEntity
  8
0
100
AcDbLine
 62
253
  6
CONTINUOUS
 10
163.2479450385
 20
154.8750798408
 11
163.2043030258
 21
154.8217126205
  0
LWPOLYLINE
  5
2B8
100
AcDbEntity
  8
0
100
AcDbPolyline
 62
253
  6
CONTINUOUS
 90
13
 70
0
 10
163.2043030258
 20
154.8217126205
 10
163.1640939972
 20
154.7732006795
 10
163.1455759909
 20
154.7511270057
 10
163.1282631173
 20
154.7306843528
 10
163.1122572666
 20
154.7119930304
 10
163.0976526368
 20
154.6951630411
 10
163.0845351795
 20
154.6802934334
 10
163.072982094
 20
154.6674717183
 10
163.0630613728
 20
154.6567733544
 10
163.0548314017
 20
154.6482613041
 10
163.0483406158
 20
154.6419856627
 10
163.0436272149
 20
154.637983364
 10
163.0407189386
 20
154.6362779621
  0
LWPOLYLINE
  5
2B9
100
AcDbEntity
  8
0
100
AcDbPolyline
 62
253
  6
CONTINUOUS
 90
11
 70
0
 10
163.1455743745
 20
52.7790205328
 10
163.1282613645
 20
52.7994633657
 10
163.1122553857
 20
52.8181548563
 10
163.0976506385
 20
52.8349849992
 10
163.0845330764
 20
52.8498547438
 10
163.0729799006
 20
52.8626765768
 10
163.063059105
 20
52.8733750377
 10
163.0548290769
 20
52.8818871625
 10
163.0483382526
 20
52.8881628548
 10
163.0436248326
 20
52.89216518
 10
163.040716557
 20
52.8938705832
  0
LINE
  5
2BA
100
AcDbEntity
  8
0
100
AcDbLine
 62
253
  6
CONTINUOUS
 10
163.1837068251
 20
52.73337169
 11
163.1455743745
 21
52.7790205328
  0
LINE
  5
2BB
100
AcDbEntity
  8
0
100
AcDbLine
 62
253
  6
CONTINUOUS
 10
163.2257563716
 20
52.6822813786
 11
163.1837068251
 21
52.73337169
  0
LINE
  5
2BC
100
AcDbEntity
  8
0
100
AcDbLine
 62
253
  6
CONTINUOUS
 10
163.2707345705
 20
52.6269505604
 11
163.2257563716
 21
52.6822813786
  0
LINE
  5
2BD
100
AcDbEntity
  8
0
100
AcDbLine
 62
253
  6
CONTINUOUS
 10
163.3175841351
 20
52.5686798769
 11
163.2707345705
 21
52.6269505604
  0
LWPOLYLINE
  5
2BE
100
AcDbEntity
  8
0
100
AcDbPolyline
 62
253
  6
CONTINUOUS
 90
3
 70
0
 10
163.3889525826
 20
52.4787689218
 10
163.3652037896
 20
52.5088390762
 10
163.3175841351
 20
52.5686798769
  0
LINE
  5
2BF
100
AcDbEntity
  8
0
100
AcDbLine
 62
7
  6
CONTINUOUS
 10
146.6068678589
 20
49.1869747651
 11
147.4944288589
 21
46.3872717651
  0
LWPOLYLINE
  5
2C0
100
AcDbEntity
  8
RACCORDO
100
AcDbPolyline
 62
253
  6
CONTINUOUS
 90
34
 70
0
 10
133.4925059776
 20
44.8273393266
 10
133.5388394409
 20
44.4573998384
 10
133.598052
 20
44.0904631314
 10
133.670121692
 20
43.726529245
 10
133.7551654603
 20
43.3651339071
 10
133.8530251318
 20
43.0067414506
 10
133.9632664691
 20
42.6527436038
 10
134.0858993868
 20
42.30321001
 10
134.2208762883
 20
41.9580680642
 10
134.3676770374
 20
41.61849393
 10
134.5263057915
 20
41.2845223436
 10
134.6967266382
 20
40.956113126
 10
134.8783608105
 20
40.6343281111
 10
135.0711930977
 20
40.3192082055
 10
135.2752143242
 20
40.0107048182
 10
135.489857033
 20
39.709743817
 10
135.715168679
 20
39.416284612
 10
135.9510858019
 20
39.1303583466
 10
136.1968775368
 20
38.8529968847
 10
136.4526681426
 20
38.5841438755
 10
136.7183268116
 20
38.3238446002
 10
136.9927439033
 20
38.0732817244
 10
137.2758349505
 20
37.8325902587
 10
137.5676886666
 20
37.6016226889
 10
137.8674592929
 20
37.3811366611
 10
138.1753730935
 20
37.1710439055
 10
138.4912181339
 20
36.9714201691
 10
138.8134955821
 20
36.7832682808
 10
139.1423372892
 20
36.6066528344
 10
139.477636573
 20
36.4414969044
 10
139.8175409582
 20
36.2885904667
 10
140.1614448268
 20
36.1481929895
 10
140.5099883281
 20
36.020033905
 10
140.8631902832
 20
35.9041083224
  0
LWPOLYLINE
  5
2C1
100
AcDbEntity
  8
RACCORDO
100
AcDbPolyline
 62
253
  6
CONTINUOUS
 90
34
 70
0
 10
133.2520428154
 20
44.8235704213
 10
133.2993916355
 20
44.444466971
 10
133.3601141464
 20
44.0675661234
 10
133.4341015378
 20
43.6933401722
 10
133.5212298299
 20
43.3222523334
 10
133.62135597
 20
42.9547673624
 10
133.7343168219
 20
42.5913504484
 10
133.859925392
 20
42.2324838924
 10
133.9980010141
 20
41.8785703536
 10
134.1483757781
 20
41.5299469161
 10
134.310829576
 20
41.1870610069
 10
134.4851456902
 20
40.8503080112
 10
134.6711656223
 20
40.519945112
 10
134.8686295863
 20
40.1964158439
 10
135.0773056024
 20
39.880081163
 10
135.2970984607
 20
39.5710850537
 10
135.5277906116
 20
39.2697800686
 10
135.7690809798
 20
38.9766024277
 10
136.0207648361
 20
38.6918327503
 10
136.2826400434
 20
38.4157647916
 10
136.5543285937
 20
38.1488583179
 10
136.8353353249
 20
37.8916181455
 10
137.1251854
 20
37.6444826844
 10
137.4236490153
 20
37.4076509296
 10
137.7305839797
 20
37.1812547495
 10
138.0458198013
 20
36.9654855842
 10
138.3688063416
 20
36.7607840995
 10
138.6988118661
 20
36.5676246193
 10
139.0354795299
 20
36.3862188223
 10
139.3783336402
 20
36.2168260551
 10
139.7264042738
 20
36.0598782785
 10
140.0790499691
 20
35.9155809516
 10
140.4359875542
 20
35.7839751252
 10
140.7967544583
 20
35.6651648048
  0
LWPOLYLINE
  5
2C2
100
AcDbEntity
  8
RACCORDO
100
AcDbPolyline
 62
253
  6
CONTINUOUS
 90
10
 70
0
 10
132.2710692648
 20
75.2650789063
 10
132.2771429809
 20
72.7463999504
 10
132.295351248
 20
70.2293369665
 10
132.3256701337
 20
67.7139454333
 10
132.3680691189
 20
65.2006329396
 10
132.4225266515
 20
62.6891020972
 10
132.489047858
 20
60.1783508885
 10
132.5676355299
 20
57.6680821041
 10
132.6582724135
 20
55.1587029954
 10
132.760949158
 20
52.6502684305
  0
LWPOLYLINE
  5
2C3
100
AcDbEntity
  8
RACCORDO
100
AcDbPolyline
 62
253
  6
CONTINUOUS
 90
10
 70
0
 10
132.5094616704
 20
75.2650727651
 10
132.5155436494
 20
72.7464127382
 10
132.5338085469
 20
70.2293526743
 10
132.5642360144
 20
67.7139557709
 10
132.6067546039
 20
65.2006449602
 10
132.6613632555
 20
62.6891229175
 10
132.7281346195
 20
60.1783724668
 10
132.8070513738
 20
57.6680965391
 10
132.8980029
 20
55.158717764
 10
133.0009090377
 20
52.6502987623
  0
LINE
  5
2C4
100
AcDbEntity
  8
DRAFT
100
AcDbLine
 62
7
  6
CONTINUOUS
 10
132.0605358589
 20
132.2650727651
 11
132.0605358589
 21
75.2650727651
  0
LINE
  5
2C5
100
AcDbEntity
  8
RACCORDO
100
AcDbLine
 62
253
  6
CONTINUOUS
 10
132.2710692628
 20
132.2650665131
 11
132.2710692628
 21
75.2650789063
  0
LINE
  5
2C6
100
AcDbEntity
  8
RACCORDO
100
AcDbLine
 62
253
  6
CONTINUOUS
 10
132.5094616704
 20
132.2650727651
 11
132.5094616704
 21
75.2650727651
  0
LWPOLYLINE
  5
2C7
100
AcDbEntity
  8
RACCORDO
100
AcDbPolyline
 62
253
  6
CONTINUOUS
 90
9
 70
0
 10
132.6582720108
 20
152.3714321749
 10
132.5676349363
 20
149.8620459013
 10
132.4890472368
 20
147.3517731488
 10
132.4225261364
 20
144.8410219854
 10
132.3680687688
 20
142.3294943886
 10
132.3256699284
 20
139.8161858959
 10
132.2953511498
 20
137.3007983042
 10
132.2771429549
 20
134.7837400172
 10
132.2710692648
 20
132.2650665131
  0
LWPOLYLINE
  5
2C8
100
AcDbEntity
  8
RACCORDO
100
AcDbPolyline
 62
253
  6
CONTINUOUS
 90
10
 70
0
 10
133.0009090333
 20
154.8798466494
 10
132.8980025602
 20
152.3714173604
 10
132.8070508312
 20
149.862031474
 10
132.7281339978
 20
147.3517516137
 10
132.6613627105
 20
144.8410012169
 10
132.6067542398
 20
142.32948241
 10
132.5642358088
 20
139.8161755989
 10
132.5338084366
 20
137.3007826523
 10
132.5155436084
 20
134.7837273086
 10
132.5094616704
 20
132.2650727651
  0
LINE
  5
2C9
100
AcDbEntity
  8
0
100
AcDbLine
 62
7
  6
CONTINUOUS
 10
150.7104678589
 20
48.2154257651
 11
151.3960488589
 21
46.3872717651
  0
LINE
  5
2CA
100
AcDbEntity
  8
0
100
AcDbLine
 62
7
  6
CONTINUOUS
 10
151.4402218589
 20
47.6325707651
 11
150.8619858589
 21
49.1869747651
  0
LINE
  5
2CB
100
AcDbEntity
  8
0
100
AcDbLine
 62
7
  6
CONTINUOUS
 10
147.7753898589
 20
47.2598527651
 11
147.2417158589
 21
49.1869747651
  0
LWPOLYLINE
  5
2CC
100
AcDbEntity
  8
0
100
AcDbPolyline
 62
253
  6
CONTINUOUS
 90
19
 70
0
 10
141.5748910858
 20
98.3453192934
 10
141.5751508711
 20
98.3029461028
 10
141.57566525
 20
98.2608777856
 10
141.5764305215
 20
98.2194170217
 10
141.5774411796
 20
98.1788621196
 10
141.5786899527
 20
98.1395048704
 10
141.5801678558
 20
98.1016284478
 10
141.5818642555
 20
98.0655053713
 10
141.5837669462
 20
98.0313955449
 10
141.5858622383
 20
97.9995443874
 10
141.5881350561
 20
97.9701810668
 10
141.5905690468
 20
97.9435168509
 10
141.5931466979
 20
97.9197435878
 10
141.5958494634
 20
97.8990323251
 10
141.5986578969
 20
97.8815320795
 10
141.6015517919
 20
97.8673687646
 10
141.6045103269
 20
97.856644285
 10
141.6075122154
 20
97.8494358027
 10
141.6105358589
 20
97.8457951826
  0
LWPOLYLINE
  5
2CD
100
AcDbEntity
  8
0
100
AcDbPolyline
 62
253
  6
CONTINUOUS
 90
10
 70
0
 10
140.7321188152
 20
52.4787687302
 10
140.7396183128
 20
50.62916496
 10
140.7488816776
 20
48.780899212
 10
140.7599074997
 20
46.9342530481
 10
140.7726854621
 20
45.0895081581
 10
140.787222307
 20
43.2469451929
 10
140.8035415839
 20
41.4068437263
 10
140.8216490909
 20
39.5694837099
 10
140.8415331271
 20
37.7351454256
 10
140.8631902832
 20
35.9041083224
  0
LWPOLYLINE
  5
2CE
100
AcDbEntity
  8
0
100
AcDbPolyline
 62
253
  6
CONTINUOUS
 90
19
 70
0
 10
141.5748030076
 20
155.3461616091
 10
141.5749251598
 20
155.3024128552
 10
141.5753199489
 20
155.2588145796
 10
141.5759843525
 20
155.2157005724
 10
141.5769132837
 20
155.173400916
 10
141.5780996308
 20
155.1322394585
 10
141.5795343109
 20
155.0925313335
 10
141.58120634
 20
155.054580548
 10
141.5831029172
 20
155.0186776546
 10
141.585209522
 20
154.9850975275
 10
141.5875100263
 20
154.9540972572
 10
141.5899868173
 20
154.9259141832
 10
141.5926209325
 20
154.9007640762
 10
141.5953922052
 20
154.8788394863
 10
141.5982794183
 20
154.8603082691
 10
141.6012604672
 20
154.8453123004
 10
141.6043125288
 20
154.8339663898
 10
141.6074122366
 20
154.8263574021
 10
141.6105358589
 20
154.822543592
  0
LINE
  5
2CF
100
AcDbEntity
  8
0
100
AcDbLine
 62
253
  6
CONTINUOUS
 10
140.2128066548
 20
53.5434227748
 11
140.2044880407
 21
58.5291313341
  0
LINE
  5
2D0
100
AcDbEntity
  8
0
100
AcDbLine
 62
253
  6
CONTINUOUS
 10
140.7549579275
 20
53.5650369366
 11
140.7433001312
 21
61.0023621642
  0
LINE
  5
2D1
100
AcDbEntity
  8
0
100
AcDbLine
 62
253
  6
CONTINUOUS
 10
140.2044880407
 20
58.5291313341
 11
140.1962377736
 21
65.8380157095
  0
LINE
  5
2D2
100
AcDbEntity
  8
0
100
AcDbLine
 62
253
  6
CONTINUOUS
 10
140.7433001312
 20
61.0023621642
 11
140.7365900397
 21
68.2359305508
  0
LINE
  5
2D3
100
AcDbEntity
  8
0
100
AcDbLine
 62
253
  6
CONTINUOUS
 10
140.1962377736
 20
65.8380157095
 11
140.1926572761
 21
72.9425177523
  0
LINE
  5
2D4
100
AcDbEntity
  8
0
100
AcDbLine
 62
253
  6
CONTINUOUS
 10
141.6105358589
 20
154.7650727651
 11
141.610528045
 21
154.8225435757
  0
LINE
  5
2D5
100
AcDbEntity
  8
0
100
AcDbLine
 62
253
  6
CONTINUOUS
 10
140.1926572761
 20
72.9425177523
 11
140.1923994691
 21
96.9650727651
  0
LINE
  5
2D6
100
AcDbEntity
  8
0
100
AcDbLine
 62
253
  6
CONTINUOUS
 10
140.6920942777
 20
109.505285774
 11
140.6920942777
 21
98.0248597562
  0
LINE
  5
2D7
100
AcDbEntity
  8
0
100
AcDbLine
 62
253
  6
CONTINUOUS
 10
140.7365900397
 20
68.2359305508
 11
140.7344378632
 21
75.2650727651
  0
LINE
  5
2D8
100
AcDbEntity
  8
0
100
AcDbLine
 62
253
  6
CONTINUOUS
 10
140.7344378632
 20
75.2650727651
 11
140.7344378632
 21
96.9651096854
  0
LINE
  5
2D9
100
AcDbEntity
  8
0
100
AcDbLine
 62
7
  6
CONTINUOUS
 10
140.8105358589
 20
153.9650727651
 11
140.8105358589
 21
110.5650727651
  0
LINE
  5
2DA
100
AcDbEntity
  8
0
100
AcDbLine
 62
7
  6
CONTINUOUS
 10
140.8105358589
 20
53.5650727651
 11
140.8105358589
 21
96.9650727651
  0
LINE
  5
2DB
100
AcDbEntity
  8
0
100
AcDbLine
 62
253
  6
CONTINUOUS
 10
141.6105358589
 20
97.7650727651
 11
141.6105307965
 21
97.8457951721
  0
LINE
  5
2DC
100
AcDbEntity
  8
0
100
AcDbLine
 62
253
  6
CONTINUOUS
 10
141.6105358589
 20
109.7650727651
 11
141.6105308644
 21
109.6843503579
  0
LINE
  5
2DD
100
AcDbEntity
  8
0
100
AcDbLine
 62
253
  6
CONTINUOUS
 10
141.6105358589
 20
52.7650727651
 11
141.6105281012
 21
52.7076019543
  0
LINE
  5
2DE
100
AcDbEntity
  8
0
100
AcDbLine
 62
253
  6
CONTINUOUS
 10
140.1923994691
 20
110.5650727651
 11
140.1933637856
 21
136.9410971176
  0
LINE
  5
2DF
100
AcDbEntity
  8
0
100
AcDbLine
 62
253
  6
CONTINUOUS
 10
140.7344378632
 20
110.5650358544
 11
140.7353704247
 21
136.936510793
  0
LINE
  5
2E0
100
AcDbEntity
  8
0
100
AcDbLine
 62
253
  6
CONTINUOUS
 10
140.1933637856
 20
136.9410971176
 11
140.1984798214
 21
144.11722421
  0
LINE
  5
2E1
100
AcDbEntity
  8
0
100
AcDbLine
 62
253
  6
CONTINUOUS
 10
140.7353704247
 20
136.936510793
 11
140.7405402572
 21
144.1054370712
  0
LWPOLYLINE
  5
2E2
100
AcDbEntity
  8
0
100
AcDbPolyline
 62
253
  6
CONTINUOUS
 90
3
 70
0
 10
140.1984798214
 20
144.11722421
 10
140.208350256
 20
151.4872138488
 10
140.2128066548
 20
153.9867227553
  0
LWPOLYLINE
  5
2E3
100
AcDbEntity
  8
0
100
AcDbPolyline
 62
253
  6
CONTINUOUS
 90
3
 70
0
 10
140.7405402572
 20
144.1054370712
 10
140.7505286987
 20
151.4679627738
 10
140.7549579272
 20
153.9651084433
  0
LWPOLYLINE
  5
2E4
100
AcDbEntity
  8
0
100
AcDbPolyline
 62
253
  6
CONTINUOUS
 90
19
 70
0
 10
141.5748032473
 20
52.1839840827
 10
141.5749253686
 20
52.2277329523
 10
141.575320129
 20
52.2713313785
 10
141.575984506
 20
52.3144455657
 10
141.576913413
 20
52.3567454259
 10
141.5780997383
 20
52.3979071053
 10
141.5795343991
 20
52.4376154645
 10
141.5812064114
 20
52.4755664908
 10
141.5831029739
 20
52.5114696259
 10
141.5852095665
 20
52.5450499905
 10
141.5875100605
 20
52.5760504886
 10
141.5899868432
 20
52.6042337761
 10
141.5926209519
 20
52.6293840778
 10
141.5953922194
 20
52.6513088397
 10
141.5982794284
 20
52.6698402026
 10
141.6012604742
 20
52.6848362879
 10
141.6043125334
 20
52.6961822836
 10
141.6074122388
 20
52.703791323
 10
141.6105358588
 20
52.7076051503
  0
LWPOLYLINE
  5
2E5
100
AcDbEntity
  8
0
100
AcDbPolyline
 62
253
  6
CONTINUOUS
 90
10
 70
0
 10
140.7321188152
 20
155.0513768
 10
140.7396183129
 20
156.9009805959
 10
140.7488816779
 20
158.7492463694
 10
140.7599075002
 20
160.5958925586
 10
140.7726854357
 20
162.4406374722
 10
140.787222254
 20
164.2832004606
 10
140.8035415853
 20
166.1233019547
 10
140.8216492539
 20
167.9606620042
 10
140.8415335309
 20
169.7950003256
 10
140.8631910054
 20
171.62603747
  0
LWPOLYLINE
  5
2E6
100
AcDbEntity
  8
0
100
AcDbPolyline
 62
253
  6
CONTINUOUS
 90
19
 70
0
 10
141.5748913629
 20
109.1848262368
 10
141.5751511126
 20
109.2271995791
 10
141.5756654582
 20
109.269268085
 10
141.5764306991
 20
109.3107290688
 10
141.5774413291
 20
109.3512842159
 10
141.5786900769
 20
109.3906417294
 10
141.5801679574
 20
109.4285184292
 10
141.5818643373
 20
109.4646417902
 10
141.5837670109
 20
109.4987519022
 10
141.5858622884
 20
109.5306033407
 10
141.588135094
 20
109.5599669326
 10
141.5905690748
 20
109.5866314048
 10
141.593146718
 20
109.6104049047
 10
141.5958494774
 20
109.6311163803
 10
141.5986579063
 20
109.6486168113
 10
141.6015517979
 20
109.6627802808
 10
141.6045103304
 20
109.6735048817
 10
141.607512217
 20
109.6807134499
 10
141.6105358589
 20
109.6843541192
  0
LWPOLYLINE
  5
2E7
100
AcDbEntity
  8
0
100
AcDbPolyline
 62
253
  6
CONTINUOUS
 90
16
 70
0
 10
140.1923994691
 20
96.9650727651
 10
140.1946208577
 20
97.0445012282
 10
140.2015123663
 20
97.1235426495
 10
140.2130741226
 20
97.2021970291
 10
140.2293515279
 20
97.2808251031
 10
140.2502996961
 20
97.3590661353
 10
140.2757834398
 20
97.4358379172
 10
140.3059040772
 20
97.5111052128
 10
140.3405612738
 20
97.5849032581
 10
140.3793174062
 20
97.6562555525
 10
140.4222120364
 20
97.7250660697
 10
140.4692068574
 20
97.7914308361
 10
140.519747367
 20
97.8546614301
 10
140.5736491252
 20
97.9145283778
 10
140.6310978612
 20
97.9712611532
 10
140.6920942777
 20
98.0248597562
  0
LWPOLYLINE
  5
2E8
100
AcDbEntity
  8
0
100
AcDbPolyline
 62
253
  6
CONTINUOUS
 90
16
 70
0
 10
140.7344378454
 20
96.9651096854
 10
140.7358767673
 20
97.0154111572
 10
140.7402139618
 20
97.0658043128
 10
140.7474796142
 20
97.1161203032
 10
140.7577060487
 20
97.1662383698
 10
140.7708975957
 20
97.215928402
 10
140.7869998284
 20
97.2648593625
 10
140.8059733915
 20
97.3128575328
 10
140.8277710817
 20
97.359754534
 10
140.8522592461
 20
97.4052477584
 10
140.8793159882
 20
97.4491408434
 10
140.9088655879
 20
97.4913368435
 10
140.9408071546
 20
97.5317012525
 10
140.9750283265
 20
97.5701024426
 10
141.0114048102
 20
97.6064133787
 10
141.0498078659
 20
97.6405160977
  0
LWPOLYLINE
  5
2E9
100
AcDbEntity
  8
0
100
AcDbPolyline
 62
253
  6
CONTINUOUS
 90
13
 70
0
 10
140.2128066548
 20
153.9867227553
 10
140.215104752
 20
154.0662269682
 10
140.2223070612
 20
154.1456377517
 10
140.2344129176
 20
154.224955106
 10
140.2514818323
 20
154.3046950786
 10
140.2734532351
 20
154.3843416145
 10
140.3001464957
 20
154.4623465923
 10
140.3317904301
 20
154.5386741541
 10
140.3681558084
 20
154.6133602218
 10
140.4083751859
 20
154.6849644037
 10
140.4521595688
 20
154.7530066194
 10
140.4997983382
 20
154.8179670678
 10
140.5512918322
 20
154.8798458017
  0
LWPOLYLINE
  5
2EA
100
AcDbEntity
  8
0
100
AcDbPolyline
 62
253
  6
CONTINUOUS
 90
13
 70
0
 10
140.7549579605
 20
153.9651084433
 10
140.7565544197
 20
154.0149294186
 10
140.7610885295
 20
154.065051558
 10
140.7686297436
 20
154.1152967369
 10
140.7792700004
 20
154.1656118914
 10
140.7930402043
 20
154.2156630821
 10
140.8098287454
 20
154.2648585899
 10
140.8295930189
 20
154.3130311475
 10
140.8522694002
 20
154.3599842008
 10
140.8775494766
 20
154.4051426401
 10
140.9051936423
 20
154.448250692
 10
140.9351168628
 20
154.4893312054
 10
140.9671595096
 20
154.5282822749
  0
LWPOLYLINE
  5
2EB
100
AcDbEntity
  8
0
100
AcDbPolyline
 62
253
  6
CONTINUOUS
 90
19
 70
0
 10
140.692094678
 20
109.5052857739
 10
140.7201352881
 20
109.5389083404
 10
140.7482572462
 20
109.5722731598
 10
140.7762449315
 20
109.6051244121
 10
140.8038837525
 20
109.6372102152
 10
140.8309617924
 20
109.6682845556
 10
140.8572714346
 20
109.6981091753
 10
140.8826109536
 20
109.7264553984
 10
140.9067860625
 20
109.7531058841
 10
140.9296114021
 20
109.7778562937
 10
140.9509119625
 20
109.8005168569
 10
140.9705244249
 20
109.820913827
 10
140.9882984137
 20
109.8388908132
 10
141.0040976494
 20
109.8543099795
 10
141.0178009937
 20
109.8670531016
 10
141.0293033783
 20
109.8770224733
 10
141.0385166105
 20
109.8841416559
 10
141.0453700491
 20
109.8883560639
 10
141.0498111466
 20
109.889633384
  0
LWPOLYLINE
  5
2EC
100
AcDbEntity
  8
0
100
AcDbPolyline
 62
253
  6
CONTINUOUS
 90
19
 70
0
 10
140.6920945892
 20
98.0248597561
 10
140.720135174
 20
97.9912372145
 10
140.7482571
 20
97.9578724301
 10
140.7762447471
 20
97.9250212216
 10
140.8038835251
 20
97.8929354698
 10
140.8309615186
 20
97.8618611864
 10
140.8572711119
 20
97.8320366282
 10
140.8826105807
 20
97.8036904695
 10
140.9067856393
 20
97.7770400497
 10
140.9296109297
 20
97.752289706
 10
140.950911443
 20
97.7296292074
 10
140.9705238612
 20
97.7092322992
 10
140.9882978098
 20
97.6912553711
 10
141.00409701
 20
97.6758362581
 10
141.0178003244
 20
97.6630931835
 10
141.0293026851
 20
97.6531238526
 10
141.0385159
 20
97.6460047034
 10
141.0453693282
 20
97.6417903208
 10
141.0498104225
 20
97.6405130178
  0
LWPOLYLINE
  5
2ED
100
AcDbEntity
  8
0
100
AcDbPolyline
 62
7
  6
CONTINUOUS
 90
6
 70
0
 10
156.6518718035
 20
47.2365857234
 10
156.6811683891
 20
47.1510545449
 10
156.7099217982
 20
47.0632131642
 10
156.7381318458
 20
46.9730619465
 10
156.7653693281
 20
46.8804678583
 10
156.8194999516
 20
46.6887531318
  0
LINE
  5
2EE
100
AcDbEntity
  8
0
100
AcDbLine
 62
7
  6
CONTINUOUS
 10
155.2589438589
 20
46.3872717651
 11
154.3999258589
 21
49.1869747651
  0
LINE
  5
2EF
100
AcDbEntity
  8
0
100
AcDbLine
 62
7
  6
CONTINUOUS
 10
156.8194999516
 20
46.6887531318
 11
156.9075514808
 21
46.3872714107
  0
LINE
  5
2F0
100
AcDbEntity
  8
0
100
AcDbLine
 62
7
  6
CONTINUOUS
 10
154.4916098589
 20
46.9461917651
 11
154.6430018589
 21
46.3872717651
  0
LINE
  5
2F1
100
AcDbEntity
  8
0
100
AcDbLine
 62
7
  6
CONTINUOUS
 10
154.1062728589
 20
48.4176877651
 11
154.3748158589
 21
47.3786817651
  0
LWPOLYLINE
  5
2F2
100
AcDbEntity
  8
RACCORDO
100
AcDbPolyline
 62
253
  6
CONTINUOUS
 90
9
 70
0
 10
163.3043571827
 20
171.7830269856
 10
163.3091205994
 20
171.800224699
 10
163.3132899
 20
171.8156437343
 10
163.3168315704
 20
171.8291601483
 10
163.3197171414
 20
171.8406652915
 10
163.3219234179
 20
171.8500666818
 10
163.323432665
 20
171.8572887476
 10
163.324232751
 20
171.8622734355
 10
163.3243172445
 20
171.8649806771
  0
LINE
  5
2F3
100
AcDbEntity
  8
RACCORDO
100
AcDbLine
 62
253
  6
CONTINUOUS
 10
163.293205629
 20
171.7438616751
 11
163.3043571827
 21
171.7830269856
  0
LINE
  5
2F4
100
AcDbEntity
  8
RACCORDO
100
AcDbLine
 62
253
  6
CONTINUOUS
 10
163.280193078
 20
171.6994045673
 11
163.293205629
 21
171.7438616751
  0
LWPOLYLINE
  5
2F5
100
AcDbEntity
  8
RACCORDO
100
AcDbPolyline
 62
253
  6
CONTINUOUS
 90
3
 70
0
 10
163.2581113492
 20
171.6259526655
 10
163.2657370856
 20
171.6510822337
 10
163.280193078
 20
171.6994045673
  0
LINE
  5
2F6
100
AcDbEntity
  8
0
100
AcDbLine
 62
253
  6
CONTINUOUS
 10
141.6105307965
 20
97.8457951721
 11
146.2523319248
 21
97.8570526394
  0
LINE
  5
2F7
100
AcDbEntity
  8
0
100
AcDbLine
 62
253
  6
CONTINUOUS
 10
141.5748910841
 20
98.3453192934
 11
146.2317611882
 21
98.3565767622
  0
LINE
  5
2F8
100
AcDbEntity
  8
0
100
AcDbLine
 62
253
  6
CONTINUOUS
 10
146.2523319248
 20
97.8570526394
 11
150.8982621744
 21
97.8618772508
  0
LINE
  5
2F9
100
AcDbEntity
  8
0
100
AcDbLine
 62
253
  6
CONTINUOUS
 10
146.2317611882
 20
98.3565767622
 11
150.8944884085
 21
98.3614013927
  0
LINE
  5
2FA
100
AcDbEntity
  8
0
100
AcDbLine
 62
253
  6
CONTINUOUS
 10
163.9286722487
 20
96.9650727651
 11
163.3105358589
 21
96.9650727651
  0
LINE
  5
2FB
100
AcDbEntity
  8
0
100
AcDbLine
 62
7
  6
CONTINUOUS
 10
162.5105358589
 20
97.7650727651
 11
141.6105358589
 21
97.7650727651
  0
LINE
  5
2FC
100
AcDbEntity
  8
0
100
AcDbLine
 62
253
  6
CONTINUOUS
 10
140.8105358589
 20
96.9650727651
 11
140.1923994691
 21
96.9650727651
  0
LINE
  5
2FD
100
AcDbEntity
  8
0
100
AcDbLine
 62
253
  6
CONTINUOUS
 10
150.8982621744
 20
97.8618772508
 11
155.5465484344
 21
97.8602690183
  0
LINE
  5
2FE
100
AcDbEntity
  8
0
100
AcDbLine
 62
253
  6
CONTINUOUS
 10
150.8944884085
 20
98.3614013927
 11
155.5583859333
 21
98.3597931842
  0
LWPOLYLINE
  5
2FF
100
AcDbEntity
  8
0
100
AcDbPolyline
 62
253
  6
CONTINUOUS
 90
3
 70
0
 10
155.5465484344
 20
97.8602690183
 10
160.1900982609
 20
97.8522279894
 10
162.5105402893
 20
97.8457951734
  0
LWPOLYLINE
  5
300
100
AcDbEntity
  8
0
100
AcDbPolyline
 62
253
  6
CONTINUOUS
 90
3
 70
0
 10
155.5583859333
 20
98.3597931842
 10
160.2187706517
 20
98.351752134
 10
162.5461806337
 20
98.3453192934
  0
LWPOLYLINE
  5
301
100
AcDbEntity
  8
0
100
AcDbPolyline
 62
253
  6
CONTINUOUS
 90
13
 70
0
 10
162.5461806337
 20
98.3453192934
 10
162.6238785612
 20
98.3430873649
 10
162.7015596669
 20
98.3362792827
 10
162.7792239307
 20
98.3248950467
 10
162.8573102363
 20
98.3089123228
 10
162.9353796252
 20
98.2883534451
 10
163.0121154687
 20
98.2632854164
 10
163.0875577828
 20
98.2334883232
 10
163.1616668166
 20
98.199182079
 10
163.2330066084
 20
98.161093426
 10
163.3010987665
 20
98.1194646115
 10
163.3664222867
 20
98.0740533883
 10
163.4289774401
 20
98.0248597562
  0
LWPOLYLINE
  5
302
100
AcDbEntity
  8
0
100
AcDbPolyline
 62
253
  6
CONTINUOUS
 90
13
 70
0
 10
162.5105402893
 20
97.8457951608
 10
162.5597108716
 20
97.8441780667
 10
162.609179528
 20
97.8397632078
 10
162.6587814145
 20
97.8324850597
 10
162.7084372037
 20
97.8222644311
 10
162.7578696105
 20
97.8090676914
 10
162.806619146
 20
97.7929615047
 10
162.8545676079
 20
97.7739455587
 10
162.9014784186
 20
97.7520731734
 10
162.9467644286
 20
97.727631942
 10
162.9901637859
 20
97.7008386225
 10
163.0316997054
 20
97.6717540926
 10
163.0712638519
 20
97.6405160977
  0
LINE
  5
303
100
AcDbEntity
  8
RACCORDO
100
AcDbLine
 62
253
  6
CONTINUOUS
 10
163.2581113327
 20
35.9041928986
 11
163.273117369
 21
35.8545137389
  0
LINE
  5
304
100
AcDbEntity
  8
RACCORDO
100
AcDbLine
 62
253
  6
CONTINUOUS
 10
163.273117369
 20
35.8545137389
 11
163.2869070108
 21
35.8079369824
  0
LWPOLYLINE
  5
305
100
AcDbEntity
  8
RACCORDO
100
AcDbPolyline
 62
253
  6
CONTINUOUS
 90
11
 70
0
 10
163.2869070108
 20
35.8079369824
 10
163.2990377684
 20
35.7659572104
 10
163.3043569878
 20
35.747119136
 10
163.309120383
 20
35.7299214936
 10
163.3132896644
 20
35.7145025231
 10
163.316831318
 20
35.7009861666
 10
163.319716875
 20
35.6894810726
 10
163.3219231405
 20
35.6800797225
 10
163.3234323798
 20
35.672857687
 10
163.3242324613
 20
35.6678730191
 10
163.3243169535
 20
35.6651657869
  0
LINE
  5
306
100
AcDbEntity
  8
0
100
AcDbLine
 62
7
  6
CONTINUOUS
 10
157.3388377809
 20
46.8866105707
 11
157.2698986842
 21
47.1450324405
  0
LWPOLYLINE
  5
307
100
AcDbEntity
  8
0
100
AcDbPolyline
 62
7
  6
CONTINUOUS
 90
28
 70
0
 10
157.2698986842
 20
47.1450324405
 10
157.2618115553
 20
47.1757219277
 10
157.2537259564
 20
47.2053206278
 10
157.2456419266
 20
47.2338284869
 10
157.2376352965
 20
47.26118099
 10
157.2296303149
 20
47.2874425488
 10
157.2213996296
 20
47.3128065101
 10
157.2128974269
 20
47.337260905
 10
157.2041695563
 20
47.3608176282
 10
157.1951261321
 20
47.383705842
 10
157.1857797747
 20
47.4059436031
 10
157.1761178791
 20
47.4275128055
 10
157.1660126987
 20
47.4485883839
 10
157.1554904347
 20
47.4691919299
 10
157.144524882
 20
47.4893018185
 10
157.132909662
 20
47.50902817
 10
157.1206171766
 20
47.5284731307
 10
157.1076749953
 20
47.5475345318
 10
157.0939594814
 20
47.5660160185
 10
157.0794659834
 20
47.5839484633
 10
157.0641991337
 20
47.6013009603
 10
157.0480492311
 20
47.6177844738
 10
157.0309555526
 20
47.633440018
 10
157.0129788198
 20
47.6482265349
 10
156.9941915256
 20
47.6617318651
 10
156.9746178585
 20
47.6738186005
 10
156.9542336823
 20
47.6846240954
 10
156.9330390238
 20
47.6941483282
  0
LINE
  5
308
100
AcDbEntity
  8
0
100
AcDbLine
 62
7
  6
CONTINUOUS
 10
157.4696840708
 20
46.3872714107
 11
157.3388377809
 21
46.8866105707
  0
LINE
  5
309
100
AcDbEntity
  8
0
100
AcDbLine
 62
7
  6
CONTINUOUS
 10
152.8646478589
 20
46.3872717651
 11
152.6028438589
 21
49.1869747651
  0
LINE
  5
30A
100
AcDbEntity
  8
RACCORDO
100
AcDbLine
 62
253
  6
CONTINUOUS
 10
157.4235717706
 20
34.5052380447
 11
157.40870563
 21
34.6697234156
  0
LINE
  5
30B
100
AcDbEntity
  8
RACCORDO
100
AcDbLine
 62
253
  6
CONTINUOUS
 10
157.3929370845
 20
34.9191506171
 11
157.397243373
 21
34.867096406
  0
LINE
  5
30C
100
AcDbEntity
  8
RACCORDO
100
AcDbLine
 62
253
  6
CONTINUOUS
 10
146.7281346333
 20
172.610994913
 11
146.7238283448
 21
172.6630491241
  0
LINE
  5
30D
100
AcDbEntity
  8
RACCORDO
100
AcDbLine
 62
253
  6
CONTINUOUS
 10
146.7238283448
 20
172.6630491241
 11
146.7200149459
 21
172.7118300221
  0
LINE
  5
30E
100
AcDbEntity
  8
RACCORDO
100
AcDbLine
 62
253
  6
CONTINUOUS
 10
157.397243373
 20
34.867096406
 11
157.4010567719
 21
34.818315508
  0
LINE
  5
30F
100
AcDbEntity
  8
RACCORDO
100
AcDbLine
 62
253
  6
CONTINUOUS
 10
146.7200149459
 20
172.7118300221
 11
146.7168179933
 21
172.7557570701
  0
LINE
  5
310
100
AcDbEntity
  8
RACCORDO
100
AcDbLine
 62
253
  6
CONTINUOUS
 10
157.4010567719
 20
34.818315508
 11
157.4042537245
 21
34.7743884601
  0
LINE
  5
311
100
AcDbEntity
  8
0
100
AcDbLine
 62
7
  6
CONTINUOUS
 10
152.1728728589
 20
48.2078037651
 11
152.2929418589
 21
46.3872717651
  0
LWPOLYLINE
  5
312
100
AcDbEntity
  8
RACCORDO
100
AcDbPolyline
 62
253
  6
CONTINUOUS
 90
9
 70
0
 10
146.7168179933
 20
172.7557570701
 10
146.7143410708
 20
172.7934069994
 10
146.7133986883
 20
172.8094877539
 10
146.7126644325
 20
172.8235599246
 10
146.7121442633
 20
172.8355092926
 10
146.7118424026
 20
172.8452388689
 10
146.7117613007
 20
172.852669682
 10
146.7119016156
 20
172.8577414185
 10
146.7122622086
 20
172.8604129129
  0
LINE
  5
313
100
AcDbEntity
  8
0
100
AcDbLine
 62
7
  6
CONTINUOUS
 10
149.1262508589
 20
49.1871427651
 11
149.1262508589
 21
46.3872717651
  0
LINE
  5
314
100
AcDbEntity
  8
0
100
AcDbLine
 62
7
  6
CONTINUOUS
 10
149.7106588589
 20
46.3872717651
 11
149.7106588589
 21
49.1871427651
  0
LWPOLYLINE
  5
315
100
AcDbEntity
  8
RACCORDO
100
AcDbPolyline
 62
253
  6
CONTINUOUS
 90
8
 70
0
 10
146.7143410756
 20
34.7367385769
 10
146.7133986933
 20
34.7206578263
 10
146.7126644378
 20
34.7065856589
 10
146.7121442687
 20
34.6946362936
 10
146.7118424081
 20
34.6849067192
 10
146.7117613062
 20
34.6774759073
 10
146.7119016211
 20
34.6724041712
 10
146.7122622139
 20
34.6697326764
  0
LINE
  5
316
100
AcDbEntity
  8
RACCORDO
100
AcDbLine
 62
253
  6
CONTINUOUS
 10
146.7168179973
 20
34.7743884969
 11
146.7143410756
 21
34.7367385769
  0
LINE
  5
317
100
AcDbEntity
  8
RACCORDO
100
AcDbLine
 62
253
  6
CONTINUOUS
 10
146.7200149489
 20
34.8183155341
 11
146.7168179973
 21
34.7743884969
  0
LINE
  5
318
100
AcDbEntity
  8
RACCORDO
100
AcDbLine
 62
253
  6
CONTINUOUS
 10
157.4010567689
 20
172.711829996
 11
157.4042537205
 21
172.7557570333
  0
LINE
  5
319
100
AcDbEntity
  8
RACCORDO
100
AcDbLine
 62
253
  6
CONTINUOUS
 10
157.397243371
 20
172.6630491092
 11
157.4010567689
 21
172.711829996
  0
LINE
  5
31A
100
AcDbEntity
  8
RACCORDO
100
AcDbLine
 62
253
  6
CONTINUOUS
 10
146.7238283468
 20
34.8670964209
 11
146.7200149489
 21
34.8183155341
  0
LINE
  5
31B
100
AcDbEntity
  8
RACCORDO
100
AcDbLine
 62
253
  6
CONTINUOUS
 10
157.3929370836
 20
172.610994909
 11
157.397243371
 21
172.6630491092
  0
LINE
  5
31C
100
AcDbEntity
  8
RACCORDO
100
AcDbLine
 62
253
  6
CONTINUOUS
 10
146.7281346342
 20
34.9191506211
 11
146.7238283468
 21
34.8670964209
  0
LINE
  5
31D
100
AcDbEntity
  8
RACCORDO
100
AcDbLine
 62
253
  6
CONTINUOUS
 10
157.4235717705
 20
173.0249074855
 11
157.4087241185
 21
172.8604205152
  0
LWPOLYLINE
  5
31E
100
AcDbEntity
  8
RACCORDO
100
AcDbPolyline
 62
253
  6
CONTINUOUS
 90
11
 70
0
 10
162.3704263507
 20
171.9853664817
 10
162.3742833389
 20
172.0062389898
 10
162.3777454707
 20
172.0255826275
 10
162.3807847987
 20
172.0432412465
 10
162.3833767883
 20
172.0590723006
 10
162.3855005162
 20
172.0729479966
 10
162.387138839
 20
172.0847563251
 10
162.3882785316
 20
172.0944019656
 10
162.388910394
 20
172.1018070552
 10
162.3890293256
 20
172.1069118177
 10
162.3886343664
 20
172.1096750458
  0
LINE
  5
31F
100
AcDbEntity
  8
RACCORDO
100
AcDbLine
 62
253
  6
CONTINUOUS
 10
162.3616552806
 20
171.939719794
 11
162.3704263507
 21
171.9853664817
  0
LWPOLYLINE
  5
320
100
AcDbEntity
  8
RACCORDO
100
AcDbPolyline
 62
253
  6
CONTINUOUS
 90
3
 70
0
 10
162.346405123
 20
171.8643214227
 10
162.3517149006
 20
171.8901134898
 10
162.3616552806
 20
171.939719794
  0
LINE
  5
321
100
AcDbEntity
  8
RACCORDO
100
AcDbLine
 62
253
  6
CONTINUOUS
 10
162.421900845
 20
172.2636524064
 11
162.3886337009
 21
172.1096751937
  0
LWPOLYLINE
  5
322
100
AcDbEntity
  8
0
100
AcDbPolyline
 62
253
  6
CONTINUOUS
 90
16
 70
0
 10
141.0498078659
 20
97.6405160977
 10
141.0811918109
 20
97.6655925026
 10
141.1138964777
 20
97.6893554753
 10
141.1478735906
 20
97.7117269655
 10
141.1831330489
 20
97.7326660585
 10
141.2195574263
 20
97.7520555574
 10
141.2568856693
 20
97.7697321041
 10
141.2950660739
 20
97.7856634282
 10
141.3339893946
 20
97.7997960904
 10
141.3732751701
 20
97.8120080935
 10
141.412732438
 20
97.8222871271
 10
141.4523580146
 20
97.8306785352
 10
141.4920406085
 20
97.8371972454
 10
141.5316840952
 20
97.8418681461
 10
141.5712085278
 20
97.8447228862
 10
141.6105307965
 20
97.8457951577
  0
LWPOLYLINE
  5
323
100
AcDbEntity
  8
0
100
AcDbPolyline
 62
253
  6
CONTINUOUS
 90
16
 70
0
 10
140.6920942777
 20
98.0248597562
 10
140.7415322293
 20
98.0642211306
 10
140.7929367374
 20
98.1013123944
 10
140.8463079548
 20
98.1361335474
 10
140.901870874
 20
98.1688449748
 10
140.959400835
 20
98.1992862916
 10
141.0182234587
 20
98.2269763424
 10
141.0784164634
 20
98.2518349243
 10
141.1399023524
 20
98.2739422402
 10
141.2017737812
 20
98.2930577445
 10
141.2638909864
 20
98.3090687492
 10
141.3263937724
 20
98.3220879422
 10
141.3887940155
 20
98.3322128413
 10
141.4509289734
 20
98.3394759526
 10
141.5129613365
 20
98.3438447699
 10
141.5748910841
 20
98.3453192934
  0
LWPOLYLINE
  5
324
100
AcDbEntity
  8
0
100
AcDbPolyline
 62
253
  6
CONTINUOUS
 90
16
 70
0
 10
140.6920942777
 20
109.505285774
 10
140.6310978608
 20
109.5588843766
 10
140.5736491247
 20
109.6156171518
 10
140.5197473666
 20
109.6754840995
 10
140.4692068575
 20
109.7387146938
 10
140.4222120372
 20
109.8050794606
 10
140.3793174073
 20
109.873889978
 10
140.3405612736
 20
109.945242272
 10
140.3059040752
 20
110.0190403166
 10
140.2757834373
 20
110.0943076119
 10
140.2502996959
 20
110.1710793943
 10
140.2293515313
 20
110.2493204274
 10
140.213074128
 20
110.3279485019
 10
140.2015123714
 20
110.4066028815
 10
140.194620861
 20
110.4856443026
 10
140.1923994691
 20
110.5650727651
  0
LWPOLYLINE
  5
325
100
AcDbEntity
  8
0
100
AcDbPolyline
 62
253
  6
CONTINUOUS
 90
16
 70
0
 10
141.0498078659
 20
109.8896294325
 10
141.0114048103
 20
109.9237321514
 10
140.9750283266
 20
109.9600430875
 10
140.9408071547
 20
109.9984442776
 10
140.908865588
 20
110.0388086866
 10
140.8793159883
 20
110.0810046867
 10
140.8522592462
 20
110.1248977716
 10
140.8277710818
 20
110.1703909961
 10
140.8059733916
 20
110.2172879973
 10
140.7869998285
 20
110.2652861675
 10
140.7708975958
 20
110.3142171277
 10
140.7577060489
 20
110.3639071596
 10
140.7474796142
 20
110.4140252269
 10
140.7402139615
 20
110.4643412194
 10
140.735876767
 20
110.5147343782
 10
140.7344378454
 20
110.5650358544
  0
LINE
  5
326
100
AcDbEntity
  8
RACCORDO
100
AcDbLine
 62
253
  6
CONTINUOUS
 10
162.421900845
 20
35.2664931237
 11
162.3886282388
 21
35.4204691664
  0
LINE
  5
327
100
AcDbEntity
  8
RACCORDO
100
AcDbLine
 62
253
  6
CONTINUOUS
 10
162.3464051229
 20
35.6658241077
 11
162.3568120003
 21
35.6148314459
  0
LWPOLYLINE
  5
328
100
AcDbEntity
  8
RACCORDO
100
AcDbPolyline
 62
253
  6
CONTINUOUS
 90
13
 70
0
 10
162.3568120003
 20
35.6148314459
 10
162.3662056384
 20
35.5670119482
 10
162.3704263475
 20
35.544779062
 10
162.3742833351
 20
35.5239065566
 10
162.3777454663
 20
35.5045629216
 10
162.3807847937
 20
35.4869043052
 10
162.3833767828
 20
35.4710732534
 10
162.3855005103
 20
35.4571975597
 10
162.3871388327
 20
35.4453892332
 10
162.3882785249
 20
35.4357435944
 10
162.3889103871
 20
35.4283385063
 10
162.3890293185
 20
35.4232337449
 10
162.3886343592
 20
35.4204705177
  0
LINE
  5
329
100
AcDbEntity
  8
RACCORDO
100
AcDbLine
 62
253
  6
CONTINUOUS
 10
146.6974999473
 20
173.0249074855
 11
146.712366088
 21
172.8604221146
  0
LWPOLYLINE
  5
32A
100
AcDbEntity
  8
RACCORDO
100
AcDbPolyline
 62
253
  6
CONTINUOUS
 90
9
 70
0
 10
157.4042537245
 20
34.7743884601
 10
157.406730647
 20
34.7367385308
 10
157.4076730295
 20
34.7206577763
 10
157.4084072853
 20
34.7065856055
 10
157.4089274545
 20
34.6946362376
 10
157.4092293152
 20
34.6849066613
 10
157.4093104171
 20
34.6774758482
 10
157.4091701022
 20
34.6724041117
 10
157.4088095092
 20
34.6697326173
  0
LINE
  5
32B
100
AcDbEntity
  8
0
100
AcDbLine
 62
7
  6
CONTINUOUS
 10
155.4305546612
 20
49.1542654241
 11
155.4305546612
 21
46.3872714107
  0
LINE
  5
32C
100
AcDbEntity
  8
0
100
AcDbLine
 62
7
  6
CONTINUOUS
 10
155.993233113
 20
47.9414446785
 11
155.993233113
 21
48.7100179691
  0
LINE
  5
32D
100
AcDbEntity
  8
0
100
AcDbLine
 62
7
  6
CONTINUOUS
 10
156.0126112038
 20
46.3872714107
 11
156.0126112038
 21
47.4829208403
  0
LINE
  5
32E
100
AcDbEntity
  8
0
100
AcDbLine
 62
7
  6
CONTINUOUS
 10
156.9330390238
 20
47.6941483282
 11
156.9330390238
 21
47.710692137
  0
LWPOLYLINE
  5
32F
100
AcDbEntity
  8
0
100
AcDbPolyline
 62
7
  6
CONTINUOUS
 90
34
 70
0
 10
156.7811844944
 20
48.3765174577
 10
156.7810509068
 20
48.3545638899
 10
156.7798886803
 20
48.3324335344
 10
156.7776978465
 20
48.3101263975
 10
156.7744741424
 20
48.2874906574
 10
156.7702218933
 20
48.2646781522
 10
156.7649540156
 20
48.2421443627
 10
156.7586304818
 20
48.2198799142
 10
156.7512913861
 20
48.1978941639
 10
156.7430698269
 20
48.1766706604
 10
156.7339775253
 20
48.1563061661
 10
156.7240028077
 20
48.1367038697
 10
156.7132436716
 20
48.1180569375
 10
156.7017489237
 20
48.1004175837
 10
156.6894697796
 20
48.0837335415
 10
156.6763578428
 20
48.0680412507
 10
156.6623954185
 20
48.0533435694
 10
156.647600205
 20
48.0396375941
 10
156.6319768898
 20
48.0269511241
 10
156.6155147963
 20
48.0153383195
 10
156.5982245807
 20
48.004744982
 10
156.5801429264
 20
47.9950363769
 10
156.5612134034
 20
47.9861839732
 10
156.5414924067
 20
47.9782162772
 10
156.5211858572
 20
47.9710841149
 10
156.5002197747
 20
47.9647908896
 10
156.4786680904
 20
47.9593331809
 10
156.4569585941
 20
47.9546515815
 10
156.4351236976
 20
47.950774307
 10
156.4131309387
 20
47.9476731316
 10
156.391310806
 20
47.9452039894
 10
156.3697734533
 20
47.9433188572
 10
156.3484086914
 20
47.9420657539
 10
156.3272165021
 20
47.9414446785
  0
LWPOLYLINE
  5
330
100
AcDbEntity
  8
RACCORDO
100
AcDbPolyline
 62
253
  6
CONTINUOUS
 90
8
 70
0
 10
157.4067306422
 20
172.7934069533
 10
157.4076730245
 20
172.8094877039
 10
157.40840728
 20
172.8235598713
 10
157.4089274491
 20
172.8355092366
 10
157.4092293097
 20
172.8452388109
 10
157.4093104116
 20
172.8526696228
 10
157.4091700967
 20
172.8577413589
 10
157.4088095039
 20
172.8604128537
  0
LINE
  5
331
100
AcDbEntity
  8
RACCORDO
100
AcDbLine
 62
253
  6
CONTINUOUS
 10
157.4042537205
 20
172.7557570333
 11
157.4067306422
 21
172.7934069533
  0
LINE
  5
332
100
AcDbEntity
  8
0
100
AcDbLine
 62
7
  6
CONTINUOUS
 10
150.5843528589
 20
46.3872717651
 11
150.7104678589
 21
48.2154257651
  0
LINE
  5
333
100
AcDbEntity
  8
RACCORDO
100
AcDbLine
 62
253
  6
CONTINUOUS
 10
146.6974999473
 20
34.5052380447
 11
146.7123475984
 21
34.6697250151
  0
LINE
  5
334
100
AcDbEntity
  8
0
100
AcDbLine
 62
7
  6
CONTINUOUS
 10
150.2780608589
 20
49.1869747651
 11
150.0252638589
 21
46.3872717651
  0
LWPOLYLINE
  5
335
100
AcDbEntity
  8
RACCORDO
100
AcDbPolyline
 62
253
  6
CONTINUOUS
 90
11
 70
0
 10
141.7506453671
 20
35.5447790485
 10
141.7467883789
 20
35.5239065403
 10
141.7433262471
 20
35.5045629027
 10
141.7402869191
 20
35.4869042837
 10
141.7376949295
 20
35.4710732295
 10
141.7355712016
 20
35.4571975336
 10
141.7339328788
 20
35.445389205
 10
141.7327931862
 20
35.4357435646
 10
141.7321613238
 20
35.4283384749
 10
141.7320423922
 20
35.4232337124
 10
141.7324373514
 20
35.4204704844
  0
LINE
  5
336
100
AcDbEntity
  8
RACCORDO
100
AcDbLine
 62
253
  6
CONTINUOUS
 10
141.7594164372
 20
35.5904257362
 11
141.7506453671
 21
35.5447790485
  0
LWPOLYLINE
  5
337
100
AcDbEntity
  8
RACCORDO
100
AcDbPolyline
 62
253
  6
CONTINUOUS
 90
3
 70
0
 10
141.7746665948
 20
35.6658241075
 10
141.7693568172
 20
35.6400320403
 10
141.7594164372
 20
35.5904257362
  0
LINE
  5
338
100
AcDbEntity
  8
RACCORDO
100
AcDbLine
 62
253
  6
CONTINUOUS
 10
141.6991708728
 20
35.2664931237
 11
141.7324434993
 21
35.4204691624
  0
LWPOLYLINE
  5
339
100
AcDbEntity
  8
0
100
AcDbPolyline
 62
253
  6
CONTINUOUS
 90
13
 70
0
 10
163.0712638519
 20
109.8896294325
 10
163.0316997054
 20
109.8583914376
 10
162.990163786
 20
109.8293069076
 10
162.9467644286
 20
109.8025135881
 10
162.9014784187
 20
109.7780723568
 10
162.854567608
 20
109.7561999714
 10
162.8066191461
 20
109.7371840255
 10
162.757869608
 20
109.721077838
 10
162.7084371985
 20
109.7078810979
 10
162.6587814144
 20
109.6976604705
 10
162.6091795435
 20
109.6903823242
 10
162.5597109108
 20
109.6859674659
 10
162.5105403602
 20
109.6843503697
  0
LWPOLYLINE
  5
33A
100
AcDbEntity
  8
0
100
AcDbPolyline
 62
253
  6
CONTINUOUS
 90
13
 70
0
 10
163.4289774401
 20
109.505285774
 10
163.3664222896
 20
109.4560921366
 10
163.3010987712
 20
109.4106809103
 10
163.2330066137
 20
109.3690520949
 10
163.1616668207
 20
109.3309634438
 10
163.0875577845
 20
109.2966572037
 10
163.0121154684
 20
109.2668601147
 10
162.935379624
 20
109.2417920899
 10
162.8573102346
 20
109.2212332163
 10
162.7792239288
 20
109.2052504941
 10
162.7015596653
 20
109.1938662568
 10
162.6238785602
 20
109.187058171
 10
162.5461806337
 20
109.1848262367
  0
LINE
  5
33B
100
AcDbEntity
  8
0
100
AcDbLine
 62
253
  6
CONTINUOUS
 10
162.5461806337
 20
109.1848262367
 11
157.8893105185
 21
109.1735687679
  0
LINE
  5
33C
100
AcDbEntity
  8
0
100
AcDbLine
 62
253
  6
CONTINUOUS
 10
162.5105403602
 20
109.6843503569
 11
157.8687396572
 21
109.6730928905
  0
LINE
  5
33D
100
AcDbEntity
  8
0
100
AcDbLine
 62
253
  6
CONTINUOUS
 10
157.8893105185
 20
109.1735687679
 11
153.226583293
 21
109.1687441375
  0
LINE
  5
33E
100
AcDbEntity
  8
0
100
AcDbLine
 62
253
  6
CONTINUOUS
 10
157.8687396572
 20
109.6730928905
 11
153.2228095897
 21
109.6682682794
  0
LINE
  5
33F
100
AcDbEntity
  8
0
100
AcDbLine
 62
7
  6
CONTINUOUS
 10
162.5105358589
 20
109.7650727651
 11
141.6105358589
 21
109.7650727651
  0
LINE
  5
340
100
AcDbEntity
  8
0
100
AcDbLine
 62
253
  6
CONTINUOUS
 10
153.226583293
 20
109.1687441375
 11
148.5626857693
 21
109.170352346
  0
LINE
  5
341
100
AcDbEntity
  8
0
100
AcDbLine
 62
253
  6
CONTINUOUS
 10
153.2228095897
 20
109.6682682794
 11
148.5745232683
 21
109.6698765119
  0
LWPOLYLINE
  5
342
100
AcDbEntity
  8
0
100
AcDbPolyline
 62
253
  6
CONTINUOUS
 90
3
 70
0
 10
148.5626857693
 20
109.170352346
 10
143.9023010593
 20
109.1783933962
 10
141.5748910841
 20
109.1848262367
  0
LWPOLYLINE
  5
343
100
AcDbEntity
  8
0
100
AcDbPolyline
 62
253
  6
CONTINUOUS
 90
3
 70
0
 10
148.5745232683
 20
109.6698765119
 10
143.9309731368
 20
109.6779175414
 10
141.6105308644
 20
109.6843503579
  0
LWPOLYLINE
  5
344
100
AcDbEntity
  8
0
100
AcDbPolyline
 62
253
  6
CONTINUOUS
 90
16
 70
0
 10
141.5748910841
 20
109.1848262367
 10
141.5129613357
 20
109.1863007544
 10
141.4509289722
 20
109.1906695684
 10
141.3887940141
 20
109.1979326787
 10
141.3263937715
 20
109.2080575806
 10
141.2638909863
 20
109.2210767789
 10
141.2017737816
 20
109.2370877873
 10
141.1399023526
 20
109.2562032915
 10
141.0784164631
 20
109.2783106059
 10
141.0182234585
 20
109.3031691871
 10
140.9594008359
 20
109.3308592398
 10
140.9018708765
 20
109.3613005594
 10
140.8463079582
 20
109.3940119883
 10
140.7929367405
 20
109.4288331408
 10
140.7415322312
 20
109.4659244027
 10
140.6920942777
 20
109.505285774
  0
LWPOLYLINE
  5
345
100
AcDbEntity
  8
0
100
AcDbPolyline
 62
253
  6
CONTINUOUS
 90
16
 70
0
 10
141.6105308644
 20
109.6843503721
 10
141.5712085655
 20
109.6854226421
 10
141.5316841103
 20
109.6882773826
 10
141.4920406085
 20
109.6929482848
 10
141.4523580097
 20
109.6994669959
 10
141.4127324356
 20
109.7078584036
 10
141.37327517
 20
109.7181374367
 10
141.3339893946
 20
109.7303494398
 10
141.2950660738
 20
109.744482102
 10
141.2568856691
 20
109.7604134261
 10
141.2195574263
 20
109.7780899728
 10
141.183133049
 20
109.7974794716
 10
141.1478735909
 20
109.8184185646
 10
141.1138964779
 20
109.8407900548
 10
141.081191811
 20
109.8645530275
 10
141.0498078659
 20
109.8896294325
  0
LWPOLYLINE
  5
346
100
AcDbEntity
  8
0
100
AcDbPolyline
 62
253
  6
CONTINUOUS
 90
16
 70
0
 10
163.4289774401
 20
98.0248597562
 10
163.489973857
 20
97.9712611536
 10
163.5474225931
 20
97.9145283784
 10
163.6013243512
 20
97.8546614307
 10
163.6518648603
 20
97.7914308364
 10
163.6988596806
 20
97.7250660695
 10
163.7417543105
 20
97.6562555521
 10
163.7805104442
 20
97.5849032581
 10
163.8151676426
 20
97.5111052136
 10
163.8452882805
 20
97.4358379183
 10
163.8707720219
 20
97.3590661359
 10
163.8917201865
 20
97.2808251028
 10
163.9079975898
 20
97.2021970282
 10
163.9195593464
 20
97.1235426486
 10
163.9264508568
 20
97.0445012276
 10
163.9286722487
 20
96.9650727651
  0
LWPOLYLINE
  5
347
100
AcDbEntity
  8
0
100
AcDbPolyline
 62
253
  6
CONTINUOUS
 90
16
 70
0
 10
163.0712638519
 20
97.6405160977
 10
163.1096669075
 20
97.6064133787
 10
163.1460433912
 20
97.5701024426
 10
163.1802645631
 20
97.5317012526
 10
163.2122061298
 20
97.4913368436
 10
163.2417557295
 20
97.4491408435
 10
163.2688124716
 20
97.4052477586
 10
163.293300636
 20
97.3597545341
 10
163.3150983262
 20
97.3128575329
 10
163.3340718893
 20
97.2648593626
 10
163.350174122
 20
97.2159284025
 10
163.3633656689
 20
97.1662383705
 10
163.3735921036
 20
97.1161203033
 10
163.3808577563
 20
97.0658043107
 10
163.3851949508
 20
97.0154111519
 10
163.3866338724
 20
96.9651096758
  0
LINE
  5
348
100
AcDbEntity
  8
RACCORDO
100
AcDbLine
 62
253
  6
CONTINUOUS
 10
141.6991708728
 20
172.2636524064
 11
141.7324433811
 21
172.1096763428
  0
LINE
  5
349
100
AcDbEntity
  8
RACCORDO
100
AcDbLine
 62
253
  6
CONTINUOUS
 10
141.7746665949
 20
171.8643214225
 11
141.7642597175
 21
171.9153140843
  0
LWPOLYLINE
  5
34A
100
AcDbEntity
  8
RACCORDO
100
AcDbPolyline
 62
253
  6
CONTINUOUS
 90
13
 70
0
 10
141.7642597175
 20
171.9153140843
 10
141.7548660794
 20
171.9631335822
 10
141.7506453703
 20
171.9853664684
 10
141.7467883826
 20
172.0062389739
 10
141.7433262514
 20
172.0255826089
 10
141.740286924
 20
172.0432412254
 10
141.7376949349
 20
172.0590722772
 10
141.7355712074
 20
172.0729479709
 10
141.733932885
 20
172.0847562975
 10
141.7327931928
 20
172.0944019363
 10
141.7321613306
 20
172.1018070245
 10
141.7320423992
 20
172.1069117858
 10
141.7324373585
 20
172.1096750131
  0
LWPOLYLINE
  5
34B
100
AcDbEntity
  8
0
100
AcDbPolyline
 62
253
  6
CONTINUOUS
 90
19
 70
0
 10
162.546180632
 20
109.1848262367
 10
162.5459208467
 20
109.2271994274
 10
162.5454064678
 20
109.2692677446
 10
162.5446411963
 20
109.3107285085
 10
162.5436305382
 20
109.3512834105
 10
162.5423817651
 20
109.3906406597
 10
162.540903862
 20
109.4285170823
 10
162.5392074623
 20
109.4646401589
 10
162.5373047716
 20
109.4987499853
 10
162.5352094795
 20
109.5306011427
 10
162.5329366617
 20
109.5599644633
 10
162.530502671
 20
109.5866286792
 10
162.5279250199
 20
109.6104019423
 10
162.5252222544
 20
109.6311132051
 10
162.5224138209
 20
109.6486134507
 10
162.5195199259
 20
109.6627767655
 10
162.5165613909
 20
109.6735012452
 10
162.5135595024
 20
109.6807097274
 10
162.5105358589
 20
109.6843503475
  0
LWPOLYLINE
  5
34C
100
AcDbEntity
  8
0
100
AcDbPolyline
 62
253
  6
CONTINUOUS
 90
19
 70
0
 10
162.5462687102
 20
52.183983921
 10
162.546146558
 20
52.2277326749
 10
162.5457517689
 20
52.2713309506
 10
162.5450873653
 20
52.3144449578
 10
162.5441584341
 20
52.3567446141
 10
162.542972087
 20
52.3979060716
 10
162.5415374069
 20
52.4376141966
 10
162.5398653778
 20
52.4755649822
 10
162.5379688006
 20
52.5114678755
 10
162.5358621958
 20
52.5450480027
 10
162.5335616915
 20
52.5760482729
 10
162.5310849005
 20
52.6042313469
 10
162.5284507853
 20
52.629381454
 10
162.5256795126
 20
52.6513060438
 10
162.5227922995
 20
52.669837261
 10
162.5198112506
 20
52.6848332298
 10
162.516759189
 20
52.6961791404
 10
162.5136594812
 20
52.7037881281
 10
162.5105358589
 20
52.7076019382
  0
LINE
  5
34D
100
AcDbEntity
  8
0
100
AcDbLine
 62
253
  6
CONTINUOUS
 10
163.3661137903
 20
153.9651085935
 11
163.3777715866
 21
146.527783366
  0
LINE
  5
34E
100
AcDbEntity
  8
0
100
AcDbLine
 62
253
  6
CONTINUOUS
 10
163.3777715866
 20
146.527783366
 11
163.3844816781
 21
139.2942149793
  0
LINE
  5
34F
100
AcDbEntity
  8
0
100
AcDbLine
 62
253
  6
CONTINUOUS
 10
162.5105358589
 20
52.7650727651
 11
162.5105432297
 21
52.7076019535
  0
LINE
  5
350
100
AcDbEntity
  8
0
100
AcDbLine
 62
253
  6
CONTINUOUS
 10
162.5105358589
 20
109.7650727651
 11
162.5105403602
 21
109.6843503569
  0
LINE
  5
351
100
AcDbEntity
  8
0
100
AcDbLine
 62
7
  6
CONTINUOUS
 10
163.3105358589
 20
153.9650727651
 11
163.3105358589
 21
110.5650727651
  0
LINE
  5
352
100
AcDbEntity
  8
0
100
AcDbLine
 62
7
  6
CONTINUOUS
 10
163.3105358589
 20
53.5650727651
 11
163.3105358589
 21
96.9650727651
  0
LINE
  5
353
100
AcDbEntity
  8
0
100
AcDbLine
 62
253
  6
CONTINUOUS
 10
163.3866338546
 20
132.2650727651
 11
163.3866338546
 21
110.5650358447
  0
LINE
  5
354
100
AcDbEntity
  8
0
100
AcDbLine
 62
253
  6
CONTINUOUS
 10
163.3844816781
 20
139.2942149793
 11
163.3866338546
 21
132.2650727651
  0
LINE
  5
355
100
AcDbEntity
  8
0
100
AcDbLine
 62
253
  6
CONTINUOUS
 10
163.4289774401
 20
109.505285774
 11
163.4289774401
 21
98.0248597562
  0
LINE
  5
356
100
AcDbEntity
  8
0
100
AcDbLine
 62
253
  6
CONTINUOUS
 10
162.5105358589
 20
154.7650727651
 11
162.5105431708
 21
154.8225435767
  0
LINE
  5
357
100
AcDbEntity
  8
0
100
AcDbLine
 62
253
  6
CONTINUOUS
 10
162.5105358589
 20
97.7650727651
 11
162.5105402893
 21
97.8457951734
  0
LINE
  5
358
100
AcDbEntity
  8
0
100
AcDbLine
 62
253
  6
CONTINUOUS
 10
163.3866338546
 20
96.9651096758
 11
163.3857012931
 21
70.5936347371
  0
LINE
  5
359
100
AcDbEntity
  8
0
100
AcDbLine
 62
253
  6
CONTINUOUS
 10
163.3857012931
 20
70.5936347371
 11
163.3805314606
 21
63.4247084589
  0
LWPOLYLINE
  5
35A
100
AcDbEntity
  8
0
100
AcDbPolyline
 62
253
  6
CONTINUOUS
 90
3
 70
0
 10
163.3805314606
 20
63.4247084589
 10
163.3705430191
 20
56.0621827563
 10
163.3661137906
 20
53.5650370868
  0
LWPOLYLINE
  5
35B
100
AcDbEntity
  8
0
100
AcDbPolyline
 62
253
  6
CONTINUOUS
 90
19
 70
0
 10
162.5462684616
 20
155.3461614415
 10
162.5461463414
 20
155.3024125676
 10
162.5457515822
 20
155.2588141359
 10
162.5450872062
 20
155.2156999419
 10
162.5441583
 20
155.1734000742
 10
162.5429719755
 20
155.1322383866
 10
162.5415373155
 20
155.0925300187
 10
162.5398653038
 20
155.0545789834
 10
162.5379687418
 20
155.0186758393
 10
162.5358621497
 20
154.9850954659
 10
162.533561656
 20
154.9540949593
 10
162.5310848737
 20
154.9259116638
 10
162.5284507652
 20
154.9007613548
 10
162.5256794979
 20
154.8788365865
 10
162.522792289
 20
154.8603052181
 10
162.5198112433
 20
154.8453091283
 10
162.5167591843
 20
154.8339631295
 10
162.5136594789
 20
154.826354088
 10
162.510535859
 20
154.82254026
  0
LWPOLYLINE
  5
35C
100
AcDbEntity
  8
0
100
AcDbPolyline
 62
253
  6
CONTINUOUS
 90
19
 70
0
 10
162.5461803453
 20
98.3453192934
 10
162.5459205969
 20
98.3029459458
 10
162.5454062524
 20
98.2608774334
 10
162.5446410127
 20
98.219416442
 10
162.5436303835
 20
98.1788612865
 10
162.5423816367
 20
98.1395037639
 10
162.5409037569
 20
98.1016270544
 10
162.5392073777
 20
98.0655036836
 10
162.5373047047
 20
98.0313935617
 10
162.5352094278
 20
97.9995421134
 10
162.5329366225
 20
97.9701785121
 10
162.5305026421
 20
97.943514031
 10
162.5279249991
 20
97.9197405228
 10
162.52522224
 20
97.8990290398
 10
162.5224138112
 20
97.8815286023
 10
162.5195199197
 20
97.8673651274
 10
162.5165613873
 20
97.8566405222
 10
162.5135595007
 20
97.8494319509
 10
162.5105358589
 20
97.8457912798
  0
LWPOLYLINE
  5
35D
100
AcDbEntity
  8
0
100
AcDbPolyline
 62
253
  6
CONTINUOUS
 90
16
 70
0
 10
163.3866338724
 20
110.5650358447
 10
163.3851949505
 20
110.5147343729
 10
163.380857756
 20
110.4643412173
 10
163.3735921036
 20
110.4140252269
 10
163.3633656691
 20
110.3639071604
 10
163.3501741221
 20
110.3142171281
 10
163.3340718894
 20
110.2652861676
 10
163.3150983263
 20
110.2172879974
 10
163.2933006361
 20
110.1703909962
 10
163.2688124717
 20
110.1248977717
 10
163.2417557296
 20
110.0810046867
 10
163.2122061299
 20
110.0388086867
 10
163.1802645632
 20
109.9984442776
 10
163.1460433913
 20
109.9600430876
 10
163.1096669076
 20
109.9237321515
 10
163.0712638519
 20
109.8896294325
  0
LWPOLYLINE
  5
35E
100
AcDbEntity
  8
RACCORDO
100
AcDbPolyline
 62
253
  6
CONTINUOUS
 90
9
 70
0
 10
140.8167145339
 20
35.7471185409
 10
140.8119511171
 20
35.7299208271
 10
140.8077818163
 20
35.7145017913
 10
140.8042401458
 20
35.7009853769
 10
140.8013545747
 20
35.6894802333
 10
140.7991482981
 20
35.6800788428
 10
140.7976390509
 20
35.6728567767
 10
140.7968389649
 20
35.6678720885
 10
140.7967544714
 20
35.6651648468
  0
LINE
  5
35F
100
AcDbEntity
  8
0
100
AcDbLine
 62
7
  6
CONTINUOUS
 10
148.3253668589
 20
49.1869747651
 11
147.7753898589
 21
47.2598527651
  0
LINE
  5
360
100
AcDbEntity
  8
RACCORDO
100
AcDbLine
 62
253
  6
CONTINUOUS
 10
140.8278660879
 20
35.7862838525
 11
140.8167145339
 21
35.7471185409
  0
LINE
  5
361
100
AcDbEntity
  8
RACCORDO
100
AcDbLine
 62
253
  6
CONTINUOUS
 10
140.8408786393
 20
35.8307409613
 11
140.8278660879
 21
35.7862838525
  0
LWPOLYLINE
  5
362
100
AcDbEntity
  8
RACCORDO
100
AcDbPolyline
 62
253
  6
CONTINUOUS
 90
3
 70
0
 10
140.8629603685
 20
35.9041928645
 10
140.855334632
 20
35.8790632959
 10
140.8408786393
 20
35.8307409613
  0
LINE
  5
363
100
AcDbEntity
  8
0
100
AcDbLine
 62
253
  6
CONTINUOUS
 10
140.1923994691
 20
110.5650727651
 11
140.8105358589
 21
110.5650727651
  0
LINE
  5
364
100
AcDbEntity
  8
0
100
AcDbLine
 62
253
  6
CONTINUOUS
 10
163.3105358589
 20
110.5650727651
 11
163.9286722487
 21
110.5650727651
  0
LINE
  5
365
100
AcDbEntity
  8
RACCORDO
100
AcDbLine
 62
253
  6
CONTINUOUS
 10
140.8629603851
 20
171.6259526316
 11
140.8479543488
 21
171.6756317912
  0
LINE
  5
366
100
AcDbEntity
  8
RACCORDO
100
AcDbLine
 62
253
  6
CONTINUOUS
 10
140.8479543488
 20
171.6756317912
 11
140.834164707
 21
171.7222085478
  0
LWPOLYLINE
  5
367
100
AcDbEntity
  8
RACCORDO
100
AcDbPolyline
 62
253
  6
CONTINUOUS
 90
11
 70
0
 10
140.834164707
 20
171.7222085478
 10
140.8220339494
 20
171.7641883198
 10
140.81671473
 20
171.7830263942
 10
140.8119513348
 20
171.8002240365
 10
140.8077820534
 20
171.8156430071
 10
140.8042403998
 20
171.8291593636
 10
140.8013548428
 20
171.8406644575
 10
140.7991485773
 20
171.8500658077
 10
140.797639338
 20
171.8572878431
 10
140.7968392565
 20
171.8622725111
 10
140.7967547643
 20
171.8649797432
  0
LWPOLYLINE
  5
368
100
AcDbEntity
  8
0
100
AcDbPolyline
 62
253
  6
CONTINUOUS
 90
10
 70
0
 10
163.3889529026
 20
155.0513768
 10
163.3814534053
 20
156.9009805017
 10
163.3721900408
 20
158.7492462048
 10
163.361164219
 20
160.5958923475
 10
163.3483862594
 20
162.4406372474
 10
163.3338494171
 20
164.283200246
 10
163.3175301344
 20
166.1233017467
 10
163.2994226106
 20
167.9606617905
 10
163.2795385493
 20
169.795000103
 10
163.2578813601
 20
171.6260372351
  0
LINE
  5
369
100
AcDbEntity
  8
0
100
AcDbLine
 62
253
  6
CONTINUOUS
 10
163.908265063
 20
153.9867227553
 11
163.9165836771
 21
149.001014196
  0
LINE
  5
36A
100
AcDbEntity
  8
0
100
AcDbLine
 62
253
  6
CONTINUOUS
 10
163.9165836771
 20
149.001014196
 11
163.9248339442
 21
141.6921298207
  0
LWPOLYLINE
  5
36B
100
AcDbEntity
  8
0
100
AcDbPolyline
 62
253
  6
CONTINUOUS
 90
3
 70
0
 10
163.9248339442
 20
141.6921298207
 10
163.9284144417
 20
134.5876277778
 10
163.9286722487
 20
110.5650727651
  0
LINE
  5
36C
100
AcDbEntity
  8
0
100
AcDbLine
 62
253
  6
CONTINUOUS
 10
163.9286722487
 20
96.9650727651
 11
163.9277079322
 21
70.5890484125
  0
LINE
  5
36D
100
AcDbEntity
  8
0
100
AcDbLine
 62
253
  6
CONTINUOUS
 10
163.9277079322
 20
70.5890484125
 11
163.9225918964
 21
63.4129213201
  0
LWPOLYLINE
  5
36E
100
AcDbEntity
  8
0
100
AcDbPolyline
 62
253
  6
CONTINUOUS
 90
3
 70
0
 10
163.9225918964
 20
63.4129213201
 10
163.9127214618
 20
56.0429316814
 10
163.908265063
 20
53.5434227748
  0
LWPOLYLINE
  5
36F
100
AcDbEntity
  8
0
100
AcDbPolyline
 62
253
  6
CONTINUOUS
 90
10
 70
0
 10
163.3889529026
 20
52.4787687302
 10
163.3814534052
 20
50.6291650035
 10
163.3721900405
 20
48.7808992755
 10
163.3611642185
 20
46.9342531081
 10
163.3483862853
 20
45.089508185
 10
163.3338494691
 20
43.2469451635
 10
163.317530133
 20
41.4068436357
 10
163.2994224508
 20
39.5694835594
 10
163.2795381536
 20
37.7351452105
 10
163.2578806523
 20
35.9041080381
  0
LWPOLYLINE
  5
370
100
AcDbEntity
  8
0
100
AcDbPolyline
 62
253
  6
CONTINUOUS
 90
16
 70
0
 10
163.9286722487
 20
110.5650727651
 10
163.9264508601
 20
110.4856443019
 10
163.9195593515
 20
110.4066028806
 10
163.9079975952
 20
110.327948501
 10
163.8917201899
 20
110.249320427
 10
163.8707720217
 20
110.1710793948
 10
163.845288278
 20
110.094307613
 10
163.8151676406
 20
110.0190403174
 10
163.780510444
 20
109.9452422721
 10
163.7417543116
 20
109.8738899776
 10
163.6988596814
 20
109.8050794604
 10
163.6518648604
 20
109.738714694
 10
163.6013243507
 20
109.6754841001
 10
163.5474225926
 20
109.6156171523
 10
163.4899738566
 20
109.5588843769
 10
163.4289774401
 20
109.505285774
  0
LWPOLYLINE
  5
371
100
AcDbEntity
  8
0
100
AcDbPolyline
 62
253
  6
CONTINUOUS
 90
13
 70
0
 10
163.908265063
 20
53.5434227748
 10
163.9059669658
 20
53.463918562
 10
163.8987646566
 20
53.3845077784
 10
163.8866588002
 20
53.3051904241
 10
163.8695898855
 20
53.2254504516
 10
163.8476184827
 20
53.1458039156
 10
163.8209252221
 20
53.0677989378
 10
163.7892812877
 20
52.991471376
 10
163.7529159094
 20
52.9167853083
 10
163.7126965319
 20
52.8451811264
 10
163.668912149
 20
52.7771389107
 10
163.6212733796
 20
52.7121784623
 10
163.5697798856
 20
52.6502997284
  0
LWPOLYLINE
  5
372
100
AcDbEntity
  8
0
100
AcDbPolyline
 62
253
  6
CONTINUOUS
 90
13
 70
0
 10
163.3661137573
 20
53.5650370868
 10
163.3645172981
 20
53.5152161116
 10
163.3599831883
 20
53.4650939722
 10
163.3524419742
 20
53.4148487932
 10
163.3418017174
 20
53.3645336388
 10
163.3280315135
 20
53.314482448
 10
163.3112429724
 20
53.2652869402
 10
163.2914786989
 20
53.2171143826
 10
163.2688023176
 20
53.1701613294
 10
163.2435222412
 20
53.1250028901
 10
163.2158780755
 20
53.0818948381
 10
163.185954855
 20
53.0408143247
 10
163.1539122082
 20
53.0018632553
  0
LINE
  5
373
100
AcDbEntity
  8
0
100
AcDbLine
 62
7
  6
CONTINUOUS
 10
148.0094388589
 20
46.3872717651
 11
148.9093758589
 21
49.1869747651
  0
LWPOLYLINE
  5
374
100
AcDbEntity
  8
0
100
AcDbPolyline
 62
253
  6
CONTINUOUS
 90
19
 70
0
 10
163.4289770398
 20
98.0248597562
 10
163.4009364297
 20
97.9912371898
 10
163.3728144716
 20
97.9578723704
 10
163.3448267863
 20
97.925021118
 10
163.3171879653
 20
97.892935315
 10
163.2901099254
 20
97.8618609745
 10
163.2638002832
 20
97.8320363548
 10
163.2384607642
 20
97.8036901318
 10
163.2142856553
 20
97.7770396461
 10
163.1914603157
 20
97.7522892365
 10
163.1701597553
 20
97.7296286733
 10
163.1505472929
 20
97.7092317031
 10
163.1327733041
 20
97.6912547169
 10
163.1169740685
 20
97.6758355506
 10
163.1032707241
 20
97.6630924285
 10
163.0917683395
 20
97.6531230568
 10
163.0825551073
 20
97.6460038743
 10
163.0757016687
 20
97.6417894662
 10
163.0712605712
 20
97.6405121461
  0
LWPOLYLINE
  5
375
100
AcDbEntity
  8
0
100
AcDbPolyline
 62
253
  6
CONTINUOUS
 90
19
 70
0
 10
163.4289771055
 20
109.5052857741
 10
163.4009365157
 20
109.538908324
 10
163.3728145831
 20
109.5722731189
 10
163.3448269276
 20
109.6051243398
 10
163.3171881399
 20
109.6372101054
 10
163.2901101358
 20
109.6682844036
 10
163.2638005313
 20
109.6981089774
 10
163.2384610507
 20
109.7264551519
 10
163.2142859803
 20
109.7531055876
 10
163.1914606783
 20
109.7778559468
 10
163.1701601538
 20
109.8005164603
 10
163.150547725
 20
109.8209133824
 10
163.132773767
 20
109.8388903231
 10
163.1169745584
 20
109.8543094472
 10
163.103271237
 20
109.8670525313
 10
163.0917688707
 20
109.8770218698
 10
163.082555652
 20
109.8841410246
 10
163.0757022217
 20
109.8883554106
 10
163.0712611271
 20
109.8896327148
  0
LWPOLYLINE
  5
376
100
AcDbEntity
  8
RACCORDO
100
AcDbPolyline
 62
253
  6
CONTINUOUS
 90
9
 70
0
 10
170.9183796162
 20
159.1485184091
 10
170.8919869732
 20
159.5935455353
 10
170.8627783922
 20
160.0383715127
 10
170.8307644229
 20
160.482995488
 10
170.7959453592
 20
160.9274105931
 10
170.7583112816
 20
161.3716039527
 10
170.7178630655
 20
161.8155687222
 10
170.6746123382
 20
162.2593040804
 10
170.6285657402
 20
162.7028062036
  0
LINE
  5
377
100
AcDbEntity
  8
RACCORDO
100
AcDbLine
 62
253
  6
CONTINUOUS
 10
170.9629384304
 20
158.2787542959
 11
170.9183796162
 21
159.1485184091
  0
LINE
  5
378
100
AcDbEntity
  8
RACCORDO
100
AcDbLine
 62
253
  6
CONTINUOUS
 10
171.2034351674
 20
158.2740182749
 11
171.1589240906
 21
159.1441958303
  0
LINE
  5
379
100
AcDbEntity
  8
RACCORDO
100
AcDbLine
 62
253
  6
CONTINUOUS
 10
171.082641429
 20
155.7299803179
 11
170.9629384304
 21
158.2787542959
  0
LINE
  5
37A
100
AcDbEntity
  8
RACCORDO
100
AcDbLine
 62
253
  6
CONTINUOUS
 10
171.3227307003
 20
155.7288243603
 11
171.2034351674
 21
158.2740182749
  0
LINE
  5
37B
100
AcDbEntity
  8
RACCORDO
100
AcDbLine
 62
253
  6
CONTINUOUS
 10
171.1201626742
 20
154.8798467679
 11
171.082641429
 21
155.7299803179
  0
LINE
  5
37C
100
AcDbEntity
  8
RACCORDO
100
AcDbLine
 62
253
  6
CONTINUOUS
 10
171.3601225598
 20
154.8798770997
 11
171.3227307003
 21
155.7288243603
  0
LWPOLYLINE
  5
37D
100
AcDbEntity
  8
RACCORDO
100
AcDbPolyline
 62
253
  6
CONTINUOUS
 90
10
 70
0
 10
171.6116100474
 20
132.2650727651
 10
171.6055280684
 20
134.7837327922
 10
171.5872631708
 20
137.3007928564
 10
171.5568357034
 20
139.8161897599
 10
171.5143171139
 20
142.3295005706
 10
171.4597084622
 20
144.8410226131
 10
171.3929370983
 20
147.3517730637
 10
171.314020344
 20
149.8620489913
 10
171.2230688178
 20
152.3714277663
 10
171.1201626801
 20
154.8798467679
  0
LWPOLYLINE
  5
37E
100
AcDbEntity
  8
RACCORDO
100
AcDbPolyline
 62
253
  6
CONTINUOUS
 90
10
 70
0
 10
171.850002453
 20
132.2650666239
 10
171.8439287369
 20
134.7837455801
 10
171.8257204697
 20
137.3008085642
 10
171.7954015841
 20
139.8162000974
 10
171.7530025988
 20
142.3295125912
 10
171.6985450663
 20
144.8410434334
 10
171.6320238598
 20
147.351794642
 10
171.5534361879
 20
149.8620634263
 10
171.4627993043
 20
152.3714425348
 10
171.3601225598
 20
154.8798770997
  0
LINE
  5
37F
100
AcDbEntity
  8
RACCORDO
100
AcDbLine
 62
253
  6
CONTINUOUS
 10
171.6116100474
 20
75.2650727651
 11
171.6116100474
 21
132.2650727651
  0
LINE
  5
380
100
AcDbEntity
  8
RACCORDO
100
AcDbLine
 62
253
  6
CONTINUOUS
 10
171.850002455
 20
75.265079017
 11
171.850002455
 21
132.2650666239
  0
LINE
  5
381
100
AcDbEntity
  8
DRAFT
100
AcDbLine
 62
7
  6
CONTINUOUS
 10
172.0605358589
 20
75.2650727651
 11
172.0605358589
 21
132.2650727651
  0
LWPOLYLINE
  5
382
100
AcDbEntity
  8
RACCORDO
100
AcDbPolyline
 62
253
  6
CONTINUOUS
 90
9
 70
0
 10
171.462799707
 20
55.1587133552
 10
171.5534367815
 20
57.6680996289
 10
171.632024481
 20
60.1783723814
 10
171.6985455814
 20
62.6891235447
 10
171.753002949
 20
65.2006511415
 10
171.7954017894
 20
67.7139596342
 10
171.825720568
 20
70.2293472259
 10
171.8439287629
 20
72.746405513
 10
171.850002453
 20
75.265079017
  0
LWPOLYLINE
  5
383
100
AcDbEntity
  8
RACCORDO
100
AcDbPolyline
 62
253
  6
CONTINUOUS
 90
9
 70
0
 10
171.2230691576
 20
55.1587281698
 10
171.3140208866
 20
57.6681140561
 10
171.39293772
 20
60.1783939164
 10
171.4597090073
 20
62.6891443132
 10
171.514317478
 20
65.2006631201
 10
171.556835909
 20
67.7139699312
 10
171.5872632812
 20
70.2293628778
 10
171.6055281094
 20
72.7464182215
 10
171.6116100474
 20
75.2650727651
  0
LINE
  5
384
100
AcDbEntity
  8
RACCORDO
100
AcDbLine
 62
253
  6
CONTINUOUS
 10
171.3227307328
 20
51.8013218979
 11
171.462799707
 21
55.1587133552
  0
LINE
  5
385
100
AcDbEntity
  8
RACCORDO
100
AcDbLine
 62
253
  6
CONTINUOUS
 10
171.0826414508
 20
51.8001656972
 11
171.2230691576
 21
55.1587281698
  0
LINE
  5
386
100
AcDbEntity
  8
RACCORDO
100
AcDbLine
 62
253
  6
CONTINUOUS
 10
170.9629384365
 20
49.2513913603
 11
171.0826414508
 21
51.8001656972
  0
LINE
  5
387
100
AcDbEntity
  8
RACCORDO
100
AcDbLine
 62
253
  6
CONTINUOUS
 10
171.2034352134
 20
49.2561281911
 11
171.3227307328
 21
51.8013218979
  0
LINE
  5
388
100
AcDbEntity
  8
0
100
AcDbLine
 62
7
  6
CONTINUOUS
 10
153.8152868589
 20
47.3786817651
 11
154.1062728589
 21
48.4176877651
  0
LINE
  5
389
100
AcDbEntity
  8
0
100
AcDbLine
 62
7
  6
CONTINUOUS
 10
153.5344828589
 20
46.3872717651
 11
153.6957428589
 21
46.9461917651
  0
LINE
  5
38A
100
AcDbEntity
  8
0
100
AcDbLine
 62
7
  6
CONTINUOUS
 10
153.8345808589
 20
49.1869747651
 11
152.9564158589
 21
46.3872717651
  0
LINE
  5
38B
100
AcDbEntity
  8
0
100
AcDbLine
 62
7
  6
CONTINUOUS
 10
152.0246298589
 20
49.1869747651
 11
151.4402218589
 21
47.6325707651
  0
LINE
  5
38C
100
AcDbEntity
  8
0
100
AcDbLine
 62
7
  6
CONTINUOUS
 10
151.4780118589
 20
46.3872717651
 11
152.1728728589
 21
48.2078037651
  0
LWPOLYLINE
  5
38D
100
AcDbEntity
  8
RACCORDO
100
AcDbPolyline
 62
253
  6
CONTINUOUS
 90
9
 70
0
 10
171.1589240906
 20
159.1441958303
 10
171.1325189446
 20
159.5902531923
 10
171.1033022287
 20
160.0361208456
 10
171.0712759323
 20
160.4817736199
 10
171.0364412316
 20
160.9272018189
 10
170.9987979945
 20
161.3724111889
 10
170.9583469176
 20
161.8173920083
 10
170.9150900203
 20
162.2621191212
 10
170.8690288696
 20
162.7065751051
  0
LWPOLYLINE
  5
38E
100
AcDbEntity
  8
RACCORDO
100
AcDbPolyline
 62
253
  6
CONTINUOUS
 90
10
 70
0
 10
170.8690305423
 20
44.8235860628
 10
170.9150911718
 20
45.268037864
 10
170.9583477
 20
45.7127618357
 10
170.9987985399
 20
46.1577405576
 10
171.0364416967
 20
46.6029494238
 10
171.071276402
 20
47.0483781671
 10
171.1033026549
 20
47.4940308899
 10
171.1325192566
 20
47.9398973465
 10
171.1589242704
 20
48.3859529141
 10
171.2034352134
 20
49.2561281911
  0
LWPOLYLINE
  5
38F
100
AcDbEntity
  8
RACCORDO
100
AcDbPolyline
 62
253
  6
CONTINUOUS
 90
10
 70
0
 10
170.6285657402
 20
44.8273393266
 10
170.6746127552
 20
45.270845938
 10
170.7178637773
 20
45.7145846653
 10
170.7583121674
 20
46.1585516839
 10
170.7959462808
 20
46.6027461723
 10
170.8307652628
 20
47.0471612842
 10
170.8627790914
 20
47.4917841405
 10
170.8919874939
 20
47.9366078712
 10
170.9183799032
 20
48.3816316232
 10
170.9629384365
 20
49.2513913603
  0
LINE
  5
390
100
AcDbEntity
  8
0
100
AcDbLine
 62
253
  6
CONTINUOUS
 10
140.7321188173
 20
52.4787687314
 11
140.779703729
 21
52.5388679116
  0
LINE
  5
391
100
AcDbEntity
  8
0
100
AcDbLine
 62
253
  6
CONTINUOUS
 10
140.779703729
 20
52.5388679116
 11
140.8270775437
 21
52.5980976545
  0
LINE
  5
392
100
AcDbEntity
  8
0
100
AcDbLine
 62
253
  6
CONTINUOUS
 10
140.8270775437
 20
52.5980976545
 11
140.8731266793
 21
52.6550656894
  0
LINE
  5
393
100
AcDbEntity
  8
0
100
AcDbLine
 62
253
  6
CONTINUOUS
 10
140.8731266793
 20
52.6550656894
 11
140.916768692
 21
52.7084329096
  0
LWPOLYLINE
  5
394
100
AcDbEntity
  8
0
100
AcDbPolyline
 62
253
  6
CONTINUOUS
 90
13
 70
0
 10
140.916768692
 20
52.7084329096
 10
140.9569777206
 20
52.7569448507
 10
140.9754957269
 20
52.7790185244
 10
140.9928086005
 20
52.7994611773
 10
141.0088144512
 20
52.8181524998
 10
141.023419081
 20
52.834982489
 10
141.0365365383
 20
52.8498520967
 10
141.0480896238
 20
52.8626738119
 10
141.058010345
 20
52.8733721758
 10
141.0662403161
 20
52.8818842261
 10
141.072731102
 20
52.8881598674
 10
141.0774445029
 20
52.8921621662
 10
141.0803527792
 20
52.893867568
  0
LWPOLYLINE
  5
395
100
AcDbEntity
  8
0
100
AcDbPolyline
 62
253
  6
CONTINUOUS
 90
11
 70
0
 10
140.9754972488
 20
154.7511251137
 10
140.992810251
 20
154.7306822912
 10
141.0088162226
 20
154.7119908102
 10
141.0234209632
 20
154.695160676
 10
141.0365385193
 20
154.6802909393
 10
141.0480916901
 20
154.667469113
 10
141.0580124815
 20
154.6567706577
 10
141.0662425064
 20
154.6482585371
 10
141.0727333287
 20
154.6419828477
 10
141.0774467477
 20
154.637980524
 10
141.0803550235
 20
154.6362751208
  0
LINE
  5
396
100
AcDbEntity
  8
0
100
AcDbLine
 62
253
  6
CONTINUOUS
 10
140.9373648145
 20
154.7967739346
 11
140.9754972488
 21
154.7511251137
  0
LINE
  5
397
100
AcDbEntity
  8
0
100
AcDbLine
 62
253
  6
CONTINUOUS
 10
140.8953152845
 20
154.8478642235
 11
140.9373648145
 21
154.7967739346
  0
LINE
  5
398
100
AcDbEntity
  8
0
100
AcDbLine
 62
253
  6
CONTINUOUS
 10
140.8503371012
 20
154.9031950203
 11
140.8953152845
 21
154.8478642235
  0
LINE
  5
399
100
AcDbEntity
  8
0
100
AcDbLine
 62
253
  6
CONTINUOUS
 10
140.8034875496
 20
154.961465685
 11
140.8503371012
 21
154.9031950203
  0
LWPOLYLINE
  5
39A
100
AcDbEntity
  8
0
100
AcDbPolyline
 62
253
  6
CONTINUOUS
 90
3
 70
0
 10
140.7321191145
 20
155.0513766207
 10
140.7558679046
 20
155.0213064714
 10
140.8034875496
 20
154.961465685
  0
LWPOLYLINE
  5
39B
100
AcDbEntity
  8
RACCORDO
100
AcDbPolyline
 62
253
  6
CONTINUOUS
 90
34
 70
0
 10
170.6285657402
 20
162.7028062036
 10
170.5822322769
 20
163.0727456917
 10
170.5230197178
 20
163.4396823988
 10
170.4509500258
 20
163.8036162851
 10
170.3659062575
 20
164.1650116231
 10
170.268046586
 20
164.5234040795
 10
170.1578052487
 20
164.8774019263
 10
170.035172331
 20
165.2269355202
 10
169.9001954295
 20
165.5720774659
 10
169.7533946804
 20
165.9116516001
 10
169.5947659263
 20
166.2456231866
 10
169.4243450796
 20
166.5740324041
 10
169.2427109073
 20
166.895817419
 10
169.0498786201
 20
167.2109373246
 10
168.8458573936
 20
167.5194407119
 10
168.6312146848
 20
167.8204017132
 10
168.4059030388
 20
168.1138609181
 10
168.1699859159
 20
168.3997871836
 10
167.924194181
 20
168.6771486454
 10
167.6684035752
 20
168.9460016546
 10
167.4027449062
 20
169.20630093
 10
167.1283278145
 20
169.4568638058
 10
166.8452367673
 20
169.6975552715
 10
166.5533830512
 20
169.9285228412
 10
166.2536124249
 20
170.1490088691
 10
165.9456986243
 20
170.3591016247
 10
165.6298535839
 20
170.5587253611
 10
165.3075761357
 20
170.7468772493
 10
164.9787344313
 20
170.9234926947
 10
164.6434351504
 20
171.0886486237
 10
164.3035307596
 20
171.2415550635
 10
163.9596268745
 20
171.3819525467
 10
163.6110833483
 20
171.5101116404
 10
163.2578813601
 20
171.6260372351
  0
LWPOLYLINE
  5
39C
100
AcDbEntity
  8
RACCORDO
100
AcDbPolyline
 62
253
  6
CONTINUOUS
 90
34
 70
0
 10
170.8690289024
 20
162.7065751088
 10
170.8216800823
 20
163.0856785591
 10
170.7609575714
 20
163.4625794068
 10
170.68697018
 20
163.8368053579
 10
170.5998418879
 20
164.2078931968
 10
170.4997157478
 20
164.5753781678
 10
170.3867548959
 20
164.9387950818
 10
170.2611463258
 20
165.2976616377
 10
170.1230707037
 20
165.6515751765
 10
169.9726959397
 20
166.000198614
 10
169.8102421418
 20
166.3430845232
 10
169.6359260276
 20
166.6798375189
 10
169.4499060955
 20
167.0102004182
 10
169.2524421315
 20
167.3337296863
 10
169.0437661154
 20
167.6500643671
 10
168.8239732571
 20
167.9590604764
 10
168.5932811062
 20
168.2603654616
 10
168.351990738
 20
168.5535431024
 10
168.1003068817
 20
168.8383127799
 10
167.8384316744
 20
169.1143807386
 10
167.5667431241
 20
169.3812872123
 10
167.2857363929
 20
169.6385273847
 10
166.9958863178
 20
169.8856628457
 10
166.6974227025
 20
170.1224946005
 10
166.3904877381
 20
170.3488907807
 10
166.0752519165
 20
170.564659946
 10
165.7522653762
 20
170.7693614306
 10
165.4222598517
 20
170.9625209108
 10
165.0855921879
 20
171.1439267078
 10
164.7427380776
 20
171.313319475
 10
164.394667444
 20
171.4702672516
 10
164.0420217487
 20
171.6145645785
 10
163.6850841636
 20
171.7461704049
 10
163.3243172595
 20
171.8649807253
  0
LINE
  5
39D
100
AcDbEntity
  8
0
100
AcDbLine
 62
253
  6
CONTINUOUS
 10
140.5512922918
 20
52.6502999871
 11
140.6380860808
 21
52.7260799898
  0
LINE
  5
39E
100
AcDbEntity
  8
0
100
AcDbLine
 62
253
  6
CONTINUOUS
 10
140.6380860808
 20
52.7260799898
 11
140.7223942453
 21
52.799031223
  0
LINE
  5
39F
100
AcDbEntity
  8
0
100
AcDbLine
 62
253
  6
CONTINUOUS
 10
140.7223942453
 20
52.799031223
 11
140.7997368041
 21
52.8652771897
  0
LINE
  5
3A0
100
AcDbEntity
  8
0
100
AcDbLine
 62
253
  6
CONTINUOUS
 10
140.7997368041
 20
52.8652771897
 11
140.8453771693
 21
52.9039571721
  0
LWPOLYLINE
  5
3A1
100
AcDbEntity
  8
0
100
AcDbPolyline
 62
253
  6
CONTINUOUS
 90
10
 70
0
 10
140.8453771693
 20
52.9039571721
 10
140.8850023718
 20
52.9371654891
 10
140.9022599214
 20
52.9514664865
 10
140.917674268
 20
52.9641159189
 10
140.931154041
 20
52.9750388049
 10
140.942619337
 20
52.9841703975
 10
140.9520021939
 20
52.9914565678
 10
140.9592469936
 20
52.9968541259
 10
140.9643107916
 20
53.0003310769
 10
140.9671635714
 20
53.0018668107
  0
LINE
  5
3A2
100
AcDbEntity
  8
0
100
AcDbLine
 62
253
  6
CONTINUOUS
 10
171.6116100474
 20
132.2650727651
 11
163.3866338546
 21
132.2650727651
  0
LINE
  5
3A3
100
AcDbEntity
  8
RACCORDO
100
AcDbLine
 62
253
  6
CONTINUOUS
 10
132.5094616704
 20
132.2650727651
 11
132.0605358589
 21
132.2650727651
  0
LINE
  5
3A4
100
AcDbEntity
  8
0
100
AcDbLine
 62
253
  6
CONTINUOUS
 10
132.5094616704
 20
132.2650727651
 11
140.7344378632
 21
132.2650727651
  0
LINE
  5
3A5
100
AcDbEntity
  8
RACCORDO
100
AcDbLine
 62
253
  6
CONTINUOUS
 10
171.6116100474
 20
132.2650727651
 11
172.0605358589
 21
132.2650727651
  0
LWPOLYLINE
  5
3A6
100
AcDbEntity
  8
0
100
AcDbPolyline
 62
253
  6
CONTINUOUS
 90
8
 70
0
 10
140.9022564709
 20
154.5786819593
 10
140.9176706424
 20
154.5660326928
 10
140.9311502662
 20
154.555109951
 10
140.9426154414
 20
154.5459784785
 10
140.9519982081
 20
154.5386924023
 10
140.9592429499
 20
154.5332949107
 10
140.9643067234
 20
154.5298179974
 10
140.9671595129
 20
154.5282822719
  0
LINE
  5
3A7
100
AcDbEntity
  8
0
100
AcDbLine
 62
253
  6
CONTINUOUS
 10
140.8660008808
 20
154.6088503617
 11
140.9022564709
 21
154.5786819593
  0
LINE
  5
3A8
100
AcDbEntity
  8
0
100
AcDbLine
 62
253
  6
CONTINUOUS
 10
140.8232418442
 20
154.6449009237
 11
140.8660008808
 21
154.6088503617
  0
LINE
  5
3A9
100
AcDbEntity
  8
0
100
AcDbLine
 62
253
  6
CONTINUOUS
 10
140.7491600389
 20
154.7081056307
 11
140.8232418442
 21
154.6449009237
  0
LINE
  5
3AA
100
AcDbEntity
  8
0
100
AcDbLine
 62
253
  6
CONTINUOUS
 10
140.6666901905
 20
154.7792383823
 11
140.7491600389
 21
154.7081056307
  0
LWPOLYLINE
  5
3AB
100
AcDbEntity
  8
0
100
AcDbPolyline
 62
253
  6
CONTINUOUS
 90
3
 70
0
 10
140.5512918329
 20
154.8798458013
 10
140.5802145015
 20
154.8545193955
 10
140.6666901905
 20
154.7792383823
  0
LWPOLYLINE
  5
3AC
100
AcDbEntity
  8
0
100
AcDbPolyline
 62
253
  6
CONTINUOUS
 90
10
 70
0
 10
163.5697798856
 20
52.6502997284
 10
163.5534187488
 20
52.6318877139
 10
163.5361467913
 20
52.6132854762
 10
163.5179639948
 20
52.594493019
 10
163.4988994266
 20
52.5754723866
 10
163.4789239782
 20
52.5562615423
 10
163.4579503601
 20
52.5369743654
 10
163.4359494528
 20
52.5176488161
 10
163.412950312
 20
52.4982469371
 10
163.3889529026
 20
52.4787687302
  0
LWPOLYLINE
  5
3AD
100
AcDbEntity
  8
0
100
AcDbPolyline
 62
253
  6
CONTINUOUS
 90
10
 70
0
 10
163.1539122082
 20
53.0018632553
 10
163.1436436015
 20
52.9903137641
 10
163.1328370579
 20
52.9785969127
 10
163.1214763082
 20
52.9667350671
 10
163.1095478331
 20
52.9547545479
 10
163.0970333513
 20
52.9426774384
 10
163.0839093556
 20
52.9305221418
 10
163.0701575663
 20
52.918314176
 10
163.0557655713
 20
52.9060856735
 10
163.0407189534
 20
52.8938675493
  0
LWPOLYLINE
  5
3AE
100
AcDbEntity
  8
0
100
AcDbPolyline
 62
253
  6
CONTINUOUS
 90
13
 70
0
 10
163.5697798856
 20
154.8798458017
 10
163.6212848378
 20
154.8179501591
 10
163.6689317177
 20
154.752976255
 10
163.7127208631
 20
154.6849240365
 10
163.7529408417
 20
154.6133132157
 10
163.7893034729
 20
154.5386239621
 10
163.8209437522
 20
154.4622969354
 10
163.8476326108
 20
154.3842974969
 10
163.8695987032
 20
154.3046602214
 10
163.8866633541
 20
154.2249296489
 10
163.8987666454
 20
154.1456206407
 10
163.9059674366
 20
154.0662183428
 10
163.908265063
 20
153.9867227553
  0
LWPOLYLINE
  5
3AF
100
AcDbEntity
  8
0
100
AcDbPolyline
 62
253
  6
CONTINUOUS
 90
13
 70
0
 10
163.1539122082
 20
154.5282822749
 10
163.185961673
 20
154.4893224102
 10
163.2158892834
 20
154.448234314
 10
163.2435356969
 20
154.4051202137
 10
163.268816193
 20
154.3599575624
 10
163.2914915368
 20
154.313002373
 10
163.3112537331
 20
154.2648299228
 10
163.3280393068
 20
154.2156377598
 10
163.3418064385
 20
154.1655924501
 10
163.3524444304
 20
154.1152831264
 10
163.3599842448
 20
154.0650427629
 10
163.3645175548
 20
154.0149252282
 10
163.3661137569
 20
153.9651085935
  0
LWPOLYLINE
  5
3B0
100
AcDbEntity
  8
0
100
AcDbPolyline
 62
7
  6
CONTINUOUS
 90
51
 70
0
 10
157.0397946551
 20
47.7754075118
 10
157.0509743786
 20
47.7849557012
 10
157.0623710927
 20
47.7949441074
 10
157.0740044259
 20
47.8053521939
 10
157.0858547626
 20
47.816200511
 10
157.097859827
 20
47.8276243854
 10
157.1100382226
 20
47.839614714
 10
157.1223713611
 20
47.8521806207
 10
157.1347411796
 20
47.8654847794
 10
157.1471486783
 20
47.8795261678
 10
157.1595928718
 20
47.8943058392
 10
157.1719527187
 20
47.9099895891
 10
157.1842266524
 20
47.926601425
 10
157.1964162501
 20
47.9441173844
 10
157.208405183
 20
47.9626313161
 10
157.2202022102
 20
47.9821388218
 10
157.2317985729
 20
48.0026443571
 10
157.2430516587
 20
48.0242550601
 10
157.2539891174
 20
48.0469899826
 10
157.2645832828
 20
48.0708301469
 10
157.2746085558
 20
48.0958256538
 10
157.2840768349
 20
48.1219706999
 10
157.2929761752
 20
48.1492711764
 10
157.3010451912
 20
48.1777947336
 10
157.3082898438
 20
48.2074827962
 10
157.314704083
 20
48.2383940426
 10
157.3200084751
 20
48.2707720207
 10
157.3242435107
 20
48.3046484335
 10
157.327368545
 20
48.3399917206
 10
157.3289823908
 20
48.3769505586
 10
157.3291575222
 20
48.4156806826
 10
157.3278212094
 20
48.4560265387
 10
157.3243543929
 20
48.4976698641
 10
157.3187939994
 20
48.5408449434
 10
157.3111027186
 20
48.5853176553
 10
157.3005500832
 20
48.6300670469
 10
157.2869691647
 20
48.6751341616
 10
157.2705264311
 20
48.7204779853
 10
157.250991539
 20
48.7649543387
 10
157.2279905643
 20
48.8086864802
 10
157.2018970342
 20
48.8515510398
 10
157.1736020066
 20
48.892033732
 10
157.1429572346
 20
48.9298370153
 10
157.1101109791
 20
48.9652581525
 10
157.0763993891
 20
48.9976749564
 10
157.0417213479
 20
49.0270009599
 10
157.0061782882
 20
49.0533223666
 10
156.9714104504
 20
49.0762759717
 10
156.9379648072
 20
49.0957406351
 10
156.9052949233
 20
49.1118372962
 10
156.873401028
 20
49.12456588
  0
LWPOLYLINE
  5
3B1
100
AcDbEntity
  8
0
100
AcDbPolyline
 62
7
  6
CONTINUOUS
 90
4
 70
0
 10
156.9972831476
 20
47.7408062534
 10
157.007754417
 20
47.7487613237
 10
157.0181846795
 20
47.7573103277
 10
157.0397946551
 20
47.7754075118
  0
LWPOLYLINE
  5
3B2
100
AcDbEntity
  8
0
100
AcDbPolyline
 62
253
  6
CONTINUOUS
 90
13
 70
0
 10
163.3889529026
 20
52.4787687302
 10
163.3283249143
 20
52.4333175858
 10
163.2652575913
 20
52.391406388
 10
163.1997508302
 20
52.3530350013
 10
163.1313697208
 20
52.3179973725
 10
163.0605488075
 20
52.2864993192
 10
162.9885921881
 20
52.25915851
 10
162.9155393222
 20
52.2361682592
 10
162.8413503218
 20
52.217335051
 10
162.7672104041
 20
52.2026963133
 10
162.6935145544
 20
52.1922644879
 10
162.619867405
 20
52.1860270318
 10
162.5462687119
 20
52.1839839199
  0
LWPOLYLINE
  5
3B3
100
AcDbEntity
  8
0
100
AcDbPolyline
 62
253
  6
CONTINUOUS
 90
13
 70
0
 10
163.0407189534
 20
52.8938675493
 10
163.0027095178
 20
52.8653817602
 10
162.9629753894
 20
52.838907524
 10
162.9216157071
 20
52.8145601777
 10
162.8786082692
 20
52.792388022
 10
162.8341908864
 20
52.7725748717
 10
162.7888949859
 20
52.7553651912
 10
162.7429273541
 20
52.7407988064
 10
162.6963911498
 20
52.7288714724
 10
162.6497036665
 20
52.7196375503
 10
162.6031115361
 20
52.7130622801
 10
162.5566772328
 20
52.7090710016
 10
162.5105432297
 20
52.7076019729
  0
LWPOLYLINE
  5
3B4
100
AcDbEntity
  8
0
100
AcDbPolyline
 62
253
  6
CONTINUOUS
 90
10
 70
0
 10
163.3889529026
 20
155.0513768
 10
163.4129339568
 20
155.0319128936
 10
163.435921007
 20
155.0125219159
 10
163.457914088
 20
154.9932038688
 10
163.4788843782
 20
154.9739210293
 10
163.4988607627
 20
154.954711123
 10
163.5179298292
 20
154.935687326
 10
163.5361204522
 20
154.9168873667
 10
163.5534037982
 20
154.8982735242
 10
163.5697798856
 20
154.8798458017
  0
LWPOLYLINE
  5
3B5
100
AcDbEntity
  8
0
100
AcDbPolyline
 62
253
  6
CONTINUOUS
 90
10
 70
0
 10
163.0407189534
 20
154.6362779809
 10
163.0557550524
 20
154.6240685945
 10
163.0701395025
 20
154.6118470451
 10
163.0838865729
 20
154.5996440523
 10
163.0970085287
 20
154.5874915663
 10
163.1095235002
 20
154.5754149438
 10
163.1214548441
 20
154.5634324482
 10
163.1328206971
 20
154.551566031
 10
163.1436344404
 20
154.5398418877
 10
163.1539122082
 20
154.5282822749
  0
LINE
  5
3B6
100
AcDbEntity
  8
RACCORDO
100
AcDbLine
 62
253
  6
CONTINUOUS
 10
171.3608488801
 20
158.7074141314
 11
171.1825162931
 21
158.6979662135
  0
LWPOLYLINE
  5
3B7
100
AcDbEntity
  8
RACCORDO
100
AcDbPolyline
 62
253
  6
CONTINUOUS
 90
16
 70
0
 10
170.9419512844
 20
158.7032940034
 10
170.9675187089
 20
158.7041693471
 10
170.9924363061
 20
158.7048745129
 10
171.0165117068
 20
158.7054040568
 10
171.039559044
 20
158.7057538906
 10
171.0614003873
 20
158.7059213135
 10
171.0818671168
 20
158.705905033
 10
171.1008012252
 20
158.7057051747
 10
171.1180565372
 20
158.7053232816
 10
171.1334998381
 20
158.7047623021
 10
171.1470119023
 20
158.7040265668
 10
171.1584884138
 20
158.703121756
 10
171.1678407717
 20
158.702054855
 10
171.1749967736
 20
158.7008341003
 10
171.1799011738
 20
158.6994689166
 10
171.1825161092
 20
158.6979698433
  0
LINE
  5
3B8
100
AcDbEntity
  8
RACCORDO
100
AcDbLine
 62
253
  6
CONTINUOUS
 10
171.1201627163
 20
154.8798458017
 11
171.1705954848
 21
154.8814730736
  0
LWPOLYLINE
  5
3B9
100
AcDbEntity
  8
0
100
AcDbPolyline
 62
253
  6
CONTINUOUS
 90
14
 70
0
 10
163.6133242633
 20
153.9832860195
 10
163.5809531686
 20
153.9823317667
 10
163.5502598928
 20
153.9812757962
 10
163.5214253301
 20
153.9801243315
 10
163.4946194198
 20
153.9788841588
 10
163.4700001454
 20
153.9775625873
 10
163.447712603
 20
153.9761674057
 10
163.4278881465
 20
153.9747068367
 10
163.4106436135
 20
153.9731894883
 10
163.3960806363
 20
153.9716243032
 10
163.3842850434
 20
153.9700205059
 10
163.3753263533
 20
153.9683875486
 10
163.3692573649
 20
153.9667350553
 10
163.3661138465
 20
153.9650727651
  0
LWPOLYLINE
  5
3BA
100
AcDbEntity
  8
RACCORDO
100
AcDbPolyline
 62
253
  6
CONTINUOUS
 90
13
 70
0
 10
171.1705954848
 20
154.8814730736
 10
171.2176498183
 20
154.8826339619
 10
171.239452135
 20
154.8830277512
 10
171.2598773086
 20
154.8832927325
 10
171.2787678557
 20
154.8834268625
 10
171.2959781252
 20
154.8834291073
 10
171.3113754214
 20
154.8832994494
 10
171.3248410268
 20
154.8830388885
 10
171.3362711183
 20
154.8826494337
 10
171.3455775666
 20
154.8821340877
 10
171.3526886167
 20
154.8814968241
 10
171.3575494405
 20
154.8807425562
 10
171.3601225596
 20
154.8798770997
  0
LINE
  5
3BB
100
AcDbEntity
  8
0
100
AcDbLine
 62
253
  6
CONTINUOUS
 10
163.6823280163
 20
153.9848675087
 11
163.6133242633
 21
153.9832860195
  0
LINE
  5
3BC
100
AcDbEntity
  8
0
100
AcDbLine
 62
253
  6
CONTINUOUS
 10
163.7556468259
 20
153.985983036
 11
163.6823280163
 21
153.9848675087
  0
LINE
  5
3BD
100
AcDbEntity
  8
0
100
AcDbLine
 62
253
  6
CONTINUOUS
 10
163.8315547911
 20
153.9866063424
 11
163.7556468259
 21
153.985983036
  0
LINE
  5
3BE
100
AcDbEntity
  8
0
100
AcDbLine
 62
253
  6
CONTINUOUS
 10
141.610528045
 20
154.8225435757
 11
146.2523158802
 21
154.8338183148
  0
LINE
  5
3BF
100
AcDbEntity
  8
0
100
AcDbLine
 62
253
  6
CONTINUOUS
 10
141.5748030059
 20
155.3461616103
 11
146.2316960201
 21
155.3574740442
  0
LINE
  5
3C0
100
AcDbEntity
  8
0
100
AcDbLine
 62
253
  6
CONTINUOUS
 10
146.2523158802
 20
154.8338183148
 11
150.8982554938
 21
154.8386503283
  0
LINE
  5
3C1
100
AcDbEntity
  8
0
100
AcDbLine
 62
253
  6
CONTINUOUS
 10
146.2316960201
 20
155.3574740442
 11
150.8944719928
 21
155.3623222173
  0
LINE
  5
3C2
100
AcDbEntity
  8
0
100
AcDbLine
 62
253
  6
CONTINUOUS
 10
163.3105358589
 20
153.9650727651
 11
163.3661137903
 21
153.9651085935
  0
LINE
  5
3C3
100
AcDbEntity
  8
0
100
AcDbLine
 62
7
  6
CONTINUOUS
 10
162.5105358589
 20
154.7650727651
 11
141.6105358589
 21
154.7650727651
  0
LINE
  5
3C4
100
AcDbEntity
  8
0
100
AcDbLine
 62
253
  6
CONTINUOUS
 10
140.5512918322
 20
154.8798458017
 11
133.0009090384
 21
154.8798466494
  0
LINE
  5
3C5
100
AcDbEntity
  8
0
100
AcDbLine
 62
253
  6
CONTINUOUS
 10
163.5697798856
 20
154.8798458017
 11
171.1201626742
 21
154.8798467679
  0
LINE
  5
3C6
100
AcDbEntity
  8
0
100
AcDbLine
 62
253
  6
CONTINUOUS
 10
163.908265063
 20
153.9867227553
 11
163.8315547911
 21
153.9866063424
  0
LINE
  5
3C7
100
AcDbEntity
  8
0
100
AcDbLine
 62
253
  6
CONTINUOUS
 10
140.8105358589
 20
153.9650727651
 11
140.7549579272
 21
153.9651084433
  0
LINE
  5
3C8
100
AcDbEntity
  8
0
100
AcDbLine
 62
253
  6
CONTINUOUS
 10
150.8982554938
 20
154.8386503283
 11
155.5465640567
 21
154.8370396282
  0
LINE
  5
3C9
100
AcDbEntity
  8
0
100
AcDbLine
 62
253
  6
CONTINUOUS
 10
150.8944719928
 20
155.3623222173
 11
155.5584309409
 21
155.3607061601
  0
LWPOLYLINE
  5
3CA
100
AcDbEntity
  8
0
100
AcDbPolyline
 62
253
  6
CONTINUOUS
 90
3
 70
0
 10
155.5465640567
 20
154.8370396282
 10
160.1901102529
 20
154.8289862623
 10
162.5105431708
 20
154.8225435767
  0
LWPOLYLINE
  5
3CB
100
AcDbEntity
  8
0
100
AcDbPolyline
 62
253
  6
CONTINUOUS
 90
3
 70
0
 10
155.5584309409
 20
155.3607061601
 10
160.2188505043
 20
155.352625863
 10
162.5462687119
 20
155.3461616103
  0
LINE
  5
3CC
100
AcDbEntity
  8
0
100
AcDbLine
 62
253
  6
CONTINUOUS
 10
140.2128069714
 20
153.9867225947
 11
140.2895174781
 21
153.9866062112
  0
LINE
  5
3CD
100
AcDbEntity
  8
0
100
AcDbLine
 62
253
  6
CONTINUOUS
 10
140.2895174781
 20
153.9866062112
 11
140.3654257863
 21
153.985982931
  0
LINE
  5
3CE
100
AcDbEntity
  8
0
100
AcDbLine
 62
253
  6
CONTINUOUS
 10
140.3654257863
 20
153.985982931
 11
140.4387450127
 21
153.9848674262
  0
LWPOLYLINE
  5
3CF
100
AcDbEntity
  8
RACCORDO
100
AcDbPolyline
 62
253
  6
CONTINUOUS
 90
12
 70
0
 10
132.9034218997
 20
154.8826339619
 10
132.8816195831
 20
154.8830277512
 10
132.8611944096
 20
154.8832927324
 10
132.8423038625
 20
154.8834268625
 10
132.8250935931
 20
154.8834291072
 10
132.8096962971
 20
154.8832994493
 10
132.7962306917
 20
154.8830388885
 10
132.7848006004
 20
154.8826494336
 10
132.7754941521
 20
154.8821340877
 10
132.7683831021
 20
154.881496824
 10
132.7635222784
 20
154.8807425561
 10
132.7609491593
 20
154.8798770996
  0
LWPOLYLINE
  5
3D0
100
AcDbEntity
  8
0
100
AcDbPolyline
 62
253
  6
CONTINUOUS
 90
15
 70
0
 10
140.4387450127
 20
153.9848674262
 10
140.5077492211
 20
153.983285956
 10
140.5401205471
 20
153.9823317113
 10
140.5708140509
 20
153.9812757481
 10
140.5996488345
 20
153.9801242899
 10
140.6264549546
 20
153.9788841231
 10
140.6510744243
 20
153.9775625567
 10
140.6733621441
 20
153.9761673798
 10
140.693186757
 20
153.974706815
 10
140.7104314229
 20
153.9731894705
 10
140.7249945072
 20
153.971624289
 10
140.7367901796
 20
153.9700204952
 10
140.74574892
 20
153.9683875414
 10
140.7518179283
 20
153.9667350517
 10
140.7549614358
 20
153.9650727654
  0
LINE
  5
3D1
100
AcDbEntity
  8
RACCORDO
100
AcDbLine
 62
253
  6
CONTINUOUS
 10
132.9504762331
 20
154.8814730737
 11
132.9034218997
 21
154.8826339619
  0
LWPOLYLINE
  5
3D2
100
AcDbEntity
  8
0
100
AcDbPolyline
 62
253
  6
CONTINUOUS
 90
13
 70
0
 10
162.5462687119
 20
155.3461616103
 10
162.6198674059
 20
155.3441185032
 10
162.6935145559
 20
155.3378810501
 10
162.7672104059
 20
155.3274492258
 10
162.8413503236
 20
155.3128104863
 10
162.9155393238
 20
155.2939772745
 10
162.9885921892
 20
155.2709870202
 10
163.0605488072
 20
155.2436462078
 10
163.1313697188
 20
155.2121481515
 10
163.1997508271
 20
155.1771105213
 10
163.2652575885
 20
155.1387391355
 10
163.3283249125
 20
155.0968279402
 10
163.3889529026
 20
155.0513768
  0
LWPOLYLINE
  5
3D3
100
AcDbEntity
  8
0
100
AcDbPolyline
 62
253
  6
CONTINUOUS
 90
13
 70
0
 10
162.5105431708
 20
154.8225435575
 10
162.5566772002
 20
154.8210745305
 10
162.6031115232
 20
154.8170832515
 10
162.6497036668
 20
154.8105079799
 10
162.6963911544
 20
154.8012740567
 10
162.7429273567
 20
154.789346723
 10
162.7888949864
 20
154.7747803388
 10
162.8341908869
 20
154.7575706583
 10
162.8786082697
 20
154.7377575079
 10
162.9216157075
 20
154.7155853522
 10
162.9629753897
 20
154.6912380059
 10
163.002709518
 20
154.6647637698
 10
163.0407189534
 20
154.6362779809
  0
LINE
  5
3D4
100
AcDbEntity
  8
RACCORDO
100
AcDbLine
 62
253
  6
CONTINUOUS
 10
133.0009090014
 20
154.8798458017
 11
132.9504762331
 21
154.8814730737
  0
LWPOLYLINE
  5
3D5
100
AcDbEntity
  8
RACCORDO
100
AcDbPolyline
 62
253
  6
CONTINUOUS
 90
16
 70
0
 10
133.1791204335
 20
158.7032940033
 10
133.1535530088
 20
158.7041693471
 10
133.1286354113
 20
158.7048745129
 10
133.1045600103
 20
158.7054040569
 10
133.0815126728
 20
158.7057538907
 10
133.0596713293
 20
158.7059213136
 10
133.0392045994
 20
158.7059050331
 10
133.0202704907
 20
158.7057051749
 10
133.0030151784
 20
158.7053232818
 10
132.9875718773
 20
158.7047623022
 10
132.9740598128
 20
158.704026567
 10
132.962583301
 20
158.7031217562
 10
132.9532309429
 20
158.7020548552
 10
132.9460749408
 20
158.7008341005
 10
132.9411705404
 20
158.6994689168
 10
132.9385556048
 20
158.6979698435
  0
LINE
  5
3D6
100
AcDbEntity
  8
RACCORDO
100
AcDbLine
 62
253
  6
CONTINUOUS
 10
132.7602228377
 20
158.7074141314
 11
132.9385553824
 21
158.6979653917
  0
LINE
  5
3D7
100
AcDbEntity
  8
RACCORDO
100
AcDbLine
 62
253
  6
CONTINUOUS
 10
171.0318815258
 20
162.7247499505
 11
170.8690289024
 21
162.7065751088
  0
LWPOLYLINE
  5
3D8
100
AcDbEntity
  8
RACCORDO
100
AcDbPolyline
 62
253
  6
CONTINUOUS
 90
16
 70
0
 10
170.6285657392
 20
162.702806203
 10
170.6540090286
 20
162.7050220501
 10
170.6788151443
 20
162.7069962875
 10
170.7027930886
 20
162.7087137144
 10
170.7257582407
 20
162.7101611073
 10
170.7475337779
 20
162.7113273217
 10
170.7679520368
 20
162.7122033782
 10
170.786855805
 20
162.7127825317
 10
170.8040995305
 20
162.7130603228
 10
170.8195504436
 20
162.7130346126
 10
170.833089578
 20
162.7127055991
 10
170.8446126878
 20
162.7120758156
 10
170.8540310494
 20
162.7111501112
 10
170.8612721451
 20
162.7099356134
 10
170.8662802213
 20
162.7084416734
 10
170.8690167177
 20
162.7066797939
  0
LWPOLYLINE
  5
3D9
100
AcDbEntity
  8
RACCORDO
100
AcDbPolyline
 62
253
  6
CONTINUOUS
 90
16
 70
0
 10
133.4925059775
 20
162.7028062036
 10
133.4670626211
 20
162.7050220631
 10
133.4422564341
 20
162.7069963127
 10
133.4182784153
 20
162.7087137513
 10
133.3953131868
 20
162.7101611551
 10
133.3735375726
 20
162.7113273799
 10
133.3531192372
 20
162.7122034459
 10
133.3342153942
 20
162.7127826079
 10
133.3169715967
 20
162.7130604065
 10
133.3015206156
 20
162.7130347027
 10
133.2879814179
 20
162.7127056945
 10
133.2764582506
 20
162.7120759151
 10
133.2670398379
 20
162.7111502136
 10
133.2597986983
 20
162.7099357175
 10
133.2547905859
 20
162.7084417781
 10
133.2520540613
 20
162.706679898
  0
LINE
  5
3DA
100
AcDbEntity
  8
RACCORDO
100
AcDbLine
 62
253
  6
CONTINUOUS
 10
133.089190192
 20
162.7247499505
 11
133.2520411755
 21
162.7065594674
  0
LWPOLYLINE
  5
3DB
100
AcDbEntity
  8
RACCORDO
100
AcDbPolyline
 62
253
  6
CONTINUOUS
 90
34
 70
0
 10
163.3243172595
 20
35.6651648048
 10
163.6849697436
 20
35.7839352034
 10
164.0418206441
 20
35.9155027652
 10
164.394406758
 20
36.059766225
 10
164.7424482964
 20
36.2166892004
 10
165.0852984364
 20
36.38606718
 10
165.4219738715
 20
36.5674639499
 10
165.7520000222
 20
36.7606224317
 10
166.0750174714
 20
36.9653311305
 10
166.3902772363
 20
37.1811051459
 10
166.6972203692
 20
37.407496105
 10
166.9956864772
 20
37.6443182852
 10
167.2855447424
 20
37.8914488205
 10
167.56656945
 20
38.1486936185
 10
167.8382803321
 20
38.4156107776
 10
168.1001786417
 20
38.6916927014
 10
168.3518869097
 20
38.9764807049
 10
168.5932018405
 20
39.2696802338
 10
168.8239135494
 20
39.5710041626
 10
169.0437190314
 20
39.8800124415
 10
169.2524037368
 20
40.1963553534
 10
169.4498750332
 20
40.5198921487
 10
169.6359015679
 20
40.8502627278
 10
169.8102230737
 20
41.1870225273
 10
169.9726815298
 20
41.5299150663
 10
170.1230605031
 20
41.8785455164
 10
170.261139633
 20
42.2324658135
 10
170.3867507104
 20
42.5913377904
 10
170.4997128138
 20
42.9547573055
 10
170.599839615
 20
43.3222433715
 10
170.6869688398
 20
43.6933339762
 10
170.7609574547
 20
44.067565476
 10
170.8216810314
 20
44.4444736014
 10
170.8690305799
 20
44.8235860586
  0
LWPOLYLINE
  5
3DC
100
AcDbEntity
  8
RACCORDO
100
AcDbPolyline
 62
253
  6
CONTINUOUS
 90
34
 70
0
 10
163.2578806523
 20
35.9041080381
 10
163.6109754149
 20
36.0199914542
 10
163.9594373893
 20
36.1481155852
 10
164.3032854034
 20
36.2884853233
 10
164.6431645749
 20
36.4413713885
 10
164.9784643292
 20
36.6065141656
 10
165.307317317
 20
36.7831232323
 10
165.6296176195
 20
36.971278641
 10
165.9454963476
 20
37.17091268
 10
166.2534375314
 20
37.3810127018
 10
166.5532198815
 20
37.6014968098
 10
166.8450790069
 20
37.8324594169
 10
167.1281800597
 20
38.0731514978
 10
167.4026169239
 20
38.3237242579
 10
167.6682999759
 20
38.5840390054
 10
167.9241150019
 20
38.8529106403
 10
168.1699312605
 20
39.1302952795
 10
168.4058729467
 20
39.4162478822
 10
168.6312044201
 20
39.7097299584
 10
168.8458595711
 20
40.0107072458
 10
169.0498884951
 20
40.3192234466
 10
169.242726892
 20
40.6343554119
 10
169.4243664455
 20
40.9561524769
 10
169.5947910823
 20
41.28457299
 10
169.7534226111
 20
41.6185556051
 10
169.9002253094
 20
41.9581410825
 10
170.0352031414
 20
42.3032941044
 10
170.1578359731
 20
42.6528372498
 10
170.2680765433
 20
43.0068470069
 10
170.3659344276
 20
43.3652498485
 10
170.4509743914
 20
43.7266411271
 10
170.5230379429
 20
44.0905521914
 10
170.5822423744
 20
44.4574516079
 10
170.6285657402
 20
44.8273393266
  0
LWPOLYLINE
  5
3DD
100
AcDbEntity
  8
RACCORDO
100
AcDbPolyline
 62
253
  6
CONTINUOUS
 90
10
 70
0
 10
141.7746665947
 20
171.8643214229
 10
141.6723543814
 20
171.8418858621
 10
141.5702922072
 20
171.8184373021
 10
141.4684798044
 20
171.7939756668
 10
141.3669037724
 20
171.7684974054
 10
141.265576988
 20
171.7420059063
 10
141.1645386059
 20
171.7145114975
 10
141.0638015118
 20
171.6860175625
 10
140.9633523221
 20
171.6565205392
 10
140.8631907945
 20
171.6260203336
  0
LWPOLYLINE
  5
3DE
100
AcDbEntity
  8
RACCORDO
100
AcDbPolyline
 62
253
  6
CONTINUOUS
 90
10
 70
0
 10
141.7324433811
 20
172.1096763428
 10
141.6274478177
 20
172.0866461191
 10
141.5226920739
 20
172.0625720061
 10
141.4181865638
 20
172.0374565773
 10
141.3139504419
 20
172.0113047775
 10
141.2099852506
 20
171.9841172954
 10
141.1062751465
 20
171.9558896947
 10
141.0028219444
 20
171.9266216591
 10
140.8996448883
 20
171.8963178607
 10
140.7967544583
 20
171.8649807253
  0
LWPOLYLINE
  5
3DF
100
AcDbEntity
  8
RACCORDO
100
AcDbPolyline
 62
253
  6
CONTINUOUS
 90
22
 70
0
 10
146.7281346333
 20
172.6109949132
 10
146.4900970876
 20
172.5892087426
 10
146.252264713
 20
172.5660416982
 10
146.0146370484
 20
172.5414936733
 10
145.7772105775
 20
172.5155632644
 10
145.5399879082
 20
172.4882516437
 10
145.3029777741
 20
172.4595625594
 10
145.066179898
 20
172.4294961253
 10
144.8295936858
 20
172.3980519607
 10
144.593227408
 20
172.3652330634
 10
144.3570806487
 20
172.3310395152
 10
144.1211529927
 20
172.2954709326
 10
143.8854527239
 20
172.2585296074
 10
143.6499794263
 20
172.2202156006
 10
143.4147327289
 20
172.1805285155
 10
143.179720995
 20
172.1394699494
 10
142.9449436316
 20
172.097039905
 10
142.7104004926
 20
172.0532380107
 10
142.476100623
 20
172.0080652938
 10
142.2420468083
 20
171.9615219633
 10
142.0082355754
 20
171.9136074092
 10
141.7746665947
 20
171.8643214229
  0
LWPOLYLINE
  5
3E0
100
AcDbEntity
  8
RACCORDO
100
AcDbPolyline
 62
253
  6
CONTINUOUS
 90
22
 70
0
 10
146.712366088
 20
172.8604221146
 10
146.4730258402
 20
172.8385160833
 10
146.2338877624
 20
172.8152184787
 10
145.9949598512
 20
172.7905313365
 10
145.7562596699
 20
172.764457829
 10
145.5177855776
 20
172.7369991031
 10
145.2795167937
 20
172.7081537167
 10
145.0414572376
 20
172.6779228487
 10
144.803618945
 20
172.646308736
 10
144.5659933861
 20
172.6133107944
 10
144.328588538
 20
172.5789305766
 10
144.0914123729
 20
172.5431696845
 10
143.8544564195
 20
172.5060270963
 10
143.6177286526
 20
172.4675042095
 10
143.3812370721
 20
172.427602476
 10
143.1449733232
 20
172.3863204463
 10
142.9089454949
 20
172.3436593845
 10
142.6731615232
 20
172.2996205776
 10
142.4376129181
 20
172.2542021019
 10
142.2023022417
 20
172.207403936
 10
141.9672430475
 20
172.1592282847
 10
141.7324433812
 20
172.1096763424
  0
LWPOLYLINE
  5
3E1
100
AcDbEntity
  8
RACCORDO
100
AcDbPolyline
 62
253
  6
CONTINUOUS
 90
10
 70
0
 10
157.3929370845
 20
172.6109949132
 10
156.2094806283
 20
172.7041016314
 10
155.0252775069
 20
172.7739251551
 10
153.8403134256
 20
172.820470945
 10
152.6540377233
 20
172.8437424768
 10
151.466970027
 20
172.8437417612
 10
150.2807007209
 20
172.8204693348
 10
149.095749434
 20
172.7739235449
 10
147.9115655038
 20
172.7041005578
 10
146.7281346333
 20
172.6109949132
  0
LWPOLYLINE
  5
3E2
100
AcDbEntity
  8
RACCORDO
100
AcDbPolyline
 62
253
  6
CONTINUOUS
 90
10
 70
0
 10
157.4087241185
 20
172.8604205152
 10
156.2225374751
 20
172.9537673047
 10
155.0346738208
 20
173.0238165628
 10
153.8455845042
 20
173.0705367426
 10
152.6556574649
 20
173.0939055509
 10
151.4654091806
 20
173.093905501
 10
150.2754845051
 20
173.0705366618
 10
149.0863999109
 20
173.02381666
 10
147.8985433265
 20
172.9537679302
 10
146.7123660839
 20
172.8604221597
  0
LWPOLYLINE
  5
3E3
100
AcDbEntity
  8
RACCORDO
100
AcDbPolyline
 62
253
  6
CONTINUOUS
 90
22
 70
0
 10
162.3464051231
 20
171.8643214229
 10
162.1128278826
 20
171.9136090995
 10
161.8790092681
 20
171.961525099
 10
161.64494895
 20
172.0080696298
 10
161.4106434904
 20
172.0532432807
 10
161.1760956397
 20
172.0970458642
 10
160.9413143376
 20
172.1394764171
 10
160.7062993951
 20
172.1805353196
 10
160.4710502622
 20
172.2202225606
 10
160.2355753254
 20
172.2585365819
 10
159.9998742195
 20
172.2954777796
 10
159.7639465228
 20
172.3310460936
 10
159.5278005253
 20
172.3652392732
 10
159.2914358179
 20
172.3980577011
 10
159.0548519787
 20
172.4295012965
 10
158.8180572667
 20
172.4595671061
 10
158.5810510431
 20
172.4882555154
 10
158.3438330753
 20
172.5155664058
 10
158.1064122196
 20
172.5414960594
 10
157.8687911245
 20
172.5660433139
 10
157.6309662332
 20
172.589209563
 10
157.3929370845
 20
172.6109949132
  0
LWPOLYLINE
  5
3E4
100
AcDbEntity
  8
RACCORDO
100
AcDbPolyline
 62
253
  6
CONTINUOUS
 90
22
 70
0
 10
162.3886337009
 20
172.1096751937
 10
162.1538247734
 20
172.1592290953
 10
161.9187574616
 20
172.207406362
 10
161.6834398161
 20
172.2542058198
 10
161.4478855232
 20
172.2996252601
 10
161.2120970219
 20
172.3436647504
 10
160.9760654416
 20
172.3863263032
 10
160.7397986021
 20
172.4276086655
 10
160.5033047139
 20
172.4675105653
 10
160.2665753984
 20
172.5060334698
 10
160.0296186492
 20
172.5431759419
 10
159.7924424519
 20
172.578936596
 10
159.5550383364
 20
172.6133164673
 10
159.317414268
 20
172.6463139685
 10
159.0795782344
 20
172.677927559
 10
158.8415217335
 20
172.7081578331
 10
158.6032562016
 20
172.7370026389
 10
158.3647861594
 20
172.7644607335
 10
158.1260926581
 20
172.7905333779
 10
157.8871746718
 20
172.8152194104
 10
157.6480491576
 20
172.8385157735
 10
157.4087241152
 20
172.8604204781
  0
LWPOLYLINE
  5
3E5
100
AcDbEntity
  8
RACCORDO
100
AcDbPolyline
 62
253
  6
CONTINUOUS
 90
10
 70
0
 10
163.2578815704
 20
171.6260201434
 10
163.1577166
 20
171.6565213413
 10
163.0572646702
 20
171.6860191281
 10
162.9565255387
 20
171.7145135979
 10
162.8554856351
 20
171.7420083316
 10
162.7541580318
 20
171.768499927
 10
162.6525824438
 20
171.7939779995
 10
162.5507719347
 20
171.8184391423
 10
162.448712917
 20
171.8418869246
 10
162.3464051231
 20
171.8643214229
  0
LWPOLYLINE
  5
3E6
100
AcDbEntity
  8
RACCORDO
100
AcDbPolyline
 62
253
  6
CONTINUOUS
 90
10
 70
0
 10
163.3243172595
 20
171.8649807253
 10
163.2214233066
 20
171.8963189142
 10
163.118243876
 20
171.926623359
 10
163.0147894587
 20
171.9558916686
 10
162.9110794953
 20
171.9841191559
 10
162.8071156245
 20
172.0113062255
 10
162.7028814493
 20
172.0374574872
 10
162.5983783281
 20
172.0625723154
 10
162.4936256062
 20
172.0866457359
 10
162.388633701
 20
172.1096751937
  0
LWPOLYLINE
  5
3E7
100
AcDbEntity
  8
0
100
AcDbPolyline
 62
7
  6
CONTINUOUS
 90
19
 70
0
 10
111.1368815009
 20
34.991842529
 10
111.2648496781
 20
35.0280781242
 10
111.3912710014
 20
35.0683933565
 10
111.5161454707
 20
35.112788226
 10
111.639607837
 20
35.1613261999
 10
111.7615233494
 20
35.213943811
 10
111.8814877552
 20
35.2704506572
 10
111.9994792762
 20
35.3308503109
 10
112.1155196907
 20
35.3951391998
 10
112.2292700807
 20
35.4631162047
 10
112.3407301966
 20
35.5347937881
 10
112.4499002881
 20
35.6101594874
 10
112.5564421865
 20
35.6889747958
 10
112.6603521944
 20
35.7712534121
 10
112.7616340093
 20
35.8569816375
 10
112.859960555
 20
35.9458798683
 10
112.9552228061
 20
36.0378549031
 10
113.0475297881
 20
36.1329999432
 10
113.1368815009
 20
36.2313149887
  0
LWPOLYLINE
  5
3E8
100
AcDbEntity
  8
0
100
AcDbPolyline
 62
253
  6
CONTINUOUS
 90
16
 70
0
 10
110.3368815009
 20
35.0032366673
 10
110.5489690825
 20
35.0199210402
 10
110.7598736824
 20
35.0477555949
 10
110.9690047938
 20
35.0866623979
 10
111.1757768756
 20
35.1365325151
 10
111.3796109914
 20
35.1972263164
 10
111.5799364311
 20
35.2685738665
 10
111.776192308
 20
35.3503754013
 10
111.9678291302
 20
35.4424018864
 10
112.1543103383
 20
35.5443956593
 10
112.3351138078
 20
35.6560711498
 10
112.5097333116
 20
35.7771156805
 10
112.6776799366
 20
35.9071903417
 10
112.838483453
 20
36.0459309405
 10
112.991693631
 20
36.1929490202
 10
113.1368815009
 20
36.3478329485
  0
LWPOLYLINE
  5
3E9
100
AcDbEntity
  8
0
100
AcDbPolyline
 62
253
  6
CONTINUOUS
 90
16
 70
0
 10
110.3368815009
 20
35.7552171962
 10
110.5489690825
 20
35.7715908453
 10
110.7598736824
 20
35.798907019
 10
110.9690047938
 20
35.8370892355
 10
111.1757768756
 20
35.8860305893
 10
111.3796109914
 20
35.9455940506
 10
111.5799364311
 20
36.0156128493
 10
111.776192308
 20
36.0958909412
 10
111.9678291302
 20
36.1862035576
 10
112.1543103383
 20
36.2862978345
 10
112.3351138078
 20
36.3958935202
 10
112.5097333116
 20
36.5146837604
 10
112.6776799366
 20
36.6423359572
 10
112.838483453
 20
36.7784927
 10
112.991693631
 20
36.9227727671
 10
113.1368815009
 20
37.0747721919
  0
LINE
  5
3EA
100
AcDbEntity
  8
RACCORDO
100
AcDbLine
 62
253
  6
CONTINUOUS
 10
110.3368815009
 20
35.2664931237
 11
107.3310308202
 21
35.4204691664
  0
LINE
  5
3EB
100
AcDbEntity
  8
RACCORDO
100
AcDbLine
 62
253
  6
CONTINUOUS
 10
110.3368815009
 20
34.5052380447
 11
107.1855216732
 21
34.6697234156
  0
LINE
  5
3EC
100
AcDbEntity
  8
DRAFT
100
AcDbLine
 62
7
  6
CONTINUOUS
 10
110.3368815009
 20
34.2650727651
 11
107.1331155515
 21
34.4329750238
  0
LWPOLYLINE
  5
3ED
100
AcDbEntity
  8
0
100
AcDbPolyline
 62
7
  6
CONTINUOUS
 90
15
 70
0
 10
105.0489574637
 20
49.2198402651
 10
105.0481122104
 20
49.2196901238
 10
105.0467422583
 20
49.2188707075
 10
105.0454322722
 20
49.2173480706
 10
105.0441829579
 20
49.2151008237
 10
105.0429796581
 20
49.2121644097
 10
105.0418223185
 20
49.2085545793
 10
105.0407126404
 20
49.2042555878
 10
105.0396396762
 20
49.1992556363
 10
105.0386045473
 20
49.1935599452
 10
105.0376090588
 20
49.1871633042
 10
105.0366444899
 20
49.1800382691
 10
105.0357096819
 20
49.1721756969
 10
105.0348103806
 20
49.1635847457
 10
105.03394892
 20
49.1542654241
  0
LWPOLYLINE
  5
3EE
100
AcDbEntity
  8
0
100
AcDbPolyline
 62
253
  6
CONTINUOUS
 90
4
 70
0
 10
112.6776799366
 20
48.8971711653
 10
112.838483453
 20
48.9045379051
 10
112.991693631
 20
48.9123441561
 10
113.1368815009
 20
48.9205680618
  0
LINE
  5
3EF
100
AcDbEntity
  8
0
100
AcDbLine
 62
253
  6
CONTINUOUS
 10
112.3351138078
 20
48.8838374348
 11
112.6776799366
 21
48.8971711653
  0
LINE
  5
3F0
100
AcDbEntity
  8
0
100
AcDbLine
 62
253
  6
CONTINUOUS
 10
111.9678291302
 20
48.8724921914
 11
112.3351138078
 21
48.8838374348
  0
LINE
  5
3F1
100
AcDbEntity
  8
0
100
AcDbLine
 62
253
  6
CONTINUOUS
 10
111.5799364311
 20
48.8632624071
 11
111.9678291302
 21
48.8724921914
  0
LINE
  5
3F2
100
AcDbEntity
  8
0
100
AcDbLine
 62
253
  6
CONTINUOUS
 10
111.1757768756
 20
48.8562513787
 11
111.5799364311
 21
48.8632624071
  0
LINE
  5
3F3
100
AcDbEntity
  8
0
100
AcDbLine
 62
253
  6
CONTINUOUS
 10
110.7598736824
 20
48.8515375713
 11
111.1757768756
 21
48.8562513787
  0
LWPOLYLINE
  5
3F4
100
AcDbEntity
  8
0
100
AcDbPolyline
 62
253
  6
CONTINUOUS
 90
16
 70
0
 10
110.3368815009
 20
44.8605331769
 10
110.5489690825
 20
44.8623804435
 10
110.7598736824
 20
44.8654622401
 10
110.9690047938
 20
44.869769938
 10
111.1757768756
 20
44.8752914763
 10
111.3796109914
 20
44.8820113952
 10
111.5799364311
 20
44.8899108799
 10
111.776192308
 20
44.8989678127
 10
111.9678291302
 20
44.9091568354
 10
112.1543103383
 20
44.92044942
 10
112.3351138078
 20
44.9328139486
 10
112.5097333116
 20
44.9462158021
 10
112.6776799366
 20
44.9606174569
 10
112.838483453
 20
44.9759785903
 10
112.991693631
 20
44.9922561928
 10
113.1368815009
 20
45.0094046894
  0
LINE
  5
3F5
100
AcDbEntity
  8
0
100
AcDbLine
 62
253
  6
CONTINUOUS
 10
110.3368815009
 20
48.8491737401
 11
110.7598736824
 21
48.8515375713
  0
LINE
  5
3F6
100
AcDbEntity
  8
0
100
AcDbLine
 62
7
  6
CONTINUOUS
 10
105.2491586981
 20
46.3872714107
 11
105.461035839
 21
46.3872714107
  0
LINE
  5
3F7
100
AcDbEntity
  8
0
100
AcDbLine
 62
7
  6
CONTINUOUS
 10
105.2177669542
 20
46.3872717651
 11
105.245305605
 21
46.3872717651
  0
LINE
  5
3F8
100
AcDbEntity
  8
0
100
AcDbLine
 62
7
  6
CONTINUOUS
 10
105.171870436
 20
46.9461917651
 11
105.1829272663
 21
46.9461917651
  0
LINE
  5
3F9
100
AcDbEntity
  8
0
100
AcDbLine
 62
253
  6
CONTINUOUS
 10
105.2390329179
 20
47.1450324405
 11
105.3896318779
 21
47.1450324405
  0
LINE
  5
3FA
100
AcDbEntity
  8
0
100
AcDbLine
 62
7
  6
CONTINUOUS
 10
105.1456332888
 20
47.3786817651
 11
105.1378564953
 21
47.3786817651
  0
LINE
  5
3FB
100
AcDbEntity
  8
0
100
AcDbLine
 62
7
  6
CONTINUOUS
 10
105.1723482369
 20
47.4829208403
 11
105.1811456294
 21
47.4829208403
  0
LINE
  5
3FC
100
AcDbEntity
  8
0
100
AcDbLine
 62
7
  6
CONTINUOUS
 10
105.1834092207
 20
47.6941483282
 11
105.3339518883
 21
47.6941483282
  0
LINE
  5
3FD
100
AcDbEntity
  8
0
100
AcDbLine
 62
7
  6
CONTINUOUS
 10
105.1821145679
 20
47.710692137
 11
105.3326559319
 21
47.710692137
  0
LINE
  5
3FE
100
AcDbEntity
  8
0
100
AcDbLine
 62
7
  6
CONTINUOUS
 10
105.1453347769
 20
47.9414446785
 11
105.135980946
 21
47.9414446785
  0
LINE
  5
3FF
100
AcDbEntity
  8
0
100
AcDbLine
 62
7
  6
CONTINUOUS
 10
105.0790650399
 20
48.7100179691
 11
105.0908990891
 21
48.7100179691
  0
LINE
  5
400
100
AcDbEntity
  8
RACCORDO
100
AcDbLine
 62
253
  6
CONTINUOUS
 10
110.3368815009
 20
44.8053955797
 11
107.2101752835
 21
44.8235860628
  0
LINE
  5
401
100
AcDbEntity
  8
0
100
AcDbLine
 62
253
  6
CONTINUOUS
 10
105.3442536656
 20
52.1839839199
 11
104.9694417091
 21
52.1676213059
  0
LINE
  5
402
100
AcDbEntity
  8
RACCORDO
100
AcDbLine
 62
253
  6
CONTINUOUS
 10
106.6874547462
 20
52.6486487061
 11
106.7395360126
 21
52.6502684305
  0
LINE
  5
403
100
AcDbEntity
  8
0
100
AcDbLine
 62
253
  6
CONTINUOUS
 10
105.0762909767
 20
49.12456588
 11
105.2267258288
 21
49.12456588
  0
LINE
  5
404
100
AcDbEntity
  8
0
100
AcDbLine
 62
7
  6
CONTINUOUS
 10
105.0116295314
 20
49.1869747651
 11
105.03394892
 21
49.1869747651
  0
LINE
  5
405
100
AcDbEntity
  8
0
100
AcDbLine
 62
7
  6
CONTINUOUS
 10
104.993957305
 20
49.1869747651
 11
105.0036934241
 21
49.1869747651
  0
LINE
  5
406
100
AcDbEntity
  8
0
100
AcDbLine
 62
7
  6
CONTINUOUS
 10
105.1993654458
 20
49.2198242843
 11
105.0489585507
 21
49.2198242843
  0
LINE
  5
407
100
AcDbEntity
  8
0
100
AcDbLine
 62
253
  6
CONTINUOUS
 10
105.3995830047
 20
52.6502997284
 11
106.461471659
 21
52.6502988807
  0
LINE
  5
408
100
AcDbEntity
  8
0
100
AcDbLine
 62
253
  6
CONTINUOUS
 10
105.3880407354
 20
53.5434229355
 11
105.3862180928
 21
53.5434246066
  0
LINE
  5
409
100
AcDbEntity
  8
RACCORDO
100
AcDbLine
 62
253
  6
CONTINUOUS
 10
110.3368815009
 20
48.8227313987
 11
106.9293208906
 21
48.8321801385
  0
LWPOLYLINE
  5
40A
100
AcDbEntity
  8
RACCORDO
100
AcDbPolyline
 62
253
  6
CONTINUOUS
 90
16
 70
0
 10
106.6515642707
 20
48.8268515268
 10
106.657917188
 20
48.8259761831
 10
106.6664866146
 20
48.8252710172
 10
106.6772063927
 20
48.8247414733
 10
106.6899937633
 20
48.8243916394
 10
106.7047500052
 20
48.8242242165
 10
106.7213611971
 20
48.824240497
 10
106.7396990972
 20
48.8244403553
 10
106.7596221328
 20
48.8248222483
 10
106.7809764941
 20
48.8253832279
 10
106.8035973208
 20
48.8261189631
 10
106.8273099754
 20
48.8270237739
 10
106.8519313912
 20
48.828090675
 10
106.8772714856
 20
48.8293114296
 10
106.9031346278
 20
48.8306766133
 10
106.9293211489
 20
48.8321756866
  0
LWPOLYLINE
  5
40B
100
AcDbEntity
  8
RACCORDO
100
AcDbPolyline
 62
253
  6
CONTINUOUS
 90
16
 70
0
 10
106.932857744
 20
162.702806203
 10
106.9392369392
 20
162.7050220501
 10
106.9478232134
 20
162.7069962875
 10
106.9585504555
 20
162.7087137144
 10
106.9713360699
 20
162.7101611073
 10
106.9860816123
 20
162.7113273217
 10
107.0026735478
 20
162.7122033782
 10
107.0209841249
 20
162.7127825317
 10
107.0408723592
 20
162.7130603228
 10
107.0621851191
 20
162.7130346126
 10
107.0847583045
 20
162.7127055991
 10
107.1084181107
 20
162.7120758156
 10
107.1329823663
 20
162.7111501112
 10
107.1582619361
 20
162.7099356134
 10
107.1840621772
 20
162.7084416734
 10
107.2101844377
 20
162.7066797939
  0
LWPOLYLINE
  5
40C
100
AcDbEntity
  8
RACCORDO
100
AcDbPolyline
 62
253
  6
CONTINUOUS
 90
13
 70
0
 10
106.4614716274
 20
52.6502997284
 10
106.4678509256
 20
52.6494306047
 10
106.4764460453
 20
52.6486724565
 10
106.4871907158
 20
52.6480311294
 10
106.5000020929
 20
52.6475115682
 10
106.5147813973
 20
52.6471177789
 10
106.5314146768
 20
52.6468527977
 10
106.5497736844
 20
52.6467186676
 10
106.5697168671
 20
52.6467164229
 10
106.5910904578
 20
52.6468460808
 10
106.6137296605
 20
52.6471066417
 10
106.6374599208
 20
52.6474960965
 10
106.6874547462
 20
52.6486487061
  0
LWPOLYLINE
  5
40D
100
AcDbEntity
  8
0
100
AcDbPolyline
 62
7
  6
CONTINUOUS
 90
5
 70
0
 10
105.0851198513
 20
48.7364384483
 10
105.0857523726
 20
48.7362880086
 10
105.0873324349
 20
48.7347235038
 10
105.0890480053
 20
48.7314604296
 10
105.0908990891
 20
48.7264987939
  0
LWPOLYLINE
  5
40E
100
AcDbEntity
  8
RACCORDO
100
AcDbPolyline
 62
253
  6
CONTINUOUS
 90
16
 70
0
 10
106.9328577383
 20
44.8273393266
 10
106.9392368654
 20
44.825123467
 10
106.9478230816
 20
44.8231492174
 10
106.958550276
 20
44.8214317789
 10
106.9713358531
 20
44.819984375
 10
106.9860813686
 20
44.8188181503
 10
107.0026732873
 20
44.8179420842
 10
107.0209838574
 20
44.8173629222
 10
107.040872094
 20
44.8170851237
 10
107.0621848649
 20
44.8171108274
 10
107.0847580694
 20
44.8174398356
 10
107.1084179019
 20
44.818069615
 10
107.1329821902
 20
44.8189953166
 10
107.1582617981
 20
44.8202098126
 10
107.1840620818
 20
44.8217037521
 10
107.2101843882
 20
44.8234656321
  0
LINE
  5
40F
100
AcDbEntity
  8
0
100
AcDbLine
 62
253
  6
CONTINUOUS
 10
110.3368815009
 20
75.2650727651
 11
113.1368815009
 21
75.2650727651
  0
LINE
  5
410
100
AcDbEntity
  8
0
100
AcDbLine
 62
253
  6
CONTINUOUS
 10
104.9157605417
 20
75.2650727651
 11
106.0416736252
 21
75.2650727651
  0
LINE
  5
411
100
AcDbEntity
  8
RACCORDO
100
AcDbLine
 62
253
  6
CONTINUOUS
 10
110.3368815009
 20
75.2650727651
 11
106.0416736252
 21
75.2650727651
  0
LWPOLYLINE
  5
412
100
AcDbEntity
  8
0
100
AcDbPolyline
 62
7
  6
CONTINUOUS
 90
11
 70
0
 10
105.1811456294
 20
47.4829208403
 10
105.1818714168
 20
47.4821675993
 10
105.1826968146
 20
47.4800271834
 10
105.1836216566
 20
47.4764995972
 10
105.1846527629
 20
47.4715445243
 10
105.1857831508
 20
47.4652023001
 10
105.1869918384
 20
47.4575939111
 10
105.1882796719
 20
47.448666482
 10
105.1896455039
 20
47.4384729221
 10
105.1910651803
 20
47.427292893
 10
105.1925362631
 20
47.4151349191
  0
LINE
  5
413
100
AcDbEntity
  8
0
100
AcDbLine
 62
253
  6
CONTINUOUS
 10
104.9175712847
 20
96.9650727651
 11
104.9157605417
 21
96.9650727651
  0
LINE
  5
414
100
AcDbEntity
  8
0
100
AcDbLine
 62
253
  6
CONTINUOUS
 10
104.4368815009
 20
98.3616024194
 11
104.8111160364
 21
98.3453192934
  0
LINE
  5
415
100
AcDbEntity
  8
0
100
AcDbLine
 62
253
  6
CONTINUOUS
 10
104.8111160364
 20
109.1848262367
 11
104.4368815009
 21
109.1685431108
  0
LWPOLYLINE
  5
416
100
AcDbEntity
  8
0
100
AcDbPolyline
 62
253
  6
CONTINUOUS
 90
12
 70
0
 10
104.8111160364
 20
98.3453192934
 10
104.816689896
 20
98.3430873649
 10
104.8223038991
 20
98.3362792827
 10
104.827958022
 20
98.3248950467
 10
104.8336845452
 20
98.3089123228
 10
104.839451607
 20
98.2883534451
 10
104.8451608735
 20
98.2632854164
 10
104.8508132535
 20
98.2334883232
 10
104.8564037355
 20
98.199182079
 10
104.8618208938
 20
98.161093426
 10
104.8670240001
 20
98.1194646115
 10
104.872045435
 20
98.0740533883
  0
LWPOLYLINE
  5
417
100
AcDbEntity
  8
0
100
AcDbPolyline
 62
7
  6
CONTINUOUS
 90
11
 70
0
 10
105.0908990891
 20
48.7264987939
 10
105.0918251351
 20
48.7231414596
 10
105.0928217595
 20
48.7186390863
 10
105.0938888413
 20
48.7129916812
 10
105.0950290833
 20
48.7061809387
 10
105.0962396499
 20
48.698225185
 10
105.097512088
 20
48.6891793777
 10
105.0988468134
 20
48.6790485386
 10
105.1002433153
 20
48.6678276759
 10
105.1016916306
 20
48.6555567278
 10
105.1031932293
 20
48.6422127864
  0
LWPOLYLINE
  5
418
100
AcDbEntity
  8
RACCORDO
100
AcDbPolyline
 62
253
  6
CONTINUOUS
 90
16
 70
0
 10
106.9054499073
 20
172.610994909
 10
106.911126082
 20
172.6373276191
 10
106.9191568872
 20
172.6630491092
 10
106.9294771399
 20
172.6879506071
 10
106.942003074
 20
172.711829996
 10
106.956633021
 20
172.7344934552
 10
106.9732482347
 20
172.7557570333
 10
106.9917138551
 20
172.7754481413
 10
107.0118800033
 20
172.7934069533
 10
107.0335829978
 20
172.8094877039
 10
107.0566466828
 20
172.8235598713
 10
107.0808838585
 20
172.8355092366
 10
107.1060978001
 20
172.8452388109
 10
107.132083855
 20
172.8526696228
 10
107.1586311034
 20
172.8577413589
 10
107.1855240705
 20
172.8604128537
  0
LWPOLYLINE
  5
419
100
AcDbEntity
  8
RACCORDO
100
AcDbPolyline
 62
253
  6
CONTINUOUS
 90
16
 70
0
 10
107.0512606514
 20
171.8643214227
 10
107.0570125992
 20
171.8901134898
 10
107.0651032551
 20
171.9153140894
 10
107.0754673087
 20
171.939719794
 10
107.0880210979
 20
171.9631335927
 10
107.1026632845
 20
171.9853664817
 10
107.1192756719
 20
172.0062389898
 10
107.1377241595
 20
172.0255826275
 10
107.1578598252
 20
172.0432412465
 10
107.1795201273
 20
172.0590723006
 10
107.2025302167
 20
172.0729479966
 10
107.2267043484
 20
172.0847563251
 10
107.2518473811
 20
172.0944019656
 10
107.2777563519
 20
172.1018070552
 10
107.3042221152
 20
172.1069118177
 10
107.3310310307
 20
172.1096750458
  0
LWPOLYLINE
  5
41A
100
AcDbEntity
  8
RACCORDO
100
AcDbPolyline
 62
253
  6
CONTINUOUS
 90
16
 70
0
 10
107.0809399
 20
171.6259526655
 10
107.0867539267
 20
171.6510822337
 10
107.0948958119
 20
171.6756319806
 10
107.1053001084
 20
171.6994045673
 10
107.117883183
 20
171.7222089017
 10
107.1325438889
 20
171.7438616751
 10
107.1491643783
 20
171.7641888352
 10
107.1676110502
 20
171.7830269856
 10
107.1877356241
 20
171.800224699
 10
107.2093763321
 20
171.8156437343
 10
107.2323592188
 20
171.8291601483
 10
107.2564995403
 20
171.8406652915
 10
107.2816032485
 20
171.8500666818
 10
107.3074685515
 20
171.8572887476
 10
107.3338875354
 20
171.8622734355
 10
107.3606478355
 20
171.8649806771
  0
LINE
  5
41B
100
AcDbEntity
  8
0
100
AcDbLine
 62
253
  6
CONTINUOUS
 10
104.9175712847
 20
110.5650727651
 11
104.9157605417
 21
110.5650727678
  0
LWPOLYLINE
  5
41C
100
AcDbEntity
  8
RACCORDO
100
AcDbPolyline
 62
253
  6
CONTINUOUS
 90
16
 70
0
 10
107.0809401135
 20
35.9041928986
 10
107.0867542068
 20
35.8790634062
 10
107.0948961458
 20
35.8545137389
 10
107.1053004833
 20
35.8307412342
 10
107.117883586
 20
35.8079369824
 10
107.1325443074
 20
35.7862842909
 10
107.1491648001
 20
35.7659572104
 10
107.1676114638
 20
35.747119136
 10
107.1877360188
 20
35.7299214936
 10
107.2093766979
 20
35.7145025231
 10
107.2323595469
 20
35.7009861666
 10
107.256499823
 20
35.6894810726
 10
107.2816034794
 20
35.6800797225
 10
107.3074687256
 20
35.672857687
 10
107.3338876491
 20
35.6678730191
 10
107.3606478868
 20
35.6651657869
  0
LWPOLYLINE
  5
41D
100
AcDbEntity
  8
RACCORDO
100
AcDbPolyline
 62
253
  6
CONTINUOUS
 90
16
 70
0
 10
107.0512606528
 20
35.6658241077
 10
107.0570126031
 20
35.6400320429
 10
107.0651032611
 20
35.6148314459
 10
107.0754673163
 20
35.5904257441
 10
107.0880211069
 20
35.5670119482
 10
107.1026632943
 20
35.544779062
 10
107.1192756823
 20
35.5239065566
 10
107.1377241701
 20
35.5045629216
 10
107.1578598356
 20
35.4869043052
 10
107.1795201372
 20
35.4710732534
 10
107.2025302258
 20
35.4571975597
 10
107.2267043565
 20
35.4453892332
 10
107.2518473878
 20
35.4357435944
 10
107.2777563572
 20
35.4283385063
 10
107.3042221188
 20
35.4232337449
 10
107.3310310325
 20
35.4204705177
  0
LWPOLYLINE
  5
41E
100
AcDbEntity
  8
RACCORDO
100
AcDbPolyline
 62
253
  6
CONTINUOUS
 90
16
 70
0
 10
106.9054498834
 20
34.9191506171
 10
106.9111260543
 20
34.8928179017
 10
106.9191568567
 20
34.867096406
 10
106.9294771073
 20
34.8421949025
 10
106.9420030403
 20
34.818315508
 10
106.9566329871
 20
34.7956520434
 10
106.9732482013
 20
34.7743884601
 10
106.991713823
 20
34.7546973472
 10
107.0118799733
 20
34.7367385308
 10
107.0335829704
 20
34.7206577763
 10
107.0566466586
 20
34.7065856055
 10
107.080883838
 20
34.6946362376
 10
107.1060977837
 20
34.6849066613
 10
107.1320838429
 20
34.6774758482
 10
107.1586310958
 20
34.6724041117
 10
107.1855240674
 20
34.6697326173
  0
LWPOLYLINE
  5
41F
100
AcDbEntity
  8
0
100
AcDbPolyline
 62
7
  6
CONTINUOUS
 90
13
 70
0
 10
105.2267258515
 20
49.1245656728
 10
105.2235318285
 20
49.1434357695
 10
105.220500382
 20
49.1599829265
 10
105.2176315686
 20
49.1742070908
 10
105.2149349209
 20
49.1858837128
 10
105.2124015032
 20
49.1952372569
 10
105.2100032574
 20
49.2029412108
 10
105.2077381025
 20
49.209083408
 10
105.2056078378
 20
49.2135759844
 10
105.2035895397
 20
49.2168288992
 10
105.201678647
 20
49.2189101233
 10
105.1998794321
 20
49.219751677
 10
105.1993675587
 20
49.2197932467
  0
LWPOLYLINE
  5
420
100
AcDbEntity
  8
0
100
AcDbPolyline
 62
7
  6
CONTINUOUS
 90
15
 70
0
 10
105.0762909767
 20
49.12456588
 10
105.0735817798
 20
49.1407720908
 10
105.0709914728
 20
49.1552481188
 10
105.0685201097
 20
49.1679939295
 10
105.0661731553
 20
49.1788728481
 10
105.0639455228
 20
49.1880214918
 10
105.061821216
 20
49.1958497759
 10
105.0598006664
 20
49.2023778768
 10
105.0578833772
 20
49.2075855923
 10
105.0560515169
 20
49.211822281
 10
105.0543015561
 20
49.2151554549
 10
105.0526367868
 20
49.2175175922
 10
105.0510493885
 20
49.2190555057
 10
105.0495422987
 20
49.2197849279
 10
105.0489574637
 20
49.2198402651
  0
LWPOLYLINE
  5
421
100
AcDbEntity
  8
0
100
AcDbPolyline
 62
7
  6
CONTINUOUS
 90
7
 70
0
 10
105.0918757671
 20
48.9976749564
 10
105.0886549951
 20
49.0270009599
 10
105.0856268747
 20
49.0533223666
 10
105.0828705084
 20
49.0762759717
 10
105.0804103436
 20
49.0957406351
 10
105.0782177011
 20
49.1118372962
 10
105.0762909767
 20
49.12456588
  0
LINE
  5
422
100
AcDbEntity
  8
0
100
AcDbLine
 62
7
  6
CONTINUOUS
 10
105.1956222118
 20
47.3881138108
 11
105.198851553
 21
47.3582099405
  0
LINE
  5
423
100
AcDbEntity
  8
0
100
AcDbLine
 62
7
  6
CONTINUOUS
 10
105.3510358867
 20
47.5514286059
 11
105.3466318393
 21
47.5927289011
  0
LINE
  5
424
100
AcDbEntity
  8
0
100
AcDbLine
 62
7
  6
CONTINUOUS
 10
105.2008825202
 20
47.5475345318
 11
105.195135406
 21
47.6013009603
  0
LINE
  5
425
100
AcDbEntity
  8
0
100
AcDbLine
 62
7
  6
CONTINUOUS
 10
105.1031932293
 20
48.6422127864
 11
105.1063369631
 21
48.6124834859
  0
LINE
  5
426
100
AcDbEntity
  8
0
100
AcDbLine
 62
7
  6
CONTINUOUS
 10
105.2480538259
 20
48.9428950705
 11
105.2414344496
 21
49.0058933077
  0
LINE
  5
427
100
AcDbEntity
  8
0
100
AcDbLine
 62
7
  6
CONTINUOUS
 10
105.098905115
 20
48.9298370153
 11
105.0918757671
 21
48.9976749564
  0
LINE
  5
428
100
AcDbEntity
  8
0
100
AcDbLine
 62
7
  6
CONTINUOUS
 10
105.198851553
 20
47.3582099405
 11
105.2038806171
 21
47.3090508231
  0
LINE
  5
429
100
AcDbEntity
  8
0
100
AcDbLine
 62
7
  6
CONTINUOUS
 10
105.3575809042
 20
47.4869991542
 11
105.3510358867
 21
47.5514286059
  0
LINE
  5
42A
100
AcDbEntity
  8
0
100
AcDbLine
 62
7
  6
CONTINUOUS
 10
105.2087729826
 20
47.4691919299
 11
105.2008825202
 21
47.5475345318
  0
LINE
  5
42B
100
AcDbEntity
  8
0
100
AcDbLine
 62
7
  6
CONTINUOUS
 10
105.1063369631
 20
48.6124834859
 11
105.1096317928
 21
48.5789015616
  0
LINE
  5
42C
100
AcDbEntity
  8
0
100
AcDbLine
 62
7
  6
CONTINUOUS
 10
105.2554801945
 20
48.8668994921
 11
105.2480538259
 21
48.9428950705
  0
LINE
  5
42D
100
AcDbEntity
  8
0
100
AcDbLine
 62
7
  6
CONTINUOUS
 10
105.2038806171
 20
47.3090508231
 11
105.209081895
 21
47.2554236286
  0
LINE
  5
42E
100
AcDbEntity
  8
0
100
AcDbLine
 62
7
  6
CONTINUOUS
 10
105.3681225592
 20
47.3780320915
 11
105.3575809042
 21
47.4869991542
  0
LINE
  5
42F
100
AcDbEntity
  8
0
100
AcDbLine
 62
7
  6
CONTINUOUS
 10
105.1064647452
 20
48.8515510398
 11
105.098905115
 21
48.9298370153
  0
LINE
  5
430
100
AcDbEntity
  8
0
100
AcDbLine
 62
7
  6
CONTINUOUS
 10
105.2213737972
 20
47.337260905
 11
105.2087729826
 21
47.4691919299
  0
LINE
  5
431
100
AcDbEntity
  8
0
100
AcDbLine
 62
7
  6
CONTINUOUS
 10
105.461035839
 20
46.3872714107
 11
105.3976686239
 21
47.0576657769
  0
LINE
  5
432
100
AcDbEntity
  8
0
100
AcDbLine
 62
7
  6
CONTINUOUS
 10
105.209081895
 20
47.2554236286
 11
105.2906504751
 21
46.3872714107
  0
LINE
  5
433
100
AcDbEntity
  8
0
100
AcDbLine
 62
7
  6
CONTINUOUS
 10
105.3103648027
 20
46.3872714107
 11
105.2470100356
 21
47.0582256894
  0
LINE
  5
434
100
AcDbEntity
  8
0
100
AcDbLine
 62
7
  6
CONTINUOUS
 10
105.3976686239
 20
47.0576657769
 11
105.3681225592
 21
47.3780320915
  0
LINE
  5
435
100
AcDbEntity
  8
0
100
AcDbLine
 62
7
  6
CONTINUOUS
 10
105.2470100356
 20
47.0582256894
 11
105.2213737972
 21
47.337260905
  0
LINE
  5
436
100
AcDbEntity
  8
0
100
AcDbLine
 62
7
  6
CONTINUOUS
 10
105.1096317928
 20
48.5789015616
 11
105.1130171424
 21
48.5422752302
  0
LINE
  5
437
100
AcDbEntity
  8
0
100
AcDbLine
 62
7
  6
CONTINUOUS
 10
105.2635311733
 20
48.7793165059
 11
105.2554801945
 21
48.8668994921
  0
LINE
  5
438
100
AcDbEntity
  8
0
100
AcDbLine
 62
7
  6
CONTINUOUS
 10
105.245305605
 20
46.3872717651
 11
105.1884185661
 21
47.0090421488
  0
LINE
  5
439
100
AcDbEntity
  8
0
100
AcDbLine
 62
7
  6
CONTINUOUS
 10
105.1143309164
 20
48.7649543387
 11
105.1064647452
 21
48.8515510398
  0
LINE
  5
43A
100
AcDbEntity
  8
0
100
AcDbLine
 62
7
  6
CONTINUOUS
 10
105.1829272663
 20
46.9461917651
 11
105.2331350724
 21
46.3872717651
  0
LINE
  5
43B
100
AcDbEntity
  8
ASSI
100
AcDbLine
 62
7
  6
CONTINUOUS
 10
105.361191473
 20
46.3840470103
 11
105.361714937
 21
46.3780431225
  0
LINE
  5
43C
100
AcDbEntity
  8
0
100
AcDbLine
 62
7
  6
CONTINUOUS
 10
105.1884185661
 20
47.0090421488
 11
105.1343647065
 21
47.6310395619
  0
LINE
  5
43D
100
AcDbEntity
  8
0
100
AcDbLine
 62
7
  6
CONTINUOUS
 10
105.1130171424
 20
48.5422752302
 11
105.1181722076
 21
48.482800876
  0
LINE
  5
43E
100
AcDbEntity
  8
0
100
AcDbLine
 62
7
  6
CONTINUOUS
 10
105.2756672374
 20
48.6370271854
 11
105.2635311733
 21
48.7793165059
  0
LINE
  5
43F
100
AcDbEntity
  8
0
100
AcDbLine
 62
7
  6
CONTINUOUS
 10
105.2637276357
 20
46.3872714107
 11
105.201916634
 21
47.1176303822
  0
LINE
  5
440
100
AcDbEntity
  8
0
100
AcDbLine
 62
7
  6
CONTINUOUS
 10
105.1257512449
 20
48.6300670469
 11
105.1143309164
 21
48.7649543387
  0
LINE
  5
441
100
AcDbEntity
  8
0
100
AcDbLine
 62
7
  6
CONTINUOUS
 10
105.2125521544
 20
46.3872717651
 11
105.1411605051
 21
47.2308503858
  0
LINE
  5
442
100
AcDbEntity
  8
0
100
AcDbLine
 62
7
  6
CONTINUOUS
 10
105.1343647065
 20
47.6310395619
 11
105.0831443972
 21
48.2532595672
  0
LINE
  5
443
100
AcDbEntity
  8
0
100
AcDbLine
 62
7
  6
CONTINUOUS
 10
105.2177669542
 20
46.3872717651
 11
105.171870436
 21
46.9461917651
  0
LINE
  5
444
100
AcDbEntity
  8
0
100
AcDbLine
 62
7
  6
CONTINUOUS
 10
105.201916634
 20
47.1176303822
 11
105.1723482369
 21
47.4829208403
  0
LINE
  5
445
100
AcDbEntity
  8
0
100
AcDbLine
 62
7
  6
CONTINUOUS
 10
105.1181722076
 20
48.482800876
 11
105.1232625597
 21
48.4198047583
  0
LINE
  5
446
100
AcDbEntity
  8
0
100
AcDbLine
 62
7
  6
CONTINUOUS
 10
105.3339518883
 20
47.6941483282
 11
105.3326559319
 21
47.710692137
  0
LINE
  5
447
100
AcDbEntity
  8
0
100
AcDbLine
 62
7
  6
CONTINUOUS
 10
105.1834092207
 20
47.6941483282
 11
105.1821145679
 21
47.710692137
  0
LWPOLYLINE
  5
448
100
AcDbEntity
  8
0
100
AcDbPolyline
 62
253
  6
CONTINUOUS
 90
3
 70
0
 10
105.3995830126
 20
52.6502997288
 10
105.3976003163
 20
52.6756261347
 10
105.3976249841
 20
52.6853051739
  0
LINE
  5
449
100
AcDbEntity
  8
0
100
AcDbLine
 62
7
  6
CONTINUOUS
 10
105.1411605051
 20
47.2308503858
 11
105.0845907898
 21
47.9421603107
  0
LINE
  5
44A
100
AcDbEntity
  8
0
100
AcDbLine
 62
7
  6
CONTINUOUS
 10
105.0617284781
 20
48.4176877651
 11
105.1456332888
 21
47.3786817651
  0
LINE
  5
44B
100
AcDbEntity
  8
0
100
AcDbLine
 62
7
  6
CONTINUOUS
 10
105.2865854622
 20
48.4991148554
 11
105.2756672374
 21
48.6370271854
  0
LINE
  5
44C
100
AcDbEntity
  8
0
100
AcDbLine
 62
7
  6
CONTINUOUS
 10
105.1362008015
 20
48.4976698641
 11
105.1257512449
 21
48.6300670469
  0
LINE
  5
44D
100
AcDbEntity
  8
0
100
AcDbLine
 62
7
  6
CONTINUOUS
 10
105.0831443972
 20
48.2532595672
 11
105.0347591231
 21
48.8756844155
  0
LINE
  5
44E
100
AcDbEntity
  8
0
100
AcDbLine
 62
7
  6
CONTINUOUS
 10
105.0347591231
 20
48.8756844155
 11
105.0116295314
 21
49.1869747651
  0
LINE
  5
44F
100
AcDbEntity
  8
0
100
AcDbLine
 62
7
  6
CONTINUOUS
 10
105.0845907898
 20
47.9421603107
 11
105.037969763
 21
48.5644713362
  0
LINE
  5
450
100
AcDbEntity
  8
0
100
AcDbLine
 62
7
  6
CONTINUOUS
 10
105.1232625597
 20
48.4198047583
 11
105.1281765729
 21
48.3545638899
  0
LINE
  5
451
100
AcDbEntity
  8
0
100
AcDbLine
 62
7
  6
CONTINUOUS
 10
105.0670892855
 20
48.253311754
 11
105.1667473677
 21
46.9457732731
  0
LINE
  5
452
100
AcDbEntity
  8
0
100
AcDbLine
 62
7
  6
CONTINUOUS
 10
105.1378564953
 20
47.3786817651
 11
105.0862392653
 21
48.0712940735
  0
LWPOLYLINE
  5
453
100
AcDbEntity
  8
0
100
AcDbPolyline
 62
7
  6
CONTINUOUS
 90
3
 70
0
 10
105.135980946
 20
47.9414446785
 10
105.0851942255
 20
48.6246065942
 10
105.0790650399
 20
48.7100179691
  0
LINE
  5
454
100
AcDbEntity
  8
0
100
AcDbLine
 62
7
  6
CONTINUOUS
 10
105.1478906282
 20
48.3399917206
 11
105.1362008015
 21
48.4976698641
  0
LINE
  5
455
100
AcDbEntity
  8
0
100
AcDbLine
 62
7
  6
CONTINUOUS
 10
105.2986459969
 20
48.336523144
 11
105.2865854622
 21
48.4991148554
  0
LINE
  5
456
100
AcDbEntity
  8
0
100
AcDbLine
 62
7
  6
CONTINUOUS
 10
105.0862392653
 20
48.0712940735
 11
105.0617284781
 21
48.4176877651
  0
LINE
  5
457
100
AcDbEntity
  8
0
100
AcDbLine
 62
7
  6
CONTINUOUS
 10
105.037969763
 20
48.5644713362
 11
104.993957305
 21
49.1869747651
  0
LINE
  5
458
100
AcDbEntity
  8
0
100
AcDbLine
 62
7
  6
CONTINUOUS
 10
105.03394892
 20
49.1542654241
 11
105.2491586981
 21
46.3872714107
  0
LINE
  5
459
100
AcDbEntity
  8
0
100
AcDbLine
 62
7
  6
CONTINUOUS
 10
105.1281765729
 20
48.3545638899
 11
105.1344949312
 21
48.2646781522
  0
LINE
  5
45A
100
AcDbEntity
  8
ASSI
100
AcDbLine
 62
7
  6
CONTINUOUS
 10
105.1406632431
 20
49.2256881365
 11
105.1410630647
 21
49.2198151762
  0
LINE
  5
45B
100
AcDbEntity
  8
0
100
AcDbLine
 62
7
  6
CONTINUOUS
 10
105.157067205
 20
48.2074827962
 11
105.1478906282
 21
48.3399917206
  0
LINE
  5
45C
100
AcDbEntity
  8
0
100
AcDbLine
 62
7
  6
CONTINUOUS
 10
105.3082102489
 20
48.1980756414
 11
105.2986459969
 21
48.336523144
  0
LINE
  5
45D
100
AcDbEntity
  8
0
100
AcDbLine
 62
7
  6
CONTINUOUS
 10
105.0036934241
 20
49.1869747651
 11
105.0670892855
 21
48.253311754
  0
LINE
  5
45E
100
AcDbEntity
  8
0
100
AcDbLine
 62
7
  6
CONTINUOUS
 10
105.1344949312
 20
48.2646781522
 11
105.1388758294
 21
48.1978941639
  0
LINE
  5
45F
100
AcDbEntity
  8
0
100
AcDbLine
 62
7
  6
CONTINUOUS
 10
105.164264933
 20
48.0958256538
 11
105.157067205
 21
48.2074827962
  0
LINE
  5
460
100
AcDbEntity
  8
0
100
AcDbLine
 62
7
  6
CONTINUOUS
 10
105.3156236209
 20
48.0822947576
 11
105.3082102489
 21
48.1980756414
  0
LINE
  5
461
100
AcDbEntity
  8
0
100
AcDbLine
 62
7
  6
CONTINUOUS
 10
105.1388758294
 20
48.1978941639
 11
105.1426010759
 21
48.1367038697
  0
LINE
  5
462
100
AcDbEntity
  8
0
100
AcDbLine
 62
7
  6
CONTINUOUS
 10
105.1698213894
 20
48.0026443571
 11
105.164264933
 21
48.0958256538
  0
LINE
  5
463
100
AcDbEntity
  8
0
100
AcDbLine
 62
7
  6
CONTINUOUS
 10
105.321234528
 20
47.9870405298
 11
105.3156236209
 21
48.0822947576
  0
LINE
  5
464
100
AcDbEntity
  8
0
100
AcDbLine
 62
7
  6
CONTINUOUS
 10
105.1426010759
 20
48.1367038697
 11
105.1446317953
 21
48.1004175837
  0
LINE
  5
465
100
AcDbEntity
  8
0
100
AcDbLine
 62
7
  6
CONTINUOUS
 10
105.1730492435
 20
47.9441173844
 11
105.1698213894
 21
48.0026443571
  0
LWPOLYLINE
  5
466
100
AcDbEntity
  8
0
100
AcDbPolyline
 62
253
  6
CONTINUOUS
 90
3
 70
0
 10
105.3995887204
 20
154.879845543
 10
105.3976053799
 20
154.8545190496
 10
105.3976297427
 20
154.8448426493
  0
LWPOLYLINE
  5
467
100
AcDbEntity
  8
0
100
AcDbPolyline
 62
7
  6
CONTINUOUS
 90
5
 70
0
 10
105.1896961241
 20
47.6482265349
 10
105.1880003031
 20
47.6617318651
 10
105.1863930037
 20
47.6738186005
 10
105.1848626224
 20
47.6846240954
 10
105.1834092207
 20
47.6941483282
  0
LWPOLYLINE
  5
468
100
AcDbEntity
  8
0
100
AcDbPolyline
 62
7
  6
CONTINUOUS
 90
5
 70
0
 10
105.3422098257
 20
47.6319104438
 10
105.3400527128
 20
47.6497866417
 10
105.3379653715
 20
47.6659845926
 10
105.3359315694
 20
47.6807718324
 10
105.3339518883
 20
47.6941483282
  0
LINE
  5
469
100
AcDbEntity
  8
0
100
AcDbLine
 62
7
  6
CONTINUOUS
 10
105.1925362631
 20
47.4151349191
 11
105.1956222118
 21
47.3881138108
  0
LWPOLYLINE
  5
46A
100
AcDbEntity
  8
0
100
AcDbPolyline
 62
7
  6
CONTINUOUS
 90
3
 70
0
 10
105.195135406
 20
47.6013009603
 10
105.1932837904
 20
47.6177844738
 10
105.1896961241
 20
47.6482265349
  0
LINE
  5
46B
100
AcDbEntity
  8
0
100
AcDbLine
 62
7
  6
CONTINUOUS
 10
105.3466318393
 20
47.5927289011
 11
105.3422098257
 21
47.6319104438
  0
LWPOLYLINE
  5
46C
100
AcDbEntity
  8
0
100
AcDbPolyline
 62
7
  6
CONTINUOUS
 90
7
 70
0
 10
105.2414344496
 20
49.0058933077
 10
105.2384650324
 20
49.0327113448
 10
105.235710437
 20
49.0564665579
 10
105.2331612469
 20
49.0774959596
 10
105.2308134618
 20
49.0959118426
 10
105.2286686547
 20
49.1116017667
 10
105.2267258515
 20
49.1245656728
  0
LINE
  5
46D
100
AcDbEntity
  8
0
100
AcDbLine
 62
253
  6
CONTINUOUS
 10
104.872045435
 20
98.0740533883
 11
104.8768815009
 21
98.0248597562
  0
LINE
  5
46E
100
AcDbEntity
  8
0
100
AcDbLine
 62
7
  6
CONTINUOUS
 10
104.875688924
 20
97.9979878133
 11
104.8775082069
 21
97.978875909
  0
LINE
  5
46F
100
AcDbEntity
  8
0
100
AcDbLine
 62
7
  6
CONTINUOUS
 10
104.8775420513
 20
97.9785191554
 11
104.8799246706
 21
97.9521055514
  0
LINE
  5
470
100
AcDbEntity
  8
0
100
AcDbLine
 62
253
  6
CONTINUOUS
 10
104.8768815009
 20
98.0248597562
 11
104.8816392163
 21
97.9712611536
  0
LWPOLYLINE
  5
471
100
AcDbEntity
  8
0
100
AcDbPolyline
 62
7
  6
CONTINUOUS
 90
15
 70
0
 10
104.8799246706
 20
97.9521055514
 10
104.8839525135
 20
97.9037222522
 10
104.8878673967
 20
97.8517523732
 10
104.8916336861
 20
97.7964078443
 10
104.8952139476
 20
97.7379253383
 10
104.8985832686
 20
97.6764992838
 10
104.9017162514
 20
97.6123103195
 10
104.9045840295
 20
97.5455575315
 10
104.9071677153
 20
97.476449517
 10
104.9094491359
 20
97.4052211318
 10
104.9114020342
 20
97.3321176171
 10
104.9130098687
 20
97.2573962316
 10
104.9142625696
 20
97.1813086414
 10
104.9151431575
 20
97.104099691
 10
104.9156420985
 20
97.0260324842
  0
LINE
  5
472
100
AcDbEntity
  8
0
100
AcDbLine
 62
253
  6
CONTINUOUS
 10
104.8816392163
 20
97.9712611536
 11
104.8861733794
 21
97.9145283784
  0
LINE
  5
473
100
AcDbEntity
  8
RACCORDO
100
AcDbLine
 62
253
  6
CONTINUOUS
 10
106.961095085
 20
44.4574516079
 11
106.864773439
 21
45.7145846653
  0
LINE
  5
474
100
AcDbEntity
  8
RACCORDO
100
AcDbLine
 62
253
  6
CONTINUOUS
 10
107.2383553103
 20
44.4444736014
 11
107.1422006054
 21
45.7127618357
  0
LINE
  5
475
100
AcDbEntity
  8
RACCORDO
100
AcDbLine
 62
253
  6
CONTINUOUS
 10
106.864773439
 20
45.7145846653
 11
106.7998933803
 21
46.6027461723
  0
LINE
  5
476
100
AcDbEntity
  8
RACCORDO
100
AcDbLine
 62
253
  6
CONTINUOUS
 10
107.1422006054
 20
45.7127618357
 11
107.0774126885
 21
46.6029494238
  0
LWPOLYLINE
  5
477
100
AcDbEntity
  8
0
100
AcDbPolyline
 62
253
  6
CONTINUOUS
 90
13
 70
0
 10
104.8861733794
 20
97.9145283784
 10
104.8904745018
 20
97.8546614307
 10
104.8945486718
 20
97.7914308364
 10
104.8983728524
 20
97.7250660695
 10
104.9018935321
 20
97.6562555521
 10
104.9050992834
 20
97.5849032581
 10
104.9079858887
 20
97.5111052136
 10
104.9105099067
 20
97.4358379183
 10
104.9126564534
 20
97.3590661359
 10
104.9144285701
 20
97.2808251028
 10
104.9158103039
 20
97.2021970282
 10
104.9167942613
 20
97.1235426486
 10
104.9173817551
 20
97.0445012276
  0
LINE
  5
478
100
AcDbEntity
  8
RACCORDO
100
AcDbLine
 62
253
  6
CONTINUOUS
 10
106.7998933803
 20
46.6027461723
 11
106.7381899991
 21
47.4917841405
  0
LINE
  5
479
100
AcDbEntity
  8
RACCORDO
100
AcDbLine
 62
253
  6
CONTINUOUS
 10
107.0774126885
 20
46.6029494238
 11
107.0158060176
 21
47.4940308899
  0
LINE
  5
47A
100
AcDbEntity
  8
RACCORDO
100
AcDbLine
 62
253
  6
CONTINUOUS
 10
107.2893277219
 20
43.6933339762
 11
107.2383553103
 21
44.4444736014
  0
LINE
  5
47B
100
AcDbEntity
  8
RACCORDO
100
AcDbLine
 62
253
  6
CONTINUOUS
 10
106.7381899991
 20
47.4917841405
 11
106.6796529527
 21
48.3816316232
  0
LINE
  5
47C
100
AcDbEntity
  8
RACCORDO
100
AcDbLine
 62
253
  6
CONTINUOUS
 10
107.0158060176
 20
47.4940308899
 11
106.9573585313
 21
48.3859529141
  0
LINE
  5
47D
100
AcDbEntity
  8
RACCORDO
100
AcDbLine
 62
253
  6
CONTINUOUS
 10
106.6796529527
 20
48.3816316232
 11
106.6257511896
 21
49.2513913603
  0
LINE
  5
47E
100
AcDbEntity
  8
RACCORDO
100
AcDbLine
 62
253
  6
CONTINUOUS
 10
106.9573585313
 20
48.3859529141
 11
106.9035514766
 21
49.2561281911
  0
LWPOLYLINE
  5
47F
100
AcDbEntity
  8
0
100
AcDbPolyline
 62
253
  6
CONTINUOUS
 90
3
 70
0
 10
105.3931754174
 20
52.4787689218
 10
105.3914155716
 20
52.5088390762
 10
105.3918065551
 20
52.5275713734
  0
LINE
  5
480
100
AcDbEntity
  8
RACCORDO
100
AcDbLine
 62
253
  6
CONTINUOUS
 10
107.3330990387
 20
42.9547573055
 11
107.2893277219
 21
43.6933339762
  0
LINE
  5
481
100
AcDbEntity
  8
RACCORDO
100
AcDbLine
 62
253
  6
CONTINUOUS
 10
106.6257511896
 20
49.2513913603
 11
106.5776440419
 21
50.1007020375
  0
LINE
  5
482
100
AcDbEntity
  8
RACCORDO
100
AcDbLine
 62
253
  6
CONTINUOUS
 10
106.9035514766
 20
49.2561281911
 11
106.8555243158
 21
50.1042410217
  0
LINE
  5
483
100
AcDbEntity
  8
0
100
AcDbLine
 62
7
  6
CONTINUOUS
 10
105.3244478131
 20
47.9276062641
 11
105.321234528
 21
47.9870405298
  0
LWPOLYLINE
  5
484
100
AcDbEntity
  8
0
100
AcDbPolyline
 62
253
  6
CONTINUOUS
 90
10
 70
0
 10
105.3931712901
 20
52.4787687302
 10
105.4899097955
 20
50.6291650035
 10
105.6094010099
 20
48.7808992755
 10
105.7516267466
 20
46.9342531081
 10
105.916565992
 20
45.089508185
 10
106.1041929864
 20
43.2469451635
 10
106.3144772927
 20
41.4068436357
 10
106.5473863387
 20
39.5694835594
 10
106.8028853561
 20
37.7351452105
 10
107.0809355091
 20
35.9041080381
  0
LWPOLYLINE
  5
485
100
AcDbEntity
  8
RACCORDO
100
AcDbPolyline
 62
253
  6
CONTINUOUS
 90
7
 70
0
 10
107.0924435887
 20
42.3032941044
 10
107.0750392812
 20
42.6528372498
 10
107.0558426692
 20
43.0068470069
 10
107.0348321868
 20
43.3652498485
 10
107.0120503086
 20
43.7266411271
 10
106.9874874258
 20
44.0905521914
 10
106.961095085
 20
44.4574516079
  0
LINE
  5
486
100
AcDbEntity
  8
RACCORDO
100
AcDbLine
 62
253
  6
CONTINUOUS
 10
106.5776440419
 20
50.1007020375
 11
106.5342285327
 21
50.9502932986
  0
LINE
  5
487
100
AcDbEntity
  8
RACCORDO
100
AcDbLine
 62
253
  6
CONTINUOUS
 10
106.8555243158
 20
50.1042410217
 11
106.81217939
 21
50.95264443
  0
LINE
  5
488
100
AcDbEntity
  8
0
100
AcDbLine
 62
7
  6
CONTINUOUS
 10
105.1755873033
 20
47.8943058392
 11
105.1730492435
 21
47.9441173844
  0
LINE
  5
489
100
AcDbEntity
  8
0
100
AcDbLine
 62
7
  6
CONTINUOUS
 10
105.1446317953
 20
48.1004175837
 11
105.146279353
 21
48.0680412507
  0
LINE
  5
48A
100
AcDbEntity
  8
RACCORDO
100
AcDbLine
 62
253
  6
CONTINUOUS
 10
107.3697568802
 20
42.2324658135
 11
107.3330990387
 21
42.9547573055
  0
LINE
  5
48B
100
AcDbEntity
  8
0
100
AcDbLine
 62
7
  6
CONTINUOUS
 10
105.326934427
 20
47.8773267284
 11
105.3244478131
 21
47.9276062641
  0
LINE
  5
48C
100
AcDbEntity
  8
RACCORDO
100
AcDbLine
 62
253
  6
CONTINUOUS
 10
106.5342285327
 20
50.9502932986
 11
106.4955044439
 21
51.8001656972
  0
LINE
  5
48D
100
AcDbEntity
  8
RACCORDO
100
AcDbLine
 62
253
  6
CONTINUOUS
 10
106.81217939
 20
50.95264443
 11
106.7735166281
 21
51.8013218979
  0
LINE
  5
48E
100
AcDbEntity
  8
0
100
AcDbLine
 62
7
  6
CONTINUOUS
 10
105.3928781628
 20
154.9806450348
 11
105.3941945467
 21
154.9505311912
  0
LINE
  5
48F
100
AcDbEntity
  8
0
100
AcDbLine
 62
7
  6
CONTINUOUS
 10
105.1780887026
 20
47.839614714
 11
105.1755873033
 21
47.8943058392
  0
LINE
  5
490
100
AcDbEntity
  8
0
100
AcDbLine
 62
253
  6
CONTINUOUS
 10
105.3941328027
 20
155.0319128936
 11
105.3958660633
 21
154.9932038688
  0
LWPOLYLINE
  5
491
100
AcDbEntity
  8
0
100
AcDbPolyline
 62
7
  6
CONTINUOUS
 90
18
 70
0
 10
105.146279353
 20
48.0680412507
 10
105.1475308783
 20
48.0396375941
 10
105.1480066308
 20
48.0269511241
 10
105.1483772622
 20
48.0153383195
 10
105.148647266
 20
48.004744982
 10
105.1488281294
 20
47.9950363769
 10
105.1489204163
 20
47.9861839732
 10
105.1489238522
 20
47.9782162772
 10
105.1488486501
 20
47.9710841149
 10
105.1486924302
 20
47.9647908896
 10
105.1484578635
 20
47.9593331809
 10
105.1481625138
 20
47.9546515815
 10
105.1478051868
 20
47.950774307
 10
105.1473870734
 20
47.9476731316
 10
105.1469290124
 20
47.9452039894
 10
105.1464378185
 20
47.9433188572
 10
105.1459064371
 20
47.9420657539
 10
105.1453347769
 20
47.9414446785
  0
LWPOLYLINE
  5
492
100
AcDbEntity
  8
0
100
AcDbPolyline
 62
253
  6
CONTINUOUS
 90
7
 70
0
 10
104.8111200706
 20
98.3453192934
 10
104.8129043148
 20
98.3029459458
 10
104.8182640749
 20
98.2608774334
 10
104.8271607871
 20
98.219416442
 10
104.8395304389
 20
98.1788612865
 10
104.8552840298
 20
98.1395037639
 10
104.8596205178
 20
98.1308699157
  0
LINE
  5
493
100
AcDbEntity
  8
0
100
AcDbLine
 62
7
  6
CONTINUOUS
 10
105.3293503644
 20
47.822421858
 11
105.326934427
 21
47.8773267284
  0
LINE
  5
494
100
AcDbEntity
  8
RACCORDO
100
AcDbLine
 62
253
  6
CONTINUOUS
 10
107.1220468251
 20
41.6185556051
 11
107.0924435887
 21
42.3032941044
  0
LINE
  5
495
100
AcDbEntity
  8
0
100
AcDbLine
 62
7
  6
CONTINUOUS
 10
105.2896787015
 20
55.8989158847
 11
105.3882785023
 21
53.4940499641
  0
LINE
  5
496
100
AcDbEntity
  8
RACCORDO
100
AcDbLine
 62
253
  6
CONTINUOUS
 10
107.3994191521
 20
41.5299150663
 11
107.3697568802
 21
42.2324658135
  0
LINE
  5
497
100
AcDbEntity
  8
0
100
AcDbLine
 62
7
  6
CONTINUOUS
 10
105.1802998268
 20
47.7849557012
 11
105.1780887026
 21
47.839614714
  0
LINE
  5
498
100
AcDbEntity
  8
RACCORDO
100
AcDbLine
 62
253
  6
CONTINUOUS
 10
106.4955044439
 20
51.8001656972
 11
106.461471659
 21
52.6502988807
  0
LINE
  5
499
100
AcDbEntity
  8
RACCORDO
100
AcDbLine
 62
253
  6
CONTINUOUS
 10
106.7735166281
 20
51.8013218979
 11
106.7395360126
 21
52.6502684305
  0
LWPOLYLINE
  5
49A
100
AcDbEntity
  8
0
100
AcDbPolyline
 62
7
  6
CONTINUOUS
 90
3
 70
0
 10
105.3941945467
 20
154.9505311912
 10
105.3954165206
 20
154.9184590605
 10
105.3965316581
 20
154.8844791727
  0
LWPOLYLINE
  5
49B
100
AcDbEntity
  8
0
100
AcDbPolyline
 62
7
  6
CONTINUOUS
 90
12
 70
0
 10
105.3882785023
 20
53.4940499641
 10
105.3912012623
 20
53.4166913596
 10
105.3937223773
 20
53.3400427344
 10
105.3958360623
 20
53.2643709501
 10
105.3975468679
 20
53.1899298553
 10
105.3988519078
 20
53.1169862227
 10
105.3997496427
 20
53.0458051641
 10
105.4002520243
 20
52.9766403674
 10
105.4003701962
 20
52.9097406523
 10
105.4001095481
 20
52.8453286549
 10
105.3994856648
 20
52.7836278629
 10
105.3985167049
 20
52.7248728413
  0
LINE
  5
49C
100
AcDbEntity
  8
0
100
AcDbLine
 62
7
  6
CONTINUOUS
 10
105.3318715586
 20
47.7576144211
 11
105.3293503644
 21
47.822421858
  0
LINE
  5
49D
100
AcDbEntity
  8
0
100
AcDbLine
 62
253
  6
CONTINUOUS
 10
105.3958660633
 20
154.9932038688
 11
105.3973311686
 21
154.954711123
  0
LINE
  5
49E
100
AcDbEntity
  8
0
100
AcDbLine
 62
7
  6
CONTINUOUS
 10
105.2017099112
 20
58.3287545795
 11
105.2898173368
 21
55.8955331701
  0
LWPOLYLINE
  5
49F
100
AcDbEntity
  8
0
100
AcDbPolyline
 62
253
  6
CONTINUOUS
 90
10
 70
0
 10
105.391304964
 20
53.463918562
 10
105.3941620115
 20
53.3845077784
 10
105.3966097955
 20
53.3051904241
 10
105.3986687252
 20
53.2254504516
 10
105.4003252132
 20
53.1458039156
 10
105.4015306541
 20
53.0677989378
 10
105.4022694072
 20
52.991471376
 10
105.4025687412
 20
52.9167853083
 10
105.402442976
 20
52.8451811264
 10
105.4019001445
 20
52.7771389107
  0
LWPOLYLINE
  5
4A0
100
AcDbEntity
  8
RACCORDO
100
AcDbPolyline
 62
253
  6
CONTINUOUS
 90
10
 70
0
 10
106.46147166
 20
52.6502988807
 10
106.3732429728
 20
55.1587281698
 10
106.2954784528
 20
57.6681140561
 10
106.22813683
 20
60.1783939164
 10
106.1711838328
 20
62.6891443132
 10
106.1245863872
 20
65.2006631201
 10
106.0883307314
 20
67.7139699312
 10
106.0624217662
 20
70.2293628778
 10
106.0468650587
 20
72.7464182215
 10
106.0416736252
 20
75.2650727651
  0
LWPOLYLINE
  5
4A1
100
AcDbEntity
  8
RACCORDO
100
AcDbPolyline
 62
253
  6
CONTINUOUS
 90
10
 70
0
 10
106.7395360126
 20
52.6502684305
 10
106.6513507559
 20
55.1587133552
 10
106.5735592293
 20
57.6680996289
 10
106.506161433
 20
60.1783723814
 10
106.4491713737
 20
62.6891235447
 10
106.4025750446
 20
65.2006511415
 10
106.3663304253
 20
67.7139596342
 10
106.3404235089
 20
70.2293472259
 10
106.3248683023
 20
72.746405513
 10
106.3196648053
 20
75.265079017
  0
LINE
  5
4A2
100
AcDbEntity
  8
0
100
AcDbLine
 62
7
  6
CONTINUOUS
 10
105.1819158188
 20
47.7408062534
 11
105.1802998268
 21
47.7849557012
  0
LINE
  5
4A3
100
AcDbEntity
  8
RACCORDO
100
AcDbLine
 62
253
  6
CONTINUOUS
 10
107.1448871263
 20
40.9561524769
 11
107.1220468251
 21
41.6185556051
  0
LINE
  5
4A4
100
AcDbEntity
  8
RACCORDO
100
AcDbLine
 62
253
  6
CONTINUOUS
 10
107.4223418474
 20
40.8502627278
 11
107.3994191521
 21
41.5299150663
  0
LINE
  5
4A5
100
AcDbEntity
  8
0
100
AcDbLine
 62
253
  6
CONTINUOUS
 10
105.3973311686
 20
154.954711123
 11
105.3985684417
 21
154.9168873667
  0
LINE
  5
4A6
100
AcDbEntity
  8
0
100
AcDbLine
 62
7
  6
CONTINUOUS
 10
105.1255179567
 20
60.7589979703
 11
105.2019350912
 21
58.3220893162
  0
LINE
  5
4A7
100
AcDbEntity
  8
0
100
AcDbLine
 62
253
  6
CONTINUOUS
 10
105.3985684417
 20
154.9168873667
 11
105.3995830047
 21
154.8798458017
  0
LINE
  5
4A8
100
AcDbEntity
  8
0
100
AcDbLine
 62
7
  6
CONTINUOUS
 10
105.0611050995
 20
63.1895806152
 11
105.1257108399
 21
60.7523314246
  0
LINE
  5
4A9
100
AcDbEntity
  8
0
100
AcDbLine
 62
7
  6
CONTINUOUS
 10
105.3965316581
 20
154.8844791727
 11
105.3976249291
 21
154.8448425255
  0
LINE
  5
4AA
100
AcDbEntity
  8
RACCORDO
100
AcDbLine
 62
253
  6
CONTINUOUS
 10
107.1613131922
 20
40.3192234466
 11
107.1448871263
 21
40.9561524769
  0
LINE
  5
4AB
100
AcDbEntity
  8
RACCORDO
100
AcDbLine
 62
253
  6
CONTINUOUS
 10
107.4389431413
 20
40.1963553534
 11
107.4223418474
 21
40.8502627278
  0
LINE
  5
4AC
100
AcDbEntity
  8
0
100
AcDbLine
 62
7
  6
CONTINUOUS
 10
105.3976311052
 20
154.8447881473
 11
105.398380311
 21
154.8119809212
  0
LINE
  5
4AD
100
AcDbEntity
  8
0
100
AcDbLine
 62
253
  6
CONTINUOUS
 10
105.3995830047
 20
154.8798458017
 11
105.4009445101
 21
154.8179501591
  0
LINE
  5
4AE
100
AcDbEntity
  8
0
100
AcDbLine
 62
7
  6
CONTINUOUS
 10
105.0084726858
 20
65.6204479478
 11
105.0612656714
 21
63.1829131619
  0
LWPOLYLINE
  5
4AF
100
AcDbEntity
  8
0
100
AcDbPolyline
 62
7
  6
CONTINUOUS
 90
11
 70
0
 10
105.398380311
 20
154.8119809212
 10
105.3993890876
 20
154.7536004097
 10
105.4000544705
 20
154.6922422261
 10
105.4003589448
 20
154.6281400996
 10
105.400285863
 20
154.5615165763
 10
105.3998291217
 20
154.492592658
 10
105.3989784132
 20
154.4216143831
 10
105.3977206459
 20
154.3488345547
 10
105.3960560205
 20
154.2745171454
 10
105.3939882827
 20
154.1989291084
 10
105.3915123977
 20
154.122325773
  0
LINE
  5
4B0
100
AcDbEntity
  8
0
100
AcDbLine
 62
7
  6
CONTINUOUS
 10
104.9676217865
 20
68.0515501226
 11
105.0086009419
 21
65.6137798323
  0
LINE
  5
4B1
100
AcDbEntity
  8
RACCORDO
100
AcDbLine
 62
253
  6
CONTINUOUS
 10
107.1717469851
 20
39.7097299584
 11
107.1613131922
 21
40.3192234466
  0
LINE
  5
4B2
100
AcDbEntity
  8
0
100
AcDbLine
 62
253
  6
CONTINUOUS
 10
105.4009445101
 20
154.8179501591
 11
105.4019003804
 21
154.752976255
  0
LINE
  5
4B3
100
AcDbEntity
  8
0
100
AcDbLine
 62
7
  6
CONTINUOUS
 10
104.9385534624
 20
70.4828336288
 11
104.9677177216
 21
68.0448815676
  0
LWPOLYLINE
  5
4B4
100
AcDbEntity
  8
RACCORDO
100
AcDbPolyline
 62
253
  6
CONTINUOUS
 90
3
 70
0
 10
107.4527340075
 20
39.2696802338
 10
107.4495210786
 20
39.5710041626
 10
107.4389431413
 20
40.1963553534
  0
LWPOLYLINE
  5
4B5
100
AcDbEntity
  8
0
100
AcDbPolyline
 62
253
  6
CONTINUOUS
 90
11
 70
0
 10
105.4019003804
 20
154.752976255
 10
105.4024431738
 20
154.6849240365
 10
105.402568713
 20
154.6133132157
 10
105.4022690278
 20
154.5386239621
 10
105.401530009
 20
154.4622969354
 10
105.400324456
 20
154.3842974969
 10
105.3986679368
 20
154.3046602214
 10
105.3966090645
 20
154.2249296489
 10
105.3941614318
 20
154.1456206407
 10
105.3913046277
 20
154.0662183428
 10
105.2857815734
 20
151.4826091433
  0
LWPOLYLINE
  5
4B6
100
AcDbEntity
  8
0
100
AcDbPolyline
 62
253
  6
CONTINUOUS
 90
3
 70
0
 10
104.8768858176
 20
109.5052857741
 10
104.8766339956
 20
109.538908324
 10
104.8775324879
 20
109.5515309119
  0
LINE
  5
4B7
100
AcDbEntity
  8
0
100
AcDbLine
 62
7
  6
CONTINUOUS
 10
104.9212683716
 20
72.9142343826
 11
104.938617074
 21
70.4761648992
  0
LWPOLYLINE
  5
4B8
100
AcDbEntity
  8
0
100
AcDbPolyline
 62
253
  6
CONTINUOUS
 90
7
 70
0
 10
105.3442536892
 20
52.183983921
 10
105.3440500546
 20
52.2277326749
 10
105.3476617523
 20
52.2713309506
 10
105.355061131
 20
52.3144449578
 10
105.3661915408
 20
52.3567446141
 10
105.3809677667
 20
52.3979060716
 10
105.3825465505
 20
52.4013301165
  0
LINE
  5
4B9
100
AcDbEntity
  8
0
100
AcDbLine
 62
7
  6
CONTINUOUS
 10
104.915760542
 20
75.2650727651
 11
104.9212996621
 21
72.9075658766
  0
LWPOLYLINE
  5
4BA
100
AcDbEntity
  8
0
100
AcDbPolyline
 62
253
  6
CONTINUOUS
 90
10
 70
0
 10
104.9175712847
 20
75.2650745703
 10
104.9229667727
 20
72.937909098
 10
104.9393617541
 20
70.5890484125
 10
104.9670601778
 20
68.2185461499
 10
105.0063664651
 20
65.8264964921
 10
105.057591242
 20
63.4129213201
 10
105.1210531112
 20
60.9777703182
 10
105.1970701351
 20
58.5210715888
 10
105.285958007
 20
56.0429316814
 10
105.3880370383
 20
53.5434227748
  0
LINE
  5
4BB
100
AcDbEntity
  8
ASSI
100
AcDbLine
 62
7
  6
CONTINUOUS
 10
104.4368815009
 20
109.170352347
 11
104.4368815009
 21
98.3597931832
  0
LINE
  5
4BC
100
AcDbEntity
  8
0
100
AcDbLine
 62
253
  6
CONTINUOUS
 10
104.8768815009
 20
109.505285774
 11
104.8768815009
 21
98.0248597562
  0
LINE
  5
4BD
100
AcDbEntity
  8
0
100
AcDbLine
 62
7
  6
CONTINUOUS
 10
104.9156420985
 20
97.0260324842
 11
104.9157605417
 21
75.2650727651
  0
LINE
  5
4BE
100
AcDbEntity
  8
0
100
AcDbLine
 62
253
  6
CONTINUOUS
 10
104.9173817551
 20
97.0445012276
 11
104.9175712847
 21
75.2650745703
  0
LINE
  5
4BF
100
AcDbEntity
  8
RACCORDO
100
AcDbLine
 62
253
  6
CONTINUOUS
 10
106.0416736252
 20
75.2650727651
 11
106.0416736252
 21
132.2650727651
  0
LINE
  5
4C0
100
AcDbEntity
  8
RACCORDO
100
AcDbLine
 62
253
  6
CONTINUOUS
 10
106.319664844
 20
75.265079017
 11
106.319664844
 21
132.2650666239
  0
LWPOLYLINE
  5
4C1
100
AcDbEntity
  8
0
100
AcDbPolyline
 62
7
  6
CONTINUOUS
 90
16
 70
0
 10
104.9157605417
 20
132.2650727651
 10
104.915674364
 20
110.5129569472
 10
104.9152193402
 20
110.4349034261
 10
104.9143831098
 20
110.3576683158
 10
104.9131737792
 20
110.2815143916
 10
104.9116080251
 20
110.2066856632
 10
104.9096964246
 20
110.1334340975
 10
104.9074539531
 20
110.0620175863
 10
104.904906214
 20
109.9926818396
 10
104.9020725871
 20
109.9256638901
 10
104.8989706637
 20
109.8611739469
 10
104.8956282662
 20
109.7994127496
 10
104.8920719025
 20
109.7405653254
 10
104.8883256268
 20
109.6848270251
 10
104.8844255767
 20
109.6324331162
 10
104.8804083707
 20
109.5835960438
  0
LWPOLYLINE
  5
4C2
100
AcDbEntity
  8
RACCORDO
100
AcDbPolyline
 62
253
  6
CONTINUOUS
 90
17
 70
0
 10
107.1766311649
 20
168.3997871836
 10
107.1771468577
 20
168.6771486454
 10
107.1764520042
 20
168.9460016546
 10
107.1746366332
 20
169.20630093
 10
107.1717665353
 20
169.4568638058
 10
107.1679008009
 20
169.6975552715
 10
107.1631210516
 20
169.9285228412
 10
107.1574993219
 20
170.1490088691
 10
107.1510904595
 20
170.3591016247
 10
107.1439854207
 20
170.5587253611
 10
107.1362757439
 20
170.7468772493
 10
107.127995146
 20
170.9234926947
 10
107.1192304156
 20
171.0886486237
 10
107.1100999461
 20
171.2415550635
 10
107.1006554384
 20
171.3819525467
 10
107.0909184183
 20
171.5101116404
 10
107.0809355231
 20
171.6260372351
  0
LWPOLYLINE
  5
4C3
100
AcDbEntity
  8
RACCORDO
100
AcDbPolyline
 62
253
  6
CONTINUOUS
 90
9
 70
0
 10
106.0416736252
 20
132.2650727651
 10
106.0468650783
 20
134.7837327922
 10
106.0624218478
 20
137.3007928564
 10
106.0883309064
 20
139.8161897599
 10
106.1245866839
 20
142.3295005706
 10
106.1711842681
 20
144.8410226131
 10
106.2281373611
 20
147.3517730637
 10
106.2954789694
 20
149.8620489913
 10
106.3732433297
 20
152.3714277663
  0
LWPOLYLINE
  5
4C4
100
AcDbEntity
  8
RACCORDO
100
AcDbPolyline
 62
253
  6
CONTINUOUS
 90
9
 70
0
 10
106.319664806
 20
132.2650666239
 10
106.3248683412
 20
134.7837455801
 10
106.3404236062
 20
137.3008085642
 10
106.3663306011
 20
139.8162000974
 10
106.4025753587
 20
142.3295125912
 10
106.4491718461
 20
144.8410434334
 10
106.5061619651
 20
147.351794642
 10
106.5735596827
 20
149.8620634263
 10
106.6513510319
 20
152.3714425348
  0
LWPOLYLINE
  5
4C5
100
AcDbEntity
  8
RACCORDO
100
AcDbPolyline
 62
253
  6
CONTINUOUS
 90
3
 70
0
 10
107.4546453052
 20
38.4156107776
 10
107.4552071556
 20
38.6916927014
 10
107.4527340075
 20
39.2696802338
  0
LWPOLYLINE
  5
4C6
100
AcDbEntity
  8
0
100
AcDbPolyline
 62
253
  6
CONTINUOUS
 90
14
 70
0
 10
104.9175712847
 20
132.2650710213
 10
104.9173817553
 20
110.4856443019
 10
104.9167942618
 20
110.4066028806
 10
104.9158103044
 20
110.327948501
 10
104.9144285704
 20
110.249320427
 10
104.9126564533
 20
110.1710793948
 10
104.9105099065
 20
110.094307613
 10
104.9079858885
 20
110.0190403174
 10
104.9050992834
 20
109.9452422721
 10
104.9018935322
 20
109.8738899776
 10
104.8983728524
 20
109.8050794604
 10
104.8945486718
 20
109.738714694
 10
104.8904745017
 20
109.6754841001
 10
104.8861733794
 20
109.6156171523
  0
LWPOLYLINE
  5
4C7
100
AcDbEntity
  8
0
100
AcDbPolyline
 62
253
  6
CONTINUOUS
 90
7
 70
0
 10
105.3442571555
 20
155.3461614415
 10
105.3440530673
 20
155.3024125676
 10
105.3476643376
 20
155.2588141359
 10
105.3550633181
 20
155.2156999419
 10
105.366193361
 20
155.1734000742
 10
105.3809692533
 20
155.1322383866
 10
105.3825399287
 20
155.1288318506
  0
LWPOLYLINE
  5
4C8
100
AcDbEntity
  8
RACCORDO
100
AcDbPolyline
 62
253
  6
CONTINUOUS
 90
3
 70
0
 10
107.4527332169
 20
168.2603654616
 10
107.4545670278
 20
168.5535431024
 10
107.4546459529
 20
169.1143807386
  0
LWPOLYLINE
  5
4C9
100
AcDbEntity
  8
0
100
AcDbPolyline
 62
253
  6
CONTINUOUS
 90
3
 70
0
 10
104.8768866621
 20
98.0248597562
 10
104.8766347228
 20
97.9912371898
 10
104.8775331083
 20
97.9786152861
  0
LINE
  5
4CA
100
AcDbEntity
  8
RACCORDO
100
AcDbLine
 62
253
  6
CONTINUOUS
 10
107.1717468099
 20
167.8204017132
 11
107.1766311649
 21
168.3997871836
  0
LINE
  5
4CB
100
AcDbEntity
  8
0
100
AcDbLine
 62
253
  6
CONTINUOUS
 10
105.4019001445
 20
52.7771389107
 11
105.4009443435
 21
52.7121784623
  0
LINE
  5
4CC
100
AcDbEntity
  8
RACCORDO
100
AcDbLine
 62
253
  6
CONTINUOUS
 10
107.4449206281
 20
167.6500643671
 11
107.4527332169
 21
168.2603654616
  0
LINE
  5
4CD
100
AcDbEntity
  8
RACCORDO
100
AcDbLine
 62
253
  6
CONTINUOUS
 10
107.1613134885
 20
167.2109373246
 11
107.1717468099
 21
167.8204017132
  0
LINE
  5
4CE
100
AcDbEntity
  8
0
100
AcDbLine
 62
253
  6
CONTINUOUS
 10
105.4009443435
 20
52.7121784623
 11
105.3995830047
 21
52.6502997284
  0
LINE
  5
4CF
100
AcDbEntity
  8
0
100
AcDbLine
 62
7
  6
CONTINUOUS
 10
105.3985167049
 20
52.7248728413
 11
105.3976310104
 21
52.6853601101
  0
LINE
  5
4D0
100
AcDbEntity
  8
RACCORDO
100
AcDbLine
 62
253
  6
CONTINUOUS
 10
107.4314186957
 20
167.0102004182
 11
107.4449206281
 21
167.6500643671
  0
LWPOLYLINE
  5
4D1
100
AcDbEntity
  8
0
100
AcDbPolyline
 62
7
  6
CONTINUOUS
 90
3
 70
0
 10
105.3976249841
 20
52.6853051739
 10
105.3967181245
 20
52.6519111335
 10
105.3956256446
 20
52.6176685125
  0
LINE
  5
4D2
100
AcDbEntity
  8
RACCORDO
100
AcDbLine
 62
253
  6
CONTINUOUS
 10
107.1448883008
 20
166.5740324041
 11
107.1613134885
 21
167.2109373246
  0
LINE
  5
4D3
100
AcDbEntity
  8
RACCORDO
100
AcDbLine
 62
253
  6
CONTINUOUS
 10
107.4117179502
 20
166.3430845232
 11
107.4314186957
 21
167.0102004182
  0
LINE
  5
4D4
100
AcDbEntity
  8
0
100
AcDbLine
 62
253
  6
CONTINUOUS
 10
105.3995830047
 20
52.6502997284
 11
105.3979768501
 21
52.594493019
  0
LWPOLYLINE
  5
4D5
100
AcDbEntity
  8
0
100
AcDbPolyline
 62
253
  6
CONTINUOUS
 90
9
 70
0
 10
105.2857815734
 20
151.4826091433
 10
105.1968011352
 20
149.001014196
 10
105.1207579396
 20
146.5420109717
 10
105.0573191766
 20
144.1057066035
 10
105.0061498575
 20
141.6921298207
 10
104.9669146398
 20
139.3012309848
 10
104.9392865706
 20
136.9330322707
 10
104.922945321
 20
134.5876277778
 10
104.9175712847
 20
132.2650710213
  0
LWPOLYLINE
  5
4D6
100
AcDbEntity
  8
0
100
AcDbPolyline
 62
7
  6
CONTINUOUS
 90
9
 70
0
 10
105.2899361587
 20
151.6378932053
 10
105.2019350912
 20
149.2080562139
 10
105.1257108399
 20
146.7778141055
 10
105.0612656714
 20
144.3472323682
 10
105.0086009419
 20
141.9163656978
 10
104.9677177216
 20
139.4852639625
 10
104.938617074
 20
137.0539806309
 10
104.9212996621
 20
134.6225796536
 10
104.915760542
 20
132.2650727651
  0
LINE
  5
4D7
100
AcDbEntity
  8
0
100
AcDbLine
 62
253
  6
CONTINUOUS
 10
105.3979768501
 20
52.594493019
 11
105.396633072
 21
52.5562615423
  0
LINE
  5
4D8
100
AcDbEntity
  8
RACCORDO
100
AcDbLine
 62
253
  6
CONTINUOUS
 10
107.1220492266
 20
165.9116516001
 11
107.1448883008
 21
166.5740324041
  0
LWPOLYLINE
  5
4D9
100
AcDbEntity
  8
0
100
AcDbPolyline
 62
7
  6
CONTINUOUS
 90
3
 70
0
 10
105.3956256446
 20
52.6176685125
 10
105.394424459
 20
52.585310141
 10
105.3931266667
 20
52.5548876077
  0
LINE
  5
4DA
100
AcDbEntity
  8
RACCORDO
100
AcDbLine
 62
253
  6
CONTINUOUS
 10
106.3732433297
 20
152.3714277663
 11
106.4779016703
 21
155.3049441788
  0
LINE
  5
4DB
100
AcDbEntity
  8
RACCORDO
100
AcDbLine
 62
253
  6
CONTINUOUS
 10
106.6513510319
 20
152.3714425348
 11
106.7559410692
 21
155.3043844983
  0
LINE
  5
4DC
100
AcDbEntity
  8
RACCORDO
100
AcDbLine
 62
253
  6
CONTINUOUS
 10
107.3854257545
 20
165.6515751765
 11
107.4117179502
 21
166.3430845232
  0
LINE
  5
4DD
100
AcDbEntity
  8
0
100
AcDbLine
 62
7
  6
CONTINUOUS
 10
105.3915123977
 20
154.122325773
 11
105.2898173368
 21
151.63461236
  0
LWPOLYLINE
  5
4DE
100
AcDbEntity
  8
0
100
AcDbPolyline
 62
253
  6
CONTINUOUS
 90
7
 70
0
 10
104.8111160599
 20
109.1848262367
 10
104.812900821
 20
109.2271994274
 10
104.8182610679
 20
109.2692677446
 10
104.8271582339
 20
109.3107285085
 10
104.8395283041
 20
109.3512834105
 10
104.8552822765
 20
109.3906406597
 10
104.8596298273
 20
109.3992963119
  0
LWPOLYLINE
  5
4DF
100
AcDbEntity
  8
0
100
AcDbPolyline
 62
253
  6
CONTINUOUS
 90
3
 70
0
 10
105.396633072
 20
52.5562615423
 10
105.3950324905
 20
52.5176488161
 10
105.3941334149
 20
52.4982469371
  0
LINE
  5
4E0
100
AcDbEntity
  8
RACCORDO
100
AcDbLine
 62
253
  6
CONTINUOUS
 10
106.4779016703
 20
155.3049441788
 11
106.5142800798
 21
156.1549517684
  0
LINE
  5
4E1
100
AcDbEntity
  8
RACCORDO
100
AcDbLine
 62
253
  6
CONTINUOUS
 10
106.7559410692
 20
155.3043844983
 11
106.7922627864
 21
156.1531965416
  0
LINE
  5
4E2
100
AcDbEntity
  8
RACCORDO
100
AcDbLine
 62
253
  6
CONTINUOUS
 10
107.3523203333
 20
164.9387950818
 11
107.3854257545
 21
165.6515751765
  0
LINE
  5
4E3
100
AcDbEntity
  8
RACCORDO
100
AcDbLine
 62
253
  6
CONTINUOUS
 10
106.5142800798
 20
156.1549517684
 11
106.555349887
 21
157.004682252
  0
LINE
  5
4E4
100
AcDbEntity
  8
RACCORDO
100
AcDbLine
 62
253
  6
CONTINUOUS
 10
106.7922627864
 20
156.1531965416
 11
106.8332666299
 21
157.0017398096
  0
LWPOLYLINE
  5
4E5
100
AcDbEntity
  8
0
100
AcDbPolyline
 62
253
  6
CONTINUOUS
 90
10
 70
0
 10
105.3931712901
 20
155.0513768
 10
105.489909794
 20
156.9009805017
 10
105.6094010064
 20
158.7492462048
 10
105.7516267404
 20
160.5958923475
 10
105.9165659806
 20
162.4406372474
 10
106.1041929692
 20
164.283200246
 10
106.3144772749
 20
166.1233017467
 10
106.547386327
 20
167.9606617905
 10
106.802885355
 20
169.795000103
 10
107.0809355231
 20
171.6260372351
  0
LINE
  5
4E6
100
AcDbEntity
  8
RACCORDO
100
AcDbLine
 62
253
  6
CONTINUOUS
 10
106.8332666299
 20
157.0017398096
 11
106.8789526743
 21
157.8499980099
  0
LINE
  5
4E7
100
AcDbEntity
  8
RACCORDO
100
AcDbLine
 62
253
  6
CONTINUOUS
 10
106.555349887
 20
157.004682252
 11
106.601111142
 21
157.8541364329
  0
LINE
  5
4E8
100
AcDbEntity
  8
RACCORDO
100
AcDbLine
 62
253
  6
CONTINUOUS
 10
107.3121105563
 20
164.2078931968
 11
107.3523203333
 21
164.9387950818
  0
LWPOLYLINE
  5
4E9
100
AcDbEntity
  8
0
100
AcDbPolyline
 62
253
  6
CONTINUOUS
 90
3
 70
0
 10
105.3931713164
 20
155.0513767987
 10
105.3914119283
 20
155.0213067329
 10
105.3918032369
 20
155.0025735235
  0
LINE
  5
4EA
100
AcDbEntity
  8
RACCORDO
100
AcDbLine
 62
253
  6
CONTINUOUS
 10
106.601111142
 20
157.8541364329
 11
106.6515642704
 21
158.7032940033
  0
LINE
  5
4EB
100
AcDbEntity
  8
RACCORDO
100
AcDbLine
 62
253
  6
CONTINUOUS
 10
106.8789526743
 20
157.8499980099
 11
106.9293209383
 21
158.6979662136
  0
LINE
  5
4EC
100
AcDbEntity
  8
RACCORDO
100
AcDbLine
 62
253
  6
CONTINUOUS
 10
106.9293209144
 20
158.6979662135
 11
106.9861872512
 21
159.5902531923
  0
LINE
  5
4ED
100
AcDbEntity
  8
RACCORDO
100
AcDbLine
 62
253
  6
CONTINUOUS
 10
106.6515642704
 20
158.7032940033
 11
106.7085279253
 21
159.5935455353
  0
LINE
  5
4EE
100
AcDbEntity
  8
RACCORDO
100
AcDbLine
 62
253
  6
CONTINUOUS
 10
107.2647391789
 20
163.4625794068
 11
107.3121105563
 21
164.2078931968
  0
LINE
  5
4EF
100
AcDbEntity
  8
RACCORDO
100
AcDbLine
 62
253
  6
CONTINUOUS
 10
106.9861872512
 20
159.5902531923
 11
107.0462144241
 21
160.4817736199
  0
LINE
  5
4F0
100
AcDbEntity
  8
RACCORDO
100
AcDbLine
 62
253
  6
CONTINUOUS
 10
106.7085279253
 20
159.5935455353
 11
106.7686455061
 21
160.482995488
  0
LINE
  5
4F1
100
AcDbEntity
  8
RACCORDO
100
AcDbLine
 62
253
  6
CONTINUOUS
 10
107.0462144241
 20
160.4817736199
 11
107.1094080633
 21
161.3724111889
  0
LWPOLYLINE
  5
4F2
100
AcDbEntity
  8
RACCORDO
100
AcDbPolyline
 62
253
  6
CONTINUOUS
 90
8
 70
0
 10
106.9610984004
 20
163.0727456917
 10
106.9874932024
 20
163.4396823988
 10
107.0120575851
 20
163.8036162851
 10
107.0348394863
 20
164.1650116231
 10
107.0558487918
 20
164.5234040795
 10
107.0750442026
 20
164.8774019263
 10
107.0924476603
 20
165.2269355202
 10
107.1220492266
 20
165.9116516001
  0
LINE
  5
4F3
100
AcDbEntity
  8
RACCORDO
100
AcDbLine
 62
253
  6
CONTINUOUS
 10
106.7686455061
 20
160.482995488
 11
106.8319362116
 21
161.3716039527
  0
LINE
  5
4F4
100
AcDbEntity
  8
RACCORDO
100
AcDbLine
 62
253
  6
CONTINUOUS
 10
107.2101771034
 20
162.7065751088
 11
107.2647391789
 21
163.4625794068
  0
LWPOLYLINE
  5
4F5
100
AcDbEntity
  8
RACCORDO
100
AcDbPolyline
 62
253
  6
CONTINUOUS
 90
3
 70
0
 10
107.1094080633
 20
161.3724111889
 10
107.1757906898
 20
162.2621191212
 10
107.2101764657
 20
162.7065751051
  0
LWPOLYLINE
  5
4F6
100
AcDbEntity
  8
RACCORDO
100
AcDbPolyline
 62
253
  6
CONTINUOUS
 90
3
 70
0
 10
106.8319362116
 20
161.3716039527
 10
106.8984130524
 20
162.2593040804
 10
106.9610984004
 20
163.0727456917
  0
LINE
  5
4F7
100
AcDbEntity
  8
0
100
AcDbLine
 62
253
  6
CONTINUOUS
 10
104.8861733794
 20
109.6156171523
 11
104.8816392163
 21
109.5588843769
  0
LINE
  5
4F8
100
AcDbEntity
  8
0
100
AcDbLine
 62
253
  6
CONTINUOUS
 10
104.8816392163
 20
109.5588843769
 11
104.8768815009
 21
109.505285774
  0
LWPOLYLINE
  5
4F9
100
AcDbEntity
  8
0
100
AcDbPolyline
 62
7
  6
CONTINUOUS
 90
7
 70
0
 10
104.8804083707
 20
109.5835960438
 10
104.8772680145
 20
109.5486930231
 10
104.8753317869
 20
109.5285131125
 10
104.8734170922
 20
109.5095537751
 10
104.871526737
 20
109.4917608273
 10
104.8696662179
 20
109.4751062114
 10
104.8678429907
 20
109.459586142
  0
LINE
  5
4FA
100
AcDbEntity
  8
0
100
AcDbLine
 62
253
  6
CONTINUOUS
 10
104.8768815009
 20
109.505285774
 11
104.8720454352
 21
109.4560921366
  0
LWPOLYLINE
  5
4FB
100
AcDbEntity
  8
0
100
AcDbPolyline
 62
253
  6
CONTINUOUS
 90
12
 70
0
 10
104.8720454352
 20
109.4560921366
 10
104.8670240005
 20
109.4106809103
 10
104.8618208942
 20
109.3690520949
 10
104.8564037358
 20
109.3309634438
 10
104.8508132537
 20
109.2966572037
 10
104.8451608735
 20
109.2668601147
 10
104.8394516069
 20
109.2417920899
 10
104.8336845451
 20
109.2212332163
 10
104.8279580218
 20
109.2052504941
 10
104.822303899
 20
109.1938662568
 10
104.816689896
 20
109.187058171
 10
104.8111160364
 20
109.1848262367
  0
LWPOLYLINE
  5
4FC
100
AcDbEntity
  8
0
100
AcDbPolyline
 62
7
  6
CONTINUOUS
 90
5
 70
0
 10
104.8678429907
 20
109.459586142
 10
104.8660638901
 20
109.4451946437
 10
104.8643349968
 20
109.4319144004
 10
104.8626636484
 20
109.4197333221
 10
104.8610620926
 20
109.4086678541
  0
LWPOLYLINE
  5
4FD
100
AcDbEntity
  8
0
100
AcDbPolyline
 62
7
  6
CONTINUOUS
 90
9
 70
0
 10
104.8610620926
 20
109.4086678541
 10
104.8595348483
 20
109.3986748489
 10
104.8580969671
 20
109.3897765557
 10
104.8567839566
 20
109.3821016419
 10
104.8556054895
 20
109.3756082618
 10
104.8545843596
 20
109.3703196049
 10
104.8537934994
 20
109.3664780234
 10
104.8532489245
 20
109.3640011708
 10
104.8530271043
 20
109.363054789
  0
LWPOLYLINE
  5
4FE
100
AcDbEntity
  8
0
100
AcDbPolyline
 62
7
  6
CONTINUOUS
 90
9
 70
0
 10
104.853043927
 20
98.1670229663
 10
104.8530807486
 20
98.1668675803
 10
104.8534465466
 20
98.1652654105
 10
104.8541427307
 20
98.162001969
 10
104.8551336121
 20
98.1570230355
 10
104.856332617
 20
98.150576955
 10
104.8577152387
 20
98.1426458577
 10
104.8592624312
 20
98.133194983
 10
104.8609111677
 20
98.1224896852
  0
LWPOLYLINE
  5
4FF
100
AcDbEntity
  8
0
100
AcDbPolyline
 62
7
  6
CONTINUOUS
 90
9
 70
0
 10
104.8609111677
 20
98.1224896852
 10
104.8626429783
 20
98.110558876
 10
104.8644499876
 20
98.0973694009
 10
104.8662947293
 20
98.0831253417
 10
104.8681687553
 20
98.0678439965
 10
104.8700650981
 20
98.0515387241
 10
104.8719547453
 20
98.0344343167
 10
104.8738307062
 20
98.0165774803
 10
104.875688924
 20
97.9979878133
  0
LINE
  5
500
100
AcDbEntity
  8
0
100
AcDbLine
 62
253
  6
CONTINUOUS
 10
105.3906001776
 20
155.0968279402
 11
105.3931712901
 21
155.0513768
  0
LINE
  5
501
100
AcDbEntity
  8
0
100
AcDbLine
 62
7
  6
CONTINUOUS
 10
105.3909075679
 20
155.0193448216
 11
105.3918065719
 21
155.0025736982
  0
LINE
  5
502
100
AcDbEntity
  8
0
100
AcDbLine
 62
253
  6
CONTINUOUS
 10
105.3931712901
 20
155.0513768
 11
105.3941328027
 21
155.0319128936
  0
LINE
  5
503
100
AcDbEntity
  8
0
100
AcDbLine
 62
7
  6
CONTINUOUS
 10
105.3918045149
 20
155.0025487042
 11
105.3928781628
 21
154.9806450348
  0
LWPOLYLINE
  5
504
100
AcDbEntity
  8
RACCORDO
100
AcDbPolyline
 62
253
  6
CONTINUOUS
 90
10
 70
0
 10
107.4362280094
 20
170.3488907807
 10
107.4299685188
 20
170.564659946
 10
107.4229365713
 20
170.7693614306
 10
107.4153529252
 20
170.9625209108
 10
107.4072192802
 20
171.1439267078
 10
107.3985339367
 20
171.313319475
 10
107.3895125542
 20
171.4702672516
 10
107.3802270194
 20
171.6145645785
 10
107.3706054456
 20
171.7461704049
 10
107.3606478329
 20
171.8649807253
  0
LWPOLYLINE
  5
505
100
AcDbEntity
  8
RACCORDO
100
AcDbPolyline
 62
253
  6
CONTINUOUS
 90
3
 70
0
 10
107.4501509803
 20
169.6385273847
 10
107.4464242763
 20
169.8856628457
 10
107.4362280094
 20
170.3488907807
  0
LINE
  5
506
100
AcDbEntity
  8
RACCORDO
100
AcDbLine
 62
253
  6
CONTINUOUS
 10
107.4546459529
 20
169.1143807386
 11
107.4501509803
 21
169.6385273847
  0
LINE
  5
507
100
AcDbEntity
  8
DRAFT
100
AcDbLine
 62
7
  6
CONTINUOUS
 10
110.3368815009
 20
34.2650905858
 11
110.3368815009
 21
173.2650549443
  0
LINE
  5
508
100
AcDbEntity
  8
0
100
AcDbLine
 62
7
  6
CONTINUOUS
 10
111.1368815009
 20
34.9918425288
 11
111.1368815009
 21
34.8886041769
  0
LINE
  5
509
100
AcDbEntity
  8
0
100
AcDbLine
 62
7
  6
CONTINUOUS
 10
113.1368815009
 20
36.2313149887
 11
113.1368815009
 21
171.4150549557
  0
LWPOLYLINE
  5
50A
100
AcDbEntity
  8
RACCORDO
100
AcDbPolyline
 62
253
  6
CONTINUOUS
 90
3
 70
0
 10
107.4464214944
 20
37.6443182852
 10
107.4501487939
 20
37.8914488205
 10
107.4546453052
 20
38.4156107776
  0
LINE
  5
50B
100
AcDbEntity
  8
0
100
AcDbLine
 62
7
  6
CONTINUOUS
 10
105.3931266667
 20
52.5548876077
 11
105.3918047578
 21
52.5276014098
  0
LINE
  5
50C
100
AcDbEntity
  8
0
100
AcDbLine
 62
253
  6
CONTINUOUS
 10
105.3941334149
 20
52.4982469371
 11
105.3931712901
 21
52.4787687302
  0
LWPOLYLINE
  5
50D
100
AcDbEntity
  8
0
100
AcDbPolyline
 62
7
  6
CONTINUOUS
 90
7
 70
0
 10
105.3918065551
 20
52.5275713734
 10
105.3906983643
 20
52.5070891793
 10
105.3896479721
 20
52.4894313678
 10
105.3885832131
 20
52.4730205125
 10
105.3875113741
 20
52.4578155847
 10
105.3864406101
 20
52.4438007684
 10
105.385376374
 20
52.4309315208
  0
LWPOLYLINE
  5
50E
100
AcDbEntity
  8
0
100
AcDbPolyline
 62
7
  6
CONTINUOUS
 90
6
 70
0
 10
105.3326559319
 20
47.710692137
 10
105.3328441637
 20
47.7140711296
 10
105.3329263328
 20
47.7186151388
 10
105.332902415
 20
47.724324173
 10
105.3327506337
 20
47.731404247
 10
105.3318715586
 20
47.7576144211
  0
LINE
  5
50F
100
AcDbEntity
  8
0
100
AcDbLine
 62
253
  6
CONTINUOUS
 10
105.3931712901
 20
52.4787687302
 11
105.3906001779
 21
52.4333175858
  0
LWPOLYLINE
  5
510
100
AcDbEntity
  8
0
100
AcDbPolyline
 62
253
  6
CONTINUOUS
 90
12
 70
0
 10
105.3906001779
 20
52.4333175858
 10
105.3877146313
 20
52.391406388
 10
105.3845148476
 20
52.3530350013
 10
105.3809782388
 20
52.3179973725
 10
105.37712941
 20
52.2864993192
 10
105.3730376295
 20
52.25915851
 10
105.3686959601
 20
52.2361682592
 10
105.3641104366
 20
52.217335051
 10
105.3593662492
 20
52.2026963133
 10
105.3544902383
 20
52.1922644879
 10
105.3494529098
 20
52.1860270318
 10
105.3442536656
 20
52.1839839199
  0
LWPOLYLINE
  5
511
100
AcDbEntity
  8
0
100
AcDbPolyline
 62
7
  6
CONTINUOUS
 90
6
 70
0
 10
105.1821145679
 20
47.710692137
 10
105.1823006885
 20
47.7129238364
 10
105.1823989995
 20
47.716270454
 10
105.1824095658
 20
47.7207319958
 10
105.1823188738
 20
47.7264821464
 10
105.1819158188
 20
47.7408062534
  0
LWPOLYLINE
  5
512
100
AcDbEntity
  8
RACCORDO
100
AcDbPolyline
 62
253
  6
CONTINUOUS
 90
11
 70
0
 10
107.3606478329
 20
35.6651648048
 10
107.3706023874
 20
35.7839352034
 10
107.380221675
 20
35.9155027652
 10
107.3895056958
 20
36.059766225
 10
107.3985264941
 20
36.2166892004
 10
107.4072120256
 20
36.38606718
 10
107.4153461569
 20
36.5674639499
 10
107.422930565
 20
36.7606224317
 10
107.429963573
 20
36.9653311305
 10
107.4362240163
 20
37.1811051459
 10
107.4464214944
 20
37.6443182852
  0
LWPOLYLINE
  5
513
100
AcDbEntity
  8
RACCORDO
100
AcDbPolyline
 62
253
  6
CONTINUOUS
 90
18
 70
0
 10
107.0809355091
 20
35.9041080381
 10
107.0909161579
 20
36.0199914542
 10
107.1006508016
 20
36.1481155852
 10
107.1100932631
 20
36.2884853233
 10
107.1192229382
 20
36.4413713885
 10
107.1279881551
 20
36.6065141656
 10
107.1362693885
 20
36.7831232323
 10
107.1439796525
 20
36.971278641
 10
107.1510858215
 20
37.17091268
 10
107.1574958581
 20
37.3810127018
 10
107.1631183798
 20
37.6014968098
 10
107.1678986305
 20
37.8324594169
 10
107.1717647488
 20
38.0731514978
 10
107.1746354151
 20
38.3237242579
 10
107.1764514636
 20
38.5840390054
 10
107.1771468283
 20
38.8529106403
 10
107.1766313069
 20
39.1302952795
 10
107.1717469851
 20
39.7097299584
  0
LWPOLYLINE
  5
514
100
AcDbEntity
  8
0
100
AcDbPolyline
 62
7
  6
CONTINUOUS
 90
6
 70
0
 10
105.385376374
 20
52.4309315208
 10
105.3843258439
 20
52.4191818021
 10
105.3832973201
 20
52.4085320715
 10
105.3823004233
 20
52.3989690767
 10
105.3813413161
 20
52.3904426857
 10
105.3804346366
 20
52.3829737885
  0
LWPOLYLINE
  5
515
100
AcDbEntity
  8
0
100
AcDbPolyline
 62
7
  6
CONTINUOUS
 90
7
 70
0
 10
105.0790650399
 20
48.7100179691
 10
105.0798549969
 20
48.7186391217
 10
105.0807755334
 20
48.7255631675
 10
105.0818260492
 20
48.7307900897
 10
105.0830036831
 20
48.7343203502
 10
105.0843102202
 20
48.7361534658
 10
105.0851198513
 20
48.7364384483
  0
LWPOLYLINE
  5
516
100
AcDbEntity
  8
0
100
AcDbPolyline
 62
7
  6
CONTINUOUS
 90
4
 70
0
 10
105.3804346366
 20
52.3829737885
 10
105.3796095483
 20
52.3766764066
 10
105.3788770619
 20
52.3715022743
 10
105.3782923593
 20
52.3676804189
  0
LINE
  5
517
100
AcDbEntity
  8
0
100
AcDbLine
 62
253
  6
CONTINUOUS
 10
106.0416736252
 20
132.2650727651
 11
104.9157605417
 21
132.2650727651
  0
LINE
  5
518
100
AcDbEntity
  8
RACCORDO
100
AcDbLine
 62
253
  6
CONTINUOUS
 10
106.0416736252
 20
132.2650727651
 11
110.3368815009
 21
132.2650727651
  0
LINE
  5
519
100
AcDbEntity
  8
0
100
AcDbLine
 62
253
  6
CONTINUOUS
 10
110.3368815009
 20
132.2650727651
 11
113.1368815009
 21
132.2650727651
  0
LWPOLYLINE
  5
51A
100
AcDbEntity
  8
0
100
AcDbPolyline
 62
7
  6
CONTINUOUS
 90
11
 70
0
 10
105.3799010036
 20
155.1512998792
 10
105.3809008406
 20
155.1434026071
 10
105.3819708351
 20
155.1341798565
 10
105.3830898623
 20
155.1236638992
 10
105.3842466069
 20
155.1118135833
 10
105.3854073731
 20
155.0988533692
 10
105.3865628277
 20
155.0848010465
 10
105.38770558
 20
155.0696656955
 10
105.388813951
 20
155.0536852099
 10
105.3898824825
 20
155.0369059702
 10
105.3909075679
 20
155.0193448216
  0
LWPOLYLINE
  5
51B
100
AcDbEntity
  8
RACCORDO
100
AcDbPolyline
 62
253
  6
CONTINUOUS
 90
10
 70
0
 10
107.0809328197
 20
171.6260201434
 10
107.0780588076
 20
171.6565213413
 10
107.0750786994
 20
171.6860191281
 10
107.0719924963
 20
171.7145135979
 10
107.0687997845
 20
171.7420083316
 10
107.0655010675
 20
171.768499927
 10
107.0620976671
 20
171.7939779995
 10
107.0585899919
 20
171.8184391423
 10
107.0549776376
 20
171.8418869246
 10
107.05126065
 20
171.8643214229
  0
LWPOLYLINE
  5
51C
100
AcDbEntity
  8
RACCORDO
100
AcDbPolyline
 62
253
  6
CONTINUOUS
 90
10
 70
0
 10
107.3606478329
 20
171.8649807253
 10
107.357776492
 20
171.8963189142
 10
107.3548002276
 20
171.926623359
 10
107.3517190396
 20
171.9558916686
 10
107.3485328359
 20
171.9841191559
 10
107.3452417086
 20
172.0113062255
 10
107.3418459345
 20
172.0374574872
 10
107.3383456057
 20
172.0625723154
 10
107.3347406301
 20
172.0866457359
 10
107.3310310076
 20
172.1096751937
  0
LWPOLYLINE
  5
51D
100
AcDbEntity
  8
RACCORDO
100
AcDbPolyline
 62
253
  6
CONTINUOUS
 90
10
 70
0
 10
107.3310308202
 20
35.4204691664
 10
107.3347405977
 20
35.4434995902
 10
107.3383456954
 20
35.4675738563
 10
107.3418461134
 20
35.4926893827
 10
107.3452419448
 20
35.5188411975
 10
107.3485330964
 20
35.5460286215
 10
107.3517192889
 20
35.5742561435
 10
107.3548004293
 20
35.6035240993
 10
107.3577766106
 20
35.6338277954
 10
107.3606478329
 20
35.6651648048
  0
LINE
  5
51E
100
AcDbEntity
  8
0
100
AcDbLine
 62
7
  6
CONTINUOUS
 10
105.3783221603
 20
52.3678752104
 11
105.3778474409
 21
52.364990921
  0
LWPOLYLINE
  5
51F
100
AcDbEntity
  8
RACCORDO
100
AcDbPolyline
 62
253
  6
CONTINUOUS
 90
10
 70
0
 10
107.05126065
 20
35.6658241072
 10
107.0549778174
 20
35.6882598956
 10
107.058590305
 20
35.7117086392
 10
107.0620980637
 20
35.7361704144
 10
107.0655014837
 20
35.7616487899
 10
107.0688001636
 20
35.7881403593
 10
107.071992812
 20
35.8156347404
 10
107.0750789342
 20
35.8441285316
 10
107.0780589308
 20
35.8736253132
 10
107.0809327979
 20
35.9041251789
  0
LINE
  5
520
100
AcDbEntity
  8
RACCORDO
100
AcDbLine
 62
253
  6
CONTINUOUS
 10
107.0261936642
 20
35.5220802363
 11
107.05126065
 21
35.6658241072
  0
LWPOLYLINE
  5
521
100
AcDbEntity
  8
RACCORDO
100
AcDbPolyline
 62
253
  6
CONTINUOUS
 90
3
 70
0
 10
107.2979901011
 20
35.2305249539
 10
107.3060160139
 20
35.2759434283
 10
107.3310308126
 20
35.4204691668
  0
LINE
  5
522
100
AcDbEntity
  8
RACCORDO
100
AcDbLine
 62
253
  6
CONTINUOUS
 10
107.0102647389
 20
35.4331056251
 11
107.0261936642
 21
35.5220802363
  0
LWPOLYLINE
  5
523
100
AcDbEntity
  8
0
100
AcDbPolyline
 62
7
  6
CONTINUOUS
 90
7
 70
0
 10
105.3780190138
 20
155.1646129146
 10
105.3776845636
 20
155.1661384847
 10
105.3775797565
 20
155.1666448863
 10
105.3778111096
 20
155.165364562
 10
105.3783264847
 20
155.1622502872
 10
105.3790338026
 20
155.1575705793
 10
105.3799010036
 20
155.1512998792
  0
LINE
  5
524
100
AcDbEntity
  8
RACCORDO
100
AcDbLine
 62
253
  6
CONTINUOUS
 10
107.0343921054
 20
171.961525099
 11
107.010263659
 21
172.0970458642
  0
LINE
  5
525
100
AcDbEntity
  8
RACCORDO
100
AcDbLine
 62
253
  6
CONTINUOUS
 10
107.05126065
 20
171.8643214229
 11
107.0343921054
 21
171.961525099
  0
LWPOLYLINE
  5
526
100
AcDbEntity
  8
RACCORDO
100
AcDbPolyline
 62
253
  6
CONTINUOUS
 90
3
 70
0
 10
107.3310310068
 20
172.1096751937
 10
107.3225362073
 20
172.1592290953
 10
107.297989268
 20
172.2996252601
  0
LINE
  5
527
100
AcDbEntity
  8
RACCORDO
100
AcDbLine
 62
253
  6
CONTINUOUS
 10
107.2748500072
 20
35.1025430542
 11
107.2979901011
 21
35.2305249539
  0
LINE
  5
528
100
AcDbEntity
  8
RACCORDO
100
AcDbLine
 62
253
  6
CONTINUOUS
 10
106.9949623709
 20
35.3496170146
 11
107.0102647389
 21
35.4331056251
  0
LINE
  5
529
100
AcDbEntity
  8
RACCORDO
100
AcDbLine
 62
253
  6
CONTINUOUS
 10
107.260205258
 20
35.0241184339
 11
107.2748500072
 21
35.1025430542
  0
LINE
  5
52A
100
AcDbEntity
  8
RACCORDO
100
AcDbLine
 62
253
  6
CONTINUOUS
 10
106.9802869104
 20
35.2716159228
 11
106.9949623709
 21
35.3496170146
  0
LINE
  5
52B
100
AcDbEntity
  8
RACCORDO
100
AcDbLine
 62
253
  6
CONTINUOUS
 10
107.2461868411
 20
34.9512149536
 11
107.260205258
 21
35.0241184339
  0
LINE
  5
52C
100
AcDbEntity
  8
RACCORDO
100
AcDbLine
 62
253
  6
CONTINUOUS
 10
106.9662392062
 20
35.1991060149
 11
106.9802869104
 21
35.2716159228
  0
LINE
  5
52D
100
AcDbEntity
  8
RACCORDO
100
AcDbLine
 62
253
  6
CONTINUOUS
 10
107.2327957391
 20
34.8838367942
 11
107.2461868411
 21
34.9512149536
  0
LINE
  5
52E
100
AcDbEntity
  8
RACCORDO
100
AcDbLine
 62
253
  6
CONTINUOUS
 10
106.9528199998
 20
35.1320935695
 11
106.9662392062
 21
35.1991060149
  0
LWPOLYLINE
  5
52F
100
AcDbEntity
  8
RACCORDO
100
AcDbPolyline
 62
253
  6
CONTINUOUS
 90
7
 70
0
 10
106.9108174098
 20
34.9409367875
 10
106.9163437022
 20
34.964103832
 10
106.922028415
 20
34.9886518568
 10
106.9278711659
 20
35.0145822657
 10
106.9338717851
 20
35.0418938865
 10
106.9400302623
 20
35.0705829708
 10
106.9528199998
 20
35.1320935695
  0
LWPOLYLINE
  5
530
100
AcDbEntity
  8
RACCORDO
100
AcDbPolyline
 62
253
  6
CONTINUOUS
 90
8
 70
0
 10
107.1855216732
 20
34.6697234156
 10
107.1908797111
 20
34.6916294468
 10
107.1963952671
 20
34.7149270515
 10
107.2020683412
 20
34.7396141936
 10
107.2078990008
 20
34.7656877011
 10
107.2138871784
 20
34.7931464271
 10
107.220032672
 20
34.8219918135
 10
107.2327957391
 20
34.8838367942
  0
LINE
  5
531
100
AcDbEntity
  8
RACCORDO
100
AcDbLine
 62
253
  6
CONTINUOUS
 10
107.1265646614
 20
34.4333183414
 11
107.1855225362
 21
34.6697233705
  0
LINE
  5
532
100
AcDbEntity
  8
RACCORDO
100
AcDbLine
 62
253
  6
CONTINUOUS
 10
106.8463574232
 20
34.683494371
 11
106.9108174098
 21
34.9409367875
  0
LINE
  5
533
100
AcDbEntity
  8
RACCORDO
100
AcDbLine
 62
253
  6
CONTINUOUS
 10
107.1855228086
 20
172.8604205152
 11
107.1268669787
 21
173.095613789
  0
LWPOLYLINE
  5
534
100
AcDbEntity
  8
RACCORDO
100
AcDbPolyline
 62
253
  6
CONTINUOUS
 90
7
 70
0
 10
106.9400292964
 20
172.4595671061
 10
106.9338709453
 20
172.4882555154
 10
106.9278704645
 20
172.5155664058
 10
106.9220278704
 20
172.5414960594
 10
106.9163433314
 20
172.5660433139
 10
106.9108172221
 20
172.589209563
 10
106.8463574089
 20
172.8466510734
  0
LWPOLYLINE
  5
535
100
AcDbEntity
  8
RACCORDO
100
AcDbPolyline
 62
253
  6
CONTINUOUS
 90
7
 70
0
 10
107.2200318046
 20
172.7081578331
 10
107.2138864173
 20
172.7370026389
 10
107.207898362
 20
172.7644607335
 10
107.2020678785
 20
172.7905333779
 10
107.1963950469
 20
172.8152194104
 10
107.1908797871
 20
172.8385157735
 10
107.1855220992
 20
172.8604204781
  0
LINE
  5
536
100
AcDbEntity
  8
RACCORDO
100
AcDbLine
 62
253
  6
CONTINUOUS
 10
106.9528188309
 20
172.3980577011
 11
106.9400292964
 21
172.4595671061
  0
LINE
  5
537
100
AcDbEntity
  8
RACCORDO
100
AcDbLine
 62
253
  6
CONTINUOUS
 10
107.2327946796
 20
172.6463139685
 11
107.2200318046
 21
172.7081578331
  0
LINE
  5
538
100
AcDbEntity
  8
RACCORDO
100
AcDbLine
 62
253
  6
CONTINUOUS
 10
106.9662379095
 20
172.3310460936
 11
106.9528188309
 21
172.3980577011
  0
LINE
  5
539
100
AcDbEntity
  8
RACCORDO
100
AcDbLine
 62
253
  6
CONTINUOUS
 10
107.2461856654
 20
172.578936596
 11
107.2327946796
 21
172.6463139685
  0
LINE
  5
53A
100
AcDbEntity
  8
RACCORDO
100
AcDbLine
 62
253
  6
CONTINUOUS
 10
106.9802855793
 20
172.2585365819
 11
106.9662379095
 21
172.3310460936
  0
LINE
  5
53B
100
AcDbEntity
  8
RACCORDO
100
AcDbLine
 62
253
  6
CONTINUOUS
 10
107.2602040508
 20
172.5060334698
 11
107.2461856654
 21
172.578936596
  0
LINE
  5
53C
100
AcDbEntity
  8
RACCORDO
100
AcDbLine
 62
253
  6
CONTINUOUS
 10
106.9949611098
 20
172.1805353196
 11
106.9802855793
 21
172.2585365819
  0
LINE
  5
53D
100
AcDbEntity
  8
RACCORDO
100
AcDbLine
 62
253
  6
CONTINUOUS
 10
107.2748488662
 20
172.4276086655
 11
107.2602040508
 21
172.5060334698
  0
LINE
  5
53E
100
AcDbEntity
  8
RACCORDO
100
AcDbLine
 62
253
  6
CONTINUOUS
 10
107.010263659
 20
172.0970458642
 11
106.9949611098
 21
172.1805353196
  0
LINE
  5
53F
100
AcDbEntity
  8
RACCORDO
100
AcDbLine
 62
253
  6
CONTINUOUS
 10
107.297989268
 20
172.2996252601
 11
107.2748488662
 21
172.4276086655
  0
LWPOLYLINE
  5
540
100
AcDbEntity
  8
RACCORDO
100
AcDbPolyline
 62
253
  6
CONTINUOUS
 90
12
 70
0
 10
106.4614716277
 20
154.8798458017
 10
106.4678509259
 20
154.8807149255
 10
106.4764460455
 20
154.8814730736
 10
106.4871907159
 20
154.8821144007
 10
106.5000020929
 20
154.8826339619
 10
106.5147813973
 20
154.8830277512
 10
106.5314146768
 20
154.8832927325
 10
106.5497736843
 20
154.8834268625
 10
106.569716867
 20
154.8834291073
 10
106.5910904577
 20
154.8832994494
 10
106.6137296603
 20
154.8830388885
 10
106.6374599206
 20
154.8826494337
  0
LINE
  5
541
100
AcDbEntity
  8
0
100
AcDbLine
 62
253
  6
CONTINUOUS
 10
105.3880370392
 20
153.9867227553
 11
105.3862148669
 21
153.9867210665
  0
LWPOLYLINE
  5
542
100
AcDbEntity
  8
RACCORDO
100
AcDbPolyline
 62
253
  6
CONTINUOUS
 90
16
 70
0
 10
106.6515642701
 20
158.7032940034
 10
106.6579171878
 20
158.7041693471
 10
106.6664866146
 20
158.7048745129
 10
106.6772063929
 20
158.7054040568
 10
106.6899937637
 20
158.7057538906
 10
106.7047500058
 20
158.7059213135
 10
106.7213611978
 20
158.705905033
 10
106.7396990979
 20
158.7057051747
 10
106.7596221336
 20
158.7053232816
 10
106.7809764949
 20
158.7047623021
 10
106.8035973216
 20
158.7040265668
 10
106.8273099761
 20
158.703121756
 10
106.8519313918
 20
158.702054855
 10
106.8772714861
 20
158.7008341003
 10
106.9031346282
 20
158.6994689166
 10
106.9293211491
 20
158.6979698433
  0
LINE
  5
543
100
AcDbEntity
  8
RACCORDO
100
AcDbLine
 62
253
  6
CONTINUOUS
 10
110.3368815009
 20
158.7074141314
 11
106.9293209144
 21
158.6979662135
  0
LINE
  5
544
100
AcDbEntity
  8
0
100
AcDbLine
 62
253
  6
CONTINUOUS
 10
105.3995830047
 20
154.8798458017
 11
106.4614716634
 21
154.8798467679
  0
LINE
  5
545
100
AcDbEntity
  8
0
100
AcDbLine
 62
253
  6
CONTINUOUS
 10
110.3368815009
 20
158.6809717901
 11
110.7598736824
 21
158.6786079589
  0
LINE
  5
546
100
AcDbEntity
  8
0
100
AcDbLine
 62
253
  6
CONTINUOUS
 10
110.7598736824
 20
158.6786079589
 11
111.1757768756
 21
158.6738941514
  0
LINE
  5
547
100
AcDbEntity
  8
0
100
AcDbLine
 62
253
  6
CONTINUOUS
 10
111.1757768756
 20
158.6738941514
 11
111.5799364311
 21
158.666883123
  0
LINE
  5
548
100
AcDbEntity
  8
RACCORDO
100
AcDbLine
 62
253
  6
CONTINUOUS
 10
106.6374599206
 20
154.8826494337
 11
106.6874547461
 21
154.8814968241
  0
LINE
  5
549
100
AcDbEntity
  8
0
100
AcDbLine
 62
253
  6
CONTINUOUS
 10
111.5799364311
 20
158.666883123
 11
111.9678291302
 21
158.6576533388
  0
LINE
  5
54A
100
AcDbEntity
  8
0
100
AcDbLine
 62
253
  6
CONTINUOUS
 10
111.9678291302
 20
158.6576533388
 11
112.3351138078
 21
158.6463080953
  0
LINE
  5
54B
100
AcDbEntity
  8
RACCORDO
100
AcDbLine
 62
253
  6
CONTINUOUS
 10
106.6874547461
 20
154.8814968241
 11
106.7395360126
 21
154.8798770997
  0
LWPOLYLINE
  5
54C
100
AcDbEntity
  8
0
100
AcDbPolyline
 62
253
  6
CONTINUOUS
 90
5
 70
0
 10
112.3351138078
 20
158.6463080953
 10
112.6776799366
 20
158.6329743649
 10
112.838483453
 20
158.6256076251
 10
112.991693631
 20
158.6178013741
 10
113.1368815009
 20
158.6095774684
  0
LINE
  5
54D
100
AcDbEntity
  8
0
100
AcDbLine
 62
253
  6
CONTINUOUS
 10
104.9694417091
 20
155.3625242243
 11
105.3442536656
 21
155.3461616103
  0
LWPOLYLINE
  5
54E
100
AcDbEntity
  8
0
100
AcDbPolyline
 62
253
  6
CONTINUOUS
 90
12
 70
0
 10
105.3442536656
 20
155.3461616103
 10
105.3494529101
 20
155.3441185032
 10
105.3544902388
 20
155.3378810501
 10
105.3593662498
 20
155.3274492258
 10
105.3641104371
 20
155.3128104863
 10
105.3686959604
 20
155.2939772745
 10
105.3730376295
 20
155.2709870202
 10
105.3771294099
 20
155.2436462078
 10
105.3809782383
 20
155.2121481515
 10
105.384514847
 20
155.1771105213
 10
105.3877146307
 20
155.1387391355
 10
105.3906001776
 20
155.0968279402
  0
LINE
  5
54F
100
AcDbEntity
  8
RACCORDO
100
AcDbLine
 62
253
  6
CONTINUOUS
 10
110.3368815009
 20
162.7247499505
 11
107.2101771034
 21
162.7065751088
  0
LWPOLYLINE
  5
550
100
AcDbEntity
  8
0
100
AcDbPolyline
 62
253
  6
CONTINUOUS
 90
16
 70
0
 10
110.3368815009
 20
162.6696123533
 10
110.5489690825
 20
162.6677650866
 10
110.7598736824
 20
162.66468329
 10
110.9690047938
 20
162.6603755921
 10
111.1757768756
 20
162.6548540539
 10
111.3796109914
 20
162.648134135
 10
111.5799364311
 20
162.6402346503
 10
111.776192308
 20
162.6311777175
 10
111.9678291302
 20
162.6209886948
 10
112.1543103383
 20
162.6096961102
 10
112.3351138078
 20
162.5973315816
 10
112.5097333116
 20
162.5839297281
 10
112.6776799366
 20
162.5695280732
 10
112.838483453
 20
162.5541669399
 10
112.991693631
 20
162.5378893373
 10
113.1368815009
 20
162.5207408408
  0
LINE
  5
551
100
AcDbEntity
  8
RACCORDO
100
AcDbLine
 62
253
  6
CONTINUOUS
 10
110.3368815009
 20
172.2636524064
 11
107.3310310068
 21
172.1096751937
  0
LINE
  5
552
100
AcDbEntity
  8
DRAFT
100
AcDbLine
 62
7
  6
CONTINUOUS
 10
110.3368815009
 20
173.2650727651
 11
107.1331155706
 21
173.0971705073
  0
LINE
  5
553
100
AcDbEntity
  8
RACCORDO
100
AcDbLine
 62
253
  6
CONTINUOUS
 10
110.3368815009
 20
173.0249074855
 11
107.1855228086
 21
172.8604205152
  0
LWPOLYLINE
  5
554
100
AcDbEntity
  8
0
100
AcDbPolyline
 62
253
  6
CONTINUOUS
 90
16
 70
0
 10
110.3368815009
 20
171.7749283339
 10
110.5489690825
 20
171.7585546849
 10
110.7598736824
 20
171.7312385112
 10
110.9690047938
 20
171.6930562947
 10
111.1757768756
 20
171.6441149409
 10
111.3796109914
 20
171.5845514795
 10
111.5799364311
 20
171.5145326809
 10
111.776192308
 20
171.434254589
 10
111.9678291302
 20
171.3439419725
 10
112.1543103383
 20
171.2438476956
 10
112.3351138078
 20
171.1342520099
 10
112.5097333116
 20
171.0154617697
 10
112.6776799366
 20
170.887809573
 10
112.838483453
 20
170.7516528301
 10
112.991693631
 20
170.6073727631
 10
113.1368815009
 20
170.4553733382
  0
LWPOLYLINE
  5
555
100
AcDbEntity
  8
0
100
AcDbPolyline
 62
253
  6
CONTINUOUS
 90
16
 70
0
 10
110.3368815009
 20
172.5269088628
 10
110.5489690825
 20
172.5102244899
 10
110.7598736824
 20
172.4823899353
 10
110.9690047938
 20
172.4434831322
 10
111.1757768756
 20
172.393613015
 10
111.3796109914
 20
172.3329192138
 10
111.5799364311
 20
172.2615716636
 10
111.776192308
 20
172.1797701289
 10
111.9678291302
 20
172.0877436437
 10
112.1543103383
 20
171.9857498709
 10
112.3351138078
 20
171.8740743803
 10
112.5097333116
 20
171.7530298496
 10
112.6776799366
 20
171.6229551884
 10
112.838483453
 20
171.4842145897
 10
112.991693631
 20
171.3371965099
 10
113.1368815009
 20
171.1823125816
  0
ARC
  5
556
100
AcDbEntity
  8
DRAFT
100
AcDbCircle
 62
7
  6
CONTINUOUS
 10
-327.9394641411
 20
132.2650727651
 40
500.0
100
AcDbArc
 50
0.0
 51
3.031483313
  0
ARC
  5
557
100
AcDbEntity
  8
DRAFT
100
AcDbCircle
 62
7
  6
CONTINUOUS
 10
632.0605358589
 20
132.2650727651
 40
500.0
100
AcDbArc
 50
176.968516687
 51
180.0
  0
ARC
  5
558
100
AcDbEntity
  8
DRAFT
100
AcDbCircle
 62
7
  6
CONTINUOUS
 10
632.0605358589
 20
75.2650727651
 40
500.0
100
AcDbArc
 50
180.0
 51
183.031483313
  0
ARC
  5
559
100
AcDbEntity
  8
DRAFT
100
AcDbCircle
 62
7
  6
CONTINUOUS
 10
-327.9394641411
 20
75.2650727651
 40
500.0
100
AcDbArc
 50
356.968516687
 51
360.0
  0
ARC
  5
55A
100
AcDbEntity
  8
DRAFT
100
AcDbCircle
 62
7
  6
CONTINUOUS
 10
101.4588050571
 20
155.0054863402
 40
70.0
100
AcDbArc
 50
3.031483313
 51
6.33117956
  0
ARC
  5
55B
100
AcDbEntity
  8
DRAFT
100
AcDbCircle
 62
7
  6
CONTINUOUS
 10
202.6622666607
 20
155.0054863402
 40
70.0
100
AcDbArc
 50
173.66882044
 51
176.968516687
  0
ARC
  5
55C
100
AcDbEntity
  8
DRAFT
100
AcDbCircle
 62
7
  6
CONTINUOUS
 10
202.6622666607
 20
52.52465919
 40
70.0
100
AcDbArc
 50
183.031483313
 51
186.33117956
  0
ARC
  5
55D
100
AcDbEntity
  8
DRAFT
100
AcDbCircle
 62
7
  6
CONTINUOUS
 10
101.4588050571
 20
52.52465919
 40
70.0
100
AcDbArc
 50
353.66882044
 51
356.968516687
  0
ARC
  5
55E
100
AcDbEntity
  8
DRAFT
100
AcDbCircle
 62
7
  6
CONTINUOUS
 10
152.0605358589
 20
113.2650727651
 40
60.0
100
AcDbArc
 50
84.8718338568
 51
95.1281661432
  0
ARC
  5
55F
100
AcDbEntity
  8
DRAFT
100
AcDbCircle
 62
7
  6
CONTINUOUS
 10
152.0605358589
 20
94.2650727651
 40
60.0
100
AcDbArc
 50
264.8718338568
 51
275.1281661432
  0
ARC
  5
560
100
AcDbEntity
  8
DRAFT
100
AcDbCircle
 62
7
  6
CONTINUOUS
 10
153.755255207
 20
132.1491805367
 40
41.04
100
AcDbArc
 50
77.8087471083
 51
84.8718338568
  0
ARC
  5
561
100
AcDbEntity
  8
DRAFT
100
AcDbCircle
 62
7
  6
CONTINUOUS
 10
150.3658165108
 20
132.1491805367
 40
41.04
100
AcDbArc
 50
95.1281661432
 51
102.1912528917
  0
ARC
  5
562
100
AcDbEntity
  8
DRAFT
100
AcDbCircle
 62
7
  6
CONTINUOUS
 10
150.3658165108
 20
75.3809649934
 40
41.04
100
AcDbArc
 50
257.8087471083
 51
264.8718338568
  0
ARC
  5
563
100
AcDbEntity
  8
DRAFT
100
AcDbCircle
 62
7
  6
CONTINUOUS
 10
153.755255207
 20
75.3809649934
 40
41.04
100
AcDbArc
 50
275.1281661432
 51
282.1912528917
  0
ARC
  5
564
100
AcDbEntity
  8
DRAFT
100
AcDbCircle
 62
7
  6
CONTINUOUS
 10
160.0989695093
 20
161.5117228117
 40
11.0
100
AcDbArc
 50
6.33117956
 51
77.8087471083
  0
ARC
  5
565
100
AcDbEntity
  8
DRAFT
100
AcDbCircle
 62
7
  6
CONTINUOUS
 10
144.0221022085
 20
161.5117228117
 40
11.0
100
AcDbArc
 50
102.1912528917
 51
173.66882044
  0
ARC
  5
566
100
AcDbEntity
  8
DRAFT
100
AcDbCircle
 62
7
  6
CONTINUOUS
 10
144.0221022085
 20
46.0184227184
 40
11.0
100
AcDbArc
 50
186.33117956
 51
257.8087471083
  0
ARC
  5
567
100
AcDbEntity
  8
DRAFT
100
AcDbCircle
 62
7
  6
CONTINUOUS
 10
160.0989695093
 20
46.0184227184
 40
11.0
100
AcDbArc
 50
282.1912528917
 51
353.66882044
  0
ARC
  5
568
100
AcDbEntity
  8
0
100
AcDbCircle
 62
7
  6
CONTINUOUS
 10
141.6105358589
 20
53.5650727651
 40
0.8
100
AcDbArc
 50
180.0
 51
270.0
  0
ARC
  5
569
100
AcDbEntity
  8
0
100
AcDbCircle
 62
7
  6
CONTINUOUS
 10
162.5105358589
 20
96.9650727651
 40
0.8
100
AcDbArc
 50
0.0
 51
90.0
  0
ARC
  5
56A
100
AcDbEntity
  8
0
100
AcDbCircle
 62
7
  6
CONTINUOUS
 10
162.5105358589
 20
153.9650727651
 40
0.8
100
AcDbArc
 50
0.0
 51
90.0
  0
ARC
  5
56B
100
AcDbEntity
  8
0
100
AcDbCircle
 62
7
  6
CONTINUOUS
 10
141.6105358589
 20
110.5650727651
 40
0.8
100
AcDbArc
 50
180.0
 51
270.0
  0
ARC
  5
56C
100
AcDbEntity
  8
0
100
AcDbCircle
 62
7
  6
CONTINUOUS
 10
141.6105358589
 20
96.9650727651
 40
0.8
100
AcDbArc
 50
90.0
 51
180.0
  0
ARC
  5
56D
100
AcDbEntity
  8
0
100
AcDbCircle
 62
7
  6
CONTINUOUS
 10
162.5105358589
 20
53.5650727651
 40
0.8
100
AcDbArc
 50
270.0
 51
360.0
  0
ARC
  5
56E
100
AcDbEntity
  8
0
100
AcDbCircle
 62
7
  6
CONTINUOUS
 10
141.6105358589
 20
153.9650727651
 40
0.8
100
AcDbArc
 50
90.0
 51
180.0
  0
ARC
  5
56F
100
AcDbEntity
  8
0
100
AcDbCircle
 62
7
  6
CONTINUOUS
 10
162.5105358589
 20
110.5650727651
 40
0.8
100
AcDbArc
 50
270.0
 51
360.0
  0
ARC
  5
570
100
AcDbEntity
  8
ASSI
100
AcDbCircle
 62
7
  6
CONTINUOUS
 10
254.8566271201
 20
148.1149870447
 40
150.0623042126
100
AcDbArc
 50
170.5239778899
 51
177.2324121589
  0
ARC
  5
571
100
AcDbEntity
  8
ASSI
100
AcDbCircle
 62
7
  6
CONTINUOUS
 10
254.8566271201
 20
59.4151584854
 40
150.0623042126
100
AcDbArc
 50
184.9840268777
 51
189.4760221396
  0
ARC
  5
572
100
AcDbEntity
  8
ASSI
100
AcDbCircle
 62
7
  6
CONTINUOUS
 10
254.8566271201
 20
59.4151584854
 40
150.0623042126
100
AcDbArc
 50
182.7675878411
 51
183.8934708313
  0
ARC
  5
573
100
AcDbEntity
  8
0
100
AcDbCircle
 62
7
  6
CONTINUOUS
 10
110.1264569388
 20
168.7499329325
 40
4.0206499937
100
AcDbArc
 50
41.5185832875
 51
87.0
  0
ARC
  5
574
100
AcDbEntity
  8
0
100
AcDbCircle
 62
7
  6
CONTINUOUS
 10
110.1264569388
 20
38.7802125977
 40
4.0206499937
100
AcDbArc
 50
273.0
 51
284.5549713429
  0
ARC
  5
575
100
AcDbEntity
  8
0
100
AcDbCircle
 62
7
  6
CONTINUOUS
 10
104.9368803009
 20
98.3616032344
 40
0.5
100
AcDbArc
 50
179.999999973
 51
264.260928233
  0
ARC
  5
576
100
AcDbEntity
  8
0
100
AcDbCircle
 62
7
  6
CONTINUOUS
 10
105.4688570425
 20
52.1917689018
 40
0.5
100
AcDbArc
 50
98.1924218974
 51
182.768283106
  0
ARC
  5
577
100
AcDbEntity
  8
0
100
AcDbCircle
 62
7
  6
CONTINUOUS
 10
105.4688570425
 20
155.3383766283
 40
0.5
100
AcDbArc
 50
177.231716894
 51
261.8076455688
  0
ARC
  5
578
100
AcDbEntity
  8
0
100
AcDbCircle
 62
7
  6
CONTINUOUS
 10
104.9368803009
 20
109.1685422957
 40
0.5
100
AcDbArc
 50
95.7401547838
 51
180.000000027
  0
ARC
  5
579
100
AcDbEntity
  8
RACCORDO
100
AcDbCircle
 62
7
  6
CONTINUOUS
 10
107.1422596927
 20
172.7972389213
 40
0.3000000008
100
AcDbArc
 50
93.0000002597
 51
170.5138313679
  0
ARC
  5
57A
100
AcDbEntity
  8
RACCORDO
100
AcDbCircle
 62
7
  6
CONTINUOUS
 10
107.1422596927
 20
34.7329066088
 40
0.3000000008
100
AcDbArc
 50
189.4861686321
 51
266.9999997403
  0
ENDSEC
  0
SECTION
  2
OBJECTS
  0
DICTIONARY
  5
C
100
AcDbDictionary
280
0
281
1
  3
ACAD_GROUP
350
D
  3
ACAD_MLINESTYLE
350
17
  3
ACAD_LAYOUT
350
1A
  3
ACAD_PLOTSETTINGS
350
19
  3
ACAD_PLOTSTYLENAME
350
E
  0
DICTIONARY
  5
D
102
{ACAD_REACTORS
330
C
102
}
100
AcDbDictionary
280
0
281
1
  0
ACDBDICTIONARYWDFLT
  5
E
102
{ACAD_REACTORS
330
C
102
}
100
AcDbDictionary
281
1
  3
Normal
350
F
100
AcDbDictionaryWithDefault
340
F
  0
DICTIONARY
  5
17
102
{ACAD_REACTORS
330
C
102
}
100
AcDbDictionary
280
0
281
1
  3
Standard
350
18
  0
DICTIONARY
  5
19
102
{ACAD_REACTORS
330
C
102
}
100
AcDbDictionary
281
1
  0
DICTIONARY
  5
1A
102
{ACAD_REACTORS
330
C
102
}
100
AcDbDictionary
281
1
  3
Model
350
57B
  3
Layout1
350
57C
  0
ACDBPLACEHOLDER
  5
F
102
{ACAD_REACTORS
330
E
102
}
  0
MLINESTYLE
  5
18
102
{ACAD_REACTORS
330
17
102
}
100
AcDbMlineStyle
  2
STANDARD
 70
0
  3

 62
256
 51
90.0
 52
90.0
 71
2
 49
0.5
 62
256
  6
BYLAYER
 49
-0.5
 62
256
  6
BYLAYER
  0
LAYOUT
  5
57B
102
{ACAD_REACTORS
330
1A
102
}
100
AcDbPlotSettings
  1

  2
none_device
  4
ISO_A4_(297.00_x_210.00_MM)
  6

 40
0.0
 41
0.0
 42
0.0
 43
0.0
 44
297.0
 45
210.0
 46
0.0
 47
0.0
 48
0.0
 49
0.0
140
0.0
141
0.0
142
1.0
143
1.0
 70
1024
 72
1
 73
0
 74
0
  7

 75
0
147
1.0
148
0.0
149
0.0
100
AcDbLayout
  1
Model
 70
0
 71
0
 10
0.0
 20
0.0
 11
297.0
 21
210.0
 12
0.0
 22
0.0
 32
0.0
 14
0.0
 24
0.0
 34
0.0
 15
0.0
 25
0.0
 35
0.0
146
0.0
 13
0.0
 23
0.0
 33
0.0
 16
1.0
 26
0.0
 36
0.0
 17
0.0
 27
1.0
 37
0.0
 76
0
330
21B
345
0
346
0
  0
LAYOUT
  5
57C
102
{ACAD_REACTORS
330
1A
102
}
100
AcDbPlotSettings
  1

  2
none_device
  4
ISO_A4_(297.00_x_210.00_MM)
  6

 40
0.0
 41
0.0
 42
0.0
 43
0.0
 44
297.0
 45
210.0
 46
0.0
 47
0.0
 48
0.0
 49
0.0
140
0.0
141
0.0
142
1.0
143
1.0
 70
0
 72
1
 73
0
 74
0
  7

 75
0
147
1.0
148
0.0
149
0.0
100
AcDbLayout
  1
Layout1
 70
0
 71
1
 10
0.0
 20
0.0
 11
297.0
 21
210.0
 12
0.0
 22
0.0
 32
0.0
 14
0.0
 24
0.0
 34
0.0
 15
0.0
 25
0.0
 35
0.0
146
0.0
 13
0.0
 23
0.0
 33
0.0
 16
1.0
 26
0.0
 36
0.0
 17
0.0
 27
1.0
 37
0.0
 76
0
330
21C
345
0
346
0
  0
ENDSEC
  0
EOF
