  0
SECTION
  2
HEADER
  9
$ACADVER
  1
AC1021
  9
$DWGCODEPAGE
  3
ANSI_1252
  9
$EXTMAX
 10
297.0
 20
210.0
 30
0.0
  9
$EXTMIN
 10
0.0
 20
0.0
 30
0.0
  9
$LIMMIN
 10
0.0
 20
0.0
  9
$LIMMAX
 10
297.0
 20
210.0
  9
$VIEWCTR
 10
148.5
 20
105.0
  9
$VIEWSIZE
 40
210.0
  9
$CLAYER
  8
0
  9
$LTSCALE
 40
16.335
  9
$CELTYPE
  6
BYLAYER
  9
$DIMSCALE
 40
1.0
  9
$DIMASZ
 40
3.0
  9
$DIMEXO
 40
0.5
  9
$DIMDLI
 40
11.286
  9
$DIMEXE
 40
1.5
  9
$DIMCEN
 40
2.673
  9
$DIMLFAC
 40
1.0
  9
$DIMBLK
  1
_FILLED
  9
$DIMALT
 70
0
  9
$DIMALTF
 40
25.4
  9
$DIMTXT
 40
3.0
  9
$DIMTOL
 70
1
  9
$DIMLIM
 70
0
  9
$DIMTFAC
 40
1.0
  9
$DIMTP
 40
0.01
  9
$DIMTM
 40
0.01
  9
$DIMGAP
 40
0.625
  9
$DIMDSEP
 70
44
  9
$AUNITS
 70
0
  9
$PDMODE
 70
3
  9
$PDSIZE
 40
3.0
  9
$HANDSEED
  5
349
  9
$TILEMODE
 70
1
  9
$MEASUREMENT
 70
1
  9
$INSUNITS
 70
4
  0
ENDSEC
  0
SECTION
  2
CLASSES
  0
CLASS
  1
ACDBDICTIONARYWDFLT
  2
AcDbDictionaryWithDefault
  3
AutoCAD 2000
 90
0
 91
1
280
0
281
0
  0
CLASS
  1
ACDBPLACEHOLDER
  2
AcDbPlaceHolder
  3
AutoCAD 2000
 90
0
 91
1
280
0
281
0
  0
CLASS
  1
LAYOUT
  2
AcDbLayout
  3
AutoCAD 2000
 90
0
 91
0
280
0
281
0
  0
ENDSEC
  0
SECTION
  2
TABLES
  0
TABLE
  2
VPORT
  5
8
100
AcDbSymbolTable
 70
2
  0
VPORT
  5
1F4
100
AcDbSymbolTableRecord
100
AcDbViewportTableRecord
  2
*ACTIVE
 70
0
 10
0.0
 20
0.0
 11
1.0
 21
1.0
 12
148.5
 22
105.0
 13
0.0
 23
0.0
 14
1.0
 24
1.0
 15
0.0
 25
0.0
 16
0.0
 26
0.0
 36
1.0
 17
0.0
 27
0.0
 37
0.0
 40
210.0
 41
1.4142857143
 42
50.0
 43
0.0
 44
0.0
 50
0.0
 51
0.0
 71
0
 72
100
 73
1
 74
1
 75
0
 76
0
 77
0
 78
0
  0
ENDTAB
  0
TABLE
  2
LTYPE
  5
5
100
AcDbSymbolTable
 70
6
  0
LTYPE
  5
14
100
AcDbSymbolTableRecord
100
AcDbLinetypeTableRecord
  2
BYBLOCK
 70
0
  3

 72
65
 73
0
 40
0.0
  0
LTYPE
  5
15
100
AcDbSymbolTableRecord
100
AcDbLinetypeTableRecord
  2
BYLAYER
 70
0
  3

 72
65
 73
0
 40
0.0
  0
LTYPE
  5
16
100
AcDbSymbolTableRecord
100
AcDbLinetypeTableRecord
  2
CONTINUOUS
 70
64
  3
Solid line
 72
65
 73
0
 40
0.0
  0
LTYPE
  5
1F5
100
AcDbSymbolTableRecord
100
AcDbLinetypeTableRecord
  2
CENTER
 70
64
  3
____ _ ____ _ ____ _ ____ _ ____ _ ____ _ ____
 72
65
 73
4
 40
0.6
 49
0.375
 74
0
 49
-0.075
 74
0
 49
0.075
 74
0
 49
-0.075
 74
0
  0
LTYPE
  5
1F6
100
AcDbSymbolTableRecord
100
AcDbLinetypeTableRecord
  2
HIDDEN
 70
64
  3
- - - - - - - - - - - - - - - - - - - -
 72
65
 73
2
 40
0.2
 49
0.1
 74
0
 49
-0.1
 74
0
  0
LTYPE
  5
1F7
100
AcDbSymbolTableRecord
100
AcDbLinetypeTableRecord
  2
PHANTOM
 70
64
  3
_____ _ _ _____ _ _ _____ _ _ _____
 72
65
 73
6
 40
0.8
 49
0.45
 74
0
 49
-0.05
 74
0
 49
0.1
 74
0
 49
-0.05
 74
0
 49
0.1
 74
0
 49
-0.05
 74
0
  0
LTYPE
  5
1F8
100
AcDbSymbolTableRecord
100
AcDbLinetypeTableRecord
  2
DOT
 70
64
  3
. . . . . . . . . . . . . . . . . . . .
 72
65
 73
2
 40
0.2
 49
0.1
 74
0
 49
-0.1
 74
0
  0
LTYPE
  5
1F9
100
AcDbSymbolTableRecord
100
AcDbLinetypeTableRecord
  2
DASHED
 70
64
  3
- - - - - - - - - - - - - - - - - - - -
 72
65
 73
2
 40
0.2
 49
0.1
 74
0
 49
-0.1
 74
0
  0
ENDTAB
  0
TABLE
  2
LAYER
  5
2
100
AcDbSymbolTable
 70
36
  0
LAYER
  5
10
100
AcDbSymbolTableRecord
100
AcDbLayerTableRecord
  2
0
 70
0
 62
7
  6
CONTINUOUS
370
-3
390
F
  0
LAYER
  5
1FA
100
AcDbSymbolTableRecord
100
AcDbLayerTableRecord
  2
DEFAULT_1
 70
0
 62
7
  6
CENTER
370
-3
390
F
  0
LAYER
  5
1FB
100
AcDbSymbolTableRecord
100
AcDbLayerTableRecord
  2
DEFAULT_2
 70
0
 62
7
  6
HIDDEN
370
-3
390
F
  0
LAYER
  5
1FC
100
AcDbSymbolTableRecord
100
AcDbLayerTableRecord
  2
DEFAULT_3
 70
0
 62
7
  6
PHANTOM
370
-3
390
F
  0
LAYER
  5
1FD
100
AcDbSymbolTableRecord
100
AcDbLayerTableRecord
  2
ASSI
 70
0
 62
7
  6
CONTINUOUS
370
-3
390
F
  0
LAYER
  5
1FE
100
AcDbSymbolTableRecord
100
AcDbLayerTableRecord
  2
COLOR3
 70
0
 62
7
  6
CONTINUOUS
370
-3
390
F
  0
LAYER
  5
1FF
100
AcDbSymbolTableRecord
100
AcDbLayerTableRecord
  2
COORDINATE
 70
0
 62
7
  6
CONTINUOUS
370
-3
390
F
  0
LAYER
  5
200
100
AcDbSymbolTableRecord
100
AcDbLayerTableRecord
  2
COPY_PUBLISH
 70
0
 62
7
  6
CONTINUOUS
370
-3
390
F
  0
LAYER
  5
201
100
AcDbSymbolTableRecord
100
AcDbLayerTableRecord
  2
COSMETIC
 70
0
 62
7
  6
CONTINUOUS
370
-3
390
F
  0
LAYER
  5
202
100
AcDbSymbolTableRecord
100
AcDbLayerTableRecord
  2
COSMETICI
 70
0
 62
7
  6
CONTINUOUS
370
-3
390
F
  0
LAYER
  5
203
100
AcDbSymbolTableRecord
100
AcDbLayerTableRecord
  2
CURVE
 70
0
 62
7
  6
CONTINUOUS
370
-3
390
F
  0
LAYER
  5
204
100
AcDbSymbolTableRecord
100
AcDbLayerTableRecord
  2
DRAFT
 70
0
 62
7
  6
CONTINUOUS
370
-3
390
F
  0
LAYER
  5
205
100
AcDbSymbolTableRecord
100
AcDbLayerTableRecord
  2
IMPORT_IGES
 70
0
 62
7
  6
CONTINUOUS
370
-3
390
F
  0
LAYER
  5
206
100
AcDbSymbolTableRecord
100
AcDbLayerTableRecord
  2
INTFCLR_1
 70
0
 62
7
  6
CONTINUOUS
370
-3
390
F
  0
LAYER
  5
207
100
AcDbSymbolTableRecord
100
AcDbLayerTableRecord
  2
INTF_10
 70
0
 62
7
  6
CONTINUOUS
370
-3
390
F
  0
LAYER
  5
208
100
AcDbSymbolTableRecord
100
AcDbLayerTableRecord
  2
INTF_13
 70
0
 62
7
  6
CONTINUOUS
370
-3
390
F
  0
LAYER
  5
209
100
AcDbSymbolTableRecord
100
AcDbLayerTableRecord
  2
INTF_15
 70
0
 62
7
  6
CONTINUOUS
370
-3
390
F
  0
LAYER
  5
20A
100
AcDbSymbolTableRecord
100
AcDbLayerTableRecord
  2
INTF_16
 70
0
 62
7
  6
CONTINUOUS
370
-3
390
F
  0
LAYER
  5
20B
100
AcDbSymbolTableRecord
100
AcDbLayerTableRecord
  2
INTF_18
 70
0
 62
7
  6
CONTINUOUS
370
-3
390
F
  0
LAYER
  5
20C
100
AcDbSymbolTableRecord
100
AcDbLayerTableRecord
  2
INTF_20
 70
0
 62
7
  6
CONTINUOUS
370
-3
390
F
  0
LAYER
  5
20D
100
AcDbSymbolTableRecord
100
AcDbLayerTableRecord
  2
INTF_3
 70
0
 62
7
  6
CONTINUOUS
370
-3
390
F
  0
LAYER
  5
20E
100
AcDbSymbolTableRecord
100
AcDbLayerTableRecord
  2
INTF_5
 70
0
 62
7
  6
CONTINUOUS
370
-3
390
F
  0
LAYER
  5
20F
100
AcDbSymbolTableRecord
100
AcDbLayerTableRecord
  2
INTF_8
 70
0
 62
7
  6
CONTINUOUS
370
-3
390
F
  0
LAYER
  5
210
100
AcDbSymbolTableRecord
100
AcDbLayerTableRecord
  2
NOTE
 70
0
 62
7
  6
CONTINUOUS
370
-3
390
F
  0
LAYER
  5
211
100
AcDbSymbolTableRecord
100
AcDbLayerTableRecord
  2
PIANI
 70
0
 62
7
  6
CONTINUOUS
370
-3
390
F
  0
LAYER
  5
212
100
AcDbSymbolTableRecord
100
AcDbLayerTableRecord
  2
PUNTI
 70
0
 62
7
  6
CONTINUOUS
370
-3
390
F
  0
LAYER
  5
213
100
AcDbSymbolTableRecord
100
AcDbLayerTableRecord
  2
RACCORDO
 70
0
 62
7
  6
CONTINUOUS
370
-3
390
F
  0
LAYER
  5
214
100
AcDbSymbolTableRecord
100
AcDbLayerTableRecord
  2
SIMBOLI
 70
0
 62
7
  6
CONTINUOUS
370
-3
390
F
  0
LAYER
  5
215
100
AcDbSymbolTableRecord
100
AcDbLayerTableRecord
  2
SNAPLINE
 70
0
 62
7
  6
CONTINUOUS
370
-3
390
F
  0
LAYER
  5
216
100
AcDbSymbolTableRecord
100
AcDbLayerTableRecord
  2
SOLIDO
 70
0
 62
7
  6
CONTINUOUS
370
-3
390
F
  0
LAYER
  5
217
100
AcDbSymbolTableRecord
100
AcDbLayerTableRecord
  2
SUPERFICI
 70
0
 62
7
  6
CONTINUOUS
370
-3
390
F
  0
LAYER
  5
218
100
AcDbSymbolTableRecord
100
AcDbLayerTableRecord
  2
SUPERFICI_SKEL
 70
0
 62
7
  6
CONTINUOUS
370
-3
390
F
  0
LAYER
  5
219
100
AcDbSymbolTableRecord
100
AcDbLayerTableRecord
  2
TRASH
 70
0
 62
7
  6
CONTINUOUS
370
-3
390
F
  0
LAYER
  5
21A
100
AcDbSymbolTableRecord
100
AcDbLayerTableRecord
  2
___SHELL
 70
0
 62
7
  6
CONTINUOUS
370
-3
390
F
  0
ENDTAB
  0
TABLE
  2
STYLE
  5
3
100
AcDbSymbolTable
 70
1
  0
STYLE
  5
11
100
AcDbSymbolTableRecord
100
AcDbTextStyleTableRecord
  2
STANDARD
 70
0
 40
0.0
 41
0.8
 50
0.0
 71
0
 42
0.2
  3
txt
  4

  0
STYLE
  5
21B
100
AcDbSymbolTableRecord
100
AcDbTextStyleTableRecord
  2
TEXTSTYLE_1
 70
0
 40
0.0
 41
0.8
 50
0.0
 71
0
 42
0.2
  3
gdt
  4

  0
ENDTAB
  0
TABLE
  2
VIEW
  5
6
100
AcDbSymbolTable
 70
0
  0
ENDTAB
  0
TABLE
  2
UCS
  5
7
100
AcDbSymbolTable
 70
0
  0
ENDTAB
  0
TABLE
  2
APPID
  5
9
100
AcDbSymbolTable
 70
1
  0
APPID
  5
21C
100
AcDbSymbolTableRecord
100
AcDbRegAppTableRecord
  2
ACAD
 70
0
  0
ENDTAB
  0
TABLE
  2
BLOCK_RECORD
  5
1
100
AcDbSymbolTable
 70
0
  0
BLOCK_RECORD
  5
21D
100
AcDbSymbolTableRecord
100
AcDbBlockTableRecord
  2
*Model_Space
  0
BLOCK_RECORD
  5
21E
100
AcDbSymbolTableRecord
100
AcDbBlockTableRecord
  2
*Paper_Space
  0
BLOCK_RECORD
  5
21F
100
AcDbSymbolTableRecord
100
AcDbBlockTableRecord
  2
_FILLED
  0
BLOCK_RECORD
  5
220
100
AcDbSymbolTableRecord
100
AcDbBlockTableRecord
  2
*D0
  0
BLOCK_RECORD
  5
221
100
AcDbSymbolTableRecord
100
AcDbBlockTableRecord
  2
*D1
  0
BLOCK_RECORD
  5
222
100
AcDbSymbolTableRecord
100
AcDbBlockTableRecord
  2
*D2
  0
ENDTAB
  0
TABLE
  2
DIMSTYLE
  5
A
100
AcDbSymbolTable
 70
1
100
AcDbDimStyleTable
 71
0
  0
DIMSTYLE
105
223
100
AcDbSymbolTableRecord
100
AcDbDimStyleTableRecord
  2
STANDARD
 70
0
  3

  4

 40
1.0
 41
3.0
 42
0.5
 43
0.38
 44
1.5
 45
0.0
 46
0.0
 47
0.01
 48
0.01
140
3.0
141
0.09
142
0.0
143
25.4
144
1.0
145
0.0
146
1.0
147
0.625
 71
1.0
 72
0.0
 73
0
 74
0
 75
0
 76
0
 77
1
 78
8
170
0
171
1
172
0
173
0
174
0
175
0
176
0
177
0
178
0
270
2
271
2
272
2
273
2
274
2
275
0
280
0
281
0
282
0
283
1
284
8
285
0
286
0
287
3
288
0
340
11
278
44
341
21F
342
21F
343
21F
344
21F
  0
DIMSTYLE
105
224
100
AcDbSymbolTableRecord
100
AcDbDimStyleTableRecord
  2
DIMSTYLE_1
 70
0
  3

  4

 40
1.0
 41
3.0
 42
0.5
 43
0.38
 44
1.5
 45
0.0
 46
0.0
 47
0.0
 48
0.0
140
3.0
141
0.09
142
0.0
143
25.4
144
1.0
145
0.0
146
1.0
147
0.75
 71
0.0
 72
0.0
 73
0
 74
0
 75
0
 76
0
 77
1
 78
8
170
0
171
1
172
0
173
0
174
0
175
0
176
0
177
0
178
0
270
2
271
1
272
1
273
2
274
2
275
0
280
0
281
0
282
0
283
1
284
8
285
0
286
0
287
3
288
0
340
11
278
44
341
21F
342
21F
343
21F
344
21F
  0
DIMSTYLE
105
225
100
AcDbSymbolTableRecord
100
AcDbDimStyleTableRecord
  2
DIMSTYLE_2
 70
0
  3

  4

 40
1.0
 41
3.0
 42
0.5
 43
0.38
 44
1.5
 45
0.0
 46
0.0
 47
0.0
 48
0.0
140
3.0
141
0.09
142
0.0
143
25.4
144
1.0
145
0.0
146
1.0
147
0.75
 71
0.0
 72
0.0
 73
0
 74
0
 75
0
 76
0
 77
1
 78
8
170
0
171
1
172
0
173
0
174
0
175
0
176
0
177
0
178
0
270
2
271
2
272
2
273
2
274
2
275
0
280
0
281
0
282
0
283
1
284
8
285
0
286
0
287
3
288
0
340
11
278
44
341
21F
342
21F
343
21F
344
21F
  0
ENDTAB
  0
ENDSEC
  0
SECTION
  2
BLOCKS
  0
BLOCK
  5
20
100
AcDbEntity
  8
0
100
AcDbBlockBegin
  2
*Model_Space
 70
0
 10
0.0
 20
0.0
 30
0.0
  3
*Model_Space
  1

  0
ENDBLK
  5
21
100
AcDbEntity
  8
0
100
AcDbBlockEnd
  0
BLOCK
  5
1C
100
AcDbEntity
  8
0
100
AcDbBlockBegin
  2
*Paper_Space
 70
0
 10
0.0
 20
0.0
 30
0.0
  3
*Paper_Space
  1

  0
ENDBLK
  5
1D
100
AcDbEntity
  8
0
100
AcDbBlockEnd
  0
BLOCK
  5
226
100
AcDbEntity
  8
0
100
AcDbBlockBegin
  2
_FILLED
 70
64
 10
0.0
 20
0.0
  3
_FILLED
  1

  0
SOLID
  5
227
100
AcDbEntity
  8
0
  6
BYBLOCK
 62
0
100
AcDbTrace
 10
0.0
 20
0.0
 11
-1.0
 21
0.3166666667
 12
-1.0
 22
-0.3166666667
 13
-1.0
 23
-0.3166666667
  0
ENDBLK
  5
228
100
AcDbEntity
  8
0
  6
BYBLOCK
 62
0
100
AcDbBlockEnd
  0
BLOCK
  5
229
100
AcDbEntity
  8
0
100
AcDbBlockBegin
 62
7
  6
CONTINUOUS
  2
*D0
 70
65
 10
0.0
 20
0.0
  3
*D0
  1

  0
MTEXT
  5
22A
100
AcDbEntity
  8
0
100
AcDbMText
 62
7
  6
CONTINUOUS
  7
STANDARD
 71
2
 72
1
 10
-0.3876831359
 20
38.8440877408
 30
0.0
 11
1.0
 21
0.0
 31
0.0
 44
0.9
  1
22,1
 40
3.0
 41
12.2142857143
  0
LINE
  5
22B
100
AcDbEntity
  8
0
100
AcDbLine
 62
7
  6
CONTINUOUS
 10
-11.4484042536
 20
13.4006312344
 11
-11.4484042536
 21
36.5940877408
  0
LINE
  5
22C
100
AcDbEntity
  8
0
100
AcDbLine
 62
7
  6
CONTINUOUS
 10
10.6730379817
 20
13.4006312344
 11
10.6730379817
 21
36.5940877408
  0
LINE
  5
22D
100
AcDbEntity
  8
0
100
AcDbLine
 62
7
  6
CONTINUOUS
 10
-11.4484042536
 20
35.0940877408
 11
-0.3876831359
 21
35.0940877408
  0
LINE
  5
22E
100
AcDbEntity
  8
0
100
AcDbLine
 62
7
  6
CONTINUOUS
 10
10.6730379817
 20
35.0940877408
 11
-0.3876831359
 21
35.0940877408
  0
INSERT
  5
22F
100
AcDbEntity
  8
0
100
AcDbBlockReference
 62
7
  6
CONTINUOUS
  2
_FILLED
 10
-11.4484042536
 20
35.0940877408
 41
3.0
 42
3.0
 43
3.0
 50
180.0
  0
INSERT
  5
230
100
AcDbEntity
  8
0
100
AcDbBlockReference
 62
7
  6
CONTINUOUS
  2
_FILLED
 10
10.6730379817
 20
35.0940877408
 41
3.0
 42
3.0
 43
3.0
  0
ENDBLK
  5
231
100
AcDbEntity
  8
0
  6
BYBLOCK
 62
0
100
AcDbBlockEnd
  0
BLOCK
  5
232
100
AcDbEntity
  8
0
100
AcDbBlockBegin
 62
7
  6
CONTINUOUS
  2
*D1
 70
65
 10
0.0
 20
0.0
  3
*D1
  1

  0
MTEXT
  5
233
100
AcDbEntity
  8
0
100
AcDbMText
 62
7
  6
CONTINUOUS
  7
STANDARD
 71
2
 72
1
 10
19.9482991282
 20
-0.2993687656
 30
0.0
 11
0.0
 21
1.0
 31
0.0
 44
0.9
  1
44,6
 40
3.0
 41
13.1785714286
  0
LINE
  5
234
100
AcDbEntity
  8
0
100
AcDbLine
 62
7
  6
CONTINUOUS
 10
10.6735518181
 20
22.0220195655
 11
25.1982991282
 21
22.0220195655
  0
LINE
  5
235
100
AcDbEntity
  8
0
100
AcDbLine
 62
7
  6
CONTINUOUS
 10
10.6735518181
 20
-22.6207570967
 11
25.1982991282
 21
-22.6207570967
  0
LINE
  5
236
100
AcDbEntity
  8
0
100
AcDbLine
 62
7
  6
CONTINUOUS
 10
23.6982991282
 20
22.0220195655
 11
23.6982991282
 21
-0.2993687656
  0
LINE
  5
237
100
AcDbEntity
  8
0
100
AcDbLine
 62
7
  6
CONTINUOUS
 10
23.6982991282
 20
-22.6207570967
 11
23.6982991282
 21
-0.2993687656
  0
INSERT
  5
238
100
AcDbEntity
  8
0
100
AcDbBlockReference
 62
7
  6
CONTINUOUS
  2
_FILLED
 10
23.6982991282
 20
22.0220195655
 41
3.0
 42
3.0
 43
3.0
 50
90.0
  0
INSERT
  5
239
100
AcDbEntity
  8
0
100
AcDbBlockReference
 62
7
  6
CONTINUOUS
  2
_FILLED
 10
23.6982991282
 20
-22.6207570967
 41
3.0
 42
3.0
 43
3.0
 50
270.0
  0
ENDBLK
  5
23A
100
AcDbEntity
  8
0
  6
BYBLOCK
 62
0
100
AcDbBlockEnd
  0
BLOCK
  5
23B
100
AcDbEntity
  8
0
100
AcDbBlockBegin
 62
7
  6
CONTINUOUS
  2
*D2
 70
65
 10
0.0
 20
0.0
  3
*D2
  1

  0
MTEXT
  5
23C
100
AcDbEntity
  8
0
100
AcDbMText
 62
7
  6
CONTINUOUS
  7
STANDARD
 71
2
 72
1
 10
-30.7210334024
 20
38.8440877408
 30
0.0
 11
1.0
 21
0.0
 31
0.0
 44
0.9
  1
10,7
 40
3.0
 41
12.2142857143
  0
LINE
  5
23D
100
AcDbEntity
  8
0
100
AcDbLine
 62
7
  6
CONTINUOUS
 10
-25.3713912916
 20
13.374450631
 11
-25.3713912916
 21
36.5940877408
  0
LINE
  5
23E
100
AcDbEntity
  8
0
100
AcDbLine
 62
7
  6
CONTINUOUS
 10
-36.0706755131
 20
0.9644322339
 11
-36.0706755131
 21
36.5940877408
  0
LINE
  5
23F
100
AcDbEntity
  8
0
100
AcDbLine
 62
7
  6
CONTINUOUS
 10
-25.3713912916
 20
35.0940877408
 11
-21.3713912916
 21
35.0940877408
  0
LINE
  5
240
100
AcDbEntity
  8
0
100
AcDbLine
 62
7
  6
CONTINUOUS
 10
-21.3713912916
 20
35.0940877408
 11
-30.7210334024
 21
35.0940877408
  0
LINE
  5
241
100
AcDbEntity
  8
0
100
AcDbLine
 62
7
  6
CONTINUOUS
 10
-36.0706755131
 20
35.0940877408
 11
-40.0706755131
 21
35.0940877408
  0
LINE
  5
242
100
AcDbEntity
  8
0
100
AcDbLine
 62
7
  6
CONTINUOUS
 10
-40.0706755131
 20
35.0940877408
 11
-30.7210334024
 21
35.0940877408
  0
INSERT
  5
243
100
AcDbEntity
  8
0
100
AcDbBlockReference
 62
7
  6
CONTINUOUS
  2
_FILLED
 10
-25.3713912916
 20
35.0940877408
 41
3.0
 42
3.0
 43
3.0
 50
180.0
  0
INSERT
  5
244
100
AcDbEntity
  8
0
100
AcDbBlockReference
 62
7
  6
CONTINUOUS
  2
_FILLED
 10
-36.0706755131
 20
35.0940877408
 41
3.0
 42
3.0
 43
3.0
  0
ENDBLK
  5
245
100
AcDbEntity
  8
0
  6
BYBLOCK
 62
0
100
AcDbBlockEnd
  0
ENDSEC
  0
SECTION
  2
ENTITIES
  0
DIMENSION
  5
246
100
AcDbEntity
  8
0
100
AcDbDimension
 62
7
  6
CONTINUOUS
  2
*D0
 10
10.6730379817
 20
35.0940877408
 11
-0.816254611
 21
35.0940877408
 70
160
 71
2
 42
22.1214422353
  3
DIMSTYLE_1
100
AcDbAlignedDimension
 13
-11.4484042536
 23
12.9006312344
 14
10.6730379817
 24
12.9006312344
100
AcDbRotatedDimension
  0
DIMENSION
  5
247
100
AcDbEntity
  8
0
100
AcDbDimension
 62
7
  6
CONTINUOUS
  2
*D1
 10
23.6982991282
 20
-22.6207570967
 11
23.6982991282
 21
-0.7279409149
 70
160
 71
2
 42
44.6427766622
  3
DIMSTYLE_1
100
AcDbAlignedDimension
 13
10.1735518181
 23
22.0220195655
 14
10.1735518181
 24
-22.6207570967
 50
270.0
100
AcDbRotatedDimension
  0
DIMENSION
  5
248
100
AcDbEntity
  8
0
100
AcDbDimension
 62
7
  6
CONTINUOUS
  2
*D2
 10
-36.0706755131
 20
35.0940877408
 11
-31.1496050377
 21
35.0940877408
 70
160
 71
2
 42
10.6992842215
  3
DIMSTYLE_2
100
AcDbAlignedDimension
 13
-25.3713912916
 23
12.874450631
 14
-36.0706755131
 24
0.4644322339
 50
180.0
100
AcDbRotatedDimension
  0
LINE
  5
249
100
AcDbEntity
  8
0
100
AcDbLine
 62
7
  6
CONTINUOUS
 10
2.5462914603
 20
-22.6207570967
 11
3.3545818372
 21
-22.5473862057
  0
LINE
  5
24A
100
AcDbEntity
  8
0
100
AcDbLine
 62
7
  6
CONTINUOUS
 10
-8.6537085397
 20
-22.6207570967
 11
-7.8454181628
 21
-22.5473862057
  0
LWPOLYLINE
  5
24B
100
AcDbEntity
  8
0
100
AcDbPolyline
 62
253
  6
CONTINUOUS
 90
16
 70
0
 10
10.0251541998
 20
-22.3237582072
 10
10.0773558262
 20
-22.320956162
 10
10.1289864378
 20
-22.3127235726
 10
10.1794813345
 20
-22.2991505023
 10
10.2282882563
 20
-22.2803854179
 10
10.2748733778
 20
-22.2566335819
 10
10.3187271546
 20
-22.2281548217
 10
10.3593699589
 20
-22.1952606531
 10
10.3963573035
 20
-22.1583108687
 10
10.4292846671
 20
-22.1177096336
 10
10.4577919467
 20
-22.0739010422
 10
10.481567399
 20
-22.0273642453
 10
10.5003510333
 20
-21.9786082203
 10
10.5139374499
 20
-21.9281662173
 10
10.5221780895
 20
-21.8765899281
 10
10.5249828623
 20
-21.8244434398
  0
LWPOLYLINE
  5
24C
100
AcDbEntity
  8
0
100
AcDbPolyline
 62
253
  6
CONTINUOUS
 90
14
 70
0
 10
10.1382194381
 20
-21.1758292511
 10
10.1850567813
 20
-21.1751231695
 10
10.2301747567
 20
-21.1742238577
 10
10.2731359041
 20
-21.1731400352
 10
10.3135236759
 20
-21.1718822106
 10
10.3509464758
 20
-21.1704625797
 10
10.3850414553
 20
-21.1688949071
 10
10.4154780326
 20
-21.1671943929
 10
10.4419610971
 20
-21.165377525
 10
10.4642338712
 20
-21.1634619197
 10
10.4820804001
 20
-21.1614661505
 10
10.4953276454
 20
-21.1594095682
 10
10.5038471628
 20
-21.1573121133
 10
10.5075563478
 20
-21.1551941224
  0
LINE
  5
24D
100
AcDbEntity
  8
0
100
AcDbLine
 62
253
  6
CONTINUOUS
 10
10.0412154393
 20
-21.1766362786
 11
10.1382194381
 21
-21.1758292511
  0
LINE
  5
24E
100
AcDbEntity
  8
0
100
AcDbLine
 62
253
  6
CONTINUOUS
 10
-10.8005204723
 20
-22.3237582085
 11
-7.430954903
 21
-22.3137320722
  0
LINE
  5
24F
100
AcDbEntity
  8
0
100
AcDbLine
 62
253
  6
CONTINUOUS
 10
-7.430954903
 20
-22.3137320722
 11
-4.0589088487
 21
-22.3075779066
  0
LINE
  5
250
100
AcDbEntity
  8
0
100
AcDbLine
 62
253
  6
CONTINUOUS
 10
-4.0589088487
 20
-22.3075779066
 11
-0.6852517542
 21
-22.3052976971
  0
LINE
  5
251
100
AcDbEntity
  8
0
100
AcDbLine
 62
7
  6
CONTINUOUS
 10
-10.9489180899
 20
-22.6207570967
 11
-8.6537085397
 21
-22.6207570967
  0
LINE
  5
252
100
AcDbEntity
  8
0
100
AcDbLine
 62
7
  6
CONTINUOUS
 10
-3.3216577321
 20
-22.6207570967
 11
2.5462914603
 21
-22.6207570967
  0
LINE
  5
253
100
AcDbEntity
  8
0
100
AcDbLine
 62
7
  6
CONTINUOUS
 10
7.8783422679
 20
-22.6207570967
 11
10.1735518181
 21
-22.6207570967
  0
LINE
  5
254
100
AcDbEntity
  8
0
100
AcDbLine
 62
7
  6
CONTINUOUS
 10
-7.6722130821
 20
-22.5421454277
 11
-4.3031531897
 21
-22.5421454277
  0
LINE
  5
255
100
AcDbEntity
  8
0
100
AcDbLine
 62
7
  6
CONTINUOUS
 10
3.5277869179
 20
-22.5421454277
 11
6.8968468103
 21
-22.5421454277
  0
LINE
  5
256
100
AcDbEntity
  8
0
100
AcDbLine
 62
253
  6
CONTINUOUS
 10
-0.6852517542
 20
-22.3052976971
 11
2.6824759027
 21
-22.3068846317
  0
LINE
  5
257
100
AcDbEntity
  8
0
100
AcDbLine
 62
253
  6
CONTINUOUS
 10
2.6824759027
 20
-22.3068846317
 11
6.1534895444
 21
-22.3125701752
  0
LWPOLYLINE
  5
258
100
AcDbEntity
  8
0
100
AcDbPolyline
 62
253
  6
CONTINUOUS
 90
3
 70
0
 10
6.1534895444
 20
-22.3125701752
 10
9.2075757854
 20
-22.3209973013
 10
10.0251541998
 20
-22.3237582072
  0
LWPOLYLINE
  5
259
100
AcDbEntity
  8
0
100
AcDbPolyline
 62
253
  6
CONTINUOUS
 90
15
 70
0
 10
-10.8165808613
 20
-21.176635732
 10
-10.9135839509
 20
-21.1758287303
 10
-10.9604208993
 20
-21.1751226705
 10
-11.0055385369
 20
-21.174223386
 10
-11.0484994156
 20
-21.1731395958
 10
-11.0888869987
 20
-21.1718818078
 10
-11.1263096993
 20
-21.1704622171
 10
-11.1604046774
 20
-21.1688945877
 10
-11.1908413574
 20
-21.167194119
 10
-11.2173246338
 20
-21.1653772981
 10
-11.239597732
 20
-21.1634617406
 10
-11.2574446983
 20
-21.161466019
 10
-11.2706924934
 20
-21.1594094833
 10
-11.2792126703
 20
-21.1573120732
 10
-11.2829226198
 20
-21.1551941246
  0
LWPOLYLINE
  5
25A
100
AcDbEntity
  8
0
100
AcDbPolyline
 62
253
  6
CONTINUOUS
 90
16
 70
0
 10
-10.8005204723
 20
-22.3237582084
 10
-10.8527214423
 20
-22.3209562332
 10
-10.9043514838
 20
-22.3127238361
 10
-10.9548459128
 20
-22.2991510559
 10
-11.0036524652
 20
-22.2803863397
 10
-11.0502373379
 20
-22.2566349196
 10
-11.0940910263
 20
-22.2281565679
 10
-11.1347338972
 20
-22.1952627557
 10
-11.1717214345
 20
-22.1583132467
 10
-11.204649101
 20
-22.1177121624
 10
-11.2331567627
 20
-22.0739035619
 10
-11.2569326277
 20
-22.0273665851
 10
-11.2757166565
 20
-21.9786102128
 10
-11.2893034058
 20
-21.9281676994
 10
-11.2975442757
 20
-21.876590741
 10
-11.3003491348
 20
-21.8244434411
  0
LINE
  5
25B
100
AcDbEntity
  8
0
100
AcDbLine
 62
7
  6
CONTINUOUS
 10
-3.3216577321
 20
-22.6207570967
 11
-4.129948109
 21
-22.5473862057
  0
LINE
  5
25C
100
AcDbEntity
  8
0
100
AcDbLine
 62
7
  6
CONTINUOUS
 10
7.8783422679
 20
-22.6207570967
 11
7.070051891
 21
-22.5473862057
  0
LINE
  5
25D
100
AcDbEntity
  8
0
100
AcDbLine
 62
253
  6
CONTINUOUS
 10
-10.8165817127
 20
-21.1766362472
 11
-5.4137613106
 21
-21.171184201
  0
LINE
  5
25E
100
AcDbEntity
  8
0
100
AcDbLine
 62
253
  6
CONTINUOUS
 10
-5.4137613106
 20
-21.171184201
 11
6.1690322715
 21
-21.1723402904
  0
LINE
  5
25F
100
AcDbEntity
  8
0
100
AcDbLine
 62
253
  6
CONTINUOUS
 10
6.1690322715
 20
-21.1723402904
 11
10.0412154394
 21
-21.1766362648
  0
LWPOLYLINE
  5
260
100
AcDbEntity
  8
0
100
AcDbPolyline
 62
253
  6
CONTINUOUS
 90
7
 70
0
 10
-10.8005204717
 20
21.725020676
 10
-10.801572168
 20
21.7176347389
 10
-10.8026656865
 20
21.7043590675
 10
-10.8037731481
 20
21.6852622895
 10
-10.804845913
 20
21.6604426392
 10
-10.8058780442
 20
21.6300251624
 10
-10.8079074713
 20
21.5530203904
  0
LWPOLYLINE
  5
261
100
AcDbEntity
  8
0
100
AcDbPolyline
 62
253
  6
CONTINUOUS
 90
8
 70
0
 10
-10.7999626141
 20
0.0899165775
 10
-10.7963234613
 20
0.0568164587
 10
-10.7923924724
 20
0.0281726713
 10
-10.7887426069
 20
0.0042491346
 10
-10.7844700083
 20
-0.0147911481
 10
-10.7795770086
 20
-0.0286907395
 10
-10.7750388436
 20
-0.03723722
 10
-10.7713431624
 20
-0.0403794314
  0
LWPOLYLINE
  5
262
100
AcDbEntity
  8
0
100
AcDbPolyline
 62
253
  6
CONTINUOUS
 90
16
 70
0
 10
-11.2711718249
 20
0.4596015302
 10
-11.2684862894
 20
0.4079556097
 10
-11.2604461235
 20
0.3566916305
 10
-11.2470845162
 20
0.3063701253
 10
-11.2284705978
 20
0.2574978832
 10
-11.2047689759
 20
0.2106854358
 10
-11.176293385
 20
0.16661329
 10
-11.1433985495
 20
0.1258132346
 10
-11.1064147181
 20
0.0886799952
 10
-11.0657374704
 20
0.0556141829
 10
-11.0218033664
 20
0.0269782586
 10
-10.9751001479
 20
0.0030971607
 10
-10.9261534333
 20
-0.0157578109
 10
-10.8755067305
 20
-0.0293780428
 10
-10.8237132565
 20
-0.0376154882
 10
-10.7713431624
 20
-0.0403794314
  0
LWPOLYLINE
  5
263
100
AcDbEntity
  8
0
100
AcDbPolyline
 62
253
  6
CONTINUOUS
 90
4
 70
0
 10
-10.8102686573
 20
0.2581818529
 10
-10.808467783
 20
0.2114690024
 10
-10.8057536556
 20
0.1674969647
 10
-10.7999626141
 20
0.0899165775
  0
LWPOLYLINE
  5
264
100
AcDbEntity
  8
0
100
AcDbPolyline
 62
253
  6
CONTINUOUS
 90
6
 70
0
 10
-10.805878045
 20
-22.2287626936
 10
-10.8048459137
 20
-22.2591801699
 10
-10.8037731487
 20
-22.2839998203
 10
-10.8026656871
 20
-22.303096599
 10
-10.8015721686
 20
-22.3163722709
 10
-10.8005204723
 20
-22.3237582084
  0
LINE
  5
265
100
AcDbEntity
  8
0
100
AcDbLine
 62
253
  6
CONTINUOUS
 10
-10.8079074722
 20
-22.1517579227
 11
-10.805878045
 21
-22.2287626936
  0
LINE
  5
266
100
AcDbEntity
  8
0
100
AcDbLine
 62
253
  6
CONTINUOUS
 10
-11.2886954187
 20
21.0361850231
 11
-11.2869383364
 21
20.9637632197
  0
LINE
  5
267
100
AcDbEntity
  8
0
100
AcDbLine
 62
253
  6
CONTINUOUS
 10
-10.8097812876
 20
-22.0545128548
 11
-10.8079074722
 21
-22.1517579227
  0
LINE
  5
268
100
AcDbEntity
  8
0
100
AcDbLine
 62
253
  6
CONTINUOUS
 10
-11.2869383364
 20
20.9637632197
 11
-11.2854677743
 21
20.8826915313
  0
LINE
  5
269
100
AcDbEntity
  8
0
100
AcDbLine
 62
253
  6
CONTINUOUS
 10
-10.8122807472
 20
-21.8750415032
 11
-10.8097812876
 21
-22.0545128548
  0
LINE
  5
26A
100
AcDbEntity
  8
0
100
AcDbLine
 62
253
  6
CONTINUOUS
 10
-11.2854677743
 20
20.8826915313
 11
-11.2843129841
 21
20.7948303419
  0
LINE
  5
26B
100
AcDbEntity
  8
0
100
AcDbLine
 62
253
  6
CONTINUOUS
 10
-10.8148541753
 20
-21.5858542795
 11
-10.8122807472
 21
-21.8750415032
  0
LINE
  5
26C
100
AcDbEntity
  8
0
100
AcDbLine
 62
253
  6
CONTINUOUS
 10
-11.2843129841
 20
20.7948303419
 11
-11.283213535
 21
20.653965804
  0
LWPOLYLINE
  5
26D
100
AcDbEntity
  8
0
100
AcDbPolyline
 62
253
  6
CONTINUOUS
 90
3
 70
0
 10
-10.8140089053
 20
-1.0591183456
 10
-10.8142339083
 20
-1.0061288577
 10
-10.8133814199
 20
-0.9548773317
  0
LINE
  5
26E
100
AcDbEntity
  8
0
100
AcDbLine
 62
253
  6
CONTINUOUS
 10
-10.8165817179
 20
-21.1766362463
 11
-10.8148541753
 21
-21.5858542795
  0
LINE
  5
26F
100
AcDbEntity
  8
0
100
AcDbLine
 62
253
  6
CONTINUOUS
 10
-11.283213535
 20
20.653965804
 11
-11.2719439621
 21
5.0356761788
  0
LINE
  5
270
100
AcDbEntity
  8
0
100
AcDbLine
 62
7
  6
CONTINUOUS
 10
-11.4484042536
 20
-22.1207568615
 11
-11.4484042536
 21
-4.4993687656
  0
LINE
  5
271
100
AcDbEntity
  8
0
100
AcDbLine
 62
7
  6
CONTINUOUS
 10
-11.4484042536
 20
3.9006312344
 11
-11.4484042536
 21
21.5220193304
  0
LINE
  5
272
100
AcDbEntity
  8
0
100
AcDbLine
 62
7
  6
CONTINUOUS
 10
-11.3881766339
 20
-1.0193453793
 11
-11.3881766339
 21
-4.4993687656
  0
LINE
  5
273
100
AcDbEntity
  8
0
100
AcDbLine
 62
7
  6
CONTINUOUS
 10
-11.3881766339
 20
0.4206078481
 11
-11.3881766339
 21
3.9006312344
  0
LINE
  5
274
100
AcDbEntity
  8
0
100
AcDbLine
 62
253
  6
CONTINUOUS
 10
-11.2719439621
 20
5.0356761788
 11
-11.2711718249
 21
0.4596015302
  0
LINE
  5
275
100
AcDbEntity
  8
0
100
AcDbLine
 62
253
  6
CONTINUOUS
 10
-10.8140086894
 20
-1.0591183491
 11
-10.8165817127
 21
-21.1766362472
  0
LINE
  5
276
100
AcDbEntity
  8
0
100
AcDbLine
 62
253
  6
CONTINUOUS
 10
-11.2711718224
 20
-1.0583390622
 11
-11.2734265955
 21
-9.4745803898
  0
LINE
  5
277
100
AcDbEntity
  8
0
100
AcDbLine
 62
253
  6
CONTINUOUS
 10
-11.2734265955
 20
-9.4745803898
 11
-11.2803200221
 21
-18.6545268809
  0
LINE
  5
278
100
AcDbEntity
  8
0
100
AcDbLine
 62
253
  6
CONTINUOUS
 10
-10.8161082977
 20
20.7452407845
 11
-10.814008701
 21
0.4603808235
  0
LINE
  5
279
100
AcDbEntity
  8
0
100
AcDbLine
 62
253
  6
CONTINUOUS
 10
-11.2803200221
 20
-18.6545268809
 11
-11.2832135356
 21
-21.2527033372
  0
LWPOLYLINE
  5
27A
100
AcDbEntity
  8
0
100
AcDbPolyline
 62
253
  6
CONTINUOUS
 90
4
 70
0
 10
-10.8140089079
 20
0.4603808258
 10
-10.8142337823
 20
0.407393335
 10
-10.8133813751
 20
0.3561434828
 10
-10.8102686573
 20
0.2581818529
  0
LINE
  5
27B
100
AcDbEntity
  8
0
100
AcDbLine
 62
253
  6
CONTINUOUS
 10
-10.8136829376
 20
21.1377072149
 11
-10.8161082977
 21
20.7452407845
  0
LINE
  5
27C
100
AcDbEntity
  8
0
100
AcDbLine
 62
253
  6
CONTINUOUS
 10
-11.2832135356
 20
-21.2527033372
 11
-11.2843129848
 21
-21.3935678751
  0
LINE
  5
27D
100
AcDbEntity
  8
0
100
AcDbLine
 62
253
  6
CONTINUOUS
 10
-10.8114927753
 20
21.3402337988
 11
-10.8136829376
 21
21.1377072149
  0
LINE
  5
27E
100
AcDbEntity
  8
0
100
AcDbLine
 62
253
  6
CONTINUOUS
 10
-11.2843129848
 20
-21.3935678751
 11
-11.285467775
 21
-21.4814290646
  0
LINE
  5
27F
100
AcDbEntity
  8
0
100
AcDbLine
 62
253
  6
CONTINUOUS
 10
-10.8097812867
 20
21.4557753216
 11
-10.8114927753
 21
21.3402337988
  0
LINE
  5
280
100
AcDbEntity
  8
0
100
AcDbLine
 62
253
  6
CONTINUOUS
 10
-11.285467775
 20
-21.4814290646
 11
-11.286938337
 21
-21.562500753
  0
LINE
  5
281
100
AcDbEntity
  8
0
100
AcDbLine
 62
253
  6
CONTINUOUS
 10
-10.8079074713
 20
21.5530203904
 11
-10.8097812867
 21
21.4557753216
  0
LWPOLYLINE
  5
282
100
AcDbEntity
  8
0
100
AcDbPolyline
 62
253
  6
CONTINUOUS
 90
12
 70
0
 10
-11.286938337
 20
-21.562500753
 10
-11.2886954193
 20
-21.6349225562
 10
-11.2896670336
 20
-21.6673860913
 10
-11.2906970453
 20
-21.6971344285
 10
-11.2917845985
 20
-21.7242092153
 10
-11.2929136046
 20
-21.7482094766
 10
-11.2940852502
 20
-21.7690904656
 10
-11.2952983487
 20
-21.7868969291
 10
-11.2965332513
 20
-21.8013621319
 10
-11.2977834084
 20
-21.8123971623
 10
-11.2990553695
 20
-21.820090932
 10
-11.3003491348
 20
-21.8244434411
  0
LWPOLYLINE
  5
283
100
AcDbEntity
  8
0
100
AcDbPolyline
 62
253
  6
CONTINUOUS
 90
4
 70
0
 10
-10.8133814199
 20
-0.9548773317
 10
-10.8102684041
 20
-0.8569133638
 10
-10.8084674905
 20
-0.810199854
 10
-10.8057532253
 20
-0.7662275988
  0
LWPOLYLINE
  5
284
100
AcDbEntity
  8
0
100
AcDbPolyline
 62
253
  6
CONTINUOUS
 90
16
 70
0
 10
-11.2711718224
 20
-1.0583390622
 10
-11.2684862819
 20
-1.0066930938
 10
-11.2604461034
 20
-0.9554290789
 10
-11.2470844794
 20
-0.9051075508
 10
-11.2284705443
 20
-0.8562353001
 10
-11.2047689091
 20
-0.8094228558
 10
-11.1762933088
 20
-0.7653507202
 10
-11.1433984708
 20
-0.7245506817
 10
-11.1064146445
 20
-0.687417463
 10
-11.0657374041
 20
-0.6543516684
 10
-11.0218033055
 20
-0.6257157568
 10
-10.9751000931
 20
-0.6018346694
 10
-10.9261533873
 20
-0.5829797069
 10
-10.8755066968
 20
-0.5693594826
 10
-10.8237132374
 20
-0.5611220421
 10
-10.7713431599
 20
-0.5583581007
  0
LWPOLYLINE
  5
285
100
AcDbEntity
  8
0
100
AcDbPolyline
 62
253
  6
CONTINUOUS
 90
9
 70
0
 10
-10.8057532253
 20
-0.7662275988
 10
-10.7999620348
 20
-0.6886481493
 10
-10.7963228725
 20
-0.6555489589
 10
-10.7923918613
 20
-0.6269062874
 10
-10.7887420577
 20
-0.6029839313
 10
-10.7844695792
 20
-0.5839447211
 10
-10.7795767266
 20
-0.5700459906
 10
-10.7750387175
 20
-0.5615000908
 10
-10.7713431603
 20
-0.5583581007
  0
LINE
  5
286
100
AcDbEntity
  8
0
100
AcDbLine
 62
253
  6
CONTINUOUS
 10
-11.3881766339
 20
0.4206078481
 11
-11.2711718249
 21
0.4596015302
  0
LINE
  5
287
100
AcDbEntity
  8
0
100
AcDbLine
 62
7
  6
CONTINUOUS
 10
-11.4484042536
 20
-4.4993687656
 11
-11.3881766339
 21
-4.4993687656
  0
LINE
  5
288
100
AcDbEntity
  8
0
100
AcDbLine
 62
7
  6
CONTINUOUS
 10
10.6730379817
 20
-4.4993687656
 11
10.6128103621
 21
-4.4993687656
  0
LINE
  5
289
100
AcDbEntity
  8
0
100
AcDbLine
 62
253
  6
CONTINUOUS
 10
-11.2711718224
 20
-1.0583390622
 11
-11.3881766339
 21
-1.0193453793
  0
LWPOLYLINE
  5
28A
100
AcDbEntity
  8
0
100
AcDbPolyline
 62
253
  6
CONTINUOUS
 90
11
 70
0
 10
-11.3003491341
 20
21.2257059087
 10
-11.2990553689
 20
21.2213533995
 10
-11.2977834078
 20
21.2136596296
 10
-11.2965332507
 20
21.2026245991
 10
-11.2952983481
 20
21.1881593963
 10
-11.2940852496
 20
21.1703529329
 10
-11.2929136039
 20
21.1494719438
 10
-11.2917845978
 20
21.1254716825
 10
-11.2906970446
 20
21.0983968955
 10
-11.289667033
 20
21.0686485582
 10
-11.2886954187
 20
21.0361850231
  0
LINE
  5
28B
100
AcDbEntity
  8
0
100
AcDbLine
 62
253
  6
CONTINUOUS
 10
-10.8881194939
 20
-0.0792969697
 11
-10.7713431624
 21
-0.0403794314
  0
LINE
  5
28C
100
AcDbEntity
  8
0
100
AcDbLine
 62
253
  6
CONTINUOUS
 10
-10.7713431611
 20
-0.5583581002
 11
-10.8881194939
 21
-0.5194405615
  0
LINE
  5
28D
100
AcDbEntity
  8
0
100
AcDbLine
 62
253
  6
CONTINUOUS
 10
10.0251542004
 20
21.7250206773
 11
10.1735518181
 21
22.0220195655
  0
LINE
  5
28E
100
AcDbEntity
  8
0
100
AcDbLine
 62
253
  6
CONTINUOUS
 10
-11.3003491348
 20
-21.8244434411
 11
-11.4484042536
 21
-22.1207568615
  0
LINE
  5
28F
100
AcDbEntity
  8
0
100
AcDbLine
 62
253
  6
CONTINUOUS
 10
10.5249828629
 20
21.2257059099
 11
10.6730379817
 21
21.5220193304
  0
LINE
  5
290
100
AcDbEntity
  8
0
100
AcDbLine
 62
7
  6
CONTINUOUS
 10
7.8623168641
 20
-0.5438757913
 11
8.107285122
 21
-0.5194405615
  0
LINE
  5
291
100
AcDbEntity
  8
0
100
AcDbLine
 62
253
  6
CONTINUOUS
 10
10.4958055531
 20
-1.0583390613
 11
10.4921712206
 21
-1.0584152249
  0
LINE
  5
292
100
AcDbEntity
  8
0
100
AcDbLine
 62
253
  6
CONTINUOUS
 10
10.4921712206
 20
-1.0584152249
 11
10.4709057119
 21
-1.058564678
  0
LINE
  5
293
100
AcDbEntity
  8
0
100
AcDbLine
 62
253
  6
CONTINUOUS
 10
9.9959768906
 20
-0.5583580998
 11
3.0750230718
 21
-0.5618034674
  0
LINE
  5
294
100
AcDbEntity
  8
0
100
AcDbLine
 62
253
  6
CONTINUOUS
 10
-10.7713431624
 20
-0.0403794314
 11
-3.8503893436
 21
-0.0369340638
  0
LINE
  5
295
100
AcDbEntity
  8
0
100
AcDbLine
 62
253
  6
CONTINUOUS
 10
10.4709057119
 20
-1.058564678
 11
3.0892481468
 21
-1.0627195513
  0
LINE
  5
296
100
AcDbEntity
  8
0
100
AcDbLine
 62
7
  6
CONTINUOUS
 10
7.8623168641
 20
-0.5438757913
 11
-8.6376831359
 21
-0.5438757913
  0
LINE
  5
297
100
AcDbEntity
  8
0
100
AcDbLine
 62
7
  6
CONTINUOUS
 10
-10.8881194939
 20
-0.5194405615
 11
-8.8826513938
 21
-0.5194405615
  0
LINE
  5
298
100
AcDbEntity
  8
0
100
AcDbLine
 62
7
  6
CONTINUOUS
 10
8.107285122
 20
-0.5194405615
 11
10.1127532221
 21
-0.5194405615
  0
LINE
  5
299
100
AcDbEntity
  8
0
100
AcDbLine
 62
7
  6
CONTINUOUS
 10
10.1127532221
 20
-0.0792969697
 11
8.107285122
 21
-0.0792969697
  0
LINE
  5
29A
100
AcDbEntity
  8
0
100
AcDbLine
 62
7
  6
CONTINUOUS
 10
-8.8826513938
 20
-0.0792969697
 11
-10.8881194939
 21
-0.0792969697
  0
LINE
  5
29B
100
AcDbEntity
  8
0
100
AcDbLine
 62
7
  6
CONTINUOUS
 10
-8.6376831359
 20
-0.0548617399
 11
7.8623168641
 21
-0.0548617399
  0
LINE
  5
29C
100
AcDbEntity
  8
0
100
AcDbLine
 62
253
  6
CONTINUOUS
 10
3.0892481468
 20
-1.0627195513
 11
-3.8646112747
 21
-1.0627195522
  0
LINE
  5
29D
100
AcDbEntity
  8
0
100
AcDbLine
 62
253
  6
CONTINUOUS
 10
3.0750230718
 20
-0.5618034674
 11
-3.8503919387
 21
-0.5618034668
  0
LINE
  5
29E
100
AcDbEntity
  8
0
100
AcDbLine
 62
253
  6
CONTINUOUS
 10
-3.8503893436
 20
-0.0369340638
 11
3.0750256669
 21
-0.0369340644
  0
LINE
  5
29F
100
AcDbEntity
  8
0
100
AcDbLine
 62
253
  6
CONTINUOUS
 10
-3.8646112747
 20
-1.0627195522
 11
-10.9555357855
 21
-1.0590602628
  0
LINE
  5
2A0
100
AcDbEntity
  8
0
100
AcDbLine
 62
253
  6
CONTINUOUS
 10
-3.8503919387
 20
-0.5618034668
 11
-10.7713431611
 21
-0.5583581002
  0
LINE
  5
2A1
100
AcDbEntity
  8
0
100
AcDbLine
 62
253
  6
CONTINUOUS
 10
3.0750256669
 20
-0.0369340644
 11
9.9959768893
 21
-0.0403794309
  0
LINE
  5
2A2
100
AcDbEntity
  8
0
100
AcDbLine
 62
253
  6
CONTINUOUS
 10
-10.9555357855
 20
-1.0590602628
 11
-11.2462719814
 21
-1.0585646737
  0
LWPOLYLINE
  5
2A3
100
AcDbEntity
  8
0
100
AcDbPolyline
 62
253
  6
CONTINUOUS
 90
3
 70
0
 10
-11.2462719814
 20
-1.0585646737
 10
-11.2675374901
 20
-1.058415224
 10
-11.2711718225
 20
-1.0583390622
  0
LINE
  5
2A4
100
AcDbEntity
  8
0
100
AcDbLine
 62
7
  6
CONTINUOUS
 10
-8.6376831359
 20
-0.5438757913
 11
-8.8826513938
 21
-0.5194405615
  0
LINE
  5
2A5
100
AcDbEntity
  8
0
100
AcDbLine
 62
253
  6
CONTINUOUS
 10
10.1735518181
 20
-22.6207570967
 11
10.0251541998
 21
-22.3237582072
  0
LINE
  5
2A6
100
AcDbEntity
  8
0
100
AcDbLine
 62
253
  6
CONTINUOUS
 10
-11.4484042536
 20
21.5220193304
 11
-11.3003491341
 21
21.2257059087
  0
LINE
  5
2A7
100
AcDbEntity
  8
0
100
AcDbLine
 62
253
  6
CONTINUOUS
 10
10.6730379817
 20
-22.1207568615
 11
10.5249828623
 21
-21.8244434398
  0
LINE
  5
2A8
100
AcDbEntity
  8
0
100
AcDbLine
 62
253
  6
CONTINUOUS
 10
-10.8005204723
 20
-22.3237582085
 11
-10.9489180899
 21
-22.6207570967
  0
LINE
  5
2A9
100
AcDbEntity
  8
0
100
AcDbLine
 62
7
  6
CONTINUOUS
 10
-8.6376831359
 20
-0.0548617399
 11
-8.8826513938
 21
-0.0792969697
  0
LINE
  5
2AA
100
AcDbEntity
  8
0
100
AcDbLine
 62
253
  6
CONTINUOUS
 10
-11.2711718249
 20
0.4596015302
 11
-11.2675374925
 21
0.4596776937
  0
LINE
  5
2AB
100
AcDbEntity
  8
0
100
AcDbLine
 62
253
  6
CONTINUOUS
 10
-11.2675374925
 20
0.4596776937
 11
-11.2462719838
 21
0.4598271468
  0
LINE
  5
2AC
100
AcDbEntity
  8
0
100
AcDbLine
 62
253
  6
CONTINUOUS
 10
-11.2462719838
 20
0.4598271468
 11
-3.8646144187
 21
0.4639820202
  0
LINE
  5
2AD
100
AcDbEntity
  8
0
100
AcDbLine
 62
253
  6
CONTINUOUS
 10
-3.8646144187
 20
0.4639820202
 11
3.0892450029
 21
0.463982021
  0
LINE
  5
2AE
100
AcDbEntity
  8
0
100
AcDbLine
 62
253
  6
CONTINUOUS
 10
3.0892450029
 20
0.463982021
 11
10.1801695137
 21
0.4603227316
  0
LINE
  5
2AF
100
AcDbEntity
  8
0
100
AcDbLine
 62
253
  6
CONTINUOUS
 10
10.1801695137
 20
0.4603227316
 11
10.4709057096
 21
0.4598271425
  0
LWPOLYLINE
  5
2B0
100
AcDbEntity
  8
0
100
AcDbPolyline
 62
253
  6
CONTINUOUS
 90
3
 70
0
 10
10.4709057096
 20
0.4598271425
 10
10.4921712182
 20
0.4596776928
 10
10.4958055506
 20
0.459601531
  0
LINE
  5
2B1
100
AcDbEntity
  8
0
100
AcDbLine
 62
7
  6
CONTINUOUS
 10
7.8623168641
 20
-0.0548617399
 11
8.107285122
 21
-0.0792969697
  0
LINE
  5
2B2
100
AcDbEntity
  8
0
100
AcDbLine
 62
253
  6
CONTINUOUS
 10
-10.9489180899
 20
22.0220195655
 11
-10.8005204717
 21
21.7250206761
  0
LINE
  5
2B3
100
AcDbEntity
  8
0
100
AcDbLine
 62
253
  6
CONTINUOUS
 10
10.1127532221
 20
-0.5194405615
 11
9.9959768906
 21
-0.5583580998
  0
LINE
  5
2B4
100
AcDbEntity
  8
0
100
AcDbLine
 62
253
  6
CONTINUOUS
 10
10.6128103621
 20
-1.0193453793
 11
10.4958055531
 21
-1.0583390613
  0
LINE
  5
2B5
100
AcDbEntity
  8
0
100
AcDbLine
 62
7
  6
CONTINUOUS
 10
-11.4484042536
 20
3.9006312344
 11
-11.3881766339
 21
3.9006312344
  0
LINE
  5
2B6
100
AcDbEntity
  8
0
100
AcDbLine
 62
7
  6
CONTINUOUS
 10
10.6730379817
 20
3.9006312344
 11
10.6128103621
 21
3.9006312344
  0
LINE
  5
2B7
100
AcDbEntity
  8
0
100
AcDbLine
 62
253
  6
CONTINUOUS
 10
9.9959768893
 20
-0.0403794309
 11
10.1127532221
 21
-0.0792969697
  0
LINE
  5
2B8
100
AcDbEntity
  8
0
100
AcDbLine
 62
253
  6
CONTINUOUS
 10
10.4958055505
 20
0.459601531
 11
10.6128103621
 21
0.4206078481
  0
LWPOLYLINE
  5
2B9
100
AcDbEntity
  8
0
100
AcDbPolyline
 62
253
  6
CONTINUOUS
 90
10
 70
0
 10
10.5249828623
 20
-21.8244434398
 10
10.5236890971
 20
-21.8200909306
 10
10.5224171359
 20
-21.8123971608
 10
10.5211669789
 20
-21.8013621303
 10
10.5199320763
 20
-21.7868969275
 10
10.5187189778
 20
-21.769090464
 10
10.5175473321
 20
-21.748209475
 10
10.516418326
 20
-21.7242092136
 10
10.5153307728
 20
-21.6971344267
 10
10.5143007611
 20
-21.6673860894
  0
LWPOLYLINE
  5
2BA
100
AcDbEntity
  8
0
100
AcDbPolyline
 62
253
  6
CONTINUOUS
 90
8
 70
0
 10
10.0245963423
 20
-0.6886541086
 10
10.0209571894
 20
-0.6555539899
 10
10.0170262006
 20
-0.6269102024
 10
10.0133763351
 20
-0.6029866657
 10
10.0091037364
 20
-0.5839463831
 10
10.0042107368
 20
-0.5700467916
 10
9.9996725718
 20
-0.5615003111
 10
9.9959768906
 20
-0.5583580998
  0
LWPOLYLINE
  5
2BB
100
AcDbEntity
  8
0
100
AcDbPolyline
 62
253
  6
CONTINUOUS
 90
16
 70
0
 10
10.4958055531
 20
-1.0583390613
 10
10.4931200176
 20
-1.0066931409
 10
10.4850798517
 20
-0.9554291617
 10
10.4717182444
 20
-0.9051076564
 10
10.453104326
 20
-0.8562354144
 10
10.4294027041
 20
-0.8094229669
 10
10.4009271132
 20
-0.7653508212
 10
10.3680322776
 20
-0.7245507657
 10
10.3310484463
 20
-0.6874175264
 10
10.2903711986
 20
-0.6543517141
 10
10.2464370945
 20
-0.6257157897
 10
10.1997338761
 20
-0.6018346919
 10
10.1507871615
 20
-0.5829797203
 10
10.1001404587
 20
-0.5693594884
 10
10.0483469847
 20
-0.561122043
 10
9.9959768906
 20
-0.5583580998
  0
LWPOLYLINE
  5
2BC
100
AcDbEntity
  8
0
100
AcDbPolyline
 62
253
  6
CONTINUOUS
 90
4
 70
0
 10
10.0349023855
 20
-0.8569193841
 10
10.0331015112
 20
-0.8102065336
 10
10.0303873838
 20
-0.7662344959
 10
10.0245963423
 20
-0.6886541086
  0
LINE
  5
2BD
100
AcDbEntity
  8
0
100
AcDbLine
 62
253
  6
CONTINUOUS
 10
10.5143007611
 20
-21.6673860894
 11
10.5124150742
 21
-21.5997854688
  0
LINE
  5
2BE
100
AcDbEntity
  8
0
100
AcDbLine
 62
253
  6
CONTINUOUS
 10
10.5124150742
 20
-21.5997854688
 11
10.510801252
 21
-21.5230387229
  0
LINE
  5
2BF
100
AcDbEntity
  8
0
100
AcDbLine
 62
253
  6
CONTINUOUS
 10
10.0344150158
 20
21.4557753236
 11
10.0325412004
 21
21.5530203915
  0
LINE
  5
2C0
100
AcDbEntity
  8
0
100
AcDbLine
 62
253
  6
CONTINUOUS
 10
10.510801252
 20
-21.5230387229
 11
10.5094829357
 21
-21.438286721
  0
LINE
  5
2C1
100
AcDbEntity
  8
0
100
AcDbLine
 62
253
  6
CONTINUOUS
 10
10.0369144753
 20
21.276303972
 11
10.0344150158
 21
21.4557753236
  0
LINE
  5
2C2
100
AcDbEntity
  8
0
100
AcDbLine
 62
253
  6
CONTINUOUS
 10
10.5094829357
 20
-21.438286721
 11
10.5081244511
 21
-21.3002785616
  0
LINE
  5
2C3
100
AcDbEntity
  8
0
100
AcDbLine
 62
253
  6
CONTINUOUS
 10
10.0394879035
 20
20.9871167483
 11
10.0369144753
 21
21.276303972
  0
LWPOLYLINE
  5
2C4
100
AcDbEntity
  8
0
100
AcDbPolyline
 62
253
  6
CONTINUOUS
 90
3
 70
0
 10
10.0386426334
 20
0.4603808144
 10
10.0388676365
 20
0.4073913266
 10
10.0380151481
 20
0.3561398006
  0
LINE
  5
2C5
100
AcDbEntity
  8
0
100
AcDbLine
 62
253
  6
CONTINUOUS
 10
10.0412154461
 20
20.5778987151
 11
10.0394879035
 21
20.9871167483
  0
LINE
  5
2C6
100
AcDbEntity
  8
0
100
AcDbLine
 62
253
  6
CONTINUOUS
 10
10.5081244511
 20
-21.3002785616
 11
10.5075563478
 21
-21.1551941224
  0
LINE
  5
2C7
100
AcDbEntity
  8
0
100
AcDbLine
 62
253
  6
CONTINUOUS
 10
10.5075563478
 20
-21.1551941224
 11
10.5051170127
 21
-18.8451996656
  0
LINE
  5
2C8
100
AcDbEntity
  8
0
100
AcDbLine
 62
253
  6
CONTINUOUS
 10
10.0386424176
 20
0.4603808179
 11
10.0412154409
 21
20.5778987161
  0
LINE
  5
2C9
100
AcDbEntity
  8
0
100
AcDbLine
 62
253
  6
CONTINUOUS
 10
10.0407420259
 20
-21.3439783157
 11
10.0386424291
 21
-1.0591183547
  0
LWPOLYLINE
  5
2CA
100
AcDbEntity
  8
0
100
AcDbPolyline
 62
253
  6
CONTINUOUS
 90
4
 70
0
 10
10.0386426361
 20
-1.059118357
 10
10.0388675104
 20
-1.0061308662
 10
10.0380151033
 20
-0.954881014
 10
10.0349023855
 20
-0.8569193841
  0
LINE
  5
2CB
100
AcDbEntity
  8
0
100
AcDbLine
 62
253
  6
CONTINUOUS
 10
10.5075563481
 20
20.5564565934
 11
10.5081244518
 21
20.7015410324
  0
LINE
  5
2CC
100
AcDbEntity
  8
0
100
AcDbLine
 62
253
  6
CONTINUOUS
 10
10.0383166657
 20
-21.7364447461
 11
10.0407420259
 21
-21.3439783157
  0
LINE
  5
2CD
100
AcDbEntity
  8
0
100
AcDbLine
 62
253
  6
CONTINUOUS
 10
10.5081244518
 20
20.7015410324
 11
10.5094829363
 21
20.8395491919
  0
LINE
  5
2CE
100
AcDbEntity
  8
0
100
AcDbLine
 62
253
  6
CONTINUOUS
 10
10.0361265035
 20
-21.93897133
 11
10.0383166657
 21
-21.7364447461
  0
LINE
  5
2CF
100
AcDbEntity
  8
0
100
AcDbLine
 62
253
  6
CONTINUOUS
 10
10.0344150149
 20
-22.0545128527
 11
10.0361265035
 21
-21.93897133
  0
LINE
  5
2D0
100
AcDbEntity
  8
0
100
AcDbLine
 62
253
  6
CONTINUOUS
 10
10.5094829363
 20
20.8395491919
 11
10.5108012526
 21
20.9243011938
  0
LINE
  5
2D1
100
AcDbEntity
  8
0
100
AcDbLine
 62
253
  6
CONTINUOUS
 10
10.0325411995
 20
-22.1517579216
 11
10.0344150149
 21
-22.0545128527
  0
LINE
  5
2D2
100
AcDbEntity
  8
0
100
AcDbLine
 62
253
  6
CONTINUOUS
 10
10.5108012526
 20
20.9243011938
 11
10.5124150748
 21
21.0010479397
  0
LWPOLYLINE
  5
2D3
100
AcDbEntity
  8
0
100
AcDbPolyline
 62
253
  6
CONTINUOUS
 90
11
 70
0
 10
10.5124150748
 20
21.0010479397
 10
10.5143007618
 20
21.0686485601
 10
10.5153307734
 20
21.0983968973
 10
10.5164183267
 20
21.1254716841
 10
10.5175473328
 20
21.1494719454
 10
10.5187189784
 20
21.1703529344
 10
10.5199320769
 20
21.1881593979
 10
10.5211669795
 20
21.2026246007
 10
10.5224171366
 20
21.2136596311
 10
10.5236890977
 20
21.2213534008
 10
10.5249828629
 20
21.2257059099
  0
LWPOLYLINE
  5
2D4
100
AcDbEntity
  8
0
100
AcDbPolyline
 62
253
  6
CONTINUOUS
 90
4
 70
0
 10
10.0380151481
 20
0.3561398006
 10
10.0349021323
 20
0.2581758326
 10
10.0331012187
 20
0.2114623228
 10
10.0303869535
 20
0.1674900676
  0
LWPOLYLINE
  5
2D5
100
AcDbEntity
  8
0
100
AcDbPolyline
 62
253
  6
CONTINUOUS
 90
16
 70
0
 10
10.4958055506
 20
0.459601531
 10
10.4931200101
 20
0.4079555626
 10
10.4850798315
 20
0.3566915477
 10
10.4717182076
 20
0.3063700197
 10
10.4531042725
 20
0.2574977689
 10
10.4294026373
 20
0.2106853246
 10
10.400927037
 20
0.1666131891
 10
10.368032199
 20
0.1258131505
 10
10.3310483727
 20
0.0886799319
 10
10.2903711322
 20
0.0556141372
 10
10.2464370337
 20
0.0269782256
 10
10.1997338212
 20
0.0030971382
 10
10.1507871154
 20
-0.0157578243
 10
10.1001404249
 20
-0.0293780486
 10
10.0483469656
 20
-0.0376154891
 10
9.9959768881
 20
-0.0403794305
  0
LWPOLYLINE
  5
2D6
100
AcDbEntity
  8
0
100
AcDbPolyline
 62
253
  6
CONTINUOUS
 90
9
 70
0
 10
10.0303869535
 20
0.1674900676
 10
10.024595763
 20
0.0899106181
 10
10.0209566007
 20
0.0568114278
 10
10.0170255895
 20
0.0281687563
 10
10.0133757859
 20
0.0042464001
 10
10.0091033074
 20
-0.0147928101
 10
10.0042104548
 20
-0.0286915406
 10
9.9996724457
 20
-0.0372374404
 10
9.9959768885
 20
-0.0403794305
  0
LWPOLYLINE
  5
2D7
100
AcDbEntity
  8
0
100
AcDbPolyline
 62
253
  6
CONTINUOUS
 90
6
 70
0
 10
10.0305117732
 20
21.6300251624
 10
10.0294796418
 20
21.6604426387
 10
10.0284068769
 20
21.6852622891
 10
10.0272994153
 20
21.7043590678
 10
10.0262058968
 20
21.7176347397
 10
10.0251542004
 20
21.7250206773
  0
LINE
  5
2D8
100
AcDbEntity
  8
0
100
AcDbLine
 62
253
  6
CONTINUOUS
 10
10.0325412004
 20
21.5530203915
 11
10.0305117732
 21
21.6300251624
  0
LINE
  5
2D9
100
AcDbEntity
  8
0
100
AcDbLine
 62
253
  6
CONTINUOUS
 10
10.5051170127
 20
-18.8451996656
 11
10.4983349966
 21
-10.0363447256
  0
LINE
  5
2DA
100
AcDbEntity
  8
0
100
AcDbLine
 62
253
  6
CONTINUOUS
 10
10.4983349966
 20
-10.0363447256
 11
10.4958055531
 21
-1.0583390613
  0
LINE
  5
2DB
100
AcDbEntity
  8
0
100
AcDbLine
 62
7
  6
CONTINUOUS
 10
10.6128103621
 20
-1.0193453793
 11
10.6128103621
 21
-4.4993687656
  0
LINE
  5
2DC
100
AcDbEntity
  8
0
100
AcDbLine
 62
7
  6
CONTINUOUS
 10
10.6128103621
 20
0.4206078481
 11
10.6128103621
 21
3.9006312344
  0
LINE
  5
2DD
100
AcDbEntity
  8
0
100
AcDbLine
 62
7
  6
CONTINUOUS
 10
10.6730379817
 20
21.5220193304
 11
10.6730379817
 21
3.9006312344
  0
LINE
  5
2DE
100
AcDbEntity
  8
0
100
AcDbLine
 62
7
  6
CONTINUOUS
 10
10.6730379817
 20
-22.1207568615
 11
10.6730379817
 21
-4.4993687656
  0
LINE
  5
2DF
100
AcDbEntity
  8
0
100
AcDbLine
 62
253
  6
CONTINUOUS
 10
10.4958055505
 20
0.459601531
 11
10.499250355
 21
11.0441892328
  0
LINE
  5
2E0
100
AcDbEntity
  8
0
100
AcDbLine
 62
253
  6
CONTINUOUS
 10
10.499250355
 20
11.0441892328
 11
10.5075563481
 21
20.5564565934
  0
LWPOLYLINE
  5
2E1
100
AcDbEntity
  8
0
100
AcDbPolyline
 62
253
  6
CONTINUOUS
 90
7
 70
0
 10
10.0251541998
 20
-22.3237582072
 10
10.0262058962
 20
-22.3163722701
 10
10.0272994147
 20
-22.3030965987
 10
10.0284068763
 20
-22.2839998206
 10
10.0294796412
 20
-22.2591801704
 10
10.0305117724
 20
-22.2287626935
 10
10.0325411995
 20
-22.1517579216
  0
LWPOLYLINE
  5
2E2
100
AcDbEntity
  8
0
100
AcDbPolyline
 62
253
  6
CONTINUOUS
 90
14
 70
0
 10
-10.9135857099
 20
20.5770917199
 10
-10.9604230532
 20
20.5763856384
 10
-11.0055410285
 20
20.5754863265
 10
-11.0485021759
 20
20.574402504
 10
-11.0888899477
 20
20.5731446794
 10
-11.1263127476
 20
20.5717250485
 10
-11.1604077271
 20
20.5701573759
 10
-11.1908443044
 20
20.5684568617
 10
-11.2173273689
 20
20.5666399938
 10
-11.2396001431
 20
20.5647243885
 10
-11.257446672
 20
20.5627286193
 10
-11.2706939172
 20
20.560672037
 10
-11.2792134346
 20
20.5585745821
 10
-11.2829226196
 20
20.5564565913
  0
LINE
  5
2E3
100
AcDbEntity
  8
0
100
AcDbLine
 62
253
  6
CONTINUOUS
 10
-10.8165817111
 20
20.5778987474
 11
-10.9135857099
 21
20.5770917199
  0
LINE
  5
2E4
100
AcDbEntity
  8
0
100
AcDbLine
 62
253
  6
CONTINUOUS
 10
10.0412154409
 20
20.5778987161
 11
5.3143094911
 21
20.5729194798
  0
LINE
  5
2E5
100
AcDbEntity
  8
0
100
AcDbLine
 62
253
  6
CONTINUOUS
 10
5.3143094911
 20
20.5729194798
 11
0.581885375
 21
20.5708616068
  0
LINE
  5
2E6
100
AcDbEntity
  8
0
100
AcDbLine
 62
253
  6
CONTINUOUS
 10
0.581885375
 20
20.5708616068
 11
-6.2270152701
 21
20.5730228002
  0
LINE
  5
2E7
100
AcDbEntity
  8
0
100
AcDbLine
 62
253
  6
CONTINUOUS
 10
-6.2270152701
 20
20.5730228002
 11
-10.8165817112
 21
20.5778987336
  0
LWPOLYLINE
  5
2E8
100
AcDbEntity
  8
0
100
AcDbPolyline
 62
253
  6
CONTINUOUS
 90
15
 70
0
 10
10.0412145895
 20
20.5778982009
 10
10.1382176791
 20
20.5770911991
 10
10.1850546275
 20
20.5763851393
 10
10.230172265
 20
20.5754858548
 10
10.2731331438
 20
20.5744020646
 10
10.3135207269
 20
20.5731442766
 10
10.3509434275
 20
20.5717246859
 10
10.3850384056
 20
20.5701570565
 10
10.4154750856
 20
20.5684565878
 10
10.441958362
 20
20.566639767
 10
10.4642314602
 20
20.5647242094
 10
10.4820784265
 20
20.5627284878
 10
10.4953262216
 20
20.5606719521
 10
10.5038463985
 20
20.558574542
 10
10.507556348
 20
20.5564565934
  0
LINE
  5
2E9
100
AcDbEntity
  8
0
100
AcDbLine
 62
7
  6
CONTINUOUS
 10
7.8783422679
 20
22.0220195655
 11
7.070051891
 21
21.9486486745
  0
LINE
  5
2EA
100
AcDbEntity
  8
0
100
AcDbLine
 62
7
  6
CONTINUOUS
 10
-3.3216577321
 20
22.0220195655
 11
-4.129948109
 21
21.9486486745
  0
LWPOLYLINE
  5
2EB
100
AcDbEntity
  8
0
100
AcDbPolyline
 62
253
  6
CONTINUOUS
 90
16
 70
0
 10
-10.8005204717
 20
21.725020676
 10
-10.8527220981
 20
21.7222186308
 10
-10.9043527096
 20
21.7139860414
 10
-10.9548476063
 20
21.7004129711
 10
-11.0036545281
 20
21.6816478867
 10
-11.0502396496
 20
21.6578960507
 10
-11.0940934264
 20
21.6294172905
 10
-11.1347362307
 20
21.5965231219
 10
-11.1717235754
 20
21.5595733376
 10
-11.2046509389
 20
21.5189721024
 10
-11.2331582186
 20
21.4751635111
 10
-11.2569336708
 20
21.4286267141
 10
-11.2757173051
 20
21.3798706891
 10
-11.2893037217
 20
21.3294286861
 10
-11.2975443614
 20
21.2778523969
 10
-11.3003491341
 20
21.2257059087
  0
LINE
  5
2EC
100
AcDbEntity
  8
0
100
AcDbLine
 62
253
  6
CONTINUOUS
 10
10.0251542004
 20
21.7250206773
 11
6.6555886312
 21
21.714994541
  0
LINE
  5
2ED
100
AcDbEntity
  8
0
100
AcDbLine
 62
253
  6
CONTINUOUS
 10
6.6555886312
 20
21.714994541
 11
3.2835425769
 21
21.7088403754
  0
LINE
  5
2EE
100
AcDbEntity
  8
0
100
AcDbLine
 62
253
  6
CONTINUOUS
 10
3.2835425769
 20
21.7088403754
 11
-0.0901145176
 21
21.7065601659
  0
LINE
  5
2EF
100
AcDbEntity
  8
0
100
AcDbLine
 62
7
  6
CONTINUOUS
 10
6.8968468103
 20
21.9434078966
 11
3.5277869179
 21
21.9434078966
  0
LINE
  5
2F0
100
AcDbEntity
  8
0
100
AcDbLine
 62
7
  6
CONTINUOUS
 10
-4.3031531897
 20
21.9434078966
 11
-7.6722130821
 21
21.9434078966
  0
LINE
  5
2F1
100
AcDbEntity
  8
0
100
AcDbLine
 62
7
  6
CONTINUOUS
 10
10.1735518181
 20
22.0220195655
 11
7.8783422679
 21
22.0220195655
  0
LINE
  5
2F2
100
AcDbEntity
  8
0
100
AcDbLine
 62
7
  6
CONTINUOUS
 10
2.5462914603
 20
22.0220195655
 11
-3.3216577321
 21
22.0220195655
  0
LINE
  5
2F3
100
AcDbEntity
  8
0
100
AcDbLine
 62
7
  6
CONTINUOUS
 10
-8.6537085397
 20
22.0220195655
 11
-10.9489180899
 21
22.0220195655
  0
LINE
  5
2F4
100
AcDbEntity
  8
0
100
AcDbLine
 62
253
  6
CONTINUOUS
 10
-0.0901145176
 20
21.7065601659
 11
-3.4578421745
 21
21.7081471005
  0
LINE
  5
2F5
100
AcDbEntity
  8
0
100
AcDbLine
 62
253
  6
CONTINUOUS
 10
-3.4578421745
 20
21.7081471005
 11
-6.9288558162
 21
21.713832644
  0
LWPOLYLINE
  5
2F6
100
AcDbEntity
  8
0
100
AcDbPolyline
 62
253
  6
CONTINUOUS
 90
3
 70
0
 10
-6.9288558162
 20
21.713832644
 10
-9.9829420573
 20
21.7222597701
 10
-10.8005204717
 20
21.7250206761
  0
LWPOLYLINE
  5
2F7
100
AcDbEntity
  8
0
100
AcDbPolyline
 62
253
  6
CONTINUOUS
 90
16
 70
0
 10
10.0251542004
 20
21.7250206773
 10
10.0773551705
 20
21.7222187021
 10
10.128985212
 20
21.713986305
 10
10.1794796409
 20
21.7004135247
 10
10.2282861934
 20
21.6816488086
 10
10.2748710661
 20
21.6578973885
 10
10.3187247545
 20
21.6294190367
 10
10.3593676254
 20
21.5965252245
 10
10.3963551627
 20
21.5595757156
 10
10.4292828292
 20
21.5189746313
 10
10.4577904908
 20
21.4751660307
 10
10.4815663559
 20
21.4286290539
 10
10.5003503846
 20
21.3798726816
 10
10.513937134
 20
21.3294301682
 10
10.5221780039
 20
21.2778532098
 10
10.5249828629
 20
21.2257059099
  0
LINE
  5
2F8
100
AcDbEntity
  8
0
100
AcDbLine
 62
7
  6
CONTINUOUS
 10
-8.6537085397
 20
22.0220195655
 11
-7.8454181628
 21
21.9486486745
  0
LINE
  5
2F9
100
AcDbEntity
  8
0
100
AcDbLine
 62
7
  6
CONTINUOUS
 10
2.5462914603
 20
22.0220195655
 11
3.3545818372
 21
21.9486486745
  0
LINE
  5
2FA
100
AcDbEntity
  8
0
100
AcDbLine
 62
7
  6
CONTINUOUS
 10
-28.3713912916
 20
-22.6207570967
 11
-34.3910066845
 21
-22.3052824218
  0
LWPOLYLINE
  5
2FB
100
AcDbEntity
  8
0
100
AcDbPolyline
 62
253
  6
CONTINUOUS
 90
22
 70
0
 10
-34.0384676972
 20
-22.3237582072
 10
-34.1226758676
 20
-22.3163722701
 10
-34.2061389293
 20
-22.3030965987
 10
-34.2884460775
 20
-22.2839998206
 10
-34.3691911941
 20
-22.2591801704
 10
-34.4479790573
 20
-22.2287626935
 10
-34.5244265477
 20
-22.1928966649
 10
-34.5981617569
 20
-22.1517579216
 10
-34.6688182869
 20
-22.1055524788
 10
-34.7360413634
 20
-22.0545128527
 10
-34.7995000778
 20
-21.9988940984
 10
-34.8588855803
 20
-21.93897133
 10
-34.9139046409
 20
-21.8750414989
 10
-34.9642885324
 20
-21.8074209034
 10
-35.0097912127
 20
-21.7364447461
 10
-35.050187883
 20
-21.6624653059
 10
-35.0852795139
 20
-21.5858542701
 10
-35.114899486
 20
-21.5069846971
 10
-35.1389074324
 20
-21.4262288085
 10
-35.1571847303
 20
-21.3439783157
 10
-35.1696390002
 20
-21.2606439298
 10
-35.1762077615
 20
-21.1766362649
  0
LINE
  5
2FC
100
AcDbEntity
  8
0
100
AcDbLine
 62
253
  6
CONTINUOUS
 10
-35.1762077513
 20
-21.1766362786
 11
-35.1705034163
 21
-21.1763352562
  0
LINE
  5
2FD
100
AcDbEntity
  8
0
100
AcDbLine
 62
253
  6
CONTINUOUS
 10
-35.1705034163
 20
-21.1763352562
 11
-34.9669205749
 21
-21.1671943929
  0
LINE
  5
2FE
100
AcDbEntity
  8
0
100
AcDbLine
 62
253
  6
CONTINUOUS
 10
-34.9669205749
 20
-21.1671943929
 11
-34.6908799352
 21
-21.1551941224
  0
LINE
  5
2FF
100
AcDbEntity
  8
0
100
AcDbLine
 62
253
  6
CONTINUOUS
 10
-35.5265653563
 20
-21.1695377158
 11
-35.1762077537
 21
-21.1766362648
  0
LINE
  5
300
100
AcDbEntity
  8
0
100
AcDbLine
 62
253
  6
CONTINUOUS
 10
-28.3713912916
 20
-22.1207568615
 11
-34.0253881932
 21
-21.8244434398
  0
LWPOLYLINE
  5
301
100
AcDbEntity
  8
0
100
AcDbPolyline
 62
253
  6
CONTINUOUS
 90
22
 70
0
 10
-34.0253881932
 20
-21.8244434398
 10
-34.0747950937
 20
-21.8200909306
 10
-34.1233693303
 20
-21.8123971608
 10
-34.1711109028
 20
-21.8013621303
 10
-34.2182699304
 20
-21.7868969275
 10
-34.264596294
 20
-21.769090464
 10
-34.3093396364
 20
-21.748209475
 10
-34.3524546397
 20
-21.7242092136
 10
-34.3939866217
 20
-21.6971344267
 10
-34.433321179
 20
-21.6673860894
 10
-34.470425632
 20
-21.6349225542
 10
-34.5053326601
 20
-21.5997854688
 10
-34.5375258986
 20
-21.5625007509
 10
-34.5669620434
 20
-21.5230387229
 10
-34.5936843986
 20
-21.4814290625
 10
-34.6173065116
 20
-21.438286721
 10
-34.637784056
 20
-21.393567873
 10
-34.6551613583
 20
-21.347316344
 10
-34.6691849447
 20
-21.3002785616
 10
-34.6797703241
 20
-21.2527033352
 10
-34.6870019876
 20
-21.2043418555
 10
-34.6908799352
 20
-21.1551941224
  0
LINE
  5
302
100
AcDbEntity
  8
0
100
AcDbLine
 62
7
  6
CONTINUOUS
 10
-25.3713912916
 20
-13.4731881622
 11
-28.3713912916
 21
-13.4993687656
  0
LWPOLYLINE
  5
303
100
AcDbEntity
  8
0
100
AcDbPolyline
 62
253
  6
CONTINUOUS
 90
11
 70
0
 10
-34.0384676737
 20
21.7250206773
 10
-34.0396877577
 20
21.7222187021
 10
-34.0406082954
 20
21.713986305
 10
-34.0412192188
 20
21.7004135247
 10
-34.0415138463
 20
21.6816488086
 10
-34.0414889553
 20
21.6578973885
 10
-34.0411448177
 20
21.6294190367
 10
-34.0404851974
 20
21.5965252245
 10
-34.0395173088
 20
21.5595757156
 10
-34.0382517377
 20
21.5189746313
 10
-34.0348860194
 20
21.4286290539
  0
LWPOLYLINE
  5
304
100
AcDbEntity
  8
0
100
AcDbPolyline
 62
253
  6
CONTINUOUS
 90
9
 70
0
 10
-34.0384676972
 20
-22.3237582072
 10
-34.0396877991
 20
-22.320956162
 10
-34.0406083455
 20
-22.3127235726
 10
-34.0412192692
 20
-22.2991505023
 10
-34.0415138897
 20
-22.2803854179
 10
-34.0414889854
 20
-22.2566335819
 10
-34.0411448301
 20
-22.2281548217
 10
-34.0404851899
 20
-22.1952606531
 10
-34.0395172817
 20
-22.1583108687
  0
LINE
  5
305
100
AcDbEntity
  8
0
100
AcDbLine
 62
7
  6
CONTINUOUS
 10
-28.3713912916
 20
-9.2993687656
 11
-25.3713912916
 21
-9.325549369
  0
LWPOLYLINE
  5
306
100
AcDbEntity
  8
0
100
AcDbPolyline
 62
7
  6
CONTINUOUS
 90
10
 70
0
 10
-36.0706802782
 20
-1.0631697741
 10
-36.0606089362
 20
-3.2388096377
 10
-36.0377005944
 20
-5.4922129324
 10
-36.0020962375
 20
-7.7454570314
 10
-35.953796254
 20
-9.9984704018
 10
-35.8928030353
 20
-12.2511815588
 10
-35.8191194911
 20
-14.5035190158
 10
-35.7327485306
 20
-16.7554113034
 10
-35.6336930628
 20
-19.0067869689
 10
-35.5265653518
 20
-21.1695378029
  0
LWPOLYLINE
  5
307
100
AcDbEntity
  8
0
100
AcDbPolyline
 62
7
  6
CONTINUOUS
 90
10
 70
0
 10
-35.5265653518
 20
20.5708002717
 10
-35.6336930628
 20
18.4080494377
 10
-35.7327485306
 20
16.1566737722
 10
-35.8191194911
 20
13.9047814846
 10
-35.8928030353
 20
11.6524440276
 10
-35.953796254
 20
9.3997328706
 10
-36.0020962375
 20
7.1467195003
 10
-36.0377005944
 20
4.8934754012
 10
-36.0606089362
 20
2.6400721065
 10
-36.0706802782
 20
0.464432243
  0
LWPOLYLINE
  5
308
100
AcDbEntity
  8
0
100
AcDbPolyline
 62
253
  6
CONTINUOUS
 90
22
 70
0
 10
-35.1762077364
 20
20.5778987151
 10
-35.1696389749
 20
20.6619063945
 10
-35.1571847035
 20
20.7452407906
 10
-35.1389074037
 20
20.8274912895
 10
-35.1148994563
 20
20.9082471787
 10
-35.0852794847
 20
20.9871167483
 10
-35.0501878547
 20
21.0637277813
 10
-35.0097911845
 20
21.1377072205
 10
-34.9642885044
 20
21.2086833772
 10
-34.9139046131
 20
21.276303972
 10
-34.858885553
 20
21.3402338023
 10
-34.7995000511
 20
21.4001565699
 10
-34.7360413375
 20
21.4557753236
 10
-34.6688182618
 20
21.5068149491
 10
-34.5981617325
 20
21.5530203915
 10
-34.5244265243
 20
21.5941591344
 10
-34.4479790358
 20
21.6300251624
 10
-34.3691911748
 20
21.6604426387
 10
-34.2884460594
 20
21.6852622891
 10
-34.2061389106
 20
21.7043590678
 10
-34.1226758472
 20
21.7176347397
 10
-34.0384676737
 20
21.7250206773
  0
LWPOLYLINE
  5
309
100
AcDbEntity
  8
0
100
AcDbPolyline
 62
253
  6
CONTINUOUS
 90
22
 70
0
 10
-34.6908799222
 20
20.5564565934
 10
-34.6870019689
 20
20.6056043264
 10
-34.6797703012
 20
20.6539658061
 10
-34.669184919
 20
20.7015410324
 10
-34.6551613315
 20
20.7485788148
 10
-34.6377840295
 20
20.7948303439
 10
-34.6173064854
 20
20.8395491919
 10
-34.5936843725
 20
20.8826915334
 10
-34.5669620174
 20
20.9243011938
 10
-34.5375258727
 20
20.9637632218
 10
-34.5053326342
 20
21.0010479397
 10
-34.4704256061
 20
21.0361850251
 10
-34.4333211533
 20
21.0686485601
 10
-34.3939865962
 20
21.0983968973
 10
-34.3524546143
 20
21.1254716841
 10
-34.3093396112
 20
21.1494719454
 10
-34.264596269
 20
21.1703529344
 10
-34.2182699057
 20
21.1881593979
 10
-34.1711108784
 20
21.2026246007
 10
-34.1233693062
 20
21.2136596311
 10
-34.07479507
 20
21.2213534008
 10
-34.0253881697
 20
21.2257059099
  0
LWPOLYLINE
  5
30A
100
AcDbEntity
  8
0
100
AcDbPolyline
 62
253
  6
CONTINUOUS
 90
16
 70
0
 10
-35.6247120011
 20
0.4603808144
 10
-35.621949744
 20
0.4073913266
 10
-35.6139052129
 20
0.3561398006
 10
-35.6007958307
 20
0.306508593
 10
-35.5825105487
 20
0.2581758326
 10
-35.559027594
 20
0.2114623228
 10
-35.5308713618
 20
0.1674900676
 10
-35.4984936937
 20
0.1269482261
 10
-35.4619607929
 20
0.0899106181
 10
-35.4217246263
 20
0.0568114278
 10
-35.378374967
 20
0.0281687563
 10
-35.3323249878
 20
0.0042464001
 10
-35.2839456612
 20
-0.0147928101
 10
-35.2337840744
 20
-0.0286915406
 10
-35.1825486166
 20
-0.0372374404
 10
-35.1308995693
 20
-0.0403794305
  0
LWPOLYLINE
  5
30B
100
AcDbEntity
  8
0
100
AcDbPolyline
 62
253
  6
CONTINUOUS
 90
10
 70
0
 10
-35.1762077537
 20
-21.1766362648
 10
-35.2702033708
 20
-18.8643597209
 10
-35.3518932292
 20
-16.5900838659
 10
-35.4218142376
 20
-14.3538783962
 10
-35.4798786296
 20
-12.1809953036
 10
-35.5274445444
 20
-10.0463113047
 10
-35.5662022344
 20
-7.8743031257
 10
-35.59592954
 20
-5.6398119196
 10
-35.615606582
 20
-3.3680684914
 10
-35.6247119219
 20
-1.0591183547
  0
LWPOLYLINE
  5
30C
100
AcDbEntity
  8
0
100
AcDbPolyline
 62
253
  6
CONTINUOUS
 90
10
 70
0
 10
-34.6908799352
 20
-21.1551941224
 10
-34.7840343816
 20
-18.8451996656
 10
-34.8659399607
 20
-16.5732944136
 10
-34.9365966727
 20
-14.3394783664
 10
-34.9954373343
 20
-12.1688669436
 10
-35.0430291287
 20
-10.0363447256
 10
-35.0810736054
 20
-7.8665654542
 10
-35.1101379478
 20
-5.63441371
 10
-35.1296549725
 20
-3.3650049124
 10
-35.1402418983
 20
-0.9554291617
  0
LWPOLYLINE
  5
30D
100
AcDbEntity
  8
0
100
AcDbPolyline
 62
253
  6
CONTINUOUS
 90
9
 70
0
 10
-35.1391918405
 20
0.1258131505
 10
-35.1385474416
 20
0.0886799319
 10
-35.1377708314
 20
0.0556141372
 10
-35.1368702784
 20
0.0269782256
 10
-35.1358557189
 20
0.0030971382
 10
-35.134738549
 20
-0.0157578243
 10
-35.1335311805
 20
-0.0293780486
 10
-35.1322468078
 20
-0.0376154891
 10
-35.1308995693
 20
-0.0403794305
  0
LINE
  5
30E
100
AcDbEntity
  8
0
100
AcDbLine
 62
253
  6
CONTINUOUS
 10
-35.1400582138
 20
0.2106853246
 11
-35.1391918405
 21
0.1258131505
  0
LINE
  5
30F
100
AcDbEntity
  8
0
100
AcDbLine
 62
253
  6
CONTINUOUS
 10
-35.1403312583
 20
0.3063700197
 11
-35.1400582138
 21
0.2106853246
  0
LINE
  5
310
100
AcDbEntity
  8
0
100
AcDbLine
 62
253
  6
CONTINUOUS
 10
-35.1402418983
 20
-0.9554291617
 11
-35.1402702404
 21
-0.8562354144
  0
LWPOLYLINE
  5
311
100
AcDbEntity
  8
0
100
AcDbPolyline
 62
253
  6
CONTINUOUS
 90
10
 70
0
 10
-35.6247119229
 20
0.4603808179
 10
-35.6170924466
 20
2.5246487126
 10
-35.6003840234
 20
4.6196128285
 10
-35.5741889692
 20
6.7452307195
 10
-35.5384119019
 20
8.885219653
 10
-35.492482654
 20
11.0557697997
 10
-35.4346275171
 20
13.3055285697
 10
-35.3632115416
 20
15.6506496102
 10
-35.2774669257
 20
18.0748073831
 10
-35.1762077543
 20
20.5778987161
  0
LINE
  5
312
100
AcDbEntity
  8
0
100
AcDbLine
 62
253
  6
CONTINUOUS
 10
-35.1326702821
 20
2.5218583615
 11
-35.1403312583
 21
0.3063700197
  0
LWPOLYLINE
  5
313
100
AcDbEntity
  8
0
100
AcDbPolyline
 62
253
  6
CONTINUOUS
 90
9
 70
0
 10
-35.1326702821
 20
2.5218583615
 10
-35.1158171037
 20
4.6146774231
 10
-35.0890652411
 20
6.7380587156
 10
-35.0535184635
 20
8.8758428587
 10
-35.0080730016
 20
11.0441892328
 10
-34.9494175473
 20
13.2915759792
 10
-34.8764483313
 20
15.6341624783
 10
-34.7902691229
 20
18.0557893497
 10
-34.6908799222
 20
20.5564565934
  0
LWPOLYLINE
  5
314
100
AcDbEntity
  8
0
100
AcDbPolyline
 62
253
  6
CONTINUOUS
 90
11
 70
0
 10
-35.1402702404
 20
-0.8562354144
 10
-35.1396970698
 20
-0.7653508212
 10
-35.1391917449
 20
-0.7245507657
 10
-35.1385473461
 20
-0.6874175264
 10
-35.1377707358
 20
-0.6543517141
 10
-35.1368701828
 20
-0.6257157897
 10
-35.1358556231
 20
-0.6018346919
 10
-35.1347384531
 20
-0.5829797203
 10
-35.1335310845
 20
-0.5693594884
 10
-35.1322467118
 20
-0.561122043
 10
-35.1308994732
 20
-0.5583580998
  0
LWPOLYLINE
  5
315
100
AcDbEntity
  8
0
100
AcDbPolyline
 62
253
  6
CONTINUOUS
 90
16
 70
0
 10
-35.6247119042
 20
-1.059118357
 10
-35.62194987
 20
-1.0061308662
 10
-35.6139059019
 20
-0.954881014
 10
-35.6007973406
 20
-0.9052511383
 10
-35.5825130902
 20
-0.8569193841
 10
-35.5590313051
 20
-0.8102065336
 10
-35.5308762118
 20
-0.7662344959
 10
-35.4984994734
 20
-0.725692381
 10
-35.4619672158
 20
-0.6886541086
 10
-35.4217313457
 20
-0.6555539899
 10
-35.3783815275
 20
-0.6269102024
 10
-35.3323308971
 20
-0.6029866657
 10
-35.28395054
 20
-0.5839463831
 10
-35.2337876069
 20
-0.5700467916
 10
-35.1825504734
 20
-0.5615003111
 10
-35.1308994732
 20
-0.5583580998
  0
LINE
  5
316
100
AcDbEntity
  8
0
100
AcDbLine
 62
7
  6
CONTINUOUS
 10
-28.3713912916
 20
-4.4993687656
 11
-30.6713912916
 21
-4.4993687656
  0
LINE
  5
317
100
AcDbEntity
  8
0
100
AcDbLine
 62
253
  6
CONTINUOUS
 10
-34.030534885
 20
21.3294301682
 11
-34.0253881697
 21
21.2257059099
  0
LINE
  5
318
100
AcDbEntity
  8
0
100
AcDbLine
 62
253
  6
CONTINUOUS
 10
-34.0348860194
 20
21.4286290539
 11
-34.030534885
 21
21.3294301682
  0
LINE
  5
319
100
AcDbEntity
  8
0
100
AcDbLine
 62
253
  6
CONTINUOUS
 10
-34.0395172817
 20
-22.1583108687
 11
-34.0367022713
 21
-22.0739010422
  0
LINE
  5
31A
100
AcDbEntity
  8
0
100
AcDbLine
 62
253
  6
CONTINUOUS
 10
-34.0367022713
 20
-22.0739010422
 11
-34.0328226307
 21
-21.9786082203
  0
LWPOLYLINE
  5
31B
100
AcDbEntity
  8
0
100
AcDbPolyline
 62
253
  6
CONTINUOUS
 90
3
 70
0
 10
-34.0328226307
 20
-21.9786082203
 10
-34.0280476335
 20
-21.8765899281
 10
-34.0253881932
 20
-21.8244434398
  0
LINE
  5
31C
100
AcDbEntity
  8
0
100
AcDbLine
 62
7
  6
CONTINUOUS
 10
-30.6713912916
 20
-0.5194405615
 11
-30.6713912916
 21
-4.4993687656
  0
LINE
  5
31D
100
AcDbEntity
  8
0
100
AcDbLine
 62
7
  6
CONTINUOUS
 10
-30.6713912916
 20
-0.0792969697
 11
-30.6713912916
 21
3.9006312344
  0
LINE
  5
31E
100
AcDbEntity
  8
0
100
AcDbLine
 62
253
  6
CONTINUOUS
 10
-35.6247119219
 20
-1.0591183547
 11
-36.0706802782
 21
-1.0631697682
  0
LINE
  5
31F
100
AcDbEntity
  8
0
100
AcDbLine
 62
253
  6
CONTINUOUS
 10
-30.6713912916
 20
-1.0193453793
 11
-35.1396246796
 21
-1.0583390613
  0
LINE
  5
320
100
AcDbEntity
  8
0
100
AcDbLine
 62
7
  6
CONTINUOUS
 10
-30.6713912916
 20
-0.5194405615
 11
-35.5750494564
 21
-0.562234138
  0
LINE
  5
321
100
AcDbEntity
  8
0
100
AcDbLine
 62
253
  6
CONTINUOUS
 10
-35.1396246783
 20
-1.0583390613
 11
-35.6247119042
 21
-1.059118357
  0
LINE
  5
322
100
AcDbEntity
  8
0
100
AcDbLine
 62
7
  6
CONTINUOUS
 10
-35.5750494564
 20
-0.0365033932
 11
-30.6713912916
 21
-0.0792969697
  0
LINE
  5
323
100
AcDbEntity
  8
0
100
AcDbLine
 62
253
  6
CONTINUOUS
 10
-35.6247120011
 20
0.4603808144
 11
-35.1396247745
 21
0.459601531
  0
LINE
  5
324
100
AcDbEntity
  8
0
100
AcDbLine
 62
253
  6
CONTINUOUS
 10
-35.1396247761
 20
0.459601531
 11
-30.6713912916
 21
0.4206078481
  0
LINE
  5
325
100
AcDbEntity
  8
0
100
AcDbLine
 62
253
  6
CONTINUOUS
 10
-36.0706802782
 20
0.464432237
 11
-35.6247119229
 21
0.4603808179
  0
LINE
  5
326
100
AcDbEntity
  8
0
100
AcDbLine
 62
7
  6
CONTINUOUS
 10
-28.3713912916
 20
22.0220195655
 11
-28.3713912916
 21
3.9006312344
  0
LINE
  5
327
100
AcDbEntity
  8
0
100
AcDbLine
 62
7
  6
CONTINUOUS
 10
-28.3713912916
 20
-22.6207570967
 11
-28.3713912916
 21
-4.4993687656
  0
LINE
  5
328
100
AcDbEntity
  8
0
100
AcDbLine
 62
253
  6
CONTINUOUS
 10
-25.9399897179
 20
12.8794127143
 11
-25.9399897179
 21
8.7218497545
  0
LINE
  5
329
100
AcDbEntity
  8
0
100
AcDbLine
 62
253
  6
CONTINUOUS
 10
-25.9399897179
 20
-9.3205872857
 11
-25.9399897179
 21
-13.4781502455
  0
LINE
  5
32A
100
AcDbEntity
  8
0
100
AcDbLine
 62
7
  6
CONTINUOUS
 10
-25.3713912916
 20
12.874450631
 11
-25.3713912916
 21
8.7268118378
  0
LINE
  5
32B
100
AcDbEntity
  8
0
100
AcDbLine
 62
7
  6
CONTINUOUS
 10
-25.3713912916
 20
-9.325549369
 11
-25.3713912916
 21
-13.4731881622
  0
LINE
  5
32C
100
AcDbEntity
  8
0
100
AcDbLine
 62
7
  6
CONTINUOUS
 10
-28.3713912916
 20
3.9006312344
 11
-30.6713912916
 21
3.9006312344
  0
LINE
  5
32D
100
AcDbEntity
  8
0
100
AcDbLine
 62
7
  6
CONTINUOUS
 10
-25.3713912916
 20
8.7268118378
 11
-28.3713912916
 21
8.7006312344
  0
LINE
  5
32E
100
AcDbEntity
  8
0
100
AcDbLine
 62
7
  6
CONTINUOUS
 10
-28.3713912916
 20
12.9006312344
 11
-25.3713912916
 21
12.874450631
  0
LWPOLYLINE
  5
32F
100
AcDbEntity
  8
0
100
AcDbPolyline
 62
253
  6
CONTINUOUS
 90
4
 70
0
 10
-35.1761949829
 20
20.5778982009
 10
-35.1704909053
 20
20.5775971882
 10
-35.1600096678
 20
20.5770911991
 10
-34.6908799222
 20
20.5564565934
  0
LINE
  5
330
100
AcDbEntity
  8
0
100
AcDbLine
 62
253
  6
CONTINUOUS
 10
-34.0253881697
 20
21.2257059099
 11
-28.3713912916
 21
21.5220193304
  0
LINE
  5
331
100
AcDbEntity
  8
0
100
AcDbLine
 62
7
  6
CONTINUOUS
 10
-34.3910066845
 20
21.7065448906
 11
-28.3713912916
 21
22.0220195655
  0
LINE
  5
332
100
AcDbEntity
  8
0
100
AcDbLine
 62
253
  6
CONTINUOUS
 10
-35.1762077543
 20
20.5778987161
 11
-35.5265653563
 21
20.5708001847
  0
ARC
  5
333
100
AcDbEntity
  8
0
100
AcDbCircle
 62
7
  6
CONTINUOUS
 10
-34.328199745
 20
-21.1069271788
 40
1.2
100
AcDbArc
 50
182.9907948827
 51
267.0
  0
ARC
  5
334
100
AcDbEntity
  8
0
100
AcDbCircle
 62
7
  6
CONTINUOUS
 10
-34.328199745
 20
20.5081896476
 40
1.2
100
AcDbArc
 50
93.0
 51
177.0092051173
  0
ARC
  5
335
100
AcDbEntity
  8
0
100
AcDbCircle
 62
7
  6
CONTINUOUS
 10
-35.5706764247
 20
-1.0622150143
 40
0.5
100
AcDbArc
 50
90.5
 51
180.1094064386
  0
ARC
  5
336
100
AcDbEntity
  8
0
100
AcDbCircle
 62
7
  6
CONTINUOUS
 10
-35.5706764247
 20
0.4634774832
 40
0.5
100
AcDbArc
 50
179.8905935614
 51
269.5
  0
ELLIPSE
  5
337
100
AcDbEntity
  8
0
100
AcDbEllipse
 62
7
  6
CONTINUOUS
 10
3.5277869179
 20
21.9538894524
 30
0.0
 11
0.2
 21
-0.0
 31
0.0
 40
0.0524077793
 41
-2.617993878
 42
-1.5707963268
  0
ELLIPSE
  5
338
100
AcDbEntity
  8
0
100
AcDbEllipse
 62
7
  6
CONTINUOUS
 10
6.8968468103
 20
21.9538894524
 30
0.0
 11
0.2
 21
0.0
 31
0.0
 40
0.0524077793
 41
-1.5707963268
 42
-0.5235987756
  0
ELLIPSE
  5
339
100
AcDbEntity
  8
0
100
AcDbEllipse
 62
7
  6
CONTINUOUS
 10
-4.3031531897
 20
21.9538894524
 30
0.0
 11
0.2
 21
-0.0
 31
0.0
 40
0.0524077793
 41
-1.5707963268
 42
-0.5235987756
  0
ELLIPSE
  5
33A
100
AcDbEntity
  8
0
100
AcDbEllipse
 62
7
  6
CONTINUOUS
 10
-7.6722130821
 20
21.9538894524
 30
0.0
 11
0.2
 21
-0.0
 31
0.0
 40
0.0524077793
 41
-2.617993878
 42
-1.5707963268
  0
ELLIPSE
  5
33B
100
AcDbEntity
  8
0
100
AcDbEllipse
 62
7
  6
CONTINUOUS
 10
10.1728665855
 20
21.5213333925
 30
0.0
 11
0.2238673116
 21
0.4480418466
 31
0.0
 40
0.9982882662
 41
-1.1067376861
 42
0.4626886447
  0
ELLIPSE
  5
33C
100
AcDbEntity
  8
0
100
AcDbEllipse
 62
7
  6
CONTINUOUS
 10
-10.9482328573
 20
21.5213333925
 30
0.0
 11
-0.2238673116
 21
0.4480418466
 31
0.0
 40
0.9982882662
 41
-0.4626886447
 42
1.1067376861
  0
ELLIPSE
  5
33D
100
AcDbEntity
  8
0
100
AcDbEllipse
 62
7
  6
CONTINUOUS
 10
-10.8880052377
 20
0.4207220695
 30
0.0
 11
0.4745319423
 21
0.1581451893
 31
0.0
 40
0.9996192872
 41
2.8200172282
 42
4.3905851209
  0
ELLIPSE
  5
33E
100
AcDbEntity
  8
0
100
AcDbEllipse
 62
7
  6
CONTINUOUS
 10
10.1126389659
 20
0.4207220695
 30
0.0
 11
0.4745319423
 21
-0.1581451893
 31
0.0
 40
0.9996192872
 41
-1.2489924673
 42
0.3215754254
  0
ELLIPSE
  5
33F
100
AcDbEntity
  8
0
100
AcDbEllipse
 62
7
  6
CONTINUOUS
 10
-4.3031531897
 20
-22.5526269836
 30
0.0
 11
0.2
 21
0.0
 31
0.0
 40
0.0524077793
 41
0.5235987756
 42
1.5707963268
  0
ELLIPSE
  5
340
100
AcDbEntity
  8
0
100
AcDbEllipse
 62
7
  6
CONTINUOUS
 10
-7.6722130821
 20
-22.5526269836
 30
0.0
 11
0.2
 21
-0.0
 31
0.0
 40
0.0524077793
 41
1.5707963268
 42
2.617993878
  0
ELLIPSE
  5
341
100
AcDbEntity
  8
0
100
AcDbEllipse
 62
7
  6
CONTINUOUS
 10
3.5277869179
 20
-22.5526269836
 30
0.0
 11
0.2
 21
0.0
 31
0.0
 40
0.0524077793
 41
1.5707963268
 42
2.617993878
  0
ELLIPSE
  5
342
100
AcDbEntity
  8
0
100
AcDbEllipse
 62
7
  6
CONTINUOUS
 10
6.8968468103
 20
-22.5526269836
 30
0.0
 11
0.2
 21
0.0
 31
0.0
 40
0.0524077793
 41
0.5235987756
 42
1.5707963268
  0
ELLIPSE
  5
343
100
AcDbEntity
  8
0
100
AcDbEllipse
 62
7
  6
CONTINUOUS
 10
-10.9482328573
 20
-22.1200709237
 30
0.0
 11
0.2238673116
 21
0.4480418466
 31
0.0
 40
0.9982882662
 41
-4.2483303396
 42
-2.6789040089
  0
ELLIPSE
  5
344
100
AcDbEntity
  8
0
100
AcDbEllipse
 62
7
  6
CONTINUOUS
 10
10.1728665855
 20
-22.1200709237
 30
0.0
 11
-0.2238673116
 21
0.4480418466
 31
0.0
 40
0.9982882662
 41
-3.6042812983
 42
-2.0348549675
  0
ELLIPSE
  5
345
100
AcDbEntity
  8
0
100
AcDbEllipse
 62
7
  6
CONTINUOUS
 10
10.1126389659
 20
-1.0194596007
 30
0.0
 11
0.4745319423
 21
0.1581451893
 31
0.0
 40
0.9996192872
 41
-0.3215754254
 42
1.2489924673
  0
ELLIPSE
  5
346
100
AcDbEntity
  8
0
100
AcDbEllipse
 62
7
  6
CONTINUOUS
 10
-10.8880052377
 20
-1.0194596007
 30
0.0
 11
0.4745319423
 21
-0.1581451893
 31
0.0
 40
0.9996192872
 41
1.8926001863
 42
3.463168079
  0
ENDSEC
  0
SECTION
  2
OBJECTS
  0
DICTIONARY
  5
C
100
AcDbDictionary
280
0
281
1
  3
ACAD_GROUP
350
D
  3
ACAD_MLINESTYLE
350
17
  3
ACAD_LAYOUT
350
1A
  3
ACAD_PLOTSETTINGS
350
19
  3
ACAD_PLOTSTYLENAME
350
E
  0
DICTIONARY
  5
D
102
{ACAD_REACTORS
330
C
102
}
100
AcDbDictionary
280
0
281
1
  0
ACDBDICTIONARYWDFLT
  5
E
102
{ACAD_REACTORS
330
C
102
}
100
AcDbDictionary
281
1
  3
Normal
350
F
100
AcDbDictionaryWithDefault
340
F
  0
DICTIONARY
  5
17
102
{ACAD_REACTORS
330
C
102
}
100
AcDbDictionary
280
0
281
1
  3
Standard
350
18
  0
DICTIONARY
  5
19
102
{ACAD_REACTORS
330
C
102
}
100
AcDbDictionary
281
1
  0
DICTIONARY
  5
1A
102
{ACAD_REACTORS
330
C
102
}
100
AcDbDictionary
281
1
  3
Model
350
347
  3
Layout1
350
348
  0
ACDBPLACEHOLDER
  5
F
102
{ACAD_REACTORS
330
E
102
}
  0
MLINESTYLE
  5
18
102
{ACAD_REACTORS
330
17
102
}
100
AcDbMlineStyle
  2
STANDARD
 70
0
  3

 62
256
 51
90.0
 52
90.0
 71
2
 49
0.5
 62
256
  6
BYLAYER
 49
-0.5
 62
256
  6
BYLAYER
  0
LAYOUT
  5
347
102
{ACAD_REACTORS
330
1A
102
}
100
AcDbPlotSettings
  1

  2
none_device
  4
ISO_A4_(297.00_x_210.00_MM)
  6

 40
0.0
 41
0.0
 42
0.0
 43
0.0
 44
297.0
 45
210.0
 46
0.0
 47
0.0
 48
0.0
 49
0.0
140
0.0
141
0.0
142
1.0
143
1.0
 70
1024
 72
1
 73
0
 74
0
  7

 75
0
147
1.0
148
0.0
149
0.0
100
AcDbLayout
  1
Model
 70
0
 71
0
 10
0.0
 20
0.0
 11
297.0
 21
210.0
 12
0.0
 22
0.0
 32
0.0
 14
0.0
 24
0.0
 34
0.0
 15
0.0
 25
0.0
 35
0.0
146
0.0
 13
0.0
 23
0.0
 33
0.0
 16
1.0
 26
0.0
 36
0.0
 17
0.0
 27
1.0
 37
0.0
 76
0
330
21D
345
0
346
0
  0
LAYOUT
  5
348
102
{ACAD_REACTORS
330
1A
102
}
100
AcDbPlotSettings
  1

  2
none_device
  4
ISO_A4_(297.00_x_210.00_MM)
  6

 40
0.0
 41
0.0
 42
0.0
 43
0.0
 44
297.0
 45
210.0
 46
0.0
 47
0.0
 48
0.0
 49
0.0
140
0.0
141
0.0
142
1.0
143
1.0
 70
0
 72
1
 73
0
 74
0
  7

 75
0
147
1.0
148
0.0
149
0.0
100
AcDbLayout
  1
Layout1
 70
0
 71
1
 10
0.0
 20
0.0
 11
297.0
 21
210.0
 12
0.0
 22
0.0
 32
0.0
 14
0.0
 24
0.0
 34
0.0
 15
0.0
 25
0.0
 35
0.0
146
0.0
 13
0.0
 23
0.0
 33
0.0
 16
1.0
 26
0.0
 36
0.0
 17
0.0
 27
1.0
 37
0.0
 76
0
330
21E
345
0
346
0
  0
ENDSEC
  0
EOF
