  0
SECTION
  2
HEADER
  9
$ACADVER
  1
AC1021
  9
$DWGCODEPAGE
  3
ANSI_1252
  9
$EXTMAX
 10
297.0
 20
210.0
 30
0.0
  9
$EXTMIN
 10
0.0
 20
0.0
 30
0.0
  9
$LIMMIN
 10
0.0
 20
0.0
  9
$LIMMAX
 10
297.0
 20
210.0
  9
$VIEWCTR
 10
148.5
 20
105.0
  9
$VIEWSIZE
 40
210.0
  9
$CLAYER
  8
0
  9
$LTSCALE
 40
16.335
  9
$CELTYPE
  6
BYLAYER
  9
$DIMSCALE
 40
1.0
  9
$DIMASZ
 40
3.0
  9
$DIMEXO
 40
0.5
  9
$DIMDLI
 40
11.286
  9
$DIMEXE
 40
1.5
  9
$DIMCEN
 40
2.673
  9
$DIMLFAC
 40
1.0
  9
$DIMBLK
  1
_FILLED
  9
$DIMALT
 70
0
  9
$DIMALTF
 40
25.4
  9
$DIMTXT
 40
3.0
  9
$DIMTOL
 70
1
  9
$DIMLIM
 70
0
  9
$DIMTFAC
 40
1.0
  9
$DIMTP
 40
0.01
  9
$DIMTM
 40
0.01
  9
$DIMGAP
 40
0.625
  9
$DIMDSEP
 70
44
  9
$AUNITS
 70
0
  9
$PDMODE
 70
3
  9
$PDSIZE
 40
3.0
  9
$HANDSEED
  5
451
  9
$TILEMODE
 70
1
  9
$MEASUREMENT
 70
1
  9
$INSUNITS
 70
4
  0
ENDSEC
  0
SECTION
  2
CLASSES
  0
CLASS
  1
ACDBDICTIONARYWDFLT
  2
AcDbDictionaryWithDefault
  3
AutoCAD 2000
 90
0
 91
1
280
0
281
0
  0
CLASS
  1
ACDBPLACEHOLDER
  2
AcDbPlaceHolder
  3
AutoCAD 2000
 90
0
 91
1
280
0
281
0
  0
CLASS
  1
LAYOUT
  2
AcDbLayout
  3
AutoCAD 2000
 90
0
 91
0
280
0
281
0
  0
ENDSEC
  0
SECTION
  2
TABLES
  0
TABLE
  2
VPORT
  5
8
100
AcDbSymbolTable
 70
2
  0
VPORT
  5
1F4
100
AcDbSymbolTableRecord
100
AcDbViewportTableRecord
  2
*ACTIVE
 70
0
 10
0.0
 20
0.0
 11
1.0
 21
1.0
 12
148.5
 22
105.0
 13
0.0
 23
0.0
 14
1.0
 24
1.0
 15
0.0
 25
0.0
 16
0.0
 26
0.0
 36
1.0
 17
0.0
 27
0.0
 37
0.0
 40
210.0
 41
1.4142857143
 42
50.0
 43
0.0
 44
0.0
 50
0.0
 51
0.0
 71
0
 72
100
 73
1
 74
1
 75
0
 76
0
 77
0
 78
0
  0
ENDTAB
  0
TABLE
  2
LTYPE
  5
5
100
AcDbSymbolTable
 70
6
  0
LTYPE
  5
14
100
AcDbSymbolTableRecord
100
AcDbLinetypeTableRecord
  2
BYBLOCK
 70
0
  3

 72
65
 73
0
 40
0.0
  0
LTYPE
  5
15
100
AcDbSymbolTableRecord
100
AcDbLinetypeTableRecord
  2
BYLAYER
 70
0
  3

 72
65
 73
0
 40
0.0
  0
LTYPE
  5
16
100
AcDbSymbolTableRecord
100
AcDbLinetypeTableRecord
  2
CONTINUOUS
 70
64
  3
Solid line
 72
65
 73
0
 40
0.0
  0
LTYPE
  5
1F5
100
AcDbSymbolTableRecord
100
AcDbLinetypeTableRecord
  2
CENTER
 70
64
  3
____ _ ____ _ ____ _ ____ _ ____ _ ____ _ ____
 72
65
 73
4
 40
0.6
 49
0.375
 74
0
 49
-0.075
 74
0
 49
0.075
 74
0
 49
-0.075
 74
0
  0
LTYPE
  5
1F6
100
AcDbSymbolTableRecord
100
AcDbLinetypeTableRecord
  2
HIDDEN
 70
64
  3
- - - - - - - - - - - - - - - - - - - -
 72
65
 73
2
 40
0.2
 49
0.1
 74
0
 49
-0.1
 74
0
  0
LTYPE
  5
1F7
100
AcDbSymbolTableRecord
100
AcDbLinetypeTableRecord
  2
PHANTOM
 70
64
  3
_____ _ _ _____ _ _ _____ _ _ _____
 72
65
 73
6
 40
0.8
 49
0.45
 74
0
 49
-0.05
 74
0
 49
0.1
 74
0
 49
-0.05
 74
0
 49
0.1
 74
0
 49
-0.05
 74
0
  0
LTYPE
  5
1F8
100
AcDbSymbolTableRecord
100
AcDbLinetypeTableRecord
  2
DOT
 70
64
  3
. . . . . . . . . . . . . . . . . . . .
 72
65
 73
2
 40
0.2
 49
0.1
 74
0
 49
-0.1
 74
0
  0
LTYPE
  5
1F9
100
AcDbSymbolTableRecord
100
AcDbLinetypeTableRecord
  2
DASHED
 70
64
  3
- - - - - - - - - - - - - - - - - - - -
 72
65
 73
2
 40
0.2
 49
0.1
 74
0
 49
-0.1
 74
0
  0
ENDTAB
  0
TABLE
  2
LAYER
  5
2
100
AcDbSymbolTable
 70
36
  0
LAYER
  5
10
100
AcDbSymbolTableRecord
100
AcDbLayerTableRecord
  2
0
 70
0
 62
7
  6
CONTINUOUS
370
-3
390
F
  0
LAYER
  5
1FA
100
AcDbSymbolTableRecord
100
AcDbLayerTableRecord
  2
DEFAULT_1
 70
0
 62
7
  6
CENTER
370
-3
390
F
  0
LAYER
  5
1FB
100
AcDbSymbolTableRecord
100
AcDbLayerTableRecord
  2
DEFAULT_2
 70
0
 62
7
  6
HIDDEN
370
-3
390
F
  0
LAYER
  5
1FC
100
AcDbSymbolTableRecord
100
AcDbLayerTableRecord
  2
DEFAULT_3
 70
0
 62
7
  6
PHANTOM
370
-3
390
F
  0
LAYER
  5
1FD
100
AcDbSymbolTableRecord
100
AcDbLayerTableRecord
  2
ASSI
 70
0
 62
7
  6
CONTINUOUS
370
-3
390
F
  0
LAYER
  5
1FE
100
AcDbSymbolTableRecord
100
AcDbLayerTableRecord
  2
COLOR3
 70
0
 62
7
  6
CONTINUOUS
370
-3
390
F
  0
LAYER
  5
1FF
100
AcDbSymbolTableRecord
100
AcDbLayerTableRecord
  2
COORDINATE
 70
0
 62
7
  6
CONTINUOUS
370
-3
390
F
  0
LAYER
  5
200
100
AcDbSymbolTableRecord
100
AcDbLayerTableRecord
  2
COPY_PUBLISH
 70
0
 62
7
  6
CONTINUOUS
370
-3
390
F
  0
LAYER
  5
201
100
AcDbSymbolTableRecord
100
AcDbLayerTableRecord
  2
COSMETIC
 70
0
 62
7
  6
CONTINUOUS
370
-3
390
F
  0
LAYER
  5
202
100
AcDbSymbolTableRecord
100
AcDbLayerTableRecord
  2
COSMETICI
 70
0
 62
7
  6
CONTINUOUS
370
-3
390
F
  0
LAYER
  5
203
100
AcDbSymbolTableRecord
100
AcDbLayerTableRecord
  2
CURVE
 70
0
 62
7
  6
CONTINUOUS
370
-3
390
F
  0
LAYER
  5
204
100
AcDbSymbolTableRecord
100
AcDbLayerTableRecord
  2
DRAFT
 70
0
 62
7
  6
CONTINUOUS
370
-3
390
F
  0
LAYER
  5
205
100
AcDbSymbolTableRecord
100
AcDbLayerTableRecord
  2
IMPORT_IGES
 70
0
 62
7
  6
CONTINUOUS
370
-3
390
F
  0
LAYER
  5
206
100
AcDbSymbolTableRecord
100
AcDbLayerTableRecord
  2
INTFCLR_1
 70
0
 62
7
  6
CONTINUOUS
370
-3
390
F
  0
LAYER
  5
207
100
AcDbSymbolTableRecord
100
AcDbLayerTableRecord
  2
INTF_10
 70
0
 62
7
  6
CONTINUOUS
370
-3
390
F
  0
LAYER
  5
208
100
AcDbSymbolTableRecord
100
AcDbLayerTableRecord
  2
INTF_13
 70
0
 62
7
  6
CONTINUOUS
370
-3
390
F
  0
LAYER
  5
209
100
AcDbSymbolTableRecord
100
AcDbLayerTableRecord
  2
INTF_15
 70
0
 62
7
  6
CONTINUOUS
370
-3
390
F
  0
LAYER
  5
20A
100
AcDbSymbolTableRecord
100
AcDbLayerTableRecord
  2
INTF_16
 70
0
 62
7
  6
CONTINUOUS
370
-3
390
F
  0
LAYER
  5
20B
100
AcDbSymbolTableRecord
100
AcDbLayerTableRecord
  2
INTF_18
 70
0
 62
7
  6
CONTINUOUS
370
-3
390
F
  0
LAYER
  5
20C
100
AcDbSymbolTableRecord
100
AcDbLayerTableRecord
  2
INTF_20
 70
0
 62
7
  6
CONTINUOUS
370
-3
390
F
  0
LAYER
  5
20D
100
AcDbSymbolTableRecord
100
AcDbLayerTableRecord
  2
INTF_3
 70
0
 62
7
  6
CONTINUOUS
370
-3
390
F
  0
LAYER
  5
20E
100
AcDbSymbolTableRecord
100
AcDbLayerTableRecord
  2
INTF_5
 70
0
 62
7
  6
CONTINUOUS
370
-3
390
F
  0
LAYER
  5
20F
100
AcDbSymbolTableRecord
100
AcDbLayerTableRecord
  2
INTF_8
 70
0
 62
7
  6
CONTINUOUS
370
-3
390
F
  0
LAYER
  5
210
100
AcDbSymbolTableRecord
100
AcDbLayerTableRecord
  2
LIVELLO_1
 70
0
 62
7
  6
CONTINUOUS
370
-3
390
F
  0
LAYER
  5
211
100
AcDbSymbolTableRecord
100
AcDbLayerTableRecord
  2
NOTE
 70
0
 62
7
  6
CONTINUOUS
370
-3
390
F
  0
LAYER
  5
212
100
AcDbSymbolTableRecord
100
AcDbLayerTableRecord
  2
PIANI
 70
0
 62
7
  6
CONTINUOUS
370
-3
390
F
  0
LAYER
  5
213
100
AcDbSymbolTableRecord
100
AcDbLayerTableRecord
  2
PUNTI
 70
0
 62
7
  6
CONTINUOUS
370
-3
390
F
  0
LAYER
  5
214
100
AcDbSymbolTableRecord
100
AcDbLayerTableRecord
  2
RACCORDO
 70
0
 62
7
  6
CONTINUOUS
370
-3
390
F
  0
LAYER
  5
215
100
AcDbSymbolTableRecord
100
AcDbLayerTableRecord
  2
SIMBOLI
 70
0
 62
7
  6
CONTINUOUS
370
-3
390
F
  0
LAYER
  5
216
100
AcDbSymbolTableRecord
100
AcDbLayerTableRecord
  2
SMUSSO
 70
0
 62
7
  6
CONTINUOUS
370
-3
390
F
  0
LAYER
  5
217
100
AcDbSymbolTableRecord
100
AcDbLayerTableRecord
  2
SNAPLINE
 70
0
 62
7
  6
CONTINUOUS
370
-3
390
F
  0
LAYER
  5
218
100
AcDbSymbolTableRecord
100
AcDbLayerTableRecord
  2
SOLIDO
 70
0
 62
7
  6
CONTINUOUS
370
-3
390
F
  0
LAYER
  5
219
100
AcDbSymbolTableRecord
100
AcDbLayerTableRecord
  2
SUPERFICI
 70
0
 62
7
  6
CONTINUOUS
370
-3
390
F
  0
LAYER
  5
21A
100
AcDbSymbolTableRecord
100
AcDbLayerTableRecord
  2
SUPERFICI_SKEL
 70
0
 62
7
  6
CONTINUOUS
370
-3
390
F
  0
LAYER
  5
21B
100
AcDbSymbolTableRecord
100
AcDbLayerTableRecord
  2
TRASH
 70
0
 62
7
  6
CONTINUOUS
370
-3
390
F
  0
LAYER
  5
21C
100
AcDbSymbolTableRecord
100
AcDbLayerTableRecord
  2
WHITE
 70
0
 62
7
  6
CONTINUOUS
370
-3
390
F
  0
LAYER
  5
21D
100
AcDbSymbolTableRecord
100
AcDbLayerTableRecord
  2
___SHELL
 70
0
 62
7
  6
CONTINUOUS
370
-3
390
F
  0
ENDTAB
  0
TABLE
  2
STYLE
  5
3
100
AcDbSymbolTable
 70
1
  0
STYLE
  5
11
100
AcDbSymbolTableRecord
100
AcDbTextStyleTableRecord
  2
STANDARD
 70
0
 40
0.0
 41
0.8
 50
0.0
 71
0
 42
0.2
  3
txt
  4

  0
STYLE
  5
21E
100
AcDbSymbolTableRecord
100
AcDbTextStyleTableRecord
  2
TEXTSTYLE_1
 70
0
 40
0.0
 41
0.8
 50
0.0
 71
0
 42
0.2
  3
gdt
  4

  0
ENDTAB
  0
TABLE
  2
VIEW
  5
6
100
AcDbSymbolTable
 70
0
  0
ENDTAB
  0
TABLE
  2
UCS
  5
7
100
AcDbSymbolTable
 70
0
  0
ENDTAB
  0
TABLE
  2
APPID
  5
9
100
AcDbSymbolTable
 70
1
  0
APPID
  5
21F
100
AcDbSymbolTableRecord
100
AcDbRegAppTableRecord
  2
ACAD
 70
0
  0
ENDTAB
  0
TABLE
  2
BLOCK_RECORD
  5
1
100
AcDbSymbolTable
 70
0
  0
BLOCK_RECORD
  5
220
100
AcDbSymbolTableRecord
100
AcDbBlockTableRecord
  2
*Model_Space
  0
BLOCK_RECORD
  5
221
100
AcDbSymbolTableRecord
100
AcDbBlockTableRecord
  2
*Paper_Space
  0
BLOCK_RECORD
  5
222
100
AcDbSymbolTableRecord
100
AcDbBlockTableRecord
  2
_FILLED
  0
BLOCK_RECORD
  5
223
100
AcDbSymbolTableRecord
100
AcDbBlockTableRecord
  2
*D0
  0
BLOCK_RECORD
  5
224
100
AcDbSymbolTableRecord
100
AcDbBlockTableRecord
  2
*D1
  0
BLOCK_RECORD
  5
225
100
AcDbSymbolTableRecord
100
AcDbBlockTableRecord
  2
*D2
  0
ENDTAB
  0
TABLE
  2
DIMSTYLE
  5
A
100
AcDbSymbolTable
 70
1
100
AcDbDimStyleTable
 71
0
  0
DIMSTYLE
105
226
100
AcDbSymbolTableRecord
100
AcDbDimStyleTableRecord
  2
STANDARD
 70
0
  3

  4

 40
1.0
 41
3.0
 42
0.5
 43
0.38
 44
1.5
 45
0.0
 46
0.0
 47
0.01
 48
0.01
140
3.0
141
0.09
142
0.0
143
25.4
144
1.0
145
0.0
146
1.0
147
0.625
 71
1.0
 72
0.0
 73
0
 74
0
 75
0
 76
0
 77
1
 78
8
170
0
171
1
172
0
173
0
174
0
175
0
176
0
177
0
178
0
270
2
271
2
272
2
273
2
274
2
275
0
280
0
281
0
282
0
283
1
284
8
285
0
286
0
287
3
288
0
340
11
278
44
341
222
342
222
343
222
344
222
  0
DIMSTYLE
105
227
100
AcDbSymbolTableRecord
100
AcDbDimStyleTableRecord
  2
DIMSTYLE_1
 70
0
  3

  4

 40
1.0
 41
3.0
 42
0.5
 43
0.38
 44
1.5
 45
0.0
 46
0.0
 47
0.0
 48
0.0
140
3.0
141
0.09
142
0.0
143
25.4
144
1.0
145
0.0
146
1.0
147
0.75
 71
0.0
 72
0.0
 73
0
 74
0
 75
0
 76
0
 77
1
 78
8
170
0
171
1
172
0
173
0
174
0
175
0
176
0
177
0
178
0
270
2
271
2
272
2
273
2
274
2
275
0
280
0
281
0
282
0
283
1
284
8
285
0
286
0
287
3
288
0
340
11
278
44
341
222
342
222
343
222
344
222
  0
DIMSTYLE
105
228
100
AcDbSymbolTableRecord
100
AcDbDimStyleTableRecord
  2
DIMSTYLE_2
 70
0
  3

  4

 40
1.0
 41
3.0
 42
0.5
 43
0.38
 44
1.5
 45
0.0
 46
0.0
 47
0.0
 48
0.0
140
3.0
141
0.09
142
0.0
143
25.4
144
1.0
145
0.0
146
1.0
147
0.75
 71
0.0
 72
0.0
 73
0
 74
0
 75
0
 76
0
 77
1
 78
8
170
0
171
1
172
0
173
0
174
0
175
0
176
0
177
0
178
0
270
2
271
1
272
1
273
2
274
2
275
0
280
0
281
0
282
0
283
1
284
8
285
0
286
0
287
3
288
0
340
11
278
44
341
222
342
222
343
222
344
222
  0
ENDTAB
  0
ENDSEC
  0
SECTION
  2
BLOCKS
  0
BLOCK
  5
20
100
AcDbEntity
  8
0
100
AcDbBlockBegin
  2
*Model_Space
 70
0
 10
0.0
 20
0.0
 30
0.0
  3
*Model_Space
  1

  0
ENDBLK
  5
21
100
AcDbEntity
  8
0
100
AcDbBlockEnd
  0
BLOCK
  5
1C
100
AcDbEntity
  8
0
100
AcDbBlockBegin
  2
*Paper_Space
 70
0
 10
0.0
 20
0.0
 30
0.0
  3
*Paper_Space
  1

  0
ENDBLK
  5
1D
100
AcDbEntity
  8
0
100
AcDbBlockEnd
  0
BLOCK
  5
229
100
AcDbEntity
  8
0
100
AcDbBlockBegin
  2
_FILLED
 70
64
 10
0.0
 20
0.0
  3
_FILLED
  1

  0
SOLID
  5
22A
100
AcDbEntity
  8
0
  6
BYBLOCK
 62
0
100
AcDbTrace
 10
0.0
 20
0.0
 11
-1.0
 21
0.3166666667
 12
-1.0
 22
-0.3166666667
 13
-1.0
 23
-0.3166666667
  0
ENDBLK
  5
22B
100
AcDbEntity
  8
0
  6
BYBLOCK
 62
0
100
AcDbBlockEnd
  0
BLOCK
  5
22C
100
AcDbEntity
  8
0
100
AcDbBlockBegin
 62
7
  6
CONTINUOUS
  2
*D0
 70
65
 10
0.0
 20
0.0
  3
*D0
  1

  0
MTEXT
  5
22D
100
AcDbEntity
  8
0
100
AcDbMText
 62
7
  6
CONTINUOUS
  7
STANDARD
 71
2
 72
1
 10
-0.3876831359
 20
38.8440877408
 30
0.0
 11
1.0
 21
0.0
 31
0.0
 44
0.9
  1
22,05
 40
3.0
 41
16.3928571429
  0
LINE
  5
22E
100
AcDbEntity
  8
0
100
AcDbLine
 62
7
  6
CONTINUOUS
 10
-11.4130532594
 20
13.3006312344
 11
-11.4130532594
 21
36.5940877408
  0
LINE
  5
22F
100
AcDbEntity
  8
0
100
AcDbLine
 62
7
  6
CONTINUOUS
 10
10.6376869876
 20
13.3006312344
 11
10.6376869876
 21
36.5940877408
  0
LINE
  5
230
100
AcDbEntity
  8
0
100
AcDbLine
 62
7
  6
CONTINUOUS
 10
-11.4130532594
 20
35.0940877408
 11
-0.3876831359
 21
35.0940877408
  0
LINE
  5
231
100
AcDbEntity
  8
0
100
AcDbLine
 62
7
  6
CONTINUOUS
 10
10.6376869876
 20
35.0940877408
 11
-0.3876831359
 21
35.0940877408
  0
INSERT
  5
232
100
AcDbEntity
  8
0
100
AcDbBlockReference
 62
7
  6
CONTINUOUS
  2
_FILLED
 10
-11.4130532594
 20
35.0940877408
 41
3.0
 42
3.0
 43
3.0
 50
180.0
  0
INSERT
  5
233
100
AcDbEntity
  8
0
100
AcDbBlockReference
 62
7
  6
CONTINUOUS
  2
_FILLED
 10
10.6376869876
 20
35.0940877408
 41
3.0
 42
3.0
 43
3.0
  0
ENDBLK
  5
234
100
AcDbEntity
  8
0
  6
BYBLOCK
 62
0
100
AcDbBlockEnd
  0
BLOCK
  5
235
100
AcDbEntity
  8
0
100
AcDbBlockBegin
 62
7
  6
CONTINUOUS
  2
*D1
 70
65
 10
0.0
 20
0.0
  3
*D1
  1

  0
MTEXT
  5
236
100
AcDbEntity
  8
0
100
AcDbMText
 62
7
  6
CONTINUOUS
  7
STANDARD
 71
2
 72
1
 10
19.9482991282
 20
-0.2993687656
 30
0.0
 11
0.0
 21
1.0
 31
0.0
 44
0.9
  1
44,4
 40
3.0
 41
13.1785714286
  0
LINE
  5
237
100
AcDbEntity
  8
0
100
AcDbLine
 62
7
  6
CONTINUOUS
 10
10.6173326579
 20
21.9095040929
 11
25.1982991282
 21
21.9095040929
  0
LINE
  5
238
100
AcDbEntity
  8
0
100
AcDbLine
 62
7
  6
CONTINUOUS
 10
10.6173326579
 20
-22.508241624
 11
25.1982991282
 21
-22.508241624
  0
LINE
  5
239
100
AcDbEntity
  8
0
100
AcDbLine
 62
7
  6
CONTINUOUS
 10
23.6982991282
 20
21.9095040929
 11
23.6982991282
 21
-0.2993687656
  0
LINE
  5
23A
100
AcDbEntity
  8
0
100
AcDbLine
 62
7
  6
CONTINUOUS
 10
23.6982991282
 20
-22.508241624
 11
23.6982991282
 21
-0.2993687656
  0
INSERT
  5
23B
100
AcDbEntity
  8
0
100
AcDbBlockReference
 62
7
  6
CONTINUOUS
  2
_FILLED
 10
23.6982991282
 20
21.9095040929
 41
3.0
 42
3.0
 43
3.0
 50
90.0
  0
INSERT
  5
23C
100
AcDbEntity
  8
0
100
AcDbBlockReference
 62
7
  6
CONTINUOUS
  2
_FILLED
 10
23.6982991282
 20
-22.508241624
 41
3.0
 42
3.0
 43
3.0
 50
270.0
  0
ENDBLK
  5
23D
100
AcDbEntity
  8
0
  6
BYBLOCK
 62
0
100
AcDbBlockEnd
  0
BLOCK
  5
23E
100
AcDbEntity
  8
0
100
AcDbBlockBegin
 62
7
  6
CONTINUOUS
  2
*D2
 70
65
 10
0.0
 20
0.0
  3
*D2
  1

  0
MTEXT
  5
23F
100
AcDbEntity
  8
0
100
AcDbMText
 62
7
  6
CONTINUOUS
  7
STANDARD
 71
1
 72
1
 10
-23.629718015
 20
38.8440877408
 30
0.0
 11
1.0
 21
0.0
 31
0.0
 44
0.9
  1
6,35
 40
3.0
 41
12.5357142857
  0
LINE
  5
240
100
AcDbEntity
  8
0
100
AcDbLine
 62
7
  6
CONTINUOUS
 10
-27.3991497081
 20
13.3006312344
 11
-27.3991497081
 21
36.5940877408
  0
LINE
  5
241
100
AcDbEntity
  8
0
100
AcDbLine
 62
7
  6
CONTINUOUS
 10
-33.7484610449
 20
0.9526364213
 11
-33.7484610449
 21
36.5940877408
  0
LINE
  5
242
100
AcDbEntity
  8
0
100
AcDbLine
 62
7
  6
CONTINUOUS
 10
-27.3991497081
 20
35.0940877408
 11
-15.2725751579
 21
35.0940877408
  0
LINE
  5
243
100
AcDbEntity
  8
0
100
AcDbLine
 62
7
  6
CONTINUOUS
 10
-15.2725751579
 20
35.0940877408
 11
-30.5738053765
 21
35.0940877408
  0
LINE
  5
244
100
AcDbEntity
  8
0
100
AcDbLine
 62
7
  6
CONTINUOUS
 10
-33.7484610449
 20
35.0940877408
 11
-37.7484610449
 21
35.0940877408
  0
LINE
  5
245
100
AcDbEntity
  8
0
100
AcDbLine
 62
7
  6
CONTINUOUS
 10
-37.7484610449
 20
35.0940877408
 11
-30.5738053765
 21
35.0940877408
  0
INSERT
  5
246
100
AcDbEntity
  8
0
100
AcDbBlockReference
 62
7
  6
CONTINUOUS
  2
_FILLED
 10
-27.3991497081
 20
35.0940877408
 41
3.0
 42
3.0
 43
3.0
 50
180.0
  0
INSERT
  5
247
100
AcDbEntity
  8
0
100
AcDbBlockReference
 62
7
  6
CONTINUOUS
  2
_FILLED
 10
-33.7484610449
 20
35.0940877408
 41
3.0
 42
3.0
 43
3.0
  0
ENDBLK
  5
248
100
AcDbEntity
  8
0
  6
BYBLOCK
 62
0
100
AcDbBlockEnd
  0
ENDSEC
  0
SECTION
  2
ENTITIES
  0
DIMENSION
  5
249
100
AcDbEntity
  8
0
100
AcDbDimension
 62
7
  6
CONTINUOUS
  2
*D0
 10
10.6376869876
 20
35.0940877408
 11
-0.8162544694
 21
35.0940877408
 70
160
 71
2
 42
22.0507402471
  3
DIMSTYLE_1
100
AcDbAlignedDimension
 13
-11.4130532594
 23
12.8006312344
 14
10.6376869876
 24
12.8006312344
100
AcDbRotatedDimension
  0
DIMENSION
  5
24A
100
AcDbEntity
  8
0
100
AcDbDimension
 62
7
  6
CONTINUOUS
  2
*D1
 10
23.6982991282
 20
-22.508241624
 11
23.6982991282
 21
-0.7279409149
 70
160
 71
2
 42
44.4177457169
  3
DIMSTYLE_2
100
AcDbAlignedDimension
 13
10.1173326579
 23
21.9095040929
 14
10.1173326579
 24
-22.508241624
 50
270.0
100
AcDbRotatedDimension
  0
DIMENSION
  5
24B
100
AcDbEntity
  8
0
100
AcDbDimension
 62
7
  6
CONTINUOUS
  2
*D2
 10
-33.7484610449
 20
35.0940877408
 11
-19.8797180672
 21
35.0940877408
 70
160
 71
1
 42
6.3493113369
  3
DIMSTYLE_1
100
AcDbAlignedDimension
 13
-27.3991497081
 23
12.8006312344
 14
-33.7484610449
 24
0.4526364213
 50
180.0
100
AcDbRotatedDimension
  0
LINE
  5
24C
100
AcDbEntity
  8
0
100
AcDbLine
 62
7
  6
CONTINUOUS
 10
3.0063952339
 20
-22.508241624
 11
3.3545818372
 21
-22.4766357036
  0
LINE
  5
24D
100
AcDbEntity
  8
0
100
AcDbLine
 62
7
  6
CONTINUOUS
 10
-8.1936047661
 20
-22.508241624
 11
-7.8454181628
 21
-22.4766357036
  0
LWPOLYLINE
  5
24E
100
AcDbEntity
  8
0
100
AcDbPolyline
 62
253
  6
CONTINUOUS
 90
16
 70
0
 10
10.0251541998
 20
-22.3237582072
 10
10.0773558262
 20
-22.320956162
 10
10.1289864378
 20
-22.3127235726
 10
10.1794813345
 20
-22.2991505023
 10
10.2282882563
 20
-22.2803854179
 10
10.2748733778
 20
-22.2566335819
 10
10.3187271546
 20
-22.2281548217
 10
10.3593699589
 20
-22.1952606531
 10
10.3963573035
 20
-22.1583108687
 10
10.4292846671
 20
-22.1177096336
 10
10.4577919467
 20
-22.0739010422
 10
10.481567399
 20
-22.0273642453
 10
10.5003510333
 20
-21.9786082203
 10
10.5139374499
 20
-21.9281662173
 10
10.5221780895
 20
-21.8765899281
 10
10.5249828623
 20
-21.8244434398
  0
LWPOLYLINE
  5
24F
100
AcDbEntity
  8
0
100
AcDbPolyline
 62
253
  6
CONTINUOUS
 90
14
 70
0
 10
10.1382194381
 20
-21.1758292511
 10
10.1850567813
 20
-21.1751231695
 10
10.2301747567
 20
-21.1742238577
 10
10.2731359041
 20
-21.1731400352
 10
10.3135236759
 20
-21.1718822106
 10
10.3509464758
 20
-21.1704625797
 10
10.3850414553
 20
-21.1688949071
 10
10.4154780326
 20
-21.1671943929
 10
10.4419610971
 20
-21.165377525
 10
10.4642338712
 20
-21.1634619197
 10
10.4820804001
 20
-21.1614661505
 10
10.4953276454
 20
-21.1594095682
 10
10.5038471627
 20
-21.1573121133
 10
10.5075563478
 20
-21.1551941224
  0
LINE
  5
250
100
AcDbEntity
  8
0
100
AcDbLine
 62
253
  6
CONTINUOUS
 10
10.0412154393
 20
-21.1766362786
 11
10.1382194381
 21
-21.1758292511
  0
LINE
  5
251
100
AcDbEntity
  8
0
100
AcDbLine
 62
253
  6
CONTINUOUS
 10
-10.8005204723
 20
-22.3237582085
 11
-7.430954903
 21
-22.3137320722
  0
LINE
  5
252
100
AcDbEntity
  8
0
100
AcDbLine
 62
253
  6
CONTINUOUS
 10
-7.430954903
 20
-22.3137320722
 11
-4.0589088487
 21
-22.3075779066
  0
LINE
  5
253
100
AcDbEntity
  8
0
100
AcDbLine
 62
253
  6
CONTINUOUS
 10
-4.0589088487
 20
-22.3075779066
 11
-0.6852517543
 21
-22.3052976971
  0
LINE
  5
254
100
AcDbEntity
  8
0
100
AcDbLine
 62
7
  6
CONTINUOUS
 10
-10.8926989297
 20
-22.508241624
 11
-8.1936047661
 21
-22.508241624
  0
LINE
  5
255
100
AcDbEntity
  8
0
100
AcDbLine
 62
7
  6
CONTINUOUS
 10
-3.7817615057
 20
-22.508241624
 11
3.0063952339
 21
-22.508241624
  0
LINE
  5
256
100
AcDbEntity
  8
0
100
AcDbLine
 62
7
  6
CONTINUOUS
 10
7.4182384943
 20
-22.508241624
 11
10.1173326579
 21
-22.508241624
  0
LINE
  5
257
100
AcDbEntity
  8
0
100
AcDbLine
 62
7
  6
CONTINUOUS
 10
-7.6722130821
 20
-22.4713949257
 11
-4.3031531897
 21
-22.4713949257
  0
LINE
  5
258
100
AcDbEntity
  8
0
100
AcDbLine
 62
7
  6
CONTINUOUS
 10
3.5277869179
 20
-22.4713949257
 11
6.8968468103
 21
-22.4713949257
  0
LINE
  5
259
100
AcDbEntity
  8
0
100
AcDbLine
 62
253
  6
CONTINUOUS
 10
-0.6852517543
 20
-22.3052976971
 11
2.6824759027
 21
-22.3068846317
  0
LINE
  5
25A
100
AcDbEntity
  8
0
100
AcDbLine
 62
253
  6
CONTINUOUS
 10
2.6824759027
 20
-22.3068846317
 11
6.1534895444
 21
-22.3125701752
  0
LWPOLYLINE
  5
25B
100
AcDbEntity
  8
0
100
AcDbPolyline
 62
253
  6
CONTINUOUS
 90
3
 70
0
 10
6.1534895444
 20
-22.3125701752
 10
9.2075757854
 20
-22.3209973013
 10
10.0251541998
 20
-22.3237582072
  0
LWPOLYLINE
  5
25C
100
AcDbEntity
  8
0
100
AcDbPolyline
 62
253
  6
CONTINUOUS
 90
15
 70
0
 10
-10.8165808613
 20
-21.176635732
 10
-10.9135839509
 20
-21.1758287303
 10
-10.9604208993
 20
-21.1751226705
 10
-11.0055385369
 20
-21.174223386
 10
-11.0484994156
 20
-21.1731395958
 10
-11.0888869987
 20
-21.1718818078
 10
-11.1263096993
 20
-21.1704622171
 10
-11.1604046774
 20
-21.1688945877
 10
-11.1908413574
 20
-21.167194119
 10
-11.2173246338
 20
-21.1653772981
 10
-11.239597732
 20
-21.1634617406
 10
-11.2574446983
 20
-21.161466019
 10
-11.2706924934
 20
-21.1594094833
 10
-11.2792126703
 20
-21.1573120732
 10
-11.2829226198
 20
-21.1551941246
  0
LWPOLYLINE
  5
25D
100
AcDbEntity
  8
0
100
AcDbPolyline
 62
253
  6
CONTINUOUS
 90
16
 70
0
 10
-10.8005204723
 20
-22.3237582084
 10
-10.8527214423
 20
-22.3209562332
 10
-10.9043514838
 20
-22.3127238361
 10
-10.9548459128
 20
-22.2991510559
 10
-11.0036524652
 20
-22.2803863397
 10
-11.0502373379
 20
-22.2566349196
 10
-11.0940910263
 20
-22.2281565679
 10
-11.1347338972
 20
-22.1952627557
 10
-11.1717214345
 20
-22.1583132467
 10
-11.204649101
 20
-22.1177121624
 10
-11.2331567627
 20
-22.0739035619
 10
-11.2569326277
 20
-22.0273665851
 10
-11.2757166565
 20
-21.9786102128
 10
-11.2893034058
 20
-21.9281676994
 10
-11.2975442757
 20
-21.876590741
 10
-11.3003491348
 20
-21.8244434411
  0
LINE
  5
25E
100
AcDbEntity
  8
0
100
AcDbLine
 62
7
  6
CONTINUOUS
 10
-3.7817615057
 20
-22.508241624
 11
-4.129948109
 21
-22.4766357036
  0
LINE
  5
25F
100
AcDbEntity
  8
0
100
AcDbLine
 62
7
  6
CONTINUOUS
 10
7.4182384943
 20
-22.508241624
 11
7.070051891
 21
-22.4766357036
  0
LINE
  5
260
100
AcDbEntity
  8
0
100
AcDbLine
 62
253
  6
CONTINUOUS
 10
-10.8165817127
 20
-21.1766362471
 11
-5.4137613106
 21
-21.171184201
  0
LINE
  5
261
100
AcDbEntity
  8
0
100
AcDbLine
 62
253
  6
CONTINUOUS
 10
-5.4137613106
 20
-21.171184201
 11
6.1690322715
 21
-21.1723402904
  0
LINE
  5
262
100
AcDbEntity
  8
0
100
AcDbLine
 62
253
  6
CONTINUOUS
 10
6.1690322715
 20
-21.1723402904
 11
10.0412154394
 21
-21.1766362647
  0
LWPOLYLINE
  5
263
100
AcDbEntity
  8
0
100
AcDbPolyline
 62
253
  6
CONTINUOUS
 90
7
 70
0
 10
-10.8005204717
 20
21.725020676
 10
-10.801572168
 20
21.7176347389
 10
-10.8026656865
 20
21.7043590675
 10
-10.8037731481
 20
21.6852622895
 10
-10.804845913
 20
21.6604426392
 10
-10.8058780442
 20
21.6300251624
 10
-10.8079074713
 20
21.5530203904
  0
LWPOLYLINE
  5
264
100
AcDbEntity
  8
0
100
AcDbPolyline
 62
253
  6
CONTINUOUS
 90
55
 70
0
 10
-1.0770581804
 20
-13.3862430902
 10
-1.0735079997
 20
-13.3861855419
 10
-1.0699900813
 20
-13.3860140687
 10
-1.0664955973
 20
-13.3857304281
 10
-1.0630157198
 20
-13.3853363778
 10
-1.0595416208
 20
-13.3848336752
 10
-1.0560662465
 20
-13.3842236008
 10
-1.0525896392
 20
-13.3835055259
 10
-1.0491136156
 20
-13.3826783447
 10
-1.0456399922
 20
-13.3817409516
 10
-1.0421705854
 20
-13.3806922407
 10
-1.0387078532
 20
-13.3795312948
 10
-1.0352568185
 20
-13.3782579511
 10
-1.0318231455
 20
-13.3768722354
 10
-1.0284124984
 20
-13.3753741735
 10
-1.0250305414
 20
-13.3737637911
 10
-1.0222392081
 20
-13.3723368056
 10
-1.0194807799
 20
-13.3708365417
 10
-1.0167643043
 20
-13.3692677033
 10
-1.0140964482
 20
-13.3676334701
 10
-1.0114743537
 20
-13.3659309233
 10
-1.0088927818
 20
-13.3641556199
 10
-1.0063482045
 20
-13.3623041531
 10
-1.0038439379
 20
-13.3603772611
 10
-1.0013850089
 20
-13.3583767183
 10
-0.9989764445
 20
-13.3563042994
 10
-0.9966232718
 20
-13.3541617787
 10
-0.9943305178
 20
-13.3519509308
 10
-0.9921026725
 20
-13.3496739974
 10
-0.9899420784
 20
-13.3473350897
 10
-0.9878505413
 20
-13.3449387859
 10
-0.9858298666
 20
-13.3424896645
 10
-0.98388186
 20
-13.3399923036
 10
-0.9820083272
 20
-13.3374512818
 10
-0.9802100507
 20
-13.3348695234
 10
-0.9784837207
 20
-13.3322433381
 10
-0.9768250046
 20
-13.3295673814
 10
-0.9752312104
 20
-13.3268388844
 10
-0.9737062096
 20
-13.3240653791
 10
-0.9722555147
 20
-13.3212569731
 10
-0.970618948
 20
-13.3178532158
 10
-0.9690973776
 20
-13.3144202284
 10
-0.9676908614
 20
-13.310964483
 10
-0.9663994575
 20
-13.3074924519
 10
-0.9652232237
 20
-13.3040106074
 10
-0.9641619634
 20
-13.3005245755
 10
-0.9632144605
 20
-13.2970365974
 10
-0.9623792443
 20
-13.2935480682
 10
-0.961654844
 20
-13.2900603829
 10
-0.9610397888
 20
-13.2865749366
 10
-0.9605331397
 20
-13.2830914037
 10
-0.9601360851
 20
-13.279602576
 10
-0.9598503451
 20
-13.2760995245
 10
-0.9596776396
 20
-13.2725733203
 10
-0.9596196889
 20
-13.2690150346
  0
LWPOLYLINE
  5
265
100
AcDbEntity
  8
0
100
AcDbPolyline
 62
253
  6
CONTINUOUS
 90
55
 70
0
 10
1.6428584856
 20
-13.3862430902
 10
1.6463881776
 20
-13.3861864202
 10
1.6498862702
 20
-13.3860175083
 10
1.6533616858
 20
-13.3857380018
 10
1.6568233466
 20
-13.3853495477
 10
1.6602801752
 20
-13.3848537933
 10
1.6637392852
 20
-13.3842519201
 10
1.667200556
 20
-13.3835432474
 10
1.6706620582
 20
-13.3827266286
 10
1.6741218624
 20
-13.3818009175
 10
1.6775780393
 20
-13.3807649677
 10
1.6810280511
 20
-13.3796178087
 10
1.6844669265
 20
-13.3783591751
 10
1.6878890853
 20
-13.3769889772
 10
1.6912889478
 20
-13.3755071255
 10
1.6946609341
 20
-13.3739135305
 10
1.6974446603
 20
-13.3725008637
 10
1.7001962699
 20
-13.3710150019
 10
1.7029068799
 20
-13.3694604117
 10
1.7055699591
 20
-13.367840056
 10
1.7081883846
 20
-13.3661508824
 10
1.7107673855
 20
-13.3643883345
 10
1.7133104492
 20
-13.3625489
 10
1.7158140977
 20
-13.3606332418
 10
1.718273111
 20
-13.358643067
 10
1.7206822694
 20
-13.3565800823
 10
1.7230363531
 20
-13.3544459947
 10
1.7253301425
 20
-13.3522425112
 10
1.7275589845
 20
-13.3499718126
 10
1.7297204939
 20
-13.3476379763
 10
1.731812852
 20
-13.3452455536
 10
1.7338342404
 20
-13.3427990959
 10
1.7357828406
 20
-13.3403031546
 10
1.737656834
 20
-13.337762281
 10
1.7394554349
 20
-13.3351793785
 10
1.7411819885
 20
-13.3325507582
 10
1.7428408728
 20
-13.3298710835
 10
1.7444348155
 20
-13.327137603
 10
1.7459599439
 20
-13.3243579068
 10
1.7474107349
 20
-13.3215421707
 10
1.7490473679
 20
-13.318128199
 10
1.7505689716
 20
-13.3146835078
 10
1.7519755156
 20
-13.3112146221
 10
1.7532669694
 20
-13.3077280671
 10
1.7544433027
 20
-13.3042303677
 10
1.7555047341
 20
-13.3007272094
 10
1.7564524786
 20
-13.2972209193
 10
1.7572880001
 20
-13.2937129847
 10
1.7580127628
 20
-13.2902048932
 10
1.7586282307
 20
-13.2866981323
 10
1.7591353284
 20
-13.2831924189
 10
1.7595328229
 20
-13.279680388
 10
1.7598189419
 20
-13.276152904
 10
1.7599919131
 20
-13.2726008314
 10
1.760049964
 20
-13.2690150346
  0
LWPOLYLINE
  5
266
100
AcDbEntity
  8
0
100
AcDbPolyline
 62
253
  6
CONTINUOUS
 90
50
 70
0
 10
-3.2163390758
 20
-13.3862430902
 10
-3.1820558688
 20
-13.3857409833
 10
-3.1479325841
 20
-13.3842401974
 10
-3.1139522484
 20
-13.3817490344
 10
-3.0800978884
 20
-13.3782757964
 10
-3.0463525308
 20
-13.3738287853
 10
-3.0126992024
 20
-13.3684163033
 10
-2.979132238
 20
-13.3620458728
 10
-2.9456912059
 20
-13.354721899
 10
-2.9124269826
 20
-13.3464480077
 10
-2.8793904446
 20
-13.3372278245
 10
-2.8466324685
 20
-13.3270649751
 10
-2.8142039308
 20
-13.3159630854
 10
-2.7821516009
 20
-13.3039285695
 10
-2.7505058204
 20
-13.290978996
 10
-2.7192928236
 20
-13.2771347221
 10
-2.6885388451
 20
-13.2624161049
 10
-2.6582701192
 20
-13.2468435015
 10
-2.6285128805
 20
-13.2304372691
 10
-2.5992918064
 20
-13.2132174191
 10
-2.5706253463
 20
-13.1952025808
 10
-2.5425303926
 20
-13.1764110378
 10
-2.5150238379
 20
-13.1568610735
 10
-2.4881225744
 20
-13.1365709717
 10
-2.4618434947
 20
-13.1155590158
 10
-2.4362066044
 20
-13.0938419586
 10
-2.4112443627
 20
-13.0714304303
 10
-2.3869923419
 20
-13.0483335298
 10
-2.3634861143
 20
-13.0245603566
 10
-2.3407612524
 20
-13.0001200097
 10
-2.3188533285
 20
-12.9750215884
 10
-2.2977945056
 20
-12.9492764114
 10
-2.277603309
 20
-12.9229046748
 10
-2.2582948546
 20
-12.8959287945
 10
-2.2398852169
 20
-12.8683681437
 10
-2.2223943036
 20
-12.8402299256
 10
-2.2058429811
 20
-12.8115183012
 10
-2.1902542549
 20
-12.7822422247
 10
-2.1756596877
 20
-12.7524298242
 10
-2.1620929814
 20
-12.722114021
 10
-2.1495839408
 20
-12.6913309876
 10
-2.1381467826
 20
-12.6601299013
 10
-2.1277918262
 20
-12.6285631903
 10
-2.1185284647
 20
-12.5966802592
 10
-2.110362384
 20
-12.5645184165
 10
-2.1032983439
 20
-12.5321119469
 10
-2.0987267771
 20
-12.5076574287
 10
-2.0947821097
 20
-12.483040533
 10
-2.0914686663
 20
-12.4582171995
 10
-2.0887907712
 20
-12.4331433682
  0
LINE
  5
267
100
AcDbEntity
  8
0
100
AcDbLine
 62
253
  6
CONTINUOUS
 10
1.4862944154
 20
-13.3862470365
 11
1.6428584856
 21
-13.3862389824
  0
LINE
  5
268
100
AcDbEntity
  8
0
100
AcDbLine
 62
253
  6
CONTINUOUS
 10
-1.2333752375
 20
-13.3862414291
 11
-1.0770581804
 21
-13.3862445903
  0
LWPOLYLINE
  5
269
100
AcDbEntity
  8
0
100
AcDbPolyline
 62
253
  6
CONTINUOUS
 90
8
 70
0
 10
-10.7999620253
 20
0.0781316622
 10
-10.7963228698
 20
0.04503248
 10
-10.7923918933
 20
0.0163895235
 10
-10.7887420259
 20
-0.0075333102
 10
-10.7844694492
 20
-0.0265730241
 10
-10.779576496
 20
-0.0404721962
 10
-10.7750383635
 20
-0.0490184209
 10
-10.7713426825
 20
-0.0521605429
  0
LWPOLYLINE
  5
26A
100
AcDbEntity
  8
0
100
AcDbPolyline
 62
253
  6
CONTINUOUS
 90
16
 70
0
 10
-11.271171345
 20
0.4478204186
 10
-11.2684858084
 20
0.3961744869
 10
-11.2604456396
 20
0.3449105001
 10
-11.247084029
 20
0.294588991
 10
-11.2284701081
 20
0.2457167495
 10
-11.2047684855
 20
0.1989043058
 10
-11.1762928944
 20
0.1548321637
 10
-11.1433980587
 20
0.1140321109
 10
-11.1064142276
 20
0.0768988741
 10
-11.0657369806
 20
0.0438330642
 10
-11.0218028776
 20
0.0151971419
 10
-10.9750996606
 20
-0.0086839542
 10
-10.9261529476
 20
-0.0275389244
 10
-10.8755062466
 20
-0.0411591552
 10
-10.8237127745
 20
-0.0493966
 10
-10.7713426825
 20
-0.0521605429
  0
LWPOLYLINE
  5
26B
100
AcDbEntity
  8
0
100
AcDbPolyline
 62
253
  6
CONTINUOUS
 90
4
 70
0
 10
-10.8102682164
 20
0.2463926083
 10
-10.8084672732
 20
0.199680878
 10
-10.8057531169
 20
0.1557099623
 10
-10.7999620253
 20
0.0781316622
  0
LWPOLYLINE
  5
26C
100
AcDbEntity
  8
0
100
AcDbPolyline
 62
253
  6
CONTINUOUS
 90
6
 70
0
 10
-10.805878045
 20
-22.2287626936
 10
-10.8048459137
 20
-22.2591801699
 10
-10.8037731487
 20
-22.2839998203
 10
-10.8026656871
 20
-22.303096599
 10
-10.8015721686
 20
-22.3163722709
 10
-10.8005204723
 20
-22.3237582084
  0
LINE
  5
26D
100
AcDbEntity
  8
0
100
AcDbLine
 62
253
  6
CONTINUOUS
 10
-10.8079074722
 20
-22.1517579227
 11
-10.805878045
 21
-22.2287626936
  0
LINE
  5
26E
100
AcDbEntity
  8
0
100
AcDbLine
 62
253
  6
CONTINUOUS
 10
-11.2886954187
 20
21.0361850231
 11
-11.2869383364
 21
20.9637632197
  0
LINE
  5
26F
100
AcDbEntity
  8
0
100
AcDbLine
 62
253
  6
CONTINUOUS
 10
-10.8097812876
 20
-22.0545128548
 11
-10.8079074722
 21
-22.1517579227
  0
LINE
  5
270
100
AcDbEntity
  8
0
100
AcDbLine
 62
253
  6
CONTINUOUS
 10
-11.2869383364
 20
20.9637632197
 11
-11.2854677743
 21
20.8826915313
  0
LINE
  5
271
100
AcDbEntity
  8
0
100
AcDbLine
 62
253
  6
CONTINUOUS
 10
-10.8122807472
 20
-21.8750415032
 11
-10.8097812876
 21
-22.0545128548
  0
LINE
  5
272
100
AcDbEntity
  8
0
100
AcDbLine
 62
253
  6
CONTINUOUS
 10
-11.2854677743
 20
20.8826915313
 11
-11.2843129841
 21
20.7948303419
  0
LINE
  5
273
100
AcDbEntity
  8
0
100
AcDbLine
 62
253
  6
CONTINUOUS
 10
-10.8148541753
 20
-21.5858542795
 11
-10.8122807472
 21
-21.8750415032
  0
LINE
  5
274
100
AcDbEntity
  8
0
100
AcDbLine
 62
253
  6
CONTINUOUS
 10
-11.2843129841
 20
20.7948303419
 11
-11.283213535
 21
20.653965804
  0
LWPOLYLINE
  5
275
100
AcDbEntity
  8
0
100
AcDbPolyline
 62
253
  6
CONTINUOUS
 90
3
 70
0
 10
-10.8140087991
 20
-1.0473251373
 10
-10.8142336663
 20
-0.9943365425
 10
-10.8133810947
 20
-0.9430859814
  0
LINE
  5
276
100
AcDbEntity
  8
0
100
AcDbLine
 62
7
  6
CONTINUOUS
 10
-11.3933253513
 20
-22.0105234697
 11
-11.4130532594
 21
-13.3993687656
  0
LINE
  5
277
100
AcDbEntity
  8
0
100
AcDbLine
 62
253
  6
CONTINUOUS
 10
-10.8165817179
 20
-21.1766362462
 11
-10.8148541753
 21
-21.5858542795
  0
LINE
  5
278
100
AcDbEntity
  8
0
100
AcDbLine
 62
253
  6
CONTINUOUS
 10
-11.283213535
 20
20.653965804
 11
-11.2727018579
 21
7.2600538066
  0
LINE
  5
279
100
AcDbEntity
  8
0
100
AcDbLine
 62
7
  6
CONTINUOUS
 10
-11.4130532594
 20
12.8006312344
 11
-11.4130532594
 21
0.4005360522
  0
LINE
  5
27A
100
AcDbEntity
  8
0
100
AcDbLine
 62
7
  6
CONTINUOUS
 10
-11.4130532594
 20
-13.3993687656
 11
-11.4130532594
 21
-0.9992735834
  0
LINE
  5
27B
100
AcDbEntity
  8
0
100
AcDbLine
 62
253
  6
CONTINUOUS
 10
-11.2727018579
 20
7.2600538066
 11
-11.271171345
 21
0.4478204186
  0
LINE
  5
27C
100
AcDbEntity
  8
0
100
AcDbLine
 62
253
  6
CONTINUOUS
 10
-10.8140085832
 20
-1.0473251409
 11
-10.8165817127
 21
-21.1766362471
  0
LINE
  5
27D
100
AcDbEntity
  8
0
100
AcDbLine
 62
253
  6
CONTINUOUS
 10
-11.2711713424
 20
-1.0465579506
 11
-11.2734231217
 21
-9.4675937145
  0
LINE
  5
27E
100
AcDbEntity
  8
0
100
AcDbLine
 62
253
  6
CONTINUOUS
 10
-11.2734231217
 20
-9.4675937145
 11
-11.2803185765
 21
-18.6530013044
  0
LINE
  5
27F
100
AcDbEntity
  8
0
100
AcDbLine
 62
7
  6
CONTINUOUS
 10
-11.3933253513
 20
21.4117859386
 11
-11.4130532594
 21
12.8006312344
  0
LINE
  5
280
100
AcDbEntity
  8
0
100
AcDbLine
 62
253
  6
CONTINUOUS
 10
-10.8161082977
 20
20.7452407845
 11
-10.8140085948
 21
0.4485876152
  0
LINE
  5
281
100
AcDbEntity
  8
0
100
AcDbLine
 62
253
  6
CONTINUOUS
 10
-11.2803185765
 20
-18.6530013044
 11
-11.2832135356
 21
-21.2527033372
  0
LWPOLYLINE
  5
282
100
AcDbEntity
  8
0
100
AcDbPolyline
 62
253
  6
CONTINUOUS
 90
4
 70
0
 10
-10.8140088018
 20
0.4485876174
 10
-10.8142335403
 20
0.3956010197
 10
-10.8133810499
 20
0.3443521323
 10
-10.8102682164
 20
0.2463926083
  0
LINE
  5
283
100
AcDbEntity
  8
0
100
AcDbLine
 62
253
  6
CONTINUOUS
 10
-10.8136829376
 20
21.1377072149
 11
-10.8161082977
 21
20.7452407845
  0
LINE
  5
284
100
AcDbEntity
  8
0
100
AcDbLine
 62
253
  6
CONTINUOUS
 10
-11.2832135356
 20
-21.2527033372
 11
-11.2843129848
 21
-21.3935678751
  0
LINE
  5
285
100
AcDbEntity
  8
0
100
AcDbLine
 62
253
  6
CONTINUOUS
 10
-10.8114927753
 20
21.3402337988
 11
-10.8136829376
 21
21.1377072149
  0
LINE
  5
286
100
AcDbEntity
  8
0
100
AcDbLine
 62
253
  6
CONTINUOUS
 10
-11.2843129848
 20
-21.3935678751
 11
-11.285467775
 21
-21.4814290646
  0
LINE
  5
287
100
AcDbEntity
  8
0
100
AcDbLine
 62
253
  6
CONTINUOUS
 10
-10.8097812867
 20
21.4557753216
 11
-10.8114927753
 21
21.3402337988
  0
LINE
  5
288
100
AcDbEntity
  8
0
100
AcDbLine
 62
253
  6
CONTINUOUS
 10
-11.285467775
 20
-21.4814290646
 11
-11.286938337
 21
-21.562500753
  0
LINE
  5
289
100
AcDbEntity
  8
0
100
AcDbLine
 62
253
  6
CONTINUOUS
 10
-10.8079074713
 20
21.5530203904
 11
-10.8097812867
 21
21.4557753216
  0
LWPOLYLINE
  5
28A
100
AcDbEntity
  8
0
100
AcDbPolyline
 62
253
  6
CONTINUOUS
 90
12
 70
0
 10
-11.286938337
 20
-21.562500753
 10
-11.2886954193
 20
-21.6349225562
 10
-11.2896670336
 20
-21.6673860913
 10
-11.2906970453
 20
-21.6971344285
 10
-11.2917845985
 20
-21.7242092153
 10
-11.2929136046
 20
-21.7482094766
 10
-11.2940852502
 20
-21.7690904656
 10
-11.2952983487
 20
-21.7868969291
 10
-11.2965332513
 20
-21.8013621319
 10
-11.2977834084
 20
-21.8123971623
 10
-11.2990553695
 20
-21.820090932
 10
-11.3003491348
 20
-21.8244434411
  0
LWPOLYLINE
  5
28B
100
AcDbEntity
  8
0
100
AcDbPolyline
 62
253
  6
CONTINUOUS
 90
4
 70
0
 10
-10.8133810947
 20
-0.9430859814
 10
-10.8102679632
 20
-0.8451241194
 10
-10.8084669806
 20
-0.7984117297
 10
-10.8057526866
 20
-0.7544405966
  0
LWPOLYLINE
  5
28C
100
AcDbEntity
  8
0
100
AcDbPolyline
 62
253
  6
CONTINUOUS
 90
16
 70
0
 10
-11.2711713424
 20
-1.0465579506
 10
-11.2684858008
 20
-0.9949119711
 10
-11.2604456195
 20
-0.9436479486
 10
-11.2470839922
 20
-0.8933264166
 10
-11.2284700546
 20
-0.8444541664
 10
-11.2047684186
 20
-0.7976417258
 10
-11.1762928182
 20
-0.7535695939
 10
-11.14339798
 20
-0.712769558
 10
-11.106414154
 20
-0.6756363419
 10
-11.0657369143
 20
-0.6425705496
 10
-11.0218028168
 20
-0.6139346401
 10
-10.9750996057
 20
-0.5900535545
 10
-10.9261529015
 20
-0.5711985935
 10
-10.8755062129
 20
-0.5575783702
 10
-10.8237127554
 20
-0.5493409303
 10
-10.77134268
 20
-0.5465769891
  0
LWPOLYLINE
  5
28D
100
AcDbEntity
  8
0
100
AcDbPolyline
 62
253
  6
CONTINUOUS
 90
9
 70
0
 10
-10.8057526866
 20
-0.7544405966
 10
-10.799961446
 20
-0.6768632343
 10
-10.796322281
 20
-0.6437649804
 10
-10.7923912822
 20
-0.6151231398
 10
-10.7887414768
 20
-0.5912014866
 10
-10.7844690201
 20
-0.5721628451
 10
-10.779576214
 20
-0.558264534
 10
-10.7750382374
 20
-0.5497188899
 10
-10.7713426804
 20
-0.5465769891
  0
LINE
  5
28E
100
AcDbEntity
  8
0
100
AcDbLine
 62
253
  6
CONTINUOUS
 10
0.3561241691
 20
11.8466411489
 11
0.404525279
 21
11.8662908711
  0
LWPOLYLINE
  5
28F
100
AcDbEntity
  8
0
100
AcDbPolyline
 62
253
  6
CONTINUOUS
 90
55
 70
0
 10
3.268245481
 20
-10.5711822575
 10
3.2717801524
 20
-10.5711255829
 10
3.2752828429
 20
-10.5709566526
 10
3.2787625447
 20
-10.5706771068
 10
3.28222825
 20
-10.5702885854
 10
3.2856889511
 20
-10.5697927287
 10
3.2891518142
 20
-10.5691907094
 10
3.2926167017
 20
-10.5684818313
 10
3.2960816498
 20
-10.5676649308
 10
3.2995446948
 20
-10.5667388443
 10
3.3030038731
 20
-10.5657024083
 10
3.3064566155
 20
-10.5645546335
 10
3.3098979306
 20
-10.5632952274
 10
3.3133222218
 20
-10.5619240719
 10
3.3167238923
 20
-10.5604410489
 10
3.3200973454
 20
-10.5588460403
 10
3.3228820248
 20
-10.5574319884
 10
3.3256343516
 20
-10.555944529
 10
3.328345455
 20
-10.5543881043
 10
3.3310088029
 20
-10.5527656525
 10
3.3336272174
 20
-10.5510740956
 10
3.336205859
 20
-10.5493088515
 10
3.3387481632
 20
-10.547466386
 10
3.3412506658
 20
-10.5455473575
 10
3.3437081776
 20
-10.5435534724
 10
3.3461155093
 20
-10.5414864371
 10
3.3484674716
 20
-10.539347958
 10
3.3507588755
 20
-10.5371397414
 10
3.3529851043
 20
-10.5348639761
 10
3.355143833
 20
-10.5325247801
 10
3.3572333091
 20
-10.5301267536
 10
3.3592517803
 20
-10.5276744969
 10
3.3611974941
 20
-10.5251726103
 10
3.3630686983
 20
-10.5226256941
 10
3.3648646532
 20
-10.5200366932
 10
3.3665886705
 20
-10.5174019305
 10
3.3682450748
 20
-10.5147160735
 10
3.3698365628
 20
-10.511976364
 10
3.3713593203
 20
-10.5091903408
 10
3.3728079053
 20
-10.5063681168
 10
3.3744421981
 20
-10.5029460675
 10
3.3759618086
 20
-10.4994929186
 10
3.3773666994
 20
-10.4960151369
 10
3.3786568329
 20
-10.4925191892
 10
3.3798321719
 20
-10.4890115422
 10
3.3808929205
 20
-10.4854978443
 10
3.3818402501
 20
-10.4819804707
 10
3.3826755735
 20
-10.4784609784
 10
3.3834003035
 20
-10.4749409243
 10
3.3840158531
 20
-10.4714218653
 10
3.3845230984
 20
-10.4679035661
 10
3.3849207687
 20
-10.4643786235
 10
3.3852070566
 20
-10.4608378418
 10
3.3853801548
 20
-10.4572720258
 10
3.3854382558
 20
-10.4536719798
  0
LWPOLYLINE
  5
290
100
AcDbEntity
  8
0
100
AcDbPolyline
 62
253
  6
CONTINUOUS
 90
55
 70
0
 10
3.0324501519
 20
-11.9788361461
 10
3.0359970412
 20
-11.9787796988
 10
3.0395116242
 20
-11.9786114341
 10
3.0430029815
 20
-11.9783329678
 10
3.0464801938
 20
-11.9779459158
 10
3.0499523418
 20
-11.9774518939
 10
3.0534266592
 20
-11.97685205
 10
3.0569029914
 20
-11.9761456609
 10
3.0603793368
 20
-11.9753315352
 10
3.0638536939
 20
-11.9744084817
 10
3.067324061
 20
-11.9733753093
 10
3.070787833
 20
-11.9722309985
 10
3.0742399902
 20
-11.9709752165
 10
3.0776749094
 20
-11.9696078027
 10
3.0810869672
 20
-11.968128596
 10
3.0844705406
 20
-11.9665374357
 10
3.087263428
 20
-11.9651265823
 10
3.0900237282
 20
-11.9636422768
 10
3.09274254
 20
-11.9620889246
 10
3.0954133091
 20
-11.9604694292
 10
3.0980388686
 20
-11.9587806869
 10
3.1006243988
 20
-11.9570180924
 10
3.1031733461
 20
-11.9551780869
 10
3.1056822227
 20
-11.9532612977
 10
3.1081458072
 20
-11.9512693986
 10
3.1105588782
 20
-11.9492040634
 10
3.1129162141
 20
-11.9470669659
 10
3.1152125936
 20
-11.9448597799
 10
3.1174433738
 20
-11.942584676
 10
3.1196062257
 20
-11.9402458118
 10
3.1216993991
 20
-11.9378478415
 10
3.1237211437
 20
-11.9353954194
 10
3.1256697091
 20
-11.9328931997
 10
3.1275433449
 20
-11.9303458369
 10
3.1293413223
 20
-11.9277563241
 10
3.1310669975
 20
-11.9251210102
 10
3.1327247482
 20
-11.922434583
 10
3.1343173241
 20
-11.9196942953
 10
3.1358409622
 20
-11.9169076598
 10
3.1372902719
 20
-11.914084754
 10
3.1389252901
 20
-11.9106617531
 10
3.1404455001
 20
-11.9072074896
 10
3.1418508895
 20
-11.9037284183
 10
3.1431414459
 20
-11.9002309941
 10
3.1443171568
 20
-11.8967216719
 10
3.1453782472
 20
-11.8932061006
 10
3.1463258904
 20
-11.8896867065
 10
3.1471614971
 20
-11.8861651098
 10
3.1478864779
 20
-11.8826429309
 10
3.1485022435
 20
-11.8791217902
 10
3.149009668
 20
-11.8756014902
 10
3.1494074795
 20
-11.8720745623
 10
3.1496938696
 20
-11.86853172
 10
3.1498670298
 20
-11.8649636767
 10
3.1499251518
 20
-11.8613611461
  0
LWPOLYLINE
  5
291
100
AcDbEntity
  8
0
100
AcDbPolyline
 62
253
  6
CONTINUOUS
 90
55
 70
0
 10
0.3125334859
 20
-11.9788361461
 10
0.3160641859
 20
-11.9787796469
 10
0.3195631144
 20
-11.9786112273
 10
0.3230392768
 20
-11.9783325041
 10
0.3265016787
 20
-11.977945094
 10
0.3299593255
 20
-11.9774506138
 10
0.3334193914
 20
-11.9768502158
 10
0.3368817248
 20
-11.9761431946
 10
0.3403443428
 20
-11.9753283801
 10
0.3438052624
 20
-11.9744046025
 10
0.3472625007
 20
-11.9733706918
 10
0.3507134754
 20
-11.9722256502
 10
0.3541532072
 20
-11.9709691694
 10
0.3575761174
 20
-11.9696011133
 10
0.3609766276
 20
-11.9681213456
 10
0.364349159
 20
-11.9665297302
 10
0.3671332685
 20
-11.9651185933
 10
0.3698852295
 20
-11.9636340905
 10
0.3725961972
 20
-11.9620806227
 10
0.375259664
 20
-11.9604610902
 10
0.3778784712
 20
-11.9587723918
 10
0.3804577974
 20
-11.957009926
 10
0.3830010844
 20
-11.9551701404
 10
0.3855048291
 20
-11.9532536791
 10
0.3879637916
 20
-11.9512622352
 10
0.3903727322
 20
-11.949197502
 10
0.3927264111
 20
-11.9470611726
 10
0.3950195885
 20
-11.9448549403
 10
0.397247603
 20
-11.9425809805
 10
0.399408106
 20
-11.9402433972
 10
0.401499327
 20
-11.9378467768
 10
0.4035194958
 20
-11.9353957056
 10
0.405466842
 20
-11.9328947699
 10
0.4073395953
 20
-11.930348556
 10
0.4091370052
 20
-11.9277599965
 10
0.410862401
 20
-11.9251254092
 10
0.4125201316
 20
-11.9224394582
 10
0.4141129102
 20
-11.9196993882
 10
0.4156369056
 20
-11.9169127666
 10
0.4170866503
 20
-11.9140897417
 10
0.4187222049
 20
-11.9106665078
 10
0.4202429358
 20
-11.9072119611
 10
0.4216488133
 20
-11.9037325961
 10
0.4229398074
 20
-11.9002349075
 10
0.4241158882
 20
-11.89672539
 10
0.4251772685
 20
-11.8932097157
 10
0.4261251307
 20
-11.8896902661
 10
0.4269609002
 20
-11.8861686004
 10
0.4276860019
 20
-11.8826462776
 10
0.428301861
 20
-11.8791248569
 10
0.4288093635
 20
-11.8756040995
 10
0.4292072385
 20
-11.8720765765
 10
0.4294936759
 20
-11.8685330611
 10
0.4296668657
 20
-11.8649643265
 10
0.4297249979
 20
-11.8613611461
  0
LINE
  5
292
100
AcDbEntity
  8
0
100
AcDbLine
 62
253
  6
CONTINUOUS
 10
1.760049964
 20
-11.9788775147
 11
3.0324501519
 21
-11.9787854221
  0
LINE
  5
293
100
AcDbEntity
  8
0
100
AcDbLine
 62
253
  6
CONTINUOUS
 10
-0.9596196889
 20
-11.9788325325
 11
0.3125334859
 21
-11.9788304116
  0
LINE
  5
294
100
AcDbEntity
  8
0
100
AcDbLine
 62
253
  6
CONTINUOUS
 10
3.0324501519
 20
-11.5878023048
 11
1.760049964
 21
-11.587893501
  0
LINE
  5
295
100
AcDbEntity
  8
0
100
AcDbLine
 62
253
  6
CONTINUOUS
 10
0.3125334859
 20
-11.5878468564
 11
-0.9596196889
 21
-11.5878489567
  0
LINE
  5
296
100
AcDbEntity
  8
0
100
AcDbLine
 62
253
  6
CONTINUOUS
 10
1.8416713534
 20
10.5545572603
 11
1.8217394095
 21
10.5488775381
  0
LWPOLYLINE
  5
297
100
AcDbEntity
  8
0
100
AcDbPolyline
 62
253
  6
CONTINUOUS
 90
55
 70
0
 10
-1.2333752375
 20
-10.1801986465
 10
-1.2369244669
 20
-10.1802559308
 10
-1.2404414362
 20
-10.1804266407
 10
-1.2439350571
 20
-10.1807090616
 10
-1.2474142413
 20
-10.1811014791
 10
-1.2508879006
 20
-10.1816021784
 10
-1.2543631482
 20
-10.1822099195
 10
-1.257839904
 20
-10.1829253595
 10
-1.2613162896
 20
-10.1837496298
 10
-1.2647904264
 20
-10.184683862
 10
-1.268260436
 20
-10.1857291876
 10
-1.2717238113
 20
-10.1868865546
 10
-1.2751755311
 20
-10.1881561777
 10
-1.2786099453
 20
-10.1895380879
 10
-1.2820214041
 20
-10.1910323164
 10
-1.2854042577
 20
-10.1926388945
 10
-1.2881964206
 20
-10.1940627829
 10
-1.2909558002
 20
-10.1955601015
 10
-1.2936734014
 20
-10.1971262382
 10
-1.2963425964
 20
-10.1987581003
 10
-1.2989662276
 20
-10.2004586712
 10
-1.3015495043
 20
-10.2022324537
 10
-1.3040959199
 20
-10.2040829079
 10
-1.306602103
 20
-10.2060093237
 10
-1.3090629659
 20
-10.2080099489
 10
-1.3114734208
 20
-10.210083031
 10
-1.3138283801
 20
-10.2122268175
 10
-1.3161227561
 20
-10.2144395561
 10
-1.3183520124
 20
-10.2167190195
 10
-1.3205138179
 20
-10.2190610814
 10
-1.3226063929
 20
-10.221461141
 10
-1.3246279576
 20
-10.2239145973
 10
-1.3265767323
 20
-10.2264168492
 10
-1.3284509373
 20
-10.2289632958
 10
-1.3302498112
 20
-10.2315509941
 10
-1.3319766671
 20
-10.2341836329
 10
-1.3336358362
 20
-10.2368665588
 10
-1.3352300144
 20
-10.2396025417
 10
-1.3367553554
 20
-10.2423840443
 10
-1.3382063771
 20
-10.2452009522
 10
-1.3398433539
 20
-10.24861557
 10
-1.3413653676
 20
-10.2520601352
 10
-1.3427723691
 20
-10.2555281761
 10
-1.344064309
 20
-10.2590132209
 10
-1.3452411381
 20
-10.2625087979
 10
-1.3463030564
 20
-10.2660092699
 10
-1.3472512621
 20
-10.2695123389
 10
-1.3480872026
 20
-10.2730165409
 10
-1.3488123254
 20
-10.2765204126
 10
-1.3494280782
 20
-10.2800224901
 10
-1.3499353745
 20
-10.2835230612
 10
-1.3503329933
 20
-10.2870294184
 10
-1.3506191796
 20
-10.2905506058
 10
-1.3507921783
 20
-10.2940956672
 10
-1.3508502345
 20
-10.2976736465
  0
LWPOLYLINE
  5
298
100
AcDbEntity
  8
0
100
AcDbPolyline
 62
253
  6
CONTINUOUS
 90
55
 70
0
 10
0.5480113838
 20
-10.5711822575
 10
0.5515637327
 20
-10.5711256714
 10
0.5550835021
 20
-10.5709570006
 10
0.5585797861
 20
-10.5706778763
 10
0.5620616787
 20
-10.5702899295
 10
0.5655382738
 20
-10.5697947916
 10
0.5690168173
 20
-10.5691936233
 10
0.5724971622
 20
-10.5684857036
 10
0.5759773136
 20
-10.5676698416
 10
0.5794552763
 20
-10.5667448459
 10
0.5829290552
 20
-10.5657095253
 10
0.5863960466
 20
-10.5645628622
 10
0.5898512123
 20
-10.5633045334
 10
0.593288905
 20
-10.5619343892
 10
0.5967034779
 20
-10.56045228
 10
0.6000892838
 20
-10.5588580562
 10
0.602883796
 20
-10.5574445402
 10
0.6056454777
 20
-10.5559575062
 10
0.6083653967
 20
-10.5544013975
 10
0.61103697
 20
-10.5527791517
 10
0.6136630092
 20
-10.5510876829
 10
0.6162486746
 20
-10.5493223993
 10
0.6187974048
 20
-10.5474797561
 10
0.62130575
 20
-10.5455603951
 10
0.6237685384
 20
-10.5435660052
 10
0.6261805983
 20
-10.5414982749
 10
0.628536758
 20
-10.5393588929
 10
0.6308318458
 20
-10.5371495481
 10
0.6330612639
 20
-10.5348724272
 10
0.6352227112
 20
-10.5325317092
 10
0.6373144603
 20
-10.5301320716
 10
0.6393347843
 20
-10.5276781916
 10
0.6412819558
 20
-10.5251747464
 10
0.6431542478
 20
-10.5226264133
 10
0.6449509467
 20
-10.5200362048
 10
0.6466753948
 20
-10.5174004747
 10
0.6483319478
 20
-10.514713912
 10
0.6499233421
 20
-10.5119737646
 10
0.6514458355
 20
-10.5091875161
 10
0.6528940666
 20
-10.5063652091
 10
0.6545279097
 20
-10.5029431621
 10
0.6560470762
 20
-10.4994900774
 10
0.6574515482
 20
-10.4960123805
 10
0.6587413075
 20
-10.4925164966
 10
0.6599163362
 20
-10.4890088511
 10
0.660976852
 20
-10.4854950691
 10
0.6619240167
 20
-10.4819775744
 10
0.662759228
 20
-10.4784579906
 10
0.6634838835
 20
-10.4749379412
 10
0.6640993807
 20
-10.4714190497
 10
0.6646065834
 20
-10.4679011254
 10
0.665004219
 20
-10.4643767193
 10
0.665290481
 20
-10.4608365685
 10
0.665463563
 20
-10.4572714097
 10
0.6655216585
 20
-10.4536719798
  0
LWPOLYLINE
  5
299
100
AcDbEntity
  8
0
100
AcDbPolyline
 62
253
  6
CONTINUOUS
 90
54
 70
0
 10
1.4862944154
 20
-10.1801986465
 10
1.4831355562
 20
-10.1802441637
 10
1.4800147776
 20
-10.1803796388
 10
1.4769259546
 20
-10.1806034567
 10
1.473862962
 20
-10.1809140026
 10
1.470819675
 20
-10.1813096616
 10
1.4677899684
 20
-10.1817888185
 10
1.4647677173
 20
-10.1823498586
 10
1.4612448607
 20
-10.1831065155
 10
1.4577251978
 20
-10.1839745023
 10
1.4542101115
 20
-10.1849558948
 10
1.4507009846
 20
-10.1860527692
 10
1.4471991999
 20
-10.1872672014
 10
1.4437061403
 20
-10.1886012674
 10
1.4402244332
 20
-10.1900563596
 10
1.436761685
 20
-10.1916311375
 10
1.4333267467
 20
-10.1933235766
 10
1.4299284692
 20
-10.195131653
 10
1.4265757034
 20
-10.1970533424
 10
1.4232773004
 20
-10.1990866206
 10
1.4204996532
 20
-10.2009168087
 10
1.4177714906
 20
-10.2028268007
 10
1.4150958541
 20
-10.204815904
 10
1.4124757856
 20
-10.206883426
 10
1.4099143268
 20
-10.209028674
 10
1.4074145194
 20
-10.2112509555
 10
1.4049794052
 20
-10.2135495779
 10
1.4026117747
 20
-10.2159235437
 10
1.4003134134
 20
-10.2183706365
 10
1.3980858557
 20
-10.2208883352
 10
1.395930636
 20
-10.2234741187
 10
1.3938492885
 20
-10.2261254655
 10
1.3918433476
 20
-10.2288398547
 10
1.3899143477
 20
-10.2316147651
 10
1.38806385
 20
-10.2344472523
 10
1.386293524
 20
-10.2373326799
 10
1.3846050659
 20
-10.2402659886
 10
1.383000172
 20
-10.2432421187
 10
1.3814805388
 20
-10.2462560108
 10
1.3800478626
 20
-10.2493026055
 10
1.3787038396
 20
-10.2523768433
 10
1.3772495573
 20
-10.2559926612
 10
1.3759175455
 20
-10.2596372994
 10
1.3747070989
 20
-10.2633088395
 10
1.3736175121
 20
-10.267005363
 10
1.3726480798
 20
-10.2707249515
 10
1.3717980967
 20
-10.2744656864
 10
1.3711646059
 20
-10.2776886519
 10
1.3706210854
 20
-10.2809320037
 10
1.3701702651
 20
-10.2842020016
 10
1.3698148749
 20
-10.2875049052
 10
1.3695576449
 20
-10.2908469741
 10
1.369401305
 20
-10.294234468
 10
1.369348585
 20
-10.2976736465
  0
LINE
  5
29A
100
AcDbEntity
  8
0
100
AcDbLine
 62
253
  6
CONTINUOUS
 10
1.760049964
 20
-10.5712302531
 11
3.268245481
 21
-10.5711217245
  0
LINE
  5
29B
100
AcDbEntity
  8
0
100
AcDbLine
 62
253
  6
CONTINUOUS
 10
-0.9596196889
 20
-10.5711793953
 11
0.5480113838
 21
-10.571172597
  0
LINE
  5
29C
100
AcDbEntity
  8
0
100
AcDbLine
 62
253
  6
CONTINUOUS
 10
3.268245481
 20
-10.1801301302
 11
1.4862944154
 21
-10.180249993
  0
LINE
  5
29D
100
AcDbEntity
  8
0
100
AcDbLine
 62
253
  6
CONTINUOUS
 10
0.5480113838
 20
-10.1801890956
 11
-1.2333752375
 21
-10.1801910454
  0
LWPOLYLINE
  5
29E
100
AcDbEntity
  8
0
100
AcDbPolyline
 62
253
  6
CONTINUOUS
 90
52
 70
0
 10
-3.2157746313
 20
-10.4927950353
 10
-3.1965196911
 20
-10.4930313431
 10
-3.1774363278
 20
-10.4937349706
 10
-3.1584951783
 20
-10.4948979742
 10
-3.1396668793
 20
-10.4965124102
 10
-3.1209220675
 20
-10.498570335
 10
-3.0975749923
 20
-10.5017571493
 10
-3.0743227482
 20
-10.5056261124
 10
-3.0511755976
 20
-10.5101788339
 10
-3.0281438028
 20
-10.5154169235
 10
-3.0052443065
 20
-10.5213400284
 10
-2.9825207727
 20
-10.5279399461
 10
-2.9600235455
 20
-10.5352065115
 10
-2.9378029691
 20
-10.5431295597
 10
-2.9159025686
 20
-10.5516986596
 10
-2.8943385927
 20
-10.5609023162
 10
-2.873120471
 20
-10.5707287682
 10
-2.852257633
 20
-10.5811662547
 10
-2.8317608916
 20
-10.5921977026
 10
-2.8116465924
 20
-10.6037847913
 10
-2.791932464
 20
-10.6158838884
 10
-2.7726362354
 20
-10.6284513615
 10
-2.7537793525
 20
-10.6414475207
 10
-2.7353981301
 20
-10.6548484467
 10
-2.7175326
 20
-10.6686341625
 10
-2.7002227944
 20
-10.6827846913
 10
-2.6867997527
 20
-10.6943573974
 10
-2.673765171
 20
-10.7061588235
 10
-2.6611262249
 20
-10.7181969943
 10
-2.6488900904
 20
-10.7304799348
 10
-2.6370639433
 20
-10.7430156698
 10
-2.6256546603
 20
-10.7558063827
 10
-2.6146679223
 20
-10.7688308919
 10
-2.6041091109
 20
-10.7820621744
 10
-2.5939836077
 20
-10.7954732072
 10
-2.5842967946
 20
-10.8090369673
 10
-2.5728092288
 20
-10.8261717276
 10
-2.5620011009
 20
-10.843488853
 10
-2.5518579868
 20
-10.8609742954
 10
-2.5423654625
 20
-10.8786140067
 10
-2.5335117734
 20
-10.8963880236
 10
-2.5252958435
 20
-10.9142527197
 10
-2.5177192664
 20
-10.9321585536
 10
-2.5107836357
 20
-10.9500559835
 10
-2.5044891884
 20
-10.9679061295
 10
-2.4988307359
 20
-10.9857127589
 10
-2.4938017327
 20
-11.0034903003
 10
-2.4893956337
 20
-11.0212531829
 10
-2.4856058934
 20
-11.0390158354
 10
-2.4824259666
 20
-11.0567926868
 10
-2.479849308
 20
-11.074598166
 10
-2.4778693724
 20
-11.0924467019
  0
LINE
  5
29F
100
AcDbEntity
  8
0
100
AcDbLine
 62
253
  6
CONTINUOUS
 10
1.8831932968
 20
10.5912108714
 11
1.8435410756
 21
10.5575205936
  0
LWPOLYLINE
  5
2A0
100
AcDbEntity
  8
0
100
AcDbPolyline
 62
253
  6
CONTINUOUS
 90
13
 70
0
 10
-3.9542443347
 20
-12.3959605904
 10
-3.9575376197
 20
-12.3600989236
 10
-3.9605762084
 20
-12.3240230988
 10
-3.9633685456
 20
-12.2877329549
 10
-3.9659230764
 20
-12.2512283306
 10
-3.9682482456
 20
-12.2145090649
 10
-3.9703527287
 20
-12.1775756535
 10
-3.972246123
 20
-12.1404312194
 10
-3.9739382565
 20
-12.1030795425
 10
-3.9754389572
 20
-12.0655244028
 10
-3.9767580529
 20
-12.0277695801
 10
-3.9781677943
 20
-11.9802994308
 10
-3.9793360178
 20
-11.932521114
  0
LINE
  5
2A1
100
AcDbEntity
  8
0
100
AcDbLine
 62
253
  6
CONTINUOUS
 10
0.3305477809
 20
11.8024380933
 11
0.3561241691
 21
11.8466411489
  0
LINE
  5
2A2
100
AcDbEntity
  8
0
100
AcDbLine
 62
253
  6
CONTINUOUS
 10
-11.4130532594
 20
0.4005360522
 11
-11.271171345
 21
0.4478204186
  0
LINE
  5
2A3
100
AcDbEntity
  8
0
100
AcDbLine
 62
253
  6
CONTINUOUS
 10
-11.2711713424
 20
-1.0465579506
 11
-11.4130532594
 21
-0.9992735834
  0
LWPOLYLINE
  5
2A4
100
AcDbEntity
  8
0
100
AcDbPolyline
 62
253
  6
CONTINUOUS
 90
11
 70
0
 10
-11.3003491341
 20
21.2257059087
 10
-11.2990553689
 20
21.2213533995
 10
-11.2977834078
 20
21.2136596296
 10
-11.2965332507
 20
21.2026245991
 10
-11.2952983481
 20
21.1881593963
 10
-11.2940852496
 20
21.1703529329
 10
-11.2929136039
 20
21.1494719438
 10
-11.2917845978
 20
21.1254716825
 10
-11.2906970446
 20
21.0983968955
 10
-11.289667033
 20
21.0686485582
 10
-11.2886954187
 20
21.0361850231
  0
LWPOLYLINE
  5
2A5
100
AcDbEntity
  8
0
100
AcDbPolyline
 62
253
  6
CONTINUOUS
 90
49
 70
0
 10
-4.3433582137
 20
-12.4332844793
 10
-4.339653707
 20
-12.4665228978
 10
-4.334845298
 20
-12.4993937922
 10
-4.3289383661
 20
-12.5319129559
 10
-4.3219382905
 20
-12.5640961821
 10
-4.3138504505
 20
-12.5959592642
 10
-4.3046802255
 20
-12.6275179954
 10
-4.2944351927
 20
-12.6587781907
 10
-4.2831317217
 20
-12.6897057519
 10
-4.2707883802
 20
-12.7202566024
 10
-4.2574237358
 20
-12.7503866656
 10
-4.2430563561
 20
-12.7800518649
 10
-4.2277048088
 20
-12.8092081239
 10
-4.2113873446
 20
-12.8378169721
 10
-4.1941209466
 20
-12.8658623648
 10
-4.1759222811
 20
-12.8933338632
 10
-4.1568080144
 20
-12.9202210289
 10
-4.1367948127
 20
-12.9465134231
 10
-4.1158993424
 20
-12.9722006074
 10
-4.0941410273
 20
-12.9972719492
 10
-4.071550323
 20
-13.0217160402
 10
-4.0481604424
 20
-13.0455212785
 10
-4.0240045988
 20
-13.0686760619
 10
-3.9991160051
 20
-13.0911687883
 10
-3.9735278745
 20
-13.1129878556
 10
-3.9472708603
 20
-13.1341201884
 10
-3.9203653758
 20
-13.1545468185
 10
-3.8928292747
 20
-13.1742473043
 10
-3.8646804106
 20
-13.1932012043
 10
-3.8359366371
 20
-13.211388077
 10
-3.8066158076
 20
-13.2287874808
 10
-3.7767376781
 20
-13.2453782825
 10
-3.7463296129
 20
-13.2611365827
 10
-3.7154208788
 20
-13.2760377899
 10
-3.6840407424
 20
-13.290057313
 10
-3.6522184703
 20
-13.3031705607
 10
-3.6199833293
 20
-13.3153529419
 10
-3.5873688451
 20
-13.3265835755
 10
-3.5544255795
 20
-13.3368564224
 10
-3.5212083535
 20
-13.3461691532
 10
-3.4877719879
 20
-13.3545194391
 10
-3.4541713038
 20
-13.3619049509
 10
-3.4204611219
 20
-13.3683233597
 10
-3.3866840805
 20
-13.3737716366
 10
-3.3528340868
 20
-13.3782439543
 10
-3.318892865
 20
-13.3817337856
 10
-3.2848421397
 20
-13.3842346034
 10
-3.2506636352
 20
-13.3857398806
 10
-3.2163390758
 20
-13.3862430902
  0
LWPOLYLINE
  5
2A6
100
AcDbEntity
  8
0
100
AcDbPolyline
 62
253
  6
CONTINUOUS
 90
15
 70
0
 10
-2.4778693724
 20
-11.0924467019
 10
-2.4735872056
 20
-11.139730289
 10
-2.4696809444
 20
-11.1873445371
 10
-2.4661472559
 20
-11.2352910022
 10
-2.4629828068
 20
-11.2835712407
 10
-2.460184264
 20
-11.3321868085
 10
-2.4577481062
 20
-11.3811379951
 10
-2.4556700584
 20
-11.4304200219
 10
-2.4539456575
 20
-11.4800268435
 10
-2.4525704403
 20
-11.5299524144
 10
-2.4515399436
 20
-11.5801906894
 10
-2.4508492118
 20
-11.6307369882
 10
-2.4504913186
 20
-11.6815920922
 10
-2.4504588454
 20
-11.7327581481
 10
-2.4507443735
 20
-11.7842373023
  0
LINE
  5
2A7
100
AcDbEntity
  8
0
100
AcDbLine
 62
253
  6
CONTINUOUS
 10
-2.6883891725
 20
11.0586691925
 11
-2.6901109896
 21
11.1546675379
  0
LINE
  5
2A8
100
AcDbEntity
  8
0
100
AcDbLine
 62
253
  6
CONTINUOUS
 10
-3.9793360178
 20
-11.932521114
 11
-3.9810554451
 21
-11.8360317017
  0
LWPOLYLINE
  5
2A9
100
AcDbEntity
  8
0
100
AcDbPolyline
 62
253
  6
CONTINUOUS
 90
16
 70
0
 10
-3.9810554451
 20
-11.8360317017
 10
-3.9815970681
 20
-11.7842484303
 10
-3.9818435649
 20
-11.7327777781
 10
-3.9817852731
 20
-11.6816178304
 10
-3.9814125303
 20
-11.6307666727
 10
-3.9807156739
 20
-11.5802223906
 10
-3.9796854582
 20
-11.529984269
 10
-3.9783143041
 20
-11.4800563921
 10
-3.9765950493
 20
-11.4304440433
 10
-3.9745205313
 20
-11.3811525062
 10
-3.9720835878
 20
-11.3321870644
 10
-3.9692773165
 20
-11.2835519565
 10
-3.9660958565
 20
-11.2352472414
 10
-3.9625336068
 20
-11.1872719328
 10
-3.9585849665
 20
-11.1396250446
 10
-3.9542443347
 20
-11.0923055907
  0
LWPOLYLINE
  5
2AA
100
AcDbEntity
  8
0
100
AcDbPolyline
 62
253
  6
CONTINUOUS
 90
16
 70
0
 10
-2.6901109896
 20
11.1546675379
 10
-2.6906543021
 20
11.2066331646
 10
-2.6909000835
 20
11.2582600289
 10
-2.6908390668
 20
11.3095503098
 10
-2.6904619853
 20
11.3605061859
 10
-2.6897595719
 20
11.4111298361
 10
-2.6887230249
 20
11.4614220709
 10
-2.6873454032
 20
11.5113782272
 10
-2.6856202311
 20
11.5609922739
 10
-2.6835410327
 20
11.6102581795
 10
-2.6811013321
 20
11.659169913
 10
-2.6782949034
 20
11.7077226707
 10
-2.6751165201
 20
11.7559165602
 10
-2.6715612059
 20
11.8037529166
 10
-2.6676239842
 20
11.8512330751
 10
-2.6632998785
 20
11.8983583711
  0
LWPOLYLINE
  5
2AB
100
AcDbEntity
  8
0
100
AcDbPolyline
 62
253
  6
CONTINUOUS
 90
15
 70
0
 10
-2.4507443735
 20
-11.7842373023
 10
-2.452046347
 20
-11.8843214176
 10
-2.4529551773
 20
-11.9323183723
 10
-2.4540897196
 20
-11.9800243058
 10
-2.4554727181
 20
-12.0274409582
 10
-2.4567730829
 20
-12.0651664842
 10
-2.4582574208
 20
-12.1027047781
 10
-2.4599361364
 20
-12.140052634
 10
-2.4618196344
 20
-12.1772068463
 10
-2.4639183193
 20
-12.2141642092
 10
-2.4662415211
 20
-12.2509221128
 10
-2.468794271
 20
-12.287480332
 10
-2.4715805252
 20
-12.3238392375
 10
-2.4746042402
 20
-12.3599992
 10
-2.4778693724
 20
-12.3959605904
  0
LWPOLYLINE
  5
2AC
100
AcDbEntity
  8
0
100
AcDbPolyline
 62
253
  6
CONTINUOUS
 90
19
 70
0
 10
-3.0523784895
 20
11.9355411488
 10
-3.059187591
 20
11.8601767449
 10
-3.0651163574
 20
11.7846467462
 10
-3.0701888258
 20
11.7089412331
 10
-3.0744290329
 20
11.6330502862
 10
-3.0778610157
 20
11.5569639857
 10
-3.0805088109
 20
11.4806724122
 10
-3.0823929858
 20
11.4041734421
 10
-3.0835202295
 20
11.327496136
 10
-3.0838937614
 20
11.2506773503
 10
-3.083516801
 20
11.1737539415
 10
-3.0823925677
 20
11.0967627662
 10
-3.080524281
 20
11.0197406809
 10
-3.0779082564
 20
10.942716933
 10
-3.074513194
 20
10.8656903342
 10
-3.0703008899
 20
10.7886520871
 10
-3.0652331404
 20
10.7115933944
 10
-3.0592717415
 20
10.6345054587
 10
-3.0523784895
 20
10.5573794825
  0
LWPOLYLINE
  5
2AD
100
AcDbEntity
  8
0
100
AcDbPolyline
 62
253
  6
CONTINUOUS
 90
19
 70
0
 10
-4.3433582137
 20
-11.055122813
 10
-4.3501763254
 20
-11.1306683349
 10
-4.3561168135
 20
-11.206352146
 10
-4.361201305
 20
-11.2821797351
 10
-4.365451427
 20
-11.3581565913
 10
-4.3688888066
 20
-11.4342882036
 10
-4.3715350706
 20
-11.5105800608
 10
-4.3734092817
 20
-11.5870328567
 10
-4.3745202435
 20
-11.6636281034
 10
-4.3748741953
 20
-11.7403425176
 10
-4.3744773763
 20
-11.8171528163
 10
-4.3733360259
 20
-11.8940357162
 10
-4.371456383
 20
-11.9709679342
 10
-4.3688369761
 20
-12.0479307769
 10
-4.3654454895
 20
-12.1249239107
 10
-4.3612418965
 20
-12.2019515916
 10
-4.3561861706
 20
-12.279018076
 10
-4.3502382852
 20
-12.3561276198
 10
-4.3433582137
 20
-12.4332844793
  0
LWPOLYLINE
  5
2AE
100
AcDbEntity
  8
0
100
AcDbPolyline
 62
253
  6
CONTINUOUS
 90
54
 70
0
 10
-3.9542443347
 20
-11.0923055907
 10
-3.9524863112
 20
-11.0764710546
 10
-3.9503109694
 20
-11.0607853557
 10
-3.9477194222
 20
-11.0452184934
 10
-3.9447127828
 20
-11.0297404668
 10
-3.9412912651
 20
-11.0143269931
 10
-3.9374514867
 20
-10.9989766612
 10
-3.9331891661
 20
-10.9836937778
 10
-3.9285000219
 20
-10.9684826496
 10
-3.9233813198
 20
-10.9533514335
 10
-3.9178365142
 20
-10.9383236872
 10
-3.9118706066
 20
-10.9234268183
 10
-3.9054885986
 20
-10.9086882345
 10
-3.8986972726
 20
-10.8941330919
 10
-3.8915105337
 20
-10.8797775403
 10
-3.8839440678
 20
-10.8656354776
 10
-3.876013561
 20
-10.8517208019
 10
-3.8648966088
 20
-10.8335402337
 10
-3.8531749281
 20
-10.8157891498
 10
-3.8408630884
 20
-10.7984680833
 10
-3.8279797029
 20
-10.7815822167
 10
-3.814559559
 20
-10.7651553295
 10
-3.8006414883
 20
-10.7492158509
 10
-3.786260993
 20
-10.7337838109
 10
-3.7714402601
 20
-10.718845645
 10
-3.7561981479
 20
-10.7043793896
 10
-3.7405535146
 20
-10.6903630812
 10
-3.7245252182
 20
-10.6767747564
 10
-3.7081321169
 20
-10.6635924517
 10
-3.6913904365
 20
-10.65080024
 10
-3.6743058735
 20
-10.6384063402
 10
-3.6568814919
 20
-10.6264250075
 10
-3.6391203557
 20
-10.6148704971
 10
-3.621025529
 20
-10.6037570642
 10
-3.6026000758
 20
-10.5930989641
 10
-3.583846133
 20
-10.5829100965
 10
-3.5647621289
 20
-10.5732029388
 10
-3.5453455645
 20
-10.5639896128
 10
-3.525593941
 20
-10.5552822404
 10
-3.5055047593
 20
-10.5470929435
 10
-3.4850755207
 20
-10.539433844
 10
-3.4643059271
 20
-10.5323164664
 10
-3.443204484
 20
-10.525749946
 10
-3.421781898
 20
-10.5197428208
 10
-3.4000488755
 20
-10.5143036288
 10
-3.378016123
 20
-10.509440908
 10
-3.3556943471
 20
-10.5051631964
 10
-3.3363379593
 20
-10.5019702371
 10
-3.316774755
 20
-10.4992280848
 10
-3.2970023955
 20
-10.4969514712
 10
-3.2770185421
 20
-10.4951551279
 10
-3.2568208561
 20
-10.4938537864
 10
-3.2364069987
 20
-10.4930621783
 10
-3.2157746313
 20
-10.4927950353
  0
LWPOLYLINE
  5
2AF
100
AcDbEntity
  8
0
100
AcDbPolyline
 62
253
  6
CONTINUOUS
 90
54
 70
0
 10
-2.6632998785
 20
11.8983583711
 10
-2.6612056211
 20
11.9168133781
 10
-2.6585560973
 20
11.93501118
 10
-2.6553559952
 20
11.9529982627
 10
-2.6516100031
 20
11.9708211123
 10
-2.6473221555
 20
11.9885152437
 10
-2.6424938738
 20
12.0060722879
 10
-2.6371259259
 20
12.0234729046
 10
-2.6312190799
 20
12.0406977538
 10
-2.6247753267
 20
12.0577281199
 10
-2.6178015499
 20
12.0745477853
 10
-2.6103058561
 20
12.0911411568
 10
-2.6022963521
 20
12.1074926415
 10
-2.593781985
 20
12.1235881064
 10
-2.5847750649
 20
12.1394192585
 10
-2.5752887421
 20
12.1549792653
 10
-2.5653361674
 20
12.1702612941
 10
-2.5549299614
 20
12.1852580284
 10
-2.544080626
 20
12.1999602172
 10
-2.5327981332
 20
12.2143581257
 10
-2.5210924551
 20
12.2284420194
 10
-2.5089748019
 20
12.2422036717
 10
-2.4964613361
 20
12.2556408891
 10
-2.4835694585
 20
12.2687529864
 10
-2.4703165697
 20
12.2815392784
 10
-2.4567202572
 20
12.2940001468
 10
-2.4427988555
 20
12.3061402416
 10
-2.4285708857
 20
12.3179652794
 10
-2.4140548692
 20
12.3294809773
 10
-2.3942787441
 20
12.3443593538
 10
-2.3740351117
 20
12.3586840703
 10
-2.3533356212
 20
12.3724412413
 10
-2.3375189031
 20
12.3823763499
 10
-2.3214575251
 20
12.391966757
 10
-2.3051566951
 20
12.4011948159
 10
-2.2886216206
 20
12.4100428801
 10
-2.2718575619
 20
12.4184949884
 10
-2.2548699887
 20
12.4265419211
 10
-2.2376644231
 20
12.4341761438
 10
-2.2202463875
 20
12.4413901223
 10
-2.2000906035
 20
12.4491120507
 10
-2.1796945193
 20
12.4562737898
 10
-2.159088134
 20
12.4628738816
 10
-2.1383014467
 20
12.468910868
 10
-2.1173644566
 20
12.474383291
 10
-2.0963071627
 20
12.4792896923
 10
-2.0751595643
 20
12.4836286141
 10
-2.0539449934
 20
12.4873983506
 10
-2.0326601152
 20
12.4905962052
 10
-2.0112949279
 20
12.4932192337
 10
-1.9898394296
 20
12.4952644921
 10
-1.9682836185
 20
12.4967290361
 10
-1.9466174927
 20
12.4976099216
 10
-1.9248310505
 20
12.4979042043
  0
LWPOLYLINE
  5
2B0
100
AcDbEntity
  8
0
100
AcDbPolyline
 62
253
  6
CONTINUOUS
 90
86
 70
0
 10
-1.1869257915
 20
10.5947033714
 10
-1.1892462756
 20
10.5744686866
 10
-1.1922546771
 20
10.5544251673
 10
-1.195964139
 20
10.5344904845
 10
-1.2003878041
 20
10.5145823092
 10
-1.2055421068
 20
10.4946354636
 10
-1.2114566479
 20
10.4746533744
 10
-1.2181643197
 20
10.4546566198
 10
-1.2256980145
 20
10.4346657776
 10
-1.2340832445
 20
10.414708401
 10
-1.243316001
 20
10.3948399429
 10
-1.2533848954
 20
10.3751228315
 10
-1.2642785387
 20
10.3556194951
 10
-1.2759835954
 20
10.3363886944
 10
-1.2884789427
 20
10.3174745212
 10
-1.3017415111
 20
10.2989174
 10
-1.3157482309
 20
10.2807577551
 10
-1.3304771527
 20
10.263029681
 10
-1.3459108072
 20
10.2457419529
 10
-1.3620328453
 20
10.2288970159
 10
-1.3788269177
 20
10.212497315
 10
-1.3962762041
 20
10.1965441974
 10
-1.4143619984
 20
10.1810346184
 10
-1.4330651235
 20
10.1659644354
 10
-1.452366402
 20
10.1513295056
 10
-1.4751323178
 20
10.1351429742
 10
-1.498622698
 20
10.1195820642
 10
-1.5228057933
 20
10.1047093139
 10
-1.5476498542
 20
10.0905872613
 10
-1.5731231315
 20
10.0772784448
 10
-1.5991938757
 20
10.0648454026
 10
-1.6258303374
 20
10.0533506727
 10
-1.6529971621
 20
10.0428483115
 10
-1.6806445749
 20
10.0333584473
 10
-1.7087191956
 20
10.0248927262
 10
-1.7371676441
 20
10.0174627946
 10
-1.7659365403
 20
10.0110802988
 10
-1.7949725042
 20
10.0057568849
 10
-1.8242221555
 20
10.0015041994
 10
-1.8536357094
 20
9.9983330444
 10
-1.8831777625
 20
9.9962508455
 10
-1.9128165065
 20
9.9952641843
 10
-1.9425201332
 20
9.9953796424
 10
-1.9722568342
 20
9.9966038013
 10
-2.0019948014
 20
9.9989432426
 10
-2.0317022265
 20
10.0024045479
 10
-2.057640063
 20
10.0063563615
 10
-2.0834722476
 20
10.0111628613
 10
-2.1091408655
 20
10.0168147677
 10
-2.134588002
 20
10.0233028006
 10
-2.1597567328
 20
10.0306158949
 10
-2.1845940964
 20
10.0387358437
 10
-2.2090481219
 20
10.0476426545
 10
-2.2330668384
 20
10.0573163351
 10
-2.2566062296
 20
10.0677338571
 10
-2.2796540967
 20
10.0788600482
 10
-2.3022061955
 20
10.0906567001
 10
-2.324258282
 20
10.1030856047
 10
-2.3458032562
 20
10.1161080727
 10
-2.3668225965
 20
10.1296834915
 10
-2.3872949254
 20
10.1437707679
 10
-2.4071988655
 20
10.1583288082
 10
-2.4265102392
 20
10.1733261213
 10
-2.4451936683
 20
10.1887696241
 10
-2.463210974
 20
10.2046758357
 10
-2.4805239778
 20
10.2210612752
 10
-2.4970978596
 20
10.2379332672
 10
-2.5129112328
 20
10.2552623584
 10
-2.5279460693
 20
10.2730099009
 10
-2.542184341
 20
10.2911372469
 10
-2.5556123144
 20
10.3096044279
 10
-2.5682334334
 20
10.328366192
 10
-2.5800554367
 20
10.3473759668
 10
-2.5910860628
 20
10.3665871797
 10
-2.6013307915
 20
10.385949063
 10
-2.6107860677
 20
10.4053940674
 10
-2.6194460774
 20
10.4248504481
 10
-2.6273050067
 20
10.4442464606
 10
-2.6343625363
 20
10.4635204094
 10
-2.6406403255
 20
10.482650795
 10
-2.6461655279
 20
10.5016261674
 10
-2.6509652976
 20
10.5204350762
 10
-2.6550643939
 20
10.5390805448
 10
-2.6584779982
 20
10.5576234899
 10
-2.6612188974
 20
10.576139302
 10
-2.6632998785
 20
10.5947033714
  0
LINE
  5
2B1
100
AcDbEntity
  8
0
100
AcDbLine
 62
253
  6
CONTINUOUS
 10
-10.9129961194
 20
-0.0993687656
 11
-10.7713426825
 21
-0.0521605429
  0
LINE
  5
2B2
100
AcDbEntity
  8
0
100
AcDbLine
 62
253
  6
CONTINUOUS
 10
-10.7713426812
 20
-0.5465769887
 11
-10.9129961194
 21
-0.4993687656
  0
LWPOLYLINE
  5
2B3
100
AcDbEntity
  8
0
100
AcDbPolyline
 62
253
  6
CONTINUOUS
 90
84
 70
0
 10
-2.0887907712
 20
-11.0549817019
 10
-2.0924701752
 20
-11.0219468694
 10
-2.0972712953
 20
-10.9891917584
 10
-2.1031948
 20
-10.95661934
 10
-2.1102467105
 20
-10.9241458549
 10
-2.1184544581
 20
-10.8917406225
 10
-2.1278508268
 20
-10.8593862322
 10
-2.1384602608
 20
-10.8270924454
 10
-2.1502738467
 20
-10.7949777119
 10
-2.1632743316
 20
-10.763187654
 10
-2.1774285861
 20
-10.7318668636
 10
-2.1926399751
 20
-10.7011558134
 10
-2.2087959874
 20
-10.6711939458
 10
-2.2258077085
 20
-10.642079935
 10
-2.2436806112
 20
-10.6137493815
 10
-2.2624437653
 20
-10.5860971177
 10
-2.2821177376
 20
-10.5590407431
 10
-2.3026890819
 20
-10.5325889272
 10
-2.3241358488
 20
-10.5067731065
 10
-2.3464393511
 20
-10.4816173683
 10
-2.3695939504
 20
-10.4571164007
 10
-2.39359727
 20
-10.4332575423
 10
-2.4184494764
 20
-10.4100264089
 10
-2.4441609072
 20
-10.3874017248
 10
-2.4707444429
 20
-10.3653604918
 10
-2.5038071349
 20
-10.3396693649
 10
-2.5381252722
 20
-10.3148690247
 10
-2.5736799211
 20
-10.2910432057
 10
-2.610452148
 20
-10.2682756429
 10
-2.648423019
 20
-10.2466500712
 10
-2.6875609696
 20
-10.2262502833
 10
-2.7277839112
 20
-10.2071603044
 10
-2.7689971245
 20
-10.1894642177
 10
-2.8111058901
 20
-10.1732461065
 10
-2.8540154886
 20
-10.1585900539
 10
-2.8976246017
 20
-10.1455691405
 10
-2.9418055155
 20
-10.1342124366
 10
-2.9864239176
 20
-10.12453801
 10
-3.0313454952
 20
-10.1165639285
 10
-3.0764359357
 20
-10.1103082597
 10
-3.1215881204
 20
-10.1057877897
 10
-3.1668037065
 20
-10.1030141783
 10
-3.2121115451
 20
-10.1019978036
 10
-3.2575404872
 20
-10.1027490436
 10
-3.303119384
 20
-10.1052782764
 10
-3.3488492688
 20
-10.1095935823
 10
-3.3946199042
 20
-10.1156938495
 10
-3.4402932348
 20
-10.1235756688
 10
-3.4857312055
 20
-10.1332356304
 10
-3.530795761
 20
-10.144670325
 10
-3.5753509271
 20
-10.1578656058
 10
-3.6192690541
 20
-10.1727643775
 10
-3.6624245732
 20
-10.1892988076
 10
-3.7046919158
 20
-10.2074010634
 10
-3.7459455131
 20
-10.2270033125
 10
-3.7860724
 20
-10.2480302956
 10
-3.8250100257
 20
-10.2703770465
 10
-3.8627084428
 20
-10.2939311725
 10
-3.8991177041
 20
-10.3185802806
 10
-3.9341878623
 20
-10.3442119781
 10
-3.9623652817
 20
-10.3662569746
 10
-3.9896166661
 20
-10.3889357044
 10
-4.0159805986
 20
-10.4122775976
 10
-4.0414895466
 20
-10.4363124651
 10
-4.0661515133
 20
-10.461071641
 10
-4.0899683856
 20
-10.4865868403
 10
-4.1129350585
 20
-10.512877151
 10
-4.1350184582
 20
-10.5399111534
 10
-4.156178519
 20
-10.5676448007
 10
-4.1763898816
 20
-10.5960666297
 10
-4.1956860146
 20
-10.6252955111
 10
-4.2141150931
 20
-10.6554828987
 10
-4.2316896889
 20
-10.6867226441
 10
-4.2482799608
 20
-10.7188781886
 10
-4.2637204641
 20
-10.7517553708
 10
-4.2778687976
 20
-10.7851563142
 10
-4.2906747335
 20
-10.8188682811
 10
-4.3021110876
 20
-10.8526748182
 10
-4.312165287
 20
-10.8864033603
 10
-4.3208832044
 20
-10.9200568939
 10
-4.328325324
 20
-10.9536822936
 10
-4.3345431104
 20
-10.9873362256
 10
-4.339551951
 20
-11.0211145236
 10
-4.3433582137
 20
-11.055122813
  0
LWPOLYLINE
  5
2B4
100
AcDbEntity
  8
0
100
AcDbPolyline
 62
253
  6
CONTINUOUS
 90
53
 70
0
 10
-3.0523784895
 20
10.5573794825
 10
-3.0493337905
 20
10.5292989769
 10
-3.0454745032
 20
10.5013235184
 10
-3.0407838478
 20
10.4734283685
 10
-3.0352450443
 20
10.4455887887
 10
-3.0288413127
 20
10.4177800406
 10
-3.0215558733
 20
10.3899773857
 10
-3.0133774365
 20
10.3621731051
 10
-3.0043166739
 20
10.3344275588
 10
-2.9943897474
 20
10.3068181266
 10
-2.9836128193
 20
10.2794221881
 10
-2.9720020513
 20
10.2523171231
 10
-2.9595736056
 20
10.2255803111
 10
-2.9463449585
 20
10.1992782155
 10
-2.9323388442
 20
10.1734336329
 10
-2.9175793111
 20
10.1480584438
 10
-2.9020904077
 20
10.1231645284
 10
-2.8858961827
 20
10.098763767
 10
-2.8690206844
 20
10.0748680399
 10
-2.851488247
 20
10.0514891495
 10
-2.8333243472
 20
10.028638586
 10
-2.8145547473
 20
10.0063277617
 10
-2.7952052095
 20
9.9845680888
 10
-2.7753014962
 20
9.9633709798
 10
-2.7548693696
 20
9.9427478467
 10
-2.7296840471
 20
9.9187664387
 10
-2.7037861936
 20
9.8956035188
 10
-2.6771870958
 20
9.8732346158
 10
-2.64989804
 20
9.8516352586
 10
-2.6219303128
 20
9.8307809761
 10
-2.5932945721
 20
9.8106573261
 10
-2.5639989613
 20
9.7912899826
 10
-2.5340509956
 20
9.7727146484
 10
-2.50345819
 20
9.7549670262
 10
-2.4722280594
 20
9.7380828191
 10
-2.4457194686
 20
9.7246958298
 10
-2.4187655096
 20
9.7119411234
 10
-2.3913581822
 20
9.6998265954
 10
-2.3634894861
 20
9.6883601412
 10
-2.3351514212
 20
9.6775496565
 10
-2.3063359873
 20
9.6674030366
 10
-2.2770383903
 20
9.6579302514
 10
-2.2472666607
 20
9.6491495681
 10
-2.2170320349
 20
9.6410813281
 10
-2.1863457497
 20
9.6337458729
 10
-2.1552190415
 20
9.6271635439
 10
-2.1236631469
 20
9.6213546825
 10
-2.0916867626
 20
9.6163422817
 10
-2.0592884257
 20
9.6121599396
 10
-2.0264641333
 20
9.6088439057
 10
-1.9932098826
 20
9.6064304297
 10
-1.9595216708
 20
9.6049557611
 10
-1.9253954949
 20
9.6044561494
  0
LWPOLYLINE
  5
2B5
100
AcDbEntity
  8
0
100
AcDbPolyline
 62
253
  6
CONTINUOUS
 90
13
 70
0
 10
-2.6632998785
 20
10.5947033714
 10
-2.6666108985
 20
10.6307707345
 10
-2.6696612066
 20
10.6670242766
 10
-2.672460168
 20
10.7034646277
 10
-2.6750171476
 20
10.7400924174
 10
-2.6773415107
 20
10.7769082754
 10
-2.6794427971
 20
10.8139118006
 10
-2.6813312455
 20
10.851098468
 10
-2.6830172694
 20
10.8884627217
 10
-2.6845112822
 20
10.9259990059
 10
-2.6858236974
 20
10.9637017648
 10
-2.6872260324
 20
11.0110581874
 10
-2.6883891725
 20
11.0586691925
  0
LWPOLYLINE
  5
2B6
100
AcDbEntity
  8
0
100
AcDbPolyline
 62
253
  6
CONTINUOUS
 90
55
 70
0
 10
-1.3508502345
 20
-13.2690150346
 10
-1.3507943135
 20
-13.2725482658
 10
-1.3506275851
 20
-13.2760495058
 10
-1.3503516016
 20
-13.279527896
 10
-1.3499679152
 20
-13.2829925777
 10
-1.3494780781
 20
-13.2864526923
 10
-1.3488831811
 20
-13.2899155122
 10
-1.3481824696
 20
-13.2933808346
 10
-1.3473747274
 20
-13.2968465878
 10
-1.3464587388
 20
-13.3003107004
 10
-1.3454332876
 20
-13.3037711006
 10
-1.3442973218
 20
-13.3072251332
 10
-1.3430504456
 20
-13.3106678089
 10
-1.3416924273
 20
-13.3140935549
 10
-1.3402230349
 20
-13.3174967984
 10
-1.3386420366
 20
-13.3208719664
 10
-1.3372398492
 20
-13.3236582108
 10
-1.3357642596
 20
-13.326412292
 10
-1.3342195307
 20
-13.3291254137
 10
-1.3326084361
 20
-13.3317911043
 10
-1.3309277915
 20
-13.3344121915
 10
-1.3291729235
 20
-13.3369938276
 10
-1.3273402093
 20
-13.3395394198
 10
-1.3254302305
 20
-13.3420453941
 10
-1.3234446191
 20
-13.3445064312
 10
-1.3213850075
 20
-13.3469172119
 10
-1.319253028
 20
-13.3492724168
 10
-1.3170503128
 20
-13.3515667267
 10
-1.3147789966
 20
-13.3537954191
 10
-1.3124432229
 20
-13.3559561585
 10
-1.3100476378
 20
-13.3580472064
 10
-1.3075968874
 20
-13.360066824
 10
-1.3050956175
 20
-13.3620132727
 10
-1.3025484743
 20
-13.3638848137
 10
-1.2999584452
 20
-13.3656807288
 10
-1.297321884
 20
-13.3674043805
 10
-1.2946334861
 20
-13.3690601516
 10
-1.2918905134
 20
-13.3706507992
 10
-1.2891004937
 20
-13.3721725763
 10
-1.2862735218
 20
-13.3736201102
 10
-1.2828447617
 20
-13.3752531327
 10
-1.2793837918
 20
-13.3767715097
 10
-1.2758970776
 20
-13.378175243
 10
-1.2723910847
 20
-13.3794643338
 10
-1.2688722785
 20
-13.3806387839
 10
-1.2653463296
 20
-13.3816988268
 10
-1.2618157283
 20
-13.3826456248
 10
-1.2582821698
 20
-13.3834805722
 10
-1.2547473495
 20
-13.3842050635
 10
-1.2512129627
 20
-13.384820493
 10
-1.2476788516
 20
-13.3853277157
 10
-1.2441374465
 20
-13.3857254289
 10
-1.2405793243
 20
-13.3860117904
 10
-1.2369950623
 20
-13.3861849582
 10
-1.2333752375
 20
-13.3862430902
  0
LINE
  5
2B7
100
AcDbEntity
  8
0
100
AcDbLine
 62
253
  6
CONTINUOUS
 10
-1.3508502345
 20
-10.2976736465
 11
-1.3508502345
 21
-13.2690150346
  0
LINE
  5
2B8
100
AcDbEntity
  8
0
100
AcDbLine
 62
253
  6
CONTINUOUS
 10
-0.9596196889
 20
-13.2690150346
 11
-0.9596196889
 21
-11.9788361461
  0
LINE
  5
2B9
100
AcDbEntity
  8
0
100
AcDbLine
 62
253
  6
CONTINUOUS
 10
-0.9596196889
 20
-11.5878525351
 11
-0.9596196889
 21
-10.5711822575
  0
LWPOLYLINE
  5
2BA
100
AcDbEntity
  8
0
100
AcDbPolyline
 62
253
  6
CONTINUOUS
 90
16
 70
0
 10
-2.0579227164
 20
-11.8349380906
 10
-2.0574236411
 20
-11.7805560036
 10
-2.0572957497
 20
-11.7265125019
 10
-2.0575379813
 20
-11.6728059419
 10
-2.0581492749
 20
-11.6194346798
 10
-2.0591285694
 20
-11.566397072
 10
-2.0604746033
 20
-11.5136925854
 10
-2.0621853116
 20
-11.4613251294
 10
-2.064258429
 20
-11.4092997239
 10
-2.0666916898
 20
-11.357621389
 10
-2.0694828286
 20
-11.3062951446
 10
-2.0726300867
 20
-11.2553248964
 10
-2.0761337336
 20
-11.2047100934
 10
-2.0799945458
 20
-11.1544490702
 10
-2.0842132995
 20
-11.1045401615
 10
-2.0887907712
 20
-11.0549817019
  0
LWPOLYLINE
  5
2BB
100
AcDbEntity
  8
0
100
AcDbPolyline
 62
253
  6
CONTINUOUS
 90
15
 70
0
 10
-1.1597996076
 20
11.2066143378
 10
-1.1611088331
 20
11.1063025618
 10
-1.1620306677
 20
11.0582436369
 10
-1.1631827719
 20
11.0104890798
 10
-1.1645855103
 20
10.9630372071
 10
-1.1659015192
 20
10.9252931621
 10
-1.1673994532
 20
10.8877448045
 10
-1.1690877981
 20
10.8503951814
 10
-1.1709750397
 20
10.8132473397
 10
-1.1730696638
 20
10.7763043261
 10
-1.1753799582
 20
10.7395686681
 10
-1.1779134195
 20
10.7030408144
 10
-1.1806773464
 20
10.6667206942
 10
-1.1836790375
 20
10.6306082368
 10
-1.1869257915
 20
10.5947033714
  0
LWPOLYLINE
  5
2BC
100
AcDbEntity
  8
0
100
AcDbPolyline
 62
253
  6
CONTINUOUS
 90
19
 70
0
 10
-0.7978119126
 20
10.5575205936
 10
-0.7911697588
 20
10.6320147043
 10
-0.7853757322
 20
10.7067758288
 10
-0.7804017331
 20
10.7818136428
 10
-0.7762196617
 20
10.8571378221
 10
-0.7728014182
 20
10.9327580423
 10
-0.7701189027
 20
11.0086839792
 10
-0.7681509473
 20
11.0849177495
 10
-0.7669041115
 20
11.1614312331
 10
-0.7663918866
 20
11.2381887511
 10
-0.7666277638
 20
11.3151546245
 10
-0.7676252345
 20
11.3922931742
 10
-0.7693977899
 20
11.4695687213
 10
-0.7719623774
 20
11.5469529076
 10
-0.7753497684
 20
11.6244466594
 10
-0.77959419
 20
11.7020582235
 10
-0.7847298697
 20
11.7797958469
 10
-0.7907910348
 20
11.8576677768
 10
-0.7978119126
 20
11.93568226
  0
LWPOLYLINE
  5
2BD
100
AcDbEntity
  8
0
100
AcDbPolyline
 62
253
  6
CONTINUOUS
 90
15
 70
0
 10
-2.0887907712
 20
-12.4331433682
 10
-2.0852543439
 20
-12.3947785445
 10
-2.0819382026
 20
-12.3561952347
 10
-2.0788404661
 20
-12.3173926284
 10
-2.0759592536
 20
-12.2783699152
 10
-2.0732926838
 20
-12.2391262846
 10
-2.0708388288
 20
-12.1996615897
 10
-2.0685955725
 20
-12.1599783374
 10
-2.0665607519
 20
-12.1200796982
 10
-2.0647322039
 20
-12.0799688425
 10
-2.0631077656
 20
-12.0396489406
 10
-2.0613601893
 20
-11.9889585688
 10
-2.0599193552
 20
-11.9379445885
 10
-2.058776464
 20
-11.8866050716
 10
-2.0579227164
 20
-11.8349380906
  0
LWPOLYLINE
  5
2BE
100
AcDbEntity
  8
0
100
AcDbPolyline
 62
253
  6
CONTINUOUS
 90
83
 70
0
 10
-2.4778693724
 20
-12.3959605904
 10
-2.4806581268
 20
-12.4195948066
 10
-2.4843612828
 20
-12.4428387498
 10
-2.4889705502
 20
-12.4657943537
 10
-2.4944780861
 20
-12.488538568
 10
-2.5008778388
 20
-12.5110484071
 10
-2.5081642038
 20
-12.5332759014
 10
-2.5163309983
 20
-12.5551774878
 10
-2.5253697255
 20
-12.5767272295
 10
-2.5352713099
 20
-12.5979035964
 10
-2.546023414
 20
-12.6186849741
 10
-2.5576006506
 20
-12.6390494118
 10
-2.5699743707
 20
-12.6589748743
 10
-2.5831190014
 20
-12.6784424128
 10
-2.5970212766
 20
-12.6974454214
 10
-2.6116710068
 20
-12.7159803805
 10
-2.6270580024
 20
-12.7340437704
 10
-2.6431720739
 20
-12.7516320714
 10
-2.6600030316
 20
-12.7687417638
 10
-2.6775348952
 20
-12.7853697351
 10
-2.6957285203
 20
-12.8015145025
 10
-2.7145389718
 20
-12.8171749902
 10
-2.7339313792
 20
-12.832351281
 10
-2.7539111315
 20
-12.8470480899
 10
-2.7744936824
 20
-12.8612712904
 10
-2.795684563
 20
-12.8750136202
 10
-2.817449614
 20
-12.8882152755
 10
-2.8397447538
 20
-12.9008033168
 10
-2.8625320906
 20
-12.9127115444
 10
-2.8857984939
 20
-12.9239007182
 10
-2.9095370233
 20
-12.9343383378
 10
-2.9337313534
 20
-12.9439952928
 10
-2.9583276199
 20
-12.9528560323
 10
-2.9832625732
 20
-12.9609083952
 10
-3.008472964
 20
-12.9681402206
 10
-3.0338955431
 20
-12.9745393472
 10
-3.059467061
 20
-12.9800936142
 10
-3.0902769197
 20
-12.9856304777
 10
-3.1211998348
 20
-12.9899367018
 10
-3.15222547
 20
-12.9930157568
 10
-3.1833434887
 20
-12.9948711131
 10
-3.2145435546
 20
-12.9955062412
 10
-3.2458088079
 20
-12.9949229499
 10
-3.2770962957
 20
-12.993116402
 10
-3.3083565415
 20
-12.9900800987
 10
-3.339540069
 20
-12.9858075411
 10
-3.3705974018
 20
-12.9802922305
 10
-3.3963409096
 20
-12.974745701
 10
-3.4219007347
 20
-12.9683493337
 10
-3.4472151882
 20
-12.9611208266
 10
-3.4722225811
 20
-12.9530778781
 10
-3.4968612245
 20
-12.9442381861
 10
-3.5210694295
 20
-12.9346194488
 10
-3.5447957537
 20
-12.9242417185
 10
-3.5680297407
 20
-12.913134463
 10
-3.5907711806
 20
-12.9013295044
 10
-3.6130141052
 20
-12.8888651675
 10
-3.6347295127
 20
-12.8758057889
 10
-3.6558826429
 20
-12.8622222081
 10
-3.6764458976
 20
-12.8481716714
 10
-3.6964203277
 20
-12.8336570518
 10
-3.715814146
 20
-12.8186676293
 10
-3.7346261758
 20
-12.8031922664
 10
-3.7528176814
 20
-12.7872181559
 10
-3.7703405375
 20
-12.7707320735
 10
-3.7871532331
 20
-12.7537219332
 10
-3.8032407135
 20
-12.7361802026
 10
-3.8185945383
 20
-12.7181004878
 10
-3.833207797
 20
-12.6994817867
 10
-3.8470796983
 20
-12.6803446645
 10
-3.8602109806
 20
-12.6607150781
 10
-3.8725992469
 20
-12.6406197913
 10
-3.884229557
 20
-12.620088794
 10
-3.8950838352
 20
-12.5991528832
 10
-3.9051440058
 20
-12.5778428556
 10
-3.9143919929
 20
-12.5561895081
 10
-3.9228097208
 20
-12.5342236373
 10
-3.9303762246
 20
-12.5119684965
 10
-3.9370589825
 20
-12.4894171633
 10
-3.9428225834
 20
-12.4665551721
 10
-3.9476316164
 20
-12.4433680567
 10
-3.9514506705
 20
-12.4198413515
 10
-3.9542443347
 20
-12.3959605904
  0
LINE
  5
2BF
100
AcDbEntity
  8
0
100
AcDbLine
 62
253
  6
CONTINUOUS
 10
1.8920480188
 20
10.6273000381
 11
1.8831932968
 21
10.5912108714
  0
LINE
  5
2C0
100
AcDbEntity
  8
0
100
AcDbLine
 62
253
  6
CONTINUOUS
 10
10.0251542004
 20
21.7250206773
 11
10.1173326579
 21
21.9095040929
  0
LINE
  5
2C1
100
AcDbEntity
  8
0
100
AcDbLine
 62
253
  6
CONTINUOUS
 10
-11.3003491348
 20
-21.8244434411
 11
-11.3933253513
 21
-22.0105234697
  0
LINE
  5
2C2
100
AcDbEntity
  8
0
100
AcDbLine
 62
253
  6
CONTINUOUS
 10
10.5249828629
 20
21.2257059099
 11
10.6179590795
 21
21.4117859386
  0
LINE
  5
2C3
100
AcDbEntity
  8
0
100
AcDbLine
 62
7
  6
CONTINUOUS
 10
7.8623168641
 20
-0.5342762367
 11
8.2122715182
 21
-0.4993687656
  0
LINE
  5
2C4
100
AcDbEntity
  8
0
100
AcDbLine
 62
253
  6
CONTINUOUS
 10
10.4958050732
 20
-1.0465579498
 11
10.4921707438
 21
-1.046632931
  0
LINE
  5
2C5
100
AcDbEntity
  8
0
100
AcDbLine
 62
253
  6
CONTINUOUS
 10
10.4921707438
 20
-1.046632931
 11
10.4709052554
 21
-1.0467800641
  0
LINE
  5
2C6
100
AcDbEntity
  8
0
100
AcDbLine
 62
253
  6
CONTINUOUS
 10
9.9959764107
 20
-0.5465769882
 11
3.0750227413
 21
-0.5500223868
  0
LINE
  5
2C7
100
AcDbEntity
  8
0
100
AcDbLine
 62
253
  6
CONTINUOUS
 10
-10.7713426825
 20
-0.0521605429
 11
-3.8503890131
 21
-0.0487151443
  0
LINE
  5
2C8
100
AcDbEntity
  8
0
100
AcDbLine
 62
253
  6
CONTINUOUS
 10
10.4709052554
 20
-1.0467800641
 11
3.0892479415
 21
-1.050924021
  0
LINE
  5
2C9
100
AcDbEntity
  8
0
100
AcDbLine
 62
7
  6
CONTINUOUS
 10
7.8623168641
 20
-0.5342762367
 11
-8.6376831359
 21
-0.5342762367
  0
LINE
  5
2CA
100
AcDbEntity
  8
0
100
AcDbLine
 62
7
  6
CONTINUOUS
 10
10.1376298476
 20
-0.4993687656
 11
8.2122715182
 21
-0.4993687656
  0
LINE
  5
2CB
100
AcDbEntity
  8
0
100
AcDbLine
 62
7
  6
CONTINUOUS
 10
-8.98763779
 20
-0.4993687656
 11
-10.9129961194
 21
-0.4993687656
  0
LINE
  5
2CC
100
AcDbEntity
  8
0
100
AcDbLine
 62
7
  6
CONTINUOUS
 10
-10.9129961194
 20
-0.0993687656
 11
-8.98763779
 21
-0.0993687656
  0
LINE
  5
2CD
100
AcDbEntity
  8
0
100
AcDbLine
 62
7
  6
CONTINUOUS
 10
8.2122715182
 20
-0.0993687656
 11
10.1376298476
 21
-0.0993687656
  0
LINE
  5
2CE
100
AcDbEntity
  8
0
100
AcDbLine
 62
7
  6
CONTINUOUS
 10
-8.6376831359
 20
-0.0644612944
 11
7.8623168641
 21
-0.0644612944
  0
LINE
  5
2CF
100
AcDbEntity
  8
0
100
AcDbLine
 62
253
  6
CONTINUOUS
 10
3.0892479415
 20
-1.050924021
 11
-3.864611069
 21
-1.0509240219
  0
LINE
  5
2D0
100
AcDbEntity
  8
0
100
AcDbLine
 62
253
  6
CONTINUOUS
 10
3.0750227413
 20
-0.5500223868
 11
-3.8503916079
 21
-0.5500223863
  0
LINE
  5
2D1
100
AcDbEntity
  8
0
100
AcDbLine
 62
253
  6
CONTINUOUS
 10
-3.8503890131
 20
-0.0487151443
 11
3.0750253361
 21
-0.0487151449
  0
LINE
  5
2D2
100
AcDbEntity
  8
0
100
AcDbLine
 62
253
  6
CONTINUOUS
 10
-3.8503916079
 20
-0.5500223863
 11
-10.7713426812
 21
-0.5465769887
  0
LINE
  5
2D3
100
AcDbEntity
  8
0
100
AcDbLine
 62
253
  6
CONTINUOUS
 10
3.0750253361
 20
-0.0487151449
 11
9.9959764094
 21
-0.0521605425
  0
LINE
  5
2D4
100
AcDbEntity
  8
0
100
AcDbLine
 62
253
  6
CONTINUOUS
 10
-3.864611069
 20
-1.0509240219
 11
-11.2462715249
 21
-1.0467800599
  0
LWPOLYLINE
  5
2D5
100
AcDbEntity
  8
0
100
AcDbPolyline
 62
253
  6
CONTINUOUS
 90
3
 70
0
 10
-11.2462715249
 20
-1.0467800599
 10
-11.2675370132
 20
-1.0466329301
 10
-11.2711713425
 20
-1.0465579506
  0
LINE
  5
2D6
100
AcDbEntity
  8
0
100
AcDbLine
 62
7
  6
CONTINUOUS
 10
-8.6376831359
 20
-0.5342762367
 11
-8.98763779
 21
-0.4993687656
  0
LINE
  5
2D7
100
AcDbEntity
  8
0
100
AcDbLine
 62
253
  6
CONTINUOUS
 10
10.1173326579
 20
-22.508241624
 11
10.0251541998
 21
-22.3237582072
  0
LINE
  5
2D8
100
AcDbEntity
  8
0
100
AcDbLine
 62
253
  6
CONTINUOUS
 10
-11.3933253513
 20
21.4117859386
 11
-11.3003491341
 21
21.2257059087
  0
LINE
  5
2D9
100
AcDbEntity
  8
0
100
AcDbLine
 62
253
  6
CONTINUOUS
 10
10.6179590795
 20
-22.0105234697
 11
10.5249828623
 21
-21.8244434398
  0
LWPOLYLINE
  5
2DA
100
AcDbEntity
  8
0
100
AcDbPolyline
 62
253
  6
CONTINUOUS
 90
15
 70
0
 10
-1.1869257915
 20
11.89821726
 10
-1.1826572215
 20
11.8510914647
 10
-1.1787601326
 20
11.8036129774
 10
-1.175231809
 20
11.7557801206
 10
-1.1720695346
 20
11.707591217
 10
-1.1692705936
 20
11.659044589
 10
-1.1668320667
 20
11.6101398664
 10
-1.1647502222
 20
11.5608819068
 10
-1.1630211249
 20
11.5112768747
 10
-1.1616408398
 20
11.461330935
 10
-1.1606054317
 20
11.4110502522
 10
-1.1599104304
 20
11.3604395996
 10
-1.159549224
 20
11.3094981853
 10
-1.1595146655
 20
11.2582238258
 10
-1.1597996076
 20
11.2066143378
  0
LWPOLYLINE
  5
2DB
100
AcDbEntity
  8
0
100
AcDbPolyline
 62
253
  6
CONTINUOUS
 90
55
 70
0
 10
-0.0617763758
 20
9.7216489272
 10
-0.061719707
 20
9.7181104433
 10
-0.0615507954
 20
9.7146041778
 10
-0.0612712832
 20
9.7111211114
 10
-0.0608828127
 20
9.7076522248
 10
-0.0603870262
 20
9.7041884985
 10
-0.059785097
 20
9.7007227449
 10
-0.0590763235
 20
9.6972551021
 10
-0.0582595351
 20
9.6937875399
 10
-0.0573335613
 20
9.6903220283
 10
-0.0562972317
 20
9.6868605369
 10
-0.05514955
 20
9.683405643
 10
-0.0538902177
 20
9.6799623532
 10
-0.0525191106
 20
9.6765362814
 10
-0.0510361043
 20
9.6731330415
 10
-0.0494410747
 20
9.6697582476
 10
-0.0480269742
 20
9.6669726391
 10
-0.0465394447
 20
9.6642195725
 10
-0.0449829371
 20
9.6615079366
 10
-0.0433603975
 20
9.6588442817
 10
-0.04166875
 20
9.6562258014
 10
-0.0399034137
 20
9.6536473505
 10
-0.0380608554
 20
9.6511055019
 10
-0.0361417337
 20
9.6486037006
 10
-0.0341477551
 20
9.6461471096
 10
-0.0320806258
 20
9.6437408919
 10
-0.0299420525
 20
9.6413902108
 10
-0.0277337414
 20
9.6391002292
 10
-0.0254578861
 20
9.6368755385
 10
-0.0231186275
 20
9.6347184427
 10
-0.0207205937
 20
9.6326306744
 10
-0.0182684124
 20
9.6306139657
 10
-0.0157667119
 20
9.6286700492
 10
-0.0132201199
 20
9.6268006571
 10
-0.0106316056
 20
9.6250065135
 10
-0.0079975028
 20
9.6232843085
 10
-0.0053124864
 20
9.6216297243
 10
-0.0025737984
 20
9.6200400628
 10
0.0002110521
 20
9.6185191074
 10
0.0030319887
 20
9.6170722616
 10
0.0064523875
 20
9.615439929
 10
0.0099037997
 20
9.6139221294
 10
0.0133797844
 20
9.6125188969
 10
0.0168739008
 20
9.6112302653
 10
0.0203797078
 20
9.6100562689
 10
0.0238915748
 20
9.6089967021
 10
0.0274071111
 20
9.608050402
 10
0.0309247363
 20
9.6072159665
 10
0.0344428701
 20
9.6064919931
 10
0.037959932
 20
9.6058770796
 10
0.0414761396
 20
9.6053703582
 10
0.0449989037
 20
9.6049730994
 10
0.0485374328
 20
9.6046871083
 10
0.0521009357
 20
9.60451419
 10
0.0556986212
 20
9.6044561494
  0
LWPOLYLINE
  5
2DC
100
AcDbEntity
  8
0
100
AcDbPolyline
 62
253
  6
CONTINUOUS
 90
55
 70
0
 10
0.4297249979
 20
-11.705327535
 10
0.4296681764
 20
-11.7017678199
 10
0.4294988307
 20
-11.6982410692
 10
0.4292186389
 20
-11.6947382343
 10
0.4288292793
 20
-11.6912502664
 10
0.42833243
 20
-11.6877681169
 10
0.4277292934
 20
-11.6842845689
 10
0.4270191687
 20
-11.6807997317
 10
0.4262008793
 20
-11.6773155465
 10
0.4252732487
 20
-11.6738339543
 10
0.4242351003
 20
-11.6703568962
 10
0.423085436
 20
-11.6668869375
 10
0.4218239715
 20
-11.6634291412
 10
0.420450601
 20
-11.6599891942
 10
0.4189652187
 20
-11.6565727837
 10
0.4173677188
 20
-11.6531855969
 10
0.4159515146
 20
-11.6503903213
 10
0.4144619211
 20
-11.6476283022
 10
0.4129034819
 20
-11.6449085523
 10
0.411279228
 20
-11.6422377206
 10
0.4095861402
 20
-11.6396130004
 10
0.4078196867
 20
-11.6370292212
 10
0.4059763756
 20
-11.6344829202
 10
0.4040568731
 20
-11.6319774653
 10
0.4020628853
 20
-11.6295179322
 10
0.3999961184
 20
-11.6271093965
 10
0.3978582783
 20
-11.6247569339
 10
0.3956510712
 20
-11.6224656201
 10
0.3933767022
 20
-11.6202399722
 10
0.3910393736
 20
-11.618082273
 10
0.3886437868
 20
-11.6159942468
 10
0.3861946431
 20
-11.6139776179
 10
0.383696644
 20
-11.6120341105
 10
0.3811544909
 20
-11.6101654489
 10
0.378571219
 20
-11.6083723443
 10
0.3759431996
 20
-11.6066514547
 10
0.3732651378
 20
-11.6049984254
 10
0.370534284
 20
-11.603410515
 10
0.36775807
 20
-11.6018914372
 10
0.364946473
 20
-11.6004465192
 10
0.3615380902
 20
-11.598816478
 10
0.3580995114
 20
-11.5973009151
 10
0.3546371248
 20
-11.5958998472
 10
0.3511573186
 20
-11.594613291
 10
0.3476664813
 20
-11.5934412634
 10
0.3441702021
 20
-11.5923835437
 10
0.3406708745
 20
-11.5914389622
 10
0.3371700931
 20
-11.5906061118
 10
0.3336694526
 20
-11.5898835855
 10
0.3301705474
 20
-11.5892699762
 10
0.3266731772
 20
-11.5887644057
 10
0.3231699614
 20
-11.5883681107
 10
0.3196517246
 20
-11.5880828569
 10
0.3161092912
 20
-11.5879104098
 10
0.3125334859
 20
-11.5878525351
  0
LWPOLYLINE
  5
2DD
100
AcDbEntity
  8
0
100
AcDbPolyline
 62
253
  6
CONTINUOUS
 90
55
 70
0
 10
0.6655216585
 20
-10.2976736465
 10
0.6654650771
 20
-10.2941193827
 10
0.6652964216
 20
-10.2905978756
 10
0.6650173255
 20
-10.2871000143
 10
0.6646294219
 20
-10.2836166878
 10
0.6641343441
 20
-10.2801387852
 10
0.6635332538
 20
-10.2766590474
 10
0.6628254265
 20
-10.2731776224
 10
0.6620096659
 20
-10.2696965098
 10
0.6610847759
 20
-10.2662177092
 10
0.6600495603
 20
-10.2627432204
 10
0.6589029961
 20
-10.2592756526
 10
0.6576447537
 20
-10.255820053
 10
0.6562746762
 20
-10.2523820787
 10
0.6547926073
 20
-10.2489673864
 10
0.6531983901
 20
-10.2455816331
 10
0.6517848501
 20
-10.2427873035
 10
0.6502977659
 20
-10.2400259371
 10
0.6487415825
 20
-10.2373064723
 10
0.6471192385
 20
-10.2346355008
 10
0.6454276452
 20
-10.2320102281
 10
0.6436622074
 20
-10.2294255128
 10
0.6418193773
 20
-10.226877929
 10
0.6398997966
 20
-10.2243709119
 10
0.6379051545
 20
-10.2219096117
 10
0.6358371399
 20
-10.2194991789
 10
0.6336974422
 20
-10.2171447637
 10
0.6314877504
 20
-10.2148515166
 10
0.629210255
 20
-10.212624014
 10
0.6268691528
 20
-10.2104645372
 10
0.6244691416
 20
-10.2083747934
 10
0.6220149195
 20
-10.2063564901
 10
0.6195111845
 20
-10.2044113346
 10
0.6169626346
 20
-10.2025410342
 10
0.6143723005
 20
-10.2007462876
 10
0.6117365434
 20
-10.1990237591
 10
0.6090500573
 20
-10.1973691043
 10
0.6063100892
 20
-10.1957795907
 10
0.603524098
 20
-10.194258934
 10
0.6007020959
 20
-10.1928124619
 10
0.5972804395
 20
-10.1911805888
 10
0.5938277475
 20
-10.1896632296
 10
0.5903504223
 20
-10.1882604008
 10
0.5868548668
 20
-10.1869721188
 10
0.5833474835
 20
-10.1857983998
 10
0.5798338824
 20
-10.1847390268
 10
0.5763165025
 20
-10.1837928475
 10
0.5727969902
 20
-10.1829584765
 10
0.5692769917
 20
-10.182234528
 10
0.5657581534
 20
-10.1816196164
 10
0.5622403008
 20
-10.1811128884
 10
0.5587159761
 20
-10.1807156194
 10
0.5551759008
 20
-10.1804296175
 10
0.5516107962
 20
-10.1802566906
 10
0.5480113838
 20
-10.1801986465
  0
LWPOLYLINE
  5
2DE
100
AcDbEntity
  8
0
100
AcDbPolyline
 62
253
  6
CONTINUOUS
 90
55
 70
0
 10
1.369348585
 20
-13.2690150346
 10
1.3694049913
 20
-13.2725620302
 10
1.369573119
 20
-13.2760764028
 10
1.3698513308
 20
-13.2795672103
 10
1.3702379896
 20
-13.2830435107
 10
1.3707314582
 20
-13.2865143618
 10
1.3713305704
 20
-13.2899869834
 10
1.3720360432
 20
-13.2934612425
 10
1.3728490648
 20
-13.296935168
 10
1.3737708231
 20
-13.3004067888
 10
1.3748025061
 20
-13.3038741337
 10
1.3759451278
 20
-13.3073346187
 10
1.3771990057
 20
-13.3107832082
 10
1.3785642833
 20
-13.3142142536
 10
1.3800411042
 20
-13.3176221065
 10
1.3816296118
 20
-13.3210011183
 10
1.3830380313
 20
-13.3237899081
 10
1.3845196534
 20
-13.3265457969
 10
1.3860700209
 20
-13.3292598351
 10
1.3876861797
 20
-13.3319254278
 10
1.3893711884
 20
-13.3345453998
 10
1.391129609
 20
-13.3371249309
 10
1.3929649639
 20
-13.3396674796
 10
1.3948766179
 20
-13.3421696197
 10
1.3968628964
 20
-13.3446262037
 10
1.3989221249
 20
-13.3470320843
 10
1.4010526287
 20
-13.3493821141
 10
1.4032527333
 20
-13.3516711455
 10
1.4055202626
 20
-13.3538945994
 10
1.407851036
 20
-13.356050169
 10
1.4102403713
 20
-13.3581361156
 10
1.4126835864
 20
-13.3601507006
 10
1.4151759991
 20
-13.3620921855
 10
1.4177129274
 20
-13.3639588317
 10
1.4202913506
 20
-13.3657499205
 10
1.4229148942
 20
-13.3674688134
 10
1.4255888452
 20
-13.3691198921
 10
1.4283159429
 20
-13.3707059185
 10
1.4310887367
 20
-13.3722231763
 10
1.4338972286
 20
-13.3736663295
 10
1.437302274
 20
-13.3752943185
 10
1.4407379177
 20
-13.3768079106
 10
1.4441977502
 20
-13.3782071029
 10
1.4476753619
 20
-13.3794918928
 10
1.4511643432
 20
-13.3806622777
 10
1.4546590838
 20
-13.381718491
 10
1.4581571696
 20
-13.3826617113
 10
1.4616569855
 20
-13.3834933533
 10
1.4651569167
 20
-13.3842148317
 10
1.468655348
 20
-13.3848275611
 10
1.4721524721
 20
-13.3853324251
 10
1.4756557111
 20
-13.3857281824
 10
1.4791742949
 20
-13.3860130607
 10
1.4827174531
 20
-13.3861852874
 10
1.4862944154
 20
-13.3862430902
  0
LINE
  5
2DF
100
AcDbEntity
  8
0
100
AcDbLine
 62
253
  6
CONTINUOUS
 10
-0.0617763758
 20
12.693519482
 11
-0.0617763758
 21
9.7216489272
  0
LINE
  5
2E0
100
AcDbEntity
  8
0
100
AcDbLine
 62
253
  6
CONTINUOUS
 10
0.4297249979
 20
-11.8613611461
 11
0.4297249979
 21
-11.705327535
  0
LINE
  5
2E1
100
AcDbEntity
  8
0
100
AcDbLine
 62
253
  6
CONTINUOUS
 10
0.6655216585
 20
-10.4536719798
 11
0.6655216585
 21
-10.2976736465
  0
LINE
  5
2E2
100
AcDbEntity
  8
0
100
AcDbLine
 62
253
  6
CONTINUOUS
 10
1.369348585
 20
-10.2976736465
 11
1.369348585
 21
-13.2690150346
  0
LINE
  5
2E3
100
AcDbEntity
  8
0
100
AcDbLine
 62
253
  6
CONTINUOUS
 10
1.760049964
 20
-13.2690150346
 11
1.760049964
 21
-11.9788361461
  0
LINE
  5
2E4
100
AcDbEntity
  8
0
100
AcDbLine
 62
253
  6
CONTINUOUS
 10
1.760049964
 20
-11.5878525351
 11
1.760049964
 21
-10.5711822575
  0
LINE
  5
2E5
100
AcDbEntity
  8
0
100
AcDbLine
 62
253
  6
CONTINUOUS
 10
1.8920480188
 20
12.693519482
 11
1.8920480188
 21
10.6273000381
  0
LINE
  5
2E6
100
AcDbEntity
  8
0
100
AcDbLine
 62
253
  6
CONTINUOUS
 10
0.3291719476
 20
9.7216489272
 11
0.3305477809
 21
11.8024380933
  0
LINE
  5
2E7
100
AcDbEntity
  8
0
100
AcDbLine
 62
253
  6
CONTINUOUS
 10
-10.8005204723
 20
-22.3237582085
 11
-10.8926989297
 21
-22.508241624
  0
LINE
  5
2E8
100
AcDbEntity
  8
0
100
AcDbLine
 62
7
  6
CONTINUOUS
 10
-8.6376831359
 20
-0.0644612944
 11
-8.98763779
 21
-0.0993687656
  0
LINE
  5
2E9
100
AcDbEntity
  8
0
100
AcDbLine
 62
253
  6
CONTINUOUS
 10
-11.271171345
 20
0.4478204186
 11
-11.2675370156
 21
0.4478953998
  0
LINE
  5
2EA
100
AcDbEntity
  8
0
100
AcDbLine
 62
253
  6
CONTINUOUS
 10
-11.2675370156
 20
0.4478953998
 11
-11.2462715272
 21
0.4480425329
  0
LINE
  5
2EB
100
AcDbEntity
  8
0
100
AcDbLine
 62
253
  6
CONTINUOUS
 10
-11.2462715272
 20
0.4480425329
 11
-3.8646142134
 21
0.4521864899
  0
LINE
  5
2EC
100
AcDbEntity
  8
0
100
AcDbLine
 62
253
  6
CONTINUOUS
 10
-3.8646142134
 20
0.4521864899
 11
3.0892447972
 21
0.4521864907
  0
LINE
  5
2ED
100
AcDbEntity
  8
0
100
AcDbLine
 62
253
  6
CONTINUOUS
 10
3.0892447972
 20
0.4521864907
 11
10.2244458606
 21
0.4484976311
  0
LINE
  5
2EE
100
AcDbEntity
  8
0
100
AcDbLine
 62
253
  6
CONTINUOUS
 10
10.2244458606
 20
0.4484976311
 11
10.470905253
 21
0.4480425287
  0
LWPOLYLINE
  5
2EF
100
AcDbEntity
  8
0
100
AcDbPolyline
 62
253
  6
CONTINUOUS
 90
3
 70
0
 10
10.470905253
 20
0.4480425287
 10
10.4921707413
 20
0.447895399
 10
10.4958050707
 20
0.4478204194
  0
LINE
  5
2F0
100
AcDbEntity
  8
0
100
AcDbLine
 62
7
  6
CONTINUOUS
 10
7.8623168641
 20
-0.0644612944
 11
8.2122715182
 21
-0.0993687656
  0
LINE
  5
2F1
100
AcDbEntity
  8
0
100
AcDbLine
 62
253
  6
CONTINUOUS
 10
-10.8926989297
 20
21.9095040929
 11
-10.8005204717
 21
21.7250206761
  0
LWPOLYLINE
  5
2F2
100
AcDbEntity
  8
0
100
AcDbPolyline
 62
253
  6
CONTINUOUS
 90
76
 70
0
 10
-0.7978119126
 20
11.93568226
 10
-0.8026097486
 20
11.9771268389
 10
-0.8091187557
 20
12.0179721721
 10
-0.8173212627
 20
12.0582413674
 10
-0.8271995986
 20
12.0979575326
 10
-0.8387360922
 20
12.1371437756
 10
-0.8519114774
 20
12.1758090894
 10
-0.8667001076
 20
12.2139060084
 10
-0.8830747411
 20
12.2513729521
 10
-0.9010081364
 20
12.2881483401
 10
-0.9204730518
 20
12.324170592
 10
-0.9414422227
 20
12.3593843426
 10
-0.9638882925
 20
12.3937590876
 10
-0.9877838817
 20
12.427270538
 10
-1.0131016105
 20
12.4598944048
 10
-1.0398140995
 20
12.4916063991
 10
-1.0678943334
 20
12.5223854873
 10
-1.0973167539
 20
12.5522236589
 10
-1.1280561672
 20
12.5811161586
 10
-1.1600873794
 20
12.6090582316
 10
-1.1933851966
 20
12.6360451226
 10
-1.2279236864
 20
12.662059202
 10
-1.2636739619
 20
12.6870313419
 10
-1.300606398
 20
12.7108795397
 10
-1.3386913691
 20
12.7335217927
 10
-1.3778992499
 20
12.7548760985
 10
-1.4181873381
 20
12.774862723
 10
-1.4594606226
 20
12.7934110064
 10
-1.5016110153
 20
12.8104525575
 10
-1.5445304282
 20
12.825918985
 10
-1.5881107731
 20
12.8397418979
 10
-1.6322405281
 20
12.8518635898
 10
-1.6767944352
 20
12.8622690944
 10
-1.7216438026
 20
12.8709541306
 10
-1.7666599384
 20
12.877914417
 10
-1.8117141509
 20
12.8831456725
 10
-1.8567056707
 20
12.8866441515
 10
-1.9016454181
 20
12.8884082522
 10
-1.9465722361
 20
12.8884369084
 10
-1.9915249676
 20
12.8867290538
 10
-2.0365424554
 20
12.8832836225
 10
-2.0816344017
 20
12.8781010568
 10
-2.1266939451
 20
12.8711878333
 10
-2.1715850835
 20
12.862551937
 10
-2.2161718149
 20
12.8522013532
 10
-2.260318137
 20
12.840144067
 10
-2.3038929755
 20
12.8263984088
 10
-2.3467849667
 20
12.8110240907
 10
-2.3888876748
 20
12.7940911702
 10
-2.4300946637
 20
12.7756697046
 10
-2.4702994977
 20
12.7558297515
 10
-2.5094097884
 20
12.734642289
 10
-2.5473893377
 20
12.7121819782
 10
-2.5842159952
 20
12.688524401
 10
-2.6198676106
 20
12.6637451394
 10
-2.6543220334
 20
12.6379197752
 10
-2.6875576226
 20
12.6111110106
 10
-2.7195547747
 20
12.5833300283
 10
-2.7502943955
 20
12.5545751317
 10
-2.7797573909
 20
12.5248446238
 10
-2.8079246668
 20
12.4941368077
 10
-2.8347738404
 20
12.4624548196
 10
-2.8602693746
 20
12.4298211272
 10
-2.8843724436
 20
12.3962630314
 10
-2.9070442217
 20
12.3618078328
 10
-2.928245883
 20
12.3264828323
 10
-2.9479399125
 20
12.2903212854
 10
-2.9660940386
 20
12.2533802664
 10
-2.9826773001
 20
12.2157228044
 10
-2.9976587361
 20
12.1774119285
 10
-3.0110073856
 20
12.1385106679
 10
-3.0226939138
 20
12.0990675438
 10
-3.0326954914
 20
12.059073047
 10
-3.0409909153
 20
12.0185031602
 10
-3.0475589824
 20
11.9773338666
 10
-3.0523784895
 20
11.9355411488
  0
LWPOLYLINE
  5
2F3
100
AcDbEntity
  8
0
100
AcDbPolyline
 62
253
  6
CONTINUOUS
 90
55
 70
0
 10
2.2827846755
 20
12.693519482
 10
2.2827284078
 20
12.6970702452
 10
2.2825606791
 20
12.7005880239
 10
2.2822831007
 20
12.7040819743
 10
2.2818972842
 20
12.7075612526
 10
2.2814048411
 20
12.7110350152
 10
2.280806912
 20
12.7145105538
 10
2.2801027547
 20
12.7179877032
 10
2.2792911562
 20
12.7214644336
 10
2.2783709035
 20
12.7249387154
 10
2.2773407836
 20
12.7284085187
 10
2.2761997537
 20
12.7318712097
 10
2.2749474519
 20
12.7353217371
 10
2.2735836865
 20
12.7387544455
 10
2.2721082658
 20
12.7421636793
 10
2.270520998
 20
12.7455437832
 10
2.2691134488
 20
12.7483332645
 10
2.2676324898
 20
12.7510896781
 10
2.2660825155
 20
12.7538041128
 10
2.2644664213
 20
12.7564699924
 10
2.2627811035
 20
12.7590900802
 10
2.2610219589
 20
12.7616694743
 10
2.2591854294
 20
12.7642115674
 10
2.2572721371
 20
12.7667129303
 10
2.255283749
 20
12.7691684283
 10
2.2532219324
 20
12.7715729269
 10
2.2510883544
 20
12.7739212912
 10
2.2488846821
 20
12.7762083867
 10
2.2466130926
 20
12.7784296556
 10
2.2442778021
 20
12.7805828476
 10
2.2418835368
 20
12.7826662893
 10
2.2394350229
 20
12.7846783076
 10
2.2369369866
 20
12.786617229
 10
2.2343941541
 20
12.7884813801
 10
2.2318095855
 20
12.7902700887
 10
2.2291796769
 20
12.7919866858
 10
2.2264991583
 20
12.7936355037
 10
2.2237652924
 20
12.7952192782
 10
2.2209854728
 20
12.7967343599
 10
2.2181696259
 20
12.798175503
 10
2.2147552286
 20
12.7998013991
 10
2.2113095911
 20
12.8013132619
 10
2.2078390588
 20
12.8027110832
 10
2.2043499768
 20
12.8039948553
 10
2.2008486905
 20
12.8051645701
 10
2.1973407717
 20
12.8062204467
 10
2.1938286998
 20
12.8071636114
 10
2.1903141805
 20
12.8079954176
 10
2.1867989198
 20
12.8087172185
 10
2.1832846236
 20
12.8093303676
 10
2.1797711602
 20
12.8098356888
 10
2.1762510477
 20
12.8102318888
 10
2.1727149666
 20
12.8105171453
 10
2.1691535973
 20
12.8106896357
 10
2.1655576203
 20
12.8107475375
  0
LWPOLYLINE
  5
2F4
100
AcDbEntity
  8
0
100
AcDbPolyline
 62
253
  6
CONTINUOUS
 90
55
 70
0
 10
3.1499251518
 20
-11.705327535
 10
3.1498686065
 20
-11.7017757619
 10
3.1497000565
 20
-11.6982565794
 10
3.1494211309
 20
-11.694760894
 10
3.1490334586
 20
-11.6912796119
 10
3.1485386685
 20
-11.6878036396
 10
3.1479379191
 20
-11.6843257314
 10
3.1472304862
 20
-11.6808460333
 10
3.1464151754
 20
-11.6773665394
 10
3.145490792
 20
-11.6738892437
 10
3.1444561414
 20
-11.6704161403
 10
3.1433102022
 20
-11.6669498323
 10
3.1420526457
 20
-11.6634953588
 10
3.1406833163
 20
-11.6600583683
 10
3.1392020583
 20
-11.6566445089
 10
3.1376087164
 20
-11.653259429
 10
3.1361959544
 20
-11.6504655326
 10
3.1347096882
 20
-11.6477044784
 10
3.1331543578
 20
-11.6449852002
 10
3.1315328965
 20
-11.6423142826
 10
3.1298422115
 20
-11.6396889114
 10
3.1280777035
 20
-11.6371039232
 10
3.1262358208
 20
-11.6345558773
 10
3.1243172023
 20
-11.632048225
 10
3.1223235344
 20
-11.6295861405
 10
3.1202565035
 20
-11.627174798
 10
3.1181177961
 20
-11.6248193717
 10
3.1159090987
 20
-11.6225250358
 10
3.1136325973
 20
-11.6202963896
 10
3.1112924765
 20
-11.6181357321
 10
3.1088934204
 20
-11.6160447875
 10
3.1064401131
 20
-11.6140252799
 10
3.1039372389
 20
-11.6120789334
 10
3.1013894818
 20
-11.6102074722
 10
3.0987998594
 20
-11.6084116061
 10
3.0961647224
 20
-11.6066879884
 10
3.0934787548
 20
-11.605032258
 10
3.0907392005
 20
-11.6034416737
 10
3.0879535435
 20
-11.6019199732
 10
3.0851318276
 20
-11.6004725138
 10
3.0817104908
 20
-11.5988395634
 10
3.0782581188
 20
-11.5973212491
 10
3.0747811381
 20
-11.5959175848
 10
3.0712859755
 20
-11.5946285847
 10
3.0677790575
 20
-11.593454263
 10
3.0642660106
 20
-11.5923943981
 10
3.0607492613
 20
-11.5914478256
 10
3.057230436
 20
-11.5906131458
 10
3.0537111609
 20
-11.5898889586
 10
3.0501930625
 20
-11.5892738641
 10
3.0466759513
 20
-11.5887669965
 10
3.0431523738
 20
-11.5883696257
 10
3.0396130609
 20
-11.5880835558
 10
3.0360487434
 20
-11.587910591
 10
3.0324501519
 20
-11.5878525351
  0
LWPOLYLINE
  5
2F5
100
AcDbEntity
  8
0
100
AcDbPolyline
 62
253
  6
CONTINUOUS
 90
55
 70
0
 10
3.3854382558
 20
-10.2976736465
 10
3.3853814781
 20
-10.2941156672
 10
3.3852122591
 20
-10.2905905544
 10
3.3849322696
 20
-10.2870892611
 10
3.3845431807
 20
-10.28360274
 10
3.3840466634
 20
-10.280121944
 10
3.3834439137
 20
-10.2766396578
 10
3.382734228
 20
-10.2731559929
 10
3.3819164279
 20
-10.269672893
 10
3.3809893349
 20
-10.2661923015
 10
3.3799517704
 20
-10.2627161619
 10
3.3788027342
 20
-10.2592470408
 10
3.3775419384
 20
-10.2557899967
 10
3.3761692733
 20
-10.2523507114
 10
3.3746846292
 20
-10.2489348663
 10
3.3730878965
 20
-10.2455481431
 10
3.3716723497
 20
-10.2427531717
 10
3.3701834214
 20
-10.2399913752
 10
3.3686256454
 20
-10.2372717593
 10
3.3670020435
 20
-10.2346009654
 10
3.3653095883
 20
-10.2319761783
 10
3.3635437401
 20
-10.2293922183
 10
3.3617010001
 20
-10.2268456181
 10
3.3597820324
 20
-10.2243397579
 10
3.357788542
 20
-10.2218797305
 10
3.3557222339
 20
-10.2194706283
 10
3.353584813
 20
-10.2171175438
 10
3.3513779843
 20
-10.2148255695
 10
3.349103951
 20
-10.2125992376
 10
3.346766909
 20
-10.2104408384
 10
3.3443715529
 20
-10.208352102
 10
3.3419225768
 20
-10.2063347583
 10
3.3394246752
 20
-10.2043905372
 10
3.3368825422
 20
-10.2025211689
 10
3.3342992061
 20
-10.2007273678
 10
3.3316710304
 20
-10.1990057876
 10
3.3289927121
 20
-10.1973520664
 10
3.3262614987
 20
-10.1957634598
 10
3.3234848368
 20
-10.1942436941
 10
3.320672723
 20
-10.1927981132
 10
3.3172636533
 20
-10.1911673278
 10
3.3138243287
 20
-10.1896510803
 10
3.31036115
 20
-10.1882493872
 10
3.3068805177
 20
-10.1869622652
 10
3.3033888324
 20
-10.1857897311
 10
3.2998916921
 20
-10.1847315635
 10
3.2963914843
 20
-10.1837865889
 10
3.292889794
 20
-10.1829533962
 10
3.2893882063
 20
-10.182230574
 10
3.2858883061
 20
-10.1816167108
 10
3.2823898855
 20
-10.1811109256
 10
3.278885565
 20
-10.1807144573
 10
3.2753661723
 20
-10.1804290752
 10
3.2718225351
 20
-10.1802565485
 10
3.268245481
 20
-10.1801986465
  0
LINE
  5
2F6
100
AcDbEntity
  8
0
100
AcDbLine
 62
253
  6
CONTINUOUS
 10
2.2827846755
 20
9.7216489272
 11
2.2827846755
 21
12.693519482
  0
LINE
  5
2F7
100
AcDbEntity
  8
0
100
AcDbLine
 62
253
  6
CONTINUOUS
 10
3.1499251518
 20
-11.8613611461
 11
3.1499251518
 21
-11.705327535
  0
LINE
  5
2F8
100
AcDbEntity
  8
0
100
AcDbLine
 62
253
  6
CONTINUOUS
 10
3.3854382558
 20
-10.4536719798
 11
3.3854382558
 21
-10.2976736465
  0
LINE
  5
2F9
100
AcDbEntity
  8
0
100
AcDbLine
 62
253
  6
CONTINUOUS
 10
10.1376298476
 20
-0.4993687656
 11
9.9959764107
 21
-0.5465769882
  0
LINE
  5
2FA
100
AcDbEntity
  8
0
100
AcDbLine
 62
253
  6
CONTINUOUS
 10
10.6376869876
 20
-0.9992735834
 11
10.4958050732
 21
-1.0465579498
  0
LINE
  5
2FB
100
AcDbEntity
  8
0
100
AcDbLine
 62
253
  6
CONTINUOUS
 10
9.9959764094
 20
-0.0521605425
 11
10.1376298476
 21
-0.0993687656
  0
LINE
  5
2FC
100
AcDbEntity
  8
0
100
AcDbLine
 62
253
  6
CONTINUOUS
 10
10.4958050706
 20
0.4478204194
 11
10.6376869876
 21
0.4005360522
  0
LWPOLYLINE
  5
2FD
100
AcDbEntity
  8
0
100
AcDbPolyline
 62
253
  6
CONTINUOUS
 90
10
 70
0
 10
10.5249828623
 20
-21.8244434398
 10
10.5236890971
 20
-21.8200909306
 10
10.5224171359
 20
-21.8123971608
 10
10.5211669789
 20
-21.8013621303
 10
10.5199320763
 20
-21.7868969275
 10
10.5187189778
 20
-21.769090464
 10
10.5175473321
 20
-21.748209475
 10
10.516418326
 20
-21.7242092136
 10
10.5153307728
 20
-21.6971344267
 10
10.5143007611
 20
-21.6673860894
  0
LWPOLYLINE
  5
2FE
100
AcDbEntity
  8
0
100
AcDbPolyline
 62
253
  6
CONTINUOUS
 90
41
 70
0
 10
1.8835460746
 20
9.6579019828
 10
1.8850013387
 20
9.655741041
 10
1.8865034634
 20
9.6536318908
 10
1.8880536936
 20
9.6515705722
 10
1.8896532742
 20
9.6495531252
 10
1.8913034499
 20
9.6475755895
 10
1.8930054656
 20
9.6456340051
 10
1.894760566
 20
9.6437244119
 10
1.8968765557
 20
9.6415329779
 10
1.8990661817
 20
9.6393810568
 10
1.9013291318
 20
9.6372700079
 10
1.9036650938
 20
9.6352011905
 10
1.9060737553
 20
9.6331759642
 10
1.9085548042
 20
9.6311956882
 10
1.9111073905
 20
9.6292620561
 10
1.9137285142
 20
9.6273780971
 10
1.9164146376
 20
9.6255471748
 10
1.919162223
 20
9.6237726525
 10
1.9219677326
 20
9.6220578936
 10
1.9248276289
 20
9.6204062617
 10
1.9277383688
 20
9.6188209936
 10
1.9306963878
 20
9.6173048207
 10
1.9336981163
 20
9.6158603479
 10
1.9367399844
 20
9.6144901802
 10
1.9398184225
 20
9.6131969223
 10
1.9429298607
 20
9.6119831793
 10
1.9456205603
 20
9.6110080078
 10
1.9483317929
 20
9.6100943167
 10
1.9510624691
 20
9.6092432535
 10
1.9538114994
 20
9.6084559656
 10
1.9565777944
 20
9.6077336006
 10
1.9593602648
 20
9.6070773061
 10
1.9621578212
 20
9.6064882294
 10
1.9646177634
 20
9.6060290498
 10
1.9670910611
 20
9.6056243049
 10
1.969580354
 20
9.6052760874
 10
1.9720882815
 20
9.6049864899
 10
1.9746174831
 20
9.6047576047
 10
1.9771705984
 20
9.6045915246
 10
1.9797502667
 20
9.604490342
 10
1.9823591276
 20
9.6044561494
  0
LWPOLYLINE
  5
2FF
100
AcDbEntity
  8
0
100
AcDbPolyline
 62
253
  6
CONTINUOUS
 90
41
 70
0
 10
0.3373916696
 20
12.7574075375
 10
0.3359216737
 20
12.7595999114
 10
0.3344045795
 20
12.7617368835
 10
0.3328393312
 20
12.7638225612
 10
0.3312248731
 20
12.7658610517
 10
0.3295601493
 20
12.7678564625
 10
0.327844104
 20
12.7698129009
 10
0.3260756814
 20
12.7717344741
 10
0.323945407
 20
12.7739363753
 10
0.3217436859
 20
12.7760948444
 10
0.3194717996
 20
12.7782083139
 10
0.3171310299
 20
12.7802752165
 10
0.3147226585
 20
12.7822939847
 10
0.3122479668
 20
12.7842630512
 10
0.3097084759
 20
12.7861807281
 10
0.3071066635
 20
12.7880448465
 10
0.3044452466
 20
12.7898531169
 10
0.3017269421
 20
12.7916032501
 10
0.298954467
 20
12.7932929567
 10
0.2961305384
 20
12.7949199472
 10
0.2932578099
 20
12.7964819289
 10
0.2903386822
 20
12.7979765948
 10
0.2873754927
 20
12.7994016345
 10
0.2843705791
 20
12.8007547377
 10
0.2813262786
 20
12.8020335939
 10
0.2782449287
 20
12.8032358927
 10
0.275576061
 20
12.804203748
 10
0.272883198
 20
12.8051121937
 10
0.2701678467
 20
12.8059597639
 10
0.2674315143
 20
12.8067449927
 10
0.2646757082
 20
12.8074664143
 10
0.2619019354
 20
12.8081225628
 10
0.2591117032
 20
12.8087119722
 10
0.2566573188
 20
12.8091716138
 10
0.2541888118
 20
12.8095769
 10
0.251703507
 20
12.8099256948
 10
0.2491987296
 20
12.8102158622
 10
0.2466718045
 20
12.8104452661
 10
0.2441200569
 20
12.8106117707
 10
0.2415408118
 20
12.8107132398
 10
0.2389313943
 20
12.8107475375
  0
LINE
  5
300
100
AcDbEntity
  8
0
100
AcDbLine
 62
253
  6
CONTINUOUS
 10
0.4722938884
 20
11.8308367044
 11
1.8835460746
 21
9.6579019828
  0
LINE
  5
301
100
AcDbEntity
  8
0
100
AcDbLine
 62
253
  6
CONTINUOUS
 10
1.7491024669
 20
10.5839436492
 11
0.3373916696
 21
12.7574075375
  0
LWPOLYLINE
  5
302
100
AcDbEntity
  8
0
100
AcDbPolyline
 62
253
  6
CONTINUOUS
 90
8
 70
0
 10
10.0245957535
 20
-0.6768691934
 10
10.0209565979
 20
-0.6437700112
 10
10.0170256215
 20
-0.6151270547
 10
10.0133757541
 20
-0.591204221
 10
10.0091031773
 20
-0.5721645071
 10
10.0042102242
 20
-0.558265335
 10
9.9996720917
 20
-0.5497191103
 10
9.9959764107
 20
-0.5465769882
  0
LWPOLYLINE
  5
303
100
AcDbEntity
  8
0
100
AcDbPolyline
 62
253
  6
CONTINUOUS
 90
16
 70
0
 10
10.4958050732
 20
-1.0465579498
 10
10.4931195365
 20
-0.9949120181
 10
10.4850793678
 20
-0.9436480313
 10
10.4717177572
 20
-0.8933265221
 10
10.4531038363
 20
-0.8444542807
 10
10.4294022136
 20
-0.797641837
 10
10.4009266226
 20
-0.7535696948
 10
10.3680317869
 20
-0.7127696421
 10
10.3310479558
 20
-0.6756364053
 10
10.2903707088
 20
-0.6425705953
 10
10.2464366058
 20
-0.6139346731
 10
10.1997333887
 20
-0.590053577
 10
10.1507866758
 20
-0.5711986068
 10
10.1001399748
 20
-0.557578376
 10
10.0483465027
 20
-0.5493409312
 10
9.9959764107
 20
-0.5465769882
  0
LWPOLYLINE
  5
304
100
AcDbEntity
  8
0
100
AcDbPolyline
 62
253
  6
CONTINUOUS
 90
4
 70
0
 10
10.0349019446
 20
-0.8451301394
 10
10.0331010013
 20
-0.7984184091
 10
10.0303868451
 20
-0.7544474935
 10
10.0245957535
 20
-0.6768691934
  0
LINE
  5
305
100
AcDbEntity
  8
0
100
AcDbLine
 62
253
  6
CONTINUOUS
 10
10.5143007611
 20
-21.6673860894
 11
10.5124150742
 21
-21.5997854688
  0
LINE
  5
306
100
AcDbEntity
  8
0
100
AcDbLine
 62
253
  6
CONTINUOUS
 10
10.5124150742
 20
-21.5997854688
 11
10.510801252
 21
-21.5230387229
  0
LINE
  5
307
100
AcDbEntity
  8
0
100
AcDbLine
 62
253
  6
CONTINUOUS
 10
10.0344150158
 20
21.4557753236
 11
10.0325412004
 21
21.5530203915
  0
LINE
  5
308
100
AcDbEntity
  8
0
100
AcDbLine
 62
253
  6
CONTINUOUS
 10
10.510801252
 20
-21.5230387229
 11
10.5094829357
 21
-21.438286721
  0
LINE
  5
309
100
AcDbEntity
  8
0
100
AcDbLine
 62
253
  6
CONTINUOUS
 10
10.0369144753
 20
21.276303972
 11
10.0344150158
 21
21.4557753236
  0
LINE
  5
30A
100
AcDbEntity
  8
0
100
AcDbLine
 62
253
  6
CONTINUOUS
 10
10.5094829357
 20
-21.438286721
 11
10.5081244511
 21
-21.3002785616
  0
LINE
  5
30B
100
AcDbEntity
  8
0
100
AcDbLine
 62
253
  6
CONTINUOUS
 10
10.0394879035
 20
20.9871167483
 11
10.0369144753
 21
21.276303972
  0
LWPOLYLINE
  5
30C
100
AcDbEntity
  8
0
100
AcDbPolyline
 62
253
  6
CONTINUOUS
 90
3
 70
0
 10
10.0386425273
 20
0.4485876061
 10
10.0388673945
 20
0.3955990114
 10
10.0380148229
 20
0.3443484502
  0
LINE
  5
30D
100
AcDbEntity
  8
0
100
AcDbLine
 62
253
  6
CONTINUOUS
 10
10.0412154461
 20
20.577898715
 11
10.0394879035
 21
20.9871167483
  0
LINE
  5
30E
100
AcDbEntity
  8
0
100
AcDbLine
 62
253
  6
CONTINUOUS
 10
10.5081244511
 20
-21.3002785616
 11
10.5075563478
 21
-21.1551941224
  0
LINE
  5
30F
100
AcDbEntity
  8
0
100
AcDbLine
 62
253
  6
CONTINUOUS
 10
10.5075563478
 20
-21.1551941224
 11
10.5051156694
 21
-18.8438294016
  0
LINE
  5
310
100
AcDbEntity
  8
0
100
AcDbLine
 62
253
  6
CONTINUOUS
 10
10.0386423114
 20
0.4485876097
 11
10.0412154409
 21
20.577898716
  0
LINE
  5
311
100
AcDbEntity
  8
0
100
AcDbLine
 62
253
  6
CONTINUOUS
 10
10.0407420259
 20
-21.3439783157
 11
10.038642323
 21
-1.0473251464
  0
LWPOLYLINE
  5
312
100
AcDbEntity
  8
0
100
AcDbPolyline
 62
253
  6
CONTINUOUS
 90
4
 70
0
 10
10.0386425299
 20
-1.0473251485
 10
10.0388672684
 20
-0.9943385508
 10
10.0380147781
 20
-0.9430896635
 10
10.0349019446
 20
-0.8451301394
  0
LINE
  5
313
100
AcDbEntity
  8
0
100
AcDbLine
 62
253
  6
CONTINUOUS
 10
10.5075563481
 20
20.5564565934
 11
10.5081244518
 21
20.7015410324
  0
LINE
  5
314
100
AcDbEntity
  8
0
100
AcDbLine
 62
253
  6
CONTINUOUS
 10
10.0383166657
 20
-21.7364447461
 11
10.0407420259
 21
-21.3439783157
  0
LINE
  5
315
100
AcDbEntity
  8
0
100
AcDbLine
 62
253
  6
CONTINUOUS
 10
10.5081244518
 20
20.7015410324
 11
10.5094829363
 21
20.8395491919
  0
LINE
  5
316
100
AcDbEntity
  8
0
100
AcDbLine
 62
253
  6
CONTINUOUS
 10
10.0361265035
 20
-21.93897133
 11
10.0383166657
 21
-21.7364447461
  0
LINE
  5
317
100
AcDbEntity
  8
0
100
AcDbLine
 62
253
  6
CONTINUOUS
 10
10.0344150149
 20
-22.0545128527
 11
10.0361265035
 21
-21.93897133
  0
LINE
  5
318
100
AcDbEntity
  8
0
100
AcDbLine
 62
253
  6
CONTINUOUS
 10
10.5094829363
 20
20.8395491919
 11
10.5108012526
 21
20.9243011938
  0
LINE
  5
319
100
AcDbEntity
  8
0
100
AcDbLine
 62
253
  6
CONTINUOUS
 10
10.0325411995
 20
-22.1517579216
 11
10.0344150149
 21
-22.0545128527
  0
LINE
  5
31A
100
AcDbEntity
  8
0
100
AcDbLine
 62
253
  6
CONTINUOUS
 10
10.5108012526
 20
20.9243011938
 11
10.5124150748
 21
21.0010479397
  0
LWPOLYLINE
  5
31B
100
AcDbEntity
  8
0
100
AcDbPolyline
 62
253
  6
CONTINUOUS
 90
11
 70
0
 10
10.5124150748
 20
21.0010479397
 10
10.5143007618
 20
21.0686485601
 10
10.5153307734
 20
21.0983968973
 10
10.5164183267
 20
21.1254716841
 10
10.5175473328
 20
21.1494719454
 10
10.5187189784
 20
21.1703529344
 10
10.5199320769
 20
21.1881593979
 10
10.5211669795
 20
21.2026246007
 10
10.5224171366
 20
21.2136596311
 10
10.5236890977
 20
21.2213534008
 10
10.5249828629
 20
21.2257059099
  0
LWPOLYLINE
  5
31C
100
AcDbEntity
  8
0
100
AcDbPolyline
 62
253
  6
CONTINUOUS
 90
4
 70
0
 10
10.0380148229
 20
0.3443484502
 10
10.0349016914
 20
0.2463865882
 10
10.0331007088
 20
0.1996741985
 10
10.0303864148
 20
0.1557030655
  0
LWPOLYLINE
  5
31D
100
AcDbEntity
  8
0
100
AcDbPolyline
 62
253
  6
CONTINUOUS
 90
16
 70
0
 10
10.4958050706
 20
0.4478204194
 10
10.493119529
 20
0.3961744399
 10
10.4850793476
 20
0.3449104174
 10
10.4717177203
 20
0.2945888854
 10
10.4531037828
 20
0.2457166352
 10
10.4294021468
 20
0.1989041947
 10
10.4009265464
 20
0.1548320627
 10
10.3680317082
 20
0.1140320268
 10
10.3310478822
 20
0.0768988108
 10
10.2903706425
 20
0.0438330185
 10
10.246436545
 20
0.0151971089
 10
10.1997333339
 20
-0.0086839767
 10
10.1507866297
 20
-0.0275389377
 10
10.100139941
 20
-0.041159161
 10
10.0483464836
 20
-0.0493966009
 10
9.9959764081
 20
-0.0521605421
  0
LWPOLYLINE
  5
31E
100
AcDbEntity
  8
0
100
AcDbPolyline
 62
253
  6
CONTINUOUS
 90
9
 70
0
 10
10.0303864148
 20
0.1557030655
 10
10.0245951742
 20
0.0781257031
 10
10.0209560092
 20
0.0450274493
 10
10.0170250104
 20
0.0163856086
 10
10.0133752049
 20
-0.0075360445
 10
10.0091027483
 20
-0.026574686
 10
10.0042099422
 20
-0.0404729972
 10
9.9996719655
 20
-0.0490186412
 10
9.9959764086
 20
-0.0521605421
  0
LWPOLYLINE
  5
31F
100
AcDbEntity
  8
0
100
AcDbPolyline
 62
253
  6
CONTINUOUS
 90
55
 70
0
 10
0.2119791728
 20
9.6044561494
 10
0.2155281121
 20
9.6045131334
 10
0.2190442945
 20
9.6046829554
 10
0.222536708
 20
9.6049639204
 10
0.2260143407
 20
9.6053543335
 10
0.2294861807
 20
9.6058524997
 10
0.2329593987
 20
9.6064571993
 10
0.2364338962
 20
9.6071691139
 10
0.2399077577
 20
9.6079894007
 10
0.2433790674
 20
9.6089192165
 10
0.2468459096
 20
9.6099597185
 10
0.2503057431
 20
9.6111118828
 10
0.2537535249
 20
9.612375963
 10
0.2571835861
 20
9.613752032
 10
0.260590258
 20
9.6152401625
 10
0.263967872
 20
9.6168404273
 10
0.2667553131
 20
9.6182589229
 10
0.2695096544
 20
9.619750767
 10
0.2722219118
 20
9.6213113864
 10
0.274885455
 20
9.6229377221
 10
0.2775030678
 20
9.6246327714
 10
0.2800798878
 20
9.6264010455
 10
0.2826193573
 20
9.6282460145
 10
0.2851181375
 20
9.6301669832
 10
0.2875711945
 20
9.6321622152
 10
0.2899734943
 20
9.634229974
 10
0.292320003
 20
9.6363685231
 10
0.2946056866
 20
9.6385761261
 10
0.2968260646
 20
9.6408505593
 10
0.2989788701
 20
9.6431876497
 10
0.3010623894
 20
9.6455827371
 10
0.3030749091
 20
9.6480311616
 10
0.3050147155
 20
9.6505282627
 10
0.3068800952
 20
9.6530693805
 10
0.3086703364
 20
9.6556515158
 10
0.3103887345
 20
9.6582783138
 10
0.3120395869
 20
9.6609550809
 10
0.3136255821
 20
9.6636845746
 10
0.3151429744
 20
9.6664593578
 10
0.3165864097
 20
9.6692694446
 10
0.3182149048
 20
9.6726759021
 10
0.3197291494
 20
9.6761124376
 10
0.3211291015
 20
9.6795726719
 10
0.3224147192
 20
9.6830502255
 10
0.3235859605
 20
9.6865387191
 10
0.3246430229
 20
9.6900325787
 10
0.3255870621
 20
9.6935294521
 10
0.3264194735
 20
9.6970277926
 10
0.3271416525
 20
9.7005260534
 10
0.3277549942
 20
9.7040226878
 10
0.3282603659
 20
9.7075179218
 10
0.3286565214
 20
9.7110190726
 10
0.3289416864
 20
9.7145352305
 10
0.3291140866
 20
9.7180754853
 10
0.3291719476
 20
9.7216489272
  0
LWPOLYLINE
  5
320
100
AcDbEntity
  8
0
100
AcDbPolyline
 62
253
  6
CONTINUOUS
 90
55
 70
0
 10
2.1655576203
 20
9.6044561494
 10
2.1691044117
 20
9.6045123455
 10
2.1726184608
 20
9.6046798668
 10
2.176108912
 20
9.6049571129
 10
2.1795849098
 20
9.6053424833
 10
2.1830555987
 20
9.6058343775
 10
2.1865282606
 20
9.6064316639
 10
2.1900027273
 20
9.6071350861
 10
2.1934769679
 20
9.6079458564
 10
2.1969489516
 20
9.6088651872
 10
2.2004166475
 20
9.6098942908
 10
2.2038774232
 20
9.6110342099
 10
2.2073262391
 20
9.6122853077
 10
2.2107574543
 20
9.613647778
 10
2.2141654276
 20
9.6151218143
 10
2.217544518
 20
9.6167076101
 10
2.2203333543
 20
9.6181138696
 10
2.2230893154
 20
9.6195934939
 10
2.2258035015
 20
9.6211421028
 10
2.2284693501
 20
9.6227568146
 10
2.2310896505
 20
9.6244407426
 10
2.2336695297
 20
9.626198499
 10
2.2362123977
 20
9.62803365
 10
2.2387147971
 20
9.6299455793
 10
2.2411715536
 20
9.6319326246
 10
2.2435774929
 20
9.6339931238
 10
2.2459274407
 20
9.6361254147
 10
2.2482162226
 20
9.638327835
 10
2.2504392441
 20
9.6405982152
 10
2.25259423
 20
9.6429323554
 10
2.2546794848
 20
9.6453255482
 10
2.2566933131
 20
9.6477730861
 10
2.2586340194
 20
9.6502702619
 10
2.2604999084
 20
9.6528123682
 10
2.2622902928
 20
9.6553963628
 10
2.2640085188
 20
9.6580258644
 10
2.2656589407
 20
9.660706157
 10
2.2672443058
 20
9.6634399814
 10
2.2687609335
 20
9.6662199056
 10
2.2702035359
 20
9.6690359545
 10
2.2718310224
 20
9.6724506621
 10
2.2733442942
 20
9.6758966438
 10
2.2747433473
 20
9.6793675182
 10
2.2760281778
 20
9.6828569042
 10
2.2771987818
 20
9.6863584202
 10
2.2782553851
 20
9.689866468
 10
2.279199132
 20
9.6933785802
 10
2.2800313963
 20
9.6968930724
 10
2.280753552
 20
9.7004082604
 10
2.2813669731
 20
9.7039224597
 10
2.2818725016
 20
9.70743582
 10
2.2822688527
 20
9.7109558271
 10
2.2825542098
 20
9.7144918007
 10
2.2827267563
 20
9.7180530608
 10
2.2827846755
 20
9.7216489272
  0
LWPOLYLINE
  5
321
100
AcDbEntity
  8
0
100
AcDbPolyline
 62
253
  6
CONTINUOUS
 90
52
 70
0
 10
-1.9253954949
 20
9.6044561494
 10
-1.8925253176
 20
9.604919455
 10
-1.8599989038
 20
9.6062912421
 10
-1.8278110154
 20
9.6085443166
 10
-1.7959564142
 20
9.6116514841
 10
-1.7644298621
 20
9.6155855503
 10
-1.733226121
 20
9.6203193209
 10
-1.70234338
 20
9.6258275409
 10
-1.6717935379
 20
9.6320927113
 10
-1.6415919209
 20
9.6390992724
 10
-1.6117538552
 20
9.6468316647
 10
-1.5822946669
 20
9.6552743284
 10
-1.5532296821
 20
9.6644117037
 10
-1.5188884847
 20
9.6762749179
 10
-1.4851326328
 20
9.6891087377
 10
-1.4519577489
 20
9.7029057899
 10
-1.4193594557
 20
9.7176587011
 10
-1.3873333757
 20
9.733360098
 10
-1.3558789765
 20
9.7499977032
 10
-1.3250111054
 20
9.7675396216
 10
-1.2947484545
 20
9.7859490539
 10
-1.2651097161
 20
9.805189201
 10
-1.2361135822
 20
9.8252232635
 10
-1.2077767995
 20
9.8460246463
 10
-1.1801083313
 20
9.8676075705
 10
-1.1531151954
 20
9.8899964615
 10
-1.1268044095
 20
9.9132157446
 10
-1.1011829915
 20
9.9372898451
 10
-1.0803678089
 20
9.9580185142
 10
-1.0600663036
 20
9.9793497736
 10
-1.0403085514
 20
10.0012756281
 10
-1.0211246285
 20
10.0237880829
 10
-1.002544611
 20
10.0468791429
 10
-0.984598575
 20
10.0705408132
 10
-0.9673168728
 20
10.0947600835
 10
-0.9507309623
 20
10.1195038826
 10
-0.9348725778
 20
10.1447341241
 10
-0.9197699636
 20
10.1704222062
 10
-0.9054374052
 20
10.1965774657
 10
-0.8918856979
 20
10.2232187241
 10
-0.8791309404
 20
10.2503471331
 10
-0.867210443
 20
10.2778931646
 10
-0.8561668189
 20
10.3057696208
 10
-0.8460373952
 20
10.3338816225
 10
-0.836838354
 20
10.3621035652
 10
-0.8285805911
 20
10.3903021628
 10
-0.8212670632
 20
10.4183711817
 10
-0.8148689713
 20
10.446312597
 10
-0.8093495774
 20
10.4741554358
 10
-0.8046764292
 20
10.5019338302
 10
-0.800834216
 20
10.5297023309
 10
-0.7978119126
 20
10.5575205936
  0
LINE
  5
322
100
AcDbEntity
  8
0
100
AcDbLine
 62
253
  6
CONTINUOUS
 10
0.0556986212
 20
9.6044570674
 11
0.2119791728
 21
9.6044550827
  0
LINE
  5
323
100
AcDbEntity
  8
0
100
AcDbLine
 62
253
  6
CONTINUOUS
 10
1.9823591276
 20
9.604461539
 11
2.1655576203
 21
9.6044505555
  0
LINE
  5
324
100
AcDbEntity
  8
0
100
AcDbLine
 62
253
  6
CONTINUOUS
 10
1.8217394095
 20
10.5488773266
 11
1.8141909538
 21
10.5488777492
  0
LINE
  5
325
100
AcDbEntity
  8
0
100
AcDbLine
 62
253
  6
CONTINUOUS
 10
0.4524687319
 20
11.8510861489
 11
0.4722938884
 21
11.8308367044
  0
LINE
  5
326
100
AcDbEntity
  8
0
100
AcDbLine
 62
253
  6
CONTINUOUS
 10
1.7685405219
 20
10.5634472603
 11
1.7491024669
 21
10.5839436492
  0
LWPOLYLINE
  5
327
100
AcDbEntity
  8
0
100
AcDbPolyline
 62
253
  6
CONTINUOUS
 90
6
 70
0
 10
10.0305117732
 20
21.6300251624
 10
10.0294796418
 20
21.6604426387
 10
10.0284068769
 20
21.6852622891
 10
10.0272994153
 20
21.7043590678
 10
10.0262058968
 20
21.7176347397
 10
10.0251542004
 20
21.7250206773
  0
LINE
  5
328
100
AcDbEntity
  8
0
100
AcDbLine
 62
253
  6
CONTINUOUS
 10
10.0325412004
 20
21.5530203915
 11
10.0305117732
 21
21.6300251624
  0
LINE
  5
329
100
AcDbEntity
  8
0
100
AcDbLine
 62
7
  6
CONTINUOUS
 10
10.6179590795
 20
21.4117859386
 11
10.6376869876
 21
12.8006312344
  0
LINE
  5
32A
100
AcDbEntity
  8
0
100
AcDbLine
 62
253
  6
CONTINUOUS
 10
10.5051156694
 20
-18.8438294016
 11
10.4983315402
 21
-10.0298304327
  0
LINE
  5
32B
100
AcDbEntity
  8
0
100
AcDbLine
 62
253
  6
CONTINUOUS
 10
10.4983315402
 20
-10.0298304327
 11
10.4958050732
 21
-1.0465579498
  0
LINE
  5
32C
100
AcDbEntity
  8
0
100
AcDbLine
 62
7
  6
CONTINUOUS
 10
10.6376869876
 20
12.8006312344
 11
10.6376869876
 21
0.4005360522
  0
LINE
  5
32D
100
AcDbEntity
  8
0
100
AcDbLine
 62
7
  6
CONTINUOUS
 10
10.6376869876
 20
-13.3993687656
 11
10.6376869876
 21
-0.9992735834
  0
LINE
  5
32E
100
AcDbEntity
  8
0
100
AcDbLine
 62
253
  6
CONTINUOUS
 10
10.4958050706
 20
0.4478204194
 11
10.4992468193
 21
11.0384695501
  0
LINE
  5
32F
100
AcDbEntity
  8
0
100
AcDbLine
 62
253
  6
CONTINUOUS
 10
10.4992468193
 20
11.0384695501
 11
10.5075563481
 21
20.5564565934
  0
LINE
  5
330
100
AcDbEntity
  8
0
100
AcDbLine
 62
7
  6
CONTINUOUS
 10
10.6179590795
 20
-22.0105234697
 11
10.6376869876
 21
-13.3993687656
  0
LWPOLYLINE
  5
331
100
AcDbEntity
  8
0
100
AcDbPolyline
 62
253
  6
CONTINUOUS
 90
53
 70
0
 10
-1.9248310505
 20
12.4979042043
 10
-1.9038784839
 20
12.4976235004
 10
-1.8833220796
 20
12.4968016469
 10
-1.8631647522
 20
12.4954690314
 10
-1.843409416
 20
12.4936560414
 10
-1.8240589855
 20
12.4913930643
 10
-1.8051163751
 20
12.4887104878
 10
-1.7865844993
 20
12.4856386992
 10
-1.7684662724
 20
12.4822080861
 10
-1.7482667242
 20
12.4778827266
 10
-1.7285961048
 20
12.4731481706
 10
-1.70943926
 20
12.4680242002
 10
-1.6907810358
 20
12.4625305979
 10
-1.672606278
 20
12.4566871459
 10
-1.6548998325
 20
12.4505136266
 10
-1.6376465452
 20
12.4440298223
 10
-1.6180706896
 20
12.4360986071
 10
-1.5990696721
 20
12.427797382
 10
-1.5806221587
 20
12.4191515436
 10
-1.562706815
 20
12.4101864884
 10
-1.5453023071
 20
12.400927613
 10
-1.5283873006
 20
12.3914003139
 10
-1.5087075248
 20
12.3796453754
 10
-1.4896778145
 20
12.367562651
 10
-1.4712740744
 20
12.355174314
 10
-1.453472209
 20
12.3425025374
 10
-1.4362481231
 20
12.3295694946
 10
-1.4195813265
 20
12.3163886959
 10
-1.4034657511
 20
12.302939001
 10
-1.3878989339
 20
12.2891906065
 10
-1.3728784121
 20
12.2751137094
 10
-1.3584017229
 20
12.2606785064
 10
-1.3444656039
 20
12.2458592599
 10
-1.3310635947
 20
12.2306464944
 10
-1.3181884356
 20
12.2150347998
 10
-1.3058328667
 20
12.1990187661
 10
-1.2939896282
 20
12.1825929834
 10
-1.2826552532
 20
12.1657556493
 10
-1.2718414475
 20
12.1485193922
 10
-1.26156371
 20
12.1309004481
 10
-1.2518375394
 20
12.1129150532
 10
-1.2426784345
 20
12.0945794433
 10
-1.234103267
 20
12.0759136784
 10
-1.2261344
 20
12.0569531136
 10
-1.2187955693
 20
12.0377369277
 10
-1.2121105108
 20
12.0183042998
 10
-1.2061029604
 20
11.9986944086
 10
-1.2016307188
 20
11.982240411
 10
-1.1976554995
 20
11.9656815277
 10
-1.1941873498
 20
11.9490087649
 10
-1.191236317
 20
11.9322131285
 10
-1.1888124485
 20
11.9152856248
 10
-1.1869257915
 20
11.89821726
  0
LWPOLYLINE
  5
332
100
AcDbEntity
  8
0
100
AcDbPolyline
 62
253
  6
CONTINUOUS
 90
29
 70
0
 10
1.8141909538
 20
10.5488775381
 10
1.8129466042
 20
10.5488947714
 10
1.8117012859
 20
10.5489457779
 10
1.8104549947
 20
10.5490295178
 10
1.8092077265
 20
10.5491449512
 10
1.8079594774
 20
10.5492910382
 10
1.8067102431
 20
10.5494667389
 10
1.8054600197
 20
10.5496710135
 10
1.8042088031
 20
10.5499028221
 10
1.8029565891
 20
10.5501611247
 10
1.8017033737
 20
10.5504448816
 10
1.8004491529
 20
10.5507530529
 10
1.7991939224
 20
10.5510845986
 10
1.797686288
 20
10.5515118247
 10
1.7961770696
 20
10.5519693028
 10
1.7946661426
 20
10.552455123
 10
1.7931533827
 20
10.5529673754
 10
1.7916386654
 20
10.5535041501
 10
1.7901218664
 20
10.5540635374
 10
1.7886028611
 20
10.5546436274
 10
1.7870815252
 20
10.5552425102
 10
1.7855577341
 20
10.555858276
 10
1.7840313636
 20
10.5564890148
 10
1.7814810744
 20
10.5575694785
 10
1.7789210901
 20
10.5586842621
 10
1.7763492268
 20
10.5598313989
 10
1.7737633004
 20
10.5610089221
 10
1.7711611267
 20
10.5622148648
 10
1.7685405219
 20
10.5634472603
  0
LINE
  5
333
100
AcDbEntity
  8
0
100
AcDbLine
 62
253
  6
CONTINUOUS
 10
0.404525279
 20
11.8662908711
 11
0.4524687319
 21
11.8510861489
  0
LWPOLYLINE
  5
334
100
AcDbEntity
  8
0
100
AcDbPolyline
 62
253
  6
CONTINUOUS
 90
7
 70
0
 10
10.0251541998
 20
-22.3237582072
 10
10.0262058962
 20
-22.3163722701
 10
10.0272994147
 20
-22.3030965987
 10
10.0284068763
 20
-22.2839998206
 10
10.0294796412
 20
-22.2591801704
 10
10.0305117724
 20
-22.2287626935
 10
10.0325411995
 20
-22.1517579216
  0
LWPOLYLINE
  5
335
100
AcDbEntity
  8
0
100
AcDbPolyline
 62
253
  6
CONTINUOUS
 90
55
 70
0
 10
0.0556986212
 20
12.8107475375
 10
0.0521408579
 20
12.8106906842
 10
0.0486159506
 20
12.8105212425
 10
0.0451148612
 20
12.8102408899
 10
0.0416285516
 20
12.8098513036
 10
0.0381479839
 20
12.809354161
 10
0.0346659492
 20
12.8087506644
 10
0.0311825563
 20
12.8080401157
 10
0.0276997431
 20
12.8072213414
 10
0.0242194473
 20
12.8062931684
 10
0.0207436071
 20
12.8052544233
 10
0.0172747842
 20
12.804104112
 10
0.0138180366
 20
12.8028419565
 10
0.0103790459
 20
12.8014678582
 10
0.0069634942
 20
12.7999817182
 10
0.0035770631
 20
12.7983834378
 10
0.0007823343
 20
12.7969665708
 10
-0.0019792203
 20
12.7954763068
 10
-0.0046985949
 20
12.7939171931
 10
-0.0073691467
 20
12.7922922637
 10
-0.009993685
 20
12.7905985016
 10
-0.0125773823
 20
12.7888313771
 10
-0.0151237024
 20
12.7869874008
 10
-0.0176292747
 20
12.7850672455
 10
-0.0200890197
 20
12.7830726242
 10
-0.0224978584
 20
12.7810052502
 10
-0.0248507115
 20
12.7788668367
 10
-0.0271424996
 20
12.7766590969
 10
-0.0293687018
 20
12.7743842393
 10
-0.031527031
 20
12.7720464546
 10
-0.0336157582
 20
12.7696504288
 10
-0.0356331544
 20
12.7672008478
 10
-0.0375774907
 20
12.7647023976
 10
-0.0394470382
 20
12.7621597643
 10
-0.0412410809
 20
12.7595759692
 10
-0.0429629544
 20
12.7569473748
 10
-0.0446170071
 20
12.754268679
 10
-0.0462059713
 20
12.7515371292
 10
-0.0477261137
 20
12.7487601712
 10
-0.0491720847
 20
12.7459477999
 10
-0.050803348
 20
12.7425384698
 10
-0.0523200772
 20
12.7390989342
 10
-0.0537222483
 20
12.7356355897
 10
-0.0550098375
 20
12.7321548328
 10
-0.0561828207
 20
12.7286630599
 10
-0.0572414126
 20
12.7251658636
 10
-0.0581867821
 20
12.7216656217
 10
-0.0590203365
 20
12.7181639078
 10
-0.0597434831
 20
12.7146622959
 10
-0.0603576294
 20
12.7111623596
 10
-0.0608636527
 20
12.7076638854
 10
-0.0612603111
 20
12.7041595107
 10
-0.0615458324
 20
12.7006400853
 10
-0.0617184446
 20
12.6970964591
 10
-0.0617763758
 20
12.693519482
  0
LWPOLYLINE
  5
336
100
AcDbEntity
  8
0
100
AcDbPolyline
 62
253
  6
CONTINUOUS
 90
55
 70
0
 10
2.0092770648
 20
12.8107475375
 10
2.0057396803
 20
12.8106915506
 10
2.0022344855
 20
12.8105246362
 10
1.9987523523
 20
12.8102483637
 10
1.9952841529
 20
12.8098643026
 10
1.9918207595
 20
12.8093740224
 10
1.9883549066
 20
12.8087786287
 10
1.9848867789
 20
12.8080773723
 10
1.9814184235
 20
12.8072690404
 10
1.9779518876
 20
12.8063524199
 10
1.9744892181
 20
12.805326298
 10
1.9710330542
 20
12.8041896286
 10
1.9675884019
 20
12.8029420331
 10
1.9641608593
 20
12.8015833
 10
1.9607560245
 20
12.8001132175
 10
1.9573794955
 20
12.7985315741
 10
1.9545923169
 20
12.7971289047
 10
1.9518375283
 20
12.7956529303
 10
1.9491239755
 20
12.7941079661
 10
1.9464581687
 20
12.7924968341
 10
1.9438372751
 20
12.7908163848
 10
1.9412561265
 20
12.7890619755
 10
1.9387112949
 20
12.7872300114
 10
1.9362063141
 20
12.7853210867
 10
1.933746458
 20
12.7833368434
 10
1.9313370007
 20
12.7812789235
 10
1.9289832161
 20
12.7791489686
 10
1.9266903783
 20
12.7769486208
 10
1.9244631724
 20
12.7746800251
 10
1.9223039275
 20
12.7723473393
 10
1.9202143839
 20
12.7699552241
 10
1.9181962817
 20
12.7675083405
 10
1.9162513611
 20
12.7650113494
 10
1.9143813625
 20
12.7624689118
 10
1.9125870036
 20
12.7598840284
 10
1.9108649129
 20
12.7572530603
 10
1.9092106968
 20
12.7545707084
 10
1.9076215872
 20
12.7518342345
 10
1.9061013203
 20
12.7490511431
 10
1.904655258
 20
12.7462314994
 10
1.9030239382
 20
12.742812026
 10
1.9015071908
 20
12.7393608605
 10
1.9001050125
 20
12.7358844523
 10
1.8988173997
 20
12.7323892508
 10
1.8976443492
 20
12.7288817051
 10
1.8965856242
 20
12.7253674677
 10
1.8956400555
 20
12.7218490031
 10
1.8948062408
 20
12.7183279788
 10
1.8940827777
 20
12.7148060623
 10
1.8934682637
 20
12.7112849212
 10
1.8929618338
 20
12.7077643852
 10
1.8925647725
 20
12.7042369327
 10
1.8922789017
 20
12.7006932043
 10
1.8921060432
 20
12.6971238406
 10
1.8920480188
 20
12.693519482
  0
LINE
  5
337
100
AcDbEntity
  8
0
100
AcDbLine
 62
253
  6
CONTINUOUS
 10
0.2389313943
 20
12.8107461356
 11
0.0556986212
 21
12.8107487183
  0
LINE
  5
338
100
AcDbEntity
  8
0
100
AcDbLine
 62
253
  6
CONTINUOUS
 10
2.1655576203
 20
12.8107423608
 11
2.0092770648
 21
12.8107525533
  0
LINE
  5
339
100
AcDbEntity
  8
0
100
AcDbLine
 62
7
  6
CONTINUOUS
 10
7.4182384943
 20
21.9095040929
 11
7.070051891
 21
21.8778981725
  0
LWPOLYLINE
  5
33A
100
AcDbEntity
  8
0
100
AcDbPolyline
 62
253
  6
CONTINUOUS
 90
14
 70
0
 10
-10.9135857099
 20
20.5770917199
 10
-10.9604230532
 20
20.5763856384
 10
-11.0055410285
 20
20.5754863265
 10
-11.0485021759
 20
20.574402504
 10
-11.0888899477
 20
20.5731446794
 10
-11.1263127476
 20
20.5717250485
 10
-11.1604077271
 20
20.5701573759
 10
-11.1908443044
 20
20.5684568617
 10
-11.2173273689
 20
20.5666399938
 10
-11.239600143
 20
20.5647243885
 10
-11.257446672
 20
20.5627286193
 10
-11.2706939172
 20
20.560672037
 10
-11.2792134346
 20
20.5585745821
 10
-11.2829226196
 20
20.5564565913
  0
LINE
  5
33B
100
AcDbEntity
  8
0
100
AcDbLine
 62
253
  6
CONTINUOUS
 10
-10.8165817111
 20
20.5778987474
 11
-10.9135857099
 21
20.5770917199
  0
LINE
  5
33C
100
AcDbEntity
  8
0
100
AcDbLine
 62
253
  6
CONTINUOUS
 10
10.0412154409
 20
20.577898716
 11
5.3143094911
 21
20.5729194798
  0
LINE
  5
33D
100
AcDbEntity
  8
0
100
AcDbLine
 62
253
  6
CONTINUOUS
 10
5.3143094911
 20
20.5729194798
 11
0.5818853751
 21
20.5708616068
  0
LINE
  5
33E
100
AcDbEntity
  8
0
100
AcDbLine
 62
253
  6
CONTINUOUS
 10
0.5818853751
 20
20.5708616068
 11
-6.2270152701
 21
20.5730228002
  0
LINE
  5
33F
100
AcDbEntity
  8
0
100
AcDbLine
 62
253
  6
CONTINUOUS
 10
-6.2270152701
 20
20.5730228002
 11
-10.8165817112
 21
20.5778987336
  0
LWPOLYLINE
  5
340
100
AcDbEntity
  8
0
100
AcDbPolyline
 62
253
  6
CONTINUOUS
 90
15
 70
0
 10
10.0412145895
 20
20.5778982009
 10
10.1382176791
 20
20.5770911991
 10
10.1850546275
 20
20.5763851393
 10
10.230172265
 20
20.5754858548
 10
10.2731331438
 20
20.5744020646
 10
10.3135207269
 20
20.5731442766
 10
10.3509434275
 20
20.5717246859
 10
10.3850384056
 20
20.5701570565
 10
10.4154750856
 20
20.5684565878
 10
10.441958362
 20
20.566639767
 10
10.4642314602
 20
20.5647242094
 10
10.4820784265
 20
20.5627284878
 10
10.4953262216
 20
20.5606719521
 10
10.5038463985
 20
20.558574542
 10
10.507556348
 20
20.5564565934
  0
LINE
  5
341
100
AcDbEntity
  8
0
100
AcDbLine
 62
7
  6
CONTINUOUS
 10
-8.1936047661
 20
21.9095040929
 11
-7.8454181628
 21
21.8778981725
  0
LINE
  5
342
100
AcDbEntity
  8
0
100
AcDbLine
 62
7
  6
CONTINUOUS
 10
-3.7817615057
 20
21.9095040929
 11
-4.129948109
 21
21.8778981725
  0
LWPOLYLINE
  5
343
100
AcDbEntity
  8
0
100
AcDbPolyline
 62
253
  6
CONTINUOUS
 90
16
 70
0
 10
-10.8005204717
 20
21.725020676
 10
-10.8527220981
 20
21.7222186308
 10
-10.9043527096
 20
21.7139860414
 10
-10.9548476063
 20
21.7004129711
 10
-11.0036545281
 20
21.6816478867
 10
-11.0502396496
 20
21.6578960507
 10
-11.0940934264
 20
21.6294172905
 10
-11.1347362307
 20
21.5965231219
 10
-11.1717235754
 20
21.5595733376
 10
-11.2046509389
 20
21.5189721024
 10
-11.2331582186
 20
21.4751635111
 10
-11.2569336708
 20
21.4286267141
 10
-11.2757173051
 20
21.3798706891
 10
-11.2893037217
 20
21.3294286861
 10
-11.2975443614
 20
21.2778523969
 10
-11.3003491341
 20
21.2257059087
  0
LINE
  5
344
100
AcDbEntity
  8
0
100
AcDbLine
 62
253
  6
CONTINUOUS
 10
10.0251542004
 20
21.7250206773
 11
6.6555886312
 21
21.714994541
  0
LINE
  5
345
100
AcDbEntity
  8
0
100
AcDbLine
 62
253
  6
CONTINUOUS
 10
6.6555886312
 20
21.714994541
 11
3.2835425769
 21
21.7088403754
  0
LINE
  5
346
100
AcDbEntity
  8
0
100
AcDbLine
 62
253
  6
CONTINUOUS
 10
3.2835425769
 20
21.7088403754
 11
-0.0901145175
 21
21.7065601659
  0
LINE
  5
347
100
AcDbEntity
  8
0
100
AcDbLine
 62
7
  6
CONTINUOUS
 10
6.8968468103
 20
21.8726573945
 11
3.5277869179
 21
21.8726573945
  0
LINE
  5
348
100
AcDbEntity
  8
0
100
AcDbLine
 62
7
  6
CONTINUOUS
 10
-4.3031531897
 20
21.8726573945
 11
-7.6722130821
 21
21.8726573945
  0
LINE
  5
349
100
AcDbEntity
  8
0
100
AcDbLine
 62
7
  6
CONTINUOUS
 10
10.1173326579
 20
21.9095040929
 11
7.4182384943
 21
21.9095040929
  0
LINE
  5
34A
100
AcDbEntity
  8
0
100
AcDbLine
 62
7
  6
CONTINUOUS
 10
3.0063952339
 20
21.9095040929
 11
-3.7817615057
 21
21.9095040929
  0
LINE
  5
34B
100
AcDbEntity
  8
0
100
AcDbLine
 62
7
  6
CONTINUOUS
 10
-8.1936047661
 20
21.9095040929
 11
-10.8926989297
 21
21.9095040929
  0
LINE
  5
34C
100
AcDbEntity
  8
0
100
AcDbLine
 62
253
  6
CONTINUOUS
 10
-0.0901145175
 20
21.7065601659
 11
-3.4578421745
 21
21.7081471005
  0
LINE
  5
34D
100
AcDbEntity
  8
0
100
AcDbLine
 62
253
  6
CONTINUOUS
 10
-3.4578421745
 20
21.7081471005
 11
-6.9288558162
 21
21.713832644
  0
LWPOLYLINE
  5
34E
100
AcDbEntity
  8
0
100
AcDbPolyline
 62
253
  6
CONTINUOUS
 90
3
 70
0
 10
-6.9288558162
 20
21.713832644
 10
-9.9829420572
 20
21.7222597701
 10
-10.8005204717
 20
21.7250206761
  0
LWPOLYLINE
  5
34F
100
AcDbEntity
  8
0
100
AcDbPolyline
 62
253
  6
CONTINUOUS
 90
16
 70
0
 10
10.0251542004
 20
21.7250206773
 10
10.0773551705
 20
21.7222187021
 10
10.128985212
 20
21.713986305
 10
10.1794796409
 20
21.7004135247
 10
10.2282861934
 20
21.6816488086
 10
10.2748710661
 20
21.6578973885
 10
10.3187247545
 20
21.6294190367
 10
10.3593676254
 20
21.5965252245
 10
10.3963551627
 20
21.5595757156
 10
10.4292828292
 20
21.5189746313
 10
10.4577904908
 20
21.4751660307
 10
10.4815663559
 20
21.4286290539
 10
10.5003503846
 20
21.3798726816
 10
10.513937134
 20
21.3294301682
 10
10.5221780039
 20
21.2778532098
 10
10.5249828629
 20
21.2257059099
  0
LINE
  5
350
100
AcDbEntity
  8
0
100
AcDbLine
 62
7
  6
CONTINUOUS
 10
3.0063952339
 20
21.9095040929
 11
3.3545818372
 21
21.8778981725
  0
LINE
  5
351
100
AcDbEntity
  8
0
100
AcDbLine
 62
7
  6
CONTINUOUS
 10
-28.1960728207
 20
-22.508241624
 11
-32.0687651009
 21
-22.3052824218
  0
LWPOLYLINE
  5
352
100
AcDbEntity
  8
0
100
AcDbPolyline
 62
253
  6
CONTINUOUS
 90
22
 70
0
 10
-31.7162261136
 20
-22.3237582072
 10
-31.8004342841
 20
-22.3163722701
 10
-31.8838973457
 20
-22.3030965987
 10
-31.966204494
 20
-22.2839998206
 10
-32.0469496105
 20
-22.2591801704
 10
-32.1257374737
 20
-22.2287626935
 10
-32.2021849641
 20
-22.1928966649
 10
-32.2759201733
 20
-22.1517579216
 10
-32.3465767034
 20
-22.1055524788
 10
-32.4137997799
 20
-22.0545128527
 10
-32.4772584942
 20
-21.9988940984
 10
-32.5366439968
 20
-21.93897133
 10
-32.5916630573
 20
-21.8750414989
 10
-32.6420469489
 20
-21.8074209034
 10
-32.6875496291
 20
-21.7364447461
 10
-32.7279462995
 20
-21.6624653059
 10
-32.7630379303
 20
-21.5858542701
 10
-32.7926579024
 20
-21.5069846971
 10
-32.8166658489
 20
-21.4262288085
 10
-32.8349431468
 20
-21.3439783157
 10
-32.8473974166
 20
-21.2606439297
 10
-32.8539661779
 20
-21.1766362648
  0
LINE
  5
353
100
AcDbEntity
  8
0
100
AcDbLine
 62
253
  6
CONTINUOUS
 10
-32.8539661677
 20
-21.1766362786
 11
-32.8482618328
 21
-21.1763352562
  0
LINE
  5
354
100
AcDbEntity
  8
0
100
AcDbLine
 62
253
  6
CONTINUOUS
 10
-32.8482618328
 20
-21.1763352562
 11
-32.6446789913
 21
-21.1671943929
  0
LINE
  5
355
100
AcDbEntity
  8
0
100
AcDbLine
 62
253
  6
CONTINUOUS
 10
-32.6446789913
 20
-21.1671943929
 11
-32.3686383517
 21
-21.1551941224
  0
LINE
  5
356
100
AcDbEntity
  8
0
100
AcDbLine
 62
253
  6
CONTINUOUS
 10
-33.2043237728
 20
-21.1695377158
 11
-32.8539661701
 21
-21.1766362647
  0
LINE
  5
357
100
AcDbEntity
  8
0
100
AcDbLine
 62
253
  6
CONTINUOUS
 10
-28.1525281245
 20
-22.0105234697
 11
-31.7031466097
 21
-21.8244434398
  0
LWPOLYLINE
  5
358
100
AcDbEntity
  8
0
100
AcDbPolyline
 62
253
  6
CONTINUOUS
 90
22
 70
0
 10
-31.7031466097
 20
-21.8244434398
 10
-31.7525535102
 20
-21.8200909306
 10
-31.8011277467
 20
-21.8123971608
 10
-31.8488693193
 20
-21.8013621303
 10
-31.8960283469
 20
-21.7868969275
 10
-31.9423547105
 20
-21.769090464
 10
-31.9870980528
 20
-21.748209475
 10
-32.0302130561
 20
-21.7242092136
 10
-32.0717450382
 20
-21.6971344267
 10
-32.1110795955
 20
-21.6673860894
 10
-32.1481840484
 20
-21.6349225542
 10
-32.1830910766
 20
-21.5997854688
 10
-32.2152843151
 20
-21.5625007509
 10
-32.2447204599
 20
-21.5230387229
 10
-32.2714428151
 20
-21.4814290625
 10
-32.295064928
 20
-21.438286721
 10
-32.3155424725
 20
-21.393567873
 10
-32.3329197748
 20
-21.347316344
 10
-32.3469433612
 20
-21.3002785616
 10
-32.3575287405
 20
-21.2527033352
 10
-32.364760404
 20
-21.2043418555
 10
-32.3686383517
 20
-21.1551941224
  0
LINE
  5
359
100
AcDbEntity
  8
0
100
AcDbLine
 62
253
  6
CONTINUOUS
 10
-27.7991497081
 20
-18.2328603668
 11
-27.8220254284
 21
-18.2328603666
  0
LWPOLYLINE
  5
35A
100
AcDbEntity
  8
0
100
AcDbPolyline
 62
253
  6
CONTINUOUS
 90
12
 70
0
 10
-33.5127026844
 20
12.8107475375
 10
-33.5127680715
 20
12.8106915506
 10
-33.5128363921
 20
12.8105246362
 10
-33.51290776
 20
12.8102483637
 10
-33.5129822888
 20
12.8098643026
 10
-33.5130600922
 20
12.8093740224
 10
-33.5131412655
 20
12.8087786287
 10
-33.5132258294
 20
12.8080773723
 10
-33.5133137864
 20
12.8072690404
 10
-33.5134051387
 20
12.8063524199
 10
-33.5134998886
 20
12.805326298
 10
-33.5135980228
 20
12.8041896286
  0
LINE
  5
35B
100
AcDbEntity
  8
0
100
AcDbLine
 62
253
  6
CONTINUOUS
 10
-33.5218386219
 20
-13.3862470365
 11
-33.5195449872
 21
-13.3862389824
  0
LWPOLYLINE
  5
35C
100
AcDbEntity
  8
0
100
AcDbPolyline
 62
253
  6
CONTINUOUS
 90
11
 70
0
 10
-31.7162260901
 20
21.7250206773
 10
-31.7174461741
 20
21.7222187021
 10
-31.7183667119
 20
21.713986305
 10
-31.7189776353
 20
21.7004135247
 10
-31.7192722627
 20
21.6816488086
 10
-31.7192473717
 20
21.6578973885
 10
-31.7189032342
 20
21.6294190367
 10
-31.7182436139
 20
21.5965252245
 10
-31.7172757252
 20
21.5595757156
 10
-31.7160101541
 20
21.5189746313
 10
-31.7126444359
 20
21.4286290539
  0
LINE
  5
35D
100
AcDbEntity
  8
0
100
AcDbLine
 62
253
  6
CONTINUOUS
 10
-33.5609739521
 20
-11.9788775147
 11
-33.5338897979
 21
-11.9787854221
  0
LINE
  5
35E
100
AcDbEntity
  8
0
100
AcDbLine
 62
253
  6
CONTINUOUS
 10
-33.5786102787
 20
-11.9788367838
 11
-33.5767359618
 21
-11.9788304116
  0
LINE
  5
35F
100
AcDbEntity
  8
0
100
AcDbLine
 62
253
  6
CONTINUOUS
 10
-33.5449071465
 20
-11.5878023048
 11
-33.5721204579
 21
-11.587893501
  0
LINE
  5
360
100
AcDbEntity
  8
0
100
AcDbLine
 62
253
  6
CONTINUOUS
 10
-33.5879574865
 20
-11.5878468564
 11
-33.5898407401
 21
-11.5878531666
  0
LWPOLYLINE
  5
361
100
AcDbEntity
  8
0
100
AcDbPolyline
 62
253
  6
CONTINUOUS
 90
9
 70
0
 10
-31.7162261136
 20
-22.3237582072
 10
-31.7174462156
 20
-22.320956162
 10
-31.718366762
 20
-22.3127235726
 10
-31.7189776857
 20
-22.2991505023
 10
-31.7192723061
 20
-22.2803854179
 10
-31.7192474019
 20
-22.2566335819
 10
-31.7189032465
 20
-22.2281548217
 10
-31.7182436064
 20
-22.1952606531
 10
-31.7172756982
 20
-22.1583108687
  0
LWPOLYLINE
  5
362
100
AcDbEntity
  8
0
100
AcDbPolyline
 62
253
  6
CONTINUOUS
 90
13
 70
0
 10
-33.6011064326
 20
9.6044561494
 10
-33.6010343541
 20
9.6045123455
 10
-33.6009601038
 20
9.6046798668
 10
-33.6008835394
 20
9.6049571129
 10
-33.6008045184
 20
9.6053424833
 10
-33.6007228986
 20
9.6058343775
 10
-33.6006385631
 20
9.6064316639
 10
-33.6005514967
 20
9.6071350861
 10
-33.60046171
 20
9.6079458564
 10
-33.6003692134
 20
9.6088651872
 10
-33.6002740174
 20
9.6098942908
 10
-33.600176149
 20
9.6110342099
 10
-33.6000757018
 20
9.6122853077
  0
LINE
  5
363
100
AcDbEntity
  8
0
100
AcDbLine
 62
253
  6
CONTINUOUS
 10
-33.5993268252
 20
-10.5712302531
 11
-33.5653144846
 21
-10.5711217245
  0
LINE
  5
364
100
AcDbEntity
  8
0
100
AcDbLine
 62
253
  6
CONTINUOUS
 10
-33.6172521966
 20
-10.5711834502
 11
-33.6138503736
 21
-10.571172597
  0
LINE
  5
365
100
AcDbEntity
  8
0
100
AcDbLine
 62
253
  6
CONTINUOUS
 10
-33.5749540815
 20
-10.1801301302
 11
-33.613401853
 21
-10.180249993
  0
LINE
  5
366
100
AcDbEntity
  8
0
100
AcDbLine
 62
253
  6
CONTINUOUS
 10
-33.6236893871
 20
-10.1801890956
 11
-33.6271052118
 21
-10.1801997431
  0
LWPOLYLINE
  5
367
100
AcDbEntity
  8
0
100
AcDbPolyline
 62
253
  6
CONTINUOUS
 90
5
 70
0
 10
-33.5335174615
 20
12.8107475375
 10
-33.5335311135
 20
12.8106906842
 10
-33.5335482546
 20
12.8105212425
 10
-33.5335688601
 20
12.8102408899
 10
-33.5335929056
 20
12.8098513036
  0
LWPOLYLINE
  5
368
100
AcDbEntity
  8
0
100
AcDbPolyline
 62
253
  6
CONTINUOUS
 90
6
 70
0
 10
-33.6251336071
 20
9.6044561494
 10
-33.6251155451
 20
9.6045131334
 10
-33.625094747
 20
9.6046829554
 10
-33.6250712133
 20
9.6049639204
 10
-33.6250449442
 20
9.6053543335
 10
-33.6250159401
 20
9.6058524997
  0
LWPOLYLINE
  5
369
100
AcDbEntity
  8
0
100
AcDbPolyline
 62
253
  6
CONTINUOUS
 90
16
 70
0
 10
-33.5731411722
 20
-10.1927981132
 10
-33.5732792301
 20
-10.1911673278
 10
-33.5734152977
 20
-10.1896510803
 10
-33.5735491891
 20
-10.1882493872
 10
-33.5736807182
 20
-10.1869622652
 10
-33.5738096993
 20
-10.1857897311
 10
-33.5739359754
 20
-10.1847315635
 10
-33.5740595067
 20
-10.1837865889
 10
-33.5741802825
 20
-10.1829533962
 10
-33.574298292
 20
-10.182230574
 10
-33.5744135244
 20
-10.1816167108
 10
-33.5745260073
 20
-10.1811109256
 10
-33.5746359206
 20
-10.1807144573
 10
-33.5747434825
 20
-10.1804290752
 10
-33.5748489113
 20
-10.1802565485
 10
-33.5749524251
 20
-10.1801986465
  0
LWPOLYLINE
  5
36A
100
AcDbEntity
  8
0
100
AcDbPolyline
 62
253
  6
CONTINUOUS
 90
16
 70
0
 10
-33.5431611351
 20
-11.6004725138
 10
-33.5432976226
 20
-11.5988395634
 10
-33.5434316671
 20
-11.5973212491
 10
-33.5435630963
 20
-11.5959175848
 10
-33.5436917381
 20
-11.5946285847
 10
-33.5438174203
 20
-11.593454263
 10
-33.5439399986
 20
-11.5923943981
 10
-33.5440594413
 20
-11.5914478256
 10
-33.5441757448
 20
-11.5906131458
 10
-33.5442889053
 20
-11.5898889586
 10
-33.5443989193
 20
-11.5892738641
 10
-33.5445058158
 20
-11.5887669965
 10
-33.5446097548
 20
-11.5883696257
 10
-33.5447109292
 20
-11.5880835558
 10
-33.5448095317
 20
-11.587910591
 10
-33.5449057551
 20
-11.5878525351
  0
LINE
  5
36B
100
AcDbEntity
  8
0
100
AcDbLine
 62
253
  6
CONTINUOUS
 10
-33.5729075759
 20
-10.1957634598
 11
-33.5730247899
 21
-10.1942436941
  0
LINE
  5
36C
100
AcDbEntity
  8
0
100
AcDbLine
 62
253
  6
CONTINUOUS
 10
-33.5429291207
 20
-11.6034416737
 11
-33.5430457068
 21
-11.6019199732
  0
LWPOLYLINE
  5
36D
100
AcDbEntity
  8
0
100
AcDbPolyline
 62
253
  6
CONTINUOUS
 90
12
 70
0
 10
-33.5225960352
 20
-13.3794918928
 10
-33.5225098418
 20
-13.3806622777
 10
-33.5224271906
 20
-13.381718491
 10
-33.5223480772
 20
-13.3826617113
 10
-33.5222724789
 20
-13.3834933533
 10
-33.5222003726
 20
-13.3842148317
 10
-33.5221317356
 20
-13.3848275611
 10
-33.5220665367
 20
-13.3853324251
 10
-33.5220047115
 20
-13.3857281824
 10
-33.5219461872
 20
-13.3860130607
 10
-33.5218908911
 20
-13.3861852874
 10
-33.5218387504
 20
-13.3862430902
  0
LINE
  5
36E
100
AcDbEntity
  8
0
100
AcDbLine
 62
253
  6
CONTINUOUS
 10
-33.5227787539
 20
-13.3768079106
 11
-33.5226857018
 21
-13.3782071029
  0
LINE
  5
36F
100
AcDbEntity
  8
0
100
AcDbLine
 62
253
  6
CONTINUOUS
 10
-33.5424565188
 20
-11.6102074722
 11
-33.5426940382
 21
-11.6066879884
  0
LINE
  5
370
100
AcDbEntity
  8
0
100
AcDbLine
 62
253
  6
CONTINUOUS
 10
-33.5724357718
 20
-10.2025211689
 11
-33.5726722242
 21
-10.1990057876
  0
LINE
  5
371
100
AcDbEntity
  8
0
100
AcDbLine
 62
253
  6
CONTINUOUS
 10
-33.5420932768
 20
-11.6160447875
 11
-33.5424565188
 21
-11.6102074722
  0
LINE
  5
372
100
AcDbEntity
  8
0
100
AcDbLine
 62
253
  6
CONTINUOUS
 10
-33.5720767053
 20
-10.208352102
 11
-33.5724357718
 21
-10.2025211689
  0
LINE
  5
373
100
AcDbEntity
  8
0
100
AcDbLine
 62
253
  6
CONTINUOUS
 10
-33.5231471517
 20
-13.3707059185
 11
-33.5228751039
 21
-13.3752943185
  0
LWPOLYLINE
  5
374
100
AcDbEntity
  8
0
100
AcDbPolyline
 62
253
  6
CONTINUOUS
 90
9
 70
0
 10
-33.6233906505
 20
-10.1837928475
 10
-33.6234376707
 20
-10.1829584765
 10
-33.6234818719
 20
-10.182234528
 10
-33.6235232769
 20
-10.1816196164
 10
-33.6235619083
 20
-10.1811128884
 10
-33.6235977889
 20
-10.1807156194
 10
-33.6236309413
 20
-10.1804296175
 10
-33.6236613879
 20
-10.1802566906
 10
-33.6236891515
 20
-10.1801986465
  0
LINE
  5
375
100
AcDbEntity
  8
0
100
AcDbLine
 62
253
  6
CONTINUOUS
 10
-33.5417248446
 20
-11.6225250358
 11
-33.5420932768
 21
-11.6160447875
  0
LWPOLYLINE
  5
376
100
AcDbEntity
  8
0
100
AcDbPolyline
 62
253
  6
CONTINUOUS
 90
8
 70
0
 10
-33.587744772
 20
-11.5906061118
 10
-33.5877846059
 20
-11.5898835855
 10
-33.5878212629
 20
-11.5892699762
 10
-33.5878547694
 20
-11.5887644057
 10
-33.5878851299
 20
-11.5883681107
 10
-33.5879123435
 20
-11.5880828569
 10
-33.5879364093
 20
-11.5879104098
 10
-33.5879573263
 20
-11.5878525351
  0
LINE
  5
377
100
AcDbEntity
  8
0
100
AcDbLine
 62
253
  6
CONTINUOUS
 10
-33.571715655
 20
-10.2148255695
 11
-33.5720767053
 21
-10.208352102
  0
LINE
  5
378
100
AcDbEntity
  8
0
100
AcDbLine
 62
253
  6
CONTINUOUS
 10
-33.5235106583
 20
-13.3639588317
 11
-33.5231471517
 21
-13.3707059185
  0
LINE
  5
379
100
AcDbEntity
  8
0
100
AcDbLine
 62
253
  6
CONTINUOUS
 10
-33.6232880622
 20
-10.1857983998
 11
-33.6233407886
 21
-10.1847390268
  0
LINE
  5
37A
100
AcDbEntity
  8
0
100
AcDbLine
 62
253
  6
CONTINUOUS
 10
-33.5412338946
 20
-11.632048225
 11
-33.5417248446
 21
-11.6225250358
  0
LINE
  5
37B
100
AcDbEntity
  8
0
100
AcDbLine
 62
253
  6
CONTINUOUS
 10
-33.5713574751
 20
-10.2218797305
 11
-33.571715655
 21
-10.2148255695
  0
LINE
  5
37C
100
AcDbEntity
  8
0
100
AcDbLine
 62
253
  6
CONTINUOUS
 10
-33.5240024164
 20
-13.3538945994
 11
-33.5235106583
 21
-13.3639588317
  0
LINE
  5
37D
100
AcDbEntity
  8
0
100
AcDbLine
 62
253
  6
CONTINUOUS
 10
-33.5875530441
 20
-11.594613291
 11
-33.5877017295
 21
-11.5914389622
  0
LINE
  5
37E
100
AcDbEntity
  8
0
100
AcDbLine
 62
253
  6
CONTINUOUS
 10
-33.54063572
 20
-11.6449852002
 11
-33.5412338946
 21
-11.632048225
  0
LINE
  5
37F
100
AcDbEntity
  8
0
100
AcDbLine
 62
253
  6
CONTINUOUS
 10
-33.570892538
 20
-10.2319761783
 11
-33.5713574751
 21
-10.2218797305
  0
LINE
  5
380
100
AcDbEntity
  8
0
100
AcDbLine
 62
253
  6
CONTINUOUS
 10
-33.5247398533
 20
-13.3371249309
 11
-33.5240024164
 21
-13.3538945994
  0
LINE
  5
381
100
AcDbEntity
  8
0
100
AcDbLine
 62
253
  6
CONTINUOUS
 10
-33.6230488315
 20
-10.1911805888
 11
-33.6232324607
 21
-10.1869721188
  0
LINE
  5
382
100
AcDbEntity
  8
0
100
AcDbLine
 62
253
  6
CONTINUOUS
 10
-33.5705551363
 20
-10.2399913752
 11
-33.570892538
 21
-10.2319761783
  0
LINE
  5
383
100
AcDbEntity
  8
0
100
AcDbLine
 62
253
  6
CONTINUOUS
 10
-33.587252271
 20
-11.6018914372
 11
-33.5875530441
 21
-11.594613291
  0
LWPOLYLINE
  5
384
100
AcDbEntity
  8
0
100
AcDbPolyline
 62
253
  6
CONTINUOUS
 90
3
 70
0
 10
-33.5398797816
 20
-11.6634953588
 10
-33.5400125837
 20
-11.6600583683
 10
-33.54063572
 20
-11.6449852002
  0
LINE
  5
385
100
AcDbEntity
  8
0
100
AcDbLine
 62
253
  6
CONTINUOUS
 10
-33.5259073938
 20
-13.3073346187
 11
-33.5247398533
 21
-13.3371249309
  0
LWPOLYLINE
  5
386
100
AcDbEntity
  8
0
100
AcDbPolyline
 62
253
  6
CONTINUOUS
 90
3
 70
0
 10
-33.6226153121
 20
-10.2025410342
 10
-33.622679964
 20
-10.2007462876
 10
-33.6230488315
 20
-10.1911805888
  0
LINE
  5
387
100
AcDbEntity
  8
0
100
AcDbLine
 62
253
  6
CONTINUOUS
 10
-33.5266499045
 20
-13.2865143618
 11
-33.5259073938
 21
-13.3073346187
  0
LWPOLYLINE
  5
388
100
AcDbEntity
  8
0
100
AcDbPolyline
 62
253
  6
CONTINUOUS
 90
3
 70
0
 10
-33.5865058543
 20
-11.6224656201
 10
-33.5865824792
 20
-11.6202399722
 10
-33.587252271
 20
-11.6018914372
  0
LINE
  5
389
100
AcDbEntity
  8
0
100
AcDbLine
 62
253
  6
CONTINUOUS
 10
-33.5340858339
 20
12.7983834378
 11
-33.5361758442
 21
12.7390989342
  0
LINE
  5
38A
100
AcDbEntity
  8
0
100
AcDbLine
 62
253
  6
CONTINUOUS
 10
-33.5169120486
 20
12.7393608605
 11
-33.5179570245
 21
12.7112849212
  0
LINE
  5
38B
100
AcDbEntity
  8
0
100
AcDbLine
 62
253
  6
CONTINUOUS
 10
-33.6248294792
 20
9.6099597185
 11
-33.624573116
 21
9.6168404273
  0
LINE
  5
38C
100
AcDbEntity
  8
0
100
AcDbLine
 62
253
  6
CONTINUOUS
 10
-33.5982972084
 20
9.6453255482
 11
-33.5977921547
 21
9.6580258644
  0
LINE
  5
38D
100
AcDbEntity
  8
0
100
AcDbLine
 62
253
  6
CONTINUOUS
 10
-33.5338092119
 20
12.8052544233
 11
-33.5340858339
 21
12.7983834378
  0
LINE
  5
38E
100
AcDbEntity
  8
0
100
AcDbLine
 62
253
  6
CONTINUOUS
 10
-33.516056944
 20
12.7598840284
 11
-33.5169120486
 21
12.7393608605
  0
LINE
  5
38F
100
AcDbEntity
  8
0
100
AcDbLine
 62
253
  6
CONTINUOUS
 10
-33.5337232489
 20
12.8072213414
 11
-33.5337644719
 21
12.8062931684
  0
LINE
  5
390
100
AcDbEntity
  8
0
100
AcDbLine
 62
253
  6
CONTINUOUS
 10
-33.5626061054
 20
11.8466411489
 11
-33.5617267025
 21
11.8662908711
  0
LINE
  5
391
100
AcDbEntity
  8
0
100
AcDbLine
 62
253
  6
CONTINUOUS
 10
-33.5987034031
 20
9.6361254147
 11
-33.5982972084
 21
9.6453255482
  0
LINE
  5
392
100
AcDbEntity
  8
0
100
AcDbLine
 62
253
  6
CONTINUOUS
 10
-33.5809755206
 20
10.5912108714
 11
-33.5825733296
 21
10.5575205936
  0
LINE
  5
393
100
AcDbEntity
  8
0
100
AcDbLine
 62
253
  6
CONTINUOUS
 10
-33.5153718849
 20
12.7746800251
 11
-33.516056944
 21
12.7598840284
  0
LWPOLYLINE
  5
394
100
AcDbEntity
  8
0
100
AcDbPolyline
 62
253
  6
CONTINUOUS
 90
3
 70
0
 10
-33.6249841979
 20
9.6064571993
 10
-33.6249497009
 20
9.6071691139
 10
-33.6248294792
 20
9.6099597185
  0
LWPOLYLINE
  5
395
100
AcDbEntity
  8
0
100
AcDbPolyline
 62
7
  6
CONTINUOUS
 90
10
 70
0
 10
-33.2043237682
 20
20.5708002717
 10
-33.3115127709
 20
18.4067403075
 10
-33.4106147748
 20
16.1540548598
 10
-33.4970175103
 20
13.9008522626
 10
-33.5707180636
 20
11.6472040933
 10
-33.6317135199
 20
9.3931819461
 10
-33.6800009646
 20
7.1388574323
 10
-33.715578007
 20
4.8843021617
 10
-33.7384442631
 20
2.6295877922
 10
-33.7484610449
 20
0.4526364213
  0
LINE
  5
396
100
AcDbEntity
  8
0
100
AcDbLine
 62
253
  6
CONTINUOUS
 10
-33.5336203666
 20
12.809354161
 11
-33.5336512277
 21
12.8087506644
  0
LINE
  5
397
100
AcDbEntity
  8
0
100
AcDbLine
 62
253
  6
CONTINUOUS
 10
-33.5991013293
 20
9.62803365
 11
-33.5987034031
 21
9.6361254147
  0
LINE
  5
398
100
AcDbEntity
  8
0
100
AcDbLine
 62
253
  6
CONTINUOUS
 10
-33.5149297063
 20
12.7833368434
 11
-33.5153718849
 21
12.7746800251
  0
LINE
  5
399
100
AcDbEntity
  8
0
100
AcDbLine
 62
253
  6
CONTINUOUS
 10
-33.5993890963
 20
9.6227568146
 11
-33.5991013293
 21
9.62803365
  0
LINE
  5
39A
100
AcDbEntity
  8
0
100
AcDbLine
 62
253
  6
CONTINUOUS
 10
-33.5145108245
 20
12.7908163848
 11
-33.5149297063
 21
12.7833368434
  0
LWPOLYLINE
  5
39B
100
AcDbEntity
  8
0
100
AcDbPolyline
 62
253
  6
CONTINUOUS
 90
3
 70
0
 10
-33.5997599897
 20
9.6167076101
 10
-33.5996687878
 20
9.6181138696
 10
-33.5993890963
 20
9.6227568146
  0
LWPOLYLINE
  5
39C
100
AcDbEntity
  8
0
100
AcDbPolyline
 62
253
  6
CONTINUOUS
 90
3
 70
0
 10
-33.5141172939
 20
12.7971289047
 10
-33.5142136063
 20
12.7956529303
 10
-33.5145108245
 20
12.7908163848
  0
LINE
  5
39D
100
AcDbEntity
  8
0
100
AcDbLine
 62
253
  6
CONTINUOUS
 10
-33.5139119114
 20
12.8001132175
 11
-33.5140227317
 21
12.7985315741
  0
LINE
  5
39E
100
AcDbEntity
  8
0
100
AcDbLine
 62
253
  6
CONTINUOUS
 10
-33.5999727861
 20
9.613647778
 11
-33.599867512
 21
9.6151218143
  0
LINE
  5
39F
100
AcDbEntity
  8
0
100
AcDbLine
 62
253
  6
CONTINUOUS
 10
-33.5136994656
 20
12.8029420331
 11
-33.5138041256
 21
12.8015833
  0
LWPOLYLINE
  5
3A0
100
AcDbEntity
  8
0
100
AcDbPolyline
 62
253
  6
CONTINUOUS
 90
22
 70
0
 10
-32.8539661529
 20
20.577898715
 10
-32.8473973913
 20
20.6619063944
 10
-32.8349431199
 20
20.7452407906
 10
-32.8166658201
 20
20.8274912895
 10
-32.7926578727
 20
20.9082471787
 10
-32.7630379012
 20
20.9871167483
 10
-32.7279462711
 20
21.0637277813
 10
-32.687549601
 20
21.1377072205
 10
-32.6420469208
 20
21.2086833772
 10
-32.5916630295
 20
21.276303972
 10
-32.5366439695
 20
21.3402338023
 10
-32.4772584676
 20
21.4001565699
 10
-32.413799754
 20
21.4557753236
 10
-32.3465766782
 20
21.5068149491
 10
-32.2759201489
 20
21.5530203915
 10
-32.2021849408
 20
21.5941591344
 10
-32.1257374523
 20
21.6300251624
 10
-32.0469495913
 20
21.6604426387
 10
-31.9662044759
 20
21.6852622891
 10
-31.883897327
 20
21.7043590678
 10
-31.8004342636
 20
21.7176347397
 10
-31.7162260901
 20
21.7250206773
  0
LWPOLYLINE
  5
3A1
100
AcDbEntity
  8
0
100
AcDbPolyline
 62
253
  6
CONTINUOUS
 90
22
 70
0
 10
-32.3686383386
 20
20.5564565934
 10
-32.3647603854
 20
20.6056043264
 10
-32.3575287176
 20
20.6539658061
 10
-32.3469433354
 20
20.7015410324
 10
-32.3329197479
 20
20.7485788148
 10
-32.315542446
 20
20.7948303439
 10
-32.2950649019
 20
20.8395491919
 10
-32.2714427889
 20
20.8826915334
 10
-32.2447204339
 20
20.9243011938
 10
-32.2152842891
 20
20.9637632218
 10
-32.1830910507
 20
21.0010479397
 10
-32.1481840226
 20
21.0361850251
 10
-32.1110795698
 20
21.0686485601
 10
-32.0717450126
 20
21.0983968973
 10
-32.0302130307
 20
21.1254716841
 10
-31.9870980276
 20
21.1494719454
 10
-31.9423546855
 20
21.1703529344
 10
-31.8960283222
 20
21.1881593979
 10
-31.8488692949
 20
21.2026246007
 10
-31.8011277227
 20
21.2136596311
 10
-31.7525534864
 20
21.2213534008
 10
-31.7031465862
 20
21.2257059099
  0
LINE
  5
3A2
100
AcDbEntity
  8
0
100
AcDbLine
 62
253
  6
CONTINUOUS
 10
-33.5826853359
 20
10.5545572603
 11
-33.5831798497
 21
10.5488775381
  0
LWPOLYLINE
  5
3A3
100
AcDbEntity
  8
0
100
AcDbPolyline
 62
253
  6
CONTINUOUS
 90
16
 70
0
 10
-33.3024887321
 20
0.4485876061
 10
-33.2997252869
 20
0.3955990114
 10
-33.2916797702
 20
0.3443484502
 10
-33.2785695923
 20
0.2947182688
 10
-33.2602836969
 20
0.2463865882
 10
-33.2368003173
 20
0.1996741985
 10
-33.2086438554
 20
0.1557030655
 10
-33.176266138
 20
0.1151622993
 10
-33.1397333544
 20
0.0781257031
 10
-33.0994974681
 20
0.0450274493
 10
-33.0561482315
 20
0.0163856086
 10
-33.0100987909
 20
-0.0075360445
 10
-32.9617201083
 20
-0.026574686
 10
-32.9115592501
 20
-0.0404729972
 10
-32.8603245689
 20
-0.0490186412
 10
-32.8086763136
 20
-0.0521605421
  0
LWPOLYLINE
  5
3A4
100
AcDbEntity
  8
0
100
AcDbPolyline
 62
253
  6
CONTINUOUS
 90
10
 70
0
 10
-32.8539661701
 20
-21.1766362647
 10
-32.9480142681
 20
-18.8629881484
 10
-33.0297427384
 20
-16.5873703909
 10
-33.0996892267
 20
-14.3498528018
 10
-33.1577664898
 20
-12.1757069376
 10
-33.2053338785
 20
-10.0397901511
 10
-33.2440820404
 20
-7.8665208563
 10
-33.2737878903
 20
-5.6307208135
 10
-33.293430808
 20
-3.3576403748
 10
-33.3024886523
 20
-1.0473251464
  0
LWPOLYLINE
  5
3A5
100
AcDbEntity
  8
0
100
AcDbPolyline
 62
253
  6
CONTINUOUS
 90
10
 70
0
 10
-32.3686383517
 20
-21.1551941224
 10
-32.4618440975
 20
-18.8438294016
 10
-32.5437885543
 20
-16.5705837168
 10
-32.6144717221
 20
-14.3354570681
 10
-32.6733262762
 20
-12.1635842324
 10
-32.7209195413
 20
-10.0298304327
 10
-32.7589534911
 20
-7.8587913377
 10
-32.7879954505
 20
-5.6253321704
 10
-32.8074780946
 20
-3.3545877077
 10
-32.8180186423
 20
-0.9436480313
  0
LINE
  5
3A6
100
AcDbEntity
  8
0
100
AcDbLine
 62
253
  6
CONTINUOUS
 10
-33.5699551937
 20
-10.2557899967
 11
-33.5705551363
 21
-10.2399913752
  0
LINE
  5
3A7
100
AcDbEntity
  8
0
100
AcDbLine
 62
253
  6
CONTINUOUS
 10
-33.5391395731
 20
-11.6843257314
 11
-33.5398797816
 21
-11.6634953588
  0
LINE
  5
3A8
100
AcDbEntity
  8
0
100
AcDbLine
 62
253
  6
CONTINUOUS
 10
-33.5505233502
 20
-12.5262398834
 11
-33.5266499045
 21
-13.2865143618
  0
LINE
  5
3A9
100
AcDbEntity
  8
0
100
AcDbLine
 62
253
  6
CONTINUOUS
 10
-33.6218931439
 20
-10.2243709119
 11
-33.6226153121
 21
-10.2025410342
  0
LINE
  5
3AA
100
AcDbEntity
  8
0
100
AcDbLine
 62
253
  6
CONTINUOUS
 10
-33.5693798
 20
-10.2731559929
 11
-33.5699551937
 21
-10.2557899967
  0
LINE
  5
3AB
100
AcDbEntity
  8
0
100
AcDbLine
 62
253
  6
CONTINUOUS
 10
-33.5846588267
 20
-11.6807997317
 11
-33.5865058543
 21
-11.6224656201
  0
LWPOLYLINE
  5
3AC
100
AcDbEntity
  8
0
100
AcDbPolyline
 62
253
  6
CONTINUOUS
 90
15
 70
0
 10
-33.6051380196
 20
9.6110080078
 10
-33.6051110826
 20
9.6100943167
 10
-33.6050821924
 20
9.6092432535
 10
-33.60505134
 20
9.6084559656
 10
-33.6050185168
 20
9.6077336006
 10
-33.6049837139
 20
9.6070773061
 10
-33.6049469226
 20
9.6064882294
 10
-33.6049130764
 20
9.6060290498
 10
-33.6048776002
 20
9.6056243049
 10
-33.6048403931
 20
9.6052760874
 10
-33.6048013542
 20
9.6049864899
 10
-33.6047603827
 20
9.6047576047
 10
-33.6047173776
 20
9.6045915246
 10
-33.6046722381
 20
9.604490342
 10
-33.6046248633
 20
9.6044561494
  0
LINE
  5
3AD
100
AcDbEntity
  8
0
100
AcDbLine
 62
253
  6
CONTINUOUS
 10
-33.5384991892
 20
-11.705327535
 11
-33.5391395731
 21
-11.6843257314
  0
LINE
  5
3AE
100
AcDbEntity
  8
0
100
AcDbLine
 62
253
  6
CONTINUOUS
 10
-33.5205501532
 20
-13.3007272094
 11
-33.5609751516
 21
-11.9788361461
  0
LINE
  5
3AF
100
AcDbEntity
  8
0
100
AcDbLine
 62
253
  6
CONTINUOUS
 10
-33.5929838916
 20
-11.04056665
 11
-33.5505233502
 21
-12.5262398834
  0
LWPOLYLINE
  5
3B0
100
AcDbEntity
  8
0
100
AcDbPolyline
 62
7
  6
CONTINUOUS
 90
6
 70
0
 10
-33.6317135199
 20
-9.9919194772
 10
-33.5707180636
 20
-12.2459416245
 10
-33.4970175103
 20
-14.4995897938
 10
-33.4106147748
 20
-16.752792391
 10
-33.3115127709
 20
-19.0054778387
 10
-33.2043237682
 20
-21.1695378029
  0
LINE
  5
3B1
100
AcDbEntity
  8
0
100
AcDbLine
 62
253
  6
CONTINUOUS
 10
-33.5688817049
 20
-10.2905905544
 11
-33.5693798
 21
-10.2731559929
  0
LINE
  5
3B2
100
AcDbEntity
  8
0
100
AcDbLine
 62
253
  6
CONTINUOUS
 10
-33.6204025618
 20
-10.2766590474
 11
-33.6218931439
 21
-10.2243709119
  0
LINE
  5
3B3
100
AcDbEntity
  8
0
100
AcDbLine
 62
253
  6
CONTINUOUS
 10
-33.5721216059
 20
-11.5878525351
 11
-33.599328049
 21
-10.5711822575
  0
LINE
  5
3B4
100
AcDbEntity
  8
0
100
AcDbLine
 62
253
  6
CONTINUOUS
 10
-33.5835302181
 20
10.5519693028
 11
-33.5835426056
 21
10.552455123
  0
LINE
  5
3B5
100
AcDbEntity
  8
0
100
AcDbLine
 62
253
  6
CONTINUOUS
 10
-33.5777361955
 20
-11.9251254092
 11
-33.5846588267
 21
-11.6807997317
  0
LINE
  5
3B6
100
AcDbEntity
  8
0
100
AcDbLine
 62
253
  6
CONTINUOUS
 10
-33.5336432603
 20
-11.8791217902
 11
-33.5384991892
 21
-11.705327535
  0
LINE
  5
3B7
100
AcDbEntity
  8
0
100
AcDbLine
 62
253
  6
CONTINUOUS
 10
-33.5198745012
 20
-13.327137603
 11
-33.5205501532
 21
-13.3007272094
  0
LINE
  5
3B8
100
AcDbEntity
  8
0
100
AcDbLine
 62
253
  6
CONTINUOUS
 10
-33.6051897219
 20
9.6131969223
 11
-33.6051630121
 21
9.6119831793
  0
LINE
  5
3B9
100
AcDbEntity
  8
0
100
AcDbLine
 62
253
  6
CONTINUOUS
 10
-33.612778654
 20
-10.2707249515
 11
-33.5929838916
 21
-11.04056665
  0
LINE
  5
3BA
100
AcDbEntity
  8
0
100
AcDbLine
 62
253
  6
CONTINUOUS
 10
-33.5645351473
 20
-10.4679035661
 11
-33.5688817049
 21
-10.2905905544
  0
LINE
  5
3BB
100
AcDbEntity
  8
0
100
AcDbLine
 62
253
  6
CONTINUOUS
 10
-33.6145827084
 20
-10.5119737646
 11
-33.6204025618
 21
-10.2766590474
  0
LINE
  5
3BC
100
AcDbEntity
  8
0
100
AcDbLine
 62
253
  6
CONTINUOUS
 10
-33.5835542935
 20
10.5529673754
 11
-33.5835653353
 21
10.5535041501
  0
LINE
  5
3BD
100
AcDbEntity
  8
0
100
AcDbLine
 62
253
  6
CONTINUOUS
 10
-33.5331887177
 20
-11.9002309941
 11
-33.5336432603
 21
-11.8791217902
  0
LINE
  5
3BE
100
AcDbEntity
  8
0
100
AcDbLine
 62
253
  6
CONTINUOUS
 10
-33.5194898238
 20
-13.3452455536
 11
-33.5198745012
 21
-13.327137603
  0
LINE
  5
3BF
100
AcDbEntity
  8
0
100
AcDbLine
 62
253
  6
CONTINUOUS
 10
-33.5768595511
 20
-11.9636340905
 11
-33.5772079144
 21
-11.9470611726
  0
LINE
  5
3C0
100
AcDbEntity
  8
0
100
AcDbLine
 62
253
  6
CONTINUOUS
 10
-33.6133685576
 20
-10.2402659886
 11
-33.612778654
 21
-10.2707249515
  0
LWPOLYLINE
  5
3C1
100
AcDbEntity
  8
0
100
AcDbPolyline
 62
253
  6
CONTINUOUS
 90
9
 70
0
 10
-32.8169685846
 20
0.1140320268
 10
-32.8163241857
 20
0.0768988108
 10
-32.8155475755
 20
0.0438330185
 10
-32.8146470225
 20
0.0151971089
 10
-32.813632463
 20
-0.0086839767
 10
-32.8125152931
 20
-0.0275389377
 10
-32.8113079247
 20
-0.041159161
 10
-32.8100235521
 20
-0.0493966009
 10
-32.8086763136
 20
-0.0521605421
  0
LINE
  5
3C2
100
AcDbEntity
  8
0
100
AcDbLine
 62
253
  6
CONTINUOUS
 10
-33.5642041323
 20
-10.4854978443
 11
-33.5645351473
 21
-10.4679035661
  0
LINE
  5
3C3
100
AcDbEntity
  8
0
100
AcDbLine
 62
253
  6
CONTINUOUS
 10
-33.6140181561
 20
-10.5414982749
 11
-33.6145827084
 21
-10.5119737646
  0
LWPOLYLINE
  5
3C4
100
AcDbEntity
  8
0
100
AcDbPolyline
 62
253
  6
CONTINUOUS
 90
14
 70
0
 10
-33.5092222104
 20
12.8013132619
 10
-33.5092445375
 20
12.8027110832
 10
-33.5092708256
 20
12.8039948553
 10
-33.5093009512
 20
12.8051645701
 10
-33.5093347987
 20
12.8062204467
 10
-33.5093722845
 20
12.8071636114
 10
-33.509413333
 20
12.8079954176
 10
-33.5094578685
 20
12.8087172185
 10
-33.5095058155
 20
12.8093303676
 10
-33.5095571505
 20
12.8098356888
 10
-33.5096120589
 20
12.8102318888
 10
-33.5096707782
 20
12.8105171453
 10
-33.5097335458
 20
12.8106896357
 10
-33.5098005994
 20
12.8107475375
  0
LINE
  5
3C5
100
AcDbEntity
  8
0
100
AcDbLine
 62
253
  6
CONTINUOUS
 10
-33.6052352426
 20
9.6158603479
 11
-33.6052137983
 21
9.6144901802
  0
LINE
  5
3C6
100
AcDbEntity
  8
0
100
AcDbLine
 62
253
  6
CONTINUOUS
 10
-33.519299129
 20
-13.3565800823
 11
-33.5194898238
 21
-13.3452455536
  0
LINE
  5
3C7
100
AcDbEntity
  8
0
100
AcDbLine
 62
253
  6
CONTINUOUS
 10
-33.5329113341
 20
-11.9169076598
 11
-33.5331887177
 21
-11.9002309941
  0
LINE
  5
3C8
100
AcDbEntity
  8
0
100
AcDbLine
 62
253
  6
CONTINUOUS
 10
-33.5767186913
 20
-11.9722256502
 11
-33.5768321931
 21
-11.9651185933
  0
LINE
  5
3C9
100
AcDbEntity
  8
0
100
AcDbLine
 62
253
  6
CONTINUOUS
 10
-33.6136603282
 20
-10.2208883352
 11
-33.6133685576
 21
-10.2402659886
  0
LINE
  5
3CA
100
AcDbEntity
  8
0
100
AcDbLine
 62
253
  6
CONTINUOUS
 10
-33.5835856939
 20
10.5546436274
 11
-33.5836263476
 21
10.5575694785
  0
LINE
  5
3CB
100
AcDbEntity
  8
0
100
AcDbLine
 62
253
  6
CONTINUOUS
 10
-33.613808322
 20
-10.5559575062
 11
-33.6140181561
 21
-10.5414982749
  0
LINE
  5
3CC
100
AcDbEntity
  8
0
100
AcDbLine
 62
253
  6
CONTINUOUS
 10
-33.5639584305
 20
-10.5029460675
 11
-33.5642041323
 21
-10.4854978443
  0
LINE
  5
3CD
100
AcDbEntity
  8
0
100
AcDbLine
 62
253
  6
CONTINUOUS
 10
-33.5192024239
 20
-13.3643883345
 11
-33.519299129
 21
-13.3565800823
  0
LINE
  5
3CE
100
AcDbEntity
  8
0
100
AcDbLine
 62
253
  6
CONTINUOUS
 10
-33.5327519412
 20
-11.9303458369
 11
-33.5329113341
 21
-11.9169076598
  0
LINE
  5
3CF
100
AcDbEntity
  8
0
100
AcDbLine
 62
253
  6
CONTINUOUS
 10
-33.6137619094
 20
-10.56045228
 11
-33.613808322
 21
-10.5559575062
  0
LINE
  5
3D0
100
AcDbEntity
  8
0
100
AcDbLine
 62
253
  6
CONTINUOUS
 10
-33.5836391585
 20
10.5586842621
 11
-33.5836735731
 21
10.5622148648
  0
LINE
  5
3D1
100
AcDbEntity
  8
0
100
AcDbLine
 62
253
  6
CONTINUOUS
 10
-33.6137875768
 20
-10.209028674
 11
-33.6136603282
 21
-10.2208883352
  0
LINE
  5
3D2
100
AcDbEntity
  8
0
100
AcDbLine
 62
253
  6
CONTINUOUS
 10
-33.509189933
 20
12.798175503
 11
-33.5092039677
 21
12.7998013991
  0
LINE
  5
3D3
100
AcDbEntity
  8
0
100
AcDbLine
 62
253
  6
CONTINUOUS
 10
-32.817834958
 20
0.1989041947
 11
-32.8169685846
 21
0.1140320268
  0
LINE
  5
3D4
100
AcDbEntity
  8
0
100
AcDbLine
 62
253
  6
CONTINUOUS
 10
-33.5638272893
 20
-10.5174019305
 11
-33.5639584305
 21
-10.5029460675
  0
LINE
  5
3D5
100
AcDbEntity
  8
0
100
AcDbLine
 62
253
  6
CONTINUOUS
 10
-33.6052947298
 20
9.6220578936
 11
-33.6052540562
 21
9.6173048207
  0
LWPOLYLINE
  5
3D6
100
AcDbEntity
  8
0
100
AcDbPolyline
 62
253
  6
CONTINUOUS
 90
3
 70
0
 10
-33.5766817587
 20
-11.9761431946
 10
-33.5766863054
 20
-11.9753283801
 10
-33.5767186913
 20
-11.9722256502
  0
LINE
  5
3D7
100
AcDbEntity
  8
0
100
AcDbLine
 62
253
  6
CONTINUOUS
 10
-33.5326828111
 20
-11.9402458118
 11
-33.5327519412
 21
-11.9303458369
  0
LINE
  5
3D8
100
AcDbEntity
  8
0
100
AcDbLine
 62
253
  6
CONTINUOUS
 10
-33.5191534431
 20
-13.3710150019
 11
-33.5192024239
 21
-13.3643883345
  0
LWPOLYLINE
  5
3D9
100
AcDbEntity
  8
0
100
AcDbPolyline
 62
7
  6
CONTINUOUS
 90
5
 70
0
 10
-33.7484610449
 20
-1.0513739525
 10
-33.7384442631
 20
-3.2283253234
 10
-33.715578007
 20
-5.4830396928
 10
-33.6800009646
 20
-7.7375949635
 10
-33.6317135199
 20
-9.9919194772
  0
LINE
  5
3DA
100
AcDbEntity
  8
0
100
AcDbLine
 62
253
  6
CONTINUOUS
 10
-33.6138385908
 20
-10.2009168087
 11
-33.6137875768
 21
-10.209028674
  0
LINE
  5
3DB
100
AcDbEntity
  8
0
100
AcDbLine
 62
253
  6
CONTINUOUS
 10
-33.5637846314
 20
-10.5276744969
 11
-33.5638272893
 21
-10.5174019305
  0
LINE
  5
3DC
100
AcDbEntity
  8
0
100
AcDbLine
 62
253
  6
CONTINUOUS
 10
-33.605311993
 20
9.6273780971
 11
-33.6052947298
 21
9.6220578936
  0
LINE
  5
3DD
100
AcDbEntity
  8
0
100
AcDbLine
 62
253
  6
CONTINUOUS
 10
-32.8181080026
 20
0.2945888854
 11
-32.817834958
 21
0.1989041947
  0
LINE
  5
3DE
100
AcDbEntity
  8
0
100
AcDbLine
 62
253
  6
CONTINUOUS
 10
-33.5326674399
 20
-11.9470669659
 11
-33.5326828111
 21
-11.9402458118
  0
LWPOLYLINE
  5
3DF
100
AcDbEntity
  8
0
100
AcDbPolyline
 62
253
  6
CONTINUOUS
 90
3
 70
0
 10
-33.6137314298
 20
-10.5667448459
 10
-33.6137318162
 20
-10.5657095253
 10
-33.61375001
 20
-10.5619343892
  0
LINE
  5
3E0
100
AcDbEntity
  8
0
100
AcDbLine
 62
253
  6
CONTINUOUS
 10
-33.6138476745
 20
-10.195131653
 11
-33.6138385908
 21
-10.2009168087
  0
LINE
  5
3E1
100
AcDbEntity
  8
0
100
AcDbLine
 62
253
  6
CONTINUOUS
 10
-33.5091746496
 20
12.7919866858
 11
-33.5091815334
 21
12.7967343599
  0
LINE
  5
3E2
100
AcDbEntity
  8
0
100
AcDbLine
 62
253
  6
CONTINUOUS
 10
-32.8180186423
 20
-0.9436480313
 11
-32.8180469843
 21
-0.8444542807
  0
LWPOLYLINE
  5
3E3
100
AcDbEntity
  8
0
100
AcDbPolyline
 62
253
  6
CONTINUOUS
 90
6
 70
0
 10
-33.6257944205
 20
9.6058770796
 10
-33.6257952464
 20
9.6053703582
 10
-33.6257932417
 20
9.6049730994
 10
-33.6257883294
 20
9.6046871083
 10
-33.6257804327
 20
9.60451419
 10
-33.6257694744
 20
9.6044561494
  0
LINE
  5
3E4
100
AcDbEntity
  8
0
100
AcDbLine
 62
253
  6
CONTINUOUS
 10
-33.5637872721
 20
-10.5348639761
 11
-33.5637846314
 21
-10.5276744969
  0
LWPOLYLINE
  5
3E5
100
AcDbEntity
  8
0
100
AcDbPolyline
 62
253
  6
CONTINUOUS
 90
3
 70
0
 10
-33.5191517437
 20
-13.3769889772
 10
-33.5191468677
 20
-13.3755071255
 10
-33.5191534431
 20
-13.3710150019
  0
LINE
  5
3E6
100
AcDbEntity
  8
0
100
AcDbLine
 62
253
  6
CONTINUOUS
 10
-33.6052996079
 20
9.6352011905
 11
-33.605311993
 21
9.6273780971
  0
LWPOLYLINE
  5
3E7
100
AcDbEntity
  8
0
100
AcDbPolyline
 62
253
  6
CONTINUOUS
 90
8
 70
0
 10
-33.532749142
 20
12.8091716138
 10
-33.5327477729
 20
12.8095769
 10
-33.5327482889
 20
12.8099256948
 10
-33.5327507716
 20
12.8102158622
 10
-33.5327553028
 20
12.8104452661
 10
-33.5327619645
 20
12.8106117707
 10
-33.5327708385
 20
12.8107132398
 10
-33.5327820064
 20
12.8107475375
  0
LWPOLYLINE
  5
3E8
100
AcDbEntity
  8
0
100
AcDbPolyline
 62
253
  6
CONTINUOUS
 90
10
 70
0
 10
-33.3024886533
 20
0.4485876097
 10
-33.2949126268
 20
2.5140118958
 10
-33.2782381072
 20
4.6101631242
 10
-33.2520667888
 20
6.7369987855
 10
-33.2163026225
 20
8.8782254701
 10
-33.1703750076
 20
11.0500438776
 10
-33.1125091394
 20
13.3011331438
 10
-33.0410683041
 20
15.6476574026
 10
-32.9552831686
 20
18.073280372
 10
-32.8539661708
 20
20.577898716
  0
LINE
  5
3E9
100
AcDbEntity
  8
0
100
AcDbLine
 62
253
  6
CONTINUOUS
 10
-33.5326840295
 20
-11.9532612977
 11
-33.5326674399
 21
-11.9470669659
  0
LINE
  5
3EA
100
AcDbEntity
  8
0
100
AcDbLine
 62
253
  6
CONTINUOUS
 10
-33.5091959151
 20
12.786617229
 11
-33.5091746496
 21
12.7919866858
  0
LWPOLYLINE
  5
3EB
100
AcDbEntity
  8
0
100
AcDbPolyline
 62
253
  6
CONTINUOUS
 90
3
 70
0
 10
-33.6138261442
 20
-10.1900563596
 10
-33.6138367367
 20
-10.1916311375
 10
-33.6138476745
 20
-10.195131653
  0
LINE
  5
3EC
100
AcDbEntity
  8
0
100
AcDbLine
 62
253
  6
CONTINUOUS
 10
-33.5638211511
 20
-10.5414864371
 11
-33.5637872721
 21
-10.5348639761
  0
LINE
  5
3ED
100
AcDbEntity
  8
0
100
AcDbLine
 62
253
  6
CONTINUOUS
 10
-32.8104915622
 20
2.5112327279
 11
-32.8181080026
 21
0.2945888854
  0
LWPOLYLINE
  5
3EE
100
AcDbEntity
  8
0
100
AcDbPolyline
 62
253
  6
CONTINUOUS
 90
9
 70
0
 10
-32.8104915622
 20
2.5112327279
 10
-32.7936721014
 20
4.6052377723
 10
-32.7669431381
 20
6.7298355525
 10
-32.7314095414
 20
8.8688561834
 10
-32.6859664421
 20
11.0384695501
 10
-32.6272992329
 20
13.2871853089
 10
-32.5543030447
 20
15.631173345
 10
-32.4680827466
 20
18.0542637732
 10
-32.3686383386
 20
20.5564565934
  0
LWPOLYLINE
  5
3EF
100
AcDbEntity
  8
0
100
AcDbPolyline
 62
253
  6
CONTINUOUS
 90
11
 70
0
 10
-32.8180469843
 20
-0.8444542807
 10
-32.8174738136
 20
-0.7535696948
 10
-32.8169684887
 20
-0.7127696421
 10
-32.8163240898
 20
-0.6756364053
 10
-32.8155474796
 20
-0.6425705953
 10
-32.8146469265
 20
-0.6139346731
 10
-32.8136323669
 20
-0.590053577
 10
-32.812515197
 20
-0.5711986068
 10
-32.8113078284
 20
-0.557578376
 10
-32.8100234557
 20
-0.5493409312
 10
-32.8086762171
 20
-0.5465769882
  0
LINE
  5
3F0
100
AcDbEntity
  8
0
100
AcDbLine
 62
253
  6
CONTINUOUS
 10
-33.605232503
 20
9.6456340051
 11
-33.6052996079
 21
9.6352011905
  0
LINE
  5
3F1
100
AcDbEntity
  8
0
100
AcDbLine
 62
253
  6
CONTINUOUS
 10
-33.5327580561
 20
12.8081225628
 11
-33.5327523141
 21
12.8087119722
  0
LINE
  5
3F2
100
AcDbEntity
  8
0
100
AcDbLine
 62
253
  6
CONTINUOUS
 10
-33.5191730465
 20
-13.3796178087
 11
-33.5191604999
 21
-13.3783591751
  0
LINE
  5
3F3
100
AcDbEntity
  8
0
100
AcDbLine
 62
253
  6
CONTINUOUS
 10
-33.5617267025
 20
11.8662908711
 11
-33.5618912036
 21
11.8510861489
  0
LINE
  5
3F4
100
AcDbEntity
  8
0
100
AcDbLine
 62
253
  6
CONTINUOUS
 10
-33.5092698737
 20
12.7784296556
 11
-33.5091959151
 21
12.786617229
  0
LINE
  5
3F5
100
AcDbEntity
  8
0
100
AcDbLine
 62
253
  6
CONTINUOUS
 10
-33.583684
 20
10.5634472603
 11
-33.5834528882
 21
10.5839436492
  0
LINE
  5
3F6
100
AcDbEntity
  8
0
100
AcDbLine
 62
253
  6
CONTINUOUS
 10
-33.6050976351
 20
9.6579019828
 11
-33.605232503
 21
9.6456340051
  0
LINE
  5
3F7
100
AcDbEntity
  8
0
100
AcDbLine
 62
253
  6
CONTINUOUS
 10
-33.56388505
 20
-10.547466386
 11
-33.5638211511
 21
-10.5414864371
  0
LINE
  5
3F8
100
AcDbEntity
  8
0
100
AcDbLine
 62
253
  6
CONTINUOUS
 10
-33.613795085
 20
-10.1872672014
 11
-33.6138122355
 21
-10.1886012674
  0
LWPOLYLINE
  5
3F9
100
AcDbEntity
  8
0
100
AcDbPolyline
 62
253
  6
CONTINUOUS
 90
3
 70
0
 10
-33.532752005
 20
-11.9604694292
 10
-33.5327303101
 20
-11.9587806869
 10
-33.5326840295
 20
-11.9532612977
  0
LINE
  5
3FA
100
AcDbEntity
  8
0
100
AcDbLine
 62
253
  6
CONTINUOUS
 10
-33.5094374604
 20
12.7667129303
 11
-33.5092698737
 21
12.7784296556
  0
LINE
  5
3FB
100
AcDbEntity
  8
0
100
AcDbLine
 62
253
  6
CONTINUOUS
 10
-33.6256851895
 20
9.6139221294
 11
-33.6257751989
 21
9.608050402
  0
LINE
  5
3FC
100
AcDbEntity
  8
0
100
AcDbLine
 62
253
  6
CONTINUOUS
 10
-33.5328047421
 20
-11.9636422768
 11
-33.5327768205
 21
-11.9620889246
  0
LINE
  5
3FD
100
AcDbEntity
  8
0
100
AcDbLine
 62
253
  6
CONTINUOUS
 10
-33.5873207067
 20
10.7399250998
 11
-33.6050976351
 21
9.6579019828
  0
LINE
  5
3FE
100
AcDbEntity
  8
0
100
AcDbLine
 62
253
  6
CONTINUOUS
 10
-33.5834528882
 20
10.5839436492
 11
-33.5701654187
 21
11.3039990696
  0
LWPOLYLINE
  5
3FF
100
AcDbEntity
  8
0
100
AcDbPolyline
 62
253
  6
CONTINUOUS
 90
3
 70
0
 10
-33.5639762328
 20
-10.5527656525
 10
-33.5639429075
 20
-10.5510740956
 10
-33.56388505
 20
-10.547466386
  0
LINE
  5
400
100
AcDbEntity
  8
0
100
AcDbLine
 62
253
  6
CONTINUOUS
 10
-33.5097358293
 20
12.7510896781
 11
-33.5094374604
 21
12.7667129303
  0
LINE
  5
401
100
AcDbEntity
  8
0
100
AcDbLine
 62
253
  6
CONTINUOUS
 10
-33.5329171108
 20
12.7994016345
 11
-33.532802708
 21
12.8051121937
  0
LINE
  5
402
100
AcDbEntity
  8
0
100
AcDbLine
 62
253
  6
CONTINUOUS
 10
-33.6251715081
 20
9.6391002292
 11
-33.6256851895
 21
9.6139221294
  0
LINE
  5
403
100
AcDbEntity
  8
0
100
AcDbLine
 62
253
  6
CONTINUOUS
 10
-33.5701654187
 20
11.3039990696
 11
-33.5536962292
 21
12.0284922415
  0
LINE
  5
404
100
AcDbEntity
  8
0
100
AcDbLine
 62
253
  6
CONTINUOUS
 10
-33.5328695127
 20
-11.9665374357
 11
-33.532835677
 21
-11.9651265823
  0
LINE
  5
405
100
AcDbEntity
  8
0
100
AcDbLine
 62
253
  6
CONTINUOUS
 10
-33.5618912036
 20
11.8510861489
 11
-33.5873207067
 21
10.7399250998
  0
LINE
  5
406
100
AcDbEntity
  8
0
100
AcDbLine
 62
253
  6
CONTINUOUS
 10
-33.564051788
 20
-10.555944529
 11
-33.5640125252
 21
-10.5543881043
  0
LINE
  5
407
100
AcDbEntity
  8
0
100
AcDbLine
 62
253
  6
CONTINUOUS
 10
-33.5102731684
 20
12.7284085187
 11
-33.5097358293
 21
12.7510896781
  0
LINE
  5
408
100
AcDbEntity
  8
0
100
AcDbLine
 62
253
  6
CONTINUOUS
 10
-33.5335009633
 20
12.7760948444
 11
-33.5329487239
 21
12.7979765948
  0
LINE
  5
409
100
AcDbEntity
  8
0
100
AcDbLine
 62
253
  6
CONTINUOUS
 10
-33.5536962292
 20
12.0284922415
 11
-33.5335009633
 21
12.7760948444
  0
LINE
  5
40A
100
AcDbEntity
  8
0
100
AcDbLine
 62
253
  6
CONTINUOUS
 10
-33.5965012376
 20
9.6968930724
 11
-33.5562881269
 21
11.2076620202
  0
LINE
  5
40B
100
AcDbEntity
  8
0
100
AcDbLine
 62
253
  6
CONTINUOUS
 10
-33.5110637575
 20
12.7005880239
 11
-33.5102731684
 21
12.7284085187
  0
LINE
  5
40C
100
AcDbEntity
  8
0
100
AcDbLine
 62
253
  6
CONTINUOUS
 10
-33.5401604721
 20
12.0048149555
 11
-33.5809755206
 21
10.5912108714
  0
LINE
  5
40D
100
AcDbEntity
  8
0
100
AcDbLine
 62
253
  6
CONTINUOUS
 10
-33.5562881269
 20
11.2076620202
 11
-33.5110637575
 21
12.7005880239
  0
LINE
  5
40E
100
AcDbEntity
  8
0
100
AcDbLine
 62
253
  6
CONTINUOUS
 10
-33.5641387286
 20
-10.5588460403
 11
-33.5640939046
 21
-10.5574319884
  0
LINE
  5
40F
100
AcDbEntity
  8
0
100
AcDbLine
 62
253
  6
CONTINUOUS
 10
-33.5844655257
 20
11.1088654453
 11
-33.5626061054
 21
11.8466411489
  0
LINE
  5
410
100
AcDbEntity
  8
0
100
AcDbLine
 62
253
  6
CONTINUOUS
 10
-33.597274811
 20
9.6724506621
 11
-33.5965012376
 21
9.6968930724
  0
LINE
  5
411
100
AcDbEntity
  8
0
100
AcDbLine
 62
253
  6
CONTINUOUS
 10
-33.5179570245
 20
12.7112849212
 11
-33.5401604721
 21
12.0048149555
  0
LINE
  5
412
100
AcDbEntity
  8
0
100
AcDbLine
 62
253
  6
CONTINUOUS
 10
-33.624573116
 20
9.6168404273
 11
-33.6241333791
 21
9.6301669832
  0
LINE
  5
413
100
AcDbEntity
  8
0
100
AcDbLine
 62
253
  6
CONTINUOUS
 10
-33.5977921547
 20
9.6580258644
 11
-33.597274811
 21
9.6724506621
  0
LWPOLYLINE
  5
414
100
AcDbEntity
  8
0
100
AcDbPolyline
 62
253
  6
CONTINUOUS
 90
16
 70
0
 10
-33.3024886349
 20
-1.0473251485
 10
-33.2997254126
 20
-0.9943385508
 10
-33.2916804589
 20
-0.9430896635
 10
-33.2785711019
 20
-0.893460814
 10
-33.2602862381
 20
-0.8451301394
 10
-33.2368040281
 20
-0.7984184091
 10
-33.208648705
 20
-0.7544474935
 10
-33.1762719172
 20
-0.7139064539
 10
-33.1397397768
 20
-0.6768691934
 10
-33.099504187
 20
-0.6437700112
 10
-33.0561547915
 20
-0.6151270547
 10
-33.0101046998
 20
-0.591204221
 10
-32.9617249868
 20
-0.5721645071
 10
-32.9115627823
 20
-0.558265335
 10
-32.8603264254
 20
-0.5497191103
 10
-32.8086762171
 20
-0.5465769882
  0
LINE
  5
415
100
AcDbEntity
  8
0
100
AcDbLine
 62
253
  6
CONTINUOUS
 10
-31.7082933015
 20
21.3294301682
 11
-31.7031465862
 21
21.2257059099
  0
LINE
  5
416
100
AcDbEntity
  8
0
100
AcDbLine
 62
253
  6
CONTINUOUS
 10
-31.7126444359
 20
21.4286290539
 11
-31.7082933015
 21
21.3294301682
  0
LINE
  5
417
100
AcDbEntity
  8
0
100
AcDbLine
 62
253
  6
CONTINUOUS
 10
-31.7172756982
 20
-22.1583108687
 11
-31.7144606878
 21
-22.0739010422
  0
LINE
  5
418
100
AcDbEntity
  8
0
100
AcDbLine
 62
253
  6
CONTINUOUS
 10
-31.7144606878
 20
-22.0739010422
 11
-31.7105810472
 21
-21.9786082203
  0
LWPOLYLINE
  5
419
100
AcDbEntity
  8
0
100
AcDbPolyline
 62
253
  6
CONTINUOUS
 90
3
 70
0
 10
-31.7105810472
 20
-21.9786082203
 10
-31.70580605
 20
-21.8765899281
 10
-31.7031466097
 20
-21.8244434398
  0
LWPOLYLINE
  5
41A
100
AcDbEntity
  8
0
100
AcDbPolyline
 62
253
  6
CONTINUOUS
 90
7
 70
0
 10
-33.5767357944
 20
-11.9788361461
 10
-33.5767184934
 20
-11.9787796469
 10
-33.5767045361
 20
-11.9786112273
 10
-33.5766938274
 20
-11.9783325041
 10
-33.5766862719
 20
-11.977945094
 10
-33.5766817744
 20
-11.9774506138
 10
-33.5766802631
 20
-11.9768502158
  0
LWPOLYLINE
  5
41B
100
AcDbEntity
  8
0
100
AcDbPolyline
 62
253
  6
CONTINUOUS
 90
9
 70
0
 10
-33.6138501258
 20
-10.5711822575
 10
-33.6138256975
 20
-10.5711256714
 10
-33.6138042855
 20
-10.5709570006
 10
-33.6137857819
 20
-10.5706778763
 10
-33.6137700792
 20
-10.5702899295
 10
-33.6137570695
 20
-10.5697947916
 10
-33.6137466705
 20
-10.5691936233
 10
-33.6137389013
 20
-10.5684857036
 10
-33.6137338062
 20
-10.5676698416
  0
LINE
  5
41C
100
AcDbEntity
  8
0
100
AcDbLine
 62
253
  6
CONTINUOUS
 10
-33.3024886523
 20
-1.0473251464
 11
-33.7484610449
 21
-1.0513739477
  0
LINE
  5
41D
100
AcDbEntity
  8
0
100
AcDbLine
 62
253
  6
CONTINUOUS
 10
-27.3991497081
 20
-0.9992735834
 11
-32.8174014235
 21
-1.0465579498
  0
LINE
  5
41E
100
AcDbEntity
  8
0
100
AcDbLine
 62
7
  6
CONTINUOUS
 10
-27.3991497081
 20
-0.4993687656
 11
-33.2528301986
 21
-0.5504530613
  0
LINE
  5
41F
100
AcDbEntity
  8
0
100
AcDbLine
 62
253
  6
CONTINUOUS
 10
-32.8174014223
 20
-1.0465579498
 11
-33.3024886349
 21
-1.0473251485
  0
LINE
  5
420
100
AcDbEntity
  8
0
100
AcDbLine
 62
7
  6
CONTINUOUS
 10
-33.2528301986
 20
-0.0482844699
 11
-27.3991497081
 21
-0.0993687656
  0
LWPOLYLINE
  5
421
100
AcDbEntity
  8
0
100
AcDbPolyline
 62
253
  6
CONTINUOUS
 90
13
 70
0
 10
-33.5833291093
 20
10.5488947714
 10
-33.5833488932
 20
10.5489457779
 10
-33.5833678005
 20
10.5490295178
 10
-33.5833858591
 20
10.5491449512
 10
-33.5834030969
 20
10.5492910382
 10
-33.583419542
 20
10.5494667389
 10
-33.5834352223
 20
10.5496710135
 10
-33.5834501658
 20
10.5499028221
 10
-33.5834644005
 20
10.5501611247
 10
-33.5834779543
 20
10.5504448816
 10
-33.5834908553
 20
10.5507530529
 10
-33.5835031313
 20
10.5510845986
 10
-33.5835170778
 20
10.5515118247
  0
LINE
  5
422
100
AcDbEntity
  8
0
100
AcDbLine
 62
7
  6
CONTINUOUS
 10
-27.7991497081
 20
17.6341206018
 11
-27.7991497081
 21
17.3726521555
  0
LINE
  5
423
100
AcDbEntity
  8
0
100
AcDbLine
 62
7
  6
CONTINUOUS
 10
-27.7991497081
 20
-17.9713896867
 11
-27.7991497081
 21
-18.2328580894
  0
LINE
  5
424
100
AcDbEntity
  8
0
100
AcDbLine
 62
7
  6
CONTINUOUS
 10
-27.3991497081
 20
12.8006312344
 11
-27.3991497081
 21
-0.0993687656
  0
LINE
  5
425
100
AcDbEntity
  8
0
100
AcDbLine
 62
7
  6
CONTINUOUS
 10
-27.3991497081
 20
-13.3993687656
 11
-27.3991497081
 21
-0.4993687656
  0
LINE
  5
426
100
AcDbEntity
  8
0
100
AcDbLine
 62
253
  6
CONTINUOUS
 10
-33.3024887321
 20
0.4485876061
 11
-32.8174015188
 21
0.4478204194
  0
LINE
  5
427
100
AcDbEntity
  8
0
100
AcDbLine
 62
253
  6
CONTINUOUS
 10
-32.8174015204
 20
0.4478204194
 11
-27.3991497081
 21
0.4005360522
  0
LINE
  5
428
100
AcDbEntity
  8
0
100
AcDbLine
 62
253
  6
CONTINUOUS
 10
-33.7484610449
 20
0.4526364165
 11
-33.3024886533
 21
0.4485876097
  0
LINE
  5
429
100
AcDbEntity
  8
0
100
AcDbLine
 62
7
  6
CONTINUOUS
 10
-28.1960728207
 20
21.9095040929
 11
-27.3991497081
 21
12.8006312344
  0
LINE
  5
42A
100
AcDbEntity
  8
0
100
AcDbLine
 62
7
  6
CONTINUOUS
 10
-28.1960728207
 20
-22.508241624
 11
-27.3991497081
 21
-13.3993687656
  0
LWPOLYLINE
  5
42B
100
AcDbEntity
  8
0
100
AcDbPolyline
 62
253
  6
CONTINUOUS
 90
12
 70
0
 10
-33.6134031146
 20
-10.1801986465
 10
-33.6134481526
 20
-10.1802441637
 10
-33.6134903483
 20
-10.1803796388
 10
-33.6135298316
 20
-10.1806034567
 10
-33.6135667322
 20
-10.1809140026
 10
-33.61360118
 20
-10.1813096616
 10
-33.6136333049
 20
-10.1817888185
 10
-33.6136632365
 20
-10.1823498586
 10
-33.6136955118
 20
-10.1831065155
 10
-33.6137249064
 20
-10.1839745023
 10
-33.6137513482
 20
-10.1849558948
 10
-33.6137747652
 20
-10.1860527692
  0
LWPOLYLINE
  5
42C
100
AcDbEntity
  8
0
100
AcDbPolyline
 62
253
  6
CONTINUOUS
 90
11
 70
0
 10
-33.5195448537
 20
-13.3862430902
 10
-33.5194928615
 20
-13.3861864202
 10
-33.5194449089
 20
-13.3860175083
 10
-33.5194008064
 20
-13.3857380018
 10
-33.5193603645
 20
-13.3853495477
 10
-33.5193233938
 20
-13.3848537933
 10
-33.5192897472
 20
-13.3842519201
 10
-33.5192594481
 20
-13.3835432474
 10
-33.5192325622
 20
-13.3827266286
 10
-33.5192091555
 20
-13.3818009175
 10
-33.5191892936
 20
-13.3807649677
  0
LWPOLYLINE
  5
42D
100
AcDbEntity
  8
0
100
AcDbPolyline
 62
253
  6
CONTINUOUS
 90
15
 70
0
 10
-33.5338883442
 20
-11.9788361461
 10
-33.5337971487
 20
-11.9787796988
 10
-33.5337099081
 20
-11.9786114341
 10
-33.5336263386
 20
-11.9783329678
 10
-33.5335461563
 20
-11.9779459158
 10
-33.5334690775
 20
-11.9774518939
 10
-33.5333948798
 20
-11.97685205
 10
-33.5333235871
 20
-11.9761456609
 10
-33.5332552851
 20
-11.9753315352
 10
-33.5331900593
 20
-11.9744084817
 10
-33.5331279952
 20
-11.9733753093
 10
-33.5330691898
 20
-11.9722309985
 10
-33.5330137852
 20
-11.9709752165
 10
-33.5329619351
 20
-11.9696078027
 10
-33.5329137931
 20
-11.968128596
  0
LWPOLYLINE
  5
42E
100
AcDbEntity
  8
0
100
AcDbPolyline
 62
253
  6
CONTINUOUS
 90
15
 70
0
 10
-33.5653129633
 20
-10.5711822575
 10
-33.5652138972
 20
-10.5711255829
 10
-33.5651184659
 20
-10.5709566526
 10
-33.5650263725
 20
-10.5706771068
 10
-33.5649373203
 20
-10.5702885854
 10
-33.5648510124
 20
-10.5697927287
 10
-33.5647672156
 20
-10.5691907094
 10
-33.5646859505
 20
-10.5684818313
 10
-33.5646073012
 20
-10.5676649308
 10
-33.5645313519
 20
-10.5667388443
 10
-33.5644581866
 20
-10.5657024083
 10
-33.5643879028
 20
-10.5645546335
 10
-33.5643206511
 20
-10.5632952274
 10
-33.5642565956
 20
-10.5619240719
 10
-33.5641959001
 20
-10.5604410489
  0
LINE
  5
42F
100
AcDbEntity
  8
0
100
AcDbLine
 62
253
  6
CONTINUOUS
 10
-33.6257694517
 20
9.6044570674
 11
-33.6251336335
 21
9.6044550827
  0
LINE
  5
430
100
AcDbEntity
  8
0
100
AcDbLine
 62
253
  6
CONTINUOUS
 10
-33.604624731
 20
9.604461539
 11
-33.6011065697
 21
9.6044505555
  0
LINE
  5
431
100
AcDbEntity
  8
0
100
AcDbLine
 62
253
  6
CONTINUOUS
 10
-33.5831798554
 20
10.5488773266
 11
-33.583308415
 21
10.5488777492
  0
LINE
  5
432
100
AcDbEntity
  8
0
100
AcDbLine
 62
253
  6
CONTINUOUS
 10
-33.5327820524
 20
12.8107461356
 11
-33.5335174228
 21
12.8107487183
  0
LINE
  5
433
100
AcDbEntity
  8
0
100
AcDbLine
 62
253
  6
CONTINUOUS
 10
-33.5098007674
 20
12.8107423608
 11
-33.5127025215
 21
12.8107525533
  0
LINE
  5
434
100
AcDbEntity
  8
0
100
AcDbLine
 62
253
  6
CONTINUOUS
 10
-27.7991497081
 20
17.6341228356
 11
-27.8220254284
 21
17.6341228356
  0
LWPOLYLINE
  5
435
100
AcDbEntity
  8
0
100
AcDbPolyline
 62
253
  6
CONTINUOUS
 90
4
 70
0
 10
-32.8539533993
 20
20.5778982009
 10
-32.8482493218
 20
20.5775971882
 10
-32.8377680842
 20
20.5770911991
 10
-32.3686383386
 20
20.5564565934
  0
LINE
  5
436
100
AcDbEntity
  8
0
100
AcDbLine
 62
253
  6
CONTINUOUS
 10
-31.7031465862
 20
21.2257059099
 11
-28.1525281245
 21
21.4117859386
  0
LINE
  5
437
100
AcDbEntity
  8
0
100
AcDbLine
 62
7
  6
CONTINUOUS
 10
-32.0687651009
 20
21.7065448906
 11
-28.1960728207
 21
21.9095040929
  0
LINE
  5
438
100
AcDbEntity
  8
0
100
AcDbLine
 62
253
  6
CONTINUOUS
 10
-32.8539661708
 20
20.577898716
 11
-33.2043237728
 21
20.5708001847
  0
ARC
  5
439
100
AcDbEntity
  8
0
100
AcDbCircle
 62
7
  6
CONTINUOUS
 10
-32.0059581614
 20
20.5081896476
 40
1.2
100
AcDbArc
 50
93.0
 51
177.0092051173
  0
ARC
  5
43A
100
AcDbEntity
  8
0
100
AcDbCircle
 62
7
  6
CONTINUOUS
 10
-32.0059581614
 20
-21.1069271788
 40
1.2
100
AcDbArc
 50
182.9907948827
 51
267.0
  0
ARC
  5
43B
100
AcDbEntity
  8
0
100
AcDbCircle
 62
7
  6
CONTINUOUS
 10
-33.248457163
 20
0.4516964064
 40
0.5
100
AcDbArc
 50
179.8922831945
 51
269.5
  0
ARC
  5
43C
100
AcDbEntity
  8
0
100
AcDbCircle
 62
7
  6
CONTINUOUS
 10
-33.248457163
 20
-1.0504339376
 40
0.5
100
AcDbArc
 50
90.5
 51
180.1077168055
  0
ARC
  5
43D
100
AcDbEntity
  8
0
100
AcDbCircle
 62
7
  6
CONTINUOUS
 10
-28.0991497081
 20
17.6341228356
 40
0.3
100
AcDbArc
 50
359.9995650467
 51
25.0000767071
  0
ARC
  5
43E
100
AcDbEntity
  8
0
100
AcDbCircle
 62
7
  6
CONTINUOUS
 10
-28.0991497081
 20
-18.2328603668
 40
0.3
100
AcDbArc
 50
334.9999285842
 51
0.0004349533
  0
ELLIPSE
  5
43F
100
AcDbEntity
  8
0
100
AcDbEllipse
 62
7
  6
CONTINUOUS
 10
3.5277869179
 20
21.8831389504
 30
0.0
 11
0.2
 21
0.0
 31
0.0
 40
0.0524077793
 41
-2.617993878
 42
-1.5707963268
  0
ELLIPSE
  5
440
100
AcDbEntity
  8
0
100
AcDbEllipse
 62
7
  6
CONTINUOUS
 10
6.8968468103
 20
21.8831389504
 30
0.0
 11
0.2
 21
0.0
 31
0.0
 40
0.0524077793
 41
-1.5707963268
 42
-0.5235987756
  0
ELLIPSE
  5
441
100
AcDbEntity
  8
0
100
AcDbEllipse
 62
7
  6
CONTINUOUS
 10
-4.3031531897
 20
21.8831389504
 30
0.0
 11
0.2
 21
-0.0
 31
0.0
 40
0.0524077793
 41
-1.5707963268
 42
-0.5235987756
  0
ELLIPSE
  5
442
100
AcDbEntity
  8
0
100
AcDbEllipse
 62
7
  6
CONTINUOUS
 10
-7.6722130821
 20
21.8831389504
 30
0.0
 11
0.2
 21
-0.0
 31
0.0
 40
0.0524077793
 41
-2.617993878
 42
-1.5707963268
  0
ELLIPSE
  5
443
100
AcDbEntity
  8
0
100
AcDbEllipse
 62
7
  6
CONTINUOUS
 10
-10.9128818632
 20
0.4006502736
 30
0.0
 11
0.4745319423
 21
0.1581451893
 31
0.0
 40
0.9996192872
 41
2.8200172282
 42
4.3905851209
  0
ELLIPSE
  5
444
100
AcDbEntity
  8
0
100
AcDbEllipse
 62
7
  6
CONTINUOUS
 10
10.1375155914
 20
0.4006502736
 30
0.0
 11
0.4745319423
 21
-0.1581451893
 31
0.0
 40
0.9996192872
 41
-1.2489924673
 42
0.3215754254
  0
ELLIPSE
  5
445
100
AcDbEntity
  8
0
100
AcDbEllipse
 62
7
  6
CONTINUOUS
 10
-10.8931555194
 20
21.4111031314
 30
0.0
 11
0.4962344879
 21
0.0628595572
 31
0.0
 40
0.9963456432
 41
1.4443370775
 42
3.0137634083
  0
ELLIPSE
  5
446
100
AcDbEntity
  8
0
100
AcDbEllipse
 62
7
  6
CONTINUOUS
 10
10.1177892475
 20
21.4111031314
 30
0.0
 11
0.4962344879
 21
-0.0628595572
 31
0.0
 40
0.9963456432
 41
0.1278292453
 42
1.6972555761
  0
ELLIPSE
  5
447
100
AcDbEntity
  8
0
100
AcDbEllipse
 62
7
  6
CONTINUOUS
 10
-4.3031531897
 20
-22.4818764816
 30
0.0
 11
0.2
 21
-0.0
 31
0.0
 40
0.0524077793
 41
0.5235987756
 42
1.5707963268
  0
ELLIPSE
  5
448
100
AcDbEntity
  8
0
100
AcDbEllipse
 62
7
  6
CONTINUOUS
 10
-7.6722130821
 20
-22.4818764816
 30
0.0
 11
0.2
 21
0.0
 31
0.0
 40
0.0524077793
 41
1.5707963268
 42
2.617993878
  0
ELLIPSE
  5
449
100
AcDbEntity
  8
0
100
AcDbEllipse
 62
7
  6
CONTINUOUS
 10
3.5277869179
 20
-22.4818764816
 30
0.0
 11
0.2
 21
0.0
 31
0.0
 40
0.0524077793
 41
1.5707963268
 42
2.617993878
  0
ELLIPSE
  5
44A
100
AcDbEntity
  8
0
100
AcDbEllipse
 62
7
  6
CONTINUOUS
 10
6.8968468103
 20
-22.4818764816
 30
0.0
 11
0.2
 21
0.0
 31
0.0
 40
0.0524077793
 41
0.5235987756
 42
1.5707963268
  0
ELLIPSE
  5
44B
100
AcDbEntity
  8
0
100
AcDbEllipse
 62
7
  6
CONTINUOUS
 10
10.1375155914
 20
-0.9993878048
 30
0.0
 11
0.4745319423
 21
0.1581451893
 31
0.0
 40
0.9996192872
 41
-0.3215754254
 42
1.2489924673
  0
ELLIPSE
  5
44C
100
AcDbEntity
  8
0
100
AcDbEllipse
 62
7
  6
CONTINUOUS
 10
-10.9128818632
 20
-0.9993878048
 30
0.0
 11
0.4745319423
 21
-0.1581451893
 31
0.0
 40
0.9996192872
 41
1.8926001863
 42
3.463168079
  0
ELLIPSE
  5
44D
100
AcDbEntity
  8
0
100
AcDbEllipse
 62
7
  6
CONTINUOUS
 10
10.1177892475
 20
-22.0098406626
 30
0.0
 11
0.4962344879
 21
0.0628595572
 31
0.0
 40
0.9963456432
 41
-1.6972555761
 42
-0.1278292453
  0
ELLIPSE
  5
44E
100
AcDbEntity
  8
0
100
AcDbEllipse
 62
7
  6
CONTINUOUS
 10
-10.8931555194
 20
-22.0098406626
 30
0.0
 11
0.4962344879
 21
-0.0628595572
 31
0.0
 40
0.9963456432
 41
-3.0137634083
 42
-1.4443370775
  0
ENDSEC
  0
SECTION
  2
OBJECTS
  0
DICTIONARY
  5
C
100
AcDbDictionary
280
0
281
1
  3
ACAD_GROUP
350
D
  3
ACAD_MLINESTYLE
350
17
  3
ACAD_LAYOUT
350
1A
  3
ACAD_PLOTSETTINGS
350
19
  3
ACAD_PLOTSTYLENAME
350
E
  0
DICTIONARY
  5
D
102
{ACAD_REACTORS
330
C
102
}
100
AcDbDictionary
280
0
281
1
  0
ACDBDICTIONARYWDFLT
  5
E
102
{ACAD_REACTORS
330
C
102
}
100
AcDbDictionary
281
1
  3
Normal
350
F
100
AcDbDictionaryWithDefault
340
F
  0
DICTIONARY
  5
17
102
{ACAD_REACTORS
330
C
102
}
100
AcDbDictionary
280
0
281
1
  3
Standard
350
18
  0
DICTIONARY
  5
19
102
{ACAD_REACTORS
330
C
102
}
100
AcDbDictionary
281
1
  0
DICTIONARY
  5
1A
102
{ACAD_REACTORS
330
C
102
}
100
AcDbDictionary
281
1
  3
Model
350
44F
  3
Layout1
350
450
  0
ACDBPLACEHOLDER
  5
F
102
{ACAD_REACTORS
330
E
102
}
  0
MLINESTYLE
  5
18
102
{ACAD_REACTORS
330
17
102
}
100
AcDbMlineStyle
  2
STANDARD
 70
0
  3

 62
256
 51
90.0
 52
90.0
 71
2
 49
0.5
 62
256
  6
BYLAYER
 49
-0.5
 62
256
  6
BYLAYER
  0
LAYOUT
  5
44F
102
{ACAD_REACTORS
330
1A
102
}
100
AcDbPlotSettings
  1

  2
none_device
  4
ISO_A4_(297.00_x_210.00_MM)
  6

 40
0.0
 41
0.0
 42
0.0
 43
0.0
 44
297.0
 45
210.0
 46
0.0
 47
0.0
 48
0.0
 49
0.0
140
0.0
141
0.0
142
1.0
143
1.0
 70
1024
 72
1
 73
0
 74
0
  7

 75
0
147
1.0
148
0.0
149
0.0
100
AcDbLayout
  1
Model
 70
0
 71
0
 10
0.0
 20
0.0
 11
297.0
 21
210.0
 12
0.0
 22
0.0
 32
0.0
 14
0.0
 24
0.0
 34
0.0
 15
0.0
 25
0.0
 35
0.0
146
0.0
 13
0.0
 23
0.0
 33
0.0
 16
1.0
 26
0.0
 36
0.0
 17
0.0
 27
1.0
 37
0.0
 76
0
330
220
345
0
346
0
  0
LAYOUT
  5
450
102
{ACAD_REACTORS
330
1A
102
}
100
AcDbPlotSettings
  1

  2
none_device
  4
ISO_A4_(297.00_x_210.00_MM)
  6

 40
0.0
 41
0.0
 42
0.0
 43
0.0
 44
297.0
 45
210.0
 46
0.0
 47
0.0
 48
0.0
 49
0.0
140
0.0
141
0.0
142
1.0
143
1.0
 70
0
 72
1
 73
0
 74
0
  7

 75
0
147
1.0
148
0.0
149
0.0
100
AcDbLayout
  1
Layout1
 70
0
 71
1
 10
0.0
 20
0.0
 11
297.0
 21
210.0
 12
0.0
 22
0.0
 32
0.0
 14
0.0
 24
0.0
 34
0.0
 15
0.0
 25
0.0
 35
0.0
146
0.0
 13
0.0
 23
0.0
 33
0.0
 16
1.0
 26
0.0
 36
0.0
 17
0.0
 27
1.0
 37
0.0
 76
0
330
221
345
0
346
0
  0
ENDSEC
  0
EOF
