  0
SECTION
  2
HEADER
  9
$ACADVER
  1
AC1021
  9
$DWGCODEPAGE
  3
ANSI_1252
  9
$EXTMAX
 10
297.0
 20
210.0
 30
0.0
  9
$EXTMIN
 10
0.0
 20
0.0
 30
0.0
  9
$LIMMIN
 10
0.0
 20
0.0
  9
$LIMMAX
 10
297.0
 20
210.0
  9
$VIEWCTR
 10
148.5
 20
105.0
  9
$VIEWSIZE
 40
210.0
  9
$CLAYER
  8
0
  9
$LTSCALE
 40
16.335
  9
$CELTYPE
  6
BYLAYER
  9
$DIMSCALE
 40
1.0
  9
$DIMASZ
 40
3.0
  9
$DIMEXO
 40
0.5
  9
$DIMDLI
 40
11.286
  9
$DIMEXE
 40
1.5
  9
$DIMCEN
 40
2.673
  9
$DIMLFAC
 40
1.0
  9
$DIMBLK
  1
_FILLED
  9
$DIMALT
 70
0
  9
$DIMALTF
 40
25.4
  9
$DIMTXT
 40
3.0
  9
$DIMTOL
 70
1
  9
$DIMLIM
 70
0
  9
$DIMTFAC
 40
1.0
  9
$DIMTP
 40
0.01
  9
$DIMTM
 40
0.01
  9
$DIMGAP
 40
0.625
  9
$DIMDSEP
 70
44
  9
$AUNITS
 70
0
  9
$PDMODE
 70
3
  9
$PDSIZE
 40
3.0
  9
$HANDSEED
  5
3AD
  9
$TILEMODE
 70
1
  9
$MEASUREMENT
 70
1
  9
$INSUNITS
 70
4
  0
ENDSEC
  0
SECTION
  2
CLASSES
  0
CLASS
  1
ACDBDICTIONARYWDFLT
  2
AcDbDictionaryWithDefault
  3
AutoCAD 2000
 90
0
 91
1
280
0
281
0
  0
CLASS
  1
ACDBPLACEHOLDER
  2
AcDbPlaceHolder
  3
AutoCAD 2000
 90
0
 91
1
280
0
281
0
  0
CLASS
  1
LAYOUT
  2
AcDbLayout
  3
AutoCAD 2000
 90
0
 91
0
280
0
281
0
  0
ENDSEC
  0
SECTION
  2
TABLES
  0
TABLE
  2
VPORT
  5
8
100
AcDbSymbolTable
 70
2
  0
VPORT
  5
1F4
100
AcDbSymbolTableRecord
100
AcDbViewportTableRecord
  2
*ACTIVE
 70
0
 10
0.0
 20
0.0
 11
1.0
 21
1.0
 12
148.5
 22
105.0
 13
0.0
 23
0.0
 14
1.0
 24
1.0
 15
0.0
 25
0.0
 16
0.0
 26
0.0
 36
1.0
 17
0.0
 27
0.0
 37
0.0
 40
210.0
 41
1.4142857143
 42
50.0
 43
0.0
 44
0.0
 50
0.0
 51
0.0
 71
0
 72
100
 73
1
 74
1
 75
0
 76
0
 77
0
 78
0
  0
ENDTAB
  0
TABLE
  2
LTYPE
  5
5
100
AcDbSymbolTable
 70
6
  0
LTYPE
  5
14
100
AcDbSymbolTableRecord
100
AcDbLinetypeTableRecord
  2
BYBLOCK
 70
0
  3

 72
65
 73
0
 40
0.0
  0
LTYPE
  5
15
100
AcDbSymbolTableRecord
100
AcDbLinetypeTableRecord
  2
BYLAYER
 70
0
  3

 72
65
 73
0
 40
0.0
  0
LTYPE
  5
16
100
AcDbSymbolTableRecord
100
AcDbLinetypeTableRecord
  2
CONTINUOUS
 70
64
  3
Solid line
 72
65
 73
0
 40
0.0
  0
LTYPE
  5
1F5
100
AcDbSymbolTableRecord
100
AcDbLinetypeTableRecord
  2
CENTER
 70
64
  3
____ _ ____ _ ____ _ ____ _ ____ _ ____ _ ____
 72
65
 73
4
 40
0.6
 49
0.375
 74
0
 49
-0.075
 74
0
 49
0.075
 74
0
 49
-0.075
 74
0
  0
LTYPE
  5
1F6
100
AcDbSymbolTableRecord
100
AcDbLinetypeTableRecord
  2
HIDDEN
 70
64
  3
- - - - - - - - - - - - - - - - - - - -
 72
65
 73
2
 40
0.2
 49
0.1
 74
0
 49
-0.1
 74
0
  0
LTYPE
  5
1F7
100
AcDbSymbolTableRecord
100
AcDbLinetypeTableRecord
  2
PHANTOM
 70
64
  3
_____ _ _ _____ _ _ _____ _ _ _____
 72
65
 73
6
 40
0.8
 49
0.45
 74
0
 49
-0.05
 74
0
 49
0.1
 74
0
 49
-0.05
 74
0
 49
0.1
 74
0
 49
-0.05
 74
0
  0
LTYPE
  5
1F8
100
AcDbSymbolTableRecord
100
AcDbLinetypeTableRecord
  2
DOT
 70
64
  3
. . . . . . . . . . . . . . . . . . . .
 72
65
 73
2
 40
0.2
 49
0.1
 74
0
 49
-0.1
 74
0
  0
LTYPE
  5
1F9
100
AcDbSymbolTableRecord
100
AcDbLinetypeTableRecord
  2
DASHED
 70
64
  3
- - - - - - - - - - - - - - - - - - - -
 72
65
 73
2
 40
0.2
 49
0.1
 74
0
 49
-0.1
 74
0
  0
ENDTAB
  0
TABLE
  2
LAYER
  5
2
100
AcDbSymbolTable
 70
36
  0
LAYER
  5
10
100
AcDbSymbolTableRecord
100
AcDbLayerTableRecord
  2
0
 70
0
 62
7
  6
CONTINUOUS
370
-3
390
F
  0
LAYER
  5
1FA
100
AcDbSymbolTableRecord
100
AcDbLayerTableRecord
  2
DEFAULT_1
 70
0
 62
7
  6
CENTER
370
-3
390
F
  0
LAYER
  5
1FB
100
AcDbSymbolTableRecord
100
AcDbLayerTableRecord
  2
DEFAULT_2
 70
0
 62
7
  6
HIDDEN
370
-3
390
F
  0
LAYER
  5
1FC
100
AcDbSymbolTableRecord
100
AcDbLayerTableRecord
  2
DEFAULT_3
 70
0
 62
7
  6
PHANTOM
370
-3
390
F
  0
LAYER
  5
1FD
100
AcDbSymbolTableRecord
100
AcDbLayerTableRecord
  2
ASSI
 70
0
 62
7
  6
CONTINUOUS
370
-3
390
F
  0
LAYER
  5
1FE
100
AcDbSymbolTableRecord
100
AcDbLayerTableRecord
  2
COLOR3
 70
0
 62
7
  6
CONTINUOUS
370
-3
390
F
  0
LAYER
  5
1FF
100
AcDbSymbolTableRecord
100
AcDbLayerTableRecord
  2
COORDINATE
 70
0
 62
7
  6
CONTINUOUS
370
-3
390
F
  0
LAYER
  5
200
100
AcDbSymbolTableRecord
100
AcDbLayerTableRecord
  2
COPY_PUBLISH
 70
0
 62
7
  6
CONTINUOUS
370
-3
390
F
  0
LAYER
  5
201
100
AcDbSymbolTableRecord
100
AcDbLayerTableRecord
  2
COSMETIC
 70
0
 62
7
  6
CONTINUOUS
370
-3
390
F
  0
LAYER
  5
202
100
AcDbSymbolTableRecord
100
AcDbLayerTableRecord
  2
COSMETICI
 70
0
 62
7
  6
CONTINUOUS
370
-3
390
F
  0
LAYER
  5
203
100
AcDbSymbolTableRecord
100
AcDbLayerTableRecord
  2
CURVE
 70
0
 62
7
  6
CONTINUOUS
370
-3
390
F
  0
LAYER
  5
204
100
AcDbSymbolTableRecord
100
AcDbLayerTableRecord
  2
DRAFT
 70
0
 62
7
  6
CONTINUOUS
370
-3
390
F
  0
LAYER
  5
205
100
AcDbSymbolTableRecord
100
AcDbLayerTableRecord
  2
IMPORT_IGES
 70
0
 62
7
  6
CONTINUOUS
370
-3
390
F
  0
LAYER
  5
206
100
AcDbSymbolTableRecord
100
AcDbLayerTableRecord
  2
INTFCLR_1
 70
0
 62
7
  6
CONTINUOUS
370
-3
390
F
  0
LAYER
  5
207
100
AcDbSymbolTableRecord
100
AcDbLayerTableRecord
  2
INTF_10
 70
0
 62
7
  6
CONTINUOUS
370
-3
390
F
  0
LAYER
  5
208
100
AcDbSymbolTableRecord
100
AcDbLayerTableRecord
  2
INTF_13
 70
0
 62
7
  6
CONTINUOUS
370
-3
390
F
  0
LAYER
  5
209
100
AcDbSymbolTableRecord
100
AcDbLayerTableRecord
  2
INTF_15
 70
0
 62
7
  6
CONTINUOUS
370
-3
390
F
  0
LAYER
  5
20A
100
AcDbSymbolTableRecord
100
AcDbLayerTableRecord
  2
INTF_16
 70
0
 62
7
  6
CONTINUOUS
370
-3
390
F
  0
LAYER
  5
20B
100
AcDbSymbolTableRecord
100
AcDbLayerTableRecord
  2
INTF_18
 70
0
 62
7
  6
CONTINUOUS
370
-3
390
F
  0
LAYER
  5
20C
100
AcDbSymbolTableRecord
100
AcDbLayerTableRecord
  2
INTF_20
 70
0
 62
7
  6
CONTINUOUS
370
-3
390
F
  0
LAYER
  5
20D
100
AcDbSymbolTableRecord
100
AcDbLayerTableRecord
  2
INTF_3
 70
0
 62
7
  6
CONTINUOUS
370
-3
390
F
  0
LAYER
  5
20E
100
AcDbSymbolTableRecord
100
AcDbLayerTableRecord
  2
INTF_5
 70
0
 62
7
  6
CONTINUOUS
370
-3
390
F
  0
LAYER
  5
20F
100
AcDbSymbolTableRecord
100
AcDbLayerTableRecord
  2
INTF_8
 70
0
 62
7
  6
CONTINUOUS
370
-3
390
F
  0
LAYER
  5
210
100
AcDbSymbolTableRecord
100
AcDbLayerTableRecord
  2
LIVELLO_1
 70
0
 62
7
  6
CONTINUOUS
370
-3
390
F
  0
LAYER
  5
211
100
AcDbSymbolTableRecord
100
AcDbLayerTableRecord
  2
NOTE
 70
0
 62
7
  6
CONTINUOUS
370
-3
390
F
  0
LAYER
  5
212
100
AcDbSymbolTableRecord
100
AcDbLayerTableRecord
  2
PIANI
 70
0
 62
7
  6
CONTINUOUS
370
-3
390
F
  0
LAYER
  5
213
100
AcDbSymbolTableRecord
100
AcDbLayerTableRecord
  2
PUNTI
 70
0
 62
7
  6
CONTINUOUS
370
-3
390
F
  0
LAYER
  5
214
100
AcDbSymbolTableRecord
100
AcDbLayerTableRecord
  2
RACCORDO
 70
0
 62
7
  6
CONTINUOUS
370
-3
390
F
  0
LAYER
  5
215
100
AcDbSymbolTableRecord
100
AcDbLayerTableRecord
  2
SIMBOLI
 70
0
 62
7
  6
CONTINUOUS
370
-3
390
F
  0
LAYER
  5
216
100
AcDbSymbolTableRecord
100
AcDbLayerTableRecord
  2
SMUSSO
 70
0
 62
7
  6
CONTINUOUS
370
-3
390
F
  0
LAYER
  5
217
100
AcDbSymbolTableRecord
100
AcDbLayerTableRecord
  2
SNAPLINE
 70
0
 62
7
  6
CONTINUOUS
370
-3
390
F
  0
LAYER
  5
218
100
AcDbSymbolTableRecord
100
AcDbLayerTableRecord
  2
SOLIDO
 70
0
 62
7
  6
CONTINUOUS
370
-3
390
F
  0
LAYER
  5
219
100
AcDbSymbolTableRecord
100
AcDbLayerTableRecord
  2
SUPERFICI
 70
0
 62
7
  6
CONTINUOUS
370
-3
390
F
  0
LAYER
  5
21A
100
AcDbSymbolTableRecord
100
AcDbLayerTableRecord
  2
SUPERFICI_SKEL
 70
0
 62
7
  6
CONTINUOUS
370
-3
390
F
  0
LAYER
  5
21B
100
AcDbSymbolTableRecord
100
AcDbLayerTableRecord
  2
TRASH
 70
0
 62
7
  6
CONTINUOUS
370
-3
390
F
  0
LAYER
  5
21C
100
AcDbSymbolTableRecord
100
AcDbLayerTableRecord
  2
WHITE
 70
0
 62
7
  6
CONTINUOUS
370
-3
390
F
  0
LAYER
  5
21D
100
AcDbSymbolTableRecord
100
AcDbLayerTableRecord
  2
___SHELL
 70
0
 62
7
  6
CONTINUOUS
370
-3
390
F
  0
ENDTAB
  0
TABLE
  2
STYLE
  5
3
100
AcDbSymbolTable
 70
1
  0
STYLE
  5
11
100
AcDbSymbolTableRecord
100
AcDbTextStyleTableRecord
  2
STANDARD
 70
0
 40
0.0
 41
0.8
 50
0.0
 71
0
 42
0.2
  3
txt
  4

  0
STYLE
  5
21E
100
AcDbSymbolTableRecord
100
AcDbTextStyleTableRecord
  2
TEXTSTYLE_1
 70
0
 40
0.0
 41
0.8
 50
0.0
 71
0
 42
0.2
  3
gdt
  4

  0
ENDTAB
  0
TABLE
  2
VIEW
  5
6
100
AcDbSymbolTable
 70
0
  0
ENDTAB
  0
TABLE
  2
UCS
  5
7
100
AcDbSymbolTable
 70
0
  0
ENDTAB
  0
TABLE
  2
APPID
  5
9
100
AcDbSymbolTable
 70
1
  0
APPID
  5
21F
100
AcDbSymbolTableRecord
100
AcDbRegAppTableRecord
  2
ACAD
 70
0
  0
ENDTAB
  0
TABLE
  2
BLOCK_RECORD
  5
1
100
AcDbSymbolTable
 70
0
  0
BLOCK_RECORD
  5
220
100
AcDbSymbolTableRecord
100
AcDbBlockTableRecord
  2
*Model_Space
  0
BLOCK_RECORD
  5
221
100
AcDbSymbolTableRecord
100
AcDbBlockTableRecord
  2
*Paper_Space
  0
BLOCK_RECORD
  5
222
100
AcDbSymbolTableRecord
100
AcDbBlockTableRecord
  2
_FILLED
  0
BLOCK_RECORD
  5
223
100
AcDbSymbolTableRecord
100
AcDbBlockTableRecord
  2
*D0
  0
BLOCK_RECORD
  5
224
100
AcDbSymbolTableRecord
100
AcDbBlockTableRecord
  2
*D1
  0
BLOCK_RECORD
  5
225
100
AcDbSymbolTableRecord
100
AcDbBlockTableRecord
  2
*D2
  0
ENDTAB
  0
TABLE
  2
DIMSTYLE
  5
A
100
AcDbSymbolTable
 70
1
100
AcDbDimStyleTable
 71
0
  0
DIMSTYLE
105
226
100
AcDbSymbolTableRecord
100
AcDbDimStyleTableRecord
  2
STANDARD
 70
0
  3

  4

 40
1.0
 41
3.0
 42
0.5
 43
0.38
 44
1.5
 45
0.0
 46
0.0
 47
0.01
 48
0.01
140
3.0
141
0.09
142
0.0
143
25.4
144
1.0
145
0.0
146
1.0
147
0.625
 71
1.0
 72
0.0
 73
0
 74
0
 75
0
 76
0
 77
1
 78
8
170
0
171
1
172
0
173
0
174
0
175
0
176
0
177
0
178
0
270
2
271
2
272
2
273
2
274
2
275
0
280
0
281
0
282
0
283
1
284
8
285
0
286
0
287
3
288
0
340
11
278
44
341
222
342
222
343
222
344
222
  0
DIMSTYLE
105
227
100
AcDbSymbolTableRecord
100
AcDbDimStyleTableRecord
  2
DIMSTYLE_1
 70
0
  3

  4

 40
1.0
 41
3.0
 42
0.5
 43
0.38
 44
1.5
 45
0.0
 46
0.0
 47
0.0
 48
0.0
140
3.0
141
0.09
142
0.0
143
25.4
144
1.0
145
0.0
146
1.0
147
0.75
 71
0.0
 72
0.0
 73
0
 74
0
 75
0
 76
0
 77
1
 78
8
170
0
171
1
172
0
173
0
174
0
175
0
176
0
177
0
178
0
270
2
271
2
272
2
273
2
274
2
275
0
280
0
281
0
282
0
283
1
284
8
285
0
286
0
287
3
288
0
340
11
278
44
341
222
342
222
343
222
344
222
  0
DIMSTYLE
105
228
100
AcDbSymbolTableRecord
100
AcDbDimStyleTableRecord
  2
DIMSTYLE_2
 70
0
  3

  4

 40
1.0
 41
3.0
 42
0.5
 43
0.38
 44
1.5
 45
0.0
 46
0.0
 47
0.0
 48
0.0
140
3.0
141
0.09
142
0.0
143
25.4
144
1.0
145
0.0
146
1.0
147
0.75
 71
0.0
 72
0.0
 73
0
 74
0
 75
0
 76
0
 77
1
 78
8
170
0
171
1
172
0
173
0
174
0
175
0
176
0
177
0
178
0
270
2
271
1
272
1
273
2
274
2
275
0
280
0
281
0
282
0
283
1
284
8
285
0
286
0
287
3
288
0
340
11
278
44
341
222
342
222
343
222
344
222
  0
ENDTAB
  0
ENDSEC
  0
SECTION
  2
BLOCKS
  0
BLOCK
  5
20
100
AcDbEntity
  8
0
100
AcDbBlockBegin
  2
*Model_Space
 70
0
 10
0.0
 20
0.0
 30
0.0
  3
*Model_Space
  1

  0
ENDBLK
  5
21
100
AcDbEntity
  8
0
100
AcDbBlockEnd
  0
BLOCK
  5
1C
100
AcDbEntity
  8
0
100
AcDbBlockBegin
  2
*Paper_Space
 70
0
 10
0.0
 20
0.0
 30
0.0
  3
*Paper_Space
  1

  0
ENDBLK
  5
1D
100
AcDbEntity
  8
0
100
AcDbBlockEnd
  0
BLOCK
  5
229
100
AcDbEntity
  8
0
100
AcDbBlockBegin
  2
_FILLED
 70
64
 10
0.0
 20
0.0
  3
_FILLED
  1

  0
SOLID
  5
22A
100
AcDbEntity
  8
0
  6
BYBLOCK
 62
0
100
AcDbTrace
 10
0.0
 20
0.0
 11
-1.0
 21
0.3166666667
 12
-1.0
 22
-0.3166666667
 13
-1.0
 23
-0.3166666667
  0
ENDBLK
  5
22B
100
AcDbEntity
  8
0
  6
BYBLOCK
 62
0
100
AcDbBlockEnd
  0
BLOCK
  5
22C
100
AcDbEntity
  8
0
100
AcDbBlockBegin
 62
7
  6
CONTINUOUS
  2
*D0
 70
65
 10
0.0
 20
0.0
  3
*D0
  1

  0
MTEXT
  5
22D
100
AcDbEntity
  8
0
100
AcDbMText
 62
7
  6
CONTINUOUS
  7
STANDARD
 71
2
 72
1
 10
-0.3367129296
 20
39.1295990114
 30
0.0
 11
1.0
 21
0.0
 31
0.0
 44
0.9
  1
22,05
 40
3.0
 41
16.3928571429
  0
LINE
  5
22E
100
AcDbEntity
  8
0
100
AcDbLine
 62
7
  6
CONTINUOUS
 10
-11.3620830531
 20
13.5861425051
 11
-11.3620830531
 21
36.8795990114
  0
LINE
  5
22F
100
AcDbEntity
  8
0
100
AcDbLine
 62
7
  6
CONTINUOUS
 10
10.6886571939
 20
13.5861425051
 11
10.6886571939
 21
36.8795990114
  0
LINE
  5
230
100
AcDbEntity
  8
0
100
AcDbLine
 62
7
  6
CONTINUOUS
 10
-11.3620830531
 20
35.3795990114
 11
-0.3367129296
 21
35.3795990114
  0
LINE
  5
231
100
AcDbEntity
  8
0
100
AcDbLine
 62
7
  6
CONTINUOUS
 10
10.6886571939
 20
35.3795990114
 11
-0.3367129296
 21
35.3795990114
  0
INSERT
  5
232
100
AcDbEntity
  8
0
100
AcDbBlockReference
 62
7
  6
CONTINUOUS
  2
_FILLED
 10
-11.3620830531
 20
35.3795990114
 41
3.0
 42
3.0
 43
3.0
 50
180.0
  0
INSERT
  5
233
100
AcDbEntity
  8
0
100
AcDbBlockReference
 62
7
  6
CONTINUOUS
  2
_FILLED
 10
10.6886571939
 20
35.3795990114
 41
3.0
 42
3.0
 43
3.0
  0
ENDBLK
  5
234
100
AcDbEntity
  8
0
  6
BYBLOCK
 62
0
100
AcDbBlockEnd
  0
BLOCK
  5
235
100
AcDbEntity
  8
0
100
AcDbBlockBegin
 62
7
  6
CONTINUOUS
  2
*D1
 70
65
 10
0.0
 20
0.0
  3
*D1
  1

  0
MTEXT
  5
236
100
AcDbEntity
  8
0
100
AcDbMText
 62
7
  6
CONTINUOUS
  7
STANDARD
 71
2
 72
1
 10
19.9992693345
 20
-0.0138574949
 30
0.0
 11
0.0
 21
1.0
 31
0.0
 44
0.9
  1
44,4
 40
3.0
 41
13.1785714286
  0
LINE
  5
237
100
AcDbEntity
  8
0
100
AcDbLine
 62
7
  6
CONTINUOUS
 10
10.6683028642
 20
22.1950153635
 11
25.2492693345
 21
22.1950153635
  0
LINE
  5
238
100
AcDbEntity
  8
0
100
AcDbLine
 62
7
  6
CONTINUOUS
 10
10.6683028642
 20
-22.2227303534
 11
25.2492693345
 21
-22.2227303534
  0
LINE
  5
239
100
AcDbEntity
  8
0
100
AcDbLine
 62
7
  6
CONTINUOUS
 10
23.7492693345
 20
22.1950153635
 11
23.7492693345
 21
-0.0138574949
  0
LINE
  5
23A
100
AcDbEntity
  8
0
100
AcDbLine
 62
7
  6
CONTINUOUS
 10
23.7492693345
 20
-22.2227303534
 11
23.7492693345
 21
-0.0138574949
  0
INSERT
  5
23B
100
AcDbEntity
  8
0
100
AcDbBlockReference
 62
7
  6
CONTINUOUS
  2
_FILLED
 10
23.7492693345
 20
22.1950153635
 41
3.0
 42
3.0
 43
3.0
 50
90.0
  0
INSERT
  5
23C
100
AcDbEntity
  8
0
100
AcDbBlockReference
 62
7
  6
CONTINUOUS
  2
_FILLED
 10
23.7492693345
 20
-22.2227303534
 41
3.0
 42
3.0
 43
3.0
 50
270.0
  0
ENDBLK
  5
23D
100
AcDbEntity
  8
0
  6
BYBLOCK
 62
0
100
AcDbBlockEnd
  0
BLOCK
  5
23E
100
AcDbEntity
  8
0
100
AcDbBlockBegin
 62
7
  6
CONTINUOUS
  2
*D2
 70
65
 10
0.0
 20
0.0
  3
*D2
  1

  0
MTEXT
  5
23F
100
AcDbEntity
  8
0
100
AcDbMText
 62
7
  6
CONTINUOUS
  7
STANDARD
 71
1
 72
1
 10
-27.8569930152
 20
39.1295990114
 30
0.0
 11
1.0
 21
0.0
 31
0.0
 44
0.9
  1
6,35
 40
3.0
 41
12.5357142857
  0
LINE
  5
240
100
AcDbEntity
  8
0
100
AcDbLine
 62
7
  6
CONTINUOUS
 10
-32.4825392274
 20
13.5861425051
 11
-32.4825392274
 21
36.8795990114
  0
LINE
  5
241
100
AcDbEntity
  8
0
100
AcDbLine
 62
7
  6
CONTINUOUS
 10
-38.8318505643
 20
1.2381476919
 11
-38.8318505643
 21
36.8795990114
  0
LINE
  5
242
100
AcDbEntity
  8
0
100
AcDbLine
 62
7
  6
CONTINUOUS
 10
-32.4825392274
 20
35.3795990114
 11
-19.4998501581
 21
35.3795990114
  0
LINE
  5
243
100
AcDbEntity
  8
0
100
AcDbLine
 62
7
  6
CONTINUOUS
 10
-19.4998501581
 20
35.3795990114
 11
-35.6571948959
 21
35.3795990114
  0
LINE
  5
244
100
AcDbEntity
  8
0
100
AcDbLine
 62
7
  6
CONTINUOUS
 10
-38.8318505643
 20
35.3795990114
 11
-42.8318505643
 21
35.3795990114
  0
LINE
  5
245
100
AcDbEntity
  8
0
100
AcDbLine
 62
7
  6
CONTINUOUS
 10
-42.8318505643
 20
35.3795990114
 11
-35.6571948959
 21
35.3795990114
  0
INSERT
  5
246
100
AcDbEntity
  8
0
100
AcDbBlockReference
 62
7
  6
CONTINUOUS
  2
_FILLED
 10
-32.4825392274
 20
35.3795990114
 41
3.0
 42
3.0
 43
3.0
 50
180.0
  0
INSERT
  5
247
100
AcDbEntity
  8
0
100
AcDbBlockReference
 62
7
  6
CONTINUOUS
  2
_FILLED
 10
-38.8318505643
 20
35.3795990114
 41
3.0
 42
3.0
 43
3.0
  0
ENDBLK
  5
248
100
AcDbEntity
  8
0
  6
BYBLOCK
 62
0
100
AcDbBlockEnd
  0
ENDSEC
  0
SECTION
  2
ENTITIES
  0
DIMENSION
  5
249
100
AcDbEntity
  8
0
100
AcDbDimension
 62
7
  6
CONTINUOUS
  2
*D0
 10
10.6886571939
 20
35.3795990114
 11
-0.7652844944
 21
35.3795990114
 70
160
 71
2
 42
22.0507402471
  3
DIMSTYLE_1
100
AcDbAlignedDimension
 13
-11.3620830531
 23
13.0861425051
 14
10.6886571939
 24
13.0861425051
100
AcDbRotatedDimension
  0
DIMENSION
  5
24A
100
AcDbEntity
  8
0
100
AcDbDimension
 62
7
  6
CONTINUOUS
  2
*D1
 10
23.7492693345
 20
-22.2227303534
 11
23.7492693345
 21
-0.4424288843
 70
160
 71
2
 42
44.4177457169
  3
DIMSTYLE_2
100
AcDbAlignedDimension
 13
10.1683028642
 23
22.1950153635
 14
10.1683028642
 24
-22.2227303534
 50
270.0
100
AcDbRotatedDimension
  0
DIMENSION
  5
24B
100
AcDbEntity
  8
0
100
AcDbDimension
 62
7
  6
CONTINUOUS
  2
*D2
 10
-38.8318505643
 20
35.3795990114
 11
-24.1069920845
 21
35.3795990114
 70
160
 71
1
 42
6.3493113369
  3
DIMSTYLE_1
100
AcDbAlignedDimension
 13
-32.4825392274
 23
13.0861425051
 14
-38.8318505643
 24
0.7381476919
 50
180.0
100
AcDbRotatedDimension
  0
LINE
  5
24C
100
AcDbEntity
  8
0
100
AcDbLine
 62
7
  6
CONTINUOUS
 10
3.0573654402
 20
-22.2227303534
 11
3.4055520435
 21
-22.191124433
  0
LINE
  5
24D
100
AcDbEntity
  8
0
100
AcDbLine
 62
7
  6
CONTINUOUS
 10
-8.1426345598
 20
-22.2227303534
 11
-7.7944479565
 21
-22.191124433
  0
LWPOLYLINE
  5
24E
100
AcDbEntity
  8
0
100
AcDbPolyline
 62
253
  6
CONTINUOUS
 90
16
 70
0
 10
10.0761244062
 20
-22.0382469366
 10
10.1283260326
 20
-22.0354448914
 10
10.1799566441
 20
-22.0272123019
 10
10.2304515408
 20
-22.0136392316
 10
10.2792584626
 20
-21.9948741472
 10
10.3258435841
 20
-21.9711223112
 10
10.3696973609
 20
-21.942643551
 10
10.4103401652
 20
-21.9097493824
 10
10.4473275099
 20
-21.8727995981
 10
10.4802548734
 20
-21.832198363
 10
10.5087621531
 20
-21.7883897716
 10
10.5325376053
 20
-21.7418529746
 10
10.5513212396
 20
-21.6930969496
 10
10.5649076562
 20
-21.6426549466
 10
10.5731482959
 20
-21.5910786575
 10
10.5759530686
 20
-21.5389321692
  0
LWPOLYLINE
  5
24F
100
AcDbEntity
  8
0
100
AcDbPolyline
 62
253
  6
CONTINUOUS
 90
14
 70
0
 10
10.1891896444
 20
-20.8903179804
 10
10.2360269877
 20
-20.8896118989
 10
10.281144963
 20
-20.888712587
 10
10.3241061104
 20
-20.8876287645
 10
10.3644938822
 20
-20.8863709399
 10
10.4019166821
 20
-20.884951309
 10
10.4360116616
 20
-20.8833836365
 10
10.4664482389
 20
-20.8816831222
 10
10.4929313034
 20
-20.8798662544
 10
10.5152040775
 20
-20.877950649
 10
10.5330506065
 20
-20.8759548798
 10
10.5462978517
 20
-20.8738982975
 10
10.5548173691
 20
-20.8718008426
 10
10.5585265541
 20
-20.8696828518
  0
LINE
  5
250
100
AcDbEntity
  8
0
100
AcDbLine
 62
253
  6
CONTINUOUS
 10
10.0921856456
 20
-20.8911250079
 11
10.1891896444
 21
-20.8903179804
  0
LINE
  5
251
100
AcDbEntity
  8
0
100
AcDbLine
 62
253
  6
CONTINUOUS
 10
-10.7495502659
 20
-22.0382469378
 11
-7.3799846967
 21
-22.0282208015
  0
LINE
  5
252
100
AcDbEntity
  8
0
100
AcDbLine
 62
253
  6
CONTINUOUS
 10
-7.3799846967
 20
-22.0282208015
 11
-4.0079386424
 21
-22.0220666359
  0
LINE
  5
253
100
AcDbEntity
  8
0
100
AcDbLine
 62
253
  6
CONTINUOUS
 10
-4.0079386424
 20
-22.0220666359
 11
-0.634281548
 21
-22.0197864264
  0
LINE
  5
254
100
AcDbEntity
  8
0
100
AcDbLine
 62
7
  6
CONTINUOUS
 10
-10.8417287234
 20
-22.2227303534
 11
-8.1426345598
 21
-22.2227303534
  0
LINE
  5
255
100
AcDbEntity
  8
0
100
AcDbLine
 62
7
  6
CONTINUOUS
 10
-3.7307912994
 20
-22.2227303534
 11
3.0573654402
 21
-22.2227303534
  0
LINE
  5
256
100
AcDbEntity
  8
0
100
AcDbLine
 62
7
  6
CONTINUOUS
 10
7.4692087006
 20
-22.2227303534
 11
10.1683028642
 21
-22.2227303534
  0
LINE
  5
257
100
AcDbEntity
  8
0
100
AcDbLine
 62
7
  6
CONTINUOUS
 10
-7.6212428758
 20
-22.1858836551
 11
-4.2521829834
 21
-22.1858836551
  0
LINE
  5
258
100
AcDbEntity
  8
0
100
AcDbLine
 62
7
  6
CONTINUOUS
 10
3.5787571242
 20
-22.1858836551
 11
6.9478170166
 21
-22.1858836551
  0
LINE
  5
259
100
AcDbEntity
  8
0
100
AcDbLine
 62
253
  6
CONTINUOUS
 10
-0.634281548
 20
-22.0197864264
 11
2.733446109
 21
-22.021373361
  0
LINE
  5
25A
100
AcDbEntity
  8
0
100
AcDbLine
 62
253
  6
CONTINUOUS
 10
2.733446109
 20
-22.021373361
 11
6.2044597507
 21
-22.0270589045
  0
LWPOLYLINE
  5
25B
100
AcDbEntity
  8
0
100
AcDbPolyline
 62
253
  6
CONTINUOUS
 90
3
 70
0
 10
6.2044597507
 20
-22.0270589045
 10
9.2585459917
 20
-22.0354860306
 10
10.0761244062
 20
-22.0382469366
  0
LWPOLYLINE
  5
25C
100
AcDbEntity
  8
0
100
AcDbPolyline
 62
253
  6
CONTINUOUS
 90
15
 70
0
 10
-10.765610655
 20
-20.8911244614
 10
-10.8626137446
 20
-20.8903174596
 10
-10.909450693
 20
-20.8896113998
 10
-10.9545683305
 20
-20.8887121153
 10
-10.9975292093
 20
-20.8876283251
 10
-11.0379167924
 20
-20.8863705371
 10
-11.075339493
 20
-20.8849509464
 10
-11.1094344711
 20
-20.8833833171
 10
-11.1398711511
 20
-20.8816828483
 10
-11.1663544275
 20
-20.8798660275
 10
-11.1886275257
 20
-20.8779504699
 10
-11.206474492
 20
-20.8759547483
 10
-11.2197222871
 20
-20.8738982127
 10
-11.228242464
 20
-20.8718008026
 10
-11.2319524135
 20
-20.8696828539
  0
LWPOLYLINE
  5
25D
100
AcDbEntity
  8
0
100
AcDbPolyline
 62
253
  6
CONTINUOUS
 90
16
 70
0
 10
-10.7495502659
 20
-22.0382469378
 10
-10.801751236
 20
-22.0354449626
 10
-10.8533812775
 20
-22.0272125655
 10
-10.9038757064
 20
-22.0136397853
 10
-10.9526822589
 20
-21.9948750691
 10
-10.9992671316
 20
-21.971123649
 10
-11.04312082
 20
-21.9426452972
 10
-11.0837636909
 20
-21.909751485
 10
-11.1207512282
 20
-21.8728019761
 10
-11.1536788947
 20
-21.8322008918
 10
-11.1821865563
 20
-21.7883922912
 10
-11.2059624214
 20
-21.7418553144
 10
-11.2247464501
 20
-21.6930989421
 10
-11.2383331995
 20
-21.6426564287
 10
-11.2465740694
 20
-21.5910794703
 10
-11.2493789284
 20
-21.5389321704
  0
LINE
  5
25E
100
AcDbEntity
  8
0
100
AcDbLine
 62
7
  6
CONTINUOUS
 10
-3.7307912994
 20
-22.2227303534
 11
-4.0789779027
 21
-22.191124433
  0
LINE
  5
25F
100
AcDbEntity
  8
0
100
AcDbLine
 62
7
  6
CONTINUOUS
 10
7.4692087006
 20
-22.2227303534
 11
7.1210220973
 21
-22.191124433
  0
LINE
  5
260
100
AcDbEntity
  8
0
100
AcDbLine
 62
253
  6
CONTINUOUS
 10
-10.7656115064
 20
-20.8911249765
 11
-5.3627911043
 21
-20.8856729303
  0
LINE
  5
261
100
AcDbEntity
  8
0
100
AcDbLine
 62
253
  6
CONTINUOUS
 10
-5.3627911043
 20
-20.8856729303
 11
6.2200024778
 21
-20.8868290198
  0
LINE
  5
262
100
AcDbEntity
  8
0
100
AcDbLine
 62
253
  6
CONTINUOUS
 10
6.2200024778
 20
-20.8868290198
 11
10.0921856457
 21
-20.8911249941
  0
LWPOLYLINE
  5
263
100
AcDbEntity
  8
0
100
AcDbPolyline
 62
253
  6
CONTINUOUS
 90
7
 70
0
 10
-10.7495502653
 20
22.0105319467
 10
-10.7506019617
 20
22.0031460095
 10
-10.7516954802
 20
21.9898703382
 10
-10.7528029418
 20
21.9707735601
 10
-10.7538757067
 20
21.9459539098
 10
-10.7549078379
 20
21.915536433
 10
-10.756937265
 20
21.838531661
  0
LWPOLYLINE
  5
264
100
AcDbEntity
  8
0
100
AcDbPolyline
 62
253
  6
CONTINUOUS
 90
31
 70
0
 10
-0.3327370493
 20
-12.9653327702
 10
-0.3237067452
 20
-12.9652235666
 10
-0.3147082448
 20
-12.9649187612
 10
-0.3057315623
 20
-12.9644209937
 10
-0.2967667121
 20
-12.963732904
 10
-0.2878037082
 20
-12.9628571318
 10
-0.2788337972
 20
-12.9617955667
 10
-0.2698531539
 20
-12.9605470971
 10
-0.2608591852
 20
-12.9591098611
 10
-0.2518492981
 20
-12.9574819969
 10
-0.2428208996
 20
-12.9556616426
 10
-0.2337745417
 20
-12.9536477113
 10
-0.224723357
 20
-12.9514422159
 10
-0.2156836231
 20
-12.9490479442
 10
-0.2066716176
 20
-12.9464676842
 10
-0.1977036183
 20
-12.9437042238
 10
-0.188795651
 20
-12.9407611704
 10
-0.1799627345
 20
-12.9376454106
 10
-0.171219636
 20
-12.9343646502
 10
-0.1625811226
 20
-12.9309265956
 10
-0.1540619614
 20
-12.9273389526
 10
-0.1456738743
 20
-12.9236082221
 10
-0.1374164022
 20
-12.9197360837
 10
-0.1292860409
 20
-12.9157230116
 10
-0.1212792861
 20
-12.9115694801
 10
-0.1133926337
 20
-12.9072759634
 10
-0.1056219697
 20
-12.9028416053
 10
-0.0979607419
 20
-12.8982602272
 10
-0.0904017882
 20
-12.8935243199
 10
-0.0829379469
 20
-12.8886263744
 10
-0.0755620559
 20
-12.8835588813
  0
LWPOLYLINE
  5
265
100
AcDbEntity
  8
0
100
AcDbPolyline
 62
253
  6
CONTINUOUS
 90
8
 70
0
 10
-10.748991819
 20
0.3636429328
 10
-10.7453526634
 20
0.3305437507
 10
-10.741421687
 20
0.3019007941
 10
-10.7377718196
 20
0.2779779605
 10
-10.7334992428
 20
0.2589382466
 10
-10.7286062897
 20
0.2450390745
 10
-10.7240681572
 20
0.2364928497
 10
-10.7203724762
 20
0.2333507277
  0
LWPOLYLINE
  5
266
100
AcDbEntity
  8
0
100
AcDbPolyline
 62
253
  6
CONTINUOUS
 90
16
 70
0
 10
-11.2202011387
 20
0.7333316893
 10
-11.217515602
 20
0.6816857576
 10
-11.2094754333
 20
0.6304217708
 10
-11.1961138227
 20
0.5801002616
 10
-11.1774999018
 20
0.5312280202
 10
-11.1537982791
 20
0.4844155764
 10
-11.1253226881
 20
0.4403434343
 10
-11.0924278524
 20
0.3995433815
 10
-11.0554440213
 20
0.3624101448
 10
-11.0147667743
 20
0.3293443348
 10
-10.9708326713
 20
0.3007084125
 10
-10.9241294542
 20
0.2768273165
 10
-10.8751827413
 20
0.2579723463
 10
-10.8245360403
 20
0.2443521155
 10
-10.7727425682
 20
0.2361146707
 10
-10.7203724762
 20
0.2333507277
  0
LWPOLYLINE
  5
267
100
AcDbEntity
  8
0
100
AcDbPolyline
 62
253
  6
CONTINUOUS
 90
4
 70
0
 10
-10.7592980101
 20
0.5319038789
 10
-10.7574970668
 20
0.4851921486
 10
-10.7547829106
 20
0.4412212329
 10
-10.748991819
 20
0.3636429328
  0
LWPOLYLINE
  5
268
100
AcDbEntity
  8
0
100
AcDbPolyline
 62
253
  6
CONTINUOUS
 90
6
 70
0
 10
-10.7549078387
 20
-21.9432514229
 10
-10.7538757073
 20
-21.9736688993
 10
-10.7528029424
 20
-21.9984885497
 10
-10.7516954808
 20
-22.0175853283
 10
-10.7506019623
 20
-22.0308610003
 10
-10.7495502659
 20
-22.0382469378
  0
LINE
  5
269
100
AcDbEntity
  8
0
100
AcDbLine
 62
253
  6
CONTINUOUS
 10
-10.7569372659
 20
-21.866246652
 11
-10.7549078387
 21
-21.9432514229
  0
LINE
  5
26A
100
AcDbEntity
  8
0
100
AcDbLine
 62
253
  6
CONTINUOUS
 10
-11.2377252124
 20
21.3216962937
 11
-11.23596813
 21
21.2492744904
  0
LINE
  5
26B
100
AcDbEntity
  8
0
100
AcDbLine
 62
253
  6
CONTINUOUS
 10
-10.7588110813
 20
-21.7690015841
 11
-10.7569372659
 21
-21.866246652
  0
LINE
  5
26C
100
AcDbEntity
  8
0
100
AcDbLine
 62
253
  6
CONTINUOUS
 10
-11.23596813
 20
21.2492744904
 11
-11.234497568
 21
21.168202802
  0
LINE
  5
26D
100
AcDbEntity
  8
0
100
AcDbLine
 62
253
  6
CONTINUOUS
 10
-10.7613105408
 20
-21.5895302326
 11
-10.7588110813
 21
-21.7690015841
  0
LINE
  5
26E
100
AcDbEntity
  8
0
100
AcDbLine
 62
253
  6
CONTINUOUS
 10
-11.234497568
 20
21.168202802
 11
-11.2333427778
 21
21.0803416125
  0
LINE
  5
26F
100
AcDbEntity
  8
0
100
AcDbLine
 62
253
  6
CONTINUOUS
 10
-10.763883969
 20
-21.3003430089
 11
-10.7613105408
 21
-21.5895302326
  0
LINE
  5
270
100
AcDbEntity
  8
0
100
AcDbLine
 62
253
  6
CONTINUOUS
 10
-11.2333427778
 20
21.0803416125
 11
-11.2322433287
 21
20.9394770747
  0
LWPOLYLINE
  5
271
100
AcDbEntity
  8
0
100
AcDbPolyline
 62
253
  6
CONTINUOUS
 90
3
 70
0
 10
-10.7630385928
 20
-0.7618138667
 10
-10.76326346
 20
-0.7088252719
 10
-10.7624108884
 20
-0.6575747107
  0
LINE
  5
272
100
AcDbEntity
  8
0
100
AcDbLine
 62
7
  6
CONTINUOUS
 10
-11.342355145
 20
-21.7250121991
 11
-11.3620830531
 21
-13.1138574949
  0
LINE
  5
273
100
AcDbEntity
  8
0
100
AcDbLine
 62
253
  6
CONTINUOUS
 10
-10.7656115116
 20
-20.8911249756
 11
-10.763883969
 21
-21.3003430089
  0
LINE
  5
274
100
AcDbEntity
  8
0
100
AcDbLine
 62
253
  6
CONTINUOUS
 10
-11.2322433287
 20
20.9394770747
 11
-11.2217316516
 21
7.5455650772
  0
LINE
  5
275
100
AcDbEntity
  8
0
100
AcDbLine
 62
7
  6
CONTINUOUS
 10
-11.3620830531
 20
13.0861425051
 11
-11.3620830531
 21
0.6860473229
  0
LINE
  5
276
100
AcDbEntity
  8
0
100
AcDbLine
 62
7
  6
CONTINUOUS
 10
-11.3620830531
 20
-13.1138574949
 11
-11.3620830531
 21
-0.7137623127
  0
LINE
  5
277
100
AcDbEntity
  8
0
100
AcDbLine
 62
253
  6
CONTINUOUS
 10
-11.2217316516
 20
7.5455650772
 11
-11.2202011387
 21
0.7333316893
  0
LINE
  5
278
100
AcDbEntity
  8
0
100
AcDbLine
 62
253
  6
CONTINUOUS
 10
-10.7630383769
 20
-0.7618138702
 11
-10.7656115064
 21
-20.8911249765
  0
LINE
  5
279
100
AcDbEntity
  8
0
100
AcDbLine
 62
253
  6
CONTINUOUS
 10
-11.2202011361
 20
-0.76104668
 11
-11.2224529153
 21
-9.1820824439
  0
LINE
  5
27A
100
AcDbEntity
  8
0
100
AcDbLine
 62
253
  6
CONTINUOUS
 10
-11.2224529153
 20
-9.1820824439
 11
-11.2293483701
 21
-18.3674900337
  0
LINE
  5
27B
100
AcDbEntity
  8
0
100
AcDbLine
 62
7
  6
CONTINUOUS
 10
-11.342355145
 20
21.6972972092
 11
-11.3620830531
 21
13.0861425051
  0
LINE
  5
27C
100
AcDbEntity
  8
0
100
AcDbLine
 62
253
  6
CONTINUOUS
 10
-10.7651380914
 20
21.0307520552
 11
-10.7630383885
 21
0.7340988859
  0
LINE
  5
27D
100
AcDbEntity
  8
0
100
AcDbLine
 62
253
  6
CONTINUOUS
 10
-11.2293483701
 20
-18.3674900337
 11
-11.2322433293
 21
-20.9671920666
  0
LWPOLYLINE
  5
27E
100
AcDbEntity
  8
0
100
AcDbPolyline
 62
253
  6
CONTINUOUS
 90
4
 70
0
 10
-10.7630385954
 20
0.734098888
 10
-10.7632633339
 20
0.6811122903
 10
-10.7624108436
 20
0.629863403
 10
-10.7592980101
 20
0.5319038789
  0
LINE
  5
27F
100
AcDbEntity
  8
0
100
AcDbLine
 62
253
  6
CONTINUOUS
 10
-10.7627127312
 20
21.4232184856
 11
-10.7651380914
 21
21.0307520552
  0
LINE
  5
280
100
AcDbEntity
  8
0
100
AcDbLine
 62
253
  6
CONTINUOUS
 10
-11.2322433293
 20
-20.9671920666
 11
-11.2333427785
 21
-21.1080566044
  0
LINE
  5
281
100
AcDbEntity
  8
0
100
AcDbLine
 62
253
  6
CONTINUOUS
 10
-10.760522569
 20
21.6257450695
 11
-10.7627127312
 21
21.4232184856
  0
LINE
  5
282
100
AcDbEntity
  8
0
100
AcDbLine
 62
253
  6
CONTINUOUS
 10
-11.2333427785
 20
-21.1080566044
 11
-11.2344975686
 21
-21.1959177939
  0
LINE
  5
283
100
AcDbEntity
  8
0
100
AcDbLine
 62
253
  6
CONTINUOUS
 10
-10.7588110804
 20
21.7412865922
 11
-10.760522569
 21
21.6257450695
  0
LINE
  5
284
100
AcDbEntity
  8
0
100
AcDbLine
 62
253
  6
CONTINUOUS
 10
-11.2344975686
 20
-21.1959177939
 11
-11.2359681307
 21
-21.2769894824
  0
LINE
  5
285
100
AcDbEntity
  8
0
100
AcDbLine
 62
253
  6
CONTINUOUS
 10
-10.756937265
 20
21.838531661
 11
-10.7588110804
 21
21.7412865922
  0
LWPOLYLINE
  5
286
100
AcDbEntity
  8
0
100
AcDbPolyline
 62
253
  6
CONTINUOUS
 90
12
 70
0
 10
-11.2359681307
 20
-21.2769894824
 10
-11.237725213
 20
-21.3494112856
 10
-11.2386968273
 20
-21.3818748207
 10
-11.2397268389
 20
-21.4116231578
 10
-11.2408143922
 20
-21.4386979446
 10
-11.2419433983
 20
-21.4626982059
 10
-11.2431150439
 20
-21.4835791949
 10
-11.2443281424
 20
-21.5013856584
 10
-11.245563045
 20
-21.5158508612
 10
-11.2468132021
 20
-21.5268858916
 10
-11.2480851632
 20
-21.5345796614
 10
-11.2493789284
 20
-21.5389321704
  0
LWPOLYLINE
  5
287
100
AcDbEntity
  8
0
100
AcDbPolyline
 62
253
  6
CONTINUOUS
 90
4
 70
0
 10
-10.7624108884
 20
-0.6575747107
 10
-10.7592977569
 20
-0.5596128487
 10
-10.7574967743
 20
-0.5129004591
 10
-10.7547824803
 20
-0.468929326
  0
LWPOLYLINE
  5
288
100
AcDbEntity
  8
0
100
AcDbPolyline
 62
253
  6
CONTINUOUS
 90
16
 70
0
 10
-11.2202011361
 20
-0.76104668
 10
-11.2175155945
 20
-0.7094007004
 10
-11.2094754132
 20
-0.6581366779
 10
-11.1961137858
 20
-0.6078151459
 10
-11.1774998483
 20
-0.5589428958
 10
-11.1537982123
 20
-0.5121304552
 10
-11.1253226119
 20
-0.4680583233
 10
-11.0924277737
 20
-0.4272582874
 10
-11.0554439477
 20
-0.3901250713
 10
-11.014766708
 20
-0.357059279
 10
-10.9708326105
 20
-0.3284233695
 10
-10.9241293994
 20
-0.3045422838
 10
-10.8751826952
 20
-0.2856873228
 10
-10.8245360065
 20
-0.2720670995
 10
-10.7727425491
 20
-0.2638296596
 10
-10.7203724736
 20
-0.2610657184
  0
LWPOLYLINE
  5
289
100
AcDbEntity
  8
0
100
AcDbPolyline
 62
253
  6
CONTINUOUS
 90
9
 70
0
 10
-10.7547824803
 20
-0.468929326
 10
-10.7489912397
 20
-0.3913519636
 10
-10.7453520747
 20
-0.3582537098
 10
-10.7414210759
 20
-0.3296118692
 10
-10.7377712705
 20
-0.305690216
 10
-10.7334988138
 20
-0.2866515745
 10
-10.7286060077
 20
-0.2727532633
 10
-10.724068031
 20
-0.2642076193
 10
-10.7203724741
 20
-0.2610657184
  0
LWPOLYLINE
  5
28A
100
AcDbEntity
  8
0
100
AcDbPolyline
 62
253
  6
CONTINUOUS
 90
16
 70
0
 10
-0.6176193584
 20
12.8838897248
 10
-0.7992414263
 20
12.7541559669
 10
-0.9794173347
 20
12.6224673122
 10
-1.1581681696
 20
12.4888096665
 10
-1.3355150168
 20
12.3531689361
 10
-1.5114789621
 20
12.2155310267
 10
-1.6860676359
 20
12.0758922521
 10
-1.8592348456
 20
11.9342905561
 10
-2.0309209434
 20
11.7907742904
 10
-2.2010662813
 20
11.6453918065
 10
-2.3696112112
 20
11.4981914559
 10
-2.5365086853
 20
11.3492102048
 10
-2.7017620559
 20
11.1984394779
 10
-2.8653872754
 20
11.0458593147
 10
-3.0274002962
 20
10.8914497544
 10
-3.1878170706
 20
10.7351908365
  0
LWPOLYLINE
  5
28B
100
AcDbEntity
  8
0
100
AcDbPolyline
 62
253
  6
CONTINUOUS
 90
16
 70
0
 10
-0.5978638033
 20
12.8558438915
 10
-0.7791360222
 20
12.7263539726
 10
-0.9589706248
 20
12.5949087512
 10
-1.1373885502
 20
12.4614941013
 10
-1.3144107372
 20
12.3260958972
 10
-1.4900581249
 20
12.188700013
 10
-1.6643382492
 20
12.0493026873
 10
-1.8372050344
 20
11.9079416165
 10
-2.0085990016
 20
11.7646648612
 10
-2.178460672
 20
11.6195204822
 10
-2.346730567
 20
11.4725565402
 10
-2.5133617515
 20
11.3238097563
 10
-2.6783574659
 20
11.1732714931
 10
-2.8417334946
 20
11.0209217738
 10
-3.0035056216
 20
10.8667406213
 10
-3.1636896313
 20
10.7107080587
  0
LWPOLYLINE
  5
28C
100
AcDbEntity
  8
0
100
AcDbPolyline
 62
253
  6
CONTINUOUS
 90
45
 70
0
 10
-0.4000965861
 20
12.4487736138
 10
-0.3977590389
 20
12.4503554088
 10
-0.3954175672
 20
12.4518574517
 10
-0.3930693966
 20
12.4532824576
 10
-0.3907117527
 20
12.4546331416
 10
-0.3883418612
 20
12.455912219
 10
-0.3859569477
 20
12.4571224048
 10
-0.3835542378
 20
12.4582664142
 10
-0.3811309572
 20
12.4593469624
 10
-0.3783337167
 20
12.4605067883
 10
-0.3755076674
 20
12.4615861544
 10
-0.3726544922
 20
12.4625839429
 10
-0.3697758737
 20
12.4634990358
 10
-0.3668734949
 20
12.4643303151
 10
-0.3639490385
 20
12.4650766629
 10
-0.3610041874
 20
12.4657369613
 10
-0.3580408283
 20
12.4663101759
 10
-0.3550616646
 20
12.4667956074
 10
-0.3520696038
 20
12.46719264
 10
-0.3490675533
 20
12.4675006579
 10
-0.3460584204
 20
12.4677190452
 10
-0.3430451127
 20
12.4678471864
 10
-0.3400305375
 20
12.4678844654
 10
-0.3370175958
 20
12.4678305222
 10
-0.3340091619
 20
12.467686018
 10
-0.3310081041
 20
12.4674518697
 10
-0.3280172901
 20
12.4671289943
 10
-0.325039588
 20
12.4667183085
 10
-0.3220778658
 20
12.4662207293
 10
-0.3191349915
 20
12.4656371735
 10
-0.3162136127
 20
12.4649686169
 10
-0.313315496
 20
12.4642162709
 10
-0.3104421875
 20
12.4633814057
 10
-0.3075952336
 20
12.4624652916
 10
-0.3047761804
 20
12.461469199
 10
-0.3019865742
 20
12.460394398
 10
-0.2992279611
 20
12.4592421589
 10
-0.2968402194
 20
12.4581707584
 10
-0.2944748569
 20
12.4570378931
 10
-0.2921293399
 20
12.4558404145
 10
-0.2898011346
 20
12.4545751736
 10
-0.2874877073
 20
12.4532390219
 10
-0.2851865243
 20
12.4518288105
 10
-0.2828950517
 20
12.4503413907
 10
-0.2806107558
 20
12.4487736138
  0
LINE
  5
28D
100
AcDbEntity
  8
0
100
AcDbLine
 62
253
  6
CONTINUOUS
 10
-0.4194993634
 20
12.4770663916
 11
-0.3931115863
 21
12.4914950027
  0
LWPOLYLINE
  5
28E
100
AcDbEntity
  8
0
100
AcDbPolyline
 62
253
  6
CONTINUOUS
 90
43
 70
0
 10
-0.3931115863
 20
12.4914950027
 10
-0.390062231
 20
12.4927469319
 10
-0.3870107094
 20
12.4939106672
 10
-0.3839529495
 20
12.4949893032
 10
-0.3808848791
 20
12.4959859344
 10
-0.3778024263
 20
12.4969036553
 10
-0.3747015189
 20
12.4977455604
 10
-0.371578085
 20
12.4985147443
 10
-0.3684286263
 20
12.4992135524
 10
-0.3652519413
 20
12.4998413342
 10
-0.3620474021
 20
12.5003966899
 10
-0.358814381
 20
12.5008782197
 10
-0.3555522504
 20
12.5012845242
 10
-0.3522603824
 20
12.5016142035
 10
-0.3489381494
 20
12.5018658579
 10
-0.3455859976
 20
12.5020381048
 10
-0.3422086689
 20
12.5021296294
 10
-0.3388119795
 20
12.5021391339
 10
-0.3354017451
 20
12.5020653205
 10
-0.3319837818
 20
12.5019068915
 10
-0.3285639056
 20
12.5016625492
 10
-0.3251479323
 20
12.5013309956
 10
-0.3217415935
 20
12.5009115039
 10
-0.318350283
 20
12.5004056301
 10
-0.31497931
 20
12.499815501
 10
-0.3116339838
 20
12.4991432437
 10
-0.3083196136
 20
12.498390985
 10
-0.3050415088
 20
12.4975608517
 10
-0.3018049786
 20
12.4966549707
 10
-0.2986142416
 20
12.4956753908
 10
-0.295469154
 20
12.4946238487
 10
-0.2923684813
 20
12.4935020028
 10
-0.2893109888
 20
12.4923115117
 10
-0.2862954421
 20
12.4910540339
 10
-0.2833206067
 20
12.4897312279
 10
-0.2803852479
 20
12.4883447522
 10
-0.277487766
 20
12.4868954421
 10
-0.2746250999
 20
12.4853808399
 10
-0.2717938236
 20
12.4837976646
 10
-0.2689905106
 20
12.4821426353
 10
-0.2662117348
 20
12.480412471
 10
-0.2634540699
 20
12.4786038908
 10
-0.2607140897
 20
12.4767136138
  0
LWPOLYLINE
  5
28F
100
AcDbEntity
  8
0
100
AcDbPolyline
 62
253
  6
CONTINUOUS
 90
50
 70
0
 10
-0.61058482
 20
-12.9116047146
 10
-0.6009357843
 20
-12.9182204327
 10
-0.5911788758
 20
-12.9245571525
 10
-0.5813018839
 20
-12.9306275724
 10
-0.5712925982
 20
-12.9364443911
 10
-0.5611388081
 20
-12.9420203071
 10
-0.5508303992
 20
-12.9473653753
 10
-0.5403656419
 20
-12.952479077
 10
-0.5297449026
 20
-12.9573582498
 10
-0.5189685478
 20
-12.9619997314
 10
-0.5080369438
 20
-12.9664003596
 10
-0.4969528188
 20
-12.9705562995
 10
-0.4857283478
 20
-12.9744610271
 10
-0.4743780675
 20
-12.9781073458
 10
-0.4629165145
 20
-12.9814880593
 10
-0.4513582255
 20
-12.9845959709
 10
-0.439717154
 20
-12.9874243265
 10
-0.4280049211
 20
-12.9899681415
 10
-0.4162325646
 20
-12.9922228735
 10
-0.4044111223
 20
-12.99418398
 10
-0.3925516322
 20
-12.9958469189
 10
-0.3793417425
 20
-12.9973403565
 10
-0.3661047713
 20
-12.9984595798
 10
-0.3528469825
 20
-12.9992040907
 10
-0.3395746405
 20
-12.9995733911
 10
-0.3262940092
 20
-12.9995669827
 10
-0.3130113528
 20
-12.9991843675
 10
-0.2997329354
 20
-12.9984250474
 10
-0.2864650212
 20
-12.9972885241
 10
-0.2732138741
 20
-12.9957742996
 10
-0.2613088789
 20
-12.9940889987
 10
-0.2494362482
 20
-12.9921020774
 10
-0.2376096912
 20
-12.989818257
 10
-0.2258429172
 20
-12.9872422587
 10
-0.2141496352
 20
-12.9843788036
 10
-0.2025443484
 20
-12.9812334631
 10
-0.1910447348
 20
-12.9778152091
 10
-0.1796692668
 20
-12.9741338636
 10
-0.1684364165
 20
-12.9701992488
 10
-0.1573646559
 20
-12.9660211868
 10
-0.1464688883
 20
-12.9616084034
 10
-0.1357497417
 20
-12.95696524
 10
-0.1252042751
 20
-12.9520949418
 10
-0.1148295476
 20
-12.9470007538
 10
-0.1046226182
 20
-12.9416859214
 10
-0.0945789819
 20
-12.9361512019
 10
-0.0846878774
 20
-12.9303874023
 10
-0.0749369793
 20
-12.9243828417
 10
-0.0653139623
 20
-12.9181258395
 10
-0.0558065008
 20
-12.9116047146
  0
LWPOLYLINE
  5
290
100
AcDbEntity
  8
0
100
AcDbPolyline
 62
253
  6
CONTINUOUS
 90
31
 70
0
 10
-0.5907939872
 20
-12.8835588813
 10
-0.5832303635
 20
-12.8887554619
 10
-0.5755873711
 20
-12.8937653271
 10
-0.5678582773
 20
-12.8985970304
 10
-0.5600363499
 20
-12.9032591254
 10
-0.5521148564
 20
-12.9077601654
 10
-0.5440878383
 20
-12.9121072749
 10
-0.5359524332
 20
-12.9163018617
 10
-0.5277065529
 20
-12.9203439042
 10
-0.519348109
 20
-12.924233381
 10
-0.5108750129
 20
-12.9279702707
 10
-0.5022878548
 20
-12.9315535051
 10
-0.4935979373
 20
-12.9349778287
 10
-0.4848192414
 20
-12.9382369392
 10
-0.4759657483
 20
-12.9413245344
 10
-0.467051439
 20
-12.944234312
 10
-0.4580905453
 20
-12.9469606946
 10
-0.4490983018
 20
-12.9495010036
 10
-0.4400901941
 20
-12.9518532856
 10
-0.4310817076
 20
-12.9540155868
 10
-0.4220883277
 20
-12.9559859537
 10
-0.4131226192
 20
-12.9577631485
 10
-0.4041854643
 20
-12.9593487974
 10
-0.3952748243
 20
-12.9607452426
 10
-0.3863886607
 20
-12.9619548263
 10
-0.3775249349
 20
-12.9629798907
 10
-0.3686802481
 20
-12.9638220848
 10
-0.3598457606
 20
-12.9644802857
 10
-0.3510112724
 20
-12.9649526776
 10
-0.3421665835
 20
-12.9652374444
 10
-0.3333014938
 20
-12.9653327702
  0
LWPOLYLINE
  5
291
100
AcDbEntity
  8
0
100
AcDbPolyline
 62
253
  6
CONTINUOUS
 90
88
 70
0
 10
-3.1878170706
 20
10.7351908365
 10
-3.1934069245
 20
10.7294932606
 10
-3.1987329254
 20
10.7236622162
 10
-3.2038161456
 20
10.7176853383
 10
-3.2086776575
 20
10.7115502621
 10
-3.2133385336
 20
10.7052446227
 10
-3.2189058468
 20
10.6971083512
 10
-3.2241813082
 20
10.6886889207
 10
-3.2291536339
 20
10.6799889975
 10
-3.2338115398
 20
10.6710112475
 10
-3.2381423652
 20
10.6617631986
 10
-3.2421279424
 20
10.6522718246
 10
-3.2457487266
 20
10.6425689607
 10
-3.2489851733
 20
10.6326864424
 10
-3.2512848785
 20
10.6246701463
 10
-3.2533185213
 20
10.6165616041
 10
-3.2550785238
 20
10.6083631741
 10
-3.2565573082
 20
10.6000772144
 10
-3.2577472967
 20
10.5917060832
 10
-3.2586410513
 20
10.5832549269
 10
-3.2592316927
 20
10.5747400441
 10
-3.2595124816
 20
10.5661805216
 10
-3.2594766786
 20
10.5575954463
 10
-3.2591175444
 20
10.5490039049
 10
-3.2584310855
 20
10.5404251165
 10
-3.2574242923
 20
10.5318788286
 10
-3.2561069014
 20
10.5233849212
 10
-3.2544886492
 20
10.5149632738
 10
-3.2525792721
 20
10.5066337665
 10
-3.2503874769
 20
10.4984129896
 10
-3.2479178519
 20
10.4903043765
 10
-3.2451739555
 20
10.4823080711
 10
-3.2421593465
 20
10.4744242175
 10
-3.2388775834
 20
10.4666529596
 10
-3.2353315837
 20
10.4589954294
 10
-3.2315217003
 20
10.4514567108
 10
-3.2274476453
 20
10.4440428754
 10
-3.2231091305
 20
10.4367599952
 10
-3.2185058679
 20
10.4296141419
 10
-3.2136386523
 20
10.4226130143
 10
-3.2085126102
 20
10.4157708188
 10
-3.2031339512
 20
10.4091033888
 10
-3.1975088847
 20
10.4026265577
 10
-3.1916436201
 20
10.3963561588
 10
-3.1855457168
 20
10.390306577
 10
-3.1792281333
 20
10.3844864034
 10
-3.1727051783
 20
10.3789027804
 10
-3.1659911602
 20
10.3735628505
 10
-3.1591003875
 20
10.3684737563
 10
-3.1520459134
 20
10.3636416134
 10
-3.1448357697
 20
10.3590684307
 10
-3.1374767329
 20
10.3547551902
 10
-3.1299755795
 20
10.350702874
 10
-3.122339086
 20
10.3469124642
 10
-3.1145726725
 20
10.3433854704
 10
-3.1066763332
 20
10.3401255131
 10
-3.0986487057
 20
10.3371367407
 10
-3.0904884278
 20
10.3344233014
 10
-3.0821941372
 20
10.3319893432
 10
-3.0737674254
 20
10.3298402653
 10
-3.0652216982
 20
10.32798647
 10
-3.0565733152
 20
10.3264396102
 10
-3.047838636
 20
10.325211339
 10
-3.0390340203
 20
10.3243133095
 10
-3.0316602094
 20
10.3238244137
 10
-3.0242885997
 20
10.3235724105
 10
-3.0169585987
 20
10.3235567657
 10
-3.0097028336
 20
10.3237751767
 10
-3.0025268108
 20
10.3242182678
 10
-2.9954292563
 20
10.324874895
 10
-2.9884068248
 20
10.3257354663
 10
-2.9814478846
 20
10.3267965979
 10
-2.9745387324
 20
10.3280564576
 10
-2.9642539589
 20
10.3303129211
 10
-2.9540975955
 20
10.3329946125
 10
-2.9441149088
 20
10.336082381
 10
-2.9343433553
 20
10.3395516272
 10
-2.9248120019
 20
10.3433795321
 10
-2.915524169
 20
10.3475558464
 10
-2.9064794621
 20
10.3520721832
 10
-2.8976883755
 20
10.3569150367
 10
-2.8891641254
 20
10.3620696213
 10
-2.8809199281
 20
10.3675211513
 10
-2.8745315179
 20
10.3720910987
 10
-2.8683161362
 20
10.3768632095
 10
-2.8622591191
 20
10.3818590653
 10
-2.8563458028
 20
10.3871002472
 10
-2.8505615236
 20
10.3926083366
  0
LWPOLYLINE
  5
292
100
AcDbEntity
  8
0
100
AcDbPolyline
 62
253
  6
CONTINUOUS
 90
88
 70
0
 10
-3.1636896313
 20
10.7107080587
 10
-3.1685008211
 20
10.7058120485
 10
-3.1730839139
 20
10.7008004762
 10
-3.177457139
 20
10.6956628399
 10
-3.1816387257
 20
10.6903886377
 10
-3.1856469033
 20
10.6849673678
 10
-3.1904335706
 20
10.6779715179
 10
-3.1949685575
 20
10.670730256
 10
-3.1992426523
 20
10.6632443726
 10
-3.2032466431
 20
10.6555146579
 10
-3.2069698037
 20
10.6475466512
 10
-3.2103953504
 20
10.639364888
 10
-3.213504985
 20
10.6309986523
 10
-3.2162804096
 20
10.6224772284
 10
-3.2182483562
 20
10.6155664255
 10
-3.2199845365
 20
10.6085803939
 10
-3.2214827894
 20
10.6015244837
 10
-3.222736954
 20
10.5944040448
 10
-3.2237408692
 20
10.587224427
 10
-3.2244886772
 20
10.5799922717
 10
-3.224975733
 20
10.5727193859
 10
-3.2251976946
 20
10.565418868
 10
-3.2251502203
 20
10.5581038164
 10
-3.2248289681
 20
10.5507873295
 10
-3.2242315022
 20
10.5434827778
 10
-3.2233630101
 20
10.5362046205
 10
-3.2222305854
 20
10.5289675886
 10
-3.2208413215
 20
10.5217864137
 10
-3.2192023122
 20
10.5146758267
 10
-3.2173199945
 20
10.5076484879
 10
-3.215198181
 20
10.5007087732
 10
-3.2128400279
 20
10.493858987
 10
-3.2102486912
 20
10.4871014343
 10
-3.2074273273
 20
10.4804384195
 10
-3.2043785104
 20
10.473872692
 10
-3.2011024875
 20
10.4674087791
 10
-3.1975989239
 20
10.4610516525
 10
-3.1938674848
 20
10.4548062841
 10
-3.1899078353
 20
10.4486776457
 10
-3.1857206005
 20
10.442672203
 10
-3.1813102444
 20
10.4368023973
 10
-3.1766821912
 20
10.4310821639
 10
-3.1718418646
 20
10.4255254381
 10
-3.1667946888
 20
10.420146155
 10
-3.1615474601
 20
10.4149570394
 10
-3.1561124652
 20
10.4099659734
 10
-3.1505033632
 20
10.4051796288
 10
-3.1447338133
 20
10.400604677
 10
-3.1388174747
 20
10.3962477898
 10
-3.1327665552
 20
10.3921144911
 10
-3.126587458
 20
10.3882057132
 10
-3.120285135
 20
10.3845212411
 10
-3.1138645381
 20
10.3810608595
 10
-3.1073306192
 20
10.3778243531
 10
-3.1006871015
 20
10.3748121264
 10
-3.0939327929
 20
10.3720270621
 10
-3.0870652724
 20
10.3694726627
 10
-3.0800821193
 20
10.3671524307
 10
-3.0729809126
 20
10.3650698686
 10
-3.0657621592
 20
10.3632296466
 10
-3.0584380776
 20
10.3616411064
 10
-3.0510238139
 20
10.3603147577
 10
-3.0435345144
 20
10.35926111
 10
-3.0359853253
 20
10.3584906729
 10
-3.0296637773
 20
10.3580715031
 10
-3.0233455101
 20
10.3578560131
 10
-3.0170648765
 20
10.3578439104
 10
-3.0108504767
 20
10.358033297
 10
-3.0047079003
 20
10.358415853
 10
-2.9986369846
 20
10.3589816531
 10
-2.9926355026
 20
10.3597221042
 10
-2.9866929706
 20
10.360633941
 10
-2.9807968409
 20
10.3617152306
 10
-2.9720253617
 20
10.3636492565
 10
-2.9633666624
 20
10.3659452546
 10
-2.9548556018
 20
10.3685873677
 10
-2.9465200435
 20
10.3715560994
 10
-2.9383814248
 20
10.3748335663
 10
-2.9304424722
 20
10.3784119782
 10
-2.9227036458
 20
10.3822848184
 10
-2.9151750501
 20
10.3864405716
 10
-2.9078692009
 20
10.3908664729
 10
-2.9007986138
 20
10.3955497574
 10
-2.8953168042
 20
10.3994773225
 10
-2.8899811453
 20
10.4035801059
 10
-2.8847792099
 20
10.4078767702
 10
-2.8796985708
 20
10.412385978
 10
-2.8747268008
 20
10.4171263921
  0
LWPOLYLINE
  5
293
100
AcDbEntity
  8
0
100
AcDbPolyline
 62
253
  6
CONTINUOUS
 90
16
 70
0
 10
-2.8505615236
 20
10.3926083366
 10
-2.6975075056
 20
10.5416959245
 10
-2.5429524062
 20
10.6890765875
 10
-2.3868830191
 20
10.8347669005
 10
-2.2292861382
 20
10.9787834382
 10
-2.0701485572
 20
11.1211427756
 10
-1.9094674361
 20
11.2618519548
 10
-1.7472813987
 20
11.4008798871
 10
-1.5836394352
 20
11.5381859512
 10
-1.4185905354
 20
11.6737295257
 10
-1.2521836893
 20
11.8074699892
 10
-1.0844567005
 20
11.9393752783
 10
-0.9154026256
 20
12.0694475602
 10
-0.7450033348
 20
12.19769756
 10
-0.5732406982
 20
12.3241360028
 10
-0.4000965861
 20
12.4487736138
  0
LWPOLYLINE
  5
294
100
AcDbEntity
  8
0
100
AcDbPolyline
 62
253
  6
CONTINUOUS
 90
16
 70
0
 10
-2.8747268008
 20
10.4171263921
 10
-2.7213765829
 20
10.566489212
 10
-2.5665220146
 20
10.7141419861
 10
-2.4101496601
 20
10.8601014492
 10
-2.2522460837
 20
11.0043843361
 10
-2.0927978496
 20
11.1470073816
 10
-1.9318020338
 20
11.2879776738
 10
-1.7692977583
 20
11.4272637131
 10
-1.6053346566
 20
11.5648243532
 10
-1.4399623626
 20
11.7006184478
 10
-1.2732305097
 20
11.8346048505
 10
-1.1051774062
 20
11.9667510953
 10
-0.9357960587
 20
12.0970594368
 10
-0.7650681483
 20
12.22554081
 10
-0.5929753561
 20
12.35220615
 10
-0.4194993634
 20
12.4770663916
  0
LWPOLYLINE
  5
295
100
AcDbEntity
  8
0
100
AcDbPolyline
 62
253
  6
CONTINUOUS
 90
16
 70
0
 10
-0.4127117695
 20
-12.5044286036
 10
-0.5857241959
 20
-12.3799052296
 10
-0.7574304998
 20
-12.2535327231
 10
-0.9278548585
 20
-12.1252910987
 10
-1.097021449
 20
-11.9951603709
 10
-1.2649544483
 20
-11.8631205541
 10
-1.4316617463
 20
-11.7291648929
 10
-1.5970860838
 20
-11.5933395515
 10
-1.7611539143
 20
-11.4557039241
 10
-1.9237916913
 20
-11.316317405
 10
-2.0849258684
 20
-11.1752393885
 10
-2.2444987126
 20
-11.0325155546
 10
-2.402515745
 20
-10.8881367272
 10
-2.5589983003
 20
-10.7420800162
 10
-2.7139677131
 20
-10.5943225312
 10
-2.867445318
 20
-10.4448413819
  0
LWPOLYLINE
  5
296
100
AcDbEntity
  8
0
100
AcDbPolyline
 62
253
  6
CONTINUOUS
 90
16
 70
0
 10
-0.3928151034
 20
-12.4764886036
 10
-0.5655845162
 20
-12.3521243928
 10
-0.7370421173
 20
-12.2259198655
 10
-0.9072126509
 20
-12.0978546803
 10
-1.0761208611
 20
-11.9679084958
 10
-1.243791492
 20
-11.8360609703
 10
-1.410232671
 20
-11.7023052978
 10
-1.5753860584
 20
-11.5666888134
 10
-1.7391766974
 20
-11.4292723877
 10
-1.9015296316
 20
-11.2901168911
 10
-2.0623699042
 20
-11.1492831942
 10
-2.2216387362
 20
-11.0068181767
 10
-2.3793420579
 20
-10.8627127552
 10
-2.5355019774
 20
-10.7169438558
 10
-2.6901406023
 20
-10.5694884042
 10
-2.8432800408
 20
-10.4203233264
  0
LWPOLYLINE
  5
297
100
AcDbEntity
  8
0
100
AcDbPolyline
 62
253
  6
CONTINUOUS
 90
88
 70
0
 10
-2.8432800408
 20
-10.4203233264
 10
-2.8490655054
 20
-10.4148149049
 10
-2.8549807966
 20
-10.409573382
 10
-2.8610385685
 20
-10.4045778018
 10
-2.8672514752
 20
-10.3998072087
 10
-2.8736321709
 20
-10.3952406469
 10
-2.8818586703
 20
-10.3897961307
 10
-2.8903642198
 20
-10.3846488917
 10
-2.8991459272
 20
-10.3798101518
 10
-2.9082009003
 20
-10.3752911328
 10
-2.91752136
 20
-10.3711043548
 10
-2.9270799799
 20
-10.3672675312
 10
-2.9368445466
 20
-10.3637996739
 10
-2.9467828469
 20
-10.3607197947
 10
-2.9548392603
 20
-10.358547646
 10
-2.9629837475
 20
-10.3566435116
 10
-2.9712138095
 20
-10.3550149322
 10
-2.9795269471
 20
-10.3536694487
 10
-2.9879206614
 20
-10.3526146018
 10
-2.9963896657
 20
-10.3518577352
 10
-3.0049175242
 20
-10.3514054053
 10
-3.0134850135
 20
-10.351263971
 10
-3.0220729101
 20
-10.3514397918
 10
-3.0306619907
 20
-10.3519392267
 10
-3.0392329323
 20
-10.3527658898
 10
-3.0477660135
 20
-10.3539124136
 10
-3.0562414131
 20
-10.3553686854
 10
-3.0646393102
 20
-10.3571245927
 10
-3.0729398836
 20
-10.3591700227
 10
-3.0811266147
 20
-10.3614959544
 10
-3.0891961945
 20
-10.3640977323
 10
-3.0971486166
 20
-10.3669717929
 10
-3.1049838743
 20
-10.3701145723
 10
-3.1127019612
 20
-10.3735225069
 10
-3.1203018675
 20
-10.3771926714
 10
-3.1277785701
 20
-10.3811246951
 10
-3.1351260427
 20
-10.3853188459
 10
-3.142338259
 20
-10.3897753916
 10
-3.1494091927
 20
-10.3944946002
 10
-3.1563311802
 20
-10.3994756103
 10
-3.1630900086
 20
-10.4047130439
 10
-3.1696698278
 20
-10.4102003938
 10
-3.1760547876
 20
-10.4159311528
 10
-3.1822290379
 20
-10.4218988138
 10
-3.1881782217
 20
-10.4280955402
 10
-3.1938939541
 20
-10.4345081785
 10
-3.1993693435
 20
-10.4411222461
 10
-3.2045974983
 20
-10.4479232601
 10
-3.2095715268
 20
-10.4548967378
 10
-3.2142855534
 20
-10.462029485
 10
-3.2187377668
 20
-10.4693134619
 10
-3.2229273716
 20
-10.4767419175
 10
-3.2268535725
 20
-10.4843081004
 10
-3.2305155743
 20
-10.4920052596
 10
-3.2339120291
 20
-10.4998279736
 10
-3.2370393798
 20
-10.5077761398
 10
-3.2398935167
 20
-10.5158509853
 10
-3.24247033
 20
-10.5240537371
 10
-3.2447657101
 20
-10.5323856223
 10
-3.2467743574
 20
-10.5408449166
 10
-3.248486213
 20
-10.5494180888
 10
-3.2498900278
 20
-10.5580886564
 10
-3.250974553
 20
-10.5668401369
 10
-3.2517285397
 20
-10.5756560477
 10
-3.2520975539
 20
-10.5830350009
 10
-3.2522305188
 20
-10.590407921
 10
-3.2521287376
 20
-10.5977354777
 10
-3.2517951372
 20
-10.6049851228
 10
-3.2512391385
 20
-10.6121514362
 10
-3.2504717865
 20
-10.61923578
 10
-3.2495025448
 20
-10.6262415698
 10
-3.2483345538
 20
-10.6331804362
 10
-3.246969373
 20
-10.6400660639
 10
-3.2445574402
 20
-10.6503091335
 10
-3.24172355
 20
-10.6604164878
 10
-3.2384872147
 20
-10.670343398
 10
-3.2348731535
 20
-10.6800530921
 10
-3.230904169
 20
-10.6895170946
 10
-3.2265901912
 20
-10.6987321609
 10
-3.2219392668
 20
-10.7076986468
 10
-3.2169647808
 20
-10.7164060812
 10
-3.2116814532
 20
-10.7248412863
 10
-3.2061040036
 20
-10.7329910843
 10
-3.2014352735
 20
-10.7393000394
 10
-3.1965658964
 20
-10.7454319457
 10
-3.1914740428
 20
-10.7514008485
 10
-3.1861378831
 20
-10.7572207936
 10
-3.1805355878
 20
-10.7629058263
  0
LWPOLYLINE
  5
298
100
AcDbEntity
  8
0
100
AcDbPolyline
 62
253
  6
CONTINUOUS
 90
88
 70
0
 10
-2.867445318
 20
-10.4448413819
 10
-2.8724166373
 20
-10.440102582
 10
-2.8774998125
 20
-10.4355937291
 10
-2.8827057788
 20
-10.4312966663
 10
-2.8880454711
 20
-10.4271932365
 10
-2.8935298245
 20
-10.4232652827
 10
-2.9006016524
 20
-10.4185819186
 10
-2.9079157432
 20
-10.414153759
 10
-2.9154712411
 20
-10.4099901978
 10
-2.9232672902
 20
-10.4061006284
 10
-2.9312982282
 20
-10.4024958914
 10
-2.9395391676
 20
-10.3991926143
 10
-2.9479604143
 20
-10.3962088715
 10
-2.9565322745
 20
-10.3935627374
 10
-2.9634798897
 20
-10.3917005503
 10
-2.970499528
 20
-10.3900722303
 10
-2.9775858242
 20
-10.3886840073
 10
-2.9847334128
 20
-10.3875421111
 10
-2.9919369285
 20
-10.3866527718
 10
-2.9991896769
 20
-10.3860218666
 10
-3.0064796474
 20
-10.3856538629
 10
-3.0137935005
 20
-10.3855528755
 10
-3.0211178967
 20
-10.3857230192
 10
-3.0284394962
 20
-10.3861684087
 10
-3.0357447201
 20
-10.386891223
 10
-3.0430190308
 20
-10.387885898
 10
-3.0502476516
 20
-10.3891449338
 10
-3.0574158055
 20
-10.3906608303
 10
-3.0645087156
 20
-10.3924260877
 10
-3.0715137014
 20
-10.3944339118
 10
-3.0784264672
 20
-10.3966803315
 10
-3.0852448141
 20
-10.3991620817
 10
-3.0919665428
 20
-10.4018758968
 10
-3.0985894543
 20
-10.4048185118
 10
-3.1051108865
 20
-10.4079872486
 10
-3.1115263264
 20
-10.4113817782
 10
-3.1178307981
 20
-10.4150023587
 10
-3.1240193259
 20
-10.4188492484
 10
-3.1300869339
 20
-10.4229227054
 10
-3.136027144
 20
-10.4272219742
 10
-3.1418274692
 20
-10.4317422437
 10
-3.1474739204
 20
-10.4364776887
 10
-3.1529525084
 20
-10.4414224845
 10
-3.158249244
 20
-10.4465708059
 10
-3.1633513911
 20
-10.451915483
 10
-3.1682512266
 20
-10.4574439655
 10
-3.1729422804
 20
-10.463142358
 10
-3.1774180823
 20
-10.4689967654
 10
-3.1816721625
 20
-10.4749932921
 10
-3.1856991879
 20
-10.4811195486
 10
-3.1894983751
 20
-10.4873691672
 10
-3.1930700777
 20
-10.4937372861
 10
-3.1964146492
 20
-10.5002190431
 10
-3.1995324433
 20
-10.5068095764
 10
-3.2024231729
 20
-10.5135051818
 10
-3.2050839879
 20
-10.5203067864
 10
-3.2075113975
 20
-10.527216475
 10
-3.2097019109
 20
-10.5342363325
 10
-3.2116520371
 20
-10.5413684438
 10
-3.213357197
 20
-10.5486120419
 10
-3.2148084571
 20
-10.5559549535
 10
-3.2159957958
 20
-10.5633821533
 10
-3.2169091912
 20
-10.5708786162
 10
-3.2175386215
 20
-10.5784293169
 10
-3.2178402156
 20
-10.5847479193
 10
-3.2179391537
 20
-10.5910596177
 10
-3.2178369376
 20
-10.597330277
 10
-3.2175364782
 20
-10.6035314622
 10
-3.2170463254
 20
-10.6096575386
 10
-3.2163764384
 20
-10.6157085716
 10
-3.2155353884
 20
-10.6216866985
 10
-3.2145261946
 20
-10.627602345
 10
-3.2133504882
 20
-10.6334680088
 10
-3.2112798659
 20
-10.64218723
 10
-3.2088532488
 20
-10.6507869164
 10
-3.2060864061
 20
-10.6592336391
 10
-3.2029982314
 20
-10.6675010266
 10
-3.1996058801
 20
-10.6755688477
 10
-3.195916433
 20
-10.6834343743
 10
-3.1919357768
 20
-10.691096851
 10
-3.1876750963
 20
-10.6985459092
 10
-3.1831469013
 20
-10.7057687771
 10
-3.1783637013
 20
-10.7127526827
 10
-3.1743577406
 20
-10.7181622102
 10
-3.1701777659
 20
-10.7234223192
 10
-3.1658049602
 20
-10.728544701
 10
-3.1612205067
 20
-10.733541047
 10
-3.1564055884
 20
-10.7384230485
  0
LWPOLYLINE
  5
299
100
AcDbEntity
  8
0
100
AcDbPolyline
 62
253
  6
CONTINUOUS
 90
16
 70
0
 10
-3.1805355878
 20
-10.7629058263
 10
-3.0202503695
 20
-10.91903822
 10
-2.858354332
 20
-11.0733411106
 10
-2.6948311749
 20
-11.2258339787
 10
-2.529664598
 20
-11.3765363051
 10
-2.3628383012
 20
-11.5254675705
 10
-2.1943485384
 20
-11.6726359084
 10
-2.0242417815
 20
-11.818004063
 10
-1.8525770569
 20
-11.9615234314
 10
-1.6794133907
 20
-12.1031454107
 10
-1.5048098093
 20
-12.2428213979
 10
-1.3288119447
 20
-12.3805131451
 10
-1.1514118522
 20
-12.5162238238
 10
-0.9725881932
 20
-12.6499669606
 10
-0.7923196287
 20
-12.781756082
 10
-0.61058482
 20
-12.9116047146
  0
LWPOLYLINE
  5
29A
100
AcDbEntity
  8
0
100
AcDbPolyline
 62
253
  6
CONTINUOUS
 90
16
 70
0
 10
-3.1564055884
 20
-10.7384230485
 10
-2.9963931869
 20
-10.8942898506
 10
-2.8347725147
 20
-11.0483311494
 10
-2.6715273463
 20
-11.2005663296
 10
-2.506641456
 20
-11.3510147757
 10
-2.3400986185
 20
-11.4996958721
 10
-2.1718951
 20
-11.6466177073
 10
-2.0020771347
 20
-11.7917431854
 10
-1.8307034486
 20
-11.9350239143
 10
-1.6578327676
 20
-12.0764115022
 10
-1.4835238179
 20
-12.2158575569
 10
-1.3078219938
 20
-12.3533239887
 10
-1.1307193629
 20
-12.4888139161
 10
-0.9521946609
 20
-12.6223407602
 10
-0.7722266237
 20
-12.7539179416
 10
-0.5907939872
 20
-12.8835588813
  0
LINE
  5
29B
100
AcDbEntity
  8
0
100
AcDbLine
 62
253
  6
CONTINUOUS
 10
-11.3620830531
 20
0.6860473229
 11
-11.2202011387
 21
0.7333316893
  0
LINE
  5
29C
100
AcDbEntity
  8
0
100
AcDbLine
 62
253
  6
CONTINUOUS
 10
-11.2202011361
 20
-0.76104668
 11
-11.3620830531
 21
-0.7137623127
  0
LWPOLYLINE
  5
29D
100
AcDbEntity
  8
0
100
AcDbPolyline
 62
253
  6
CONTINUOUS
 90
11
 70
0
 10
-11.2493789278
 20
21.5112171793
 10
-11.2480851626
 20
21.5068646701
 10
-11.2468132014
 20
21.4991709003
 10
-11.2455630444
 20
21.4881358698
 10
-11.2443281418
 20
21.473670667
 10
-11.2431150433
 20
21.4558642035
 10
-11.2419433976
 20
21.4349832145
 10
-11.2408143915
 20
21.4109829531
 10
-11.2397268383
 20
21.3839081661
 10
-11.2386968266
 20
21.3541598289
 10
-11.2377252124
 20
21.3216962937
  0
LINE
  5
29E
100
AcDbEntity
  8
0
100
AcDbLine
 62
253
  6
CONTINUOUS
 10
-10.8620259131
 20
0.1861425051
 11
-10.7203724762
 21
0.2333507277
  0
LINE
  5
29F
100
AcDbEntity
  8
0
100
AcDbLine
 62
253
  6
CONTINUOUS
 10
-10.7203724749
 20
-0.261065718
 11
-10.8620259131
 21
-0.2138574949
  0
LINE
  5
2A0
100
AcDbEntity
  8
0
100
AcDbLine
 62
253
  6
CONTINUOUS
 10
10.0761244068
 20
22.0105319479
 11
10.1683028642
 21
22.1950153635
  0
LINE
  5
2A1
100
AcDbEntity
  8
0
100
AcDbLine
 62
253
  6
CONTINUOUS
 10
-11.2493789284
 20
-21.5389321704
 11
-11.342355145
 21
-21.7250121991
  0
LINE
  5
2A2
100
AcDbEntity
  8
0
100
AcDbLine
 62
253
  6
CONTINUOUS
 10
10.5759530693
 20
21.5112171806
 11
10.6689292858
 21
21.6972972092
  0
LINE
  5
2A3
100
AcDbEntity
  8
0
100
AcDbLine
 62
7
  6
CONTINUOUS
 10
7.9132870704
 20
-0.2487649661
 11
8.2632417245
 21
-0.2138574949
  0
LINE
  5
2A4
100
AcDbEntity
  8
0
100
AcDbLine
 62
253
  6
CONTINUOUS
 10
10.5467752795
 20
-0.7610466791
 11
10.5431409501
 21
-0.7611216603
  0
LINE
  5
2A5
100
AcDbEntity
  8
0
100
AcDbLine
 62
253
  6
CONTINUOUS
 10
10.5431409501
 20
-0.7611216603
 11
10.5218754617
 21
-0.7612687935
  0
LINE
  5
2A6
100
AcDbEntity
  8
0
100
AcDbLine
 62
253
  6
CONTINUOUS
 10
10.046946617
 20
-0.2610657176
 11
3.1259929476
 21
-0.2645111162
  0
LINE
  5
2A7
100
AcDbEntity
  8
0
100
AcDbLine
 62
253
  6
CONTINUOUS
 10
-10.7203724762
 20
0.2333507277
 11
-3.7994188068
 21
0.2367961263
  0
LINE
  5
2A8
100
AcDbEntity
  8
0
100
AcDbLine
 62
253
  6
CONTINUOUS
 10
10.5218754617
 20
-0.7612687935
 11
3.1402181479
 21
-0.7654127504
  0
LINE
  5
2A9
100
AcDbEntity
  8
0
100
AcDbLine
 62
7
  6
CONTINUOUS
 10
7.9132870704
 20
-0.2487649661
 11
-8.5867129296
 21
-0.2487649661
  0
LINE
  5
2AA
100
AcDbEntity
  8
0
100
AcDbLine
 62
7
  6
CONTINUOUS
 10
10.1886000539
 20
-0.2138574949
 11
8.2632417245
 21
-0.2138574949
  0
LINE
  5
2AB
100
AcDbEntity
  8
0
100
AcDbLine
 62
7
  6
CONTINUOUS
 10
-8.9366675837
 20
-0.2138574949
 11
-10.8620259131
 21
-0.2138574949
  0
LINE
  5
2AC
100
AcDbEntity
  8
0
100
AcDbLine
 62
7
  6
CONTINUOUS
 10
-10.8620259131
 20
0.1861425051
 11
-8.9366675837
 21
0.1861425051
  0
LINE
  5
2AD
100
AcDbEntity
  8
0
100
AcDbLine
 62
7
  6
CONTINUOUS
 10
8.2632417245
 20
0.1861425051
 11
10.1886000539
 21
0.1861425051
  0
LINE
  5
2AE
100
AcDbEntity
  8
0
100
AcDbLine
 62
7
  6
CONTINUOUS
 10
-8.5867129296
 20
0.2210499762
 11
7.9132870704
 21
0.2210499762
  0
LINE
  5
2AF
100
AcDbEntity
  8
0
100
AcDbLine
 62
253
  6
CONTINUOUS
 10
3.1402181479
 20
-0.7654127504
 11
-3.8136408627
 21
-0.7654127512
  0
LINE
  5
2B0
100
AcDbEntity
  8
0
100
AcDbLine
 62
253
  6
CONTINUOUS
 10
3.1259929476
 20
-0.2645111162
 11
-3.7994214016
 21
-0.2645111156
  0
LINE
  5
2B1
100
AcDbEntity
  8
0
100
AcDbLine
 62
253
  6
CONTINUOUS
 10
-3.7994188068
 20
0.2367961263
 11
3.1259955424
 21
0.2367961257
  0
LINE
  5
2B2
100
AcDbEntity
  8
0
100
AcDbLine
 62
253
  6
CONTINUOUS
 10
-3.7994214016
 20
-0.2645111156
 11
-10.7203724749
 21
-0.261065718
  0
LINE
  5
2B3
100
AcDbEntity
  8
0
100
AcDbLine
 62
253
  6
CONTINUOUS
 10
3.1259955424
 20
0.2367961257
 11
10.0469466157
 21
0.2333507281
  0
LINE
  5
2B4
100
AcDbEntity
  8
0
100
AcDbLine
 62
253
  6
CONTINUOUS
 10
-3.8136408627
 20
-0.7654127512
 11
-11.1953013185
 21
-0.7612687892
  0
LWPOLYLINE
  5
2B5
100
AcDbEntity
  8
0
100
AcDbPolyline
 62
253
  6
CONTINUOUS
 90
3
 70
0
 10
-11.1953013185
 20
-0.7612687892
 10
-11.2165668068
 20
-0.7611216595
 10
-11.2202011362
 20
-0.76104668
  0
LINE
  5
2B6
100
AcDbEntity
  8
0
100
AcDbLine
 62
7
  6
CONTINUOUS
 10
-8.5867129296
 20
-0.2487649661
 11
-8.9366675837
 21
-0.2138574949
  0
LINE
  5
2B7
100
AcDbEntity
  8
0
100
AcDbLine
 62
253
  6
CONTINUOUS
 10
10.1683028642
 20
-22.2227303534
 11
10.0761244062
 21
-22.0382469366
  0
LINE
  5
2B8
100
AcDbEntity
  8
0
100
AcDbLine
 62
253
  6
CONTINUOUS
 10
-11.342355145
 20
21.6972972092
 11
-11.2493789278
 21
21.5112171793
  0
LINE
  5
2B9
100
AcDbEntity
  8
0
100
AcDbLine
 62
253
  6
CONTINUOUS
 10
10.6689292858
 20
-21.7250121991
 11
10.5759530686
 21
-21.5389321692
  0
LINE
  5
2BA
100
AcDbEntity
  8
0
100
AcDbLine
 62
253
  6
CONTINUOUS
 10
-10.7495502659
 20
-22.0382469378
 11
-10.8417287234
 21
-22.2227303534
  0
LINE
  5
2BB
100
AcDbEntity
  8
0
100
AcDbLine
 62
7
  6
CONTINUOUS
 10
-8.5867129296
 20
0.2210499762
 11
-8.9366675837
 21
0.1861425051
  0
LINE
  5
2BC
100
AcDbEntity
  8
0
100
AcDbLine
 62
253
  6
CONTINUOUS
 10
-11.2202011387
 20
0.7333316892
 11
-11.2165668093
 21
0.7334066704
  0
LINE
  5
2BD
100
AcDbEntity
  8
0
100
AcDbLine
 62
253
  6
CONTINUOUS
 10
-11.2165668093
 20
0.7334066704
 11
-11.1953013209
 21
0.7335538036
  0
LINE
  5
2BE
100
AcDbEntity
  8
0
100
AcDbLine
 62
253
  6
CONTINUOUS
 10
-11.1953013209
 20
0.7335538036
 11
-3.813644007
 21
0.7376977605
  0
LINE
  5
2BF
100
AcDbEntity
  8
0
100
AcDbLine
 62
253
  6
CONTINUOUS
 10
-3.813644007
 20
0.7376977605
 11
3.1402150035
 21
0.7376977614
  0
LINE
  5
2C0
100
AcDbEntity
  8
0
100
AcDbLine
 62
253
  6
CONTINUOUS
 10
3.1402150035
 20
0.7376977614
 11
10.2754160669
 21
0.7340089017
  0
LINE
  5
2C1
100
AcDbEntity
  8
0
100
AcDbLine
 62
253
  6
CONTINUOUS
 10
10.2754160669
 20
0.7340089017
 11
10.5218754594
 21
0.7335537994
  0
LWPOLYLINE
  5
2C2
100
AcDbEntity
  8
0
100
AcDbPolyline
 62
253
  6
CONTINUOUS
 90
3
 70
0
 10
10.5218754594
 20
0.7335537994
 10
10.5431409477
 20
0.7334066696
 10
10.546775277
 20
0.7333316901
  0
LINE
  5
2C3
100
AcDbEntity
  8
0
100
AcDbLine
 62
7
  6
CONTINUOUS
 10
7.9132870704
 20
0.2210499762
 11
8.2632417245
 21
0.1861425051
  0
LINE
  5
2C4
100
AcDbEntity
  8
0
100
AcDbLine
 62
253
  6
CONTINUOUS
 10
-10.8417287234
 20
22.1950153635
 11
-10.7495502653
 21
22.0105319467
  0
LINE
  5
2C5
100
AcDbEntity
  8
0
100
AcDbLine
 62
253
  6
CONTINUOUS
 10
10.1886000539
 20
-0.2138574949
 11
10.046946617
 21
-0.2610657176
  0
LINE
  5
2C6
100
AcDbEntity
  8
0
100
AcDbLine
 62
253
  6
CONTINUOUS
 10
10.6886571939
 20
-0.7137623127
 11
10.5467752795
 21
-0.7610466791
  0
LINE
  5
2C7
100
AcDbEntity
  8
0
100
AcDbLine
 62
253
  6
CONTINUOUS
 10
10.0469466157
 20
0.2333507281
 11
10.1886000539
 21
0.1861425051
  0
LINE
  5
2C8
100
AcDbEntity
  8
0
100
AcDbLine
 62
253
  6
CONTINUOUS
 10
10.5467752769
 20
0.7333316901
 11
10.6886571939
 21
0.6860473229
  0
LWPOLYLINE
  5
2C9
100
AcDbEntity
  8
0
100
AcDbPolyline
 62
253
  6
CONTINUOUS
 90
10
 70
0
 10
10.5759530686
 20
-21.5389321692
 10
10.5746593034
 20
-21.53457966
 10
10.5733873423
 20
-21.5268858902
 10
10.5721371852
 20
-21.5158508597
 10
10.5709022826
 20
-21.5013856568
 10
10.5696891841
 20
-21.4835791934
 10
10.5685175384
 20
-21.4626982043
 10
10.5673885323
 20
-21.438697943
 10
10.5663009791
 20
-21.411623156
 10
10.5652709675
 20
-21.3818748187
  0
LWPOLYLINE
  5
2CA
100
AcDbEntity
  8
0
100
AcDbPolyline
 62
253
  6
CONTINUOUS
 90
8
 70
0
 10
10.0755659598
 20
-0.3913579227
 10
10.0719268043
 20
-0.3582587405
 10
10.0679958278
 20
-0.329615784
 10
10.0643459604
 20
-0.3056929504
 10
10.0600733837
 20
-0.2866532364
 10
10.0551804305
 20
-0.2727540643
 10
10.050642298
 20
-0.2642078396
 10
10.046946617
 20
-0.2610657176
  0
LWPOLYLINE
  5
2CB
100
AcDbEntity
  8
0
100
AcDbPolyline
 62
253
  6
CONTINUOUS
 90
16
 70
0
 10
10.5467752795
 20
-0.7610466791
 10
10.5440897429
 20
-0.7094007475
 10
10.5360495741
 20
-0.6581367607
 10
10.5226879635
 20
-0.6078152515
 10
10.5040740426
 20
-0.5589430101
 10
10.48037242
 20
-0.5121305663
 10
10.4518968289
 20
-0.4680584242
 10
10.4190019932
 20
-0.4272583714
 10
10.3820181621
 20
-0.3901251347
 10
10.3413409151
 20
-0.3570593247
 10
10.2974068121
 20
-0.3284234024
 10
10.2507035951
 20
-0.3045423064
 10
10.2017568821
 20
-0.2856873362
 10
10.1511101811
 20
-0.2720671053
 10
10.099316709
 20
-0.2638296605
 10
10.046946617
 20
-0.2610657176
  0
LWPOLYLINE
  5
2CC
100
AcDbEntity
  8
0
100
AcDbPolyline
 62
253
  6
CONTINUOUS
 90
4
 70
0
 10
10.0858721509
 20
-0.5596188688
 10
10.0840712077
 20
-0.5129071385
 10
10.0813570514
 20
-0.4689362228
 10
10.0755659598
 20
-0.3913579227
  0
LINE
  5
2CD
100
AcDbEntity
  8
0
100
AcDbLine
 62
253
  6
CONTINUOUS
 10
10.5652709675
 20
-21.3818748187
 11
10.5633852805
 21
-21.3142741981
  0
LINE
  5
2CE
100
AcDbEntity
  8
0
100
AcDbLine
 62
253
  6
CONTINUOUS
 10
10.5633852805
 20
-21.3142741981
 11
10.5617714583
 21
-21.2375274522
  0
LINE
  5
2CF
100
AcDbEntity
  8
0
100
AcDbLine
 62
253
  6
CONTINUOUS
 10
10.0853852221
 20
21.7412865943
 11
10.0835114067
 21
21.8385316622
  0
LINE
  5
2D0
100
AcDbEntity
  8
0
100
AcDbLine
 62
253
  6
CONTINUOUS
 10
10.5617714583
 20
-21.2375274522
 11
10.560453142
 21
-21.1527754504
  0
LINE
  5
2D1
100
AcDbEntity
  8
0
100
AcDbLine
 62
253
  6
CONTINUOUS
 10
10.0878846817
 20
21.5618152427
 11
10.0853852221
 21
21.7412865943
  0
LINE
  5
2D2
100
AcDbEntity
  8
0
100
AcDbLine
 62
253
  6
CONTINUOUS
 10
10.560453142
 20
-21.1527754504
 11
10.5590946574
 21
-21.014767291
  0
LINE
  5
2D3
100
AcDbEntity
  8
0
100
AcDbLine
 62
253
  6
CONTINUOUS
 10
10.0904581098
 20
21.272628019
 11
10.0878846817
 21
21.5618152427
  0
LWPOLYLINE
  5
2D4
100
AcDbEntity
  8
0
100
AcDbPolyline
 62
253
  6
CONTINUOUS
 90
3
 70
0
 10
10.0896127336
 20
0.7340988768
 10
10.0898376008
 20
0.681110282
 10
10.0889850292
 20
0.6298597209
  0
LINE
  5
2D5
100
AcDbEntity
  8
0
100
AcDbLine
 62
253
  6
CONTINUOUS
 10
10.0921856524
 20
20.8634099857
 11
10.0904581098
 21
21.272628019
  0
LINE
  5
2D6
100
AcDbEntity
  8
0
100
AcDbLine
 62
253
  6
CONTINUOUS
 10
10.5590946574
 20
-21.014767291
 11
10.5585265541
 21
-20.8696828518
  0
LINE
  5
2D7
100
AcDbEntity
  8
0
100
AcDbLine
 62
253
  6
CONTINUOUS
 10
10.5585265541
 20
-20.8696828518
 11
10.5560858757
 21
-18.558318131
  0
LINE
  5
2D8
100
AcDbEntity
  8
0
100
AcDbLine
 62
253
  6
CONTINUOUS
 10
10.0896125177
 20
0.7340988804
 11
10.0921856472
 21
20.8634099866
  0
LINE
  5
2D9
100
AcDbEntity
  8
0
100
AcDbLine
 62
253
  6
CONTINUOUS
 10
10.0917122322
 20
-21.058467045
 11
10.0896125293
 21
-0.7618138757
  0
LWPOLYLINE
  5
2DA
100
AcDbEntity
  8
0
100
AcDbPolyline
 62
253
  6
CONTINUOUS
 90
4
 70
0
 10
10.0896127363
 20
-0.7618138779
 10
10.0898374748
 20
-0.7088272802
 10
10.0889849844
 20
-0.6575783928
 10
10.0858721509
 20
-0.5596188688
  0
LINE
  5
2DB
100
AcDbEntity
  8
0
100
AcDbLine
 62
253
  6
CONTINUOUS
 10
10.5585265544
 20
20.841967864
 11
10.5590946581
 21
20.9870523031
  0
LINE
  5
2DC
100
AcDbEntity
  8
0
100
AcDbLine
 62
253
  6
CONTINUOUS
 10
10.0892868721
 20
-21.4509334754
 11
10.0917122322
 21
-21.058467045
  0
LINE
  5
2DD
100
AcDbEntity
  8
0
100
AcDbLine
 62
253
  6
CONTINUOUS
 10
10.5590946581
 20
20.9870523031
 11
10.5604531427
 21
21.1250604626
  0
LINE
  5
2DE
100
AcDbEntity
  8
0
100
AcDbLine
 62
253
  6
CONTINUOUS
 10
10.0870967098
 20
-21.6534600593
 11
10.0892868721
 21
-21.4509334754
  0
LINE
  5
2DF
100
AcDbEntity
  8
0
100
AcDbLine
 62
253
  6
CONTINUOUS
 10
10.0853852212
 20
-21.7690015821
 11
10.0870967098
 21
-21.6534600593
  0
LINE
  5
2E0
100
AcDbEntity
  8
0
100
AcDbLine
 62
253
  6
CONTINUOUS
 10
10.5604531427
 20
21.1250604626
 11
10.561771459
 21
21.2098124645
  0
LINE
  5
2E1
100
AcDbEntity
  8
0
100
AcDbLine
 62
253
  6
CONTINUOUS
 10
10.0835114058
 20
-21.8662466509
 11
10.0853852212
 21
-21.7690015821
  0
LINE
  5
2E2
100
AcDbEntity
  8
0
100
AcDbLine
 62
253
  6
CONTINUOUS
 10
10.561771459
 20
21.2098124645
 11
10.5633852811
 21
21.2865592103
  0
LWPOLYLINE
  5
2E3
100
AcDbEntity
  8
0
100
AcDbPolyline
 62
253
  6
CONTINUOUS
 90
11
 70
0
 10
10.5633852811
 20
21.2865592103
 10
10.5652709681
 20
21.3541598308
 10
10.5663009798
 20
21.3839081679
 10
10.567388533
 20
21.4109829548
 10
10.5685175391
 20
21.434983216
 10
10.5696891847
 20
21.4558642051
 10
10.5709022832
 20
21.4736706685
 10
10.5721371858
 20
21.4881358713
 10
10.5733873429
 20
21.4991709018
 10
10.574659304
 20
21.5068646715
 10
10.5759530693
 20
21.5112171806
  0
LWPOLYLINE
  5
2E4
100
AcDbEntity
  8
0
100
AcDbPolyline
 62
253
  6
CONTINUOUS
 90
4
 70
0
 10
10.0889850292
 20
0.6298597209
 10
10.0858718977
 20
0.5318978588
 10
10.0840709151
 20
0.4851854692
 10
10.0813566211
 20
0.4412143361
  0
LWPOLYLINE
  5
2E5
100
AcDbEntity
  8
0
100
AcDbPolyline
 62
253
  6
CONTINUOUS
 90
16
 70
0
 10
10.5467752769
 20
0.7333316901
 10
10.5440897353
 20
0.6816857105
 10
10.536049554
 20
0.630421688
 10
10.5226879267
 20
0.580100156
 10
10.5040739891
 20
0.5312279059
 10
10.4803723531
 20
0.4844154653
 10
10.4518967527
 20
0.4403433334
 10
10.4190019145
 20
0.3995432975
 10
10.3820180885
 20
0.3624100814
 10
10.3413408488
 20
0.3293442891
 10
10.2974067513
 20
0.3007083796
 10
10.2507035402
 20
0.276827294
 10
10.201756836
 20
0.2579723329
 10
10.1511101474
 20
0.2443521097
 10
10.0993166899
 20
0.2361146698
 10
10.0469466145
 20
0.2333507286
  0
LWPOLYLINE
  5
2E6
100
AcDbEntity
  8
0
100
AcDbPolyline
 62
253
  6
CONTINUOUS
 90
9
 70
0
 10
10.0813566211
 20
0.4412143361
 10
10.0755653805
 20
0.3636369737
 10
10.0719262155
 20
0.3305387199
 10
10.0679952167
 20
0.3018968793
 10
10.0643454113
 20
0.2779752261
 10
10.0600729546
 20
0.2589365846
 10
10.0551801485
 20
0.2450382735
 10
10.0506421719
 20
0.2364926294
 10
10.0469466149
 20
0.2333507286
  0
LWPOLYLINE
  5
2E7
100
AcDbEntity
  8
0
100
AcDbPolyline
 62
253
  6
CONTINUOUS
 90
88
 70
0
 10
2.5143912114
 20
-10.7629058263
 10
2.5199810653
 20
-10.7572082505
 10
2.5253070662
 20
-10.751377206
 10
2.5303902864
 20
-10.7454003282
 10
2.5352517983
 20
-10.739265252
 10
2.5399126744
 20
-10.7329596126
 10
2.5454799876
 20
-10.7248233411
 10
2.550755449
 20
-10.7164039106
 10
2.5557277747
 20
-10.7077039873
 10
2.5603856806
 20
-10.6987262374
 10
2.5647165061
 20
-10.6894781885
 10
2.5687020832
 20
-10.6799868145
 10
2.5723228675
 20
-10.6702839506
 10
2.5755593142
 20
-10.6604014323
 10
2.5778590193
 20
-10.6523851362
 10
2.5798926621
 20
-10.644276594
 10
2.5816526646
 20
-10.636078164
 10
2.583131449
 20
-10.6277922043
 10
2.5843214376
 20
-10.6194210731
 10
2.5852151921
 20
-10.6109699167
 10
2.5858058335
 20
-10.6024550339
 10
2.5860866224
 20
-10.5938955115
 10
2.5860508195
 20
-10.5853104361
 10
2.5856916852
 20
-10.5767188948
 10
2.5850052263
 20
-10.5681401064
 10
2.5839984331
 20
-10.5595938185
 10
2.5826810422
 20
-10.551099911
 10
2.58106279
 20
-10.5426782637
 10
2.5791534129
 20
-10.5343487564
 10
2.5769616177
 20
-10.5261279795
 10
2.5744919927
 20
-10.5180193664
 10
2.5717480964
 20
-10.510023061
 10
2.5687334874
 20
-10.5021392074
 10
2.5654517242
 20
-10.4943679495
 10
2.5619057245
 20
-10.4867104193
 10
2.5580958411
 20
-10.4791717006
 10
2.5540217861
 20
-10.4717578653
 10
2.5496832713
 20
-10.4644749851
 10
2.5450800087
 20
-10.4573291318
 10
2.5402127931
 20
-10.4503280042
 10
2.5350867511
 20
-10.4434858087
 10
2.529708092
 20
-10.4368183787
 10
2.5240830255
 20
-10.4303415476
 10
2.5182177609
 20
-10.4240711487
 10
2.5121198576
 20
-10.4180215669
 10
2.5058022742
 20
-10.4122013933
 10
2.4992793191
 20
-10.4066177703
 10
2.492565301
 20
-10.4012778404
 10
2.4856745283
 20
-10.3961887461
 10
2.4786200542
 20
-10.3913566033
 10
2.4714099105
 20
-10.3867834206
 10
2.4640508737
 20
-10.3824701801
 10
2.4565497203
 20
-10.3784178639
 10
2.4489132268
 20
-10.374627454
 10
2.4411468133
 20
-10.3711004602
 10
2.433250474
 20
-10.367840503
 10
2.4252228465
 20
-10.3648517306
 10
2.4170625686
 20
-10.3621382912
 10
2.4087682781
 20
-10.3597043331
 10
2.4003415662
 20
-10.3575552552
 10
2.391795839
 20
-10.3557014598
 10
2.383147456
 20
-10.3541546
 10
2.3744127769
 20
-10.3529263288
 10
2.3656081611
 20
-10.3520282994
 10
2.3582343502
 20
-10.3515394035
 10
2.3508627406
 20
-10.3512874003
 10
2.3435327396
 20
-10.3512717555
 10
2.3362769745
 20
-10.3514901665
 10
2.3291009516
 20
-10.3519332577
 10
2.3220033972
 20
-10.3525898849
 10
2.3149809656
 20
-10.3534504562
 10
2.3080220254
 20
-10.3545115877
 10
2.3011128732
 20
-10.3557714475
 10
2.2908280997
 20
-10.358027911
 10
2.2806717363
 20
-10.3607096024
 10
2.2706890496
 20
-10.3637973709
 10
2.2609174961
 20
-10.3672666171
 10
2.2513861428
 20
-10.371094522
 10
2.2420983098
 20
-10.3752708362
 10
2.233053603
 20
-10.3797871731
 10
2.2242625163
 20
-10.3846300266
 10
2.2157382662
 20
-10.3897846112
 10
2.2074940689
 20
-10.3952361412
 10
2.2011056587
 20
-10.3998060885
 10
2.194890277
 20
-10.4045781994
 10
2.1888332599
 20
-10.4095740551
 10
2.1829199436
 20
-10.414815237
 10
2.1771356644
 20
-10.4203233264
  0
LWPOLYLINE
  5
2E8
100
AcDbEntity
  8
0
100
AcDbPolyline
 62
253
  6
CONTINUOUS
 90
88
 70
0
 10
2.4902637721
 20
-10.7384230485
 10
2.4950749619
 20
-10.7335270384
 10
2.4996580547
 20
-10.7285154661
 10
2.5040312798
 20
-10.7233778297
 10
2.5082128666
 20
-10.7181036275
 10
2.5122210442
 20
-10.7126823576
 10
2.5170077114
 20
-10.7056865078
 10
2.5215426983
 20
-10.6984452459
 10
2.5258167931
 20
-10.6909593624
 10
2.5298207839
 20
-10.6832296477
 10
2.5335439445
 20
-10.6752616411
 10
2.5369694912
 20
-10.6670798778
 10
2.5400791259
 20
-10.6587136421
 10
2.5428545504
 20
-10.6501922182
 10
2.544822497
 20
-10.6432814153
 10
2.5465586773
 20
-10.6362953838
 10
2.5480569302
 20
-10.6292394736
 10
2.5493110948
 20
-10.6221190346
 10
2.55031501
 20
-10.6149394168
 10
2.551062818
 20
-10.6077072616
 10
2.5515498738
 20
-10.6004343758
 10
2.5517718354
 20
-10.5931338579
 10
2.5517243611
 20
-10.5858188063
 10
2.5514031089
 20
-10.5785023194
 10
2.550805643
 20
-10.5711977677
 10
2.5499371509
 20
-10.5639196103
 10
2.5488047262
 20
-10.5566825785
 10
2.5474154624
 20
-10.5495014035
 10
2.545776453
 20
-10.5423908166
 10
2.5438941354
 20
-10.5353634778
 10
2.5417723219
 20
-10.528423763
 10
2.5394141687
 20
-10.5215739769
 10
2.5368228321
 20
-10.5148164241
 10
2.5340014681
 20
-10.5081534094
 10
2.5309526512
 20
-10.5015876819
 10
2.5276766284
 20
-10.495123769
 10
2.5241730648
 20
-10.4887666424
 10
2.5204416256
 20
-10.482521274
 10
2.5164819762
 20
-10.4763926355
 10
2.5122947413
 20
-10.4703871928
 10
2.5078843853
 20
-10.4645173872
 10
2.503256332
 20
-10.4587971538
 10
2.4984160054
 20
-10.4532404279
 10
2.4933688296
 20
-10.4478611449
 10
2.4881216009
 20
-10.4426720293
 10
2.482686606
 20
-10.4376809633
 10
2.477077504
 20
-10.4328946186
 10
2.4713079542
 20
-10.4283196669
 10
2.4653916155
 20
-10.4239627797
 10
2.459340696
 20
-10.4198294809
 10
2.4531615988
 20
-10.4159207031
 10
2.4468592758
 20
-10.412236231
 10
2.4404386789
 20
-10.4087758494
 10
2.43390476
 20
-10.405539343
 10
2.4272612423
 20
-10.4025271162
 10
2.4205069337
 20
-10.399742052
 10
2.4136394133
 20
-10.3971876526
 10
2.4066562601
 20
-10.3948674206
 10
2.3995550534
 20
-10.3927848585
 10
2.3923363
 20
-10.3909446364
 10
2.3850122184
 20
-10.3893560963
 10
2.3775979547
 20
-10.3880297476
 10
2.3701086553
 20
-10.3869760999
 10
2.3625594662
 20
-10.3862056627
 10
2.3562379181
 20
-10.385786493
 10
2.3499196509
 20
-10.385571003
 10
2.3436390174
 20
-10.3855589003
 10
2.3374246175
 20
-10.3857482868
 10
2.3312820411
 20
-10.3861308428
 10
2.3252111254
 20
-10.386696643
 10
2.3192096434
 20
-10.387437094
 10
2.3132671114
 20
-10.3883489309
 10
2.3073709817
 20
-10.3894302205
 10
2.2985995025
 20
-10.3913642464
 10
2.2899408033
 20
-10.3936602444
 10
2.2814297426
 20
-10.3963023576
 10
2.2730941843
 20
-10.3992710892
 10
2.2649555656
 20
-10.4025485562
 10
2.257016613
 20
-10.406126968
 10
2.2492777866
 20
-10.4099998083
 10
2.2417491909
 20
-10.4141555615
 10
2.2344433417
 20
-10.4185814628
 10
2.2273727546
 20
-10.4232647473
 10
2.221890945
 20
-10.4271923124
 10
2.2165552862
 20
-10.4312950958
 10
2.2113533508
 20
-10.4355917601
 10
2.2062727116
 20
-10.4401009679
 10
2.2013009416
 20
-10.4448413819
  0
LWPOLYLINE
  5
2E9
100
AcDbEntity
  8
0
100
AcDbPolyline
 62
253
  6
CONTINUOUS
 90
16
 70
0
 10
2.1771356644
 20
-10.4203233264
 10
2.0240816464
 20
-10.5694109143
 10
1.869526547
 20
-10.7167915773
 10
1.7134571599
 20
-10.8624818903
 10
1.555860279
 20
-11.0064984281
 10
1.3967226981
 20
-11.1488577655
 10
1.2360415769
 20
-11.2895669447
 10
1.0738555396
 20
-11.428594877
 10
0.910213576
 20
-11.565900941
 10
0.7451646762
 20
-11.7014445155
 10
0.5787578302
 20
-11.8351849791
 10
0.4110308413
 20
-11.9670902681
 10
0.2419767664
 20
-12.09716255
 10
0.0715774756
 20
-12.2254125498
 10
-0.100185161
 20
-12.3518509927
 10
-0.2733292731
 20
-12.4764886036
  0
LWPOLYLINE
  5
2EA
100
AcDbEntity
  8
0
100
AcDbPolyline
 62
253
  6
CONTINUOUS
 90
16
 70
0
 10
2.2013009416
 20
-10.4448413819
 10
2.0479507237
 20
-10.5942042019
 10
1.8930961554
 20
-10.741856976
 10
1.7367238009
 20
-10.8878164391
 10
1.5788202245
 20
-11.032099326
 10
1.4193719904
 20
-11.1747223715
 10
1.2583761746
 20
-11.3156926637
 10
1.0958718991
 20
-11.454978703
 10
0.9319087974
 20
-11.5925393431
 10
0.7665365034
 20
-11.7283334377
 10
0.5998046505
 20
-11.8623198404
 10
0.431751547
 20
-11.9944660851
 10
0.2623701995
 20
-12.1247744266
 10
0.0916422891
 20
-12.2532557999
 10
-0.080450503
 20
-12.3799211398
 10
-0.2539264958
 20
-12.5047813814
  0
LWPOLYLINE
  5
2EB
100
AcDbEntity
  8
0
100
AcDbPolyline
 62
253
  6
CONTINUOUS
 90
16
 70
0
 10
-0.0755620559
 20
-12.8835588813
 10
0.105710163
 20
-12.7540689625
 10
0.2855447657
 20
-12.622623741
 10
0.463962691
 20
-12.4892090912
 10
0.6409848781
 20
-12.353810887
 10
0.8166322657
 20
-12.2164150028
 10
0.99091239
 20
-12.0770176772
 10
1.1637791752
 20
-11.9356566063
 10
1.3351731424
 20
-11.7923798511
 10
1.5050348128
 20
-11.647235472
 10
1.6733047078
 20
-11.50027153
 10
1.8399358923
 20
-11.3515247461
 10
2.0049316068
 20
-11.200986483
 10
2.1683076354
 20
-11.0486367636
 10
2.3300797624
 20
-10.8944556112
 10
2.4902637721
 20
-10.7384230485
  0
LWPOLYLINE
  5
2EC
100
AcDbEntity
  8
0
100
AcDbPolyline
 62
253
  6
CONTINUOUS
 90
16
 70
0
 10
-0.0558065008
 20
-12.9116047146
 10
0.1258155671
 20
-12.7818709568
 10
0.3059914756
 20
-12.650182302
 10
0.4847423104
 20
-12.5165246564
 10
0.6620891576
 20
-12.3808839259
 10
0.838053103
 20
-12.2432460166
 10
1.0126417767
 20
-12.1036072419
 10
1.1858089864
 20
-11.962005546
 10
1.3574950842
 20
-11.8184892803
 10
1.5276404221
 20
-11.6731067964
 10
1.6961853521
 20
-11.5259064458
 10
1.8630828262
 20
-11.3769251947
 10
2.0283361968
 20
-11.2261544678
 10
2.1919614162
 20
-11.0735743046
 10
2.353974437
 20
-10.9191647443
 10
2.5143912114
 20
-10.7629058263
  0
LWPOLYLINE
  5
2ED
100
AcDbEntity
  8
0
100
AcDbPolyline
 62
253
  6
CONTINUOUS
 90
45
 70
0
 10
-0.2733292731
 20
-12.4764886036
 10
-0.2756668203
 20
-12.4780703987
 10
-0.278008292
 20
-12.4795724416
 10
-0.2803564626
 20
-12.4809974475
 10
-0.2827141065
 20
-12.4823481315
 10
-0.285083998
 20
-12.4836272088
 10
-0.2874689115
 20
-12.4848373946
 10
-0.2898716214
 20
-12.4859814041
 10
-0.292294902
 20
-12.4870619523
 10
-0.2950921425
 20
-12.4882217782
 10
-0.2979181918
 20
-12.4893011443
 10
-0.300771367
 20
-12.4902989328
 10
-0.3036499854
 20
-12.4912140257
 10
-0.3065523642
 20
-12.492045305
 10
-0.3094768206
 20
-12.4927916528
 10
-0.3124216718
 20
-12.4934519511
 10
-0.3153850309
 20
-12.4940251658
 10
-0.3183641946
 20
-12.4945105973
 10
-0.3213562554
 20
-12.4949076299
 10
-0.3243583059
 20
-12.4952156477
 10
-0.3273674388
 20
-12.4954340351
 10
-0.3303807465
 20
-12.4955621762
 10
-0.3333953216
 20
-12.4955994553
 10
-0.3364082634
 20
-12.4955455121
 10
-0.3394166972
 20
-12.4954010079
 10
-0.3424177551
 20
-12.4951668596
 10
-0.3454085691
 20
-12.4948439842
 10
-0.3483862712
 20
-12.4944332984
 10
-0.3513479933
 20
-12.4939357192
 10
-0.3542908677
 20
-12.4933521634
 10
-0.3572122465
 20
-12.4926836068
 10
-0.3601103632
 20
-12.4919312608
 10
-0.3629836716
 20
-12.4910963956
 10
-0.3658306256
 20
-12.4901802815
 10
-0.3686496788
 20
-12.4891841888
 10
-0.371439285
 20
-12.4881093878
 10
-0.374197898
 20
-12.4869571488
 10
-0.3765856398
 20
-12.4858857482
 10
-0.3789510022
 20
-12.484752883
 10
-0.3812965193
 20
-12.4835554043
 10
-0.3836247245
 20
-12.4822901635
 10
-0.3859381518
 20
-12.4809540117
 10
-0.3882393349
 20
-12.4795438003
 10
-0.3905308075
 20
-12.4780563806
 10
-0.3928151034
 20
-12.4764886036
  0
LWPOLYLINE
  5
2EE
100
AcDbEntity
  8
0
100
AcDbPolyline
 62
253
  6
CONTINUOUS
 90
50
 70
0
 10
-0.0628410392
 20
12.8838897248
 10
-0.0724900749
 20
12.8905054428
 10
-0.0822469834
 20
12.8968421626
 10
-0.0921239753
 20
12.9029125826
 10
-0.102133261
 20
12.9087294013
 10
-0.1122870511
 20
12.9143053172
 10
-0.12259546
 20
12.9196503855
 10
-0.1330602173
 20
12.9247640871
 10
-0.1436809566
 20
12.92964326
 10
-0.1544573114
 20
12.9342847416
 10
-0.1653889154
 20
12.9386853697
 10
-0.1764730404
 20
12.9428413096
 10
-0.1876975114
 20
12.9467460372
 10
-0.1990477917
 20
12.950392356
 10
-0.2105093447
 20
12.9537730694
 10
-0.2220676337
 20
12.956880981
 10
-0.2337087052
 20
12.9597093367
 10
-0.2454209381
 20
12.9622531517
 10
-0.2571932946
 20
12.9645078836
 10
-0.2690147369
 20
12.9664689902
 10
-0.280874227
 20
12.968131929
 10
-0.2940841167
 20
12.9696253666
 10
-0.3073210879
 20
12.97074459
 10
-0.3205788766
 20
12.9714891009
 10
-0.3338512187
 20
12.9718584012
 10
-0.34713185
 20
12.9718519929
 10
-0.3604145064
 20
12.9714693777
 10
-0.3736929238
 20
12.9707100575
 10
-0.386960838
 20
12.9695735342
 10
-0.400211985
 20
12.9680593097
 10
-0.4121169803
 20
12.9663740088
 10
-0.423989611
 20
12.9643870875
 10
-0.4358161679
 20
12.9621032671
 10
-0.447582942
 20
12.9595272688
 10
-0.4592762239
 20
12.9566638137
 10
-0.4708815108
 20
12.9535184732
 10
-0.4823811243
 20
12.9501002192
 10
-0.4937565923
 20
12.9464188738
 10
-0.5049894427
 20
12.942484259
 10
-0.5160612033
 20
12.9383061969
 10
-0.5269569709
 20
12.9338934136
 10
-0.5376761175
 20
12.9292502502
 10
-0.5482215841
 20
12.9243799519
 10
-0.5585963116
 20
12.919285764
 10
-0.568803241
 20
12.9139709315
 10
-0.5788468773
 20
12.908436212
 10
-0.5887379818
 20
12.9026724124
 10
-0.5984888799
 20
12.8966678519
 10
-0.6081118969
 20
12.8904108496
 10
-0.6176193584
 20
12.8838897248
  0
LWPOLYLINE
  5
2EF
100
AcDbEntity
  8
0
100
AcDbPolyline
 62
253
  6
CONTINUOUS
 90
31
 70
0
 10
-0.082631872
 20
12.8558438915
 10
-0.0901954956
 20
12.8610404721
 10
-0.0978384881
 20
12.8660503373
 10
-0.1055675818
 20
12.8708820406
 10
-0.1133895093
 20
12.8755441355
 10
-0.1213110028
 20
12.8800451756
 10
-0.1293380209
 20
12.8843922851
 10
-0.1374734259
 20
12.8885868718
 10
-0.1457193062
 20
12.8926289143
 10
-0.1540777502
 20
12.8965183911
 10
-0.1625508462
 20
12.9002552808
 10
-0.1711380044
 20
12.9038385152
 10
-0.1798279219
 20
12.9072628388
 10
-0.1886066178
 20
12.9105219493
 10
-0.1974601108
 20
12.9136095445
 10
-0.2063744202
 20
12.9165193221
 10
-0.2153353139
 20
12.9192457047
 10
-0.2243275574
 20
12.9217860138
 10
-0.2333356651
 20
12.9241382957
 10
-0.2423441516
 20
12.926300597
 10
-0.2513375315
 20
12.9282709638
 10
-0.26030324
 20
12.9300481586
 10
-0.2692403949
 20
12.9316338075
 10
-0.2781510349
 20
12.9330302528
 10
-0.2870371985
 20
12.9342398365
 10
-0.2959009243
 20
12.9352649008
 10
-0.304745611
 20
12.9361070949
 10
-0.3135800985
 20
12.9367652959
 10
-0.3224145868
 20
12.9372376877
 10
-0.3312592757
 20
12.9375224546
 10
-0.3401243654
 20
12.9376177804
  0
LWPOLYLINE
  5
2F0
100
AcDbEntity
  8
0
100
AcDbPolyline
 62
253
  6
CONTINUOUS
 90
16
 70
0
 10
-0.2806107558
 20
12.4487736138
 10
-0.107841343
 20
12.3244094029
 10
0.0636162581
 20
12.1982048756
 10
0.2337867917
 20
12.0701396905
 10
0.4026950019
 20
11.9401935059
 10
0.5703656328
 20
11.8083459804
 10
0.7368068118
 20
11.6745903079
 10
0.9019601992
 20
11.5389738235
 10
1.0657508382
 20
11.4015573978
 10
1.2281037724
 20
11.2624019012
 10
1.388944045
 20
11.1215682043
 10
1.548212877
 20
10.9791031868
 10
1.7059161987
 20
10.8349977654
 10
1.8620761182
 20
10.6892288659
 10
2.0167147432
 20
10.5417734144
 10
2.1698541816
 20
10.3926083366
  0
LWPOLYLINE
  5
2F1
100
AcDbEntity
  8
0
100
AcDbPolyline
 62
253
  6
CONTINUOUS
 90
16
 70
0
 10
-0.2607140897
 20
12.4767136138
 10
-0.0877016633
 20
12.3521902397
 10
0.0840046407
 20
12.2258177332
 10
0.2544289993
 20
12.0975761088
 10
0.4235955898
 20
11.967445381
 10
0.5915285891
 20
11.8354055642
 10
0.7582358871
 20
11.701449903
 10
0.9236602246
 20
11.5656245616
 10
1.0877280551
 20
11.4279889342
 10
1.2503658321
 20
11.2886024151
 10
1.4115000092
 20
11.1475243986
 10
1.5710728534
 20
11.0048005647
 10
1.7290898859
 20
10.8604217374
 10
1.8855724412
 20
10.7143650263
 10
2.0405418539
 20
10.5666075413
 10
2.1940194588
 20
10.4171263921
  0
LWPOLYLINE
  5
2F2
100
AcDbEntity
  8
0
100
AcDbPolyline
 62
253
  6
CONTINUOUS
 90
88
 70
0
 10
2.1698541816
 20
10.3926083366
 10
2.1756396462
 20
10.387099915
 10
2.1815549374
 20
10.3818583921
 10
2.1876127093
 20
10.376862812
 10
2.1938256161
 20
10.3720922189
 10
2.2002063117
 20
10.3675256571
 10
2.2084328111
 20
10.3620811408
 10
2.2169383606
 20
10.3569339018
 10
2.225720068
 20
10.352095162
 10
2.2347750411
 20
10.3475761429
 10
2.2440955008
 20
10.3433893649
 10
2.2536541207
 20
10.3395525413
 10
2.2634186875
 20
10.336084684
 10
2.2733569877
 20
10.3330048048
 10
2.2814134011
 20
10.3308326561
 10
2.2895578883
 20
10.3289285217
 10
2.2977879503
 20
10.3272999424
 10
2.3061010879
 20
10.3259544588
 10
2.3144948022
 20
10.3248996119
 10
2.3229638066
 20
10.3241427454
 10
2.3314916651
 20
10.3236904154
 10
2.3400591543
 20
10.3235489812
 10
2.3486470509
 20
10.3237248019
 10
2.3572361315
 20
10.3242242369
 10
2.3658070732
 20
10.3250508999
 10
2.3743401543
 20
10.3261974237
 10
2.382815554
 20
10.3276536955
 10
2.391213451
 20
10.3294096028
 10
2.3995140244
 20
10.3314550329
 10
2.4077007555
 20
10.3337809645
 10
2.4157703353
 20
10.3363827425
 10
2.4237227574
 20
10.339256803
 10
2.4315580151
 20
10.3423995825
 10
2.4392761021
 20
10.345807517
 10
2.4468760083
 20
10.3494776815
 10
2.4543527109
 20
10.3534097052
 10
2.4617001835
 20
10.357603856
 10
2.4689123998
 20
10.3620604017
 10
2.4759833335
 20
10.3667796103
 10
2.482905321
 20
10.3717606204
 10
2.4896641494
 20
10.376998054
 10
2.4962439686
 20
10.3824854039
 10
2.5026289284
 20
10.388216163
 10
2.5088031788
 20
10.3941838239
 10
2.5147523625
 20
10.4003805503
 10
2.5204680949
 20
10.4067931887
 10
2.5259434843
 20
10.4134072562
 10
2.5311716391
 20
10.4202082702
 10
2.5361456676
 20
10.4271817479
 10
2.5408596942
 20
10.4343144951
 10
2.5453119076
 20
10.4415984721
 10
2.5495015124
 20
10.4490269276
 10
2.5534277133
 20
10.4565931106
 10
2.5570897151
 20
10.4642902698
 10
2.56048617
 20
10.4721129838
 10
2.5636135206
 20
10.4800611499
 10
2.5664676575
 20
10.4881359954
 10
2.5690444708
 20
10.4963387472
 10
2.5713398509
 20
10.5046706325
 10
2.5733484982
 20
10.5131299267
 10
2.5750603538
 20
10.5217030989
 10
2.5764641686
 20
10.5303736665
 10
2.5775486938
 20
10.539125147
 10
2.5783026805
 20
10.5479410578
 10
2.5786716947
 20
10.555320011
 10
2.5788046596
 20
10.5626929311
 10
2.5787028785
 20
10.5700204878
 10
2.578369278
 20
10.5772701329
 10
2.5778132794
 20
10.5844364464
 10
2.5770459273
 20
10.5915207901
 10
2.5760766856
 20
10.5985265799
 10
2.5749086946
 20
10.6054654463
 10
2.5735435138
 20
10.612351074
 10
2.5711315811
 20
10.6225941436
 10
2.5682976908
 20
10.6327014979
 10
2.5650613555
 20
10.6426284081
 10
2.5614472943
 20
10.6523381022
 10
2.5574783098
 20
10.6618021048
 10
2.553164332
 20
10.671017171
 10
2.5485134076
 20
10.6799836569
 10
2.5435389217
 20
10.6886910913
 10
2.538255594
 20
10.6971262965
 10
2.5326781444
 20
10.7052760944
 10
2.5280094143
 20
10.7115850496
 10
2.5231400372
 20
10.7177169558
 10
2.5180481836
 20
10.7236858587
 10
2.512712024
 20
10.7295058037
 10
2.5071097286
 20
10.7351908365
  0
LWPOLYLINE
  5
2F3
100
AcDbEntity
  8
0
100
AcDbPolyline
 62
253
  6
CONTINUOUS
 90
88
 70
0
 10
2.1940194588
 20
10.4171263921
 10
2.1989907781
 20
10.4123875922
 10
2.2040739533
 20
10.4078787393
 10
2.2092799196
 20
10.4035816764
 10
2.214619612
 20
10.3994782466
 10
2.2201039653
 20
10.3955502928
 10
2.2271757932
 20
10.3908669287
 10
2.2344898841
 20
10.3864387692
 10
2.242045382
 20
10.3822752079
 10
2.249841431
 20
10.3783856386
 10
2.257872369
 20
10.3747809015
 10
2.2661133084
 20
10.3714776244
 10
2.2745345551
 20
10.3684938816
 10
2.2831064153
 20
10.3658477475
 10
2.2900540305
 20
10.3639855604
 10
2.2970736689
 20
10.3623572404
 10
2.304159965
 20
10.3609690174
 10
2.3113075536
 20
10.3598271212
 10
2.3185110693
 20
10.3589377819
 10
2.3257638177
 20
10.3583068767
 10
2.3330537882
 20
10.3579388731
 10
2.3403676414
 20
10.3578378857
 10
2.3476920375
 20
10.3580080293
 10
2.3550136371
 20
10.3584534188
 10
2.3623188609
 20
10.3591762332
 10
2.3695931717
 20
10.3601709082
 10
2.3768217924
 20
10.3614299439
 10
2.3839899463
 20
10.3629458405
 10
2.3910828565
 20
10.3647110978
 10
2.3980878422
 20
10.3667189219
 10
2.4050006081
 20
10.3689653417
 10
2.4118189549
 20
10.3714470918
 10
2.4185406837
 20
10.374160907
 10
2.4251635951
 20
10.377103522
 10
2.4316850273
 20
10.3802722588
 10
2.4381004672
 20
10.3836667883
 10
2.444404939
 20
10.3872873688
 10
2.4505934667
 20
10.3911342585
 10
2.4566610747
 20
10.3952077156
 10
2.4626012848
 20
10.3995069844
 10
2.4684016101
 20
10.4040272538
 10
2.4740480613
 20
10.4087626989
 10
2.4795266493
 20
10.4137074946
 10
2.4848233848
 20
10.418855816
 10
2.489925532
 20
10.4242004931
 10
2.4948253674
 20
10.4297289756
 10
2.4995164212
 20
10.4354273682
 10
2.5039922232
 20
10.4412817755
 10
2.5082463033
 20
10.4472783023
 10
2.5122733288
 20
10.4534045587
 10
2.516072516
 20
10.4596541774
 10
2.5196442185
 20
10.4660222962
 10
2.52298879
 20
10.4725040532
 10
2.5261065841
 20
10.4790945866
 10
2.5289973137
 20
10.485790192
 10
2.5316581287
 20
10.4925917966
 10
2.5340855383
 20
10.4995014852
 10
2.5362760517
 20
10.5065213427
 10
2.5382261779
 20
10.5136534539
 10
2.5399313378
 20
10.520897052
 10
2.5413825979
 20
10.5282399636
 10
2.5425699366
 20
10.5356671634
 10
2.543483332
 20
10.5431636263
 10
2.5441127623
 20
10.5507143271
 10
2.5444143564
 20
10.5570329295
 10
2.5445132946
 20
10.5633446279
 10
2.5444110784
 20
10.5696152871
 10
2.544110619
 20
10.5758164723
 10
2.5436204662
 20
10.5819425487
 10
2.5429505792
 20
10.5879935817
 10
2.5421095292
 20
10.5939717086
 10
2.5411003354
 20
10.5998873552
 10
2.539924629
 20
10.605753019
 10
2.5378540068
 20
10.6144722401
 10
2.5354273896
 20
10.6230719265
 10
2.532660547
 20
10.6315186492
 10
2.5295723722
 20
10.6397860368
 10
2.526180021
 20
10.6478538578
 10
2.5224905739
 20
10.6557193844
 10
2.5185099176
 20
10.6633818611
 10
2.5142492371
 20
10.6708309193
 10
2.5097210421
 20
10.6780537872
 10
2.5049378421
 20
10.6850376929
 10
2.5009318814
 20
10.6904472203
 10
2.4967519067
 20
10.6957073293
 10
2.4923791011
 20
10.7008297111
 10
2.4877946476
 20
10.7058260571
 10
2.4829797292
 20
10.7107080587
  0
LWPOLYLINE
  5
2F4
100
AcDbEntity
  8
0
100
AcDbPolyline
 62
253
  6
CONTINUOUS
 90
16
 70
0
 10
2.4829797292
 20
10.7107080587
 10
2.3229673277
 20
10.8665748607
 10
2.1613466555
 20
11.0206161595
 10
1.9981014871
 20
11.1728513397
 10
1.8332155969
 20
11.3232997858
 10
1.6666727593
 20
11.4719808822
 10
1.4984692408
 20
11.6189027174
 10
1.3286512755
 20
11.7640281955
 10
1.1572775894
 20
11.9073089245
 10
0.9844069084
 20
12.0486965123
 10
0.8100979588
 20
12.188142567
 10
0.6343961347
 20
12.3256089988
 10
0.4572935037
 20
12.4610989263
 10
0.2787688017
 20
12.5946257703
 10
0.0988007645
 20
12.7262029518
 10
-0.082631872
 20
12.8558438915
  0
LWPOLYLINE
  5
2F5
100
AcDbEntity
  8
0
100
AcDbPolyline
 62
253
  6
CONTINUOUS
 90
16
 70
0
 10
2.5071097286
 20
10.7351908365
 10
2.3468245103
 20
10.8913232301
 10
2.1849284728
 20
11.0456261207
 10
2.0214053157
 20
11.1981189888
 10
1.8562387389
 20
11.3488213152
 10
1.689412442
 20
11.4977525807
 10
1.5209226792
 20
11.6449209185
 10
1.3508159223
 20
11.7902890731
 10
1.1791511977
 20
11.9338084415
 10
1.0059875315
 20
12.0754304208
 10
0.8313839501
 20
12.2151064081
 10
0.6553860855
 20
12.3527981552
 10
0.4779859931
 20
12.4885088339
 10
0.299162334
 20
12.6222519707
 10
0.1188937695
 20
12.7540410921
 10
-0.0628410392
 20
12.8838897248
  0
LWPOLYLINE
  5
2F6
100
AcDbEntity
  8
0
100
AcDbPolyline
 62
253
  6
CONTINUOUS
 90
6
 70
0
 10
10.0814819795
 20
21.9155364331
 10
10.0804498482
 20
21.9459539094
 10
10.0793770832
 20
21.9707735598
 10
10.0782696216
 20
21.9898703384
 10
10.0771761031
 20
22.0031460104
 10
10.0761244068
 20
22.0105319479
  0
LINE
  5
2F7
100
AcDbEntity
  8
0
100
AcDbLine
 62
253
  6
CONTINUOUS
 10
10.0835114067
 20
21.8385316622
 11
10.0814819795
 21
21.9155364331
  0
LINE
  5
2F8
100
AcDbEntity
  8
0
100
AcDbLine
 62
7
  6
CONTINUOUS
 10
10.6689292858
 20
21.6972972092
 11
10.6886571939
 21
13.0861425051
  0
LINE
  5
2F9
100
AcDbEntity
  8
0
100
AcDbLine
 62
253
  6
CONTINUOUS
 10
10.5560858757
 20
-18.558318131
 11
10.5493017465
 21
-9.7443191621
  0
LINE
  5
2FA
100
AcDbEntity
  8
0
100
AcDbLine
 62
253
  6
CONTINUOUS
 10
10.5493017465
 20
-9.7443191621
 11
10.5467752795
 21
-0.7610466791
  0
LINE
  5
2FB
100
AcDbEntity
  8
0
100
AcDbLine
 62
7
  6
CONTINUOUS
 10
10.6886571939
 20
13.0861425051
 11
10.6886571939
 21
0.6860473229
  0
LINE
  5
2FC
100
AcDbEntity
  8
0
100
AcDbLine
 62
7
  6
CONTINUOUS
 10
10.6886571939
 20
-13.1138574949
 11
10.6886571939
 21
-0.7137623127
  0
LINE
  5
2FD
100
AcDbEntity
  8
0
100
AcDbLine
 62
253
  6
CONTINUOUS
 10
10.5467752769
 20
0.7333316901
 11
10.5502170256
 21
11.3239808208
  0
LINE
  5
2FE
100
AcDbEntity
  8
0
100
AcDbLine
 62
253
  6
CONTINUOUS
 10
10.5502170256
 20
11.3239808208
 11
10.5585265544
 21
20.841967864
  0
LINE
  5
2FF
100
AcDbEntity
  8
0
100
AcDbLine
 62
7
  6
CONTINUOUS
 10
10.6689292858
 20
-21.7250121991
 11
10.6886571939
 21
-13.1138574949
  0
LINE
  5
300
100
AcDbEntity
  8
0
100
AcDbLine
 62
253
  6
CONTINUOUS
 10
-0.2539264958
 20
-12.5047813814
 11
-0.2803142729
 21
-12.5192099925
  0
LWPOLYLINE
  5
301
100
AcDbEntity
  8
0
100
AcDbPolyline
 62
253
  6
CONTINUOUS
 90
43
 70
0
 10
-0.2803142729
 20
-12.5192099925
 10
-0.2833636282
 20
-12.5204619218
 10
-0.2864151498
 20
-12.5216256571
 10
-0.2894729097
 20
-12.5227042931
 10
-0.2925409801
 20
-12.5237009243
 10
-0.2956234329
 20
-12.5246186451
 10
-0.2987243402
 20
-12.5254605503
 10
-0.3018477742
 20
-12.5262297342
 10
-0.3049972329
 20
-12.5269285423
 10
-0.3081739179
 20
-12.5275563241
 10
-0.3113784571
 20
-12.5281116797
 10
-0.3146114782
 20
-12.5285932096
 10
-0.3178736088
 20
-12.5289995141
 10
-0.3211654768
 20
-12.5293291933
 10
-0.3244877098
 20
-12.5295808478
 10
-0.3278398616
 20
-12.5297530947
 10
-0.3312171903
 20
-12.5298446192
 10
-0.3346138797
 20
-12.5298541237
 10
-0.3380241141
 20
-12.5297803104
 10
-0.3414420774
 20
-12.5296218814
 10
-0.3448619536
 20
-12.529377539
 10
-0.3482779269
 20
-12.5290459855
 10
-0.3516842656
 20
-12.5286264937
 10
-0.3550755762
 20
-12.5281206199
 10
-0.3584465492
 20
-12.5275304909
 10
-0.3617918754
 20
-12.5268582336
 10
-0.3651062456
 20
-12.5261059748
 10
-0.3683843504
 20
-12.5252758415
 10
-0.3716208806
 20
-12.5243699605
 10
-0.3748116176
 20
-12.5233903807
 10
-0.3779567051
 20
-12.5223388386
 10
-0.3810573779
 20
-12.5212169927
 10
-0.3841148703
 20
-12.5200265016
 10
-0.387130417
 20
-12.5187690238
 10
-0.3901052525
 20
-12.5174462177
 10
-0.3930406113
 20
-12.516059742
 10
-0.3959380932
 20
-12.5146104319
 10
-0.3988007592
 20
-12.5130958297
 10
-0.4016320356
 20
-12.5115126544
 10
-0.4044353486
 20
-12.5098576252
 10
-0.4072141244
 20
-12.5081274609
 10
-0.4099717893
 20
-12.5063188807
 10
-0.4127117695
 20
-12.5044286036
  0
LWPOLYLINE
  5
302
100
AcDbEntity
  8
0
100
AcDbPolyline
 62
253
  6
CONTINUOUS
 90
31
 70
0
 10
-0.3406888099
 20
12.9376177804
 10
-0.349719114
 20
12.9375085768
 10
-0.3587176144
 20
12.9372037713
 10
-0.3676942968
 20
12.9367060038
 10
-0.3766591471
 20
12.9360179141
 10
-0.3856221509
 20
12.9351421419
 10
-0.3945920619
 20
12.9340805768
 10
-0.4035727053
 20
12.9328321072
 10
-0.4125666739
 20
12.9313948713
 10
-0.421576561
 20
12.9297670071
 10
-0.4306049596
 20
12.9279466528
 10
-0.4396513175
 20
12.9259327214
 10
-0.4487025022
 20
12.923727226
 10
-0.4577422361
 20
12.9213329544
 10
-0.4667542415
 20
12.9187526944
 10
-0.4757222409
 20
12.9159892339
 10
-0.4846302082
 20
12.9130461806
 10
-0.4934631247
 20
12.9099304207
 10
-0.5022062231
 20
12.9066496604
 10
-0.5108447365
 20
12.9032116057
 10
-0.5193638977
 20
12.8996239627
 10
-0.5277519849
 20
12.8958932322
 10
-0.536009457
 20
12.8920210938
 10
-0.5441398183
 20
12.8880080217
 10
-0.5521465731
 20
12.8838544902
 10
-0.5600332255
 20
12.8795609736
 10
-0.5678038895
 20
12.8751266155
 10
-0.5754651173
 20
12.8705452373
 10
-0.5830240709
 20
12.8658093301
 10
-0.5904879123
 20
12.8609113845
 10
-0.5978638033
 20
12.8558438915
  0
LWPOLYLINE
  5
303
100
AcDbEntity
  8
0
100
AcDbPolyline
 62
253
  6
CONTINUOUS
 90
7
 70
0
 10
10.0761244062
 20
-22.0382469366
 10
10.0771761025
 20
-22.0308609994
 10
10.078269621
 20
-22.0175853281
 10
10.0793770826
 20
-21.99848855
 10
10.0804498475
 20
-21.9736688997
 10
10.0814819787
 20
-21.9432514229
 10
10.0835114058
 20
-21.8662466509
  0
LINE
  5
304
100
AcDbEntity
  8
0
100
AcDbLine
 62
7
  6
CONTINUOUS
 10
7.4692087006
 20
22.1950153635
 11
7.1210220973
 21
22.1634094431
  0
LWPOLYLINE
  5
305
100
AcDbEntity
  8
0
100
AcDbPolyline
 62
253
  6
CONTINUOUS
 90
14
 70
0
 10
-10.8626155036
 20
20.8626029906
 10
-10.9094528468
 20
20.861896909
 10
-10.9545708222
 20
20.8609975972
 10
-10.9975319696
 20
20.8599137746
 10
-11.0379197414
 20
20.85865595
 10
-11.0753425413
 20
20.8572363192
 10
-11.1094375208
 20
20.8556686466
 10
-11.1398740981
 20
20.8539681324
 10
-11.1663571626
 20
20.8521512645
 10
-11.1886299367
 20
20.8502356592
 10
-11.2064764656
 20
20.84823989
 10
-11.2197237109
 20
20.8461833077
 10
-11.2282432282
 20
20.8440858527
 10
-11.2319524133
 20
20.8419678619
  0
LINE
  5
306
100
AcDbEntity
  8
0
100
AcDbLine
 62
253
  6
CONTINUOUS
 10
-10.7656115048
 20
20.8634100181
 11
-10.8626155036
 21
20.8626029906
  0
LINE
  5
307
100
AcDbEntity
  8
0
100
AcDbLine
 62
253
  6
CONTINUOUS
 10
10.0921856472
 20
20.8634099866
 11
5.3652796974
 21
20.8584307504
  0
LINE
  5
308
100
AcDbEntity
  8
0
100
AcDbLine
 62
253
  6
CONTINUOUS
 10
5.3652796974
 20
20.8584307504
 11
0.6328555814
 21
20.8563728774
  0
LINE
  5
309
100
AcDbEntity
  8
0
100
AcDbLine
 62
253
  6
CONTINUOUS
 10
0.6328555814
 20
20.8563728774
 11
-6.1760450638
 21
20.8585340708
  0
LINE
  5
30A
100
AcDbEntity
  8
0
100
AcDbLine
 62
253
  6
CONTINUOUS
 10
-6.1760450638
 20
20.8585340708
 11
-10.7656115049
 21
20.8634100042
  0
LWPOLYLINE
  5
30B
100
AcDbEntity
  8
0
100
AcDbPolyline
 62
253
  6
CONTINUOUS
 90
15
 70
0
 10
10.0921847958
 20
20.8634094715
 10
10.1891878854
 20
20.8626024697
 10
10.2360248338
 20
20.86189641
 10
10.2811424714
 20
20.8609971254
 10
10.3241033501
 20
20.8599133352
 10
10.3644909332
 20
20.8586555472
 10
10.4019136338
 20
20.8572359566
 10
10.4360086119
 20
20.8556683272
 10
10.4664452919
 20
20.8539678585
 10
10.4929285683
 20
20.8521510376
 10
10.5152016665
 20
20.85023548
 10
10.5330486328
 20
20.8482397584
 10
10.5462964279
 20
20.8461832228
 10
10.5548166048
 20
20.8440858127
 10
10.5585265543
 20
20.841967864
  0
LINE
  5
30C
100
AcDbEntity
  8
0
100
AcDbLine
 62
7
  6
CONTINUOUS
 10
-8.1426345598
 20
22.1950153635
 11
-7.7944479565
 21
22.1634094431
  0
LINE
  5
30D
100
AcDbEntity
  8
0
100
AcDbLine
 62
7
  6
CONTINUOUS
 10
-3.7307912994
 20
22.1950153635
 11
-4.0789779027
 21
22.1634094431
  0
LWPOLYLINE
  5
30E
100
AcDbEntity
  8
0
100
AcDbPolyline
 62
253
  6
CONTINUOUS
 90
16
 70
0
 10
-10.7495502653
 20
22.0105319467
 10
-10.8017518917
 20
22.0077299015
 10
-10.8533825033
 20
21.9994973121
 10
-10.9038774
 20
21.9859242417
 10
-10.9526843218
 20
21.9671591574
 10
-10.9992694433
 20
21.9434073214
 10
-11.0431232201
 20
21.9149285612
 10
-11.0837660244
 20
21.8820343926
 10
-11.120753369
 20
21.8450846082
 10
-11.1536807326
 20
21.8044833731
 10
-11.1821880122
 20
21.7606747817
 10
-11.2059634645
 20
21.7141379847
 10
-11.2247470988
 20
21.6653819598
 10
-11.2383335154
 20
21.6149399567
 10
-11.246574155
 20
21.5633636676
 10
-11.2493789278
 20
21.5112171793
  0
LINE
  5
30F
100
AcDbEntity
  8
0
100
AcDbLine
 62
253
  6
CONTINUOUS
 10
10.0761244068
 20
22.0105319479
 11
6.7065588375
 21
22.0005058117
  0
LINE
  5
310
100
AcDbEntity
  8
0
100
AcDbLine
 62
253
  6
CONTINUOUS
 10
6.7065588375
 20
22.0005058117
 11
3.3345127832
 21
21.994351646
  0
LINE
  5
311
100
AcDbEntity
  8
0
100
AcDbLine
 62
253
  6
CONTINUOUS
 10
3.3345127832
 20
21.994351646
 11
-0.0391443112
 21
21.9920714365
  0
LINE
  5
312
100
AcDbEntity
  8
0
100
AcDbLine
 62
7
  6
CONTINUOUS
 10
6.9478170166
 20
22.1581686652
 11
3.5787571242
 21
22.1581686652
  0
LINE
  5
313
100
AcDbEntity
  8
0
100
AcDbLine
 62
7
  6
CONTINUOUS
 10
-4.2521829834
 20
22.1581686652
 11
-7.6212428758
 21
22.1581686652
  0
LINE
  5
314
100
AcDbEntity
  8
0
100
AcDbLine
 62
7
  6
CONTINUOUS
 10
10.1683028642
 20
22.1950153635
 11
7.4692087006
 21
22.1950153635
  0
LINE
  5
315
100
AcDbEntity
  8
0
100
AcDbLine
 62
7
  6
CONTINUOUS
 10
3.0573654402
 20
22.1950153635
 11
-3.7307912994
 21
22.1950153635
  0
LINE
  5
316
100
AcDbEntity
  8
0
100
AcDbLine
 62
7
  6
CONTINUOUS
 10
-8.1426345598
 20
22.1950153635
 11
-10.8417287234
 21
22.1950153635
  0
LINE
  5
317
100
AcDbEntity
  8
0
100
AcDbLine
 62
253
  6
CONTINUOUS
 10
-0.0391443112
 20
21.9920714365
 11
-3.4068719682
 21
21.9936583712
  0
LINE
  5
318
100
AcDbEntity
  8
0
100
AcDbLine
 62
253
  6
CONTINUOUS
 10
-3.4068719682
 20
21.9936583712
 11
-6.8778856099
 21
21.9993439147
  0
LWPOLYLINE
  5
319
100
AcDbEntity
  8
0
100
AcDbPolyline
 62
253
  6
CONTINUOUS
 90
3
 70
0
 10
-6.8778856099
 20
21.9993439147
 10
-9.9319718509
 20
22.0077710408
 10
-10.7495502653
 20
22.0105319467
  0
LWPOLYLINE
  5
31A
100
AcDbEntity
  8
0
100
AcDbPolyline
 62
253
  6
CONTINUOUS
 90
16
 70
0
 10
10.0761244068
 20
22.0105319479
 10
10.1283253768
 20
22.0077299727
 10
10.1799554183
 20
21.9994975756
 10
10.2304498473
 20
21.9859247954
 10
10.2792563997
 20
21.9671600792
 10
10.3258412724
 20
21.9434086591
 10
10.3696949608
 20
21.9149303073
 10
10.4103378317
 20
21.8820364951
 10
10.447325369
 20
21.8450869862
 10
10.4802530355
 20
21.8044859019
 10
10.5087606972
 20
21.7606773013
 10
10.5325365622
 20
21.7141403246
 10
10.551320591
 20
21.6653839522
 10
10.5649073403
 20
21.6149414389
 10
10.5731482102
 20
21.5633644804
 10
10.5759530693
 20
21.5112171806
  0
LINE
  5
31B
100
AcDbEntity
  8
0
100
AcDbLine
 62
7
  6
CONTINUOUS
 10
3.0573654402
 20
22.1950153635
 11
3.4055520435
 21
22.1634094431
  0
LINE
  5
31C
100
AcDbEntity
  8
0
100
AcDbLine
 62
7
  6
CONTINUOUS
 10
-33.27946234
 20
-22.2227303534
 11
-37.1521546203
 21
-22.0197711511
  0
LWPOLYLINE
  5
31D
100
AcDbEntity
  8
0
100
AcDbPolyline
 62
253
  6
CONTINUOUS
 90
22
 70
0
 10
-36.799615633
 20
-22.0382469366
 10
-36.8838238034
 20
-22.0308609994
 10
-36.9672868651
 20
-22.0175853281
 10
-37.0495940134
 20
-21.99848855
 10
-37.1303391299
 20
-21.9736688997
 10
-37.2091269931
 20
-21.9432514229
 10
-37.2855744835
 20
-21.9073853943
 10
-37.3593096927
 20
-21.8662466509
 10
-37.4299662228
 20
-21.8200412081
 10
-37.4971892992
 20
-21.7690015821
 10
-37.5606480136
 20
-21.7133828277
 10
-37.6200335162
 20
-21.6534600593
 10
-37.6750525767
 20
-21.5895302282
 10
-37.7254364683
 20
-21.5219096327
 10
-37.7709391485
 20
-21.4509334754
 10
-37.8113358188
 20
-21.3769540353
 10
-37.8464274497
 20
-21.3003429994
 10
-37.8760474218
 20
-21.2214734264
 10
-37.9000553682
 20
-21.1407175378
 10
-37.9183326661
 20
-21.058467045
 10
-37.930786936
 20
-20.9751326591
 10
-37.9373556973
 20
-20.8911249942
  0
LINE
  5
31E
100
AcDbEntity
  8
0
100
AcDbLine
 62
253
  6
CONTINUOUS
 10
-37.9373556871
 20
-20.8911250079
 11
-37.9316513521
 21
-20.8908239855
  0
LINE
  5
31F
100
AcDbEntity
  8
0
100
AcDbLine
 62
253
  6
CONTINUOUS
 10
-37.9316513521
 20
-20.8908239855
 11
-37.7280685107
 21
-20.8816831222
  0
LINE
  5
320
100
AcDbEntity
  8
0
100
AcDbLine
 62
253
  6
CONTINUOUS
 10
-37.7280685107
 20
-20.8816831222
 11
-37.452027871
 21
-20.8696828518
  0
LINE
  5
321
100
AcDbEntity
  8
0
100
AcDbLine
 62
253
  6
CONTINUOUS
 10
-38.2877132921
 20
-20.8840264452
 11
-37.9373556895
 21
-20.8911249941
  0
LINE
  5
322
100
AcDbEntity
  8
0
100
AcDbLine
 62
253
  6
CONTINUOUS
 10
-33.2359176439
 20
-21.7250121991
 11
-36.786536129
 21
-21.5389321692
  0
LWPOLYLINE
  5
323
100
AcDbEntity
  8
0
100
AcDbPolyline
 62
253
  6
CONTINUOUS
 90
22
 70
0
 10
-36.786536129
 20
-21.5389321692
 10
-36.8359430296
 20
-21.53457966
 10
-36.8845172661
 20
-21.5268858902
 10
-36.9322588386
 20
-21.5158508597
 10
-36.9794178662
 20
-21.5013856568
 10
-37.0257442298
 20
-21.4835791934
 10
-37.0704875722
 20
-21.4626982043
 10
-37.1136025755
 20
-21.438697943
 10
-37.1551345576
 20
-21.411623156
 10
-37.1944691148
 20
-21.3818748187
 10
-37.2315735678
 20
-21.3494112836
 10
-37.2664805959
 20
-21.3142741981
 10
-37.2986738345
 20
-21.2769894802
 10
-37.3281099793
 20
-21.2375274522
 10
-37.3548323344
 20
-21.1959177918
 10
-37.3784544474
 20
-21.1527754504
 10
-37.3989319919
 20
-21.1080566024
 10
-37.4163092941
 20
-21.0618050733
 10
-37.4303328805
 20
-21.014767291
 10
-37.4409182599
 20
-20.9671920646
 10
-37.4481499234
 20
-20.9188305848
 10
-37.452027871
 20
-20.8696828518
  0
LINE
  5
324
100
AcDbEntity
  8
0
100
AcDbLine
 62
253
  6
CONTINUOUS
 10
-32.8825392274
 20
-17.9473490961
 11
-32.9054149478
 21
-17.947349096
  0
LWPOLYLINE
  5
325
100
AcDbEntity
  8
0
100
AcDbPolyline
 62
253
  6
CONTINUOUS
 90
11
 70
0
 10
-36.7996156095
 20
22.0105319479
 10
-36.8008356935
 20
22.0077299727
 10
-36.8017562312
 20
21.9994975756
 10
-36.8023671546
 20
21.9859247954
 10
-36.8026617821
 20
21.9671600792
 10
-36.8026368911
 20
21.9434086591
 10
-36.8022927536
 20
21.9149303073
 10
-36.8016331332
 20
21.8820364951
 10
-36.8006652446
 20
21.8450869862
 10
-36.7993996735
 20
21.8044859019
 10
-36.7960339552
 20
21.7141403246
  0
LWPOLYLINE
  5
326
100
AcDbEntity
  8
0
100
AcDbPolyline
 62
253
  6
CONTINUOUS
 90
9
 70
0
 10
-36.799615633
 20
-22.0382469366
 10
-36.800835735
 20
-22.0354448914
 10
-36.8017562814
 20
-22.0272123019
 10
-36.802367205
 20
-22.0136392316
 10
-36.8026618255
 20
-21.9948741472
 10
-36.8026369212
 20
-21.9711223112
 10
-36.8022927659
 20
-21.942643551
 10
-36.8016331258
 20
-21.9097493824
 10
-36.8006652176
 20
-21.8727995981
  0
LWPOLYLINE
  5
327
100
AcDbEntity
  8
0
100
AcDbPolyline
 62
253
  6
CONTINUOUS
 90
26
 70
0
 10
-38.6679739969
 20
-10.4025271162
 10
-38.668190194
 20
-10.399742052
 10
-38.6684025246
 20
-10.3971876526
 10
-38.6686109351
 20
-10.3948674206
 10
-38.6688153718
 20
-10.3927848585
 10
-38.6690156894
 20
-10.3909446364
 10
-38.669211376
 20
-10.3893560963
 10
-38.6694018284
 20
-10.3880297476
 10
-38.669586443
 20
-10.3869760999
 10
-38.6697646165
 20
-10.3862056627
 10
-38.6699076793
 20
-10.385786493
 10
-38.6700451438
 20
-10.385571003
 10
-38.6701763036
 20
-10.3855589003
 10
-38.6703006149
 20
-10.3857482868
 10
-38.6704181836
 20
-10.3861308428
 10
-38.6705292781
 20
-10.386696643
 10
-38.6706341744
 20
-10.387437094
 10
-38.6707331778
 20
-10.3883489309
 10
-38.6708266013
 20
-10.3894302205
 10
-38.6709567242
 20
-10.3913642464
 10
-38.6710746438
 20
-10.3936602444
 10
-38.6711800701
 20
-10.3963023576
 10
-38.6712729626
 20
-10.3992710892
 10
-38.6713533731
 20
-10.4025485562
 10
-38.6714214729
 20
-10.406126968
 10
-38.671521422
 20
-10.4141555615
  0
LWPOLYLINE
  5
328
100
AcDbEntity
  8
0
100
AcDbPolyline
 62
253
  6
CONTINUOUS
 90
26
 70
0
 10
-38.6684804387
 20
-10.3711004602
 10
-38.6687339025
 20
-10.367840503
 10
-38.6689827473
 20
-10.3648517306
 10
-38.6692268756
 20
-10.3621382912
 10
-38.6694661898
 20
-10.3597043331
 10
-38.6697004983
 20
-10.3575552552
 10
-38.6699292323
 20
-10.3557014598
 10
-38.6701517288
 20
-10.3541546
 10
-38.6703673251
 20
-10.3529263288
 10
-38.6705753581
 20
-10.3520282994
 10
-38.6707423929
 20
-10.3515394035
 10
-38.6709029095
 20
-10.3512874003
 10
-38.671056102
 20
-10.3512717555
 10
-38.6712013534
 20
-10.3514901665
 10
-38.6713387999
 20
-10.3519332577
 10
-38.6714687665
 20
-10.3525898849
 10
-38.6715915796
 20
-10.3534504562
 10
-38.671707572
 20
-10.3545115877
 10
-38.6718170783
 20
-10.3557714475
 10
-38.6719696379
 20
-10.358027911
 10
-38.6721078647
 20
-10.3607096024
 10
-38.6722313465
 20
-10.3637973709
 10
-38.6723399904
 20
-10.3672666171
 10
-38.6724338326
 20
-10.371094522
 10
-38.6725131073
 20
-10.3752708362
 10
-38.6726289242
 20
-10.3846300266
  0
LINE
  5
329
100
AcDbEntity
  8
0
100
AcDbLine
 62
253
  6
CONTINUOUS
 10
-38.6679600598
 20
-10.3784178639
 11
-38.6684804387
 21
-10.3711004602
  0
LINE
  5
32A
100
AcDbEntity
  8
0
100
AcDbLine
 62
253
  6
CONTINUOUS
 10
-38.667530228
 20
-10.4087758494
 11
-38.6679739969
 21
-10.4025271162
  0
LINE
  5
32B
100
AcDbEntity
  8
0
100
AcDbLine
 62
253
  6
CONTINUOUS
 10
-38.6674227567
 20
-10.3867834206
 11
-38.6679600598
 21
-10.3784178639
  0
LINE
  5
32C
100
AcDbEntity
  8
0
100
AcDbLine
 62
253
  6
CONTINUOUS
 10
-38.6670718839
 20
-10.4159207031
 11
-38.667530228
 21
-10.4087758494
  0
LINE
  5
32D
100
AcDbEntity
  8
0
100
AcDbLine
 62
253
  6
CONTINUOUS
 10
-38.666599857
 20
-10.4239627797
 11
-38.6670718839
 21
-10.4159207031
  0
LINE
  5
32E
100
AcDbEntity
  8
0
100
AcDbLine
 62
253
  6
CONTINUOUS
 10
-38.6668700267
 20
-10.3961887461
 11
-38.6674227567
 21
-10.3867834206
  0
LINE
  5
32F
100
AcDbEntity
  8
0
100
AcDbLine
 62
253
  6
CONTINUOUS
 10
-38.6658698097
 20
-10.4376809633
 11
-38.666599857
 21
-10.4239627797
  0
LINE
  5
330
100
AcDbEntity
  8
0
100
AcDbLine
 62
253
  6
CONTINUOUS
 10
-38.6660168
 20
-10.4122013933
 11
-38.6668700267
 21
-10.3961887461
  0
LINE
  5
331
100
AcDbEntity
  8
0
100
AcDbLine
 62
253
  6
CONTINUOUS
 10
-38.6651462916
 20
-10.4303415476
 11
-38.6660168
 21
-10.4122013933
  0
LINE
  5
332
100
AcDbEntity
  8
0
100
AcDbLine
 62
253
  6
CONTINUOUS
 10
-38.6651241004
 20
-10.4532404279
 11
-38.6658698097
 21
-10.4376809633
  0
LINE
  5
333
100
AcDbEntity
  8
0
100
AcDbLine
 62
253
  6
CONTINUOUS
 10
-38.6641283084
 20
-10.4763926355
 11
-38.6651462916
 21
-10.4303415476
  0
LINE
  5
334
100
AcDbEntity
  8
0
100
AcDbLine
 62
253
  6
CONTINUOUS
 10
-38.6633960418
 20
-10.495123769
 11
-38.6639839489
 21
-10.4573291318
  0
LINE
  5
335
100
AcDbEntity
  8
0
100
AcDbLine
 62
253
  6
CONTINUOUS
 10
-38.6645364223
 20
10.4202082702
 11
-38.6636100669
 21
10.4660222962
  0
LINE
  5
336
100
AcDbEntity
  8
0
100
AcDbLine
 62
253
  6
CONTINUOUS
 10
-38.6657015632
 20
10.3941838239
 11
-38.6648446109
 21
10.4354273682
  0
LWPOLYLINE
  5
337
100
AcDbEntity
  8
0
100
AcDbPolyline
 62
7
  6
CONTINUOUS
 90
4
 70
0
 10
-38.2877132876
 20
20.8563115424
 10
-38.3949022903
 20
18.6922515782
 10
-38.4940042941
 20
16.4395661305
 10
-38.5804070297
 20
14.1863635333
  0
LINE
  5
338
100
AcDbEntity
  8
0
100
AcDbLine
 62
253
  6
CONTINUOUS
 10
-38.6663343275
 20
10.4040272538
 11
-38.6655941852
 21
10.418855816
  0
LINE
  5
339
100
AcDbEntity
  8
0
100
AcDbLine
 62
253
  6
CONTINUOUS
 10
-38.6665639802
 20
10.376998054
 11
-38.6657015632
 21
10.3941838239
  0
LINE
  5
33A
100
AcDbEntity
  8
0
100
AcDbLine
 62
253
  6
CONTINUOUS
 10
-38.6670522271
 20
10.3911342585
 11
-38.6663343275
 21
10.4040272538
  0
LINE
  5
33B
100
AcDbEntity
  8
0
100
AcDbLine
 62
253
  6
CONTINUOUS
 10
-38.6674005426
 20
10.3620604017
 11
-38.6665639802
 21
10.376998054
  0
LINE
  5
33C
100
AcDbEntity
  8
0
100
AcDbLine
 62
253
  6
CONTINUOUS
 10
-38.6675136983
 20
10.3836667883
 11
-38.6670522271
 21
10.3911342585
  0
LINE
  5
33D
100
AcDbEntity
  8
0
100
AcDbLine
 62
253
  6
CONTINUOUS
 10
-38.6679384009
 20
10.3534097052
 11
-38.6674005426
 21
10.3620604017
  0
LWPOLYLINE
  5
33E
100
AcDbEntity
  8
0
100
AcDbPolyline
 62
253
  6
CONTINUOUS
 90
22
 70
0
 10
-37.9373556722
 20
20.8634099857
 10
-37.9307869107
 20
20.9474176651
 10
-37.9183326393
 20
21.0307520613
 10
-37.9000553395
 20
21.1130025602
 10
-37.8760473921
 20
21.1937584493
 10
-37.8464274205
 20
21.272628019
 10
-37.8113357905
 20
21.349239052
 10
-37.7709391203
 20
21.4232184912
 10
-37.7254364402
 20
21.4941946478
 10
-37.6750525489
 20
21.5618152427
 10
-37.6200334889
 20
21.625745073
 10
-37.560647987
 20
21.6856678406
 10
-37.4971892733
 20
21.7412865943
 10
-37.4299661976
 20
21.7923262198
 10
-37.3593096683
 20
21.8385316622
 10
-37.2855744602
 20
21.8796704051
 10
-37.2091269716
 20
21.9155364331
 10
-37.1303391107
 20
21.9459539094
 10
-37.0495939952
 20
21.9707735598
 10
-36.9672868464
 20
21.9898703384
 10
-36.883823783
 20
22.0031460104
 10
-36.7996156095
 20
22.0105319479
  0
LWPOLYLINE
  5
33F
100
AcDbEntity
  8
0
100
AcDbPolyline
 62
253
  6
CONTINUOUS
 90
22
 70
0
 10
-37.452027858
 20
20.841967864
 10
-37.4481499047
 20
20.891115597
 10
-37.440918237
 20
20.9394770767
 10
-37.4303328548
 20
20.9870523031
 10
-37.4163092673
 20
21.0340900855
 10
-37.3989319653
 20
21.0803416145
 10
-37.3784544213
 20
21.1250604626
 10
-37.3548323083
 20
21.168202804
 10
-37.3281099532
 20
21.2098124645
 10
-37.2986738085
 20
21.2492744925
 10
-37.2664805701
 20
21.2865592103
 10
-37.231573542
 20
21.3216962957
 10
-37.1944690891
 20
21.3541598308
 10
-37.155134532
 20
21.3839081679
 10
-37.1136025501
 20
21.4109829548
 10
-37.070487547
 20
21.434983216
 10
-37.0257442049
 20
21.4558642051
 10
-36.9794178416
 20
21.4736706685
 10
-36.9322588143
 20
21.4881358713
 10
-36.884517242
 20
21.4991709018
 10
-36.8359430058
 20
21.5068646715
 10
-36.7865361055
 20
21.5112171806
  0
LWPOLYLINE
  5
340
100
AcDbEntity
  8
0
100
AcDbPolyline
 62
253
  6
CONTINUOUS
 90
16
 70
0
 10
-38.3858782515
 20
0.7340988768
 10
-38.3831148062
 20
0.681110282
 10
-38.3750692895
 20
0.6298597209
 10
-38.3619591116
 20
0.5802295395
 10
-38.3436732163
 20
0.5318978588
 10
-38.3201898367
 20
0.4851854692
 10
-38.2920333747
 20
0.4412143361
 10
-38.2596556573
 20
0.4006735699
 10
-38.2231228738
 20
0.3636369737
 10
-38.1828869874
 20
0.3305387199
 10
-38.1395377509
 20
0.3018968793
 10
-38.0934883103
 20
0.2779752261
 10
-38.0451096277
 20
0.2589365846
 10
-37.9949487695
 20
0.2450382735
 10
-37.9437140883
 20
0.2364926294
 10
-37.892065833
 20
0.2333507286
  0
LWPOLYLINE
  5
341
100
AcDbEntity
  8
0
100
AcDbPolyline
 62
253
  6
CONTINUOUS
 90
10
 70
0
 10
-37.9373556895
 20
-20.8911249941
 10
-38.0314037874
 20
-18.5774768778
 10
-38.1131322577
 20
-16.3018591202
 10
-38.183078746
 20
-14.0643415311
 10
-38.2411560091
 20
-11.890195667
 10
-38.2887233979
 20
-9.7542788804
 10
-38.3274715598
 20
-7.5810095856
 10
-38.3571774097
 20
-5.3452095429
 10
-38.3768203274
 20
-3.0721291042
 10
-38.3858781717
 20
-0.7618138757
  0
LWPOLYLINE
  5
342
100
AcDbEntity
  8
0
100
AcDbPolyline
 62
253
  6
CONTINUOUS
 90
10
 70
0
 10
-37.452027871
 20
-20.8696828518
 10
-37.5452336169
 20
-18.558318131
 10
-37.6271780737
 20
-16.2850724462
 10
-37.6978612414
 20
-14.0499457974
 10
-37.7567157955
 20
-11.8780729617
 10
-37.8043090606
 20
-9.7443191621
 10
-37.8423430105
 20
-7.5732800671
 10
-37.8713849698
 20
-5.3398208997
 10
-37.890867614
 20
-3.0690764371
 10
-37.9014081617
 20
-0.6581367607
  0
LWPOLYLINE
  5
343
100
AcDbEntity
  8
0
100
AcDbPolyline
 62
7
  6
CONTINUOUS
 90
5
 70
0
 10
-38.654107583
 20
-11.9604303538
 10
-38.5804070297
 20
-14.2140785231
 10
-38.4940042941
 20
-16.4672811203
 10
-38.3949022903
 20
-18.7199665681
 10
-38.2877132876
 20
-20.8840265323
  0
LINE
  5
344
100
AcDbEntity
  8
0
100
AcDbLine
 62
253
  6
CONTINUOUS
 10
-38.6619921541
 20
-10.5353634778
 11
-38.6631289621
 21
-10.4791717006
  0
LINE
  5
345
100
AcDbEntity
  8
0
100
AcDbLine
 62
253
  6
CONTINUOUS
 10
-38.6607021489
 20
-10.5785023194
 11
-38.661489177
 21
-10.5261279795
  0
LINE
  5
346
100
AcDbEntity
  8
0
100
AcDbLine
 62
7
  6
CONTINUOUS
 10
-38.7151030393
 20
-9.7064082066
 11
-38.654107583
 21
-11.9604303538
  0
LINE
  5
347
100
AcDbEntity
  8
0
100
AcDbLine
 62
253
  6
CONTINUOUS
 10
-38.6242556339
 20
-12.9116047146
 11
-38.6355318326
 21
-12.4892090912
  0
LINE
  5
348
100
AcDbEntity
  8
0
100
AcDbLine
 62
253
  6
CONTINUOUS
 10
-38.6517788163
 20
-11.9670902681
 11
-38.6411036233
 21
-12.3799211398
  0
LINE
  5
349
100
AcDbEntity
  8
0
100
AcDbLine
 62
253
  6
CONTINUOUS
 10
-38.6587009612
 20
-10.6277922043
 11
-38.6599768469
 21
-10.5767188948
  0
LWPOLYLINE
  5
34A
100
AcDbEntity
  8
0
100
AcDbPolyline
 62
253
  6
CONTINUOUS
 90
26
 70
0
 10
-38.6715664011
 20
10.3783856386
 10
-38.6714975646
 20
10.3747809015
 10
-38.6714161995
 20
10.3714776244
 10
-38.6713224152
 20
10.3684938816
 10
-38.6712163212
 20
10.3658477475
 10
-38.6711226379
 20
10.3639855604
 10
-38.6710210898
 20
10.3623572404
 10
-38.6709116203
 20
10.3609690174
 10
-38.6707941729
 20
10.3598271212
 10
-38.6706686908
 20
10.3589377819
 10
-38.6705351551
 20
10.3583068767
 10
-38.6703936971
 20
10.3579388731
 10
-38.670244486
 20
10.3578378857
 10
-38.6700876906
 20
10.3580080293
 10
-38.6699234801
 20
10.3584534188
 10
-38.6697520807
 20
10.3591762332
 10
-38.6695739468
 20
10.3601709082
 10
-38.6693895904
 20
10.3614299439
 10
-38.6691995233
 20
10.3629458405
 10
-38.6690042571
 20
10.3647110978
 10
-38.6688042422
 20
10.3667189219
 10
-38.6685996833
 20
10.3689653417
 10
-38.6683907236
 20
10.3714470918
 10
-38.6681775063
 20
10.374160907
 10
-38.6679601746
 20
10.377103522
 10
-38.6675136983
 20
10.3836667883
  0
LWPOLYLINE
  5
34B
100
AcDbEntity
  8
0
100
AcDbPolyline
 62
253
  6
CONTINUOUS
 90
26
 70
0
 10
-38.6726590117
 20
10.3475761429
 10
-38.6725798756
 20
10.3433893649
 10
-38.6724862555
 20
10.3395525413
 10
-38.6723782789
 20
10.336084684
 10
-38.672256073
 20
10.3330048048
 10
-38.6721481126
 20
10.3308326561
 10
-38.6720309739
 20
10.3289285217
 10
-38.6719045038
 20
10.3272999424
 10
-38.6717685492
 20
10.3259544588
 10
-38.6716229568
 20
10.3248996119
 10
-38.6714676377
 20
10.3241427454
 10
-38.6713027585
 20
10.3236904154
 10
-38.67112855
 20
10.3235489812
 10
-38.670945243
 20
10.3237248019
 10
-38.6707530684
 20
10.3242242369
 10
-38.6705523333
 20
10.3250508999
 10
-38.6703436512
 20
10.3261974237
 10
-38.6701277122
 20
10.3276536955
 10
-38.669905206
 20
10.3294096028
 10
-38.6696768227
 20
10.3314550329
 10
-38.6694431556
 20
10.3337809645
 10
-38.6692044109
 20
10.3363827425
 10
-38.6689606984
 20
10.339256803
 10
-38.6687121277
 20
10.3423995825
 10
-38.6684588085
 20
10.345807517
 10
-38.6679384009
 20
10.3534097052
  0
LINE
  5
34C
100
AcDbEntity
  8
0
100
AcDbLine
 62
253
  6
CONTINUOUS
 10
-38.6345518943
 20
-12.5165246564
 11
-38.6438997808
 21
-12.0770176772
  0
LINE
  5
34D
100
AcDbEntity
  8
0
100
AcDbLine
 62
253
  6
CONTINUOUS
 10
-38.6597470375
 20
-11.565900941
 11
-38.6508404839
 21
-11.9944660851
  0
LINE
  5
34E
100
AcDbEntity
  8
0
100
AcDbLine
 62
253
  6
CONTINUOUS
 10
-38.657656423
 20
-10.6799868145
 11
-38.6596096903
 21
-10.6221190346
  0
LWPOLYLINE
  5
34F
100
AcDbEntity
  8
0
100
AcDbPolyline
 62
253
  6
CONTINUOUS
 90
9
 70
0
 10
-37.900358104
 20
0.3995432975
 10
-37.8997137051
 20
0.3624100814
 10
-37.8989370949
 20
0.3293442891
 10
-37.8980365419
 20
0.3007083796
 10
-37.8970219824
 20
0.276827294
 10
-37.8959048125
 20
0.2579723329
 10
-37.894697444
 20
0.2443521097
 10
-37.8934130714
 20
0.2361146698
 10
-37.892065833
 20
0.2333507286
  0
LINE
  5
350
100
AcDbEntity
  8
0
100
AcDbLine
 62
253
  6
CONTINUOUS
 10
-38.6570986979
 20
-10.7164039106
 11
-38.6587054942
 21
-10.6670798778
  0
LINE
  5
351
100
AcDbEntity
  8
0
100
AcDbLine
 62
253
  6
CONTINUOUS
 10
-38.6428776519
 20
-12.1036072419
 11
-38.6503670935
 21
-11.647235472
  0
LINE
  5
352
100
AcDbEntity
  8
0
100
AcDbLine
 62
253
  6
CONTINUOUS
 10
-38.6659709197
 20
-11.1488577655
 11
-38.6587694762
 21
-11.5925393431
  0
LINE
  5
353
100
AcDbEntity
  8
0
100
AcDbLine
 62
253
  6
CONTINUOUS
 10
-38.671666544
 20
10.3864387692
 11
-38.6715664011
 21
10.3783856386
  0
LINE
  5
354
100
AcDbEntity
  8
0
100
AcDbLine
 62
253
  6
CONTINUOUS
 10
-38.6727738639
 20
10.3569339018
 11
-38.6726590117
 21
10.3475761429
  0
LINE
  5
355
100
AcDbEntity
  8
0
100
AcDbLine
 62
253
  6
CONTINUOUS
 10
-38.6567851211
 20
-10.7454003282
 11
-38.6581310259
 21
-10.7056865078
  0
LINE
  5
356
100
AcDbEntity
  8
0
100
AcDbLine
 62
253
  6
CONTINUOUS
 10
-37.9012244773
 20
0.4844154653
 11
-37.900358104
 21
0.3995432975
  0
LINE
  5
357
100
AcDbEntity
  8
0
100
AcDbLine
 62
253
  6
CONTINUOUS
 10
-38.6716618431
 20
-10.5694109143
 11
-38.664949204
 21
-11.1747223715
  0
LINE
  5
358
100
AcDbEntity
  8
0
100
AcDbLine
 62
253
  6
CONTINUOUS
 10
-38.6492972252
 20
-11.6731067964
 11
-38.6561364214
 21
-11.0486367636
  0
LINE
  5
359
100
AcDbEntity
  8
0
100
AcDbLine
 62
253
  6
CONTINUOUS
 10
-38.6538690731
 20
-11.2261544678
 11
-38.6579495937
 21
-10.7233778297
  0
LWPOLYLINE
  5
35A
100
AcDbEntity
  8
0
100
AcDbPolyline
 62
7
  6
CONTINUOUS
 90
5
 70
0
 10
-38.8318505643
 20
-0.7658626818
 10
-38.8218337825
 20
-2.9428140527
 10
-38.7989675264
 20
-5.1975284222
 10
-38.763390484
 20
-7.4520836928
 10
-38.7151030393
 20
-9.7064082066
  0
LINE
  5
35B
100
AcDbEntity
  8
0
100
AcDbLine
 62
253
  6
CONTINUOUS
 10
-38.6717182217
 20
10.3955502928
 11
-38.671666544
 21
10.3864387692
  0
LINE
  5
35C
100
AcDbEntity
  8
0
100
AcDbLine
 62
253
  6
CONTINUOUS
 10
-38.6728325003
 20
10.3675256571
 11
-38.6727738639
 21
10.3569339018
  0
LINE
  5
35D
100
AcDbEntity
  8
0
100
AcDbLine
 62
253
  6
CONTINUOUS
 10
-38.6726874243
 20
-10.4095740551
 11
-38.6705737826
 21
-10.5942042019
  0
LINE
  5
35E
100
AcDbEntity
  8
0
100
AcDbLine
 62
253
  6
CONTINUOUS
 10
-37.901497522
 20
0.580100156
 11
-37.9012244773
 21
0.4844154653
  0
LINE
  5
35F
100
AcDbEntity
  8
0
100
AcDbLine
 62
253
  6
CONTINUOUS
 10
-37.9014081617
 20
-0.6581367607
 11
-37.9014365036
 21
-0.5589430101
  0
LINE
  5
360
100
AcDbEntity
  8
0
100
AcDbLine
 62
253
  6
CONTINUOUS
 10
-38.6717175051
 20
10.4078787393
 11
-38.6717182217
 21
10.3955502928
  0
LINE
  5
361
100
AcDbEntity
  8
0
100
AcDbLine
 62
253
  6
CONTINUOUS
 10
-38.6726888899
 20
-10.3952361412
 11
-38.6726874243
 21
-10.4095740551
  0
LINE
  5
362
100
AcDbEntity
  8
0
100
AcDbLine
 62
253
  6
CONTINUOUS
 10
-38.6728299026
 20
10.3818583921
 11
-38.6728325003
 21
10.3675256571
  0
LINE
  5
363
100
AcDbEntity
  8
0
100
AcDbLine
 62
253
  6
CONTINUOUS
 10
-38.6715738049
 20
-10.4232647473
 11
-38.6715738415
 21
-10.4355917601
  0
LWPOLYLINE
  5
364
100
AcDbEntity
  8
0
100
AcDbPolyline
 62
253
  6
CONTINUOUS
 90
10
 70
0
 10
-38.3858781727
 20
0.7340988804
 10
-38.3783021462
 20
2.7995231664
 10
-38.3616276266
 20
4.8956743949
 10
-38.3354563082
 20
7.0225100561
 10
-38.2996921419
 20
9.1637367407
 10
-38.2537645269
 20
11.3355551483
 10
-38.1958986588
 20
13.5866444144
 10
-38.1244578235
 20
15.9331686733
 10
-38.038672688
 20
18.3587916426
 10
-37.9373556902
 20
20.8634099866
  0
LINE
  5
365
100
AcDbEntity
  8
0
100
AcDbLine
 62
253
  6
CONTINUOUS
 10
-38.6726289242
 20
-10.3846300266
 11
-38.6726888899
 21
-10.3952361412
  0
LINE
  5
366
100
AcDbEntity
  8
0
100
AcDbLine
 62
253
  6
CONTINUOUS
 10
-38.671521422
 20
-10.4141555615
 11
-38.6715738049
 21
-10.4232647473
  0
LINE
  5
367
100
AcDbEntity
  8
0
100
AcDbLine
 62
253
  6
CONTINUOUS
 10
-37.8938810816
 20
2.7967439985
 11
-37.901497522
 21
0.580100156
  0
LINE
  5
368
100
AcDbEntity
  8
0
100
AcDbLine
 62
253
  6
CONTINUOUS
 10
-38.6695625977
 20
10.7143650263
 11
-38.6728299026
 21
10.3818583921
  0
LWPOLYLINE
  5
369
100
AcDbEntity
  8
0
100
AcDbPolyline
 62
253
  6
CONTINUOUS
 90
9
 70
0
 10
-37.8938810816
 20
2.7967439985
 10
-37.8770616208
 20
4.8907490429
 10
-37.8503326575
 20
7.0153468232
 10
-37.8147990608
 20
9.154367454
 10
-37.7693559614
 20
11.3239808208
 10
-37.7106887522
 20
13.5726965795
 10
-37.637692564
 20
15.9166846157
 10
-37.551472266
 20
18.3397750439
 10
-37.452027858
 20
20.841967864
  0
LWPOLYLINE
  5
36A
100
AcDbEntity
  8
0
100
AcDbPolyline
 62
253
  6
CONTINUOUS
 90
11
 70
0
 10
-37.9014365036
 20
-0.5589430101
 10
-37.900863333
 20
-0.4680584242
 10
-37.9003580081
 20
-0.4272583714
 10
-37.8997136092
 20
-0.3901251347
 10
-37.898936999
 20
-0.3570593247
 10
-37.8980364459
 20
-0.3284234024
 10
-37.8970218863
 20
-0.3045423064
 10
-37.8959047163
 20
-0.2856873362
 10
-37.8946973477
 20
-0.2720671053
 10
-37.893412975
 20
-0.2638296605
 10
-37.8920657365
 20
-0.2610657176
  0
LINE
  5
36B
100
AcDbEntity
  8
0
100
AcDbLine
 62
253
  6
CONTINUOUS
 10
-38.6581554993
 20
10.6904472203
 11
-38.6526724553
 21
11.3488213152
  0
LINE
  5
36C
100
AcDbEntity
  8
0
100
AcDbLine
 62
253
  6
CONTINUOUS
 10
-38.6631603158
 20
11.2886024151
 11
-38.6706326365
 21
10.6892288659
  0
LINE
  5
36D
100
AcDbEntity
  8
0
100
AcDbLine
 62
253
  6
CONTINUOUS
 10
-38.6537769412
 20
11.3232997858
 11
-38.6474661381
 21
11.7902890731
  0
LINE
  5
36E
100
AcDbEntity
  8
0
100
AcDbLine
 62
253
  6
CONTINUOUS
 10
-38.6584825734
 20
10.6633818611
 11
-38.6569993906
 21
10.7115850496
  0
LINE
  5
36F
100
AcDbEntity
  8
0
100
AcDbLine
 62
253
  6
CONTINUOUS
 10
-38.6563685246
 20
11.701449903
 11
-38.6660626753
 21
11.1215682043
  0
LINE
  5
370
100
AcDbEntity
  8
0
100
AcDbLine
 62
253
  6
CONTINUOUS
 10
-38.6485208326
 20
11.7640281955
 11
-38.6403893797
 21
12.2151064081
  0
LINE
  5
371
100
AcDbEntity
  8
0
100
AcDbLine
 62
253
  6
CONTINUOUS
 10
-38.6591677669
 20
10.6230719265
 11
-38.6573785372
 21
10.6799836569
  0
LINE
  5
372
100
AcDbEntity
  8
0
100
AcDbLine
 62
253
  6
CONTINUOUS
 10
-38.6478196062
 20
12.0975761088
 11
-38.6573307617
 21
11.6745903079
  0
LINE
  5
373
100
AcDbEntity
  8
0
100
AcDbLine
 62
253
  6
CONTINUOUS
 10
-38.6600627253
 20
10.5819425487
 11
-38.6581799719
 21
10.6327014979
  0
LINE
  5
374
100
AcDbEntity
  8
0
100
AcDbLine
 62
253
  6
CONTINUOUS
 10
-38.6413985663
 20
12.188142567
 11
-38.6313819461
 21
12.6222519707
  0
LWPOLYLINE
  5
375
100
AcDbEntity
  8
0
100
AcDbPolyline
 62
7
  6
CONTINUOUS
 90
6
 70
0
 10
-38.654107583
 20
11.9327153639
 10
-38.7151030393
 20
9.6786932167
 10
-38.763390484
 20
7.4243687029
 10
-38.7989675264
 20
5.1698134323
 10
-38.8218337825
 20
2.9150990629
 10
-38.8318505643
 20
0.7381476919
  0
LINE
  5
376
100
AcDbEntity
  8
0
100
AcDbLine
 62
253
  6
CONTINUOUS
 10
-38.6604182236
 20
10.539125147
 11
-38.6592302652
 21
10.5844364464
  0
LINE
  5
377
100
AcDbEntity
  8
0
100
AcDbLine
 62
253
  6
CONTINUOUS
 10
-38.6323500149
 20
12.5946257703
 11
-38.6217037003
 21
12.9718887976
  0
LINE
  5
378
100
AcDbEntity
  8
0
100
AcDbLine
 62
253
  6
CONTINUOUS
 10
-38.6374597909
 20
12.4767136138
 11
-38.6487405861
 21
12.0701396905
  0
LINE
  5
379
100
AcDbEntity
  8
0
100
AcDbLine
 62
7
  6
CONTINUOUS
 10
-38.5804070297
 20
14.1863635333
 11
-38.654107583
 21
11.9327153639
  0
LINE
  5
37A
100
AcDbEntity
  8
0
100
AcDbLine
 62
253
  6
CONTINUOUS
 10
-38.6619921461
 20
10.4881359954
 11
-38.6610777699
 21
10.5431636263
  0
LINE
  5
37B
100
AcDbEntity
  8
0
100
AcDbLine
 62
253
  6
CONTINUOUS
 10
-38.663384362
 20
10.4490269276
 11
-38.6624222241
 21
10.4995014852
  0
LWPOLYLINE
  5
37C
100
AcDbEntity
  8
0
100
AcDbPolyline
 62
253
  6
CONTINUOUS
 90
16
 70
0
 10
-38.3858781543
 20
-0.7618138779
 10
-38.3831149319
 20
-0.7088272802
 10
-38.3750699783
 20
-0.6575783928
 10
-38.3619606213
 20
-0.6079495433
 10
-38.3436757575
 20
-0.5596188688
 10
-38.3201935474
 20
-0.5129071385
 10
-38.2920382244
 20
-0.4689362228
 10
-38.2596614366
 20
-0.4283951833
 10
-38.2231292962
 20
-0.3913579227
 10
-38.1828937063
 20
-0.3582587405
 10
-38.1395443109
 20
-0.329615784
 10
-38.0934942192
 20
-0.3056929504
 10
-38.0451145062
 20
-0.2866532364
 10
-37.9949523016
 20
-0.2727540643
 10
-37.9437159447
 20
-0.2642078396
 10
-37.8920657365
 20
-0.2610657176
  0
LINE
  5
37D
100
AcDbEntity
  8
0
100
AcDbLine
 62
253
  6
CONTINUOUS
 10
-36.7916828209
 20
21.6149414389
 11
-36.7865361055
 21
21.5112171806
  0
LINE
  5
37E
100
AcDbEntity
  8
0
100
AcDbLine
 62
253
  6
CONTINUOUS
 10
-36.7960339552
 20
21.7141403246
 11
-36.7916828209
 21
21.6149414389
  0
LINE
  5
37F
100
AcDbEntity
  8
0
100
AcDbLine
 62
253
  6
CONTINUOUS
 10
-36.8006652176
 20
-21.8727995981
 11
-36.7978502071
 21
-21.7883897716
  0
LINE
  5
380
100
AcDbEntity
  8
0
100
AcDbLine
 62
253
  6
CONTINUOUS
 10
-36.7978502071
 20
-21.7883897716
 11
-36.7939705665
 21
-21.6930969496
  0
LWPOLYLINE
  5
381
100
AcDbEntity
  8
0
100
AcDbPolyline
 62
253
  6
CONTINUOUS
 90
3
 70
0
 10
-36.7939705665
 20
-21.6930969496
 10
-36.7891955693
 20
-21.5910786575
 10
-36.786536129
 20
-21.5389321692
  0
LINE
  5
382
100
AcDbEntity
  8
0
100
AcDbLine
 62
253
  6
CONTINUOUS
 10
-38.3858781717
 20
-0.7618138757
 11
-38.8318505643
 21
-0.7658626771
  0
LINE
  5
383
100
AcDbEntity
  8
0
100
AcDbLine
 62
253
  6
CONTINUOUS
 10
-32.4825392274
 20
-0.7137623127
 11
-37.9007909429
 21
-0.7610466791
  0
LINE
  5
384
100
AcDbEntity
  8
0
100
AcDbLine
 62
7
  6
CONTINUOUS
 10
-32.4825392274
 20
-0.2138574949
 11
-38.336219718
 21
-0.2649417907
  0
LINE
  5
385
100
AcDbEntity
  8
0
100
AcDbLine
 62
253
  6
CONTINUOUS
 10
-37.9007909417
 20
-0.7610466791
 11
-38.3858781543
 21
-0.7618138779
  0
LINE
  5
386
100
AcDbEntity
  8
0
100
AcDbLine
 62
7
  6
CONTINUOUS
 10
-38.336219718
 20
0.2372268008
 11
-32.4825392274
 21
0.1861425051
  0
LINE
  5
387
100
AcDbEntity
  8
0
100
AcDbLine
 62
7
  6
CONTINUOUS
 10
-32.8825392274
 20
17.9196318725
 11
-32.8825392274
 21
17.6581634262
  0
LINE
  5
388
100
AcDbEntity
  8
0
100
AcDbLine
 62
7
  6
CONTINUOUS
 10
-32.8825392274
 20
-17.685878416
 11
-32.8825392274
 21
-17.9473468187
  0
LINE
  5
389
100
AcDbEntity
  8
0
100
AcDbLine
 62
7
  6
CONTINUOUS
 10
-32.4825392274
 20
13.0861425051
 11
-32.4825392274
 21
0.1861425051
  0
LINE
  5
38A
100
AcDbEntity
  8
0
100
AcDbLine
 62
7
  6
CONTINUOUS
 10
-32.4825392274
 20
-13.1138574949
 11
-32.4825392274
 21
-0.2138574949
  0
LINE
  5
38B
100
AcDbEntity
  8
0
100
AcDbLine
 62
253
  6
CONTINUOUS
 10
-38.3858782515
 20
0.7340988768
 11
-37.9007910381
 21
0.7333316901
  0
LINE
  5
38C
100
AcDbEntity
  8
0
100
AcDbLine
 62
253
  6
CONTINUOUS
 10
-37.9007910397
 20
0.7333316901
 11
-32.4825392274
 21
0.6860473229
  0
LINE
  5
38D
100
AcDbEntity
  8
0
100
AcDbLine
 62
253
  6
CONTINUOUS
 10
-38.8318505643
 20
0.7381476872
 11
-38.3858781727
 21
0.7340988804
  0
LINE
  5
38E
100
AcDbEntity
  8
0
100
AcDbLine
 62
7
  6
CONTINUOUS
 10
-33.27946234
 20
22.1950153635
 11
-32.4825392274
 21
13.0861425051
  0
LINE
  5
38F
100
AcDbEntity
  8
0
100
AcDbLine
 62
7
  6
CONTINUOUS
 10
-32.4825392274
 20
-13.1138574949
 11
-33.27946234
 21
-22.2227303534
  0
LINE
  5
390
100
AcDbEntity
  8
0
100
AcDbLine
 62
253
  6
CONTINUOUS
 10
-32.8825392274
 20
17.9196341063
 11
-32.9054149478
 21
17.9196341063
  0
LWPOLYLINE
  5
391
100
AcDbEntity
  8
0
100
AcDbPolyline
 62
253
  6
CONTINUOUS
 90
4
 70
0
 10
-37.9373429187
 20
20.8634094715
 10
-37.9316388412
 20
20.8631084589
 10
-37.9211576036
 20
20.8626024697
 10
-37.452027858
 20
20.841967864
  0
LINE
  5
392
100
AcDbEntity
  8
0
100
AcDbLine
 62
253
  6
CONTINUOUS
 10
-36.7865361055
 20
21.5112171806
 11
-33.2359176439
 21
21.6972972092
  0
LINE
  5
393
100
AcDbEntity
  8
0
100
AcDbLine
 62
7
  6
CONTINUOUS
 10
-37.1521546203
 20
21.9920561613
 11
-33.27946234
 21
22.1950153635
  0
LINE
  5
394
100
AcDbEntity
  8
0
100
AcDbLine
 62
253
  6
CONTINUOUS
 10
-37.9373556902
 20
20.8634099866
 11
-38.2877132921
 21
20.8563114553
  0
ARC
  5
395
100
AcDbEntity
  8
0
100
AcDbCircle
 62
7
  6
CONTINUOUS
 10
-37.0893476808
 20
20.7937009183
 40
1.2
100
AcDbArc
 50
93.0
 51
177.0092051173
  0
ARC
  5
396
100
AcDbEntity
  8
0
100
AcDbCircle
 62
7
  6
CONTINUOUS
 10
-37.0893476808
 20
-20.8214159082
 40
1.2
100
AcDbArc
 50
182.9907948827
 51
267.0
  0
ARC
  5
397
100
AcDbEntity
  8
0
100
AcDbCircle
 62
7
  6
CONTINUOUS
 10
-38.3318466824
 20
0.7372076771
 40
0.5
100
AcDbArc
 50
179.8922831945
 51
269.5
  0
ARC
  5
398
100
AcDbEntity
  8
0
100
AcDbCircle
 62
7
  6
CONTINUOUS
 10
-38.3318466824
 20
-0.764922667
 40
0.5
100
AcDbArc
 50
90.5
 51
180.1077168055
  0
ARC
  5
399
100
AcDbEntity
  8
0
100
AcDbCircle
 62
7
  6
CONTINUOUS
 10
-33.1825392274
 20
17.9196341063
 40
0.3
100
AcDbArc
 50
359.9995650467
 51
25.0000767071
  0
ARC
  5
39A
100
AcDbEntity
  8
0
100
AcDbCircle
 62
7
  6
CONTINUOUS
 10
-33.1825392274
 20
-17.9473490961
 40
0.3
100
AcDbArc
 50
334.9999285842
 51
0.0004349533
  0
ELLIPSE
  5
39B
100
AcDbEntity
  8
0
100
AcDbEllipse
 62
7
  6
CONTINUOUS
 10
-4.2521829834
 20
-22.1963652109
 30
0.0
 11
0.2
 21
-0.0
 31
0.0
 40
0.0524077793
 41
0.5235987756
 42
1.5707963268
  0
ELLIPSE
  5
39C
100
AcDbEntity
  8
0
100
AcDbEllipse
 62
7
  6
CONTINUOUS
 10
-7.6212428758
 20
-22.1963652109
 30
0.0
 11
0.2
 21
-0.0
 31
0.0
 40
0.0524077793
 41
1.5707963268
 42
2.617993878
  0
ELLIPSE
  5
39D
100
AcDbEntity
  8
0
100
AcDbEllipse
 62
7
  6
CONTINUOUS
 10
3.5787571242
 20
-22.1963652109
 30
0.0
 11
0.2
 21
0.0
 31
0.0
 40
0.0524077793
 41
1.5707963268
 42
2.617993878
  0
ELLIPSE
  5
39E
100
AcDbEntity
  8
0
100
AcDbEllipse
 62
7
  6
CONTINUOUS
 10
6.9478170166
 20
-22.1963652109
 30
0.0
 11
0.2
 21
0.0
 31
0.0
 40
0.0524077793
 41
0.5235987756
 42
1.5707963268
  0
ELLIPSE
  5
39F
100
AcDbEntity
  8
0
100
AcDbEllipse
 62
7
  6
CONTINUOUS
 10
10.1884857977
 20
-0.7138765341
 30
0.0
 11
0.4745319423
 21
0.1581451893
 31
0.0
 40
0.9996192872
 41
-0.3215754254
 42
1.2489924673
  0
ELLIPSE
  5
3A0
100
AcDbEntity
  8
0
100
AcDbEllipse
 62
7
  6
CONTINUOUS
 10
-10.8619116569
 20
-0.7138765341
 30
0.0
 11
0.4745319423
 21
-0.1581451893
 31
0.0
 40
0.9996192872
 41
1.8926001863
 42
3.463168079
  0
ELLIPSE
  5
3A1
100
AcDbEntity
  8
0
100
AcDbEllipse
 62
7
  6
CONTINUOUS
 10
10.1687594539
 20
-21.7243293919
 30
0.0
 11
0.4962344879
 21
0.0628595572
 31
0.0
 40
0.9963456432
 41
-1.6972555761
 42
-0.1278292453
  0
ELLIPSE
  5
3A2
100
AcDbEntity
  8
0
100
AcDbEllipse
 62
7
  6
CONTINUOUS
 10
-10.842185313
 20
-21.7243293919
 30
0.0
 11
0.4962344879
 21
-0.0628595572
 31
0.0
 40
0.9963456432
 41
-3.0137634083
 42
-1.4443370775
  0
ELLIPSE
  5
3A3
100
AcDbEntity
  8
0
100
AcDbEllipse
 62
7
  6
CONTINUOUS
 10
3.5787571242
 20
22.168650221
 30
0.0
 11
0.2
 21
0.0
 31
0.0
 40
0.0524077793
 41
-2.617993878
 42
-1.5707963268
  0
ELLIPSE
  5
3A4
100
AcDbEntity
  8
0
100
AcDbEllipse
 62
7
  6
CONTINUOUS
 10
6.9478170166
 20
22.168650221
 30
0.0
 11
0.2
 21
0.0
 31
0.0
 40
0.0524077793
 41
-1.5707963268
 42
-0.5235987756
  0
ELLIPSE
  5
3A5
100
AcDbEntity
  8
0
100
AcDbEllipse
 62
7
  6
CONTINUOUS
 10
-4.2521829834
 20
22.168650221
 30
0.0
 11
0.2
 21
0.0
 31
0.0
 40
0.0524077793
 41
-1.5707963268
 42
-0.5235987756
  0
ELLIPSE
  5
3A6
100
AcDbEntity
  8
0
100
AcDbEllipse
 62
7
  6
CONTINUOUS
 10
-7.6212428758
 20
22.168650221
 30
0.0
 11
0.2
 21
0.0
 31
0.0
 40
0.0524077793
 41
-2.617993878
 42
-1.5707963268
  0
ELLIPSE
  5
3A7
100
AcDbEntity
  8
0
100
AcDbEllipse
 62
7
  6
CONTINUOUS
 10
-10.8619116569
 20
0.6861615443
 30
0.0
 11
0.4745319423
 21
0.1581451893
 31
0.0
 40
0.9996192872
 41
2.8200172282
 42
4.3905851209
  0
ELLIPSE
  5
3A8
100
AcDbEntity
  8
0
100
AcDbEllipse
 62
7
  6
CONTINUOUS
 10
10.1884857977
 20
0.6861615443
 30
0.0
 11
0.4745319423
 21
-0.1581451893
 31
0.0
 40
0.9996192872
 41
-1.2489924673
 42
0.3215754254
  0
ELLIPSE
  5
3A9
100
AcDbEntity
  8
0
100
AcDbEllipse
 62
7
  6
CONTINUOUS
 10
-10.842185313
 20
21.6966144021
 30
0.0
 11
0.4962344879
 21
0.0628595572
 31
0.0
 40
0.9963456432
 41
1.4443370775
 42
3.0137634083
  0
ELLIPSE
  5
3AA
100
AcDbEntity
  8
0
100
AcDbEllipse
 62
7
  6
CONTINUOUS
 10
10.1687594539
 20
21.6966144021
 30
0.0
 11
0.4962344879
 21
-0.0628595572
 31
0.0
 40
0.9963456432
 41
0.1278292453
 42
1.6972555761
  0
ENDSEC
  0
SECTION
  2
OBJECTS
  0
DICTIONARY
  5
C
100
AcDbDictionary
280
0
281
1
  3
ACAD_GROUP
350
D
  3
ACAD_MLINESTYLE
350
17
  3
ACAD_LAYOUT
350
1A
  3
ACAD_PLOTSETTINGS
350
19
  3
ACAD_PLOTSTYLENAME
350
E
  0
DICTIONARY
  5
D
102
{ACAD_REACTORS
330
C
102
}
100
AcDbDictionary
280
0
281
1
  0
ACDBDICTIONARYWDFLT
  5
E
102
{ACAD_REACTORS
330
C
102
}
100
AcDbDictionary
281
1
  3
Normal
350
F
100
AcDbDictionaryWithDefault
340
F
  0
DICTIONARY
  5
17
102
{ACAD_REACTORS
330
C
102
}
100
AcDbDictionary
280
0
281
1
  3
Standard
350
18
  0
DICTIONARY
  5
19
102
{ACAD_REACTORS
330
C
102
}
100
AcDbDictionary
281
1
  0
DICTIONARY
  5
1A
102
{ACAD_REACTORS
330
C
102
}
100
AcDbDictionary
281
1
  3
Model
350
3AB
  3
Layout1
350
3AC
  0
ACDBPLACEHOLDER
  5
F
102
{ACAD_REACTORS
330
E
102
}
  0
MLINESTYLE
  5
18
102
{ACAD_REACTORS
330
17
102
}
100
AcDbMlineStyle
  2
STANDARD
 70
0
  3

 62
256
 51
90.0
 52
90.0
 71
2
 49
0.5
 62
256
  6
BYLAYER
 49
-0.5
 62
256
  6
BYLAYER
  0
LAYOUT
  5
3AB
102
{ACAD_REACTORS
330
1A
102
}
100
AcDbPlotSettings
  1

  2
none_device
  4
ISO_A4_(297.00_x_210.00_MM)
  6

 40
0.0
 41
0.0
 42
0.0
 43
0.0
 44
297.0
 45
210.0
 46
0.0
 47
0.0
 48
0.0
 49
0.0
140
0.0
141
0.0
142
1.0
143
1.0
 70
1024
 72
1
 73
0
 74
0
  7

 75
0
147
1.0
148
0.0
149
0.0
100
AcDbLayout
  1
Model
 70
0
 71
0
 10
0.0
 20
0.0
 11
297.0
 21
210.0
 12
0.0
 22
0.0
 32
0.0
 14
0.0
 24
0.0
 34
0.0
 15
0.0
 25
0.0
 35
0.0
146
0.0
 13
0.0
 23
0.0
 33
0.0
 16
1.0
 26
0.0
 36
0.0
 17
0.0
 27
1.0
 37
0.0
 76
0
330
220
345
0
346
0
  0
LAYOUT
  5
3AC
102
{ACAD_REACTORS
330
1A
102
}
100
AcDbPlotSettings
  1

  2
none_device
  4
ISO_A4_(297.00_x_210.00_MM)
  6

 40
0.0
 41
0.0
 42
0.0
 43
0.0
 44
297.0
 45
210.0
 46
0.0
 47
0.0
 48
0.0
 49
0.0
140
0.0
141
0.0
142
1.0
143
1.0
 70
0
 72
1
 73
0
 74
0
  7

 75
0
147
1.0
148
0.0
149
0.0
100
AcDbLayout
  1
Layout1
 70
0
 71
1
 10
0.0
 20
0.0
 11
297.0
 21
210.0
 12
0.0
 22
0.0
 32
0.0
 14
0.0
 24
0.0
 34
0.0
 15
0.0
 25
0.0
 35
0.0
146
0.0
 13
0.0
 23
0.0
 33
0.0
 16
1.0
 26
0.0
 36
0.0
 17
0.0
 27
1.0
 37
0.0
 76
0
330
221
345
0
346
0
  0
ENDSEC
  0
EOF
