  0
SECTION
  2
HEADER
  9
$ACADVER
  1
AC1021
  9
$DWGCODEPAGE
  3
ANSI_1252
  9
$EXTMAX
 10
297.0
 20
210.0
 30
0.0
  9
$EXTMIN
 10
0.0
 20
0.0
 30
0.0
  9
$LIMMIN
 10
0.0
 20
0.0
  9
$LIMMAX
 10
297.0
 20
210.0
  9
$VIEWCTR
 10
148.5
 20
105.0
  9
$VIEWSIZE
 40
210.0
  9
$CLAYER
  8
0
  9
$LTSCALE
 40
16.335
  9
$CELTYPE
  6
BYLAYER
  9
$DIMSCALE
 40
1.0
  9
$DIMASZ
 40
3.0
  9
$DIMEXO
 40
0.5
  9
$DIMDLI
 40
11.286
  9
$DIMEXE
 40
1.5
  9
$DIMCEN
 40
2.673
  9
$DIMLFAC
 40
1.0
  9
$DIMBLK
  1
_FILLED
  9
$DIMALT
 70
0
  9
$DIMALTF
 40
25.4
  9
$DIMTXT
 40
3.0
  9
$DIMTOL
 70
1
  9
$DIMLIM
 70
0
  9
$DIMTFAC
 40
1.0
  9
$DIMTP
 40
0.01
  9
$DIMTM
 40
0.01
  9
$DIMGAP
 40
0.625
  9
$DIMDSEP
 70
44
  9
$AUNITS
 70
0
  9
$PDMODE
 70
3
  9
$PDSIZE
 40
3.0
  9
$HANDSEED
  5
46C
  9
$TILEMODE
 70
1
  9
$MEASUREMENT
 70
1
  9
$INSUNITS
 70
4
  0
ENDSEC
  0
SECTION
  2
CLASSES
  0
CLASS
  1
ACDBDICTIONARYWDFLT
  2
AcDbDictionaryWithDefault
  3
AutoCAD 2000
 90
0
 91
1
280
0
281
0
  0
CLASS
  1
ACDBPLACEHOLDER
  2
AcDbPlaceHolder
  3
AutoCAD 2000
 90
0
 91
1
280
0
281
0
  0
CLASS
  1
LAYOUT
  2
AcDbLayout
  3
AutoCAD 2000
 90
0
 91
0
280
0
281
0
  0
ENDSEC
  0
SECTION
  2
TABLES
  0
TABLE
  2
VPORT
  5
8
100
AcDbSymbolTable
 70
2
  0
VPORT
  5
1F4
100
AcDbSymbolTableRecord
100
AcDbViewportTableRecord
  2
*ACTIVE
 70
0
 10
0.0
 20
0.0
 11
1.0
 21
1.0
 12
148.5
 22
105.0
 13
0.0
 23
0.0
 14
1.0
 24
1.0
 15
0.0
 25
0.0
 16
0.0
 26
0.0
 36
1.0
 17
0.0
 27
0.0
 37
0.0
 40
210.0
 41
1.4142857143
 42
50.0
 43
0.0
 44
0.0
 50
0.0
 51
0.0
 71
0
 72
100
 73
1
 74
1
 75
0
 76
0
 77
0
 78
0
  0
ENDTAB
  0
TABLE
  2
LTYPE
  5
5
100
AcDbSymbolTable
 70
6
  0
LTYPE
  5
14
100
AcDbSymbolTableRecord
100
AcDbLinetypeTableRecord
  2
BYBLOCK
 70
0
  3

 72
65
 73
0
 40
0.0
  0
LTYPE
  5
15
100
AcDbSymbolTableRecord
100
AcDbLinetypeTableRecord
  2
BYLAYER
 70
0
  3

 72
65
 73
0
 40
0.0
  0
LTYPE
  5
16
100
AcDbSymbolTableRecord
100
AcDbLinetypeTableRecord
  2
CONTINUOUS
 70
64
  3
Solid line
 72
65
 73
0
 40
0.0
  0
LTYPE
  5
1F5
100
AcDbSymbolTableRecord
100
AcDbLinetypeTableRecord
  2
CENTER
 70
64
  3
____ _ ____ _ ____ _ ____ _ ____ _ ____ _ ____
 72
65
 73
4
 40
0.6
 49
0.375
 74
0
 49
-0.075
 74
0
 49
0.075
 74
0
 49
-0.075
 74
0
  0
LTYPE
  5
1F6
100
AcDbSymbolTableRecord
100
AcDbLinetypeTableRecord
  2
HIDDEN
 70
64
  3
- - - - - - - - - - - - - - - - - - - -
 72
65
 73
2
 40
0.2
 49
0.1
 74
0
 49
-0.1
 74
0
  0
LTYPE
  5
1F7
100
AcDbSymbolTableRecord
100
AcDbLinetypeTableRecord
  2
PHANTOM
 70
64
  3
_____ _ _ _____ _ _ _____ _ _ _____
 72
65
 73
6
 40
0.8
 49
0.45
 74
0
 49
-0.05
 74
0
 49
0.1
 74
0
 49
-0.05
 74
0
 49
0.1
 74
0
 49
-0.05
 74
0
  0
LTYPE
  5
1F8
100
AcDbSymbolTableRecord
100
AcDbLinetypeTableRecord
  2
DOT
 70
64
  3
. . . . . . . . . . . . . . . . . . . .
 72
65
 73
2
 40
0.2
 49
0.1
 74
0
 49
-0.1
 74
0
  0
LTYPE
  5
1F9
100
AcDbSymbolTableRecord
100
AcDbLinetypeTableRecord
  2
DASHED
 70
64
  3
- - - - - - - - - - - - - - - - - - - -
 72
65
 73
2
 40
0.2
 49
0.1
 74
0
 49
-0.1
 74
0
  0
ENDTAB
  0
TABLE
  2
LAYER
  5
2
100
AcDbSymbolTable
 70
36
  0
LAYER
  5
10
100
AcDbSymbolTableRecord
100
AcDbLayerTableRecord
  2
0
 70
0
 62
7
  6
CONTINUOUS
370
-3
390
F
  0
LAYER
  5
1FA
100
AcDbSymbolTableRecord
100
AcDbLayerTableRecord
  2
DEFAULT_1
 70
0
 62
7
  6
CENTER
370
-3
390
F
  0
LAYER
  5
1FB
100
AcDbSymbolTableRecord
100
AcDbLayerTableRecord
  2
DEFAULT_2
 70
0
 62
7
  6
HIDDEN
370
-3
390
F
  0
LAYER
  5
1FC
100
AcDbSymbolTableRecord
100
AcDbLayerTableRecord
  2
DEFAULT_3
 70
0
 62
7
  6
PHANTOM
370
-3
390
F
  0
LAYER
  5
1FD
100
AcDbSymbolTableRecord
100
AcDbLayerTableRecord
  2
ASSI
 70
0
 62
7
  6
CONTINUOUS
370
-3
390
F
  0
LAYER
  5
1FE
100
AcDbSymbolTableRecord
100
AcDbLayerTableRecord
  2
COLOR3
 70
0
 62
7
  6
CONTINUOUS
370
-3
390
F
  0
LAYER
  5
1FF
100
AcDbSymbolTableRecord
100
AcDbLayerTableRecord
  2
COORDINATE
 70
0
 62
7
  6
CONTINUOUS
370
-3
390
F
  0
LAYER
  5
200
100
AcDbSymbolTableRecord
100
AcDbLayerTableRecord
  2
COPY_PUBLISH
 70
0
 62
7
  6
CONTINUOUS
370
-3
390
F
  0
LAYER
  5
201
100
AcDbSymbolTableRecord
100
AcDbLayerTableRecord
  2
COSMETIC
 70
0
 62
7
  6
CONTINUOUS
370
-3
390
F
  0
LAYER
  5
202
100
AcDbSymbolTableRecord
100
AcDbLayerTableRecord
  2
COSMETICI
 70
0
 62
7
  6
CONTINUOUS
370
-3
390
F
  0
LAYER
  5
203
100
AcDbSymbolTableRecord
100
AcDbLayerTableRecord
  2
CURVE
 70
0
 62
7
  6
CONTINUOUS
370
-3
390
F
  0
LAYER
  5
204
100
AcDbSymbolTableRecord
100
AcDbLayerTableRecord
  2
DRAFT
 70
0
 62
7
  6
CONTINUOUS
370
-3
390
F
  0
LAYER
  5
205
100
AcDbSymbolTableRecord
100
AcDbLayerTableRecord
  2
IMPORT_IGES
 70
0
 62
7
  6
CONTINUOUS
370
-3
390
F
  0
LAYER
  5
206
100
AcDbSymbolTableRecord
100
AcDbLayerTableRecord
  2
INTFCLR_1
 70
0
 62
7
  6
CONTINUOUS
370
-3
390
F
  0
LAYER
  5
207
100
AcDbSymbolTableRecord
100
AcDbLayerTableRecord
  2
INTF_10
 70
0
 62
7
  6
CONTINUOUS
370
-3
390
F
  0
LAYER
  5
208
100
AcDbSymbolTableRecord
100
AcDbLayerTableRecord
  2
INTF_13
 70
0
 62
7
  6
CONTINUOUS
370
-3
390
F
  0
LAYER
  5
209
100
AcDbSymbolTableRecord
100
AcDbLayerTableRecord
  2
INTF_15
 70
0
 62
7
  6
CONTINUOUS
370
-3
390
F
  0
LAYER
  5
20A
100
AcDbSymbolTableRecord
100
AcDbLayerTableRecord
  2
INTF_16
 70
0
 62
7
  6
CONTINUOUS
370
-3
390
F
  0
LAYER
  5
20B
100
AcDbSymbolTableRecord
100
AcDbLayerTableRecord
  2
INTF_18
 70
0
 62
7
  6
CONTINUOUS
370
-3
390
F
  0
LAYER
  5
20C
100
AcDbSymbolTableRecord
100
AcDbLayerTableRecord
  2
INTF_20
 70
0
 62
7
  6
CONTINUOUS
370
-3
390
F
  0
LAYER
  5
20D
100
AcDbSymbolTableRecord
100
AcDbLayerTableRecord
  2
INTF_3
 70
0
 62
7
  6
CONTINUOUS
370
-3
390
F
  0
LAYER
  5
20E
100
AcDbSymbolTableRecord
100
AcDbLayerTableRecord
  2
INTF_5
 70
0
 62
7
  6
CONTINUOUS
370
-3
390
F
  0
LAYER
  5
20F
100
AcDbSymbolTableRecord
100
AcDbLayerTableRecord
  2
INTF_8
 70
0
 62
7
  6
CONTINUOUS
370
-3
390
F
  0
LAYER
  5
210
100
AcDbSymbolTableRecord
100
AcDbLayerTableRecord
  2
LIVELLO_1
 70
0
 62
7
  6
CONTINUOUS
370
-3
390
F
  0
LAYER
  5
211
100
AcDbSymbolTableRecord
100
AcDbLayerTableRecord
  2
NOTE
 70
0
 62
7
  6
CONTINUOUS
370
-3
390
F
  0
LAYER
  5
212
100
AcDbSymbolTableRecord
100
AcDbLayerTableRecord
  2
PIANI
 70
0
 62
7
  6
CONTINUOUS
370
-3
390
F
  0
LAYER
  5
213
100
AcDbSymbolTableRecord
100
AcDbLayerTableRecord
  2
PUNTI
 70
0
 62
7
  6
CONTINUOUS
370
-3
390
F
  0
LAYER
  5
214
100
AcDbSymbolTableRecord
100
AcDbLayerTableRecord
  2
RACCORDO
 70
0
 62
7
  6
CONTINUOUS
370
-3
390
F
  0
LAYER
  5
215
100
AcDbSymbolTableRecord
100
AcDbLayerTableRecord
  2
SIMBOLI
 70
0
 62
7
  6
CONTINUOUS
370
-3
390
F
  0
LAYER
  5
216
100
AcDbSymbolTableRecord
100
AcDbLayerTableRecord
  2
SMUSSO
 70
0
 62
7
  6
CONTINUOUS
370
-3
390
F
  0
LAYER
  5
217
100
AcDbSymbolTableRecord
100
AcDbLayerTableRecord
  2
SNAPLINE
 70
0
 62
7
  6
CONTINUOUS
370
-3
390
F
  0
LAYER
  5
218
100
AcDbSymbolTableRecord
100
AcDbLayerTableRecord
  2
SOLIDO
 70
0
 62
7
  6
CONTINUOUS
370
-3
390
F
  0
LAYER
  5
219
100
AcDbSymbolTableRecord
100
AcDbLayerTableRecord
  2
SUPERFICI
 70
0
 62
7
  6
CONTINUOUS
370
-3
390
F
  0
LAYER
  5
21A
100
AcDbSymbolTableRecord
100
AcDbLayerTableRecord
  2
SUPERFICI_SKEL
 70
0
 62
7
  6
CONTINUOUS
370
-3
390
F
  0
LAYER
  5
21B
100
AcDbSymbolTableRecord
100
AcDbLayerTableRecord
  2
TRASH
 70
0
 62
7
  6
CONTINUOUS
370
-3
390
F
  0
LAYER
  5
21C
100
AcDbSymbolTableRecord
100
AcDbLayerTableRecord
  2
WHITE
 70
0
 62
7
  6
CONTINUOUS
370
-3
390
F
  0
LAYER
  5
21D
100
AcDbSymbolTableRecord
100
AcDbLayerTableRecord
  2
___SHELL
 70
0
 62
7
  6
CONTINUOUS
370
-3
390
F
  0
ENDTAB
  0
TABLE
  2
STYLE
  5
3
100
AcDbSymbolTable
 70
1
  0
STYLE
  5
11
100
AcDbSymbolTableRecord
100
AcDbTextStyleTableRecord
  2
STANDARD
 70
0
 40
0.0
 41
0.8
 50
0.0
 71
0
 42
0.2
  3
txt
  4

  0
STYLE
  5
21E
100
AcDbSymbolTableRecord
100
AcDbTextStyleTableRecord
  2
TEXTSTYLE_1
 70
0
 40
0.0
 41
0.8
 50
0.0
 71
0
 42
0.2
  3
gdt
  4

  0
ENDTAB
  0
TABLE
  2
VIEW
  5
6
100
AcDbSymbolTable
 70
0
  0
ENDTAB
  0
TABLE
  2
UCS
  5
7
100
AcDbSymbolTable
 70
0
  0
ENDTAB
  0
TABLE
  2
APPID
  5
9
100
AcDbSymbolTable
 70
1
  0
APPID
  5
21F
100
AcDbSymbolTableRecord
100
AcDbRegAppTableRecord
  2
ACAD
 70
0
  0
ENDTAB
  0
TABLE
  2
BLOCK_RECORD
  5
1
100
AcDbSymbolTable
 70
0
  0
BLOCK_RECORD
  5
220
100
AcDbSymbolTableRecord
100
AcDbBlockTableRecord
  2
*Model_Space
  0
BLOCK_RECORD
  5
221
100
AcDbSymbolTableRecord
100
AcDbBlockTableRecord
  2
*Paper_Space
  0
BLOCK_RECORD
  5
222
100
AcDbSymbolTableRecord
100
AcDbBlockTableRecord
  2
_FILLED
  0
BLOCK_RECORD
  5
223
100
AcDbSymbolTableRecord
100
AcDbBlockTableRecord
  2
*D0
  0
BLOCK_RECORD
  5
224
100
AcDbSymbolTableRecord
100
AcDbBlockTableRecord
  2
*D1
  0
BLOCK_RECORD
  5
225
100
AcDbSymbolTableRecord
100
AcDbBlockTableRecord
  2
*D2
  0
ENDTAB
  0
TABLE
  2
DIMSTYLE
  5
A
100
AcDbSymbolTable
 70
1
100
AcDbDimStyleTable
 71
0
  0
DIMSTYLE
105
226
100
AcDbSymbolTableRecord
100
AcDbDimStyleTableRecord
  2
STANDARD
 70
0
  3

  4

 40
1.0
 41
3.0
 42
0.5
 43
0.38
 44
1.5
 45
0.0
 46
0.0
 47
0.01
 48
0.01
140
3.0
141
0.09
142
0.0
143
25.4
144
1.0
145
0.0
146
1.0
147
0.625
 71
1.0
 72
0.0
 73
0
 74
0
 75
0
 76
0
 77
1
 78
8
170
0
171
1
172
0
173
0
174
0
175
0
176
0
177
0
178
0
270
2
271
2
272
2
273
2
274
2
275
0
280
0
281
0
282
0
283
1
284
8
285
0
286
0
287
3
288
0
340
11
278
44
341
222
342
222
343
222
344
222
  0
DIMSTYLE
105
227
100
AcDbSymbolTableRecord
100
AcDbDimStyleTableRecord
  2
DIMSTYLE_1
 70
0
  3

  4

 40
1.0
 41
3.0
 42
0.5
 43
0.38
 44
1.5
 45
0.0
 46
0.0
 47
0.0
 48
0.0
140
3.0
141
0.09
142
0.0
143
25.4
144
1.0
145
0.0
146
1.0
147
0.75
 71
0.0
 72
0.0
 73
0
 74
0
 75
0
 76
0
 77
1
 78
8
170
0
171
1
172
0
173
0
174
0
175
0
176
0
177
0
178
0
270
2
271
2
272
2
273
2
274
2
275
0
280
0
281
0
282
0
283
1
284
8
285
0
286
0
287
3
288
0
340
11
278
44
341
222
342
222
343
222
344
222
  0
DIMSTYLE
105
228
100
AcDbSymbolTableRecord
100
AcDbDimStyleTableRecord
  2
DIMSTYLE_2
 70
0
  3

  4

 40
1.0
 41
3.0
 42
0.5
 43
0.38
 44
1.5
 45
0.0
 46
0.0
 47
0.0
 48
0.0
140
3.0
141
0.09
142
0.0
143
25.4
144
1.0
145
0.0
146
1.0
147
0.75
 71
0.0
 72
0.0
 73
0
 74
0
 75
0
 76
0
 77
1
 78
8
170
0
171
1
172
0
173
0
174
0
175
0
176
0
177
0
178
0
270
2
271
1
272
1
273
2
274
2
275
0
280
0
281
0
282
0
283
1
284
8
285
0
286
0
287
3
288
0
340
11
278
44
341
222
342
222
343
222
344
222
  0
ENDTAB
  0
ENDSEC
  0
SECTION
  2
BLOCKS
  0
BLOCK
  5
20
100
AcDbEntity
  8
0
100
AcDbBlockBegin
  2
*Model_Space
 70
0
 10
0.0
 20
0.0
 30
0.0
  3
*Model_Space
  1

  0
ENDBLK
  5
21
100
AcDbEntity
  8
0
100
AcDbBlockEnd
  0
BLOCK
  5
1C
100
AcDbEntity
  8
0
100
AcDbBlockBegin
  2
*Paper_Space
 70
0
 10
0.0
 20
0.0
 30
0.0
  3
*Paper_Space
  1

  0
ENDBLK
  5
1D
100
AcDbEntity
  8
0
100
AcDbBlockEnd
  0
BLOCK
  5
229
100
AcDbEntity
  8
0
100
AcDbBlockBegin
  2
_FILLED
 70
64
 10
0.0
 20
0.0
  3
_FILLED
  1

  0
SOLID
  5
22A
100
AcDbEntity
  8
0
  6
BYBLOCK
 62
0
100
AcDbTrace
 10
0.0
 20
0.0
 11
-1.0
 21
0.3166666667
 12
-1.0
 22
-0.3166666667
 13
-1.0
 23
-0.3166666667
  0
ENDBLK
  5
22B
100
AcDbEntity
  8
0
  6
BYBLOCK
 62
0
100
AcDbBlockEnd
  0
BLOCK
  5
22C
100
AcDbEntity
  8
0
100
AcDbBlockBegin
 62
7
  6
CONTINUOUS
  2
*D0
 70
65
 10
0.0
 20
0.0
  3
*D0
  1

  0
MTEXT
  5
22D
100
AcDbEntity
  8
0
100
AcDbMText
 62
7
  6
CONTINUOUS
  7
STANDARD
 71
2
 72
1
 10
-0.2636751627
 20
38.9934831731
 30
0.0
 11
1.0
 21
0.0
 31
0.0
 44
0.9
  1
22,05
 40
3.0
 41
16.3928571429
  0
LINE
  5
22E
100
AcDbEntity
  8
0
100
AcDbLine
 62
7
  6
CONTINUOUS
 10
-11.2890452862
 20
13.4500266667
 11
-11.2890452862
 21
36.7434831731
  0
LINE
  5
22F
100
AcDbEntity
  8
0
100
AcDbLine
 62
7
  6
CONTINUOUS
 10
10.7616949608
 20
13.4500266667
 11
10.7616949608
 21
36.7434831731
  0
LINE
  5
230
100
AcDbEntity
  8
0
100
AcDbLine
 62
7
  6
CONTINUOUS
 10
-11.2890452862
 20
35.2434831731
 11
-0.2636751627
 21
35.2434831731
  0
LINE
  5
231
100
AcDbEntity
  8
0
100
AcDbLine
 62
7
  6
CONTINUOUS
 10
10.7616949608
 20
35.2434831731
 11
-0.2636751627
 21
35.2434831731
  0
INSERT
  5
232
100
AcDbEntity
  8
0
100
AcDbBlockReference
 62
7
  6
CONTINUOUS
  2
_FILLED
 10
-11.2890452862
 20
35.2434831731
 41
3.0
 42
3.0
 43
3.0
 50
180.0
  0
INSERT
  5
233
100
AcDbEntity
  8
0
100
AcDbBlockReference
 62
7
  6
CONTINUOUS
  2
_FILLED
 10
10.7616949608
 20
35.2434831731
 41
3.0
 42
3.0
 43
3.0
  0
ENDBLK
  5
234
100
AcDbEntity
  8
0
  6
BYBLOCK
 62
0
100
AcDbBlockEnd
  0
BLOCK
  5
235
100
AcDbEntity
  8
0
100
AcDbBlockBegin
 62
7
  6
CONTINUOUS
  2
*D1
 70
65
 10
0.0
 20
0.0
  3
*D1
  1

  0
MTEXT
  5
236
100
AcDbEntity
  8
0
100
AcDbMText
 62
7
  6
CONTINUOUS
  7
STANDARD
 71
2
 72
1
 10
20.0723071014
 20
-0.1499733333
 30
0.0
 11
0.0
 21
1.0
 31
0.0
 44
0.9
  1
44,4
 40
3.0
 41
13.1785714286
  0
LINE
  5
237
100
AcDbEntity
  8
0
100
AcDbLine
 62
7
  6
CONTINUOUS
 10
10.7413406311
 20
22.0588995252
 11
25.3223071014
 21
22.0588995252
  0
LINE
  5
238
100
AcDbEntity
  8
0
100
AcDbLine
 62
7
  6
CONTINUOUS
 10
10.7413406311
 20
-22.3588461917
 11
25.3223071014
 21
-22.3588461917
  0
LINE
  5
239
100
AcDbEntity
  8
0
100
AcDbLine
 62
7
  6
CONTINUOUS
 10
23.8223071014
 20
22.0588995252
 11
23.8223071014
 21
-0.1499733333
  0
LINE
  5
23A
100
AcDbEntity
  8
0
100
AcDbLine
 62
7
  6
CONTINUOUS
 10
23.8223071014
 20
-22.3588461917
 11
23.8223071014
 21
-0.1499733333
  0
INSERT
  5
23B
100
AcDbEntity
  8
0
100
AcDbBlockReference
 62
7
  6
CONTINUOUS
  2
_FILLED
 10
23.8223071014
 20
22.0588995252
 41
3.0
 42
3.0
 43
3.0
 50
90.0
  0
INSERT
  5
23C
100
AcDbEntity
  8
0
100
AcDbBlockReference
 62
7
  6
CONTINUOUS
  2
_FILLED
 10
23.8223071014
 20
-22.3588461917
 41
3.0
 42
3.0
 43
3.0
 50
270.0
  0
ENDBLK
  5
23D
100
AcDbEntity
  8
0
  6
BYBLOCK
 62
0
100
AcDbBlockEnd
  0
BLOCK
  5
23E
100
AcDbEntity
  8
0
100
AcDbBlockBegin
 62
7
  6
CONTINUOUS
  2
*D2
 70
65
 10
0.0
 20
0.0
  3
*D2
  1

  0
MTEXT
  5
23F
100
AcDbEntity
  8
0
100
AcDbMText
 62
7
  6
CONTINUOUS
  7
STANDARD
 71
1
 72
1
 10
-25.5402835721
 20
38.9934831731
 30
0.0
 11
1.0
 21
0.0
 31
0.0
 44
0.9
  1
6,35
 40
3.0
 41
12.5357142857
  0
LINE
  5
240
100
AcDbEntity
  8
0
100
AcDbLine
 62
7
  6
CONTINUOUS
 10
-30.0098007124
 20
13.4500266667
 11
-30.0098007124
 21
36.7434831731
  0
LINE
  5
241
100
AcDbEntity
  8
0
100
AcDbLine
 62
7
  6
CONTINUOUS
 10
-36.3591072837
 20
1.1020318447
 11
-36.3591072837
 21
36.7434831731
  0
LINE
  5
242
100
AcDbEntity
  8
0
100
AcDbLine
 62
7
  6
CONTINUOUS
 10
-30.0098007124
 20
35.2434831731
 11
-17.1831407149
 21
35.2434831731
  0
LINE
  5
243
100
AcDbEntity
  8
0
100
AcDbLine
 62
7
  6
CONTINUOUS
 10
-17.1831407149
 20
35.2434831731
 11
-33.1844539981
 21
35.2434831731
  0
LINE
  5
244
100
AcDbEntity
  8
0
100
AcDbLine
 62
7
  6
CONTINUOUS
 10
-36.3591072837
 20
35.2434831731
 11
-40.3591072837
 21
35.2434831731
  0
LINE
  5
245
100
AcDbEntity
  8
0
100
AcDbLine
 62
7
  6
CONTINUOUS
 10
-40.3591072837
 20
35.2434831731
 11
-33.1844539981
 21
35.2434831731
  0
INSERT
  5
246
100
AcDbEntity
  8
0
100
AcDbBlockReference
 62
7
  6
CONTINUOUS
  2
_FILLED
 10
-30.0098007124
 20
35.2434831731
 41
3.0
 42
3.0
 43
3.0
 50
180.0
  0
INSERT
  5
247
100
AcDbEntity
  8
0
100
AcDbBlockReference
 62
7
  6
CONTINUOUS
  2
_FILLED
 10
-36.3591072837
 20
35.2434831731
 41
3.0
 42
3.0
 43
3.0
  0
ENDBLK
  5
248
100
AcDbEntity
  8
0
  6
BYBLOCK
 62
0
100
AcDbBlockEnd
  0
ENDSEC
  0
SECTION
  2
ENTITIES
  0
DIMENSION
  5
249
100
AcDbEntity
  8
0
100
AcDbDimension
 62
7
  6
CONTINUOUS
  2
*D0
 10
10.7616949608
 20
35.2434831731
 11
-0.6922466254
 21
35.2434831731
 70
160
 71
2
 42
22.0507402471
  3
DIMSTYLE_1
100
AcDbAlignedDimension
 13
-11.2890452862
 23
12.9500266667
 14
10.7616949608
 24
12.9500266667
100
AcDbRotatedDimension
  0
DIMENSION
  5
24A
100
AcDbEntity
  8
0
100
AcDbDimension
 62
7
  6
CONTINUOUS
  2
*D1
 10
23.8223071014
 20
-22.3588461917
 11
23.8223071014
 21
-0.5785447621
 70
160
 71
2
 42
44.4177457169
  3
DIMSTYLE_2
100
AcDbAlignedDimension
 13
10.2413406311
 23
22.0588995252
 14
10.2413406311
 24
-22.3588461917
 50
270.0
100
AcDbRotatedDimension
  0
DIMENSION
  5
24B
100
AcDbEntity
  8
0
100
AcDbDimension
 62
7
  6
CONTINUOUS
  2
*D2
 10
-36.3591072837
 20
35.2434831731
 11
-21.7902841129
 21
35.2434831731
 70
160
 71
1
 42
6.3493065714
  3
DIMSTYLE_1
100
AcDbAlignedDimension
 13
-30.0098007124
 23
12.9500266667
 14
-36.3591072837
 24
0.6020318447
 50
180.0
100
AcDbRotatedDimension
  0
LINE
  5
24C
100
AcDbEntity
  8
0
100
AcDbLine
 62
7
  6
CONTINUOUS
 10
3.1304032071
 20
-22.3588461917
 11
3.4785898104
 21
-22.3272402713
  0
LINE
  5
24D
100
AcDbEntity
  8
0
100
AcDbLine
 62
7
  6
CONTINUOUS
 10
-8.0695967929
 20
-22.3588461917
 11
-7.7214101896
 21
-22.3272402713
  0
LWPOLYLINE
  5
24E
100
AcDbEntity
  8
0
100
AcDbPolyline
 62
253
  6
CONTINUOUS
 90
16
 70
0
 10
10.1491621731
 20
-22.1743627749
 10
10.2013637995
 20
-22.1715607297
 10
10.252994411
 20
-22.1633281403
 10
10.3034893077
 20
-22.14975507
 10
10.3522962295
 20
-22.1309899856
 10
10.398881351
 20
-22.1072381496
 10
10.4427351278
 20
-22.0787593894
 10
10.4833779321
 20
-22.0458652208
 10
10.5203652768
 20
-22.0089154364
 10
10.5532926403
 20
-21.9683142013
 10
10.58179992
 20
-21.9245056099
 10
10.6055753722
 20
-21.8779688129
 10
10.6243590066
 20
-21.829212788
 10
10.6379454231
 20
-21.7787707849
 10
10.6461860628
 20
-21.7271944958
 10
10.6489908355
 20
-21.6750480075
  0
LWPOLYLINE
  5
24F
100
AcDbEntity
  8
0
100
AcDbPolyline
 62
253
  6
CONTINUOUS
 90
14
 70
0
 10
10.2622274113
 20
-21.0264338188
 10
10.3090647546
 20
-21.0257277372
 10
10.3541827299
 20
-21.0248284254
 10
10.3971438773
 20
-21.0237446028
 10
10.4375316492
 20
-21.0224867783
 10
10.474954449
 20
-21.0210671474
 10
10.5090494286
 20
-21.0194994748
 10
10.5394860058
 20
-21.0177989606
 10
10.5659690703
 20
-21.0159820927
 10
10.5882418445
 20
-21.0140664874
 10
10.6060883734
 20
-21.0120707182
 10
10.6193356186
 20
-21.0100141359
 10
10.627855136
 20
-21.0079166809
 10
10.631564321
 20
-21.0057986901
  0
LINE
  5
250
100
AcDbEntity
  8
0
100
AcDbLine
 62
253
  6
CONTINUOUS
 10
10.1652234125
 20
-21.0272408463
 11
10.2622274113
 21
-21.0264338188
  0
LINE
  5
251
100
AcDbEntity
  8
0
100
AcDbLine
 62
253
  6
CONTINUOUS
 10
-10.676512499
 20
-22.1743627761
 11
-7.3069469298
 21
-22.1643366399
  0
LINE
  5
252
100
AcDbEntity
  8
0
100
AcDbLine
 62
253
  6
CONTINUOUS
 10
-7.3069469298
 20
-22.1643366399
 11
-3.9349008755
 21
-22.1581824742
  0
LINE
  5
253
100
AcDbEntity
  8
0
100
AcDbLine
 62
253
  6
CONTINUOUS
 10
-3.9349008755
 20
-22.1581824742
 11
-0.561243781
 21
-22.1559022647
  0
LINE
  5
254
100
AcDbEntity
  8
0
100
AcDbLine
 62
7
  6
CONTINUOUS
 10
-10.7686909565
 20
-22.3588461917
 11
-8.0695967929
 21
-22.3588461917
  0
LINE
  5
255
100
AcDbEntity
  8
0
100
AcDbLine
 62
7
  6
CONTINUOUS
 10
-3.6577535325
 20
-22.3588461917
 11
3.1304032071
 21
-22.3588461917
  0
LINE
  5
256
100
AcDbEntity
  8
0
100
AcDbLine
 62
7
  6
CONTINUOUS
 10
7.5422464675
 20
-22.3588461917
 11
10.2413406311
 21
-22.3588461917
  0
LINE
  5
257
100
AcDbEntity
  8
0
100
AcDbLine
 62
7
  6
CONTINUOUS
 10
-7.5482051088
 20
-22.3219994934
 11
-4.1791452165
 21
-22.3219994934
  0
LINE
  5
258
100
AcDbEntity
  8
0
100
AcDbLine
 62
7
  6
CONTINUOUS
 10
3.6517948912
 20
-22.3219994934
 11
7.0208547835
 21
-22.3219994934
  0
LINE
  5
259
100
AcDbEntity
  8
0
100
AcDbLine
 62
253
  6
CONTINUOUS
 10
-0.561243781
 20
-22.1559022647
 11
2.8064838759
 21
-22.1574891994
  0
LINE
  5
25A
100
AcDbEntity
  8
0
100
AcDbLine
 62
253
  6
CONTINUOUS
 10
2.8064838759
 20
-22.1574891994
 11
6.2774975176
 21
-22.1631747429
  0
LWPOLYLINE
  5
25B
100
AcDbEntity
  8
0
100
AcDbPolyline
 62
253
  6
CONTINUOUS
 90
3
 70
0
 10
6.2774975176
 20
-22.1631747429
 10
9.3315837587
 20
-22.171601869
 10
10.1491621731
 20
-22.1743627749
  0
LWPOLYLINE
  5
25C
100
AcDbEntity
  8
0
100
AcDbPolyline
 62
253
  6
CONTINUOUS
 90
15
 70
0
 10
-10.692572888
 20
-21.0272402997
 10
-10.7895759777
 20
-21.0264332979
 10
-10.836412926
 20
-21.0257272382
 10
-10.8815305636
 20
-21.0248279536
 10
-10.9244914424
 20
-21.0237441634
 10
-10.9648790255
 20
-21.0224863754
 10
-11.0023017261
 20
-21.0210667848
 10
-11.0363967042
 20
-21.0194991554
 10
-11.0668333842
 20
-21.0177986867
 10
-11.0933166606
 20
-21.0159818658
 10
-11.1155897588
 20
-21.0140663082
 10
-11.1334367251
 20
-21.0120705866
 10
-11.1466845201
 20
-21.010014051
 10
-11.1552046971
 20
-21.0079166409
 10
-11.1589146466
 20
-21.0057986923
  0
LWPOLYLINE
  5
25D
100
AcDbEntity
  8
0
100
AcDbPolyline
 62
253
  6
CONTINUOUS
 90
16
 70
0
 10
-10.676512499
 20
-22.1743627761
 10
-10.7287134691
 20
-22.1715608009
 10
-10.7803435106
 20
-22.1633284038
 10
-10.8308379395
 20
-22.1497556236
 10
-10.879644492
 20
-22.1309909074
 10
-10.9262293646
 20
-22.1072394873
 10
-10.9700830531
 20
-22.0787611355
 10
-11.010725924
 20
-22.0458673233
 10
-11.0477134613
 20
-22.0089178144
 10
-11.0806411278
 20
-21.9683167301
 10
-11.1091487894
 20
-21.9245081295
 10
-11.1329246544
 20
-21.8779711528
 10
-11.1517086832
 20
-21.8292147804
 10
-11.1652954326
 20
-21.7787722671
 10
-11.1735363025
 20
-21.7271953086
 10
-11.1763411615
 20
-21.6750480088
  0
LINE
  5
25E
100
AcDbEntity
  8
0
100
AcDbLine
 62
7
  6
CONTINUOUS
 10
-3.6577535325
 20
-22.3588461917
 11
-4.0059401358
 21
-22.3272402713
  0
LINE
  5
25F
100
AcDbEntity
  8
0
100
AcDbLine
 62
7
  6
CONTINUOUS
 10
7.5422464675
 20
-22.3588461917
 11
7.1940598642
 21
-22.3272402713
  0
LINE
  5
260
100
AcDbEntity
  8
0
100
AcDbLine
 62
253
  6
CONTINUOUS
 10
-10.6925737394
 20
-21.0272408148
 11
-5.2897533374
 21
-21.0217887687
  0
LINE
  5
261
100
AcDbEntity
  8
0
100
AcDbLine
 62
253
  6
CONTINUOUS
 10
-5.2897533374
 20
-21.0217887687
 11
6.2930402447
 21
-21.0229448581
  0
LINE
  5
262
100
AcDbEntity
  8
0
100
AcDbLine
 62
253
  6
CONTINUOUS
 10
6.2930402447
 20
-21.0229448581
 11
10.1652234126
 21
-21.0272408324
  0
LWPOLYLINE
  5
263
100
AcDbEntity
  8
0
100
AcDbPolyline
 62
253
  6
CONTINUOUS
 90
7
 70
0
 10
-10.6765124984
 20
21.8744161084
 10
-10.6775641948
 20
21.8670301712
 10
-10.6786577133
 20
21.8537544999
 10
-10.6797651749
 20
21.8346577218
 10
-10.6808379397
 20
21.8098380715
 10
-10.681870071
 20
21.7794205947
 10
-10.6838994981
 20
21.7024158227
  0
LWPOLYLINE
  5
264
100
AcDbEntity
  8
0
100
AcDbPolyline
 62
253
  6
CONTINUOUS
 90
29
 70
0
 10
1.3969729667
 20
-12.8627817475
 10
1.3922167354
 20
-12.862736122
 10
1.3874706565
 20
-12.8625998126
 10
1.3827340939
 20
-12.8623736699
 10
1.3780064117
 20
-12.8620585444
 10
1.3732869739
 20
-12.8616552869
 10
1.3685751444
 20
-12.8611647479
 10
1.3638702872
 20
-12.860587778
 10
1.3591721897
 20
-12.8599251323
 10
1.354482332
 20
-12.859177184
 10
1.3498026177
 20
-12.8583442106
 10
1.3451349502
 20
-12.8574264899
 10
1.3404812331
 20
-12.8564242994
 10
1.3358433698
 20
-12.8553379169
 10
1.3312232638
 20
-12.8541676198
 10
1.3266228176
 20
-12.8529136703
 10
1.3220439284
 20
-12.8515762676
 10
1.3174884927
 20
-12.8501555953
 10
1.3129584067
 20
-12.848651837
 10
1.3084555667
 20
-12.8470651765
 10
1.3039818691
 20
-12.8453957973
 10
1.29953921
 20
-12.843643883
 10
1.2951292067
 20
-12.8418093278
 10
1.2907523603
 20
-12.839890868
 10
1.2864088926
 20
-12.8378869503
 10
1.2820990255
 20
-12.8357960216
 10
1.2778229811
 20
-12.8336165285
 10
1.2735809812
 20
-12.8313469178
 10
1.2693732477
 20
-12.8289856364
  0
LWPOLYLINE
  5
265
100
AcDbEntity
  8
0
100
AcDbPolyline
 62
253
  6
CONTINUOUS
 90
42
 70
0
 10
-1.9335666706
 20
-12.8627817475
 10
-1.9389803537
 20
-12.8627116824
 10
-1.9443675189
 20
-12.8625033379
 10
-1.9497347216
 20
-12.8621594905
 10
-1.9550885173
 20
-12.8616829164
 10
-1.9604354616
 20
-12.8610763919
 10
-1.9657821099
 20
-12.8603426935
 10
-1.9722049074
 20
-12.8592974802
 10
-1.9786359264
 20
-12.8580730448
 10
-1.9850743745
 20
-12.8566692978
 10
-1.9915194595
 20
-12.8550861495
 10
-1.997970389
 20
-12.8533235105
 10
-2.0044244986
 20
-12.8513820206
 10
-2.010871635
 20
-12.8492652363
 10
-2.0172997726
 20
-12.8469774436
 10
-2.0236968858
 20
-12.8445229284
 10
-2.0300509492
 20
-12.8419059765
 10
-2.0363510308
 20
-12.8391307328
 10
-2.0425905726
 20
-12.8362007785
 10
-2.0487641103
 20
-12.8331195539
 10
-2.0548661795
 20
-12.8298904992
 10
-2.0608913159
 20
-12.8265170545
 10
-2.066833903
 20
-12.8230026503
 10
-2.0726877157
 20
-12.8193506786
 10
-2.0784463769
 20
-12.8155645214
 10
-2.0841035095
 20
-12.8116475608
 10
-2.0896527363
 20
-12.807603179
 10
-2.0950871018
 20
-12.8034356596
 10
-2.1003973367
 20
-12.7991528919
 10
-2.1055735933
 20
-12.7947636667
 10
-2.110606024
 20
-12.7902767748
 10
-2.1154847809
 20
-12.7857010072
 10
-2.1202017288
 20
-12.7810437744
 10
-2.1247555811
 20
-12.7763069668
 10
-2.1291467635
 20
-12.7714910947
 10
-2.1333757018
 20
-12.7665966681
 10
-2.1374428217
 20
-12.7616241974
 10
-2.1413487673
 20
-12.7565721877
 10
-2.1450950556
 20
-12.7514311242
 10
-2.1486834221
 20
-12.7461894873
 10
-2.1521156023
 20
-12.7408357572
 10
-2.1553933316
 20
-12.7353584142
  0
LWPOLYLINE
  5
266
100
AcDbEntity
  8
0
100
AcDbPolyline
 62
253
  6
CONTINUOUS
 90
53
 70
0
 10
-0.2683497686
 20
-13.8245598028
 10
-0.2762323312
 20
-13.8244313279
 10
-0.2840311465
 20
-13.824049171
 10
-0.2917657113
 20
-13.8234182336
 10
-0.2994555219
 20
-13.8225434175
 10
-0.3071200751
 20
-13.8214296242
 10
-0.3147747645
 20
-13.8200807673
 10
-0.3224185728
 20
-13.8184968091
 10
-0.3300463799
 20
-13.8166767236
 10
-0.3376530657
 20
-13.814619485
 10
-0.3452335101
 20
-13.8123240675
 10
-0.3527816668
 20
-13.8097897117
 10
-0.360287785
 20
-13.8070167244
 10
-0.3677411875
 20
-13.8040056785
 10
-0.3751311973
 20
-13.8007571473
 10
-0.3824471375
 20
-13.7972717038
 10
-0.3884776878
 20
-13.7941879716
 10
-0.3944325126
 20
-13.7909486371
 10
-0.4002947383
 20
-13.7875622227
 10
-0.4060516247
 20
-13.7840346466
 10
-0.4117069653
 20
-13.7803614127
 10
-0.4172686871
 20
-13.7765354209
 10
-0.4238255204
 20
-13.7717354254
 10
-0.4302437507
 20
-13.7667099574
 10
-0.4365081712
 20
-13.7614637399
 10
-0.442603575
 20
-13.7560014956
 10
-0.4485147553
 20
-13.7503279477
 10
-0.4542284195
 20
-13.7444489233
 10
-0.4597389331
 20
-13.7383746677
 10
-0.4650425756
 20
-13.7321165303
 10
-0.470135627
 20
-13.7256858608
 10
-0.4750143668
 20
-13.7190940086
 10
-0.4789149372
 20
-13.7134832209
 10
-0.4826700328
 20
-13.7077591102
 10
-0.4862855896
 20
-13.7019124041
 10
-0.4897643058
 20
-13.6959394047
 10
-0.4930959282
 20
-13.6898587113
 10
-0.4962669659
 20
-13.6836944977
 10
-0.4998450362
 20
-13.6762169624
 10
-0.5031718795
 20
-13.6686701261
 10
-0.5062469378
 20
-13.6610701467
 10
-0.509069653
 20
-13.6534331821
 10
-0.5116394673
 20
-13.6457753902
 10
-0.5139565477
 20
-13.6381105719
 10
-0.5160239619
 20
-13.6304431001
 10
-0.5178455025
 20
-13.6227749905
 10
-0.5194249622
 20
-13.6151082591
 10
-0.5207661335
 20
-13.6074449216
 10
-0.5218714997
 20
-13.5997833636
 10
-0.5227383051
 20
-13.5921074496
 10
-0.5233624848
 20
-13.5843974139
 10
-0.5237399736
 20
-13.5766334906
 10
-0.5238667066
 20
-13.568795914
  0
LWPOLYLINE
  5
267
100
AcDbEntity
  8
0
100
AcDbPolyline
 62
253
  6
CONTINUOUS
 90
53
 70
0
 10
-0.2683497686
 20
-12.7852764697
 10
-0.260442792
 20
-12.7854054167
 10
-0.2526205044
 20
-12.7857889326
 10
-0.2448634212
 20
-12.7864220291
 10
-0.2371520576
 20
-12.7872997182
 10
-0.2294669289
 20
-12.7884170117
 10
-0.2217926584
 20
-12.7897699082
 10
-0.2141303009
 20
-12.7913583519
 10
-0.2064850193
 20
-12.7931832738
 10
-0.1988619763
 20
-12.7952456048
 10
-0.1912663347
 20
-12.7975462757
 10
-0.1837041614
 20
-12.8000859583
 10
-0.1761851387
 20
-12.8028642876
 10
-0.1687198528
 20
-12.8058806398
 10
-0.1613188901
 20
-12.8091343906
 10
-0.1539928367
 20
-12.8126249162
 10
-0.147954429
 20
-12.8157127503
 10
-0.14199218
 20
-12.8189560768
 10
-0.1361228765
 20
-12.8223463946
 10
-0.13035919
 20
-12.8258777943
 10
-0.1246973313
 20
-12.8295547322
 10
-0.1191293961
 20
-12.8333842559
 10
-0.1125655222
 20
-12.8381882003
 10
-0.1061406494
 20
-12.843217271
 10
-0.099869911
 20
-12.8484667217
 10
-0.0937684408
 20
-12.8539318061
 10
-0.0878513722
 20
-12.8596077781
 10
-0.0821319361
 20
-12.8654887927
 10
-0.0766157535
 20
-12.8715646108
 10
-0.0713065427
 20
-12.8778238948
 10
-0.066208022
 20
-12.8842553069
 10
-0.0613239096
 20
-12.8908475095
 10
-0.0574189373
 20
-12.8964582919
 10
-0.0536595205
 20
-12.9021821027
 10
-0.0500397381
 20
-12.9080281835
 10
-0.0465569054
 20
-12.9140002123
 10
-0.0432212844
 20
-12.9200796112
 10
-0.0400463738
 20
-12.9262422387
 10
-0.0364638338
 20
-12.9337175246
 10
-0.0331327346
 20
-12.9412617538
 10
-0.0300536559
 20
-12.9488587844
 10
-0.0272271774
 20
-12.9564924742
 10
-0.0246538788
 20
-12.9641466814
 10
-0.0223336125
 20
-12.9718076211
 10
-0.020263321
 20
-12.9794709372
 10
-0.0184392194
 20
-12.9871346309
 10
-0.0168575227
 20
-12.9947967033
 10
-0.0155144459
 20
-13.0024551555
 10
-0.0144075131
 20
-13.0101116086
 10
-0.0135394836
 20
-13.0177821629
 10
-0.0129144256
 20
-13.0254865387
 10
-0.0125364075
 20
-13.0332444564
 10
-0.0124094974
 20
-13.0410756363
  0
LWPOLYLINE
  5
268
100
AcDbEntity
  8
0
100
AcDbPolyline
 62
253
  6
CONTINUOUS
 90
8
 70
0
 10
-10.6759540521
 20
0.2275270945
 10
-10.6723148965
 20
0.1944279123
 10
-10.6683839201
 20
0.1657849558
 10
-10.6647340527
 20
0.1418621222
 10
-10.6604614759
 20
0.1228224082
 10
-10.6555685228
 20
0.1089232361
 10
-10.6510303903
 20
0.1003770114
 10
-10.6473347092
 20
0.0972348894
  0
LWPOLYLINE
  5
269
100
AcDbEntity
  8
0
100
AcDbPolyline
 62
253
  6
CONTINUOUS
 90
16
 70
0
 10
-11.1471633717
 20
0.5972158509
 10
-11.1444778351
 20
0.5455699193
 10
-11.1364376664
 20
0.4943059325
 10
-11.1230760558
 20
0.4439844233
 10
-11.1044621349
 20
0.3951121819
 10
-11.0807605122
 20
0.3482997381
 10
-11.0522849212
 20
0.304227596
 10
-11.0193900855
 20
0.2634275432
 10
-10.9824062544
 20
0.2262943065
 10
-10.9417290074
 20
0.1932284965
 10
-10.8977949044
 20
0.1645925742
 10
-10.8510916873
 20
0.1407114782
 10
-10.8021449744
 20
0.121856508
 10
-10.7514982734
 20
0.1082362771
 10
-10.6997048013
 20
0.0999988323
 10
-10.6473347093
 20
0.0972348894
  0
LWPOLYLINE
  5
26A
100
AcDbEntity
  8
0
100
AcDbPolyline
 62
253
  6
CONTINUOUS
 90
4
 70
0
 10
-10.6862602432
 20
0.3957880406
 10
-10.6844592999
 20
0.3490763103
 10
-10.6817451437
 20
0.3051053946
 10
-10.6759540521
 20
0.2275270945
  0
LWPOLYLINE
  5
26B
100
AcDbEntity
  8
0
100
AcDbPolyline
 62
253
  6
CONTINUOUS
 90
6
 70
0
 10
-10.6818700718
 20
-22.0793672613
 10
-10.6808379404
 20
-22.1097847376
 10
-10.6797651755
 20
-22.134604388
 10
-10.6786577139
 20
-22.1537011666
 10
-10.6775641954
 20
-22.1669768386
 10
-10.676512499
 20
-22.1743627761
  0
LINE
  5
26C
100
AcDbEntity
  8
0
100
AcDbLine
 62
253
  6
CONTINUOUS
 10
-10.683899499
 20
-22.0023624904
 11
-10.6818700718
 21
-22.0793672613
  0
LINE
  5
26D
100
AcDbEntity
  8
0
100
AcDbLine
 62
253
  6
CONTINUOUS
 10
-11.1646874454
 20
21.1855804554
 11
-11.1629303631
 21
21.113158652
  0
LINE
  5
26E
100
AcDbEntity
  8
0
100
AcDbLine
 62
253
  6
CONTINUOUS
 10
-10.6857733143
 20
-21.9051174225
 11
-10.683899499
 21
-22.0023624904
  0
LINE
  5
26F
100
AcDbEntity
  8
0
100
AcDbLine
 62
253
  6
CONTINUOUS
 10
-11.1629303631
 20
21.113158652
 11
-11.161459801
 21
21.0320869636
  0
LINE
  5
270
100
AcDbEntity
  8
0
100
AcDbLine
 62
253
  6
CONTINUOUS
 10
-10.6882727739
 20
-21.7256460709
 11
-10.6857733143
 21
-21.9051174225
  0
LINE
  5
271
100
AcDbEntity
  8
0
100
AcDbLine
 62
253
  6
CONTINUOUS
 10
-11.161459801
 20
21.0320869636
 11
-11.1603050109
 21
20.9442257742
  0
LINE
  5
272
100
AcDbEntity
  8
0
100
AcDbLine
 62
253
  6
CONTINUOUS
 10
-10.6908462021
 20
-21.4364588472
 11
-10.6882727739
 21
-21.7256460709
  0
LINE
  5
273
100
AcDbEntity
  8
0
100
AcDbLine
 62
253
  6
CONTINUOUS
 10
-11.1603050109
 20
20.9442257742
 11
-11.1592055618
 21
20.8033612364
  0
LWPOLYLINE
  5
274
100
AcDbEntity
  8
0
100
AcDbPolyline
 62
253
  6
CONTINUOUS
 90
3
 70
0
 10
-10.6900008259
 20
-0.897929705
 10
-10.6902256931
 20
-0.8449411102
 10
-10.6893731215
 20
-0.7936905491
  0
LINE
  5
275
100
AcDbEntity
  8
0
100
AcDbLine
 62
7
  6
CONTINUOUS
 10
-11.2693173781
 20
-21.8611280374
 11
-11.2890452862
 21
-13.2499733333
  0
LINE
  5
276
100
AcDbEntity
  8
0
100
AcDbLine
 62
253
  6
CONTINUOUS
 10
-10.6925737447
 20
-21.0272408139
 11
-10.6908462021
 21
-21.4364588472
  0
LINE
  5
277
100
AcDbEntity
  8
0
100
AcDbLine
 62
253
  6
CONTINUOUS
 10
-11.1592055618
 20
20.8033612364
 11
-11.1486938847
 21
7.4094492389
  0
LINE
  5
278
100
AcDbEntity
  8
0
100
AcDbLine
 62
7
  6
CONTINUOUS
 10
-11.2890452862
 20
12.9500266667
 11
-11.2890452862
 21
0.5499314845
  0
LINE
  5
279
100
AcDbEntity
  8
0
100
AcDbLine
 62
7
  6
CONTINUOUS
 10
-11.2890452862
 20
-13.2499733333
 11
-11.2890452862
 21
-0.8498781511
  0
LINE
  5
27A
100
AcDbEntity
  8
0
100
AcDbLine
 62
253
  6
CONTINUOUS
 10
-11.1486938847
 20
7.4094492389
 11
-11.1471633717
 21
0.5972158509
  0
LINE
  5
27B
100
AcDbEntity
  8
0
100
AcDbLine
 62
253
  6
CONTINUOUS
 10
-10.69000061
 20
-0.8979297086
 11
-10.6925737394
 21
-21.0272408148
  0
LINE
  5
27C
100
AcDbEntity
  8
0
100
AcDbLine
 62
253
  6
CONTINUOUS
 10
-11.1471633692
 20
-0.8971625183
 11
-11.1494151484
 21
-9.3181982822
  0
LINE
  5
27D
100
AcDbEntity
  8
0
100
AcDbLine
 62
253
  6
CONTINUOUS
 10
-11.1494151484
 20
-9.3181982822
 11
-11.1563106032
 21
-18.5036058721
  0
LINE
  5
27E
100
AcDbEntity
  8
0
100
AcDbLine
 62
7
  6
CONTINUOUS
 10
-11.2693173781
 20
21.5611813709
 11
-11.2890452862
 21
12.9500266667
  0
LINE
  5
27F
100
AcDbEntity
  8
0
100
AcDbLine
 62
253
  6
CONTINUOUS
 10
-10.6921003245
 20
20.8946362168
 11
-10.6900006216
 21
0.5979830475
  0
LINE
  5
280
100
AcDbEntity
  8
0
100
AcDbLine
 62
253
  6
CONTINUOUS
 10
-11.1563106032
 20
-18.5036058721
 11
-11.1592055624
 21
-21.1033079049
  0
LWPOLYLINE
  5
281
100
AcDbEntity
  8
0
100
AcDbPolyline
 62
253
  6
CONTINUOUS
 90
4
 70
0
 10
-10.6900008285
 20
0.5979830497
 10
-10.690225567
 20
0.544996452
 10
-10.6893730767
 20
0.4937475646
 10
-10.6862602432
 20
0.3957880406
  0
LINE
  5
282
100
AcDbEntity
  8
0
100
AcDbLine
 62
253
  6
CONTINUOUS
 10
-10.6896749643
 20
21.2871026472
 11
-10.6921003245
 21
20.8946362168
  0
LINE
  5
283
100
AcDbEntity
  8
0
100
AcDbLine
 62
253
  6
CONTINUOUS
 10
-11.1592055624
 20
-21.1033079049
 11
-11.1603050116
 21
-21.2441724427
  0
LINE
  5
284
100
AcDbEntity
  8
0
100
AcDbLine
 62
253
  6
CONTINUOUS
 10
-10.687484802
 20
21.4896292311
 11
-10.6896749643
 21
21.2871026472
  0
LINE
  5
285
100
AcDbEntity
  8
0
100
AcDbLine
 62
253
  6
CONTINUOUS
 10
-11.1603050116
 20
-21.2441724427
 11
-11.1614598017
 21
-21.3320336323
  0
LINE
  5
286
100
AcDbEntity
  8
0
100
AcDbLine
 62
253
  6
CONTINUOUS
 10
-10.6857733135
 20
21.6051707539
 11
-10.687484802
 21
21.4896292311
  0
LINE
  5
287
100
AcDbEntity
  8
0
100
AcDbLine
 62
253
  6
CONTINUOUS
 10
-11.1614598017
 20
-21.3320336323
 11
-11.1629303638
 21
-21.4131053207
  0
LINE
  5
288
100
AcDbEntity
  8
0
100
AcDbLine
 62
253
  6
CONTINUOUS
 10
-10.6838994981
 20
21.7024158227
 11
-10.6857733135
 21
21.6051707539
  0
LWPOLYLINE
  5
289
100
AcDbEntity
  8
0
100
AcDbPolyline
 62
253
  6
CONTINUOUS
 90
12
 70
0
 10
-11.1629303638
 20
-21.4131053207
 10
-11.1646874461
 20
-21.4855271239
 10
-11.1656590604
 20
-21.517990659
 10
-11.166689072
 20
-21.5477389961
 10
-11.1677766253
 20
-21.574813783
 10
-11.1689056313
 20
-21.5988140442
 10
-11.170077277
 20
-21.6196950333
 10
-11.1712903755
 20
-21.6375014967
 10
-11.1725252781
 20
-21.6519666995
 10
-11.1737754352
 20
-21.66300173
 10
-11.1750473963
 20
-21.6706954997
 10
-11.1763411615
 20
-21.6750480088
  0
LWPOLYLINE
  5
28A
100
AcDbEntity
  8
0
100
AcDbPolyline
 62
253
  6
CONTINUOUS
 90
4
 70
0
 10
-10.6893731215
 20
-0.7936905491
 10
-10.68625999
 20
-0.6957286871
 10
-10.6844590074
 20
-0.6490162974
 10
-10.6817447133
 20
-0.6050451643
  0
LWPOLYLINE
  5
28B
100
AcDbEntity
  8
0
100
AcDbPolyline
 62
253
  6
CONTINUOUS
 90
16
 70
0
 10
-11.1471633692
 20
-0.8971625183
 10
-11.1444778276
 20
-0.8455165387
 10
-11.1364376462
 20
-0.7942525162
 10
-11.1230760189
 20
-0.7439309842
 10
-11.1044620814
 20
-0.6950587341
 10
-11.0807604454
 20
-0.6482462935
 10
-11.052284845
 20
-0.6041741616
 10
-11.0193900068
 20
-0.5633741257
 10
-10.9824061808
 20
-0.5262409096
 10
-10.941728941
 20
-0.4931751173
 10
-10.8977948435
 20
-0.4645392078
 10
-10.8510916325
 20
-0.4406581222
 10
-10.8021449283
 20
-0.4218031611
 10
-10.7514982396
 20
-0.4081829379
 10
-10.6997047822
 20
-0.399945498
 10
-10.6473347067
 20
-0.3971815568
  0
LWPOLYLINE
  5
28C
100
AcDbEntity
  8
0
100
AcDbPolyline
 62
253
  6
CONTINUOUS
 90
9
 70
0
 10
-10.6817447133
 20
-0.6050451643
 10
-10.6759534728
 20
-0.5274678019
 10
-10.6723143078
 20
-0.4943695481
 10
-10.668383309
 20
-0.4657277075
 10
-10.6647335035
 20
-0.4418060543
 10
-10.6604610469
 20
-0.4227674128
 10
-10.6555682408
 20
-0.4088691017
 10
-10.6510302641
 20
-0.4003234576
 10
-10.6473347072
 20
-0.3971815568
  0
LWPOLYLINE
  5
28D
100
AcDbEntity
  8
0
100
AcDbPolyline
 62
253
  6
CONTINUOUS
 90
37
 70
0
 10
-2.4004613745
 20
13.479810222
 10
-2.3963522502
 20
13.483797086
 10
-2.392158923
 20
13.4876717724
 10
-2.3878823608
 20
13.4914368629
 10
-2.3835235312
 20
13.495094939
 10
-2.379083402
 20
13.4986485826
 10
-2.3745629409
 20
13.5021003751
 10
-2.3699631157
 20
13.5054528982
 10
-2.3652853142
 20
13.5087080899
 10
-2.3605326046
 20
13.5118653134
 10
-2.3557084754
 20
13.514923288
 10
-2.3508164149
 20
13.5178807333
 10
-2.3458599113
 20
13.5207363686
 10
-2.3408424532
 20
13.5234889134
 10
-2.3357675287
 20
13.5261370872
 10
-2.3306383467
 20
13.5286796537
 10
-2.3254569973
 20
13.5311155545
 10
-2.320225291
 20
13.5334437755
 10
-2.3149450384
 20
13.5356633025
 10
-2.3096180501
 20
13.5377731215
 10
-2.3042461365
 20
13.5397722182
 10
-2.2988311083
 20
13.5416595787
 10
-2.2933748429
 20
13.5434339983
 10
-2.2878794859
 20
13.545093511
 10
-2.2823472499
 20
13.5466359602
 10
-2.2767803473
 20
13.5480591893
 10
-2.2711809906
 20
13.5493610418
 10
-2.2655513925
 20
13.5505393613
 10
-2.2598937653
 20
13.551591991
 10
-2.2549217568
 20
13.5524080537
 10
-2.2499294754
 20
13.5531236598
 10
-2.244916414
 20
13.5537362354
 10
-2.2398820655
 20
13.554243206
 10
-2.2348259226
 20
13.5546419975
 10
-2.2297474783
 20
13.5549300357
 10
-2.2246462254
 20
13.5551047464
 10
-2.2195216568
 20
13.5551635553
  0
LWPOLYLINE
  5
28E
100
AcDbEntity
  8
0
100
AcDbPolyline
 62
253
  6
CONTINUOUS
 90
53
 70
0
 10
-0.2683497686
 20
-10.5060498036
 10
-0.2604468037
 20
-10.505920551
 10
-0.2526282823
 20
-10.5055361376
 10
-0.2448747605
 20
-10.5049015803
 10
-0.2371667947
 20
-10.5040218956
 10
-0.2294849411
 20
-10.5029021003
 10
-0.2218138557
 20
-10.5015462252
 10
-0.2141545937
 20
-10.4999543578
 10
-0.2065123103
 20
-10.4981255997
 10
-0.1988921602
 20
-10.4960590525
 10
-0.1912992987
 20
-10.493753818
 10
-0.1837397808
 20
-10.4912092564
 10
-0.176223263
 20
-10.4884257627
 10
-0.1687603016
 20
-10.4854039909
 10
-0.1613614532
 20
-10.4821445946
 10
-0.1540372745
 20
-10.4786482277
 10
-0.1480002214
 20
-10.4755553962
 10
-0.1420391067
 20
-10.4723069642
 10
-0.1361706836
 20
-10.4689114405
 10
-0.1304075969
 20
-10.4653747413
 10
-0.1247460559
 20
-10.4616924132
 10
-0.119178161
 20
-10.4578574107
 10
-0.1126139804
 20
-10.4530467825
 10
-0.1061884409
 20
-10.448010933
 10
-0.0999167083
 20
-10.4427546376
 10
-0.0938139487
 20
-10.4372826719
 10
-0.0878953278
 20
-10.4315998114
 10
-0.082174107
 20
-10.4257119131
 10
-0.0766559294
 20
-10.4196291612
 10
-0.0713445335
 20
-10.4133628216
 10
-0.0662436579
 20
-10.4069241602
 10
-0.0613570411
 20
-10.4003244427
 10
-0.0574498836
 20
-10.3947071469
 10
-0.0536882133
 20
-10.3889765688
 10
-0.0500661302
 20
-10.3831234473
 10
-0.0465809748
 20
-10.3771440969
 10
-0.0432430497
 20
-10.3710571359
 10
-0.0400658978
 20
-10.3648867583
 10
-0.0364808024
 20
-10.3574019878
 10
-0.0331473113
 20
-10.3498481066
 10
-0.0300660134
 20
-10.3422412844
 10
-0.027237498
 20
-10.3345976908
 10
-0.024662354
 20
-10.3269334956
 10
-0.0223404402
 20
-10.3192625021
 10
-0.0202686947
 20
-10.3115890483
 10
-0.0184433251
 20
-10.303915106
 10
-0.0168605391
 20
-10.296242647
 10
-0.0155165445
 20
-10.2885736431
 10
-0.0144088593
 20
-10.2809064532
 10
-0.0135402426
 20
-10.273224985
 10
-0.0129147637
 20
-10.2655095334
 10
-0.0125364922
 20
-10.2577403932
 10
-0.0124094974
 20
-10.2498978593
  0
LWPOLYLINE
  5
28F
100
AcDbEntity
  8
0
100
AcDbPolyline
 62
253
  6
CONTINUOUS
 90
28
 70
0
 10
-1.4771427934
 20
-11.2036325812
 10
-1.481917595
 20
-11.20358483
 10
-1.4866807955
 20
-11.2034422997
 10
-1.4914330666
 20
-11.2032060752
 10
-1.4961750798
 20
-11.2028772415
 10
-1.5009075067
 20
-11.2024568834
 10
-1.5056310188
 20
-11.201946086
 10
-1.5103462878
 20
-11.201345934
 10
-1.5150535383
 20
-11.2006574165
 10
-1.5197512076
 20
-11.1998811378
 10
-1.5244372861
 20
-11.1990176065
 10
-1.529109764
 20
-11.1980673309
 10
-1.5337666318
 20
-11.1970308194
 10
-1.5384058798
 20
-11.1959085804
 10
-1.5430254984
 20
-11.1947011225
 10
-1.5476235152
 20
-11.1934089263
 10
-1.552198107
 20
-11.1920323617
 10
-1.5567474879
 20
-11.1905717712
 10
-1.5612698721
 20
-11.1890274969
 10
-1.5657634735
 20
-11.1873998811
 10
-1.5702265064
 20
-11.1856892662
 10
-1.5746571848
 20
-11.1838959944
 10
-1.5790539888
 20
-11.1820201079
 10
-1.5834164626
 20
-11.1800604487
 10
-1.5877444164
 20
-11.1780155585
 10
-1.5920376602
 20
-11.1758839793
 10
-1.5962960044
 20
-11.1736642528
 10
-1.6005192591
 20
-11.171354921
  0
LWPOLYLINE
  5
290
100
AcDbEntity
  8
0
100
AcDbPolyline
 62
253
  6
CONTINUOUS
 90
42
 70
0
 10
0.9405490894
 20
-11.2036325812
 10
0.9351216414
 20
-11.2035618022
 10
0.9297214175
 20
-11.2033513756
 10
0.9243419068
 20
-11.2030041668
 10
0.9189765979
 20
-11.2025230414
 10
0.9136189798
 20
-11.2019108649
 10
0.9082625412
 20
-11.2011705027
 10
0.9018291972
 20
-11.2001160713
 10
0.8953888826
 20
-11.1988811723
 10
0.8889423042
 20
-11.1974657991
 10
0.8824901689
 20
-11.1958699451
 10
0.8760331837
 20
-11.1940936036
 10
0.8695739503
 20
-11.1921375059
 10
0.8631226505
 20
-11.1900053352
 10
0.8566913607
 20
-11.1877015123
 10
0.8502921577
 20
-11.1852304582
 10
0.8439371181
 20
-11.182596594
 10
0.8376372394
 20
-11.1798042215
 10
0.8313992039
 20
-11.1768571666
 10
0.8252286146
 20
-11.1737591361
 10
0.8191310748
 20
-11.170513837
 10
0.8131121876
 20
-11.1671249759
 10
0.8071776348
 20
-11.1635962079
 10
0.8013334128
 20
-11.1599309807
 10
0.7955855966
 20
-11.1561326903
 10
0.7899402611
 20
-11.1522047326
 10
0.7844034813
 20
-11.1481505034
 10
0.7789819385
 20
-11.1439743039
 10
0.7736847392
 20
-11.1396840557
 10
0.7685215964
 20
-11.1352885854
 10
0.7635022229
 20
-11.1307967198
 10
0.7586363314
 20
-11.1262172856
 10
0.7539319373
 20
-11.1215577401
 10
0.7493902655
 20
-11.116820063
 10
0.7450108432
 20
-11.1120048647
 10
0.7407931977
 20
-11.1071127554
 10
0.7367368562
 20
-11.1021443456
 10
0.7328411068
 20
-11.0970982284
 10
0.7291042807
 20
-11.0919649294
 10
0.7255244699
 20
-11.086732957
 10
0.7220997662
 20
-11.0813908196
 10
0.7188282617
 20
-11.0759270257
  0
LWPOLYLINE
  5
291
100
AcDbEntity
  8
0
100
AcDbPolyline
 62
253
  6
CONTINUOUS
 90
52
 70
0
 10
-0.2683497686
 20
-12.2032989699
 10
-0.2857125486
 20
-12.2030092163
 10
-0.3029870275
 20
-12.2021439509
 10
-0.320221026
 20
-12.2007091663
 10
-0.3374623647
 20
-12.1987108553
 10
-0.3547497634
 20
-12.1961523776
 10
-0.3720855383
 20
-12.1930265608
 10
-0.3894629043
 20
-12.1893235995
 10
-0.4068750769
 20
-12.1850336883
 10
-0.4243089269
 20
-12.1801497241
 10
-0.4417259487
 20
-12.174675413
 10
-0.4590812923
 20
-12.1686171632
 10
-0.4763301079
 20
-12.1619813831
 10
-0.4900249017
 20
-12.1562599231
 10
-0.5036153346
 20
-12.1501683035
 10
-0.5170939276
 20
-12.1437018825
 10
-0.5304532015
 20
-12.1368560185
 10
-0.5436856773
 20
-12.1296260697
 10
-0.558227457
 20
-12.1211396567
 10
-0.5725742385
 20
-12.1121848392
 10
-0.5866967977
 20
-12.1027731219
 10
-0.6005659105
 20
-12.0929160095
 10
-0.6141523528
 20
-12.0826250065
 10
-0.6274269008
 20
-12.0719116177
 10
-0.6403603302
 20
-12.0607873477
 10
-0.6529234171
 20
-12.049263701
 10
-0.6650869375
 20
-12.0373521825
 10
-0.6768260089
 20
-12.0250665063
 10
-0.6881331161
 20
-12.0124292255
 10
-0.6990050854
 20
-11.9994651025
 10
-0.7094387431
 20
-11.9861988999
 10
-0.7194309157
 20
-11.9726553804
 10
-0.7289784294
 20
-11.9588593064
 10
-0.7380781106
 20
-11.9448354406
 10
-0.7467267858
 20
-11.9306085456
 10
-0.7549212811
 20
-11.9162033838
 10
-0.763594661
 20
-11.8998123297
 10
-0.7716931495
 20
-11.8832442844
 10
-0.779220693
 20
-11.8665165355
 10
-0.7861812381
 20
-11.8496463702
 10
-0.7925775646
 20
-11.832655068
 10
-0.7984077855
 20
-11.8155798749
 10
-0.8036688472
 20
-11.7984620288
 10
-0.8083576962
 20
-11.7813427676
 10
-0.8124734061
 20
-11.7642576273
 10
-0.8160235598
 20
-11.7472193366
 10
-0.8190178673
 20
-11.7302349223
 10
-0.8214660387
 20
-11.7133114113
 10
-0.823375486
 20
-11.6964470382
 10
-0.8247444277
 20
-11.67960487
 10
-0.8255687844
 20
-11.6627391816
 10
-0.8258444766
 20
-11.6458042478
  0
LWPOLYLINE
  5
292
100
AcDbEntity
  8
0
100
AcDbPolyline
 62
253
  6
CONTINUOUS
 90
52
 70
0
 10
-0.2683497686
 20
-11.0877098035
 10
-0.2509810504
 20
-11.0879995278
 10
-0.233700651
 20
-11.088864717
 10
-0.2164605836
 20
-11.0902993953
 10
-0.1992128616
 20
-11.0922975869
 10
-0.1819186329
 20
-11.0948559555
 10
-0.1645755847
 20
-11.0979817224
 10
-0.1471905387
 20
-11.1016847483
 10
-0.129770317
 20
-11.1059748938
 10
-0.1123280998
 20
-11.1108593131
 10
-0.0949025016
 20
-11.1163343329
 10
-0.0775384953
 20
-11.1223935735
 10
-0.0602810539
 20
-11.1290306549
 10
-0.0465794646
 20
-11.134753401
 10
-0.0329823767
 20
-11.1408465515
 10
-0.0194973078
 20
-11.1473147762
 10
-0.0061317752
 20
-11.1541627443
 10
0.0071067038
 20
-11.1613951254
 10
0.0216548037
 20
-11.169884658
 10
0.0360074685
 20
-11.1788430611
 10
0.0501353997
 20
-11.1882588563
 10
0.0640092993
 20
-11.1981205654
 10
0.077599869
 20
-11.20841671
 10
0.0908778105
 20
-11.2191358119
 10
0.1038138257
 20
-11.2302663929
 10
0.1163786163
 20
-11.2417969745
 10
0.1285428841
 20
-11.2537160786
 10
0.1402817035
 20
-11.2660100083
 10
0.1515876391
 20
-11.2786561931
 10
0.1624576282
 20
-11.291629844
 10
0.1728886081
 20
-11.3049061718
 10
0.182877516
 20
-11.3184603877
 10
0.1924212891
 20
-11.3322677026
 10
0.2015168648
 20
-11.3463033274
 10
0.2101611802
 20
-11.3605424731
 10
0.2183511727
 20
-11.3749603506
 10
0.227019457
 20
-11.39136627
 10
0.2351129864
 20
-11.40794992
 10
0.2426358851
 20
-11.4246941971
 10
0.249592277
 20
-11.441581998
 10
0.2559850993
 20
-11.4585922732
 10
0.2618125422
 20
-11.4756881889
 10
0.2670716091
 20
-11.4928289651
 10
0.2717593034
 20
-11.5099738218
 10
0.2758747085
 20
-11.5270875442
 10
0.2794252276
 20
-11.5441571777
 10
0.2824203439
 20
-11.5611753326
 10
0.2848695408
 20
-11.5781346194
 10
0.2867800198
 20
-11.5950365385
 10
0.2881498559
 20
-11.6119181497
 10
0.2889748424
 20
-11.6288254029
 10
0.2892507727
 20
-11.6458042478
  0
LINE
  5
293
100
AcDbEntity
  8
0
100
AcDbLine
 62
253
  6
CONTINUOUS
 10
0.7078635462
 20
12.7223610555
 11
1.4652068603
 21
13.479810222
  0
LINE
  5
294
100
AcDbEntity
  8
0
100
AcDbLine
 62
253
  6
CONTINUOUS
 10
-2.4004613745
 20
9.6143182785
 11
-1.6428358382
 21
10.3714852228
  0
LWPOLYLINE
  5
295
100
AcDbEntity
  8
0
100
AcDbPolyline
 62
253
  6
CONTINUOUS
 90
37
 70
0
 10
-1.6428358382
 20
10.3714852228
 10
-1.6387585743
 20
10.3755114425
 10
-1.6345939385
 20
10.3794222605
 10
-1.6303430138
 20
10.3832204688
 10
-1.6260068836
 20
10.3869088593
 10
-1.6215866312
 20
10.390490224
 10
-1.6170833399
 20
10.3939673549
 10
-1.6124980929
 20
10.3973430438
 10
-1.6078324387
 20
10.4006194017
 10
-1.6030897868
 20
10.403795815
 10
-1.5982740119
 20
10.406870989
 10
-1.5933889886
 20
10.409843629
 10
-1.5884385915
 20
10.4127124403
 10
-1.5834266954
 20
10.4154761282
 10
-1.5783571749
 20
10.4181333981
 10
-1.5732335556
 20
10.4206830389
 10
-1.5680579672
 20
10.4231241744
 10
-1.5628321903
 20
10.425456012
 10
-1.5575580054
 20
10.4276777589
 10
-1.5522371931
 20
10.4297886228
 10
-1.5468715341
 20
10.4317878109
 10
-1.541462809
 20
10.4336745306
 10
-1.5360128731
 20
10.4354477778
 10
-1.5305238815
 20
10.4371057029
 10
-1.5249980639
 20
10.4386462445
 10
-1.5194376501
 20
10.4400673413
 10
-1.5138448698
 20
10.4413669322
 10
-1.5082219528
 20
10.4425429558
 10
-1.5025711289
 20
10.443593351
 10
-1.4976051844
 20
10.4444075777
 10
-1.4926190695
 20
10.4451214973
 10
-1.487612273
 20
10.4457325648
 10
-1.4825842835
 20
10.4462382357
 10
-1.4775345898
 20
10.446635965
 10
-1.4724626806
 20
10.446923208
 10
-1.4673680446
 20
10.44709742
 10
-1.4622501705
 20
10.4471560561
  0
LWPOLYLINE
  5
296
100
AcDbEntity
  8
0
100
AcDbPolyline
 62
253
  6
CONTINUOUS
 90
36
 70
0
 10
1.4652068603
 20
13.479810222
 10
1.4693039266
 20
13.4838197752
 10
1.4734872805
 20
13.4877145476
 10
1.4777558789
 20
13.4914972826
 10
1.4821086787
 20
13.4951707236
 10
1.4865446368
 20
13.4987376139
 10
1.4910627099
 20
13.5022006968
 10
1.4956618551
 20
13.5055627157
 10
1.5003405683
 20
13.5088257441
 10
1.5050955029
 20
13.5119891759
 10
1.5099228513
 20
13.5150517351
 10
1.5148188063
 20
13.5180121456
 10
1.5197795602
 20
13.5208691315
 10
1.5248013057
 20
13.5236214169
 10
1.5298802353
 20
13.5262677256
 10
1.5350128808
 20
13.5288068603
 10
1.5401971308
 20
13.5312379383
 10
1.5454312131
 20
13.5335601551
 10
1.5507133556
 20
13.5357727067
 10
1.556041786
 20
13.5378747887
 10
1.5614147324
 20
13.5398655969
 10
1.5668304224
 20
13.5417443271
 10
1.5722870092
 20
13.5435099684
 10
1.5777823472
 20
13.5451606834
 10
1.5833142159
 20
13.5466944281
 10
1.5888803949
 20
13.5481091585
 10
1.5944786638
 20
13.5494028305
 10
1.6001068023
 20
13.5505734001
 10
1.6057625898
 20
13.5516188233
 10
1.6114443033
 20
13.5525367721
 10
1.6171522082
 20
13.553323782
 10
1.6228870673
 20
13.5539761047
 10
1.6286496433
 20
13.5544899917
 10
1.634440699
 20
13.5548616948
 10
1.640260997
 20
13.5550874655
 10
1.6461113001
 20
13.5551635553
  0
LWPOLYLINE
  5
297
100
AcDbEntity
  8
0
100
AcDbPolyline
 62
253
  6
CONTINUOUS
 90
53
 70
0
 10
-1.2813091808
 20
12.3604816112
 10
-1.2868736067
 20
12.3551047664
 10
-1.2925604444
 20
12.3499535938
 10
-1.2983805085
 20
12.3450117363
 10
-1.3043446136
 20
12.3402628371
 10
-1.3104635743
 20
12.3356905391
 10
-1.316746137
 20
12.3312819665
 10
-1.3231927753
 20
12.327038167
 10
-1.3298018943
 20
12.3229636698
 10
-1.3365718995
 20
12.3190630036
 10
-1.343501196
 20
12.3153406976
 10
-1.3505870598
 20
12.3118018977
 10
-1.3578222485
 20
12.3084542177
 10
-1.3651983903
 20
12.3053058887
 10
-1.3727071133
 20
12.3023651416
 10
-1.3803400458
 20
12.2996402074
 10
-1.3867872157
 20
12.2975405058
 10
-1.3932952859
 20
12.2956028432
 10
-1.399844714
 20
12.2938336725
 10
-1.4064212918
 20
12.2922382341
 10
-1.4130321487
 20
12.290816918
 10
-1.4196897483
 20
12.2895689014
 10
-1.427751922
 20
12.2883004751
 10
-1.4358837205
 20
12.2872885732
 10
-1.4440695113
 20
12.2865413533
 10
-1.452293662
 20
12.2860669732
 10
-1.4605405402
 20
12.2858735905
 10
-1.4687949673
 20
12.2859670321
 10
-1.4770435803
 20
12.2863438015
 10
-1.4852734698
 20
12.2869980715
 10
-1.4934717267
 20
12.2879240148
 10
-1.5016254417
 20
12.2891158041
 10
-1.5083801756
 20
12.2903087631
 10
-1.5151074008
 20
12.2916844884
 10
-1.521819505
 20
12.2932451782
 10
-1.5285224096
 20
12.2949914301
 10
-1.5351961691
 20
12.296917441
 10
-1.5418143715
 20
12.2990158079
 10
-1.5496513803
 20
12.3017512668
 10
-1.5573588517
 20
12.3047134594
 10
-1.5649252839
 20
12.3078915873
 10
-1.5723391752
 20
12.3112748525
 10
-1.5795890237
 20
12.3148524565
 10
-1.5866654181
 20
12.3186147056
 10
-1.5935673084
 20
12.3225563235
 10
-1.6002957348
 20
12.3266731386
 10
-1.6068517377
 20
12.3309609791
 10
-1.6132363573
 20
12.3354156734
 10
-1.6194523198
 20
12.3400365351
 10
-1.6255090943
 20
12.3448368192
 10
-1.6314178355
 20
12.3498332663
 10
-1.6371896986
 20
12.3550426168
 10
-1.6428358382
 20
12.3604816112
  0
LWPOLYLINE
  5
298
100
AcDbEntity
  8
0
100
AcDbPolyline
 62
253
  6
CONTINUOUS
 90
53
 70
0
 10
-0.2683497686
 20
-9.4664136928
 10
-0.2762293561
 20
-9.4665425353
 10
-0.2840254186
 20
-9.4669257708
 10
-0.2917574009
 20
-9.4675584607
 10
-0.2994447476
 20
-9.4684356668
 10
-0.3071069035
 20
-9.4695524505
 10
-0.3147592235
 20
-9.4709048626
 10
-0.3224007041
 20
-9.4724929095
 10
-0.3300262516
 20
-9.4743175868
 10
-0.3376307728
 20
-9.47637989
 10
-0.3452091741
 20
-9.4786808149
 10
-0.3527554332
 20
-9.4812210885
 10
-0.3602598125
 20
-9.4840003657
 10
-0.367711645
 20
-9.4870180327
 10
-0.3751002641
 20
-9.4902734759
 10
-0.3824150031
 20
-9.4937660816
 10
-0.3884447037
 20
-9.4968559415
 10
-0.3943988176
 20
-9.5001015083
 10
-0.400260471
 20
-9.5034942186
 10
-0.4060169243
 20
-9.5070281173
 10
-0.4116719743
 20
-9.5107076811
 10
-0.4172335516
 20
-9.5145399948
 10
-0.4237904093
 20
-9.5193475433
 10
-0.4302088834
 20
-9.5243804957
 10
-0.4364737708
 20
-9.5296340938
 10
-0.4425698681
 20
-9.5351035794
 10
-0.448481972
 20
-9.5407841942
 10
-0.4541967885
 20
-9.5466700903
 10
-0.4597086609
 20
-9.5527510611
 10
-0.4650138414
 20
-9.5590158104
 10
-0.4701085827
 20
-9.5654530419
 10
-0.4749891371
 20
-9.5720514593
 10
-0.4788912953
 20
-9.5776677565
 10
-0.48264803
 20
-9.5833974323
 10
-0.4862652612
 20
-9.5892497752
 10
-0.4897456693
 20
-9.5952284934
 10
-0.4930789766
 20
-9.6013149739
 10
-0.4962516661
 20
-9.6074850232
 10
-0.4998316437
 20
-9.614969603
 10
-0.5031602978
 20
-9.6225235218
 10
-0.5062370594
 20
-9.6301306177
 10
-0.5090613594
 20
-9.6377747293
 10
-0.5116326288
 20
-9.6454396949
 10
-0.5139510254
 20
-9.6531117145
 10
-0.5160196148
 20
-9.6607864357
 10
-0.5178421892
 20
-9.6684618678
 10
-0.519422541
 20
-9.6761360199
 10
-0.5207644625
 20
-9.6838069014
 10
-0.5218704371
 20
-9.6914761416
 10
-0.5227377112
 20
-9.6991598501
 10
-0.5233622225
 20
-9.7068777565
 10
-0.5237399085
 20
-9.7146495904
 10
-0.5238667066
 20
-9.7224950816
  0
LINE
  5
299
100
AcDbEntity
  8
0
100
AcDbLine
 62
253
  6
CONTINUOUS
 10
-1.6005192591
 20
-11.171354921
 11
-2.0617661118
 21
-10.905711748
  0
LINE
  5
29A
100
AcDbEntity
  8
0
100
AcDbLine
 62
253
  6
CONTINUOUS
 10
1.0681135306
 20
-12.1220542477
 11
1.5254899078
 21
-12.3856145254
  0
LINE
  5
29B
100
AcDbEntity
  8
0
100
AcDbLine
 62
253
  6
CONTINUOUS
 10
-1.8057905627
 20
-10.4623053592
 11
-1.3489433522
 21
-10.7264653591
  0
LINE
  5
29C
100
AcDbEntity
  8
0
100
AcDbLine
 62
253
  6
CONTINUOUS
 10
1.2693732477
 20
-12.8289856364
 11
0.8126671482
 21
-12.5648256365
  0
LWPOLYLINE
  5
29D
100
AcDbEntity
  8
0
100
AcDbPolyline
 62
253
  6
CONTINUOUS
 90
53
 70
0
 10
0.8126671482
 20
-12.5648256365
 10
0.8059996835
 20
-12.5608671377
 10
0.7995198967
 20
-12.5567297555
 10
0.793208902
 20
-12.5524073675
 10
0.7870478134
 20
-12.5478938514
 10
0.7810177453
 20
-12.5431830847
 10
0.7751037622
 20
-12.5382700234
 10
0.7693067303
 20
-12.5331539367
 10
0.7636314665
 20
-12.5278351718
 10
0.7580827873
 20
-12.5223140763
 10
0.7526655096
 20
-12.5165909975
 10
0.7473853604
 20
-12.5106672308
 10
0.7422517076
 20
-12.5045478633
 10
0.7372748296
 20
-12.4982389303
 10
0.7324650049
 20
-12.4917464669
 10
0.7278325117
 20
-12.4850765083
 10
0.7241158999
 20
-12.4793893073
 10
0.7205410546
 20
-12.4736005123
 10
0.7171194576
 20
-12.4677275989
 10
0.713859991
 20
-12.4617831371
 10
0.710761139
 20
-12.4557600756
 10
0.707818786
 20
-12.4496464578
 10
0.7044919381
 20
-12.4421793754
 10
0.7013965617
 20
-12.4345777824
 10
0.6985446964
 20
-12.4268547874
 10
0.6959483815
 20
-12.4190234984
 10
0.6936196566
 20
-12.4110970239
 10
0.6915681593
 20
-12.4030886574
 10
0.6897939207
 20
-12.395012434
 10
0.6882945698
 20
-12.386882574
 10
0.6870677359
 20
-12.3787132978
 10
0.6861110481
 20
-12.3705188258
 10
0.685518504
 20
-12.3636776242
 10
0.6851108097
 20
-12.3568161058
 10
0.68488686
 20
-12.3499215756
 10
0.6848456752
 20
-12.3429880666
 10
0.6849867773
 20
-12.3360365239
 10
0.6853098142
 20
-12.3290946204
 10
0.6859359567
 20
-12.3208103902
 10
0.6868160133
 20
-12.3125939096
 10
0.6879424193
 20
-12.3044591985
 10
0.6893076101
 20
-12.296420277
 10
0.6909040214
 20
-12.2884911651
 10
0.6927246233
 20
-12.2806835586
 10
0.6947645257
 20
-12.2729998569
 10
0.6970193732
 20
-12.2654401352
 10
0.6994848103
 20
-12.2580044685
 10
0.7021564818
 20
-12.2506929321
 10
0.7050330111
 20
-12.2435030542
 10
0.7081249365
 20
-12.2364221753
 10
0.7114457753
 20
-12.2294350892
 10
0.7150090446
 20
-12.2225265895
 10
0.7188282617
 20
-12.2156814699
  0
LWPOLYLINE
  5
29E
100
AcDbEntity
  8
0
100
AcDbPolyline
 62
253
  6
CONTINUOUS
 90
53
 70
0
 10
1.5254899078
 20
-12.3856145254
 10
1.5321250308
 20
-12.3895990867
 10
1.5385740677
 20
-12.3937604682
 10
1.5448556106
 20
-12.3981048996
 10
1.5509882513
 20
-12.4026386104
 10
1.5569905818
 20
-12.4073678301
 10
1.5628772941
 20
-12.412297686
 10
1.5686474816
 20
-12.4174288954
 10
1.5742963377
 20
-12.4227610731
 10
1.579819056
 20
-12.4282938339
 10
1.5852108301
 20
-12.4340267929
 10
1.5904659727
 20
-12.4399586424
 10
1.595575274
 20
-12.4460843853
 10
1.6005286434
 20
-12.452398102
 10
1.6053159903
 20
-12.4588938731
 10
1.6099272243
 20
-12.4655657789
 10
1.6136272031
 20
-12.4712536929
 10
1.617186601
 20
-12.4770426809
 10
1.6205941453
 20
-12.482915612
 10
1.6238411105
 20
-12.4888601903
 10
1.6269289615
 20
-12.494883461
 10
1.6298617103
 20
-12.5009973044
 10
1.6331787605
 20
-12.5084646025
 10
1.6362661984
 20
-12.5160663768
 10
1.639111981
 20
-12.523789571
 10
1.6417040655
 20
-12.5316211287
 10
1.6440304091
 20
-12.5395479937
 10
1.6460813492
 20
-12.5475569604
 10
1.6478567458
 20
-12.5556342263
 10
1.6493588391
 20
-12.5637658395
 10
1.6505898694
 20
-12.5719378481
 10
1.6515520769
 20
-12.5801363003
 10
1.652150145
 20
-12.586981921
 10
1.6525641614
 20
-12.5938487989
 10
1.6527952007
 20
-12.6007495165
 10
1.652844209
 20
-12.6076899627
 10
1.6527116167
 20
-12.6146492521
 10
1.6523977254
 20
-12.6215998058
 10
1.6517833287
 20
-12.6298957209
 10
1.6509157935
 20
-12.6381253623
 10
1.6498026176
 20
-12.6462747495
 10
1.6484512989
 20
-12.6543299016
 10
1.6468693351
 20
-12.662276838
 10
1.6450636946
 20
-12.6701039009
 10
1.6430392278
 20
-12.6778087244
 10
1.6408002559
 20
-12.6853912653
 10
1.6383510998
 20
-12.6928514807
 10
1.6356960806
 20
-12.7001893276
 10
1.632836582
 20
-12.7074072981
 10
1.6297622394
 20
-12.7145180245
 10
1.6264597508
 20
-12.7215366743
 10
1.6229158142
 20
-12.728478415
 10
1.6191171277
 20
-12.7353584142
  0
LWPOLYLINE
  5
29F
100
AcDbEntity
  8
0
100
AcDbPolyline
 62
253
  6
CONTINUOUS
 90
53
 70
0
 10
-1.3489433522
 20
-10.7264653591
 10
-1.3423876382
 20
-10.7304115706
 10
-1.336011803
 20
-10.7345284476
 10
-1.3297980866
 20
-10.7388218213
 10
-1.3237287294
 20
-10.7432975228
 10
-1.3177859715
 20
-10.7479613834
 10
-1.3119557003
 20
-10.7528183775
 10
-1.3062383917
 20
-10.7578700526
 10
-1.3006381686
 20
-10.7631170992
 10
-1.295159154
 20
-10.7685602078
 10
-1.2898054709
 20
-10.774200069
 10
-1.2845825667
 20
-10.7800356172
 10
-1.2795011865
 20
-10.7860587614
 10
-1.2745734002
 20
-10.7922596547
 10
-1.2698112773
 20
-10.79862845
 10
-1.2652268875
 20
-10.8051553002
 10
-1.2608313916
 20
-10.8118310404
 10
-1.2566323147
 20
-10.8186492351
 10
-1.2526362732
 20
-10.825604131
 10
-1.2488498833
 20
-10.8326899747
 10
-1.2452797612
 20
-10.8399010129
 10
-1.2419328025
 20
-10.8472316024
 10
-1.238817019
 20
-10.8546765407
 10
-1.2359407022
 20
-10.8622307355
 10
-1.2333121432
 20
-10.8698890944
 10
-1.2309396333
 20
-10.8776465251
 10
-1.2288300682
 20
-10.885496859
 10
-1.2269847619
 20
-10.8934296227
 10
-1.2254036329
 20
-10.9014332663
 10
-1.2240865999
 20
-10.9094962401
 10
-1.2230335813
 20
-10.9176069945
 10
-1.2223575783
 20
-10.9243967508
 10
-1.2218641764
 20
-10.9312207505
 10
-1.22155269
 20
-10.9380880767
 10
-1.2214226231
 20
-10.9450023723
 10
-1.2214742392
 20
-10.951945519
 10
-1.2217079918
 20
-10.9588939584
 10
-1.2222286584
 20
-10.967210672
 10
-1.2230076691
 20
-10.9754889973
 10
-1.2240404387
 20
-10.9837168489
 10
-1.225322382
 20
-10.9918821412
 10
-1.2268489138
 20
-10.9999727889
 10
-1.2286157811
 20
-11.0079781545
 10
-1.23062006
 20
-11.0158933928
 10
-1.2328591583
 20
-11.0237151061
 10
-1.2353304842
 20
-11.0314398973
 10
-1.2380314458
 20
-11.0390643688
 10
-1.2404576025
 20
-11.0453406961
 10
-1.2430507836
 20
-11.0515531429
 10
-1.2458203442
 20
-11.0577098541
 10
-1.2487756395
 20
-11.0638189749
 10
-1.2519260246
 20
-11.0698886504
 10
-1.2552808546
 20
-11.0759270257
  0
LWPOLYLINE
  5
2A0
100
AcDbEntity
  8
0
100
AcDbPolyline
 62
253
  6
CONTINUOUS
 90
53
 70
0
 10
-2.0617661118
 20
-10.905711748
 10
-2.0684238927
 20
-10.9017007926
 10
-2.0748946902
 20
-10.8975146237
 10
-2.081197226
 20
-10.8931468531
 10
-2.0873502217
 20
-10.8885910925
 10
-2.0933723989
 20
-10.883840954
 10
-2.0992785581
 20
-10.8788911457
 10
-2.1050678141
 20
-10.8737407605
 10
-2.110735361
 20
-10.8683899876
 10
-2.1162763923
 20
-10.8628390163
 10
-2.1216861019
 20
-10.8570880359
 10
-2.1269587487
 20
-10.8511382155
 10
-2.132084852
 20
-10.8449946452
 10
-2.1370539962
 20
-10.8386633946
 10
-2.1418557656
 20
-10.8321505338
 10
-2.1464797447
 20
-10.8254621326
 10
-2.1501888167
 20
-10.8197611019
 10
-2.1537556572
 20
-10.813960003
 10
-2.1571687332
 20
-10.8080764557
 10
-2.1604191182
 20
-10.8021231627
 10
-2.1635083117
 20
-10.7960931594
 10
-2.1664404196
 20
-10.789974564
 10
-2.1697542302
 20
-10.7825041429
 10
-2.1728359628
 20
-10.7749018931
 10
-2.1756738302
 20
-10.7671806679
 10
-2.1782560449
 20
-10.7593533205
 10
-2.1805708199
 20
-10.7514327043
 10
-2.182608751
 20
-10.7434319133
 10
-2.184369968
 20
-10.7353650044
 10
-2.1858569838
 20
-10.7272462753
 10
-2.1870723113
 20
-10.7190900235
 10
-2.1880184636
 20
-10.7109105469
 10
-2.1886030714
 20
-10.7040834164
 10
-2.1890036795
 20
-10.697237518
 10
-2.1892214704
 20
-10.6903602833
 10
-2.189257501
 20
-10.6834457752
 10
-2.1891123263
 20
-10.6765145811
 10
-2.1887863755
 20
-10.6695939196
 10
-2.1881583377
 20
-10.6613358135
 10
-2.1872780794
 20
-10.6531458676
 10
-2.1861530792
 20
-10.6450378806
 10
-2.1847908159
 20
-10.6370256506
 10
-2.183198768
 20
-10.6291229764
 10
-2.1813838916
 20
-10.6213413858
 10
-2.1793510525
 20
-10.6136833254
 10
-2.1771045936
 20
-10.6061489713
 10
-2.1746488582
 20
-10.5987384995
 10
-2.1719881892
 20
-10.5914520862
 10
-2.1691239738
 20
-10.5842873515
 10
-2.1660457741
 20
-10.5772316926
 10
-2.1627401963
 20
-10.5702699505
 10
-2.1591938468
 20
-10.5633869663
 10
-2.1553933316
 20
-10.5565675814
  0
LINE
  5
2A1
100
AcDbEntity
  8
0
100
AcDbLine
 62
253
  6
CONTINUOUS
 10
1.8271921288
 20
13.1186010554
 11
1.0697077037
 21
12.3604816112
  0
LINE
  5
2A2
100
AcDbEntity
  8
0
100
AcDbLine
 62
253
  6
CONTINUOUS
 10
-1.2813091808
 20
10.0096410562
 11
-2.0387936059
 21
9.252474112
  0
LWPOLYLINE
  5
2A3
100
AcDbEntity
  8
0
100
AcDbPolyline
 62
253
  6
CONTINUOUS
 90
37
 70
0
 10
0.7078635462
 20
10.3714852228
 10
0.7119450129
 20
10.3755153573
 10
0.7161140884
 20
10.3794296656
 10
0.7203696814
 20
10.3832309611
 10
0.7247107005
 20
10.3869220571
 10
0.7291360544
 20
10.3905057667
 10
0.7336446518
 20
10.3939849034
 10
0.7382354012
 20
10.3973622803
 10
0.7429067402
 20
10.4006400268
 10
0.7476552206
 20
10.4038175362
 10
0.7524769232
 20
10.406893518
 10
0.7573679288
 20
10.4098666816
 10
0.7623243181
 20
10.4127357364
 10
0.7673421718
 20
10.4154993919
 10
0.7724175705
 20
10.4181563575
 10
0.7775469527
 20
10.4207054311
 10
0.7827281868
 20
10.4231457647
 10
0.787959499
 20
10.4254765988
 10
0.7932391155
 20
10.4276971739
 10
0.7985652625
 20
10.4298067305
 10
0.803936166
 20
10.4318045091
 10
0.8093500522
 20
10.4336897503
 10
0.8148050712
 20
10.4354614809
 10
0.820299069
 20
10.4371178736
 10
0.8258298156
 20
10.4386568876
 10
0.8313950809
 20
10.4400764819
 10
0.8369926348
 20
10.4413746157
 10
0.8426202473
 20
10.4425492481
 10
0.8482756884
 20
10.4435983382
 10
0.8532456087
 20
10.4444115098
 10
0.8582356405
 20
10.4451244697
 10
0.8632462962
 20
10.445734687
 10
0.8682780885
 20
10.446239631
 10
0.87333153
 20
10.4466367707
 10
0.8784071332
 20
10.4469235754
 10
0.8835054107
 20
10.4470975141
 10
0.888626875
 20
10.4471560561
  0
LWPOLYLINE
  5
2A4
100
AcDbEntity
  8
0
100
AcDbPolyline
 62
253
  6
CONTINUOUS
 90
53
 70
0
 10
-2.0387936059
 20
9.252474112
 10
-2.0443528724
 20
9.2470887058
 10
-2.0500346027
 20
9.2419287464
 10
-2.0558497223
 20
9.2369777781
 10
-2.0618091563
 20
9.2322193451
 10
-2.0679238301
 20
9.2276369914
 10
-2.07420258
 20
9.2232177723
 10
-2.0806458867
 20
9.2189627881
 10
-2.0872521421
 20
9.2148766498
 10
-2.0940197379
 20
9.2109639688
 10
-2.1009470659
 20
9.2072293563
 10
-2.1080313943
 20
9.2036780398
 10
-2.1152654964
 20
9.2003177124
 10
-2.1226410221
 20
9.1971566833
 10
-2.1301496211
 20
9.1942032617
 10
-2.1377829431
 20
9.191465757
 10
-2.1442308453
 20
9.1893557213
 10
-2.1507400308
 20
9.187407929
 10
-2.1572909686
 20
9.1856289109
 10
-2.163869479
 20
9.1840239754
 10
-2.1704827877
 20
9.1825935401
 10
-2.1771434718
 20
9.1813368003
 10
-2.1852102848
 20
9.1800584846
 10
-2.1933476502
 20
9.1790375039
 10
-2.2015397889
 20
9.178282231
 10
-2.2097709217
 20
9.1778010385
 10
-2.2180252692
 20
9.1776022991
 10
-2.2262875206
 20
9.1776920162
 10
-2.2345442376
 20
9.178066717
 10
-2.24278245
 20
9.1787205593
 10
-2.250989188
 20
9.1796477011
 10
-2.2591514813
 20
9.1808423004
 10
-2.2659134157
 20
9.1820388211
 10
-2.2726479599
 20
9.1834192087
 10
-2.2793675954
 20
9.1849856524
 10
-2.2860782843
 20
9.1867387276
 10
-2.2927599141
 20
9.1886725526
 10
-2.2993858529
 20
9.1907796318
 10
-2.3072317094
 20
9.1935266018
 10
-2.3149474375
 20
9.1965013125
 10
-2.3225214533
 20
9.1996928124
 10
-2.329942173
 20
9.2030901501
 10
-2.3371980126
 20
9.2066823744
 10
-2.344279498
 20
9.210459653
 10
-2.3511855937
 20
9.2144166308
 10
-2.3579173741
 20
9.2185490718
 10
-2.3644759134
 20
9.22285274
 10
-2.3708622861
 20
9.2273233996
 10
-2.3770792635
 20
9.2319603411
 10
-2.3831364047
 20
9.2367769605
 10
-2.3890449661
 20
9.2417901804
 10
-2.3948162039
 20
9.2470169234
 10
-2.4004613745
 20
9.252474112
  0
LWPOLYLINE
  5
2A5
100
AcDbEntity
  8
0
100
AcDbPolyline
 62
253
  6
CONTINUOUS
 90
53
 70
0
 10
1.0697077037
 20
12.3604816112
 10
1.0641035849
 20
12.3550976517
 10
1.0583784474
 20
12.3499396356
 10
1.052521385
 20
12.344991254
 10
1.0465214912
 20
12.3402361978
 10
1.0403678596
 20
12.3356581581
 10
1.0340516419
 20
12.3312442971
 10
1.0275722212
 20
12.3269956622
 10
1.0209310384
 20
12.3229167722
 10
1.0141295347
 20
12.3190121457
 10
1.0071691509
 20
12.3152863015
 10
1.0000525102
 20
12.3117444019
 10
0.9927869632
 20
12.3083941838
 10
0.9853810426
 20
12.3052440275
 10
0.9778432813
 20
12.3023023136
 10
0.9701822119
 20
12.2995774224
 10
0.9637124456
 20
12.2974786292
 10
0.9571828875
 20
12.2955427255
 10
0.9506134511
 20
12.2937762097
 10
0.944018655
 20
12.292184348
 10
0.9373914388
 20
12.2907674782
 10
0.9307193472
 20
12.289524706
 10
0.9226422193
 20
12.288263513
 10
0.9144979374
 20
12.2872596917
 10
0.9063019032
 20
12.2865212009
 10
0.8980695187
 20
12.2860559997
 10
0.8898161856
 20
12.285872047
 10
0.8815569163
 20
12.2859749726
 10
0.8733051658
 20
12.2863610903
 10
0.8650739997
 20
12.2870243846
 10
0.8568764835
 20
12.2879588402
 10
0.8487256827
 20
12.2891584417
 10
0.8419751383
 20
12.2903572463
 10
0.8352537367
 20
12.2917381278
 10
0.8285491064
 20
12.2933032117
 10
0.8218552888
 20
12.2950530379
 10
0.8151919786
 20
12.2969818049
 10
0.8085852838
 20
12.299082126
 10
0.800763119
 20
12.3018189049
 10
0.7930714506
 20
12.3047813782
 10
0.7855216535
 20
12.3079588389
 10
0.7781251027
 20
12.3113405805
 10
0.770893173
 20
12.3149158963
 10
0.7638351844
 20
12.3186751655
 10
0.7569522367
 20
12.3226131104
 10
0.7502433747
 20
12.3267255394
 10
0.7437076434
 20
12.3310082606
 10
0.7373440875
 20
12.3354570823
 10
0.7311500561
 20
12.3400712978
 10
0.7251161157
 20
12.3448641402
 10
0.7192311368
 20
12.3498523278
 10
0.7134839901
 20
12.3550525787
 10
0.7078635462
 20
12.3604816112
  0
LWPOLYLINE
  5
2A6
100
AcDbEntity
  8
0
100
AcDbPolyline
 62
253
  6
CONTINUOUS
 90
53
 70
0
 10
-1.2552808546
 20
-12.2156814699
 10
-1.2515072396
 20
-12.2224690328
 10
-1.2479848353
 20
-12.2293166306
 10
-1.2447005243
 20
-12.2362389829
 10
-1.2416411892
 20
-12.2432508095
 10
-1.2387937128
 20
-12.2503668303
 10
-1.2361478257
 20
-12.2575988704
 10
-1.2337046515
 20
-12.2649471765
 10
-1.2314681618
 20
-12.2724091009
 10
-1.2294423283
 20
-12.2799819956
 10
-1.2276311227
 20
-12.2876632128
 10
-1.2260388299
 20
-12.2954488164
 10
-1.2246709881
 20
-12.3033297166
 10
-1.2235334487
 20
-12.3112955354
 10
-1.2226320632
 20
-12.3193358949
 10
-1.2219726831
 20
-12.3274404169
 10
-1.2216119125
 20
-12.3342332323
 10
-1.2214244074
 20
-12.3410425198
 10
-1.2214113105
 20
-12.3478474007
 10
-1.2215739724
 20
-12.3546325327
 10
-1.2219145759
 20
-12.361404716
 10
-1.2224355118
 20
-12.3681762869
 10
-1.2233019767
 20
-12.3763123174
 10
-1.2244353163
 20
-12.3844480525
 10
-1.225839284
 20
-12.3925663148
 10
-1.2275176332
 20
-12.4006499265
 10
-1.2294741175
 20
-12.4086817101
 10
-1.2317103394
 20
-12.416645503
 10
-1.2342192991
 20
-12.4245292024
 10
-1.236991846
 20
-12.4323217209
 10
-1.2400188293
 20
-12.4400119707
 10
-1.2432910984
 20
-12.4475888642
 10
-1.2462005329
 20
-12.4538113332
 10
-1.2492792993
 20
-12.4599588576
 10
-1.2525327467
 20
-12.4660429123
 10
-1.2559629958
 20
-12.4720691282
 10
-1.2595592528
 20
-12.4780197614
 10
-1.2633074952
 20
-12.4838712241
 10
-1.2679880647
 20
-12.4907342718
 10
-1.2728538781
 20
-12.4974122429
 10
-1.2778915125
 20
-12.5038968331
 10
-1.2830875452
 20
-12.5101797379
 10
-1.2884285532
 20
-12.5162526527
 10
-1.2939027202
 20
-12.5221090029
 10
-1.2995046568
 20
-12.527749132
 10
-1.30523058
 20
-12.5331751135
 10
-1.3110767068
 20
-12.5383890208
 10
-1.3170392543
 20
-12.5433929274
 10
-1.3231182593
 20
-12.5481896292
 10
-1.3293290367
 20
-12.5527848135
 10
-1.3356907215
 20
-12.55718489
 10
-1.3422224484
 20
-12.5613962684
 10
-1.3489433522
 20
-12.5654253587
  0
LWPOLYLINE
  5
2A7
100
AcDbEntity
  8
0
100
AcDbPolyline
 62
253
  6
CONTINUOUS
 90
53
 70
0
 10
-2.1553933316
 20
-12.7353584142
 10
-2.1591602491
 20
-12.7285697532
 10
-2.1626771963
 20
-12.7217216838
 10
-2.1659572291
 20
-12.7147993812
 10
-2.1690134034
 20
-12.7077880207
 10
-2.1718587751
 20
-12.7006727774
 10
-2.1745035515
 20
-12.69344174
 10
-2.1769465448
 20
-12.6860946498
 10
-2.1791837183
 20
-12.6786341617
 10
-2.1812110355
 20
-12.6710629304
 10
-2.1830244597
 20
-12.6633836107
 10
-2.184619642
 20
-12.6556001387
 10
-2.1859909833
 20
-12.647721576
 10
-2.187132572
 20
-12.6397582656
 10
-2.1880384966
 20
-12.6317205506
 10
-2.1887028454
 20
-12.6236187739
 10
-2.1890680371
 20
-12.6168282892
 10
-2.1892601587
 20
-12.6100213043
 10
-2.1892780063
 20
-12.6032186239
 10
-2.1891201712
 20
-12.5964355253
 10
-2.1887844247
 20
-12.5896651776
 10
-2.1882683335
 20
-12.582895223
 10
-2.1874075999
 20
-12.5747608267
 10
-2.1862798031
 20
-12.5666264278
 10
-2.1848810803
 20
-12.5585092532
 10
-2.1832075689
 20
-12.5504265295
 10
-2.181255406
 20
-12.5423954837
 10
-2.1790228999
 20
-12.5344323171
 10
-2.1765170429
 20
-12.5265491301
 10
-2.1737469984
 20
-12.5187569975
 10
-2.1707219296
 20
-12.5110669942
 10
-2.1674509998
 20
-12.5034901953
 10
-2.1645422537
 20
-12.4972676782
 10
-2.1614638075
 20
-12.4911199741
 10
-2.1582103344
 20
-12.4850355911
 10
-2.154779738
 20
-12.4790088866
 10
-2.1511828435
 20
-12.4730576156
 10
-2.1474337065
 20
-12.4672053829
 10
-2.1427517695
 20
-12.4603412548
 10
-2.1378843141
 20
-12.4536620341
 10
-2.1328448109
 20
-12.4471760228
 10
-2.1276467306
 20
-12.4408915226
 10
-2.1223035439
 20
-12.4348168354
 10
-2.1168271128
 20
-12.4289585329
 10
-2.1112228643
 20
-12.4233162661
 10
-2.1054946167
 20
-12.4178879559
 10
-2.0996461886
 20
-12.4126715229
 10
-2.0936813982
 20
-12.4076648881
 10
-2.0876002275
 20
-12.4028652411
 10
-2.0813873133
 20
-12.3982668472
 10
-2.0750234557
 20
-12.3938632406
 10
-2.0684894551
 20
-12.3896479552
 10
-2.0617661118
 20
-12.3856145254
  0
LWPOLYLINE
  5
2A8
100
AcDbEntity
  8
0
100
AcDbPolyline
 62
253
  6
CONTINUOUS
 90
53
 70
0
 10
1.8271921288
 20
9.252474112
 10
1.821619046
 20
9.2470764498
 10
1.8159241946
 20
9.2419042252
 10
1.8100965046
 20
9.2369409149
 10
1.804124906
 20
9.2321699957
 10
1.7979983285
 20
9.2275749443
 10
1.7917078043
 20
9.2231427723
 10
1.785252774
 20
9.2188746308
 10
1.7786347807
 20
9.2147752057
 10
1.7718553673
 20
9.210849183
 10
1.7649160766
 20
9.2071012487
 10
1.7578195942
 20
9.2035367181
 10
1.7505731758
 20
9.2001634239
 10
1.7431852199
 20
9.1969898283
 10
1.7356641247
 20
9.1940243934
 10
1.7280182887
 20
9.1912755815
 10
1.7215599995
 20
9.1891567734
 10
1.7150405968
 20
9.1872008967
 10
1.7084797604
 20
9.185414574
 10
1.7018917813
 20
9.1838031925
 10
1.695269395
 20
9.1823671993
 10
1.688599948
 20
9.1811058063
 10
1.6805229474
 20
9.1798231281
 10
1.6723757251
 20
9.1787991623
 10
1.6641740478
 20
9.178042332
 10
1.655933682
 20
9.1775610603
 10
1.6476703943
 20
9.1773637701
 10
1.6393995054
 20
9.1774564771
 10
1.631134551
 20
9.1778355668
 10
1.6228886212
 20
9.1784950174
 10
1.6146748056
 20
9.1794288071
 10
1.6065061941
 20
9.180630914
 10
1.5997396411
 20
9.181834232
 10
1.5930010366
 20
9.1832218673
 10
1.5862778476
 20
9.1847959879
 10
1.579564065
 20
9.1865571397
 10
1.5728797777
 20
9.1884993821
 10
1.5662515989
 20
9.1906151524
 10
1.5584035835
 20
9.1933728295
 10
1.5506862631
 20
9.1963584928
 10
1.5431112138
 20
9.1995611384
 10
1.5356900115
 20
9.2029697625
 10
1.528434232
 20
9.2065733612
 10
1.5213533519
 20
9.2103620472
 10
1.51444845
 20
9.2143303996
 10
1.5077185057
 20
9.2184741139
 10
1.5011624983
 20
9.2227888858
 10
1.4947794073
 20
9.2272704108
 10
1.488566491
 20
9.2319179481
 10
1.4825141243
 20
9.2367450106
 10
1.4766109611
 20
9.2417686745
 10
1.4708456551
 20
9.2470060162
 10
1.4652068603
 20
9.252474112
  0
LINE
  5
2A9
100
AcDbEntity
  8
0
100
AcDbLine
 62
253
  6
CONTINUOUS
 10
-11.2890452862
 20
0.5499314845
 11
-11.1471633717
 21
0.5972158509
  0
LINE
  5
2AA
100
AcDbEntity
  8
0
100
AcDbLine
 62
253
  6
CONTINUOUS
 10
-11.1471633692
 20
-0.8971625183
 11
-11.2890452862
 21
-0.8498781511
  0
LWPOLYLINE
  5
2AB
100
AcDbEntity
  8
0
100
AcDbPolyline
 62
253
  6
CONTINUOUS
 90
53
 70
0
 10
0.7188282617
 20
-11.0759270257
 10
0.7149180795
 20
-11.068910074
 10
0.7112831919
 20
-11.0618397915
 10
0.7079086142
 20
-11.0547020079
 10
0.7047793616
 20
-11.0474825528
 10
0.7018804493
 20
-11.0401672559
 10
0.6991998941
 20
-11.0327449548
 10
0.69673772
 20
-11.0252165202
 10
0.6944969527
 20
-11.0175858308
 10
0.6924806177
 20
-11.0098567654
 10
0.6906917407
 20
-11.0020332025
 10
0.6891336107
 20
-10.9941201068
 10
0.6878105692
 20
-10.9861267859
 10
0.6867272213
 20
-10.9780636333
 10
0.685888172
 20
-10.9699410422
 10
0.6852980262
 20
-10.9617694063
 10
0.6849993337
 20
-10.9549321529
 10
0.6848771863
 20
-10.9480885311
 10
0.6849320818
 20
-10.9412590139
 10
0.6851647067
 20
-10.9344589974
 10
0.6855765043
 20
-10.9276835695
 10
0.6861691068
 20
-10.9209227414
 10
0.6871211298
 20
-10.9128201891
 10
0.6883383185
 20
-10.9047384217
 10
0.6898231292
 20
-10.8966915844
 10
0.6915780179
 20
-10.8886938223
 10
0.693605441
 20
-10.8807592808
 10
0.6959059259
 20
-10.8729012726
 10
0.6984722849
 20
-10.8651297812
 10
0.7012954016
 20
-10.8574539575
 10
0.7043661595
 20
-10.8498829523
 10
0.7076754422
 20
-10.8424259167
 10
0.7106104422
 20
-10.8363028743
 10
0.7137092883
 20
-10.8302555796
 10
0.7169765152
 20
-10.8242742799
 10
0.7204136805
 20
-10.818354396
 10
0.7240104341
 20
-10.8125120427
 10
0.7277534487
 20
-10.8067685085
 10
0.7324210831
 20
-10.8000318155
 10
0.7372674152
 20
-10.7934756616
 10
0.7422797182
 20
-10.7871076315
 10
0.7474452653
 20
-10.7809353097
 10
0.7527513295
 20
-10.7749662807
 10
0.758186643
 20
-10.7692065689
 10
0.7637457738
 20
-10.7636559577
 10
0.7694247489
 20
-10.7583126701
 10
0.7752195955
 20
-10.7531749294
 10
0.7811263404
 20
-10.7482409585
 10
0.7871447521
 20
-10.7435081797
 10
0.793289564
 20
-10.7389708122
 10
0.7995792508
 20
-10.7346222741
 10
0.8060322873
 20
-10.7304559837
 10
0.8126671482
 20
-10.7264653591
  0
LWPOLYLINE
  5
2AC
100
AcDbEntity
  8
0
100
AcDbPolyline
 62
253
  6
CONTINUOUS
 90
11
 70
0
 10
-11.1763411609
 20
21.375101341
 10
-11.1750473957
 20
21.3707488318
 10
-11.1737754345
 20
21.3630550619
 10
-11.1725252775
 20
21.3520200315
 10
-11.1712903749
 20
21.3375548286
 10
-11.1700772763
 20
21.3197483652
 10
-11.1689056307
 20
21.2988673761
 10
-11.1677766246
 20
21.2748671148
 10
-11.1666890714
 20
21.2477923278
 10
-11.1656590597
 20
21.2180439905
 10
-11.1646874454
 20
21.1855804554
  0
LWPOLYLINE
  5
2AD
100
AcDbEntity
  8
0
100
AcDbPolyline
 62
253
  6
CONTINUOUS
 90
55
 70
0
 10
-3.2759146855
 20
11.366142167
 10
-3.2757905005
 20
11.3738952895
 10
-3.2754205434
 20
11.3815750796
 10
-3.2748087112
 20
11.389200942
 10
-3.2739589009
 20
11.3967922815
 10
-3.2728750095
 20
11.4043685028
 10
-3.2715599192
 20
11.4119450532
 10
-3.2700124543
 20
11.4195215504
 10
-3.268230424
 20
11.4270936549
 10
-3.2662116378
 20
11.4346570271
 10
-3.2639539052
 20
11.4422073272
 10
-3.2614554027
 20
11.4497389523
 10
-3.2587157757
 20
11.4572412456
 10
-3.2557350368
 20
11.4647022869
 10
-3.2525131985
 20
11.472110156
 10
-3.2490502734
 20
11.4794529328
 10
-3.2459818981
 20
11.4855116369
 10
-3.2427554175
 20
11.4914982423
 10
-3.2393801391
 20
11.4973941312
 10
-3.2358624357
 20
11.5031853699
 10
-3.2321969415
 20
11.5088767607
 10
-3.228375356
 20
11.5144777901
 10
-3.2243912655
 20
11.5199947324
 10
-3.2202458025
 20
11.5254210122
 10
-3.2159419864
 20
11.530746842
 10
-3.2114828364
 20
11.5359624342
 10
-3.2068713717
 20
11.5410580013
 10
-3.2021106116
 20
11.5460237557
 10
-3.1972043728
 20
11.5508510583
 10
-3.1921596616
 20
11.5555358635
 10
-3.1869842819
 20
11.5600752743
 10
-3.1816860374
 20
11.5644663936
 10
-3.176272732
 20
11.5687063242
 10
-3.1707521695
 20
11.5727921691
 10
-3.1651291288
 20
11.576722731
 10
-3.1593962896
 20
11.5805036112
 10
-3.1535433069
 20
11.5841421112
 10
-3.1475655596
 20
11.5876420794
 10
-3.1414813239
 20
11.5909935539
 10
-3.1353145998
 20
11.5941831201
 10
-3.127835168
 20
11.5977817834
 10
-3.1202873616
 20
11.6011275444
 10
-3.112687029
 20
11.604219966
 10
-3.1050500186
 20
11.6070586109
 10
-3.0973921786
 20
11.6096430417
 10
-3.0897270989
 20
11.6119735145
 10
-3.0820593353
 20
11.6140530583
 10
-3.0743911852
 20
11.6158853952
 10
-3.0667249459
 20
11.6174742474
 10
-3.0590629147
 20
11.6188233371
 10
-3.051403683
 20
11.6199350963
 10
-3.0437310174
 20
11.6208067954
 10
-3.0360249788
 20
11.6214344145
 10
-3.0282656278
 20
11.6218139339
 10
-3.0204330253
 20
11.6219413336
  0
LINE
  5
2AE
100
AcDbEntity
  8
0
100
AcDbLine
 62
253
  6
CONTINUOUS
 10
-10.7889881461
 20
0.0500266667
 11
-10.6473347093
 21
0.0972348894
  0
LINE
  5
2AF
100
AcDbEntity
  8
0
100
AcDbLine
 62
253
  6
CONTINUOUS
 10
-10.647334708
 20
-0.3971815563
 11
-10.7889881461
 21
-0.3499733333
  0
LWPOLYLINE
  5
2B0
100
AcDbEntity
  8
0
100
AcDbPolyline
 62
253
  6
CONTINUOUS
 90
53
 70
0
 10
1.6191171277
 20
-10.5565675814
 10
1.6228655703
 20
-10.5633209149
 10
1.6263650444
 20
-10.5701342554
 10
1.6296285188
 20
-10.577022291
 10
1.6326689625
 20
-10.5839997097
 10
1.6354993441
 20
-10.5910811995
 10
1.6381298077
 20
-10.5982785411
 10
1.6405591987
 20
-10.6055918857
 10
1.6427835375
 20
-10.6130184771
 10
1.6447988446
 20
-10.6205555591
 10
1.6466011406
 20
-10.6282003757
 10
1.6481861463
 20
-10.6359489427
 10
1.6495483842
 20
-10.6437923648
 10
1.6506820772
 20
-10.651720519
 10
1.6515814481
 20
-10.659723282
 10
1.6522407198
 20
-10.6677905307
 10
1.6526028896
 20
-10.6745527755
 10
1.652793092
 20
-10.6813323999
 10
1.6528101071
 20
-10.688109032
 10
1.6526525034
 20
-10.6948677392
 10
1.6523180032
 20
-10.7016153483
 10
1.6518041174
 20
-10.7083641255
 10
1.6509472226
 20
-10.7164750497
 10
1.649824497
 20
-10.7245879866
 10
1.6484320098
 20
-10.7326856035
 10
1.6467658298
 20
-10.7407505675
 10
1.644822026
 20
-10.7487655456
 10
1.6425988062
 20
-10.7567142733
 10
1.6401029334
 20
-10.7645847586
 10
1.6373433098
 20
-10.772366078
 10
1.6343288372
 20
-10.7800473078
 10
1.6310684176
 20
-10.7876175245
 10
1.6281681962
 20
-10.7938363105
 10
1.6250980045
 20
-10.7999818251
 10
1.6218524869
 20
-10.8060654753
 10
1.6184295205
 20
-10.8120928147
 10
1.6148399142
 20
-10.8180459843
 10
1.6110977096
 20
-10.8239012717
 10
1.6064236074
 20
-10.8307704621
 10
1.6015634615
 20
-10.8374562024
 10
1.5965307496
 20
-10.843950139
 10
1.5913389493
 20
-10.850243918
 10
1.5860015384
 20
-10.8563291854
 10
1.5805303772
 20
-10.862199332
 10
1.5749308574
 20
-10.8678547261
 10
1.5692067534
 20
-10.8732974804
 10
1.5633618394
 20
-10.8785297077
 10
1.5573998898
 20
-10.883553521
 10
1.5513208646
 20
-10.8883717643
 10
1.5451094659
 20
-10.8929902075
 10
1.5387465817
 20
-10.8974153517
 10
1.5322130997
 20
-10.9016536982
 10
1.5254899078
 20
-10.905711748
  0
LWPOLYLINE
  5
2B1
100
AcDbEntity
  8
0
100
AcDbPolyline
 62
253
  6
CONTINUOUS
 90
53
 70
0
 10
-0.5238667066
 20
-10.2498978593
 10
-0.5237432469
 20
-10.2576359348
 10
-0.5233754509
 20
-10.2653011973
 10
-0.5227671931
 20
-10.2729128142
 10
-0.521922348
 20
-10.2804899529
 10
-0.5208447902
 20
-10.288051781
 10
-0.5195373988
 20
-10.2956135482
 10
-0.5179990711
 20
-10.3031748331
 10
-0.5162277089
 20
-10.3107312965
 10
-0.5142212142
 20
-10.3182785994
 10
-0.5119774889
 20
-10.3258124025
 10
-0.5094947927
 20
-10.3333271405
 10
-0.506772818
 20
-10.340812343
 10
-0.5038116148
 20
-10.3482563133
 10
-0.5006112333
 20
-10.3556473549
 10
-0.4971717237
 20
-10.362973771
 10
-0.4941243203
 20
-10.3690194202
 10
-0.4909198337
 20
-10.3749939446
 10
-0.487567207
 20
-10.3808792209
 10
-0.4840726328
 20
-10.3866615931
 10
-0.4804313024
 20
-10.3923452745
 10
-0.4766356569
 20
-10.3979389459
 10
-0.4718694713
 20
-10.4045396106
 10
-0.4668746942
 20
-10.4110072605
 10
-0.4616558333
 20
-10.4173259949
 10
-0.456217396
 20
-10.4234799132
 10
-0.4505638899
 20
-10.4294531148
 10
-0.4447010182
 20
-10.4352315849
 10
-0.4386392666
 20
-10.4408088525
 10
-0.4323903166
 20
-10.446180332
 10
-0.4259658496
 20
-10.4513414384
 10
-0.419377547
 20
-10.4562875862
 10
-0.4137678457
 20
-10.4602433555
 10
-0.408042894
 20
-10.4640529624
 10
-0.4021931045
 20
-10.4677227054
 10
-0.3962145079
 20
-10.4712555236
 10
-0.3901256096
 20
-10.4746409186
 10
-0.3839505334
 20
-10.4778650328
 10
-0.3764563685
 20
-10.4815054134
 10
-0.3688888215
 20
-10.4848927236
 10
-0.3612638685
 20
-10.4880260929
 10
-0.3535974853
 20
-10.4909046506
 10
-0.3459056478
 20
-10.4935275258
 10
-0.3382020426
 20
-10.4958945621
 10
-0.3304911999
 20
-10.4980084595
 10
-0.3227753603
 20
-10.4998726322
 10
-0.3150567648
 20
-10.5014904944
 10
-0.3073376542
 20
-10.5028654602
 10
-0.299616565
 20
-10.5039996116
 10
-0.2918772167
 20
-10.5048897012
 10
-0.2840996244
 20
-10.5055311494
 10
-0.2762638033
 20
-10.5059193768
 10
-0.2683497686
 20
-10.5060498036
  0
LWPOLYLINE
  5
2B2
100
AcDbEntity
  8
0
100
AcDbPolyline
 62
253
  6
CONTINUOUS
 90
55
 70
0
 10
-0.5424514219
 20
8.6329610566
 10
-0.5423286829
 20
8.6252481364
 10
-0.541962965
 20
8.6176070866
 10
-0.5413580164
 20
8.6100186163
 10
-0.5405175855
 20
8.6024634346
 10
-0.5394454206
 20
8.5949222504
 10
-0.5381442892
 20
8.5873797366
 10
-0.5366130346
 20
8.5798364214
 10
-0.534849519
 20
8.5722967968
 10
-0.5328516049
 20
8.5647653548
 10
-0.5306171544
 20
8.5572465875
 10
-0.5281443715
 20
8.5497461667
 10
-0.5254328262
 20
8.5422744837
 10
-0.5224824301
 20
8.53484311
 10
-0.519293095
 20
8.5274636166
 10
-0.5158647323
 20
8.520147575
 10
-0.5128265712
 20
8.5141095692
 10
-0.5096310785
 20
8.5081416239
 10
-0.5062869753
 20
8.5022617005
 10
-0.5028002011
 20
8.4964832787
 10
-0.4991655683
 20
8.4908019129
 10
-0.4953751077
 20
8.4852086761
 10
-0.4914226284
 20
8.4796977401
 10
-0.4873090521
 20
8.4742756718
 10
-0.4830370789
 20
8.468952137
 10
-0.4786094088
 20
8.4637368016
 10
-0.4740287417
 20
8.4586393314
 10
-0.4692977778
 20
8.4536693921
 10
-0.4644199293
 20
8.4488354975
 10
-0.4594014579
 20
8.4441415539
 10
-0.4542493376
 20
8.4395903154
 10
-0.4489705424
 20
8.435184536
 10
-0.4435720462
 20
8.43092697
 10
-0.4380608231
 20
8.4268203715
 10
-0.4324410331
 20
8.4228659319
 10
-0.4267055811
 20
8.4190585922
 10
-0.420844558
 20
8.4153917305
 10
-0.414853782
 20
8.4118621551
 10
-0.4087519798
 20
8.408480395
 10
-0.4025636055
 20
8.4052604094
 10
-0.3950533699
 20
8.4016257235
 10
-0.3874698859
 20
8.3982448149
 10
-0.3798293548
 20
8.3951184048
 10
-0.3721479783
 20
8.3922472142
 10
-0.3644419579
 20
8.389631964
 10
-0.3567251657
 20
8.3872726548
 10
-0.3490021575
 20
8.3851664056
 10
-0.3412751596
 20
8.3833096148
 10
-0.3335463984
 20
8.381698681
 10
-0.3258181001
 20
8.3803300026
 10
-0.3180887565
 20
8.3792013182
 10
-0.3103419192
 20
8.3783157261
 10
-0.3025574052
 20
8.3776776651
 10
-0.2947150316
 20
8.3772915736
 10
-0.2867946152
 20
8.37716189
  0
LWPOLYLINE
  5
2B3
100
AcDbEntity
  8
0
100
AcDbPolyline
 62
253
  6
CONTINUOUS
 90
53
 70
0
 10
-0.0124094974
 20
-9.7224950816
 10
-0.0125324438
 20
-9.7147708383
 10
-0.0128987447
 20
-9.7071189744
 10
-0.0135045926
 20
-9.699520241
 10
-0.0143461801
 20
-9.6919553895
 10
-0.0154196997
 20
-9.6844051711
 10
-0.0167223282
 20
-9.6768542887
 10
-0.0182551798
 20
-9.6693032515
 10
-0.0200203529
 20
-9.6617565204
 10
-0.0220199458
 20
-9.654218556
 10
-0.0242560572
 20
-9.6466938192
 10
-0.0267304399
 20
-9.639187958
 10
-0.0294434656
 20
-9.6317113694
 10
-0.0323951606
 20
-9.6242756378
 10
-0.0355855512
 20
-9.6168923472
 10
-0.0390146636
 20
-9.609573082
 10
-0.0420531793
 20
-9.6035328273
 10
-0.0452487846
 20
-9.5975629862
 10
-0.0485927719
 20
-9.5916814659
 10
-0.0520791503
 20
-9.5859017597
 10
-0.0557127969
 20
-9.5802197076
 10
-0.0595013054
 20
-9.5746267359
 10
-0.0642597113
 20
-9.5680258367
 10
-0.0692476889
 20
-9.5615569683
 10
-0.0744608735
 20
-9.5552362317
 10
-0.0798949005
 20
-9.5490797281
 10
-0.0855454051
 20
-9.5431035585
 10
-0.0914068409
 20
-9.5373218984
 10
-0.0974689348
 20
-9.5317412208
 10
-0.1037202322
 20
-9.5263660727
 10
-0.1101492783
 20
-9.5212010014
 10
-0.1167446185
 20
-9.516250554
 10
-0.122362193
 20
-9.5122909349
 10
-0.1280968157
 20
-9.5084772949
 10
-0.1339580072
 20
-9.5048034112
 10
-0.1399496679
 20
-9.5012664136
 10
-0.1460532153
 20
-9.4978768433
 10
-0.1522444463
 20
-9.4946485947
 10
-0.1597598868
 20
-9.4910033488
 10
-0.1673507086
 20
-9.4876112928
 10
-0.1750008808
 20
-9.484473306
 10
-0.1826943727
 20
-9.4815902677
 10
-0.1904151535
 20
-9.478963057
 10
-0.1981494758
 20
-9.4765918443
 10
-0.2058927264
 20
-9.4744739637
 10
-0.2136425756
 20
-9.4726060405
 10
-0.2213966939
 20
-9.4709847
 10
-0.2291527513
 20
-9.4696065673
 10
-0.2369121718
 20
-9.46846961
 10
-0.2446913929
 20
-9.4675771648
 10
-0.2525106054
 20
-9.4669339108
 10
-0.2603900003
 20
-9.4665445271
 10
-0.2683497686
 20
-9.4664136928
  0
LINE
  5
2B4
100
AcDbEntity
  8
0
100
AcDbLine
 62
253
  6
CONTINUOUS
 10
-0.5424514219
 20
9.7042060563
 11
-0.5424514219
 21
8.6329610566
  0
LINE
  5
2B5
100
AcDbEntity
  8
0
100
AcDbLine
 62
253
  6
CONTINUOUS
 10
-0.5424514219
 20
13.0280782777
 11
-0.5424514219
 21
14.0999582774
  0
LINE
  5
2B6
100
AcDbEntity
  8
0
100
AcDbLine
 62
253
  6
CONTINUOUS
 10
-0.5238667066
 20
-9.7224950816
 11
-0.5238667066
 21
-10.2498978593
  0
LINE
  5
2B7
100
AcDbEntity
  8
0
100
AcDbLine
 62
253
  6
CONTINUOUS
 10
-0.5238667066
 20
-13.568795914
 11
-0.5238667066
 21
-13.0410756363
  0
LINE
  5
2B8
100
AcDbEntity
  8
0
100
AcDbLine
 62
253
  6
CONTINUOUS
 10
-0.0309942127
 20
14.0999582774
 11
-0.0309942127
 21
13.0280782777
  0
LINE
  5
2B9
100
AcDbEntity
  8
0
100
AcDbLine
 62
253
  6
CONTINUOUS
 10
-0.0309942127
 20
8.6329610566
 11
-0.0309942127
 21
9.7042060563
  0
LINE
  5
2BA
100
AcDbEntity
  8
0
100
AcDbLine
 62
253
  6
CONTINUOUS
 10
-0.0124094974
 20
-13.0410756363
 11
-0.0124094974
 21
-13.568795914
  0
LINE
  5
2BB
100
AcDbEntity
  8
0
100
AcDbLine
 62
253
  6
CONTINUOUS
 10
-0.0124094974
 20
-10.2498978593
 11
-0.0124094974
 21
-9.7224950816
  0
LWPOLYLINE
  5
2BC
100
AcDbEntity
  8
0
100
AcDbPolyline
 62
253
  6
CONTINUOUS
 90
57
 70
0
 10
-1.099769741
 20
11.366142167
 10
-1.099472792
 20
11.3873389411
 10
-1.0985836138
 20
11.4085009436
 10
-1.0971047091
 20
11.4296694223
 10
-1.095038581
 20
11.4508856253
 10
-1.0923857918
 20
11.472183147
 10
-1.0891391415
 20
11.4935649676
 10
-1.08528949
 20
11.515026414
 10
-1.0808276968
 20
11.5365628129
 10
-1.075746517
 20
11.558163524
 10
-1.0700462871
 20
11.5797940388
 10
-1.0637292392
 20
11.6014138815
 10
-1.0567976052
 20
11.6229825765
 10
-1.0492528161
 20
11.6444634553
 10
-1.0410930989
 20
11.6658350779
 10
-1.0323158795
 20
11.6870798117
 10
-1.0229185839
 20
11.708180024
 10
-1.0129001533
 20
11.7291153993
 10
-1.0022655899
 20
11.7498548922
 10
-0.9910214113
 20
11.7703647744
 10
-0.979174135
 20
11.7906113177
 10
-0.966727025
 20
11.8105649475
 10
-0.9536703315
 20
11.8302127037
 10
-0.9399910509
 20
11.8495457799
 10
-0.9256761799
 20
11.8685553697
 10
-0.9107187685
 20
11.8872248689
 10
-0.8951360804
 20
11.9055064821
 10
-0.878951433
 20
11.9233446162
 10
-0.8621881435
 20
11.9406836782
 10
-0.8448761469
 20
11.9574726208
 10
-0.8270718494
 20
11.9736785806
 10
-0.8088382752
 20
11.9892732399
 10
-0.790238448
 20
12.0042282811
 10
-0.7713251625
 20
12.0185235703
 10
-0.7521102942
 20
12.0321717083
 10
-0.7325954893
 20
12.0451934797
 10
-0.7127823938
 20
12.057609669
 10
-0.6926750985
 20
12.0694372772
 10
-0.6722874731
 20
12.0806781717
 10
-0.6516358318
 20
12.0913304365
 10
-0.6307364889
 20
12.1013921554
 10
-0.6096083964
 20
12.1108605125
 10
-0.5882810573
 20
12.1197290923
 10
-0.566786612
 20
12.1279905793
 10
-0.545157201
 20
12.1356376582
 10
-0.5234276081
 20
12.1426637489
 10
-0.5016431891
 20
12.1490652129
 10
-0.4798519432
 20
12.1548391474
 10
-0.4581018693
 20
12.1599826493
 10
-0.4364329189
 20
12.1644951155
 10
-0.4148528531
 20
12.1683851434
 10
-0.3933613852
 20
12.17166363
 10
-0.3719582287
 20
12.1743414726
 10
-0.3506364036
 20
12.1764272904
 10
-0.3293621572
 20
12.1779205907
 10
-0.3080950431
 20
12.1788186027
 10
-0.2867946152
 20
12.1791185557
  0
LWPOLYLINE
  5
2BD
100
AcDbEntity
  8
0
100
AcDbPolyline
 62
253
  6
CONTINUOUS
 90
53
 70
0
 10
-0.5424514219
 20
14.0999582774
 10
-0.5423269996
 20
14.107702588
 10
-0.5419563723
 20
14.1153740031
 10
-0.5413434995
 20
14.1229916021
 10
-0.5404923406
 20
14.130574464
 10
-0.5394068549
 20
14.1381416682
 10
-0.5380899991
 20
14.1457084035
 10
-0.5365407183
 20
14.1532742975
 10
-0.5347569547
 20
14.1608350874
 10
-0.5327366507
 20
14.1683865107
 10
-0.5304777485
 20
14.1759243045
 10
-0.5279785545
 20
14.1834429627
 10
-0.5252388321
 20
14.1909320059
 10
-0.5222587087
 20
14.1983797112
 10
-0.5190383117
 20
14.2057743555
 10
-0.5155777686
 20
14.2131042161
 10
-0.5125121465
 20
14.2191525725
 10
-0.5092890195
 20
14.2251295215
 10
-0.5059175626
 20
14.2310167854
 10
-0.5024041192
 20
14.2368006339
 10
-0.4987437088
 20
14.2424855262
 10
-0.4949285194
 20
14.2480804688
 10
-0.4901380565
 20
14.2546830582
 10
-0.4851183945
 20
14.2611529151
 10
-0.479874465
 20
14.2674738647
 10
-0.4744111997
 20
14.2736297325
 10
-0.4687335303
 20
14.2796043436
 10
-0.462847615
 20
14.2853834226
 10
-0.4567645188
 20
14.2909602904
 10
-0.4504965333
 20
14.2963301669
 10
-0.44405595
 20
14.3014882723
 10
-0.4374550605
 20
14.3064298264
 10
-0.4318378854
 20
14.3103804832
 10
-0.4261079626
 20
14.3141840587
 10
-0.4202553325
 20
14.3178471739
 10
-0.4142757289
 20
14.3213730374
 10
-0.408187659
 20
14.3247512092
 10
-0.4020153238
 20
14.3279678367
 10
-0.3945270617
 20
14.331598908
 10
-0.3869683006
 20
14.3349766365
 10
-0.3793550341
 20
14.3381002508
 10
-0.3717032563
 20
14.3409689793
 10
-0.364028961
 20
14.3435820505
 10
-0.3563458259
 20
14.3459394155
 10
-0.3486582639
 20
14.348043916
 10
-0.3409683715
 20
14.3498991165
 10
-0.3332782455
 20
14.3515085813
 10
-0.3255899824
 20
14.3528758748
 10
-0.317902036
 20
14.3540032426
 10
-0.3101982876
 20
14.3548876546
 10
-0.3024589757
 20
14.3555247618
 10
-0.2946643387
 20
14.3559102154
 10
-0.2867946152
 20
14.3560396663
  0
LWPOLYLINE
  5
2BE
100
AcDbEntity
  8
0
100
AcDbPolyline
 62
253
  6
CONTINUOUS
 90
52
 70
0
 10
-0.8258444766
 20
-11.6458042478
 10
-0.8255676995
 20
-11.6286113685
 10
-0.8247362717
 20
-11.6114537079
 10
-0.8233485484
 20
-11.5943210161
 10
-0.8214028847
 20
-11.5772030435
 10
-0.8188976359
 20
-11.5600895405
 10
-0.8158311571
 20
-11.5429702572
 10
-0.8122018034
 20
-11.525834944
 10
-0.8080079301
 20
-11.5086733512
 10
-0.803804422
 20
-11.4933930517
 10
-0.7991501798
 20
-11.478105476
 10
-0.794041809
 20
-11.4628322103
 10
-0.7884759153
 20
-11.4475948411
 10
-0.7824491043
 20
-11.4324149547
 10
-0.7759579817
 20
-11.4173141375
 10
-0.7689991531
 20
-11.402313976
 10
-0.7615692241
 20
-11.3874360563
 10
-0.7536648003
 20
-11.3727019651
 10
-0.7452848454
 20
-11.358134407
 10
-0.7364377544
 20
-11.3437605614
 10
-0.7271342803
 20
-11.3296087258
 10
-0.7173851762
 20
-11.315707198
 10
-0.707201195
 20
-11.3020842756
 10
-0.6965930899
 20
-11.2887682564
 10
-0.6855716137
 20
-11.275787438
 10
-0.6741475196
 20
-11.263170118
 10
-0.6623315605
 20
-11.2509445943
 10
-0.6501363626
 20
-11.2391350003
 10
-0.6375820444
 20
-11.2277488131
 10
-0.6246905978
 20
-11.2167893457
 10
-0.6114840145
 20
-11.2062599109
 10
-0.5979842861
 20
-11.1961638217
 10
-0.5842134045
 20
-11.1865043911
 10
-0.5701933614
 20
-11.1772849319
 10
-0.5559461484
 20
-11.1685087571
 10
-0.5414937575
 20
-11.1601791797
 10
-0.5250154888
 20
-11.1513457431
 10
-0.5083279321
 20
-11.1430827789
 10
-0.4914536445
 20
-11.1353913418
 10
-0.4744151832
 20
-11.1282724867
 10
-0.4572393113
 20
-11.1217278368
 10
-0.4399696165
 20
-11.1157612897
 10
-0.4226538921
 20
-11.1103773118
 10
-0.4053399316
 20
-11.1055803692
 10
-0.3880682212
 20
-11.1013723231
 10
-0.3708500164
 20
-11.0977446139
 10
-0.3536892655
 20
-11.094686077
 10
-0.3365899167
 20
-11.0921855476
 10
-0.3195475473
 20
-11.0902345112
 10
-0.302524251
 20
-11.088835052
 10
-0.2854737505
 20
-11.0879919047
 10
-0.2683497686
 20
-11.0877098035
  0
LWPOLYLINE
  5
2BF
100
AcDbEntity
  8
0
100
AcDbPolyline
 62
253
  6
CONTINUOUS
 90
53
 70
0
 10
-0.5238667066
 20
-13.0410756363
 10
-0.5237435158
 20
-13.0333546431
 10
-0.5233765108
 20
-13.0257060991
 10
-0.5227695429
 20
-13.0181108447
 10
-0.5219264633
 20
-13.0105497203
 10
-0.5208511231
 20
-13.0030035665
 10
-0.5195463854
 20
-12.9954571489
 10
-0.5180111603
 20
-12.9879109343
 10
-0.5162433697
 20
-12.9803693142
 10
-0.5142409354
 20
-12.9728366807
 10
-0.5120017793
 20
-12.9653174254
 10
-0.5095241736
 20
-12.9578171423
 10
-0.5068077914
 20
-12.9503462337
 10
-0.5038526562
 20
-12.942916304
 10
-0.5006587913
 20
-12.9355389575
 10
-0.4972262201
 20
-12.9282257987
 10
-0.4941848835
 20
-12.9221907805
 10
-0.4909866128
 20
-12.9162263711
 10
-0.4876402261
 20
-12.9103505456
 10
-0.4841518063
 20
-12.9045768433
 10
-0.4805164966
 20
-12.8989010594
 10
-0.4767267052
 20
-12.8933145528
 10
-0.4719672817
 20
-12.8867215847
 10
-0.4669789405
 20
-12.8802607622
 10
-0.4617661501
 20
-12.8739481148
 10
-0.4563333788
 20
-12.8677996718
 10
-0.4506850947
 20
-12.8618314625
 10
-0.4448269493
 20
-12.8560576083
 10
-0.4387693263
 20
-12.8504845995
 10
-0.4325237926
 20
-12.8451170183
 10
-0.4261019149
 20
-12.8399594469
 10
-0.4195152601
 20
-12.8350164676
 10
-0.4139061422
 20
-12.8310630613
 10
-0.408181047
 20
-12.8272555866
 10
-0.4023303933
 20
-12.8235877707
 10
-0.3963502264
 20
-12.820056701
 10
-0.3902590977
 20
-12.816672905
 10
-0.3840811852
 20
-12.8134502707
 10
-0.3765828835
 20
-12.8098115417
 10
-0.3690104409
 20
-12.8064257519
 10
-0.3613798693
 20
-12.803293769
 10
-0.3537071804
 20
-12.8004164612
 10
-0.3460083859
 20
-12.7977946962
 10
-0.3382972046
 20
-12.7954286288
 10
-0.3305781838
 20
-12.7933155596
 10
-0.3228535781
 20
-12.7914520759
 10
-0.315125642
 20
-12.7898347651
 10
-0.3073966299
 20
-12.7884602146
 10
-0.2996650797
 20
-12.7873263481
 10
-0.2919146633
 20
-12.7864364347
 10
-0.2841253358
 20
-12.7857950801
 10
-0.2762770525
 20
-12.7854068899
 10
-0.2683497686
 20
-12.7852764697
  0
LWPOLYLINE
  5
2C0
100
AcDbEntity
  8
0
100
AcDbPolyline
 62
253
  6
CONTINUOUS
 90
53
 70
0
 10
-1.6928950036
 20
11.366142167
 10
-1.6930206972
 20
11.3583686487
 10
-1.6933950576
 20
11.3506690894
 10
-1.6940140037
 20
11.3430242602
 10
-1.6948734548
 20
11.3354149319
 10
-1.69596933
 20
11.3278218755
 10
-1.6972985748
 20
11.3202297681
 10
-1.6988622402
 20
11.3126389119
 10
-1.700662404
 20
11.3050535152
 10
-1.7027011435
 20
11.2974777865
 10
-1.7049805364
 20
11.289915934
 10
-1.7075022807
 20
11.2823734563
 10
-1.710266556
 20
11.2748610127
 10
-1.7132731624
 20
11.2673905524
 10
-1.7165219
 20
11.2599740248
 10
-1.720012569
 20
11.2526233794
 10
-1.7231045463
 20
11.2465587581
 10
-1.7263548089
 20
11.2405669161
 10
-1.7297537728
 20
11.234666583
 10
-1.7332948103
 20
11.2288717872
 10
-1.7369831177
 20
11.2231777527
 10
-1.740826847
 20
11.2175750019
 10
-1.7456527109
 20
11.2109643379
 10
-1.7507087292
 20
11.2044880169
 10
-1.7559895092
 20
11.198162581
 10
-1.7614896585
 20
11.1920045719
 10
-1.7672037846
 20
11.1860305316
 10
-1.7731251453
 20
11.1802550837
 10
-1.7792416007
 20
11.1746851785
 10
-1.785539661
 20
11.169325848
 10
-1.7920058367
 20
11.1641821243
 10
-1.798626638
 20
11.1592590394
 10
-1.804255381
 20
11.1553269526
 10
-1.8099924714
 20
11.1515443539
 10
-1.8158482455
 20
11.1479040155
 10
-1.821827351
 20
11.1444021396
 10
-1.8279116811
 20
11.1410486474
 10
-1.8340774406
 20
11.1378568901
 10
-1.841554577
 20
11.1342553097
 10
-1.8490990404
 20
11.1309063645
 10
-1.8566951645
 20
11.1278105658
 10
-1.8643272831
 20
11.124968425
 10
-1.8719797301
 20
11.1223804534
 10
-1.8796390781
 20
11.120046471
 10
-1.887300855
 20
11.1179635325
 10
-1.8949628276
 20
11.1161280013
 10
-1.9026227627
 20
11.1145362406
 10
-1.910278427
 20
11.1131846138
 10
-1.9179312356
 20
11.1120707607
 10
-1.9255971964
 20
11.1111974277
 10
-1.9332959654
 20
11.1105686377
 10
-1.9410471987
 20
11.1101884136
 10
-1.9488705526
 20
11.1100607782
  0
LWPOLYLINE
  5
2C1
100
AcDbEntity
  8
0
100
AcDbPolyline
 62
253
  6
CONTINUOUS
 90
53
 70
0
 10
-0.0309942127
 20
13.0280782777
 10
-0.0311184117
 20
13.020368698
 10
-0.0314882953
 20
13.0127322213
 10
-0.0320997936
 20
13.0051499269
 10
-0.0329488365
 20
12.9976028939
 10
-0.0340313539
 20
12.9900722013
 10
-0.0353442668
 20
12.982542801
 10
-0.0368884607
 20
12.9750151357
 10
-0.038665812
 20
12.9674935205
 10
-0.0406781972
 20
12.9599822707
 10
-0.0429274928
 20
12.9524857018
 10
-0.0454152208
 20
12.9450093245
 10
-0.048141486
 20
12.9375634329
 10
-0.051106039
 20
12.9301595162
 10
-0.0543086302
 20
12.9228090641
 10
-0.05774901
 20
12.915523566
 10
-0.0607960062
 20
12.9095120755
 10
-0.0639991085
 20
12.9035714264
 10
-0.0673494655
 20
12.8977193741
 10
-0.0708408621
 20
12.8919693671
 10
-0.0744776287
 20
12.8863176239
 10
-0.0782667323
 20
12.8807560562
 10
-0.0830218578
 20
12.874194656
 10
-0.0880022626
 20
12.8677665139
 10
-0.0932038289
 20
12.8614866829
 10
-0.0986224384
 20
12.8553702162
 10
-0.1042539733
 20
12.8494321668
 10
-0.1100932093
 20
12.8436858102
 10
-0.1161304983
 20
12.8381373108
 10
-0.1223550859
 20
12.8327910558
 10
-0.1287562177
 20
12.827651432
 10
-0.1353231394
 20
12.8227228263
 10
-0.140916985
 20
12.8187786435
 10
-0.146627418
 20
12.8149783618
 10
-0.152463362
 20
12.8113162955
 10
-0.1584283891
 20
12.807789944
 10
-0.1645046651
 20
12.8044095472
 10
-0.1706690041
 20
12.8011885302
 10
-0.1781539456
 20
12.7975489205
 10
-0.1857170694
 20
12.7941593105
 10
-0.1933431345
 20
12.7910208606
 10
-0.2010169002
 20
12.7881347316
 10
-0.2087231257
 20
12.7855020842
 10
-0.2164486798
 20
12.7831234215
 10
-0.2241888698
 20
12.780996617
 10
-0.2319411128
 20
12.7791188869
 10
-0.2397028258
 20
12.7774874474
 10
-0.2474714257
 20
12.7760995144
 10
-0.2552480679
 20
12.7749536146
 10
-0.2630488611
 20
12.7740535171
 10
-0.270893652
 20
12.7734043014
 10
-0.2788022877
 20
12.7730110469
 10
-0.2867946152
 20
12.7728788333
  0
LINE
  5
2C2
100
AcDbEntity
  8
0
100
AcDbLine
 62
253
  6
CONTINUOUS
 10
10.1491621737
 20
21.8744161096
 11
10.2413406311
 21
22.0588995252
  0
LINE
  5
2C3
100
AcDbEntity
  8
0
100
AcDbLine
 62
253
  6
CONTINUOUS
 10
-11.1763411615
 20
-21.6750480088
 11
-11.2693173781
 21
-21.8611280374
  0
LINE
  5
2C4
100
AcDbEntity
  8
0
100
AcDbLine
 62
253
  6
CONTINUOUS
 10
10.6489908362
 20
21.3751013422
 11
10.7419670527
 21
21.5611813709
  0
LINE
  5
2C5
100
AcDbEntity
  8
0
100
AcDbLine
 62
7
  6
CONTINUOUS
 10
7.9863248373
 20
-0.3848808044
 11
8.3362794914
 21
-0.3499733333
  0
LINE
  5
2C6
100
AcDbEntity
  8
0
100
AcDbLine
 62
253
  6
CONTINUOUS
 10
10.6198130464
 20
-0.8971625174
 11
10.616178717
 21
-0.8972374987
  0
LINE
  5
2C7
100
AcDbEntity
  8
0
100
AcDbLine
 62
253
  6
CONTINUOUS
 10
10.616178717
 20
-0.8972374987
 11
10.5949132286
 21
-0.8973846318
  0
LINE
  5
2C8
100
AcDbEntity
  8
0
100
AcDbLine
 62
253
  6
CONTINUOUS
 10
10.1199843839
 20
-0.3971815559
 11
3.1990307145
 21
-0.4006269545
  0
LINE
  5
2C9
100
AcDbEntity
  8
0
100
AcDbLine
 62
253
  6
CONTINUOUS
 10
-10.6473347093
 20
0.0972348894
 11
-3.7263810399
 21
0.100680288
  0
LINE
  5
2CA
100
AcDbEntity
  8
0
100
AcDbLine
 62
253
  6
CONTINUOUS
 10
10.5949132286
 20
-0.8973846318
 11
3.2132559148
 21
-0.9015285887
  0
LINE
  5
2CB
100
AcDbEntity
  8
0
100
AcDbLine
 62
7
  6
CONTINUOUS
 10
7.9863248373
 20
-0.3848808044
 11
-8.5136751627
 21
-0.3848808044
  0
LINE
  5
2CC
100
AcDbEntity
  8
0
100
AcDbLine
 62
7
  6
CONTINUOUS
 10
10.2616378208
 20
-0.3499733333
 11
8.3362794914
 21
-0.3499733333
  0
LINE
  5
2CD
100
AcDbEntity
  8
0
100
AcDbLine
 62
7
  6
CONTINUOUS
 10
-8.8636298168
 20
-0.3499733333
 11
-10.7889881461
 21
-0.3499733333
  0
LINE
  5
2CE
100
AcDbEntity
  8
0
100
AcDbLine
 62
7
  6
CONTINUOUS
 10
-10.7889881461
 20
0.0500266667
 11
-8.8636298168
 21
0.0500266667
  0
LINE
  5
2CF
100
AcDbEntity
  8
0
100
AcDbLine
 62
7
  6
CONTINUOUS
 10
8.3362794914
 20
0.0500266667
 11
10.2616378208
 21
0.0500266667
  0
LINE
  5
2D0
100
AcDbEntity
  8
0
100
AcDbLine
 62
7
  6
CONTINUOUS
 10
-8.5136751627
 20
0.0849341379
 11
7.9863248373
 21
0.0849341379
  0
LINE
  5
2D1
100
AcDbEntity
  8
0
100
AcDbLine
 62
253
  6
CONTINUOUS
 10
3.2132559148
 20
-0.9015285887
 11
-3.7406030958
 21
-0.9015285896
  0
LINE
  5
2D2
100
AcDbEntity
  8
0
100
AcDbLine
 62
253
  6
CONTINUOUS
 10
3.1990307145
 20
-0.4006269545
 11
-3.7263836347
 21
-0.4006269539
  0
LINE
  5
2D3
100
AcDbEntity
  8
0
100
AcDbLine
 62
253
  6
CONTINUOUS
 10
-3.7263810399
 20
0.100680288
 11
3.1990333094
 21
0.1006802874
  0
LINE
  5
2D4
100
AcDbEntity
  8
0
100
AcDbLine
 62
253
  6
CONTINUOUS
 10
-3.7263836347
 20
-0.4006269539
 11
-10.647334708
 21
-0.3971815563
  0
LINE
  5
2D5
100
AcDbEntity
  8
0
100
AcDbLine
 62
253
  6
CONTINUOUS
 10
3.1990333094
 20
0.1006802874
 11
10.1199843826
 21
0.0972348898
  0
LINE
  5
2D6
100
AcDbEntity
  8
0
100
AcDbLine
 62
253
  6
CONTINUOUS
 10
-3.7406030958
 20
-0.9015285896
 11
-11.1222635516
 21
-0.8973846276
  0
LWPOLYLINE
  5
2D7
100
AcDbEntity
  8
0
100
AcDbPolyline
 62
253
  6
CONTINUOUS
 90
3
 70
0
 10
-11.1222635516
 20
-0.8973846276
 10
-11.1435290399
 20
-0.8972374978
 10
-11.1471633693
 20
-0.8971625183
  0
LINE
  5
2D8
100
AcDbEntity
  8
0
100
AcDbLine
 62
7
  6
CONTINUOUS
 10
-8.5136751627
 20
-0.3848808044
 11
-8.8636298168
 21
-0.3499733333
  0
LINE
  5
2D9
100
AcDbEntity
  8
0
100
AcDbLine
 62
253
  6
CONTINUOUS
 10
10.2413406311
 20
-22.3588461917
 11
10.1491621731
 21
-22.1743627749
  0
LINE
  5
2DA
100
AcDbEntity
  8
0
100
AcDbLine
 62
253
  6
CONTINUOUS
 10
-11.2693173781
 20
21.5611813709
 11
-11.1763411609
 21
21.375101341
  0
LINE
  5
2DB
100
AcDbEntity
  8
0
100
AcDbLine
 62
253
  6
CONTINUOUS
 10
10.7419670527
 20
-21.8611280374
 11
10.6489908355
 21
-21.6750480075
  0
LWPOLYLINE
  5
2DC
100
AcDbEntity
  8
0
100
AcDbPolyline
 62
253
  6
CONTINUOUS
 90
53
 70
0
 10
-0.0309942127
 20
9.7042060563
 10
-0.0311180949
 20
9.7119366032
 10
-0.0314870687
 20
9.7195938332
 10
-0.0320971246
 20
9.72719678
 10
-0.032944253
 20
9.7347644777
 10
-0.0340244446
 20
9.7423159602
 10
-0.0353346861
 20
9.7498663713
 10
-0.0368759491
 20
9.7574152942
 10
-0.0386502017
 20
9.7649584222
 10
-0.0406594117
 20
9.7724914483
 10
-0.0429055471
 20
9.7800100658
 10
-0.0453902159
 20
9.7875087489
 10
-0.0481135868
 20
9.7949770975
 10
-0.0510754685
 20
9.8024034925
 10
-0.0542756695
 20
9.8097763147
 10
-0.0577139988
 20
9.8170839453
 10
-0.060759575
 20
9.8231135889
 10
-0.0639614933
 20
9.8290719676
 10
-0.0673108615
 20
9.8349411575
 10
-0.0708014335
 20
9.8407075783
 10
-0.0744375449
 20
9.8463750255
 10
-0.0782261769
 20
9.8519516383
 10
-0.0829810056
 20
9.8585302807
 10
-0.0879614598
 20
9.8649747967
 10
-0.0931634823
 20
9.8712701409
 10
-0.0985830158
 20
9.8774012678
 10
-0.104216003
 20
9.883353132
 10
-0.1100572499
 20
9.8891124643
 10
-0.1160970163
 20
9.8946731008
 10
-0.1223244252
 20
9.9000306538
 10
-0.1287285996
 20
9.9051807357
 10
-0.1352986627
 20
9.9101189588
 10
-0.1408951231
 20
9.9140705234
 10
-0.1466081426
 20
9.917877662
 10
-0.1524466333
 20
9.9215461199
 10
-0.1584141554
 20
9.9250784488
 10
-0.1644928606
 20
9.9284644265
 10
-0.1706595489
 20
9.9316906377
 10
-0.1781471829
 20
9.9353359837
 10
-0.1857128318
 20
9.9387308068
 10
-0.1933412229
 20
9.9418739664
 10
-0.2010170839
 20
9.9447643219
 10
-0.208725142
 20
9.9474007328
 10
-0.2164522326
 20
9.9497827162
 10
-0.2241936218
 20
9.9519124197
 10
-0.2319466838
 20
9.953792649
 10
-0.2397087926
 20
9.9554262094
 10
-0.2474773221
 20
9.9568159065
 10
-0.2552534083
 20
9.9579632327
 10
-0.263053235
 20
9.9588644281
 10
-0.2708967479
 20
9.9595144199
 10
-0.2788038927
 20
9.959908135
 10
-0.2867946152
 20
9.9600405007
  0
LWPOLYLINE
  5
2DD
100
AcDbEntity
  8
0
100
AcDbPolyline
 62
253
  6
CONTINUOUS
 90
57
 70
0
 10
0.5265004953
 20
11.366142167
 10
0.5262015881
 20
11.3449114354
 10
0.525307151
 20
11.3237266688
 10
0.5238206109
 20
11.302546934
 10
0.5217453948
 20
11.2813312981
 10
0.5190831186
 20
11.2600466997
 10
0.5158281544
 20
11.2386915643
 10
0.5119730635
 20
11.2172721893
 10
0.5075104071
 20
11.1957948718
 10
0.5024343996
 20
11.1742709892
 10
0.4967458686
 20
11.1527322395
 10
0.490447295
 20
11.1312154005
 10
0.4835411596
 20
11.1097572502
 10
0.4760291154
 20
11.0883911755
 10
0.4679095034
 20
11.0671369988
 10
0.4591798365
 20
11.0460111514
 10
0.4498376279
 20
11.0250300646
 10
0.4398818154
 20
11.0042127933
 10
0.4293170365
 20
10.9835888867
 10
0.4181493534
 20
10.9631905177
 10
0.4063848285
 20
10.9430498591
 10
0.3940263403
 20
10.9231951023
 10
0.3810640327
 20
10.9036385127
 10
0.3674848657
 20
10.8843883745
 10
0.3532757996
 20
10.8654529715
 10
0.3384295945
 20
10.8468482279
 10
0.3229622113
 20
10.8286206279
 10
0.3068954112
 20
10.810824296
 10
0.2902509551
 20
10.7935133565
 10
0.2730561843
 20
10.7767372119
 10
0.2553607605
 20
10.7605263777
 10
0.2372199255
 20
10.7449066476
 10
0.2186889212
 20
10.7299038153
 10
0.1998148541
 20
10.715536905
 10
0.1806122896
 20
10.701797864
 10
0.1610876579
 20
10.6886718703
 10
0.1412473892
 20
10.6761441016
 10
0.1210994336
 20
10.6642025966
 10
0.1006578212
 20
10.6528468368
 10
0.079938102
 20
10.6420791645
 10
0.0589558261
 20
10.6319019217
 10
0.0377296676
 20
10.6223186028
 10
0.0162907969
 20
10.6133373097
 10
-0.0053264918
 20
10.6049672962
 10
-0.0270879041
 20
10.5972178165
 10
-0.0489560607
 20
10.5900971975
 10
-0.0708812419
 20
10.5836100594
 10
-0.0928106432
 20
10.5777600952
 10
-0.1146914602
 20
10.5725509981
 10
-0.1364801495
 20
10.5679838237
 10
-0.1581702137
 20
10.5640490766
 10
-0.1797644164
 20
10.5607346235
 10
-0.2012655215
 20
10.5580283313
 10
-0.2226825486
 20
10.5559205506
 10
-0.2440495407
 20
10.5544115657
 10
-0.2654067966
 20
10.5535041449
 10
-0.2867946152
 20
10.5532010561
  0
LWPOLYLINE
  5
2DE
100
AcDbEntity
  8
0
100
AcDbPolyline
 62
253
  6
CONTINUOUS
 90
53
 70
0
 10
-0.0124094974
 20
-13.568795914
 10
-0.0125321164
 20
-13.5765039877
 10
-0.0128974559
 20
-13.584140048
 10
-0.0135017398
 20
-13.5917233472
 10
-0.0143411918
 20
-13.5992731378
 10
-0.0154120356
 20
-13.6068086722
 10
-0.0167114724
 20
-13.6143452414
 10
-0.0182406124
 20
-13.6218822915
 10
-0.0200015431
 20
-13.6294153069
 10
-0.0219963521
 20
-13.6369397722
 10
-0.0242271268
 20
-13.6444511721
 10
-0.0266956173
 20
-13.6519438269
 10
-0.0294022226
 20
-13.6594073999
 10
-0.0323470042
 20
-13.6668303902
 10
-0.0355300235
 20
-13.6742012968
 10
-0.0389513421
 20
-13.6815086188
 10
-0.0419830837
 20
-13.687539333
 10
-0.0451717755
 20
-13.6935001367
 10
-0.0485088395
 20
-13.6993732623
 10
-0.0519883983
 20
-13.7051453257
 10
-0.0556153787
 20
-13.7108204772
 10
-0.059397408
 20
-13.7164072508
 10
-0.0641483322
 20
-13.7230015724
 10
-0.0691292001
 20
-13.7294646843
 10
-0.0743357014
 20
-13.7357803524
 10
-0.0797635257
 20
-13.7419323422
 10
-0.0854083629
 20
-13.7479044198
 10
-0.0912647302
 20
-13.7536822986
 10
-0.0973224564
 20
-13.7592594848
 10
-0.1035701975
 20
-13.764631432
 10
-0.1099966099
 20
-13.7697935941
 10
-0.11659035
 20
-13.774741425
 10
-0.1222074476
 20
-13.7786990843
 10
-0.1279423736
 20
-13.7825109466
 10
-0.1338046345
 20
-13.786183213
 10
-0.1397981103
 20
-13.7897187318
 10
-0.145904177
 20
-13.7931069397
 10
-0.1520985843
 20
-13.7963339204
 10
-0.159618645
 20
-13.7999777459
 10
-0.167214931
 20
-13.8033684919
 10
-0.1748713776
 20
-13.8065052851
 10
-0.18257192
 20
-13.8093872522
 10
-0.1903004934
 20
-13.8120135202
 10
-0.1980433176
 20
-13.8143839232
 10
-0.2057957513
 20
-13.8165011254
 10
-0.2135554379
 20
-13.8183684984
 10
-0.2213200207
 20
-13.8199894139
 10
-0.2290871431
 20
-13.8213672435
 10
-0.2368582197
 20
-13.8225040124
 10
-0.2446497498
 20
-13.82339636
 10
-0.2524820043
 20
-13.824039579
 10
-0.2603752536
 20
-13.8244289623
 10
-0.2683497686
 20
-13.8245598028
  0
LWPOLYLINE
  5
2DF
100
AcDbEntity
  8
0
100
AcDbPolyline
 62
253
  6
CONTINUOUS
 90
55
 70
0
 10
1.119625758
 20
11.366142167
 10
1.1197498086
 20
11.3738875751
 10
1.1201193841
 20
11.3815599666
 10
1.1207306205
 20
11.3891787943
 10
1.1215796536
 20
11.3967635109
 10
1.1226626194
 20
11.404333569
 10
1.123976661
 20
11.4119044422
 10
1.1255229505
 20
11.4194756875
 10
1.1273036675
 20
11.427042883
 10
1.1293209912
 20
11.4346016065
 10
1.1315771012
 20
11.442147436
 10
1.1340738188
 20
11.4496747142
 10
1.1368115324
 20
11.4571728431
 10
1.1397902724
 20
11.4646299895
 10
1.1430100692
 20
11.4720343202
 10
1.1464709531
 20
11.479374002
 10
1.1495376772
 20
11.4854305434
 10
1.1527626721
 20
11.4914154939
 10
1.1561367659
 20
11.4973103752
 10
1.1596537138
 20
11.5031013675
 10
1.1633189795
 20
11.5087932861
 10
1.1671409539
 20
11.514395605
 10
1.1711261268
 20
11.5199145658
 10
1.1752733847
 20
11.5253434813
 10
1.1795797131
 20
11.5306724319
 10
1.1840420977
 20
11.5358914979
 10
1.188657524
 20
11.54099076
 10
1.1934229776
 20
11.5459602984
 10
1.1983346528
 20
11.5507913647
 10
1.2033855785
 20
11.5554798948
 10
1.2085679926
 20
11.5600229957
 10
1.2138741328
 20
11.5644177744
 10
1.2192962369
 20
11.5686613379
 10
1.2248265426
 20
11.5727507931
 10
1.2304603151
 20
11.5766849461
 10
1.2362049285
 20
11.5804693993
 10
1.2420707844
 20
11.5841114538
 10
1.2480625202
 20
11.5876149429
 10
1.2541617154
 20
11.5909698263
 10
1.2603441854
 20
11.5941625956
 10
1.2678433229
 20
11.5977647287
 10
1.2754115751
 20
11.6011135465
 10
1.2830329669
 20
11.6042086298
 10
1.290691523
 20
11.6070495597
 10
1.2983712684
 20
11.6096359174
 10
1.3060585088
 20
11.6119679817
 10
1.3137486738
 20
11.6140488231
 10
1.3214394739
 20
11.6158822099
 10
1.3291286194
 20
11.6174719103
 10
1.3368138209
 20
11.6188216927
 10
1.3444965128
 20
11.6199340262
 10
1.3521930253
 20
11.6208061835
 10
1.3599234128
 20
11.6214341382
 10
1.3677077293
 20
11.6218138637
 10
1.3755660292
 20
11.6219413336
  0
LWPOLYLINE
  5
2E0
100
AcDbEntity
  8
0
100
AcDbPolyline
 62
253
  6
CONTINUOUS
 90
52
 70
0
 10
0.2892507727
 20
-11.6458042478
 10
0.2889741871
 20
-11.6629631303
 10
0.2881433597
 20
-11.6800873523
 10
0.2867566845
 20
-11.6971870892
 10
0.2848125556
 20
-11.7142725165
 10
0.282309367
 20
-11.7313538096
 10
0.2792455128
 20
-11.7484411441
 10
0.2756193871
 20
-11.7655446953
 10
0.271429384
 20
-11.7826746389
 10
0.2672298797
 20
-11.7979268752
 10
0.2625801649
 20
-11.8131865756
 10
0.2574768308
 20
-11.828432311
 10
0.2519164685
 20
-11.8436426527
 10
0.2458956692
 20
-11.8587961715
 10
0.2394110241
 20
-11.8738714386
 10
0.2324591244
 20
-11.888847025
 10
0.2250365613
 20
-11.9037015017
 10
0.217139926
 20
-11.9184134398
 10
0.2087681457
 20
-11.9329602702
 10
0.1999294919
 20
-11.9473148631
 10
0.1906345723
 20
-11.9614489489
 10
0.1808939945
 20
-11.9753342577
 10
0.1707183662
 20
-11.9889425197
 10
0.1601182949
 20
-12.0022454651
 10
0.1491043882
 20
-12.015214824
 10
0.1376872539
 20
-12.0278223267
 10
0.1258774994
 20
-12.0400397034
 10
0.1136876165
 20
-12.0518428203
 10
0.101137633
 20
-12.0632240883
 10
0.088249461
 20
-12.0741800543
 10
0.0750450122
 20
-12.0847072653
 10
0.0615461986
 20
-12.0948022683
 10
0.0477749322
 20
-12.10446161
 10
0.0337531248
 20
-12.1136818376
 10
0.0195026885
 20
-12.1224594979
 10
0.005045535
 20
-12.1307911378
 10
-0.011439987
 20
-12.1396274199
 10
-0.0281366989
 20
-12.1478936423
 10
-0.0450218964
 20
-12.1555886102
 10
-0.0620728755
 20
-12.1627111284
 10
-0.0792626975
 20
-12.1692594396
 10
-0.0965474867
 20
-12.1752295352
 10
-0.1138791326
 20
-12.1806168442
 10
-0.1312095252
 20
-12.1854167955
 10
-0.1484979392
 20
-12.1896274483
 10
-0.1657331894
 20
-12.1932573832
 10
-0.1829114757
 20
-12.196317811
 10
-0.200028998
 20
-12.1988199427
 10
-0.2170903049
 20
-12.200772321
 10
-0.2341333404
 20
-12.2021728165
 10
-0.2512043974
 20
-12.203016632
 10
-0.2683497686
 20
-12.2032989699
  0
LINE
  5
2E1
100
AcDbEntity
  8
0
100
AcDbLine
 62
253
  6
CONTINUOUS
 10
-10.676512499
 20
-22.1743627761
 11
-10.7686909565
 21
-22.3588461917
  0
LINE
  5
2E2
100
AcDbEntity
  8
0
100
AcDbLine
 62
7
  6
CONTINUOUS
 10
-8.5136751627
 20
0.0849341379
 11
-8.8636298168
 21
0.0500266667
  0
LINE
  5
2E3
100
AcDbEntity
  8
0
100
AcDbLine
 62
253
  6
CONTINUOUS
 10
-11.1471633718
 20
0.5972158509
 11
-11.1435290424
 21
0.5972908321
  0
LINE
  5
2E4
100
AcDbEntity
  8
0
100
AcDbLine
 62
253
  6
CONTINUOUS
 10
-11.1435290424
 20
0.5972908321
 11
-11.1222635539
 21
0.5974379653
  0
LINE
  5
2E5
100
AcDbEntity
  8
0
100
AcDbLine
 62
253
  6
CONTINUOUS
 10
-11.1222635539
 20
0.5974379653
 11
-3.7406062401
 21
0.6015819222
  0
LINE
  5
2E6
100
AcDbEntity
  8
0
100
AcDbLine
 62
253
  6
CONTINUOUS
 10
-3.7406062401
 20
0.6015819222
 11
3.2132527704
 21
0.601581923
  0
LINE
  5
2E7
100
AcDbEntity
  8
0
100
AcDbLine
 62
253
  6
CONTINUOUS
 10
3.2132527704
 20
0.601581923
 11
10.3484538338
 21
0.5978930634
  0
LINE
  5
2E8
100
AcDbEntity
  8
0
100
AcDbLine
 62
253
  6
CONTINUOUS
 10
10.3484538338
 20
0.5978930634
 11
10.5949132263
 21
0.597437961
  0
LWPOLYLINE
  5
2E9
100
AcDbEntity
  8
0
100
AcDbPolyline
 62
253
  6
CONTINUOUS
 90
3
 70
0
 10
10.5949132263
 20
0.597437961
 10
10.6161787146
 20
0.5972908313
 10
10.6198130439
 20
0.5972158517
  0
LINE
  5
2EA
100
AcDbEntity
  8
0
100
AcDbLine
 62
7
  6
CONTINUOUS
 10
7.9863248373
 20
0.0849341379
 11
8.3362794914
 21
0.0500266667
  0
LINE
  5
2EB
100
AcDbEntity
  8
0
100
AcDbLine
 62
253
  6
CONTINUOUS
 10
-10.7686909565
 20
22.0588995252
 11
-10.6765124984
 21
21.8744161084
  0
LWPOLYLINE
  5
2EC
100
AcDbEntity
  8
0
100
AcDbPolyline
 62
253
  6
CONTINUOUS
 90
55
 70
0
 10
2.7024690509
 20
11.366142167
 10
2.7023440277
 20
11.3583705502
 10
2.7019716209
 20
11.3506728297
 10
2.7013558252
 20
11.3430296707
 10
2.700500635
 20
11.3354217388
 10
2.6994100449
 20
11.3278296993
 10
2.698087025
 20
11.3202381491
 10
2.6965304483
 20
11.3126474111
 10
2.6947381634
 20
11.3050617396
 10
2.6927080189
 20
11.2974853888
 10
2.6904378633
 20
11.2899226131
 10
2.6879259218
 20
11.2823789548
 10
2.6851719249
 20
11.2748651084
 10
2.68217598
 20
11.2673930562
 10
2.678938194
 20
11.2599747807
 10
2.6754586741
 20
11.2526222644
 10
2.6723760664
 20
11.2465560131
 10
2.6691351607
 20
11.2405624925
 10
2.6657454552
 20
11.2346604462
 10
2.6622134943
 20
11.2288639118
 10
2.6585340069
 20
11.2231681035
 10
2.6546987677
 20
11.2175635297
 10
2.6507014359
 20
11.2120438871
 10
2.646543208
 20
11.2066156261
 10
2.6422271647
 20
11.2012883853
 10
2.637756387
 20
11.1960718033
 10
2.6331339555
 20
11.1909755189
 10
2.6283629512
 20
11.1860091705
 10
2.6234472498
 20
11.1811812725
 10
2.6183939074
 20
11.1764958414
 10
2.6132107748
 20
11.171955769
 10
2.6079057031
 20
11.1675639476
 10
2.6024865432
 20
11.163323269
 10
2.5969611461
 20
11.1592366253
 10
2.5913343293
 20
11.1553052146
 10
2.5855987767
 20
11.1515234597
 10
2.5797441387
 20
11.1478840893
 10
2.5737657656
 20
11.1443832684
 10
2.5676818069
 20
11.1410309066
 10
2.5615161124
 20
11.13784035
 10
2.5540387186
 20
11.1342402918
 10
2.5464936858
 20
11.1308929301
 10
2.5388967312
 20
11.1277987438
 10
2.5312635721
 20
11.124958212
 10
2.5236099257
 20
11.1223718138
 10
2.5159492697
 20
11.1200393383
 10
2.5082861229
 20
11.1179578152
 10
2.5006227644
 20
11.116123584
 10
2.4929614733
 20
11.1145329846
 10
2.4853045288
 20
11.1131823566
 10
2.4776505332
 20
11.1120693205
 10
2.4699833814
 20
11.1111966201
 10
2.4622832913
 20
11.1105682799
 10
2.4545304811
 20
11.1101883244
 10
2.4467051686
 20
11.1100607782
  0
LWPOLYLINE
  5
2ED
100
AcDbEntity
  8
0
100
AcDbPolyline
 62
253
  6
CONTINUOUS
 90
53
 70
0
 10
-2.1553933316
 20
-10.5565675814
 10
-2.1514396292
 20
-10.5499358656
 10
-2.1473083089
 20
-10.5434891727
 10
-2.1429931963
 20
-10.5372088963
 10
-2.1384881174
 20
-10.5310764304
 10
-2.1337868976
 20
-10.5250731687
 10
-2.1288844689
 20
-10.5191844158
 10
-2.1237801864
 20
-10.5134111187
 10
-2.1184745116
 20
-10.5077581352
 10
-2.1129679056
 20
-10.5022303233
 10
-2.1072608297
 20
-10.4968325407
 10
-2.1013546354
 20
-10.4915705004
 10
-2.0952542347
 20
-10.4864533361
 10
-2.0889654295
 20
-10.4814910366
 10
-2.082494022
 20
-10.4766935906
 10
-2.0758458143
 20
-10.4720709871
 10
-2.0701770194
 20
-10.4683604909
 10
-2.0644063215
 20
-10.4647895716
 10
-2.0585505663
 20
-10.4613694507
 10
-2.0526218065
 20
-10.4581088133
 10
-2.0466129223
 20
-10.4550061976
 10
-2.0405120006
 20
-10.452057605
 10
-2.0330582534
 20
-10.4487201806
 10
-2.0254679621
 20
-10.445611121
 10
-2.0177542707
 20
-10.4427427559
 10
-2.0099303236
 20
-10.4401274149
 10
-2.002009265
 20
-10.4377774278
 10
-1.9940043507
 20
-10.4357027244
 10
-1.9859292828
 20
-10.4339036362
 10
-1.9777978749
 20
-10.432378095
 10
-1.9696239406
 20
-10.4311240324
 10
-1.9614212935
 20
-10.4301393802
 10
-1.9545703537
 20
-10.4295231633
 10
-1.9476964634
 20
-10.4290915179
 10
-1.9407870185
 20
-10.4288433616
 10
-1.9338361552
 20
-10.4287777569
 10
-1.9268649702
 20
-10.4288943473
 10
-1.9199013002
 20
-10.4291929213
 10
-1.9115883479
 20
-10.4297899337
 10
-1.9033404311
 20
-10.4306411494
 10
-1.8951716785
 20
-10.4317390197
 10
-1.8870962193
 20
-10.4330759956
 10
-1.8791281823
 20
-10.4346445284
 10
-1.871279341
 20
-10.4364376017
 10
-1.8635520463
 20
-10.4384503285
 10
-1.8559462935
 20
-10.4406783543
 10
-1.8484620783
 20
-10.4431173245
 10
-1.8410993958
 20
-10.4457628846
 10
-1.8338556956
 20
-10.448613626
 10
-1.8267182429
 20
-10.4516799234
 10
-1.819671757
 20
-10.4549750976
 10
-1.8127009572
 20
-10.4585124693
 10
-1.8057905627
 20
-10.4623053592
  0
LINE
  5
2EE
100
AcDbEntity
  8
0
100
AcDbLine
 62
253
  6
CONTINUOUS
 10
10.2616378208
 20
-0.3499733333
 11
10.1199843839
 21
-0.3971815559
  0
LINE
  5
2EF
100
AcDbEntity
  8
0
100
AcDbLine
 62
253
  6
CONTINUOUS
 10
10.7616949608
 20
-0.8498781511
 11
10.6198130464
 21
-0.8971625175
  0
LINE
  5
2F0
100
AcDbEntity
  8
0
100
AcDbLine
 62
253
  6
CONTINUOUS
 10
10.1199843826
 20
0.0972348898
 11
10.2616378208
 21
0.0500266667
  0
LINE
  5
2F1
100
AcDbEntity
  8
0
100
AcDbLine
 62
253
  6
CONTINUOUS
 10
10.6198130438
 20
0.5972158518
 11
10.7616949608
 21
0.5499314845
  0
LWPOLYLINE
  5
2F2
100
AcDbEntity
  8
0
100
AcDbPolyline
 62
253
  6
CONTINUOUS
 90
10
 70
0
 10
10.6489908355
 20
-21.6750480075
 10
10.6476970703
 20
-21.6706954983
 10
10.6464251092
 20
-21.6630017285
 10
10.6451749521
 20
-21.651966698
 10
10.6439400495
 20
-21.6375014952
 10
10.642726951
 20
-21.6196950317
 10
10.6415553053
 20
-21.5988140427
 10
10.6404262992
 20
-21.5748137813
 10
10.639338746
 20
-21.5477389944
 10
10.6383087344
 20
-21.5179906571
  0
LWPOLYLINE
  5
2F3
100
AcDbEntity
  8
0
100
AcDbPolyline
 62
253
  6
CONTINUOUS
 90
42
 70
0
 10
-1.2552808546
 20
-11.0759270257
 10
-1.2580752635
 20
-11.0805789685
 10
-1.260976093
 20
-11.0851378141
 10
-1.2639841699
 20
-11.089610572
 10
-1.2671003211
 20
-11.0940042516
 10
-1.2703253733
 20
-11.0983258626
 10
-1.2736601533
 20
-11.1025824145
 10
-1.2778076044
 20
-11.1076121472
 10
-1.2821139446
 20
-11.1125576761
 10
-1.286578864
 20
-11.1174183887
 10
-1.291202053
 20
-11.1221936726
 10
-1.2959832019
 20
-11.1268829154
 10
-1.3009204129
 20
-11.1314842384
 10
-1.3060054356
 20
-11.1359906979
 10
-1.3112284313
 20
-11.140394084
 10
-1.3165795617
 20
-11.1446861867
 10
-1.3220489881
 20
-11.148858796
 10
-1.327627519
 20
-11.1529045748
 10
-1.3333085515
 20
-11.1568196771
 10
-1.3390861297
 20
-11.1606011294
 10
-1.3449542977
 20
-11.1642459587
 10
-1.3509070996
 20
-11.1677511917
 10
-1.3569385758
 20
-11.1711137572
 10
-1.3630427513
 20
-11.1743301926
 10
-1.3692136476
 20
-11.1773969378
 10
-1.3754452859
 20
-11.1803104322
 10
-1.3817316877
 20
-11.1830671155
 10
-1.3880657901
 20
-11.1856633596
 10
-1.3944361938
 20
-11.188095266
 10
-1.4008304151
 20
-11.1903588682
 10
-1.4072359707
 20
-11.1924502001
 10
-1.4136403769
 20
-11.1943652953
 10
-1.4200331867
 20
-11.1961009691
 10
-1.426412099
 20
-11.197657163
 10
-1.432776849
 20
-11.1990346003
 10
-1.4391271721
 20
-11.200234004
 10
-1.4454628036
 20
-11.2012560973
 10
-1.4517853306
 20
-11.2021008063
 10
-1.4581037472
 20
-11.2027648687
 10
-1.4644288993
 20
-11.2032442249
 10
-1.4707716327
 20
-11.2035348155
 10
-1.4771427934
 20
-11.2036325812
  0
LWPOLYLINE
  5
2F4
100
AcDbEntity
  8
0
100
AcDbPolyline
 62
253
  6
CONTINUOUS
 90
53
 70
0
 10
-1.2813091808
 20
10.3714852228
 10
-1.2759205889
 20
10.3659288392
 10
-1.2707571314
 20
10.3602501295
 10
-1.265802319
 20
10.3544380969
 10
-1.2610396622
 20
10.3484817446
 10
-1.2564526718
 20
10.3423700757
 10
-1.2520283841
 20
10.3360941949
 10
-1.2477679393
 20
10.329653613
 10
-1.2436760035
 20
10.3230499421
 10
-1.2397572426
 20
10.3162847946
 10
-1.2360163226
 20
10.3093597825
 10
-1.2324585247
 20
10.3022776351
 10
-1.2290915905
 20
10.2950455491
 10
-1.2259238767
 20
10.2876718381
 10
-1.22296374
 20
10.2801648158
 10
-1.2202195371
 20
10.2725327957
 10
-1.2181039691
 20
10.2660857371
 10
-1.2161507307
 20
10.2595771271
 10
-1.214366394
 20
10.2530264449
 10
-1.2127563095
 20
10.2464478178
 10
-1.2113209405
 20
10.2398339664
 10
-1.2100595283
 20
10.2331722592
 10
-1.2087760193
 20
10.2251035345
 10
-1.2077503884
 20
10.2169635533
 10
-1.2069911084
 20
10.2087681603
 10
-1.2065066517
 20
10.2005332004
 10
-1.2063054911
 20
10.1922745186
 10
-1.2063937039
 20
10.1840074837
 10
-1.2067677865
 20
10.1757455603
 10
-1.20742184
 20
10.1675017372
 10
-1.2083499655
 20
10.1592890029
 10
-1.2095462641
 20
10.1511203461
 10
-1.2107447146
 20
10.1443528336
 10
-1.212127503
 20
10.1376124303
 10
-1.2136968325
 20
10.1308866162
 10
-1.2154532826
 20
10.1241694101
 10
-1.2173909375
 20
10.1174809863
 10
-1.2195022579
 20
10.1108480581
 10
-1.2222548019
 20
10.1029936539
 10
-1.2252355582
 20
10.0952692502
 10
-1.2284335174
 20
10.0876864667
 10
-1.2318376702
 20
10.0802569233
 10
-1.2354370073
 20
10.0729922398
 10
-1.2392216414
 20
10.0659019221
 10
-1.2431861739
 20
10.0589870203
 10
-1.2473263282
 20
10.052246471
 10
-1.2516378277
 20
10.0456792103
 10
-1.256116396
 20
10.0392841748
 10
-1.2607613052
 20
10.033058588
 10
-1.2655860225
 20
10.0269928227
 10
-1.2706075636
 20
10.0210755389
 10
-1.2758429444
 20
10.0152953967
 10
-1.2813091808
 20
10.0096410562
  0
LWPOLYLINE
  5
2F5
100
AcDbEntity
  8
0
100
AcDbPolyline
 62
253
  6
CONTINUOUS
 90
53
 70
0
 10
-2.4004613745
 20
9.252474112
 10
-2.4058521857
 20
9.2580578775
 10
-2.4110173168
 20
9.2637632
 10
-2.4159731975
 20
9.2696010636
 10
-2.4207362577
 20
9.275582452
 10
-2.4253229272
 20
9.2817183494
 10
-2.4297461296
 20
9.2880176586
 10
-2.4340047643
 20
9.2944809584
 10
-2.4380942248
 20
9.3011067467
 10
-2.4420099041
 20
9.307893521
 10
-2.4457471956
 20
9.3148397793
 10
-2.4493008575
 20
9.3219428605
 10
-2.4526631078
 20
9.3291954691
 10
-2.4558255294
 20
9.3365891506
 10
-2.4587797051
 20
9.3441154508
 10
-2.461517218
 20
9.3517659153
 10
-2.4636266177
 20
9.3582275697
 10
-2.4655731485
 20
9.3647497998
 10
-2.467350247
 20
9.3713128273
 10
-2.4689525831
 20
9.3779022653
 10
-2.4703797598
 20
9.3845252932
 10
-2.4716326135
 20
9.3911944821
 10
-2.4729054986
 20
9.3992699178
 10
-2.4739203454
 20
9.4074143096
 10
-2.4746689368
 20
9.4156120396
 10
-2.4751430555
 20
9.4238474898
 10
-2.4753344842
 20
9.4321050422
 10
-2.4752373772
 20
9.4403695021
 10
-2.474855375
 20
9.4486273677
 10
-2.4741944893
 20
9.4568655604
 10
-2.4732607322
 20
9.4650710017
 10
-2.4720601153
 20
9.4732306129
 10
-2.4708591484
 20
9.4799891841
 10
-2.4694748817
 20
9.4867193171
 10
-2.4679051596
 20
9.4934334822
 10
-2.4661494335
 20
9.5001376705
 10
-2.4642135816
 20
9.5068119536
 10
-2.462105089
 20
9.5134299238
 10
-2.4593572082
 20
9.5212656627
 10
-2.4563823802
 20
9.5289707903
 10
-2.453191482
 20
9.536533813
 10
-2.4497953905
 20
9.5439432375
 10
-2.4462049826
 20
9.5511875701
 10
-2.4424300311
 20
9.5582574
 10
-2.4384758923
 20
9.5651516462
 10
-2.4343468182
 20
9.57187131
 10
-2.4300470608
 20
9.5784173931
 10
-2.4255808722
 20
9.584790897
 10
-2.4209489773
 20
9.590994531
 10
-2.4161379916
 20
9.5970378367
 10
-2.4111310036
 20
9.6029320636
 10
-2.4059111018
 20
9.608688461
 10
-2.4004613745
 20
9.6143182785
  0
LWPOLYLINE
  5
2F6
100
AcDbEntity
  8
0
100
AcDbPolyline
 62
253
  6
CONTINUOUS
 90
42
 70
0
 10
1.6191171277
 20
-12.7353584142
 10
1.6163182492
 20
-12.7400590888
 10
1.6134094891
 20
-12.7446624932
 10
1.6103903595
 20
-12.7491757381
 10
1.6072603725
 20
-12.7536059344
 10
1.6040190404
 20
-12.7579601928
 10
1.6006658753
 20
-12.7622456241
 10
1.596493981
 20
-12.7673052066
 10
1.5921607634
 20
-12.7722756329
 10
1.5876666413
 20
-12.777156618
 10
1.5830120334
 20
-12.7819478771
 10
1.5781973584
 20
-12.7866491253
 10
1.5732246871
 20
-12.791258753
 10
1.5681026987
 20
-12.7957698527
 10
1.5628417246
 20
-12.8001741918
 10
1.5574520958
 20
-12.8044635382
 10
1.5519441438
 20
-12.8086296594
 10
1.5463276333
 20
-12.8126651982
 10
1.5406100634
 20
-12.816566298
 10
1.5347983669
 20
-12.8203299772
 10
1.5288994764
 20
-12.8239532541
 10
1.5229203246
 20
-12.8274331472
 10
1.516867618
 20
-12.8307667055
 10
1.5107471579
 20
-12.8339511005
 10
1.5045645196
 20
-12.8369835345
 10
1.4983252783
 20
-12.8398612094
 10
1.492035009
 20
-12.8425813274
 10
1.4857004308
 20
-12.8451409537
 10
1.4793328378
 20
-12.8475366053
 10
1.4729446679
 20
-12.8497646622
 10
1.466548359
 20
-12.8518215045
 10
1.460156349
 20
-12.8537035123
 10
1.4537790804
 20
-12.8554078327
 10
1.4474190143
 20
-12.8569346807
 10
1.4410766162
 20
-12.8582850388
 10
1.4347523516
 20
-12.859459889
 10
1.4284466863
 20
-12.8604602137
 10
1.4221581604
 20
-12.8612862224
 10
1.4158776124
 20
-12.8619350339
 10
1.4095939554
 20
-12.8624029944
 10
1.4032961025
 20
-12.8626864502
 10
1.3969729667
 20
-12.8627817475
  0
LWPOLYLINE
  5
2F7
100
AcDbEntity
  8
0
100
AcDbPolyline
 62
253
  6
CONTINUOUS
 90
53
 70
0
 10
0.7188282617
 20
-12.2156814699
 10
0.7228070791
 20
-12.2090582518
 10
0.7269617013
 20
-12.2026202293
 10
0.7312984366
 20
-12.196348823
 10
0.7358235933
 20
-12.1902254534
 10
0.7405434799
 20
-12.184231541
 10
0.7454632892
 20
-12.1783524131
 10
0.7505837517
 20
-12.1725890237
 10
0.7559044825
 20
-12.1669462333
 10
0.7614250967
 20
-12.1614289024
 10
0.7671452094
 20
-12.1560418918
 10
0.7730635252
 20
-12.1507909326
 10
0.7791751074
 20
-12.145685239
 10
0.7854741088
 20
-12.1407348958
 10
0.7919546822
 20
-12.1359499878
 10
0.7986109806
 20
-12.1313405998
 10
0.8042856461
 20
-12.1276416998
 10
0.8100613041
 20
-12.1240829474
 10
0.8159209762
 20
-12.1206755978
 10
0.8218524939
 20
-12.1174283687
 10
0.8278629264
 20
-12.1143398275
 10
0.8339641528
 20
-12.1114060042
 10
0.8414166054
 20
-12.1080872216
 10
0.8490038789
 20
-12.1049976623
 10
0.8567129453
 20
-12.1021494728
 10
0.8645307767
 20
-12.0995547999
 10
0.8724443451
 20
-12.0972257901
 10
0.8804404777
 20
-12.0951721926
 10
0.8885054216
 20
-12.0933941668
 10
0.8966252789
 20
-12.0918894746
 10
0.9047861516
 20
-12.090655878
 10
0.9129741419
 20
-12.0896911388
 10
0.9198115868
 20
-12.0890909859
 10
0.9266707581
 20
-12.0886748924
 10
0.9335642017
 20
-12.0884417655
 10
0.9404977776
 20
-12.0883906429
 10
0.9474506022
 20
-12.088521085
 10
0.9543951056
 20
-12.0888327828
 10
0.9626843166
 20
-12.0894444786
 10
0.9709078591
 20
-12.0903092197
 10
0.9790517473
 20
-12.0914194881
 10
0.9871019957
 20
-12.0927677659
 10
0.9950446184
 20
-12.0943465352
 10
1.0028679502
 20
-12.0961488072
 10
1.010569607
 20
-12.0981697093
 10
1.0181495252
 20
-12.1004048982
 10
1.025607641
 20
-12.1028500307
 10
1.0329438908
 20
-12.1055007634
 10
1.0401607597
 20
-12.1083556955
 10
1.0472709285
 20
-12.1114251973
 10
1.0542896268
 20
-12.1147225814
 10
1.0612320843
 20
-12.1182611606
 10
1.0681135306
 20
-12.1220542477
  0
LWPOLYLINE
  5
2F8
100
AcDbEntity
  8
0
100
AcDbPolyline
 62
253
  6
CONTINUOUS
 90
54
 70
0
 10
-0.2867946152
 20
8.37716189
 10
-0.2800917302
 20
8.3772545767
 10
-0.2734580241
 20
8.3775302738
 10
-0.2668822745
 20
8.3779854372
 10
-0.2603532592
 20
8.3786165226
 10
-0.2538597557
 20
8.3794199857
 10
-0.2473905418
 20
8.3803922825
 10
-0.2396480908
 20
8.3817777796
 10
-0.2319311317
 20
8.3834003947
 10
-0.2242463393
 20
8.3852592291
 10
-0.2166003887
 20
8.3873533842
 10
-0.2089999547
 20
8.3896819613
 10
-0.2014519157
 20
8.3922440321
 10
-0.1939639641
 20
8.3950385495
 10
-0.1865439955
 20
8.3980644369
 10
-0.1791999056
 20
8.4013206173
 10
-0.1719395901
 20
8.4048060142
 10
-0.1659604757
 20
8.4078838487
 10
-0.1600583366
 20
8.4111135987
 10
-0.1542464888
 20
8.4144887498
 10
-0.148534904
 20
8.4180050007
 10
-0.1429201789
 20
8.4216669053
 10
-0.1373955663
 20
8.4254812308
 10
-0.1308799836
 20
8.4302663642
 10
-0.124499811
 20
8.4352757339
 10
-0.1182704127
 20
8.4405043452
 10
-0.1122071528
 20
8.4459472033
 10
-0.1063253955
 20
8.4515993132
 10
-0.1006384554
 20
8.4574548553
 10
-0.0951514488
 20
8.4635047109
 10
-0.0898674429
 20
8.4697389361
 10
-0.0847895045
 20
8.4761475874
 10
-0.0799207006
 20
8.4827207211
 10
-0.0760241809
 20
8.4883192447
 10
-0.07226989
 20
8.4940339714
 10
-0.0686526946
 20
8.4998737857
 10
-0.065170642
 20
8.5058419845
 10
-0.061834502
 20
8.5119195145
 10
-0.0586582247
 20
8.5180817348
 10
-0.0550734634
 20
8.5255578358
 10
-0.0517397613
 20
8.5331038661
 10
-0.0486578867
 20
8.5407032837
 10
-0.0458286078
 20
8.5483395465
 10
-0.043252693
 20
8.5559961127
 10
-0.0409301397
 20
8.5636589196
 10
-0.0388578617
 20
8.5713238228
 10
-0.037032002
 20
8.5789891571
 10
-0.0354487034
 20
8.5866532577
 10
-0.0341041091
 20
8.5943144594
 10
-0.0329957021
 20
8.601974636
 10
-0.0321263255
 20
8.6096498164
 10
-0.0315001628
 20
8.6173595682
 10
-0.0311213974
 20
8.625123459
 10
-0.0309942127
 20
8.6329610566
  0
LINE
  5
2F9
100
AcDbEntity
  8
0
100
AcDbLine
 62
253
  6
CONTINUOUS
 10
1.4652068603
 20
9.252474112
 11
0.7078635462
 21
10.0096410562
  0
LINE
  5
2FA
100
AcDbEntity
  8
0
100
AcDbLine
 62
253
  6
CONTINUOUS
 10
-2.0387936059
 20
13.479810222
 11
-1.2813091808
 21
12.7223610555
  0
LINE
  5
2FB
100
AcDbEntity
  8
0
100
AcDbLine
 62
253
  6
CONTINUOUS
 10
1.0697077037
 20
10.3714852228
 11
1.8271921288
 21
9.6137185563
  0
LINE
  5
2FC
100
AcDbEntity
  8
0
100
AcDbLine
 62
253
  6
CONTINUOUS
 10
-1.6428358382
 20
12.3604816112
 11
-2.4004613745
 21
13.1186010554
  0
LWPOLYLINE
  5
2FD
100
AcDbEntity
  8
0
100
AcDbPolyline
 62
253
  6
CONTINUOUS
 90
53
 70
0
 10
-2.4004613745
 20
13.1186010554
 10
-2.4058426929
 20
13.12412386
 10
-2.4109986161
 20
13.1297704084
 10
-2.4159456445
 20
13.1355515137
 10
-2.4207002784
 20
13.1414779892
 10
-2.4252790183
 20
13.1475606478
 10
-2.4296948468
 20
13.1538082161
 10
-2.4339466767
 20
13.1602210736
 10
-2.438029903
 20
13.1667975132
 10
-2.4419399208
 20
13.1735358279
 10
-2.4456721252
 20
13.1804343106
 10
-2.449221311
 20
13.1874901665
 10
-2.4525798715
 20
13.1946962499
 10
-2.4557395996
 20
13.2020443275
 10
-2.4586922883
 20
13.209526166
 10
-2.4614297305
 20
13.2171335321
 10
-2.4635402951
 20
13.2235605339
 10
-2.4654891825
 20
13.2300497111
 10
-2.4672698915
 20
13.2365817848
 10
-2.4688771285
 20
13.2431427889
 10
-2.4703104301
 20
13.249740009
 10
-2.4715705402
 20
13.2563860436
 10
-2.4728534761
 20
13.2644371727
 10
-2.4738795871
 20
13.2725607888
 10
-2.4746403727
 20
13.2807409444
 10
-2.4751273321
 20
13.2889616916
 10
-2.4753319649
 20
13.297207083
 10
-2.4752481447
 20
13.305461682
 10
-2.4748792431
 20
13.3137120976
 10
-2.4742310058
 20
13.3219454498
 10
-2.4733091787
 20
13.3301488589
 10
-2.4721195075
 20
13.3383094449
 10
-2.4709267258
 20
13.3450712557
 10
-2.4695496686
 20
13.3518068911
 10
-2.4679860731
 20
13.3585288582
 10
-2.4662353053
 20
13.3652431049
 10
-2.4643032474
 20
13.3719293422
 10
-2.4621974105
 20
13.3785607217
 10
-2.459451266
 20
13.3864139484
 10
-2.4564767097
 20
13.3941378402
 10
-2.4532847552
 20
13.4017207188
 10
-2.4498864166
 20
13.4091509061
 10
-2.4462927075
 20
13.4164167238
 10
-2.4425135115
 20
13.4235086265
 10
-2.4385541906
 20
13.4304256006
 10
-2.4344189766
 20
13.4371687651
 10
-2.4301121011
 20
13.443739239
 10
-2.425637796
 20
13.4501381415
 10
-2.4209967604
 20
13.4563682874
 10
-2.4161755637
 20
13.4624392746
 10
-2.4111572425
 20
13.468362397
 10
-2.4059248339
 20
13.4741489482
 10
-2.4004613745
 20
13.479810222
  0
LWPOLYLINE
  5
2FE
100
AcDbEntity
  8
0
100
AcDbPolyline
 62
253
  6
CONTINUOUS
 90
53
 70
0
 10
1.8271921288
 20
9.6137185563
 10
1.8325698724
 20
9.6081896263
 10
1.837722148
 20
9.6025371341
 10
1.8426654223
 20
9.596750278
 10
1.8474161621
 20
9.5908182561
 10
1.8519908341
 20
9.5847302666
 10
1.8564023966
 20
9.5784775932
 10
1.8606497745
 20
9.572059861
 10
1.8647283842
 20
9.5654787809
 10
1.8686336422
 20
9.5587360635
 10
1.872360965
 20
9.5518334196
 10
1.8759051702
 20
9.5447736491
 10
1.8792586816
 20
9.5375639095
 10
1.8824133239
 20
9.5302124474
 10
1.8853609222
 20
9.5227275095
 10
1.8880933013
 20
9.5151173426
 10
1.8901996929
 20
9.5086882439
 10
1.892144481
 20
9.502197191
 10
1.8939211973
 20
9.4956634675
 10
1.8955245773
 20
9.4891010528
 10
1.8969541723
 20
9.4825027085
 10
1.898210738
 20
9.475855892
 10
1.8994896621
 20
9.467804329
 10
1.9005120993
 20
9.4596807911
 10
1.9012696371
 20
9.4515011644
 10
1.9017538631
 20
9.4432813353
 10
1.9019563646
 20
9.4350371899
 10
1.9018710865
 20
9.4267841082
 10
1.9015014028
 20
9.4185354446
 10
1.9008530447
 20
9.4103040472
 10
1.8999317434
 20
9.4021027642
 10
1.8987432303
 20
9.3939444435
 10
1.8975518887
 20
9.3871846145
 10
1.8961767082
 20
9.3804510811
 10
1.8946154335
 20
9.3737313814
 10
1.8928674306
 20
9.3670195886
 10
1.8909385497
 20
9.3603359146
 10
1.8888362618
 20
9.3537071062
 10
1.8860948117
 20
9.3458568542
 10
1.883125362
 20
9.33813576
 10
1.8799388607
 20
9.3305554594
 10
1.8765462554
 20
9.3231275885
 10
1.8729584939
 20
9.3158637833
 10
1.8691853996
 20
9.3087735556
 10
1.8652322972
 20
9.3018579209
 10
1.8611033869
 20
9.2951157706
 10
1.8568028689
 20
9.2885459959
 10
1.8523349433
 20
9.2821474883
 10
1.8477002977
 20
9.2759174507
 10
1.8428855691
 20
9.2698463329
 10
1.8378738818
 20
9.2639228963
 10
1.8326483603
 20
9.2581359022
 10
1.8271921288
 20
9.252474112
  0
LWPOLYLINE
  5
2FF
100
AcDbEntity
  8
0
100
AcDbPolyline
 62
253
  6
CONTINUOUS
 90
53
 70
0
 10
-1.2813091808
 20
12.7223610555
 10
-1.275921266
 20
12.7168053763
 10
-1.270758409
 20
12.7111273474
 10
-1.2658041279
 20
12.7053159748
 10
-1.2610419413
 20
12.6993602644
 10
-1.2564553673
 20
12.6932492221
 10
-1.252031449
 20
12.6869739551
 10
-1.2477713276
 20
12.6805339757
 10
-1.243679669
 20
12.6739308974
 10
-1.2397611392
 20
12.6671663337
 10
-1.2360204039
 20
12.660241898
 10
-1.2324627435
 20
12.6531603191
 10
-1.2290958963
 20
12.6459287867
 10
-1.2259282148
 20
12.6385556057
 10
-1.2229680518
 20
12.6310490809
 10
-1.22022376
 20
12.6234175173
 10
-1.2181080672
 20
12.6169707996
 10
-1.2161546568
 20
12.6104624796
 10
-1.2143701001
 20
12.6039120201
 10
-1.2127597473
 20
12.5973335338
 10
-1.2113240647
 20
12.5907197324
 10
-1.2100622975
 20
12.584057977
 10
-1.208778314
 20
12.575989059
 10
-1.2077521672
 20
12.5678487457
 10
-1.2069923427
 20
12.5596528951
 10
-1.2065073262
 20
12.5514173651
 10
-1.2063056032
 20
12.5431580139
 10
-1.2063932635
 20
12.5348902204
 10
-1.2067668129
 20
12.5266274474
 10
-1.2074203616
 20
12.5183826786
 10
-1.2083480196
 20
12.510168898
 10
-1.2095438971
 20
12.5019990891
 10
-1.210742038
 20
12.4952305317
 10
-1.2121245589
 20
12.4884889999
 10
-1.2136936664
 20
12.4817619667
 10
-1.2154499427
 20
12.4750434485
 10
-1.2173874716
 20
12.4683536351
 10
-1.2194987125
 20
12.4617192595
 10
-1.2222512195
 20
12.4538630659
 10
-1.2252319966
 20
12.4461368264
 10
-1.2284300273
 20
12.4385521689
 10
-1.2318342949
 20
12.4311207213
 10
-1.235433783
 20
12.4238541117
 10
-1.2392185987
 20
12.4167618512
 10
-1.2431833431
 20
12.4098449846
 10
-1.247323741
 20
12.4031024399
 10
-1.2516355172
 20
12.3965331452
 10
-1.2561143963
 20
12.3901360284
 10
-1.260759651
 20
12.3839083059
 10
-1.2655847452
 20
12.3778403461
 10
-1.2706066904
 20
12.3719208059
 10
-1.2758424984
 20
12.366138342
 10
-1.2813091808
 20
12.3604816112
  0
LWPOLYLINE
  5
300
100
AcDbEntity
  8
0
100
AcDbPolyline
 62
253
  6
CONTINUOUS
 90
53
 70
0
 10
0.7078635462
 20
10.0096410562
 10
0.7024701354
 20
10.0152195527
 10
0.6973022514
 20
10.0209196191
 10
0.6923434126
 20
10.0267522981
 10
0.6875771376
 20
10.0327286321
 10
0.6829869448
 20
10.0388596638
 10
0.6785598754
 20
10.0451543413
 10
0.6742970599
 20
10.0516132354
 10
0.6702031515
 20
10.0582348223
 10
0.6662828031
 20
10.0650175785
 10
0.662540668
 20
10.0719599803
 10
0.6589820309
 20
10.079059353
 10
0.6556147043
 20
10.0863084175
 10
0.652447132
 20
10.0936987434
 10
0.6494877581
 20
10.1012219006
 10
0.6467450268
 20
10.1088694589
 10
0.6446312846
 20
10.1153288943
 10
0.6426804464
 20
10.121849128
 10
0.640899106
 20
10.1284104233
 10
0.639292623
 20
10.1349984352
 10
0.6378614187
 20
10.1416203859
 10
0.6366046801
 20
10.1482888899
 10
0.6353273636
 20
10.1563640572
 10
0.6343084207
 20
10.1645087316
 10
0.6335561647
 20
10.172707219
 10
0.6330789093
 20
10.1809438252
 10
0.632884968
 20
10.1892028563
 10
0.6329802642
 20
10.1974690526
 10
0.6333611604
 20
10.2057288925
 10
0.6340216293
 20
10.2139692891
 10
0.6349556432
 20
10.2221771552
 10
0.6361571746
 20
10.2303394038
 10
0.6373593974
 20
10.2371003361
 10
0.6387453707
 20
10.243833008
 10
0.640317255
 20
10.2505499262
 10
0.6420755964
 20
10.2572570957
 10
0.6440144837
 20
10.2639345153
 10
0.6461263919
 20
10.270555682
 10
0.6488788177
 20
10.2783952237
 10
0.6518586179
 20
10.2861040695
 10
0.6550548534
 20
10.2936706916
 10
0.658456585
 20
10.3010835624
 10
0.6620528737
 20
10.3083311543
 10
0.6658338911
 20
10.3154040301
 10
0.6697942528
 20
10.3223011153
 10
0.6739296852
 20
10.3290234263
 10
0.6782359147
 20
10.3355719791
 10
0.6827086676
 20
10.3419477898
 10
0.6873472131
 20
10.3481535863
 10
0.6921649911
 20
10.3541989423
 10
0.6971789842
 20
10.3600951435
 10
0.702406175
 20
10.3658534751
 10
0.7078635462
 20
10.3714852228
  0
LWPOLYLINE
  5
301
100
AcDbEntity
  8
0
100
AcDbPolyline
 62
253
  6
CONTINUOUS
 90
8
 70
0
 10
10.1486037268
 20
-0.527473761
 10
10.1449645712
 20
-0.4943745789
 10
10.1410335947
 20
-0.4657316224
 10
10.1373837273
 20
-0.4418087887
 10
10.1331111506
 20
-0.4227690748
 10
10.1282181974
 20
-0.4088699027
 10
10.1236800649
 20
-0.4003236779
 10
10.1199843839
 20
-0.3971815559
  0
LWPOLYLINE
  5
302
100
AcDbEntity
  8
0
100
AcDbPolyline
 62
253
  6
CONTINUOUS
 90
16
 70
0
 10
10.6198130464
 20
-0.8971625175
 10
10.6171275098
 20
-0.8455165858
 10
10.609087341
 20
-0.794252599
 10
10.5957257304
 20
-0.7439310898
 10
10.5771118095
 20
-0.6950588484
 10
10.5534101869
 20
-0.6482464046
 10
10.5249345958
 20
-0.6041742625
 10
10.4920397601
 20
-0.5633742098
 10
10.455055929
 20
-0.526240973
 10
10.4143786821
 20
-0.493175163
 10
10.3704445791
 20
-0.4645392407
 10
10.323741362
 20
-0.4406581447
 10
10.274794649
 20
-0.4218031745
 10
10.224147948
 20
-0.4081829437
 10
10.172354476
 20
-0.3999454989
 10
10.1199843839
 20
-0.3971815559
  0
LWPOLYLINE
  5
303
100
AcDbEntity
  8
0
100
AcDbPolyline
 62
253
  6
CONTINUOUS
 90
4
 70
0
 10
10.1589099178
 20
-0.6957347071
 10
10.1571089746
 20
-0.6490229768
 10
10.1543948183
 20
-0.6050520611
 10
10.1486037268
 20
-0.527473761
  0
LINE
  5
304
100
AcDbEntity
  8
0
100
AcDbLine
 62
253
  6
CONTINUOUS
 10
10.6383087344
 20
-21.5179906571
 11
10.6364230474
 21
-21.4503900364
  0
LINE
  5
305
100
AcDbEntity
  8
0
100
AcDbLine
 62
253
  6
CONTINUOUS
 10
10.6364230474
 20
-21.4503900364
 11
10.6348092252
 21
-21.3736432906
  0
LINE
  5
306
100
AcDbEntity
  8
0
100
AcDbLine
 62
253
  6
CONTINUOUS
 10
10.158422989
 20
21.6051707559
 11
10.1565491736
 21
21.7024158238
  0
LINE
  5
307
100
AcDbEntity
  8
0
100
AcDbLine
 62
253
  6
CONTINUOUS
 10
10.6348092252
 20
-21.3736432906
 11
10.6334909089
 21
-21.2888912887
  0
LINE
  5
308
100
AcDbEntity
  8
0
100
AcDbLine
 62
253
  6
CONTINUOUS
 10
10.1609224486
 20
21.4256994044
 11
10.158422989
 21
21.6051707559
  0
LINE
  5
309
100
AcDbEntity
  8
0
100
AcDbLine
 62
253
  6
CONTINUOUS
 10
10.6334909089
 20
-21.2888912887
 11
10.6321324243
 21
-21.1508831293
  0
LINE
  5
30A
100
AcDbEntity
  8
0
100
AcDbLine
 62
253
  6
CONTINUOUS
 10
10.1634958767
 20
21.1365121807
 11
10.1609224486
 21
21.4256994044
  0
LWPOLYLINE
  5
30B
100
AcDbEntity
  8
0
100
AcDbPolyline
 62
253
  6
CONTINUOUS
 90
3
 70
0
 10
10.1626505005
 20
0.5979830385
 10
10.1628753677
 20
0.5449944437
 10
10.1620227961
 20
0.4937438825
  0
LINE
  5
30C
100
AcDbEntity
  8
0
100
AcDbLine
 62
253
  6
CONTINUOUS
 10
10.1652234193
 20
20.7272941473
 11
10.1634958767
 21
21.1365121807
  0
LINE
  5
30D
100
AcDbEntity
  8
0
100
AcDbLine
 62
253
  6
CONTINUOUS
 10
10.6321324243
 20
-21.1508831293
 11
10.631564321
 21
-21.0057986901
  0
LINE
  5
30E
100
AcDbEntity
  8
0
100
AcDbLine
 62
253
  6
CONTINUOUS
 10
10.631564321
 20
-21.0057986901
 11
10.6291236426
 21
-18.6944339693
  0
LINE
  5
30F
100
AcDbEntity
  8
0
100
AcDbLine
 62
253
  6
CONTINUOUS
 10
10.1626502847
 20
0.597983042
 11
10.1652234141
 21
20.7272941483
  0
LINE
  5
310
100
AcDbEntity
  8
0
100
AcDbLine
 62
253
  6
CONTINUOUS
 10
10.1647499992
 20
-21.1945828834
 11
10.1626502962
 21
-0.8979297141
  0
LWPOLYLINE
  5
311
100
AcDbEntity
  8
0
100
AcDbPolyline
 62
253
  6
CONTINUOUS
 90
4
 70
0
 10
10.1626505032
 20
-0.8979297162
 10
10.1628752417
 20
-0.8449431185
 10
10.1620227513
 20
-0.7936942312
 10
10.1589099178
 20
-0.6957347071
  0
LINE
  5
312
100
AcDbEntity
  8
0
100
AcDbLine
 62
253
  6
CONTINUOUS
 10
10.6315643213
 20
20.7058520257
 11
10.632132425
 21
20.8509364648
  0
LINE
  5
313
100
AcDbEntity
  8
0
100
AcDbLine
 62
253
  6
CONTINUOUS
 10
10.162324639
 20
-21.5870493138
 11
10.1647499992
 21
-21.1945828834
  0
LINE
  5
314
100
AcDbEntity
  8
0
100
AcDbLine
 62
253
  6
CONTINUOUS
 10
10.632132425
 20
20.8509364648
 11
10.6334909096
 21
20.9889446242
  0
LINE
  5
315
100
AcDbEntity
  8
0
100
AcDbLine
 62
253
  6
CONTINUOUS
 10
10.1601344767
 20
-21.7895758977
 11
10.162324639
 21
-21.5870493138
  0
LINE
  5
316
100
AcDbEntity
  8
0
100
AcDbLine
 62
253
  6
CONTINUOUS
 10
10.1584229881
 20
-21.9051174204
 11
10.1601344767
 21
-21.7895758977
  0
LINE
  5
317
100
AcDbEntity
  8
0
100
AcDbLine
 62
253
  6
CONTINUOUS
 10
10.6334909096
 20
20.9889446242
 11
10.6348092259
 21
21.0736966261
  0
LINE
  5
318
100
AcDbEntity
  8
0
100
AcDbLine
 62
253
  6
CONTINUOUS
 10
10.1565491727
 20
-22.0023624893
 11
10.1584229881
 21
-21.9051174204
  0
LINE
  5
319
100
AcDbEntity
  8
0
100
AcDbLine
 62
253
  6
CONTINUOUS
 10
10.6348092259
 20
21.0736966261
 11
10.6364230481
 21
21.150443372
  0
LWPOLYLINE
  5
31A
100
AcDbEntity
  8
0
100
AcDbPolyline
 62
253
  6
CONTINUOUS
 90
11
 70
0
 10
10.6364230481
 20
21.150443372
 10
10.6383087351
 20
21.2180439924
 10
10.6393387467
 20
21.2477923296
 10
10.6404262999
 20
21.2748671164
 10
10.641555306
 20
21.2988673777
 10
10.6427269516
 20
21.3197483667
 10
10.6439400502
 20
21.3375548302
 10
10.6451749527
 20
21.352020033
 10
10.6464251098
 20
21.3630550634
 10
10.6476970709
 20
21.3707488332
 10
10.6489908362
 20
21.3751013422
  0
LWPOLYLINE
  5
31B
100
AcDbEntity
  8
0
100
AcDbPolyline
 62
253
  6
CONTINUOUS
 90
4
 70
0
 10
10.1620227961
 20
0.4937438825
 10
10.1589096646
 20
0.3957820205
 10
10.157108682
 20
0.3490696309
 10
10.154394388
 20
0.3050984978
  0
LWPOLYLINE
  5
31C
100
AcDbEntity
  8
0
100
AcDbPolyline
 62
253
  6
CONTINUOUS
 90
16
 70
0
 10
10.6198130439
 20
0.5972158518
 10
10.6171275023
 20
0.5455698722
 10
10.6090873209
 20
0.4943058497
 10
10.5957256936
 20
0.4439843177
 10
10.577111756
 20
0.3951120675
 10
10.55341012
 20
0.348299627
 10
10.5249345197
 20
0.3042274951
 10
10.4920396814
 20
0.2634274592
 10
10.4550558554
 20
0.2262942431
 10
10.4143786157
 20
0.1932284508
 10
10.3704445182
 20
0.1645925413
 10
10.3237413071
 20
0.1407114556
 10
10.2747946029
 20
0.1218564946
 10
10.2241479143
 20
0.1082362713
 10
10.1723544568
 20
0.0999988314
 10
10.1199843814
 20
0.0972348902
  0
LWPOLYLINE
  5
31D
100
AcDbEntity
  8
0
100
AcDbPolyline
 62
253
  6
CONTINUOUS
 90
9
 70
0
 10
10.154394388
 20
0.3050984978
 10
10.1486031474
 20
0.2275211354
 10
10.1449639824
 20
0.1944228816
 10
10.1410329836
 20
0.165781041
 10
10.1373831782
 20
0.1418593878
 10
10.1331107215
 20
0.1228207463
 10
10.1282179154
 20
0.1089224351
 10
10.1236799388
 20
0.1003767911
 10
10.1199843818
 20
0.0972348902
  0
LINE
  5
31E
100
AcDbEntity
  8
0
100
AcDbLine
 62
253
  6
CONTINUOUS
 10
0.8126671482
 20
-10.7264653591
 11
1.2693732477
 21
-10.4623053592
  0
LINE
  5
31F
100
AcDbEntity
  8
0
100
AcDbLine
 62
253
  6
CONTINUOUS
 10
1.5254899078
 20
-10.905711748
 11
1.0681135306
 21
-11.1701892479
  0
LINE
  5
320
100
AcDbEntity
  8
0
100
AcDbLine
 62
253
  6
CONTINUOUS
 10
-1.3489433522
 20
-12.5654253587
 11
-1.8057905627
 21
-12.8289856364
  0
LINE
  5
321
100
AcDbEntity
  8
0
100
AcDbLine
 62
253
  6
CONTINUOUS
 10
-2.0617661118
 20
-12.3856145254
 11
-1.6047072345
 21
-12.1220542477
  0
LWPOLYLINE
  5
322
100
AcDbEntity
  8
0
100
AcDbPolyline
 62
253
  6
CONTINUOUS
 90
29
 70
0
 10
-1.8057905627
 20
-12.8289856364
 10
-1.8099598721
 20
-12.8313334087
 10
-1.8141663321
 20
-12.8335914817
 10
-1.8184098761
 20
-12.8357613047
 10
-1.822690438
 20
-12.8378443272
 10
-1.8270079511
 20
-12.8398419987
 10
-1.8313623493
 20
-12.8417557685
 10
-1.835753566
 20
-12.8435870862
 10
-1.8401811946
 20
-12.8453371041
 10
-1.8446434672
 20
-12.847005786
 10
-1.8491382756
 20
-12.8485927985
 10
-1.8536635115
 20
-12.8500978082
 10
-1.858217067
 20
-12.8515204819
 10
-1.8627968336
 20
-12.8528604862
 10
-1.8674007033
 20
-12.8541174877
 10
-1.8720266556
 20
-12.8552911572
 10
-1.8766730213
 20
-12.8563811816
 10
-1.881338219
 20
-12.8573872519
 10
-1.8860206671
 20
-12.8583090592
 10
-1.8907187843
 20
-12.8591462945
 10
-1.895430989
 20
-12.8598986487
 10
-1.9001556999
 20
-12.860565813
 10
-1.9048916872
 20
-12.8611473531
 10
-1.9096391285
 20
-12.8616423341
 10
-1.9143985531
 20
-12.8620496959
 10
-1.9191704902
 20
-12.8623683782
 10
-1.9239554693
 20
-12.862597321
 10
-1.9287540197
 20
-12.8627354642
 10
-1.9335666706
 20
-12.8627817475
  0
LWPOLYLINE
  5
323
100
AcDbEntity
  8
0
100
AcDbPolyline
 62
253
  6
CONTINUOUS
 90
53
 70
0
 10
-1.6047072345
 20
-12.1220542477
 10
-1.5978990605
 20
-12.1182999414
 10
-1.591032566
 20
-12.1147954188
 10
-1.584092958
 20
-12.1115277137
 10
-1.5770654436
 20
-12.1084838598
 10
-1.5699352299
 20
-12.1056508909
 10
-1.5626904149
 20
-12.1030186701
 10
-1.5553306615
 20
-12.1005883782
 10
-1.5478585235
 20
-12.098364025
 10
-1.5402765548
 20
-12.0963496207
 10
-1.5325873092
 20
-12.0945491752
 10
-1.5247946563
 20
-12.0929670164
 10
-1.516907728
 20
-12.0916087434
 10
-1.5089369719
 20
-12.0904802733
 10
-1.5008928356
 20
-12.089587523
 10
-1.4927857667
 20
-12.0889364096
 10
-1.4859918297
 20
-12.0885822846
 10
-1.4791824299
 20
-12.0884011978
 10
-1.4723785523
 20
-12.0883942754
 10
-1.4655956391
 20
-12.088562849
 10
-1.4588269603
 20
-12.0889090745
 10
-1.4520602432
 20
-12.0894353135
 10
-1.4439318469
 20
-12.0903076774
 10
-1.4358055252
 20
-12.0914463477
 10
-1.4276982008
 20
-12.0928550107
 10
-1.4196267965
 20
-12.0945373525
 10
-1.4116082351
 20
-12.0964970594
 10
-1.4036584659
 20
-12.0987356594
 10
-1.3957895454
 20
-12.101246047
 10
-1.3880125566
 20
-12.1040189587
 10
-1.3803385826
 20
-12.1070451307
 10
-1.3727787066
 20
-12.1103152995
 10
-1.3665709933
 20
-12.1132219129
 10
-1.3604388012
 20
-12.116296792
 10
-1.3543707204
 20
-12.1195451937
 10
-1.348361122
 20
-12.1229691821
 10
-1.3424275018
 20
-12.1265580505
 10
-1.3365931368
 20
-12.1302979001
 10
-1.3297503529
 20
-12.134967234
 10
-1.3230922182
 20
-12.1398206842
 10
-1.3166269356
 20
-12.1448449691
 10
-1.3103627081
 20
-12.1500268069
 10
-1.3043077388
 20
-12.1553529159
 10
-1.2984685315
 20
-12.1608115924
 10
-1.2928447942
 20
-12.1663974441
 10
-1.2874345358
 20
-12.172106657
 10
-1.2822357652
 20
-12.1779354168
 10
-1.2772464912
 20
-12.1838799094
 10
-1.2724639864
 20
-12.1899401334
 10
-1.2678825788
 20
-12.1961313387
 10
-1.2634958599
 20
-12.202472588
 10
-1.2592974213
 20
-12.2089829442
 10
-1.2552808546
 20
-12.2156814699
  0
LWPOLYLINE
  5
324
100
AcDbEntity
  8
0
100
AcDbPolyline
 62
253
  6
CONTINUOUS
 90
53
 70
0
 10
1.2693732477
 20
-10.4623053592
 10
1.276178921
 20
-10.4585719201
 10
1.2830421684
 20
-10.4550864019
 10
1.289977937
 20
-10.4518359622
 10
1.297001174
 20
-10.4488077584
 10
1.3041268263
 20
-10.4459889479
 10
1.3113669071
 20
-10.4433695111
 10
1.3187216941
 20
-10.4409507202
 10
1.3261885312
 20
-10.4387366704
 10
1.3337647621
 20
-10.4367314568
 10
1.3414477306
 20
-10.4349391745
 10
1.3492335099
 20
-10.4333642253
 10
1.3571130911
 20
-10.4320122379
 10
1.3650761946
 20
-10.4308891474
 10
1.3731125408
 20
-10.4300008891
 10
1.3812118503
 20
-10.4293533982
 10
1.3879995083
 20
-10.4290016539
 10
1.3948031203
 20
-10.4288224455
 10
1.4016020544
 20
-10.4288169875
 10
1.4083811632
 20
-10.4289867105
 10
1.415147237
 20
-10.4293339097
 10
1.4219125507
 20
-10.4298610966
 10
1.4300408166
 20
-10.4307347626
 10
1.4381685331
 20
-10.4318750992
 10
1.4462785693
 20
-10.4332859789
 10
1.4543537945
 20
-10.4349712737
 10
1.462377078
 20
-10.4369348559
 10
1.4703323166
 20
-10.4391784196
 10
1.4782075175
 20
-10.4416949456
 10
1.4859917153
 20
-10.4444752368
 10
1.4936739447
 20
-10.447510096
 10
1.5012432406
 20
-10.4507903259
 10
1.5074597665
 20
-10.45370642
 10
1.5136016602
 20
-10.4567918125
 10
1.5196803303
 20
-10.4600517926
 10
1.5257013824
 20
-10.4634884318
 10
1.5316472092
 20
-10.4670909321
 10
1.5374944004
 20
-10.470845278
 10
1.5443532392
 20
-10.4755329981
 10
1.5510280989
 20
-10.4804057908
 10
1.5575107469
 20
-10.4854502535
 10
1.5637929503
 20
-10.4906529836
 10
1.5698664762
 20
-10.4960005784
 10
1.5757248024
 20
-10.501481228
 10
1.5813682485
 20
-10.5070894941
 10
1.5867988446
 20
-10.512821531
 10
1.5920186208
 20
-10.5186734931
 10
1.5970296072
 20
-10.5246415348
 10
1.6018345811
 20
-10.5307256445
 10
1.6064393076
 20
-10.536941146
 10
1.6108502993
 20
-10.5433071974
 10
1.6150740686
 20
-10.5498429565
 10
1.6191171277
 20
-10.5565675814
  0
LWPOLYLINE
  5
325
100
AcDbEntity
  8
0
100
AcDbPolyline
 62
253
  6
CONTINUOUS
 90
29
 70
0
 10
1.0681135306
 20
-11.1701892479
 10
1.0639461687
 20
-11.1724465357
 10
1.0597448292
 20
-11.1746249155
 10
1.055509288
 20
-11.1767251937
 10
1.0512393212
 20
-11.1787481771
 10
1.046934705
 20
-11.180694672
 10
1.0425952152
 20
-11.1825654851
 10
1.038220628
 20
-11.1843614228
 10
1.0338110173
 20
-11.1860830228
 10
1.0293676484
 20
-11.1877297479
 10
1.0248920846
 20
-11.1893007915
 10
1.020385889
 20
-11.1907953476
 10
1.015850625
 20
-11.1922126098
 10
1.0112878558
 20
-11.1935517718
 10
1.0066991445
 20
-11.1948120275
 10
1.0020860805
 20
-11.1959925509
 10
0.9974503579
 20
-11.1970924385
 10
0.9927936965
 20
-11.198110767
 10
0.9881178166
 20
-11.1990466131
 10
0.983424438
 20
-11.1998990536
 10
0.9787152811
 20
-11.2006671653
 10
0.9739920656
 20
-11.201350025
 10
0.969256129
 20
-11.2019466136
 10
0.964507277
 20
-11.202455529
 10
0.9597449325
 20
-11.2028752734
 10
0.9549685185
 20
-11.2032043486
 10
0.9501774581
 20
-11.203441257
 10
0.945371174
 20
-11.2035845005
 10
0.9405490894
 20
-11.2036325812
  0
LWPOLYLINE
  5
326
100
AcDbEntity
  8
0
100
AcDbPolyline
 62
253
  6
CONTINUOUS
 90
53
 70
0
 10
-0.2867946152
 20
9.9600405007
 10
-0.2946314104
 20
9.9599132425
 10
-0.3023892013
 20
9.9595344684
 10
-0.310087463
 20
9.9589086793
 10
-0.3177456706
 20
9.958040376
 10
-0.3253832995
 20
9.9569340592
 10
-0.3330158436
 20
9.955593186
 10
-0.3406428721
 20
9.9540170383
 10
-0.348259973
 20
9.9522038541
 10
-0.3558627342
 20
9.9501518714
 10
-0.3634467437
 20
9.9478593284
 10
-0.3710063493
 20
9.9453248302
 10
-0.3785309384
 20
9.9425484507
 10
-0.3860086579
 20
9.939530631
 10
-0.393427655
 20
9.9362718121
 10
-0.4007760769
 20
9.9327724351
 10
-0.4068353656
 20
9.9296743892
 10
-0.412818953
 20
9.9264191088
 10
-0.4187083797
 20
9.9230161077
 10
-0.4244896852
 20
9.919472106
 10
-0.4301669046
 20
9.9157826511
 10
-0.4357485721
 20
9.911940497
 10
-0.4423274875
 20
9.9071210275
 10
-0.4487660049
 20
9.9020759998
 10
-0.4550490323
 20
9.8968101767
 10
-0.4611614775
 20
9.8913283209
 10
-0.4670882483
 20
9.8856351954
 10
-0.4728160833
 20
9.8797368031
 10
-0.4783390441
 20
9.8736441076
 10
-0.4836530235
 20
9.8673693128
 10
-0.4887539137
 20
9.8609246225
 10
-0.4936376073
 20
9.8543222405
 10
-0.4975399353
 20
9.848705842
 10
-0.5012949668
 20
9.8429789182
 10
-0.5049090889
 20
9.837131977
 10
-0.5083854289
 20
9.8311610671
 10
-0.5117140759
 20
9.8250844004
 10
-0.5148818596
 20
9.8189257295
 10
-0.5184560302
 20
9.8114563175
 10
-0.5217791169
 20
9.8039188368
 10
-0.5248506443
 20
9.7963291007
 10
-0.5276701373
 20
9.7887029228
 10
-0.5302371205
 20
9.7810561162
 10
-0.532551816
 20
9.7734022246
 10
-0.5346172351
 20
9.7657457122
 10
-0.5364370865
 20
9.7580887734
 10
-0.5380150787
 20
9.7504336026
 10
-0.5393549205
 20
9.7427823943
 10
-0.5404590384
 20
9.7351336904
 10
-0.541324731
 20
9.7274714241
 10
-0.5419480147
 20
9.7197758759
 10
-0.5423249062
 20
9.7120273264
 10
-0.5424514219
 20
9.7042060563
  0
LWPOLYLINE
  5
327
100
AcDbEntity
  8
0
100
AcDbPolyline
 62
253
  6
CONTINUOUS
 90
36
 70
0
 10
-1.4622501705
 20
10.4471560561
 10
-1.4564998523
 20
10.4470822455
 10
-1.4507713583
 20
10.4468627254
 10
-1.4450633922
 20
10.4465003636
 10
-1.4393746575
 20
10.4459980276
 10
-1.433703858
 20
10.4453585852
 10
-1.4280496974
 20
10.4445849041
 10
-1.4224108792
 20
10.4436798519
 10
-1.4167869643
 20
10.4426461714
 10
-1.4111809412
 20
10.4414861064
 10
-1.4055966557
 20
10.4402017758
 10
-1.4000379534
 20
10.4387952984
 10
-1.39450868
 20
10.4372687932
 10
-1.3890126812
 20
10.435624379
 10
-1.3835538027
 20
10.4338641747
 10
-1.3781355012
 20
10.4319900832
 10
-1.3727596772
 20
10.4300031432
 10
-1.3674278425
 20
10.4279041776
 10
-1.3621415087
 20
10.425694009
 10
-1.3569021875
 20
10.4233734602
 10
-1.3517113904
 20
10.420943354
 10
-1.3465706293
 20
10.4184045131
 10
-1.3414816594
 20
10.4157576775
 10
-1.3364472109
 20
10.4130032561
 10
-1.3314702577
 20
10.410141575
 10
-1.3265537738
 20
10.4071729604
 10
-1.3217007331
 20
10.4040977384
 10
-1.3169141094
 20
10.400916235
 10
-1.3121968767
 20
10.3976287765
 10
-1.3075518344
 20
10.3942351292
 10
-1.3029810845
 20
10.3907328204
 10
-1.2984865544
 20
10.3871188179
 10
-1.2940701715
 20
10.3833900893
 10
-1.2897338633
 20
10.3795436021
 10
-1.2854795572
 20
10.3755763241
 10
-1.2813091808
 20
10.3714852228
  0
LWPOLYLINE
  5
328
100
AcDbEntity
  8
0
100
AcDbPolyline
 62
253
  6
CONTINUOUS
 90
36
 70
0
 10
0.888626875
 20
10.4471560561
 10
0.8943833686
 20
10.4470818934
 10
0.9001177994
 20
10.4468613393
 10
0.9058314902
 20
10.446497295
 10
0.9115257641
 20
10.4459926617
 10
0.9172019442
 20
10.4453503406
 10
0.9228613534
 20
10.4445732329
 10
0.9285053147
 20
10.4436642397
 10
0.9341342757
 20
10.4426261496
 10
0.9397451826
 20
10.4414613006
 10
0.9453341062
 20
10.4401719181
 10
0.9508971171
 20
10.4387602276
 10
0.9564302862
 20
10.4372284544
 10
0.9619296842
 20
10.4355788241
 10
0.9673913817
 20
10.4338135619
 10
0.9728118729
 20
10.4319346694
 10
0.9781893443
 20
10.4299432521
 10
0.9835224058
 20
10.4278401916
 10
0.9888096672
 20
10.4256263695
 10
0.9940497384
 20
10.4233026675
 10
0.9992412293
 20
10.420869967
 10
1.0043827497
 20
10.4183291498
 10
1.0094726567
 20
10.4156810158
 10
1.014508297
 20
10.4129260393
 10
1.0194867642
 20
10.4100646129
 10
1.0244051523
 20
10.4070971292
 10
1.0292605551
 20
10.4040239808
 10
1.0340500664
 20
10.4008455604
 10
1.0387707801
 20
10.3975622607
 10
1.0434199719
 20
10.3941739194
 10
1.0479956448
 20
10.3906781552
 10
1.052495984
 20
10.3870720318
 10
1.0569191745
 20
10.3833526131
 10
1.0612634012
 20
10.3795169628
 10
1.0655268493
 20
10.3755621448
 10
1.0697077037
 20
10.3714852228
  0
LWPOLYLINE
  5
329
100
AcDbEntity
  8
0
100
AcDbPolyline
 62
253
  6
CONTINUOUS
 90
57
 70
0
 10
-0.2867946152
 20
10.5532010561
 10
-0.3082240858
 20
10.553505355
 10
-0.3296179693
 20
10.5544161823
 10
-0.3510169542
 20
10.5559304341
 10
-0.3724617294
 20
10.5580450064
 10
-0.3939864364
 20
10.5607592141
 10
-0.4155990281
 20
10.5640820488
 10
-0.4373009105
 20
10.5680249206
 10
-0.4590934894
 20
10.57259924
 10
-0.480969403
 20
10.5778138427
 10
-0.5028862191
 20
10.5836672664
 10
-0.5247927377
 20
10.5901554739
 10
-0.546637759
 20
10.5972744284
 10
-0.5683738306
 20
10.6050197622
 10
-0.5899684895
 20
10.6133857857
 10
-0.6113930204
 20
10.6223664789
 10
-0.6326187077
 20
10.6319558215
 10
-0.6536178911
 20
10.6421480435
 10
-0.6743671298
 20
10.6529383759
 10
-0.6948440383
 20
10.6643222994
 10
-0.7150262308
 20
10.676295295
 10
-0.734892882
 20
10.6888547354
 10
-0.7544294074
 20
10.7020055601
 10
-0.7736227828
 20
10.7157546006
 10
-0.7924599843
 20
10.7301086881
 10
-0.8109226255
 20
10.7450701667
 10
-0.8289708725
 20
10.7606234312
 10
-0.8465595292
 20
10.7767483894
 10
-0.8636433995
 20
10.7934249488
 10
-0.8801808493
 20
10.8106269183
 10
-0.896144492
 20
10.8283037123
 10
-0.9115105033
 20
10.8463986465
 10
-0.9262550586
 20
10.8648550366
 10
-0.9403612904
 20
10.8836250767
 10
-0.9538401596
 20
10.9026964747
 10
-0.9667095839
 20
10.9220658173
 10
-0.9789874814
 20
10.941729691
 10
-0.9906888678
 20
10.9616839128
 10
-1.0018171509
 20
10.9819212227
 10
-1.0123728365
 20
11.0024335912
 10
-1.0223564302
 20
11.0232129887
 10
-1.0317663552
 20
11.0442463868
 10
-1.0405927033
 20
11.0655007609
 10
-1.0488234838
 20
11.0869380874
 10
-1.056446706
 20
11.1085203428
 10
-1.0634518095
 20
11.1302072623
 10
-1.0698339557
 20
11.1519496159
 10
-1.0755897363
 20
11.1736959324
 10
-1.0807157429
 20
11.1953947404
 10
-1.0852110703
 20
11.2170036726
 10
-1.0890848247
 20
11.2385167769
 10
-1.0923486154
 20
11.2599372049
 10
-1.0950140516
 20
11.2812681084
 10
-1.0970903255
 20
11.3025186181
 10
-1.0985769607
 20
11.3237217807
 10
-1.0994710637
 20
11.3449166218
 10
-1.099769741
 20
11.366142167
  0
LWPOLYLINE
  5
32A
100
AcDbEntity
  8
0
100
AcDbPolyline
 62
253
  6
CONTINUOUS
 90
53
 70
0
 10
0.7078635462
 20
12.3604816112
 10
0.7024700616
 20
12.3660620758
 10
0.6973020786
 20
12.3717640413
 10
0.6923431225
 20
12.377598555
 10
0.6875767186
 20
12.3835766637
 10
0.6829863922
 20
12.3897094145
 10
0.6785591898
 20
12.3960057608
 10
0.6742962427
 20
12.4024662819
 10
0.6702022035
 20
12.4090894632
 10
0.6662817247
 20
12.4158737903
 10
0.6625394589
 20
12.4228177489
 10
0.6589806918
 20
12.4299186708
 10
0.6556132421
 20
12.4371692738
 10
0.6524455617
 20
12.4445611217
 10
0.6494861022
 20
12.4520857786
 10
0.6467433156
 20
12.4597348085
 10
0.644629556
 20
12.4661954425
 10
0.6426787295
 20
12.4727168355
 10
0.6408974329
 20
12.479279235
 10
0.6392910272
 20
12.4858682836
 10
0.6378599323
 20
12.4924912064
 10
0.6366033324
 20
12.499160624
 10
0.6353262173
 20
12.507236818
 10
0.6343075091
 20
12.5153824478
 10
0.6335555165
 20
12.5235818232
 10
0.6330785481
 20
12.5318192539
 10
0.6328849125
 20
12.5400790497
 10
0.6329805277
 20
12.5483459531
 10
0.6333617485
 20
12.5566064364
 10
0.6340225393
 20
12.5648474046
 10
0.6349568644
 20
12.5730557627
 10
0.6361586881
 20
12.5812184156
 10
0.6373611344
 20
12.5879796138
 10
0.6387473108
 20
12.5947124914
 10
0.6403193757
 20
12.6014295612
 10
0.6420778737
 20
12.6081368343
 10
0.644016893
 20
12.6148143141
 10
0.6461289074
 20
12.6214355025
 10
0.6488814261
 20
12.6292750247
 10
0.6518612815
 20
12.6369838047
 10
0.6550575344
 20
12.6445503177
 10
0.6584592458
 20
12.6519630389
 10
0.6620554767
 20
12.6592104435
 10
0.6658363992
 20
12.6662830973
 10
0.6697966296
 20
12.6731799285
 10
0.6739318955
 20
12.679901956
 10
0.6782379245
 20
12.6864501985
 10
0.6827104441
 20
12.6928256751
 10
0.6873487233
 20
12.699031115
 10
0.692166197
 20
12.7050760904
 10
0.6971798412
 20
12.7109718839
 10
0.7024066322
 20
12.716729778
 10
0.7078635462
 20
12.7223610555
  0
LWPOLYLINE
  5
32B
100
AcDbEntity
  8
0
100
AcDbPolyline
 62
253
  6
CONTINUOUS
 90
6
 70
0
 10
10.1545197465
 20
21.7794205947
 10
10.1534876151
 20
21.8098380711
 10
10.1524148501
 20
21.8346577215
 10
10.1513073885
 20
21.8537545001
 10
10.15021387
 20
21.8670301721
 10
10.1491621737
 20
21.8744161096
  0
LINE
  5
32C
100
AcDbEntity
  8
0
100
AcDbLine
 62
253
  6
CONTINUOUS
 10
10.1565491736
 20
21.7024158238
 11
10.1545197465
 21
21.7794205947
  0
LINE
  5
32D
100
AcDbEntity
  8
0
100
AcDbLine
 62
7
  6
CONTINUOUS
 10
10.7419670527
 20
21.5611813709
 11
10.7616949608
 21
12.9500266667
  0
LINE
  5
32E
100
AcDbEntity
  8
0
100
AcDbLine
 62
253
  6
CONTINUOUS
 10
10.6291236426
 20
-18.6944339693
 11
10.6223395134
 21
-9.8804350004
  0
LINE
  5
32F
100
AcDbEntity
  8
0
100
AcDbLine
 62
253
  6
CONTINUOUS
 10
10.6223395134
 20
-9.8804350004
 11
10.6198130464
 21
-0.8971625175
  0
LINE
  5
330
100
AcDbEntity
  8
0
100
AcDbLine
 62
7
  6
CONTINUOUS
 10
10.7616949608
 20
12.9500266667
 11
10.7616949608
 21
0.5499314845
  0
LINE
  5
331
100
AcDbEntity
  8
0
100
AcDbLine
 62
7
  6
CONTINUOUS
 10
10.7616949608
 20
-13.2499733333
 11
10.7616949608
 21
-0.8498781511
  0
LINE
  5
332
100
AcDbEntity
  8
0
100
AcDbLine
 62
253
  6
CONTINUOUS
 10
10.6198130438
 20
0.5972158518
 11
10.6232547925
 21
11.1878649824
  0
LINE
  5
333
100
AcDbEntity
  8
0
100
AcDbLine
 62
253
  6
CONTINUOUS
 10
10.6232547925
 20
11.1878649824
 11
10.6315643213
 21
20.7058520257
  0
LINE
  5
334
100
AcDbEntity
  8
0
100
AcDbLine
 62
7
  6
CONTINUOUS
 10
10.7419670527
 20
-21.8611280374
 11
10.7616949608
 21
-13.2499733333
  0
LINE
  5
335
100
AcDbEntity
  8
0
100
AcDbLine
 62
253
  6
CONTINUOUS
 10
-1.9488705526
 20
11.1100881044
 11
-3.0204330253
 21
11.1100268876
  0
LINE
  5
336
100
AcDbEntity
  8
0
100
AcDbLine
 62
253
  6
CONTINUOUS
 10
-3.0204330253
 20
11.6219070157
 11
-1.9488705526
 21
11.6219690043
  0
LINE
  5
337
100
AcDbEntity
  8
0
100
AcDbLine
 62
253
  6
CONTINUOUS
 10
2.4467051686
 20
11.1100275385
 11
1.3755660292
 21
11.1100874588
  0
LINE
  5
338
100
AcDbEntity
  8
0
100
AcDbLine
 62
253
  6
CONTINUOUS
 10
1.3755660292
 20
11.6219683506
 11
2.4467051686
 21
11.6219076748
  0
LWPOLYLINE
  5
339
100
AcDbEntity
  8
0
100
AcDbPolyline
 62
253
  6
CONTINUOUS
 90
57
 70
0
 10
-0.2867946152
 20
12.1791185557
 10
-0.2653483618
 20
12.1788145618
 10
-0.2439371671
 20
12.1779045608
 10
-0.2225200724
 20
12.1763915236
 10
-0.2010561191
 20
12.1742784213
 10
-0.1795109785
 20
12.1715658167
 10
-0.1578768414
 20
12.1682446397
 10
-0.1361525285
 20
12.1643034121
 10
-0.1143368606
 20
12.1597306555
 10
-0.0924373377
 20
12.1545174256
 10
-0.0704961772
 20
12.1486649136
 10
-0.0485642759
 20
12.1421768446
 10
-0.0266925305
 20
12.1350569436
 10
-0.0049283306
 20
12.1273093678
 10
0.0166949625
 20
12.1189400024
 10
0.0381474948
 20
12.1099551647
 10
0.0593994122
 20
12.1003611722
 10
0.0804222995
 20
12.0901639684
 10
0.1011934965
 20
12.0793680027
 10
0.121691782
 20
12.0679773506
 10
0.1418959348
 20
12.0559960879
 10
0.1617867622
 20
12.0434256543
 10
0.1813531862
 20
12.0302569463
 10
0.2005861574
 20
12.0164782246
 10
0.2194766264
 20
12.0020777497
 10
0.2380084194
 20
11.9870496952
 10
0.256136865
 20
11.971411887
 10
0.2738101675
 20
11.9551880638
 10
0.2909765311
 20
11.9384019643
 10
0.307588476
 20
11.9210836719
 10
0.3236157859
 20
11.9032886483
 10
0.3390325605
 20
11.8850786998
 10
0.3538128994
 20
11.8665156324
 10
0.3679386772
 20
11.8476512178
 10
0.381422867
 20
11.8284970891
 10
0.3942862168
 20
11.8090548445
 10
0.4065494747
 20
11.7893260825
 10
0.418230098
 20
11.7693134594
 10
0.4293323824
 20
11.7490238636
 10
0.4398573328
 20
11.7284652413
 10
0.4498059541
 20
11.7076455391
 10
0.4591770862
 20
11.6865780536
 10
0.4679609092
 20
11.6652974832
 10
0.4761454377
 20
11.6438438766
 10
0.4837186867
 20
11.6222572825
 10
0.4906702509
 20
11.6005801511
 10
0.4969960448
 20
11.578864538
 10
0.502693563
 20
11.5571649001
 10
0.5077602998
 20
11.5355356946
 10
0.5121964339
 20
11.5140214716
 10
0.5160128805
 20
11.4926271542
 10
0.5192232391
 20
11.4713477586
 10
0.5218411092
 20
11.4501783013
 10
0.5238776027
 20
11.4291082044
 10
0.5253338817
 20
11.4081045146
 10
0.526208621
 20
11.3871286846
 10
0.5265004953
 20
11.366142167
  0
LWPOLYLINE
  5
33A
100
AcDbEntity
  8
0
100
AcDbPolyline
 62
253
  6
CONTINUOUS
 90
55
 70
0
 10
-1.9488705526
 20
11.6219413336
 10
-1.9411114391
 20
11.6218168387
 10
-1.9334257779
 20
11.6214459689
 10
-1.9257941636
 20
11.6208326466
 10
-1.918197191
 20
11.6199807945
 10
-1.9106154549
 20
11.618894335
 10
-1.9030335078
 20
11.6175761753
 10
-1.8954517344
 20
11.6160251611
 10
-1.8878744772
 20
11.614239123
 10
-1.8803060787
 20
11.6122158916
 10
-1.8727508814
 20
11.6099532972
 10
-1.8652144896
 20
11.6074495383
 10
-1.8577075544
 20
11.6047042846
 10
-1.850241989
 20
11.601717574
 10
-1.8428297062
 20
11.5984894441
 10
-1.8354826192
 20
11.5950199327
 10
-1.8294203973
 20
11.5919458639
 10
-1.8234303396
 20
11.5887135305
 10
-1.8175310629
 20
11.5853322675
 10
-1.8117365
 20
11.5818084709
 10
-1.8060418495
 20
11.5781367789
 10
-1.8004376263
 20
11.5743088906
 10
-1.7949175557
 20
11.570318396
 10
-1.7894882059
 20
11.5661664501
 10
-1.7841593556
 20
11.561856099
 10
-1.7789407833
 20
11.557390389
 10
-1.7738422679
 20
11.5527723661
 10
-1.7688735879
 20
11.5480050765
 10
-1.7640433748
 20
11.5430923594
 10
-1.7593556709
 20
11.5380412262
 10
-1.754813371
 20
11.5328594812
 10
-1.7504193702
 20
11.5275549287
 10
-1.7461765635
 20
11.5221353732
 10
-1.7420878457
 20
11.5166086189
 10
-1.7381544146
 20
11.5109794415
 10
-1.7343706783
 20
11.5052405009
 10
-1.7307293478
 20
11.4993814284
 10
-1.7272265869
 20
11.4933975852
 10
-1.7238723721
 20
11.4873072525
 10
-1.7206801328
 20
11.4811344415
 10
-1.7170783697
 20
11.4736477298
 10
-1.7137296409
 20
11.466092667
 10
-1.7106343974
 20
11.4584850947
 10
-1.7077930901
 20
11.4508408544
 10
-1.70520617
 20
11.4431757878
 10
-1.7028733942
 20
11.4355034759
 10
-1.700791745
 20
11.4278284577
 10
-1.6989575107
 20
11.4201530116
 10
-1.6973669796
 20
11.4124794161
 10
-1.6960164401
 20
11.4048099496
 10
-1.6949034709
 20
11.3971431936
 10
-1.6940308122
 20
11.3894629412
 10
-1.6934024944
 20
11.3817492885
 10
-1.693022548
 20
11.3739823318
 10
-1.6928950036
 20
11.366142167
  0
LWPOLYLINE
  5
33B
100
AcDbEntity
  8
0
100
AcDbPolyline
 62
253
  6
CONTINUOUS
 90
55
 70
0
 10
2.4467051686
 20
11.6219413336
 10
2.454448021
 20
11.621817505
 10
2.4621179333
 20
11.6214485782
 10
2.4697343808
 20
11.6208383917
 10
2.4773168384
 20
11.6199907841
 10
2.4848847813
 20
11.618909594
 10
2.4924536993
 20
11.6175976541
 10
2.5000231412
 20
11.6160537745
 10
2.5075886706
 20
11.6142757597
 10
2.515145851
 20
11.6122614141
 10
2.5226902461
 20
11.610008542
 10
2.5302161862
 20
11.6075153052
 10
2.5377130695
 20
11.6047812952
 10
2.5451690609
 20
11.6018064608
 10
2.5525723254
 20
11.5985907507
 10
2.5599110279
 20
11.5951341139
 10
2.5659668203
 20
11.5920710333
 10
2.5719510911
 20
11.5888497471
 10
2.5778453726
 20
11.5854793957
 10
2.583635853
 20
11.5819661966
 10
2.5893273468
 20
11.5783046772
 10
2.5949293245
 20
11.5744864422
 10
2.6004480225
 20
11.5705049954
 10
2.6058767388
 20
11.5663614368
 10
2.6112055369
 20
11.5620587653
 10
2.6164244805
 20
11.5575999799
 10
2.621523633
 20
11.5529880798
 10
2.626493058
 20
11.5482260638
 10
2.6313239932
 20
11.5433177239
 10
2.6360123726
 20
11.5382700234
 10
2.6405553044
 20
11.5330907185
 10
2.6449498967
 20
11.5277875652
 10
2.6491932578
 20
11.5223683198
 10
2.6532824957
 20
11.5168407383
 10
2.6572164183
 20
11.5112095533
 10
2.661000632
 20
11.5054674016
 10
2.6646424426
 20
11.4996038968
 10
2.668145687
 20
11.4936144146
 10
2.6715003247
 20
11.4875173822
 10
2.674692846
 20
11.4813369889
 10
2.6782946782
 20
11.4738402371
 10
2.6816431956
 20
11.4662742622
 10
2.6847379851
 20
11.4586550474
 10
2.6875786336
 20
11.4509985759
 10
2.6901647279
 20
11.4433208312
 10
2.6924965522
 20
11.4356355148
 10
2.69457718
 20
11.4279472018
 10
2.6964103822
 20
11.4202581858
 10
2.6979999296
 20
11.4125707603
 10
2.6993495932
 20
11.4048872187
 10
2.7004618431
 20
11.3972061276
 10
2.7013339469
 20
11.3895111454
 10
2.7019618715
 20
11.3817822036
 10
2.7023415839
 20
11.3739992336
 10
2.7024690509
 20
11.366142167
  0
LWPOLYLINE
  5
33C
100
AcDbEntity
  8
0
100
AcDbPolyline
 62
253
  6
CONTINUOUS
 90
53
 70
0
 10
-3.0204330253
 20
11.1100607782
 10
-3.0281741026
 20
11.1101861563
 10
-3.0358420133
 20
11.1105595909
 10
-3.0434559659
 20
11.1111770324
 10
-3.0510351689
 20
11.112034431
 10
-3.0585988305
 20
11.1131277373
 10
-3.0661622381
 20
11.1144539121
 10
-3.0737249935
 20
11.1160139593
 10
-3.0812827776
 20
11.1178098932
 10
-3.0888312712
 20
11.1198437282
 10
-3.0963661549
 20
11.1221174787
 10
-3.1038818719
 20
11.1246327947
 10
-3.1113679144
 20
11.1273898691
 10
-3.118812537
 20
11.1303885302
 10
-3.1262039943
 20
11.1336286064
 10
-3.1335305408
 20
11.1371099263
 10
-3.1395759986
 20
11.1401936431
 10
-3.1455497908
 20
11.1434354154
 10
-3.151433485
 20
11.1468258879
 10
-3.1572132957
 20
11.1503586373
 10
-3.1628940236
 20
11.1540389706
 10
-3.1684851165
 20
11.157875127
 10
-3.1750838788
 20
11.1626925326
 10
-3.1815502989
 20
11.1677408091
 10
-3.1878675047
 20
11.1730145775
 10
-3.1940186241
 20
11.178508459
 10
-3.199986785
 20
11.1842170744
 10
-3.2057570847
 20
11.1901337328
 10
-3.2113224974
 20
11.1962464936
 10
-3.2166779665
 20
11.2025421043
 10
-3.2218184355
 20
11.2090073122
 10
-3.226738848
 20
11.2156288646
 10
-3.2306691345
 20
11.2212597042
 10
-3.2344503035
 20
11.2270003065
 10
-3.2380895662
 20
11.232861065
 10
-3.2415906798
 20
11.2388466333
 10
-3.2449435868
 20
11.2449387061
 10
-3.2481347758
 20
11.2511132384
 10
-3.2517355204
 20
11.2586019537
 10
-3.2550834433
 20
11.2661589483
 10
-3.258178053
 20
11.2737683842
 10
-3.2610188579
 20
11.2814144238
 10
-3.2636053664
 20
11.2890812292
 10
-3.2659377868
 20
11.2967552422
 10
-3.2680191266
 20
11.3044320218
 10
-3.2698530932
 20
11.3121094067
 10
-3.2714433939
 20
11.3197852356
 10
-3.2727937361
 20
11.3274573471
 10
-3.2739065381
 20
11.335127225
 10
-3.2747790614
 20
11.3428109351
 10
-3.2754072787
 20
11.3505281882
 10
-3.2757871625
 20
11.3582986952
 10
-3.2759146855
 20
11.366142167
  0
LWPOLYLINE
  5
33D
100
AcDbEntity
  8
0
100
AcDbPolyline
 62
253
  6
CONTINUOUS
 90
55
 70
0
 10
1.3755660292
 20
11.1100607782
 10
1.3678099884
 20
11.1101858955
 10
1.3601272574
 20
11.110558579
 10
1.3524985421
 20
11.1111748263
 10
1.3449045482
 20
11.1120306352
 10
1.3373259815
 20
11.1131220032
 10
1.3297474831
 20
11.1144459421
 10
1.3221694352
 20
11.1160035203
 10
1.3145961555
 20
11.1177968203
 10
1.3070319615
 20
11.1198279246
 10
1.2994811709
 20
11.1220989157
 10
1.2919493549
 20
11.1246115081
 10
1.2844470989
 20
11.1273659445
 10
1.276986242
 20
11.1303620993
 10
1.2695786234
 20
11.1335998471
 10
1.2622360821
 20
11.1370790625
 10
1.2561775003
 20
11.1401612222
 10
1.2501908806
 20
11.1434016057
 10
1.2442947708
 20
11.1467908383
 10
1.238503048
 20
11.1503224819
 10
1.2328109051
 20
11.1540018464
 10
1.2272088644
 20
11.1578371784
 10
1.2216906548
 20
11.1618348365
 10
1.2162628334
 20
11.1659936271
 10
1.2109351638
 20
11.1703104684
 10
1.20571741
 20
11.1747822786
 10
1.2006193358
 20
11.1794059762
 10
1.1956507051
 20
11.1841784792
 10
1.1908201423
 20
11.1890959322
 10
1.1861317145
 20
11.1941513839
 10
1.1815883496
 20
11.1993371096
 10
1.1771929752
 20
11.2046453841
 10
1.1729485192
 20
11.2100684826
 10
1.1688579093
 20
11.21559868
 10
1.1649223763
 20
11.2212312675
 10
1.1611363636
 20
11.2269736
 10
1.1574926176
 20
11.2328360485
 10
1.1539873411
 20
11.238823251
 10
1.1506305623
 20
11.2449169136
 10
1.1474357657
 20
11.2510930097
 10
1.143831009
 20
11.2585835871
 10
1.1404794023
 20
11.2661424294
 10
1.1373814234
 20
11.273753696
 10
1.1345375499
 20
11.2814015462
 10
1.1319482594
 20
11.2890701394
 10
1.1296133316
 20
11.2967459068
 10
1.1275297543
 20
11.3044243668
 10
1.125693817
 20
11.3121033098
 10
1.1241018094
 20
11.3197805263
 10
1.1227500212
 20
11.3274538065
 10
1.1216360321
 20
11.3351246076
 10
1.1207625816
 20
11.3428090535
 10
1.1201336993
 20
11.350526935
 10
1.1197534149
 20
11.3582980426
 10
1.119625758
 20
11.366142167
  0
LWPOLYLINE
  5
33E
100
AcDbEntity
  8
0
100
AcDbPolyline
 62
253
  6
CONTINUOUS
 90
53
 70
0
 10
-0.2867946152
 20
12.7728788333
 10
-0.2946385347
 20
12.773006125
 10
-0.302403258
 20
12.7733849889
 10
-0.3101082004
 20
12.7740109083
 10
-0.3177727776
 20
12.7748793666
 10
-0.3254164049
 20
12.7759858471
 10
-0.3330545473
 20
12.777326887
 10
-0.340686867
 20
12.7789032394
 10
-0.3483090755
 20
12.7807167111
 10
-0.3559168845
 20
12.782769109
 10
-0.3635060055
 20
12.78506224
 10
-0.3710708658
 20
12.7875975301
 10
-0.3786007554
 20
12.7903748817
 10
-0.38608368
 20
12.7933938161
 10
-0.3935076453
 20
12.7966538548
 10
-0.4008606569
 20
12.8001545193
 10
-0.4069233554
 20
12.8032536341
 10
-0.4129097671
 20
12.8065098113
 10
-0.4188012079
 20
12.8099133444
 10
-0.4245835403
 20
12.8134573387
 10
-0.430260813
 20
12.8171461473
 10
-0.4358416215
 20
12.820986935
 10
-0.4424184115
 20
12.8258037205
 10
-0.448853826
 20
12.8308448921
 10
-0.455133021
 20
12.8361056681
 10
-0.4612411524
 20
12.8415812672
 10
-0.4671633759
 20
12.8472669079
 10
-0.4728866307
 20
12.8531565471
 10
-0.4784049883
 20
12.8592390943
 10
-0.4837143033
 20
12.8655021975
 10
-0.4888104304
 20
12.8719335046
 10
-0.4936892243
 20
12.8785206636
 10
-0.4975873477
 20
12.8841228718
 10
-0.5013380933
 20
12.8898341858
 10
-0.5049478876
 20
12.8956640591
 10
-0.508419911
 20
12.9016164492
 10
-0.5117443575
 20
12.9076733314
 10
-0.5149081748
 20
12.9138111852
 10
-0.5184780241
 20
12.9212545411
 10
-0.5217972792
 20
12.9287649768
 10
-0.5248654475
 20
12.9363268424
 10
-0.5276820362
 20
12.9439244877
 10
-0.5302465528
 20
12.9515422628
 10
-0.5325591955
 20
12.959166758
 10
-0.5346229261
 20
12.9667935246
 10
-0.5364413974
 20
12.9744203538
 10
-0.5380182619
 20
12.9820450373
 10
-0.5393571726
 20
12.9896653666
 10
-0.5404605114
 20
12.997282764
 10
-0.5413255773
 20
13.0049131763
 10
-0.5419483988
 20
13.0125761809
 10
-0.5423250042
 20
13.0202913555
 10
-0.5424514219
 20
13.0280782777
  0
LWPOLYLINE
  5
33F
100
AcDbEntity
  8
0
100
AcDbPolyline
 62
253
  6
CONTINUOUS
 90
53
 70
0
 10
1.8271921288
 20
13.479810222
 10
1.83258878
 20
13.4742123634
 10
1.8377587379
 20
13.4684933281
 10
1.8427184661
 20
13.4626421554
 10
1.8474844282
 20
13.456647885
 10
1.8520730876
 20
13.4504995563
 10
1.856497405
 20
13.4441882689
 10
1.8607563288
 20
13.4377133627
 10
1.8648453049
 20
13.4310762375
 10
1.8687597789
 20
13.4242782933
 10
1.8724951963
 20
13.41732093
 10
1.8760463454
 20
13.4102067527
 10
1.8794053839
 20
13.4029431865
 10
1.8825638123
 20
13.3955388618
 10
1.8855131307
 20
13.388002409
 10
1.8882448397
 20
13.3803424584
 10
1.890348627
 20
13.3738735809
 10
1.8922888239
 20
13.367345091
 10
1.8940588604
 20
13.360777145
 10
1.8956534168
 20
13.3541844508
 10
1.8970721748
 20
13.3475599205
 10
1.8983160666
 20
13.3408910175
 10
1.8995776315
 20
13.332818292
 10
1.9005807776
 20
13.3246790429
 10
1.9013175513
 20
13.316488696
 10
1.9017799989
 20
13.3082626774
 10
1.9019601669
 20
13.3000164126
 10
1.9018524559
 20
13.291764959
 10
1.9014606839
 20
13.283521899
 10
1.9007910235
 20
13.2753004465
 10
1.8998496469
 20
13.2671138151
 10
1.8986427265
 20
13.2589752189
 10
1.8974376186
 20
13.2522359313
 10
1.8960502759
 20
13.2455267209
 10
1.8944785822
 20
13.238835131
 10
1.8927220168
 20
13.2321551339
 10
1.8907864389
 20
13.2255064182
 10
1.8886793028
 20
13.2189151016
 10
1.8859344255
 20
13.2111124335
 10
1.8829640025
 20
13.2034413893
 10
1.879778798
 20
13.1959133291
 10
1.8763895758
 20
13.1885396125
 10
1.8728071001
 20
13.1813315997
 10
1.8690410443
 20
13.1742985986
 10
1.8650967195
 20
13.1674417107
 10
1.8609783463
 20
13.1607599857
 10
1.8566901454
 20
13.1542524732
 10
1.8522363374
 20
13.1479182228
 10
1.8476176327
 20
13.1417545915
 10
1.8428207004
 20
13.1357521655
 10
1.8378286997
 20
13.1298998385
 10
1.8326247895
 20
13.124186504
 10
1.8271921288
 20
13.1186010554
  0
LWPOLYLINE
  5
340
100
AcDbEntity
  8
0
100
AcDbPolyline
 62
253
  6
CONTINUOUS
 90
7
 70
0
 10
10.1491621731
 20
-22.1743627749
 10
10.1502138694
 20
-22.1669768377
 10
10.1513073879
 20
-22.1537011664
 10
10.1524148495
 20
-22.1346043883
 10
10.1534876144
 20
-22.109784738
 10
10.1545197457
 20
-22.0793672612
 10
10.1565491727
 20
-22.0023624893
  0
LWPOLYLINE
  5
341
100
AcDbEntity
  8
0
100
AcDbPolyline
 62
253
  6
CONTINUOUS
 90
36
 70
0
 10
-2.2195216568
 20
13.5551635553
 10
-2.2137803331
 20
13.5550899708
 10
-2.2080607963
 20
13.5548711215
 10
-2.2023617472
 20
13.5545098638
 10
-2.1966818861
 20
13.554009054
 10
-2.1910199138
 20
13.5533715487
 10
-2.1853745309
 20
13.5526002041
 10
-2.1797444379
 20
13.5516978766
 10
-2.174129194
 20
13.5506673037
 10
-2.168531793
 20
13.5495107462
 10
-2.162956087
 20
13.5482303461
 10
-2.1574059284
 20
13.5468282453
 10
-2.1518851694
 20
13.5453065856
 10
-2.1463976623
 20
13.5436675091
 10
-2.1409472593
 20
13.5419131576
 10
-2.135537413
 20
13.5400454556
 10
-2.1301699768
 20
13.538065458
 10
-2.1248464042
 20
13.5359740022
 10
-2.1195681488
 20
13.5337719255
 10
-2.1143366643
 20
13.5314600655
 10
-2.1091534043
 20
13.5290392596
 10
-2.1040198224
 20
13.5265103452
 10
-2.0989376181
 20
13.5238740783
 10
-2.093909475
 20
13.5211308903
 10
-2.0889383227
 20
13.5182811308
 10
-2.0840270908
 20
13.5153251497
 10
-2.0791787086
 20
13.5122632968
 10
-2.0743961059
 20
13.509095922
 10
-2.0696822122
 20
13.5058233751
 10
-2.0650397782
 20
13.5024454522
 10
-2.0604708403
 20
13.4989597352
 10
-2.055977256
 20
13.4953632522
 10
-2.0515608829
 20
13.4916530312
 10
-2.0472235784
 20
13.4878261005
 10
-2.0429672003
 20
13.483879488
 10
-2.0387936059
 20
13.479810222
  0
LWPOLYLINE
  5
342
100
AcDbEntity
  8
0
100
AcDbPolyline
 62
253
  6
CONTINUOUS
 90
36
 70
0
 10
1.6461113001
 20
13.5551635553
 10
1.651864276
 20
13.555089613
 10
1.6575952644
 20
13.5548697096
 10
1.6633055924
 20
13.5545067302
 10
1.6689965869
 20
13.55400356
 10
1.6746695749
 20
13.5533630842
 10
1.6803258834
 20
13.552588188
 10
1.6859668393
 20
13.5516817566
 10
1.6915928913
 20
13.55064657
 10
1.6972009737
 20
13.5494849874
 10
1.7027871426
 20
13.548199263
 10
1.7083474541
 20
13.546791651
 10
1.7138779642
 20
13.5452644054
 10
1.719374729
 20
13.5436197802
 10
1.7248338044
 20
13.5418600298
 10
1.7302516834
 20
13.5399871827
 10
1.7356266059
 20
13.5380023659
 10
1.740957249
 20
13.5359064811
 10
1.7462422895
 20
13.5337004298
 10
1.7514804042
 20
13.5313851135
 10
1.7566702701
 20
13.5289614339
 10
1.7618105642
 20
13.5264302925
 10
1.7668997076
 20
13.5237925117
 10
1.7719350997
 20
13.5210485966
 10
1.776913884
 20
13.518198973
 10
1.7818332041
 20
13.515244067
 10
1.7866902036
 20
13.5121843043
 10
1.7914820262
 20
13.509020111
 10
1.7962058155
 20
13.5057519127
 10
1.8008589036
 20
13.5023795877
 10
1.8054393766
 20
13.4989008219
 10
1.8099455092
 20
13.4953127537
 10
1.8143755761
 20
13.4916125214
 10
1.8187278519
 20
13.4877972631
 10
1.8230006112
 20
13.4838641173
 10
1.8271921288
 20
13.479810222
  0
LWPOLYLINE
  5
343
100
AcDbEntity
  8
0
100
AcDbPolyline
 62
253
  6
CONTINUOUS
 90
54
 70
0
 10
-0.2867946152
 20
14.3560396663
 10
-0.2800972752
 20
14.3559461092
 10
-0.2734684449
 20
14.3556678535
 10
-0.2668970712
 20
14.355208523
 10
-0.2603721005
 20
14.3545717414
 10
-0.2538824796
 20
14.3537611324
 10
-0.247417155
 20
14.3527803198
 10
-0.2396795218
 20
14.3513828904
 10
-0.2319673477
 20
14.3497465219
 10
-0.2242870218
 20
14.3478721503
 10
-0.216644933
 20
14.3457607115
 10
-0.2090474705
 20
14.3434131417
 10
-0.2015013021
 20
14.3408304292
 10
-0.1940142105
 20
14.3380137727
 10
-0.1865942572
 20
14.3349644232
 10
-0.1792495036
 20
14.3316836317
 10
-0.1719880112
 20
14.3281726495
 10
-0.166007681
 20
14.3250729235
 10
-0.1601044063
 20
14.3218211174
 10
-0.154291824
 20
14.3184241369
 10
-0.1485801521
 20
14.3148866303
 10
-0.1429659332
 20
14.311204217
 10
-0.1374422907
 20
14.3073702589
 10
-0.1309282934
 20
14.302562895
 10
-0.1245499113
 20
14.2975329056
 10
-0.1183222318
 20
14.2922854483
 10
-0.1122603421
 20
14.286825681
 10
-0.1063793297
 20
14.2811587615
 10
-0.1006923063
 20
14.2752906484
 10
-0.0952044815
 20
14.2692305044
 10
-0.0899190897
 20
14.2629882928
 10
-0.0848393648
 20
14.2565739771
 10
-0.0799685411
 20
14.2499975209
 10
-0.0760702614
 20
14.2443980234
 10
-0.0723141458
 20
14.238683924
 10
-0.0686950424
 20
14.2328462996
 10
-0.0652109781
 20
14.2268817871
 10
-0.0618726962
 20
14.220809264
 10
-0.0586941186
 20
14.2146531679
 10
-0.0551063675
 20
14.2071856321
 10
-0.0517694744
 20
14.1996492943
 10
-0.0486842749
 20
14.192060507
 10
-0.0458516049
 20
14.1844356228
 10
-0.0432723001
 20
14.1767909944
 10
-0.0409464264
 20
14.169140509
 10
-0.0388709706
 20
14.1614881928
 10
-0.0370421496
 20
14.1538356063
 10
-0.0354561803
 20
14.1461843103
 10
-0.0341092798
 20
14.1385358656
 10
-0.0329989914
 20
14.1308883707
 10
-0.0321281646
 20
14.1232260761
 10
-0.0315009752
 20
14.1155297702
 10
-0.0311215993
 20
14.1077802412
 10
-0.0309942127
 20
14.0999582774
  0
LINE
  5
344
100
AcDbEntity
  8
0
100
AcDbLine
 62
7
  6
CONTINUOUS
 10
7.5422464675
 20
22.0588995252
 11
7.1940598642
 21
22.0272936048
  0
LWPOLYLINE
  5
345
100
AcDbEntity
  8
0
100
AcDbPolyline
 62
253
  6
CONTINUOUS
 90
14
 70
0
 10
-10.7895777367
 20
20.7264871522
 10
-10.8364150799
 20
20.7257810707
 10
-10.8815330553
 20
20.7248817588
 10
-10.9244942027
 20
20.7237979363
 10
-10.9648819745
 20
20.7225401117
 10
-11.0023047744
 20
20.7211204808
 10
-11.0363997539
 20
20.7195528083
 10
-11.0668363312
 20
20.717852294
 10
-11.0933193957
 20
20.7160354261
 10
-11.1155921698
 20
20.7141198208
 10
-11.1334386987
 20
20.7121240516
 10
-11.146685944
 20
20.7100674693
 10
-11.1552054613
 20
20.7079700144
 10
-11.1589146463
 20
20.7058520236
  0
LINE
  5
346
100
AcDbEntity
  8
0
100
AcDbLine
 62
253
  6
CONTINUOUS
 10
-10.6925737379
 20
20.7272941797
 11
-10.7895777367
 21
20.7264871522
  0
LINE
  5
347
100
AcDbEntity
  8
0
100
AcDbLine
 62
253
  6
CONTINUOUS
 10
10.1652234141
 20
20.7272941483
 11
5.4383174644
 21
20.7223149121
  0
LINE
  5
348
100
AcDbEntity
  8
0
100
AcDbLine
 62
253
  6
CONTINUOUS
 10
5.4383174644
 20
20.7223149121
 11
0.7058933483
 21
20.7202570391
  0
LINE
  5
349
100
AcDbEntity
  8
0
100
AcDbLine
 62
253
  6
CONTINUOUS
 10
0.7058933483
 20
20.7202570391
 11
-6.1030072969
 21
20.7224182325
  0
LINE
  5
34A
100
AcDbEntity
  8
0
100
AcDbLine
 62
253
  6
CONTINUOUS
 10
-6.1030072969
 20
20.7224182325
 11
-10.692573738
 21
20.7272941659
  0
LWPOLYLINE
  5
34B
100
AcDbEntity
  8
0
100
AcDbPolyline
 62
253
  6
CONTINUOUS
 90
15
 70
0
 10
10.1652225627
 20
20.7272936332
 10
10.2622256524
 20
20.7264866314
 10
10.3090626007
 20
20.7257805716
 10
10.3541802383
 20
20.7248812871
 10
10.397141117
 20
20.7237974969
 10
10.4375287001
 20
20.7225397089
 10
10.4749514008
 20
20.7211201182
 10
10.5090463788
 20
20.7195524889
 10
10.5394830588
 20
20.7178520201
 10
10.5659663352
 20
20.7160351993
 10
10.5882394334
 20
20.7141196417
 10
10.6060863997
 20
20.7121239201
 10
10.6193341948
 20
20.7100673845
 10
10.6278543717
 20
20.7079699744
 10
10.6315643213
 20
20.7058520257
  0
LINE
  5
34C
100
AcDbEntity
  8
0
100
AcDbLine
 62
7
  6
CONTINUOUS
 10
-8.0695967929
 20
22.0588995252
 11
-7.7214101896
 21
22.0272936048
  0
LINE
  5
34D
100
AcDbEntity
  8
0
100
AcDbLine
 62
7
  6
CONTINUOUS
 10
-3.6577535325
 20
22.0588995252
 11
-4.0059401358
 21
22.0272936048
  0
LWPOLYLINE
  5
34E
100
AcDbEntity
  8
0
100
AcDbPolyline
 62
253
  6
CONTINUOUS
 90
16
 70
0
 10
-10.6765124984
 20
21.8744161084
 10
-10.7287141248
 20
21.8716140631
 10
-10.7803447364
 20
21.8633814737
 10
-10.8308396331
 20
21.8498084034
 10
-10.8796465549
 20
21.831043319
 10
-10.9262316764
 20
21.807291483
 10
-10.9700854531
 20
21.7788127228
 10
-11.0107282575
 20
21.7459185542
 10
-11.0477156021
 20
21.7089687699
 10
-11.0806429657
 20
21.6683675347
 10
-11.1091502453
 20
21.6245589434
 10
-11.1329256976
 20
21.5780221464
 10
-11.1517093319
 20
21.5292661214
 10
-11.1652957485
 20
21.4788241184
 10
-11.1735363881
 20
21.4272478293
 10
-11.1763411609
 20
21.375101341
  0
LINE
  5
34F
100
AcDbEntity
  8
0
100
AcDbLine
 62
253
  6
CONTINUOUS
 10
10.1491621737
 20
21.8744161096
 11
6.7795966044
 21
21.8643899733
  0
LINE
  5
350
100
AcDbEntity
  8
0
100
AcDbLine
 62
253
  6
CONTINUOUS
 10
6.7795966044
 20
21.8643899733
 11
3.4075505501
 21
21.8582358077
  0
LINE
  5
351
100
AcDbEntity
  8
0
100
AcDbLine
 62
253
  6
CONTINUOUS
 10
3.4075505501
 20
21.8582358077
 11
0.0338934557
 21
21.8559555982
  0
LINE
  5
352
100
AcDbEntity
  8
0
100
AcDbLine
 62
7
  6
CONTINUOUS
 10
7.0208547835
 20
22.0220528269
 11
3.6517948912
 21
22.0220528269
  0
LINE
  5
353
100
AcDbEntity
  8
0
100
AcDbLine
 62
7
  6
CONTINUOUS
 10
-4.1791452165
 20
22.0220528269
 11
-7.5482051088
 21
22.0220528269
  0
LINE
  5
354
100
AcDbEntity
  8
0
100
AcDbLine
 62
7
  6
CONTINUOUS
 10
10.2413406311
 20
22.0588995252
 11
7.5422464675
 21
22.0588995252
  0
LINE
  5
355
100
AcDbEntity
  8
0
100
AcDbLine
 62
7
  6
CONTINUOUS
 10
3.1304032071
 20
22.0588995252
 11
-3.6577535325
 21
22.0588995252
  0
LINE
  5
356
100
AcDbEntity
  8
0
100
AcDbLine
 62
7
  6
CONTINUOUS
 10
-8.0695967929
 20
22.0588995252
 11
-10.7686909565
 21
22.0588995252
  0
LINE
  5
357
100
AcDbEntity
  8
0
100
AcDbLine
 62
253
  6
CONTINUOUS
 10
0.0338934557
 20
21.8559555982
 11
-3.3338342013
 21
21.8575425328
  0
LINE
  5
358
100
AcDbEntity
  8
0
100
AcDbLine
 62
253
  6
CONTINUOUS
 10
-3.3338342013
 20
21.8575425328
 11
-6.8048478429
 21
21.8632280763
  0
LWPOLYLINE
  5
359
100
AcDbEntity
  8
0
100
AcDbPolyline
 62
253
  6
CONTINUOUS
 90
3
 70
0
 10
-6.8048478429
 20
21.8632280763
 10
-9.858934084
 20
21.8716552024
 10
-10.6765124984
 20
21.8744161084
  0
LWPOLYLINE
  5
35A
100
AcDbEntity
  8
0
100
AcDbPolyline
 62
253
  6
CONTINUOUS
 90
16
 70
0
 10
10.1491621737
 20
21.8744161096
 10
10.2013631437
 20
21.8716141344
 10
10.2529931853
 20
21.8633817373
 10
10.3034876142
 20
21.8498089571
 10
10.3522941666
 20
21.8310442409
 10
10.3988790393
 20
21.8072928208
 10
10.4427327277
 20
21.778814469
 10
10.4833755986
 20
21.7459206568
 10
10.520363136
 20
21.7089711479
 10
10.5532908024
 20
21.6683700636
 10
10.5817984641
 20
21.624561463
 10
10.6055743291
 20
21.5780244862
 10
10.6243583579
 20
21.5292681139
 10
10.6379451072
 20
21.4788256005
 10
10.6461859771
 20
21.4272486421
 10
10.6489908362
 20
21.3751013422
  0
LINE
  5
35B
100
AcDbEntity
  8
0
100
AcDbLine
 62
7
  6
CONTINUOUS
 10
3.1304032071
 20
22.0588995252
 11
3.4785898104
 21
22.0272936048
  0
LINE
  5
35C
100
AcDbEntity
  8
0
100
AcDbLine
 62
7
  6
CONTINUOUS
 10
-30.806723825
 20
-22.3588461917
 11
-34.6794161053
 21
-22.1558869895
  0
LWPOLYLINE
  5
35D
100
AcDbEntity
  8
0
100
AcDbPolyline
 62
253
  6
CONTINUOUS
 90
22
 70
0
 10
-34.3268771179
 20
-22.1743627749
 10
-34.4110852884
 20
-22.1669768377
 10
-34.4945483501
 20
-22.1537011664
 10
-34.5768554983
 20
-22.1346043883
 10
-34.6576006149
 20
-22.109784738
 10
-34.7363884781
 20
-22.0793672612
 10
-34.8128359685
 20
-22.0435012326
 10
-34.8865711776
 20
-22.0023624893
 10
-34.9572277077
 20
-21.9561570465
 10
-35.0244507842
 20
-21.9051174204
 10
-35.0879094986
 20
-21.8494986661
 10
-35.1472950011
 20
-21.7895758977
 10
-35.2023140617
 20
-21.7256460665
 10
-35.2526979532
 20
-21.658025471
 10
-35.2982006334
 20
-21.5870493138
 10
-35.3385973038
 20
-21.5130698736
 10
-35.3736889347
 20
-21.4364588378
 10
-35.4033089068
 20
-21.3575892648
 10
-35.4273168532
 20
-21.2768333762
 10
-35.4455941511
 20
-21.1945828834
 10
-35.458048421
 20
-21.1112484974
 10
-35.4646171823
 20
-21.0272408325
  0
LINE
  5
35E
100
AcDbEntity
  8
0
100
AcDbLine
 62
253
  6
CONTINUOUS
 10
-35.464617172
 20
-21.0272408463
 11
-35.4589128371
 21
-21.0269398238
  0
LINE
  5
35F
100
AcDbEntity
  8
0
100
AcDbLine
 62
253
  6
CONTINUOUS
 10
-35.4589128371
 20
-21.0269398238
 11
-35.2553299957
 21
-21.0177989606
  0
LINE
  5
360
100
AcDbEntity
  8
0
100
AcDbLine
 62
253
  6
CONTINUOUS
 10
-35.2553299957
 20
-21.0177989606
 11
-34.979289356
 21
-21.0057986901
  0
LINE
  5
361
100
AcDbEntity
  8
0
100
AcDbLine
 62
253
  6
CONTINUOUS
 10
-35.8149747771
 20
-21.0201422835
 11
-35.4646171745
 21
-21.0272408324
  0
LINE
  5
362
100
AcDbEntity
  8
0
100
AcDbLine
 62
253
  6
CONTINUOUS
 10
-30.7631791289
 20
-21.8611280374
 11
-34.313797614
 21
-21.6750480075
  0
LWPOLYLINE
  5
363
100
AcDbEntity
  8
0
100
AcDbPolyline
 62
253
  6
CONTINUOUS
 90
22
 70
0
 10
-34.313797614
 20
-21.6750480075
 10
-34.3632045145
 20
-21.6706954983
 10
-34.4117787511
 20
-21.6630017285
 10
-34.4595203236
 20
-21.651966698
 10
-34.5066793512
 20
-21.6375014952
 10
-34.5530057148
 20
-21.6196950317
 10
-34.5977490572
 20
-21.5988140427
 10
-34.6408640604
 20
-21.5748137813
 10
-34.6823960425
 20
-21.5477389944
 10
-34.7217305998
 20
-21.5179906571
 10
-34.7588350527
 20
-21.4855271219
 10
-34.7937420809
 20
-21.4503900364
 10
-34.8259353194
 20
-21.4131053186
 10
-34.8553714642
 20
-21.3736432906
 10
-34.8820938194
 20
-21.3320336302
 10
-34.9057159324
 20
-21.2888912887
 10
-34.9261934768
 20
-21.2441724407
 10
-34.9435707791
 20
-21.1979209117
 10
-34.9575943655
 20
-21.1508831293
 10
-34.9681797448
 20
-21.1033079029
 10
-34.9754114083
 20
-21.0549464232
 10
-34.979289356
 20
-21.0057986901
  0
LINE
  5
364
100
AcDbEntity
  8
0
100
AcDbLine
 62
253
  6
CONTINUOUS
 10
-30.4098007124
 20
-18.0834649345
 11
-30.4326764327
 21
-18.0834649343
  0
LWPOLYLINE
  5
365
100
AcDbEntity
  8
0
100
AcDbPolyline
 62
253
  6
CONTINUOUS
 90
14
 70
0
 10
-36.1473356409
 20
-12.8627817475
 10
-36.1473965859
 20
-12.862736122
 10
-36.1474601053
 20
-12.8625998126
 10
-36.1475261806
 20
-12.8623736699
 10
-36.1475947937
 20
-12.8620585444
 10
-36.1476659262
 20
-12.8616552869
 10
-36.1477395599
 20
-12.8611647479
 10
-36.1478156764
 20
-12.860587778
 10
-36.1478942554
 20
-12.8599251323
 10
-36.1479752679
 20
-12.859177184
 10
-36.1480586828
 20
-12.8583442106
 10
-36.148144469
 20
-12.8574264899
 10
-36.1482325954
 20
-12.8564242994
 10
-36.1483230309
 20
-12.8553379169
  0
LWPOLYLINE
  5
366
100
AcDbEntity
  8
0
100
AcDbPolyline
 62
253
  6
CONTINUOUS
 90
11
 70
0
 10
-34.3268770945
 20
21.8744161096
 10
-34.3280971785
 20
21.8716141344
 10
-34.3290177162
 20
21.8633817373
 10
-34.3296286396
 20
21.8498089571
 10
-34.3299232671
 20
21.8310442409
 10
-34.3298983761
 20
21.8072928208
 10
-34.3295542385
 20
21.778814469
 10
-34.3288946182
 20
21.7459206568
 10
-34.3279267296
 20
21.7089711479
 10
-34.3266611585
 20
21.6683700636
 10
-34.3232954402
 20
21.5780244862
  0
LWPOLYLINE
  5
367
100
AcDbEntity
  8
0
100
AcDbPolyline
 62
253
  6
CONTINUOUS
 90
9
 70
0
 10
-34.3268771179
 20
-22.1743627749
 10
-34.3280972199
 20
-22.1715607297
 10
-34.3290177663
 20
-22.1633281403
 10
-34.32962869
 20
-22.14975507
 10
-34.3299233104
 20
-22.1309899856
 10
-34.3298984062
 20
-22.1072381496
 10
-34.3295542509
 20
-22.0787593894
 10
-34.3288946107
 20
-22.0458652208
 10
-34.3279267025
 20
-22.0089154364
  0
LWPOLYLINE
  5
368
100
AcDbEntity
  8
0
100
AcDbPolyline
 62
253
  6
CONTINUOUS
 90
10
 70
0
 10
-36.201466901
 20
-11.2036325812
 10
-36.2015190928
 20
-11.2035618022
 10
-36.2015746604
 20
-11.2033513756
 10
-36.2016335854
 20
-11.2030041668
 10
-36.2016958497
 20
-11.2025230414
 10
-36.2017614352
 20
-11.2019108649
 10
-36.2018303235
 20
-11.2011705027
 10
-36.2019173275
 20
-11.2001160713
 10
-36.2020090516
 20
-11.1988811723
 10
-36.202105486
 20
-11.1974657991
  0
LINE
  5
369
100
AcDbEntity
  8
0
100
AcDbLine
 62
253
  6
CONTINUOUS
 10
-36.1484157445
 20
-12.8541676198
 11
-36.1485107057
 21
-12.8529136703
  0
LINE
  5
36A
100
AcDbEntity
  8
0
100
AcDbLine
 62
253
  6
CONTINUOUS
 10
-36.1486078876
 20
-12.8515762676
 11
-36.1487072637
 21
-12.8501555953
  0
LINE
  5
36B
100
AcDbEntity
  8
0
100
AcDbLine
 62
253
  6
CONTINUOUS
 10
-36.2157745858
 20
-10.4391784196
 11
-36.2154269798
 21
-10.4444752368
  0
LINE
  5
36C
100
AcDbEntity
  8
0
100
AcDbLine
 62
253
  6
CONTINUOUS
 10
-36.175268663
 20
-12.0961488072
 11
-36.1749934172
 21
-12.1004048982
  0
LINE
  5
36D
100
AcDbEntity
  8
0
100
AcDbLine
 62
253
  6
CONTINUOUS
 10
-36.1488088076
 20
-12.848651837
 11
-36.149126183
 21
-12.843643883
  0
LINE
  5
36E
100
AcDbEntity
  8
0
100
AcDbLine
 62
253
  6
CONTINUOUS
 10
-36.202105486
 20
-11.1974657991
 11
-36.2023124463
 21
-11.1940936036
  0
LINE
  5
36F
100
AcDbEntity
  8
0
100
AcDbLine
 62
253
  6
CONTINUOUS
 10
-36.2154269798
 20
-10.4444752368
 11
-36.2150569258
 21
-10.4507903259
  0
LINE
  5
370
100
AcDbEntity
  8
0
100
AcDbLine
 62
253
  6
CONTINUOUS
 10
-36.1749934172
 20
-12.1004048982
 11
-36.1746961366
 21
-12.1055007634
  0
LINE
  5
371
100
AcDbEntity
  8
0
100
AcDbLine
 62
253
  6
CONTINUOUS
 10
-36.149126183
 20
-12.843643883
 11
-36.1495789017
 21
-12.8357960216
  0
LINE
  5
372
100
AcDbEntity
  8
0
100
AcDbLine
 62
253
  6
CONTINUOUS
 10
-36.2023124463
 20
-11.1940936036
 11
-36.2025378424
 21
-11.1900053352
  0
LINE
  5
373
100
AcDbEntity
  8
0
100
AcDbLine
 62
253
  6
CONTINUOUS
 10
-36.2150569258
 20
-10.4507903259
 11
-36.2145653236
 21
-10.4600517926
  0
LINE
  5
374
100
AcDbEntity
  8
0
100
AcDbLine
 62
253
  6
CONTINUOUS
 10
-36.1746961366
 20
-12.1055007634
 11
-36.174208417
 21
-12.1147225814
  0
LINE
  5
375
100
AcDbEntity
  8
0
100
AcDbLine
 62
253
  6
CONTINUOUS
 10
-36.1495789017
 20
-12.8357960216
 11
-36.1543978579
 21
-12.7407790708
  0
LINE
  5
376
100
AcDbEntity
  8
0
100
AcDbLine
 62
253
  6
CONTINUOUS
 10
-36.1695909964
 20
-12.2097595344
 11
-36.159607377
 21
-12.4026386104
  0
LINE
  5
377
100
AcDbEntity
  8
0
100
AcDbLine
 62
253
  6
CONTINUOUS
 10
-36.174208417
 20
-12.1147225814
 11
-36.1695909964
 21
-12.2097595344
  0
LINE
  5
378
100
AcDbEntity
  8
0
100
AcDbLine
 62
253
  6
CONTINUOUS
 10
-36.2025378424
 20
-11.1900053352
 11
-36.2029070998
 21
-11.182596594
  0
LINE
  5
379
100
AcDbEntity
  8
0
100
AcDbLine
 62
253
  6
CONTINUOUS
 10
-36.2145653236
 20
-10.4600517926
 11
-36.2138237717
 21
-10.4755329981
  0
LINE
  5
37A
100
AcDbEntity
  8
0
100
AcDbLine
 62
253
  6
CONTINUOUS
 10
-36.1543978579
 20
-12.7407790708
 11
-36.1628910329
 21
-12.5608671377
  0
LINE
  5
37B
100
AcDbEntity
  8
0
100
AcDbLine
 62
253
  6
CONTINUOUS
 10
-36.159607377
 20
-12.4026386104
 11
-36.1581736558
 21
-12.4340267929
  0
LINE
  5
37C
100
AcDbEntity
  8
0
100
AcDbLine
 62
253
  6
CONTINUOUS
 10
-36.2029070998
 20
-11.182596594
 11
-36.2034490429
 21
-11.170513837
  0
LINE
  5
37D
100
AcDbEntity
  8
0
100
AcDbLine
 62
253
  6
CONTINUOUS
 10
-36.2138237717
 20
-10.4755329981
 11
-36.2127121399
 21
-10.501481228
  0
LINE
  5
37E
100
AcDbEntity
  8
0
100
AcDbLine
 62
253
  6
CONTINUOUS
 10
-36.1628910329
 20
-12.5608671377
 11
-36.1640411074
 21
-12.5331539367
  0
LINE
  5
37F
100
AcDbEntity
  8
0
100
AcDbLine
 62
253
  6
CONTINUOUS
 10
-36.1581736558
 20
-12.4340267929
 11
-36.1561760311
 21
-12.482915612
  0
LINE
  5
380
100
AcDbEntity
  8
0
100
AcDbLine
 62
253
  6
CONTINUOUS
 10
-36.2034490429
 20
-11.170513837
 11
-36.2043488909
 21
-11.1481505034
  0
LINE
  5
381
100
AcDbEntity
  8
0
100
AcDbLine
 62
253
  6
CONTINUOUS
 10
-36.2127121399
 20
-10.501481228
 11
-36.2113554028
 21
-10.536941146
  0
LINE
  5
382
100
AcDbEntity
  8
0
100
AcDbLine
 62
253
  6
CONTINUOUS
 10
-36.1640411074
 20
-12.5331539367
 11
-36.1664573275
 21
-12.4677275989
  0
LINE
  5
383
100
AcDbEntity
  8
0
100
AcDbLine
 62
253
  6
CONTINUOUS
 10
-36.2043488909
 20
-11.1481505034
 11
-36.2054862245
 21
-11.116820063
  0
LINE
  5
384
100
AcDbEntity
  8
0
100
AcDbLine
 62
253
  6
CONTINUOUS
 10
-36.1561760311
 20
-12.482915612
 11
-36.1540983777
 21
-12.5395479937
  0
LINE
  5
385
100
AcDbEntity
  8
0
100
AcDbLine
 62
253
  6
CONTINUOUS
 10
-36.1259998581
 20
-13.8244289623
 11
-36.125995337
 21
-13.8245598028
  0
LINE
  5
386
100
AcDbEntity
  8
0
100
AcDbLine
 62
253
  6
CONTINUOUS
 10
-36.1664573275
 20
-12.4677275989
 11
-36.1670820145
 21
-12.4496464578
  0
LINE
  5
387
100
AcDbEntity
  8
0
100
AcDbLine
 62
253
  6
CONTINUOUS
 10
-36.1076685147
 20
14.0502476949
 11
-36.1244437617
 21
13.5640305995
  0
LINE
  5
388
100
AcDbEntity
  8
0
100
AcDbLine
 62
253
  6
CONTINUOUS
 10
-36.1529759681
 20
12.6148143141
 11
-36.1495242772
 21
12.7109718839
  0
LINE
  5
389
100
AcDbEntity
  8
0
100
AcDbLine
 62
7
  6
CONTINUOUS
 10
-36.0212657791
 20
16.3034502921
 11
-36.1076685147
 21
14.0502476949
  0
LINE
  5
38A
100
AcDbEntity
  8
0
100
AcDbLine
 62
253
  6
CONTINUOUS
 10
-36.1829065272
 20
11.4854305434
 11
-36.1808624582
 21
11.54099076
  0
LINE
  5
38B
100
AcDbEntity
  8
0
100
AcDbLine
 62
253
  6
CONTINUOUS
 10
-36.1169515906
 20
13.2753004465
 11
-36.1196274252
 21
13.2034413893
  0
LINE
  5
38C
100
AcDbEntity
  8
0
100
AcDbLine
 62
253
  6
CONTINUOUS
 10
-36.2173505629
 20
10.3832309611
 11
-36.2163617165
 21
10.4098666816
  0
LINE
  5
38D
100
AcDbEntity
  8
0
100
AcDbLine
 62
253
  6
CONTINUOUS
 10
-36.1632694974
 20
11.2748651084
 11
-36.1648383539
 21
11.2346604462
  0
LINE
  5
38E
100
AcDbEntity
  8
0
100
AcDbLine
 62
253
  6
CONTINUOUS
 10
-36.2317092194
 20
9.2639228963
 11
-36.2327937683
 21
9.2369409149
  0
LINE
  5
38F
100
AcDbEntity
  8
0
100
AcDbLine
 62
253
  6
CONTINUOUS
 10
-36.1495242772
 20
12.7109718839
 11
-36.1334907407
 21
13.0997700009
  0
LINE
  5
390
100
AcDbEntity
  8
0
100
AcDbLine
 62
253
  6
CONTINUOUS
 10
-36.1808624582
 20
11.54099076
 11
-36.1797114716
 21
11.5686613379
  0
LINE
  5
391
100
AcDbEntity
  8
0
100
AcDbLine
 62
253
  6
CONTINUOUS
 10
-36.2163617165
 20
10.4098666816
 11
-36.2158083229
 21
10.4231457647
  0
LINE
  5
392
100
AcDbEntity
  8
0
100
AcDbLine
 62
253
  6
CONTINUOUS
 10
-36.1196274252
 20
13.2034413893
 11
-36.1219544298
 21
13.1479182228
  0
LINE
  5
393
100
AcDbEntity
  8
0
100
AcDbLine
 62
253
  6
CONTINUOUS
 10
-36.1353457239
 20
12.8647141732
 11
-36.1586629271
 21
12.3312442971
  0
LINE
  5
394
100
AcDbEntity
  8
0
100
AcDbLine
 62
253
  6
CONTINUOUS
 10
-36.1648383539
 20
11.2346604462
 11
-36.1663008345
 21
11.2012883853
  0
LINE
  5
395
100
AcDbEntity
  8
0
100
AcDbLine
 62
253
  6
CONTINUOUS
 10
-36.2327937683
 20
9.2369409149
 11
-36.2336161914
 21
9.2188746308
  0
LINE
  5
396
100
AcDbEntity
  8
0
100
AcDbLine
 62
253
  6
CONTINUOUS
 10
-36.1334907407
 20
13.0997700009
 11
-36.1160222909
 21
13.4877145476
  0
LINE
  5
397
100
AcDbEntity
  8
0
100
AcDbLine
 62
253
  6
CONTINUOUS
 10
-36.1797114716
 20
11.5686613379
 11
-36.1789998849
 21
11.5841114538
  0
LINE
  5
398
100
AcDbEntity
  8
0
100
AcDbLine
 62
253
  6
CONTINUOUS
 10
-36.1219544298
 20
13.1479182228
 11
-36.1353457239
 21
12.8647141732
  0
LINE
  5
399
100
AcDbEntity
  8
0
100
AcDbLine
 62
253
  6
CONTINUOUS
 10
-36.2158083229
 20
10.4231457647
 11
-36.215406038
 21
10.4318045091
  0
LWPOLYLINE
  5
39A
100
AcDbEntity
  8
0
100
AcDbPolyline
 62
7
  6
CONTINUOUS
 90
3
 70
0
 10
-35.8149747726
 20
20.7201957041
 10
-35.9221637752
 20
18.5561357399
 10
-36.0212657791
 20
16.3034502921
  0
LINE
  5
39B
100
AcDbEntity
  8
0
100
AcDbLine
 62
253
  6
CONTINUOUS
 10
-36.1586629271
 20
12.3312442971
 11
-36.1595991846
 21
12.3117444019
  0
LINE
  5
39C
100
AcDbEntity
  8
0
100
AcDbLine
 62
253
  6
CONTINUOUS
 10
-36.1663008345
 20
11.2012883853
 11
-36.1672811075
 21
11.1811812725
  0
LINE
  5
39D
100
AcDbEntity
  8
0
100
AcDbLine
 62
253
  6
CONTINUOUS
 10
-36.1789998849
 20
11.5841114538
 11
-36.1784943532
 21
11.5941625956
  0
LINE
  5
39E
100
AcDbEntity
  8
0
100
AcDbLine
 62
253
  6
CONTINUOUS
 10
-36.215406038
 20
10.4318045091
 11
-36.2152190851
 21
10.4354614809
  0
LINE
  5
39F
100
AcDbEntity
  8
0
100
AcDbLine
 62
253
  6
CONTINUOUS
 10
-36.1160222909
 20
13.4877145476
 11
-36.1149551562
 21
13.5088257441
  0
LINE
  5
3A0
100
AcDbEntity
  8
0
100
AcDbLine
 62
253
  6
CONTINUOUS
 10
-36.2336161914
 20
9.2188746308
 11
-36.2342152405
 21
9.2071012487
  0
LINE
  5
3A1
100
AcDbEntity
  8
0
100
AcDbLine
 62
253
  6
CONTINUOUS
 10
-36.1595991846
 20
12.3117444019
 11
-36.1601032443
 21
12.3023023136
  0
LINE
  5
3A2
100
AcDbEntity
  8
0
100
AcDbLine
 62
253
  6
CONTINUOUS
 10
-36.1784943532
 20
11.5941625956
 11
-36.1781145824
 21
11.6011135465
  0
LINE
  5
3A3
100
AcDbEntity
  8
0
100
AcDbLine
 62
253
  6
CONTINUOUS
 10
-36.1672811075
 20
11.1811812725
 11
-36.1682431165
 21
11.163323269
  0
LINE
  5
3A4
100
AcDbEntity
  8
0
100
AcDbLine
 62
253
  6
CONTINUOUS
 10
-36.2151293037
 20
10.4371178736
 11
-36.2150420765
 21
10.4386568876
  0
LINE
  5
3A5
100
AcDbEntity
  8
0
100
AcDbLine
 62
253
  6
CONTINUOUS
 10
-36.1149551562
 20
13.5088257441
 11
-36.1142889677
 21
13.5208691315
  0
LINE
  5
3A6
100
AcDbEntity
  8
0
100
AcDbLine
 62
253
  6
CONTINUOUS
 10
-36.2342152405
 20
9.2071012487
 11
-36.2346038957
 21
9.2001634239
  0
LINE
  5
3A7
100
AcDbEntity
  8
0
100
AcDbLine
 62
253
  6
CONTINUOUS
 10
-36.1601032443
 20
12.3023023136
 11
-36.1603851516
 21
12.2974786292
  0
LINE
  5
3A8
100
AcDbEntity
  8
0
100
AcDbLine
 62
253
  6
CONTINUOUS
 10
-36.1682431165
 20
11.163323269
 11
-36.1689431289
 21
11.1515234597
  0
LINE
  5
3A9
100
AcDbEntity
  8
0
100
AcDbLine
 62
253
  6
CONTINUOUS
 10
-36.1781145824
 20
11.6011135465
 11
-36.1777602026
 21
11.6070495597
  0
LINE
  5
3AA
100
AcDbEntity
  8
0
100
AcDbLine
 62
253
  6
CONTINUOUS
 10
-36.1142889677
 20
13.5208691315
 11
-36.11366359
 21
13.5312379383
  0
LINE
  5
3AB
100
AcDbEntity
  8
0
100
AcDbLine
 62
253
  6
CONTINUOUS
 10
-36.2149574732
 20
10.4400764819
 11
-36.2148755634
 21
10.4413746157
  0
LINE
  5
3AC
100
AcDbEntity
  8
0
100
AcDbLine
 62
253
  6
CONTINUOUS
 10
-36.2346038957
 20
9.2001634239
 11
-36.2349811886
 21
9.1940243934
  0
LWPOLYLINE
  5
3AD
100
AcDbEntity
  8
0
100
AcDbPolyline
 62
253
  6
CONTINUOUS
 90
17
 70
0
 10
-36.1603851516
 20
12.2974786292
 10
-36.1606212114
 20
12.2937762097
 10
-36.1607311097
 20
12.292184348
 10
-36.1608355343
 20
12.2907674782
 10
-36.1609346213
 20
12.289524706
 10
-36.1610465672
 20
12.288263513
 10
-36.1611506304
 20
12.2872596917
 10
-36.1612464184
 20
12.2865212009
 10
-36.1613335384
 20
12.2860559997
 10
-36.161411598
 20
12.285872047
 10
-36.1614802831
 20
12.2859749726
 10
-36.1615395941
 20
12.2863610903
 10
-36.1615896101
 20
12.2870243846
 10
-36.16163041
 20
12.2879588402
 10
-36.1616620729
 20
12.2891584417
 10
-36.1616815347
 20
12.2903572463
 10
-36.1616947452
 20
12.2917381278
  0
LINE
  5
3AE
100
AcDbEntity
  8
0
100
AcDbLine
 62
253
  6
CONTINUOUS
 10
-36.1689431289
 20
11.1515234597
 11
-36.1696266575
 21
11.1410309066
  0
LINE
  5
3AF
100
AcDbEntity
  8
0
100
AcDbLine
 62
253
  6
CONTINUOUS
 10
-36.11366359
 20
13.5312379383
 11
-36.1132240204
 21
13.5378747887
  0
LWPOLYLINE
  5
3B0
100
AcDbEntity
  8
0
100
AcDbPolyline
 62
253
  6
CONTINUOUS
 90
11
 70
0
 10
-36.1777602026
 20
11.6070495597
 10
-36.1774327556
 20
11.6119679817
 10
-36.1772793458
 20
11.6140488231
 10
-36.177132723
 20
11.6158822099
 10
-36.1769928093
 20
11.6174719103
 10
-36.1768595266
 20
11.6188216927
 10
-36.1767327872
 20
11.6199340262
 10
-36.1766124647
 20
11.6208061835
 10
-36.176498423
 20
11.6214341382
 10
-36.176390526
 20
11.6218138637
 10
-36.1762886375
 20
11.6219413336
  0
LWPOLYLINE
  5
3B1
100
AcDbEntity
  8
0
100
AcDbPolyline
 62
253
  6
CONTINUOUS
 90
22
 70
0
 10
-36.2349811886
 20
9.1940243934
 10
-36.2353146295
 20
9.1891567734
 10
-36.2354613934
 20
9.1872008967
 10
-36.2356045287
 20
9.185414574
 10
-36.235743683
 20
9.1838031925
 10
-36.2358789518
 20
9.1823671993
 10
-36.236010542
 20
9.1811058063
 10
-36.2361637527
 20
9.1798231281
 10
-36.2363115208
 20
9.1787991623
 10
-36.2364534024
 20
9.178042332
 10
-36.2365889534
 20
9.1775610603
 10
-36.2367177301
 20
9.1773637701
 10
-36.236839354
 20
9.1774564771
 10
-36.2369537092
 20
9.1778355668
 10
-36.2370607452
 20
9.1784950174
 10
-36.2371604117
 20
9.1794288071
 10
-36.2372526581
 20
9.180630914
 10
-36.237323853
 20
9.181834232
 10
-36.2373899941
 20
9.1832218673
 10
-36.2374512154
 20
9.1847959879
 10
-36.2375075942
 20
9.1865571397
 10
-36.2375589807
 20
9.1884993821
  0
LWPOLYLINE
  5
3B2
100
AcDbEntity
  8
0
100
AcDbPolyline
 62
253
  6
CONTINUOUS
 90
10
 70
0
 10
-36.2147964169
 20
10.4425492481
 10
-36.2147201035
 20
10.4435983382
 10
-36.2146557102
 20
10.4444115098
 10
-36.2145935997
 20
10.4451244697
 10
-36.2145338321
 20
10.445734687
 10
-36.2144764678
 20
10.446239631
 10
-36.2144215671
 20
10.4466367707
 10
-36.2143691903
 20
10.4469235754
 10
-36.2143193976
 20
10.4470975141
 10
-36.2142722495
 20
10.4471560561
  0
LINE
  5
3B3
100
AcDbEntity
  8
0
100
AcDbLine
 62
253
  6
CONTINUOUS
 10
-36.1696266575
 20
11.1410309066
 11
-36.1701119644
 21
11.1342402918
  0
LWPOLYLINE
  5
3B4
100
AcDbEntity
  8
0
100
AcDbPolyline
 62
253
  6
CONTINUOUS
 90
3
 70
0
 10
-36.1132240204
 20
13.5378747887
 10
-36.112945734
 20
13.5417443271
 10
-36.112811169
 20
13.5435099684
  0
LWPOLYLINE
  5
3B5
100
AcDbEntity
  8
0
100
AcDbPolyline
 62
253
  6
CONTINUOUS
 90
22
 70
0
 10
-35.4646171572
 20
20.7272941473
 10
-35.4580483956
 20
20.8113018267
 10
-35.4455941243
 20
20.8946362229
 10
-35.4273168245
 20
20.9768867218
 10
-35.4033088771
 20
21.057642611
 10
-35.3736889055
 20
21.1365121807
 10
-35.3385972754
 20
21.2131232137
 10
-35.2982006053
 20
21.2871026529
 10
-35.2526979252
 20
21.3580788095
 10
-35.2023140339
 20
21.4256994044
 10
-35.1472949738
 20
21.4896292347
 10
-35.0879094719
 20
21.5495520023
 10
-35.0244507583
 20
21.6051707559
 10
-34.9572276825
 20
21.6562103815
 10
-34.8865711533
 20
21.7024158238
 10
-34.8128359451
 20
21.7435545668
 10
-34.7363884566
 20
21.7794205947
 10
-34.6576005956
 20
21.8098380711
 10
-34.5768554802
 20
21.8346577215
 10
-34.4945483314
 20
21.8537545001
 10
-34.4110852679
 20
21.8670301721
 10
-34.3268770945
 20
21.8744161096
  0
LWPOLYLINE
  5
3B6
100
AcDbEntity
  8
0
100
AcDbPolyline
 62
253
  6
CONTINUOUS
 90
22
 70
0
 10
-34.979289343
 20
20.7058520257
 10
-34.9754113897
 20
20.7549997587
 10
-34.968179722
 20
20.8033612384
 10
-34.9575943397
 20
20.8509364648
 10
-34.9435707523
 20
20.8979742471
 10
-34.9261934503
 20
20.9442257762
 10
-34.9057159062
 20
20.9889446242
 10
-34.8820937933
 20
21.0320869657
 10
-34.8553714382
 20
21.0736966261
 10
-34.8259352935
 20
21.1131586542
 10
-34.793742055
 20
21.150443372
 10
-34.7588350269
 20
21.1855804574
 10
-34.7217305741
 20
21.2180439924
 10
-34.6823960169
 20
21.2477923296
 10
-34.640864035
 20
21.2748671164
 10
-34.597749032
 20
21.2988673777
 10
-34.5530056898
 20
21.3197483667
 10
-34.5066793265
 20
21.3375548302
 10
-34.4595202992
 20
21.352020033
 10
-34.411778727
 20
21.3630550634
 10
-34.3632044907
 20
21.3707488332
 10
-34.3137975905
 20
21.3751013422
  0
LWPOLYLINE
  5
3B7
100
AcDbEntity
  8
0
100
AcDbPolyline
 62
253
  6
CONTINUOUS
 90
14
 70
0
 10
-36.1701119644
 20
11.1342402918
 10
-36.170618339
 20
11.1277987438
 10
-36.1708615988
 20
11.124958212
 10
-36.171097767
 20
11.1223718138
 10
-36.1713265572
 20
11.1200393383
 10
-36.1715479584
 20
11.1179578152
 10
-36.1717620279
 20
11.116123584
 10
-36.1719688233
 20
11.1145329846
 10
-36.1721684022
 20
11.1131823566
 10
-36.1723608619
 20
11.1120693205
 10
-36.1725464591
 20
11.1111966201
 10
-36.1727254904
 20
11.1105682799
 10
-36.1728982525
 20
11.1101883244
 10
-36.1730650419
 20
11.1100607782
  0
LWPOLYLINE
  5
3B8
100
AcDbEntity
  8
0
100
AcDbPolyline
 62
253
  6
CONTINUOUS
 90
13
 70
0
 10
-36.1126797635
 20
13.5451606834
 10
-36.1125516147
 20
13.5466944281
 10
-36.1124268195
 20
13.5481091585
 10
-36.112305475
 20
13.5494028305
 10
-36.1121876784
 20
13.5505734001
 10
-36.1120735267
 20
13.5516188233
 10
-36.1119631198
 20
13.5525367721
 10
-36.1118565687
 20
13.553323782
 10
-36.111753987
 20
13.5539761047
 10
-36.1116554885
 20
13.5544899917
 10
-36.1115611869
 20
13.5548616948
 10
-36.111471196
 20
13.5550874655
 10
-36.1113856295
 20
13.5551635553
  0
LWPOLYLINE
  5
3B9
100
AcDbEntity
  8
0
100
AcDbPolyline
 62
253
  6
CONTINUOUS
 90
16
 70
0
 10
-35.9131397365
 20
0.5979830385
 10
-35.9103762912
 20
0.5449944437
 10
-35.9023307745
 20
0.4937438825
 10
-35.8892205966
 20
0.4441137011
 10
-35.8709347012
 20
0.3957820205
 10
-35.8474513216
 20
0.3490696309
 10
-35.8192948597
 20
0.3050984978
 10
-35.7869171423
 20
0.2645577316
 10
-35.7503843588
 20
0.2275211354
 10
-35.7101484724
 20
0.1944228816
 10
-35.6667992358
 20
0.165781041
 10
-35.6207497953
 20
0.1418593878
 10
-35.5723711127
 20
0.1228207463
 10
-35.5222102545
 20
0.1089224351
 10
-35.4709755733
 20
0.1003767911
 10
-35.419327318
 20
0.0972348902
  0
LWPOLYLINE
  5
3BA
100
AcDbEntity
  8
0
100
AcDbPolyline
 62
253
  6
CONTINUOUS
 90
10
 70
0
 10
-35.4646171745
 20
-21.0272408324
 10
-35.5586652724
 20
-18.7135927161
 10
-35.6403937427
 20
-16.4379749585
 10
-35.710340231
 20
-14.2004573695
 10
-35.7684174941
 20
-12.0263115053
 10
-35.8159848829
 20
-9.8903947188
 10
-35.8547330448
 20
-7.7171254239
 10
-35.8844388946
 20
-5.4813253812
 10
-35.9040818123
 20
-3.2082449425
 10
-35.9131396566
 20
-0.8979297141
  0
LWPOLYLINE
  5
3BB
100
AcDbEntity
  8
0
100
AcDbPolyline
 62
253
  6
CONTINUOUS
 90
10
 70
0
 10
-34.979289356
 20
-21.0057986901
 10
-35.0724951018
 20
-18.6944339693
 10
-35.1544395586
 20
-16.4211882845
 10
-35.2251227264
 20
-14.1860616357
 10
-35.2839772805
 20
-12.0141888001
 10
-35.3315705456
 20
-9.8804350004
 10
-35.3696044955
 20
-7.7093959054
 10
-35.3986464548
 20
-5.4759367381
 10
-35.4181290989
 20
-3.2051922754
 10
-35.4286696466
 20
-0.794252599
  0
LWPOLYLINE
  5
3BC
100
AcDbEntity
  8
0
100
AcDbPolyline
 62
7
  6
CONTINUOUS
 90
5
 70
0
 10
-36.1813690679
 20
-12.0965461921
 10
-36.1076685147
 20
-14.3501943615
 10
-36.0212657791
 20
-16.6033969587
 10
-35.9221637752
 20
-18.8560824064
 10
-35.8149747726
 20
-21.0201423706
  0
LINE
  5
3BD
100
AcDbEntity
  8
0
100
AcDbLine
 62
253
  6
CONTINUOUS
 10
-36.2113554028
 20
-10.536941146
 11
-36.209528421
 21
-10.5910811995
  0
LINE
  5
3BE
100
AcDbEntity
  8
0
100
AcDbLine
 62
253
  6
CONTINUOUS
 10
-36.1540983777
 20
-12.5395479937
 11
-36.1514410963
 21
-12.6215998058
  0
LINE
  5
3BF
100
AcDbEntity
  8
0
100
AcDbLine
 62
253
  6
CONTINUOUS
 10
-36.2054862245
 20
-11.116820063
 11
-36.2079406936
 21
-11.0401672559
  0
LINE
  5
3C0
100
AcDbEntity
  8
0
100
AcDbLine
 62
253
  6
CONTINUOUS
 10
-36.1670820145
 20
-12.4496464578
 11
-36.1711786319
 21
-12.3208103902
  0
LINE
  5
3C1
100
AcDbEntity
  8
0
100
AcDbLine
 62
253
  6
CONTINUOUS
 10
-36.209528421
 20
-10.5910811995
 11
-36.2072821454
 21
-10.6677905307
  0
LINE
  5
3C2
100
AcDbEntity
  8
0
100
AcDbLine
 62
7
  6
CONTINUOUS
 10
-36.2423645243
 20
-9.8425240449
 11
-36.1813690679
 21
-12.0965461921
  0
LINE
  5
3C3
100
AcDbEntity
  8
0
100
AcDbLine
 62
253
  6
CONTINUOUS
 10
-36.1813690679
 20
-12.0965461921
 11
-36.1781727957
 21
-12.203016632
  0
LINE
  5
3C4
100
AcDbEntity
  8
0
100
AcDbLine
 62
253
  6
CONTINUOUS
 10
-36.1514410963
 20
-12.6215998058
 11
-36.14923723
 21
-12.7001893276
  0
LINE
  5
3C5
100
AcDbEntity
  8
0
100
AcDbLine
 62
253
  6
CONTINUOUS
 10
-36.2079406936
 20
-11.0401672559
 11
-36.2117013027
 21
-10.9047384217
  0
LINE
  5
3C6
100
AcDbEntity
  8
0
100
AcDbLine
 62
253
  6
CONTINUOUS
 10
-36.1711786319
 20
-12.3208103902
 11
-36.1744510876
 21
-12.2026202293
  0
LINE
  5
3C7
100
AcDbEntity
  8
0
100
AcDbLine
 62
253
  6
CONTINUOUS
 10
-36.2072821454
 20
-10.6677905307
 11
-36.2052664393
 21
-10.7487655456
  0
LINE
  5
3C8
100
AcDbEntity
  8
0
100
AcDbLine
 62
7
  6
CONTINUOUS
 10
-36.2906519689
 20
-7.5881995312
 11
-36.2423645243
 21
-9.8425240449
  0
LINE
  5
3C9
100
AcDbEntity
  8
0
100
AcDbLine
 62
253
  6
CONTINUOUS
 10
-36.2117013027
 20
-10.9047384217
 11
-36.2141675851
 21
-10.8000318155
  0
LINE
  5
3CA
100
AcDbEntity
  8
0
100
AcDbLine
 62
253
  6
CONTINUOUS
 10
-36.14923723
 20
-12.7001893276
 11
-36.1479716021
 21
-12.7536059344
  0
LINE
  5
3CB
100
AcDbEntity
  8
0
100
AcDbLine
 62
253
  6
CONTINUOUS
 10
-36.1744510876
 20
-12.2026202293
 11
-36.1756518547
 21
-12.1507909326
  0
LINE
  5
3CC
100
AcDbEntity
  8
0
100
AcDbLine
 62
253
  6
CONTINUOUS
 10
-36.1570794741
 20
11.6047812952
 11
-36.1569402481
 21
11.5985907507
  0
LINE
  5
3CD
100
AcDbEntity
  8
0
100
AcDbLine
 62
253
  6
CONTINUOUS
 10
-36.2052664393
 20
-10.7487655456
 11
-36.2039797696
 21
-10.8120928147
  0
LINE
  5
3CE
100
AcDbEntity
  8
0
100
AcDbLine
 62
253
  6
CONTINUOUS
 10
-36.2375589807
 20
9.1884993821
 11
-36.2376535183
 21
9.1933728295
  0
LWPOLYLINE
  5
3CF
100
AcDbEntity
  8
0
100
AcDbPolyline
 62
253
  6
CONTINUOUS
 90
9
 70
0
 10
-35.427619589
 20
0.2634274592
 10
-35.4269751901
 20
0.2262942431
 10
-35.4261985799
 20
0.1932284508
 10
-35.4252980269
 20
0.1645925413
 10
-35.4242834673
 20
0.1407114556
 10
-35.4231662975
 20
0.1218564946
 10
-35.421958929
 20
0.1082362713
 10
-35.4206745564
 20
0.0999988314
 10
-35.4193273179
 20
0.0972348902
  0
LINE
  5
3D0
100
AcDbEntity
  8
0
100
AcDbLine
 62
253
  6
CONTINUOUS
 10
-36.1479716021
 20
-12.7536059344
 11
-36.1473418618
 21
-12.7866491253
  0
LINE
  5
3D1
100
AcDbEntity
  8
0
100
AcDbLine
 62
253
  6
CONTINUOUS
 10
-36.2141675851
 20
-10.8000318155
 11
-36.2151566577
 21
-10.7482409585
  0
LINE
  5
3D2
100
AcDbEntity
  8
0
100
AcDbLine
 62
253
  6
CONTINUOUS
 10
-36.1756518547
 20
-12.1507909326
 11
-36.1761538528
 21
-12.1240829474
  0
LINE
  5
3D3
100
AcDbEntity
  8
0
100
AcDbLine
 62
253
  6
CONTINUOUS
 10
-36.2039797696
 20
-10.8120928147
 11
-36.203272478
 21
-10.8563291854
  0
LINE
  5
3D4
100
AcDbEntity
  8
0
100
AcDbLine
 62
253
  6
CONTINUOUS
 10
-36.1569402481
 20
11.5985907507
 11
-36.1568404074
 21
11.5920710333
  0
LINE
  5
3D5
100
AcDbEntity
  8
0
100
AcDbLine
 62
253
  6
CONTINUOUS
 10
-36.2151566577
 20
-10.7482409585
 11
-36.2154731396
 21
-10.7264653591
  0
LINE
  5
3D6
100
AcDbEntity
  8
0
100
AcDbLine
 62
253
  6
CONTINUOUS
 10
-36.1761538528
 20
-12.1240829474
 11
-36.1763349003
 21
-12.1114060042
  0
LINE
  5
3D7
100
AcDbEntity
  8
0
100
AcDbLine
 62
253
  6
CONTINUOUS
 10
-36.1473418618
 20
-12.7866491253
 11
-36.1469624987
 21
-12.8126651982
  0
LINE
  5
3D8
100
AcDbEntity
  8
0
100
AcDbLine
 62
253
  6
CONTINUOUS
 10
-36.2139383746
 20
10.4401719181
 11
-36.2139234659
 21
10.4387602276
  0
LINE
  5
3D9
100
AcDbEntity
  8
0
100
AcDbLine
 62
253
  6
CONTINUOUS
 10
-36.2376535183
 20
9.1933728295
 11
-36.2377273205
 21
9.1995611384
  0
LINE
  5
3DA
100
AcDbEntity
  8
0
100
AcDbLine
 62
253
  6
CONTINUOUS
 10
-36.203272478
 20
-10.8563291854
 11
-36.2029092855
 21
-10.8883717643
  0
LINE
  5
3DB
100
AcDbEntity
  8
0
100
AcDbLine
 62
253
  6
CONTINUOUS
 10
-36.1568404074
 20
11.5920710333
 11
-36.1567740535
 21
11.5854793957
  0
LINE
  5
3DC
100
AcDbEntity
  8
0
100
AcDbLine
 62
253
  6
CONTINUOUS
 10
-36.1107180875
 20
13.5436197802
 11
-36.1106808166
 21
13.5399871827
  0
LINE
  5
3DD
100
AcDbEntity
  8
0
100
AcDbLine
 62
253
  6
CONTINUOUS
 10
-36.2154731396
 20
-10.7264653591
 11
-36.2171818367
 21
-10.5502529847
  0
LINE
  5
3DE
100
AcDbEntity
  8
0
100
AcDbLine
 62
253
  6
CONTINUOUS
 10
-36.1469624987
 20
-12.8126651982
 11
-36.146814653
 21
-12.8274331472
  0
LINE
  5
3DF
100
AcDbEntity
  8
0
100
AcDbLine
 62
253
  6
CONTINUOUS
 10
-35.4284859623
 20
0.348299627
 11
-35.427619589
 21
0.2634274592
  0
LINE
  5
3E0
100
AcDbEntity
  8
0
100
AcDbLine
 62
253
  6
CONTINUOUS
 10
-36.1915396983
 20
11.1198279246
 11
-36.1915865321
 21
11.1246115081
  0
LINE
  5
3E1
100
AcDbEntity
  8
0
100
AcDbLine
 62
253
  6
CONTINUOUS
 10
-36.1763349003
 20
-12.1114060042
 11
-36.1764189458
 21
-12.1021494728
  0
LINE
  5
3E2
100
AcDbEntity
  8
0
100
AcDbLine
 62
253
  6
CONTINUOUS
 10
-36.2024539249
 20
-10.9937620456
 11
-36.2010680753
 21
-11.180694672
  0
LINE
  5
3E3
100
AcDbEntity
  8
0
100
AcDbLine
 62
253
  6
CONTINUOUS
 10
-36.2377273205
 20
9.1995611384
 11
-36.2377713481
 21
9.2065733612
  0
LWPOLYLINE
  5
3E4
100
AcDbEntity
  8
0
100
AcDbPolyline
 62
7
  6
CONTINUOUS
 90
4
 70
0
 10
-36.3591120492
 20
-0.9019785202
 10
-36.3490952674
 20
-3.0789298911
 10
-36.3262290113
 20
-5.3336442605
 10
-36.2906519689
 20
-7.5881995312
  0
LINE
  5
3E5
100
AcDbEntity
  8
0
100
AcDbLine
 62
253
  6
CONTINUOUS
 10
-36.146814653
 20
-12.8274331472
 11
-36.1467594695
 21
-12.8369835345
  0
LINE
  5
3E6
100
AcDbEntity
  8
0
100
AcDbLine
 62
253
  6
CONTINUOUS
 10
-36.2029092855
 20
-10.8883717643
 11
-36.2024539249
 21
-10.9937620456
  0
LINE
  5
3E7
100
AcDbEntity
  8
0
100
AcDbLine
 62
253
  6
CONTINUOUS
 10
-36.1106808166
 20
13.5399871827
 11
-36.1106604085
 21
13.5359064811
  0
LINE
  5
3E8
100
AcDbEntity
  8
0
100
AcDbLine
 62
253
  6
CONTINUOUS
 10
-36.1567740535
 20
11.5854793957
 11
-36.1567202433
 21
11.5744864422
  0
LINE
  5
3E9
100
AcDbEntity
  8
0
100
AcDbLine
 62
253
  6
CONTINUOUS
 10
-36.2171818367
 20
-10.5502529847
 11
-36.2177536606
 21
-10.4550864019
  0
LINE
  5
3EA
100
AcDbEntity
  8
0
100
AcDbLine
 62
253
  6
CONTINUOUS
 10
-36.2010680753
 20
-11.180694672
 11
-36.2010516616
 21
-11.1860830228
  0
LINE
  5
3EB
100
AcDbEntity
  8
0
100
AcDbLine
 62
253
  6
CONTINUOUS
 10
-36.1915865321
 20
11.1246115081
 11
-36.1916029478
 21
11.1303620993
  0
LINE
  5
3EC
100
AcDbEntity
  8
0
100
AcDbLine
 62
253
  6
CONTINUOUS
 10
-35.4287590069
 20
0.4439843177
 11
-35.4284859623
 21
0.348299627
  0
LINE
  5
3ED
100
AcDbEntity
  8
0
100
AcDbLine
 62
253
  6
CONTINUOUS
 10
-36.2139117669
 20
10.4372284544
 11
-36.2138957318
 21
10.4319346694
  0
LWPOLYLINE
  5
3EE
100
AcDbEntity
  8
0
100
AcDbPolyline
 62
253
  6
CONTINUOUS
 90
19
 70
0
 10
-36.1764189458
 20
-12.1021494728
 10
-36.1764305617
 20
-12.0972257901
 10
-36.1764223187
 20
-12.0951721926
 10
-36.1764047544
 20
-12.0933941668
 10
-36.176378054
 20
-12.0918894746
 10
-36.1763424029
 20
-12.090655878
 10
-36.1762979862
 20
-12.0896911388
 10
-36.1762543782
 20
-12.0890909859
 10
-36.1762047279
 20
-12.0886748924
 10
-36.1761489515
 20
-12.0884417655
 10
-36.1760870223
 20
-12.0883906429
 10
-36.1760191436
 20
-12.088521085
 10
-36.1759455756
 20
-12.0888327828
 10
-36.1758501378
 20
-12.0894444786
 10
-36.1757472544
 20
-12.0903092197
 10
-36.1756372971
 20
-12.0914194881
 10
-36.1755206377
 20
-12.0927677659
 10
-36.1753976481
 20
-12.0943465352
 10
-36.175268663
 20
-12.0961488072
  0
LINE
  5
3EF
100
AcDbEntity
  8
0
100
AcDbLine
 62
253
  6
CONTINUOUS
 10
-36.1616947452
 20
12.2917381278
 11
-36.1617025636
 21
12.2950530379
  0
LINE
  5
3F0
100
AcDbEntity
  8
0
100
AcDbLine
 62
253
  6
CONTINUOUS
 10
-36.2377713481
 20
9.2065733612
 11
-36.237783658
 21
9.2184741139
  0
LINE
  5
3F1
100
AcDbEntity
  8
0
100
AcDbLine
 62
253
  6
CONTINUOUS
 10
-36.1467594695
 20
-12.8369835345
 11
-36.1467521744
 21
-12.8451409537
  0
LINE
  5
3F2
100
AcDbEntity
  8
0
100
AcDbLine
 62
253
  6
CONTINUOUS
 10
-35.4286696466
 20
-0.794252599
 11
-35.4286979886
 21
-0.6950588484
  0
LINE
  5
3F3
100
AcDbEntity
  8
0
100
AcDbLine
 62
253
  6
CONTINUOUS
 10
-36.1567202433
 20
11.5744864422
 11
-36.1567230116
 21
11.5620587653
  0
LINE
  5
3F4
100
AcDbEntity
  8
0
100
AcDbLine
 62
253
  6
CONTINUOUS
 10
-36.1106604085
 20
13.5359064811
 11
-36.1106612806
 21
13.5289614339
  0
LINE
  5
3F5
100
AcDbEntity
  8
0
100
AcDbLine
 62
253
  6
CONTINUOUS
 10
-36.2177536606
 20
-10.4550864019
 11
-36.2177463008
 21
-10.4488077584
  0
LWPOLYLINE
  5
3F6
100
AcDbEntity
  8
0
100
AcDbPolyline
 62
253
  6
CONTINUOUS
 90
10
 70
0
 10
-35.9131396576
 20
0.597983042
 10
-35.9055636311
 20
2.6634073281
 10
-35.8888891116
 20
4.7595585566
 10
-35.8627177932
 20
6.8863942178
 10
-35.8269536268
 20
9.0276209024
 10
-35.7810260119
 20
11.1994393099
 10
-35.7231601438
 20
13.4505285761
 10
-35.6517193085
 20
15.7970528349
 10
-35.565934173
 20
18.2226758043
 10
-35.4646171751
 20
20.7272941483
  0
LWPOLYLINE
  5
3F7
100
AcDbEntity
  8
0
100
AcDbPolyline
 62
253
  6
CONTINUOUS
 90
3
 70
0
 10
-36.2010506744
 20
-11.1877297479
 10
-36.2010611917
 20
-11.1922126098
 10
-36.2010692051
 20
-11.1935517718
  0
LINE
  5
3F8
100
AcDbEntity
  8
0
100
AcDbLine
 62
253
  6
CONTINUOUS
 10
-36.2138957318
 20
10.4319346694
 11
-36.2139183659
 21
10.4233026675
  0
LINE
  5
3F9
100
AcDbEntity
  8
0
100
AcDbLine
 62
253
  6
CONTINUOUS
 10
-36.1916029478
 20
11.1303620993
 11
-36.1915720536
 21
11.1401612222
  0
LINE
  5
3FA
100
AcDbEntity
  8
0
100
AcDbLine
 62
253
  6
CONTINUOUS
 10
-36.1617025636
 20
12.2950530379
 11
-36.1616857544
 21
12.299082126
  0
LINE
  5
3FB
100
AcDbEntity
  8
0
100
AcDbLine
 62
253
  6
CONTINUOUS
 10
-36.237783658
 20
9.2184741139
 11
-36.2377049901
 21
9.2367450106
  0
LINE
  5
3FC
100
AcDbEntity
  8
0
100
AcDbLine
 62
253
  6
CONTINUOUS
 10
-36.1467521744
 20
-12.8451409537
 11
-36.1467738017
 21
-12.8497646622
  0
LINE
  5
3FD
100
AcDbEntity
  8
0
100
AcDbLine
 62
253
  6
CONTINUOUS
 10
-36.1567230116
 20
11.5620587653
 11
-36.1568204957
 21
11.5433177239
  0
LINE
  5
3FE
100
AcDbEntity
  8
0
100
AcDbLine
 62
253
  6
CONTINUOUS
 10
-35.4211425665
 20
2.6606281602
 11
-35.4287590069
 21
0.4439843177
  0
LINE
  5
3FF
100
AcDbEntity
  8
0
100
AcDbLine
 62
253
  6
CONTINUOUS
 10
-36.1106612806
 20
13.5289614339
 11
-36.110721084
 21
13.518198973
  0
LWPOLYLINE
  5
400
100
AcDbEntity
  8
0
100
AcDbPolyline
 62
253
  6
CONTINUOUS
 90
9
 70
0
 10
-35.4211425665
 20
2.6606281602
 10
-35.4043231058
 20
4.7546332046
 10
-35.3775941425
 20
6.8792309849
 10
-35.3420605457
 20
9.0182516157
 10
-35.2966174464
 20
11.1878649824
 10
-35.2379502372
 20
13.4365807412
 10
-35.164954049
 20
15.7805687774
 10
-35.0787337509
 20
18.2036592055
 10
-34.979289343
 20
20.7058520257
  0
LINE
  5
401
100
AcDbEntity
  8
0
100
AcDbLine
 62
253
  6
CONTINUOUS
 10
-36.2177463008
 20
-10.4488077584
 11
-36.2177107749
 21
-10.4433695111
  0
LWPOLYLINE
  5
402
100
AcDbEntity
  8
0
100
AcDbPolyline
 62
253
  6
CONTINUOUS
 90
11
 70
0
 10
-35.4286979886
 20
-0.6950588484
 10
-35.4281248179
 20
-0.6041742625
 10
-35.427619493
 20
-0.5633742098
 10
-35.4269750942
 20
-0.526240973
 10
-35.4261984839
 20
-0.493175163
 10
-35.4252979309
 20
-0.4645392407
 10
-35.4242833712
 20
-0.4406581447
 10
-35.4231662013
 20
-0.4218031745
 10
-35.4219588327
 20
-0.4081829437
 10
-35.42067446
 20
-0.3999454989
 10
-35.4193272215
 20
-0.3971815559
  0
LINE
  5
403
100
AcDbEntity
  8
0
100
AcDbLine
 62
253
  6
CONTINUOUS
 10
-36.2139183659
 20
10.4233026675
 11
-36.2140461184
 21
10.4070971292
  0
LINE
  5
404
100
AcDbEntity
  8
0
100
AcDbLine
 62
253
  6
CONTINUOUS
 10
-36.2377049901
 20
9.2367450106
 11
-36.2362511697
 21
9.3782795026
  0
LINE
  5
405
100
AcDbEntity
  8
0
100
AcDbLine
 62
253
  6
CONTINUOUS
 10
-36.1915720536
 20
11.1401612222
 11
-36.1914531377
 21
11.1540018464
  0
LINE
  5
406
100
AcDbEntity
  8
0
100
AcDbLine
 62
253
  6
CONTINUOUS
 10
-36.2010794799
 20
-11.1948120275
 11
-36.2010920209
 21
-11.1959925509
  0
LINE
  5
407
100
AcDbEntity
  8
0
100
AcDbLine
 62
253
  6
CONTINUOUS
 10
-36.1616857544
 20
12.299082126
 11
-36.161594944
 21
12.3079588389
  0
LINE
  5
408
100
AcDbEntity
  8
0
100
AcDbLine
 62
253
  6
CONTINUOUS
 10
-36.1568204957
 20
11.5433177239
 11
-36.1570954676
 21
11.5168407383
  0
LINE
  5
409
100
AcDbEntity
  8
0
100
AcDbLine
 62
253
  6
CONTINUOUS
 10
-36.2182140985
 20
10.1182703123
 11
-36.2239281081
 21
9.5784775932
  0
LINE
  5
40A
100
AcDbEntity
  8
0
100
AcDbLine
 62
253
  6
CONTINUOUS
 10
-36.110721084
 20
13.518198973
 11
-36.1108921813
 21
13.5023795877
  0
LWPOLYLINE
  5
40B
100
AcDbEntity
  8
0
100
AcDbPolyline
 62
253
  6
CONTINUOUS
 90
12
 70
0
 10
-36.1467738017
 20
-12.8497646622
 10
-36.1468162194
 20
-12.8537035123
 10
-36.146845109
 20
-12.8554078327
 10
-36.1468790707
 20
-12.8569346807
 10
-36.1469180735
 20
-12.8582850388
 10
-36.1469620868
 20
-12.859459889
 10
-36.1470110796
 20
-12.8604602137
 10
-36.147065069
 20
-12.8612862224
 10
-36.1471242635
 20
-12.8619350339
 10
-36.1471889194
 20
-12.8624029944
 10
-36.1472592931
 20
-12.8626864502
 10
-36.1473356409
 20
-12.8627817475
  0
LINE
  5
40C
100
AcDbEntity
  8
0
100
AcDbLine
 62
253
  6
CONTINUOUS
 10
-36.2140461184
 20
10.4070971292
 11
-36.2143982389
 21
10.3795169628
  0
LINE
  5
40D
100
AcDbEntity
  8
0
100
AcDbLine
 62
253
  6
CONTINUOUS
 10
-36.1914531377
 20
11.1540018464
 11
-36.1911757344
 21
11.1747822786
  0
LINE
  5
40E
100
AcDbEntity
  8
0
100
AcDbLine
 62
253
  6
CONTINUOUS
 10
-36.2143982389
 20
10.3795169628
 11
-36.2182140985
 21
10.1182703123
  0
LINE
  5
40F
100
AcDbEntity
  8
0
100
AcDbLine
 62
253
  6
CONTINUOUS
 10
-36.2362511697
 20
9.3782795026
 11
-36.2292683003
 21
9.8830577994
  0
LWPOLYLINE
  5
410
100
AcDbEntity
  8
0
100
AcDbPolyline
 62
253
  6
CONTINUOUS
 90
21
 70
0
 10
-36.2177107749
 20
-10.4433695111
 10
-36.2176472921
 20
-10.4387366704
 10
-36.2176048585
 20
-10.4367314568
 10
-36.217555178
 20
-10.4349391745
 10
-36.2174981704
 20
-10.4333642253
 10
-36.2174337922
 20
-10.4320122379
 10
-36.2173620088
 20
-10.4308891474
 10
-36.2172827856
 20
-10.4300008891
 10
-36.2171960879
 20
-10.4293533982
 10
-36.2171181479
 20
-10.4290016539
 10
-36.2170352291
 20
-10.4288224455
 10
-36.2169475672
 20
-10.4288169875
 10
-36.2168553213
 20
-10.4289867105
 10
-36.2167583439
 20
-10.4293339097
 10
-36.216656411
 20
-10.4298610966
 10
-36.2165273208
 20
-10.4307347626
 10
-36.2163909019
 20
-10.4318750992
 10
-36.2162472844
 20
-10.4332859789
 10
-36.2160965983
 20
-10.4349712737
 10
-36.2159389739
 20
-10.4369348559
 10
-36.2157745858
 20
-10.4391784196
  0
LINE
  5
411
100
AcDbEntity
  8
0
100
AcDbLine
 62
253
  6
CONTINUOUS
 10
-36.2011068352
 20
-11.1970924385
 11
-36.2011239306
 21
-11.198110767
  0
LINE
  5
412
100
AcDbEntity
  8
0
100
AcDbLine
 62
253
  6
CONTINUOUS
 10
-36.1570954676
 20
11.5168407383
 11
-36.1576360582
 21
11.4813369889
  0
LINE
  5
413
100
AcDbEntity
  8
0
100
AcDbLine
 62
253
  6
CONTINUOUS
 10
-36.2239281081
 20
9.5784775932
 11
-36.2247873787
 21
9.5227275095
  0
LINE
  5
414
100
AcDbEntity
  8
0
100
AcDbLine
 62
253
  6
CONTINUOUS
 10
-36.161594944
 20
12.3079588389
 11
-36.1613626219
 21
12.3226131104
  0
LINE
  5
415
100
AcDbEntity
  8
0
100
AcDbLine
 62
253
  6
CONTINUOUS
 10
-36.1108921813
 20
13.5023795877
 11
-36.1112496217
 21
13.479810222
  0
LINE
  5
416
100
AcDbEntity
  8
0
100
AcDbLine
 62
253
  6
CONTINUOUS
 10
-36.1911757344
 20
11.1747822786
 11
-36.1905436874
 21
11.2100684826
  0
LINE
  5
417
100
AcDbEntity
  8
0
100
AcDbLine
 62
253
  6
CONTINUOUS
 10
-36.2292683003
 20
9.8830577994
 11
-36.2259963951
 21
10.0650175785
  0
LWPOLYLINE
  5
418
100
AcDbEntity
  8
0
100
AcDbPolyline
 62
7
  6
CONTINUOUS
 90
5
 70
0
 10
-36.2423645243
 20
9.5425773784
 10
-36.2906519689
 20
7.2882528646
 10
-36.3262290113
 20
5.033697594
 10
-36.3490952674
 20
2.7789832245
 10
-36.3591120492
 20
0.6020318536
  0
LINE
  5
419
100
AcDbEntity
  8
0
100
AcDbLine
 62
253
  6
CONTINUOUS
 10
-36.1576360582
 20
11.4813369889
 11
-36.1585427221
 21
11.4356355148
  0
LINE
  5
41A
100
AcDbEntity
  8
0
100
AcDbLine
 62
253
  6
CONTINUOUS
 10
-36.2247873787
 20
9.5227275095
 11
-36.2262226414
 21
9.4515011644
  0
LINE
  5
41B
100
AcDbEntity
  8
0
100
AcDbLine
 62
253
  6
CONTINUOUS
 10
-36.1613626219
 20
12.3226131104
 11
-36.1607992072
 21
12.3498523278
  0
LINE
  5
41C
100
AcDbEntity
  8
0
100
AcDbLine
 62
253
  6
CONTINUOUS
 10
-36.1112496217
 20
13.479810222
 11
-36.1119943023
 21
13.4441882689
  0
LINE
  5
41D
100
AcDbEntity
  8
0
100
AcDbLine
 62
253
  6
CONTINUOUS
 10
-36.1905436874
 20
11.2100684826
 11
-36.1889348687
 21
11.2814015462
  0
LWPOLYLINE
  5
41E
100
AcDbEntity
  8
0
100
AcDbPolyline
 62
253
  6
CONTINUOUS
 90
11
 70
0
 10
-36.2011433148
 20
-11.1990466131
 10
-36.2011649954
 20
-11.1998990536
 10
-36.2011889802
 20
-11.2006671653
 10
-36.2012152768
 20
-11.201350025
 10
-36.2012438992
 20
-11.2019466136
 10
-36.2012748867
 20
-11.202455529
 10
-36.2013082852
 20
-11.2028752734
 10
-36.2013441402
 20
-11.2032043486
 10
-36.2013824973
 20
-11.203441257
 10
-36.2014234024
 20
-11.2035845005
 10
-36.201466901
 20
-11.2036325812
  0
LINE
  5
41F
100
AcDbEntity
  8
0
100
AcDbLine
 62
253
  6
CONTINUOUS
 10
-36.2259963951
 20
10.0650175785
 11
-36.2228315861
 21
10.1974690526
  0
LINE
  5
420
100
AcDbEntity
  8
0
100
AcDbLine
 62
253
  6
CONTINUOUS
 10
-36.1585427221
 20
11.4356355148
 11
-36.1598628944
 21
11.3817822036
  0
LINE
  5
421
100
AcDbEntity
  8
0
100
AcDbLine
 62
7
  6
CONTINUOUS
 10
-36.1813690679
 20
11.7965995256
 11
-36.2423645243
 21
9.5425773784
  0
LINE
  5
422
100
AcDbEntity
  8
0
100
AcDbLine
 62
253
  6
CONTINUOUS
 10
-36.2262226414
 20
9.4515011644
 11
-36.2279957325
 21
9.3804510811
  0
LINE
  5
423
100
AcDbEntity
  8
0
100
AcDbLine
 62
253
  6
CONTINUOUS
 10
-36.1607992072
 20
12.3498523278
 11
-36.1591155272
 21
12.4158737903
  0
LINE
  5
424
100
AcDbEntity
  8
0
100
AcDbLine
 62
253
  6
CONTINUOUS
 10
-36.1119943023
 20
13.4441882689
 11
-36.1134253119
 21
13.388002409
  0
LINE
  5
425
100
AcDbEntity
  8
0
100
AcDbLine
 62
253
  6
CONTINUOUS
 10
-36.1809568083
 20
11.7490238636
 11
-36.185605191
 21
11.578864538
  0
LINE
  5
426
100
AcDbEntity
  8
0
100
AcDbLine
 62
253
  6
CONTINUOUS
 10
-36.169766562
 20
12.178765261
 11
-36.1813690679
 21
11.7965995256
  0
LINE
  5
427
100
AcDbEntity
  8
0
100
AcDbLine
 62
253
  6
CONTINUOUS
 10
-36.1889348687
 20
11.2814015462
 11
-36.1862213426
 21
11.3815599666
  0
LINE
  5
428
100
AcDbEntity
  8
0
100
AcDbLine
 62
253
  6
CONTINUOUS
 10
-36.2228315861
 20
10.1974690526
 11
-36.2193245526
 21
10.3223011153
  0
LINE
  5
429
100
AcDbEntity
  8
0
100
AcDbLine
 62
253
  6
CONTINUOUS
 10
-36.1598628944
 20
11.3817822036
 11
-36.1614512532
 21
11.3278296993
  0
LINE
  5
42A
100
AcDbEntity
  8
0
100
AcDbLine
 62
253
  6
CONTINUOUS
 10
-36.1591155272
 20
12.4158737903
 11
-36.1551650708
 21
12.5483459531
  0
LINE
  5
42B
100
AcDbEntity
  8
0
100
AcDbLine
 62
253
  6
CONTINUOUS
 10
-36.2279957325
 20
9.3804510811
 11
-36.2299091732
 21
9.3158637833
  0
LINE
  5
42C
100
AcDbEntity
  8
0
100
AcDbLine
 62
253
  6
CONTINUOUS
 10
-36.1134253119
 20
13.388002409
 11
-36.1155682295
 21
13.316488696
  0
LINE
  5
42D
100
AcDbEntity
  8
0
100
AcDbLine
 62
253
  6
CONTINUOUS
 10
-36.2077942932
 20
10.8286206279
 11
-36.2163598573
 21
10.5607346235
  0
LINE
  5
42E
100
AcDbEntity
  8
0
100
AcDbLine
 62
7
  6
CONTINUOUS
 10
-36.1076685147
 20
14.0502476949
 11
-36.1813690679
 21
11.7965995256
  0
LINE
  5
42F
100
AcDbEntity
  8
0
100
AcDbLine
 62
253
  6
CONTINUOUS
 10
-36.1862213426
 20
11.3815599666
 11
-36.1833653314
 21
11.4720343202
  0
LINE
  5
430
100
AcDbEntity
  8
0
100
AcDbLine
 62
253
  6
CONTINUOUS
 10
-36.1833653314
 20
11.4720343202
 11
-36.1829065272
 21
11.4854305434
  0
LINE
  5
431
100
AcDbEntity
  8
0
100
AcDbLine
 62
253
  6
CONTINUOUS
 10
-36.1155682295
 20
13.316488696
 11
-36.1169515906
 21
13.2753004465
  0
LINE
  5
432
100
AcDbEntity
  8
0
100
AcDbLine
 62
253
  6
CONTINUOUS
 10
-36.2193245526
 20
10.3223011153
 11
-36.2173505629
 21
10.3832309611
  0
LINE
  5
433
100
AcDbEntity
  8
0
100
AcDbLine
 62
253
  6
CONTINUOUS
 10
-36.1614512532
 20
11.3278296993
 11
-36.1632694974
 21
11.2748651084
  0
LWPOLYLINE
  5
434
100
AcDbEntity
  8
0
100
AcDbPolyline
 62
253
  6
CONTINUOUS
 90
3
 70
0
 10
-36.2299091732
 20
9.3158637833
 10
-36.2314880517
 20
9.2698463329
 10
-36.2317092194
 20
9.2639228963
  0
LWPOLYLINE
  5
435
100
AcDbEntity
  8
0
100
AcDbPolyline
 62
253
  6
CONTINUOUS
 90
16
 70
0
 10
-35.9131396392
 20
-0.8979297162
 10
-35.9103764169
 20
-0.8449431185
 10
-35.9023314633
 20
-0.7936942312
 10
-35.8892221062
 20
-0.7440653816
 10
-35.8709372424
 20
-0.6957347071
 10
-35.8474550324
 20
-0.6490229768
 10
-35.8192997094
 20
-0.6050520611
 10
-35.7869229216
 20
-0.5645110216
 10
-35.7503907812
 20
-0.527473761
 10
-35.7101551913
 20
-0.4943745789
 10
-35.6668057959
 20
-0.4657316224
 10
-35.6207557041
 20
-0.4418087887
 10
-35.5723759911
 20
-0.4227690748
 10
-35.5222137866
 20
-0.4088699027
 10
-35.4709774297
 20
-0.4003236779
 10
-35.4193272215
 20
-0.3971815559
  0
LINE
  5
436
100
AcDbEntity
  8
0
100
AcDbLine
 62
253
  6
CONTINUOUS
 10
-34.3189443058
 20
21.4788256005
 11
-34.3137975905
 21
21.3751013422
  0
LINE
  5
437
100
AcDbEntity
  8
0
100
AcDbLine
 62
253
  6
CONTINUOUS
 10
-34.3232954402
 20
21.5780244862
 11
-34.3189443058
 21
21.4788256005
  0
LINE
  5
438
100
AcDbEntity
  8
0
100
AcDbLine
 62
253
  6
CONTINUOUS
 10
-34.3279267025
 20
-22.0089154364
 11
-34.3251116921
 21
-21.9245056099
  0
LINE
  5
439
100
AcDbEntity
  8
0
100
AcDbLine
 62
253
  6
CONTINUOUS
 10
-34.3251116921
 20
-21.9245056099
 11
-34.3212320515
 21
-21.829212788
  0
LWPOLYLINE
  5
43A
100
AcDbEntity
  8
0
100
AcDbPolyline
 62
253
  6
CONTINUOUS
 90
3
 70
0
 10
-34.3212320515
 20
-21.829212788
 10
-34.3164570543
 20
-21.7271944958
 10
-34.313797614
 20
-21.6750480075
  0
LINE
  5
43B
100
AcDbEntity
  8
0
100
AcDbLine
 62
253
  6
CONTINUOUS
 10
-35.9131396566
 20
-0.8979297141
 11
-36.3591120493
 21
-0.9019785154
  0
LINE
  5
43C
100
AcDbEntity
  8
0
100
AcDbLine
 62
253
  6
CONTINUOUS
 10
-30.0098007124
 20
-0.8498781511
 11
-35.4280524278
 21
-0.8971625175
  0
LINE
  5
43D
100
AcDbEntity
  8
0
100
AcDbLine
 62
7
  6
CONTINUOUS
 10
-30.0098007124
 20
-0.3499733333
 11
-35.8634812029
 21
-0.401057629
  0
LINE
  5
43E
100
AcDbEntity
  8
0
100
AcDbLine
 62
253
  6
CONTINUOUS
 10
-35.4280524266
 20
-0.8971625174
 11
-35.9131396392
 21
-0.8979297162
  0
LINE
  5
43F
100
AcDbEntity
  8
0
100
AcDbLine
 62
7
  6
CONTINUOUS
 10
-35.8634812029
 20
0.1011109625
 11
-30.0098007124
 21
0.0500266667
  0
LINE
  5
440
100
AcDbEntity
  8
0
100
AcDbLine
 62
7
  6
CONTINUOUS
 10
-30.4098007124
 20
17.7835160342
 11
-30.4098007124
 21
17.5220475878
  0
LINE
  5
441
100
AcDbEntity
  8
0
100
AcDbLine
 62
7
  6
CONTINUOUS
 10
-30.4098007124
 20
-17.8219942544
 11
-30.4098007124
 21
-18.0834626571
  0
LINE
  5
442
100
AcDbEntity
  8
0
100
AcDbLine
 62
7
  6
CONTINUOUS
 10
-30.0098007124
 20
12.9500266667
 11
-30.0098007124
 21
0.0500266667
  0
LINE
  5
443
100
AcDbEntity
  8
0
100
AcDbLine
 62
7
  6
CONTINUOUS
 10
-30.0098007124
 20
-13.2499733333
 11
-30.0098007124
 21
-0.3499733333
  0
LINE
  5
444
100
AcDbEntity
  8
0
100
AcDbLine
 62
253
  6
CONTINUOUS
 10
-35.9131397365
 20
0.5979830385
 11
-35.4280525231
 21
0.5972158517
  0
LINE
  5
445
100
AcDbEntity
  8
0
100
AcDbLine
 62
253
  6
CONTINUOUS
 10
-35.4280525247
 20
0.5972158518
 11
-30.0098007124
 21
0.5499314845
  0
LINE
  5
446
100
AcDbEntity
  8
0
100
AcDbLine
 62
253
  6
CONTINUOUS
 10
-36.3591120493
 20
0.6020318489
 11
-35.9131396576
 21
0.597983042
  0
LWPOLYLINE
  5
447
100
AcDbEntity
  8
0
100
AcDbPolyline
 62
253
  6
CONTINUOUS
 90
10
 70
0
 10
-36.2142722495
 20
10.4471560561
 10
-36.2142227161
 20
10.4470818934
 10
-36.2141769972
 20
10.4468613393
 10
-36.2141350055
 20
10.446497295
 10
-36.2140966533
 20
10.4459926617
 10
-36.2140618532
 20
10.4453503406
 10
-36.2140305176
 20
10.4445732329
 10
-36.2140025591
 20
10.4436642397
 10
-36.2139779013
 20
10.4426261496
 10
-36.2139565131
 20
10.4414613006
  0
LINE
  5
448
100
AcDbEntity
  8
0
100
AcDbLine
 62
7
  6
CONTINUOUS
 10
-30.806723825
 20
22.0588995252
 11
-30.0098007124
 21
12.9500266667
  0
LINE
  5
449
100
AcDbEntity
  8
0
100
AcDbLine
 62
7
  6
CONTINUOUS
 10
-30.0098007124
 20
-13.2499733333
 11
-30.806723825
 21
-22.3588461917
  0
LWPOLYLINE
  5
44A
100
AcDbEntity
  8
0
100
AcDbPolyline
 62
253
  6
CONTINUOUS
 90
10
 70
0
 10
-36.1909684491
 20
11.1100607782
 10
-36.1910624244
 20
11.1101858955
 10
-36.1911480814
 20
11.110558579
 10
-36.191225777
 20
11.1111748263
 10
-36.1912958677
 20
11.1120306352
 10
-36.1913587104
 20
11.1131220032
 10
-36.191414583
 20
11.1144459421
 10
-36.1914634488
 20
11.1160035203
 10
-36.1915051924
 20
11.1177968203
 10
-36.1915396983
 20
11.1198279246
  0
LWPOLYLINE
  5
44B
100
AcDbEntity
  8
0
100
AcDbPolyline
 62
253
  6
CONTINUOUS
 90
13
 70
0
 10
-36.1584966349
 20
11.6219413336
 10
-36.1583397247
 20
11.621817505
 10
-36.158191006
 20
11.6214485782
 10
-36.1580499647
 20
11.6208383917
 10
-36.1579160866
 20
11.6199907841
 10
-36.1577888574
 20
11.618909594
 10
-36.1576678741
 20
11.6175976541
 10
-36.1575531779
 20
11.6160537745
 10
-36.1574449211
 20
11.6142757597
 10
-36.1573432562
 20
11.6122614141
 10
-36.1572483354
 20
11.610008542
 10
-36.1571603284
 20
11.6075153052
 10
-36.1570794741
 20
11.6047812952
  0
LWPOLYLINE
  5
44C
100
AcDbEntity
  8
0
100
AcDbPolyline
 62
253
  6
CONTINUOUS
 90
13
 70
0
 10
-36.1113856295
 20
13.5551635553
 10
-36.1113063101
 20
13.555089613
 10
-36.1112320339
 20
13.5548697096
 10
-36.1111626842
 20
13.5545067302
 10
-36.1110981445
 20
13.55400356
 10
-36.1110382985
 20
13.5533630842
 10
-36.1109830294
 20
13.552588188
 10
-36.1109322209
 20
13.5516817566
 10
-36.110885773
 20
13.55064657
 10
-36.1108436518
 20
13.5494849874
 10
-36.11080584
 20
13.548199263
 10
-36.1107723203
 20
13.546791651
 10
-36.1107430752
 20
13.5452644054
  0
LINE
  5
44D
100
AcDbEntity
  8
0
100
AcDbLine
 62
253
  6
CONTINUOUS
 10
-36.1730659669
 20
11.1100275385
 11
-36.190967701
 21
11.1100874588
  0
LINE
  5
44E
100
AcDbEntity
  8
0
100
AcDbLine
 62
253
  6
CONTINUOUS
 10
-36.1762878455
 20
11.6219683506
 11
-36.1584976142
 21
11.6219076748
  0
LINE
  5
44F
100
AcDbEntity
  8
0
100
AcDbLine
 62
253
  6
CONTINUOUS
 10
-30.4098007124
 20
17.7835182679
 11
-30.4326764327
 21
17.7835182679
  0
LWPOLYLINE
  5
450
100
AcDbEntity
  8
0
100
AcDbPolyline
 62
253
  6
CONTINUOUS
 90
4
 70
0
 10
-35.4646044037
 20
20.7272936332
 10
-35.4589003261
 20
20.7269926206
 10
-35.4484190886
 20
20.7264866314
 10
-34.979289343
 20
20.7058520257
  0
LINE
  5
451
100
AcDbEntity
  8
0
100
AcDbLine
 62
253
  6
CONTINUOUS
 10
-34.3137975905
 20
21.3751013422
 11
-30.7631791289
 21
21.5611813709
  0
LINE
  5
452
100
AcDbEntity
  8
0
100
AcDbLine
 62
7
  6
CONTINUOUS
 10
-34.6794161053
 20
21.8559403229
 11
-30.806723825
 21
22.0588995252
  0
LINE
  5
453
100
AcDbEntity
  8
0
100
AcDbLine
 62
253
  6
CONTINUOUS
 10
-35.4646171751
 20
20.7272941483
 11
-35.8149747771
 21
20.720195617
  0
ARC
  5
454
100
AcDbEntity
  8
0
100
AcDbCircle
 62
7
  6
CONTINUOUS
 10
-34.6166091657
 20
20.65758508
 40
1.2
100
AcDbArc
 50
93.0
 51
177.0092051173
  0
ARC
  5
455
100
AcDbEntity
  8
0
100
AcDbCircle
 62
7
  6
CONTINUOUS
 10
-34.6166091657
 20
-20.9575317465
 40
1.2
100
AcDbArc
 50
182.9907948827
 51
267.0
  0
ARC
  5
456
100
AcDbEntity
  8
0
100
AcDbCircle
 62
7
  6
CONTINUOUS
 10
-35.8591081673
 20
0.6010918388
 40
0.5
100
AcDbArc
 50
179.8922831945
 51
269.5
  0
ARC
  5
457
100
AcDbEntity
  8
0
100
AcDbCircle
 62
7
  6
CONTINUOUS
 10
-35.8591081673
 20
-0.9010385053
 40
0.5
100
AcDbArc
 50
90.5
 51
180.1077168055
  0
ARC
  5
458
100
AcDbEntity
  8
0
100
AcDbCircle
 62
7
  6
CONTINUOUS
 10
-30.7098007124
 20
17.7835182679
 40
0.3
100
AcDbArc
 50
359.9995650467
 51
25.0000767071
  0
ARC
  5
459
100
AcDbEntity
  8
0
100
AcDbCircle
 62
7
  6
CONTINUOUS
 10
-30.7098007124
 20
-18.0834649345
 40
0.3
100
AcDbArc
 50
334.9999285842
 51
0.0004349533
  0
ELLIPSE
  5
45A
100
AcDbEntity
  8
0
100
AcDbEllipse
 62
7
  6
CONTINUOUS
 10
3.6517948912
 20
22.0325343827
 30
0.0
 11
0.2
 21
0.0
 31
0.0
 40
0.0524077793
 41
-2.617993878
 42
-1.5707963268
  0
ELLIPSE
  5
45B
100
AcDbEntity
  8
0
100
AcDbEllipse
 62
7
  6
CONTINUOUS
 10
7.0208547835
 20
22.0325343827
 30
0.0
 11
0.2
 21
-0.0
 31
0.0
 40
0.0524077793
 41
-1.5707963268
 42
-0.5235987756
  0
ELLIPSE
  5
45C
100
AcDbEntity
  8
0
100
AcDbEllipse
 62
7
  6
CONTINUOUS
 10
-4.1791452165
 20
22.0325343827
 30
0.0
 11
0.2
 21
0.0
 31
0.0
 40
0.0524077793
 41
-1.5707963268
 42
-0.5235987756
  0
ELLIPSE
  5
45D
100
AcDbEntity
  8
0
100
AcDbEllipse
 62
7
  6
CONTINUOUS
 10
-7.5482051088
 20
22.0325343827
 30
0.0
 11
0.2
 21
0.0
 31
0.0
 40
0.0524077793
 41
-2.617993878
 42
-1.5707963268
  0
ELLIPSE
  5
45E
100
AcDbEntity
  8
0
100
AcDbEllipse
 62
7
  6
CONTINUOUS
 10
-10.78887389
 20
0.5500457059
 30
0.0
 11
0.4745319423
 21
0.1581451893
 31
0.0
 40
0.9996192872
 41
2.8200172282
 42
4.3905851209
  0
ELLIPSE
  5
45F
100
AcDbEntity
  8
0
100
AcDbEllipse
 62
7
  6
CONTINUOUS
 10
10.2615235646
 20
0.5500457059
 30
0.0
 11
0.4745319423
 21
-0.1581451893
 31
0.0
 40
0.9996192872
 41
-1.2489924673
 42
0.3215754254
  0
ELLIPSE
  5
460
100
AcDbEntity
  8
0
100
AcDbEllipse
 62
7
  6
CONTINUOUS
 10
-10.7691475461
 20
21.5604985637
 30
0.0
 11
0.4962344879
 21
0.0628595572
 31
0.0
 40
0.9963456432
 41
1.4443370775
 42
3.0137634083
  0
ELLIPSE
  5
461
100
AcDbEntity
  8
0
100
AcDbEllipse
 62
7
  6
CONTINUOUS
 10
10.2417972208
 20
21.5604985637
 30
0.0
 11
0.4962344879
 21
-0.0628595572
 31
0.0
 40
0.9963456432
 41
0.1278292453
 42
1.6972555761
  0
ELLIPSE
  5
462
100
AcDbEntity
  8
0
100
AcDbEllipse
 62
7
  6
CONTINUOUS
 10
-4.1791452165
 20
-22.3324810492
 30
0.0
 11
0.2
 21
-0.0
 31
0.0
 40
0.0524077793
 41
0.5235987756
 42
1.5707963268
  0
ELLIPSE
  5
463
100
AcDbEntity
  8
0
100
AcDbEllipse
 62
7
  6
CONTINUOUS
 10
-7.5482051088
 20
-22.3324810492
 30
0.0
 11
0.2
 21
0.0
 31
0.0
 40
0.0524077793
 41
1.5707963268
 42
2.617993878
  0
ELLIPSE
  5
464
100
AcDbEntity
  8
0
100
AcDbEllipse
 62
7
  6
CONTINUOUS
 10
3.6517948912
 20
-22.3324810492
 30
0.0
 11
0.2
 21
0.0
 31
0.0
 40
0.0524077793
 41
1.5707963268
 42
2.617993878
  0
ELLIPSE
  5
465
100
AcDbEntity
  8
0
100
AcDbEllipse
 62
7
  6
CONTINUOUS
 10
7.0208547835
 20
-22.3324810492
 30
0.0
 11
0.2
 21
0.0
 31
0.0
 40
0.0524077793
 41
0.5235987756
 42
1.5707963268
  0
ELLIPSE
  5
466
100
AcDbEntity
  8
0
100
AcDbEllipse
 62
7
  6
CONTINUOUS
 10
10.2615235646
 20
-0.8499923725
 30
0.0
 11
0.4745319423
 21
0.1581451893
 31
0.0
 40
0.9996192872
 41
-0.3215754254
 42
1.2489924673
  0
ELLIPSE
  5
467
100
AcDbEntity
  8
0
100
AcDbEllipse
 62
7
  6
CONTINUOUS
 10
-10.78887389
 20
-0.8499923725
 30
0.0
 11
0.4745319423
 21
-0.1581451893
 31
0.0
 40
0.9996192872
 41
1.8926001863
 42
3.463168079
  0
ELLIPSE
  5
468
100
AcDbEntity
  8
0
100
AcDbEllipse
 62
7
  6
CONTINUOUS
 10
10.2417972208
 20
-21.8604452303
 30
0.0
 11
0.4962344879
 21
0.0628595572
 31
0.0
 40
0.9963456432
 41
-1.6972555761
 42
-0.1278292453
  0
ELLIPSE
  5
469
100
AcDbEntity
  8
0
100
AcDbEllipse
 62
7
  6
CONTINUOUS
 10
-10.7691475461
 20
-21.8604452303
 30
0.0
 11
0.4962344879
 21
-0.0628595572
 31
0.0
 40
0.9963456432
 41
-3.0137634083
 42
-1.4443370775
  0
ENDSEC
  0
SECTION
  2
OBJECTS
  0
DICTIONARY
  5
C
100
AcDbDictionary
280
0
281
1
  3
ACAD_GROUP
350
D
  3
ACAD_MLINESTYLE
350
17
  3
ACAD_LAYOUT
350
1A
  3
ACAD_PLOTSETTINGS
350
19
  3
ACAD_PLOTSTYLENAME
350
E
  0
DICTIONARY
  5
D
102
{ACAD_REACTORS
330
C
102
}
100
AcDbDictionary
280
0
281
1
  0
ACDBDICTIONARYWDFLT
  5
E
102
{ACAD_REACTORS
330
C
102
}
100
AcDbDictionary
281
1
  3
Normal
350
F
100
AcDbDictionaryWithDefault
340
F
  0
DICTIONARY
  5
17
102
{ACAD_REACTORS
330
C
102
}
100
AcDbDictionary
280
0
281
1
  3
Standard
350
18
  0
DICTIONARY
  5
19
102
{ACAD_REACTORS
330
C
102
}
100
AcDbDictionary
281
1
  0
DICTIONARY
  5
1A
102
{ACAD_REACTORS
330
C
102
}
100
AcDbDictionary
281
1
  3
Model
350
46A
  3
Layout1
350
46B
  0
ACDBPLACEHOLDER
  5
F
102
{ACAD_REACTORS
330
E
102
}
  0
MLINESTYLE
  5
18
102
{ACAD_REACTORS
330
17
102
}
100
AcDbMlineStyle
  2
STANDARD
 70
0
  3

 62
256
 51
90.0
 52
90.0
 71
2
 49
0.5
 62
256
  6
BYLAYER
 49
-0.5
 62
256
  6
BYLAYER
  0
LAYOUT
  5
46A
102
{ACAD_REACTORS
330
1A
102
}
100
AcDbPlotSettings
  1

  2
none_device
  4
ISO_A4_(297.00_x_210.00_MM)
  6

 40
0.0
 41
0.0
 42
0.0
 43
0.0
 44
297.0
 45
210.0
 46
0.0
 47
0.0
 48
0.0
 49
0.0
140
0.0
141
0.0
142
1.0
143
1.0
 70
1024
 72
1
 73
0
 74
0
  7

 75
0
147
1.0
148
0.0
149
0.0
100
AcDbLayout
  1
Model
 70
0
 71
0
 10
0.0
 20
0.0
 11
297.0
 21
210.0
 12
0.0
 22
0.0
 32
0.0
 14
0.0
 24
0.0
 34
0.0
 15
0.0
 25
0.0
 35
0.0
146
0.0
 13
0.0
 23
0.0
 33
0.0
 16
1.0
 26
0.0
 36
0.0
 17
0.0
 27
1.0
 37
0.0
 76
0
330
220
345
0
346
0
  0
LAYOUT
  5
46B
102
{ACAD_REACTORS
330
1A
102
}
100
AcDbPlotSettings
  1

  2
none_device
  4
ISO_A4_(297.00_x_210.00_MM)
  6

 40
0.0
 41
0.0
 42
0.0
 43
0.0
 44
297.0
 45
210.0
 46
0.0
 47
0.0
 48
0.0
 49
0.0
140
0.0
141
0.0
142
1.0
143
1.0
 70
0
 72
1
 73
0
 74
0
  7

 75
0
147
1.0
148
0.0
149
0.0
100
AcDbLayout
  1
Layout1
 70
0
 71
1
 10
0.0
 20
0.0
 11
297.0
 21
210.0
 12
0.0
 22
0.0
 32
0.0
 14
0.0
 24
0.0
 34
0.0
 15
0.0
 25
0.0
 35
0.0
146
0.0
 13
0.0
 23
0.0
 33
0.0
 16
1.0
 26
0.0
 36
0.0
 17
0.0
 27
1.0
 37
0.0
 76
0
330
221
345
0
346
0
  0
ENDSEC
  0
EOF
