  0
SECTION
  2
HEADER
  9
$ACADVER
  1
AC1021
  9
$DWGCODEPAGE
  3
ANSI_1252
  9
$EXTMAX
 10
297.0
 20
210.0
 30
0.0
  9
$EXTMIN
 10
0.0
 20
0.0
 30
0.0
  9
$LIMMIN
 10
0.0
 20
0.0
  9
$LIMMAX
 10
297.0
 20
210.0
  9
$VIEWCTR
 10
148.5
 20
105.0
  9
$VIEWSIZE
 40
210.0
  9
$CLAYER
  8
0
  9
$LTSCALE
 40
16.335
  9
$CELTYPE
  6
BYLAYER
  9
$DIMSCALE
 40
1.0
  9
$DIMASZ
 40
3.0
  9
$DIMEXO
 40
0.5
  9
$DIMDLI
 40
11.286
  9
$DIMEXE
 40
1.5
  9
$DIMCEN
 40
2.673
  9
$DIMLFAC
 40
1.0
  9
$DIMBLK
  1
_FILLED
  9
$DIMALT
 70
0
  9
$DIMALTF
 40
25.4
  9
$DIMTXT
 40
3.0
  9
$DIMTOL
 70
1
  9
$DIMLIM
 70
0
  9
$DIMTFAC
 40
1.0
  9
$DIMTP
 40
0.01
  9
$DIMTM
 40
0.01
  9
$DIMGAP
 40
0.625
  9
$DIMDSEP
 70
44
  9
$AUNITS
 70
0
  9
$PDMODE
 70
3
  9
$PDSIZE
 40
3.0
  9
$HANDSEED
  5
53F
  9
$TILEMODE
 70
1
  9
$MEASUREMENT
 70
1
  9
$INSUNITS
 70
4
  0
ENDSEC
  0
SECTION
  2
CLASSES
  0
CLASS
  1
ACDBDICTIONARYWDFLT
  2
AcDbDictionaryWithDefault
  3
AutoCAD 2000
 90
0
 91
1
280
0
281
0
  0
CLASS
  1
ACDBPLACEHOLDER
  2
AcDbPlaceHolder
  3
AutoCAD 2000
 90
0
 91
1
280
0
281
0
  0
CLASS
  1
LAYOUT
  2
AcDbLayout
  3
AutoCAD 2000
 90
0
 91
0
280
0
281
0
  0
ENDSEC
  0
SECTION
  2
TABLES
  0
TABLE
  2
VPORT
  5
8
100
AcDbSymbolTable
 70
2
  0
VPORT
  5
1F4
100
AcDbSymbolTableRecord
100
AcDbViewportTableRecord
  2
*ACTIVE
 70
0
 10
0.0
 20
0.0
 11
1.0
 21
1.0
 12
148.5
 22
105.0
 13
0.0
 23
0.0
 14
1.0
 24
1.0
 15
0.0
 25
0.0
 16
0.0
 26
0.0
 36
1.0
 17
0.0
 27
0.0
 37
0.0
 40
210.0
 41
1.4142857143
 42
50.0
 43
0.0
 44
0.0
 50
0.0
 51
0.0
 71
0
 72
100
 73
1
 74
1
 75
0
 76
0
 77
0
 78
0
  0
ENDTAB
  0
TABLE
  2
LTYPE
  5
5
100
AcDbSymbolTable
 70
6
  0
LTYPE
  5
14
100
AcDbSymbolTableRecord
100
AcDbLinetypeTableRecord
  2
BYBLOCK
 70
0
  3

 72
65
 73
0
 40
0.0
  0
LTYPE
  5
15
100
AcDbSymbolTableRecord
100
AcDbLinetypeTableRecord
  2
BYLAYER
 70
0
  3

 72
65
 73
0
 40
0.0
  0
LTYPE
  5
16
100
AcDbSymbolTableRecord
100
AcDbLinetypeTableRecord
  2
CONTINUOUS
 70
64
  3
Solid line
 72
65
 73
0
 40
0.0
  0
LTYPE
  5
1F5
100
AcDbSymbolTableRecord
100
AcDbLinetypeTableRecord
  2
CENTER
 70
64
  3
____ _ ____ _ ____ _ ____ _ ____ _ ____ _ ____
 72
65
 73
4
 40
0.6
 49
0.375
 74
0
 49
-0.075
 74
0
 49
0.075
 74
0
 49
-0.075
 74
0
  0
LTYPE
  5
1F6
100
AcDbSymbolTableRecord
100
AcDbLinetypeTableRecord
  2
HIDDEN
 70
64
  3
- - - - - - - - - - - - - - - - - - - -
 72
65
 73
2
 40
0.2
 49
0.1
 74
0
 49
-0.1
 74
0
  0
LTYPE
  5
1F7
100
AcDbSymbolTableRecord
100
AcDbLinetypeTableRecord
  2
PHANTOM
 70
64
  3
_____ _ _ _____ _ _ _____ _ _ _____
 72
65
 73
6
 40
0.8
 49
0.45
 74
0
 49
-0.05
 74
0
 49
0.1
 74
0
 49
-0.05
 74
0
 49
0.1
 74
0
 49
-0.05
 74
0
  0
LTYPE
  5
1F8
100
AcDbSymbolTableRecord
100
AcDbLinetypeTableRecord
  2
DOT
 70
64
  3
. . . . . . . . . . . . . . . . . . . .
 72
65
 73
2
 40
0.2
 49
0.1
 74
0
 49
-0.1
 74
0
  0
LTYPE
  5
1F9
100
AcDbSymbolTableRecord
100
AcDbLinetypeTableRecord
  2
DASHED
 70
64
  3
- - - - - - - - - - - - - - - - - - - -
 72
65
 73
2
 40
0.2
 49
0.1
 74
0
 49
-0.1
 74
0
  0
ENDTAB
  0
TABLE
  2
LAYER
  5
2
100
AcDbSymbolTable
 70
36
  0
LAYER
  5
10
100
AcDbSymbolTableRecord
100
AcDbLayerTableRecord
  2
0
 70
0
 62
7
  6
CONTINUOUS
370
-3
390
F
  0
LAYER
  5
1FA
100
AcDbSymbolTableRecord
100
AcDbLayerTableRecord
  2
DEFAULT_1
 70
0
 62
7
  6
CENTER
370
-3
390
F
  0
LAYER
  5
1FB
100
AcDbSymbolTableRecord
100
AcDbLayerTableRecord
  2
DEFAULT_2
 70
0
 62
7
  6
HIDDEN
370
-3
390
F
  0
LAYER
  5
1FC
100
AcDbSymbolTableRecord
100
AcDbLayerTableRecord
  2
DEFAULT_3
 70
0
 62
7
  6
PHANTOM
370
-3
390
F
  0
LAYER
  5
1FD
100
AcDbSymbolTableRecord
100
AcDbLayerTableRecord
  2
ASSI
 70
0
 62
7
  6
CONTINUOUS
370
-3
390
F
  0
LAYER
  5
1FE
100
AcDbSymbolTableRecord
100
AcDbLayerTableRecord
  2
COLOR3
 70
0
 62
7
  6
CONTINUOUS
370
-3
390
F
  0
LAYER
  5
1FF
100
AcDbSymbolTableRecord
100
AcDbLayerTableRecord
  2
COORDINATE
 70
0
 62
7
  6
CONTINUOUS
370
-3
390
F
  0
LAYER
  5
200
100
AcDbSymbolTableRecord
100
AcDbLayerTableRecord
  2
COPY_PUBLISH
 70
0
 62
7
  6
CONTINUOUS
370
-3
390
F
  0
LAYER
  5
201
100
AcDbSymbolTableRecord
100
AcDbLayerTableRecord
  2
COSMETIC
 70
0
 62
7
  6
CONTINUOUS
370
-3
390
F
  0
LAYER
  5
202
100
AcDbSymbolTableRecord
100
AcDbLayerTableRecord
  2
COSMETICI
 70
0
 62
7
  6
CONTINUOUS
370
-3
390
F
  0
LAYER
  5
203
100
AcDbSymbolTableRecord
100
AcDbLayerTableRecord
  2
CURVE
 70
0
 62
7
  6
CONTINUOUS
370
-3
390
F
  0
LAYER
  5
204
100
AcDbSymbolTableRecord
100
AcDbLayerTableRecord
  2
DRAFT
 70
0
 62
7
  6
CONTINUOUS
370
-3
390
F
  0
LAYER
  5
205
100
AcDbSymbolTableRecord
100
AcDbLayerTableRecord
  2
IMPORT_IGES
 70
0
 62
7
  6
CONTINUOUS
370
-3
390
F
  0
LAYER
  5
206
100
AcDbSymbolTableRecord
100
AcDbLayerTableRecord
  2
INTFCLR_1
 70
0
 62
7
  6
CONTINUOUS
370
-3
390
F
  0
LAYER
  5
207
100
AcDbSymbolTableRecord
100
AcDbLayerTableRecord
  2
INTF_10
 70
0
 62
7
  6
CONTINUOUS
370
-3
390
F
  0
LAYER
  5
208
100
AcDbSymbolTableRecord
100
AcDbLayerTableRecord
  2
INTF_13
 70
0
 62
7
  6
CONTINUOUS
370
-3
390
F
  0
LAYER
  5
209
100
AcDbSymbolTableRecord
100
AcDbLayerTableRecord
  2
INTF_15
 70
0
 62
7
  6
CONTINUOUS
370
-3
390
F
  0
LAYER
  5
20A
100
AcDbSymbolTableRecord
100
AcDbLayerTableRecord
  2
INTF_16
 70
0
 62
7
  6
CONTINUOUS
370
-3
390
F
  0
LAYER
  5
20B
100
AcDbSymbolTableRecord
100
AcDbLayerTableRecord
  2
INTF_18
 70
0
 62
7
  6
CONTINUOUS
370
-3
390
F
  0
LAYER
  5
20C
100
AcDbSymbolTableRecord
100
AcDbLayerTableRecord
  2
INTF_20
 70
0
 62
7
  6
CONTINUOUS
370
-3
390
F
  0
LAYER
  5
20D
100
AcDbSymbolTableRecord
100
AcDbLayerTableRecord
  2
INTF_3
 70
0
 62
7
  6
CONTINUOUS
370
-3
390
F
  0
LAYER
  5
20E
100
AcDbSymbolTableRecord
100
AcDbLayerTableRecord
  2
INTF_5
 70
0
 62
7
  6
CONTINUOUS
370
-3
390
F
  0
LAYER
  5
20F
100
AcDbSymbolTableRecord
100
AcDbLayerTableRecord
  2
INTF_8
 70
0
 62
7
  6
CONTINUOUS
370
-3
390
F
  0
LAYER
  5
210
100
AcDbSymbolTableRecord
100
AcDbLayerTableRecord
  2
LIVELLO_1
 70
0
 62
7
  6
CONTINUOUS
370
-3
390
F
  0
LAYER
  5
211
100
AcDbSymbolTableRecord
100
AcDbLayerTableRecord
  2
NOTE
 70
0
 62
7
  6
CONTINUOUS
370
-3
390
F
  0
LAYER
  5
212
100
AcDbSymbolTableRecord
100
AcDbLayerTableRecord
  2
PIANI
 70
0
 62
7
  6
CONTINUOUS
370
-3
390
F
  0
LAYER
  5
213
100
AcDbSymbolTableRecord
100
AcDbLayerTableRecord
  2
PUNTI
 70
0
 62
7
  6
CONTINUOUS
370
-3
390
F
  0
LAYER
  5
214
100
AcDbSymbolTableRecord
100
AcDbLayerTableRecord
  2
RACCORDO
 70
0
 62
7
  6
CONTINUOUS
370
-3
390
F
  0
LAYER
  5
215
100
AcDbSymbolTableRecord
100
AcDbLayerTableRecord
  2
SIMBOLI
 70
0
 62
7
  6
CONTINUOUS
370
-3
390
F
  0
LAYER
  5
216
100
AcDbSymbolTableRecord
100
AcDbLayerTableRecord
  2
SMUSSO
 70
0
 62
7
  6
CONTINUOUS
370
-3
390
F
  0
LAYER
  5
217
100
AcDbSymbolTableRecord
100
AcDbLayerTableRecord
  2
SNAPLINE
 70
0
 62
7
  6
CONTINUOUS
370
-3
390
F
  0
LAYER
  5
218
100
AcDbSymbolTableRecord
100
AcDbLayerTableRecord
  2
SOLIDO
 70
0
 62
7
  6
CONTINUOUS
370
-3
390
F
  0
LAYER
  5
219
100
AcDbSymbolTableRecord
100
AcDbLayerTableRecord
  2
SUPERFICI
 70
0
 62
7
  6
CONTINUOUS
370
-3
390
F
  0
LAYER
  5
21A
100
AcDbSymbolTableRecord
100
AcDbLayerTableRecord
  2
SUPERFICI_SKEL
 70
0
 62
7
  6
CONTINUOUS
370
-3
390
F
  0
LAYER
  5
21B
100
AcDbSymbolTableRecord
100
AcDbLayerTableRecord
  2
TRASH
 70
0
 62
7
  6
CONTINUOUS
370
-3
390
F
  0
LAYER
  5
21C
100
AcDbSymbolTableRecord
100
AcDbLayerTableRecord
  2
WHITE
 70
0
 62
7
  6
CONTINUOUS
370
-3
390
F
  0
LAYER
  5
21D
100
AcDbSymbolTableRecord
100
AcDbLayerTableRecord
  2
___SHELL
 70
0
 62
7
  6
CONTINUOUS
370
-3
390
F
  0
ENDTAB
  0
TABLE
  2
STYLE
  5
3
100
AcDbSymbolTable
 70
1
  0
STYLE
  5
11
100
AcDbSymbolTableRecord
100
AcDbTextStyleTableRecord
  2
STANDARD
 70
0
 40
0.0
 41
0.8
 50
0.0
 71
0
 42
0.2
  3
txt
  4

  0
STYLE
  5
21E
100
AcDbSymbolTableRecord
100
AcDbTextStyleTableRecord
  2
TEXTSTYLE_1
 70
0
 40
0.0
 41
0.8
 50
0.0
 71
0
 42
0.2
  3
gdt
  4

  0
ENDTAB
  0
TABLE
  2
VIEW
  5
6
100
AcDbSymbolTable
 70
0
  0
ENDTAB
  0
TABLE
  2
UCS
  5
7
100
AcDbSymbolTable
 70
0
  0
ENDTAB
  0
TABLE
  2
APPID
  5
9
100
AcDbSymbolTable
 70
1
  0
APPID
  5
21F
100
AcDbSymbolTableRecord
100
AcDbRegAppTableRecord
  2
ACAD
 70
0
  0
ENDTAB
  0
TABLE
  2
BLOCK_RECORD
  5
1
100
AcDbSymbolTable
 70
0
  0
BLOCK_RECORD
  5
220
100
AcDbSymbolTableRecord
100
AcDbBlockTableRecord
  2
*Model_Space
  0
BLOCK_RECORD
  5
221
100
AcDbSymbolTableRecord
100
AcDbBlockTableRecord
  2
*Paper_Space
  0
BLOCK_RECORD
  5
222
100
AcDbSymbolTableRecord
100
AcDbBlockTableRecord
  2
_FILLED
  0
BLOCK_RECORD
  5
223
100
AcDbSymbolTableRecord
100
AcDbBlockTableRecord
  2
*D0
  0
BLOCK_RECORD
  5
224
100
AcDbSymbolTableRecord
100
AcDbBlockTableRecord
  2
*D1
  0
BLOCK_RECORD
  5
225
100
AcDbSymbolTableRecord
100
AcDbBlockTableRecord
  2
*D2
  0
ENDTAB
  0
TABLE
  2
DIMSTYLE
  5
A
100
AcDbSymbolTable
 70
1
100
AcDbDimStyleTable
 71
0
  0
DIMSTYLE
105
226
100
AcDbSymbolTableRecord
100
AcDbDimStyleTableRecord
  2
STANDARD
 70
0
  3

  4

 40
1.0
 41
3.0
 42
0.5
 43
0.38
 44
1.5
 45
0.0
 46
0.0
 47
0.01
 48
0.01
140
3.0
141
0.09
142
0.0
143
25.4
144
1.0
145
0.0
146
1.0
147
0.625
 71
1.0
 72
0.0
 73
0
 74
0
 75
0
 76
0
 77
1
 78
8
170
0
171
1
172
0
173
0
174
0
175
0
176
0
177
0
178
0
270
2
271
2
272
2
273
2
274
2
275
0
280
0
281
0
282
0
283
1
284
8
285
0
286
0
287
3
288
0
340
11
278
44
341
222
342
222
343
222
344
222
  0
DIMSTYLE
105
227
100
AcDbSymbolTableRecord
100
AcDbDimStyleTableRecord
  2
DIMSTYLE_1
 70
0
  3

  4

 40
1.0
 41
3.0
 42
0.5
 43
0.38
 44
1.5
 45
0.0
 46
0.0
 47
0.0
 48
0.0
140
3.0
141
0.09
142
0.0
143
25.4
144
1.0
145
0.0
146
1.0
147
0.75
 71
0.0
 72
0.0
 73
0
 74
0
 75
0
 76
0
 77
1
 78
8
170
0
171
1
172
0
173
0
174
0
175
0
176
0
177
0
178
0
270
2
271
2
272
2
273
2
274
2
275
0
280
0
281
0
282
0
283
1
284
8
285
0
286
0
287
3
288
0
340
11
278
44
341
222
342
222
343
222
344
222
  0
DIMSTYLE
105
228
100
AcDbSymbolTableRecord
100
AcDbDimStyleTableRecord
  2
DIMSTYLE_2
 70
0
  3

  4

 40
1.0
 41
3.0
 42
0.5
 43
0.38
 44
1.5
 45
0.0
 46
0.0
 47
0.0
 48
0.0
140
3.0
141
0.09
142
0.0
143
25.4
144
1.0
145
0.0
146
1.0
147
0.75
 71
0.0
 72
0.0
 73
0
 74
0
 75
0
 76
0
 77
1
 78
8
170
0
171
1
172
0
173
0
174
0
175
0
176
0
177
0
178
0
270
2
271
1
272
1
273
2
274
2
275
0
280
0
281
0
282
0
283
1
284
8
285
0
286
0
287
3
288
0
340
11
278
44
341
222
342
222
343
222
344
222
  0
ENDTAB
  0
ENDSEC
  0
SECTION
  2
BLOCKS
  0
BLOCK
  5
20
100
AcDbEntity
  8
0
100
AcDbBlockBegin
  2
*Model_Space
 70
0
 10
0.0
 20
0.0
 30
0.0
  3
*Model_Space
  1

  0
ENDBLK
  5
21
100
AcDbEntity
  8
0
100
AcDbBlockEnd
  0
BLOCK
  5
1C
100
AcDbEntity
  8
0
100
AcDbBlockBegin
  2
*Paper_Space
 70
0
 10
0.0
 20
0.0
 30
0.0
  3
*Paper_Space
  1

  0
ENDBLK
  5
1D
100
AcDbEntity
  8
0
100
AcDbBlockEnd
  0
BLOCK
  5
229
100
AcDbEntity
  8
0
100
AcDbBlockBegin
  2
_FILLED
 70
64
 10
0.0
 20
0.0
  3
_FILLED
  1

  0
SOLID
  5
22A
100
AcDbEntity
  8
0
  6
BYBLOCK
 62
0
100
AcDbTrace
 10
0.0
 20
0.0
 11
-1.0
 21
0.3166666667
 12
-1.0
 22
-0.3166666667
 13
-1.0
 23
-0.3166666667
  0
ENDBLK
  5
22B
100
AcDbEntity
  8
0
  6
BYBLOCK
 62
0
100
AcDbBlockEnd
  0
BLOCK
  5
22C
100
AcDbEntity
  8
0
100
AcDbBlockBegin
 62
7
  6
CONTINUOUS
  2
*D0
 70
65
 10
0.0
 20
0.0
  3
*D0
  1

  0
MTEXT
  5
22D
100
AcDbEntity
  8
0
100
AcDbMText
 62
7
  6
CONTINUOUS
  7
STANDARD
 71
2
 72
1
 10
-0.7001441708
 20
39.4690098106
 30
0.0
 11
1.0
 21
0.0
 31
0.0
 44
0.9
  1
22,05
 40
3.0
 41
16.3928571429
  0
LINE
  5
22E
100
AcDbEntity
  8
0
100
AcDbLine
 62
7
  6
CONTINUOUS
 10
-11.7255142944
 20
13.9255533042
 11
-11.7255142944
 21
37.2190098106
  0
LINE
  5
22F
100
AcDbEntity
  8
0
100
AcDbLine
 62
7
  6
CONTINUOUS
 10
10.3252259527
 20
13.9255533042
 11
10.3252259527
 21
37.2190098106
  0
LINE
  5
230
100
AcDbEntity
  8
0
100
AcDbLine
 62
7
  6
CONTINUOUS
 10
-11.7255142944
 20
35.7190098106
 11
-0.7001441708
 21
35.7190098106
  0
LINE
  5
231
100
AcDbEntity
  8
0
100
AcDbLine
 62
7
  6
CONTINUOUS
 10
10.3252259527
 20
35.7190098106
 11
-0.7001441708
 21
35.7190098106
  0
INSERT
  5
232
100
AcDbEntity
  8
0
100
AcDbBlockReference
 62
7
  6
CONTINUOUS
  2
_FILLED
 10
-11.7255142944
 20
35.7190098106
 41
3.0
 42
3.0
 43
3.0
 50
180.0
  0
INSERT
  5
233
100
AcDbEntity
  8
0
100
AcDbBlockReference
 62
7
  6
CONTINUOUS
  2
_FILLED
 10
10.3252259527
 20
35.7190098106
 41
3.0
 42
3.0
 43
3.0
  0
ENDBLK
  5
234
100
AcDbEntity
  8
0
  6
BYBLOCK
 62
0
100
AcDbBlockEnd
  0
BLOCK
  5
235
100
AcDbEntity
  8
0
100
AcDbBlockBegin
 62
7
  6
CONTINUOUS
  2
*D1
 70
65
 10
0.0
 20
0.0
  3
*D1
  1

  0
MTEXT
  5
236
100
AcDbEntity
  8
0
100
AcDbMText
 62
7
  6
CONTINUOUS
  7
STANDARD
 71
2
 72
1
 10
19.6358380933
 20
0.3255533042
 30
0.0
 11
0.0
 21
1.0
 31
0.0
 44
0.9
  1
44,4
 40
3.0
 41
13.1785714286
  0
LINE
  5
237
100
AcDbEntity
  8
0
100
AcDbLine
 62
7
  6
CONTINUOUS
 10
10.304871623
 20
22.5344261627
 11
24.8858380933
 21
22.5344261627
  0
LINE
  5
238
100
AcDbEntity
  8
0
100
AcDbLine
 62
7
  6
CONTINUOUS
 10
10.304871623
 20
-21.8833195542
 11
24.8858380933
 21
-21.8833195542
  0
LINE
  5
239
100
AcDbEntity
  8
0
100
AcDbLine
 62
7
  6
CONTINUOUS
 10
23.3858380933
 20
22.5344261627
 11
23.3858380933
 21
0.3255533042
  0
LINE
  5
23A
100
AcDbEntity
  8
0
100
AcDbLine
 62
7
  6
CONTINUOUS
 10
23.3858380933
 20
-21.8833195542
 11
23.3858380933
 21
0.3255533042
  0
INSERT
  5
23B
100
AcDbEntity
  8
0
100
AcDbBlockReference
 62
7
  6
CONTINUOUS
  2
_FILLED
 10
23.3858380933
 20
22.5344261627
 41
3.0
 42
3.0
 43
3.0
 50
90.0
  0
INSERT
  5
23C
100
AcDbEntity
  8
0
100
AcDbBlockReference
 62
7
  6
CONTINUOUS
  2
_FILLED
 10
23.3858380933
 20
-21.8833195542
 41
3.0
 42
3.0
 43
3.0
 50
270.0
  0
ENDBLK
  5
23D
100
AcDbEntity
  8
0
  6
BYBLOCK
 62
0
100
AcDbBlockEnd
  0
BLOCK
  5
23E
100
AcDbEntity
  8
0
100
AcDbBlockBegin
 62
7
  6
CONTINUOUS
  2
*D2
 70
65
 10
0.0
 20
0.0
  3
*D2
  1

  0
MTEXT
  5
23F
100
AcDbEntity
  8
0
100
AcDbMText
 62
7
  6
CONTINUOUS
  7
STANDARD
 71
1
 72
1
 10
-28.6977738743
 20
39.4690098106
 30
0.0
 11
1.0
 21
0.0
 31
0.0
 44
0.9
  1
6,35
 40
3.0
 41
12.5357142857
  0
LINE
  5
240
100
AcDbEntity
  8
0
100
AcDbLine
 62
7
  6
CONTINUOUS
 10
-33.5083878627
 20
13.9255533042
 11
-33.5083878627
 21
37.2190098106
  0
LINE
  5
241
100
AcDbEntity
  8
0
100
AcDbLine
 62
7
  6
CONTINUOUS
 10
-39.857694434
 20
1.5775584822
 11
-39.857694434
 21
37.2190098106
  0
LINE
  5
242
100
AcDbEntity
  8
0
100
AcDbLine
 62
7
  6
CONTINUOUS
 10
-33.5083878627
 20
35.7190098106
 11
-20.3406310172
 21
35.7190098106
  0
LINE
  5
243
100
AcDbEntity
  8
0
100
AcDbLine
 62
7
  6
CONTINUOUS
 10
-20.3406310172
 20
35.7190098106
 11
-36.6830411483
 21
35.7190098106
  0
LINE
  5
244
100
AcDbEntity
  8
0
100
AcDbLine
 62
7
  6
CONTINUOUS
 10
-39.857694434
 20
35.7190098106
 11
-43.857694434
 21
35.7190098106
  0
LINE
  5
245
100
AcDbEntity
  8
0
100
AcDbLine
 62
7
  6
CONTINUOUS
 10
-43.857694434
 20
35.7190098106
 11
-36.6830411483
 21
35.7190098106
  0
INSERT
  5
246
100
AcDbEntity
  8
0
100
AcDbBlockReference
 62
7
  6
CONTINUOUS
  2
_FILLED
 10
-33.5083878627
 20
35.7190098106
 41
3.0
 42
3.0
 43
3.0
 50
180.0
  0
INSERT
  5
247
100
AcDbEntity
  8
0
100
AcDbBlockReference
 62
7
  6
CONTINUOUS
  2
_FILLED
 10
-39.857694434
 20
35.7190098106
 41
3.0
 42
3.0
 43
3.0
  0
ENDBLK
  5
248
100
AcDbEntity
  8
0
  6
BYBLOCK
 62
0
100
AcDbBlockEnd
  0
ENDSEC
  0
SECTION
  2
ENTITIES
  0
DIMENSION
  5
249
100
AcDbEntity
  8
0
100
AcDbDimension
 62
7
  6
CONTINUOUS
  2
*D0
 10
10.3252259527
 20
35.7190098106
 11
-1.1287154775
 21
35.7190098106
 70
160
 71
2
 42
22.0507402471
  3
DIMSTYLE_1
100
AcDbAlignedDimension
 13
-11.7255142944
 23
13.4255533042
 14
10.3252259527
 24
13.4255533042
100
AcDbRotatedDimension
  0
DIMENSION
  5
24A
100
AcDbEntity
  8
0
100
AcDbDimension
 62
7
  6
CONTINUOUS
  2
*D1
 10
23.3858380933
 20
-21.8833195542
 11
23.3858380933
 21
-0.1030182518
 70
160
 71
2
 42
44.4177457169
  3
DIMSTYLE_2
100
AcDbAlignedDimension
 13
9.804871623
 23
22.5344261627
 14
9.804871623
 24
-21.8833195542
 50
270.0
100
AcDbRotatedDimension
  0
DIMENSION
  5
24B
100
AcDbEntity
  8
0
100
AcDbDimension
 62
7
  6
CONTINUOUS
  2
*D2
 10
-39.857694434
 20
35.7190098106
 11
-24.9477745399
 21
35.7190098106
 70
160
 71
1
 42
6.3493065714
  3
DIMSTYLE_1
100
AcDbAlignedDimension
 13
-33.5083878627
 23
13.4255533042
 14
-39.857694434
 24
1.0775584822
 50
180.0
100
AcDbRotatedDimension
  0
LINE
  5
24C
100
AcDbEntity
  8
0
100
AcDbLine
 62
7
  6
CONTINUOUS
 10
2.693934199
 20
-21.8833195542
 11
3.0421208023
 21
-21.8517136338
  0
LINE
  5
24D
100
AcDbEntity
  8
0
100
AcDbLine
 62
7
  6
CONTINUOUS
 10
-8.506065801
 20
-21.8833195542
 11
-8.1578791977
 21
-21.8517136338
  0
LWPOLYLINE
  5
24E
100
AcDbEntity
  8
0
100
AcDbPolyline
 62
253
  6
CONTINUOUS
 90
16
 70
0
 10
9.7126931649
 20
-21.6988361374
 10
9.7648947913
 20
-21.6960340922
 10
9.8165254029
 20
-21.6878015028
 10
9.8670202996
 20
-21.6742284324
 10
9.9158272214
 20
-21.6554633481
 10
9.9624123429
 20
-21.6317115121
 10
10.0062661196
 20
-21.6032327519
 10
10.046908924
 20
-21.5703385833
 10
10.0838962686
 20
-21.5333887989
 10
10.1168236322
 20
-21.4927875638
 10
10.1453309118
 20
-21.4489789724
 10
10.1691063641
 20
-21.4024421754
 10
10.1878899984
 20
-21.3536861505
 10
10.201476415
 20
-21.3032441474
 10
10.2097170546
 20
-21.2516678583
 10
10.2125218274
 20
-21.19952137
  0
LWPOLYLINE
  5
24F
100
AcDbEntity
  8
0
100
AcDbPolyline
 62
253
  6
CONTINUOUS
 90
14
 70
0
 10
9.8257584032
 20
-20.5509071812
 10
9.8725957464
 20
-20.5502010997
 10
9.9177137218
 20
-20.5493017879
 10
9.9606748692
 20
-20.5482179653
 10
10.001062641
 20
-20.5469601407
 10
10.0384854408
 20
-20.5455405099
 10
10.0725804204
 20
-20.5439728373
 10
10.1030169977
 20
-20.5422723231
 10
10.1295000622
 20
-20.5404554552
 10
10.1517728363
 20
-20.5385398499
 10
10.1696193652
 20
-20.5365440807
 10
10.1828666105
 20
-20.5344874984
 10
10.1913861278
 20
-20.5323900434
 10
10.1950953128
 20
-20.5302720526
  0
LINE
  5
250
100
AcDbEntity
  8
0
100
AcDbLine
 62
253
  6
CONTINUOUS
 10
9.7287544044
 20
-20.5517142088
 11
9.8257584032
 21
-20.5509071812
  0
LINE
  5
251
100
AcDbEntity
  8
0
100
AcDbLine
 62
253
  6
CONTINUOUS
 10
-11.1129815072
 20
-21.6988361386
 11
-7.7434159379
 21
-21.6888100024
  0
LINE
  5
252
100
AcDbEntity
  8
0
100
AcDbLine
 62
253
  6
CONTINUOUS
 10
-7.7434159379
 20
-21.6888100024
 11
-4.3713698836
 21
-21.6826558367
  0
LINE
  5
253
100
AcDbEntity
  8
0
100
AcDbLine
 62
253
  6
CONTINUOUS
 10
-4.3713698836
 20
-21.6826558367
 11
-0.9977127892
 21
-21.6803756272
  0
LINE
  5
254
100
AcDbEntity
  8
0
100
AcDbLine
 62
7
  6
CONTINUOUS
 10
-11.2051599646
 20
-21.8833195542
 11
-8.506065801
 21
-21.8833195542
  0
LINE
  5
255
100
AcDbEntity
  8
0
100
AcDbLine
 62
7
  6
CONTINUOUS
 10
-4.0942225406
 20
-21.8833195542
 11
2.693934199
 21
-21.8833195542
  0
LINE
  5
256
100
AcDbEntity
  8
0
100
AcDbLine
 62
7
  6
CONTINUOUS
 10
7.1057774594
 20
-21.8833195542
 11
9.804871623
 21
-21.8833195542
  0
LINE
  5
257
100
AcDbEntity
  8
0
100
AcDbLine
 62
7
  6
CONTINUOUS
 10
-7.984674117
 20
-21.8464728559
 11
-4.6156142247
 21
-21.8464728559
  0
LINE
  5
258
100
AcDbEntity
  8
0
100
AcDbLine
 62
7
  6
CONTINUOUS
 10
3.215325883
 20
-21.8464728559
 11
6.5843857753
 21
-21.8464728559
  0
LINE
  5
259
100
AcDbEntity
  8
0
100
AcDbLine
 62
253
  6
CONTINUOUS
 10
-0.9977127892
 20
-21.6803756272
 11
2.3700148678
 21
-21.6819625619
  0
LINE
  5
25A
100
AcDbEntity
  8
0
100
AcDbLine
 62
253
  6
CONTINUOUS
 10
2.3700148678
 20
-21.6819625619
 11
5.8410285094
 21
-21.6876481054
  0
LWPOLYLINE
  5
25B
100
AcDbEntity
  8
0
100
AcDbPolyline
 62
253
  6
CONTINUOUS
 90
3
 70
0
 10
5.8410285094
 20
-21.6876481054
 10
8.8951147505
 20
-21.6960752315
 10
9.7126931649
 20
-21.6988361374
  0
LWPOLYLINE
  5
25C
100
AcDbEntity
  8
0
100
AcDbPolyline
 62
253
  6
CONTINUOUS
 90
15
 70
0
 10
-11.1290418962
 20
-20.5517136622
 10
-11.2260449859
 20
-20.5509066604
 10
-11.2728819342
 20
-20.5502006007
 10
-11.3179995718
 20
-20.5493013161
 10
-11.3609604505
 20
-20.5482175259
 10
-11.4013480336
 20
-20.5469597379
 10
-11.4387707343
 20
-20.5455401472
 10
-11.4728657123
 20
-20.5439725179
 10
-11.5033023924
 20
-20.5422720492
 10
-11.5297856687
 20
-20.5404552283
 10
-11.5520587669
 20
-20.5385396707
 10
-11.5699057332
 20
-20.5365439491
 10
-11.5831535283
 20
-20.5344874135
 10
-11.5916737052
 20
-20.5323900034
 10
-11.5953836548
 20
-20.5302720547
  0
LWPOLYLINE
  5
25D
100
AcDbEntity
  8
0
100
AcDbPolyline
 62
253
  6
CONTINUOUS
 90
16
 70
0
 10
-11.1129815072
 20
-21.6988361386
 10
-11.1651824772
 20
-21.6960341634
 10
-11.2168125188
 20
-21.6878017663
 10
-11.2673069477
 20
-21.6742289861
 10
-11.3161135001
 20
-21.6554642699
 10
-11.3626983728
 20
-21.6317128498
 10
-11.4065520612
 20
-21.603234498
 10
-11.4471949321
 20
-21.5703406858
 10
-11.4841824695
 20
-21.5333911769
 10
-11.5171101359
 20
-21.4927900926
 10
-11.5456177976
 20
-21.448981492
 10
-11.5693936626
 20
-21.4024445153
 10
-11.5881776914
 20
-21.3536881429
 10
-11.6017644407
 20
-21.3032456296
 10
-11.6100053106
 20
-21.2516686711
 10
-11.6128101697
 20
-21.1995213712
  0
LINE
  5
25E
100
AcDbEntity
  8
0
100
AcDbLine
 62
7
  6
CONTINUOUS
 10
-4.0942225406
 20
-21.8833195542
 11
-4.4424091439
 21
-21.8517136338
  0
LINE
  5
25F
100
AcDbEntity
  8
0
100
AcDbLine
 62
7
  6
CONTINUOUS
 10
7.1057774594
 20
-21.8833195542
 11
6.7575908561
 21
-21.8517136338
  0
LINE
  5
260
100
AcDbEntity
  8
0
100
AcDbLine
 62
253
  6
CONTINUOUS
 10
-11.1290427476
 20
-20.5517141773
 11
-5.7262223456
 21
-20.5462621312
  0
LINE
  5
261
100
AcDbEntity
  8
0
100
AcDbLine
 62
253
  6
CONTINUOUS
 10
-5.7262223456
 20
-20.5462621312
 11
5.8565712366
 21
-20.5474182206
  0
LINE
  5
262
100
AcDbEntity
  8
0
100
AcDbLine
 62
253
  6
CONTINUOUS
 10
5.8565712366
 20
-20.5474182206
 11
9.7287544045
 21
-20.5517141949
  0
LWPOLYLINE
  5
263
100
AcDbEntity
  8
0
100
AcDbPolyline
 62
253
  6
CONTINUOUS
 90
7
 70
0
 10
-11.1129815066
 20
22.3499427459
 10
-11.1140332029
 20
22.3425568087
 10
-11.1151267214
 20
22.3292811374
 10
-11.116234183
 20
22.3101843593
 10
-11.1173069479
 20
22.285364709
 10
-11.1183390792
 20
22.2549472322
 10
-11.1203685062
 20
22.1779424602
  0
LWPOLYLINE
  5
264
100
AcDbEntity
  8
0
100
AcDbPolyline
 62
253
  6
CONTINUOUS
 90
23
 70
0
 10
0.6551369747
 20
-12.194270111
 10
0.6578891801
 20
-12.1936328244
 10
0.6606306103
 20
-12.192951116
 10
0.6633613567
 20
-12.1922253916
 10
0.6660815107
 20
-12.1914560567
 10
0.6687911638
 20
-12.1906435171
 10
0.6714904075
 20
-12.1897881784
 10
0.6741793331
 20
-12.1888904464
 10
0.676858032
 20
-12.1879507268
 10
0.6795265958
 20
-12.1869694252
 10
0.6821851158
 20
-12.1859469473
 10
0.6848336835
 20
-12.1848836988
 10
0.6874723699
 20
-12.1837799951
 10
0.6901011642
 20
-12.1826357902
 10
0.6927200353
 20
-12.1814509476
 10
0.695328952
 20
-12.1802253311
 10
0.6979278833
 20
-12.1789588041
 10
0.7005167978
 20
-12.1776512305
 10
0.7030956646
 20
-12.1763024738
 10
0.7056644523
 20
-12.1749123976
 10
0.70822313
 20
-12.1734808656
 10
0.7107716663
 20
-12.1720077415
 10
0.7133100303
 20
-12.1704928888
  0
LWPOLYLINE
  5
265
100
AcDbEntity
  8
0
100
AcDbPolyline
 62
253
  6
CONTINUOUS
 90
46
 70
0
 10
-2.8639271911
 20
-12.4660148331
 10
-2.8233332966
 20
-12.4653091038
 10
-2.7830501664
 20
-12.4631609652
 10
-2.7430222869
 20
-12.4595046016
 10
-2.703194145
 20
-12.4542741974
 10
-2.6635102271
 20
-12.4474039368
 10
-2.6239518713
 20
-12.4388372428
 10
-2.5846478221
 20
-12.4285544926
 10
-2.5457636751
 20
-12.4165453019
 10
-2.5074650261
 20
-12.4027992863
 10
-2.4699174709
 20
-12.3873060616
 10
-2.4393067658
 20
-12.3730643117
 10
-2.4093426985
 20
-12.3576646169
 10
-2.3800353167
 20
-12.3411695835
 10
-2.3514047173
 20
-12.3236430725
 10
-2.3235111929
 20
-12.3051539639
 10
-2.2964250853
 20
-12.2857723926
 10
-2.2702015211
 20
-12.2655609318
 10
-2.2448347673
 20
-12.2445519069
 10
-2.2203038757
 20
-12.2227700817
 10
-2.1966026163
 20
-12.2002332055
 10
-2.1737836318
 20
-12.1769309697
 10
-2.1519142826
 20
-12.1528460513
 10
-2.1310668269
 20
-12.1279631598
 10
-2.1113331123
 20
-12.1022751338
 10
-2.0928098836
 20
-12.0757768448
 10
-2.0755808406
 20
-12.048471955
 10
-2.0596775029
 20
-12.0203992908
 10
-2.0451183449
 20
-11.9916064696
 10
-2.0319082852
 20
-11.9621475198
 10
-2.0199980191
 20
-11.9321021126
 10
-2.0093246864
 20
-11.9015563305
 10
-1.9998246103
 20
-11.870592234
 10
-1.9914308479
 20
-11.8392757973
 10
-1.9840756404
 20
-11.8076689733
 10
-1.9776913836
 20
-11.7758352041
 10
-1.9722110934
 20
-11.7438438908
 10
-1.9675679408
 20
-11.711765924
 10
-1.9620179363
 20
-11.663668648
 10
-1.9579232583
 20
-11.6159376206
 10
-1.955003412
 20
-11.5688761367
 10
-1.9529673941
 20
-11.5223938114
 10
-1.9515417748
 20
-11.4763598494
 10
-1.9505339284
 20
-11.4308754952
 10
-1.9495934381
 20
-11.3712519734
 10
-1.9486210328
 20
-11.2547055024
  0
LWPOLYLINE
  5
266
100
AcDbEntity
  8
0
100
AcDbPolyline
 62
253
  6
CONTINUOUS
 90
46
 70
0
 10
-2.8639271911
 20
-12.4972356665
 10
-2.8228997646
 20
-12.4965396747
 10
-2.7821628077
 20
-12.4944099067
 10
-2.7416602597
 20
-12.4907816633
 10
-2.7013360599
 20
-12.4855902456
 10
-2.6611341476
 20
-12.4787709545
 10
-2.6210356808
 20
-12.4702681245
 10
-2.5811706922
 20
-12.4600622246
 10
-2.5417064334
 20
-12.4481427572
 10
-2.5028101557
 20
-12.4344992249
 10
-2.4646491106
 20
-12.4191211301
 10
-2.433516679
 20
-12.4049840812
 10
-2.4030245987
 20
-12.3896928094
 10
-2.3731864962
 20
-12.3733049392
 10
-2.3440258659
 20
-12.3558814228
 10
-2.3156056754
 20
-12.3374965239
 10
-2.2879987604
 20
-12.3182278342
 10
-2.2612606757
 20
-12.2981444241
 10
-2.2353778528
 20
-12.2772812787
 10
-2.210319442
 20
-12.2556648621
 10
-2.186068469
 20
-12.2333186553
 10
-2.1626634589
 20
-12.2102542085
 10
-2.1401568121
 20
-12.1864800887
 10
-2.1186075804
 20
-12.1619977113
 10
-2.0981014215
 20
-12.1367798849
 10
-2.0787306447
 20
-12.1107922659
 10
-2.0605795512
 20
-12.0840125152
 10
-2.0437004106
 20
-12.0564663097
 10
-2.0281374842
 20
-12.0281913304
 10
-2.0112314991
 20
-11.9933605474
 10
-1.9961799041
 20
-11.9576484159
 10
-1.9828780043
 20
-11.9211687607
 10
-1.9712211049
 20
-11.8840354068
 10
-1.9611045109
 20
-11.8463621792
 10
-1.9524218171
 20
-11.8082662158
 10
-1.9450597764
 20
-11.7698779061
 10
-1.9389034314
 20
-11.7313309527
 10
-1.9338378247
 20
-11.6927590581
 10
-1.9297479989
 20
-11.6542959248
 10
-1.9258320946
 20
-11.6065376589
 10
-1.9230326001
 20
-11.559203487
 10
-1.9211208883
 20
-11.5123386538
 10
-1.9198683324
 20
-11.4659884034
 10
-1.9190587619
 20
-11.4201787124
 10
-1.9185258331
 20
-11.3748584856
 10
-1.9173518283
 20
-11.1968568459
  0
LWPOLYLINE
  5
267
100
AcDbEntity
  8
0
100
AcDbPolyline
 62
253
  6
CONTINUOUS
 90
54
 70
0
 10
0.615096697
 20
-12.1673531665
 10
0.6199094847
 20
-12.1672847287
 10
0.624643739
 20
-12.1670808732
 10
0.6293012397
 20
-12.1667437867
 10
0.6338837666
 20
-12.1662756557
 10
0.6383930994
 20
-12.165678667
 10
0.6428310181
 20
-12.1649550073
 10
0.6471993024
 20
-12.1641068631
 10
0.6514997321
 20
-12.1631364211
 10
0.655734087
 20
-12.162045868
 10
0.6604193398
 20
-12.1606791917
 10
0.6650159577
 20
-12.1591726416
 10
0.6695166793
 20
-12.1575355921
 10
0.673914243
 20
-12.1557774177
 10
0.6782011646
 20
-12.1539080884
 10
0.6823690688
 20
-12.1519399571
 10
0.6864093576
 20
-12.1498859727
 10
0.690313433
 20
-12.1477590836
 10
0.6940758342
 20
-12.1455702847
 10
0.6977036483
 20
-12.1433227546
 10
0.7012070997
 20
-12.1410177179
 10
0.7045964128
 20
-12.1386563993
 10
0.7078803411
 20
-12.1362405202
 10
0.711061755
 20
-12.133773789
 10
0.7141420543
 20
-12.1312604108
 10
0.7171226384
 20
-12.1287045907
 10
0.7204088616
 20
-12.1257365937
 10
0.7235696375
 20
-12.1227220254
 10
0.7266079309
 20
-12.1196642564
 10
0.7295267065
 20
-12.1165666571
 10
0.732328929
 20
-12.1134325982
 10
0.7350175632
 20
-12.1102654502
 10
0.7375955738
 20
-12.1070685837
 10
0.7404665302
 20
-12.1033055033
 10
0.743190487
 20
-12.0995098814
 10
0.7457669802
 20
-12.095685039
 10
0.7481955459
 20
-12.0918342971
 10
0.7504757202
 20
-12.0879609767
 10
0.7526070392
 20
-12.0840683989
 10
0.7545891219
 20
-12.0801590559
 10
0.7564219201
 20
-12.0762321248
 10
0.7581054685
 20
-12.0722859539
 10
0.7596402499
 20
-12.0683196777
 10
0.7610285388
 20
-12.0643355738
 10
0.7622730578
 20
-12.060336706
 10
0.7633786767
 20
-12.0563256376
 10
0.7643588543
 20
-12.05230293
 10
0.7652291969
 20
-12.0482686439
 10
0.7660045601
 20
-12.0442230063
 10
0.7666967985
 20
-12.0401669072
 10
0.7673170159
 20
-12.0361014028
 10
0.7681365122
 20
-12.0299877665
 10
0.7688559361
 20
-12.0238585802
 10
0.7701425303
 20
-12.0115664999
  0
LWPOLYLINE
  5
268
100
AcDbEntity
  8
0
100
AcDbPolyline
 62
253
  6
CONTINUOUS
 90
47
 70
0
 10
-2.864296313
 20
-12.1901775051
 10
-2.8896394395
 20
-12.1896336133
 10
-2.914700098
 20
-12.1880788892
 10
-2.9395633292
 20
-12.1855267718
 10
-2.9642983332
 20
-12.181986134
 10
-2.9889109497
 20
-12.1774475841
 10
-3.0133911776
 20
-12.1718971644
 10
-3.0377173933
 20
-12.1653245705
 10
-3.0618214811
 20
-12.1577341116
 10
-3.0856237022
 20
-12.1491337503
 10
-3.1090480807
 20
-12.1395337978
 10
-3.1320336908
 20
-12.1289539612
 10
-3.1545233693
 20
-12.117416296
 10
-3.1764645036
 20
-12.1049382155
 10
-3.1978226826
 20
-12.0915185625
 10
-3.2185680459
 20
-12.0771515369
 10
-3.2336984557
 20
-12.0657576833
 10
-3.248403826
 20
-12.05386493
 10
-3.2626330681
 20
-12.0414998935
 10
-3.2763848746
 20
-12.028646618
 10
-3.2896675477
 20
-12.0152818868
 10
-3.302478046
 20
-12.0013960133
 10
-3.3148097325
 20
-11.9869957592
 10
-3.3266529309
 20
-11.9721401518
 10
-3.3379948553
 20
-11.9568987457
 10
-3.3488133216
 20
-11.9413309399
 10
-3.3590798903
 20
-11.9254794324
 10
-3.3687505006
 20
-11.909330273
 10
-3.3777840844
 20
-11.8928543841
 10
-3.3861671677
 20
-11.8760188262
 10
-3.3938940174
 20
-11.8588087803
 10
-3.4009622718
 20
-11.84128577
 10
-3.409378349
 20
-11.8175583885
 10
-3.4167303605
 20
-11.7935138521
 10
-3.4231277772
 20
-11.7692480815
 10
-3.4286813016
 20
-11.7448408967
 10
-3.4335065606
 20
-11.720307713
 10
-3.4377204125
 20
-11.6956478448
 10
-3.4430998405
 20
-11.6584414302
 10
-3.4474573965
 20
-11.6210806439
 10
-3.4508984723
 20
-11.5836648451
 10
-3.4535865738
 20
-11.5461619855
 10
-3.4556908007
 20
-11.5085257412
 10
-3.457344512
 20
-11.4707840943
 10
-3.4596918933
 20
-11.3950301274
 10
-3.4610931606
 20
-11.3185690548
 10
-3.4616652987
 20
-11.2669737534
  0
LWPOLYLINE
  5
269
100
AcDbEntity
  8
0
100
AcDbPolyline
 62
253
  6
CONTINUOUS
 90
43
 70
0
 10
-2.8630451457
 20
-12.1589568276
 10
-2.8913592531
 20
-12.1583197273
 10
-2.9190434175
 20
-12.1563896886
 10
-2.9461028153
 20
-12.1532241161
 10
-2.9725426225
 20
-12.1488804145
 10
-2.9983680154
 20
-12.1434159884
 10
-3.0235841702
 20
-12.1368882425
 10
-3.0481930979
 20
-12.129348799
 10
-3.0721841482
 20
-12.1208261509
 10
-3.0955435059
 20
-12.1113430088
 10
-3.1182573554
 20
-12.100922083
 10
-3.1403118815
 20
-12.0895860842
 10
-3.1616932687
 20
-12.0773577229
 10
-3.1823832261
 20
-12.0642584557
 10
-3.2023455601
 20
-12.0503047236
 10
-3.2215396017
 20
-12.0355117137
 10
-3.2399308691
 20
-12.0198859008
 10
-3.2575096302
 20
-12.0033989103
 10
-3.2742723398
 20
-11.9860136554
 10
-3.2902116426
 20
-11.9677170955
 10
-3.3053049402
 20
-11.9485923765
 10
-3.3195258238
 20
-11.9287466903
 10
-3.332835673
 20
-11.9082728179
 10
-3.345147022
 20
-11.8872058956
 10
-3.3563601935
 20
-11.8655666486
 10
-3.3663998875
 20
-11.8433823633
 10
-3.3752883134
 20
-11.8207065719
 10
-3.3830720576
 20
-11.7975993679
 10
-3.389812063
 20
-11.774132104
 10
-3.3956266961
 20
-11.75042117
 10
-3.4006486797
 20
-11.7265942148
 10
-3.4069582812
 20
-11.6908241175
 10
-3.4120660635
 20
-11.6549628572
 10
-3.416229942
 20
-11.6189331494
 10
-3.4196074311
 20
-11.5828178742
 10
-3.4223239369
 20
-11.546705881
 10
-3.4244768335
 20
-11.510549732
 10
-3.4261547077
 20
-11.4742838683
 10
-3.4274390299
 20
-11.437906534
 10
-3.4291697302
 20
-11.3647837833
 10
-3.4303010156
 20
-11.2908852837
 10
-3.4309687774
 20
-11.2159577535
 10
-3.4311165761
 20
-11.1396891471
  0
LWPOLYLINE
  5
26A
100
AcDbEntity
  8
0
100
AcDbPolyline
 62
253
  6
CONTINUOUS
 90
8
 70
0
 10
-11.1124230603
 20
0.703053732
 10
-11.1087839047
 20
0.6699545498
 10
-11.1048529282
 20
0.6413115933
 10
-11.1012030608
 20
0.6173887597
 10
-11.0969304841
 20
0.5983490457
 10
-11.0920375309
 20
0.5844498736
 10
-11.0874993984
 20
0.5759036489
 10
-11.0838037174
 20
0.5727615269
  0
LWPOLYLINE
  5
26B
100
AcDbEntity
  8
0
100
AcDbPolyline
 62
253
  6
CONTINUOUS
 90
16
 70
0
 10
-11.5836323799
 20
1.0727424884
 10
-11.5809468433
 20
1.0210965568
 10
-11.5729066745
 20
0.96983257
 10
-11.5595450639
 20
0.9195110608
 10
-11.540931143
 20
0.8706388194
 10
-11.5172295204
 20
0.8238263756
 10
-11.4887539293
 20
0.7797542335
 10
-11.4558590936
 20
0.7389541807
 10
-11.4188752625
 20
0.701820944
 10
-11.3781980156
 20
0.668755134
 10
-11.3342639126
 20
0.6401192117
 10
-11.2875606955
 20
0.6162381157
 10
-11.2386139825
 20
0.5973831455
 10
-11.1879672815
 20
0.5837629146
 10
-11.1361738095
 20
0.5755254698
 10
-11.0838037174
 20
0.5727615269
  0
LWPOLYLINE
  5
26C
100
AcDbEntity
  8
0
100
AcDbPolyline
 62
253
  6
CONTINUOUS
 90
4
 70
0
 10
-11.1227292513
 20
0.8713146781
 10
-11.1209283081
 20
0.8246029478
 10
-11.1182141518
 20
0.7806320321
 10
-11.1124230603
 20
0.703053732
  0
LWPOLYLINE
  5
26D
100
AcDbEntity
  8
0
100
AcDbPolyline
 62
253
  6
CONTINUOUS
 90
6
 70
0
 10
-11.11833908
 20
-21.6038406237
 10
-11.1173069486
 20
-21.6342581001
 10
-11.1162341836
 20
-21.6590777505
 10
-11.115126722
 20
-21.6781745291
 10
-11.1140332035
 20
-21.6914502011
 10
-11.1129815072
 20
-21.6988361386
  0
LINE
  5
26E
100
AcDbEntity
  8
0
100
AcDbLine
 62
253
  6
CONTINUOUS
 10
-11.1203685071
 20
-21.5268358529
 11
-11.11833908
 21
-21.6038406237
  0
LINE
  5
26F
100
AcDbEntity
  8
0
100
AcDbLine
 62
253
  6
CONTINUOUS
 10
-11.6011564536
 20
21.6611070929
 11
-11.5993993713
 21
21.5886852896
  0
LINE
  5
270
100
AcDbEntity
  8
0
100
AcDbLine
 62
253
  6
CONTINUOUS
 10
-11.1222423225
 20
-21.4295907849
 11
-11.1203685071
 21
-21.5268358529
  0
LINE
  5
271
100
AcDbEntity
  8
0
100
AcDbLine
 62
253
  6
CONTINUOUS
 10
-11.5993993713
 20
21.5886852896
 11
-11.5979288092
 21
21.5076136011
  0
LINE
  5
272
100
AcDbEntity
  8
0
100
AcDbLine
 62
253
  6
CONTINUOUS
 10
-11.1247417821
 20
-21.2501194334
 11
-11.1222423225
 21
-21.4295907849
  0
LINE
  5
273
100
AcDbEntity
  8
0
100
AcDbLine
 62
253
  6
CONTINUOUS
 10
-11.5979288092
 20
21.5076136011
 11
-11.596774019
 21
21.4197524117
  0
LINE
  5
274
100
AcDbEntity
  8
0
100
AcDbLine
 62
253
  6
CONTINUOUS
 10
-11.1273152102
 20
-20.9609322097
 11
-11.1247417821
 21
-21.2501194334
  0
LINE
  5
275
100
AcDbEntity
  8
0
100
AcDbLine
 62
253
  6
CONTINUOUS
 10
-11.596774019
 20
21.4197524117
 11
-11.5956745699
 21
21.2788878739
  0
LWPOLYLINE
  5
276
100
AcDbEntity
  8
0
100
AcDbPolyline
 62
253
  6
CONTINUOUS
 90
3
 70
0
 10
-11.126469834
 20
-0.4224030675
 10
-11.1266947012
 20
-0.3694144727
 10
-11.1258421296
 20
-0.3181639116
  0
LINE
  5
277
100
AcDbEntity
  8
0
100
AcDbLine
 62
7
  6
CONTINUOUS
 10
-11.7057863862
 20
-21.3856013999
 11
-11.7255142944
 21
-12.7744466958
  0
LINE
  5
278
100
AcDbEntity
  8
0
100
AcDbLine
 62
253
  6
CONTINUOUS
 10
-11.1290427528
 20
-20.5517141764
 11
-11.1273152102
 21
-20.9609322097
  0
LINE
  5
279
100
AcDbEntity
  8
0
100
AcDbLine
 62
253
  6
CONTINUOUS
 10
-11.5956745699
 20
21.2788878739
 11
-11.5851628929
 21
7.8849758764
  0
LINE
  5
27A
100
AcDbEntity
  8
0
100
AcDbLine
 62
7
  6
CONTINUOUS
 10
-11.7255142944
 20
13.4255533042
 11
-11.7255142944
 21
1.025458122
  0
LINE
  5
27B
100
AcDbEntity
  8
0
100
AcDbLine
 62
7
  6
CONTINUOUS
 10
-11.7255142944
 20
-12.7744466958
 11
-11.7255142944
 21
-0.3743515136
  0
LINE
  5
27C
100
AcDbEntity
  8
0
100
AcDbLine
 62
253
  6
CONTINUOUS
 10
-11.5851628929
 20
7.8849758764
 11
-11.5836323799
 21
1.0727424884
  0
LINE
  5
27D
100
AcDbEntity
  8
0
100
AcDbLine
 62
253
  6
CONTINUOUS
 10
-11.1264696182
 20
-0.422403071
 11
-11.1290427476
 21
-20.5517141773
  0
LINE
  5
27E
100
AcDbEntity
  8
0
100
AcDbLine
 62
253
  6
CONTINUOUS
 10
-11.5836323774
 20
-0.4216358808
 11
-11.5858841566
 21
-8.8426716447
  0
LINE
  5
27F
100
AcDbEntity
  8
0
100
AcDbLine
 62
253
  6
CONTINUOUS
 10
-11.5858841566
 20
-8.8426716447
 11
-11.5927796114
 21
-18.0280792346
  0
LINE
  5
280
100
AcDbEntity
  8
0
100
AcDbLine
 62
7
  6
CONTINUOUS
 10
-11.7057863862
 20
22.0367080084
 11
-11.7255142944
 21
13.4255533042
  0
LINE
  5
281
100
AcDbEntity
  8
0
100
AcDbLine
 62
253
  6
CONTINUOUS
 10
-11.1285693327
 20
21.3701628543
 11
-11.1264696297
 21
1.073509685
  0
LINE
  5
282
100
AcDbEntity
  8
0
100
AcDbLine
 62
253
  6
CONTINUOUS
 10
-11.5927796114
 20
-18.0280792346
 11
-11.5956745705
 21
-20.6277812674
  0
LWPOLYLINE
  5
283
100
AcDbEntity
  8
0
100
AcDbPolyline
 62
253
  6
CONTINUOUS
 90
4
 70
0
 10
-11.1264698367
 20
1.0735096872
 10
-11.1266945752
 20
1.0205230895
 10
-11.1258420848
 20
0.9692742022
 10
-11.1227292513
 20
0.8713146781
  0
LINE
  5
284
100
AcDbEntity
  8
0
100
AcDbLine
 62
253
  6
CONTINUOUS
 10
-11.1261439725
 20
21.7626292847
 11
-11.1285693327
 21
21.3701628543
  0
LINE
  5
285
100
AcDbEntity
  8
0
100
AcDbLine
 62
253
  6
CONTINUOUS
 10
-11.5956745705
 20
-20.6277812674
 11
-11.5967740197
 21
-20.7686458052
  0
LINE
  5
286
100
AcDbEntity
  8
0
100
AcDbLine
 62
253
  6
CONTINUOUS
 10
-11.1239538102
 20
21.9651558686
 11
-11.1261439725
 21
21.7626292847
  0
LINE
  5
287
100
AcDbEntity
  8
0
100
AcDbLine
 62
253
  6
CONTINUOUS
 10
-11.5967740197
 20
-20.7686458052
 11
-11.5979288099
 21
-20.8565069947
  0
LINE
  5
288
100
AcDbEntity
  8
0
100
AcDbLine
 62
253
  6
CONTINUOUS
 10
-11.1222423216
 20
22.0806973914
 11
-11.1239538102
 21
21.9651558686
  0
LINE
  5
289
100
AcDbEntity
  8
0
100
AcDbLine
 62
253
  6
CONTINUOUS
 10
-11.5979288099
 20
-20.8565069947
 11
-11.5993993719
 21
-20.9375786832
  0
LINE
  5
28A
100
AcDbEntity
  8
0
100
AcDbLine
 62
253
  6
CONTINUOUS
 10
-11.1203685062
 20
22.1779424602
 11
-11.1222423216
 21
22.0806973914
  0
LWPOLYLINE
  5
28B
100
AcDbEntity
  8
0
100
AcDbPolyline
 62
253
  6
CONTINUOUS
 90
12
 70
0
 10
-11.5993993719
 20
-20.9375786832
 10
-11.6011564543
 20
-21.0100004864
 10
-11.6021280686
 20
-21.0424640215
 10
-11.6031580802
 20
-21.0722123586
 10
-11.6042456334
 20
-21.0992871455
 10
-11.6053746395
 20
-21.1232874067
 10
-11.6065462851
 20
-21.1441683958
 10
-11.6077593837
 20
-21.1619748592
 10
-11.6089942862
 20
-21.176440062
 10
-11.6102444433
 20
-21.1874750924
 10
-11.6115164045
 20
-21.1951688622
 10
-11.6128101697
 20
-21.1995213712
  0
LWPOLYLINE
  5
28C
100
AcDbEntity
  8
0
100
AcDbPolyline
 62
253
  6
CONTINUOUS
 90
4
 70
0
 10
-11.1258421296
 20
-0.3181639116
 10
-11.1227289981
 20
-0.2202020495
 10
-11.1209280155
 20
-0.1734896599
 10
-11.1182137215
 20
-0.1295185268
  0
LWPOLYLINE
  5
28D
100
AcDbEntity
  8
0
100
AcDbPolyline
 62
253
  6
CONTINUOUS
 90
16
 70
0
 10
-11.5836323774
 20
-0.4216358808
 10
-11.5809468358
 20
-0.3699899012
 10
-11.5729066544
 20
-0.3187258787
 10
-11.5595450271
 20
-0.2684043467
 10
-11.5409310896
 20
-0.2195320966
 10
-11.5172294535
 20
-0.172719656
 10
-11.4887538532
 20
-0.1286475241
 10
-11.4558590149
 20
-0.0878474882
 10
-11.4188751889
 20
-0.0507142721
 10
-11.3781979492
 20
-0.0176484798
 10
-11.3342638517
 20
0.0109874297
 10
-11.2875606406
 20
0.0348685153
 10
-11.2386139364
 20
0.0537234764
 10
-11.1879672478
 20
0.0673436996
 10
-11.1361737903
 20
0.0755811395
 10
-11.0838037149
 20
0.0783450807
  0
LWPOLYLINE
  5
28E
100
AcDbEntity
  8
0
100
AcDbPolyline
 62
253
  6
CONTINUOUS
 90
9
 70
0
 10
-11.1182137215
 20
-0.1295185268
 10
-11.1124224809
 20
-0.0519411644
 10
-11.1087833159
 20
-0.0188429106
 10
-11.1048523171
 20
0.00979893
 10
-11.1012025117
 20
0.0337205832
 10
-11.096930055
 20
0.0527592247
 10
-11.0920372489
 20
0.0666575358
 10
-11.0874992723
 20
0.0752031799
 10
-11.0838037153
 20
0.0783450807
  0
LWPOLYLINE
  5
28F
100
AcDbEntity
  8
0
100
AcDbPolyline
 62
253
  6
CONTINUOUS
 90
23
 70
0
 10
-0.8887338677
 20
12.7654855545
 10
-0.8870800399
 20
12.7662468998
 10
-0.8854153244
 20
12.7669789818
 10
-0.8837401007
 20
12.7676824328
 10
-0.8820547483
 20
12.7683578848
 10
-0.8803596469
 20
12.7690059703
 10
-0.8786551759
 20
12.7696273214
 10
-0.8769417149
 20
12.7702225703
 10
-0.8752196435
 20
12.7707923492
 10
-0.8734893413
 20
12.7713372905
 10
-0.8717511877
 20
12.7718580263
 10
-0.8700055624
 20
12.7723551888
 10
-0.8682528448
 20
12.7728294103
 10
-0.866140634
 20
12.7733690389
 10
-0.8640186782
 20
12.7738773639
 10
-0.8618868985
 20
12.7743552062
 10
-0.8597452163
 20
12.774803387
 10
-0.8575935527
 20
12.7752227271
 10
-0.855431829
 20
12.7756140477
 10
-0.8532599662
 20
12.7759781697
 10
-0.8510778858
 20
12.7763159141
 10
-0.8488855089
 20
12.7766281021
 10
-0.8466827566
 20
12.7769155545
  0
LWPOLYLINE
  5
290
100
AcDbEntity
  8
0
100
AcDbPolyline
 62
253
  6
CONTINUOUS
 90
24
 70
0
 10
-1.4203347009
 20
12.2791813879
 10
-1.4167940461
 20
12.280362549
 10
-1.4132758971
 20
12.281598096
 10
-1.409780134
 20
12.2828883119
 10
-1.4063066369
 20
12.2842334794
 10
-1.4028552859
 20
12.2856338817
 10
-1.3994259611
 20
12.2870898014
 10
-1.3960185426
 20
12.2886015217
 10
-1.3926329105
 20
12.2901693252
 10
-1.3892689449
 20
12.2917934951
 10
-1.3859265258
 20
12.2934743141
 10
-1.3826055334
 20
12.2952120653
 10
-1.3795801515
 20
12.2968553593
 10
-1.3765734255
 20
12.2985475518
 10
-1.3735861078
 20
12.3002894647
 10
-1.3706189507
 20
12.30208192
 10
-1.3676727065
 20
12.3039257396
 10
-1.3647481277
 20
12.3058217454
 10
-1.3618459665
 20
12.3077707594
 10
-1.3589669752
 20
12.3097736036
 10
-1.3561119062
 20
12.3118311
 10
-1.3532815119
 20
12.3139440704
 10
-1.3504765445
 20
12.3161133369
 10
-1.3476977564
 20
12.3183397213
  0
LWPOLYLINE
  5
291
100
AcDbEntity
  8
0
100
AcDbPolyline
 62
253
  6
CONTINUOUS
 90
25
 70
0
 10
-0.5474285524
 20
-10.6583918965
 10
-0.5519523765
 20
-10.65930859
 10
-0.5544415962
 20
-10.6598566488
 10
-0.5569257591
 20
-10.660448671
 10
-0.55940494
 20
-10.6610843175
 10
-0.5618792137
 20
-10.6617632493
 10
-0.5643486553
 20
-10.6624851275
 10
-0.5668133395
 20
-10.663249613
 10
-0.5692733412
 20
-10.6640563668
 10
-0.5717287352
 20
-10.6649050499
 10
-0.5741795965
 20
-10.6657953233
 10
-0.5766259999
 20
-10.6667268479
 10
-0.5790680202
 20
-10.6676992849
 10
-0.5815057102
 20
-10.6687123795
 10
-0.5839390331
 20
-10.6697662145
 10
-0.5863679302
 20
-10.6708609571
 10
-0.5887923427
 20
-10.6719967743
 10
-0.5912122117
 20
-10.6731738333
 10
-0.5936274784
 20
-10.6743923013
 10
-0.596038084
 20
-10.6756523453
 10
-0.5984439697
 20
-10.6769541325
 10
-0.6008450765
 20
-10.67829783
 10
-0.6032413458
 20
-10.679683605
 10
-0.6056327186
 20
-10.6811116245
 10
-0.6080191361
 20
-10.6825820558
  0
LWPOLYLINE
  5
292
100
AcDbEntity
  8
0
100
AcDbPolyline
 62
253
  6
CONTINUOUS
 90
25
 70
0
 10
1.5953250301
 20
-10.516988167
 10
1.5925563292
 20
-10.5173362966
 10
1.5897978
 20
-10.5177184928
 10
1.5870493094
 20
-10.518135501
 10
1.5843107243
 20
-10.5185880669
 10
1.5815819115
 20
-10.5190769362
 10
1.578862738
 20
-10.5196028545
 10
1.5761530707
 20
-10.5201665674
 10
1.5734527764
 20
-10.5207688205
 10
1.570761722
 20
-10.5214103596
 10
1.5680797744
 20
-10.5220919302
 10
1.5654068005
 20
-10.5228142779
 10
1.5631520574
 20
-10.5234579501
 10
1.5609041249
 20
-10.5241321194
 10
1.5586634839
 20
-10.5248375537
 10
1.5564306155
 20
-10.5255750208
 10
1.5542060005
 20
-10.5263452884
 10
1.5519901199
 20
-10.5271491245
 10
1.5497834547
 20
-10.5279872969
 10
1.5475864857
 20
-10.5288605732
 10
1.5453996941
 20
-10.5297697214
 10
1.5432235606
 20
-10.5307155093
 10
1.5410585663
 20
-10.5316987047
 10
1.5389051921
 20
-10.5327200754
 10
1.536763919
 20
-10.5337803892
  0
LWPOLYLINE
  5
293
100
AcDbEntity
  8
0
100
AcDbPolyline
 62
253
  6
CONTINUOUS
 90
25
 70
0
 10
0.5935772525
 20
-10.1088242782
 10
0.5906697472
 20
-10.1091837446
 10
0.5877637396
 20
-10.1095832009
 10
0.5848584879
 20
-10.1100239074
 10
0.5819532503
 20
-10.1105071245
 10
0.5790472851
 20
-10.1110341127
 10
0.5761398506
 20
-10.1116061322
 10
0.573230205
 20
-10.1122244435
 10
0.5706822562
 20
-10.1128043668
 10
0.5681338775
 20
-10.1134211603
 10
0.5655868995
 20
-10.1140752871
 10
0.563043153
 20
-10.1147672102
 10
0.5605044687
 20
-10.1154973927
 10
0.5579726775
 20
-10.1162662977
 10
0.55544961
 20
-10.1170743882
 10
0.552937097
 20
-10.1179221273
 10
0.5507138881
 20
-10.1187094213
 10
0.5485005236
 20
-10.1195292649
 10
0.546297062
 20
-10.1203825146
 10
0.5441035619
 20
-10.1212700267
 10
0.5419200816
 20
-10.1221926578
 10
0.5397466798
 20
-10.1231512643
 10
0.537583415
 20
-10.1241467026
 10
0.5354303456
 20
-10.1251798291
 10
0.5332875303
 20
-10.1262515004
  0
LINE
  5
294
100
AcDbEntity
  8
0
100
AcDbLine
 62
253
  6
CONTINUOUS
 10
-0.0744119464
 20
-10.6528727628
 11
-0.0868958029
 21
-10.6542540002
  0
LINE
  5
295
100
AcDbEntity
  8
0
100
AcDbLine
 62
253
  6
CONTINUOUS
 10
-0.0744680335
 20
-10.6842185028
 11
-0.0868958029
 21
-10.6854748336
  0
LWPOLYLINE
  5
296
100
AcDbEntity
  8
0
100
AcDbPolyline
 62
253
  6
CONTINUOUS
 90
13
 70
0
 10
-0.5202547376
 20
-10.6550405685
 10
-0.5231830772
 20
-10.6552674766
 10
-0.5261110684
 20
-10.6555154836
 10
-0.5290388157
 20
-10.6557890857
 10
-0.5310880728
 20
-10.6559982501
 10
-0.5331368357
 20
-10.6562237387
 10
-0.5351846783
 20
-10.6564671306
 10
-0.5372311747
 20
-10.6567300053
 10
-0.5392758988
 20
-10.6570139421
 10
-0.5413184246
 20
-10.6573205202
 10
-0.5433583262
 20
-10.6576513191
 10
-0.5453951774
 20
-10.6580079181
 10
-0.5474285524
 20
-10.6583918965
  0
LINE
  5
297
100
AcDbEntity
  8
0
100
AcDbLine
 62
253
  6
CONTINUOUS
 10
-0.5143965947
 20
-10.654632064
 11
-0.5202547376
 21
-10.6550405685
  0
LINE
  5
298
100
AcDbEntity
  8
0
100
AcDbLine
 62
253
  6
CONTINUOUS
 10
-0.5085358028
 20
-10.6542540002
 11
-0.5143965947
 21
-10.654632064
  0
LWPOLYLINE
  5
299
100
AcDbEntity
  8
0
100
AcDbPolyline
 62
253
  6
CONTINUOUS
 90
55
 70
0
 10
-0.5063838583
 20
-10.6854748336
 10
-0.5115634604
 20
-10.6857660276
 10
-0.5166617088
 20
-10.6860941489
 10
-0.5216877639
 20
-10.6864820512
 10
-0.5266507861
 20
-10.6869525884
 10
-0.530581107
 20
-10.6874033049
 10
-0.5344764252
 20
-10.6879298278
 10
-0.5383362163
 20
-10.6885404505
 10
-0.5421599562
 20
-10.6892434665
 10
-0.5459471204
 20
-10.6900471696
 10
-0.5496963905
 20
-10.6909575331
 10
-0.5534032719
 20
-10.6919712501
 10
-0.557062476
 20
-10.6930826934
 10
-0.5606687143
 20
-10.694286236
 10
-0.5642166979
 20
-10.6955762507
 10
-0.5685624495
 20
-10.6973020781
 10
-0.572803082
 20
-10.6991449155
 10
-0.5769327627
 20
-10.7010954524
 10
-0.5809456589
 20
-10.7031443784
 10
-0.5848372498
 20
-10.705282882
 10
-0.5886082622
 20
-10.7075041475
 10
-0.5922607351
 20
-10.7098018586
 10
-0.5957967075
 20
-10.7121696984
 10
-0.5992182183
 20
-10.7146013505
 10
-0.6025273063
 20
-10.7170904983
 10
-0.6057260105
 20
-10.7196308251
 10
-0.6088163698
 20
-10.7222160144
 10
-0.6122185677
 20
-10.7252183836
 10
-0.6154874226
 20
-10.728267888
 10
-0.6186284403
 20
-10.7313613171
 10
-0.6216471264
 20
-10.7344954606
 10
-0.6245489866
 20
-10.7376671079
 10
-0.6273395267
 20
-10.7408730487
 10
-0.6300242523
 20
-10.7441100724
 10
-0.6330280544
 20
-10.7479219081
 10
-0.6358921576
 20
-10.751768417
 10
-0.6386133941
 20
-10.7556463348
 10
-0.6411885964
 20
-10.759552397
 10
-0.643614597
 20
-10.7634833392
 10
-0.6458882281
 20
-10.767435897
 10
-0.6480067126
 20
-10.7714077429
 10
-0.6499688352
 20
-10.7754002966
 10
-0.6517737706
 20
-10.7794159149
 10
-0.653420851
 20
-10.7834559567
 10
-0.6549100365
 20
-10.7875177897
 10
-0.6562414445
 20
-10.791597784
 10
-0.657418158
 20
-10.7956929176
 10
-0.6584551238
 20
-10.7998026008
 10
-0.6593702543
 20
-10.8039268517
 10
-0.6601805729
 20
-10.8080653714
 10
-0.6608995464
 20
-10.812216591
 10
-0.6615397522
 20
-10.8163786245
 10
-0.6623798396
 20
-10.82263839
 10
-0.663113176
 20
-10.8289152664
 10
-0.6644283027
 20
-10.8415084446
  0
LWPOLYLINE
  5
29A
100
AcDbEntity
  8
0
100
AcDbPolyline
 62
253
  6
CONTINUOUS
 90
31
 70
0
 10
1.6164211412
 20
-11.7592598333
 10
1.6190004047
 20
-11.7592402134
 10
1.6216013141
 20
-11.7591795224
 10
1.6242247451
 20
-11.7590750134
 10
1.6268715734
 20
-11.7589239394
 10
1.6295426745
 20
-11.7587235536
 10
1.6322389243
 20
-11.7584711089
 10
1.6349611984
 20
-11.7581638585
 10
1.6377103724
 20
-11.7577990555
 10
1.6401769843
 20
-11.7574240225
 10
1.642663824
 20
-11.756998054
 10
1.6451691732
 20
-11.7565178583
 10
1.6476913134
 20
-11.755980144
 10
1.6502285264
 20
-11.7553816197
 10
1.6527790937
 20
-11.7547189937
 10
1.655341297
 20
-11.7539889747
 10
1.6579134179
 20
-11.7531882711
 10
1.6604937381
 20
-11.7523135914
 10
1.663080766
 20
-11.7513627596
 10
1.6656739169
 20
-11.7503380613
 10
1.6682728332
 20
-11.7492428974
 10
1.670877157
 20
-11.7480806689
 10
1.6734865306
 20
-11.746854777
 10
1.6761005963
 20
-11.7455686225
 10
1.6787189961
 20
-11.7442256065
 10
1.6813413723
 20
-11.74282913
 10
1.6839673673
 20
-11.7413825939
 10
1.6873497684
 20
-11.7394549604
 10
1.6907450825
 20
-11.7374591182
 10
1.6941608324
 20
-11.7354039879
 10
1.6976045405
 20
-11.7332984903
  0
LINE
  5
29B
100
AcDbEntity
  8
0
100
AcDbLine
 62
253
  6
CONTINUOUS
 10
-0.5085358028
 20
-11.6523698682
 11
-0.0868958029
 21
-11.6523654323
  0
LINE
  5
29C
100
AcDbEntity
  8
0
100
AcDbLine
 62
253
  6
CONTINUOUS
 10
-0.5085358028
 20
-11.6211490339
 11
-0.0868958029
 21
-11.6211446004
  0
LINE
  5
29D
100
AcDbEntity
  8
0
100
AcDbLine
 62
253
  6
CONTINUOUS
 10
-0.0868958029
 20
-10.6854721746
 11
-0.5063838583
 21
-10.6854764945
  0
LINE
  5
29E
100
AcDbEntity
  8
0
100
AcDbLine
 62
253
  6
CONTINUOUS
 10
-0.0868958029
 20
-10.6542513335
 11
-0.5085358028
 21
-10.6542556596
  0
LINE
  5
29F
100
AcDbEntity
  8
0
100
AcDbLine
 62
253
  6
CONTINUOUS
 10
1.6099653078
 20
-11.759154
 11
1.6164211412
 21
-11.7592598333
  0
LWPOLYLINE
  5
2A0
100
AcDbEntity
  8
0
100
AcDbPolyline
 62
253
  6
CONTINUOUS
 90
47
 70
0
 10
-2.8639271911
 20
-10.1163384448
 10
-2.8386815918
 20
-10.116841875
 10
-2.813698783
 20
-10.1183579033
 10
-2.7888929137
 20
-10.1208712491
 10
-2.7641902219
 20
-10.1243734127
 10
-2.7395653001
 20
-10.1288830167
 10
-2.71500483
 20
-10.1344254641
 10
-2.6905187752
 20
-10.1410193537
 10
-2.6662102284
 20
-10.1486560677
 10
-2.6422055644
 20
-10.1573201837
 10
-2.6186247211
 20
-10.1669900345
 10
-2.5955618888
 20
-10.1776189724
 10
-2.5731048204
 20
-10.1891541046
 10
-2.5513271432
 20
-10.2015517881
 10
-2.5302459798
 20
-10.2148053781
 10
-2.5098643269
 20
-10.2289174801
 10
-2.4902038588
 20
-10.2438753853
 10
-2.4713609598
 20
-10.2596051306
 10
-2.4534506922
 20
-10.2760174392
 10
-2.4406858555
 20
-10.2887283856
 10
-2.4284785344
 20
-10.3017803228
 10
-2.4167913564
 20
-10.3151800685
 10
-2.4055647073
 20
-10.3289326421
 10
-2.3947350391
 20
-10.3430481901
 10
-2.3842453095
 20
-10.3575591647
 10
-2.374064315
 20
-10.3725044194
 10
-2.3642577019
 20
-10.3879261076
 10
-2.3549191639
 20
-10.4038595973
 10
-2.3461577344
 20
-10.4203098144
 10
-2.3380596146
 20
-10.4372732437
 10
-2.3306043374
 20
-10.4547430488
 10
-2.3237468719
 20
-10.4727063556
 10
-2.3174505987
 20
-10.4911294619
 10
-2.3116797823
 20
-10.5099914326
 10
-2.3063938087
 20
-10.5293432278
 10
-2.3015551538
 20
-10.5492388632
 10
-2.2971435298
 20
-10.5696726812
 10
-2.2931452676
 20
-10.5905969278
 10
-2.2895559379
 20
-10.6118551355
 10
-2.2853881137
 20
-10.640463336
 10
-2.2818514579
 20
-10.6692744989
 10
-2.2788539158
 20
-10.6982243589
 10
-2.2751950222
 20
-10.741789918
 10
-2.272399032
 20
-10.7854338094
 10
-2.2703230037
 20
-10.8289890749
 10
-2.2688241492
 20
-10.871977479
 10
-2.267757584
 20
-10.9139934602
  0
LWPOLYLINE
  5
2A1
100
AcDbEntity
  8
0
100
AcDbPolyline
 62
253
  6
CONTINUOUS
 90
45
 70
0
 10
-2.8639271911
 20
-10.1476651115
 10
-2.8352132772
 20
-10.1483353721
 10
-2.8070916973
 20
-10.1503540391
 10
-2.7794744727
 20
-10.1536648718
 10
-2.7522909657
 20
-10.1582190873
 10
-2.7255399027
 20
-10.1639977346
 10
-2.6992373515
 20
-10.1709893204
 10
-2.6734072286
 20
-10.179179631
 10
-2.6481048468
 20
-10.1885435697
 10
-2.6233933679
 20
-10.1990533192
 10
-2.5993427736
 20
-10.2106723725
 10
-2.5760503261
 20
-10.2233294652
 10
-2.5536201077
 20
-10.2369446432
 10
-2.5374136212
 20
-10.2477451115
 10
-2.52172096
 20
-10.2590564304
 10
-2.5065215309
 20
-10.2708910113
 10
-2.4918312669
 20
-10.2832433043
 10
-2.4776740269
 20
-10.2961065237
 10
-2.4640688465
 20
-10.3094869028
 10
-2.4510302646
 20
-10.3233852437
 10
-2.4385596558
 20
-10.3377676052
 10
-2.4266477262
 20
-10.352592001
 10
-2.4152556694
 20
-10.3678190091
 10
-2.4043526309
 20
-10.3834254324
 10
-2.3939690739
 20
-10.3994504098
 10
-2.384159149
 20
-10.415948032
 10
-2.3750104377
 20
-10.432969861
 10
-2.3665942972
 20
-10.4505574524
 10
-2.3588837553
 20
-10.4687148647
 10
-2.3518299289
 20
-10.4874305069
 10
-2.3453946197
 20
-10.5066676886
 10
-2.339546977
 20
-10.5263707821
 10
-2.3342748554
 20
-10.5464335116
 10
-2.3281116842
 20
-10.5735837061
 10
-2.3228445521
 20
-10.6011560411
 10
-2.3183596277
 20
-10.6291447495
 10
-2.3138623131
 20
-10.663240397
 10
-2.3102048902
 20
-10.6977235792
 10
-2.3072647885
 20
-10.7323905572
 10
-2.3049194376
 20
-10.7670375925
 10
-2.3030462669
 20
-10.8014609463
 10
-2.3006993364
 20
-10.8579382195
 10
-2.299107919
 20
-10.9132176876
 10
-2.2980563896
 20
-10.9672888237
 10
-2.2973565418
 20
-11.0201711835
  0
LWPOLYLINE
  5
2A2
100
AcDbEntity
  8
0
100
AcDbPolyline
 62
253
  6
CONTINUOUS
 90
24
 70
0
 10
1.6086953078
 20
-11.7903748333
 10
1.6115533968
 20
-11.7904777342
 10
1.6144137337
 20
-11.7905366947
 10
1.6172771215
 20
-11.790551085
 10
1.6201443631
 20
-11.7905202751
 10
1.6230162617
 20
-11.7904436351
 10
1.6258936203
 20
-11.7903205351
 10
1.6287772419
 20
-11.7901503452
 10
1.6313058338
 20
-11.7899623072
 10
1.6338382989
 20
-11.7897373225
 10
1.6363731003
 20
-11.78947498
 10
1.6389087012
 20
-11.7891748683
 10
1.6414435649
 20
-11.7888365764
 10
1.6439761545
 20
-11.788459693
 10
1.6465049332
 20
-11.7880438069
 10
1.6490283643
 20
-11.7875885069
 10
1.6515451964
 20
-11.7870933026
 10
1.65405532
 20
-11.7865573871
 10
1.6565589108
 20
-11.7859798742
 10
1.6590561448
 20
-11.7853598777
 10
1.6615471978
 20
-11.7846965115
 10
1.6640322458
 20
-11.7839888895
 10
1.6665114646
 20
-11.7832361255
 10
1.66898503
 20
-11.7824373333
  0
LWPOLYLINE
  5
2A3
100
AcDbEntity
  8
0
100
AcDbPolyline
 62
253
  6
CONTINUOUS
 90
3
 70
0
 10
-0.0852369509
 20
-11.6524471015
 10
-0.0767657398
 20
-11.6528290117
 10
-0.075469789
 20
-11.6528938674
  0
LINE
  5
2A4
100
AcDbEntity
  8
0
100
AcDbLine
 62
253
  6
CONTINUOUS
 10
-0.0868958029
 20
-11.6211473333
 11
-0.063224414
 21
-11.6224173333
  0
LWPOLYLINE
  5
2A5
100
AcDbEntity
  8
0
100
AcDbPolyline
 62
253
  6
CONTINUOUS
 90
6
 70
0
 10
-0.0741673729
 20
-11.6529632553
 10
-0.0728585973
 20
-11.6530382035
 10
-0.0715435678
 20
-11.65311974
 10
-0.0702223901
 20
-11.6532088932
 10
-0.06889517
 20
-11.653306691
 10
-0.0675620131
 20
-11.6534141617
  0
LINE
  5
2A6
100
AcDbEntity
  8
0
100
AcDbLine
 62
253
  6
CONTINUOUS
 10
0.5961525303
 20
-12.1662595554
 11
0.615096697
 21
-12.1673531665
  0
LWPOLYLINE
  5
2A7
100
AcDbEntity
  8
0
100
AcDbPolyline
 62
253
  6
CONTINUOUS
 90
25
 70
0
 10
-0.0675620131
 20
-11.6534141617
 10
-0.063634417
 20
-11.6537698269
 10
-0.0610528024
 20
-11.6540488363
 10
-0.058478049
 20
-11.6543694029
 10
-0.0559100249
 20
-11.6547315684
 10
-0.0533485978
 20
-11.6551353742
 10
-0.0507936357
 20
-11.6555808619
 10
-0.0482450064
 20
-11.656068073
 10
-0.0457025778
 20
-11.6565970492
 10
-0.0431662179
 20
-11.6571678319
 10
-0.0406357944
 20
-11.6577804628
 10
-0.0381111753
 20
-11.6584349832
 10
-0.0355922284
 20
-11.6591314349
 10
-0.0332720462
 20
-11.6598116666
 10
-0.0309569561
 20
-11.6605282962
 10
-0.0286473296
 20
-11.6612819577
 10
-0.0263435383
 20
-11.6620732853
 10
-0.0240459538
 20
-11.662902913
 10
-0.0217549474
 20
-11.6637714751
 10
-0.0194708909
 20
-11.6646796054
 10
-0.0171941557
 20
-11.6656279383
 10
-0.0149251133
 20
-11.6666171078
 10
-0.0126641353
 20
-11.6676477479
 10
-0.0104115932
 20
-11.6687204928
 10
-0.0081678586
 20
-11.6698359765
  0
LWPOLYLINE
  5
2A8
100
AcDbEntity
  8
0
100
AcDbPolyline
 62
253
  6
CONTINUOUS
 90
32
 70
0
 10
-0.063224414
 20
-11.6224173333
 10
-0.0589967134
 20
-11.6228457124
 10
-0.0548045744
 20
-11.6233642495
 10
-0.0506478266
 20
-11.623971283
 10
-0.0465262998
 20
-11.6246651511
 10
-0.0424398237
 20
-11.6254441921
 10
-0.0383882279
 20
-11.6263067443
 10
-0.0343713423
 20
-11.627251146
 10
-0.0303889964
 20
-11.6282757354
 10
-0.0264410199
 20
-11.6293788508
 10
-0.0220404818
 20
-11.6307121989
 10
-0.0176833754
 20
-11.6321437568
 10
-0.013369849
 20
-11.6336744531
 10
-0.0091000511
 20
-11.6353052162
 10
-0.0048741299
 20
-11.6370369747
 10
-0.000692234
 20
-11.6388706571
 10
0.0034454885
 20
-11.6408071917
 10
0.007538889
 20
-11.6428475072
 10
0.0115879197
 20
-11.644991219
 10
0.0155929341
 20
-11.6472326903
 10
0.0195543861
 20
-11.6495649714
 10
0.0234727299
 20
-11.6519811125
 10
0.0273484193
 20
-11.654474164
 10
0.0311819083
 20
-11.657037176
 10
0.0349736509
 20
-11.6596631987
 10
0.0387241011
 20
-11.6623452826
 10
0.043663249
 20
-11.6659976329
 10
0.0485428447
 20
-11.6697270853
 10
0.0533759378
 20
-11.6735234329
 10
0.0581755779
 20
-11.6773764688
 10
0.0629548145
 20
-11.681275986
 10
0.0677266971
 20
-11.6852117778
  0
LWPOLYLINE
  5
2A9
100
AcDbEntity
  8
0
100
AcDbPolyline
 62
253
  6
CONTINUOUS
 90
23
 70
0
 10
0.5922719748
 20
-12.1973039999
 10
0.5952323318
 20
-12.1976273534
 10
0.598196652
 20
-12.1979057862
 10
0.6011655599
 20
-12.1981390894
 10
0.6041396802
 20
-12.1983270538
 10
0.6071196375
 20
-12.1984694707
 10
0.6101060564
 20
-12.1985661311
 10
0.6130995615
 20
-12.1986168261
 10
0.6161003813
 20
-12.1986213142
 10
0.6191071597
 20
-12.1985792233
 10
0.6221181446
 20
-12.1984901489
 10
0.6251315839
 20
-12.1983536865
 10
0.6281457255
 20
-12.1981694314
 10
0.6311588171
 20
-12.1979369791
 10
0.6341691066
 20
-12.197655925
 10
0.6367996712
 20
-12.1973697699
 10
0.6394269988
 20
-12.1970455467
 10
0.6420513391
 20
-12.1966827078
 10
0.644672942
 20
-12.1962807055
 10
0.6472920572
 20
-12.1958389923
 10
0.6499089345
 20
-12.1953570206
 10
0.6525238238
 20
-12.1948342427
 10
0.6551369747
 20
-12.194270111
  0
LWPOLYLINE
  5
2AA
100
AcDbEntity
  8
0
100
AcDbPolyline
 62
253
  6
CONTINUOUS
 90
20
 70
0
 10
-0.5705541361
 20
-11.6418201111
 10
-0.568308541
 20
-11.6425306238
 10
-0.5660553148
 20
-11.6432034285
 10
-0.5637951824
 20
-11.6438401119
 10
-0.5615288689
 20
-11.6444422611
 10
-0.5592570992
 20
-11.6450114628
 10
-0.5569805983
 20
-11.645549304
 10
-0.5547000913
 20
-11.6460573715
 10
-0.5524163032
 20
-11.6465372524
 10
-0.5501299589
 20
-11.6469905334
 10
-0.547187463
 20
-11.6475367817
 10
-0.5442415546
 20
-11.6480449951
 10
-0.5412918483
 20
-11.6485184868
 10
-0.5383379584
 20
-11.6489605696
 10
-0.5353794996
 20
-11.6493745568
 10
-0.5324160863
 20
-11.6497637613
 10
-0.5294473331
 20
-11.6501314962
 10
-0.5252817866
 20
-11.6506164472
 10
-0.5211064394
 20
-11.6510742005
 10
-0.5085358028
 20
-11.6523681667
  0
LWPOLYLINE
  5
2AB
100
AcDbEntity
  8
0
100
AcDbPolyline
 62
253
  6
CONTINUOUS
 90
23
 70
0
 10
1.548828919
 20
-11.7779217777
 10
1.5514117945
 20
-11.7788950149
 10
1.5540080189
 20
-11.7798287404
 10
1.5566175571
 20
-11.7807231435
 10
1.559240374
 20
-11.7815784134
 10
1.5618764345
 20
-11.7823947394
 10
1.5645257035
 20
-11.7831723108
 10
1.5671881459
 20
-11.7839113169
 10
1.5698637266
 20
-11.784611947
 10
1.5725524105
 20
-11.7852743903
 10
1.5752541625
 20
-11.7858988363
 10
1.5779689476
 20
-11.7864854741
 10
1.5806967408
 20
-11.7870344011
 10
1.5834375581
 20
-11.7875453465
 10
1.5861914255
 20
-11.7880179476
 10
1.5889583693
 20
-11.7884518417
 10
1.5917384155
 20
-11.788846666
 10
1.5945315903
 20
-11.7892020578
 10
1.5973379198
 20
-11.7895176543
 10
1.6001574302
 20
-11.7897930928
 10
1.6029901476
 20
-11.7900280107
 10
1.6058360981
 20
-11.7902220451
 10
1.6086953078
 20
-11.7903748333
  0
LWPOLYLINE
  5
2AC
100
AcDbEntity
  8
0
100
AcDbPolyline
 62
253
  6
CONTINUOUS
 90
18
 70
0
 10
-0.0081678586
 20
-11.6698359765
 10
-0.0035866638
 20
-11.6722194443
 10
-0.0012659919
 20
-11.6734825332
 10
0.0010294968
 20
-11.6747819773
 10
0.0033005864
 20
-11.6761156542
 10
0.005548061
 20
-11.6774814413
 10
0.0077727046
 20
-11.6788772163
 10
0.0099753015
 20
-11.6803008566
 10
0.0121566356
 20
-11.6817502397
 10
0.0146247647
 20
-11.6834356991
 10
0.0170685533
 20
-11.6851501758
 10
0.0194904083
 20
-11.6868918364
 10
0.0218927366
 20
-11.6886588471
 10
0.0242779453
 20
-11.6904493743
 10
0.0266484414
 20
-11.6922615845
 10
0.0290066319
 20
-11.6940936439
 10
0.0322916378
 20
-11.6966881895
 10
0.0355616254
 20
-11.6993118552
  0
LWPOLYLINE
  5
2AD
100
AcDbEntity
  8
0
100
AcDbPolyline
 62
253
  6
CONTINUOUS
 90
25
 70
0
 10
0.5301271253
 20
-12.1784373909
 10
0.5346026443
 20
-12.1807885563
 10
0.5368273865
 20
-12.1819074427
 10
0.5390795114
 20
-12.1829869609
 10
0.5413587186
 20
-12.1840275795
 10
0.543664707
 20
-12.185029767
 10
0.5459971761
 20
-12.1859939919
 10
0.5483558249
 20
-12.1869207229
 10
0.5507403529
 20
-12.1878104285
 10
0.5531504591
 20
-12.1886635773
 10
0.5555858429
 20
-12.1894806378
 10
0.5580462034
 20
-12.1902620786
 10
0.56053124
 20
-12.1910083682
 10
0.5630407126
 20
-12.191719924
 10
0.5655746244
 20
-12.192396958
 10
0.5681330394
 20
-12.1930396313
 10
0.5707160216
 20
-12.1936481046
 10
0.573323635
 20
-12.1942225389
 10
0.5759559435
 20
-12.194763095
 10
0.5786130111
 20
-12.1952699338
 10
0.5812949017
 20
-12.1957432163
 10
0.5840016795
 20
-12.1961831032
 10
0.5867334082
 20
-12.1965897555
 10
0.589490152
 20
-12.1969633341
 10
0.5922719748
 20
-12.1973039999
  0
LINE
  5
2AE
100
AcDbEntity
  8
0
100
AcDbLine
 62
253
  6
CONTINUOUS
 10
-1.3476977564
 20
12.3183397213
 11
-0.9244349788
 21
12.7396269434
  0
LWPOLYLINE
  5
2AF
100
AcDbEntity
  8
0
100
AcDbPolyline
 62
253
  6
CONTINUOUS
 90
28
 70
0
 10
-1.9653685347
 20
12.2328303136
 10
-1.9628312174
 20
12.2349916493
 10
-1.960312314
 20
12.2371081532
 10
-1.9578083491
 20
12.239176175
 10
-1.9553161472
 20
12.2411925247
 10
-1.9528325328
 20
12.2431540121
 10
-1.9503543303
 20
12.2450574471
 10
-1.9478783641
 20
12.2468996397
 10
-1.9454014588
 20
12.2486773998
 10
-1.9432311879
 20
12.2501775576
 10
-1.941057368
 20
12.2516236868
 10
-1.9388796004
 20
12.2530135323
 10
-1.9366974863
 20
12.2543448392
 10
-1.9345104166
 20
12.255615565
 10
-1.93231694
 20
12.2568245184
 10
-1.9301153944
 20
12.2579707207
 10
-1.9279041182
 20
12.2590531932
 10
-1.9261272003
 20
12.2598725362
 10
-1.9243434962
 20
12.2606494141
 10
-1.9225535108
 20
12.2613827751
 10
-1.9207577492
 20
12.2620715673
 10
-1.9189567164
 20
12.262714739
 10
-1.9174520034
 20
12.2632147898
 10
-1.9159431336
 20
12.2636799138
 10
-1.9144292599
 20
12.2641075956
 10
-1.9129095353
 20
12.2644953196
 10
-1.9113831127
 20
12.2648405704
 10
-1.9098491452
 20
12.2651408324
  0
LWPOLYLINE
  5
2B0
100
AcDbEntity
  8
0
100
AcDbPolyline
 62
253
  6
CONTINUOUS
 90
4
 70
0
 10
-1.9812513674
 20
12.2192444435
 10
-1.9785009157
 20
12.2215525527
 10
-1.9757984208
 20
12.2238510781
 10
-1.9653685347
 20
12.2328303136
  0
LWPOLYLINE
  5
2B1
100
AcDbEntity
  8
0
100
AcDbPolyline
 62
253
  6
CONTINUOUS
 90
52
 70
0
 10
-0.0385273754
 20
11.5927846376
 10
-0.0434930812
 20
11.5886359556
 10
-0.0483011503
 20
11.5843496556
 10
-0.0529667475
 20
11.5799181065
 10
-0.0575050378
 20
11.5753336775
 10
-0.0619279617
 20
11.5705900746
 10
-0.0662345621
 20
11.5656863531
 10
-0.070420658
 20
11.5606229056
 10
-0.074482068
 20
11.5554001244
 10
-0.0784146109
 20
11.5500184022
 10
-0.0822133843
 20
11.5444790995
 10
-0.0858706023
 20
11.5387874496
 10
-0.0893777577
 20
11.5329496538
 10
-0.0927263434
 20
11.5269719134
 10
-0.0959078524
 20
11.5208604297
 10
-0.0984248032
 20
11.5156720137
 10
-0.1008116503
 20
11.5104116832
 10
-0.1030602235
 20
11.5050960946
 10
-0.1051641234
 20
11.499737087
 10
-0.1071240361
 20
11.4943272305
 10
-0.1089424186
 20
11.488854278
 10
-0.110938787
 20
11.4821920694
 10
-0.1127251546
 20
11.4754353954
 10
-0.1142917857
 20
11.4685982849
 10
-0.1156289449
 20
11.4616947666
 10
-0.1167268966
 20
11.4547388695
 10
-0.1175782516
 20
11.4477447102
 10
-0.1181850063
 20
11.4407267565
 10
-0.1185515037
 20
11.4336995642
 10
-0.1186820864
 20
11.426677689
 10
-0.1185810974
 20
11.4196756865
 10
-0.1183227986
 20
11.4138628889
 10
-0.1179069389
 20
11.4080615592
 10
-0.1173337554
 20
11.4022592567
 10
-0.1166040081
 20
11.3964492076
 10
-0.1157205484
 20
11.390647305
 10
-0.1146867508
 20
11.3848751092
 10
-0.113252766
 20
11.3780134823
 10
-0.1116145887
 20
11.3712355663
 10
-0.1097796538
 20
11.3645512479
 10
-0.1077553961
 20
11.3579704138
 10
-0.1055492507
 20
11.3515029507
 10
-0.1031680543
 20
11.3451571704
 10
-0.1006162521
 20
11.3389350853
 10
-0.0978976912
 20
11.3328371328
 10
-0.0950162185
 20
11.3268637504
 10
-0.0919756813
 20
11.3210153756
 10
-0.0887771129
 20
11.3152904499
 10
-0.0854102927
 20
11.3096794316
 10
-0.0818621865
 20
11.3041707829
 10
-0.07811976
 20
11.2987529662
 10
-0.074169979
 20
11.2934144437
  0
LWPOLYLINE
  5
2B2
100
AcDbEntity
  8
0
100
AcDbPolyline
 62
253
  6
CONTINUOUS
 90
25
 70
0
 10
-0.746461649
 20
10.9547205976
 10
-0.7495080263
 20
10.9522941753
 10
-0.7525291218
 20
10.9499202654
 10
-0.7555305466
 20
10.9476053793
 10
-0.7579209903
 20
10.9458001338
 10
-0.7603034853
 20
10.9440389094
 10
-0.7626790812
 20
10.9423237847
 10
-0.7650488275
 20
10.9406568383
 10
-0.7674137738
 20
10.9390401488
 10
-0.7697752145
 20
10.93747564
 10
-0.7721354243
 20
10.9359646154
 10
-0.7744969229
 20
10.9345082236
 10
-0.77686223
 20
10.9331076134
 10
-0.7792338652
 20
10.9317639334
 10
-0.7816138075
 20
10.9304784012
 10
-0.7840018734
 20
10.9292525106
 10
-0.7863973384
 20
10.9280878245
 10
-0.7887994783
 20
10.9269859057
 10
-0.7912075688
 20
10.925948317
 10
-0.7932185641
 20
10.9251343398
 10
-0.7952341506
 20
10.9243694944
 10
-0.7972552901
 20
10.9236571538
 10
-0.7992829445
 20
10.9230006906
 10
-0.8013180757
 20
10.9224034779
 10
-0.8033616455
 20
10.9218688883
  0
LWPOLYLINE
  5
2B3
100
AcDbEntity
  8
0
100
AcDbPolyline
 62
253
  6
CONTINUOUS
 90
3
 70
0
 10
-0.7306541455
 20
10.9674124994
 10
-0.7339110988
 20
10.9648211847
 10
-0.746461649
 20
10.9547205976
  0
LINE
  5
2B4
100
AcDbEntity
  8
0
100
AcDbLine
 62
253
  6
CONTINUOUS
 10
-0.9244349788
 20
12.7396269434
 11
-0.8887338677
 21
12.7654855545
  0
LWPOLYLINE
  5
2B5
100
AcDbEntity
  8
0
100
AcDbPolyline
 62
253
  6
CONTINUOUS
 90
46
 70
0
 10
-2.8615530972
 20
-9.8405037635
 10
-2.906063157
 20
-9.8412687114
 10
-2.9492299658
 20
-9.8436976019
 10
-2.9910295606
 20
-9.8477267841
 10
-3.0314379784
 20
-9.853292607
 10
-3.0704473297
 20
-9.8603321496
 10
-3.1081140187
 20
-9.868785411
 10
-3.1445105231
 20
-9.8785931206
 10
-3.1797093207
 20
-9.8896960074
 10
-3.213776241
 20
-9.9020337006
 10
-3.2467505206
 20
-9.9155414288
 10
-3.2786647482
 20
-9.9301533205
 10
-3.3095515124
 20
-9.9458035044
 10
-3.3394453758
 20
-9.9624307443
 10
-3.3683887968
 20
-9.9799923459
 10
-3.3964262079
 20
-9.9984502499
 10
-3.4236020418
 20
-10.0177663974
 10
-3.4585667809
 20
-10.0448126916
 10
-3.4921465103
 20
-10.0733598766
 10
-3.5244089217
 20
-10.1034507378
 10
-3.5477537375
 20
-10.1270597167
 10
-3.5702548527
 20
-10.1515914755
 10
-3.5917714811
 20
-10.1770764098
 10
-3.6121628368
 20
-10.2035449149
 10
-3.6313031651
 20
-10.2310091925
 10
-3.6491268369
 20
-10.259408669
 10
-3.6655832547
 20
-10.2886645773
 10
-3.6806218208
 20
-10.31869815
 10
-3.6942129533
 20
-10.3494093895
 10
-3.7064111328
 20
-10.3806133776
 10
-3.7172918554
 20
-10.4121039657
 10
-3.7269306172
 20
-10.4436750052
 10
-3.7379917854
 20
-10.4856557816
 10
-3.7472238175
 20
-10.5276277478
 10
-3.7548712919
 20
-10.5698055551
 10
-3.7597058503
 20
-10.6017410041
 10
-3.7638399871
 20
-10.6342308416
 10
-3.7673270189
 20
-10.6675929291
 10
-3.7702202622
 20
-10.7021451283
 10
-3.7725725929
 20
-10.7381496486
 10
-3.7744351242
 20
-10.7756460914
 10
-3.7758585282
 20
-10.8146184059
 10
-3.7768934774
 20
-10.8550505412
 10
-3.7776009991
 20
-10.8968869309
 10
-3.77808354
 20
-10.9399139452
 10
-3.7790705539
 20
-11.1188576085
  0
LWPOLYLINE
  5
2B6
100
AcDbEntity
  8
0
100
AcDbPolyline
 62
253
  6
CONTINUOUS
 90
45
 70
0
 10
-2.8614391085
 20
-9.8093888261
 10
-2.9070478232
 20
-9.8101645485
 10
-2.9513390723
 20
-9.8126341107
 10
-2.9942910395
 20
-9.8167406727
 10
-3.0358819084
 20
-9.8224273947
 10
-3.0761044785
 20
-9.8296379827
 10
-3.1150100118
 20
-9.8383183274
 10
-3.1526643857
 20
-9.8484148653
 10
-3.1891334779
 20
-9.8598740329
 10
-3.2244766167
 20
-9.8726401188
 10
-3.258726933
 20
-9.8866488195
 10
-3.2919110083
 20
-9.9018336834
 10
-3.3240554242
 20
-9.9181282588
 10
-3.3551890267
 20
-9.9354698526
 10
-3.3853497197
 20
-9.953810805
 10
-3.4145776712
 20
-9.9731072148
 10
-3.4429130495
 20
-9.9933151805
 10
-3.4793705988
 20
-10.021624783
 10
-3.5143843687
 20
-10.0515141267
 10
-3.5480259668
 20
-10.0830204556
 10
-3.5723682256
 20
-10.1077374819
 10
-3.5958199571
 20
-10.1334230957
 10
-3.6182222016
 20
-10.1601153806
 10
-3.6394159993
 20
-10.1878524202
 10
-3.6592632409
 20
-10.2166503365
 10
-3.677709219
 20
-10.2464374043
 10
-3.6947200765
 20
-10.277119937
 10
-3.7102619566
 20
-10.3086042479
 10
-3.7243175654
 20
-10.3407761872
 10
-3.7369358628
 20
-10.3734397535
 10
-3.7481823719
 20
-10.4063784824
 10
-3.7581226158
 20
-10.4393759097
 10
-3.7694778481
 20
-10.4832132684
 10
-3.7789043845
 20
-10.5269987524
 10
-3.7866792926
 20
-10.57096096
 10
-3.7915804141
 20
-10.6042298839
 10
-3.7957481197
 20
-10.6380859041
 10
-3.7992221837
 20
-10.6728881233
 10
-3.8020423804
 20
-10.7089956441
 10
-3.804258211
 20
-10.7466951195
 10
-3.8059580845
 20
-10.7859834038
 10
-3.8072401371
 20
-10.8267849016
 10
-3.8082025046
 20
-10.8690240173
 10
-3.8089335516
 20
-10.9125904255
 10
-3.8098890269
 20
-11.0026734052
  0
LWPOLYLINE
  5
2B7
100
AcDbEntity
  8
0
100
AcDbPolyline
 62
253
  6
CONTINUOUS
 90
22
 70
0
 10
0.6564422525
 20
-10.1124931671
 10
0.6533856681
 20
-10.1118505363
 10
0.6503202113
 20
-10.1112559732
 10
0.647245819
 20
-10.1107094154
 10
0.644162428
 20
-10.1102108002
 10
0.6410699752
 20
-10.1097600651
 10
0.6379683972
 20
-10.1093571478
 10
0.6348576311
 20
-10.1090019855
 10
0.6317376135
 20
-10.1086945159
 10
0.6286082814
 20
-10.1084346765
 10
0.6254695715
 20
-10.1082224046
 10
0.6226080264
 20
-10.1080707471
 10
0.6197387416
 20
-10.1079588535
 10
0.61686178
 20
-10.1078872275
 10
0.6139772042
 20
-10.1078563725
 10
0.6110850772
 20
-10.1078667923
 10
0.6081854616
 20
-10.1079189903
 10
0.6052784202
 20
-10.10801347
 10
0.6023640158
 20
-10.1081507351
 10
0.5994423112
 20
-10.1083312891
 10
0.5965133692
 20
-10.1085556356
 10
0.5935772525
 20
-10.1088242782
  0
LWPOLYLINE
  5
2B8
100
AcDbEntity
  8
0
100
AcDbPolyline
 62
253
  6
CONTINUOUS
 90
22
 70
0
 10
1.6531214567
 20
-10.5201966189
 10
1.6506254114
 20
-10.5196700327
 10
1.6481266283
 20
-10.5191824676
 10
1.6456251191
 20
-10.5187332605
 10
1.6431208956
 20
-10.5183217483
 10
1.6406139694
 20
-10.517947268
 10
1.6381043524
 20
-10.5176091564
 10
1.6355920563
 20
-10.5173067504
 10
1.6327177214
 20
-10.5170040831
 10
1.6298406769
 20
-10.5167466087
 10
1.626961697
 20
-10.51653375
 10
1.6240815561
 20
-10.5163649302
 10
1.6212010284
 20
-10.516239572
 10
1.6183208882
 20
-10.5161570985
 10
1.6154419098
 20
-10.5161169326
 10
1.6125646878
 20
-10.5161185446
 10
1.6096890987
 20
-10.5161615944
 10
1.606814839
 20
-10.5162457894
 10
1.6039416055
 20
-10.5163708369
 10
1.6010690951
 20
-10.5165364441
 10
1.5981970044
 20
-10.5167423183
 10
1.5953250301
 20
-10.516988167
  0
LWPOLYLINE
  5
2B9
100
AcDbEntity
  8
0
100
AcDbPolyline
 62
253
  6
CONTINUOUS
 90
31
 70
0
 10
0.5132173294
 20
-12.1290115863
 10
0.5165980701
 20
-12.1316993891
 10
0.5200037978
 20
-12.1343559301
 10
0.5234445124
 20
-12.1369715648
 10
0.5260536297
 20
-12.1389003531
 10
0.5286899043
 20
-12.140794892
 10
0.5313551883
 20
-12.1426493668
 10
0.534051334
 20
-12.1444579632
 10
0.5362320771
 20
-12.1458679849
 10
0.5384368751
 20
-12.1472424531
 10
0.5406688458
 20
-12.1485788975
 10
0.5429311072
 20
-12.1498748481
 10
0.5452267773
 20
-12.1511278348
 10
0.5475580751
 20
-12.152335653
 10
0.5499236243
 20
-12.1534971601
 10
0.5523211493
 20
-12.1546114791
 10
0.5547483749
 20
-12.1556777328
 10
0.5572030258
 20
-12.1566950442
 10
0.5596828664
 20
-12.1576627595
 10
0.5621858216
 20
-12.1585811173
 10
0.564709856
 20
-12.1594505798
 10
0.5672529342
 20
-12.1602716089
 10
0.5698130208
 20
-12.1610446666
 10
0.5730342508
 20
-12.1619442719
 10
0.5762767268
 20
-12.162770781
 10
0.5795382991
 20
-12.1635253311
 10
0.5828168182
 20
-12.1642090595
 10
0.5861116214
 20
-12.1648231198
 10
0.5894279934
 20
-12.1653687318
 10
0.5927727058
 20
-12.1658471316
 10
0.5961525303
 20
-12.1662595554
  0
LWPOLYLINE
  5
2BA
100
AcDbEntity
  8
0
100
AcDbPolyline
 62
253
  6
CONTINUOUS
 90
18
 70
0
 10
0.493293521
 20
-12.1531029756
 10
0.495619629
 20
-12.1549608455
 10
0.4979758606
 20
-12.156819136
 10
0.5003646706
 20
-12.1586757469
 10
0.5027885136
 20
-12.1605285778
 10
0.5052498443
 20
-12.1623755287
 10
0.5071702
 20
-12.163790744
 10
0.5091151452
 20
-12.1651991076
 10
0.5110856351
 20
-12.1665984899
 10
0.5130826246
 20
-12.1679867613
 10
0.5151070687
 20
-12.1693617923
 10
0.5171599223
 20
-12.1707214532
 10
0.5192421406
 20
-12.1720636144
 10
0.5213546784
 20
-12.1733861465
 10
0.5234984908
 20
-12.1746869198
 10
0.5256745327
 20
-12.1759638047
 10
0.5278837592
 20
-12.1772146716
 10
0.5301271253
 20
-12.1784373909
  0
LWPOLYLINE
  5
2BB
100
AcDbEntity
  8
0
100
AcDbPolyline
 62
253
  6
CONTINUOUS
 90
25
 70
0
 10
-0.6256933027
 20
-11.6113401111
 10
-0.623667344
 20
-11.6129801338
 10
-0.6216184967
 20
-11.6145900876
 10
-0.6195461852
 20
-11.6161700767
 10
-0.6174498339
 20
-11.6177202055
 10
-0.6153288671
 20
-11.6192405784
 10
-0.6131827092
 20
-11.6207312995
 10
-0.6110107847
 20
-11.6221924733
 10
-0.6088125178
 20
-11.623624204
 10
-0.6065876043
 20
-11.62502639
 10
-0.6043368245
 20
-11.6263981048
 10
-0.60206123
 20
-11.6277382163
 10
-0.5997618724
 20
-11.629045592
 10
-0.5974398033
 20
-11.6303190997
 10
-0.5950960743
 20
-11.6315576068
 10
-0.592731737
 20
-11.6327599812
 10
-0.5903478429
 20
-11.6339250904
 10
-0.5879451611
 20
-11.6350519029
 10
-0.5855233301
 20
-11.6361397899
 10
-0.5830817055
 20
-11.6371882234
 10
-0.5806196435
 20
-11.6381966756
 10
-0.5781364996
 20
-11.6391646184
 10
-0.5756316299
 20
-11.6400915239
 10
-0.5731043901
 20
-11.6409768641
 10
-0.5705541361
 20
-11.6418201111
  0
LINE
  5
2BC
100
AcDbEntity
  8
0
100
AcDbLine
 62
253
  6
CONTINUOUS
 10
0.5031250303
 20
-12.1208570554
 11
0.5132173294
 21
-12.1290115863
  0
LINE
  5
2BD
100
AcDbEntity
  8
0
100
AcDbLine
 62
253
  6
CONTINUOUS
 10
0.4887218568
 20
-12.1493968987
 11
0.493293521
 21
-12.1531029756
  0
LWPOLYLINE
  5
2BE
100
AcDbEntity
  8
0
100
AcDbPolyline
 62
253
  6
CONTINUOUS
 90
3
 70
0
 10
0.0355616254
 20
-11.6993118552
 10
0.0420740776
 20
-11.7046217843
 10
0.0453253082
 20
-11.7072956667
  0
LINE
  5
2BF
100
AcDbEntity
  8
0
100
AcDbLine
 62
253
  6
CONTINUOUS
 10
0.4820289192
 20
-12.1438934443
 11
0.4887218568
 21
-12.1493968987
  0
LWPOLYLINE
  5
2C0
100
AcDbEntity
  8
0
100
AcDbPolyline
 62
253
  6
CONTINUOUS
 90
53
 70
0
 10
-0.074169979
 20
12.4005722212
 10
-0.0780670933
 20
12.3953072679
 10
-0.0817629215
 20
12.3899642639
 10
-0.085270076
 20
12.3845317503
 10
-0.0886011692
 20
12.3789982682
 10
-0.0917688134
 20
12.3733523588
 10
-0.0947828602
 20
12.3675847195
 10
-0.0976421184
 20
12.361694673
 10
-0.1003426357
 20
12.3556836984
 10
-0.1028804601
 20
12.3495532749
 10
-0.1052516394
 20
12.3433048816
 10
-0.1074517787
 20
12.3369411291
 10
-0.1094747112
 20
12.3304691544
 10
-0.1113138275
 20
12.3238972261
 10
-0.1129625179
 20
12.3172336126
 10
-0.1144141729
 20
12.3104865825
 10
-0.1154686618
 20
12.3048085534
 10
-0.1163782533
 20
12.2990966332
 10
-0.1171394702
 20
12.2933691167
 10
-0.1177492691
 20
12.2876391837
 10
-0.1182063405
 20
12.2818995525
 10
-0.1185098088
 20
12.2761378263
 10
-0.1186693071
 20
12.269183355
 10
-0.1186007949
 20
12.2621951163
 10
-0.118298711
 20
12.2551890111
 10
-0.1177574943
 20
12.2481809406
 10
-0.1169715836
 20
12.2411868056
 10
-0.1159377214
 20
12.2342220093
 10
-0.1146618645
 20
12.2272999629
 10
-0.1131522731
 20
12.2204335797
 10
-0.1114172076
 20
12.213635773
 10
-0.1094649283
 20
12.2069194562
 10
-0.1076767648
 20
12.2013908433
 10
-0.1057404973
 20
12.1959157752
 10
-0.1036531284
 20
12.190482239
 10
-0.1014136432
 20
12.1850834881
 10
-0.0990289575
 20
12.1797338418
 10
-0.0965079697
 20
12.1744528854
 10
-0.093314445
 20
12.1682295865
 10
-0.089947139
 20
12.1621408568
 10
-0.0864157315
 20
12.1561941492
 10
-0.0827299025
 20
12.1503969162
 10
-0.0788993319
 20
12.1447566106
 10
-0.0749327318
 20
12.139279359
 10
-0.0708349421
 20
12.1339659844
 10
-0.0666098349
 20
12.1288159837
 10
-0.0622612819
 20
12.123828854
 10
-0.0577931554
 20
12.1190040921
 10
-0.0532060826
 20
12.114339994
 10
-0.0484877128
 20
12.1098300509
 10
-0.0436224506
 20
12.1054665532
 10
-0.0385947008
 20
12.101241791
 10
-0.0279702776
 20
12.0928934548
  0
LWPOLYLINE
  5
2C1
100
AcDbEntity
  8
0
100
AcDbPolyline
 62
253
  6
CONTINUOUS
 90
53
 70
0
 10
0.5147925209
 20
12.9968724989
 10
0.5192954309
 20
13.0017341542
 10
0.52391322
 20
13.0064080219
 10
0.5286545936
 20
13.0109087854
 10
0.5335282574
 20
13.0152511279
 10
0.5385429168
 20
13.0194497327
 10
0.5437057207
 20
13.0235161738
 10
0.5490175901
 20
13.0274495879
 10
0.5544778893
 20
13.0312460023
 10
0.5600859826
 20
13.0349014446
 10
0.5658412342
 20
13.038411942
 10
0.5717419057
 20
13.0417728354
 10
0.577781849
 20
13.0449767189
 10
0.5839538131
 20
13.0480154999
 10
0.5902505471
 20
13.050881086
 10
0.5966648002
 20
13.0535653845
 10
0.6020922355
 20
13.0556576225
 10
0.6075781537
 20
13.0576115295
 10
0.6131044626
 20
13.0594202887
 10
0.6186581276
 20
13.0610784982
 10
0.6242463443
 20
13.0625864177
 10
0.6298813659
 20
13.0639457222
 10
0.6367165153
 20
13.0653812943
 10
0.6436224114
 20
13.0665974881
 10
0.6505847574
 20
13.0675865187
 10
0.6575892563
 20
13.0683406014
 10
0.6646216111
 20
13.0688519516
 10
0.6716674917
 20
13.0691150759
 10
0.678712435
 20
13.0691336471
 10
0.6857419448
 20
13.0689136292
 10
0.692741525
 20
13.0684609864
 10
0.6996966793
 20
13.0677816829
 10
0.7054517084
 20
13.0670460686
 10
0.7111782018
 20
13.0661565206
 10
0.7168885421
 20
13.0651123668
 10
0.7225896069
 20
13.0639138956
 10
0.7282662538
 20
13.0625652373
 10
0.7338978361
 20
13.0610714829
 10
0.7405716229
 20
13.0590944973
 10
0.7471417748
 20
13.0569239721
 10
0.7535992818
 20
13.0545679751
 10
0.7599351339
 20
13.052034574
 10
0.7661403213
 20
13.0493318365
 10
0.7722073149
 20
13.0464671298
 10
0.7781345103
 20
13.0434450173
 10
0.783921784
 20
13.0402693622
 10
0.7895690124
 20
13.0369440273
 10
0.7950760719
 20
13.0334728756
 10
0.8004445743
 20
13.0298568494
 10
0.8056830719
 20
13.0260852089
 10
0.810801852
 20
13.0221442939
 10
0.8158112021
 20
13.018020444
 10
0.8207214097
 20
13.0136999989
  0
LWPOLYLINE
  5
2C2
100
AcDbEntity
  8
0
100
AcDbPolyline
 62
253
  6
CONTINUOUS
 90
53
 70
0
 10
1.0845991874
 20
13.5714063876
 10
1.0891646572
 20
13.5761574866
 10
1.0938420399
 20
13.5807200911
 10
1.0986402663
 20
13.5851086013
 10
1.1035682671
 20
13.5893374177
 10
1.1086349732
 20
13.5934209406
 10
1.1138477062
 20
13.5973705117
 10
1.119207352
 20
13.6011852384
 10
1.1247131874
 20
13.6048611693
 10
1.1303644892
 20
13.6083943533
 10
1.1361605342
 20
13.6117808391
 10
1.1420995016
 20
13.6150160207
 10
1.14817518
 20
13.6180926744
 10
1.1543802605
 20
13.6210029218
 10
1.1607074341
 20
13.6237388844
 10
1.1671493918
 20
13.6262926838
 10
1.1725978047
 20
13.6282757018
 10
1.1781028564
 20
13.6301203154
 10
1.1836465503
 20
13.6318200936
 10
1.1892159354
 20
13.6333699098
 10
1.194818244
 20
13.6347698544
 10
1.200465754
 20
13.6360213225
 10
1.2073137606
 20
13.6373273851
 10
1.2142299999
 20
13.6384140158
 10
1.2211999344
 20
13.6392735802
 10
1.2282090262
 20
13.639898444
 10
1.2352427378
 20
13.6402809729
 10
1.2422865827
 20
13.6404158125
 10
1.2493262794
 20
13.6403067298
 10
1.2563475975
 20
13.6399597716
 10
1.2633363069
 20
13.6393809848
 10
1.2702781773
 20
13.6385764166
 10
1.2760204527
 20
13.6377370899
 10
1.2817326614
 20
13.6367442073
 10
1.2874271459
 20
13.6355968063
 10
1.2931107406
 20
13.6342949935
 10
1.2987682474
 20
13.6328431524
 10
1.3043789596
 20
13.6312467354
 10
1.3110253666
 20
13.6291476754
 10
1.3175656446
 20
13.6268565191
 10
1.3239908659
 20
13.6243815078
 10
1.3302921028
 20
13.6217308829
 10
1.3364604276
 20
13.6189128856
 10
1.3424883975
 20
13.6159350213
 10
1.3483745096
 20
13.6128018512
 10
1.3541187461
 20
13.6095172005
 10
1.3597210892
 20
13.6060848947
 10
1.365181521
 20
13.6025087588
 10
1.3705016953
 20
13.5987896755
 10
1.3756899531
 20
13.5949167559
 10
1.380756307
 20
13.5908761687
 10
1.3857107698
 20
13.5866540824
 10
1.390563354
 20
13.5822366654
  0
LWPOLYLINE
  5
2C3
100
AcDbEntity
  8
0
100
AcDbPolyline
 62
253
  6
CONTINUOUS
 90
36
 70
0
 10
1.0947591874
 20
10.4281916662
 10
1.1285948169
 20
10.4603921595
 10
1.1614930944
 20
10.4931919094
 10
1.1934700566
 20
10.5265967359
 10
1.2245417399
 20
10.5606124592
 10
1.2547241807
 20
10.595244899
 10
1.2840334157
 20
10.6304998755
 10
1.3124854813
 20
10.6663832086
 10
1.3400892302
 20
10.7028930807
 10
1.3668247798
 20
10.7399971227
 10
1.3926650639
 20
10.7776553284
 10
1.417583016
 20
10.8158276911
 10
1.4415515698
 20
10.8544742042
 10
1.4645436589
 20
10.8935548613
 10
1.486532217
 20
10.9330296557
 10
1.50749618
 20
10.972868228
 10
1.5274384935
 20
11.0130788065
 10
1.5463681054
 20
11.0536792664
 10
1.5642939635
 20
11.0946874831
 10
1.5812250158
 20
11.136121332
 10
1.5971702102
 20
11.1779986882
 10
1.6121384945
 20
11.2203374271
 10
1.6261356585
 20
11.2631452714
 10
1.6391548592
 20
11.3063893332
 10
1.6511860956
 20
11.3500265717
 10
1.6622193665
 20
11.3940139466
 10
1.6722446708
 20
11.438308417
 10
1.6812520075
 20
11.4828669426
 10
1.6892313754
 20
11.5276464826
 10
1.6961731052
 20
11.5726135644
 10
1.7020688544
 20
11.617772987
 10
1.7069106125
 20
11.6631391173
 10
1.7106903688
 20
11.7087263223
 10
1.7134001127
 20
11.7545489689
 10
1.7150318335
 20
11.8006214241
 10
1.7155775206
 20
11.8469580547
  0
LWPOLYLINE
  5
2C4
100
AcDbEntity
  8
0
100
AcDbPolyline
 62
253
  6
CONTINUOUS
 90
41
 70
0
 10
0.5326077986
 20
11.0027961105
 10
0.548660127
 20
11.0175684979
 10
0.5644945408
 20
11.0327912676
 10
0.5801251378
 20
11.048480985
 10
0.595566016
 20
11.0646542149
 10
0.6108297879
 20
11.0813292351
 10
0.6259231247
 20
11.0985311725
 10
0.640851212
 20
11.1162868664
 10
0.6556192354
 20
11.1346231562
 10
0.6702232581
 20
11.1535540894
 10
0.6846228527
 20
11.173042546
 10
0.6987684696
 20
11.1930386142
 10
0.712610559
 20
11.2134923822
 10
0.7261050181
 20
11.234358179
 10
0.7392295335
 20
11.2556072969
 10
0.7519672385
 20
11.2772152687
 10
0.7643012668
 20
11.2991576275
 10
0.7762150584
 20
11.3214092049
 10
0.7876932798
 20
11.3439420258
 10
0.7987209041
 20
11.366727414
 10
0.8092829042
 20
11.3897366931
 10
0.8193657852
 20
11.4129437877
 10
0.8289621793
 20
11.4363330269
 10
0.8380662509
 20
11.459891341
 10
0.846672164
 20
11.4836056602
 10
0.8547724887
 20
11.5074567657
 10
0.862353417
 20
11.5314008426
 10
0.8693995466
 20
11.5553879272
 10
0.8758954754
 20
11.5793680556
 10
0.8818279755
 20
11.603284134
 10
0.8871925175
 20
11.6270505496
 10
0.8919867464
 20
11.6505745594
 10
0.896208307
 20
11.6737634205
 10
0.89985943
 20
11.6965460945
 10
0.9029606883
 20
11.7189383599
 10
0.9055372406
 20
11.7409776996
 10
0.9076142453
 20
11.7627015966
 10
0.9092139584
 20
11.7841438718
 10
0.910347025
 20
11.8053236988
 10
0.9110211872
 20
11.8262565892
 10
0.9112441874
 20
11.8469580547
  0
LWPOLYLINE
  5
2C5
100
AcDbEntity
  8
0
100
AcDbPolyline
 62
253
  6
CONTINUOUS
 90
37
 70
0
 10
0.8207214097
 20
10.6802513883
 10
0.8175252736
 20
10.677374428
 10
0.8142810379
 20
10.6745872104
 10
0.8109859246
 20
10.6718848825
 10
0.8076371556
 20
10.6692625909
 10
0.804231953
 20
10.6667154826
 10
0.8007675387
 20
10.6642387044
 10
0.7972419253
 20
10.6618283723
 10
0.7936562872
 20
10.6594844787
 10
0.7900125894
 20
10.6572079853
 10
0.786312797
 20
10.6549998537
 10
0.7825588749
 20
10.6528610456
 10
0.7787527881
 20
10.6507925226
 10
0.7748965095
 20
10.6487952241
 10
0.770992044
 20
10.6468700002
 10
0.7670414044
 20
10.6450176789
 10
0.7630466035
 20
10.6432390879
 10
0.759009654
 20
10.6415350553
 10
0.7549325688
 20
10.6399064088
 10
0.7508173203
 20
10.6383540333
 10
0.7466657191
 20
10.6368790411
 10
0.7424795358
 20
10.6354826015
 10
0.7382605405
 20
10.6341658837
 10
0.7340105037
 20
10.632930057
 10
0.7297311958
 20
10.6317762906
 10
0.7254245047
 20
10.6307057698
 10
0.721092789
 20
10.6297197436
 10
0.7167385247
 20
10.6288194768
 10
0.7123641882
 20
10.6280062345
 10
0.7079722554
 20
10.6272812816
 10
0.7035652027
 20
10.626645883
 10
0.6991441307
 20
10.6261015121
 10
0.6947046392
 20
10.6256504763
 10
0.6902409526
 20
10.6252952914
 10
0.6857472952
 20
10.6250384731
 10
0.6812178913
 20
10.6248825372
 10
0.6766469653
 20
10.6248299995
  0
LWPOLYLINE
  5
2C6
100
AcDbEntity
  8
0
100
AcDbPolyline
 62
253
  6
CONTINUOUS
 90
39
 70
0
 10
0.2292541876
 20
11.2529508326
 10
0.2447484013
 20
11.2650739568
 10
0.2599051199
 20
11.2775271618
 10
0.2747222363
 20
11.2903243571
 10
0.2891976439
 20
11.3034794523
 10
0.3033292355
 20
11.317006357
 10
0.3148398677
 20
11.3285705553
 10
0.326099834
 20
11.340396992
 10
0.3370986928
 20
11.3524800452
 10
0.3478260023
 20
11.364814093
 10
0.3582713208
 20
11.3773935132
 10
0.3684242066
 20
11.3902126839
 10
0.3782759888
 20
11.4032653033
 10
0.3878250797
 20
11.41654235
 10
0.3970716626
 20
11.4300341228
 10
0.4060159207
 20
11.4437309206
 10
0.4146580371
 20
11.4576230422
 10
0.422998195
 20
11.4717007863
 10
0.4326074465
 20
11.4888262867
 10
0.4417787928
 20
11.5061934184
 10
0.4505088853
 20
11.5237904859
 10
0.4587943752
 20
11.5416057939
 10
0.4666319138
 20
11.5596276468
 10
0.4740177446
 20
11.5778445669
 10
0.4809464799
 20
11.5962459472
 10
0.4874123242
 20
11.6148213984
 10
0.4934094819
 20
11.6335605315
 10
0.4989321576
 20
11.652452957
 10
0.5039740624
 20
11.671487261
 10
0.5085269348
 20
11.6906479301
 10
0.5125820198
 20
11.7099184259
 10
0.5161305626
 20
11.7292822103
 10
0.5191638082
 20
11.7487227449
 10
0.5212912353
 20
11.7649720181
 10
0.523047681
 20
11.7812663185
 10
0.5244260888
 20
11.7976088591
 10
0.5254194023
 20
11.8140028532
 10
0.5260205652
 20
11.830451514
 10
0.5262225209
 20
11.8469580547
  0
LWPOLYLINE
  5
2C7
100
AcDbEntity
  8
0
100
AcDbPolyline
 62
253
  6
CONTINUOUS
 90
23
 70
0
 10
0.7141566969
 20
-10.1366937226
 10
0.7117563943
 20
-10.1352119476
 10
0.7093343085
 20
-10.1337675274
 10
0.7068905486
 20
-10.1323602379
 10
0.7044252241
 20
-10.1309898549
 10
0.7019384444
 20
-10.129656154
 10
0.6994303187
 20
-10.1283589111
 10
0.6969009566
 20
-10.1270979021
 10
0.6943504672
 20
-10.1258729027
 10
0.6917789601
 20
-10.1246836886
 10
0.6891865445
 20
-10.1235300358
 10
0.6865733298
 20
-10.1224117199
 10
0.6839393922
 20
-10.1213286031
 10
0.6812846747
 20
-10.1202808924
 10
0.6786090872
 20
-10.1192688811
 10
0.6759125396
 20
-10.1182928625
 10
0.6731949418
 20
-10.1173531299
 10
0.6704562036
 20
-10.1164499767
 10
0.6676962349
 20
-10.1155836962
 10
0.6649149456
 20
-10.1147545817
 10
0.6621122455
 20
-10.1139629264
 10
0.6592880445
 20
-10.1132090238
 10
0.6564422525
 20
-10.1124931671
  0
LWPOLYLINE
  5
2C8
100
AcDbEntity
  8
0
100
AcDbPolyline
 62
253
  6
CONTINUOUS
 90
23
 70
0
 10
1.7094752721
 20
-10.5425418469
 10
1.7073301647
 20
-10.5412159065
 10
1.7051655553
 20
-10.5399268657
 10
1.7029817353
 20
-10.5386742999
 10
1.7007789965
 20
-10.5374577846
 10
1.6985576305
 20
-10.5362768955
 10
1.6963179289
 20
-10.5351312079
 10
1.6940601834
 20
-10.5340202974
 10
1.6917846857
 20
-10.5329437396
 10
1.6894917274
 20
-10.5319011098
 10
1.6871816002
 20
-10.5308919837
 10
1.6848545956
 20
-10.5299159368
 10
1.6822970601
 20
-10.5288884867
 10
1.6797196894
 20
-10.5278999506
 10
1.6771223862
 20
-10.526950381
 10
1.6745050537
 20
-10.5260398299
 10
1.6718675947
 20
-10.5251683499
 10
1.6692099123
 20
-10.5243359931
 10
1.6665319094
 20
-10.5235428119
 10
1.663833489
 20
-10.5227888587
 10
1.661114554
 20
-10.5220741856
 10
1.6583750074
 20
-10.521398845
 10
1.6531214567
 20
-10.5201966189
  0
LWPOLYLINE
  5
2C9
100
AcDbEntity
  8
0
100
AcDbPolyline
 62
253
  6
CONTINUOUS
 90
57
 70
0
 10
1.6948083634
 20
-10.5700812225
 10
1.6916645586
 20
-10.5680753698
 10
1.6884924431
 20
-10.5661787154
 10
1.68528623
 20
-10.564386464
 10
1.6820401323
 20
-10.5626938201
 10
1.6787483631
 20
-10.5610959884
 10
1.6754051354
 20
-10.5595881735
 10
1.6720071312
 20
-10.558167206
 10
1.6685609072
 20
-10.556836421
 10
1.6650754891
 20
-10.5556007792
 10
1.6615573936
 20
-10.5544645169
 10
1.6580031004
 20
-10.5534289713
 10
1.6544065804
 20
-10.5524947548
 10
1.6507633321
 20
-10.5516622208
 10
1.647074966
 20
-10.5509306861
 10
1.6433446202
 20
-10.5502992087
 10
1.6395767537
 20
-10.5497652948
 10
1.6357811081
 20
-10.5493202453
 10
1.6319687453
 20
-10.5489538098
 10
1.6262413719
 20
-10.5485288636
 10
1.6205281424
 20
-10.5482220926
 10
1.6148594443
 20
-10.5479965853
 10
1.6092667393
 20
-10.5478190177
 10
1.6064877101
 20
-10.5477607273
 10
1.6037078254
 20
-10.5477494216
 10
1.6009199761
 20
-10.5478104994
 10
1.598130396
 20
-10.5479634703
 10
1.5953479241
 20
-10.5482213578
 10
1.5925784771
 20
-10.5485771291
 10
1.5898268825
 20
-10.5490191907
 10
1.5870965342
 20
-10.549537761
 10
1.5843902882
 20
-10.5501234722
 10
1.581710284
 20
-10.5507668
 10
1.5790582071
 20
-10.5514581502
 10
1.5764346423
 20
-10.5521878083
 10
1.5738405111
 20
-10.5529468762
 10
1.571279183
 20
-10.5537298432
 10
1.5687535
 20
-10.5545337015
 10
1.5662617468
 20
-10.5553620682
 10
1.5629883881
 20
-10.5565134598
 10
1.5597703089
 20
-10.5577282839
 10
1.5566075445
 20
-10.5590170279
 10
1.5535008778
 20
-10.5603884572
 10
1.5504540815
 20
-10.5618444468
 10
1.5474716757
 20
-10.5633851496
 10
1.5445571198
 20
-10.5650088472
 10
1.5417096295
 20
-10.5667063365
 10
1.5389273596
 20
-10.5684665435
 10
1.5362083238
 20
-10.570279037
 10
1.5335499703
 20
-10.5721359573
 10
1.530949606
 20
-10.5740300876
 10
1.5271497196
 20
-10.5769275542
 10
1.5234520887
 20
-10.5798818823
 10
1.5198385905
 20
-10.5828797412
 10
1.5163072536
 20
-10.5858969692
 10
1.5117181834
 20
-10.5899157952
 10
1.5027208634
 20
-10.5979506669
  0
LWPOLYLINE
  5
2CA
100
AcDbEntity
  8
0
100
AcDbPolyline
 62
253
  6
CONTINUOUS
 90
10
 70
0
 10
1.5209025957
 20
-10.8701296749
 10
1.5242929371
 20
-10.8730019669
 10
1.5276858809
 20
-10.8759068027
 10
1.5310751354
 20
-10.8788495185
 10
1.5344544093
 20
-10.8818354503
 10
1.5378174108
 20
-10.8848699341
 10
1.5411578485
 20
-10.8879583061
 10
1.5444694309
 20
-10.8911059022
 10
1.5477458664
 20
-10.8943180586
 10
1.5509808634
 20
-10.8976001113
  0
LWPOLYLINE
  5
2CB
100
AcDbEntity
  8
0
100
AcDbPolyline
 62
253
  6
CONTINUOUS
 90
23
 70
0
 10
1.4971469745
 20
-11.7467009444
 10
1.4991335521
 20
-11.7484415604
 10
1.5011557176
 20
-11.7501503155
 10
1.5032132681
 20
-11.7518274583
 10
1.5053060006
 20
-11.7534732378
 10
1.5074337121
 20
-11.7550879026
 10
1.5095961998
 20
-11.7566717017
 10
1.5117932606
 20
-11.7582248839
 10
1.5140246917
 20
-11.759747698
 10
1.5162902902
 20
-11.7612403927
 10
1.518589853
 20
-11.762703217
 10
1.5209231772
 20
-11.7641364196
 10
1.5232901117
 20
-11.7655401772
 10
1.5256907127
 20
-11.766914378
 10
1.528125088
 20
-11.7682588381
 10
1.5305933455
 20
-11.7695733735
 10
1.5330955933
 20
-11.7708578002
 10
1.5356319393
 20
-11.7721119344
 10
1.5382024913
 20
-11.7733355919
 10
1.5408073574
 20
-11.774528589
 10
1.5434466454
 20
-11.7756907416
 10
1.5461204633
 20
-11.7768218658
 10
1.548828919
 20
-11.7779217777
  0
LINE
  5
2CC
100
AcDbEntity
  8
0
100
AcDbLine
 62
253
  6
CONTINUOUS
 10
1.4951192835
 20
-11.7449131147
 11
1.4961317496
 21
-11.7458082536
  0
LWPOLYLINE
  5
2CD
100
AcDbEntity
  8
0
100
AcDbPolyline
 62
253
  6
CONTINUOUS
 90
37
 70
0
 10
1.5182430856
 20
-11.7233117778
 10
1.5201959316
 20
-11.7250467793
 10
1.5221802308
 20
-11.7267314716
 10
1.5241976252
 20
-11.7283683251
 10
1.5262497563
 20
-11.7299598103
 10
1.5283382661
 20
-11.7315083977
 10
1.5304647961
 20
-11.7330165578
 10
1.5326302127
 20
-11.7344861723
 10
1.5348322799
 20
-11.7359167691
 10
1.5370679861
 20
-11.7373072869
 10
1.5393343198
 20
-11.738656665
 10
1.5416282695
 20
-11.7399638423
 10
1.5439468236
 20
-11.7412277579
 10
1.5467587162
 20
-11.7426866024
 10
1.549604838
 20
-11.7440842601
 10
1.5524883242
 20
-11.7454233686
 10
1.5554123104
 20
-11.7467065657
 10
1.5583799317
 20
-11.7479364894
 10
1.5608887404
 20
-11.7489222737
 10
1.5634330225
 20
-11.7498722606
 10
1.5660157717
 20
-11.7507858165
 10
1.5686399817
 20
-11.7516623077
 10
1.5713086465
 20
-11.7525011005
 10
1.5740247598
 20
-11.7533015612
 10
1.576790379
 20
-11.7540627367
 10
1.5796038165
 20
-11.754782396
 10
1.5824624481
 20
-11.7554579885
 10
1.5853636499
 20
-11.7560869638
 10
1.5883047977
 20
-11.7566667714
 10
1.5912832674
 20
-11.7571948606
 10
1.5938644662
 20
-11.7576044686
 10
1.5964725557
 20
-11.7579729408
 10
1.5991089343
 20
-11.7582990126
 10
1.6017750004
 20
-11.7585814192
 10
1.6044721524
 20
-11.7588188957
 10
1.6072017888
 20
-11.7590101776
 10
1.6099653078
 20
-11.759154
  0
LWPOLYLINE
  5
2CE
100
AcDbEntity
  8
0
100
AcDbPolyline
 62
253
  6
CONTINUOUS
 90
12
 70
0
 10
1.7577120297
 20
-10.5836091213
 10
1.7527774467
 20
-10.5790689793
 10
1.7478701545
 20
-10.5744625264
 10
1.7430118601
 20
-10.5697779595
 10
1.7381652048
 20
-10.565063607
 10
1.7332528437
 20
-10.5604074098
 10
1.729897997
 20
-10.5573758388
 10
1.7264529173
 20
-10.5544360253
 10
1.7228967281
 20
-10.5516193658
 10
1.7192177327
 20
-10.5489455101
 10
1.7154409518
 20
-10.5463871202
 10
1.7094752721
 20
-10.5425418469
  0
LINE
  5
2CF
100
AcDbEntity
  8
0
100
AcDbLine
 62
253
  6
CONTINUOUS
 10
1.5010275301
 20
-11.7071545555
 11
1.5182430856
 21
-11.7233117778
  0
LWPOLYLINE
  5
2D0
100
AcDbEntity
  8
0
100
AcDbPolyline
 62
253
  6
CONTINUOUS
 90
9
 70
0
 10
1.4879150852
 20
-11.7382118567
 10
1.4886019463
 20
-11.7388891772
 10
1.4892941043
 20
-11.7395610535
 10
1.4899911612
 20
-11.7402278554
 10
1.490692719
 20
-11.7408899526
 10
1.4913983797
 20
-11.741547715
 10
1.4921077454
 20
-11.7422015123
 10
1.4931063508
 20
-11.7431108937
 10
1.494110507
 20
-11.7440143779
  0
LINE
  5
2D1
100
AcDbEntity
  8
0
100
AcDbLine
 62
253
  6
CONTINUOUS
 10
0.0453253082
 20
-11.7072956667
 11
0.4820289192
 21
-12.1438934443
  0
LINE
  5
2D2
100
AcDbEntity
  8
0
100
AcDbLine
 62
253
  6
CONTINUOUS
 10
1.4782028079
 20
-11.7284976111
 11
1.487233919
 21
-11.7375287222
  0
LINE
  5
2D3
100
AcDbEntity
  8
0
100
AcDbLine
 62
253
  6
CONTINUOUS
 10
0.0677266971
 20
-11.6852117778
 11
0.5031250303
 21
-12.1208570554
  0
LWPOLYLINE
  5
2D4
100
AcDbEntity
  8
0
100
AcDbPolyline
 62
253
  6
CONTINUOUS
 90
24
 70
0
 10
1.5509808634
 20
-10.8976001113
 10
1.5548296657
 20
-10.9016629568
 10
1.5586104427
 20
-10.9057953562
 10
1.5623236179
 20
-10.9099970495
 10
1.5659696144
 20
-10.9142677768
 10
1.5695488556
 20
-10.9186072781
 10
1.5730617648
 20
-10.9230152937
 10
1.5765087651
 20
-10.9274915636
 10
1.5798902801
 20
-10.9320358278
 10
1.5832067328
 20
-10.9366478266
 10
1.5864585467
 20
-10.9413273
 10
1.5896461449
 20
-10.9460739881
 10
1.5925118916
 20
-10.9504840293
 10
1.5953233511
 20
-10.9549506486
 10
1.5980798395
 20
-10.9594741631
 10
1.6007806731
 20
-10.9640548903
 10
1.6034251678
 20
-10.9686931475
 10
1.6060126397
 20
-10.9733892521
 10
1.6085424051
 20
-10.9781435213
 10
1.61101378
 20
-10.9829562725
 10
1.6134260805
 20
-10.9878278231
 10
1.6157786227
 20
-10.9927584905
 10
1.6180707227
 20
-10.9977485918
 10
1.6203016967
 20
-11.0027984446
  0
LWPOLYLINE
  5
2D5
100
AcDbEntity
  8
0
100
AcDbPolyline
 62
253
  6
CONTINUOUS
 90
23
 70
0
 10
-0.6670388583
 20
-11.5645970556
 10
-0.6655202728
 20
-11.5669642479
 10
-0.6639667231
 20
-11.5693078506
 10
-0.6623783541
 20
-11.5716279943
 10
-0.6607553109
 20
-11.5739248101
 10
-0.6590977385
 20
-11.5761984285
 10
-0.6574057817
 20
-11.5784489803
 10
-0.6556795855
 20
-11.5806765965
 10
-0.653919295
 20
-11.5828814077
 10
-0.6521250551
 20
-11.5850635447
 10
-0.6502970107
 20
-11.5872231383
 10
-0.6484353068
 20
-11.5893603193
 10
-0.6465400259
 20
-11.5914751529
 10
-0.6446110004
 20
-11.5935674415
 10
-0.6426480003
 20
-11.5956369222
 10
-0.6406507954
 20
-11.5976833319
 10
-0.6386191557
 20
-11.5997064074
 10
-0.6365528511
 20
-11.6017058856
 10
-0.6344516516
 20
-11.6036815036
 10
-0.6323153271
 20
-11.6056329982
 10
-0.6301436475
 20
-11.6075601064
 10
-0.6279363827
 20
-11.609462565
 10
-0.6256933027
 20
-11.6113401111
  0
LWPOLYLINE
  5
2D6
100
AcDbEntity
  8
0
100
AcDbPolyline
 62
253
  6
CONTINUOUS
 90
22
 70
0
 10
-2.0016066452
 20
12.1829083324
 10
-2.0007148024
 20
12.1849044978
 10
-1.9998042263
 20
12.1869067126
 10
-1.9988732
 20
12.1889145276
 10
-1.9979200068
 20
12.1909274939
 10
-1.9969429301
 20
12.1929451625
 10
-1.9959402531
 20
12.1949670844
 10
-1.994910259
 20
12.1969928104
 10
-1.9938512311
 20
12.1990218916
 10
-1.9927614526
 20
12.2010538789
 10
-1.9919228858
 20
12.2025794173
 10
-1.9910652101
 20
12.2041056137
 10
-1.9901875798
 20
12.2056317438
 10
-1.9892891489
 20
12.2071570835
 10
-1.9883690714
 20
12.2086809086
 10
-1.9874265014
 20
12.2102024948
 10
-1.986460593
 20
12.2117211181
 10
-1.9854705003
 20
12.2132360543
 10
-1.9844553773
 20
12.2147465791
 10
-1.9834143781
 20
12.2162519683
 10
-1.9823466568
 20
12.2177514979
 10
-1.9812513674
 20
12.2192444435
  0
LWPOLYLINE
  5
2D7
100
AcDbEntity
  8
0
100
AcDbPolyline
 62
253
  6
CONTINUOUS
 90
37
 70
0
 10
1.390563354
 20
10.1111149996
 10
1.3873478497
 20
10.1081416808
 10
1.3840823876
 20
10.1052590474
 10
1.3807639002
 20
10.1024619591
 10
1.3773893198
 20
10.0997452755
 10
1.3739555787
 20
10.0971038562
 10
1.3704596094
 20
10.0945325607
 10
1.3668991997
 20
10.0920273078
 10
1.3632755593
 20
10.0895882525
 10
1.3595907534
 20
10.0872166087
 10
1.3558468471
 20
10.0849135905
 10
1.3520459056
 20
10.0826804118
 10
1.3481899941
 20
10.0805182869
 10
1.344281158
 20
10.0784283893
 10
1.3403213639
 20
10.0764117322
 10
1.3363125587
 20
10.0744692883
 10
1.332256689
 20
10.0726020304
 10
1.3281557019
 20
10.0708109314
 10
1.324011544
 20
10.0690969639
 10
1.3198261055
 20
10.0674611736
 10
1.3156010494
 20
10.0659048969
 10
1.3113379816
 20
10.0644295433
 10
1.3070385086
 20
10.0630365221
 10
1.3027042363
 20
10.0617272427
 10
1.2983367711
 20
10.0605031143
 10
1.293937893
 20
10.0593655844
 10
1.2895100778
 20
10.0583162529
 10
1.2850559753
 20
10.0573567579
 10
1.2805782352
 20
10.0564887372
 10
1.2760795073
 20
10.055713829
 10
1.2715624414
 20
10.0550336711
 10
1.2670282534
 20
10.0544501279
 10
1.262472424
 20
10.0539659678
 10
1.2578890002
 20
10.0535841857
 10
1.253272029
 20
10.0533077764
 10
1.2486155572
 20
10.0531397347
 10
1.2439136318
 20
10.0530830552
  0
LINE
  5
2D8
100
AcDbEntity
  8
0
100
AcDbLine
 62
253
  6
CONTINUOUS
 10
-11.7255142944
 20
1.025458122
 11
-11.5836323799
 21
1.0727424884
  0
LINE
  5
2D9
100
AcDbEntity
  8
0
100
AcDbLine
 62
253
  6
CONTINUOUS
 10
-11.5836323774
 20
-0.4216358808
 11
-11.7255142944
 21
-0.3743515136
  0
LWPOLYLINE
  5
2DA
100
AcDbEntity
  8
0
100
AcDbPolyline
 62
253
  6
CONTINUOUS
 90
23
 70
0
 10
0.7611114192
 20
-10.1787801115
 10
0.7592423799
 20
-10.1764949995
 10
0.7573477671
 20
-10.1742457492
 10
0.7554276758
 20
-10.1720322223
 10
0.7534822009
 20
-10.1698542807
 10
0.7515114375
 20
-10.167711786
 10
0.7495154805
 20
-10.1656046001
 10
0.747494425
 20
-10.1635325847
 10
0.7454483659
 20
-10.1614956016
 10
0.7433773982
 20
-10.1594935127
 10
0.7412816169
 20
-10.1575261797
 10
0.7391611171
 20
-10.1555934643
 10
0.7370159375
 20
-10.1536953147
 10
0.7348458927
 20
-10.1518320243
 10
0.7326507412
 20
-10.1500039727
 10
0.7304302414
 20
-10.1482115396
 10
0.7281841516
 20
-10.1464551049
 10
0.7259122304
 20
-10.144735048
 10
0.7236142361
 20
-10.1430517488
 10
0.7212899272
 20
-10.141405587
 10
0.718939062
 20
-10.1397969422
 10
0.7165613991
 20
-10.1382261942
 10
0.7141566969
 20
-10.1366937226
  0
LWPOLYLINE
  5
2DB
100
AcDbEntity
  8
0
100
AcDbPolyline
 62
253
  6
CONTINUOUS
 90
18
 70
0
 10
1.4566480856
 20
-10.8079240002
 10
1.4589300025
 20
-10.8109670543
 10
1.4612806801
 20
-10.8139627476
 10
1.4636964646
 20
-10.8169129021
 10
1.4661737025
 20
-10.8198193394
 10
1.4687087402
 20
-10.8226838816
 10
1.4712979242
 20
-10.8255083504
 10
1.4739376008
 20
-10.8282945677
 10
1.4766241166
 20
-10.8310443554
 10
1.4793538179
 20
-10.8337595353
 10
1.4821230511
 20
-10.8364419292
 10
1.4849281626
 20
-10.839093359
 10
1.4888378704
 20
-10.8426929336
 10
1.4928038534
 20
-10.84624857
 10
1.496821462
 20
-10.8497714274
 10
1.5008860465
 20
-10.8532726645
 10
1.504992957
 20
-10.8567634405
 10
1.5209025957
 20
-10.8701296749
  0
LWPOLYLINE
  5
2DC
100
AcDbEntity
  8
0
100
AcDbPolyline
 62
253
  6
CONTINUOUS
 90
26
 70
0
 10
1.8968089189
 20
-10.7329587225
 10
1.8923052708
 20
-10.7267740485
 10
1.8878037836
 20
-10.7207581109
 10
1.883313163
 20
-10.7149082303
 10
1.8788421147
 20
-10.7092217274
 10
1.8743993447
 20
-10.7036959227
 10
1.8699919363
 20
-10.6983268944
 10
1.8656204843
 20
-10.6931057498
 10
1.8612839613
 20
-10.6880223536
 10
1.8569813397
 20
-10.6830665705
 10
1.8527115921
 20
-10.6782282653
 10
1.8474193719
 20
-10.672331661
 10
1.8421767091
 20
-10.6665920702
 10
1.8369834009
 20
-10.6609987836
 10
1.8318392447
 20
-10.6555410918
 10
1.8267434489
 20
-10.6502083781
 10
1.8216928662
 20
-10.6449903965
 10
1.8166837606
 20
-10.6398769933
 10
1.8117123958
 20
-10.6348580152
 10
1.8051345876
 20
-10.6282964228
 10
1.7985989411
 20
-10.6218668457
 10
1.7920871651
 20
-10.615551483
 10
1.787208644
 20
-10.6108796229
 10
1.7823294409
 20
-10.6062569877
 10
1.7725394696
 20
-10.5971348049
 10
1.7577120297
 20
-10.5836091213
  0
LWPOLYLINE
  5
2DD
100
AcDbEntity
  8
0
100
AcDbPolyline
 62
253
  6
CONTINUOUS
 90
11
 70
0
 10
-11.6128101691
 20
21.8506279785
 10
-11.6115164038
 20
21.8462754693
 10
-11.6102444427
 20
21.8385816995
 10
-11.6089942856
 20
21.827546669
 10
-11.607759383
 20
21.8130814662
 10
-11.6065462845
 20
21.7952750027
 10
-11.6053746388
 20
21.7743940136
 10
-11.6042456327
 20
21.7503937523
 10
-11.6031580795
 20
21.7233189653
 10
-11.6021280679
 20
21.693570628
 10
-11.6011564536
 20
21.6611070929
  0
LWPOLYLINE
  5
2DE
100
AcDbEntity
  8
0
100
AcDbPolyline
 62
253
  6
CONTINUOUS
 90
46
 70
0
 10
-3.8084186018
 20
-11.4258234876
 10
-3.8073787925
 20
-11.4744450027
 10
-3.8058359606
 20
-11.5234797971
 10
-3.803569887
 20
-11.5728113428
 10
-3.8001856333
 20
-11.6225297475
 10
-3.7952864652
 20
-11.67269659
 10
-3.7886431868
 20
-11.7230527007
 10
-3.7831547327
 20
-11.7565686236
 10
-3.7767634555
 20
-11.789962992
 10
-3.7694249418
 20
-11.8231809575
 10
-3.7610903681
 20
-11.8561642121
 10
-3.751693272
 20
-11.8888406102
 10
-3.7411627807
 20
-11.9211345468
 10
-3.7294279651
 20
-11.9529730876
 10
-3.7164176697
 20
-11.9842939827
 10
-3.7020606824
 20
-12.0150376531
 10
-3.6862969855
 20
-12.045140353
 10
-3.6691113388
 20
-12.0745216701
 10
-3.6504996963
 20
-12.1030970252
 10
-3.6356184423
 20
-12.1239437311
 10
-3.6200254112
 20
-12.144223716
 10
-3.6038076639
 20
-12.1638904339
 10
-3.5870300203
 20
-12.1829743227
 10
-3.5697437112
 20
-12.2015265727
 10
-3.5519678516
 20
-12.2196043994
 10
-3.5337176043
 20
-12.2372501102
 10
-3.5150244395
 20
-12.2544403525
 10
-3.4894569032
 20
-12.2765984562
 10
-3.4631547778
 20
-12.2978720015
 10
-3.4361076889
 20
-12.3182568494
 10
-3.4083157578
 20
-12.3377393399
 10
-3.379821087
 20
-12.356267731
 10
-3.3506762744
 20
-12.3737807603
 10
-3.3209281308
 20
-12.3902182358
 10
-3.2906003193
 20
-12.4055242494
 10
-3.2597107159
 20
-12.4196439636
 10
-3.2219424804
 20
-12.4349644563
 10
-3.1835160025
 20
-12.4485227264
 10
-3.1445562787
 20
-12.4603437881
 10
-3.1051883056
 20
-12.470452656
 10
-3.0655370795
 20
-12.4788743445
 10
-3.0256997584
 20
-12.4856393484
 10
-2.9856621449
 20
-12.490800085
 10
-2.9453822032
 20
-12.4944144517
 10
-2.9048178973
 20
-12.4965403464
 10
-2.8639271911
 20
-12.4972356665
  0
LWPOLYLINE
  5
2DF
100
AcDbEntity
  8
0
100
AcDbPolyline
 62
253
  6
CONTINUOUS
 90
46
 70
0
 10
-3.7777649015
 20
-11.3971117402
 10
-3.777019238
 20
-11.4447733952
 10
-3.7758309364
 20
-11.4928666716
 10
-3.7739967377
 20
-11.5413158898
 10
-3.7712283481
 20
-11.5902648903
 10
-3.7672235689
 20
-11.6398141332
 10
-3.7617096149
 20
-11.6896710343
 10
-3.7570669858
 20
-11.7228973891
 10
-3.751574085
 20
-11.7560340226
 10
-3.7451693549
 20
-11.7890281849
 10
-3.7377907684
 20
-11.8218254604
 10
-3.7293744203
 20
-11.8543647691
 10
-3.719855936
 20
-11.8865833647
 10
-3.7091670181
 20
-11.9184173965
 10
-3.697223677
 20
-11.9497985963
 10
-3.6839380003
 20
-11.980657591
 10
-3.6692340531
 20
-12.010921399
 10
-3.6530838111
 20
-12.040502603
 10
-3.6354712273
 20
-12.0693101769
 10
-3.6213066129
 20
-12.0903445386
 10
-3.6063884664
 20
-12.1108009325
 10
-3.5907929201
 20
-12.1306120286
 10
-3.5745883905
 20
-12.1498075714
 10
-3.557834273
 20
-12.168444632
 10
-3.5405615952
 20
-12.1865925124
 10
-3.5227975939
 20
-12.2043059566
 10
-3.5045827103
 20
-12.2215692451
 10
-3.4796500233
 20
-12.2438401608
 10
-3.4539747729
 20
-12.2652388621
 10
-3.4275382001
 20
-12.2857526751
 10
-3.4003337943
 20
-12.3053608548
 10
-3.3724040409
 20
-12.3240103739
 10
-3.3438036737
 20
-12.3416401339
 10
-3.3145817467
 20
-12.3581901711
 10
-3.2847645927
 20
-12.3736050598
 10
-3.2543728646
 20
-12.3878305088
 10
-3.2171884971
 20
-12.4032737166
 10
-3.1793325609
 20
-12.4169471656
 10
-3.1409311341
 20
-12.4288720697
 10
-3.1021102948
 20
-12.4390696424
 10
-3.0629961211
 20
-12.4475610975
 10
-3.023686605
 20
-12.4543744147
 10
-2.9841673933
 20
-12.4595646375
 10
-2.9443960467
 20
-12.4631935752
 10
-2.9043301257
 20
-12.4653230373
 10
-2.8639271911
 20
-12.4660148331
  0
LINE
  5
2E0
100
AcDbEntity
  8
0
100
AcDbLine
 62
253
  6
CONTINUOUS
 10
-3.7785629912
 20
-11.3033112345
 11
-3.7777649015
 21
-11.3971117402
  0
LINE
  5
2E1
100
AcDbEntity
  8
0
100
AcDbLine
 62
253
  6
CONTINUOUS
 10
-3.4616652987
 20
-11.2669737534
 11
-3.4621302769
 21
-11.1617611574
  0
LWPOLYLINE
  5
2E2
100
AcDbEntity
  8
0
100
AcDbPolyline
 62
253
  6
CONTINUOUS
 90
4
 70
0
 10
-3.810531013
 20
-11.1414473797
 10
-3.8103188474
 20
-11.2356016946
 10
-3.8096243261
 20
-11.3301012179
 10
-3.8084186018
 20
-11.4258234876
  0
LINE
  5
2E3
100
AcDbEntity
  8
0
100
AcDbLine
 62
253
  6
CONTINUOUS
 10
-3.7790705539
 20
-11.1188576085
 11
-3.7785629912
 21
-11.3033112345
  0
LINE
  5
2E4
100
AcDbEntity
  8
0
100
AcDbLine
 62
253
  6
CONTINUOUS
 10
-3.3375760893
 20
10.5878236106
 11
-3.3375760893
 21
13.1080680544
  0
LINE
  5
2E5
100
AcDbEntity
  8
0
100
AcDbLine
 62
253
  6
CONTINUOUS
 10
-2.9041180338
 20
13.1080680544
 11
-2.9041180338
 21
10.5878236106
  0
LWPOLYLINE
  5
2E6
100
AcDbEntity
  8
0
100
AcDbPolyline
 62
253
  6
CONTINUOUS
 90
46
 70
0
 10
-3.4621302769
 20
-11.1617611574
 10
-3.4617708569
 20
-11.0529505033
 10
-3.4612080284
 20
-10.9966869523
 10
-3.4603019785
 20
-10.9389383656
 10
-3.4588602565
 20
-10.8797562264
 10
-3.456660625
 20
-10.8192475819
 10
-3.4543461864
 20
-10.7731202851
 10
-3.4511847752
 20
-10.7267140638
 10
-3.4484669485
 20
-10.6958261973
 10
-3.4451915944
 20
-10.6651373085
 10
-3.4413090131
 20
-10.6347894436
 10
-3.4367590881
 20
-10.6048980055
 10
-3.4314400358
 20
-10.575471824
 10
-3.4252396558
 20
-10.5464930854
 10
-3.4199423709
 20
-10.525063133
 10
-3.4140320938
 20
-10.5039944301
 10
-3.4074599787
 20
-10.4833937123
 10
-3.4001983269
 20
-10.4633163263
 10
-3.39221929
 20
-10.4438009971
 10
-3.3834732739
 20
-10.4248713514
 10
-3.373928243
 20
-10.4065346335
 10
-3.3636441398
 20
-10.3887476555
 10
-3.3527025945
 20
-10.3714511414
 10
-3.3411800083
 20
-10.3545718963
 10
-3.329125916
 20
-10.3380505878
 10
-3.3164876122
 20
-10.3218972526
 10
-3.3031959629
 20
-10.3061478557
 10
-3.2892183575
 20
-10.2908727044
 10
-3.2745427305
 20
-10.2761401746
 10
-3.2592026753
 20
-10.2619765754
 10
-3.243246976
 20
-10.2484002569
 10
-3.2267395235
 20
-10.2354398028
 10
-3.2097302615
 20
-10.2231150884
 10
-3.1921982397
 20
-10.2114009222
 10
-3.1679779841
 20
-10.1966951191
 10
-3.1428827496
 20
-10.1830816475
 10
-3.1170356624
 20
-10.1706322343
 10
-3.0905555284
 20
-10.1594110279
 10
-3.063543873
 20
-10.1494518611
 10
-3.0360979012
 20
-10.1407809881
 10
-3.0082992059
 20
-10.1334191963
 10
-2.98016693
 20
-10.1273654061
 10
-2.9517046041
 20
-10.1226130715
 10
-2.9228992608
 20
-10.1191645021
 10
-2.8936719419
 20
-10.1170574304
 10
-2.8639271911
 20
-10.1163384448
  0
LINE
  5
2E7
100
AcDbEntity
  8
0
100
AcDbLine
 62
253
  6
CONTINUOUS
 10
-3.8098890269
 20
-11.0026734052
 11
-3.810531013
 21
-11.1414473797
  0
LINE
  5
2E8
100
AcDbEntity
  8
0
100
AcDbLine
 62
253
  6
CONTINUOUS
 10
-3.4311165761
 20
-11.1396891471
 11
-3.4304791374
 21
-11.0354641433
  0
LWPOLYLINE
  5
2E9
100
AcDbEntity
  8
0
100
AcDbPolyline
 62
253
  6
CONTINUOUS
 90
42
 70
0
 10
-3.4304791374
 20
-11.0354641433
 10
-3.42893808
 20
-10.9273225563
 10
-3.4275594226
 20
-10.8716594912
 10
-3.4254086905
 20
-10.8150672495
 10
-3.4231095527
 20
-10.7721254833
 10
-3.4200547555
 20
-10.7290440731
 10
-3.4160847428
 20
-10.6861438711
 10
-3.4110399586
 20
-10.6437457297
 10
-3.4069876742
 20
-10.6159037684
 10
-3.4022602849
 20
-10.5884392027
 10
-3.3967312755
 20
-10.5613636889
 10
-3.390279958
 20
-10.5347121961
 10
-3.3828089521
 20
-10.5086129425
 10
-3.3742267043
 20
-10.4832174588
 10
-3.367006462
 20
-10.4647140837
 10
-3.3590756495
 20
-10.4466971422
 10
-3.3504105326
 20
-10.4291678986
 10
-3.3410284306
 20
-10.4121113661
 10
-3.3309639358
 20
-10.3955012594
 10
-3.3202796781
 20
-10.3792823501
 10
-3.3090252104
 20
-10.3634024903
 10
-3.2971697411
 20
-10.3478507967
 10
-3.2846664831
 20
-10.3326401298
 10
-3.2714850111
 20
-10.317837059
 10
-3.2576098258
 20
-10.3035136313
 10
-3.24306877
 20
-10.2897100944
 10
-3.2279066856
 20
-10.2764601437
 10
-3.2121930699
 20
-10.2638030637
 10
-3.195981971
 20
-10.2517656254
 10
-3.1792409843
 20
-10.2403189575
 10
-3.1560446661
 20
-10.2259326482
 10
-3.1319380376
 20
-10.2126044248
 10
-3.1070488425
 20
-10.2004181715
 10
-3.0815045615
 20
-10.1894481653
 10
-3.0554316236
 20
-10.179730255
 10
-3.0289561948
 20
-10.1712906827
 10
-3.0021852097
 20
-10.1641485407
 10
-2.9751486771
 20
-10.1582943232
 10
-2.9478573747
 20
-10.1537113745
 10
-2.9202985455
 20
-10.1503919845
 10
-2.8923652942
 20
-10.1483642246
 10
-2.8639271911
 20
-10.1476651115
  0
LWPOLYLINE
  5
2EA
100
AcDbEntity
  8
0
100
AcDbPolyline
 62
253
  6
CONTINUOUS
 90
55
 70
0
 10
-3.3375760893
 20
13.1080680544
 10
-3.337478314
 20
13.1131109311
 10
-3.337188066
 20
13.1181175134
 10
-3.3367099624
 20
13.1230895331
 10
-3.3360486202
 20
13.1280287222
 10
-3.3352086565
 20
13.1329368124
 10
-3.3341946884
 20
13.1378155356
 10
-3.3330113328
 20
13.1426666236
 10
-3.331663207
 20
13.1474918082
 10
-3.3301549278
 20
13.1522928213
 10
-3.328490237
 20
13.1570702581
 10
-3.3266693746
 20
13.1618201679
 10
-3.3246917054
 20
13.1665374635
 10
-3.322556594
 20
13.1712170574
 10
-3.3202634052
 20
13.1758538624
 10
-3.3178115037
 20
13.1804427912
 10
-3.3152002541
 20
13.1849787565
 10
-3.3124290211
 20
13.189456671
 10
-3.3094971696
 20
13.1938714474
 10
-3.3067209943
 20
13.1977856642
 10
-3.3038158115
 20
13.201635545
 10
-3.3007832293
 20
13.2054120162
 10
-3.2976248559
 20
13.2091060044
 10
-3.2943422993
 20
13.2127084359
 10
-3.2909372177
 20
13.2162101739
 10
-3.2874114693
 20
13.2196018272
 10
-3.283766962
 20
13.2228739412
 10
-3.280005604
 20
13.2260170613
 10
-3.2761293034
 20
13.2290217329
 10
-3.2721398765
 20
13.2318802972
 10
-3.2680387735
 20
13.2345922789
 10
-3.2638273524
 20
13.2371589984
 10
-3.2595069717
 20
13.239581776
 10
-3.2550789896
 20
13.2418619323
 10
-3.2505461939
 20
13.2440009165
 10
-3.2459170908
 20
13.2460006931
 10
-3.2412016157
 20
13.2478633558
 10
-3.2364097042
 20
13.2495909978
 10
-3.231551292
 20
13.2511857129
 10
-3.2266339403
 20
13.252650322
 10
-3.2216557133
 20
13.2539905574
 10
-3.2166123006
 20
13.2552128787
 10
-3.211499392
 20
13.256323746
 10
-3.2063126774
 20
13.257329619
 10
-3.1997219627
 20
13.2584481852
 10
-3.1930189813
 20
13.2594196009
 10
-3.1862135233
 20
13.2602506757
 10
-3.1793153786
 20
13.2609482193
 10
-3.171327735
 20
13.2615919055
 10
-3.1632277439
 20
13.2620878374
 10
-3.1550113313
 20
13.262453775
 10
-3.1466744227
 20
13.2627074779
 10
-3.1382129439
 20
13.2628667059
 10
-3.1296228205
 20
13.2629492189
 10
-3.1208999782
 20
13.2629727766
  0
LWPOLYLINE
  5
2EB
100
AcDbEntity
  8
0
100
AcDbPolyline
 62
253
  6
CONTINUOUS
 90
55
 70
0
 10
-2.9041180338
 20
10.5878236106
 10
-2.9042165672
 20
10.582776577
 10
-2.904509016
 20
10.5777666354
 10
-2.9049906534
 20
10.5727920486
 10
-2.9056567525
 20
10.5678510793
 10
-2.9065025864
 20
10.5629419903
 10
-2.9075234282
 20
10.5580630443
 10
-2.9087145511
 20
10.5532125041
 10
-2.9100712281
 20
10.5483886325
 10
-2.9115887324
 20
10.5435896921
 10
-2.9132632156
 20
10.5388150843
 10
-2.9150943432
 20
10.5340687644
 10
-2.9170826591
 20
10.5293558265
 10
-2.9192287075
 20
10.5246813644
 10
-2.9215330324
 20
10.520050472
 10
-2.9239961776
 20
10.5154682434
 10
-2.9266186873
 20
10.5109397724
 10
-2.9294011054
 20
10.5064701529
 10
-2.9323439759
 20
10.5020644789
 10
-2.9351298551
 20
10.4981591401
 10
-2.9380444931
 20
10.4943187426
 10
-2.9410862418
 20
10.4905523055
 10
-2.9442534528
 20
10.4868688482
 10
-2.9475444778
 20
10.4832773899
 10
-2.9509576053
 20
10.4797870152
 10
-2.95449087
 20
10.4764070689
 10
-2.9581422434
 20
10.4731469613
 10
-2.9619096967
 20
10.4700161024
 10
-2.9657912015
 20
10.4670239025
 10
-2.9697848475
 20
10.4641779588
 10
-2.9738891976
 20
10.4614786176
 10
-2.9781029333
 20
10.4589244122
 10
-2.9824247358
 20
10.456513876
 10
-2.9868532866
 20
10.4542455423
 10
-2.9913858427
 20
10.4521178415
 10
-2.9960139638
 20
10.4501287914
 10
-3.0007277855
 20
10.4482763069
 10
-3.0055174433
 20
10.4465583027
 10
-3.0103730727
 20
10.4449726937
 10
-3.0152871716
 20
10.4435166685
 10
-3.0202616872
 20
10.4421845107
 10
-3.0253009293
 20
10.4409697777
 10
-3.0304092075
 20
10.4398660268
 10
-3.0355908314
 20
10.4388668155
 10
-3.0421745612
 20
10.4377559579
 10
-3.0488699967
 20
10.4367915694
 10
-3.0556675069
 20
10.4359668427
 10
-3.0625574609
 20
10.4352749706
 10
-3.0705355988
 20
10.4346369402
 10
-3.0786259024
 20
10.4341457861
 10
-3.0868323738
 20
10.4337837512
 10
-3.095159015
 20
10.4335330787
 10
-3.1036098281
 20
10.4333760116
 10
-3.1121888151
 20
10.4332947931
 10
-3.1208999782
 20
10.4332716662
  0
LINE
  5
2EC
100
AcDbEntity
  8
0
100
AcDbLine
 62
253
  6
CONTINUOUS
 10
-2.0079919229
 20
12.1353891657
 11
-2.0016066452
 21
12.1829083324
  0
LWPOLYLINE
  5
2ED
100
AcDbEntity
  8
0
100
AcDbPolyline
 62
253
  6
CONTINUOUS
 90
26
 70
0
 10
-0.7102988677
 20
11.0047011105
 10
-0.7107570644
 20
11.0032365093
 10
-0.7112429608
 20
11.0017837475
 10
-0.7117555923
 20
11.0003426483
 10
-0.7122939947
 20
10.9989130355
 10
-0.7128572035
 20
10.9974947325
 10
-0.7134442543
 20
10.9960875627
 10
-0.7140541827
 20
10.9946913497
 10
-0.7146860243
 20
10.993305917
 10
-0.7153388147
 20
10.991931088
 10
-0.7160115896
 20
10.9905666863
 10
-0.7167033844
 20
10.9892125354
 10
-0.7174132349
 20
10.9878684586
 10
-0.7181401766
 20
10.9865342797
 10
-0.7188832451
 20
10.9852098219
 10
-0.7198509322
 20
10.9835377967
 10
-0.7208421595
 20
10.9818800716
 10
-0.7218559066
 20
10.9802354855
 10
-0.7228911531
 20
10.9786028777
 10
-0.7239468785
 20
10.9769810872
 10
-0.7250220624
 20
10.9753689532
 10
-0.7261156844
 20
10.9737653148
 10
-0.7272267242
 20
10.9721690111
 10
-0.7283541612
 20
10.9705788812
 10
-0.7294969751
 20
10.9689937643
 10
-0.7306541455
 20
10.9674124994
  0
LINE
  5
2EE
100
AcDbEntity
  8
0
100
AcDbLine
 62
253
  6
CONTINUOUS
 10
-11.2254571543
 20
0.5255533042
 11
-11.0838037174
 21
0.5727615269
  0
LINE
  5
2EF
100
AcDbEntity
  8
0
100
AcDbLine
 62
253
  6
CONTINUOUS
 10
-11.0838037161
 20
0.0783450812
 11
-11.2254571543
 21
0.1255533042
  0
LWPOLYLINE
  5
2F0
100
AcDbEntity
  8
0
100
AcDbPolyline
 62
253
  6
CONTINUOUS
 90
20
 70
0
 10
1.4428544745
 20
-11.6788617778
 10
1.4440669394
 20
-11.681123582
 10
1.4453142268
 20
-11.6833625086
 10
1.4465945938
 20
-11.6855793127
 10
1.4479062978
 20
-11.6877747493
 10
1.4492475961
 20
-11.6899495738
 10
1.450616746
 20
-11.6921045412
 10
1.4520120049
 20
-11.6942404066
 10
1.4534316301
 20
-11.6963579253
 10
1.4548738789
 20
-11.6984578523
 10
1.4563370085
 20
-11.7005409429
 10
1.4578192764
 20
-11.7026079522
 10
1.4593189399
 20
-11.7046596353
 10
1.4615975626
 20
-11.7077103455
 10
1.4639074609
 20
-11.7107324408
 10
1.4662446913
 20
-11.713730091
 10
1.4686053106
 20
-11.716707466
 10
1.4709853752
 20
-11.7196687357
 10
1.4733809419
 20
-11.7226180699
 10
1.4782028079
 20
-11.7284976111
  0
LWPOLYLINE
  5
2F1
100
AcDbEntity
  8
0
100
AcDbPolyline
 62
253
  6
CONTINUOUS
 90
23
 70
0
 10
1.6203016967
 20
-11.0027984446
 10
1.6225747204
 20
-11.0081434476
 10
1.624759273
 20
-11.0135093233
 10
1.6268559273
 20
-11.018895896
 10
1.6288652564
 20
-11.0243029902
 10
1.6307878332
 20
-11.0297304306
 10
1.6326242307
 20
-11.0351780417
 10
1.6343750219
 20
-11.0406456479
 10
1.6360407798
 20
-11.0461330738
 10
1.6376220773
 20
-11.051640144
 10
1.6391194874
 20
-11.0571666829
 10
1.6405335832
 20
-11.0627125151
 10
1.6418647199
 20
-11.0682775108
 10
1.643112383
 20
-11.0738617231
 10
1.6442758399
 20
-11.0794652506
 10
1.6453543584
 20
-11.0850881921
 10
1.6463472062
 20
-11.0907306463
 10
1.6472536509
 20
-11.0963927119
 10
1.6480729602
 20
-11.1020744877
 10
1.6488044018
 20
-11.1077760723
 10
1.6494472433
 20
-11.1134975646
 10
1.6500007523
 20
-11.1192390631
 10
1.6504641967
 20
-11.1250006668
  0
LWPOLYLINE
  5
2F2
100
AcDbEntity
  8
0
100
AcDbPolyline
 62
253
  6
CONTINUOUS
 90
24
 70
0
 10
-0.6911335805
 20
-11.5065651111
 10
-0.6905590288
 20
-11.5091712275
 10
-0.6899416974
 20
-11.5117599702
 10
-0.689282395
 20
-11.5143316581
 10
-0.6885819298
 20
-11.5168866103
 10
-0.6878411103
 20
-11.5194251456
 10
-0.687060745
 20
-11.5219475833
 10
-0.6862416422
 20
-11.5244542421
 10
-0.6853846104
 20
-11.5269454412
 10
-0.6844904376
 20
-11.5294213981
 10
-0.6835598304
 20
-11.5318819249
 10
-0.6825934748
 20
-11.5343267322
 10
-0.681592057
 20
-11.5367555307
 10
-0.6805562631
 20
-11.539168031
 10
-0.6794867793
 20
-11.5415639438
 10
-0.6783842917
 20
-11.5439429797
 10
-0.6772494864
 20
-11.5463048494
 10
-0.6759137246
 20
-11.5489828836
 10
-0.6745367786
 20
-11.5516385607
 10
-0.6731187792
 20
-11.5542723224
 10
-0.6716598569
 20
-11.5568846109
 10
-0.6701601422
 20
-11.5594758679
 10
-0.6686197658
 20
-11.5620465355
 10
-0.6670388583
 20
-11.5645970556
  0
LWPOLYLINE
  5
2F3
100
AcDbEntity
  8
0
100
AcDbPolyline
 62
253
  6
CONTINUOUS
 90
55
 70
0
 10
-0.6636125305
 20
-11.4755243479
 10
-0.6631290885
 20
-11.4816570198
 10
-0.6627767518
 20
-11.485377542
 10
-0.6623556666
 20
-11.4891313684
 10
-0.661846165
 20
-11.4929181871
 10
-0.6612285792
 20
-11.4967376859
 10
-0.6604832414
 20
-11.5005895529
 10
-0.6595943287
 20
-11.5044717444
 10
-0.6585613994
 20
-11.5083752901
 10
-0.6573878568
 20
-11.5122894881
 10
-0.656077104
 20
-11.5162036364
 10
-0.6546325444
 20
-11.520107033
 10
-0.6530575248
 20
-11.5239906804
 10
-0.651355166
 20
-11.5278523976
 10
-0.6495285326
 20
-11.531691708
 10
-0.647580689
 20
-11.5355081351
 10
-0.6455146995
 20
-11.5393012022
 10
-0.6433337904
 20
-11.5430691776
 10
-0.641041835
 20
-11.5468053094
 10
-0.6386428683
 20
-11.5505015905
 10
-0.6361409253
 20
-11.5541500138
 10
-0.6335400412
 20
-11.5577425723
 10
-0.6308442635
 20
-11.5612715784
 10
-0.6280576894
 20
-11.5647306227
 10
-0.6251844287
 20
-11.5681136151
 10
-0.6222285912
 20
-11.5714144658
 10
-0.6191942865
 20
-11.5746270846
 10
-0.6160850716
 20
-11.5777462461
 10
-0.6129022912
 20
-11.5807701813
 10
-0.609646737
 20
-11.5836979859
 10
-0.6063192009
 20
-11.5865287554
 10
-0.6029204747
 20
-11.5892615853
 10
-0.59945285
 20
-11.5918945253
 10
-0.5959246171
 20
-11.5944214407
 10
-0.5923455662
 20
-11.596835151
 10
-0.5887254875
 20
-11.5991284758
 10
-0.585074171
 20
-11.6012942344
 10
-0.5820126085
 20
-11.6029976864
 10
-0.5789298191
 20
-11.6046110888
 10
-0.5758194698
 20
-11.6061379659
 10
-0.5726770714
 20
-11.6075804529
 10
-0.5695055087
 20
-11.6089351283
 10
-0.5663095099
 20
-11.6101971814
 10
-0.5630938974
 20
-11.6113628447
 10
-0.5598638694
 20
-11.6124325246
 10
-0.5566247184
 20
-11.613407671
 10
-0.5533815211
 20
-11.6142909183
 10
-0.550138493
 20
-11.6150896398
 10
-0.546899634
 20
-11.6158123934
 10
-0.5420542988
 20
-11.6167721031
 10
-0.5372191608
 20
-11.6176048161
 10
-0.5323904777
 20
-11.6183343414
 10
-0.5275822696
 20
-11.6189810212
 10
-0.5212207275
 20
-11.6197487384
 10
-0.5085358028
 20
-11.6211473333
  0
LWPOLYLINE
  5
2F4
100
AcDbEntity
  8
0
100
AcDbPolyline
 62
253
  6
CONTINUOUS
 90
15
 70
0
 10
-0.6951710078
 20
-11.4758626446
 10
-0.6949740137
 20
-11.4784745434
 10
-0.6947612019
 20
-11.4810776116
 10
-0.6945295728
 20
-11.483671917
 10
-0.6942761265
 20
-11.4862575274
 10
-0.6940556757
 20
-11.4883197283
 10
-0.6938179887
 20
-11.490376008
 10
-0.6935617121
 20
-11.4924259668
 10
-0.6932854925
 20
-11.4944692048
 10
-0.6929879764
 20
-11.4965053223
 10
-0.6926678105
 20
-11.4985339195
 10
-0.6923236414
 20
-11.5005545968
 10
-0.6919541156
 20
-11.5025669543
 10
-0.6915578798
 20
-11.5045705923
 10
-0.6911335805
 20
-11.5065651111
  0
LINE
  5
2F5
100
AcDbEntity
  8
0
100
AcDbLine
 62
253
  6
CONTINUOUS
 10
-0.6644283027
 20
-11.4633851112
 11
-0.6636125305
 21
-11.4755243479
  0
LINE
  5
2F6
100
AcDbEntity
  8
0
100
AcDbLine
 62
253
  6
CONTINUOUS
 10
-0.6955295421
 20
-11.4706120844
 11
-0.6951710078
 21
-11.4758626446
  0
LINE
  5
2F7
100
AcDbEntity
  8
0
100
AcDbLine
 62
253
  6
CONTINUOUS
 10
-0.6958608027
 20
-11.4653253889
 11
-0.6955295421
 21
-11.4706120844
  0
LWPOLYLINE
  5
2F8
100
AcDbEntity
  8
0
100
AcDbPolyline
 62
253
  6
CONTINUOUS
 90
47
 70
0
 10
-1.9504400465
 20
-10.8819137968
 10
-1.9512048986
 20
-10.844054025
 10
-1.952185485
 20
-10.8072853205
 10
-1.9534395334
 20
-10.7716888548
 10
-1.9550232553
 20
-10.7373090011
 10
-1.9569867951
 20
-10.7040429382
 10
-1.9593787804
 20
-10.6717510463
 10
-1.9622478391
 20
-10.6402937057
 10
-1.9669140381
 20
-10.5993826421
 10
-1.9727178335
 20
-10.5592271685
 10
-1.9798622424
 20
-10.5193474414
 10
-1.9862123991
 20
-10.4893948752
 10
-1.9934561679
 20
-10.4595146294
 10
-2.001632544
 20
-10.4298443202
 10
-2.0108352235
 20
-10.4003235278
 10
-2.0211688408
 20
-10.3709031412
 10
-2.0327270851
 20
-10.3417773185
 10
-2.0455867001
 20
-10.313176534
 10
-2.0597675957
 20
-10.2852332561
 10
-2.0752610778
 20
-10.2580399655
 10
-2.0920008697
 20
-10.231627195
 10
-2.1099002567
 20
-10.2060128243
 10
-2.1288483541
 20
-10.1812260658
 10
-2.1487350621
 20
-10.1572893842
 10
-2.169477589
 20
-10.1341869204
 10
-2.1909999704
 20
-10.1118932343
 10
-2.2132262418
 20
-10.0903828859
 10
-2.2438773448
 20
-10.0628774447
 10
-2.2757792834
 20
-10.0366618856
 10
-2.309066581
 20
-10.0116787176
 10
-2.3350183807
 20
-9.9937271272
 10
-2.3618594277
 20
-9.9764818454
 10
-2.3896240354
 20
-9.9599882996
 10
-2.4183465172
 20
-9.9442919173
 10
-2.4480700865
 20
-9.929439733
 10
-2.4788735568
 20
-9.9154852093
 10
-2.5108446418
 20
-9.9024834159
 10
-2.5440710548
 20
-9.8904894225
 10
-2.5786339309
 20
-9.8795644992
 10
-2.6145880902
 20
-9.8697947181
 10
-2.6519817742
 20
-9.8612723517
 10
-2.6908632244
 20
-9.8540896726
 10
-2.7230665673
 20
-9.8493693311
 10
-2.7562450905
 20
-9.8456080067
 10
-2.7903909296
 20
-9.8428482621
 10
-2.82549622
 20
-9.8411326601
 10
-2.8615530972
 20
-9.8405037635
  0
LINE
  5
2F9
100
AcDbEntity
  8
0
100
AcDbLine
 62
253
  6
CONTINUOUS
 10
-2.267757584
 20
-10.9139934602
 11
-2.2663348901
 21
-10.9959592119
  0
LWPOLYLINE
  5
2FA
100
AcDbEntity
  8
0
100
AcDbPolyline
 62
253
  6
CONTINUOUS
 90
46
 70
0
 10
-1.9188733489
 20
-10.8999517612
 10
-1.9194672578
 20
-10.8604013985
 10
-1.9203197741
 20
-10.8217924332
 10
-1.9214906556
 20
-10.7843360211
 10
-1.9230300039
 20
-10.7482164455
 10
-1.9249815856
 20
-10.7133350688
 10
-1.9273875838
 20
-10.6795225234
 10
-1.9302901814
 20
-10.6466094416
 10
-1.9350185704
 20
-10.6038190731
 10
-1.9408819558
 20
-10.5618490438
 10
-1.9480574988
 20
-10.5202217446
 10
-1.9567325461
 20
-10.4785647294
 10
-1.9671351861
 20
-10.4369262052
 10
-1.9795036924
 20
-10.3954595418
 10
-1.9902031956
 20
-10.3645794487
 10
-2.0021811708
 20
-10.3340361557
 10
-2.0154762614
 20
-10.3039835205
 10
-2.0301271104
 20
-10.2745754006
 10
-2.0461513359
 20
-10.2459447218
 10
-2.0634824544
 20
-10.2181406817
 10
-2.0820329573
 20
-10.1911915462
 10
-2.1017153359
 20
-10.1651255811
 10
-2.1224396881
 20
-10.1399613597
 10
-2.1441065383
 20
-10.1156786866
 10
-2.1666140172
 20
-10.0922476741
 10
-2.1898602556
 20
-10.0696384344
 10
-2.2218942527
 20
-10.0407241342
 10
-2.2552144393
 20
-10.0131749675
 10
-2.2899747551
 20
-9.9869482722
 10
-2.3170762215
 20
-9.9681315019
 10
-2.3451005373
 20
-9.9500828856
 10
-2.3740738878
 20
-9.9328506843
 10
-2.4040224583
 20
-9.9164831594
 10
-2.4349820445
 20
-9.901029278
 10
-2.4670268817
 20
-9.8865408321
 10
-2.5002408155
 20
-9.8730703195
 10
-2.5347076917
 20
-9.860670238
 10
-2.5705043595
 20
-9.8493994398
 10
-2.6076796841
 20
-9.8393421937
 10
-2.6462755344
 20
-9.8305891227
 10
-2.6863337791
 20
-9.8232308498
 10
-2.7194567231
 20
-9.8184080298
 10
-2.7535355619
 20
-9.8145741484
 10
-2.7885634616
 20
-9.8117674747
 10
-2.8245335884
 20
-9.8100262775
 10
-2.8614391085
 20
-9.8093888261
  0
LINE
  5
2FB
100
AcDbEntity
  8
0
100
AcDbLine
 62
253
  6
CONTINUOUS
 10
-1.9491930054
 20
-10.9740182323
 11
-1.9504400465
 21
-10.8819137968
  0
LINE
  5
2FC
100
AcDbEntity
  8
0
100
AcDbLine
 62
253
  6
CONTINUOUS
 10
-2.2663348901
 20
-10.9959592119
 11
-2.2655108242
 21
-11.0755247513
  0
LINE
  5
2FD
100
AcDbEntity
  8
0
100
AcDbLine
 62
253
  6
CONTINUOUS
 10
-1.9177979843
 20
-11.0238787295
 11
-1.9188733489
 21
-10.8999517612
  0
LINE
  5
2FE
100
AcDbEntity
  8
0
100
AcDbLine
 62
253
  6
CONTINUOUS
 10
-2.0041466452
 20
11.5260361103
 11
-2.0079919229
 21
12.1353891657
  0
LINE
  5
2FF
100
AcDbEntity
  8
0
100
AcDbLine
 62
253
  6
CONTINUOUS
 10
-1.9484502025
 20
-11.084140776
 11
-1.9491930054
 21
-10.9740182323
  0
LWPOLYLINE
  5
300
100
AcDbEntity
  8
0
100
AcDbPolyline
 62
253
  6
CONTINUOUS
 90
46
 70
0
 10
-2.2973565418
 20
-11.0201711835
 10
-2.2967251875
 20
-11.122959199
 10
-2.296757006
 20
-11.1980943207
 10
-2.2972066363
 20
-11.2720847976
 10
-2.2981417594
 20
-11.3453729009
 10
-2.299767882
 20
-11.4183679738
 10
-2.3013734096
 20
-11.4670440412
 10
-2.3035781405
 20
-11.5157513935
 10
-2.306567517
 20
-11.5644732798
 10
-2.3094617798
 20
-11.6010143499
 10
-2.3131344603
 20
-11.6375482726
 10
-2.3178183019
 20
-11.6740691477
 10
-2.3237460479
 20
-11.710571075
 10
-2.328506572
 20
-11.734877688
 10
-2.3340085482
 20
-11.7590841201
 10
-2.3403371405
 20
-11.7831012337
 10
-2.3475795844
 20
-11.8068316754
 10
-2.3558314012
 20
-11.8301452279
 10
-2.3651901833
 20
-11.8529034581
 10
-2.3729924019
 20
-11.8695366926
 10
-2.3815012237
 20
-11.8857948986
 10
-2.390720355
 20
-11.901692498
 10
-2.4005521688
 20
-11.9172407642
 10
-2.4108882337
 20
-11.9324465977
 10
-2.4216782344
 20
-11.9473025567
 10
-2.4329007559
 20
-11.9617920098
 10
-2.4445918683
 20
-11.9758759093
 10
-2.4567963416
 20
-11.9895155382
 10
-2.4695362595
 20
-12.0026959176
 10
-2.4828206295
 20
-12.0154084302
 10
-2.4966288392
 20
-12.0276461671
 10
-2.5158101006
 20
-12.0432134585
 10
-2.5358296824
 20
-12.0579101269
 10
-2.5566444431
 20
-12.0717211182
 10
-2.5782172983
 20
-12.0846308571
 10
-2.6005353936
 20
-12.0966216846
 10
-2.6235919316
 20
-12.1076754209
 10
-2.6473789442
 20
-12.1177714088
 10
-2.6718837791
 20
-12.1268790828
 10
-2.6970926133
 20
-12.1349654003
 10
-2.7229948161
 20
-12.1419916352
 10
-2.7495925286
 20
-12.1478963283
 10
-2.7768910842
 20
-12.1526123368
 10
-2.8048958165
 20
-12.156072518
 10
-2.8336120592
 20
-12.1582097292
 10
-2.8630451457
 20
-12.1589568276
  0
LWPOLYLINE
  5
301
100
AcDbEntity
  8
0
100
AcDbPolyline
 62
253
  6
CONTINUOUS
 90
48
 70
0
 10
-2.2655108242
 20
-11.0755247513
 10
-2.2652553528
 20
-11.1527802036
 10
-2.2653164033
 20
-11.190808067
 10
-2.265820483
 20
-11.2659062525
 10
-2.2667850272
 20
-11.3401796553
 10
-2.2682597334
 20
-11.4141165447
 10
-2.2707567234
 20
-11.4879124994
 10
-2.2725876498
 20
-11.5247858108
 10
-2.2749270047
 20
-11.5616093856
 10
-2.2778778716
 20
-11.5983529958
 10
-2.2815719652
 20
-11.6350459182
 10
-2.2861516969
 20
-11.6717005163
 10
-2.2917736327
 20
-11.7082019948
 10
-2.296191723
 20
-11.7323823769
 10
-2.301264012
 20
-11.7564072273
 10
-2.3071103388
 20
-11.7802542162
 10
-2.3138430517
 20
-11.8038921422
 10
-2.3215445363
 20
-11.8272543172
 10
-2.3302896874
 20
-11.8502651814
 10
-2.3375713953
 20
-11.8672420945
 10
-2.3454711977
 20
-11.8839156157
 10
-2.3539776864
 20
-11.9002377904
 10
-2.3630782038
 20
-11.9162219551
 10
-2.3727579665
 20
-11.931894003
 10
-2.3829949351
 20
-11.9472687648
 10
-2.3937670463
 20
-11.9623487187
 10
-2.4050593963
 20
-11.9770979946
 10
-2.4168572557
 20
-11.9914698666
 10
-2.429139433
 20
-12.0054125323
 10
-2.4418894815
 20
-12.0188855226
 10
-2.4551163966
 20
-12.0318987771
 10
-2.4772816872
 20
-12.0517960117
 10
-2.5006020614
 20
-12.0705224418
 10
-2.5249725145
 20
-12.0880264791
 10
-2.5502880413
 20
-12.1042565358
 10
-2.5764436369
 20
-12.1191610237
 10
-2.598809266
 20
-12.130534468
 10
-2.6216446064
 20
-12.1409387578
 10
-2.6449089082
 20
-12.1503610977
 10
-2.6685532445
 20
-12.1587893491
 10
-2.6924959786
 20
-12.1662140006
 10
-2.7166472968
 20
-12.1726261976
 10
-2.7409311206
 20
-12.1780215758
 10
-2.7653263127
 20
-12.1824137305
 10
-2.7898254712
 20
-12.1858207476
 10
-2.8144368827
 20
-12.1882557375
 10
-2.8392315872
 20
-12.1897119114
 10
-2.864296313
 20
-12.1901775051
  0
LWPOLYLINE
  5
302
100
AcDbEntity
  8
0
100
AcDbPolyline
 62
253
  6
CONTINUOUS
 90
3
 70
0
 10
-1.9173518283
 20
-11.1968568459
 10
-1.9173518098
 20
-11.1097859857
 10
-1.9177979843
 20
-11.0238787295
  0
LINE
  5
303
100
AcDbEntity
  8
0
100
AcDbLine
 62
253
  6
CONTINUOUS
 10
-0.7026435899
 20
12.6475519434
 11
-0.7026435899
 21
11.0525377771
  0
LINE
  5
304
100
AcDbEntity
  8
0
100
AcDbLine
 62
253
  6
CONTINUOUS
 10
-0.6958608027
 20
-10.8415084446
 11
-0.6958608027
 21
-11.4653253889
  0
LINE
  5
305
100
AcDbEntity
  8
0
100
AcDbLine
 62
253
  6
CONTINUOUS
 10
-0.6644283027
 20
-10.8415084446
 11
-0.6644283027
 21
-11.4633851112
  0
LINE
  5
306
100
AcDbEntity
  8
0
100
AcDbLine
 62
253
  6
CONTINUOUS
 10
-1.9486210328
 20
-11.2547055024
 11
-1.9484502025
 21
-11.084140776
  0
LINE
  5
307
100
AcDbEntity
  8
0
100
AcDbLine
 62
253
  6
CONTINUOUS
 10
-0.7026435899
 20
11.0525377771
 11
-0.7102988677
 21
11.0047011105
  0
LINE
  5
308
100
AcDbEntity
  8
0
100
AcDbLine
 62
253
  6
CONTINUOUS
 10
9.7126931655
 20
22.3499427471
 11
9.804871623
 21
22.5344261627
  0
LINE
  5
309
100
AcDbEntity
  8
0
100
AcDbLine
 62
253
  6
CONTINUOUS
 10
-11.6128101697
 20
-21.1995213712
 11
-11.7057863862
 21
-21.3856013999
  0
LINE
  5
30A
100
AcDbEntity
  8
0
100
AcDbLine
 62
253
  6
CONTINUOUS
 10
10.212521828
 20
21.8506279797
 11
10.3054980446
 21
22.0367080084
  0
LINE
  5
30B
100
AcDbEntity
  8
0
100
AcDbLine
 62
7
  6
CONTINUOUS
 10
7.5498558292
 20
0.0906458331
 11
7.8998104833
 21
0.1255533042
  0
LINE
  5
30C
100
AcDbEntity
  8
0
100
AcDbLine
 62
253
  6
CONTINUOUS
 10
10.1833440383
 20
-0.4216358799
 11
10.1797097088
 21
-0.4217108611
  0
LINE
  5
30D
100
AcDbEntity
  8
0
100
AcDbLine
 62
253
  6
CONTINUOUS
 10
10.1797097088
 20
-0.4217108611
 11
10.1584442204
 21
-0.4218579943
  0
LINE
  5
30E
100
AcDbEntity
  8
0
100
AcDbLine
 62
253
  6
CONTINUOUS
 10
9.6835153758
 20
0.0783450816
 11
2.7625617064
 21
0.074899683
  0
LINE
  5
30F
100
AcDbEntity
  8
0
100
AcDbLine
 62
253
  6
CONTINUOUS
 10
-11.0838037174
 20
0.5727615269
 11
-4.162850048
 21
0.5762069255
  0
LINE
  5
310
100
AcDbEntity
  8
0
100
AcDbLine
 62
253
  6
CONTINUOUS
 10
10.1584442204
 20
-0.4218579943
 11
2.7767869066
 21
-0.4260019512
  0
LINE
  5
311
100
AcDbEntity
  8
0
100
AcDbLine
 62
7
  6
CONTINUOUS
 10
7.5498558292
 20
0.0906458331
 11
-8.9501441708
 21
0.0906458331
  0
LINE
  5
312
100
AcDbEntity
  8
0
100
AcDbLine
 62
7
  6
CONTINUOUS
 10
9.8251688126
 20
0.1255533042
 11
7.8998104833
 21
0.1255533042
  0
LINE
  5
313
100
AcDbEntity
  8
0
100
AcDbLine
 62
7
  6
CONTINUOUS
 10
-9.3000988249
 20
0.1255533042
 11
-11.2254571543
 21
0.1255533042
  0
LINE
  5
314
100
AcDbEntity
  8
0
100
AcDbLine
 62
7
  6
CONTINUOUS
 10
-11.2254571543
 20
0.5255533042
 11
-9.3000988249
 21
0.5255533042
  0
LINE
  5
315
100
AcDbEntity
  8
0
100
AcDbLine
 62
7
  6
CONTINUOUS
 10
7.8998104833
 20
0.5255533042
 11
9.8251688126
 21
0.5255533042
  0
LINE
  5
316
100
AcDbEntity
  8
0
100
AcDbLine
 62
7
  6
CONTINUOUS
 10
-8.9501441708
 20
0.5604607754
 11
7.5498558292
 21
0.5604607754
  0
LINE
  5
317
100
AcDbEntity
  8
0
100
AcDbLine
 62
253
  6
CONTINUOUS
 10
2.7767869066
 20
-0.4260019512
 11
-4.1770721039
 21
-0.4260019521
  0
LINE
  5
318
100
AcDbEntity
  8
0
100
AcDbLine
 62
253
  6
CONTINUOUS
 10
2.7625617064
 20
0.074899683
 11
-4.1628526429
 21
0.0748996836
  0
LINE
  5
319
100
AcDbEntity
  8
0
100
AcDbLine
 62
253
  6
CONTINUOUS
 10
-4.162850048
 20
0.5762069255
 11
2.7625643012
 21
0.5762069249
  0
LINE
  5
31A
100
AcDbEntity
  8
0
100
AcDbLine
 62
253
  6
CONTINUOUS
 10
-4.1628526429
 20
0.0748996836
 11
-11.0838037161
 21
0.0783450812
  0
LINE
  5
31B
100
AcDbEntity
  8
0
100
AcDbLine
 62
253
  6
CONTINUOUS
 10
2.7625643012
 20
0.5762069249
 11
9.6835153745
 21
0.5727615273
  0
LINE
  5
31C
100
AcDbEntity
  8
0
100
AcDbLine
 62
253
  6
CONTINUOUS
 10
-4.1770721039
 20
-0.4260019521
 11
-11.5587325598
 21
-0.4218579901
  0
LWPOLYLINE
  5
31D
100
AcDbEntity
  8
0
100
AcDbPolyline
 62
253
  6
CONTINUOUS
 90
3
 70
0
 10
-11.5587325598
 20
-0.4218579901
 10
-11.5799980481
 20
-0.4217108603
 10
-11.5836323774
 20
-0.4216358808
  0
LINE
  5
31E
100
AcDbEntity
  8
0
100
AcDbLine
 62
7
  6
CONTINUOUS
 10
-8.9501441708
 20
0.0906458331
 11
-9.3000988249
 21
0.1255533042
  0
LINE
  5
31F
100
AcDbEntity
  8
0
100
AcDbLine
 62
253
  6
CONTINUOUS
 10
9.804871623
 20
-21.8833195542
 11
9.7126931649
 21
-21.6988361374
  0
LINE
  5
320
100
AcDbEntity
  8
0
100
AcDbLine
 62
253
  6
CONTINUOUS
 10
-11.7057863862
 20
22.0367080084
 11
-11.6128101691
 21
21.8506279785
  0
LINE
  5
321
100
AcDbEntity
  8
0
100
AcDbLine
 62
253
  6
CONTINUOUS
 10
10.3054980446
 20
-21.3856013999
 11
10.2125218274
 21
-21.19952137
  0
LWPOLYLINE
  5
322
100
AcDbEntity
  8
0
100
AcDbPolyline
 62
253
  6
CONTINUOUS
 90
25
 70
0
 10
0.790815308
 20
-10.2338134448
 10
0.7900494043
 20
-10.2313632341
 10
0.789239587
 20
-10.2289275726
 10
0.788386342
 20
-10.226506312
 10
0.7874901554
 20
-10.224099304
 10
0.7865515131
 20
-10.2217064005
 10
0.7855709012
 20
-10.2193274532
 10
0.7845488056
 20
-10.2169623139
 10
0.7834857124
 20
-10.2146108344
 10
0.7823821076
 20
-10.2122728664
 10
0.7812384771
 20
-10.2099482617
 10
0.7800553071
 20
-10.2076368721
 10
0.7788330834
 20
-10.2053385493
 10
0.7775721846
 20
-10.2030531776
 10
0.7762725595
 20
-10.2007807715
 10
0.7749340491
 20
-10.1985213775
 10
0.7735564947
 20
-10.1962750427
 10
0.7721397375
 20
-10.1940418139
 10
0.7706836187
 20
-10.1918217377
 10
0.7691879795
 20
-10.1896148612
 10
0.767652661
 20
-10.1874212311
 10
0.7660775046
 20
-10.1852408943
 10
0.7644623513
 20
-10.1830738975
 10
0.7628070425
 20
-10.1809202876
 10
0.7611114192
 20
-10.1787801115
  0
LWPOLYLINE
  5
323
100
AcDbEntity
  8
0
100
AcDbPolyline
 62
253
  6
CONTINUOUS
 90
24
 70
0
 10
1.4312480857
 20
-10.7528906669
 10
1.4320010871
 20
-10.7556499601
 10
1.4327975115
 20
-10.7583970083
 10
1.433637933
 20
-10.7611323674
 10
1.4345229259
 20
-10.7638565934
 10
1.4354530642
 20
-10.7665702423
 10
1.4364289223
 20
-10.7692738699
 10
1.4374510744
 20
-10.7719680322
 10
1.4383837937
 20
-10.7743178048
 10
1.4393522369
 20
-10.7766593767
 10
1.4403562446
 20
-10.7789913684
 10
1.4413956572
 20
-10.7813124004
 10
1.4424703153
 20
-10.7836210933
 10
1.4435800594
 20
-10.7859160675
 10
1.44472473
 20
-10.7881959436
 10
1.4459041676
 20
-10.7904593421
 10
1.447118361
 20
-10.7927051105
 10
1.4483678925
 20
-10.7949330041
 10
1.4496534923
 20
-10.7971430051
 10
1.4509758912
 20
-10.7993350958
 10
1.4523358194
 20
-10.8015092584
 10
1.4537340076
 20
-10.8036654751
 10
1.4551711862
 20
-10.8058037283
 10
1.4566480856
 20
-10.8079240002
  0
LWPOLYLINE
  5
324
100
AcDbEntity
  8
0
100
AcDbPolyline
 62
253
  6
CONTINUOUS
 90
25
 70
0
 10
2.0010194744
 20
-10.9615587224
 10
1.9980636435
 20
-10.9504222644
 10
1.9949710365
 20
-10.9394295757
 10
1.9917441857
 20
-10.9285801867
 10
1.9883856234
 20
-10.9178736281
 10
1.9848978816
 20
-10.9073094306
 10
1.9812834927
 20
-10.8968871247
 10
1.977544989
 20
-10.8866062412
 10
1.9736849026
 20
-10.8764663107
 10
1.9697057657
 20
-10.8664668637
 10
1.9656101107
 20
-10.856607431
 10
1.9614004697
 20
-10.8468875431
 10
1.957079375
 20
-10.8373067308
 10
1.9526489852
 20
-10.8278644926
 10
1.9481099642
 20
-10.8185601992
 10
1.9434626025
 20
-10.8093931891
 10
1.9387071903
 20
-10.8003628011
 10
1.933844018
 20
-10.7914683737
 10
1.928873376
 20
-10.7827092455
 10
1.9237955546
 20
-10.7740847551
 10
1.9186108442
 20
-10.7655942412
 10
1.913319535
 20
-10.7572370423
 10
1.9079219175
 20
-10.7490124972
 10
1.902418282
 20
-10.7409199444
 10
1.8968089189
 20
-10.7329587225
  0
LINE
  5
325
100
AcDbEntity
  8
0
100
AcDbLine
 62
253
  6
CONTINUOUS
 10
0.8015750303
 20
-10.2948792781
 11
0.8005029089
 21
-10.2846671274
  0
LWPOLYLINE
  5
326
100
AcDbEntity
  8
0
100
AcDbPolyline
 62
253
  6
CONTINUOUS
 90
79
 70
0
 10
0.7701425303
 20
-10.2951967781
 10
0.7695915744
 20
-10.2894250426
 10
0.7690006074
 20
-10.2836894944
 10
0.7683377857
 20
-10.2779521797
 10
0.7675712657
 20
-10.2721751451
 10
0.7666696361
 20
-10.266332567
 10
0.7656032154
 20
-10.2604471433
 10
0.7647852909
 20
-10.2565144937
 10
0.7638665638
 20
-10.2525740232
 10
0.7628324717
 20
-10.2486214741
 10
0.7616698489
 20
-10.2446545273
 10
0.7603711179
 20
-10.2406786158
 10
0.7589300977
 20
-10.2367011111
 10
0.7573422961
 20
-10.2327295691
 10
0.755609975
 20
-10.2287722837
 10
0.7537370849
 20
-10.2248377336
 10
0.7517278431
 20
-10.2209345259
 10
0.7495875352
 20
-10.2170717828
 10
0.7473217133
 20
-10.2132587551
 10
0.7449339805
 20
-10.2095018842
 10
0.7424201419
 20
-10.2057963726
 10
0.7397740532
 20
-10.2021346132
 10
0.7369898683
 20
-10.1985107936
 10
0.7340629331
 20
-10.1949262787
 10
0.7309888917
 20
-10.1913842282
 10
0.7277668305
 20
-10.1878907046
 10
0.7244096049
 20
-10.1844633837
 10
0.720933513
 20
-10.1811228443
 10
0.7166256198
 20
-10.1772527244
 10
0.712182432
 20
-10.1735427667
 10
0.7076163536
 20
-10.1699985346
 10
0.7029397889
 20
-10.1666255912
 10
0.698165142
 20
-10.1634294999
 10
0.6941168192
 20
-10.1609039187
 10
0.6899953237
 20
-10.1585005501
 10
0.6857869812
 20
-10.1562149293
 10
0.68148306
 20
-10.1540456034
 10
0.677094598
 20
-10.152003166
 10
0.6726375751
 20
-10.1501012225
 10
0.6681280008
 20
-10.1483524492
 10
0.6635820012
 20
-10.1467658058
 10
0.6590157314
 20
-10.1453493232
 10
0.6544427138
 20
-10.1441088663
 10
0.6498659389
 20
-10.1430416367
 10
0.6452857642
 20
-10.1421426703
 10
0.6407013307
 20
-10.1414048968
 10
0.6361069127
 20
-10.1408128227
 10
0.6314955679
 20
-10.1403488483
 10
0.6280237674
 20
-10.1400749053
 10
0.6245475664
 20
-10.1398590508
 10
0.6176096738
 20
-10.1395812869
 10
0.6107155098
 20
-10.1394694028
 10
0.6072961517
 20
-10.1394710682
 10
0.6038992575
 20
-10.1395254215
 10
0.6005273606
 20
-10.1396487031
 10
0.5971857415
 20
-10.1398535876
 10
0.5938789567
 20
-10.1401492285
 10
0.5906059206
 20
-10.1405342625
 10
0.5873635141
 20
-10.1410051785
 10
0.5841461263
 20
-10.1415603916
 10
0.5809492918
 20
-10.1421985783
 10
0.5777756174
 20
-10.1429175329
 10
0.5735867745
 20
-10.1439976455
 10
0.5694520603
 20
-10.1452116454
 10
0.5653766527
 20
-10.1465541455
 10
0.5613662687
 20
-10.1480196818
 10
0.5574287838
 20
-10.1496024824
 10
0.5535726131
 20
-10.1512966988
 10
0.549804815
 20
-10.1530959515
 10
0.546127022
 20
-10.1549917373
 10
0.5425395098
 20
-10.1569750223
 10
0.539040469
 20
-10.1590371378
 10
0.5356197482
 20
-10.1611708765
 10
0.532265111
 20
-10.1633693963
 10
0.5273371417
 20
-10.1667705822
 10
0.5225301159
 20
-10.1702604908
 10
0.5162899889
 20
-10.1749957532
 10
0.5101528303
 20
-10.1798120662
 10
0.5040069748
 20
-10.1847067781
  0
LWPOLYLINE
  5
327
100
AcDbEntity
  8
0
100
AcDbPolyline
 62
253
  6
CONTINUOUS
 90
24
 70
0
 10
1.4265208634
 20
-11.6204770556
 10
1.4267760359
 20
-11.6232299817
 10
1.4270777922
 20
-11.625973176
 10
1.4274259847
 20
-11.6287067503
 10
1.427820466
 20
-11.6314308167
 10
1.4282610885
 20
-11.6341454869
 10
1.4287477049
 20
-11.6368508729
 10
1.4292801675
 20
-11.6395470867
 10
1.429858329
 20
-11.6422342401
 10
1.4304820419
 20
-11.6449124451
 10
1.4311511586
 20
-11.6475818136
 10
1.4318655318
 20
-11.6502424575
 10
1.432560112
 20
-11.6526737522
 10
1.4332931289
 20
-11.6550975351
 10
1.4340651149
 20
-11.6575135316
 10
1.4348766027
 20
-11.6599214668
 10
1.4357281247
 20
-11.6623210661
 10
1.4366202136
 20
-11.6647120547
 10
1.4375534019
 20
-11.667094158
 10
1.4385282222
 20
-11.6694671011
 10
1.4395452071
 20
-11.6718306093
 10
1.440604889
 20
-11.674184408
 10
1.4417078006
 20
-11.6765282224
 10
1.4428544745
 20
-11.6788617778
  0
LWPOLYLINE
  5
328
100
AcDbEntity
  8
0
100
AcDbPolyline
 62
253
  6
CONTINUOUS
 90
23
 70
0
 10
1.6504641967
 20
-11.1250006668
 10
1.6508722462
 20
-11.1305541644
 10
1.6511900144
 20
-11.1361205574
 10
1.6514178281
 20
-11.1416999177
 10
1.6515560145
 20
-11.1472923172
 10
1.6516049005
 20
-11.1528978279
 10
1.6515648132
 20
-11.1585165216
 10
1.6514360795
 20
-11.1641484703
 10
1.6512190264
 20
-11.169793746
 10
1.6509139809
 20
-11.1754524205
 10
1.6505212701
 20
-11.1811245658
 10
1.6500412209
 20
-11.1868102538
 10
1.6494739595
 20
-11.192509507
 10
1.6488188085
 20
-11.1982221506
 10
1.64807489
 20
-11.2039479603
 10
1.6472413257
 20
-11.2096867117
 10
1.6463172374
 20
-11.2154381806
 10
1.6453017471
 20
-11.2212021426
 10
1.6441939767
 20
-11.2269783735
 10
1.6429930478
 20
-11.232766649
 10
1.6416980825
 20
-11.2385667448
 10
1.6403082026
 20
-11.2443784366
 10
1.63882253
 20
-11.2502015001
  0
LWPOLYLINE
  5
329
100
AcDbEntity
  8
0
100
AcDbPolyline
 62
253
  6
CONTINUOUS
 90
39
 70
0
 10
0.5262225209
 20
11.8469580547
 10
0.5260210742
 20
11.8634458348
 10
0.5254215435
 20
11.8798745193
 10
0.5244311432
 20
11.8962470255
 10
0.5230570874
 20
11.9125662707
 10
0.5213065904
 20
11.9288351722
 10
0.5191868665
 20
11.9450566473
 10
0.5161653216
 20
11.964460578
 10
0.5126310195
 20
11.9837853916
 10
0.5085925012
 20
12.0030160644
 10
0.504058308
 20
12.0221375722
 10
0.4990369808
 20
12.0411348914
 10
0.4935364235
 20
12.0599939838
 10
0.4875619899
 20
12.0787047553
 10
0.481118397
 20
12.0972580975
 10
0.4742103612
 20
12.1156449021
 10
0.4668425993
 20
12.1338560608
 10
0.4590196661
 20
12.1518817338
 10
0.4507454684
 20
12.1697091552
 10
0.4420237511
 20
12.1873248277
 10
0.4328582594
 20
12.2047152539
 10
0.4232527382
 20
12.2218669366
 10
0.4149142876
 20
12.2359676006
 10
0.4062725228
 20
12.2498835254
 10
0.397327105
 20
12.2636051387
 10
0.3880776953
 20
12.2771228686
 10
0.3785239551
 20
12.2904271429
 10
0.3686655453
 20
12.3035083898
 10
0.3585039362
 20
12.3163575703
 10
0.3480478333
 20
12.3289677787
 10
0.3373077512
 20
12.3413326423
 10
0.3262942043
 20
12.3534457887
 10
0.3150177072
 20
12.3653008452
 10
0.3034887744
 20
12.3768914393
 10
0.2893328552
 20
12.3904461805
 10
0.2748300031
 20
12.4036244548
 10
0.259981652
 20
12.4164397978
 10
0.2447892356
 20
12.4289057451
 10
0.2292541876
 20
12.4410358323
  0
LWPOLYLINE
  5
32A
100
AcDbEntity
  8
0
100
AcDbPolyline
 62
253
  6
CONTINUOUS
 90
37
 70
0
 10
0.9112441874
 20
11.8469580547
 10
0.910978651
 20
11.8696542334
 10
0.9101891099
 20
11.8922847146
 10
0.9088861657
 20
11.9148532693
 10
0.9070804202
 20
11.9373636683
 10
0.9047824752
 20
11.9598196825
 10
0.9020029325
 20
11.9822250827
 10
0.8980459926
 20
12.0090457445
 10
0.8934248967
 20
12.0357795628
 10
0.8881537232
 20
12.0624071478
 10
0.8822465502
 20
12.0889091101
 10
0.8757174559
 20
12.11526606
 10
0.868579752
 20
12.1414602807
 10
0.8608436831
 20
12.1674807465
 10
0.8525187273
 20
12.1933181045
 10
0.8436143626
 20
12.2189630017
 10
0.8341400672
 20
12.2444060853
 10
0.8241048321
 20
12.2696374405
 10
0.8135157011
 20
12.2946449056
 10
0.8023792309
 20
12.3194157569
 10
0.7907019783
 20
12.3439372709
 10
0.7784905
 20
12.3681967238
 10
0.7657502256
 20
12.3921817907
 10
0.7524820755
 20
12.4158817404
 10
0.7386858428
 20
12.4392862403
 10
0.7243613206
 20
12.4623849579
 10
0.709508302
 20
12.4851675606
 10
0.6941278288
 20
12.5076212439
 10
0.6782259372
 20
12.5297233157
 10
0.661809912
 20
12.5514486121
 10
0.644887038
 20
12.572771969
 10
0.6274646001
 20
12.5936682226
 10
0.612567203
 20
12.6107390366
 10
0.5973181022
 20
12.6274913145
 10
0.5817074546
 20
12.6439205946
 10
0.5657254169
 20
12.6600224153
 10
0.5493621459
 20
12.6757923151
  0
LINE
  5
32B
100
AcDbEntity
  8
0
100
AcDbLine
 62
253
  6
CONTINUOUS
 10
0.7701425303
 20
-12.0115664999
 11
0.7701425303
 21
-10.2951967781
  0
LINE
  5
32C
100
AcDbEntity
  8
0
100
AcDbLine
 62
253
  6
CONTINUOUS
 10
0.8015750303
 20
-12.0115664999
 11
0.8015750303
 21
-10.2948792781
  0
LWPOLYLINE
  5
32D
100
AcDbEntity
  8
0
100
AcDbPolyline
 62
253
  6
CONTINUOUS
 90
36
 70
0
 10
1.3433616873
 20
11.8469580547
 10
1.3429293006
 20
11.8102222296
 10
1.3416265756
 20
11.7735299106
 10
1.3394451651
 20
11.7368580704
 10
1.3363767219
 20
11.7001836817
 10
1.3324128986
 20
11.6634837173
 10
1.3275453481
 20
11.6267351498
 10
1.3217657232
 20
11.5899149521
 10
1.3150688266
 20
11.5530154475
 10
1.3074620624
 20
11.5160903617
 10
1.2989559843
 20
11.4792087711
 10
1.2895611463
 20
11.442439752
 10
1.2792881025
 20
11.4058523807
 10
1.2681474067
 20
11.3695157337
 10
1.256149613
 20
11.3334988873
 10
1.2433030273
 20
11.2978584853
 10
1.229606963
 20
11.2626014419
 10
1.2150584856
 20
11.2277222385
 10
1.1996546605
 20
11.1932153568
 10
1.1833925533
 20
11.1590752783
 10
1.1662692294
 20
11.1252964845
 10
1.1482817542
 20
11.0918734571
 10
1.1294343565
 20
11.0588101492
 10
1.109759919
 20
11.0261484012
 10
1.0892984875
 20
10.993939525
 10
1.068090108
 20
10.9622348325
 10
1.0461748265
 20
10.9310856356
 10
1.0235926888
 20
10.9005432464
 10
1.0003837409
 20
10.8706589766
 10
0.9765792449
 20
10.841472607
 10
0.9521753273
 20
10.8129777927
 10
0.9271593308
 20
10.7851566577
 10
0.9015185981
 20
10.7579913259
 10
0.8752404719
 20
10.7314639211
 10
0.8483122949
 20
10.7055565673
 10
0.8207214097
 20
10.6802513883
  0
LWPOLYLINE
  5
32E
100
AcDbEntity
  8
0
100
AcDbPolyline
 62
253
  6
CONTINUOUS
 90
39
 70
0
 10
0.092835021
 20
11.8469580547
 10
0.0927419851
 20
11.8400369521
 10
0.0924658852
 20
11.8331456438
 10
0.0920112324
 20
11.8262830104
 10
0.091382538
 20
11.8194479326
 10
0.0905843134
 20
11.8126392908
 10
0.0896210699
 20
11.8058559657
 10
0.0884973188
 20
11.7990968377
 10
0.0869890357
 20
11.7912414405
 10
0.0852732196
 20
11.7834226552
 10
0.0833546659
 20
11.7756456823
 10
0.08123817
 20
11.7679157223
 10
0.078928527
 20
11.7602379758
 10
0.0764305326
 20
11.7526176433
 10
0.0737487564
 20
11.7450596358
 10
0.0708868664
 20
11.7375677059
 10
0.0678483052
 20
11.7301453167
 10
0.064636515
 20
11.7227959311
 10
0.0612549383
 20
11.7155230123
 10
0.0577070176
 20
11.7083300233
 10
0.0539957928
 20
11.7012203743
 10
0.0501226937
 20
11.6941972638
 10
0.0460887475
 20
11.6872638375
 10
0.0418949817
 20
11.6804232411
 10
0.0375424234
 20
11.6736786204
 10
0.0330320999
 20
11.667033121
 10
0.0283649519
 20
11.6604902652
 10
0.0235415737
 20
11.6540550818
 10
0.0185624729
 20
11.6477329759
 10
0.0134281571
 20
11.641529353
 10
0.0081391339
 20
11.6354496184
 10
0.002695911
 20
11.6294991773
 10
-0.0020926831
 20
11.6245057714
 10
-0.0069976469
 20
11.6196145385
 10
-0.0120224334
 20
11.6148286888
 10
-0.0171704957
 20
11.6101514329
 10
-0.0224452869
 20
11.6055859813
 10
-0.0278502599
 20
11.6011355444
 10
-0.0385273754
 20
11.5927846376
  0
LINE
  5
32F
100
AcDbEntity
  8
0
100
AcDbLine
 62
253
  6
CONTINUOUS
 10
-11.1129815072
 20
-21.6988361386
 11
-11.2051599646
 21
-21.8833195542
  0
LINE
  5
330
100
AcDbEntity
  8
0
100
AcDbLine
 62
7
  6
CONTINUOUS
 10
-8.9501441708
 20
0.5604607754
 11
-9.3000988249
 21
0.5255533042
  0
LINE
  5
331
100
AcDbEntity
  8
0
100
AcDbLine
 62
253
  6
CONTINUOUS
 10
-11.5836323799
 20
1.0727424884
 11
-11.5799980505
 21
1.0728174696
  0
LINE
  5
332
100
AcDbEntity
  8
0
100
AcDbLine
 62
253
  6
CONTINUOUS
 10
-11.5799980505
 20
1.0728174696
 11
-11.5587325621
 21
1.0729646028
  0
LINE
  5
333
100
AcDbEntity
  8
0
100
AcDbLine
 62
253
  6
CONTINUOUS
 10
-11.5587325621
 20
1.0729646028
 11
-4.1770752483
 21
1.0771085597
  0
LINE
  5
334
100
AcDbEntity
  8
0
100
AcDbLine
 62
253
  6
CONTINUOUS
 10
-4.1770752483
 20
1.0771085597
 11
2.7767837623
 21
1.0771085605
  0
LINE
  5
335
100
AcDbEntity
  8
0
100
AcDbLine
 62
253
  6
CONTINUOUS
 10
2.7767837623
 20
1.0771085605
 11
9.9119848257
 21
1.0734197009
  0
LINE
  5
336
100
AcDbEntity
  8
0
100
AcDbLine
 62
253
  6
CONTINUOUS
 10
9.9119848257
 20
1.0734197009
 11
10.1584442181
 21
1.0729645985
  0
LWPOLYLINE
  5
337
100
AcDbEntity
  8
0
100
AcDbPolyline
 62
253
  6
CONTINUOUS
 90
3
 70
0
 10
10.1584442181
 20
1.0729645985
 10
10.1797097064
 20
1.0728174688
 10
10.1833440358
 20
1.0727424893
  0
LINE
  5
338
100
AcDbEntity
  8
0
100
AcDbLine
 62
7
  6
CONTINUOUS
 10
7.5498558292
 20
0.5604607754
 11
7.8998104833
 21
0.5255533042
  0
LINE
  5
339
100
AcDbEntity
  8
0
100
AcDbLine
 62
253
  6
CONTINUOUS
 10
-11.2051599646
 20
22.5344261627
 11
-11.1129815066
 21
22.3499427459
  0
LINE
  5
33A
100
AcDbEntity
  8
0
100
AcDbLine
 62
253
  6
CONTINUOUS
 10
-0.7102988677
 20
12.6918608323
 11
-0.7026435899
 21
12.6475519434
  0
LWPOLYLINE
  5
33B
100
AcDbEntity
  8
0
100
AcDbPolyline
 62
253
  6
CONTINUOUS
 90
20
 70
0
 10
0.8005029089
 20
-10.2846671274
 10
0.8001264849
 20
-10.2812635509
 10
0.799732597
 20
-10.2778599351
 10
0.7993164818
 20
-10.2744561146
 10
0.798873376
 20
-10.2710519237
 10
0.7983985163
 20
-10.2676471968
 10
0.7978871393
 20
-10.2642417684
 10
0.7975091949
 20
-10.2618837933
 10
0.7971097747
 20
-10.2595261107
 10
0.7966871884
 20
-10.2571694288
 10
0.7962397457
 20
-10.2548144558
 10
0.7957657561
 20
-10.2524618998
 10
0.7952635293
 20
-10.250112469
 10
0.7947313749
 20
-10.2477668716
 10
0.7941676025
 20
-10.2454258157
 10
0.7935705218
 20
-10.2430900095
 10
0.7929384423
 20
-10.2407601611
 10
0.7922696738
 20
-10.2384369788
 10
0.7915625258
 20
-10.2361211706
 10
0.790815308
 20
-10.2338134448
  0
LWPOLYLINE
  5
33C
100
AcDbEntity
  8
0
100
AcDbPolyline
 62
253
  6
CONTINUOUS
 90
41
 70
0
 10
1.7155775206
 20
11.8469580547
 10
1.7151694325
 20
11.8868204621
 10
1.7139467813
 20
11.9266034239
 10
1.7119119862
 20
11.9663153549
 10
1.7090674666
 20
12.0059646699
 10
1.705415642
 20
12.0455597839
 10
1.7009588117
 20
12.0851035012
 10
1.6956987949
 20
12.1245761859
 10
1.6896372909
 20
12.1639525915
 10
1.6827759987
 20
12.2032074716
 10
1.6751166178
 20
12.2423155799
 10
1.6666606626
 20
12.281253332
 10
1.6574089097
 20
12.3200037914
 10
1.6473619512
 20
12.3585516835
 10
1.6365203789
 20
12.3968817339
 10
1.6248847849
 20
12.434978668
 10
1.6124556972
 20
12.472826536
 10
1.5992333882
 20
12.5104066876
 10
1.5852180664
 20
12.547699797
 10
1.5704099403
 20
12.5846865385
 10
1.5548092183
 20
12.6213475865
 10
1.5384185267
 20
12.657664589
 10
1.5212501629
 20
12.6936230892
 10
1.5033188422
 20
12.7292096039
 10
1.4846392798
 20
12.7644106501
 10
1.465226191
 20
12.7992127446
 10
1.4450937859
 20
12.8336028727
 10
1.4242542548
 20
12.8675698929
 10
1.4027192826
 20
12.9011031321
 10
1.3805005546
 20
12.9341919171
 10
1.3576097558
 20
12.966825575
 10
1.3340595316
 20
12.9989923624
 10
1.3098663685
 20
13.0306762561
 10
1.2850477135
 20
13.0618601626
 10
1.2596210134
 20
13.0925269883
 10
1.233603715
 20
13.12265964
 10
1.2070091876
 20
13.152244608
 10
1.17983449
 20
13.1812827181
 10
1.1520726033
 20
13.2097783801
 10
1.1237165087
 20
13.2377360038
 10
1.0947591874
 20
13.2651599988
  0
LWPOLYLINE
  5
33D
100
AcDbEntity
  8
0
100
AcDbPolyline
 62
253
  6
CONTINUOUS
 90
36
 70
0
 10
2.149035576
 20
11.8469580547
 10
2.1483963366
 20
11.7923548742
 10
2.1464741695
 20
11.7378303867
 10
2.1432624012
 20
11.6833573837
 10
2.1387543582
 20
11.6289086565
 10
2.132943367
 20
11.5744569967
 10
2.1258227543
 20
11.5199751956
 10
2.1173858464
 20
11.4654360447
 10
2.1076289524
 20
11.4108304752
 10
2.0965603112
 20
11.3562219766
 10
2.0841911441
 20
11.3016921783
 10
2.0705326723
 20
11.2473227096
 10
2.0555961173
 20
11.1931951998
 10
2.0393927003
 20
11.1393912782
 10
2.0219336427
 20
11.0859925741
 10
2.0032279983
 20
11.0330677667
 10
1.9832761509
 20
10.9806337338
 10
1.962076317
 20
10.9286944032
 10
1.939626713
 20
10.8772537027
 10
1.9159255551
 20
10.8263155599
 10
1.8909710598
 20
10.7758839026
 10
1.8647614436
 20
10.7259626585
 10
1.8373058957
 20
10.6765683823
 10
1.808657498
 20
10.6277681367
 10
1.7788803053
 20
10.5796416113
 10
1.7480383723
 20
10.5322684955
 10
1.716195754
 20
10.4857284791
 10
1.6834165049
 20
10.4401012516
 10
1.6497646801
 20
10.3954665026
 10
1.6152909609
 20
10.3518852873
 10
1.5799925359
 20
10.3093441237
 10
1.5438532202
 20
10.267810895
 10
1.506856829
 20
10.2272534848
 10
1.4689871775
 20
10.1876397765
 10
1.4302280807
 20
10.1489376537
 10
1.390563354
 20
10.1111149996
  0
LWPOLYLINE
  5
33E
100
AcDbEntity
  8
0
100
AcDbPolyline
 62
253
  6
CONTINUOUS
 90
23
 70
0
 10
2.0238441966
 20
-11.2121015001
 10
2.0246168438
 20
-11.2010176006
 10
2.025218848
 20
-11.1899056236
 10
2.0256502761
 20
-11.1787652992
 10
2.0259111953
 20
-11.1675963576
 10
2.0260016726
 20
-11.1563985288
 10
2.025921775
 20
-11.145171543
 10
2.0256715695
 20
-11.1339151303
 10
2.0252511233
 20
-11.1226290207
 10
2.0246605034
 20
-11.1113129443
 10
2.0238997768
 20
-11.0999666313
 10
2.0229690106
 20
-11.0885898118
 10
2.0218678903
 20
-11.0771823695
 10
2.0205945761
 20
-11.065744803
 10
2.0191468463
 20
-11.0542777644
 10
2.0175224796
 20
-11.042781906
 10
2.0157192545
 20
-11.0312578798
 10
2.0137349494
 20
-11.019706338
 10
2.011567343
 20
-11.0081279329
 10
2.0092142138
 20
-10.9965233166
 10
2.0066733402
 20
-10.9848931413
 10
2.0039425009
 20
-10.9732380592
 10
2.0010194744
 20
-10.9615587224
  0
LWPOLYLINE
  5
33F
100
AcDbEntity
  8
0
100
AcDbPolyline
 62
253
  6
CONTINUOUS
 90
23
 70
0
 10
1.4260622523
 20
-10.692389278
 10
1.4258631712
 20
-10.6949277805
 10
1.4257015494
 20
-10.6974652727
 10
1.4255771462
 20
-10.7000020278
 10
1.4254897205
 20
-10.7025383189
 10
1.4254390315
 20
-10.7050744191
 10
1.4254248382
 20
-10.7076106015
 10
1.4254468997
 20
-10.7101471391
 10
1.4255049751
 20
-10.7126843051
 10
1.4256151676
 20
-10.7155847538
 10
1.4257719099
 20
-10.7184850512
 10
1.4259750281
 20
-10.7213838684
 10
1.4262243483
 20
-10.7242798767
 10
1.4265196964
 20
-10.7271717474
 10
1.4268608984
 20
-10.7300581516
 10
1.4272477804
 20
-10.7329377605
 10
1.4276802491
 20
-10.7358095298
 10
1.4281585345
 20
-10.7386735522
 10
1.4286829473
 20
-10.7415302052
 10
1.4292537981
 20
-10.7443798659
 10
1.4298713976
 20
-10.7472229115
 10
1.4305360566
 20
-10.7500597194
 10
1.4312480857
 20
-10.7528906669
  0
LWPOLYLINE
  5
340
100
AcDbEntity
  8
0
100
AcDbPolyline
 62
253
  6
CONTINUOUS
 90
22
 70
0
 10
1.4299428079
 20
-11.5596581667
 10
1.4293283551
 20
-11.5626114713
 10
1.4287587217
 20
-11.5655732856
 10
1.4282341006
 20
-11.5685437773
 10
1.4277546848
 20
-11.571523114
 10
1.4273206675
 20
-11.5745114634
 10
1.4269322416
 20
-11.577508993
 10
1.4265896002
 20
-11.5805158706
 10
1.4262929364
 20
-11.5835322636
 10
1.4260424432
 20
-11.5865583399
 10
1.4258383136
 20
-11.5895942669
 10
1.4256932353
 20
-11.5923628485
 10
1.4255873709
 20
-11.595139587
 10
1.4255214576
 20
-11.5979243599
 10
1.4254962327
 20
-11.6007170444
 10
1.4255124335
 20
-11.6035175178
 10
1.4255707971
 20
-11.6063256575
 10
1.425672061
 20
-11.6091413408
 10
1.4258169623
 20
-11.6119644449
 10
1.4260062382
 20
-11.6147948472
 10
1.4262406262
 20
-11.617632425
 10
1.4265208634
 20
-11.6204770556
  0
LWPOLYLINE
  5
341
100
AcDbEntity
  8
0
100
AcDbPolyline
 62
253
  6
CONTINUOUS
 90
20
 70
0
 10
-0.6851010805
 20
-10.779384278
 10
-0.6858934545
 20
-10.7818884802
 10
-0.6866420524
 20
-10.7844049349
 10
-0.6873487553
 20
-10.7869328511
 10
-0.6880154445
 20
-10.789471438
 10
-0.6886440012
 20
-10.7920199043
 10
-0.6892363065
 20
-10.7945774592
 10
-0.6897942416
 20
-10.7971433117
 10
-0.6903196877
 20
-10.7997166707
 10
-0.690814526
 20
-10.8022967453
 10
-0.6912806376
 20
-10.8048827445
 10
-0.6917199038
 20
-10.8074738772
 10
-0.6921342058
 20
-10.8100693526
 10
-0.6926510504
 20
-10.8135357071
 10
-0.6931314611
 20
-10.8170084972
 10
-0.6935800404
 20
-10.8204878446
 10
-0.6940013909
 20
-10.8239738709
 10
-0.6944001152
 20
-10.8274666978
 10
-0.6947808159
 20
-10.8309664469
 10
-0.6958608027
 20
-10.8415084446
  0
LINE
  5
342
100
AcDbEntity
  8
0
100
AcDbLine
 62
253
  6
CONTINUOUS
 10
9.8251688126
 20
0.1255533042
 11
9.6835153758
 21
0.0783450816
  0
LINE
  5
343
100
AcDbEntity
  8
0
100
AcDbLine
 62
253
  6
CONTINUOUS
 10
10.3252259527
 20
-0.3743515136
 11
10.1833440382
 21
-0.4216358799
  0
LINE
  5
344
100
AcDbEntity
  8
0
100
AcDbLine
 62
253
  6
CONTINUOUS
 10
9.6835153745
 20
0.5727615273
 11
9.8251688126
 21
0.5255533042
  0
LINE
  5
345
100
AcDbEntity
  8
0
100
AcDbLine
 62
253
  6
CONTINUOUS
 10
10.1833440357
 20
1.0727424893
 11
10.3252259527
 21
1.025458122
  0
LWPOLYLINE
  5
346
100
AcDbEntity
  8
0
100
AcDbPolyline
 62
253
  6
CONTINUOUS
 90
10
 70
0
 10
10.2125218274
 20
-21.19952137
 10
10.2112280622
 20
-21.1951688608
 10
10.209956101
 20
-21.187475091
 10
10.208705944
 20
-21.1764400605
 10
10.2074710414
 20
-21.1619748577
 10
10.2062579428
 20
-21.1441683942
 10
10.2050862972
 20
-21.1232874052
 10
10.2039572911
 20
-21.0992871438
 10
10.2028697379
 20
-21.0722123568
 10
10.2018397262
 20
-21.0424640196
  0
LWPOLYLINE
  5
347
100
AcDbEntity
  8
0
100
AcDbPolyline
 62
253
  6
CONTINUOUS
 90
25
 70
0
 10
1.63882253
 20
-11.2502015001
 10
1.6373336666
 20
-11.2557051375
 10
1.635779096
 20
-11.2611429756
 10
1.6341596151
 20
-11.2665152064
 10
1.6324760208
 20
-11.2718220213
 10
1.6307291098
 20
-11.2770636124
 10
1.6289196789
 20
-11.2822401712
 10
1.6270485251
 20
-11.2873518895
 10
1.6251164451
 20
-11.2923989592
 10
1.6231242357
 20
-11.2973815719
 10
1.6210726939
 20
-11.3022999194
 10
1.6189626164
 20
-11.3071541935
 10
1.6167948001
 20
-11.3119445859
 10
1.6145698834
 20
-11.3166712594
 10
1.612287872
 20
-11.3213342607
 10
1.6099486129
 20
-11.3259336077
 10
1.6075519533
 20
-11.3304693182
 10
1.6050977404
 20
-11.3349414099
 10
1.6025858213
 20
-11.3393499007
 10
1.6000160432
 20
-11.3436948083
 10
1.5973882533
 20
-11.3479761506
 10
1.5947022988
 20
-11.3521939454
 10
1.5919580267
 20
-11.3563482104
 10
1.5891552844
 20
-11.3604389634
 10
1.5862939189
 20
-11.3644662223
  0
LWPOLYLINE
  5
348
100
AcDbEntity
  8
0
100
AcDbPolyline
 62
253
  6
CONTINUOUS
 90
20
 70
0
 10
0.790815308
 20
-12.0735495555
 10
0.7916183344
 20
-12.07102338
 10
0.7923749894
 20
-12.068487959
 10
0.7930874117
 20
-12.0659442828
 10
0.7937577403
 20
-12.0633933419
 10
0.7943881138
 20
-12.0608361266
 10
0.7949806711
 20
-12.0582736273
 10
0.7955375511
 20
-12.0557068346
 10
0.7960608924
 20
-12.0531367386
 10
0.7966206627
 20
-12.0501963989
 10
0.7971425528
 20
-12.0472526385
 10
0.7976296948
 20
-12.0443050577
 10
0.7980852205
 20
-12.0413532564
 10
0.7985122618
 20
-12.0383968348
 10
0.7989139507
 20
-12.0354353931
 10
0.799293419
 20
-12.0324685313
 10
0.7997931826
 20
-12.0283054685
 10
0.8002633789
 20
-12.0241323663
 10
0.8007118546
 20
-12.0199505924
 10
0.8015750303
 20
-12.0115664999
  0
LWPOLYLINE
  5
349
100
AcDbEntity
  8
0
100
AcDbPolyline
 62
253
  6
CONTINUOUS
 90
25
 70
0
 10
1.4407025301
 20
-10.6331578891
 10
1.4396393259
 20
-10.6354775742
 10
1.4386158419
 20
-10.6378099935
 10
1.4376319176
 20
-10.6401551688
 10
1.4366873927
 20
-10.6425131223
 10
1.4357821067
 20
-10.6448838758
 10
1.4349158992
 20
-10.6472674514
 10
1.4340886099
 20
-10.6496638712
 10
1.4333000783
 20
-10.652073157
 10
1.4325501441
 20
-10.654495331
 10
1.4318386468
 20
-10.6569304151
 10
1.431165426
 20
-10.6593784314
 10
1.4305303213
 20
-10.6618394018
 10
1.4299333105
 20
-10.6643133482
 10
1.4293749231
 20
-10.6668002921
 10
1.428855827
 20
-10.6693002547
 10
1.42837669
 20
-10.6718132574
 10
1.4279381797
 20
-10.6743393215
 10
1.4275409641
 20
-10.6768784683
 10
1.4271857109
 20
-10.679430719
 10
1.4268730878
 20
-10.681996095
 10
1.4266037626
 20
-10.6845746176
 10
1.4263784031
 20
-10.6871663081
 10
1.4261976771
 20
-10.6897711878
 10
1.4260622523
 20
-10.692389278
  0
LWPOLYLINE
  5
34A
100
AcDbEntity
  8
0
100
AcDbPolyline
 62
253
  6
CONTINUOUS
 90
30
 70
0
 10
-1.974953945
 20
11.4742082581
 10
-1.9767771658
 20
11.47637007
 10
-1.9785646698
 20
11.4785161338
 10
-1.9803138162
 20
11.4806487271
 10
-1.9820219642
 20
11.4827701274
 10
-1.9836867973
 20
11.4848830469
 10
-1.9853072954
 20
11.4869919359
 10
-1.9868827627
 20
11.4891016792
 10
-1.9884125034
 20
11.4912171616
 10
-1.9898951848
 20
11.4933421957
 10
-1.9913269265
 20
11.4954763053
 10
-1.9927032115
 20
11.4976179416
 10
-1.9940195224
 20
11.4997655562
 10
-1.9950266384
 20
11.5014870835
 10
-1.9959918714
 20
11.5032116842
 10
-1.9969146131
 20
11.504939597
 10
-1.9977942547
 20
11.5066710602
 10
-1.9986301879
 20
11.5084063124
 10
-1.9994217286
 20
11.5101455766
 10
-2.0001678914
 20
11.5118890132
 10
-2.0008676152
 20
11.5136367674
 10
-2.0015198393
 20
11.5153889841
 10
-2.0021235027
 20
11.5171458083
 10
-2.0025237026
 20
11.5184036773
 10
-2.0028941819
 20
11.5196645835
 10
-2.0032305369
 20
11.5209291395
 10
-2.0035283643
 20
11.5221979576
 10
-2.0037832605
 20
11.5234716505
 10
-2.003990822
 20
11.5247508306
 10
-2.0041466452
 20
11.5260361103
  0
LWPOLYLINE
  5
34B
100
AcDbEntity
  8
0
100
AcDbPolyline
 62
253
  6
CONTINUOUS
 90
5
 70
0
 10
-1.9595908118
 20
11.4559391659
 10
-1.9618203455
 20
11.458694418
 10
-1.9640504334
 20
11.461391626
 10
-1.9662737829
 20
11.4640365401
 10
-1.974953945
 20
11.4742082581
  0
LWPOLYLINE
  5
34C
100
AcDbEntity
  8
0
100
AcDbPolyline
 62
253
  6
CONTINUOUS
 90
23
 70
0
 10
1.9618258633
 20
-11.4558709445
 10
1.9664418349
 20
-11.4451223288
 10
1.9708804755
 20
-11.4343396758
 10
1.9751430607
 20
-11.4235234483
 10
1.979230866
 20
-11.4126741089
 10
1.9831451671
 20
-11.4017921202
 10
1.9868872397
 20
-11.3908779449
 10
1.9904583592
 20
-11.3799320456
 10
1.9938598015
 20
-11.3689548851
 10
1.997092842
 20
-11.3579469259
 10
2.0001587564
 20
-11.3469086308
 10
2.0030588204
 20
-11.3358404625
 10
2.0057939082
 20
-11.3247427709
 10
2.0083632895
 20
-11.3136154562
 10
2.0107658326
 20
-11.3024583056
 10
2.0130004057
 20
-11.2912711066
 10
2.0150658772
 20
-11.2800536466
 10
2.0169611153
 20
-11.268805713
 10
2.0186849884
 20
-11.2575270932
 10
2.0202363648
 20
-11.2462175746
 10
2.0216141127
 20
-11.2348769446
 10
2.0228171006
 20
-11.2235049906
 10
2.0238441966
 20
-11.2121015001
  0
LWPOLYLINE
  5
34D
100
AcDbEntity
  8
0
100
AcDbPolyline
 62
253
  6
CONTINUOUS
 90
24
 70
0
 10
1.4532261412
 20
-11.5037781667
 10
1.4518327085
 20
-11.5058663222
 10
1.4504796978
 20
-11.5079779322
 10
1.4491665456
 20
-11.5101125739
 10
1.447892688
 20
-11.5122698244
 10
1.4466575613
 20
-11.5144492608
 10
1.445460602
 20
-11.5166504602
 10
1.4443012463
 20
-11.5188729998
 10
1.4431789306
 20
-11.5211164567
 10
1.4420930911
 20
-11.523380408
 10
1.4410431641
 20
-11.5256644309
 10
1.440028586
 20
-11.5279681024
 10
1.4390487932
 20
-11.5302909997
 10
1.438019046
 20
-11.5328466097
 10
1.4370299402
 20
-11.5354247091
 10
1.4360813906
 20
-11.5380254103
 10
1.4351733122
 20
-11.5406488256
 10
1.4343056198
 20
-11.5432950674
 10
1.4334782285
 20
-11.545964248
 10
1.4326910529
 20
-11.5486564799
 10
1.4319440082
 20
-11.5513718753
 10
1.4312370092
 20
-11.5541105467
 10
1.4305699708
 20
-11.5568726063
 10
1.4299428079
 20
-11.5596581667
  0
LWPOLYLINE
  5
34E
100
AcDbEntity
  8
0
100
AcDbPolyline
 62
253
  6
CONTINUOUS
 90
21
 70
0
 10
1.4736351911
 20
-10.5837648049
 10
1.4713605971
 20
-10.5865962956
 10
1.469095643
 20
-10.589451984
 10
1.466842952
 20
-10.5923355156
 10
1.4646051467
 20
-10.5952505361
 10
1.4627011858
 20
-10.5977766054
 10
1.460813671
 20
-10.600328709
 10
1.4589461848
 20
-10.6029070681
 10
1.4571023096
 20
-10.6055119039
 10
1.455285628
 20
-10.6081434376
 10
1.4534997225
 20
-10.6108018904
 10
1.4517481757
 20
-10.6134874834
 10
1.4504118433
 20
-10.6155953104
 10
1.4490997553
 20
-10.6177205568
 10
1.4478132038
 20
-10.6198640901
 10
1.4465534812
 20
-10.6220267776
 10
1.4453218797
 20
-10.6242094868
 10
1.4441196915
 20
-10.6264130851
 10
1.4429482091
 20
-10.62863844
 10
1.4418087245
 20
-10.6308864188
 10
1.4407025301
 20
-10.6331578891
  0
LWPOLYLINE
  5
34F
100
AcDbEntity
  8
0
100
AcDbPolyline
 62
253
  6
CONTINUOUS
 90
25
 70
0
 10
-0.6545152472
 20
-10.7244920558
 10
-0.6561604437
 20
-10.7265057778
 10
-0.6577751317
 20
-10.728542814
 10
-0.6593594564
 20
-10.730603683
 10
-0.6609135633
 20
-10.7326889032
 10
-0.6624375977
 20
-10.7347989932
 10
-0.6639317049
 20
-10.7369344716
 10
-0.6653960303
 20
-10.7390958569
 10
-0.6668307191
 20
-10.7412836677
 10
-0.6682357161
 20
-10.7434981631
 10
-0.6696101623
 20
-10.7457385644
 10
-0.6709529984
 20
-10.7480038334
 10
-0.6722631647
 20
-10.7502929321
 10
-0.6735396018
 20
-10.7526048223
 10
-0.6747812501
 20
-10.7549384658
 10
-0.6759870502
 20
-10.7572928246
 10
-0.6771559424
 20
-10.7596668604
 10
-0.6782869647
 20
-10.7620598113
 10
-0.6793795439
 20
-10.7644720192
 10
-0.6804332046
 20
-10.7669041023
 10
-0.6814474709
 20
-10.7693566786
 10
-0.6824218673
 20
-10.7718303662
 10
-0.6833559182
 20
-10.7743257832
 10
-0.6842491478
 20
-10.7768435478
 10
-0.6851010805
 20
-10.779384278
  0
LINE
  5
350
100
AcDbEntity
  8
0
100
AcDbLine
 62
253
  6
CONTINUOUS
 10
1.4782028079
 20
-10.5781598336
 11
1.4736351911
 21
-10.5837648049
  0
LWPOLYLINE
  5
351
100
AcDbEntity
  8
0
100
AcDbPolyline
 62
253
  6
CONTINUOUS
 90
87
 70
0
 10
1.5027208634
 20
-10.5979506669
 10
1.4984295884
 20
-10.6031310877
 10
1.4942509426
 20
-10.6082485292
 10
1.4860551417
 20
-10.6187657432
 10
1.4821423375
 20
-10.6241718804
 10
1.4784084953
 20
-10.6296957635
 10
1.4748830545
 20
-10.6353718769
 10
1.4716031169
 20
-10.6412497416
 10
1.4686062197
 20
-10.64737233
 10
1.4659239793
 20
-10.6537413808
 10
1.4635823731
 20
-10.6603399577
 10
1.461590742
 20
-10.6671176586
 10
1.4599524846
 20
-10.6740140734
 10
1.458663865
 20
-10.6809622266
 10
1.4577175186
 20
-10.6879101766
 10
1.4570986986
 20
-10.6948726824
 10
1.4567617452
 20
-10.7042137149
 10
1.4569822296
 20
-10.7135953312
 10
1.4577648175
 20
-10.7229763554
 10
1.4587198441
 20
-10.7299795147
 10
1.4599740372
 20
-10.7368971053
 10
1.461509682
 20
-10.7436773648
 10
1.46331677
 20
-10.7503097779
 10
1.4653923422
 20
-10.7567964978
 10
1.4677539304
 20
-10.7631491047
 10
1.470421217
 20
-10.7693734451
 10
1.4734019961
 20
-10.7754430035
 10
1.4767020966
 20
-10.7813223401
 10
1.4803313744
 20
-10.7869726786
 10
1.4842860347
 20
-10.7923627119
 10
1.4885036518
 20
-10.7974943458
 10
1.4929113504
 20
-10.8023888074
 10
1.4974530888
 20
-10.8071113964
 10
1.5068126303
 20
-10.8162809594
 10
1.5165955827
 20
-10.8252735969
 10
1.5269233769
 20
-10.8342207636
 10
1.5376723174
 20
-10.8431967791
 10
1.5485770899
 20
-10.8524215002
 10
1.5558582962
 20
-10.8588812387
 10
1.563138113
 20
-10.865668833
 10
1.5704175929
 20
-10.8728349078
 10
1.5776899322
 20
-10.8804176568
 10
1.5849169008
 20
-10.8884055502
 10
1.5920524119
 20
-10.8967746269
 10
1.5990563907
 20
-10.9055068294
 10
1.6059128096
 20
-10.9146077126
 10
1.6126116528
 20
-10.9240887349
 10
1.6204237228
 20
-10.935975296
 10
1.6279505141
 20
-10.9483940632
 10
1.6351480799
 20
-10.9613133424
 10
1.6419724729
 20
-10.9747014394
 10
1.6483797463
 20
-10.9885266601
 10
1.6543288725
 20
-11.0027586674
 10
1.6597905031
 20
-11.017372552
 10
1.6647382089
 20
-11.0323447614
 10
1.669145561
 20
-11.0476517432
 10
1.6729861304
 20
-11.063269945
 10
1.6762349832
 20
-11.0791672593
 10
1.6788731658
 20
-11.0952773582
 10
1.6808832194
 20
-11.1115253586
 10
1.6822476854
 20
-11.1278363776
 10
1.6829491052
 20
-11.1441355321
 10
1.6829790486
 20
-11.1603498809
 10
1.6823651994
 20
-11.1764142498
 10
1.6811442699
 20
-11.1922654063
 10
1.6793529723
 20
-11.2078401182
 10
1.6770280191
 20
-11.2230751529
 10
1.6742048114
 20
-11.2379177986
 10
1.6709135068
 20
-11.2523574259
 10
1.6671829517
 20
-11.2663939261
 10
1.6630419926
 20
-11.2800271904
 10
1.6585194759
 20
-11.29325711
 10
1.6523698694
 20
-11.309222327
 10
1.645702445
 20
-11.3245280557
 10
1.6385537276
 20
-11.3391463823
 10
1.6309731698
 20
-11.3530541054
 10
1.623007252
 20
-11.3662354815
 10
1.6146776386
 20
-11.378699884
 10
1.6060150586
 20
-11.3904657544
 10
1.5971113168
 20
-11.4015626888
 10
1.588063117
 20
-11.4120337584
 10
1.5789256861
 20
-11.4219647799
 10
1.5697456704
 20
-11.4314430084
 10
1.5605768711
 20
-11.4405187083
 10
1.5514706296
 20
-11.4492351267
 10
1.5424612925
 20
-11.4576444334
 10
1.5335723841
 20
-11.4657990537
  0
LINE
  5
352
100
AcDbEntity
  8
0
100
AcDbLine
 62
253
  6
CONTINUOUS
 10
0.5040069748
 20
-10.1847067781
 11
0.0668447527
 21
-10.6219748336
  0
LINE
  5
353
100
AcDbEntity
  8
0
100
AcDbLine
 62
253
  6
CONTINUOUS
 10
0.4820289192
 20
-10.162658167
 11
0.0453253082
 21
-10.5992559447
  0
LINE
  5
354
100
AcDbEntity
  8
0
100
AcDbLine
 62
253
  6
CONTINUOUS
 10
0.0453253082
 20
-10.5992559447
 11
0.0401274879
 21
-10.6041093338
  0
LWPOLYLINE
  5
355
100
AcDbEntity
  8
0
100
AcDbPolyline
 62
253
  6
CONTINUOUS
 90
9
 70
0
 10
0.0401274879
 20
-10.6041093338
 10
0.0375537309
 20
-10.6064843511
 10
0.0364516374
 20
-10.6074874374
 10
0.0353489744
 20
-10.608480342
 10
0.0342450554
 20
-10.6094621815
 10
0.0331391938
 20
-10.6104320727
 10
0.0320307027
 20
-10.6113891321
 10
0.0309188957
 20
-10.6123324764
 10
0.029803086
 20
-10.6132612225
  0
LINE
  5
356
100
AcDbEntity
  8
0
100
AcDbLine
 62
253
  6
CONTINUOUS
 10
0.0668447527
 20
-10.6219748336
 11
0.0496291971
 21
-10.637461778
  0
LINE
  5
357
100
AcDbEntity
  8
0
100
AcDbLine
 62
253
  6
CONTINUOUS
 10
-1.3311172009
 20
11.3635466659
 11
-1.3871735898
 21
11.404010277
  0
LINE
  5
358
100
AcDbEntity
  8
0
100
AcDbLine
 62
253
  6
CONTINUOUS
 10
-0.8900391454
 20
10.9317113883
 11
-0.9269749788
 21
10.9594397216
  0
LINE
  5
359
100
AcDbEntity
  8
0
100
AcDbLine
 62
253
  6
CONTINUOUS
 10
-0.9269749788
 20
10.9594397216
 11
-1.3311172009
 21
11.3635466659
  0
LWPOLYLINE
  5
35A
100
AcDbEntity
  8
0
100
AcDbPolyline
 62
253
  6
CONTINUOUS
 90
53
 70
0
 10
1.0845991874
 20
10.1225802774
 10
1.0802180572
 20
10.1274367686
 10
1.0760290026
 20
10.1323907854
 10
1.0720185505
 20
10.1374522935
 10
1.0681732279
 20
10.1426312585
 10
1.0644795617
 20
10.1479376458
 10
1.0609269821
 20
10.1533795867
 10
1.0575165313
 20
10.1589578749
 10
1.0542521547
 20
10.1646714695
 10
1.0511377979
 20
10.1705193298
 10
1.0481774061
 20
10.1765004149
 10
1.0453754765
 20
10.1826125937
 10
1.0427387127
 20
10.188849373
 10
1.0402743701
 20
10.1952031692
 10
1.0379897039
 20
10.2016663988
 10
1.0358919696
 20
10.2082314782
 10
1.0342920474
 20
10.2137724652
 10
1.0328321378
 20
10.2193610671
 10
1.0315174012
 20
10.2249794362
 10
1.0303520634
 20
10.2306147464
 10
1.0293366115
 20
10.2362742574
 10
1.0284705979
 20
10.2419702509
 10
1.0276292847
 20
10.2488648418
 10
1.0270093925
 20
10.2558145733
 10
1.0266177958
 20
10.2628043663
 10
1.0264613687
 20
10.2698191415
 10
1.0265469857
 20
10.2768438195
 10
1.0268792543
 20
10.2838635773
 10
1.0274537148
 20
10.2908646156
 10
1.0282636406
 20
10.2978333915
 10
1.0293023053
 20
10.3047563619
 10
1.0305629823
 20
10.3116199838
 10
1.0317792315
 20
10.317287892
 10
1.0331467626
 20
10.3229173223
 10
1.0346673533
 20
10.3285204156
 10
1.0363413554
 20
10.3341039105
 10
1.0381634165
 20
10.3396529348
 10
1.0401267579
 20
10.3451472135
 10
1.0426602027
 20
10.3516439845
 10
1.0453785527
 20
10.3580243768
 10
1.0482730308
 20
10.3642800409
 10
1.0513348596
 20
10.3704026274
 10
1.0545552619
 20
10.3763837869
 10
1.0579262906
 20
10.3822165964
 10
1.0614433199
 20
10.3878998389
 10
1.0651025543
 20
10.3934337234
 10
1.068900198
 20
10.3988184595
 10
1.0728324555
 20
10.4040542563
 10
1.0768985639
 20
10.4091428047
 10
1.0811098908
 20
10.4140917215
 10
1.0854808368
 20
10.4189101052
 10
1.0900258022
 20
10.4236070539
 10
1.0947591874
 20
10.4281916662
  0
LWPOLYLINE
  5
35B
100
AcDbEntity
  8
0
100
AcDbPolyline
 62
253
  6
CONTINUOUS
 90
53
 70
0
 10
0.5147925209
 20
10.6971494439
 10
0.5105561268
 20
10.7020751618
 10
0.5065114934
 20
10.7070940389
 10
0.5026455269
 20
10.7122164339
 10
0.4989451332
 20
10.7174527056
 10
0.4953972184
 20
10.7228132125
 10
0.4919915384
 20
10.7283063852
 10
0.4887292487
 20
10.7339329422
 10
0.4856143546
 20
10.7396916738
 10
0.4826508616
 20
10.7455813703
 10
0.479842775
 20
10.751600822
 10
0.4771946024
 20
10.7577477678
 10
0.4747128607
 20
10.7640157406
 10
0.4724045687
 20
10.7703972217
 10
0.4702767455
 20
10.7768846925
 10
0.46833641
 20
10.7834706344
 10
0.4668678632
 20
10.7890265324
 10
0.4655391467
 20
10.7946281392
 10
0.4643550166
 20
10.8002580022
 10
0.463319437
 20
10.8059036245
 10
0.4624332027
 20
10.8115723327
 10
0.4616963165
 20
10.817276409
 10
0.461010335
 20
10.8241791689
 10
0.4605462554
 20
10.8311351037
 10
0.4603109146
 20
10.8381287715
 10
0.4603111492
 20
10.8451447305
 10
0.4605537963
 20
10.852167539
 10
0.4610434184
 20
10.8591821344
 10
0.461775481
 20
10.8661749707
 10
0.4627431756
 20
10.8731328811
 10
0.4639396936
 20
10.880042699
 10
0.4653582264
 20
10.8868912576
 10
0.4667060294
 20
10.8925453703
 10
0.4682054
 20
10.8981598291
 10
0.4698584569
 20
10.9037466647
 10
0.4716657566
 20
10.9093125223
 10
0.4736216048
 20
10.9148425032
 10
0.4757187451
 20
10.9203163231
 10
0.4784121942
 20
10.9267866853
 10
0.4812896718
 20
10.9331387424
 10
0.4843421957
 20
10.9393642705
 10
0.4875607834
 20
10.9454550455
 10
0.4909364527
 20
10.9514028437
 10
0.4944610863
 20
10.9572008502
 10
0.4981300278
 20
10.9628478863
 10
0.5019394858
 20
10.9683441822
 10
0.5058856691
 20
10.9736899684
 10
0.5099647862
 20
10.9788854751
 10
0.5141761348
 20
10.9839323665
 10
0.5185313681
 20
10.9888380423
 10
0.5230452284
 20
10.9936113359
 10
0.5277324578
 20
10.9982610808
 10
0.5326077986
 20
11.0027961105
  0
LWPOLYLINE
  5
35C
100
AcDbEntity
  8
0
100
AcDbPolyline
 62
253
  6
CONTINUOUS
 90
39
 70
0
 10
-0.074169979
 20
11.2934144437
 10
-0.0712014487
 20
11.2896076447
 10
-0.0681603567
 20
11.2859112085
 10
-0.0650457594
 20
11.2823184769
 10
-0.0618567132
 20
11.2788227916
 10
-0.0585922745
 20
11.2754174945
 10
-0.0552514998
 20
11.2720959272
 10
-0.0518334455
 20
11.2688514314
 10
-0.0477472413
 20
11.2651565693
 10
-0.0435558136
 20
11.2615581091
 10
-0.0392604094
 20
11.2580566123
 10
-0.0348622755
 20
11.2546526406
 10
-0.0303626588
 20
11.2513467553
 10
-0.0257628064
 20
11.2481395182
 10
-0.0210650496
 20
11.2450321402
 10
-0.0162760573
 20
11.2420284307
 10
-0.0114035832
 20
11.2391328483
 10
-0.0064553806
 20
11.2363498518
 10
-0.001439203
 20
11.2336838999
 10
0.003637196
 20
11.2311394516
 10
0.0087658475
 20
11.2287206055
 10
0.0139379205
 20
11.2264300211
 10
0.0191443683
 20
11.2242699979
 10
0.0243761443
 20
11.2222428352
 10
0.0296242021
 20
11.2203508326
 10
0.034879495
 20
11.2185962895
 10
0.0401343195
 20
11.2169809718
 10
0.045386344
 20
11.2155045118
 10
0.0506345802
 20
11.2141660078
 10
0.0558780397
 20
11.2129645584
 10
0.0611157338
 20
11.2118992623
 10
0.0663466743
 20
11.2109692179
 10
0.0708253205
 20
11.2102794278
 10
0.0753043013
 20
11.2096903248
 10
0.0797896395
 20
11.2092038897
 10
0.0842873578
 20
11.2088221033
 10
0.088803479
 20
11.2085469463
 10
0.0933440258
 20
11.2083803996
 10
0.097915021
 20
11.2083244438
  0
LWPOLYLINE
  5
35D
100
AcDbEntity
  8
0
100
AcDbPolyline
 62
253
  6
CONTINUOUS
 90
8
 70
0
 10
9.7121347186
 20
-0.0519471235
 10
9.708495563
 20
-0.0188479414
 10
9.7045645866
 20
0.0097950152
 10
9.7009147192
 20
0.0337178488
 10
9.6966421424
 20
0.0527575627
 10
9.6917491893
 20
0.0666567348
 10
9.6872110568
 20
0.0752029596
 10
9.6835153757
 20
0.0783450816
  0
LWPOLYLINE
  5
35E
100
AcDbEntity
  8
0
100
AcDbPolyline
 62
253
  6
CONTINUOUS
 90
16
 70
0
 10
10.1833440382
 20
-0.4216358799
 10
10.1806585016
 20
-0.3699899483
 10
10.1726183329
 20
-0.3187259615
 10
10.1592567223
 20
-0.2684044523
 10
10.1406428014
 20
-0.2195322109
 10
10.1169411787
 20
-0.1727197671
 10
10.0884655877
 20
-0.128647625
 10
10.055570752
 20
-0.0878475722
 10
10.0185869209
 20
-0.0507143355
 10
9.9779096739
 20
-0.0176485255
 10
9.9339755709
 20
0.0109873968
 10
9.8872723538
 20
0.0348684928
 10
9.8383256409
 20
0.053723463
 10
9.7876789399
 20
0.0673436938
 10
9.7358854678
 20
0.0755811386
 10
9.6835153758
 20
0.0783450816
  0
LWPOLYLINE
  5
35F
100
AcDbEntity
  8
0
100
AcDbPolyline
 62
253
  6
CONTINUOUS
 90
4
 70
0
 10
9.7224409097
 20
-0.2202080696
 10
9.7206399664
 20
-0.1734963393
 10
9.7179258102
 20
-0.1295254236
 10
9.7121347186
 20
-0.0519471235
  0
LINE
  5
360
100
AcDbEntity
  8
0
100
AcDbLine
 62
253
  6
CONTINUOUS
 10
10.2018397262
 20
-21.0424640196
 11
10.1999540392
 21
-20.9748633989
  0
LINE
  5
361
100
AcDbEntity
  8
0
100
AcDbLine
 62
253
  6
CONTINUOUS
 10
10.1999540392
 20
-20.9748633989
 11
10.198340217
 21
-20.8981166531
  0
LINE
  5
362
100
AcDbEntity
  8
0
100
AcDbLine
 62
253
  6
CONTINUOUS
 10
9.7219539808
 20
22.0806973934
 11
9.7200801655
 21
22.1779424613
  0
LINE
  5
363
100
AcDbEntity
  8
0
100
AcDbLine
 62
253
  6
CONTINUOUS
 10
10.198340217
 20
-20.8981166531
 11
10.1970219007
 21
-20.8133646512
  0
LINE
  5
364
100
AcDbEntity
  8
0
100
AcDbLine
 62
253
  6
CONTINUOUS
 10
9.7244534404
 20
21.9012260419
 11
9.7219539808
 21
22.0806973934
  0
LINE
  5
365
100
AcDbEntity
  8
0
100
AcDbLine
 62
253
  6
CONTINUOUS
 10
10.1970219007
 20
-20.8133646512
 11
10.1956634162
 21
-20.6753564918
  0
LINE
  5
366
100
AcDbEntity
  8
0
100
AcDbLine
 62
253
  6
CONTINUOUS
 10
9.7270268686
 20
21.6120388182
 11
9.7244534404
 21
21.9012260419
  0
LWPOLYLINE
  5
367
100
AcDbEntity
  8
0
100
AcDbPolyline
 62
253
  6
CONTINUOUS
 90
3
 70
0
 10
9.7261814924
 20
1.073509676
 10
9.7264063596
 20
1.0205210812
 10
9.725553788
 20
0.96927052
  0
LINE
  5
368
100
AcDbEntity
  8
0
100
AcDbLine
 62
253
  6
CONTINUOUS
 10
9.7287544112
 20
21.2028207849
 11
9.7270268686
 21
21.6120388182
  0
LINE
  5
369
100
AcDbEntity
  8
0
100
AcDbLine
 62
253
  6
CONTINUOUS
 10
10.1956634162
 20
-20.6753564918
 11
10.1950953128
 21
-20.5302720526
  0
LINE
  5
36A
100
AcDbEntity
  8
0
100
AcDbLine
 62
253
  6
CONTINUOUS
 10
10.1950953128
 20
-20.5302720526
 11
10.1926546345
 21
-18.2189073318
  0
LINE
  5
36B
100
AcDbEntity
  8
0
100
AcDbLine
 62
253
  6
CONTINUOUS
 10
9.7261812765
 20
1.0735096795
 11
9.7287544059
 21
21.2028207858
  0
LINE
  5
36C
100
AcDbEntity
  8
0
100
AcDbLine
 62
253
  6
CONTINUOUS
 10
9.728280991
 20
-20.7190562458
 11
9.7261812881
 21
-0.4224030766
  0
LWPOLYLINE
  5
36D
100
AcDbEntity
  8
0
100
AcDbPolyline
 62
253
  6
CONTINUOUS
 90
4
 70
0
 10
9.726181495
 20
-0.4224030787
 10
9.7264062335
 20
-0.369416481
 10
9.7255537432
 20
-0.3181675937
 10
9.7224409097
 20
-0.2202080696
  0
LINE
  5
36E
100
AcDbEntity
  8
0
100
AcDbLine
 62
253
  6
CONTINUOUS
 10
10.1950953132
 20
21.1813786632
 11
10.1956634168
 21
21.3264631023
  0
LINE
  5
36F
100
AcDbEntity
  8
0
100
AcDbLine
 62
253
  6
CONTINUOUS
 10
9.7258556308
 20
-21.1115226763
 11
9.728280991
 21
-20.7190562458
  0
LINE
  5
370
100
AcDbEntity
  8
0
100
AcDbLine
 62
253
  6
CONTINUOUS
 10
10.1956634168
 20
21.3264631023
 11
10.1970219014
 21
21.4644712617
  0
LINE
  5
371
100
AcDbEntity
  8
0
100
AcDbLine
 62
253
  6
CONTINUOUS
 10
9.7236654685
 20
-21.3140492602
 11
9.7258556308
 21
-21.1115226763
  0
LINE
  5
372
100
AcDbEntity
  8
0
100
AcDbLine
 62
253
  6
CONTINUOUS
 10
9.72195398
 20
-21.4295907829
 11
9.7236654685
 21
-21.3140492602
  0
LINE
  5
373
100
AcDbEntity
  8
0
100
AcDbLine
 62
253
  6
CONTINUOUS
 10
10.1970219014
 20
21.4644712617
 11
10.1983402177
 21
21.5492232636
  0
LINE
  5
374
100
AcDbEntity
  8
0
100
AcDbLine
 62
253
  6
CONTINUOUS
 10
9.7200801646
 20
-21.5268358517
 11
9.72195398
 21
-21.4295907829
  0
LINE
  5
375
100
AcDbEntity
  8
0
100
AcDbLine
 62
253
  6
CONTINUOUS
 10
10.1983402177
 20
21.5492232636
 11
10.1999540399
 21
21.6259700095
  0
LWPOLYLINE
  5
376
100
AcDbEntity
  8
0
100
AcDbPolyline
 62
253
  6
CONTINUOUS
 90
11
 70
0
 10
10.1999540399
 20
21.6259700095
 10
10.2018397269
 20
21.69357063
 10
10.2028697385
 20
21.7233189671
 10
10.2039572918
 20
21.7503937539
 10
10.2050862978
 20
21.7743940152
 10
10.2062579435
 20
21.7952750042
 10
10.207471042
 20
21.8130814677
 10
10.2087059446
 20
21.8275466705
 10
10.2099561017
 20
21.8385817009
 10
10.2112280628
 20
21.8462754707
 10
10.212521828
 20
21.8506279797
  0
LWPOLYLINE
  5
377
100
AcDbEntity
  8
0
100
AcDbPolyline
 62
253
  6
CONTINUOUS
 90
4
 70
0
 10
9.725553788
 20
0.96927052
 10
9.7224406565
 20
0.871308658
 10
9.7206396739
 20
0.8245962684
 10
9.7179253798
 20
0.7806251353
  0
LWPOLYLINE
  5
378
100
AcDbEntity
  8
0
100
AcDbPolyline
 62
253
  6
CONTINUOUS
 90
16
 70
0
 10
10.1833440357
 20
1.0727424893
 10
10.1806584941
 20
1.0210965097
 10
10.1726183127
 20
0.9698324872
 10
10.1592566854
 20
0.9195109552
 10
10.1406427479
 20
0.8706387051
 10
10.1169411119
 20
0.8238262645
 10
10.0884655115
 20
0.7797541326
 10
10.0555706733
 20
0.7389540967
 10
10.0185868473
 20
0.7018208806
 10
9.9779096075
 20
0.6687550883
 10
9.93397551
 20
0.6401191788
 10
9.887272299
 20
0.6162380931
 10
9.8383255948
 20
0.5973831321
 10
9.7876789061
 20
0.5837629088
 10
9.7358854487
 20
0.5755254689
 10
9.6835153732
 20
0.5727615277
  0
LWPOLYLINE
  5
379
100
AcDbEntity
  8
0
100
AcDbPolyline
 62
253
  6
CONTINUOUS
 90
9
 70
0
 10
9.7179253798
 20
0.7806251353
 10
9.7121341393
 20
0.7030477729
 10
9.7084949743
 20
0.6699495191
 10
9.7045639755
 20
0.6413076785
 10
9.70091417
 20
0.6173860253
 10
9.6966417134
 20
0.5983473838
 10
9.6917489073
 20
0.5844490726
 10
9.6872109306
 20
0.5759034286
 10
9.6835153737
 20
0.5727615277
  0
LWPOLYLINE
  5
37A
100
AcDbEntity
  8
0
100
AcDbPolyline
 62
253
  6
CONTINUOUS
 90
14
 70
0
 10
1.5862939189
 20
-11.3644662223
 10
1.5824523404
 20
-11.3695906437
 10
1.5785177684
 20
-11.3746232008
 10
1.5744950521
 20
-11.3795700678
 10
1.5703890406
 20
-11.3844374189
 10
1.566204583
 20
-11.3892314285
 10
1.5619465284
 20
-11.3939582708
 10
1.5567482414
 20
-11.399548823
 10
1.5514695294
 20
-11.4050520665
 10
1.5461289643
 20
-11.4104685224
 10
1.5407451181
 20
-11.415798712
 10
1.5353365625
 20
-11.4210431563
 10
1.5285595544
 20
-11.4274881833
 10
1.521750074
 20
-11.4338566069
  0
LWPOLYLINE
  5
37B
100
AcDbEntity
  8
0
100
AcDbPolyline
 62
253
  6
CONTINUOUS
 90
24
 70
0
 10
0.7618550512
 20
-12.1264592751
 10
0.7634531661
 20
-12.1244193774
 10
0.7650238059
 20
-12.1223566581
 10
0.7665669571
 20
-12.1202704127
 10
0.7680826061
 20
-12.1181599368
 10
0.7695707395
 20
-12.116024526
 10
0.7710313436
 20
-12.1138634761
 10
0.7724644049
 20
-12.1116760826
 10
0.773869696
 20
-12.1094619282
 10
0.7752461338
 20
-12.1072217433
 10
0.776592421
 20
-12.1049565455
 10
0.7779072606
 20
-12.1026673523
 10
0.7791893554
 20
-12.100355181
 10
0.7804374084
 20
-12.0980210493
 10
0.7816501225
 20
-12.0956659746
 10
0.7828262005
 20
-12.0932909744
 10
0.7839644528
 20
-12.0908967807
 10
0.7850641198
 20
-12.0884829832
 10
0.7861245493
 20
-12.0860488861
 10
0.7871450891
 20
-12.0835937937
 10
0.7881250871
 20
-12.0811170103
 10
0.789063891
 20
-12.0786178399
 10
0.7899608487
 20
-12.0760955869
 10
0.790815308
 20
-12.0735495555
  0
LWPOLYLINE
  5
37C
100
AcDbEntity
  8
0
100
AcDbPolyline
 62
253
  6
CONTINUOUS
 90
24
 70
0
 10
1.8231489189
 20
-11.665809
 10
1.8306083169
 20
-11.6579949593
 10
1.8379610146
 20
-11.6500213371
 10
1.8452069307
 20
-11.6418874369
 10
1.852345984
 20
-11.633592562
 10
1.8593780933
 20
-11.6251360158
 10
1.8663031772
 20
-11.6165171018
 10
1.8731211547
 20
-11.6077351232
 10
1.8798319443
 20
-11.5987893836
 10
1.886435465
 20
-11.5896791863
 10
1.8929316355
 20
-11.5804038347
 10
1.8993203745
 20
-11.5709626322
 10
1.9050818934
 20
-11.5621618523
 10
1.9107507283
 20
-11.5532202665
 10
1.9163245354
 20
-11.5441370151
 10
1.9218009713
 20
-11.5349112384
 10
1.9271776924
 20
-11.5255420766
 10
1.932452355
 20
-11.5160286699
 10
1.9376226156
 20
-11.5063701588
 10
1.9426861306
 20
-11.4965656833
 10
1.9476405565
 20
-11.4866143839
 10
1.9524835496
 20
-11.4765154008
 10
1.9572127664
 20
-11.4662678742
 10
1.9618258633
 20
-11.4558709445
  0
LINE
  5
37D
100
AcDbEntity
  8
0
100
AcDbLine
 62
253
  6
CONTINUOUS
 10
1.487233919
 20
-10.568881778
 11
1.4782028079
 21
-10.5781598336
  0
LWPOLYLINE
  5
37E
100
AcDbEntity
  8
0
100
AcDbPolyline
 62
253
  6
CONTINUOUS
 90
14
 70
0
 10
1.4941113587
 20
-11.4592718502
 10
1.4906216923
 20
-11.4625132765
 10
1.4871245666
 20
-11.4657994771
 10
1.4836208431
 20
-11.4691464507
 10
1.4801113834
 20
-11.4725701961
 10
1.4765995907
 20
-11.4760849408
 10
1.4730990363
 20
-11.4796978272
 10
1.4696258333
 20
-11.4834142267
 10
1.4661960945
 20
-11.4872395104
 10
1.4634943626
 20
-11.4903820736
 10
1.4608386308
 20
-11.4936024906
 10
1.4582367695
 20
-11.4969054916
 10
1.4556966495
 20
-11.5002958069
 10
1.4532261412
 20
-11.5037781667
  0
LWPOLYLINE
  5
37F
100
AcDbEntity
  8
0
100
AcDbPolyline
 62
253
  6
CONTINUOUS
 90
6
 70
0
 10
1.7987664796
 20
-11.6892122739
 10
1.8037037324
 20
-11.6846456983
 10
1.8086208365
 20
-11.6800307104
 10
1.8135075582
 20
-11.6753586828
 10
1.8183536636
 20
-11.6706209884
 10
1.8231489189
 20
-11.665809
  0
LINE
  5
380
100
AcDbEntity
  8
0
100
AcDbLine
 62
253
  6
CONTINUOUS
 10
1.521750074
 20
-11.4338566069
 11
1.4941113587
 21
-11.4592718502
  0
LINE
  5
381
100
AcDbEntity
  8
0
100
AcDbLine
 62
253
  6
CONTINUOUS
 10
1.761679332
 20
-11.7229753995
 11
1.7987664796
 21
-11.6892122739
  0
LWPOLYLINE
  5
382
100
AcDbEntity
  8
0
100
AcDbPolyline
 62
253
  6
CONTINUOUS
 90
30
 70
0
 10
1.5335723841
 20
-11.4657990537
 10
1.5161637357
 20
-11.481526052
 10
1.5077784708
 20
-11.4892177113
 10
1.4997790922
 20
-11.4969123596
 10
1.4922590851
 20
-11.5047724172
 10
1.4875578982
 20
-11.5101837894
 10
1.4831593916
 20
-11.5157462984
 10
1.4791161166
 20
-11.5214577623
 10
1.4754687568
 20
-11.5273092603
 10
1.4722105264
 20
-11.5332649169
 10
1.4693227718
 20
-11.5392821175
 10
1.4656454035
 20
-11.5483459674
 10
1.4626992347
 20
-11.5574038244
 10
1.4604249867
 20
-11.5663957666
 10
1.4587678713
 20
-11.5752165234
 10
1.457673166
 20
-11.5837743295
 10
1.4570819227
 20
-11.5920767907
 10
1.4569341369
 20
-11.6001563555
 10
1.4571698042
 20
-11.6080454723
 10
1.4579992172
 20
-11.6183044501
 10
1.4593959306
 20
-11.6282413998
 10
1.461352225
 20
-11.6378151815
 10
1.4638644598
 20
-11.6469876617
 10
1.4669453089
 20
-11.6557327335
 10
1.4706115248
 20
-11.6640272965
 10
1.4748570348
 20
-11.6718675014
 10
1.479584466
 20
-11.679326503
 10
1.4846736203
 20
-11.6864967072
 10
1.4927374104
 20
-11.6969071514
 10
1.5010275301
 20
-11.7071545555
  0
LWPOLYLINE
  5
383
100
AcDbEntity
  8
0
100
AcDbPolyline
 62
253
  6
CONTINUOUS
 90
65
 70
0
 10
1.7081786411
 20
-11.726769
 10
1.7327787403
 20
-11.7061094751
 10
1.7570530387
 20
-11.6852219918
 10
1.7729142784
 20
-11.6709760198
 10
1.7883953488
 20
-11.6563772826
 10
1.8033825581
 20
-11.6413572476
 10
1.8177924965
 20
-11.6258509819
 10
1.8316628845
 20
-11.6098079518
 10
1.8450617244
 20
-11.5931812233
 10
1.8548401606
 20
-11.5802957382
 10
1.8644074023
 20
-11.5670108039
 10
1.8737792492
 20
-11.5532817019
 10
1.8829715012
 20
-11.5390637136
 10
1.891997229
 20
-11.5243108799
 10
1.9008585876
 20
-11.508972279
 10
1.9095550031
 20
-11.4929957484
 10
1.9180859015
 20
-11.4763291257
 10
1.9247880397
 20
-11.4624640712
 10
1.9313654504
 20
-11.4480982455
 10
1.9377997043
 20
-11.4332059202
 10
1.9440723723
 20
-11.4177613671
 10
1.9501650251
 20
-11.4017388578
 10
1.9560547177
 20
-11.3851201505
 10
1.9617004413
 20
-11.3679169499
 10
1.9670566714
 20
-11.350148447
 10
1.9720778836
 20
-11.331833833
 10
1.9767185532
 20
-11.3129922991
 10
1.9809333227
 20
-11.2936468247
 10
1.9846775013
 20
-11.2738355432
 10
1.9879065653
 20
-11.2536003761
 10
1.9905759908
 20
-11.2329832451
 10
1.9926412541
 20
-11.2120260719
 10
1.9940632994
 20
-11.1907672648
 10
1.9948249426
 20
-11.169231179
 10
1.994914468
 20
-11.1474386564
 10
1.9943201597
 20
-11.1254105391
 10
1.9930303018
 20
-11.1031676688
 10
1.9910328751
 20
-11.0807287597
 10
1.9883146473
 20
-11.0581040146
 10
1.984862083
 20
-11.0353015085
 10
1.9806616467
 20
-11.0123293164
 10
1.9756998028
 20
-10.9891955132
 10
1.9709704238
 20
-10.9698033098
 10
1.9656763778
 20
-10.9503307158
 10
1.959791153
 20
-10.9308039631
 10
1.9532882373
 20
-10.9112492833
 10
1.9461411187
 20
-10.8916929083
 10
1.9383232853
 20
-10.8721610697
 10
1.929811356
 20
-10.8526871106
 10
1.9205944734
 20
-10.8333328198
 10
1.910664911
 20
-10.814167097
 10
1.9000150646
 20
-10.795257802
 10
1.8886378199
 20
-10.7766686329
 10
1.8765261852
 20
-10.7584622475
 10
1.8636842307
 20
-10.7406884999
 10
1.8501602764
 20
-10.7233460291
 10
1.8360137045
 20
-10.7064206703
 10
1.8213148305
 20
-10.6899017141
 10
1.8061777028
 20
-10.6737922734
 10
1.790727303
 20
-10.6580989165
 10
1.7719201841
 20
-10.6398016619
 10
1.7528833288
 20
-10.6219821457
 10
1.733658139
 20
-10.6045094874
 10
1.7142860166
 20
-10.5872528065
 10
1.6948083634
 20
-10.5700812225
  0
LINE
  5
384
100
AcDbEntity
  8
0
100
AcDbLine
 62
253
  6
CONTINUOUS
 10
1.4923232351
 20
-10.5646848995
 11
1.487233919
 21
-10.568881778
  0
LWPOLYLINE
  5
385
100
AcDbEntity
  8
0
100
AcDbPolyline
 62
253
  6
CONTINUOUS
 90
31
 70
0
 10
0.0496291971
 20
-10.637461778
 10
0.0460017532
 20
-10.6403510283
 10
0.0423305406
 20
-10.6431514268
 10
0.0386142318
 20
-10.6458633545
 10
0.0348514989
 20
-10.6484871922
 10
0.0310410141
 20
-10.651023321
 10
0.0271814499
 20
-10.6534721218
 10
0.0232714784
 20
-10.6558339754
 10
0.0193097719
 20
-10.6581092629
 10
0.0157441212
 20
-10.6600588912
 10
0.01213784
 20
-10.6619377825
 10
0.008492224
 20
-10.6637432968
 10
0.0048085688
 20
-10.6654727942
 10
0.0010881701
 20
-10.6671236346
 10
-0.0026676764
 20
-10.668693178
 10
-0.0064576752
 20
-10.6701787844
 10
-0.0102805305
 20
-10.6715778139
 10
-0.0141349468
 20
-10.6728876264
 10
-0.0180194888
 20
-10.6741068139
 10
-0.021932163
 20
-10.675238896
 10
-0.0258708364
 20
-10.6762886243
 10
-0.029833376
 20
-10.6772607503
 10
-0.0338176486
 20
-10.6781600257
 10
-0.0378215212
 20
-10.6789912021
 10
-0.0418428607
 20
-10.679759031
 10
-0.0458795342
 20
-10.6804682639
 10
-0.0499294085
 20
-10.6811236526
 10
-0.0560255808
 20
-10.6820165959
 10
-0.0621471076
 20
-10.6828176635
 10
-0.0682944412
 20
-10.6835454381
 10
-0.0744680335
 20
-10.6842185028
  0
LWPOLYLINE
  5
386
100
AcDbEntity
  8
0
100
AcDbPolyline
 62
253
  6
CONTINUOUS
 90
25
 70
0
 10
0.029803086
 20
-10.6132612225
 10
0.027550725
 20
-10.615045163
 10
0.0252779799
 20
-10.6167934859
 10
0.0229842695
 20
-10.6185058603
 10
0.0206690123
 20
-10.6201819555
 10
0.0183316271
 20
-10.6218214408
 10
0.0159715326
 20
-10.6234239853
 10
0.0135881473
 20
-10.6249892584
 10
0.01118089
 20
-10.6265169293
 10
0.0087491794
 20
-10.6280066672
 10
0.006292434
 20
-10.6294581414
 10
0.0038100727
 20
-10.6308710211
 10
0.0016891983
 20
-10.632036019
 10
-0.000450643
 20
-10.6331721916
 10
-0.0026096611
 20
-10.6342785831
 10
-0.0047880664
 20
-10.6353542379
 10
-0.0069860688
 20
-10.6363982002
 10
-0.0092038786
 20
-10.6374095142
 10
-0.0114417058
 20
-10.6383872242
 10
-0.0136997606
 20
-10.6393303744
 10
-0.0159782531
 20
-10.6402380091
 10
-0.0182773934
 20
-10.6411091726
 10
-0.0205973918
 20
-10.641942909
 10
-0.0229384582
 20
-10.6427382627
 10
-0.0253008029
 20
-10.643494278
  0
LWPOLYLINE
  5
387
100
AcDbEntity
  8
0
100
AcDbPolyline
 62
253
  6
CONTINUOUS
 90
23
 70
0
 10
-0.6080191361
 20
-10.6825820558
 10
-0.6104968456
 20
-10.6841956635
 10
-0.6129501342
 20
-10.6858460912
 10
-0.6153793269
 20
-10.6875339677
 10
-0.6177847484
 20
-10.6892599219
 10
-0.6201667237
 20
-10.6910245825
 10
-0.6225255775
 20
-10.6928285782
 10
-0.6248616348
 20
-10.6946725378
 10
-0.6271748849
 20
-10.6965568567
 10
-0.6294639757
 20
-10.6984809963
 10
-0.6317272195
 20
-10.7004441847
 10
-0.6339629286
 20
-10.7024456497
 10
-0.6361694154
 20
-10.7044846194
 10
-0.6383449924
 20
-10.7065603217
 10
-0.6404879717
 20
-10.7086719847
 10
-0.6423351698
 20
-10.7105487702
 10
-0.6441559359
 20
-10.7124531092
 10
-0.6459500876
 20
-10.7143856141
 10
-0.6477174425
 20
-10.7163468971
 10
-0.6494578184
 20
-10.7183375705
 10
-0.6511710327
 20
-10.7203582466
 10
-0.6528569031
 20
-10.7224095376
 10
-0.6545152472
 20
-10.7244920558
  0
LWPOLYLINE
  5
388
100
AcDbEntity
  8
0
100
AcDbPolyline
 62
253
  6
CONTINUOUS
 90
20
 70
0
 10
1.536763919
 20
-10.5337803892
 10
1.5346977356
 20
-10.5348459877
 10
1.5326351486
 20
-10.5359538646
 10
1.5305758391
 20
-10.5371030088
 10
1.5285194888
 20
-10.5382924092
 10
1.526465779
 20
-10.5395210544
 10
1.5244143912
 20
-10.5407879334
 10
1.5223650067
 20
-10.542092035
 10
1.520317307
 20
-10.5434323479
 10
1.5182709736
 20
-10.5448078611
 10
1.5162256878
 20
-10.5462175633
 10
1.514181131
 20
-10.5476604434
 10
1.5121369848
 20
-10.5491354901
 10
1.5096838132
 20
-10.5509464873
 10
1.5072284873
 20
-10.5528000299
 10
1.5047687204
 20
-10.5546937994
 10
1.5023022256
 20
-10.5566254771
 10
1.4998267165
 20
-10.5585927445
 10
1.4973399061
 20
-10.5605932831
 10
1.4923232351
 20
-10.5646848995
  0
LWPOLYLINE
  5
389
100
AcDbEntity
  8
0
100
AcDbPolyline
 62
253
  6
CONTINUOUS
 90
20
 70
0
 10
0.5332875303
 20
-10.1262515004
 10
0.5311904224
 20
-10.1273249618
 10
0.5291154289
 20
-10.1284319128
 10
0.5270619173
 20
-10.1295706565
 10
0.5250292549
 20
-10.1307394961
 10
0.5230168092
 20
-10.1319367348
 10
0.5210239477
 20
-10.1331606758
 10
0.5190500378
 20
-10.1344096222
 10
0.5170944469
 20
-10.1356818773
 10
0.5151565425
 20
-10.1369757441
 10
0.5126897057
 20
-10.1386685508
 10
0.5102484208
 20
-10.1403921011
 10
0.5078300489
 20
-10.1421442179
 10
0.5054319507
 20
-10.1439227243
 10
0.503051487
 20
-10.145725443
 10
0.5006860188
 20
-10.1475501971
 10
0.4983329069
 20
-10.1493948095
 10
0.4950546318
 20
-10.1520063069
 10
0.4917902489
 20
-10.1546454255
 10
0.4820289192
 20
-10.162658167
  0
LWPOLYLINE
  5
38A
100
AcDbEntity
  8
0
100
AcDbPolyline
 62
253
  6
CONTINUOUS
 90
18
 70
0
 10
-0.0253008029
 20
-10.643494278
 10
-0.0278128929
 20
-10.6442747853
 10
-0.0303337782
 20
-10.6450115169
 10
-0.0328625247
 20
-10.6457065142
 10
-0.0353981981
 20
-10.6463618187
 10
-0.0379398642
 20
-10.6469794719
 10
-0.0404865888
 20
-10.6475615155
 10
-0.0430374378
 20
-10.6481099908
 10
-0.045591477
 20
-10.6486269395
 10
-0.048513386
 20
-10.6491817495
 10
-0.0514386413
 20
-10.6497010772
 10
-0.0543676427
 20
-10.6501879514
 10
-0.0573007902
 20
-10.650645401
 10
-0.0602384835
 20
-10.6510764549
 10
-0.0631811223
 20
-10.6514841419
 10
-0.0661291066
 20
-10.651871491
 10
-0.0702656064
 20
-10.6523852677
 10
-0.0744119464
 20
-10.6528727628
  0
LWPOLYLINE
  5
38B
100
AcDbEntity
  8
0
100
AcDbPolyline
 62
253
  6
CONTINUOUS
 90
22
 70
0
 10
-0.8033616455
 20
10.9218688883
 10
-0.8055180382
 20
10.9214761636
 10
-0.8076811575
 20
10.9211137044
 10
-0.8098511889
 20
10.920781849
 10
-0.8120283181
 20
10.9204809356
 10
-0.8142127304
 20
10.9202113024
 10
-0.8164046115
 20
10.9199732877
 10
-0.818604147
 20
10.9197672296
 10
-0.8208115223
 20
10.9195934663
 10
-0.823026923
 20
10.9194523362
 10
-0.8252505347
 20
10.9193441774
 10
-0.8272792349
 20
10.9192748191
 10
-0.8293147361
 20
10.9192336749
 10
-0.8313569
 20
10.9192214302
 10
-0.8334055884
 20
10.9192387704
 10
-0.835460663
 20
10.919286381
 10
-0.8375219856
 20
10.9193649476
 10
-0.8395894179
 20
10.9194751555
 10
-0.8416628216
 20
10.9196176903
 10
-0.8437420585
 20
10.9197932374
 10
-0.8458269903
 20
10.9200024824
 10
-0.8479174788
 20
10.9202461105
  0
LWPOLYLINE
  5
38C
100
AcDbEntity
  8
0
100
AcDbPolyline
 62
253
  6
CONTINUOUS
 90
33
 70
0
 10
0.097915021
 20
11.2083244438
 10
0.1023463911
 20
11.2083744859
 10
0.1067616537
 20
11.2085235257
 10
0.1111615313
 20
11.2087699336
 10
0.1155467463
 20
11.2091120799
 10
0.1199180214
 20
11.2095483351
 10
0.1242760792
 20
11.2100770695
 10
0.1286216421
 20
11.2106966536
 10
0.1329554328
 20
11.2114054576
 10
0.1372776956
 20
11.2122019638
 10
0.1415867626
 20
11.2130851012
 10
0.1458804877
 20
11.2140539107
 10
0.1501567247
 20
11.2151074332
 10
0.1544133275
 20
11.2162447095
 10
0.1586481501
 20
11.2174647804
 10
0.1628590462
 20
11.2187666869
 10
0.1670438698
 20
11.2201494698
 10
0.1712005898
 20
11.221612239
 10
0.1753276357
 20
11.2231543812
 10
0.1794235517
 20
11.2247753517
 10
0.1834868825
 20
11.2264746064
 10
0.1875161723
 20
11.2282516008
 10
0.1915099657
 20
11.2301057904
 10
0.195466807
 20
11.232036631
 10
0.1993852408
 20
11.2340435781
 10
0.2032639654
 20
11.2361264334
 10
0.2071022949
 20
11.2382863826
 10
0.2108996974
 20
11.2405249576
 10
0.214655641
 20
11.2428436902
 10
0.2183695937
 20
11.2452441122
 10
0.2220410237
 20
11.2477277554
 10
0.2256693989
 20
11.2502961516
 10
0.2292541876
 20
11.2529508326
  0
LWPOLYLINE
  5
38D
100
AcDbEntity
  8
0
100
AcDbPolyline
 62
253
  6
CONTINUOUS
 90
55
 70
0
 10
-3.1208999782
 20
10.4332716662
 10
-3.1296716222
 20
10.4332948891
 10
-3.1383141403
 20
10.433377046
 10
-3.1468328513
 20
10.4335368691
 10
-3.1552330738
 20
10.4337930906
 10
-3.1635201265
 20
10.4341644427
 10
-3.171699328
 20
10.4346696577
 10
-3.1797759971
 20
10.4353274678
 10
-3.1867604761
 20
10.4360421029
 10
-3.193658016
 20
10.4368953561
 10
-3.2004561068
 20
10.4378946732
 10
-3.2071422387
 20
10.4390475
 10
-3.2124038491
 20
10.4400857526
 10
-3.2175897261
 20
10.4412335933
 10
-3.2227037964
 20
10.4424975989
 10
-3.2277499866
 20
10.443884346
 10
-3.2327322234
 20
10.4454004113
 10
-3.2376520231
 20
10.4470516438
 10
-3.2425012617
 20
10.4488409815
 10
-3.2472694047
 20
10.4507706346
 10
-3.2519459176
 20
10.4528428134
 10
-3.2565202662
 20
10.455059728
 10
-3.2609832777
 20
10.4574230278
 10
-3.2653312267
 20
10.4599321182
 10
-3.2695617494
 20
10.4625858436
 10
-3.273672482
 20
10.4653830485
 10
-3.2776610609
 20
10.4683225774
 10
-3.2815254955
 20
10.4714019321
 10
-3.2852652891
 20
10.4746132441
 10
-3.2888803181
 20
10.4779473021
 10
-3.292370459
 20
10.4813948951
 10
-3.2957355884
 20
10.4849468118
 10
-3.2989752344
 20
10.4885936695
 10
-3.302087532
 20
10.4923253986
 10
-3.3050702681
 20
10.4961317579
 10
-3.3079212293
 20
10.5000025063
 10
-3.3106382024
 20
10.5039274026
 10
-3.3132197465
 20
10.507897593
 10
-3.3156675102
 20
10.5119097734
 10
-3.3179839145
 20
10.5159620272
 10
-3.3201713804
 20
10.5200524377
 10
-3.3222323289
 20
10.5241790881
 10
-3.3246330308
 20
10.5293844168
 10
-3.3268370201
 20
10.5346334705
 10
-3.3288414848
 20
10.5399163442
 10
-3.3306436128
 20
10.5452231327
 10
-3.3322409651
 20
10.5505442387
 10
-3.3336325946
 20
10.5558712956
 10
-3.334817927
 20
10.561196245
 10
-3.3357963879
 20
10.5665110282
 10
-3.3364293917
 20
10.5707526499
 10
-3.336926747
 20
10.5749936634
 10
-3.3372855706
 20
10.5792451242
 10
-3.3375029791
 20
10.5835180881
 10
-3.3375760893
 20
10.5878236106
  0
LWPOLYLINE
  5
38E
100
AcDbEntity
  8
0
100
AcDbPolyline
 62
253
  6
CONTINUOUS
 90
38
 70
0
 10
0.6766469653
 20
10.6248299995
 10
0.6722821005
 20
10.6248798614
 10
0.6679481516
 20
10.62502811
 10
0.6636404368
 20
10.6252727396
 10
0.6593542745
 20
10.6256117447
 10
0.6550849829
 20
10.6260431198
 10
0.6508278805
 20
10.6265648592
 10
0.6465782854
 20
10.6271749573
 10
0.6416250334
 20
10.6279962677
 10
0.6366763908
 20
10.6289351048
 10
0.6317331208
 20
10.6299914591
 10
0.6267959868
 20
10.6311653212
 10
0.6218657521
 20
10.6324566815
 10
0.6169431798
 20
10.6338655305
 10
0.6120300706
 20
10.6353914847
 10
0.6071323741
 20
10.6370326645
 10
0.6022570772
 20
10.6387868161
 10
0.5974111668
 20
10.640651686
 10
0.5926016299
 20
10.6426250205
 10
0.5878354534
 20
10.6447045659
 10
0.583119496
 20
10.6468877555
 10
0.578460103
 20
10.6491707708
 10
0.5738634917
 20
10.6515494798
 10
0.5693358793
 20
10.6540197511
 10
0.564883483
 20
10.6565774528
 10
0.56051252
 20
10.6592184534
 10
0.5562281826
 20
10.6619391743
 10
0.5520315643
 20
10.6647382506
 10
0.5479227332
 20
10.6676148705
 10
0.5439017581
 20
10.6705682222
 10
0.5399687072
 20
10.6735974941
 10
0.536123649
 20
10.6767018743
 10
0.5323661314
 20
10.6798818912
 10
0.5286936195
 20
10.6831434339
 10
0.5251030579
 20
10.6864937314
 10
0.5215913912
 20
10.6899400128
 10
0.518155564
 20
10.6934895073
 10
0.5147925209
 20
10.6971494439
  0
LWPOLYLINE
  5
38F
100
AcDbEntity
  8
0
100
AcDbPolyline
 62
253
  6
CONTINUOUS
 90
37
 70
0
 10
1.2439136318
 20
10.0530830552
 10
1.2390012426
 20
10.0531467517
 10
1.234122364
 20
10.0533360623
 10
1.2292703446
 20
10.0536483191
 10
1.2244385329
 20
10.054080854
 10
1.2196202775
 20
10.054630999
 10
1.2148089269
 20
10.055296086
 10
1.2099990013
 20
10.0560739285
 10
1.2051897076
 20
10.0569642656
 10
1.2003814241
 20
10.0579673178
 10
1.1955745294
 20
10.0590833056
 10
1.1907694019
 20
10.0603124497
 10
1.1859664201
 20
10.0616549706
 10
1.1811670403
 20
10.0631107095
 10
1.1763770296
 20
10.0646779906
 10
1.1716032331
 20
10.0663547589
 10
1.1668524958
 20
10.0681389592
 10
1.1621316627
 20
10.0700285365
 10
1.1574475789
 20
10.0720214357
 10
1.1528069575
 20
10.0741152877
 10
1.1482159846
 20
10.076306468
 10
1.1436807144
 20
10.0785910382
 10
1.1392072013
 20
10.0809650598
 10
1.1348014995
 20
10.0834245944
 10
1.1304696632
 20
10.0859657035
 10
1.1262167397
 20
10.0885849826
 10
1.1220437479
 20
10.0912811628
 10
1.1179506999
 20
10.0940535092
 10
1.1139376078
 20
10.096901287
 10
1.1100044833
 20
10.0998237612
 10
1.1061513387
 20
10.1028201968
 10
1.1023776602
 20
10.1058911064
 10
1.0986808319
 20
10.1090419919
 10
1.095057712
 20
10.1122796024
 10
1.0915051591
 20
10.1156106874
 10
1.0880200314
 20
10.119041996
 10
1.0845991874
 20
10.1225802774
  0
LWPOLYLINE
  5
390
100
AcDbEntity
  8
0
100
AcDbPolyline
 62
253
  6
CONTINUOUS
 90
24
 70
0
 10
-0.8479174788
 20
10.9202461105
 10
-0.8499060938
 20
10.9204465393
 10
-0.8518875089
 20
10.920677378
 10
-0.8538617873
 20
10.9209385784
 10
-0.8558289917
 20
10.9212300926
 10
-0.857789185
 20
10.9215518726
 10
-0.8597424302
 20
10.9219038703
 10
-0.8616887902
 20
10.9222860377
 10
-0.8636283278
 20
10.9226983267
 10
-0.8655611059
 20
10.9231406893
 10
-0.8674871876
 20
10.9236130775
 10
-0.8694066356
 20
10.9241154432
 10
-0.8711603201
 20
10.9246022994
 10
-0.8729083181
 20
10.9251146328
 10
-0.874650464
 20
10.9256527714
 10
-0.8763865925
 20
10.9262170434
 10
-0.8781165382
 20
10.9268077768
 10
-0.8798401356
 20
10.9274252997
 10
-0.8815572194
 20
10.9280699401
 10
-0.8832676242
 20
10.9287420262
 10
-0.8849711846
 20
10.9294418859
 10
-0.8866677352
 20
10.9301698475
 10
-0.8883571106
 20
10.930926239
 10
-0.8900391454
 20
10.9317113883
  0
LINE
  5
391
100
AcDbEntity
  8
0
100
AcDbLine
 62
253
  6
CONTINUOUS
 10
-1.8754533119
 20
11.4276111104
 11
-1.922584423
 21
11.4355838881
  0
LWPOLYLINE
  5
392
100
AcDbEntity
  8
0
100
AcDbPolyline
 62
253
  6
CONTINUOUS
 90
24
 70
0
 10
-1.922584423
 20
11.4355838881
 10
-1.9242971301
 20
11.4361540675
 10
-1.9259939454
 20
11.4367519584
 10
-1.9276750126
 20
11.4373770041
 10
-1.9293404749
 20
11.4380286478
 10
-1.9309904757
 20
11.4387063328
 10
-1.9326251584
 20
11.4394095025
 10
-1.9342446665
 20
11.4401376002
 10
-1.9358491433
 20
11.440890069
 10
-1.9374387322
 20
11.4416663523
 10
-1.9390135765
 20
11.4424658933
 10
-1.9405738198
 20
11.4432881354
 10
-1.9421196054
 20
11.4441325219
 10
-1.9437895944
 20
11.4450783843
 10
-1.9454427221
 20
11.4460498885
 10
-1.9470791624
 20
11.4470469851
 10
-1.9486990893
 20
11.4480696248
 10
-1.9503026768
 20
11.4491177582
 10
-1.9518900986
 20
11.4501913361
 10
-1.9534615288
 20
11.4512903091
 10
-1.9550171413
 20
11.4524146279
 10
-1.95655711
 20
11.4535642432
 10
-1.9580816089
 20
11.4547391056
 10
-1.9595908118
 20
11.4559391659
  0
LWPOLYLINE
  5
393
100
AcDbEntity
  8
0
100
AcDbPolyline
 62
253
  6
CONTINUOUS
 90
24
 70
0
 10
-1.3871735898
 20
11.404010277
 10
-1.390443731
 20
11.4056111563
 10
-1.3937328446
 20
11.407158161
 10
-1.3970410373
 20
11.408651364
 10
-1.4003684154
 20
11.410090838
 10
-1.4037150854
 20
11.411476656
 10
-1.4070811539
 20
11.4128088907
 10
-1.4104667274
 20
11.414087615
 10
-1.4138719122
 20
11.4153129017
 10
-1.417296815
 20
11.4164848237
 10
-1.4207415422
 20
11.4176034538
 10
-1.4242062003
 20
11.4186688648
 10
-1.4273997322
 20
11.4195986644
 10
-1.4306101569
 20
11.4204830356
 10
-1.4338375305
 20
11.4213212077
 10
-1.4370819087
 20
11.4221124097
 10
-1.4403433475
 20
11.4228558709
 10
-1.4436219029
 20
11.4235508206
 10
-1.4469176306
 20
11.4241964878
 10
-1.4502305866
 20
11.4247921019
 10
-1.4535608269
 20
11.425336892
 10
-1.4569084073
 20
11.4258300873
 10
-1.4602733837
 20
11.4262709171
 10
-1.463655812
 20
11.4266586104
  0
LWPOLYLINE
  5
394
100
AcDbEntity
  8
0
100
AcDbPolyline
 62
253
  6
CONTINUOUS
 90
53
 70
0
 10
0.2292541876
 20
12.4410358323
 10
0.2239888504
 20
12.4449218756
 10
0.2186464306
 20
12.4486082937
 10
0.2132153992
 20
12.4521075987
 10
0.2076842268
 20
12.4554323023
 10
0.2020413844
 20
12.4585949165
 10
0.1962775182
 20
12.4616052019
 10
0.1903919768
 20
12.4644619143
 10
0.1843862844
 20
12.4671610581
 10
0.178261965
 20
12.4696986378
 10
0.1720205428
 20
12.472070658
 10
0.1656646459
 20
12.4742726899
 10
0.1592013183
 20
12.4762985714
 10
0.1526387083
 20
12.4781417072
 10
0.145984964
 20
12.4797955019
 10
0.1392482335
 20
12.4812533602
 10
0.1335789992
 20
12.4823138592
 10
0.1278758391
 20
12.4832301881
 10
0.122156798
 20
12.483998824
 10
0.116434853
 20
12.4846166813
 10
0.1107027095
 20
12.4850824237
 10
0.1049480052
 20
12.4853951525
 10
0.0980013839
 20
12.4855664884
 10
0.0910203735
 20
12.4855104671
 10
0.0840208743
 20
12.4852213655
 10
0.0770187868
 20
12.4846934602
 10
0.0700300113
 20
12.483921028
 10
0.0630699432
 20
12.4829006608
 10
0.0561519574
 20
12.4816382111
 10
0.0492889239
 20
12.4801418463
 10
0.0424937126
 20
12.4784197339
 10
0.0357791935
 20
12.4764800415
 10
0.0302514495
 20
12.474702044
 10
0.0247767101
 20
12.4727757124
 10
0.0193430059
 20
12.4706981378
 10
0.0139436081
 20
12.4684683681
 10
0.0085927486
 20
12.466093278
 10
0.0033098997
 20
12.463581699
 10
-0.0029167001
 20
12.4603991344
 10
-0.0090099083
 20
12.4570423698
 10
-0.0149623085
 20
12.453521032
 10
-0.0207664843
 20
12.4498447479
 10
-0.0264150193
 20
12.4460231444
 10
-0.0319018056
 20
12.4420648945
 10
-0.0372259697
 20
12.4379748556
 10
-0.0423879465
 20
12.4337569312
 10
-0.0473881711
 20
12.429415025
 10
-0.0522270783
 20
12.4249530406
 10
-0.0569063264
 20
12.4203716307
 10
-0.0614324664
 20
12.4156584449
 10
-0.0658132723
 20
12.4107978822
 10
-0.0700565185
 20
12.4057743414
 10
-0.074169979
 20
12.4005722212
  0
LWPOLYLINE
  5
395
100
AcDbEntity
  8
0
100
AcDbPolyline
 62
253
  6
CONTINUOUS
 90
38
 70
0
 10
-0.0279702776
 20
12.0928934548
 10
-0.0226732606
 20
12.0885215248
 10
-0.0174947983
 20
12.0840346834
 10
-0.012431872
 20
12.0794353492
 10
-0.0074814631
 20
12.0747259409
 10
-0.002640553
 20
12.0699088771
 10
0.0020938771
 20
12.0649865765
 10
0.0074857828
 20
12.0591143364
 10
0.0127353934
 20
12.0531073396
 10
0.0178412365
 20
12.0469707762
 10
0.0228018395
 20
12.0407098366
 10
0.0276157299
 20
12.034329711
 10
0.0322814351
 20
12.0278355895
 10
0.0367974292
 20
12.0212323768
 10
0.0411619721
 20
12.0145238353
 10
0.0453732702
 20
12.0077134417
 10
0.0494295301
 20
12.0008046726
 10
0.0533289581
 20
11.9938010049
 10
0.0570697608
 20
11.9867059152
 10
0.0606498345
 20
11.9795228436
 10
0.0640658356
 20
11.9722550834
 10
0.0673141103
 20
11.9649058913
 10
0.0703910049
 20
11.9574785239
 10
0.0732928657
 20
11.949976238
 10
0.0760160388
 20
11.9424022902
 10
0.078556606
 20
11.9347599412
 10
0.0809095905
 20
11.927052468
 10
0.0830697511
 20
11.9192831516
 10
0.0850318465
 20
11.911455273
 10
0.0867906353
 20
11.9035721132
 10
0.0883408762
 20
11.8956369533
 10
0.0894993026
 20
11.8887960213
 10
0.0904950098
 20
11.8819185688
 10
0.0913223482
 20
11.8750038687
 10
0.0919756681
 20
11.8680511942
 10
0.0924493199
 20
11.8610598183
 10
0.0927376541
 20
11.8540290142
 10
0.092835021
 20
11.8469580547
  0
LWPOLYLINE
  5
396
100
AcDbEntity
  8
0
100
AcDbPolyline
 62
253
  6
CONTINUOUS
 90
41
 70
0
 10
0.8207214097
 20
13.0136999989
 10
0.8450501334
 20
12.9914658398
 10
0.8688580924
 20
12.9687571923
 10
0.8921532646
 20
12.9455722038
 10
0.9149436278
 20
12.9219090222
 10
0.9372371598
 20
12.897765795
 10
0.9590382387
 20
12.8731438202
 10
0.9803368422
 20
12.8480569982
 10
1.0011193483
 20
12.8225223795
 10
1.0213721349
 20
12.7965570148
 10
1.04108158
 20
12.7701779548
 10
1.0602351587
 20
12.7434010079
 10
1.0788247354
 20
12.7162370138
 10
1.0968432716
 20
12.6886955701
 10
1.114283729
 20
12.6607862745
 10
1.1311390691
 20
12.6325187244
 10
1.1474017459
 20
12.6039027967
 10
1.1630621827
 20
12.5749494853
 10
1.1781102952
 20
12.5456700631
 10
1.1925359991
 20
12.5160758033
 10
1.2063292103
 20
12.486177979
 10
1.2194810654
 20
12.4559886665
 10
1.231987586
 20
12.4255231553
 10
1.2438460148
 20
12.3947975381
 10
1.2550535945
 20
12.3638279076
 10
1.2656075676
 20
12.3326303564
 10
1.2755051673
 20
12.3012202262
 10
1.2847435876
 20
12.2696098531
 10
1.293320013
 20
12.2378108223
 10
1.301231628
 20
12.205834719
 10
1.3084756171
 20
12.1736931281
 10
1.3150489483
 20
12.1413995017
 10
1.3209477236
 20
12.1089747593
 10
1.3261678289
 20
12.0764416875
 10
1.3307051497
 20
12.0438230728
 10
1.3345555717
 20
12.0111417015
 10
1.3377149924
 20
11.9784152965
 10
1.3401793572
 20
11.9456413254
 10
1.3419446231
 20
11.9128121921
 10
1.3430067474
 20
11.8799203006
 10
1.3433616873
 20
11.8469580547
  0
LWPOLYLINE
  5
397
100
AcDbEntity
  8
0
100
AcDbPolyline
 62
253
  6
CONTINUOUS
 90
53
 70
0
 10
0.5493621459
 20
12.6757923151
 10
0.5277795211
 20
12.6956802992
 10
0.5231357026
 20
12.7002504717
 10
0.5186619539
 20
12.7049449178
 10
0.5143438861
 20
12.7097722058
 10
0.5101671102
 20
12.7147409037
 10
0.5061202896
 20
12.7198580466
 10
0.5022042978
 20
12.7251245368
 10
0.4984230605
 20
12.7305397435
 10
0.4947805036
 20
12.7361030362
 10
0.4912805529
 20
12.741813784
 10
0.4879278026
 20
12.7476702849
 10
0.4847295197
 20
12.7536665521
 10
0.4816936396
 20
12.7597955272
 10
0.4788280979
 20
12.766050152
 10
0.4761408298
 20
12.7724233683
 10
0.4740437067
 20
12.7778176181
 10
0.472082651
 20
12.7832716628
 10
0.4702644183
 20
12.7887678437
 10
0.4685943619
 20
12.7942934734
 10
0.4670722252
 20
12.7998557496
 10
0.4656963495
 20
12.8054668415
 10
0.4642378277
 20
12.8122758317
 10
0.4629954681
 20
12.8191583216
 10
0.4619772061
 20
12.8260999929
 10
0.4611909769
 20
12.833086527
 10
0.4606447158
 20
12.8401036056
 10
0.4603441129
 20
12.8471369316
 10
0.4602858782
 20
12.8541722941
 10
0.4604644763
 20
12.8611955035
 10
0.4608743719
 20
12.8681923705
 10
0.4615100297
 20
12.8751487056
 10
0.4622088584
 20
12.8809078685
 10
0.4630613197
 20
12.8866413148
 10
0.4640681106
 20
12.8923613288
 10
0.4652289952
 20
12.8980746776
 10
0.4665400051
 20
12.9037660587
 10
0.4679962389
 20
12.9094146524
 10
0.4699285961
 20
12.9161116477
 10
0.4720550436
 20
12.922707932
 10
0.4743676074
 20
12.9291943888
 10
0.4768583135
 20
12.9355619018
 10
0.4795191881
 20
12.9418013543
 10
0.4823429591
 20
12.9479051405
 10
0.4853251619
 20
12.9538716963
 10
0.4884620341
 20
12.9597009685
 10
0.491749813
 20
12.9653929034
 10
0.495184736
 20
12.9709474478
 10
0.4987659021
 20
12.9763662686
 10
0.5025038567
 20
12.9816579148
 10
0.5064120067
 20
12.9868326556
 10
0.5105037591
 20
12.9919007606
 10
0.5147925209
 20
12.9968724989
  0
LWPOLYLINE
  5
398
100
AcDbEntity
  8
0
100
AcDbPolyline
 62
253
  6
CONTINUOUS
 90
28
 70
0
 10
-0.7485940642
 20
12.7436129618
 10
-0.7461766408
 20
12.7413026445
 10
-0.7438074094
 20
12.7390090216
 10
-0.7414890466
 20
12.7367279477
 10
-0.7392236672
 20
12.7344554894
 10
-0.737013386
 20
12.7321877133
 10
-0.734860318
 20
12.7299206859
 10
-0.7327665779
 20
12.7276504737
 10
-0.7307342807
 20
12.7253731433
 10
-0.7290082492
 20
12.7233719276
 10
-0.7273332778
 20
12.7213618939
 10
-0.7257117653
 20
12.7193426857
 10
-0.7241461106
 20
12.7173139464
 10
-0.7226384058
 20
12.715275108
 10
-0.7211895169
 20
12.7132247562
 10
-0.7198000033
 20
12.7111612652
 10
-0.7184704244
 20
12.7090830094
 10
-0.7174504473
 20
12.7074088641
 10
-0.7164704166
 20
12.7057244922
 10
-0.7155315622
 20
12.7040301571
 10
-0.7146351142
 20
12.7023261222
 10
-0.7137823028
 20
12.7006126509
 10
-0.7131062318
 20
12.6991774985
 10
-0.7124643363
 20
12.6977346802
 10
-0.7118596341
 20
12.6962829002
 10
-0.7112951433
 20
12.6948208628
 10
-0.7107738818
 20
12.6933472721
 10
-0.7102988677
 20
12.6918608323
  0
LWPOLYLINE
  5
399
100
AcDbEntity
  8
0
100
AcDbPolyline
 62
253
  6
CONTINUOUS
 90
4
 70
0
 10
-0.7638152566
 20
12.7581124989
 10
-0.7612205019
 20
12.7555939739
 10
-0.7586415891
 20
12.7531231636
 10
-0.7485940642
 20
12.7436129618
  0
LWPOLYLINE
  5
39A
100
AcDbEntity
  8
0
100
AcDbPolyline
 62
253
  6
CONTINUOUS
 90
53
 70
0
 10
1.0947591874
 20
13.2651599988
 10
1.0900567163
 20
13.2697309548
 10
1.0855402216
 20
13.2744121739
 10
1.0811956125
 20
13.2792126674
 10
1.0770087987
 20
13.2841414464
 10
1.0729656896
 20
13.2892075223
 10
1.0690552043
 20
13.2944182779
 10
1.0652783001
 20
13.2997745826
 10
1.061638944
 20
13.3052756774
 10
1.0581411031
 20
13.3109208034
 10
1.0547887442
 20
13.3167092017
 10
1.0515864621
 20
13.3226390503
 10
1.048541363
 20
13.3287042756
 10
1.0456611804
 20
13.3348977409
 10
1.0429536483
 20
13.3412123096
 10
1.0404265003
 20
13.3476408451
 10
1.0384642214
 20
13.3530776291
 10
1.0366388834
 20
13.3585710418
 10
1.0349567896
 20
13.3641035243
 10
1.0334229828
 20
13.3696624725
 10
1.0320374626
 20
13.3752551022
 10
1.0307989677
 20
13.3808935841
 10
1.0295067146
 20
13.3877315001
 10
1.0284320392
 20
13.3946384606
 10
1.0275826186
 20
13.4015999576
 10
1.02696613
 20
13.4086014828
 10
1.0265902504
 20
13.4156285281
 10
1.0264604005
 20
13.4226666807
 10
1.0265729756
 20
13.429701909
 10
1.0269221146
 20
13.4367202768
 10
1.0275019564
 20
13.4437078477
 10
1.0283066397
 20
13.4506506855
 10
1.0291454673
 20
13.456395535
 10
1.0301373684
 20
13.4621118371
 10
1.0312833468
 20
13.4678117872
 10
1.0325833403
 20
13.4735021117
 10
1.0340330226
 20
13.4791676616
 10
1.0356270013
 20
13.4847878191
 10
1.0377228502
 20
13.4914475158
 10
1.040010576
 20
13.4980032642
 10
1.0424820336
 20
13.5044461705
 10
1.0451290779
 20
13.510767341
 10
1.0479435639
 20
13.516957882
 10
1.0509180765
 20
13.5230103753
 10
1.0540481208
 20
13.5289233045
 10
1.057329932
 20
13.5346966285
 10
1.060759745
 20
13.5403303064
 10
1.0643337951
 20
13.5458242974
 10
1.0680512242
 20
13.5511802313
 10
1.0719228017
 20
13.5564064222
 10
1.0759622039
 20
13.5615128553
 10
1.080183107
 20
13.5665095154
 10
1.0845991874
 20
13.5714063876
  0
LWPOLYLINE
  5
39B
100
AcDbEntity
  8
0
100
AcDbPolyline
 62
253
  6
CONTINUOUS
 90
6
 70
0
 10
9.7180507383
 20
22.2549472322
 10
9.7170186069
 20
22.2853647086
 10
9.715945842
 20
22.310184359
 10
9.7148383804
 20
22.3292811376
 10
9.7137448619
 20
22.3425568096
 10
9.7126931655
 20
22.3499427471
  0
LINE
  5
39C
100
AcDbEntity
  8
0
100
AcDbLine
 62
253
  6
CONTINUOUS
 10
9.7200801655
 20
22.1779424613
 11
9.7180507383
 21
22.2549472322
  0
LINE
  5
39D
100
AcDbEntity
  8
0
100
AcDbLine
 62
7
  6
CONTINUOUS
 10
10.3054980446
 20
22.0367080084
 11
10.3252259527
 21
13.4255533042
  0
LINE
  5
39E
100
AcDbEntity
  8
0
100
AcDbLine
 62
253
  6
CONTINUOUS
 10
10.1926546345
 20
-18.2189073318
 11
10.1858705052
 21
-9.4049083629
  0
LINE
  5
39F
100
AcDbEntity
  8
0
100
AcDbLine
 62
253
  6
CONTINUOUS
 10
10.1858705052
 20
-9.4049083629
 11
10.1833440382
 21
-0.4216358799
  0
LINE
  5
3A0
100
AcDbEntity
  8
0
100
AcDbLine
 62
7
  6
CONTINUOUS
 10
10.3252259527
 20
13.4255533042
 11
10.3252259527
 21
1.025458122
  0
LINE
  5
3A1
100
AcDbEntity
  8
0
100
AcDbLine
 62
7
  6
CONTINUOUS
 10
10.3252259527
 20
-12.7744466958
 11
10.3252259527
 21
-0.3743515136
  0
LINE
  5
3A2
100
AcDbEntity
  8
0
100
AcDbLine
 62
253
  6
CONTINUOUS
 10
10.1833440357
 20
1.0727424893
 11
10.1867857844
 21
11.6633916199
  0
LINE
  5
3A3
100
AcDbEntity
  8
0
100
AcDbLine
 62
253
  6
CONTINUOUS
 10
10.1867857844
 20
11.6633916199
 11
10.1950953132
 21
21.1813786632
  0
LINE
  5
3A4
100
AcDbEntity
  8
0
100
AcDbLine
 62
7
  6
CONTINUOUS
 10
10.3054980446
 20
-21.3856013999
 11
10.3252259527
 21
-12.7744466958
  0
LWPOLYLINE
  5
3A5
100
AcDbEntity
  8
0
100
AcDbPolyline
 62
253
  6
CONTINUOUS
 90
22
 70
0
 10
0.7133100303
 20
-12.1704928888
 10
0.7159234186
 20
-12.1687866767
 10
0.7185095342
 20
-12.1670409432
 10
0.7210683599
 20
-12.1652554041
 10
0.7235998787
 20
-12.1634297748
 10
0.7261040735
 20
-12.161563771
 10
0.7285809274
 20
-12.1596571084
 10
0.7310304232
 20
-12.1577095025
 10
0.7334525439
 20
-12.155720669
 10
0.7358472724
 20
-12.1536903234
 10
0.7382145916
 20
-12.1516181815
 10
0.7403427904
 20
-12.1496978633
 10
0.7424476471
 20
-12.147742291
 10
0.744528486
 20
-12.1457509878
 10
0.7465846315
 20
-12.1437234772
 10
0.7486154079
 20
-12.1416592825
 10
0.7506201394
 20
-12.139557927
 10
0.7525981503
 20
-12.1374189341
 10
0.754548765
 20
-12.1352418271
 10
0.7564713078
 20
-12.1330261294
 10
0.7583651029
 20
-12.1307713644
 10
0.7618550512
 20
-12.1264592751
  0
LINE
  5
3A6
100
AcDbEntity
  8
0
100
AcDbLine
 62
253
  6
CONTINUOUS
 10
1.6976045405
 20
-11.7332984903
 11
1.7081786411
 21
-11.726769
  0
LWPOLYLINE
  5
3A7
100
AcDbEntity
  8
0
100
AcDbPolyline
 62
253
  6
CONTINUOUS
 90
21
 70
0
 10
1.66898503
 20
-11.7824373333
 10
1.6737652162
 20
-11.7807332634
 10
1.6784997685
 20
-11.7789147667
 10
1.6831920043
 20
-11.7769810437
 10
1.6878452408
 20
-11.7749312948
 10
1.6924627953
 20
-11.7727647206
 10
1.6970479852
 20
-11.7704805215
 10
1.7016031433
 20
-11.7680779286
 10
1.7061266656
 20
-11.7655562958
 10
1.7106159637
 20
-11.7629150076
 10
1.7150684491
 20
-11.7601534486
 10
1.7194815335
 20
-11.7572710034
 10
1.7238526284
 20
-11.7542670565
 10
1.7281802426
 20
-11.751142776
 10
1.7324672741
 20
-11.7479064638
 10
1.7367177178
 20
-11.7445682055
 10
1.740935569
 20
-11.7411380865
 10
1.7451248226
 20
-11.7376261923
 10
1.7492894738
 20
-11.7340426084
 10
1.7554995063
 20
-11.7285564796
 10
1.761679332
 20
-11.7229753995
  0
LINE
  5
3A8
100
AcDbEntity
  8
0
100
AcDbLine
 62
253
  6
CONTINUOUS
 10
-1.4853163675
 20
12.2689155546
 11
-1.4203347009
 21
12.2791813879
  0
LINE
  5
3A9
100
AcDbEntity
  8
0
100
AcDbLine
 62
253
  6
CONTINUOUS
 10
-1.9098491452
 20
12.2651408324
 11
-1.8741480341
 21
12.2689155546
  0
LWPOLYLINE
  5
3AA
100
AcDbEntity
  8
0
100
AcDbPolyline
 62
253
  6
CONTINUOUS
 90
23
 70
0
 10
-0.8466827566
 20
12.7769155545
 10
-0.8445315748
 20
12.7771030865
 10
-0.8423799697
 20
12.7772651305
 10
-0.8402276329
 20
12.7774007811
 10
-0.8380742561
 20
12.777509133
 10
-0.8359195308
 20
12.7775892807
 10
-0.8337631487
 20
12.7776403189
 10
-0.8316048012
 20
12.7776613421
 10
-0.8294441801
 20
12.777651445
 10
-0.827280977
 20
12.7776097221
 10
-0.8251148833
 20
12.7775352681
 10
-0.8233074526
 20
12.7774475101
 10
-0.821498089
 20
12.7773355282
 10
-0.8196870813
 20
12.7771984572
 10
-0.817874718
 20
12.777035432
 10
-0.8160612877
 20
12.7768455873
 10
-0.8142470791
 20
12.776628058
 10
-0.8124323808
 20
12.7763819789
 10
-0.8106174814
 20
12.7761064847
 10
-0.8088026696
 20
12.7758007104
 10
-0.8069882339
 20
12.7754637907
 10
-0.805174463
 20
12.7750948605
 10
-0.8033616455
 20
12.7746930545
  0
LINE
  5
3AB
100
AcDbEntity
  8
0
100
AcDbLine
 62
253
  6
CONTINUOUS
 10
-1.8741480341
 20
12.2689101398
 11
-1.4853163675
 21
12.2689200916
  0
LINE
  5
3AC
100
AcDbEntity
  8
0
100
AcDbLine
 62
253
  6
CONTINUOUS
 10
-1.463655812
 20
11.4266586104
 11
-1.8754533119
 21
11.4276111104
  0
LWPOLYLINE
  5
3AD
100
AcDbEntity
  8
0
100
AcDbPolyline
 62
253
  6
CONTINUOUS
 90
55
 70
0
 10
-3.1208999782
 20
13.2629727766
 10
-3.1121236649
 20
13.2629493029
 10
-3.1034764904
 20
13.2628664215
 10
-3.0949531501
 20
13.2627054417
 10
-3.0865483392
 20
13.2624476731
 10
-3.0782567528
 20
13.262074425
 10
-3.0700730863
 20
13.261567007
 10
-3.0619920349
 20
13.2609067286
 10
-3.0550037963
 20
13.2601897454
 10
-3.0481025588
 20
13.25933398
 10
-3.0413008201
 20
13.2583319939
 10
-3.0346110782
 20
13.2571763484
 10
-3.0293465943
 20
13.2561357324
 10
-3.0241578267
 20
13.2549854075
 10
-3.0190408152
 20
13.2537187673
 10
-3.0139915994
 20
13.2523292055
 10
-3.0090062192
 20
13.2508101156
 10
-3.0040831406
 20
13.2491556219
 10
-2.9992305354
 20
13.2473627699
 10
-2.9944590017
 20
13.2454293359
 10
-2.9897791376
 20
13.243353096
 10
-2.9852015411
 20
13.2411318264
 10
-2.9807354384
 20
13.238763863
 10
-2.9763845677
 20
13.2362497804
 10
-2.9721512952
 20
13.2335907131
 10
-2.9680379871
 20
13.2307877955
 10
-2.9640470098
 20
13.2278421619
 10
-2.9601803557
 20
13.224756297
 10
-2.9564385216
 20
13.2215380864
 10
-2.9528216308
 20
13.2181967657
 10
-2.9493298064
 20
13.2147415706
 10
-2.9459631716
 20
13.211181737
 10
-2.9427221933
 20
13.2075266666
 10
-2.9396087143
 20
13.2037864262
 10
-2.9366249209
 20
13.1999712484
 10
-2.9337729997
 20
13.196091366
 10
-2.9310551372
 20
13.1921570119
 10
-2.9284727555
 20
13.1881770406
 10
-2.9260242199
 20
13.1841547945
 10
-2.9237071309
 20
13.1800922376
 10
-2.9215190894
 20
13.175991334
 10
-2.9194576961
 20
13.171854048
 10
-2.9170566472
 20
13.1666353088
 10
-2.914852543
 20
13.1613728607
 10
-2.9128481894
 20
13.1560767732
 10
-2.911046392
 20
13.1507571163
 10
-2.9094495716
 20
13.1454236176
 10
-2.9080586089
 20
13.1400846371
 10
-2.9068739993
 20
13.1347481927
 10
-2.9058962386
 20
13.1294223023
 10
-2.9052637297
 20
13.1251720442
 10
-2.9047667879
 20
13.1209225813
 10
-2.9044082802
 20
13.1166628227
 10
-2.9041910732
 20
13.1123816774
 10
-2.9041180338
 20
13.1080680544
  0
LWPOLYLINE
  5
3AE
100
AcDbEntity
  8
0
100
AcDbPolyline
 62
253
  6
CONTINUOUS
 90
26
 70
0
 10
-0.8033616455
 20
12.7746930545
 10
-0.8016095425
 20
12.7742142603
 10
-0.7998409597
 20
12.7737145301
 10
-0.7980559724
 20
12.7731923809
 10
-0.7962546557
 20
12.7726463293
 10
-0.7944370849
 20
12.772074892
 10
-0.7926033353
 20
12.7714765859
 10
-0.7907534821
 20
12.7708499276
 10
-0.7891218559
 20
12.7702771524
 10
-0.7874788857
 20
12.7696803882
 10
-0.7858254993
 20
12.7690584884
 10
-0.7841626244
 20
12.7684103067
 10
-0.7824911888
 20
12.7677346967
 10
-0.7808121203
 20
12.767030512
 10
-0.7791263466
 20
12.7662966063
 10
-0.7774347954
 20
12.7655318331
 10
-0.7760780277
 20
12.7648969672
 10
-0.7747186884
 20
12.7642407114
 10
-0.7733573096
 20
12.7635621645
 10
-0.7719944236
 20
12.7628604256
 10
-0.7706305625
 20
12.7621345936
 10
-0.7692662585
 20
12.7613837674
 10
-0.7679020437
 20
12.7606070458
 10
-0.7665384503
 20
12.759803528
 10
-0.7651760106
 20
12.7589723127
 10
-0.7638152566
 20
12.7581124989
  0
LWPOLYLINE
  5
3AF
100
AcDbEntity
  8
0
100
AcDbPolyline
 62
253
  6
CONTINUOUS
 90
41
 70
0
 10
1.390563354
 20
13.5822366654
 10
1.4259061749
 20
13.5486733141
 10
1.4604856215
 20
13.5144358906
 10
1.4943130807
 20
13.479521452
 10
1.5273999392
 20
13.4439270554
 10
1.559757584
 20
13.4076497579
 10
1.5913923472
 20
13.3706912954
 10
1.6222903416
 20
13.3330721196
 10
1.6524326252
 20
13.2948173611
 10
1.6818002562
 20
13.2559521505
 10
1.7103742926
 20
13.2165016184
 10
1.7381374283
 20
13.1764890018
 10
1.7650789002
 20
13.1359299628
 10
1.7911895812
 20
13.0948382701
 10
1.8164603443
 20
13.0532276922
 10
1.840882062
 20
13.0111119978
 10
1.8644448955
 20
12.9685053895
 10
1.887136158
 20
12.9254238059
 10
1.9089424507
 20
12.8818836197
 10
1.929850375
 20
12.8379012037
 10
1.9498465323
 20
12.7934929305
 10
1.9689190183
 20
12.7486760875
 10
1.9870619065
 20
12.7034716207
 10
2.004270765
 20
12.6579013906
 10
2.0205411616
 20
12.611987258
 10
2.0358686645
 20
12.5657510834
 10
2.0502487582
 20
12.5192137544
 10
2.0636765945
 20
12.4723922663
 10
2.0761472416
 20
12.4253026411
 10
2.0876557679
 20
12.3779609012
 10
2.0981972418
 20
12.3303830686
 10
2.1077664242
 20
12.2825878759
 10
2.1163568457
 20
12.2346048966
 10
2.1239617296
 20
12.1864664149
 10
2.1305742993
 20
12.1382047147
 10
2.1361877779
 20
12.0898520798
 10
2.1407954204
 20
12.0414336203
 10
2.1443906082
 20
11.9929457491
 10
2.1469667547
 20
11.9443777052
 10
2.1485172728
 20
11.8957187274
 10
2.149035576
 20
11.8469580547
  0
LWPOLYLINE
  5
3B0
100
AcDbEntity
  8
0
100
AcDbPolyline
 62
253
  6
CONTINUOUS
 90
7
 70
0
 10
9.7126931649
 20
-21.6988361374
 10
9.7137448613
 20
-21.6914502002
 10
9.7148383798
 20
-21.6781745289
 10
9.7159458414
 20
-21.6590777508
 10
9.7170186062
 20
-21.6342581005
 10
9.7180507375
 20
-21.6038406237
 10
9.7200801646
 20
-21.5268358517
  0
LINE
  5
3B1
100
AcDbEntity
  8
0
100
AcDbLine
 62
7
  6
CONTINUOUS
 10
7.1057774594
 20
22.5344261627
 11
6.7575908561
 21
22.5028202423
  0
LWPOLYLINE
  5
3B2
100
AcDbEntity
  8
0
100
AcDbPolyline
 62
253
  6
CONTINUOUS
 90
14
 70
0
 10
-11.2260467448
 20
21.2020137897
 10
-11.2728840881
 20
21.2013077082
 10
-11.3180020634
 20
21.2004083964
 10
-11.3609632108
 20
21.1993245738
 10
-11.4013509827
 20
21.1980667492
 10
-11.4387737825
 20
21.1966471183
 10
-11.4728687621
 20
21.1950794458
 10
-11.5033053393
 20
21.1933789315
 10
-11.5297884038
 20
21.1915620637
 10
-11.552061178
 20
21.1896464583
 10
-11.5699077069
 20
21.1876506891
 10
-11.5831549521
 20
21.1855941068
 10
-11.5916744695
 20
21.1834966519
 10
-11.5953836545
 20
21.1813786611
  0
LINE
  5
3B3
100
AcDbEntity
  8
0
100
AcDbLine
 62
253
  6
CONTINUOUS
 10
-11.129042746
 20
21.2028208173
 11
-11.2260467448
 21
21.2020137897
  0
LINE
  5
3B4
100
AcDbEntity
  8
0
100
AcDbLine
 62
253
  6
CONTINUOUS
 10
9.7287544059
 20
21.2028207858
 11
5.0018484562
 21
21.1978415496
  0
LINE
  5
3B5
100
AcDbEntity
  8
0
100
AcDbLine
 62
253
  6
CONTINUOUS
 10
5.0018484562
 20
21.1978415496
 11
0.2694243402
 21
21.1957836766
  0
LINE
  5
3B6
100
AcDbEntity
  8
0
100
AcDbLine
 62
253
  6
CONTINUOUS
 10
0.2694243402
 20
21.1957836766
 11
-6.539476305
 21
21.19794487
  0
LINE
  5
3B7
100
AcDbEntity
  8
0
100
AcDbLine
 62
253
  6
CONTINUOUS
 10
-6.539476305
 20
21.19794487
 11
-11.1290427461
 21
21.2028208034
  0
LWPOLYLINE
  5
3B8
100
AcDbEntity
  8
0
100
AcDbPolyline
 62
253
  6
CONTINUOUS
 90
15
 70
0
 10
9.7287535545
 20
21.2028202707
 10
9.8257566442
 20
21.2020132689
 10
9.8725935925
 20
21.2013072091
 10
9.9177112301
 20
21.2004079246
 10
9.9606721089
 20
21.1993241344
 10
10.001059692
 20
21.1980663464
 10
10.0384823926
 20
21.1966467557
 10
10.0725773707
 20
21.1950791264
 10
10.1030140507
 20
21.1933786576
 10
10.1294973271
 20
21.1915618368
 10
10.1517704253
 20
21.1896462792
 10
10.1696173916
 20
21.1876505576
 10
10.1828651866
 20
21.185594022
 10
10.1913853636
 20
21.1834966119
 10
10.1950953131
 20
21.1813786632
  0
LINE
  5
3B9
100
AcDbEntity
  8
0
100
AcDbLine
 62
7
  6
CONTINUOUS
 10
-8.506065801
 20
22.5344261627
 11
-8.1578791977
 21
22.5028202423
  0
LINE
  5
3BA
100
AcDbEntity
  8
0
100
AcDbLine
 62
7
  6
CONTINUOUS
 10
-4.0942225406
 20
22.5344261627
 11
-4.4424091439
 21
22.5028202423
  0
LWPOLYLINE
  5
3BB
100
AcDbEntity
  8
0
100
AcDbPolyline
 62
253
  6
CONTINUOUS
 90
16
 70
0
 10
-11.1129815066
 20
22.3499427459
 10
-11.165183133
 20
22.3471407007
 10
-11.2168137445
 20
22.3389081112
 10
-11.2673086412
 20
22.3253350409
 10
-11.316115563
 20
22.3065699565
 10
-11.3627006845
 20
22.2828181205
 10
-11.4065544613
 20
22.2543393603
 10
-11.4471972656
 20
22.2214451917
 10
-11.4841846103
 20
22.1844954074
 10
-11.5171119738
 20
22.1438941723
 10
-11.5456192535
 20
22.1000855809
 10
-11.5693947057
 20
22.0535487839
 10
-11.5881783401
 20
22.0047927589
 10
-11.6017647566
 20
21.9543507559
 10
-11.6100053963
 20
21.9027744668
 10
-11.6128101691
 20
21.8506279785
  0
LINE
  5
3BC
100
AcDbEntity
  8
0
100
AcDbLine
 62
253
  6
CONTINUOUS
 10
9.7126931655
 20
22.3499427471
 11
6.3431275963
 21
22.3399166108
  0
LINE
  5
3BD
100
AcDbEntity
  8
0
100
AcDbLine
 62
253
  6
CONTINUOUS
 10
6.3431275963
 20
22.3399166108
 11
2.971081542
 21
22.3337624452
  0
LINE
  5
3BE
100
AcDbEntity
  8
0
100
AcDbLine
 62
253
  6
CONTINUOUS
 10
2.971081542
 20
22.3337624452
 11
-0.4025755525
 21
22.3314822357
  0
LINE
  5
3BF
100
AcDbEntity
  8
0
100
AcDbLine
 62
7
  6
CONTINUOUS
 10
6.5843857753
 20
22.4975794644
 11
3.215325883
 21
22.4975794644
  0
LINE
  5
3C0
100
AcDbEntity
  8
0
100
AcDbLine
 62
7
  6
CONTINUOUS
 10
-4.6156142247
 20
22.4975794644
 11
-7.984674117
 21
22.4975794644
  0
LINE
  5
3C1
100
AcDbEntity
  8
0
100
AcDbLine
 62
7
  6
CONTINUOUS
 10
9.804871623
 20
22.5344261627
 11
7.1057774594
 21
22.5344261627
  0
LINE
  5
3C2
100
AcDbEntity
  8
0
100
AcDbLine
 62
7
  6
CONTINUOUS
 10
2.693934199
 20
22.5344261627
 11
-4.0942225406
 21
22.5344261627
  0
LINE
  5
3C3
100
AcDbEntity
  8
0
100
AcDbLine
 62
7
  6
CONTINUOUS
 10
-8.506065801
 20
22.5344261627
 11
-11.2051599646
 21
22.5344261627
  0
LINE
  5
3C4
100
AcDbEntity
  8
0
100
AcDbLine
 62
253
  6
CONTINUOUS
 10
-0.4025755525
 20
22.3314822357
 11
-3.7703032094
 21
22.3330691703
  0
LINE
  5
3C5
100
AcDbEntity
  8
0
100
AcDbLine
 62
253
  6
CONTINUOUS
 10
-3.7703032094
 20
22.3330691703
 11
-7.2413168511
 21
22.3387547138
  0
LWPOLYLINE
  5
3C6
100
AcDbEntity
  8
0
100
AcDbPolyline
 62
253
  6
CONTINUOUS
 90
3
 70
0
 10
-7.2413168511
 20
22.3387547138
 10
-10.2954030922
 20
22.3471818399
 10
-11.1129815066
 20
22.3499427459
  0
LWPOLYLINE
  5
3C7
100
AcDbEntity
  8
0
100
AcDbPolyline
 62
253
  6
CONTINUOUS
 90
16
 70
0
 10
9.7126931655
 20
22.3499427471
 10
9.7648941356
 20
22.3471407719
 10
9.8165241771
 20
22.3389083748
 10
9.867018606
 20
22.3253355946
 10
9.9158251585
 20
22.3065708784
 10
9.9624100311
 20
22.2828194583
 10
10.0062637196
 20
22.2543411065
 10
10.0469065905
 20
22.2214472943
 10
10.0838941278
 20
22.1844977854
 10
10.1168217943
 20
22.1438967011
 10
10.1453294559
 20
22.1000881005
 10
10.1691053209
 20
22.0535511237
 10
10.1878893497
 20
22.0047947514
 10
10.2014760991
 20
21.954352238
 10
10.209716969
 20
21.9027752796
 10
10.212521828
 20
21.8506279797
  0
LINE
  5
3C8
100
AcDbEntity
  8
0
100
AcDbLine
 62
7
  6
CONTINUOUS
 10
2.693934199
 20
22.5344261627
 11
3.0421208023
 21
22.5028202423
  0
LINE
  5
3C9
100
AcDbEntity
  8
0
100
AcDbLine
 62
7
  6
CONTINUOUS
 10
-34.3053109753
 20
-21.8833195542
 11
-38.1780032556
 21
-21.680360352
  0
LWPOLYLINE
  5
3CA
100
AcDbEntity
  8
0
100
AcDbPolyline
 62
253
  6
CONTINUOUS
 90
22
 70
0
 10
-37.8254642682
 20
-21.6988361374
 10
-37.9096724387
 20
-21.6914502002
 10
-37.9931355003
 20
-21.6781745289
 10
-38.0754426486
 20
-21.6590777508
 10
-38.1561877652
 20
-21.6342581005
 10
-38.2349756284
 20
-21.6038406237
 10
-38.3114231188
 20
-21.5679745951
 10
-38.3851583279
 20
-21.5268358517
 10
-38.455814858
 20
-21.480630409
 10
-38.5230379345
 20
-21.4295907829
 10
-38.5864966488
 20
-21.3739720285
 10
-38.6458821514
 20
-21.3140492602
 10
-38.7009012119
 20
-21.250119429
 10
-38.7512851035
 20
-21.1824988335
 10
-38.7967877837
 20
-21.1115226763
 10
-38.8371844541
 20
-21.0375432361
 10
-38.8722760849
 20
-20.9609322003
 10
-38.901896057
 20
-20.8820626273
 10
-38.9259040035
 20
-20.8013067387
 10
-38.9441813014
 20
-20.7190562458
 10
-38.9566355712
 20
-20.6357218599
 10
-38.9632043325
 20
-20.551714195
  0
LINE
  5
3CB
100
AcDbEntity
  8
0
100
AcDbLine
 62
253
  6
CONTINUOUS
 10
-38.9632043223
 20
-20.5517142088
 11
-38.9574999874
 21
-20.5514131863
  0
LINE
  5
3CC
100
AcDbEntity
  8
0
100
AcDbLine
 62
253
  6
CONTINUOUS
 10
-38.9574999874
 20
-20.5514131863
 11
-38.7539171459
 21
-20.5422723231
  0
LINE
  5
3CD
100
AcDbEntity
  8
0
100
AcDbLine
 62
253
  6
CONTINUOUS
 10
-38.7539171459
 20
-20.5422723231
 11
-38.4778765063
 21
-20.5302720526
  0
LINE
  5
3CE
100
AcDbEntity
  8
0
100
AcDbLine
 62
253
  6
CONTINUOUS
 10
-39.3135619274
 20
-20.544615646
 11
-38.9632043248
 21
-20.5517141949
  0
LINE
  5
3CF
100
AcDbEntity
  8
0
100
AcDbLine
 62
253
  6
CONTINUOUS
 10
-34.2617662792
 20
-21.3856013999
 11
-37.8123847643
 21
-21.19952137
  0
LWPOLYLINE
  5
3D0
100
AcDbEntity
  8
0
100
AcDbPolyline
 62
253
  6
CONTINUOUS
 90
22
 70
0
 10
-37.8123847643
 20
-21.19952137
 10
-37.8617916648
 20
-21.1951688608
 10
-37.9103659013
 20
-21.187475091
 10
-37.9581074739
 20
-21.1764400605
 10
-38.0052665015
 20
-21.1619748577
 10
-38.0515928651
 20
-21.1441683942
 10
-38.0963362075
 20
-21.1232874052
 10
-38.1394512107
 20
-21.0992871438
 10
-38.1809831928
 20
-21.0722123568
 10
-38.2203177501
 20
-21.0424640196
 10
-38.257422203
 20
-21.0100004844
 10
-38.2923292312
 20
-20.9748633989
 10
-38.3245224697
 20
-20.9375786811
 10
-38.3539586145
 20
-20.8981166531
 10
-38.3806809697
 20
-20.8565069927
 10
-38.4043030827
 20
-20.8133646512
 10
-38.4247806271
 20
-20.7686458032
 10
-38.4421579294
 20
-20.7223942742
 10
-38.4561815158
 20
-20.6753564918
 10
-38.4667668951
 20
-20.6277812654
 10
-38.4739985586
 20
-20.5794197856
 10
-38.4778765063
 20
-20.5302720526
  0
LINE
  5
3D1
100
AcDbEntity
  8
0
100
AcDbLine
 62
253
  6
CONTINUOUS
 10
-33.9083878627
 20
-17.607938297
 11
-33.931263583
 21
-17.6079382968
  0
LWPOLYLINE
  5
3D2
100
AcDbEntity
  8
0
100
AcDbPolyline
 62
253
  6
CONTINUOUS
 90
11
 70
0
 10
-37.8254642447
 20
22.3499427471
 10
-37.8266843287
 20
22.3471407719
 10
-37.8276048665
 20
22.3389083748
 10
-37.8282157899
 20
22.3253355946
 10
-37.8285104173
 20
22.3065708784
 10
-37.8284855264
 20
22.2828194583
 10
-37.8281413888
 20
22.2543411065
 10
-37.8274817685
 20
22.2214472943
 10
-37.8265138798
 20
22.1844977854
 10
-37.8252483087
 20
22.1438967011
 10
-37.8218825905
 20
22.0535511237
  0
LINE
  5
3D3
100
AcDbEntity
  8
0
100
AcDbLine
 62
253
  6
CONTINUOUS
 10
-39.6788783529
 20
-11.6523698682
 11
-39.6775859209
 21
-11.6523654323
  0
LINE
  5
3D4
100
AcDbEntity
  8
0
100
AcDbLine
 62
253
  6
CONTINUOUS
 10
-39.679812455
 20
-11.6211490339
 11
-39.6785195085
 21
-11.6211446004
  0
LINE
  5
3D5
100
AcDbEntity
  8
0
100
AcDbLine
 62
253
  6
CONTINUOUS
 10
-39.7053670518
 20
-10.6854721746
 11
-39.7066715986
 21
-10.6854764945
  0
LINE
  5
3D6
100
AcDbEntity
  8
0
100
AcDbLine
 62
253
  6
CONTINUOUS
 10
-39.7062251251
 20
-10.6542513335
 11
-39.7075333405
 21
-10.6542556596
  0
LINE
  5
3D7
100
AcDbEntity
  8
0
100
AcDbLine
 62
253
  6
CONTINUOUS
 10
-39.6555063355
 20
-11.759154
 11
-39.655389552
 21
-11.7592598333
  0
LWPOLYLINE
  5
3D8
100
AcDbEntity
  8
0
100
AcDbPolyline
 62
253
  6
CONTINUOUS
 90
9
 70
0
 10
-37.8254642682
 20
-21.6988361374
 10
-37.8266843702
 20
-21.6960340922
 10
-37.8276049166
 20
-21.6878015028
 10
-37.8282158403
 20
-21.6742284324
 10
-37.8285104607
 20
-21.6554633481
 10
-37.8284855565
 20
-21.6317115121
 10
-37.8281414012
 20
-21.6032327519
 10
-37.827481761
 20
-21.5703385833
 10
-37.8265138528
 20
-21.5333887989
  0
LWPOLYLINE
  5
3D9
100
AcDbEntity
  8
0
100
AcDbPolyline
 62
253
  6
CONTINUOUS
 90
8
 70
0
 10
-39.7078697565
 20
11.2083244438
 10
-39.707841022
 20
11.2083744859
 10
-39.7078095451
 20
11.2085235257
 10
-39.7077753667
 20
11.2087699336
 10
-39.7077385275
 20
11.2091120799
 10
-39.7076990683
 20
11.2095483351
 10
-39.7076570299
 20
11.2100770695
 10
-39.707612453
 20
11.2106966536
  0
LWPOLYLINE
  5
3DA
100
AcDbEntity
  8
0
100
AcDbPolyline
 62
253
  6
CONTINUOUS
 90
20
 70
0
 10
-39.6545918738
 20
-11.7903748333
 10
-39.6545385719
 20
-11.7904777342
 10
-39.6544864887
 20
-11.7905366947
 10
-39.6544356286
 20
-11.790551085
 10
-39.6543859958
 20
-11.7905202751
 10
-39.6543375945
 20
-11.7904436351
 10
-39.6542904289
 20
-11.7903205351
 10
-39.6542445033
 20
-11.7901503452
 10
-39.654205345
 20
-11.7899623072
 10
-39.6541671789
 20
-11.7897373225
 10
-39.6541300444
 20
-11.78947498
 10
-39.6540939812
 20
-11.7891748683
 10
-39.6540590289
 20
-11.7888365764
 10
-39.654025227
 20
-11.788459693
 10
-39.653992615
 20
-11.7880438069
 10
-39.6539612325
 20
-11.7875885069
 10
-39.6539311165
 20
-11.7870933026
 10
-39.6539022932
 20
-11.7865573871
 10
-39.6538747862
 20
-11.7859798742
 10
-39.6538486191
 20
-11.7853598777
  0
LINE
  5
3DB
100
AcDbEntity
  8
0
100
AcDbLine
 62
253
  6
CONTINUOUS
 10
-39.6569340944
 20
-12.1662595554
 11
-39.656712846
 21
-12.1673531665
  0
LWPOLYLINE
  5
3DC
100
AcDbEntity
  8
0
100
AcDbPolyline
 62
253
  6
CONTINUOUS
 90
23
 70
0
 10
-39.6898904252
 20
-10.5207628892
 10
-39.6899509838
 20
-10.5201966189
 10
-39.6900104773
 20
-10.5196700327
 10
-39.6900689233
 20
-10.5191824676
 10
-39.6901263393
 20
-10.5187332605
 10
-39.6901827427
 20
-10.5183217483
 10
-39.6902381511
 20
-10.517947268
 10
-39.6902925818
 20
-10.5176091564
 10
-39.6903460525
 20
-10.5173067504
 10
-39.6904060046
 20
-10.5170040831
 10
-39.690464727
 20
-10.5167466087
 10
-39.6905222213
 20
-10.51653375
 10
-39.6905784891
 20
-10.5163649302
 10
-39.6906335319
 20
-10.516239572
 10
-39.6906873512
 20
-10.5161570985
 10
-39.6907399486
 20
-10.5161169326
 10
-39.6907913275
 20
-10.5161185446
 10
-39.6908414994
 20
-10.5161615944
 10
-39.6908904773
 20
-10.5162457894
 10
-39.6909382747
 20
-10.5163708369
 10
-39.6909849047
 20
-10.5165364441
 10
-39.6910303807
 20
-10.5167423183
 10
-39.691074716
 20
-10.516988167
  0
LWPOLYLINE
  5
3DD
100
AcDbEntity
  8
0
100
AcDbPolyline
 62
253
  6
CONTINUOUS
 90
15
 70
0
 10
-39.6554410561
 20
-11.784611947
 10
-39.655374715
 20
-11.7852743903
 10
-39.655309234
 20
-11.7858988363
 10
-39.6552446073
 20
-11.7864854741
 10
-39.6551808319
 20
-11.7870344011
 10
-39.6551179147
 20
-11.7875453465
 10
-39.6550558655
 20
-11.7880179476
 10
-39.6549946938
 20
-11.7884518417
 10
-39.6549344093
 20
-11.788846666
 10
-39.6548750217
 20
-11.7892020578
 10
-39.6548165406
 20
-11.7895176543
 10
-39.6547589756
 20
-11.7897930928
 10
-39.6547023364
 20
-11.7900280107
 10
-39.6546466326
 20
-11.7902220451
 10
-39.6545918738
 20
-11.7903748333
  0
LWPOLYLINE
  5
3DE
100
AcDbEntity
  8
0
100
AcDbPolyline
 62
253
  6
CONTINUOUS
 90
3
 70
0
 10
-39.6896861791
 20
-10.5227888587
 10
-39.6897550009
 20
-10.5220741856
 10
-39.6898230831
 20
-10.521398845
  0
LWPOLYLINE
  5
3DF
100
AcDbEntity
  8
0
100
AcDbPolyline
 62
253
  6
CONTINUOUS
 90
14
 70
0
 10
-39.656308412
 20
-11.7533015612
 10
-39.6562377271
 20
-11.7540627367
 10
-39.6561673985
 20
-11.754782396
 10
-39.6560975454
 20
-11.7554579885
 10
-39.6560282873
 20
-11.7560869638
 10
-39.6559597435
 20
-11.7566667714
 10
-39.6558920333
 20
-11.7571948606
 10
-39.6558347393
 20
-11.7576044686
 10
-39.6557781572
 20
-11.7579729408
 10
-39.6557222987
 20
-11.7582990126
 10
-39.6556671756
 20
-11.7585814192
 10
-39.6556127995
 20
-11.7588188957
 10
-39.6555591822
 20
-11.7590101776
 10
-39.6555063355
 20
-11.759154
  0
LINE
  5
3E0
100
AcDbEntity
  8
0
100
AcDbLine
 62
253
  6
CONTINUOUS
 10
-39.6555763414
 20
-11.7831723108
 11
-39.655508263
 21
-11.7839113169
  0
LINE
  5
3E1
100
AcDbEntity
  8
0
100
AcDbLine
 62
253
  6
CONTINUOUS
 10
-39.6895463198
 20
-10.5243359931
 11
-39.6896166185
 21
-10.5235428119
  0
LWPOLYLINE
  5
3E2
100
AcDbEntity
  8
0
100
AcDbPolyline
 62
253
  6
CONTINUOUS
 90
6
 70
0
 10
-39.6561998479
 20
-12.1952699338
 10
-39.6561590975
 20
-12.1957432163
 10
-39.6561190938
 20
-12.1961831032
 10
-39.6560798298
 20
-12.1965897555
 10
-39.6560412986
 20
-12.1969633341
 10
-39.656003493
 20
-12.1973039999
  0
LINE
  5
3E3
100
AcDbEntity
  8
0
100
AcDbLine
 62
253
  6
CONTINUOUS
 10
-39.6557151355
 20
-11.7815784134
 11
-39.655645297
 21
-11.7823947394
  0
LINE
  5
3E4
100
AcDbEntity
  8
0
100
AcDbLine
 62
253
  6
CONTINUOUS
 10
-39.6564505792
 20
-11.7516623077
 11
-39.6563793596
 21
-11.7525011005
  0
LWPOLYLINE
  5
3E5
100
AcDbEntity
  8
0
100
AcDbPolyline
 62
253
  6
CONTINUOUS
 90
5
 70
0
 10
-39.6774527812
 20
-11.6535323333
 10
-39.6774331443
 20
-11.6537698269
 10
-39.6774122475
 20
-11.6540488363
 10
-39.6773900889
 20
-11.6543694029
 10
-39.6773666671
 20
-11.6547315684
  0
LINE
  5
3E6
100
AcDbEntity
  8
0
100
AcDbLine
 62
253
  6
CONTINUOUS
 10
-39.6894035105
 20
-10.5260398299
 11
-39.6894752835
 21
-10.5251683499
  0
LINE
  5
3E7
100
AcDbEntity
  8
0
100
AcDbLine
 62
253
  6
CONTINUOUS
 10
-39.6558574841
 20
-11.7798287404
 11
-39.6557858626
 21
-11.7807231435
  0
LWPOLYLINE
  5
3E8
100
AcDbEntity
  8
0
100
AcDbPolyline
 62
253
  6
CONTINUOUS
 90
21
 70
0
 10
-39.7150959285
 20
-10.1118505363
 10
-39.7151435543
 20
-10.1112559732
 10
-39.7151899508
 20
-10.1107094154
 10
-39.7152351198
 20
-10.1102108002
 10
-39.715279063
 20
-10.1097600651
 10
-39.7153217821
 20
-10.1093571478
 10
-39.7153632788
 20
-10.1090019855
 10
-39.7154035549
 20
-10.1086945159
 10
-39.7154426121
 20
-10.1084346765
 10
-39.715480452
 20
-10.1082224046
 10
-39.7155137946
 20
-10.1080707471
 10
-39.7155461183
 20
-10.1079588535
 10
-39.7155774089
 20
-10.1078872275
 10
-39.715607652
 20
-10.1078563725
 10
-39.7156368334
 20
-10.1078667923
 10
-39.7156649387
 20
-10.1079189903
 10
-39.7156919536
 20
-10.10801347
 10
-39.7157178638
 20
-10.1081507351
 10
-39.715742655
 20
-10.1083312891
 10
-39.7157663129
 20
-10.1085556356
 10
-39.7157888232
 20
-10.1088242782
  0
LINE
  5
3E9
100
AcDbEntity
  8
0
100
AcDbLine
 62
253
  6
CONTINUOUS
 10
-39.6565939748
 20
-11.7498722606
 11
-39.6565221059
 21
-11.7507858165
  0
LWPOLYLINE
  5
3EA
100
AcDbEntity
  8
0
100
AcDbPolyline
 62
253
  6
CONTINUOUS
 90
25
 70
0
 10
-39.6886829555
 20
-10.556836421
 10
-39.688779965
 20
-10.5556007792
 10
-39.6888747942
 20
-10.5544645169
 10
-39.6889674689
 20
-10.5534289713
 10
-39.6890580798
 20
-10.5524947548
 10
-39.6891466971
 20
-10.5516622208
 10
-39.6892333065
 20
-10.5509306861
 10
-39.6893178725
 20
-10.5502992087
 10
-39.6894003782
 20
-10.5497652948
 10
-39.6894808801
 20
-10.5493202453
 10
-39.689559453
 20
-10.5489538098
 10
-39.6896738986
 20
-10.5485288636
 10
-39.6897846522
 20
-10.5482220926
 10
-39.6898921676
 20
-10.5479965853
 10
-39.6899967879
 20
-10.5478190177
 10
-39.6900478772
 20
-10.5477607273
 10
-39.6900976551
 20
-10.5477494216
 10
-39.6901455633
 20
-10.5478104994
 10
-39.6901909646
 20
-10.5479634703
 10
-39.6902333505
 20
-10.5482213578
 10
-39.6902728063
 20
-10.5485771291
 10
-39.6903095595
 20
-10.5490191907
 10
-39.6903438148
 20
-10.549537761
 10
-39.6903757753
 20
-10.5501234722
 10
-39.6904056615
 20
-10.5507668
  0
LINE
  5
3EB
100
AcDbEntity
  8
0
100
AcDbLine
 62
253
  6
CONTINUOUS
 10
-39.6562836171
 20
-12.1942225389
 11
-39.6562413521
 21
-12.194763095
  0
LWPOLYLINE
  5
3EC
100
AcDbEntity
  8
0
100
AcDbPolyline
 62
253
  6
CONTINUOUS
 90
4
 70
0
 10
-39.6783687402
 20
-11.6224173333
 10
-39.6783353586
 20
-11.6228457124
 10
-39.678299323
 20
-11.6233642495
 10
-39.678260685
 20
-11.623971283
  0
LINE
  5
3ED
100
AcDbEntity
  8
0
100
AcDbLine
 62
253
  6
CONTINUOUS
 10
-39.6892577566
 20
-10.5278999506
 11
-39.6893310013
 21
-10.526950381
  0
LINE
  5
3EE
100
AcDbEntity
  8
0
100
AcDbLine
 62
253
  6
CONTINUOUS
 10
-39.6560034329
 20
-11.7779217777
 11
-39.6559300056
 21
-11.7788950149
  0
LINE
  5
3EF
100
AcDbEntity
  8
0
100
AcDbLine
 62
253
  6
CONTINUOUS
 10
-39.6567388795
 20
-11.7479364894
 11
-39.656666221
 21
-11.7489222737
  0
LWPOLYLINE
  5
3F0
100
AcDbEntity
  8
0
100
AcDbPolyline
 62
253
  6
CONTINUOUS
 90
7
 70
0
 10
-39.6572362597
 20
-12.162770781
 10
-39.6571812089
 20
-12.1635253311
 10
-39.6571281193
 20
-12.1642090595
 10
-39.6570769603
 20
-12.1648231198
 10
-39.6570276408
 20
-12.1653687318
 10
-39.6569800542
 20
-12.1658471316
 10
-39.6569340944
 20
-12.1662595554
  0
LINE
  5
3F1
100
AcDbEntity
  8
0
100
AcDbLine
 62
253
  6
CONTINUOUS
 10
-39.6563704573
 20
-12.1930396313
 11
-39.6563266498
 21
-12.1936481046
  0
LINE
  5
3F2
100
AcDbEntity
  8
0
100
AcDbLine
 62
253
  6
CONTINUOUS
 10
-39.6884834083
 20
-10.5595881735
 11
-39.6885840026
 21
-10.558167206
  0
LINE
  5
3F3
100
AcDbEntity
  8
0
100
AcDbLine
 62
253
  6
CONTINUOUS
 10
-39.6889701764
 20
-10.5319011098
 11
-39.6891837772
 21
-10.5288884867
  0
LINE
  5
3F4
100
AcDbEntity
  8
0
100
AcDbLine
 62
253
  6
CONTINUOUS
 10
-39.7149984593
 20
-10.1132090238
 11
-39.7150470718
 21
-10.1124931671
  0
LINE
  5
3F5
100
AcDbEntity
  8
0
100
AcDbLine
 62
253
  6
CONTINUOUS
 10
-39.6563224547
 20
-11.7733355919
 11
-39.6560827572
 21
-11.7768218658
  0
LINE
  5
3F6
100
AcDbEntity
  8
0
100
AcDbLine
 62
253
  6
CONTINUOUS
 10
-39.6564604246
 20
-12.191719924
 11
-39.6564150466
 21
-12.192396958
  0
LINE
  5
3F7
100
AcDbEntity
  8
0
100
AcDbLine
 62
253
  6
CONTINUOUS
 10
-39.6573523074
 20
-12.1610446666
 11
-39.6572932874
 21
-12.1619442719
  0
LINE
  5
3F8
100
AcDbEntity
  8
0
100
AcDbLine
 62
253
  6
CONTINUOUS
 10
-39.6570952741
 20
-11.7426866024
 11
-39.6568266757
 21
-11.7467065657
  0
LINE
  5
3F9
100
AcDbEntity
  8
0
100
AcDbLine
 62
253
  6
CONTINUOUS
 10
-39.6887571297
 20
-10.5351312079
 11
-39.6889701764
 21
-10.5319011098
  0
LINE
  5
3FA
100
AcDbEntity
  8
0
100
AcDbLine
 62
253
  6
CONTINUOUS
 10
-39.6565646973
 20
-11.7695733735
 11
-39.6563224547
 21
-11.7733355919
  0
LINE
  5
3FB
100
AcDbEntity
  8
0
100
AcDbLine
 62
253
  6
CONTINUOUS
 10
-39.6885382952
 20
-10.5386742999
 11
-39.6887571297
 21
-10.5351312079
  0
LWPOLYLINE
  5
3FC
100
AcDbEntity
  8
0
100
AcDbPolyline
 62
253
  6
CONTINUOUS
 90
24
 70
0
 10
-39.7140782538
 20
-10.1467658058
 10
-39.7141634491
 20
-10.1453493232
 10
-39.7142439542
 20
-10.1441088663
 10
-39.7143198115
 20
-10.1430416367
 10
-39.7143911482
 20
-10.1421426703
 10
-39.7144581584
 20
-10.1414048968
 10
-39.7145213052
 20
-10.1408128227
 10
-39.714581119
 20
-10.1403488483
 10
-39.7146240758
 20
-10.1400749053
 10
-39.7146654685
 20
-10.1398590508
 10
-39.7147438066
 20
-10.1395812869
 10
-39.7148169975
 20
-10.1394694028
 10
-39.7148516701
 20
-10.1394710682
 10
-39.7148846496
 20
-10.1395254215
 10
-39.7149154882
 20
-10.1396487031
 10
-39.714943804
 20
-10.1398535876
 10
-39.7149693142
 20
-10.1401492285
 10
-39.7149920676
 20
-10.1405342625
 10
-39.7150121896
 20
-10.1410051785
 10
-39.7150297789
 20
-10.1415603916
 10
-39.7150449161
 20
-10.1421985783
 10
-39.7150576341
 20
-10.1429175329
 10
-39.7150708719
 20
-10.1439976455
 10
-39.7150799399
 20
-10.1452116454
  0
LINE
  5
3FD
100
AcDbEntity
  8
0
100
AcDbLine
 62
253
  6
CONTINUOUS
 10
-39.6880649452
 20
-10.5661787154
 11
-39.6882777901
 21
-10.5626938201
  0
LINE
  5
3FE
100
AcDbEntity
  8
0
100
AcDbLine
 62
253
  6
CONTINUOUS
 10
-39.657342632
 20
-11.738656665
 11
-39.6570952741
 21
-11.7426866024
  0
LINE
  5
3FF
100
AcDbEntity
  8
0
100
AcDbLine
 62
253
  6
CONTINUOUS
 10
-39.6773419802
 20
-11.6551353742
 11
-39.6773160266
 21
-11.6555808619
  0
LINE
  5
400
100
AcDbEntity
  8
0
100
AcDbLine
 62
253
  6
CONTINUOUS
 10
-39.6575546111
 20
-12.1576627595
 11
-39.6574009663
 21
-12.1602716089
  0
LINE
  5
401
100
AcDbEntity
  8
0
100
AcDbLine
 62
253
  6
CONTINUOUS
 10
-39.7146897184
 20
-10.1182928625
 11
-39.7148476991
 21
-10.1155836962
  0
LINE
  5
402
100
AcDbEntity
  8
0
100
AcDbLine
 62
253
  6
CONTINUOUS
 10
-39.6570566137
 20
-11.7612403927
 11
-39.6566460012
 21
-11.7682588381
  0
LINE
  5
403
100
AcDbEntity
  8
0
100
AcDbLine
 62
253
  6
CONTINUOUS
 10
-39.6782194962
 20
-11.6246651511
 11
-39.6781758082
 21
-11.6254441921
  0
LINE
  5
404
100
AcDbEntity
  8
0
100
AcDbLine
 62
253
  6
CONTINUOUS
 10
-39.6878430032
 20
-10.5700812225
 11
-39.6880649452
 21
-10.5661787154
  0
LINE
  5
405
100
AcDbEntity
  8
0
100
AcDbLine
 62
253
  6
CONTINUOUS
 10
-39.6568009591
 20
-12.1859939919
 11
-39.6566499917
 21
-12.1886635773
  0
LINE
  5
406
100
AcDbEntity
  8
0
100
AcDbLine
 62
253
  6
CONTINUOUS
 10
-39.6576622628
 20
-11.7330165578
 11
-39.6574216187
 21
-11.7373072869
  0
LINE
  5
407
100
AcDbEntity
  8
0
100
AcDbLine
 62
253
  6
CONTINUOUS
 10
-39.6879594492
 20
-10.5489455101
 11
-39.6884640391
 21
-10.5399268657
  0
LINE
  5
408
100
AcDbEntity
  8
0
100
AcDbLine
 62
253
  6
CONTINUOUS
 10
-39.6772888046
 20
-11.656068073
 11
-39.6772603126
 21
-11.6565970492
  0
LINE
  5
409
100
AcDbEntity
  8
0
100
AcDbLine
 62
253
  6
CONTINUOUS
 10
-39.6577196114
 20
-12.1546114791
 11
-39.6575546111
 21
-12.1576627595
  0
LINE
  5
40A
100
AcDbEntity
  8
0
100
AcDbLine
 62
253
  6
CONTINUOUS
 10
-39.6574742518
 20
-11.7534732378
 11
-39.6570566137
 21
-11.7612403927
  0
LINE
  5
40B
100
AcDbEntity
  8
0
100
AcDbLine
 62
253
  6
CONTINUOUS
 10
-39.7137978597
 20
-10.152003166
 11
-39.7139886653
 21
-10.1483524492
  0
LINE
  5
40C
100
AcDbEntity
  8
0
100
AcDbLine
 62
253
  6
CONTINUOUS
 10
-39.7143529232
 20
-10.1246836886
 11
-39.71463549
 21
-10.1192688811
  0
LINE
  5
40D
100
AcDbEntity
  8
0
100
AcDbLine
 62
253
  6
CONTINUOUS
 10
-39.6571270124
 20
-12.1796298332
 11
-39.6568530251
 21
-12.185029767
  0
LINE
  5
40E
100
AcDbEntity
  8
0
100
AcDbLine
 62
253
  6
CONTINUOUS
 10
-39.6581594158
 20
-11.7233117778
 11
-39.6577434635
 21
-11.7315083977
  0
LINE
  5
40F
100
AcDbEntity
  8
0
100
AcDbLine
 62
253
  6
CONTINUOUS
 10
-39.6875323457
 20
-10.5573758388
 11
-39.6879594492
 21
-10.5489455101
  0
LINE
  5
410
100
AcDbEntity
  8
0
100
AcDbLine
 62
253
  6
CONTINUOUS
 10
-39.6781296727
 20
-11.6263067443
 11
-39.6779770979
 21
-11.6293788508
  0
LINE
  5
411
100
AcDbEntity
  8
0
100
AcDbLine
 62
253
  6
CONTINUOUS
 10
-39.6580798847
 20
-12.1472424531
 11
-39.6577770105
 21
-12.1534971601
  0
LINE
  5
412
100
AcDbEntity
  8
0
100
AcDbLine
 62
253
  6
CONTINUOUS
 10
-39.6586742255
 20
-11.7284976111
 11
-39.6575586778
 21
-11.7518274583
  0
LINE
  5
413
100
AcDbEntity
  8
0
100
AcDbLine
 62
253
  6
CONTINUOUS
 10
-39.6771995116
 20
-11.6577804628
 11
-39.6770682185
 21
-11.6605282962
  0
LINE
  5
414
100
AcDbEntity
  8
0
100
AcDbLine
 62
253
  6
CONTINUOUS
 10
-39.7140514258
 20
-10.1309898549
 11
-39.7143529232
 21
-10.1246836886
  0
LINE
  5
415
100
AcDbEntity
  8
0
100
AcDbLine
 62
253
  6
CONTINUOUS
 10
-39.7134896642
 20
-10.1585005501
 11
-39.7137978597
 21
-10.152003166
  0
LINE
  5
416
100
AcDbEntity
  8
0
100
AcDbLine
 62
253
  6
CONTINUOUS
 10
-39.6850694472
 20
-10.8023888074
 11
-39.6810762623
 21
-10.9057953562
  0
LINE
  5
417
100
AcDbEntity
  8
0
100
AcDbLine
 62
253
  6
CONTINUOUS
 10
-39.6807165481
 20
-10.7233460291
 11
-39.6875323457
 21
-10.5573758388
  0
LINE
  5
418
100
AcDbEntity
  8
0
100
AcDbLine
 62
253
  6
CONTINUOUS
 10
-39.6779770979
 20
-11.6293788508
 11
-39.6776357243
 21
-11.6370369747
  0
LINE
  5
419
100
AcDbEntity
  8
0
100
AcDbLine
 62
253
  6
CONTINUOUS
 10
-39.6592265775
 20
-12.1208570554
 11
-39.6571270124
 21
-12.1796298332
  0
LINE
  5
41A
100
AcDbEntity
  8
0
100
AcDbLine
 62
253
  6
CONTINUOUS
 10
-39.712997839
 20
-10.1699985346
 11
-39.7134896642
 21
-10.1585005501
  0
LINE
  5
41B
100
AcDbEntity
  8
0
100
AcDbLine
 62
253
  6
CONTINUOUS
 10
-39.7133870033
 20
-10.1464551049
 11
-39.7139888196
 21
-10.1323602379
  0
LINE
  5
41C
100
AcDbEntity
  8
0
100
AcDbLine
 62
253
  6
CONTINUOUS
 10
-39.6770338462
 20
-11.6612819577
 11
-39.6766711435
 21
-11.6698359765
  0
LINE
  5
41D
100
AcDbEntity
  8
0
100
AcDbLine
 62
253
  6
CONTINUOUS
 10
-39.6604199963
 20
-11.6718675014
 11
-39.6586742255
 21
-11.7284976111
  0
LINE
  5
41E
100
AcDbEntity
  8
0
100
AcDbLine
 62
253
  6
CONTINUOUS
 10
-39.6777554912
 20
-10.795257802
 11
-39.6807747075
 21
-10.7036959227
  0
LINE
  5
41F
100
AcDbEntity
  8
0
100
AcDbLine
 62
253
  6
CONTINUOUS
 10
-39.6814496253
 20
-10.8804176568
 11
-39.6790615082
 21
-10.9549506486
  0
LINE
  5
420
100
AcDbEntity
  8
0
100
AcDbLine
 62
253
  6
CONTINUOUS
 10
-39.6857066642
 20
-10.7869726786
 11
-39.684672016
 21
-10.8282945677
  0
LINE
  5
421
100
AcDbEntity
  8
0
100
AcDbLine
 62
253
  6
CONTINUOUS
 10
-39.6776357243
 20
-11.6370369747
 11
-39.6766401288
 21
-11.6623452826
  0
LINE
  5
422
100
AcDbEntity
  8
0
100
AcDbLine
 62
253
  6
CONTINUOUS
 10
-39.6755721017
 20
-10.8526871106
 11
-39.6771781651
 21
-10.7914683737
  0
LINE
  5
423
100
AcDbEntity
  8
0
100
AcDbLine
 62
253
  6
CONTINUOUS
 10
-39.6792701498
 20
-11.6418201111
 11
-39.6788784039
 21
-11.6523681667
  0
LINE
  5
424
100
AcDbEntity
  8
0
100
AcDbLine
 62
253
  6
CONTINUOUS
 10
-39.6766401288
 20
-11.6623452826
 11
-39.6587008545
 21
-12.1438934443
  0
LINE
  5
425
100
AcDbEntity
  8
0
100
AcDbLine
 62
253
  6
CONTINUOUS
 10
-39.6861406372
 20
-10.7754430035
 11
-39.6856896183
 21
-10.8036654751
  0
LINE
  5
426
100
AcDbEntity
  8
0
100
AcDbLine
 62
253
  6
CONTINUOUS
 10
-39.6791466205
 20
-10.935975296
 11
-39.6774590526
 21
-10.9977485918
  0
LWPOLYLINE
  5
427
100
AcDbEntity
  8
0
100
AcDbPolyline
 62
253
  6
CONTINUOUS
 90
3
 70
0
 10
-39.712053558
 20
-10.1949262787
 10
-39.7121805654
 20
-10.1913842282
 10
-39.7133870033
 20
-10.1464551049
  0
LINE
  5
428
100
AcDbEntity
  8
0
100
AcDbLine
 62
253
  6
CONTINUOUS
 10
-39.7122540761
 20
-10.1764949995
 11
-39.7123343658
 21
-10.1742457492
  0
LINE
  5
429
100
AcDbEntity
  8
0
100
AcDbLine
 62
253
  6
CONTINUOUS
 10
-39.661341806
 20
-11.6469876617
 11
-39.6605634938
 21
-11.6833625086
  0
LINE
  5
42A
100
AcDbEntity
  8
0
100
AcDbLine
 62
253
  6
CONTINUOUS
 10
-39.6804606579
 20
-11.6023778436
 11
-39.6798125058
 21
-11.6211473333
  0
LWPOLYLINE
  5
42B
100
AcDbEntity
  8
0
100
AcDbPolyline
 62
253
  6
CONTINUOUS
 90
3
 70
0
 10
-39.6975530162
 20
11.6055859813
 10
-39.6979964659
 20
11.5927846376
 10
-39.6993953038
 20
11.5500184022
  0
LINE
  5
42C
100
AcDbEntity
  8
0
100
AcDbLine
 62
253
  6
CONTINUOUS
 10
-39.7104954537
 20
10.9888380423
 11
-39.7052269875
 21
11.1346231562
  0
LINE
  5
42D
100
AcDbEntity
  8
0
100
AcDbLine
 62
253
  6
CONTINUOUS
 10
-39.6550211006
 20
12.9161116477
 11
-39.6524652462
 21
12.9868326556
  0
LINE
  5
42E
100
AcDbEntity
  8
0
100
AcDbLine
 62
253
  6
CONTINUOUS
 10
-39.6727099641
 20
12.453521032
 11
-39.6744300796
 21
12.4057743414
  0
LINE
  5
42F
100
AcDbEntity
  8
0
100
AcDbLine
 62
253
  6
CONTINUOUS
 10
-39.6317970704
 20
13.4506506855
 11
-39.6293693448
 21
13.516957882
  0
LINE
  5
430
100
AcDbEntity
  8
0
100
AcDbLine
 62
253
  6
CONTINUOUS
 10
-39.7062478912
 20
11.2405249576
 11
-39.702232626
 21
11.3524800452
  0
LINE
  5
431
100
AcDbEntity
  8
0
100
AcDbLine
 62
253
  6
CONTINUOUS
 10
-39.7189861629
 20
10.4091428047
 11
-39.7034323176
 21
10.8158276911
  0
LINE
  5
432
100
AcDbEntity
  8
0
100
AcDbLine
 62
253
  6
CONTINUOUS
 10
-39.7012574755
 20
10.6277681367
 11
-39.7216148391
 21
10.1111149996
  0
LINE
  5
433
100
AcDbEntity
  8
0
100
AcDbLine
 62
253
  6
CONTINUOUS
 10
-39.6721028636
 20
12.4684683681
 11
-39.6727099641
 21
12.453521032
  0
LINE
  5
434
100
AcDbEntity
  8
0
100
AcDbLine
 62
253
  6
CONTINUOUS
 10
-39.6524652462
 20
12.9868326556
 11
-39.6511369088
 21
13.0194497327
  0
LINE
  5
435
100
AcDbEntity
  8
0
100
AcDbLine
 62
253
  6
CONTINUOUS
 10
-39.704848694
 20
10.9622348325
 11
-39.7161226815
 21
10.6618283723
  0
LINE
  5
436
100
AcDbEntity
  8
0
100
AcDbLine
 62
253
  6
CONTINUOUS
 10
-39.6293693448
 20
13.516957882
 11
-39.6275341941
 21
13.5615128553
  0
LINE
  5
437
100
AcDbEntity
  8
0
100
AcDbLine
 62
253
  6
CONTINUOUS
 10
-39.7068944455
 20
11.2247753517
 11
-39.7062478912
 21
11.2405249576
  0
LINE
  5
438
100
AcDbEntity
  8
0
100
AcDbLine
 62
253
  6
CONTINUOUS
 10
-39.7216148391
 20
10.1111149996
 11
-39.7223442329
 21
10.0945325607
  0
LINE
  5
439
100
AcDbEntity
  8
0
100
AcDbLine
 62
253
  6
CONTINUOUS
 10
-39.6511369088
 20
13.0194497327
 11
-39.6502779588
 21
13.038411942
  0
LINE
  5
43A
100
AcDbEntity
  8
0
100
AcDbLine
 62
253
  6
CONTINUOUS
 10
-39.6275341941
 20
13.5615128553
 11
-39.6264527826
 21
13.5851086013
  0
LINE
  5
43B
100
AcDbEntity
  8
0
100
AcDbLine
 62
253
  6
CONTINUOUS
 10
-39.6717393217
 20
12.4764800415
 11
-39.6721028636
 21
12.4684683681
  0
LINE
  5
43C
100
AcDbEntity
  8
0
100
AcDbLine
 62
253
  6
CONTINUOUS
 10
-39.7161226815
 20
10.6618283723
 11
-39.7167161176
 21
10.6487952241
  0
LINE
  5
43D
100
AcDbEntity
  8
0
100
AcDbLine
 62
253
  6
CONTINUOUS
 10
-39.7072327858
 20
11.2174647804
 11
-39.7068944455
 21
11.2247753517
  0
LWPOLYLINE
  5
43E
100
AcDbEntity
  8
0
100
AcDbPolyline
 62
7
  6
CONTINUOUS
 90
4
 70
0
 10
-39.3135619228
 20
21.1957223416
 10
-39.4207509255
 20
19.0316623774
 10
-39.5198529294
 20
16.7789769296
 10
-39.606255665
 20
14.5257743324
  0
LINE
  5
43F
100
AcDbEntity
  8
0
100
AcDbLine
 62
253
  6
CONTINUOUS
 10
-39.6502779588
 20
13.038411942
 11
-39.6497990449
 21
13.0480154999
  0
LINE
  5
440
100
AcDbEntity
  8
0
100
AcDbLine
 62
253
  6
CONTINUOUS
 10
-39.7223442329
 20
10.0945325607
 11
-39.7229281933
 21
10.0826804118
  0
LINE
  5
441
100
AcDbEntity
  8
0
100
AcDbLine
 62
253
  6
CONTINUOUS
 10
-39.6264527826
 20
13.5851086013
 11
-39.6256435268
 21
13.6011852384
  0
LINE
  5
442
100
AcDbEntity
  8
0
100
AcDbLine
 62
253
  6
CONTINUOUS
 10
-39.7167161176
 20
10.6487952241
 11
-39.7170838863
 21
10.6415350553
  0
LWPOLYLINE
  5
443
100
AcDbEntity
  8
0
100
AcDbPolyline
 62
253
  6
CONTINUOUS
 90
3
 70
0
 10
-39.7074639004
 20
11.2130851012
 10
-39.7074095795
 20
11.2140539107
 10
-39.7072327858
 20
11.2174647804
  0
LINE
  5
444
100
AcDbEntity
  8
0
100
AcDbLine
 62
253
  6
CONTINUOUS
 10
-39.6256435268
 20
13.6011852384
 11
-39.6250615115
 21
13.6117808391
  0
LINE
  5
445
100
AcDbEntity
  8
0
100
AcDbLine
 62
253
  6
CONTINUOUS
 10
-39.6497990449
 20
13.0480154999
 11
-39.6493795098
 21
13.0556576225
  0
LINE
  5
446
100
AcDbEntity
  8
0
100
AcDbLine
 62
253
  6
CONTINUOUS
 10
-39.7229281933
 20
10.0826804118
 11
-39.723378441
 21
10.0744692883
  0
LWPOLYLINE
  5
447
100
AcDbEntity
  8
0
100
AcDbPolyline
 62
253
  6
CONTINUOUS
 90
3
 70
0
 10
-39.7170838863
 20
10.6415350553
 10
-39.7173428988
 20
10.6368790411
 10
-39.7174257684
 20
10.6354826015
  0
LWPOLYLINE
  5
448
100
AcDbEntity
  8
0
100
AcDbPolyline
 62
253
  6
CONTINUOUS
 90
3
 70
0
 10
-39.6493795098
 20
13.0556576225
 10
-39.6491513979
 20
13.0594202887
 10
-39.6490436066
 20
13.0610784982
  0
LINE
  5
449
100
AcDbEntity
  8
0
100
AcDbLine
 62
253
  6
CONTINUOUS
 10
-39.7075653785
 20
11.2114054576
 11
-39.7075158472
 21
11.2122019638
  0
LINE
  5
44A
100
AcDbEntity
  8
0
100
AcDbLine
 62
253
  6
CONTINUOUS
 10
-39.6250615115
 20
13.6117808391
 11
-39.6245049952
 21
13.6210029218
  0
LWPOLYLINE
  5
44B
100
AcDbEntity
  8
0
100
AcDbPolyline
 62
253
  6
CONTINUOUS
 90
3
 70
0
 10
-39.723378441
 20
10.0744692883
 10
-39.7237036753
 20
10.0690969639
 10
-39.7238094051
 20
10.0674611736
  0
LINE
  5
44C
100
AcDbEntity
  8
0
100
AcDbLine
 62
253
  6
CONTINUOUS
 10
-39.7175068166
 20
10.6341658837
 11
-39.7175859909
 21
10.632930057
  0
LINE
  5
44D
100
AcDbEntity
  8
0
100
AcDbLine
 62
253
  6
CONTINUOUS
 10
-39.6245049952
 20
13.6210029218
 11
-39.6241522243
 21
13.6262926838
  0
LINE
  5
44E
100
AcDbEntity
  8
0
100
AcDbLine
 62
253
  6
CONTINUOUS
 10
-39.7239136935
 20
10.0659048969
 11
-39.7240164779
 21
10.0644295433
  0
LINE
  5
44F
100
AcDbEntity
  8
0
100
AcDbLine
 62
253
  6
CONTINUOUS
 10
-39.7176632387
 20
10.6317762906
 11
-39.7177385062
 21
10.6307057698
  0
LWPOLYLINE
  5
450
100
AcDbEntity
  8
0
100
AcDbPolyline
 62
253
  6
CONTINUOUS
 90
17
 70
0
 10
-39.6489400058
 20
13.0625864177
 10
-39.6488404158
 20
13.0639457222
 10
-39.6487260649
 20
13.0653812943
 10
-39.6486176157
 20
13.0665974881
 10
-39.648515453
 20
13.0675865187
 10
-39.6484199617
 20
13.0683406014
 10
-39.6483315266
 20
13.0688519516
 10
-39.6482504628
 20
13.0691150759
 10
-39.6481768053
 20
13.0691336471
 10
-39.6481105192
 20
13.0689136292
 10
-39.6480515696
 20
13.0684609864
 10
-39.6479999218
 20
13.0677816829
 10
-39.6479624199
 20
13.0670460686
 10
-39.6479298564
 20
13.0661565206
 10
-39.6479021233
 20
13.0651123668
 10
-39.6478791407
 20
13.0639138956
 10
-39.6478609422
 20
13.0625652373
  0
LWPOLYLINE
  5
451
100
AcDbEntity
  8
0
100
AcDbPolyline
 62
253
  6
CONTINUOUS
 90
23
 70
0
 10
-39.6241522243
 20
13.6262926838
 10
-39.6238721002
 20
13.6301203154
 10
-39.6237378369
 20
13.6318200936
 10
-39.6236079408
 20
13.6333699098
 10
-39.623482302
 20
13.6347698544
 10
-39.6233606961
 20
13.6360213225
 10
-39.6232199166
 20
13.6373273851
 10
-39.6230850748
 20
13.6384140158
 10
-39.6229566241
 20
13.6392735802
 10
-39.6228350182
 20
13.639898444
 10
-39.6227207104
 20
13.6402809729
 10
-39.6226140806
 20
13.6404158125
 10
-39.6225152137
 20
13.6403067298
 10
-39.6224241209
 20
13.6399597716
 10
-39.6223408133
 20
13.6393809848
 10
-39.622265302
 20
13.6385764166
 10
-39.6222083136
 20
13.6377370899
 10
-39.6221565982
 20
13.6367442073
 10
-39.622110007
 20
13.6355968063
 10
-39.6220684374
 20
13.6342949935
 10
-39.6220319731
 20
13.6328431524
 10
-39.6220007444
 20
13.6312467354
 10
-39.6219703059
 20
13.6291476754
  0
LINE
  5
452
100
AcDbEntity
  8
0
100
AcDbLine
 62
253
  6
CONTINUOUS
 10
-39.724117696
 20
10.0630365221
 11
-39.7242172854
 21
10.0617272427
  0
LWPOLYLINE
  5
453
100
AcDbEntity
  8
0
100
AcDbPolyline
 62
253
  6
CONTINUOUS
 90
22
 70
0
 10
-38.9632043075
 20
21.2028207849
 10
-38.9566355459
 20
21.2868284642
 10
-38.9441812745
 20
21.3701628605
 10
-38.9259039748
 20
21.4524133593
 10
-38.9018960274
 20
21.5331692485
 10
-38.8722760558
 20
21.6120388182
 10
-38.8371844257
 20
21.6886498512
 10
-38.7967877556
 20
21.7626292904
 10
-38.7512850755
 20
21.833605447
 10
-38.7009011841
 20
21.9012260419
 10
-38.6458821241
 20
21.9651558722
 10
-38.5864966222
 20
22.0250786398
 10
-38.5230379086
 20
22.0806973934
 10
-38.4558148328
 20
22.131737019
 10
-38.3851583035
 20
22.1779424613
 10
-38.3114230954
 20
22.2190812043
 10
-38.2349756069
 20
22.2549472322
 10
-38.1561877459
 20
22.2853647086
 10
-38.0754426305
 20
22.310184359
 10
-37.9931354817
 20
22.3292811376
 10
-37.9096724182
 20
22.3425568096
 10
-37.8254642447
 20
22.3499427471
  0
LWPOLYLINE
  5
454
100
AcDbEntity
  8
0
100
AcDbPolyline
 62
253
  6
CONTINUOUS
 90
22
 70
0
 10
-38.4778764932
 20
21.1813786632
 10
-38.47399854
 20
21.2305263962
 10
-38.4667668722
 20
21.2788878759
 10
-38.45618149
 20
21.3264631023
 10
-38.4421579025
 20
21.3735008846
 10
-38.4247806006
 20
21.4197524137
 10
-38.4043030565
 20
21.4644712617
 10
-38.3806809436
 20
21.5076136032
 10
-38.3539585885
 20
21.5492232636
 10
-38.3245224438
 20
21.5886852917
 10
-38.2923292053
 20
21.6259700095
 10
-38.2574221772
 20
21.6611070949
 10
-38.2203177244
 20
21.69357063
 10
-38.1809831672
 20
21.7233189671
 10
-38.1394511853
 20
21.7503937539
 10
-38.0963361822
 20
21.7743940152
 10
-38.0515928401
 20
21.7952750042
 10
-38.0052664768
 20
21.8130814677
 10
-37.9581074495
 20
21.8275466705
 10
-37.9103658773
 20
21.8385817009
 10
-37.861791641
 20
21.8462754707
 10
-37.8123847408
 20
21.8506279797
  0
LWPOLYLINE
  5
455
100
AcDbEntity
  8
0
100
AcDbPolyline
 62
253
  6
CONTINUOUS
 90
11
 70
0
 10
-39.7178117336
 20
10.6297197436
 10
-39.7178828599
 20
10.6288194768
 10
-39.7179518241
 20
10.6280062345
 10
-39.7180185651
 20
10.6272812816
 10
-39.7180830218
 20
10.626645883
 10
-39.7181451427
 20
10.6261015121
 10
-39.7182049134
 20
10.6256504763
 10
-39.7182623293
 20
10.6252952914
 10
-39.7183173854
 20
10.6250384731
 10
-39.718370077
 20
10.6248825372
 10
-39.7184203993
 20
10.6248299995
  0
LWPOLYLINE
  5
456
100
AcDbEntity
  8
0
100
AcDbPolyline
 62
253
  6
CONTINUOUS
 90
13
 70
0
 10
-39.7243151836
 20
10.0605031143
 10
-39.7244113248
 20
10.0593655844
 10
-39.72450563
 20
10.0583162529
 10
-39.7245980167
 20
10.0573567579
 10
-39.7246884025
 20
10.0564887372
 10
-39.7247767049
 20
10.055713829
 10
-39.7248628415
 20
10.0550336711
 10
-39.7249467463
 20
10.0544501279
 10
-39.7250284184
 20
10.0539659678
 10
-39.7251078735
 20
10.0535841857
 10
-39.7251851272
 20
10.0533077764
 10
-39.7252601951
 20
10.0531397347
 10
-39.7253330929
 20
10.0530830552
  0
LWPOLYLINE
  5
457
100
AcDbEntity
  8
0
100
AcDbPolyline
 62
253
  6
CONTINUOUS
 90
21
 70
0
 10
-39.656003493
 20
-12.1973039999
 10
-39.6559644211
 20
-12.1976273534
 10
-39.6559266476
 20
-12.1979057862
 10
-39.6558901723
 20
-12.1981390894
 10
-39.6558549951
 20
-12.1983270538
 10
-39.655821116
 20
-12.1984694707
 10
-39.6557885348
 20
-12.1985661311
 10
-39.6557572515
 20
-12.1986168261
 10
-39.6557272708
 20
-12.1986213142
 10
-39.6556986178
 20
-12.1985792233
 10
-39.6556713224
 20
-12.1984901489
 10
-39.6556454145
 20
-12.1983536865
 10
-39.6556209242
 20
-12.1981694314
 10
-39.6555978814
 20
-12.1979369791
 10
-39.6555763161
 20
-12.197655925
 10
-39.6555586811
 20
-12.1973697699
 10
-39.6555422147
 20
-12.1970455467
 10
-39.6555269318
 20
-12.1966827078
 10
-39.6555128468
 20
-12.1962807055
 10
-39.6554999744
 20
-12.1958389923
 10
-39.6554883292
 20
-12.1953570206
  0
LINE
  5
458
100
AcDbEntity
  8
0
100
AcDbLine
 62
253
  6
CONTINUOUS
 10
-39.6785194269
 20
-11.6211473333
 11
-39.6783687402
 21
-11.6224173333
  0
LINE
  5
459
100
AcDbEntity
  8
0
100
AcDbLine
 62
253
  6
CONTINUOUS
 10
-39.6775858391
 20
-11.6523681667
 11
-39.6774527812
 21
-11.6535323333
  0
LWPOLYLINE
  5
45A
100
AcDbEntity
  8
0
100
AcDbPolyline
 62
253
  6
CONTINUOUS
 90
16
 70
0
 10
-39.4117268868
 20
1.073509676
 10
-39.4089634415
 20
1.0205210812
 10
-39.4009179248
 20
0.96927052
 10
-39.3878077469
 20
0.9196403386
 10
-39.3695218515
 20
0.871308658
 10
-39.3460384719
 20
0.8245962684
 10
-39.31788201
 20
0.7806251353
 10
-39.2855042926
 20
0.7400843691
 10
-39.248971509
 20
0.7030477729
 10
-39.2087356227
 20
0.6699495191
 10
-39.1653863861
 20
0.6413076785
 10
-39.1193369455
 20
0.6173860253
 10
-39.0709582629
 20
0.5983473838
 10
-39.0207974048
 20
0.5844490726
 10
-38.9695627236
 20
0.5759034286
 10
-38.9179144682
 20
0.5727615277
  0
LWPOLYLINE
  5
45B
100
AcDbEntity
  8
0
100
AcDbPolyline
 62
253
  6
CONTINUOUS
 90
10
 70
0
 10
-38.9632043248
 20
-20.5517141949
 10
-39.0572524227
 20
-18.2380660786
 10
-39.138980893
 20
-15.962448321
 10
-39.2089273813
 20
-13.724930732
 10
-39.2670046444
 20
-11.5507848678
 10
-39.3145720331
 20
-9.4148680812
 10
-39.353320195
 20
-7.2415987864
 10
-39.3830260449
 20
-5.0057987437
 10
-39.4026689626
 20
-2.732718305
 10
-39.4117268069
 20
-0.4224030766
  0
LWPOLYLINE
  5
45C
100
AcDbEntity
  8
0
100
AcDbPolyline
 62
253
  6
CONTINUOUS
 90
10
 70
0
 10
-38.4778765063
 20
-20.5302720526
 10
-38.5710822521
 20
-18.2189073318
 10
-38.6530267089
 20
-15.945661647
 10
-38.7237098767
 20
-13.7105349982
 10
-38.7825644308
 20
-11.5386621626
 10
-38.8301576959
 20
-9.4049083629
 10
-38.8681916458
 20
-7.2338692679
 10
-38.8972336051
 20
-5.0004101006
 10
-38.9167162492
 20
-2.7296656379
 10
-38.9272567969
 20
-0.3187259615
  0
LWPOLYLINE
  5
45D
100
AcDbEntity
  8
0
100
AcDbPolyline
 62
7
  6
CONTINUOUS
 90
5
 70
0
 10
-39.6799562182
 20
-11.6210195546
 10
-39.606255665
 20
-13.874667724
 10
-39.5198529294
 20
-16.1278703212
 10
-39.4207509255
 20
-18.3805557689
 10
-39.3135619228
 20
-20.5446157331
  0
LINE
  5
45E
100
AcDbEntity
  8
0
100
AcDbLine
 62
253
  6
CONTINUOUS
 10
-39.6700905028
 20
-11.0123293164
 11
-39.675089389
 21
-10.8468875431
  0
LINE
  5
45F
100
AcDbEntity
  8
0
100
AcDbLine
 62
253
  6
CONTINUOUS
 10
-39.687213159
 20
-10.7436773648
 11
-39.6862657646
 21
-10.7881959436
  0
LINE
  5
460
100
AcDbEntity
  8
0
100
AcDbLine
 62
253
  6
CONTINUOUS
 10
-39.6771746666
 20
-10.9885266601
 11
-39.6745094879
 21
-11.0850881921
  0
LINE
  5
461
100
AcDbEntity
  8
0
100
AcDbLine
 62
253
  6
CONTINUOUS
 10
-39.710799646
 20
-10.2327295691
 11
-39.7122540761
 21
-10.1764949995
  0
LINE
  5
462
100
AcDbEntity
  8
0
100
AcDbLine
 62
253
  6
CONTINUOUS
 10
-39.6628450097
 20
-11.6001563555
 11
-39.6614318272
 21
-11.6599214668
  0
LINE
  5
463
100
AcDbEntity
  8
0
100
AcDbLine
 62
253
  6
CONTINUOUS
 10
-39.6647740112
 20
-11.1907672648
 11
-39.6695683798
 21
-11.0081279329
  0
LINE
  5
464
100
AcDbEntity
  8
0
100
AcDbLine
 62
7
  6
CONTINUOUS
 10
-39.7409516746
 20
-9.3669974074
 11
-39.6799562182
 21
-11.6210195546
  0
LINE
  5
465
100
AcDbEntity
  8
0
100
AcDbLine
 62
253
  6
CONTINUOUS
 10
-39.6889364213
 20
-10.7025383189
 11
-39.687549742
 21
-10.7500597194
  0
LINE
  5
466
100
AcDbEntity
  8
0
100
AcDbLine
 62
253
  6
CONTINUOUS
 10
-39.6741175501
 20
-11.0791672593
 11
-39.6708156034
 21
-11.1922654063
  0
LINE
  5
467
100
AcDbEntity
  8
0
100
AcDbLine
 62
253
  6
CONTINUOUS
 10
-39.6574879689
 20
-12.0835937937
 11
-39.710756414
 21
-10.2217064005
  0
LINE
  5
468
100
AcDbEntity
  8
0
100
AcDbLine
 62
253
  6
CONTINUOUS
 10
-39.6646257847
 20
-11.5541105467
 11
-39.6632583643
 21
-11.6035175178
  0
LINE
  5
469
100
AcDbEntity
  8
0
100
AcDbLine
 62
253
  6
CONTINUOUS
 10
-39.6596667435
 20
-11.3689548851
 11
-39.6647740112
 21
-11.1907672648
  0
LINE
  5
46A
100
AcDbEntity
  8
0
100
AcDbLine
 62
253
  6
CONTINUOUS
 10
-39.6715350816
 20
-11.1868102538
 11
-39.6683306321
 21
-11.29325711
  0
LINE
  5
46B
100
AcDbEntity
  8
0
100
AcDbLine
 62
253
  6
CONTINUOUS
 10
-39.6901867676
 20
-10.652073157
 11
-39.6883745232
 21
-10.7042137149
  0
LINE
  5
46C
100
AcDbEntity
  8
0
100
AcDbLine
 62
253
  6
CONTINUOUS
 10
-39.6563469717
 20
-12.1307713644
 11
-39.6581615571
 21
-12.0722859539
  0
LINE
  5
46D
100
AcDbEntity
  8
0
100
AcDbLine
 62
253
  6
CONTINUOUS
 10
-39.6654504571
 20
-11.5188729998
 11
-39.66378557
 21
-11.5663957666
  0
LINE
  5
46E
100
AcDbEntity
  8
0
100
AcDbLine
 62
253
  6
CONTINUOUS
 10
-39.6691787239
 20
-11.2822401712
 11
-39.6668578871
 21
-11.3662354815
  0
LINE
  5
46F
100
AcDbEntity
  8
0
100
AcDbLine
 62
253
  6
CONTINUOUS
 10
-39.6564637721
 20
-11.5255420766
 11
-39.6603551155
 21
-11.3679169499
  0
LINE
  5
470
100
AcDbEntity
  8
0
100
AcDbLine
 62
253
  6
CONTINUOUS
 10
-39.6908236385
 20
-10.6198640901
 11
-39.6894597284
 21
-10.6603399577
  0
LINE
  5
471
100
AcDbEntity
  8
0
100
AcDbLine
 62
253
  6
CONTINUOUS
 10
-39.6557743916
 20
-12.1596571084
 11
-39.6572389517
 21
-12.1102654502
  0
LINE
  5
472
100
AcDbEntity
  8
0
100
AcDbLine
 62
253
  6
CONTINUOUS
 10
-39.7260284179
 20
10.0631107095
 11
-39.7260901022
 21
10.0663547589
  0
LWPOLYLINE
  5
473
100
AcDbEntity
  8
0
100
AcDbPolyline
 62
253
  6
CONTINUOUS
 90
9
 70
0
 10
-38.9262067393
 20
0.7389540967
 10
-38.9255623404
 20
0.7018208806
 10
-38.9247857301
 20
0.6687550883
 10
-38.9238851771
 20
0.6401191788
 10
-38.9228706176
 20
0.6162380931
 10
-38.9217534478
 20
0.5973831321
 10
-38.9205460793
 20
0.5837629088
 10
-38.9192617067
 20
0.5755254689
 10
-38.9179144682
 20
0.5727615277
  0
LINE
  5
474
100
AcDbEntity
  8
0
100
AcDbLine
 62
253
  6
CONTINUOUS
 10
-39.7154547952
 20
-10.162658167
 11
-39.7055080488
 21
-10.6619377825
  0
LINE
  5
475
100
AcDbEntity
  8
0
100
AcDbLine
 62
253
  6
CONTINUOUS
 10
-39.6658669703
 20
-11.4969054916
 11
-39.6645674241
 21
-11.5332649169
  0
LWPOLYLINE
  5
476
100
AcDbEntity
  8
0
100
AcDbPolyline
 62
253
  6
CONTINUOUS
 90
3
 70
0
 10
-39.7066596318
 20
-10.6869525884
 10
-39.7066524139
 20
-10.6874033049
 10
-39.7065987564
 20
-10.6900471696
  0
LINE
  5
477
100
AcDbEntity
  8
0
100
AcDbLine
 62
253
  6
CONTINUOUS
 10
-39.7075333861
 20
-10.6542540002
 11
-39.7074623947
 21
-10.6588048336
  0
LINE
  5
478
100
AcDbEntity
  8
0
100
AcDbLine
 62
253
  6
CONTINUOUS
 10
-39.6556011572
 20
-12.1704928888
 11
-39.6557743916
 21
-12.1596571084
  0
LINE
  5
479
100
AcDbEntity
  8
0
100
AcDbLine
 62
253
  6
CONTINUOUS
 10
-39.6548723021
 20
-11.6251360158
 11
-39.6574742035
 21
-11.508972279
  0
LINE
  5
47A
100
AcDbEntity
  8
0
100
AcDbLine
 62
253
  6
CONTINUOUS
 10
-39.7063467457
 20
-10.6342785831
 11
-39.7062429304
 21
-10.6411091726
  0
LINE
  5
47B
100
AcDbEntity
  8
0
100
AcDbLine
 62
253
  6
CONTINUOUS
 10
-39.6914472934
 20
-10.5781598336
 11
-39.6899507204
 21
-10.6353718769
  0
LINE
  5
47C
100
AcDbEntity
  8
0
100
AcDbLine
 62
253
  6
CONTINUOUS
 10
-39.6678393908
 20
-11.3479761506
 11
-39.6660135313
 21
-11.4219647799
  0
LINE
  5
47D
100
AcDbEntity
  8
0
100
AcDbLine
 62
253
  6
CONTINUOUS
 10
-39.7055080488
 20
-10.6619377825
 11
-39.7053643983
 21
-10.6715778139
  0
LINE
  5
47E
100
AcDbEntity
  8
0
100
AcDbLine
 62
253
  6
CONTINUOUS
 10
-39.6565528111
 20
-12.1477590836
 11
-39.6567675251
 21
-12.133773789
  0
LINE
  5
47F
100
AcDbEntity
  8
0
100
AcDbLine
 62
253
  6
CONTINUOUS
 10
-39.6662598805
 20
-11.4691464507
 11
-39.6649007401
 21
-11.5157462984
  0
LINE
  5
480
100
AcDbEntity
  8
0
100
AcDbLine
 62
253
  6
CONTINUOUS
 10
-39.7260901022
 20
10.0663547589
 11
-39.7261392866
 21
10.0700285365
  0
LINE
  5
481
100
AcDbEntity
  8
0
100
AcDbLine
 62
253
  6
CONTINUOUS
 10
-39.715848372
 20
-10.1344096222
 11
-39.7146738656
 21
-10.1847067781
  0
LINE
  5
482
100
AcDbEntity
  8
0
100
AcDbLine
 62
253
  6
CONTINUOUS
 10
-39.6670503896
 20
-11.399548823
 11
-39.665175802
 21
-11.4969123596
  0
LINE
  5
483
100
AcDbEntity
  8
0
100
AcDbLine
 62
253
  6
CONTINUOUS
 10
-39.7187987469
 20
10.6324566815
 11
-39.7188129904
 21
10.6338655305
  0
LINE
  5
484
100
AcDbEntity
  8
0
100
AcDbLine
 62
253
  6
CONTINUOUS
 10
-39.7062322566
 20
-10.641942909
 11
-39.7061987877
 21
-10.6450115169
  0
LINE
  5
485
100
AcDbEntity
  8
0
100
AcDbLine
 62
253
  6
CONTINUOUS
 10
-39.7066695331
 20
-10.6860941489
 11
-39.7066658605
 21
-10.6864820512
  0
LINE
  5
486
100
AcDbEntity
  8
0
100
AcDbLine
 62
253
  6
CONTINUOUS
 10
-39.7053643983
 20
-10.6715778139
 11
-39.7053251984
 21
-10.675238896
  0
LINE
  5
487
100
AcDbEntity
  8
0
100
AcDbLine
 62
253
  6
CONTINUOUS
 10
-39.6541394539
 20
-11.6892122739
 11
-39.6558630815
 21
-11.6098079518
  0
LINE
  5
488
100
AcDbEntity
  8
0
100
AcDbLine
 62
253
  6
CONTINUOUS
 10
-39.6564884132
 20
-12.1539080884
 11
-39.6565528111
 21
-12.1477590836
  0
LINE
  5
489
100
AcDbEntity
  8
0
100
AcDbLine
 62
253
  6
CONTINUOUS
 10
-39.6554781608
 20
-12.1814509476
 11
-39.6555810791
 21
-12.1720077415
  0
LINE
  5
48A
100
AcDbEntity
  8
0
100
AcDbLine
 62
253
  6
CONTINUOUS
 10
-38.9270731126
 20
0.8238262645
 11
-38.9262067393
 21
0.7389540967
  0
LINE
  5
48B
100
AcDbEntity
  8
0
100
AcDbLine
 62
253
  6
CONTINUOUS
 10
-39.7159331981
 20
-10.1251798291
 11
-39.7158622846
 21
-10.1331606758
  0
LINE
  5
48C
100
AcDbEntity
  8
0
100
AcDbLine
 62
253
  6
CONTINUOUS
 10
-39.6915865959
 20
-10.5626247743
 11
-39.6914472934
 21
-10.5781598336
  0
LINE
  5
48D
100
AcDbEntity
  8
0
100
AcDbLine
 62
253
  6
CONTINUOUS
 10
-39.6219703059
 20
13.6291476754
 11
-39.6219321146
 21
13.6243815078
  0
LINE
  5
48E
100
AcDbEntity
  8
0
100
AcDbLine
 62
253
  6
CONTINUOUS
 10
-39.7261392866
 20
10.0700285365
 11
-39.7261888418
 21
10.076306468
  0
LINE
  5
48F
100
AcDbEntity
  8
0
100
AcDbLine
 62
253
  6
CONTINUOUS
 10
-39.6536154483
 20
-11.751142776
 11
-39.6551709839
 21
-11.6709760198
  0
LINE
  5
490
100
AcDbEntity
  8
0
100
AcDbLine
 62
253
  6
CONTINUOUS
 10
-39.6478609422
 20
13.0625652373
 11
-39.6478380074
 21
13.0590944973
  0
LWPOLYLINE
  5
491
100
AcDbEntity
  8
0
100
AcDbPolyline
 62
7
  6
CONTINUOUS
 90
5
 70
0
 10
-39.8576991995
 20
-0.4264518826
 10
-39.8476824177
 20
-2.6034032536
 10
-39.8248161616
 20
-4.858117623
 10
-39.7892391192
 20
-7.1126728936
 10
-39.7409516746
 20
-9.3669974074
  0
LINE
  5
492
100
AcDbEntity
  8
0
100
AcDbLine
 62
253
  6
CONTINUOUS
 10
-39.6906615103
 20
-10.5740300876
 11
-39.6904968345
 21
-10.5979506669
  0
LWPOLYLINE
  5
493
100
AcDbEntity
  8
0
100
AcDbPolyline
 62
253
  6
CONTINUOUS
 90
3
 70
0
 10
-39.7150830384
 20
-10.1496024824
 10
-39.7150763086
 20
-10.1512966988
 10
-39.7150143749
 20
-10.1590371378
  0
LINE
  5
494
100
AcDbEntity
  8
0
100
AcDbLine
 62
253
  6
CONTINUOUS
 10
-39.6554443738
 20
-12.1869694252
 11
-39.6554781608
 21
-12.1814509476
  0
LWPOLYLINE
  5
495
100
AcDbEntity
  8
0
100
AcDbPolyline
 62
253
  6
CONTINUOUS
 90
3
 70
0
 10
-39.7061927675
 20
-10.6457065142
 10
-39.7061788116
 20
-10.6481099908
 10
-39.7061775495
 20
-10.6486269395
  0
LWPOLYLINE
  5
496
100
AcDbEntity
  8
0
100
AcDbPolyline
 62
253
  6
CONTINUOUS
 90
3
 70
0
 10
-39.7053168664
 20
-10.6762886243
 10
-39.705304108
 20
-10.6789912021
 10
-39.7053034581
 20
-10.679759031
  0
LINE
  5
497
100
AcDbEntity
  8
0
100
AcDbLine
 62
253
  6
CONTINUOUS
 10
-39.6916654013
 20
-10.5462175633
 11
-39.6915865959
 21
-10.5626247743
  0
LWPOLYLINE
  5
498
100
AcDbEntity
  8
0
100
AcDbPolyline
 62
253
  6
CONTINUOUS
 90
3
 70
0
 10
-39.6564614148
 20
-12.1591726416
 10
-39.6564658088
 20
-12.1575355921
 10
-39.6564884132
 20
-12.1539080884
  0
LINE
  5
499
100
AcDbEntity
  8
0
100
AcDbLine
 62
253
  6
CONTINUOUS
 10
-39.7159536438
 20
-10.1203825146
 11
-39.7159331981
 21
-10.1251798291
  0
LWPOLYLINE
  5
49A
100
AcDbEntity
  8
0
100
AcDbPolyline
 62
253
  6
CONTINUOUS
 90
10
 70
0
 10
-39.7079956873
 20
11.2129645584
 10
-39.7079939964
 20
11.2118992623
 10
-39.7079884534
 20
11.2109692179
 10
-39.7079806428
 20
11.2102794278
 10
-39.7079699354
 20
11.2096903248
 10
-39.7079562399
 20
11.2092038897
 10
-39.7079394655
 20
11.2088221033
 10
-39.7079195208
 20
11.2085469463
 10
-39.7078963148
 20
11.2083803996
 10
-39.7078697565
 20
11.2083244438
  0
LINE
  5
49B
100
AcDbEntity
  8
0
100
AcDbLine
 62
253
  6
CONTINUOUS
 10
-39.7066716443
 20
-10.6854748336
 11
-39.7066712583
 21
-10.6857660276
  0
LINE
  5
49C
100
AcDbEntity
  8
0
100
AcDbLine
 62
253
  6
CONTINUOUS
 10
-38.9273461572
 20
0.9195109552
 11
-38.9270731126
 21
0.8238262645
  0
LINE
  5
49D
100
AcDbEntity
  8
0
100
AcDbLine
 62
253
  6
CONTINUOUS
 10
-39.7188239301
 20
10.6353914847
 11
-39.7188368168
 21
10.640651686
  0
LINE
  5
49E
100
AcDbEntity
  8
0
100
AcDbLine
 62
253
  6
CONTINUOUS
 10
-39.6535863445
 20
-11.7629150076
 11
-39.6536154483
 21
-11.751142776
  0
LINE
  5
49F
100
AcDbEntity
  8
0
100
AcDbLine
 62
253
  6
CONTINUOUS
 10
-39.7261888418
 20
10.076306468
 11
-39.7262095373
 21
10.0859657035
  0
LINE
  5
4A0
100
AcDbEntity
  8
0
100
AcDbLine
 62
253
  6
CONTINUOUS
 10
-39.6219321146
 20
13.6243815078
 11
-39.6219233481
 21
13.6189128856
  0
LINE
  5
4A1
100
AcDbEntity
  8
0
100
AcDbLine
 62
253
  6
CONTINUOUS
 10
-39.6554400361
 20
-12.1897881784
 11
-39.6554443738
 21
-12.1869694252
  0
LINE
  5
4A2
100
AcDbEntity
  8
0
100
AcDbLine
 62
253
  6
CONTINUOUS
 10
-39.7150849317
 20
-10.1465541455
 11
-39.7150859381
 21
-10.1480196818
  0
LWPOLYLINE
  5
4A3
100
AcDbEntity
  8
0
100
AcDbPolyline
 62
253
  6
CONTINUOUS
 90
17
 70
0
 10
-39.6709760658
 20
12.4797955019
 10
-39.6709749434
 20
12.4812533602
 10
-39.6709787771
 20
12.4823138592
 10
-39.6709869568
 20
12.4832301881
 10
-39.6709994747
 20
12.483998824
 10
-39.6710163412
 20
12.4846166813
 10
-39.6710376395
 20
12.4850824237
 10
-39.6710634713
 20
12.4853951525
 10
-39.6711005797
 20
12.4855664884
 10
-39.6711444383
 20
12.4855104671
 10
-39.6711951231
 20
12.4852213655
 10
-39.6712527099
 20
12.4846934602
 10
-39.6713172749
 20
12.483921028
 10
-39.671388829
 20
12.4829006608
 10
-39.671467124
 20
12.4816382111
 10
-39.6715518466
 20
12.4801418463
 10
-39.6717393217
 20
12.4764800415
  0
LINE
  5
4A4
100
AcDbEntity
  8
0
100
AcDbLine
 62
253
  6
CONTINUOUS
 10
-38.9272567969
 20
-0.3187259615
 11
-38.9272851389
 21
-0.2195322109
  0
LINE
  5
4A5
100
AcDbEntity
  8
0
100
AcDbLine
 62
253
  6
CONTINUOUS
 10
-39.6478380074
 20
13.0590944973
 11
-39.6478394696
 21
13.0545679751
  0
LINE
  5
4A6
100
AcDbEntity
  8
0
100
AcDbLine
 62
253
  6
CONTINUOUS
 10
-39.6916681415
 20
-10.5382924092
 11
-39.6916684115
 21
-10.5448078611
  0
LINE
  5
4A7
100
AcDbEntity
  8
0
100
AcDbLine
 62
253
  6
CONTINUOUS
 10
-39.6547168424
 20
-11.7413825939
 11
-39.6547120614
 21
-11.726769
  0
LWPOLYLINE
  5
4A8
100
AcDbEntity
  8
0
100
AcDbPolyline
 62
253
  6
CONTINUOUS
 90
3
 70
0
 10
-39.6906703025
 20
-10.5650088472
 10
-39.6906737432
 20
-10.5667063365
 10
-39.6906615103
 20
-10.5740300876
  0
LINE
  5
4A9
100
AcDbEntity
  8
0
100
AcDbLine
 62
253
  6
CONTINUOUS
 10
-39.7061774673
 20
-10.6497010772
 11
-39.7061787296
 21
-10.6501879514
  0
LINE
  5
4AA
100
AcDbEntity
  8
0
100
AcDbLine
 62
253
  6
CONTINUOUS
 10
-39.655443985
 20
-12.1914560567
 11
-39.6554413176
 21
-12.1906435171
  0
LINE
  5
4AB
100
AcDbEntity
  8
0
100
AcDbLine
 62
253
  6
CONTINUOUS
 10
-39.7053043716
 20
-10.6804682639
 11
-39.7053067054
 21
-10.6811236526
  0
LWPOLYLINE
  5
4AC
100
AcDbEntity
  8
0
100
AcDbPolyline
 62
253
  6
CONTINUOUS
 90
10
 70
0
 10
-39.4117268079
 20
1.0735096795
 10
-39.4041507814
 20
3.1389339656
 10
-39.3874762619
 20
5.2350851941
 10
-39.3613049435
 20
7.3619208553
 10
-39.3255407771
 20
9.5031475399
 10
-39.2796131622
 20
11.6749659474
 10
-39.221747294
 20
13.9260552136
 10
-39.1503064587
 20
16.2725794724
 10
-39.0645213233
 20
18.6982024418
 10
-38.9632043254
 20
21.2028207858
  0
LWPOLYLINE
  5
4AD
100
AcDbEntity
  8
0
100
AcDbPolyline
 62
253
  6
CONTINUOUS
 90
3
 70
0
 10
-39.7159474667
 20
-10.1162662977
 10
-39.7159510168
 20
-10.1170743882
 10
-39.7159536438
 20
-10.1203825146
  0
LINE
  5
4AE
100
AcDbEntity
  8
0
100
AcDbLine
 62
253
  6
CONTINUOUS
 10
-39.6536077717
 20
-11.7704805215
 11
-39.6535863445
 21
-11.7629150076
  0
LINE
  5
4AF
100
AcDbEntity
  8
0
100
AcDbLine
 62
253
  6
CONTINUOUS
 10
-39.7262095373
 20
10.0859657035
 11
-39.7261638931
 21
10.0998237612
  0
LINE
  5
4B0
100
AcDbEntity
  8
0
100
AcDbLine
 62
253
  6
CONTINUOUS
 10
-39.7188368168
 20
10.640651686
 11
-39.7188071512
 21
10.6491707708
  0
LINE
  5
4B1
100
AcDbEntity
  8
0
100
AcDbLine
 62
253
  6
CONTINUOUS
 10
-39.6219233481
 20
13.6189128856
 11
-39.6219632669
 21
13.6095172005
  0
LINE
  5
4B2
100
AcDbEntity
  8
0
100
AcDbLine
 62
253
  6
CONTINUOUS
 10
-39.6916475918
 20
-10.5337803892
 11
-39.691664796
 21
-10.5371030088
  0
LINE
  5
4B3
100
AcDbEntity
  8
0
100
AcDbLine
 62
253
  6
CONTINUOUS
 10
-39.6906534699
 20
-10.5618444468
 11
-39.6906636333
 21
-10.5633851496
  0
LINE
  5
4B4
100
AcDbEntity
  8
0
100
AcDbLine
 62
253
  6
CONTINUOUS
 10
-39.6547428597
 20
-11.746854777
 11
-39.6547211909
 21
-11.74282913
  0
LINE
  5
4B5
100
AcDbEntity
  8
0
100
AcDbLine
 62
253
  6
CONTINUOUS
 10
-38.9197297168
 20
3.1361547977
 11
-38.9273461572
 21
0.9195109552
  0
LWPOLYLINE
  5
4B6
100
AcDbEntity
  8
0
100
AcDbPolyline
 62
253
  6
CONTINUOUS
 90
9
 70
0
 10
-38.9197297168
 20
3.1361547977
 10
-38.9029102561
 20
5.2301598421
 10
-38.8761812928
 20
7.3547576224
 10
-38.840647696
 20
9.4937782532
 10
-38.7952045967
 20
11.6633916199
 10
-38.7365373875
 20
13.9121073787
 10
-38.6635411993
 20
16.2560954149
 10
-38.5773209012
 20
18.679185843
 10
-38.4778764932
 20
21.1813786632
  0
LINE
  5
4B7
100
AcDbEntity
  8
0
100
AcDbLine
 62
253
  6
CONTINUOUS
 10
-39.6478394696
 20
13.0545679751
 11
-39.6478910841
 21
13.0464671298
  0
LINE
  5
4B8
100
AcDbEntity
  8
0
100
AcDbLine
 62
253
  6
CONTINUOUS
 10
-39.7061834548
 20
-10.6510764549
 11
-39.7061867552
 21
-10.6514841419
  0
LWPOLYLINE
  5
4B9
100
AcDbEntity
  8
0
100
AcDbPolyline
 62
253
  6
CONTINUOUS
 90
11
 70
0
 10
-38.9272851389
 20
-0.2195322109
 10
-38.9267119682
 20
-0.128647625
 10
-38.9262066433
 20
-0.0878475722
 10
-38.9255622445
 20
-0.0507143355
 10
-38.9247856342
 20
-0.0176485255
 10
-38.9238850811
 20
0.0109873968
 10
-38.9228705215
 20
0.0348684928
 10
-38.9217533516
 20
0.053723463
 10
-38.920545983
 20
0.0673436938
 10
-38.9192616103
 20
0.0755811386
 10
-38.9179143717
 20
0.0783450816
  0
LINE
  5
4BA
100
AcDbEntity
  8
0
100
AcDbLine
 62
253
  6
CONTINUOUS
 10
-39.707963265
 20
11.2185962895
 11
-39.7079934928
 21
11.2141660078
  0
LINE
  5
4BB
100
AcDbEntity
  8
0
100
AcDbLine
 62
253
  6
CONTINUOUS
 10
-39.653641813
 20
-11.7749312948
 11
-39.6536077717
 21
-11.7704805215
  0
LINE
  5
4BC
100
AcDbEntity
  8
0
100
AcDbLine
 62
253
  6
CONTINUOUS
 10
-39.7261638931
 20
10.0998237612
 11
-39.7260050783
 21
10.119041996
  0
LINE
  5
4BD
100
AcDbEntity
  8
0
100
AcDbLine
 62
253
  6
CONTINUOUS
 10
-39.715929994
 20
-10.1140752871
 11
-39.7159369254
 21
-10.1147672102
  0
LINE
  5
4BE
100
AcDbEntity
  8
0
100
AcDbLine
 62
253
  6
CONTINUOUS
 10
-39.6554604352
 20
-12.1936328244
 11
-39.6554535305
 21
-12.192951116
  0
LINE
  5
4BF
100
AcDbEntity
  8
0
100
AcDbLine
 62
253
  6
CONTINUOUS
 10
-39.7053125519
 20
-10.6820165959
 11
-39.7053207608
 21
-10.6828176635
  0
LINE
  5
4C0
100
AcDbEntity
  8
0
100
AcDbLine
 62
253
  6
CONTINUOUS
 10
-39.7188071512
 20
10.6491707708
 11
-39.7186969917
 21
10.6619391743
  0
LINE
  5
4C1
100
AcDbEntity
  8
0
100
AcDbLine
 62
253
  6
CONTINUOUS
 10
-39.6710405413
 20
12.472070658
 11
-39.6709833221
 21
12.4781417072
  0
LINE
  5
4C2
100
AcDbEntity
  8
0
100
AcDbLine
 62
253
  6
CONTINUOUS
 10
-39.6219632669
 20
13.6095172005
 11
-39.6221114169
 21
13.5949167559
  0
LINE
  5
4C3
100
AcDbEntity
  8
0
100
AcDbLine
 62
253
  6
CONTINUOUS
 10
-39.6906227711
 20
-10.5590170279
 11
-39.6906398227
 21
-10.5603884572
  0
LINE
  5
4C4
100
AcDbEntity
  8
0
100
AcDbLine
 62
253
  6
CONTINUOUS
 10
-39.6916061652
 20
-10.5297697214
 11
-39.6916391527
 21
-10.5327200754
  0
LINE
  5
4C5
100
AcDbEntity
  8
0
100
AcDbLine
 62
253
  6
CONTINUOUS
 10
-39.6478910841
 20
13.0464671298
 11
-39.6480468965
 21
13.0334728756
  0
LINE
  5
4C6
100
AcDbEntity
  8
0
100
AcDbLine
 62
253
  6
CONTINUOUS
 10
-39.7061966307
 20
-10.6523852677
 11
-39.7062033253
 21
-10.6528727628
  0
LINE
  5
4C7
100
AcDbEntity
  8
0
100
AcDbLine
 62
253
  6
CONTINUOUS
 10
-39.7078670439
 20
11.2264300211
 11
-39.707963265
 21
11.2185962895
  0
LINE
  5
4C8
100
AcDbEntity
  8
0
100
AcDbLine
 62
253
  6
CONTINUOUS
 10
-39.653691738
 20
-11.7789147667
 11
-39.653641813
 21
-11.7749312948
  0
LINE
  5
4C9
100
AcDbEntity
  8
0
100
AcDbLine
 62
253
  6
CONTINUOUS
 10
-39.7159129597
 20
-10.1128043668
 11
-39.7159219955
 21
-10.1134211603
  0
LINE
  5
4CA
100
AcDbEntity
  8
0
100
AcDbLine
 62
253
  6
CONTINUOUS
 10
-39.7260050783
 20
10.119041996
 11
-39.7256264882
 21
10.1479376458
  0
LINE
  5
4CB
100
AcDbEntity
  8
0
100
AcDbLine
 62
253
  6
CONTINUOUS
 10
-39.7186969917
 20
10.6619391743
 11
-39.7184153287
 21
10.6831434339
  0
LWPOLYLINE
  5
4CC
100
AcDbEntity
  8
0
100
AcDbPolyline
 62
253
  6
CONTINUOUS
 90
3
 70
0
 10
-39.6547954609
 20
-11.7513627596
 10
-39.6547794819
 20
-11.7503380613
 10
-39.6547428597
 20
-11.746854777
  0
LINE
  5
4CD
100
AcDbEntity
  8
0
100
AcDbLine
 62
253
  6
CONTINUOUS
 10
-39.6554779259
 20
-12.1948342427
 11
-39.655468779
 21
-12.194270111
  0
LINE
  5
4CE
100
AcDbEntity
  8
0
100
AcDbLine
 62
253
  6
CONTINUOUS
 10
-39.6711949054
 20
12.4616052019
 11
-39.6710405413
 21
12.472070658
  0
LINE
  5
4CF
100
AcDbEntity
  8
0
100
AcDbLine
 62
253
  6
CONTINUOUS
 10
-39.7053308199
 20
-10.6835454381
 11
-39.7053422173
 21
-10.6842185028
  0
LINE
  5
4D0
100
AcDbEntity
  8
0
100
AcDbLine
 62
253
  6
CONTINUOUS
 10
-39.6221114169
 20
13.5949167559
 11
-39.6259025048
 21
13.3706912954
  0
LINE
  5
4D1
100
AcDbEntity
  8
0
100
AcDbLine
 62
253
  6
CONTINUOUS
 10
-39.7075479944
 20
11.2450321402
 11
-39.7078670439
 21
11.2264300211
  0
LINE
  5
4D2
100
AcDbEntity
  8
0
100
AcDbLine
 62
253
  6
CONTINUOUS
 10
-39.6480468965
 20
13.0334728756
 11
-39.6492378075
 21
12.9687571923
  0
LINE
  5
4D3
100
AcDbEntity
  8
0
100
AcDbLine
 62
253
  6
CONTINUOUS
 10
-39.69057904
 20
-10.5565134598
 11
-39.6906024279
 21
-10.5577282839
  0
LINE
  5
4D4
100
AcDbEntity
  8
0
100
AcDbLine
 62
253
  6
CONTINUOUS
 10
-39.7184153287
 20
10.6831434339
 11
-39.7177014989
 21
10.7228132125
  0
LINE
  5
4D5
100
AcDbEntity
  8
0
100
AcDbLine
 62
253
  6
CONTINUOUS
 10
-39.7256264882
 20
10.1479376458
 11
-39.7246717577
 21
10.2016663988
  0
LINE
  5
4D6
100
AcDbEntity
  8
0
100
AcDbLine
 62
253
  6
CONTINUOUS
 10
-39.7158902407
 20
-10.1116061322
 11
-39.7159029166
 21
-10.1122244435
  0
LINE
  5
4D7
100
AcDbEntity
  8
0
100
AcDbLine
 62
253
  6
CONTINUOUS
 10
-39.6537578221
 20
-11.7824373333
 11
-39.653691738
 21
-11.7789147667
  0
LWPOLYLINE
  5
4D8
100
AcDbEntity
  8
0
100
AcDbPolyline
 62
253
  6
CONTINUOUS
 90
3
 70
0
 10
-39.6915453611
 20
-10.5263452884
 10
-39.6915622779
 20
-10.5271491245
 10
-39.6916061652
 20
-10.5297697214
  0
LINE
  5
4D9
100
AcDbEntity
  8
0
100
AcDbLine
 62
253
  6
CONTINUOUS
 10
-39.6721118104
 20
12.4164397978
 11
-39.6711949054
 21
12.4616052019
  0
LINE
  5
4DA
100
AcDbEntity
  8
0
100
AcDbLine
 62
253
  6
CONTINUOUS
 10
-39.6476458403
 20
12.7292096039
 11
-39.6364516256
 21
13.2892075223
  0
LINE
  5
4DB
100
AcDbEntity
  8
0
100
AcDbLine
 62
253
  6
CONTINUOUS
 10
-39.6259025048
 20
13.3706912954
 11
-39.6384550685
 21
12.7486760875
  0
LINE
  5
4DC
100
AcDbEntity
  8
0
100
AcDbLine
 62
253
  6
CONTINUOUS
 10
-39.7064919287
 20
11.2934144437
 11
-39.7075479944
 21
11.2450321402
  0
LINE
  5
4DD
100
AcDbEntity
  8
0
100
AcDbLine
 62
253
  6
CONTINUOUS
 10
-39.6492378075
 20
12.9687571923
 11
-39.6596915752
 21
12.486177979
  0
LINE
  5
4DE
100
AcDbEntity
  8
0
100
AcDbLine
 62
253
  6
CONTINUOUS
 10
-39.7246717577
 20
10.2016663988
 11
-39.7231466214
 21
10.2698191415
  0
LINE
  5
4DF
100
AcDbEntity
  8
0
100
AcDbLine
 62
253
  6
CONTINUOUS
 10
-39.7177014989
 20
10.7228132125
 11
-39.7158306039
 21
10.8059036245
  0
LINE
  5
4E0
100
AcDbEntity
  8
0
100
AcDbLine
 62
253
  6
CONTINUOUS
 10
-39.671177661
 20
12.2696374405
 11
-39.6605538252
 21
12.7305397435
  0
LINE
  5
4E1
100
AcDbEntity
  8
0
100
AcDbLine
 62
253
  6
CONTINUOUS
 10
-39.6905316238
 20
-10.5545337015
 11
-39.6905528879
 21
-10.5553620682
  0
LINE
  5
4E2
100
AcDbEntity
  8
0
100
AcDbLine
 62
253
  6
CONTINUOUS
 10
-39.6793362457
 20
12.1156449021
 11
-39.6721118104
 21
12.4164397978
  0
LINE
  5
4E3
100
AcDbEntity
  8
0
100
AcDbLine
 62
253
  6
CONTINUOUS
 10
-39.6915082692
 20
-10.5248375537
 11
-39.6915273486
 21
-10.5255750208
  0
LINE
  5
4E4
100
AcDbEntity
  8
0
100
AcDbLine
 62
253
  6
CONTINUOUS
 10
-39.6537783934
 20
-11.7832361255
 11
-39.6537578221
 21
-11.7824373333
  0
LINE
  5
4E5
100
AcDbEntity
  8
0
100
AcDbLine
 62
253
  6
CONTINUOUS
 10
-39.6364516256
 20
13.2892075223
 11
-39.635335879
 21
13.3348977409
  0
LINE
  5
4E6
100
AcDbEntity
  8
0
100
AcDbLine
 62
253
  6
CONTINUOUS
 10
-39.6624255905
 20
12.1245761859
 11
-39.6476458403
 21
12.7292096039
  0
LINE
  5
4E7
100
AcDbEntity
  8
0
100
AcDbLine
 62
253
  6
CONTINUOUS
 10
-39.6384550685
 20
12.7486760875
 11
-39.6546370601
 21
12.0898520798
  0
LWPOLYLINE
  5
4E8
100
AcDbEntity
  8
0
100
AcDbPolyline
 62
7
  6
CONTINUOUS
 90
6
 70
0
 10
-39.6799562182
 20
12.2721261631
 10
-39.7409516746
 20
10.0181040159
 10
-39.7892391192
 20
7.7637795021
 10
-39.8248161616
 20
5.5092242315
 10
-39.8476824177
 20
3.2545098621
 10
-39.8576991995
 20
1.0775584911
  0
LINE
  5
4E9
100
AcDbEntity
  8
0
100
AcDbLine
 62
253
  6
CONTINUOUS
 10
-39.6596915752
 20
12.486177979
 11
-39.6745704838
 21
11.9128121921
  0
LINE
  5
4EA
100
AcDbEntity
  8
0
100
AcDbLine
 62
253
  6
CONTINUOUS
 10
-39.7231466214
 20
10.2698191415
 11
-39.72141711
 21
10.3341039105
  0
LINE
  5
4EB
100
AcDbEntity
  8
0
100
AcDbLine
 62
253
  6
CONTINUOUS
 10
-39.7158306039
 20
10.8059036245
 11
-39.7132005549
 21
10.9037466647
  0
LINE
  5
4EC
100
AcDbEntity
  8
0
100
AcDbLine
 62
253
  6
CONTINUOUS
 10
-39.6605538252
 20
12.7305397435
 11
-39.6583208151
 21
12.8122758317
  0
LINE
  5
4ED
100
AcDbEntity
  8
0
100
AcDbLine
 62
253
  6
CONTINUOUS
 10
-39.6849421433
 20
11.7627015966
 11
-39.671177661
 21
12.2696374405
  0
LINE
  5
4EE
100
AcDbEntity
  8
0
100
AcDbLine
 62
253
  6
CONTINUOUS
 10
-39.6913019091
 20
11.6906479301
 11
-39.6793362457
 21
12.1156449021
  0
LINE
  5
4EF
100
AcDbEntity
  8
0
100
AcDbLine
 62
253
  6
CONTINUOUS
 10
-39.6904852412
 20
-10.5529468762
 11
-39.690509053
 21
-10.5537298432
  0
LINE
  5
4F0
100
AcDbEntity
  8
0
100
AcDbLine
 62
253
  6
CONTINUOUS
 10
-39.6546370601
 20
12.0898520798
 11
-39.6726984593
 21
11.4654360447
  0
LINE
  5
4F1
100
AcDbEntity
  8
0
100
AcDbLine
 62
253
  6
CONTINUOUS
 10
-39.635335879
 20
13.3348977409
 11
-39.6334060985
 21
13.4015999576
  0
LINE
  5
4F2
100
AcDbEntity
  8
0
100
AcDbLine
 62
253
  6
CONTINUOUS
 10
-39.6809423884
 20
11.4828669426
 11
-39.6624255905
 21
12.1245761859
  0
LINE
  5
4F3
100
AcDbEntity
  8
0
100
AcDbLine
 62
253
  6
CONTINUOUS
 10
-39.6914670249
 20
-10.5234579501
 11
-39.6914881517
 21
-10.5241321194
  0
LINE
  5
4F4
100
AcDbEntity
  8
0
100
AcDbLine
 62
253
  6
CONTINUOUS
 10
-39.6745704838
 20
11.9128121921
 11
-39.6921515818
 21
11.3334988873
  0
LINE
  5
4F5
100
AcDbEntity
  8
0
100
AcDbLine
 62
7
  6
CONTINUOUS
 10
-39.606255665
 20
14.5257743324
 11
-39.6799562182
 21
12.2721261631
  0
LINE
  5
4F6
100
AcDbEntity
  8
0
100
AcDbLine
 62
253
  6
CONTINUOUS
 10
-39.6538238155
 20
-11.7846965115
 11
-39.6538003991
 21
-11.7839888895
  0
LINE
  5
4F7
100
AcDbEntity
  8
0
100
AcDbLine
 62
253
  6
CONTINUOUS
 10
-39.7132005549
 20
10.9037466647
 11
-39.7110168321
 21
10.9736899684
  0
LINE
  5
4F8
100
AcDbEntity
  8
0
100
AcDbLine
 62
253
  6
CONTINUOUS
 10
-39.72141711
 20
10.3341039105
 11
-39.7197315611
 21
10.3878998389
  0
LWPOLYLINE
  5
4F9
100
AcDbEntity
  8
0
100
AcDbPolyline
 62
253
  6
CONTINUOUS
 90
3
 70
0
 10
-39.6583208151
 20
12.8122758317
 10
-39.6552485622
 20
12.9094146524
 10
-39.6550211006
 20
12.9161116477
  0
LINE
  5
4FA
100
AcDbEntity
  8
0
100
AcDbLine
 62
253
  6
CONTINUOUS
 10
-39.7010462567
 20
11.2556072969
 11
-39.6849421433
 21
11.7627015966
  0
LINE
  5
4FB
100
AcDbEntity
  8
0
100
AcDbLine
 62
253
  6
CONTINUOUS
 10
-39.694201743
 20
11.7083300233
 11
-39.6975530162
 21
11.6055859813
  0
LINE
  5
4FC
100
AcDbEntity
  8
0
100
AcDbLine
 62
253
  6
CONTINUOUS
 10
-39.6334060985
 20
13.4015999576
 11
-39.6317970704
 21
13.4506506855
  0
LINE
  5
4FD
100
AcDbEntity
  8
0
100
AcDbLine
 62
253
  6
CONTINUOUS
 10
-39.702232626
 20
11.3524800452
 11
-39.6913019091
 21
11.6906479301
  0
LINE
  5
4FE
100
AcDbEntity
  8
0
100
AcDbLine
 62
253
  6
CONTINUOUS
 10
-39.7110168321
 20
10.9736899684
 11
-39.7104954537
 21
10.9888380423
  0
LINE
  5
4FF
100
AcDbEntity
  8
0
100
AcDbLine
 62
253
  6
CONTINUOUS
 10
-39.7052269875
 20
11.1346231562
 11
-39.7010462567
 21
11.2556072969
  0
LINE
  5
500
100
AcDbEntity
  8
0
100
AcDbLine
 62
253
  6
CONTINUOUS
 10
-39.7006216856
 20
10.8935548613
 11
-39.6809423884
 21
11.4828669426
  0
LINE
  5
501
100
AcDbEntity
  8
0
100
AcDbLine
 62
253
  6
CONTINUOUS
 10
-39.6726984593
 20
11.4654360447
 11
-39.6940162231
 21
10.8263155599
  0
LINE
  5
502
100
AcDbEntity
  8
0
100
AcDbLine
 62
253
  6
CONTINUOUS
 10
-39.6921515818
 20
11.3334988873
 11
-39.704848694
 21
10.9622348325
  0
LINE
  5
503
100
AcDbEntity
  8
0
100
AcDbLine
 62
253
  6
CONTINUOUS
 10
-39.7197315611
 20
10.3878998389
 11
-39.7189861629
 21
10.4091428047
  0
LINE
  5
504
100
AcDbEntity
  8
0
100
AcDbLine
 62
253
  6
CONTINUOUS
 10
-39.7034323176
 20
10.8158276911
 11
-39.7006216856
 21
10.8935548613
  0
LINE
  5
505
100
AcDbEntity
  8
0
100
AcDbLine
 62
253
  6
CONTINUOUS
 10
-39.6904337037
 20
-10.5514581502
 11
-39.6904601552
 21
-10.5521878083
  0
LINE
  5
506
100
AcDbEntity
  8
0
100
AcDbLine
 62
253
  6
CONTINUOUS
 10
-39.6940162231
 20
10.8263155599
 11
-39.7012574755
 21
10.6277681367
  0
LINE
  5
507
100
AcDbEntity
  8
0
100
AcDbLine
 62
253
  6
CONTINUOUS
 10
-39.6914175613
 20
-10.5220919302
 11
-39.6914449176
 21
-10.5228142779
  0
LWPOLYLINE
  5
508
100
AcDbEntity
  8
0
100
AcDbPolyline
 62
253
  6
CONTINUOUS
 90
16
 70
0
 10
-39.4117267895
 20
-0.4224030787
 10
-39.4089635672
 20
-0.369416481
 10
-39.4009186136
 20
-0.3181675937
 10
-39.3878092565
 20
-0.2685387441
 10
-39.3695243927
 20
-0.2202080696
 10
-39.3460421827
 20
-0.1734963393
 10
-39.3178868596
 20
-0.1295254236
 10
-39.2855100718
 20
-0.0889843841
 10
-39.2489779315
 20
-0.0519471235
 10
-39.2087423416
 20
-0.0188479414
 10
-39.1653929462
 20
0.0097950152
 10
-39.1193428544
 20
0.0337178488
 10
-39.0709631414
 20
0.0527575627
 10
-39.0208009369
 20
0.0666567348
 10
-38.96956458
 20
0.0752029596
 10
-38.9179143717
 20
0.0783450816
  0
LWPOLYLINE
  5
509
100
AcDbEntity
  8
0
100
AcDbPolyline
 62
253
  6
CONTINUOUS
 90
6
 70
0
 10
-39.7157888232
 20
-10.1088242782
 10
-39.7158086163
 20
-10.1091837446
 10
-39.7158272877
 20
-10.1095832009
 10
-39.7158448116
 20
-10.1100239074
 10
-39.7158611623
 20
-10.1105071245
 10
-39.715876314
 20
-10.1110341127
  0
LWPOLYLINE
  5
50A
100
AcDbEntity
  8
0
100
AcDbPolyline
 62
253
  6
CONTINUOUS
 90
10
 70
0
 10
-39.691074716
 20
-10.516988167
 10
-39.6911144087
 20
-10.5173362966
 10
-39.6911529459
 20
-10.5177184928
 10
-39.6911903102
 20
-10.518135501
 10
-39.6912264842
 20
-10.5185880669
 10
-39.6912614507
 20
-10.5190769362
 10
-39.6912951921
 20
-10.5196028545
 10
-39.6913276913
 20
-10.5201665674
 10
-39.6913589308
 20
-10.5207688205
 10
-39.6913888932
 20
-10.5214103596
  0
LINE
  5
50B
100
AcDbEntity
  8
0
100
AcDbLine
 62
253
  6
CONTINUOUS
 10
-37.8175314561
 20
21.954352238
 11
-37.8123847408
 21
21.8506279797
  0
LINE
  5
50C
100
AcDbEntity
  8
0
100
AcDbLine
 62
253
  6
CONTINUOUS
 10
-37.8218825905
 20
22.0535511237
 11
-37.8175314561
 21
21.954352238
  0
LINE
  5
50D
100
AcDbEntity
  8
0
100
AcDbLine
 62
253
  6
CONTINUOUS
 10
-37.8265138528
 20
-21.5333887989
 11
-37.8236988424
 21
-21.4489789724
  0
LINE
  5
50E
100
AcDbEntity
  8
0
100
AcDbLine
 62
253
  6
CONTINUOUS
 10
-37.8236988424
 20
-21.4489789724
 11
-37.8198192018
 21
-21.3536861505
  0
LWPOLYLINE
  5
50F
100
AcDbEntity
  8
0
100
AcDbPolyline
 62
253
  6
CONTINUOUS
 90
3
 70
0
 10
-37.8198192018
 20
-21.3536861505
 10
-37.8150442046
 20
-21.2516678583
 10
-37.8123847643
 20
-21.19952137
  0
LINE
  5
510
100
AcDbEntity
  8
0
100
AcDbLine
 62
253
  6
CONTINUOUS
 10
-39.4117268069
 20
-0.4224030766
 11
-39.8576991995
 21
-0.4264518779
  0
LINE
  5
511
100
AcDbEntity
  8
0
100
AcDbLine
 62
253
  6
CONTINUOUS
 10
-33.5083878627
 20
-0.3743515136
 11
-38.9266395781
 21
-0.4216358799
  0
LINE
  5
512
100
AcDbEntity
  8
0
100
AcDbLine
 62
7
  6
CONTINUOUS
 10
-33.5083878627
 20
0.1255533042
 11
-39.3620683532
 21
0.0744690085
  0
LINE
  5
513
100
AcDbEntity
  8
0
100
AcDbLine
 62
253
  6
CONTINUOUS
 10
-38.9266395769
 20
-0.4216358799
 11
-39.4117267895
 21
-0.4224030787
  0
LINE
  5
514
100
AcDbEntity
  8
0
100
AcDbLine
 62
7
  6
CONTINUOUS
 10
-39.3620683532
 20
0.5766376
 11
-33.5083878627
 21
0.5255533042
  0
LINE
  5
515
100
AcDbEntity
  8
0
100
AcDbLine
 62
7
  6
CONTINUOUS
 10
-33.9083878627
 20
18.2590426717
 11
-33.9083878627
 21
17.9975742253
  0
LINE
  5
516
100
AcDbEntity
  8
0
100
AcDbLine
 62
7
  6
CONTINUOUS
 10
-33.9083878627
 20
-17.3464676169
 11
-33.9083878627
 21
-17.6079360196
  0
LINE
  5
517
100
AcDbEntity
  8
0
100
AcDbLine
 62
7
  6
CONTINUOUS
 10
-33.5083878627
 20
13.4255533042
 11
-33.5083878627
 21
0.5255533042
  0
LINE
  5
518
100
AcDbEntity
  8
0
100
AcDbLine
 62
7
  6
CONTINUOUS
 10
-33.5083878627
 20
-12.7744466958
 11
-33.5083878627
 21
0.1255533042
  0
LINE
  5
519
100
AcDbEntity
  8
0
100
AcDbLine
 62
253
  6
CONTINUOUS
 10
-39.4117268868
 20
1.073509676
 11
-38.9266396734
 21
1.0727424893
  0
LINE
  5
51A
100
AcDbEntity
  8
0
100
AcDbLine
 62
253
  6
CONTINUOUS
 10
-38.926639675
 20
1.0727424893
 11
-33.5083878627
 21
1.025458122
  0
LINE
  5
51B
100
AcDbEntity
  8
0
100
AcDbLine
 62
253
  6
CONTINUOUS
 10
-39.8576991995
 20
1.0775584864
 11
-39.4117268079
 21
1.0735096795
  0
LINE
  5
51C
100
AcDbEntity
  8
0
100
AcDbLine
 62
7
  6
CONTINUOUS
 10
-34.3053109753
 20
22.5344261627
 11
-33.5083878627
 21
13.4255533042
  0
LINE
  5
51D
100
AcDbEntity
  8
0
100
AcDbLine
 62
7
  6
CONTINUOUS
 10
-34.3053109753
 20
-21.8833195542
 11
-33.5083878627
 21
-12.7744466958
  0
LWPOLYLINE
  5
51E
100
AcDbEntity
  8
0
100
AcDbPolyline
 62
253
  6
CONTINUOUS
 90
11
 70
0
 10
-39.656712846
 20
-12.1673531665
 10
-39.6566669971
 20
-12.1672847287
 10
-39.6566259815
 20
-12.1670808732
 10
-39.6565897195
 20
-12.1667437867
 10
-39.6565581312
 20
-12.1662756557
 10
-39.6565311371
 20
-12.165678667
 10
-39.6565086574
 20
-12.1649550073
 10
-39.6564906123
 20
-12.1641068631
 10
-39.6564769223
 20
-12.1631364211
 10
-39.6564675076
 20
-12.162045868
 10
-39.6564619111
 20
-12.1606791917
  0
LWPOLYLINE
  5
51F
100
AcDbEntity
  8
0
100
AcDbPolyline
 62
253
  6
CONTINUOUS
 90
12
 70
0
 10
-39.7184203993
 20
10.6248299995
 10
-39.7184657353
 20
10.6248798614
 10
-39.7185080692
 20
10.62502811
 10
-39.7185475032
 20
10.6252727396
 10
-39.7185841397
 20
10.6256117447
 10
-39.7186180811
 20
10.6260431198
 10
-39.7186494296
 20
10.6265648592
 10
-39.7186782877
 20
10.6271749573
 10
-39.7187089158
 20
10.6279962677
 10
-39.7187362845
 20
10.6289351048
 10
-39.7187603852
 20
10.6299914591
 10
-39.7187812089
 20
10.6311653212
  0
LWPOLYLINE
  5
520
100
AcDbEntity
  8
0
100
AcDbPolyline
 62
253
  6
CONTINUOUS
 90
13
 70
0
 10
-39.7253330929
 20
10.0530830552
 10
-39.7254061001
 20
10.0531467517
 10
-39.7254753755
 20
10.0533360623
 10
-39.7255410854
 20
10.0536483191
 10
-39.7256033958
 20
10.054080854
 10
-39.7256624732
 20
10.054630999
 10
-39.7257184835
 20
10.055296086
 10
-39.7257715634
 20
10.0560739285
 10
-39.72582173
 20
10.0569642656
 10
-39.7258689708
 20
10.0579673178
 10
-39.7259132731
 20
10.0590833056
 10
-39.7259546245
 20
10.0603124497
 10
-39.7259930123
 20
10.0616549706
  0
LWPOLYLINE
  5
521
100
AcDbEntity
  8
0
100
AcDbPolyline
 62
253
  6
CONTINUOUS
 90
18
 70
0
 10
-39.655389552
 20
-11.7592598333
 10
-39.6553446608
 20
-11.7592402134
 10
-39.6553005676
 20
-11.7591795224
 10
-39.6552573376
 20
-11.7590750134
 10
-39.6552150358
 20
-11.7589239394
 10
-39.6551737272
 20
-11.7587235536
 10
-39.6551334769
 20
-11.7584711089
 10
-39.6550943498
 20
-11.7581638585
 10
-39.6550564112
 20
-11.7577990555
 10
-39.6550237518
 20
-11.7574240225
 10
-39.6549922108
 20
-11.756998054
 10
-39.654961916
 20
-11.7565178583
 10
-39.6549329955
 20
-11.755980144
 10
-39.6549055773
 20
-11.7553816197
 10
-39.6548797892
 20
-11.7547189937
 10
-39.6548557593
 20
-11.7539889747
 10
-39.6548336155
 20
-11.7531882711
 10
-39.6548134858
 20
-11.7523135914
  0
LINE
  5
522
100
AcDbEntity
  8
0
100
AcDbLine
 62
253
  6
CONTINUOUS
 10
-33.9083878627
 20
18.2590449054
 11
-33.931263583
 21
18.2590449054
  0
LWPOLYLINE
  5
523
100
AcDbEntity
  8
0
100
AcDbPolyline
 62
253
  6
CONTINUOUS
 90
4
 70
0
 10
-38.9631915539
 20
21.2028202707
 10
-38.9574874764
 20
21.2025192581
 10
-38.9470062389
 20
21.2020132689
 10
-38.4778764932
 20
21.1813786632
  0
LINE
  5
524
100
AcDbEntity
  8
0
100
AcDbLine
 62
253
  6
CONTINUOUS
 10
-37.8123847408
 20
21.8506279797
 11
-34.2617662792
 21
22.0367080084
  0
LINE
  5
525
100
AcDbEntity
  8
0
100
AcDbLine
 62
7
  6
CONTINUOUS
 10
-38.1780032556
 20
22.3314669604
 11
-34.3053109753
 21
22.5344261627
  0
LINE
  5
526
100
AcDbEntity
  8
0
100
AcDbLine
 62
253
  6
CONTINUOUS
 10
-38.9632043254
 20
21.2028207858
 11
-39.3135619274
 21
21.1957222545
  0
ARC
  5
527
100
AcDbEntity
  8
0
100
AcDbCircle
 62
7
  6
CONTINUOUS
 10
-38.115196316
 20
21.1331117175
 40
1.2
100
AcDbArc
 50
93.0
 51
177.0092051173
  0
ARC
  5
528
100
AcDbEntity
  8
0
100
AcDbCircle
 62
7
  6
CONTINUOUS
 10
-38.115196316
 20
-20.482005109
 40
1.2
100
AcDbArc
 50
182.9907948827
 51
267.0
  0
ARC
  5
529
100
AcDbEntity
  8
0
100
AcDbCircle
 62
7
  6
CONTINUOUS
 10
-39.3576953176
 20
1.0766184763
 40
0.5
100
AcDbArc
 50
179.8922831945
 51
269.5
  0
ARC
  5
52A
100
AcDbEntity
  8
0
100
AcDbCircle
 62
7
  6
CONTINUOUS
 10
-39.3576953176
 20
-0.4255118678
 40
0.5
100
AcDbArc
 50
90.5
 51
180.1077168055
  0
ARC
  5
52B
100
AcDbEntity
  8
0
100
AcDbCircle
 62
7
  6
CONTINUOUS
 10
-34.2083878627
 20
18.2590449054
 40
0.3
100
AcDbArc
 50
359.9995650467
 51
25.0000767071
  0
ARC
  5
52C
100
AcDbEntity
  8
0
100
AcDbCircle
 62
7
  6
CONTINUOUS
 10
-34.2083878627
 20
-17.607938297
 40
0.3
100
AcDbArc
 50
334.9999285842
 51
0.0004349533
  0
ELLIPSE
  5
52D
100
AcDbEntity
  8
0
100
AcDbEllipse
 62
7
  6
CONTINUOUS
 10
3.215325883
 20
22.5080610202
 30
0.0
 11
0.2
 21
0.0
 31
0.0
 40
0.0524077793
 41
-2.617993878
 42
-1.5707963268
  0
ELLIPSE
  5
52E
100
AcDbEntity
  8
0
100
AcDbEllipse
 62
7
  6
CONTINUOUS
 10
6.5843857753
 20
22.5080610202
 30
0.0
 11
0.2
 21
0.0
 31
0.0
 40
0.0524077793
 41
-1.5707963268
 42
-0.5235987756
  0
ELLIPSE
  5
52F
100
AcDbEntity
  8
0
100
AcDbEllipse
 62
7
  6
CONTINUOUS
 10
-4.6156142247
 20
22.5080610202
 30
0.0
 11
0.2
 21
0.0
 31
0.0
 40
0.0524077793
 41
-1.5707963268
 42
-0.5235987756
  0
ELLIPSE
  5
530
100
AcDbEntity
  8
0
100
AcDbEllipse
 62
7
  6
CONTINUOUS
 10
-7.984674117
 20
22.5080610202
 30
0.0
 11
0.2
 21
0.0
 31
0.0
 40
0.0524077793
 41
-2.617993878
 42
-1.5707963268
  0
ELLIPSE
  5
531
100
AcDbEntity
  8
0
100
AcDbEllipse
 62
7
  6
CONTINUOUS
 10
-11.2253428981
 20
1.0255723434
 30
0.0
 11
0.4745319423
 21
0.1581451893
 31
0.0
 40
0.9996192872
 41
2.8200172282
 42
4.3905851209
  0
ELLIPSE
  5
532
100
AcDbEntity
  8
0
100
AcDbEllipse
 62
7
  6
CONTINUOUS
 10
9.8250545565
 20
1.0255723434
 30
0.0
 11
0.4745319423
 21
-0.1581451893
 31
0.0
 40
0.9996192872
 41
-1.2489924673
 42
0.3215754254
  0
ELLIPSE
  5
533
100
AcDbEntity
  8
0
100
AcDbEllipse
 62
7
  6
CONTINUOUS
 10
-11.2056165543
 20
22.0360252012
 30
0.0
 11
0.4962344879
 21
0.0628595572
 31
0.0
 40
0.9963456432
 41
1.4443370775
 42
3.0137634083
  0
ELLIPSE
  5
534
100
AcDbEntity
  8
0
100
AcDbEllipse
 62
7
  6
CONTINUOUS
 10
9.8053282126
 20
22.0360252012
 30
0.0
 11
0.4962344879
 21
-0.0628595572
 31
0.0
 40
0.9963456432
 41
0.1278292453
 42
1.6972555761
  0
ELLIPSE
  5
535
100
AcDbEntity
  8
0
100
AcDbEllipse
 62
7
  6
CONTINUOUS
 10
-4.6156142247
 20
-21.8569544117
 30
0.0
 11
0.2
 21
-0.0
 31
0.0
 40
0.0524077793
 41
0.5235987756
 42
1.5707963268
  0
ELLIPSE
  5
536
100
AcDbEntity
  8
0
100
AcDbEllipse
 62
7
  6
CONTINUOUS
 10
-7.984674117
 20
-21.8569544117
 30
0.0
 11
0.2
 21
0.0
 31
0.0
 40
0.0524077793
 41
1.5707963268
 42
2.617993878
  0
ELLIPSE
  5
537
100
AcDbEntity
  8
0
100
AcDbEllipse
 62
7
  6
CONTINUOUS
 10
3.215325883
 20
-21.8569544117
 30
0.0
 11
0.2
 21
0.0
 31
0.0
 40
0.0524077793
 41
1.5707963268
 42
2.617993878
  0
ELLIPSE
  5
538
100
AcDbEntity
  8
0
100
AcDbEllipse
 62
7
  6
CONTINUOUS
 10
6.5843857753
 20
-21.8569544117
 30
0.0
 11
0.2
 21
0.0
 31
0.0
 40
0.0524077793
 41
0.5235987756
 42
1.5707963268
  0
ELLIPSE
  5
539
100
AcDbEntity
  8
0
100
AcDbEllipse
 62
7
  6
CONTINUOUS
 10
9.8250545565
 20
-0.374465735
 30
0.0
 11
0.4745319423
 21
0.1581451893
 31
0.0
 40
0.9996192872
 41
-0.3215754254
 42
1.2489924673
  0
ELLIPSE
  5
53A
100
AcDbEntity
  8
0
100
AcDbEllipse
 62
7
  6
CONTINUOUS
 10
-11.2253428981
 20
-0.374465735
 30
0.0
 11
0.4745319423
 21
-0.1581451893
 31
0.0
 40
0.9996192872
 41
1.8926001863
 42
3.463168079
  0
ELLIPSE
  5
53B
100
AcDbEntity
  8
0
100
AcDbEllipse
 62
7
  6
CONTINUOUS
 10
9.8053282126
 20
-21.3849185928
 30
0.0
 11
0.4962344879
 21
0.0628595572
 31
0.0
 40
0.9963456432
 41
-1.6972555761
 42
-0.1278292453
  0
ELLIPSE
  5
53C
100
AcDbEntity
  8
0
100
AcDbEllipse
 62
7
  6
CONTINUOUS
 10
-11.2056165543
 20
-21.3849185928
 30
0.0
 11
0.4962344879
 21
-0.0628595572
 31
0.0
 40
0.9963456432
 41
-3.0137634083
 42
-1.4443370775
  0
ENDSEC
  0
SECTION
  2
OBJECTS
  0
DICTIONARY
  5
C
100
AcDbDictionary
280
0
281
1
  3
ACAD_GROUP
350
D
  3
ACAD_MLINESTYLE
350
17
  3
ACAD_LAYOUT
350
1A
  3
ACAD_PLOTSETTINGS
350
19
  3
ACAD_PLOTSTYLENAME
350
E
  0
DICTIONARY
  5
D
102
{ACAD_REACTORS
330
C
102
}
100
AcDbDictionary
280
0
281
1
  0
ACDBDICTIONARYWDFLT
  5
E
102
{ACAD_REACTORS
330
C
102
}
100
AcDbDictionary
281
1
  3
Normal
350
F
100
AcDbDictionaryWithDefault
340
F
  0
DICTIONARY
  5
17
102
{ACAD_REACTORS
330
C
102
}
100
AcDbDictionary
280
0
281
1
  3
Standard
350
18
  0
DICTIONARY
  5
19
102
{ACAD_REACTORS
330
C
102
}
100
AcDbDictionary
281
1
  0
DICTIONARY
  5
1A
102
{ACAD_REACTORS
330
C
102
}
100
AcDbDictionary
281
1
  3
Model
350
53D
  3
Layout1
350
53E
  0
ACDBPLACEHOLDER
  5
F
102
{ACAD_REACTORS
330
E
102
}
  0
MLINESTYLE
  5
18
102
{ACAD_REACTORS
330
17
102
}
100
AcDbMlineStyle
  2
STANDARD
 70
0
  3

 62
256
 51
90.0
 52
90.0
 71
2
 49
0.5
 62
256
  6
BYLAYER
 49
-0.5
 62
256
  6
BYLAYER
  0
LAYOUT
  5
53D
102
{ACAD_REACTORS
330
1A
102
}
100
AcDbPlotSettings
  1

  2
none_device
  4
ISO_A4_(297.00_x_210.00_MM)
  6

 40
0.0
 41
0.0
 42
0.0
 43
0.0
 44
297.0
 45
210.0
 46
0.0
 47
0.0
 48
0.0
 49
0.0
140
0.0
141
0.0
142
1.0
143
1.0
 70
1024
 72
1
 73
0
 74
0
  7

 75
0
147
1.0
148
0.0
149
0.0
100
AcDbLayout
  1
Model
 70
0
 71
0
 10
0.0
 20
0.0
 11
297.0
 21
210.0
 12
0.0
 22
0.0
 32
0.0
 14
0.0
 24
0.0
 34
0.0
 15
0.0
 25
0.0
 35
0.0
146
0.0
 13
0.0
 23
0.0
 33
0.0
 16
1.0
 26
0.0
 36
0.0
 17
0.0
 27
1.0
 37
0.0
 76
0
330
220
345
0
346
0
  0
LAYOUT
  5
53E
102
{ACAD_REACTORS
330
1A
102
}
100
AcDbPlotSettings
  1

  2
none_device
  4
ISO_A4_(297.00_x_210.00_MM)
  6

 40
0.0
 41
0.0
 42
0.0
 43
0.0
 44
297.0
 45
210.0
 46
0.0
 47
0.0
 48
0.0
 49
0.0
140
0.0
141
0.0
142
1.0
143
1.0
 70
0
 72
1
 73
0
 74
0
  7

 75
0
147
1.0
148
0.0
149
0.0
100
AcDbLayout
  1
Layout1
 70
0
 71
1
 10
0.0
 20
0.0
 11
297.0
 21
210.0
 12
0.0
 22
0.0
 32
0.0
 14
0.0
 24
0.0
 34
0.0
 15
0.0
 25
0.0
 35
0.0
146
0.0
 13
0.0
 23
0.0
 33
0.0
 16
1.0
 26
0.0
 36
0.0
 17
0.0
 27
1.0
 37
0.0
 76
0
330
221
345
0
346
0
  0
ENDSEC
  0
EOF
