  0
SECTION
  2
HEADER
  9
$ACADVER
  1
AC1021
  9
$DWGCODEPAGE
  3
ANSI_1252
  9
$EXTMAX
 10
297.0
 20
210.0
 30
0.0
  9
$EXTMIN
 10
0.0
 20
0.0
 30
0.0
  9
$LIMMIN
 10
0.0
 20
0.0
  9
$LIMMAX
 10
297.0
 20
210.0
  9
$VIEWCTR
 10
148.5
 20
105.0
  9
$VIEWSIZE
 40
210.0
  9
$CLAYER
  8
0
  9
$LTSCALE
 40
16.335
  9
$CELTYPE
  6
BYLAYER
  9
$DIMSCALE
 40
1.0
  9
$DIMASZ
 40
3.0
  9
$DIMEXO
 40
0.5
  9
$DIMDLI
 40
11.286
  9
$DIMEXE
 40
1.5
  9
$DIMCEN
 40
2.673
  9
$DIMLFAC
 40
1.0
  9
$DIMBLK
  1
_FILLED
  9
$DIMALT
 70
0
  9
$DIMALTF
 40
25.4
  9
$DIMTXT
 40
3.0
  9
$DIMTOL
 70
1
  9
$DIMLIM
 70
0
  9
$DIMTFAC
 40
1.0
  9
$DIMTP
 40
0.01
  9
$DIMTM
 40
0.01
  9
$DIMGAP
 40
0.625
  9
$DIMDSEP
 70
44
  9
$AUNITS
 70
0
  9
$PDMODE
 70
3
  9
$PDSIZE
 40
3.0
  9
$HANDSEED
  5
374
  9
$TILEMODE
 70
1
  9
$MEASUREMENT
 70
1
  9
$INSUNITS
 70
4
  0
ENDSEC
  0
SECTION
  2
CLASSES
  0
CLASS
  1
ACDBDICTIONARYWDFLT
  2
AcDbDictionaryWithDefault
  3
AutoCAD 2000
 90
0
 91
1
280
0
281
0
  0
CLASS
  1
ACDBPLACEHOLDER
  2
AcDbPlaceHolder
  3
AutoCAD 2000
 90
0
 91
1
280
0
281
0
  0
CLASS
  1
LAYOUT
  2
AcDbLayout
  3
AutoCAD 2000
 90
0
 91
0
280
0
281
0
  0
ENDSEC
  0
SECTION
  2
TABLES
  0
TABLE
  2
VPORT
  5
8
100
AcDbSymbolTable
 70
2
  0
VPORT
  5
1F4
100
AcDbSymbolTableRecord
100
AcDbViewportTableRecord
  2
*ACTIVE
 70
0
 10
0.0
 20
0.0
 11
1.0
 21
1.0
 12
148.5
 22
105.0
 13
0.0
 23
0.0
 14
1.0
 24
1.0
 15
0.0
 25
0.0
 16
0.0
 26
0.0
 36
1.0
 17
0.0
 27
0.0
 37
0.0
 40
210.0
 41
1.4142857143
 42
50.0
 43
0.0
 44
0.0
 50
0.0
 51
0.0
 71
0
 72
100
 73
1
 74
1
 75
0
 76
0
 77
0
 78
0
  0
ENDTAB
  0
TABLE
  2
LTYPE
  5
5
100
AcDbSymbolTable
 70
6
  0
LTYPE
  5
14
100
AcDbSymbolTableRecord
100
AcDbLinetypeTableRecord
  2
BYBLOCK
 70
0
  3

 72
65
 73
0
 40
0.0
  0
LTYPE
  5
15
100
AcDbSymbolTableRecord
100
AcDbLinetypeTableRecord
  2
BYLAYER
 70
0
  3

 72
65
 73
0
 40
0.0
  0
LTYPE
  5
16
100
AcDbSymbolTableRecord
100
AcDbLinetypeTableRecord
  2
CONTINUOUS
 70
64
  3
Solid line
 72
65
 73
0
 40
0.0
  0
LTYPE
  5
1F5
100
AcDbSymbolTableRecord
100
AcDbLinetypeTableRecord
  2
CENTER
 70
64
  3
____ _ ____ _ ____ _ ____ _ ____ _ ____ _ ____
 72
65
 73
4
 40
0.6
 49
0.375
 74
0
 49
-0.075
 74
0
 49
0.075
 74
0
 49
-0.075
 74
0
  0
LTYPE
  5
1F6
100
AcDbSymbolTableRecord
100
AcDbLinetypeTableRecord
  2
HIDDEN
 70
64
  3
- - - - - - - - - - - - - - - - - - - -
 72
65
 73
2
 40
0.2
 49
0.1
 74
0
 49
-0.1
 74
0
  0
LTYPE
  5
1F7
100
AcDbSymbolTableRecord
100
AcDbLinetypeTableRecord
  2
PHANTOM
 70
64
  3
_____ _ _ _____ _ _ _____ _ _ _____
 72
65
 73
6
 40
0.8
 49
0.45
 74
0
 49
-0.05
 74
0
 49
0.1
 74
0
 49
-0.05
 74
0
 49
0.1
 74
0
 49
-0.05
 74
0
  0
LTYPE
  5
1F8
100
AcDbSymbolTableRecord
100
AcDbLinetypeTableRecord
  2
DOT
 70
64
  3
. . . . . . . . . . . . . . . . . . . .
 72
65
 73
2
 40
0.2
 49
0.1
 74
0
 49
-0.1
 74
0
  0
LTYPE
  5
1F9
100
AcDbSymbolTableRecord
100
AcDbLinetypeTableRecord
  2
DASHED
 70
64
  3
- - - - - - - - - - - - - - - - - - - -
 72
65
 73
2
 40
0.2
 49
0.1
 74
0
 49
-0.1
 74
0
  0
ENDTAB
  0
TABLE
  2
LAYER
  5
2
100
AcDbSymbolTable
 70
36
  0
LAYER
  5
10
100
AcDbSymbolTableRecord
100
AcDbLayerTableRecord
  2
0
 70
0
 62
7
  6
CONTINUOUS
370
-3
390
F
  0
LAYER
  5
1FA
100
AcDbSymbolTableRecord
100
AcDbLayerTableRecord
  2
DEFAULT_1
 70
0
 62
7
  6
CENTER
370
-3
390
F
  0
LAYER
  5
1FB
100
AcDbSymbolTableRecord
100
AcDbLayerTableRecord
  2
DEFAULT_2
 70
0
 62
7
  6
HIDDEN
370
-3
390
F
  0
LAYER
  5
1FC
100
AcDbSymbolTableRecord
100
AcDbLayerTableRecord
  2
DEFAULT_3
 70
0
 62
7
  6
PHANTOM
370
-3
390
F
  0
LAYER
  5
1FD
100
AcDbSymbolTableRecord
100
AcDbLayerTableRecord
  2
ASSI
 70
0
 62
7
  6
CONTINUOUS
370
-3
390
F
  0
LAYER
  5
1FE
100
AcDbSymbolTableRecord
100
AcDbLayerTableRecord
  2
COLOR3
 70
0
 62
7
  6
CONTINUOUS
370
-3
390
F
  0
LAYER
  5
1FF
100
AcDbSymbolTableRecord
100
AcDbLayerTableRecord
  2
COORDINATE
 70
0
 62
7
  6
CONTINUOUS
370
-3
390
F
  0
LAYER
  5
200
100
AcDbSymbolTableRecord
100
AcDbLayerTableRecord
  2
COPY_PUBLISH
 70
0
 62
7
  6
CONTINUOUS
370
-3
390
F
  0
LAYER
  5
201
100
AcDbSymbolTableRecord
100
AcDbLayerTableRecord
  2
COSMETIC
 70
0
 62
7
  6
CONTINUOUS
370
-3
390
F
  0
LAYER
  5
202
100
AcDbSymbolTableRecord
100
AcDbLayerTableRecord
  2
COSMETICI
 70
0
 62
7
  6
CONTINUOUS
370
-3
390
F
  0
LAYER
  5
203
100
AcDbSymbolTableRecord
100
AcDbLayerTableRecord
  2
CURVE
 70
0
 62
7
  6
CONTINUOUS
370
-3
390
F
  0
LAYER
  5
204
100
AcDbSymbolTableRecord
100
AcDbLayerTableRecord
  2
DRAFT
 70
0
 62
7
  6
CONTINUOUS
370
-3
390
F
  0
LAYER
  5
205
100
AcDbSymbolTableRecord
100
AcDbLayerTableRecord
  2
IMPORT_IGES
 70
0
 62
7
  6
CONTINUOUS
370
-3
390
F
  0
LAYER
  5
206
100
AcDbSymbolTableRecord
100
AcDbLayerTableRecord
  2
INTFCLR_1
 70
0
 62
7
  6
CONTINUOUS
370
-3
390
F
  0
LAYER
  5
207
100
AcDbSymbolTableRecord
100
AcDbLayerTableRecord
  2
INTF_10
 70
0
 62
7
  6
CONTINUOUS
370
-3
390
F
  0
LAYER
  5
208
100
AcDbSymbolTableRecord
100
AcDbLayerTableRecord
  2
INTF_13
 70
0
 62
7
  6
CONTINUOUS
370
-3
390
F
  0
LAYER
  5
209
100
AcDbSymbolTableRecord
100
AcDbLayerTableRecord
  2
INTF_15
 70
0
 62
7
  6
CONTINUOUS
370
-3
390
F
  0
LAYER
  5
20A
100
AcDbSymbolTableRecord
100
AcDbLayerTableRecord
  2
INTF_16
 70
0
 62
7
  6
CONTINUOUS
370
-3
390
F
  0
LAYER
  5
20B
100
AcDbSymbolTableRecord
100
AcDbLayerTableRecord
  2
INTF_18
 70
0
 62
7
  6
CONTINUOUS
370
-3
390
F
  0
LAYER
  5
20C
100
AcDbSymbolTableRecord
100
AcDbLayerTableRecord
  2
INTF_20
 70
0
 62
7
  6
CONTINUOUS
370
-3
390
F
  0
LAYER
  5
20D
100
AcDbSymbolTableRecord
100
AcDbLayerTableRecord
  2
INTF_3
 70
0
 62
7
  6
CONTINUOUS
370
-3
390
F
  0
LAYER
  5
20E
100
AcDbSymbolTableRecord
100
AcDbLayerTableRecord
  2
INTF_5
 70
0
 62
7
  6
CONTINUOUS
370
-3
390
F
  0
LAYER
  5
20F
100
AcDbSymbolTableRecord
100
AcDbLayerTableRecord
  2
INTF_8
 70
0
 62
7
  6
CONTINUOUS
370
-3
390
F
  0
LAYER
  5
210
100
AcDbSymbolTableRecord
100
AcDbLayerTableRecord
  2
NOTE
 70
0
 62
7
  6
CONTINUOUS
370
-3
390
F
  0
LAYER
  5
211
100
AcDbSymbolTableRecord
100
AcDbLayerTableRecord
  2
PIANI
 70
0
 62
7
  6
CONTINUOUS
370
-3
390
F
  0
LAYER
  5
212
100
AcDbSymbolTableRecord
100
AcDbLayerTableRecord
  2
PUNTI
 70
0
 62
7
  6
CONTINUOUS
370
-3
390
F
  0
LAYER
  5
213
100
AcDbSymbolTableRecord
100
AcDbLayerTableRecord
  2
RACCORDO
 70
0
 62
7
  6
CONTINUOUS
370
-3
390
F
  0
LAYER
  5
214
100
AcDbSymbolTableRecord
100
AcDbLayerTableRecord
  2
SIMBOLI
 70
0
 62
7
  6
CONTINUOUS
370
-3
390
F
  0
LAYER
  5
215
100
AcDbSymbolTableRecord
100
AcDbLayerTableRecord
  2
SMUSSO
 70
0
 62
7
  6
CONTINUOUS
370
-3
390
F
  0
LAYER
  5
216
100
AcDbSymbolTableRecord
100
AcDbLayerTableRecord
  2
SNAPLINE
 70
0
 62
7
  6
CONTINUOUS
370
-3
390
F
  0
LAYER
  5
217
100
AcDbSymbolTableRecord
100
AcDbLayerTableRecord
  2
SOLIDO
 70
0
 62
7
  6
CONTINUOUS
370
-3
390
F
  0
LAYER
  5
218
100
AcDbSymbolTableRecord
100
AcDbLayerTableRecord
  2
SUPERFICI
 70
0
 62
7
  6
CONTINUOUS
370
-3
390
F
  0
LAYER
  5
219
100
AcDbSymbolTableRecord
100
AcDbLayerTableRecord
  2
SUPERFICI_SKEL
 70
0
 62
7
  6
CONTINUOUS
370
-3
390
F
  0
LAYER
  5
21A
100
AcDbSymbolTableRecord
100
AcDbLayerTableRecord
  2
TRASH
 70
0
 62
7
  6
CONTINUOUS
370
-3
390
F
  0
LAYER
  5
21B
100
AcDbSymbolTableRecord
100
AcDbLayerTableRecord
  2
___SHELL
 70
0
 62
7
  6
CONTINUOUS
370
-3
390
F
  0
ENDTAB
  0
TABLE
  2
STYLE
  5
3
100
AcDbSymbolTable
 70
1
  0
STYLE
  5
11
100
AcDbSymbolTableRecord
100
AcDbTextStyleTableRecord
  2
STANDARD
 70
0
 40
0.0
 41
0.8
 50
0.0
 71
0
 42
0.2
  3
txt
  4

  0
STYLE
  5
21C
100
AcDbSymbolTableRecord
100
AcDbTextStyleTableRecord
  2
TEXTSTYLE_1
 70
0
 40
0.0
 41
0.8
 50
0.0
 71
0
 42
0.2
  3
gdt
  4

  0
ENDTAB
  0
TABLE
  2
VIEW
  5
6
100
AcDbSymbolTable
 70
0
  0
ENDTAB
  0
TABLE
  2
UCS
  5
7
100
AcDbSymbolTable
 70
0
  0
ENDTAB
  0
TABLE
  2
APPID
  5
9
100
AcDbSymbolTable
 70
1
  0
APPID
  5
21D
100
AcDbSymbolTableRecord
100
AcDbRegAppTableRecord
  2
ACAD
 70
0
  0
ENDTAB
  0
TABLE
  2
BLOCK_RECORD
  5
1
100
AcDbSymbolTable
 70
0
  0
BLOCK_RECORD
  5
21E
100
AcDbSymbolTableRecord
100
AcDbBlockTableRecord
  2
*Model_Space
  0
BLOCK_RECORD
  5
21F
100
AcDbSymbolTableRecord
100
AcDbBlockTableRecord
  2
*Paper_Space
  0
BLOCK_RECORD
  5
220
100
AcDbSymbolTableRecord
100
AcDbBlockTableRecord
  2
_FILLED
  0
BLOCK_RECORD
  5
221
100
AcDbSymbolTableRecord
100
AcDbBlockTableRecord
  2
*D0
  0
BLOCK_RECORD
  5
222
100
AcDbSymbolTableRecord
100
AcDbBlockTableRecord
  2
*D1
  0
BLOCK_RECORD
  5
223
100
AcDbSymbolTableRecord
100
AcDbBlockTableRecord
  2
*D2
  0
ENDTAB
  0
TABLE
  2
DIMSTYLE
  5
A
100
AcDbSymbolTable
 70
1
100
AcDbDimStyleTable
 71
0
  0
DIMSTYLE
105
224
100
AcDbSymbolTableRecord
100
AcDbDimStyleTableRecord
  2
STANDARD
 70
0
  3

  4

 40
1.0
 41
3.0
 42
0.5
 43
0.38
 44
1.5
 45
0.0
 46
0.0
 47
0.01
 48
0.01
140
3.0
141
0.09
142
0.0
143
25.4
144
1.0
145
0.0
146
1.0
147
0.625
 71
1.0
 72
0.0
 73
0
 74
0
 75
0
 76
0
 77
1
 78
8
170
0
171
1
172
0
173
0
174
0
175
0
176
0
177
0
178
0
270
2
271
2
272
2
273
2
274
2
275
0
280
0
281
0
282
0
283
1
284
8
285
0
286
0
287
3
288
0
340
11
278
44
341
220
342
220
343
220
344
220
  0
DIMSTYLE
105
225
100
AcDbSymbolTableRecord
100
AcDbDimStyleTableRecord
  2
DIMSTYLE_1
 70
0
  3

  4

 40
1.0
 41
3.0
 42
0.5
 43
0.38
 44
1.5
 45
0.0
 46
0.0
 47
0.0
 48
0.0
140
3.0
141
0.09
142
0.0
143
25.4
144
1.0
145
0.0
146
1.0
147
0.75
 71
0.0
 72
0.0
 73
0
 74
0
 75
0
 76
0
 77
1
 78
8
170
0
171
1
172
0
173
0
174
0
175
0
176
0
177
0
178
0
270
2
271
2
272
2
273
2
274
2
275
0
280
0
281
0
282
0
283
1
284
8
285
0
286
0
287
3
288
0
340
11
278
44
341
220
342
220
343
220
344
220
  0
DIMSTYLE
105
226
100
AcDbSymbolTableRecord
100
AcDbDimStyleTableRecord
  2
DIMSTYLE_2
 70
0
  3

  4

 40
1.0
 41
3.0
 42
0.5
 43
0.38
 44
1.5
 45
0.0
 46
0.0
 47
0.0
 48
0.0
140
3.0
141
0.09
142
0.0
143
25.4
144
1.0
145
0.0
146
1.0
147
0.75
 71
0.0
 72
0.0
 73
0
 74
0
 75
0
 76
0
 77
1
 78
8
170
0
171
1
172
0
173
0
174
0
175
0
176
0
177
0
178
0
270
2
271
1
272
1
273
2
274
2
275
0
280
0
281
0
282
0
283
1
284
8
285
0
286
0
287
3
288
0
340
11
278
44
341
220
342
220
343
220
344
220
  0
ENDTAB
  0
ENDSEC
  0
SECTION
  2
BLOCKS
  0
BLOCK
  5
20
100
AcDbEntity
  8
0
100
AcDbBlockBegin
  2
*Model_Space
 70
0
 10
0.0
 20
0.0
 30
0.0
  3
*Model_Space
  1

  0
ENDBLK
  5
21
100
AcDbEntity
  8
0
100
AcDbBlockEnd
  0
BLOCK
  5
1C
100
AcDbEntity
  8
0
100
AcDbBlockBegin
  2
*Paper_Space
 70
0
 10
0.0
 20
0.0
 30
0.0
  3
*Paper_Space
  1

  0
ENDBLK
  5
1D
100
AcDbEntity
  8
0
100
AcDbBlockEnd
  0
BLOCK
  5
227
100
AcDbEntity
  8
0
100
AcDbBlockBegin
  2
_FILLED
 70
64
 10
0.0
 20
0.0
  3
_FILLED
  1

  0
SOLID
  5
228
100
AcDbEntity
  8
0
  6
BYBLOCK
 62
0
100
AcDbTrace
 10
0.0
 20
0.0
 11
-1.0
 21
0.3166666667
 12
-1.0
 22
-0.3166666667
 13
-1.0
 23
-0.3166666667
  0
ENDBLK
  5
229
100
AcDbEntity
  8
0
  6
BYBLOCK
 62
0
100
AcDbBlockEnd
  0
BLOCK
  5
22A
100
AcDbEntity
  8
0
100
AcDbBlockBegin
 62
7
  6
CONTINUOUS
  2
*D0
 70
65
 10
0.0
 20
0.0
  3
*D0
  1

  0
MTEXT
  5
22B
100
AcDbEntity
  8
0
100
AcDbMText
 62
7
  6
CONTINUOUS
  7
STANDARD
 71
2
 72
1
 10
-0.2127049564
 20
34.1255969451
 30
0.0
 11
1.0
 21
0.0
 31
0.0
 44
0.9
  1
44,55
 40
3.0
 41
16.0714285714
  0
LINE
  5
22C
100
AcDbEntity
  8
0
100
AcDbLine
 62
7
  6
CONTINUOUS
 10
-22.4880750799
 20
13.5755969451
 11
-22.4880750799
 21
31.8755969451
  0
LINE
  5
22D
100
AcDbEntity
  8
0
100
AcDbLine
 62
7
  6
CONTINUOUS
 10
22.0626651672
 20
13.5755969451
 11
22.0626651672
 21
31.8755969451
  0
LINE
  5
22E
100
AcDbEntity
  8
0
100
AcDbLine
 62
7
  6
CONTINUOUS
 10
-22.4880750799
 20
30.3755969451
 11
-0.2127049564
 21
30.3755969451
  0
LINE
  5
22F
100
AcDbEntity
  8
0
100
AcDbLine
 62
7
  6
CONTINUOUS
 10
22.0626651672
 20
30.3755969451
 11
-0.2127049564
 21
30.3755969451
  0
INSERT
  5
230
100
AcDbEntity
  8
0
100
AcDbBlockReference
 62
7
  6
CONTINUOUS
  2
_FILLED
 10
-22.4880750799
 20
30.3755969451
 41
3.0
 42
3.0
 43
3.0
 50
180.0
  0
INSERT
  5
231
100
AcDbEntity
  8
0
100
AcDbBlockReference
 62
7
  6
CONTINUOUS
  2
_FILLED
 10
22.0626651672
 20
30.3755969451
 41
3.0
 42
3.0
 43
3.0
  0
ENDBLK
  5
232
100
AcDbEntity
  8
0
  6
BYBLOCK
 62
0
100
AcDbBlockEnd
  0
BLOCK
  5
233
100
AcDbEntity
  8
0
100
AcDbBlockBegin
 62
7
  6
CONTINUOUS
  2
*D1
 70
65
 10
0.0
 20
0.0
  3
*D1
  1

  0
MTEXT
  5
234
100
AcDbEntity
  8
0
100
AcDbMText
 62
7
  6
CONTINUOUS
  7
STANDARD
 71
2
 72
1
 10
26.3872950436
 20
-0.0244030549
 30
0.0
 11
0.0
 21
1.0
 31
0.0
 44
0.9
  1
44,4
 40
3.0
 41
13.1785714286
  0
LINE
  5
235
100
AcDbEntity
  8
0
100
AcDbLine
 62
7
  6
CONTINUOUS
 10
22.0423108374
 20
22.1844698036
 11
31.6372950436
 21
22.1844698036
  0
LINE
  5
236
100
AcDbEntity
  8
0
100
AcDbLine
 62
7
  6
CONTINUOUS
 10
22.0423108374
 20
-22.2332759133
 11
31.6372950436
 21
-22.2332759133
  0
LINE
  5
237
100
AcDbEntity
  8
0
100
AcDbLine
 62
7
  6
CONTINUOUS
 10
30.1372950436
 20
22.1844698036
 11
30.1372950436
 21
-0.0244030549
  0
LINE
  5
238
100
AcDbEntity
  8
0
100
AcDbLine
 62
7
  6
CONTINUOUS
 10
30.1372950436
 20
-22.2332759133
 11
30.1372950436
 21
-0.0244030549
  0
INSERT
  5
239
100
AcDbEntity
  8
0
100
AcDbBlockReference
 62
7
  6
CONTINUOUS
  2
_FILLED
 10
30.1372950436
 20
22.1844698036
 41
3.0
 42
3.0
 43
3.0
 50
90.0
  0
INSERT
  5
23A
100
AcDbEntity
  8
0
100
AcDbBlockReference
 62
7
  6
CONTINUOUS
  2
_FILLED
 10
30.1372950436
 20
-22.2332759133
 41
3.0
 42
3.0
 43
3.0
 50
270.0
  0
ENDBLK
  5
23B
100
AcDbEntity
  8
0
  6
BYBLOCK
 62
0
100
AcDbBlockEnd
  0
BLOCK
  5
23C
100
AcDbEntity
  8
0
100
AcDbBlockBegin
 62
7
  6
CONTINUOUS
  2
*D2
 70
65
 10
0.0
 20
0.0
  3
*D2
  1

  0
MTEXT
  5
23D
100
AcDbEntity
  8
0
100
AcDbMText
 62
7
  6
CONTINUOUS
  7
STANDARD
 71
1
 72
1
 10
-34.7416207011
 20
34.1255969451
 30
0.0
 11
1.0
 21
0.0
 31
0.0
 44
0.9
  1
6,35
 40
3.0
 41
12.5357142857
  0
LINE
  5
23E
100
AcDbEntity
  8
0
100
AcDbLine
 62
7
  6
CONTINUOUS
 10
-38.7577423628
 20
13.5755969451
 11
-38.7577423628
 21
31.8755969451
  0
LINE
  5
23F
100
AcDbEntity
  8
0
100
AcDbLine
 62
7
  6
CONTINUOUS
 10
-45.1068725157
 20
1.2266605699
 11
-45.1068725157
 21
31.8755969451
  0
LINE
  5
240
100
AcDbEntity
  8
0
100
AcDbLine
 62
7
  6
CONTINUOUS
 10
-38.7577423628
 20
30.3755969451
 11
-26.3844778439
 21
30.3755969451
  0
LINE
  5
241
100
AcDbEntity
  8
0
100
AcDbLine
 62
7
  6
CONTINUOUS
 10
-26.3844778439
 20
30.3755969451
 11
-41.9323074393
 21
30.3755969451
  0
LINE
  5
242
100
AcDbEntity
  8
0
100
AcDbLine
 62
7
  6
CONTINUOUS
 10
-45.1068725157
 20
30.3755969451
 11
-49.1068725157
 21
30.3755969451
  0
LINE
  5
243
100
AcDbEntity
  8
0
100
AcDbLine
 62
7
  6
CONTINUOUS
 10
-49.1068725157
 20
30.3755969451
 11
-41.9323074393
 21
30.3755969451
  0
INSERT
  5
244
100
AcDbEntity
  8
0
100
AcDbBlockReference
 62
7
  6
CONTINUOUS
  2
_FILLED
 10
-38.7577423628
 20
30.3755969451
 41
3.0
 42
3.0
 43
3.0
 50
180.0
  0
INSERT
  5
245
100
AcDbEntity
  8
0
100
AcDbBlockReference
 62
7
  6
CONTINUOUS
  2
_FILLED
 10
-45.1068725157
 20
30.3755969451
 41
3.0
 42
3.0
 43
3.0
  0
ENDBLK
  5
246
100
AcDbEntity
  8
0
  6
BYBLOCK
 62
0
100
AcDbBlockEnd
  0
ENDSEC
  0
SECTION
  2
ENTITIES
  0
DIMENSION
  5
247
100
AcDbEntity
  8
0
100
AcDbDimension
 62
7
  6
CONTINUOUS
  2
*D0
 10
22.0626651672
 20
30.3755969451
 11
-0.6412763672
 21
30.3755969451
 70
160
 71
2
 42
44.5507402471
  3
DIMSTYLE_1
100
AcDbAlignedDimension
 13
-22.4880750799
 23
13.0755969451
 14
22.0626651672
 24
13.0755969451
100
AcDbRotatedDimension
  0
DIMENSION
  5
248
100
AcDbEntity
  8
0
100
AcDbDimension
 62
7
  6
CONTINUOUS
  2
*D1
 10
30.1372950436
 20
-22.2332759133
 11
30.1372950436
 21
-0.4529747741
 70
160
 71
2
 42
44.4177457169
  3
DIMSTYLE_2
100
AcDbAlignedDimension
 13
21.5423108374
 23
22.1844698036
 14
21.5423108374
 24
-22.2332759133
 50
270.0
100
AcDbRotatedDimension
  0
DIMENSION
  5
249
100
AcDbEntity
  8
0
100
AcDbDimension
 62
7
  6
CONTINUOUS
  2
*D2
 10
-45.1068725157
 20
30.3755969451
 11
-30.991619854
 21
30.3755969451
 70
160
 71
1
 42
6.3491301528
  3
DIMSTYLE_1
100
AcDbAlignedDimension
 13
-38.7577423628
 23
13.0755969451
 14
-45.1068725157
 24
0.7266605699
 50
180.0
100
AcDbRotatedDimension
  0
LWPOLYLINE
  5
24A
100
AcDbEntity
  8
ASSI
100
AcDbPolyline
 62
253
  6
CONTINUOUS
 90
7
 70
0
 10
-21.8755423538
 20
21.9999865103
 10
-21.8765939797
 20
21.9926005572
 10
-21.8776874267
 20
21.9793248514
 10
-21.8787948164
 20
21.9602280207
 10
-21.8798675105
 20
21.9354083004
 10
-21.8808995722
 20
21.9049907368
 10
-21.8829288634
 20
21.8279857439
  0
LINE
  5
24B
100
AcDbEntity
  8
ASSI
100
AcDbLine
 62
7
  6
CONTINUOUS
 10
14.4313734134
 20
-22.2332759133
 11
14.7795600167
 21
-22.2016699929
  0
LWPOLYLINE
  5
24C
100
AcDbEntity
  8
ASSI
100
AcDbPolyline
 62
253
  6
CONTINUOUS
 90
16
 70
0
 10
21.4501324411
 20
-22.04879262
 10
21.5023340675
 20
-22.0459905748
 10
21.5539646791
 20
-22.0377579854
 10
21.6044595758
 20
-22.0241849151
 10
21.6532664976
 20
-22.0054198307
 10
21.6998516191
 20
-21.9816679947
 10
21.7437053958
 20
-21.9531892345
 10
21.7843482002
 20
-21.9202950659
 10
21.8213355448
 20
-21.8833452815
 10
21.8542629084
 20
-21.8427440464
 10
21.882770188
 20
-21.798935455
 10
21.9065456403
 20
-21.752398658
 10
21.9253292746
 20
-21.7036426331
 10
21.9389156912
 20
-21.6532006301
 10
21.9471563308
 20
-21.6016243409
 10
21.9499611036
 20
-21.5494778526
  0
LWPOLYLINE
  5
24D
100
AcDbEntity
  8
ASSI
100
AcDbPolyline
 62
253
  6
CONTINUOUS
 90
16
 70
0
 10
-21.8755423565
 20
-22.0487926254
 10
-21.9277433265
 20
-22.0459906501
 10
-21.9793733681
 20
-22.037758253
 10
-22.029867797
 20
-22.0241854728
 10
-22.0786743494
 20
-22.0054207566
 10
-22.1252592221
 20
-21.9816693365
 10
-22.1691129105
 20
-21.9531909848
 10
-22.2097557814
 20
-21.9202971726
 10
-22.2467433188
 20
-21.8833476636
 10
-22.2796709852
 20
-21.8427465794
 10
-22.3081786469
 20
-21.7989379788
 10
-22.3319545119
 20
-21.752401002
 10
-22.3507385407
 20
-21.7036446297
 10
-22.36432529
 20
-21.6532021163
 10
-22.3725661599
 20
-21.6016251579
 10
-22.375371019
 20
-21.549477858
  0
LINE
  5
24E
100
AcDbEntity
  8
ASSI
100
AcDbLine
 62
7
  6
CONTINUOUS
 10
-14.8567833262
 20
-22.2332759133
 11
-15.2049699294
 21
-22.2016699929
  0
LWPOLYLINE
  5
24F
100
AcDbEntity
  8
ASSI
100
AcDbPolyline
 62
253
  6
CONTINUOUS
 90
8
 70
0
 10
-21.8749772396
 20
0.3530962996
 10
-21.8713392502
 20
0.3199971385
 10
-21.8674095211
 20
0.2913542004
 10
-21.8637609957
 20
0.2674313849
 10
-21.8594898199
 20
0.2483916836
 10
-21.8545983058
 20
0.2344925191
 10
-21.8500616505
 20
0.225946299
 10
-21.8463674721
 20
0.2228041782
  0
LWPOLYLINE
  5
250
100
AcDbEntity
  8
ASSI
100
AcDbPolyline
 62
253
  6
CONTINUOUS
 90
16
 70
0
 10
-22.3461961347
 20
0.7227851398
 10
-22.3435106022
 20
0.6711392482
 10
-22.3354704436
 20
0.6198752891
 10
-22.3221088454
 20
0.569553795
 10
-22.3034949341
 20
0.5206815529
 10
-22.2797933157
 20
0.4738690976
 10
-22.2513177268
 20
0.4297969438
 10
-22.2184228939
 20
0.3889968828
 10
-22.1814390643
 20
0.3518636377
 10
-22.1407618165
 20
0.3187978189
 10
-22.0968277093
 20
0.2901618874
 10
-22.0501244855
 20
0.2662807827
 10
-22.0011777645
 20
0.2474258057
 10
-21.950531055
 20
0.23380557
 10
-21.8987375738
 20
0.2255681222
 10
-21.8463674722
 20
0.2228041782
  0
LWPOLYLINE
  5
251
100
AcDbEntity
  8
ASSI
100
AcDbPolyline
 62
253
  6
CONTINUOUS
 90
4
 70
0
 10
-21.8852799158
 20
0.5213571493
 10
-21.8834796718
 20
0.4746454429
 10
-21.8807663245
 20
0.4306745441
 10
-21.8749772396
 20
0.3530962996
  0
LWPOLYLINE
  5
252
100
AcDbEntity
  8
ASSI
100
AcDbPolyline
 62
253
  6
CONTINUOUS
 90
6
 70
0
 10
-21.8808995616
 20
-21.9537968508
 10
-21.8798675022
 20
-21.9842144139
 10
-21.8787948107
 20
-22.0090341343
 10
-21.8776874235
 20
-22.0281309655
 10
-21.8765939794
 20
-22.0414066718
 10
-21.8755423565
 20
-22.0487926254
  0
LINE
  5
253
100
AcDbEntity
  8
ASSI
100
AcDbLine
 62
253
  6
CONTINUOUS
 10
-22.3646889031
 20
21.3436139558
 11
-22.3628032155
 21
21.2760131479
  0
LINE
  5
254
100
AcDbEntity
  8
ASSI
100
AcDbLine
 62
253
  6
CONTINUOUS
 10
-21.8829288486
 20
-21.8767918592
 11
-21.8808995616
 21
-21.9537968508
  0
LINE
  5
255
100
AcDbEntity
  8
ASSI
100
AcDbLine
 62
253
  6
CONTINUOUS
 10
-22.3628032155
 20
21.2760131479
 11
-22.3611893937
 21
21.1992661972
  0
LINE
  5
256
100
AcDbEntity
  8
ASSI
100
AcDbLine
 62
253
  6
CONTINUOUS
 10
-21.8848025328
 20
-21.779546515
 11
-21.8829288486
 21
-21.8767918592
  0
LINE
  5
257
100
AcDbEntity
  8
ASSI
100
AcDbLine
 62
253
  6
CONTINUOUS
 10
-22.3611893937
 20
21.1992661972
 11
-22.3598710791
 21
21.1145139793
  0
LINE
  5
258
100
AcDbEntity
  8
ASSI
100
AcDbLine
 62
253
  6
CONTINUOUS
 10
-21.8873018175
 20
-21.6000746694
 11
-21.8848025328
 21
-21.779546515
  0
LINE
  5
259
100
AcDbEntity
  8
ASSI
100
AcDbLine
 62
253
  6
CONTINUOUS
 10
-22.3598710791
 20
21.1145139793
 11
-22.3585125993
 21
20.9765054987
  0
LINE
  5
25A
100
AcDbEntity
  8
ASSI
100
AcDbLine
 62
253
  6
CONTINUOUS
 10
-21.8898750655
 20
-21.3108867106
 11
-21.8873018175
 21
-21.6000746694
  0
LWPOLYLINE
  5
25B
100
AcDbEntity
  8
ASSI
100
AcDbPolyline
 62
253
  6
CONTINUOUS
 90
3
 70
0
 10
-21.8890192412
 20
-0.7723581543
 10
-21.8892442267
 20
-0.7193695459
 10
-21.8883918899
 20
-0.6681190212
  0
LINE
  5
25C
100
AcDbEntity
  8
ASSI
100
AcDbLine
 62
7
  6
CONTINUOUS
 10
-22.4683471718
 20
-21.735557759
 11
-22.4880750799
 21
-13.1244030549
  0
LINE
  5
25D
100
AcDbEntity
  8
ASSI
100
AcDbLine
 62
253
  6
CONTINUOUS
 10
-21.8916025209
 20
-20.9016678407
 11
-21.8898750655
 21
-21.3108867106
  0
LINE
  5
25E
100
AcDbEntity
  8
ASSI
100
AcDbLine
 62
253
  6
CONTINUOUS
 10
-22.3585125993
 20
20.9765054987
 11
-22.3579445033
 21
20.8314207742
  0
LINE
  5
25F
100
AcDbEntity
  8
ASSI
100
AcDbLine
 62
253
  6
CONTINUOUS
 10
-22.3579445033
 20
20.8314207742
 11
-22.3484492801
 21
9.1434317216
  0
LINE
  5
260
100
AcDbEntity
  8
ASSI
100
AcDbLine
 62
7
  6
CONTINUOUS
 10
-22.4880750799
 20
13.0755969451
 11
-22.4880750799
 21
0.6755017629
  0
LINE
  5
261
100
AcDbEntity
  8
ASSI
100
AcDbLine
 62
7
  6
CONTINUOUS
 10
-22.4880750799
 20
-13.1244030549
 11
-22.4880750799
 21
-0.7243078727
  0
LINE
  5
262
100
AcDbEntity
  8
ASSI
100
AcDbLine
 62
253
  6
CONTINUOUS
 10
-22.3484492801
 20
9.1434317216
 11
-22.3461961347
 21
0.7227851398
  0
LINE
  5
263
100
AcDbEntity
  8
ASSI
100
AcDbLine
 62
253
  6
CONTINUOUS
 10
-21.8890192012
 20
-0.7723581487
 11
-21.8916025541
 21
-20.9016678462
  0
LINE
  5
264
100
AcDbEntity
  8
ASSI
100
AcDbLine
 62
253
  6
CONTINUOUS
 10
-22.3461961347
 20
-0.7715912495
 11
-22.348443127
 21
-9.1835460855
  0
LINE
  5
265
100
AcDbEntity
  8
ASSI
100
AcDbLine
 62
253
  6
CONTINUOUS
 10
-22.348443127
 20
-9.1835460855
 11
-22.3530814388
 21
-15.9527689967
  0
LINE
  5
266
100
AcDbEntity
  8
ASSI
100
AcDbLine
 62
7
  6
CONTINUOUS
 10
-22.4683471718
 20
21.6867516493
 11
-22.4880750799
 21
13.0755969451
  0
LINE
  5
267
100
AcDbEntity
  8
ASSI
100
AcDbLine
 62
253
  6
CONTINUOUS
 10
-21.8911291378
 20
21.0202040973
 11
-21.8890192011
 21
0.7235520277
  0
LINE
  5
268
100
AcDbEntity
  8
ASSI
100
AcDbLine
 62
253
  6
CONTINUOUS
 10
-22.3530814388
 20
-15.9527689967
 11
-22.358235416
 21
-20.9777362896
  0
LWPOLYLINE
  5
269
100
AcDbEntity
  8
ASSI
100
AcDbPolyline
 62
253
  6
CONTINUOUS
 90
4
 70
0
 10
-21.8890192412
 20
0.723552022
 10
-21.8892440974
 20
0.6705654143
 10
-21.8883918417
 20
0.6193165665
 10
-21.8852799158
 20
0.5213571493
  0
LINE
  5
26A
100
AcDbEntity
  8
ASSI
100
AcDbLine
 62
253
  6
CONTINUOUS
 10
-21.8887039359
 20
21.4126714351
 11
-21.8911291378
 21
21.0202040973
  0
LINE
  5
26B
100
AcDbEntity
  8
ASSI
100
AcDbLine
 62
253
  6
CONTINUOUS
 10
-22.358235416
 20
-20.9777362896
 11
-22.3593348599
 21
-21.1186011389
  0
LINE
  5
26C
100
AcDbEntity
  8
ASSI
100
AcDbLine
 62
253
  6
CONTINUOUS
 10
-21.8865139231
 20
21.6151985551
 11
-21.8887039359
 21
21.4126714351
  0
LINE
  5
26D
100
AcDbEntity
  8
ASSI
100
AcDbLine
 62
253
  6
CONTINUOUS
 10
-22.3593348599
 20
-21.1186011389
 11
-22.3604896477
 21
-21.2064625449
  0
LINE
  5
26E
100
AcDbEntity
  8
ASSI
100
AcDbLine
 62
253
  6
CONTINUOUS
 10
-21.8848025513
 20
21.7307403988
 11
-21.8865139231
 21
21.6151985551
  0
LINE
  5
26F
100
AcDbEntity
  8
ASSI
100
AcDbLine
 62
253
  6
CONTINUOUS
 10
-22.3604896477
 20
-21.2064625449
 11
-22.3619602088
 21
-21.2875344456
  0
LINE
  5
270
100
AcDbEntity
  8
ASSI
100
AcDbLine
 62
253
  6
CONTINUOUS
 10
-21.8829288634
 20
21.8279857439
 11
-21.8848025513
 21
21.7307403988
  0
LWPOLYLINE
  5
271
100
AcDbEntity
  8
ASSI
100
AcDbPolyline
 62
253
  6
CONTINUOUS
 90
12
 70
0
 10
-22.3619602088
 20
-21.2875344456
 10
-22.3637172912
 20
-21.3599564463
 10
-22.3646889059
 20
-21.3924200717
 10
-22.3657189182
 20
-21.4221684923
 10
-22.3668064724
 20
-21.449243356
 10
-22.3679354795
 20
-21.4732436855
 10
-22.3691071264
 20
-21.4941247337
 10
-22.3703202264
 20
-21.5119312476
 10
-22.3715551305
 20
-21.5263964907
 10
-22.3728052892
 20
-21.5374315507
 10
-22.374077252
 20
-21.5451253398
 10
-22.375371019
 20
-21.549477858
  0
LWPOLYLINE
  5
272
100
AcDbEntity
  8
ASSI
100
AcDbPolyline
 62
253
  6
CONTINUOUS
 90
4
 70
0
 10
-21.8883918899
 20
-0.6681190212
 10
-21.8852796656
 20
-0.5701572625
 10
-21.8834793827
 20
-0.5234448962
 10
-21.8807658979
 20
-0.4794737791
  0
LWPOLYLINE
  5
273
100
AcDbEntity
  8
ASSI
100
AcDbPolyline
 62
253
  6
CONTINUOUS
 90
16
 70
0
 10
-22.3461961347
 20
-0.7715912495
 10
-22.3435105973
 20
-0.71994531
 10
-22.335470426
 20
-0.6686813153
 10
-22.3221088112
 20
-0.6183597984
 10
-22.3034948833
 20
-0.5694875475
 10
-22.2797932515
 20
-0.5226750954
 10
-22.2513176532
 20
-0.4786029518
 10
-22.2184228178
 20
-0.4378029076
 10
-22.1814389933
 20
-0.4006696833
 10
-22.1407617527
 20
-0.3676038821
 10
-22.096827651
 20
-0.3389679633
 10
-22.0501244332
 20
-0.3150868691
 10
-22.001177721
 20
-0.2962319012
 10
-21.9505310238
 20
-0.282611673
 10
-21.8987375572
 20
-0.2743742302
 10
-21.8463674722
 20
-0.271610288
  0
LWPOLYLINE
  5
274
100
AcDbEntity
  8
ASSI
100
AcDbPolyline
 62
253
  6
CONTINUOUS
 90
9
 70
0
 10
-21.8807658979
 20
-0.4794737791
 10
-21.8749766645
 20
-0.40189647
 10
-21.871338666
 20
-0.3687982356
 10
-21.8674089149
 20
-0.3401564124
 10
-21.8637604519
 20
-0.3162347757
 10
-21.8594893965
 20
-0.2971961428
 10
-21.8545980291
 20
-0.2832978337
 10
-21.8500615283
 20
-0.2747521896
 10
-21.8463674721
 20
-0.271610288
  0
LINE
  5
275
100
AcDbEntity
  8
ASSI
100
AcDbLine
 62
7
  6
CONTINUOUS
 10
3.2313734134
 20
-22.2332759133
 11
3.5795600167
 21
-22.2016699929
  0
LINE
  5
276
100
AcDbEntity
  8
ASSI
100
AcDbLine
 62
7
  6
CONTINUOUS
 10
-8.0686265866
 20
-22.2332759133
 11
-7.7204399833
 21
-22.2016699929
  0
LWPOLYLINE
  5
277
100
AcDbEntity
  8
ASSI
100
AcDbPolyline
 62
253
  6
CONTINUOUS
 90
14
 70
0
 10
21.563196814
 20
-20.9008608758
 10
21.6100342497
 20
-20.9001548361
 10
21.6551523202
 20
-20.8992555761
 10
21.6981135632
 20
-20.898171815
 10
21.7385014291
 20
-20.8969140608
 10
21.7759243192
 20
-20.8954945088
 10
21.8100193836
 20
-20.8939269227
 10
21.8404560383
 20
-20.8922265018
 10
21.8669391714
 20
-20.8904097332
 10
21.8892120038
 20
-20.8884942324
 10
21.9070585795
 20
-20.8864985717
 10
21.9203058592
 20
-20.8844421011
 10
21.9288253978
 20
-20.8823447599
 10
21.9325345906
 20
-20.880226884
  0
LINE
  5
278
100
AcDbEntity
  8
ASSI
100
AcDbLine
 62
253
  6
CONTINUOUS
 10
21.4661926468
 20
-20.9016678515
 11
21.563196814
 21
-20.9008608758
  0
LINE
  5
279
100
AcDbEntity
  8
ASSI
100
AcDbLine
 62
253
  6
CONTINUOUS
 10
-21.8755423565
 20
-22.0487926254
 11
-18.6212929364
 21
-22.0390462373
  0
LINE
  5
27A
100
AcDbEntity
  8
ASSI
100
AcDbLine
 62
253
  6
CONTINUOUS
 10
-18.6212929364
 20
-22.0390462373
 11
-15.2216780629
 21
-22.0327236799
  0
LINE
  5
27B
100
AcDbEntity
  8
ASSI
100
AcDbLine
 62
253
  6
CONTINUOUS
 10
-15.2216780629
 20
-22.0327236799
 11
-11.4626663527
 21
-22.0303169829
  0
LINE
  5
27C
100
AcDbEntity
  8
ASSI
100
AcDbLine
 62
253
  6
CONTINUOUS
 10
-21.8916025541
 20
-20.9016678462
 11
-12.7574084667
 21
-20.8947122719
  0
LINE
  5
27D
100
AcDbEntity
  8
ASSI
100
AcDbLine
 62
7
  6
CONTINUOUS
 10
-21.9677207501
 20
-22.2332759133
 11
-19.2686265866
 21
-22.2332759133
  0
LINE
  5
27E
100
AcDbEntity
  8
ASSI
100
AcDbLine
 62
7
  6
CONTINUOUS
 10
-14.8567833262
 20
-22.2332759133
 11
-8.0686265866
 21
-22.2332759133
  0
LINE
  5
27F
100
AcDbEntity
  8
ASSI
100
AcDbLine
 62
7
  6
CONTINUOUS
 10
-3.6567833262
 20
-22.2332759133
 11
3.2313734134
 21
-22.2332759133
  0
LINE
  5
280
100
AcDbEntity
  8
ASSI
100
AcDbLine
 62
7
  6
CONTINUOUS
 10
7.6432166738
 20
-22.2332759133
 11
14.4313734134
 21
-22.2332759133
  0
LINE
  5
281
100
AcDbEntity
  8
ASSI
100
AcDbLine
 62
7
  6
CONTINUOUS
 10
18.8432166738
 20
-22.2332759133
 11
21.5423108374
 21
-22.2332759133
  0
LINE
  5
282
100
AcDbEntity
  8
ASSI
100
AcDbLine
 62
7
  6
CONTINUOUS
 10
3.7527650975
 20
-22.196429215
 11
7.1218249898
 21
-22.196429215
  0
LINE
  5
283
100
AcDbEntity
  8
ASSI
100
AcDbLine
 62
7
  6
CONTINUOUS
 10
-4.1781750102
 20
-22.196429215
 11
-7.5472349025
 21
-22.196429215
  0
LINE
  5
284
100
AcDbEntity
  8
ASSI
100
AcDbLine
 62
7
  6
CONTINUOUS
 10
14.9527650975
 20
-22.196429215
 11
18.3218249898
 21
-22.196429215
  0
LINE
  5
285
100
AcDbEntity
  8
ASSI
100
AcDbLine
 62
7
  6
CONTINUOUS
 10
-15.3781750102
 20
-22.196429215
 11
-18.7472349025
 21
-22.196429215
  0
LINE
  5
286
100
AcDbEntity
  8
ASSI
100
AcDbLine
 62
253
  6
CONTINUOUS
 10
-11.4626663527
 20
-22.0303169829
 11
13.7084522586
 21
-22.031532343
  0
LINE
  5
287
100
AcDbEntity
  8
ASSI
100
AcDbLine
 62
253
  6
CONTINUOUS
 10
-12.7574084667
 20
-20.8947122719
 11
16.2688852055
 21
-20.8963513503
  0
LINE
  5
288
100
AcDbEntity
  8
ASSI
100
AcDbLine
 62
253
  6
CONTINUOUS
 10
16.2688852055
 20
-20.8963513503
 11
21.4661926469
 21
-20.9016678419
  0
LINE
  5
289
100
AcDbEntity
  8
ASSI
100
AcDbLine
 62
253
  6
CONTINUOUS
 10
13.7084522586
 20
-22.031532343
 11
17.0995630691
 21
-22.0365696832
  0
LWPOLYLINE
  5
28A
100
AcDbEntity
  8
ASSI
100
AcDbPolyline
 62
253
  6
CONTINUOUS
 90
3
 70
0
 10
17.0995630691
 20
-22.0365696832
 10
20.5522507197
 20
-22.0457616163
 10
21.4501324411
 20
-22.04879262
  0
LWPOLYLINE
  5
28B
100
AcDbEntity
  8
ASSI
100
AcDbPolyline
 62
253
  6
CONTINUOUS
 90
15
 70
0
 10
-21.8916016643
 20
-20.9016673083
 10
-21.9886049221
 20
-20.9008603588
 10
-22.0354419636
 20
-20.9001543409
 10
-22.0805596975
 20
-20.8992551084
 10
-22.1235206736
 20
-20.8981713799
 10
-22.163908353
 20
-20.8969136625
 10
-22.2013311467
 20
-20.8954941509
 10
-22.2354262128
 20
-20.8939266082
 10
-22.2658629741
 20
-20.892226233
 10
-22.2923463233
 20
-20.8904095117
 10
-22.3146194845
 20
-20.8884940587
 10
-22.3324665026
 20
-20.8864984458
 10
-22.3457143375
 20
-20.884442022
 10
-22.3542345414
 20
-20.8823447258
 10
-22.3579445047
 20
-20.8802268921
  0
LINE
  5
28C
100
AcDbEntity
  8
ASSI
100
AcDbLine
 62
7
  6
CONTINUOUS
 10
-3.6567833262
 20
-22.2332759133
 11
-4.0049699294
 21
-22.2016699929
  0
LINE
  5
28D
100
AcDbEntity
  8
ASSI
100
AcDbLine
 62
7
  6
CONTINUOUS
 10
7.6432166738
 20
-22.2332759133
 11
7.2950300706
 21
-22.2016699929
  0
LINE
  5
28E
100
AcDbEntity
  8
ASSI
100
AcDbLine
 62
7
  6
CONTINUOUS
 10
-19.2686265866
 20
-22.2332759133
 11
-18.9204399833
 21
-22.2016699929
  0
LINE
  5
28F
100
AcDbEntity
  8
ASSI
100
AcDbLine
 62
7
  6
CONTINUOUS
 10
18.8432166738
 20
-22.2332759133
 11
18.4950300706
 21
-22.2016699929
  0
LWPOLYLINE
  5
290
100
AcDbEntity
  8
ASSI
100
AcDbPolyline
 62
253
  6
CONTINUOUS
 90
10
 70
0
 10
-22.3753710163
 20
21.5006717429
 10
-22.3740772493
 20
21.4963192246
 10
-22.3728052865
 20
21.4886254353
 10
-22.3715551278
 20
21.4775903753
 10
-22.3703202237
 20
21.4631251322
 10
-22.3691071237
 20
21.4453186183
 10
-22.3679354768
 20
21.42443757
 10
-22.3668064696
 20
21.4004372404
 10
-22.3657189155
 20
21.3733623766
 10
-22.3646889031
 20
21.3436139558
  0
LWPOLYLINE
  5
291
100
AcDbEntity
  8
0
100
AcDbPolyline
 62
253
  6
CONTINUOUS
 90
49
 70
0
 10
-11.46193367
 20
-13.5244026583
 10
-11.4864811552
 20
-13.5240243304
 10
-11.5110034928
 20
-13.5228410959
 10
-11.5354745656
 20
-13.5208563227
 10
-11.5598682566
 20
-13.5180733786
 10
-11.5841584484
 20
-13.5144956318
 10
-11.6083190241
 20
-13.5101264502
 10
-11.6323238664
 20
-13.5049692018
 10
-11.6561468581
 20
-13.4990272545
 10
-11.679762158
 20
-13.4923050928
 10
-11.7031450281
 20
-13.4848116679
 10
-11.726271006
 20
-13.4765570474
 10
-11.7491156295
 20
-13.4675512987
 10
-11.7716544366
 20
-13.4578044896
 10
-11.7938629648
 20
-13.4473266877
 10
-11.8157167521
 20
-13.4361279606
 10
-11.8371913361
 20
-13.4242183759
 10
-11.8582628387
 20
-13.4116089948
 10
-11.8789097179
 20
-13.3983148538
 10
-11.8991110154
 20
-13.3843519827
 10
-11.9188457733
 20
-13.3697364115
 10
-11.9380930334
 20
-13.3544841702
 10
-11.9568318378
 20
-13.3386112887
 10
-11.9750412282
 20
-13.322133797
 10
-11.9927002467
 20
-13.3050677251
 10
-12.0097887406
 20
-13.287429922
 10
-12.0262897786
 20
-13.269240513
 10
-12.0421872351
 20
-13.2505204427
 10
-12.0574649843
 20
-13.2312906554
 10
-12.0721069004
 20
-13.2115720955
 10
-12.0860968577
 20
-13.1913857076
 10
-12.0994187305
 20
-13.170752436
 10
-12.1120563929
 20
-13.1496932251
 10
-12.1239947181
 20
-13.1282295919
 10
-12.1352225748
 20
-13.1063853429
 10
-12.1457298308
 20
-13.0841848572
 10
-12.1555063535
 20
-13.0616525137
 10
-12.1645420106
 20
-13.0388126915
 10
-12.1728266698
 20
-13.0156897697
 10
-12.1803501986
 20
-12.9923081272
 10
-12.1871024648
 20
-12.9686921431
 10
-12.1930744407
 20
-12.9448664885
 10
-12.1982615186
 20
-12.9208570036
 10
-12.2026601953
 20
-12.8966898203
 10
-12.2062669679
 20
-12.8723910709
 10
-12.2090783333
 20
-12.8479868875
 10
-12.2110907885
 20
-12.8235034023
 10
-12.2123008306
 20
-12.7989667473
 10
-12.2127049564
 20
-12.7744030549
  0
LINE
  5
292
100
AcDbEntity
  8
0
100
AcDbLine
 62
253
  6
CONTINUOUS
 10
-12.2127049564
 20
-12.7744030549
 11
-12.2127049564
 21
-10.2744030549
  0
LINE
  5
293
100
AcDbEntity
  8
0
100
AcDbLine
 62
253
  6
CONTINUOUS
 10
-12.2127049564
 20
10.2255969451
 11
-12.2127049564
 21
12.7255969451
  0
LINE
  5
294
100
AcDbEntity
  8
ASSI
100
AcDbLine
 62
253
  6
CONTINUOUS
 10
-11.4609759796
 20
0.22668033
 11
-11.4626663527
 21
21.9815108731
  0
LINE
  5
295
100
AcDbEntity
  8
0
100
AcDbLine
 62
253
  6
CONTINUOUS
 10
-10.7127049564
 20
12.7255969451
 11
-10.7127049564
 21
10.2255969703
  0
LINE
  5
296
100
AcDbEntity
  8
0
100
AcDbLine
 62
253
  6
CONTINUOUS
 10
-10.7127049564
 20
-10.2744030549
 11
-10.7127049564
 21
-12.7744030297
  0
LINE
  5
297
100
AcDbEntity
  8
ASSI
100
AcDbLine
 62
253
  6
CONTINUOUS
 10
-11.4609759796
 20
-0.2754864397
 11
-11.4626663527
 21
-22.0303169829
  0
LWPOLYLINE
  5
298
100
AcDbEntity
  8
0
100
AcDbPolyline
 62
253
  6
CONTINUOUS
 90
51
 70
0
 10
-10.7127049564
 20
-12.7744030549
 10
-10.7129673463
 20
-12.7943690308
 10
-10.7137507989
 20
-12.8141516817
 10
-10.7150497382
 20
-12.8337790637
 10
-10.7168585884
 20
-12.8532792326
 10
-10.7191717735
 20
-12.8726802445
 10
-10.7227660904
 20
-12.8968234058
 10
-10.7271414814
 20
-12.9208418367
 10
-10.7322997096
 20
-12.9447219023
 10
-10.738242538
 20
-12.9684499676
 10
-10.7449694676
 20
-12.9920082966
 10
-10.7524709511
 20
-13.0153627483
 10
-10.7607351791
 20
-13.0384750805
 10
-10.7697503424
 20
-13.061307051
 10
-10.779504887
 20
-13.0838233651
 10
-10.7899882809
 20
-13.1060005179
 10
-10.8011902474
 20
-13.1278179519
 10
-10.8131005098
 20
-13.1492551097
 10
-10.825707862
 20
-13.1702913065
 10
-10.8389973791
 20
-13.1909053477
 10
-10.8529532069
 20
-13.2110759113
 10
-10.8675594908
 20
-13.2307816752
 10
-10.8828003766
 20
-13.2500013175
 10
-10.8986600099
 20
-13.2687135161
 10
-10.9151225363
 20
-13.286896949
 10
-10.9321721014
 20
-13.3045302942
 10
-10.9497919482
 20
-13.3215931563
 10
-10.9679617089
 20
-13.3380688468
 10
-10.9866601129
 20
-13.3539416035
 10
-11.0058658897
 20
-13.3691956645
 10
-11.0255577689
 20
-13.3838152678
 10
-11.04571448
 20
-13.3977846514
 10
-11.0663147523
 20
-13.4110880532
 10
-11.0873373156
 20
-13.4237097114
 10
-11.1087610008
 20
-13.4356347699
 10
-11.1305650457
 20
-13.4468519966
 10
-11.1527287899
 20
-13.4573510657
 10
-11.1752315726
 20
-13.4671216511
 10
-11.1980497814
 20
-13.476153186
 10
-11.2211479959
 20
-13.4844341396
 10
-11.2444878436
 20
-13.4919527402
 10
-11.2680309522
 20
-13.4986972162
 10
-11.2917430808
 20
-13.5046580714
 10
-11.3156065145
 20
-13.5098349115
 10
-11.3396076702
 20
-13.5142296178
 10
-11.3637329646
 20
-13.5178440713
 10
-11.3831192905
 20
-13.5201740416
 10
-11.402604448
 20
-13.5220003699
 10
-11.4222165133
 20
-13.5233175716
 10
-11.4419835627
 20
-13.5241201625
 10
-11.4619336723
 20
-13.5244026583
  0
LWPOLYLINE
  5
299
100
AcDbEntity
  8
0
100
AcDbPolyline
 62
253
  6
CONTINUOUS
 90
49
 70
0
 10
-10.7127049564
 20
10.2255969451
 10
-10.7131066247
 20
10.2008549225
 10
-10.7143098974
 20
10.1762805561
 10
-10.7163121762
 20
10.1518620993
 10
-10.7191108628
 20
10.1275878057
 10
-10.7227033587
 20
10.1034459287
 10
-10.7270870657
 20
10.0794247218
 10
-10.7322585518
 20
10.0555202675
 10
-10.7382110513
 20
10.0317599652
 10
-10.7449369649
 20
10.0081790436
 10
-10.7524286931
 20
9.984812731
 10
-10.7606786366
 20
9.9616962562
 10
-10.7696791962
 20
9.9388648476
 10
-10.7794219701
 20
9.9163512674
 10
-10.7898953474
 20
9.894178412
 10
-10.8010869148
 20
9.8723667115
 10
-10.8129842591
 20
9.8509365958
 10
-10.8255749669
 20
9.8299084951
 10
-10.8388466251
 20
9.8093028393
 10
-10.8527861502
 20
9.7891401563
 10
-10.867377778
 20
9.7694413654
 10
-10.8826050743
 20
9.7502274834
 10
-10.8984516047
 20
9.7315195274
 10
-10.9149009349
 20
9.7133385145
 10
-10.9319366306
 20
9.6957054616
 10
-10.9495414994
 20
9.6786406273
 10
-10.9676953167
 20
9.6621612367
 10
-10.9863770997
 20
9.6462837564
 10
-11.0055658657
 20
9.631024653
 10
-11.025240632
 20
9.6164003931
 10
-11.0453804158
 20
9.6024274434
 10
-11.0659643327
 20
9.5891216014
 10
-11.0869718912
 20
9.5764959879
 10
-11.1083826978
 20
9.5645630548
 10
-11.1301763594
 20
9.5533352537
 10
-11.1523324826
 20
9.5428250365
 10
-11.174830674
 20
9.533044855
 10
-11.1976480656
 20
9.5240063642
 10
-11.2207518892
 20
9.5157180328
 10
-11.2441069019
 20
9.5081875327
 10
-11.2676778608
 20
9.5014225359
 10
-11.291429523
 20
9.4954307144
 10
-11.3153266456
 20
9.4902197402
 10
-11.3393418195
 20
9.4857964363
 10
-11.3634789716
 20
9.4821642298
 10
-11.3877498628
 20
9.4793256989
 10
-11.4121662537
 20
9.4772834217
 10
-11.4367399053
 20
9.4760399764
 10
-11.4614825783
 20
9.4755979413
  0
LWPOLYLINE
  5
29A
100
AcDbEntity
  8
0
100
AcDbPolyline
 62
253
  6
CONTINUOUS
 90
49
 70
0
 10
-12.2127049564
 20
12.7255969451
 10
-12.2123008252
 20
12.750160672
 10
-12.2110907709
 20
12.7746973513
 10
-12.2090783016
 20
12.7991808469
 10
-12.2062669258
 20
12.8235850227
 10
-12.202660152
 20
12.8478837425
 10
-12.1982614885
 20
12.8720508702
 10
-12.1930744437
 20
12.8960602697
 10
-12.1871025261
 20
12.9198858048
 10
-12.1803503463
 20
12.9435016346
 10
-12.1728269246
 20
12.9668830989
 10
-12.1645423834
 20
12.9900058327
 10
-12.1555068451
 20
13.0128454709
 10
-12.1457304323
 20
13.0353776485
 10
-12.1352232675
 20
13.0575780007
 10
-12.123995473
 20
13.0794221622
 10
-12.1120571715
 20
13.1008857681
 10
-12.0994194881
 20
13.1219450208
 10
-12.0860975587
 20
13.1425783917
 10
-12.0721075221
 20
13.1627649198
 10
-12.0574655168
 20
13.182483644
 10
-12.0421876817
 20
13.2017136031
 10
-12.0262901553
 20
13.220433836
 10
-12.0097890764
 20
13.2386233816
 10
-11.9927005837
 20
13.2562612788
 10
-11.9750416166
 20
13.2733273904
 10
-11.956832318
 20
13.2898048751
 10
-11.9380936318
 20
13.3056777154
 10
-11.9188465017
 20
13.320929894
 10
-11.8991118714
 20
13.3355453935
 10
-11.8789106848
 20
13.3495081964
 10
-11.8582638854
 20
13.3628022854
 10
-11.8371924172
 20
13.3754116431
 10
-11.8157178122
 20
13.3873212422
 10
-11.7938639555
 20
13.3985200167
 10
-11.7716553207
 20
13.4089978906
 10
-11.7491163811
 20
13.4187447881
 10
-11.7262716103
 20
13.4277506331
 10
-11.7031454817
 20
13.4360053499
 10
-11.6797624688
 20
13.4434988624
 10
-11.6561470451
 20
13.4502210948
 10
-11.6323239575
 20
13.4561630899
 10
-11.6083190465
 20
13.4613203654
 10
-11.584158426
 20
13.4656895578
 10
-11.55986821
 20
13.4692673035
 10
-11.5354745124
 20
13.472050239
 10
-11.5110034473
 20
13.4740350007
 10
-11.4864811285
 20
13.4752182251
 10
-11.46193367
 20
13.4755965485
  0
LWPOLYLINE
  5
29B
100
AcDbEntity
  8
0
100
AcDbPolyline
 62
253
  6
CONTINUOUS
 90
49
 70
0
 10
-12.2127049564
 20
-10.2744030549
 10
-12.2123005753
 20
-10.2498318029
 10
-12.2110897683
 20
-10.2252875163
 10
-12.2090760397
 20
-10.2007963625
 10
-12.206262894
 20
-10.1763845085
 10
-12.2026538356
 20
-10.1520781217
 10
-12.1982523687
 20
-10.1279033693
 10
-12.1930619979
 20
-10.1038864185
 10
-12.1870862274
 20
-10.0800534365
 10
-12.1803296666
 20
-10.0564302953
 10
-12.1728013442
 20
-10.0330416855
 10
-12.1645113939
 20
-10.0099120022
 10
-12.1554699493
 20
-9.9870656408
 10
-12.1456871441
 20
-9.9645269965
 10
-12.1351731119
 20
-9.9423204647
 10
-12.1239379864
 20
-9.9204704405
 10
-12.1119919014
 20
-9.8990013193
 10
-12.0993459933
 20
-9.8779369266
 10
-12.0860154112
 20
-9.8572988095
 10
-12.0720163068
 20
-9.8371079452
 10
-12.0573648321
 20
-9.817385311
 10
-12.042077139
 20
-9.7981518844
 10
-12.0261693792
 20
-9.7794286425
 10
-12.0096577048
 20
-9.7612365628
 10
-11.9925582676
 20
-9.7435966225
 10
-11.9748880207
 20
-9.7265289755
 10
-11.9566671222
 20
-9.7100504811
 10
-11.9379165315
 20
-9.6941771754
 10
-11.9186572081
 20
-9.6789250943
 10
-11.8989101113
 20
-9.6643102737
 10
-11.8786962005
 20
-9.6503487495
 10
-11.8580364351
 20
-9.6370565576
 10
-11.8369517745
 20
-9.6244497341
 10
-11.8154637711
 20
-9.6125433243
 10
-11.7935963499
 20
-9.6013484115
 10
-11.7713740288
 20
-9.5908750884
 10
-11.7488213259
 20
-9.5811334478
 10
-11.7259627592
 20
-9.5721335823
 10
-11.7028228466
 20
-9.5638855847
 10
-11.6794261062
 20
-9.5563995478
 10
-11.6557970559
 20
-9.5496855643
 10
-11.6319604852
 20
-9.5437526045
 10
-11.6079422686
 20
-9.5386051488
 10
-11.5837685521
 20
-9.5342465553
 10
-11.5594654818
 20
-9.530680182
 10
-11.5350592037
 20
-9.5279093869
 10
-11.5105758638
 20
-9.525937528
 10
-11.4860416081
 20
-9.5247679634
 10
-11.4614825826
 20
-9.524404051
  0
LINE
  5
29C
100
AcDbEntity
  8
ASSI
100
AcDbLine
 62
253
  6
CONTINUOUS
 10
-22.375371019
 20
-21.549477858
 11
-22.4683471718
 21
-21.735557759
  0
LINE
  5
29D
100
AcDbEntity
  8
ASSI
100
AcDbLine
 62
253
  6
CONTINUOUS
 10
-21.8755423565
 20
-22.0487926254
 11
-21.9677207501
 21
-22.2332759133
  0
LWPOLYLINE
  5
29E
100
AcDbEntity
  8
0
100
AcDbPolyline
 62
253
  6
CONTINUOUS
 90
49
 70
0
 10
-11.4614825783
 20
-9.524404051
 10
-11.4367398841
 20
-9.5248460832
 10
-11.4121660927
 20
-9.5260895317
 10
-11.3877494319
 20
-9.5281318359
 10
-11.3634781293
 20
-9.5309704353
 10
-11.3393404126
 20
-9.5346027695
 10
-11.3153245095
 20
-9.5390262781
 10
-11.2914264893
 20
-9.544237549
 10
-11.2676737881
 20
-9.5502297644
 10
-11.2441016835
 20
-9.556995255
 10
-11.2207454532
 20
-9.5645263514
 10
-11.197640375
 20
-9.5728153841
 10
-11.1748217265
 20
-9.581854684
 10
-11.1523223101
 20
-9.5916357796
 10
-11.1301650272
 20
-9.6021469915
 10
-11.1083703037
 20
-9.6133758383
 10
-11.0869585656
 20
-9.6253098388
 10
-11.065950239
 20
-9.6379365114
 10
-11.0453657498
 20
-9.6512433749
 10
-11.0252256153
 20
-9.6652172797
 10
-11.005550717
 20
-9.6798424036
 10
-10.9863620277
 20
-9.6951022563
 10
-10.9676805202
 20
-9.7109803474
 10
-10.9495271672
 20
-9.7274601865
 10
-10.9319229415
 20
-9.7445252834
 10
-10.9148880547
 20
-9.7621583934
 10
-10.8984396735
 20
-9.7803392551
 10
-10.8825942034
 20
-9.7990468527
 10
-10.8673680501
 20
-9.8182601704
 10
-10.8527776189
 20
-9.8379581925
 10
-10.8388393156
 20
-9.8581199033
 10
-10.8255688758
 20
-9.8787243916
 10
-10.8129793558
 20
-9.899751165
 10
-10.8010831423
 20
-9.9211798356
 10
-10.7898926217
 20
-9.9429900155
 10
-10.7794201806
 20
-9.9651613168
 10
-10.7696782056
 20
-9.9876733516
 10
-10.7606782872
 20
-10.0105032672
 10
-10.7524288323
 20
-10.033618351
 10
-10.7449374515
 20
-10.0569834256
 10
-10.7382117559
 20
-10.0805633135
 10
-10.732259356
 20
-10.1043228373
 10
-10.7270878629
 20
-10.1282268194
 10
-10.7227040576
 20
-10.1522479004
 10
-10.7191114031
 20
-10.1763899918
 10
-10.7163125325
 20
-10.2006648235
 10
-10.714310079
 20
-10.2250841248
 10
-10.7131066759
 20
-10.2496596254
 10
-10.7127049564
 20
-10.2744030549
  0
LINE
  5
29F
100
AcDbEntity
  8
ASSI
100
AcDbLine
 62
253
  6
CONTINUOUS
 10
-22.4683471718
 20
21.6867516493
 11
-22.3753710163
 21
21.5006717429
  0
LINE
  5
2A0
100
AcDbEntity
  8
ASSI
100
AcDbLine
 62
253
  6
CONTINUOUS
 10
-21.9677207501
 20
22.1844698036
 11
-21.8755423538
 21
21.9999865103
  0
LINE
  5
2A1
100
AcDbEntity
  8
ASSI
100
AcDbLine
 62
253
  6
CONTINUOUS
 10
-22.4880750799
 20
0.6755017629
 11
-22.3461961347
 21
0.7227851398
  0
LINE
  5
2A2
100
AcDbEntity
  8
ASSI
100
AcDbLine
 62
253
  6
CONTINUOUS
 10
-21.9880179398
 20
0.1755969451
 11
-21.846367472
 21
0.2228041783
  0
LINE
  5
2A3
100
AcDbEntity
  8
ASSI
100
AcDbLine
 62
253
  6
CONTINUOUS
 10
-22.3461961347
 20
-0.7715912495
 11
-22.4880750799
 21
-0.7243078727
  0
LINE
  5
2A4
100
AcDbEntity
  8
ASSI
100
AcDbLine
 62
253
  6
CONTINUOUS
 10
-21.846367472
 20
-0.271610288
 11
-21.9880179398
 21
-0.2244030549
  0
LINE
  5
2A5
100
AcDbEntity
  8
ASSI
100
AcDbLine
 62
7
  6
CONTINUOUS
 10
19.2872950436
 20
-0.259310526
 11
19.6372496977
 21
-0.2244030549
  0
LINE
  5
2A6
100
AcDbEntity
  8
ASSI
100
AcDbLine
 62
7
  6
CONTINUOUS
 10
-19.7127049564
 20
-0.259310526
 11
-20.0626596105
 21
-0.2244030549
  0
LINE
  5
2A7
100
AcDbEntity
  8
ASSI
100
AcDbLine
 62
253
  6
CONTINUOUS
 10
21.920786222
 20
-0.7715912495
 11
21.9171517743
 21
-0.7716662002
  0
LINE
  5
2A8
100
AcDbEntity
  8
ASSI
100
AcDbLine
 62
253
  6
CONTINUOUS
 10
21.9171517743
 20
-0.7716662002
 11
21.8958855035
 21
-0.7718132734
  0
LINE
  5
2A9
100
AcDbEntity
  8
ASSI
100
AcDbLine
 62
253
  6
CONTINUOUS
 10
21.8958855035
 20
-0.7718132734
 11
11.0355566985
 21
-0.7764069199
  0
LINE
  5
2AA
100
AcDbEntity
  8
ASSI
100
AcDbLine
 62
253
  6
CONTINUOUS
 10
21.4209575593
 20
-0.271610288
 11
14.5090658745
 21
-0.2750525695
  0
LINE
  5
2AB
100
AcDbEntity
  8
ASSI
100
AcDbLine
 62
253
  6
CONTINUOUS
 10
-21.846367472
 20
0.2228041783
 11
-13.7779239528
 21
0.226486671
  0
LINE
  5
2AC
100
AcDbEntity
  8
ASSI
100
AcDbLine
 62
253
  6
CONTINUOUS
 10
11.0355566985
 20
-0.7764073904
 11
-11.4609665978
 21
-0.7764073904
  0
LINE
  5
2AD
100
AcDbEntity
  8
ASSI
100
AcDbLine
 62
253
  6
CONTINUOUS
 10
14.5090658745
 20
-0.2750525695
 11
11.0355660669
 21
-0.275486433
  0
LINE
  5
2AE
100
AcDbEntity
  8
ASSI
100
AcDbLine
 62
7
  6
CONTINUOUS
 10
11.0355660669
 20
-0.275486433
 11
-11.4609759796
 21
-0.275486433
  0
LINE
  5
2AF
100
AcDbEntity
  8
ASSI
100
AcDbLine
 62
7
  6
CONTINUOUS
 10
19.2872950436
 20
-0.259310526
 11
-19.7127049564
 21
-0.259310526
  0
LINE
  5
2B0
100
AcDbEntity
  8
ASSI
100
AcDbLine
 62
7
  6
CONTINUOUS
 10
21.5626080271
 20
-0.2244030549
 11
19.6372496977
 21
-0.2244030549
  0
LINE
  5
2B1
100
AcDbEntity
  8
ASSI
100
AcDbLine
 62
7
  6
CONTINUOUS
 10
-20.0626596105
 20
-0.2244030549
 11
-21.9880179398
 21
-0.2244030549
  0
LINE
  5
2B2
100
AcDbEntity
  8
ASSI
100
AcDbLine
 62
7
  6
CONTINUOUS
 10
-21.9880179398
 20
0.1755969451
 11
-20.0626596105
 21
0.1755969451
  0
LINE
  5
2B3
100
AcDbEntity
  8
ASSI
100
AcDbLine
 62
7
  6
CONTINUOUS
 10
19.6372496977
 20
0.1755969451
 11
21.5626080271
 21
0.1755969451
  0
LINE
  5
2B4
100
AcDbEntity
  8
ASSI
100
AcDbLine
 62
7
  6
CONTINUOUS
 10
-19.7127049564
 20
0.2105044163
 11
19.2872950436
 21
0.2105044163
  0
LINE
  5
2B5
100
AcDbEntity
  8
ASSI
100
AcDbLine
 62
7
  6
CONTINUOUS
 10
-11.4609759796
 20
0.2266803233
 11
11.0355660668
 21
0.2266803233
  0
LINE
  5
2B6
100
AcDbEntity
  8
ASSI
100
AcDbLine
 62
253
  6
CONTINUOUS
 10
-13.7779239528
 20
0.226486671
 11
-11.4609759796
 21
0.2266803233
  0
LINE
  5
2B7
100
AcDbEntity
  8
ASSI
100
AcDbLine
 62
253
  6
CONTINUOUS
 10
-11.4609665978
 20
-0.7764069199
 11
-22.0305496648
 21
-0.7723010067
  0
LINE
  5
2B8
100
AcDbEntity
  8
ASSI
100
AcDbLine
 62
253
  6
CONTINUOUS
 10
-11.4609759796
 20
-0.275486433
 11
-19.5477708661
 21
-0.2731372327
  0
LINE
  5
2B9
100
AcDbEntity
  8
ASSI
100
AcDbLine
 62
253
  6
CONTINUOUS
 10
11.0355660668
 20
0.2266803233
 11
17.9710523702
 21
0.2249522756
  0
LINE
  5
2BA
100
AcDbEntity
  8
ASSI
100
AcDbLine
 62
253
  6
CONTINUOUS
 10
-19.5477708661
 20
-0.2731372327
 11
-21.846367472
 21
-0.271610288
  0
LINE
  5
2BB
100
AcDbEntity
  8
ASSI
100
AcDbLine
 62
253
  6
CONTINUOUS
 10
17.9710523702
 20
0.2249522756
 11
21.4209575593
 21
0.2228041783
  0
LINE
  5
2BC
100
AcDbEntity
  8
ASSI
100
AcDbLine
 62
253
  6
CONTINUOUS
 10
-22.0305496648
 20
-0.7723010067
 11
-22.3212954162
 21
-0.7718132832
  0
LWPOLYLINE
  5
2BD
100
AcDbEntity
  8
ASSI
100
AcDbPolyline
 62
253
  6
CONTINUOUS
 90
3
 70
0
 10
-22.3212954162
 20
-0.7718132832
 10
-22.3425616871
 20
-0.7716662035
 10
-22.3461961347
 20
-0.7715912495
  0
LINE
  5
2BE
100
AcDbEntity
  8
ASSI
100
AcDbLine
 62
7
  6
CONTINUOUS
 10
-19.7127049564
 20
0.2105044163
 11
-20.0626596105
 21
0.1755969451
  0
LINE
  5
2BF
100
AcDbEntity
  8
ASSI
100
AcDbLine
 62
253
  6
CONTINUOUS
 10
-22.3461961347
 20
0.7227851398
 11
-22.3425616871
 21
0.7228600905
  0
LINE
  5
2C0
100
AcDbEntity
  8
ASSI
100
AcDbLine
 62
253
  6
CONTINUOUS
 10
-22.3425616871
 20
0.7228600905
 11
-22.3212954162
 21
0.7230071637
  0
LINE
  5
2C1
100
AcDbEntity
  8
ASSI
100
AcDbLine
 62
253
  6
CONTINUOUS
 10
-22.3212954162
 20
0.7230071637
 11
-11.4609666112
 21
0.7276008101
  0
LINE
  5
2C2
100
AcDbEntity
  8
ASSI
100
AcDbLine
 62
253
  6
CONTINUOUS
 10
-11.4609666112
 20
0.7276012806
 11
11.0355566851
 21
0.7276012806
  0
LINE
  5
2C3
100
AcDbEntity
  8
ASSI
100
AcDbLine
 62
253
  6
CONTINUOUS
 10
11.0355566851
 20
0.7276008101
 11
21.8010677506
 21
0.7232709639
  0
LWPOLYLINE
  5
2C4
100
AcDbEntity
  8
ASSI
100
AcDbPolyline
 62
253
  6
CONTINUOUS
 90
4
 70
0
 10
21.8010677506
 20
0.7232709639
 10
21.9088252896
 20
0.722934339
 10
21.9171517744
 20
0.7228600938
 10
21.920786222
 20
0.7227851398
  0
LINE
  5
2C5
100
AcDbEntity
  8
ASSI
100
AcDbLine
 62
7
  6
CONTINUOUS
 10
19.2872950436
 20
0.2105044163
 11
19.6372496977
 21
0.1755969451
  0
LINE
  5
2C6
100
AcDbEntity
  8
ASSI
100
AcDbLine
 62
253
  6
CONTINUOUS
 10
21.5626080271
 20
-0.2244030549
 11
21.4209575593
 21
-0.271610288
  0
LINE
  5
2C7
100
AcDbEntity
  8
ASSI
100
AcDbLine
 62
253
  6
CONTINUOUS
 10
22.0626651672
 20
-0.7243078727
 11
21.920786222
 21
-0.7715912495
  0
LINE
  5
2C8
100
AcDbEntity
  8
ASSI
100
AcDbLine
 62
253
  6
CONTINUOUS
 10
21.4209575593
 20
0.2228041783
 11
21.5626080271
 21
0.1755969451
  0
LINE
  5
2C9
100
AcDbEntity
  8
ASSI
100
AcDbLine
 62
253
  6
CONTINUOUS
 10
21.920786222
 20
0.7227851398
 11
22.0626651672
 21
0.6755017629
  0
LINE
  5
2CA
100
AcDbEntity
  8
ASSI
100
AcDbLine
 62
253
  6
CONTINUOUS
 10
21.4501324438
 20
21.9999865156
 11
21.5423108374
 21
22.1844698036
  0
LINE
  5
2CB
100
AcDbEntity
  8
ASSI
100
AcDbLine
 62
253
  6
CONTINUOUS
 10
21.9499611063
 20
21.5006717483
 11
22.042937259
 21
21.6867516493
  0
LWPOLYLINE
  5
2CC
100
AcDbEntity
  8
0
100
AcDbPolyline
 62
253
  6
CONTINUOUS
 90
49
 70
0
 10
-11.4614825826
 20
9.4755979413
 10
-11.4860416301
 20
9.4759618578
 10
-11.5105759004
 20
9.4771314322
 10
-11.5350592443
 20
9.479103302
 10
-11.5594655125
 20
9.4818741048
 10
-11.5837685558
 20
9.4854404782
 10
-11.607942225
 20
9.4897990599
 10
-11.631960371
 20
9.4949464874
 10
-11.6557968445
 20
9.5008793983
 10
-11.6794257701
 20
9.5075933099
 10
-11.7028223673
 20
9.5150792581
 10
-11.7259621292
 20
9.5233271586
 10
-11.7488205492
 20
9.5323269269
 10
-11.7713731204
 20
9.5420684787
 10
-11.793595336
 20
9.5525417295
 10
-11.8154626894
 20
9.5637365949
 10
-11.8369506737
 20
9.5756429906
 10
-11.858035371
 20
9.5882498381
 10
-11.8786952186
 20
9.6015420829
 10
-11.8989092428
 20
9.6155036764
 10
-11.9186564699
 20
9.6301185702
 10
-11.937915926
 20
9.6453707156
 10
-11.9566666373
 20
9.6612440641
 10
-11.9748876301
 20
9.6777225672
 10
-11.9925579305
 20
9.6947901764
 10
-12.0096573707
 20
9.7124300243
 10
-12.0261690058
 20
9.7306219691
 10
-12.042076697
 20
9.7493450501
 10
-12.0573643053
 20
9.7685783067
 10
-12.0720156917
 20
9.7883007784
 10
-12.0860147174
 20
9.8084915043
 10
-12.0993452434
 20
9.8291295241
 10
-12.1119911308
 20
9.8501938769
 10
-12.1239372399
 20
9.8716630275
 10
-12.1351724279
 20
9.8935131412
 10
-12.1456865512
 20
9.9157198086
 10
-12.1554694663
 20
9.9382586204
 10
-12.1645110295
 20
9.9611051671
 10
-12.1728010974
 20
9.9842350395
 10
-12.1803295264
 20
10.007623828
 10
-12.1870861728
 20
10.0312471234
 10
-12.1930620007
 20
10.0550802239
 10
-12.1982524035
 20
10.0790972586
 10
-12.2026538825
 20
10.1032720643
 10
-12.2062629386
 20
10.1275784778
 10
-12.209076073
 20
10.1519903359
 10
-12.2110897867
 20
10.1764814753
 10
-12.2123005808
 20
10.2010257327
 10
-12.2127049564
 20
10.2255969451
  0
LINE
  5
2CD
100
AcDbEntity
  8
ASSI
100
AcDbLine
 62
253
  6
CONTINUOUS
 10
21.5423108374
 20
-22.2332759133
 11
21.4501324411
 21
-22.04879262
  0
LINE
  5
2CE
100
AcDbEntity
  8
ASSI
100
AcDbLine
 62
253
  6
CONTINUOUS
 10
22.042937259
 20
-21.735557759
 11
21.9499611036
 21
-21.5494778526
  0
LINE
  5
2CF
100
AcDbEntity
  8
ASSI
100
AcDbLine
 62
253
  6
CONTINUOUS
 10
11.0355660669
 20
-0.2754864397
 11
11.0372564399
 21
-22.0303169829
  0
LINE
  5
2D0
100
AcDbEntity
  8
ASSI
100
AcDbLine
 62
253
  6
CONTINUOUS
 10
11.0355660668
 20
0.22668033
 11
11.0372564399
 21
21.9815108731
  0
LWPOLYLINE
  5
2D1
100
AcDbEntity
  8
0
100
AcDbPolyline
 62
253
  6
CONTINUOUS
 90
51
 70
0
 10
-11.4619336723
 20
13.4755965486
 10
-11.4419835735
 20
13.4753140532
 10
-11.4222165402
 20
13.4745114636
 10
-11.4026044958
 20
13.4731942644
 10
-11.3831193639
 20
13.4713679401
 10
-11.3637330679
 20
13.4690379753
 10
-11.3396078175
 20
13.4654235319
 10
-11.3156067177
 20
13.4610288416
 10
-11.2917433576
 20
13.4558520261
 10
-11.268031326
 20
13.4498912069
 10
-11.244488341
 20
13.4431467809
 10
-11.2211486365
 20
13.4356282452
 10
-11.1980505751
 20
13.4273473723
 10
-11.1752325198
 20
13.4183159345
 10
-11.1527298807
 20
13.4085454602
 10
-11.1305662573
 20
13.3980465023
 10
-11.1087622969
 20
13.3868293696
 10
-11.0873386463
 20
13.374904371
 10
-11.0663160591
 20
13.3622827265
 10
-11.0457157141
 20
13.348979301
 10
-11.0255588969
 20
13.3350098703
 10
-11.0058668929
 20
13.3203902105
 10
-10.9866609874
 20
13.3051360976
 10
-10.9679624659
 20
13.2892633076
 10
-10.9497926137
 20
13.2727876163
 10
-10.9321727163
 20
13.2557247998
 10
-10.9151231516
 20
13.2380915555
 10
-10.8986606668
 20
13.2199082666
 10
-10.8828011016
 20
13.2011962376
 10
-10.8675602959
 20
13.181976773
 10
-10.8529540894
 20
13.1622711774
 10
-10.8389983218
 20
13.1421007555
 10
-10.8257088328
 20
13.1214868117
 10
-10.8131014623
 20
13.1004506506
 10
-10.8011911261
 20
13.079013455
 10
-10.7899890448
 20
13.0571959204
 10
-10.7795055152
 20
13.0350186205
 10
-10.7697508342
 20
13.0125021292
 10
-10.7607355506
 20
12.9896699669
 10
-10.7524712214
 20
12.9665574419
 10
-10.7449696558
 20
12.9432028094
 10
-10.738242663
 20
12.9196443245
 10
-10.7322997892
 20
12.8959161376
 10
-10.7271415305
 20
12.8720359806
 10
-10.7227661199
 20
12.8480174807
 10
-10.7191717907
 20
12.8238742652
 10
-10.7168585987
 20
12.8044732162
 10
-10.7150497436
 20
12.7849730152
 10
-10.7137508011
 20
12.7653456067
 10
-10.7129673468
 20
12.7455629351
 10
-10.7127049564
 20
12.7255969451
  0
LWPOLYLINE
  5
2D2
100
AcDbEntity
  8
ASSI
100
AcDbPolyline
 62
253
  6
CONTINUOUS
 90
10
 70
0
 10
21.9499611036
 20
-21.5494778526
 10
21.9486673366
 20
-21.5451253343
 10
21.9473953738
 20
-21.5374315451
 10
21.9461452151
 20
-21.526396485
 10
21.944910311
 20
-21.5119312419
 10
21.943697211
 20
-21.494124728
 10
21.9425255641
 20
-21.4732436797
 10
21.9413965569
 20
-21.4492433502
 10
21.9403090027
 20
-21.4221684863
 10
21.9392789904
 20
-21.3924200655
  0
LINE
  5
2D3
100
AcDbEntity
  8
ASSI
100
AcDbLine
 62
7
  6
CONTINUOUS
 10
18.8432166738
 20
22.1844698036
 11
18.4950300706
 21
22.1528638832
  0
LWPOLYLINE
  5
2D4
100
AcDbEntity
  8
ASSI
100
AcDbPolyline
 62
253
  6
CONTINUOUS
 90
14
 70
0
 10
-21.9886067267
 20
20.8520547661
 10
-22.0354441625
 20
20.8513487264
 10
-22.0805622329
 20
20.8504494663
 10
-22.123523476
 20
20.8493657052
 10
-22.1639113418
 20
20.8481079511
 10
-22.2013342319
 20
20.846688399
 10
-22.2354292963
 20
20.8451208129
 10
-22.265865951
 20
20.8434203921
 10
-22.2923490841
 20
20.8416036235
 10
-22.3146219165
 20
20.8396881226
 10
-22.3324684922
 20
20.837692462
 10
-22.3457157719
 20
20.8356359914
 10
-22.3542353106
 20
20.8335386502
 10
-22.3579445033
 20
20.8314207742
  0
LINE
  5
2D5
100
AcDbEntity
  8
ASSI
100
AcDbLine
 62
253
  6
CONTINUOUS
 10
-21.8916025595
 20
20.8528617418
 11
-21.9886067267
 21
20.8520547661
  0
LINE
  5
2D6
100
AcDbEntity
  8
ASSI
100
AcDbLine
 62
253
  6
CONTINUOUS
 10
21.4661926414
 20
20.8528617364
 11
15.9697937321
 21
20.8473331424
  0
LINE
  5
2D7
100
AcDbEntity
  8
ASSI
100
AcDbLine
 62
253
  6
CONTINUOUS
 10
15.9697937321
 20
20.8473331424
 11
-11.4626574339
 21
20.845764567
  0
LINE
  5
2D8
100
AcDbEntity
  8
ASSI
100
AcDbLine
 62
253
  6
CONTINUOUS
 10
-11.4626574337
 20
20.8457629783
 11
-17.5383209086
 21
20.8481646241
  0
LINE
  5
2D9
100
AcDbEntity
  8
ASSI
100
AcDbLine
 62
253
  6
CONTINUOUS
 10
-17.5383209086
 20
20.8481646241
 11
-21.8916025596
 21
20.8528617322
  0
LWPOLYLINE
  5
2DA
100
AcDbEntity
  8
ASSI
100
AcDbPolyline
 62
253
  6
CONTINUOUS
 90
15
 70
0
 10
21.4661917515
 20
20.8528611986
 10
21.5631950094
 20
20.852054249
 10
21.6100320509
 20
20.8513482312
 10
21.6551497848
 20
20.8504489987
 10
21.6981107609
 20
20.8493652701
 10
21.7384984402
 20
20.8481075528
 10
21.775921234
 20
20.8466880411
 10
21.8100163001
 20
20.8451204985
 10
21.8404530614
 20
20.8434201233
 10
21.8669364106
 20
20.8416034019
 10
21.8892095717
 20
20.839687949
 10
21.9070565899
 20
20.8376923361
 10
21.9203044248
 20
20.8356359123
 10
21.9288246287
 20
20.8335386161
 10
21.9325345919
 20
20.8314207824
  0
LINE
  5
2DB
100
AcDbEntity
  8
ASSI
100
AcDbLine
 62
7
  6
CONTINUOUS
 10
-19.2686265866
 20
22.1844698036
 11
-18.9204399833
 21
22.1528638832
  0
LWPOLYLINE
  5
2DC
100
AcDbEntity
  8
ASSI
100
AcDbPolyline
 62
253
  6
CONTINUOUS
 90
8
 70
0
 10
21.4495673269
 20
-0.4019024094
 10
21.4459293375
 20
-0.3688032482
 10
21.4419996084
 20
-0.3401603101
 10
21.438351083
 20
-0.3162374946
 10
21.4340799072
 20
-0.2971977934
 10
21.4291883931
 20
-0.2832986288
 10
21.4246517377
 20
-0.2747524087
 10
21.4209575594
 20
-0.271610288
  0
LWPOLYLINE
  5
2DD
100
AcDbEntity
  8
ASSI
100
AcDbPolyline
 62
253
  6
CONTINUOUS
 90
16
 70
0
 10
21.920786222
 20
-0.7715912495
 10
21.9181006895
 20
-0.7199453579
 10
21.9100605309
 20
-0.6686813989
 10
21.8966989327
 20
-0.6183599047
 10
21.8780850214
 20
-0.5694876626
 10
21.854383403
 20
-0.5226752073
 10
21.8259078141
 20
-0.4786030536
 10
21.7930129812
 20
-0.4378029925
 10
21.7560291516
 20
-0.4006697475
 10
21.7153519037
 20
-0.3676039287
 10
21.6714177966
 20
-0.3389679971
 10
21.6247145728
 20
-0.3150868925
 10
21.5757678518
 20
-0.2962319154
 10
21.5251211423
 20
-0.2826116797
 10
21.473327661
 20
-0.2743742319
 10
21.4209575595
 20
-0.271610288
  0
LWPOLYLINE
  5
2DE
100
AcDbEntity
  8
ASSI
100
AcDbPolyline
 62
253
  6
CONTINUOUS
 90
4
 70
0
 10
21.4598700031
 20
-0.5701632591
 10
21.4580697591
 20
-0.5234515527
 10
21.4553564117
 20
-0.4794806538
 10
21.4495673269
 20
-0.4019024094
  0
LWPOLYLINE
  5
2DF
100
AcDbEntity
  8
ASSI
100
AcDbPolyline
 62
253
  6
CONTINUOUS
 90
6
 70
0
 10
21.4554896489
 20
21.9049907411
 10
21.4544575895
 20
21.9354083042
 10
21.453384898
 20
21.9602280246
 10
21.4522775108
 20
21.9793248557
 10
21.4511840667
 20
21.9926005621
 10
21.4501324438
 20
21.9999865156
  0
LINE
  5
2E0
100
AcDbEntity
  8
ASSI
100
AcDbLine
 62
253
  6
CONTINUOUS
 10
21.9392789904
 20
-21.3924200655
 11
21.9373933028
 21
-21.3248192577
  0
LINE
  5
2E1
100
AcDbEntity
  8
ASSI
100
AcDbLine
 62
253
  6
CONTINUOUS
 10
21.4575189359
 20
21.8279857494
 11
21.4554896489
 21
21.9049907411
  0
LINE
  5
2E2
100
AcDbEntity
  8
ASSI
100
AcDbLine
 62
253
  6
CONTINUOUS
 10
21.9373933028
 20
-21.3248192577
 11
21.935779481
 21
-21.2480723069
  0
LINE
  5
2E3
100
AcDbEntity
  8
ASSI
100
AcDbLine
 62
253
  6
CONTINUOUS
 10
21.4593926201
 20
21.7307404053
 11
21.4575189359
 21
21.8279857494
  0
LINE
  5
2E4
100
AcDbEntity
  8
ASSI
100
AcDbLine
 62
253
  6
CONTINUOUS
 10
21.935779481
 20
-21.2480723069
 11
21.9344611664
 21
-21.163320089
  0
LINE
  5
2E5
100
AcDbEntity
  8
ASSI
100
AcDbLine
 62
253
  6
CONTINUOUS
 10
21.4618919047
 20
21.5512685597
 11
21.4593926201
 21
21.7307404053
  0
LINE
  5
2E6
100
AcDbEntity
  8
ASSI
100
AcDbLine
 62
253
  6
CONTINUOUS
 10
21.9344611664
 20
-21.163320089
 11
21.9331026866
 21
-21.0253116084
  0
LINE
  5
2E7
100
AcDbEntity
  8
ASSI
100
AcDbLine
 62
253
  6
CONTINUOUS
 10
21.4644651528
 20
21.2620806008
 11
21.4618919047
 21
21.5512685597
  0
LWPOLYLINE
  5
2E8
100
AcDbEntity
  8
ASSI
100
AcDbPolyline
 62
253
  6
CONTINUOUS
 90
3
 70
0
 10
21.4636093285
 20
0.7235520445
 10
21.463834314
 20
0.6705634362
 10
21.4629819772
 20
0.6193129115
  0
LINE
  5
2E9
100
AcDbEntity
  8
ASSI
100
AcDbLine
 62
253
  6
CONTINUOUS
 10
21.4661926082
 20
20.852861731
 11
21.4644651528
 21
21.2620806008
  0
LINE
  5
2EA
100
AcDbEntity
  8
ASSI
100
AcDbLine
 62
7
  6
CONTINUOUS
 10
22.042937259
 20
21.6867516493
 11
22.0626651672
 21
13.0755969451
  0
LINE
  5
2EB
100
AcDbEntity
  8
ASSI
100
AcDbLine
 62
253
  6
CONTINUOUS
 10
21.9331026866
 20
-21.0253116084
 11
21.9325345906
 21
-20.880226884
  0
LINE
  5
2EC
100
AcDbEntity
  8
ASSI
100
AcDbLine
 62
253
  6
CONTINUOUS
 10
21.9325345906
 20
-20.880226884
 11
21.9249362529
 21
-12.4419196953
  0
LINE
  5
2ED
100
AcDbEntity
  8
ASSI
100
AcDbLine
 62
253
  6
CONTINUOUS
 10
21.9249362529
 20
-12.4419196953
 11
21.9212590135
 21
-4.2291081554
  0
LINE
  5
2EE
100
AcDbEntity
  8
ASSI
100
AcDbLine
 62
253
  6
CONTINUOUS
 10
21.9212590135
 20
-4.2291081554
 11
21.920786222
 21
-0.7715912495
  0
LINE
  5
2EF
100
AcDbEntity
  8
ASSI
100
AcDbLine
 62
7
  6
CONTINUOUS
 10
22.0626651672
 20
13.0755969451
 11
22.0626651672
 21
0.6755017629
  0
LINE
  5
2F0
100
AcDbEntity
  8
ASSI
100
AcDbLine
 62
7
  6
CONTINUOUS
 10
22.0626651672
 20
-13.1244030549
 11
22.0626651672
 21
-0.7243078727
  0
LINE
  5
2F1
100
AcDbEntity
  8
ASSI
100
AcDbLine
 62
253
  6
CONTINUOUS
 10
21.4636092884
 20
0.723552039
 11
21.4661926414
 21
20.8528617364
  0
LINE
  5
2F2
100
AcDbEntity
  8
ASSI
100
AcDbLine
 62
253
  6
CONTINUOUS
 10
21.920786222
 20
0.7227851398
 11
21.9242232239
 21
11.3071883473
  0
LINE
  5
2F3
100
AcDbEntity
  8
ASSI
100
AcDbLine
 62
7
  6
CONTINUOUS
 10
22.042937259
 20
-21.735557759
 11
22.0626651672
 21
-13.1244030549
  0
LINE
  5
2F4
100
AcDbEntity
  8
ASSI
100
AcDbLine
 62
253
  6
CONTINUOUS
 10
21.4657192251
 20
-21.069010207
 11
21.4636092884
 21
-0.7723581374
  0
LINE
  5
2F5
100
AcDbEntity
  8
ASSI
100
AcDbLine
 62
253
  6
CONTINUOUS
 10
21.9242232239
 20
11.3071883473
 11
21.9328255033
 21
20.9289301799
  0
LWPOLYLINE
  5
2F6
100
AcDbEntity
  8
ASSI
100
AcDbPolyline
 62
253
  6
CONTINUOUS
 90
4
 70
0
 10
21.4636093284
 20
-0.7723581317
 10
21.4638341847
 20
-0.7193715241
 10
21.462981929
 20
-0.6681226762
 10
21.4598700031
 20
-0.5701632591
  0
LINE
  5
2F7
100
AcDbEntity
  8
ASSI
100
AcDbLine
 62
253
  6
CONTINUOUS
 10
21.4632940231
 20
-21.4614775448
 11
21.4657192251
 21
-21.069010207
  0
LINE
  5
2F8
100
AcDbEntity
  8
ASSI
100
AcDbLine
 62
253
  6
CONTINUOUS
 10
21.9328255033
 20
20.9289301799
 11
21.9339249471
 21
21.0697950292
  0
LINE
  5
2F9
100
AcDbEntity
  8
ASSI
100
AcDbLine
 62
253
  6
CONTINUOUS
 10
21.4611040104
 20
-21.6640046648
 11
21.4632940231
 21
-21.4614775448
  0
LINE
  5
2FA
100
AcDbEntity
  8
ASSI
100
AcDbLine
 62
253
  6
CONTINUOUS
 10
21.9339249471
 20
21.0697950292
 11
21.935079735
 21
21.1576564351
  0
LINE
  5
2FB
100
AcDbEntity
  8
ASSI
100
AcDbLine
 62
253
  6
CONTINUOUS
 10
21.4593926386
 20
-21.7795465085
 11
21.4611040104
 21
-21.6640046648
  0
LINE
  5
2FC
100
AcDbEntity
  8
ASSI
100
AcDbLine
 62
253
  6
CONTINUOUS
 10
21.935079735
 20
21.1576564351
 11
21.936550296
 21
21.2387283359
  0
LINE
  5
2FD
100
AcDbEntity
  8
ASSI
100
AcDbLine
 62
253
  6
CONTINUOUS
 10
21.4575189507
 20
-21.8767918537
 11
21.4593926386
 21
-21.7795465085
  0
LWPOLYLINE
  5
2FE
100
AcDbEntity
  8
ASSI
100
AcDbPolyline
 62
253
  6
CONTINUOUS
 90
12
 70
0
 10
21.936550296
 20
21.2387283359
 10
21.9383073785
 20
21.3111503366
 10
21.9392789932
 20
21.3436139619
 10
21.9403090055
 20
21.3733623826
 10
21.9413965596
 20
21.4004372463
 10
21.9425255668
 20
21.4244375757
 10
21.9436972137
 20
21.445318624
 10
21.9449103137
 20
21.4631251379
 10
21.9461452178
 20
21.477590381
 10
21.9473953765
 20
21.4886254409
 10
21.9486673393
 20
21.49631923
 10
21.9499611063
 20
21.5006717483
  0
LWPOLYLINE
  5
2FF
100
AcDbEntity
  8
ASSI
100
AcDbPolyline
 62
253
  6
CONTINUOUS
 90
4
 70
0
 10
21.4629819772
 20
0.6193129115
 10
21.4598697529
 20
0.5213511528
 10
21.45806947
 20
0.4746387864
 10
21.4553559852
 20
0.4306676694
  0
LWPOLYLINE
  5
300
100
AcDbEntity
  8
ASSI
100
AcDbPolyline
 62
253
  6
CONTINUOUS
 90
16
 70
0
 10
21.920786222
 20
0.7227851398
 10
21.9181006846
 20
0.6711392003
 10
21.9100605133
 20
0.6198752056
 10
21.8966988984
 20
0.5695536886
 10
21.8780849706
 20
0.5206814378
 10
21.8543833388
 20
0.4738689856
 10
21.8259077405
 20
0.4297968421
 10
21.7930129051
 20
0.3889967979
 10
21.7560290806
 20
0.3518635735
 10
21.7153518399
 20
0.3187977724
 10
21.6714177383
 20
0.2901618536
 10
21.6247145205
 20
0.2662807594
 10
21.5757678083
 20
0.2474257915
 10
21.5251211111
 20
0.2338055633
 10
21.4733276445
 20
0.2255681204
 10
21.4209575595
 20
0.2228041782
  0
LWPOLYLINE
  5
301
100
AcDbEntity
  8
ASSI
100
AcDbPolyline
 62
253
  6
CONTINUOUS
 90
9
 70
0
 10
21.4553559852
 20
0.4306676694
 10
21.4495667518
 20
0.3530903602
 10
21.4459287533
 20
0.3199921259
 10
21.4419990022
 20
0.2913503027
 10
21.4383505391
 20
0.267428666
 10
21.4340794838
 20
0.2483900331
 10
21.4291881163
 20
0.2344917239
 10
21.4246516156
 20
0.2259460799
 10
21.4209575594
 20
0.2228041782
  0
LINE
  5
302
100
AcDbEntity
  8
ASSI
100
AcDbLine
 62
7
  6
CONTINUOUS
 10
7.6432166738
 20
22.1844698036
 11
7.2950300706
 21
22.1528638832
  0
LINE
  5
303
100
AcDbEntity
  8
ASSI
100
AcDbLine
 62
7
  6
CONTINUOUS
 10
-3.6567833262
 20
22.1844698036
 11
-4.0049699294
 21
22.1528638832
  0
LINE
  5
304
100
AcDbEntity
  8
ASSI
100
AcDbLine
 62
7
  6
CONTINUOUS
 10
-14.8567833262
 20
22.1844698036
 11
-15.2049699294
 21
22.1528638832
  0
LWPOLYLINE
  5
305
100
AcDbEntity
  8
ASSI
100
AcDbPolyline
 62
253
  6
CONTINUOUS
 90
16
 70
0
 10
-21.8755423538
 20
21.9999865103
 10
-21.9277439802
 20
21.9971844651
 10
-21.9793745918
 20
21.9889518757
 10
-22.0298694885
 20
21.9753788053
 10
-22.0786764103
 20
21.956613721
 10
-22.1252615318
 20
21.932861885
 10
-22.1691153086
 20
21.9043831247
 10
-22.2097581129
 20
21.8714889561
 10
-22.2467454575
 20
21.8345391718
 10
-22.2796728211
 20
21.7939379367
 10
-22.3081801007
 20
21.7501293453
 10
-22.331955553
 20
21.7035925483
 10
-22.3507391873
 20
21.6548365233
 10
-22.3643256039
 20
21.6043945203
 10
-22.3725662435
 20
21.5528182312
 10
-22.3753710163
 20
21.5006717429
  0
LINE
  5
306
100
AcDbEntity
  8
ASSI
100
AcDbLine
 62
253
  6
CONTINUOUS
 10
21.4501324438
 20
21.9999865156
 11
18.1958830236
 21
21.9902401275
  0
LINE
  5
307
100
AcDbEntity
  8
ASSI
100
AcDbLine
 62
253
  6
CONTINUOUS
 10
18.1958830236
 20
21.9902401275
 11
14.7962681502
 21
21.9839175702
  0
LINE
  5
308
100
AcDbEntity
  8
ASSI
100
AcDbLine
 62
253
  6
CONTINUOUS
 10
14.7962681502
 20
21.9839175702
 11
11.0372564399
 21
21.9815108731
  0
LINE
  5
309
100
AcDbEntity
  8
ASSI
100
AcDbLine
 62
7
  6
CONTINUOUS
 10
3.7527650975
 20
22.1476231053
 11
7.1218249898
 21
22.1476231053
  0
LINE
  5
30A
100
AcDbEntity
  8
ASSI
100
AcDbLine
 62
7
  6
CONTINUOUS
 10
-4.1781750102
 20
22.1476231053
 11
-7.5472349025
 21
22.1476231053
  0
LINE
  5
30B
100
AcDbEntity
  8
ASSI
100
AcDbLine
 62
7
  6
CONTINUOUS
 10
14.9527650975
 20
22.1476231053
 11
18.3218249898
 21
22.1476231053
  0
LINE
  5
30C
100
AcDbEntity
  8
ASSI
100
AcDbLine
 62
7
  6
CONTINUOUS
 10
-15.3781750102
 20
22.1476231053
 11
-18.7472349025
 21
22.1476231053
  0
LINE
  5
30D
100
AcDbEntity
  8
ASSI
100
AcDbLine
 62
7
  6
CONTINUOUS
 10
21.5423108374
 20
22.1844698036
 11
18.8432166738
 21
22.1844698036
  0
LINE
  5
30E
100
AcDbEntity
  8
ASSI
100
AcDbLine
 62
7
  6
CONTINUOUS
 10
14.4313734134
 20
22.1844698036
 11
7.6432166738
 21
22.1844698036
  0
LINE
  5
30F
100
AcDbEntity
  8
ASSI
100
AcDbLine
 62
7
  6
CONTINUOUS
 10
3.2313734134
 20
22.1844698036
 11
-3.6567833262
 21
22.1844698036
  0
LINE
  5
310
100
AcDbEntity
  8
ASSI
100
AcDbLine
 62
7
  6
CONTINUOUS
 10
-8.0686265866
 20
22.1844698036
 11
-14.8567833262
 21
22.1844698036
  0
LINE
  5
311
100
AcDbEntity
  8
ASSI
100
AcDbLine
 62
7
  6
CONTINUOUS
 10
-19.2686265866
 20
22.1844698036
 11
-21.9677207501
 21
22.1844698036
  0
LINE
  5
312
100
AcDbEntity
  8
ASSI
100
AcDbLine
 62
253
  6
CONTINUOUS
 10
11.0372564399
 20
21.9815108731
 11
-14.1338621713
 21
21.9827262333
  0
LINE
  5
313
100
AcDbEntity
  8
ASSI
100
AcDbLine
 62
253
  6
CONTINUOUS
 10
-14.1338621713
 20
21.9827262333
 11
-17.5249729818
 21
21.9877635735
  0
LWPOLYLINE
  5
314
100
AcDbEntity
  8
ASSI
100
AcDbPolyline
 62
253
  6
CONTINUOUS
 90
3
 70
0
 10
-17.5249729818
 20
21.9877635735
 10
-20.9776606324
 20
21.9969555066
 10
-21.8755423538
 20
21.9999865103
  0
LWPOLYLINE
  5
315
100
AcDbEntity
  8
ASSI
100
AcDbPolyline
 62
253
  6
CONTINUOUS
 90
16
 70
0
 10
21.4501324438
 20
21.9999865156
 10
21.5023334138
 20
21.9971845404
 10
21.5539634553
 20
21.9889521433
 10
21.6044578843
 20
21.9753793631
 10
21.6532644367
 20
21.9566146469
 10
21.6998493094
 20
21.9328632268
 10
21.7437029978
 20
21.904384875
 10
21.7843458687
 20
21.8714910628
 10
21.821333406
 20
21.8345415539
 10
21.8542610725
 20
21.7939404696
 10
21.8827687342
 20
21.750131869
 10
21.9065445992
 20
21.7035948923
 10
21.925328628
 20
21.6548385199
 10
21.9389153773
 20
21.6043960066
 10
21.9471562472
 20
21.5528190481
 10
21.9499611063
 20
21.5006717483
  0
LINE
  5
316
100
AcDbEntity
  8
ASSI
100
AcDbLine
 62
7
  6
CONTINUOUS
 10
-8.0686265866
 20
22.1844698036
 11
-7.7204399833
 21
22.1528638832
  0
LINE
  5
317
100
AcDbEntity
  8
ASSI
100
AcDbLine
 62
7
  6
CONTINUOUS
 10
3.2313734134
 20
22.1844698036
 11
3.5795600167
 21
22.1528638832
  0
LINE
  5
318
100
AcDbEntity
  8
ASSI
100
AcDbLine
 62
7
  6
CONTINUOUS
 10
14.4313734134
 20
22.1844698036
 11
14.7795600167
 21
22.1528638832
  0
LWPOLYLINE
  5
319
100
AcDbEntity
  8
ASSI
100
AcDbPolyline
 62
253
  6
CONTINUOUS
 90
7
 70
0
 10
21.4501324411
 20
-22.04879262
 10
21.451184067
 20
-22.0414066669
 10
21.4522775139
 20
-22.0281309611
 10
21.4533849037
 20
-22.0090341305
 10
21.4544575978
 20
-21.9842144102
 10
21.4554896594
 20
-21.9537968465
 10
21.4575189507
 20
-21.8767918537
  0
LINE
  5
31A
100
AcDbEntity
  8
ASSI
100
AcDbLine
 62
7
  6
CONTINUOUS
 10
-39.5546654755
 20
-22.2332759133
 11
-43.4273525695
 21
-22.0303169829
  0
LINE
  5
31B
100
AcDbEntity
  8
ASSI
100
AcDbLine
 62
253
  6
CONTINUOUS
 10
-39.5111207793
 20
-21.735557759
 11
-43.0617369074
 21
-21.5494778526
  0
LWPOLYLINE
  5
31C
100
AcDbEntity
  8
ASSI
100
AcDbPolyline
 62
253
  6
CONTINUOUS
 90
22
 70
0
 10
-43.0748164114
 20
-22.04879262
 10
-43.1590247087
 20
-22.0414066669
 10
-43.2424878944
 20
-22.0281309611
 10
-43.3247951622
 20
-22.0090341305
 10
-43.4055403915
 20
-21.9842144102
 10
-43.4843283589
 20
-21.9537968465
 10
-43.5607759436
 20
-21.917930715
 10
-43.6345112356
 20
-21.8767918537
 10
-43.7051678351
 20
-21.830586279
 10
-43.7723909665
 20
-21.7795465085
 10
-43.8358497198
 20
-21.7239275985
 10
-43.895235244
 20
-21.6640046648
 10
-43.9502543078
 20
-21.6000746605
 10
-44.0006381833
 20
-21.5324538857
 10
-44.0461408274
 20
-21.4614775448
 10
-44.0865374408
 20
-21.3874979189
 10
-44.1216289936
 20
-21.3108866971
 10
-44.1512488662
 20
-21.23201694
 10
-44.1752566912
 20
-21.1512608721
 10
-44.1935338459
 20
-21.069010207
 10
-44.2059879515
 20
-20.9856756579
 10
-44.2125565278
 20
-20.9016678411
  0
LWPOLYLINE
  5
31D
100
AcDbEntity
  8
ASSI
100
AcDbPolyline
 62
253
  6
CONTINUOUS
 90
22
 70
0
 10
-43.0617369074
 20
-21.5494778526
 10
-43.1111438758
 20
-21.5451253343
 10
-43.1597181767
 20
-21.5374315451
 10
-43.2074598102
 20
-21.526396485
 10
-43.2546188963
 20
-21.5119312419
 10
-43.300945315
 20
-21.494124728
 10
-43.3456887058
 20
-21.4732436797
 10
-43.3888037507
 20
-21.4492433502
 10
-43.4303357679
 20
-21.4221684863
 10
-43.4696703512
 20
-21.3924200655
 10
-43.5067748211
 20
-21.35995644
 10
-43.5416818572
 20
-21.3248192577
 10
-43.5738750928
 20
-21.2875344393
 10
-43.6033112235
 20
-21.2480723069
 10
-43.6300335537
 20
-21.2064625385
 10
-43.6536556298
 20
-21.163320089
 10
-43.6741331246
 20
-21.1186011327
 10
-43.6915103653
 20
-21.0723494952
 10
-43.7055338794
 20
-21.0253116084
 10
-43.7161191761
 20
-20.9777362829
 10
-43.7233507462
 20
-20.9293747081
 10
-43.7272285898
 20
-20.880226884
  0
LINE
  5
31E
100
AcDbEntity
  8
ASSI
100
AcDbLine
 62
253
  6
CONTINUOUS
 10
-44.2125565373
 20
-20.9016678515
 11
-44.2068522913
 21
-20.9013668496
  0
LINE
  5
31F
100
AcDbEntity
  8
ASSI
100
AcDbLine
 62
253
  6
CONTINUOUS
 10
-44.2068522913
 20
-20.9013668496
 11
-44.0032696013
 21
-20.8922265018
  0
LINE
  5
320
100
AcDbEntity
  8
ASSI
100
AcDbLine
 62
253
  6
CONTINUOUS
 10
-44.0032696013
 20
-20.8922265018
 11
-43.7272285898
 21
-20.880226884
  0
LINE
  5
321
100
AcDbEntity
  8
ASSI
100
AcDbLine
 62
253
  6
CONTINUOUS
 10
-44.5629136663
 20
-20.894569088
 11
-44.212556539
 21
-20.9016678419
  0
LINE
  5
322
100
AcDbEntity
  8
ASSI
100
AcDbLine
 62
253
  6
CONTINUOUS
 10
-39.1577423628
 20
-17.9578946561
 11
-39.1806180832
 21
-17.9578946559
  0
LWPOLYLINE
  5
323
100
AcDbEntity
  8
ASSI
100
AcDbPolyline
 62
253
  6
CONTINUOUS
 90
11
 70
0
 10
-43.0748163096
 20
21.9999865156
 10
-43.0760363936
 20
21.9971845404
 10
-43.0769569313
 20
21.9889521433
 10
-43.0775678547
 20
21.9753793631
 10
-43.0778624822
 20
21.9566146469
 10
-43.0778375912
 20
21.9328632268
 10
-43.0774934537
 20
21.904384875
 10
-43.0768338333
 20
21.8714910628
 10
-43.0758659447
 20
21.8345415539
 10
-43.0746003736
 20
21.7939404696
 10
-43.0712346553
 20
21.7035948923
  0
LWPOLYLINE
  5
324
100
AcDbEntity
  8
ASSI
100
AcDbPolyline
 62
253
  6
CONTINUOUS
 90
9
 70
0
 10
-43.0748164114
 20
-22.04879262
 10
-43.0760365133
 20
-22.0459905748
 10
-43.0769570597
 20
-22.0377579854
 10
-43.0775679834
 20
-22.0241849151
 10
-43.0778626039
 20
-22.0054198307
 10
-43.0778376996
 20
-21.9816679947
 10
-43.0774935443
 20
-21.9531892345
 10
-43.0768339041
 20
-21.9202950659
 10
-43.0758659959
 20
-21.8833452815
  0
LWPOLYLINE
  5
325
100
AcDbEntity
  8
ASSI
100
AcDbPolyline
 62
253
  6
CONTINUOUS
 90
16
 70
0
 10
-44.6609691264
 20
0.7235520445
 10
-44.6582056527
 20
0.6705634362
 10
-44.6501600873
 20
0.6193129115
 10
-44.6370498556
 20
0.5696827866
 10
-44.6187639104
 20
0.5213511528
 10
-44.5952804697
 20
0.4746387864
 10
-44.5671239218
 20
0.4306676694
 10
-44.5347461229
 20
0.3901269296
 10
-44.4982132666
 20
0.3530903602
 10
-44.4579772849
 20
0.3199921259
 10
-44.4146279498
 20
0.2913503027
 10
-44.3685784261
 20
0.267428666
 10
-44.3201996379
 20
0.2483900331
 10
-44.2700386474
 20
0.2344917239
 10
-44.2188038401
 20
0.2259460799
 10
-44.1671554794
 20
0.2228041782
  0
LWPOLYLINE
  5
326
100
AcDbEntity
  8
ASSI
100
AcDbPolyline
 62
253
  6
CONTINUOUS
 90
13
 70
0
 10
-44.212556539
 20
-20.9016678419
 10
-44.2846858253
 20
-19.1521427182
 10
-44.3494860253
 20
-17.4307955743
 10
-44.4072590975
 20
-15.7376602927
 10
-44.458034128
 20
-14.0820225634
 10
-44.5024333999
 20
-12.4546592702
 10
-44.5413613788
 20
-10.8278298742
 10
-44.5748238667
 20
-9.2015993826
 10
-44.6028284208
 20
-7.5759405536
 10
-44.625721288
 20
-5.9229616057
 10
-44.6433049884
 20
-4.2333743675
 10
-44.655150546
 20
-2.5164998834
 10
-44.660969145
 20
-0.7723581374
  0
LWPOLYLINE
  5
327
100
AcDbEntity
  8
ASSI
100
AcDbPolyline
 62
253
  6
CONTINUOUS
 90
13
 70
0
 10
-43.7272285898
 20
-20.880226884
 10
-43.7988922313
 20
-19.1324258394
 10
-43.8638213073
 20
-17.4128490811
 10
-43.9220158177
 20
-15.7214966091
 10
-43.9730738916
 20
-14.0675960091
 10
-44.0173973998
 20
-12.4419196953
 10
-44.0561919555
 20
-10.8167849108
 10
-44.089836534
 20
-9.1922378314
 10
-44.11795216
 20
-7.5682322812
 10
-44.1406075196
 20
-5.9169469763
 10
-44.1578255082
 20
-4.2291081554
 10
-44.1695832305
 20
-2.5139895798
 10
-44.176497905
 20
-0.6686813989
  0
LINE
  5
328
100
AcDbEntity
  8
0
100
AcDbLine
 62
253
  6
CONTINUOUS
 10
-44.9044875972
 20
-12.7744030549
 11
-44.879946085
 21
-13.5220003699
  0
LINE
  5
329
100
AcDbEntity
  8
0
100
AcDbLine
 62
253
  6
CONTINUOUS
 10
-44.9949139264
 20
-9.524404051
 11
-44.9763926719
 21
-10.2744030549
  0
LWPOLYLINE
  5
32A
100
AcDbEntity
  8
ASSI
100
AcDbPolyline
 62
253
  6
CONTINUOUS
 90
10
 70
0
 10
-44.6609691449
 20
0.723552039
 10
-44.653426237
 20
2.7837688582
 10
-44.6368147382
 20
4.8765471962
 10
-44.6107134239
 20
7.0018437196
 10
-44.5749886914
 20
9.1440705022
 10
-44.5290520643
 20
11.3187201443
 10
-44.4711620312
 20
13.5723504704
 10
-44.399706285
 20
15.9204175162
 10
-44.3138999314
 20
18.34728973
 10
-44.2125565391
 20
20.8528617364
  0
LINE
  5
32B
100
AcDbEntity
  8
0
100
AcDbLine
 62
253
  6
CONTINUOUS
 10
-44.9763926719
 20
10.2255969451
 11
-44.9949139264
 21
9.4755979413
  0
LINE
  5
32C
100
AcDbEntity
  8
0
100
AcDbLine
 62
253
  6
CONTINUOUS
 10
-44.8798649661
 20
13.4755965486
 11
-44.9044875972
 21
12.7255969451
  0
LWPOLYLINE
  5
32D
100
AcDbEntity
  8
ASSI
100
AcDbPolyline
 62
253
  6
CONTINUOUS
 90
16
 70
0
 10
-44.6609691272
 20
-0.7723581317
 10
-44.6582058731
 20
-0.7193715241
 10
-44.6501608682
 20
-0.6681226762
 10
-44.637051455
 20
-0.6184938855
 10
-44.6187665388
 20
-0.5701632591
 10
-44.5952842648
 20
-0.5234515527
 10
-44.5671288528
 20
-0.4794806538
 10
-44.5347519806
 20
-0.4389396417
 10
-44.4982197644
 20
-0.4019024094
 10
-44.4579840759
 20
-0.3688032482
 10
-44.4146345771
 20
-0.3401603101
 10
-44.3685843969
 20
-0.3162374946
 10
-44.3202045777
 20
-0.2971977934
 10
-44.2700422472
 20
-0.2832986288
 10
-44.2188057762
 20
-0.2747524087
 10
-44.1671554801
 20
-0.271610288
  0
LWPOLYLINE
  5
32E
100
AcDbEntity
  8
ASSI
100
AcDbPolyline
 62
253
  6
CONTINUOUS
 90
22
 70
0
 10
-44.2125564221
 20
20.852861731
 10
-44.2059878454
 20
20.9368695561
 10
-44.1935337388
 20
21.0202041109
 10
-44.1752565828
 20
21.102454779
 10
-44.1512487572
 20
21.1832108466
 10
-44.121628885
 20
21.2620806008
 10
-44.0865373328
 20
21.3386918204
 10
-44.0461407196
 20
21.4126714453
 10
-44.0006380756
 20
21.4836477855
 10
-43.9502542004
 20
21.5512685597
 10
-43.8952351371
 20
21.6151985632
 10
-43.8358496136
 20
21.675121496
 10
-43.7723908612
 20
21.7307404053
 10
-43.7051677306
 20
21.7817801753
 10
-43.6345111319
 20
21.8279857494
 10
-43.5607758411
 20
21.8691246103
 10
-43.4843282583
 20
21.9049907411
 10
-43.4055402933
 20
21.9354083042
 10
-43.3247950653
 20
21.9602280246
 10
-43.2424877972
 20
21.9793248557
 10
-43.1590246097
 20
21.9926005621
 10
-43.0748163096
 20
21.9999865156
  0
LWPOLYLINE
  5
32F
100
AcDbEntity
  8
ASSI
100
AcDbPolyline
 62
253
  6
CONTINUOUS
 90
22
 70
0
 10
-43.7272285357
 20
20.8314207824
 10
-43.7233506684
 20
20.8805686057
 10
-43.7161190805
 20
20.9289301799
 10
-43.705533772
 20
20.9765055049
 10
-43.6915102539
 20
21.0235433916
 10
-43.6741330151
 20
21.0697950292
 10
-43.6536555222
 20
21.1145139856
 10
-43.6300334463
 20
21.1576564351
 10
-43.6033111163
 20
21.1992662035
 10
-43.5738749858
 20
21.2387283359
 10
-43.5416817504
 20
21.2760131542
 10
-43.5067747145
 20
21.3111503366
 10
-43.469670245
 20
21.3436139619
 10
-43.4303356619
 20
21.3733623826
 10
-43.3888036452
 20
21.4004372463
 10
-43.3456886007
 20
21.4244375757
 10
-43.3009452103
 20
21.445318624
 10
-43.2546187922
 20
21.4631251379
 10
-43.2074597067
 20
21.477590381
 10
-43.1597180738
 20
21.4886254409
 10
-43.1111437734
 20
21.49631923
 10
-43.0617368056
 20
21.5006717483
  0
LWPOLYLINE
  5
330
100
AcDbEntity
  8
ASSI
100
AcDbPolyline
 62
253
  6
CONTINUOUS
 90
9
 70
0
 10
-44.1754477504
 20
0.3889967979
 10
-44.1748033516
 20
0.3518635735
 10
-44.1740267415
 20
0.3187977724
 10
-44.1731261884
 20
0.2901618536
 10
-44.1721116288
 20
0.2662807594
 10
-44.1709944588
 20
0.2474257915
 10
-44.1697870903
 20
0.2338055633
 10
-44.1685027177
 20
0.2255681204
 10
-44.1671554794
 20
0.2228041782
  0
LINE
  5
331
100
AcDbEntity
  8
ASSI
100
AcDbLine
 62
253
  6
CONTINUOUS
 10
-44.1763141234
 20
0.4738689856
 11
-44.1754477504
 21
0.3889967979
  0
LINE
  5
332
100
AcDbEntity
  8
ASSI
100
AcDbLine
 62
253
  6
CONTINUOUS
 10
-44.1765871676
 20
0.5695536886
 11
-44.1763141234
 21
0.4738689856
  0
LINE
  5
333
100
AcDbEntity
  8
ASSI
100
AcDbLine
 62
253
  6
CONTINUOUS
 10
-44.176497905
 20
-0.6686813989
 11
-44.1765262475
 21
-0.5694876626
  0
LINE
  5
334
100
AcDbEntity
  8
ASSI
100
AcDbLine
 62
253
  6
CONTINUOUS
 10
-44.1690440745
 20
2.7810058273
 11
-44.1765871676
 21
0.5695536886
  0
LWPOLYLINE
  5
335
100
AcDbEntity
  8
ASSI
100
AcDbPolyline
 62
253
  6
CONTINUOUS
 90
9
 70
0
 10
-44.1690440745
 20
2.7810058273
 10
-44.1522801079
 20
4.8716487157
 10
-44.1255887859
 20
6.994713805
 10
-44.0900715105
 20
9.1347399757
 10
-44.0446268798
 20
11.3071883473
 10
-43.9859506875
 20
13.5584422779
 10
-43.9129415317
 20
15.903962887
 10
-43.8267008144
 20
18.3282890552
 10
-43.7272285357
 20
20.8314207824
  0
LWPOLYLINE
  5
336
100
AcDbEntity
  8
ASSI
100
AcDbPolyline
 62
253
  6
CONTINUOUS
 90
11
 70
0
 10
-44.1765262475
 20
-0.5694876626
 10
-44.1759530772
 20
-0.4786030536
 10
-44.1754477524
 20
-0.4378029925
 10
-44.1748033537
 20
-0.4006697475
 10
-44.1740267435
 20
-0.3676039287
 10
-44.1731261904
 20
-0.3389679971
 10
-44.1721116307
 20
-0.3150868925
 10
-44.1709944606
 20
-0.2962319154
 10
-44.1697870918
 20
-0.2826116797
 10
-44.1685027189
 20
-0.2743742319
 10
-44.1671554801
 20
-0.271610288
  0
LINE
  5
337
100
AcDbEntity
  8
ASSI
100
AcDbLine
 62
253
  6
CONTINUOUS
 10
-43.066883521
 20
21.6043960066
 11
-43.0617368056
 21
21.5006717483
  0
LINE
  5
338
100
AcDbEntity
  8
ASSI
100
AcDbLine
 62
253
  6
CONTINUOUS
 10
-43.0712346553
 20
21.7035948923
 11
-43.066883521
 21
21.6043960066
  0
LINE
  5
339
100
AcDbEntity
  8
ASSI
100
AcDbLine
 62
253
  6
CONTINUOUS
 10
-43.0758659959
 20
-21.8833452815
 11
-43.0730509855
 21
-21.798935455
  0
LINE
  5
33A
100
AcDbEntity
  8
ASSI
100
AcDbLine
 62
253
  6
CONTINUOUS
 10
-43.0730509855
 20
-21.798935455
 11
-43.0691713449
 21
-21.7036426331
  0
LWPOLYLINE
  5
33B
100
AcDbEntity
  8
ASSI
100
AcDbPolyline
 62
253
  6
CONTINUOUS
 90
3
 70
0
 10
-43.0691713449
 20
-21.7036426331
 10
-43.0643963477
 20
-21.6016243409
 10
-43.0617369074
 20
-21.5494778526
  0
LINE
  5
33C
100
AcDbEntity
  8
ASSI
100
AcDbLine
 62
253
  6
CONTINUOUS
 10
-44.660969145
 20
-0.7723581374
 11
-45.1068716393
 21
-0.7764069199
  0
LINE
  5
33D
100
AcDbEntity
  8
ASSI
100
AcDbLine
 62
253
  6
CONTINUOUS
 10
-38.7577423628
 20
-0.7243078727
 11
-44.1758806865
 21
-0.7715912495
  0
LINE
  5
33E
100
AcDbEntity
  8
ASSI
100
AcDbLine
 62
7
  6
CONTINUOUS
 10
-38.7577423628
 20
-0.2244030549
 11
-44.6113177076
 21
-0.275486433
  0
LINE
  5
33F
100
AcDbEntity
  8
ASSI
100
AcDbLine
 62
253
  6
CONTINUOUS
 10
-44.1758806852
 20
-0.7715912495
 11
-44.6609691272
 21
-0.7723581317
  0
LINE
  5
340
100
AcDbEntity
  8
ASSI
100
AcDbLine
 62
7
  6
CONTINUOUS
 10
-39.1577423628
 20
17.9090863098
 11
-39.1577423628
 21
17.6476178662
  0
LINE
  5
341
100
AcDbEntity
  8
ASSI
100
AcDbLine
 62
7
  6
CONTINUOUS
 10
-39.1577423628
 20
-17.696423976
 11
-39.1577423628
 21
-17.9578923786
  0
LINE
  5
342
100
AcDbEntity
  8
ASSI
100
AcDbLine
 62
7
  6
CONTINUOUS
 10
-38.7577423628
 20
13.0755969451
 11
-38.7577423628
 21
0.1755969451
  0
LINE
  5
343
100
AcDbEntity
  8
ASSI
100
AcDbLine
 62
7
  6
CONTINUOUS
 10
-38.7577423628
 20
-13.1244030549
 11
-38.7577423628
 21
-0.2244030549
  0
LINE
  5
344
100
AcDbEntity
  8
ASSI
100
AcDbLine
 62
253
  6
CONTINUOUS
 10
-44.6609691264
 20
0.7235520445
 11
-44.1758806846
 21
0.7227851398
  0
LINE
  5
345
100
AcDbEntity
  8
ASSI
100
AcDbLine
 62
7
  6
CONTINUOUS
 10
-44.6113177076
 20
0.2266803233
 11
-38.7577423628
 21
0.1755969451
  0
LINE
  5
346
100
AcDbEntity
  8
ASSI
100
AcDbLine
 62
253
  6
CONTINUOUS
 10
-44.1758806858
 20
0.7227851398
 11
-38.7577423628
 21
0.6755017629
  0
LINE
  5
347
100
AcDbEntity
  8
ASSI
100
AcDbLine
 62
253
  6
CONTINUOUS
 10
-45.1068716393
 20
0.7276008101
 11
-44.6609691449
 21
0.723552039
  0
LINE
  5
348
100
AcDbEntity
  8
ASSI
100
AcDbLine
 62
7
  6
CONTINUOUS
 10
-39.5546654755
 20
22.1844698036
 11
-38.7577423628
 21
13.0755969451
  0
LINE
  5
349
100
AcDbEntity
  8
ASSI
100
AcDbLine
 62
7
  6
CONTINUOUS
 10
-38.7577423628
 20
-13.1244030549
 11
-39.5546654755
 21
-22.2332759133
  0
LINE
  5
34A
100
AcDbEntity
  8
ASSI
100
AcDbLine
 62
253
  6
CONTINUOUS
 10
-39.1577423628
 20
17.9090885463
 11
-39.1806180832
 21
17.9090885463
  0
LINE
  5
34B
100
AcDbEntity
  8
ASSI
100
AcDbLine
 62
253
  6
CONTINUOUS
 10
-43.0617368056
 20
21.5006717483
 11
-39.5111207793
 21
21.6867516493
  0
LINE
  5
34C
100
AcDbEntity
  8
ASSI
100
AcDbLine
 62
7
  6
CONTINUOUS
 10
-43.4273525695
 20
21.9815108731
 11
-39.5546654755
 21
22.1844698036
  0
LINE
  5
34D
100
AcDbEntity
  8
ASSI
100
AcDbLine
 62
253
  6
CONTINUOUS
 10
-44.5575147997
 20
20.8459061621
 11
-44.5629136664
 21
20.8457629767
  0
LINE
  5
34E
100
AcDbEntity
  8
ASSI
100
AcDbLine
 62
253
  6
CONTINUOUS
 10
-44.2125565391
 20
20.8528617364
 11
-44.5575147997
 21
20.8459061621
  0
LWPOLYLINE
  5
34F
100
AcDbEntity
  8
ASSI
100
AcDbPolyline
 62
253
  6
CONTINUOUS
 90
4
 70
0
 10
-44.2125436694
 20
20.8528611986
 10
-44.2068396857
 20
20.8525602067
 10
-44.1963585266
 20
20.852054249
 10
-43.7272285357
 20
20.8314207824
  0
ARC
  5
350
100
AcDbEntity
  8
ASSI
100
AcDbCircle
 62
7
  6
CONTINUOUS
 10
-43.3645479784
 20
-20.8319616168
 40
1.2
100
AcDbArc
 50
182.9907131675
 51
266.9999309764
  0
ARC
  5
351
100
AcDbEntity
  8
ASSI
100
AcDbCircle
 62
7
  6
CONTINUOUS
 10
-44.6068725157
 20
-0.7754666796
 40
0.5
100
AcDbArc
 50
90.5093881764
 51
180.1077622649
  0
ARC
  5
352
100
AcDbEntity
  8
ASSI
100
AcDbCircle
 62
7
  6
CONTINUOUS
 10
-39.4577423628
 20
-17.9578946561
 40
0.3
100
AcDbArc
 50
334.9999283477
 51
0.0004349712
  0
ARC
  5
353
100
AcDbEntity
  8
ASSI
100
AcDbCircle
 62
7
  6
CONTINUOUS
 10
-43.3645479784
 20
20.7831555071
 40
1.2
100
AcDbArc
 50
93.0000690236
 51
177.0092868325
  0
ARC
  5
354
100
AcDbEntity
  8
ASSI
100
AcDbCircle
 62
7
  6
CONTINUOUS
 10
-44.6068725157
 20
0.7266605699
 40
0.5
100
AcDbArc
 50
179.8922377351
 51
269.4906118236
  0
ARC
  5
355
100
AcDbEntity
  8
ASSI
100
AcDbCircle
 62
7
  6
CONTINUOUS
 10
-39.4577423628
 20
17.9090885463
 40
0.3
100
AcDbArc
 50
359.9995650288
 51
25.0000764768
  0
ARC
  5
356
100
AcDbEntity
  8
ASSI
100
AcDbCircle
 62
7
  6
CONTINUOUS
 10
354.8922576372
 20
-0.0244030549
 40
400.0
100
AcDbArc
 50
177.0092106876
 51
179.89228325
  0
ARC
  5
357
100
AcDbEntity
  8
0
100
AcDbCircle
 62
253
  6
CONTINUOUS
 10
354.8922576372
 20
-0.0244030549
 40
400.0
100
AcDbArc
 50
178.1733876278
 51
178.531634922
  0
ARC
  5
358
100
AcDbEntity
  8
ASSI
100
AcDbCircle
 62
7
  6
CONTINUOUS
 10
354.8922576372
 20
-0.0244030549
 40
400.0
100
AcDbArc
 50
180.10771675
 51
182.9907893124
  0
ARC
  5
359
100
AcDbEntity
  8
0
100
AcDbCircle
 62
253
  6
CONTINUOUS
 10
354.8922576372
 20
-0.0244030549
 40
400.0
100
AcDbArc
 50
181.468365078
 51
181.8266123722
  0
ELLIPSE
  5
35A
100
AcDbEntity
  8
ASSI
100
AcDbEllipse
 62
7
  6
CONTINUOUS
 10
18.3218249898
 20
22.1581046611
 30
0.0
 11
0.2
 21
-0.0
 31
0.0
 40
0.0524077793
 41
-1.5707963268
 42
-0.5235987756
  0
ELLIPSE
  5
35B
100
AcDbEntity
  8
ASSI
100
AcDbEllipse
 62
7
  6
CONTINUOUS
 10
14.9527650975
 20
22.1581046611
 30
0.0
 11
0.2
 21
-0.0
 31
0.0
 40
0.0524077793
 41
-2.617993878
 42
-1.5707963268
  0
ELLIPSE
  5
35C
100
AcDbEntity
  8
ASSI
100
AcDbEllipse
 62
7
  6
CONTINUOUS
 10
7.1218249898
 20
22.1581046611
 30
0.0
 11
0.2
 21
0.0
 31
0.0
 40
0.0524077793
 41
-1.5707963268
 42
-0.5235987756
  0
ELLIPSE
  5
35D
100
AcDbEntity
  8
ASSI
100
AcDbEllipse
 62
7
  6
CONTINUOUS
 10
3.7527650975
 20
22.1581046611
 30
0.0
 11
0.2
 21
-0.0
 31
0.0
 40
0.0524077793
 41
-2.617993878
 42
-1.5707963268
  0
ELLIPSE
  5
35E
100
AcDbEntity
  8
ASSI
100
AcDbEllipse
 62
7
  6
CONTINUOUS
 10
-7.5472349025
 20
22.1581046611
 30
0.0
 11
0.2
 21
0.0
 31
0.0
 40
0.0524077793
 41
-2.617993878
 42
-1.5707963268
  0
ELLIPSE
  5
35F
100
AcDbEntity
  8
ASSI
100
AcDbEllipse
 62
7
  6
CONTINUOUS
 10
-4.1781750102
 20
22.1581046611
 30
0.0
 11
0.2
 21
-0.0
 31
0.0
 40
0.0524077793
 41
-1.5707963268
 42
-0.5235987756
  0
ELLIPSE
  5
360
100
AcDbEntity
  8
ASSI
100
AcDbEllipse
 62
7
  6
CONTINUOUS
 10
-15.3781750102
 20
22.1581046611
 30
0.0
 11
0.2
 21
-0.0
 31
0.0
 40
0.0524077793
 41
-1.5707963268
 42
-0.5235987756
  0
ELLIPSE
  5
361
100
AcDbEntity
  8
ASSI
100
AcDbEllipse
 62
7
  6
CONTINUOUS
 10
-18.7472349025
 20
22.1581046611
 30
0.0
 11
0.2
 21
-0.0
 31
0.0
 40
0.0524077793
 41
-2.617993878
 42
-1.5707963268
  0
ELLIPSE
  5
362
100
AcDbEntity
  8
ASSI
100
AcDbEllipse
 62
7
  6
CONTINUOUS
 10
21.5624937709
 20
0.6756159843
 30
0.0
 11
0.4745319423
 21
-0.1581451893
 31
0.0
 40
0.9996192872
 41
-1.2489924673
 42
0.3215754254
  0
ELLIPSE
  5
363
100
AcDbEntity
  8
ASSI
100
AcDbEllipse
 62
7
  6
CONTINUOUS
 10
-21.9879036836
 20
0.6756159843
 30
0.0
 11
0.4745319423
 21
0.1581451893
 31
0.0
 40
0.9996192872
 41
2.8200172282
 42
4.3905851209
  0
ELLIPSE
  5
364
100
AcDbEntity
  8
ASSI
100
AcDbEllipse
 62
7
  6
CONTINUOUS
 10
21.5427674271
 20
21.6860688421
 30
0.0
 11
0.4962344879
 21
-0.0628595572
 31
0.0
 40
0.9963456432
 41
0.1278292453
 42
1.6972555761
  0
ELLIPSE
  5
365
100
AcDbEntity
  8
ASSI
100
AcDbEllipse
 62
7
  6
CONTINUOUS
 10
-21.9681773398
 20
21.6860688421
 30
0.0
 11
0.4962344879
 21
0.0628595572
 31
0.0
 40
0.9963456432
 41
1.4443370775
 42
3.0137634083
  0
ELLIPSE
  5
366
100
AcDbEntity
  8
ASSI
100
AcDbEllipse
 62
7
  6
CONTINUOUS
 10
-18.7472349025
 20
-22.2069107708
 30
0.0
 11
0.2
 21
-0.0
 31
0.0
 40
0.0524077793
 41
1.5707963268
 42
2.617993878
  0
ELLIPSE
  5
367
100
AcDbEntity
  8
ASSI
100
AcDbEllipse
 62
7
  6
CONTINUOUS
 10
-15.3781750102
 20
-22.2069107708
 30
0.0
 11
0.2
 21
-0.0
 31
0.0
 40
0.0524077793
 41
0.5235987756
 42
1.5707963268
  0
ELLIPSE
  5
368
100
AcDbEntity
  8
ASSI
100
AcDbEllipse
 62
7
  6
CONTINUOUS
 10
-7.5472349025
 20
-22.2069107708
 30
0.0
 11
0.2
 21
0.0
 31
0.0
 40
0.0524077793
 41
1.5707963268
 42
2.617993878
  0
ELLIPSE
  5
369
100
AcDbEntity
  8
ASSI
100
AcDbEllipse
 62
7
  6
CONTINUOUS
 10
-4.1781750102
 20
-22.2069107708
 30
0.0
 11
0.2
 21
0.0
 31
0.0
 40
0.0524077793
 41
0.5235987756
 42
1.5707963268
  0
ELLIPSE
  5
36A
100
AcDbEntity
  8
ASSI
100
AcDbEllipse
 62
7
  6
CONTINUOUS
 10
7.1218249898
 20
-22.2069107708
 30
0.0
 11
0.2
 21
0.0
 31
0.0
 40
0.0524077793
 41
0.5235987756
 42
1.5707963268
  0
ELLIPSE
  5
36B
100
AcDbEntity
  8
ASSI
100
AcDbEllipse
 62
7
  6
CONTINUOUS
 10
3.7527650975
 20
-22.2069107708
 30
0.0
 11
0.2
 21
0.0
 31
0.0
 40
0.0524077793
 41
1.5707963268
 42
2.617993878
  0
ELLIPSE
  5
36C
100
AcDbEntity
  8
ASSI
100
AcDbEllipse
 62
7
  6
CONTINUOUS
 10
14.9527650975
 20
-22.2069107708
 30
0.0
 11
0.2
 21
0.0
 31
0.0
 40
0.0524077793
 41
1.5707963268
 42
2.617993878
  0
ELLIPSE
  5
36D
100
AcDbEntity
  8
ASSI
100
AcDbEllipse
 62
7
  6
CONTINUOUS
 10
18.3218249898
 20
-22.2069107708
 30
0.0
 11
0.2
 21
0.0
 31
0.0
 40
0.0524077793
 41
0.5235987756
 42
1.5707963268
  0
ELLIPSE
  5
36E
100
AcDbEntity
  8
ASSI
100
AcDbEllipse
 62
7
  6
CONTINUOUS
 10
-21.9879036836
 20
-0.7244220941
 30
0.0
 11
0.4745319423
 21
-0.1581451893
 31
0.0
 40
0.9996192872
 41
1.8926001863
 42
3.463168079
  0
ELLIPSE
  5
36F
100
AcDbEntity
  8
ASSI
100
AcDbEllipse
 62
7
  6
CONTINUOUS
 10
21.5624937709
 20
-0.7244220941
 30
0.0
 11
0.4745319423
 21
0.1581451893
 31
0.0
 40
0.9996192872
 41
-0.3215754254
 42
1.2489924673
  0
ELLIPSE
  5
370
100
AcDbEntity
  8
ASSI
100
AcDbEllipse
 62
7
  6
CONTINUOUS
 10
-21.9681773398
 20
-21.7348749519
 30
0.0
 11
0.4962344879
 21
-0.0628595572
 31
0.0
 40
0.9963456432
 41
-3.0137634083
 42
-1.4443370775
  0
ELLIPSE
  5
371
100
AcDbEntity
  8
ASSI
100
AcDbEllipse
 62
7
  6
CONTINUOUS
 10
21.5427674271
 20
-21.7348749519
 30
0.0
 11
0.4962344879
 21
0.0628595572
 31
0.0
 40
0.9963456432
 41
-1.6972555761
 42
-0.1278292453
  0
ENDSEC
  0
SECTION
  2
OBJECTS
  0
DICTIONARY
  5
C
100
AcDbDictionary
280
0
281
1
  3
ACAD_GROUP
350
D
  3
ACAD_MLINESTYLE
350
17
  3
ACAD_LAYOUT
350
1A
  3
ACAD_PLOTSETTINGS
350
19
  3
ACAD_PLOTSTYLENAME
350
E
  0
DICTIONARY
  5
D
102
{ACAD_REACTORS
330
C
102
}
100
AcDbDictionary
280
0
281
1
  0
ACDBDICTIONARYWDFLT
  5
E
102
{ACAD_REACTORS
330
C
102
}
100
AcDbDictionary
281
1
  3
Normal
350
F
100
AcDbDictionaryWithDefault
340
F
  0
DICTIONARY
  5
17
102
{ACAD_REACTORS
330
C
102
}
100
AcDbDictionary
280
0
281
1
  3
Standard
350
18
  0
DICTIONARY
  5
19
102
{ACAD_REACTORS
330
C
102
}
100
AcDbDictionary
281
1
  0
DICTIONARY
  5
1A
102
{ACAD_REACTORS
330
C
102
}
100
AcDbDictionary
281
1
  3
Model
350
372
  3
Layout1
350
373
  0
ACDBPLACEHOLDER
  5
F
102
{ACAD_REACTORS
330
E
102
}
  0
MLINESTYLE
  5
18
102
{ACAD_REACTORS
330
17
102
}
100
AcDbMlineStyle
  2
STANDARD
 70
0
  3

 62
256
 51
90.0
 52
90.0
 71
2
 49
0.5
 62
256
  6
BYLAYER
 49
-0.5
 62
256
  6
BYLAYER
  0
LAYOUT
  5
372
102
{ACAD_REACTORS
330
1A
102
}
100
AcDbPlotSettings
  1

  2
none_device
  4
ISO_A4_(297.00_x_210.00_MM)
  6

 40
0.0
 41
0.0
 42
0.0
 43
0.0
 44
297.0
 45
210.0
 46
0.0
 47
0.0
 48
0.0
 49
0.0
140
0.0
141
0.0
142
1.0
143
1.0
 70
1024
 72
1
 73
0
 74
0
  7

 75
0
147
1.0
148
0.0
149
0.0
100
AcDbLayout
  1
Model
 70
0
 71
0
 10
0.0
 20
0.0
 11
297.0
 21
210.0
 12
0.0
 22
0.0
 32
0.0
 14
0.0
 24
0.0
 34
0.0
 15
0.0
 25
0.0
 35
0.0
146
0.0
 13
0.0
 23
0.0
 33
0.0
 16
1.0
 26
0.0
 36
0.0
 17
0.0
 27
1.0
 37
0.0
 76
0
330
21E
345
0
346
0
  0
LAYOUT
  5
373
102
{ACAD_REACTORS
330
1A
102
}
100
AcDbPlotSettings
  1

  2
none_device
  4
ISO_A4_(297.00_x_210.00_MM)
  6

 40
0.0
 41
0.0
 42
0.0
 43
0.0
 44
297.0
 45
210.0
 46
0.0
 47
0.0
 48
0.0
 49
0.0
140
0.0
141
0.0
142
1.0
143
1.0
 70
0
 72
1
 73
0
 74
0
  7

 75
0
147
1.0
148
0.0
149
0.0
100
AcDbLayout
  1
Layout1
 70
0
 71
1
 10
0.0
 20
0.0
 11
297.0
 21
210.0
 12
0.0
 22
0.0
 32
0.0
 14
0.0
 24
0.0
 34
0.0
 15
0.0
 25
0.0
 35
0.0
146
0.0
 13
0.0
 23
0.0
 33
0.0
 16
1.0
 26
0.0
 36
0.0
 17
0.0
 27
1.0
 37
0.0
 76
0
330
21F
345
0
346
0
  0
ENDSEC
  0
EOF
