  0
SECTION
  2
HEADER
  9
$ACADVER
  1
AC1021
  9
$DWGCODEPAGE
  3
ANSI_1252
  9
$EXTMAX
 10
297.0
 20
210.0
 30
0.0
  9
$EXTMIN
 10
0.0
 20
0.0
 30
0.0
  9
$LIMMIN
 10
0.0
 20
0.0
  9
$LIMMAX
 10
297.0
 20
210.0
  9
$VIEWCTR
 10
148.5
 20
105.0
  9
$VIEWSIZE
 40
210.0
  9
$CLAYER
  8
0
  9
$LTSCALE
 40
16.335
  9
$CELTYPE
  6
BYLAYER
  9
$DIMSCALE
 40
1.0
  9
$DIMASZ
 40
3.0
  9
$DIMEXO
 40
0.5
  9
$DIMDLI
 40
11.286
  9
$DIMEXE
 40
1.5
  9
$DIMCEN
 40
2.673
  9
$DIMLFAC
 40
1.0
  9
$DIMBLK
  1
_FILLED
  9
$DIMALT
 70
0
  9
$DIMALTF
 40
25.4
  9
$DIMTXT
 40
3.0
  9
$DIMTOL
 70
1
  9
$DIMLIM
 70
0
  9
$DIMTFAC
 40
1.0
  9
$DIMTP
 40
0.01
  9
$DIMTM
 40
0.01
  9
$DIMGAP
 40
0.625
  9
$DIMDSEP
 70
44
  9
$AUNITS
 70
0
  9
$PDMODE
 70
3
  9
$PDSIZE
 40
3.0
  9
$HANDSEED
  5
3CC
  9
$TILEMODE
 70
1
  9
$MEASUREMENT
 70
1
  9
$INSUNITS
 70
4
  0
ENDSEC
  0
SECTION
  2
CLASSES
  0
CLASS
  1
ACDBDICTIONARYWDFLT
  2
AcDbDictionaryWithDefault
  3
AutoCAD 2000
 90
0
 91
1
280
0
281
0
  0
CLASS
  1
ACDBPLACEHOLDER
  2
AcDbPlaceHolder
  3
AutoCAD 2000
 90
0
 91
1
280
0
281
0
  0
CLASS
  1
LAYOUT
  2
AcDbLayout
  3
AutoCAD 2000
 90
0
 91
0
280
0
281
0
  0
ENDSEC
  0
SECTION
  2
TABLES
  0
TABLE
  2
VPORT
  5
8
100
AcDbSymbolTable
 70
2
  0
VPORT
  5
1F4
100
AcDbSymbolTableRecord
100
AcDbViewportTableRecord
  2
*ACTIVE
 70
0
 10
0.0
 20
0.0
 11
1.0
 21
1.0
 12
148.5
 22
105.0
 13
0.0
 23
0.0
 14
1.0
 24
1.0
 15
0.0
 25
0.0
 16
0.0
 26
0.0
 36
1.0
 17
0.0
 27
0.0
 37
0.0
 40
210.0
 41
1.4142857143
 42
50.0
 43
0.0
 44
0.0
 50
0.0
 51
0.0
 71
0
 72
100
 73
1
 74
1
 75
0
 76
0
 77
0
 78
0
  0
ENDTAB
  0
TABLE
  2
LTYPE
  5
5
100
AcDbSymbolTable
 70
6
  0
LTYPE
  5
14
100
AcDbSymbolTableRecord
100
AcDbLinetypeTableRecord
  2
BYBLOCK
 70
0
  3

 72
65
 73
0
 40
0.0
  0
LTYPE
  5
15
100
AcDbSymbolTableRecord
100
AcDbLinetypeTableRecord
  2
BYLAYER
 70
0
  3

 72
65
 73
0
 40
0.0
  0
LTYPE
  5
16
100
AcDbSymbolTableRecord
100
AcDbLinetypeTableRecord
  2
CONTINUOUS
 70
64
  3
Solid line
 72
65
 73
0
 40
0.0
  0
LTYPE
  5
1F5
100
AcDbSymbolTableRecord
100
AcDbLinetypeTableRecord
  2
CENTER
 70
64
  3
____ _ ____ _ ____ _ ____ _ ____ _ ____ _ ____
 72
65
 73
4
 40
0.6
 49
0.375
 74
0
 49
-0.075
 74
0
 49
0.075
 74
0
 49
-0.075
 74
0
  0
LTYPE
  5
1F6
100
AcDbSymbolTableRecord
100
AcDbLinetypeTableRecord
  2
HIDDEN
 70
64
  3
- - - - - - - - - - - - - - - - - - - -
 72
65
 73
2
 40
0.2
 49
0.1
 74
0
 49
-0.1
 74
0
  0
LTYPE
  5
1F7
100
AcDbSymbolTableRecord
100
AcDbLinetypeTableRecord
  2
PHANTOM
 70
64
  3
_____ _ _ _____ _ _ _____ _ _ _____
 72
65
 73
6
 40
0.8
 49
0.45
 74
0
 49
-0.05
 74
0
 49
0.1
 74
0
 49
-0.05
 74
0
 49
0.1
 74
0
 49
-0.05
 74
0
  0
LTYPE
  5
1F8
100
AcDbSymbolTableRecord
100
AcDbLinetypeTableRecord
  2
DOT
 70
64
  3
. . . . . . . . . . . . . . . . . . . .
 72
65
 73
2
 40
0.2
 49
0.1
 74
0
 49
-0.1
 74
0
  0
LTYPE
  5
1F9
100
AcDbSymbolTableRecord
100
AcDbLinetypeTableRecord
  2
DASHED
 70
64
  3
- - - - - - - - - - - - - - - - - - - -
 72
65
 73
2
 40
0.2
 49
0.1
 74
0
 49
-0.1
 74
0
  0
ENDTAB
  0
TABLE
  2
LAYER
  5
2
100
AcDbSymbolTable
 70
36
  0
LAYER
  5
10
100
AcDbSymbolTableRecord
100
AcDbLayerTableRecord
  2
0
 70
0
 62
7
  6
CONTINUOUS
370
-3
390
F
  0
LAYER
  5
1FA
100
AcDbSymbolTableRecord
100
AcDbLayerTableRecord
  2
DEFAULT_1
 70
0
 62
7
  6
CENTER
370
-3
390
F
  0
LAYER
  5
1FB
100
AcDbSymbolTableRecord
100
AcDbLayerTableRecord
  2
DEFAULT_2
 70
0
 62
7
  6
HIDDEN
370
-3
390
F
  0
LAYER
  5
1FC
100
AcDbSymbolTableRecord
100
AcDbLayerTableRecord
  2
DEFAULT_3
 70
0
 62
7
  6
PHANTOM
370
-3
390
F
  0
LAYER
  5
1FD
100
AcDbSymbolTableRecord
100
AcDbLayerTableRecord
  2
ASSI
 70
0
 62
7
  6
CONTINUOUS
370
-3
390
F
  0
LAYER
  5
1FE
100
AcDbSymbolTableRecord
100
AcDbLayerTableRecord
  2
COLOR3
 70
0
 62
7
  6
CONTINUOUS
370
-3
390
F
  0
LAYER
  5
1FF
100
AcDbSymbolTableRecord
100
AcDbLayerTableRecord
  2
COORDINATE
 70
0
 62
7
  6
CONTINUOUS
370
-3
390
F
  0
LAYER
  5
200
100
AcDbSymbolTableRecord
100
AcDbLayerTableRecord
  2
COPY_PUBLISH
 70
0
 62
7
  6
CONTINUOUS
370
-3
390
F
  0
LAYER
  5
201
100
AcDbSymbolTableRecord
100
AcDbLayerTableRecord
  2
COSMETIC
 70
0
 62
7
  6
CONTINUOUS
370
-3
390
F
  0
LAYER
  5
202
100
AcDbSymbolTableRecord
100
AcDbLayerTableRecord
  2
COSMETICI
 70
0
 62
7
  6
CONTINUOUS
370
-3
390
F
  0
LAYER
  5
203
100
AcDbSymbolTableRecord
100
AcDbLayerTableRecord
  2
CURVE
 70
0
 62
7
  6
CONTINUOUS
370
-3
390
F
  0
LAYER
  5
204
100
AcDbSymbolTableRecord
100
AcDbLayerTableRecord
  2
DRAFT
 70
0
 62
7
  6
CONTINUOUS
370
-3
390
F
  0
LAYER
  5
205
100
AcDbSymbolTableRecord
100
AcDbLayerTableRecord
  2
IMPORT_IGES
 70
0
 62
7
  6
CONTINUOUS
370
-3
390
F
  0
LAYER
  5
206
100
AcDbSymbolTableRecord
100
AcDbLayerTableRecord
  2
INTFCLR_1
 70
0
 62
7
  6
CONTINUOUS
370
-3
390
F
  0
LAYER
  5
207
100
AcDbSymbolTableRecord
100
AcDbLayerTableRecord
  2
INTF_10
 70
0
 62
7
  6
CONTINUOUS
370
-3
390
F
  0
LAYER
  5
208
100
AcDbSymbolTableRecord
100
AcDbLayerTableRecord
  2
INTF_13
 70
0
 62
7
  6
CONTINUOUS
370
-3
390
F
  0
LAYER
  5
209
100
AcDbSymbolTableRecord
100
AcDbLayerTableRecord
  2
INTF_15
 70
0
 62
7
  6
CONTINUOUS
370
-3
390
F
  0
LAYER
  5
20A
100
AcDbSymbolTableRecord
100
AcDbLayerTableRecord
  2
INTF_16
 70
0
 62
7
  6
CONTINUOUS
370
-3
390
F
  0
LAYER
  5
20B
100
AcDbSymbolTableRecord
100
AcDbLayerTableRecord
  2
INTF_18
 70
0
 62
7
  6
CONTINUOUS
370
-3
390
F
  0
LAYER
  5
20C
100
AcDbSymbolTableRecord
100
AcDbLayerTableRecord
  2
INTF_20
 70
0
 62
7
  6
CONTINUOUS
370
-3
390
F
  0
LAYER
  5
20D
100
AcDbSymbolTableRecord
100
AcDbLayerTableRecord
  2
INTF_3
 70
0
 62
7
  6
CONTINUOUS
370
-3
390
F
  0
LAYER
  5
20E
100
AcDbSymbolTableRecord
100
AcDbLayerTableRecord
  2
INTF_5
 70
0
 62
7
  6
CONTINUOUS
370
-3
390
F
  0
LAYER
  5
20F
100
AcDbSymbolTableRecord
100
AcDbLayerTableRecord
  2
INTF_8
 70
0
 62
7
  6
CONTINUOUS
370
-3
390
F
  0
LAYER
  5
210
100
AcDbSymbolTableRecord
100
AcDbLayerTableRecord
  2
LIVELLO_1
 70
0
 62
7
  6
CONTINUOUS
370
-3
390
F
  0
LAYER
  5
211
100
AcDbSymbolTableRecord
100
AcDbLayerTableRecord
  2
NOTE
 70
0
 62
7
  6
CONTINUOUS
370
-3
390
F
  0
LAYER
  5
212
100
AcDbSymbolTableRecord
100
AcDbLayerTableRecord
  2
PIANI
 70
0
 62
7
  6
CONTINUOUS
370
-3
390
F
  0
LAYER
  5
213
100
AcDbSymbolTableRecord
100
AcDbLayerTableRecord
  2
PUNTI
 70
0
 62
7
  6
CONTINUOUS
370
-3
390
F
  0
LAYER
  5
214
100
AcDbSymbolTableRecord
100
AcDbLayerTableRecord
  2
RACCORDO
 70
0
 62
7
  6
CONTINUOUS
370
-3
390
F
  0
LAYER
  5
215
100
AcDbSymbolTableRecord
100
AcDbLayerTableRecord
  2
SIMBOLI
 70
0
 62
7
  6
CONTINUOUS
370
-3
390
F
  0
LAYER
  5
216
100
AcDbSymbolTableRecord
100
AcDbLayerTableRecord
  2
SMUSSO
 70
0
 62
7
  6
CONTINUOUS
370
-3
390
F
  0
LAYER
  5
217
100
AcDbSymbolTableRecord
100
AcDbLayerTableRecord
  2
SNAPLINE
 70
0
 62
7
  6
CONTINUOUS
370
-3
390
F
  0
LAYER
  5
218
100
AcDbSymbolTableRecord
100
AcDbLayerTableRecord
  2
SOLIDO
 70
0
 62
7
  6
CONTINUOUS
370
-3
390
F
  0
LAYER
  5
219
100
AcDbSymbolTableRecord
100
AcDbLayerTableRecord
  2
SUPERFICI
 70
0
 62
7
  6
CONTINUOUS
370
-3
390
F
  0
LAYER
  5
21A
100
AcDbSymbolTableRecord
100
AcDbLayerTableRecord
  2
SUPERFICI_SKEL
 70
0
 62
7
  6
CONTINUOUS
370
-3
390
F
  0
LAYER
  5
21B
100
AcDbSymbolTableRecord
100
AcDbLayerTableRecord
  2
TRASH
 70
0
 62
7
  6
CONTINUOUS
370
-3
390
F
  0
LAYER
  5
21C
100
AcDbSymbolTableRecord
100
AcDbLayerTableRecord
  2
WHITE
 70
0
 62
7
  6
CONTINUOUS
370
-3
390
F
  0
LAYER
  5
21D
100
AcDbSymbolTableRecord
100
AcDbLayerTableRecord
  2
___SHELL
 70
0
 62
7
  6
CONTINUOUS
370
-3
390
F
  0
ENDTAB
  0
TABLE
  2
STYLE
  5
3
100
AcDbSymbolTable
 70
1
  0
STYLE
  5
11
100
AcDbSymbolTableRecord
100
AcDbTextStyleTableRecord
  2
STANDARD
 70
0
 40
0.0
 41
0.8
 50
0.0
 71
0
 42
0.2
  3
txt
  4

  0
STYLE
  5
21E
100
AcDbSymbolTableRecord
100
AcDbTextStyleTableRecord
  2
TEXTSTYLE_1
 70
0
 40
0.0
 41
0.8
 50
0.0
 71
0
 42
0.2
  3
gdt
  4

  0
ENDTAB
  0
TABLE
  2
VIEW
  5
6
100
AcDbSymbolTable
 70
0
  0
ENDTAB
  0
TABLE
  2
UCS
  5
7
100
AcDbSymbolTable
 70
0
  0
ENDTAB
  0
TABLE
  2
APPID
  5
9
100
AcDbSymbolTable
 70
1
  0
APPID
  5
21F
100
AcDbSymbolTableRecord
100
AcDbRegAppTableRecord
  2
ACAD
 70
0
  0
ENDTAB
  0
TABLE
  2
BLOCK_RECORD
  5
1
100
AcDbSymbolTable
 70
0
  0
BLOCK_RECORD
  5
220
100
AcDbSymbolTableRecord
100
AcDbBlockTableRecord
  2
*Model_Space
  0
BLOCK_RECORD
  5
221
100
AcDbSymbolTableRecord
100
AcDbBlockTableRecord
  2
*Paper_Space
  0
BLOCK_RECORD
  5
222
100
AcDbSymbolTableRecord
100
AcDbBlockTableRecord
  2
_FILLED
  0
BLOCK_RECORD
  5
223
100
AcDbSymbolTableRecord
100
AcDbBlockTableRecord
  2
*D0
  0
BLOCK_RECORD
  5
224
100
AcDbSymbolTableRecord
100
AcDbBlockTableRecord
  2
*D1
  0
BLOCK_RECORD
  5
225
100
AcDbSymbolTableRecord
100
AcDbBlockTableRecord
  2
*D2
  0
ENDTAB
  0
TABLE
  2
DIMSTYLE
  5
A
100
AcDbSymbolTable
 70
1
100
AcDbDimStyleTable
 71
0
  0
DIMSTYLE
105
226
100
AcDbSymbolTableRecord
100
AcDbDimStyleTableRecord
  2
STANDARD
 70
0
  3

  4

 40
1.0
 41
3.0
 42
0.5
 43
0.38
 44
1.5
 45
0.0
 46
0.0
 47
0.01
 48
0.01
140
3.0
141
0.09
142
0.0
143
25.4
144
1.0
145
0.0
146
1.0
147
0.625
 71
1.0
 72
0.0
 73
0
 74
0
 75
0
 76
0
 77
1
 78
8
170
0
171
1
172
0
173
0
174
0
175
0
176
0
177
0
178
0
270
2
271
2
272
2
273
2
274
2
275
0
280
0
281
0
282
0
283
1
284
8
285
0
286
0
287
3
288
0
340
11
278
44
341
222
342
222
343
222
344
222
  0
DIMSTYLE
105
227
100
AcDbSymbolTableRecord
100
AcDbDimStyleTableRecord
  2
DIMSTYLE_1
 70
0
  3

  4

 40
1.0
 41
3.0
 42
0.5
 43
0.38
 44
1.5
 45
0.0
 46
0.0
 47
0.0
 48
0.0
140
3.0
141
0.09
142
0.0
143
25.4
144
1.0
145
0.0
146
1.0
147
0.75
 71
0.0
 72
0.0
 73
0
 74
0
 75
0
 76
0
 77
1
 78
8
170
0
171
1
172
0
173
0
174
0
175
0
176
0
177
0
178
0
270
2
271
2
272
2
273
2
274
2
275
0
280
0
281
0
282
0
283
1
284
8
285
0
286
0
287
3
288
0
340
11
278
44
341
222
342
222
343
222
344
222
  0
DIMSTYLE
105
228
100
AcDbSymbolTableRecord
100
AcDbDimStyleTableRecord
  2
DIMSTYLE_2
 70
0
  3

  4

 40
1.0
 41
3.0
 42
0.5
 43
0.38
 44
1.5
 45
0.0
 46
0.0
 47
0.0
 48
0.0
140
3.0
141
0.09
142
0.0
143
25.4
144
1.0
145
0.0
146
1.0
147
0.75
 71
0.0
 72
0.0
 73
0
 74
0
 75
0
 76
0
 77
1
 78
8
170
0
171
1
172
0
173
0
174
0
175
0
176
0
177
0
178
0
270
2
271
1
272
1
273
2
274
2
275
0
280
0
281
0
282
0
283
1
284
8
285
0
286
0
287
3
288
0
340
11
278
44
341
222
342
222
343
222
344
222
  0
ENDTAB
  0
ENDSEC
  0
SECTION
  2
BLOCKS
  0
BLOCK
  5
20
100
AcDbEntity
  8
0
100
AcDbBlockBegin
  2
*Model_Space
 70
0
 10
0.0
 20
0.0
 30
0.0
  3
*Model_Space
  1

  0
ENDBLK
  5
21
100
AcDbEntity
  8
0
100
AcDbBlockEnd
  0
BLOCK
  5
1C
100
AcDbEntity
  8
0
100
AcDbBlockBegin
  2
*Paper_Space
 70
0
 10
0.0
 20
0.0
 30
0.0
  3
*Paper_Space
  1

  0
ENDBLK
  5
1D
100
AcDbEntity
  8
0
100
AcDbBlockEnd
  0
BLOCK
  5
229
100
AcDbEntity
  8
0
100
AcDbBlockBegin
  2
_FILLED
 70
64
 10
0.0
 20
0.0
  3
_FILLED
  1

  0
SOLID
  5
22A
100
AcDbEntity
  8
0
  6
BYBLOCK
 62
0
100
AcDbTrace
 10
0.0
 20
0.0
 11
-1.0
 21
0.3166666667
 12
-1.0
 22
-0.3166666667
 13
-1.0
 23
-0.3166666667
  0
ENDBLK
  5
22B
100
AcDbEntity
  8
0
  6
BYBLOCK
 62
0
100
AcDbBlockEnd
  0
BLOCK
  5
22C
100
AcDbEntity
  8
0
100
AcDbBlockBegin
 62
7
  6
CONTINUOUS
  2
*D0
 70
65
 10
0.0
 20
0.0
  3
*D0
  1

  0
MTEXT
  5
22D
100
AcDbEntity
  8
0
100
AcDbMText
 62
7
  6
CONTINUOUS
  7
STANDARD
 71
2
 72
1
 10
-0.3876831359
 20
34.1630922693
 30
0.0
 11
1.0
 21
0.0
 31
0.0
 44
0.9
  1
44,55
 40
3.0
 41
16.0714285714
  0
LINE
  5
22E
100
AcDbEntity
  8
0
100
AcDbLine
 62
7
  6
CONTINUOUS
 10
-22.6630532594
 20
13.6130922693
 11
-22.6630532594
 21
31.9130922693
  0
LINE
  5
22F
100
AcDbEntity
  8
0
100
AcDbLine
 62
7
  6
CONTINUOUS
 10
21.8876869876
 20
13.6130922693
 11
21.8876869876
 21
31.9130922693
  0
LINE
  5
230
100
AcDbEntity
  8
0
100
AcDbLine
 62
7
  6
CONTINUOUS
 10
-22.6630532594
 20
30.4130922693
 11
-0.3876831359
 21
30.4130922693
  0
LINE
  5
231
100
AcDbEntity
  8
0
100
AcDbLine
 62
7
  6
CONTINUOUS
 10
21.8876869876
 20
30.4130922693
 11
-0.3876831359
 21
30.4130922693
  0
INSERT
  5
232
100
AcDbEntity
  8
0
100
AcDbBlockReference
 62
7
  6
CONTINUOUS
  2
_FILLED
 10
-22.6630532594
 20
30.4130922693
 41
3.0
 42
3.0
 43
3.0
 50
180.0
  0
INSERT
  5
233
100
AcDbEntity
  8
0
100
AcDbBlockReference
 62
7
  6
CONTINUOUS
  2
_FILLED
 10
21.8876869876
 20
30.4130922693
 41
3.0
 42
3.0
 43
3.0
  0
ENDBLK
  5
234
100
AcDbEntity
  8
0
  6
BYBLOCK
 62
0
100
AcDbBlockEnd
  0
BLOCK
  5
235
100
AcDbEntity
  8
0
100
AcDbBlockBegin
 62
7
  6
CONTINUOUS
  2
*D1
 70
65
 10
0.0
 20
0.0
  3
*D1
  1

  0
MTEXT
  5
236
100
AcDbEntity
  8
0
100
AcDbMText
 62
7
  6
CONTINUOUS
  7
STANDARD
 71
2
 72
1
 10
26.2123168641
 20
0.0130922693
 30
0.0
 11
0.0
 21
1.0
 31
0.0
 44
0.9
  1
44,4
 40
3.0
 41
13.1785714286
  0
LINE
  5
237
100
AcDbEntity
  8
0
100
AcDbLine
 62
7
  6
CONTINUOUS
 10
21.8673326579
 20
22.2219651278
 11
31.4623168641
 21
22.2219651278
  0
LINE
  5
238
100
AcDbEntity
  8
0
100
AcDbLine
 62
7
  6
CONTINUOUS
 10
21.8673326579
 20
-22.1957805891
 11
31.4623168641
 21
-22.1957805891
  0
LINE
  5
239
100
AcDbEntity
  8
0
100
AcDbLine
 62
7
  6
CONTINUOUS
 10
29.9623168641
 20
22.2219651278
 11
29.9623168641
 21
0.0130922693
  0
LINE
  5
23A
100
AcDbEntity
  8
0
100
AcDbLine
 62
7
  6
CONTINUOUS
 10
29.9623168641
 20
-22.1957805891
 11
29.9623168641
 21
0.0130922693
  0
INSERT
  5
23B
100
AcDbEntity
  8
0
100
AcDbBlockReference
 62
7
  6
CONTINUOUS
  2
_FILLED
 10
29.9623168641
 20
22.2219651278
 41
3.0
 42
3.0
 43
3.0
 50
90.0
  0
INSERT
  5
23C
100
AcDbEntity
  8
0
100
AcDbBlockReference
 62
7
  6
CONTINUOUS
  2
_FILLED
 10
29.9623168641
 20
-22.1957805891
 41
3.0
 42
3.0
 43
3.0
 50
270.0
  0
ENDBLK
  5
23D
100
AcDbEntity
  8
0
  6
BYBLOCK
 62
0
100
AcDbBlockEnd
  0
BLOCK
  5
23E
100
AcDbEntity
  8
0
100
AcDbBlockBegin
 62
7
  6
CONTINUOUS
  2
*D2
 70
65
 10
0.0
 20
0.0
  3
*D2
  1

  0
MTEXT
  5
23F
100
AcDbEntity
  8
0
100
AcDbMText
 62
7
  6
CONTINUOUS
  7
STANDARD
 71
1
 72
1
 10
-36.382354184
 20
34.1630922693
 30
0.0
 11
1.0
 21
0.0
 31
0.0
 44
0.9
  1
6,35
 40
3.0
 41
12.5357142857
  0
LINE
  5
240
100
AcDbEntity
  8
0
100
AcDbLine
 62
7
  6
CONTINUOUS
 10
-41.632383884
 20
13.6130922693
 11
-41.632383884
 21
31.9130922693
  0
LINE
  5
241
100
AcDbEntity
  8
0
100
AcDbLine
 62
7
  6
CONTINUOUS
 10
-47.9815131525
 20
1.2650962967
 11
-47.9815131525
 21
31.9130922693
  0
LINE
  5
242
100
AcDbEntity
  8
0
100
AcDbLine
 62
7
  6
CONTINUOUS
 10
-41.632383884
 20
30.4130922693
 11
-28.0252113269
 21
30.4130922693
  0
LINE
  5
243
100
AcDbEntity
  8
0
100
AcDbLine
 62
7
  6
CONTINUOUS
 10
-28.0252113269
 20
30.4130922693
 11
-44.8069485183
 21
30.4130922693
  0
LINE
  5
244
100
AcDbEntity
  8
0
100
AcDbLine
 62
7
  6
CONTINUOUS
 10
-47.9815131525
 20
30.4130922693
 11
-51.9815131525
 21
30.4130922693
  0
LINE
  5
245
100
AcDbEntity
  8
0
100
AcDbLine
 62
7
  6
CONTINUOUS
 10
-51.9815131525
 20
30.4130922693
 11
-44.8069485183
 21
30.4130922693
  0
INSERT
  5
246
100
AcDbEntity
  8
0
100
AcDbBlockReference
 62
7
  6
CONTINUOUS
  2
_FILLED
 10
-41.632383884
 20
30.4130922693
 41
3.0
 42
3.0
 43
3.0
 50
180.0
  0
INSERT
  5
247
100
AcDbEntity
  8
0
100
AcDbBlockReference
 62
7
  6
CONTINUOUS
  2
_FILLED
 10
-47.9815131525
 20
30.4130922693
 41
3.0
 42
3.0
 43
3.0
  0
ENDBLK
  5
248
100
AcDbEntity
  8
0
  6
BYBLOCK
 62
0
100
AcDbBlockEnd
  0
ENDSEC
  0
SECTION
  2
ENTITIES
  0
DIMENSION
  5
249
100
AcDbEntity
  8
0
100
AcDbDimension
 62
7
  6
CONTINUOUS
  2
*D0
 10
21.8876869876
 20
30.4130922693
 11
-0.8162544694
 21
30.4130922693
 70
160
 71
2
 42
44.5507402471
  3
DIMSTYLE_1
100
AcDbAlignedDimension
 13
-22.6630532594
 23
13.1130922693
 14
21.8876869876
 24
13.1130922693
100
AcDbRotatedDimension
  0
DIMENSION
  5
24A
100
AcDbEntity
  8
0
100
AcDbDimension
 62
7
  6
CONTINUOUS
  2
*D1
 10
29.9623168641
 20
-22.1957805891
 11
29.9623168641
 21
-0.4154786645
 70
160
 71
2
 42
44.4177457169
  3
DIMSTYLE_2
100
AcDbAlignedDimension
 13
21.3673326579
 23
22.2219651278
 14
21.3673326579
 24
-22.1957805891
 50
270.0
100
AcDbRotatedDimension
  0
DIMENSION
  5
24B
100
AcDbEntity
  8
0
100
AcDbDimension
 62
7
  6
CONTINUOUS
  2
*D2
 10
-47.9815131525
 20
30.4130922693
 11
-32.632354969
 21
30.4130922693
 70
160
 71
1
 42
6.3491292685
  3
DIMSTYLE_1
100
AcDbAlignedDimension
 13
-41.632383884
 23
13.1130922693
 14
-47.9815131525
 24
0.7650962967
 50
180.0
100
AcDbRotatedDimension
  0
LWPOLYLINE
  5
24C
100
AcDbEntity
  8
ASSI
100
AcDbPolyline
 62
253
  6
CONTINUOUS
 90
7
 70
0
 10
-22.0505205334
 20
22.0374818345
 10
-22.0515721592
 20
22.0300958813
 10
-22.0526656062
 20
22.0168201755
 10
-22.053772996
 20
21.9977233449
 10
-22.05484569
 20
21.9729036246
 10
-22.0558777517
 20
21.942486061
 10
-22.057907043
 20
21.8654810681
  0
LINE
  5
24D
100
AcDbEntity
  8
ASSI
100
AcDbLine
 62
7
  6
CONTINUOUS
 10
14.2563952339
 20
-22.1957805891
 11
14.6045818372
 21
-22.1641746687
  0
LWPOLYLINE
  5
24E
100
AcDbEntity
  8
ASSI
100
AcDbPolyline
 62
253
  6
CONTINUOUS
 90
16
 70
0
 10
21.2751542616
 20
-22.0112972958
 10
21.327355888
 20
-22.0084952506
 10
21.3789864995
 20
-22.0002626612
 10
21.4294813963
 20
-21.9866895909
 10
21.478288318
 20
-21.9679245065
 10
21.5248734396
 20
-21.9441726705
 10
21.5687272163
 20
-21.9156939103
 10
21.6093700206
 20
-21.8827997417
 10
21.6463573653
 20
-21.8458499573
 10
21.6792847289
 20
-21.8052487222
 10
21.7077920085
 20
-21.7614401308
 10
21.7315674607
 20
-21.7149033339
 10
21.7503510951
 20
-21.6661473089
 10
21.7639375116
 20
-21.6157053059
 10
21.7721781513
 20
-21.5641290167
 10
21.774982924
 20
-21.5119825285
  0
LWPOLYLINE
  5
24F
100
AcDbEntity
  8
ASSI
100
AcDbPolyline
 62
253
  6
CONTINUOUS
 90
16
 70
0
 10
-22.050520536
 20
-22.0112973012
 10
-22.1027215061
 20
-22.008495326
 10
-22.1543515476
 20
-22.0002629289
 10
-22.2048459765
 20
-21.9866901486
 10
-22.253652529
 20
-21.9679254325
 10
-22.3002374016
 20
-21.9441740124
 10
-22.3440910901
 20
-21.9156956606
 10
-22.384733961
 20
-21.8828018484
 10
-22.4217214983
 20
-21.8458523395
 10
-22.4546491648
 20
-21.8052512552
 10
-22.4831568264
 20
-21.7614426546
 10
-22.5069326914
 20
-21.7149056778
 10
-22.5257167202
 20
-21.6661493055
 10
-22.5393034696
 20
-21.6157067921
 10
-22.5475443395
 20
-21.5641298337
 10
-22.5503491985
 20
-21.5119825338
  0
LINE
  5
250
100
AcDbEntity
  8
ASSI
100
AcDbLine
 62
7
  6
CONTINUOUS
 10
-15.0317615057
 20
-22.1957805891
 11
-15.379948109
 21
-22.1641746687
  0
LWPOLYLINE
  5
251
100
AcDbEntity
  8
ASSI
100
AcDbPolyline
 62
253
  6
CONTINUOUS
 90
8
 70
0
 10
-22.0499554192
 20
0.3905916238
 10
-22.0463174297
 20
0.3574924627
 10
-22.0423877007
 20
0.3288495246
 10
-22.0387391753
 20
0.304926709
 10
-22.0344679995
 20
0.2858870078
 10
-22.0295764854
 20
0.2719878433
 10
-22.02503983
 20
0.2634416232
 10
-22.0213456517
 20
0.2602995024
  0
LWPOLYLINE
  5
252
100
AcDbEntity
  8
ASSI
100
AcDbPolyline
 62
253
  6
CONTINUOUS
 90
16
 70
0
 10
-22.5211743142
 20
0.760280464
 10
-22.5184887818
 20
0.7086345724
 10
-22.5104486232
 20
0.6573706133
 10
-22.497087025
 20
0.6070491192
 10
-22.4784731137
 20
0.5581768771
 10
-22.4547714953
 20
0.5113644218
 10
-22.4262959063
 20
0.467292268
 10
-22.3934010734
 20
0.426492207
 10
-22.3564172438
 20
0.3893589619
 10
-22.315739996
 20
0.3562931431
 10
-22.2718058889
 20
0.3276572116
 10
-22.225102665
 20
0.3037761069
 10
-22.1761559441
 20
0.2849211299
 10
-22.1255092346
 20
0.2713008942
 10
-22.0737157533
 20
0.2630634464
 10
-22.0213456518
 20
0.2602995024
  0
LWPOLYLINE
  5
253
100
AcDbEntity
  8
ASSI
100
AcDbPolyline
 62
253
  6
CONTINUOUS
 90
4
 70
0
 10
-22.0602580953
 20
0.5588524735
 10
-22.0584578514
 20
0.5121407671
 10
-22.055744504
 20
0.4681698682
 10
-22.0499554192
 20
0.3905916238
  0
LWPOLYLINE
  5
254
100
AcDbEntity
  8
ASSI
100
AcDbPolyline
 62
253
  6
CONTINUOUS
 90
6
 70
0
 10
-22.0558777412
 20
-21.9163015266
 10
-22.0548456818
 20
-21.9467190897
 10
-22.0537729902
 20
-21.9715388101
 10
-22.0526656031
 20
-21.9906356413
 10
-22.0515721589
 20
-22.0039113477
 10
-22.050520536
 20
-22.0112973012
  0
LINE
  5
255
100
AcDbEntity
  8
ASSI
100
AcDbLine
 62
253
  6
CONTINUOUS
 10
-22.5396670827
 20
21.38110928
 11
-22.537781395
 21
21.3135084721
  0
LINE
  5
256
100
AcDbEntity
  8
ASSI
100
AcDbLine
 62
253
  6
CONTINUOUS
 10
-22.0579070282
 20
-21.839296535
 11
-22.0558777412
 21
-21.9163015266
  0
LINE
  5
257
100
AcDbEntity
  8
ASSI
100
AcDbLine
 62
253
  6
CONTINUOUS
 10
-22.537781395
 20
21.3135084721
 11
-22.5361675733
 21
21.2367615214
  0
LINE
  5
258
100
AcDbEntity
  8
ASSI
100
AcDbLine
 62
253
  6
CONTINUOUS
 10
-22.0597807124
 20
-21.7420511908
 11
-22.0579070282
 21
-21.839296535
  0
LINE
  5
259
100
AcDbEntity
  8
ASSI
100
AcDbLine
 62
253
  6
CONTINUOUS
 10
-22.5361675733
 20
21.2367615214
 11
-22.5348492586
 21
21.1520093035
  0
LINE
  5
25A
100
AcDbEntity
  8
ASSI
100
AcDbLine
 62
253
  6
CONTINUOUS
 10
-22.062279997
 20
-21.5625793453
 11
-22.0597807124
 21
-21.7420511908
  0
LINE
  5
25B
100
AcDbEntity
  8
ASSI
100
AcDbLine
 62
253
  6
CONTINUOUS
 10
-22.5348492586
 20
21.1520093035
 11
-22.5334907788
 21
21.0140008229
  0
LINE
  5
25C
100
AcDbEntity
  8
ASSI
100
AcDbLine
 62
253
  6
CONTINUOUS
 10
-22.0648532451
 20
-21.2733913864
 11
-22.062279997
 21
-21.5625793453
  0
LWPOLYLINE
  5
25D
100
AcDbEntity
  8
ASSI
100
AcDbPolyline
 62
253
  6
CONTINUOUS
 90
3
 70
0
 10
-22.0639974207
 20
-0.7348628301
 10
-22.0642224063
 20
-0.6818742217
 10
-22.0633700694
 20
-0.630623697
  0
LINE
  5
25E
100
AcDbEntity
  8
ASSI
100
AcDbLine
 62
7
  6
CONTINUOUS
 10
-22.6433253513
 20
-21.6980624348
 11
-22.6630532594
 21
-13.0869077307
  0
LINE
  5
25F
100
AcDbEntity
  8
ASSI
100
AcDbLine
 62
253
  6
CONTINUOUS
 10
-22.0665807005
 20
-20.8641725165
 11
-22.0648532451
 21
-21.2733913864
  0
LINE
  5
260
100
AcDbEntity
  8
ASSI
100
AcDbLine
 62
253
  6
CONTINUOUS
 10
-22.5334907788
 20
21.0140008229
 11
-22.5329226829
 21
20.8689160984
  0
LINE
  5
261
100
AcDbEntity
  8
ASSI
100
AcDbLine
 62
253
  6
CONTINUOUS
 10
-22.5329226829
 20
20.8689160984
 11
-22.5234274597
 21
9.1809270458
  0
LINE
  5
262
100
AcDbEntity
  8
ASSI
100
AcDbLine
 62
7
  6
CONTINUOUS
 10
-22.6630532594
 20
13.1130922693
 11
-22.6630532594
 21
0.7129970871
  0
LINE
  5
263
100
AcDbEntity
  8
ASSI
100
AcDbLine
 62
7
  6
CONTINUOUS
 10
-22.6630532594
 20
-13.0869077307
 11
-22.6630532594
 21
-0.6868125485
  0
LINE
  5
264
100
AcDbEntity
  8
ASSI
100
AcDbLine
 62
253
  6
CONTINUOUS
 10
-22.5234274597
 20
9.1809270458
 11
-22.5211743142
 21
0.760280464
  0
LINE
  5
265
100
AcDbEntity
  8
ASSI
100
AcDbLine
 62
253
  6
CONTINUOUS
 10
-22.0639973807
 20
-0.7348628245
 11
-22.0665807337
 21
-20.864172522
  0
LINE
  5
266
100
AcDbEntity
  8
ASSI
100
AcDbLine
 62
253
  6
CONTINUOUS
 10
-22.5211743143
 20
-0.7340959253
 11
-22.5234213066
 21
-9.1460507613
  0
LINE
  5
267
100
AcDbEntity
  8
ASSI
100
AcDbLine
 62
253
  6
CONTINUOUS
 10
-22.5234213066
 20
-9.1460507613
 11
-22.5280596183
 21
-15.9152736725
  0
LINE
  5
268
100
AcDbEntity
  8
ASSI
100
AcDbLine
 62
7
  6
CONTINUOUS
 10
-22.6433253513
 20
21.7242469735
 11
-22.6630532594
 21
13.1130922693
  0
LINE
  5
269
100
AcDbEntity
  8
ASSI
100
AcDbLine
 62
253
  6
CONTINUOUS
 10
-22.0661073174
 20
21.0576994215
 11
-22.0639973807
 21
0.7610473519
  0
LINE
  5
26A
100
AcDbEntity
  8
ASSI
100
AcDbLine
 62
253
  6
CONTINUOUS
 10
-22.5280596183
 20
-15.9152736725
 11
-22.5332135956
 21
-20.9402409654
  0
LWPOLYLINE
  5
26B
100
AcDbEntity
  8
ASSI
100
AcDbPolyline
 62
253
  6
CONTINUOUS
 90
4
 70
0
 10
-22.0639974207
 20
0.7610473461
 10
-22.0642222769
 20
0.7080607385
 10
-22.0633700213
 20
0.6568118907
 10
-22.0602580953
 20
0.5588524735
  0
LINE
  5
26C
100
AcDbEntity
  8
ASSI
100
AcDbLine
 62
253
  6
CONTINUOUS
 10
-22.0636821154
 20
21.4501667593
 11
-22.0661073174
 21
21.0576994215
  0
LINE
  5
26D
100
AcDbEntity
  8
ASSI
100
AcDbLine
 62
253
  6
CONTINUOUS
 10
-22.5332135956
 20
-20.9402409654
 11
-22.5343130394
 21
-21.0811058147
  0
LINE
  5
26E
100
AcDbEntity
  8
ASSI
100
AcDbLine
 62
253
  6
CONTINUOUS
 10
-22.0614921026
 20
21.6526938793
 11
-22.0636821154
 21
21.4501667593
  0
LINE
  5
26F
100
AcDbEntity
  8
ASSI
100
AcDbLine
 62
253
  6
CONTINUOUS
 10
-22.5343130394
 20
-21.0811058147
 11
-22.5354678273
 21
-21.1689672207
  0
LINE
  5
270
100
AcDbEntity
  8
ASSI
100
AcDbLine
 62
253
  6
CONTINUOUS
 10
-22.0597807309
 20
21.768235723
 11
-22.0614921026
 21
21.6526938793
  0
LINE
  5
271
100
AcDbEntity
  8
ASSI
100
AcDbLine
 62
253
  6
CONTINUOUS
 10
-22.5354678273
 20
-21.1689672207
 11
-22.5369383883
 21
-21.2500391214
  0
LINE
  5
272
100
AcDbEntity
  8
ASSI
100
AcDbLine
 62
253
  6
CONTINUOUS
 10
-22.057907043
 20
21.8654810681
 11
-22.0597807309
 21
21.768235723
  0
LWPOLYLINE
  5
273
100
AcDbEntity
  8
ASSI
100
AcDbPolyline
 62
253
  6
CONTINUOUS
 90
12
 70
0
 10
-22.5369383883
 20
-21.2500391214
 10
-22.5386954707
 20
-21.3224611221
 10
-22.5396670855
 20
-21.3549247475
 10
-22.5406970978
 20
-21.3846731681
 10
-22.5417846519
 20
-21.4117480318
 10
-22.5429136591
 20
-21.4357483613
 10
-22.544085306
 20
-21.4566294095
 10
-22.545298406
 20
-21.4744359234
 10
-22.5465333101
 20
-21.4889011665
 10
-22.5477834687
 20
-21.4999362265
 10
-22.5490554315
 20
-21.5076300156
 10
-22.5503491985
 20
-21.5119825338
  0
LWPOLYLINE
  5
274
100
AcDbEntity
  8
ASSI
100
AcDbPolyline
 62
253
  6
CONTINUOUS
 90
4
 70
0
 10
-22.0633700694
 20
-0.630623697
 10
-22.0602578452
 20
-0.5326619383
 10
-22.0584575622
 20
-0.485949572
 10
-22.0557440774
 20
-0.441978455
  0
LWPOLYLINE
  5
275
100
AcDbEntity
  8
ASSI
100
AcDbPolyline
 62
253
  6
CONTINUOUS
 90
16
 70
0
 10
-22.5211743143
 20
-0.7340959253
 10
-22.5184887768
 20
-0.6824499858
 10
-22.5104486056
 20
-0.6311859911
 10
-22.4970869907
 20
-0.5808644742
 10
-22.4784730628
 20
-0.5319922233
 10
-22.454771431
 20
-0.4851797712
 10
-22.4262958328
 20
-0.4411076276
 10
-22.3934009974
 20
-0.4003075834
 10
-22.3564171728
 20
-0.3631743591
 10
-22.3157399322
 20
-0.3301085579
 10
-22.2718058306
 20
-0.3014726391
 10
-22.2251026128
 20
-0.2775915449
 10
-22.1761559005
 20
-0.258736577
 10
-22.1255092034
 20
-0.2451163488
 10
-22.0737157368
 20
-0.236878906
 10
-22.0213456518
 20
-0.2341149638
  0
LWPOLYLINE
  5
276
100
AcDbEntity
  8
ASSI
100
AcDbPolyline
 62
253
  6
CONTINUOUS
 90
9
 70
0
 10
-22.0557440774
 20
-0.441978455
 10
-22.0499548441
 20
-0.3644011458
 10
-22.0463168455
 20
-0.3313029114
 10
-22.0423870944
 20
-0.3026610882
 10
-22.0387386314
 20
-0.2787394515
 10
-22.034467576
 20
-0.2597008186
 10
-22.0295762086
 20
-0.2458025095
 10
-22.0250397078
 20
-0.2372568654
 10
-22.0213456517
 20
-0.2341149638
  0
LINE
  5
277
100
AcDbEntity
  8
ASSI
100
AcDbLine
 62
7
  6
CONTINUOUS
 10
3.0563952339
 20
-22.1957805891
 11
3.4045818372
 21
-22.1641746687
  0
LINE
  5
278
100
AcDbEntity
  8
ASSI
100
AcDbLine
 62
7
  6
CONTINUOUS
 10
-8.2436047661
 20
-22.1957805891
 11
-7.8954181628
 21
-22.1641746687
  0
LWPOLYLINE
  5
279
100
AcDbEntity
  8
ASSI
100
AcDbPolyline
 62
253
  6
CONTINUOUS
 90
14
 70
0
 10
21.3882186345
 20
-20.8633655517
 10
21.4350560702
 20
-20.8626595119
 10
21.4801741407
 20
-20.8617602519
 10
21.5231353837
 20
-20.8606764908
 10
21.5635232495
 20
-20.8594187366
 10
21.6009461397
 20
-20.8579991846
 10
21.635041204
 20
-20.8564315985
 10
21.6654778587
 20
-20.8547311776
 10
21.6919609918
 20
-20.8529144091
 10
21.7142338242
 20
-20.8509989082
 10
21.7320804
 20
-20.8490032475
 10
21.7453276796
 20
-20.8469467769
 10
21.7538472183
 20
-20.8448494358
 10
21.757556411
 20
-20.8427315598
  0
LINE
  5
27A
100
AcDbEntity
  8
ASSI
100
AcDbLine
 62
253
  6
CONTINUOUS
 10
21.2912144672
 20
-20.8641725273
 11
21.3882186345
 21
-20.8633655517
  0
LINE
  5
27B
100
AcDbEntity
  8
ASSI
100
AcDbLine
 62
253
  6
CONTINUOUS
 10
-22.050520536
 20
-22.0112973012
 11
-18.7962711159
 21
-22.0015509131
  0
LINE
  5
27C
100
AcDbEntity
  8
ASSI
100
AcDbLine
 62
253
  6
CONTINUOUS
 10
-18.7962711159
 20
-22.0015509131
 11
-15.3966562425
 21
-21.9952283557
  0
LINE
  5
27D
100
AcDbEntity
  8
ASSI
100
AcDbLine
 62
253
  6
CONTINUOUS
 10
-15.3966562425
 20
-21.9952283557
 11
-11.6376445322
 21
-21.9928216587
  0
LINE
  5
27E
100
AcDbEntity
  8
ASSI
100
AcDbLine
 62
253
  6
CONTINUOUS
 10
-22.0665807337
 20
-20.864172522
 11
-12.9323866462
 21
-20.8572169477
  0
LINE
  5
27F
100
AcDbEntity
  8
ASSI
100
AcDbLine
 62
7
  6
CONTINUOUS
 10
-22.1426989297
 20
-22.1957805891
 11
-19.4436047661
 21
-22.1957805891
  0
LINE
  5
280
100
AcDbEntity
  8
ASSI
100
AcDbLine
 62
7
  6
CONTINUOUS
 10
-15.0317615057
 20
-22.1957805891
 11
-8.2436047661
 21
-22.1957805891
  0
LINE
  5
281
100
AcDbEntity
  8
ASSI
100
AcDbLine
 62
7
  6
CONTINUOUS
 10
-3.8317615057
 20
-22.1957805891
 11
3.0563952339
 21
-22.1957805891
  0
LINE
  5
282
100
AcDbEntity
  8
ASSI
100
AcDbLine
 62
7
  6
CONTINUOUS
 10
7.4682384943
 20
-22.1957805891
 11
14.2563952339
 21
-22.1957805891
  0
LINE
  5
283
100
AcDbEntity
  8
ASSI
100
AcDbLine
 62
7
  6
CONTINUOUS
 10
18.6682384943
 20
-22.1957805891
 11
21.3673326579
 21
-22.1957805891
  0
LINE
  5
284
100
AcDbEntity
  8
ASSI
100
AcDbLine
 62
7
  6
CONTINUOUS
 10
3.5777869179
 20
-22.1589338908
 11
6.9468468103
 21
-22.1589338908
  0
LINE
  5
285
100
AcDbEntity
  8
ASSI
100
AcDbLine
 62
7
  6
CONTINUOUS
 10
-4.3531531897
 20
-22.1589338908
 11
-7.7222130821
 21
-22.1589338908
  0
LINE
  5
286
100
AcDbEntity
  8
ASSI
100
AcDbLine
 62
7
  6
CONTINUOUS
 10
14.7777869179
 20
-22.1589338908
 11
18.1468468103
 21
-22.1589338908
  0
LINE
  5
287
100
AcDbEntity
  8
ASSI
100
AcDbLine
 62
7
  6
CONTINUOUS
 10
-15.5531531897
 20
-22.1589338908
 11
-18.9222130821
 21
-22.1589338908
  0
LINE
  5
288
100
AcDbEntity
  8
ASSI
100
AcDbLine
 62
253
  6
CONTINUOUS
 10
-11.6376445322
 20
-21.9928216587
 11
13.533474079
 21
-21.9940370188
  0
LINE
  5
289
100
AcDbEntity
  8
ASSI
100
AcDbLine
 62
253
  6
CONTINUOUS
 10
-12.9323866462
 20
-20.8572169477
 11
16.093907026
 21
-20.8588560261
  0
LINE
  5
28A
100
AcDbEntity
  8
ASSI
100
AcDbLine
 62
253
  6
CONTINUOUS
 10
16.093907026
 20
-20.8588560261
 11
21.2912144673
 21
-20.8641725177
  0
LINE
  5
28B
100
AcDbEntity
  8
ASSI
100
AcDbLine
 62
253
  6
CONTINUOUS
 10
13.533474079
 20
-21.9940370188
 11
16.9245848896
 21
-21.999074359
  0
LWPOLYLINE
  5
28C
100
AcDbEntity
  8
ASSI
100
AcDbPolyline
 62
253
  6
CONTINUOUS
 90
3
 70
0
 10
16.9245848896
 20
-21.999074359
 10
20.3772725402
 20
-22.0082662921
 10
21.2751542616
 20
-22.0112972958
  0
LWPOLYLINE
  5
28D
100
AcDbEntity
  8
ASSI
100
AcDbPolyline
 62
253
  6
CONTINUOUS
 90
15
 70
0
 10
-22.0665798438
 20
-20.8641719841
 10
-22.1635831017
 20
-20.8633650346
 10
-22.2104201432
 20
-20.8626590167
 10
-22.2555378771
 20
-20.8617597842
 10
-22.2984988532
 20
-20.8606760557
 10
-22.3388865325
 20
-20.8594183383
 10
-22.3763093263
 20
-20.8579988267
 10
-22.4104043924
 20
-20.856431284
 10
-22.4408411537
 20
-20.8547309088
 10
-22.4673245028
 20
-20.8529141875
 10
-22.489597664
 20
-20.8509987345
 10
-22.5074446821
 20
-20.8490031216
 10
-22.520692517
 20
-20.8469466978
 10
-22.529212721
 20
-20.8448494016
 10
-22.5329226842
 20
-20.8427315679
  0
LINE
  5
28E
100
AcDbEntity
  8
ASSI
100
AcDbLine
 62
7
  6
CONTINUOUS
 10
-3.8317615057
 20
-22.1957805891
 11
-4.179948109
 21
-22.1641746687
  0
LINE
  5
28F
100
AcDbEntity
  8
ASSI
100
AcDbLine
 62
7
  6
CONTINUOUS
 10
7.4682384943
 20
-22.1957805891
 11
7.120051891
 21
-22.1641746687
  0
LINE
  5
290
100
AcDbEntity
  8
ASSI
100
AcDbLine
 62
7
  6
CONTINUOUS
 10
-19.4436047661
 20
-22.1957805891
 11
-19.0954181628
 21
-22.1641746687
  0
LINE
  5
291
100
AcDbEntity
  8
ASSI
100
AcDbLine
 62
7
  6
CONTINUOUS
 10
18.6682384943
 20
-22.1957805891
 11
18.320051891
 21
-22.1641746687
  0
LWPOLYLINE
  5
292
100
AcDbEntity
  8
0
100
AcDbPolyline
 62
253
  6
CONTINUOUS
 90
13
 70
0
 10
-15.2042443347
 20
-12.0834995555
 10
-15.2075377271
 20
-12.0476366699
 10
-15.2105763912
 20
-12.0115597992
 10
-15.2133687764
 20
-11.9752687824
 10
-15.2159233321
 20
-11.938763459
 10
-15.2182485077
 20
-11.9020436682
 10
-15.220352983
 20
-11.865109906
 10
-15.2222463585
 20
-11.8279652958
 10
-15.2239384651
 20
-11.7906136175
 10
-15.2254391337
 20
-11.7530586512
 10
-15.2267581952
 20
-11.7153041771
 10
-15.2281678945
 20
-11.6678347097
 10
-15.2293360789
 20
-11.6200573483
  0
LINE
  5
293
100
AcDbEntity
  8
0
100
AcDbLine
 62
253
  6
CONTINUOUS
 10
-15.2293360789
 20
-11.6200573483
 11
-15.2310554451
 21
-11.5235706668
  0
LWPOLYLINE
  5
294
100
AcDbEntity
  8
0
100
AcDbPolyline
 62
253
  6
CONTINUOUS
 90
16
 70
0
 10
-15.2310554451
 20
-11.5235706668
 10
-15.2315970449
 20
-11.4717904529
 10
-15.2318435548
 20
-11.4203224253
 10
-15.2317853065
 20
-11.3691646734
 10
-15.2314126317
 20
-11.3183152868
 10
-15.230715862
 20
-11.2677723552
 10
-15.229685745
 20
-11.2175351652
 10
-15.2283146922
 20
-11.1676077916
 10
-15.2265955309
 20
-11.1179955061
 10
-15.2245210885
 20
-11.0687035807
 10
-15.2220841924
 20
-11.019737287
 10
-15.2192779296
 20
-10.971100855
 10
-15.2160964265
 20
-10.9227943462
 10
-15.212534069
 20
-10.8748167803
 10
-15.208585243
 20
-10.827167177
 10
-15.2042443347
 20
-10.7798445558
  0
LWPOLYLINE
  5
295
100
AcDbEntity
  8
0
100
AcDbPolyline
 62
253
  6
CONTINUOUS
 90
19
 70
0
 10
-14.5523784895
 20
12.2480021837
 10
-14.5591876377
 20
12.1726372418
 10
-14.5651164358
 20
12.0971067558
 10
-14.570188922
 20
12.021400794
 10
-14.5744291345
 20
11.9455094246
 10
-14.5778611114
 20
11.8694227157
 10
-14.5805088909
 20
11.7931307355
 10
-14.5823930418
 20
11.7166313561
 10
-14.583520255
 20
11.6399536649
 10
-14.5838937522
 20
11.5631345529
 10
-14.583516755
 20
11.4862109114
 10
-14.582392485
 20
11.4092196316
 10
-14.5805241638
 20
11.3321976046
 10
-14.5779081098
 20
11.2551741052
 10
-14.5745130288
 20
11.1781479427
 10
-14.5703007236
 20
11.1011103099
 10
-14.5652329969
 20
11.0240523995
 10
-14.5592716513
 20
10.9469654044
 10
-14.5523784895
 20
10.8698405174
  0
LWPOLYLINE
  5
296
100
AcDbEntity
  8
0
100
AcDbPolyline
 62
253
  6
CONTINUOUS
 90
54
 70
0
 10
-14.1632998785
 20
12.210819406
 10
-14.161205096
 20
12.2292784609
 10
-14.1585547903
 20
12.2474802865
 10
-14.1553536485
 20
12.2654713895
 10
-14.1516063579
 20
12.2832982766
 10
-14.1473169444
 20
12.3009964879
 10
-14.1424867897
 20
12.318557696
 10
-14.1371166142
 20
12.3359626067
 10
-14.1312071383
 20
12.353191926
 10
-14.1247603211
 20
12.3702269559
 10
-14.1177830754
 20
12.3870513833
 10
-14.1102835527
 20
12.403649491
 10
-14.1022699046
 20
12.4200055622
 10
-14.0937511266
 20
12.4361053516
 10
-14.0847395904
 20
12.4519405012
 10
-14.0752485118
 20
12.4675041247
 10
-14.0652911066
 20
12.4827893358
 10
-14.0548800539
 20
12.4977887772
 10
-14.0440258857
 20
12.5124932064
 10
-14.0327385973
 20
12.5268929101
 10
-14.0210281838
 20
12.5409781748
 10
-14.0089058955
 20
12.5547407862
 10
-13.9963880019
 20
12.5681785271
 10
-13.9834920276
 20
12.5812906794
 10
-13.9702354971
 20
12.5940765252
 10
-13.9566360941
 20
12.6065364328
 10
-13.9427121394
 20
12.6186751164
 10
-13.9284821132
 20
12.6304983766
 10
-13.9139644954
 20
12.6420120141
 10
-13.8941869117
 20
12.6568872979
 10
-13.8739426947
 20
12.6712084649
 10
-13.8532436315
 20
12.6849615262
 10
-13.8374279585
 20
12.6948931462
 10
-13.8213681962
 20
12.7044797867
 10
-13.8050694761
 20
12.7137038962
 10
-13.7885369297
 20
12.7225479232
 10
-13.7717757568
 20
12.7309959928
 10
-13.7547914296
 20
12.7390389367
 10
-13.7375894889
 20
12.7466692632
 10
-13.7201754753
 20
12.7538794804
 10
-13.7000247714
 20
12.7615973236
 10
-13.6796341792
 20
12.768755234
 10
-13.6590335669
 20
12.7753517779
 10
-13.6382528024
 20
12.7813855216
 10
-13.617321754
 20
12.7868550314
 10
-13.5962702898
 20
12.7917588737
 10
-13.5751282779
 20
12.7960956148
 10
-13.5539189488
 20
12.7998635636
 10
-13.532638982
 20
12.8030599993
 10
-13.5112784195
 20
12.8056819435
 10
-13.4898273031
 20
12.8077264179
 10
-13.4682756749
 20
12.8091904442
 10
-13.4466135767
 20
12.8100710441
 10
-13.4248310505
 20
12.8103652392
  0
LINE
  5
297
100
AcDbEntity
  8
0
100
AcDbLine
 62
253
  6
CONTINUOUS
 10
-11.1694522191
 20
12.1148991282
 11
-11.1438758309
 21
12.1591021838
  0
LINE
  5
298
100
AcDbEntity
  8
0
100
AcDbLine
 62
253
  6
CONTINUOUS
 10
-11.1438758309
 20
12.1591021838
 11
-11.095474721
 21
12.178751906
  0
LWPOLYLINE
  5
299
100
AcDbEntity
  8
ASSI
100
AcDbPolyline
 62
253
  6
CONTINUOUS
 90
10
 70
0
 10
-22.5503491959
 20
21.5381670671
 10
-22.5490554289
 20
21.5338145487
 10
-22.547783466
 20
21.5261207595
 10
-22.5465333074
 20
21.5150856995
 10
-22.5452984032
 20
21.5006204564
 10
-22.5440853033
 20
21.4828139424
 10
-22.5429136563
 20
21.4619328942
 10
-22.5417846492
 20
21.4379325646
 10
-22.540697095
 20
21.4108577008
 10
-22.5396670827
 20
21.38110928
  0
LWPOLYLINE
  5
29A
100
AcDbEntity
  8
0
100
AcDbPolyline
 62
253
  6
CONTINUOUS
 90
49
 70
0
 10
-15.5933582137
 20
-12.1208234444
 10
-15.5896530518
 20
-12.1540671838
 10
-15.5848435948
 20
-12.1869437088
 10
-15.5789351314
 20
-12.2194688748
 10
-15.5719329506
 20
-12.2516585372
 10
-15.5638423413
 20
-12.2835285517
 10
-15.5546685923
 20
-12.3150947736
 10
-15.5444192143
 20
-12.3463630349
 10
-15.5331106062
 20
-12.3772990737
 10
-15.5207613887
 20
-12.4078586043
 10
-15.5073901823
 20
-12.4379973412
 10
-15.4930156079
 20
-12.4676709989
 10
-15.4776562861
 20
-12.4968352919
 10
-15.4613305376
 20
-12.5254515607
 10
-15.4440554838
 20
-12.553503651
 10
-15.4258479458
 20
-12.5809810341
 10
-15.4067247449
 20
-12.6078731818
 10
-15.3867027024
 20
-12.6341695657
 10
-15.3657986396
 20
-12.6598596574
 10
-15.3440321345
 20
-12.6849327564
 10
-15.3214337927
 20
-12.7093774738
 10
-15.2980369764
 20
-12.7331822485
 10
-15.2738750479
 20
-12.7563355195
 10
-15.2489813694
 20
-12.7788257258
 10
-15.2233893033
 20
-12.8006413064
 10
-15.1971296248
 20
-12.8217692384
 10
-15.1702227614
 20
-12.8421906517
 10
-15.1426865534
 20
-12.8618852141
 10
-15.1145388412
 20
-12.8808325937
 10
-15.0857974652
 20
-12.8990124584
 10
-15.0564802658
 20
-12.9164044762
 10
-15.0266069665
 20
-12.9329876304
 10
-14.9962048227
 20
-12.9487381662
 10
-14.9653029729
 20
-12.9636316438
 10
-14.9339305557
 20
-12.9776436237
 10
-14.9021167096
 20
-12.9907496662
 10
-14.869890573
 20
-13.0029253318
 10
-14.8372855297
 20
-13.0141498659
 10
-14.8043519443
 20
-13.0244172544
 10
-14.7711444265
 20
-13.0337251682
 10
-14.737717586
 20
-13.0420712782
 10
-14.7041260327
 20
-13.0494532553
 10
-14.6704243762
 20
-13.0558687705
 10
-14.6366550906
 20
-13.0613147831
 10
-14.6028121063
 20
-13.0657854068
 10
-14.568877218
 20
-13.0692740437
 10
-14.5348322203
 20
-13.071774096
 10
-14.5006589081
 20
-13.0732789658
 10
-14.4663390758
 20
-13.0737820553
  0
LWPOLYLINE
  5
29B
100
AcDbEntity
  8
0
100
AcDbPolyline
 62
253
  6
CONTINUOUS
 90
53
 70
0
 10
-14.5523784895
 20
10.8698405174
 10
-14.5493346432
 20
10.8417675691
 10
-14.5454766762
 20
10.8138002968
 10
-14.5407880094
 20
10.7859141428
 10
-14.5352520637
 20
10.7580845497
 10
-14.5288522602
 20
10.7302869597
 10
-14.5215720198
 20
10.7024968154
 10
-14.5134001842
 20
10.6747064526
 10
-14.5043472776
 20
10.6469757811
 10
-14.4944292453
 20
10.6193816042
 10
-14.4836620323
 20
10.5920007252
 10
-14.4720615835
 20
10.5649099472
 10
-14.4596438442
 20
10.5381860736
 10
-14.4464261103
 20
10.5118951238
 10
-14.4324310816
 20
10.4860599818
 10
-14.4176828089
 20
10.4606927478
 10
-14.4022053431
 20
10.4358055222
 10
-14.3860227349
 20
10.411410405
 10
-14.3691590352
 20
10.3875194965
 10
-14.3516385658
 20
10.3641447809
 10
-14.3334867336
 20
10.3412977779
 10
-14.3147292165
 20
10.3189898911
 10
-14.2953916924
 20
10.2972325242
 10
-14.2754998393
 20
10.2760370808
 10
-14.2550793352
 20
10.2554149646
 10
-14.2299075848
 20
10.2314339309
 10
-14.2040230421
 20
10.2082705599
 10
-14.1774371961
 20
10.1859005017
 10
-14.1501615355
 20
10.1642994066
 10
-14.1222075495
 20
10.1434429248
 10
-14.0935859624
 20
10.1233166611
 10
-14.0643044398
 20
10.1039460379
 10
-14.0343698829
 20
10.0853664324
 10
-14.0037891928
 20
10.0676132216
 10
-13.9725692706
 20
10.0507217825
 10
-13.9460673232
 20
10.0373273342
 10
-13.9191181188
 20
10.0245639599
 10
-13.891713519
 20
10.0124397137
 10
-13.8638453856
 20
10.0009626497
 10
-13.8355055802
 20
9.990140822
 10
-13.8066859646
 20
9.9799822845
 10
-13.7773815611
 20
9.9704971662
 10
-13.747600035
 20
9.9617038954
 10
-13.7173522118
 20
9.9536229752
 10
-13.6866489176
 20
9.9462749086
 10
-13.6555009779
 20
9.9396801988
 10
-13.6239192186
 20
9.9338593489
 10
-13.5919120155
 20
9.9288355642
 10
-13.5594779444
 20
9.9246428597
 10
-13.526613131
 20
9.9213179524
 10
-13.4933137011
 20
9.9188975593
 10
-13.4595757805
 20
9.9174183976
 10
-13.4253954949
 20
9.9169171843
  0
LWPOLYLINE
  5
29C
100
AcDbEntity
  8
0
100
AcDbPolyline
 62
253
  6
CONTINUOUS
 90
13
 70
0
 10
-14.1632998785
 20
10.9071644063
 10
-14.1666111176
 20
10.9432342541
 10
-14.1696615803
 20
10.9794899383
 10
-14.1724606407
 20
11.0159320923
 10
-14.1750176731
 20
11.0525613498
 10
-14.1773420519
 20
11.089378344
 10
-14.1794433253
 20
11.1263826743
 10
-14.1813317382
 20
11.1635698021
 10
-14.1830177097
 20
11.2009341548
 10
-14.1845116586
 20
11.2384701598
 10
-14.1858240039
 20
11.2761722442
 10
-14.1872262508
 20
11.3235272494
 10
-14.1883893071
 20
11.3711362021
  0
LWPOLYLINE
  5
29D
100
AcDbEntity
  8
0
100
AcDbPolyline
 62
253
  6
CONTINUOUS
 90
15
 70
0
 10
-13.7278693724
 20
-10.779985667
 10
-13.7235869438
 20
-10.8272722851
 10
-13.7196805052
 20
-10.8748891356
 10
-13.7161467119
 20
-10.9228377737
 10
-13.7129822189
 20
-10.9711197547
 10
-13.7101836814
 20
-11.0197366342
 10
-13.7077475665
 20
-11.0686887003
 10
-13.7056695895
 20
-11.117971173
 10
-13.7039452775
 20
-11.1675780054
 10
-13.7025701577
 20
-11.2175031505
 10
-13.7015397575
 20
-11.2677405611
 10
-13.700849112
 20
-11.3182855561
 10
-13.7004912875
 20
-11.3691389168
 10
-13.7004588584
 20
-11.4203027907
 10
-13.7007443992
 20
-11.4717793249
  0
LINE
  5
29E
100
AcDbEntity
  8
0
100
AcDbLine
 62
253
  6
CONTINUOUS
 10
-14.1883893071
 20
11.3711362021
 11
-14.1901109896
 21
11.4671285728
  0
LWPOLYLINE
  5
29F
100
AcDbEntity
  8
0
100
AcDbPolyline
 62
253
  6
CONTINUOUS
 90
55
 70
0
 10
-12.6008502345
 20
-12.9565539997
 10
-12.600794315
 20
-12.9600871811
 10
-12.6006275912
 20
-12.9635883746
 10
-12.6003516148
 20
-12.9670667213
 10
-12.5999679378
 20
-12.9705313625
 10
-12.5994781122
 20
-12.9739914394
 10
-12.5988832283
 20
-12.9774542247
 10
-12.5981825315
 20
-12.9809195153
 10
-12.5973748054
 20
-12.9843852397
 10
-12.5964588339
 20
-12.9878493264
 10
-12.5954334007
 20
-12.9913097036
 10
-12.5942974537
 20
-12.9947637163
 10
-12.5930505969
 20
-12.9982063751
 10
-12.5916925982
 20
-13.0016321071
 10
-12.5902232255
 20
-13.0050353396
 10
-12.588642247
 20
-13.0084104996
 10
-12.5872400757
 20
-13.0111967396
 10
-12.5857645019
 20
-13.0139508185
 10
-12.5842197882
 20
-13.0166639401
 10
-12.582608708
 20
-13.0193296328
 10
-12.5809280768
 20
-13.0219507245
 10
-12.5791732205
 20
-13.0245323678
 10
-12.5773405164
 20
-13.0270779701
 10
-12.5754305458
 20
-13.029583957
 10
-12.5734449409
 20
-13.0320450088
 10
-12.5713853341
 20
-13.0344558058
 10
-12.5692533577
 20
-13.0368110284
 10
-12.5670506441
 20
-13.0391053568
 10
-12.5647793277
 20
-13.0413340682
 10
-12.5624435525
 20
-13.0434948269
 10
-12.5600479642
 20
-13.0455858942
 10
-12.5575972091
 20
-13.0476055312
 10
-12.555095933
 20
-13.0495519992
 10
-12.552548782
 20
-13.0514235594
 10
-12.5499587435
 20
-13.0532194932
 10
-12.5473221711
 20
-13.0549431634
 10
-12.5446337597
 20
-13.0565989531
 10
-12.5418907711
 20
-13.0581896192
 10
-12.5391007337
 20
-13.0597114145
 10
-12.536273743
 20
-13.0611589657
 10
-12.5328449599
 20
-13.0627920071
 10
-12.5293839671
 20
-13.064310401
 10
-12.5258972307
 20
-13.065714149
 10
-12.5223912166
 20
-13.0670032526
 10
-12.5188723909
 20
-13.0681777134
 10
-12.5153464246
 20
-13.069237765
 10
-12.5118158078
 20
-13.07018457
 10
-12.5082822355
 20
-13.071019523
 10
-12.504747403
 20
-13.0717440186
 10
-12.5012130052
 20
-13.0723594514
 10
-12.4976788841
 20
-13.0728666766
 10
-12.4941374699
 20
-13.0732643917
 10
-12.4905793393
 20
-13.0735507545
 10
-12.4869950696
 20
-13.0737239231
 10
-12.4833752375
 20
-13.0737820553
  0
LWPOLYLINE
  5
2A0
100
AcDbEntity
  8
0
100
AcDbPolyline
 62
253
  6
CONTINUOUS
 90
16
 70
0
 10
-14.1901109896
 20
11.4671285728
 10
-14.1906542858
 20
11.5190920116
 10
-14.1909000771
 20
11.5707170003
 10
-14.1908390919
 20
11.6220057199
 10
-14.1904620587
 20
11.6729603513
 10
-14.1897597059
 20
11.7235830755
 10
-14.1887232268
 20
11.773874704
 10
-14.1873456739
 20
11.8238305708
 10
-14.1856205646
 20
11.8734446405
 10
-14.1835414163
 20
11.9227108778
 10
-14.1811017466
 20
11.9716232471
 10
-14.1782953222
 20
12.0201769417
 10
-14.1751169084
 20
12.0683720689
 10
-14.17156152
 20
12.1162099647
 10
-14.1676241718
 20
12.1636919651
 10
-14.1632998785
 20
12.210819406
  0
LWPOLYLINE
  5
2A1
100
AcDbEntity
  8
0
100
AcDbPolyline
 62
253
  6
CONTINUOUS
 90
16
 70
0
 10
-13.3079227164
 20
-11.5224770557
 10
-13.3074236576
 20
-11.468097857
 10
-13.3072957436
 20
-11.4140568302
 10
-13.3075379216
 20
-11.3603523304
 10
-13.308149139
 20
-11.3069827132
 10
-13.3091283431
 20
-11.2539463339
 10
-13.3104742805
 20
-11.201242659
 10
-13.3121848951
 20
-11.1488755998
 10
-13.3142579301
 20
-11.0968501788
 10
-13.3166911287
 20
-11.0451714185
 10
-13.3194822341
 20
-10.9938443415
 10
-13.3226294968
 20
-10.9428728554
 10
-13.3261331957
 20
-10.89225641
 10
-13.3299941169
 20
-10.8419933402
 10
-13.3342130467
 20
-10.7920819808
 10
-13.3387907712
 20
-10.742520667
  0
LWPOLYLINE
  5
2A2
100
AcDbEntity
  8
0
100
AcDbPolyline
 62
253
  6
CONTINUOUS
 90
15
 70
0
 10
-13.7007443992
 20
-11.4717793249
 10
-13.7020463232
 20
-11.5718589738
 10
-13.7029551223
 20
-11.6198547758
 10
-13.704089628
 20
-11.6675598129
 10
-13.7054725867
 20
-11.7149758251
 10
-13.706772919
 20
-11.7527010237
 10
-13.7082572264
 20
-11.7902391543
 10
-13.7099359164
 20
-11.8275870111
 10
-13.7118193965
 20
-11.8647413882
 10
-13.7139180742
 20
-11.9016990799
 10
-13.7162412823
 20
-11.9384574762
 10
-13.7187940558
 20
-11.9750163515
 10
-13.7215803551
 20
-12.0113760763
 10
-13.7246041405
 20
-12.0475370208
 10
-13.7278693724
 20
-12.0834995555
  0
LWPOLYLINE
  5
2A3
100
AcDbEntity
  8
0
100
AcDbPolyline
 62
253
  6
CONTINUOUS
 90
15
 70
0
 10
-12.6597996228
 20
11.5190735765
 10
-12.6611088077
 20
11.4187650841
 10
-12.6620306087
 20
11.3707073793
 10
-12.6631826736
 20
11.3229537735
 10
-12.6645853694
 20
11.2755025823
 10
-12.665901344
 20
11.2377588871
 10
-12.667399246
 20
11.2002107057
 10
-12.6690875642
 20
11.1628610848
 10
-12.6709747872
 20
11.1257130711
 10
-12.6730694038
 20
11.0887697112
 10
-12.675379705
 20
11.0520335323
 10
-12.6779131913
 20
11.0155049831
 10
-12.6806771659
 20
10.9791839929
 10
-12.6836789316
 20
10.9430704909
 10
-12.6869257915
 20
10.9071644063
  0
LWPOLYLINE
  5
2A4
100
AcDbEntity
  8
0
100
AcDbPolyline
 62
253
  6
CONTINUOUS
 90
19
 70
0
 10
-12.2978119126
 20
10.8699816285
 10
-12.2911697662
 20
10.9444756269
 10
-12.2853757405
 20
11.0192366692
 10
-12.2804017382
 20
11.094274452
 10
-12.2762196618
 20
11.1695986718
 10
-12.2728014138
 20
11.2452190251
 10
-12.2701188967
 20
11.3211452084
 10
-12.2681509445
 20
11.3973793463
 10
-12.2669041164
 20
11.4738932755
 10
-12.2663919031
 20
11.5506512606
 10
-12.2666277952
 20
11.6276175664
 10
-12.2676252834
 20
11.7047564576
 10
-12.2693978583
 20
11.7820321988
 10
-12.2719624656
 20
11.8594163879
 10
-12.2753498717
 20
11.9369099558
 10
-12.279594298
 20
12.0145211665
 10
-12.284729966
 20
12.0922582838
 10
-12.290791097
 20
12.170129572
 10
-12.2978119126
 20
12.2481432949
  0
LWPOLYLINE
  5
2A5
100
AcDbEntity
  8
0
100
AcDbPolyline
 62
253
  6
CONTINUOUS
 90
19
 70
0
 10
-15.5933582137
 20
-10.7426617781
 10
-15.6001763046
 20
-10.8182070499
 10
-15.6061167806
 20
-10.8938906461
 10
-15.6112012671
 20
-10.9697180594
 10
-15.6154513896
 20
-11.0456947825
 10
-15.6188887735
 20
-11.1218263078
 10
-15.6215350441
 20
-11.1981181282
 10
-15.6234092626
 20
-11.2745709382
 10
-15.624520232
 20
-11.351166241
 10
-15.6248741912
 20
-11.4278807416
 10
-15.6244773789
 20
-11.504691145
 10
-15.6233360339
 20
-11.5815741563
 10
-15.6214563949
 20
-11.6585064808
 10
-15.61883699
 20
-11.7354694157
 10
-15.6154455034
 20
-11.8124626282
 10
-15.6112419089
 20
-11.8894903779
 10
-15.6061861801
 20
-11.9665569241
 10
-15.6002382905
 20
-12.0436665265
 10
-15.5933582137
 20
-12.1208234444
  0
LWPOLYLINE
  5
2A6
100
AcDbEntity
  8
0
100
AcDbPolyline
 62
253
  6
CONTINUOUS
 90
54
 70
0
 10
-15.2042443347
 20
-10.7798445558
 10
-15.2024881242
 20
-10.7640245705
 10
-15.2003152959
 20
-10.748352749
 10
-15.1977269256
 20
-10.7327991445
 10
-15.1947240893
 20
-10.7173338105
 10
-15.1913069669
 20
-10.7019325064
 10
-15.1874721546
 20
-10.6865938157
 10
-15.1832153524
 20
-10.6713220279
 10
-15.1785322605
 20
-10.6561214326
 10
-15.173420122
 20
-10.6410001698
 10
-15.1678823523
 20
-10.6259817821
 10
-15.16192391
 20
-10.6110936622
 10
-15.1555497535
 20
-10.5963632032
 10
-15.1487666144
 20
-10.581815544
 10
-15.1415883166
 20
-10.5674668073
 10
-15.1340304572
 20
-10.553330862
 10
-15.1261086332
 20
-10.5394215766
 10
-15.1150032642
 20
-10.5212470481
 10
-15.1032931783
 20
-10.5035007945
 10
-15.0909929786
 20
-10.4861834842
 10
-15.0781212777
 20
-10.4693004229
 10
-15.0647127261
 20
-10.4528754657
 10
-15.0508059836
 20
-10.4369371048
 10
-15.0364364245
 20
-10.4215054426
 10
-15.0216262802
 20
-10.40656702
 10
-15.0063944962
 20
-10.3920999879
 10
-14.9907600181
 20
-10.3780824971
 10
-14.9747417915
 20
-10.3644926983
 10
-14.9583587619
 20
-10.3513087425
 10
-14.9416271994
 20
-10.3385147655
 10
-14.9245526713
 20
-10.3261188444
 10
-14.9071380694
 20
-10.3141350413
 10
-14.8893862857
 20
-10.3025774185
 10
-14.8713002117
 20
-10.2914600382
 10
-14.8528827394
 20
-10.2807969625
 10
-14.8341358183
 20
-10.2706019498
 10
-14.8150576292
 20
-10.2608875426
 10
-14.7956454105
 20
-10.2516659797
 10
-14.7758964006
 20
-10.2429494999
 10
-14.7558078381
 20
-10.2347503418
 10
-14.7353769614
 20
-10.2270807443
 10
-14.7146031942
 20
-10.2199523579
 10
-14.6934947012
 20
-10.2133744809
 10
-14.6720618321
 20
-10.2073558236
 10
-14.6503149369
 20
-10.2019050962
 10
-14.6282643655
 20
-10.1970310088
 10
-14.6059204675
 20
-10.1927422717
 10
-14.5865414723
 20
-10.189540291
 10
-14.5669523091
 20
-10.1867897644
 10
-14.5471507109
 20
-10.1845056936
 10
-14.527134411
 20
-10.1827030802
 10
-14.5069011423
 20
-10.1813969258
 10
-14.486448638
 20
-10.180602232
 10
-14.4657746313
 20
-10.1803340004
  0
LWPOLYLINE
  5
2A7
100
AcDbEntity
  8
0
100
AcDbPolyline
 62
253
  6
CONTINUOUS
 90
86
 70
0
 10
-12.6869257915
 20
10.9071644063
 10
-12.689244739
 20
10.8869413434
 10
-12.6922508642
 20
10.8669089365
 10
-12.6959573369
 20
10.8469849165
 10
-12.700377327
 20
10.8270870141
 10
-12.7055272761
 20
10.8071501176
 10
-12.7114367126
 20
10.7871777437
 10
-12.7181384367
 20
10.7671905668
 10
-12.7256652485
 20
10.7472092609
 10
-12.7340426054
 20
10.7272614166
 10
-12.7432665944
 20
10.7074022906
 10
-12.7533259599
 20
10.6876940558
 10
-12.764209446
 20
10.6681988852
 10
-12.7759038826
 20
10.6489752896
 10
-12.7883884411
 20
10.6300671307
 10
-12.8016403781
 20
10.6115146078
 10
-12.8156369506
 20
10.5933579204
 10
-12.8303564761
 20
10.5756310348
 10
-12.8457815158
 20
10.5583429854
 10
-12.8618956917
 20
10.5414965735
 10
-12.8786826259
 20
10.5250946003
 10
-12.8961254825
 20
10.509138698
 10
-12.9142055941
 20
10.4936258227
 10
-12.9329038357
 20
10.4785517611
 10
-12.952201082
 20
10.4639123002
 10
-12.9749634764
 20
10.4477197448
 10
-12.9984514602
 20
10.4321520246
 10
-13.0226332289
 20
10.417271836
 10
-13.0474769784
 20
10.4031418754
 10
-13.0729509042
 20
10.389824839
 10
-13.0990232021
 20
10.3773834232
 10
-13.1256620678
 20
10.3658803245
 10
-13.1528320806
 20
10.3553697391
 10
-13.1804833545
 20
10.3458718634
 10
-13.2085623873
 20
10.337398394
 10
-13.2370156767
 20
10.3299610271
 10
-13.2657897203
 20
10.3235714592
 10
-13.2948310161
 20
10.3182413867
 10
-13.3240860615
 20
10.313982506
 10
-13.3535049697
 20
10.3108056558
 10
-13.3830523141
 20
10.3087182442
 10
-13.4126962839
 20
10.3077268216
 10
-13.4424050677
 20
10.3078379382
 10
-13.4721468546
 20
10.3090581445
 10
-13.5018898334
 20
10.3113939908
 10
-13.531602193
 20
10.3148520274
 10
-13.5575442852
 20
10.3188012272
 10
-13.5833806842
 20
10.3236053366
 10
-13.6090534948
 20
10.3292550731
 10
-13.6345048221
 20
10.3357411541
 10
-13.6596777752
 20
10.3430525248
 10
-13.6845194798
 20
10.3511710418
 10
-13.7089780658
 20
10.3600767893
 10
-13.7330016633
 20
10.3697498516
 10
-13.7565463134
 20
10.3801672574
 10
-13.7795997015
 20
10.3912938142
 10
-13.8021574246
 20
10.4030912738
 10
-13.8242150794
 20
10.4155213882
 10
-13.8457654391
 20
10.4285454311
 10
-13.8667899838
 20
10.4421227634
 10
-13.8872673699
 20
10.4562122677
 10
-13.9071762538
 20
10.4707728268
 10
-13.9264924716
 20
10.4857729257
 10
-13.9451805775
 20
10.5012194585
 10
-13.9632023053
 20
10.5171289219
 10
-13.9805193887
 20
10.5335178123
 10
-13.9970969163
 20
10.5503933932
 10
-14.0129133952
 20
10.5677259952
 10
-14.0279506874
 20
10.5854767158
 10
-14.0421906547
 20
10.6036066523
 10
-14.0556195049
 20
10.6220756469
 10
-14.0682408295
 20
10.640838519
 10
-14.0800625659
 20
10.659848833
 10
-14.0910926514
 20
10.6790601528
 10
-14.1013367367
 20
10.6984218364
 10
-14.1107913259
 20
10.7178664159
 10
-14.1194506363
 20
10.7373222173
 10
-14.1273088854
 20
10.7567175664
 10
-14.1343657787
 20
10.7759908166
 10
-14.140642975
 20
10.7951204313
 10
-14.1461676212
 20
10.814094901
 10
-14.1509668643
 20
10.8329027167
 10
-14.1550654626
 20
10.8515468558
 10
-14.1584786206
 20
10.8700882429
 10
-14.1612191539
 20
10.8886022893
 10
-14.1632998785
 20
10.9071644063
  0
LINE
  5
2A8
100
AcDbEntity
  8
0
100
AcDbLine
 62
253
  6
CONTINUOUS
 10
-9.6168067032
 20
10.9036719063
 11
-9.6564589244
 21
10.8699816285
  0
LINE
  5
2A9
100
AcDbEntity
  8
0
100
AcDbLine
 62
253
  6
CONTINUOUS
 10
-9.6583286466
 20
10.8670182952
 11
-9.6782605905
 21
10.861338573
  0
LWPOLYLINE
  5
2AA
100
AcDbEntity
  8
0
100
AcDbPolyline
 62
253
  6
CONTINUOUS
 90
55
 70
0
 10
-12.3270581804
 20
-13.0737820553
 10
-12.3235079706
 20
-13.073724506
 10
-12.3199900264
 20
-13.0735530303
 10
-12.3164955201
 20
-13.0732693858
 10
-12.3130156237
 20
-13.0728753306
 10
-12.3095415096
 20
-13.0723726226
 10
-12.3060661239
 20
-13.0717625423
 10
-12.3025895096
 20
-13.0710444618
 10
-12.2991134837
 20
-13.070217276
 10
-12.2956398631
 20
-13.0692798795
 10
-12.2921704649
 20
-13.0682311673
 10
-12.288707747
 20
-13.0670702227
 10
-12.2852567319
 20
-13.065796883
 10
-12.2818230827
 20
-13.0644111743
 10
-12.2784124628
 20
-13.0629131224
 10
-12.2750305355
 20
-13.0613027533
 10
-12.2722392281
 20
-13.0598757812
 10
-12.2694808255
 20
-13.0583755324
 10
-12.2667643744
 20
-13.0568067101
 10
-12.2640965405
 20
-13.0551724933
 10
-12.2614744661
 20
-13.0534699634
 10
-12.2588929129
 20
-13.0516946777
 10
-12.2563483533
 20
-13.0498432296
 10
-12.2538441033
 20
-13.0479163573
 10
-12.2513851897
 20
-13.0459158351
 10
-12.2489766395
 20
-13.0438434374
 10
-12.2466234796
 20
-13.0417009386
 10
-12.2443307367
 20
-13.0394901132
 10
-12.2421029011
 20
-13.0372132027
 10
-12.239942315
 20
-13.034874318
 10
-12.2378507841
 20
-13.0324780371
 10
-12.2358301141
 20
-13.0300289382
 10
-12.2338821104
 20
-13.0275315992
 10
-12.2320085788
 20
-13.0249905982
 10
-12.2302103019
 20
-13.0224088598
 10
-12.2284839701
 20
-13.0197826936
 10
-12.2268252512
 20
-13.0171067561
 10
-12.2252314535
 20
-13.0143782784
 10
-12.2237064481
 20
-13.0116047918
 10
-12.2222557469
 20
-13.0087964026
 10
-12.22061917
 20
-13.0053926618
 10
-12.2190975866
 20
-13.0019596858
 10
-12.2176910549
 20
-12.998503946
 10
-12.2163996334
 20
-12.9950319136
 10
-12.2152233802
 20
-12.99155006
 10
-12.214162099
 20
-12.9880640106
 10
-12.2132145745
 20
-12.984576007
 10
-12.2123793367
 20
-12.9810874447
 10
-12.2116549155
 20
-12.9775997192
 10
-12.2110398408
 20
-12.9741142262
 10
-12.2105331746
 20
-12.9706306404
 10
-12.2101361056
 20
-12.9671417537
 10
-12.2098503546
 20
-12.9636386373
 10
-12.2096776421
 20
-12.9601123622
 10
-12.2096196889
 20
-12.9565539997
  0
LWPOLYLINE
  5
2AB
100
AcDbEntity
  8
0
100
AcDbPolyline
 62
253
  6
CONTINUOUS
 90
55
 70
0
 10
-9.6071415144
 20
-13.0737820553
 10
-9.6036119821
 20
-13.0737253907
 10
-9.600114042
 20
-13.0735564942
 10
-9.5966387691
 20
-13.0732770113
 10
-9.5931772385
 20
-13.0728885877
 10
-9.5897205256
 20
-13.0723928692
 10
-9.5862615145
 20
-13.071791036
 10
-9.5828003267
 20
-13.0710824061
 10
-9.5793388928
 20
-13.0702658323
 10
-9.5758791433
 20
-13.0693401674
 10
-9.5724230089
 20
-13.068304264
 10
-9.5689730283
 20
-13.067157151
 10
-9.5655341736
 20
-13.065898562
 10
-9.5621120247
 20
-13.0645284066
 10
-9.5587121619
 20
-13.0630465946
 10
-9.5553401654
 20
-13.0614530357
 10
-9.5525564232
 20
-13.0600403957
 10
-9.5498047917
 20
-13.0585545578
 10
-9.547094155
 20
-13.0569999886
 10
-9.5444310446
 20
-13.0553796506
 10
-9.5418125817
 20
-13.0536904895
 10
-9.5392335351
 20
-13.0519279464
 10
-9.5366904156
 20
-13.0500885072
 10
-9.5341867031
 20
-13.0481728353
 10
-9.5317276197
 20
-13.0461826386
 10
-9.5293183876
 20
-13.0441196249
 10
-9.5269642287
 20
-13.0419855022
 10
-9.5246703652
 20
-13.0397819783
 10
-9.522441452
 20
-13.0375112351
 10
-9.520279875
 20
-13.0351773506
 10
-9.5181874529
 20
-13.0327848766
 10
-9.5161660044
 20
-13.0303383651
 10
-9.5142173481
 20
-13.027842368
 10
-9.5123433028
 20
-13.0253014372
 10
-9.5105446541
 20
-13.0227184759
 10
-9.5088180551
 20
-13.0200897924
 10
-9.5071591259
 20
-13.0174100465
 10
-9.5055651377
 20
-13.0146764847
 10
-9.5040399656
 20
-13.0118967012
 10
-9.5025891362
 20
-13.0090808772
 10
-9.5009524676
 20
-13.0056668061
 10
-9.4994308401
 20
-13.002222026
 10
-9.4980242832
 20
-12.9987530653
 10
-9.4967328267
 20
-12.9952664525
 10
-9.4955565002
 20
-12.9917687159
 10
-9.494495084
 20
-12.9882655433
 10
-9.4935473612
 20
-12.9847592607
 10
-9.4927118656
 20
-12.9812513531
 10
-9.4919871308
 20
-12.9777433058
 10
-9.4913716906
 20
-12.9742366042
 10
-9.4908646182
 20
-12.9707309632
 10
-9.4904671453
 20
-12.9672190177
 10
-9.4901810432
 20
-12.9636916322
 10
-9.490008083
 20
-12.9601396713
 10
-9.489950036
 20
-12.9565539997
  0
LWPOLYLINE
  5
2AC
100
AcDbEntity
  8
0
100
AcDbPolyline
 62
253
  6
CONTINUOUS
 90
50
 70
0
 10
-14.4663390758
 20
-13.0737820553
 10
-14.4320622109
 20
-13.0732801133
 10
-14.3979456229
 20
-13.0717798647
 10
-14.3639724145
 20
-13.069289675
 10
-14.3301256881
 20
-13.0658179103
 10
-14.2963885463
 20
-13.0613729361
 10
-14.2627440914
 20
-13.0559631183
 10
-14.2291866838
 20
-13.04959603
 10
-14.1957557141
 20
-13.0422760735
 10
-14.1625018312
 20
-13.0340068585
 10
-14.1294756833
 20
-13.0247919946
 10
-14.0967279191
 20
-13.0146350916
 10
-14.0643091872
 20
-13.003539759
 10
-14.0322660484
 20
-12.991512372
 10
-14.0006287129
 20
-12.978570367
 10
-13.9694233033
 20
-12.964733946
 10
-13.9386759421
 20
-12.9500233108
 10
-13.9084127519
 20
-12.9344586635
 10
-13.8786598552
 20
-12.9180602059
 10
-13.8494418361
 20
-12.9008478014
 10
-13.8207771242
 20
-12.8828399593
 10
-13.7926826108
 20
-12.8640548506
 10
-13.7651751871
 20
-12.8445106461
 10
-13.7382717443
 20
-12.8242255167
 10
-13.7119891737
 20
-12.8032176331
 10
-13.6863475056
 20
-12.781503648
 10
-13.6613793263
 20
-12.7590941409
 10
-13.6371203616
 20
-12.7359981729
 10
-13.6136063368
 20
-12.7122248053
 10
-13.5908729776
 20
-12.6877830992
 10
-13.5689560094
 20
-12.6626821159
 10
-13.5478877578
 20
-12.6369331638
 10
-13.5276869478
 20
-12.6105565405
 10
-13.5083689043
 20
-12.583574791
 10
-13.4899498961
 20
-12.5560074237
 10
-13.4724499677
 20
-12.5278618027
 10
-13.4558901073
 20
-12.4991422552
 10
-13.4402934313
 20
-12.4698578845
 10
-13.425691569
 20
-12.4400368956
 10
-13.4121182776
 20
-12.4097122692
 10
-13.3996034171
 20
-12.378920291
 10
-13.3881612576
 20
-12.3477104675
 10
-13.3778021719
 20
-12.3161356104
 10
-13.3685355722
 20
-12.2842454198
 10
-13.3603670288
 20
-12.2520771503
 10
-13.3533011515
 20
-12.2196649451
 10
-13.3487285342
 20
-12.1952065004
 10
-13.3447830628
 20
-12.1705859691
 10
-13.3414690408
 20
-12.1457592728
 10
-13.3387907712
 20
-12.1206823333
  0
LINE
  5
2AD
100
AcDbEntity
  8
0
100
AcDbLine
 62
253
  6
CONTINUOUS
 10
-12.4833752375
 20
-13.0737820553
 11
-12.3270581804
 21
-13.0737820553
  0
LINE
  5
2AE
100
AcDbEntity
  8
0
100
AcDbLine
 62
253
  6
CONTINUOUS
 10
-9.7637055846
 20
-13.0737820553
 11
-9.6071415144
 21
-13.0737820553
  0
LWPOLYLINE
  5
2AF
100
AcDbEntity
  8
0
100
AcDbPolyline
 62
253
  6
CONTINUOUS
 90
84
 70
0
 10
-13.3387907712
 20
-10.742520667
 10
-13.3424672566
 20
-10.7095084766
 10
-13.3472640425
 20
-10.6767749219
 10
-13.3531818885
 20
-10.6442230677
 10
-13.3602268796
 20
-10.6117692639
 10
-13.3684264006
 20
-10.5793829999
 10
-13.3778131616
 20
-10.5470470502
 10
-13.3884115739
 20
-10.5147712584
 10
-13.4002128541
 20
-10.4826737445
 10
-13.4131999201
 20
-10.4508996979
 10
-13.427339887
 20
-10.41959327
 10
-13.4425366579
 20
-10.3888944622
 10
-13.4586783333
 20
-10.3589422385
 10
-13.4756764809
 20
-10.3298349727
 10
-13.4935365392
 20
-10.3015086789
 10
-13.5122874138
 20
-10.2738587811
 10
-13.5319495306
 20
-10.2468033962
 10
-13.5525093944
 20
-10.2203514125
 10
-13.5739450303
 20
-10.1945344113
 10
-13.5962377591
 20
-10.1693766009
 10
-13.6193820858
 20
-10.1448726994
 10
-13.6433758117
 20
-10.1210100519
 10
-13.6682192436
 20
-10.0977742921
 10
-13.693922712
 20
-10.075144208
 10
-13.7204990533
 20
-10.0530968756
 10
-13.7535541091
 20
-10.0273975869
 10
-13.7878658498
 20
-10.0025881643
 10
-13.823415539
 20
-9.9787523215
 10
-13.8601844405
 20
-9.9559737723
 10
-13.8981538177
 20
-9.9343362302
 10
-13.9372922659
 20
-9.9139235238
 10
-13.977517707
 20
-9.8948199414
 10
-14.0187353944
 20
-9.8771098858
 10
-14.0608505813
 20
-9.8608777602
 10
-14.1037685213
 20
-9.8462079675
 10
-14.1473878417
 20
-9.8331738758
 10
-14.1915806658
 20
-9.8218047135
 10
-14.2362124906
 20
-9.812118674
 10
-14.2811488134
 20
-9.8041339507
 10
-14.3262551313
 20
-9.7978687371
 10
-14.3714241461
 20
-9.7933399343
 10
-14.4166573783
 20
-9.790559275
 10
-14.4619835528
 20
-9.7895371995
 10
-14.5074313948
 20
-9.7902841482
 10
-14.5530296292
 20
-9.7928105616
 10
-14.5987791555
 20
-9.7971245719
 10
-14.6445695709
 20
-9.8032250799
 10
-14.6902626469
 20
-9.8111086782
 10
-14.7357201553
 20
-9.8207719595
 10
-14.7808038675
 20
-9.8322115165
 10
-14.8253776221
 20
-9.8454131681
 10
-14.8693135251
 20
-9.8603196387
 10
-14.9124857494
 20
-9.876862879
 10
-14.9547684679
 20
-9.8949748397
 10
-14.9960358536
 20
-9.9145874715
 10
-15.0361747361
 20
-9.9356253085
 10
-15.0751225725
 20
-9.9579832182
 10
-15.1128294766
 20
-9.9815486517
 10
-15.1492455622
 20
-10.0062090601
 10
-15.1843209432
 20
-10.0318518942
 10
-15.2125015196
 20
-10.0539059344
 10
-15.2397549307
 20
-10.0765934001
 10
-15.2661196992
 20
-10.0999436357
 10
-15.2916282507
 20
-10.1239863605
 10
-15.3162886215
 20
-10.1487527946
 10
-15.340102751
 20
-10.174274533
 10
-15.3630655883
 20
-10.2005705425
 10
-15.3851441224
 20
-10.2276092776
 10
-15.4062983524
 20
-10.2553465647
 10
-15.42650295
 20
-10.2837707438
 10
-15.445791277
 20
-10.3130002086
 10
-15.4642113683
 20
-10.3431858665
 10
-15.4817757745
 20
-10.3744211726
 10
-15.4983551116
 20
-10.4065697727
 10
-15.5137845117
 20
-10.4394378602
 10
-15.5279220891
 20
-10.4728279014
 10
-15.5407178874
 20
-10.5065274533
 10
-15.5521449325
 20
-10.5403203453
 10
-15.5621908255
 20
-10.5740342257
 10
-15.5709014683
 20
-10.6076720163
 10
-15.578337338
 20
-10.6412804577
 10
-15.5845499167
 20
-10.6749160937
 10
-15.5895547063
 20
-10.7086746805
 10
-15.5933582137
 20
-10.7426617781
  0
LWPOLYLINE
  5
2B0
100
AcDbEntity
  8
0
100
AcDbPolyline
 62
253
  6
CONTINUOUS
 90
15
 70
0
 10
-12.6869257915
 20
12.2106782949
 10
-12.6826570629
 20
12.1635506632
 10
-12.6787598668
 20
12.1160706007
 10
-12.6752314799
 20
12.0682364326
 10
-12.6720691794
 20
12.0200464843
 10
-12.669270242
 20
11.9714990807
 10
-12.6668317416
 20
11.9225938531
 10
-12.6647499404
 20
11.8733356555
 10
-12.6630208972
 20
11.823730648
 10
-12.6616406712
 20
11.7737849905
 10
-12.6606053213
 20
11.7235048431
 10
-12.6599103715
 20
11.6728949754
 10
-12.6595492059
 20
11.6219545962
 10
-12.6595146733
 20
11.5706815237
 10
-12.6597996228
 20
11.5190735765
  0
LWPOLYLINE
  5
2B1
100
AcDbEntity
  8
0
100
AcDbPolyline
 62
253
  6
CONTINUOUS
 90
55
 70
0
 10
-11.5617763758
 20
10.0341099621
 10
-11.5617197066
 20
10.0305714645
 10
-11.5615507937
 20
10.0270651859
 10
-11.5612712795
 20
10.0235821066
 10
-11.5608828061
 20
10.0201132071
 10
-11.5603870158
 20
10.0166494679
 10
-11.559785082
 20
10.0131837008
 10
-11.559076303
 20
10.0097160442
 10
-11.5582595082
 20
10.0062484679
 10
-11.5573335269
 20
10.0027829418
 10
-11.5562971887
 20
9.9993214357
 10
-11.5551494973
 20
9.9958665269
 10
-11.5538901541
 20
9.992423222
 10
-11.5525190349
 20
9.9889971352
 10
-11.5510360154
 20
9.9855938806
 10
-11.5494409714
 20
9.9822190723
 10
-11.5480268581
 20
9.9794334523
 10
-11.5465393151
 20
9.9766803749
 10
-11.5449827939
 20
9.9739687294
 10
-11.5433602405
 20
9.9713050663
 10
-11.5416685791
 20
9.968686579
 10
-11.5399032284
 20
9.9661081222
 10
-11.5380606553
 20
9.9635662684
 10
-11.5361415183
 20
9.9610644627
 10
-11.5341475239
 20
9.9586078682
 10
-11.5320803788
 20
9.956201648
 10
-11.5299417895
 20
9.9538509653
 10
-11.5277334626
 20
9.9515609834
 10
-11.5254575916
 20
9.9493362935
 10
-11.5231183178
 20
9.9471791998
 10
-11.5207202695
 20
9.9450914348
 10
-11.5182680748
 20
9.9430747307
 10
-11.515766362
 20
9.9411308201
 10
-11.5132197595
 20
9.9392614351
 10
-11.5106312364
 20
9.9374672999
 10
-11.5079971263
 20
9.9357451043
 10
-11.5053121036
 20
9.9340905301
 10
-11.50257341
 20
9.932500879
 10
-11.4997885551
 20
9.9309799344
 10
-11.4969676156
 20
9.9295331001
 10
-11.4935472159
 20
9.9279007822
 10
-11.490095806
 20
9.9263829982
 10
-11.4866198271
 20
9.9249797819
 10
-11.4831257205
 20
9.9236911672
 10
-11.4796199275
 20
9.9225171878
 10
-11.4761080791
 20
9.9214576381
 10
-11.4725925657
 20
9.920511355
 10
-11.4690749675
 20
9.9196769357
 10
-11.465556865
 20
9.9189529775
 10
-11.4620398383
 20
9.9183380779
 10
-11.4585236695
 20
9.9178313687
 10
-11.4550009479
 20
9.9174341201
 10
-11.4514624648
 20
9.9171481367
 10
-11.4478990114
 20
9.9169752232
 10
-11.4443013788
 20
9.9169171843
  0
LWPOLYLINE
  5
2B2
100
AcDbEntity
  8
0
100
AcDbPolyline
 62
253
  6
CONTINUOUS
 90
55
 70
0
 10
-10.8202750021
 20
-11.3928665001
 10
-10.8203318257
 20
-11.3893067191
 10
-10.8205011773
 20
-11.3857799069
 10
-10.8207813785
 20
-11.3822770147
 10
-10.8211707507
 20
-11.3787889935
 10
-10.8216676153
 20
-11.3753067946
 10
-10.8222707695
 20
-11.3718232007
 10
-10.8229809138
 20
-11.3683383217
 10
-10.8237992243
 20
-11.3648540986
 10
-10.8247268775
 20
-11.361372473
 10
-10.8257650494
 20
-11.3578953859
 10
-10.8269147378
 20
-11.3544254032
 10
-10.8281762267
 20
-11.3509675874
 10
-10.8295496215
 20
-11.3475276257
 10
-10.8310350277
 20
-11.344111205
 10
-10.8326325507
 20
-11.3407240123
 10
-10.8340487734
 20
-11.3379287351
 10
-10.8355383849
 20
-11.3351667169
 10
-10.8370968415
 20
-11.33244697
 10
-10.8387211122
 20
-11.3297761431
 10
-10.8404142152
 20
-11.3271514305
 10
-10.8421806811
 20
-11.3245676631
 10
-10.8440240012
 20
-11.3220213788
 10
-10.8459435089
 20
-11.319515945
 10
-10.8479374986
 20
-11.3170564365
 10
-10.8500042644
 20
-11.3146479279
 10
-10.8521421005
 20
-11.3122954942
 10
-10.8543493012
 20
-11.3100042099
 10
-10.8566236614
 20
-11.3077785914
 10
-10.8589609791
 20
-11.3056209212
 10
-10.8613565532
 20
-11.3035329234
 10
-10.8638056823
 20
-11.3015163221
 10
-10.8663036653
 20
-11.2995728415
 10
-10.8688458009
 20
-11.2977042057
 10
-10.8714290537
 20
-11.2959111257
 10
-10.8740570513
 20
-11.2941902604
 10
-10.8767350869
 20
-11.2925372557
 10
-10.8794659093
 20
-11.2909493709
 10
-10.8822420881
 20
-11.2894303183
 10
-10.8850536486
 20
-11.2879854238
 10
-10.8884619884
 20
-11.2863554068
 10
-10.891900527
 20
-11.2848398636
 10
-10.8953628772
 20
-11.283438811
 10
-10.8988426523
 20
-11.282152266
 10
-10.9023334652
 20
-11.2809802455
 10
-10.9058297276
 20
-11.2799225293
 10
-10.9093290454
 20
-11.2789779483
 10
-10.912829823
 20
-11.2781450962
 10
-10.9163304648
 20
-11.2774225667
 10
-10.9198293753
 20
-11.2768089536
 10
-10.923326754
 20
-11.2763033793
 10
-10.9268299816
 20
-11.275907081
 10
-10.9303482336
 20
-11.2756218244
 10
-10.9338906859
 20
-11.2754493755
 10
-10.9374665141
 20
-11.2753915002
  0
LWPOLYLINE
  5
2B3
100
AcDbEntity
  8
0
100
AcDbPolyline
 62
253
  6
CONTINUOUS
 90
55
 70
0
 10
-10.5844783415
 20
-9.9852126116
 10
-10.5845349256
 20
-9.9816582616
 10
-10.5847035888
 20
-9.9781366739
 10
-10.5849826973
 20
-9.9746387374
 10
-10.5853706173
 20
-9.971155341
 10
-10.5858657151
 20
-9.9676773735
 10
-10.5864668283
 20
-9.9641975757
 10
-10.5871746813
 20
-9.9607160958
 10
-10.5879904697
 20
-9.9572349334
 10
-10.5889153893
 20
-9.9537560887
 10
-10.5899506358
 20
-9.9502815615
 10
-10.5910972318
 20
-9.9468139612
 10
-10.5923555067
 20
-9.9433583351
 10
-10.5937256167
 20
-9.93992034
 10
-10.5952077178
 20
-9.9365056327
 10
-10.5968019664
 20
-9.9331198699
 10
-10.5982155319
 20
-9.9303255365
 10
-10.5997026408
 20
-9.9275641697
 10
-10.6012588482
 20
-9.9248447073
 10
-10.6028812155
 20
-9.9221737408
 10
-10.6045728301
 20
-9.9195484769
 10
-10.6063382859
 20
-9.9169637756
 10
-10.6081811297
 20
-9.914416212
 10
-10.6101007199
 20
-9.9119092205
 10
-10.6120953675
 20
-9.9094479504
 10
-10.6141633838
 20
-9.9070375508
 10
-10.6163030799
 20
-9.904683171
 10
-10.6185127672
 20
-9.9023899602
 10
-10.6207902551
 20
-9.9001624941
 10
-10.6231313474
 20
-9.8980030533
 10
-10.6255313462
 20
-9.8959133451
 10
-10.6279855536
 20
-9.8938950766
 10
-10.6304892718
 20
-9.891949955
 10
-10.6330378029
 20
-9.8900796875
 10
-10.6356281161
 20
-9.8882849727
 10
-10.6382638485
 20
-9.8865624757
 10
-10.6409503045
 20
-9.884907853
 10
-10.643690236
 20
-9.8833183726
 10
-10.6464761857
 20
-9.8817977489
 10
-10.6492981444
 20
-9.8803513078
 10
-10.6527197492
 20
-9.8787194672
 10
-10.6561723922
 20
-9.8772021354
 10
-10.6596496723
 20
-9.8757993288
 10
-10.6631451883
 20
-9.874511064
 10
-10.6666525393
 20
-9.8733373577
 10
-10.6701661165
 20
-9.8722779927
 10
-10.6736834798
 20
-9.871331818
 10
-10.6772029818
 20
-9.8704974487
 10
-10.6807229748
 20
-9.8697735
 10
-10.6842418112
 20
-9.8691585872
 10
-10.6877596644
 20
-9.8686518575
 10
-10.6912839925
 20
-9.8682545871
 10
-10.6948240745
 20
-9.8679685839
 10
-10.6983891894
 20
-9.867795656
 10
-10.7019886162
 20
-9.8677376116
  0
LINE
  5
2B4
100
AcDbEntity
  8
0
100
AcDbLine
 62
253
  6
CONTINUOUS
 10
-12.6008502345
 20
-9.9852126116
 11
-12.6008502345
 21
-12.9565539997
  0
LINE
  5
2B5
100
AcDbEntity
  8
0
100
AcDbLine
 62
253
  6
CONTINUOUS
 10
-12.2096196889
 20
-12.9565539997
 11
-12.2096196889
 21
-11.6663751112
  0
LINE
  5
2B6
100
AcDbEntity
  8
0
100
AcDbLine
 62
253
  6
CONTINUOUS
 10
-12.2096196889
 20
-11.2753915002
 11
-12.2096196889
 21
-10.2587212226
  0
LINE
  5
2B7
100
AcDbEntity
  8
ASSI
100
AcDbLine
 62
253
  6
CONTINUOUS
 10
-11.6359541591
 20
0.2641756542
 11
-11.6376445322
 21
22.0190061973
  0
LINE
  5
2B8
100
AcDbEntity
  8
0
100
AcDbLine
 62
253
  6
CONTINUOUS
 10
-11.5617763758
 20
13.0059805169
 11
-11.5617763758
 21
10.0341100382
  0
LINE
  5
2B9
100
AcDbEntity
  8
0
100
AcDbLine
 62
253
  6
CONTINUOUS
 10
-10.8202750021
 20
-11.5489001112
 11
-10.8202750021
 21
-11.3928665058
  0
LINE
  5
2BA
100
AcDbEntity
  8
ASSI
100
AcDbLine
 62
253
  6
CONTINUOUS
 10
-11.6359541591
 20
-0.2379911155
 11
-11.6376445322
 21
-21.9928216587
  0
LINE
  5
2BB
100
AcDbEntity
  8
0
100
AcDbLine
 62
253
  6
CONTINUOUS
 10
-11.1708280524
 20
10.0341099621
 11
-11.1694522191
 21
12.1148991282
  0
LWPOLYLINE
  5
2BC
100
AcDbEntity
  8
0
100
AcDbPolyline
 62
253
  6
CONTINUOUS
 90
15
 70
0
 10
-13.3387907712
 20
-12.1206823333
 10
-13.3352542317
 20
-12.0823162505
 10
-13.3319380085
 20
-12.0437318603
 10
-13.328840217
 20
-12.0049283526
 10
-13.3259589726
 20
-11.9659049173
 10
-13.3232923907
 20
-11.9266607443
 10
-13.3208385399
 20
-11.887195687
 10
-13.3185953009
 20
-11.8475122525
 10
-13.3165605079
 20
-11.8076136115
 10
-13.3147319948
 20
-11.7675029346
 10
-13.3131075955
 20
-11.7271833925
 10
-13.3113600696
 20
-11.6764937251
 10
-13.3099192836
 20
-11.6254807318
 10
-13.3087764337
 20
-11.5741424847
 10
-13.3079227164
 20
-11.5224770557
  0
LWPOLYLINE
  5
2BD
100
AcDbEntity
  8
0
100
AcDbPolyline
 62
253
  6
CONTINUOUS
 90
83
 70
0
 10
-13.7278693724
 20
-12.0834995555
 10
-13.7306581444
 20
-12.1071338978
 10
-13.734361328
 20
-12.1303779657
 10
-13.738970633
 20
-12.1533336934
 10
-13.7444782168
 20
-12.1760780313
 10
-13.7508780289
 20
-12.1985879953
 10
-13.7581644667
 20
-12.2208156175
 10
-13.7663313483
 20
-12.2427173352
 10
-13.7753701756
 20
-12.264267208
 10
-13.7852718711
 20
-12.2854437006
 10
-13.7960240949
 20
-12.3062251943
 10
-13.8076014578
 20
-12.3265897355
 10
-13.8199753083
 20
-12.3465152872
 10
-13.8331200715
 20
-12.3659828985
 10
-13.8470224786
 20
-12.3849859636
 10
-13.8616723377
 20
-12.4035209631
 10
-13.8770594568
 20
-12.4215843775
 10
-13.893173644
 20
-12.4391726873
 10
-13.9100047072
 20
-12.456282373
 10
-13.9275366638
 20
-12.4729103228
 10
-13.9457303685
 20
-12.4890550557
 10
-13.9645408852
 20
-12.5047154983
 10
-13.9839333427
 20
-12.5198917349
 10
-14.0039131281
 20
-12.5345884795
 10
-14.0244956934
 20
-12.5488116038
 10
-14.0456865685
 20
-12.5625538448
 10
-14.0674515953
 20
-12.575755401
 10
-14.0897466936
 20
-12.5883433359
 10
-14.1125339732
 20
-12.6002514531
 10
-14.1358003022
 20
-12.6114405147
 10
-14.1595387388
 20
-12.6218780227
 10
-14.1837329567
 20
-12.6315348686
 10
-14.2083290927
 20
-12.6403955032
 10
-14.2332638996
 20
-12.6484477672
 10
-14.2584741299
 20
-12.6556795011
 10
-14.2838965362
 20
-12.6620785454
 10
-14.3094678712
 20
-12.6676327407
 10
-14.3402774995
 20
-12.6731695342
 10
-14.3712001745
 20
-12.6774757066
 10
-14.4022255618
 20
-12.6805547286
 10
-14.4333433271
 20
-12.6824100714
 10
-14.4645431361
 20
-12.6830452058
 10
-14.4958081314
 20
-12.6824619411
 10
-14.527095363
 20
-12.6806554397
 10
-14.5583553581
 20
-12.6776192025
 10
-14.5895386436
 20
-12.67334673
 10
-14.6205957465
 20
-12.667831523
 10
-14.6463390745
 20
-12.6622850934
 10
-14.6718987329
 20
-12.6558888364
 10
-14.6972130351
 20
-12.648660448
 10
-14.7222202944
 20
-12.6406176241
 10
-14.7468588243
 20
-12.6317780608
 10
-14.771066938
 20
-12.622159454
 10
-14.7947931947
 20
-12.6117818537
 10
-14.8180271364
 20
-12.6006747254
 10
-14.8407685505
 20
-12.5888698885
 10
-14.8630114669
 20
-12.5764056653
 10
-14.8847268847
 20
-12.5633463894
 10
-14.9058800452
 20
-12.549762897
 10
-14.9264433513
 20
-12.5357124323
 10
-14.9464178524
 20
-12.5211978705
 10
-14.9658117595
 20
-12.5062084946
 10
-14.9846238942
 20
-12.4907331691
 10
-15.0028155208
 20
-12.4747590841
 10
-15.0203385143
 20
-12.4582730113
 10
-15.0371513628
 20
-12.4412628615
 10
-15.0532390066
 20
-12.4237211021
 10
-15.0685929991
 20
-12.4056413398
 10
-15.0832064244
 20
-12.3870225727
 10
-15.097078489
 20
-12.3678853665
 10
-15.1102099299
 20
-12.348255678
 10
-15.1225983485
 20
-12.3281602719
 10
-15.1342288032
 20
-12.3076291417
 10
-15.1450832165
 20
-12.2866930881
 10
-15.1551435111
 20
-12.265382912
 10
-15.1643916096
 20
-12.2437294142
 10
-15.1728094347
 20
-12.2217633957
 10
-15.1803760202
 20
-12.1995081125
 10
-15.1870588448
 20
-12.1769566424
 10
-15.1928224986
 20
-12.1540945186
 10
-15.1976315715
 20
-12.1309072741
 10
-15.2014506535
 20
-12.107380442
 10
-15.2042443347
 20
-12.0834995555
  0
LINE
  5
2BE
100
AcDbEntity
  8
0
100
AcDbLine
 62
253
  6
CONTINUOUS
 10
-9.6079519812
 20
10.939761073
 11
-9.6168067032
 21
10.9036719063
  0
LWPOLYLINE
  5
2BF
100
AcDbEntity
  8
0
100
AcDbPolyline
 62
253
  6
CONTINUOUS
 90
55
 70
0
 10
-8.2175498481
 20
-11.6663751112
 10
-8.2140034472
 20
-11.6663186803
 10
-8.2104893332
 20
-11.6661504621
 10
-8.2069984184
 20
-11.6658720684
 10
-8.2035216153
 20
-11.6654851107
 10
-8.2000498363
 20
-11.6649912009
 10
-8.1965758428
 20
-11.6643914831
 10
-8.1930997918
 20
-11.6636852318
 10
-8.1896236892
 20
-11.6628712539
 10
-8.186149541
 20
-11.6619483564
 10
-8.1826793532
 20
-11.6609153463
 10
-8.1792157346
 20
-11.6597712024
 10
-8.1757637051
 20
-11.6585155901
 10
-8.1723288877
 20
-11.6571483471
 10
-8.1689169052
 20
-11.6556693105
 10
-8.1655333804
 20
-11.6540783178
 10
-8.1627405128
 20
-11.6526676008
 10
-8.159980213
 20
-11.651183427
 10
-8.157261382
 20
-11.6496301997
 10
-8.1545905732
 20
-11.6480108202
 10
-8.1519649516
 20
-11.6463221815
 10
-8.1493793346
 20
-11.6445596747
 10
-8.1468302747
 20
-11.6427197382
 10
-8.1443212632
 20
-11.6408029999
 10
-8.1418575264
 20
-11.6388111352
 10
-8.1394442906
 20
-11.6367458194
 10
-8.1370867817
 20
-11.6346087279
 10
-8.1347902262
 20
-11.6324015361
 10
-8.1325592709
 20
-11.6301264157
 10
-8.1303962457
 20
-11.6277875241
 10
-8.128302901
 20
-11.6253895153
 10
-8.1262809875
 20
-11.6229370432
 10
-8.1243322558
 20
-11.6204347615
 10
-8.1224584564
 20
-11.6178873243
 10
-8.1206603182
 20
-11.6152977236
 10
-8.118934483
 20
-11.6126623044
 10
-8.1172765713
 20
-11.6099757497
 10
-8.1156838325
 20
-11.6072353101
 10
-8.1141600342
 20
-11.6044485048
 10
-8.1127105733
 20
-11.6016254203
 10
-8.1110753918
 20
-11.598202204
 10
-8.1095550393
 20
-11.5947477302
 10
-8.1081495277
 20
-11.5912684588
 10
-8.1068588687
 20
-11.5877708496
 10
-8.1056830741
 20
-11.5842613625
 10
-8.1046219183
 20
-11.5807456504
 10
-8.1036742254
 20
-11.5772261375
 10
-8.102838582
 20
-11.5737044412
 10
-8.1021135747
 20
-11.5701821786
 10
-8.1014977902
 20
-11.5666609672
 10
-8.1009903519
 20
-11.5631406068
 10
-8.1005925307
 20
-11.5596136278
 10
-8.1003061345
 20
-11.5560707435
 10
-8.1001329711
 20
-11.5525026669
 10
-8.1000748482
 20
-11.5489001112
  0
LWPOLYLINE
  5
2C0
100
AcDbEntity
  8
0
100
AcDbPolyline
 62
253
  6
CONTINUOUS
 90
55
 70
0
 10
-10.9374665141
 20
-11.6663751112
 10
-10.9339358172
 20
-11.6663186122
 10
-10.9304368916
 20
-11.6661501929
 10
-10.9269607312
 20
-11.6658714701
 10
-10.9234983303
 20
-11.6654840603
 10
-10.9200406828
 20
-11.6649895802
 10
-10.9165806145
 20
-11.664389182
 10
-10.9131182769
 20
-11.66368216
 10
-10.9096556529
 20
-11.6628673441
 10
-10.9061947258
 20
-11.6619435642
 10
-10.9027374784
 20
-11.6609096503
 10
-10.8992864932
 20
-11.6597646044
 10
-10.8958467496
 20
-11.658508118
 10
-10.8924238264
 20
-11.657140055
 10
-10.8890233023
 20
-11.655660279
 10
-10.8856507563
 20
-11.6540686538
 10
-10.8828666342
 20
-11.6526575074
 10
-10.8801146609
 20
-11.6511729945
 10
-10.8774036816
 20
-11.6496195162
 10
-10.8747402044
 20
-11.647999973
 10
-10.8721213874
 20
-11.6463112633
 10
-10.8695420514
 20
-11.6445487848
 10
-10.8669987535
 20
-11.6427089847
 10
-10.8644949974
 20
-11.6407925071
 10
-10.8620360234
 20
-11.6388010455
 10
-10.8596270716
 20
-11.6367362934
 10
-10.8572733823
 20
-11.6345999442
 10
-10.8549801956
 20
-11.6323936916
 10
-10.8527521735
 20
-11.6301197111
 10
-10.8505916646
 20
-11.6277821072
 10
-10.8485004393
 20
-11.6253854665
 10
-10.846480268
 20
-11.6229343757
 10
-10.8445329209
 20
-11.6204334214
 10
-10.8426601685
 20
-11.6178871903
 10
-10.840862761
 20
-11.615298615
 10
-10.8391373687
 20
-11.6126640124
 10
-10.8374796418
 20
-11.6099780452
 10
-10.8358868666
 20
-11.6072379575
 10
-10.8343628752
 20
-11.6044513179
 10
-10.8329131356
 20
-11.6016282761
 10
-10.8312775899
 20
-11.5982050253
 10
-10.8297568705
 20
-11.5947504665
 10
-10.8283510071
 20
-11.5912710953
 10
-10.8270600292
 20
-11.5877734074
 10
-10.8258839664
 20
-11.5842638984
 10
-10.8248226056
 20
-11.5807482409
 10
-10.8238747636
 20
-11.5772288163
 10
-10.8230390144
 20
-11.5737071827
 10
-10.8223139323
 20
-11.5701848985
 10
-10.8216980912
 20
-11.566663522
 10
-10.8211906047
 20
-11.5631428139
 10
-10.8207927429
 20
-11.5596153453
 10
-10.8205063155
 20
-11.5560718897
 10
-10.8203331321
 20
-11.5525032204
 10
-10.8202750021
 20
-11.5489001112
  0
LINE
  5
2C1
100
AcDbEntity
  8
0
100
AcDbLine
 62
253
  6
CONTINUOUS
 10
-9.489950036
 20
-11.6663751112
 11
-8.2175498481
 21
-11.6663751112
  0
LINE
  5
2C2
100
AcDbEntity
  8
0
100
AcDbLine
 62
253
  6
CONTINUOUS
 10
-12.2096196889
 20
-11.6663975235
 11
-10.9374665141
 21
-11.6663751112
  0
LINE
  5
2C3
100
AcDbEntity
  8
0
100
AcDbLine
 62
253
  6
CONTINUOUS
 10
-8.2175498481
 20
-11.2753915002
 11
-9.489950036
 21
-11.2753915002
  0
LINE
  5
2C4
100
AcDbEntity
  8
0
100
AcDbLine
 62
253
  6
CONTINUOUS
 10
-10.9374665141
 20
-11.2753915002
 11
-12.2096196889
 21
-11.2754136959
  0
LINE
  5
2C5
100
AcDbEntity
  8
0
100
AcDbLine
 62
253
  6
CONTINUOUS
 10
-9.489950036
 20
-10.2587212226
 11
-7.981754519
 21
-10.2587212226
  0
LINE
  5
2C6
100
AcDbEntity
  8
0
100
AcDbLine
 62
253
  6
CONTINUOUS
 10
-12.2096196889
 20
-10.258742605
 11
-10.7019886162
 21
-10.2587212226
  0
LWPOLYLINE
  5
2C7
100
AcDbEntity
  8
0
100
AcDbPolyline
 62
253
  6
CONTINUOUS
 90
52
 70
0
 10
-14.4657746313
 20
-10.1803340004
 10
-14.4465202746
 20
-10.1805702929
 10
-14.4274375672
 20
-10.1812738721
 10
-14.408497148
 20
-10.1824367905
 10
-14.3896696563
 20
-10.1840511007
 10
-14.370925731
 20
-10.1861088551
 10
-14.347579887
 20
-10.1892953836
 10
-14.3243290549
 20
-10.1931639494
 10
-14.3011835503
 20
-10.197716126
 10
-14.2781536887
 20
-10.2029534871
 10
-14.2552564385
 20
-10.2088756512
 10
-14.2325353777
 20
-10.2154744178
 10
-14.2100407371
 20
-10.222739631
 10
-14.1878227473
 20
-10.2306611355
 10
-14.1659248308
 20
-10.2392285168
 10
-14.1443631775
 20
-10.2484303254
 10
-14.1231471688
 20
-10.2582548532
 10
-14.1022861863
 20
-10.2686903919
 10
-14.0817910074
 20
-10.2797199134
 10
-14.061677993
 20
-10.2913051096
 10
-14.0419648994
 20
-10.3034023526
 10
-14.0226694832
 20
-10.3159680145
 10
-14.0038131967
 20
-10.3289624239
 10
-13.9854322745
 20
-10.3423617357
 10
-13.967566647
 20
-10.3561460616
 10
-13.9502562445
 20
-10.370295513
 10
-13.9368323181
 20
-10.3818676303
 10
-13.9237965382
 20
-10.393668702
 10
-13.9111561521
 20
-10.4057067306
 10
-13.8989184067
 20
-10.4179897187
 10
-13.8870905493
 20
-10.4305256691
 10
-13.8756795189
 20
-10.4433167453
 10
-13.8646910225
 20
-10.4563417554
 10
-13.854130459
 20
-10.4695736683
 10
-13.8440032273
 20
-10.4829854531
 10
-13.8343147264
 20
-10.4965500789
 10
-13.8228251293
 20
-10.51368607
 10
-13.8120150643
 20
-10.5310045825
 10
-13.8018701113
 20
-10.5484915597
 10
-13.7923758497
 20
-10.5661329452
 10
-13.7835205309
 20
-10.5839087583
 10
-13.7753030925
 20
-10.6017753235
 10
-13.7677251438
 20
-10.6196830414
 10
-13.7607882941
 20
-10.6375823125
 10
-13.7544927916
 20
-10.6554342117
 10
-13.7488334411
 20
-10.6732425106
 10
-13.7438036861
 20
-10.6910216551
 10
-13.7393969704
 20
-10.708786091
 10
-13.7356067375
 20
-10.7265502643
 10
-13.7324264311
 20
-10.7443286208
 10
-13.7298494948
 20
-10.7621356064
 10
-13.7278693724
 20
-10.779985667
  0
LWPOLYLINE
  5
2C8
100
AcDbEntity
  8
0
100
AcDbPolyline
 62
253
  6
CONTINUOUS
 90
76
 70
0
 10
-12.2978119126
 20
12.2481432949
 10
-12.3026098907
 20
12.2895889085
 10
-12.3091191089
 20
12.3304351593
 10
-12.3173218824
 20
12.3707051547
 10
-12.3272005263
 20
12.410422002
 10
-12.3387373559
 20
12.4496088085
 10
-12.3519130919
 20
12.4882745683
 10
-12.3667020771
 20
12.5263718223
 10
-12.3830770598
 20
12.5638389983
 10
-12.4010107884
 20
12.6006145238
 10
-12.4204760111
 20
12.6366368266
 10
-12.4414454548
 20
12.6718505501
 10
-12.4638917604
 20
12.7062252005
 10
-12.487787547
 20
12.7397365001
 10
-12.5131054341
 20
12.7723601707
 10
-12.5398180409
 20
12.8040719345
 10
-12.5678983518
 20
12.8348507683
 10
-12.5973208114
 20
12.8646886678
 10
-12.6280602296
 20
12.8935808834
 10
-12.6600914161
 20
12.9215226659
 10
-12.6933891807
 20
12.9485092655
 10
-12.7279275929
 20
12.9745230572
 10
-12.7636777619
 20
12.9994949129
 10
-12.8006100563
 20
13.023342829
 10
-12.8386948452
 20
13.0459848016
 10
-12.8779024973
 20
13.0673388271
 10
-12.9181903067
 20
13.0873251718
 10
-12.9594632683
 20
13.1058731823
 10
-13.0016133022
 20
13.1229144751
 10
-13.0445323284
 20
13.1383806669
 10
-13.088112267
 20
13.1522033741
 10
-13.1322416043
 20
13.1643248969
 10
-13.1767950908
 20
13.1747302691
 10
-13.2216440433
 20
13.1834152081
 10
-13.2666597786
 20
13.1903754311
 10
-13.3117136135
 20
13.1956066556
 10
-13.3567047854
 20
13.1991051342
 10
-13.4016442155
 20
13.2008692621
 10
-13.4465707453
 20
13.2008979698
 10
-13.4915232168
 20
13.1991901877
 10
-13.5365404717
 20
13.1957448463
 10
-13.5816322111
 20
13.190562385
 10
-13.6266915735
 20
13.1836492779
 10
-13.671582557
 20
13.1750135081
 10
-13.7161691594
 20
13.1646630587
 10
-13.7603153787
 20
13.1526059126
 10
-13.8038901403
 20
13.138860398
 10
-13.8467820803
 20
13.1234862239
 10
-13.8888847624
 20
13.1065534443
 10
-13.9300917502
 20
13.0881321135
 10
-13.9702966074
 20
13.0682922854
 10
-14.0094069453
 20
13.0471049351
 10
-14.0473865652
 20
13.0246447213
 10
-14.0842133164
 20
13.0009872234
 10
-14.119865048
 20
12.9762080208
 10
-14.1543196089
 20
12.9503826932
 10
-14.1875553571
 20
12.9235739407
 10
-14.2195526851
 20
12.8957929465
 10
-14.2502924942
 20
12.8670380144
 10
-14.2797556855
 20
12.8373074483
 10
-14.3079231606
 20
12.806599552
 10
-14.3347725321
 20
12.7749174626
 10
-14.3602682594
 20
12.7422836502
 10
-14.3843715137
 20
12.7087254179
 10
-14.4070434657
 20
12.6742700692
 10
-14.4282452866
 20
12.6389449071
 10
-14.4479394584
 20
12.6027831906
 10
-14.4660937081
 20
12.5658420004
 10
-14.482677074
 20
12.5281843729
 10
-14.497658594
 20
12.4898733445
 10
-14.5110073065
 20
12.4509719515
 10
-14.5226938766
 20
12.4115287213
 10
-14.5326954787
 20
12.3715341462
 10
-14.540990914
 20
12.3309642094
 10
-14.5475589838
 20
12.2897948941
 10
-14.5523784895
 20
12.2480021837
  0
LWPOLYLINE
  5
2C9
100
AcDbEntity
  8
0
100
AcDbPolyline
 62
253
  6
CONTINUOUS
 90
55
 70
0
 10
-9.880651415
 20
-12.9565539997
 10
-9.8805950019
 20
-12.9601012069
 10
-9.880426855
 20
-12.9636157784
 10
-9.8801486127
 20
-12.9671067719
 10
-9.8797619136
 20
-12.9705832453
 10
-9.879268396
 20
-12.9740542566
 10
-9.8786692275
 20
-12.9775270254
 10
-9.877963692
 20
-12.9810014186
 10
-9.8771506024
 20
-12.9844754651
 10
-9.8762287716
 20
-12.9879471935
 10
-9.8751970125
 20
-12.9914146328
 10
-9.8740543121
 20
-12.9948751986
 10
-9.8728003539
 20
-12.9983238556
 10
-9.871434995
 20
-13.0017549553
 10
-9.8699580931
 20
-13.0051628494
 10
-9.8683695054
 20
-13.0085418893
 10
-9.8669610206
 20
-13.0113306929
 10
-9.8654793347
 20
-13.0140865874
 10
-9.8639289052
 20
-13.0168006236
 10
-9.8623126868
 20
-13.0194662069
 10
-9.8606276228
 20
-13.0220861601
 10
-9.858869154
 20
-13.0246656605
 10
-9.85703376
 20
-13.0272081648
 10
-9.8551220757
 20
-13.0297102484
 10
-9.8531357753
 20
-13.0321667662
 10
-9.8510765326
 20
-13.0345725733
 10
-9.8489460215
 20
-13.0369225246
 10
-9.8467459162
 20
-13.039211475
 10
-9.8444783917
 20
-13.0414348474
 10
-9.8421476288
 20
-13.0435903358
 10
-9.8397583091
 20
-13.0456762019
 10
-9.8373151147
 20
-13.0476907077
 10
-9.8348227274
 20
-13.0496321149
 10
-9.8322858289
 20
-13.0514986853
 10
-9.8297074404
 20
-13.0532897004
 10
-9.8270839391
 20
-13.0550085204
 10
-9.8244100415
 20
-13.0566595248
 10
-9.8216830103
 20
-13.0582454748
 10
-9.8189102927
 20
-13.0597626563
 10
-9.8161018823
 20
-13.0612057367
 10
-9.8126969357
 20
-13.0628336468
 10
-9.8092613889
 20
-13.0643471693
 10
-9.8058016489
 20
-13.0657463015
 10
-9.8023241226
 20
-13.0670310404
 10
-9.7988352169
 20
-13.0682013829
 10
-9.7953405405
 20
-13.0692575624
 10
-9.7918425093
 20
-13.070200756
 10
-9.788342741
 20
-13.0710323773
 10
-9.7848428532
 20
-13.0717538395
 10
-9.7813444636
 20
-13.0723665562
 10
-9.7778473818
 20
-13.0728714097
 10
-9.7743441845
 20
-13.0732671587
 10
-9.7708256401
 20
-13.0735520308
 10
-9.7672825173
 20
-13.0737242538
 10
-9.7637055846
 20
-13.0737820553
  0
LWPOLYLINE
  5
2CA
100
AcDbEntity
  8
0
100
AcDbPolyline
 62
253
  6
CONTINUOUS
 90
55
 70
0
 10
-9.2172153245
 20
13.0059805169
 10
-9.2172715968
 20
13.0095314259
 10
-9.2174393391
 20
13.0130493467
 10
-9.2177169396
 20
13.0165434363
 10
-9.2181027866
 20
13.0200228512
 10
-9.2185952681
 20
13.0234967482
 10
-9.2191932433
 20
13.0269724197
 10
-9.2198974548
 20
13.030449701
 10
-9.2207091161
 20
13.033926563
 10
-9.2216294407
 20
13.0374009768
 10
-9.2226596422
 20
13.0408709133
 10
-9.2238007637
 20
13.044333739
 10
-9.2250531674
 20
13.0477844016
 10
-9.2264170453
 20
13.0512172445
 10
-9.2278925893
 20
13.0546266109
 10
-9.2294799913
 20
13.0580068441
 10
-9.2308876605
 20
13.0607964292
 10
-9.2323687445
 20
13.0635529395
 10
-9.233918846
 20
13.0662674602
 10
-9.2355350679
 20
13.0689334122
 10
-9.2372205155
 20
13.0715535612
 10
-9.2389797948
 20
13.0741330092
 10
-9.240816466
 20
13.0766751515
 10
-9.2427299065
 20
13.0791765587
 10
-9.2447184482
 20
13.081632095
 10
-9.2467804229
 20
13.0840366248
 10
-9.2489141623
 20
13.0863850122
 10
-9.2511179982
 20
13.0886721216
 10
-9.2533897522
 20
13.0908933941
 10
-9.2557252056
 20
13.093046579
 10
-9.2581196291
 20
13.0951300025
 10
-9.2605682939
 20
13.0971419909
 10
-9.2630664709
 20
13.0990808703
 10
-9.2656094311
 20
13.1009449671
 10
-9.2681941126
 20
13.1027336088
 10
-9.2708241225
 20
13.1044501295
 10
-9.2735047351
 20
13.1060988643
 10
-9.2762386902
 20
13.1076825514
 10
-9.2790185898
 20
13.10919754
 10
-9.2818345014
 20
13.1106385818
 10
-9.2852489486
 20
13.1122643435
 10
-9.2886946005
 20
13.1137760588
 10
-9.2921651073
 20
13.1151737217
 10
-9.2956541192
 20
13.1164573265
 10
-9.2991552862
 20
13.1176268672
 10
-9.3026630326
 20
13.1186825653
 10
-9.3061748791
 20
13.1196255512
 10
-9.3096891204
 20
13.1204571826
 10
-9.3132040512
 20
13.1211788175
 10
-9.3167179663
 20
13.1217918134
 10
-9.3202309986
 20
13.122296999
 10
-9.323750633
 20
13.1226930855
 10
-9.3272861925
 20
13.1229782552
 10
-9.3308470004
 20
13.1231506901
 10
-9.3344423797
 20
13.1232085724
  0
LINE
  5
2CB
100
AcDbEntity
  8
0
100
AcDbLine
 62
253
  6
CONTINUOUS
 10
-10.5844783415
 20
-10.1412109449
 11
-10.5844783415
 21
-9.9852126069
  0
LINE
  5
2CC
100
AcDbEntity
  8
0
100
AcDbLine
 62
253
  6
CONTINUOUS
 10
-9.880651415
 20
-9.9852126116
 11
-9.880651415
 21
-12.9565540178
  0
LINE
  5
2CD
100
AcDbEntity
  8
0
100
AcDbLine
 62
253
  6
CONTINUOUS
 10
-9.6079519812
 20
13.0059805169
 11
-9.6079519812
 21
10.9397611278
  0
LINE
  5
2CE
100
AcDbEntity
  8
0
100
AcDbLine
 62
253
  6
CONTINUOUS
 10
-9.489950036
 20
-12.9565539997
 11
-9.489950036
 21
-11.6663750882
  0
LINE
  5
2CF
100
AcDbEntity
  8
0
100
AcDbLine
 62
253
  6
CONTINUOUS
 10
-9.489950036
 20
-11.2753915002
 11
-9.489950036
 21
-10.258721177
  0
LINE
  5
2D0
100
AcDbEntity
  8
0
100
AcDbLine
 62
253
  6
CONTINUOUS
 10
-9.2172153245
 20
10.0341099621
 11
-9.2172153245
 21
13.0059804409
  0
LINE
  5
2D1
100
AcDbEntity
  8
ASSI
100
AcDbLine
 62
253
  6
CONTINUOUS
 10
-22.5503491985
 20
-21.5119825338
 11
-22.6433253513
 21
-21.6980624348
  0
LINE
  5
2D2
100
AcDbEntity
  8
ASSI
100
AcDbLine
 62
253
  6
CONTINUOUS
 10
-22.050520536
 20
-22.0112973012
 11
-22.1426989297
 21
-22.1957805891
  0
LWPOLYLINE
  5
2D3
100
AcDbEntity
  8
0
100
AcDbPolyline
 62
253
  6
CONTINUOUS
 90
55
 70
0
 10
-7.981754519
 20
-10.2587212226
 10
-7.9782204145
 20
-10.2586645672
 10
-7.9747182701
 20
-10.2584956915
 10
-7.9712390855
 20
-10.2582162308
 10
-7.9677738605
 20
-10.2578278206
 10
-7.9643135951
 20
-10.2573320962
 10
-7.9608511172
 20
-10.2567302264
 10
-7.9573865677
 20
-10.2560215126
 10
-7.9539219159
 20
-10.2552047895
 10
-7.9504591308
 20
-10.2542788919
 10
-7.9470001815
 20
-10.2532426544
 10
-7.9435476417
 20
-10.252095086
 10
-7.9401065025
 20
-10.2508358924
 10
-7.9366823595
 20
-10.2494649535
 10
-7.9332808084
 20
-10.2479821493
 10
-7.9299074447
 20
-10.2463873598
 10
-7.9271228157
 20
-10.2449734889
 10
-7.9243705161
 20
-10.2434862062
 10
-7.9216594144
 20
-10.2419299509
 10
-7.9189960412
 20
-10.2403076579
 10
-7.9163775727
 20
-10.2386162458
 10
-7.9137988468
 20
-10.2368511289
 10
-7.9112564275
 20
-10.2350087704
 10
-7.9087537832
 20
-10.2330898293
 10
-7.9062961083
 20
-10.2310960136
 10
-7.9038885971
 20
-10.229029031
 10
-7.9015364442
 20
-10.2268905896
 10
-7.8992448439
 20
-10.2246823971
 10
-7.897018417
 20
-10.2224066435
 10
-7.8948594898
 20
-10.2200674461
 10
-7.892769815
 20
-10.2176694042
 10
-7.8907511451
 20
-10.215217117
 10
-7.8888052329
 20
-10.212715184
 10
-7.8869338309
 20
-10.2101682043
 10
-7.8851376788
 20
-10.2075791212
 10
-7.8834134634
 20
-10.2049442542
 10
-7.8817568588
 20
-10.2022582666
 10
-7.8801651679
 20
-10.1995183981
 10
-7.87864221
 20
-10.1967321942
 10
-7.8771934333
 20
-10.1939097767
 10
-7.8755589287
 20
-10.1904874889
 10
-7.8740391279
 20
-10.1870341007
 10
-7.8726340679
 20
-10.1835560837
 10
-7.8713437859
 20
-10.1800599094
 10
-7.8701683191
 20
-10.1765520495
 10
-7.8691074627
 20
-10.173038156
 10
-7.8681600434
 20
-10.1695206025
 10
-7.8673246462
 20
-10.1660009433
 10
-7.8665998559
 20
-10.1624807323
 10
-7.8659842572
 20
-10.1589615236
 10
-7.8654769721
 20
-10.1554430796
 10
-7.865079271
 20
-10.151917996
 10
-7.864792961
 20
-10.1483770764
 10
-7.8646198496
 20
-10.1448111247
 10
-7.8645617442
 20
-10.1412109449
  0
LWPOLYLINE
  5
2D4
100
AcDbEntity
  8
0
100
AcDbPolyline
 62
253
  6
CONTINUOUS
 90
55
 70
0
 10
-12.4833752375
 20
-9.8677376116
 10
-12.4869244918
 20
-9.8677948967
 10
-12.4904414831
 20
-9.8679656088
 10
-12.4939351229
 20
-9.868248033
 10
-12.4974143229
 20
-9.8686404545
 10
-12.5008879947
 20
-9.8691411585
 10
-12.5043632512
 20
-9.8697489044
 10
-12.5078400122
 20
-9.8704643489
 10
-12.5113163987
 20
-9.8712886229
 10
-12.5147905317
 20
-9.8722228574
 10
-12.5182605324
 20
-9.8732681833
 10
-12.5217238935
 20
-9.8744255483
 10
-12.5251755944
 20
-9.8756951668
 10
-12.5286099858
 20
-9.8770770697
 10
-12.5320214189
 20
-9.8785712882
 10
-12.5354042445
 20
-9.8801778531
 10
-12.5381963832
 20
-9.8816017283
 10
-12.5409557387
 20
-9.8830990321
 10
-12.5436733171
 20
-9.8846651533
 10
-12.5463424916
 20
-9.8862969994
 10
-12.548966104
 20
-9.887997554
 10
-12.5515493635
 20
-9.8897713194
 10
-12.554095763
 20
-9.8916217556
 10
-12.556601931
 20
-9.8935481526
 10
-12.5590627799
 20
-9.8955487582
 10
-12.5614732222
 20
-9.89762182
 10
-12.5638281702
 20
-9.8997655857
 10
-12.5661225363
 20
-9.901978303
 10
-12.5683517843
 20
-9.9042577447
 10
-12.5705135831
 20
-9.906599785
 10
-12.572606153
 20
-9.9089998232
 10
-12.5746277142
 20
-9.9114532584
 10
-12.576576487
 20
-9.91395549
 10
-12.5784506917
 20
-9.9165019174
 10
-12.580249567
 20
-9.9190895975
 10
-12.5819764254
 20
-9.9217222188
 10
-12.5836355981
 20
-9.9244051276
 10
-12.5852297807
 20
-9.9271410935
 10
-12.586755127
 20
-9.9299225797
 10
-12.5882061556
 20
-9.9327394729
 10
-12.589843143
 20
-9.9361540768
 10
-12.5913651698
 20
-9.9395986328
 10
-12.5927721865
 20
-9.9430666698
 10
-12.5940641435
 20
-9.9465517171
 10
-12.5952409911
 20
-9.9500473036
 10
-12.5963029293
 20
-9.9535477929
 10
-12.5972511554
 20
-9.9570508863
 10
-12.5980871162
 20
-9.9605551199
 10
-12.5988122587
 20
-9.9640590295
 10
-12.5994280295
 20
-9.9675611511
 10
-12.599935342
 20
-9.9710617718
 10
-12.6003329742
 20
-9.9745681843
 10
-12.6006191707
 20
-9.9780894325
 10
-12.600792176
 20
-9.9816345603
 10
-12.6008502345
 20
-9.9852126116
  0
LWPOLYLINE
  5
2D5
100
AcDbEntity
  8
0
100
AcDbPolyline
 62
253
  6
CONTINUOUS
 90
55
 70
0
 10
-10.7019886162
 20
-10.2587212226
 10
-10.6984362905
 20
-10.2586646373
 10
-10.6949165429
 20
-10.2584959687
 10
-10.6914202787
 20
-10.2582168477
 10
-10.6879384033
 20
-10.2578289051
 10
-10.6844618222
 20
-10.2573337718
 10
-10.6809832889
 20
-10.2567326082
 10
-10.6775029504
 20
-10.2560246932
 10
-10.674022802
 20
-10.2552088355
 10
-10.670544839
 20
-10.2542838434
 10
-10.6670710567
 20
-10.2532485255
 10
-10.6636040589
 20
-10.252101864
 10
-10.6601488844
 20
-10.2508435354
 10
-10.6567111803
 20
-10.2494733899
 10
-10.653296594
 20
-10.2479912777
 10
-10.6499107726
 20
-10.2463970489
 10
-10.6471162465
 20
-10.2449835273
 10
-10.6443545504
 20
-10.2434964867
 10
-10.6416346171
 20
-10.2419403708
 10
-10.6389630303
 20
-10.2403181172
 10
-10.6363369777
 20
-10.2386266395
 10
-10.6337512978
 20
-10.2368613451
 10
-10.6312025517
 20
-10.2350186885
 10
-10.6286941894
 20
-10.2330993119
 10
-10.6262313833
 20
-10.2311049042
 10
-10.6238193056
 20
-10.2290371545
 10
-10.6214631288
 20
-10.2268977518
 10
-10.6191680252
 20
-10.2246883852
 10
-10.6169385929
 20
-10.2224112419
 10
-10.6147771333
 20
-10.2200705012
 10
-10.6126853737
 20
-10.2176708409
 10
-10.6106650411
 20
-10.2152169384
 10
-10.6087178629
 20
-10.2127134714
 10
-10.6068455661
 20
-10.2101651175
 10
-10.6050488641
 20
-10.2075748892
 10
-10.6033244141
 20
-10.2049391392
 10
-10.6016678594
 20
-10.2022525552
 10
-10.6000764634
 20
-10.1995123842
 10
-10.5985539687
 20
-10.1967261112
 10
-10.597105738
 20
-10.1939037807
 10
-10.5954718988
 20
-10.190481709
 10
-10.5939527396
 20
-10.187028605
 10
-10.5925482783
 20
-10.1835508951
 10
-10.5912585324
 20
-10.1800550059
 10
-10.5900835198
 20
-10.1765473637
 10
-10.5890230221
 20
-10.1730335946
 10
-10.5880758768
 20
-10.1695161219
 10
-10.5872406855
 20
-10.1659965681
 10
-10.5865160496
 20
-10.162476556
 10
-10.5859005705
 20
-10.1589577083
 10
-10.585393384
 20
-10.1554398334
 10
-10.5849957619
 20
-10.1519154826
 10
-10.5847095101
 20
-10.1483753929
 10
-10.5845364347
 20
-10.1448103013
 10
-10.5844783415
 20
-10.1412109449
  0
LWPOLYLINE
  5
2D6
100
AcDbEntity
  8
0
100
AcDbPolyline
 62
253
  6
CONTINUOUS
 90
54
 70
0
 10
-9.7637055846
 20
-9.8677376116
 10
-9.7668651071
 20
-9.8677831474
 10
-9.7699865124
 20
-9.8679186764
 10
-9.7730759276
 20
-9.8681425812
 10
-9.7761394795
 20
-9.868453244
 10
-9.7791832951
 20
-9.8688490475
 10
-9.7822135014
 20
-9.8693283739
 10
-9.7852362251
 20
-9.8698896058
 10
-9.788759601
 20
-9.8706465114
 10
-9.7922797483
 20
-9.8715147717
 10
-9.7957952836
 20
-9.8724964604
 10
-9.7993048234
 20
-9.8735936515
 10
-9.8028069841
 20
-9.8748084188
 10
-9.8063003822
 20
-9.8761428362
 10
-9.8097823895
 20
-9.8775982943
 10
-9.8132453981
 20
-9.8791734496
 10
-9.8166805558
 20
-9.8808662757
 10
-9.8200790099
 20
-9.8826747457
 10
-9.823431908
 20
-9.8845968332
 10
-9.8267303977
 20
-9.8866305114
 10
-9.8295080814
 20
-9.8884610411
 10
-9.8322362439
 20
-9.8903713672
 10
-9.8349118416
 20
-9.8923607902
 10
-9.8375318308
 20
-9.8944286104
 10
-9.8400931677
 20
-9.8965741283
 10
-9.8425928087
 20
-9.8987966441
 10
-9.8450277102
 20
-9.9010954583
 10
-9.8473950811
 20
-9.9034695681
 10
-9.8496931424
 20
-9.9059167577
 10
-9.8519203675
 20
-9.9084345082
 10
-9.8540752301
 20
-9.9110203008
 10
-9.8561562037
 20
-9.9136716164
 10
-9.858161762
 20
-9.9163859361
 10
-9.8600903785
 20
-9.9191607411
 10
-9.8619404988
 20
-9.9219930895
 10
-9.8637104561
 20
-9.9248783477
 10
-9.8653985553
 20
-9.9278114593
 10
-9.8670031017
 20
-9.9307873679
 10
-9.8685224003
 20
-9.9338010169
 10
-9.8699547561
 20
-9.9368473501
 10
-9.8712984744
 20
-9.9399213108
 10
-9.8727524226
 20
-9.9435367891
 10
-9.8740841237
 20
-9.9471810696
 10
-9.8752942834
 20
-9.9508522326
 10
-9.8763836069
 20
-9.9545483587
 10
-9.8773528001
 20
-9.958267528
 10
-9.8782025682
 20
-9.9620078211
 10
-9.8788358945
 20
-9.9652303889
 10
-9.8793792704
 20
-9.9684733251
 10
-9.8798299679
 20
-9.9717428892
 10
-9.880185259
 20
-9.9750453405
 10
-9.8804424159
 20
-9.9783869384
 10
-9.8805987106
 20
-9.9817739423
 10
-9.880651415
 20
-9.9852126116
  0
LINE
  5
2D7
100
AcDbEntity
  8
0
100
AcDbLine
 62
253
  6
CONTINUOUS
 10
-7.981754519
 20
-9.8677376116
 11
-9.7637055846
 21
-9.8677376116
  0
LINE
  5
2D8
100
AcDbEntity
  8
0
100
AcDbLine
 62
253
  6
CONTINUOUS
 10
-10.7019886162
 20
-9.8677376116
 11
-12.4833752375
 21
-9.8677652201
  0
LINE
  5
2D9
100
AcDbEntity
  8
ASSI
100
AcDbLine
 62
253
  6
CONTINUOUS
 10
-22.6433253513
 20
21.7242469735
 11
-22.5503491959
 21
21.5381670671
  0
LINE
  5
2DA
100
AcDbEntity
  8
ASSI
100
AcDbLine
 62
253
  6
CONTINUOUS
 10
-22.1426989297
 20
22.2219651278
 11
-22.0505205334
 21
22.0374818345
  0
LWPOLYLINE
  5
2DB
100
AcDbEntity
  8
0
100
AcDbPolyline
 62
253
  6
CONTINUOUS
 90
55
 70
0
 10
-8.1000748482
 20
-11.3928665001
 10
-8.1001314127
 20
-11.3893141214
 10
-8.1003000178
 20
-11.3857943682
 10
-8.1005790312
 20
-11.3822981462
 10
-8.1009668206
 20
-11.3788163607
 10
-8.1014617536
 20
-11.3753399172
 10
-8.1020626687
 20
-11.3718615693
 10
-8.1027702876
 20
-11.3683814633
 10
-8.1035858029
 20
-11.3649015935
 10
-8.1045104072
 20
-11.3614239543
 10
-8.105545293
 20
-11.3579505401
 10
-8.1066914796
 20
-11.3544839542
 10
-8.1079492936
 20
-11.3510292364
 10
-8.1093188882
 20
-11.3475920353
 10
-8.1108004166
 20
-11.3441779997
 10
-8.1123940322
 20
-11.3407927783
 10
-8.1138070228
 20
-11.3379987909
 10
-8.1152935165
 20
-11.3352376701
 10
-8.1168490715
 20
-11.3325183502
 10
-8.1184707518
 20
-11.3298474166
 10
-8.1201616451
 20
-11.3272220598
 10
-8.1219263447
 20
-11.324637122
 10
-8.1237683974
 20
-11.3220891661
 10
-8.1256871647
 20
-11.3195816392
 10
-8.1276809613
 20
-11.3171197095
 10
-8.1297481023
 20
-11.3147085451
 10
-8.1318869024
 20
-11.3123533143
 10
-8.1340956766
 20
-11.310059185
 10
-8.1363722397
 20
-11.3078307514
 10
-8.1387124067
 20
-11.305670311
 10
-8.1411114923
 20
-11.3035795871
 10
-8.1435648113
 20
-11.3015603032
 10
-8.1460676787
 20
-11.2996141827
 10
-8.1486154093
 20
-11.2977429488
 10
-8.1512049834
 20
-11.2959473117
 10
-8.1538400436
 20
-11.2942239271
 10
-8.1565258981
 20
-11.2925684376
 10
-8.1592652983
 20
-11.2909781034
 10
-8.1620507685
 20
-11.2894566553
 10
-8.1648722762
 20
-11.2880094419
 10
-8.1682933487
 20
-11.2863767682
 10
-8.1717454481
 20
-11.2848587082
 10
-8.1752221538
 20
-11.2834552759
 10
-8.1787170453
 20
-11.2821664852
 10
-8.1822237021
 20
-11.2809923502
 10
-8.1857365013
 20
-11.2799326495
 10
-8.1892530111
 20
-11.2789862206
 10
-8.1927715972
 20
-11.2781516658
 10
-8.1962906253
 20
-11.2774275871
 10
-8.1998084612
 20
-11.276812587
 10
-8.2033252889
 20
-11.2763058007
 10
-8.2068485659
 20
-11.2759084971
 10
-8.2103875676
 20
-11.2756224778
 10
-8.2139515698
 20
-11.2754495449
 10
-8.2175498481
 20
-11.2753915002
  0
LWPOLYLINE
  5
2DC
100
AcDbEntity
  8
0
100
AcDbPolyline
 62
253
  6
CONTINUOUS
 90
55
 70
0
 10
-7.8645617442
 20
-9.9852126116
 10
-7.8646185427
 20
-9.9816539745
 10
-7.8647878218
 20
-9.9781282417
 10
-7.8650679069
 20
-9.974626365
 10
-7.8654571233
 20
-9.9711392963
 10
-7.8659537965
 20
-9.9676579873
 10
-7.8665567269
 20
-9.964175222
 10
-7.8672666157
 20
-9.9606911122
 10
-7.8680846391
 20
-9.957207602
 10
-7.8690119732
 20
-9.9537266355
 10
-7.8700497943
 20
-9.9502501567
 10
-7.8711991004
 20
-9.9467807325
 10
-7.872460177
 20
-9.9433234219
 10
-7.8738331314
 20
-9.9398839068
 10
-7.8753180708
 20
-9.9364678691
 10
-7.8769151025
 20
-9.9330809907
 10
-7.8783308994
 20
-9.9302859187
 10
-7.8798200767
 20
-9.9275240479
 10
-7.8813780988
 20
-9.9248043841
 10
-7.8830019411
 20
-9.9221335701
 10
-7.8846946257
 20
-9.9195087952
 10
-7.886460686
 20
-9.9169248857
 10
-7.888303616
 20
-9.9143783777
 10
-7.8902227515
 20
-9.9118726474
 10
-7.8922163891
 20
-9.9094127811
 10
-7.8942828251
 20
-9.9070038649
 10
-7.896420356
 20
-9.9046509851
 10
-7.8986272782
 20
-9.9023592278
 10
-7.9009013895
 20
-9.9001331198
 10
-7.9032384929
 20
-9.8979749498
 10
-7.9056338929
 20
-9.8958864471
 10
-7.9080828939
 20
-9.8938693411
 10
-7.9105808003
 20
-9.891925361
 10
-7.9131229165
 20
-9.8900562361
 10
-7.915706212
 20
-9.888262681
 10
-7.9183343165
 20
-9.8865413521
 10
-7.9210125247
 20
-9.884887891
 10
-7.9237435847
 20
-9.8832995547
 10
-7.926520058
 20
-9.8817800625
 10
-7.9293319593
 20
-9.8803347491
 10
-7.9327407566
 20
-9.8787042664
 10
-7.9361797969
 20
-9.8771882994
 10
-7.9396426856
 20
-9.8757868643
 10
-7.9431230282
 20
-9.8744999775
 10
-7.9466144299
 20
-9.8733276554
 10
-7.9501112964
 20
-9.8722696766
 10
-7.953611234
 20
-9.8713248694
 10
-7.9571126492
 20
-9.8704918241
 10
-7.9606139484
 20
-9.8697691314
 10
-7.9641135381
 20
-9.8691553817
 10
-7.9676116205
 20
-9.8686496949
 10
-7.9711155798
 20
-9.8682533081
 10
-7.974634596
 20
-9.8679679876
 10
-7.9781778491
 20
-9.8677955
 10
-7.981754519
 20
-9.8677376116
  0
LINE
  5
2DD
100
AcDbEntity
  8
0
100
AcDbLine
 62
253
  6
CONTINUOUS
 10
-8.1000748482
 20
-11.5489001112
 11
-8.1000748482
 21
-11.3928665058
  0
LINE
  5
2DE
100
AcDbEntity
  8
0
100
AcDbLine
 62
253
  6
CONTINUOUS
 10
-7.8645617442
 20
-10.1412109449
 11
-7.8645617442
 21
-9.9852126069
  0
LINE
  5
2DF
100
AcDbEntity
  8
ASSI
100
AcDbLine
 62
253
  6
CONTINUOUS
 10
-22.6630532594
 20
0.7129970871
 11
-22.5211743142
 21
0.760280464
  0
LINE
  5
2E0
100
AcDbEntity
  8
ASSI
100
AcDbLine
 62
253
  6
CONTINUOUS
 10
-22.1629961194
 20
0.2130922693
 11
-22.0213456516
 21
0.2602995025
  0
LINE
  5
2E1
100
AcDbEntity
  8
ASSI
100
AcDbLine
 62
253
  6
CONTINUOUS
 10
-22.5211743143
 20
-0.7340959253
 11
-22.6630532594
 21
-0.6868125485
  0
LINE
  5
2E2
100
AcDbEntity
  8
ASSI
100
AcDbLine
 62
253
  6
CONTINUOUS
 10
-22.0213456516
 20
-0.2341149638
 11
-22.1629961194
 21
-0.1869077307
  0
LINE
  5
2E3
100
AcDbEntity
  8
ASSI
100
AcDbLine
 62
7
  6
CONTINUOUS
 10
19.1123168641
 20
-0.2218152018
 11
19.4622715182
 21
-0.1869077307
  0
LINE
  5
2E4
100
AcDbEntity
  8
ASSI
100
AcDbLine
 62
7
  6
CONTINUOUS
 10
-19.8876831359
 20
-0.2218152018
 11
-20.23763779
 21
-0.1869077307
  0
LWPOLYLINE
  5
2E5
100
AcDbEntity
  8
0
100
AcDbPolyline
 62
253
  6
CONTINUOUS
 90
41
 70
0
 10
-9.6164539254
 20
9.9703630177
 10
-9.6149985467
 20
9.9682019105
 10
-9.6134963041
 20
9.9660926085
 10
-9.6119459545
 20
9.9640311519
 10
-9.6103462549
 20
9.9620135809
 10
-9.6086959621
 20
9.9600359359
 10
-9.6069938329
 20
9.9580942571
 10
-9.6052386243
 20
9.9561845847
 10
-9.6031225174
 20
9.9539930779
 10
-9.6009327859
 20
9.9518411045
 10
-9.5986697444
 20
9.9497300233
 10
-9.5963337075
 20
9.9476611929
 10
-9.5939249896
 20
9.945635972
 10
-9.5914439053
 20
9.9436557194
 10
-9.5888913059
 20
9.9417221275
 10
-9.5862701903
 20
9.9398382228
 10
-9.5835840939
 20
9.9380073657
 10
-9.5808365524
 20
9.9362329164
 10
-9.5780311014
 20
9.9345182353
 10
-9.5751712765
 20
9.9328666827
 10
-9.5722606185
 20
9.9312814926
 10
-9.5693026888
 20
9.9297653951
 10
-9.566301054
 20
9.9283209939
 10
-9.5632592809
 20
9.9269508929
 10
-9.5601809359
 20
9.9256576958
 10
-9.5570695858
 20
9.9244440065
 10
-9.5543789557
 20
9.9234688748
 10
-9.5516677874
 20
9.9225552179
 10
-9.5489371709
 20
9.9217041838
 10
-9.5461881964
 20
9.9209169204
 10
-9.5434219538
 20
9.9201945756
 10
-9.5406395332
 20
9.9195382975
 10
-9.5378420248
 20
9.918949234
 10
-9.5353821231
 20
9.9184900634
 10
-9.5329088632
 20
9.9180853256
 10
-9.5304196038
 20
9.9177371135
 10
-9.5279117037
 20
9.9174475197
 10
-9.5253825217
 20
9.9172186372
 10
-9.5228294166
 20
9.9170525586
 10
-9.5202497473
 20
9.9169513767
 10
-9.5176408724
 20
9.9169171843
  0
LINE
  5
2E6
100
AcDbEntity
  8
0
100
AcDbLine
 62
253
  6
CONTINUOUS
 10
-11.0277061116
 20
12.1432977393
 11
-9.6164539254
 21
9.9703630177
  0
LINE
  5
2E7
100
AcDbEntity
  8
0
100
AcDbLine
 62
253
  6
CONTINUOUS
 10
-9.7508975331
 20
10.8964046841
 11
-11.1626083304
 21
13.0698685724
  0
LINE
  5
2E8
100
AcDbEntity
  8
ASSI
100
AcDbLine
 62
253
  6
CONTINUOUS
 10
21.7458080425
 20
-0.7340959253
 11
21.7421735948
 21
-0.734170876
  0
LINE
  5
2E9
100
AcDbEntity
  8
ASSI
100
AcDbLine
 62
253
  6
CONTINUOUS
 10
21.7421735948
 20
-0.734170876
 11
21.7209073239
 21
-0.7343179492
  0
LINE
  5
2EA
100
AcDbEntity
  8
ASSI
100
AcDbLine
 62
253
  6
CONTINUOUS
 10
21.7209073239
 20
-0.7343179492
 11
10.8605785189
 21
-0.7389115957
  0
LINE
  5
2EB
100
AcDbEntity
  8
ASSI
100
AcDbLine
 62
253
  6
CONTINUOUS
 10
21.2459793797
 20
-0.2341149638
 11
14.3340876949
 21
-0.2375572453
  0
LINE
  5
2EC
100
AcDbEntity
  8
ASSI
100
AcDbLine
 62
253
  6
CONTINUOUS
 10
-22.0213456516
 20
0.2602995025
 11
-13.9529021324
 21
0.2639819952
  0
LINE
  5
2ED
100
AcDbEntity
  8
ASSI
100
AcDbLine
 62
253
  6
CONTINUOUS
 10
10.8605785189
 20
-0.7389120662
 11
-11.6359447773
 21
-0.7389120662
  0
LINE
  5
2EE
100
AcDbEntity
  8
ASSI
100
AcDbLine
 62
253
  6
CONTINUOUS
 10
14.3340876949
 20
-0.2375572453
 11
10.8605878873
 21
-0.2379911088
  0
LINE
  5
2EF
100
AcDbEntity
  8
ASSI
100
AcDbLine
 62
7
  6
CONTINUOUS
 10
10.8605878873
 20
-0.2379911088
 11
-11.6359541591
 21
-0.2379911088
  0
LINE
  5
2F0
100
AcDbEntity
  8
ASSI
100
AcDbLine
 62
7
  6
CONTINUOUS
 10
19.1123168641
 20
-0.2218152018
 11
-19.8876831359
 21
-0.2218152018
  0
LINE
  5
2F1
100
AcDbEntity
  8
ASSI
100
AcDbLine
 62
7
  6
CONTINUOUS
 10
21.3876298476
 20
-0.1869077307
 11
19.4622715182
 21
-0.1869077307
  0
LINE
  5
2F2
100
AcDbEntity
  8
ASSI
100
AcDbLine
 62
7
  6
CONTINUOUS
 10
-20.23763779
 20
-0.1869077307
 11
-22.1629961194
 21
-0.1869077307
  0
LINE
  5
2F3
100
AcDbEntity
  8
ASSI
100
AcDbLine
 62
7
  6
CONTINUOUS
 10
-22.1629961194
 20
0.2130922693
 11
-20.23763779
 21
0.2130922693
  0
LINE
  5
2F4
100
AcDbEntity
  8
ASSI
100
AcDbLine
 62
7
  6
CONTINUOUS
 10
19.4622715182
 20
0.2130922693
 11
21.3876298476
 21
0.2130922693
  0
LINE
  5
2F5
100
AcDbEntity
  8
ASSI
100
AcDbLine
 62
7
  6
CONTINUOUS
 10
-19.8876831359
 20
0.2479997405
 11
19.1123168641
 21
0.2479997405
  0
LINE
  5
2F6
100
AcDbEntity
  8
ASSI
100
AcDbLine
 62
7
  6
CONTINUOUS
 10
-11.6359541591
 20
0.2641756475
 11
10.8605878873
 21
0.2641756475
  0
LINE
  5
2F7
100
AcDbEntity
  8
ASSI
100
AcDbLine
 62
253
  6
CONTINUOUS
 10
-13.9529021324
 20
0.2639819952
 11
-11.6359541591
 21
0.2641756475
  0
LINE
  5
2F8
100
AcDbEntity
  8
ASSI
100
AcDbLine
 62
253
  6
CONTINUOUS
 10
-11.6359447773
 20
-0.7389115957
 11
-22.2055278444
 21
-0.7348056825
  0
LINE
  5
2F9
100
AcDbEntity
  8
ASSI
100
AcDbLine
 62
253
  6
CONTINUOUS
 10
-11.6359541591
 20
-0.2379911088
 11
-19.7227490456
 21
-0.2356419085
  0
LINE
  5
2FA
100
AcDbEntity
  8
ASSI
100
AcDbLine
 62
253
  6
CONTINUOUS
 10
10.8605878873
 20
0.2641756475
 11
17.7960741906
 21
0.2624475998
  0
LINE
  5
2FB
100
AcDbEntity
  8
ASSI
100
AcDbLine
 62
253
  6
CONTINUOUS
 10
-19.7227490456
 20
-0.2356419085
 11
-22.0213456516
 21
-0.2341149638
  0
LINE
  5
2FC
100
AcDbEntity
  8
ASSI
100
AcDbLine
 62
253
  6
CONTINUOUS
 10
17.7960741906
 20
0.2624475998
 11
21.2459793798
 21
0.2602995025
  0
LINE
  5
2FD
100
AcDbEntity
  8
ASSI
100
AcDbLine
 62
253
  6
CONTINUOUS
 10
-22.2055278444
 20
-0.7348056825
 11
-22.4962735957
 21
-0.734317959
  0
LWPOLYLINE
  5
2FE
100
AcDbEntity
  8
ASSI
100
AcDbPolyline
 62
253
  6
CONTINUOUS
 90
3
 70
0
 10
-22.4962735957
 20
-0.734317959
 10
-22.5175398666
 20
-0.7341708793
 10
-22.5211743143
 20
-0.7340959253
  0
LWPOLYLINE
  5
2FF
100
AcDbEntity
  8
0
100
AcDbPolyline
 62
253
  6
CONTINUOUS
 90
41
 70
0
 10
-11.1626083304
 20
13.0698685724
 10
-11.164078333
 20
13.0720609557
 10
-11.1655954346
 20
13.074197937
 10
-11.1671606904
 20
13.0762836232
 10
-11.1687751556
 20
13.078322121
 10
-11.1704398857
 20
13.0803175375
 10
-11.1721559357
 20
13.0822739795
 10
-11.1739243609
 20
13.0841955539
 10
-11.176054635
 20
13.0863974529
 10
-11.1782563522
 20
13.0885559161
 10
-11.1805282306
 20
13.0906693766
 10
-11.1828689884
 20
13.0927362674
 10
-11.1852773438
 20
13.0947550215
 10
-11.187752015
 20
13.096724072
 10
-11.1902914811
 20
13.0986417315
 10
-11.192893265
 20
13.1005058317
 10
-11.1955546504
 20
13.1023140839
 10
-11.1982729209
 20
13.1040641993
 10
-11.2010453604
 20
13.1057538893
 10
-11.2038692526
 20
13.1073808651
 10
-11.2067419446
 20
13.1089428346
 10
-11.2096610368
 20
13.1104374909
 10
-11.212624193
 20
13.1118625241
 10
-11.2156290772
 20
13.1132156238
 10
-11.218673353
 20
13.11449448
 10
-11.2217546844
 20
13.1156967823
 10
-11.2244235419
 20
13.1166646435
 10
-11.2271164003
 20
13.1175730975
 10
-11.2298317525
 20
13.118420678
 10
-11.2325680912
 20
13.1192059188
 10
-11.2353239093
 20
13.1199273535
 10
-11.2380976997
 20
13.1205835158
 10
-11.2408879551
 20
13.1211729396
 10
-11.2433423643
 20
13.1216325938
 10
-11.2458109009
 20
13.1220378921
 10
-11.24829624
 20
13.1223866983
 10
-11.2508010568
 20
13.1226768759
 10
-11.2533280266
 20
13.1229062886
 10
-11.2558798245
 20
13.1230727998
 10
-11.2584591258
 20
13.1231742732
 10
-11.2610686057
 20
13.1232085724
  0
LINE
  5
300
100
AcDbEntity
  8
ASSI
100
AcDbLine
 62
7
  6
CONTINUOUS
 10
-19.8876831359
 20
0.2479997405
 11
-20.23763779
 21
0.2130922693
  0
LINE
  5
301
100
AcDbEntity
  8
ASSI
100
AcDbLine
 62
253
  6
CONTINUOUS
 10
-22.5211743143
 20
0.7602804639
 11
-22.5175398666
 21
0.7603554147
  0
LINE
  5
302
100
AcDbEntity
  8
ASSI
100
AcDbLine
 62
253
  6
CONTINUOUS
 10
-22.5175398666
 20
0.7603554147
 11
-22.4962735957
 21
0.7605024879
  0
LINE
  5
303
100
AcDbEntity
  8
ASSI
100
AcDbLine
 62
253
  6
CONTINUOUS
 10
-22.4962735957
 20
0.7605024879
 11
-11.6359447907
 21
0.7650961343
  0
LINE
  5
304
100
AcDbEntity
  8
ASSI
100
AcDbLine
 62
253
  6
CONTINUOUS
 10
-11.6359447907
 20
0.7650966048
 11
10.8605785055
 21
0.7650966048
  0
LINE
  5
305
100
AcDbEntity
  8
ASSI
100
AcDbLine
 62
253
  6
CONTINUOUS
 10
10.8605785055
 20
0.7650961343
 11
21.6260895711
 21
0.7607662881
  0
LWPOLYLINE
  5
306
100
AcDbEntity
  8
ASSI
100
AcDbPolyline
 62
253
  6
CONTINUOUS
 90
4
 70
0
 10
21.6260895711
 20
0.7607662881
 10
21.7338471101
 20
0.7604296632
 10
21.7421735948
 20
0.7603554179
 10
21.7458080425
 20
0.7602804639
  0
LINE
  5
307
100
AcDbEntity
  8
ASSI
100
AcDbLine
 62
7
  6
CONTINUOUS
 10
19.1123168641
 20
0.2479997405
 11
19.4622715182
 21
0.2130922693
  0
LINE
  5
308
100
AcDbEntity
  8
0
100
AcDbLine
 62
253
  6
CONTINUOUS
 10
-11.0475312681
 20
12.1635471838
 11
-11.0277061116
 21
12.1432977393
  0
LINE
  5
309
100
AcDbEntity
  8
0
100
AcDbLine
 62
253
  6
CONTINUOUS
 10
-9.7314594781
 20
10.8759082952
 11
-9.7508975331
 21
10.8964046841
  0
LINE
  5
30A
100
AcDbEntity
  8
ASSI
100
AcDbLine
 62
253
  6
CONTINUOUS
 10
21.3876298476
 20
-0.1869077307
 11
21.2459793797
 21
-0.2341149638
  0
LINE
  5
30B
100
AcDbEntity
  8
ASSI
100
AcDbLine
 62
253
  6
CONTINUOUS
 10
21.8876869876
 20
-0.6868125485
 11
21.7458080424
 21
-0.7340959253
  0
LINE
  5
30C
100
AcDbEntity
  8
0
100
AcDbLine
 62
253
  6
CONTINUOUS
 10
-11.095474721
 20
12.178751906
 11
-11.0475312681
 21
12.1635471838
  0
LINE
  5
30D
100
AcDbEntity
  8
ASSI
100
AcDbLine
 62
253
  6
CONTINUOUS
 10
21.2459793798
 20
0.2602995025
 11
21.3876298476
 21
0.2130922693
  0
LINE
  5
30E
100
AcDbEntity
  8
ASSI
100
AcDbLine
 62
253
  6
CONTINUOUS
 10
21.7458080424
 20
0.760280464
 11
21.8876869876
 21
0.7129970871
  0
LINE
  5
30F
100
AcDbEntity
  8
ASSI
100
AcDbLine
 62
253
  6
CONTINUOUS
 10
21.2751542642
 20
22.0374818398
 11
21.3673326579
 21
22.2219651278
  0
LINE
  5
310
100
AcDbEntity
  8
ASSI
100
AcDbLine
 62
253
  6
CONTINUOUS
 10
21.7749829267
 20
21.5381670724
 11
21.8679590795
 21
21.7242469735
  0
LWPOLYLINE
  5
311
100
AcDbEntity
  8
0
100
AcDbPolyline
 62
253
  6
CONTINUOUS
 90
55
 70
0
 10
-11.2880208272
 20
9.9169171843
 10
-11.2844718919
 20
9.9169741681
 10
-11.2809557151
 20
9.9171439896
 10
-11.2774633083
 20
9.9174249536
 10
-11.2739856836
 20
9.9178153652
 10
-11.2705138528
 20
9.9183135293
 10
-11.267040645
 20
9.9189182262
 10
-11.2635661591
 20
9.9196301371
 10
-11.2600923116
 20
9.9204504186
 10
-11.2566210186
 20
9.9213802273
 10
-11.2531541965
 20
9.9224207198
 10
-11.2496943869
 20
9.923572872
 10
-11.2462466324
 20
9.9248369373
 10
-11.2428166009
 20
9.9262129883
 10
-11.2394099602
 20
9.927701098
 10
-11.2360323782
 20
9.929301339
 10
-11.2332449637
 20
9.9307198124
 10
-11.2304906475
 20
9.9322116332
 10
-11.2277784121
 20
9.9337722292
 10
-11.2251148869
 20
9.9353985421
 10
-11.2224972886
 20
9.9370935689
 10
-11.2199204807
 20
9.9388618203
 10
-11.2173810218
 20
9.9407067661
 10
-11.2148822506
 20
9.9426277109
 10
-11.212429201
 20
9.9446229187
 10
-11.210026907
 20
9.9466906529
 10
-11.2076804023
 20
9.9488291773
 10
-11.2053947209
 20
9.9510367557
 10
-11.2031743433
 20
9.9533111643
 10
-11.2010215363
 20
9.9556482309
 10
-11.1989380135
 20
9.9580432957
 10
-11.1969254882
 20
9.9604916991
 10
-11.1949856741
 20
9.9629887814
 10
-11.1931202845
 20
9.9655298829
 10
-11.1913300313
 20
9.9681120048
 10
-11.1896116197
 20
9.9707387914
 10
-11.1879607532
 20
9.9734155481
 10
-11.1863747437
 20
9.9761450317
 10
-11.1848573366
 20
9.9789198058
 10
-11.1834138856
 20
9.9817298855
 10
-11.1817853699
 20
9.9851363385
 10
-11.180271103
 20
9.9885728748
 10
-11.178871127
 20
9.9920331156
 10
-11.1775854844
 20
9.9955106824
 10
-11.1764142174
 20
9.9989991963
 10
-11.175357129
 20
10.002493084
 10
-11.1744130638
 20
10.0059899928
 10
-11.1735806273
 20
10.0094883755
 10
-11.1728584248
 20
10.0129866846
 10
-11.1722450616
 20
10.0164833729
 10
-11.1717396712
 20
10.019978666
 10
-11.1713435002
 20
10.0234798811
 10
-11.1710583235
 20
10.0269961087
 10
-11.170885916
 20
10.0305364389
 10
-11.1708280524
 20
10.0341099621
  0
LWPOLYLINE
  5
312
100
AcDbEntity
  8
0
100
AcDbPolyline
 62
253
  6
CONTINUOUS
 90
55
 70
0
 10
-9.3344423797
 20
9.9169171843
 10
-9.3308957525
 20
9.9169733747
 10
-9.3273818678
 20
9.9171408796
 10
-9.3238915773
 20
9.9174180999
 10
-9.3204157328
 20
9.9178034363
 10
-9.3169451861
 20
9.9182952897
 10
-9.3134726526
 20
9.9188925293
 10
-9.309998303
 20
9.9195958987
 10
-9.3065241714
 20
9.9204066096
 10
-9.3030522922
 20
9.9213258741
 10
-9.2995846996
 20
9.9223549041
 10
-9.2961240286
 20
9.9234947417
 10
-9.292675318
 20
9.9247457503
 10
-9.2892442072
 20
9.9261081234
 10
-9.2858363356
 20
9.9275820545
 10
-9.2824573427
 20
9.9291677371
 10
-9.2796685827
 20
9.9305738964
 10
-9.2769126893
 20
9.9320534184
 10
-9.2741985584
 20
9.9336019259
 10
-9.2715327493
 20
9.9352165398
 10
-9.2689124755
 20
9.9369003717
 10
-9.2663326145
 20
9.9386580314
 10
-9.2637897595
 20
9.9404930831
 10
-9.2612873685
 20
9.9424049104
 10
-9.2588306153
 20
9.9443918517
 10
-9.2564246741
 20
9.9464522453
 10
-9.2540747187
 20
9.9485844297
 10
-9.2517859231
 20
9.9507867431
 10
-9.2495628815
 20
9.9530570167
 10
-9.2474078688
 20
9.9553910525
 10
-9.24532258
 20
9.9577841455
 10
-9.2433087101
 20
9.9602315903
 10
-9.2413679543
 20
9.9627286818
 10
-9.2395020076
 20
9.9652707148
 10
-9.2377115573
 20
9.9678546482
 10
-9.2359932598
 20
9.9704840973
 10
-9.2343427639
 20
9.9731643416
 10
-9.2327573243
 20
9.9758981189
 10
-9.2312406205
 20
9.9786780006
 10
-9.2297979377
 20
9.9814940166
 10
-9.228170347
 20
9.9849087037
 10
-9.226656963
 20
9.9883546895
 10
-9.2252577911
 20
9.9918255965
 10
-9.2239728367
 20
9.9953150469
 10
-9.2228021051
 20
9.998816663
 10
-9.2217453721
 20
10.0023248491
 10
-9.2208014965
 20
10.0058371363
 10
-9.2199691075
 20
10.0093518377
 10
-9.2192468343
 20
10.0128672665
 10
-9.2186333062
 20
10.0163817356
 10
-9.2181276841
 20
10.0198953927
 10
-9.2177312557
 20
10.0234157236
 10
-9.2174458401
 20
10.0269520486
 10
-9.2172732566
 20
10.030513688
 10
-9.2172153245
 20
10.0341099621
  0
LWPOLYLINE
  5
313
100
AcDbEntity
  8
0
100
AcDbPolyline
 62
253
  6
CONTINUOUS
 90
52
 70
0
 10
-13.4253954949
 20
9.9169171843
 10
-13.3924755782
 20
9.9173819094
 10
-13.3599034484
 20
9.9187576834
 10
-13.3276739874
 20
9.9210169044
 10
-13.2957820772
 20
9.9241319705
 10
-13.2642225997
 20
9.9280752798
 10
-13.2329904368
 20
9.9328192303
 10
-13.2020838169
 20
9.9383382016
 10
-13.1715143543
 20
9.944614499
 10
-13.14129701
 20
9.951632409
 10
-13.1114467446
 20
9.9593762184
 10
-13.081978519
 20
9.9678302138
 10
-13.052907294
 20
9.9769786819
 10
-13.0185618445
 20
9.9888546859
 10
-12.9848049606
 20
10.0017005265
 10
-12.9516319833
 20
10.0155086271
 10
-12.9190382537
 20
10.0302714109
 10
-12.887019113
 20
10.0459813011
 10
-12.8555737025
 20
10.0626258979
 10
-12.8247163645
 20
10.0801735102
 10
-12.7944652415
 20
10.0985876239
 10
-12.7648384761
 20
10.1178317248
 10
-12.7358542109
 20
10.1378692987
 10
-12.707528773
 20
10.1586739736
 10
-12.6798712278
 20
10.1802599454
 10
-12.6528888253
 20
10.2026515523
 10
-12.6265888155
 20
10.2258731322
 10
-12.6009784484
 20
10.2499490231
 10
-12.5801728245
 20
10.270678726
 10
-12.5598811963
 20
10.2920105044
 10
-12.5401336062
 20
10.3139362608
 10
-12.5209600968
 20
10.3364478978
 10
-12.5023907105
 20
10.3595373177
 10
-12.4844554898
 20
10.3831964232
 10
-12.4671847462
 20
10.4074121294
 10
-12.4506098681
 20
10.4321514026
 10
-12.4347625128
 20
10.4573762216
 10
-12.4196709003
 20
10.4830578983
 10
-12.4053495001
 20
10.5092050762
 10
-12.3918093442
 20
10.5358357319
 10
-12.3790666151
 20
10.562950474
 10
-12.367158097
 20
10.5904804381
 10
-12.3561257244
 20
10.6183393921
 10
-12.3460062413
 20
10.6464334334
 10
-12.3368156293
 20
10.6746379792
 10
-12.3285646792
 20
10.7028207764
 10
-12.3212563174
 20
10.7308763613
 10
-12.3148620122
 20
10.7588064273
 10
-12.3093453672
 20
10.7866394569
 10
-12.3046742262
 20
10.8144091357
 10
-12.3008333933
 20
10.8421699599
 10
-12.2978119126
 20
10.8699816285
  0
LINE
  5
314
100
AcDbEntity
  8
0
100
AcDbLine
 62
253
  6
CONTINUOUS
 10
-11.4443013788
 20
9.9169171843
 11
-11.2880208272
 21
9.9169171843
  0
LINE
  5
315
100
AcDbEntity
  8
0
100
AcDbLine
 62
253
  6
CONTINUOUS
 10
-9.5176408724
 20
9.9169171843
 11
-9.3344423797
 21
9.9169171843
  0
LWPOLYLINE
  5
316
100
AcDbEntity
  8
0
100
AcDbPolyline
 62
253
  6
CONTINUOUS
 90
29
 70
0
 10
-9.6858090462
 20
10.861338573
 10
-9.6870539829
 20
10.8613558218
 10
-9.6882998473
 20
10.8614068722
 10
-9.6895466433
 20
10.8614906803
 10
-9.6907943747
 20
10.8616062022
 10
-9.6920430457
 20
10.8617523941
 10
-9.69329266
 20
10.861928212
 10
-9.6945432216
 20
10.8621326121
 10
-9.6957947345
 20
10.8623645504
 10
-9.6970472026
 20
10.8626229832
 10
-9.6983006298
 20
10.8629068664
 10
-9.6995550201
 20
10.8632151563
 10
-9.7008103773
 20
10.8635468089
 10
-9.7023181084
 20
10.8639741435
 10
-9.7038273669
 20
10.8644317082
 10
-9.7053382821
 20
10.8649175939
 10
-9.7068509834
 20
10.8654298916
 10
-9.7083656
 20
10.8659666923
 10
-9.7098822613
 20
10.8665260869
 10
-9.7114010966
 20
10.8671061664
 10
-9.712922235
 20
10.8677050218
 10
-9.7144458061
 20
10.8683207439
 10
-9.715971939
 20
10.8689514238
 10
-9.7185218014
 20
10.8700317568
 10
-9.7210813173
 20
10.8711463698
 10
-9.7236526648
 20
10.8722932965
 10
-9.7262380221
 20
10.8734705706
 10
-9.7288395672
 20
10.8746762256
 10
-9.7314594781
 20
10.8759082952
  0
LINE
  5
317
100
AcDbEntity
  8
ASSI
100
AcDbLine
 62
253
  6
CONTINUOUS
 10
21.3673326579
 20
-22.1957805891
 11
21.2751542616
 21
-22.0112972958
  0
LINE
  5
318
100
AcDbEntity
  8
ASSI
100
AcDbLine
 62
253
  6
CONTINUOUS
 10
21.8679590795
 20
-21.6980624348
 11
21.774982924
 21
-21.5119825285
  0
LINE
  5
319
100
AcDbEntity
  8
ASSI
100
AcDbLine
 62
253
  6
CONTINUOUS
 10
10.8605878873
 20
-0.2379911155
 11
10.8622782604
 21
-21.9928216587
  0
LINE
  5
31A
100
AcDbEntity
  8
ASSI
100
AcDbLine
 62
253
  6
CONTINUOUS
 10
10.8605878873
 20
0.2641756542
 11
10.8622782604
 21
22.0190061973
  0
LINE
  5
31B
100
AcDbEntity
  8
0
100
AcDbLine
 62
253
  6
CONTINUOUS
 10
-9.6782605905
 20
10.861338573
 11
-9.6858090462
 21
10.861338573
  0
LWPOLYLINE
  5
31C
100
AcDbEntity
  8
0
100
AcDbPolyline
 62
253
  6
CONTINUOUS
 90
53
 70
0
 10
-13.4248310505
 20
12.8103652392
 10
-13.4038801778
 20
12.8100845803
 10
-13.3833253797
 20
12.8092628559
 10
-13.3631695682
 20
12.8079304444
 10
-13.3434156552
 20
12.8061177242
 10
-13.3240665525
 20
12.8038550737
 10
-13.3051251719
 20
12.8011728715
 10
-13.2865944254
 20
12.7981014958
 10
-13.2684772249
 20
12.7946713251
 10
-13.2482787216
 20
12.7903464968
 10
-13.2286090139
 20
12.7856124912
 10
-13.2094529524
 20
12.7804890833
 10
-13.1907953878
 20
12.7749960481
 10
-13.1726211707
 20
12.7691531605
 10
-13.1549151518
 20
12.7629801956
 10
-13.1376621818
 20
12.7564969281
 10
-13.1180865655
 20
12.7485663085
 10
-13.0990856592
 20
12.7402656399
 10
-13.080638143
 20
12.7316203138
 10
-13.0627226969
 20
12.7226557214
 10
-13.045318001
 20
12.7133972541
 10
-13.0284027353
 20
12.703870303
 10
-13.0087225711
 20
12.6921156982
 10
-12.9896923954
 20
12.6800332202
 10
-12.9712881178
 20
12.6676450491
 10
-12.953485648
 20
12.6549733648
 10
-12.9362608957
 20
12.6420403473
 10
-12.9195933778
 20
12.6288595139
 10
-12.9034770409
 20
12.6154097312
 10
-12.887909439
 20
12.6016612035
 10
-12.8728881258
 20
12.5875841348
 10
-12.8584106555
 20
12.5731487291
 10
-12.8444737802
 20
12.5583292557
 10
-12.8310710463
 20
12.5431162445
 10
-12.8181951984
 20
12.5275042904
 10
-12.8058389812
 20
12.5114879886
 10
-12.7939951394
 20
12.4950619341
 10
-12.7826602086
 20
12.4782243273
 10
-12.771845889
 20
12.4609877907
 10
-12.7615676716
 20
12.4433685524
 10
-12.7518410476
 20
12.4253828403
 10
-12.7426815079
 20
12.4070468825
 10
-12.7341059185
 20
12.3883807311
 10
-12.7261366438
 20
12.3694197355
 10
-12.7187974231
 20
12.3502030692
 10
-12.7121119957
 20
12.3307699056
 10
-12.7061041007
 20
12.3111594183
 10
-12.7016315934
 20
12.2947048743
 10
-12.6976561323
 20
12.2781453986
 10
-12.6941877696
 20
12.2614719969
 10
-12.6912365572
 20
12.2446756751
 10
-12.6888125472
 20
12.2277474392
 10
-12.6869257915
 20
12.2106782949
  0
LWPOLYLINE
  5
31D
100
AcDbEntity
  8
0
100
AcDbPolyline
 62
253
  6
CONTINUOUS
 90
55
 70
0
 10
-11.4443013788
 20
13.1232085724
 10
-11.4478592097
 20
13.123151717
 10
-11.45138418
 20
13.1229822692
 10
-11.454885328
 20
13.1227019069
 10
-11.4583716918
 20
13.1223123078
 10
-11.4618523096
 20
13.1218151497
 10
-11.4653343903
 20
13.1212116353
 10
-11.4688178251
 20
13.1205010667
 10
-11.4723006758
 20
13.1196822711
 10
-11.4757810045
 20
13.1187540755
 10
-11.4792568729
 20
13.1177153069
 10
-11.4827257191
 20
13.1165649716
 10
-11.4861824853
 20
13.115302792
 10
-11.4896214899
 20
13.1139286696
 10
-11.493037051
 20
13.112442506
 10
-11.4964234871
 20
13.1108442027
 10
-11.499218217
 20
13.1094273174
 10
-11.5019797699
 20
13.107937036
 10
-11.5046991404
 20
13.1063779056
 10
-11.5073696859
 20
13.1047529605
 10
-11.5099942152
 20
13.1030591843
 10
-11.5125779001
 20
13.1012920478
 10
-11.515124204
 20
13.0994480624
 10
-11.5176297567
 20
13.0975279006
 10
-11.5200894795
 20
13.0955332756
 10
-11.5224982938
 20
13.0934659005
 10
-11.524851121
 20
13.0913274882
 10
-11.5271428824
 20
13.089119752
 10
-11.5293690577
 20
13.0868449003
 10
-11.53152736
 20
13.0845071236
 10
-11.5336160603
 20
13.0821111078
 10
-11.5356334301
 20
13.0796615387
 10
-11.5375777406
 20
13.0771631022
 10
-11.5394472631
 20
13.0746204843
 10
-11.5412412816
 20
13.0720367063
 10
-11.5429631314
 20
13.0694081312
 10
-11.5446171607
 20
13.0667294578
 10
-11.5462061014
 20
13.0639979338
 10
-11.547726221
 20
13.0612210039
 10
-11.5491721708
 20
13.0584086618
 10
-11.5508034117
 20
13.0549993663
 10
-11.5523201218
 20
13.0515598641
 10
-11.5537222773
 20
13.0480965507
 10
-11.5550098539
 20
13.0446158216
 10
-11.5561828278
 20
13.0411240725
 10
-11.5572414134
 20
13.0376268953
 10
-11.558186779
 20
13.0341266678
 10
-11.5590203315
 20
13.030624964
 10
-11.5597434778
 20
13.0271233582
 10
-11.5603576246
 20
13.0236234244
 10
-11.560863649
 20
13.0201249495
 10
-11.5612603086
 20
13.0166205711
 10
-11.5615458311
 20
13.0131011393
 10
-11.5617184443
 20
13.0095575045
 10
-11.5617763758
 20
13.0059805169
  0
LWPOLYLINE
  5
31E
100
AcDbEntity
  8
0
100
AcDbPolyline
 62
253
  6
CONTINUOUS
 90
55
 70
0
 10
-9.4907229352
 20
13.1232085724
 10
-9.494260288
 20
13.123152587
 10
-9.4977654452
 20
13.1229856766
 10
-9.501247538
 20
13.1227094104
 10
-9.5047156972
 20
13.1223253573
 10
-9.5081790539
 20
13.1218350865
 10
-9.5116448756
 20
13.1212397033
 10
-9.5151129762
 20
13.1205384589
 10
-9.5185813062
 20
13.119730141
 10
-9.522047816
 20
13.1188135371
 10
-9.5255104559
 20
13.1177874348
 10
-9.5289665852
 20
13.1166507885
 10
-9.5324111978
 20
13.1154032203
 10
-9.5358386967
 20
13.1140445189
 10
-9.5392434845
 20
13.1125744733
 10
-9.5426199641
 20
13.1109928722
 10
-9.5454071006
 20
13.1095902423
 10
-9.5481618488
 20
13.1081143098
 10
-9.5508753658
 20
13.1065693877
 10
-9.5535411433
 20
13.104958297
 10
-9.5561620112
 20
13.1032778902
 10
-9.558743134
 20
13.1015235274
 10
-9.5612879367
 20
13.0996916159
 10
-9.563792886
 20
13.0977827501
 10
-9.5662527093
 20
13.0957985714
 10
-9.5686621338
 20
13.0937407211
 10
-9.5710158869
 20
13.0916108405
 10
-9.5733086958
 20
13.0894105709
 10
-9.5755358766
 20
13.0871420567
 10
-9.5776951009
 20
13.0848094541
 10
-9.5797846291
 20
13.0824174222
 10
-9.5818027213
 20
13.0799706205
 10
-9.5837476381
 20
13.077473708
 10
-9.5856176398
 20
13.0749313439
 10
-9.5874120084
 20
13.0723465286
 10
-9.5891341133
 20
13.0697156264
 10
-9.5907883454
 20
13.0670333426
 10
-9.5923774709
 20
13.0642969417
 10
-9.5938977558
 20
13.0615139242
 10
-9.5953438413
 20
13.0586943495
 10
-9.5969751992
 20
13.0552749453
 10
-9.5984919955
 20
13.0518238298
 10
-9.5998942326
 20
13.0483474482
 10
-9.6011819128
 20
13.0448522457
 10
-9.6023550384
 20
13.0413446676
 10
-9.6034138445
 20
13.0378303633
 10
-9.6043594976
 20
13.0343117985
 10
-9.6051933971
 20
13.0307906432
 10
-9.6059169423
 20
13.0272685671
 10
-9.6065315325
 20
13.0237472402
 10
-9.6070380299
 20
13.0202264942
 10
-9.6074351475
 20
13.016698808
 10
-9.6077210613
 20
13.0131548226
 10
-9.6078939472
 20
13.0095851786
 10
-9.6079519812
 20
13.0059805169
  0
LINE
  5
31F
100
AcDbEntity
  8
0
100
AcDbLine
 62
253
  6
CONTINUOUS
 10
-9.3344423797
 20
13.1232085724
 11
-9.4907229352
 21
13.1232085724
  0
LINE
  5
320
100
AcDbEntity
  8
0
100
AcDbLine
 62
253
  6
CONTINUOUS
 10
-11.2610686057
 20
13.1232085724
 11
-11.4443013788
 21
13.1232085724
  0
LWPOLYLINE
  5
321
100
AcDbEntity
  8
ASSI
100
AcDbPolyline
 62
253
  6
CONTINUOUS
 90
10
 70
0
 10
21.774982924
 20
-21.5119825285
 10
21.773689157
 20
-21.5076300101
 10
21.7724171942
 20
-21.4999362209
 10
21.7711670355
 20
-21.4889011608
 10
21.7699321314
 20
-21.4744359177
 10
21.7687190314
 20
-21.4566294038
 10
21.7675473845
 20
-21.4357483555
 10
21.7664183773
 20
-21.411748026
 10
21.7653308232
 20
-21.3846731621
 10
21.7643008109
 20
-21.3549247413
  0
LINE
  5
322
100
AcDbEntity
  8
ASSI
100
AcDbLine
 62
7
  6
CONTINUOUS
 10
18.6682384943
 20
22.2219651278
 11
18.320051891
 21
22.1903592074
  0
LWPOLYLINE
  5
323
100
AcDbEntity
  8
ASSI
100
AcDbPolyline
 62
253
  6
CONTINUOUS
 90
14
 70
0
 10
-22.1635849063
 20
20.8895500903
 10
-22.210422342
 20
20.8888440505
 10
-22.2555404125
 20
20.8879447905
 10
-22.2985016555
 20
20.8868610294
 10
-22.3388895213
 20
20.8856032753
 10
-22.3763124115
 20
20.8841837232
 10
-22.4104074758
 20
20.8826161371
 10
-22.4408441306
 20
20.8809157162
 10
-22.4673272636
 20
20.8790989477
 10
-22.4896000961
 20
20.8771834468
 10
-22.5074466718
 20
20.8751877862
 10
-22.5206939514
 20
20.8731313156
 10
-22.5292134901
 20
20.8710339744
 10
-22.5329226829
 20
20.8689160984
  0
LINE
  5
324
100
AcDbEntity
  8
ASSI
100
AcDbLine
 62
253
  6
CONTINUOUS
 10
-22.0665807391
 20
20.890357066
 11
-22.1635849063
 21
20.8895500903
  0
LINE
  5
325
100
AcDbEntity
  8
ASSI
100
AcDbLine
 62
253
  6
CONTINUOUS
 10
21.2912144618
 20
20.8903570606
 11
15.7948155526
 21
20.8848284666
  0
LINE
  5
326
100
AcDbEntity
  8
ASSI
100
AcDbLine
 62
253
  6
CONTINUOUS
 10
15.7948155526
 20
20.8848284666
 11
-11.6376356134
 21
20.8832598912
  0
LINE
  5
327
100
AcDbEntity
  8
ASSI
100
AcDbLine
 62
253
  6
CONTINUOUS
 10
-11.6376356133
 20
20.8832583025
 11
-17.7132990881
 21
20.8856599483
  0
LINE
  5
328
100
AcDbEntity
  8
ASSI
100
AcDbLine
 62
253
  6
CONTINUOUS
 10
-17.7132990881
 20
20.8856599483
 11
-22.0665807391
 21
20.8903570563
  0
LWPOLYLINE
  5
329
100
AcDbEntity
  8
ASSI
100
AcDbPolyline
 62
253
  6
CONTINUOUS
 90
15
 70
0
 10
21.291213572
 20
20.8903565228
 10
21.3882168298
 20
20.8895495732
 10
21.4350538714
 20
20.8888435554
 10
21.4801716053
 20
20.8879443229
 10
21.5231325813
 20
20.8868605943
 10
21.5635202607
 20
20.885602877
 10
21.6009430544
 20
20.8841833653
 10
21.6350381206
 20
20.8826158227
 10
21.6654748818
 20
20.8809154475
 10
21.691958231
 20
20.8790987261
 10
21.7142313922
 20
20.8771832732
 10
21.7320784103
 20
20.8751876603
 10
21.7453262452
 20
20.8731312365
 10
21.7538464492
 20
20.8710339403
 10
21.7575564124
 20
20.8689161066
  0
LINE
  5
32A
100
AcDbEntity
  8
ASSI
100
AcDbLine
 62
7
  6
CONTINUOUS
 10
-19.4436047661
 20
22.2219651278
 11
-19.0954181628
 21
22.1903592074
  0
LWPOLYLINE
  5
32B
100
AcDbEntity
  8
ASSI
100
AcDbPolyline
 62
253
  6
CONTINUOUS
 90
8
 70
0
 10
21.2745891473
 20
-0.3644070852
 10
21.2709511579
 20
-0.331307924
 10
21.2670214289
 20
-0.3026649859
 10
21.2633729035
 20
-0.2787421704
 10
21.2591017276
 20
-0.2597024692
 10
21.2542102135
 20
-0.2458033046
 10
21.2496735582
 20
-0.2372570845
 10
21.2459793799
 20
-0.2341149638
  0
LWPOLYLINE
  5
32C
100
AcDbEntity
  8
ASSI
100
AcDbPolyline
 62
253
  6
CONTINUOUS
 90
16
 70
0
 10
21.7458080424
 20
-0.7340959253
 10
21.74312251
 20
-0.6824500337
 10
21.7350823513
 20
-0.6311860747
 10
21.7217207531
 20
-0.5808645806
 10
21.7031068419
 20
-0.5319923384
 10
21.6794052234
 20
-0.4851798831
 10
21.6509296345
 20
-0.4411077294
 10
21.6180348016
 20
-0.4003076683
 10
21.581050972
 20
-0.3631744233
 10
21.5403737242
 20
-0.3301086045
 10
21.4964396171
 20
-0.3014726729
 10
21.4497363932
 20
-0.2775915683
 10
21.4007896722
 20
-0.2587365912
 10
21.3501429627
 20
-0.2451163555
 10
21.2983494815
 20
-0.2368789077
 10
21.2459793799
 20
-0.2341149638
  0
LWPOLYLINE
  5
32D
100
AcDbEntity
  8
ASSI
100
AcDbPolyline
 62
253
  6
CONTINUOUS
 90
4
 70
0
 10
21.2848918235
 20
-0.5326679349
 10
21.2830915796
 20
-0.4859562285
 10
21.2803782322
 20
-0.4419853296
 10
21.2745891473
 20
-0.3644070852
  0
LWPOLYLINE
  5
32E
100
AcDbEntity
  8
ASSI
100
AcDbPolyline
 62
253
  6
CONTINUOUS
 90
6
 70
0
 10
21.2805114694
 20
21.9424860653
 10
21.27947941
 20
21.9729036284
 10
21.2784067184
 20
21.9977233488
 10
21.2772993313
 20
22.0168201799
 10
21.2762058871
 20
22.0300958863
 10
21.2751542642
 20
22.0374818398
  0
LINE
  5
32F
100
AcDbEntity
  8
ASSI
100
AcDbLine
 62
253
  6
CONTINUOUS
 10
21.7643008109
 20
-21.3549247413
 11
21.7624151232
 21
-21.2873239335
  0
LINE
  5
330
100
AcDbEntity
  8
ASSI
100
AcDbLine
 62
253
  6
CONTINUOUS
 10
21.2825407564
 20
21.8654810736
 11
21.2805114694
 21
21.9424860653
  0
LINE
  5
331
100
AcDbEntity
  8
ASSI
100
AcDbLine
 62
253
  6
CONTINUOUS
 10
21.7624151232
 20
-21.2873239335
 11
21.7608013015
 21
-21.2105769827
  0
LINE
  5
332
100
AcDbEntity
  8
ASSI
100
AcDbLine
 62
253
  6
CONTINUOUS
 10
21.2844144405
 20
21.7682357295
 11
21.2825407564
 21
21.8654810736
  0
LINE
  5
333
100
AcDbEntity
  8
ASSI
100
AcDbLine
 62
253
  6
CONTINUOUS
 10
21.7608013015
 20
-21.2105769827
 11
21.7594829868
 21
-21.1258247648
  0
LINE
  5
334
100
AcDbEntity
  8
ASSI
100
AcDbLine
 62
253
  6
CONTINUOUS
 10
21.2869137252
 20
21.5887638839
 11
21.2844144405
 21
21.7682357295
  0
LINE
  5
335
100
AcDbEntity
  8
ASSI
100
AcDbLine
 62
253
  6
CONTINUOUS
 10
21.7594829868
 20
-21.1258247648
 11
21.758124507
 21
-20.9878162842
  0
LINE
  5
336
100
AcDbEntity
  8
ASSI
100
AcDbLine
 62
253
  6
CONTINUOUS
 10
21.2894869733
 20
21.299575925
 11
21.2869137252
 21
21.5887638839
  0
LWPOLYLINE
  5
337
100
AcDbEntity
  8
ASSI
100
AcDbPolyline
 62
253
  6
CONTINUOUS
 90
3
 70
0
 10
21.2886311489
 20
0.7610473687
 10
21.2888561345
 20
0.7080587604
 10
21.2880037976
 20
0.6568082357
  0
LINE
  5
338
100
AcDbEntity
  8
ASSI
100
AcDbLine
 62
253
  6
CONTINUOUS
 10
21.2912144286
 20
20.8903570552
 11
21.2894869733
 21
21.299575925
  0
LINE
  5
339
100
AcDbEntity
  8
ASSI
100
AcDbLine
 62
7
  6
CONTINUOUS
 10
21.8679590795
 20
21.7242469735
 11
21.8876869876
 21
13.1130922693
  0
LINE
  5
33A
100
AcDbEntity
  8
ASSI
100
AcDbLine
 62
253
  6
CONTINUOUS
 10
21.758124507
 20
-20.9878162842
 11
21.757556411
 21
-20.8427315598
  0
LINE
  5
33B
100
AcDbEntity
  8
ASSI
100
AcDbLine
 62
253
  6
CONTINUOUS
 10
21.757556411
 20
-20.8427315598
 11
21.7499580733
 21
-12.4044243711
  0
LINE
  5
33C
100
AcDbEntity
  8
ASSI
100
AcDbLine
 62
253
  6
CONTINUOUS
 10
21.7499580733
 20
-12.4044243711
 11
21.7462808339
 21
-4.1916128312
  0
LINE
  5
33D
100
AcDbEntity
  8
ASSI
100
AcDbLine
 62
253
  6
CONTINUOUS
 10
21.7462808339
 20
-4.1916128312
 11
21.7458080424
 21
-0.7340959253
  0
LINE
  5
33E
100
AcDbEntity
  8
ASSI
100
AcDbLine
 62
7
  6
CONTINUOUS
 10
21.8876869876
 20
13.1130922693
 11
21.8876869876
 21
0.7129970871
  0
LINE
  5
33F
100
AcDbEntity
  8
ASSI
100
AcDbLine
 62
7
  6
CONTINUOUS
 10
21.8876869876
 20
-13.0869077307
 11
21.8876869876
 21
-0.6868125485
  0
LINE
  5
340
100
AcDbEntity
  8
ASSI
100
AcDbLine
 62
253
  6
CONTINUOUS
 10
21.2886311089
 20
0.7610473632
 11
21.2912144618
 21
20.8903570606
  0
LINE
  5
341
100
AcDbEntity
  8
ASSI
100
AcDbLine
 62
253
  6
CONTINUOUS
 10
21.7458080424
 20
0.760280464
 11
21.7492450443
 21
11.3446836715
  0
LINE
  5
342
100
AcDbEntity
  8
ASSI
100
AcDbLine
 62
7
  6
CONTINUOUS
 10
21.8679590795
 20
-21.6980624348
 11
21.8876869876
 21
-13.0869077307
  0
LINE
  5
343
100
AcDbEntity
  8
ASSI
100
AcDbLine
 62
253
  6
CONTINUOUS
 10
21.2907410456
 20
-21.0315148828
 11
21.2886311088
 21
-0.7348628132
  0
LINE
  5
344
100
AcDbEntity
  8
ASSI
100
AcDbLine
 62
253
  6
CONTINUOUS
 10
21.7492450443
 20
11.3446836715
 11
21.7578473238
 21
20.966425504
  0
LWPOLYLINE
  5
345
100
AcDbEntity
  8
ASSI
100
AcDbPolyline
 62
253
  6
CONTINUOUS
 90
4
 70
0
 10
21.2886311489
 20
-0.7348628075
 10
21.2888560051
 20
-0.6818761999
 10
21.2880037495
 20
-0.6306273521
 10
21.2848918235
 20
-0.5326679349
  0
LINE
  5
346
100
AcDbEntity
  8
ASSI
100
AcDbLine
 62
253
  6
CONTINUOUS
 10
21.2883158436
 20
-21.4239822206
 11
21.2907410456
 21
-21.0315148828
  0
LINE
  5
347
100
AcDbEntity
  8
ASSI
100
AcDbLine
 62
253
  6
CONTINUOUS
 10
21.7578473238
 20
20.966425504
 11
21.7589467676
 21
21.1072903534
  0
LINE
  5
348
100
AcDbEntity
  8
ASSI
100
AcDbLine
 62
253
  6
CONTINUOUS
 10
21.2861258308
 20
-21.6265093407
 11
21.2883158436
 21
-21.4239822206
  0
LINE
  5
349
100
AcDbEntity
  8
ASSI
100
AcDbLine
 62
253
  6
CONTINUOUS
 10
21.7589467676
 20
21.1072903534
 11
21.7601015554
 21
21.1951517593
  0
LINE
  5
34A
100
AcDbEntity
  8
ASSI
100
AcDbLine
 62
253
  6
CONTINUOUS
 10
21.284414459
 20
-21.7420511843
 11
21.2861258308
 21
-21.6265093407
  0
LINE
  5
34B
100
AcDbEntity
  8
ASSI
100
AcDbLine
 62
253
  6
CONTINUOUS
 10
21.7601015554
 20
21.1951517593
 11
21.7615721165
 21
21.2762236601
  0
LINE
  5
34C
100
AcDbEntity
  8
ASSI
100
AcDbLine
 62
253
  6
CONTINUOUS
 10
21.2825407711
 20
-21.8392965295
 11
21.284414459
 21
-21.7420511843
  0
LWPOLYLINE
  5
34D
100
AcDbEntity
  8
ASSI
100
AcDbPolyline
 62
253
  6
CONTINUOUS
 90
12
 70
0
 10
21.7615721165
 20
21.2762236601
 10
21.7633291989
 20
21.3486456607
 10
21.7643008137
 20
21.3811092861
 10
21.765330826
 20
21.4108577068
 10
21.7664183801
 20
21.4379325705
 10
21.7675473873
 20
21.4619328999
 10
21.7687190342
 20
21.4828139482
 10
21.7699321341
 20
21.5006204621
 10
21.7711670382
 20
21.5150857052
 10
21.7724171969
 20
21.5261207651
 10
21.7736891597
 20
21.5338145542
 10
21.7749829267
 20
21.5381670724
  0
LWPOLYLINE
  5
34E
100
AcDbEntity
  8
ASSI
100
AcDbPolyline
 62
253
  6
CONTINUOUS
 90
4
 70
0
 10
21.2880037976
 20
0.6568082357
 10
21.2848915734
 20
0.558846477
 10
21.2830912904
 20
0.5121341106
 10
21.2803778056
 20
0.4681629936
  0
LWPOLYLINE
  5
34F
100
AcDbEntity
  8
ASSI
100
AcDbPolyline
 62
253
  6
CONTINUOUS
 90
16
 70
0
 10
21.7458080424
 20
0.760280464
 10
21.743122505
 20
0.7086345245
 10
21.7350823338
 20
0.6573705298
 10
21.7217207189
 20
0.6070490128
 10
21.703106791
 20
0.558176762
 10
21.6794051592
 20
0.5113643098
 10
21.6509295609
 20
0.4672921663
 10
21.6180347255
 20
0.4264921221
 10
21.581050901
 20
0.3893588977
 10
21.5403736604
 20
0.3562930966
 10
21.4964395588
 20
0.3276571778
 10
21.4497363409
 20
0.3037760836
 10
21.4007896287
 20
0.2849211157
 10
21.3501429315
 20
0.2713008875
 10
21.2983494649
 20
0.2630634446
 10
21.24597938
 20
0.2602995024
  0
LWPOLYLINE
  5
350
100
AcDbEntity
  8
ASSI
100
AcDbPolyline
 62
253
  6
CONTINUOUS
 90
9
 70
0
 10
21.2803778056
 20
0.4681629936
 10
21.2745885723
 20
0.3905856844
 10
21.2709505737
 20
0.3574874501
 10
21.2670208226
 20
0.3288456269
 10
21.2633723596
 20
0.3049239902
 10
21.2591013042
 20
0.2858853573
 10
21.2542099368
 20
0.2719870481
 10
21.249673436
 20
0.2634414041
 10
21.2459793799
 20
0.2602995024
  0
LINE
  5
351
100
AcDbEntity
  8
ASSI
100
AcDbLine
 62
7
  6
CONTINUOUS
 10
7.4682384943
 20
22.2219651278
 11
7.120051891
 21
22.1903592074
  0
LINE
  5
352
100
AcDbEntity
  8
ASSI
100
AcDbLine
 62
7
  6
CONTINUOUS
 10
-3.8317615057
 20
22.2219651278
 11
-4.179948109
 21
22.1903592074
  0
LINE
  5
353
100
AcDbEntity
  8
ASSI
100
AcDbLine
 62
7
  6
CONTINUOUS
 10
-15.0317615057
 20
22.2219651278
 11
-15.379948109
 21
22.1903592074
  0
LWPOLYLINE
  5
354
100
AcDbEntity
  8
ASSI
100
AcDbPolyline
 62
253
  6
CONTINUOUS
 90
16
 70
0
 10
-22.0505205334
 20
22.0374818345
 10
-22.1027221598
 20
22.0346797893
 10
-22.1543527713
 20
22.0264471998
 10
-22.2048476681
 20
22.0128741295
 10
-22.2536545898
 20
21.9941090451
 10
-22.3002397114
 20
21.9703572091
 10
-22.3440934881
 20
21.9418784489
 10
-22.3847362924
 20
21.9089842803
 10
-22.4217236371
 20
21.872034496
 10
-22.4546510007
 20
21.8314332609
 10
-22.4831582803
 20
21.7876246695
 10
-22.5069337326
 20
21.7410878725
 10
-22.5257173669
 20
21.6923318475
 10
-22.5393037834
 20
21.6418898445
 10
-22.5475444231
 20
21.5903135554
 10
-22.5503491959
 20
21.5381670671
  0
LINE
  5
355
100
AcDbEntity
  8
ASSI
100
AcDbLine
 62
253
  6
CONTINUOUS
 10
21.2751542642
 20
22.0374818398
 11
18.0209048441
 21
22.0277354517
  0
LINE
  5
356
100
AcDbEntity
  8
ASSI
100
AcDbLine
 62
253
  6
CONTINUOUS
 10
18.0209048441
 20
22.0277354517
 11
14.6212899706
 21
22.0214128944
  0
LINE
  5
357
100
AcDbEntity
  8
ASSI
100
AcDbLine
 62
253
  6
CONTINUOUS
 10
14.6212899706
 20
22.0214128944
 11
10.8622782604
 21
22.0190061973
  0
LINE
  5
358
100
AcDbEntity
  8
ASSI
100
AcDbLine
 62
7
  6
CONTINUOUS
 10
3.5777869179
 20
22.1851184294
 11
6.9468468103
 21
22.1851184294
  0
LINE
  5
359
100
AcDbEntity
  8
ASSI
100
AcDbLine
 62
7
  6
CONTINUOUS
 10
-4.3531531897
 20
22.1851184294
 11
-7.7222130821
 21
22.1851184294
  0
LINE
  5
35A
100
AcDbEntity
  8
ASSI
100
AcDbLine
 62
7
  6
CONTINUOUS
 10
14.7777869179
 20
22.1851184294
 11
18.1468468103
 21
22.1851184294
  0
LINE
  5
35B
100
AcDbEntity
  8
ASSI
100
AcDbLine
 62
7
  6
CONTINUOUS
 10
-15.5531531897
 20
22.1851184294
 11
-18.9222130821
 21
22.1851184294
  0
LINE
  5
35C
100
AcDbEntity
  8
ASSI
100
AcDbLine
 62
7
  6
CONTINUOUS
 10
21.3673326579
 20
22.2219651278
 11
18.6682384943
 21
22.2219651278
  0
LINE
  5
35D
100
AcDbEntity
  8
ASSI
100
AcDbLine
 62
7
  6
CONTINUOUS
 10
14.2563952339
 20
22.2219651278
 11
7.4682384943
 21
22.2219651278
  0
LINE
  5
35E
100
AcDbEntity
  8
ASSI
100
AcDbLine
 62
7
  6
CONTINUOUS
 10
3.0563952339
 20
22.2219651278
 11
-3.8317615057
 21
22.2219651278
  0
LINE
  5
35F
100
AcDbEntity
  8
ASSI
100
AcDbLine
 62
7
  6
CONTINUOUS
 10
-8.2436047661
 20
22.2219651278
 11
-15.0317615057
 21
22.2219651278
  0
LINE
  5
360
100
AcDbEntity
  8
ASSI
100
AcDbLine
 62
7
  6
CONTINUOUS
 10
-19.4436047661
 20
22.2219651278
 11
-22.1426989297
 21
22.2219651278
  0
LINE
  5
361
100
AcDbEntity
  8
ASSI
100
AcDbLine
 62
253
  6
CONTINUOUS
 10
10.8622782604
 20
22.0190061973
 11
-14.3088403509
 21
22.0202215574
  0
LINE
  5
362
100
AcDbEntity
  8
ASSI
100
AcDbLine
 62
253
  6
CONTINUOUS
 10
-14.3088403509
 20
22.0202215574
 11
-17.6999511614
 21
22.0252588977
  0
LWPOLYLINE
  5
363
100
AcDbEntity
  8
ASSI
100
AcDbPolyline
 62
253
  6
CONTINUOUS
 90
3
 70
0
 10
-17.6999511614
 20
22.0252588977
 10
-21.152638812
 20
22.0344508307
 10
-22.0505205334
 20
22.0374818345
  0
LWPOLYLINE
  5
364
100
AcDbEntity
  8
ASSI
100
AcDbPolyline
 62
253
  6
CONTINUOUS
 90
16
 70
0
 10
21.2751542642
 20
22.0374818398
 10
21.3273552343
 20
22.0346798646
 10
21.3789852758
 20
22.0264474675
 10
21.4294797047
 20
22.0128746873
 10
21.4782862571
 20
21.9941099711
 10
21.5248711298
 20
21.970358551
 10
21.5687248182
 20
21.9418801992
 10
21.6093676892
 20
21.908986387
 10
21.6463552265
 20
21.8720368781
 10
21.679282893
 20
21.8314357938
 10
21.7077905546
 20
21.7876271932
 10
21.7315664196
 20
21.7410902164
 10
21.7503504484
 20
21.6923338441
 10
21.7639371977
 20
21.6418913308
 10
21.7721780676
 20
21.5903143723
 10
21.7749829267
 20
21.5381670724
  0
LINE
  5
365
100
AcDbEntity
  8
ASSI
100
AcDbLine
 62
7
  6
CONTINUOUS
 10
-8.2436047661
 20
22.2219651278
 11
-7.8954181628
 21
22.1903592074
  0
LINE
  5
366
100
AcDbEntity
  8
ASSI
100
AcDbLine
 62
7
  6
CONTINUOUS
 10
3.0563952339
 20
22.2219651278
 11
3.4045818372
 21
22.1903592074
  0
LINE
  5
367
100
AcDbEntity
  8
ASSI
100
AcDbLine
 62
7
  6
CONTINUOUS
 10
14.2563952339
 20
22.2219651278
 11
14.6045818372
 21
22.1903592074
  0
LWPOLYLINE
  5
368
100
AcDbEntity
  8
ASSI
100
AcDbPolyline
 62
253
  6
CONTINUOUS
 90
7
 70
0
 10
21.2751542616
 20
-22.0112972958
 10
21.2762058874
 20
-22.0039113427
 10
21.2772993344
 20
-21.9906356369
 10
21.2784067242
 20
-21.9715388063
 10
21.2794794182
 20
-21.946719086
 10
21.2805114799
 20
-21.9163015223
 10
21.2825407711
 20
-21.8392965295
  0
LINE
  5
369
100
AcDbEntity
  8
ASSI
100
AcDbLine
 62
7
  6
CONTINUOUS
 10
-42.4293069967
 20
-22.1957805891
 11
-46.3019940907
 21
-21.9928216587
  0
LINE
  5
36A
100
AcDbEntity
  8
ASSI
100
AcDbLine
 62
253
  6
CONTINUOUS
 10
-42.3857623005
 20
-21.6980624348
 11
-45.9363784286
 21
-21.5119825285
  0
LWPOLYLINE
  5
36B
100
AcDbEntity
  8
ASSI
100
AcDbPolyline
 62
253
  6
CONTINUOUS
 90
22
 70
0
 10
-45.9494579326
 20
-22.0112972958
 10
-46.0336662299
 20
-22.0039113427
 10
-46.1171294156
 20
-21.9906356369
 10
-46.1994366834
 20
-21.9715388063
 10
-46.2801819127
 20
-21.946719086
 10
-46.3589698801
 20
-21.9163015223
 10
-46.4354174648
 20
-21.8804353908
 10
-46.5091527568
 20
-21.8392965295
 10
-46.5798093563
 20
-21.7930909549
 10
-46.6470324877
 20
-21.7420511843
 10
-46.710491241
 20
-21.6864322743
 10
-46.7698767652
 20
-21.6265093407
 10
-46.824895829
 20
-21.5625793363
 10
-46.8752797045
 20
-21.4949585615
 10
-46.9207823485
 20
-21.4239822206
 10
-46.961178962
 20
-21.3500025947
 10
-46.9962705148
 20
-21.2733913729
 10
-47.0258903874
 20
-21.1945216159
 10
-47.0498982124
 20
-21.1137655479
 10
-47.0681753671
 20
-21.0315148828
 10
-47.0806294727
 20
-20.9481803337
 10
-47.087198049
 20
-20.8641725169
  0
LWPOLYLINE
  5
36C
100
AcDbEntity
  8
ASSI
100
AcDbPolyline
 62
253
  6
CONTINUOUS
 90
22
 70
0
 10
-45.9363784286
 20
-21.5119825285
 10
-45.985785397
 20
-21.5076300101
 10
-46.0343596979
 20
-21.4999362209
 10
-46.0821013314
 20
-21.4889011608
 10
-46.1292604175
 20
-21.4744359177
 10
-46.1755868362
 20
-21.4566294038
 10
-46.220330227
 20
-21.4357483555
 10
-46.2634452719
 20
-21.411748026
 10
-46.3049772891
 20
-21.3846731621
 10
-46.3443118724
 20
-21.3549247413
 10
-46.3814163423
 20
-21.3224611158
 10
-46.4163233784
 20
-21.2873239335
 10
-46.448516614
 20
-21.2500391151
 10
-46.4779527447
 20
-21.2105769827
 10
-46.5046750749
 20
-21.1689672143
 10
-46.528297151
 20
-21.1258247648
 10
-46.5487746458
 20
-21.0811058085
 10
-46.5661518865
 20
-21.034854171
 10
-46.5801754006
 20
-20.9878162842
 10
-46.5907606973
 20
-20.9402409587
 10
-46.5979922674
 20
-20.8918793839
 10
-46.601870111
 20
-20.8427315598
  0
LINE
  5
36D
100
AcDbEntity
  8
ASSI
100
AcDbLine
 62
253
  6
CONTINUOUS
 10
-47.0871980584
 20
-20.8641725273
 11
-47.0814938125
 21
-20.8638715254
  0
LINE
  5
36E
100
AcDbEntity
  8
ASSI
100
AcDbLine
 62
253
  6
CONTINUOUS
 10
-47.0814938125
 20
-20.8638715254
 11
-46.8779111225
 21
-20.8547311776
  0
LINE
  5
36F
100
AcDbEntity
  8
ASSI
100
AcDbLine
 62
253
  6
CONTINUOUS
 10
-46.8779111225
 20
-20.8547311776
 11
-46.601870111
 21
-20.8427315598
  0
LINE
  5
370
100
AcDbEntity
  8
ASSI
100
AcDbLine
 62
253
  6
CONTINUOUS
 10
-47.4375551875
 20
-20.8570737638
 11
-47.0871980601
 21
-20.8641725177
  0
LINE
  5
371
100
AcDbEntity
  8
ASSI
100
AcDbLine
 62
253
  6
CONTINUOUS
 10
-42.032383884
 20
-17.9203993319
 11
-42.0552596044
 21
-17.9203993317
  0
LWPOLYLINE
  5
372
100
AcDbEntity
  8
ASSI
100
AcDbPolyline
 62
253
  6
CONTINUOUS
 90
11
 70
0
 10
-45.9494578308
 20
22.0374818398
 10
-45.9506779148
 20
22.0346798646
 10
-45.9515984525
 20
22.0264474675
 10
-45.9522093759
 20
22.0128746873
 10
-45.9525040034
 20
21.9941099711
 10
-45.9524791124
 20
21.970358551
 10
-45.9521349749
 20
21.9418801992
 10
-45.9514753545
 20
21.908986387
 10
-45.9505074659
 20
21.8720368781
 10
-45.9492418948
 20
21.8314357938
 10
-45.9458761765
 20
21.7410902164
  0
LWPOLYLINE
  5
373
100
AcDbEntity
  8
ASSI
100
AcDbPolyline
 62
253
  6
CONTINUOUS
 90
9
 70
0
 10
-45.9494579326
 20
-22.0112972958
 10
-45.9506780345
 20
-22.0084952506
 10
-45.9515985809
 20
-22.0002626612
 10
-45.9522095046
 20
-21.9866895909
 10
-45.9525041251
 20
-21.9679245065
 10
-45.9524792208
 20
-21.9441726705
 10
-45.9521350655
 20
-21.9156939103
 10
-45.9514754253
 20
-21.8827997417
 10
-45.9505075171
 20
-21.8458499573
  0
LWPOLYLINE
  5
374
100
AcDbEntity
  8
ASSI
100
AcDbPolyline
 62
253
  6
CONTINUOUS
 90
16
 70
0
 10
-47.5356106476
 20
0.7610473687
 10
-47.5328471739
 20
0.7080587604
 10
-47.5248016085
 20
0.6568082357
 10
-47.5116913768
 20
0.6071781108
 10
-47.4934054316
 20
0.558846477
 10
-47.4699219909
 20
0.5121341106
 10
-47.4417654429
 20
0.4681629936
 10
-47.4093876441
 20
0.4276222538
 10
-47.3728547878
 20
0.3905856844
 10
-47.3326188061
 20
0.3574874501
 10
-47.289269471
 20
0.3288456269
 10
-47.2432199473
 20
0.3049239902
 10
-47.1948411591
 20
0.2858853573
 10
-47.1446801686
 20
0.2719870481
 10
-47.0934453613
 20
0.2634414041
 10
-47.0417970006
 20
0.2602995024
  0
LWPOLYLINE
  5
375
100
AcDbEntity
  8
ASSI
100
AcDbPolyline
 62
253
  6
CONTINUOUS
 90
13
 70
0
 10
-47.0871980601
 20
-20.8641725177
 10
-47.1593273465
 20
-19.114647394
 10
-47.2241275465
 20
-17.3933002501
 10
-47.2819006187
 20
-15.7001649685
 10
-47.3326756492
 20
-14.0445272392
 10
-47.3770749211
 20
-12.417163946
 10
-47.4160029
 20
-10.79033455
 10
-47.4494653879
 20
-9.1641040584
 10
-47.477469942
 20
-7.5384452294
 10
-47.5003628092
 20
-5.8854662815
 10
-47.5179465096
 20
-4.1958790433
 10
-47.5297920672
 20
-2.4790045592
 10
-47.5356106662
 20
-0.7348628132
  0
LWPOLYLINE
  5
376
100
AcDbEntity
  8
ASSI
100
AcDbPolyline
 62
253
  6
CONTINUOUS
 90
13
 70
0
 10
-46.601870111
 20
-20.8427315598
 10
-46.6735337525
 20
-19.0949305152
 10
-46.7384628285
 20
-17.3753537569
 10
-46.7966573389
 20
-15.6840012849
 10
-46.8477154128
 20
-14.0301006849
 10
-46.892038921
 20
-12.4044243711
 10
-46.9308334767
 20
-10.7792895867
 10
-46.9644780552
 20
-9.1547425072
 10
-46.9925936812
 20
-7.530736957
 10
-47.0152490408
 20
-5.8794516521
 10
-47.0324670294
 20
-4.1916128312
 10
-47.0442247517
 20
-2.4764942556
 10
-47.0511394262
 20
-0.6311860747
  0
LINE
  5
377
100
AcDbEntity
  8
0
100
AcDbLine
 62
253
  6
CONTINUOUS
 10
-47.7720639355
 20
-12.9565539997
 11
-47.7682437145
 21
-13.0737820553
  0
LINE
  5
378
100
AcDbEntity
  8
0
100
AcDbLine
 62
253
  6
CONTINUOUS
 10
-47.8118350776
 20
-11.6663751112
 11
-47.8152493819
 21
-11.5489001112
  0
LINE
  5
379
100
AcDbEntity
  8
0
100
AcDbLine
 62
253
  6
CONTINUOUS
 10
-47.8197309448
 20
-11.3928665001
 11
-47.8230648236
 21
-11.2753915002
  0
LINE
  5
37A
100
AcDbEntity
  8
0
100
AcDbLine
 62
253
  6
CONTINUOUS
 10
-47.8364739922
 20
-10.7899917236
 11
-47.8356444764
 21
-10.8206510198
  0
LINE
  5
37B
100
AcDbEntity
  8
0
100
AcDbLine
 62
253
  6
CONTINUOUS
 10
-47.8504744434
 20
-10.2587212226
 11
-47.8534757702
 21
-10.1412109449
  0
LINE
  5
37C
100
AcDbEntity
  8
0
100
AcDbLine
 62
253
  6
CONTINUOUS
 10
-47.8603267627
 20
-9.8677376116
 11
-47.8574067343
 21
-9.9852126116
  0
LWPOLYLINE
  5
37D
100
AcDbEntity
  8
ASSI
100
AcDbPolyline
 62
253
  6
CONTINUOUS
 90
10
 70
0
 10
-47.5356106661
 20
0.7610473632
 10
-47.5280677582
 20
2.8212641824
 10
-47.5114562594
 20
4.9140425203
 10
-47.4853549451
 20
7.0393390438
 10
-47.4496302126
 20
9.1815658264
 10
-47.4036935855
 20
11.3562154684
 10
-47.3458035524
 20
13.6098457946
 10
-47.2743478062
 20
15.9579128404
 10
-47.1885414526
 20
18.3847850542
 10
-47.0871980603
 20
20.8903570606
  0
LINE
  5
37E
100
AcDbEntity
  8
0
100
AcDbLine
 62
253
  6
CONTINUOUS
 10
-47.8568381874
 20
10.0341099621
 11
-47.8597579027
 21
9.9169171843
  0
LINE
  5
37F
100
AcDbEntity
  8
0
100
AcDbLine
 62
253
  6
CONTINUOUS
 10
-47.8357767964
 20
10.8419507713
 11
-47.8363747872
 21
10.819847509
  0
LINE
  5
380
100
AcDbEntity
  8
0
100
AcDbLine
 62
253
  6
CONTINUOUS
 10
-47.8352512642
 20
10.861338573
 11
-47.8348557133
 21
10.8759082952
  0
LINE
  5
381
100
AcDbEntity
  8
0
100
AcDbLine
 62
253
  6
CONTINUOUS
 10
-47.7674822188
 20
13.1232085724
 11
-47.7713092622
 21
13.0059805169
  0
LWPOLYLINE
  5
382
100
AcDbEntity
  8
ASSI
100
AcDbPolyline
 62
253
  6
CONTINUOUS
 90
16
 70
0
 10
-47.5356106484
 20
-0.7348628075
 10
-47.5328473943
 20
-0.6818761999
 10
-47.5248023894
 20
-0.6306273521
 10
-47.5116929762
 20
-0.5809985613
 10
-47.49340806
 20
-0.5326679349
 10
-47.469925786
 20
-0.4859562285
 10
-47.441770374
 20
-0.4419853296
 10
-47.4093935018
 20
-0.4014443176
 10
-47.3728612856
 20
-0.3644070852
 10
-47.3326255971
 20
-0.331307924
 10
-47.2892760983
 20
-0.3026649859
 10
-47.2432259181
 20
-0.2787421704
 10
-47.1948460989
 20
-0.2597024692
 10
-47.1446837684
 20
-0.2458033046
 10
-47.0934472974
 20
-0.2372570845
 10
-47.0417970013
 20
-0.2341149638
  0
LWPOLYLINE
  5
383
100
AcDbEntity
  8
ASSI
100
AcDbPolyline
 62
253
  6
CONTINUOUS
 90
22
 70
0
 10
-47.0871979433
 20
20.8903570552
 10
-47.0806293666
 20
20.9743648803
 10
-47.06817526
 20
21.0576994351
 10
-47.049898104
 20
21.1399501032
 10
-47.0258902784
 20
21.2207061708
 10
-46.9962704062
 20
21.299575925
 10
-46.961178854
 20
21.3761871445
 10
-46.9207822407
 20
21.4501667695
 10
-46.8752795968
 20
21.5211431097
 10
-46.8248957216
 20
21.5887638839
 10
-46.7698766583
 20
21.6526938874
 10
-46.7104911348
 20
21.7126168202
 10
-46.6470323824
 20
21.7682357295
 10
-46.5798092518
 20
21.8192754995
 10
-46.5091526531
 20
21.8654810736
 10
-46.4354173623
 20
21.9066199345
 10
-46.3589697795
 20
21.9424860653
 10
-46.2801818145
 20
21.9729036284
 10
-46.1994365865
 20
21.9977233488
 10
-46.1171293184
 20
22.0168201799
 10
-46.0336661309
 20
22.0300958863
 10
-45.9494578308
 20
22.0374818398
  0
LWPOLYLINE
  5
384
100
AcDbEntity
  8
ASSI
100
AcDbPolyline
 62
253
  6
CONTINUOUS
 90
22
 70
0
 10
-46.6018700569
 20
20.8689161066
 10
-46.5979921896
 20
20.9180639299
 10
-46.5907606017
 20
20.966425504
 10
-46.5801752932
 20
21.0140008291
 10
-46.5661517751
 20
21.0610387158
 10
-46.5487745363
 20
21.1072903534
 10
-46.5282970434
 20
21.1520093098
 10
-46.5046749675
 20
21.1951517593
 10
-46.4779526375
 20
21.2367615277
 10
-46.448516507
 20
21.2762236601
 10
-46.4163232716
 20
21.3135084784
 10
-46.3814162357
 20
21.3486456607
 10
-46.3443117662
 20
21.3811092861
 10
-46.3049771831
 20
21.4108577068
 10
-46.2634451664
 20
21.4379325705
 10
-46.2203301219
 20
21.4619328999
 10
-46.1755867315
 20
21.4828139482
 10
-46.1292603134
 20
21.5006204621
 10
-46.0821012279
 20
21.5150857052
 10
-46.034359595
 20
21.5261207651
 10
-45.9857852946
 20
21.5338145542
 10
-45.9363783268
 20
21.5381670724
  0
LWPOLYLINE
  5
385
100
AcDbEntity
  8
ASSI
100
AcDbPolyline
 62
253
  6
CONTINUOUS
 90
9
 70
0
 10
-47.0500892716
 20
0.4264921221
 10
-47.0494448728
 20
0.3893588977
 10
-47.0486682627
 20
0.3562930966
 10
-47.0477677096
 20
0.3276571778
 10
-47.04675315
 20
0.3037760836
 10
-47.04563598
 20
0.2849211157
 10
-47.0444286115
 20
0.2713008875
 10
-47.0431442389
 20
0.2630634446
 10
-47.0417970006
 20
0.2602995024
  0
LINE
  5
386
100
AcDbEntity
  8
ASSI
100
AcDbLine
 62
253
  6
CONTINUOUS
 10
-47.0509556446
 20
0.5113643098
 11
-47.0500892716
 21
0.4264921221
  0
LINE
  5
387
100
AcDbEntity
  8
ASSI
100
AcDbLine
 62
253
  6
CONTINUOUS
 10
-47.0512286888
 20
0.6070490128
 11
-47.0509556446
 21
0.5113643098
  0
LINE
  5
388
100
AcDbEntity
  8
ASSI
100
AcDbLine
 62
253
  6
CONTINUOUS
 10
-47.0511394262
 20
-0.6311860747
 11
-47.0511677687
 21
-0.5319923384
  0
LINE
  5
389
100
AcDbEntity
  8
ASSI
100
AcDbLine
 62
253
  6
CONTINUOUS
 10
-47.0436855957
 20
2.8185011515
 11
-47.0512286888
 21
0.6070490128
  0
LWPOLYLINE
  5
38A
100
AcDbEntity
  8
ASSI
100
AcDbPolyline
 62
253
  6
CONTINUOUS
 90
9
 70
0
 10
-47.0436855957
 20
2.8185011515
 10
-47.0269216291
 20
4.9091440399
 10
-47.0002303071
 20
7.0322091292
 10
-46.9647130317
 20
9.1722352999
 10
-46.919268401
 20
11.3446836715
 10
-46.8605922087
 20
13.5959376021
 10
-46.7875830529
 20
15.9414582112
 10
-46.7013423356
 20
18.3657843794
 10
-46.6018700569
 20
20.8689161066
  0
LWPOLYLINE
  5
38B
100
AcDbEntity
  8
ASSI
100
AcDbPolyline
 62
253
  6
CONTINUOUS
 90
11
 70
0
 10
-47.0511677687
 20
-0.5319923384
 10
-47.0505945984
 20
-0.4411077294
 10
-47.0500892736
 20
-0.4003076683
 10
-47.0494448749
 20
-0.3631744233
 10
-47.0486682647
 20
-0.3301086045
 10
-47.0477677116
 20
-0.3014726729
 10
-47.0467531519
 20
-0.2775915683
 10
-47.0456359818
 20
-0.2587365912
 10
-47.044428613
 20
-0.2451163555
 10
-47.0431442401
 20
-0.2368789077
 10
-47.0417970013
 20
-0.2341149638
  0
LINE
  5
38C
100
AcDbEntity
  8
ASSI
100
AcDbLine
 62
253
  6
CONTINUOUS
 10
-45.9415250422
 20
21.6418913308
 11
-45.9363783268
 21
21.5381670724
  0
LINE
  5
38D
100
AcDbEntity
  8
ASSI
100
AcDbLine
 62
253
  6
CONTINUOUS
 10
-45.9458761765
 20
21.7410902164
 11
-45.9415250422
 21
21.6418913308
  0
LINE
  5
38E
100
AcDbEntity
  8
ASSI
100
AcDbLine
 62
253
  6
CONTINUOUS
 10
-45.9505075171
 20
-21.8458499573
 11
-45.9476925067
 21
-21.7614401308
  0
LINE
  5
38F
100
AcDbEntity
  8
ASSI
100
AcDbLine
 62
253
  6
CONTINUOUS
 10
-45.9476925067
 20
-21.7614401308
 11
-45.9438128661
 21
-21.6661473089
  0
LWPOLYLINE
  5
390
100
AcDbEntity
  8
ASSI
100
AcDbPolyline
 62
253
  6
CONTINUOUS
 90
3
 70
0
 10
-45.9438128661
 20
-21.6661473089
 10
-45.9390378689
 20
-21.5641290167
 10
-45.9363784286
 20
-21.5119825285
  0
LINE
  5
391
100
AcDbEntity
  8
ASSI
100
AcDbLine
 62
253
  6
CONTINUOUS
 10
-47.5356106662
 20
-0.7348628132
 11
-47.9815131605
 21
-0.7389115957
  0
LINE
  5
392
100
AcDbEntity
  8
ASSI
100
AcDbLine
 62
253
  6
CONTINUOUS
 10
-41.632383884
 20
-0.6868125485
 11
-47.0505222077
 21
-0.7340959253
  0
LINE
  5
393
100
AcDbEntity
  8
ASSI
100
AcDbLine
 62
7
  6
CONTINUOUS
 10
-41.632383884
 20
-0.1869077307
 11
-47.4859592288
 21
-0.2379911088
  0
LINE
  5
394
100
AcDbEntity
  8
ASSI
100
AcDbLine
 62
253
  6
CONTINUOUS
 10
-47.0505222064
 20
-0.7340959253
 11
-47.5356106484
 21
-0.7348628075
  0
LINE
  5
395
100
AcDbEntity
  8
ASSI
100
AcDbLine
 62
7
  6
CONTINUOUS
 10
-42.032383884
 20
17.946581634
 11
-42.032383884
 21
17.6851131904
  0
LINE
  5
396
100
AcDbEntity
  8
ASSI
100
AcDbLine
 62
7
  6
CONTINUOUS
 10
-42.032383884
 20
-17.6589286518
 11
-42.032383884
 21
-17.9203970544
  0
LINE
  5
397
100
AcDbEntity
  8
ASSI
100
AcDbLine
 62
7
  6
CONTINUOUS
 10
-41.632383884
 20
13.1130922693
 11
-41.632383884
 21
0.2130922693
  0
LINE
  5
398
100
AcDbEntity
  8
ASSI
100
AcDbLine
 62
7
  6
CONTINUOUS
 10
-41.632383884
 20
-13.0869077307
 11
-41.632383884
 21
-0.1869077307
  0
LINE
  5
399
100
AcDbEntity
  8
ASSI
100
AcDbLine
 62
253
  6
CONTINUOUS
 10
-47.5356106476
 20
0.7610473687
 11
-47.0505222058
 21
0.7602804639
  0
LINE
  5
39A
100
AcDbEntity
  8
ASSI
100
AcDbLine
 62
7
  6
CONTINUOUS
 10
-47.4859592288
 20
0.2641756475
 11
-41.632383884
 21
0.2130922693
  0
LINE
  5
39B
100
AcDbEntity
  8
ASSI
100
AcDbLine
 62
253
  6
CONTINUOUS
 10
-47.050522207
 20
0.760280464
 11
-41.632383884
 21
0.7129970871
  0
LINE
  5
39C
100
AcDbEntity
  8
ASSI
100
AcDbLine
 62
253
  6
CONTINUOUS
 10
-47.9815131605
 20
0.7650961343
 11
-47.5356106661
 21
0.7610473632
  0
LINE
  5
39D
100
AcDbEntity
  8
ASSI
100
AcDbLine
 62
7
  6
CONTINUOUS
 10
-42.4293069967
 20
22.2219651278
 11
-41.632383884
 21
13.1130922693
  0
LINE
  5
39E
100
AcDbEntity
  8
ASSI
100
AcDbLine
 62
7
  6
CONTINUOUS
 10
-41.632383884
 20
-13.0869077307
 11
-42.4293069967
 21
-22.1957805891
  0
LINE
  5
39F
100
AcDbEntity
  8
ASSI
100
AcDbLine
 62
253
  6
CONTINUOUS
 10
-42.032383884
 20
17.9465838705
 11
-42.0552596044
 21
17.9465838705
  0
LINE
  5
3A0
100
AcDbEntity
  8
ASSI
100
AcDbLine
 62
253
  6
CONTINUOUS
 10
-45.9363783268
 20
21.5381670724
 11
-42.3857623005
 21
21.7242469735
  0
LINE
  5
3A1
100
AcDbEntity
  8
ASSI
100
AcDbLine
 62
7
  6
CONTINUOUS
 10
-46.3019940907
 20
22.0190061973
 11
-42.4293069967
 21
22.2219651278
  0
LINE
  5
3A2
100
AcDbEntity
  8
ASSI
100
AcDbLine
 62
253
  6
CONTINUOUS
 10
-47.4321563209
 20
20.8834014863
 11
-47.4375551876
 21
20.8832583009
  0
LINE
  5
3A3
100
AcDbEntity
  8
ASSI
100
AcDbLine
 62
253
  6
CONTINUOUS
 10
-47.0871980603
 20
20.8903570606
 11
-47.4321563209
 21
20.8834014863
  0
LWPOLYLINE
  5
3A4
100
AcDbEntity
  8
ASSI
100
AcDbPolyline
 62
253
  6
CONTINUOUS
 90
4
 70
0
 10
-47.0871851906
 20
20.8903565228
 10
-47.0814812069
 20
20.8900555309
 10
-47.0710000478
 20
20.8895495732
 10
-46.6018700569
 20
20.8689161066
  0
ARC
  5
3A5
100
AcDbEntity
  8
ASSI
100
AcDbCircle
 62
7
  6
CONTINUOUS
 10
-46.2391894996
 20
-20.7944662926
 40
1.2
100
AcDbArc
 50
182.9907131675
 51
266.9999309764
  0
ARC
  5
3A6
100
AcDbEntity
  8
ASSI
100
AcDbCircle
 62
7
  6
CONTINUOUS
 10
-47.4815140369
 20
-0.7379713554
 40
0.5
100
AcDbArc
 50
90.5093881764
 51
180.1077622649
  0
ARC
  5
3A7
100
AcDbEntity
  8
ASSI
100
AcDbCircle
 62
7
  6
CONTINUOUS
 10
-42.332383884
 20
-17.9203993319
 40
0.3
100
AcDbArc
 50
334.9999283477
 51
0.0004349712
  0
ARC
  5
3A8
100
AcDbEntity
  8
ASSI
100
AcDbCircle
 62
7
  6
CONTINUOUS
 10
-46.2391894996
 20
20.8206508313
 40
1.2
100
AcDbArc
 50
93.0000690236
 51
177.0092868325
  0
ARC
  5
3A9
100
AcDbEntity
  8
ASSI
100
AcDbCircle
 62
7
  6
CONTINUOUS
 10
-47.4815140369
 20
0.7641558941
 40
0.5
100
AcDbArc
 50
179.8922377351
 51
269.4906118236
  0
ARC
  5
3AA
100
AcDbEntity
  8
ASSI
100
AcDbCircle
 62
7
  6
CONTINUOUS
 10
-42.332383884
 20
17.9465838705
 40
0.3
100
AcDbArc
 50
359.9995650288
 51
25.0000764768
  0
ARC
  5
3AB
100
AcDbEntity
  8
ASSI
100
AcDbCircle
 62
7
  6
CONTINUOUS
 10
352.017616116
 20
0.0130922693
 40
400.0
100
AcDbArc
 50
177.0092106876
 51
179.89228325
  0
ARC
  5
3AC
100
AcDbEntity
  8
0
100
AcDbCircle
 62
253
  6
CONTINUOUS
 10
352.017616116
 20
0.0130922693
 40
400.0
100
AcDbArc
 50
178.4518579628
 51
178.5644447565
  0
ARC
  5
3AD
100
AcDbEntity
  8
0
100
AcDbCircle
 62
253
  6
CONTINUOUS
 10
352.017616116
 20
0.0130922693
 40
400.0
100
AcDbArc
 50
178.1385784221
 51
178.4486907452
  0
ARC
  5
3AE
100
AcDbEntity
  8
ASSI
100
AcDbCircle
 62
7
  6
CONTINUOUS
 10
352.017616116
 20
0.0130922693
 40
400.0
100
AcDbArc
 50
180.10771675
 51
182.9907893124
  0
ARC
  5
3AF
100
AcDbEntity
  8
0
100
AcDbCircle
 62
253
  6
CONTINUOUS
 10
352.017616116
 20
0.0130922693
 40
400.0
100
AcDbArc
 50
181.4323008537
 51
181.5487883196
  0
ARC
  5
3B0
100
AcDbEntity
  8
0
100
AcDbCircle
 62
253
  6
CONTINUOUS
 10
352.017616116
 20
0.0130922693
 40
400.0
100
AcDbArc
 50
181.5502492066
 51
181.8580906552
  0
ELLIPSE
  5
3B1
100
AcDbEntity
  8
ASSI
100
AcDbEllipse
 62
7
  6
CONTINUOUS
 10
18.1468468103
 20
22.1955999853
 30
0.0
 11
0.2
 21
0.0
 31
0.0
 40
0.0524077793
 41
-1.5707963268
 42
-0.5235987756
  0
ELLIPSE
  5
3B2
100
AcDbEntity
  8
ASSI
100
AcDbEllipse
 62
7
  6
CONTINUOUS
 10
14.7777869179
 20
22.1955999853
 30
0.0
 11
0.2
 21
0.0
 31
0.0
 40
0.0524077793
 41
-2.617993878
 42
-1.5707963268
  0
ELLIPSE
  5
3B3
100
AcDbEntity
  8
ASSI
100
AcDbEllipse
 62
7
  6
CONTINUOUS
 10
6.9468468103
 20
22.1955999853
 30
0.0
 11
0.2
 21
0.0
 31
0.0
 40
0.0524077793
 41
-1.5707963268
 42
-0.5235987756
  0
ELLIPSE
  5
3B4
100
AcDbEntity
  8
ASSI
100
AcDbEllipse
 62
7
  6
CONTINUOUS
 10
3.5777869179
 20
22.1955999853
 30
0.0
 11
0.2
 21
0.0
 31
0.0
 40
0.0524077793
 41
-2.617993878
 42
-1.5707963268
  0
ELLIPSE
  5
3B5
100
AcDbEntity
  8
ASSI
100
AcDbEllipse
 62
7
  6
CONTINUOUS
 10
-7.7222130821
 20
22.1955999853
 30
0.0
 11
0.2
 21
0.0
 31
0.0
 40
0.0524077793
 41
-2.617993878
 42
-1.5707963268
  0
ELLIPSE
  5
3B6
100
AcDbEntity
  8
ASSI
100
AcDbEllipse
 62
7
  6
CONTINUOUS
 10
-4.3531531897
 20
22.1955999853
 30
0.0
 11
0.2
 21
0.0
 31
0.0
 40
0.0524077793
 41
-1.5707963268
 42
-0.5235987756
  0
ELLIPSE
  5
3B7
100
AcDbEntity
  8
ASSI
100
AcDbEllipse
 62
7
  6
CONTINUOUS
 10
-15.5531531897
 20
22.1955999853
 30
0.0
 11
0.2
 21
0.0
 31
0.0
 40
0.0524077793
 41
-1.5707963268
 42
-0.5235987756
  0
ELLIPSE
  5
3B8
100
AcDbEntity
  8
ASSI
100
AcDbEllipse
 62
7
  6
CONTINUOUS
 10
-18.9222130821
 20
22.1955999853
 30
0.0
 11
0.2
 21
0.0
 31
0.0
 40
0.0524077793
 41
-2.617993878
 42
-1.5707963268
  0
ELLIPSE
  5
3B9
100
AcDbEntity
  8
ASSI
100
AcDbEllipse
 62
7
  6
CONTINUOUS
 10
21.3875155914
 20
0.7131113085
 30
0.0
 11
0.4745319423
 21
-0.1581451893
 31
0.0
 40
0.9996192872
 41
-1.2489924673
 42
0.3215754254
  0
ELLIPSE
  5
3BA
100
AcDbEntity
  8
ASSI
100
AcDbEllipse
 62
7
  6
CONTINUOUS
 10
-22.1628818632
 20
0.7131113085
 30
0.0
 11
0.4745319423
 21
0.1581451893
 31
0.0
 40
0.9996192872
 41
2.8200172282
 42
4.3905851209
  0
ELLIPSE
  5
3BB
100
AcDbEntity
  8
ASSI
100
AcDbEllipse
 62
7
  6
CONTINUOUS
 10
21.3677892475
 20
21.7235641663
 30
0.0
 11
0.4962344879
 21
-0.0628595572
 31
0.0
 40
0.9963456432
 41
0.1278292453
 42
1.6972555761
  0
ELLIPSE
  5
3BC
100
AcDbEntity
  8
ASSI
100
AcDbEllipse
 62
7
  6
CONTINUOUS
 10
-22.1431555194
 20
21.7235641663
 30
0.0
 11
0.4962344879
 21
0.0628595572
 31
0.0
 40
0.9963456432
 41
1.4443370775
 42
3.0137634083
  0
ELLIPSE
  5
3BD
100
AcDbEntity
  8
ASSI
100
AcDbEllipse
 62
7
  6
CONTINUOUS
 10
-18.9222130821
 20
-22.1694154466
 30
0.0
 11
0.2
 21
-0.0
 31
0.0
 40
0.0524077793
 41
1.5707963268
 42
2.617993878
  0
ELLIPSE
  5
3BE
100
AcDbEntity
  8
ASSI
100
AcDbEllipse
 62
7
  6
CONTINUOUS
 10
-15.5531531897
 20
-22.1694154466
 30
0.0
 11
0.2
 21
-0.0
 31
0.0
 40
0.0524077793
 41
0.5235987756
 42
1.5707963268
  0
ELLIPSE
  5
3BF
100
AcDbEntity
  8
ASSI
100
AcDbEllipse
 62
7
  6
CONTINUOUS
 10
-7.7222130821
 20
-22.1694154466
 30
0.0
 11
0.2
 21
0.0
 31
0.0
 40
0.0524077793
 41
1.5707963268
 42
2.617993878
  0
ELLIPSE
  5
3C0
100
AcDbEntity
  8
ASSI
100
AcDbEllipse
 62
7
  6
CONTINUOUS
 10
-4.3531531897
 20
-22.1694154466
 30
0.0
 11
0.2
 21
0.0
 31
0.0
 40
0.0524077793
 41
0.5235987756
 42
1.5707963268
  0
ELLIPSE
  5
3C1
100
AcDbEntity
  8
ASSI
100
AcDbEllipse
 62
7
  6
CONTINUOUS
 10
6.9468468103
 20
-22.1694154466
 30
0.0
 11
0.2
 21
0.0
 31
0.0
 40
0.0524077793
 41
0.5235987756
 42
1.5707963268
  0
ELLIPSE
  5
3C2
100
AcDbEntity
  8
ASSI
100
AcDbEllipse
 62
7
  6
CONTINUOUS
 10
3.5777869179
 20
-22.1694154466
 30
0.0
 11
0.2
 21
0.0
 31
0.0
 40
0.0524077793
 41
1.5707963268
 42
2.617993878
  0
ELLIPSE
  5
3C3
100
AcDbEntity
  8
ASSI
100
AcDbEllipse
 62
7
  6
CONTINUOUS
 10
14.7777869179
 20
-22.1694154466
 30
0.0
 11
0.2
 21
0.0
 31
0.0
 40
0.0524077793
 41
1.5707963268
 42
2.617993878
  0
ELLIPSE
  5
3C4
100
AcDbEntity
  8
ASSI
100
AcDbEllipse
 62
7
  6
CONTINUOUS
 10
18.1468468103
 20
-22.1694154466
 30
0.0
 11
0.2
 21
0.0
 31
0.0
 40
0.0524077793
 41
0.5235987756
 42
1.5707963268
  0
ELLIPSE
  5
3C5
100
AcDbEntity
  8
ASSI
100
AcDbEllipse
 62
7
  6
CONTINUOUS
 10
-22.1628818632
 20
-0.6869267699
 30
0.0
 11
0.4745319423
 21
-0.1581451893
 31
0.0
 40
0.9996192872
 41
1.8926001863
 42
3.463168079
  0
ELLIPSE
  5
3C6
100
AcDbEntity
  8
ASSI
100
AcDbEllipse
 62
7
  6
CONTINUOUS
 10
21.3875155914
 20
-0.6869267699
 30
0.0
 11
0.4745319423
 21
0.1581451893
 31
0.0
 40
0.9996192872
 41
-0.3215754254
 42
1.2489924673
  0
ELLIPSE
  5
3C7
100
AcDbEntity
  8
ASSI
100
AcDbEllipse
 62
7
  6
CONTINUOUS
 10
-22.1431555194
 20
-21.6973796277
 30
0.0
 11
0.4962344879
 21
-0.0628595572
 31
0.0
 40
0.9963456432
 41
-3.0137634083
 42
-1.4443370775
  0
ELLIPSE
  5
3C8
100
AcDbEntity
  8
ASSI
100
AcDbEllipse
 62
7
  6
CONTINUOUS
 10
21.3677892475
 20
-21.6973796277
 30
0.0
 11
0.4962344879
 21
0.0628595572
 31
0.0
 40
0.9963456432
 41
-1.6972555761
 42
-0.1278292453
  0
ELLIPSE
  5
3C9
100
AcDbEntity
  8
0
100
AcDbEllipse
 62
253
  6
CONTINUOUS
 10
352.017616116
 20
0.0130922693
 30
0.0
 11
-0.0
 21
400.0
 31
0.0
 40
1.0
 41
1.5381485866
 42
1.5459005783
  0
ENDSEC
  0
SECTION
  2
OBJECTS
  0
DICTIONARY
  5
C
100
AcDbDictionary
280
0
281
1
  3
ACAD_GROUP
350
D
  3
ACAD_MLINESTYLE
350
17
  3
ACAD_LAYOUT
350
1A
  3
ACAD_PLOTSETTINGS
350
19
  3
ACAD_PLOTSTYLENAME
350
E
  0
DICTIONARY
  5
D
102
{ACAD_REACTORS
330
C
102
}
100
AcDbDictionary
280
0
281
1
  0
ACDBDICTIONARYWDFLT
  5
E
102
{ACAD_REACTORS
330
C
102
}
100
AcDbDictionary
281
1
  3
Normal
350
F
100
AcDbDictionaryWithDefault
340
F
  0
DICTIONARY
  5
17
102
{ACAD_REACTORS
330
C
102
}
100
AcDbDictionary
280
0
281
1
  3
Standard
350
18
  0
DICTIONARY
  5
19
102
{ACAD_REACTORS
330
C
102
}
100
AcDbDictionary
281
1
  0
DICTIONARY
  5
1A
102
{ACAD_REACTORS
330
C
102
}
100
AcDbDictionary
281
1
  3
Model
350
3CA
  3
Layout1
350
3CB
  0
ACDBPLACEHOLDER
  5
F
102
{ACAD_REACTORS
330
E
102
}
  0
MLINESTYLE
  5
18
102
{ACAD_REACTORS
330
17
102
}
100
AcDbMlineStyle
  2
STANDARD
 70
0
  3

 62
256
 51
90.0
 52
90.0
 71
2
 49
0.5
 62
256
  6
BYLAYER
 49
-0.5
 62
256
  6
BYLAYER
  0
LAYOUT
  5
3CA
102
{ACAD_REACTORS
330
1A
102
}
100
AcDbPlotSettings
  1

  2
none_device
  4
ISO_A4_(297.00_x_210.00_MM)
  6

 40
0.0
 41
0.0
 42
0.0
 43
0.0
 44
297.0
 45
210.0
 46
0.0
 47
0.0
 48
0.0
 49
0.0
140
0.0
141
0.0
142
1.0
143
1.0
 70
1024
 72
1
 73
0
 74
0
  7

 75
0
147
1.0
148
0.0
149
0.0
100
AcDbLayout
  1
Model
 70
0
 71
0
 10
0.0
 20
0.0
 11
297.0
 21
210.0
 12
0.0
 22
0.0
 32
0.0
 14
0.0
 24
0.0
 34
0.0
 15
0.0
 25
0.0
 35
0.0
146
0.0
 13
0.0
 23
0.0
 33
0.0
 16
1.0
 26
0.0
 36
0.0
 17
0.0
 27
1.0
 37
0.0
 76
0
330
220
345
0
346
0
  0
LAYOUT
  5
3CB
102
{ACAD_REACTORS
330
1A
102
}
100
AcDbPlotSettings
  1

  2
none_device
  4
ISO_A4_(297.00_x_210.00_MM)
  6

 40
0.0
 41
0.0
 42
0.0
 43
0.0
 44
297.0
 45
210.0
 46
0.0
 47
0.0
 48
0.0
 49
0.0
140
0.0
141
0.0
142
1.0
143
1.0
 70
0
 72
1
 73
0
 74
0
  7

 75
0
147
1.0
148
0.0
149
0.0
100
AcDbLayout
  1
Layout1
 70
0
 71
1
 10
0.0
 20
0.0
 11
297.0
 21
210.0
 12
0.0
 22
0.0
 32
0.0
 14
0.0
 24
0.0
 34
0.0
 15
0.0
 25
0.0
 35
0.0
146
0.0
 13
0.0
 23
0.0
 33
0.0
 16
1.0
 26
0.0
 36
0.0
 17
0.0
 27
1.0
 37
0.0
 76
0
330
221
345
0
346
0
  0
ENDSEC
  0
EOF
