  0
SECTION
  2
HEADER
  9
$ACADVER
  1
AC1021
  9
$DWGCODEPAGE
  3
ANSI_1252
  9
$EXTMAX
 10
297.0
 20
210.0
 30
0.0
  9
$EXTMIN
 10
0.0
 20
0.0
 30
0.0
  9
$LIMMIN
 10
0.0
 20
0.0
  9
$LIMMAX
 10
297.0
 20
210.0
  9
$VIEWCTR
 10
148.5
 20
105.0
  9
$VIEWSIZE
 40
210.0
  9
$CLAYER
  8
0
  9
$LTSCALE
 40
16.335
  9
$CELTYPE
  6
BYLAYER
  9
$DIMSCALE
 40
1.0
  9
$DIMASZ
 40
3.0
  9
$DIMEXO
 40
0.5
  9
$DIMDLI
 40
11.286
  9
$DIMEXE
 40
1.5
  9
$DIMCEN
 40
2.673
  9
$DIMLFAC
 40
1.0
  9
$DIMBLK
  1
_FILLED
  9
$DIMALT
 70
0
  9
$DIMALTF
 40
25.4
  9
$DIMTXT
 40
3.0
  9
$DIMTOL
 70
1
  9
$DIMLIM
 70
0
  9
$DIMTFAC
 40
1.0
  9
$DIMTP
 40
0.01
  9
$DIMTM
 40
0.01
  9
$DIMGAP
 40
0.625
  9
$DIMDSEP
 70
44
  9
$AUNITS
 70
0
  9
$PDMODE
 70
3
  9
$PDSIZE
 40
3.0
  9
$HANDSEED
  5
39C
  9
$TILEMODE
 70
1
  9
$MEASUREMENT
 70
1
  9
$INSUNITS
 70
4
  0
ENDSEC
  0
SECTION
  2
CLASSES
  0
CLASS
  1
ACDBDICTIONARYWDFLT
  2
AcDbDictionaryWithDefault
  3
AutoCAD 2000
 90
0
 91
1
280
0
281
0
  0
CLASS
  1
ACDBPLACEHOLDER
  2
AcDbPlaceHolder
  3
AutoCAD 2000
 90
0
 91
1
280
0
281
0
  0
CLASS
  1
LAYOUT
  2
AcDbLayout
  3
AutoCAD 2000
 90
0
 91
0
280
0
281
0
  0
ENDSEC
  0
SECTION
  2
TABLES
  0
TABLE
  2
VPORT
  5
8
100
AcDbSymbolTable
 70
2
  0
VPORT
  5
1F4
100
AcDbSymbolTableRecord
100
AcDbViewportTableRecord
  2
*ACTIVE
 70
0
 10
0.0
 20
0.0
 11
1.0
 21
1.0
 12
148.5
 22
105.0
 13
0.0
 23
0.0
 14
1.0
 24
1.0
 15
0.0
 25
0.0
 16
0.0
 26
0.0
 36
1.0
 17
0.0
 27
0.0
 37
0.0
 40
210.0
 41
1.4142857143
 42
50.0
 43
0.0
 44
0.0
 50
0.0
 51
0.0
 71
0
 72
100
 73
1
 74
1
 75
0
 76
0
 77
0
 78
0
  0
ENDTAB
  0
TABLE
  2
LTYPE
  5
5
100
AcDbSymbolTable
 70
6
  0
LTYPE
  5
14
100
AcDbSymbolTableRecord
100
AcDbLinetypeTableRecord
  2
BYBLOCK
 70
0
  3

 72
65
 73
0
 40
0.0
  0
LTYPE
  5
15
100
AcDbSymbolTableRecord
100
AcDbLinetypeTableRecord
  2
BYLAYER
 70
0
  3

 72
65
 73
0
 40
0.0
  0
LTYPE
  5
16
100
AcDbSymbolTableRecord
100
AcDbLinetypeTableRecord
  2
CONTINUOUS
 70
64
  3
Solid line
 72
65
 73
0
 40
0.0
  0
LTYPE
  5
1F5
100
AcDbSymbolTableRecord
100
AcDbLinetypeTableRecord
  2
CENTER
 70
64
  3
____ _ ____ _ ____ _ ____ _ ____ _ ____ _ ____
 72
65
 73
4
 40
0.6
 49
0.375
 74
0
 49
-0.075
 74
0
 49
0.075
 74
0
 49
-0.075
 74
0
  0
LTYPE
  5
1F6
100
AcDbSymbolTableRecord
100
AcDbLinetypeTableRecord
  2
HIDDEN
 70
64
  3
- - - - - - - - - - - - - - - - - - - -
 72
65
 73
2
 40
0.2
 49
0.1
 74
0
 49
-0.1
 74
0
  0
LTYPE
  5
1F7
100
AcDbSymbolTableRecord
100
AcDbLinetypeTableRecord
  2
PHANTOM
 70
64
  3
_____ _ _ _____ _ _ _____ _ _ _____
 72
65
 73
6
 40
0.8
 49
0.45
 74
0
 49
-0.05
 74
0
 49
0.1
 74
0
 49
-0.05
 74
0
 49
0.1
 74
0
 49
-0.05
 74
0
  0
LTYPE
  5
1F8
100
AcDbSymbolTableRecord
100
AcDbLinetypeTableRecord
  2
DOT
 70
64
  3
. . . . . . . . . . . . . . . . . . . .
 72
65
 73
2
 40
0.2
 49
0.1
 74
0
 49
-0.1
 74
0
  0
LTYPE
  5
1F9
100
AcDbSymbolTableRecord
100
AcDbLinetypeTableRecord
  2
DASHED
 70
64
  3
- - - - - - - - - - - - - - - - - - - -
 72
65
 73
2
 40
0.2
 49
0.1
 74
0
 49
-0.1
 74
0
  0
ENDTAB
  0
TABLE
  2
LAYER
  5
2
100
AcDbSymbolTable
 70
36
  0
LAYER
  5
10
100
AcDbSymbolTableRecord
100
AcDbLayerTableRecord
  2
0
 70
0
 62
7
  6
CONTINUOUS
370
-3
390
F
  0
LAYER
  5
1FA
100
AcDbSymbolTableRecord
100
AcDbLayerTableRecord
  2
DEFAULT_1
 70
0
 62
7
  6
CENTER
370
-3
390
F
  0
LAYER
  5
1FB
100
AcDbSymbolTableRecord
100
AcDbLayerTableRecord
  2
DEFAULT_2
 70
0
 62
7
  6
HIDDEN
370
-3
390
F
  0
LAYER
  5
1FC
100
AcDbSymbolTableRecord
100
AcDbLayerTableRecord
  2
DEFAULT_3
 70
0
 62
7
  6
PHANTOM
370
-3
390
F
  0
LAYER
  5
1FD
100
AcDbSymbolTableRecord
100
AcDbLayerTableRecord
  2
ASSI
 70
0
 62
7
  6
CONTINUOUS
370
-3
390
F
  0
LAYER
  5
1FE
100
AcDbSymbolTableRecord
100
AcDbLayerTableRecord
  2
COLOR3
 70
0
 62
7
  6
CONTINUOUS
370
-3
390
F
  0
LAYER
  5
1FF
100
AcDbSymbolTableRecord
100
AcDbLayerTableRecord
  2
COORDINATE
 70
0
 62
7
  6
CONTINUOUS
370
-3
390
F
  0
LAYER
  5
200
100
AcDbSymbolTableRecord
100
AcDbLayerTableRecord
  2
COPY_PUBLISH
 70
0
 62
7
  6
CONTINUOUS
370
-3
390
F
  0
LAYER
  5
201
100
AcDbSymbolTableRecord
100
AcDbLayerTableRecord
  2
COSMETIC
 70
0
 62
7
  6
CONTINUOUS
370
-3
390
F
  0
LAYER
  5
202
100
AcDbSymbolTableRecord
100
AcDbLayerTableRecord
  2
COSMETICI
 70
0
 62
7
  6
CONTINUOUS
370
-3
390
F
  0
LAYER
  5
203
100
AcDbSymbolTableRecord
100
AcDbLayerTableRecord
  2
CURVE
 70
0
 62
7
  6
CONTINUOUS
370
-3
390
F
  0
LAYER
  5
204
100
AcDbSymbolTableRecord
100
AcDbLayerTableRecord
  2
DRAFT
 70
0
 62
7
  6
CONTINUOUS
370
-3
390
F
  0
LAYER
  5
205
100
AcDbSymbolTableRecord
100
AcDbLayerTableRecord
  2
IMPORT_IGES
 70
0
 62
7
  6
CONTINUOUS
370
-3
390
F
  0
LAYER
  5
206
100
AcDbSymbolTableRecord
100
AcDbLayerTableRecord
  2
INTFCLR_1
 70
0
 62
7
  6
CONTINUOUS
370
-3
390
F
  0
LAYER
  5
207
100
AcDbSymbolTableRecord
100
AcDbLayerTableRecord
  2
INTF_10
 70
0
 62
7
  6
CONTINUOUS
370
-3
390
F
  0
LAYER
  5
208
100
AcDbSymbolTableRecord
100
AcDbLayerTableRecord
  2
INTF_13
 70
0
 62
7
  6
CONTINUOUS
370
-3
390
F
  0
LAYER
  5
209
100
AcDbSymbolTableRecord
100
AcDbLayerTableRecord
  2
INTF_15
 70
0
 62
7
  6
CONTINUOUS
370
-3
390
F
  0
LAYER
  5
20A
100
AcDbSymbolTableRecord
100
AcDbLayerTableRecord
  2
INTF_16
 70
0
 62
7
  6
CONTINUOUS
370
-3
390
F
  0
LAYER
  5
20B
100
AcDbSymbolTableRecord
100
AcDbLayerTableRecord
  2
INTF_18
 70
0
 62
7
  6
CONTINUOUS
370
-3
390
F
  0
LAYER
  5
20C
100
AcDbSymbolTableRecord
100
AcDbLayerTableRecord
  2
INTF_20
 70
0
 62
7
  6
CONTINUOUS
370
-3
390
F
  0
LAYER
  5
20D
100
AcDbSymbolTableRecord
100
AcDbLayerTableRecord
  2
INTF_3
 70
0
 62
7
  6
CONTINUOUS
370
-3
390
F
  0
LAYER
  5
20E
100
AcDbSymbolTableRecord
100
AcDbLayerTableRecord
  2
INTF_5
 70
0
 62
7
  6
CONTINUOUS
370
-3
390
F
  0
LAYER
  5
20F
100
AcDbSymbolTableRecord
100
AcDbLayerTableRecord
  2
INTF_8
 70
0
 62
7
  6
CONTINUOUS
370
-3
390
F
  0
LAYER
  5
210
100
AcDbSymbolTableRecord
100
AcDbLayerTableRecord
  2
LIVELLO_1
 70
0
 62
7
  6
CONTINUOUS
370
-3
390
F
  0
LAYER
  5
211
100
AcDbSymbolTableRecord
100
AcDbLayerTableRecord
  2
NOTE
 70
0
 62
7
  6
CONTINUOUS
370
-3
390
F
  0
LAYER
  5
212
100
AcDbSymbolTableRecord
100
AcDbLayerTableRecord
  2
PIANI
 70
0
 62
7
  6
CONTINUOUS
370
-3
390
F
  0
LAYER
  5
213
100
AcDbSymbolTableRecord
100
AcDbLayerTableRecord
  2
PUNTI
 70
0
 62
7
  6
CONTINUOUS
370
-3
390
F
  0
LAYER
  5
214
100
AcDbSymbolTableRecord
100
AcDbLayerTableRecord
  2
RACCORDO
 70
0
 62
7
  6
CONTINUOUS
370
-3
390
F
  0
LAYER
  5
215
100
AcDbSymbolTableRecord
100
AcDbLayerTableRecord
  2
SIMBOLI
 70
0
 62
7
  6
CONTINUOUS
370
-3
390
F
  0
LAYER
  5
216
100
AcDbSymbolTableRecord
100
AcDbLayerTableRecord
  2
SMUSSO
 70
0
 62
7
  6
CONTINUOUS
370
-3
390
F
  0
LAYER
  5
217
100
AcDbSymbolTableRecord
100
AcDbLayerTableRecord
  2
SNAPLINE
 70
0
 62
7
  6
CONTINUOUS
370
-3
390
F
  0
LAYER
  5
218
100
AcDbSymbolTableRecord
100
AcDbLayerTableRecord
  2
SOLIDO
 70
0
 62
7
  6
CONTINUOUS
370
-3
390
F
  0
LAYER
  5
219
100
AcDbSymbolTableRecord
100
AcDbLayerTableRecord
  2
SUPERFICI
 70
0
 62
7
  6
CONTINUOUS
370
-3
390
F
  0
LAYER
  5
21A
100
AcDbSymbolTableRecord
100
AcDbLayerTableRecord
  2
SUPERFICI_SKEL
 70
0
 62
7
  6
CONTINUOUS
370
-3
390
F
  0
LAYER
  5
21B
100
AcDbSymbolTableRecord
100
AcDbLayerTableRecord
  2
TRASH
 70
0
 62
7
  6
CONTINUOUS
370
-3
390
F
  0
LAYER
  5
21C
100
AcDbSymbolTableRecord
100
AcDbLayerTableRecord
  2
WHITE
 70
0
 62
7
  6
CONTINUOUS
370
-3
390
F
  0
LAYER
  5
21D
100
AcDbSymbolTableRecord
100
AcDbLayerTableRecord
  2
___SHELL
 70
0
 62
7
  6
CONTINUOUS
370
-3
390
F
  0
ENDTAB
  0
TABLE
  2
STYLE
  5
3
100
AcDbSymbolTable
 70
1
  0
STYLE
  5
11
100
AcDbSymbolTableRecord
100
AcDbTextStyleTableRecord
  2
STANDARD
 70
0
 40
0.0
 41
0.8
 50
0.0
 71
0
 42
0.2
  3
txt
  4

  0
STYLE
  5
21E
100
AcDbSymbolTableRecord
100
AcDbTextStyleTableRecord
  2
TEXTSTYLE_1
 70
0
 40
0.0
 41
0.8
 50
0.0
 71
0
 42
0.2
  3
gdt
  4

  0
ENDTAB
  0
TABLE
  2
VIEW
  5
6
100
AcDbSymbolTable
 70
0
  0
ENDTAB
  0
TABLE
  2
UCS
  5
7
100
AcDbSymbolTable
 70
0
  0
ENDTAB
  0
TABLE
  2
APPID
  5
9
100
AcDbSymbolTable
 70
1
  0
APPID
  5
21F
100
AcDbSymbolTableRecord
100
AcDbRegAppTableRecord
  2
ACAD
 70
0
  0
ENDTAB
  0
TABLE
  2
BLOCK_RECORD
  5
1
100
AcDbSymbolTable
 70
0
  0
BLOCK_RECORD
  5
220
100
AcDbSymbolTableRecord
100
AcDbBlockTableRecord
  2
*Model_Space
  0
BLOCK_RECORD
  5
221
100
AcDbSymbolTableRecord
100
AcDbBlockTableRecord
  2
*Paper_Space
  0
BLOCK_RECORD
  5
222
100
AcDbSymbolTableRecord
100
AcDbBlockTableRecord
  2
_FILLED
  0
BLOCK_RECORD
  5
223
100
AcDbSymbolTableRecord
100
AcDbBlockTableRecord
  2
*D0
  0
BLOCK_RECORD
  5
224
100
AcDbSymbolTableRecord
100
AcDbBlockTableRecord
  2
*D1
  0
BLOCK_RECORD
  5
225
100
AcDbSymbolTableRecord
100
AcDbBlockTableRecord
  2
*D2
  0
ENDTAB
  0
TABLE
  2
DIMSTYLE
  5
A
100
AcDbSymbolTable
 70
1
100
AcDbDimStyleTable
 71
0
  0
DIMSTYLE
105
226
100
AcDbSymbolTableRecord
100
AcDbDimStyleTableRecord
  2
STANDARD
 70
0
  3

  4

 40
1.0
 41
3.0
 42
0.5
 43
0.38
 44
1.5
 45
0.0
 46
0.0
 47
0.01
 48
0.01
140
3.0
141
0.09
142
0.0
143
25.4
144
1.0
145
0.0
146
1.0
147
0.625
 71
1.0
 72
0.0
 73
0
 74
0
 75
0
 76
0
 77
1
 78
8
170
0
171
1
172
0
173
0
174
0
175
0
176
0
177
0
178
0
270
2
271
2
272
2
273
2
274
2
275
0
280
0
281
0
282
0
283
1
284
8
285
0
286
0
287
3
288
0
340
11
278
44
341
222
342
222
343
222
344
222
  0
DIMSTYLE
105
227
100
AcDbSymbolTableRecord
100
AcDbDimStyleTableRecord
  2
DIMSTYLE_1
 70
0
  3

  4

 40
1.0
 41
3.0
 42
0.5
 43
0.38
 44
1.5
 45
0.0
 46
0.0
 47
0.0
 48
0.0
140
3.0
141
0.09
142
0.0
143
25.4
144
1.0
145
0.0
146
1.0
147
0.75
 71
0.0
 72
0.0
 73
0
 74
0
 75
0
 76
0
 77
1
 78
8
170
0
171
1
172
0
173
0
174
0
175
0
176
0
177
0
178
0
270
2
271
2
272
2
273
2
274
2
275
0
280
0
281
0
282
0
283
1
284
8
285
0
286
0
287
3
288
0
340
11
278
44
341
222
342
222
343
222
344
222
  0
DIMSTYLE
105
228
100
AcDbSymbolTableRecord
100
AcDbDimStyleTableRecord
  2
DIMSTYLE_2
 70
0
  3

  4

 40
1.0
 41
3.0
 42
0.5
 43
0.38
 44
1.5
 45
0.0
 46
0.0
 47
0.0
 48
0.0
140
3.0
141
0.09
142
0.0
143
25.4
144
1.0
145
0.0
146
1.0
147
0.75
 71
0.0
 72
0.0
 73
0
 74
0
 75
0
 76
0
 77
1
 78
8
170
0
171
1
172
0
173
0
174
0
175
0
176
0
177
0
178
0
270
2
271
1
272
1
273
2
274
2
275
0
280
0
281
0
282
0
283
1
284
8
285
0
286
0
287
3
288
0
340
11
278
44
341
222
342
222
343
222
344
222
  0
ENDTAB
  0
ENDSEC
  0
SECTION
  2
BLOCKS
  0
BLOCK
  5
20
100
AcDbEntity
  8
0
100
AcDbBlockBegin
  2
*Model_Space
 70
0
 10
0.0
 20
0.0
 30
0.0
  3
*Model_Space
  1

  0
ENDBLK
  5
21
100
AcDbEntity
  8
0
100
AcDbBlockEnd
  0
BLOCK
  5
1C
100
AcDbEntity
  8
0
100
AcDbBlockBegin
  2
*Paper_Space
 70
0
 10
0.0
 20
0.0
 30
0.0
  3
*Paper_Space
  1

  0
ENDBLK
  5
1D
100
AcDbEntity
  8
0
100
AcDbBlockEnd
  0
BLOCK
  5
229
100
AcDbEntity
  8
0
100
AcDbBlockBegin
  2
_FILLED
 70
64
 10
0.0
 20
0.0
  3
_FILLED
  1

  0
SOLID
  5
22A
100
AcDbEntity
  8
0
  6
BYBLOCK
 62
0
100
AcDbTrace
 10
0.0
 20
0.0
 11
-1.0
 21
0.3166666667
 12
-1.0
 22
-0.3166666667
 13
-1.0
 23
-0.3166666667
  0
ENDBLK
  5
22B
100
AcDbEntity
  8
0
  6
BYBLOCK
 62
0
100
AcDbBlockEnd
  0
BLOCK
  5
22C
100
AcDbEntity
  8
0
100
AcDbBlockBegin
 62
7
  6
CONTINUOUS
  2
*D0
 70
65
 10
0.0
 20
0.0
  3
*D0
  1

  0
MTEXT
  5
22D
100
AcDbEntity
  8
0
100
AcDbMText
 62
7
  6
CONTINUOUS
  7
STANDARD
 71
2
 72
1
 10
-0.0917200436
 20
34.1385953242
 30
0.0
 11
1.0
 21
0.0
 31
0.0
 44
0.9
  1
44,55
 40
3.0
 41
16.0714285714
  0
LINE
  5
22E
100
AcDbEntity
  8
0
100
AcDbLine
 62
7
  6
CONTINUOUS
 10
-22.3670901672
 20
13.5885953242
 11
-22.3670901672
 21
31.8885953242
  0
LINE
  5
22F
100
AcDbEntity
  8
0
100
AcDbLine
 62
7
  6
CONTINUOUS
 10
22.1836500799
 20
13.5885953242
 11
22.1836500799
 21
31.8885953242
  0
LINE
  5
230
100
AcDbEntity
  8
0
100
AcDbLine
 62
7
  6
CONTINUOUS
 10
-22.3670901672
 20
30.3885953242
 11
-0.0917200436
 21
30.3885953242
  0
LINE
  5
231
100
AcDbEntity
  8
0
100
AcDbLine
 62
7
  6
CONTINUOUS
 10
22.1836500799
 20
30.3885953242
 11
-0.0917200436
 21
30.3885953242
  0
INSERT
  5
232
100
AcDbEntity
  8
0
100
AcDbBlockReference
 62
7
  6
CONTINUOUS
  2
_FILLED
 10
-22.3670901672
 20
30.3885953242
 41
3.0
 42
3.0
 43
3.0
 50
180.0
  0
INSERT
  5
233
100
AcDbEntity
  8
0
100
AcDbBlockReference
 62
7
  6
CONTINUOUS
  2
_FILLED
 10
22.1836500799
 20
30.3885953242
 41
3.0
 42
3.0
 43
3.0
  0
ENDBLK
  5
234
100
AcDbEntity
  8
0
  6
BYBLOCK
 62
0
100
AcDbBlockEnd
  0
BLOCK
  5
235
100
AcDbEntity
  8
0
100
AcDbBlockBegin
 62
7
  6
CONTINUOUS
  2
*D1
 70
65
 10
0.0
 20
0.0
  3
*D1
  1

  0
MTEXT
  5
236
100
AcDbEntity
  8
0
100
AcDbMText
 62
7
  6
CONTINUOUS
  7
STANDARD
 71
2
 72
1
 10
26.5082799564
 20
-0.0114046758
 30
0.0
 11
0.0
 21
1.0
 31
0.0
 44
0.9
  1
44,4
 40
3.0
 41
13.1785714286
  0
LINE
  5
237
100
AcDbEntity
  8
0
100
AcDbLine
 62
7
  6
CONTINUOUS
 10
22.1632957501
 20
-22.2202775343
 11
31.7582799564
 21
-22.2202775343
  0
LINE
  5
238
100
AcDbEntity
  8
0
100
AcDbLine
 62
7
  6
CONTINUOUS
 10
22.1632957501
 20
22.1974681826
 11
31.7582799564
 21
22.1974681826
  0
LINE
  5
239
100
AcDbEntity
  8
0
100
AcDbLine
 62
7
  6
CONTINUOUS
 10
30.2582799564
 20
-22.2202775343
 11
30.2582799564
 21
-0.0114046758
  0
LINE
  5
23A
100
AcDbEntity
  8
0
100
AcDbLine
 62
7
  6
CONTINUOUS
 10
30.2582799564
 20
22.1974681826
 11
30.2582799564
 21
-0.0114046758
  0
INSERT
  5
23B
100
AcDbEntity
  8
0
100
AcDbBlockReference
 62
7
  6
CONTINUOUS
  2
_FILLED
 10
30.2582799564
 20
-22.2202775343
 41
3.0
 42
3.0
 43
3.0
 50
270.0
  0
INSERT
  5
23C
100
AcDbEntity
  8
0
100
AcDbBlockReference
 62
7
  6
CONTINUOUS
  2
_FILLED
 10
30.2582799564
 20
22.1974681826
 41
3.0
 42
3.0
 43
3.0
 50
90.0
  0
ENDBLK
  5
23D
100
AcDbEntity
  8
0
  6
BYBLOCK
 62
0
100
AcDbBlockEnd
  0
BLOCK
  5
23E
100
AcDbEntity
  8
0
100
AcDbBlockBegin
 62
7
  6
CONTINUOUS
  2
*D2
 70
65
 10
0.0
 20
0.0
  3
*D2
  1

  0
MTEXT
  5
23F
100
AcDbEntity
  8
0
100
AcDbMText
 62
7
  6
CONTINUOUS
  7
STANDARD
 71
1
 72
1
 10
-31.8280595812
 20
34.1385953242
 30
0.0
 11
1.0
 21
0.0
 31
0.0
 44
0.9
  1
6,35
 40
3.0
 41
12.5357142857
  0
LINE
  5
240
100
AcDbEntity
  8
0
100
AcDbLine
 62
7
  6
CONTINUOUS
 10
-35.9570916147
 20
13.5885953242
 11
-35.9570916147
 21
31.8885953242
  0
LINE
  5
241
100
AcDbEntity
  8
0
100
AcDbLine
 62
7
  6
CONTINUOUS
 10
-42.3062208832
 20
1.2405993515
 11
-42.3062208832
 21
31.8885953242
  0
LINE
  5
242
100
AcDbEntity
  8
0
100
AcDbLine
 62
7
  6
CONTINUOUS
 10
-35.9570916147
 20
30.3885953242
 11
-23.4709167241
 21
30.3885953242
  0
LINE
  5
243
100
AcDbEntity
  8
0
100
AcDbLine
 62
7
  6
CONTINUOUS
 10
-23.4709167241
 20
30.3885953242
 11
-39.131656249
 21
30.3885953242
  0
LINE
  5
244
100
AcDbEntity
  8
0
100
AcDbLine
 62
7
  6
CONTINUOUS
 10
-42.3062208832
 20
30.3885953242
 11
-46.3062208832
 21
30.3885953242
  0
LINE
  5
245
100
AcDbEntity
  8
0
100
AcDbLine
 62
7
  6
CONTINUOUS
 10
-46.3062208832
 20
30.3885953242
 11
-39.131656249
 21
30.3885953242
  0
INSERT
  5
246
100
AcDbEntity
  8
0
100
AcDbBlockReference
 62
7
  6
CONTINUOUS
  2
_FILLED
 10
-35.9570916147
 20
30.3885953242
 41
3.0
 42
3.0
 43
3.0
 50
180.0
  0
INSERT
  5
247
100
AcDbEntity
  8
0
100
AcDbBlockReference
 62
7
  6
CONTINUOUS
  2
_FILLED
 10
-42.3062208832
 20
30.3885953242
 41
3.0
 42
3.0
 43
3.0
  0
ENDBLK
  5
248
100
AcDbEntity
  8
0
  6
BYBLOCK
 62
0
100
AcDbBlockEnd
  0
ENDSEC
  0
SECTION
  2
ENTITIES
  0
DIMENSION
  5
249
100
AcDbEntity
  8
0
100
AcDbDimension
 62
7
  6
CONTINUOUS
  2
*D0
 10
22.1836500799
 20
30.3885953242
 11
-0.5202915573
 21
30.3885953242
 70
160
 71
2
 42
44.5507402471
  3
DIMSTYLE_1
100
AcDbAlignedDimension
 13
-22.3670901672
 23
13.0885953242
 14
22.1836500799
 24
13.0885953242
100
AcDbRotatedDimension
  0
DIMENSION
  5
24A
100
AcDbEntity
  8
0
100
AcDbDimension
 62
7
  6
CONTINUOUS
  2
*D1
 10
30.2582799564
 20
22.1974681826
 11
30.2582799564
 21
-0.4399764979
 70
160
 71
2
 42
44.4177457169
  3
DIMSTYLE_2
100
AcDbAlignedDimension
 13
21.6632957501
 23
-22.2202775343
 14
21.6632957501
 24
22.1974681826
 50
90.0
100
AcDbRotatedDimension
  0
DIMENSION
  5
24B
100
AcDbEntity
  8
0
100
AcDbDimension
 62
7
  6
CONTINUOUS
  2
*D2
 10
-42.3062208832
 20
30.3885953242
 11
-28.0780596428
 21
30.3885953242
 70
160
 71
1
 42
6.3491292685
  3
DIMSTYLE_1
100
AcDbAlignedDimension
 13
-35.9570916147
 23
13.0885953242
 14
-42.3062208832
 24
0.7405993515
 50
180.0
100
AcDbRotatedDimension
  0
LWPOLYLINE
  5
24C
100
AcDbEntity
  8
ASSI
100
AcDbPolyline
 62
253
  6
CONTINUOUS
 90
7
 70
0
 10
-21.7545574411
 20
22.0129848893
 10
-21.755609067
 20
22.0055989362
 10
-21.7567025139
 20
21.9923232304
 10
-21.7578099037
 20
21.9732263998
 10
-21.7588825978
 20
21.9484066795
 10
-21.7599146594
 20
21.9179891158
 10
-21.7619439507
 20
21.840984123
  0
LINE
  5
24D
100
AcDbEntity
  8
ASSI
100
AcDbLine
 62
7
  6
CONTINUOUS
 10
14.5523583262
 20
-22.2202775343
 11
14.9005449294
 21
-22.1886716139
  0
LWPOLYLINE
  5
24E
100
AcDbEntity
  8
ASSI
100
AcDbPolyline
 62
253
  6
CONTINUOUS
 90
16
 70
0
 10
21.5711173538
 20
-22.035794241
 10
21.6233189802
 20
-22.0329921958
 10
21.6749495918
 20
-22.0247596063
 10
21.7254444885
 20
-22.011186536
 10
21.7742514103
 20
-21.9924214516
 10
21.8208365318
 20
-21.9686696156
 10
21.8646903086
 20
-21.9401908554
 10
21.9053331129
 20
-21.9072966868
 10
21.9423204575
 20
-21.8703469025
 10
21.9752478211
 20
-21.8297456673
 10
22.0037551007
 20
-21.785937076
 10
22.027530553
 20
-21.739400279
 10
22.0463141873
 20
-21.690644254
 10
22.0599006039
 20
-21.640202251
 10
22.0681412435
 20
-21.5886259619
 10
22.0709460163
 20
-21.5364794736
  0
LWPOLYLINE
  5
24F
100
AcDbEntity
  8
ASSI
100
AcDbPolyline
 62
253
  6
CONTINUOUS
 90
16
 70
0
 10
-21.7545574438
 20
-22.0357942463
 10
-21.8067584138
 20
-22.0329922711
 10
-21.8583884553
 20
-22.024759874
 10
-21.9088828843
 20
-22.0111870938
 10
-21.9576894367
 20
-21.9924223776
 10
-22.0042743094
 20
-21.9686709575
 10
-22.0481279978
 20
-21.9401926057
 10
-22.0887708687
 20
-21.9072987935
 10
-22.125758406
 20
-21.8703492846
 10
-22.1586860725
 20
-21.8297482003
 10
-22.1871937342
 20
-21.7859395997
 10
-22.2109695992
 20
-21.7394026229
 10
-22.229753628
 20
-21.6906462506
 10
-22.2433403773
 20
-21.6402037372
 10
-22.2515812472
 20
-21.5886267788
 10
-22.2543861063
 20
-21.5364794789
  0
LINE
  5
250
100
AcDbEntity
  8
ASSI
100
AcDbLine
 62
7
  6
CONTINUOUS
 10
-14.7357984134
 20
-22.2202775343
 11
-15.0839850167
 21
-22.1886716139
  0
LWPOLYLINE
  5
251
100
AcDbEntity
  8
ASSI
100
AcDbPolyline
 62
253
  6
CONTINUOUS
 90
8
 70
0
 10
-21.7539923269
 20
0.3660946787
 10
-21.7503543375
 20
0.3329955176
 10
-21.7464246084
 20
0.3043525794
 10
-21.742776083
 20
0.2804297639
 10
-21.7385049072
 20
0.2613900627
 10
-21.7336133931
 20
0.2474908982
 10
-21.7290767377
 20
0.238944678
 10
-21.7253825594
 20
0.2358025573
  0
LWPOLYLINE
  5
252
100
AcDbEntity
  8
ASSI
100
AcDbPolyline
 62
253
  6
CONTINUOUS
 90
16
 70
0
 10
-22.225211222
 20
0.7357835188
 10
-22.2225256895
 20
0.6841376272
 10
-22.2144855309
 20
0.6328736682
 10
-22.2011239327
 20
0.5825521741
 10
-22.1825100214
 20
0.533679932
 10
-22.158808403
 20
0.4868674766
 10
-22.1303328141
 20
0.4427953229
 10
-22.0974379812
 20
0.4019952618
 10
-22.0604541516
 20
0.3648620168
 10
-22.0197769037
 20
0.331796198
 10
-21.9758427966
 20
0.3031602664
 10
-21.9291395728
 20
0.2792791618
 10
-21.8801928518
 20
0.2604241847
 10
-21.8295461423
 20
0.246803949
 10
-21.777752661
 20
0.2385665012
 10
-21.7253825595
 20
0.2358025573
  0
LWPOLYLINE
  5
253
100
AcDbEntity
  8
ASSI
100
AcDbPolyline
 62
253
  6
CONTINUOUS
 90
4
 70
0
 10
-21.7642950031
 20
0.5343555284
 10
-21.7624947591
 20
0.487643822
 10
-21.7597814117
 20
0.4436729231
 10
-21.7539923269
 20
0.3660946787
  0
LWPOLYLINE
  5
254
100
AcDbEntity
  8
ASSI
100
AcDbPolyline
 62
253
  6
CONTINUOUS
 90
6
 70
0
 10
-21.7599146489
 20
-21.9407984717
 10
-21.7588825895
 20
-21.9712160349
 10
-21.757809898
 20
-21.9960357553
 10
-21.7567025108
 20
-22.0151325864
 10
-21.7556090667
 20
-22.0284082928
 10
-21.7545574438
 20
-22.0357942463
  0
LINE
  5
255
100
AcDbEntity
  8
ASSI
100
AcDbLine
 62
253
  6
CONTINUOUS
 10
-22.2437039904
 20
21.3566123348
 11
-22.2418183028
 21
21.289011527
  0
LINE
  5
256
100
AcDbEntity
  8
ASSI
100
AcDbLine
 62
253
  6
CONTINUOUS
 10
-21.7619439359
 20
-21.8637934801
 11
-21.7599146489
 21
-21.9407984717
  0
LINE
  5
257
100
AcDbEntity
  8
ASSI
100
AcDbLine
 62
253
  6
CONTINUOUS
 10
-22.2418183028
 20
21.289011527
 11
-22.240204481
 21
21.2122645762
  0
LINE
  5
258
100
AcDbEntity
  8
ASSI
100
AcDbLine
 62
253
  6
CONTINUOUS
 10
-21.7638176201
 20
-21.766548136
 11
-21.7619439359
 21
-21.8637934801
  0
LINE
  5
259
100
AcDbEntity
  8
ASSI
100
AcDbLine
 62
253
  6
CONTINUOUS
 10
-22.240204481
 20
21.2122645762
 11
-22.2388861664
 21
21.1275123583
  0
LINE
  5
25A
100
AcDbEntity
  8
ASSI
100
AcDbLine
 62
253
  6
CONTINUOUS
 10
-21.7663169047
 20
-21.5870762904
 11
-21.7638176201
 21
-21.766548136
  0
LINE
  5
25B
100
AcDbEntity
  8
ASSI
100
AcDbLine
 62
253
  6
CONTINUOUS
 10
-22.2388861664
 20
21.1275123583
 11
-22.2375276866
 21
20.9895038777
  0
LINE
  5
25C
100
AcDbEntity
  8
ASSI
100
AcDbLine
 62
253
  6
CONTINUOUS
 10
-21.7688901528
 20
-21.2978883315
 11
-21.7663169047
 21
-21.5870762904
  0
LWPOLYLINE
  5
25D
100
AcDbEntity
  8
ASSI
100
AcDbPolyline
 62
253
  6
CONTINUOUS
 90
3
 70
0
 10
-21.7680343285
 20
-0.7593597752
 10
-21.768259314
 20
-0.7063711668
 10
-21.7674069772
 20
-0.6551206422
  0
LINE
  5
25E
100
AcDbEntity
  8
ASSI
100
AcDbLine
 62
7
  6
CONTINUOUS
 10
-22.347362259
 20
-21.72255938
 11
-22.3670901672
 21
-13.1114046758
  0
LINE
  5
25F
100
AcDbEntity
  8
ASSI
100
AcDbLine
 62
253
  6
CONTINUOUS
 10
-21.7706176082
 20
-20.8886694616
 11
-21.7688901528
 21
-21.2978883315
  0
LINE
  5
260
100
AcDbEntity
  8
ASSI
100
AcDbLine
 62
253
  6
CONTINUOUS
 10
-22.2375276866
 20
20.9895038777
 11
-22.2369595906
 21
20.8444191533
  0
LINE
  5
261
100
AcDbEntity
  8
ASSI
100
AcDbLine
 62
253
  6
CONTINUOUS
 10
-22.2369595906
 20
20.8444191533
 11
-22.2274643674
 21
9.1564301007
  0
LINE
  5
262
100
AcDbEntity
  8
ASSI
100
AcDbLine
 62
7
  6
CONTINUOUS
 10
-22.3670901672
 20
13.0885953242
 11
-22.3670901672
 21
0.688500142
  0
LINE
  5
263
100
AcDbEntity
  8
ASSI
100
AcDbLine
 62
7
  6
CONTINUOUS
 10
-22.3670901672
 20
-13.1114046758
 11
-22.3670901672
 21
-0.7113094936
  0
LINE
  5
264
100
AcDbEntity
  8
ASSI
100
AcDbLine
 62
253
  6
CONTINUOUS
 10
-22.2274643674
 20
9.1564301007
 11
-22.225211222
 21
0.7357835188
  0
LINE
  5
265
100
AcDbEntity
  8
ASSI
100
AcDbLine
 62
253
  6
CONTINUOUS
 10
-21.7680342884
 20
-0.7593597697
 11
-21.7706176414
 21
-20.8886694671
  0
LINE
  5
266
100
AcDbEntity
  8
ASSI
100
AcDbLine
 62
253
  6
CONTINUOUS
 10
-22.225211222
 20
-0.7585928704
 11
-22.2274582143
 21
-9.1705477064
  0
LINE
  5
267
100
AcDbEntity
  8
ASSI
100
AcDbLine
 62
253
  6
CONTINUOUS
 10
-22.2274582143
 20
-9.1705477064
 11
-22.2320965261
 21
-15.9397706177
  0
LINE
  5
268
100
AcDbEntity
  8
ASSI
100
AcDbLine
 62
7
  6
CONTINUOUS
 10
-22.347362259
 20
21.6997500283
 11
-22.3670901672
 21
13.0885953242
  0
LINE
  5
269
100
AcDbEntity
  8
ASSI
100
AcDbLine
 62
253
  6
CONTINUOUS
 10
-21.7701442251
 20
21.0332024763
 11
-21.7680342884
 21
0.7365504067
  0
LINE
  5
26A
100
AcDbEntity
  8
ASSI
100
AcDbLine
 62
253
  6
CONTINUOUS
 10
-22.2320965261
 20
-15.9397706177
 11
-22.2372505033
 21
-20.9647379105
  0
LWPOLYLINE
  5
26B
100
AcDbEntity
  8
ASSI
100
AcDbPolyline
 62
253
  6
CONTINUOUS
 90
4
 70
0
 10
-21.7680343284
 20
0.736550401
 10
-21.7682591847
 20
0.6835637934
 10
-21.767406929
 20
0.6323149456
 10
-21.7642950031
 20
0.5343555284
  0
LINE
  5
26C
100
AcDbEntity
  8
ASSI
100
AcDbLine
 62
253
  6
CONTINUOUS
 10
-21.7677190231
 20
21.4256698142
 11
-21.7701442251
 21
21.0332024763
  0
LINE
  5
26D
100
AcDbEntity
  8
ASSI
100
AcDbLine
 62
253
  6
CONTINUOUS
 10
-22.2372505033
 20
-20.9647379105
 11
-22.2383499471
 21
-21.1056027599
  0
LINE
  5
26E
100
AcDbEntity
  8
ASSI
100
AcDbLine
 62
253
  6
CONTINUOUS
 10
-21.7655290104
 20
21.6281969342
 11
-21.7677190231
 21
21.4256698142
  0
LINE
  5
26F
100
AcDbEntity
  8
ASSI
100
AcDbLine
 62
253
  6
CONTINUOUS
 10
-22.2383499471
 20
-21.1056027599
 11
-22.239504735
 21
-21.1934641658
  0
LINE
  5
270
100
AcDbEntity
  8
ASSI
100
AcDbLine
 62
253
  6
CONTINUOUS
 10
-21.7638176386
 20
21.7437387778
 11
-21.7655290104
 21
21.6281969342
  0
LINE
  5
271
100
AcDbEntity
  8
ASSI
100
AcDbLine
 62
253
  6
CONTINUOUS
 10
-22.239504735
 20
-21.1934641658
 11
-22.240975296
 21
-21.2745360666
  0
LINE
  5
272
100
AcDbEntity
  8
ASSI
100
AcDbLine
 62
253
  6
CONTINUOUS
 10
-21.7619439507
 20
21.840984123
 11
-21.7638176386
 21
21.7437387778
  0
LWPOLYLINE
  5
273
100
AcDbEntity
  8
ASSI
100
AcDbPolyline
 62
253
  6
CONTINUOUS
 90
12
 70
0
 10
-22.240975296
 20
-21.2745360666
 10
-22.2427323785
 20
-21.3469580672
 10
-22.2437039932
 20
-21.3794216926
 10
-22.2447340055
 20
-21.4091701133
 10
-22.2458215596
 20
-21.436244977
 10
-22.2469505668
 20
-21.4602453064
 10
-22.2481222137
 20
-21.4811263546
 10
-22.2493353137
 20
-21.4989328686
 10
-22.2505702178
 20
-21.5133981116
 10
-22.2518203765
 20
-21.5244331716
 10
-22.2530923393
 20
-21.5321269607
 10
-22.2543861063
 20
-21.5364794789
  0
LWPOLYLINE
  5
274
100
AcDbEntity
  8
ASSI
100
AcDbPolyline
 62
253
  6
CONTINUOUS
 90
4
 70
0
 10
-21.7674069772
 20
-0.6551206422
 10
-21.7642947529
 20
-0.5571588834
 10
-21.76249447
 20
-0.5104465171
 10
-21.7597809852
 20
-0.4664754001
  0
LWPOLYLINE
  5
275
100
AcDbEntity
  8
ASSI
100
AcDbPolyline
 62
253
  6
CONTINUOUS
 90
16
 70
0
 10
-22.225211222
 20
-0.7585928704
 10
-22.2225256846
 20
-0.706946931
 10
-22.2144855133
 20
-0.6556829363
 10
-22.2011238984
 20
-0.6053614193
 10
-22.1825099706
 20
-0.5564891685
 10
-22.1588083388
 20
-0.5096767163
 10
-22.1303327405
 20
-0.4656045727
 10
-22.0974379051
 20
-0.4248045286
 10
-22.0604540806
 20
-0.3876713042
 10
-22.0197768399
 20
-0.3546055031
 10
-21.9758427383
 20
-0.3259695843
 10
-21.9291395205
 20
-0.30208849
 10
-21.8801928083
 20
-0.2832335221
 10
-21.8295461111
 20
-0.269613294
 10
-21.7777526445
 20
-0.2613758511
 10
-21.7253825595
 20
-0.2586119089
  0
LWPOLYLINE
  5
276
100
AcDbEntity
  8
ASSI
100
AcDbPolyline
 62
253
  6
CONTINUOUS
 90
9
 70
0
 10
-21.7597809852
 20
-0.4664754001
 10
-21.7539917518
 20
-0.3888980909
 10
-21.7503537533
 20
-0.3557998566
 10
-21.7464240022
 20
-0.3271580334
 10
-21.7427755391
 20
-0.3032363967
 10
-21.7385044838
 20
-0.2841977638
 10
-21.7336131163
 20
-0.2702994546
 10
-21.7290766156
 20
-0.2617538106
 10
-21.7253825594
 20
-0.2586119089
  0
LINE
  5
277
100
AcDbEntity
  8
ASSI
100
AcDbLine
 62
7
  6
CONTINUOUS
 10
3.3523583262
 20
-22.2202775343
 11
3.7005449294
 21
-22.1886716139
  0
LINE
  5
278
100
AcDbEntity
  8
ASSI
100
AcDbLine
 62
7
  6
CONTINUOUS
 10
-7.9476416738
 20
-22.2202775343
 11
-7.5994550706
 21
-22.1886716139
  0
LWPOLYLINE
  5
279
100
AcDbEntity
  8
ASSI
100
AcDbPolyline
 62
253
  6
CONTINUOUS
 90
14
 70
0
 10
21.6841817267
 20
-20.8878624968
 10
21.7310191625
 20
-20.887156457
 10
21.7761372329
 20
-20.886257197
 10
21.819098476
 20
-20.8851734359
 10
21.8594863418
 20
-20.8839156818
 10
21.8969092319
 20
-20.8824961297
 10
21.9310042963
 20
-20.8809285436
 10
21.961440951
 20
-20.8792281227
 10
21.9879240841
 20
-20.8774113542
 10
22.0101969165
 20
-20.8754958533
 10
22.0280434922
 20
-20.8735001927
 10
22.0412907719
 20
-20.871443722
 10
22.0498103106
 20
-20.8693463809
 10
22.0535195033
 20
-20.8672285049
  0
LINE
  5
27A
100
AcDbEntity
  8
ASSI
100
AcDbLine
 62
253
  6
CONTINUOUS
 10
21.5871775595
 20
-20.8886694725
 11
21.6841817267
 21
-20.8878624968
  0
LINE
  5
27B
100
AcDbEntity
  8
ASSI
100
AcDbLine
 62
253
  6
CONTINUOUS
 10
-21.7545574438
 20
-22.0357942463
 11
-18.5003080236
 21
-22.0260478582
  0
LINE
  5
27C
100
AcDbEntity
  8
ASSI
100
AcDbLine
 62
253
  6
CONTINUOUS
 10
-18.5003080236
 20
-22.0260478582
 11
-15.1006931502
 21
-22.0197253009
  0
LINE
  5
27D
100
AcDbEntity
  8
ASSI
100
AcDbLine
 62
253
  6
CONTINUOUS
 10
-15.1006931502
 20
-22.0197253009
 11
-11.3416814399
 21
-22.0173186038
  0
LINE
  5
27E
100
AcDbEntity
  8
ASSI
100
AcDbLine
 62
253
  6
CONTINUOUS
 10
-21.7706176414
 20
-20.8886694671
 11
-12.636423554
 21
-20.8817138928
  0
LINE
  5
27F
100
AcDbEntity
  8
ASSI
100
AcDbLine
 62
7
  6
CONTINUOUS
 10
-21.8467358374
 20
-22.2202775343
 11
-19.1476416738
 21
-22.2202775343
  0
LINE
  5
280
100
AcDbEntity
  8
ASSI
100
AcDbLine
 62
7
  6
CONTINUOUS
 10
-14.7357984134
 20
-22.2202775343
 11
-7.9476416738
 21
-22.2202775343
  0
LINE
  5
281
100
AcDbEntity
  8
ASSI
100
AcDbLine
 62
7
  6
CONTINUOUS
 10
-3.5357984134
 20
-22.2202775343
 11
3.3523583262
 21
-22.2202775343
  0
LINE
  5
282
100
AcDbEntity
  8
ASSI
100
AcDbLine
 62
7
  6
CONTINUOUS
 10
7.7642015866
 20
-22.2202775343
 11
14.5523583262
 21
-22.2202775343
  0
LINE
  5
283
100
AcDbEntity
  8
ASSI
100
AcDbLine
 62
7
  6
CONTINUOUS
 10
18.9642015866
 20
-22.2202775343
 11
21.6632957501
 21
-22.2202775343
  0
LINE
  5
284
100
AcDbEntity
  8
ASSI
100
AcDbLine
 62
7
  6
CONTINUOUS
 10
3.8737500102
 20
-22.1834308359
 11
7.2428099025
 21
-22.1834308359
  0
LINE
  5
285
100
AcDbEntity
  8
ASSI
100
AcDbLine
 62
7
  6
CONTINUOUS
 10
-4.0571900975
 20
-22.1834308359
 11
-7.4262499898
 21
-22.1834308359
  0
LINE
  5
286
100
AcDbEntity
  8
ASSI
100
AcDbLine
 62
7
  6
CONTINUOUS
 10
15.0737500102
 20
-22.1834308359
 11
18.4428099025
 21
-22.1834308359
  0
LINE
  5
287
100
AcDbEntity
  8
ASSI
100
AcDbLine
 62
7
  6
CONTINUOUS
 10
-15.2571900975
 20
-22.1834308359
 11
-18.6262499898
 21
-22.1834308359
  0
LINE
  5
288
100
AcDbEntity
  8
ASSI
100
AcDbLine
 62
253
  6
CONTINUOUS
 10
-11.3416814399
 20
-22.0173186038
 11
13.8294371713
 21
-22.0185339639
  0
LINE
  5
289
100
AcDbEntity
  8
ASSI
100
AcDbLine
 62
253
  6
CONTINUOUS
 10
-12.636423554
 20
-20.8817138928
 11
16.3898701182
 21
-20.8833529713
  0
LINE
  5
28A
100
AcDbEntity
  8
ASSI
100
AcDbLine
 62
253
  6
CONTINUOUS
 10
16.3898701182
 20
-20.8833529713
 11
21.5871775596
 21
-20.8886694628
  0
LINE
  5
28B
100
AcDbEntity
  8
ASSI
100
AcDbLine
 62
253
  6
CONTINUOUS
 10
13.8294371713
 20
-22.0185339639
 11
17.2205479818
 21
-22.0235713042
  0
LWPOLYLINE
  5
28C
100
AcDbEntity
  8
ASSI
100
AcDbPolyline
 62
253
  6
CONTINUOUS
 90
3
 70
0
 10
17.2205479818
 20
-22.0235713042
 10
20.6732356324
 20
-22.0327632372
 10
21.5711173538
 20
-22.035794241
  0
LWPOLYLINE
  5
28D
100
AcDbEntity
  8
ASSI
100
AcDbPolyline
 62
253
  6
CONTINUOUS
 90
15
 70
0
 10
-21.7706167515
 20
-20.8886689293
 10
-21.8676200094
 20
-20.8878619797
 10
-21.9144570509
 20
-20.8871559619
 10
-21.9595747848
 20
-20.8862567294
 10
-22.0025357609
 20
-20.8851730008
 10
-22.0429234402
 20
-20.8839152835
 10
-22.080346234
 20
-20.8824957718
 10
-22.1144413001
 20
-20.8809282291
 10
-22.1448780614
 20
-20.8792278539
 10
-22.1713614106
 20
-20.8774111326
 10
-22.1936345717
 20
-20.8754956797
 10
-22.2114815899
 20
-20.8735000668
 10
-22.2247294248
 20
-20.871443643
 10
-22.2332496287
 20
-20.8693463468
 10
-22.2369595919
 20
-20.8672285131
  0
LINE
  5
28E
100
AcDbEntity
  8
ASSI
100
AcDbLine
 62
7
  6
CONTINUOUS
 10
-3.5357984134
 20
-22.2202775343
 11
-3.8839850167
 21
-22.1886716139
  0
LINE
  5
28F
100
AcDbEntity
  8
ASSI
100
AcDbLine
 62
7
  6
CONTINUOUS
 10
7.7642015866
 20
-22.2202775343
 11
7.4160149833
 21
-22.1886716139
  0
LINE
  5
290
100
AcDbEntity
  8
ASSI
100
AcDbLine
 62
7
  6
CONTINUOUS
 10
-19.1476416738
 20
-22.2202775343
 11
-18.7994550706
 21
-22.1886716139
  0
LINE
  5
291
100
AcDbEntity
  8
ASSI
100
AcDbLine
 62
7
  6
CONTINUOUS
 10
18.9642015866
 20
-22.2202775343
 11
18.6160149833
 21
-22.1886716139
  0
LWPOLYLINE
  5
292
100
AcDbEntity
  8
0
100
AcDbPolyline
 62
253
  6
CONTINUOUS
 90
88
 70
0
 10
-14.1928241846
 20
10.7376436556
 10
-14.198413511
 20
10.7319466362
 10
-14.2037390431
 20
10.726116163
 10
-14.2088218474
 20
10.7201398729
 10
-14.2136829905
 20
10.7140054031
 10
-14.2183435389
 20
10.7077003905
 10
-14.2239104936
 20
10.699564935
 10
-14.2291856524
 20
10.691146362
 10
-14.2341577324
 20
10.6824473443
 10
-14.2388154506
 20
10.6734705545
 10
-14.2431461485
 20
10.6642235224
 10
-14.2471316666
 20
10.6547332069
 10
-14.2507524699
 20
10.645031424
 10
-14.2539890234
 20
10.6351499897
 10
-14.2562888831
 20
10.6271345507
 10
-14.2583227437
 20
10.6190268481
 10
-14.2600830286
 20
10.610829233
 10
-14.261562161
 20
10.6025440564
 10
-14.262752564
 20
10.5941736694
 10
-14.2636467995
 20
10.585723212
 10
-14.2642379825
 20
10.5772089808
 10
-14.2645193666
 20
10.5686500617
 10
-14.2644842054
 20
10.5600655402
 10
-14.2641257526
 20
10.5514745021
 10
-14.2634400071
 20
10.5428961634
 10
-14.2624339498
 20
10.5343502619
 10
-14.2611173068
 20
10.5258566653
 10
-14.2594998044
 20
10.5174352418
 10
-14.2575911688
 20
10.5091058592
 10
-14.255400098
 20
10.5008851004
 10
-14.2529311773
 20
10.4927764074
 10
-14.2501879639
 20
10.484779937
 10
-14.2471740147
 20
10.4768958462
 10
-14.2438928869
 20
10.4691242918
 10
-14.2403474961
 20
10.4614664162
 10
-14.2365381915
 20
10.4539273035
 10
-14.232464681
 20
10.4465130237
 10
-14.2281266725
 20
10.4392296465
 10
-14.2235238737
 20
10.4320832417
 10
-14.218657076
 20
10.425081508
 10
-14.2135314046
 20
10.4182386595
 10
-14.2081530683
 20
10.4115705393
 10
-14.202528276
 20
10.4050929907
 10
-14.1966632363
 20
10.3988218566
 10
-14.1905655083
 20
10.3927715309
 10
-14.1842480519
 20
10.3869506105
 10
-14.1777251771
 20
10.381366243
 10
-14.1710111939
 20
10.3760255758
 10
-14.1641204124
 20
10.3709357567
 10
-14.1570658874
 20
10.3661029057
 10
-14.1498556523
 20
10.3615290329
 10
-14.1424964855
 20
10.357215121
 10
-14.1349951652
 20
10.3531621526
 10
-14.1273584697
 20
10.3493711102
 10
-14.1195918218
 20
10.3458435044
 10
-14.1116952224
 20
10.3425829569
 10
-14.1036673168
 20
10.3395936174
 10
-14.0955067506
 20
10.3368796354
 10
-14.0872121692
 20
10.3344451606
 10
-14.0787851696
 20
10.3322955929
 10
-14.0702391556
 20
10.3304413329
 10
-14.0615904825
 20
10.3288940319
 10
-14.0528555058
 20
10.3276653408
 10
-14.0440505808
 20
10.3267669106
 10
-14.0366765006
 20
10.3262776951
 10
-14.0293046114
 20
10.3260253885
 10
-14.0219743213
 20
10.3260094608
 10
-14.014718258
 20
10.326227613
 10
-14.0075419272
 20
10.3266704699
 10
-14.000444054
 20
10.3273268875
 10
-13.9934212923
 20
10.3281872734
 10
-13.9864620114
 20
10.329248243
 10
-13.9795525096
 20
10.3305079637
 10
-13.9692671982
 20
10.3327642598
 10
-13.9591102876
 20
10.3354458327
 10
-13.9491270525
 20
10.3385335298
 10
-13.9393549587
 20
10.342002748
 10
-13.9298230807
 20
10.3458306641
 10
-13.9205347395
 20
10.3500070269
 10
-13.9114895399
 20
10.3545234483
 10
-13.902697977
 20
10.3593664209
 10
-13.8941732684
 20
10.3645211573
 10
-13.8859286317
 20
10.3699728704
 10
-13.8795398843
 20
10.3745429863
 10
-13.8733241767
 20
10.3793152881
 10
-13.8672668434
 20
10.3843113605
 10
-13.8613532189
 20
10.3895527881
 10
-13.8555686376
 20
10.3950611557
  0
LWPOLYLINE
  5
293
100
AcDbEntity
  8
0
100
AcDbPolyline
 62
253
  6
CONTINUOUS
 90
88
 70
0
 10
-14.1686967453
 20
10.7131608778
 10
-14.1735076777
 20
10.7082651391
 10
-14.178090543
 20
10.7032538446
 10
-14.1824635679
 20
10.6981164919
 10
-14.1866449793
 20
10.6928425791
 10
-14.1906530041
 20
10.6874216038
 10
-14.1954395085
 20
10.6804261303
 10
-14.199974362
 20
10.6731852593
 10
-14.2042483506
 20
10.665699788
 10
-14.2082522606
 20
10.6579705136
 10
-14.2119753654
 20
10.6500029786
 10
-14.2154008869
 20
10.6418217072
 10
-14.2185105341
 20
10.633455969
 10
-14.221286016
 20
10.6249350336
 10
-14.2232540447
 20
10.618024605
 10
-14.2249903386
 20
10.6110389235
 10
-14.2264887349
 20
10.6039833301
 10
-14.227743071
 20
10.5968631656
 10
-14.2287471839
 20
10.5896837708
 10
-14.2294952135
 20
10.5824517803
 10
-14.2299825095
 20
10.5751790042
 10
-14.2302047239
 20
10.567878546
 10
-14.230157509
 20
10.5605635094
 10
-14.2298365169
 20
10.553246998
 10
-14.2292393053
 20
10.5459423854
 10
-14.2283710546
 20
10.5386641236
 10
-14.2272388506
 20
10.5314269346
 10
-14.2258497792
 20
10.5242455404
 10
-14.2242109262
 20
10.5171346627
 10
-14.2223287225
 20
10.5101069566
 10
-14.2202069792
 20
10.5031668088
 10
-14.2178488523
 20
10.4963165392
 10
-14.2152574979
 20
10.4895584676
 10
-14.212436072
 20
10.4828949137
 10
-14.2093871485
 20
10.4763286393
 10
-14.2061109718
 20
10.4698641743
 10
-14.2026072042
 20
10.4635064904
 10
-14.1988755079
 20
10.4572605592
 10
-14.1949155451
 20
10.4511313526
 10
-14.190727939
 20
10.4451253381
 10
-14.1863171571
 20
10.4392549659
 10
-14.1816886279
 20
10.4335341823
 10
-14.1768477797
 20
10.4279769334
 10
-14.1718000412
 20
10.4225971652
 10
-14.166552215
 20
10.4174076124
 10
-14.1611166013
 20
10.4124161629
 10
-14.1555068744
 20
10.4076294932
 10
-14.1497367088
 20
10.4030542798
 10
-14.143819779
 20
10.3986971991
 10
-14.1377683049
 20
10.3945637777
 10
-14.1315886894
 20
10.390654943
 10
-14.125285881
 20
10.3869704725
 10
-14.1188648282
 20
10.3835101437
 10
-14.1123304795
 20
10.3802737341
 10
-14.1056865575
 20
10.377261642
 10
-14.098931882
 20
10.3744767489
 10
-14.0920640467
 20
10.3719225568
 10
-14.0850806453
 20
10.3696025679
 10
-14.0779792717
 20
10.3675202844
 10
-14.0707604435
 20
10.3656803747
 10
-14.0634363738
 20
10.364092172
 10
-14.0560221996
 20
10.3627661758
 10
-14.0485330576
 20
10.3617128856
 10
-14.040984085
 20
10.360942801
 10
-14.0346627548
 20
10.3605239141
 10
-14.0283447302
 20
10.3603086931
 10
-14.0220643542
 20
10.3602968417
 10
-14.0158502198
 20
10.3604864589
 10
-14.0097079194
 20
10.3608692236
 10
-14.0036372953
 20
10.3614352098
 10
-13.9976361256
 20
10.3621758231
 10
-13.9916939297
 20
10.3630877973
 10
-13.9857981625
 20
10.3641691976
 10
-13.9770272756
 20
10.366103338
 10
-13.9683691997
 20
10.368399391
 10
-13.9598587595
 20
10.3710415051
 10
-13.9515237887
 20
10.3740101967
 10
-13.943385701
 20
10.3772875961
 10
-13.9354472222
 20
10.3808659206
 10
-13.9277088172
 20
10.384738659
 10
-13.920180596
 20
10.3888942984
 10
-13.9128750799
 20
10.3933200753
 10
-13.9058047903
 20
10.3980032264
 10
-13.9003231967
 20
10.401930679
 10
-13.894987737
 20
10.4060333431
 10
-13.8897859866
 20
10.4103298795
 10
-13.8847055207
 20
10.4148389486
 10
-13.8797339148
 20
10.4195792112
  0
LWPOLYLINE
  5
294
100
AcDbEntity
  8
0
100
AcDbPolyline
 62
253
  6
CONTINUOUS
 90
16
 70
0
 10
-13.8555686376
 20
10.3950611557
 10
-13.7025146506
 20
10.5441487151
 10
-13.5479595509
 20
10.6915293813
 10
-13.3918901237
 20
10.8372197333
 10
-13.2342931543
 20
10.9812363499
 10
-13.075155428
 20
11.1235958101
 10
-12.9144741036
 20
11.2643051545
 10
-12.752287835
 20
11.4033332703
 10
-12.5886456496
 20
11.5406395063
 10
-12.423596575
 20
11.6761832113
 10
-12.2571896386
 20
11.8099237343
 10
-12.0894626736
 20
11.941828989
 10
-11.9204087358
 20
12.0719011483
 10
-11.7500096867
 20
12.2001509502
 10
-11.5782473877
 20
12.3265891324
 10
-11.4051037001
 20
12.4512264329
  0
LWPOLYLINE
  5
295
100
AcDbEntity
  8
0
100
AcDbPolyline
 62
253
  6
CONTINUOUS
 90
16
 70
0
 10
-13.8797339148
 20
10.4195792112
 10
-13.7263836982
 20
10.5689420311
 10
-13.5715291045
 20
10.7165948313
 10
-13.4151566901
 20
10.8625543505
 10
-13.2572530119
 20
11.006837327
 10
-13.0978046263
 20
11.1494604994
 10
-12.9368086088
 20
11.290430954
 10
-12.7743041096
 20
11.4297171689
 10
-12.6103407977
 20
11.5672779698
 10
-12.4449683423
 20
11.7030721824
 10
-12.2782364123
 20
11.8370586326
 10
-12.1101833441
 20
11.969204833
 10
-11.9408021434
 20
12.099513044
 10
-11.7700744834
 20
12.2279942125
 10
-11.597982037
 20
12.3546592857
 10
-11.4245064774
 20
12.4795192107
  0
LWPOLYLINE
  5
296
100
AcDbEntity
  8
0
100
AcDbPolyline
 62
253
  6
CONTINUOUS
 90
16
 70
0
 10
-11.6226264724
 20
12.8863425439
 10
-11.804247973
 20
12.7566091962
 10
-11.9844234083
 20
12.6249209012
 10
-12.1631738643
 20
12.4912635599
 10
-12.340520427
 20
12.3556230737
 10
-12.5164841821
 20
12.2179853439
 10
-12.6910727585
 20
12.0783466806
 10
-12.8642399563
 20
11.9367450298
 10
-13.0359261186
 20
11.7932287465
 10
-13.2060715886
 20
11.6478461856
 10
-13.3746167092
 20
11.500645702
 10
-13.5415144245
 20
11.351664265
 10
-13.7067680816
 20
11.2008933012
 10
-13.8703936286
 20
11.0483128511
 10
-14.0324070136
 20
10.8939029557
 10
-14.1928241846
 20
10.7376436556
  0
LWPOLYLINE
  5
297
100
AcDbEntity
  8
0
100
AcDbPolyline
 62
253
  6
CONTINUOUS
 90
16
 70
0
 10
-11.6028709173
 20
12.8582967106
 10
-11.7841425773
 20
12.7288071959
 10
-11.9639767148
 20
12.5973623283
 10
-12.1423942695
 20
12.4639479764
 10
-12.3194161808
 20
12.3285500093
 10
-12.4950633884
 20
12.1911542958
 10
-12.669343427
 20
12.0517570709
 10
-12.842210212
 20
11.9103960343
 10
-13.0136042537
 20
11.7671192517
 10
-13.1834660626
 20
11.621974789
 10
-13.3517361493
 20
11.4750107119
 10
-13.5183675691
 20
11.3262637459
 10
-13.6833635579
 20
11.1757252555
 10
-13.8467398964
 20
11.0233752646
 10
-14.0085123653
 20
10.8691937973
 10
-14.1686967453
 20
10.7131608778
  0
LWPOLYLINE
  5
298
100
AcDbEntity
  8
0
100
AcDbPolyline
 62
253
  6
CONTINUOUS
 90
32
 70
0
 10
-11.4051037001
 20
12.4512264329
 10
-11.4033009601
 20
12.4524530538
 10
-11.4014873501
 20
12.4536368692
 10
-11.3996628243
 20
12.4547782261
 10
-11.3978273369
 20
12.4558774711
 10
-11.3959808422
 20
12.4569349512
 10
-11.3941232942
 20
12.4579510131
 10
-11.3922546471
 20
12.4589260037
 10
-11.3903748552
 20
12.4598602697
 10
-11.3884838726
 20
12.4607541579
 10
-11.3865816535
 20
12.4616080152
 10
-11.384668152
 20
12.4624221885
 10
-11.3825504029
 20
12.4632722635
 10
-11.3804200148
 20
12.4640746364
 10
-11.378278056
 20
12.4648292034
 10
-11.3761255947
 20
12.4655358603
 10
-11.3739636991
 20
12.4661945034
 10
-11.3717934372
 20
12.4668050287
 10
-11.3696158774
 20
12.4673673321
 10
-11.3674320876
 20
12.4678813099
 10
-11.3652431363
 20
12.468346858
 10
-11.3630500914
 20
12.4687638725
 10
-11.360853785
 20
12.4691322451
 10
-11.3586541045
 20
12.4694518498
 10
-11.3564507011
 20
12.4697225562
 10
-11.354243226
 20
12.4699442338
 10
-11.3520313303
 20
12.4701167523
 10
-11.3498146653
 20
12.4702399813
 10
-11.3475928821
 20
12.4703137903
 10
-11.345365632
 20
12.470338049
 10
-11.3431325662
 20
12.470312627
 10
-11.3408933358
 20
12.4702373939
  0
LWPOLYLINE
  5
299
100
AcDbEntity
  8
0
100
AcDbPolyline
 62
253
  6
CONTINUOUS
 90
32
 70
0
 10
-11.5958011012
 20
-12.8811060622
 10
-11.5883032345
 20
-12.886258119
 10
-11.5807113108
 20
-12.8912370741
 10
-11.5730260092
 20
-12.8960460356
 10
-11.5652480089
 20
-12.9006881118
 10
-11.5573779893
 20
-12.9051664107
 10
-11.5494166293
 20
-12.9094840406
 10
-11.5413651166
 20
-12.9136434075
 10
-11.5332266712
 20
-12.9176441091
 10
-11.5250050213
 20
-12.9214850409
 10
-11.5167038954
 20
-12.9251650986
 10
-11.5083270216
 20
-12.9286831777
 10
-11.4998781284
 20
-12.9320381739
 10
-11.4913612358
 20
-12.9352289763
 10
-11.4827815309
 20
-12.9382544497
 10
-11.4741444927
 20
-12.9411134524
 10
-11.4654556001
 20
-12.9438048428
 10
-11.4567203321
 20
-12.9463274792
 10
-11.4479441676
 20
-12.9486802201
 10
-11.4391305978
 20
-12.9508617403
 10
-11.4302751636
 20
-12.9528699808
 10
-11.4213714181
 20
-12.9547026992
 10
-11.4124129142
 20
-12.956357653
 10
-11.4033932051
 20
-12.9578325998
 10
-11.3943058439
 20
-12.959125297
 10
-11.3864625958
 20
-12.9600864198
 10
-11.378588754
 20
-12.9609096975
 10
-11.3707081652
 20
-12.9615928302
 10
-11.3628446758
 20
-12.9621335181
 10
-11.3550221322
 20
-12.9625294612
 10
-11.347264381
 20
-12.9627783597
 10
-11.3395952687
 20
-12.9628779135
  0
LWPOLYLINE
  5
29A
100
AcDbEntity
  8
0
100
AcDbPolyline
 62
253
  6
CONTINUOUS
 90
31
 70
0
 10
-11.615591934
 20
-12.9091518955
 10
-11.6076071563
 20
-12.9146508531
 10
-11.5995351315
 20
-12.9199654398
 10
-11.5913699796
 20
-12.9251021415
 10
-11.5831058207
 20
-12.9300674444
 10
-11.574736775
 20
-12.9348678343
 10
-11.5662573347
 20
-12.9395086969
 10
-11.5576634803
 20
-12.9439910154
 10
-11.5489515645
 20
-12.9483146727
 10
-11.5401179398
 20
-12.9524795517
 10
-11.5311589589
 20
-12.956485535
 10
-11.5220738627
 20
-12.9603313472
 10
-11.5128734458
 20
-12.9640110785
 10
-11.5035713909
 20
-12.9675176607
 10
-11.4941813807
 20
-12.9708440259
 10
-11.4847170981
 20
-12.9739831059
 10
-11.4751924987
 20
-12.9769286418
 10
-11.465622629
 20
-12.9796776119
 10
-11.4560228085
 20
-12.9822278037
 10
-11.4464083566
 20
-12.9845770049
 10
-11.4367945927
 20
-12.986723003
 10
-11.4271937511
 20
-12.9886643449
 10
-11.4176057251
 20
-12.9904026159
 10
-11.4080273229
 20
-12.9919401605
 10
-11.3984553527
 20
-12.9932793232
 10
-11.3888866226
 20
-12.9944224486
 10
-11.3793171202
 20
-12.9953712236
 10
-11.3697395492
 20
-12.9961247037
 10
-11.3601457931
 20
-12.9966812868
 10
-11.3505277348
 20
-12.9970393708
 10
-11.3408772576
 20
-12.9971973533
  0
LWPOLYLINE
  5
29B
100
AcDbEntity
  8
0
100
AcDbPolyline
 62
253
  6
CONTINUOUS
 90
16
 70
0
 10
-11.4177188835
 20
-12.5019757845
 10
-11.5909852614
 20
-12.3772666646
 10
-11.7628957069
 20
-12.2507364938
 10
-11.9334683043
 20
-12.1223735867
 10
-12.102721138
 20
-11.9921662577
 10
-12.2706722924
 20
-11.8601028211
 10
-12.4373284065
 20
-11.7261803848
 10
-12.6026503375
 20
-11.5904312299
 10
-12.7665874973
 20
-11.452896431
 10
-12.9290892976
 20
-11.3136170626
 10
-13.0901051505
 20
-11.1726341993
 10
-13.2495950901
 20
-11.0299791835
 10
-13.4075616411
 20
-10.8856444296
 10
-13.5640179504
 20
-10.73961262
 10
-13.718977165
 20
-10.5918664369
 10
-13.872452432
 20
-10.4423885628
  0
LWPOLYLINE
  5
29C
100
AcDbEntity
  8
0
100
AcDbPolyline
 62
253
  6
CONTINUOUS
 90
16
 70
0
 10
-11.3978222174
 20
-12.4740357845
 10
-11.5708555712
 20
-12.3494784457
 10
-11.7425247847
 20
-12.2231103605
 10
-11.912847878
 20
-12.0949202176
 10
-12.0818428712
 20
-11.9648967058
 10
-12.2495277843
 20
-11.8330285137
 10
-12.4159093268
 20
-11.6993130029
 10
-12.5809489661
 20
-11.5637822267
 10
-12.7445968586
 20
-11.4264769111
 10
-12.9068031612
 20
-11.2874377825
 10
-13.0675180303
 20
-11.1467055668
 10
-13.2267021092
 20
-11.0043113655
 10
-13.3843579861
 20
-10.8602477811
 10
-13.5404987362
 20
-10.7144977914
 10
-13.6951374341
 20
-10.5670443742
 10
-13.8482871548
 20
-10.4178705073
  0
LWPOLYLINE
  5
29D
100
AcDbEntity
  8
0
100
AcDbPolyline
 62
253
  6
CONTINUOUS
 90
88
 70
0
 10
-13.8482871548
 20
-10.4178705073
 10
-13.854072047
 20
-10.4123626124
 10
-13.859986751
 20
-10.4071215566
 10
-13.866043919
 20
-10.40212639
 10
-13.8722562032
 20
-10.3973561625
 10
-13.8786362556
 20
-10.3927899244
 10
-13.8868619183
 20
-10.3873457606
 10
-13.8953665891
 20
-10.3821988165
 10
-13.904147369
 20
-10.3773603128
 10
-13.9132013592
 20
-10.3728414702
 10
-13.9225207786
 20
-10.3686548064
 10
-13.932078316
 20
-10.3648180267
 10
-13.941841778
 20
-10.3613501331
 10
-13.9517789712
 20
-10.3582701279
 10
-13.9598345101
 20
-10.356097808
 10
-13.9679781415
 20
-10.3541934378
 10
-13.9762073736
 20
-10.3525645571
 10
-13.9845197146
 20
-10.3512187057
 10
-13.9929126729
 20
-10.3501634233
 10
-14.0013809683
 20
-10.3494060541
 10
-14.0099081668
 20
-10.3489531601
 10
-14.0184750462
 20
-10.3488111078
 10
-14.0270623841
 20
-10.3489862634
 10
-14.0356509583
 20
-10.3494849935
 10
-14.0442214484
 20
-10.3503109197
 10
-14.0527541432
 20
-10.3514566846
 10
-14.0612292334
 20
-10.3529121862
 10
-14.0696269097
 20
-10.3546673223
 10
-14.0779273629
 20
-10.3567119909
 10
-14.086114082
 20
-10.3590371797
 10
-14.0941837493
 20
-10.3616382364
 10
-14.1021363451
 20
-10.3645115986
 10
-14.10997185
 20
-10.3676537039
 10
-14.1176902445
 20
-10.3710609898
 10
-14.1252905082
 20
-10.374730533
 10
-14.1327676178
 20
-10.3786619666
 10
-14.1401155488
 20
-10.3828555627
 10
-14.1473282772
 20
-10.3873115934
 10
-14.1543997787
 20
-10.3920303309
 10
-14.1613223896
 20
-10.3970109176
 10
-14.1680818892
 20
-10.4022479765
 10
-14.1746624175
 20
-10.4077350012
 10
-14.1810481141
 20
-10.413465485
 10
-14.1872231191
 20
-10.4194329213
 10
-14.1931730661
 20
-10.4256294739
 10
-14.1988895645
 20
-10.432041988
 10
-14.2043657174
 20
-10.4386559794
 10
-14.209594628
 20
-10.4454569637
 10
-14.2145693993
 20
-10.4524304566
 10
-14.2192841515
 20
-10.4595632623
 10
-14.2237370716
 20
-10.4668473393
 10
-14.2279273639
 20
-10.4742759346
 10
-14.2318542325
 20
-10.4818422952
 10
-14.2355168814
 20
-10.4895396681
 10
-14.2389139622
 20
-10.4973626291
 10
-14.2420419164
 20
-10.505311069
 10
-14.2448966331
 20
-10.5133862072
 10
-14.2474740012
 20
-10.5215892632
 10
-14.2497699097
 20
-10.5299214564
 10
-14.2517790583
 20
-10.5383810566
 10
-14.2534913892
 20
-10.5469545351
 10
-14.2548956553
 20
-10.5556254134
 10
-14.2559806095
 20
-10.5643772129
 10
-14.2567350046
 20
-10.5731934553
 10
-14.2571043439
 20
-10.5805726969
 10
-14.2572376165
 20
-10.5879459157
 10
-14.2571361214
 20
-10.5952737804
 10
-14.2568027816
 20
-10.6025237419
 10
-14.2562470179
 20
-10.6096903809
 10
-14.2554798753
 20
-10.6167750603
 10
-14.254510818
 20
-10.6237811964
 10
-14.2533429871
 20
-10.6307204191
 10
-14.2519779428
 20
-10.6376064116
 10
-14.249566172
 20
-10.6478500413
 10
-14.2467323935
 20
-10.657957964
 10
-14.2434961215
 20
-10.6678854424
 10
-14.2398820793
 20
-10.6775956951
 10
-14.2359130738
 20
-10.6870602389
 10
-14.2315990372
 20
-10.6962758285
 10
-14.2269480174
 20
-10.7052428203
 10
-14.2219734013
 20
-10.7139507425
 10
-14.2166899104
 20
-10.722386416
 10
-14.2111122659
 20
-10.7305366615
 10
-14.2064433577
 20
-10.7368459592
 10
-14.20157378
 20
-10.7429781955
 10
-14.1964817001
 20
-10.7489474175
 10
-14.191145285
 20
-10.7547676724
 10
-14.1855427018
 20
-10.7604530072
  0
LWPOLYLINE
  5
29E
100
AcDbEntity
  8
0
100
AcDbPolyline
 62
253
  6
CONTINUOUS
 90
88
 70
0
 10
-13.872452432
 20
-10.4423885628
 10
-13.8774234673
 20
-10.4376500241
 10
-13.8825063521
 20
-10.433141402
 10
-13.8877120218
 20
-10.4288445418
 10
-13.8930514117
 20
-10.4247412892
 10
-13.8985354572
 20
-10.4208134895
 10
-13.9056068917
 20
-10.4161302888
 10
-13.9129205741
 20
-10.4117022623
 10
-13.9204756416
 20
-10.4075388055
 10
-13.9282712312
 20
-10.4036493136
 10
-13.9363016775
 20
-10.4000446275
 10
-13.9445421043
 20
-10.3967413691
 10
-13.9529628327
 20
-10.3937576056
 10
-13.961534184
 20
-10.3911114042
 10
-13.9684814092
 20
-10.3892491259
 10
-13.9755006824
 20
-10.3876206822
 10
-13.9825866475
 20
-10.3862323048
 10
-13.9897339483
 20
-10.3850902254
 10
-13.9969372287
 20
-10.384200676
 10
-14.0041898011
 20
-10.3835695363
 10
-14.0114796519
 20
-10.3832012791
 10
-14.0187934363
 20
-10.3831000253
 10
-14.0261178093
 20
-10.3832698957
 10
-14.0334394261
 20
-10.3837150112
 10
-14.0407447045
 20
-10.3844375571
 10
-14.0480191142
 20
-10.3854319771
 10
-14.0552478876
 20
-10.386690779
 10
-14.0624162571
 20
-10.388206471
 10
-14.0695094551
 20
-10.3899715611
 10
-14.0765148064
 20
-10.3919792616
 10
-14.0834280042
 20
-10.3942256029
 10
-14.0902468343
 20
-10.3967073194
 10
-14.0969690822
 20
-10.3994211459
 10
-14.1035925335
 20
-10.4023638168
 10
-14.1101145135
 20
-10.4055326547
 10
-14.1165305067
 20
-10.4089273329
 10
-14.1228355374
 20
-10.4125481127
 10
-14.1290246297
 20
-10.4163952554
 10
-14.1350928079
 20
-10.4204690222
 10
-14.141033592
 20
-10.4247686592
 10
-14.1468344861
 20
-10.429289352
 10
-14.15248149
 20
-10.4340252709
 10
-14.1579606036
 20
-10.4389705863
 10
-14.1632578268
 20
-10.4441194686
 10
-14.1683604136
 20
-10.4494647412
 10
-14.1732606352
 20
-10.4549938405
 10
-14.1779520167
 20
-10.4606928557
 10
-14.1824280836
 20
-10.4665478763
 10
-14.1866823609
 20
-10.4725449916
 10
-14.1907095134
 20
-10.4786717996
 10
-14.1945087625
 20
-10.4849219334
 10
-14.198080469
 20
-10.4912905344
 10
-14.2014249939
 20
-10.4977727443
 10
-14.2045426979
 20
-10.5043637047
 10
-14.2074332999
 20
-10.5110597119
 10
-14.2100939517
 20
-10.5178616815
 10
-14.2125211628
 20
-10.5247716837
 10
-14.214711443
 20
-10.5317917886
 10
-14.2166613022
 20
-10.5389240667
 10
-14.2183661629
 20
-10.5461677403
 10
-14.2198171003
 20
-10.5535106415
 10
-14.2210041022
 20
-10.5609377544
 10
-14.2219171568
 20
-10.5684340632
 10
-14.2225462521
 20
-10.5759845522
 10
-14.2228475781
 20
-10.5823029416
 10
-14.2229462625
 20
-10.588614403
 10
-14.2228438101
 20
-10.5948848109
 10
-14.2225431352
 20
-10.6010857376
 10
-14.2220527884
 20
-10.6072115457
 10
-14.2213827294
 20
-10.6132622954
 10
-14.22054153
 20
-10.6192401195
 10
-14.219532211
 20
-10.6251554404
 10
-14.2183564051
 20
-10.6310207529
 10
-14.216285684
 20
-10.6397394005
 10
-14.2138590255
 20
-10.6483384837
 10
-14.2110921932
 20
-10.6567846067
 10
-14.2080040673
 20
-10.6650514271
 10
-14.20461179
 20
-10.6731187366
 10
-14.2009224347
 20
-10.6809838078
 10
-14.1969418829
 20
-10.6886458802
 10
-14.1926813175
 20
-10.6960945799
 10
-14.1881532467
 20
-10.7033171296
 10
-14.1833701788
 20
-10.7103007519
 10
-14.179364329
 20
-10.715710074
 10
-14.1751844713
 20
-10.720969994
 10
-14.1708117909
 20
-10.7260922006
 10
-14.166227473
 20
-10.7310883828
 10
-14.1614127024
 20
-10.7359702294
  0
LWPOLYLINE
  5
29F
100
AcDbEntity
  8
0
100
AcDbPolyline
 62
253
  6
CONTINUOUS
 90
16
 70
0
 10
-14.1855427018
 20
-10.7604530072
 10
-14.0252571106
 20
-10.9165857603
 10
-13.8633607286
 20
-11.070888968
 10
-13.6998372592
 20
-11.2233821099
 10
-13.5346704059
 20
-11.3740846654
 10
-13.3678438721
 20
-11.5230161141
 10
-13.1993539167
 20
-11.6701845877
 10
-13.0292470211
 20
-11.815552826
 10
-12.8575822222
 20
-11.9590722213
 10
-12.684418557
 20
-12.1006941656
 10
-12.5098150622
 20
-12.2403700511
 10
-12.3338173788
 20
-12.3780616264
 10
-12.1564175636
 20
-12.5137720668
 10
-11.9775942773
 20
-12.6475149039
 10
-11.7973261805
 20
-12.7793036696
 10
-11.615591934
 20
-12.9091518955
  0
LWPOLYLINE
  5
2A0
100
AcDbEntity
  8
0
100
AcDbPolyline
 62
253
  6
CONTINUOUS
 90
16
 70
0
 10
-14.1614127024
 20
-10.7359702294
 10
-14.0013999543
 20
-10.8918373656
 10
-13.83977896
 20
-11.0458789612
 10
-13.6765334968
 20
-11.1981144001
 10
-13.511647342
 20
-11.3485630657
 10
-13.345104273
 20
-11.4972443419
 10
-13.1769005607
 20
-11.6441663151
 10
-13.00708245
 20
-11.7892918839
 10
-12.8357086794
 20
-11.9325726496
 10
-12.6628379874
 20
-12.0739602135
 10
-12.4885291127
 20
-12.213406177
 10
-12.3128274597
 20
-12.3508724458
 10
-12.1357250972
 20
-12.4863621421
 10
-11.9572007601
 20
-12.6198886925
 10
-11.7772331832
 20
-12.7514655237
 10
-11.5958011012
 20
-12.8811060622
  0
LINE
  5
2A1
100
AcDbEntity
  8
0
100
AcDbLine
 62
253
  6
CONTINUOUS
 10
-11.4245064774
 20
12.4795192107
 11
-11.3981187003
 21
12.4939478218
  0
LWPOLYLINE
  5
2A2
100
AcDbEntity
  8
0
100
AcDbPolyline
 62
253
  6
CONTINUOUS
 90
27
 70
0
 10
-11.3981187003
 20
12.4939478218
 10
-11.3961799718
 20
12.4947540317
 10
-11.3942265923
 20
12.4955295351
 10
-11.3922577261
 20
12.4962743707
 10
-11.3902725375
 20
12.496988577
 10
-11.3882701911
 20
12.4976721927
 10
-11.3862498511
 20
12.4983252564
 10
-11.3842106818
 20
12.4989478067
 10
-11.3821518477
 20
12.4995398821
 10
-11.3800725131
 20
12.5001015213
 10
-11.3779723679
 20
12.5006326634
 10
-11.3758532047
 20
12.5011328495
 10
-11.3737173414
 20
12.5016015209
 10
-11.3715670962
 20
12.5020381192
 10
-11.3694047871
 20
12.502442086
 10
-11.3672327321
 20
12.5028128627
 10
-11.3650532494
 20
12.5031498908
 10
-11.362868657
 20
12.5034526118
 10
-11.3606812729
 20
12.5037204673
 10
-11.3582192831
 20
12.5039795664
 10
-11.3557556018
 20
12.5041938308
 10
-11.3532891369
 20
12.5043632596
 10
-11.3508187962
 20
12.5044878515
 10
-11.3483434876
 20
12.5045676055
 10
-11.3458621189
 20
12.5046025205
 10
-11.3433735981
 20
12.5045925955
 10
-11.3408768329
 20
12.5045378294
  0
LWPOLYLINE
  5
2A3
100
AcDbEntity
  8
ASSI
100
AcDbPolyline
 62
253
  6
CONTINUOUS
 90
10
 70
0
 10
-22.2543861036
 20
21.513670122
 10
-22.2530923366
 20
21.5093176036
 10
-22.2518203738
 20
21.5016238144
 10
-22.2505702151
 20
21.4905887543
 10
-22.249335311
 20
21.4761235112
 10
-22.248122211
 20
21.4583169973
 10
-22.2469505641
 20
21.437435949
 10
-22.2458215569
 20
21.4134356195
 10
-22.2447340027
 20
21.3863607556
 10
-22.2437039904
 20
21.3566123348
  0
LWPOLYLINE
  5
2A4
100
AcDbEntity
  8
0
100
AcDbPolyline
 62
253
  6
CONTINUOUS
 90
33
 70
0
 10
-11.3393130436
 20
-12.9628787472
 10
-11.3315626446
 20
-12.9628296672
 10
-11.3239345077
 20
-12.9626414496
 10
-11.3163981271
 20
-12.9623159711
 10
-11.3089229967
 20
-12.9618551084
 10
-11.3014786105
 20
-12.9612607383
 10
-11.2940344626
 20
-12.9605347375
 10
-11.285070172
 20
-12.9594920514
 10
-11.2760775305
 20
-12.9582635117
 10
-11.2670717727
 20
-12.9568501106
 10
-11.2580681332
 20
-12.9552528403
 10
-11.2490818466
 20
-12.9534726928
 10
-11.2401259419
 20
-12.9515107248
 10
-11.2312046264
 20
-12.9493682512
 10
-11.2223199015
 20
-12.947046651
 10
-11.2134737689
 20
-12.9445473035
 10
-11.2046682303
 20
-12.9418715881
 10
-11.1959059475
 20
-12.9390208299
 10
-11.1871922237
 20
-12.9359961389
 10
-11.1785330222
 20
-12.9327985709
 10
-11.1699343066
 20
-12.9294291819
 10
-11.1614020401
 20
-12.9258890278
 10
-11.1529419603
 20
-12.9221791794
 10
-11.1445589007
 20
-12.918300767
 10
-11.136257469
 20
-12.9142549359
 10
-11.1280422728
 20
-12.9100428312
 10
-11.1199179197
 20
-12.9056655982
 10
-11.1132191822
 20
-12.9018914955
 10
-11.1065824269
 20
-12.8979976081
 10
-11.100003351
 20
-12.8939780286
 10
-11.0934776515
 20
-12.8898268494
 10
-11.0870010255
 20
-12.8855381631
 10
-11.0805691699
 20
-12.8811060622
  0
LWPOLYLINE
  5
2A5
100
AcDbEntity
  8
0
100
AcDbPolyline
 62
253
  6
CONTINUOUS
 90
31
 70
0
 10
-11.3408772437
 20
-12.9971973534
 10
-11.3310505556
 20
-12.997150822
 10
-11.3212565133
 20
-12.9968955643
 10
-11.3114865435
 20
-12.9964334202
 10
-11.3017320728
 20
-12.9957662299
 10
-11.2919845277
 20
-12.9948958333
 10
-11.2822362533
 20
-12.9938233815
 10
-11.2724832681
 20
-12.9925472693
 10
-11.2627225093
 20
-12.9910652023
 10
-11.2529509137
 20
-12.9893748865
 10
-11.2431654185
 20
-12.9874740275
 10
-11.2333660706
 20
-12.9853610752
 10
-11.2235653566
 20
-12.9830374552
 10
-11.213778873
 20
-12.9805053374
 10
-11.2040222163
 20
-12.9777668915
 10
-11.194310983
 20
-12.9748242873
 10
-11.1846604962
 20
-12.9716805212
 10
-11.1750849844
 20
-12.9683418959
 10
-11.1655984029
 20
-12.9648155409
 10
-11.1562147067
 20
-12.9611085855
 10
-11.146947851
 20
-12.9572281592
 10
-11.1378088866
 20
-12.9531802417
 10
-11.1287972473
 20
-12.9489662148
 10
-11.1199094626
 20
-12.9445863104
 10
-11.111142062
 20
-12.9400407606
 10
-11.102491575
 20
-12.9353297975
 10
-11.0939540691
 20
-12.9304524531
 10
-11.0855237633
 20
-12.925402959
 10
-11.0771944143
 20
-12.920174347
 10
-11.0689597792
 20
-12.9147596486
 10
-11.0608136148
 20
-12.9091518955
  0
LWPOLYLINE
  5
2A6
100
AcDbEntity
  8
0
100
AcDbPolyline
 62
253
  6
CONTINUOUS
 90
31
 70
0
 10
-11.3408041324
 20
-12.5273901516
 10
-11.3435394617
 20
-12.5273142643
 10
-11.3462637979
 20
-12.5271851265
 10
-11.3489776793
 20
-12.5270025166
 10
-11.3516816442
 20
-12.5267662129
 10
-11.3543762307
 20
-12.5264759937
 10
-11.3570619771
 20
-12.5261316372
 10
-11.3597394217
 20
-12.5257329217
 10
-11.3624091026
 20
-12.5252796256
 10
-11.3650715583
 20
-12.5247715272
 10
-11.3677273269
 20
-12.5242084047
 10
-11.3703765876
 20
-12.5235901756
 10
-11.3730180838
 20
-12.5229173137
 10
-11.3756501999
 20
-12.5221904322
 10
-11.37827132
 20
-12.5214101439
 10
-11.3808798287
 20
-12.5205770619
 10
-11.3834741101
 20
-12.5196917993
 10
-11.3860525487
 20
-12.518754969
 10
-11.3886135287
 20
-12.5177671841
 10
-11.3911554345
 20
-12.5167290575
 10
-11.3936766504
 20
-12.5156412023
 10
-11.3961758842
 20
-12.5145040449
 10
-11.3986531375
 20
-12.5133172649
 10
-11.4011087356
 20
-12.5120803555
 10
-11.4035430034
 20
-12.5107928098
 10
-11.4059562662
 20
-12.5094541208
 10
-11.408348849
 20
-12.5080637816
 10
-11.4107210771
 20
-12.5066212852
 10
-11.4130732754
 20
-12.5051261249
 10
-11.4154057692
 20
-12.5035777936
 10
-11.4177188835
 20
-12.5019757845
  0
LWPOLYLINE
  5
2A7
100
AcDbEntity
  8
0
100
AcDbPolyline
 62
253
  6
CONTINUOUS
 90
31
 70
0
 10
-11.34078645
 20
-12.4931100196
 10
-11.3427976307
 20
-12.4930353676
 10
-11.3448004177
 20
-12.4929212197
 10
-11.3467964388
 20
-12.4927677292
 10
-11.3487873218
 20
-12.4925750497
 10
-11.3507746947
 20
-12.4923433343
 10
-11.3527599021
 20
-12.4920726601
 10
-11.3547431558
 20
-12.4917627983
 10
-11.3567243843
 20
-12.4914134438
 10
-11.3587035163
 20
-12.4910242914
 10
-11.3606804804
 20
-12.4905950359
 10
-11.3626549299
 20
-12.4901254658
 10
-11.3646254178
 20
-12.4896157442
 10
-11.3665902217
 20
-12.4890661275
 10
-11.3685476193
 20
-12.4884768725
 10
-11.3704958883
 20
-12.4878482358
 10
-11.3724333368
 20
-12.4871805635
 10
-11.3743583946
 20
-12.4864745598
 10
-11.3762695223
 20
-12.4857310187
 10
-11.37816518
 20
-12.4849507339
 10
-11.3800438281
 20
-12.4841344991
 10
-11.381904164
 20
-12.4832830075
 10
-11.3837458337
 20
-12.4823965494
 10
-11.3855687202
 20
-12.4814753144
 10
-11.3873727064
 20
-12.4805194921
 10
-11.3891576754
 20
-12.4795292721
 10
-11.3909237426
 20
-12.4785045795
 10
-11.392671953
 20
-12.4774442816
 10
-11.3944035839
 20
-12.4763469812
 10
-11.396119913
 20
-12.4752112813
 10
-11.3978222174
 20
-12.4740357845
  0
LINE
  5
2A8
100
AcDbEntity
  8
ASSI
100
AcDbLine
 62
253
  6
CONTINUOUS
 10
-11.3399910669
 20
0.239678709
 11
-11.3416814399
 21
21.9945092522
  0
LINE
  5
2A9
100
AcDbEntity
  8
ASSI
100
AcDbLine
 62
253
  6
CONTINUOUS
 10
-11.3399910668
 20
-0.2624880607
 11
-11.3416814399
 21
-22.0173186038
  0
LINE
  5
2AA
100
AcDbEntity
  8
ASSI
100
AcDbLine
 62
253
  6
CONTINUOUS
 10
-22.2543861063
 20
-21.5364794789
 11
-22.347362259
 21
-21.72255938
  0
LINE
  5
2AB
100
AcDbEntity
  8
ASSI
100
AcDbLine
 62
253
  6
CONTINUOUS
 10
-21.7545574438
 20
-22.0357942463
 11
-21.8467358374
 21
-22.2202775343
  0
LINE
  5
2AC
100
AcDbEntity
  8
ASSI
100
AcDbLine
 62
253
  6
CONTINUOUS
 10
-22.347362259
 20
21.6997500283
 11
-22.2543861036
 21
21.513670122
  0
LINE
  5
2AD
100
AcDbEntity
  8
ASSI
100
AcDbLine
 62
253
  6
CONTINUOUS
 10
-21.8467358374
 20
22.1974681826
 11
-21.7545574411
 21
22.0129848894
  0
LINE
  5
2AE
100
AcDbEntity
  8
ASSI
100
AcDbLine
 62
253
  6
CONTINUOUS
 10
-22.3670901672
 20
0.688500142
 11
-22.225211222
 21
0.7357835188
  0
LINE
  5
2AF
100
AcDbEntity
  8
ASSI
100
AcDbLine
 62
253
  6
CONTINUOUS
 10
-21.8670330271
 20
0.1885953242
 11
-21.7253825593
 21
0.2358025574
  0
LINE
  5
2B0
100
AcDbEntity
  8
ASSI
100
AcDbLine
 62
253
  6
CONTINUOUS
 10
-22.225211222
 20
-0.7585928704
 11
-22.3670901672
 21
-0.7113094936
  0
LINE
  5
2B1
100
AcDbEntity
  8
ASSI
100
AcDbLine
 62
253
  6
CONTINUOUS
 10
-21.7253825593
 20
-0.258611909
 11
-21.8670330271
 21
-0.2114046758
  0
LINE
  5
2B2
100
AcDbEntity
  8
ASSI
100
AcDbLine
 62
7
  6
CONTINUOUS
 10
19.4082799564
 20
-0.246312147
 11
19.7582346105
 21
-0.2114046758
  0
LINE
  5
2B3
100
AcDbEntity
  8
ASSI
100
AcDbLine
 62
7
  6
CONTINUOUS
 10
-19.5917200436
 20
-0.246312147
 11
-19.9416746977
 21
-0.2114046758
  0
LINE
  5
2B4
100
AcDbEntity
  8
ASSI
100
AcDbLine
 62
253
  6
CONTINUOUS
 10
22.0417711347
 20
-0.7585928704
 11
22.0381366871
 21
-0.7586678212
  0
LINE
  5
2B5
100
AcDbEntity
  8
ASSI
100
AcDbLine
 62
253
  6
CONTINUOUS
 10
22.0381366871
 20
-0.7586678212
 11
22.0168704162
 21
-0.7588148944
  0
LINE
  5
2B6
100
AcDbEntity
  8
ASSI
100
AcDbLine
 62
253
  6
CONTINUOUS
 10
22.0168704162
 20
-0.7588148944
 11
11.1565416112
 21
-0.7634085408
  0
LINE
  5
2B7
100
AcDbEntity
  8
ASSI
100
AcDbLine
 62
253
  6
CONTINUOUS
 10
21.541942472
 20
-0.258611909
 11
14.6300507872
 21
-0.2620541904
  0
LINE
  5
2B8
100
AcDbEntity
  8
ASSI
100
AcDbLine
 62
253
  6
CONTINUOUS
 10
-21.7253825593
 20
0.2358025574
 11
-13.6569390401
 21
0.2394850501
  0
LINE
  5
2B9
100
AcDbEntity
  8
ASSI
100
AcDbLine
 62
253
  6
CONTINUOUS
 10
11.1565416112
 20
-0.7634090113
 11
-11.3399816851
 21
-0.7634090113
  0
LINE
  5
2BA
100
AcDbEntity
  8
ASSI
100
AcDbLine
 62
253
  6
CONTINUOUS
 10
14.6300507872
 20
-0.2620541904
 11
11.1565509796
 21
-0.2624880539
  0
LINE
  5
2BB
100
AcDbEntity
  8
ASSI
100
AcDbLine
 62
7
  6
CONTINUOUS
 10
11.1565509796
 20
-0.2624880539
 11
-11.3399910668
 21
-0.2624880539
  0
LINE
  5
2BC
100
AcDbEntity
  8
ASSI
100
AcDbLine
 62
7
  6
CONTINUOUS
 10
19.4082799564
 20
-0.246312147
 11
-19.5917200436
 21
-0.246312147
  0
LINE
  5
2BD
100
AcDbEntity
  8
ASSI
100
AcDbLine
 62
7
  6
CONTINUOUS
 10
21.6835929398
 20
-0.2114046758
 11
19.7582346105
 21
-0.2114046758
  0
LINE
  5
2BE
100
AcDbEntity
  8
ASSI
100
AcDbLine
 62
7
  6
CONTINUOUS
 10
-19.9416746977
 20
-0.2114046758
 11
-21.8670330271
 21
-0.2114046758
  0
LINE
  5
2BF
100
AcDbEntity
  8
ASSI
100
AcDbLine
 62
7
  6
CONTINUOUS
 10
-21.8670330271
 20
0.1885953242
 11
-19.9416746977
 21
0.1885953242
  0
LINE
  5
2C0
100
AcDbEntity
  8
ASSI
100
AcDbLine
 62
7
  6
CONTINUOUS
 10
19.7582346105
 20
0.1885953242
 11
21.6835929398
 21
0.1885953242
  0
LINE
  5
2C1
100
AcDbEntity
  8
ASSI
100
AcDbLine
 62
7
  6
CONTINUOUS
 10
-19.5917200436
 20
0.2235027954
 11
19.4082799564
 21
0.2235027954
  0
LINE
  5
2C2
100
AcDbEntity
  8
ASSI
100
AcDbLine
 62
7
  6
CONTINUOUS
 10
-11.3399910669
 20
0.2396787023
 11
11.1565509796
 21
0.2396787023
  0
LINE
  5
2C3
100
AcDbEntity
  8
ASSI
100
AcDbLine
 62
253
  6
CONTINUOUS
 10
-13.6569390401
 20
0.2394850501
 11
-11.3399910669
 21
0.2396787023
  0
LINE
  5
2C4
100
AcDbEntity
  8
ASSI
100
AcDbLine
 62
253
  6
CONTINUOUS
 10
-11.3399816851
 20
-0.7634085408
 11
-21.9095647521
 21
-0.7593026277
  0
LINE
  5
2C5
100
AcDbEntity
  8
ASSI
100
AcDbLine
 62
253
  6
CONTINUOUS
 10
-11.3399910668
 20
-0.2624880539
 11
-19.4267859534
 21
-0.2601388536
  0
LINE
  5
2C6
100
AcDbEntity
  8
ASSI
100
AcDbLine
 62
253
  6
CONTINUOUS
 10
11.1565509796
 20
0.2396787023
 11
18.0920372829
 21
0.2379506547
  0
LINE
  5
2C7
100
AcDbEntity
  8
ASSI
100
AcDbLine
 62
253
  6
CONTINUOUS
 10
-19.4267859534
 20
-0.2601388536
 11
-21.7253825593
 21
-0.258611909
  0
LINE
  5
2C8
100
AcDbEntity
  8
ASSI
100
AcDbLine
 62
253
  6
CONTINUOUS
 10
18.0920372829
 20
0.2379506547
 11
21.541942472
 21
0.2358025573
  0
LINE
  5
2C9
100
AcDbEntity
  8
ASSI
100
AcDbLine
 62
253
  6
CONTINUOUS
 10
-21.9095647521
 20
-0.7593026277
 11
-22.2003105035
 21
-0.7588149041
  0
LWPOLYLINE
  5
2CA
100
AcDbEntity
  8
ASSI
100
AcDbPolyline
 62
253
  6
CONTINUOUS
 90
3
 70
0
 10
-22.2003105035
 20
-0.7588149041
 10
-22.2215767744
 20
-0.7586678244
 10
-22.225211222
 20
-0.7585928704
  0
LWPOLYLINE
  5
2CB
100
AcDbEntity
  8
0
100
AcDbPolyline
 62
253
  6
CONTINUOUS
 90
88
 70
0
 10
-8.4906159026
 20
-10.7604530072
 10
-8.4850282922
 20
-10.7547577953
 10
-8.4797042502
 20
-10.7489291357
 10
-8.4746227338
 20
-10.7429546726
 10
-8.4697627002
 20
-10.7368220501
 10
-8.4651031065
 20
-10.7305189123
 10
-8.4595371546
 20
-10.7223858422
 10
-8.4542627851
 20
-10.7139696792
 10
-8.4492912723
 20
-10.7052730662
 10
-8.4446338906
 20
-10.6962986465
 10
-8.4403032935
 20
-10.6870539231
 10
-8.4363176504
 20
-10.6775658389
 10
-8.4326965098
 20
-10.6678661966
 10
-8.4294594201
 20
-10.657986799
 10
-8.427158996
 20
-10.6499729079
 10
-8.4251244516
 20
-10.6418666859
 10
-8.4233633625
 20
-10.6336704915
 10
-8.4218833046
 20
-10.6253866836
 10
-8.4206918539
 20
-10.6170176207
 10
-8.4197964503
 20
-10.608568445
 10
-8.41920399
 20
-10.6000554331
 10
-8.418921233
 20
-10.5914976448
 10
-8.4189549397
 20
-10.5829141403
 10
-8.4193118702
 20
-10.5743239794
 10
-8.4199960417
 20
-10.5657463532
 10
-8.4210004988
 20
-10.5572009768
 10
-8.4223155434
 20
-10.5487076965
 10
-8.4239314772
 20
-10.5402863584
 10
-8.4258386019
 20
-10.5319568087
 10
-8.4280282431
 20
-10.5237356185
 10
-8.4304958221
 20
-10.5156262576
 10
-8.4332377839
 20
-10.507628921
 10
-8.4362505738
 20
-10.4997438034
 10
-8.4395306367
 20
-10.4919710997
 10
-8.4430750594
 20
-10.4843119845
 10
-8.4468834939
 20
-10.4767715529
 10
-8.4509562341
 20
-10.4693558793
 10
-8.4552935735
 20
-10.4620710388
 10
-8.4598958058
 20
-10.454923106
 10
-8.4647621415
 20
-10.447919786
 10
-8.4698874585
 20
-10.4410753054
 10
-8.4752655516
 20
-10.4344055213
 10
-8.4808902153
 20
-10.4279262905
 10
-8.4867552445
 20
-10.4216534701
 10
-8.4928530818
 20
-10.4156014675
 10
-8.4991707617
 20
-10.4097788921
 10
-8.5056939667
 20
-10.4041929039
 10
-8.5124083792
 20
-10.3988506628
 10
-8.5192996817
 20
-10.3937593287
 10
-8.5263548118
 20
-10.3889250323
 10
-8.5335657282
 20
-10.3843497868
 10
-8.5409256449
 20
-10.3800345763
 10
-8.5484277757
 20
-10.3759803847
 10
-8.5560653345
 20
-10.372188196
 10
-8.5638328887
 20
-10.3686595221
 10
-8.5717304197
 20
-10.3653979866
 10
-8.579759262
 20
-10.362407741
 10
-8.5879207505
 20
-10.3596929368
 10
-8.5962162198
 20
-10.3572577254
 10
-8.6046440564
 20
-10.355107507
 10
-8.6131908537
 20
-10.3532526755
 10
-8.6218402567
 20
-10.3517048735
 10
-8.6305759103
 20
-10.3504757438
 10
-8.6393814597
 20
-10.3495769287
 10
-8.6467560207
 20
-10.3490874281
 10
-8.6541283583
 20
-10.3488348674
 10
-8.6614590676
 20
-10.3488187161
 10
-8.6687155244
 20
-10.3490366743
 10
-8.6758922248
 20
-10.349479364
 10
-8.6829904451
 20
-10.350135638
 10
-8.6900135324
 20
-10.3509959009
 10
-8.6969731164
 20
-10.3520567646
 10
-8.7038828975
 20
-10.3533163931
 10
-8.7141685839
 20
-10.3555725708
 10
-8.7243258315
 20
-10.3582540469
 10
-8.7343093832
 20
-10.3613416686
 10
-8.7440817866
 20
-10.3648108353
 10
-8.7536139771
 20
-10.368638727
 10
-8.7629026367
 20
-10.3728150934
 10
-8.7719481611
 20
-10.3773315475
 10
-8.7807400559
 20
-10.382174585
 10
-8.7892651039
 20
-10.3873294222
 10
-8.7975100878
 20
-10.3927812755
 10
-8.8038991183
 20
-10.3973515336
 10
-8.8101151092
 20
-10.4021240032
 10
-8.8161727212
 20
-10.4071202669
 10
-8.8220866145
 20
-10.4123619073
 10
-8.8278714496
 20
-10.4178705073
  0
LWPOLYLINE
  5
2CC
100
AcDbEntity
  8
0
100
AcDbPolyline
 62
253
  6
CONTINUOUS
 90
88
 70
0
 10
-8.5147433419
 20
-10.7359702294
 10
-8.5099345668
 20
-10.7310767603
 10
-8.5053535828
 20
-10.7260677542
 10
-8.5009821913
 20
-10.7209327169
 10
-8.4968021938
 20
-10.7156611542
 10
-8.4927953914
 20
-10.7102425718
 10
-8.4880101777
 20
-10.7032501539
 10
-8.4834763494
 20
-10.6960123875
 10
-8.47920311
 20
-10.6885300398
 10
-8.4751996627
 20
-10.6808038777
 10
-8.4714767274
 20
-10.6728394155
 10
-8.46805109
 20
-10.6646611564
 10
-8.4649410529
 20
-10.6562983506
 10
-8.4621649185
 20
-10.6477802483
 10
-8.4601961852
 20
-10.6408720048
 10
-8.4584590234
 20
-10.6338884413
 10
-8.4569595934
 20
-10.6268349072
 10
-8.4557040555
 20
-10.619716752
 10
-8.4546985699
 20
-10.6125393251
 10
-8.4539489974
 20
-10.6053092635
 10
-8.4534600004
 20
-10.5980383541
 10
-8.453235942
 20
-10.5907396709
 10
-8.4532811852
 20
-10.5834262882
 10
-8.4536000929
 20
-10.5761112802
 10
-8.454195125
 20
-10.5688079912
 10
-8.4550611289
 20
-10.5615308457
 10
-8.4561910487
 20
-10.5542945379
 10
-8.4575778287
 20
-10.5471137625
 10
-8.4592144131
 20
-10.5400032139
 10
-8.461094397
 20
-10.5329755301
 10
-8.4632139783
 20
-10.5260351234
 10
-8.465570006
 20
-10.5191843499
 10
-8.4681593289
 20
-10.5124255654
 10
-8.4709787957
 20
-10.5057611259
 10
-8.4740258372
 20
-10.499193824
 10
-8.4773002104
 20
-10.4927281989
 10
-8.4808022544
 20
-10.4863692264
 10
-8.484532308
 20
-10.4801218824
 10
-8.4884907103
 20
-10.4739911427
 10
-8.4926768407
 20
-10.46798348
 10
-8.4970862413
 20
-10.462111354
 10
-8.5017134946
 20
-10.4563887213
 10
-8.5065531833
 20
-10.4508295385
 10
-8.51159989
 20
-10.4454477623
 10
-8.5168468231
 20
-10.4402561378
 10
-8.5222816942
 20
-10.4352625651
 10
-8.5278908405
 20
-10.4304737326
 10
-8.5336605995
 20
-10.425896329
 10
-8.5395773085
 20
-10.4215370429
 10
-8.5456287546
 20
-10.4174014131
 10
-8.5518085238
 20
-10.4134903792
 10
-8.5581116522
 20
-10.4098037309
 10
-8.5645331755
 20
-10.4063412579
 10
-8.5710681296
 20
-10.4031027501
 10
-8.5777127771
 20
-10.4000886166
 10
-8.5844682877
 20
-10.3973017441
 10
-8.5913370581
 20
-10.3947456388
 10
-8.5983214847
 20
-10.392423807
 10
-8.6054239641
 20
-10.3903397548
 10
-8.6126439695
 20
-10.3884981546
 10
-8.6199692807
 20
-10.3869083429
 10
-8.6273847543
 20
-10.3855808227
 10
-8.634875247
 20
-10.3845260967
 10
-8.6424256153
 20
-10.3837546678
 10
-8.6487481362
 20
-10.3833347341
 10
-8.6550673633
 20
-10.383118541
 10
-8.6613489388
 20
-10.3831058012
 10
-8.6675642589
 20
-10.3832946206
 10
-8.6737077359
 20
-10.383676677
 10
-8.6797795358
 20
-10.3842420412
 10
-8.6857818887
 20
-10.3849821161
 10
-8.6917252787
 20
-10.3858936323
 10
-8.697622254
 20
-10.3869746519
 10
-8.7063949784
 20
-10.3889083601
 10
-8.7150548932
 20
-10.3912041397
 10
-8.7235671367
 20
-10.393846128
 10
-8.7319038378
 20
-10.3968148207
 10
-8.7400435529
 20
-10.4000923263
 10
-8.7479835562
 20
-10.4036708492
 10
-8.7557233903
 20
-10.4075438684
 10
-8.7632529519
 20
-10.4116998669
 10
-8.7705597266
 20
-10.4161260787
 10
-8.7776311999
 20
-10.420809738
 10
-8.7831136909
 20
-10.4247376491
 10
-8.7884500068
 20
-10.4288408218
 10
-8.7936525743
 20
-10.4331379213
 10
-8.7987338206
 20
-10.4376476132
 10
-8.8037061724
 20
-10.4423885628
  0
LWPOLYLINE
  5
2CD
100
AcDbEntity
  8
0
100
AcDbPolyline
 62
253
  6
CONTINUOUS
 90
16
 70
0
 10
-8.8278714496
 20
-10.4178705073
 10
-8.9809880744
 20
-10.5670177421
 10
-9.1355921423
 20
-10.7144421647
 10
-9.2916910464
 20
-10.8601569044
 10
-9.4492921795
 20
-11.0041750901
 10
-9.6084029348
 20
-11.1465098511
 10
-9.7690238878
 20
-11.2871675024
 10
-9.9311283444
 20
-11.4261271024
 10
-10.0946827931
 20
-11.5633608955
 10
-10.2596537225
 20
-11.6988411263
 10
-10.4260076211
 20
-11.8325400392
 10
-10.5937188785
 20
-11.9644354176
 10
-10.7627934887
 20
-12.094527202
 10
-10.9332453468
 20
-12.2228208716
 10
-11.1050883479
 20
-12.349321906
 10
-11.2783363871
 20
-12.4740357845
  0
LWPOLYLINE
  5
2CE
100
AcDbEntity
  8
0
100
AcDbPolyline
 62
253
  6
CONTINUOUS
 90
16
 70
0
 10
-8.8037061724
 20
-10.4423885628
 10
-8.9571211112
 20
-10.5918130356
 10
-9.1120262923
 20
-10.7395110295
 10
-9.2684291206
 20
-10.8854957026
 10
-9.4263370012
 20
-11.0297802128
 10
-9.5857573389
 20
-11.1723777181
 10
-9.7466907078
 20
-11.3132945493
 10
-9.9091103578
 20
-11.4525097273
 10
-10.0729827079
 20
-11.5899954457
 10
-10.2382741772
 20
-11.7257238984
 10
-10.4049511846
 20
-11.8596672787
 10
-10.5729880664
 20
-11.9918033301
 10
-10.7423908276
 20
-12.1221319934
 10
-10.9131733904
 20
-12.2506587595
 10
-11.0853496771
 20
-12.3773891189
 10
-11.2589336098
 20
-12.5023285623
  0
LINE
  5
2CF
100
AcDbEntity
  8
ASSI
100
AcDbLine
 62
7
  6
CONTINUOUS
 10
-19.5917200436
 20
0.2235027954
 11
-19.9416746977
 21
0.1885953242
  0
LINE
  5
2D0
100
AcDbEntity
  8
ASSI
100
AcDbLine
 62
253
  6
CONTINUOUS
 10
-22.225211222
 20
0.7357835188
 11
-22.2215767743
 21
0.7358584696
  0
LINE
  5
2D1
100
AcDbEntity
  8
ASSI
100
AcDbLine
 62
253
  6
CONTINUOUS
 10
-22.2215767743
 20
0.7358584696
 11
-22.2003105035
 21
0.7360055427
  0
LINE
  5
2D2
100
AcDbEntity
  8
ASSI
100
AcDbLine
 62
253
  6
CONTINUOUS
 10
-22.2003105035
 20
0.7360055427
 11
-11.3399816985
 21
0.7405991892
  0
LINE
  5
2D3
100
AcDbEntity
  8
ASSI
100
AcDbLine
 62
253
  6
CONTINUOUS
 10
-11.3399816985
 20
0.7405996597
 11
11.1565415978
 21
0.7405996597
  0
LINE
  5
2D4
100
AcDbEntity
  8
ASSI
100
AcDbLine
 62
253
  6
CONTINUOUS
 10
11.1565415978
 20
0.7405991892
 11
21.9220526634
 21
0.7362693429
  0
LWPOLYLINE
  5
2D5
100
AcDbEntity
  8
ASSI
100
AcDbPolyline
 62
253
  6
CONTINUOUS
 90
4
 70
0
 10
21.9220526634
 20
0.7362693429
 10
22.0298102023
 20
0.7359327181
 10
22.0381366871
 20
0.7358584728
 10
22.0417711347
 20
0.7357835188
  0
LINE
  5
2D6
100
AcDbEntity
  8
ASSI
100
AcDbLine
 62
7
  6
CONTINUOUS
 10
19.4082799564
 20
0.2235027954
 11
19.7582346105
 21
0.1885953242
  0
LWPOLYLINE
  5
2D7
100
AcDbEntity
  8
0
100
AcDbPolyline
 62
253
  6
CONTINUOUS
 90
88
 70
0
 10
-8.8351529324
 20
10.3950611557
 10
-8.8293683842
 20
10.3895535789
 10
-8.8234540173
 20
10.384312793
 10
-8.8173971865
 20
10.3793178563
 10
-8.8111852466
 20
10.374547827
 10
-8.8048055522
 20
10.3699817637
 10
-8.7965803632
 20
10.3645377941
 10
-8.7880761889
 20
10.359391014
 10
-8.7792959183
 20
10.3545526378
 10
-8.7702424407
 20
10.3500338796
 10
-8.7609235287
 20
10.3458472521
 10
-8.7513664898
 20
10.3420104612
 10
-8.7416035149
 20
10.3385425109
 10
-8.731666795
 20
10.3354624055
 10
-8.7236116227
 20
10.3332899751
 10
-8.7154683433
 20
10.3313854671
 10
-8.7072394439
 20
10.3297564204
 10
-8.6989274119
 20
10.3284103742
 10
-8.6905347347
 20
10.3273548672
 10
-8.6820666883
 20
10.3265972444
 10
-8.673539705
 20
10.3261440731
 10
-8.6649730056
 20
10.3260017268
 10
-8.6563858112
 20
10.3261765788
 10
-8.6477973426
 20
10.3266750023
 10
-8.6392269233
 20
10.3275006232
 10
-8.6306942858
 20
10.3286460779
 10
-8.6222192651
 20
10.3301012551
 10
-8.6138216962
 20
10.3318560438
 10
-8.6055214141
 20
10.3339003328
 10
-8.5973349468
 20
10.3362251028
 10
-8.5892655956
 20
10.3388257014
 10
-8.5813133547
 20
10.3416985681
 10
-8.5734782185
 20
10.3448401424
 10
-8.5657601812
 20
10.3482468636
 10
-8.5581602415
 20
10.3519158109
 10
-8.5506834155
 20
10.3558466216
 10
-8.5433357235
 20
10.3600395726
 10
-8.536123186
 20
10.364494941
 10
-8.5290518232
 20
10.3692130036
 10
-8.5221292959
 20
10.374192907
 10
-8.5153698254
 20
10.3794292767
 10
-8.5087892734
 20
10.3849156075
 10
-8.5024035016
 20
10.3906453945
 10
-8.4962283717
 20
10.3966121326
 10
-8.4902782505
 20
10.4028079899
 10
-8.4845615264
 20
10.4092198277
 10
-8.4790850926
 20
10.4158331801
 10
-8.4738558427
 20
10.4226335816
 10
-8.46888067
 20
10.4296065664
 10
-8.4641654536
 20
10.4367389528
 10
-8.4597120143
 20
10.4440226953
 10
-8.4555211587
 20
10.4514510321
 10
-8.4515936931
 20
10.4590172017
 10
-8.4479304241
 20
10.4667144425
 10
-8.4445327092
 20
10.4745373262
 10
-8.4414041098
 20
10.4824857578
 10
-8.4385487383
 20
10.4905609757
 10
-8.4359707072
 20
10.4987642184
 10
-8.4336741289
 20
10.5070967243
 10
-8.4316643073
 20
10.5155567749
 10
-8.429951312
 20
10.5241308239
 10
-8.4285464037
 20
10.5328023681
 10
-8.4274608433
 20
10.5415549042
 10
-8.4267058919
 20
10.5503719291
 10
-8.4263361357
 20
10.5577518391
 10
-8.4262024901
 20
10.565125722
 10
-8.4263036564
 20
10.5724542273
 10
-8.426636711
 20
10.5797047929
 10
-8.4271922312
 20
10.5868720102
 10
-8.4279591697
 20
10.5939572589
 10
-8.4289280608
 20
10.6009639704
 10
-8.4300957649
 20
10.6079037842
 10
-8.431460724
 20
10.6147903912
 10
-8.4338724464
 20
10.6250349893
 10
-8.4367062618
 20
10.6351438884
 10
-8.4399426399
 20
10.6450722912
 10
-8.4435568301
 20
10.6547833672
 10
-8.447525998
 20
10.6642485973
 10
-8.4518401944
 20
10.6734647409
 10
-8.4564913599
 20
10.6824321709
 10
-8.4614661082
 20
10.6911404353
 10
-8.4667497215
 20
10.6995763761
 10
-8.4723274816
 20
10.7077268353
 10
-8.476996479
 20
10.7140362775
 10
-8.4818661395
 20
10.7201686354
 10
-8.4869582917
 20
10.7261379543
 10
-8.4922947642
 20
10.7319582793
 10
-8.4978973854
 20
10.7376436556
  0
LWPOLYLINE
  5
2D8
100
AcDbEntity
  8
0
100
AcDbPolyline
 62
253
  6
CONTINUOUS
 90
88
 70
0
 10
-8.8109876552
 20
10.4195792112
 10
-8.8060167799
 20
10.4148408206
 10
-8.8009340424
 20
10.4103323161
 10
-8.79572851
 20
10.4060355479
 10
-8.79038925
 20
10.4019323666
 10
-8.7849053297
 20
10.3980046224
 10
-8.7778340472
 20
10.3933214747
 10
-8.7705205089
 20
10.3888934837
 10
-8.7629655732
 20
10.3847300442
 10
-8.7551700985
 20
10.380840551
 10
-8.7471397455
 20
10.3772358447
 10
-8.7388993842
 20
10.3739325482
 10
-8.730478687
 20
10.37094873
 10
-8.721907326
 20
10.3683024588
 10
-8.7149600581
 20
10.3664401151
 10
-8.7079407019
 20
10.3648116014
 10
-8.7008546039
 20
10.3634231536
 10
-8.6937071103
 20
10.3622810077
 10
-8.6865035675
 20
10.3613913996
 10
-8.6792506562
 20
10.3607602143
 10
-8.6719603954
 20
10.3603919318
 10
-8.6646461387
 20
10.3602906808
 10
-8.6573212395
 20
10.3604605903
 10
-8.6499990513
 20
10.3609057891
 10
-8.6426931657
 20
10.3616284689
 10
-8.6354181265
 20
10.3626230721
 10
-8.6281887156
 20
10.363882104
 10
-8.6210197148
 20
10.36539807
 10
-8.6139259061
 20
10.3671634754
 10
-8.6069199762
 20
10.3691715301
 10
-8.6000062315
 20
10.3714182634
 10
-8.5931868833
 20
10.3739004093
 10
-8.5864641427
 20
10.3766147017
 10
-8.579840221
 20
10.3795578745
 10
-8.5733177902
 20
10.3827272504
 10
-8.5669013644
 20
10.3861225074
 10
-8.5605959186
 20
10.3897439119
 10
-8.5544064276
 20
10.3935917306
 10
-8.5483378662
 20
10.3976662301
 10
-8.5423967158
 20
10.4019666594
 10
-8.5365954824
 20
10.4064881967
 10
-8.5309481787
 20
10.4112250029
 10
-8.5254688171
 20
10.4161712386
 10
-8.5201714103
 20
10.4213210645
 10
-8.5150687145
 20
10.4266672935
 10
-8.5101684613
 20
10.4321973473
 10
-8.505477126
 20
10.4378972993
 10
-8.5010011841
 20
10.4437532234
 10
-8.4967471107
 20
10.4497511932
 10
-8.4927202408
 20
10.4558787943
 10
-8.4889213463
 20
10.4621296596
 10
-8.485350059
 20
10.4684989337
 10
-8.4820060103
 20
10.4749817614
 10
-8.4788888318
 20
10.4815732874
 10
-8.4759987979
 20
10.4882698099
 10
-8.4733387547
 20
10.4950722405
 10
-8.4709121908
 20
10.5019826446
 10
-8.4687225952
 20
10.5090030874
 10
-8.4667734567
 20
10.5161356341
 10
-8.4650693501
 20
10.5233795019
 10
-8.4636191948
 20
10.5307225161
 10
-8.4624329959
 20
10.5381496538
 10
-8.461520759
 20
10.5456458924
 10
-8.4608924892
 20
10.5531962089
 10
-8.4605918506
 20
10.5595143728
 10
-8.4604938404
 20
10.5658255372
 10
-8.4605969395
 20
10.5720955807
 10
-8.4608982216
 20
10.5782960798
 10
-8.4613891316
 20
10.5844214012
 10
-8.4620597071
 20
10.5904716092
 10
-8.4629013742
 20
10.5964488405
 10
-8.4639111116
 20
10.6023635207
 10
-8.4650872866
 20
10.6082281476
 10
-8.467158468
 20
10.6169456906
 10
-8.4695854717
 20
10.6255435951
 10
-8.4723525318
 20
10.6339884862
 10
-8.4754407722
 20
10.6422540449
 10
-8.4788330549
 20
10.6503200826
 10
-8.4825223057
 20
10.6581838782
 10
-8.4865026423
 20
10.6658446756
 10
-8.490762887
 20
10.6732921123
 10
-8.4952905381
 20
10.6805134238
 10
-8.5000730941
 20
10.6874958458
 10
-8.5040784698
 20
10.6929042416
 10
-8.5082577851
 20
10.6981632609
 10
-8.5126298417
 20
10.7032845854
 10
-8.5172134411
 20
10.7082798971
 10
-8.5220273848
 20
10.7131608778
  0
LWPOLYLINE
  5
2D9
100
AcDbEntity
  8
0
100
AcDbPolyline
 62
253
  6
CONTINUOUS
 90
16
 70
0
 10
-8.5220273848
 20
10.7131608778
 10
-8.6821052921
 20
10.8690897878
 10
-8.8437751304
 20
11.0231743719
 10
-9.0070449073
 20
11.1754290208
 10
-9.1719226304
 20
11.325868125
 10
-9.3384163075
 20
11.4745060752
 10
-9.5065265119
 20
11.6213498199
 10
-9.6762240803
 20
11.7663765386
 10
-9.8474724154
 20
11.9095559687
 10
-10.0202349198
 20
12.0508578476
 10
-10.1944749959
 20
12.1902519127
 10
-10.3701646939
 20
12.3277139082
 10
-10.5473106541
 20
12.4632436066
 10
-10.7259281643
 20
12.596846787
 10
-10.9060325124
 20
12.7285292285
 10
-11.087638986
 20
12.8582967106
  0
LWPOLYLINE
  5
2DA
100
AcDbEntity
  8
0
100
AcDbPolyline
 62
253
  6
CONTINUOUS
 90
16
 70
0
 10
-8.4978973854
 20
10.7376436556
 10
-8.6582451875
 20
10.8938353316
 10
-8.820187754
 20
11.0481790644
 10
-8.9837331043
 20
11.2006892766
 10
-9.1488892576
 20
11.3513803906
 10
-9.3156642329
 20
11.5002668289
 10
-9.4840586012
 20
11.6473555572
 10
-9.65404314
 20
11.7926237143
 10
-9.8255811782
 20
11.9360409824
 10
-9.9986360451
 20
12.0775770437
 10
-10.1731710697
 20
12.2172015803
 10
-10.3491582457
 20
12.3548902925
 10
-10.5266042253
 20
12.4906429535
 10
-10.7055243252
 20
12.6244653548
 10
-10.8859338623
 20
12.7563632878
 10
-11.0678481532
 20
12.8863425439
  0
LWPOLYLINE
  5
2DB
100
AcDbEntity
  8
0
100
AcDbPolyline
 62
253
  6
CONTINUOUS
 90
16
 70
0
 10
-11.0805691699
 20
-12.8811060622
 10
-10.8991270951
 20
-12.7514925024
 10
-10.7191596318
 20
-12.6199446451
 10
-10.5406518966
 20
-12.4864560563
 10
-10.363589006
 20
-12.3510203021
 10
-10.1879560762
 20
-12.2136309482
 10
-10.0137468963
 20
-12.0742875879
 10
-9.8409899452
 20
-11.9330139236
 10
-9.6697223743
 20
-11.7898396848
 10
-9.4999813349
 20
-11.6447946011
 10
-9.3318039785
 20
-11.4979084022
 10
-9.1652200212
 20
-11.3492033696
 10
-9.0002294387
 20
-11.1986719937
 10
-8.8368247711
 20
-11.0462993168
 10
-8.6749985587
 20
-10.8920703813
 10
-8.5147433419
 20
-10.7359702294
  0
LWPOLYLINE
  5
2DC
100
AcDbEntity
  8
0
100
AcDbPolyline
 62
253
  6
CONTINUOUS
 90
16
 70
0
 10
-11.0608136148
 20
-12.9091518955
 10
-10.8790156743
 20
-12.7792901475
 10
-10.6987019153
 20
-12.647495059
 10
-10.5198573418
 20
-12.5137603123
 10
-10.3424669573
 20
-12.3780795894
 10
-10.1665157656
 20
-12.2404465724
 10
-9.9919974574
 20
-12.1008609789
 10
-9.8189404715
 20
-11.9593466691
 10
-9.6473819335
 20
-11.8159335386
 10
-9.4773589694
 20
-11.670651483
 10
-9.3089087047
 20
-11.5235303979
 10
-9.1420608143
 20
-11.374592716
 10
-8.976815169
 20
-11.2238310181
 10
-8.8131641887
 20
-11.0712304221
 10
-8.6511002933
 20
-10.9167760459
 10
-8.4906159026
 20
-10.7604530072
  0
LWPOLYLINE
  5
2DD
100
AcDbEntity
  8
0
100
AcDbPolyline
 62
253
  6
CONTINUOUS
 90
31
 70
0
 10
-11.2783363871
 20
-12.4740357845
 10
-11.2802665738
 20
-12.4753472392
 10
-11.282209374
 20
-12.4766097843
 10
-11.2841648793
 20
-12.477823838
 10
-11.2861331809
 20
-12.4789898183
 10
-11.2881143704
 20
-12.4801081435
 10
-11.2901085392
 20
-12.4811792318
 10
-11.2921157788
 20
-12.4822035012
 10
-11.2941361805
 20
-12.4831813699
 10
-11.2961698358
 20
-12.4841132562
 10
-11.2982168362
 20
-12.4849995781
 10
-11.3002770792
 20
-12.4858406674
 10
-11.3023496865
 20
-12.4866365099
 10
-11.3044335861
 20
-12.487387005
 10
-11.3065277059
 20
-12.4880920522
 10
-11.3086309737
 20
-12.4887515509
 10
-11.3107423175
 20
-12.4893654004
 10
-11.3128606651
 20
-12.4899335002
 10
-11.3149849444
 20
-12.4904557497
 10
-11.3171140833
 20
-12.4909320483
 10
-11.3192470098
 20
-12.4913622953
 10
-11.3213828893
 20
-12.4917463906
 10
-11.3235218381
 20
-12.4920842344
 10
-11.3256642099
 20
-12.4923757276
 10
-11.3278103588
 20
-12.4926207708
 10
-11.3299606384
 20
-12.4928192648
 10
-11.3321154027
 20
-12.4929711103
 10
-11.3342750055
 20
-12.493076208
 10
-11.3364398007
 20
-12.4931344586
 10
-11.3386101421
 20
-12.4931457628
 10
-11.3407863836
 20
-12.4931100214
  0
LWPOLYLINE
  5
2DE
100
AcDbEntity
  8
0
100
AcDbPolyline
 62
253
  6
CONTINUOUS
 90
35
 70
0
 10
-11.087638986
 20
12.8582967106
 10
-11.0951135159
 20
12.8634331962
 10
-11.1026814099
 20
12.8683976673
 10
-11.110342173
 20
12.873193202
 10
-11.1180953098
 20
12.8778228783
 10
-11.1259403252
 20
12.8822897742
 10
-11.1338767239
 20
12.8865969679
 10
-11.1419033876
 20
12.890746844
 10
-11.1500167064
 20
12.8947390143
 10
-11.1582124472
 20
12.8985723973
 10
-11.1664863771
 20
12.9022459115
 10
-11.1748342631
 20
12.9057584752
 10
-11.183251872
 20
12.9091090071
 10
-11.1917350987
 20
12.9122964125
 10
-11.2002803485
 20
12.9153195454
 10
-11.2088841546
 20
12.9181772468
 10
-11.2175430502
 20
12.9208683574
 10
-11.2262535683
 20
12.9233917183
 10
-11.235012242
 20
12.9257461704
 10
-11.2438165025
 20
12.9279304151
 10
-11.252667372
 20
12.929942596
 10
-11.2615667712
 20
12.9317807169
 10
-11.2705128139
 20
12.9334426664
 10
-11.2794883897
 20
12.9349258711
 10
-11.2884725816
 20
12.936227642
 10
-11.2952096683
 20
12.937083284
 10
-11.3019662385
 20
12.9378342065
 10
-11.3087686947
 20
12.9384792589
 10
-11.3156434397
 20
12.9390172907
 10
-11.3202733821
 20
12.939315903
 10
-11.3249164921
 20
12.9395657884
 10
-11.3295420745
 20
12.9397662962
 10
-11.334119434
 20
12.9399167755
 10
-11.3386178755
 20
12.9400165756
 10
-11.3430067037
 20
12.9400650457
  0
LWPOLYLINE
  5
2DF
100
AcDbEntity
  8
0
100
AcDbPolyline
 62
253
  6
CONTINUOUS
 90
31
 70
0
 10
-11.0678481532
 20
12.8863425439
 10
-11.0757832527
 20
12.891808029
 10
-11.0838050312
 20
12.8970917152
 10
-11.0919192773
 20
12.9021999539
 10
-11.1001317794
 20
12.9071390963
 10
-11.1084483258
 20
12.9119154937
 10
-11.1168743399
 20
12.9165344206
 10
-11.1254137855
 20
12.9209968437
 10
-11.1340702612
 20
12.9253026531
 10
-11.1428473657
 20
12.9294517385
 10
-11.1517486976
 20
12.93344399
 10
-11.160775014
 20
12.9372781533
 10
-11.169915706
 20
12.9409483979
 10
-11.1791573228
 20
12.9444477488
 10
-11.1884864138
 20
12.9477692313
 10
-11.1978895283
 20
12.9509058707
 10
-11.2073529477
 20
12.9538514833
 10
-11.2168618807
 20
12.956603051
 10
-11.2264012682
 20
12.9591583465
 10
-11.2359560509
 20
12.9615151427
 10
-11.2455111696
 20
12.9636712126
 10
-11.2550545963
 20
12.9656250823
 10
-11.2645864286
 20
12.9673782906
 10
-11.2741097955
 20
12.9689331296
 10
-11.2836278257
 20
12.9702918914
 10
-11.2931436482
 20
12.971456868
 10
-11.3026612028
 20
12.9724297109
 10
-11.3121876733
 20
12.9732095092
 10
-11.3217310546
 20
12.9737947112
 10
-11.3312993413
 20
12.9741837653
 10
-11.3409005281
 20
12.97437512
  0
LWPOLYLINE
  5
2E0
100
AcDbEntity
  8
0
100
AcDbPolyline
 62
253
  6
CONTINUOUS
 90
16
 70
0
 10
-11.2856178698
 20
12.4512264329
 10
-11.112483585
 20
12.3265949856
 10
-10.9407367812
 20
12.2001663852
 10
-10.7703638537
 20
12.0719347282
 10
-10.6013511981
 20
11.9418941111
 10
-10.4336852098
 20
11.8100386301
 10
-10.2673601891
 20
11.6763679265
 10
-10.1024020562
 20
11.5409038191
 10
-9.9388446362
 20
11.4036736716
 10
-9.776721754
 20
11.2647048476
 10
-9.6160672349
 20
11.1240247106
 10
-9.4569080956
 20
10.981653817
 10
-9.2992441201
 20
10.8375854943
 10
-9.1430682839
 20
10.691806263
 10
-8.9883735628
 20
10.5443026433
 10
-8.8351529324
 20
10.3950611557
  0
LWPOLYLINE
  5
2E1
100
AcDbEntity
  8
0
100
AcDbPolyline
 62
253
  6
CONTINUOUS
 90
16
 70
0
 10
-11.2657212037
 20
12.4791664329
 10
-11.0923504136
 20
12.3543806576
 10
-10.9203596857
 20
12.2277878792
 10
-10.7497355084
 20
12.0993820093
 10
-10.5804643698
 20
11.9691569598
 10
-10.4125327583
 20
11.8371066424
 10
-10.2459350837
 20
11.7032305261
 10
-10.0806974435
 20
11.5675503078
 10
-9.9168538566
 20
11.4300932418
 10
-9.754438342
 20
11.2908865821
 10
-9.5934849187
 20
11.149957583
 10
-9.4340207884
 20
11.0073266812
 10
-9.2760458827
 20
10.8629870436
 10
-9.1195533158
 20
10.7169250197
 10
-8.9645362019
 20
10.5691269591
 10
-8.8109876552
 20
10.4195792112
  0
LINE
  5
2E2
100
AcDbEntity
  8
0
100
AcDbLine
 62
253
  6
CONTINUOUS
 10
-11.2589336098
 20
-12.5023285623
 11
-11.2853213869
 21
-12.5167571734
  0
LWPOLYLINE
  5
2E3
100
AcDbEntity
  8
0
100
AcDbPolyline
 62
253
  6
CONTINUOUS
 90
25
 70
0
 10
-11.2853213869
 20
-12.5167571734
 10
-11.2874367813
 20
-12.5176350026
 10
-11.2895701727
 20
-12.5184764379
 10
-11.2917226669
 20
-12.5192815252
 10
-11.2938953692
 20
-12.5200503106
 10
-11.2960893852
 20
-12.52078284
 10
-11.2983058205
 20
-12.5214791595
 10
-11.3005457805
 20
-12.522139315
 10
-11.3028103708
 20
-12.5227633526
 10
-11.3051000039
 20
-12.5233511844
 10
-11.3074123203
 20
-12.5239021872
 10
-11.3097442678
 20
-12.5244156038
 10
-11.3120927938
 20
-12.5248906772
 10
-11.314454846
 20
-12.5253266503
 10
-11.3168273719
 20
-12.5257227659
 10
-11.3192073191
 20
-12.526078267
 10
-11.3215916353
 20
-12.5263923965
 10
-11.3239779456
 20
-12.5266645241
 10
-11.3263665855
 20
-12.526894527
 10
-11.3287585684
 20
-12.5270824093
 10
-11.3311549074
 20
-12.5272281749
 10
-11.3335566158
 20
-12.527331828
 10
-11.3359647066
 20
-12.5273933726
 10
-11.3383801931
 20
-12.5274128127
 10
-11.3408040886
 20
-12.5273901524
  0
LINE
  5
2E4
100
AcDbEntity
  8
ASSI
100
AcDbLine
 62
253
  6
CONTINUOUS
 10
21.6835929398
 20
-0.2114046758
 11
21.541942472
 21
-0.258611909
  0
LINE
  5
2E5
100
AcDbEntity
  8
ASSI
100
AcDbLine
 62
253
  6
CONTINUOUS
 10
22.1836500799
 20
-0.7113094936
 11
22.0417711347
 21
-0.7585928704
  0
LINE
  5
2E6
100
AcDbEntity
  8
ASSI
100
AcDbLine
 62
253
  6
CONTINUOUS
 10
21.541942472
 20
0.2358025573
 11
21.6835929398
 21
0.1885953242
  0
LINE
  5
2E7
100
AcDbEntity
  8
ASSI
100
AcDbLine
 62
253
  6
CONTINUOUS
 10
22.0417711347
 20
0.7357835188
 11
22.1836500799
 21
0.688500142
  0
LINE
  5
2E8
100
AcDbEntity
  8
ASSI
100
AcDbLine
 62
253
  6
CONTINUOUS
 10
21.5711173565
 20
22.0129848947
 11
21.6632957501
 21
22.1974681826
  0
LINE
  5
2E9
100
AcDbEntity
  8
ASSI
100
AcDbLine
 62
253
  6
CONTINUOUS
 10
22.070946019
 20
21.5136701273
 11
22.1639221718
 21
21.6997500283
  0
LINE
  5
2EA
100
AcDbEntity
  8
ASSI
100
AcDbLine
 62
253
  6
CONTINUOUS
 10
21.6632957501
 20
-22.2202775343
 11
21.5711173538
 21
-22.035794241
  0
LINE
  5
2EB
100
AcDbEntity
  8
ASSI
100
AcDbLine
 62
253
  6
CONTINUOUS
 10
22.1639221718
 20
-21.72255938
 11
22.0709460163
 21
-21.5364794736
  0
LINE
  5
2EC
100
AcDbEntity
  8
ASSI
100
AcDbLine
 62
253
  6
CONTINUOUS
 10
11.1565509796
 20
-0.2624880607
 11
11.1582413527
 21
-22.0173186038
  0
LINE
  5
2ED
100
AcDbEntity
  8
ASSI
100
AcDbLine
 62
253
  6
CONTINUOUS
 10
11.1565509796
 20
0.239678709
 11
11.1582413527
 21
21.9945092522
  0
LWPOLYLINE
  5
2EE
100
AcDbEntity
  8
0
100
AcDbPolyline
 62
253
  6
CONTINUOUS
 90
31
 70
0
 10
-11.340876908
 20
12.5045378317
 10
-11.3382046432
 20
12.504429846
 10
-11.3355431104
 20
12.5042710059
 10
-11.3328918051
 20
12.5040610858
 10
-11.3302502225
 20
12.5037998603
 10
-11.3276178582
 20
12.5034871039
 10
-11.3249942074
 20
12.5031225909
 10
-11.3223787657
 20
12.502706096
 10
-11.3197710284
 20
12.5022373934
 10
-11.3171704909
 20
12.5017162578
 10
-11.3145766486
 20
12.5011424637
 10
-11.3119893338
 20
12.500515921
 10
-11.3094097261
 20
12.4998370828
 10
-11.306839342
 20
12.4991065376
 10
-11.304279698
 20
12.4983248739
 10
-11.3017323107
 20
12.4974926802
 10
-11.2991986965
 20
12.4966105452
 10
-11.2966803719
 20
12.4956790574
 10
-11.2941788534
 20
12.4946988052
 10
-11.2916956576
 20
12.4936703774
 10
-11.2892323009
 20
12.4925943623
 10
-11.2867899975
 20
12.4914711687
 10
-11.2843687524
 20
12.4903004852
 10
-11.2819682681
 20
12.4890818205
 10
-11.2795882474
 20
12.4878146835
 10
-11.2772283928
 20
12.486498583
 10
-11.274888407
 20
12.4851330276
 10
-11.2725679925
 20
12.4837175261
 10
-11.2702668521
 20
12.4822515873
 10
-11.2679846883
 20
12.48073472
 10
-11.2657212037
 20
12.4791664329
  0
LWPOLYLINE
  5
2EF
100
AcDbEntity
  8
0
100
AcDbPolyline
 62
253
  6
CONTINUOUS
 90
31
 70
0
 10
-11.3408934445
 20
12.4702373987
 10
-11.338940449
 20
12.4701313757
 10
-11.3369958541
 20
12.4699882901
 10
-11.3350581476
 20
12.4698082377
 10
-11.3331258173
 20
12.4695913148
 10
-11.3311973508
 20
12.4693376172
 10
-11.3292715055
 20
12.4690471825
 10
-11.3273481164
 20
12.4687198136
 10
-11.3254272881
 20
12.4683552547
 10
-11.3235091253
 20
12.4679532502
 10
-11.3215937324
 20
12.4675135445
 10
-11.3196814446
 20
12.4670359574
 10
-11.3177735187
 20
12.4665206113
 10
-11.3158714421
 20
12.4659677045
 10
-11.313976702
 20
12.4653774348
 10
-11.3120907859
 20
12.4647500003
 10
-11.310215209
 20
12.4640857346
 10
-11.308351599
 20
12.4633855127
 10
-11.3065016115
 20
12.4626503452
 10
-11.3046669022
 20
12.4618812427
 10
-11.3028491267
 20
12.4610792157
 10
-11.3010495916
 20
12.4602450307
 10
-11.299268207
 20
12.4593784784
 10
-11.297504534
 20
12.4584791054
 10
-11.2957581334
 20
12.4575464584
 10
-11.2940285664
 20
12.4565800839
 10
-11.292315394
 20
12.4555795287
 10
-11.2906181771
 20
12.4545443394
 10
-11.2889364768
 20
12.4534740625
 10
-11.287269854
 20
12.4523682448
 10
-11.2856178698
 20
12.4512264329
  0
LWPOLYLINE
  5
2F0
100
AcDbEntity
  8
0
100
AcDbPolyline
 62
253
  6
CONTINUOUS
 90
31
 70
0
 10
-11.3409005056
 20
12.9743751197
 10
-11.3507883423
 20
12.9743634275
 10
-11.3606429564
 20
12.9741401637
 10
-11.3704730643
 20
12.9737072467
 10
-11.3802873823
 20
12.9730665945
 10
-11.3900946268
 20
12.9722201254
 10
-11.3999025575
 20
12.971169067
 10
-11.4097151082
 20
12.9699118846
 10
-11.4195352565
 20
12.9684463532
 10
-11.4293659796
 20
12.9667702474
 10
-11.439210255
 20
12.9648813421
 10
-11.449067964
 20
12.9627781444
 10
-11.4589266038
 20
12.9604620908
 10
-11.4687705756
 20
12.9579353502
 10
-11.4785842804
 20
12.9552000914
 10
-11.4883521195
 20
12.9522584832
 10
-11.4980587648
 20
12.9491135209
 10
-11.5076899712
 20
12.9457715057
 10
-11.5172317646
 20
12.9422395651
 10
-11.5266701708
 20
12.9385248268
 10
-11.5359912155
 20
12.9346344184
 10
-11.545183816
 20
12.9305743277
 10
-11.5542484552
 20
12.9263459843
 10
-11.5631885075
 20
12.9219496778
 10
-11.5720073474
 20
12.917385698
 10
-11.5807083493
 20
12.9126543347
 10
-11.5892953882
 20
12.9077546426
 10
-11.5977743417
 20
12.9026807371
 10
-11.6061515881
 20
12.8974254986
 10
-11.6144335056
 20
12.8919818074
 10
-11.6226264724
 20
12.8863425439
  0
LWPOLYLINE
  5
2F1
100
AcDbEntity
  8
0
100
AcDbPolyline
 62
253
  6
CONTINUOUS
 90
36
 70
0
 10
-11.3432889349
 20
12.9400662668
 10
-11.3484813397
 20
12.9400608213
 10
-11.3535088903
 20
12.9399949548
 10
-11.3584101063
 20
12.9398699994
 10
-11.3632235075
 20
12.9396872876
 10
-11.3679876136
 20
12.9394481514
 10
-11.3727409445
 20
12.9391539233
 10
-11.379906736
 20
12.9386120931
 10
-11.3870953783
 20
12.937953172
 10
-11.3942672974
 20
12.937181028
 10
-11.401382919
 20
12.9362995297
 10
-11.4084116667
 20
12.9353122243
 10
-11.4153589547
 20
12.9342213743
 10
-11.4222391951
 20
12.9330289213
 10
-11.4290667998
 20
12.9317368068
 10
-11.4381074663
 20
12.9298618914
 10
-11.4470793122
 20
12.9278153179
 10
-11.4559814701
 20
12.9255991524
 10
-11.4648130117
 20
12.9232154369
 10
-11.4735727645
 20
12.9206661158
 10
-11.4822594949
 20
12.9179531095
 10
-11.4908719694
 20
12.9150783379
 10
-11.4994089544
 20
12.9120437214
 10
-11.5078692164
 20
12.90885118
 10
-11.516251465
 20
12.9055023289
 10
-11.5245541828
 20
12.9019975631
 10
-11.5327757953
 20
12.8983369725
 10
-11.5409147281
 20
12.8945206471
 10
-11.5489694071
 20
12.8905486768
 10
-11.5569382577
 20
12.8864211517
 10
-11.5648197526
 20
12.8821377094
 10
-11.5726125514
 20
12.8776961789
 10
-11.5803153606
 20
12.873093937
 10
-11.587926887
 20
12.8683283605
 10
-11.5954458371
 20
12.8633968261
 10
-11.6028709173
 20
12.8582967106
  0
LWPOLYLINE
  5
2F2
100
AcDbEntity
  8
ASSI
100
AcDbPolyline
 62
253
  6
CONTINUOUS
 90
10
 70
0
 10
22.0709460163
 20
-21.5364794736
 10
22.0696522493
 20
-21.5321269552
 10
22.0683802865
 20
-21.524433166
 10
22.0671301278
 20
-21.5133981059
 10
22.0658952237
 20
-21.4989328629
 10
22.0646821237
 20
-21.4811263489
 10
22.0635104768
 20
-21.4602453007
 10
22.0623814696
 20
-21.4362449711
 10
22.0612939155
 20
-21.4091701072
 10
22.0602639031
 20
-21.3794216865
  0
LINE
  5
2F3
100
AcDbEntity
  8
ASSI
100
AcDbLine
 62
7
  6
CONTINUOUS
 10
18.9642015866
 20
22.1974681826
 11
18.6160149833
 21
22.1658622622
  0
LWPOLYLINE
  5
2F4
100
AcDbEntity
  8
ASSI
100
AcDbPolyline
 62
253
  6
CONTINUOUS
 90
14
 70
0
 10
-21.867621814
 20
20.8650531452
 10
-21.9144592497
 20
20.8643471054
 10
-21.9595773202
 20
20.8634478454
 10
-22.0025385632
 20
20.8623640843
 10
-22.0429264291
 20
20.8611063301
 10
-22.0803493192
 20
20.8596867781
 10
-22.1144443836
 20
20.858119192
 10
-22.1448810383
 20
20.8564187711
 10
-22.1713641714
 20
20.8546020026
 10
-22.1936370038
 20
20.8526865017
 10
-22.2114835795
 20
20.850690841
 10
-22.2247308592
 20
20.8486343704
 10
-22.2332503978
 20
20.8465370293
 10
-22.2369595906
 20
20.8444191533
  0
LINE
  5
2F5
100
AcDbEntity
  8
ASSI
100
AcDbLine
 62
253
  6
CONTINUOUS
 10
-21.7706176468
 20
20.8658601208
 11
-21.867621814
 21
20.8650531452
  0
LINE
  5
2F6
100
AcDbEntity
  8
ASSI
100
AcDbLine
 62
253
  6
CONTINUOUS
 10
21.5871775541
 20
20.8658601155
 11
16.0907786448
 21
20.8603315214
  0
LINE
  5
2F7
100
AcDbEntity
  8
ASSI
100
AcDbLine
 62
253
  6
CONTINUOUS
 10
16.0907786448
 20
20.8603315214
 11
-11.3416725211
 21
20.858762946
  0
LINE
  5
2F8
100
AcDbEntity
  8
ASSI
100
AcDbLine
 62
253
  6
CONTINUOUS
 10
-11.341672521
 20
20.8587613574
 11
-17.4173359959
 21
20.8611630032
  0
LINE
  5
2F9
100
AcDbEntity
  8
ASSI
100
AcDbLine
 62
253
  6
CONTINUOUS
 10
-17.4173359959
 20
20.8611630032
 11
-21.7706176469
 21
20.8658601112
  0
LWPOLYLINE
  5
2FA
100
AcDbEntity
  8
ASSI
100
AcDbPolyline
 62
253
  6
CONTINUOUS
 90
15
 70
0
 10
21.5871766643
 20
20.8658595776
 10
21.6841799221
 20
20.8650526281
 10
21.7310169636
 20
20.8643466103
 10
21.7761346975
 20
20.8634473778
 10
21.8190956736
 20
20.8623636492
 10
21.859483353
 20
20.8611059318
 10
21.8969061467
 20
20.8596864202
 10
21.9310012128
 20
20.8581188775
 10
21.9614379741
 20
20.8564185023
 10
21.9879213233
 20
20.854601781
 10
22.0101944845
 20
20.852686328
 10
22.0280415026
 20
20.8506907152
 10
22.0412893375
 20
20.8486342913
 10
22.0498095414
 20
20.8465369952
 10
22.0535195047
 20
20.8444191615
  0
LINE
  5
2FB
100
AcDbEntity
  8
ASSI
100
AcDbLine
 62
7
  6
CONTINUOUS
 10
-19.1476416738
 20
22.1974681826
 11
-18.7994550706
 21
22.1658622622
  0
LWPOLYLINE
  5
2FC
100
AcDbEntity
  8
ASSI
100
AcDbPolyline
 62
253
  6
CONTINUOUS
 90
8
 70
0
 10
21.5705522396
 20
-0.3889040303
 10
21.5669142502
 20
-0.3558048692
 10
21.5629845211
 20
-0.3271619311
 10
21.5593359957
 20
-0.3032391155
 10
21.5550648199
 20
-0.2841994143
 10
21.5501733058
 20
-0.2703002498
 10
21.5456366505
 20
-0.2617540297
 10
21.5419424721
 20
-0.2586119089
  0
LWPOLYLINE
  5
2FD
100
AcDbEntity
  8
ASSI
100
AcDbPolyline
 62
253
  6
CONTINUOUS
 90
16
 70
0
 10
22.0417711347
 20
-0.7585928704
 10
22.0390856022
 20
-0.7069469789
 10
22.0310454436
 20
-0.6556830198
 10
22.0176838454
 20
-0.6053615257
 10
21.9990699341
 20
-0.5564892836
 10
21.9753683157
 20
-0.5096768282
 10
21.9468927268
 20
-0.4656046745
 10
21.9139978939
 20
-0.4248046135
 10
21.8770140643
 20
-0.3876713684
 10
21.8363368165
 20
-0.3546055496
 10
21.7924027093
 20
-0.325969618
 10
21.7456994855
 20
-0.3020885134
 10
21.6967527645
 20
-0.2832335363
 10
21.646106055
 20
-0.2696133006
 10
21.5943125738
 20
-0.2613758529
 10
21.5419424722
 20
-0.2586119089
  0
LWPOLYLINE
  5
2FE
100
AcDbEntity
  8
ASSI
100
AcDbPolyline
 62
253
  6
CONTINUOUS
 90
4
 70
0
 10
21.5808549158
 20
-0.55716488
 10
21.5790546718
 20
-0.5104531736
 10
21.5763413245
 20
-0.4664822747
 10
21.5705522396
 20
-0.3889040303
  0
LWPOLYLINE
  5
2FF
100
AcDbEntity
  8
ASSI
100
AcDbPolyline
 62
253
  6
CONTINUOUS
 90
6
 70
0
 10
21.5764745616
 20
21.9179891201
 10
21.5754425022
 20
21.9484066833
 10
21.5743698107
 20
21.9732264036
 10
21.5732624235
 20
21.9923232348
 10
21.5721689794
 20
22.0055989412
 10
21.5711173565
 20
22.0129848947
  0
LINE
  5
300
100
AcDbEntity
  8
ASSI
100
AcDbLine
 62
253
  6
CONTINUOUS
 10
22.0602639031
 20
-21.3794216865
 11
22.0583782155
 21
-21.3118208786
  0
LINE
  5
301
100
AcDbEntity
  8
ASSI
100
AcDbLine
 62
253
  6
CONTINUOUS
 10
21.5785038486
 20
21.8409841285
 11
21.5764745616
 21
21.9179891201
  0
LINE
  5
302
100
AcDbEntity
  8
ASSI
100
AcDbLine
 62
253
  6
CONTINUOUS
 10
22.0583782155
 20
-21.3118208786
 11
22.0567643937
 21
-21.2350739278
  0
LINE
  5
303
100
AcDbEntity
  8
ASSI
100
AcDbLine
 62
253
  6
CONTINUOUS
 10
21.5803775328
 20
21.7437387844
 11
21.5785038486
 21
21.8409841285
  0
LINE
  5
304
100
AcDbEntity
  8
ASSI
100
AcDbLine
 62
253
  6
CONTINUOUS
 10
22.0567643937
 20
-21.2350739278
 11
22.0554460791
 21
-21.1503217099
  0
LINE
  5
305
100
AcDbEntity
  8
ASSI
100
AcDbLine
 62
253
  6
CONTINUOUS
 10
21.5828768175
 20
21.5642669388
 11
21.5803775328
 21
21.7437387844
  0
LINE
  5
306
100
AcDbEntity
  8
ASSI
100
AcDbLine
 62
253
  6
CONTINUOUS
 10
22.0554460791
 20
-21.1503217099
 11
22.0540875993
 21
-21.0123132294
  0
LINE
  5
307
100
AcDbEntity
  8
ASSI
100
AcDbLine
 62
253
  6
CONTINUOUS
 10
21.5854500655
 20
21.2750789799
 11
21.5828768175
 21
21.5642669388
  0
LWPOLYLINE
  5
308
100
AcDbEntity
  8
ASSI
100
AcDbPolyline
 62
253
  6
CONTINUOUS
 90
3
 70
0
 10
21.5845942412
 20
0.7365504236
 10
21.5848192267
 20
0.6835618152
 10
21.5839668899
 20
0.6323112905
  0
LINE
  5
309
100
AcDbEntity
  8
ASSI
100
AcDbLine
 62
253
  6
CONTINUOUS
 10
21.5871775209
 20
20.86586011
 11
21.5854500655
 21
21.2750789799
  0
LINE
  5
30A
100
AcDbEntity
  8
ASSI
100
AcDbLine
 62
7
  6
CONTINUOUS
 10
22.1639221718
 20
21.6997500283
 11
22.1836500799
 21
13.0885953242
  0
LINE
  5
30B
100
AcDbEntity
  8
ASSI
100
AcDbLine
 62
253
  6
CONTINUOUS
 10
22.0540875993
 20
-21.0123132294
 11
22.0535195033
 21
-20.8672285049
  0
LINE
  5
30C
100
AcDbEntity
  8
ASSI
100
AcDbLine
 62
253
  6
CONTINUOUS
 10
22.0535195033
 20
-20.8672285049
 11
22.0459211656
 21
-12.4289213162
  0
LINE
  5
30D
100
AcDbEntity
  8
ASSI
100
AcDbLine
 62
253
  6
CONTINUOUS
 10
22.0459211656
 20
-12.4289213162
 11
22.0422439262
 21
-4.2161097764
  0
LINE
  5
30E
100
AcDbEntity
  8
ASSI
100
AcDbLine
 62
253
  6
CONTINUOUS
 10
22.0422439262
 20
-4.2161097764
 11
22.0417711347
 21
-0.7585928704
  0
LINE
  5
30F
100
AcDbEntity
  8
ASSI
100
AcDbLine
 62
7
  6
CONTINUOUS
 10
22.1836500799
 20
13.0885953242
 11
22.1836500799
 21
0.688500142
  0
LINE
  5
310
100
AcDbEntity
  8
ASSI
100
AcDbLine
 62
7
  6
CONTINUOUS
 10
22.1836500799
 20
-13.1114046758
 11
22.1836500799
 21
-0.7113094936
  0
LINE
  5
311
100
AcDbEntity
  8
ASSI
100
AcDbLine
 62
253
  6
CONTINUOUS
 10
21.5845942012
 20
0.736550418
 11
21.5871775541
 21
20.8658601155
  0
LINE
  5
312
100
AcDbEntity
  8
ASSI
100
AcDbLine
 62
253
  6
CONTINUOUS
 10
22.0417711347
 20
0.7357835188
 11
22.0452081366
 21
11.3201867263
  0
LINE
  5
313
100
AcDbEntity
  8
ASSI
100
AcDbLine
 62
7
  6
CONTINUOUS
 10
22.1639221718
 20
-21.72255938
 11
22.1836500799
 21
-13.1114046758
  0
LINE
  5
314
100
AcDbEntity
  8
ASSI
100
AcDbLine
 62
253
  6
CONTINUOUS
 10
21.5867041378
 20
-21.056011828
 11
21.5845942011
 21
-0.7593597584
  0
LINE
  5
315
100
AcDbEntity
  8
ASSI
100
AcDbLine
 62
253
  6
CONTINUOUS
 10
22.0452081366
 20
11.3201867263
 11
22.053810416
 21
20.9419285589
  0
LWPOLYLINE
  5
316
100
AcDbEntity
  8
ASSI
100
AcDbPolyline
 62
253
  6
CONTINUOUS
 90
4
 70
0
 10
21.5845942412
 20
-0.7593597526
 10
21.5848190974
 20
-0.706373145
 10
21.5839668417
 20
-0.6551242972
 10
21.5808549158
 20
-0.55716488
  0
LINE
  5
317
100
AcDbEntity
  8
ASSI
100
AcDbLine
 62
253
  6
CONTINUOUS
 10
21.5842789359
 20
-21.4484791658
 11
21.5867041378
 21
-21.056011828
  0
LINE
  5
318
100
AcDbEntity
  8
ASSI
100
AcDbLine
 62
253
  6
CONTINUOUS
 10
22.053810416
 20
20.9419285589
 11
22.0549098599
 21
21.0827934082
  0
LINE
  5
319
100
AcDbEntity
  8
ASSI
100
AcDbLine
 62
253
  6
CONTINUOUS
 10
21.5820889231
 20
-21.6510062858
 11
21.5842789359
 21
-21.4484791658
  0
LINE
  5
31A
100
AcDbEntity
  8
ASSI
100
AcDbLine
 62
253
  6
CONTINUOUS
 10
22.0549098599
 20
21.0827934082
 11
22.0560646477
 21
21.1706548142
  0
LINE
  5
31B
100
AcDbEntity
  8
ASSI
100
AcDbLine
 62
253
  6
CONTINUOUS
 10
21.5803775513
 20
-21.7665481295
 11
21.5820889231
 21
-21.6510062858
  0
LINE
  5
31C
100
AcDbEntity
  8
ASSI
100
AcDbLine
 62
253
  6
CONTINUOUS
 10
22.0560646477
 20
21.1706548142
 11
22.0575352088
 21
21.251726715
  0
LINE
  5
31D
100
AcDbEntity
  8
ASSI
100
AcDbLine
 62
253
  6
CONTINUOUS
 10
21.5785038634
 20
-21.8637934746
 11
21.5803775513
 21
-21.7665481295
  0
LWPOLYLINE
  5
31E
100
AcDbEntity
  8
ASSI
100
AcDbPolyline
 62
253
  6
CONTINUOUS
 90
12
 70
0
 10
22.0575352088
 20
21.251726715
 10
22.0592922912
 20
21.3241487156
 10
22.0602639059
 20
21.356612341
 10
22.0612939182
 20
21.3863607616
 10
22.0623814724
 20
21.4134356254
 10
22.0635104795
 20
21.4374359548
 10
22.0646821264
 20
21.458317003
 10
22.0658952264
 20
21.476123517
 10
22.0671301305
 20
21.49058876
 10
22.0683802892
 20
21.50162382
 10
22.069652252
 20
21.5093176091
 10
22.070946019
 20
21.5136701273
  0
LWPOLYLINE
  5
31F
100
AcDbEntity
  8
ASSI
100
AcDbPolyline
 62
253
  6
CONTINUOUS
 90
4
 70
0
 10
21.5839668899
 20
0.6323112905
 10
21.5808546656
 20
0.5343495318
 10
21.5790543827
 20
0.4876371655
 10
21.5763408979
 20
0.4436660485
  0
LWPOLYLINE
  5
320
100
AcDbEntity
  8
ASSI
100
AcDbPolyline
 62
253
  6
CONTINUOUS
 90
16
 70
0
 10
22.0417711347
 20
0.7357835188
 10
22.0390855973
 20
0.6841375794
 10
22.031045426
 20
0.6328735846
 10
22.0176838112
 20
0.5825520677
 10
21.9990698833
 20
0.5336798169
 10
21.9753682515
 20
0.4868673647
 10
21.9468926532
 20
0.4427952211
 10
21.9139978178
 20
0.4019951769
 10
21.8770139933
 20
0.3648619526
 10
21.8363367527
 20
0.3317961515
 10
21.792402651
 20
0.3031602326
 10
21.7456994332
 20
0.2792791384
 10
21.696752721
 20
0.2604241705
 10
21.6461060238
 20
0.2468039424
 10
21.5943125572
 20
0.2385664995
 10
21.5419424722
 20
0.2358025573
  0
LWPOLYLINE
  5
321
100
AcDbEntity
  8
ASSI
100
AcDbPolyline
 62
253
  6
CONTINUOUS
 90
9
 70
0
 10
21.5763408979
 20
0.4436660485
 10
21.5705516645
 20
0.3660887393
 10
21.566913666
 20
0.332990505
 10
21.5629839149
 20
0.3043486817
 10
21.5593354519
 20
0.2804270451
 10
21.5550643965
 20
0.2613884121
 10
21.5501730291
 20
0.247490103
 10
21.5456365283
 20
0.2389444589
 10
21.5419424721
 20
0.2358025573
  0
LINE
  5
322
100
AcDbEntity
  8
ASSI
100
AcDbLine
 62
7
  6
CONTINUOUS
 10
7.7642015866
 20
22.1974681826
 11
7.4160149833
 21
22.1658622622
  0
LINE
  5
323
100
AcDbEntity
  8
ASSI
100
AcDbLine
 62
7
  6
CONTINUOUS
 10
-3.5357984134
 20
22.1974681826
 11
-3.8839850167
 21
22.1658622622
  0
LINE
  5
324
100
AcDbEntity
  8
ASSI
100
AcDbLine
 62
7
  6
CONTINUOUS
 10
-14.7357984134
 20
22.1974681826
 11
-15.0839850167
 21
22.1658622622
  0
LWPOLYLINE
  5
325
100
AcDbEntity
  8
ASSI
100
AcDbPolyline
 62
253
  6
CONTINUOUS
 90
16
 70
0
 10
-21.7545574411
 20
22.0129848893
 10
-21.8067590675
 20
22.0101828441
 10
-21.8583896791
 20
22.0019502547
 10
-21.9088845758
 20
21.9883771844
 10
-21.9576914976
 20
21.9696121
 10
-22.0042766191
 20
21.945860264
 10
-22.0481303958
 20
21.9173815038
 10
-22.0887732002
 20
21.8844873352
 10
-22.1257605448
 20
21.8475375508
 10
-22.1586879084
 20
21.8069363157
 10
-22.187195188
 20
21.7631277243
 10
-22.2109706403
 20
21.7165909274
 10
-22.2297542746
 20
21.6678349024
 10
-22.2433406912
 20
21.6173928994
 10
-22.2515813308
 20
21.5658166102
 10
-22.2543861036
 20
21.513670122
  0
LINE
  5
326
100
AcDbEntity
  8
ASSI
100
AcDbLine
 62
253
  6
CONTINUOUS
 10
21.5711173565
 20
22.0129848947
 11
18.3168679364
 21
22.0032385066
  0
LINE
  5
327
100
AcDbEntity
  8
ASSI
100
AcDbLine
 62
253
  6
CONTINUOUS
 10
18.3168679364
 20
22.0032385066
 11
14.9172530629
 21
21.9969159492
  0
LINE
  5
328
100
AcDbEntity
  8
ASSI
100
AcDbLine
 62
253
  6
CONTINUOUS
 10
14.9172530629
 20
21.9969159492
 11
11.1582413527
 21
21.9945092522
  0
LINE
  5
329
100
AcDbEntity
  8
ASSI
100
AcDbLine
 62
7
  6
CONTINUOUS
 10
3.8737500102
 20
22.1606214843
 11
7.2428099025
 21
22.1606214843
  0
LINE
  5
32A
100
AcDbEntity
  8
ASSI
100
AcDbLine
 62
7
  6
CONTINUOUS
 10
-4.0571900975
 20
22.1606214843
 11
-7.4262499898
 21
22.1606214843
  0
LINE
  5
32B
100
AcDbEntity
  8
ASSI
100
AcDbLine
 62
7
  6
CONTINUOUS
 10
15.0737500102
 20
22.1606214843
 11
18.4428099025
 21
22.1606214843
  0
LINE
  5
32C
100
AcDbEntity
  8
ASSI
100
AcDbLine
 62
7
  6
CONTINUOUS
 10
-15.2571900975
 20
22.1606214843
 11
-18.6262499898
 21
22.1606214843
  0
LINE
  5
32D
100
AcDbEntity
  8
ASSI
100
AcDbLine
 62
7
  6
CONTINUOUS
 10
21.6632957501
 20
22.1974681826
 11
18.9642015866
 21
22.1974681826
  0
LINE
  5
32E
100
AcDbEntity
  8
ASSI
100
AcDbLine
 62
7
  6
CONTINUOUS
 10
14.5523583262
 20
22.1974681826
 11
7.7642015866
 21
22.1974681826
  0
LINE
  5
32F
100
AcDbEntity
  8
ASSI
100
AcDbLine
 62
7
  6
CONTINUOUS
 10
3.3523583262
 20
22.1974681826
 11
-3.5357984134
 21
22.1974681826
  0
LINE
  5
330
100
AcDbEntity
  8
ASSI
100
AcDbLine
 62
7
  6
CONTINUOUS
 10
-7.9476416738
 20
22.1974681826
 11
-14.7357984134
 21
22.1974681826
  0
LINE
  5
331
100
AcDbEntity
  8
ASSI
100
AcDbLine
 62
7
  6
CONTINUOUS
 10
-19.1476416738
 20
22.1974681826
 11
-21.8467358374
 21
22.1974681826
  0
LINE
  5
332
100
AcDbEntity
  8
ASSI
100
AcDbLine
 62
253
  6
CONTINUOUS
 10
11.1582413527
 20
21.9945092522
 11
-14.0128772586
 21
21.9957246123
  0
LINE
  5
333
100
AcDbEntity
  8
ASSI
100
AcDbLine
 62
253
  6
CONTINUOUS
 10
-14.0128772586
 20
21.9957246123
 11
-17.4039880691
 21
22.0007619526
  0
LWPOLYLINE
  5
334
100
AcDbEntity
  8
ASSI
100
AcDbPolyline
 62
253
  6
CONTINUOUS
 90
3
 70
0
 10
-17.4039880691
 20
22.0007619526
 10
-20.8566757197
 20
22.0099538856
 10
-21.7545574411
 20
22.0129848894
  0
LWPOLYLINE
  5
335
100
AcDbEntity
  8
ASSI
100
AcDbPolyline
 62
253
  6
CONTINUOUS
 90
16
 70
0
 10
21.5711173565
 20
22.0129848947
 10
21.6233183265
 20
22.0101829195
 10
21.6749483681
 20
22.0019505224
 10
21.725442797
 20
21.9883777422
 10
21.7742493494
 20
21.969613026
 10
21.8208342221
 20
21.9458616059
 10
21.8646879105
 20
21.9173832541
 10
21.9053307814
 20
21.8844894419
 10
21.9423183188
 20
21.847539933
 10
21.9752459852
 20
21.8069388487
 10
22.0037536469
 20
21.7631302481
 10
22.0275295119
 20
21.7165932713
 10
22.0463135407
 20
21.667836899
 10
22.05990029
 20
21.6173943856
 10
22.0681411599
 20
21.5658174272
 10
22.070946019
 20
21.5136701273
  0
LINE
  5
336
100
AcDbEntity
  8
ASSI
100
AcDbLine
 62
7
  6
CONTINUOUS
 10
-7.9476416738
 20
22.1974681826
 11
-7.5994550706
 21
22.1658622622
  0
LINE
  5
337
100
AcDbEntity
  8
ASSI
100
AcDbLine
 62
7
  6
CONTINUOUS
 10
3.3523583262
 20
22.1974681826
 11
3.7005449294
 21
22.1658622622
  0
LINE
  5
338
100
AcDbEntity
  8
ASSI
100
AcDbLine
 62
7
  6
CONTINUOUS
 10
14.5523583262
 20
22.1974681826
 11
14.9005449294
 21
22.1658622622
  0
LWPOLYLINE
  5
339
100
AcDbEntity
  8
ASSI
100
AcDbPolyline
 62
253
  6
CONTINUOUS
 90
7
 70
0
 10
21.5711173538
 20
-22.035794241
 10
21.5721689797
 20
-22.0284082878
 10
21.5732624267
 20
-22.015132582
 10
21.5743698164
 20
-21.9960357514
 10
21.5754425105
 20
-21.9712160311
 10
21.5764745722
 20
-21.9407984674
 10
21.5785038634
 20
-21.8637934746
  0
LINE
  5
33A
100
AcDbEntity
  8
ASSI
100
AcDbLine
 62
7
  6
CONTINUOUS
 10
-36.7540147273
 20
-22.2202775343
 11
-40.6267018214
 21
-22.0173186038
  0
LINE
  5
33B
100
AcDbEntity
  8
ASSI
100
AcDbLine
 62
253
  6
CONTINUOUS
 10
-36.7104700312
 20
-21.72255938
 11
-40.2610861593
 21
-21.5364794736
  0
LWPOLYLINE
  5
33C
100
AcDbEntity
  8
ASSI
100
AcDbPolyline
 62
253
  6
CONTINUOUS
 90
22
 70
0
 10
-40.2741656632
 20
-22.035794241
 10
-40.3583739605
 20
-22.0284082878
 10
-40.4418371463
 20
-22.015132582
 10
-40.5241444141
 20
-21.9960357514
 10
-40.6048896433
 20
-21.9712160311
 10
-40.6836776107
 20
-21.9407984674
 10
-40.7601251955
 20
-21.904932336
 10
-40.8338604875
 20
-21.8637934746
 10
-40.904517087
 20
-21.8175879
 10
-40.9717402184
 20
-21.7665481295
 10
-41.0351989717
 20
-21.7109292194
 10
-41.0945844958
 20
-21.6510062858
 10
-41.1496035597
 20
-21.5870762815
 10
-41.1999874352
 20
-21.5194555066
 10
-41.2454900792
 20
-21.4484791658
 10
-41.2858866926
 20
-21.3744995399
 10
-41.3209782455
 20
-21.297888318
 10
-41.350598118
 20
-21.219018561
 10
-41.374605943
 20
-21.1382624931
 10
-41.3928830978
 20
-21.056011828
 10
-41.4053372033
 20
-20.9726772789
 10
-41.4119057797
 20
-20.888669462
  0
LWPOLYLINE
  5
33D
100
AcDbEntity
  8
ASSI
100
AcDbPolyline
 62
253
  6
CONTINUOUS
 90
22
 70
0
 10
-40.2610861593
 20
-21.5364794736
 10
-40.3104931277
 20
-21.5321269552
 10
-40.3590674286
 20
-21.524433166
 10
-40.4068090621
 20
-21.5133981059
 10
-40.4539681482
 20
-21.4989328629
 10
-40.5002945668
 20
-21.4811263489
 10
-40.5450379577
 20
-21.4602453007
 10
-40.5881530026
 20
-21.4362449711
 10
-40.6296850197
 20
-21.4091701072
 10
-40.6690196031
 20
-21.3794216865
 10
-40.7061240729
 20
-21.346958061
 10
-40.741031109
 20
-21.3118208786
 10
-40.7732243446
 20
-21.2745360602
 10
-40.8026604754
 20
-21.2350739278
 10
-40.8293828056
 20
-21.1934641595
 10
-40.8530048816
 20
-21.1503217099
 10
-40.8734823765
 20
-21.1056027536
 10
-40.8908596171
 20
-21.0593511161
 10
-40.9048831312
 20
-21.0123132294
 10
-40.9154684279
 20
-20.9647379039
 10
-40.9226999981
 20
-20.916376329
 10
-40.9265778416
 20
-20.8672285049
  0
LINE
  5
33E
100
AcDbEntity
  8
ASSI
100
AcDbLine
 62
253
  6
CONTINUOUS
 10
-41.4119057891
 20
-20.8886694725
 11
-41.4062015432
 21
-20.8883684706
  0
LINE
  5
33F
100
AcDbEntity
  8
ASSI
100
AcDbLine
 62
253
  6
CONTINUOUS
 10
-41.4062015432
 20
-20.8883684706
 11
-41.2026188532
 21
-20.8792281227
  0
LINE
  5
340
100
AcDbEntity
  8
ASSI
100
AcDbLine
 62
253
  6
CONTINUOUS
 10
-41.2026188532
 20
-20.8792281227
 11
-40.9265778416
 21
-20.8672285049
  0
LINE
  5
341
100
AcDbEntity
  8
ASSI
100
AcDbLine
 62
253
  6
CONTINUOUS
 10
-41.7622629182
 20
-20.881570709
 11
-41.4119057908
 21
-20.8886694628
  0
LINE
  5
342
100
AcDbEntity
  8
ASSI
100
AcDbLine
 62
253
  6
CONTINUOUS
 10
-36.3570916147
 20
-17.944896277
 11
-36.3799673351
 21
-17.9448962768
  0
LWPOLYLINE
  5
343
100
AcDbEntity
  8
ASSI
100
AcDbPolyline
 62
253
  6
CONTINUOUS
 90
11
 70
0
 10
-40.2741655615
 20
22.0129848947
 10
-40.2753856455
 20
22.0101829195
 10
-40.2763061832
 20
22.0019505224
 10
-40.2769171066
 20
21.9883777422
 10
-40.2772117341
 20
21.969613026
 10
-40.2771868431
 20
21.9458616059
 10
-40.2768427055
 20
21.9173832541
 10
-40.2761830852
 20
21.8844894419
 10
-40.2752151966
 20
21.847539933
 10
-40.2739496255
 20
21.8069388487
 10
-40.2705839072
 20
21.7165932713
  0
LWPOLYLINE
  5
344
100
AcDbEntity
  8
ASSI
100
AcDbPolyline
 62
253
  6
CONTINUOUS
 90
9
 70
0
 10
-40.2741656632
 20
-22.035794241
 10
-40.2753857652
 20
-22.0329921958
 10
-40.2763063116
 20
-22.0247596063
 10
-40.2769172353
 20
-22.011186536
 10
-40.2772118557
 20
-21.9924214516
 10
-40.2771869515
 20
-21.9686696156
 10
-40.2768427961
 20
-21.9401908554
 10
-40.276183156
 20
-21.9072966868
 10
-40.2752152478
 20
-21.8703469025
  0
LWPOLYLINE
  5
345
100
AcDbEntity
  8
ASSI
100
AcDbPolyline
 62
253
  6
CONTINUOUS
 90
16
 70
0
 10
-41.8603183783
 20
0.7365504236
 10
-41.8575549045
 20
0.6835618152
 10
-41.8495093392
 20
0.6323112905
 10
-41.8363991075
 20
0.5826811656
 10
-41.8181131623
 20
0.5343495318
 10
-41.7946297216
 20
0.4876371655
 10
-41.7664731736
 20
0.4436660485
 10
-41.7340953748
 20
0.4031253086
 10
-41.6975625184
 20
0.3660887393
 10
-41.6573265367
 20
0.332990505
 10
-41.6139772017
 20
0.3043486817
 10
-41.5679276779
 20
0.2804270451
 10
-41.5195488898
 20
0.2613884121
 10
-41.4693878993
 20
0.247490103
 10
-41.418153092
 20
0.2389444589
 10
-41.3665047312
 20
0.2358025573
  0
LWPOLYLINE
  5
346
100
AcDbEntity
  8
ASSI
100
AcDbPolyline
 62
253
  6
CONTINUOUS
 90
13
 70
0
 10
-41.4119057908
 20
-20.8886694628
 10
-41.4840350772
 20
-19.1391443391
 10
-41.5488352772
 20
-17.4177971953
 10
-41.6066083494
 20
-15.7246619136
 10
-41.6573833799
 20
-14.0690241843
 10
-41.7017826518
 20
-12.4416608912
 10
-41.7407106307
 20
-10.8148314952
 10
-41.7741731186
 20
-9.1886010035
 10
-41.8021776727
 20
-7.5629421746
 10
-41.8250705399
 20
-5.9099632266
 10
-41.8426542403
 20
-4.2203759885
 10
-41.8544997979
 20
-2.5035015043
 10
-41.8603183968
 20
-0.7593597584
  0
LWPOLYLINE
  5
347
100
AcDbEntity
  8
ASSI
100
AcDbPolyline
 62
253
  6
CONTINUOUS
 90
13
 70
0
 10
-40.9265778416
 20
-20.8672285049
 10
-40.9982414832
 20
-19.1194274603
 10
-41.0631705592
 20
-17.3998507021
 10
-41.1213650696
 20
-15.7084982301
 10
-41.1724231434
 20
-14.05459763
 10
-41.2167466517
 20
-12.4289213162
 10
-41.2555412073
 20
-10.8037865318
 10
-41.2891857859
 20
-9.1792394523
 10
-41.3173014119
 20
-7.5552339021
 10
-41.3399567715
 20
-5.9039485973
 10
-41.3571747601
 20
-4.2161097764
 10
-41.3689324824
 20
-2.5009912008
 10
-41.3758471569
 20
-0.6556830198
  0
LINE
  5
348
100
AcDbEntity
  8
ASSI
100
AcDbLine
 62
7
  6
CONTINUOUS
 10
-42.0973597498
 20
-12.9629105514
 11
-42.0962465083
 21
-12.99722885
  0
LINE
  5
349
100
AcDbEntity
  8
ASSI
100
AcDbLine
 62
7
  6
CONTINUOUS
 10
-42.1000004462
 20
-12.8811384763
 11
-42.0990966441
 21
-12.9091841191
  0
LINE
  5
34A
100
AcDbEntity
  8
ASSI
100
AcDbLine
 62
7
  6
CONTINUOUS
 10
-42.112896893
 20
-12.4740715573
 11
-42.1112301853
 21
-12.5274256819
  0
LINE
  5
34B
100
AcDbEntity
  8
0
100
AcDbLine
 62
253
  6
CONTINUOUS
 10
-42.0962475313
 20
-12.9971973534
 11
-42.1336394459
 21
-11.7898396848
  0
LINE
  5
34C
100
AcDbEntity
  8
0
100
AcDbLine
 62
253
  6
CONTINUOUS
 10
-42.1315764494
 20
-11.8596672787
 11
-42.1660260793
 21
-10.6336704915
  0
LINE
  5
34D
100
AcDbEntity
  8
ASSI
100
AcDbLine
 62
7
  6
CONTINUOUS
 10
-42.1716855667
 20
-10.418445734
 11
-42.1710464408
 21
-10.4429736285
  0
LINE
  5
34E
100
AcDbEntity
  8
0
100
AcDbLine
 62
253
  6
CONTINUOUS
 10
-42.1734860076
 20
-10.3490366743
 11
-42.1655180551
 21
-10.6527800714
  0
LWPOLYLINE
  5
34F
100
AcDbEntity
  8
ASSI
100
AcDbPolyline
 62
253
  6
CONTINUOUS
 90
10
 70
0
 10
-41.8603183968
 20
0.736550418
 10
-41.8527754889
 20
2.7967672373
 10
-41.83616399
 20
4.8895455752
 10
-41.8100626758
 20
7.0148420987
 10
-41.7743379433
 20
9.1570688813
 10
-41.7284013162
 20
11.3317185233
 10
-41.6705112831
 20
13.5853488494
 10
-41.5990555368
 20
15.9334158953
 10
-41.5132491833
 20
18.3602881091
 10
-41.411905791
 20
20.8658601155
  0
LINE
  5
350
100
AcDbEntity
  8
ASSI
100
AcDbLine
 62
7
  6
CONTINUOUS
 10
-42.1716854824
 20
10.3956396228
 11
-42.1710463555
 21
10.4201675464
  0
LINE
  5
351
100
AcDbEntity
  8
0
100
AcDbLine
 62
253
  6
CONTINUOUS
 10
-42.1734764445
 20
10.3265972444
 11
-42.1243704425
 21
12.0775770437
  0
LINE
  5
352
100
AcDbEntity
  8
ASSI
100
AcDbLine
 62
7
  6
CONTINUOUS
 10
-42.1128968897
 20
12.45126231
 11
-42.1112316064
 21
12.5045709346
  0
LINE
  5
353
100
AcDbEntity
  8
ASSI
100
AcDbLine
 62
7
  6
CONTINUOUS
 10
-42.1000001125
 20
12.858339491
 11
-42.0990962694
 21
12.8863863817
  0
LINE
  5
354
100
AcDbEntity
  8
ASSI
100
AcDbLine
 62
7
  6
CONTINUOUS
 10
-42.0973597775
 20
12.940100345
 11
-42.0962468533
 21
12.9744088757
  0
LINE
  5
355
100
AcDbEntity
  8
0
100
AcDbLine
 62
253
  6
CONTINUOUS
 10
-42.1282891776
 20
11.9472754927
 11
-42.0962479498
 21
12.97437512
  0
LWPOLYLINE
  5
356
100
AcDbEntity
  8
ASSI
100
AcDbPolyline
 62
253
  6
CONTINUOUS
 90
16
 70
0
 10
-41.8603183791
 20
-0.7593597526
 10
-41.857555125
 20
-0.706373145
 10
-41.8495101201
 20
-0.6551242972
 10
-41.8364007068
 20
-0.6054955065
 10
-41.8181157907
 20
-0.55716488
 10
-41.7946335167
 20
-0.5104531736
 10
-41.7664781047
 20
-0.4664822747
 10
-41.7341012325
 20
-0.4259412627
 10
-41.6975690163
 20
-0.3889040303
 10
-41.6573333278
 20
-0.3558048692
 10
-41.613983829
 20
-0.3271619311
 10
-41.5679336487
 20
-0.3032391155
 10
-41.5195538295
 20
-0.2841994143
 10
-41.4693914991
 20
-0.2703002498
 10
-41.4181550281
 20
-0.2617540297
 10
-41.3665047319
 20
-0.2586119089
  0
LWPOLYLINE
  5
357
100
AcDbEntity
  8
ASSI
100
AcDbPolyline
 62
253
  6
CONTINUOUS
 90
22
 70
0
 10
-41.411905674
 20
20.86586011
 10
-41.4053370973
 20
20.9498679351
 10
-41.3928829907
 20
21.0332024899
 10
-41.3746058347
 20
21.1154531581
 10
-41.3505980091
 20
21.1962092256
 10
-41.3209781369
 20
21.2750789799
 10
-41.2858865846
 20
21.3516901994
 10
-41.2454899714
 20
21.4256698244
 10
-41.1999873275
 20
21.4966461646
 10
-41.1496034522
 20
21.5642669388
 10
-41.094584389
 20
21.6281969422
 10
-41.0351988655
 20
21.6881198751
 10
-40.971740113
 20
21.7437387844
 10
-40.9045169824
 20
21.7947785543
 10
-40.8338603838
 20
21.8409841285
 10
-40.760125093
 20
21.8821229893
 10
-40.6836775102
 20
21.9179891201
 10
-40.6048895452
 20
21.9484066833
 10
-40.5241443172
 20
21.9732264036
 10
-40.441837049
 20
21.9923232348
 10
-40.3583738616
 20
22.0055989412
 10
-40.2741655615
 20
22.0129848947
  0
LWPOLYLINE
  5
358
100
AcDbEntity
  8
ASSI
100
AcDbPolyline
 62
253
  6
CONTINUOUS
 90
22
 70
0
 10
-40.9265777875
 20
20.8444191615
 10
-40.9226999203
 20
20.8935669847
 10
-40.9154683324
 20
20.9419285589
 10
-40.9048830238
 20
20.989503884
 10
-40.8908595057
 20
21.0365417707
 10
-40.8734822669
 20
21.0827934082
 10
-40.8530047741
 20
21.1275123647
 10
-40.8293826981
 20
21.1706548142
 10
-40.8026603681
 20
21.2122645826
 10
-40.7732242376
 20
21.251726715
 10
-40.7410310023
 20
21.2890115333
 10
-40.7061239664
 20
21.3241487156
 10
-40.6690194968
 20
21.356612341
 10
-40.6296849138
 20
21.3863607616
 10
-40.5881528971
 20
21.4134356254
 10
-40.5450378526
 20
21.4374359548
 10
-40.5002944622
 20
21.458317003
 10
-40.4539680441
 20
21.476123517
 10
-40.4068089585
 20
21.49058876
 10
-40.3590673256
 20
21.50162382
 10
-40.3104930253
 20
21.5093176091
 10
-40.2610860575
 20
21.5136701273
  0
LWPOLYLINE
  5
359
100
AcDbEntity
  8
ASSI
100
AcDbPolyline
 62
253
  6
CONTINUOUS
 90
9
 70
0
 10
-41.3747970023
 20
0.4019951769
 10
-41.3741526035
 20
0.3648619526
 10
-41.3733759934
 20
0.3317961515
 10
-41.3724754403
 20
0.3031602326
 10
-41.3714608806
 20
0.2792791384
 10
-41.3703437107
 20
0.2604241705
 10
-41.3691363422
 20
0.2468039424
 10
-41.3678519696
 20
0.2385664995
 10
-41.3665047313
 20
0.2358025573
  0
LINE
  5
35A
100
AcDbEntity
  8
ASSI
100
AcDbLine
 62
253
  6
CONTINUOUS
 10
-41.3756633753
 20
0.4868673647
 11
-41.3747970023
 21
0.4019951769
  0
LINE
  5
35B
100
AcDbEntity
  8
ASSI
100
AcDbLine
 62
253
  6
CONTINUOUS
 10
-41.3759364195
 20
0.5825520677
 11
-41.3756633753
 21
0.4868673647
  0
LINE
  5
35C
100
AcDbEntity
  8
ASSI
100
AcDbLine
 62
253
  6
CONTINUOUS
 10
-41.3758471569
 20
-0.6556830198
 11
-41.3758754993
 21
-0.5564892836
  0
LINE
  5
35D
100
AcDbEntity
  8
ASSI
100
AcDbLine
 62
253
  6
CONTINUOUS
 10
-41.3683933264
 20
2.7940042064
 11
-41.3759364195
 21
0.5825520677
  0
LWPOLYLINE
  5
35E
100
AcDbEntity
  8
ASSI
100
AcDbPolyline
 62
253
  6
CONTINUOUS
 90
9
 70
0
 10
-41.3683933264
 20
2.7940042064
 10
-41.3516293598
 20
4.8846470948
 10
-41.3249380377
 20
7.0077121841
 10
-41.2894207624
 20
9.1477383548
 10
-41.2439761316
 20
11.3201867263
 10
-41.1852999394
 20
13.571440657
 10
-41.1122907836
 20
15.9169612661
 10
-41.0260500663
 20
18.3412874342
 10
-40.9265777875
 20
20.8444191615
  0
LWPOLYLINE
  5
35F
100
AcDbEntity
  8
ASSI
100
AcDbPolyline
 62
253
  6
CONTINUOUS
 90
11
 70
0
 10
-41.3758754993
 20
-0.5564892836
 10
-41.3753023291
 20
-0.4656046745
 10
-41.3747970043
 20
-0.4248046135
 10
-41.3741526055
 20
-0.3876713684
 10
-41.3733759953
 20
-0.3546055496
 10
-41.3724754422
 20
-0.325969618
 10
-41.3714608825
 20
-0.3020885134
 10
-41.3703437124
 20
-0.2832335363
 10
-41.3691363437
 20
-0.2696133006
 10
-41.3678519707
 20
-0.2613758529
 10
-41.3665047319
 20
-0.2586119089
  0
LINE
  5
360
100
AcDbEntity
  8
ASSI
100
AcDbLine
 62
253
  6
CONTINUOUS
 10
-40.2662327728
 20
21.6173943856
 11
-40.2610860575
 21
21.5136701273
  0
LINE
  5
361
100
AcDbEntity
  8
ASSI
100
AcDbLine
 62
253
  6
CONTINUOUS
 10
-40.2705839072
 20
21.7165932713
 11
-40.2662327728
 21
21.6173943856
  0
LINE
  5
362
100
AcDbEntity
  8
ASSI
100
AcDbLine
 62
253
  6
CONTINUOUS
 10
-40.2752152478
 20
-21.8703469025
 11
-40.2724002374
 21
-21.785937076
  0
LINE
  5
363
100
AcDbEntity
  8
ASSI
100
AcDbLine
 62
253
  6
CONTINUOUS
 10
-40.2724002374
 20
-21.785937076
 11
-40.2685205968
 21
-21.690644254
  0
LWPOLYLINE
  5
364
100
AcDbEntity
  8
ASSI
100
AcDbPolyline
 62
253
  6
CONTINUOUS
 90
3
 70
0
 10
-40.2685205968
 20
-21.690644254
 10
-40.2637455996
 20
-21.5886259619
 10
-40.2610861593
 20
-21.5364794736
  0
LINE
  5
365
100
AcDbEntity
  8
ASSI
100
AcDbLine
 62
253
  6
CONTINUOUS
 10
-41.8603183968
 20
-0.7593597584
 11
-42.3062208912
 21
-0.7634085408
  0
LINE
  5
366
100
AcDbEntity
  8
ASSI
100
AcDbLine
 62
253
  6
CONTINUOUS
 10
-35.9570916147
 20
-0.7113094936
 11
-41.3752299383
 21
-0.7585928704
  0
LINE
  5
367
100
AcDbEntity
  8
ASSI
100
AcDbLine
 62
7
  6
CONTINUOUS
 10
-35.9570916147
 20
-0.2114046758
 11
-41.8106669595
 21
-0.2624880539
  0
LINE
  5
368
100
AcDbEntity
  8
ASSI
100
AcDbLine
 62
253
  6
CONTINUOUS
 10
-41.3752299371
 20
-0.7585928704
 11
-41.8603183791
 21
-0.7593597526
  0
LINE
  5
369
100
AcDbEntity
  8
ASSI
100
AcDbLine
 62
7
  6
CONTINUOUS
 10
-36.3570916147
 20
17.9220846888
 11
-36.3570916147
 21
17.6606162453
  0
LINE
  5
36A
100
AcDbEntity
  8
ASSI
100
AcDbLine
 62
7
  6
CONTINUOUS
 10
-36.3570916147
 20
-17.6834255969
 11
-36.3570916147
 21
-17.9448939995
  0
LINE
  5
36B
100
AcDbEntity
  8
ASSI
100
AcDbLine
 62
7
  6
CONTINUOUS
 10
-35.9570916147
 20
13.0885953242
 11
-35.9570916147
 21
0.1885953242
  0
LINE
  5
36C
100
AcDbEntity
  8
ASSI
100
AcDbLine
 62
7
  6
CONTINUOUS
 10
-35.9570916147
 20
-13.1114046758
 11
-35.9570916147
 21
-0.2114046758
  0
LINE
  5
36D
100
AcDbEntity
  8
ASSI
100
AcDbLine
 62
253
  6
CONTINUOUS
 10
-41.8603183783
 20
0.7365504236
 11
-41.3752299364
 21
0.7357835188
  0
LINE
  5
36E
100
AcDbEntity
  8
ASSI
100
AcDbLine
 62
7
  6
CONTINUOUS
 10
-41.8106669595
 20
0.2396787023
 11
-35.9570916147
 21
0.1885953242
  0
LINE
  5
36F
100
AcDbEntity
  8
ASSI
100
AcDbLine
 62
253
  6
CONTINUOUS
 10
-41.3752299376
 20
0.7357835188
 11
-35.9570916147
 21
0.688500142
  0
LINE
  5
370
100
AcDbEntity
  8
ASSI
100
AcDbLine
 62
253
  6
CONTINUOUS
 10
-42.3062208912
 20
0.7405991892
 11
-41.8603183968
 21
0.736550418
  0
LINE
  5
371
100
AcDbEntity
  8
ASSI
100
AcDbLine
 62
7
  6
CONTINUOUS
 10
-36.7540147273
 20
22.1974681826
 11
-35.9570916147
 21
13.0885953242
  0
LINE
  5
372
100
AcDbEntity
  8
ASSI
100
AcDbLine
 62
7
  6
CONTINUOUS
 10
-35.9570916147
 20
-13.1114046758
 11
-36.7540147273
 21
-22.2202775343
  0
LINE
  5
373
100
AcDbEntity
  8
ASSI
100
AcDbLine
 62
253
  6
CONTINUOUS
 10
-36.3570916147
 20
17.9220869254
 11
-36.3799673351
 21
17.9220869254
  0
LINE
  5
374
100
AcDbEntity
  8
ASSI
100
AcDbLine
 62
253
  6
CONTINUOUS
 10
-40.2610860575
 20
21.5136701273
 11
-36.7104700312
 21
21.6997500283
  0
LINE
  5
375
100
AcDbEntity
  8
ASSI
100
AcDbLine
 62
7
  6
CONTINUOUS
 10
-40.6267018214
 20
21.9945092522
 11
-36.7540147273
 21
22.1974681826
  0
LINE
  5
376
100
AcDbEntity
  8
ASSI
100
AcDbLine
 62
253
  6
CONTINUOUS
 10
-41.7568640515
 20
20.8589045412
 11
-41.7622629183
 21
20.8587613558
  0
LINE
  5
377
100
AcDbEntity
  8
ASSI
100
AcDbLine
 62
253
  6
CONTINUOUS
 10
-41.411905791
 20
20.8658601155
 11
-41.7568640515
 21
20.8589045412
  0
LWPOLYLINE
  5
378
100
AcDbEntity
  8
ASSI
100
AcDbPolyline
 62
253
  6
CONTINUOUS
 90
4
 70
0
 10
-41.4118929213
 20
20.8658595776
 10
-41.4061889376
 20
20.8655585858
 10
-41.3957077785
 20
20.8650526281
 10
-40.9265777875
 20
20.8444191615
  0
ARC
  5
379
100
AcDbEntity
  8
ASSI
100
AcDbCircle
 62
7
  6
CONTINUOUS
 10
-40.5638972302
 20
-20.8189632378
 40
1.2
100
AcDbArc
 50
182.9907131675
 51
266.9999309764
  0
ARC
  5
37A
100
AcDbEntity
  8
ASSI
100
AcDbCircle
 62
7
  6
CONTINUOUS
 10
-41.8062217676
 20
-0.7624683005
 40
0.5
100
AcDbArc
 50
90.5093881764
 51
180.1077622649
  0
ARC
  5
37B
100
AcDbEntity
  8
ASSI
100
AcDbCircle
 62
7
  6
CONTINUOUS
 10
-36.6570916147
 20
-17.944896277
 40
0.3
100
AcDbArc
 50
334.9999283477
 51
0.0004349712
  0
ARC
  5
37C
100
AcDbEntity
  8
ASSI
100
AcDbCircle
 62
7
  6
CONTINUOUS
 10
-40.5638972302
 20
20.7961538861
 40
1.2
100
AcDbArc
 50
93.0000690236
 51
177.0092868325
  0
ARC
  5
37D
100
AcDbEntity
  8
ASSI
100
AcDbCircle
 62
7
  6
CONTINUOUS
 10
-41.8062217676
 20
0.7396589489
 40
0.5
100
AcDbArc
 50
179.8922377351
 51
269.4906118236
  0
ARC
  5
37E
100
AcDbEntity
  8
ASSI
100
AcDbCircle
 62
7
  6
CONTINUOUS
 10
-36.6570916147
 20
17.9220869254
 40
0.3
100
AcDbArc
 50
359.9995650288
 51
25.0000764768
  0
ARC
  5
37F
100
AcDbEntity
  8
ASSI
100
AcDbCircle
 62
7
  6
CONTINUOUS
 10
357.6929083853
 20
-0.0114046758
 40
400.0
100
AcDbArc
 50
177.0092106876
 51
179.89228325
  0
ARC
  5
380
100
AcDbEntity
  8
ASSI
100
AcDbCircle
 62
7
  6
CONTINUOUS
 10
357.6929083853
 20
-0.0114046758
 40
400.0
100
AcDbArc
 50
180.10771675
 51
182.9907893124
  0
ELLIPSE
  5
381
100
AcDbEntity
  8
ASSI
100
AcDbEllipse
 62
7
  6
CONTINUOUS
 10
18.4428099025
 20
22.1711030402
 30
0.0
 11
0.2
 21
-0.0
 31
0.0
 40
0.0524077793
 41
-1.5707963268
 42
-0.5235987756
  0
ELLIPSE
  5
382
100
AcDbEntity
  8
ASSI
100
AcDbEllipse
 62
7
  6
CONTINUOUS
 10
15.0737500102
 20
22.1711030402
 30
0.0
 11
0.2
 21
0.0
 31
0.0
 40
0.0524077793
 41
-2.617993878
 42
-1.5707963268
  0
ELLIPSE
  5
383
100
AcDbEntity
  8
ASSI
100
AcDbEllipse
 62
7
  6
CONTINUOUS
 10
7.2428099025
 20
22.1711030402
 30
0.0
 11
0.2
 21
0.0
 31
0.0
 40
0.0524077793
 41
-1.5707963268
 42
-0.5235987756
  0
ELLIPSE
  5
384
100
AcDbEntity
  8
ASSI
100
AcDbEllipse
 62
7
  6
CONTINUOUS
 10
3.8737500102
 20
22.1711030402
 30
0.0
 11
0.2
 21
0.0
 31
0.0
 40
0.0524077793
 41
-2.617993878
 42
-1.5707963268
  0
ELLIPSE
  5
385
100
AcDbEntity
  8
ASSI
100
AcDbEllipse
 62
7
  6
CONTINUOUS
 10
-7.4262499898
 20
22.1711030402
 30
0.0
 11
0.2
 21
0.0
 31
0.0
 40
0.0524077793
 41
-2.617993878
 42
-1.5707963268
  0
ELLIPSE
  5
386
100
AcDbEntity
  8
ASSI
100
AcDbEllipse
 62
7
  6
CONTINUOUS
 10
-4.0571900975
 20
22.1711030402
 30
0.0
 11
0.2
 21
-0.0
 31
0.0
 40
0.0524077793
 41
-1.5707963268
 42
-0.5235987756
  0
ELLIPSE
  5
387
100
AcDbEntity
  8
ASSI
100
AcDbEllipse
 62
7
  6
CONTINUOUS
 10
-15.2571900975
 20
22.1711030402
 30
0.0
 11
0.2
 21
-0.0
 31
0.0
 40
0.0524077793
 41
-1.5707963268
 42
-0.5235987756
  0
ELLIPSE
  5
388
100
AcDbEntity
  8
ASSI
100
AcDbEllipse
 62
7
  6
CONTINUOUS
 10
-18.6262499898
 20
22.1711030402
 30
0.0
 11
0.2
 21
0.0
 31
0.0
 40
0.0524077793
 41
-2.617993878
 42
-1.5707963268
  0
ELLIPSE
  5
389
100
AcDbEntity
  8
ASSI
100
AcDbEllipse
 62
7
  6
CONTINUOUS
 10
21.6834786836
 20
0.6886143634
 30
0.0
 11
0.4745319423
 21
-0.1581451893
 31
0.0
 40
0.9996192872
 41
-1.2489924673
 42
0.3215754254
  0
ELLIPSE
  5
38A
100
AcDbEntity
  8
ASSI
100
AcDbEllipse
 62
7
  6
CONTINUOUS
 10
-21.8669187709
 20
0.6886143634
 30
0.0
 11
0.4745319423
 21
0.1581451893
 31
0.0
 40
0.9996192872
 41
2.8200172282
 42
4.3905851209
  0
ELLIPSE
  5
38B
100
AcDbEntity
  8
ASSI
100
AcDbEllipse
 62
7
  6
CONTINUOUS
 10
21.6637523398
 20
21.6990672212
 30
0.0
 11
0.4962344879
 21
-0.0628595572
 31
0.0
 40
0.9963456432
 41
0.1278292453
 42
1.6972555761
  0
ELLIPSE
  5
38C
100
AcDbEntity
  8
ASSI
100
AcDbEllipse
 62
7
  6
CONTINUOUS
 10
-21.8471924271
 20
21.6990672212
 30
0.0
 11
0.4962344879
 21
0.0628595572
 31
0.0
 40
0.9963456432
 41
1.4443370775
 42
3.0137634083
  0
ELLIPSE
  5
38D
100
AcDbEntity
  8
ASSI
100
AcDbEllipse
 62
7
  6
CONTINUOUS
 10
-18.6262499898
 20
-22.1939123918
 30
0.0
 11
0.2
 21
-0.0
 31
0.0
 40
0.0524077793
 41
1.5707963268
 42
2.617993878
  0
ELLIPSE
  5
38E
100
AcDbEntity
  8
ASSI
100
AcDbEllipse
 62
7
  6
CONTINUOUS
 10
-15.2571900975
 20
-22.1939123918
 30
0.0
 11
0.2
 21
-0.0
 31
0.0
 40
0.0524077793
 41
0.5235987756
 42
1.5707963268
  0
ELLIPSE
  5
38F
100
AcDbEntity
  8
ASSI
100
AcDbEllipse
 62
7
  6
CONTINUOUS
 10
-7.4262499898
 20
-22.1939123918
 30
0.0
 11
0.2
 21
0.0
 31
0.0
 40
0.0524077793
 41
1.5707963268
 42
2.617993878
  0
ELLIPSE
  5
390
100
AcDbEntity
  8
ASSI
100
AcDbEllipse
 62
7
  6
CONTINUOUS
 10
-4.0571900975
 20
-22.1939123918
 30
0.0
 11
0.2
 21
0.0
 31
0.0
 40
0.0524077793
 41
0.5235987756
 42
1.5707963268
  0
ELLIPSE
  5
391
100
AcDbEntity
  8
ASSI
100
AcDbEllipse
 62
7
  6
CONTINUOUS
 10
7.2428099025
 20
-22.1939123918
 30
0.0
 11
0.2
 21
0.0
 31
0.0
 40
0.0524077793
 41
0.5235987756
 42
1.5707963268
  0
ELLIPSE
  5
392
100
AcDbEntity
  8
ASSI
100
AcDbEllipse
 62
7
  6
CONTINUOUS
 10
3.8737500102
 20
-22.1939123918
 30
0.0
 11
0.2
 21
0.0
 31
0.0
 40
0.0524077793
 41
1.5707963268
 42
2.617993878
  0
ELLIPSE
  5
393
100
AcDbEntity
  8
ASSI
100
AcDbEllipse
 62
7
  6
CONTINUOUS
 10
15.0737500102
 20
-22.1939123918
 30
0.0
 11
0.2
 21
0.0
 31
0.0
 40
0.0524077793
 41
1.5707963268
 42
2.617993878
  0
ELLIPSE
  5
394
100
AcDbEntity
  8
ASSI
100
AcDbEllipse
 62
7
  6
CONTINUOUS
 10
18.4428099025
 20
-22.1939123918
 30
0.0
 11
0.2
 21
0.0
 31
0.0
 40
0.0524077793
 41
0.5235987756
 42
1.5707963268
  0
ELLIPSE
  5
395
100
AcDbEntity
  8
ASSI
100
AcDbEllipse
 62
7
  6
CONTINUOUS
 10
-21.8669187709
 20
-0.711423715
 30
0.0
 11
0.4745319423
 21
-0.1581451893
 31
0.0
 40
0.9996192872
 41
1.8926001863
 42
3.463168079
  0
ELLIPSE
  5
396
100
AcDbEntity
  8
ASSI
100
AcDbEllipse
 62
7
  6
CONTINUOUS
 10
21.6834786836
 20
-0.711423715
 30
0.0
 11
0.4745319423
 21
0.1581451893
 31
0.0
 40
0.9996192872
 41
-0.3215754254
 42
1.2489924673
  0
ELLIPSE
  5
397
100
AcDbEntity
  8
ASSI
100
AcDbEllipse
 62
7
  6
CONTINUOUS
 10
-21.8471924271
 20
-21.7218765728
 30
0.0
 11
0.4962344879
 21
-0.0628595572
 31
0.0
 40
0.9963456432
 41
-3.0137634083
 42
-1.4443370775
  0
ELLIPSE
  5
398
100
AcDbEntity
  8
ASSI
100
AcDbEllipse
 62
7
  6
CONTINUOUS
 10
21.6637523398
 20
-21.7218765728
 30
0.0
 11
0.4962344879
 21
0.0628595572
 31
0.0
 40
0.9963456432
 41
-1.6972555761
 42
-0.1278292453
  0
ELLIPSE
  5
399
100
AcDbEntity
  8
0
100
AcDbEllipse
 62
253
  6
CONTINUOUS
 10
357.6929083853
 20
-0.0114046758
 30
0.0
 11
0.0
 21
400.0
 31
0.0
 40
1.0
 41
-4.6811565932
 42
-4.6811205041
  0
ENDSEC
  0
SECTION
  2
OBJECTS
  0
DICTIONARY
  5
C
100
AcDbDictionary
280
0
281
1
  3
ACAD_GROUP
350
D
  3
ACAD_MLINESTYLE
350
17
  3
ACAD_LAYOUT
350
1A
  3
ACAD_PLOTSETTINGS
350
19
  3
ACAD_PLOTSTYLENAME
350
E
  0
DICTIONARY
  5
D
102
{ACAD_REACTORS
330
C
102
}
100
AcDbDictionary
280
0
281
1
  0
ACDBDICTIONARYWDFLT
  5
E
102
{ACAD_REACTORS
330
C
102
}
100
AcDbDictionary
281
1
  3
Normal
350
F
100
AcDbDictionaryWithDefault
340
F
  0
DICTIONARY
  5
17
102
{ACAD_REACTORS
330
C
102
}
100
AcDbDictionary
280
0
281
1
  3
Standard
350
18
  0
DICTIONARY
  5
19
102
{ACAD_REACTORS
330
C
102
}
100
AcDbDictionary
281
1
  0
DICTIONARY
  5
1A
102
{ACAD_REACTORS
330
C
102
}
100
AcDbDictionary
281
1
  3
Model
350
39A
  3
Layout1
350
39B
  0
ACDBPLACEHOLDER
  5
F
102
{ACAD_REACTORS
330
E
102
}
  0
MLINESTYLE
  5
18
102
{ACAD_REACTORS
330
17
102
}
100
AcDbMlineStyle
  2
STANDARD
 70
0
  3

 62
256
 51
90.0
 52
90.0
 71
2
 49
0.5
 62
256
  6
BYLAYER
 49
-0.5
 62
256
  6
BYLAYER
  0
LAYOUT
  5
39A
102
{ACAD_REACTORS
330
1A
102
}
100
AcDbPlotSettings
  1

  2
none_device
  4
ISO_A4_(297.00_x_210.00_MM)
  6

 40
0.0
 41
0.0
 42
0.0
 43
0.0
 44
297.0
 45
210.0
 46
0.0
 47
0.0
 48
0.0
 49
0.0
140
0.0
141
0.0
142
1.0
143
1.0
 70
1024
 72
1
 73
0
 74
0
  7

 75
0
147
1.0
148
0.0
149
0.0
100
AcDbLayout
  1
Model
 70
0
 71
0
 10
0.0
 20
0.0
 11
297.0
 21
210.0
 12
0.0
 22
0.0
 32
0.0
 14
0.0
 24
0.0
 34
0.0
 15
0.0
 25
0.0
 35
0.0
146
0.0
 13
0.0
 23
0.0
 33
0.0
 16
1.0
 26
0.0
 36
0.0
 17
0.0
 27
1.0
 37
0.0
 76
0
330
220
345
0
346
0
  0
LAYOUT
  5
39B
102
{ACAD_REACTORS
330
1A
102
}
100
AcDbPlotSettings
  1

  2
none_device
  4
ISO_A4_(297.00_x_210.00_MM)
  6

 40
0.0
 41
0.0
 42
0.0
 43
0.0
 44
297.0
 45
210.0
 46
0.0
 47
0.0
 48
0.0
 49
0.0
140
0.0
141
0.0
142
1.0
143
1.0
 70
0
 72
1
 73
0
 74
0
  7

 75
0
147
1.0
148
0.0
149
0.0
100
AcDbLayout
  1
Layout1
 70
0
 71
1
 10
0.0
 20
0.0
 11
297.0
 21
210.0
 12
0.0
 22
0.0
 32
0.0
 14
0.0
 24
0.0
 34
0.0
 15
0.0
 25
0.0
 35
0.0
146
0.0
 13
0.0
 23
0.0
 33
0.0
 16
1.0
 26
0.0
 36
0.0
 17
0.0
 27
1.0
 37
0.0
 76
0
330
221
345
0
346
0
  0
ENDSEC
  0
EOF
