  0
SECTION
  2
HEADER
  9
$ACADVER
  1
AC1021
  9
$DWGCODEPAGE
  3
ANSI_1252
  9
$EXTMAX
 10
297.0
 20
210.0
 30
0.0
  9
$EXTMIN
 10
0.0
 20
0.0
 30
0.0
  9
$LIMMIN
 10
0.0
 20
0.0
  9
$LIMMAX
 10
297.0
 20
210.0
  9
$VIEWCTR
 10
148.5
 20
105.0
  9
$VIEWSIZE
 40
210.0
  9
$CLAYER
  8
0
  9
$LTSCALE
 40
16.335
  9
$CELTYPE
  6
BYLAYER
  9
$DIMSCALE
 40
1.0
  9
$DIMASZ
 40
3.0
  9
$DIMEXO
 40
0.5
  9
$DIMDLI
 40
11.286
  9
$DIMEXE
 40
1.5
  9
$DIMCEN
 40
2.673
  9
$DIMLFAC
 40
1.0
  9
$DIMBLK
  1
_FILLED
  9
$DIMALT
 70
0
  9
$DIMALTF
 40
25.4
  9
$DIMTXT
 40
3.0
  9
$DIMTOL
 70
1
  9
$DIMLIM
 70
0
  9
$DIMTFAC
 40
1.0
  9
$DIMTP
 40
0.01
  9
$DIMTM
 40
0.01
  9
$DIMGAP
 40
0.625
  9
$DIMDSEP
 70
44
  9
$AUNITS
 70
0
  9
$PDMODE
 70
3
  9
$PDSIZE
 40
3.0
  9
$HANDSEED
  5
3EF
  9
$TILEMODE
 70
1
  9
$MEASUREMENT
 70
1
  9
$INSUNITS
 70
4
  0
ENDSEC
  0
SECTION
  2
CLASSES
  0
CLASS
  1
ACDBDICTIONARYWDFLT
  2
AcDbDictionaryWithDefault
  3
AutoCAD 2000
 90
0
 91
1
280
0
281
0
  0
CLASS
  1
ACDBPLACEHOLDER
  2
AcDbPlaceHolder
  3
AutoCAD 2000
 90
0
 91
1
280
0
281
0
  0
CLASS
  1
LAYOUT
  2
AcDbLayout
  3
AutoCAD 2000
 90
0
 91
0
280
0
281
0
  0
ENDSEC
  0
SECTION
  2
TABLES
  0
TABLE
  2
VPORT
  5
8
100
AcDbSymbolTable
 70
2
  0
VPORT
  5
1F4
100
AcDbSymbolTableRecord
100
AcDbViewportTableRecord
  2
*ACTIVE
 70
0
 10
0.0
 20
0.0
 11
1.0
 21
1.0
 12
148.5
 22
105.0
 13
0.0
 23
0.0
 14
1.0
 24
1.0
 15
0.0
 25
0.0
 16
0.0
 26
0.0
 36
1.0
 17
0.0
 27
0.0
 37
0.0
 40
210.0
 41
1.4142857143
 42
50.0
 43
0.0
 44
0.0
 50
0.0
 51
0.0
 71
0
 72
100
 73
1
 74
1
 75
0
 76
0
 77
0
 78
0
  0
ENDTAB
  0
TABLE
  2
LTYPE
  5
5
100
AcDbSymbolTable
 70
6
  0
LTYPE
  5
14
100
AcDbSymbolTableRecord
100
AcDbLinetypeTableRecord
  2
BYBLOCK
 70
0
  3

 72
65
 73
0
 40
0.0
  0
LTYPE
  5
15
100
AcDbSymbolTableRecord
100
AcDbLinetypeTableRecord
  2
BYLAYER
 70
0
  3

 72
65
 73
0
 40
0.0
  0
LTYPE
  5
16
100
AcDbSymbolTableRecord
100
AcDbLinetypeTableRecord
  2
CONTINUOUS
 70
64
  3
Solid line
 72
65
 73
0
 40
0.0
  0
LTYPE
  5
1F5
100
AcDbSymbolTableRecord
100
AcDbLinetypeTableRecord
  2
CENTER
 70
64
  3
____ _ ____ _ ____ _ ____ _ ____ _ ____ _ ____
 72
65
 73
4
 40
0.6
 49
0.375
 74
0
 49
-0.075
 74
0
 49
0.075
 74
0
 49
-0.075
 74
0
  0
LTYPE
  5
1F6
100
AcDbSymbolTableRecord
100
AcDbLinetypeTableRecord
  2
HIDDEN
 70
64
  3
- - - - - - - - - - - - - - - - - - - -
 72
65
 73
2
 40
0.2
 49
0.1
 74
0
 49
-0.1
 74
0
  0
LTYPE
  5
1F7
100
AcDbSymbolTableRecord
100
AcDbLinetypeTableRecord
  2
PHANTOM
 70
64
  3
_____ _ _ _____ _ _ _____ _ _ _____
 72
65
 73
6
 40
0.8
 49
0.45
 74
0
 49
-0.05
 74
0
 49
0.1
 74
0
 49
-0.05
 74
0
 49
0.1
 74
0
 49
-0.05
 74
0
  0
LTYPE
  5
1F8
100
AcDbSymbolTableRecord
100
AcDbLinetypeTableRecord
  2
DOT
 70
64
  3
. . . . . . . . . . . . . . . . . . . .
 72
65
 73
2
 40
0.2
 49
0.1
 74
0
 49
-0.1
 74
0
  0
LTYPE
  5
1F9
100
AcDbSymbolTableRecord
100
AcDbLinetypeTableRecord
  2
DASHED
 70
64
  3
- - - - - - - - - - - - - - - - - - - -
 72
65
 73
2
 40
0.2
 49
0.1
 74
0
 49
-0.1
 74
0
  0
ENDTAB
  0
TABLE
  2
LAYER
  5
2
100
AcDbSymbolTable
 70
36
  0
LAYER
  5
10
100
AcDbSymbolTableRecord
100
AcDbLayerTableRecord
  2
0
 70
0
 62
7
  6
CONTINUOUS
370
-3
390
F
  0
LAYER
  5
1FA
100
AcDbSymbolTableRecord
100
AcDbLayerTableRecord
  2
DEFAULT_1
 70
0
 62
7
  6
CENTER
370
-3
390
F
  0
LAYER
  5
1FB
100
AcDbSymbolTableRecord
100
AcDbLayerTableRecord
  2
DEFAULT_2
 70
0
 62
7
  6
HIDDEN
370
-3
390
F
  0
LAYER
  5
1FC
100
AcDbSymbolTableRecord
100
AcDbLayerTableRecord
  2
DEFAULT_3
 70
0
 62
7
  6
PHANTOM
370
-3
390
F
  0
LAYER
  5
1FD
100
AcDbSymbolTableRecord
100
AcDbLayerTableRecord
  2
ASSI
 70
0
 62
7
  6
CONTINUOUS
370
-3
390
F
  0
LAYER
  5
1FE
100
AcDbSymbolTableRecord
100
AcDbLayerTableRecord
  2
COLOR3
 70
0
 62
7
  6
CONTINUOUS
370
-3
390
F
  0
LAYER
  5
1FF
100
AcDbSymbolTableRecord
100
AcDbLayerTableRecord
  2
COORDINATE
 70
0
 62
7
  6
CONTINUOUS
370
-3
390
F
  0
LAYER
  5
200
100
AcDbSymbolTableRecord
100
AcDbLayerTableRecord
  2
COPY_PUBLISH
 70
0
 62
7
  6
CONTINUOUS
370
-3
390
F
  0
LAYER
  5
201
100
AcDbSymbolTableRecord
100
AcDbLayerTableRecord
  2
COSMETIC
 70
0
 62
7
  6
CONTINUOUS
370
-3
390
F
  0
LAYER
  5
202
100
AcDbSymbolTableRecord
100
AcDbLayerTableRecord
  2
COSMETICI
 70
0
 62
7
  6
CONTINUOUS
370
-3
390
F
  0
LAYER
  5
203
100
AcDbSymbolTableRecord
100
AcDbLayerTableRecord
  2
CURVE
 70
0
 62
7
  6
CONTINUOUS
370
-3
390
F
  0
LAYER
  5
204
100
AcDbSymbolTableRecord
100
AcDbLayerTableRecord
  2
DRAFT
 70
0
 62
7
  6
CONTINUOUS
370
-3
390
F
  0
LAYER
  5
205
100
AcDbSymbolTableRecord
100
AcDbLayerTableRecord
  2
IMPORT_IGES
 70
0
 62
7
  6
CONTINUOUS
370
-3
390
F
  0
LAYER
  5
206
100
AcDbSymbolTableRecord
100
AcDbLayerTableRecord
  2
INTFCLR_1
 70
0
 62
7
  6
CONTINUOUS
370
-3
390
F
  0
LAYER
  5
207
100
AcDbSymbolTableRecord
100
AcDbLayerTableRecord
  2
INTF_10
 70
0
 62
7
  6
CONTINUOUS
370
-3
390
F
  0
LAYER
  5
208
100
AcDbSymbolTableRecord
100
AcDbLayerTableRecord
  2
INTF_13
 70
0
 62
7
  6
CONTINUOUS
370
-3
390
F
  0
LAYER
  5
209
100
AcDbSymbolTableRecord
100
AcDbLayerTableRecord
  2
INTF_15
 70
0
 62
7
  6
CONTINUOUS
370
-3
390
F
  0
LAYER
  5
20A
100
AcDbSymbolTableRecord
100
AcDbLayerTableRecord
  2
INTF_16
 70
0
 62
7
  6
CONTINUOUS
370
-3
390
F
  0
LAYER
  5
20B
100
AcDbSymbolTableRecord
100
AcDbLayerTableRecord
  2
INTF_18
 70
0
 62
7
  6
CONTINUOUS
370
-3
390
F
  0
LAYER
  5
20C
100
AcDbSymbolTableRecord
100
AcDbLayerTableRecord
  2
INTF_20
 70
0
 62
7
  6
CONTINUOUS
370
-3
390
F
  0
LAYER
  5
20D
100
AcDbSymbolTableRecord
100
AcDbLayerTableRecord
  2
INTF_3
 70
0
 62
7
  6
CONTINUOUS
370
-3
390
F
  0
LAYER
  5
20E
100
AcDbSymbolTableRecord
100
AcDbLayerTableRecord
  2
INTF_5
 70
0
 62
7
  6
CONTINUOUS
370
-3
390
F
  0
LAYER
  5
20F
100
AcDbSymbolTableRecord
100
AcDbLayerTableRecord
  2
INTF_8
 70
0
 62
7
  6
CONTINUOUS
370
-3
390
F
  0
LAYER
  5
210
100
AcDbSymbolTableRecord
100
AcDbLayerTableRecord
  2
LIVELLO_1
 70
0
 62
7
  6
CONTINUOUS
370
-3
390
F
  0
LAYER
  5
211
100
AcDbSymbolTableRecord
100
AcDbLayerTableRecord
  2
NOTE
 70
0
 62
7
  6
CONTINUOUS
370
-3
390
F
  0
LAYER
  5
212
100
AcDbSymbolTableRecord
100
AcDbLayerTableRecord
  2
PIANI
 70
0
 62
7
  6
CONTINUOUS
370
-3
390
F
  0
LAYER
  5
213
100
AcDbSymbolTableRecord
100
AcDbLayerTableRecord
  2
PUNTI
 70
0
 62
7
  6
CONTINUOUS
370
-3
390
F
  0
LAYER
  5
214
100
AcDbSymbolTableRecord
100
AcDbLayerTableRecord
  2
RACCORDO
 70
0
 62
7
  6
CONTINUOUS
370
-3
390
F
  0
LAYER
  5
215
100
AcDbSymbolTableRecord
100
AcDbLayerTableRecord
  2
SIMBOLI
 70
0
 62
7
  6
CONTINUOUS
370
-3
390
F
  0
LAYER
  5
216
100
AcDbSymbolTableRecord
100
AcDbLayerTableRecord
  2
SMUSSO
 70
0
 62
7
  6
CONTINUOUS
370
-3
390
F
  0
LAYER
  5
217
100
AcDbSymbolTableRecord
100
AcDbLayerTableRecord
  2
SNAPLINE
 70
0
 62
7
  6
CONTINUOUS
370
-3
390
F
  0
LAYER
  5
218
100
AcDbSymbolTableRecord
100
AcDbLayerTableRecord
  2
SOLIDO
 70
0
 62
7
  6
CONTINUOUS
370
-3
390
F
  0
LAYER
  5
219
100
AcDbSymbolTableRecord
100
AcDbLayerTableRecord
  2
SUPERFICI
 70
0
 62
7
  6
CONTINUOUS
370
-3
390
F
  0
LAYER
  5
21A
100
AcDbSymbolTableRecord
100
AcDbLayerTableRecord
  2
SUPERFICI_SKEL
 70
0
 62
7
  6
CONTINUOUS
370
-3
390
F
  0
LAYER
  5
21B
100
AcDbSymbolTableRecord
100
AcDbLayerTableRecord
  2
TRASH
 70
0
 62
7
  6
CONTINUOUS
370
-3
390
F
  0
LAYER
  5
21C
100
AcDbSymbolTableRecord
100
AcDbLayerTableRecord
  2
WHITE
 70
0
 62
7
  6
CONTINUOUS
370
-3
390
F
  0
LAYER
  5
21D
100
AcDbSymbolTableRecord
100
AcDbLayerTableRecord
  2
___SHELL
 70
0
 62
7
  6
CONTINUOUS
370
-3
390
F
  0
ENDTAB
  0
TABLE
  2
STYLE
  5
3
100
AcDbSymbolTable
 70
1
  0
STYLE
  5
11
100
AcDbSymbolTableRecord
100
AcDbTextStyleTableRecord
  2
STANDARD
 70
0
 40
0.0
 41
0.8
 50
0.0
 71
0
 42
0.2
  3
txt
  4

  0
STYLE
  5
21E
100
AcDbSymbolTableRecord
100
AcDbTextStyleTableRecord
  2
TEXTSTYLE_1
 70
0
 40
0.0
 41
0.8
 50
0.0
 71
0
 42
0.2
  3
gdt
  4

  0
ENDTAB
  0
TABLE
  2
VIEW
  5
6
100
AcDbSymbolTable
 70
0
  0
ENDTAB
  0
TABLE
  2
UCS
  5
7
100
AcDbSymbolTable
 70
0
  0
ENDTAB
  0
TABLE
  2
APPID
  5
9
100
AcDbSymbolTable
 70
1
  0
APPID
  5
21F
100
AcDbSymbolTableRecord
100
AcDbRegAppTableRecord
  2
ACAD
 70
0
  0
ENDTAB
  0
TABLE
  2
BLOCK_RECORD
  5
1
100
AcDbSymbolTable
 70
0
  0
BLOCK_RECORD
  5
220
100
AcDbSymbolTableRecord
100
AcDbBlockTableRecord
  2
*Model_Space
  0
BLOCK_RECORD
  5
221
100
AcDbSymbolTableRecord
100
AcDbBlockTableRecord
  2
*Paper_Space
  0
BLOCK_RECORD
  5
222
100
AcDbSymbolTableRecord
100
AcDbBlockTableRecord
  2
_FILLED
  0
BLOCK_RECORD
  5
223
100
AcDbSymbolTableRecord
100
AcDbBlockTableRecord
  2
*D0
  0
BLOCK_RECORD
  5
224
100
AcDbSymbolTableRecord
100
AcDbBlockTableRecord
  2
*D1
  0
BLOCK_RECORD
  5
225
100
AcDbSymbolTableRecord
100
AcDbBlockTableRecord
  2
*D2
  0
ENDTAB
  0
TABLE
  2
DIMSTYLE
  5
A
100
AcDbSymbolTable
 70
1
100
AcDbDimStyleTable
 71
0
  0
DIMSTYLE
105
226
100
AcDbSymbolTableRecord
100
AcDbDimStyleTableRecord
  2
STANDARD
 70
0
  3

  4

 40
1.0
 41
3.0
 42
0.5
 43
0.38
 44
1.5
 45
0.0
 46
0.0
 47
0.01
 48
0.01
140
3.0
141
0.09
142
0.0
143
25.4
144
1.0
145
0.0
146
1.0
147
0.625
 71
1.0
 72
0.0
 73
0
 74
0
 75
0
 76
0
 77
1
 78
8
170
0
171
1
172
0
173
0
174
0
175
0
176
0
177
0
178
0
270
2
271
2
272
2
273
2
274
2
275
0
280
0
281
0
282
0
283
1
284
8
285
0
286
0
287
3
288
0
340
11
278
44
341
222
342
222
343
222
344
222
  0
DIMSTYLE
105
227
100
AcDbSymbolTableRecord
100
AcDbDimStyleTableRecord
  2
DIMSTYLE_1
 70
0
  3

  4

 40
1.0
 41
3.0
 42
0.5
 43
0.38
 44
1.5
 45
0.0
 46
0.0
 47
0.0
 48
0.0
140
3.0
141
0.09
142
0.0
143
25.4
144
1.0
145
0.0
146
1.0
147
0.75
 71
0.0
 72
0.0
 73
0
 74
0
 75
0
 76
0
 77
1
 78
8
170
0
171
1
172
0
173
0
174
0
175
0
176
0
177
0
178
0
270
2
271
2
272
2
273
2
274
2
275
0
280
0
281
0
282
0
283
1
284
8
285
0
286
0
287
3
288
0
340
11
278
44
341
222
342
222
343
222
344
222
  0
DIMSTYLE
105
228
100
AcDbSymbolTableRecord
100
AcDbDimStyleTableRecord
  2
DIMSTYLE_2
 70
0
  3

  4

 40
1.0
 41
3.0
 42
0.5
 43
0.38
 44
1.5
 45
0.0
 46
0.0
 47
0.0
 48
0.0
140
3.0
141
0.09
142
0.0
143
25.4
144
1.0
145
0.0
146
1.0
147
0.75
 71
0.0
 72
0.0
 73
0
 74
0
 75
0
 76
0
 77
1
 78
8
170
0
171
1
172
0
173
0
174
0
175
0
176
0
177
0
178
0
270
2
271
1
272
1
273
2
274
2
275
0
280
0
281
0
282
0
283
1
284
8
285
0
286
0
287
3
288
0
340
11
278
44
341
222
342
222
343
222
344
222
  0
ENDTAB
  0
ENDSEC
  0
SECTION
  2
BLOCKS
  0
BLOCK
  5
20
100
AcDbEntity
  8
0
100
AcDbBlockBegin
  2
*Model_Space
 70
0
 10
0.0
 20
0.0
 30
0.0
  3
*Model_Space
  1

  0
ENDBLK
  5
21
100
AcDbEntity
  8
0
100
AcDbBlockEnd
  0
BLOCK
  5
1C
100
AcDbEntity
  8
0
100
AcDbBlockBegin
  2
*Paper_Space
 70
0
 10
0.0
 20
0.0
 30
0.0
  3
*Paper_Space
  1

  0
ENDBLK
  5
1D
100
AcDbEntity
  8
0
100
AcDbBlockEnd
  0
BLOCK
  5
229
100
AcDbEntity
  8
0
100
AcDbBlockBegin
  2
_FILLED
 70
64
 10
0.0
 20
0.0
  3
_FILLED
  1

  0
SOLID
  5
22A
100
AcDbEntity
  8
0
  6
BYBLOCK
 62
0
100
AcDbTrace
 10
0.0
 20
0.0
 11
-1.0
 21
0.3166666667
 12
-1.0
 22
-0.3166666667
 13
-1.0
 23
-0.3166666667
  0
ENDBLK
  5
22B
100
AcDbEntity
  8
0
  6
BYBLOCK
 62
0
100
AcDbBlockEnd
  0
BLOCK
  5
22C
100
AcDbEntity
  8
0
100
AcDbBlockBegin
 62
7
  6
CONTINUOUS
  2
*D0
 70
65
 10
0.0
 20
0.0
  3
*D0
  1

  0
MTEXT
  5
22D
100
AcDbEntity
  8
0
100
AcDbMText
 62
7
  6
CONTINUOUS
  7
STANDARD
 71
2
 72
1
 10
-0.3876831359
 20
34.1630922693
 30
0.0
 11
1.0
 21
0.0
 31
0.0
 44
0.9
  1
44,55
 40
3.0
 41
16.0714285714
  0
LINE
  5
22E
100
AcDbEntity
  8
0
100
AcDbLine
 62
7
  6
CONTINUOUS
 10
-22.6630532594
 20
13.6130922693
 11
-22.6630532594
 21
31.9130922693
  0
LINE
  5
22F
100
AcDbEntity
  8
0
100
AcDbLine
 62
7
  6
CONTINUOUS
 10
21.8876869876
 20
13.6130922693
 11
21.8876869876
 21
31.9130922693
  0
LINE
  5
230
100
AcDbEntity
  8
0
100
AcDbLine
 62
7
  6
CONTINUOUS
 10
-22.6630532594
 20
30.4130922693
 11
-0.3876831359
 21
30.4130922693
  0
LINE
  5
231
100
AcDbEntity
  8
0
100
AcDbLine
 62
7
  6
CONTINUOUS
 10
21.8876869876
 20
30.4130922693
 11
-0.3876831359
 21
30.4130922693
  0
INSERT
  5
232
100
AcDbEntity
  8
0
100
AcDbBlockReference
 62
7
  6
CONTINUOUS
  2
_FILLED
 10
-22.6630532594
 20
30.4130922693
 41
3.0
 42
3.0
 43
3.0
 50
180.0
  0
INSERT
  5
233
100
AcDbEntity
  8
0
100
AcDbBlockReference
 62
7
  6
CONTINUOUS
  2
_FILLED
 10
21.8876869876
 20
30.4130922693
 41
3.0
 42
3.0
 43
3.0
  0
ENDBLK
  5
234
100
AcDbEntity
  8
0
  6
BYBLOCK
 62
0
100
AcDbBlockEnd
  0
BLOCK
  5
235
100
AcDbEntity
  8
0
100
AcDbBlockBegin
 62
7
  6
CONTINUOUS
  2
*D1
 70
65
 10
0.0
 20
0.0
  3
*D1
  1

  0
MTEXT
  5
236
100
AcDbEntity
  8
0
100
AcDbMText
 62
7
  6
CONTINUOUS
  7
STANDARD
 71
2
 72
1
 10
26.2123168641
 20
0.0130922693
 30
0.0
 11
0.0
 21
1.0
 31
0.0
 44
0.9
  1
44,4
 40
3.0
 41
13.1785714286
  0
LINE
  5
237
100
AcDbEntity
  8
0
100
AcDbLine
 62
7
  6
CONTINUOUS
 10
21.8673326579
 20
22.2219651278
 11
31.4623168641
 21
22.2219651278
  0
LINE
  5
238
100
AcDbEntity
  8
0
100
AcDbLine
 62
7
  6
CONTINUOUS
 10
21.8673326579
 20
-22.1957805891
 11
31.4623168641
 21
-22.1957805891
  0
LINE
  5
239
100
AcDbEntity
  8
0
100
AcDbLine
 62
7
  6
CONTINUOUS
 10
29.9623168641
 20
22.2219651278
 11
29.9623168641
 21
0.0130922693
  0
LINE
  5
23A
100
AcDbEntity
  8
0
100
AcDbLine
 62
7
  6
CONTINUOUS
 10
29.9623168641
 20
-22.1957805891
 11
29.9623168641
 21
0.0130922693
  0
INSERT
  5
23B
100
AcDbEntity
  8
0
100
AcDbBlockReference
 62
7
  6
CONTINUOUS
  2
_FILLED
 10
29.9623168641
 20
22.2219651278
 41
3.0
 42
3.0
 43
3.0
 50
90.0
  0
INSERT
  5
23C
100
AcDbEntity
  8
0
100
AcDbBlockReference
 62
7
  6
CONTINUOUS
  2
_FILLED
 10
29.9623168641
 20
-22.1957805891
 41
3.0
 42
3.0
 43
3.0
 50
270.0
  0
ENDBLK
  5
23D
100
AcDbEntity
  8
0
  6
BYBLOCK
 62
0
100
AcDbBlockEnd
  0
BLOCK
  5
23E
100
AcDbEntity
  8
0
100
AcDbBlockBegin
 62
7
  6
CONTINUOUS
  2
*D2
 70
65
 10
0.0
 20
0.0
  3
*D2
  1

  0
MTEXT
  5
23F
100
AcDbEntity
  8
0
100
AcDbMText
 62
7
  6
CONTINUOUS
  7
STANDARD
 71
1
 72
1
 10
-37.5943980427
 20
34.1630922693
 30
0.0
 11
1.0
 21
0.0
 31
0.0
 44
0.9
  1
6,35
 40
3.0
 41
12.5357142857
  0
LINE
  5
240
100
AcDbEntity
  8
0
100
AcDbLine
 62
7
  6
CONTINUOUS
 10
-42.2573059539
 20
13.6130922693
 11
-42.2573059539
 21
31.9130922693
  0
LINE
  5
241
100
AcDbEntity
  8
0
100
AcDbLine
 62
7
  6
CONTINUOUS
 10
-48.6064352223
 20
1.2650962967
 11
-48.6064352223
 21
31.9130922693
  0
LINE
  5
242
100
AcDbEntity
  8
0
100
AcDbLine
 62
7
  6
CONTINUOUS
 10
-42.2573059539
 20
30.4130922693
 11
-29.2372551855
 21
30.4130922693
  0
LINE
  5
243
100
AcDbEntity
  8
0
100
AcDbLine
 62
7
  6
CONTINUOUS
 10
-29.2372551855
 20
30.4130922693
 11
-45.4318705881
 21
30.4130922693
  0
LINE
  5
244
100
AcDbEntity
  8
0
100
AcDbLine
 62
7
  6
CONTINUOUS
 10
-48.6064352223
 20
30.4130922693
 11
-52.6064352223
 21
30.4130922693
  0
LINE
  5
245
100
AcDbEntity
  8
0
100
AcDbLine
 62
7
  6
CONTINUOUS
 10
-52.6064352223
 20
30.4130922693
 11
-45.4318705881
 21
30.4130922693
  0
INSERT
  5
246
100
AcDbEntity
  8
0
100
AcDbBlockReference
 62
7
  6
CONTINUOUS
  2
_FILLED
 10
-42.2573059539
 20
30.4130922693
 41
3.0
 42
3.0
 43
3.0
 50
180.0
  0
INSERT
  5
247
100
AcDbEntity
  8
0
100
AcDbBlockReference
 62
7
  6
CONTINUOUS
  2
_FILLED
 10
-48.6064352223
 20
30.4130922693
 41
3.0
 42
3.0
 43
3.0
  0
ENDBLK
  5
248
100
AcDbEntity
  8
0
  6
BYBLOCK
 62
0
100
AcDbBlockEnd
  0
ENDSEC
  0
SECTION
  2
ENTITIES
  0
DIMENSION
  5
249
100
AcDbEntity
  8
0
100
AcDbDimension
 62
7
  6
CONTINUOUS
  2
*D0
 10
21.8876869876
 20
30.4130922693
 11
-0.8162544694
 21
30.4130922693
 70
160
 71
2
 42
44.5507402471
  3
DIMSTYLE_1
100
AcDbAlignedDimension
 13
-22.6630532594
 23
13.1130922693
 14
21.8876869876
 24
13.1130922693
100
AcDbRotatedDimension
  0
DIMENSION
  5
24A
100
AcDbEntity
  8
0
100
AcDbDimension
 62
7
  6
CONTINUOUS
  2
*D1
 10
29.9623168641
 20
-22.1957805891
 11
29.9623168641
 21
-0.4154786645
 70
160
 71
2
 42
44.4177457169
  3
DIMSTYLE_2
100
AcDbAlignedDimension
 13
21.3673326579
 23
22.2219651278
 14
21.3673326579
 24
-22.1957805891
 50
270.0
100
AcDbRotatedDimension
  0
DIMENSION
  5
24B
100
AcDbEntity
  8
0
100
AcDbDimension
 62
7
  6
CONTINUOUS
  2
*D2
 10
-48.6064352223
 20
30.4130922693
 11
-33.8443987541
 21
30.4130922693
 70
160
 71
1
 42
6.3491292685
  3
DIMSTYLE_1
100
AcDbAlignedDimension
 13
-42.2573059539
 23
13.1130922693
 14
-48.6064352223
 24
0.7650962967
 50
180.0
100
AcDbRotatedDimension
  0
LWPOLYLINE
  5
24C
100
AcDbEntity
  8
ASSI
100
AcDbPolyline
 62
253
  6
CONTINUOUS
 90
7
 70
0
 10
-22.0505205334
 20
22.0374818345
 10
-22.0515721592
 20
22.0300958813
 10
-22.0526656062
 20
22.0168201755
 10
-22.053772996
 20
21.9977233449
 10
-22.05484569
 20
21.9729036246
 10
-22.0558777517
 20
21.942486061
 10
-22.057907043
 20
21.8654810681
  0
LINE
  5
24D
100
AcDbEntity
  8
ASSI
100
AcDbLine
 62
7
  6
CONTINUOUS
 10
14.2563952339
 20
-22.1957805891
 11
14.6045818372
 21
-22.1641746687
  0
LWPOLYLINE
  5
24E
100
AcDbEntity
  8
ASSI
100
AcDbPolyline
 62
253
  6
CONTINUOUS
 90
16
 70
0
 10
21.2751542616
 20
-22.0112972958
 10
21.327355888
 20
-22.0084952506
 10
21.3789864995
 20
-22.0002626612
 10
21.4294813963
 20
-21.9866895909
 10
21.478288318
 20
-21.9679245065
 10
21.5248734396
 20
-21.9441726705
 10
21.5687272163
 20
-21.9156939103
 10
21.6093700206
 20
-21.8827997417
 10
21.6463573653
 20
-21.8458499573
 10
21.6792847289
 20
-21.8052487222
 10
21.7077920085
 20
-21.7614401308
 10
21.7315674607
 20
-21.7149033339
 10
21.7503510951
 20
-21.6661473089
 10
21.7639375116
 20
-21.6157053059
 10
21.7721781513
 20
-21.5641290167
 10
21.774982924
 20
-21.5119825285
  0
LWPOLYLINE
  5
24F
100
AcDbEntity
  8
ASSI
100
AcDbPolyline
 62
253
  6
CONTINUOUS
 90
16
 70
0
 10
-22.050520536
 20
-22.0112973012
 10
-22.1027215061
 20
-22.008495326
 10
-22.1543515476
 20
-22.0002629289
 10
-22.2048459765
 20
-21.9866901486
 10
-22.253652529
 20
-21.9679254325
 10
-22.3002374016
 20
-21.9441740124
 10
-22.3440910901
 20
-21.9156956606
 10
-22.384733961
 20
-21.8828018484
 10
-22.4217214983
 20
-21.8458523395
 10
-22.4546491648
 20
-21.8052512552
 10
-22.4831568264
 20
-21.7614426546
 10
-22.5069326914
 20
-21.7149056778
 10
-22.5257167202
 20
-21.6661493055
 10
-22.5393034696
 20
-21.6157067921
 10
-22.5475443395
 20
-21.5641298337
 10
-22.5503491985
 20
-21.5119825338
  0
LINE
  5
250
100
AcDbEntity
  8
ASSI
100
AcDbLine
 62
7
  6
CONTINUOUS
 10
-15.0317615057
 20
-22.1957805891
 11
-15.379948109
 21
-22.1641746687
  0
LWPOLYLINE
  5
251
100
AcDbEntity
  8
ASSI
100
AcDbPolyline
 62
253
  6
CONTINUOUS
 90
8
 70
0
 10
-22.0499554192
 20
0.3905916238
 10
-22.0463174297
 20
0.3574924627
 10
-22.0423877007
 20
0.3288495246
 10
-22.0387391753
 20
0.304926709
 10
-22.0344679995
 20
0.2858870078
 10
-22.0295764854
 20
0.2719878433
 10
-22.02503983
 20
0.2634416232
 10
-22.0213456517
 20
0.2602995024
  0
LWPOLYLINE
  5
252
100
AcDbEntity
  8
ASSI
100
AcDbPolyline
 62
253
  6
CONTINUOUS
 90
16
 70
0
 10
-22.5211743142
 20
0.760280464
 10
-22.5184887818
 20
0.7086345724
 10
-22.5104486232
 20
0.6573706133
 10
-22.497087025
 20
0.6070491192
 10
-22.4784731137
 20
0.5581768771
 10
-22.4547714953
 20
0.5113644218
 10
-22.4262959063
 20
0.467292268
 10
-22.3934010734
 20
0.426492207
 10
-22.3564172438
 20
0.3893589619
 10
-22.315739996
 20
0.3562931431
 10
-22.2718058889
 20
0.3276572116
 10
-22.225102665
 20
0.3037761069
 10
-22.1761559441
 20
0.2849211299
 10
-22.1255092346
 20
0.2713008942
 10
-22.0737157533
 20
0.2630634464
 10
-22.0213456518
 20
0.2602995024
  0
LWPOLYLINE
  5
253
100
AcDbEntity
  8
ASSI
100
AcDbPolyline
 62
253
  6
CONTINUOUS
 90
4
 70
0
 10
-22.0602580953
 20
0.5588524735
 10
-22.0584578514
 20
0.5121407671
 10
-22.055744504
 20
0.4681698682
 10
-22.0499554192
 20
0.3905916238
  0
LWPOLYLINE
  5
254
100
AcDbEntity
  8
ASSI
100
AcDbPolyline
 62
253
  6
CONTINUOUS
 90
6
 70
0
 10
-22.0558777412
 20
-21.9163015266
 10
-22.0548456818
 20
-21.9467190897
 10
-22.0537729902
 20
-21.9715388101
 10
-22.0526656031
 20
-21.9906356413
 10
-22.0515721589
 20
-22.0039113477
 10
-22.050520536
 20
-22.0112973012
  0
LINE
  5
255
100
AcDbEntity
  8
ASSI
100
AcDbLine
 62
253
  6
CONTINUOUS
 10
-22.5396670827
 20
21.38110928
 11
-22.537781395
 21
21.3135084721
  0
LINE
  5
256
100
AcDbEntity
  8
ASSI
100
AcDbLine
 62
253
  6
CONTINUOUS
 10
-22.0579070282
 20
-21.839296535
 11
-22.0558777412
 21
-21.9163015266
  0
LINE
  5
257
100
AcDbEntity
  8
ASSI
100
AcDbLine
 62
253
  6
CONTINUOUS
 10
-22.537781395
 20
21.3135084721
 11
-22.5361675733
 21
21.2367615214
  0
LINE
  5
258
100
AcDbEntity
  8
ASSI
100
AcDbLine
 62
253
  6
CONTINUOUS
 10
-22.0597807124
 20
-21.7420511908
 11
-22.0579070282
 21
-21.839296535
  0
LINE
  5
259
100
AcDbEntity
  8
ASSI
100
AcDbLine
 62
253
  6
CONTINUOUS
 10
-22.5361675733
 20
21.2367615214
 11
-22.5348492586
 21
21.1520093035
  0
LINE
  5
25A
100
AcDbEntity
  8
ASSI
100
AcDbLine
 62
253
  6
CONTINUOUS
 10
-22.062279997
 20
-21.5625793453
 11
-22.0597807124
 21
-21.7420511908
  0
LINE
  5
25B
100
AcDbEntity
  8
ASSI
100
AcDbLine
 62
253
  6
CONTINUOUS
 10
-22.5348492586
 20
21.1520093035
 11
-22.5334907788
 21
21.0140008229
  0
LINE
  5
25C
100
AcDbEntity
  8
ASSI
100
AcDbLine
 62
253
  6
CONTINUOUS
 10
-22.0648532451
 20
-21.2733913864
 11
-22.062279997
 21
-21.5625793453
  0
LWPOLYLINE
  5
25D
100
AcDbEntity
  8
ASSI
100
AcDbPolyline
 62
253
  6
CONTINUOUS
 90
3
 70
0
 10
-22.0639974207
 20
-0.7348628301
 10
-22.0642224063
 20
-0.6818742217
 10
-22.0633700694
 20
-0.630623697
  0
LINE
  5
25E
100
AcDbEntity
  8
ASSI
100
AcDbLine
 62
7
  6
CONTINUOUS
 10
-22.6433253513
 20
-21.6980624348
 11
-22.6630532594
 21
-13.0869077307
  0
LINE
  5
25F
100
AcDbEntity
  8
ASSI
100
AcDbLine
 62
253
  6
CONTINUOUS
 10
-22.0665807005
 20
-20.8641725165
 11
-22.0648532451
 21
-21.2733913864
  0
LINE
  5
260
100
AcDbEntity
  8
ASSI
100
AcDbLine
 62
253
  6
CONTINUOUS
 10
-22.5334907788
 20
21.0140008229
 11
-22.5329226829
 21
20.8689160984
  0
LINE
  5
261
100
AcDbEntity
  8
ASSI
100
AcDbLine
 62
253
  6
CONTINUOUS
 10
-22.5329226829
 20
20.8689160984
 11
-22.5234274597
 21
9.1809270458
  0
LINE
  5
262
100
AcDbEntity
  8
ASSI
100
AcDbLine
 62
7
  6
CONTINUOUS
 10
-22.6630532594
 20
13.1130922693
 11
-22.6630532594
 21
0.7129970871
  0
LINE
  5
263
100
AcDbEntity
  8
ASSI
100
AcDbLine
 62
7
  6
CONTINUOUS
 10
-22.6630532594
 20
-13.0869077307
 11
-22.6630532594
 21
-0.6868125485
  0
LINE
  5
264
100
AcDbEntity
  8
ASSI
100
AcDbLine
 62
253
  6
CONTINUOUS
 10
-22.5234274597
 20
9.1809270458
 11
-22.5211743142
 21
0.760280464
  0
LINE
  5
265
100
AcDbEntity
  8
ASSI
100
AcDbLine
 62
253
  6
CONTINUOUS
 10
-22.0639973807
 20
-0.7348628245
 11
-22.0665807337
 21
-20.864172522
  0
LINE
  5
266
100
AcDbEntity
  8
ASSI
100
AcDbLine
 62
253
  6
CONTINUOUS
 10
-22.5211743143
 20
-0.7340959253
 11
-22.5234213066
 21
-9.1460507613
  0
LINE
  5
267
100
AcDbEntity
  8
ASSI
100
AcDbLine
 62
253
  6
CONTINUOUS
 10
-22.5234213066
 20
-9.1460507613
 11
-22.5280596183
 21
-15.9152736725
  0
LINE
  5
268
100
AcDbEntity
  8
ASSI
100
AcDbLine
 62
7
  6
CONTINUOUS
 10
-22.6433253513
 20
21.7242469735
 11
-22.6630532594
 21
13.1130922693
  0
LINE
  5
269
100
AcDbEntity
  8
ASSI
100
AcDbLine
 62
253
  6
CONTINUOUS
 10
-22.0661073174
 20
21.0576994215
 11
-22.0639973807
 21
0.7610473519
  0
LINE
  5
26A
100
AcDbEntity
  8
ASSI
100
AcDbLine
 62
253
  6
CONTINUOUS
 10
-22.5280596183
 20
-15.9152736725
 11
-22.5332135956
 21
-20.9402409654
  0
LWPOLYLINE
  5
26B
100
AcDbEntity
  8
ASSI
100
AcDbPolyline
 62
253
  6
CONTINUOUS
 90
4
 70
0
 10
-22.0639974207
 20
0.7610473461
 10
-22.0642222769
 20
0.7080607385
 10
-22.0633700213
 20
0.6568118907
 10
-22.0602580953
 20
0.5588524735
  0
LINE
  5
26C
100
AcDbEntity
  8
ASSI
100
AcDbLine
 62
253
  6
CONTINUOUS
 10
-22.0636821154
 20
21.4501667593
 11
-22.0661073174
 21
21.0576994215
  0
LINE
  5
26D
100
AcDbEntity
  8
ASSI
100
AcDbLine
 62
253
  6
CONTINUOUS
 10
-22.5332135956
 20
-20.9402409654
 11
-22.5343130394
 21
-21.0811058147
  0
LINE
  5
26E
100
AcDbEntity
  8
ASSI
100
AcDbLine
 62
253
  6
CONTINUOUS
 10
-22.0614921026
 20
21.6526938793
 11
-22.0636821154
 21
21.4501667593
  0
LINE
  5
26F
100
AcDbEntity
  8
ASSI
100
AcDbLine
 62
253
  6
CONTINUOUS
 10
-22.5343130394
 20
-21.0811058147
 11
-22.5354678273
 21
-21.1689672207
  0
LINE
  5
270
100
AcDbEntity
  8
ASSI
100
AcDbLine
 62
253
  6
CONTINUOUS
 10
-22.0597807309
 20
21.768235723
 11
-22.0614921026
 21
21.6526938793
  0
LINE
  5
271
100
AcDbEntity
  8
ASSI
100
AcDbLine
 62
253
  6
CONTINUOUS
 10
-22.5354678273
 20
-21.1689672207
 11
-22.5369383883
 21
-21.2500391214
  0
LINE
  5
272
100
AcDbEntity
  8
ASSI
100
AcDbLine
 62
253
  6
CONTINUOUS
 10
-22.057907043
 20
21.8654810681
 11
-22.0597807309
 21
21.768235723
  0
LWPOLYLINE
  5
273
100
AcDbEntity
  8
ASSI
100
AcDbPolyline
 62
253
  6
CONTINUOUS
 90
12
 70
0
 10
-22.5369383883
 20
-21.2500391214
 10
-22.5386954707
 20
-21.3224611221
 10
-22.5396670855
 20
-21.3549247475
 10
-22.5406970978
 20
-21.3846731681
 10
-22.5417846519
 20
-21.4117480318
 10
-22.5429136591
 20
-21.4357483613
 10
-22.544085306
 20
-21.4566294095
 10
-22.545298406
 20
-21.4744359234
 10
-22.5465333101
 20
-21.4889011665
 10
-22.5477834687
 20
-21.4999362265
 10
-22.5490554315
 20
-21.5076300156
 10
-22.5503491985
 20
-21.5119825338
  0
LWPOLYLINE
  5
274
100
AcDbEntity
  8
ASSI
100
AcDbPolyline
 62
253
  6
CONTINUOUS
 90
4
 70
0
 10
-22.0633700694
 20
-0.630623697
 10
-22.0602578452
 20
-0.5326619383
 10
-22.0584575622
 20
-0.485949572
 10
-22.0557440774
 20
-0.441978455
  0
LWPOLYLINE
  5
275
100
AcDbEntity
  8
ASSI
100
AcDbPolyline
 62
253
  6
CONTINUOUS
 90
16
 70
0
 10
-22.5211743143
 20
-0.7340959253
 10
-22.5184887768
 20
-0.6824499858
 10
-22.5104486056
 20
-0.6311859911
 10
-22.4970869907
 20
-0.5808644742
 10
-22.4784730628
 20
-0.5319922233
 10
-22.454771431
 20
-0.4851797712
 10
-22.4262958328
 20
-0.4411076276
 10
-22.3934009974
 20
-0.4003075834
 10
-22.3564171728
 20
-0.3631743591
 10
-22.3157399322
 20
-0.3301085579
 10
-22.2718058306
 20
-0.3014726391
 10
-22.2251026128
 20
-0.2775915449
 10
-22.1761559005
 20
-0.258736577
 10
-22.1255092034
 20
-0.2451163488
 10
-22.0737157368
 20
-0.236878906
 10
-22.0213456518
 20
-0.2341149638
  0
LWPOLYLINE
  5
276
100
AcDbEntity
  8
ASSI
100
AcDbPolyline
 62
253
  6
CONTINUOUS
 90
9
 70
0
 10
-22.0557440774
 20
-0.441978455
 10
-22.0499548441
 20
-0.3644011458
 10
-22.0463168455
 20
-0.3313029114
 10
-22.0423870944
 20
-0.3026610882
 10
-22.0387386314
 20
-0.2787394515
 10
-22.034467576
 20
-0.2597008186
 10
-22.0295762086
 20
-0.2458025095
 10
-22.0250397078
 20
-0.2372568654
 10
-22.0213456517
 20
-0.2341149638
  0
LINE
  5
277
100
AcDbEntity
  8
ASSI
100
AcDbLine
 62
7
  6
CONTINUOUS
 10
3.0563952339
 20
-22.1957805891
 11
3.4045818372
 21
-22.1641746687
  0
LINE
  5
278
100
AcDbEntity
  8
ASSI
100
AcDbLine
 62
7
  6
CONTINUOUS
 10
-8.2436047661
 20
-22.1957805891
 11
-7.8954181628
 21
-22.1641746687
  0
LWPOLYLINE
  5
279
100
AcDbEntity
  8
ASSI
100
AcDbPolyline
 62
253
  6
CONTINUOUS
 90
14
 70
0
 10
21.3882186345
 20
-20.8633655517
 10
21.4350560702
 20
-20.8626595119
 10
21.4801741407
 20
-20.8617602519
 10
21.5231353837
 20
-20.8606764908
 10
21.5635232495
 20
-20.8594187366
 10
21.6009461397
 20
-20.8579991846
 10
21.635041204
 20
-20.8564315985
 10
21.6654778587
 20
-20.8547311776
 10
21.6919609918
 20
-20.8529144091
 10
21.7142338242
 20
-20.8509989082
 10
21.7320804
 20
-20.8490032475
 10
21.7453276796
 20
-20.8469467769
 10
21.7538472183
 20
-20.8448494358
 10
21.757556411
 20
-20.8427315598
  0
LINE
  5
27A
100
AcDbEntity
  8
ASSI
100
AcDbLine
 62
253
  6
CONTINUOUS
 10
21.2912144672
 20
-20.8641725273
 11
21.3882186345
 21
-20.8633655517
  0
LINE
  5
27B
100
AcDbEntity
  8
ASSI
100
AcDbLine
 62
253
  6
CONTINUOUS
 10
-22.050520536
 20
-22.0112973012
 11
-18.7962711159
 21
-22.0015509131
  0
LINE
  5
27C
100
AcDbEntity
  8
ASSI
100
AcDbLine
 62
253
  6
CONTINUOUS
 10
-18.7962711159
 20
-22.0015509131
 11
-15.3966562425
 21
-21.9952283557
  0
LINE
  5
27D
100
AcDbEntity
  8
ASSI
100
AcDbLine
 62
253
  6
CONTINUOUS
 10
-15.3966562425
 20
-21.9952283557
 11
-11.6376445322
 21
-21.9928216587
  0
LINE
  5
27E
100
AcDbEntity
  8
ASSI
100
AcDbLine
 62
253
  6
CONTINUOUS
 10
-22.0665807337
 20
-20.864172522
 11
-12.9323866462
 21
-20.8572169477
  0
LINE
  5
27F
100
AcDbEntity
  8
ASSI
100
AcDbLine
 62
7
  6
CONTINUOUS
 10
-22.1426989297
 20
-22.1957805891
 11
-19.4436047661
 21
-22.1957805891
  0
LINE
  5
280
100
AcDbEntity
  8
ASSI
100
AcDbLine
 62
7
  6
CONTINUOUS
 10
-15.0317615057
 20
-22.1957805891
 11
-8.2436047661
 21
-22.1957805891
  0
LINE
  5
281
100
AcDbEntity
  8
ASSI
100
AcDbLine
 62
7
  6
CONTINUOUS
 10
-3.8317615057
 20
-22.1957805891
 11
3.0563952339
 21
-22.1957805891
  0
LINE
  5
282
100
AcDbEntity
  8
ASSI
100
AcDbLine
 62
7
  6
CONTINUOUS
 10
7.4682384943
 20
-22.1957805891
 11
14.2563952339
 21
-22.1957805891
  0
LINE
  5
283
100
AcDbEntity
  8
ASSI
100
AcDbLine
 62
7
  6
CONTINUOUS
 10
18.6682384943
 20
-22.1957805891
 11
21.3673326579
 21
-22.1957805891
  0
LINE
  5
284
100
AcDbEntity
  8
ASSI
100
AcDbLine
 62
7
  6
CONTINUOUS
 10
3.5777869179
 20
-22.1589338908
 11
6.9468468103
 21
-22.1589338908
  0
LINE
  5
285
100
AcDbEntity
  8
ASSI
100
AcDbLine
 62
7
  6
CONTINUOUS
 10
-4.3531531897
 20
-22.1589338908
 11
-7.7222130821
 21
-22.1589338908
  0
LINE
  5
286
100
AcDbEntity
  8
ASSI
100
AcDbLine
 62
7
  6
CONTINUOUS
 10
14.7777869179
 20
-22.1589338908
 11
18.1468468103
 21
-22.1589338908
  0
LINE
  5
287
100
AcDbEntity
  8
ASSI
100
AcDbLine
 62
7
  6
CONTINUOUS
 10
-15.5531531897
 20
-22.1589338908
 11
-18.9222130821
 21
-22.1589338908
  0
LINE
  5
288
100
AcDbEntity
  8
ASSI
100
AcDbLine
 62
253
  6
CONTINUOUS
 10
-11.6376445322
 20
-21.9928216587
 11
13.533474079
 21
-21.9940370188
  0
LINE
  5
289
100
AcDbEntity
  8
ASSI
100
AcDbLine
 62
253
  6
CONTINUOUS
 10
-12.9323866462
 20
-20.8572169477
 11
16.093907026
 21
-20.8588560261
  0
LINE
  5
28A
100
AcDbEntity
  8
ASSI
100
AcDbLine
 62
253
  6
CONTINUOUS
 10
16.093907026
 20
-20.8588560261
 11
21.2912144673
 21
-20.8641725177
  0
LINE
  5
28B
100
AcDbEntity
  8
ASSI
100
AcDbLine
 62
253
  6
CONTINUOUS
 10
13.533474079
 20
-21.9940370188
 11
16.9245848896
 21
-21.999074359
  0
LWPOLYLINE
  5
28C
100
AcDbEntity
  8
ASSI
100
AcDbPolyline
 62
253
  6
CONTINUOUS
 90
3
 70
0
 10
16.9245848896
 20
-21.999074359
 10
20.3772725402
 20
-22.0082662921
 10
21.2751542616
 20
-22.0112972958
  0
LWPOLYLINE
  5
28D
100
AcDbEntity
  8
ASSI
100
AcDbPolyline
 62
253
  6
CONTINUOUS
 90
15
 70
0
 10
-22.0665798438
 20
-20.8641719841
 10
-22.1635831017
 20
-20.8633650346
 10
-22.2104201432
 20
-20.8626590167
 10
-22.2555378771
 20
-20.8617597842
 10
-22.2984988532
 20
-20.8606760557
 10
-22.3388865325
 20
-20.8594183383
 10
-22.3763093263
 20
-20.8579988267
 10
-22.4104043924
 20
-20.856431284
 10
-22.4408411537
 20
-20.8547309088
 10
-22.4673245028
 20
-20.8529141875
 10
-22.489597664
 20
-20.8509987345
 10
-22.5074446821
 20
-20.8490031216
 10
-22.520692517
 20
-20.8469466978
 10
-22.529212721
 20
-20.8448494016
 10
-22.5329226842
 20
-20.8427315679
  0
LINE
  5
28E
100
AcDbEntity
  8
ASSI
100
AcDbLine
 62
7
  6
CONTINUOUS
 10
-3.8317615057
 20
-22.1957805891
 11
-4.179948109
 21
-22.1641746687
  0
LINE
  5
28F
100
AcDbEntity
  8
ASSI
100
AcDbLine
 62
7
  6
CONTINUOUS
 10
7.4682384943
 20
-22.1957805891
 11
7.120051891
 21
-22.1641746687
  0
LWPOLYLINE
  5
290
100
AcDbEntity
  8
0
100
AcDbPolyline
 62
253
  6
CONTINUOUS
 90
37
 70
0
 10
-13.7744693477
 20
13.6428758246
 10
-13.7703602298
 20
13.6468626825
 10
-13.7661669089
 20
13.6507373636
 10
-13.7618903527
 20
13.6545024493
 10
-13.757531529
 20
13.6581605214
 10
-13.7530914055
 20
13.6617141614
 10
-13.74857095
 20
13.6651659508
 10
-13.7439711302
 20
13.6685184714
 10
-13.7392933339
 20
13.671773661
 10
-13.7345406294
 20
13.6749308827
 10
-13.7297165049
 20
13.677988856
 10
-13.7248244486
 20
13.6809463003
 10
-13.7198679488
 20
13.6838019352
 10
-13.7148504937
 20
13.68655448
 10
-13.7097755717
 20
13.6892026543
 10
-13.7046463913
 20
13.6917452218
 10
-13.6994650428
 20
13.694181124
 10
-13.6942333367
 20
13.6965093467
 10
-13.6889530836
 20
13.6987288757
 10
-13.6836260941
 20
13.7008386969
 10
-13.6782541787
 20
13.702837796
 10
-13.6728391479
 20
13.7047251589
 10
-13.6673828794
 20
13.7064995811
 10
-13.6618875188
 20
13.7081590962
 10
-13.6563552786
 20
13.7097015478
 10
-13.6507883716
 20
13.7111247793
 10
-13.6451890102
 20
13.7124266341
 10
-13.6395594072
 20
13.7136049556
 10
-13.6339017751
 20
13.7146575872
 10
-13.6289297622
 20
13.7154736514
 10
-13.6239374765
 20
13.7161892588
 10
-13.6189244107
 20
13.7168018354
 10
-13.6138900576
 20
13.7173088069
 10
-13.6088339102
 20
13.7177075992
 10
-13.6037554612
 20
13.7179956379
 10
-13.5986542036
 20
13.7181703489
 10
-13.59352963
 20
13.7182291579
  0
LINE
  5
291
100
AcDbEntity
  8
ASSI
100
AcDbLine
 62
7
  6
CONTINUOUS
 10
-19.4436047661
 20
-22.1957805891
 11
-19.0954181628
 21
-22.1641746687
  0
LINE
  5
292
100
AcDbEntity
  8
ASSI
100
AcDbLine
 62
7
  6
CONTINUOUS
 10
18.6682384943
 20
-22.1957805891
 11
18.320051891
 21
-22.1641746687
  0
LWPOLYLINE
  5
293
100
AcDbEntity
  8
0
100
AcDbPolyline
 62
253
  6
CONTINUOUS
 90
53
 70
0
 10
-12.655317154
 20
12.5235472138
 10
-12.6608816502
 20
12.5181703032
 10
-12.6665685582
 20
12.5130190728
 10
-12.6723886927
 20
12.508077165
 10
-12.6783528681
 20
12.5033282223
 10
-12.6844718989
 20
12.498755887
 10
-12.6907545314
 20
12.4943472828
 10
-12.6972012389
 20
12.4901034572
 10
-12.7038104267
 20
12.4860289391
 10
-12.7105804998
 20
12.4821282573
 10
-12.7175098635
 20
12.4784059405
 10
-12.7245957932
 20
12.4748671347
 10
-12.7318310465
 20
12.4715194536
 10
-12.739207251
 20
12.4683711282
 10
-12.7467160347
 20
12.4654303893
 10
-12.7543490252
 20
12.4627054679
 10
-12.7607962411
 20
12.4606057804
 10
-12.7673043546
 20
12.4586681349
 10
-12.7738538224
 20
12.4568989844
 10
-12.7804304358
 20
12.455303569
 10
-12.7870413238
 20
12.4538822785
 10
-12.7936989498
 20
12.4526342902
 10
-12.801761149
 20
12.4513659009
 10
-12.8098929662
 20
12.4503540388
 10
-12.8180787694
 20
12.4496068608
 10
-12.8263029267
 20
12.4491325239
 10
-12.8345498058
 20
12.4489391851
 10
-12.8428042287
 20
12.4490326706
 10
-12.8510528321
 20
12.4494094833
 10
-12.8592827066
 20
12.4500637952
 10
-12.867480943
 20
12.4509897784
 10
-12.8756346319
 20
12.4521816052
 10
-12.8823893396
 20
12.4533745928
 10
-12.8891165346
 20
12.4547503445
 10
-12.8958286048
 20
12.4563110582
 10
-12.9025314715
 20
12.4580573314
 10
-12.9092051899
 20
12.4599833609
 10
-12.9158233483
 20
12.4620817434
 10
-12.9236603016
 20
12.464817217
 10
-12.9313677146
 20
12.4677794196
 10
-12.9389340858
 20
12.470957553
 10
-12.9463479139
 20
12.4743408186
 10
-12.9535976973
 20
12.4779184181
 10
-12.960674025
 20
12.4816806575
 10
-12.9675758472
 20
12.4856222605
 10
-12.9743042044
 20
12.4897390551
 10
-12.9808601371
 20
12.4940268697
 10
-12.9872446859
 20
12.4984815322
 10
-12.9934605771
 20
12.5031023561
 10
-12.9995172802
 20
12.5079025962
 10
-13.0054259501
 20
12.5128989925
 10
-13.0111977421
 20
12.5181082851
 10
-13.0168438114
 20
12.5235472138
  0
LWPOLYLINE
  5
294
100
AcDbEntity
  8
0
100
AcDbPolyline
 62
253
  6
CONTINUOUS
 90
53
 70
0
 10
-13.5294013048
 20
-12.5722928116
 10
-13.5331682474
 20
-12.5655041037
 10
-13.536685215
 20
-12.5586559893
 10
-13.5399652638
 20
-12.5517336438
 10
-13.54302145
 20
-12.5447222428
 10
-13.54586683
 20
-12.5376069617
 10
-13.5485116113
 20
-12.5303758893
 10
-13.5509546061
 20
-12.5230287677
 10
-13.5531917784
 20
-12.5155682521
 10
-13.5552190917
 20
-12.5079969977
 10
-13.5570325097
 20
-12.5003176599
 10
-13.5586276838
 20
-12.492534175
 10
-13.5599990152
 20
-12.4846556046
 10
-13.561140593
 20
-12.4766922913
 10
-13.5620465059
 20
-12.4686545779
 10
-13.562710843
 20
-12.4605528068
 10
-13.563076025
 20
-12.4537623296
 10
-13.5632681373
 20
-12.4469553541
 10
-13.563285976
 20
-12.4401526841
 10
-13.5631281324
 20
-12.4333695964
 10
-13.5627923781
 20
-12.4265992608
 10
-13.5622762799
 20
-12.4198293199
 10
-13.561415539
 20
-12.4116949431
 10
-13.5602877362
 20
-12.4035605666
 10
-13.5588890092
 20
-12.3954434165
 10
-13.5572154953
 20
-12.3873607189
 10
-13.5552633318
 20
-12.3793297
 10
-13.5530308273
 20
-12.3713665606
 10
-13.5505249737
 20
-12.3634834003
 10
-13.547754934
 20
-12.3556912935
 10
-13.5447298711
 20
-12.3480013144
 10
-13.541458948
 20
-12.3404245374
 10
-13.5385502079
 20
-12.3342020366
 10
-13.5354717682
 20
-12.3280543475
 10
-13.5322183022
 20
-12.3219699788
 10
-13.5287877138
 20
-12.3159432883
 10
-13.5251908278
 20
-12.3099920308
 10
-13.5214416996
 20
-12.3041398104
 10
-13.516759773
 20
-12.2972756951
 10
-13.5118923275
 20
-12.2905964848
 10
-13.5068528333
 20
-12.2841104813
 10
-13.5016547606
 20
-12.2778259864
 10
-13.4963115798
 20
-12.2717513018
 10
-13.4908351524
 20
-12.2658929993
 10
-13.4852309055
 20
-12.2602507301
 10
-13.4795026574
 20
-12.2548224154
 10
-13.4736542265
 20
-12.2496059763
 10
-13.4676894311
 20
-12.244599334
 10
-13.4616082532
 20
-12.2397996785
 10
-13.4553953294
 20
-12.2352012753
 10
-13.44903146
 20
-12.2307976587
 10
-13.4424974451
 20
-12.2265823631
 10
-13.435774085
 20
-12.2225489228
  0
LINE
  5
295
100
AcDbEntity
  8
0
100
AcDbLine
 62
253
  6
CONTINUOUS
 10
-9.5468158444
 20
13.281666658
 11
-10.3043002695
 21
12.5235472138
  0
LINE
  5
296
100
AcDbEntity
  8
0
100
AcDbLine
 62
253
  6
CONTINUOUS
 10
-10.666144427
 20
12.8854266581
 11
-9.9088011129
 21
13.6428758246
  0
LINE
  5
297
100
AcDbEntity
  8
0
100
AcDbLine
 62
253
  6
CONTINUOUS
 10
-12.655317154
 20
10.1727066588
 11
-13.4128015791
 21
9.4155397146
  0
LINE
  5
298
100
AcDbEntity
  8
0
100
AcDbLine
 62
253
  6
CONTINUOUS
 10
-13.7744693477
 20
9.7773838811
 11
-13.0168438114
 21
10.5345508254
  0
LWPOLYLINE
  5
299
100
AcDbEntity
  8
0
100
AcDbPolyline
 62
253
  6
CONTINUOUS
 90
37
 70
0
 10
-13.0168438114
 20
10.5345508254
 10
-13.0127665565
 20
10.5385770365
 10
-13.0086019293
 20
10.5424878468
 10
-13.0043510132
 20
10.5462860484
 10
-13.0000148913
 20
10.5499744331
 10
-12.995594647
 20
10.5535557928
 10
-12.9910913635
 20
10.5570329194
 10
-12.9865061241
 20
10.5604086047
 10
-12.9818404772
 20
10.5636849596
 10
-12.9770978323
 20
10.5668613705
 10
-12.9722820639
 20
10.5699365427
 10
-12.9673970464
 20
10.5729091815
 10
-12.9624466546
 20
10.5757779923
 10
-12.9574347628
 20
10.5785416803
 10
-12.9523652456
 20
10.5811989509
 10
-12.9472416287
 20
10.5837485931
 10
-12.9420660415
 20
10.5861897306
 10
-12.9368402649
 20
10.5885215705
 10
-12.9315660792
 20
10.5907433203
 10
-12.9262452653
 20
10.5928541873
 10
-12.9208796037
 20
10.5948533787
 10
-12.9154708751
 20
10.5967401018
 10
-12.910020935
 20
10.5985133526
 10
-12.9045319383
 20
10.6001712811
 10
-12.899006115
 20
10.6017118261
 10
-12.8934456949
 20
10.6031329263
 10
-12.8878529081
 20
10.6044325203
 10
-12.8822299843
 20
10.6056085468
 10
-12.8765791535
 20
10.6066589446
 10
-12.8716132028
 20
10.6074731735
 10
-12.8666270818
 20
10.6081870948
 10
-12.8616202791
 20
10.6087981639
 10
-12.8565922833
 20
10.609303836
 10
-12.8515425832
 20
10.6097015663
 10
-12.8464706675
 20
10.60998881
 10
-12.8413760248
 20
10.6101630224
 10
-12.8362581437
 20
10.6102216587
  0
LWPOLYLINE
  5
29A
100
AcDbEntity
  8
0
100
AcDbPolyline
 62
253
  6
CONTINUOUS
 90
37
 70
0
 10
-10.666144427
 20
10.5345508254
 10
-10.6620629695
 20
10.5385809511
 10
-10.6578939003
 20
10.5424952543
 10
-10.6536383103
 20
10.5462965481
 10
-10.6492972903
 20
10.5499876457
 10
-10.6448719311
 20
10.5535713602
 10
-10.6403633237
 20
10.5570505047
 10
-10.6357725589
 20
10.5604278923
 10
-10.631101199
 20
10.5637056522
 10
-10.6263526924
 20
10.5668831771
 10
-10.621530959
 20
10.5699591759
 10
-10.6166399185
 20
10.5729323575
 10
-10.6116834909
 20
10.5758014306
 10
-10.606665596
 20
10.5785651042
 10
-10.6015901537
 20
10.581222087
 10
-10.5964607261
 20
10.5837711765
 10
-10.5912794453
 20
10.5862115244
 10
-10.5860480855
 20
10.5885423708
 10
-10.580768421
 20
10.5907629561
 10
-10.5754422261
 20
10.5928725205
 10
-10.5700712751
 20
10.5948703043
 10
-10.5646573424
 20
10.5967555477
 10
-10.5592022786
 20
10.5985272775
 10
-10.5537082401
 20
10.6001836662
 10
-10.5481774596
 20
10.6017226731
 10
-10.5426121699
 20
10.6031422573
 10
-10.5370146037
 20
10.6044403778
 10
-10.5313869938
 20
10.6056149938
 10
-10.5257315729
 20
10.6066640644
 10
-10.5207616864
 20
10.6074772166
 10
-10.5157717041
 20
10.6081901558
 10
-10.5107611134
 20
10.6088003525
 10
-10.505729402
 20
10.609305277
 10
-10.5006760572
 20
10.6097023995
 10
-10.4956005666
 20
10.6099891904
 10
-10.4905024178
 20
10.61016312
 10
-10.4853810982
 20
10.6102216587
  0
LWPOLYLINE
  5
29B
100
AcDbEntity
  8
0
100
AcDbPolyline
 62
253
  6
CONTINUOUS
 90
36
 70
0
 10
-9.9088011129
 20
13.6428758246
 10
-9.9047040492
 20
13.6468853756
 10
-9.9005206916
 20
13.650780152
 10
-9.8962520822
 20
13.654562897
 10
-9.8918992633
 20
13.6582363535
 10
-9.8874632771
 20
13.6618032646
 10
-9.8829451657
 20
13.6652663735
 10
-9.8783459713
 20
13.6686284232
 10
-9.8736671974
 20
13.6718914868
 10
-9.8689121917
 20
13.675054957
 10
-9.8640847633
 20
13.6781175565
 10
-9.8591887211
 20
13.681078008
 10
-9.8542278741
 20
13.6839350342
 10
-9.8492060314
 20
13.6866873579
 10
-9.8441270019
 20
13.6893337017
 10
-9.8389942552
 20
13.6918728672
 10
-9.8338099039
 20
13.694303971
 10
-9.8285757207
 20
13.6966262085
 10
-9.8232934789
 20
13.6988387753
 10
-9.8179649513
 20
13.7009408668
 10
-9.8125919111
 20
13.7029316785
 10
-9.8071761311
 20
13.7048104059
 10
-9.80171946
 20
13.7065760377
 10
-9.7962240479
 20
13.7082267368
 10
-9.7906921208
 20
13.7097604592
 10
-9.7851259043
 20
13.711175161
 10
-9.7795276242
 20
13.7124687983
 10
-9.7738995064
 20
13.7136393272
 10
-9.7682437766
 20
13.7146847039
 10
-9.7625621626
 20
13.7156026008
 10
-9.7568544
 20
13.7163895569
 10
-9.7511197263
 20
13.7170418273
 10
-9.7453573792
 20
13.7175556674
 10
-9.7395665962
 20
13.7179273323
 10
-9.733746615
 20
13.7181530774
 10
-9.7278966731
 20
13.7182291579
  0
LWPOLYLINE
  5
29C
100
AcDbEntity
  8
0
100
AcDbPolyline
 62
253
  6
CONTINUOUS
 90
53
 70
0
 10
-13.4128015791
 20
9.4155397146
 10
-13.4183608947
 20
9.4101542622
 10
-13.424042674
 20
9.4049942626
 10
-13.4298578423
 20
9.4000432594
 10
-13.4358173246
 20
9.3952847964
 10
-13.4419320462
 20
9.3907024174
 10
-13.4482108433
 20
9.3862831772
 10
-13.4546541964
 20
9.3820281757
 10
-13.461260497
 20
9.3779420242
 10
-13.4680281368
 20
9.3740293337
 10
-13.4749555073
 20
9.3702947154
 10
-13.4820398764
 20
9.3667433967
 10
-13.4892740174
 20
9.3633830705
 10
-13.4966495799
 20
9.3602220457
 10
-13.5041582134
 20
9.3572686315
 10
-13.5117915677
 20
9.3545311371
 10
-13.5182394948
 20
9.352421112
 10
-13.5247487034
 20
9.3504733321
 10
-13.531299662
 20
9.3486943281
 10
-13.5378781907
 20
9.3470894081
 10
-13.5444915151
 20
9.3456589899
 10
-13.551152212
 20
9.3444022685
 10
-13.5592190362
 20
9.3431239766
 10
-13.5673564085
 20
9.3421030212
 10
-13.5755485501
 20
9.3413477746
 10
-13.583779682
 20
9.3408666089
 10
-13.5920340253
 20
9.3406678964
 10
-13.6002962693
 20
9.3407576401
 10
-13.608552976
 20
9.3411323667
 10
-13.6167911752
 20
9.3417862339
 10
-13.6249978971
 20
9.3427133991
 10
-13.6331601717
 20
9.3439080201
 10
-13.6399220883
 20
9.3451045574
 10
-13.6466566129
 20
9.3464849601
 10
-13.6533762267
 20
9.3480514174
 10
-13.6600868919
 20
9.3498045047
 10
-13.6667684962
 20
9.3517383402
 10
-13.6733944081
 20
9.3538454281
 10
-13.6812402309
 20
9.3565924061
 10
-13.6889559239
 20
9.3595671221
 10
-13.6965299034
 20
9.3627586246
 10
-13.7039505857
 20
9.3661559621
 10
-13.711206387
 20
9.3697481833
 10
-13.7182878333
 20
9.3735254559
 10
-13.7251938894
 20
9.3774824246
 10
-13.7319256297
 20
9.3816148535
 10
-13.7384841286
 20
9.3859185066
 10
-13.7448704606
 20
9.3903891478
 10
-13.7510873972
 20
9.3950260675
 10
-13.7571444978
 20
9.3998426617
 10
-13.7630530188
 20
9.4048558528
 10
-13.7688242166
 20
9.4100825629
 10
-13.7744693477
 20
9.4155397146
  0
LWPOLYLINE
  5
29D
100
AcDbEntity
  8
0
100
AcDbPolyline
 62
253
  6
CONTINUOUS
 90
53
 70
0
 10
-10.3043002695
 20
12.5235472138
 10
-10.3099045733
 20
12.5181630804
 10
-10.3156298824
 20
12.5130049224
 10
-10.3214871096
 20
12.5080564241
 10
-10.3274871671
 20
12.5033012699
 10
-10.3336409677
 20
12.4987231442
 10
-10.3399573636
 20
12.4943092043
 10
-10.3464369671
 20
12.4900604994
 10
-10.35307833
 20
12.4859815516
 10
-10.3598800044
 20
12.4820768831
 10
-10.3668405424
 20
12.478351016
 10
-10.3739573151
 20
12.474809115
 10
-10.3812229712
 20
12.471458915
 10
-10.3886289785
 20
12.4683087934
 10
-10.3961668049
 20
12.4653671274
 10
-10.4038279181
 20
12.4626422945
 10
-10.4102977059
 20
12.4605435553
 10
-10.4168272761
 20
12.458607709
 10
-10.42339672
 20
12.456841252
 10
-10.4299915224
 20
12.4552494495
 10
-10.4366187397
 20
12.4538326396
 10
-10.4432908218
 20
12.452589929
 10
-10.4513679184
 20
12.4513288131
 10
-10.4595121466
 20
12.45032507
 10
-10.4677081052
 20
12.4495866561
 10
-10.4759403931
 20
12.4491215275
 10
-10.4841936093
 20
12.4489376405
 10
-10.4924527427
 20
12.4490406227
 10
-10.5007043428
 20
12.449426787
 10
-10.508935349
 20
12.4500901178
 10
-10.5171327009
 20
12.4510245994
 10
-10.5252833379
 20
12.4522242161
 10
-10.532033749
 20
12.4534230248
 10
-10.538755017
 20
12.4548039022
 10
-10.5454595095
 20
12.4563689732
 10
-10.5521531825
 20
12.4581187772
 10
-10.5588163453
 20
12.4600475138
 10
-10.5654228955
 20
12.4621477971
 10
-10.5732448974
 20
12.464884523
 10
-10.5809364184
 20
12.4678469377
 10
-10.5884860869
 20
12.471024338
 10
-10.5958825314
 20
12.474406021
 10
-10.6031143804
 20
12.4779812833
 10
-10.6101723164
 20
12.4817405076
 10
-10.6170552387
 20
12.4856784185
 10
-10.6237641007
 20
12.4897908265
 10
-10.6302998558
 20
12.494073542
 10
-10.6366634573
 20
12.4985223754
 10
-10.6428575538
 20
12.5031366214
 10
-10.6488915746
 20
12.507929512
 10
-10.6547766441
 20
12.5129177634
 10
-10.6605238868
 20
12.5181180919
 10
-10.666144427
 20
12.5235472138
  0
LINE
  5
29E
100
AcDbEntity
  8
0
100
AcDbLine
 62
253
  6
CONTINUOUS
 10
-12.9745272281
 20
-11.0082893208
 11
-13.435774085
 21
-10.7426461454
  0
LINE
  5
29F
100
AcDbEntity
  8
0
100
AcDbLine
 62
253
  6
CONTINUOUS
 10
-10.3058944426
 20
-11.9589886451
 11
-9.8485180654
 21
-12.2225489228
  0
LINE
  5
2A0
100
AcDbEntity
  8
0
100
AcDbLine
 62
253
  6
CONTINUOUS
 10
-13.1797985359
 20
-10.2992397566
 11
-12.7229513254
 21
-10.5633997565
  0
LINE
  5
2A1
100
AcDbEntity
  8
0
100
AcDbLine
 62
253
  6
CONTINUOUS
 10
-10.1046347255
 20
-12.6659200338
 11
-10.561340825
 21
-12.4017600339
  0
LWPOLYLINE
  5
2A2
100
AcDbEntity
  8
0
100
AcDbPolyline
 62
253
  6
CONTINUOUS
 90
53
 70
0
 10
-10.561340825
 20
-12.4017600339
 10
-10.5680080102
 20
-12.397801708
 10
-10.5744875323
 20
-12.3936645146
 10
-10.5807982798
 20
-12.3893423275
 10
-10.5869591409
 20
-12.3848290205
 10
-10.592989004
 20
-12.3801184673
 10
-10.598902806
 20
-12.3752056213
 10
-10.6046996778
 20
-12.3700897534
 10
-10.6103747992
 20
-12.3647712141
 10
-10.6159233496
 20
-12.3592503538
 10
-10.6213405087
 20
-12.3535275231
 10
-10.6266205469
 20
-12.3476040193
 10
-10.6317540979
 20
-12.3414849281
 10
-10.6367308864
 20
-12.3351762821
 10
-10.6415406371
 20
-12.3286841141
 10
-10.6461730745
 20
-12.3220144566
 10
-10.6498896562
 20
-12.3163275082
 10
-10.6534644894
 20
-12.31053896
 10
-10.6568860951
 20
-12.3046662797
 10
-10.6601455935
 20
-12.2987220308
 10
-10.6632444991
 20
-12.2926991615
 10
-10.6661869253
 20
-12.2865857164
 10
-10.6695138838
 20
-12.2791188167
 10
-10.6726093923
 20
-12.2715173823
 10
-10.6754614079
 20
-12.2637945239
 10
-10.6780578877
 20
-12.2559633521
 10
-10.6803867888
 20
-12.2480369776
 10
-10.6824384703
 20
-12.2400286952
 10
-10.6842128988
 20
-12.2319525356
 10
-10.6857124431
 20
-12.2238227135
 10
-10.6869394717
 20
-12.2156534436
 10
-10.6878963534
 20
-12.2074589407
 10
-10.6884890568
 20
-12.2006176817
 10
-10.6888969068
 20
-12.193756078
 10
-10.689121007
 20
-12.1868614365
 10
-10.6891623357
 20
-12.1799277923
 10
-10.6890213692
 20
-12.1729760938
 10
-10.6886984584
 20
-12.1660340175
 10
-10.6880724525
 20
-12.1577495621
 10
-10.6871925157
 20
-12.1495328384
 10
-10.6860662118
 20
-12.1413978675
 10
-10.6847011045
 20
-12.1333586708
 10
-10.6831047575
 20
-12.1254292695
 10
-10.6812841995
 20
-12.1176213602
 10
-10.6792443187
 20
-12.1099373415
 10
-10.6769894685
 20
-12.1023772874
 10
-10.6745240019
 20
-12.0949412716
 10
-10.6718522724
 20
-12.0876293683
 10
-10.6689756543
 20
-12.0804391052
 10
-10.6658836078
 20
-12.0733578259
 10
-10.6625626143
 20
-12.0663703281
 10
-10.658999155
 20
-12.0594614094
 10
-10.6551797115
 20
-12.0526158673
  0
LWPOLYLINE
  5
2A3
100
AcDbEntity
  8
0
100
AcDbPolyline
 62
253
  6
CONTINUOUS
 90
53
 70
0
 10
-9.8485180654
 20
-12.2225489228
 10
-9.8418832368
 20
-12.2265332989
 10
-9.8354344814
 20
-12.2306944762
 10
-9.829153199
 20
-12.2350386935
 10
-9.8230207899
 20
-12.2395721894
 10
-9.817018654
 20
-12.2443012028
 10
-9.8111320937
 20
-12.2492308677
 10
-9.8053620209
 20
-12.2543618992
 10
-9.7997132498
 20
-12.2596939078
 10
-9.7941905949
 20
-12.265226504
 10
-9.7887988702
 20
-12.2709592982
 10
-9.7835437693
 20
-12.2768909795
 10
-9.7784345019
 20
-12.283016551
 10
-9.7734811571
 20
-12.2893300942
 10
-9.7686938239
 20
-12.2958256908
 10
-9.7640825913
 20
-12.3024974225
 10
-9.7603826027
 20
-12.3081851937
 10
-9.7568231824
 20
-12.3139740474
 10
-9.7534156005
 20
-12.3198468602
 10
-9.7501685803
 20
-12.3257913423
 10
-9.7470806595
 20
-12.3318145381
 10
-9.7441478289
 20
-12.3379283257
 10
-9.740830669
 20
-12.3453955785
 10
-9.7377431122
 20
-12.3529973259
 10
-9.7348972043
 20
-12.360720506
 10
-9.7323049912
 20
-12.3685520568
 10
-9.729978519
 20
-12.3764789164
 10
-9.7279274524
 20
-12.3844878753
 10
-9.7261519321
 20
-12.3925651342
 10
-9.7246497176
 20
-12.4006967465
 10
-9.7234185685
 20
-12.4088687653
 10
-9.7224562441
 20
-12.4170672439
 10
-9.7218580802
 20
-12.4239129018
 10
-9.7214439703
 20
-12.4307798296
 10
-9.7212128403
 20
-12.4376806078
 10
-9.7211637451
 20
-12.4446211231
 10
-9.7212962547
 20
-12.4515804889
 10
-9.7216100679
 20
-12.4585311251
 10
-9.7222243778
 20
-12.4668271458
 10
-9.7230918342
 20
-12.4750569011
 10
-9.7242049398
 20
-12.4832064114
 10
-9.7255561975
 20
-12.4912616973
 10
-9.7271381102
 20
-12.4992087793
 10
-9.7289437106
 20
-12.5070360013
 10
-9.7309681511
 20
-12.5147410001
 10
-9.733207114
 20
-12.5223237359
 10
-9.7356562818
 20
-12.529784169
 10
-9.7383113367
 20
-12.5371222593
 10
-9.7411708975
 20
-12.5443405002
 10
-9.7442453283
 20
-12.5514515173
 10
-9.7475479296
 20
-12.5584704691
 10
-9.7510920018
 20
-12.5654125143
 10
-9.7548908455
 20
-12.5722928116
  0
LWPOLYLINE
  5
2A4
100
AcDbEntity
  8
0
100
AcDbPolyline
 62
253
  6
CONTINUOUS
 90
53
 70
0
 10
-12.7229513254
 20
-10.5633997565
 10
-12.7163930952
 20
-10.5673475359
 10
-12.7100149411
 20
-10.5714660705
 10
-12.7037990875
 20
-10.5757611879
 10
-12.6977277585
 20
-10.5802387157
 10
-12.6917831784
 20
-10.5849044815
 10
-12.6859512207
 20
-10.5897634574
 10
-12.6802323552
 20
-10.5948171943
 10
-12.6746307013
 20
-10.6000663873
 10
-12.6691503781
 20
-10.6055117318
 10
-12.6637955047
 20
-10.611153923
 10
-12.6585715281
 20
-10.6169918954
 10
-12.6534892063
 20
-10.6230175399
 10
-12.6485606252
 20
-10.6292209867
 10
-12.6437978706
 20
-10.6355923658
 10
-12.6392130282
 20
-10.6421218074
 10
-12.6348172729
 20
-10.6488001239
 10
-12.6306181352
 20
-10.6556208575
 10
-12.6266222345
 20
-10.6625782326
 10
-12.6228361904
 20
-10.6696664737
 10
-12.6192666224
 20
-10.6768798053
 10
-12.6159204261
 20
-10.6842125646
 10
-12.6128056016
 20
-10.6916595392
 10
-12.6099304254
 20
-10.6992156294
 10
-12.6073031737
 20
-10.7068757353
 10
-12.6049321228
 20
-10.7146347574
 10
-12.6028241519
 20
-10.7224865186
 10
-12.6009805506
 20
-10.7304205328
 10
-12.5994012115
 20
-10.7384252364
 10
-12.598086027
 20
-10.7464890662
 10
-12.5970348896
 20
-10.7546004586
 10
-12.5963604629
 20
-10.7613905767
 10
-12.5958686415
 20
-10.7682148077
 10
-12.5955587394
 20
-10.775082265
 10
-12.5954302586
 20
-10.7819966051
 10
-12.5954834525
 20
-10.7889396562
 10
-12.5957187629
 20
-10.7958877894
 10
-12.5962412508
 20
-10.8042037728
 10
-12.5970219865
 20
-10.8124809249
 10
-12.598056334
 20
-10.8207071215
 10
-12.5993396577
 20
-10.8288702386
 10
-12.6008673217
 20
-10.836958152
 10
-12.6026350259
 20
-10.8449602021
 10
-12.6046398127
 20
-10.8528715873
 10
-12.6068790599
 20
-10.8606889704
 10
-12.6093501455
 20
-10.8684090142
 10
-12.6120504474
 20
-10.8760283817
 10
-12.6144757106
 20
-10.8823002228
 10
-12.6170676579
 20
-10.8885079885
 10
-12.6198356163
 20
-10.8946598351
 10
-12.6227889128
 20
-10.9007639189
 10
-12.6259368743
 20
-10.9068283962
 10
-12.6292888278
 20
-10.9128614231
  0
LWPOLYLINE
  5
2A5
100
AcDbEntity
  8
0
100
AcDbPolyline
 62
253
  6
CONTINUOUS
 90
53
 70
0
 10
-13.435774085
 20
-10.7426461454
 10
-13.4424319803
 20
-10.7386351187
 10
-13.4489028821
 20
-10.7344488749
 10
-13.4552055126
 20
-10.7300810264
 10
-13.4613585941
 20
-10.7255251853
 10
-13.4673808488
 20
-10.7207749642
 10
-13.4732870776
 20
-10.7158250714
 10
-13.4790763958
 20
-10.7106746002
 10
-13.4847439974
 20
-10.70532374
 10
-13.4902850764
 20
-10.6997726802
 10
-13.4956948267
 20
-10.6940216102
 10
-13.5009675074
 20
-10.6880716995
 10
-13.5060936376
 20
-10.6819280386
 10
-13.5110628017
 20
-10.675596698
 10
-13.5158645838
 20
-10.6690837481
 10
-13.5204885682
 20
-10.6623952594
 10
-13.5241976387
 20
-10.6566941577
 10
-13.5277644723
 20
-10.6508929906
 10
-13.5311775358
 20
-10.645009379
 10
-13.5344279025
 20
-10.6390560268
 10
-13.5375170719
 20
-10.6330259697
 10
-13.5404491502
 20
-10.6269073267
 10
-13.5437629182
 20
-10.6194368569
 10
-13.5468446015
 20
-10.6118345673
 10
-13.5496824142
 20
-10.6041133109
 10
-13.5522645701
 20
-10.5962859406
 10
-13.5545792833
 20
-10.5883653092
 10
-13.5566171509
 20
-10.5803645106
 10
-13.5583783036
 20
-10.5722976019
 10
-13.5598652551
 20
-10.5641788815
 10
-13.5610805192
 20
-10.5560226473
 10
-13.5620266097
 20
-10.5478431976
 10
-13.5626111679
 20
-10.5410160971
 10
-13.5630117285
 20
-10.5341702356
 10
-13.5632294741
 20
-10.5272930451
 10
-13.563265462
 20
-10.520378588
 10
-13.5631202474
 20
-10.513447451
 10
-13.5627942602
 20
-10.5065268513
 10
-13.5621661837
 20
-10.4982688241
 10
-13.5612858923
 20
-10.4900789617
 10
-13.5601608648
 20
-10.4819710617
 10
-13.55879858
 20
-10.4739589221
 10
-13.5572065166
 20
-10.4660563407
 10
-13.5553916309
 20
-10.458274845
 10
-13.5533587886
 20
-10.4506168814
 10
-13.5511123331
 20
-10.4430826259
 10
-13.5486566078
 20
-10.4356722547
 10
-13.5459959559
 20
-10.4283859438
 10
-13.5431317646
 20
-10.4212213135
 10
-13.540053597
 20
-10.4141657607
 10
-13.5367480599
 20
-10.4072041266
 10
-13.5332017602
 20
-10.4003212523
 10
-13.5294013048
 20
-10.3935019788
  0
LWPOLYLINE
  5
2A6
100
AcDbEntity
  8
0
100
AcDbPolyline
 62
253
  6
CONTINUOUS
 90
53
 70
0
 10
-12.6292888278
 20
-12.0526158673
 10
-12.6255151898
 20
-12.0594034733
 10
-12.6219927671
 20
-12.0662511117
 10
-12.6187084419
 20
-12.073173502
 10
-12.6156490967
 20
-12.0801853637
 10
-12.6128016135
 20
-12.0873014167
 10
-12.610155723
 20
-12.0945334856
 10
-12.6077125482
 20
-12.1018818169
 10
-12.6054760606
 20
-12.109343762
 10
-12.6034502314
 20
-12.1169166725
 10
-12.6016390322
 20
-12.1245979001
 10
-12.6000467474
 20
-12.132383508
 10
-12.5986789148
 20
-12.1402644069
 10
-12.5975413852
 20
-12.1482302193
 10
-12.5966400097
 20
-12.1562705676
 10
-12.5959806391
 20
-12.1643750743
 10
-12.5956198758
 20
-12.1711678741
 10
-12.5954323772
 20
-12.1779771444
 10
-12.5954192861
 20
-12.1847820077
 10
-12.5955819529
 20
-12.1915671221
 10
-12.5959225603
 20
-12.1983392875
 10
-12.596443499
 20
-12.2051108392
 10
-12.5973099657
 20
-12.2132468442
 10
-12.5984433052
 20
-12.2213825515
 10
-12.5998472708
 20
-12.2295007844
 10
-12.6015256159
 20
-12.237584366
 10
-12.6034820938
 20
-12.2456161194
 10
-12.6057183072
 20
-12.2535798827
 10
-12.6082272566
 20
-12.261463554
 10
-12.6109997919
 20
-12.2692560463
 10
-12.6140267629
 20
-12.2769462727
 10
-12.6172990196
 20
-12.2845231463
 10
-12.6202084437
 20
-12.2907456016
 10
-12.6232871998
 20
-12.2968931144
 10
-12.6265406366
 20
-12.3029771586
 10
-12.6299708746
 20
-12.3090033647
 10
-12.6335671203
 20
-12.3149539891
 10
-12.6373153517
 20
-12.3208054445
 10
-12.6419959089
 20
-12.3276684862
 10
-12.6468617115
 20
-12.3343464546
 10
-12.6518993371
 20
-12.3408310453
 10
-12.6570953634
 20
-12.3471139537
 10
-12.662436368
 20
-12.3531868755
 10
-12.667910535
 20
-12.3590432357
 10
-12.6735124751
 20
-12.3646833778
 10
-12.6792384053
 20
-12.3701093746
 10
-12.6850845426
 20
-12.3753232992
 10
-12.6910471041
 20
-12.3803272243
 10
-12.6971261265
 20
-12.3851239458
 10
-12.703336925
 20
-12.3897191503
 10
-12.7096986345
 20
-12.3941192472
 10
-12.7162303897
 20
-12.398330646
 10
-12.7229513254
 20
-12.4023597561
  0
LWPOLYLINE
  5
2A7
100
AcDbEntity
  8
ASSI
100
AcDbPolyline
 62
253
  6
CONTINUOUS
 90
10
 70
0
 10
-22.5503491959
 20
21.5381670671
 10
-22.5490554289
 20
21.5338145487
 10
-22.547783466
 20
21.5261207595
 10
-22.5465333074
 20
21.5150856995
 10
-22.5452984032
 20
21.5006204564
 10
-22.5440853033
 20
21.4828139424
 10
-22.5429136563
 20
21.4619328942
 10
-22.5417846492
 20
21.4379325646
 10
-22.540697095
 20
21.4108577008
 10
-22.5396670827
 20
21.38110928
  0
LWPOLYLINE
  5
2A8
100
AcDbEntity
  8
0
100
AcDbPolyline
 62
253
  6
CONTINUOUS
 90
55
 70
0
 10
-14.6499226587
 20
11.5292077696
 10
-14.6497984756
 20
11.5369608329
 10
-14.6494285239
 20
11.5446405671
 10
-14.6488167004
 20
11.5522663766
 10
-14.6479669018
 20
11.559857666
 10
-14.6468830246
 20
11.5674338397
 10
-14.6455679511
 20
11.575010345
 10
-14.6440205051
 20
11.5825867995
 10
-14.6422384961
 20
11.5901588632
 10
-14.6402197335
 20
11.5977221964
 10
-14.6379620267
 20
11.6052724593
 10
-14.6354635523
 20
11.6128040488
 10
-14.6327239554
 20
11.6203063084
 10
-14.6297432484
 20
11.6277673182
 10
-14.6265214436
 20
11.6351751586
 10
-14.6230585534
 20
11.6425179096
 10
-14.619990208
 20
11.6485765951
 10
-14.6167637575
 20
11.6545631848
 10
-14.6133885088
 20
11.6604590618
 10
-14.6098708342
 20
11.6662502927
 10
-14.6062053674
 20
11.6719416801
 10
-14.6023838079
 20
11.6775427105
 10
-14.5983997415
 20
11.6830596579
 10
-14.5942543008
 20
11.6884859466
 10
-14.589950505
 20
11.6938117888
 10
-14.5854913735
 20
11.6990273963
 10
-14.5808799254
 20
11.7041229812
 10
-14.5761191799
 20
11.7090887554
 10
-14.5712129538
 20
11.7139160794
 10
-14.566168253
 20
11.7186009076
 10
-14.5609928811
 20
11.7231403427
 10
-14.5556946416
 20
11.7275314876
 10
-14.550281338
 20
11.7317714451
 10
-14.5447607738
 20
11.735857318
 10
-14.5391377277
 20
11.7397879089
 10
-14.5334048791
 20
11.7435688192
 10
-14.5275518827
 20
11.7472073499
 10
-14.5215741177
 20
11.7507073496
 10
-14.5154898607
 20
11.7540588556
 10
-14.5093231127
 20
11.7572484526
 10
-14.5018436498
 20
11.7608471509
 10
-14.4942958105
 20
11.7641929447
 10
-14.4866954435
 20
11.7672853967
 10
-14.4790583979
 20
11.7701240694
 10
-14.4714005226
 20
11.7727085254
 10
-14.4637354079
 20
11.7750390207
 10
-14.4560676095
 20
11.7771185843
 10
-14.4483994245
 20
11.7789509385
 10
-14.44073315
 20
11.7805398058
 10
-14.4330710831
 20
11.7818889085
 10
-14.4254118147
 20
11.7830006785
 10
-14.4177391115
 20
11.7838723863
 10
-14.410033034
 20
11.7845000118
 10
-14.4022736428
 20
11.7848795351
 10
-14.3944409985
 20
11.7850069362
  0
LWPOLYLINE
  5
2A9
100
AcDbEntity
  8
0
100
AcDbPolyline
 62
253
  6
CONTINUOUS
 90
53
 70
0
 10
-13.0669029768
 20
11.5292077696
 10
-13.0670286677
 20
11.5214343367
 10
-13.0674030201
 20
11.5137348585
 10
-13.0680219536
 20
11.5060901058
 10
-13.0688813878
 20
11.4984808497
 10
-13.0699772423
 20
11.490887861
 10
-13.071306463
 20
11.483295817
 10
-13.0728701015
 20
11.4757050199
 10
-13.0746702354
 20
11.4681196782
 10
-13.0767089425
 20
11.4605440002
 10
-13.0789883006
 20
11.4529821945
 10
-13.0815100079
 20
11.4454397596
 10
-13.0842742444
 20
11.4379273545
 10
-13.0872808106
 20
11.4304569283
 10
-13.090529507
 20
11.4230404302
 10
-13.0940201339
 20
11.4156898092
 10
-13.0971120759
 20
11.4096252043
 10
-13.1003623034
 20
11.4036333747
 10
-13.1037612331
 20
11.3977330496
 10
-13.1073022377
 20
11.3919382572
 10
-13.110990514
 20
11.3862442209
 10
-13.1148342148
 20
11.3806414629
 10
-13.1196600484
 20
11.374030783
 10
-13.1247160407
 20
11.3675544392
 10
-13.129996799
 20
11.3612289746
 10
-13.1354969309
 20
11.3550709323
 10
-13.1412110436
 20
11.3490968555
 10
-13.1471323951
 20
11.3433213688
 10
-13.1532488457
 20
11.3377514229
 10
-13.1595469058
 20
11.3323920504
 10
-13.1660130864
 20
11.3272482834
 10
-13.1726338979
 20
11.3223251544
 10
-13.1782626538
 20
11.3183930303
 10
-13.1839997616
 20
11.3146103939
 10
-13.189855558
 20
11.3109700171
 10
-13.195834691
 20
11.3074681022
 10
-13.2019190529
 20
11.3041145713
 10
-13.208084847
 20
11.3009227766
 10
-13.2155620269
 20
11.2973211545
 10
-13.223106535
 20
11.2939721711
 10
-13.2307027039
 20
11.2908763379
 10
-13.2383348666
 20
11.2880341662
 10
-13.245987356
 20
11.2854461675
 10
-13.2536467439
 20
11.2831121619
 10
-13.2613085586
 20
11.2810292037
 10
-13.2689705672
 20
11.2791936559
 10
-13.2766305368
 20
11.2776018813
 10
-13.2842862349
 20
11.2762502429
 10
-13.2919390766
 20
11.2751363804
 10
-13.2996050702
 20
11.27426304
 10
-13.3073038721
 20
11.2736342446
 10
-13.3150551385
 20
11.2732540173
 10
-13.3228785258
 20
11.2731263808
  0
LWPOLYLINE
  5
2AA
100
AcDbEntity
  8
0
100
AcDbPolyline
 62
253
  6
CONTINUOUS
 90
53
 70
0
 10
-9.5468158444
 20
9.4155397146
 10
-9.5523891874
 20
9.4101418059
 10
-9.5580842804
 20
9.40496938
 10
-9.563912202
 20
9.4000059043
 10
-9.5698840305
 20
9.3952348464
 10
-9.5760108445
 20
9.3906396738
 10
-9.5823016172
 20
9.3862073912
 10
-9.588756901
 20
9.3819391521
 10
-9.5953751433
 20
9.3778396472
 10
-9.6021547913
 20
9.3739135673
 10
-9.6090942922
 20
9.3701656031
 10
-9.6161909526
 20
9.3666010731
 10
-9.6234375155
 20
9.3632278072
 10
-9.6308255833
 20
9.3600542631
 10
-9.6383467584
 20
9.3570888984
 10
-9.6459926432
 20
9.3543401708
 10
-9.652450951
 20
9.3522214405
 10
-9.6589703588
 20
9.3502656459
 10
-9.6655311946
 20
9.3484794067
 10
-9.6721191722
 20
9.3468681084
 10
-9.6787415495
 20
9.3454321989
 10
-9.6854109705
 20
9.3441708916
 10
-9.6934879072
 20
9.3428883202
 10
-9.70163503
 20
9.3418644623
 10
-9.7098365744
 20
9.3411077368
 10
-9.7180767764
 20
9.3406265624
 10
-9.7263398716
 20
9.340429358
 10
-9.7346105427
 20
9.3405221355
 10
-9.7428752607
 20
9.34090128
 10
-9.7511209433
 20
9.3415607695
 10
-9.7593345085
 20
9.3424945822
 10
-9.7675028739
 20
9.3436966964
 10
-9.7742692289
 20
9.344900008
 10
-9.7810076358
 20
9.3462876247
 10
-9.78773062
 20
9.347861713
 10
-9.7944441857
 20
9.3496228183
 10
-9.8011282512
 20
9.3515650012
 10
-9.8077562136
 20
9.3536807013
 10
-9.8156039889
 20
9.3564382834
 10
-9.8233210971
 20
9.3594238454
 10
-9.8308959675
 20
9.3626263895
 10
-9.8383170296
 20
9.366034918
 10
-9.8455727127
 20
9.3696384332
 10
-9.8526535442
 20
9.3734270533
 10
-9.859558443
 20
9.3773953608
 10
-9.8662884256
 20
9.3815390541
 10
-9.8728445088
 20
9.3858538317
 10
-9.8792277093
 20
9.390335392
 10
-9.8854407643
 20
9.3949829961
 10
-9.8914932927
 20
9.399810156
 10
-9.897396634
 20
9.404833946
 10
-9.9031621276
 20
9.4100714407
 10
-9.9088011129
 20
9.4155397146
  0
LINE
  5
2AB
100
AcDbEntity
  8
0
100
AcDbLine
 62
253
  6
CONTINUOUS
 10
-11.6369653889
 20
-13.6614327814
 11
-11.6423577418
 21
-13.6614942002
  0
LWPOLYLINE
  5
2AC
100
AcDbEntity
  8
0
100
AcDbPolyline
 62
253
  6
CONTINUOUS
 90
29
 70
0
 10
-9.9770350065
 20
-12.6997161449
 10
-9.9817912174
 20
-12.6996705199
 10
-9.9865372833
 20
-12.6995342118
 10
-9.9912738406
 20
-12.6993080703
 10
-9.996001526
 20
-12.6989929456
 10
-10.0007209759
 20
-12.6985896876
 10
-10.0054328268
 20
-12.6980991463
 10
-10.0101377152
 20
-12.6975221716
 10
-10.0148358538
 20
-12.6968595182
 10
-10.0195257603
 20
-12.6961115594
 10
-10.0242055287
 20
-12.6952785733
 10
-10.0288732529
 20
-12.6943608377
 10
-10.0335270269
 20
-12.6933586307
 10
-10.0381649447
 20
-12.6922722303
 10
-10.0427851002
 20
-12.6911019145
 10
-10.0473855887
 20
-12.6898479456
 10
-10.0519645118
 20
-12.688510524
 10
-10.056519972
 20
-12.6870898342
 10
-10.0610500724
 20
-12.6855860608
 10
-10.0655529156
 20
-12.6839993887
 10
-10.0700266046
 20
-12.6823300023
 10
-10.074469242
 20
-12.6805780864
 10
-10.0788792101
 20
-12.678743536
 10
-10.0832560086
 20
-12.6768250879
 10
-10.0875994166
 20
-12.6748211893
 10
-10.0919092132
 20
-12.6727302874
 10
-10.0961851775
 20
-12.6705508294
 10
-10.1004270886
 20
-12.6682812624
 10
-10.1046347255
 20
-12.6659200338
  0
LINE
  5
2AD
100
AcDbEntity
  8
0
100
AcDbLine
 62
253
  6
CONTINUOUS
 10
-11.6423577418
 20
-12.6222108671
 11
-11.6367727735
 21
-12.6222769363
  0
LWPOLYLINE
  5
2AE
100
AcDbEntity
  8
0
100
AcDbPolyline
 62
253
  6
CONTINUOUS
 90
42
 70
0
 10
-13.3075746438
 20
-12.6997161449
 10
-13.3129883002
 20
-12.6996460806
 10
-13.3183754336
 20
-12.6994377387
 10
-13.3237425997
 20
-12.6990938958
 10
-13.329096354
 20
-12.6986173283
 10
-13.334443252
 20
-12.6980108127
 10
-13.3397898495
 20
-12.6972771256
 10
-13.3462125793
 20
-12.6962319298
 10
-13.3526435209
 20
-12.6950075176
 10
-13.359081879
 20
-12.6936038016
 10
-13.3655268581
 20
-12.6920206944
 10
-13.371977663
 20
-12.6902581085
 10
-13.3784316276
 20
-12.6883166851
 10
-13.3848786032
 20
-12.6861999801
 10
-13.3913065704
 20
-12.6839122782
 10
-13.3977035098
 20
-12.681457864
 10
-13.404057402
 20
-12.6788410221
 10
-13.4103573204
 20
-12.676065896
 10
-13.4165967097
 20
-12.6731360649
 10
-13.4227701078
 20
-12.670054967
 10
-13.428872052
 20
-12.6668260403
 10
-13.4348970802
 20
-12.6634527231
 10
-13.4408395775
 20
-12.6599384439
 10
-13.4466933194
 20
-12.656286593
 10
-13.4524519292
 20
-12.6525005513
 10
-13.45810903
 20
-12.6485836995
 10
-13.463658245
 20
-12.6445394184
 10
-13.4690926193
 20
-12.6403719895
 10
-13.4744028859
 20
-12.6360892971
 10
-13.4795791998
 20
-12.6317001261
 10
-13.4846117159
 20
-12.6272132617
 10
-13.4894905893
 20
-12.6226374886
 10
-13.4942076858
 20
-12.617980213
 10
-13.4987617149
 20
-12.6132433249
 10
-13.5031530968
 20
-12.6084273354
 10
-13.5073822521
 20
-12.6035327556
 10
-13.5114496009
 20
-12.5985600965
 10
-13.5153557824
 20
-12.5935078639
 10
-13.5191023108
 20
-12.5883665411
 10
-13.5226909187
 20
-12.5831246061
 10
-13.5261233391
 20
-12.5777705369
 10
-13.5294013048
 20
-12.5722928116
  0
LWPOLYLINE
  5
2AF
100
AcDbEntity
  8
0
100
AcDbPolyline
 62
253
  6
CONTINUOUS
 90
55
 70
0
 10
-11.6423577418
 20
-13.6614942002
 10
-11.6500219397
 20
-13.6613726289
 10
-11.6576197198
 20
-13.6610101007
 10
-11.6651705406
 20
-13.6604098941
 10
-11.6726938608
 20
-13.6595752876
 10
-11.680209139
 20
-13.6585095596
 10
-11.6877320322
 20
-13.657214894
 10
-11.6952629904
 20
-13.6556890969
 10
-11.7027986618
 20
-13.6539288795
 10
-11.7103356949
 20
-13.6519309531
 10
-11.7178707379
 20
-13.6496920293
 10
-11.7253987216
 20
-13.6472093301
 10
-11.7329077068
 20
-13.6444821213
 10
-11.7403840366
 20
-13.6415101797
 10
-11.7478140544
 20
-13.6382932819
 10
-11.7551841033
 20
-13.6348312044
 10
-11.7612680132
 20
-13.6317604579
 10
-11.7672800797
 20
-13.6285297781
 10
-11.7731995882
 20
-13.6251496505
 10
-11.7790108727
 20
-13.6216275009
 10
-11.784718461
 20
-13.6179585167
 10
-11.7903319294
 20
-13.6141348255
 10
-11.7958577306
 20
-13.6101503053
 10
-11.8012898233
 20
-13.6060058358
 10
-11.8066190427
 20
-13.601704047
 10
-11.811836224
 20
-13.5972475688
 10
-11.8169322024
 20
-13.5926390312
 10
-11.8218978131
 20
-13.5878810641
 10
-11.8267249455
 20
-13.5829771302
 10
-11.8314097062
 20
-13.5779340224
 10
-11.8359492564
 20
-13.5727593662
 10
-11.8403407568
 20
-13.5674607872
 10
-11.8445813685
 20
-13.562045911
 10
-11.8486682524
 20
-13.5565223632
 10
-11.8526002231
 20
-13.5508948327
 10
-11.8563827098
 20
-13.5451562623
 10
-11.8600227954
 20
-13.5392966583
 10
-11.8635241789
 20
-13.5333116482
 10
-11.8668770237
 20
-13.5272193437
 10
-11.8700681098
 20
-13.5210434778
 10
-11.8736690068
 20
-13.5135513337
 10
-11.877017467
 20
-13.505988727
 10
-11.8801130232
 20
-13.4983713479
 10
-11.8829552086
 20
-13.4907148866
 10
-11.885543556
 20
-13.4830350333
 10
-11.887878271
 20
-13.4753452769
 10
-11.8899622493
 20
-13.4676503017
 10
-11.891799059
 20
-13.4599525904
 10
-11.8933922683
 20
-13.4522546258
 10
-11.8947454454
 20
-13.4445588909
 10
-11.89586087
 20
-13.4368641066
 10
-11.8967356682
 20
-13.4291539456
 10
-11.8973656775
 20
-13.4214083188
 10
-11.8977467355
 20
-13.4136071371
 10
-11.8978746798
 20
-13.4057303114
  0
LWPOLYLINE
  5
2B0
100
AcDbEntity
  8
0
100
AcDbPolyline
 62
253
  6
CONTINUOUS
 90
53
 70
0
 10
-11.6367727166
 20
-12.6222769377
 10
-11.6296585503
 20
-12.6225485878
 10
-11.6225887128
 20
-12.6230244945
 10
-11.6155609792
 20
-12.6237015656
 10
-11.6085731249
 20
-12.6245767086
 10
-11.6016229252
 20
-12.6256468312
 10
-11.5947081554
 20
-12.6269088411
 10
-11.5878265908
 20
-12.6283596459
 10
-11.5798393728
 20
-12.6302870086
 10
-11.5719044358
 20
-12.6324638234
 10
-11.564031893
 20
-12.6348867809
 10
-11.5562318576
 20
-12.6375525712
 10
-11.5485144426
 20
-12.640457885
 10
-11.5408897612
 20
-12.6435994124
 10
-11.533367505
 20
-12.6469740008
 10
-11.5259556786
 20
-12.6505791252
 10
-11.5186618653
 20
-12.6544124176
 10
-11.5114936483
 20
-12.6584715097
 10
-11.5044586106
 20
-12.6627540337
 10
-11.4975643355
 20
-12.6672576213
 10
-11.4917729283
 20
-12.6712919438
 10
-11.4860964121
 20
-12.6754851553
 10
-11.4805406891
 20
-12.6798354705
 10
-11.4751116616
 20
-12.684341104
 10
-11.4698152319
 20
-12.6890002706
 10
-11.4646573023
 20
-12.6938111849
 10
-11.4596437751
 20
-12.6987720616
 10
-11.4547798286
 20
-12.7038803893
 10
-11.4500677461
 20
-12.7091307524
 10
-11.4455090869
 20
-12.7145170092
 10
-11.4411054103
 20
-12.7200330178
 10
-11.4368582757
 20
-12.7256726365
 10
-11.4327692423
 20
-12.7314297237
 10
-11.4288398696
 20
-12.7372981376
 10
-11.4244594614
 20
-12.7442776713
 10
-11.4203008863
 20
-12.7513938612
 10
-11.4163665388
 20
-12.7586401951
 10
-11.4126588139
 20
-12.7660101607
 10
-11.4091801062
 20
-12.7734972458
 10
-11.4059328105
 20
-12.7810949382
 10
-11.4029195819
 20
-12.7887961508
 10
-11.4001441173
 20
-12.796591497
 10
-11.3976103741
 20
-12.8044710155
 10
-11.3953223095
 20
-12.812424745
 10
-11.3932838809
 20
-12.8204427241
 10
-11.3914990455
 20
-12.8285149913
 10
-11.3901742602
 20
-12.8354711328
 10
-11.3890425937
 20
-12.8424619507
 10
-11.3881079439
 20
-12.8494895551
 10
-11.3873742087
 20
-12.8565560557
 10
-11.3868452862
 20
-12.8636635624
 10
-11.3865250742
 20
-12.8708141851
 10
-11.3864174706
 20
-12.8780100337
  0
LWPOLYLINE
  5
2B1
100
AcDbEntity
  8
0
100
AcDbPolyline
 62
253
  6
CONTINUOUS
 90
53
 70
0
 10
-10.6551797115
 20
-10.9128614231
 10
-10.6589402867
 20
-10.9061232073
 10
-10.6624520542
 20
-10.8993243416
 10
-10.6657280832
 20
-10.8924499965
 10
-10.6687814425
 20
-10.8854853423
 10
-10.6716252013
 20
-10.8784155495
 10
-10.6742695731
 20
-10.871228739
 10
-10.6767133499
 20
-10.8639248344
 10
-10.6789524684
 20
-10.8565067098
 10
-10.6809828651
 20
-10.8489772395
 10
-10.6828004766
 20
-10.8413392975
 10
-10.6844009455
 20
-10.8335969499
 10
-10.6857787376
 20
-10.8257590295
 10
-10.6869280247
 20
-10.8178355611
 10
-10.6878429786
 20
-10.8098365693
 10
-10.688517771
 20
-10.8017720788
 10
-10.6888927758
 20
-10.7950112668
 10
-10.6890956173
 20
-10.7882321206
 10
-10.6891249584
 20
-10.7814548298
 10
-10.6889792515
 20
-10.7746941557
 10
-10.6886561083
 20
-10.7679431483
 10
-10.6881529303
 20
-10.7611894291
 10
-10.6873078614
 20
-10.7530704724
 10
-10.6861956086
 20
-10.7449474825
 10
-10.6848119803
 20
-10.7368381555
 10
-10.6831527849
 20
-10.7287601876
 10
-10.6812138308
 20
-10.7207312751
 10
-10.6789931002
 20
-10.712767986
 10
-10.6764972706
 20
-10.7048823766
 10
-10.6737351937
 20
-10.6970853749
 10
-10.6707157209
 20
-10.6893879088
 10
-10.6674477035
 20
-10.6818009066
 10
-10.6645391247
 20
-10.6755676993
 10
-10.6614586761
 20
-10.6694072869
 10
-10.6582009413
 20
-10.6633081646
 10
-10.6547637835
 20
-10.6572647538
 10
-10.6511581838
 20
-10.6512951815
 10
-10.6473984031
 20
-10.6454235015
 10
-10.642701407
 20
-10.6385350504
 10
-10.6378166517
 20
-10.6318306449
 10
-10.6327578633
 20
-10.6253187287
 10
-10.6275387679
 20
-10.6190077457
 10
-10.6221730917
 20
-10.6129061395
 10
-10.6166729108
 20
-10.6070205818
 10
-10.6110437024
 20
-10.6013506549
 10
-10.6052892937
 20
-10.5958941694
 10
-10.5994135121
 20
-10.5906489356
 10
-10.5934201849
 20
-10.5856127638
 10
-10.5873092714
 20
-10.5807827328
 10
-10.5810652591
 20
-10.5761529954
 10
-10.5746687675
 20
-10.5717169727
 10
-10.5681004163
 20
-10.567468086
 10
-10.561340825
 20
-10.5633997565
  0
LWPOLYLINE
  5
2B2
100
AcDbEntity
  8
0
100
AcDbPolyline
 62
253
  6
CONTINUOUS
 90
53
 70
0
 10
-9.7548908455
 20
-10.3935019788
 10
-9.7511422782
 20
-10.4002555431
 10
-9.747642706
 20
-10.4070690966
 10
-9.7443791552
 20
-10.4139573357
 10
-9.7413386523
 20
-10.4209349568
 10
-9.7385082235
 20
-10.4280166561
 10
-9.7358777211
 20
-10.4352142204
 10
-9.7334483007
 20
-10.4425277974
 10
-9.7312239437
 20
-10.4499546253
 10
-9.7292086316
 20
-10.4574919419
 10
-9.7274063458
 20
-10.4651369855
 10
-9.7258213667
 20
-10.4728857672
 10
-9.7244591713
 20
-10.4807293905
 10
-9.7233255351
 20
-10.4886577322
 10
-9.7224262341
 20
-10.4966606691
 10
-9.721767044
 20
-10.5047280777
 10
-9.72140495
 20
-10.5114904453
 10
-9.72121483
 20
-10.5182701829
 10
-9.7211979031
 20
-10.5250469188
 10
-9.7213556004
 20
-10.5318057207
 10
-9.7216901996
 20
-10.5385534155
 10
-9.7222041901
 20
-10.5453022699
 10
-9.7230612184
 20
-10.5534132751
 10
-9.7241840835
 20
-10.5615262779
 10
-9.7255767136
 20
-10.569623942
 10
-9.7272430372
 20
-10.5776889315
 10
-9.7291869824
 20
-10.58570391
 10
-9.7314103388
 20
-10.5936526105
 10
-9.7339063404
 20
-10.601523042
 10
-9.7366660824
 20
-10.6093042826
 10
-9.7396806601
 20
-10.6169854102
 10
-9.7429411685
 20
-10.6245555029
 10
-9.74584145
 20
-10.6307741705
 10
-9.7489116896
 20
-10.6369195554
 10
-9.752157244
 20
-10.6430030668
 10
-9.7555802367
 20
-10.6490302606
 10
-9.7591698581
 20
-10.6549832785
 10
-9.7629120659
 20
-10.6608384084
 10
-9.7675861551
 20
-10.6677074029
 10
-9.7724462698
 20
-10.6743929417
 10
-9.7774789325
 20
-10.680886673
 10
-9.782670666
 20
-10.6871802447
 10
-9.7880079926
 20
-10.6932653052
 10
-9.7934790527
 20
-10.6991352469
 10
-9.7990784568
 20
-10.7047904401
 10
-9.8048024327
 20
-10.7102329997
 10
-9.8106472086
 20
-10.7154650405
 10
-9.8166090126
 20
-10.7204886773
 10
-9.8226878856
 20
-10.7253067554
 10
-9.8288991211
 20
-10.7299250427
 10
-9.8352618253
 20
-10.7343500379
 10
-9.8417951046
 20
-10.7385882392
 10
-9.8485180654
 20
-10.7426461454
  0
LWPOLYLINE
  5
2B3
100
AcDbEntity
  8
0
100
AcDbPolyline
 62
253
  6
CONTINUOUS
 90
49
 70
0
 10
-11.4050021859
 20
9.8672716589
 10
-11.4051316539
 20
9.8751468402
 10
-11.4055169034
 20
9.8829751795
 10
-11.4061532027
 20
9.8907596508
 10
-11.40703582
 20
9.8985032284
 10
-11.4081600237
 20
9.9062088861
 10
-11.4095210819
 20
9.913879598
 10
-11.4111145336
 20
9.9215163649
 10
-11.4129370004
 20
9.9291122951
 10
-11.4149853746
 20
9.9366585234
 10
-11.4172565482
 20
9.9441461848
 10
-11.4197474137
 20
9.9515664141
 10
-11.4224548632
 20
9.9589103464
 10
-11.4253758801
 20
9.9661695978
 10
-11.4285078124
 20
9.9733377102
 10
-11.4318480992
 20
9.9804087065
 10
-11.4353941798
 20
9.9873766099
 10
-11.4391434931
 20
9.9942354433
 10
-11.4430934784
 20
10.0009792299
 10
-11.4472418433
 20
10.0076016773
 10
-11.4515873686
 20
10.0140952324
 10
-11.4561291041
 20
10.0204520264
 10
-11.460866099
 20
10.0266641909
 10
-11.4657974029
 20
10.0327238573
 10
-11.4709220651
 20
10.0386231569
 10
-11.4762381549
 20
10.0443548185
 10
-11.48173982
 20
10.0499139597
 10
-11.4874202275
 20
10.0552962953
 10
-11.4932725449
 20
10.0604975403
 10
-11.4992899395
 20
10.0655134094
 10
-11.5054655786
 20
10.0703396176
 10
-11.5117927584
 20
10.0749723231
 10
-11.5182652906
 20
10.0794094573
 10
-11.524877116
 20
10.0836493951
 10
-11.531622175
 20
10.0876905114
 10
-11.5384944084
 20
10.0915311808
 10
-11.5454877568
 20
10.0951697783
 10
-11.5525959523
 20
10.0986043575
 10
-11.5598118926
 20
10.1018316875
 10
-11.5671282671
 20
10.1048482162
 10
-11.5745377651
 20
10.1076503916
 10
-11.5820330759
 20
10.1102346615
 10
-11.5896068887
 20
10.1125974739
 10
-11.5972536206
 20
10.114735077
 10
-11.6049745993
 20
10.1166429203
 10
-11.6127728803
 20
10.1183162537
 10
-11.6206515189
 20
10.1197503271
 10
-11.6286135708
 20
10.1209403902
 10
-11.6366620912
 20
10.121881693
  0
LWPOLYLINE
  5
2B4
100
AcDbEntity
  8
0
100
AcDbPolyline
 62
253
  6
CONTINUOUS
 90
55
 70
0
 10
-11.8978746798
 20
-10.0868322567
 10
-11.8977502231
 20
-10.0946022319
 10
-11.8973794688
 20
-10.1022985092
 10
-11.8967663405
 20
-10.1099404942
 10
-11.8959147616
 20
-10.1175475927
 10
-11.8948286557
 20
-10.1251392104
 10
-11.8935109246
 20
-10.1327308047
 10
-11.8919603827
 20
-10.1403220386
 10
-11.8901748227
 20
-10.1479086269
 10
-11.888152037
 20
-10.1554862843
 10
-11.8858898184
 20
-10.1630507254
 10
-11.8833863339
 20
-10.1705963778
 10
-11.8806412491
 20
-10.1781125215
 10
-11.8776546037
 20
-10.185587149
 10
-11.8744264378
 20
-10.1930082533
 10
-11.8709567913
 20
-10.2003638271
 10
-11.8678825512
 20
-10.2064327829
 10
-11.8646500718
 20
-10.2124291345
 10
-11.8612687811
 20
-10.2183341233
 10
-11.8577451594
 20
-10.2241337029
 10
-11.8540738972
 20
-10.2298326757
 10
-11.8502467374
 20
-10.2354405563
 10
-11.8462573043
 20
-10.2409636564
 10
-11.8421067485
 20
-10.2463954761
 10
-11.8377981022
 20
-10.2517263128
 10
-11.8333343974
 20
-10.256946464
 10
-11.8287186661
 20
-10.262046227
 10
-11.8239539405
 20
-10.267015899
 10
-11.8190440574
 20
-10.2718469112
 10
-11.8139960732
 20
-10.2765352283
 10
-11.8088178486
 20
-10.2810779488
 10
-11.8035172449
 20
-10.2854721712
 10
-11.7981021229
 20
-10.2897149939
 10
-11.7925803438
 20
-10.2938035154
 10
-11.7869567364
 20
-10.297736537
 10
-11.7812240012
 20
-10.301519672
 10
-11.7753718066
 20
-10.3051602363
 10
-11.7693955264
 20
-10.3086621
 10
-11.7633133558
 20
-10.3120153485
 10
-11.7571491956
 20
-10.3152066213
 10
-11.7496733753
 20
-10.3188073018
 10
-11.7421296841
 20
-10.3221550478
 10
-11.7345338994
 20
-10.3252494093
 10
-11.7269017984
 20
-10.3280899361
 10
-11.7192491584
 20
-10.3306761781
 10
-11.7115895131
 20
-10.3330083762
 10
-11.7039274218
 20
-10.3350895346
 10
-11.6962652005
 20
-10.3369233486
 10
-11.6886051648
 20
-10.3385135136
 10
-11.6809496306
 20
-10.3398637248
 10
-11.6732972112
 20
-10.3409763926
 10
-11.6656317109
 20
-10.3418487879
 10
-11.6579332313
 20
-10.342476897
 10
-11.6501818744
 20
-10.342856706
 10
-11.6423577418
 20
-10.342984201
  0
LWPOLYLINE
  5
2B5
100
AcDbEntity
  8
0
100
AcDbPolyline
 62
253
  6
CONTINUOUS
 90
55
 70
0
 10
-11.9164593951
 20
8.7960266592
 10
-11.9163356411
 20
8.7882813697
 10
-11.9159669343
 20
8.7806090741
 10
-11.9153571076
 20
8.7729902921
 10
-11.9145099935
 20
8.7654055436
 10
-11.9134294251
 20
8.7578353485
 10
-11.9121182277
 20
8.7502642102
 10
-11.9105751981
 20
8.7426925673
 10
-11.9087981255
 20
8.7351248422
 10
-11.9067847995
 20
8.7275654573
 10
-11.9045330093
 20
8.7200188349
 10
-11.9020409034
 20
8.7124906373
 10
-11.8993080661
 20
8.7049914865
 10
-11.8963344408
 20
8.6975332448
 10
-11.8931199707
 20
8.6901277739
 10
-11.8896645993
 20
8.6827869362
 10
-11.8866025928
 20
8.6767294429
 10
-11.8833824162
 20
8.6707435832
 10
-11.880013231
 20
8.6648478691
 10
-11.8765012746
 20
8.6590561463
 10
-11.8728410857
 20
8.6533635955
 10
-11.8690242782
 20
8.647760731
 10
-11.8650443622
 20
8.6422413015
 10
-11.8609024313
 20
8.6368119931
 10
-11.856601475
 20
8.631482726
 10
-11.8521444828
 20
8.6262634207
 10
-11.8475344442
 20
8.6211639975
 10
-11.8427743487
 20
8.6161943768
 10
-11.8378679833
 20
8.6113633083
 10
-11.8328223248
 20
8.6066748595
 10
-11.8276451478
 20
8.6021319275
 10
-11.8223442266
 20
8.5977374092
 10
-11.8169273356
 20
8.5934942016
 10
-11.8114022491
 20
8.5894052015
 10
-11.8057737165
 20
8.5854716029
 10
-11.8000343857
 20
8.5816877866
 10
-11.7941738798
 20
8.5780464303
 10
-11.7881875786
 20
8.5745436811
 10
-11.78209389
 20
8.571189563
 10
-11.7759169788
 20
8.5679975693
 10
-11.7684245582
 20
8.5643963622
 10
-11.7608630678
 20
8.5610484542
 10
-11.7532484809
 20
8.5579542548
 10
-11.7455967708
 20
8.5551141737
 10
-11.7379239111
 20
8.5525286201
 10
-11.7302435979
 20
8.5501973066
 10
-11.7225604197
 20
8.5481171571
 10
-11.7148766877
 20
8.5462843987
 10
-11.7071947134
 20
8.5446952582
 10
-11.6995168079
 20
8.5433459626
 10
-11.6918415497
 20
8.542234038
 10
-11.6841525852
 20
8.541362207
 10
-11.6764298278
 20
8.5407344913
 10
-11.6686531911
 20
8.5403549126
 10
-11.6608025884
 20
8.5402274926
  0
LWPOLYLINE
  5
2B6
100
AcDbEntity
  8
0
100
AcDbPolyline
 62
253
  6
CONTINUOUS
 90
53
 70
0
 10
-11.3864174706
 20
-9.559429479
 10
-11.3865220223
 20
-9.5523248199
 10
-11.3868334368
 20
-9.5452598882
 10
-11.3873483535
 20
-9.538232537
 10
-11.3880634115
 20
-9.5312406195
 10
-11.3889752503
 20
-9.5242819887
 10
-11.3900805091
 20
-9.5173544976
 10
-11.3913758271
 20
-9.5104559995
 10
-11.3931230916
 20
-9.5024437928
 10
-11.3951211159
 20
-9.4944782868
 10
-11.3973665424
 20
-9.4865696417
 10
-11.3998560134
 20
-9.4787280179
 10
-11.4025861713
 20
-9.4709635757
 10
-11.4055536584
 20
-9.4632864753
 10
-11.4087552484
 20
-9.4557063898
 10
-11.4121882402
 20
-9.4482310426
 10
-11.415850064
 20
-9.4408676698
 10
-11.4197381501
 20
-9.4336235074
 10
-11.4238499286
 20
-9.4265057918
 10
-11.4281828298
 20
-9.4195217588
 10
-11.432070861
 20
-9.4136475663
 10
-11.4361182522
 20
-9.4078828772
 10
-11.440323794
 20
-9.4022336629
 10
-11.4446862769
 20
-9.3967058946
 10
-11.4492044916
 20
-9.3913055436
 10
-11.4538772285
 20
-9.3860385812
 10
-11.4587032782
 20
-9.3809109786
 10
-11.4636806588
 20
-9.3759280576
 10
-11.468804298
 20
-9.3710925419
 10
-11.4740683513
 20
-9.3664065056
 10
-11.479466974
 20
-9.3618720229
 10
-11.4849943215
 20
-9.357491168
 10
-11.490644549
 20
-9.3532660149
 10
-11.496411812
 20
-9.3491986379
 10
-11.5032808414
 20
-9.3446553574
 10
-11.5102945333
 20
-9.3403318296
 10
-11.5174462073
 20
-9.3362302332
 10
-11.5247291829
 20
-9.3323527469
 10
-11.5321367796
 20
-9.3287015496
 10
-11.539662317
 20
-9.32527882
 10
-11.5472986612
 20
-9.322087041
 10
-11.5550368655
 20
-9.3191299131
 10
-11.5628675296
 20
-9.3164114408
 10
-11.5707812535
 20
-9.3139356286
 10
-11.5787686369
 20
-9.3117064811
 10
-11.5868202798
 20
-9.3097280029
 10
-11.5937670461
 20
-9.3082349383
 10
-11.600756228
 20
-9.3069328594
 10
-11.607789936
 20
-9.3058256444
 10
-11.6148702809
 20
-9.3049171716
 10
-11.6219993734
 20
-9.3042113195
 10
-11.6291793241
 20
-9.3037119662
 10
-11.6364122439
 20
-9.30342299
  0
LINE
  5
2B7
100
AcDbEntity
  8
0
100
AcDbLine
 62
253
  6
CONTINUOUS
 10
-11.9164593951
 20
9.8672716589
 11
-11.9164593951
 21
8.7960266592
  0
LINE
  5
2B8
100
AcDbEntity
  8
0
100
AcDbLine
 62
253
  6
CONTINUOUS
 10
-11.9164593951
 20
13.1911438803
 11
-11.9164593951
 21
14.26302388
  0
LINE
  5
2B9
100
AcDbEntity
  8
0
100
AcDbLine
 62
253
  6
CONTINUOUS
 10
-11.8978746798
 20
-9.559429479
 11
-11.8978746798
 21
-10.0868322567
  0
LINE
  5
2BA
100
AcDbEntity
  8
0
100
AcDbLine
 62
253
  6
CONTINUOUS
 10
-11.8978746798
 20
-13.4057303114
 11
-11.8978746798
 21
-12.8780100337
  0
LINE
  5
2BB
100
AcDbEntity
  8
ASSI
100
AcDbLine
 62
253
  6
CONTINUOUS
 10
-11.6359541591
 20
0.2641756542
 11
-11.6376445322
 21
22.0190061973
  0
LINE
  5
2BC
100
AcDbEntity
  8
0
100
AcDbLine
 62
253
  6
CONTINUOUS
 10
-11.4050021859
 20
14.26302388
 11
-11.4050021859
 21
13.1911438436
  0
LINE
  5
2BD
100
AcDbEntity
  8
0
100
AcDbLine
 62
253
  6
CONTINUOUS
 10
-11.4050021859
 20
8.7960266592
 11
-11.4050021859
 21
9.8672716943
  0
LINE
  5
2BE
100
AcDbEntity
  8
0
100
AcDbLine
 62
253
  6
CONTINUOUS
 10
-11.3864174706
 20
-12.8780100337
 11
-11.3864174706
 21
-13.4057303069
  0
LINE
  5
2BF
100
AcDbEntity
  8
0
100
AcDbLine
 62
253
  6
CONTINUOUS
 10
-11.3864174706
 20
-10.0868322567
 11
-11.3864174706
 21
-9.5594294857
  0
LINE
  5
2C0
100
AcDbEntity
  8
ASSI
100
AcDbLine
 62
253
  6
CONTINUOUS
 10
-11.6359541591
 20
-0.2379911155
 11
-11.6376445322
 21
-21.9928216587
  0
LWPOLYLINE
  5
2C1
100
AcDbEntity
  8
0
100
AcDbPolyline
 62
253
  6
CONTINUOUS
 90
57
 70
0
 10
-12.4737777142
 20
11.5292077696
 10
-12.4734799732
 20
11.5504336719
 10
-12.4725885503
 20
11.5716219656
 10
-12.4711061458
 20
11.5928140288
 10
-12.4690354602
 20
11.6140512395
 10
-12.4663772828
 20
11.635367215
 10
-12.463124759
 20
11.6567645302
 10
-12.4592691236
 20
11.6782379991
 10
-12.4548016111
 20
11.6997824356
 10
-12.4497152881
 20
11.7213869221
 10
-12.4440105491
 20
11.743017614
 10
-12.4376896206
 20
11.764634935
 10
-12.4307547291
 20
11.7861993086
 10
-12.4232072912
 20
11.8076748484
 10
-12.4150454836
 20
11.8290404274
 10
-12.4062666731
 20
11.8502786085
 10
-12.3968682265
 20
11.8713719547
 10
-12.3868490051
 20
11.892300367
 10
-12.3762138479
 20
11.9130330996
 10
-12.3649690887
 20
11.9335367451
 10
-12.353121061
 20
11.9537778957
 10
-12.340672789
 20
11.9737272944
 10
-12.3276140586
 20
11.9933722851
 10
-12.3139313464
 20
12.012704362
 10
-12.2996111289
 20
12.0317150196
 10
-12.2846460167
 20
12.0503878601
 10
-12.2690531565
 20
12.0686749177
 10
-12.2528558294
 20
12.0865203346
 10
-12.2360773163
 20
12.1038682529
 10
-12.2187472261
 20
12.1206675156
 10
-12.2009204802
 20
12.1368857689
 10
-12.1826583283
 20
12.1524953597
 10
-12.1640220198
 20
12.167468635
 10
-12.1450632816
 20
12.181785701
 10
-12.1257957496
 20
12.1954577008
 10
-12.1062235374
 20
12.2085035366
 10
-12.0863507583
 20
12.2209421107
 10
-12.0661825752
 20
12.2327891974
 10
-12.0457283487
 20
12.2440480588
 10
-12.0249984887
 20
12.2547188291
 10
-12.0040034052
 20
12.2648016426
 10
-11.9827586503
 20
12.2742946271
 10
-11.9613003433
 20
12.2831878853
 10
-11.9396697458
 20
12.2914695132
 10
-11.9179081191
 20
12.2991276071
 10
-11.8960597735
 20
12.3061518549
 10
-11.8741812146
 20
12.3125383113
 10
-11.8523319966
 20
12.3182846224
 10
-11.8305716741
 20
12.3233884346
 10
-11.8089486818
 20
12.3278504194
 10
-11.7874669758
 20
12.3316833498
 10
-11.7661193926
 20
12.3349030241
 10
-11.7448987688
 20
12.3375252406
 10
-11.7237926283
 20
12.3395631205
 10
-11.7027672443
 20
12.3410190763
 10
-11.6817835775
 20
12.3418928438
 10
-11.6608025884
 20
12.3421841583
  0
LWPOLYLINE
  5
2C2
100
AcDbEntity
  8
0
100
AcDbPolyline
 62
253
  6
CONTINUOUS
 90
53
 70
0
 10
-11.3864174706
 20
-13.4057303114
 10
-11.3865222778
 20
-13.4128382776
 10
-11.3868344429
 20
-13.4199063892
 10
-11.3873505814
 20
-13.4269367962
 10
-11.3880673086
 20
-13.4339316486
 10
-11.38898124
 20
-13.4408930962
 10
-11.390088991
 20
-13.4478232889
 10
-11.391387177
 20
-13.4547243768
 10
-11.3931382379
 20
-13.4627394644
 10
-11.3951405448
 20
-13.4707076899
 10
-11.397390747
 20
-13.4786188801
 10
-11.399885494
 20
-13.4864628617
 10
-11.4026214355
 20
-13.4942294613
 10
-11.4055952208
 20
-13.5019085056
 10
-11.4088036282
 20
-13.509490297
 10
-11.4122439504
 20
-13.5169670416
 10
-11.415913609
 20
-13.5243314208
 10
-11.4198100255
 20
-13.5315761163
 10
-11.4239306214
 20
-13.5386938099
 10
-11.4282728181
 20
-13.5456771831
 10
-11.4321691934
 20
-13.5515502456
 10
-11.4362252838
 20
-13.5573132551
 10
-11.4404398901
 20
-13.5629602198
 10
-11.4448118129
 20
-13.5684851478
 10
-11.4493398529
 20
-13.5738820473
 10
-11.454022811
 20
-13.5791449264
 10
-11.4588594877
 20
-13.5842677932
 10
-11.4638479031
 20
-13.5892453129
 10
-11.4689829537
 20
-13.594074779
 10
-11.4742587554
 20
-13.598754142
 10
-11.4796694241
 20
-13.6032813525
 10
-11.4852090756
 20
-13.607654361
 10
-11.4908718257
 20
-13.6118711181
 10
-11.4966517903
 20
-13.6159295743
 10
-11.5035358221
 20
-13.6204618171
 10
-11.5105647046
 20
-13.6247736684
 10
-11.517731756
 20
-13.6288629911
 10
-11.5250302942
 20
-13.6327276484
 10
-11.5324536369
 20
-13.6363655032
 10
-11.5399951023
 20
-13.6397744187
 10
-11.5476475661
 20
-13.6429519505
 10
-11.5554021357
 20
-13.6458944244
 10
-11.5632494768
 20
-13.648597859
 10
-11.5711802547
 20
-13.6510582727
 10
-11.5791851349
 20
-13.6532716839
 10
-11.5872547827
 20
-13.6552341112
 10
-11.5942174255
 20
-13.6567131711
 10
-11.6012228821
 20
-13.6580009631
 10
-11.6082732403
 20
-13.6590935408
 10
-11.6153705875
 20
-13.6599869579
 10
-11.6225170114
 20
-13.6606772682
 10
-11.6297145994
 20
-13.6611605251
 10
-11.6369654392
 20
-13.6614327825
  0
LWPOLYLINE
  5
2C3
100
AcDbEntity
  8
0
100
AcDbPolyline
 62
253
  6
CONTINUOUS
 90
53
 70
0
 10
-11.0847572005
 20
-11.4827386452
 10
-11.0849938303
 20
-11.4984811976
 10
-11.0856983719
 20
-11.5141291678
 10
-11.0868628039
 20
-11.5296875051
 10
-11.088479105
 20
-11.5451611595
 10
-11.0905392536
 20
-11.5605550804
 10
-11.0930352283
 20
-11.5758742175
 10
-11.0959590077
 20
-11.5911235206
 10
-11.0999007768
 20
-11.6088275049
 10
-11.1044053609
 20
-11.6264197744
 10
-11.1094642037
 20
-11.6438769291
 10
-11.1150687485
 20
-11.661175569
 10
-11.121210439
 20
-11.6782922943
 10
-11.1278807185
 20
-11.695203705
 10
-11.135071489
 20
-11.7118877057
 10
-11.1427764867
 20
-11.7283274184
 10
-11.1509899059
 20
-11.7445072699
 10
-11.1597059414
 20
-11.7604116867
 10
-11.1689187874
 20
-11.7760250955
 10
-11.1786226388
 20
-11.7913319229
 10
-11.1873265546
 20
-11.8041956136
 10
-11.1963828654
 20
-11.8168090415
 10
-11.2057874929
 20
-11.829158629
 10
-11.2155363586
 20
-11.8412307986
 10
-11.2256253843
 20
-11.8530119726
 10
-11.2360504916
 20
-11.8644885735
 10
-11.2468076023
 20
-11.8756470235
 10
-11.257891083
 20
-11.886475421
 10
-11.2692890813
 20
-11.8969685668
 10
-11.2809881895
 20
-11.9071229378
 10
-11.2929750003
 20
-11.9169350108
 10
-11.3052361061
 20
-11.9264012626
 10
-11.3177580993
 20
-11.9355181699
 10
-11.3305275726
 20
-11.9442822096
 10
-11.3457211306
 20
-11.9540563381
 10
-11.3612176301
 20
-11.963340393
 10
-11.3770014136
 20
-11.9721293881
 10
-11.3930568239
 20
-11.9804183374
 10
-11.4093682037
 20
-11.9882022546
 10
-11.4259198957
 20
-11.9954761538
 10
-11.4426951397
 20
-12.0022345767
 10
-11.4596727644
 20
-12.0084701763
 10
-11.4768304957
 20
-12.0141751336
 10
-11.4941460594
 20
-12.0193416296
 10
-11.5115971814
 20
-12.0239618452
 10
-11.5291615875
 20
-12.0280279613
 10
-11.5442932128
 20
-12.0310658272
 10
-11.5594965112
 20
-12.0336833419
 10
-11.5747762914
 20
-12.0358729924
 10
-11.5901373621
 20
-12.0376272656
 10
-11.6055845318
 20
-12.0389386484
 10
-11.6211226093
 20
-12.0397996278
 10
-11.6367564031
 20
-12.0402026908
  0
LWPOLYLINE
  5
2C4
100
AcDbEntity
  8
0
100
AcDbPolyline
 62
253
  6
CONTINUOUS
 90
55
 70
0
 10
-11.8978746798
 20
-12.8780100337
 10
-11.8977505002
 20
-12.8702573791
 10
-11.897380559
 20
-12.8625780324
 10
-11.8967687525
 20
-12.8549525915
 10
-11.8959189769
 20
-12.8473616543
 10
-11.8948351288
 20
-12.8397858189
 10
-11.8935200901
 20
-12.8322096405
 10
-11.8919726862
 20
-12.824633504
 10
-11.890190728
 20
-12.8170617516
 10
-11.8881720266
 20
-12.8094987255
 10
-11.885914393
 20
-12.801948768
 10
-11.8834160045
 20
-12.7944174829
 10
-11.8806765036
 20
-12.7869155206
 10
-11.8776958986
 20
-12.7794547929
 10
-11.8744741983
 20
-12.7720472119
 10
-11.8710114113
 20
-12.7647046894
 10
-11.867943147
 20
-12.7586461647
 10
-11.8647167657
 20
-12.7526597007
 10
-11.8613415658
 20
-12.7467639066
 10
-11.8578239109
 20
-12.740972708
 10
-11.8541584249
 20
-12.7352812978
 10
-11.8503367969
 20
-12.7296801855
 10
-11.8463526042
 20
-12.7241630955
 10
-11.8422069771
 20
-12.7187366118
 10
-11.8379029341
 20
-12.7134105332
 10
-11.8334434935
 20
-12.7081946585
 10
-11.8288316738
 20
-12.7030987866
 10
-11.8240704936
 20
-12.6981327161
 10
-11.8191637687
 20
-12.6933050959
 10
-11.8141185041
 20
-12.6886199744
 10
-11.8089425024
 20
-12.6840802499
 10
-11.8036435661
 20
-12.6796888208
 10
-11.7982294977
 20
-12.6754485856
 10
-11.7927080995
 20
-12.6713624425
 10
-11.7870841481
 20
-12.6674315894
 10
-11.7813503148
 20
-12.6636504226
 10
-11.7754962453
 20
-12.6600116379
 10
-11.7695173142
 20
-12.656511386
 10
-11.7634318135
 20
-12.653159638
 10
-11.7572637644
 20
-12.6499698199
 10
-11.7497826894
 20
-12.6463708954
 10
-11.7422331995
 20
-12.6430249191
 10
-11.7346311586
 20
-12.6399323265
 10
-11.7269924309
 20
-12.6370935533
 10
-11.7193328805
 20
-12.6345090349
 10
-11.7116661106
 20
-12.6321785128
 10
-11.7039966815
 20
-12.6300989515
 10
-11.6963268924
 20
-12.6282666214
 10
-11.6886590428
 20
-12.6266777929
 10
-11.680995432
 20
-12.6253287364
 10
-11.6733346498
 20
-12.6242170132
 10
-11.6656604477
 20
-12.6233453485
 10
-11.6579528677
 20
-12.6227177585
 10
-11.6501919518
 20
-12.6223382593
 10
-11.6423577418
 20
-12.6222108671
  0
LWPOLYLINE
  5
2C5
100
AcDbEntity
  8
0
100
AcDbPolyline
 62
253
  6
CONTINUOUS
 90
53
 70
0
 10
-11.9164593951
 20
14.26302388
 10
-11.9163339258
 20
14.2708011778
 10
-11.9159602245
 20
14.2785043638
 10
-11.9153423516
 20
14.2861526873
 10
-11.9144843672
 20
14.2937653975
 10
-11.9133903315
 20
14.3013617438
 10
-11.9120632745
 20
14.3089570707
 10
-11.9105021059
 20
14.316551103
 10
-11.9087047051
 20
14.3241396608
 10
-11.9066689513
 20
14.3317185642
 10
-11.904392724
 20
14.3392836333
 10
-11.9018742857
 20
14.3468293819
 10
-11.8991134312
 20
14.3543450997
 10
-11.8961103381
 20
14.3618187699
 10
-11.8928651844
 20
14.369238376
 10
-11.8893781479
 20
14.3765919014
 10
-11.8862892275
 20
14.3826587138
 10
-11.8830420796
 20
14.3886524717
 10
-11.8796463274
 20
14.3945543548
 10
-11.876108633
 20
14.4003502621
 10
-11.8724238132
 20
14.4060449693
 10
-11.868583724
 20
14.4116479712
 10
-11.8637624341
 20
14.4182584115
 10
-11.8587111944
 20
14.4247339976
 10
-11.8534353709
 20
14.4310582583
 10
-11.8479403295
 20
14.4372147222
 10
-11.8422314361
 20
14.4431869182
 10
-11.8363154257
 20
14.4489602835
 10
-11.8302045096
 20
14.4545278898
 10
-11.8239122681
 20
14.4598847172
 10
-11.8174522815
 20
14.4650257458
 10
-11.8108381302
 20
14.4699459558
 10
-11.8052153407
 20
14.4738755212
 10
-11.7994846047
 20
14.4776555065
 10
-11.7936356038
 20
14.4812931638
 10
-11.7876636931
 20
14.4847923211
 10
-11.7815869214
 20
14.4881431095
 10
-11.7754290112
 20
14.491332236
 10
-11.7679615889
 20
14.494930822
 10
-11.7604271112
 20
14.4982769699
 10
-11.7528412019
 20
14.501370177
 10
-11.745219485
 20
14.5042099405
 10
-11.7375775845
 20
14.5067957575
 10
-11.7299288981
 20
14.5091278134
 10
-11.7222779189
 20
14.5112090463
 10
-11.7146269135
 20
14.5130430825
 10
-11.7069781489
 20
14.514633548
 10
-11.6993338919
 20
14.5159840691
 10
-11.6916927534
 20
14.5170969988
 10
-11.6840387216
 20
14.5179695969
 10
-11.6763521286
 20
14.5185978503
 10
-11.6686133068
 20
14.5189777454
 10
-11.6608025884
 20
14.5191052689
  0
LWPOLYLINE
  5
2C6
100
AcDbEntity
  8
0
100
AcDbPolyline
 62
253
  6
CONTINUOUS
 90
52
 70
0
 10
-12.1998524498
 20
-11.4827386452
 10
-12.1995742587
 20
-11.4654901815
 10
-12.198738327
 20
-11.4482771738
 10
-12.1973426168
 20
-11.431088957
 10
-12.1953850904
 20
-11.4139148658
 10
-12.19286371
 20
-11.396744235
 10
-12.1897764377
 20
-11.3795663993
 10
-12.1861212358
 20
-11.3623706934
 10
-12.1818960665
 20
-11.3451464523
 10
-12.177659964
 20
-11.32980843
 10
-12.1729689276
 20
-11.314461895
 10
-12.1678199785
 20
-11.299129308
 10
-12.1622101374
 20
-11.2838331296
 10
-12.1561364254
 20
-11.2685958204
 10
-12.1495958634
 20
-11.2534398411
 10
-12.1425854723
 20
-11.2383876523
 10
-12.1351022732
 20
-11.2234617146
 10
-12.1271432869
 20
-11.2086844887
 10
-12.1187076915
 20
-11.1940793119
 10
-12.1098032944
 20
-11.1796730285
 10
-12.1004400597
 20
-11.1654933595
 10
-12.0906279518
 20
-11.1515680259
 10
-12.0803769351
 20
-11.1379247486
 10
-12.0696969739
 20
-11.1245912487
 10
-12.0585980327
 20
-11.1115952471
 10
-12.0470900756
 20
-11.0989644649
 10
-12.0351830671
 20
-11.0867266231
 10
-12.0228896017
 20
-11.0749056427
 10
-12.0102327946
 20
-11.0635102457
 10
-11.9972383912
 20
-11.052545354
 10
-11.9839321369
 20
-11.0420158897
 10
-11.9703397771
 20
-11.0319267746
 10
-11.9564870571
 20
-11.022282931
 10
-11.9423997224
 20
-11.0130892806
 10
-11.9281035183
 20
-11.0043507456
 10
-11.9136241902
 20
-10.996072248
 10
-11.8971450764
 20
-10.9873130275
 10
-11.8804852247
 20
-10.9791377142
 10
-11.8636630795
 20
-10.9715417513
 10
-11.8466970853
 20
-10.9645205817
 10
-11.8296101486
 20
-10.9580709912
 10
-11.8124430249
 20
-10.9521951362
 10
-11.7952409317
 20
-10.9468965155
 10
-11.7780490865
 20
-10.942178628
 10
-11.7609060621
 20
-10.9380424795
 10
-11.7438238519
 20
-10.9344791017
 10
-11.7268078046
 20
-10.9314770335
 10
-11.7098632687
 20
-10.9290248134
 10
-11.6929870075
 20
-10.9271134647
 10
-11.6761414421
 20
-10.9257439489
 10
-11.6592804083
 20
-10.9249197122
 10
-11.6423577418
 20
-10.9246442009
  0
LWPOLYLINE
  5
2C7
100
AcDbEntity
  8
0
100
AcDbPolyline
 62
253
  6
CONTINUOUS
 90
49
 70
0
 10
-11.4050021859
 20
13.1911438803
 10
-11.4051322464
 20
13.1832816364
 10
-11.4055192171
 20
13.1754665258
 10
-11.4061582822
 20
13.167695555
 10
-11.4070446258
 20
13.1599657303
 10
-11.408173432
 20
13.1522740583
 10
-11.4095398849
 20
13.1446175455
 10
-11.4111394319
 20
13.136995184
 10
-11.4129685743
 20
13.1294139098
 10
-11.4150240765
 20
13.1218826442
 10
-11.4173027032
 20
13.1144103089
 10
-11.4198012189
 20
13.1070058255
 10
-11.4225163881
 20
13.0996781154
 10
-11.4254450722
 20
13.0924355982
 10
-11.4285845202
 20
13.0852846846
 10
-11.4319320778
 20
13.0782312834
 10
-11.4354850906
 20
13.0712813034
 10
-11.4392409045
 20
13.0644406531
 10
-11.4431968652
 20
13.0577152413
 10
-11.4473505913
 20
13.0511112903
 10
-11.4517007932
 20
13.0446362764
 10
-11.4562464542
 20
13.0382979897
 10
-11.4609865575
 20
13.03210422
 10
-11.4659200865
 20
13.0260627573
 10
-11.4710460244
 20
13.0201813915
 10
-11.4763623952
 20
13.0144673173
 10
-11.481863386
 20
13.0089253483
 10
-11.4875422247
 20
13.0035597028
 10
-11.4933921389
 20
12.9983745993
 10
-11.4994063567
 20
12.9933742561
 10
-11.5055781057
 20
12.9885628914
 10
-11.5119007503
 20
12.9839442916
 10
-11.5183682005
 20
12.9795205138
 10
-11.5249745029
 20
12.9752931833
 10
-11.5317137041
 20
12.9712639252
 10
-11.5385798506
 20
12.9674343646
 10
-11.545566989
 20
12.9638061267
 10
-11.5526689573
 20
12.9603811593
 10
-11.5598787596
 20
12.9571627005
 10
-11.5671891917
 20
12.9541543114
 10
-11.5745930491
 20
12.9513595529
 10
-11.5820831276
 20
12.9487819858
 10
-11.5896522227
 20
12.9464251711
 10
-11.5972948346
 20
12.9442928758
 10
-11.605012282
 20
12.9423896914
 10
-11.6128075878
 20
12.9407204156
 10
-11.6206837753
 20
12.939289846
 10
-11.6286438675
 20
12.9381027802
 10
-11.6366908875
 20
12.9371640158
  0
LWPOLYLINE
  5
2C8
100
AcDbEntity
  8
0
100
AcDbPolyline
 62
253
  6
CONTINUOUS
 90
51
 70
0
 10
-10.8475074779
 20
11.5292077696
 10
-10.8479182097
 20
11.5042659309
 10
-10.8491432328
 20
11.4794672707
 10
-10.8511717885
 20
11.4547482296
 10
-10.8539931184
 20
11.4300452482
 10
-10.8575997941
 20
11.4053070445
 10
-10.8619977079
 20
11.3805314453
 10
-10.8671960825
 20
11.3557285552
 10
-10.8732041404
 20
11.3309084784
 10
-10.8800281555
 20
11.3060890767
 10
-10.8876626069
 20
11.2813192422
 10
-10.8960990252
 20
11.2566556242
 10
-10.9053289407
 20
11.2321548721
 10
-10.9153455146
 20
11.2078681827
 10
-10.9261484301
 20
11.1838249422
 10
-10.9377390009
 20
11.1600490839
 10
-10.950118541
 20
11.1365645414
 10
-10.9617845047
 20
11.115955773
 10
-10.974066941
 20
11.0956277259
 10
-10.9869579015
 20
11.0756120356
 10
-11.0004494376
 20
11.0559403377
 10
-11.0145336009
 20
11.0366442675
 10
-11.0292024428
 20
11.0177554608
 10
-11.0444480149
 20
10.9993055529
 10
-11.0602623686
 20
10.9813261795
 10
-11.0766375554
 20
10.963848976
 10
-11.0935619573
 20
10.9469019232
 10
-11.1110092784
 20
10.9304983829
 10
-11.1289495531
 20
10.9146480624
 10
-11.147352816
 20
10.8993606687
 10
-11.1661891014
 20
10.884645909
 10
-11.185428444
 20
10.8705134904
 10
-11.2050408783
 20
10.8569731199
 10
-11.2249964386
 20
10.8440345049
 10
-11.2452651596
 20
10.8317073522
 10
-11.2684072274
 20
10.8185796631
 10
-11.2918815031
 20
10.8062362568
 10
-11.315661776
 20
10.7946752485
 10
-11.339721835
 20
10.7838947533
 10
-11.3640302671
 20
10.7738948772
 10
-11.3885348503
 20
10.7646836902
 10
-11.4131781603
 20
10.7562712531
 10
-11.4379027727
 20
10.7486676268
 10
-11.4626590777
 20
10.7418795616
 10
-11.4874287226
 20
10.735900565
 10
-11.5122011691
 20
10.7307208342
 10
-11.5369658789
 20
10.7263305662
 10
-11.5617249236
 20
10.722722955
 10
-11.5865308152
 20
10.7199031831
 10
-11.6114486755
 20
10.7178794301
 10
-11.6365436264
 20
10.7166598754
  0
LINE
  5
2C9
100
AcDbEntity
  8
0
100
AcDbLine
 62
253
  6
CONTINUOUS
 10
-11.6367563758
 20
-12.0402026905
 11
-11.6423577418
 21
-12.0402333673
  0
LINE
  5
2CA
100
AcDbEntity
  8
0
100
AcDbLine
 62
253
  6
CONTINUOUS
 10
-11.6423577418
 20
-10.9246442009
 11
-11.6365986133
 21
-10.9246766436
  0
LWPOLYLINE
  5
2CB
100
AcDbEntity
  8
0
100
AcDbPolyline
 62
253
  6
CONTINUOUS
 90
28
 70
0
 10
-12.8511507666
 20
-11.0405669786
 10
-12.8559255614
 20
-11.0405192275
 10
-12.8606887557
 20
-11.0403766976
 10
-12.8654410211
 20
-11.0401404737
 10
-12.8701830292
 20
-11.0398116407
 10
-12.8749154515
 20
-11.0393912836
 10
-12.8796389596
 20
-11.0388804872
 10
-12.8843542251
 20
-11.0382803364
 10
-12.8890614728
 20
-11.03759182
 10
-12.8937591397
 20
-11.0368155425
 10
-12.8984452164
 20
-11.0359520123
 10
-12.9031176932
 20
-11.0350017377
 10
-12.9077745604
 20
-11.0339652272
 10
-12.9124138084
 20
-11.0328429891
 10
-12.9170334275
 20
-11.0316355319
 10
-12.9216314455
 20
-11.0303433361
 10
-12.9262060391
 20
-11.0289667719
 10
-12.9307554222
 20
-11.0275061814
 10
-12.935277809
 20
-11.025961907
 10
-12.9397714133
 20
-11.0243342909
 10
-12.9442344494
 20
-11.0226236755
 10
-12.9486651311
 20
-11.020830403
 10
-12.9530619386
 20
-11.0189545156
 10
-12.9574244159
 20
-11.0169948553
 10
-12.9617523734
 20
-11.0149499638
 10
-12.9660456211
 20
-11.012818383
 10
-12.9703039693
 20
-11.0105986548
 10
-12.9745272281
 20
-11.0082893208
  0
LWPOLYLINE
  5
2CC
100
AcDbEntity
  8
0
100
AcDbPolyline
 62
253
  6
CONTINUOUS
 90
42
 70
0
 10
-10.4334588838
 20
-11.0405669786
 10
-10.4388868203
 20
-11.0404961871
 10
-10.4442875107
 20
-11.0402857243
 10
-10.4496674671
 20
-11.0399384576
 10
-10.4550332013
 20
-11.0394572544
 10
-10.4603912253
 20
-11.0388449821
 10
-10.465748051
 20
-11.038104508
 10
-10.4721818354
 20
-11.0370499237
 10
-10.4786225628
 20
-11.0358148541
 10
-10.4850695247
 20
-11.0343992951
 10
-10.4915220125
 20
-11.0328032429
 10
-10.4979793177
 20
-11.0310266934
 10
-10.5044388371
 20
-11.0290703807
 10
-10.5108903887
 20
-11.02693799
 10
-10.517321896
 20
-11.0246339445
 10
-10.5237212824
 20
-11.0221626675
 10
-10.5300764713
 20
-11.019528582
 10
-10.5363764643
 20
-11.0167359929
 10
-10.5426145749
 20
-11.0137887319
 10
-10.5487851946
 20
-11.0106905123
 10
-10.5548827151
 20
-11.0074450472
 10
-10.560901528
 20
-11.00405605
 10
-10.5668359484
 20
-11.000527181
 10
-10.5726799863
 20
-10.9968618877
 10
-10.5784275754
 20
-10.9930635651
 10
-10.5840726491
 20
-10.9891356077
 10
-10.5896091412
 20
-10.9850814102
 10
-10.5950303783
 20
-10.9809052721
 10
-10.6003272592
 20
-10.9766151126
 10
-10.605490076
 20
-10.9722197554
 10
-10.6105091207
 20
-10.9677280244
 10
-10.6153746853
 20
-10.9631487434
 10
-10.6200787581
 20
-10.958489368
 10
-10.6246201141
 20
-10.9537518805
 10
-10.6289992244
 20
-10.9489368947
 10
-10.6332165602
 20
-10.9440450244
 10
-10.6372725928
 20
-10.9390768838
 10
-10.6411680336
 20
-10.934031069
 10
-10.6449045541
 20
-10.9288981067
 10
-10.6484840661
 20
-10.9236665056
 10
-10.6519084813
 20
-10.9183247748
 10
-10.6551797115
 20
-10.9128614231
  0
LWPOLYLINE
  5
2CD
100
AcDbEntity
  8
0
100
AcDbPolyline
 62
253
  6
CONTINUOUS
 90
52
 70
0
 10
-11.6423577418
 20
-12.0402333673
 10
-11.659458163
 20
-12.0399522157
 10
-11.6764886349
 20
-12.0391115643
 10
-11.6934962482
 20
-12.0377156178
 10
-11.710528094
 20
-12.035768581
 10
-11.7276224487
 20
-12.033272075
 10
-11.7447823312
 20
-12.0302173853
 10
-11.7620019461
 20
-12.0265932138
 10
-11.779275498
 20
-12.0223882623
 10
-11.7965905173
 20
-12.0175939285
 10
-11.8139078388
 20
-12.0122123931
 10
-11.8311816232
 20
-12.0062485325
 10
-11.848366031
 20
-11.9997072232
 10
-11.8620209656
 20
-11.9940605707
 10
-11.8755812727
 20
-11.9880432546
 10
-11.8890388632
 20
-11.9816510574
 10
-11.9023856476
 20
-11.9748797619
 10
-11.9156135368
 20
-11.9677251505
 10
-11.9301589498
 20
-11.9593233695
 10
-11.9445187492
 20
-11.9504522754
 10
-11.9586640925
 20
-11.9411209912
 10
-11.9725661372
 20
-11.9313386399
 10
-11.9861960408
 20
-11.9211143445
 10
-11.9995249609
 20
-11.9104572279
 10
-12.0125240548
 20
-11.8993764133
 10
-12.0251644801
 20
-11.8878810235
 10
-12.0374173944
 20
-11.8759801816
 10
-12.0492577769
 20
-11.8636859982
 10
-12.0606758947
 20
-11.8510225339
 10
-12.0716658367
 20
-11.8380168369
 10
-12.0822216918
 20
-11.8246959557
 10
-12.0923375489
 20
-11.8110869384
 10
-12.1020074968
 20
-11.7972168333
 10
-12.1112256245
 20
-11.7831126887
 10
-12.1199860208
 20
-11.7688015528
 10
-12.1282827747
 20
-11.7543104739
 10
-12.1370575088
 20
-11.737822968
 10
-12.1452442097
 20
-11.7211586731
 10
-12.1528491228
 20
-11.7043343075
 10
-12.1598784937
 20
-11.6873665897
 10
-12.166336916
 20
-11.6702767985
 10
-12.1722223761
 20
-11.6531044546
 10
-12.1775312085
 20
-11.635893639
 10
-12.1822597478
 20
-11.6186884328
 10
-12.1864067728
 20
-11.6015265887
 10
-12.1899808395
 20
-11.5844205453
 10
-12.1929929482
 20
-11.5673764126
 10
-12.1954540992
 20
-11.550400301
 10
-12.1973728446
 20
-11.5334895764
 10
-12.198747944
 20
-11.5166066285
 10
-12.1995757086
 20
-11.4997051029
 10
-12.1998524498
 20
-11.4827386452
  0
LWPOLYLINE
  5
2CE
100
AcDbEntity
  8
0
100
AcDbPolyline
 62
253
  6
CONTINUOUS
 90
53
 70
0
 10
-11.6365985839
 20
-10.9246766439
 10
-11.6208463913
 20
-10.9250893854
 10
-11.6051936131
 20
-10.9259667338
 10
-11.5896352266
 20
-10.9273009476
 10
-11.5741662095
 20
-10.9290842854
 10
-11.5587815391
 20
-10.9313090058
 10
-11.543476193
 20
-10.9339673673
 10
-11.5282451487
 20
-10.9370516285
 10
-11.5105680096
 20
-10.9411785377
 10
-11.4930084164
 20
-10.9458661692
 10
-11.4755896182
 20
-10.9511060852
 10
-11.458334864
 20
-10.9568898481
 10
-11.4412674031
 20
-10.9632090202
 10
-11.4244104846
 20
-10.9700551639
 10
-11.4077861622
 20
-10.9774203066
 10
-11.3914117088
 20
-10.9852983353
 10
-11.3753032018
 20
-10.993683602
 10
-11.3594767188
 20
-11.002570459
 10
-11.343948337
 20
-11.0119532582
 10
-11.3287341342
 20
-11.0218263518
 10
-11.3159561848
 20
-11.0306747842
 10
-11.3034342862
 20
-11.0398746937
 10
-11.2911818521
 20
-11.0494214905
 10
-11.2792122961
 20
-11.0593105848
 10
-11.2675390317
 20
-11.069537387
 10
-11.2561754726
 20
-11.0800973074
 10
-11.2451350322
 20
-11.0909857561
 10
-11.2344293886
 20
-11.1021966377
 10
-11.2240632771
 20
-11.1137178335
 10
-11.2140396976
 20
-11.125535719
 10
-11.2043616498
 20
-11.1376366698
 10
-11.1950321335
 20
-11.1500070615
 10
-11.1860541484
 20
-11.1626332694
 10
-11.1774306944
 20
-11.1755016693
 10
-11.167822132
 20
-11.1908037808
 10
-11.158705237
 20
-11.20640167
 10
-11.1500850376
 20
-11.2222800089
 10
-11.141966562
 20
-11.2384234694
 10
-11.1343548385
 20
-11.2548167237
 10
-11.1272548953
 20
-11.2714444436
 10
-11.120672218
 20
-11.288290131
 10
-11.1146141219
 20
-11.3053326071
 10
-11.1090883797
 20
-11.3225495228
 10
-11.104102764
 20
-11.3399185292
 10
-11.0996650476
 20
-11.3574172772
 10
-11.0957830032
 20
-11.3750234177
 10
-11.0929041704
 20
-11.3901860633
 10
-11.0904470269
 20
-11.405415915
 10
-11.0884193028
 20
-11.4207176979
 10
-11.0868287281
 20
-11.4360961373
 10
-11.0856830328
 20
-11.4515559582
 10
-11.0849899469
 20
-11.4671018858
 10
-11.0847572005
 20
-11.4827386452
  0
LWPOLYLINE
  5
2CF
100
AcDbEntity
  8
0
100
AcDbPolyline
 62
253
  6
CONTINUOUS
 90
55
 70
0
 10
-10.2543822152
 20
11.5292077696
 10
-10.2542581586
 20
11.5369533641
 10
-10.2538885657
 20
11.5446259333
 10
-10.2532773017
 20
11.552244929
 10
-10.2524282319
 20
11.5598298035
 10
-10.2513452217
 20
11.5674000087
 10
-10.2500311288
 20
11.5749710178
 10
-10.2484847818
 20
11.5825423881
 10
-10.2467040017
 20
11.5901096983
 10
-10.2446866095
 20
11.5976685268
 10
-10.2424304263
 20
11.6052144523
 10
-10.2399336313
 20
11.6127418178
 10
-10.2371958368
 20
11.6202400248
 10
-10.2342170134
 20
11.6276972393
 10
-10.2309971317
 20
11.6351016274
 10
-10.227536162
 20
11.6424413551
 10
-10.2244693667
 20
11.6484979255
 10
-10.2212443015
 20
11.6544828963
 10
-10.2178701388
 20
11.660377789
 10
-10.2143531246
 20
11.6661687834
 10
-10.210687798
 20
11.6718606922
 10
-10.2068657713
 20
11.6774629866
 10
-10.202880557
 20
11.6829819064
 10
-10.1987332683
 20
11.6884107663
 10
-10.1944269187
 20
11.6937396497
 10
-10.1899645216
 20
11.69895864
 10
-10.1853490904
 20
11.7040578208
 10
-10.1805836386
 20
11.7090272755
 10
-10.175671971
 20
11.7138582581
 10
-10.1706210576
 20
11.7185467057
 10
-10.1654386597
 20
11.7230897259
 10
-10.1601325388
 20
11.7274844264
 10
-10.1547104562
 20
11.7317279148
 10
-10.1491801733
 20
11.7358172987
 10
-10.143546425
 20
11.7397513844
 10
-10.1378018404
 20
11.7435357719
 10
-10.1319360222
 20
11.7471777598
 10
-10.1259443361
 20
11.7506811796
 10
-10.1198451998
 20
11.7540359931
 10
-10.1136627939
 20
11.7572286948
 10
-10.1061637357
 20
11.7608307534
 10
-10.0985955627
 20
11.7641795042
 10
-10.0909742481
 20
11.767274528
 10
-10.0833157649
 20
11.7701154055
 10
-10.0756360864
 20
11.7727017178
 10
-10.0679489054
 20
11.7750337434
 10
-10.060258795
 20
11.7771145519
 10
-10.0525680477
 20
11.7789479108
 10
-10.0448789563
 20
11.7805375875
 10
-10.0371938137
 20
11.7818873494
 10
-10.0295111874
 20
11.782999665
 10
-10.0218147448
 20
11.7838718074
 10
-10.0140844285
 20
11.7844997506
 10
-10.0063001808
 20
11.7848794688
 10
-9.998441944
 20
11.7850069362
  0
LWPOLYLINE
  5
2D0
100
AcDbEntity
  8
0
100
AcDbPolyline
 62
253
  6
CONTINUOUS
 90
55
 70
0
 10
-8.6715389223
 20
11.5292077696
 10
-8.6716639607
 20
11.5214356776
 10
-8.6720364117
 20
11.5137375015
 10
-8.6726522788
 20
11.5060939052
 10
-8.6735075658
 20
11.4984855525
 10
-8.6745982761
 20
11.4908931074
 10
-8.6759214382
 20
11.4833011653
 10
-8.6774781787
 20
11.4757100484
 10
-8.679270649
 20
11.4681240106
 10
-8.6813010006
 20
11.4605473058
 10
-8.6835713849
 20
11.4529841877
 10
-8.6860835764
 20
11.4454401991
 10
-8.6888378428
 20
11.4379260373
 10
-8.6918340751
 20
11.4304536887
 10
-8.695072164
 20
11.4230351395
 10
-8.6985520005
 20
11.4156823759
 10
-8.7016348808
 20
11.4096159418
 10
-8.704876064
 20
11.4036222625
 10
-8.7082660486
 20
11.3977200848
 10
-8.711798286
 20
11.3919234501
 10
-8.7154780402
 20
11.3862275795
 10
-8.7193135282
 20
11.3806229888
 10
-8.7233110845
 20
11.3751033799
 10
-8.7274695129
 20
11.3696751979
 10
-8.7317857346
 20
11.3643480741
 10
-8.736256671
 20
11.3591316396
 10
-8.7408792433
 20
11.3540355254
 10
-8.7456503726
 20
11.3490693629
 10
-8.7505661848
 20
11.3442416597
 10
-8.7556196231
 20
11.3395564306
 10
-8.7608028354
 20
11.3350165672
 10
-8.7661079695
 20
11.3306249607
 10
-8.771527173
 20
11.3263845026
 10
-8.777052594
 20
11.3222980843
 10
-8.7826794118
 20
11.3183669045
 10
-8.788414933
 20
11.3145853897
 10
-8.794269496
 20
11.3109462738
 10
-8.8002477432
 20
11.3074457243
 10
-8.8063315338
 20
11.3040936425
 10
-8.8124970313
 20
11.3009033634
 10
-8.8199741659
 20
11.2973036227
 10
-8.8275189226
 20
11.2939565584
 10
-8.8351155904
 20
11.2908626489
 10
-8.8427484581
 20
11.2880223724
 10
-8.8504018145
 20
11.2854362073
 10
-8.8580621856
 20
11.2831039423
 10
-8.8657250451
 20
11.2810226083
 10
-8.8733881035
 20
11.2791885464
 10
-8.8810490716
 20
11.2775980977
 10
-8.8887056601
 20
11.2762476036
 10
-8.8963592597
 20
11.2751346851
 10
-8.9040259822
 20
11.2742620829
 10
-8.9117256193
 20
11.2736338177
 10
-8.9194779628
 20
11.2732539102
 10
-8.9273028046
 20
11.2731263808
  0
LINE
  5
2D1
100
AcDbEntity
  8
ASSI
100
AcDbLine
 62
253
  6
CONTINUOUS
 10
-22.5503491985
 20
-21.5119825338
 11
-22.6433253513
 21
-21.6980624348
  0
LINE
  5
2D2
100
AcDbEntity
  8
ASSI
100
AcDbLine
 62
253
  6
CONTINUOUS
 10
-22.050520536
 20
-22.0112973012
 11
-22.1426989297
 21
-22.1957805891
  0
LWPOLYLINE
  5
2D3
100
AcDbEntity
  8
0
100
AcDbPolyline
 62
253
  6
CONTINUOUS
 90
53
 70
0
 10
-11.6365851461
 20
-10.3429133921
 10
-11.6294727508
 20
-10.3426353538
 10
-11.6224049693
 20
-10.3421526288
 10
-11.6153795703
 20
-10.3414683414
 10
-11.6083943229
 20
-10.3405856161
 10
-11.601446996
 20
-10.3395075771
 10
-11.5945353585
 20
-10.3382373487
 10
-11.5876571794
 20
-10.3367780554
 10
-11.5796742255
 20
-10.3348404959
 10
-11.571743896
 20
-10.332653242
 10
-11.5638763116
 20
-10.3302196852
 10
-11.556081593
 20
-10.3275432169
 10
-11.5483698607
 20
-10.3246272285
 10
-11.5407512353
 20
-10.3214751115
 10
-11.5332354071
 20
-10.3180900983
 10
-11.5258303438
 20
-10.3144747843
 10
-11.518543583
 20
-10.3106316059
 10
-11.511382662
 20
-10.3065629996
 10
-11.5043551182
 20
-10.3022714016
 10
-11.4974684889
 20
-10.2977592485
 10
-11.4916837175
 20
-10.2937180338
 10
-11.4860138608
 20
-10.2895183564
 10
-11.4804647669
 20
-10.2851620043
 10
-11.4750422839
 20
-10.2806507651
 10
-11.4697522597
 20
-10.275986427
 10
-11.4646005423
 20
-10.2711707776
 10
-11.4595929797
 20
-10.266205605
 10
-11.4547347047
 20
-10.2610934144
 10
-11.4500279884
 20
-10.2558395812
 10
-11.4454743865
 20
-10.2504501983
 10
-11.4410754548
 20
-10.2449313585
 10
-11.4368327492
 20
-10.2392891548
 10
-11.4327478253
 20
-10.2335296799
 10
-11.4288222392
 20
-10.2276590267
 10
-11.4244458365
 20
-10.2206769994
 10
-11.4202908223
 20
-10.2135583536
 10
-11.4163595908
 20
-10.2063095037
 10
-11.4126545368
 20
-10.1989368642
 10
-11.4091780546
 20
-10.1914468496
 10
-11.4059325389
 20
-10.1838458743
 10
-11.4029206516
 20
-10.1761409271
 10
-11.400146125
 20
-10.1683412947
 10
-11.3976129586
 20
-10.160456838
 10
-11.395325152
 20
-10.1524974181
 10
-11.3932867051
 20
-10.1444728958
 10
-11.3915016173
 20
-10.1363931322
 10
-11.3901764658
 20
-10.1294297446
 10
-11.3890443448
 20
-10.1224309269
 10
-11.3881092051
 20
-10.1153945897
 10
-11.3873749972
 20
-10.1083186435
 10
-11.3868456717
 20
-10.1012009989
 10
-11.3865251793
 20
-10.0940395664
 10
-11.3864174706
 20
-10.0868322567
  0
LWPOLYLINE
  5
2D4
100
AcDbEntity
  8
0
100
AcDbPolyline
 62
253
  6
CONTINUOUS
 90
55
 70
0
 10
-11.6423577418
 20
-9.3033480902
 10
-11.6500150161
 20
-9.3034698814
 10
-11.6576062619
 20
-9.3038330613
 10
-11.6651508787
 20
-9.3044343395
 10
-11.6726682661
 20
-9.3052704253
 10
-11.6801778236
 20
-9.3063380282
 10
-11.6876951601
 20
-9.3076349496
 10
-11.6952207219
 20
-9.3091633582
 10
-11.7027511645
 20
-9.3109265148
 10
-11.7102831434
 20
-9.31292768
 10
-11.7178133142
 20
-9.3151701145
 10
-11.7253366217
 20
-9.3176565681
 10
-11.7328411676
 20
-9.3203877468
 10
-11.7403133429
 20
-9.3233638457
 10
-11.7477395384
 20
-9.32658506
 10
-11.755106145
 20
-9.3300515846
 10
-11.7611875166
 20
-9.3331261206
 10
-11.7671974017
 20
-9.3363606674
 10
-11.7731151456
 20
-9.339744746
 10
-11.7789251308
 20
-9.3432709352
 10
-11.7846318868
 20
-9.346944046
 10
-11.7902449802
 20
-9.3507719471
 10
-11.7957708521
 20
-9.3547607549
 10
-11.8012034416
 20
-9.3589095758
 10
-11.8065335624
 20
-9.363215764
 10
-11.8117520281
 20
-9.3676766733
 10
-11.8168496524
 20
-9.3722896579
 10
-11.8218172489
 20
-9.3770520717
 10
-11.8266466863
 20
-9.3819604507
 10
-11.8313340542
 20
-9.3870080582
 10
-11.835876497
 20
-9.3921873396
 10
-11.8402711592
 20
-9.3974907402
 10
-11.8445151855
 20
-9.4029107051
 10
-11.8486057203
 20
-9.4084396797
 10
-11.852541558
 20
-9.4140730381
 10
-11.8563280926
 20
-9.4198178693
 10
-11.8599723676
 20
-9.4256841911
 10
-11.8634780338
 20
-9.4316763798
 10
-11.8668351697
 20
-9.4377762453
 10
-11.8700304609
 20
-9.4439599563
 10
-11.8736361813
 20
-9.4514617688
 10
-11.8769891813
 20
-9.4590342506
 10
-11.88008897
 20
-9.4666616509
 10
-11.8829350564
 20
-9.4743282191
 10
-11.8855269493
 20
-9.4820182043
 10
-11.8878648369
 20
-9.489718076
 10
-11.8899516233
 20
-9.4974231831
 10
-11.8917908919
 20
-9.5051310947
 10
-11.8933862258
 20
-9.5128393798
 10
-11.8947412085
 20
-9.5205456075
 10
-11.8958581304
 20
-9.5282510962
 10
-11.8967341114
 20
-9.535972162
 10
-11.8973649786
 20
-9.5437288707
 10
-11.897746559
 20
-9.5515412878
 10
-11.8978746798
 20
-9.559429479
  0
LINE
  5
2D5
100
AcDbEntity
  8
0
100
AcDbLine
 62
253
  6
CONTINUOUS
 10
-11.6423577418
 20
-10.342984201
 11
-11.6365850817
 21
-10.3429133905
  0
LINE
  5
2D6
100
AcDbEntity
  8
0
100
AcDbLine
 62
253
  6
CONTINUOUS
 10
-11.6364123097
 20
-9.3034229884
 11
-11.6423577418
 21
-9.3033480902
  0
LINE
  5
2D7
100
AcDbEntity
  8
ASSI
100
AcDbLine
 62
253
  6
CONTINUOUS
 10
-22.6433253513
 20
21.7242469735
 11
-22.5503491959
 21
21.5381670671
  0
LINE
  5
2D8
100
AcDbEntity
  8
ASSI
100
AcDbLine
 62
253
  6
CONTINUOUS
 10
-22.1426989297
 20
22.2219651278
 11
-22.0505205334
 21
22.0374818345
  0
LINE
  5
2D9
100
AcDbEntity
  8
ASSI
100
AcDbLine
 62
253
  6
CONTINUOUS
 10
-22.6630532594
 20
0.7129970871
 11
-22.5211743142
 21
0.760280464
  0
LINE
  5
2DA
100
AcDbEntity
  8
ASSI
100
AcDbLine
 62
253
  6
CONTINUOUS
 10
-22.1629961194
 20
0.2130922693
 11
-22.0213456516
 21
0.2602995025
  0
LINE
  5
2DB
100
AcDbEntity
  8
ASSI
100
AcDbLine
 62
253
  6
CONTINUOUS
 10
-22.5211743143
 20
-0.7340959253
 11
-22.6630532594
 21
-0.6868125485
  0
LINE
  5
2DC
100
AcDbEntity
  8
ASSI
100
AcDbLine
 62
253
  6
CONTINUOUS
 10
-22.0213456516
 20
-0.2341149638
 11
-22.1629961194
 21
-0.1869077307
  0
LWPOLYLINE
  5
2DD
100
AcDbEntity
  8
0
100
AcDbPolyline
 62
253
  6
CONTINUOUS
 90
53
 70
0
 10
-13.5294013048
 20
-10.3935019788
 10
-13.5254475905
 20
-10.3868702437
 10
-13.5213162592
 20
-10.3804235354
 10
-13.517001137
 20
-10.3741432476
 10
-13.51249605
 20
-10.368010774
 10
-13.5077948242
 20
-10.3620075084
 10
-13.5028923919
 20
-10.356118755
 10
-13.4977881092
 20
-10.3503454612
 10
-13.4924824381
 20
-10.3446924849
 10
-13.4869758408
 20
-10.3391646841
 10
-13.4812687794
 20
-10.3337669165
 10
-13.475362606
 20
-10.3285048953
 10
-13.4692622324
 20
-10.323387753
 10
-13.4629734602
 20
-10.3184254776
 10
-13.4565020912
 20
-10.3136280569
 10
-13.4498539271
 20
-10.3090054784
 10
-13.4441851718
 20
-10.3052950024
 10
-13.4384145153
 20
-10.3017241015
 10
-13.4325588016
 20
-10.2983039966
 10
-13.4266300822
 20
-10.2950433721
 10
-13.4206212379
 20
-10.2919407664
 10
-13.4145203567
 20
-10.2889921813
 10
-13.40706666
 20
-10.2856547635
 10
-13.3994764205
 20
-10.2825457075
 10
-13.3917627817
 20
-10.2796773426
 10
-13.3839388872
 20
-10.2770619982
 10
-13.3760178803
 20
-10.2747120037
 10
-13.368013016
 20
-10.2726372888
 10
-13.359937995
 20
-10.2708381853
 10
-13.3518066294
 20
-10.2693126254
 10
-13.3436327315
 20
-10.2680585412
 10
-13.3354301135
 20
-10.2670738651
 10
-13.3285791916
 20
-10.2664576267
 10
-13.3217053143
 20
-10.2660259588
 10
-13.3147958788
 20
-10.2657777793
 10
-13.3078450222
 20
-10.2657121511
 10
-13.3008738406
 20
-10.2658287178
 10
-13.2939101698
 20
-10.2661272684
 10
-13.2855972101
 20
-10.2667242533
 10
-13.2773492781
 20
-10.2675754429
 10
-13.2691805025
 20
-10.2686732893
 10
-13.2611050119
 20
-10.2700102443
 10
-13.2531369349
 20
-10.27157876
 10
-13.2452880447
 20
-10.2733718207
 10
-13.2375606928
 20
-10.27538454
 10
-13.2299548754
 20
-10.2776125638
 10
-13.2224705886
 20
-10.2800515382
 10
-13.2151078287
 20
-10.2826971089
 10
-13.2078640456
 20
-10.2855478679
 10
-13.2007265052
 20
-10.2886141908
 10
-13.193679927
 20
-10.2919093989
 10
-13.1867090307
 20
-10.2954468137
 10
-13.1797985359
 20
-10.2992397566
  0
LWPOLYLINE
  5
2DE
100
AcDbEntity
  8
0
100
AcDbPolyline
 62
253
  6
CONTINUOUS
 90
42
 70
0
 10
-12.6292888278
 20
-10.9128614231
 10
-12.6320832799
 20
-10.917513436
 10
-12.6349841507
 20
-10.9220723415
 10
-12.6379922666
 20
-10.9265451495
 10
-12.6411084539
 20
-10.9309388699
 10
-12.6443335388
 20
-10.9352605127
 10
-12.6476683477
 20
-10.9395170878
 10
-12.6518158273
 20
-10.9445468374
 10
-12.6561221859
 20
-10.9494923703
 10
-12.6605871104
 20
-10.9543530727
 10
-12.6652102875
 20
-10.959128331
 10
-12.6699914039
 20
-10.9638175316
 10
-12.6749285595
 20
-10.9684187955
 10
-12.680013506
 20
-10.9729251827
 10
-12.6852364084
 20
-10.9773284876
 10
-12.6905874316
 20
-10.981620505
 10
-12.6960567406
 20
-10.9857930293
 10
-12.7016351469
 20
-10.9898387274
 10
-12.7073160494
 20
-10.9937537545
 10
-12.7130934936
 20
-10.9975351378
 10
-12.7189615249
 20
-11.0011799047
 10
-12.724914189
 20
-11.0046850826
 10
-12.7309455276
 20
-11.0080476009
 10
-12.7370495677
 20
-11.0112639978
 10
-12.7432203327
 20
-11.0143307136
 10
-12.749451846
 20
-11.0172441888
 10
-12.7557381309
 20
-11.0200008636
 10
-12.7620721273
 20
-11.0225971106
 10
-12.7684424416
 20
-11.0250290312
 10
-12.7748365967
 20
-11.0272926592
 10
-12.7812421156
 20
-11.029384028
 10
-12.7876465212
 20
-11.0312991714
 10
-12.7940393714
 20
-11.033034904
 10
-12.8004183631
 20
-11.0345911644
 10
-12.8067832281
 20
-11.0359686721
 10
-12.8131336983
 20
-11.0371681466
 10
-12.8194695055
 20
-11.0381903075
 10
-12.825792234
 20
-11.0390350774
 10
-12.8321108778
 20
-11.0396991913
 10
-12.8384362836
 20
-11.0401785874
 10
-12.8447792976
 20
-11.0404692038
 10
-12.8511507666
 20
-11.0405669786
  0
LWPOLYLINE
  5
2DF
100
AcDbEntity
  8
0
100
AcDbPolyline
 62
253
  6
CONTINUOUS
 90
53
 70
0
 10
-10.6551797115
 20
-12.0526158673
 10
-10.6512010024
 20
-12.0459928241
 10
-10.6470464913
 20
-12.0395549574
 10
-10.6427098713
 20
-12.0332836914
 10
-10.6381848353
 20
-12.02716045
 10
-10.6334650764
 20
-12.0211666573
 10
-10.6285454028
 20
-12.015287643
 10
-10.6234250832
 20
-12.0095243607
 10
-10.6181045013
 20
-12.0038816696
 10
-10.612584041
 20
-11.9983644288
 10
-10.606864086
 20
-11.9929774978
 10
-10.6009459305
 20
-11.9877266065
 10
-10.5948345097
 20
-11.9826209685
 10
-10.5885356691
 20
-11.9776706681
 10
-10.5820552545
 20
-11.9728857897
 10
-10.5753991114
 20
-11.9682764176
 10
-10.5697245715
 20
-11.9645775202
 10
-10.563949035
 20
-11.961018761
 10
-10.5580894795
 20
-11.9576113956
 10
-10.5521580729
 20
-11.954364142
 10
-10.5461477449
 20
-11.9512755674
 10
-10.5400466155
 20
-11.9483417012
 10
-10.5325942675
 20
-11.9450228544
 10
-10.525007084
 20
-11.9419332182
 10
-10.5172980907
 20
-11.9390849408
 10
-10.5094803133
 20
-11.9364901705
 10
-10.5015667777
 20
-11.9341610555
 10
-10.4935706551
 20
-11.9321073468
 10
-10.485505699
 20
-11.9303292063
 10
-10.4773858085
 20
-11.9288243983
 10
-10.4692248825
 20
-11.9275906875
 10
-10.4610368201
 20
-11.9266258384
 10
-10.4541993014
 20
-11.9260255987
 10
-10.4473400437
 20
-11.9256094233
 10
-10.4404465007
 20
-11.9253762197
 10
-10.4335128125
 20
-11.9253250259
 10
-10.4265598645
 20
-11.925455403
 10
-10.4196152285
 20
-11.9257670429
 10
-10.4113258488
 20
-11.9263786796
 10
-10.4031021296
 20
-11.9272433734
 10
-10.3949580587
 20
-11.9283536065
 10
-10.3869076237
 20
-11.9297018612
 10
-10.3789648126
 20
-11.9312806197
 10
-10.3711412932
 20
-11.933082893
 10
-10.363439453
 20
-11.9351038068
 10
-10.3558593598
 20
-11.9373390151
 10
-10.3484010812
 20
-11.9397841723
 10
-10.3410646849
 20
-11.9424349326
 10
-10.3338476876
 20
-11.945289894
 10
-10.3267374026
 20
-11.9483594293
 10
-10.3197185919
 20
-11.9516568552
 10
-10.3127760179
 20
-11.9551954883
 10
-10.3058944426
 20
-11.9589886451
  0
LINE
  5
2E0
100
AcDbEntity
  8
ASSI
100
AcDbLine
 62
7
  6
CONTINUOUS
 10
19.1123168641
 20
-0.2218152018
 11
19.4622715182
 21
-0.1869077307
  0
LINE
  5
2E1
100
AcDbEntity
  8
ASSI
100
AcDbLine
 62
7
  6
CONTINUOUS
 10
-19.8876831359
 20
-0.2218152018
 11
-20.23763779
 21
-0.1869077307
  0
LWPOLYLINE
  5
2E2
100
AcDbEntity
  8
0
100
AcDbPolyline
 62
253
  6
CONTINUOUS
 90
53
 70
0
 10
-13.7744693477
 20
9.4155397146
 10
-13.7798601044
 20
9.4211234218
 10
-13.7850251866
 20
9.4268286848
 10
-13.7899810237
 20
9.4326664875
 10
-13.7947440451
 20
9.4386478141
 10
-13.7993306803
 20
9.4447836485
 10
-13.8037538525
 20
9.4510828936
 10
-13.8080124611
 20
9.457546128
 10
-13.8121018991
 20
9.464171849
 10
-13.8160175598
 20
9.4709585542
 10
-13.8197548361
 20
9.4779047408
 10
-13.8233084863
 20
9.4850077479
 10
-13.8266707287
 20
9.4922602803
 10
-13.8298331467
 20
9.4996538846
 10
-13.8327873234
 20
9.507180107
 10
-13.8355248423
 20
9.514830494
 10
-13.8376342512
 20
9.521292085
 10
-13.8395807951
 20
9.527814254
 10
-13.8413579107
 20
9.5343772245
 10
-13.8429602681
 20
9.540966611
 10
-13.8443874701
 20
9.547589593
 10
-13.8456403525
 20
9.5542587415
 10
-13.8469132763
 20
9.5623341357
 10
-13.8479281658
 20
9.5704784934
 10
-13.8486768031
 20
9.5786761963
 10
-13.8491509701
 20
9.5869116262
 10
-13.8493424488
 20
9.5951691648
 10
-13.8492453928
 20
9.6034336174
 10
-13.8488634415
 20
9.6116914825
 10
-13.8482026059
 20
9.6199296823
 10
-13.8472688967
 20
9.6281351391
 10
-13.8460683249
 20
9.6362947749
 10
-13.8448673927
 20
9.6430533739
 10
-13.8434831577
 20
9.649783541
 10
-13.8419134642
 20
9.6564977463
 10
-13.8401577633
 20
9.6632019801
 10
-13.8382219331
 20
9.6698763134
 10
-13.8361134585
 20
9.6764943374
 10
-13.8333655942
 20
9.6843301445
 10
-13.8303907772
 20
9.6920353435
 10
-13.8271998842
 20
9.6995984405
 10
-13.8238037923
 20
9.7070079414
 10
-13.8202133782
 20
9.7142523522
 10
-13.8164384147
 20
9.7213222615
 10
-13.8124842579
 20
9.728216588
 10
-13.8083551596
 20
9.7349363332
 10
-13.8040553716
 20
9.7414824983
 10
-13.7995891457
 20
9.7478560848
 10
-13.7949572066
 20
9.754059802
 10
-13.7901461693
 20
9.7601031911
 10
-13.7851391218
 20
9.7659975012
 10
-13.779919152
 20
9.7717539815
 10
-13.7744693477
 20
9.7773838811
  0
LWPOLYLINE
  5
2E3
100
AcDbEntity
  8
0
100
AcDbPolyline
 62
253
  6
CONTINUOUS
 90
42
 70
0
 10
-9.7548908455
 20
-12.5722928116
 10
-9.7576898741
 20
-12.5769937305
 10
-9.760598787
 20
-12.5815973558
 10
-9.7636180692
 20
-12.5861107973
 10
-9.7667482052
 20
-12.5905411652
 10
-9.7699896799
 20
-12.5948955694
 10
-9.773342978
 20
-12.59918112
 10
-9.7775150152
 20
-12.6042408099
 10
-9.781848354
 20
-12.609211306
 10
-9.7863425722
 20
-12.6140923253
 10
-9.7909972478
 20
-12.6188835847
 10
-9.7958119584
 20
-12.6235848013
 10
-9.8007846311
 20
-12.6281943682
 10
-9.8059065892
 20
-12.6327053826
 10
-9.811167505
 20
-12.637109618
 10
-9.816557051
 20
-12.6413988478
 10
-9.8220648996
 20
-12.6455648454
 10
-9.8276812888
 20
-12.6496002585
 10
-9.8333987195
 20
-12.6535012316
 10
-9.8392102581
 20
-12.6572647838
 10
-9.8451089712
 20
-12.660887934
 10
-9.8510879251
 20
-12.6643677011
 10
-9.8571404139
 20
-12.6677011353
 10
-9.8632606409
 20
-12.670885411
 10
-9.8694430369
 20
-12.6739177342
 10
-9.8756820327
 20
-12.6767953106
 10
-9.8819720591
 20
-12.6795153461
 10
-9.8883064038
 20
-12.6820749087
 10
-9.8946737831
 20
-12.6844705165
 10
-9.90106177
 20
-12.6866985498
 10
-9.9074579377
 20
-12.6887553891
 10
-9.9138498594
 20
-12.6906374145
 10
-9.9202271006
 20
-12.6923417727
 10
-9.926587197
 20
-12.6938686745
 10
-9.9329296767
 20
-12.6952190967
 10
-9.9392540678
 20
-12.6963940162
 10
-9.9455598984
 20
-12.69739441
 10
-9.9518486236
 20
-12.6982204826
 10
-9.9581294068
 20
-12.6988693494
 10
-9.9644133381
 20
-12.6993373533
 10
-9.9707115079
 20
-12.6996208375
 10
-9.9770350065
 20
-12.6997161449
  0
LINE
  5
2E4
100
AcDbEntity
  8
ASSI
100
AcDbLine
 62
253
  6
CONTINUOUS
 10
21.7458080425
 20
-0.7340959253
 11
21.7421735948
 21
-0.734170876
  0
LINE
  5
2E5
100
AcDbEntity
  8
ASSI
100
AcDbLine
 62
253
  6
CONTINUOUS
 10
21.7421735948
 20
-0.734170876
 11
21.7209073239
 21
-0.7343179492
  0
LINE
  5
2E6
100
AcDbEntity
  8
ASSI
100
AcDbLine
 62
253
  6
CONTINUOUS
 10
21.7209073239
 20
-0.7343179492
 11
10.8605785189
 21
-0.7389115957
  0
LINE
  5
2E7
100
AcDbEntity
  8
ASSI
100
AcDbLine
 62
253
  6
CONTINUOUS
 10
21.2459793797
 20
-0.2341149638
 11
14.3340876949
 21
-0.2375572453
  0
LINE
  5
2E8
100
AcDbEntity
  8
ASSI
100
AcDbLine
 62
253
  6
CONTINUOUS
 10
-22.0213456516
 20
0.2602995025
 11
-13.9529021324
 21
0.2639819952
  0
LINE
  5
2E9
100
AcDbEntity
  8
ASSI
100
AcDbLine
 62
253
  6
CONTINUOUS
 10
10.8605785189
 20
-0.7389120662
 11
-11.6359447773
 21
-0.7389120662
  0
LINE
  5
2EA
100
AcDbEntity
  8
ASSI
100
AcDbLine
 62
253
  6
CONTINUOUS
 10
14.3340876949
 20
-0.2375572453
 11
10.8605878873
 21
-0.2379911088
  0
LINE
  5
2EB
100
AcDbEntity
  8
ASSI
100
AcDbLine
 62
7
  6
CONTINUOUS
 10
10.8605878873
 20
-0.2379911088
 11
-11.6359541591
 21
-0.2379911088
  0
LINE
  5
2EC
100
AcDbEntity
  8
ASSI
100
AcDbLine
 62
7
  6
CONTINUOUS
 10
19.1123168641
 20
-0.2218152018
 11
-19.8876831359
 21
-0.2218152018
  0
LINE
  5
2ED
100
AcDbEntity
  8
ASSI
100
AcDbLine
 62
7
  6
CONTINUOUS
 10
21.3876298476
 20
-0.1869077307
 11
19.4622715182
 21
-0.1869077307
  0
LINE
  5
2EE
100
AcDbEntity
  8
ASSI
100
AcDbLine
 62
7
  6
CONTINUOUS
 10
-20.23763779
 20
-0.1869077307
 11
-22.1629961194
 21
-0.1869077307
  0
LINE
  5
2EF
100
AcDbEntity
  8
ASSI
100
AcDbLine
 62
7
  6
CONTINUOUS
 10
-22.1629961194
 20
0.2130922693
 11
-20.23763779
 21
0.2130922693
  0
LINE
  5
2F0
100
AcDbEntity
  8
ASSI
100
AcDbLine
 62
7
  6
CONTINUOUS
 10
19.4622715182
 20
0.2130922693
 11
21.3876298476
 21
0.2130922693
  0
LINE
  5
2F1
100
AcDbEntity
  8
ASSI
100
AcDbLine
 62
7
  6
CONTINUOUS
 10
-19.8876831359
 20
0.2479997405
 11
19.1123168641
 21
0.2479997405
  0
LINE
  5
2F2
100
AcDbEntity
  8
ASSI
100
AcDbLine
 62
7
  6
CONTINUOUS
 10
-11.6359541591
 20
0.2641756475
 11
10.8605878873
 21
0.2641756475
  0
LINE
  5
2F3
100
AcDbEntity
  8
ASSI
100
AcDbLine
 62
253
  6
CONTINUOUS
 10
-13.9529021324
 20
0.2639819952
 11
-11.6359541591
 21
0.2641756475
  0
LINE
  5
2F4
100
AcDbEntity
  8
ASSI
100
AcDbLine
 62
253
  6
CONTINUOUS
 10
-11.6359447773
 20
-0.7389115957
 11
-22.2055278444
 21
-0.7348056825
  0
LINE
  5
2F5
100
AcDbEntity
  8
ASSI
100
AcDbLine
 62
253
  6
CONTINUOUS
 10
-11.6359541591
 20
-0.2379911088
 11
-19.7227490456
 21
-0.2356419085
  0
LINE
  5
2F6
100
AcDbEntity
  8
ASSI
100
AcDbLine
 62
253
  6
CONTINUOUS
 10
10.8605878873
 20
0.2641756475
 11
17.7960741906
 21
0.2624475998
  0
LINE
  5
2F7
100
AcDbEntity
  8
ASSI
100
AcDbLine
 62
253
  6
CONTINUOUS
 10
-19.7227490456
 20
-0.2356419085
 11
-22.0213456516
 21
-0.2341149638
  0
LINE
  5
2F8
100
AcDbEntity
  8
ASSI
100
AcDbLine
 62
253
  6
CONTINUOUS
 10
17.7960741906
 20
0.2624475998
 11
21.2459793798
 21
0.2602995025
  0
LINE
  5
2F9
100
AcDbEntity
  8
ASSI
100
AcDbLine
 62
253
  6
CONTINUOUS
 10
-22.2055278444
 20
-0.7348056825
 11
-22.4962735957
 21
-0.734317959
  0
LWPOLYLINE
  5
2FA
100
AcDbEntity
  8
ASSI
100
AcDbPolyline
 62
253
  6
CONTINUOUS
 90
3
 70
0
 10
-22.4962735957
 20
-0.734317959
 10
-22.5175398666
 20
-0.7341708793
 10
-22.5211743143
 20
-0.7340959253
  0
LINE
  5
2FB
100
AcDbEntity
  8
0
100
AcDbLine
 62
253
  6
CONTINUOUS
 10
-9.9088011129
 20
9.4155397146
 11
-10.666144427
 21
10.1727066588
  0
LINE
  5
2FC
100
AcDbEntity
  8
0
100
AcDbLine
 62
253
  6
CONTINUOUS
 10
-13.0168438114
 20
12.5235472138
 11
-13.7744693477
 21
13.281666658
  0
LWPOLYLINE
  5
2FD
100
AcDbEntity
  8
0
100
AcDbPolyline
 62
253
  6
CONTINUOUS
 90
53
 70
0
 10
-13.7744693477
 20
13.281666658
 10
-13.7798506026
 20
13.2871893953
 10
-13.785006469
 20
13.2928358749
 10
-13.7899534467
 20
13.2986169102
 10
-13.7947080356
 20
13.3045433142
 10
-13.7992867358
 20
13.3106259002
 10
-13.8037025295
 20
13.3168733947
 10
-13.8079543293
 20
13.323286177
 10
-13.81203753
 20
13.3298625396
 10
-13.8159475265
 20
13.3366007751
 10
-13.8196797138
 20
13.343499176
 10
-13.8232288865
 20
13.3505549475
 10
-13.8265874383
 20
13.3577609445
 10
-13.8297471626
 20
13.3651089345
 10
-13.8326998528
 20
13.3725906851
 10
-13.8354373024
 20
13.3801979639
 10
-13.8375478778
 20
13.3866248942
 10
-13.8394967804
 20
13.3931140028
 10
-13.8412775092
 20
13.3996460125
 10
-13.8428847707
 20
13.4062069588
 10
-13.8443181011
 20
13.4128041276
 10
-13.8455782441
 20
13.4194501173
 10
-13.8468612243
 20
13.4275012007
 10
-13.847887384
 20
13.4356247799
 10
-13.8486482218
 20
13.4438049067
 10
-13.8491352362
 20
13.4520256331
 10
-13.8493399257
 20
13.460271011
 10
-13.8492561632
 20
13.4685256039
 10
-13.8488873191
 20
13.4767760211
 10
-13.8482391381
 20
13.4850093835
 10
-13.8473173649
 20
13.493212812
 10
-13.8461277444
 20
13.5013734276
 10
-13.8449350015
 20
13.5081352713
 10
-13.8435579797
 20
13.5148709468
 10
-13.8419944159
 20
13.5215929607
 10
-13.8402436759
 20
13.5283072605
 10
-13.8383116418
 20
13.5349935561
 10
-13.8362058244
 20
13.5416249979
 10
-13.8334596976
 20
13.5494783032
 10
-13.8304851525
 20
13.5572022768
 10
-13.8272932031
 20
13.5647852401
 10
-13.8238948631
 20
13.572215514
 10
-13.8203011465
 20
13.5794814198
 10
-13.8165219366
 20
13.5865734115
 10
-13.8125625954
 20
13.5934904752
 10
-13.8084273543
 20
13.6002337298
 10
-13.8041204449
 20
13.6068042945
 10
-13.7996460986
 20
13.6132032882
 10
-13.7950050144
 20
13.6194335256
 10
-13.790183761
 20
13.6255046045
 10
-13.7851653746
 20
13.6314278184
 10
-13.7799328915
 20
13.6372144606
 10
-13.7744693477
 20
13.6428758246
  0
LWPOLYLINE
  5
2FE
100
AcDbEntity
  8
0
100
AcDbPolyline
 62
253
  6
CONTINUOUS
 90
53
 70
0
 10
-9.5468158444
 20
9.7767841589
 10
-9.5414383808
 20
9.7712555247
 10
-9.5362863461
 20
9.7656033227
 10
-9.53134328
 20
9.759816756
 10
-9.5265927221
 20
9.7538850279
 10
-9.5220182123
 20
9.7477973415
 10
-9.5176067971
 20
9.7415449839
 10
-9.513359551
 20
9.7351275791
 10
-9.5092810556
 20
9.728546835
 10
-9.5053758923
 20
9.7218044593
 10
-9.5016486426
 20
9.7149021601
 10
-9.498104487
 20
9.7078427346
 10
-9.4947510014
 20
9.7006333367
 10
-9.4915963606
 20
9.6932822098
 10
-9.4886487394
 20
9.6857975973
 10
-9.4859163128
 20
9.6781877426
 10
-9.4838098628
 20
9.6717588913
 10
-9.4818649997
 20
9.6652680715
 10
-9.4800881927
 20
9.658734564
 10
-9.478484707
 20
9.6521723451
 10
-9.4770549915
 20
9.6455741741
 10
-9.4757982909
 20
9.6389275056
 10
-9.4745191869
 20
9.6308760838
 10
-9.473496554
 20
9.622752646
 10
-9.4727388094
 20
9.6145730774
 10
-9.4722543704
 20
9.6063532633
 10
-9.472051654
 20
9.598109089
 10
-9.4721367202
 20
9.589855934
 10
-9.4725061993
 20
9.5816071545
 10
-9.4731543643
 20
9.5733756012
 10
-9.4740754881
 20
9.5651741244
 10
-9.4752638439
 20
9.5570155746
 10
-9.4764550726
 20
9.5502555293
 10
-9.4778301579
 20
9.5435217563
 10
-9.4793913561
 20
9.5368017935
 10
-9.4811393019
 20
9.5300897148
 10
-9.4830681453
 20
9.5234057381
 10
-9.4851704146
 20
9.5167766169
 10
-9.4879118673
 20
9.5089259853
 10
-9.4908813442
 20
9.5012045123
 10
-9.4940678951
 20
9.4936238389
 10
-9.4974605696
 20
9.4861956064
 10
-9.5010484172
 20
9.478931456
 10
-9.5048216118
 20
9.4718409042
 10
-9.5087748236
 20
9.46492497
 10
-9.5129038469
 20
9.4581825478
 10
-9.5172044763
 20
9.451612532
 10
-9.5216725061
 20
9.445213817
 10
-9.5263072458
 20
9.4389836064
 10
-9.5311220648
 20
9.432912341
 10
-9.5361338479
 20
9.4269887706
 10
-9.5413594796
 20
9.4212016452
 10
-9.5468158444
 20
9.4155397146
  0
LWPOLYLINE
  5
2FF
100
AcDbEntity
  8
0
100
AcDbPolyline
 62
253
  6
CONTINUOUS
 90
53
 70
0
 10
-12.655317154
 20
10.5345508254
 10
-12.6499286234
 20
10.5289945071
 10
-12.6447652206
 20
10.5233158637
 10
-12.6398104567
 20
10.5175038984
 10
-12.6350478429
 20
10.5115476145
 10
-12.6304608903
 20
10.5054360151
 10
-12.6260366358
 20
10.499160205
 10
-12.6217762199
 20
10.4927196952
 10
-12.6176843087
 20
10.4861160983
 10
-12.6137655683
 20
10.4793510268
 10
-12.610024665
 20
10.4724260935
 10
-12.6064668799
 20
10.4653440276
 10
-12.6030999543
 20
10.4581120251
 10
-12.5999322444
 20
10.450738399
 10
-12.5969721065
 20
10.4432314619
 10
-12.5942278969
 20
10.4355995267
 10
-12.5921123188
 20
10.4291525378
 10
-12.5901590658
 20
10.4226439948
 10
-12.5883747102
 20
10.4160933751
 10
-12.5867646023
 20
10.4095148047
 10
-12.5853292055
 20
10.4029010036
 10
-12.5840677617
 20
10.3962393407
 10
-12.5827842099
 20
10.3881706615
 10
-12.581758532
 20
10.3800307174
 10
-12.5809992014
 20
10.3718353537
 10
-12.5805146914
 20
10.3636004157
 10
-12.5803134756
 20
10.3553417486
 10
-12.5804016323
 20
10.3470747216
 10
-12.5807756587
 20
10.3388127986
 10
-12.5814296571
 20
10.3305689674
 10
-12.5823577296
 20
10.3223562161
 10
-12.5835539786
 20
10.3141875323
 10
-12.5847523907
 20
10.3074199894
 10
-12.5861351441
 20
10.3006795486
 10
-12.5877044421
 20
10.2939536903
 10
-12.5894608644
 20
10.2872364338
 10
-12.5913984955
 20
10.2805479545
 10
-12.5935097962
 20
10.2739149668
 10
-12.5962623221
 20
10.2660604873
 10
-12.5992430664
 20
10.2583360048
 10
-12.6024410199
 20
10.2507531397
 10
-12.6058451732
 20
10.2433235123
 10
-12.609444517
 20
10.236058743
 10
-12.6132291642
 20
10.2289683383
 10
-12.6171937163
 20
10.2220533486
 10
-12.621333897
 20
10.2153127103
 10
-12.62564543
 20
10.20874536
 10
-12.6301240388
 20
10.2023502341
 10
-12.6347689962
 20
10.1961245563
 10
-12.6395937698
 20
10.1900586996
 10
-12.6446153762
 20
10.1841413243
 10
-12.6498508321
 20
10.1783610906
 10
-12.655317154
 20
10.1727066588
  0
LWPOLYLINE
  5
300
100
AcDbEntity
  8
0
100
AcDbPolyline
 62
253
  6
CONTINUOUS
 90
53
 70
0
 10
-12.655317154
 20
12.8854266581
 10
-12.6499293039
 20
12.8798710477
 10
-12.6447665044
 20
12.8741930886
 10
-12.6398122744
 20
12.8683817868
 10
-12.6350501328
 20
12.8624261483
 10
-12.6304635985
 20
12.856315179
 10
-12.626039715
 20
12.8500399861
 10
-12.6217796237
 20
12.8436000822
 10
-12.6176879908
 20
12.8369970812
 10
-12.6137694823
 20
12.830232597
 10
-12.6100287642
 20
12.8233082433
 10
-12.6064711169
 20
12.8162267492
 10
-12.6031042784
 20
12.8089953036
 10
-12.5999366007
 20
12.8016222106
 10
-12.5969764362
 20
12.7941157743
 10
-12.594232137
 20
12.7864842986
 10
-12.5921164334
 20
12.780037653
 10
-12.5901630077
 20
12.7735294022
 10
-12.588378431
 20
12.7669790073
 10
-12.5867680537
 20
12.7604005793
 10
-12.5853323421
 20
12.7537868297
 10
-12.5840705417
 20
12.7471251198
 10
-12.5827865136
 20
12.7390562483
 10
-12.5817603178
 20
12.7309159728
 10
-12.5810004406
 20
12.7227201519
 10
-12.5805153686
 20
12.7144846439
 10
-12.5803135883
 20
12.7062253073
 10
-12.5804011902
 20
12.6979575211
 10
-12.5807746813
 20
12.6896947477
 10
-12.5814281729
 20
12.68144997
 10
-12.5823557761
 20
12.6732361709
 10
-12.5835516021
 20
12.6650663335
 10
-12.5847497034
 20
12.658297744
 10
-12.5861321881
 20
12.6515561728
 10
-12.5877012631
 20
12.6448290933
 10
-12.5894575108
 20
12.6381105226
 10
-12.5913950151
 20
12.6314206513
 10
-12.5935062357
 20
12.6247862139
 10
-12.5962587242
 20
12.6169299419
 10
-12.5992394891
 20
12.6092036205
 10
-12.6024375139
 20
12.6016188782
 10
-12.6058417822
 20
12.5941873435
 10
-12.6094412774
 20
12.5869206449
 10
-12.6132261068
 20
12.5798282943
 10
-12.6171908716
 20
12.5729113366
 10
-12.6213312968
 20
12.5661687
 10
-12.6256431075
 20
12.5595993125
 10
-12.6301220287
 20
12.5532021023
 10
-12.6347673331
 20
12.5469742858
 10
-12.6395924855
 20
12.5409062317
 10
-12.6446144981
 20
12.534986597
 10
-12.6498503834
 20
12.5292040388
 10
-12.655317154
 20
12.5235472138
  0
LWPOLYLINE
  5
301
100
AcDbEntity
  8
0
100
AcDbPolyline
 62
253
  6
CONTINUOUS
 90
53
 70
0
 10
-10.666144427
 20
10.1727066588
 10
-10.6715378934
 20
10.1782852152
 10
-10.6767058287
 20
10.1839853447
 10
-10.681664713
 20
10.1898180873
 10
-10.6864310266
 20
10.1957944827
 10
-10.6910212496
 20
10.2019255709
 10
-10.6954483402
 20
10.208220298
 10
-10.6997111688
 20
10.2146792355
 10
-10.7038050838
 20
10.2213008609
 10
-10.7077254338
 20
10.2280836519
 10
-10.711467567
 20
10.2350260863
 10
-10.7150261999
 20
10.2421254903
 10
-10.7183935205
 20
10.2493745847
 10
-10.7215610845
 20
10.256764939
 10
-10.7245204478
 20
10.2642881226
 10
-10.7272631663
 20
10.2719357049
 10
-10.7293768959
 20
10.2783951583
 10
-10.7313277197
 20
10.2849154067
 10
-10.7331090438
 20
10.2914767121
 10
-10.7347155087
 20
10.2980647279
 10
-10.7361466935
 20
10.3046866759
 10
-10.7374034116
 20
10.3113551697
 10
-10.7386807032
 20
10.3194303148
 10
-10.7396996216
 20
10.3275749587
 10
-10.7404518539
 20
10.3357734104
 10
-10.7409290871
 20
10.3440099791
 10
-10.7411230083
 20
10.3522689738
 10
-10.7410276947
 20
10.3605351374
 10
-10.7406467836
 20
10.368794948
 10
-10.739986302
 20
10.3770353176
 10
-10.7390522775
 20
10.3852431579
 10
-10.7378507371
 20
10.393405381
 10
-10.7366485082
 20
10.4001662912
 10
-10.7352625302
 20
10.4068989394
 10
-10.7336906432
 20
10.4136158313
 10
-10.7319323014
 20
10.4203229716
 10
-10.7299934155
 20
10.4270003607
 10
-10.7278815102
 20
10.4336214977
 10
-10.7251290889
 20
10.4414610076
 10
-10.7221492936
 20
10.4491698262
 10
-10.7189530626
 20
10.456736426
 10
-10.7155513342
 20
10.4641492796
 10
-10.7119550467
 20
10.4713968594
 10
-10.7081740279
 20
10.4784697282
 10
-10.7042136637
 20
10.4853668095
 10
-10.7000782295
 20
10.492089117
 10
-10.6957720007
 20
10.4986376645
 10
-10.6912992525
 20
10.5050134657
 10
-10.686660717
 20
10.5112192468
 10
-10.6818429521
 20
10.5172645843
 10
-10.6768289725
 20
10.5231607673
 10
-10.6716017926
 20
10.5289190847
 10
-10.666144427
 20
10.5345508254
  0
LINE
  5
302
100
AcDbEntity
  8
ASSI
100
AcDbLine
 62
7
  6
CONTINUOUS
 10
-19.8876831359
 20
0.2479997405
 11
-20.23763779
 21
0.2130922693
  0
LINE
  5
303
100
AcDbEntity
  8
ASSI
100
AcDbLine
 62
253
  6
CONTINUOUS
 10
-22.5211743143
 20
0.7602804639
 11
-22.5175398666
 21
0.7603554147
  0
LINE
  5
304
100
AcDbEntity
  8
ASSI
100
AcDbLine
 62
253
  6
CONTINUOUS
 10
-22.5175398666
 20
0.7603554147
 11
-22.4962735957
 21
0.7605024879
  0
LINE
  5
305
100
AcDbEntity
  8
ASSI
100
AcDbLine
 62
253
  6
CONTINUOUS
 10
-22.4962735957
 20
0.7605024879
 11
-11.6359447907
 21
0.7650961343
  0
LINE
  5
306
100
AcDbEntity
  8
ASSI
100
AcDbLine
 62
253
  6
CONTINUOUS
 10
-11.6359447907
 20
0.7650966048
 11
10.8605785055
 21
0.7650966048
  0
LINE
  5
307
100
AcDbEntity
  8
ASSI
100
AcDbLine
 62
253
  6
CONTINUOUS
 10
10.8605785055
 20
0.7650961343
 11
21.6260895711
 21
0.7607662881
  0
LWPOLYLINE
  5
308
100
AcDbEntity
  8
ASSI
100
AcDbPolyline
 62
253
  6
CONTINUOUS
 90
4
 70
0
 10
21.6260895711
 20
0.7607662881
 10
21.7338471101
 20
0.7604296632
 10
21.7421735948
 20
0.7603554179
 10
21.7458080425
 20
0.7602804639
  0
LINE
  5
309
100
AcDbEntity
  8
ASSI
100
AcDbLine
 62
7
  6
CONTINUOUS
 10
19.1123168641
 20
0.2479997405
 11
19.4622715182
 21
0.2130922693
  0
LINE
  5
30A
100
AcDbEntity
  8
0
100
AcDbLine
 62
253
  6
CONTINUOUS
 10
-13.4128015791
 20
13.6428758246
 11
-12.655317154
 21
12.8854266581
  0
LINE
  5
30B
100
AcDbEntity
  8
0
100
AcDbLine
 62
253
  6
CONTINUOUS
 10
-10.3043002695
 20
10.5345508254
 11
-9.5468158444
 21
9.7767841589
  0
LWPOLYLINE
  5
30C
100
AcDbEntity
  8
0
100
AcDbPolyline
 62
253
  6
CONTINUOUS
 90
53
 70
0
 10
-10.666144427
 20
12.5235472138
 10
-10.6715379835
 20
12.5291277557
 10
-10.6767060326
 20
12.5348298028
 10
-10.6816650476
 20
12.5406643986
 10
-10.6864315015
 20
12.5466425869
 10
-10.6910218674
 20
12.5527754114
 10
-10.6954490978
 20
12.5590718229
 10
-10.6997120627
 20
12.5655324015
 10
-10.7038061114
 20
12.5721556343
 10
-10.7077265932
 20
12.5789400087
 10
-10.7114688577
 20
12.5858840118
 10
-10.7150276204
 20
12.592984977
 10
-10.718395063
 20
12.6002356217
 10
-10.7215627336
 20
12.6076275095
 10
-10.72452218
 20
12.6151522038
 10
-10.7272649503
 20
12.6228012681
 10
-10.7293786939
 20
12.6292619281
 10
-10.7313295018
 20
12.6357833429
 10
-10.7331107772
 20
12.642345758
 10
-10.7347171591
 20
12.6489348144
 10
-10.7361482283
 20
12.6555577362
 10
-10.7374048012
 20
12.6622271431
 10
-10.7386818832
 20
12.6703033113
 10
-10.7397005583
 20
12.6784489042
 10
-10.7404525188
 20
12.6866482355
 10
-10.740929457
 20
12.6948856191
 10
-10.741123065
 20
12.7031453687
 10
-10.7410274257
 20
12.7114122297
 10
-10.7406461839
 20
12.7196726741
 10
-10.7399853751
 20
12.7279136058
 10
-10.7390510349
 20
12.7361219283
 10
-10.7378491986
 20
12.7442845454
 10
-10.7366467436
 20
12.7510457125
 10
-10.7352605607
 20
12.7577785567
 10
-10.733688492
 20
12.7644955896
 10
-10.7319299933
 20
12.7712028216
 10
-10.7299909761
 20
12.7778802586
 10
-10.7278789657
 20
12.7845014051
 10
-10.7251264535
 20
12.7923408818
 10
-10.7221466055
 20
12.8000496224
 10
-10.7189503597
 20
12.8076161023
 10
-10.7155486539
 20
12.8150287971
 10
-10.7119524263
 20
12.8222761824
 10
-10.708171504
 20
12.8293488236
 10
-10.7042112723
 20
12.8362456467
 10
-10.7000760056
 20
12.8429676674
 10
-10.6957699785
 20
12.8495159018
 10
-10.6912974653
 20
12.8558913657
 10
-10.6866591983
 20
12.8620967868
 10
-10.6818417404
 20
12.86814174
 10
-10.6768281122
 20
12.8740375118
 10
-10.6716013342
 20
12.879795389
 10
-10.666144427
 20
12.8854266581
  0
LINE
  5
30D
100
AcDbEntity
  8
0
100
AcDbLine
 62
253
  6
CONTINUOUS
 10
-10.561340825
 20
-10.5633997565
 11
-10.1046347255
 21
-10.2992397566
  0
LINE
  5
30E
100
AcDbEntity
  8
0
100
AcDbLine
 62
253
  6
CONTINUOUS
 10
-13.435774085
 20
-12.2225489228
 11
-12.9787152077
 21
-11.9589886451
  0
LWPOLYLINE
  5
30F
100
AcDbEntity
  8
0
100
AcDbPolyline
 62
253
  6
CONTINUOUS
 90
53
 70
0
 10
-12.9787152077
 20
-11.9589886451
 10
-12.9719071873
 20
-11.9552344204
 10
-12.965040844
 20
-11.9517299659
 10
-12.9581013849
 20
-11.9484623165
 10
-12.9510740169
 20
-11.9454185068
 10
-12.9439439468
 20
-11.9425855714
 10
-12.9366992728
 20
-11.9399533744
 10
-12.9293396577
 20
-11.9375230968
 10
-12.9218676557
 20
-11.9352987489
 10
-12.9142858206
 20
-11.9332843412
 10
-12.9065967067
 20
-11.9314838838
 10
-12.8988041832
 20
-11.9299017051
 10
-12.8909173814
 20
-11.9285434041
 10
-12.8829467478
 20
-11.9274148981
 10
-12.8749027289
 20
-11.9265221042
 10
-12.8667957712
 20
-11.9258709392
 10
-12.8600019211
 20
-11.9255167655
 10
-12.8531926011
 20
-11.9253356254
 10
-12.8463887944
 20
-11.9253286453
 10
-12.8396059413
 20
-11.9254971578
 10
-12.8328373113
 20
-11.9258433191
 10
-12.8260706312
 20
-11.9263694915
 10
-12.8179422635
 20
-11.9272417731
 10
-12.8098159545
 20
-11.9283803595
 10
-12.8017086283
 20
-11.9297889383
 10
-12.7936372092
 20
-11.9314711968
 10
-12.7856186216
 20
-11.9334308225
 10
-12.7776688161
 20
-11.9356693444
 10
-12.7697998492
 20
-11.9381796588
 10
-12.7620228038
 20
-11.9409525034
 10
-12.7543487626
 20
-11.9439786159
 10
-12.7467888087
 20
-11.9472487341
 10
-12.7405810221
 20
-11.9501553133
 10
-12.7344487493
 20
-11.9532301661
 10
-12.7283805801
 20
-11.9564785496
 10
-12.7223708863
 20
-11.9599025282
 10
-12.7164371655
 20
-11.963491395
 10
-12.710602697
 20
-11.9672312504
 10
-12.7037597881
 20
-11.9719006001
 10
-12.6971015286
 20
-11.9767540753
 10
-12.6906361227
 20
-11.9817783935
 10
-12.6843717741
 20
-11.9869602722
 10
-12.6783166869
 20
-11.9922864291
 10
-12.6724773658
 20
-11.9977451597
 10
-12.6668535187
 20
-12.0033310721
 10
-12.6614431542
 20
-12.0090403525
 10
-12.6562442811
 20
-12.0148691869
 10
-12.6512549079
 20
-12.0208137615
 10
-12.6464723072
 20
-12.0268740754
 10
-12.6418908069
 20
-12.0330653792
 10
-12.6375039991
 20
-12.0394067366
 10
-12.6333054754
 20
-12.0459172114
 10
-12.6292888278
 20
-12.0526158673
  0
LWPOLYLINE
  5
310
100
AcDbEntity
  8
0
100
AcDbPolyline
 62
253
  6
CONTINUOUS
 90
53
 70
0
 10
-10.1046347255
 20
-10.2992397566
 10
-10.0978290323
 20
-10.2955063074
 10
-10.0909657657
 20
-10.2920207814
 10
-10.0840299828
 20
-10.288770337
 10
-10.0770067408
 20
-10.2857421324
 10
-10.0698810966
 20
-10.2829233262
 10
-10.0626410406
 20
-10.2803038992
 10
-10.0552862958
 20
-10.2778851223
 10
-10.0478195186
 20
-10.2756710889
 10
-10.0402433652
 20
-10.2736658924
 10
-10.0325604918
 20
-10.2718736261
 10
-10.0247748248
 20
-10.2702986902
 10
-10.0168953714
 20
-10.2689467115
 10
-10.0089324087
 20
-10.2678236239
 10
-10.0008962138
 20
-10.266935361
 10
-9.992797064
 20
-10.2662878566
 10
-9.986009543
 20
-10.2659360932
 10
-9.9792060673
 20
-10.2657568588
 10
-9.972407264
 20
-10.2657513683
 10
-9.9656282778
 20
-10.2659210526
 10
-9.9588623224
 20
-10.2662682059
 10
-9.9520971291
 20
-10.2667953387
 10
-9.9439690162
 20
-10.2676689278
 10
-9.9358414573
 20
-10.2688091758
 10
-9.927731576
 20
-10.2702199563
 10
-9.9196564957
 20
-10.271905143
 10
-9.91163334
 20
-10.2738686098
 10
-9.9036782057
 20
-10.2761120525
 10
-9.8958030832
 20
-10.2786284562
 10
-9.8880189361
 20
-10.2814086279
 10
-9.8803367283
 20
-10.2844433749
 10
-9.8727674232
 20
-10.2877235042
 10
-9.8665508665
 20
-10.2906395257
 10
-9.8604089272
 20
-10.2937248534
 10
-9.8543302046
 20
-10.2969847731
 10
-9.8483090987
 20
-10.300421354
 10
-9.8423632141
 20
-10.3040238005
 10
-9.8365159561
 20
-10.3077781003
 10
-9.8296570203
 20
-10.3124657796
 10
-9.8229820446
 20
-10.3173385505
 10
-9.8164992626
 20
-10.3223830134
 10
-9.8102169081
 20
-10.3275857686
 10
-9.8041432147
 20
-10.3329334164
 10
-9.7982847065
 20
-10.3384141485
 10
-9.7926410692
 20
-10.3440225219
 10
-9.787210279
 20
-10.3497546853
 10
-9.781990312
 20
-10.3556067871
 10
-9.7769791444
 20
-10.3615749758
 10
-9.7721740034
 20
-10.3676592363
 10
-9.7675691204
 20
-10.3738748996
 10
-9.7631579781
 20
-10.3802411329
 10
-9.758934059
 20
-10.3867771035
 10
-9.7548908455
 20
-10.3935019788
  0
LWPOLYLINE
  5
311
100
AcDbEntity
  8
0
100
AcDbPolyline
 62
253
  6
CONTINUOUS
 90
53
 70
0
 10
-9.5468158444
 20
13.6428758246
 10
-9.541419498
 20
13.6372782902
 10
-9.5362497993
 20
13.6315595685
 10
-9.5312902936
 20
13.6257087074
 10
-9.5265245265
 20
13.6197147546
 10
-9.5219360434
 20
13.6135667579
 10
-9.5175118906
 20
13.6072558229
 10
-9.5132531178
 20
13.6007812868
 10
-9.5091642756
 20
13.594144545
 10
-9.5052499147
 20
13.5873469927
 10
-9.5015145857
 20
13.5803900251
 10
-9.4979634973
 20
13.5732762427
 10
-9.4946044911
 20
13.5660130669
 10
-9.4914460669
 20
13.5586091247
 10
-9.4884967243
 20
13.5510730426
 10
-9.485764963
 20
13.5434134475
 10
-9.4836611107
 20
13.5369448522
 10
-9.4817208302
 20
13.5304166291
 10
-9.4799506928
 20
13.5238489325
 10
-9.4783560188
 20
13.517256468
 10
-9.4769371267
 20
13.5106321452
 10
-9.4756930844
 20
13.503963425
 10
-9.4744313178
 20
13.4958908827
 10
-9.4734279512
 20
13.4877517745
 10
-9.4726909433
 20
13.4795615232
 10
-9.472228253
 20
13.4713355516
 10
-9.4720478388
 20
13.4630892824
 10
-9.4721553052
 20
13.4548377708
 10
-9.4725468391
 20
13.4465946018
 10
-9.4732162732
 20
13.4383729924
 10
-9.4741574403
 20
13.4301861599
 10
-9.475364173
 20
13.4220473215
 10
-9.4765691443
 20
13.4153078031
 10
-9.4779563698
 20
13.4085983363
 10
-9.479527966
 20
13.401906465
 10
-9.4812844544
 20
13.3952261629
 10
-9.483219976
 20
13.3885771236
 10
-9.4853270769
 20
13.3819854702
 10
-9.4880719399
 20
13.3741823881
 10
-9.4910423776
 20
13.3665109249
 10
-9.4942276242
 20
13.3589824456
 10
-9.4976169137
 20
13.3516083155
 10
-9.5011994805
 20
13.3443998999
 10
-9.5049656484
 20
13.3373665121
 10
-9.5089101005
 20
13.3305092587
 10
-9.5130286096
 20
13.3238271943
 10
-9.5173169486
 20
13.3173193737
 10
-9.5217708903
 20
13.3109848515
 10
-9.5263897207
 20
13.3048209866
 10
-9.531186779
 20
13.2988183549
 10
-9.5361789175
 20
13.2929658362
 10
-9.5413829885
 20
13.2872523106
 10
-9.5468158444
 20
13.281666658
  0
LINE
  5
312
100
AcDbEntity
  8
0
100
AcDbLine
 62
253
  6
CONTINUOUS
 10
-9.8485180654
 20
-10.7426461454
 11
-10.3058944426
 21
-11.0071236453
  0
LINE
  5
313
100
AcDbEntity
  8
0
100
AcDbLine
 62
253
  6
CONTINUOUS
 10
-12.7229513254
 20
-12.4023597561
 11
-13.1797985359
 21
-12.6659200338
  0
LWPOLYLINE
  5
314
100
AcDbEntity
  8
0
100
AcDbPolyline
 62
253
  6
CONTINUOUS
 90
29
 70
0
 10
-13.1797985359
 20
-12.6659200338
 10
-13.1839678391
 20
-12.6682678027
 10
-13.1881742932
 20
-12.6705258728
 10
-13.1924178319
 20
-12.6726956934
 10
-13.1966983887
 20
-12.6747787139
 10
-13.2010158973
 20
-12.6767763838
 10
-13.2053702913
 20
-12.6786901525
 10
-13.2097615043
 20
-12.6805214694
 10
-13.2141891296
 20
-12.6822714869
 10
-13.2186513995
 20
-12.6839401685
 10
-13.2231462056
 20
-12.6855271811
 10
-13.2276714399
 20
-12.6870321912
 10
-13.2322249942
 20
-12.6884548654
 10
-13.2368047603
 20
-12.6897948705
 10
-13.2414086301
 20
-12.6910518729
 10
-13.2460345832
 20
-12.6922255434
 10
-13.2506809503
 20
-12.693315569
 10
-13.2553461499
 20
-12.6943216405
 10
-13.2600286004
 20
-12.695243449
 10
-13.2647267204
 20
-12.6960806855
 10
-13.2694389282
 20
-12.696833041
 10
-13.2741636425
 20
-12.6975002064
 10
-13.2788996334
 20
-12.6980817475
 10
-13.2836470785
 20
-12.6985767294
 10
-13.2884065071
 20
-12.6989840919
 10
-13.2931784486
 20
-12.6993027748
 10
-13.2979634324
 20
-12.6995317181
 10
-13.3027619877
 20
-12.6996698615
 10
-13.3075746438
 20
-12.6997161449
  0
LWPOLYLINE
  5
315
100
AcDbEntity
  8
0
100
AcDbPolyline
 62
253
  6
CONTINUOUS
 90
29
 70
0
 10
-10.3058944426
 20
-11.0071236453
 10
-10.3100617627
 20
-11.009380911
 10
-10.3142630642
 20
-11.0115592725
 10
-10.3184985713
 20
-11.0136595362
 10
-10.3227685083
 20
-11.0156825083
 10
-10.3270730995
 20
-11.0176289952
 10
-10.331412569
 20
-11.0194998031
 10
-10.3357871412
 20
-11.0212957384
 10
-10.3401967422
 20
-11.0230173386
 10
-10.3446401061
 20
-11.0246640657
 10
-10.349115669
 20
-11.0262351131
 10
-10.3536218669
 20
-11.0277296742
 10
-10.3581571359
 20
-11.0291469422
 10
-10.3627199121
 20
-11.0304861106
 10
-10.3673086315
 20
-11.0317463725
 10
-10.3719217041
 20
-11.032926902
 10
-10.3765574359
 20
-11.0340267953
 10
-10.3812141069
 20
-11.0350451291
 10
-10.385889997
 20
-11.0359809802
 10
-10.3905833862
 20
-11.0368334254
 10
-10.3952925545
 20
-11.0376015416
 10
-10.4000157818
 20
-11.0382844054
 10
-10.404751731
 20
-11.0388809979
 10
-10.4095005966
 20
-11.039389917
 10
-10.4142629562
 20
-11.0398096644
 10
-10.4190393873
 20
-11.0401387423
 10
-10.4238304672
 20
-11.0403756527
 10
-10.4286367736
 20
-11.0405188974
 10
-10.4334588838
 20
-11.0405669786
  0
LINE
  5
316
100
AcDbEntity
  8
ASSI
100
AcDbLine
 62
253
  6
CONTINUOUS
 10
21.3876298476
 20
-0.1869077307
 11
21.2459793797
 21
-0.2341149638
  0
LINE
  5
317
100
AcDbEntity
  8
ASSI
100
AcDbLine
 62
253
  6
CONTINUOUS
 10
21.8876869876
 20
-0.6868125485
 11
21.7458080424
 21
-0.7340959253
  0
LWPOLYLINE
  5
318
100
AcDbEntity
  8
0
100
AcDbPolyline
 62
253
  6
CONTINUOUS
 90
13
 70
0
 10
-11.6608025884
 20
8.5402274926
 10
-11.658789633
 20
8.5402361113
 10
-11.6567704979
 20
8.5402620241
 10
-11.6547451067
 20
8.5403053166
 10
-11.6527133831
 20
8.5403660741
 10
-11.6506753016
 20
8.5404443811
 10
-11.6486310403
 20
8.5405403185
 10
-11.6465808283
 20
8.5406539661
 10
-11.6445248946
 20
8.540785404
 10
-11.6424634197
 20
8.5409347164
 10
-11.6403963892
 20
8.5411020043
 10
-11.6383237404
 20
8.5412873732
 10
-11.6362454103
 20
8.5414909284
  0
LINE
  5
319
100
AcDbEntity
  8
ASSI
100
AcDbLine
 62
253
  6
CONTINUOUS
 10
21.2459793798
 20
0.2602995025
 11
21.3876298476
 21
0.2130922693
  0
LINE
  5
31A
100
AcDbEntity
  8
ASSI
100
AcDbLine
 62
253
  6
CONTINUOUS
 10
21.7458080424
 20
0.760280464
 11
21.8876869876
 21
0.7129970871
  0
LINE
  5
31B
100
AcDbEntity
  8
ASSI
100
AcDbLine
 62
253
  6
CONTINUOUS
 10
21.2751542642
 20
22.0374818398
 11
21.3673326579
 21
22.2219651278
  0
LINE
  5
31C
100
AcDbEntity
  8
ASSI
100
AcDbLine
 62
253
  6
CONTINUOUS
 10
21.7749829267
 20
21.5381670724
 11
21.8679590795
 21
21.7242469735
  0
LWPOLYLINE
  5
31D
100
AcDbEntity
  8
0
100
AcDbPolyline
 62
253
  6
CONTINUOUS
 90
49
 70
0
 10
-11.6362451513
 20
8.5414909549
 10
-11.6283710926
 20
8.5424200843
 10
-11.6205675639
 20
8.5435886541
 10
-11.6128312991
 20
8.5449936321
 10
-11.6051590323
 20
8.5466319863
 10
-11.5975474975
 20
8.5485006845
 10
-11.5899934287
 20
8.5505966946
 10
-11.5824955308
 20
8.5529170303
 10
-11.575060393
 20
8.5554588881
 10
-11.5676965753
 20
8.5582195102
 10
-11.5604126378
 20
8.5611961391
 10
-11.5532171406
 20
8.564386017
 10
-11.5461186437
 20
8.5677863862
 10
-11.5391254994
 20
8.571394658
 10
-11.5322452286
 20
8.5752089187
 10
-11.5254851446
 20
8.5792274238
 10
-11.5188525602
 20
8.5834484287
 10
-11.5123547888
 20
8.5878701887
 10
-11.5059991434
 20
8.5924909592
 10
-11.4997929413
 20
8.5973085688
 10
-11.4937435167
 20
8.602319139
 10
-11.4878582082
 20
8.6075183647
 10
-11.4821443541
 20
8.6129019405
 10
-11.4766092929
 20
8.6184655614
 10
-11.4712603631
 20
8.6242049219
 10
-11.4661038821
 20
8.6301150119
 10
-11.4611420836
 20
8.6361880004
 10
-11.4563761801
 20
8.6424153513
 10
-11.4518073843
 20
8.6487885288
 10
-11.4474369088
 20
8.6552989966
 10
-11.4432659662
 20
8.661938219
 10
-11.439295936
 20
8.6686981458
 10
-11.4355288643
 20
8.6755726717
 10
-11.4319669643
 20
8.6825561774
 10
-11.428612449
 20
8.6896430436
 10
-11.4254675313
 20
8.6968276508
 10
-11.4225344245
 20
8.7041043798
 10
-11.4198155041
 20
8.7114670495
 10
-11.4173137969
 20
8.7189072316
 10
-11.415032492
 20
8.7264159363
 10
-11.4129747788
 20
8.7339841735
 10
-11.4111438465
 20
8.7416029534
 10
-11.4095428844
 20
8.7492632858
 10
-11.4081753462
 20
8.7569581819
 10
-11.4070457428
 20
8.7646886565
 10
-11.4061588497
 20
8.7724577257
 10
-11.4055194423
 20
8.7802684052
 10
-11.4051322959
 20
8.7881237111
 10
-11.4050021859
 20
8.7960266592
  0
LWPOLYLINE
  5
31E
100
AcDbEntity
  8
0
100
AcDbPolyline
 62
253
  6
CONTINUOUS
 90
55
 70
0
 10
-11.6608025884
 20
10.1231061033
 10
-11.6685452488
 20
10.1229818695
 10
-11.6762148325
 20
10.1226117634
 10
-11.6838307569
 20
10.1219996779
 10
-11.691412439
 20
10.1211495061
 10
-11.698979296
 20
10.1200651409
 10
-11.7065467742
 20
10.1187494678
 10
-11.7141144365
 20
10.1172013427
 10
-11.7216778749
 20
10.115418614
 10
-11.7292326813
 20
10.1133991301
 10
-11.7367744479
 20
10.1111407394
 10
-11.7442975311
 20
10.1086416501
 10
-11.7517913465
 20
10.10590151
 10
-11.7592440741
 20
10.1029203268
 10
-11.7666438941
 20
10.0996981082
 10
-11.7739789865
 20
10.0962348619
 10
-11.7800316534
 20
10.0931662439
 10
-11.7860126947
 20
10.0899394568
 10
-11.7919036425
 20
10.0865637065
 10
-11.797690683
 20
10.0830452726
 10
-11.8033786188
 20
10.0793787303
 10
-11.8089769062
 20
10.0755557286
 10
-11.8144917798
 20
10.0715698139
 10
-11.819916586
 20
10.0674221222
 10
-11.8252414498
 20
10.0631156873
 10
-11.8304564956
 20
10.0586535426
 10
-11.8355518483
 20
10.0540387219
 10
-11.8405176325
 20
10.0492742586
 10
-11.8453451367
 20
10.0443639718
 10
-11.8500303044
 20
10.0393148222
 10
-11.854570243
 20
10.0341345558
 10
-11.8589620598
 20
10.0288309189
 10
-11.8632028622
 20
10.0234116573
 10
-11.8672897575
 20
10.0178845173
 10
-11.8712215477
 20
10.012254223
 10
-11.8750038134
 20
10.0065134105
 10
-11.87864383
 20
10.0006516942
 10
-11.8821454117
 20
9.9946644404
 10
-11.8854985285
 20
9.9885700247
 10
-11.8886896894
 20
9.9823925748
 10
-11.892290118
 20
9.974899707
 10
-11.8956374673
 20
9.9673379395
 10
-11.8987313016
 20
9.9597231978
 10
-11.9015711855
 20
9.9520714077
 10
-11.9041566832
 20
9.9443984947
 10
-11.906488056
 20
9.9367181083
 10
-11.9085683523
 20
9.9290347925
 10
-11.9104013175
 20
9.9213508154
 10
-11.9119906968
 20
9.9136684448
 10
-11.9133402356
 20
9.9059899486
 10
-11.914452383
 20
9.8983138882
 10
-11.9153244039
 20
9.8906239997
 10
-11.9159522671
 20
9.8829003123
 10
-11.9163319412
 20
9.8751228556
 10
-11.9164593951
 20
9.8672716589
  0
LWPOLYLINE
  5
31F
100
AcDbEntity
  8
0
100
AcDbPolyline
 62
253
  6
CONTINUOUS
 90
36
 70
0
 10
-12.8362581437
 20
10.6102216587
 10
-12.8305078505
 20
10.6101478487
 10
-12.8247793798
 20
10.6099283304
 10
-12.8190714354
 20
10.6095659714
 10
-12.8133827209
 20
10.6090636391
 10
-12.8077119402
 20
10.6084242012
 10
-12.8020577968
 20
10.6076505253
 10
-12.7964189946
 20
10.6067454789
 10
-12.7907950942
 20
10.6057118047
 10
-12.7851890843
 20
10.6045517463
 10
-12.7796048102
 20
10.6032674224
 10
-12.7740461176
 20
10.6018609518
 10
-12.7685168521
 20
10.6003344532
 10
-12.7630208591
 20
10.5986900453
 10
-12.7575619841
 20
10.5969298469
 10
-12.7521436839
 20
10.5950557607
 10
-12.746767859
 20
10.5930688253
 10
-12.7414360214
 20
10.5909698635
 10
-12.7361496828
 20
10.5887596979
 10
-12.7309103551
 20
10.5864391513
 10
-12.72571955
 20
10.5840090462
 10
-12.7205787793
 20
10.5814702053
 10
-12.7154897986
 20
10.5788233686
 10
-12.7104553383
 20
10.576068945
 10
-12.7054783725
 20
10.5732072608
 10
-12.7005618754
 20
10.5702386421
 10
-12.695708821
 20
10.5671634152
 10
-12.6909221836
 20
10.5639819063
 10
-12.6862049373
 20
10.5606944415
 10
-12.6815598818
 20
10.5573007874
 10
-12.6769891189
 20
10.5537984712
 10
-12.6724945761
 20
10.5501844607
 10
-12.6680781808
 20
10.5464557232
 10
-12.6637418604
 20
10.5426092265
 10
-12.6594875423
 20
10.538641938
 10
-12.655317154
 20
10.5345508254
  0
LWPOLYLINE
  5
320
100
AcDbEntity
  8
0
100
AcDbPolyline
 62
253
  6
CONTINUOUS
 90
36
 70
0
 10
-10.4853810982
 20
10.6102216587
 10
-10.4796244771
 20
10.6101474926
 10
-10.4738899382
 20
10.6099269295
 10
-10.4681761586
 20
10.6095628723
 10
-10.4624818155
 20
10.6090582238
 10
-10.4568055861
 20
10.6084158869
 10
-10.4511461475
 20
10.6076387644
 10
-10.4455021769
 20
10.6067297593
 10
-10.4398732263
 20
10.6056916613
 10
-10.4342623471
 20
10.6045268088
 10
-10.4286734653
 20
10.603237427
 10
-10.4231105071
 20
10.6018257412
 10
-10.4175773987
 20
10.6002939766
 10
-10.4120780662
 20
10.5986443585
 10
-10.4066164357
 20
10.5968791123
 10
-10.4011960106
 20
10.595000239
 10
-10.395818603
 20
10.5930088438
 10
-10.3904856023
 20
10.5909058074
 10
-10.3851983978
 20
10.5886920109
 10
-10.3799583789
 20
10.5863683352
 10
-10.3747669349
 20
10.5839356612
 10
-10.3696254552
 20
10.5813948698
 10
-10.3645355818
 20
10.5787467604
 10
-10.3594999679
 20
10.5759918063
 10
-10.3545215194
 20
10.5731303994
 10
-10.3496031421
 20
10.5701629314
 10
-10.3447477418
 20
10.5670897942
 10
-10.3399582246
 20
10.5639113795
 10
-10.3352374962
 20
10.5606280792
 10
-10.3305882808
 20
10.5572397303
 10
-10.3260125761
 20
10.5537439511
 10
-10.321512198
 20
10.5501378052
 10
-10.3170889623
 20
10.5464183561
 10
-10.3127446851
 20
10.5425826674
 10
-10.3084811821
 20
10.5386278027
 10
-10.3043002695
 20
10.5345508254
  0
LWPOLYLINE
  5
321
100
AcDbEntity
  8
0
100
AcDbPolyline
 62
253
  6
CONTINUOUS
 90
57
 70
0
 10
-11.6608025884
 20
10.7162666587
 10
-11.6819471594
 20
10.7165630884
 10
-11.7030829535
 20
10.7174516656
 10
-11.7242498889
 20
10.7189313232
 10
-11.7454878836
 20
10.7210009936
 10
-11.7668309968
 20
10.7236622011
 10
-11.7882898517
 20
10.7269268361
 10
-11.8098692129
 20
10.7308093806
 10
-11.8315738447
 20
10.7353243167
 10
-11.853398207
 20
10.7404831619
 10
-11.875295541
 20
10.7462855763
 10
-11.8972087834
 20
10.7527282552
 10
-11.9190808708
 20
10.7598078942
 10
-11.9408591175
 20
10.7675207178
 10
-11.9625083485
 20
10.775861067
 10
-11.9839977663
 20
10.784822812
 10
-12.0052965735
 20
10.7943998227
 10
-12.0263751926
 20
10.8045862766
 10
-12.0472089267
 20
10.8153775802
 10
-12.0677742989
 20
10.8267694472
 10
-12.0880478322
 20
10.8387575915
 10
-12.1080070973
 20
10.8513389687
 10
-12.1276338552
 20
10.8645155014
 10
-12.1469109144
 20
10.8782903544
 10
-12.1658210834
 20
10.8926666922
 10
-12.1843430811
 20
10.9076441345
 10
-12.2024392673
 20
10.9232081214
 10
-12.2200679125
 20
10.9393405481
 10
-12.2371872868
 20
10.9560233099
 10
-12.2537586711
 20
10.9732319815
 10
-12.2697553887
 20
10.990916857
 10
-12.2851537735
 20
11.0090219099
 10
-12.2999301595
 20
11.0274911138
 10
-12.3140677395
 20
11.0462770809
 10
-12.3275771412
 20
11.0653669778
 10
-12.3404758514
 20
11.0847566096
 10
-12.3527813569
 20
11.1044417813
 10
-12.3645083392
 20
11.1244176712
 10
-12.3756602605
 20
11.1446769503
 10
-12.3862377777
 20
11.1652116628
 10
-12.3962415478
 20
11.1860138529
 10
-12.4056701108
 20
11.2070705107
 10
-12.4145135379
 20
11.2283484104
 10
-12.4227597835
 20
11.2498092718
 10
-12.4303968016
 20
11.2714148149
 10
-12.4374139949
 20
11.2931244943
 10
-12.443806559
 20
11.3148887025
 10
-12.4495711381
 20
11.3366555664
 10
-12.4547043763
 20
11.3583732131
 10
-12.4592054451
 20
11.3799989645
 10
-12.4630836268
 20
11.4015269216
 10
-12.4663507308
 20
11.4229603806
 10
-12.4690185668
 20
11.4443026374
 10
-12.4710965116
 20
11.4655629601
 10
-12.4725842098
 20
11.4867745045
 10
-12.4734788734
 20
11.5079763984
 10
-12.4737777142
 20
11.5292077696
  0
LWPOLYLINE
  5
322
100
AcDbEntity
  8
0
100
AcDbPolyline
 62
253
  6
CONTINUOUS
 90
13
 70
0
 10
-11.6366618285
 20
10.1218816666
 10
-11.6387045323
 20
10.1220789092
 10
-11.6407417173
 20
10.1222585382
 10
-11.642773444
 20
10.1224206536
 10
-11.6447997728
 20
10.1225653554
 10
-11.6468207175
 20
10.1226927396
 10
-11.6488361056
 20
10.1228028863
 10
-11.6508457179
 20
10.1228958717
 10
-11.6528493352
 20
10.122971772
 10
-11.6548467871
 20
10.1230306643
 10
-11.6568380979
 20
10.1230726293
 10
-11.6588233406
 20
10.1230977484
 10
-11.6608025884
 20
10.1231061033
  0
LINE
  5
323
100
AcDbEntity
  8
ASSI
100
AcDbLine
 62
253
  6
CONTINUOUS
 10
21.3673326579
 20
-22.1957805891
 11
21.2751542616
 21
-22.0112972958
  0
LINE
  5
324
100
AcDbEntity
  8
ASSI
100
AcDbLine
 62
253
  6
CONTINUOUS
 10
21.8679590795
 20
-21.6980624348
 11
21.774982924
 21
-21.5119825285
  0
LINE
  5
325
100
AcDbEntity
  8
ASSI
100
AcDbLine
 62
253
  6
CONTINUOUS
 10
10.8605878873
 20
-0.2379911155
 11
10.8622782604
 21
-21.9928216587
  0
LINE
  5
326
100
AcDbEntity
  8
ASSI
100
AcDbLine
 62
253
  6
CONTINUOUS
 10
10.8605878873
 20
0.2641756542
 11
10.8622782604
 21
22.0190061973
  0
LWPOLYLINE
  5
327
100
AcDbEntity
  8
0
100
AcDbPolyline
 62
253
  6
CONTINUOUS
 90
8
 70
0
 10
-11.6365437109
 20
10.7166598727
 10
-11.6400130606
 20
10.7165556879
 10
-11.6434812709
 20
10.7164674688
 10
-11.6469482661
 20
10.7163952382
 10
-11.6504139709
 20
10.716339019
 10
-11.6538783099
 20
10.7162988341
 10
-11.6573412075
 20
10.7162747064
 10
-11.6608025884
 20
10.7162666587
  0
LINE
  5
328
100
AcDbEntity
  8
0
100
AcDbLine
 62
253
  6
CONTINUOUS
 10
-8.9273028046
 20
11.2731263808
 11
-9.998441944
 21
11.2731263808
  0
LINE
  5
329
100
AcDbEntity
  8
0
100
AcDbLine
 62
253
  6
CONTINUOUS
 10
-13.3228785258
 20
11.2731263808
 11
-14.3944409985
 21
11.2731263808
  0
LINE
  5
32A
100
AcDbEntity
  8
0
100
AcDbLine
 62
253
  6
CONTINUOUS
 10
-14.3944409985
 20
11.7850069362
 11
-13.3228785258
 21
11.7850069362
  0
LINE
  5
32B
100
AcDbEntity
  8
0
100
AcDbLine
 62
253
  6
CONTINUOUS
 10
-9.998441944
 20
11.7850069362
 11
-8.9273028046
 21
11.7850069362
  0
LWPOLYLINE
  5
32C
100
AcDbEntity
  8
0
100
AcDbPolyline
 62
253
  6
CONTINUOUS
 90
8
 70
0
 10
-11.6608025884
 20
12.3421841583
 10
-11.6573805757
 20
12.3421763101
 10
-11.6539570604
 20
12.3421527799
 10
-11.6505321154
 20
12.3421135894
 10
-11.647105814
 20
12.3420587605
 10
-11.6436782294
 20
12.341988315
 10
-11.6402494345
 20
12.3419022746
 10
-11.6368195027
 20
12.3418006611
  0
LWPOLYLINE
  5
32D
100
AcDbEntity
  8
0
100
AcDbPolyline
 62
253
  6
CONTINUOUS
 90
55
 70
0
 10
-13.3228785258
 20
11.7850069362
 10
-13.3151193801
 20
11.7848824403
 10
-13.3074336914
 20
11.7845115677
 10
-13.2998020546
 20
11.7838982415
 10
-13.2922050648
 20
11.7830463846
 10
-13.2846233171
 20
11.7819599201
 10
-13.2770413644
 20
11.7806417555
 10
-13.269459592
 20
11.7790907377
 10
-13.261882343
 20
11.7773046981
 10
-13.2543139606
 20
11.7752814679
 10
-13.2467587881
 20
11.7730188788
 10
-13.23922243
 20
11.7705151297
 10
-13.2317155365
 20
11.767769891
 10
-13.2242500191
 20
11.7647832007
 10
-13.2168377894
 20
11.7615550967
 10
-13.2094907589
 20
11.758085617
 10
-13.2034285856
 20
11.7550115791
 10
-13.1974385759
 20
11.7517792796
 10
-13.1915393445
 20
11.7483980523
 10
-13.1857448227
 20
11.7448742921
 10
-13.1800502099
 20
11.7412026381
 10
-13.1744460222
 20
11.73737479
 10
-13.1689259861
 20
11.7333843388
 10
-13.1634966696
 20
11.7292324391
 10
-13.1581678506
 20
11.7249221368
 10
-13.1529493073
 20
11.7204564775
 10
-13.1478508178
 20
11.7158385069
 10
-13.1428821603
 20
11.7110712708
 10
-13.1380519655
 20
11.7061586079
 10
-13.1333642755
 20
11.7011075285
 10
-13.1288219849
 20
11.6959258357
 10
-13.1244279886
 20
11.6906213329
 10
-13.1201851812
 20
11.6852018233
 10
-13.1160964575
 20
11.67967511
 10
-13.112163015
 20
11.674045968
 10
-13.108379263
 20
11.6683070581
 10
-13.1047379137
 20
11.6624480128
 10
-13.1012351318
 20
11.6564641944
 10
-13.0978808938
 20
11.650373883
 10
-13.0946886287
 20
11.6442010885
 10
-13.0910868309
 20
11.6367143887
 10
-13.0877380637
 20
11.629159328
 10
-13.0846427788
 20
11.6215517471
 10
-13.0818014279
 20
11.6139074866
 10
-13.0792144626
 20
11.6062423869
 10
-13.0768816409
 20
11.5985700285
 10
-13.0747999458
 20
11.5908949506
 10
-13.0729656669
 20
11.5832194323
 10
-13.0713750937
 20
11.5755457527
 10
-13.0700245156
 20
11.5678761908
 10
-13.0689115125
 20
11.5602093285
 10
-13.0680388255
 20
11.552528959
 10
-13.0674104861
 20
11.5448151787
 10
-13.0670305261
 20
11.5370480835
 10
-13.0669029768
 20
11.5292077696
  0
LWPOLYLINE
  5
32E
100
AcDbEntity
  8
0
100
AcDbPolyline
 62
253
  6
CONTINUOUS
 90
55
 70
0
 10
-8.9273028046
 20
11.7850069362
 10
-8.9195600533
 20
11.7848831122
 10
-8.9118902533
 20
11.7845141979
 10
-8.9042739198
 20
11.7839040298
 10
-8.8966915677
 20
11.7830564445
 10
-8.8891237118
 20
11.7819752785
 10
-8.8815548553
 20
11.7806633632
 10
-8.8739854534
 20
11.7791195086
 10
-8.8664199495
 20
11.7773415199
 10
-8.858862787
 20
11.7753272018
 10
-8.8513184092
 20
11.7730743593
 10
-8.843792491
 20
11.7705811547
 10
-8.8362956336
 20
11.7678471791
 10
-8.8288396695
 20
11.764872381
 10
-8.8214364313
 20
11.7616567089
 10
-8.8140977518
 20
11.7582001114
 10
-8.8080419743
 20
11.7551370641
 10
-8.8020577123
 20
11.7519158102
 10
-8.796163432
 20
11.7485454883
 10
-8.7903729432
 20
11.7450323141
 10
-8.7846814299
 20
11.7413708125
 10
-8.7790794198
 20
11.7375525853
 10
-8.7735606759
 20
11.7335711344
 10
-8.768131903
 20
11.729427561
 10
-8.762803041
 20
11.7251248665
 10
-8.75758403
 20
11.7206660518
 10
-8.7524848101
 20
11.7160541182
 10
-8.7475153212
 20
11.7112920669
 10
-8.7426843286
 20
11.7063836916
 10
-8.7379958988
 20
11.7013359568
 10
-8.7334529232
 20
11.6961566196
 10
-8.7290582934
 20
11.690853437
 10
-8.7248149011
 20
11.6854341662
 10
-8.7207256379
 20
11.6799065641
 10
-8.7167916951
 20
11.6742753631
 10
-8.7130074639
 20
11.6685331965
 10
-8.7093656351
 20
11.6626696726
 10
-8.7058623699
 20
11.656680164
 10
-8.7025077102
 20
11.6505830999
 10
-8.6993151683
 20
11.6444026737
 10
-8.6957133159
 20
11.636905885
 10
-8.6923647831
 20
11.6293398775
 10
-8.6892699827
 20
11.6217206353
 10
-8.6864293272
 20
11.6140641426
 10
-8.6838432292
 20
11.6063863835
 10
-8.681511404
 20
11.59870106
 10
-8.6794307773
 20
11.5910127459
 10
-8.6775975776
 20
11.583323733
 10
-8.6760080333
 20
11.5756363127
 10
-8.6746583729
 20
11.5679527769
 10
-8.6735461257
 20
11.5602716907
 10
-8.6726740239
 20
11.5525767138
 10
-8.6720461006
 20
11.5448477792
 10
-8.6716663891
 20
11.5370648201
 10
-8.6715389223
 20
11.5292077696
  0
LWPOLYLINE
  5
32F
100
AcDbEntity
  8
0
100
AcDbPolyline
 62
253
  6
CONTINUOUS
 90
55
 70
0
 10
-11.6608025884
 20
12.9359444359
 10
-11.6685555254
 20
12.9360688052
 10
-11.6762349591
 20
12.9364392914
 10
-11.6838602476
 20
12.9370519623
 10
-11.6914507491
 20
12.9379028858
 10
-11.699025822
 20
12.9389881296
 10
-11.7066008814
 20
12.9403047786
 10
-11.7141755707
 20
12.941853986
 10
-11.7217455902
 20
12.9436379224
 10
-11.7293066404
 20
12.9456587581
 10
-11.7368544215
 20
12.9479186636
 10
-11.7443833612
 20
12.9504194378
 10
-11.7518827963
 20
12.9531613938
 10
-11.7593407909
 20
12.956144473
 10
-11.7667454091
 20
12.9593686171
 10
-11.7740847149
 20
12.9628337676
 10
-11.7801403421
 20
12.9659038947
 10
-11.7861236669
 20
12.9691319631
 10
-11.7920160316
 20
12.972508589
 10
-11.7978034686
 20
12.9760273263
 10
-11.8034907719
 20
12.9796934795
 10
-11.8090874256
 20
12.9835152908
 10
-11.8145997151
 20
12.9874991222
 10
-11.820021132
 20
12.9916438147
 10
-11.8253419691
 20
12.9959463296
 10
-11.8305525191
 20
13.0004036278
 10
-11.8356430749
 20
13.0050126703
 10
-11.8406039293
 20
13.0097704181
 10
-11.8454265098
 20
13.0146730376
 10
-11.850106783
 20
13.0197135157
 10
-11.85464185
 20
13.0248840446
 10
-11.859028812
 20
13.0301768164
 10
-11.8632647702
 20
13.0355840235
 10
-11.8673468258
 20
13.0410978578
 10
-11.8712737775
 20
13.0467135335
 10
-11.8750512136
 20
13.0524383515
 10
-11.8786864202
 20
13.0582826348
 10
-11.8821832402
 20
13.0642510036
 10
-11.885531745
 20
13.0703252677
 10
-11.8887185629
 20
13.0764815342
 10
-11.8923142654
 20
13.08394791
 10
-11.8956574263
 20
13.0914822
 10
-11.8987475883
 20
13.0990686404
 10
-11.9015842939
 20
13.1066914675
 10
-11.9041670858
 20
13.1143349175
 10
-11.9064961974
 20
13.1219854745
 10
-11.9085746258
 20
13.1296386141
 10
-11.9104060589
 20
13.1372920595
 10
-11.9119941846
 20
13.1449435343
 10
-11.9133426908
 20
13.1525907616
 10
-11.9144539806
 20
13.1602351479
 10
-11.9153253173
 20
13.1678928315
 10
-11.9159526796
 20
13.1755836339
 10
-11.916332046
 20
13.1833273764
 10
-11.9164593951
 20
13.1911438803
  0
LWPOLYLINE
  5
330
100
AcDbEntity
  8
0
100
AcDbPolyline
 62
253
  6
CONTINUOUS
 90
53
 70
0
 10
-14.3944409985
 20
11.2731263808
 10
-14.4021820936
 20
11.2732517595
 10
-14.4098500188
 20
11.2736251956
 10
-14.4174639822
 20
11.2742426391
 10
-14.425043192
 20
11.2751000399
 10
-14.4326068564
 20
11.2761933482
 10
-14.4401702622
 20
11.2775195246
 10
-14.4477330109
 20
11.2790795721
 10
-14.4552907827
 20
11.2808755043
 10
-14.4628392577
 20
11.2829093349
 10
-14.4703741163
 20
11.2851830775
 10
-14.4778898012
 20
11.2876983816
 10
-14.4853758056
 20
11.2904554397
 10
-14.4928203852
 20
11.2934540799
 10
-14.5002117959
 20
11.2966941306
 10
-14.5075382935
 20
11.30017542
 10
-14.5135837098
 20
11.3032591077
 10
-14.5195574613
 20
11.3065008485
 10
-14.5254411174
 20
11.3098912881
 10
-14.5312208939
 20
11.3134240041
 10
-14.5369015911
 20
11.3171043029
 10
-14.5424926554
 20
11.3209404232
 10
-14.5490913855
 20
11.3257577828
 10
-14.5555577758
 20
11.3308060104
 10
-14.5618749551
 20
11.3360797278
 10
-14.5680260517
 20
11.3415735567
 10
-14.5739941943
 20
11.3472821186
 10
-14.5797644806
 20
11.3531987231
 10
-14.5853298852
 20
11.3593114312
 10
-14.590685352
 20
11.3656069921
 10
-14.5958258247
 20
11.3720721545
 10
-14.6007462472
 20
11.3786936676
 10
-14.604676547
 20
11.3843244798
 10
-14.6084577329
 20
11.3900650592
 10
-14.6120970151
 20
11.3959257982
 10
-14.6155981501
 20
11.4019113498
 10
-14.6189510804
 20
11.4080034093
 10
-14.6221422947
 20
11.4141779326
 10
-14.6257430723
 20
11.4216666437
 10
-14.6290910306
 20
11.4292236419
 10
-14.6321856777
 20
11.4368330902
 10
-14.6350265213
 20
11.4444791514
 10
-14.6376130694
 20
11.4521459884
 10
-14.6399455296
 20
11.4598200434
 10
-14.6420269085
 20
11.4674968754
 10
-14.6438609129
 20
11.4751743224
 10
-14.6454512491
 20
11.4828502229
 10
-14.6468016238
 20
11.490522415
 10
-14.6479144542
 20
11.4981923823
 10
-14.6487870012
 20
11.5058761904
 10
-14.6494152365
 20
11.5135935503
 10
-14.6497951318
 20
11.5213641731
 10
-14.6499226587
 20
11.5292077696
  0
LWPOLYLINE
  5
331
100
AcDbEntity
  8
0
100
AcDbPolyline
 62
253
  6
CONTINUOUS
 90
55
 70
0
 10
-9.998441944
 20
11.2731263808
 10
-10.0061976592
 20
11.2732514871
 10
-10.0138800727
 20
11.2736241389
 10
-10.0215084819
 20
11.2742403361
 10
-10.0291021842
 20
11.2750960783
 10
-10.0366804769
 20
11.2761873651
 10
-10.0442587211
 20
11.2775112101
 10
-10.0518365321
 20
11.2790686817
 10
-10.059409589
 20
11.2808618623
 10
-10.0669735707
 20
11.282892834
 10
-10.0745241562
 20
11.2851636792
 10
-10.0820557722
 20
11.2876761124
 10
-10.0895578353
 20
11.2904303773
 10
-10.0970185102
 20
11.29342635
 10
-10.1044259611
 20
11.2966639063
 10
-10.1117683525
 20
11.3001429222
 10
-10.1178268259
 20
11.3032249112
 10
-10.123813356
 20
11.3064651234
 10
-10.129709399
 20
11.3098541877
 10
-10.1355010816
 20
11.3133856702
 10
-10.1411932132
 20
11.3170648846
 10
-10.1467952739
 20
11.3209000816
 10
-10.1523135356
 20
11.3248976229
 10
-10.1577414377
 20
11.3290563147
 10
-10.1630692118
 20
11.3333730741
 10
-10.1682870891
 20
11.3378448181
 10
-10.1733853011
 20
11.3424684641
 10
-10.1783540792
 20
11.347240929
 10
-10.1831847947
 20
11.3521583565
 10
-10.1878733794
 20
11.3572137959
 10
-10.1924169047
 20
11.3623995231
 10
-10.1968124422
 20
11.3677078136
 10
-10.2010570636
 20
11.3731309434
 10
-10.2051478404
 20
11.3786611882
 10
-10.2090835416
 20
11.3842938404
 10
-10.2128697249
 20
11.3900362586
 10
-10.2165136454
 20
11.395898818
 10
-10.2200191006
 20
11.401886159
 10
-10.2233760575
 20
11.4079799815
 10
-10.2265710252
 20
11.4141562506
 10
-10.2301759717
 20
11.4216470429
 10
-10.2335277493
 20
11.4292061024
 10
-10.2366258805
 20
11.4368175834
 10
-10.2394698874
 20
11.4444656402
 10
-10.2420592922
 20
11.4521344271
 10
-10.2443943155
 20
11.4598103716
 10
-10.2464779715
 20
11.4674889932
 10
-10.2483139729
 20
11.4751680843
 10
-10.2499060321
 20
11.4828454376
 10
-10.2512578617
 20
11.4905188454
 10
-10.2523718839
 20
11.4981897671
 10
-10.2532453598
 20
11.5058743281
 10
-10.2538742599
 20
11.5135923207
 10
-10.2542545548
 20
11.5213635372
 10
-10.2543822152
 20
11.5292077696
  0
LWPOLYLINE
  5
332
100
AcDbEntity
  8
0
100
AcDbPolyline
 62
253
  6
CONTINUOUS
 90
51
 70
0
 10
-11.6368195811
 20
12.3418006636
 10
-11.6116864204
 20
12.3405904465
 10
-11.5867332013
 20
12.3385754204
 10
-11.561894467
 20
12.3357639571
 10
-11.5371047609
 20
12.3321644286
 10
-11.5123113561
 20
12.3277822204
 10
-11.4875124463
 20
12.3226107722
 10
-11.4627189552
 20
12.3166405374
 10
-11.4379418063
 20
12.3098619693
 10
-11.4131996044
 20
12.302268778
 10
-11.3885416775
 20
12.2938677004
 10
-11.3640250347
 20
12.2846687299
 10
-11.3397066851
 20
12.2746818604
 10
-11.3156385004
 20
12.2639151033
 10
-11.2918518029
 20
12.2523685426
 10
-11.2683727775
 20
12.2400402802
 10
-11.2452276092
 20
12.226928418
 10
-11.2249574794
 20
12.214615866
 10
-11.2050016769
 20
12.201692187
 10
-11.1853900516
 20
12.1881668945
 10
-11.166152453
 20
12.1740495016
 10
-11.147318731
 20
12.1593495217
 10
-11.1289187353
 20
12.1440764681
 10
-11.1109823156
 20
12.1282398541
 10
-11.0935393216
 20
12.1118491931
 10
-11.0766196031
 20
12.0949139982
 10
-11.0602493456
 20
12.0774474669
 10
-11.044440078
 20
12.0594775324
 10
-11.0291996651
 20
12.0410358122
 10
-11.0145359715
 20
12.0221539235
 10
-11.000456862
 20
12.0028634837
 10
-10.9869702013
 20
11.9831961102
 10
-10.9740838542
 20
11.9631834203
 10
-10.9618056852
 20
11.9428570314
 10
-10.9501435593
 20
11.9222485608
 10
-10.9377677204
 20
11.898762675
 10
-10.9261800909
 20
11.8749835248
 10
-10.9153792471
 20
11.8509348402
 10
-10.9053637654
 20
11.8266403507
 10
-10.8961338752
 20
11.8021291734
 10
-10.887696419
 20
11.7774519754
 10
-10.8800598925
 20
11.752664811
 10
-10.8732327914
 20
11.7278237347
 10
-10.8672207218
 20
11.7029772264
 10
-10.8620177315
 20
11.678143468
 10
-10.8576149785
 20
11.6533330668
 10
-10.8540036209
 20
11.6285566303
 10
-10.851178132
 20
11.6038123454
 10
-10.8491462458
 20
11.5790487172
 10
-10.8479190114
 20
11.5542018304
 10
-10.8475074779
 20
11.5292077696
  0
LWPOLYLINE
  5
333
100
AcDbEntity
  8
0
100
AcDbPolyline
 62
253
  6
CONTINUOUS
 90
13
 70
0
 10
-11.6366911227
 20
12.9371639921
 10
-11.6387312967
 20
12.9369675296
 10
-11.6407659673
 20
12.9367886124
 10
-11.6427951947
 20
12.9366271409
 10
-11.6448190388
 20
12.9364830151
 10
-11.6468375132
 20
12.9363561393
 10
-11.6488504466
 20
12.9362464332
 10
-11.6508576213
 20
12.9361538206
 10
-11.6528588193
 20
12.9360782252
 10
-11.6548538715
 20
12.9360195701
 10
-11.6568428021
 20
12.9359777746
 10
-11.6588256835
 20
12.935952757
 10
-11.6608025884
 20
12.9359444359
  0
LWPOLYLINE
  5
334
100
AcDbEntity
  8
0
100
AcDbPolyline
 62
253
  6
CONTINUOUS
 90
13
 70
0
 10
-11.6608025884
 20
14.5191052689
 10
-11.6588653556
 20
14.5190972008
 10
-11.6569223384
 20
14.5190729448
 10
-11.6549734672
 20
14.5190324235
 10
-11.6530186723
 20
14.5189755594
 10
-11.6510579305
 20
14.518902276
 10
-11.6490914043
 20
14.5188125005
 10
-11.6471193028
 20
14.518706161
 10
-11.645141835
 20
14.5185831857
 10
-11.6431591656
 20
14.5184434991
 10
-11.6411712809
 20
14.5182870111
 10
-11.6391781231
 20
14.518113628
 10
-11.6371796342
 20
14.5179232562
  0
LWPOLYLINE
  5
335
100
AcDbEntity
  8
0
100
AcDbPolyline
 62
253
  6
CONTINUOUS
 90
36
 70
0
 10
-13.59352963
 20
13.7182291579
 10
-13.5877883307
 20
13.718155574
 10
-13.5820688167
 20
13.7179367264
 10
-13.5763697888
 20
13.7175754714
 10
-13.5706899475
 20
13.7170746653
 10
-13.5650279935
 20
13.7164371643
 10
-13.5593826274
 20
13.7156658248
 10
-13.5537525499
 20
13.714763503
 10
-13.5481373203
 20
13.7137329362
 10
-13.542539932
 20
13.7125763851
 10
-13.5369642372
 20
13.7112959916
 10
-13.531414088
 20
13.7098938973
 10
-13.5258933366
 20
13.7083722441
 10
-13.520405835
 20
13.7067331738
 10
-13.5149554356
 20
13.704978828
 10
-13.5095455905
 20
13.7031111311
 10
-13.5041781534
 20
13.701131138
 10
-13.4988545779
 20
13.6990396859
 10
-13.4935763179
 20
13.6968376121
 10
-13.4883448271
 20
13.6945257542
 10
-13.4831615591
 20
13.6921049493
 10
-13.4780279679
 20
13.6895760348
 10
-13.4729457531
 20
13.6869397669
 10
-13.4679175985
 20
13.6841965767
 10
-13.4629464339
 20
13.6813468141
 10
-13.458035189
 20
13.6783908291
 10
-13.4531867937
 20
13.6753289715
 10
-13.4484041776
 20
13.6721615912
 10
-13.4436902706
 20
13.6688890383
 10
-13.4390478237
 20
13.6655111088
 10
-13.4344788732
 20
13.6620253847
 10
-13.4299852765
 20
13.6584288938
 10
-13.4255688913
 20
13.6547186643
 10
-13.4212315749
 20
13.6508917242
 10
-13.416975185
 20
13.6469451016
 10
-13.4128015791
 20
13.6428758246
  0
LWPOLYLINE
  5
336
100
AcDbEntity
  8
0
100
AcDbPolyline
 62
253
  6
CONTINUOUS
 90
36
 70
0
 10
-9.7278966731
 20
13.7182291579
 10
-9.7221434202
 20
13.7181552083
 10
-9.7164121954
 20
13.7179352853
 10
-9.7107016724
 20
13.7175722776
 10
-9.7050105245
 20
13.7170690741
 10
-9.699337425
 20
13.7164285633
 10
-9.6936810475
 20
13.7156536342
 10
-9.6880400654
 20
13.7147471755
 10
-9.6824140294
 20
13.71371197
 10
-9.6768059995
 20
13.7125503774
 10
-9.6712199134
 20
13.7112646517
 10
-9.6656597084
 20
13.7098570466
 10
-9.660129322
 20
13.7083298161
 10
-9.6546326917
 20
13.7066852139
 10
-9.6491737548
 20
13.704925494
 10
-9.6437560129
 20
13.7030526846
 10
-9.6383812235
 20
13.7010679114
 10
-9.6330507079
 20
13.6989720749
 10
-9.6277657876
 20
13.6967660752
 10
-9.6225277841
 20
13.6944508125
 10
-9.6173380189
 20
13.6920271872
 10
-9.6121978134
 20
13.6894960993
 10
-9.6071087448
 20
13.6868583699
 10
-9.6020734129
 20
13.6841145024
 10
-9.5970946734
 20
13.6812649209
 10
-9.592175382
 20
13.6783100493
 10
-9.5873183941
 20
13.675250312
 10
-9.5825265655
 20
13.6720861329
 10
-9.5778027516
 20
13.6688179361
 10
-9.5731496202
 20
13.6654455981
 10
-9.5685690866
 20
13.6619668043
 10
-9.5640628783
 20
13.6583786927
 10
-9.5596327225
 20
13.6546784011
 10
-9.5552803466
 20
13.6508630673
 10
-9.5510074782
 20
13.6469298292
 10
-9.5468158444
 20
13.6428758246
  0
LWPOLYLINE
  5
337
100
AcDbEntity
  8
0
100
AcDbPolyline
 62
253
  6
CONTINUOUS
 90
49
 70
0
 10
-11.6371798321
 20
14.5179232759
 10
-11.6293005267
 20
14.5170142456
 10
-11.6214911528
 20
14.5158627159
 10
-11.6137483829
 20
14.51447191
 10
-11.6060688892
 20
14.512845051
 10
-11.5984493442
 20
14.5109853621
 10
-11.5908864202
 20
14.5088960665
 10
-11.5833787921
 20
14.5065803548
 10
-11.575933145
 20
14.5040412868
 10
-11.5685581664
 20
14.5012818896
 10
-11.5612625439
 20
14.4983051905
 10
-11.5540549651
 20
14.4951142167
 10
-11.5469441176
 20
14.4917119953
 10
-11.5399384095
 20
14.4881013638
 10
-11.5330451305
 20
14.484284401
 10
-11.5262712909
 20
14.4802629959
 10
-11.5196239009
 20
14.4760390378
 10
-11.5131099707
 20
14.4716144156
 10
-11.5067365107
 20
14.4669910185
 10
-11.5005105909
 20
14.4621711017
 10
-11.494439521
 20
14.4571583855
 10
-11.4885306703
 20
14.4519569563
 10
-11.4827914084
 20
14.4465709003
 10
-11.4772291048
 20
14.4410043042
 10
-11.4718511289
 20
14.4352612541
 10
-11.46666388
 20
14.4293465674
 10
-11.4616698765
 20
14.4232679841
 10
-11.4568706666
 20
14.4170339754
 10
-11.4522677986
 20
14.4106530121
 10
-11.4478628206
 20
14.4041335652
 10
-11.4436572809
 20
14.3974841057
 10
-11.439652871
 20
14.3907126211
 10
-11.4358518566
 20
14.3838251648
 10
-11.4322566465
 20
14.3768273068
 10
-11.4288696496
 20
14.3697246169
 10
-11.4256932749
 20
14.3625226651
 10
-11.4227299312
 20
14.3552270213
 10
-11.4199821947
 20
14.3478438757
 10
-11.4174533107
 20
14.3403818997
 10
-11.4151466915
 20
14.3328503846
 10
-11.4130657494
 20
14.3252586221
 10
-11.411213897
 20
14.3176159036
 10
-11.4095945467
 20
14.3099315207
 10
-11.4082113427
 20
14.3022126968
 10
-11.4070688574
 20
14.2944583827
 10
-11.4061718949
 20
14.2866654613
 10
-11.4055252594
 20
14.2788308151
 10
-11.405133755
 20
14.2709513272
 10
-11.4050021859
 20
14.26302388
  0
LWPOLYLINE
  5
338
100
AcDbEntity
  8
ASSI
100
AcDbPolyline
 62
253
  6
CONTINUOUS
 90
10
 70
0
 10
21.774982924
 20
-21.5119825285
 10
21.773689157
 20
-21.5076300101
 10
21.7724171942
 20
-21.4999362209
 10
21.7711670355
 20
-21.4889011608
 10
21.7699321314
 20
-21.4744359177
 10
21.7687190314
 20
-21.4566294038
 10
21.7675473845
 20
-21.4357483555
 10
21.7664183773
 20
-21.411748026
 10
21.7653308232
 20
-21.3846731621
 10
21.7643008109
 20
-21.3549247413
  0
LINE
  5
339
100
AcDbEntity
  8
ASSI
100
AcDbLine
 62
7
  6
CONTINUOUS
 10
18.6682384943
 20
22.2219651278
 11
18.320051891
 21
22.1903592074
  0
LWPOLYLINE
  5
33A
100
AcDbEntity
  8
ASSI
100
AcDbPolyline
 62
253
  6
CONTINUOUS
 90
14
 70
0
 10
-22.1635849063
 20
20.8895500903
 10
-22.210422342
 20
20.8888440505
 10
-22.2555404125
 20
20.8879447905
 10
-22.2985016555
 20
20.8868610294
 10
-22.3388895213
 20
20.8856032753
 10
-22.3763124115
 20
20.8841837232
 10
-22.4104074758
 20
20.8826161371
 10
-22.4408441306
 20
20.8809157162
 10
-22.4673272636
 20
20.8790989477
 10
-22.4896000961
 20
20.8771834468
 10
-22.5074466718
 20
20.8751877862
 10
-22.5206939514
 20
20.8731313156
 10
-22.5292134901
 20
20.8710339744
 10
-22.5329226829
 20
20.8689160984
  0
LINE
  5
33B
100
AcDbEntity
  8
ASSI
100
AcDbLine
 62
253
  6
CONTINUOUS
 10
-22.0665807391
 20
20.890357066
 11
-22.1635849063
 21
20.8895500903
  0
LINE
  5
33C
100
AcDbEntity
  8
ASSI
100
AcDbLine
 62
253
  6
CONTINUOUS
 10
21.2912144618
 20
20.8903570606
 11
15.7948155526
 21
20.8848284666
  0
LINE
  5
33D
100
AcDbEntity
  8
ASSI
100
AcDbLine
 62
253
  6
CONTINUOUS
 10
15.7948155526
 20
20.8848284666
 11
-11.6376356134
 21
20.8832598912
  0
LINE
  5
33E
100
AcDbEntity
  8
ASSI
100
AcDbLine
 62
253
  6
CONTINUOUS
 10
-11.6376356133
 20
20.8832583025
 11
-17.7132990881
 21
20.8856599483
  0
LINE
  5
33F
100
AcDbEntity
  8
ASSI
100
AcDbLine
 62
253
  6
CONTINUOUS
 10
-17.7132990881
 20
20.8856599483
 11
-22.0665807391
 21
20.8903570563
  0
LWPOLYLINE
  5
340
100
AcDbEntity
  8
ASSI
100
AcDbPolyline
 62
253
  6
CONTINUOUS
 90
15
 70
0
 10
21.291213572
 20
20.8903565228
 10
21.3882168298
 20
20.8895495732
 10
21.4350538714
 20
20.8888435554
 10
21.4801716053
 20
20.8879443229
 10
21.5231325813
 20
20.8868605943
 10
21.5635202607
 20
20.885602877
 10
21.6009430544
 20
20.8841833653
 10
21.6350381206
 20
20.8826158227
 10
21.6654748818
 20
20.8809154475
 10
21.691958231
 20
20.8790987261
 10
21.7142313922
 20
20.8771832732
 10
21.7320784103
 20
20.8751876603
 10
21.7453262452
 20
20.8731312365
 10
21.7538464492
 20
20.8710339403
 10
21.7575564124
 20
20.8689161066
  0
LINE
  5
341
100
AcDbEntity
  8
ASSI
100
AcDbLine
 62
7
  6
CONTINUOUS
 10
-19.4436047661
 20
22.2219651278
 11
-19.0954181628
 21
22.1903592074
  0
LWPOLYLINE
  5
342
100
AcDbEntity
  8
ASSI
100
AcDbPolyline
 62
253
  6
CONTINUOUS
 90
8
 70
0
 10
21.2745891473
 20
-0.3644070852
 10
21.2709511579
 20
-0.331307924
 10
21.2670214289
 20
-0.3026649859
 10
21.2633729035
 20
-0.2787421704
 10
21.2591017276
 20
-0.2597024692
 10
21.2542102135
 20
-0.2458033046
 10
21.2496735582
 20
-0.2372570845
 10
21.2459793799
 20
-0.2341149638
  0
LWPOLYLINE
  5
343
100
AcDbEntity
  8
ASSI
100
AcDbPolyline
 62
253
  6
CONTINUOUS
 90
16
 70
0
 10
21.7458080424
 20
-0.7340959253
 10
21.74312251
 20
-0.6824500337
 10
21.7350823513
 20
-0.6311860747
 10
21.7217207531
 20
-0.5808645806
 10
21.7031068419
 20
-0.5319923384
 10
21.6794052234
 20
-0.4851798831
 10
21.6509296345
 20
-0.4411077294
 10
21.6180348016
 20
-0.4003076683
 10
21.581050972
 20
-0.3631744233
 10
21.5403737242
 20
-0.3301086045
 10
21.4964396171
 20
-0.3014726729
 10
21.4497363932
 20
-0.2775915683
 10
21.4007896722
 20
-0.2587365912
 10
21.3501429627
 20
-0.2451163555
 10
21.2983494815
 20
-0.2368789077
 10
21.2459793799
 20
-0.2341149638
  0
LWPOLYLINE
  5
344
100
AcDbEntity
  8
ASSI
100
AcDbPolyline
 62
253
  6
CONTINUOUS
 90
4
 70
0
 10
21.2848918235
 20
-0.5326679349
 10
21.2830915796
 20
-0.4859562285
 10
21.2803782322
 20
-0.4419853296
 10
21.2745891473
 20
-0.3644070852
  0
LWPOLYLINE
  5
345
100
AcDbEntity
  8
ASSI
100
AcDbPolyline
 62
253
  6
CONTINUOUS
 90
6
 70
0
 10
21.2805114694
 20
21.9424860653
 10
21.27947941
 20
21.9729036284
 10
21.2784067184
 20
21.9977233488
 10
21.2772993313
 20
22.0168201799
 10
21.2762058871
 20
22.0300958863
 10
21.2751542642
 20
22.0374818398
  0
LINE
  5
346
100
AcDbEntity
  8
ASSI
100
AcDbLine
 62
253
  6
CONTINUOUS
 10
21.7643008109
 20
-21.3549247413
 11
21.7624151232
 21
-21.2873239335
  0
LINE
  5
347
100
AcDbEntity
  8
ASSI
100
AcDbLine
 62
253
  6
CONTINUOUS
 10
21.2825407564
 20
21.8654810736
 11
21.2805114694
 21
21.9424860653
  0
LINE
  5
348
100
AcDbEntity
  8
ASSI
100
AcDbLine
 62
253
  6
CONTINUOUS
 10
21.7624151232
 20
-21.2873239335
 11
21.7608013015
 21
-21.2105769827
  0
LINE
  5
349
100
AcDbEntity
  8
ASSI
100
AcDbLine
 62
253
  6
CONTINUOUS
 10
21.2844144405
 20
21.7682357295
 11
21.2825407564
 21
21.8654810736
  0
LINE
  5
34A
100
AcDbEntity
  8
ASSI
100
AcDbLine
 62
253
  6
CONTINUOUS
 10
21.7608013015
 20
-21.2105769827
 11
21.7594829868
 21
-21.1258247648
  0
LINE
  5
34B
100
AcDbEntity
  8
ASSI
100
AcDbLine
 62
253
  6
CONTINUOUS
 10
21.2869137252
 20
21.5887638839
 11
21.2844144405
 21
21.7682357295
  0
LINE
  5
34C
100
AcDbEntity
  8
ASSI
100
AcDbLine
 62
253
  6
CONTINUOUS
 10
21.7594829868
 20
-21.1258247648
 11
21.758124507
 21
-20.9878162842
  0
LINE
  5
34D
100
AcDbEntity
  8
ASSI
100
AcDbLine
 62
253
  6
CONTINUOUS
 10
21.2894869733
 20
21.299575925
 11
21.2869137252
 21
21.5887638839
  0
LWPOLYLINE
  5
34E
100
AcDbEntity
  8
ASSI
100
AcDbPolyline
 62
253
  6
CONTINUOUS
 90
3
 70
0
 10
21.2886311489
 20
0.7610473687
 10
21.2888561345
 20
0.7080587604
 10
21.2880037976
 20
0.6568082357
  0
LINE
  5
34F
100
AcDbEntity
  8
ASSI
100
AcDbLine
 62
253
  6
CONTINUOUS
 10
21.2912144286
 20
20.8903570552
 11
21.2894869733
 21
21.299575925
  0
LINE
  5
350
100
AcDbEntity
  8
ASSI
100
AcDbLine
 62
7
  6
CONTINUOUS
 10
21.8679590795
 20
21.7242469735
 11
21.8876869876
 21
13.1130922693
  0
LINE
  5
351
100
AcDbEntity
  8
ASSI
100
AcDbLine
 62
253
  6
CONTINUOUS
 10
21.758124507
 20
-20.9878162842
 11
21.757556411
 21
-20.8427315598
  0
LINE
  5
352
100
AcDbEntity
  8
ASSI
100
AcDbLine
 62
253
  6
CONTINUOUS
 10
21.757556411
 20
-20.8427315598
 11
21.7499580733
 21
-12.4044243711
  0
LINE
  5
353
100
AcDbEntity
  8
ASSI
100
AcDbLine
 62
253
  6
CONTINUOUS
 10
21.7499580733
 20
-12.4044243711
 11
21.7462808339
 21
-4.1916128312
  0
LINE
  5
354
100
AcDbEntity
  8
ASSI
100
AcDbLine
 62
253
  6
CONTINUOUS
 10
21.7462808339
 20
-4.1916128312
 11
21.7458080424
 21
-0.7340959253
  0
LINE
  5
355
100
AcDbEntity
  8
ASSI
100
AcDbLine
 62
7
  6
CONTINUOUS
 10
21.8876869876
 20
13.1130922693
 11
21.8876869876
 21
0.7129970871
  0
LINE
  5
356
100
AcDbEntity
  8
ASSI
100
AcDbLine
 62
7
  6
CONTINUOUS
 10
21.8876869876
 20
-13.0869077307
 11
21.8876869876
 21
-0.6868125485
  0
LINE
  5
357
100
AcDbEntity
  8
ASSI
100
AcDbLine
 62
253
  6
CONTINUOUS
 10
21.2886311089
 20
0.7610473632
 11
21.2912144618
 21
20.8903570606
  0
LINE
  5
358
100
AcDbEntity
  8
ASSI
100
AcDbLine
 62
253
  6
CONTINUOUS
 10
21.7458080424
 20
0.760280464
 11
21.7492450443
 21
11.3446836715
  0
LINE
  5
359
100
AcDbEntity
  8
ASSI
100
AcDbLine
 62
7
  6
CONTINUOUS
 10
21.8679590795
 20
-21.6980624348
 11
21.8876869876
 21
-13.0869077307
  0
LINE
  5
35A
100
AcDbEntity
  8
ASSI
100
AcDbLine
 62
253
  6
CONTINUOUS
 10
21.2907410456
 20
-21.0315148828
 11
21.2886311088
 21
-0.7348628132
  0
LINE
  5
35B
100
AcDbEntity
  8
ASSI
100
AcDbLine
 62
253
  6
CONTINUOUS
 10
21.7492450443
 20
11.3446836715
 11
21.7578473238
 21
20.966425504
  0
LWPOLYLINE
  5
35C
100
AcDbEntity
  8
ASSI
100
AcDbPolyline
 62
253
  6
CONTINUOUS
 90
4
 70
0
 10
21.2886311489
 20
-0.7348628075
 10
21.2888560051
 20
-0.6818761999
 10
21.2880037495
 20
-0.6306273521
 10
21.2848918235
 20
-0.5326679349
  0
LINE
  5
35D
100
AcDbEntity
  8
ASSI
100
AcDbLine
 62
253
  6
CONTINUOUS
 10
21.2883158436
 20
-21.4239822206
 11
21.2907410456
 21
-21.0315148828
  0
LINE
  5
35E
100
AcDbEntity
  8
ASSI
100
AcDbLine
 62
253
  6
CONTINUOUS
 10
21.7578473238
 20
20.966425504
 11
21.7589467676
 21
21.1072903534
  0
LINE
  5
35F
100
AcDbEntity
  8
ASSI
100
AcDbLine
 62
253
  6
CONTINUOUS
 10
21.2861258308
 20
-21.6265093407
 11
21.2883158436
 21
-21.4239822206
  0
LINE
  5
360
100
AcDbEntity
  8
ASSI
100
AcDbLine
 62
253
  6
CONTINUOUS
 10
21.7589467676
 20
21.1072903534
 11
21.7601015554
 21
21.1951517593
  0
LINE
  5
361
100
AcDbEntity
  8
ASSI
100
AcDbLine
 62
253
  6
CONTINUOUS
 10
21.284414459
 20
-21.7420511843
 11
21.2861258308
 21
-21.6265093407
  0
LINE
  5
362
100
AcDbEntity
  8
ASSI
100
AcDbLine
 62
253
  6
CONTINUOUS
 10
21.7601015554
 20
21.1951517593
 11
21.7615721165
 21
21.2762236601
  0
LINE
  5
363
100
AcDbEntity
  8
ASSI
100
AcDbLine
 62
253
  6
CONTINUOUS
 10
21.2825407711
 20
-21.8392965295
 11
21.284414459
 21
-21.7420511843
  0
LWPOLYLINE
  5
364
100
AcDbEntity
  8
ASSI
100
AcDbPolyline
 62
253
  6
CONTINUOUS
 90
12
 70
0
 10
21.7615721165
 20
21.2762236601
 10
21.7633291989
 20
21.3486456607
 10
21.7643008137
 20
21.3811092861
 10
21.765330826
 20
21.4108577068
 10
21.7664183801
 20
21.4379325705
 10
21.7675473873
 20
21.4619328999
 10
21.7687190342
 20
21.4828139482
 10
21.7699321341
 20
21.5006204621
 10
21.7711670382
 20
21.5150857052
 10
21.7724171969
 20
21.5261207651
 10
21.7736891597
 20
21.5338145542
 10
21.7749829267
 20
21.5381670724
  0
LWPOLYLINE
  5
365
100
AcDbEntity
  8
ASSI
100
AcDbPolyline
 62
253
  6
CONTINUOUS
 90
4
 70
0
 10
21.2880037976
 20
0.6568082357
 10
21.2848915734
 20
0.558846477
 10
21.2830912904
 20
0.5121341106
 10
21.2803778056
 20
0.4681629936
  0
LWPOLYLINE
  5
366
100
AcDbEntity
  8
ASSI
100
AcDbPolyline
 62
253
  6
CONTINUOUS
 90
16
 70
0
 10
21.7458080424
 20
0.760280464
 10
21.743122505
 20
0.7086345245
 10
21.7350823338
 20
0.6573705298
 10
21.7217207189
 20
0.6070490128
 10
21.703106791
 20
0.558176762
 10
21.6794051592
 20
0.5113643098
 10
21.6509295609
 20
0.4672921663
 10
21.6180347255
 20
0.4264921221
 10
21.581050901
 20
0.3893588977
 10
21.5403736604
 20
0.3562930966
 10
21.4964395588
 20
0.3276571778
 10
21.4497363409
 20
0.3037760836
 10
21.4007896287
 20
0.2849211157
 10
21.3501429315
 20
0.2713008875
 10
21.2983494649
 20
0.2630634446
 10
21.24597938
 20
0.2602995024
  0
LWPOLYLINE
  5
367
100
AcDbEntity
  8
ASSI
100
AcDbPolyline
 62
253
  6
CONTINUOUS
 90
9
 70
0
 10
21.2803778056
 20
0.4681629936
 10
21.2745885723
 20
0.3905856844
 10
21.2709505737
 20
0.3574874501
 10
21.2670208226
 20
0.3288456269
 10
21.2633723596
 20
0.3049239902
 10
21.2591013042
 20
0.2858853573
 10
21.2542099368
 20
0.2719870481
 10
21.249673436
 20
0.2634414041
 10
21.2459793799
 20
0.2602995024
  0
LINE
  5
368
100
AcDbEntity
  8
ASSI
100
AcDbLine
 62
7
  6
CONTINUOUS
 10
7.4682384943
 20
22.2219651278
 11
7.120051891
 21
22.1903592074
  0
LINE
  5
369
100
AcDbEntity
  8
ASSI
100
AcDbLine
 62
7
  6
CONTINUOUS
 10
-3.8317615057
 20
22.2219651278
 11
-4.179948109
 21
22.1903592074
  0
LINE
  5
36A
100
AcDbEntity
  8
ASSI
100
AcDbLine
 62
7
  6
CONTINUOUS
 10
-15.0317615057
 20
22.2219651278
 11
-15.379948109
 21
22.1903592074
  0
LWPOLYLINE
  5
36B
100
AcDbEntity
  8
ASSI
100
AcDbPolyline
 62
253
  6
CONTINUOUS
 90
16
 70
0
 10
-22.0505205334
 20
22.0374818345
 10
-22.1027221598
 20
22.0346797893
 10
-22.1543527713
 20
22.0264471998
 10
-22.2048476681
 20
22.0128741295
 10
-22.2536545898
 20
21.9941090451
 10
-22.3002397114
 20
21.9703572091
 10
-22.3440934881
 20
21.9418784489
 10
-22.3847362924
 20
21.9089842803
 10
-22.4217236371
 20
21.872034496
 10
-22.4546510007
 20
21.8314332609
 10
-22.4831582803
 20
21.7876246695
 10
-22.5069337326
 20
21.7410878725
 10
-22.5257173669
 20
21.6923318475
 10
-22.5393037834
 20
21.6418898445
 10
-22.5475444231
 20
21.5903135554
 10
-22.5503491959
 20
21.5381670671
  0
LINE
  5
36C
100
AcDbEntity
  8
ASSI
100
AcDbLine
 62
253
  6
CONTINUOUS
 10
21.2751542642
 20
22.0374818398
 11
18.0209048441
 21
22.0277354517
  0
LINE
  5
36D
100
AcDbEntity
  8
ASSI
100
AcDbLine
 62
253
  6
CONTINUOUS
 10
18.0209048441
 20
22.0277354517
 11
14.6212899706
 21
22.0214128944
  0
LINE
  5
36E
100
AcDbEntity
  8
ASSI
100
AcDbLine
 62
253
  6
CONTINUOUS
 10
14.6212899706
 20
22.0214128944
 11
10.8622782604
 21
22.0190061973
  0
LINE
  5
36F
100
AcDbEntity
  8
ASSI
100
AcDbLine
 62
7
  6
CONTINUOUS
 10
3.5777869179
 20
22.1851184294
 11
6.9468468103
 21
22.1851184294
  0
LINE
  5
370
100
AcDbEntity
  8
ASSI
100
AcDbLine
 62
7
  6
CONTINUOUS
 10
-4.3531531897
 20
22.1851184294
 11
-7.7222130821
 21
22.1851184294
  0
LINE
  5
371
100
AcDbEntity
  8
ASSI
100
AcDbLine
 62
7
  6
CONTINUOUS
 10
14.7777869179
 20
22.1851184294
 11
18.1468468103
 21
22.1851184294
  0
LINE
  5
372
100
AcDbEntity
  8
ASSI
100
AcDbLine
 62
7
  6
CONTINUOUS
 10
-15.5531531897
 20
22.1851184294
 11
-18.9222130821
 21
22.1851184294
  0
LINE
  5
373
100
AcDbEntity
  8
ASSI
100
AcDbLine
 62
7
  6
CONTINUOUS
 10
21.3673326579
 20
22.2219651278
 11
18.6682384943
 21
22.2219651278
  0
LINE
  5
374
100
AcDbEntity
  8
ASSI
100
AcDbLine
 62
7
  6
CONTINUOUS
 10
14.2563952339
 20
22.2219651278
 11
7.4682384943
 21
22.2219651278
  0
LINE
  5
375
100
AcDbEntity
  8
ASSI
100
AcDbLine
 62
7
  6
CONTINUOUS
 10
3.0563952339
 20
22.2219651278
 11
-3.8317615057
 21
22.2219651278
  0
LINE
  5
376
100
AcDbEntity
  8
ASSI
100
AcDbLine
 62
7
  6
CONTINUOUS
 10
-8.2436047661
 20
22.2219651278
 11
-15.0317615057
 21
22.2219651278
  0
LINE
  5
377
100
AcDbEntity
  8
ASSI
100
AcDbLine
 62
7
  6
CONTINUOUS
 10
-19.4436047661
 20
22.2219651278
 11
-22.1426989297
 21
22.2219651278
  0
LINE
  5
378
100
AcDbEntity
  8
ASSI
100
AcDbLine
 62
253
  6
CONTINUOUS
 10
10.8622782604
 20
22.0190061973
 11
-14.3088403509
 21
22.0202215574
  0
LINE
  5
379
100
AcDbEntity
  8
ASSI
100
AcDbLine
 62
253
  6
CONTINUOUS
 10
-14.3088403509
 20
22.0202215574
 11
-17.6999511614
 21
22.0252588977
  0
LWPOLYLINE
  5
37A
100
AcDbEntity
  8
ASSI
100
AcDbPolyline
 62
253
  6
CONTINUOUS
 90
3
 70
0
 10
-17.6999511614
 20
22.0252588977
 10
-21.152638812
 20
22.0344508307
 10
-22.0505205334
 20
22.0374818345
  0
LWPOLYLINE
  5
37B
100
AcDbEntity
  8
ASSI
100
AcDbPolyline
 62
253
  6
CONTINUOUS
 90
16
 70
0
 10
21.2751542642
 20
22.0374818398
 10
21.3273552343
 20
22.0346798646
 10
21.3789852758
 20
22.0264474675
 10
21.4294797047
 20
22.0128746873
 10
21.4782862571
 20
21.9941099711
 10
21.5248711298
 20
21.970358551
 10
21.5687248182
 20
21.9418801992
 10
21.6093676892
 20
21.908986387
 10
21.6463552265
 20
21.8720368781
 10
21.679282893
 20
21.8314357938
 10
21.7077905546
 20
21.7876271932
 10
21.7315664196
 20
21.7410902164
 10
21.7503504484
 20
21.6923338441
 10
21.7639371977
 20
21.6418913308
 10
21.7721780676
 20
21.5903143723
 10
21.7749829267
 20
21.5381670724
  0
LINE
  5
37C
100
AcDbEntity
  8
ASSI
100
AcDbLine
 62
7
  6
CONTINUOUS
 10
-8.2436047661
 20
22.2219651278
 11
-7.8954181628
 21
22.1903592074
  0
LINE
  5
37D
100
AcDbEntity
  8
ASSI
100
AcDbLine
 62
7
  6
CONTINUOUS
 10
3.0563952339
 20
22.2219651278
 11
3.4045818372
 21
22.1903592074
  0
LINE
  5
37E
100
AcDbEntity
  8
ASSI
100
AcDbLine
 62
7
  6
CONTINUOUS
 10
14.2563952339
 20
22.2219651278
 11
14.6045818372
 21
22.1903592074
  0
LWPOLYLINE
  5
37F
100
AcDbEntity
  8
ASSI
100
AcDbPolyline
 62
253
  6
CONTINUOUS
 90
7
 70
0
 10
21.2751542616
 20
-22.0112972958
 10
21.2762058874
 20
-22.0039113427
 10
21.2772993344
 20
-21.9906356369
 10
21.2784067242
 20
-21.9715388063
 10
21.2794794182
 20
-21.946719086
 10
21.2805114799
 20
-21.9163015223
 10
21.2825407711
 20
-21.8392965295
  0
LINE
  5
380
100
AcDbEntity
  8
ASSI
100
AcDbLine
 62
7
  6
CONTINUOUS
 10
-43.0542290665
 20
-22.1957805891
 11
-46.9269161605
 21
-21.9928216587
  0
LINE
  5
381
100
AcDbEntity
  8
ASSI
100
AcDbLine
 62
253
  6
CONTINUOUS
 10
-43.0106843703
 20
-21.6980624348
 11
-46.5613004984
 21
-21.5119825285
  0
LWPOLYLINE
  5
382
100
AcDbEntity
  8
ASSI
100
AcDbPolyline
 62
253
  6
CONTINUOUS
 90
22
 70
0
 10
-46.5743800024
 20
-22.0112972958
 10
-46.6585882997
 20
-22.0039113427
 10
-46.7420514855
 20
-21.9906356369
 10
-46.8243587532
 20
-21.9715388063
 10
-46.9051039825
 20
-21.946719086
 10
-46.9838919499
 20
-21.9163015223
 10
-47.0603395346
 20
-21.8804353908
 10
-47.1340748266
 20
-21.8392965295
 10
-47.2047314262
 20
-21.7930909549
 10
-47.2719545576
 20
-21.7420511843
 10
-47.3354133108
 20
-21.6864322743
 10
-47.394798835
 20
-21.6265093407
 10
-47.4498178988
 20
-21.5625793363
 10
-47.5002017744
 20
-21.4949585615
 10
-47.5457044184
 20
-21.4239822206
 10
-47.5861010318
 20
-21.3500025947
 10
-47.6211925846
 20
-21.2733913729
 10
-47.6508124572
 20
-21.1945216159
 10
-47.6748202822
 20
-21.1137655479
 10
-47.693097437
 20
-21.0315148828
 10
-47.7055515425
 20
-20.9481803337
 10
-47.7121201189
 20
-20.8641725169
  0
LWPOLYLINE
  5
383
100
AcDbEntity
  8
ASSI
100
AcDbPolyline
 62
253
  6
CONTINUOUS
 90
22
 70
0
 10
-46.5613004984
 20
-21.5119825285
 10
-46.6107074668
 20
-21.5076300101
 10
-46.6592817677
 20
-21.4999362209
 10
-46.7070234012
 20
-21.4889011608
 10
-46.7541824873
 20
-21.4744359177
 10
-46.800508906
 20
-21.4566294038
 10
-46.8452522968
 20
-21.4357483555
 10
-46.8883673418
 20
-21.411748026
 10
-46.9298993589
 20
-21.3846731621
 10
-46.9692339422
 20
-21.3549247413
 10
-47.0063384121
 20
-21.3224611158
 10
-47.0412454482
 20
-21.2873239335
 10
-47.0734386838
 20
-21.2500391151
 10
-47.1028748145
 20
-21.2105769827
 10
-47.1295971447
 20
-21.1689672143
 10
-47.1532192208
 20
-21.1258247648
 10
-47.1736967156
 20
-21.0811058085
 10
-47.1910739563
 20
-21.034854171
 10
-47.2050974704
 20
-20.9878162842
 10
-47.2156827671
 20
-20.9402409587
 10
-47.2229143372
 20
-20.8918793839
 10
-47.2267921808
 20
-20.8427315598
  0
LINE
  5
384
100
AcDbEntity
  8
ASSI
100
AcDbLine
 62
253
  6
CONTINUOUS
 10
-47.7121201283
 20
-20.8641725273
 11
-47.7064158823
 21
-20.8638715254
  0
LINE
  5
385
100
AcDbEntity
  8
ASSI
100
AcDbLine
 62
253
  6
CONTINUOUS
 10
-47.7064158823
 20
-20.8638715254
 11
-47.5028331923
 21
-20.8547311776
  0
LINE
  5
386
100
AcDbEntity
  8
ASSI
100
AcDbLine
 62
253
  6
CONTINUOUS
 10
-47.5028331923
 20
-20.8547311776
 11
-47.2267921808
 21
-20.8427315598
  0
LINE
  5
387
100
AcDbEntity
  8
ASSI
100
AcDbLine
 62
253
  6
CONTINUOUS
 10
-48.0624772574
 20
-20.8570737638
 11
-47.71212013
 21
-20.8641725177
  0
LINE
  5
388
100
AcDbEntity
  8
ASSI
100
AcDbLine
 62
253
  6
CONTINUOUS
 10
-42.6573059539
 20
-17.9203993319
 11
-42.6801816742
 21
-17.9203993317
  0
LWPOLYLINE
  5
389
100
AcDbEntity
  8
ASSI
100
AcDbPolyline
 62
253
  6
CONTINUOUS
 90
11
 70
0
 10
-46.5743799006
 20
22.0374818398
 10
-46.5755999846
 20
22.0346798646
 10
-46.5765205223
 20
22.0264474675
 10
-46.5771314458
 20
22.0128746873
 10
-46.5774260732
 20
21.9941099711
 10
-46.5774011822
 20
21.970358551
 10
-46.5770570447
 20
21.9418801992
 10
-46.5763974244
 20
21.908986387
 10
-46.5754295357
 20
21.8720368781
 10
-46.5741639646
 20
21.8314357938
 10
-46.5707982463
 20
21.7410902164
  0
LWPOLYLINE
  5
38A
100
AcDbEntity
  8
ASSI
100
AcDbPolyline
 62
253
  6
CONTINUOUS
 90
9
 70
0
 10
-46.5743800024
 20
-22.0112972958
 10
-46.5756001044
 20
-22.0084952506
 10
-46.5765206508
 20
-22.0002626612
 10
-46.5771315744
 20
-21.9866895909
 10
-46.5774261949
 20
-21.9679245065
 10
-46.5774012906
 20
-21.9441726705
 10
-46.5770571353
 20
-21.9156939103
 10
-46.5763974952
 20
-21.8827997417
 10
-46.575429587
 20
-21.8458499573
  0
LWPOLYLINE
  5
38B
100
AcDbEntity
  8
ASSI
100
AcDbPolyline
 62
253
  6
CONTINUOUS
 90
16
 70
0
 10
-48.1605327174
 20
0.7610473687
 10
-48.1577692437
 20
0.7080587604
 10
-48.1497236784
 20
0.6568082357
 10
-48.1366134466
 20
0.6071781108
 10
-48.1183275014
 20
0.558846477
 10
-48.0948440608
 20
0.5121341106
 10
-48.0666875128
 20
0.4681629936
 10
-48.0343097139
 20
0.4276222538
 10
-47.9977768576
 20
0.3905856844
 10
-47.9575408759
 20
0.3574874501
 10
-47.9141915409
 20
0.3288456269
 10
-47.8681420171
 20
0.3049239902
 10
-47.819763229
 20
0.2858853573
 10
-47.7696022385
 20
0.2719870481
 10
-47.7183674312
 20
0.2634414041
 10
-47.6667190704
 20
0.2602995024
  0
LWPOLYLINE
  5
38C
100
AcDbEntity
  8
ASSI
100
AcDbPolyline
 62
253
  6
CONTINUOUS
 90
13
 70
0
 10
-47.71212013
 20
-20.8641725177
 10
-47.7842494164
 20
-19.114647394
 10
-47.8490496164
 20
-17.3933002501
 10
-47.9068226885
 20
-15.7001649685
 10
-47.957597719
 20
-14.0445272392
 10
-48.0019969909
 20
-12.417163946
 10
-48.0409249699
 20
-10.79033455
 10
-48.0743874577
 20
-9.1641040584
 10
-48.1023920118
 20
-7.5384452294
 10
-48.125284879
 20
-5.8854662815
 10
-48.1428685795
 20
-4.1958790433
 10
-48.154714137
 20
-2.4790045592
 10
-48.160532736
 20
-0.7348628132
  0
LWPOLYLINE
  5
38D
100
AcDbEntity
  8
ASSI
100
AcDbPolyline
 62
253
  6
CONTINUOUS
 90
13
 70
0
 10
-47.2267921808
 20
-20.8427315598
 10
-47.2984558224
 20
-19.0949305152
 10
-47.3633848983
 20
-17.3753537569
 10
-47.4215794088
 20
-15.6840012849
 10
-47.4726374826
 20
-14.0301006849
 10
-47.5169609908
 20
-12.4044243711
 10
-47.5557555465
 20
-10.7792895867
 10
-47.5894001251
 20
-9.1547425072
 10
-47.617515751
 20
-7.530736957
 10
-47.6401711106
 20
-5.8794516521
 10
-47.6573890993
 20
-4.1916128312
 10
-47.6691468216
 20
-2.4764942556
 10
-47.6760614961
 20
-0.6311860747
  0
LINE
  5
38E
100
AcDbEntity
  8
0
100
AcDbLine
 62
253
  6
CONTINUOUS
 10
-48.3821615921
 20
-13.4057303114
 11
-48.3734968262
 21
-13.6614327825
  0
LINE
  5
38F
100
AcDbEntity
  8
0
100
AcDbLine
 62
253
  6
CONTINUOUS
 10
-48.4555961553
 20
-11.002570459
 11
-48.3995263402
 21
-12.8780100337
  0
LINE
  5
390
100
AcDbEntity
  8
0
100
AcDbLine
 62
253
  6
CONTINUOUS
 10
-48.4545475565
 20
-11.0405669786
 11
-48.4797750294
 21
-10.0868322567
  0
LINE
  5
391
100
AcDbEntity
  8
0
100
AcDbLine
 62
253
  6
CONTINUOUS
 10
-48.4927480837
 20
-9.559429479
 11
-48.4987944147
 21
-9.30342299
  0
LINE
  5
392
100
AcDbEntity
  8
0
100
AcDbLine
 62
253
  6
CONTINUOUS
 10
-48.4639814949
 20
10.7166598727
 11
-48.4639814949
 21
10.7162666587
  0
LINE
  5
393
100
AcDbEntity
  8
0
100
AcDbLine
 62
253
  6
CONTINUOUS
 10
-48.4171754798
 20
12.3421841583
 11
-48.4171754798
 21
12.3418006611
  0
LWPOLYLINE
  5
394
100
AcDbEntity
  8
ASSI
100
AcDbPolyline
 62
253
  6
CONTINUOUS
 90
10
 70
0
 10
-48.160532736
 20
0.7610473632
 10
-48.152989828
 20
2.8212641824
 10
-48.1363783292
 20
4.9140425203
 10
-48.1102770149
 20
7.0393390438
 10
-48.0745522825
 20
9.1815658264
 10
-48.0286156553
 20
11.3562154684
 10
-47.9707256222
 20
13.6098457946
 10
-47.899269876
 20
15.9579128404
 10
-47.8134635225
 20
18.3847850542
 10
-47.7121201302
 20
20.8903570606
  0
LINE
  5
395
100
AcDbEntity
  8
0
100
AcDbLine
 62
253
  6
CONTINUOUS
 10
-48.5162831125
 20
8.5402274926
 11
-48.5108694082
 21
8.7960266592
  0
LINE
  5
396
100
AcDbEntity
  8
0
100
AcDbLine
 62
253
  6
CONTINUOUS
 10
-48.4881260999
 20
9.7767841589
 11
-48.4985421455
 21
9.340429358
  0
LINE
  5
397
100
AcDbEntity
  8
0
100
AcDbLine
 62
253
  6
CONTINUOUS
 10
-48.4859064673
 20
9.8672716589
 11
-48.4795510227
 21
10.121881693
  0
LINE
  5
398
100
AcDbEntity
  8
0
100
AcDbLine
 62
253
  6
CONTINUOUS
 10
-48.466907375
 20
10.6102216587
 11
-48.4782629331
 21
10.1727066588
  0
LINE
  5
399
100
AcDbEntity
  8
0
100
AcDbLine
 62
253
  6
CONTINUOUS
 10
-48.4172644958
 20
12.3418006636
 11
-48.4640723597
 21
10.7166598754
  0
LINE
  5
39A
100
AcDbEntity
  8
0
100
AcDbLine
 62
253
  6
CONTINUOUS
 10
-48.4139464064
 20
12.4489376405
 11
-48.4001310613
 21
12.8854266581
  0
LINE
  5
39B
100
AcDbEntity
  8
0
100
AcDbLine
 62
253
  6
CONTINUOUS
 10
-48.3901707139
 20
13.1911438803
 11
-48.3984618959
 21
12.9371640158
  0
LINE
  5
39C
100
AcDbEntity
  8
0
100
AcDbLine
 62
253
  6
CONTINUOUS
 10
-48.3724485349
 20
13.7182291579
 11
-48.3871765498
 21
13.281666658
  0
LINE
  5
39D
100
AcDbEntity
  8
0
100
AcDbLine
 62
253
  6
CONTINUOUS
 10
-48.3559410899
 20
14.1915515266
 11
-48.3567332246
 21
14.169200377
  0
LINE
  5
39E
100
AcDbEntity
  8
0
100
AcDbLine
 62
253
  6
CONTINUOUS
 10
-48.3442317907
 20
14.5179232759
 11
-48.3533996797
 21
14.26302388
  0
LWPOLYLINE
  5
39F
100
AcDbEntity
  8
ASSI
100
AcDbPolyline
 62
253
  6
CONTINUOUS
 90
16
 70
0
 10
-48.1605327182
 20
-0.7348628075
 10
-48.1577694641
 20
-0.6818761999
 10
-48.1497244592
 20
-0.6306273521
 10
-48.136615046
 20
-0.5809985613
 10
-48.1183301298
 20
-0.5326679349
 10
-48.0948478559
 20
-0.4859562285
 10
-48.0666924438
 20
-0.4419853296
 10
-48.0343155717
 20
-0.4014443176
 10
-47.9977833554
 20
-0.3644070852
 10
-47.957547667
 20
-0.331307924
 10
-47.9141981682
 20
-0.3026649859
 10
-47.8681479879
 20
-0.2787421704
 10
-47.8197681687
 20
-0.2597024692
 10
-47.7696058382
 20
-0.2458033046
 10
-47.7183693673
 20
-0.2372570845
 10
-47.6667190711
 20
-0.2341149638
  0
LWPOLYLINE
  5
3A0
100
AcDbEntity
  8
ASSI
100
AcDbPolyline
 62
253
  6
CONTINUOUS
 90
22
 70
0
 10
-47.7121200131
 20
20.8903570552
 10
-47.7055514364
 20
20.9743648803
 10
-47.6930973298
 20
21.0576994351
 10
-47.6748201738
 20
21.1399501032
 10
-47.6508123482
 20
21.2207061708
 10
-47.6211924761
 20
21.299575925
 10
-47.5861009238
 20
21.3761871445
 10
-47.5457043106
 20
21.4501667695
 10
-47.5002016667
 20
21.5211431097
 10
-47.4498177914
 20
21.5887638839
 10
-47.3947987281
 20
21.6526938874
 10
-47.3354132047
 20
21.7126168202
 10
-47.2719544522
 20
21.7682357295
 10
-47.2047313216
 20
21.8192754995
 10
-47.1340747229
 20
21.8654810736
 10
-47.0603394321
 20
21.9066199345
 10
-46.9838918494
 20
21.9424860653
 10
-46.9051038843
 20
21.9729036284
 10
-46.8243586563
 20
21.9977233488
 10
-46.7420513882
 20
22.0168201799
 10
-46.6585882008
 20
22.0300958863
 10
-46.5743799006
 20
22.0374818398
  0
LWPOLYLINE
  5
3A1
100
AcDbEntity
  8
ASSI
100
AcDbPolyline
 62
253
  6
CONTINUOUS
 90
22
 70
0
 10
-47.2267921267
 20
20.8689161066
 10
-47.2229142595
 20
20.9180639299
 10
-47.2156826716
 20
20.966425504
 10
-47.205097363
 20
21.0140008291
 10
-47.1910738449
 20
21.0610387158
 10
-47.1736966061
 20
21.1072903534
 10
-47.1532191132
 20
21.1520093098
 10
-47.1295970373
 20
21.1951517593
 10
-47.1028747073
 20
21.2367615277
 10
-47.0734385768
 20
21.2762236601
 10
-47.0412453414
 20
21.3135084784
 10
-47.0063383056
 20
21.3486456607
 10
-46.969233836
 20
21.3811092861
 10
-46.929899253
 20
21.4108577068
 10
-46.8883672362
 20
21.4379325705
 10
-46.8452521917
 20
21.4619328999
 10
-46.8005088013
 20
21.4828139482
 10
-46.7541823832
 20
21.5006204621
 10
-46.7070232977
 20
21.5150857052
 10
-46.6592816648
 20
21.5261207651
 10
-46.6107073644
 20
21.5338145542
 10
-46.5613003966
 20
21.5381670724
  0
LWPOLYLINE
  5
3A2
100
AcDbEntity
  8
ASSI
100
AcDbPolyline
 62
253
  6
CONTINUOUS
 90
9
 70
0
 10
-47.6750113415
 20
0.4264921221
 10
-47.6743669427
 20
0.3893588977
 10
-47.6735903325
 20
0.3562930966
 10
-47.6726897794
 20
0.3276571778
 10
-47.6716752198
 20
0.3037760836
 10
-47.6705580498
 20
0.2849211157
 10
-47.6693506813
 20
0.2713008875
 10
-47.6680663088
 20
0.2630634446
 10
-47.6667190704
 20
0.2602995024
  0
LINE
  5
3A3
100
AcDbEntity
  8
ASSI
100
AcDbLine
 62
253
  6
CONTINUOUS
 10
-47.6758777145
 20
0.5113643098
 11
-47.6750113415
 21
0.4264921221
  0
LINE
  5
3A4
100
AcDbEntity
  8
ASSI
100
AcDbLine
 62
253
  6
CONTINUOUS
 10
-47.6761507586
 20
0.6070490128
 11
-47.6758777145
 21
0.5113643098
  0
LINE
  5
3A5
100
AcDbEntity
  8
ASSI
100
AcDbLine
 62
253
  6
CONTINUOUS
 10
-47.6760614961
 20
-0.6311860747
 11
-47.6760898385
 21
-0.5319923384
  0
LINE
  5
3A6
100
AcDbEntity
  8
ASSI
100
AcDbLine
 62
253
  6
CONTINUOUS
 10
-47.6686076655
 20
2.8185011515
 11
-47.6761507586
 21
0.6070490128
  0
LWPOLYLINE
  5
3A7
100
AcDbEntity
  8
ASSI
100
AcDbPolyline
 62
253
  6
CONTINUOUS
 90
9
 70
0
 10
-47.6686076655
 20
2.8185011515
 10
-47.6518436989
 20
4.9091440399
 10
-47.6251523769
 20
7.0322091292
 10
-47.5896351015
 20
9.1722352999
 10
-47.5441904708
 20
11.3446836715
 10
-47.4855142785
 20
13.5959376021
 10
-47.4125051228
 20
15.9414582112
 10
-47.3262644055
 20
18.3657843794
 10
-47.2267921267
 20
20.8689161066
  0
LWPOLYLINE
  5
3A8
100
AcDbEntity
  8
ASSI
100
AcDbPolyline
 62
253
  6
CONTINUOUS
 90
11
 70
0
 10
-47.6760898385
 20
-0.5319923384
 10
-47.6755166682
 20
-0.4411077294
 10
-47.6750113434
 20
-0.4003076683
 10
-47.6743669447
 20
-0.3631744233
 10
-47.6735903345
 20
-0.3301086045
 10
-47.6726897814
 20
-0.3014726729
 10
-47.6716752217
 20
-0.2775915683
 10
-47.6705580516
 20
-0.2587365912
 10
-47.6693506828
 20
-0.2451163555
 10
-47.6680663099
 20
-0.2368789077
 10
-47.6667190711
 20
-0.2341149638
  0
LINE
  5
3A9
100
AcDbEntity
  8
ASSI
100
AcDbLine
 62
253
  6
CONTINUOUS
 10
-46.566447112
 20
21.6418913308
 11
-46.5613003966
 21
21.5381670724
  0
LINE
  5
3AA
100
AcDbEntity
  8
ASSI
100
AcDbLine
 62
253
  6
CONTINUOUS
 10
-46.5707982463
 20
21.7410902164
 11
-46.566447112
 21
21.6418913308
  0
LINE
  5
3AB
100
AcDbEntity
  8
ASSI
100
AcDbLine
 62
253
  6
CONTINUOUS
 10
-46.575429587
 20
-21.8458499573
 11
-46.5726145765
 21
-21.7614401308
  0
LINE
  5
3AC
100
AcDbEntity
  8
ASSI
100
AcDbLine
 62
253
  6
CONTINUOUS
 10
-46.5726145765
 20
-21.7614401308
 11
-46.5687349359
 21
-21.6661473089
  0
LWPOLYLINE
  5
3AD
100
AcDbEntity
  8
ASSI
100
AcDbPolyline
 62
253
  6
CONTINUOUS
 90
3
 70
0
 10
-46.5687349359
 20
-21.6661473089
 10
-46.5639599387
 20
-21.5641290167
 10
-46.5613004984
 20
-21.5119825285
  0
LINE
  5
3AE
100
AcDbEntity
  8
ASSI
100
AcDbLine
 62
253
  6
CONTINUOUS
 10
-48.160532736
 20
-0.7348628132
 11
-48.6064352304
 21
-0.7389115957
  0
LINE
  5
3AF
100
AcDbEntity
  8
ASSI
100
AcDbLine
 62
253
  6
CONTINUOUS
 10
-42.2573059539
 20
-0.6868125485
 11
-47.6754442775
 21
-0.7340959253
  0
LINE
  5
3B0
100
AcDbEntity
  8
ASSI
100
AcDbLine
 62
7
  6
CONTINUOUS
 10
-42.2573059539
 20
-0.1869077307
 11
-48.1108812986
 21
-0.2379911088
  0
LINE
  5
3B1
100
AcDbEntity
  8
ASSI
100
AcDbLine
 62
253
  6
CONTINUOUS
 10
-47.6754442763
 20
-0.7340959253
 11
-48.1605327182
 21
-0.7348628075
  0
LINE
  5
3B2
100
AcDbEntity
  8
ASSI
100
AcDbLine
 62
7
  6
CONTINUOUS
 10
-42.6573059539
 20
17.946581634
 11
-42.6573059539
 21
17.6851131904
  0
LINE
  5
3B3
100
AcDbEntity
  8
ASSI
100
AcDbLine
 62
7
  6
CONTINUOUS
 10
-42.6573059539
 20
-17.6589286518
 11
-42.6573059539
 21
-17.9203970544
  0
LINE
  5
3B4
100
AcDbEntity
  8
ASSI
100
AcDbLine
 62
7
  6
CONTINUOUS
 10
-42.2573059539
 20
13.1130922693
 11
-42.2573059539
 21
0.2130922693
  0
LINE
  5
3B5
100
AcDbEntity
  8
ASSI
100
AcDbLine
 62
7
  6
CONTINUOUS
 10
-42.2573059539
 20
-13.0869077307
 11
-42.2573059539
 21
-0.1869077307
  0
LINE
  5
3B6
100
AcDbEntity
  8
ASSI
100
AcDbLine
 62
253
  6
CONTINUOUS
 10
-48.1605327174
 20
0.7610473687
 11
-47.6754442756
 21
0.7602804639
  0
LINE
  5
3B7
100
AcDbEntity
  8
ASSI
100
AcDbLine
 62
7
  6
CONTINUOUS
 10
-48.1108812986
 20
0.2641756475
 11
-42.2573059539
 21
0.2130922693
  0
LINE
  5
3B8
100
AcDbEntity
  8
ASSI
100
AcDbLine
 62
253
  6
CONTINUOUS
 10
-47.6754442768
 20
0.760280464
 11
-42.2573059539
 21
0.7129970871
  0
LINE
  5
3B9
100
AcDbEntity
  8
ASSI
100
AcDbLine
 62
253
  6
CONTINUOUS
 10
-48.6064352304
 20
0.7650961343
 11
-48.160532736
 21
0.7610473632
  0
LINE
  5
3BA
100
AcDbEntity
  8
ASSI
100
AcDbLine
 62
7
  6
CONTINUOUS
 10
-43.0542290665
 20
22.2219651278
 11
-42.2573059539
 21
13.1130922693
  0
LINE
  5
3BB
100
AcDbEntity
  8
ASSI
100
AcDbLine
 62
7
  6
CONTINUOUS
 10
-42.2573059539
 20
-13.0869077307
 11
-43.0542290665
 21
-22.1957805891
  0
LINE
  5
3BC
100
AcDbEntity
  8
ASSI
100
AcDbLine
 62
253
  6
CONTINUOUS
 10
-42.6573059539
 20
17.9465838705
 11
-42.6801816742
 21
17.9465838705
  0
LINE
  5
3BD
100
AcDbEntity
  8
ASSI
100
AcDbLine
 62
253
  6
CONTINUOUS
 10
-46.5613003966
 20
21.5381670724
 11
-43.0106843703
 21
21.7242469735
  0
LINE
  5
3BE
100
AcDbEntity
  8
ASSI
100
AcDbLine
 62
7
  6
CONTINUOUS
 10
-46.9269161605
 20
22.0190061973
 11
-43.0542290665
 21
22.2219651278
  0
LINE
  5
3BF
100
AcDbEntity
  8
ASSI
100
AcDbLine
 62
253
  6
CONTINUOUS
 10
-48.0570783907
 20
20.8834014863
 11
-48.0624772575
 21
20.8832583009
  0
LINE
  5
3C0
100
AcDbEntity
  8
ASSI
100
AcDbLine
 62
253
  6
CONTINUOUS
 10
-47.7121201302
 20
20.8903570606
 11
-48.0570783907
 21
20.8834014863
  0
LWPOLYLINE
  5
3C1
100
AcDbEntity
  8
ASSI
100
AcDbPolyline
 62
253
  6
CONTINUOUS
 90
4
 70
0
 10
-47.7121072604
 20
20.8903565228
 10
-47.7064032768
 20
20.8900555309
 10
-47.6959221176
 20
20.8895495732
 10
-47.2267921267
 20
20.8689161066
  0
ARC
  5
3C2
100
AcDbEntity
  8
ASSI
100
AcDbCircle
 62
7
  6
CONTINUOUS
 10
-46.8641115694
 20
-20.7944662926
 40
1.2
100
AcDbArc
 50
182.9907131675
 51
266.9999309764
  0
ARC
  5
3C3
100
AcDbEntity
  8
ASSI
100
AcDbCircle
 62
7
  6
CONTINUOUS
 10
-48.1064361067
 20
-0.7379713554
 40
0.5
100
AcDbArc
 50
90.5093881764
 51
180.1077622649
  0
ARC
  5
3C4
100
AcDbEntity
  8
ASSI
100
AcDbCircle
 62
7
  6
CONTINUOUS
 10
-42.9573059539
 20
-17.9203993319
 40
0.3
100
AcDbArc
 50
334.9999283477
 51
0.0004349712
  0
ARC
  5
3C5
100
AcDbEntity
  8
ASSI
100
AcDbCircle
 62
7
  6
CONTINUOUS
 10
-46.8641115694
 20
20.8206508313
 40
1.2
100
AcDbArc
 50
93.0000690236
 51
177.0092868325
  0
ARC
  5
3C6
100
AcDbEntity
  8
ASSI
100
AcDbCircle
 62
7
  6
CONTINUOUS
 10
-48.1064361067
 20
0.7641558941
 40
0.5
100
AcDbArc
 50
179.8922377351
 51
269.4906118236
  0
ARC
  5
3C7
100
AcDbEntity
  8
ASSI
100
AcDbCircle
 62
7
  6
CONTINUOUS
 10
-42.9573059539
 20
17.9465838705
 40
0.3
100
AcDbArc
 50
359.9995650288
 51
25.0000764768
  0
ARC
  5
3C8
100
AcDbEntity
  8
ASSI
100
AcDbCircle
 62
7
  6
CONTINUOUS
 10
351.3926940461
 20
0.0130922693
 40
400.0
100
AcDbArc
 50
177.0092106876
 51
179.89228325
  0
ARC
  5
3C9
100
AcDbEntity
  8
0
100
AcDbCircle
 62
253
  6
CONTINUOUS
 10
351.3926940461
 20
0.0130922693
 40
400.0
100
AcDbArc
 50
178.5883499618
 51
178.7418362069
  0
ARC
  5
3CA
100
AcDbEntity
  8
0
100
AcDbCircle
 62
253
  6
CONTINUOUS
 10
351.3926940461
 20
0.0130922693
 40
400.0
100
AcDbArc
 50
177.9584156567
 51
177.9686597873
  0
ARC
  5
3CB
100
AcDbEntity
  8
0
100
AcDbCircle
 62
253
  6
CONTINUOUS
 10
351.3926940461
 20
0.0130922693
 40
400.0
100
AcDbArc
 50
177.9718633636
 51
178.1120415202
  0
ARC
  5
3CC
100
AcDbEntity
  8
ASSI
100
AcDbCircle
 62
7
  6
CONTINUOUS
 10
351.3926940461
 20
0.0130922693
 40
400.0
100
AcDbArc
 50
180.10771675
 51
182.9907893124
  0
ARC
  5
3CD
100
AcDbEntity
  8
0
100
AcDbCircle
 62
253
  6
CONTINUOUS
 10
351.3926940461
 20
0.0130922693
 40
400.0
100
AcDbArc
 50
181.3712936516
 51
181.4468613914
  0
ARC
  5
3CE
100
AcDbEntity
  8
0
100
AcDbCircle
 62
253
  6
CONTINUOUS
 10
351.3926940461
 20
0.0130922693
 40
400.0
100
AcDbArc
 50
181.8468341779
 51
181.9224654569
  0
ELLIPSE
  5
3CF
100
AcDbEntity
  8
ASSI
100
AcDbEllipse
 62
7
  6
CONTINUOUS
 10
18.1468468103
 20
22.1955999853
 30
0.0
 11
0.2
 21
-0.0
 31
0.0
 40
0.0524077793
 41
-1.5707963268
 42
-0.5235987756
  0
ELLIPSE
  5
3D0
100
AcDbEntity
  8
ASSI
100
AcDbEllipse
 62
7
  6
CONTINUOUS
 10
14.7777869179
 20
22.1955999853
 30
0.0
 11
0.2
 21
-0.0
 31
0.0
 40
0.0524077793
 41
-2.617993878
 42
-1.5707963268
  0
ELLIPSE
  5
3D1
100
AcDbEntity
  8
ASSI
100
AcDbEllipse
 62
7
  6
CONTINUOUS
 10
6.9468468103
 20
22.1955999853
 30
0.0
 11
0.2
 21
0.0
 31
0.0
 40
0.0524077793
 41
-1.5707963268
 42
-0.5235987756
  0
ELLIPSE
  5
3D2
100
AcDbEntity
  8
ASSI
100
AcDbEllipse
 62
7
  6
CONTINUOUS
 10
3.5777869179
 20
22.1955999853
 30
0.0
 11
0.2
 21
-0.0
 31
0.0
 40
0.0524077793
 41
-2.617993878
 42
-1.5707963268
  0
ELLIPSE
  5
3D3
100
AcDbEntity
  8
ASSI
100
AcDbEllipse
 62
7
  6
CONTINUOUS
 10
-7.7222130821
 20
22.1955999853
 30
0.0
 11
0.2
 21
-0.0
 31
0.0
 40
0.0524077793
 41
-2.617993878
 42
-1.5707963268
  0
ELLIPSE
  5
3D4
100
AcDbEntity
  8
ASSI
100
AcDbEllipse
 62
7
  6
CONTINUOUS
 10
-4.3531531897
 20
22.1955999853
 30
0.0
 11
0.2
 21
-0.0
 31
0.0
 40
0.0524077793
 41
-1.5707963268
 42
-0.5235987756
  0
ELLIPSE
  5
3D5
100
AcDbEntity
  8
ASSI
100
AcDbEllipse
 62
7
  6
CONTINUOUS
 10
-15.5531531897
 20
22.1955999853
 30
0.0
 11
0.2
 21
-0.0
 31
0.0
 40
0.0524077793
 41
-1.5707963268
 42
-0.5235987756
  0
ELLIPSE
  5
3D6
100
AcDbEntity
  8
ASSI
100
AcDbEllipse
 62
7
  6
CONTINUOUS
 10
-18.9222130821
 20
22.1955999853
 30
0.0
 11
0.2
 21
0.0
 31
0.0
 40
0.0524077793
 41
-2.617993878
 42
-1.5707963268
  0
ELLIPSE
  5
3D7
100
AcDbEntity
  8
ASSI
100
AcDbEllipse
 62
7
  6
CONTINUOUS
 10
21.3875155914
 20
0.7131113085
 30
0.0
 11
0.4745319423
 21
-0.1581451893
 31
0.0
 40
0.9996192872
 41
-1.2489924673
 42
0.3215754254
  0
ELLIPSE
  5
3D8
100
AcDbEntity
  8
ASSI
100
AcDbEllipse
 62
7
  6
CONTINUOUS
 10
-22.1628818632
 20
0.7131113085
 30
0.0
 11
0.4745319423
 21
0.1581451893
 31
0.0
 40
0.9996192872
 41
2.8200172282
 42
4.3905851209
  0
ELLIPSE
  5
3D9
100
AcDbEntity
  8
ASSI
100
AcDbEllipse
 62
7
  6
CONTINUOUS
 10
21.3677892475
 20
21.7235641663
 30
0.0
 11
0.4962344879
 21
-0.0628595572
 31
0.0
 40
0.9963456432
 41
0.1278292453
 42
1.6972555761
  0
ELLIPSE
  5
3DA
100
AcDbEntity
  8
ASSI
100
AcDbEllipse
 62
7
  6
CONTINUOUS
 10
-22.1431555194
 20
21.7235641663
 30
0.0
 11
0.4962344879
 21
0.0628595572
 31
0.0
 40
0.9963456432
 41
1.4443370775
 42
3.0137634083
  0
ELLIPSE
  5
3DB
100
AcDbEntity
  8
ASSI
100
AcDbEllipse
 62
7
  6
CONTINUOUS
 10
-18.9222130821
 20
-22.1694154466
 30
0.0
 11
0.2
 21
0.0
 31
0.0
 40
0.0524077793
 41
1.5707963268
 42
2.617993878
  0
ELLIPSE
  5
3DC
100
AcDbEntity
  8
ASSI
100
AcDbEllipse
 62
7
  6
CONTINUOUS
 10
-15.5531531897
 20
-22.1694154466
 30
0.0
 11
0.2
 21
-0.0
 31
0.0
 40
0.0524077793
 41
0.5235987756
 42
1.5707963268
  0
ELLIPSE
  5
3DD
100
AcDbEntity
  8
ASSI
100
AcDbEllipse
 62
7
  6
CONTINUOUS
 10
-7.7222130821
 20
-22.1694154466
 30
0.0
 11
0.2
 21
0.0
 31
0.0
 40
0.0524077793
 41
1.5707963268
 42
2.617993878
  0
ELLIPSE
  5
3DE
100
AcDbEntity
  8
ASSI
100
AcDbEllipse
 62
7
  6
CONTINUOUS
 10
-4.3531531897
 20
-22.1694154466
 30
0.0
 11
0.2
 21
-0.0
 31
0.0
 40
0.0524077793
 41
0.5235987756
 42
1.5707963268
  0
ELLIPSE
  5
3DF
100
AcDbEntity
  8
ASSI
100
AcDbEllipse
 62
7
  6
CONTINUOUS
 10
6.9468468103
 20
-22.1694154466
 30
0.0
 11
0.2
 21
0.0
 31
0.0
 40
0.0524077793
 41
0.5235987756
 42
1.5707963268
  0
ELLIPSE
  5
3E0
100
AcDbEntity
  8
ASSI
100
AcDbEllipse
 62
7
  6
CONTINUOUS
 10
3.5777869179
 20
-22.1694154466
 30
0.0
 11
0.2
 21
0.0
 31
0.0
 40
0.0524077793
 41
1.5707963268
 42
2.617993878
  0
ELLIPSE
  5
3E1
100
AcDbEntity
  8
ASSI
100
AcDbEllipse
 62
7
  6
CONTINUOUS
 10
14.7777869179
 20
-22.1694154466
 30
0.0
 11
0.2
 21
0.0
 31
0.0
 40
0.0524077793
 41
1.5707963268
 42
2.617993878
  0
ELLIPSE
  5
3E2
100
AcDbEntity
  8
ASSI
100
AcDbEllipse
 62
7
  6
CONTINUOUS
 10
18.1468468103
 20
-22.1694154466
 30
0.0
 11
0.2
 21
0.0
 31
0.0
 40
0.0524077793
 41
0.5235987756
 42
1.5707963268
  0
ELLIPSE
  5
3E3
100
AcDbEntity
  8
ASSI
100
AcDbEllipse
 62
7
  6
CONTINUOUS
 10
-22.1628818632
 20
-0.6869267699
 30
0.0
 11
0.4745319423
 21
-0.1581451893
 31
0.0
 40
0.9996192872
 41
1.8926001863
 42
3.463168079
  0
ELLIPSE
  5
3E4
100
AcDbEntity
  8
ASSI
100
AcDbEllipse
 62
7
  6
CONTINUOUS
 10
21.3875155914
 20
-0.6869267699
 30
0.0
 11
0.4745319423
 21
0.1581451893
 31
0.0
 40
0.9996192872
 41
-0.3215754254
 42
1.2489924673
  0
ELLIPSE
  5
3E5
100
AcDbEntity
  8
ASSI
100
AcDbEllipse
 62
7
  6
CONTINUOUS
 10
-22.1431555194
 20
-21.6973796277
 30
0.0
 11
0.4962344879
 21
-0.0628595572
 31
0.0
 40
0.9963456432
 41
-3.0137634083
 42
-1.4443370775
  0
ELLIPSE
  5
3E6
100
AcDbEntity
  8
ASSI
100
AcDbEllipse
 62
7
  6
CONTINUOUS
 10
21.3677892475
 20
-21.6973796277
 30
0.0
 11
0.4962344879
 21
0.0628595572
 31
0.0
 40
0.9963456432
 41
-1.6972555761
 42
-0.1278292453
  0
ELLIPSE
  5
3E7
100
AcDbEntity
  8
0
100
AcDbEllipse
 62
253
  6
CONTINUOUS
 10
351.3926940461
 20
0.0130922693
 30
0.0
 11
0.0
 21
400.0
 31
0.0
 40
1.0
 41
7.8199005778
 42
7.8227003953
  0
ELLIPSE
  5
3E8
100
AcDbEntity
  8
0
100
AcDbEllipse
 62
253
  6
CONTINUOUS
 10
351.3926940461
 20
0.0130922693
 30
0.0
 11
-0.0
 21
400.0
 31
0.0
 40
1.0
 41
7.8276749535
 42
7.8304733502
  0
ELLIPSE
  5
3E9
100
AcDbEntity
  8
0
100
AcDbEllipse
 62
253
  6
CONTINUOUS
 10
351.3926940461
 20
0.0130922693
 30
0.0
 11
0.0
 21
400.0
 31
0.0
 40
1.0
 41
1.5976889142
 42
1.5983503531
  0
ELLIPSE
  5
3EA
100
AcDbEntity
  8
0
100
AcDbEllipse
 62
253
  6
CONTINUOUS
 10
351.3926940461
 20
0.0130922693
 30
0.0
 11
0.0
 21
400.0
 31
0.0
 40
1.0
 41
-4.6866052936
 42
-4.6859446683
  0
ELLIPSE
  5
3EB
100
AcDbEntity
  8
0
100
AcDbEllipse
 62
253
  6
CONTINUOUS
 10
351.3926940461
 20
0.0130922693
 30
0.0
 11
400.0
 21
0.0
 31
0.0
 40
1.0
 41
-3.1105505376
 42
-3.1098898125
  0
ELLIPSE
  5
3EC
100
AcDbEntity
  8
0
100
AcDbEllipse
 62
253
  6
CONTINUOUS
 10
351.3926940461
 20
0.0130922693
 30
0.0
 11
-0.0
 21
400.0
 31
0.0
 40
1.0
 41
-4.6824543076
 42
-4.6817951051
  0
ENDSEC
  0
SECTION
  2
OBJECTS
  0
DICTIONARY
  5
C
100
AcDbDictionary
280
0
281
1
  3
ACAD_GROUP
350
D
  3
ACAD_MLINESTYLE
350
17
  3
ACAD_LAYOUT
350
1A
  3
ACAD_PLOTSETTINGS
350
19
  3
ACAD_PLOTSTYLENAME
350
E
  0
DICTIONARY
  5
D
102
{ACAD_REACTORS
330
C
102
}
100
AcDbDictionary
280
0
281
1
  0
ACDBDICTIONARYWDFLT
  5
E
102
{ACAD_REACTORS
330
C
102
}
100
AcDbDictionary
281
1
  3
Normal
350
F
100
AcDbDictionaryWithDefault
340
F
  0
DICTIONARY
  5
17
102
{ACAD_REACTORS
330
C
102
}
100
AcDbDictionary
280
0
281
1
  3
Standard
350
18
  0
DICTIONARY
  5
19
102
{ACAD_REACTORS
330
C
102
}
100
AcDbDictionary
281
1
  0
DICTIONARY
  5
1A
102
{ACAD_REACTORS
330
C
102
}
100
AcDbDictionary
281
1
  3
Model
350
3ED
  3
Layout1
350
3EE
  0
ACDBPLACEHOLDER
  5
F
102
{ACAD_REACTORS
330
E
102
}
  0
MLINESTYLE
  5
18
102
{ACAD_REACTORS
330
17
102
}
100
AcDbMlineStyle
  2
STANDARD
 70
0
  3

 62
256
 51
90.0
 52
90.0
 71
2
 49
0.5
 62
256
  6
BYLAYER
 49
-0.5
 62
256
  6
BYLAYER
  0
LAYOUT
  5
3ED
102
{ACAD_REACTORS
330
1A
102
}
100
AcDbPlotSettings
  1

  2
none_device
  4
ISO_A4_(297.00_x_210.00_MM)
  6

 40
0.0
 41
0.0
 42
0.0
 43
0.0
 44
297.0
 45
210.0
 46
0.0
 47
0.0
 48
0.0
 49
0.0
140
0.0
141
0.0
142
1.0
143
1.0
 70
1024
 72
1
 73
0
 74
0
  7

 75
0
147
1.0
148
0.0
149
0.0
100
AcDbLayout
  1
Model
 70
0
 71
0
 10
0.0
 20
0.0
 11
297.0
 21
210.0
 12
0.0
 22
0.0
 32
0.0
 14
0.0
 24
0.0
 34
0.0
 15
0.0
 25
0.0
 35
0.0
146
0.0
 13
0.0
 23
0.0
 33
0.0
 16
1.0
 26
0.0
 36
0.0
 17
0.0
 27
1.0
 37
0.0
 76
0
330
220
345
0
346
0
  0
LAYOUT
  5
3EE
102
{ACAD_REACTORS
330
1A
102
}
100
AcDbPlotSettings
  1

  2
none_device
  4
ISO_A4_(297.00_x_210.00_MM)
  6

 40
0.0
 41
0.0
 42
0.0
 43
0.0
 44
297.0
 45
210.0
 46
0.0
 47
0.0
 48
0.0
 49
0.0
140
0.0
141
0.0
142
1.0
143
1.0
 70
0
 72
1
 73
0
 74
0
  7

 75
0
147
1.0
148
0.0
149
0.0
100
AcDbLayout
  1
Layout1
 70
0
 71
1
 10
0.0
 20
0.0
 11
297.0
 21
210.0
 12
0.0
 22
0.0
 32
0.0
 14
0.0
 24
0.0
 34
0.0
 15
0.0
 25
0.0
 35
0.0
146
0.0
 13
0.0
 23
0.0
 33
0.0
 16
1.0
 26
0.0
 36
0.0
 17
0.0
 27
1.0
 37
0.0
 76
0
330
221
345
0
346
0
  0
ENDSEC
  0
EOF
