  0
SECTION
  2
HEADER
  9
$ACADVER
  1
AC1024
  9
$DWGCODEPAGE
  3
ANSI_1252
  9
$EXTMAX
 10
297.0
 20
210.0
 30
0.0
  9
$EXTMIN
 10
0.0
 20
0.0
 30
0.0
  9
$LIMMIN
 10
0.0
 20
0.0
  9
$LIMMAX
 10
297.0
 20
210.0
  9
$VIEWCTR
 10
148.5
 20
105.0
  9
$VIEWSIZE
 40
210.0
  9
$CLAYER
  8
0
  9
$LTSCALE
 40
16.335
  9
$CELTYPE
  6
BYLAYER
  9
$DIMSCALE
 40
1.0
  9
$DIMASZ
 40
3.0
  9
$DIMEXO
 40
0.5
  9
$DIMDLI
 40
11.286
  9
$DIMEXE
 40
1.5
  9
$DIMCEN
 40
2.673
  9
$DIMLFAC
 40
1.0
  9
$DIMBLK
  1
_FILLED
  9
$DIMALT
 70
0
  9
$DIMALTF
 40
0.0393700787
  9
$DIMTXT
 40
3.0
  9
$DIMTOL
 70
1
  9
$DIMLIM
 70
0
  9
$DIMTFAC
 40
1.0
  9
$DIMTP
 40
0.01
  9
$DIMTM
 40
0.01
  9
$DIMGAP
 40
0.625
  9
$DIMDSEP
 70
44
  9
$AUNITS
 70
0
  9
$PDMODE
 70
3
  9
$PDSIZE
 40
3.0
  9
$HANDSEED
  5
58F
  9
$TILEMODE
 70
1
  9
$MEASUREMENT
 70
1
  9
$INSUNITS
 70
4
  0
ENDSEC
  0
SECTION
  2
CLASSES
  0
CLASS
  1
ACDBDICTIONARYWDFLT
  2
AcDbDictionaryWithDefault
  3
AutoCAD 2000
 90
0
 91
1
280
0
281
0
  0
CLASS
  1
ACDBPLACEHOLDER
  2
AcDbPlaceHolder
  3
AutoCAD 2000
 90
0
 91
1
280
0
281
0
  0
CLASS
  1
LAYOUT
  2
AcDbLayout
  3
AutoCAD 2000
 90
0
 91
0
280
0
281
0
  0
ENDSEC
  0
SECTION
  2
TABLES
  0
TABLE
  2
VPORT
  5
8
100
AcDbSymbolTable
 70
2
  0
VPORT
  5
1F4
100
AcDbSymbolTableRecord
100
AcDbViewportTableRecord
  2
*ACTIVE
 70
0
 10
0.0
 20
0.0
 11
1.0
 21
1.0
 12
148.5
 22
105.0
 13
0.0
 23
0.0
 14
1.0
 24
1.0
 15
0.0
 25
0.0
 16
0.0
 26
0.0
 36
1.0
 17
0.0
 27
0.0
 37
0.0
 40
210.0
 41
1.4142857143
 42
50.0
 43
0.0
 44
0.0
 50
0.0
 51
0.0
 71
0
 72
100
 73
1
 74
1
 75
0
 76
0
 77
0
 78
0
  0
ENDTAB
  0
TABLE
  2
LTYPE
  5
5
100
AcDbSymbolTable
 70
6
  0
LTYPE
  5
14
100
AcDbSymbolTableRecord
100
AcDbLinetypeTableRecord
  2
BYBLOCK
 70
0
  3

 72
65
 73
0
 40
0.0
  0
LTYPE
  5
15
100
AcDbSymbolTableRecord
100
AcDbLinetypeTableRecord
  2
BYLAYER
 70
0
  3

 72
65
 73
0
 40
0.0
  0
LTYPE
  5
16
100
AcDbSymbolTableRecord
100
AcDbLinetypeTableRecord
  2
CONTINUOUS
 70
64
  3
Solid line
 72
65
 73
0
 40
0.0
  0
LTYPE
  5
1F5
100
AcDbSymbolTableRecord
100
AcDbLinetypeTableRecord
  2
CENTER
 70
64
  3
____ _ ____ _ ____ _ ____ _ ____ _ ____ _ ____
 72
65
 73
4
 40
0.6
 49
0.375
 74
0
 49
-0.075
 74
0
 49
0.075
 74
0
 49
-0.075
 74
0
  0
LTYPE
  5
1F6
100
AcDbSymbolTableRecord
100
AcDbLinetypeTableRecord
  2
HIDDEN
 70
64
  3
- - - - - - - - - - - - - - - - - - - -
 72
65
 73
2
 40
0.2
 49
0.1
 74
0
 49
-0.1
 74
0
  0
LTYPE
  5
1F7
100
AcDbSymbolTableRecord
100
AcDbLinetypeTableRecord
  2
PHANTOM
 70
64
  3
_____ _ _ _____ _ _ _____ _ _ _____
 72
65
 73
6
 40
0.8
 49
0.45
 74
0
 49
-0.05
 74
0
 49
0.1
 74
0
 49
-0.05
 74
0
 49
0.1
 74
0
 49
-0.05
 74
0
  0
LTYPE
  5
1F8
100
AcDbSymbolTableRecord
100
AcDbLinetypeTableRecord
  2
DOT
 70
64
  3
. . . . . . . . . . . . . . . . . . . .
 72
65
 73
2
 40
0.2
 49
0.1
 74
0
 49
-0.1
 74
0
  0
LTYPE
  5
1F9
100
AcDbSymbolTableRecord
100
AcDbLinetypeTableRecord
  2
DASHED
 70
64
  3
- - - - - - - - - - - - - - - - - - - -
 72
65
 73
2
 40
0.2
 49
0.1
 74
0
 49
-0.1
 74
0
  0
ENDTAB
  0
TABLE
  2
LAYER
  5
2
100
AcDbSymbolTable
 70
36
  0
LAYER
  5
10
100
AcDbSymbolTableRecord
100
AcDbLayerTableRecord
  2
0
 70
0
 62
7
  6
CONTINUOUS
370
-3
390
F
  0
LAYER
  5
1FA
100
AcDbSymbolTableRecord
100
AcDbLayerTableRecord
  2
DEFAULT_1
 70
0
 62
7
  6
CENTER
370
-3
390
F
  0
LAYER
  5
1FB
100
AcDbSymbolTableRecord
100
AcDbLayerTableRecord
  2
DEFAULT_2
 70
0
 62
7
  6
HIDDEN
370
-3
390
F
  0
LAYER
  5
1FC
100
AcDbSymbolTableRecord
100
AcDbLayerTableRecord
  2
DEFAULT_3
 70
0
 62
7
  6
PHANTOM
370
-3
390
F
  0
LAYER
  5
1FD
100
AcDbSymbolTableRecord
100
AcDbLayerTableRecord
  2
ASSI
 70
0
 62
7
  6
CONTINUOUS
370
-3
390
F
  0
LAYER
  5
1FE
100
AcDbSymbolTableRecord
100
AcDbLayerTableRecord
  2
COORDINATE
 70
0
 62
7
  6
CONTINUOUS
370
-3
390
F
  0
LAYER
  5
1FF
100
AcDbSymbolTableRecord
100
AcDbLayerTableRecord
  2
COPY_PUBLISH
 70
0
 62
7
  6
CONTINUOUS
370
-3
390
F
  0
LAYER
  5
200
100
AcDbSymbolTableRecord
100
AcDbLayerTableRecord
  2
COSMETICI
 70
0
 62
7
  6
CONTINUOUS
370
-3
390
F
  0
LAYER
  5
201
100
AcDbSymbolTableRecord
100
AcDbLayerTableRecord
  2
CURVE
 70
0
 62
7
  6
CONTINUOUS
370
-3
390
F
  0
LAYER
  5
202
100
AcDbSymbolTableRecord
100
AcDbLayerTableRecord
  2
DRAFT
 70
0
 62
7
  6
CONTINUOUS
370
-3
390
F
  0
LAYER
  5
203
100
AcDbSymbolTableRecord
100
AcDbLayerTableRecord
  2
IMPORT_IGES
 70
0
 62
7
  6
CONTINUOUS
370
-3
390
F
  0
LAYER
  5
204
100
AcDbSymbolTableRecord
100
AcDbLayerTableRecord
  2
INTFCLR_1
 70
0
 62
7
  6
CONTINUOUS
370
-3
390
F
  0
LAYER
  5
205
100
AcDbSymbolTableRecord
100
AcDbLayerTableRecord
  2
INTF_1
 70
0
 62
7
  6
CONTINUOUS
370
-3
390
F
  0
LAYER
  5
206
100
AcDbSymbolTableRecord
100
AcDbLayerTableRecord
  2
INTF_2
 70
0
 62
7
  6
CONTINUOUS
370
-3
390
F
  0
LAYER
  5
207
100
AcDbSymbolTableRecord
100
AcDbLayerTableRecord
  2
INTF_5
 70
0
 62
7
  6
CONTINUOUS
370
-3
390
F
  0
LAYER
  5
208
100
AcDbSymbolTableRecord
100
AcDbLayerTableRecord
  2
INTF_9
 70
0
 62
7
  6
CONTINUOUS
370
-3
390
F
  0
LAYER
  5
209
100
AcDbSymbolTableRecord
100
AcDbLayerTableRecord
  2
NOTE
 70
0
 62
7
  6
CONTINUOUS
370
-3
390
F
  0
LAYER
  5
20A
100
AcDbSymbolTableRecord
100
AcDbLayerTableRecord
  2
PIANI
 70
0
 62
7
  6
CONTINUOUS
370
-3
390
F
  0
LAYER
  5
20B
100
AcDbSymbolTableRecord
100
AcDbLayerTableRecord
  2
PUNTI
 70
0
 62
7
  6
CONTINUOUS
370
-3
390
F
  0
LAYER
  5
20C
100
AcDbSymbolTableRecord
100
AcDbLayerTableRecord
  2
RACCORDO
 70
0
 62
7
  6
CONTINUOUS
370
-3
390
F
  0
LAYER
  5
20D
100
AcDbSymbolTableRecord
100
AcDbLayerTableRecord
  2
SIMBOLI
 70
0
 62
7
  6
CONTINUOUS
370
-3
390
F
  0
LAYER
  5
20E
100
AcDbSymbolTableRecord
100
AcDbLayerTableRecord
  2
SMUSSO
 70
0
 62
7
  6
CONTINUOUS
370
-3
390
F
  0
LAYER
  5
20F
100
AcDbSymbolTableRecord
100
AcDbLayerTableRecord
  2
SNAPLINE
 70
0
 62
7
  6
CONTINUOUS
370
-3
390
F
  0
LAYER
  5
210
100
AcDbSymbolTableRecord
100
AcDbLayerTableRecord
  2
SUPERFICI
 70
0
 62
7
  6
CONTINUOUS
370
-3
390
F
  0
LAYER
  5
211
100
AcDbSymbolTableRecord
100
AcDbLayerTableRecord
  2
TRASH
 70
0
 62
7
  6
CONTINUOUS
370
-3
390
F
  0
ENDTAB
  0
TABLE
  2
STYLE
  5
3
100
AcDbSymbolTable
 70
1
  0
STYLE
  5
11
100
AcDbSymbolTableRecord
100
AcDbTextStyleTableRecord
  2
STANDARD
 70
0
 40
0.0
 41
0.8
 50
0.0
 71
0
 42
0.2
  3
txt
  4

  0
STYLE
  5
212
100
AcDbSymbolTableRecord
100
AcDbTextStyleTableRecord
  2
TEXTSTYLE_1
 70
0
 40
0.0
 41
0.8
 50
0.0
 71
0
 42
0.2
  3
gdt
  4

  0
ENDTAB
  0
TABLE
  2
VIEW
  5
6
100
AcDbSymbolTable
 70
0
  0
ENDTAB
  0
TABLE
  2
UCS
  5
7
100
AcDbSymbolTable
 70
0
  0
ENDTAB
  0
TABLE
  2
APPID
  5
9
100
AcDbSymbolTable
 70
1
  0
APPID
  5
213
100
AcDbSymbolTableRecord
100
AcDbRegAppTableRecord
  2
ACAD
 70
0
  0
ENDTAB
  0
TABLE
  2
BLOCK_RECORD
  5
1
100
AcDbSymbolTable
 70
0
  0
BLOCK_RECORD
  5
214
100
AcDbSymbolTableRecord
100
AcDbBlockTableRecord
  2
*Model_Space
  0
BLOCK_RECORD
  5
215
100
AcDbSymbolTableRecord
100
AcDbBlockTableRecord
  2
*Paper_Space
  0
BLOCK_RECORD
  5
216
100
AcDbSymbolTableRecord
100
AcDbBlockTableRecord
  2
_FILLED
  0
BLOCK_RECORD
  5
217
100
AcDbSymbolTableRecord
100
AcDbBlockTableRecord
  2
*D0
  0
BLOCK_RECORD
  5
218
100
AcDbSymbolTableRecord
100
AcDbBlockTableRecord
  2
*D1
  0
BLOCK_RECORD
  5
219
100
AcDbSymbolTableRecord
100
AcDbBlockTableRecord
  2
*D2
  0
ENDTAB
  0
TABLE
  2
DIMSTYLE
  5
A
100
AcDbSymbolTable
 70
1
100
AcDbDimStyleTable
 71
0
  0
DIMSTYLE
105
21A
100
AcDbSymbolTableRecord
100
AcDbDimStyleTableRecord
  2
STANDARD
 70
0
  3

  4

 40
1.0
 41
3.0
 42
0.5
 43
0.38
 44
1.5
 45
0.0
 46
0.0
 47
0.01
 48
0.01
140
3.0
141
0.09
142
0.0
143
25.4
144
1.0
145
0.0
146
1.0
147
0.625
 71
1.0
 72
0.0
 73
0
 74
0
 75
0
 76
0
 77
1
 78
8
 79
2
170
0
171
1
172
0
173
0
174
0
175
0
176
0
177
0
178
0
270
2
179
2
271
2
272
2
273
2
274
2
275
0
280
0
281
0
282
0
283
1
284
8
285
0
286
0
287
3
288
0
340
11
278
44
341
216
342
216
343
216
344
216
  0
DIMSTYLE
105
21B
100
AcDbSymbolTableRecord
100
AcDbDimStyleTableRecord
  2
DIMSTYLE_1
 70
0
  3

  4

 40
1.0
 41
3.0
 42
0.5
 43
0.38
 44
1.5
 45
0.0
 46
0.0
 47
0.0
 48
0.0
140
3.0
141
0.09
142
0.0
143
25.4
144
1.0
145
0.0
146
1.0
147
0.75
 71
0.0
 72
0.0
 73
0
 74
0
 75
0
 76
0
 77
1
 78
8
 79
2
170
0
171
1
172
0
173
0
174
0
175
0
176
0
177
0
178
0
270
2
179
2
271
1
272
1
273
2
274
2
275
0
280
0
281
0
282
0
283
1
284
8
285
0
286
0
287
3
288
0
340
11
278
44
341
216
342
216
343
216
344
216
  0
DIMSTYLE
105
21C
100
AcDbSymbolTableRecord
100
AcDbDimStyleTableRecord
  2
DIMSTYLE_2
 70
0
  3

  4

 40
1.0
 41
3.0
 42
0.5
 43
0.38
 44
1.5
 45
0.0
 46
0.0
 47
0.0
 48
0.0
140
3.0
141
0.09
142
0.0
143
25.4
144
1.0
145
0.0
146
1.0
147
0.75
 71
0.0
 72
0.0
 73
0
 74
0
 75
0
 76
0
 77
1
 78
8
 79
2
170
0
171
1
172
0
173
0
174
0
175
0
176
0
177
0
178
0
270
2
179
2
271
2
272
2
273
2
274
2
275
0
280
0
281
0
282
0
283
1
284
8
285
0
286
0
287
3
288
0
340
11
278
44
341
216
342
216
343
216
344
216
  0
ENDTAB
  0
ENDSEC
  0
SECTION
  2
BLOCKS
  0
BLOCK
  5
20
100
AcDbEntity
  8
0
100
AcDbBlockBegin
  2
*Model_Space
 70
0
 10
0.0
 20
0.0
 30
0.0
  3
*Model_Space
  1

  0
ENDBLK
  5
21
100
AcDbEntity
  8
0
100
AcDbBlockEnd
  0
BLOCK
  5
1C
100
AcDbEntity
  8
0
100
AcDbBlockBegin
  2
*Paper_Space
 70
0
 10
0.0
 20
0.0
 30
0.0
  3
*Paper_Space
  1

  0
ENDBLK
  5
1D
100
AcDbEntity
  8
0
100
AcDbBlockEnd
  0
BLOCK
  5
21D
100
AcDbEntity
  8
0
100
AcDbBlockBegin
  2
_FILLED
 70
64
 10
0.0
 20
0.0
  3
_FILLED
  1

  0
SOLID
  5
21E
100
AcDbEntity
  8
0
  6
BYBLOCK
 62
0
100
AcDbTrace
 10
0.0
 20
0.0
 11
-1.0
 21
0.3166666667
 12
-1.0
 22
-0.3166666667
 13
-1.0
 23
-0.3166666667
  0
ENDBLK
  5
21F
100
AcDbEntity
  8
0
  6
BYBLOCK
 62
0
100
AcDbBlockEnd
  0
BLOCK
  5
220
100
AcDbEntity
  8
0
100
AcDbBlockBegin
 62
7
  6
CONTINUOUS
  2
*D0
 70
65
 10
0.0
 20
0.0
  3
*D0
  1

  0
LINE
  5
221
100
AcDbEntity
  8
0
100
AcDbLine
 62
7
  6
CONTINUOUS
 10
-28.9722649164
 20
13.4165707237
 11
-28.9722649164
 21
31.7440900916
  0
LINE
  5
222
100
AcDbEntity
  8
0
100
AcDbLine
 62
7
  6
CONTINUOUS
 10
-34.3629482951
 20
2.2600257106
 11
-34.3629482951
 21
31.7440900916
  0
LINE
  5
223
100
AcDbEntity
  8
0
100
AcDbLine
 62
7
  6
CONTINUOUS
 10
-28.9722649164
 20
30.2440900916
 11
-24.9722649164
 21
30.2440900916
  0
LINE
  5
224
100
AcDbEntity
  8
0
100
AcDbLine
 62
7
  6
CONTINUOUS
 10
-24.9722649164
 20
30.2440900916
 11
-31.6676066058
 21
30.2440900916
  0
LINE
  5
225
100
AcDbEntity
  8
0
100
AcDbLine
 62
7
  6
CONTINUOUS
 10
-34.3629482951
 20
30.2440900916
 11
-43.8613586868
 21
30.2440900916
  0
LINE
  5
226
100
AcDbEntity
  8
0
100
AcDbLine
 62
7
  6
CONTINUOUS
 10
-43.8613586868
 20
30.2440900916
 11
-31.6676066058
 21
30.2440900916
  0
INSERT
  5
227
100
AcDbEntity
  8
0
100
AcDbBlockReference
 62
7
  6
CONTINUOUS
  2
_FILLED
 10
-28.9722649164
 20
30.2440900916
 41
3.0
 42
3.0
 43
3.0
 50
180.0
  0
INSERT
  5
228
100
AcDbEntity
  8
0
100
AcDbBlockReference
 62
7
  6
CONTINUOUS
  2
_FILLED
 10
-34.3629482951
 20
30.2440900916
 41
3.0
 42
3.0
 43
3.0
  0
ENDBLK
  5
229
100
AcDbEntity
  8
0
  6
BYBLOCK
 62
0
100
AcDbBlockEnd
  0
BLOCK
  5
22A
100
AcDbEntity
  8
0
100
AcDbBlockBegin
 62
7
  6
CONTINUOUS
  2
*D1
 70
65
 10
0.0
 20
0.0
  3
*D1
  1

  0
LINE
  5
22B
100
AcDbEntity
  8
0
100
AcDbLine
 62
7
  6
CONTINUOUS
 10
-11.4724712171
 20
13.4165707237
 11
-11.4724712171
 21
31.7492106627
  0
LINE
  5
22C
100
AcDbEntity
  8
0
100
AcDbLine
 62
7
  6
CONTINUOUS
 10
10.7275287829
 20
13.4165707237
 11
10.7275287829
 21
31.7492106627
  0
LINE
  5
22D
100
AcDbEntity
  8
0
100
AcDbLine
 62
7
  6
CONTINUOUS
 10
-11.4724712171
 20
30.2492106627
 11
-0.3724712171
 21
30.2492106627
  0
LINE
  5
22E
100
AcDbEntity
  8
0
100
AcDbLine
 62
7
  6
CONTINUOUS
 10
10.7275287829
 20
30.2492106627
 11
-0.3724712171
 21
30.2492106627
  0
INSERT
  5
22F
100
AcDbEntity
  8
0
100
AcDbBlockReference
 62
7
  6
CONTINUOUS
  2
_FILLED
 10
-11.4724712171
 20
30.2492106627
 41
3.0
 42
3.0
 43
3.0
 50
180.0
  0
INSERT
  5
230
100
AcDbEntity
  8
0
100
AcDbBlockReference
 62
7
  6
CONTINUOUS
  2
_FILLED
 10
10.7275287829
 20
30.2492106627
 41
3.0
 42
3.0
 43
3.0
  0
ENDBLK
  5
231
100
AcDbEntity
  8
0
  6
BYBLOCK
 62
0
100
AcDbBlockEnd
  0
BLOCK
  5
232
100
AcDbEntity
  8
0
100
AcDbBlockBegin
 62
7
  6
CONTINUOUS
  2
*D2
 70
65
 10
0.0
 20
0.0
  3
*D2
  1

  0
LINE
  5
233
100
AcDbEntity
  8
0
100
AcDbLine
 62
7
  6
CONTINUOUS
 10
10.707287994
 20
21.9758834294
 11
20.2484409083
 21
21.9758834294
  0
LINE
  5
234
100
AcDbEntity
  8
0
100
AcDbLine
 62
7
  6
CONTINUOUS
 10
10.707287994
 20
-22.342741982
 11
20.2484409083
 21
-22.342741982
  0
LINE
  5
235
100
AcDbEntity
  8
0
100
AcDbLine
 62
7
  6
CONTINUOUS
 10
18.7484409083
 20
21.9758834294
 11
18.7484409083
 21
-0.1834292763
  0
LINE
  5
236
100
AcDbEntity
  8
0
100
AcDbLine
 62
7
  6
CONTINUOUS
 10
18.7484409083
 20
-22.342741982
 11
18.7484409083
 21
-0.1834292763
  0
INSERT
  5
237
100
AcDbEntity
  8
0
100
AcDbBlockReference
 62
7
  6
CONTINUOUS
  2
_FILLED
 10
18.7484409083
 20
21.9758834294
 41
3.0
 42
3.0
 43
3.0
 50
90.0
  0
INSERT
  5
238
100
AcDbEntity
  8
0
100
AcDbBlockReference
 62
7
  6
CONTINUOUS
  2
_FILLED
 10
18.7484409083
 20
-22.342741982
 41
3.0
 42
3.0
 43
3.0
 50
270.0
  0
ENDBLK
  5
239
100
AcDbEntity
  8
0
  6
BYBLOCK
 62
0
100
AcDbBlockEnd
  0
ENDSEC
  0
SECTION
  2
ENTITIES
  0
DIMENSION
  5
23A
100
AcDbEntity
  8
0
100
AcDbDimension
 62
7
  6
CONTINUOUS
  2
*D0
 10
-34.3629482951
 20
30.2440900916
 11
-43.8613586868
 21
30.2440900916
 70
160
 71
3
 72
2
 41
0.9
 42
5.3906833787
  3
DIMSTYLE_1
100
AcDbAlignedDimension
 13
-28.9722649164
 23
12.9165707237
 14
-34.3629482951
 24
1.7600257106
 50
180.0
100
AcDbRotatedDimension
  0
DIMENSION
  5
23B
100
AcDbEntity
  8
0
100
AcDbDimension
 62
7
  6
CONTINUOUS
  2
*D1
 10
10.7275287829
 20
30.2492106627
 11
-4.76532836
 21
30.2492106627
 70
160
 71
2
 72
2
 41
0.9
 42
22.2
  3
DIMSTYLE_2
100
AcDbAlignedDimension
 13
-11.4724712171
 23
12.9165707237
 14
10.7275287829
 24
12.9165707237
100
AcDbRotatedDimension
  0
DIMENSION
  5
23C
100
AcDbEntity
  8
0
100
AcDbDimension
 62
7
  6
CONTINUOUS
  2
*D2
 10
18.7484409083
 20
-22.342741982
 11
18.7484409083
 21
-4.469143562
 70
160
 71
2
 72
2
 41
0.9
 42
44.3186254114
  3
DIMSTYLE_1
100
AcDbAlignedDimension
 13
10.207287994
 23
21.9758834294
 14
10.207287994
 24
-22.342741982
 50
270.0
100
AcDbRotatedDimension
  0
LINE
  5
23D
100
AcDbEntity
  8
DRAFT
100
AcDbLine
 62
7
  6
CONTINUOUS
 10
3.4275287829
 20
-22.3056680461
 11
3.0191037899
 21
-22.342741982
  0
LINE
  5
23E
100
AcDbEntity
  8
ASSI
100
AcDbLine
 62
7
  6
CONTINUOUS
 10
3.4275287829
 20
-22.3056680461
 11
3.0191037899
 21
-22.342741982
  0
LWPOLYLINE
  5
23F
100
AcDbEntity
  8
RACCORDO
100
AcDbPolyline
 62
250
  6
CONTINUOUS
 90
16
 70
0
 10
10.140050344
 20
-22.2081744086
 10
10.1922523136
 20
-22.2053723267
 10
10.2438832237
 20
-22.1971396366
 10
10.2943783659
 20
-22.1835664142
 10
10.343185482
 20
-22.1648011365
 10
10.389770735
 20
-22.1410490818
 10
10.4336245594
 20
-22.1125701063
 10
10.4742673305
 20
-22.0796757489
 10
10.5112545757
 20
-22.0427258175
 10
10.5441817813
 20
-22.0021245007
 10
10.5726888609
 20
-21.9583159114
 10
10.5964640964
 20
-21.9117792063
 10
10.6152475224
 20
-21.8630233631
 10
10.6288337624
 20
-21.8125816301
 10
10.6370742796
 20
-21.7610056968
 10
10.6398790064
 20
-21.7088596412
  0
LWPOLYLINE
  5
240
100
AcDbEntity
  8
ASSI
100
AcDbPolyline
 62
250
  6
CONTINUOUS
 90
16
 70
0
 10
10.140050344
 20
-22.2081744086
 10
10.1922523136
 20
-22.2053723267
 10
10.2438832237
 20
-22.1971396366
 10
10.2943783659
 20
-22.1835664142
 10
10.343185482
 20
-22.1648011365
 10
10.389770735
 20
-22.1410490818
 10
10.4336245594
 20
-22.1125701063
 10
10.4742673305
 20
-22.0796757489
 10
10.5112545757
 20
-22.0427258175
 10
10.5441817813
 20
-22.0021245007
 10
10.5726888609
 20
-21.9583159114
 10
10.5964640964
 20
-21.9117792063
 10
10.6152475224
 20
-21.8630233631
 10
10.6288337624
 20
-21.8125816301
 10
10.6370742796
 20
-21.7610056968
 10
10.6398790064
 20
-21.7088596412
  0
LINE
  5
241
100
AcDbEntity
  8
RACCORDO
100
AcDbLine
 62
250
  6
CONTINUOUS
 10
-10.8849927791
 20
-22.2081744105
 11
-7.4823586033
 21
-22.1979532629
  0
LINE
  5
242
100
AcDbEntity
  8
ASSI
100
AcDbLine
 62
250
  6
CONTINUOUS
 10
-10.8849927791
 20
-22.2081744105
 11
-7.4823586033
 21
-22.1979532629
  0
LINE
  5
243
100
AcDbEntity
  8
RACCORDO
100
AcDbLine
 62
250
  6
CONTINUOUS
 10
-7.4823586033
 20
-22.1979532629
 11
-4.0783559812
 21
-22.19168192
  0
LINE
  5
244
100
AcDbEntity
  8
ASSI
100
AcDbLine
 62
250
  6
CONTINUOUS
 10
-7.4823586033
 20
-22.1979532629
 11
-4.0783559812
 21
-22.19168192
  0
LINE
  5
245
100
AcDbEntity
  8
RACCORDO
100
AcDbLine
 62
250
  6
CONTINUOUS
 10
-4.0783559812
 20
-22.19168192
 11
-0.672464295
 21
-22.1893584655
  0
LINE
  5
246
100
AcDbEntity
  8
ASSI
100
AcDbLine
 62
250
  6
CONTINUOUS
 10
-4.0783559812
 20
-22.19168192
 11
-0.672464295
 21
-22.1893584655
  0
LINE
  5
247
100
AcDbEntity
  8
RACCORDO
100
AcDbLine
 62
7
  6
CONTINUOUS
 10
10.207287994
 20
-22.342741982
 11
7.4359537759
 21
-22.342741982
  0
LINE
  5
248
100
AcDbEntity
  8
ASSI
100
AcDbLine
 62
7
  6
CONTINUOUS
 10
10.207287994
 20
-22.342741982
 11
7.4359537759
 21
-22.342741982
  0
LINE
  5
249
100
AcDbEntity
  8
DRAFT
100
AcDbLine
 62
7
  6
CONTINUOUS
 10
3.0191037899
 20
-22.342741982
 11
-3.7640462241
 21
-22.342741982
  0
LINE
  5
24A
100
AcDbEntity
  8
ASSI
100
AcDbLine
 62
7
  6
CONTINUOUS
 10
3.0191037899
 20
-22.342741982
 11
-3.7640462241
 21
-22.342741982
  0
LINE
  5
24B
100
AcDbEntity
  8
RACCORDO
100
AcDbLine
 62
7
  6
CONTINUOUS
 10
-8.1808962101
 20
-22.342741982
 11
-10.9522304282
 21
-22.342741982
  0
LINE
  5
24C
100
AcDbEntity
  8
ASSI
100
AcDbLine
 62
7
  6
CONTINUOUS
 10
-8.1808962101
 20
-22.342741982
 11
-10.9522304282
 21
-22.342741982
  0
LINE
  5
24D
100
AcDbEntity
  8
DRAFT
100
AcDbLine
 62
7
  6
CONTINUOUS
 10
7.0275287829
 20
-22.3056680461
 11
3.4275287829
 21
-22.3056680461
  0
LINE
  5
24E
100
AcDbEntity
  8
ASSI
100
AcDbLine
 62
7
  6
CONTINUOUS
 10
7.0275287829
 20
-22.3056680461
 11
3.4275287829
 21
-22.3056680461
  0
LINE
  5
24F
100
AcDbEntity
  8
DRAFT
100
AcDbLine
 62
7
  6
CONTINUOUS
 10
-4.1724712171
 20
-22.3056680461
 11
-7.7724712171
 21
-22.3056680461
  0
LINE
  5
250
100
AcDbEntity
  8
ASSI
100
AcDbLine
 62
7
  6
CONTINUOUS
 10
-4.1724712171
 20
-22.3056680461
 11
-7.7724712171
 21
-22.3056680461
  0
LINE
  5
251
100
AcDbEntity
  8
RACCORDO
100
AcDbLine
 62
250
  6
CONTINUOUS
 10
-0.672464295
 20
-22.1893584655
 11
2.7264474486
 21
-22.1909752103
  0
LINE
  5
252
100
AcDbEntity
  8
ASSI
100
AcDbLine
 62
250
  6
CONTINUOUS
 10
-0.672464295
 20
-22.1893584655
 11
2.7264474486
 21
-22.1909752103
  0
LINE
  5
253
100
AcDbEntity
  8
RACCORDO
100
AcDbLine
 62
250
  6
CONTINUOUS
 10
2.7264474486
 20
-22.1909752103
 11
6.2282416261
 21
-22.1967643944
  0
LINE
  5
254
100
AcDbEntity
  8
ASSI
100
AcDbLine
 62
250
  6
CONTINUOUS
 10
2.7264474486
 20
-22.1909752103
 11
6.2282416261
 21
-22.1967643944
  0
LWPOLYLINE
  5
255
100
AcDbEntity
  8
RACCORDO
100
AcDbPolyline
 62
250
  6
CONTINUOUS
 90
3
 70
0
 10
6.2282416261
 20
-22.1967643944
 10
9.3144210752
 20
-22.2053593965
 10
10.1400503454
 20
-22.2081744114
  0
LWPOLYLINE
  5
256
100
AcDbEntity
  8
ASSI
100
AcDbPolyline
 62
250
  6
CONTINUOUS
 90
3
 70
0
 10
6.2282416261
 20
-22.1967643944
 10
9.3144210752
 20
-22.2053593965
 10
10.1400503454
 20
-22.2081744114
  0
LWPOLYLINE
  5
257
100
AcDbEntity
  8
RACCORDO
100
AcDbPolyline
 62
250
  6
CONTINUOUS
 90
16
 70
0
 10
-10.8849927791
 20
-22.2081744105
 10
-10.9371937493
 20
-22.2053724354
 10
-10.9888237909
 20
-22.1971400383
 10
-11.0393182199
 20
-22.1835672581
 10
-11.0881247724
 20
-22.1648025419
 10
-11.134709645
 20
-22.1410511217
 10
-11.1785633334
 20
-22.1125727699
 10
-11.2192062043
 20
-22.0796789577
 10
-11.2561937416
 20
-22.0427294487
 10
-11.289121408
 20
-22.0021283644
 10
-11.3176290697
 20
-21.9583197638
 10
-11.3414049346
 20
-21.911782787
 10
-11.3601889634
 20
-21.8630264147
 10
-11.3737757127
 20
-21.8125839014
 10
-11.3820165826
 20
-21.761006943
 10
-11.3848214416
 20
-21.7088596431
  0
LWPOLYLINE
  5
258
100
AcDbEntity
  8
ASSI
100
AcDbPolyline
 62
250
  6
CONTINUOUS
 90
16
 70
0
 10
-10.8849927791
 20
-22.2081744105
 10
-10.9371937493
 20
-22.2053724354
 10
-10.9888237909
 20
-22.1971400383
 10
-11.0393182199
 20
-22.1835672581
 10
-11.0881247724
 20
-22.1648025419
 10
-11.134709645
 20
-22.1410511217
 10
-11.1785633334
 20
-22.1125727699
 10
-11.2192062043
 20
-22.0796789577
 10
-11.2561937416
 20
-22.0427294487
 10
-11.289121408
 20
-22.0021283644
 10
-11.3176290697
 20
-21.9583197638
 10
-11.3414049346
 20
-21.911782787
 10
-11.3601889634
 20
-21.8630264147
 10
-11.3737757127
 20
-21.8125839014
 10
-11.3820165826
 20
-21.761006943
 10
-11.3848214416
 20
-21.7088596431
  0
LINE
  5
259
100
AcDbEntity
  8
DRAFT
100
AcDbLine
 62
7
  6
CONTINUOUS
 10
-4.1724712171
 20
-22.3056680461
 11
-3.7640462241
 21
-22.342741982
  0
LINE
  5
25A
100
AcDbEntity
  8
ASSI
100
AcDbLine
 62
7
  6
CONTINUOUS
 10
-4.1724712171
 20
-22.3056680461
 11
-3.7640462241
 21
-22.342741982
  0
LINE
  5
25B
100
AcDbEntity
  8
DRAFT
100
AcDbLine
 62
7
  6
CONTINUOUS
 10
-7.7724712171
 20
-22.3056680461
 11
-8.1808962101
 21
-22.342741982
  0
LINE
  5
25C
100
AcDbEntity
  8
ASSI
100
AcDbLine
 62
7
  6
CONTINUOUS
 10
-7.7724712171
 20
-22.3056680461
 11
-8.1808962101
 21
-22.342741982
  0
LWPOLYLINE
  5
25D
100
AcDbEntity
  8
RACCORDO
100
AcDbPolyline
 62
250
  6
CONTINUOUS
 90
13
 70
0
 10
10.1564314723
 20
-21.0608338515
 10
10.2174203774
 20
-21.0604256364
 10
10.2769750111
 20
-21.0597005363
 10
10.3341943239
 20
-21.058669522
 10
10.3882125991
 20
-21.0573481925
 10
10.4382125513
 20
-21.0557565392
 10
10.4834376912
 20
-21.0539186433
 10
10.5232037717
 20
-21.051862312
 10
10.5569091401
 20
-21.049618657
 10
10.584043841
 20
-21.0472216243
 10
10.6041973319
 20
-21.0447074805
 10
10.6170646944
 20
-21.0421142642
 10
10.622451248
 20
-21.0394812101
  0
LWPOLYLINE
  5
25E
100
AcDbEntity
  8
ASSI
100
AcDbPolyline
 62
250
  6
CONTINUOUS
 90
13
 70
0
 10
10.1564314723
 20
-21.0608338515
 10
10.2174203774
 20
-21.0604256364
 10
10.2769750111
 20
-21.0597005363
 10
10.3341943239
 20
-21.058669522
 10
10.3882125991
 20
-21.0573481925
 10
10.4382125513
 20
-21.0557565392
 10
10.4834376912
 20
-21.0539186433
 10
10.5232037717
 20
-21.051862312
 10
10.5569091401
 20
-21.049618657
 10
10.584043841
 20
-21.0472216243
 10
10.6041973319
 20
-21.0447074805
 10
10.6170646944
 20
-21.0421142642
 10
10.622451248
 20
-21.0394812101
  0
LINE
  5
25F
100
AcDbEntity
  8
RACCORDO
100
AcDbLine
 62
250
  6
CONTINUOUS
 10
-10.9013739129
 20
-21.0608338371
 11
-5.4460465912
 21
-21.0552759817
  0
LINE
  5
260
100
AcDbEntity
  8
ASSI
100
AcDbLine
 62
250
  6
CONTINUOUS
 10
-10.9013739129
 20
-21.0608338371
 11
-5.4460465912
 21
-21.0552759817
  0
LINE
  5
261
100
AcDbEntity
  8
RACCORDO
100
AcDbLine
 62
250
  6
CONTINUOUS
 10
-5.4460465912
 20
-21.0552759817
 11
0.0129142028
 21
-21.0536078523
  0
LINE
  5
262
100
AcDbEntity
  8
ASSI
100
AcDbLine
 62
250
  6
CONTINUOUS
 10
-5.4460465912
 20
-21.0552759817
 11
0.0129142028
 21
-21.0536078523
  0
LINE
  5
263
100
AcDbEntity
  8
RACCORDO
100
AcDbLine
 62
250
  6
CONTINUOUS
 10
0.0129142028
 20
-21.0536078523
 11
4.8088964339
 21
-21.0553450929
  0
LINE
  5
264
100
AcDbEntity
  8
ASSI
100
AcDbLine
 62
250
  6
CONTINUOUS
 10
0.0129142028
 20
-21.0536078523
 11
4.8088964339
 21
-21.0553450929
  0
LINE
  5
265
100
AcDbEntity
  8
RACCORDO
100
AcDbLine
 62
250
  6
CONTINUOUS
 10
4.8088964339
 20
-21.0553450929
 11
10.1564314725
 21
-21.0608338322
  0
LINE
  5
266
100
AcDbEntity
  8
ASSI
100
AcDbLine
 62
250
  6
CONTINUOUS
 10
4.8088964339
 20
-21.0553450929
 11
10.1564314725
 21
-21.0608338322
  0
LWPOLYLINE
  5
267
100
AcDbEntity
  8
RACCORDO
100
AcDbPolyline
 62
250
  6
CONTINUOUS
 90
13
 70
0
 10
-10.9013725711
 20
-21.0608330018
 10
-10.9623605485
 20
-21.060424806
 10
-11.0219143393
 20
-21.0596997401
 10
-11.0791329351
 20
-21.058668774
 10
-11.1331506575
 20
-21.0573475056
 10
-11.1831502552
 20
-21.0557559245
 10
-11.2283752681
 20
-21.0539181096
 10
-11.2681414727
 20
-21.0518618654
 10
-11.3018472332
 20
-21.0496183019
 10
-11.3289826045
 20
-21.0472213624
 10
-11.3491370468
 20
-21.044707311
 10
-11.3620056372
 20
-21.0421141838
 10
-11.3673936825
 20
-21.0394812128
  0
LWPOLYLINE
  5
268
100
AcDbEntity
  8
ASSI
100
AcDbPolyline
 62
250
  6
CONTINUOUS
 90
13
 70
0
 10
-10.9013725711
 20
-21.0608330018
 10
-10.9623605485
 20
-21.060424806
 10
-11.0219143393
 20
-21.0596997401
 10
-11.0791329351
 20
-21.058668774
 10
-11.1331506575
 20
-21.0573475056
 10
-11.1831502552
 20
-21.0557559245
 10
-11.2283752681
 20
-21.0539181096
 10
-11.2681414727
 20
-21.0518618654
 10
-11.3018472332
 20
-21.0496183019
 10
-11.3289826045
 20
-21.0472213624
 10
-11.3491370468
 20
-21.044707311
 10
-11.3620056372
 20
-21.0421141838
 10
-11.3673936825
 20
-21.0394812128
  0
LINE
  5
269
100
AcDbEntity
  8
DRAFT
100
AcDbLine
 62
7
  6
CONTINUOUS
 10
7.0275287829
 20
-22.3056680461
 11
7.4359537759
 21
-22.342741982
  0
LINE
  5
26A
100
AcDbEntity
  8
ASSI
100
AcDbLine
 62
7
  6
CONTINUOUS
 10
7.0275287829
 20
-22.3056680461
 11
7.4359537759
 21
-22.342741982
  0
LWPOLYLINE
  5
26B
100
AcDbEntity
  8
RACCORDO
100
AcDbPolyline
 62
250
  6
CONTINUOUS
 90
7
 70
0
 10
-10.8849927782
 20
21.8413158559
 10
-10.8862306641
 20
21.832121784
 10
-10.8875341556
 20
21.814922085
 10
-10.8888586943
 20
21.7898376403
 10
-10.8901274655
 20
21.757043616
 10
-10.8913306799
 20
21.7167647315
 10
-10.8936776324
 20
21.6148794023
  0
LWPOLYLINE
  5
26C
100
AcDbEntity
  8
ASSI
100
AcDbPolyline
 62
250
  6
CONTINUOUS
 90
7
 70
0
 10
-10.8849927782
 20
21.8413158559
 10
-10.8862306641
 20
21.832121784
 10
-10.8875341556
 20
21.814922085
 10
-10.8888586943
 20
21.7898376403
 10
-10.8901274655
 20
21.757043616
 10
-10.8913306799
 20
21.7167647315
 10
-10.8936776324
 20
21.6148794023
  0
LWPOLYLINE
  5
26D
100
AcDbEntity
  8
RACCORDO
100
AcDbPolyline
 62
250
  6
CONTINUOUS
 90
6
 70
0
 10
-10.8913306866
 20
-22.0836232831
 10
-10.890127471
 20
-22.1239021666
 10
-10.8888586987
 20
-22.1566961912
 10
-10.8875341589
 20
-22.1817806373
 10
-10.8862306662
 20
-22.1989803377
 10
-10.8849927791
 20
-22.2081744105
  0
LWPOLYLINE
  5
26E
100
AcDbEntity
  8
ASSI
100
AcDbPolyline
 62
250
  6
CONTINUOUS
 90
6
 70
0
 10
-10.8913306866
 20
-22.0836232831
 10
-10.890127471
 20
-22.1239021666
 10
-10.8888586987
 20
-22.1566961912
 10
-10.8875341589
 20
-22.1817806373
 10
-10.8862306662
 20
-22.1989803377
 10
-10.8849927791
 20
-22.2081744105
  0
LINE
  5
26F
100
AcDbEntity
  8
RACCORDO
100
AcDbLine
 62
250
  6
CONTINUOUS
 10
-11.3738048686
 20
21.1742484433
 11
-11.3716844837
 21
21.0927339013
  0
LINE
  5
270
100
AcDbEntity
  8
ASSI
100
AcDbLine
 62
250
  6
CONTINUOUS
 10
-11.3738048686
 20
21.1742484433
 11
-11.3716844837
 21
21.0927339013
  0
LINE
  5
271
100
AcDbEntity
  8
RACCORDO
100
AcDbLine
 62
250
  6
CONTINUOUS
 10
-10.8936776411
 20
-21.9817379566
 11
-10.8913306866
 21
-22.0836232831
  0
LINE
  5
272
100
AcDbEntity
  8
ASSI
100
AcDbLine
 62
250
  6
CONTINUOUS
 10
-10.8936776411
 20
-21.9817379566
 11
-10.8913306866
 21
-22.0836232831
  0
LINE
  5
273
100
AcDbEntity
  8
RACCORDO
100
AcDbLine
 62
250
  6
CONTINUOUS
 10
-11.3716844837
 20
21.0927339013
 11
-11.3699367568
 21
20.9988810815
  0
LINE
  5
274
100
AcDbEntity
  8
ASSI
100
AcDbLine
 62
250
  6
CONTINUOUS
 10
-11.3716844837
 20
21.0927339013
 11
-11.3699367568
 21
20.9988810815
  0
LINE
  5
275
100
AcDbEntity
  8
RACCORDO
100
AcDbLine
 62
250
  6
CONTINUOUS
 10
-10.8967442494
 20
-21.7810998128
 11
-10.8936776411
 21
-21.9817379566
  0
LINE
  5
276
100
AcDbEntity
  8
ASSI
100
AcDbLine
 62
250
  6
CONTINUOUS
 10
-10.8967442494
 20
-21.7810998128
 11
-10.8936776411
 21
-21.9817379566
  0
LINE
  5
277
100
AcDbEntity
  8
RACCORDO
100
AcDbLine
 62
250
  6
CONTINUOUS
 10
-11.3699367568
 20
20.9988810815
 11
-11.3686192489
 21
20.8953732293
  0
LINE
  5
278
100
AcDbEntity
  8
ASSI
100
AcDbLine
 62
250
  6
CONTINUOUS
 10
-11.3699367568
 20
20.9988810815
 11
-11.3686192489
 21
20.8953732293
  0
LINE
  5
279
100
AcDbEntity
  8
RACCORDO
100
AcDbLine
 62
250
  6
CONTINUOUS
 10
-10.8997829369
 20
-21.4440869751
 11
-10.8967442494
 21
-21.7810998128
  0
LINE
  5
27A
100
AcDbEntity
  8
ASSI
100
AcDbLine
 62
250
  6
CONTINUOUS
 10
-10.8997829369
 20
-21.4440869751
 11
-10.8967442494
 21
-21.7810998128
  0
LINE
  5
27B
100
AcDbEntity
  8
RACCORDO
100
AcDbLine
 62
250
  6
CONTINUOUS
 10
-11.3686192489
 20
20.8953732293
 11
-11.3677675683
 21
20.7862337694
  0
LINE
  5
27C
100
AcDbEntity
  8
ASSI
100
AcDbLine
 62
250
  6
CONTINUOUS
 10
-11.3686192489
 20
20.8953732293
 11
-11.3677675683
 21
20.7862337694
  0
LINE
  5
27D
100
AcDbEntity
  8
RACCORDO
100
AcDbLine
 62
7
  6
CONTINUOUS
 10
-11.4528568499
 20
-21.8450238277
 11
-11.4724712171
 21
-13.2834292763
  0
LINE
  5
27E
100
AcDbEntity
  8
ASSI
100
AcDbLine
 62
7
  6
CONTINUOUS
 10
-11.4528568499
 20
-21.8450238277
 11
-11.4724712171
 21
-13.2834292763
  0
LINE
  5
27F
100
AcDbEntity
  8
RACCORDO
100
AcDbLine
 62
250
  6
CONTINUOUS
 10
-10.9013739217
 20
-21.0608338366
 11
-10.8997829369
 21
-21.4440869751
  0
LINE
  5
280
100
AcDbEntity
  8
ASSI
100
AcDbLine
 62
250
  6
CONTINUOUS
 10
-10.9013739217
 20
-21.0608338366
 11
-10.8997829369
 21
-21.4440869751
  0
LINE
  5
281
100
AcDbEntity
  8
RACCORDO
100
AcDbLine
 62
250
  6
CONTINUOUS
 10
-11.3677675683
 20
20.7862337694
 11
-11.3609404173
 21
13.796708692
  0
LINE
  5
282
100
AcDbEntity
  8
ASSI
100
AcDbLine
 62
250
  6
CONTINUOUS
 10
-11.3677675683
 20
20.7862337694
 11
-11.3609404173
 21
13.796708692
  0
LINE
  5
283
100
AcDbEntity
  8
RACCORDO
100
AcDbLine
 62
7
  6
CONTINUOUS
 10
-11.4724712171
 20
-13.2834292763
 11
-11.4724712171
 21
-0.7162998404
  0
LINE
  5
284
100
AcDbEntity
  8
ASSI
100
AcDbLine
 62
7
  6
CONTINUOUS
 10
-11.4724712171
 20
-13.2834292763
 11
-11.4724712171
 21
-0.7162998404
  0
LINE
  5
285
100
AcDbEntity
  8
RACCORDO
100
AcDbLine
 62
7
  6
CONTINUOUS
 10
-11.4724712171
 20
0.3494412878
 11
-11.4724712171
 21
12.9165707237
  0
LINE
  5
286
100
AcDbEntity
  8
ASSI
100
AcDbLine
 62
7
  6
CONTINUOUS
 10
-11.4724712171
 20
0.3494412878
 11
-11.4724712171
 21
12.9165707237
  0
LINE
  5
287
100
AcDbEntity
  8
RACCORDO
100
AcDbLine
 62
250
  6
CONTINUOUS
 10
-11.3609404173
 20
13.796708692
 11
-11.35568444
 21
0.3883623073
  0
LINE
  5
288
100
AcDbEntity
  8
ASSI
100
AcDbLine
 62
250
  6
CONTINUOUS
 10
-11.3609404173
 20
13.796708692
 11
-11.35568444
 21
0.3883623073
  0
LINE
  5
289
100
AcDbEntity
  8
RACCORDO
100
AcDbLine
 62
250
  6
CONTINUOUS
 10
-10.8989352627
 20
-0.7565357464
 11
-10.9013739129
 21
-21.0608338371
  0
LINE
  5
28A
100
AcDbEntity
  8
ASSI
100
AcDbLine
 62
250
  6
CONTINUOUS
 10
-10.8989352627
 20
-0.7565357464
 11
-10.9013739129
 21
-21.0608338371
  0
LINE
  5
28B
100
AcDbEntity
  8
RACCORDO
100
AcDbLine
 62
250
  6
CONTINUOUS
 10
-11.3556844417
 20
-0.7552208593
 11
-11.3578793557
 21
-9.2413029201
  0
LINE
  5
28C
100
AcDbEntity
  8
ASSI
100
AcDbLine
 62
250
  6
CONTINUOUS
 10
-11.3556844417
 20
-0.7552208593
 11
-11.3578793557
 21
-9.2413029201
  0
LINE
  5
28D
100
AcDbEntity
  8
RACCORDO
100
AcDbLine
 62
250
  6
CONTINUOUS
 10
-11.3578793557
 20
-9.2413029201
 11
-11.362513417
 21
-16.0685078316
  0
LINE
  5
28E
100
AcDbEntity
  8
ASSI
100
AcDbLine
 62
250
  6
CONTINUOUS
 10
-11.3578793557
 20
-9.2413029201
 11
-11.362513417
 21
-16.0685078316
  0
LINE
  5
28F
100
AcDbEntity
  8
RACCORDO
100
AcDbLine
 62
7
  6
CONTINUOUS
 10
-11.4528568499
 20
21.4781652751
 11
-11.4724712171
 21
12.9165707237
  0
LINE
  5
290
100
AcDbEntity
  8
ASSI
100
AcDbLine
 62
7
  6
CONTINUOUS
 10
-11.4528568499
 20
21.4781652751
 11
-11.4724712171
 21
12.9165707237
  0
LINE
  5
291
100
AcDbEntity
  8
RACCORDO
100
AcDbLine
 62
250
  6
CONTINUOUS
 10
-10.9007895105
 20
20.8889199421
 11
-10.8989352381
 21
0.3896771906
  0
LINE
  5
292
100
AcDbEntity
  8
ASSI
100
AcDbLine
 62
250
  6
CONTINUOUS
 10
-10.9007895105
 20
20.8889199421
 11
-10.8989352381
 21
0.3896771906
  0
LINE
  5
293
100
AcDbEntity
  8
RACCORDO
100
AcDbLine
 62
250
  6
CONTINUOUS
 10
-11.362513417
 20
-16.0685078316
 11
-11.3677675691
 21
-21.1530923244
  0
LINE
  5
294
100
AcDbEntity
  8
ASSI
100
AcDbLine
 62
250
  6
CONTINUOUS
 10
-11.362513417
 20
-16.0685078316
 11
-11.3677675691
 21
-21.1530923244
  0
LINE
  5
295
100
AcDbEntity
  8
RACCORDO
100
AcDbLine
 62
250
  6
CONTINUOUS
 10
-10.8984250537
 20
21.2538845265
 11
-10.9007895105
 21
20.8889199421
  0
LINE
  5
296
100
AcDbEntity
  8
ASSI
100
AcDbLine
 62
250
  6
CONTINUOUS
 10
-10.8984250537
 20
21.2538845265
 11
-10.9007895105
 21
20.8889199421
  0
LINE
  5
297
100
AcDbEntity
  8
RACCORDO
100
AcDbLine
 62
250
  6
CONTINUOUS
 10
-11.3677675691
 20
-21.1530923244
 11
-11.3686192499
 21
-21.262231784
  0
LINE
  5
298
100
AcDbEntity
  8
ASSI
100
AcDbLine
 62
250
  6
CONTINUOUS
 10
-11.3677675691
 20
-21.1530923244
 11
-11.3686192499
 21
-21.262231784
  0
LINE
  5
299
100
AcDbEntity
  8
RACCORDO
100
AcDbLine
 62
250
  6
CONTINUOUS
 10
-10.8957747543
 20
21.4869302175
 11
-10.8984250537
 21
21.2538845265
  0
LINE
  5
29A
100
AcDbEntity
  8
ASSI
100
AcDbLine
 62
250
  6
CONTINUOUS
 10
-10.8957747543
 20
21.4869302175
 11
-10.8984250537
 21
21.2538845265
  0
LINE
  5
29B
100
AcDbEntity
  8
RACCORDO
100
AcDbLine
 62
250
  6
CONTINUOUS
 10
-11.3686192499
 20
-21.262231784
 11
-11.3699367578
 21
-21.3657396361
  0
LINE
  5
29C
100
AcDbEntity
  8
ASSI
100
AcDbLine
 62
250
  6
CONTINUOUS
 10
-11.3686192499
 20
-21.262231784
 11
-11.3699367578
 21
-21.3657396361
  0
LINE
  5
29D
100
AcDbEntity
  8
RACCORDO
100
AcDbLine
 62
250
  6
CONTINUOUS
 10
-10.8936776324
 20
21.6148794023
 11
-10.8957747543
 21
21.4869302175
  0
LINE
  5
29E
100
AcDbEntity
  8
ASSI
100
AcDbLine
 62
250
  6
CONTINUOUS
 10
-10.8936776324
 20
21.6148794023
 11
-10.8957747543
 21
21.4869302175
  0
LINE
  5
29F
100
AcDbEntity
  8
RACCORDO
100
AcDbLine
 62
250
  6
CONTINUOUS
 10
-11.3699367578
 20
-21.3657396361
 11
-11.3716844847
 21
-21.459592456
  0
LINE
  5
2A0
100
AcDbEntity
  8
ASSI
100
AcDbLine
 62
250
  6
CONTINUOUS
 10
-11.3699367578
 20
-21.3657396361
 11
-11.3716844847
 21
-21.459592456
  0
LWPOLYLINE
  5
2A1
100
AcDbEntity
  8
RACCORDO
100
AcDbPolyline
 62
250
  6
CONTINUOUS
 90
10
 70
0
 10
-11.3716844847
 20
-21.459592456
 10
-11.3738048696
 20
-21.5411069979
 10
-11.3749981491
 20
-21.5768823956
 10
-11.376255446
 20
-21.6086331693
 10
-11.3775788833
 20
-21.6362771188
 10
-11.3789663381
 20
-21.6598964443
 10
-11.3803873658
 20
-21.6790122491
 10
-11.3818318182
 20
-21.6934649011
 10
-11.3833098434
 20
-21.7034140324
 10
-11.3848214416
 20
-21.7088596431
  0
LWPOLYLINE
  5
2A2
100
AcDbEntity
  8
ASSI
100
AcDbPolyline
 62
250
  6
CONTINUOUS
 90
10
 70
0
 10
-11.3716844847
 20
-21.459592456
 10
-11.3738048696
 20
-21.5411069979
 10
-11.3749981491
 20
-21.5768823956
 10
-11.376255446
 20
-21.6086331693
 10
-11.3775788833
 20
-21.6362771188
 10
-11.3789663381
 20
-21.6598964443
 10
-11.3803873658
 20
-21.6790122491
 10
-11.3818318182
 20
-21.6934649011
 10
-11.3833098434
 20
-21.7034140324
 10
-11.3848214416
 20
-21.7088596431
  0
LWPOLYLINE
  5
2A3
100
AcDbEntity
  8
0
100
AcDbPolyline
 62
250
  6
CONTINUOUS
 90
87
 70
0
 10
-4.5172684923
 20
9.9871883485
 10
-4.5257380192
 20
9.9785819052
 10
-4.5337788315
 20
9.9697801482
 10
-4.5414242755
 20
9.9607678751
 10
-4.5487076979
 20
9.9515298834
 10
-4.5556624449
 20
9.9420509709
 10
-4.5639315096
 20
9.9298466872
 10
-4.5717264273
 20
9.91725039
 10
-4.5790345026
 20
9.9042702585
 10
-4.5858430397
 20
9.8909144716
 10
-4.5921372775
 20
9.8771973176
 10
-4.5978941922
 20
9.8631575209
 10
-4.6030886947
 20
9.8488399149
 10
-4.6076956956
 20
9.8342893332
 10
-4.6109421342
 20
9.8225104695
 10
-4.6137878622
 20
9.8106294461
 10
-4.616224227
 20
9.7986645145
 10
-4.618242576
 20
9.7866339261
 10
-4.6198342568
 20
9.7745559323
 10
-4.6209918729
 20
9.7624474536
 10
-4.6217130527
 20
9.7503200872
 10
-4.6219966806
 20
9.7381840995
 10
-4.6218416412
 20
9.7260497568
 10
-4.6212468189
 20
9.7139273254
 10
-4.6202112558
 20
9.7018253885
 10
-4.6187346245
 20
9.6897457974
 10
-4.6168167548
 20
9.6776887201
 10
-4.6144574769
 20
9.6656543247
 10
-4.6116566208
 20
9.6536427794
 10
-4.608414958
 20
9.6416594242
 10
-4.6047370254
 20
9.6297302872
 10
-4.6006283017
 20
9.6178865684
 10
-4.5960942652
 20
9.6061594678
 10
-4.5911403944
 20
9.5945801854
 10
-4.5857744907
 20
9.5831791973
 10
-4.5800136466
 20
9.571984083
 10
-4.5738772776
 20
9.5610216983
 10
-4.5673847992
 20
9.5503188985
 10
-4.5605556267
 20
9.5399025395
 10
-4.5534060909
 20
9.5297947963
 10
-4.5459401829
 20
9.5199991227
 10
-4.5381588091
 20
9.5105142923
 10
-4.5300628758
 20
9.5013390782
 10
-4.5216532895
 20
9.4924722541
 10
-4.5129305527
 20
9.4839129545
 10
-4.5038935524
 20
9.4756617594
 10
-4.494540772
 20
9.4677196097
 10
-4.4848706947
 20
9.4600874465
 10
-4.4748818039
 20
9.4527662111
 10
-4.4645772806
 20
9.4457600071
 10
-4.4539790981
 20
9.4390855882
 10
-4.4431139272
 20
9.4327628709
 10
-4.432008439
 20
9.4268117716
 10
-4.4206893045
 20
9.4212522066
 10
-4.4091839362
 20
9.4161017667
 10
-4.397522713
 20
9.4113687399
 10
-4.3857367557
 20
9.4070590884
 10
-4.3738571847
 20
9.4031787745
 10
-4.3619151205
 20
9.3997337606
 10
-4.3499365451
 20
9.3967289787
 10
-4.3379268854
 20
9.3941652406
 10
-4.3258864295
 20
9.3920423278
 10
-4.3138154658
 20
9.3903600218
 10
-4.3017142824
 20
9.3891181041
 10
-4.2895848428
 20
9.3883162646
 10
-4.2774358109
 20
9.3879538255
 10
-4.2652775262
 20
9.3880300174
 10
-4.2531203278
 20
9.3885440708
 10
-4.240974555
 20
9.3894952162
 10
-4.2288519019
 20
9.3908814227
 10
-4.2167694818
 20
9.3926956135
 10
-4.2047457628
 20
9.3949294501
 10
-4.1927992131
 20
9.3975745941
 10
-4.1809483009
 20
9.4006227072
 10
-4.1662988652
 20
9.4049854536
 10
-4.1518732666
 20
9.4099403211
 10
-4.1377170523
 20
9.4154628204
 10
-4.1238757696
 20
9.421528462
 10
-4.110388733
 20
9.4281147497
 10
-4.0972703266
 20
9.4352071593
 10
-4.0845287021
 20
9.4427931596
 10
-4.072172011
 20
9.4508602193
 10
-4.0625659636
 20
9.4576583852
 10
-4.0531957178
 20
9.4647894501
 10
-4.0440455008
 20
9.4722864549
 10
-4.0350995397
 20
9.4801824406
 10
-4.0263420618
 20
9.488510448
  0
LWPOLYLINE
  5
2A4
100
AcDbEntity
  8
0
100
AcDbPolyline
 62
250
  6
CONTINUOUS
 90
16
 70
0
 10
-0.7758923272
 20
13.1149926029
 10
-1.0402305906
 20
12.9261479696
 10
-1.3024913752
 20
12.7344469687
 10
-1.5627175354
 20
12.539855313
 10
-1.8209519258
 20
12.3423387151
 10
-2.0772374008
 20
12.1418628877
 10
-2.3315882453
 20
11.9384169255
 10
-2.5839044647
 20
11.7320834503
 10
-2.8340574945
 20
11.5229684659
 10
-3.0819187704
 20
11.3111779761
 10
-3.3273597281
 20
11.0968179848
 10
-3.5702798712
 20
10.8799705174
 10
-3.8106909754
 20
10.6606216861
 10
-4.0486328845
 20
10.4387336249
 10
-4.2841454422
 20
10.2142684678
 10
-4.5172684923
 20
9.9871883485
  0
LWPOLYLINE
  5
2A5
100
AcDbEntity
  8
0
100
AcDbPolyline
 62
250
  6
CONTINUOUS
 90
47
 70
0
 10
-0.4592878432
 20
12.4816113801
 10
-0.4558094136
 20
12.4839977519
 10
-0.4523283444
 20
12.4862631855
 10
-0.4488403661
 20
12.4884107279
 10
-0.4453412095
 20
12.490443426
 10
-0.441826605
 20
12.4923643268
 10
-0.4382922833
 20
12.4941764774
 10
-0.4347339749
 20
12.4958829247
 10
-0.4311474104
 20
12.4974867157
 10
-0.4270102587
 20
12.4991970331
 10
-0.4228353825
 20
12.5007770347
 10
-0.4186275395
 20
12.5022265069
 10
-0.4143914877
 20
12.503545236
 10
-0.4101319846
 20
12.5047330082
 10
-0.4058537882
 20
12.5057896097
 10
-0.4015616561
 20
12.5067148268
 10
-0.3972598615
 20
12.507508599
 10
-0.3929507391
 20
12.5081714779
 10
-0.3886361388
 20
12.5087041684
 10
-0.3843179106
 20
12.5091073753
 10
-0.3799979045
 20
12.5093818035
 10
-0.3756779705
 20
12.5095281578
 10
-0.3713599586
 20
12.5095471431
 10
-0.3670459105
 20
12.5094394952
 10
-0.3627386349
 20
12.509206074
 10
-0.3584411323
 20
12.50884777
 10
-0.3541564032
 20
12.5083654742
 10
-0.3498874479
 20
12.5077600773
 10
-0.3456372669
 20
12.5070324702
 10
-0.3414088607
 20
12.5061835434
 10
-0.3377289429
 20
12.5053418157
 10
-0.3340683045
 20
12.504407899
 10
-0.3304272562
 20
12.5033818072
 10
-0.3268061088
 20
12.5022635547
 10
-0.3232051224
 20
12.5010530045
 10
-0.3196243535
 20
12.4997494148
 10
-0.316063808
 20
12.498351893
 10
-0.3125234917
 20
12.4968595462
 10
-0.3090047656
 20
12.4952723373
 10
-0.3055144105
 20
12.4935936511
 10
-0.3020605627
 20
12.4918277281
 10
-0.2986513581
 20
12.4899788087
 10
-0.2959590987
 20
12.4884409526
 10
-0.2932897459
 20
12.4868439872
 10
-0.2906324277
 20
12.485179207
 10
-0.2879762719
 20
12.4834379065
 10
-0.2853104064
 20
12.4816113801
  0
LWPOLYLINE
  5
2A6
100
AcDbEntity
  8
0
100
AcDbPolyline
 62
250
  6
CONTINUOUS
 90
49
 70
0
 10
-0.7765810215
 20
-13.4818511556
 10
-0.7617377244
 20
-13.4920063763
 10
-0.7467669158
 20
-13.5016832563
 10
-0.7316489573
 20
-13.5109041437
 10
-0.7163642105
 20
-13.5196913868
 10
-0.700893037
 20
-13.5280673339
 10
-0.6852157984
 20
-13.5360543332
 10
-0.6693163043
 20
-13.5436700032
 10
-0.6531921549
 20
-13.5509130433
 10
-0.6368443986
 20
-13.5577774229
 10
-0.6202740836
 20
-13.5642571116
 10
-0.6034822581
 20
-13.570346079
 10
-0.5864699704
 20
-13.5760382946
 10
-0.5692421019
 20
-13.5813269044
 10
-0.5518188666
 20
-13.5862017599
 10
-0.5342243116
 20
-13.5906518893
 10
-0.5164824841
 20
-13.5946663207
 10
-0.4986174312
 20
-13.5982340821
 10
-0.4806532001
 20
-13.6013442015
 10
-0.462612033
 20
-13.6039867651
 10
-0.4445089519
 20
-13.6061560907
 10
-0.4263571737
 20
-13.6078475542
 10
-0.4081699155
 20
-13.6090565314
 10
-0.3899603942
 20
-13.6097783984
 10
-0.3717418269
 20
-13.6100085309
 10
-0.3535274053
 20
-13.6097439215
 10
-0.3353302206
 20
-13.6089880295
 10
-0.3171633384
 20
-13.6077459308
 10
-0.2990398246
 20
-13.6060227015
 10
-0.280972745
 20
-13.6038234175
 10
-0.2629751655
 20
-13.6011531547
 10
-0.245061982
 20
-13.5980180143
 10
-0.2272554114
 20
-13.5944281972
 10
-0.2095795009
 20
-13.5903949297
 10
-0.1920582977
 20
-13.5859294379
 10
-0.1747158487
 20
-13.5810429479
 10
-0.1575762012
 20
-13.5757466858
 10
-0.1406595371
 20
-13.5700510441
 10
-0.1239705785
 20
-13.5639630795
 10
-0.1075101821
 20
-13.5574890152
 10
-0.0912792047
 20
-13.5506350742
 10
-0.0752785033
 20
-13.5434074796
 10
-0.0595089345
 20
-13.5358124544
 10
-0.0439679147
 20
-13.5278514829
 10
-0.0286390972
 20
-13.5195070937
 10
-0.0135026949
 20
-13.5107570766
 10
0.0014610795
 20
-13.5015792213
 10
0.016272013
 20
-13.4919513177
 10
0.030949893
 20
-13.4818511556
  0
LWPOLYLINE
  5
2A7
100
AcDbEntity
  8
0
100
AcDbPolyline
 62
250
  6
CONTINUOUS
 90
16
 70
0
 10
-0.4596320278
 20
-12.8484699328
 10
-0.7116527225
 20
-12.6670502104
 10
-0.9616896437
 20
-12.4829986503
 10
-1.2097821445
 20
-12.2962841666
 10
-1.4559695776
 20
-12.1068756736
 10
-1.7002912958
 20
-11.9147420855
 10
-1.9427605815
 20
-11.7198737438
 10
-2.1832864352
 20
-11.5223466986
 10
-2.421751787
 20
-11.3222584271
 10
-2.6580395668
 20
-11.1197064066
 10
-2.8920327048
 20
-10.9147881145
 10
-3.1236397704
 20
-10.7075790657
 10
-3.3528718907
 20
-10.4980669262
 10
-3.5797658324
 20
-10.2862173998
 10
-3.8043583621
 20
-10.07199619
 10
-4.0266862464
 20
-9.8553690007
  0
LWPOLYLINE
  5
2A8
100
AcDbEntity
  8
0
100
AcDbPolyline
 62
250
  6
CONTINUOUS
 90
16
 70
0
 10
-4.5179795873
 20
-10.354024849
 10
-4.2847722473
 20
-10.5811248933
 10
-4.0491871155
 20
-10.8056068689
 10
-3.8111845721
 20
-11.0275085817
 10
-3.5707249974
 20
-11.2468678378
 10
-3.3277687714
 20
-11.4637224431
 10
-3.0823042395
 20
-11.6780863122
 10
-2.8344316079
 20
-11.8898777945
 10
-2.5842790478
 20
-12.0989913477
 10
-2.3319747304
 20
-12.3053214299
 10
-2.0776468271
 20
-12.5087624989
 10
-1.821395041
 20
-12.7092323126
 10
-1.5632052038
 20
-12.9067418281
 10
-1.303034679
 20
-13.1013253024
 10
-1.0408408304
 20
-13.2930169925
 10
-0.7765810215
 20
-13.4818511556
  0
LWPOLYLINE
  5
2A9
100
AcDbEntity
  8
0
100
AcDbPolyline
 62
7
  6
CONTINUOUS
 90
3
 70
0
 43
0.3500000006
 10
0.6632430732
 20
31.2849272003
 10
0.5918145103
 20
31.0706381836
 10
0.4489573492
 20
30.7849270477
  0
LWPOLYLINE
  5
2AA
100
AcDbEntity
  8
0
100
AcDbPolyline
 62
250
  6
CONTINUOUS
 90
16
 70
0
 10
-4.0263420618
 20
9.488510448
 10
-3.8036868644
 20
9.7053947847
 10
-3.5788121059
 20
9.9198344301
 10
-3.3516815558
 20
10.1318640214
 10
-3.1222589838
 20
10.3415181956
 10
-2.8905081594
 20
10.5488315899
 10
-2.6564184161
 20
10.7538169371
 10
-2.4200813431
 20
10.9563993523
 10
-2.1816140934
 20
11.1564820462
 10
-1.94113382
 20
11.3539682298
 10
-1.698757676
 20
11.5487611137
 10
-1.4545768032
 20
11.7407852924
 10
-1.2085782982
 20
11.9300508954
 10
-0.9607232463
 20
12.1165894356
 10
-0.7109727328
 20
12.3004324262
 10
-0.4592878432
 20
12.4816113801
  0
LWPOLYLINE
  5
2AB
100
AcDbEntity
  8
0
100
AcDbPolyline
 62
250
  6
CONTINUOUS
 90
87
 70
0
 10
-4.0266862464
 20
-9.8553690007
 10
-4.0355327789
 20
-9.8469990832
 10
-4.0445633118
 20
-9.839067191
 10
-4.0537934242
 20
-9.8315399858
 10
-4.0632386953
 20
-9.8243841293
 10
-4.0729147043
 20
-9.8175662835
 10
-4.0853511989
 20
-9.8094814175
 10
-4.0981626385
 20
-9.8018849039
 10
-4.1113390981
 20
-9.7947890443
 10
-4.1248706525
 20
-9.7882061406
 10
-4.1387417096
 20
-9.7821502666
 10
-4.1529140099
 20
-9.7766425852
 10
-4.167343627
 20
-9.7717060314
 10
-4.1819866345
 20
-9.7673635402
 10
-4.1938258821
 20
-9.7643320799
 10
-4.2057554103
 20
-9.7617036124
 10
-4.2177570427
 20
-9.759486252
 10
-4.2298126031
 20
-9.7576881131
 10
-4.241903915
 20
-9.75631731
 10
-4.2540141927
 20
-9.7553806749
 10
-4.2661322135
 20
-9.7548799118
 10
-4.2782481452
 20
-9.7548154425
 10
-4.2903521555
 20
-9.7551876888
 10
-4.3024344124
 20
-9.7559970726
 10
-4.3144867148
 20
-9.7572439529
 10
-4.3265073868
 20
-9.7589284378
 10
-4.3384963834
 20
-9.7610505725
 10
-4.3504536599
 20
-9.7636104022
 10
-4.3623791713
 20
-9.7666079721
 10
-4.3742677703
 20
-9.7700423313
 10
-4.3860938989
 20
-9.7739085443
 10
-4.3978268964
 20
-9.7782006795
 10
-4.4094361023
 20
-9.782912805
 10
-4.420890856
 20
-9.7880389892
 10
-4.4321612783
 20
-9.7935710964
 10
-4.4432206149
 20
-9.7994921739
 10
-4.4540428934
 20
-9.8057830653
 10
-4.4646021408
 20
-9.8124246139
 10
-4.4748723845
 20
-9.8193976631
 10
-4.4848321054
 20
-9.8266860936
 10
-4.4944775986
 20
-9.834285935
 10
-4.5038096129
 20
-9.8421962543
 10
-4.5128288973
 20
-9.8504161185
 10
-4.5215362003
 20
-9.8589445944
 10
-4.5299320225
 20
-9.867781207
 10
-4.5380158701
 20
-9.876927313
 10
-4.5457870011
 20
-9.886384727
 10
-4.5532446734
 20
-9.8961552636
 10
-4.5603881448
 20
-9.9062407377
 10
-4.5672135282
 20
-9.9166381473
 10
-4.5737043559
 20
-9.927325225
 10
-4.5798410149
 20
-9.9382748869
 10
-4.5856038925
 20
-9.9494600489
 10
-4.5909733758
 20
-9.9608536272
 10
-4.5959322193
 20
-9.9724278615
 10
-4.6004726466
 20
-9.9841522869
 10
-4.6045892484
 20
-9.995995762
 10
-4.6082766158
 20
-10.0079271457
 10
-4.6115293395
 20
-10.0199152967
 10
-4.6143429561
 20
-10.0319341951
 10
-4.6167167853
 20
-10.0439783072
 10
-4.6186510922
 20
-10.0560472205
 10
-4.6201461421
 20
-10.0681405228
 10
-4.6212022003
 20
-10.0802578015
 10
-4.621819636
 20
-10.0923969864
 10
-4.6219992336
 20
-10.1045493751
 10
-4.6217418815
 20
-10.1167046072
 10
-4.6210484681
 20
-10.1288523223
 10
-4.6199198818
 20
-10.1409821602
 10
-4.6183582694
 20
-10.1530824172
 10
-4.6163708112
 20
-10.1651360168
 10
-4.6139659458
 20
-10.177124539
 10
-4.611152112
 20
-10.189029564
 10
-4.6079377484
 20
-10.2008326721
 10
-4.6033708502
 20
-10.2154135946
 10
-4.5982164642
 20
-10.2297610331
 10
-4.5924997449
 20
-10.2438295295
 10
-4.5862458467
 20
-10.2575736261
 10
-4.5794777961
 20
-10.2709541746
 10
-4.5722101064
 20
-10.2839572646
 10
-4.5644551631
 20
-10.2965752955
 10
-4.5562253515
 20
-10.3088006665
 10
-4.5493013603
 20
-10.3182963068
 10
-4.5420483641
 20
-10.3275508873
 10
-4.5344333468
 20
-10.3365795149
 10
-4.5264232924
 20
-10.3453972965
 10
-4.517985185
 20
-10.3540193391
  0
LWPOLYLINE
  5
2AC
100
AcDbEntity
  8
RACCORDO
100
AcDbPolyline
 62
250
  6
CONTINUOUS
 90
13
 70
0
 10
-10.8644717272
 20
-0.3560826793
 10
-10.8689488461
 20
-0.3599237129
 10
-10.8733500912
 20
-0.3704781936
 10
-10.8776008747
 20
-0.3875672547
 10
-10.8816291585
 20
-0.4109012878
 10
-10.8853666754
 20
-0.4400848511
 10
-10.8887500856
 20
-0.4746233709
 10
-10.8917220505
 20
-0.5139315229
 10
-10.8942322043
 20
-0.5573431519
 10
-10.8962380073
 20
-0.6041225612
 10
-10.8977054673
 20
-0.6534769802
 10
-10.8986097151
 20
-0.7045699997
 10
-10.8989354265
 20
-0.7565357463
  0
LWPOLYLINE
  5
2AD
100
AcDbEntity
  8
ASSI
100
AcDbPolyline
 62
250
  6
CONTINUOUS
 90
13
 70
0
 10
-10.8644717272
 20
-0.3560826793
 10
-10.8689488461
 20
-0.3599237129
 10
-10.8733500912
 20
-0.3704781936
 10
-10.8776008747
 20
-0.3875672547
 10
-10.8816291585
 20
-0.4109012878
 10
-10.8853666754
 20
-0.4400848511
 10
-10.8887500856
 20
-0.4746233709
 10
-10.8917220505
 20
-0.5139315229
 10
-10.8942322043
 20
-0.5573431519
 10
-10.8962380073
 20
-0.6041225612
 10
-10.8977054673
 20
-0.6534769802
 10
-10.8986097151
 20
-0.7045699997
 10
-10.8989354265
 20
-0.7565357463
  0
LWPOLYLINE
  5
2AE
100
AcDbEntity
  8
RACCORDO
100
AcDbPolyline
 62
250
  6
CONTINUOUS
 90
13
 70
0
 10
-10.8644717226
 20
-0.010775873
 10
-10.8689485761
 20
-0.0069342266
 10
-10.8733495595
 20
0.003620745
 10
-10.8776000906
 20
0.0207101696
 10
-10.8816281368
 20
0.0440444376
 10
-10.8853654355
 20
0.0732281097
 10
-10.8887486517
 20
0.1077666183
 10
-10.8917204504
 20
0.1470746493
 10
-10.894230469
 20
0.1904860604
 10
-10.8962361702
 20
0.2372651707
 10
-10.8977035633
 20
0.2866192277
 10
-10.8986077804
 20
0.3377118423
 10
-10.8989334972
 20
0.3896771622
  0
LWPOLYLINE
  5
2AF
100
AcDbEntity
  8
ASSI
100
AcDbPolyline
 62
250
  6
CONTINUOUS
 90
13
 70
0
 10
-10.8644717226
 20
-0.010775873
 10
-10.8689485761
 20
-0.0069342266
 10
-10.8733495595
 20
0.003620745
 10
-10.8776000906
 20
0.0207101696
 10
-10.8816281368
 20
0.0440444376
 10
-10.8853654355
 20
0.0732281097
 10
-10.8887486517
 20
0.1077666183
 10
-10.8917204504
 20
0.1470746493
 10
-10.894230469
 20
0.1904860604
 10
-10.8962361702
 20
0.2372651707
 10
-10.8977035633
 20
0.2866192277
 10
-10.8986077804
 20
0.3377118423
 10
-10.8989334972
 20
0.3896771622
  0
LWPOLYLINE
  5
2B0
100
AcDbEntity
  8
RACCORDO
100
AcDbPolyline
 62
250
  6
CONTINUOUS
 90
19
 70
0
 10
-5.4173399217
 20
-0.7596665435
 10
-5.371797794
 20
-0.8894119195
 10
-5.3177776844
 20
-1.0146116043
 10
-5.2552793397
 20
-1.1352656242
 10
-5.1838798683
 20
-1.2519928349
 10
-5.1040015438
 20
-1.3641744227
 10
-5.0169118683
 20
-1.4699538959
 10
-4.9225464625
 20
-1.5691564111
 10
-4.8209690693
 20
-1.66195681
 10
-4.7136394833
 20
-1.7470231083
 10
-4.6004855691
 20
-1.8242532508
 10
-4.4815789353
 20
-1.8937492538
 10
-4.3585951629
 20
-1.9544852251
 10
-4.2313712994
 20
-2.006354466
 10
-4.1000699775
 20
-2.0494636089
 10
-3.9668553831
 20
-2.0831067505
 10
-3.8324489563
 20
-2.1070485635
 10
-3.696129256
 20
-2.1215242971
 10
-3.5578962777
 20
-2.1265339109
  0
LWPOLYLINE
  5
2B1
100
AcDbEntity
  8
ASSI
100
AcDbPolyline
 62
250
  6
CONTINUOUS
 90
19
 70
0
 10
-5.4173399217
 20
-0.7596665435
 10
-5.371797794
 20
-0.8894119195
 10
-5.3177776844
 20
-1.0146116043
 10
-5.2552793397
 20
-1.1352656242
 10
-5.1838798683
 20
-1.2519928349
 10
-5.1040015438
 20
-1.3641744227
 10
-5.0169118683
 20
-1.4699538959
 10
-4.9225464625
 20
-1.5691564111
 10
-4.8209690693
 20
-1.66195681
 10
-4.7136394833
 20
-1.7470231083
 10
-4.6004855691
 20
-1.8242532508
 10
-4.4815789353
 20
-1.8937492538
 10
-4.3585951629
 20
-1.9544852251
 10
-4.2313712994
 20
-2.006354466
 10
-4.1000699775
 20
-2.0494636089
 10
-3.9668553831
 20
-2.0831067505
 10
-3.8324489563
 20
-2.1070485635
 10
-3.696129256
 20
-2.1215242971
 10
-3.5578962777
 20
-2.1265339109
  0
LWPOLYLINE
  5
2B2
100
AcDbEntity
  8
RACCORDO
100
AcDbPolyline
 62
250
  6
CONTINUOUS
 90
9
 70
0
 10
-11.3848214407
 20
21.3420010886
 10
-11.3833098425
 20
21.3365554777
 10
-11.3818318172
 20
21.3266063462
 10
-11.3803873648
 20
21.3121536942
 10
-11.3789663371
 20
21.2930378894
 10
-11.3775788823
 20
21.2694185641
 10
-11.376255445
 20
21.2417746147
 10
-11.3749981481
 20
21.210023841
 10
-11.3738048686
 20
21.1742484433
  0
LWPOLYLINE
  5
2B3
100
AcDbEntity
  8
ASSI
100
AcDbPolyline
 62
250
  6
CONTINUOUS
 90
9
 70
0
 10
-11.3848214407
 20
21.3420010886
 10
-11.3833098425
 20
21.3365554777
 10
-11.3818318172
 20
21.3266063462
 10
-11.3803873648
 20
21.3121536942
 10
-11.3789663371
 20
21.2930378894
 10
-11.3775788823
 20
21.2694185641
 10
-11.376255445
 20
21.2417746147
 10
-11.3749981481
 20
21.210023841
 10
-11.3738048686
 20
21.1742484433
  0
LINE
  5
2B4
100
AcDbEntity
  8
RACCORDO
100
AcDbLine
 62
250
  6
CONTINUOUS
 10
-3.5474709053
 20
-1.7084292763
 11
-3.5473163328
 21
-1.7246386507
  0
LINE
  5
2B5
100
AcDbEntity
  8
ASSI
100
AcDbLine
 62
250
  6
CONTINUOUS
 10
-3.5474709053
 20
-1.7084292763
 11
-3.5473163328
 21
-1.7246386507
  0
LINE
  5
2B6
100
AcDbEntity
  8
RACCORDO
100
AcDbLine
 62
250
  6
CONTINUOUS
 10
-3.5564859142
 20
1.5598739949
 11
-3.5575321462
 21
1.6563361853
  0
LINE
  5
2B7
100
AcDbEntity
  8
ASSI
100
AcDbLine
 62
250
  6
CONTINUOUS
 10
-3.5564859142
 20
1.5598739949
 11
-3.5575321462
 21
1.6563361853
  0
LINE
  5
2B8
100
AcDbEntity
  8
RACCORDO
100
AcDbLine
 62
250
  6
CONTINUOUS
 10
-3.5575321462
 20
1.6563361853
 11
-3.5578961304
 21
1.7596753311
  0
LINE
  5
2B9
100
AcDbEntity
  8
ASSI
100
AcDbLine
 62
250
  6
CONTINUOUS
 10
-3.5575321462
 20
1.6563361853
 11
-3.5578961304
 21
1.7596753311
  0
LINE
  5
2BA
100
AcDbEntity
  8
RACCORDO
100
AcDbLine
 62
250
  6
CONTINUOUS
 10
-3.5575322004
 20
-2.0231969141
 11
-3.5578962776
 21
-2.1265339108
  0
LINE
  5
2BB
100
AcDbEntity
  8
ASSI
100
AcDbLine
 62
250
  6
CONTINUOUS
 10
-3.5575322004
 20
-2.0231969141
 11
-3.5578962776
 21
-2.1265339108
  0
LINE
  5
2BC
100
AcDbEntity
  8
RACCORDO
100
AcDbLine
 62
250
  6
CONTINUOUS
 10
-3.5474712171
 20
1.3415707237
 11
-3.5473141354
 21
1.3577800984
  0
LINE
  5
2BD
100
AcDbEntity
  8
ASSI
100
AcDbLine
 62
250
  6
CONTINUOUS
 10
-3.5474712171
 20
1.3415707237
 11
-3.5473141354
 21
1.3577800984
  0
LWPOLYLINE
  5
2BE
100
AcDbEntity
  8
RACCORDO
100
AcDbPolyline
 62
7
  6
CONTINUOUS
 90
10
 70
0
 10
-5.0065186352
 20
0.2601985314
 10
-5.007605503
 20
0.2566801995
 10
-5.0087257222
 20
0.2531679188
 10
-5.0098793491
 20
0.249661406
 10
-5.0110658876
 20
0.2461611855
 10
-5.0122859467
 20
0.2426661664
 10
-5.0135412216
 20
0.2391736277
 10
-5.0148322918
 20
0.2356824561
 10
-5.0161586404
 20
0.2321931601
 10
-5.0175202989
 20
0.2287054371
  0
LWPOLYLINE
  5
2BF
100
AcDbEntity
  8
ASSI
100
AcDbPolyline
 62
7
  6
CONTINUOUS
 90
10
 70
0
 10
-5.0065186352
 20
0.2601985314
 10
-5.007605503
 20
0.2566801995
 10
-5.0087257222
 20
0.2531679188
 10
-5.0098793491
 20
0.249661406
 10
-5.0110658876
 20
0.2461611855
 10
-5.0122859467
 20
0.2426661664
 10
-5.0135412216
 20
0.2391736277
 10
-5.0148322918
 20
0.2356824561
 10
-5.0161586404
 20
0.2321931601
 10
-5.0175202989
 20
0.2287054371
  0
LWPOLYLINE
  5
2C0
100
AcDbEntity
  8
RACCORDO
100
AcDbPolyline
 62
250
  6
CONTINUOUS
 90
13
 70
0
 10
-5.0188237336
 20
0.273604431
 10
-5.0334914779
 20
0.2339309082
 10
-5.0522668025
 20
0.1960276547
 10
-5.0749398143
 20
0.1603185586
 10
-5.1012571131
 20
0.1272028851
 10
-5.1309243877
 20
0.09705112
 10
-5.1636096072
 20
0.0702007303
 10
-5.1989471288
 20
0.0469519967
 10
-5.2365418326
 20
0.0275647885
 10
-5.2759732262
 20
0.0122558802
 10
-5.3168003192
 20
0.0011964029
 10
-5.358566565
 20
-0.0054900485
 10
-5.4008049087
 20
-0.0077287742
  0
LWPOLYLINE
  5
2C1
100
AcDbEntity
  8
ASSI
100
AcDbPolyline
 62
250
  6
CONTINUOUS
 90
13
 70
0
 10
-5.0188237336
 20
0.273604431
 10
-5.0334914779
 20
0.2339309082
 10
-5.0522668025
 20
0.1960276547
 10
-5.0749398143
 20
0.1603185586
 10
-5.1012571131
 20
0.1272028851
 10
-5.1309243877
 20
0.09705112
 10
-5.1636096072
 20
0.0702007303
 10
-5.1989471288
 20
0.0469519967
 10
-5.2365418326
 20
0.0275647885
 10
-5.2759732262
 20
0.0122558802
 10
-5.3168003192
 20
0.0011964029
 10
-5.358566565
 20
-0.0054900485
 10
-5.4008049087
 20
-0.0077287742
  0
LWPOLYLINE
  5
2C2
100
AcDbEntity
  8
RACCORDO
100
AcDbPolyline
 62
250
  6
CONTINUOUS
 90
13
 70
0
 10
-5.4008049087
 20
-0.3591297785
 10
-5.4024246509
 20
-0.3631198391
 10
-5.4046621935
 20
-0.3737490775
 10
-5.4071050056
 20
-0.3906283047
 10
-5.4089910598
 20
-0.4137410443
 10
-5.4104984247
 20
-0.4430193967
 10
-5.4124545736
 20
-0.4777113713
 10
-5.4140613121
 20
-0.5169241604
 10
-5.4148750095
 20
-0.5603100906
 10
-5.4160467388
 20
-0.6072370618
 10
-5.4175612075
 20
-0.6568029593
 10
-5.4181973345
 20
-0.7079628236
 10
-5.4173399217
 20
-0.7596665435
  0
LWPOLYLINE
  5
2C3
100
AcDbEntity
  8
ASSI
100
AcDbPolyline
 62
250
  6
CONTINUOUS
 90
13
 70
0
 10
-5.4008049087
 20
-0.3591297785
 10
-5.4024246509
 20
-0.3631198391
 10
-5.4046621935
 20
-0.3737490775
 10
-5.4071050056
 20
-0.3906283047
 10
-5.4089910598
 20
-0.4137410443
 10
-5.4104984247
 20
-0.4430193967
 10
-5.4124545736
 20
-0.4777113713
 10
-5.4140613121
 20
-0.5169241604
 10
-5.4148750095
 20
-0.5603100906
 10
-5.4160467388
 20
-0.6072370618
 10
-5.4175612075
 20
-0.6568029593
 10
-5.4181973345
 20
-0.7079628236
 10
-5.4173399217
 20
-0.7596665435
  0
LINE
  5
2C4
100
AcDbEntity
  8
RACCORDO
100
AcDbLine
 62
250
  6
CONTINUOUS
 10
-5.4008049137
 20
-0.3591297785
 11
-5.3892050252
 21
-0.3434292763
  0
LINE
  5
2C5
100
AcDbEntity
  8
ASSI
100
AcDbLine
 62
250
  6
CONTINUOUS
 10
-5.4008049137
 20
-0.3591297785
 11
-5.3892050252
 21
-0.3434292763
  0
LINE
  5
2C6
100
AcDbEntity
  8
RACCORDO
100
AcDbLine
 62
250
  6
CONTINUOUS
 10
-5.0188237332
 20
-0.6404629848
 11
-5.0065186352
 21
-0.627057084
  0
LINE
  5
2C7
100
AcDbEntity
  8
ASSI
100
AcDbLine
 62
250
  6
CONTINUOUS
 10
-5.0188237332
 20
-0.6404629848
 11
-5.0065186352
 21
-0.627057084
  0
LINE
  5
2C8
100
AcDbEntity
  8
DRAFT
100
AcDbLine
 62
7
  6
CONTINUOUS
 10
-10.2724712171
 20
-0.0504825665
 11
-10.2183605158
 21
-0.0234292763
  0
LINE
  5
2C9
100
AcDbEntity
  8
ASSI
100
AcDbLine
 62
7
  6
CONTINUOUS
 10
-10.2724712171
 20
-0.0504825665
 11
-10.2183605158
 21
-0.0234292763
  0
LINE
  5
2CA
100
AcDbEntity
  8
RACCORDO
100
AcDbLine
 62
250
  6
CONTINUOUS
 10
-11.35568444
 20
0.3883623073
 11
-11.4724712171
 21
0.3494412878
  0
LINE
  5
2CB
100
AcDbEntity
  8
ASSI
100
AcDbLine
 62
250
  6
CONTINUOUS
 10
-11.35568444
 20
0.3883623073
 11
-11.4724712171
 21
0.3494412878
  0
LINE
  5
2CC
100
AcDbEntity
  8
RACCORDO
100
AcDbLine
 62
250
  6
CONTINUOUS
 10
-10.9558215101
 20
-0.011622462
 11
-11.0724255051
 21
-0.0504825665
  0
LINE
  5
2CD
100
AcDbEntity
  8
ASSI
100
AcDbLine
 62
250
  6
CONTINUOUS
 10
-10.9558215101
 20
-0.011622462
 11
-11.0724255051
 21
-0.0504825665
  0
LWPOLYLINE
  5
2CE
100
AcDbEntity
  8
0
100
AcDbPolyline
 62
7
  6
CONTINUOUS
 90
2
 70
0
 43
0.3500000006
 10
17.9984408684
 20
-3.4691439514
 10
16.4984404106
 20
-3.4691439514
  0
LINE
  5
2CF
100
AcDbEntity
  8
RACCORDO
100
AcDbLine
 62
250
  6
CONTINUOUS
 10
-11.4724712171
 20
-0.7162998404
 11
-11.3556844417
 21
-0.7552208593
  0
LINE
  5
2D0
100
AcDbEntity
  8
ASSI
100
AcDbLine
 62
250
  6
CONTINUOUS
 10
-11.4724712171
 20
-0.7162998404
 11
-11.3556844417
 21
-0.7552208593
  0
LINE
  5
2D1
100
AcDbEntity
  8
RACCORDO
100
AcDbLine
 62
250
  6
CONTINUOUS
 10
-11.0724255051
 20
-0.3163759862
 11
-10.9558215118
 21
-0.3552360901
  0
LINE
  5
2D2
100
AcDbEntity
  8
ASSI
100
AcDbLine
 62
250
  6
CONTINUOUS
 10
-11.0724255051
 20
-0.3163759862
 11
-10.9558215118
 21
-0.3552360901
  0
LINE
  5
2D3
100
AcDbEntity
  8
DRAFT
100
AcDbLine
 62
7
  6
CONTINUOUS
 10
-10.2183605158
 20
-0.3434292763
 11
-10.2724712171
 21
-0.3163759862
  0
LINE
  5
2D4
100
AcDbEntity
  8
ASSI
100
AcDbLine
 62
7
  6
CONTINUOUS
 10
-10.2183605158
 20
-0.3434292763
 11
-10.2724712171
 21
-0.3163759862
  0
LINE
  5
2D5
100
AcDbEntity
  8
RACCORDO
100
AcDbLine
 62
250
  6
CONTINUOUS
 10
-5.0065186352
 20
0.2601985314
 11
-5.0188237332
 21
0.2736044322
  0
LINE
  5
2D6
100
AcDbEntity
  8
ASSI
100
AcDbLine
 62
250
  6
CONTINUOUS
 10
-5.0065186352
 20
0.2601985314
 11
-5.0188237332
 21
0.2736044322
  0
LINE
  5
2D7
100
AcDbEntity
  8
RACCORDO
100
AcDbLine
 62
250
  6
CONTINUOUS
 10
-5.3892050252
 20
-0.0234292763
 11
-5.4008049137
 21
-0.0077287742
  0
LINE
  5
2D8
100
AcDbEntity
  8
ASSI
100
AcDbLine
 62
250
  6
CONTINUOUS
 10
-5.3892050252
 20
-0.0234292763
 11
-5.4008049137
 21
-0.0077287742
  0
LWPOLYLINE
  5
2D9
100
AcDbEntity
  8
RACCORDO
100
AcDbPolyline
 62
7
  6
CONTINUOUS
 90
11
 70
0
 10
-5.0325390867
 20
-0.5621467496
 10
-5.0504977058
 20
-0.5303786255
 10
-5.0712075809
 20
-0.5004931869
 10
-5.0944347668
 20
-0.4727381577
 10
-5.1199853919
 20
-0.4472835265
 10
-5.1477295882
 20
-0.4242406411
 10
-5.1774471147
 20
-0.403804751
 10
-5.2088960086
 20
-0.3861406257
 10
-5.2419270521
 20
-0.3713318515
 10
-5.2763241518
 20
-0.3595196294
 10
-5.3117921331
 20
-0.3508740172
  0
LWPOLYLINE
  5
2DA
100
AcDbEntity
  8
ASSI
100
AcDbPolyline
 62
7
  6
CONTINUOUS
 90
11
 70
0
 10
-5.0325390867
 20
-0.5621467496
 10
-5.0504977058
 20
-0.5303786255
 10
-5.0712075809
 20
-0.5004931869
 10
-5.0944347668
 20
-0.4727381577
 10
-5.1199853919
 20
-0.4472835265
 10
-5.1477295882
 20
-0.4242406411
 10
-5.1774471147
 20
-0.403804751
 10
-5.2088960086
 20
-0.3861406257
 10
-5.2419270521
 20
-0.3713318515
 10
-5.2763241518
 20
-0.3595196294
 10
-5.3117921331
 20
-0.3508740172
  0
LINE
  5
2DB
100
AcDbEntity
  8
RACCORDO
100
AcDbLine
 62
7
  6
CONTINUOUS
 10
-5.0175203347
 20
-0.5955640197
 11
-5.0325390867
 21
-0.5621467496
  0
LINE
  5
2DC
100
AcDbEntity
  8
ASSI
100
AcDbLine
 62
7
  6
CONTINUOUS
 10
-5.0175203347
 20
-0.5955640197
 11
-5.0325390867
 21
-0.5621467496
  0
LWPOLYLINE
  5
2DD
100
AcDbEntity
  8
RACCORDO
100
AcDbPolyline
 62
250
  6
CONTINUOUS
 90
13
 70
0
 10
-5.4008049087
 20
-0.0077287742
 10
-5.402424822
 20
-0.0037391459
 10
-5.4046622017
 20
0.0068890257
 10
-5.4071047084
 20
0.0237667891
 10
-5.40899066
 20
0.0468778632
 10
-5.4104981238
 20
0.0761545496
 10
-5.4124542508
 20
0.1108451782
 10
-5.4140609217
 20
0.1500573513
 10
-5.4148747384
 20
0.1934435291
 10
-5.4160466119
 20
0.2403714837
 10
-5.4175611637
 20
0.289939031
 10
-5.4181973553
 20
0.3411012709
 10
-5.4173399217
 20
0.3928079908
  0
LWPOLYLINE
  5
2DE
100
AcDbEntity
  8
ASSI
100
AcDbPolyline
 62
250
  6
CONTINUOUS
 90
13
 70
0
 10
-5.4008049087
 20
-0.0077287742
 10
-5.402424822
 20
-0.0037391459
 10
-5.4046622017
 20
0.0068890257
 10
-5.4071047084
 20
0.0237667891
 10
-5.40899066
 20
0.0468778632
 10
-5.4104981238
 20
0.0761545496
 10
-5.4124542508
 20
0.1108451782
 10
-5.4140609217
 20
0.1500573513
 10
-5.4148747384
 20
0.1934435291
 10
-5.4160466119
 20
0.2403714837
 10
-5.4175611637
 20
0.289939031
 10
-5.4181973553
 20
0.3411012709
 10
-5.4173399217
 20
0.3928079908
  0
LWPOLYLINE
  5
2DF
100
AcDbEntity
  8
RACCORDO
100
AcDbPolyline
 62
7
  6
CONTINUOUS
 90
10
 70
0
 10
-5.0175203234
 20
-0.5955640165
 10
-5.016158653
 20
-0.5990517304
 10
-5.0148322956
 20
-0.6025410192
 10
-5.0135412196
 20
-0.6060321857
 10
-5.0122859431
 20
-0.6095247221
 10
-5.0110658853
 20
-0.613019741
 10
-5.0098793482
 20
-0.6165199613
 10
-5.0087257216
 20
-0.6200264732
 10
-5.0076055027
 20
-0.623538753
 10
-5.0065186352
 20
-0.627057084
  0
LWPOLYLINE
  5
2E0
100
AcDbEntity
  8
ASSI
100
AcDbPolyline
 62
7
  6
CONTINUOUS
 90
10
 70
0
 10
-5.0175203234
 20
-0.5955640165
 10
-5.016158653
 20
-0.5990517304
 10
-5.0148322956
 20
-0.6025410192
 10
-5.0135412196
 20
-0.6060321857
 10
-5.0122859431
 20
-0.6095247221
 10
-5.0110658853
 20
-0.613019741
 10
-5.0098793482
 20
-0.6165199613
 10
-5.0087257216
 20
-0.6200264732
 10
-5.0076055027
 20
-0.623538753
 10
-5.0065186352
 20
-0.627057084
  0
LWPOLYLINE
  5
2E1
100
AcDbEntity
  8
RACCORDO
100
AcDbPolyline
 62
250
  6
CONTINUOUS
 90
19
 70
0
 10
-5.0188237332
 20
-0.6404629848
 10
-4.9831681322
 20
-0.7425157712
 10
-4.9403781838
 20
-0.8419627009
 10
-4.8906341074
 20
-0.9382999491
 10
-4.8341173109
 20
-1.0310886663
 10
-4.7711066764
 20
-1.1197928009
 10
-4.7020143292
 20
-1.2038075094
 10
-4.6272470002
 20
-1.2826619028
 10
-4.5471318979
 20
-1.3560326103
 10
-4.4620294083
 20
-1.4235899394
 10
-4.3723635912
 20
-1.4849921742
 10
-4.2785742705
 20
-1.5399332884
 10
-4.1810659542
 20
-1.5881622975
 10
-4.080238903
 20
-1.6294510706
 10
-3.9766628386
 20
-1.6635371143
 10
-3.8710289484
 20
-1.6901933542
 10
-3.7639304581
 20
-1.7092975161
 10
-3.6558463004
 20
-1.7207916064
 10
-3.5473163326
 20
-1.7246386654
  0
LWPOLYLINE
  5
2E2
100
AcDbEntity
  8
ASSI
100
AcDbPolyline
 62
250
  6
CONTINUOUS
 90
19
 70
0
 10
-5.0188237332
 20
-0.6404629848
 10
-4.9831681322
 20
-0.7425157712
 10
-4.9403781838
 20
-0.8419627009
 10
-4.8906341074
 20
-0.9382999491
 10
-4.8341173109
 20
-1.0310886663
 10
-4.7711066764
 20
-1.1197928009
 10
-4.7020143292
 20
-1.2038075094
 10
-4.6272470002
 20
-1.2826619028
 10
-4.5471318979
 20
-1.3560326103
 10
-4.4620294083
 20
-1.4235899394
 10
-4.3723635912
 20
-1.4849921742
 10
-4.2785742705
 20
-1.5399332884
 10
-4.1810659542
 20
-1.5881622975
 10
-4.080238903
 20
-1.6294510706
 10
-3.9766628386
 20
-1.6635371143
 10
-3.8710289484
 20
-1.6901933542
 10
-3.7639304581
 20
-1.7092975161
 10
-3.6558463004
 20
-1.7207916064
 10
-3.5473163326
 20
-1.7246386654
  0
LWPOLYLINE
  5
2E3
100
AcDbEntity
  8
RACCORDO
100
AcDbPolyline
 62
250
  6
CONTINUOUS
 90
10
 70
0
 10
-3.5474712171
 20
-1.7246386272
 10
-3.5488285711
 20
-1.7284977244
 10
-3.5501628167
 20
-1.7391006677
 10
-3.5514512392
 20
-1.7562669471
 10
-3.5526719038
 20
-1.7797043151
 10
-3.5538040292
 20
-1.809013762
 10
-3.5548283416
 20
-1.8436963087
 10
-3.5557274026
 20
-1.8831615019
 10
-3.556485906
 20
-1.9267374659
 10
-3.5575322004
 20
-2.0231969141
  0
LWPOLYLINE
  5
2E4
100
AcDbEntity
  8
ASSI
100
AcDbPolyline
 62
250
  6
CONTINUOUS
 90
10
 70
0
 10
-3.5474712171
 20
-1.7246386272
 10
-3.5488285711
 20
-1.7284977244
 10
-3.5501628167
 20
-1.7391006677
 10
-3.5514512392
 20
-1.7562669471
 10
-3.5526719038
 20
-1.7797043151
 10
-3.5538040292
 20
-1.809013762
 10
-3.5548283416
 20
-1.8436963087
 10
-3.5557274026
 20
-1.8831615019
 10
-3.556485906
 20
-1.9267374659
 10
-3.5575322004
 20
-2.0231969141
  0
LWPOLYLINE
  5
2E5
100
AcDbEntity
  8
RACCORDO
100
AcDbPolyline
 62
250
  6
CONTINUOUS
 90
19
 70
0
 10
2.8129538435
 20
-2.1265339109
 10
2.9510722464
 20
-2.1215403655
 10
3.0873016753
 20
-2.1070840202
 10
3.2216421334
 20
-2.0831649155
 10
3.3548188105
 20
-2.049550569
 10
3.4861065151
 20
-2.0064735409
 10
3.6133298108
 20
-1.9546314338
 10
3.7363285395
 20
-1.8939116944
 10
3.8552631774
 20
-1.8244269423
 10
3.9684394684
 20
-1.7472125317
 10
4.0757745872
 20
-1.6621748417
 10
4.1773518871
 20
-1.569407532
 10
4.2717265501
 20
-1.4702268623
 10
4.3588412678
 20
-1.3644578043
 10
4.4387539841
 20
-1.252275388
 10
4.5101928683
 20
-1.1355209413
 10
4.5727342044
 20
-1.0148082231
 10
4.6268023263
 20
-0.8895234326
 10
4.6723974875
 20
-0.7596665435
  0
LWPOLYLINE
  5
2E6
100
AcDbEntity
  8
ASSI
100
AcDbPolyline
 62
250
  6
CONTINUOUS
 90
19
 70
0
 10
2.8129538435
 20
-2.1265339109
 10
2.9510722464
 20
-2.1215403655
 10
3.0873016753
 20
-2.1070840202
 10
3.2216421334
 20
-2.0831649155
 10
3.3548188105
 20
-2.049550569
 10
3.4861065151
 20
-2.0064735409
 10
3.6133298108
 20
-1.9546314338
 10
3.7363285395
 20
-1.8939116944
 10
3.8552631774
 20
-1.8244269423
 10
3.9684394684
 20
-1.7472125317
 10
4.0757745872
 20
-1.6621748417
 10
4.1773518871
 20
-1.569407532
 10
4.2717265501
 20
-1.4702268623
 10
4.3588412678
 20
-1.3644578043
 10
4.4387539841
 20
-1.252275388
 10
4.5101928683
 20
-1.1355209413
 10
4.5727342044
 20
-1.0148082231
 10
4.6268023263
 20
-0.8895234326
 10
4.6723974875
 20
-0.7596665435
  0
LWPOLYLINE
  5
2E7
100
AcDbEntity
  8
RACCORDO
100
AcDbPolyline
 62
250
  6
CONTINUOUS
 90
19
 70
0
 10
2.8023717009
 20
-1.7246386659
 10
2.9108146629
 20
-1.7207979194
 10
3.0188294726
 20
-1.709320049
 10
3.1258769496
 20
-1.6902384071
 10
3.231480361
 20
-1.6636067791
 10
3.3350440427
 20
-1.6295441369
 10
3.4358701942
 20
-1.5882766243
 10
3.5333916177
 20
-1.5400628235
 10
3.6272035074
 20
-1.4851301791
 10
3.7168859918
 20
-1.4237382181
 10
3.8019909975
 20
-1.356201871
 10
3.8821054419
 20
-1.2828575699
 10
3.9568819754
 20
-1.2040224691
 10
4.0259937537
 20
-1.1200156601
 10
4.0890298359
 20
-1.0313088812
 10
4.1455799966
 20
-0.9384987141
 10
4.1953627729
 20
-0.8421171097
 10
4.2381913142
 20
-0.742604104
 10
4.273881299
 20
-0.6404629848
  0
LWPOLYLINE
  5
2E8
100
AcDbEntity
  8
ASSI
100
AcDbPolyline
 62
250
  6
CONTINUOUS
 90
19
 70
0
 10
2.8023717009
 20
-1.7246386659
 10
2.9108146629
 20
-1.7207979194
 10
3.0188294726
 20
-1.709320049
 10
3.1258769496
 20
-1.6902384071
 10
3.231480361
 20
-1.6636067791
 10
3.3350440427
 20
-1.6295441369
 10
3.4358701942
 20
-1.5882766243
 10
3.5333916177
 20
-1.5400628235
 10
3.6272035074
 20
-1.4851301791
 10
3.7168859918
 20
-1.4237382181
 10
3.8019909975
 20
-1.356201871
 10
3.8821054419
 20
-1.2828575699
 10
3.9568819754
 20
-1.2040224691
 10
4.0259937537
 20
-1.1200156601
 10
4.0890298359
 20
-1.0313088812
 10
4.1455799966
 20
-0.9384987141
 10
4.1953627729
 20
-0.8421171097
 10
4.2381913142
 20
-0.742604104
 10
4.273881299
 20
-0.6404629848
  0
LINE
  5
2E9
100
AcDbEntity
  8
DRAFT
100
AcDbLine
 62
7
  6
CONTINUOUS
 10
2.8025287829
 20
-1.7084292763
 11
-3.5474709053
 21
-1.7084292763
  0
LINE
  5
2EA
100
AcDbEntity
  8
ASSI
100
AcDbLine
 62
7
  6
CONTINUOUS
 10
2.8025287829
 20
-1.7084292763
 11
-3.5474709053
 21
-1.7084292763
  0
LINE
  5
2EB
100
AcDbEntity
  8
RACCORDO
100
AcDbLine
 62
250
  6
CONTINUOUS
 10
-3.5578962777
 20
-2.1265339109
 11
2.8129538435
 21
-2.1265339109
  0
LINE
  5
2EC
100
AcDbEntity
  8
ASSI
100
AcDbLine
 62
250
  6
CONTINUOUS
 10
-3.5578962777
 20
-2.1265339109
 11
2.8129538435
 21
-2.1265339109
  0
LINE
  5
2ED
100
AcDbEntity
  8
RACCORDO
100
AcDbLine
 62
250
  6
CONTINUOUS
 10
-3.5473163328
 20
-1.7246386507
 11
2.8023717011
 21
-1.724638651
  0
LINE
  5
2EE
100
AcDbEntity
  8
ASSI
100
AcDbLine
 62
250
  6
CONTINUOUS
 10
-3.5473163328
 20
-1.7246386507
 11
2.8023717011
 21
-1.724638651
  0
LWPOLYLINE
  5
2EF
100
AcDbEntity
  8
RACCORDO
100
AcDbPolyline
 62
250
  6
CONTINUOUS
 90
9
 70
0
 10
-3.5474712145
 20
1.3577674837
 10
-3.5488285828
 20
1.3616267917
 10
-3.5501628415
 20
1.3722302165
 10
-3.5514512744
 20
1.389397231
 10
-3.5526719457
 20
1.412835561
 10
-3.553804073
 20
1.4421461608
 10
-3.5548283809
 20
1.4768300073
 10
-3.5557274301
 20
1.5162965961
 10
-3.5564859142
 20
1.5598739949
  0
LWPOLYLINE
  5
2F0
100
AcDbEntity
  8
ASSI
100
AcDbPolyline
 62
250
  6
CONTINUOUS
 90
9
 70
0
 10
-3.5474712145
 20
1.3577674837
 10
-3.5488285828
 20
1.3616267917
 10
-3.5501628415
 20
1.3722302165
 10
-3.5514512744
 20
1.389397231
 10
-3.5526719457
 20
1.412835561
 10
-3.553804073
 20
1.4421461608
 10
-3.5548283809
 20
1.4768300073
 10
-3.5557274301
 20
1.5162965961
 10
-3.5564859142
 20
1.5598739949
  0
LINE
  5
2F1
100
AcDbEntity
  8
RACCORDO
100
AcDbLine
 62
250
  6
CONTINUOUS
 10
10.1400503449
 20
21.8413158579
 11
10.207287994
 21
21.9758834294
  0
LINE
  5
2F2
100
AcDbEntity
  8
ASSI
100
AcDbLine
 62
250
  6
CONTINUOUS
 10
10.1400503449
 20
21.8413158579
 11
10.207287994
 21
21.9758834294
  0
LINE
  5
2F3
100
AcDbEntity
  8
RACCORDO
100
AcDbLine
 62
250
  6
CONTINUOUS
 10
-11.3848214416
 20
-21.7088596431
 11
-11.4528568499
 21
-21.8450238277
  0
LINE
  5
2F4
100
AcDbEntity
  8
ASSI
100
AcDbLine
 62
250
  6
CONTINUOUS
 10
-11.3848214416
 20
-21.7088596431
 11
-11.4528568499
 21
-21.8450238277
  0
LWPOLYLINE
  5
2F5
100
AcDbEntity
  8
RACCORDO
100
AcDbPolyline
 62
250
  6
CONTINUOUS
 90
4
 70
0
 10
-5.0743579586
 20
-0.6552042951
 10
-5.1237463096
 20
-0.6700296338
 10
-5.1534274601
 20
-0.6786861665
 10
-5.220747788
 20
-0.6992950819
  0
LWPOLYLINE
  5
2F6
100
AcDbEntity
  8
ASSI
100
AcDbPolyline
 62
250
  6
CONTINUOUS
 90
4
 70
0
 10
-5.0743579586
 20
-0.6552042951
 10
-5.1237463096
 20
-0.6700296338
 10
-5.1534274601
 20
-0.6786861665
 10
-5.220747788
 20
-0.6992950819
  0
LWPOLYLINE
  5
2F7
100
AcDbEntity
  8
RACCORDO
100
AcDbPolyline
 62
250
  6
CONTINUOUS
 90
6
 70
0
 10
-5.220747788
 20
-0.6992950819
 10
-5.2577057127
 20
-0.7103317312
 10
-5.2962983674
 20
-0.7222567267
 10
-5.3360638251
 20
-0.7349464616
 10
-5.3765684746
 20
-0.7475774912
 10
-5.4173399217
 20
-0.7596665435
  0
LWPOLYLINE
  5
2F8
100
AcDbEntity
  8
ASSI
100
AcDbPolyline
 62
250
  6
CONTINUOUS
 90
6
 70
0
 10
-5.220747788
 20
-0.6992950819
 10
-5.2577057127
 20
-0.7103317312
 10
-5.2962983674
 20
-0.7222567267
 10
-5.3360638251
 20
-0.7349464616
 10
-5.3765684746
 20
-0.7475774912
 10
-5.4173399217
 20
-0.7596665435
  0
LINE
  5
2F9
100
AcDbEntity
  8
RACCORDO
100
AcDbLine
 62
250
  6
CONTINUOUS
 10
4.2947779688
 20
0.2786509969
 11
4.3294155244
 21
0.2883457425
  0
LINE
  5
2FA
100
AcDbEntity
  8
ASSI
100
AcDbLine
 62
250
  6
CONTINUOUS
 10
4.2947779688
 20
0.2786509969
 11
4.3294155244
 21
0.2883457425
  0
LWPOLYLINE
  5
2FB
100
AcDbEntity
  8
RACCORDO
100
AcDbPolyline
 62
7
  6
CONTINUOUS
 90
12
 70
0
 10
4.5668498347
 20
-0.3508739848
 10
4.5313818626
 20
-0.3595195822
 10
4.4969847633
 20
-0.371331792
 10
4.4639537133
 20
-0.386140555
 10
4.4325048078
 20
-0.4038046707
 10
4.4027872662
 20
-0.4242405553
 10
4.3750430514
 20
-0.4472834409
 10
4.3494924062
 20
-0.4727380774
 10
4.3262652013
 20
-0.5004931157
 10
4.3055553092
 20
-0.5303785671
 10
4.2875966744
 20
-0.5621467088
 10
4.2725779083
 20
-0.5955640019
  0
LWPOLYLINE
  5
2FC
100
AcDbEntity
  8
ASSI
100
AcDbPolyline
 62
7
  6
CONTINUOUS
 90
12
 70
0
 10
4.5668498347
 20
-0.3508739848
 10
4.5313818626
 20
-0.3595195822
 10
4.4969847633
 20
-0.371331792
 10
4.4639537133
 20
-0.386140555
 10
4.4325048078
 20
-0.4038046707
 10
4.4027872662
 20
-0.4242405553
 10
4.3750430514
 20
-0.4472834409
 10
4.3494924062
 20
-0.4727380774
 10
4.3262652013
 20
-0.5004931157
 10
4.3055553092
 20
-0.5303785671
 10
4.2875966744
 20
-0.5621467088
 10
4.2725779083
 20
-0.5955640019
  0
LINE
  5
2FD
100
AcDbEntity
  8
RACCORDO
100
AcDbLine
 62
7
  6
CONTINUOUS
 10
4.6031148462
 20
-0.3455186082
 11
4.5668498347
 21
-0.3508739848
  0
LINE
  5
2FE
100
AcDbEntity
  8
ASSI
100
AcDbLine
 62
7
  6
CONTINUOUS
 10
4.6031148462
 20
-0.3455186082
 11
4.5668498347
 21
-0.3508739848
  0
LWPOLYLINE
  5
2FF
100
AcDbEntity
  8
RACCORDO
100
AcDbPolyline
 62
7
  6
CONTINUOUS
 90
10
 70
0
 10
4.6031148462
 20
-0.345518832
 10
4.6077200486
 20
-0.3450772298
 10
4.6123159373
 20
-0.3446882819
 10
4.6169025122
 20
-0.3443519883
 10
4.6214784319
 20
-0.344068745
 10
4.6260450378
 20
-0.3438381561
 10
4.6306063543
 20
-0.3436590335
 10
4.6351637227
 20
-0.3435309814
 10
4.6397158016
 20
-0.3434543956
 10
4.644262591
 20
-0.3434292763
  0
LWPOLYLINE
  5
300
100
AcDbEntity
  8
ASSI
100
AcDbPolyline
 62
7
  6
CONTINUOUS
 90
10
 70
0
 10
4.6031148462
 20
-0.345518832
 10
4.6077200486
 20
-0.3450772298
 10
4.6123159373
 20
-0.3446882819
 10
4.6169025122
 20
-0.3443519883
 10
4.6214784319
 20
-0.344068745
 10
4.6260450378
 20
-0.3438381561
 10
4.6306063543
 20
-0.3436590335
 10
4.6351637227
 20
-0.3435309814
 10
4.6397158016
 20
-0.3434543956
 10
4.644262591
 20
-0.3434292763
  0
LWPOLYLINE
  5
301
100
AcDbEntity
  8
RACCORDO
100
AcDbPolyline
 62
250
  6
CONTINUOUS
 90
13
 70
0
 10
10.2108790776
 20
-0.0116224626
 10
10.2630619593
 20
-0.0081898919
 10
10.3143526687
 20
0.0020253585
 10
10.3638738946
 20
0.0188487076
 10
10.410778529
 20
0.0419925208
 10
10.4542642596
 20
0.0710610721
 10
10.4935872694
 20
0.1055573483
 10
10.5280748614
 20
0.1448914965
 10
10.557136897
 20
0.1883907568
 10
10.5802760322
 20
0.2353110048
 10
10.5970963184
 20
0.2848496297
 10
10.6073099255
 20
0.3361592974
 10
10.6107420074
 20
0.3883623067
  0
LWPOLYLINE
  5
302
100
AcDbEntity
  8
ASSI
100
AcDbPolyline
 62
250
  6
CONTINUOUS
 90
13
 70
0
 10
10.2108790776
 20
-0.0116224626
 10
10.2630619593
 20
-0.0081898919
 10
10.3143526687
 20
0.0020253585
 10
10.3638738946
 20
0.0188487076
 10
10.410778529
 20
0.0419925208
 10
10.4542642596
 20
0.0710610721
 10
10.4935872694
 20
0.1055573483
 10
10.5280748614
 20
0.1448914965
 10
10.557136897
 20
0.1883907568
 10
10.5802760322
 20
0.2353110048
 10
10.5970963184
 20
0.2848496297
 10
10.6073099255
 20
0.3361592974
 10
10.6107420074
 20
0.3883623067
  0
LWPOLYLINE
  5
303
100
AcDbEntity
  8
RACCORDO
100
AcDbPolyline
 62
250
  6
CONTINUOUS
 90
5
 70
0
 10
10.2024290618
 20
-0.3555646528
 10
10.2059150342
 20
-0.3554856812
 10
10.2084648043
 20
-0.3554049675
 10
10.2101194849
 20
-0.3553217706
 10
10.2108790759
 20
-0.3552360906
  0
LWPOLYLINE
  5
304
100
AcDbEntity
  8
ASSI
100
AcDbPolyline
 62
250
  6
CONTINUOUS
 90
5
 70
0
 10
10.2024290618
 20
-0.3555646528
 10
10.2059150342
 20
-0.3554856812
 10
10.2084648043
 20
-0.3554049675
 10
10.2101194849
 20
-0.3553217706
 10
10.2108790759
 20
-0.3552360906
  0
LWPOLYLINE
  5
305
100
AcDbEntity
  8
RACCORDO
100
AcDbPolyline
 62
250
  6
CONTINUOUS
 90
4
 70
0
 10
-5.0188237336
 20
-0.6404629836
 10
-5.0216529196
 20
-0.6405151966
 10
-5.0286536858
 20
-0.6422839891
 10
-5.039720403
 20
-0.6455095495
  0
LWPOLYLINE
  5
306
100
AcDbEntity
  8
ASSI
100
AcDbPolyline
 62
250
  6
CONTINUOUS
 90
4
 70
0
 10
-5.0188237336
 20
-0.6404629836
 10
-5.0216529196
 20
-0.6405151966
 10
-5.0286536858
 20
-0.6422839891
 10
-5.039720403
 20
-0.6455095495
  0
LWPOLYLINE
  5
307
100
AcDbEntity
  8
RACCORDO
100
AcDbPolyline
 62
250
  6
CONTINUOUS
 90
3
 70
0
 10
10.5987869478
 20
-0.7554810445
 10
10.607108727
 20
-0.7553523541
 10
10.6107420059
 20
-0.7552208599
  0
LWPOLYLINE
  5
308
100
AcDbEntity
  8
ASSI
100
AcDbPolyline
 62
250
  6
CONTINUOUS
 90
3
 70
0
 10
10.5987869478
 20
-0.7554810445
 10
10.607108727
 20
-0.7553523541
 10
10.6107420059
 20
-0.7552208599
  0
LINE
  5
309
100
AcDbEntity
  8
RACCORDO
100
AcDbLine
 62
250
  6
CONTINUOUS
 10
10.1928951867
 20
-0.3557129233
 11
10.2024290618
 21
-0.3555646528
  0
LINE
  5
30A
100
AcDbEntity
  8
ASSI
100
AcDbLine
 62
250
  6
CONTINUOUS
 10
10.1928951867
 20
-0.3557129233
 11
10.2024290618
 21
-0.3555646528
  0
LINE
  5
30B
100
AcDbEntity
  8
RACCORDO
100
AcDbLine
 62
250
  6
CONTINUOUS
 10
10.1729295783
 20
-0.3558978075
 11
10.1928951867
 21
-0.3557129233
  0
LINE
  5
30C
100
AcDbEntity
  8
ASSI
100
AcDbLine
 62
250
  6
CONTINUOUS
 10
10.1729295783
 20
-0.3558978075
 11
10.1928951867
 21
-0.3557129233
  0
LINE
  5
30D
100
AcDbEntity
  8
RACCORDO
100
AcDbLine
 62
250
  6
CONTINUOUS
 10
10.5467189365
 20
-0.7558462199
 11
10.5987869478
 21
-0.7554810445
  0
LINE
  5
30E
100
AcDbEntity
  8
ASSI
100
AcDbLine
 62
250
  6
CONTINUOUS
 10
10.5467189365
 20
-0.7558462199
 11
10.5987869478
 21
-0.7554810445
  0
LINE
  5
30F
100
AcDbEntity
  8
RACCORDO
100
AcDbLine
 62
250
  6
CONTINUOUS
 10
10.1292518095
 20
-0.3560710056
 11
10.1729295783
 21
-0.3558978075
  0
LINE
  5
310
100
AcDbEntity
  8
ASSI
100
AcDbLine
 62
250
  6
CONTINUOUS
 10
10.1292518095
 20
-0.3560710056
 11
10.1729295783
 21
-0.3558978075
  0
LINE
  5
311
100
AcDbEntity
  8
RACCORDO
100
AcDbLine
 62
250
  6
CONTINUOUS
 10
4.6723974875
 20
-0.7596665435
 11
10.5467189365
 21
-0.7558462199
  0
LINE
  5
312
100
AcDbEntity
  8
ASSI
100
AcDbLine
 62
250
  6
CONTINUOUS
 10
4.6723974875
 20
-0.7596665435
 11
10.5467189365
 21
-0.7558462199
  0
LINE
  5
313
100
AcDbEntity
  8
RACCORDO
100
AcDbLine
 62
250
  6
CONTINUOUS
 10
4.6558624795
 20
-0.3591297785
 11
10.1292518095
 21
-0.3560710056
  0
LINE
  5
314
100
AcDbEntity
  8
ASSI
100
AcDbLine
 62
250
  6
CONTINUOUS
 10
4.6558624795
 20
-0.3591297785
 11
10.1292518095
 21
-0.3560710056
  0
LINE
  5
315
100
AcDbEntity
  8
RACCORDO
100
AcDbLine
 62
250
  6
CONTINUOUS
 10
-5.4008049137
 20
-0.0077287742
 11
-10.9014728051
 21
-0.0108689038
  0
LINE
  5
316
100
AcDbEntity
  8
ASSI
100
AcDbLine
 62
250
  6
CONTINUOUS
 10
-5.4008049137
 20
-0.0077287742
 11
-10.9014728051
 21
-0.0108689038
  0
LWPOLYLINE
  5
317
100
AcDbEntity
  8
0
100
AcDbPolyline
 62
7
  6
CONTINUOUS
 90
2
 70
0
 43
0.3500000006
 10
17.9984408684
 20
-1.1120010223
 10
16.4984404106
 20
-1.1120010223
  0
LINE
  5
318
100
AcDbEntity
  8
DRAFT
100
AcDbLine
 62
7
  6
CONTINUOUS
 10
9.4734180816
 20
-0.3434292763
 11
7.7275287829
 21
-0.3434292763
  0
LINE
  5
319
100
AcDbEntity
  8
RACCORDO
100
AcDbLine
 62
7
  6
CONTINUOUS
 10
7.7275287829
 20
-0.3434292763
 11
4.644262591
 21
-0.3434292763
  0
LINE
  5
31A
100
AcDbEntity
  8
ASSI
100
AcDbLine
 62
7
  6
CONTINUOUS
 10
9.4734180816
 20
-0.3434292763
 11
4.644262591
 21
-0.3434292763
  0
LINE
  5
31B
100
AcDbEntity
  8
RACCORDO
100
AcDbLine
 62
7
  6
CONTINUOUS
 10
-5.3892050252
 20
-0.3434292763
 11
-8.4724712171
 21
-0.3434292763
  0
LINE
  5
31C
100
AcDbEntity
  8
DRAFT
100
AcDbLine
 62
7
  6
CONTINUOUS
 10
-8.4724712171
 20
-0.3434292763
 11
-10.2183605158
 21
-0.3434292763
  0
LINE
  5
31D
100
AcDbEntity
  8
ASSI
100
AcDbLine
 62
7
  6
CONTINUOUS
 10
-5.3892050252
 20
-0.3434292763
 11
-10.2183605158
 21
-0.3434292763
  0
LINE
  5
31E
100
AcDbEntity
  8
RACCORDO
100
AcDbLine
 62
7
  6
CONTINUOUS
 10
-11.0724255051
 20
-0.3163759862
 11
-10.2724712171
 21
-0.3163759862
  0
LINE
  5
31F
100
AcDbEntity
  8
ASSI
100
AcDbLine
 62
7
  6
CONTINUOUS
 10
-11.0724255051
 20
-0.3163759862
 11
-10.2724712171
 21
-0.3163759862
  0
LINE
  5
320
100
AcDbEntity
  8
RACCORDO
100
AcDbLine
 62
7
  6
CONTINUOUS
 10
9.5275287829
 20
-0.3163759862
 11
10.3274830708
 21
-0.3163759862
  0
LINE
  5
321
100
AcDbEntity
  8
ASSI
100
AcDbLine
 62
7
  6
CONTINUOUS
 10
9.5275287829
 20
-0.3163759862
 11
10.3274830708
 21
-0.3163759862
  0
LINE
  5
322
100
AcDbEntity
  8
RACCORDO
100
AcDbLine
 62
7
  6
CONTINUOUS
 10
10.3274830708
 20
-0.0504825665
 11
9.5275287829
 21
-0.0504825665
  0
LINE
  5
323
100
AcDbEntity
  8
ASSI
100
AcDbLine
 62
7
  6
CONTINUOUS
 10
10.3274830708
 20
-0.0504825665
 11
9.5275287829
 21
-0.0504825665
  0
LINE
  5
324
100
AcDbEntity
  8
RACCORDO
100
AcDbLine
 62
7
  6
CONTINUOUS
 10
-10.2724712171
 20
-0.0504825665
 11
-11.0724255051
 21
-0.0504825665
  0
LINE
  5
325
100
AcDbEntity
  8
ASSI
100
AcDbLine
 62
7
  6
CONTINUOUS
 10
-10.2724712171
 20
-0.0504825665
 11
-11.0724255051
 21
-0.0504825665
  0
LINE
  5
326
100
AcDbEntity
  8
DRAFT
100
AcDbLine
 62
7
  6
CONTINUOUS
 10
-10.2183605158
 20
-0.0234292763
 11
-8.4724712171
 21
-0.0234292763
  0
LINE
  5
327
100
AcDbEntity
  8
RACCORDO
100
AcDbLine
 62
7
  6
CONTINUOUS
 10
-8.4724712171
 20
-0.0234292763
 11
-5.3892050252
 21
-0.0234292763
  0
LINE
  5
328
100
AcDbEntity
  8
ASSI
100
AcDbLine
 62
7
  6
CONTINUOUS
 10
-10.2183605158
 20
-0.0234292763
 11
-5.3892050252
 21
-0.0234292763
  0
LINE
  5
329
100
AcDbEntity
  8
RACCORDO
100
AcDbLine
 62
7
  6
CONTINUOUS
 10
4.644262591
 20
-0.0234292763
 11
7.7275287829
 21
-0.0234292763
  0
LINE
  5
32A
100
AcDbEntity
  8
DRAFT
100
AcDbLine
 62
7
  6
CONTINUOUS
 10
7.7275287829
 20
-0.0234292763
 11
9.4734180816
 21
-0.0234292763
  0
LINE
  5
32B
100
AcDbEntity
  8
ASSI
100
AcDbLine
 62
7
  6
CONTINUOUS
 10
4.644262591
 20
-0.0234292763
 11
9.4734180816
 21
-0.0234292763
  0
LINE
  5
32C
100
AcDbEntity
  8
RACCORDO
100
AcDbLine
 62
250
  6
CONTINUOUS
 10
10.1565303726
 20
-0.0108689044
 11
4.6558624795
 21
-0.0077287742
  0
LINE
  5
32D
100
AcDbEntity
  8
ASSI
100
AcDbLine
 62
250
  6
CONTINUOUS
 10
10.1565303726
 20
-0.0108689044
 11
4.6558624795
 21
-0.0077287742
  0
LINE
  5
32E
100
AcDbEntity
  8
RACCORDO
100
AcDbLine
 62
250
  6
CONTINUOUS
 10
-11.2916613724
 20
-0.7558462242
 11
-5.4173399217
 21
-0.7596665435
  0
LINE
  5
32F
100
AcDbEntity
  8
ASSI
100
AcDbLine
 62
250
  6
CONTINUOUS
 10
-11.2916613724
 20
-0.7558462242
 11
-5.4173399217
 21
-0.7596665435
  0
LINE
  5
330
100
AcDbEntity
  8
RACCORDO
100
AcDbLine
 62
250
  6
CONTINUOUS
 10
-10.9099643042
 20
-0.3559469498
 11
-5.4008049137
 21
-0.3591297785
  0
LINE
  5
331
100
AcDbEntity
  8
ASSI
100
AcDbLine
 62
250
  6
CONTINUOUS
 10
-10.9099643042
 20
-0.3559469498
 11
-5.4008049137
 21
-0.3591297785
  0
LWPOLYLINE
  5
332
100
AcDbEntity
  8
RACCORDO
100
AcDbPolyline
 62
7
  6
CONTINUOUS
 90
10
 70
0
 10
-5.3892050253
 20
-0.3434292763
 10
-5.3846582277
 20
-0.3434543957
 10
-5.3801061406
 20
-0.3435309817
 10
-5.375548764
 20
-0.3436590343
 10
-5.3709874408
 20
-0.3438381621
 10
-5.3664208281
 20
-0.3440687566
 10
-5.3618448972
 20
-0.3443519916
 10
-5.357258305
 20
-0.3446882587
 10
-5.3526623944
 20
-0.3450771664
 10
-5.3480571656
 20
-0.3455187148
  0
LWPOLYLINE
  5
333
100
AcDbEntity
  8
ASSI
100
AcDbPolyline
 62
7
  6
CONTINUOUS
 90
10
 70
0
 10
-5.3892050253
 20
-0.3434292763
 10
-5.3846582277
 20
-0.3434543957
 10
-5.3801061406
 20
-0.3435309817
 10
-5.375548764
 20
-0.3436590343
 10
-5.3709874408
 20
-0.3438381621
 10
-5.3664208281
 20
-0.3440687566
 10
-5.3618448972
 20
-0.3443519916
 10
-5.357258305
 20
-0.3446882587
 10
-5.3526623944
 20
-0.3450771664
 10
-5.3480571656
 20
-0.3455187148
  0
LWPOLYLINE
  5
334
100
AcDbEntity
  8
RACCORDO
100
AcDbPolyline
 62
7
  6
CONTINUOUS
 90
10
 70
0
 10
4.6442625911
 20
-0.0234292763
 10
4.6397157935
 20
-0.0234041569
 10
4.6351637064
 20
-0.0233275709
 10
4.6306063297
 20
-0.0231995183
 10
4.6260450066
 20
-0.0230203905
 10
4.6214783939
 20
-0.0227897961
 10
4.616902463
 20
-0.022506561
 10
4.6123158707
 20
-0.0221702939
 10
4.6077199602
 20
-0.0217813862
 10
4.6031147314
 20
-0.0213398378
  0
LWPOLYLINE
  5
335
100
AcDbEntity
  8
ASSI
100
AcDbPolyline
 62
7
  6
CONTINUOUS
 90
10
 70
0
 10
4.6442625911
 20
-0.0234292763
 10
4.6397157935
 20
-0.0234041569
 10
4.6351637064
 20
-0.0233275709
 10
4.6306063297
 20
-0.0231995183
 10
4.6260450066
 20
-0.0230203905
 10
4.6214783939
 20
-0.0227897961
 10
4.616902463
 20
-0.022506561
 10
4.6123158707
 20
-0.0221702939
 10
4.6077199602
 20
-0.0217813862
 10
4.6031147314
 20
-0.0213398378
  0
LINE
  5
336
100
AcDbEntity
  8
RACCORDO
100
AcDbLine
 62
250
  6
CONTINUOUS
 10
-10.9318915165
 20
-0.3557798366
 11
-10.9099643042
 21
-0.3559469498
  0
LINE
  5
337
100
AcDbEntity
  8
ASSI
100
AcDbLine
 62
250
  6
CONTINUOUS
 10
-10.9318915165
 20
-0.3557798366
 11
-10.9099643042
 21
-0.3559469498
  0
LWPOLYLINE
  5
338
100
AcDbEntity
  8
RACCORDO
100
AcDbPolyline
 62
250
  6
CONTINUOUS
 90
5
 70
0
 10
4.2738812994
 20
-0.6404629836
 10
4.2767109474
 20
-0.6405150832
 10
4.2837127135
 20
-0.6422841916
 10
4.2947808635
 20
-0.6455103318
 10
4.3294223869
 20
-0.6552061994
  0
LWPOLYLINE
  5
339
100
AcDbEntity
  8
ASSI
100
AcDbPolyline
 62
250
  6
CONTINUOUS
 90
5
 70
0
 10
4.2738812994
 20
-0.6404629836
 10
4.2767109474
 20
-0.6405150832
 10
4.2837127135
 20
-0.6422841916
 10
4.2947808635
 20
-0.6455103318
 10
4.3294223869
 20
-0.6552061994
  0
LWPOLYLINE
  5
33A
100
AcDbEntity
  8
RACCORDO
100
AcDbPolyline
 62
250
  6
CONTINUOUS
 90
4
 70
0
 10
-11.3556844418
 20
-0.7552208593
 10
-11.3520511629
 20
-0.7553523546
 10
-11.3437293837
 20
-0.755481046
 10
-11.2916613724
 20
-0.7558462242
  0
LWPOLYLINE
  5
33B
100
AcDbEntity
  8
ASSI
100
AcDbPolyline
 62
250
  6
CONTINUOUS
 90
4
 70
0
 10
-11.3556844418
 20
-0.7552208593
 10
-11.3520511629
 20
-0.7553523546
 10
-11.3437293837
 20
-0.755481046
 10
-11.2916613724
 20
-0.7558462242
  0
LWPOLYLINE
  5
33C
100
AcDbEntity
  8
RACCORDO
100
AcDbPolyline
 62
250
  6
CONTINUOUS
 90
13
 70
0
 10
-5.4008049087
 20
-0.3591297785
 10
-5.358566565
 20
-0.3613685042
 10
-5.3168003192
 20
-0.3680549556
 10
-5.2759732262
 20
-0.3791144328
 10
-5.2365418326
 20
-0.3944233411
 10
-5.1989471288
 20
-0.4138105494
 10
-5.1636096072
 20
-0.4370592829
 10
-5.1309243877
 20
-0.4639096726
 10
-5.1012571131
 20
-0.4940614377
 10
-5.0749398143
 20
-0.5271771112
 10
-5.0522668025
 20
-0.5628862074
 10
-5.0334914779
 20
-0.6007894608
 10
-5.0188237336
 20
-0.6404629836
  0
LWPOLYLINE
  5
33D
100
AcDbEntity
  8
ASSI
100
AcDbPolyline
 62
250
  6
CONTINUOUS
 90
13
 70
0
 10
-5.4008049087
 20
-0.3591297785
 10
-5.358566565
 20
-0.3613685042
 10
-5.3168003192
 20
-0.3680549556
 10
-5.2759732262
 20
-0.3791144328
 10
-5.2365418326
 20
-0.3944233411
 10
-5.1989471288
 20
-0.4138105494
 10
-5.1636096072
 20
-0.4370592829
 10
-5.1309243877
 20
-0.4639096726
 10
-5.1012571131
 20
-0.4940614377
 10
-5.0749398143
 20
-0.5271771112
 10
-5.0522668025
 20
-0.5628862074
 10
-5.0334914779
 20
-0.6007894608
 10
-5.0188237336
 20
-0.6404629836
  0
LWPOLYLINE
  5
33E
100
AcDbEntity
  8
RACCORDO
100
AcDbPolyline
 62
250
  6
CONTINUOUS
 90
13
 70
0
 10
-10.9558215101
 20
-0.011622462
 10
-11.0080065504
 20
-0.0081896062
 10
-11.0592989494
 20
0.0020263923
 10
-11.1088213349
 20
0.0188507857
 10
-11.1557266112
 20
0.0419957875
 10
-11.1992124491
 20
0.0710654953
 10
-11.2385350101
 20
0.1055626628
 10
-11.2730216696
 20
0.1448972055
 10
-11.3020825226
 20
0.1883962937
 10
-11.3252204743
 20
0.2353158623
 10
-11.342039743
 20
0.2848533376
 10
-11.3522526298
 20
0.3361613658
 10
-11.3556844401
 20
0.3883623072
  0
LWPOLYLINE
  5
33F
100
AcDbEntity
  8
ASSI
100
AcDbPolyline
 62
250
  6
CONTINUOUS
 90
13
 70
0
 10
-10.9558215101
 20
-0.011622462
 10
-11.0080065504
 20
-0.0081896062
 10
-11.0592989494
 20
0.0020263923
 10
-11.1088213349
 20
0.0188507857
 10
-11.1557266112
 20
0.0419957875
 10
-11.1992124491
 20
0.0710654953
 10
-11.2385350101
 20
0.1055626628
 10
-11.2730216696
 20
0.1448972055
 10
-11.3020825226
 20
0.1883962937
 10
-11.3252204743
 20
0.2353158623
 10
-11.342039743
 20
0.2848533376
 10
-11.3522526298
 20
0.3361613658
 10
-11.3556844401
 20
0.3883623072
  0
LWPOLYLINE
  5
340
100
AcDbEntity
  8
RACCORDO
100
AcDbPolyline
 62
250
  6
CONTINUOUS
 90
7
 70
0
 10
-10.9558215118
 20
-0.3552360901
 10
-10.9550619208
 20
-0.3553217701
 10
-10.9534072402
 20
-0.3554049669
 10
-10.9508574701
 20
-0.3554856806
 10
-10.9473714978
 20
-0.3555646523
 10
-10.9429904358
 20
-0.3556411407
 10
-10.9318915165
 20
-0.3557798366
  0
LWPOLYLINE
  5
341
100
AcDbEntity
  8
ASSI
100
AcDbPolyline
 62
250
  6
CONTINUOUS
 90
7
 70
0
 10
-10.9558215118
 20
-0.3552360901
 10
-10.9550619208
 20
-0.3553217701
 10
-10.9534072402
 20
-0.3554049669
 10
-10.9508574701
 20
-0.3554856806
 10
-10.9473714978
 20
-0.3555646523
 10
-10.9429904358
 20
-0.3556411407
 10
-10.9318915165
 20
-0.3557798366
  0
LINE
  5
342
100
AcDbEntity
  8
RACCORDO
100
AcDbLine
 62
7
  6
CONTINUOUS
 10
-5.3117921331
 20
-0.3508740172
 11
-5.3480571656
 21
-0.3455186227
  0
LINE
  5
343
100
AcDbEntity
  8
ASSI
100
AcDbLine
 62
7
  6
CONTINUOUS
 10
-5.3117921331
 20
-0.3508740172
 11
-5.3480571656
 21
-0.3455186227
  0
LINE
  5
344
100
AcDbEntity
  8
RACCORDO
100
AcDbLine
 62
250
  6
CONTINUOUS
 10
-5.1237569206
 20
0.3031742974
 11
-5.1534393395
 21
0.3118311657
  0
LINE
  5
345
100
AcDbEntity
  8
ASSI
100
AcDbLine
 62
250
  6
CONTINUOUS
 10
-5.1237569206
 20
0.3031742974
 11
-5.1534393395
 21
0.3118311657
  0
LINE
  5
346
100
AcDbEntity
  8
RACCORDO
100
AcDbLine
 62
250
  6
CONTINUOUS
 10
-5.0743648211
 20
0.2883476467
 11
-5.1237569206
 21
0.3031742974
  0
LINE
  5
347
100
AcDbEntity
  8
ASSI
100
AcDbLine
 62
250
  6
CONTINUOUS
 10
-5.0743648211
 20
0.2883476467
 11
-5.1237569206
 21
0.3031742974
  0
LWPOLYLINE
  5
348
100
AcDbEntity
  8
RACCORDO
100
AcDbPolyline
 62
250
  6
CONTINUOUS
 90
7
 70
0
 10
-5.1534393395
 20
0.3118311657
 10
-5.2207600974
 20
0.3324403089
 10
-5.2577169534
 20
0.3434766433
 10
-5.2963077903
 20
0.355401049
 10
-5.3360707529
 20
0.3680899789
 10
-5.3765722305
 20
0.3807200179
 10
-5.4173399217
 20
0.3928079908
  0
LWPOLYLINE
  5
349
100
AcDbEntity
  8
ASSI
100
AcDbPolyline
 62
250
  6
CONTINUOUS
 90
7
 70
0
 10
-5.1534393395
 20
0.3118311657
 10
-5.2207600974
 20
0.3324403089
 10
-5.2577169534
 20
0.3434766433
 10
-5.2963077903
 20
0.355401049
 10
-5.3360707529
 20
0.3680899789
 10
-5.3765722305
 20
0.3807200179
 10
-5.4173399217
 20
0.3928079908
  0
LINE
  5
34A
100
AcDbEntity
  8
RACCORDO
100
AcDbLine
 62
250
  6
CONTINUOUS
 10
10.207287994
 20
-22.342741982
 11
10.1400503454
 21
-22.2081744114
  0
LINE
  5
34B
100
AcDbEntity
  8
ASSI
100
AcDbLine
 62
250
  6
CONTINUOUS
 10
10.207287994
 20
-22.342741982
 11
10.1400503454
 21
-22.2081744114
  0
LINE
  5
34C
100
AcDbEntity
  8
RACCORDO
100
AcDbLine
 62
250
  6
CONTINUOUS
 10
-11.4528568499
 20
21.4781652751
 11
-11.3848214407
 21
21.3420010886
  0
LINE
  5
34D
100
AcDbEntity
  8
ASSI
100
AcDbLine
 62
250
  6
CONTINUOUS
 10
-11.4528568499
 20
21.4781652751
 11
-11.3848214407
 21
21.3420010886
  0
LINE
  5
34E
100
AcDbEntity
  8
RACCORDO
100
AcDbLine
 62
250
  6
CONTINUOUS
 10
10.6398790074
 20
21.3420010905
 11
10.7079144157
 21
21.4781652751
  0
LINE
  5
34F
100
AcDbEntity
  8
ASSI
100
AcDbLine
 62
250
  6
CONTINUOUS
 10
10.6398790074
 20
21.3420010905
 11
10.7079144157
 21
21.4781652751
  0
LINE
  5
350
100
AcDbEntity
  8
RACCORDO
100
AcDbLine
 62
250
  6
CONTINUOUS
 10
-10.8849927791
 20
-22.2081744105
 11
-10.9522304282
 21
-22.342741982
  0
LINE
  5
351
100
AcDbEntity
  8
ASSI
100
AcDbLine
 62
250
  6
CONTINUOUS
 10
-10.8849927791
 20
-22.2081744105
 11
-10.9522304282
 21
-22.342741982
  0
LWPOLYLINE
  5
352
100
AcDbEntity
  8
RACCORDO
100
AcDbPolyline
 62
250
  6
CONTINUOUS
 90
4
 70
0
 10
4.3294155244
 20
0.2883457425
 10
4.3788038754
 20
0.3031710812
 10
4.4084850259
 20
0.3118276139
 10
4.4758053538
 20
0.3324365293
  0
LWPOLYLINE
  5
353
100
AcDbEntity
  8
ASSI
100
AcDbPolyline
 62
250
  6
CONTINUOUS
 90
4
 70
0
 10
4.3294155244
 20
0.2883457425
 10
4.3788038754
 20
0.3031710812
 10
4.4084850259
 20
0.3118276139
 10
4.4758053538
 20
0.3324365293
  0
LWPOLYLINE
  5
354
100
AcDbEntity
  8
RACCORDO
100
AcDbPolyline
 62
250
  6
CONTINUOUS
 90
6
 70
0
 10
4.4758053538
 20
0.3324365293
 10
4.5127632785
 20
0.3434731786
 10
4.5513559332
 20
0.3553981741
 10
4.5911213909
 20
0.368087909
 10
4.6316260404
 20
0.3807189385
 10
4.6723974875
 20
0.3928079908
  0
LWPOLYLINE
  5
355
100
AcDbEntity
  8
ASSI
100
AcDbPolyline
 62
250
  6
CONTINUOUS
 90
6
 70
0
 10
4.4758053538
 20
0.3324365293
 10
4.5127632785
 20
0.3434731786
 10
4.5513559332
 20
0.3553981741
 10
4.5911213909
 20
0.368087909
 10
4.6316260404
 20
0.3807189385
 10
4.6723974875
 20
0.3928079908
  0
LINE
  5
356
100
AcDbEntity
  8
RACCORDO
100
AcDbLine
 62
250
  6
CONTINUOUS
 10
-5.039720403
 20
-0.6455095495
 11
-5.0743579586
 21
-0.6552042951
  0
LINE
  5
357
100
AcDbEntity
  8
ASSI
100
AcDbLine
 62
250
  6
CONTINUOUS
 10
-5.039720403
 20
-0.6455095495
 11
-5.0743579586
 21
-0.6552042951
  0
LWPOLYLINE
  5
358
100
AcDbEntity
  8
RACCORDO
100
AcDbPolyline
 62
7
  6
CONTINUOUS
 90
12
 70
0
 10
-5.3117922689
 20
-0.0159845678
 10
-5.2763242969
 20
-0.0073389704
 10
-5.2419271975
 20
0.0044732393
 10
-5.2088961475
 20
0.0192820024
 10
-5.177447242
 20
0.036946118
 10
-5.1477297004
 20
0.0573820027
 10
-5.1199854857
 20
0.0804248883
 10
-5.0944348404
 20
0.1058795247
 10
-5.0712076355
 20
0.133634563
 10
-5.0504977434
 20
0.1635200145
 10
-5.0325391087
 20
0.1952881562
 10
-5.0175203425
 20
0.2287054493
  0
LWPOLYLINE
  5
359
100
AcDbEntity
  8
ASSI
100
AcDbPolyline
 62
7
  6
CONTINUOUS
 90
12
 70
0
 10
-5.3117922689
 20
-0.0159845678
 10
-5.2763242969
 20
-0.0073389704
 10
-5.2419271975
 20
0.0044732393
 10
-5.2088961475
 20
0.0192820024
 10
-5.177447242
 20
0.036946118
 10
-5.1477297004
 20
0.0573820027
 10
-5.1199854857
 20
0.0804248883
 10
-5.0944348404
 20
0.1058795247
 10
-5.0712076355
 20
0.133634563
 10
-5.0504977434
 20
0.1635200145
 10
-5.0325391087
 20
0.1952881562
 10
-5.0175203425
 20
0.2287054493
  0
LINE
  5
35A
100
AcDbEntity
  8
RACCORDO
100
AcDbLine
 62
7
  6
CONTINUOUS
 10
-5.3480572804
 20
-0.0213399444
 11
-5.3117922689
 21
-0.0159845678
  0
LINE
  5
35B
100
AcDbEntity
  8
ASSI
100
AcDbLine
 62
7
  6
CONTINUOUS
 10
-5.3480572804
 20
-0.0213399444
 11
-5.3117922689
 21
-0.0159845678
  0
LWPOLYLINE
  5
35C
100
AcDbEntity
  8
RACCORDO
100
AcDbPolyline
 62
7
  6
CONTINUOUS
 90
10
 70
0
 10
-5.3480572804
 20
-0.0213397206
 10
-5.3526624828
 20
-0.0217813228
 10
-5.3572583715
 20
-0.0221702707
 10
-5.3618449464
 20
-0.0225065643
 10
-5.3664208661
 20
-0.0227898076
 10
-5.370987472
 20
-0.0230203966
 10
-5.3755487885
 20
-0.0231995191
 10
-5.3801061569
 20
-0.0233275713
 10
-5.3846582358
 20
-0.023404157
 10
-5.3892050253
 20
-0.0234292763
  0
LWPOLYLINE
  5
35D
100
AcDbEntity
  8
ASSI
100
AcDbPolyline
 62
7
  6
CONTINUOUS
 90
10
 70
0
 10
-5.3480572804
 20
-0.0213397206
 10
-5.3526624828
 20
-0.0217813228
 10
-5.3572583715
 20
-0.0221702707
 10
-5.3618449464
 20
-0.0225065643
 10
-5.3664208661
 20
-0.0227898076
 10
-5.370987472
 20
-0.0230203966
 10
-5.3755487885
 20
-0.0231995191
 10
-5.3801061569
 20
-0.0233275713
 10
-5.3846582358
 20
-0.023404157
 10
-5.3892050253
 20
-0.0234292763
  0
LWPOLYLINE
  5
35E
100
AcDbEntity
  8
RACCORDO
100
AcDbPolyline
 62
250
  6
CONTINUOUS
 90
13
 70
0
 10
-10.9558215118
 20
-0.3552360901
 10
-11.0080043935
 20
-0.3586686607
 10
-11.0592951029
 20
-0.3688839112
 10
-11.1088163288
 20
-0.3857072603
 10
-11.1557209632
 20
-0.4088510735
 10
-11.1992066938
 20
-0.4379196247
 10
-11.2385297036
 20
-0.472415901
 10
-11.2730172956
 20
-0.5117500491
 10
-11.3020793312
 20
-0.5552493094
 10
-11.3252184664
 20
-0.6021695574
 10
-11.3420387526
 20
-0.6517081824
 10
-11.3522523597
 20
-0.70301785
 10
-11.3556844417
 20
-0.7552208593
  0
LWPOLYLINE
  5
35F
100
AcDbEntity
  8
ASSI
100
AcDbPolyline
 62
250
  6
CONTINUOUS
 90
13
 70
0
 10
-10.9558215118
 20
-0.3552360901
 10
-11.0080043935
 20
-0.3586686607
 10
-11.0592951029
 20
-0.3688839112
 10
-11.1088163288
 20
-0.3857072603
 10
-11.1557209632
 20
-0.4088510735
 10
-11.1992066938
 20
-0.4379196247
 10
-11.2385297036
 20
-0.472415901
 10
-11.2730172956
 20
-0.5117500491
 10
-11.3020793312
 20
-0.5552493094
 10
-11.3252184664
 20
-0.6021695574
 10
-11.3420387526
 20
-0.6517081824
 10
-11.3522523597
 20
-0.70301785
 10
-11.3556844417
 20
-0.7552208593
  0
LWPOLYLINE
  5
360
100
AcDbEntity
  8
RACCORDO
100
AcDbPolyline
 62
250
  6
CONTINUOUS
 90
19
 70
0
 10
-3.5473141351
 20
1.3577801132
 10
-3.6557570971
 20
1.3539393668
 10
-3.7637719068
 20
1.3424614964
 10
-3.8708193838
 20
1.3233798544
 10
-3.9764227952
 20
1.2967482265
 10
-4.0799864769
 20
1.2626855843
 10
-4.1808126284
 20
1.2214180717
 10
-4.2783340519
 20
1.1732042709
 10
-4.3721459417
 20
1.1182716265
 10
-4.461828426
 20
1.0568796655
 10
-4.5469334317
 20
0.9893433184
 10
-4.6270478761
 20
0.9159990173
 10
-4.7018244096
 20
0.8371639165
 10
-4.7709361879
 20
0.7531571074
 10
-4.8339722701
 20
0.6644503286
 10
-4.8905224309
 20
0.5716401614
 10
-4.9403052071
 20
0.475258557
 10
-4.9831337484
 20
0.3757455514
 10
-5.0188237332
 20
0.2736044322
  0
LWPOLYLINE
  5
361
100
AcDbEntity
  8
ASSI
100
AcDbPolyline
 62
250
  6
CONTINUOUS
 90
19
 70
0
 10
-3.5473141351
 20
1.3577801132
 10
-3.6557570971
 20
1.3539393668
 10
-3.7637719068
 20
1.3424614964
 10
-3.8708193838
 20
1.3233798544
 10
-3.9764227952
 20
1.2967482265
 10
-4.0799864769
 20
1.2626855843
 10
-4.1808126284
 20
1.2214180717
 10
-4.2783340519
 20
1.1732042709
 10
-4.3721459417
 20
1.1182716265
 10
-4.461828426
 20
1.0568796655
 10
-4.5469334317
 20
0.9893433184
 10
-4.6270478761
 20
0.9159990173
 10
-4.7018244096
 20
0.8371639165
 10
-4.7709361879
 20
0.7531571074
 10
-4.8339722701
 20
0.6644503286
 10
-4.8905224309
 20
0.5716401614
 10
-4.9403052071
 20
0.475258557
 10
-4.9831337484
 20
0.3757455514
 10
-5.0188237332
 20
0.2736044322
  0
LWPOLYLINE
  5
362
100
AcDbEntity
  8
RACCORDO
100
AcDbPolyline
 62
250
  6
CONTINUOUS
 90
5
 70
0
 10
-10.947371496
 20
-0.0112938998
 10
-10.9508574684
 20
-0.0113728714
 10
-10.9534072385
 20
-0.0114535851
 10
-10.9550619191
 20
-0.011536782
 10
-10.9558215101
 20
-0.011622462
  0
LWPOLYLINE
  5
363
100
AcDbEntity
  8
ASSI
100
AcDbPolyline
 62
250
  6
CONTINUOUS
 90
5
 70
0
 10
-10.947371496
 20
-0.0112938998
 10
-10.9508574684
 20
-0.0113728714
 10
-10.9534072385
 20
-0.0114535851
 10
-10.9550619191
 20
-0.011536782
 10
-10.9558215101
 20
-0.011622462
  0
LWPOLYLINE
  5
364
100
AcDbEntity
  8
RACCORDO
100
AcDbPolyline
 62
250
  6
CONTINUOUS
 90
4
 70
0
 10
4.2738812994
 20
0.273604431
 10
4.2767104854
 20
0.273656644
 10
4.2837112516
 20
0.2754254365
 10
4.2947779688
 20
0.2786509969
  0
LWPOLYLINE
  5
365
100
AcDbEntity
  8
ASSI
100
AcDbPolyline
 62
250
  6
CONTINUOUS
 90
4
 70
0
 10
4.2738812994
 20
0.273604431
 10
4.2767104854
 20
0.273656644
 10
4.2837112516
 20
0.2754254365
 10
4.2947779688
 20
0.2786509969
  0
LWPOLYLINE
  5
366
100
AcDbEntity
  8
RACCORDO
100
AcDbPolyline
 62
250
  6
CONTINUOUS
 90
3
 70
0
 10
-11.343729382
 20
0.3886224919
 10
-11.3520511612
 20
0.3884938015
 10
-11.3556844401
 20
0.3883623072
  0
LWPOLYLINE
  5
367
100
AcDbEntity
  8
ASSI
100
AcDbPolyline
 62
250
  6
CONTINUOUS
 90
3
 70
0
 10
-11.343729382
 20
0.3886224919
 10
-11.3520511612
 20
0.3884938015
 10
-11.3556844401
 20
0.3883623072
  0
LINE
  5
368
100
AcDbEntity
  8
RACCORDO
100
AcDbLine
 62
250
  6
CONTINUOUS
 10
-10.9378376209
 20
-0.0111456293
 11
-10.947371496
 21
-0.0112938998
  0
LINE
  5
369
100
AcDbEntity
  8
ASSI
100
AcDbLine
 62
250
  6
CONTINUOUS
 10
-10.9378376209
 20
-0.0111456293
 11
-10.947371496
 21
-0.0112938998
  0
LINE
  5
36A
100
AcDbEntity
  8
RACCORDO
100
AcDbLine
 62
250
  6
CONTINUOUS
 10
-10.9178720125
 20
-0.0109607451
 11
-10.9378376209
 21
-0.0111456293
  0
LINE
  5
36B
100
AcDbEntity
  8
ASSI
100
AcDbLine
 62
250
  6
CONTINUOUS
 10
-10.9178720125
 20
-0.0109607451
 11
-10.9378376209
 21
-0.0111456293
  0
LINE
  5
36C
100
AcDbEntity
  8
RACCORDO
100
AcDbLine
 62
250
  6
CONTINUOUS
 10
-11.2916613707
 20
0.3889876673
 11
-11.343729382
 21
0.3886224919
  0
LINE
  5
36D
100
AcDbEntity
  8
ASSI
100
AcDbLine
 62
250
  6
CONTINUOUS
 10
-11.2916613707
 20
0.3889876673
 11
-11.343729382
 21
0.3886224919
  0
LINE
  5
36E
100
AcDbEntity
  8
RACCORDO
100
AcDbLine
 62
250
  6
CONTINUOUS
 10
-10.9014728051
 20
-0.0108689038
 11
-10.9178720125
 21
-0.0109607451
  0
LINE
  5
36F
100
AcDbEntity
  8
ASSI
100
AcDbLine
 62
250
  6
CONTINUOUS
 10
-10.9014728051
 20
-0.0108689038
 11
-10.9178720125
 21
-0.0109607451
  0
LINE
  5
370
100
AcDbEntity
  8
RACCORDO
100
AcDbLine
 62
250
  6
CONTINUOUS
 10
-5.4173399217
 20
0.3928079908
 11
-11.2916613707
 21
0.3889876673
  0
LINE
  5
371
100
AcDbEntity
  8
ASSI
100
AcDbLine
 62
250
  6
CONTINUOUS
 10
-5.4173399217
 20
0.3928079908
 11
-11.2916613707
 21
0.3889876673
  0
LINE
  5
372
100
AcDbEntity
  8
DRAFT
100
AcDbLine
 62
7
  6
CONTINUOUS
 10
-3.5474712171
 20
1.3415707237
 11
2.8025284711
 21
1.3415707237
  0
LINE
  5
373
100
AcDbEntity
  8
ASSI
100
AcDbLine
 62
7
  6
CONTINUOUS
 10
-3.5474712171
 20
1.3415707237
 11
2.8025284711
 21
1.3415707237
  0
LINE
  5
374
100
AcDbEntity
  8
RACCORDO
100
AcDbLine
 62
250
  6
CONTINUOUS
 10
2.8023738986
 20
1.357780098
 11
-3.5473141354
 21
1.3577800984
  0
LINE
  5
375
100
AcDbEntity
  8
ASSI
100
AcDbLine
 62
250
  6
CONTINUOUS
 10
2.8023738986
 20
1.357780098
 11
-3.5473141354
 21
1.3577800984
  0
LINE
  5
376
100
AcDbEntity
  8
RACCORDO
100
AcDbLine
 62
250
  6
CONTINUOUS
 10
10.5467189382
 20
0.3889876716
 11
4.6723974875
 21
0.3928079908
  0
LINE
  5
377
100
AcDbEntity
  8
ASSI
100
AcDbLine
 62
250
  6
CONTINUOUS
 10
10.5467189382
 20
0.3889876716
 11
4.6723974875
 21
0.3928079908
  0
LINE
  5
378
100
AcDbEntity
  8
RACCORDO
100
AcDbLine
 62
250
  6
CONTINUOUS
 10
10.1869490823
 20
-0.011078716
 11
10.1565303726
 21
-0.0108689044
  0
LINE
  5
379
100
AcDbEntity
  8
ASSI
100
AcDbLine
 62
250
  6
CONTINUOUS
 10
10.1869490823
 20
-0.011078716
 11
10.1565303726
 21
-0.0108689044
  0
LWPOLYLINE
  5
37A
100
AcDbEntity
  8
RACCORDO
100
AcDbPolyline
 62
250
  6
CONTINUOUS
 90
5
 70
0
 10
-5.0188237336
 20
0.273604431
 10
-5.0216533816
 20
0.2736565306
 10
-5.0286551477
 20
0.275425639
 10
-5.0397232977
 20
0.2786517792
 10
-5.0743648211
 20
0.2883476467
  0
LWPOLYLINE
  5
37B
100
AcDbEntity
  8
ASSI
100
AcDbPolyline
 62
250
  6
CONTINUOUS
 90
5
 70
0
 10
-5.0188237336
 20
0.273604431
 10
-5.0216533816
 20
0.2736565306
 10
-5.0286551477
 20
0.275425639
 10
-5.0397232977
 20
0.2786517792
 10
-5.0743648211
 20
0.2883476467
  0
LWPOLYLINE
  5
37C
100
AcDbEntity
  8
RACCORDO
100
AcDbPolyline
 62
250
  6
CONTINUOUS
 90
4
 70
0
 10
10.6107420076
 20
0.3883623067
 10
10.6071087287
 20
0.388493802
 10
10.5987869495
 20
0.3886224934
 10
10.5467189382
 20
0.3889876716
  0
LWPOLYLINE
  5
37D
100
AcDbEntity
  8
ASSI
100
AcDbPolyline
 62
250
  6
CONTINUOUS
 90
4
 70
0
 10
10.6107420076
 20
0.3883623067
 10
10.6071087287
 20
0.388493802
 10
10.5987869495
 20
0.3886224934
 10
10.5467189382
 20
0.3889876716
  0
LWPOLYLINE
  5
37E
100
AcDbEntity
  8
RACCORDO
100
AcDbPolyline
 62
250
  6
CONTINUOUS
 90
13
 70
0
 10
4.6558624745
 20
-0.0077287742
 10
4.6136241308
 20
-0.0054900485
 10
4.5718578849
 20
0.0011964029
 10
4.531030792
 20
0.0122558802
 10
4.4915993984
 20
0.0275647885
 10
4.4540046946
 20
0.0469519967
 10
4.418667173
 20
0.0702007303
 10
4.3859819535
 20
0.09705112
 10
4.3563146789
 20
0.1272028851
 10
4.3299973801
 20
0.1603185586
 10
4.3073243683
 20
0.1960276547
 10
4.2885490437
 20
0.2339309082
 10
4.2738812994
 20
0.273604431
  0
LWPOLYLINE
  5
37F
100
AcDbEntity
  8
ASSI
100
AcDbPolyline
 62
250
  6
CONTINUOUS
 90
13
 70
0
 10
4.6558624745
 20
-0.0077287742
 10
4.6136241308
 20
-0.0054900485
 10
4.5718578849
 20
0.0011964029
 10
4.531030792
 20
0.0122558802
 10
4.4915993984
 20
0.0275647885
 10
4.4540046946
 20
0.0469519967
 10
4.418667173
 20
0.0702007303
 10
4.3859819535
 20
0.09705112
 10
4.3563146789
 20
0.1272028851
 10
4.3299973801
 20
0.1603185586
 10
4.3073243683
 20
0.1960276547
 10
4.2885490437
 20
0.2339309082
 10
4.2738812994
 20
0.273604431
  0
LWPOLYLINE
  5
380
100
AcDbEntity
  8
RACCORDO
100
AcDbPolyline
 62
250
  6
CONTINUOUS
 90
13
 70
0
 10
10.2108790759
 20
-0.3552360906
 10
10.2630641162
 20
-0.3586689465
 10
10.3143565152
 20
-0.368884945
 10
10.3638789007
 20
-0.3857093384
 10
10.410784177
 20
-0.4088543401
 10
10.4542700149
 20
-0.4379240479
 10
10.4935925759
 20
-0.4724212155
 10
10.5280792354
 20
-0.5117557581
 10
10.5571400884
 20
-0.5552548464
 10
10.5802780401
 20
-0.602174415
 10
10.5970973088
 20
-0.6517118902
 10
10.6073101956
 20
-0.7030199184
 10
10.6107420059
 20
-0.7552208599
  0
LWPOLYLINE
  5
381
100
AcDbEntity
  8
ASSI
100
AcDbPolyline
 62
250
  6
CONTINUOUS
 90
13
 70
0
 10
10.2108790759
 20
-0.3552360906
 10
10.2630641162
 20
-0.3586689465
 10
10.3143565152
 20
-0.368884945
 10
10.3638789007
 20
-0.3857093384
 10
10.410784177
 20
-0.4088543401
 10
10.4542700149
 20
-0.4379240479
 10
10.4935925759
 20
-0.4724212155
 10
10.5280792354
 20
-0.5117557581
 10
10.5571400884
 20
-0.5552548464
 10
10.5802780401
 20
-0.602174415
 10
10.5970973088
 20
-0.6517118902
 10
10.6073101956
 20
-0.7030199184
 10
10.6107420059
 20
-0.7552208599
  0
LWPOLYLINE
  5
382
100
AcDbEntity
  8
RACCORDO
100
AcDbPolyline
 62
250
  6
CONTINUOUS
 90
7
 70
0
 10
10.2108790776
 20
-0.0116224626
 10
10.2101194866
 20
-0.0115367825
 10
10.208464806
 20
-0.0114535857
 10
10.2059150359
 20
-0.011372872
 10
10.2024290635
 20
-0.0112939004
 10
10.1980480016
 20
-0.0112174119
 10
10.1869490823
 20
-0.011078716
  0
LWPOLYLINE
  5
383
100
AcDbEntity
  8
ASSI
100
AcDbPolyline
 62
250
  6
CONTINUOUS
 90
7
 70
0
 10
10.2108790776
 20
-0.0116224626
 10
10.2101194866
 20
-0.0115367825
 10
10.208464806
 20
-0.0114535857
 10
10.2059150359
 20
-0.011372872
 10
10.2024290635
 20
-0.0112939004
 10
10.1980480016
 20
-0.0112174119
 10
10.1869490823
 20
-0.011078716
  0
LINE
  5
384
100
AcDbEntity
  8
RACCORDO
100
AcDbLine
 62
7
  6
CONTINUOUS
 10
4.5668496989
 20
-0.0159845354
 11
4.6031147314
 21
-0.02133993
  0
LINE
  5
385
100
AcDbEntity
  8
ASSI
100
AcDbLine
 62
7
  6
CONTINUOUS
 10
4.5668496989
 20
-0.0159845354
 11
4.6031147314
 21
-0.02133993
  0
LINE
  5
386
100
AcDbEntity
  8
RACCORDO
100
AcDbLine
 62
250
  6
CONTINUOUS
 10
4.3788144863
 20
-0.6700328501
 11
4.4084969052
 21
-0.6786897183
  0
LINE
  5
387
100
AcDbEntity
  8
ASSI
100
AcDbLine
 62
250
  6
CONTINUOUS
 10
4.3788144863
 20
-0.6700328501
 11
4.4084969052
 21
-0.6786897183
  0
LINE
  5
388
100
AcDbEntity
  8
RACCORDO
100
AcDbLine
 62
250
  6
CONTINUOUS
 10
4.3294223869
 20
-0.6552061994
 11
4.3788144863
 21
-0.6700328501
  0
LINE
  5
389
100
AcDbEntity
  8
ASSI
100
AcDbLine
 62
250
  6
CONTINUOUS
 10
4.3294223869
 20
-0.6552061994
 11
4.3788144863
 21
-0.6700328501
  0
LWPOLYLINE
  5
38A
100
AcDbEntity
  8
RACCORDO
100
AcDbPolyline
 62
250
  6
CONTINUOUS
 90
7
 70
0
 10
4.4084969052
 20
-0.6786897183
 10
4.4758176632
 20
-0.6992988615
 10
4.5127745192
 20
-0.7103351959
 10
4.5513653561
 20
-0.7222596016
 10
4.5911283187
 20
-0.7349485315
 10
4.6316297963
 20
-0.7475785705
 10
4.6723974875
 20
-0.7596665435
  0
LWPOLYLINE
  5
38B
100
AcDbEntity
  8
ASSI
100
AcDbPolyline
 62
250
  6
CONTINUOUS
 90
7
 70
0
 10
4.4084969052
 20
-0.6786897183
 10
4.4758176632
 20
-0.6992988615
 10
4.5127745192
 20
-0.7103351959
 10
4.5513653561
 20
-0.7222596016
 10
4.5911283187
 20
-0.7349485315
 10
4.6316297963
 20
-0.7475785705
 10
4.6723974875
 20
-0.7596665435
  0
LINE
  5
38C
100
AcDbEntity
  8
RACCORDO
100
AcDbLine
 62
250
  6
CONTINUOUS
 10
10.7079144157
 20
-21.8450238277
 11
10.6398790064
 21
-21.7088596412
  0
LINE
  5
38D
100
AcDbEntity
  8
ASSI
100
AcDbLine
 62
250
  6
CONTINUOUS
 10
10.7079144157
 20
-21.8450238277
 11
10.6398790064
 21
-21.7088596412
  0
LINE
  5
38E
100
AcDbEntity
  8
RACCORDO
100
AcDbLine
 62
250
  6
CONTINUOUS
 10
-10.9522304282
 20
21.9758834294
 11
-10.8849927796
 21
21.8413158588
  0
LINE
  5
38F
100
AcDbEntity
  8
ASSI
100
AcDbLine
 62
250
  6
CONTINUOUS
 10
-10.9522304282
 20
21.9758834294
 11
-10.8849927796
 21
21.8413158588
  0
LINE
  5
390
100
AcDbEntity
  8
RACCORDO
100
AcDbLine
 62
250
  6
CONTINUOUS
 10
2.8025284711
 20
1.3415707237
 11
2.8023738986
 21
1.357780098
  0
LINE
  5
391
100
AcDbEntity
  8
ASSI
100
AcDbLine
 62
250
  6
CONTINUOUS
 10
2.8025284711
 20
1.3415707237
 11
2.8023738986
 21
1.357780098
  0
LINE
  5
392
100
AcDbEntity
  8
RACCORDO
100
AcDbLine
 62
250
  6
CONTINUOUS
 10
2.8115434799
 20
-1.9267325476
 11
2.812589712
 21
-2.0231947379
  0
LINE
  5
393
100
AcDbEntity
  8
ASSI
100
AcDbLine
 62
250
  6
CONTINUOUS
 10
2.8115434799
 20
-1.9267325476
 11
2.812589712
 21
-2.0231947379
  0
LINE
  5
394
100
AcDbEntity
  8
RACCORDO
100
AcDbLine
 62
250
  6
CONTINUOUS
 10
2.812589712
 20
-2.0231947379
 11
2.8129536962
 21
-2.1265338837
  0
LINE
  5
395
100
AcDbEntity
  8
ASSI
100
AcDbLine
 62
250
  6
CONTINUOUS
 10
2.812589712
 20
-2.0231947379
 11
2.8129536962
 21
-2.1265338837
  0
LINE
  5
396
100
AcDbEntity
  8
RACCORDO
100
AcDbLine
 62
250
  6
CONTINUOUS
 10
2.8125897662
 20
1.6563383615
 11
2.8129538433
 21
1.7596753582
  0
LINE
  5
397
100
AcDbEntity
  8
ASSI
100
AcDbLine
 62
250
  6
CONTINUOUS
 10
2.8125897662
 20
1.6563383615
 11
2.8129538433
 21
1.7596753582
  0
LINE
  5
398
100
AcDbEntity
  8
RACCORDO
100
AcDbLine
 62
250
  6
CONTINUOUS
 10
2.8025287829
 20
-1.7084292763
 11
2.8023717011
 21
-1.724638651
  0
LINE
  5
399
100
AcDbEntity
  8
ASSI
100
AcDbLine
 62
250
  6
CONTINUOUS
 10
2.8025287829
 20
-1.7084292763
 11
2.8023717011
 21
-1.724638651
  0
LWPOLYLINE
  5
39A
100
AcDbEntity
  8
RACCORDO
100
AcDbPolyline
 62
250
  6
CONTINUOUS
 90
10
 70
0
 10
2.8025287829
 20
1.3577800745
 10
2.8038861369
 20
1.3616391718
 10
2.8052203825
 20
1.372242115
 10
2.806508805
 20
1.3894083944
 10
2.8077294696
 20
1.4128457625
 10
2.808861595
 20
1.4421552093
 10
2.8098859074
 20
1.4768377561
 10
2.8107849683
 20
1.5163029493
 10
2.8115434718
 20
1.5598789132
 10
2.8125897662
 20
1.6563383615
  0
LWPOLYLINE
  5
39B
100
AcDbEntity
  8
ASSI
100
AcDbPolyline
 62
250
  6
CONTINUOUS
 90
10
 70
0
 10
2.8025287829
 20
1.3577800745
 10
2.8038861369
 20
1.3616391718
 10
2.8052203825
 20
1.372242115
 10
2.806508805
 20
1.3894083944
 10
2.8077294696
 20
1.4128457625
 10
2.808861595
 20
1.4421552093
 10
2.8098859074
 20
1.4768377561
 10
2.8107849683
 20
1.5163029493
 10
2.8115434718
 20
1.5598789132
 10
2.8125897662
 20
1.6563383615
  0
LINE
  5
39C
100
AcDbEntity
  8
RACCORDO
100
AcDbLine
 62
250
  6
CONTINUOUS
 10
4.273881299
 20
0.2736044322
 11
4.261576201
 21
0.2601985314
  0
LINE
  5
39D
100
AcDbEntity
  8
ASSI
100
AcDbLine
 62
250
  6
CONTINUOUS
 10
4.273881299
 20
0.2736044322
 11
4.261576201
 21
0.2601985314
  0
LINE
  5
39E
100
AcDbEntity
  8
RACCORDO
100
AcDbLine
 62
250
  6
CONTINUOUS
 10
10.2108790759
 20
-0.3552360906
 11
10.3274830708
 21
-0.3163759862
  0
LINE
  5
39F
100
AcDbEntity
  8
ASSI
100
AcDbLine
 62
250
  6
CONTINUOUS
 10
10.2108790759
 20
-0.3552360906
 11
10.3274830708
 21
-0.3163759862
  0
LWPOLYLINE
  5
3A0
100
AcDbEntity
  8
RACCORDO
100
AcDbPolyline
 62
250
  6
CONTINUOUS
 90
19
 70
0
 10
-3.5578962777
 20
1.7596753582
 10
-3.6960146806
 20
1.7546818129
 10
-3.8322441095
 20
1.7402254676
 10
-3.9665845676
 20
1.7163063629
 10
-4.0997612447
 20
1.6826920164
 10
-4.2310489494
 20
1.6396149882
 10
-4.358272245
 20
1.5877728812
 10
-4.4812709737
 20
1.5270531418
 10
-4.6002056116
 20
1.4575683897
 10
-4.7133819026
 20
1.380353979
 10
-4.8207170214
 20
1.295316289
 10
-4.9222943213
 20
1.2025489794
 10
-5.0166689843
 20
1.1033683097
 10
-5.1037837021
 20
0.9975992516
 10
-5.1836964183
 20
0.8854168354
 10
-5.2551353025
 20
0.7686623886
 10
-5.3176766386
 20
0.6479496705
 10
-5.3717447605
 20
0.52266488
 10
-5.4173399217
 20
0.3928079908
  0
LWPOLYLINE
  5
3A1
100
AcDbEntity
  8
ASSI
100
AcDbPolyline
 62
250
  6
CONTINUOUS
 90
19
 70
0
 10
-3.5578962777
 20
1.7596753582
 10
-3.6960146806
 20
1.7546818129
 10
-3.8322441095
 20
1.7402254676
 10
-3.9665845676
 20
1.7163063629
 10
-4.0997612447
 20
1.6826920164
 10
-4.2310489494
 20
1.6396149882
 10
-4.358272245
 20
1.5877728812
 10
-4.4812709737
 20
1.5270531418
 10
-4.6002056116
 20
1.4575683897
 10
-4.7133819026
 20
1.380353979
 10
-4.8207170214
 20
1.295316289
 10
-4.9222943213
 20
1.2025489794
 10
-5.0166689843
 20
1.1033683097
 10
-5.1037837021
 20
0.9975992516
 10
-5.1836964183
 20
0.8854168354
 10
-5.2551353025
 20
0.7686623886
 10
-5.3176766386
 20
0.6479496705
 10
-5.3717447605
 20
0.52266488
 10
-5.4173399217
 20
0.3928079908
  0
LINE
  5
3A2
100
AcDbEntity
  8
RACCORDO
100
AcDbLine
 62
250
  6
CONTINUOUS
 10
2.8129538435
 20
1.7596753582
 11
-3.5578962777
 21
1.7596753582
  0
LINE
  5
3A3
100
AcDbEntity
  8
ASSI
100
AcDbLine
 62
250
  6
CONTINUOUS
 10
2.8129538435
 20
1.7596753582
 11
-3.5578962777
 21
1.7596753582
  0
LINE
  5
3A4
100
AcDbEntity
  8
RACCORDO
100
AcDbLine
 62
250
  6
CONTINUOUS
 10
10.3274830708
 20
-0.0504825665
 11
10.2108790776
 21
-0.0116224626
  0
LINE
  5
3A5
100
AcDbEntity
  8
ASSI
100
AcDbLine
 62
250
  6
CONTINUOUS
 10
10.3274830708
 20
-0.0504825665
 11
10.2108790776
 21
-0.0116224626
  0
LINE
  5
3A6
100
AcDbEntity
  8
RACCORDO
100
AcDbLine
 62
250
  6
CONTINUOUS
 10
4.261576201
 20
-0.627057084
 11
4.273881299
 21
-0.6404629848
  0
LINE
  5
3A7
100
AcDbEntity
  8
ASSI
100
AcDbLine
 62
250
  6
CONTINUOUS
 10
4.261576201
 20
-0.627057084
 11
4.273881299
 21
-0.6404629848
  0
LWPOLYLINE
  5
3A8
100
AcDbEntity
  8
RACCORDO
100
AcDbPolyline
 62
250
  6
CONTINUOUS
 90
9
 70
0
 10
2.8025287803
 20
-1.7246260363
 10
2.8038861486
 20
-1.7284853443
 10
2.8052204073
 20
-1.7390887691
 10
2.8065088402
 20
-1.7562557837
 10
2.8077295115
 20
-1.7796941136
 10
2.8088616388
 20
-1.8090047134
 10
2.8098859467
 20
-1.84368856
 10
2.8107849959
 20
-1.8831551488
 10
2.8115434799
 20
-1.9267325476
  0
LWPOLYLINE
  5
3A9
100
AcDbEntity
  8
ASSI
100
AcDbPolyline
 62
250
  6
CONTINUOUS
 90
9
 70
0
 10
2.8025287803
 20
-1.7246260363
 10
2.8038861486
 20
-1.7284853443
 10
2.8052204073
 20
-1.7390887691
 10
2.8065088402
 20
-1.7562557837
 10
2.8077295115
 20
-1.7796941136
 10
2.8088616388
 20
-1.8090047134
 10
2.8098859467
 20
-1.84368856
 10
2.8107849959
 20
-1.8831551488
 10
2.8115434799
 20
-1.9267325476
  0
LWPOLYLINE
  5
3AA
100
AcDbEntity
  8
RACCORDO
100
AcDbPolyline
 62
7
  6
CONTINUOUS
 90
10
 70
0
 10
4.261576201
 20
-0.627057084
 10
4.2626630688
 20
-0.6235387521
 10
4.263783288
 20
-0.6200264714
 10
4.2649369149
 20
-0.6165199586
 10
4.2661234534
 20
-0.6130197382
 10
4.2673435125
 20
-0.609524719
 10
4.2685987873
 20
-0.6060321803
 10
4.2698898575
 20
-0.6025410087
 10
4.2712162062
 20
-0.5990517128
 10
4.2725778647
 20
-0.5955639897
  0
LWPOLYLINE
  5
3AB
100
AcDbEntity
  8
ASSI
100
AcDbPolyline
 62
7
  6
CONTINUOUS
 90
10
 70
0
 10
4.261576201
 20
-0.627057084
 10
4.2626630688
 20
-0.6235387521
 10
4.263783288
 20
-0.6200264714
 10
4.2649369149
 20
-0.6165199586
 10
4.2661234534
 20
-0.6130197382
 10
4.2673435125
 20
-0.609524719
 10
4.2685987873
 20
-0.6060321803
 10
4.2698898575
 20
-0.6025410087
 10
4.2712162062
 20
-0.5990517128
 10
4.2725778647
 20
-0.5955639897
  0
LWPOLYLINE
  5
3AC
100
AcDbEntity
  8
RACCORDO
100
AcDbPolyline
 62
250
  6
CONTINUOUS
 90
13
 70
0
 10
4.2738812994
 20
-0.6404629836
 10
4.2885490437
 20
-0.6007894608
 10
4.3073243683
 20
-0.5628862074
 10
4.3299973801
 20
-0.5271771112
 10
4.3563146789
 20
-0.4940614377
 10
4.3859819535
 20
-0.4639096726
 10
4.418667173
 20
-0.4370592829
 10
4.4540046946
 20
-0.4138105494
 10
4.4915993984
 20
-0.3944233411
 10
4.531030792
 20
-0.3791144328
 10
4.571857885
 20
-0.3680549556
 10
4.6136241308
 20
-0.3613685042
 10
4.6558624745
 20
-0.3591297785
  0
LWPOLYLINE
  5
3AD
100
AcDbEntity
  8
ASSI
100
AcDbPolyline
 62
250
  6
CONTINUOUS
 90
13
 70
0
 10
4.2738812994
 20
-0.6404629836
 10
4.2885490437
 20
-0.6007894608
 10
4.3073243683
 20
-0.5628862074
 10
4.3299973801
 20
-0.5271771112
 10
4.3563146789
 20
-0.4940614377
 10
4.3859819535
 20
-0.4639096726
 10
4.418667173
 20
-0.4370592829
 10
4.4540046946
 20
-0.4138105494
 10
4.4915993984
 20
-0.3944233411
 10
4.531030792
 20
-0.3791144328
 10
4.571857885
 20
-0.3680549556
 10
4.6136241308
 20
-0.3613685042
 10
4.6558624745
 20
-0.3591297785
  0
LWPOLYLINE
  5
3AE
100
AcDbEntity
  8
RACCORDO
100
AcDbPolyline
 62
250
  6
CONTINUOUS
 90
13
 70
0
 10
4.6558624745
 20
-0.0077287742
 10
4.6574822167
 20
-0.0037387135
 10
4.6597197593
 20
0.0068905248
 10
4.6621625713
 20
0.0237697521
 10
4.6640486256
 20
0.0468824917
 10
4.6655559905
 20
0.0761608441
 10
4.6675121394
 20
0.1108528187
 10
4.6691188779
 20
0.1500656078
 10
4.6699325752
 20
0.1934515379
 10
4.6711043046
 20
0.2403785091
 10
4.6726187733
 20
0.2899444066
 10
4.6732549003
 20
0.3411042709
 10
4.6723974875
 20
0.3928079908
  0
LWPOLYLINE
  5
3AF
100
AcDbEntity
  8
ASSI
100
AcDbPolyline
 62
250
  6
CONTINUOUS
 90
13
 70
0
 10
4.6558624745
 20
-0.0077287742
 10
4.6574822167
 20
-0.0037387135
 10
4.6597197593
 20
0.0068905248
 10
4.6621625713
 20
0.0237697521
 10
4.6640486256
 20
0.0468824917
 10
4.6655559905
 20
0.0761608441
 10
4.6675121394
 20
0.1108528187
 10
4.6691188779
 20
0.1500656078
 10
4.6699325752
 20
0.1934515379
 10
4.6711043046
 20
0.2403785091
 10
4.6726187733
 20
0.2899444066
 10
4.6732549003
 20
0.3411042709
 10
4.6723974875
 20
0.3928079908
  0
LINE
  5
3B0
100
AcDbEntity
  8
RACCORDO
100
AcDbLine
 62
250
  6
CONTINUOUS
 10
4.6558624795
 20
-0.0077287742
 11
4.644262591
 21
-0.0234292763
  0
LINE
  5
3B1
100
AcDbEntity
  8
ASSI
100
AcDbLine
 62
250
  6
CONTINUOUS
 10
4.6558624795
 20
-0.0077287742
 11
4.644262591
 21
-0.0234292763
  0
LINE
  5
3B2
100
AcDbEntity
  8
DRAFT
100
AcDbLine
 62
7
  6
CONTINUOUS
 10
9.5275287829
 20
-0.3163759862
 11
9.4734180816
 21
-0.3434292763
  0
LINE
  5
3B3
100
AcDbEntity
  8
ASSI
100
AcDbLine
 62
7
  6
CONTINUOUS
 10
9.5275287829
 20
-0.3163759862
 11
9.4734180816
 21
-0.3434292763
  0
LINE
  5
3B4
100
AcDbEntity
  8
RACCORDO
100
AcDbLine
 62
250
  6
CONTINUOUS
 10
10.6107420058
 20
-0.7552208599
 11
10.7275287829
 21
-0.7162998404
  0
LINE
  5
3B5
100
AcDbEntity
  8
ASSI
100
AcDbLine
 62
250
  6
CONTINUOUS
 10
10.6107420058
 20
-0.7552208599
 11
10.7275287829
 21
-0.7162998404
  0
LINE
  5
3B6
100
AcDbEntity
  8
RACCORDO
100
AcDbLine
 62
250
  6
CONTINUOUS
 10
10.7275287829
 20
0.3494412878
 11
10.6107420075
 21
0.3883623067
  0
LINE
  5
3B7
100
AcDbEntity
  8
ASSI
100
AcDbLine
 62
250
  6
CONTINUOUS
 10
10.7275287829
 20
0.3494412878
 11
10.6107420075
 21
0.3883623067
  0
LINE
  5
3B8
100
AcDbEntity
  8
DRAFT
100
AcDbLine
 62
7
  6
CONTINUOUS
 10
9.4734180816
 20
-0.0234292763
 11
9.5275287829
 21
-0.0504825665
  0
LINE
  5
3B9
100
AcDbEntity
  8
ASSI
100
AcDbLine
 62
7
  6
CONTINUOUS
 10
9.4734180816
 20
-0.0234292763
 11
9.5275287829
 21
-0.0504825665
  0
LINE
  5
3BA
100
AcDbEntity
  8
RACCORDO
100
AcDbLine
 62
250
  6
CONTINUOUS
 10
4.644262591
 20
-0.3434292763
 11
4.6558624795
 21
-0.3591297785
  0
LINE
  5
3BB
100
AcDbEntity
  8
ASSI
100
AcDbLine
 62
250
  6
CONTINUOUS
 10
4.644262591
 20
-0.3434292763
 11
4.6558624795
 21
-0.3591297785
  0
LWPOLYLINE
  5
3BC
100
AcDbEntity
  8
RACCORDO
100
AcDbPolyline
 62
7
  6
CONTINUOUS
 90
11
 70
0
 10
4.2875966525
 20
0.195288197
 10
4.3055552716
 20
0.1635200729
 10
4.3262651467
 20
0.1336346342
 10
4.3494923326
 20
0.1058796051
 10
4.3750429577
 20
0.0804249738
 10
4.402787154
 20
0.0573820885
 10
4.4325046805
 20
0.0369461983
 10
4.4639535744
 20
0.0192820731
 10
4.4969846179
 20
0.0044732989
 10
4.5313817176
 20
-0.0073389232
 10
4.5668496989
 20
-0.0159845354
  0
LWPOLYLINE
  5
3BD
100
AcDbEntity
  8
ASSI
100
AcDbPolyline
 62
7
  6
CONTINUOUS
 90
11
 70
0
 10
4.2875966525
 20
0.195288197
 10
4.3055552716
 20
0.1635200729
 10
4.3262651467
 20
0.1336346342
 10
4.3494923326
 20
0.1058796051
 10
4.3750429577
 20
0.0804249738
 10
4.402787154
 20
0.0573820885
 10
4.4325046805
 20
0.0369461983
 10
4.4639535744
 20
0.0192820731
 10
4.4969846179
 20
0.0044732989
 10
4.5313817176
 20
-0.0073389232
 10
4.5668496989
 20
-0.0159845354
  0
LINE
  5
3BE
100
AcDbEntity
  8
RACCORDO
100
AcDbLine
 62
7
  6
CONTINUOUS
 10
4.2725779005
 20
0.2287054671
 11
4.2875966525
 21
0.195288197
  0
LINE
  5
3BF
100
AcDbEntity
  8
ASSI
100
AcDbLine
 62
7
  6
CONTINUOUS
 10
4.2725779005
 20
0.2287054671
 11
4.2875966525
 21
0.195288197
  0
LWPOLYLINE
  5
3C0
100
AcDbEntity
  8
RACCORDO
100
AcDbPolyline
 62
250
  6
CONTINUOUS
 90
13
 70
0
 10
4.6558624745
 20
-0.3591297785
 10
4.6574823878
 20
-0.3631194068
 10
4.6597197674
 20
-0.3737475783
 10
4.6621622741
 20
-0.3906253417
 10
4.6640482258
 20
-0.4137364159
 10
4.6655556896
 20
-0.4430131023
 10
4.6675118165
 20
-0.4777037308
 10
4.6691184875
 20
-0.516915904
 10
4.6699323042
 20
-0.5603020818
 10
4.6711041777
 20
-0.6072300363
 10
4.6726187295
 20
-0.6567975837
 10
4.673254921
 20
-0.7079598235
 10
4.6723974875
 20
-0.7596665435
  0
LWPOLYLINE
  5
3C1
100
AcDbEntity
  8
ASSI
100
AcDbPolyline
 62
250
  6
CONTINUOUS
 90
13
 70
0
 10
4.6558624745
 20
-0.3591297785
 10
4.6574823878
 20
-0.3631194068
 10
4.6597197674
 20
-0.3737475783
 10
4.6621622741
 20
-0.3906253417
 10
4.6640482258
 20
-0.4137364159
 10
4.6655556896
 20
-0.4430131023
 10
4.6675118165
 20
-0.4777037308
 10
4.6691184875
 20
-0.516915904
 10
4.6699323042
 20
-0.5603020818
 10
4.6711041777
 20
-0.6072300363
 10
4.6726187295
 20
-0.6567975837
 10
4.673254921
 20
-0.7079598235
 10
4.6723974875
 20
-0.7596665435
  0
LWPOLYLINE
  5
3C2
100
AcDbEntity
  8
RACCORDO
100
AcDbPolyline
 62
7
  6
CONTINUOUS
 90
10
 70
0
 10
4.2725778892
 20
0.2287054639
 10
4.2712162188
 20
0.2321931778
 10
4.2698898613
 20
0.2356824665
 10
4.2685987854
 20
0.239173633
 10
4.2673435088
 20
0.2426661694
 10
4.2661234511
 20
0.2461611884
 10
4.264936914
 20
0.2496614087
 10
4.2637832874
 20
0.2531679206
 10
4.2626630685
 20
0.2566802003
 10
4.261576201
 20
0.2601985314
  0
LWPOLYLINE
  5
3C3
100
AcDbEntity
  8
ASSI
100
AcDbPolyline
 62
7
  6
CONTINUOUS
 90
10
 70
0
 10
4.2725778892
 20
0.2287054639
 10
4.2712162188
 20
0.2321931778
 10
4.2698898613
 20
0.2356824665
 10
4.2685987854
 20
0.239173633
 10
4.2673435088
 20
0.2426661694
 10
4.2661234511
 20
0.2461611884
 10
4.264936914
 20
0.2496614087
 10
4.2637832874
 20
0.2531679206
 10
4.2626630685
 20
0.2566802003
 10
4.261576201
 20
0.2601985314
  0
LWPOLYLINE
  5
3C4
100
AcDbEntity
  8
RACCORDO
100
AcDbPolyline
 62
250
  6
CONTINUOUS
 90
19
 70
0
 10
4.6723974875
 20
0.3928079908
 10
4.6268553598
 20
0.5225533668
 10
4.5728352502
 20
0.6477530516
 10
4.5103369055
 20
0.7684070715
 10
4.4389374341
 20
0.8851342822
 10
4.3590591096
 20
0.9973158701
 10
4.2719694341
 20
1.1030953433
 10
4.1776040283
 20
1.2022978585
 10
4.076026635
 20
1.2950982573
 10
3.9686970491
 20
1.3801645556
 10
3.8555431349
 20
1.4573946981
 10
3.7366365011
 20
1.5268907012
 10
3.6136527287
 20
1.5876266725
 10
3.4864288652
 20
1.6394959133
 10
3.3551275433
 20
1.6826050563
 10
3.2219129489
 20
1.7162481979
 10
3.0875065221
 20
1.7401900108
 10
2.9511868218
 20
1.7546657445
 10
2.8129538435
 20
1.7596753582
  0
LWPOLYLINE
  5
3C5
100
AcDbEntity
  8
ASSI
100
AcDbPolyline
 62
250
  6
CONTINUOUS
 90
19
 70
0
 10
4.6723974875
 20
0.3928079908
 10
4.6268553598
 20
0.5225533668
 10
4.5728352502
 20
0.6477530516
 10
4.5103369055
 20
0.7684070715
 10
4.4389374341
 20
0.8851342822
 10
4.3590591096
 20
0.9973158701
 10
4.2719694341
 20
1.1030953433
 10
4.1776040283
 20
1.2022978585
 10
4.076026635
 20
1.2950982573
 10
3.9686970491
 20
1.3801645556
 10
3.8555431349
 20
1.4573946981
 10
3.7366365011
 20
1.5268907012
 10
3.6136527287
 20
1.5876266725
 10
3.4864288652
 20
1.6394959133
 10
3.3551275433
 20
1.6826050563
 10
3.2219129489
 20
1.7162481979
 10
3.0875065221
 20
1.7401900108
 10
2.9511868218
 20
1.7546657445
 10
2.8129538435
 20
1.7596753582
  0
LWPOLYLINE
  5
3C6
100
AcDbEntity
  8
RACCORDO
100
AcDbPolyline
 62
250
  6
CONTINUOUS
 90
19
 70
0
 10
4.273881299
 20
0.2736044322
 10
4.238225698
 20
0.3756572186
 10
4.1954357496
 20
0.4751041482
 10
4.1456916732
 20
0.5714413965
 10
4.0891748767
 20
0.6642301137
 10
4.0261642422
 20
0.7529342483
 10
3.957071895
 20
0.8369489568
 10
3.882304566
 20
0.9158033501
 10
3.8021894637
 20
0.9891740576
 10
3.7170869741
 20
1.0567313867
 10
3.627421157
 20
1.1181336215
 10
3.5336318363
 20
1.1730747358
 10
3.43612352
 20
1.2213037449
 10
3.3352964688
 20
1.262592518
 10
3.2317204044
 20
1.2966785617
 10
3.1260865142
 20
1.3233348015
 10
3.0189880239
 20
1.3424389635
 10
2.9109038661
 20
1.3539330538
 10
2.8023738984
 20
1.3577801128
  0
LWPOLYLINE
  5
3C7
100
AcDbEntity
  8
ASSI
100
AcDbPolyline
 62
250
  6
CONTINUOUS
 90
19
 70
0
 10
4.273881299
 20
0.2736044322
 10
4.238225698
 20
0.3756572186
 10
4.1954357496
 20
0.4751041482
 10
4.1456916732
 20
0.5714413965
 10
4.0891748767
 20
0.6642301137
 10
4.0261642422
 20
0.7529342483
 10
3.957071895
 20
0.8369489568
 10
3.882304566
 20
0.9158033501
 10
3.8021894637
 20
0.9891740576
 10
3.7170869741
 20
1.0567313867
 10
3.627421157
 20
1.1181336215
 10
3.5336318363
 20
1.1730747358
 10
3.43612352
 20
1.2213037449
 10
3.3352964688
 20
1.262592518
 10
3.2317204044
 20
1.2966785617
 10
3.1260865142
 20
1.3233348015
 10
3.0189880239
 20
1.3424389635
 10
2.9109038661
 20
1.3539330538
 10
2.8023738984
 20
1.3577801128
  0
LWPOLYLINE
  5
3C8
100
AcDbEntity
  8
RACCORDO
100
AcDbPolyline
 62
250
  6
CONTINUOUS
 90
9
 70
0
 10
10.6398790064
 20
-21.7088596412
 10
10.6383674083
 20
-21.7034140303
 10
10.636889383
 20
-21.6934648989
 10
10.6354449306
 20
-21.6790122468
 10
10.6340239029
 20
-21.6598964421
 10
10.6326364481
 20
-21.6362771168
 10
10.6313130108
 20
-21.6086331674
 10
10.6300557139
 20
-21.5768823937
 10
10.6288624344
 20
-21.5411069959
  0
LWPOLYLINE
  5
3C9
100
AcDbEntity
  8
ASSI
100
AcDbPolyline
 62
250
  6
CONTINUOUS
 90
9
 70
0
 10
10.6398790064
 20
-21.7088596412
 10
10.6383674083
 20
-21.7034140303
 10
10.636889383
 20
-21.6934648989
 10
10.6354449306
 20
-21.6790122468
 10
10.6340239029
 20
-21.6598964421
 10
10.6326364481
 20
-21.6362771168
 10
10.6313130108
 20
-21.6086331674
 10
10.6300557139
 20
-21.5768823937
 10
10.6288624344
 20
-21.5411069959
  0
LWPOLYLINE
  5
3CA
100
AcDbEntity
  8
RACCORDO
100
AcDbPolyline
 62
250
  6
CONTINUOUS
 90
13
 70
0
 10
10.119529293
 20
-0.0107758733
 10
10.1240064118
 20
-0.0069348397
 10
10.128407657
 20
0.003619641
 10
10.1326584405
 20
0.0207087021
 10
10.1366867243
 20
0.0440427352
 10
10.1404242412
 20
0.0732262985
 10
10.1438076514
 20
0.1077648183
 10
10.1467796163
 20
0.1470729703
 10
10.1492897701
 20
0.1904845993
 10
10.1512955731
 20
0.2372640086
 10
10.152763033
 20
0.2866184276
 10
10.1536672809
 20
0.337711447
 10
10.1539929923
 20
0.3896771936
  0
LWPOLYLINE
  5
3CB
100
AcDbEntity
  8
ASSI
100
AcDbPolyline
 62
250
  6
CONTINUOUS
 90
13
 70
0
 10
10.119529293
 20
-0.0107758733
 10
10.1240064118
 20
-0.0069348397
 10
10.128407657
 20
0.003619641
 10
10.1326584405
 20
0.0207087021
 10
10.1366867243
 20
0.0440427352
 10
10.1404242412
 20
0.0732262985
 10
10.1438076514
 20
0.1077648183
 10
10.1467796163
 20
0.1470729703
 10
10.1492897701
 20
0.1904845993
 10
10.1512955731
 20
0.2372640086
 10
10.152763033
 20
0.2866184276
 10
10.1536672809
 20
0.337711447
 10
10.1539929923
 20
0.3896771936
  0
LWPOLYLINE
  5
3CC
100
AcDbEntity
  8
0
100
AcDbPolyline
 62
7
  6
CONTINUOUS
 90
3
 70
0
 43
0.3500000006
 10
17.7127263336
 20
0.9594285049
 10
17.9270119514
 20
0.887999588
 10
18.2127264862
 20
0.7451417542
  0
LWPOLYLINE
  5
3CD
100
AcDbEntity
  8
RACCORDO
100
AcDbPolyline
 62
250
  6
CONTINUOUS
 90
13
 70
0
 10
10.1195292884
 20
-0.3560826796
 10
10.1240061418
 20
-0.359924326
 10
10.1284071253
 20
-0.3704792976
 10
10.1326576564
 20
-0.3875687223
 10
10.1366857025
 20
-0.4109029902
 10
10.1404230013
 20
-0.4400866623
 10
10.1438062175
 20
-0.474625171
 10
10.1467780162
 20
-0.5139332019
 10
10.1492880347
 20
-0.557344613
 10
10.151293736
 20
-0.6041237233
 10
10.1527611291
 20
-0.6534777804
 10
10.1536653462
 20
-0.7045703949
 10
10.153991063
 20
-0.7565357148
  0
LWPOLYLINE
  5
3CE
100
AcDbEntity
  8
ASSI
100
AcDbPolyline
 62
250
  6
CONTINUOUS
 90
13
 70
0
 10
10.1195292884
 20
-0.3560826796
 10
10.1240061418
 20
-0.359924326
 10
10.1284071253
 20
-0.3704792976
 10
10.1326576564
 20
-0.3875687223
 10
10.1366857025
 20
-0.4109029902
 10
10.1404230013
 20
-0.4400866623
 10
10.1438062175
 20
-0.474625171
 10
10.1467780162
 20
-0.5139332019
 10
10.1492880347
 20
-0.557344613
 10
10.151293736
 20
-0.6041237233
 10
10.1527611291
 20
-0.6534777804
 10
10.1536653462
 20
-0.7045703949
 10
10.153991063
 20
-0.7565357148
  0
LWPOLYLINE
  5
3CF
100
AcDbEntity
  8
0
100
AcDbPolyline
 62
7
  6
CONTINUOUS
 90
10
 70
0
 43
0.3500000006
 10
17.4984407158
 20
0.887999588
 10
17.6412985497
 20
0.9594285049
 10
17.7127263336
 20
0.9594285049
 10
17.8555841675
 20
0.8165706711
 10
17.8555841675
 20
0.7451417542
 10
17.7841552505
 20
0.6737128372
 10
17.7127263336
 20
0.6737128372
 10
17.5698696327
 20
0.7451417542
 10
17.4984407158
 20
0.8165706711
 10
17.4984407158
 20
0.887999588
  0
LWPOLYLINE
  5
3D0
100
AcDbEntity
  8
0
100
AcDbPolyline
 62
250
  6
CONTINUOUS
 90
87
 70
0
 10
3.7723260581
 20
-10.3540469012
 10
3.780795585
 20
-10.3454404579
 10
3.7888363973
 20
-10.3366387008
 10
3.7964818413
 20
-10.3276264277
 10
3.8037652636
 20
-10.3183884361
 10
3.8107200107
 20
-10.3089095235
 10
3.8189890754
 20
-10.2967052399
 10
3.8267839931
 20
-10.2841089427
 10
3.8340920684
 20
-10.2711288111
 10
3.8409006055
 20
-10.2577730242
 10
3.8471948433
 20
-10.2440558702
 10
3.852951758
 20
-10.2300160735
 10
3.8581462605
 20
-10.2156984675
 10
3.8627532614
 20
-10.2011478858
 10
3.8659997
 20
-10.1893690221
 10
3.868845428
 20
-10.1774879988
 10
3.8712817928
 20
-10.1655230672
 10
3.8733001418
 20
-10.1534924788
 10
3.8748918226
 20
-10.1414144849
 10
3.8760494387
 20
-10.1293060062
 10
3.8767706185
 20
-10.1171786399
 10
3.8770542464
 20
-10.1050426522
 10
3.876899207
 20
-10.0929083094
 10
3.8763043847
 20
-10.080785878
 10
3.8752688216
 20
-10.0686839411
 10
3.8737921903
 20
-10.05660435
 10
3.8718743206
 20
-10.0445472727
 10
3.8695150427
 20
-10.0325128774
 10
3.8667141866
 20
-10.020501332
 10
3.8634725238
 20
-10.0085179768
 10
3.8597945912
 20
-9.9965888398
 10
3.8556858675
 20
-9.984745121
 10
3.851151831
 20
-9.9730180204
 10
3.8461979602
 20
-9.9614387381
 10
3.8408320565
 20
-9.9500377499
 10
3.8350712124
 20
-9.9388426357
 10
3.8289348434
 20
-9.9278802509
 10
3.822442365
 20
-9.9171774512
 10
3.8156131925
 20
-9.9067610921
 10
3.8084636567
 20
-9.8966533489
 10
3.8009977487
 20
-9.8868576754
 10
3.7932163749
 20
-9.8773728449
 10
3.7851204416
 20
-9.8681976309
 10
3.7767108553
 20
-9.8593308067
 10
3.7679881185
 20
-9.8507715072
 10
3.7589511182
 20
-9.842520312
 10
3.7495983378
 20
-9.8345781623
 10
3.7399282605
 20
-9.8269459992
 10
3.7299393697
 20
-9.8196247638
 10
3.7196348464
 20
-9.8126185597
 10
3.7090366639
 20
-9.8059441408
 10
3.698171493
 20
-9.7996214235
 10
3.6870660048
 20
-9.7936703242
 10
3.6757468703
 20
-9.7881107593
 10
3.6642415019
 20
-9.7829603194
 10
3.6525802788
 20
-9.7782272925
 10
3.6407943215
 20
-9.773917641
 10
3.6289147505
 20
-9.7700373272
 10
3.6169726863
 20
-9.7665923132
 10
3.6049941109
 20
-9.7635875313
 10
3.5929844512
 20
-9.7610237932
 10
3.5809439953
 20
-9.7589008804
 10
3.5688730316
 20
-9.7572185744
 10
3.5567718482
 20
-9.7559766568
 10
3.5446424085
 20
-9.7551748172
 10
3.5324933767
 20
-9.7548123781
 10
3.520335092
 20
-9.75488857
 10
3.5081778936
 20
-9.7554026234
 10
3.4960321208
 20
-9.7563537688
 10
3.4839094677
 20
-9.7577399754
 10
3.4718270476
 20
-9.7595541661
 10
3.4598033286
 20
-9.7617880027
 10
3.4478567789
 20
-9.7644331467
 10
3.4360058667
 20
-9.7674812598
 10
3.4213564309
 20
-9.7718440062
 10
3.4069308324
 20
-9.7767988737
 10
3.3927746181
 20
-9.782321373
 10
3.3789333354
 20
-9.7883870146
 10
3.3654462987
 20
-9.7949733024
 10
3.3523278924
 20
-9.8020657119
 10
3.3395862679
 20
-9.8096517122
 10
3.3272295768
 20
-9.817718772
 10
3.3176235294
 20
-9.8245169378
 10
3.3082532836
 20
-9.8316480027
 10
3.2991030665
 20
-9.8391450076
 10
3.2901571055
 20
-9.8470409933
 10
3.2813996276
 20
-9.8553690007
  0
LWPOLYLINE
  5
3D1
100
AcDbEntity
  8
0
100
AcDbPolyline
 62
250
  6
CONTINUOUS
 90
16
 70
0
 10
3.2813996276
 20
-9.8553690007
 10
3.0587444302
 20
-10.0722533374
 10
2.8338696717
 20
-10.2866929828
 10
2.6067391216
 20
-10.498722574
 10
2.3773165496
 20
-10.7083767482
 10
2.1455657252
 20
-10.9156901426
 10
1.9114759819
 20
-11.1206754897
 10
1.6751389089
 20
-11.3232579049
 10
1.4366716592
 20
-11.5233405988
 10
1.1961913858
 20
-11.7208267824
 10
0.9538152418
 20
-11.9156196663
 10
0.709634369
 20
-12.1076438451
 10
0.463635864
 20
-12.296909448
 10
0.215780812
 20
-12.4834479883
 10
-0.0339697014
 20
-12.6672909788
 10
-0.285654591
 20
-12.8484699328
  0
LWPOLYLINE
  5
3D2
100
AcDbEntity
  8
0
100
AcDbPolyline
 62
250
  6
CONTINUOUS
 90
87
 70
0
 10
3.2817438122
 20
9.488510448
 10
3.2905903447
 20
9.4801405306
 10
3.2996208775
 20
9.4722086384
 10
3.30885099
 20
9.4646814331
 10
3.3182962611
 20
9.4575255767
 10
3.3279722701
 20
9.4507077309
 10
3.3404087646
 20
9.4426228649
 10
3.3532202043
 20
9.4350263512
 10
3.3663966639
 20
9.4279304917
 10
3.3799282182
 20
9.4213475879
 10
3.3937992753
 20
9.415291714
 10
3.4079715757
 20
9.4097840326
 10
3.4224011928
 20
9.4048474788
 10
3.4370442003
 20
9.4005049876
 10
3.4488834479
 20
9.3974735273
 10
3.4608129761
 20
9.3948450597
 10
3.4728146085
 20
9.3926276994
 10
3.4848701689
 20
9.3908295605
 10
3.4969614807
 20
9.3894587574
 10
3.5090717585
 20
9.3885221223
 10
3.5211897793
 20
9.3880213592
 10
3.533305711
 20
9.3879568898
 10
3.5454097213
 20
9.3883291362
 10
3.5574919782
 20
9.38913852
 10
3.5695442806
 20
9.3903854003
 10
3.5815649526
 20
9.3920698852
 10
3.5935539492
 20
9.3941920198
 10
3.6055112257
 20
9.3967518495
 10
3.6174367371
 20
9.3997494194
 10
3.6293253361
 20
9.4031837787
 10
3.6411514647
 20
9.4070499917
 10
3.6528844622
 20
9.4113421268
 10
3.6644936681
 20
9.4160542524
 10
3.6759484218
 20
9.4211804366
 10
3.687218844
 20
9.4267125437
 10
3.6982781807
 20
9.4326336213
 10
3.7091004592
 20
9.4389245126
 10
3.7196597066
 20
9.4455660612
 10
3.7299299503
 20
9.4525391104
 10
3.7398896712
 20
9.4598275409
 10
3.7495351644
 20
9.4674273824
 10
3.7588671787
 20
9.4753377017
 10
3.767886463
 20
9.4835575659
 10
3.7765937661
 20
9.4920860418
 10
3.7849895883
 20
9.5009226544
 10
3.7930734359
 20
9.5100687603
 10
3.8008445669
 20
9.5195261743
 10
3.8083022392
 20
9.529296711
 10
3.8154457106
 20
9.539382185
 10
3.822271094
 20
9.5497795947
 10
3.8287619217
 20
9.5604666724
 10
3.8348985807
 20
9.5714163342
 10
3.8406614583
 20
9.5826014963
 10
3.8460309416
 20
9.5939950745
 10
3.8509897851
 20
9.6055693089
 10
3.8555302124
 20
9.6172937343
 10
3.8596468142
 20
9.6291372094
 10
3.8633341815
 20
9.6410685931
 10
3.8665869052
 20
9.653056744
 10
3.8694005219
 20
9.6650756425
 10
3.8717743511
 20
9.6771197545
 10
3.873708658
 20
9.6891886679
 10
3.8752037079
 20
9.7012819701
 10
3.8762597661
 20
9.7133992489
 10
3.8768772018
 20
9.7255384338
 10
3.8770567994
 20
9.7376908224
 10
3.8767994473
 20
9.7498460545
 10
3.8761060339
 20
9.7619937697
 10
3.8749774476
 20
9.7741236076
 10
3.8734158352
 20
9.7862238646
 10
3.871428377
 20
9.7982774641
 10
3.8690235116
 20
9.8102659863
 10
3.8662096778
 20
9.8221710114
 10
3.8629953142
 20
9.8339741195
 10
3.858428416
 20
9.848555042
 10
3.85327403
 20
9.8629024804
 10
3.8475573106
 20
9.8769709769
 10
3.8413034125
 20
9.8907150735
 10
3.8345353618
 20
9.9040956219
 10
3.8272676722
 20
9.917098712
 10
3.8195127289
 20
9.9297167429
 10
3.8112829172
 20
9.9419421138
 10
3.8043589261
 20
9.9514377542
 10
3.7971059299
 20
9.9606923347
 10
3.7894909126
 20
9.9697209623
 10
3.7814808582
 20
9.9785387439
 10
3.7730427508
 20
9.9871607865
  0
LWPOLYLINE
  5
3D3
100
AcDbEntity
  8
0
100
AcDbPolyline
 62
250
  6
CONTINUOUS
 90
16
 70
0
 10
3.7730371531
 20
9.9871662964
 10
3.5398298131
 20
10.2142663407
 10
3.3042446813
 20
10.4387483162
 10
3.0662421379
 20
10.6606500291
 10
2.8257825631
 20
10.8800092852
 10
2.5828263372
 20
11.0968638905
 10
2.3373618053
 20
11.3112277596
 10
2.0894891737
 20
11.5230192418
 10
1.8393366136
 20
11.7321327951
 10
1.5870322962
 20
11.9384628772
 10
1.3327043929
 20
12.1419039463
 10
1.0764526068
 20
12.34237376
 10
0.8182627696
 20
12.5398832754
 10
0.5580922448
 20
12.7344667498
 10
0.2958983962
 20
12.9261584399
 10
0.0316385873
 20
13.1149926029
  0
LWPOLYLINE
  5
3D4
100
AcDbEntity
  8
RACCORDO
100
AcDbPolyline
 62
250
  6
CONTINUOUS
 90
6
 70
0
 10
10.1463882524
 20
21.7167647305
 10
10.1451850368
 20
21.7570436139
 10
10.1439162644
 20
21.7898376386
 10
10.1425917246
 20
21.8149220847
 10
10.141288232
 20
21.8321217851
 10
10.1400503449
 20
21.8413158579
  0
LWPOLYLINE
  5
3D5
100
AcDbEntity
  8
ASSI
100
AcDbPolyline
 62
250
  6
CONTINUOUS
 90
6
 70
0
 10
10.1463882524
 20
21.7167647305
 10
10.1451850368
 20
21.7570436139
 10
10.1439162644
 20
21.7898376386
 10
10.1425917246
 20
21.8149220847
 10
10.141288232
 20
21.8321217851
 10
10.1400503449
 20
21.8413158579
  0
LINE
  5
3D6
100
AcDbEntity
  8
RACCORDO
100
AcDbLine
 62
250
  6
CONTINUOUS
 10
10.6288624344
 20
-21.5411069959
 11
10.6267420495
 21
-21.4595924539
  0
LINE
  5
3D7
100
AcDbEntity
  8
ASSI
100
AcDbLine
 62
250
  6
CONTINUOUS
 10
10.6288624344
 20
-21.5411069959
 11
10.6267420495
 21
-21.4595924539
  0
LINE
  5
3D8
100
AcDbEntity
  8
RACCORDO
100
AcDbLine
 62
250
  6
CONTINUOUS
 10
10.1487352069
 20
21.6148794039
 11
10.1463882524
 21
21.7167647305
  0
LINE
  5
3D9
100
AcDbEntity
  8
ASSI
100
AcDbLine
 62
250
  6
CONTINUOUS
 10
10.1487352069
 20
21.6148794039
 11
10.1463882524
 21
21.7167647305
  0
LINE
  5
3DA
100
AcDbEntity
  8
RACCORDO
100
AcDbLine
 62
250
  6
CONTINUOUS
 10
10.6267420495
 20
-21.4595924539
 11
10.6249943226
 21
-21.3657396341
  0
LINE
  5
3DB
100
AcDbEntity
  8
ASSI
100
AcDbLine
 62
250
  6
CONTINUOUS
 10
10.6267420495
 20
-21.4595924539
 11
10.6249943226
 21
-21.3657396341
  0
LINE
  5
3DC
100
AcDbEntity
  8
RACCORDO
100
AcDbLine
 62
250
  6
CONTINUOUS
 10
10.1518018152
 20
21.4142412602
 11
10.1487352069
 21
21.6148794039
  0
LINE
  5
3DD
100
AcDbEntity
  8
ASSI
100
AcDbLine
 62
250
  6
CONTINUOUS
 10
10.1518018152
 20
21.4142412602
 11
10.1487352069
 21
21.6148794039
  0
LINE
  5
3DE
100
AcDbEntity
  8
RACCORDO
100
AcDbLine
 62
250
  6
CONTINUOUS
 10
10.6249943226
 20
-21.3657396341
 11
10.6236768147
 21
-21.2622317819
  0
LINE
  5
3DF
100
AcDbEntity
  8
ASSI
100
AcDbLine
 62
250
  6
CONTINUOUS
 10
10.6249943226
 20
-21.3657396341
 11
10.6236768147
 21
-21.2622317819
  0
LINE
  5
3E0
100
AcDbEntity
  8
RACCORDO
100
AcDbLine
 62
250
  6
CONTINUOUS
 10
10.1548405027
 20
21.0772284225
 11
10.1518018152
 21
21.4142412602
  0
LINE
  5
3E1
100
AcDbEntity
  8
ASSI
100
AcDbLine
 62
250
  6
CONTINUOUS
 10
10.1548405027
 20
21.0772284225
 11
10.1518018152
 21
21.4142412602
  0
LINE
  5
3E2
100
AcDbEntity
  8
RACCORDO
100
AcDbLine
 62
250
  6
CONTINUOUS
 10
10.6236768147
 20
-21.2622317819
 11
10.6228251341
 21
-21.1530923221
  0
LINE
  5
3E3
100
AcDbEntity
  8
ASSI
100
AcDbLine
 62
250
  6
CONTINUOUS
 10
10.6236768147
 20
-21.2622317819
 11
10.6228251341
 21
-21.1530923221
  0
LINE
  5
3E4
100
AcDbEntity
  8
RACCORDO
100
AcDbLine
 62
250
  6
CONTINUOUS
 10
10.1564314875
 20
20.693975284
 11
10.1548405027
 21
21.0772284225
  0
LINE
  5
3E5
100
AcDbEntity
  8
ASSI
100
AcDbLine
 62
250
  6
CONTINUOUS
 10
10.1564314875
 20
20.693975284
 11
10.1548405027
 21
21.0772284225
  0
LINE
  5
3E6
100
AcDbEntity
  8
RACCORDO
100
AcDbLine
 62
7
  6
CONTINUOUS
 10
10.7079144157
 20
21.4781652751
 11
10.7275287829
 21
12.9165707237
  0
LINE
  5
3E7
100
AcDbEntity
  8
ASSI
100
AcDbLine
 62
7
  6
CONTINUOUS
 10
10.7079144157
 20
21.4781652751
 11
10.7275287829
 21
12.9165707237
  0
LINE
  5
3E8
100
AcDbEntity
  8
RACCORDO
100
AcDbLine
 62
250
  6
CONTINUOUS
 10
10.6228251341
 20
-21.1530923221
 11
10.6159979831
 21
-14.1635672446
  0
LINE
  5
3E9
100
AcDbEntity
  8
ASSI
100
AcDbLine
 62
250
  6
CONTINUOUS
 10
10.6228251341
 20
-21.1530923221
 11
10.6159979831
 21
-14.1635672446
  0
LINE
  5
3EA
100
AcDbEntity
  8
RACCORDO
100
AcDbLine
 62
250
  6
CONTINUOUS
 10
10.6159979831
 20
-14.1635672446
 11
10.6114773339
 21
-5.3750421871
  0
LINE
  5
3EB
100
AcDbEntity
  8
ASSI
100
AcDbLine
 62
250
  6
CONTINUOUS
 10
10.6159979831
 20
-14.1635672446
 11
10.6114773339
 21
-5.3750421871
  0
LINE
  5
3EC
100
AcDbEntity
  8
RACCORDO
100
AcDbLine
 62
250
  6
CONTINUOUS
 10
10.6114773339
 20
-5.3750421871
 11
10.6107420058
 21
-0.7552208599
  0
LINE
  5
3ED
100
AcDbEntity
  8
ASSI
100
AcDbLine
 62
250
  6
CONTINUOUS
 10
10.6114773339
 20
-5.3750421871
 11
10.6107420058
 21
-0.7552208599
  0
LINE
  5
3EE
100
AcDbEntity
  8
RACCORDO
100
AcDbLine
 62
7
  6
CONTINUOUS
 10
10.7275287829
 20
12.9165707237
 11
10.7275287829
 21
0.3494412878
  0
LINE
  5
3EF
100
AcDbEntity
  8
ASSI
100
AcDbLine
 62
7
  6
CONTINUOUS
 10
10.7275287829
 20
12.9165707237
 11
10.7275287829
 21
0.3494412878
  0
LINE
  5
3F0
100
AcDbEntity
  8
RACCORDO
100
AcDbLine
 62
7
  6
CONTINUOUS
 10
10.7275287829
 20
-0.7162998404
 11
10.7275287829
 21
-13.2834292763
  0
LINE
  5
3F1
100
AcDbEntity
  8
ASSI
100
AcDbLine
 62
7
  6
CONTINUOUS
 10
10.7275287829
 20
-0.7162998404
 11
10.7275287829
 21
-13.2834292763
  0
LINE
  5
3F2
100
AcDbEntity
  8
RACCORDO
100
AcDbLine
 62
250
  6
CONTINUOUS
 10
10.1539928285
 20
0.3896771938
 11
10.1564314787
 21
20.6939752845
  0
LINE
  5
3F3
100
AcDbEntity
  8
ASSI
100
AcDbLine
 62
250
  6
CONTINUOUS
 10
10.1539928285
 20
0.3896771938
 11
10.1564314787
 21
20.6939752845
  0
LINE
  5
3F4
100
AcDbEntity
  8
RACCORDO
100
AcDbLine
 62
250
  6
CONTINUOUS
 10
10.6107420075
 20
0.3883623067
 11
10.6141214893
 21
11.0652282699
  0
LINE
  5
3F5
100
AcDbEntity
  8
ASSI
100
AcDbLine
 62
250
  6
CONTINUOUS
 10
10.6107420075
 20
0.3883623067
 11
10.6141214893
 21
11.0652282699
  0
LINE
  5
3F6
100
AcDbEntity
  8
RACCORDO
100
AcDbLine
 62
7
  6
CONTINUOUS
 10
10.7079144157
 20
-21.8450238277
 11
10.7275287829
 21
-13.2834292763
  0
LINE
  5
3F7
100
AcDbEntity
  8
ASSI
100
AcDbLine
 62
7
  6
CONTINUOUS
 10
10.7079144157
 20
-21.8450238277
 11
10.7275287829
 21
-13.2834292763
  0
LINE
  5
3F8
100
AcDbEntity
  8
RACCORDO
100
AcDbLine
 62
250
  6
CONTINUOUS
 10
10.1558470763
 20
-21.2557784948
 11
10.1539928039
 21
-0.7565357432
  0
LINE
  5
3F9
100
AcDbEntity
  8
ASSI
100
AcDbLine
 62
250
  6
CONTINUOUS
 10
10.1558470763
 20
-21.2557784948
 11
10.1539928039
 21
-0.7565357432
  0
LINE
  5
3FA
100
AcDbEntity
  8
RACCORDO
100
AcDbLine
 62
250
  6
CONTINUOUS
 10
10.6141214893
 20
11.0652282699
 11
10.6228251349
 21
20.7862337717
  0
LINE
  5
3FB
100
AcDbEntity
  8
ASSI
100
AcDbLine
 62
250
  6
CONTINUOUS
 10
10.6141214893
 20
11.0652282699
 11
10.6228251349
 21
20.7862337717
  0
LINE
  5
3FC
100
AcDbEntity
  8
RACCORDO
100
AcDbLine
 62
250
  6
CONTINUOUS
 10
10.1534826195
 20
-21.6207430791
 11
10.1558470763
 21
-21.2557784948
  0
LINE
  5
3FD
100
AcDbEntity
  8
ASSI
100
AcDbLine
 62
250
  6
CONTINUOUS
 10
10.1534826195
 20
-21.6207430791
 11
10.1558470763
 21
-21.2557784948
  0
LINE
  5
3FE
100
AcDbEntity
  8
RACCORDO
100
AcDbLine
 62
250
  6
CONTINUOUS
 10
10.6228251349
 20
20.7862337717
 11
10.6236768157
 21
20.8953732313
  0
LINE
  5
3FF
100
AcDbEntity
  8
ASSI
100
AcDbLine
 62
250
  6
CONTINUOUS
 10
10.6228251349
 20
20.7862337717
 11
10.6236768157
 21
20.8953732313
  0
LINE
  5
400
100
AcDbEntity
  8
RACCORDO
100
AcDbLine
 62
250
  6
CONTINUOUS
 10
10.1508323201
 20
-21.8537887701
 11
10.1534826195
 21
-21.6207430791
  0
LINE
  5
401
100
AcDbEntity
  8
ASSI
100
AcDbLine
 62
250
  6
CONTINUOUS
 10
10.1508323201
 20
-21.8537887701
 11
10.1534826195
 21
-21.6207430791
  0
LINE
  5
402
100
AcDbEntity
  8
RACCORDO
100
AcDbLine
 62
250
  6
CONTINUOUS
 10
10.6236768157
 20
20.8953732313
 11
10.6249943236
 21
20.9988810835
  0
LINE
  5
403
100
AcDbEntity
  8
ASSI
100
AcDbLine
 62
250
  6
CONTINUOUS
 10
10.6236768157
 20
20.8953732313
 11
10.6249943236
 21
20.9988810835
  0
LINE
  5
404
100
AcDbEntity
  8
RACCORDO
100
AcDbLine
 62
250
  6
CONTINUOUS
 10
10.1487351982
 20
-21.981737955
 11
10.1508323201
 21
-21.8537887701
  0
LINE
  5
405
100
AcDbEntity
  8
ASSI
100
AcDbLine
 62
250
  6
CONTINUOUS
 10
10.1487351982
 20
-21.981737955
 11
10.1508323201
 21
-21.8537887701
  0
LINE
  5
406
100
AcDbEntity
  8
RACCORDO
100
AcDbLine
 62
250
  6
CONTINUOUS
 10
10.6249943236
 20
20.9988810835
 11
10.6267420504
 21
21.0927339033
  0
LINE
  5
407
100
AcDbEntity
  8
ASSI
100
AcDbLine
 62
250
  6
CONTINUOUS
 10
10.6249943236
 20
20.9988810835
 11
10.6267420504
 21
21.0927339033
  0
LWPOLYLINE
  5
408
100
AcDbEntity
  8
RACCORDO
100
AcDbPolyline
 62
250
  6
CONTINUOUS
 90
10
 70
0
 10
10.6267420504
 20
21.0927339033
 10
10.6288624354
 20
21.1742484453
 10
10.6300557148
 20
21.210023843
 10
10.6313130117
 20
21.2417746167
 10
10.6326364491
 20
21.2694185662
 10
10.6340239039
 20
21.2930378916
 10
10.6354449316
 20
21.3121536965
 10
10.6368893839
 20
21.3266063485
 10
10.6383674092
 20
21.3365554798
 10
10.6398790074
 20
21.3420010905
  0
LWPOLYLINE
  5
409
100
AcDbEntity
  8
ASSI
100
AcDbPolyline
 62
250
  6
CONTINUOUS
 90
10
 70
0
 10
10.6267420504
 20
21.0927339033
 10
10.6288624354
 20
21.1742484453
 10
10.6300557148
 20
21.210023843
 10
10.6313130117
 20
21.2417746167
 10
10.6326364491
 20
21.2694185662
 10
10.6340239039
 20
21.2930378916
 10
10.6354449316
 20
21.3121536965
 10
10.6368893839
 20
21.3266063485
 10
10.6383674092
 20
21.3365554798
 10
10.6398790074
 20
21.3420010905
  0
LWPOLYLINE
  5
40A
100
AcDbEntity
  8
0
100
AcDbPolyline
 62
250
  6
CONTINUOUS
 90
16
 70
0
 10
0.030949893
 20
-13.4818511556
 10
0.2952881564
 20
-13.2930065223
 10
0.557548941
 20
-13.1013055214
 10
0.8177751012
 20
-12.9067138656
 10
1.0760094916
 20
-12.7091972677
 10
1.3322949666
 20
-12.5087214404
 10
1.5866458111
 20
-12.3052754781
 10
1.8389620305
 20
-12.0989420029
 10
2.0891150603
 20
-11.8898270185
 10
2.3369763362
 20
-11.6780365288
 10
2.5824172939
 20
-11.4636765374
 10
2.825337437
 20
-11.24682907
 10
3.0657485412
 20
-11.0274802388
 10
3.3036904503
 20
-10.8055921776
 10
3.539203008
 20
-10.5811270204
 10
3.7723260581
 20
-10.3540469012
  0
LWPOLYLINE
  5
40B
100
AcDbEntity
  8
0
100
AcDbPolyline
 62
250
  6
CONTINUOUS
 90
47
 70
0
 10
-0.285654591
 20
-12.8484699328
 10
-0.2891330206
 20
-12.8508563046
 10
-0.2926140899
 20
-12.8531217382
 10
-0.2961020681
 20
-12.8552692805
 10
-0.2996012247
 20
-12.8573019786
 10
-0.3031158292
 20
-12.8592228795
 10
-0.306650151
 20
-12.8610350301
 10
-0.3102084593
 20
-12.8627414773
 10
-0.3137950238
 20
-12.8643452683
 10
-0.3179321755
 20
-12.8660555857
 10
-0.3221070517
 20
-12.8676355873
 10
-0.3263148947
 20
-12.8690850596
 10
-0.3305509465
 20
-12.8704037886
 10
-0.3348104496
 20
-12.8715915608
 10
-0.339088646
 20
-12.8726481623
 10
-0.3433807781
 20
-12.8735733795
 10
-0.3476825727
 20
-12.8743671516
 10
-0.3519916951
 20
-12.8750300305
 10
-0.3563062954
 20
-12.875562721
 10
-0.3606245236
 20
-12.8759659279
 10
-0.3649445297
 20
-12.8762403561
 10
-0.3692644637
 20
-12.8763867105
 10
-0.3735824756
 20
-12.8764056958
 10
-0.3778965237
 20
-12.8762980479
 10
-0.3822037993
 20
-12.8760646266
 10
-0.3865013019
 20
-12.8757063227
 10
-0.390786031
 20
-12.8752240269
 10
-0.3950549863
 20
-12.87461863
 10
-0.3993051673
 20
-12.8738910228
 10
-0.4035335735
 20
-12.873042096
 10
-0.4072134913
 20
-12.8722003684
 10
-0.4108741297
 20
-12.8712664516
 10
-0.414515178
 20
-12.8702403599
 10
-0.4181363254
 20
-12.8691221074
 10
-0.4217373118
 20
-12.8679115571
 10
-0.4253180807
 20
-12.8666079674
 10
-0.4288786262
 20
-12.8652104456
 10
-0.4324189425
 20
-12.8637180988
 10
-0.4359376686
 20
-12.8621308899
 10
-0.4394280237
 20
-12.8604522037
 10
-0.4428818715
 20
-12.8586862807
 10
-0.4462910761
 20
-12.8568373613
 10
-0.4489833355
 20
-12.8552995052
 10
-0.4516526883
 20
-12.8537025398
 10
-0.4543100065
 20
-12.8520377596
 10
-0.4569661623
 20
-12.8502964591
 10
-0.4596320278
 20
-12.8484699328
  0
LWPOLYLINE
  5
40C
100
AcDbEntity
  8
0
100
AcDbPolyline
 62
250
  6
CONTINUOUS
 90
49
 70
0
 10
0.0316385873
 20
13.1149926029
 10
0.0167952902
 20
13.1251478237
 10
0.0018244816
 20
13.1348247036
 10
-0.0132934769
 20
13.144045591
 10
-0.0285782237
 20
13.1528328342
 10
-0.0440493972
 20
13.1612087812
 10
-0.0597266358
 20
13.1691957806
 10
-0.07562613
 20
13.1768114506
 10
-0.0917502793
 20
13.1840544906
 10
-0.1080980356
 20
13.1909188703
 10
-0.1246683506
 20
13.197398559
 10
-0.1414601761
 20
13.2034875264
 10
-0.1584724638
 20
13.209179742
 10
-0.1757003323
 20
13.2144683517
 10
-0.1931235677
 20
13.2193432073
 10
-0.2107181226
 20
13.2237933367
 10
-0.2284599502
 20
13.2278077681
 10
-0.246325003
 20
13.2313755294
 10
-0.2642892341
 20
13.2344856489
 10
-0.2823304012
 20
13.2371282124
 10
-0.3004334823
 20
13.239297538
 10
-0.3185852605
 20
13.2409890015
 10
-0.3367725188
 20
13.2421979788
 10
-0.35498204
 20
13.2429198458
 10
-0.3732006073
 20
13.2431499783
 10
-0.3914150289
 20
13.2428853688
 10
-0.4096122136
 20
13.2421294768
 10
-0.4277790958
 20
13.2408873782
 10
-0.4459026096
 20
13.2391641489
 10
-0.4639696892
 20
13.2369648649
 10
-0.4819672687
 20
13.2342946021
 10
-0.4998804523
 20
13.2311594617
 10
-0.5176870228
 20
13.2275696446
 10
-0.5353629333
 20
13.2235363771
 10
-0.5528841366
 20
13.2190708852
 10
-0.5702265855
 20
13.2141843952
 10
-0.587366233
 20
13.2088881332
 10
-0.6042828971
 20
13.2031924914
 10
-0.6209718557
 20
13.1971045269
 10
-0.6374322521
 20
13.1906304626
 10
-0.6536632295
 20
13.1837765216
 10
-0.6696639309
 20
13.176548927
 10
-0.6854334997
 20
13.1689539018
 10
-0.7009745195
 20
13.1609929303
 10
-0.716303337
 20
13.1526485411
 10
-0.7314397393
 20
13.143898524
 10
-0.7464035137
 20
13.1347206687
 10
-0.7612144472
 20
13.1250927651
 10
-0.7758923272
 20
13.1149926029
  0
LWPOLYLINE
  5
40D
100
AcDbEntity
  8
0
100
AcDbPolyline
 62
250
  6
CONTINUOUS
 90
16
 70
0
 10
-0.2853104064
 20
12.4816113801
 10
-0.0332897117
 20
12.3001916578
 10
0.2167472095
 20
12.1161400976
 10
0.4648397103
 20
11.929425614
 10
0.7110271434
 20
11.740017121
 10
0.9553488616
 20
11.5478835329
 10
1.1978181473
 20
11.3530151912
 10
1.438344001
 20
11.1554881459
 10
1.6768093528
 20
10.9553998744
 10
1.9130971326
 20
10.752847854
 10
2.1470902706
 20
10.5479295618
 10
2.3786973362
 20
10.3407205131
 10
2.6079294565
 20
10.1312083736
 10
2.8348233982
 20
9.9193588471
 10
3.0594159279
 20
9.7051376374
 10
3.2817438122
 20
9.488510448
  0
LWPOLYLINE
  5
40E
100
AcDbEntity
  8
RACCORDO
100
AcDbPolyline
 62
250
  6
CONTINUOUS
 90
7
 70
0
 10
10.140050344
 20
-22.2081744086
 10
10.1412882299
 20
-22.1989803367
 10
10.1425917214
 20
-22.1817806377
 10
10.1439162601
 20
-22.1566961929
 10
10.1451850313
 20
-22.1239021686
 10
10.1463882456
 20
-22.0836232841
 10
10.1487351982
 20
-21.981737955
  0
LWPOLYLINE
  5
40F
100
AcDbEntity
  8
ASSI
100
AcDbPolyline
 62
250
  6
CONTINUOUS
 90
7
 70
0
 10
10.140050344
 20
-22.2081744086
 10
10.1412882299
 20
-22.1989803367
 10
10.1425917214
 20
-22.1817806377
 10
10.1439162601
 20
-22.1566961929
 10
10.1451850313
 20
-22.1239021686
 10
10.1463882456
 20
-22.0836232841
 10
10.1487351982
 20
-21.981737955
  0
LWPOLYLINE
  5
410
100
AcDbEntity
  8
0
100
AcDbPolyline
 62
7
  6
CONTINUOUS
 90
10
 70
0
 43
0.3500000006
 10
0.5918145103
 20
31.4992116852
 10
0.6632430732
 20
31.3563538513
 10
0.6632430732
 20
31.2849272003
 10
0.5203859121
 20
31.1420693665
 10
0.4489573492
 20
31.1420693665
 10
0.3775287863
 20
31.2134960175
 10
0.3775287863
 20
31.2849272003
 10
0.4489573492
 20
31.4277805023
 10
0.5203859121
 20
31.4992116852
 10
0.5918145103
 20
31.4992116852
  0
LWPOLYLINE
  5
411
100
AcDbEntity
  8
0
100
AcDbPolyline
 62
7
  6
CONTINUOUS
 90
5
 70
0
 43
0.3500000006
 10
16.2841547928
 20
2.8165712814
 10
16.069869175
 20
3.1737136002
 10
15.4270123215
 20
3.1737136002
 10
14.9984410858
 20
2.8165712814
 10
14.9984410858
 20
1.9594288101
  0
LWPOLYLINE
  5
412
100
AcDbEntity
  8
0
100
AcDbPolyline
 62
7
  6
CONTINUOUS
 90
3
 70
0
 43
0.3500000006
 10
17.3555840149
 20
-0.6120008698
 10
17.3555840149
 20
-2.1120001945
 10
14.9984410858
 20
-1.4691433411
  0
LWPOLYLINE
  5
413
100
AcDbEntity
  8
0
100
AcDbPolyline
 62
7
  6
CONTINUOUS
 90
3
 70
0
 43
0.3500000006
 10
17.3555840149
 20
-2.9691437988
 10
17.3555840149
 20
-4.4691431236
 10
14.9984410858
 20
-3.8262862701
  0
LWPOLYLINE
  5
414
100
AcDbEntity
  8
0
100
AcDbPolyline
 62
7
  6
CONTINUOUS
 90
6
 70
0
 43
0.3500000006
 10
17.9984408684
 20
1.9594288101
 10
17.9984408684
 20
3.0308557663
 10
17.7841552505
 20
3.2451425171
 10
16.7127271614
 20
3.2451425171
 10
16.2841547928
 20
2.8165712814
 10
16.2841547928
 20
2.3880000458
  0
LINE
  5
415
100
AcDbEntity
  8
DRAFT
100
AcDbLine
 62
7
  6
CONTINUOUS
 10
7.0275287829
 20
21.9388094935
 11
7.4359537759
 21
21.9758834294
  0
LINE
  5
416
100
AcDbEntity
  8
ASSI
100
AcDbLine
 62
7
  6
CONTINUOUS
 10
7.0275287829
 20
21.9388094935
 11
7.4359537759
 21
21.9758834294
  0
LWPOLYLINE
  5
417
100
AcDbEntity
  8
RACCORDO
100
AcDbPolyline
 62
250
  6
CONTINUOUS
 90
13
 70
0
 10
-10.9013739065
 20
20.6939752989
 10
-10.9623628116
 20
20.6935670837
 10
-11.0219174453
 20
20.6928419837
 10
-11.0791367581
 20
20.6918109694
 10
-11.1331550333
 20
20.6904896399
 10
-11.1831549855
 20
20.6888979866
 10
-11.2283801254
 20
20.6870600907
 10
-11.2681462059
 20
20.6850037593
 10
-11.3018515743
 20
20.6827601043
 10
-11.3289862752
 20
20.6803630716
 10
-11.3491397661
 20
20.6778489279
 10
-11.3620071286
 20
20.6752557115
 10
-11.3673936823
 20
20.6726226575
  0
LWPOLYLINE
  5
418
100
AcDbEntity
  8
ASSI
100
AcDbPolyline
 62
250
  6
CONTINUOUS
 90
13
 70
0
 10
-10.9013739065
 20
20.6939752989
 10
-10.9623628116
 20
20.6935670837
 10
-11.0219174453
 20
20.6928419837
 10
-11.0791367581
 20
20.6918109694
 10
-11.1331550333
 20
20.6904896399
 10
-11.1831549855
 20
20.6888979866
 10
-11.2283801254
 20
20.6870600907
 10
-11.2681462059
 20
20.6850037593
 10
-11.3018515743
 20
20.6827601043
 10
-11.3289862752
 20
20.6803630716
 10
-11.3491397661
 20
20.6778489279
 10
-11.3620071286
 20
20.6752557115
 10
-11.3673936823
 20
20.6726226575
  0
LINE
  5
419
100
AcDbEntity
  8
RACCORDO
100
AcDbLine
 62
250
  6
CONTINUOUS
 10
10.1564314787
 20
20.6939752845
 11
5.3834020549
 21
20.6888992159
  0
LINE
  5
41A
100
AcDbEntity
  8
ASSI
100
AcDbLine
 62
250
  6
CONTINUOUS
 10
10.1564314787
 20
20.6939752845
 11
5.3834020549
 21
20.6888992159
  0
LINE
  5
41B
100
AcDbEntity
  8
RACCORDO
100
AcDbLine
 62
250
  6
CONTINUOUS
 10
5.3834020549
 20
20.6888992159
 11
0.6061201257
 21
20.6868022794
  0
LINE
  5
41C
100
AcDbEntity
  8
ASSI
100
AcDbLine
 62
250
  6
CONTINUOUS
 10
5.3834020549
 20
20.6888992159
 11
0.6061201257
 21
20.6868022794
  0
LINE
  5
41D
100
AcDbEntity
  8
RACCORDO
100
AcDbLine
 62
250
  6
CONTINUOUS
 10
0.6061201257
 20
20.6868022794
 11
-4.8580003313
 21
20.6880500046
  0
LINE
  5
41E
100
AcDbEntity
  8
ASSI
100
AcDbLine
 62
250
  6
CONTINUOUS
 10
0.6061201257
 20
20.6868022794
 11
-4.8580003313
 21
20.6880500046
  0
LINE
  5
41F
100
AcDbEntity
  8
RACCORDO
100
AcDbLine
 62
250
  6
CONTINUOUS
 10
-4.8580003313
 20
20.6880500046
 11
-10.9013739068
 21
20.6939752795
  0
LINE
  5
420
100
AcDbEntity
  8
ASSI
100
AcDbLine
 62
250
  6
CONTINUOUS
 10
-4.8580003313
 20
20.6880500046
 11
-10.9013739068
 21
20.6939752795
  0
LWPOLYLINE
  5
421
100
AcDbEntity
  8
RACCORDO
100
AcDbPolyline
 62
250
  6
CONTINUOUS
 90
13
 70
0
 10
10.1564301369
 20
20.6939744491
 10
10.2174181143
 20
20.6935662533
 10
10.2769719051
 20
20.6928411875
 10
10.3341905009
 20
20.6918102214
 10
10.3882082233
 20
20.690488953
 10
10.438207821
 20
20.6888973719
 10
10.4834328339
 20
20.6870595569
 10
10.5231990385
 20
20.6850033128
 10
10.556904799
 20
20.6827597492
 10
10.5840401703
 20
20.6803628097
 10
10.6041946126
 20
20.6778487584
 10
10.617063203
 20
20.6752556311
 10
10.6224512483
 20
20.6726226602
  0
LWPOLYLINE
  5
422
100
AcDbEntity
  8
ASSI
100
AcDbPolyline
 62
250
  6
CONTINUOUS
 90
13
 70
0
 10
10.1564301369
 20
20.6939744491
 10
10.2174181143
 20
20.6935662533
 10
10.2769719051
 20
20.6928411875
 10
10.3341905009
 20
20.6918102214
 10
10.3882082233
 20
20.690488953
 10
10.438207821
 20
20.6888973719
 10
10.4834328339
 20
20.6870595569
 10
10.5231990385
 20
20.6850033128
 10
10.556904799
 20
20.6827597492
 10
10.5840401703
 20
20.6803628097
 10
10.6041946126
 20
20.6778487584
 10
10.617063203
 20
20.6752556311
 10
10.6224512483
 20
20.6726226602
  0
LINE
  5
423
100
AcDbEntity
  8
DRAFT
100
AcDbLine
 62
7
  6
CONTINUOUS
 10
-7.7724712171
 20
21.9388094935
 11
-8.1808962101
 21
21.9758834294
  0
LINE
  5
424
100
AcDbEntity
  8
ASSI
100
AcDbLine
 62
7
  6
CONTINUOUS
 10
-7.7724712171
 20
21.9388094935
 11
-8.1808962101
 21
21.9758834294
  0
LINE
  5
425
100
AcDbEntity
  8
DRAFT
100
AcDbLine
 62
7
  6
CONTINUOUS
 10
-4.1724712171
 20
21.9388094935
 11
-3.7640462241
 21
21.9758834294
  0
LINE
  5
426
100
AcDbEntity
  8
ASSI
100
AcDbLine
 62
7
  6
CONTINUOUS
 10
-4.1724712171
 20
21.9388094935
 11
-3.7640462241
 21
21.9758834294
  0
LWPOLYLINE
  5
427
100
AcDbEntity
  8
RACCORDO
100
AcDbPolyline
 62
250
  6
CONTINUOUS
 90
16
 70
0
 10
-10.8849927782
 20
21.8413158559
 10
-10.9371947478
 20
21.8385137741
 10
-10.9888256579
 20
21.830281084
 10
-11.0393208001
 20
21.8167078616
 10
-11.0881279162
 20
21.7979425839
 10
-11.1347131692
 20
21.7741905291
 10
-11.1785669936
 20
21.7457115536
 10
-11.2192097647
 20
21.7128171962
 10
-11.2561970099
 20
21.6758672649
 10
-11.2891242155
 20
21.635265948
 10
-11.3176312951
 20
21.5914573588
 10
-11.3414065306
 20
21.5449206537
 10
-11.3601899566
 20
21.4961648105
 10
-11.3737761966
 20
21.4457230775
 10
-11.3820167138
 20
21.3941471441
 10
-11.3848214407
 20
21.3420010886
  0
LWPOLYLINE
  5
428
100
AcDbEntity
  8
ASSI
100
AcDbPolyline
 62
250
  6
CONTINUOUS
 90
16
 70
0
 10
-10.8849927782
 20
21.8413158559
 10
-10.9371947478
 20
21.8385137741
 10
-10.9888256579
 20
21.830281084
 10
-11.0393208001
 20
21.8167078616
 10
-11.0881279162
 20
21.7979425839
 10
-11.1347131692
 20
21.7741905291
 10
-11.1785669936
 20
21.7457115536
 10
-11.2192097647
 20
21.7128171962
 10
-11.2561970099
 20
21.6758672649
 10
-11.2891242155
 20
21.635265948
 10
-11.3176312951
 20
21.5914573588
 10
-11.3414065306
 20
21.5449206537
 10
-11.3601899566
 20
21.4961648105
 10
-11.3737761966
 20
21.4457230775
 10
-11.3820167138
 20
21.3941471441
 10
-11.3848214407
 20
21.3420010886
  0
LINE
  5
429
100
AcDbEntity
  8
RACCORDO
100
AcDbLine
 62
250
  6
CONTINUOUS
 10
10.1400503449
 20
21.8413158579
 11
6.7374161691
 21
21.8310947102
  0
LINE
  5
42A
100
AcDbEntity
  8
ASSI
100
AcDbLine
 62
250
  6
CONTINUOUS
 10
10.1400503449
 20
21.8413158579
 11
6.7374161691
 21
21.8310947102
  0
LINE
  5
42B
100
AcDbEntity
  8
RACCORDO
100
AcDbLine
 62
250
  6
CONTINUOUS
 10
6.7374161691
 20
21.8310947102
 11
3.333413547
 21
21.8248233674
  0
LINE
  5
42C
100
AcDbEntity
  8
ASSI
100
AcDbLine
 62
250
  6
CONTINUOUS
 10
6.7374161691
 20
21.8310947102
 11
3.333413547
 21
21.8248233674
  0
LINE
  5
42D
100
AcDbEntity
  8
RACCORDO
100
AcDbLine
 62
250
  6
CONTINUOUS
 10
3.333413547
 20
21.8248233674
 11
-0.0724781392
 21
21.8224999128
  0
LINE
  5
42E
100
AcDbEntity
  8
ASSI
100
AcDbLine
 62
250
  6
CONTINUOUS
 10
3.333413547
 20
21.8248233674
 11
-0.0724781392
 21
21.8224999128
  0
LINE
  5
42F
100
AcDbEntity
  8
DRAFT
100
AcDbLine
 62
7
  6
CONTINUOUS
 10
-7.7724712171
 20
21.9388094935
 11
-4.1724712171
 21
21.9388094935
  0
LINE
  5
430
100
AcDbEntity
  8
ASSI
100
AcDbLine
 62
7
  6
CONTINUOUS
 10
-7.7724712171
 20
21.9388094935
 11
-4.1724712171
 21
21.9388094935
  0
LINE
  5
431
100
AcDbEntity
  8
DRAFT
100
AcDbLine
 62
7
  6
CONTINUOUS
 10
3.4275287829
 20
21.9388094935
 11
7.0275287829
 21
21.9388094935
  0
LINE
  5
432
100
AcDbEntity
  8
ASSI
100
AcDbLine
 62
7
  6
CONTINUOUS
 10
3.4275287829
 20
21.9388094935
 11
7.0275287829
 21
21.9388094935
  0
LINE
  5
433
100
AcDbEntity
  8
RACCORDO
100
AcDbLine
 62
7
  6
CONTINUOUS
 10
-10.9522304282
 20
21.9758834294
 11
-8.1808962101
 21
21.9758834294
  0
LINE
  5
434
100
AcDbEntity
  8
ASSI
100
AcDbLine
 62
7
  6
CONTINUOUS
 10
-10.9522304282
 20
21.9758834294
 11
-8.1808962101
 21
21.9758834294
  0
LINE
  5
435
100
AcDbEntity
  8
DRAFT
100
AcDbLine
 62
7
  6
CONTINUOUS
 10
-3.7640462241
 20
21.9758834294
 11
3.0191037899
 21
21.9758834294
  0
LINE
  5
436
100
AcDbEntity
  8
ASSI
100
AcDbLine
 62
7
  6
CONTINUOUS
 10
-3.7640462241
 20
21.9758834294
 11
3.0191037899
 21
21.9758834294
  0
LINE
  5
437
100
AcDbEntity
  8
RACCORDO
100
AcDbLine
 62
7
  6
CONTINUOUS
 10
7.4359537759
 20
21.9758834294
 11
10.207287994
 21
21.9758834294
  0
LINE
  5
438
100
AcDbEntity
  8
ASSI
100
AcDbLine
 62
7
  6
CONTINUOUS
 10
7.4359537759
 20
21.9758834294
 11
10.207287994
 21
21.9758834294
  0
LWPOLYLINE
  5
439
100
AcDbEntity
  8
0
100
AcDbPolyline
 62
7
  6
CONTINUOUS
 90
7
 70
0
 43
0.3500000006
 10
3.1632430573
 20
30.9992115326
 10
1.6632430243
 20
30.9992115326
 10
3.1632430573
 20
33.1420699768
 10
3.1632430573
 20
33.5706389465
 10
2.7346715384
 20
33.9992124481
 10
2.0918145432
 20
33.9992124481
 10
1.6632430243
 20
33.3563544617
  0
LWPOLYLINE
  5
43A
100
AcDbEntity
  8
0
100
AcDbPolyline
 62
7
  6
CONTINUOUS
 90
7
 70
0
 43
0.3500000006
 10
-0.9081855226
 20
30.9992115326
 10
-2.4081855555
 20
30.9992115326
 10
-0.9081855226
 20
33.1420699768
 10
-0.9081855226
 20
33.5706389465
 10
-1.3367568998
 20
33.9992124481
 10
-1.9796140366
 20
33.9992124481
 10
-2.4081855555
 20
33.3563544617
  0
LWPOLYLINE
  5
43B
100
AcDbEntity
  8
0
100
AcDbPolyline
 62
7
  6
CONTINUOUS
 90
7
 70
0
 43
0.3500000006
 10
-3.26532831
 20
30.9992115326
 10
-4.7653282013
 20
30.9992115326
 10
-3.26532831
 20
33.1420699768
 10
-3.26532831
 20
33.5706389465
 10
-3.6938998289
 20
33.9992124481
 10
-4.3367569656
 20
33.9992124481
 10
-4.7653282013
 20
33.3563544617
  0
LINE
  5
43C
100
AcDbEntity
  8
RACCORDO
100
AcDbLine
 62
250
  6
CONTINUOUS
 10
-0.0724781392
 20
21.8224999128
 11
-3.4713898828
 21
21.8241166577
  0
LINE
  5
43D
100
AcDbEntity
  8
ASSI
100
AcDbLine
 62
250
  6
CONTINUOUS
 10
-0.0724781392
 20
21.8224999128
 11
-3.4713898828
 21
21.8241166577
  0
LINE
  5
43E
100
AcDbEntity
  8
RACCORDO
100
AcDbLine
 62
250
  6
CONTINUOUS
 10
-3.4713898828
 20
21.8241166577
 11
-6.9731840603
 21
21.8299058417
  0
LINE
  5
43F
100
AcDbEntity
  8
ASSI
100
AcDbLine
 62
250
  6
CONTINUOUS
 10
-3.4713898828
 20
21.8241166577
 11
-6.9731840603
 21
21.8299058417
  0
LWPOLYLINE
  5
440
100
AcDbEntity
  8
RACCORDO
100
AcDbPolyline
 62
250
  6
CONTINUOUS
 90
3
 70
0
 10
-6.9731840603
 20
21.8299058417
 10
-10.0593635094
 20
21.8385008438
 10
-10.8849927796
 20
21.8413158588
  0
LWPOLYLINE
  5
441
100
AcDbEntity
  8
ASSI
100
AcDbPolyline
 62
250
  6
CONTINUOUS
 90
3
 70
0
 10
-6.9731840603
 20
21.8299058417
 10
-10.0593635094
 20
21.8385008438
 10
-10.8849927796
 20
21.8413158588
  0
LWPOLYLINE
  5
442
100
AcDbEntity
  8
RACCORDO
100
AcDbPolyline
 62
250
  6
CONTINUOUS
 90
16
 70
0
 10
10.1400503449
 20
21.8413158579
 10
10.1922513151
 20
21.8385138827
 10
10.2438813567
 20
21.8302814857
 10
10.2943757857
 20
21.8167087055
 10
10.3431823382
 20
21.7979439893
 10
10.3897672108
 20
21.7741925691
 10
10.4336208992
 20
21.7457142173
 10
10.4742637701
 20
21.712820405
 10
10.5112513074
 20
21.6758708961
 10
10.5441789738
 20
21.6352698118
 10
10.5726866354
 20
21.5914612112
 10
10.5964625004
 20
21.5449242344
 10
10.6152465292
 20
21.4961678621
 10
10.6288332785
 20
21.4457253487
 10
10.6370741484
 20
21.3941483904
 10
10.6398790074
 20
21.3420010905
  0
LWPOLYLINE
  5
443
100
AcDbEntity
  8
ASSI
100
AcDbPolyline
 62
250
  6
CONTINUOUS
 90
16
 70
0
 10
10.1400503449
 20
21.8413158579
 10
10.1922513151
 20
21.8385138827
 10
10.2438813567
 20
21.8302814857
 10
10.2943757857
 20
21.8167087055
 10
10.3431823382
 20
21.7979439893
 10
10.3897672108
 20
21.7741925691
 10
10.4336208992
 20
21.7457142173
 10
10.4742637701
 20
21.712820405
 10
10.5112513074
 20
21.6758708961
 10
10.5441789738
 20
21.6352698118
 10
10.5726866354
 20
21.5914612112
 10
10.5964625004
 20
21.5449242344
 10
10.6152465292
 20
21.4961678621
 10
10.6288332785
 20
21.4457253487
 10
10.6370741484
 20
21.3941483904
 10
10.6398790074
 20
21.3420010905
  0
LINE
  5
444
100
AcDbEntity
  8
DRAFT
100
AcDbLine
 62
7
  6
CONTINUOUS
 10
3.4275287829
 20
21.9388094935
 11
3.0191037899
 21
21.9758834294
  0
LINE
  5
445
100
AcDbEntity
  8
ASSI
100
AcDbLine
 62
7
  6
CONTINUOUS
 10
3.4275287829
 20
21.9388094935
 11
3.0191037899
 21
21.9758834294
  0
LINE
  5
446
100
AcDbEntity
  8
RACCORDO
100
AcDbLine
 62
7
  6
CONTINUOUS
 10
-29.7648520775
 20
-22.342741982
 11
-32.6918796737
 21
-22.1893429658
  0
LINE
  5
447
100
AcDbEntity
  8
ASSI
100
AcDbLine
 62
7
  6
CONTINUOUS
 10
-29.7648520775
 20
-22.342741982
 11
-32.6918796737
 21
-22.1893429658
  0
LINE
  5
448
100
AcDbEntity
  8
RACCORDO
100
AcDbLine
 62
250
  6
CONTINUOUS
 10
-29.7213073814
 20
-21.8450238277
 11
-32.3194748366
 21
-21.7088596412
  0
LINE
  5
449
100
AcDbEntity
  8
ASSI
100
AcDbLine
 62
250
  6
CONTINUOUS
 10
-29.7213073814
 20
-21.8450238277
 11
-32.3194748366
 21
-21.7088596412
  0
LWPOLYLINE
  5
44A
100
AcDbEntity
  8
RACCORDO
100
AcDbPolyline
 62
7
  6
CONTINUOUS
 90
3
 70
0
 10
-32.3325543406
 20
-22.2081744086
 10
-32.4307603243
 20
-22.1989803367
 10
-32.492015827
 20
-22.1890871311
  0
LWPOLYLINE
  5
44B
100
AcDbEntity
  8
ASSI
100
AcDbPolyline
 62
7
  6
CONTINUOUS
 90
3
 70
0
 10
-32.3325543406
 20
-22.2081744086
 10
-32.4307603243
 20
-22.1989803367
 10
-32.492015827
 20
-22.1890871311
  0
LWPOLYLINE
  5
44C
100
AcDbEntity
  8
RACCORDO
100
AcDbPolyline
 62
250
  6
CONTINUOUS
 90
19
 70
0
 10
-32.3194748366
 20
-21.7088596412
 10
-32.3772004422
 20
-21.7034140303
 10
-32.4336439506
 20
-21.6934648989
 10
-32.4888053619
 20
-21.6790122468
 10
-32.5430722197
 20
-21.6598964421
 10
-32.5960569803
 20
-21.6362771168
 10
-32.6465970132
 20
-21.6086331674
 10
-32.6946112449
 20
-21.5768823937
 10
-32.7401807488
 20
-21.5411069959
 10
-32.7823861152
 20
-21.5020324713
 10
-32.8211549826
 20
-21.4595924539
 10
-32.8565597125
 20
-21.4138533097
 10
-32.8878979787
 20
-21.3657396341
 10
-32.9150880099
 20
-21.3151729737
 10
-32.9382115775
 20
-21.2622317819
 10
-32.9568116695
 20
-21.2080760141
 10
-32.9707359483
 20
-21.1530923221
 10
-32.9801367515
 20
-21.0968940541
 10
-32.9850140789
 20
-21.0394812101
  0
LWPOLYLINE
  5
44D
100
AcDbEntity
  8
ASSI
100
AcDbPolyline
 62
250
  6
CONTINUOUS
 90
19
 70
0
 10
-32.3194748366
 20
-21.7088596412
 10
-32.3772004422
 20
-21.7034140303
 10
-32.4336439506
 20
-21.6934648989
 10
-32.4888053619
 20
-21.6790122468
 10
-32.5430722197
 20
-21.6598964421
 10
-32.5960569803
 20
-21.6362771168
 10
-32.6465970132
 20
-21.6086331674
 10
-32.6946112449
 20
-21.5768823937
 10
-32.7401807488
 20
-21.5411069959
 10
-32.7823861152
 20
-21.5020324713
 10
-32.8211549826
 20
-21.4595924539
 10
-32.8565597125
 20
-21.4138533097
 10
-32.8878979787
 20
-21.3657396341
 10
-32.9150880099
 20
-21.3151729737
 10
-32.9382115775
 20
-21.2622317819
 10
-32.9568116695
 20
-21.2080760141
 10
-32.9707359483
 20
-21.1530923221
 10
-32.9801367515
 20
-21.0968940541
 10
-32.9850140789
 20
-21.0394812101
  0
LWPOLYLINE
  5
44E
100
AcDbEntity
  8
RACCORDO
100
AcDbPolyline
 62
250
  6
CONTINUOUS
 90
3
 70
0
 10
-32.492015827
 20
-22.1890871311
 10
-32.5278554143
 20
-22.1817806377
 10
-32.6231892177
 20
-22.1566961929
  0
LWPOLYLINE
  5
44F
100
AcDbEntity
  8
ASSI
100
AcDbPolyline
 62
250
  6
CONTINUOUS
 90
3
 70
0
 10
-32.492015827
 20
-22.1890871311
 10
-32.5278554143
 20
-22.1817806377
 10
-32.6231892177
 20
-22.1566961929
  0
LWPOLYLINE
  5
450
100
AcDbEntity
  8
RACCORDO
100
AcDbPolyline
 62
250
  6
CONTINUOUS
 90
16
 70
0
 10
-32.6231892177
 20
-22.1566961929
 10
-32.7161223973
 20
-22.1239021686
 10
-32.8060355462
 20
-22.0836232841
 10
-32.8923320049
 20
-22.0361292437
 10
-32.974439294
 20
-21.981737955
 10
-33.0518040366
 20
-21.9208194188
 10
-33.1239001619
 20
-21.8537887701
 10
-33.1902464018
 20
-21.7810998074
 10
-33.2504027892
 20
-21.7032423489
 10
-33.3039642985
 20
-21.6207430791
 10
-33.3505716324
 20
-21.5341662449
 10
-33.3899227306
 20
-21.4440869565
 10
-33.4217627405
 20
-21.3510861646
 10
-33.4458775026
 20
-21.2557784948
 10
-33.4621015132
 20
-21.1588109145
 10
-33.4703240791
 20
-21.0608338331
  0
LWPOLYLINE
  5
451
100
AcDbEntity
  8
ASSI
100
AcDbPolyline
 62
250
  6
CONTINUOUS
 90
16
 70
0
 10
-32.6231892177
 20
-22.1566961929
 10
-32.7161223973
 20
-22.1239021686
 10
-32.8060355462
 20
-22.0836232841
 10
-32.8923320049
 20
-22.0361292437
 10
-32.974439294
 20
-21.981737955
 10
-33.0518040366
 20
-21.9208194188
 10
-33.1239001619
 20
-21.8537887701
 10
-33.1902464018
 20
-21.7810998074
 10
-33.2504027892
 20
-21.7032423489
 10
-33.3039642985
 20
-21.6207430791
 10
-33.3505716324
 20
-21.5341662449
 10
-33.3899227306
 20
-21.4440869565
 10
-33.4217627405
 20
-21.3510861646
 10
-33.4458775026
 20
-21.2557784948
 10
-33.4621015132
 20
-21.1588109145
 10
-33.4703240791
 20
-21.0608338331
  0
LWPOLYLINE
  5
452
100
AcDbEntity
  8
0
100
AcDbPolyline
 62
7
  6
CONTINUOUS
 90
3
 70
0
 43
0.3500000006
 10
-41.0042180786
 20
31.2798061981
 10
-41.0756447296
 20
31.0655171814
 10
-41.2185025635
 20
30.7798060455
  0
LINE
  5
453
100
AcDbEntity
  8
RACCORDO
100
AcDbLine
 62
250
  6
CONTINUOUS
 10
-33.4703240453
 20
-21.0608338515
 11
-33.4470745185
 21
-21.0597005363
  0
LINE
  5
454
100
AcDbEntity
  8
ASSI
100
AcDbLine
 62
250
  6
CONTINUOUS
 10
-33.4703240453
 20
-21.0608338515
 11
-33.4470745185
 21
-21.0597005363
  0
LINE
  5
455
100
AcDbEntity
  8
RACCORDO
100
AcDbLine
 62
250
  6
CONTINUOUS
 10
-33.4470745185
 20
-21.0597005363
 11
-32.9850140789
 21
-21.0394812101
  0
LINE
  5
456
100
AcDbEntity
  8
ASSI
100
AcDbLine
 62
250
  6
CONTINUOUS
 10
-33.4470745185
 20
-21.0597005363
 11
-32.9850140789
 21
-21.0394812101
  0
LINE
  5
457
100
AcDbEntity
  8
RACCORDO
100
AcDbLine
 62
250
  6
CONTINUOUS
 10
-33.8274389797
 20
-21.0535982543
 11
-33.4703240495
 21
-21.0608338322
  0
LINE
  5
458
100
AcDbEntity
  8
ASSI
100
AcDbLine
 62
250
  6
CONTINUOUS
 10
-33.8274389797
 20
-21.0535982543
 11
-33.4703240495
 21
-21.0608338322
  0
LINE
  5
459
100
AcDbEntity
  8
RACCORDO
100
AcDbLine
 62
250
  6
CONTINUOUS
 10
-29.3951406368
 20
-18.1169208775
 11
-29.3722649164
 21
-18.1169208775
  0
LINE
  5
45A
100
AcDbEntity
  8
ASSI
100
AcDbLine
 62
250
  6
CONTINUOUS
 10
-29.3951406368
 20
-18.1169208775
 11
-29.3722649164
 21
-18.1169208775
  0
LWPOLYLINE
  5
45B
100
AcDbEntity
  8
RACCORDO
100
AcDbPolyline
 62
250
  6
CONTINUOUS
 90
11
 70
0
 10
-32.3325543038
 20
21.8413158579
 10
-32.3337743859
 20
21.8385138827
 10
-32.3346949223
 20
21.8302814857
 10
-32.335305845
 20
21.8167087055
 10
-32.3356004725
 20
21.7979439893
 10
-32.3355755821
 20
21.7741925691
 10
-32.3352314451
 20
21.7457142173
 10
-32.3345718252
 20
21.712820405
 10
-32.3336039371
 20
21.6758708961
 10
-32.3323383664
 20
21.6352698118
 10
-32.3289726489
 20
21.5449242344
  0
LWPOLYLINE
  5
45C
100
AcDbEntity
  8
ASSI
100
AcDbPolyline
 62
250
  6
CONTINUOUS
 90
11
 70
0
 10
-32.3325543038
 20
21.8413158579
 10
-32.3337743859
 20
21.8385138827
 10
-32.3346949223
 20
21.8302814857
 10
-32.335305845
 20
21.8167087055
 10
-32.3356004725
 20
21.7979439893
 10
-32.3355755821
 20
21.7741925691
 10
-32.3352314451
 20
21.7457142173
 10
-32.3345718252
 20
21.712820405
 10
-32.3336039371
 20
21.6758708961
 10
-32.3323383664
 20
21.6352698118
 10
-32.3289726489
 20
21.5449242344
  0
LWPOLYLINE
  5
45D
100
AcDbEntity
  8
RACCORDO
100
AcDbPolyline
 62
250
  6
CONTINUOUS
 90
9
 70
0
 10
-32.3325543406
 20
-22.2081744086
 10
-32.3337744523
 20
-22.2053723267
 10
-32.3346950038
 20
-22.1971396366
 10
-32.3353059285
 20
-22.1835664142
 10
-32.3356005466
 20
-22.1648011365
 10
-32.3355756369
 20
-22.1410490818
 10
-32.3352314734
 20
-22.1125701063
 10
-32.3345718236
 20
-22.0796757489
 10
-32.3336039055
 20
-22.0427258175
  0
LWPOLYLINE
  5
45E
100
AcDbEntity
  8
ASSI
100
AcDbPolyline
 62
250
  6
CONTINUOUS
 90
9
 70
0
 10
-32.3325543406
 20
-22.2081744086
 10
-32.3337744523
 20
-22.2053723267
 10
-32.3346950038
 20
-22.1971396366
 10
-32.3353059285
 20
-22.1835664142
 10
-32.3356005466
 20
-22.1648011365
 10
-32.3355756369
 20
-22.1410490818
 10
-32.3352314734
 20
-22.1125701063
 10
-32.3345718236
 20
-22.0796757489
 10
-32.3336039055
 20
-22.0427258175
  0
LWPOLYLINE
  5
45F
100
AcDbEntity
  8
0
100
AcDbPolyline
 62
7
  6
CONTINUOUS
 90
2
 70
0
 43
0.3500000006
 10
-39.0042174683
 20
30.9940905304
 10
-39.0042174683
 20
32.4940909882
  0
LWPOLYLINE
  5
460
100
AcDbEntity
  8
RACCORDO
100
AcDbPolyline
 62
250
  6
CONTINUOUS
 90
16
 70
0
 10
-33.4703240426
 20
20.693975284
 10
-33.4621014752
 20
20.7919523746
 10
-33.4458774623
 20
20.8889199607
 10
-33.421762698
 20
20.9842276328
 10
-33.3899226872
 20
21.0772284225
 10
-33.3505715898
 20
21.1673077057
 10
-33.3039642573
 20
21.2538845356
 10
-33.2504027488
 20
21.3363838032
 10
-33.1902463619
 20
21.4142412602
 10
-33.1239001229
 20
21.4869302215
 10
-33.0518039988
 20
21.5539608689
 10
-32.9744392576
 20
21.6148794039
 10
-32.8923319705
 20
21.6692706915
 10
-32.8060355152
 20
21.7167647305
 10
-32.7161223704
 20
21.7570436139
 10
-32.6231891928
 20
21.7898376386
  0
LWPOLYLINE
  5
461
100
AcDbEntity
  8
ASSI
100
AcDbPolyline
 62
250
  6
CONTINUOUS
 90
16
 70
0
 10
-33.4703240426
 20
20.693975284
 10
-33.4621014752
 20
20.7919523746
 10
-33.4458774623
 20
20.8889199607
 10
-33.421762698
 20
20.9842276328
 10
-33.3899226872
 20
21.0772284225
 10
-33.3505715898
 20
21.1673077057
 10
-33.3039642573
 20
21.2538845356
 10
-33.2504027488
 20
21.3363838032
 10
-33.1902463619
 20
21.4142412602
 10
-33.1239001229
 20
21.4869302215
 10
-33.0518039988
 20
21.5539608689
 10
-32.9744392576
 20
21.6148794039
 10
-32.8923319705
 20
21.6692706915
 10
-32.8060355152
 20
21.7167647305
 10
-32.7161223704
 20
21.7570436139
 10
-32.6231891928
 20
21.7898376386
  0
LWPOLYLINE
  5
462
100
AcDbEntity
  8
0
100
AcDbPolyline
 62
250
  6
CONTINUOUS
 90
31
 70
0
 10
-34.1918415421
 20
-9.7996214235
 10
-34.1923341072
 20
-9.7936703242
 10
-34.1928232713
 20
-9.7881107593
 10
-34.1933077023
 20
-9.7829603194
 10
-34.1937862248
 20
-9.7782272925
 10
-34.1942577027
 20
-9.773917641
 10
-34.1947209998
 20
-9.7700373272
 10
-34.19517498
 20
-9.7665923132
 10
-34.1956186951
 20
-9.7635875313
 10
-34.1960519485
 20
-9.7610237932
 10
-34.196474732
 20
-9.7589008804
 10
-34.1968870369
 20
-9.7572185744
 10
-34.1972888548
 20
-9.7559766568
 10
-34.1976801276
 20
-9.7551748172
 10
-34.1980605985
 20
-9.7548123781
 10
-34.1984299613
 20
-9.75488857
 10
-34.1987879094
 20
-9.7554026234
 10
-34.1991341366
 20
-9.7563537688
 10
-34.1994683288
 20
-9.7577399754
 10
-34.1997901405
 20
-9.7595541661
 10
-34.2000992187
 20
-9.7617880027
 10
-34.2003952102
 20
-9.7644331467
 10
-34.2006777621
 20
-9.7674812598
 10
-34.2010115113
 20
-9.7718440062
 10
-34.2013230005
 20
-9.7767988737
 10
-34.2016115212
 20
-9.782321373
 10
-34.2018763645
 20
-9.7883870146
 10
-34.2021169651
 20
-9.7949733024
 10
-34.2023333303
 20
-9.8020657119
 10
-34.2025256107
 20
-9.8096517122
 10
-34.2028114392
 20
-9.8245169378
  0
LINE
  5
463
100
AcDbEntity
  8
RACCORDO
100
AcDbLine
 62
7
  6
CONTINUOUS
 10
-34.3069717355
 20
1.6163063204
 11
-34.3051553404
 21
1.5939220677
  0
LINE
  5
464
100
AcDbEntity
  8
ASSI
100
AcDbLine
 62
7
  6
CONTINUOUS
 10
-34.3069717355
 20
1.6163063204
 11
-34.3051553404
 21
1.5939220677
  0
LWPOLYLINE
  5
465
100
AcDbEntity
  8
RACCORDO
100
AcDbPolyline
 62
250
  6
CONTINUOUS
 90
7
 70
0
 10
-34.3051553404
 20
1.5939220677
 10
-34.3071779412
 20
1.6394959133
 10
-34.3110613113
 20
1.6826050563
 10
-34.3148987305
 20
1.7162481979
 10
-34.3186671758
 20
1.7401900108
 10
-34.3223831577
 20
1.7546657445
 10
-34.3260414973
 20
1.7596753582
  0
LWPOLYLINE
  5
466
100
AcDbEntity
  8
ASSI
100
AcDbPolyline
 62
250
  6
CONTINUOUS
 90
7
 70
0
 10
-34.3051553404
 20
1.5939220677
 10
-34.3071779412
 20
1.6394959133
 10
-34.3110613113
 20
1.6826050563
 10
-34.3148987305
 20
1.7162481979
 10
-34.3186671758
 20
1.7401900108
 10
-34.3223831577
 20
1.7546657445
 10
-34.3260414973
 20
1.7596753582
  0
LINE
  5
467
100
AcDbEntity
  8
0
100
AcDbLine
 62
250
  6
CONTINUOUS
 10
-34.1908516951
 20
-9.8126185597
 11
-34.1918415421
 21
-9.7996214235
  0
LINE
  5
468
100
AcDbEntity
  8
RACCORDO
100
AcDbLine
 62
7
  6
CONTINUOUS
 10
-34.3051553404
 20
1.5939220677
 11
-34.3032397632
 21
1.5678350894
  0
LINE
  5
469
100
AcDbEntity
  8
ASSI
100
AcDbLine
 62
7
  6
CONTINUOUS
 10
-34.3051553404
 20
1.5939220677
 11
-34.3032397632
 21
1.5678350894
  0
LINE
  5
46A
100
AcDbEntity
  8
RACCORDO
100
AcDbLine
 62
250
  6
CONTINUOUS
 10
-34.267851884
 20
-0.7549539435
 11
-34.2675313639
 21
-0.7596665435
  0
LINE
  5
46B
100
AcDbEntity
  8
ASSI
100
AcDbLine
 62
250
  6
CONTINUOUS
 10
-34.267851884
 20
-0.7549539435
 11
-34.2675313639
 21
-0.7596665435
  0
LINE
  5
46C
100
AcDbEntity
  8
0
100
AcDbLine
 62
250
  6
CONTINUOUS
 10
-34.1898644774
 20
-9.8269459992
 11
-34.1908516951
 21
-9.8126185597
  0
LINE
  5
46D
100
AcDbEntity
  8
RACCORDO
100
AcDbLine
 62
7
  6
CONTINUOUS
 10
-34.3032397632
 20
1.5678350894
 11
-34.3012528723
 21
1.5381571576
  0
LINE
  5
46E
100
AcDbEntity
  8
ASSI
100
AcDbLine
 62
7
  6
CONTINUOUS
 10
-34.3032397632
 20
1.5678350894
 11
-34.3012528723
 21
1.5381571576
  0
LINE
  5
46F
100
AcDbEntity
  8
RACCORDO
100
AcDbLine
 62
250
  6
CONTINUOUS
 10
-34.2642081101
 20
0.3411042709
 11
-34.2675313639
 21
0.3928079908
  0
LINE
  5
470
100
AcDbEntity
  8
ASSI
100
AcDbLine
 62
250
  6
CONTINUOUS
 10
-34.2642081101
 20
0.3411042709
 11
-34.2675313639
 21
0.3928079908
  0
LINE
  5
471
100
AcDbEntity
  8
RACCORDO
100
AcDbLine
 62
250
  6
CONTINUOUS
 10
-34.3012957558
 20
1.5388029575
 11
-34.3033191996
 21
1.5876266725
  0
LINE
  5
472
100
AcDbEntity
  8
ASSI
100
AcDbLine
 62
250
  6
CONTINUOUS
 10
-34.3012957558
 20
1.5388029575
 11
-34.3033191996
 21
1.5876266725
  0
LINE
  5
473
100
AcDbEntity
  8
0
100
AcDbLine
 62
250
  6
CONTINUOUS
 10
-34.1888854871
 20
-9.842520312
 11
-34.1898644774
 21
-9.8269459992
  0
LINE
  5
474
100
AcDbEntity
  8
RACCORDO
100
AcDbLine
 62
7
  6
CONTINUOUS
 10
-34.3012957558
 20
1.5388029575
 11
-34.2992157796
 21
1.5049157294
  0
LINE
  5
475
100
AcDbEntity
  8
ASSI
100
AcDbLine
 62
7
  6
CONTINUOUS
 10
-34.3012957558
 20
1.5388029575
 11
-34.2992157796
 21
1.5049157294
  0
LINE
  5
476
100
AcDbEntity
  8
0
100
AcDbLine
 62
250
  6
CONTINUOUS
 10
-34.1879151721
 20
-9.8593308067
 11
-34.1888854871
 21
-9.842520312
  0
LINE
  5
477
100
AcDbEntity
  8
RACCORDO
100
AcDbLine
 62
7
  6
CONTINUOUS
 10
-34.2993179465
 20
1.5066485354
 11
-34.2971450694
 21
1.4681139933
  0
LINE
  5
478
100
AcDbEntity
  8
ASSI
100
AcDbLine
 62
7
  6
CONTINUOUS
 10
-34.2993179465
 20
1.5066485354
 11
-34.2971450694
 21
1.4681139933
  0
LINE
  5
479
100
AcDbEntity
  8
RACCORDO
100
AcDbLine
 62
250
  6
CONTINUOUS
 10
-34.2993179465
 20
1.5066485354
 11
-34.2995002623
 21
1.5268907012
  0
LINE
  5
47A
100
AcDbEntity
  8
ASSI
100
AcDbLine
 62
250
  6
CONTINUOUS
 10
-34.2993179465
 20
1.5066485354
 11
-34.2995002623
 21
1.5268907012
  0
LINE
  5
47B
100
AcDbEntity
  8
0
100
AcDbLine
 62
250
  6
CONTINUOUS
 10
-34.1864764832
 20
-9.8868576754
 11
-34.1879151721
 21
-9.8593308067
  0
LINE
  5
47C
100
AcDbEntity
  8
RACCORDO
100
AcDbLine
 62
7
  6
CONTINUOUS
 10
-34.2972513001
 20
1.4700789756
 11
-34.2939998776
 21
1.4061617679
  0
LINE
  5
47D
100
AcDbEntity
  8
ASSI
100
AcDbLine
 62
7
  6
CONTINUOUS
 10
-34.2972513001
 20
1.4700789756
 11
-34.2939998776
 21
1.4061617679
  0
LINE
  5
47E
100
AcDbEntity
  8
RACCORDO
100
AcDbLine
 62
250
  6
CONTINUOUS
 10
-34.2941116002
 20
1.4084982274
 11
-34.2957238038
 21
1.4573946981
  0
LINE
  5
47F
100
AcDbEntity
  8
ASSI
100
AcDbLine
 62
250
  6
CONTINUOUS
 10
-34.2941116002
 20
1.4084982274
 11
-34.2957238038
 21
1.4573946981
  0
LINE
  5
480
100
AcDbEntity
  8
0
100
AcDbLine
 62
250
  6
CONTINUOUS
 10
-34.1850589475
 20
-9.9171774512
 11
-34.1864764832
 21
-9.8868576754
  0
LINE
  5
481
100
AcDbEntity
  8
RACCORDO
100
AcDbLine
 62
7
  6
CONTINUOUS
 10
-34.2941116002
 20
1.4084982274
 11
-34.2908312707
 21
1.3360355845
  0
LINE
  5
482
100
AcDbEntity
  8
ASSI
100
AcDbLine
 62
7
  6
CONTINUOUS
 10
-34.2941116002
 20
1.4084982274
 11
-34.2908312707
 21
1.3360355845
  0
LINE
  5
483
100
AcDbEntity
  8
RACCORDO
100
AcDbLine
 62
250
  6
CONTINUOUS
 10
-34.2909483303
 20
1.3387644922
 11
-34.2920528972
 21
1.3801645556
  0
LINE
  5
484
100
AcDbEntity
  8
ASSI
100
AcDbLine
 62
250
  6
CONTINUOUS
 10
-34.2909483303
 20
1.3387644922
 11
-34.2920528972
 21
1.3801645556
  0
LWPOLYLINE
  5
485
100
AcDbEntity
  8
RACCORDO
100
AcDbPolyline
 62
250
  6
CONTINUOUS
 90
10
 70
0
 10
-33.4703240495
 20
-21.0608338322
 10
-33.5646826618
 20
-18.7287748906
 10
-33.646608196
 20
-16.4345015484
 10
-33.7166370662
 20
-14.1780842289
 10
-33.774686912
 20
-11.9848148528
 10
-33.8221114353
 20
-9.8295315999
 10
-33.8605788226
 20
-7.6365943495
 10
-33.8898516448
 20
-5.3808060132
 10
-33.9089093101
 20
-3.0874376051
 10
-33.9172229619
 20
-0.7565357432
  0
LWPOLYLINE
  5
486
100
AcDbEntity
  8
ASSI
100
AcDbPolyline
 62
250
  6
CONTINUOUS
 90
10
 70
0
 10
-33.4703240495
 20
-21.0608338322
 10
-33.5646826618
 20
-18.7287748906
 10
-33.646608196
 20
-16.4345015484
 10
-33.7166370662
 20
-14.1780842289
 10
-33.774686912
 20
-11.9848148528
 10
-33.8221114353
 20
-9.8295315999
 10
-33.8605788226
 20
-7.6365943495
 10
-33.8898516448
 20
-5.3808060132
 10
-33.9089093101
 20
-3.0874376051
 10
-33.9172229619
 20
-0.7565357432
  0
LWPOLYLINE
  5
487
100
AcDbEntity
  8
RACCORDO
100
AcDbPolyline
 62
250
  6
CONTINUOUS
 90
9
 70
0
 10
-32.9850140789
 20
-21.0394812101
 10
-33.0785389904
 20
-18.7096310136
 10
-33.1606857394
 20
-16.4176596918
 10
-33.2314543261
 20
-14.1635672446
 10
-33.2902874332
 20
-11.972511008
 10
-33.3377423779
 20
-9.8193336461
 10
-33.3754911117
 20
-7.6285631511
 10
-33.4040909518
 20
-5.3750421871
 10
-33.4229845811
 20
-3.08392809
  0
LWPOLYLINE
  5
488
100
AcDbEntity
  8
ASSI
100
AcDbPolyline
 62
250
  6
CONTINUOUS
 90
9
 70
0
 10
-32.9850140789
 20
-21.0394812101
 10
-33.0785389904
 20
-18.7096310136
 10
-33.1606857394
 20
-16.4176596918
 10
-33.2314543261
 20
-14.1635672446
 10
-33.2902874332
 20
-11.972511008
 10
-33.3377423779
 20
-9.8193336461
 10
-33.3754911117
 20
-7.6285631511
 10
-33.4040909518
 20
-5.3750421871
 10
-33.4229845811
 20
-3.08392809
  0
LINE
  5
489
100
AcDbEntity
  8
0
100
AcDbLine
 62
250
  6
CONTINUOUS
 10
-34.183229018
 20
-9.9614387381
 11
-34.1850589475
 21
-9.9171774512
  0
LINE
  5
48A
100
AcDbEntity
  8
RACCORDO
100
AcDbLine
 62
7
  6
CONTINUOUS
 10
-34.2909483303
 20
1.3387644922
 11
-34.2876721478
 21
1.2577387478
  0
LINE
  5
48B
100
AcDbEntity
  8
ASSI
100
AcDbLine
 62
7
  6
CONTINUOUS
 10
-34.2909483303
 20
1.3387644922
 11
-34.2876721478
 21
1.2577387478
  0
LINE
  5
48C
100
AcDbEntity
  8
RACCORDO
100
AcDbLine
 62
250
  6
CONTINUOUS
 10
-34.2877922773
 20
1.2608780876
 11
-34.2885021305
 21
1.2950982573
  0
LINE
  5
48D
100
AcDbEntity
  8
ASSI
100
AcDbLine
 62
250
  6
CONTINUOUS
 10
-34.2877922773
 20
1.2608780876
 11
-34.2885021305
 21
1.2950982573
  0
LINE
  5
48E
100
AcDbEntity
  8
0
100
AcDbLine
 62
250
  6
CONTINUOUS
 10
-34.1815379653
 20
-10.0085179768
 11
-34.183229018
 21
-9.9614387381
  0
LINE
  5
48F
100
AcDbEntity
  8
RACCORDO
100
AcDbLine
 62
7
  6
CONTINUOUS
 10
-34.2877922773
 20
1.2608780876
 11
-34.2836725984
 21
1.1443318664
  0
LINE
  5
490
100
AcDbEntity
  8
ASSI
100
AcDbLine
 62
7
  6
CONTINUOUS
 10
-34.2877922773
 20
1.2608780876
 11
-34.2836725984
 21
1.1443318664
  0
LINE
  5
491
100
AcDbEntity
  8
RACCORDO
100
AcDbLine
 62
250
  6
CONTINUOUS
 10
-34.2845678355
 20
1.1712579549
 11
-34.2850789888
 21
1.2022978585
  0
LINE
  5
492
100
AcDbEntity
  8
ASSI
100
AcDbLine
 62
250
  6
CONTINUOUS
 10
-34.2845678355
 20
1.1712579549
 11
-34.2850789888
 21
1.2022978585
  0
LINE
  5
493
100
AcDbEntity
  8
RACCORDO
100
AcDbLine
 62
7
  6
CONTINUOUS
 10
-34.2845678355
 20
1.1712579549
 11
-34.2805713889
 21
1.0431851405
  0
LINE
  5
494
100
AcDbEntity
  8
ASSI
100
AcDbLine
 62
7
  6
CONTINUOUS
 10
-34.2845678355
 20
1.1712579549
 11
-34.2805713889
 21
1.0431851405
  0
LINE
  5
495
100
AcDbEntity
  8
0
100
AcDbLine
 62
250
  6
CONTINUOUS
 10
-34.1769840027
 20
-12.6672909788
 11
-34.1708322084
 21
-12.8764056958
  0
LINE
  5
496
100
AcDbEntity
  8
0
100
AcDbLine
 62
250
  6
CONTINUOUS
 10
-34.1800463387
 20
-10.05660435
 11
-34.1815379653
 21
-10.0085179768
  0
LINE
  5
497
100
AcDbEntity
  8
RACCORDO
100
AcDbLine
 62
250
  6
CONTINUOUS
 10
-34.2806925059
 20
1.0473810865
 11
-34.2818440949
 21
1.1030953433
  0
LINE
  5
498
100
AcDbEntity
  8
ASSI
100
AcDbLine
 62
250
  6
CONTINUOUS
 10
-34.2806925059
 20
1.0473810865
 11
-34.2818440949
 21
1.1030953433
  0
LWPOLYLINE
  5
499
100
AcDbEntity
  8
0
100
AcDbPolyline
 62
250
  6
CONTINUOUS
 90
32
 70
0
 10
-34.2025057245
 20
9.4426228649
 10
-34.2023115675
 20
9.4350263512
 10
-34.2020934878
 20
9.4279304917
 10
-34.2018513959
 20
9.4213475879
 10
-34.201585334
 20
9.415291714
 10
-34.2012958721
 20
9.4097840326
 10
-34.2009837123
 20
9.4048474788
 10
-34.2006495565
 20
9.4005049876
 10
-34.200366865
 20
9.3974735273
 10
-34.2000708964
 20
9.3948450597
 10
-34.1997620015
 20
9.3926276994
 10
-34.1994405315
 20
9.3908295605
 10
-34.1991068372
 20
9.3894587574
 10
-34.1987612613
 20
9.3885221223
 10
-34.1984041121
 20
9.3880213592
 10
-34.1980356894
 20
9.3879568898
 10
-34.197656293
 20
9.3883291362
 10
-34.1972662228
 20
9.38913852
 10
-34.1968657296
 20
9.3903854003
 10
-34.1964548675
 20
9.3920698852
 10
-34.1960336419
 20
9.3941920198
 10
-34.1956020578
 20
9.3967518495
 10
-34.1951601206
 20
9.3997494194
 10
-34.1947080214
 20
9.4031837787
 10
-34.1942466951
 20
9.4070499917
 10
-34.1937772626
 20
9.4113421268
 10
-34.193300845
 20
9.4160542524
 10
-34.1928185631
 20
9.4211804366
 10
-34.1923315727
 20
9.4267125437
 10
-34.1918411692
 20
9.4326336213
 10
-34.1913486827
 20
9.4389245126
 10
-34.1903627817
 20
9.4525391104
  0
LINE
  5
49A
100
AcDbEntity
  8
RACCORDO
100
AcDbLine
 62
7
  6
CONTINUOUS
 10
-34.2806925059
 20
1.0473810865
 11
-34.2768076919
 21
0.9007990805
  0
LINE
  5
49B
100
AcDbEntity
  8
ASSI
100
AcDbLine
 62
7
  6
CONTINUOUS
 10
-34.2806925059
 20
1.0473810865
 11
-34.2768076919
 21
0.9007990805
  0
LINE
  5
49C
100
AcDbEntity
  8
0
100
AcDbLine
 62
250
  6
CONTINUOUS
 10
-34.178774293
 20
-10.1050426522
 11
-34.1800463387
 21
-10.05660435
  0
LINE
  5
49D
100
AcDbEntity
  8
0
100
AcDbLine
 62
250
  6
CONTINUOUS
 10
-34.1468664467
 20
-13.6100088248
 11
-34.1603769947
 21
-13.1013055214
  0
LINE
  5
49E
100
AcDbEntity
  8
0
100
AcDbLine
 62
250
  6
CONTINUOUS
 10
-34.1861553187
 20
-12.296909448
 11
-34.1769840027
 21
-12.6672909788
  0
LINE
  5
49F
100
AcDbEntity
  8
0
100
AcDbLine
 62
250
  6
CONTINUOUS
 10
-34.1777287881
 20
-10.1534924788
 11
-34.178774293
 21
-10.1050426522
  0
LINE
  5
4A0
100
AcDbEntity
  8
RACCORDO
100
AcDbLine
 62
7
  6
CONTINUOUS
 10
-34.2769253424
 20
0.9056518978
 11
-34.2726949717
 21
0.7090794067
  0
LINE
  5
4A1
100
AcDbEntity
  8
ASSI
100
AcDbLine
 62
7
  6
CONTINUOUS
 10
-34.2769253424
 20
0.9056518978
 11
-34.2726949717
 21
0.7090794067
  0
LINE
  5
4A2
100
AcDbEntity
  8
RACCORDO
100
AcDbLine
 62
250
  6
CONTINUOUS
 10
-34.2733813026
 20
0.7445244927
 11
-34.2734387771
 21
0.7684070715
  0
LINE
  5
4A3
100
AcDbEntity
  8
ASSI
100
AcDbLine
 62
250
  6
CONTINUOUS
 10
-34.2733813026
 20
0.7445244927
 11
-34.2734387771
 21
0.7684070715
  0
LINE
  5
4A4
100
AcDbEntity
  8
0
100
AcDbLine
 62
250
  6
CONTINUOUS
 10
-34.1603769947
 20
-13.1013055214
 11
-34.1681741751
 21
-12.7091972677
  0
LINE
  5
4A5
100
AcDbEntity
  8
0
100
AcDbLine
 62
250
  6
CONTINUOUS
 10
-34.193461241
 20
-11.9156196663
 11
-34.1861553187
 21
-12.296909448
  0
LINE
  5
4A6
100
AcDbEntity
  8
0
100
AcDbLine
 62
250
  6
CONTINUOUS
 10
-34.2027951475
 20
9.4575255767
 11
-34.2025057245
 21
9.4426228649
  0
LINE
  5
4A7
100
AcDbEntity
  8
0
100
AcDbLine
 62
250
  6
CONTINUOUS
 10
-34.1769210844
 20
-10.2011478858
 11
-34.1777287881
 21
-10.1534924788
  0
LINE
  5
4A8
100
AcDbEntity
  8
RACCORDO
100
AcDbLine
 62
7
  6
CONTINUOUS
 10
-34.2733813026
 20
0.7445244927
 11
-34.2696988358
 21
0.5305518334
  0
LINE
  5
4A9
100
AcDbEntity
  8
ASSI
100
AcDbLine
 62
7
  6
CONTINUOUS
 10
-34.2733813026
 20
0.7445244927
 11
-34.2696988358
 21
0.5305518334
  0
LINE
  5
4AA
100
AcDbEntity
  8
0
100
AcDbLine
 62
250
  6
CONTINUOUS
 10
-34.1681741751
 20
-12.7091972677
 11
-34.1739625125
 21
-12.3052754781
  0
LINE
  5
4AB
100
AcDbEntity
  8
0
100
AcDbLine
 62
250
  6
CONTINUOUS
 10
-34.1989310652
 20
-11.5233405988
 11
-34.193461241
 21
-11.9156196663
  0
LINE
  5
4AC
100
AcDbEntity
  8
0
100
AcDbLine
 62
250
  6
CONTINUOUS
 10
-34.2029864999
 20
9.4722086384
 11
-34.2027951475
 21
9.4575255767
  0
LINE
  5
4AD
100
AcDbEntity
  8
RACCORDO
100
AcDbLine
 62
7
  6
CONTINUOUS
 10
-34.2697944948
 20
0.5370372808
 11
-34.2678420966
 21
0.3876666057
  0
LINE
  5
4AE
100
AcDbEntity
  8
ASSI
100
AcDbLine
 62
7
  6
CONTINUOUS
 10
-34.2697944948
 20
0.5370372808
 11
-34.2678420966
 21
0.3876666057
  0
LINE
  5
4AF
100
AcDbEntity
  8
0
100
AcDbLine
 62
250
  6
CONTINUOUS
 10
-34.1763875175
 20
-10.2440558702
 11
-34.1769210844
 21
-10.2011478858
  0
LINE
  5
4B0
100
AcDbEntity
  8
RACCORDO
100
AcDbLine
 62
7
  6
CONTINUOUS
 10
-34.2678510033
 20
0.3879996749
 11
-34.2678518843
 21
0.3880954172
  0
LINE
  5
4B1
100
AcDbEntity
  8
ASSI
100
AcDbLine
 62
7
  6
CONTINUOUS
 10
-34.2678510033
 20
0.3879996749
 11
-34.2678518843
 21
0.3880954172
  0
LINE
  5
4B2
100
AcDbEntity
  8
0
100
AcDbLine
 62
250
  6
CONTINUOUS
 10
-34.2025951716
 20
-11.1206754897
 11
-34.1989310652
 21
-11.5233405988
  0
LINE
  5
4B3
100
AcDbEntity
  8
0
100
AcDbLine
 62
250
  6
CONTINUOUS
 10
-34.1739625125
 20
-12.3052754781
 11
-34.1777742565
 21
-11.8898270185
  0
LINE
  5
4B4
100
AcDbEntity
  8
0
100
AcDbLine
 62
250
  6
CONTINUOUS
 10
-34.2031132933
 20
9.488510448
 11
-34.2029864999
 21
9.4722086384
  0
LINE
  5
4B5
100
AcDbEntity
  8
0
100
AcDbLine
 62
250
  6
CONTINUOUS
 10
-34.1760759596
 20
-10.2841089427
 11
-34.1763875175
 21
-10.2440558702
  0
LWPOLYLINE
  5
4B6
100
AcDbEntity
  8
SUPERFICI
100
AcDbPolyline
 62
7
  6
CONTINUOUS
 90
10
 70
0
 10
-34.3675616233
 20
-2.1269280579
 10
-34.3626674036
 20
-2.9569596358
 10
-34.3404323781
 20
-5.2311283158
 10
-34.3052663728
 20
-7.505139408
 10
-34.2571697113
 20
-9.7789193818
 10
-34.1961447639
 20
-12.0523947559
 10
-34.1221945233
 20
-14.3254920505
 10
-34.0353219825
 20
-16.5981378032
 10
-33.9355301339
 20
-18.8702585685
 10
-33.8274389756
 20
-21.0535983331
  0
LWPOLYLINE
  5
4B7
100
AcDbEntity
  8
ASSI
100
AcDbPolyline
 62
7
  6
CONTINUOUS
 90
10
 70
0
 10
-34.3675616233
 20
-2.1269280579
 10
-34.3626674036
 20
-2.9569596358
 10
-34.3404323781
 20
-5.2311283158
 10
-34.3052663728
 20
-7.505139408
 10
-34.2571697113
 20
-9.7789193818
 10
-34.1961447639
 20
-12.0523947559
 10
-34.1221945233
 20
-14.3254920505
 10
-34.0353219825
 20
-16.5981378032
 10
-33.9355301339
 20
-18.8702585685
 10
-33.8274389756
 20
-21.0535983331
  0
LINE
  5
4B8
100
AcDbEntity
  8
0
100
AcDbLine
 62
250
  6
CONTINUOUS
 10
-34.1777742565
 20
-11.8898270185
 11
-34.1796443836
 21
-11.4636765374
  0
LINE
  5
4B9
100
AcDbEntity
  8
0
100
AcDbLine
 62
250
  6
CONTINUOUS
 10
-34.1759985107
 20
9.9697209623
 11
-34.1795983617
 21
10.6606500291
  0
LINE
  5
4BA
100
AcDbEntity
  8
0
100
AcDbLine
 62
250
  6
CONTINUOUS
 10
-34.2047767207
 20
-10.498722574
 11
-34.2025951716
 21
-11.1206754897
  0
LINE
  5
4BB
100
AcDbEntity
  8
0
100
AcDbLine
 62
250
  6
CONTINUOUS
 10
-34.175983778
 20
-10.3183884361
 11
-34.1760759596
 21
-10.2841089427
  0
LINE
  5
4BC
100
AcDbEntity
  8
0
100
AcDbLine
 62
250
  6
CONTINUOUS
 10
-34.2047658491
 20
10.1312083736
 11
-34.2031132933
 21
9.488510448
  0
LINE
  5
4BD
100
AcDbEntity
  8
0
100
AcDbLine
 62
250
  6
CONTINUOUS
 10
-34.1759751522
 20
9.9419421138
 11
-34.1759985107
 21
9.9697209623
  0
LINE
  5
4BE
100
AcDbEntity
  8
0
100
AcDbLine
 62
250
  6
CONTINUOUS
 10
-34.1795983617
 20
10.6606500291
 11
-34.1796338187
 21
11.0968638905
  0
LINE
  5
4BF
100
AcDbEntity
  8
0
100
AcDbLine
 62
250
  6
CONTINUOUS
 10
-34.1796443836
 20
-11.4636765374
 11
-34.1789001454
 21
-10.8055921776
  0
LWPOLYLINE
  5
4C0
100
AcDbEntity
  8
RACCORDO
100
AcDbPolyline
 62
250
  6
CONTINUOUS
 90
10
 70
0
 10
-33.9172229598
 20
0.3896771938
 10
-33.9103470751
 20
2.468416181
 10
-33.894288725
 20
4.5797267022
 10
-33.8686244508
 20
6.7235656993
 10
-33.8332196532
 20
8.8840531021
 10
-33.7874868695
 20
11.0769743339
 10
-33.7296709545
 20
13.3497651597
 10
-33.6581380096
 20
15.7181747454
 10
-33.5720899269
 20
18.166279696
 10
-33.4703240488
 20
20.6939752845
  0
LWPOLYLINE
  5
4C1
100
AcDbEntity
  8
ASSI
100
AcDbPolyline
 62
250
  6
CONTINUOUS
 90
10
 70
0
 10
-33.9172229598
 20
0.3896771938
 10
-33.9103470751
 20
2.468416181
 10
-33.894288725
 20
4.5797267022
 10
-33.8686244508
 20
6.7235656993
 10
-33.8332196532
 20
8.8840531021
 10
-33.7874868695
 20
11.0769743339
 10
-33.7296709545
 20
13.3497651597
 10
-33.6581380096
 20
15.7181747454
 10
-33.5720899269
 20
18.166279696
 10
-33.4703240488
 20
20.6939752845
  0
LINE
  5
4C2
100
AcDbEntity
  8
0
100
AcDbLine
 62
250
  6
CONTINUOUS
 10
-34.2031231298
 20
-9.8553690007
 11
-34.2047767207
 21
-10.498722574
  0
LINE
  5
4C3
100
AcDbEntity
  8
0
100
AcDbLine
 62
250
  6
CONTINUOUS
 10
-34.1760610608
 20
-10.3454404579
 11
-34.175983778
 21
-10.3183884361
  0
LINE
  5
4C4
100
AcDbEntity
  8
0
100
AcDbLine
 62
250
  6
CONTINUOUS
 10
-34.1796338187
 20
11.0968638905
 11
-34.1777657627
 21
11.5230192418
  0
LINE
  5
4C5
100
AcDbEntity
  8
0
100
AcDbLine
 62
250
  6
CONTINUOUS
 10
-34.202592875
 20
10.752847854
 11
-34.2047658491
 21
10.1312083736
  0
LINE
  5
4C6
100
AcDbEntity
  8
0
100
AcDbLine
 62
250
  6
CONTINUOUS
 10
-34.1761448125
 20
9.9040956219
 11
-34.1759751522
 21
9.9419421138
  0
LINE
  5
4C7
100
AcDbEntity
  8
0
100
AcDbLine
 62
250
  6
CONTINUOUS
 10
-34.1789001454
 20
-10.8055921776
 11
-34.1760610608
 21
-10.3454404579
  0
LINE
  5
4C8
100
AcDbEntity
  8
0
100
AcDbLine
 62
250
  6
CONTINUOUS
 10
-34.2029995345
 20
-9.8391450076
 11
-34.2031231298
 21
-9.8553690007
  0
LINE
  5
4C9
100
AcDbEntity
  8
0
100
AcDbLine
 62
250
  6
CONTINUOUS
 10
-34.1989358545
 20
11.1554881459
 11
-34.202592875
 21
10.752847854
  0
LINE
  5
4CA
100
AcDbEntity
  8
0
100
AcDbLine
 62
250
  6
CONTINUOUS
 10
-34.1777657627
 20
11.5230192418
 11
-34.1739553809
 21
11.9384628772
  0
LINE
  5
4CB
100
AcDbEntity
  8
0
100
AcDbLine
 62
250
  6
CONTINUOUS
 10
-34.1765365354
 20
9.8629024804
 11
-34.1761448125
 21
9.9040956219
  0
LINE
  5
4CC
100
AcDbEntity
  8
RACCORDO
100
AcDbLine
 62
7
  6
CONTINUOUS
 10
-34.2678509969
 20
-0.7548576266
 11
-34.269136143
 21
-0.8577236266
  0
LINE
  5
4CD
100
AcDbEntity
  8
ASSI
100
AcDbLine
 62
7
  6
CONTINUOUS
 10
-34.2678509969
 20
-0.7548576266
 11
-34.269136143
 21
-0.8577236266
  0
LINE
  5
4CE
100
AcDbEntity
  8
0
100
AcDbLine
 62
250
  6
CONTINUOUS
 10
-34.2028114392
 20
-9.8245169378
 11
-34.2029995345
 21
-9.8391450076
  0
LINE
  5
4CF
100
AcDbEntity
  8
0
100
AcDbLine
 62
250
  6
CONTINUOUS
 10
-34.1934713677
 20
11.5478835329
 11
-34.1989358545
 21
11.1554881459
  0
LINE
  5
4D0
100
AcDbEntity
  8
0
100
AcDbLine
 62
250
  6
CONTINUOUS
 10
-34.1739553809
 20
11.9384628772
 11
-34.1681682178
 21
12.34237376
  0
LINE
  5
4D1
100
AcDbEntity
  8
0
100
AcDbLine
 62
250
  6
CONTINUOUS
 10
-34.1772975694
 20
9.8102659863
 11
-34.1765365354
 21
9.8629024804
  0
LINE
  5
4D2
100
AcDbEntity
  8
RACCORDO
100
AcDbLine
 62
7
  6
CONTINUOUS
 10
-34.269136143
 20
-0.8577236266
 11
-34.2726513987
 21
-1.0736319325
  0
LINE
  5
4D3
100
AcDbEntity
  8
ASSI
100
AcDbLine
 62
7
  6
CONTINUOUS
 10
-34.269136143
 20
-0.8577236266
 11
-34.2726513987
 21
-1.0736319325
  0
LINE
  5
4D4
100
AcDbEntity
  8
RACCORDO
100
AcDbLine
 62
250
  6
CONTINUOUS
 10
-34.2726513987
 20
-1.0736319325
 11
-34.2711828214
 21
-1.0148082231
  0
LINE
  5
4D5
100
AcDbEntity
  8
ASSI
100
AcDbLine
 62
250
  6
CONTINUOUS
 10
-34.2726513987
 20
-1.0736319325
 11
-34.2711828214
 21
-1.0148082231
  0
LINE
  5
4D6
100
AcDbEntity
  8
0
100
AcDbLine
 62
250
  6
CONTINUOUS
 10
-34.186166589
 20
11.929425614
 11
-34.1934713677
 21
11.5478835329
  0
LINE
  5
4D7
100
AcDbEntity
  8
0
100
AcDbLine
 62
250
  6
CONTINUOUS
 10
-34.1782315319
 20
9.7619937697
 11
-34.1772975694
 21
9.8102659863
  0
LINE
  5
4D8
100
AcDbEntity
  8
0
100
AcDbLine
 62
250
  6
CONTINUOUS
 10
-34.1681682178
 20
12.34237376
 11
-34.1603725462
 21
12.7344667498
  0
LINE
  5
4D9
100
AcDbEntity
  8
RACCORDO
100
AcDbLine
 62
7
  6
CONTINUOUS
 10
-34.2726513987
 20
-1.0736319325
 11
-34.2768544509
 21
-1.2695898183
  0
LINE
  5
4DA
100
AcDbEntity
  8
ASSI
100
AcDbLine
 62
7
  6
CONTINUOUS
 10
-34.2726513987
 20
-1.0736319325
 11
-34.2768544509
 21
-1.2695898183
  0
LINE
  5
4DB
100
AcDbEntity
  8
RACCORDO
100
AcDbLine
 62
250
  6
CONTINUOUS
 10
-34.2768544509
 20
-1.2695898183
 11
-34.2759988432
 21
-1.252275388
  0
LINE
  5
4DC
100
AcDbEntity
  8
ASSI
100
AcDbLine
 62
250
  6
CONTINUOUS
 10
-34.2768544509
 20
-1.2695898183
 11
-34.2759988432
 21
-1.252275388
  0
LINE
  5
4DD
100
AcDbEntity
  8
0
100
AcDbLine
 62
250
  6
CONTINUOUS
 10
-34.1793968754
 20
9.7133992489
 11
-34.1782315319
 21
9.7619937697
  0
LINE
  5
4DE
100
AcDbEntity
  8
RACCORDO
100
AcDbLine
 62
7
  6
CONTINUOUS
 10
-34.2768544509
 20
-1.2695898183
 11
-34.2806006376
 21
-1.4110597046
  0
LINE
  5
4DF
100
AcDbEntity
  8
ASSI
100
AcDbLine
 62
7
  6
CONTINUOUS
 10
-34.2768544509
 20
-1.2695898183
 11
-34.2806006376
 21
-1.4110597046
  0
LINE
  5
4E0
100
AcDbEntity
  8
0
100
AcDbLine
 62
250
  6
CONTINUOUS
 10
-34.1603725462
 20
12.7344667498
 11
-34.1468664467
 21
13.2431502722
  0
LWPOLYLINE
  5
4E1
100
AcDbEntity
  8
0
100
AcDbPolyline
 62
250
  6
CONTINUOUS
 90
3
 70
0
 10
-34.1716895261
 20
12.4816113801
 10
-34.176989778
 20
12.3001916578
 10
-34.186166589
 20
11.929425614
  0
LINE
  5
4E2
100
AcDbEntity
  8
0
100
AcDbLine
 62
250
  6
CONTINUOUS
 10
-34.1807824715
 20
9.6650756425
 11
-34.1793968754
 21
9.7133992489
  0
LINE
  5
4E3
100
AcDbEntity
  8
RACCORDO
100
AcDbLine
 62
7
  6
CONTINUOUS
 10
-34.2806006376
 20
-1.4110597046
 11
-34.2845772748
 21
-1.5384012758
  0
LINE
  5
4E4
100
AcDbEntity
  8
ASSI
100
AcDbLine
 62
7
  6
CONTINUOUS
 10
-34.2806006376
 20
-1.4110597046
 11
-34.2845772748
 21
-1.5384012758
  0
LINE
  5
4E5
100
AcDbEntity
  8
0
100
AcDbLine
 62
250
  6
CONTINUOUS
 10
-34.182381101
 20
9.6172937343
 11
-34.1807824715
 21
9.6650756425
  0
LINE
  5
4E6
100
AcDbEntity
  8
RACCORDO
100
AcDbLine
 62
7
  6
CONTINUOUS
 10
-34.2845772748
 20
-1.5384012758
 11
-34.2887094931
 21
-1.6513007723
  0
LINE
  5
4E7
100
AcDbEntity
  8
ASSI
100
AcDbLine
 62
7
  6
CONTINUOUS
 10
-34.2845772748
 20
-1.5384012758
 11
-34.2887094931
 21
-1.6513007723
  0
LINE
  5
4E8
100
AcDbEntity
  8
0
100
AcDbLine
 62
250
  6
CONTINUOUS
 10
-34.1841505012
 20
9.5714163342
 11
-34.182381101
 21
9.6172937343
  0
LINE
  5
4E9
100
AcDbEntity
  8
RACCORDO
100
AcDbLine
 62
7
  6
CONTINUOUS
 10
-34.2887094931
 20
-1.6513007723
 11
-34.2918591322
 21
-1.7265130736
  0
LINE
  5
4EA
100
AcDbEntity
  8
ASSI
100
AcDbLine
 62
7
  6
CONTINUOUS
 10
-34.2887094931
 20
-1.6513007723
 11
-34.2918591322
 21
-1.7265130736
  0
LINE
  5
4EB
100
AcDbEntity
  8
0
100
AcDbLine
 62
250
  6
CONTINUOUS
 10
-34.1855467117
 20
9.539382185
 11
-34.1841505012
 21
9.5714163342
  0
LINE
  5
4EC
100
AcDbEntity
  8
RACCORDO
100
AcDbLine
 62
250
  6
CONTINUOUS
 10
-34.2957328061
 20
-1.8244269423
 11
-34.2960442596
 21
-1.8141394472
  0
LINE
  5
4ED
100
AcDbEntity
  8
ASSI
100
AcDbLine
 62
250
  6
CONTINUOUS
 10
-34.2957328061
 20
-1.8244269423
 11
-34.2960442596
 21
-1.8141394472
  0
LINE
  5
4EE
100
AcDbEntity
  8
RACCORDO
100
AcDbLine
 62
7
  6
CONTINUOUS
 10
-34.2918591322
 20
-1.7265130736
 11
-34.2950024281
 21
-1.7935861165
  0
LINE
  5
4EF
100
AcDbEntity
  8
ASSI
100
AcDbLine
 62
7
  6
CONTINUOUS
 10
-34.2918591322
 20
-1.7265130736
 11
-34.2950024281
 21
-1.7935861165
  0
LWPOLYLINE
  5
4F0
100
AcDbEntity
  8
SUPERFICI
100
AcDbPolyline
 62
7
  6
CONTINUOUS
 90
10
 70
0
 10
-33.8274389756
 20
20.6867397805
 10
-33.9355301339
 20
18.5034000159
 10
-34.0353219825
 20
16.2312792505
 10
-34.1221945233
 20
13.9586334979
 10
-34.1961447639
 20
11.6855362033
 10
-34.2571697113
 20
9.4120608292
 10
-34.3052663728
 20
7.1382808554
 10
-34.3404323781
 20
4.8642697632
 10
-34.3626674036
 20
2.5901010831
 10
-34.3675616233
 20
1.7600695052
  0
LWPOLYLINE
  5
4F1
100
AcDbEntity
  8
ASSI
100
AcDbPolyline
 62
7
  6
CONTINUOUS
 90
10
 70
0
 10
-33.8274389756
 20
20.6867397805
 10
-33.9355301339
 20
18.5034000159
 10
-34.0353219825
 20
16.2312792505
 10
-34.1221945233
 20
13.9586334979
 10
-34.1961447639
 20
11.6855362033
 10
-34.2571697113
 20
9.4120608292
 10
-34.3052663728
 20
7.1382808554
 10
-34.3404323781
 20
4.8642697632
 10
-34.3626674036
 20
2.5901010831
 10
-34.3675616233
 20
1.7600695052
  0
LINE
  5
4F2
100
AcDbEntity
  8
0
100
AcDbLine
 62
250
  6
CONTINUOUS
 10
-34.186968919
 20
9.5100687603
 11
-34.1855467117
 21
9.539382185
  0
LINE
  5
4F3
100
AcDbEntity
  8
RACCORDO
100
AcDbLine
 62
250
  6
CONTINUOUS
 10
-34.2995099492
 20
-1.8939116944
 11
-34.29913768
 21
-1.870438836
  0
LINE
  5
4F4
100
AcDbEntity
  8
ASSI
100
AcDbLine
 62
250
  6
CONTINUOUS
 10
-34.2995099492
 20
-1.8939116944
 11
-34.29913768
 21
-1.870438836
  0
LINE
  5
4F5
100
AcDbEntity
  8
RACCORDO
100
AcDbLine
 62
7
  6
CONTINUOUS
 10
-34.2950024281
 20
-1.7935861165
 11
-34.2981132633
 21
-1.8525636183
  0
LINE
  5
4F6
100
AcDbEntity
  8
ASSI
100
AcDbLine
 62
7
  6
CONTINUOUS
 10
-34.2950024281
 20
-1.7935861165
 11
-34.2981132633
 21
-1.8525636183
  0
LINE
  5
4F7
100
AcDbEntity
  8
0
100
AcDbLine
 62
250
  6
CONTINUOUS
 10
-34.1884108759
 20
9.4835575659
 11
-34.186968919
 21
9.5100687603
  0
LINE
  5
4F8
100
AcDbEntity
  8
RACCORDO
100
AcDbLine
 62
7
  6
CONTINUOUS
 10
-34.2981132633
 20
-1.8525636183
 11
-34.3001536391
 21
-1.8874326424
  0
LINE
  5
4F9
100
AcDbEntity
  8
ASSI
100
AcDbLine
 62
7
  6
CONTINUOUS
 10
-34.2981132633
 20
-1.8525636183
 11
-34.3001536391
 21
-1.8874326424
  0
LINE
  5
4FA
100
AcDbEntity
  8
0
100
AcDbLine
 62
250
  6
CONTINUOUS
 10
-34.1893828066
 20
9.4674273824
 11
-34.1884108759
 21
9.4835575659
  0
LINE
  5
4FB
100
AcDbEntity
  8
RACCORDO
100
AcDbLine
 62
250
  6
CONTINUOUS
 10
-34.3033291081
 20
-1.9546314338
 11
-34.3021520245
 21
-1.9187732721
  0
LINE
  5
4FC
100
AcDbEntity
  8
ASSI
100
AcDbLine
 62
250
  6
CONTINUOUS
 10
-34.3033291081
 20
-1.9546314338
 11
-34.3021520245
 21
-1.9187732721
  0
LINE
  5
4FD
100
AcDbEntity
  8
RACCORDO
100
AcDbLine
 62
250
  6
CONTINUOUS
 10
-34.264207722
 20
-0.7079598235
 11
-34.2675313639
 21
-0.7596665435
  0
LINE
  5
4FE
100
AcDbEntity
  8
ASSI
100
AcDbLine
 62
250
  6
CONTINUOUS
 10
-34.264207722
 20
-0.7079598235
 11
-34.2675313639
 21
-0.7596665435
  0
LINE
  5
4FF
100
AcDbEntity
  8
RACCORDO
100
AcDbLine
 62
7
  6
CONTINUOUS
 10
-34.3001536391
 20
-1.8874326424
 11
-34.3021520245
 21
-1.9187732721
  0
LINE
  5
500
100
AcDbEntity
  8
ASSI
100
AcDbLine
 62
7
  6
CONTINUOUS
 10
-34.3001536391
 20
-1.8874326424
 11
-34.3021520245
 21
-1.9187732721
  0
LINE
  5
501
100
AcDbEntity
  8
0
100
AcDbLine
 62
250
  6
CONTINUOUS
 10
-34.1903627817
 20
9.4525391104
 11
-34.1893828066
 21
9.4674273824
  0
LINE
  5
502
100
AcDbEntity
  8
RACCORDO
100
AcDbLine
 62
250
  6
CONTINUOUS
 10
-34.2678518843
 20
0.3880954172
 11
-34.2675313639
 21
0.3928079908
  0
LINE
  5
503
100
AcDbEntity
  8
ASSI
100
AcDbLine
 62
250
  6
CONTINUOUS
 10
-34.2678518843
 20
0.3880954172
 11
-34.2675313639
 21
0.3928079908
  0
LINE
  5
504
100
AcDbEntity
  8
RACCORDO
100
AcDbLine
 62
7
  6
CONTINUOUS
 10
-34.3021520245
 20
-1.9187732721
 11
-34.3040916032
 21
-1.9466024511
  0
LINE
  5
505
100
AcDbEntity
  8
ASSI
100
AcDbLine
 62
7
  6
CONTINUOUS
 10
-34.3021520245
 20
-1.9187732721
 11
-34.3040916032
 21
-1.9466024511
  0
LWPOLYLINE
  5
506
100
AcDbEntity
  8
RACCORDO
100
AcDbPolyline
 62
7
  6
CONTINUOUS
 90
11
 70
0
 10
-34.3040916032
 20
-1.9466024511
 10
-34.305946084
 20
-1.9708144096
 10
-34.3068356288
 20
-1.9815705804
 10
-34.3076905669
 20
-1.9913668773
 10
-34.3085093229
 20
-2.0002351476
 10
-34.3092862452
 20
-2.0081664721
 10
-34.3100024072
 20
-2.0150369071
 10
-34.310656678
 20
-2.020915671
 10
-34.3112347502
 20
-2.0257582826
 10
-34.3116856679
 20
-2.0292670842
 10
-34.3120117254
 20
-2.0316145508
  0
LWPOLYLINE
  5
507
100
AcDbEntity
  8
ASSI
100
AcDbPolyline
 62
7
  6
CONTINUOUS
 90
11
 70
0
 10
-34.3040916032
 20
-1.9466024511
 10
-34.305946084
 20
-1.9708144096
 10
-34.3068356288
 20
-1.9815705804
 10
-34.3076905669
 20
-1.9913668773
 10
-34.3085093229
 20
-2.0002351476
 10
-34.3092862452
 20
-2.0081664721
 10
-34.3100024072
 20
-2.0150369071
 10
-34.310656678
 20
-2.020915671
 10
-34.3112347502
 20
-2.0257582826
 10
-34.3116856679
 20
-2.0292670842
 10
-34.3120117254
 20
-2.0316145508
  0
LWPOLYLINE
  5
508
100
AcDbEntity
  8
RACCORDO
100
AcDbPolyline
 62
250
  6
CONTINUOUS
 90
19
 70
0
 10
-32.9850140609
 20
20.6726226602
 10
-32.9801367257
 20
20.7300355039
 10
-32.9707359167
 20
20.7862337717
 10
-32.9568116338
 20
20.8412174636
 10
-32.9382115404
 20
20.8953732313
 10
-32.9150879731
 20
20.9483144231
 10
-32.8878979423
 20
20.9988810835
 10
-32.8565596761
 20
21.0469947591
 10
-32.8211549462
 20
21.0927339033
 10
-32.7823860788
 20
21.1351739208
 10
-32.7401807124
 20
21.1742484453
 10
-32.6946112084
 20
21.210023843
 10
-32.6465969767
 20
21.2417746167
 10
-32.5960569437
 20
21.2694185662
 10
-32.5430721831
 20
21.2930378916
 10
-32.4888053254
 20
21.3121536965
 10
-32.433643914
 20
21.3266063485
 10
-32.3772004055
 20
21.3365554798
 10
-32.3194747999
 20
21.3420010905
  0
LWPOLYLINE
  5
509
100
AcDbEntity
  8
ASSI
100
AcDbPolyline
 62
250
  6
CONTINUOUS
 90
19
 70
0
 10
-32.9850140609
 20
20.6726226602
 10
-32.9801367257
 20
20.7300355039
 10
-32.9707359167
 20
20.7862337717
 10
-32.9568116338
 20
20.8412174636
 10
-32.9382115404
 20
20.8953732313
 10
-32.9150879731
 20
20.9483144231
 10
-32.8878979423
 20
20.9988810835
 10
-32.8565596761
 20
21.0469947591
 10
-32.8211549462
 20
21.0927339033
 10
-32.7823860788
 20
21.1351739208
 10
-32.7401807124
 20
21.1742484453
 10
-32.6946112084
 20
21.210023843
 10
-32.6465969767
 20
21.2417746167
 10
-32.5960569437
 20
21.2694185662
 10
-32.5430721831
 20
21.2930378916
 10
-32.4888053254
 20
21.3121536965
 10
-32.433643914
 20
21.3266063485
 10
-32.3772004055
 20
21.3365554798
 10
-32.3194747999
 20
21.3420010905
  0
LINE
  5
50A
100
AcDbEntity
  8
RACCORDO
100
AcDbLine
 62
250
  6
CONTINUOUS
 10
-34.2542031291
 20
-0.6567975837
 11
-34.264207722
 21
-0.7079598235
  0
LINE
  5
50B
100
AcDbEntity
  8
ASSI
100
AcDbLine
 62
250
  6
CONTINUOUS
 10
-34.2542031291
 20
-0.6567975837
 11
-34.264207722
 21
-0.7079598235
  0
LINE
  5
50C
100
AcDbEntity
  8
RACCORDO
100
AcDbLine
 62
250
  6
CONTINUOUS
 10
-34.2542045509
 20
0.2899444066
 11
-34.2642081101
 21
0.3411042709
  0
LINE
  5
50D
100
AcDbEntity
  8
ASSI
100
AcDbLine
 62
250
  6
CONTINUOUS
 10
-34.2542045509
 20
0.2899444066
 11
-34.2642081101
 21
0.3411042709
  0
LWPOLYLINE
  5
50E
100
AcDbEntity
  8
RACCORDO
100
AcDbPolyline
 62
7
  6
CONTINUOUS
 90
12
 70
0
 10
-34.3114286134
 20
1.6617276385
 10
-34.3119409922
 20
1.6644484766
 10
-34.3121578382
 20
1.6657179841
 10
-34.3120475933
 20
1.6649999427
 10
-34.3117591129
 20
1.6629537837
 10
-34.3113335002
 20
1.6596910618
 10
-34.3107731339
 20
1.655061983
 10
-34.3101311088
 20
1.649367213
 10
-34.3094222946
 20
1.6426474489
 10
-34.3086481727
 20
1.6348296444
 10
-34.3078293493
 20
1.6260469574
 10
-34.3069717355
 20
1.6163063204
  0
LWPOLYLINE
  5
50F
100
AcDbEntity
  8
ASSI
100
AcDbPolyline
 62
7
  6
CONTINUOUS
 90
12
 70
0
 10
-34.3114286134
 20
1.6617276385
 10
-34.3119409922
 20
1.6644484766
 10
-34.3121578382
 20
1.6657179841
 10
-34.3120475933
 20
1.6649999427
 10
-34.3117591129
 20
1.6629537837
 10
-34.3113335002
 20
1.6596910618
 10
-34.3107731339
 20
1.655061983
 10
-34.3101311088
 20
1.649367213
 10
-34.3094222946
 20
1.6426474489
 10
-34.3086481727
 20
1.6348296444
 10
-34.3078293493
 20
1.6260469574
 10
-34.3069717355
 20
1.6163063204
  0
LINE
  5
510
100
AcDbEntity
  8
RACCORDO
100
AcDbLine
 62
250
  6
CONTINUOUS
 10
-33.432718012
 20
-0.6517118902
 11
-33.4229845811
 21
-3.08392809
  0
LINE
  5
511
100
AcDbEntity
  8
ASSI
100
AcDbLine
 62
250
  6
CONTINUOUS
 10
-33.432718012
 20
-0.6517118902
 11
-33.4229845811
 21
-3.08392809
  0
LINE
  5
512
100
AcDbEntity
  8
RACCORDO
100
AcDbLine
 62
250
  6
CONTINUOUS
 10
-33.4325132634
 20
0.1883907568
 11
-33.4327178957
 21
0.2848496297
  0
LINE
  5
513
100
AcDbEntity
  8
ASSI
100
AcDbLine
 62
250
  6
CONTINUOUS
 10
-33.4325132634
 20
0.1883907568
 11
-33.4327178957
 21
0.2848496297
  0
LINE
  5
514
100
AcDbEntity
  8
RACCORDO
100
AcDbLine
 62
250
  6
CONTINUOUS
 10
-33.4327178957
 20
0.2848496297
 11
-33.4260082442
 21
2.4651736494
  0
LINE
  5
515
100
AcDbEntity
  8
ASSI
100
AcDbLine
 62
250
  6
CONTINUOUS
 10
-33.4327178957
 20
0.2848496297
 11
-33.4260082442
 21
2.4651736494
  0
LWPOLYLINE
  5
516
100
AcDbEntity
  8
RACCORDO
100
AcDbPolyline
 62
250
  6
CONTINUOUS
 90
9
 70
0
 10
-33.4260082442
 20
2.4651736494
 10
-33.4097983094
 20
4.5744170573
 10
-33.3835421301
 20
6.7160925302
 10
-33.348351553
 20
8.8744443675
 10
-33.3031147315
 20
11.0652282699
 10
-33.2444961255
 20
13.3357113401
 10
-33.1713838884
 20
15.701649279
 10
-33.0848898669
 20
18.1472863857
 10
-32.9850140609
 20
20.6726226602
  0
LWPOLYLINE
  5
517
100
AcDbEntity
  8
ASSI
100
AcDbPolyline
 62
250
  6
CONTINUOUS
 90
9
 70
0
 10
-33.4260082442
 20
2.4651736494
 10
-33.4097983094
 20
4.5744170573
 10
-33.3835421301
 20
6.7160925302
 10
-33.348351553
 20
8.8744443675
 10
-33.3031147315
 20
11.0652282699
 10
-33.2444961255
 20
13.3357113401
 10
-33.1713838884
 20
15.701649279
 10
-33.0848898669
 20
18.1472863857
 10
-32.9850140609
 20
20.6726226602
  0
LWPOLYLINE
  5
518
100
AcDbEntity
  8
RACCORDO
100
AcDbPolyline
 62
250
  6
CONTINUOUS
 90
4
 70
0
 10
-34.3098854229
 20
-2.0139146282
 10
-34.3129763149
 20
-2.0231947379
 10
-34.32288308
 20
-2.0744372274
 10
-34.3260358651
 20
-2.1265338837
  0
LWPOLYLINE
  5
519
100
AcDbEntity
  8
ASSI
100
AcDbPolyline
 62
250
  6
CONTINUOUS
 90
4
 70
0
 10
-34.3098854229
 20
-2.0139146282
 10
-34.3129763149
 20
-2.0231947379
 10
-34.32288308
 20
-2.0744372274
 10
-34.3260358651
 20
-2.1265338837
  0
LWPOLYLINE
  5
51A
100
AcDbEntity
  8
RACCORDO
100
AcDbPolyline
 62
250
  6
CONTINUOUS
 90
10
 70
0
 10
-33.4251918307
 20
-0.3552360906
 10
-33.426528386
 20
-0.3586689465
 10
-33.4277823713
 20
-0.368884945
 10
-33.4289323368
 20
-0.3857093384
 10
-33.4299586121
 20
-0.4088543401
 10
-33.4308436423
 20
-0.4379240479
 10
-33.4315722887
 20
-0.4724212155
 10
-33.4321320879
 20
-0.5117557581
 10
-33.432513464
 20
-0.5552548464
 10
-33.432718012
 20
-0.6517118902
  0
LWPOLYLINE
  5
51B
100
AcDbEntity
  8
ASSI
100
AcDbPolyline
 62
250
  6
CONTINUOUS
 90
10
 70
0
 10
-33.4251918307
 20
-0.3552360906
 10
-33.426528386
 20
-0.3586689465
 10
-33.4277823713
 20
-0.368884945
 10
-33.4289323368
 20
-0.3857093384
 10
-33.4299586121
 20
-0.4088543401
 10
-33.4308436423
 20
-0.4379240479
 10
-33.4315722887
 20
-0.4724212155
 10
-33.4321320879
 20
-0.5117557581
 10
-33.432513464
 20
-0.5552548464
 10
-33.432718012
 20
-0.6517118902
  0
LWPOLYLINE
  5
51C
100
AcDbEntity
  8
RACCORDO
100
AcDbPolyline
 62
250
  6
CONTINUOUS
 90
7
 70
0
 10
-34.3260414973
 20
-2.1265339109
 10
-34.3223861981
 20
-2.1215403655
 10
-34.3186728098
 20
-2.1070840202
 10
-34.3149064279
 20
-2.0831649155
 10
-34.3110703355
 20
-2.049550569
 10
-34.3071875954
 20
-2.0064735409
 10
-34.305946084
 20
-1.9708144096
  0
LWPOLYLINE
  5
51D
100
AcDbEntity
  8
ASSI
100
AcDbPolyline
 62
250
  6
CONTINUOUS
 90
7
 70
0
 10
-34.3260414973
 20
-2.1265339109
 10
-34.3223861981
 20
-2.1215403655
 10
-34.3186728098
 20
-2.1070840202
 10
-34.3149064279
 20
-2.0831649155
 10
-34.3110703355
 20
-2.049550569
 10
-34.3071875954
 20
-2.0064735409
 10
-34.305946084
 20
-1.9708144096
  0
LWPOLYLINE
  5
51E
100
AcDbEntity
  8
RACCORDO
100
AcDbPolyline
 62
250
  6
CONTINUOUS
 90
9
 70
0
 10
-33.4251917662
 20
-0.0116224626
 10
-33.4265282282
 20
-0.0081898919
 10
-33.4277821443
 20
0.0020253585
 10
-33.4289320647
 20
0.0188487076
 10
-33.4299583175
 20
0.0419925208
 10
-33.4308433467
 20
0.0710610721
 10
-33.4315720113
 20
0.1055573483
 10
-33.4321318446
 20
0.1448914965
 10
-33.4325132634
 20
0.1883907568
  0
LWPOLYLINE
  5
51F
100
AcDbEntity
  8
ASSI
100
AcDbPolyline
 62
250
  6
CONTINUOUS
 90
9
 70
0
 10
-33.4251917662
 20
-0.0116224626
 10
-33.4265282282
 20
-0.0081898919
 10
-33.4277821443
 20
0.0020253585
 10
-33.4289320647
 20
0.0188487076
 10
-33.4299583175
 20
0.0419925208
 10
-33.4308433467
 20
0.0710610721
 10
-33.4315720113
 20
0.1055573483
 10
-33.4321318446
 20
0.1448914965
 10
-33.4325132634
 20
0.1883907568
  0
LWPOLYLINE
  5
520
100
AcDbEntity
  8
RACCORDO
100
AcDbPolyline
 62
250
  6
CONTINUOUS
 90
4
 70
0
 10
-34.3098877729
 20
1.6470603181
 10
-34.3129783181
 20
1.6563383615
 10
-34.3228867576
 20
1.7075796708
 10
-34.3260414911
 20
1.7596753582
  0
LWPOLYLINE
  5
521
100
AcDbEntity
  8
ASSI
100
AcDbPolyline
 62
250
  6
CONTINUOUS
 90
4
 70
0
 10
-34.3098877729
 20
1.6470603181
 10
-34.3129783181
 20
1.6563383615
 10
-34.3228867576
 20
1.7075796708
 10
-34.3260414911
 20
1.7596753582
  0
LINE
  5
522
100
AcDbEntity
  8
RACCORDO
100
AcDbLine
 62
250
  6
CONTINUOUS
 10
-32.324621515
 20
21.4457253487
 11
-32.3194747999
 21
21.3420010905
  0
LINE
  5
523
100
AcDbEntity
  8
ASSI
100
AcDbLine
 62
250
  6
CONTINUOUS
 10
-32.324621515
 20
21.4457253487
 11
-32.3194747999
 21
21.3420010905
  0
LINE
  5
524
100
AcDbEntity
  8
RACCORDO
100
AcDbLine
 62
250
  6
CONTINUOUS
 10
-32.3289726489
 20
21.5449242344
 11
-32.324621515
 21
21.4457253487
  0
LINE
  5
525
100
AcDbEntity
  8
ASSI
100
AcDbLine
 62
250
  6
CONTINUOUS
 10
-32.3289726489
 20
21.5449242344
 11
-32.324621515
 21
21.4457253487
  0
LINE
  5
526
100
AcDbEntity
  8
RACCORDO
100
AcDbLine
 62
250
  6
CONTINUOUS
 10
-32.3336039055
 20
-22.0427258175
 11
-32.3307888801
 21
-21.9583159114
  0
LINE
  5
527
100
AcDbEntity
  8
ASSI
100
AcDbLine
 62
250
  6
CONTINUOUS
 10
-32.3336039055
 20
-22.0427258175
 11
-32.3307888801
 21
-21.9583159114
  0
LINE
  5
528
100
AcDbEntity
  8
RACCORDO
100
AcDbLine
 62
250
  6
CONTINUOUS
 10
-32.3307888801
 20
-21.9583159114
 11
-32.3269092385
 21
-21.8630233631
  0
LINE
  5
529
100
AcDbEntity
  8
ASSI
100
AcDbLine
 62
250
  6
CONTINUOUS
 10
-32.3307888801
 20
-21.9583159114
 11
-32.3269092385
 21
-21.8630233631
  0
LWPOLYLINE
  5
52A
100
AcDbEntity
  8
RACCORDO
100
AcDbPolyline
 62
250
  6
CONTINUOUS
 90
3
 70
0
 10
-32.3269092385
 20
-21.8630233631
 10
-32.3221342597
 20
-21.7610056968
 10
-32.3194748366
 20
-21.7088596412
  0
LWPOLYLINE
  5
52B
100
AcDbEntity
  8
ASSI
100
AcDbPolyline
 62
250
  6
CONTINUOUS
 90
3
 70
0
 10
-32.3269092385
 20
-21.8630233631
 10
-32.3221342597
 20
-21.7610056968
 10
-32.3194748366
 20
-21.7088596412
  0
LINE
  5
52C
100
AcDbEntity
  8
RACCORDO
100
AcDbLine
 62
250
  6
CONTINUOUS
 10
-34.3675616233
 20
-2.1269280575
 11
-34.3260414973
 21
-2.1265339109
  0
LINE
  5
52D
100
AcDbEntity
  8
ASSI
100
AcDbLine
 62
250
  6
CONTINUOUS
 10
-34.3675616233
 20
-2.1269280575
 11
-34.3260414973
 21
-2.1265339109
  0
LINE
  5
52E
100
AcDbEntity
  8
RACCORDO
100
AcDbLine
 62
7
  6
CONTINUOUS
 10
-29.3722649164
 20
-18.1169208775
 11
-29.3722649164
 21
-17.8554501974
  0
LINE
  5
52F
100
AcDbEntity
  8
ASSI
100
AcDbLine
 62
7
  6
CONTINUOUS
 10
-29.3722649164
 20
-18.1169208775
 11
-29.3722649164
 21
-17.8554501974
  0
LINE
  5
530
100
AcDbEntity
  8
RACCORDO
100
AcDbLine
 62
7
  6
CONTINUOUS
 10
-29.3722649164
 20
17.4885916448
 11
-29.3722649164
 21
17.7500623249
  0
LINE
  5
531
100
AcDbEntity
  8
ASSI
100
AcDbLine
 62
7
  6
CONTINUOUS
 10
-29.3722649164
 20
17.4885916448
 11
-29.3722649164
 21
17.7500623249
  0
LWPOLYLINE
  5
532
100
AcDbEntity
  8
RACCORDO
100
AcDbPolyline
 62
250
  6
CONTINUOUS
 90
11
 70
0
 10
-33.8713642637
 20
-0.3591297785
 10
-33.9243114405
 20
-0.3631194068
 10
-33.975006372
 20
-0.3737475783
 10
-34.02336004
 20
-0.3906253417
 10
-34.0694845112
 20
-0.4137364159
 10
-34.1127938769
 20
-0.4430131023
 10
-34.1519022484
 20
-0.4777037308
 10
-34.1859366859
 20
-0.516915904
 10
-34.2146814396
 20
-0.5603020818
 10
-34.2376016383
 20
-0.6072300363
 10
-34.2542031291
 20
-0.6567975837
  0
LWPOLYLINE
  5
533
100
AcDbEntity
  8
ASSI
100
AcDbPolyline
 62
250
  6
CONTINUOUS
 90
11
 70
0
 10
-33.8713642637
 20
-0.3591297785
 10
-33.9243114405
 20
-0.3631194068
 10
-33.975006372
 20
-0.3737475783
 10
-34.02336004
 20
-0.3906253417
 10
-34.0694845112
 20
-0.4137364159
 10
-34.1127938769
 20
-0.4430131023
 10
-34.1519022484
 20
-0.4777037308
 10
-34.1859366859
 20
-0.516915904
 10
-34.2146814396
 20
-0.5603020818
 10
-34.2376016383
 20
-0.6072300363
 10
-34.2542031291
 20
-0.6567975837
  0
LWPOLYLINE
  5
534
100
AcDbEntity
  8
RACCORDO
100
AcDbPolyline
 62
250
  6
CONTINUOUS
 90
13
 70
0
 10
-33.5222013155
 20
-0.3560826796
 10
-33.573935681
 20
-0.359924326
 10
-33.6247340735
 20
-0.3704792976
 10
-33.6737356269
 20
-0.3875687223
 10
-33.7201099258
 20
-0.4109029902
 10
-33.763071078
 20
-0.4400866623
 10
-33.8018910331
 20
-0.474625171
 10
-33.8359119201
 20
-0.5139332019
 10
-33.8645571967
 20
-0.557344613
 10
-33.8873414196
 20
-0.6041237233
 10
-33.9038784709
 20
-0.6534777804
 10
-33.9138881021
 20
-0.7045703949
 10
-33.9172006826
 20
-0.7565357148
  0
LWPOLYLINE
  5
535
100
AcDbEntity
  8
ASSI
100
AcDbPolyline
 62
250
  6
CONTINUOUS
 90
13
 70
0
 10
-33.5222013155
 20
-0.3560826796
 10
-33.573935681
 20
-0.359924326
 10
-33.6247340735
 20
-0.3704792976
 10
-33.6737356269
 20
-0.3875687223
 10
-33.7201099258
 20
-0.4109029902
 10
-33.763071078
 20
-0.4400866623
 10
-33.8018910331
 20
-0.474625171
 10
-33.8359119201
 20
-0.5139332019
 10
-33.8645571967
 20
-0.557344613
 10
-33.8873414196
 20
-0.6041237233
 10
-33.9038784709
 20
-0.6534777804
 10
-33.9138881021
 20
-0.7045703949
 10
-33.9172006826
 20
-0.7565357148
  0
LINE
  5
536
100
AcDbEntity
  8
RACCORDO
100
AcDbLine
 62
250
  6
CONTINUOUS
 10
-34.2675313639
 20
-0.7596665435
 11
-33.9172229619
 21
-0.7565357432
  0
LINE
  5
537
100
AcDbEntity
  8
ASSI
100
AcDbLine
 62
250
  6
CONTINUOUS
 10
-34.2675313639
 20
-0.7596665435
 11
-33.9172229619
 21
-0.7565357432
  0
LINE
  5
538
100
AcDbEntity
  8
RACCORDO
100
AcDbLine
 62
250
  6
CONTINUOUS
 10
-33.4321719995
 20
-0.7552208599
 11
-28.9722649164
 21
-0.7162998404
  0
LINE
  5
539
100
AcDbEntity
  8
ASSI
100
AcDbLine
 62
250
  6
CONTINUOUS
 10
-33.4321719995
 20
-0.7552208599
 11
-28.9722649164
 21
-0.7162998404
  0
LINE
  5
53A
100
AcDbEntity
  8
RACCORDO
100
AcDbLine
 62
7
  6
CONTINUOUS
 10
-33.8713642635
 20
-0.3591297785
 11
-28.9722649164
 21
-0.3163759862
  0
LINE
  5
53B
100
AcDbEntity
  8
ASSI
100
AcDbLine
 62
7
  6
CONTINUOUS
 10
-33.8713642635
 20
-0.3591297785
 11
-28.9722649164
 21
-0.3163759862
  0
LINE
  5
53C
100
AcDbEntity
  8
RACCORDO
100
AcDbLine
 62
250
  6
CONTINUOUS
 10
-33.917223024
 20
-0.7565357412
 11
-33.4321719958
 21
-0.7552208599
  0
LINE
  5
53D
100
AcDbEntity
  8
ASSI
100
AcDbLine
 62
250
  6
CONTINUOUS
 10
-33.917223024
 20
-0.7565357412
 11
-33.4321719958
 21
-0.7552208599
  0
LINE
  5
53E
100
AcDbEntity
  8
RACCORDO
100
AcDbLine
 62
7
  6
CONTINUOUS
 10
-28.9722649164
 20
-0.0504825665
 11
-33.8713642635
 21
-0.0077287742
  0
LINE
  5
53F
100
AcDbEntity
  8
ASSI
100
AcDbLine
 62
7
  6
CONTINUOUS
 10
-28.9722649164
 20
-0.0504825665
 11
-33.8713642635
 21
-0.0077287742
  0
LWPOLYLINE
  5
540
100
AcDbEntity
  8
RACCORDO
100
AcDbPolyline
 62
250
  6
CONTINUOUS
 90
13
 70
0
 10
-33.5222012827
 20
-0.0107758733
 10
-33.5739383251
 20
-0.0069348397
 10
-33.624739424
 20
0.003619641
 10
-33.6737436536
 20
0.0207087021
 10
-33.7201205391
 20
0.0440427352
 10
-33.7630841316
 20
0.0732262985
 10
-33.8019063271
 20
0.1077648183
 10
-33.835929206
 20
0.1470729703
 10
-33.8645761827
 20
0.1904845993
 10
-33.8873617769
 20
0.2372640086
 10
-33.9038998411
 20
0.2866184276
 10
-33.9139101048
 20
0.337711447
 10
-33.9172229241
 20
0.3896771936
  0
LWPOLYLINE
  5
541
100
AcDbEntity
  8
ASSI
100
AcDbPolyline
 62
250
  6
CONTINUOUS
 90
13
 70
0
 10
-33.5222012827
 20
-0.0107758733
 10
-33.5739383251
 20
-0.0069348397
 10
-33.624739424
 20
0.003619641
 10
-33.6737436536
 20
0.0207087021
 10
-33.7201205391
 20
0.0440427352
 10
-33.7630841316
 20
0.0732262985
 10
-33.8019063271
 20
0.1077648183
 10
-33.835929206
 20
0.1470729703
 10
-33.8645761827
 20
0.1904845993
 10
-33.8873617769
 20
0.2372640086
 10
-33.9038998411
 20
0.2866184276
 10
-33.9139101048
 20
0.337711447
 10
-33.9172229241
 20
0.3896771936
  0
LWPOLYLINE
  5
542
100
AcDbEntity
  8
RACCORDO
100
AcDbPolyline
 62
250
  6
CONTINUOUS
 90
11
 70
0
 10
-33.8713642637
 20
-0.0077287742
 10
-33.924314479
 20
-0.0037387135
 10
-33.9750117646
 20
0.0068905248
 10
-34.0233670498
 20
0.0237697521
 10
-34.0694924237
 20
0.0468824917
 10
-34.1128019886
 20
0.0761608441
 10
-34.151909805
 20
0.1108528187
 10
-34.1859429566
 20
0.1500656078
 10
-34.2146860197
 20
0.1934515379
 10
-34.2376045191
 20
0.2403785091
 10
-34.2542045509
 20
0.2899444066
  0
LWPOLYLINE
  5
543
100
AcDbEntity
  8
ASSI
100
AcDbPolyline
 62
250
  6
CONTINUOUS
 90
11
 70
0
 10
-33.8713642637
 20
-0.0077287742
 10
-33.924314479
 20
-0.0037387135
 10
-33.9750117646
 20
0.0068905248
 10
-34.0233670498
 20
0.0237697521
 10
-34.0694924237
 20
0.0468824917
 10
-34.1128019886
 20
0.0761608441
 10
-34.151909805
 20
0.1108528187
 10
-34.1859429566
 20
0.1500656078
 10
-34.2146860197
 20
0.1934515379
 10
-34.2376045191
 20
0.2403785091
 10
-34.2542045509
 20
0.2899444066
  0
LINE
  5
544
100
AcDbEntity
  8
RACCORDO
100
AcDbLine
 62
7
  6
CONTINUOUS
 10
-29.7648520775
 20
21.9758834294
 11
-28.9722649164
 21
12.9165707237
  0
LINE
  5
545
100
AcDbEntity
  8
ASSI
100
AcDbLine
 62
7
  6
CONTINUOUS
 10
-29.7648520775
 20
21.9758834294
 11
-28.9722649164
 21
12.9165707237
  0
LINE
  5
546
100
AcDbEntity
  8
RACCORDO
100
AcDbLine
 62
7
  6
CONTINUOUS
 10
-28.9722649164
 20
12.9165707237
 11
-28.9722649164
 21
-0.0504825665
  0
LINE
  5
547
100
AcDbEntity
  8
ASSI
100
AcDbLine
 62
7
  6
CONTINUOUS
 10
-28.9722649164
 20
12.9165707237
 11
-28.9722649164
 21
-0.0504825665
  0
LINE
  5
548
100
AcDbEntity
  8
RACCORDO
100
AcDbLine
 62
7
  6
CONTINUOUS
 10
-28.9722649164
 20
-0.3163759862
 11
-28.9722649164
 21
-13.2834292763
  0
LINE
  5
549
100
AcDbEntity
  8
ASSI
100
AcDbLine
 62
7
  6
CONTINUOUS
 10
-28.9722649164
 20
-0.3163759862
 11
-28.9722649164
 21
-13.2834292763
  0
LINE
  5
54A
100
AcDbEntity
  8
RACCORDO
100
AcDbLine
 62
7
  6
CONTINUOUS
 10
-29.7648520775
 20
-22.342741982
 11
-28.9722649164
 21
-13.2834292763
  0
LINE
  5
54B
100
AcDbEntity
  8
ASSI
100
AcDbLine
 62
7
  6
CONTINUOUS
 10
-29.7648520775
 20
-22.342741982
 11
-28.9722649164
 21
-13.2834292763
  0
LINE
  5
54C
100
AcDbEntity
  8
RACCORDO
100
AcDbLine
 62
250
  6
CONTINUOUS
 10
-33.4321719313
 20
0.3883623067
 11
-33.9172229576
 21
0.3896771951
  0
LINE
  5
54D
100
AcDbEntity
  8
ASSI
100
AcDbLine
 62
250
  6
CONTINUOUS
 10
-33.4321719313
 20
0.3883623067
 11
-33.9172229576
 21
0.3896771951
  0
LINE
  5
54E
100
AcDbEntity
  8
RACCORDO
100
AcDbLine
 62
250
  6
CONTINUOUS
 10
-28.9722649164
 20
0.3494412878
 11
-33.4321719346
 21
0.3883623067
  0
LINE
  5
54F
100
AcDbEntity
  8
ASSI
100
AcDbLine
 62
250
  6
CONTINUOUS
 10
-28.9722649164
 20
0.3494412878
 11
-33.4321719346
 21
0.3883623067
  0
LINE
  5
550
100
AcDbEntity
  8
RACCORDO
100
AcDbLine
 62
250
  6
CONTINUOUS
 10
-33.9172229598
 20
0.3896771938
 11
-34.2675313639
 21
0.3928079908
  0
LINE
  5
551
100
AcDbEntity
  8
ASSI
100
AcDbLine
 62
250
  6
CONTINUOUS
 10
-33.9172229598
 20
0.3896771938
 11
-34.2675313639
 21
0.3928079908
  0
LINE
  5
552
100
AcDbEntity
  8
RACCORDO
100
AcDbLine
 62
250
  6
CONTINUOUS
 10
-34.3260414973
 20
1.7596753582
 11
-34.3675616233
 21
1.7600695049
  0
LINE
  5
553
100
AcDbEntity
  8
ASSI
100
AcDbLine
 62
250
  6
CONTINUOUS
 10
-34.3260414973
 20
1.7596753582
 11
-34.3675616233
 21
1.7600695049
  0
LWPOLYLINE
  5
554
100
AcDbEntity
  8
0
100
AcDbPolyline
 62
7
  6
CONTINUOUS
 90
10
 70
0
 43
0.3500000006
 10
-41.0756447296
 20
31.494090683
 10
-41.0042180786
 20
31.3512328491
 10
-41.0042180786
 20
31.2798061981
 10
-41.1470713806
 20
31.1369483643
 10
-41.2185025635
 20
31.1369483643
 10
-41.2899292145
 20
31.2083750153
 10
-41.2899292145
 20
31.2798061981
 10
-41.2185025635
 20
31.4226595001
 10
-41.1470713806
 20
31.494090683
 10
-41.0756447296
 20
31.494090683
  0
LINE
  5
555
100
AcDbEntity
  8
RACCORDO
100
AcDbLine
 62
250
  6
CONTINUOUS
 10
-29.3951406367
 20
17.7500623242
 11
-29.3722649164
 21
17.7500623249
  0
LINE
  5
556
100
AcDbEntity
  8
ASSI
100
AcDbLine
 62
250
  6
CONTINUOUS
 10
-29.3951406367
 20
17.7500623242
 11
-29.3722649164
 21
17.7500623249
  0
LWPOLYLINE
  5
557
100
AcDbEntity
  8
RACCORDO
100
AcDbPolyline
 62
250
  6
CONTINUOUS
 90
3
 70
0
 10
-32.6231891928
 20
21.7898376386
 10
-32.5278553881
 20
21.8149220847
 10
-32.4919645867
 20
21.8222382097
  0
LWPOLYLINE
  5
558
100
AcDbEntity
  8
ASSI
100
AcDbPolyline
 62
250
  6
CONTINUOUS
 90
3
 70
0
 10
-32.6231891928
 20
21.7898376386
 10
-32.5278553881
 20
21.8149220847
 10
-32.4919645867
 20
21.8222382097
  0
LWPOLYLINE
  5
559
100
AcDbEntity
  8
RACCORDO
100
AcDbPolyline
 62
7
  6
CONTINUOUS
 90
3
 70
0
 10
-32.4919645867
 20
21.8222382097
 10
-32.4307602941
 20
21.8321217851
 10
-32.3325543038
 20
21.8413158579
  0
LWPOLYLINE
  5
55A
100
AcDbEntity
  8
ASSI
100
AcDbPolyline
 62
7
  6
CONTINUOUS
 90
3
 70
0
 10
-32.4919645867
 20
21.8222382097
 10
-32.4307602941
 20
21.8321217851
 10
-32.3325543038
 20
21.8413158579
  0
LINE
  5
55B
100
AcDbEntity
  8
RACCORDO
100
AcDbLine
 62
250
  6
CONTINUOUS
 10
-32.3194747999
 20
21.3420010905
 11
-29.7213073814
 21
21.4781652751
  0
LINE
  5
55C
100
AcDbEntity
  8
ASSI
100
AcDbLine
 62
250
  6
CONTINUOUS
 10
-32.3194747999
 20
21.3420010905
 11
-29.7213073814
 21
21.4781652751
  0
LINE
  5
55D
100
AcDbEntity
  8
RACCORDO
100
AcDbLine
 62
7
  6
CONTINUOUS
 10
-32.6918796737
 20
21.8224844132
 11
-29.7648520775
 21
21.9758834294
  0
LINE
  5
55E
100
AcDbEntity
  8
ASSI
100
AcDbLine
 62
7
  6
CONTINUOUS
 10
-32.6918796737
 20
21.8224844132
 11
-29.7648520775
 21
21.9758834294
  0
LINE
  5
55F
100
AcDbEntity
  8
RACCORDO
100
AcDbLine
 62
250
  6
CONTINUOUS
 10
-33.4703240488
 20
20.6939752845
 11
-33.8274389797
 21
20.6867397017
  0
LINE
  5
560
100
AcDbEntity
  8
ASSI
100
AcDbLine
 62
250
  6
CONTINUOUS
 10
-33.4703240488
 20
20.6939752845
 11
-33.8274389797
 21
20.6867397017
  0
LWPOLYLINE
  5
561
100
AcDbEntity
  8
0
100
AcDbPolyline
 62
7
  6
CONTINUOUS
 90
8
 70
0
 43
0.3500000006
 10
-43.8613566284
 20
30.9940905304
 10
-43.0042141571
 20
30.9940905304
 10
-42.5756451874
 20
31.4226595001
 10
-42.5756451874
 20
32.2798065033
 10
-43.0042141571
 20
32.708375473
 10
-43.8613566284
 20
32.708375473
 10
-43.8613566284
 20
33.9940914459
 10
-42.5756451874
 20
33.9940914459
  0
LWPOLYLINE
  5
562
100
AcDbEntity
  8
0
100
AcDbPolyline
 62
7
  6
CONTINUOUS
 90
3
 70
0
 43
0.3500000006
 10
-38.5042173157
 20
31.6369485168
 10
-40.0042177734
 20
31.6369485168
 10
-39.361359787
 20
33.9940914459
  0
LWPOLYLINE
  5
563
100
AcDbEntity
  8
RACCORDO
100
AcDbPolyline
 62
250
  6
CONTINUOUS
 90
3
 70
0
 10
-33.4703041293
 20
20.6939744491
 10
-33.4623903648
 20
20.6935662533
 10
-32.9850140608
 20
20.6726226602
  0
LWPOLYLINE
  5
564
100
AcDbEntity
  8
ASSI
100
AcDbPolyline
 62
250
  6
CONTINUOUS
 90
3
 70
0
 10
-33.4703041293
 20
20.6939744491
 10
-33.4623903648
 20
20.6935662533
 10
-32.9850140608
 20
20.6726226602
  0
ARC
  5
565
100
AcDbEntity
  8
RACCORDO
100
AcDbCircle
 62
7
  6
CONTINUOUS
 10
2.8025287829
 20
-0.1834292763
 40
1.525
100
AcDbArc
 50
270.0
 51
343.0879461817
  0
ARC
  5
566
100
AcDbEntity
  8
RACCORDO
100
AcDbCircle
 62
7
  6
CONTINUOUS
 10
-3.5474712171
 20
-0.1834292763
 40
1.525
100
AcDbArc
 50
196.9120538183
 51
270.0000117153
  0
ARC
  5
567
100
AcDbEntity
  8
ASSI
100
AcDbCircle
 62
7
  6
CONTINUOUS
 10
2.8025287829
 20
-0.1834292763
 40
1.525
100
AcDbArc
 50
270.0
 51
343.0879461817
  0
ARC
  5
568
100
AcDbEntity
  8
ASSI
100
AcDbCircle
 62
7
  6
CONTINUOUS
 10
-3.5474712171
 20
-0.1834292763
 40
1.525
100
AcDbArc
 50
196.9120538183
 51
270.0000117153
  0
ARC
  5
569
100
AcDbEntity
  8
RACCORDO
100
AcDbCircle
 62
7
  6
CONTINUOUS
 10
-3.5474712171
 20
-0.1834292763
 40
1.525
100
AcDbArc
 50
90.0
 51
163.0879461817
  0
ARC
  5
56A
100
AcDbEntity
  8
RACCORDO
100
AcDbCircle
 62
7
  6
CONTINUOUS
 10
2.8025287829
 20
-0.1834292763
 40
1.525
100
AcDbArc
 50
16.9120538183
 51
90.0000117153
  0
ARC
  5
56B
100
AcDbEntity
  8
ASSI
100
AcDbCircle
 62
7
  6
CONTINUOUS
 10
-3.5474712171
 20
-0.1834292763
 40
1.525
100
AcDbArc
 50
90.0
 51
163.0879461817
  0
ARC
  5
56C
100
AcDbEntity
  8
ASSI
100
AcDbCircle
 62
7
  6
CONTINUOUS
 10
2.8025287829
 20
-0.1834292763
 40
1.525
100
AcDbArc
 50
16.9120538183
 51
90.0000117153
  0
ARC
  5
56D
100
AcDbEntity
  8
RACCORDO
100
AcDbCircle
 62
7
  6
CONTINUOUS
 10
-32.6290731912
 20
20.6241291463
 40
1.2
100
AcDbArc
 50
93.0
 51
177.0092050784
  0
ARC
  5
56E
100
AcDbEntity
  8
RACCORDO
100
AcDbCircle
 62
7
  6
CONTINUOUS
 10
-32.6290731912
 20
-20.9909876989
 40
1.2
100
AcDbArc
 50
182.9907949216
 51
267.0
  0
ARC
  5
56F
100
AcDbEntity
  8
ASSI
100
AcDbCircle
 62
7
  6
CONTINUOUS
 10
-32.6290731912
 20
20.6241291463
 40
1.2
100
AcDbArc
 50
93.0
 51
177.0092050784
  0
ARC
  5
570
100
AcDbEntity
  8
ASSI
100
AcDbCircle
 62
7
  6
CONTINUOUS
 10
-32.6290731912
 20
-20.9909876989
 40
1.2
100
AcDbArc
 50
182.9907949216
 51
267.0
  0
ARC
  5
571
100
AcDbEntity
  8
RACCORDO
100
AcDbCircle
 62
7
  6
CONTINUOUS
 10
-33.8678736493
 20
0.3922559951
 40
0.4
100
AcDbArc
 50
180.5959698149
 51
269.4998899131
  0
ARC
  5
572
100
AcDbEntity
  8
RACCORDO
100
AcDbCircle
 62
7
  6
CONTINUOUS
 10
-33.9675661539
 20
1.7581259984
 40
0.4
100
AcDbArc
 50
179.7216121842
 51
213.3118588442
  0
ARC
  5
573
100
AcDbEntity
  8
RACCORDO
100
AcDbCircle
 62
7
  6
CONTINUOUS
 10
-33.9675661539
 20
-2.124984551
 40
0.4
100
AcDbArc
 50
146.688739172
 51
180.2783878158
  0
ARC
  5
574
100
AcDbEntity
  8
RACCORDO
100
AcDbCircle
 62
7
  6
CONTINUOUS
 10
-33.8678736493
 20
-0.7591145477
 40
0.4
100
AcDbArc
 50
90.5001099963
 51
179.4040264176
  0
ARC
  5
575
100
AcDbEntity
  8
ASSI
100
AcDbCircle
 62
7
  6
CONTINUOUS
 10
-33.8678736493
 20
0.3922559951
 40
0.4
100
AcDbArc
 50
180.5959698149
 51
269.4998899131
  0
ARC
  5
576
100
AcDbEntity
  8
ASSI
100
AcDbCircle
 62
7
  6
CONTINUOUS
 10
-33.9675661539
 20
1.7581259984
 40
0.4
100
AcDbArc
 50
179.7216121842
 51
213.3118588442
  0
ARC
  5
577
100
AcDbEntity
  8
ASSI
100
AcDbCircle
 62
7
  6
CONTINUOUS
 10
-33.9675661539
 20
-2.124984551
 40
0.4
100
AcDbArc
 50
146.688739172
 51
180.2783878158
  0
ARC
  5
578
100
AcDbEntity
  8
ASSI
100
AcDbCircle
 62
7
  6
CONTINUOUS
 10
-33.8678736493
 20
-0.7591145477
 40
0.4
100
AcDbArc
 50
90.5001099963
 51
179.4040264176
  0
ARC
  5
579
100
AcDbEntity
  8
RACCORDO
100
AcDbCircle
 62
7
  6
CONTINUOUS
 10
-29.6722649164
 20
17.7500623249
 40
0.3
100
AcDbArc
 50
0.0
 51
25.0000145451
  0
ARC
  5
57A
100
AcDbEntity
  8
RACCORDO
100
AcDbCircle
 62
7
  6
CONTINUOUS
 10
-29.6722649164
 20
-18.1169208775
 40
0.3
100
AcDbArc
 50
335.0
 51
360.0
  0
ARC
  5
57B
100
AcDbEntity
  8
ASSI
100
AcDbCircle
 62
7
  6
CONTINUOUS
 10
-29.6722649164
 20
17.7500623249
 40
0.3
100
AcDbArc
 50
0.0
 51
25.0000145451
  0
ARC
  5
57C
100
AcDbEntity
  8
ASSI
100
AcDbCircle
 62
7
  6
CONTINUOUS
 10
-29.6722649164
 20
-18.1169208775
 40
0.3
100
AcDbArc
 50
335.0
 51
360.0
  0
ELLIPSE
  5
57D
100
AcDbEntity
  8
RACCORDO
100
AcDbEllipse
 62
7
  6
CONTINUOUS
 10
-10.9526870179
 20
-21.8443410206
 30
0.0
 11
0.4962344879
 21
-0.0628595572
 31
0.0
 40
0.9963456432
 41
-3.0137634083
 42
-1.4443370775
  0
ELLIPSE
  5
57E
100
AcDbEntity
  8
RACCORDO
100
AcDbEllipse
 62
7
  6
CONTINUOUS
 10
10.2077445837
 20
-21.8443410206
 30
0.0
 11
0.4962344879
 21
0.0628595572
 31
0.0
 40
0.9963456432
 41
-1.6972555761
 42
-0.1278292453
  0
ELLIPSE
  5
57F
100
AcDbEntity
  8
RACCORDO
100
AcDbEllipse
 62
7
  6
CONTINUOUS
 10
10.3273916659
 20
-0.7163912175
 30
0.0
 11
0.3796255539
 21
0.1265161514
 31
0.0
 40
0.9996192872
 41
-0.3215754254
 42
1.2489924673
  0
ELLIPSE
  5
580
100
AcDbEntity
  8
RACCORDO
100
AcDbEllipse
 62
7
  6
CONTINUOUS
 10
-11.0723341001
 20
-0.7163912175
 30
0.0
 11
0.3796255539
 21
-0.1265161514
 31
0.0
 40
0.9996192872
 41
1.8926001863
 42
3.463168079
  0
ELLIPSE
  5
581
100
AcDbEntity
  8
ASSI
100
AcDbEllipse
 62
7
  6
CONTINUOUS
 10
-10.9526870179
 20
-21.8443410206
 30
0.0
 11
0.4962344879
 21
-0.0628595572
 31
0.0
 40
0.9963456432
 41
-3.0137634083
 42
-1.4443370775
  0
ELLIPSE
  5
582
100
AcDbEntity
  8
ASSI
100
AcDbEllipse
 62
7
  6
CONTINUOUS
 10
10.2077445837
 20
-21.8443410206
 30
0.0
 11
0.4962344879
 21
0.0628595572
 31
0.0
 40
0.9963456432
 41
-1.6972555761
 42
-0.1278292453
  0
ELLIPSE
  5
583
100
AcDbEntity
  8
ASSI
100
AcDbEllipse
 62
7
  6
CONTINUOUS
 10
10.3273916659
 20
-0.7163912175
 30
0.0
 11
0.3796255539
 21
0.1265161514
 31
0.0
 40
0.9996192872
 41
-0.3215754254
 42
1.2489924673
  0
ELLIPSE
  5
584
100
AcDbEntity
  8
ASSI
100
AcDbEllipse
 62
7
  6
CONTINUOUS
 10
-11.0723341001
 20
-0.7163912175
 30
0.0
 11
0.3796255539
 21
-0.1265161514
 31
0.0
 40
0.9996192872
 41
1.8926001863
 42
3.463168079
  0
ELLIPSE
  5
585
100
AcDbEntity
  8
RACCORDO
100
AcDbEllipse
 62
7
  6
CONTINUOUS
 10
10.2077445837
 20
21.477482468
 30
0.0
 11
0.4962344879
 21
-0.0628595572
 31
0.0
 40
0.9963456432
 41
0.1278292453
 42
1.6972555761
  0
ELLIPSE
  5
586
100
AcDbEntity
  8
RACCORDO
100
AcDbEllipse
 62
7
  6
CONTINUOUS
 10
-10.9526870179
 20
21.477482468
 30
0.0
 11
0.4962344879
 21
0.0628595572
 31
0.0
 40
0.9963456432
 41
1.4443370775
 42
3.0137634083
  0
ELLIPSE
  5
587
100
AcDbEntity
  8
RACCORDO
100
AcDbEllipse
 62
7
  6
CONTINUOUS
 10
-11.0723341001
 20
0.3495326649
 30
0.0
 11
0.3796255539
 21
0.1265161514
 31
0.0
 40
0.9996192872
 41
2.8200172282
 42
4.3905851209
  0
ELLIPSE
  5
588
100
AcDbEntity
  8
RACCORDO
100
AcDbEllipse
 62
7
  6
CONTINUOUS
 10
10.3273916659
 20
0.3495326649
 30
0.0
 11
0.3796255539
 21
-0.1265161514
 31
0.0
 40
0.9996192872
 41
-1.2489924673
 42
0.3215754254
  0
ELLIPSE
  5
589
100
AcDbEntity
  8
ASSI
100
AcDbEllipse
 62
7
  6
CONTINUOUS
 10
10.2077445837
 20
21.477482468
 30
0.0
 11
0.4962344879
 21
-0.0628595572
 31
0.0
 40
0.9963456432
 41
0.1278292453
 42
1.6972555761
  0
ELLIPSE
  5
58A
100
AcDbEntity
  8
ASSI
100
AcDbEllipse
 62
7
  6
CONTINUOUS
 10
-10.9526870179
 20
21.477482468
 30
0.0
 11
0.4962344879
 21
0.0628595572
 31
0.0
 40
0.9963456432
 41
1.4443370775
 42
3.0137634083
  0
ELLIPSE
  5
58B
100
AcDbEntity
  8
ASSI
100
AcDbEllipse
 62
7
  6
CONTINUOUS
 10
-11.0723341001
 20
0.3495326649
 30
0.0
 11
0.3796255539
 21
0.1265161514
 31
0.0
 40
0.9996192872
 41
2.8200172282
 42
4.3905851209
  0
ELLIPSE
  5
58C
100
AcDbEntity
  8
ASSI
100
AcDbEllipse
 62
7
  6
CONTINUOUS
 10
10.3273916659
 20
0.3495326649
 30
0.0
 11
0.3796255539
 21
-0.1265161514
 31
0.0
 40
0.9996192872
 41
-1.2489924673
 42
0.3215754254
  0
ENDSEC
  0
SECTION
  2
OBJECTS
  0
DICTIONARY
  5
C
100
AcDbDictionary
280
0
281
1
  3
ACAD_GROUP
350
D
  3
ACAD_MLINESTYLE
350
17
  3
ACAD_LAYOUT
350
1A
  3
ACAD_PLOTSETTINGS
350
19
  3
ACAD_PLOTSTYLENAME
350
E
  0
DICTIONARY
  5
D
102
{ACAD_REACTORS
330
C
102
}
100
AcDbDictionary
280
0
281
1
  0
ACDBDICTIONARYWDFLT
  5
E
102
{ACAD_REACTORS
330
C
102
}
100
AcDbDictionary
281
1
  3
Normal
350
F
100
AcDbDictionaryWithDefault
340
F
  0
DICTIONARY
  5
17
102
{ACAD_REACTORS
330
C
102
}
100
AcDbDictionary
280
0
281
1
  3
Standard
350
18
  0
DICTIONARY
  5
19
102
{ACAD_REACTORS
330
C
102
}
100
AcDbDictionary
281
1
  0
DICTIONARY
  5
1A
102
{ACAD_REACTORS
330
C
102
}
100
AcDbDictionary
281
1
  3
Model
350
58D
  3
Layout1
350
58E
  0
ACDBPLACEHOLDER
  5
F
102
{ACAD_REACTORS
330
E
102
}
  0
MLINESTYLE
  5
18
102
{ACAD_REACTORS
330
17
102
}
100
AcDbMlineStyle
  2
STANDARD
 70
0
  3

 62
256
 51
90.0
 52
90.0
 71
2
 49
0.5
 62
256
  6
BYLAYER
 49
-0.5
 62
256
  6
BYLAYER
  0
LAYOUT
  5
58D
102
{ACAD_REACTORS
330
1A
102
}
100
AcDbPlotSettings
  1

  2
none_device
  4
ISO_A4_(297.00_x_210.00_MM)
  6

 40
0.0
 41
0.0
 42
0.0
 43
0.0
 44
297.0
 45
210.0
 46
0.0
 47
0.0
 48
0.0
 49
0.0
140
0.0
141
0.0
142
1.0
143
1.0
 70
1024
 72
1
 73
0
 74
0
  7

 75
0
147
1.0
148
0.0
149
0.0
100
AcDbLayout
  1
Model
 70
0
 71
0
 10
0.0
 20
0.0
 11
297.0
 21
210.0
 12
0.0
 22
0.0
 32
0.0
 14
0.0
 24
0.0
 34
0.0
 15
0.0
 25
0.0
 35
0.0
146
0.0
 13
0.0
 23
0.0
 33
0.0
 16
1.0
 26
0.0
 36
0.0
 17
0.0
 27
1.0
 37
0.0
 76
0
330
214
345
0
346
0
  0
LAYOUT
  5
58E
102
{ACAD_REACTORS
330
1A
102
}
100
AcDbPlotSettings
  1

  2
none_device
  4
ISO_A4_(297.00_x_210.00_MM)
  6

 40
0.0
 41
0.0
 42
0.0
 43
0.0
 44
297.0
 45
210.0
 46
0.0
 47
0.0
 48
0.0
 49
0.0
140
0.0
141
0.0
142
1.0
143
1.0
 70
0
 72
1
 73
0
 74
0
  7

 75
0
147
1.0
148
0.0
149
0.0
100
AcDbLayout
  1
Layout1
 70
0
 71
1
 10
0.0
 20
0.0
 11
297.0
 21
210.0
 12
0.0
 22
0.0
 32
0.0
 14
0.0
 24
0.0
 34
0.0
 15
0.0
 25
0.0
 35
0.0
146
0.0
 13
0.0
 23
0.0
 33
0.0
 16
1.0
 26
0.0
 36
0.0
 17
0.0
 27
1.0
 37
0.0
 76
0
330
215
345
0
346
0
  0
ENDSEC
  0
EOF
