  0
SECTION
  2
HEADER
  9
$ACADVER
  1
AC1024
  9
$DWGCODEPAGE
  3
ANSI_1252
  9
$EXTMAX
 10
210.0
 20
297.0
 30
0.0
  9
$EXTMIN
 10
0.0
 20
0.0
 30
0.0
  9
$LIMMIN
 10
0.0
 20
0.0
  9
$LIMMAX
 10
210.0
 20
297.0
  9
$VIEWCTR
 10
105.0
 20
148.5
  9
$VIEWSIZE
 40
297.0
  9
$CLAYER
  8
0
  9
$LTSCALE
 40
19.36
  9
$CELTYPE
  6
BYLAYER
  9
$DIMSCALE
 40
1.0
  9
$DIMASZ
 40
3.0
  9
$DIMEXO
 40
0.5
  9
$DIMDLI
 40
13.376
  9
$DIMEXE
 40
1.5
  9
$DIMCEN
 40
3.168
  9
$DIMLFAC
 40
1.0
  9
$DIMBLK
  1
_FILLED
  9
$DIMALT
 70
0
  9
$DIMALTF
 40
0.0393700787
  9
$DIMTXT
 40
3.0
  9
$DIMTOL
 70
1
  9
$DIMLIM
 70
0
  9
$DIMTFAC
 40
1.0
  9
$DIMTP
 40
0.01
  9
$DIMTM
 40
0.01
  9
$DIMGAP
 40
0.625
  9
$DIMDSEP
 70
44
  9
$AUNITS
 70
0
  9
$PDMODE
 70
3
  9
$PDSIZE
 40
3.0
  9
$HANDSEED
  5
4C1
  9
$TILEMODE
 70
1
  9
$MEASUREMENT
 70
1
  9
$INSUNITS
 70
4
  0
ENDSEC
  0
SECTION
  2
CLASSES
  0
CLASS
  1
ACDBDICTIONARYWDFLT
  2
AcDbDictionaryWithDefault
  3
AutoCAD 2000
 90
0
 91
1
280
0
281
0
  0
CLASS
  1
ACDBPLACEHOLDER
  2
AcDbPlaceHolder
  3
AutoCAD 2000
 90
0
 91
1
280
0
281
0
  0
CLASS
  1
LAYOUT
  2
AcDbLayout
  3
AutoCAD 2000
 90
0
 91
0
280
0
281
0
  0
ENDSEC
  0
SECTION
  2
TABLES
  0
TABLE
  2
VPORT
  5
8
100
AcDbSymbolTable
 70
2
  0
VPORT
  5
1F4
100
AcDbSymbolTableRecord
100
AcDbViewportTableRecord
  2
*ACTIVE
 70
0
 10
0.0
 20
0.0
 11
1.0
 21
1.0
 12
105.0
 22
148.5
 13
0.0
 23
0.0
 14
1.0
 24
1.0
 15
0.0
 25
0.0
 16
0.0
 26
0.0
 36
1.0
 17
0.0
 27
0.0
 37
0.0
 40
297.0
 41
0.7070707071
 42
50.0
 43
0.0
 44
0.0
 50
0.0
 51
0.0
 71
0
 72
100
 73
1
 74
1
 75
0
 76
0
 77
0
 78
0
  0
ENDTAB
  0
TABLE
  2
LTYPE
  5
5
100
AcDbSymbolTable
 70
6
  0
LTYPE
  5
14
100
AcDbSymbolTableRecord
100
AcDbLinetypeTableRecord
  2
BYBLOCK
 70
0
  3

 72
65
 73
0
 40
0.0
  0
LTYPE
  5
15
100
AcDbSymbolTableRecord
100
AcDbLinetypeTableRecord
  2
BYLAYER
 70
0
  3

 72
65
 73
0
 40
0.0
  0
LTYPE
  5
16
100
AcDbSymbolTableRecord
100
AcDbLinetypeTableRecord
  2
CONTINUOUS
 70
64
  3
Solid line
 72
65
 73
0
 40
0.0
  0
LTYPE
  5
1F5
100
AcDbSymbolTableRecord
100
AcDbLinetypeTableRecord
  2
CENTER
 70
64
  3
____ _ ____ _ ____ _ ____ _ ____ _ ____ _ ____
 72
65
 73
4
 40
0.6
 49
0.375
 74
0
 49
-0.075
 74
0
 49
0.075
 74
0
 49
-0.075
 74
0
  0
LTYPE
  5
1F6
100
AcDbSymbolTableRecord
100
AcDbLinetypeTableRecord
  2
HIDDEN
 70
64
  3
- - - - - - - - - - - - - - - - - - - -
 72
65
 73
2
 40
0.2
 49
0.1
 74
0
 49
-0.1
 74
0
  0
LTYPE
  5
1F7
100
AcDbSymbolTableRecord
100
AcDbLinetypeTableRecord
  2
PHANTOM
 70
64
  3
_____ _ _ _____ _ _ _____ _ _ _____
 72
65
 73
6
 40
0.8
 49
0.45
 74
0
 49
-0.05
 74
0
 49
0.1
 74
0
 49
-0.05
 74
0
 49
0.1
 74
0
 49
-0.05
 74
0
  0
LTYPE
  5
1F8
100
AcDbSymbolTableRecord
100
AcDbLinetypeTableRecord
  2
DOT
 70
64
  3
. . . . . . . . . . . . . . . . . . . .
 72
65
 73
2
 40
0.2
 49
0.1
 74
0
 49
-0.1
 74
0
  0
LTYPE
  5
1F9
100
AcDbSymbolTableRecord
100
AcDbLinetypeTableRecord
  2
DASHED
 70
64
  3
- - - - - - - - - - - - - - - - - - - -
 72
65
 73
2
 40
0.2
 49
0.1
 74
0
 49
-0.1
 74
0
  0
ENDTAB
  0
TABLE
  2
LAYER
  5
2
100
AcDbSymbolTable
 70
36
  0
LAYER
  5
10
100
AcDbSymbolTableRecord
100
AcDbLayerTableRecord
  2
0
 70
0
 62
7
  6
CONTINUOUS
370
-3
390
F
  0
LAYER
  5
1FA
100
AcDbSymbolTableRecord
100
AcDbLayerTableRecord
  2
DEFAULT_1
 70
0
 62
7
  6
CENTER
370
-3
390
F
  0
LAYER
  5
1FB
100
AcDbSymbolTableRecord
100
AcDbLayerTableRecord
  2
DEFAULT_2
 70
0
 62
7
  6
HIDDEN
370
-3
390
F
  0
LAYER
  5
1FC
100
AcDbSymbolTableRecord
100
AcDbLayerTableRecord
  2
DEFAULT_3
 70
0
 62
7
  6
PHANTOM
370
-3
390
F
  0
LAYER
  5
1FD
100
AcDbSymbolTableRecord
100
AcDbLayerTableRecord
  2
ASSI
 70
0
 62
7
  6
CONTINUOUS
370
-3
390
F
  0
LAYER
  5
1FE
100
AcDbSymbolTableRecord
100
AcDbLayerTableRecord
  2
COORDINATE
 70
0
 62
7
  6
CONTINUOUS
370
-3
390
F
  0
LAYER
  5
1FF
100
AcDbSymbolTableRecord
100
AcDbLayerTableRecord
  2
COPY_PUBLISH
 70
0
 62
7
  6
CONTINUOUS
370
-3
390
F
  0
LAYER
  5
200
100
AcDbSymbolTableRecord
100
AcDbLayerTableRecord
  2
COSMETICI
 70
0
 62
7
  6
CONTINUOUS
370
-3
390
F
  0
LAYER
  5
201
100
AcDbSymbolTableRecord
100
AcDbLayerTableRecord
  2
CURVE
 70
0
 62
7
  6
CONTINUOUS
370
-3
390
F
  0
LAYER
  5
202
100
AcDbSymbolTableRecord
100
AcDbLayerTableRecord
  2
DRAFT
 70
0
 62
7
  6
CONTINUOUS
370
-3
390
F
  0
LAYER
  5
203
100
AcDbSymbolTableRecord
100
AcDbLayerTableRecord
  2
IMPORT_IGES
 70
0
 62
7
  6
CONTINUOUS
370
-3
390
F
  0
LAYER
  5
204
100
AcDbSymbolTableRecord
100
AcDbLayerTableRecord
  2
INTFCLR_1
 70
0
 62
7
  6
CONTINUOUS
370
-3
390
F
  0
LAYER
  5
205
100
AcDbSymbolTableRecord
100
AcDbLayerTableRecord
  2
INTF_2
 70
0
 62
7
  6
CONTINUOUS
370
-3
390
F
  0
LAYER
  5
206
100
AcDbSymbolTableRecord
100
AcDbLayerTableRecord
  2
INTF_5
 70
0
 62
7
  6
CONTINUOUS
370
-3
390
F
  0
LAYER
  5
207
100
AcDbSymbolTableRecord
100
AcDbLayerTableRecord
  2
INTF_9
 70
0
 62
7
  6
CONTINUOUS
370
-3
390
F
  0
LAYER
  5
208
100
AcDbSymbolTableRecord
100
AcDbLayerTableRecord
  2
INTF_YELLOW
 70
0
 62
7
  6
CONTINUOUS
370
-3
390
F
  0
LAYER
  5
209
100
AcDbSymbolTableRecord
100
AcDbLayerTableRecord
  2
NOTE
 70
0
 62
7
  6
CONTINUOUS
370
-3
390
F
  0
LAYER
  5
20A
100
AcDbSymbolTableRecord
100
AcDbLayerTableRecord
  2
PIANI
 70
0
 62
7
  6
CONTINUOUS
370
-3
390
F
  0
LAYER
  5
20B
100
AcDbSymbolTableRecord
100
AcDbLayerTableRecord
  2
PUNTI
 70
0
 62
7
  6
CONTINUOUS
370
-3
390
F
  0
LAYER
  5
20C
100
AcDbSymbolTableRecord
100
AcDbLayerTableRecord
  2
RACCORDO
 70
0
 62
7
  6
CONTINUOUS
370
-3
390
F
  0
LAYER
  5
20D
100
AcDbSymbolTableRecord
100
AcDbLayerTableRecord
  2
SIMBOLI
 70
0
 62
7
  6
CONTINUOUS
370
-3
390
F
  0
LAYER
  5
20E
100
AcDbSymbolTableRecord
100
AcDbLayerTableRecord
  2
SMUSSO
 70
0
 62
7
  6
CONTINUOUS
370
-3
390
F
  0
LAYER
  5
20F
100
AcDbSymbolTableRecord
100
AcDbLayerTableRecord
  2
SNAPLINE
 70
0
 62
7
  6
CONTINUOUS
370
-3
390
F
  0
LAYER
  5
210
100
AcDbSymbolTableRecord
100
AcDbLayerTableRecord
  2
SUPERFICI
 70
0
 62
7
  6
CONTINUOUS
370
-3
390
F
  0
LAYER
  5
211
100
AcDbSymbolTableRecord
100
AcDbLayerTableRecord
  2
TRASH
 70
0
 62
7
  6
CONTINUOUS
370
-3
390
F
  0
ENDTAB
  0
TABLE
  2
STYLE
  5
3
100
AcDbSymbolTable
 70
1
  0
STYLE
  5
11
100
AcDbSymbolTableRecord
100
AcDbTextStyleTableRecord
  2
STANDARD
 70
0
 40
0.0
 41
0.8
 50
0.0
 71
0
 42
0.2
  3
txt
  4

  0
STYLE
  5
212
100
AcDbSymbolTableRecord
100
AcDbTextStyleTableRecord
  2
TEXTSTYLE_1
 70
0
 40
0.0
 41
0.8
 50
0.0
 71
0
 42
0.2
  3
gdt
  4

  0
ENDTAB
  0
TABLE
  2
VIEW
  5
6
100
AcDbSymbolTable
 70
0
  0
ENDTAB
  0
TABLE
  2
UCS
  5
7
100
AcDbSymbolTable
 70
0
  0
ENDTAB
  0
TABLE
  2
APPID
  5
9
100
AcDbSymbolTable
 70
1
  0
APPID
  5
213
100
AcDbSymbolTableRecord
100
AcDbRegAppTableRecord
  2
ACAD
 70
0
  0
ENDTAB
  0
TABLE
  2
BLOCK_RECORD
  5
1
100
AcDbSymbolTable
 70
0
  0
BLOCK_RECORD
  5
214
100
AcDbSymbolTableRecord
100
AcDbBlockTableRecord
  2
*Model_Space
  0
BLOCK_RECORD
  5
215
100
AcDbSymbolTableRecord
100
AcDbBlockTableRecord
  2
*Paper_Space
  0
BLOCK_RECORD
  5
216
100
AcDbSymbolTableRecord
100
AcDbBlockTableRecord
  2
_FILLED
  0
BLOCK_RECORD
  5
217
100
AcDbSymbolTableRecord
100
AcDbBlockTableRecord
  2
*D0
  0
BLOCK_RECORD
  5
218
100
AcDbSymbolTableRecord
100
AcDbBlockTableRecord
  2
*D1
  0
BLOCK_RECORD
  5
219
100
AcDbSymbolTableRecord
100
AcDbBlockTableRecord
  2
*D2
  0
ENDTAB
  0
TABLE
  2
DIMSTYLE
  5
A
100
AcDbSymbolTable
 70
1
100
AcDbDimStyleTable
 71
0
  0
DIMSTYLE
105
21A
100
AcDbSymbolTableRecord
100
AcDbDimStyleTableRecord
  2
STANDARD
 70
0
  3

  4

 40
1.0
 41
3.0
 42
0.5
 43
0.38
 44
1.5
 45
0.0
 46
0.0
 47
0.01
 48
0.01
140
3.0
141
0.09
142
0.0
143
25.4
144
1.0
145
0.0
146
1.0
147
0.625
 71
1
 72
0
 73
0
 74
0
 75
0
 76
0
 77
1
 78
8
 79
2
170
0
171
1
172
0
173
0
174
0
175
0
176
0
177
0
178
0
270
2
179
2
271
2
272
2
273
2
274
2
275
0
280
0
281
0
282
0
283
1
284
8
285
0
286
0
287
3
288
0
340
11
278
44
341
216
342
216
343
216
344
216
  0
DIMSTYLE
105
21B
100
AcDbSymbolTableRecord
100
AcDbDimStyleTableRecord
  2
DIMSTYLE_1
 70
0
  3

  4

 40
1.0
 41
3.0
 42
0.5
 43
0.38
 44
1.5
 45
0.0
 46
0.0
 47
0.0
 48
0.0
140
3.0
141
0.09
142
0.0
143
25.4
144
1.0
145
0.0
146
1.0
147
0.75
 71
0
 72
0
 73
0
 74
0
 75
0
 76
0
 77
1
 78
8
 79
2
170
0
171
1
172
0
173
0
174
0
175
0
176
0
177
0
178
0
270
2
179
2
271
2
272
2
273
2
274
2
275
0
280
0
281
0
282
0
283
1
284
8
285
0
286
0
287
3
288
0
340
11
278
44
341
216
342
216
343
216
344
216
  0
DIMSTYLE
105
21C
100
AcDbSymbolTableRecord
100
AcDbDimStyleTableRecord
  2
DIMSTYLE_2
 70
0
  3

  4

 40
1.0
 41
3.0
 42
0.5
 43
0.38
 44
1.5
 45
0.0
 46
0.0
 47
0.0
 48
0.0
140
3.0
141
0.09
142
0.0
143
25.4
144
1.0
145
0.0
146
1.0
147
0.75
 71
0
 72
0
 73
0
 74
0
 75
0
 76
0
 77
1
 78
8
 79
2
170
0
171
1
172
0
173
0
174
0
175
0
176
0
177
0
178
0
270
2
179
2
271
1
272
1
273
2
274
2
275
0
280
0
281
0
282
0
283
1
284
8
285
0
286
0
287
3
288
0
340
11
278
44
341
216
342
216
343
216
344
216
  0
ENDTAB
  0
ENDSEC
  0
SECTION
  2
BLOCKS
  0
BLOCK
  5
20
100
AcDbEntity
  8
0
100
AcDbBlockBegin
  2
*Model_Space
 70
0
 10
0.0
 20
0.0
 30
0.0
  3
*Model_Space
  1

  0
ENDBLK
  5
21
100
AcDbEntity
  8
0
100
AcDbBlockEnd
  0
BLOCK
  5
1C
100
AcDbEntity
  8
0
100
AcDbBlockBegin
  2
*Paper_Space
 70
0
 10
0.0
 20
0.0
 30
0.0
  3
*Paper_Space
  1

  0
ENDBLK
  5
1D
100
AcDbEntity
  8
0
100
AcDbBlockEnd
  0
BLOCK
  5
21D
100
AcDbEntity
  8
0
100
AcDbBlockBegin
  2
_FILLED
 70
64
 10
0.0
 20
0.0
  3
_FILLED
  1

  0
SOLID
  5
21E
100
AcDbEntity
  8
0
  6
BYBLOCK
 62
0
100
AcDbTrace
 10
0.0
 20
0.0
 11
-1.0
 21
0.3166666667
 12
-1.0
 22
-0.3166666667
 13
-1.0
 23
-0.3166666667
  0
ENDBLK
  5
21F
100
AcDbEntity
  8
0
  6
BYBLOCK
 62
0
100
AcDbBlockEnd
  0
BLOCK
  5
220
100
AcDbEntity
  8
0
100
AcDbBlockBegin
 62
7
  6
CONTINUOUS
  2
*D0
 70
65
 10
0.0
 20
0.0
  3
*D0
  1

  0
LINE
  5
221
100
AcDbEntity
  8
0
100
AcDbLine
 62
7
  6
CONTINUOUS
 10
-11.3754276679
 20
13.5249821619
 11
-11.3754276679
 21
31.8803563855
  0
LINE
  5
222
100
AcDbEntity
  8
0
100
AcDbLine
 62
7
  6
CONTINUOUS
 10
10.8245723321
 20
13.5249821619
 11
10.8245723321
 21
31.8803563855
  0
LINE
  5
223
100
AcDbEntity
  8
0
100
AcDbLine
 62
7
  6
CONTINUOUS
 10
-11.3754276679
 20
30.3803563855
 11
-0.2754276679
 21
30.3803563855
  0
LINE
  5
224
100
AcDbEntity
  8
0
100
AcDbLine
 62
7
  6
CONTINUOUS
 10
10.8245723321
 20
30.3803563855
 11
-0.2754276679
 21
30.3803563855
  0
INSERT
  5
225
100
AcDbEntity
  8
0
100
AcDbBlockReference
 62
7
  6
CONTINUOUS
  2
_FILLED
 10
-11.3754276679
 20
30.3803563855
 41
3.0
 42
3.0
 43
3.0
 50
180.0
  0
INSERT
  5
226
100
AcDbEntity
  8
0
100
AcDbBlockReference
 62
7
  6
CONTINUOUS
  2
_FILLED
 10
10.8245723321
 20
30.3803563855
 41
3.0
 42
3.0
 43
3.0
  0
ENDBLK
  5
227
100
AcDbEntity
  8
0
  6
BYBLOCK
 62
0
100
AcDbBlockEnd
  0
BLOCK
  5
228
100
AcDbEntity
  8
0
100
AcDbBlockBegin
 62
7
  6
CONTINUOUS
  2
*D1
 70
65
 10
0.0
 20
0.0
  3
*D1
  1

  0
LINE
  5
229
100
AcDbEntity
  8
0
100
AcDbLine
 62
7
  6
CONTINUOUS
 10
10.8043315432
 20
22.0842948676
 11
20.3533320147
 21
22.0842948676
  0
LINE
  5
22A
100
AcDbEntity
  8
0
100
AcDbLine
 62
7
  6
CONTINUOUS
 10
10.8043315432
 20
-22.2343305439
 11
20.3533320147
 21
-22.2343305439
  0
LINE
  5
22B
100
AcDbEntity
  8
0
100
AcDbLine
 62
7
  6
CONTINUOUS
 10
18.8533320147
 20
22.0842948676
 11
18.8533320147
 21
-0.0750178381
  0
LINE
  5
22C
100
AcDbEntity
  8
0
100
AcDbLine
 62
7
  6
CONTINUOUS
 10
18.8533320147
 20
-22.2343305439
 11
18.8533320147
 21
-0.0750178381
  0
INSERT
  5
22D
100
AcDbEntity
  8
0
100
AcDbBlockReference
 62
7
  6
CONTINUOUS
  2
_FILLED
 10
18.8533320147
 20
22.0842948676
 41
3.0
 42
3.0
 43
3.0
 50
90.0
  0
INSERT
  5
22E
100
AcDbEntity
  8
0
100
AcDbBlockReference
 62
7
  6
CONTINUOUS
  2
_FILLED
 10
18.8533320147
 20
-22.2343305439
 41
3.0
 42
3.0
 43
3.0
 50
270.0
  0
ENDBLK
  5
22F
100
AcDbEntity
  8
0
  6
BYBLOCK
 62
0
100
AcDbBlockEnd
  0
BLOCK
  5
230
100
AcDbEntity
  8
0
100
AcDbBlockBegin
 62
7
  6
CONTINUOUS
  2
*D2
 70
65
 10
0.0
 20
0.0
  3
*D2
  1

  0
LINE
  5
231
100
AcDbEntity
  8
0
100
AcDbLine
 62
7
  6
CONTINUOUS
 10
-28.45365701
 20
13.5249821619
 11
-28.45365701
 21
31.8353326571
  0
LINE
  5
232
100
AcDbEntity
  8
0
100
AcDbLine
 62
7
  6
CONTINUOUS
 10
-33.8443403887
 20
2.3684371488
 11
-33.8443403887
 21
31.8353326571
  0
LINE
  5
233
100
AcDbEntity
  8
0
100
AcDbLine
 62
7
  6
CONTINUOUS
 10
-28.45365701
 20
30.3353326571
 11
-16.9893360957
 21
30.3353326571
  0
LINE
  5
234
100
AcDbEntity
  8
0
100
AcDbLine
 62
7
  6
CONTINUOUS
 10
-16.9893360957
 20
30.3353326571
 11
-31.1489986994
 21
30.3353326571
  0
LINE
  5
235
100
AcDbEntity
  8
0
100
AcDbLine
 62
7
  6
CONTINUOUS
 10
-33.8443403887
 20
30.3353326571
 11
-37.8443403887
 21
30.3353326571
  0
LINE
  5
236
100
AcDbEntity
  8
0
100
AcDbLine
 62
7
  6
CONTINUOUS
 10
-37.8443403887
 20
30.3353326571
 11
-31.1489986994
 21
30.3353326571
  0
INSERT
  5
237
100
AcDbEntity
  8
0
100
AcDbBlockReference
 62
7
  6
CONTINUOUS
  2
_FILLED
 10
-28.45365701
 20
30.3353326571
 41
3.0
 42
3.0
 43
3.0
 50
180.0
  0
INSERT
  5
238
100
AcDbEntity
  8
0
100
AcDbBlockReference
 62
7
  6
CONTINUOUS
  2
_FILLED
 10
-33.8443403887
 20
30.3353326571
 41
3.0
 42
3.0
 43
3.0
  0
ENDBLK
  5
239
100
AcDbEntity
  8
0
  6
BYBLOCK
 62
0
100
AcDbBlockEnd
  0
ENDSEC
  0
SECTION
  2
ENTITIES
  0
DIMENSION
  5
23A
100
AcDbEntity
  8
0
100
AcDbDimension
 62
7
  6
CONTINUOUS
  2
*D0
 10
10.8245723321
 20
30.3803563855
 11
-4.6682848108
 21
30.3803563855
 70
160
 71
2
 72
2
 41
0.9
 42
22.2
  3
DIMSTYLE_1
100
AcDbAlignedDimension
 13
-11.3754276679
 23
13.0249821619
 14
10.8245723321
 24
13.0249821619
100
AcDbRotatedDimension
  0
DIMENSION
  5
23B
100
AcDbEntity
  8
0
100
AcDbDimension
 62
7
  6
CONTINUOUS
  2
*D1
 10
18.8533320147
 20
-22.2343305439
 11
18.8533320147
 21
-4.3607321238
 70
160
 71
2
 72
2
 41
0.9
 42
44.3186254114
  3
DIMSTYLE_2
100
AcDbAlignedDimension
 13
10.3043315432
 23
22.0842948676
 14
10.3043315432
 24
-22.2343305439
 50
270.0
100
AcDbRotatedDimension
  0
DIMENSION
  5
23C
100
AcDbEntity
  8
0
100
AcDbDimension
 62
7
  6
CONTINUOUS
  2
*D2
 10
-33.8443403887
 20
30.3353326571
 11
-23.20362181
 21
30.3353326571
 70
160
 71
1
 72
2
 41
0.9
 42
5.3906833787
  3
DIMSTYLE_2
100
AcDbAlignedDimension
 13
-28.45365701
 23
13.0249821619
 14
-33.8443403887
 24
1.8684371488
 50
180.0
100
AcDbRotatedDimension
  0
LINE
  5
23D
100
AcDbEntity
  8
ASSI
100
AcDbLine
 62
7
  6
CONTINUOUS
 10
3.5245723321
 20
-22.1972566079
 11
3.1161473391
 21
-22.2343305439
  0
LINE
  5
23E
100
AcDbEntity
  8
ASSI
100
AcDbLine
 62
7
  6
CONTINUOUS
 10
-7.6754276679
 20
-22.1972566079
 11
-8.0838526609
 21
-22.2343305439
  0
LWPOLYLINE
  5
23F
100
AcDbEntity
  8
ASSI
100
AcDbPolyline
 62
250
  6
CONTINUOUS
 90
16
 70
0
 10
10.2370938932
 20
-22.0997629704
 10
10.2892958628
 20
-22.0969608885
 10
10.3409267729
 20
-22.0887281984
 10
10.3914219151
 20
-22.075154976
 10
10.4402290312
 20
-22.0563896983
 10
10.4868142842
 20
-22.0326376436
 10
10.5306681086
 20
-22.0041586681
 10
10.5713108797
 20
-21.9712643107
 10
10.6082981249
 20
-21.9343143793
 10
10.6412253305
 20
-21.8937130625
 10
10.6697324101
 20
-21.8499044732
 10
10.6935076456
 20
-21.8033677682
 10
10.7122910716
 20
-21.7546119249
 10
10.7258773116
 20
-21.704170192
 10
10.7341178288
 20
-21.6525942586
 10
10.7369225557
 20
-21.600448203
  0
LINE
  5
240
100
AcDbEntity
  8
ASSI
100
AcDbLine
 62
250
  6
CONTINUOUS
 10
-10.7879492299
 20
-22.0997629723
 11
-7.3853150541
 21
-22.0895418247
  0
LINE
  5
241
100
AcDbEntity
  8
ASSI
100
AcDbLine
 62
250
  6
CONTINUOUS
 10
-7.3853150541
 20
-22.0895418247
 11
-3.981312432
 21
-22.0832704818
  0
LINE
  5
242
100
AcDbEntity
  8
ASSI
100
AcDbLine
 62
250
  6
CONTINUOUS
 10
-3.981312432
 20
-22.0832704818
 11
-0.5754207458
 21
-22.0809470273
  0
LINE
  5
243
100
AcDbEntity
  8
ASSI
100
AcDbLine
 62
7
  6
CONTINUOUS
 10
10.3043315432
 20
-22.2343305439
 11
7.5329973251
 21
-22.2343305439
  0
LINE
  5
244
100
AcDbEntity
  8
ASSI
100
AcDbLine
 62
7
  6
CONTINUOUS
 10
3.1161473391
 20
-22.2343305439
 11
-3.6670026749
 21
-22.2343305439
  0
LINE
  5
245
100
AcDbEntity
  8
ASSI
100
AcDbLine
 62
7
  6
CONTINUOUS
 10
-8.0838526609
 20
-22.2343305439
 11
-10.855186879
 21
-22.2343305439
  0
LINE
  5
246
100
AcDbEntity
  8
ASSI
100
AcDbLine
 62
7
  6
CONTINUOUS
 10
7.1245723321
 20
-22.1972566079
 11
3.5245723321
 21
-22.1972566079
  0
LINE
  5
247
100
AcDbEntity
  8
ASSI
100
AcDbLine
 62
7
  6
CONTINUOUS
 10
-4.0754276679
 20
-22.1972566079
 11
-7.6754276679
 21
-22.1972566079
  0
LINE
  5
248
100
AcDbEntity
  8
ASSI
100
AcDbLine
 62
250
  6
CONTINUOUS
 10
-0.5754207458
 20
-22.0809470273
 11
2.8234909978
 21
-22.0825637721
  0
LINE
  5
249
100
AcDbEntity
  8
ASSI
100
AcDbLine
 62
250
  6
CONTINUOUS
 10
2.8234909978
 20
-22.0825637721
 11
6.3252851753
 21
-22.0883529562
  0
LWPOLYLINE
  5
24A
100
AcDbEntity
  8
ASSI
100
AcDbPolyline
 62
250
  6
CONTINUOUS
 90
3
 70
0
 10
6.3252851753
 20
-22.0883529562
 10
9.4114646244
 20
-22.0969479583
 10
10.2370938946
 20
-22.0997629732
  0
LWPOLYLINE
  5
24B
100
AcDbEntity
  8
ASSI
100
AcDbPolyline
 62
250
  6
CONTINUOUS
 90
16
 70
0
 10
-10.7879492299
 20
-22.0997629723
 10
-10.8401502001
 20
-22.0969609972
 10
-10.8917802417
 20
-22.0887286001
 10
-10.9422746707
 20
-22.0751558199
 10
-10.9910812232
 20
-22.0563911037
 10
-11.0376660958
 20
-22.0326396836
 10
-11.0815197842
 20
-22.0041613317
 10
-11.1221626551
 20
-21.9712675195
 10
-11.1591501924
 20
-21.9343180105
 10
-11.1920778588
 20
-21.8937169262
 10
-11.2205855204
 20
-21.8499083256
 10
-11.2443613854
 20
-21.8033713488
 10
-11.2631454142
 20
-21.7546149765
 10
-11.2767321635
 20
-21.7041724632
 10
-11.2849730334
 20
-21.6525955048
 10
-11.2877778924
 20
-21.6004482049
  0
LINE
  5
24C
100
AcDbEntity
  8
ASSI
100
AcDbLine
 62
7
  6
CONTINUOUS
 10
-4.0754276679
 20
-22.1972566079
 11
-3.6670026749
 21
-22.2343305439
  0
LWPOLYLINE
  5
24D
100
AcDbEntity
  8
ASSI
100
AcDbPolyline
 62
250
  6
CONTINUOUS
 90
13
 70
0
 10
10.2534750215
 20
-20.9524224133
 10
10.3144639266
 20
-20.9520141982
 10
10.3740185603
 20
-20.9512890981
 10
10.4312378731
 20
-20.9502580838
 10
10.4852561483
 20
-20.9489367543
 10
10.5352561005
 20
-20.947345101
 10
10.5804812404
 20
-20.9455072052
 10
10.6202473209
 20
-20.9434508738
 10
10.6539526893
 20
-20.9412072188
 10
10.6810873902
 20
-20.9388101861
 10
10.7012408811
 20
-20.9362960423
 10
10.7141082436
 20
-20.933702826
 10
10.7194947972
 20
-20.9310697719
  0
LINE
  5
24E
100
AcDbEntity
  8
ASSI
100
AcDbLine
 62
250
  6
CONTINUOUS
 10
-10.8043303637
 20
-20.9524223989
 11
-5.349003042
 21
-20.9468645435
  0
LINE
  5
24F
100
AcDbEntity
  8
ASSI
100
AcDbLine
 62
250
  6
CONTINUOUS
 10
-5.349003042
 20
-20.9468645435
 11
0.7911476187
 21
-20.9452608581
  0
LINE
  5
250
100
AcDbEntity
  8
ASSI
100
AcDbLine
 62
250
  6
CONTINUOUS
 10
0.7911476187
 20
-20.9452608581
 11
5.6160302985
 21
-20.9474492865
  0
LINE
  5
251
100
AcDbEntity
  8
ASSI
100
AcDbLine
 62
250
  6
CONTINUOUS
 10
5.6160302985
 20
-20.9474492865
 11
10.2534750217
 21
-20.952422394
  0
LWPOLYLINE
  5
252
100
AcDbEntity
  8
ASSI
100
AcDbPolyline
 62
250
  6
CONTINUOUS
 90
13
 70
0
 10
-10.8043290219
 20
-20.9524215636
 10
-10.8653169993
 20
-20.9520133678
 10
-10.9248707901
 20
-20.951288302
 10
-10.9820893859
 20
-20.9502573358
 10
-11.0361071083
 20
-20.9489360674
 10
-11.086106706
 20
-20.9473444864
 10
-11.1313317189
 20
-20.9455066714
 10
-11.1710979235
 20
-20.9434504272
 10
-11.204803684
 20
-20.9412068637
 10
-11.2319390553
 20
-20.9388099242
 10
-11.2520934976
 20
-20.9362958729
 10
-11.264962088
 20
-20.9337027456
 10
-11.2703501333
 20
-20.9310697746
  0
LINE
  5
253
100
AcDbEntity
  8
ASSI
100
AcDbLine
 62
7
  6
CONTINUOUS
 10
7.1245723321
 20
-22.1972566079
 11
7.5329973251
 21
-22.2343305439
  0
LWPOLYLINE
  5
254
100
AcDbEntity
  8
CURVE
100
AcDbPolyline
 62
250
  6
CONTINUOUS
 90
40
 70
0
 10
-3.8410493287
 20
12.9736414635
 10
-3.8450096626
 20
12.9702247658
 10
-3.8488714378
 20
12.9667245969
 10
-3.8526412233
 20
12.9631384863
 10
-3.8563255885
 20
12.9594639638
 10
-3.8599311025
 20
12.9556985589
 10
-3.8634631423
 20
12.9518403768
 10
-3.8669223162
 20
12.9478898249
 10
-3.8703080403
 20
12.9438478858
 10
-3.8736197308
 20
12.9397155425
 10
-3.8768568038
 20
12.9354937776
 10
-3.8800182457
 20
12.9311842219
 10
-3.8831013233
 20
12.9267910969
 10
-3.8861028741
 20
12.922319272
 10
-3.8890197352
 20
12.9177736167
 10
-3.8918487439
 20
12.9131590003
 10
-3.8945869656
 20
12.9084802394
 10
-3.8972323786
 20
12.9037419398
 10
-3.8997831893
 20
12.8989486544
 10
-3.9022376041
 20
12.8941049359
 10
-3.9045938295
 20
12.8892153375
 10
-3.9070947174
 20
12.883733448
 10
-3.9094709192
 20
12.8782024029
 10
-3.9117211844
 20
12.8726240678
 10
-3.9138442626
 20
12.8670003082
 10
-3.9158389034
 20
12.8613329897
 10
-3.9177038565
 20
12.8556239777
 10
-3.9194378715
 20
12.849875138
 10
-3.921039698
 20
12.8440883359
 10
-3.9225080855
 20
12.8382654371
 10
-3.9237140953
 20
12.8329952006
 10
-3.924807604
 20
12.8276967557
 10
-3.9257852086
 20
12.8223696215
 10
-3.9266435063
 20
12.8170133168
 10
-3.9273790943
 20
12.8116273607
 10
-3.9279885696
 20
12.8062112719
 10
-3.9284685295
 20
12.8007645696
 10
-3.928815571
 20
12.7952867726
 10
-3.9290262913
 20
12.7897773999
 10
-3.9290972876
 20
12.7842359704
  0
LINE
  5
255
100
AcDbEntity
  8
CURVE
100
AcDbLine
 62
250
  6
CONTINUOUS
 10
-0.4361869776
 20
15.837930299
 11
-3.8410493287
 21
12.9736414635
  0
LWPOLYLINE
  5
256
100
AcDbEntity
  8
CURVE
100
AcDbPolyline
 62
250
  6
CONTINUOUS
 90
87
 70
0
 10
2.1376801018
 20
-14.5879292254
 10
2.1459109303
 20
-14.5877783748
 10
2.1540410488
 20
-14.5873308498
 10
2.1620953981
 20
-14.5865941905
 10
2.1700989191
 20
-14.5855759368
 10
2.1780765527
 20
-14.584283629
 10
2.1880399141
 20
-14.5822915128
 10
2.1979888742
 20
-14.5798807175
 10
2.2079105106
 20
-14.5770489922
 10
2.2177919007
 20
-14.5737940863
 10
2.2276168663
 20
-14.5701157167
 10
2.2373562054
 20
-14.5660214723
 10
2.2469774604
 20
-14.56152091
 10
2.2564481737
 20
-14.5566235864
 10
2.2638958932
 20
-14.5524252949
 10
2.2712179776
 20
-14.5479769659
 10
2.2784059115
 20
-14.5432763726
 10
2.2854511796
 20
-14.5383212883
 10
2.2923452664
 20
-14.5331094862
 10
2.2990782204
 20
-14.5276403474
 10
2.3056343455
 20
-14.5219196835
 10
2.3119965094
 20
-14.5159549136
 10
2.3181475798
 20
-14.5097534572
 10
2.3240704244
 20
-14.5033227336
 10
2.3297501227
 20
-14.4966704513
 10
2.3351806017
 20
-14.4898054768
 10
2.340358
 20
-14.4827369657
 10
2.3452784562
 20
-14.4754740738
 10
2.349938109
 20
-14.4680259568
 10
2.354332918
 20
-14.4604019794
 10
2.3584581265
 20
-14.4526123428
 10
2.3623087989
 20
-14.444667457
 10
2.3658799992
 20
-14.4365777322
 10
2.3691667917
 20
-14.4283535784
 10
2.3721642779
 20
-14.4200063531
 10
2.3748677077
 20
-14.4115512034
 10
2.3772723682
 20
-14.4030042237
 10
2.3793735464
 20
-14.3943815084
 10
2.3811665294
 20
-14.385699152
 10
2.382792374
 20
-14.3759997061
 10
2.3840304689
 20
-14.3662565223
 10
2.3848793705
 20
-14.3564796236
 10
2.3853376354
 20
-14.3466790335
 10
2.38540382
 20
-14.3368647753
 10
2.3850764809
 20
-14.3270468723
 10
2.3843541746
 20
-14.3172353477
 10
2.3832354575
 20
-14.3074402248
 10
2.3817188863
 20
-14.2976715271
 10
2.37980445
 20
-14.2879412639
 10
2.3774978686
 20
-14.2782693897
 10
2.3748062947
 20
-14.2686778451
 10
2.371736881
 20
-14.2591885706
 10
2.3682967801
 20
-14.249823507
 10
2.3644931446
 20
-14.2406045947
 10
2.3603331271
 20
-14.2315537745
 10
2.3558238803
 20
-14.2226929869
 10
2.3509725568
 20
-14.2140441725
 10
2.3463193965
 20
-14.2064579064
 10
2.3413977309
 20
-14.1990668804
 10
2.3362103431
 20
-14.1918768644
 10
2.3307600163
 20
-14.1848936283
 10
2.3250495336
 20
-14.178122942
 10
2.3190845531
 20
-14.1715715194
 10
2.3128822309
 20
-14.1652498505
 10
2.3064625983
 20
-14.1591693694
 10
2.2998456862
 20
-14.1533415102
 10
2.2930515258
 20
-14.147777707
 10
2.2872652223
 20
-14.1433479325
 10
2.2813599925
 20
-14.1390967051
 10
2.2753260889
 20
-14.1350112594
 10
2.2691594858
 20
-14.1310832907
 10
2.2628790463
 20
-14.1273223359
 10
2.2565093556
 20
-14.1237423929
 10
2.2487782716
 20
-14.1197011443
 10
2.2409709951
 20
-14.1159411313
 10
2.2331044531
 20
-14.1124627762
 10
2.2251955724
 20
-14.1092665013
 10
2.2172612799
 20
-14.1063527287
 10
2.2073297491
 20
-14.1031072063
 10
2.1973957216
 20
-14.1002972645
 10
2.1874699581
 20
-14.0979164138
 10
2.1775632199
 20
-14.095958165
 10
2.1696534658
 20
-14.0946929354
 10
2.1617365259
 20
-14.0936994361
 10
2.1537861513
 20
-14.0929830854
 10
2.1457760929
 20
-14.0925493016
 10
2.1376801018
 20
-14.0924035029
  0
LINE
  5
257
100
AcDbEntity
  8
CURVE
100
AcDbLine
 62
250
  6
CONTINUOUS
 10
-3.6813344264
 20
-14.5877951811
 11
2.1376801018
 21
-14.5878695528
  0
LINE
  5
258
100
AcDbEntity
  8
CURVE
100
AcDbLine
 62
250
  6
CONTINUOUS
 10
2.1376801018
 20
-14.0923406452
 11
-3.4335715651
 21
-14.092286531
  0
LWPOLYLINE
  5
259
100
AcDbEntity
  8
ASSI
100
AcDbPolyline
 62
250
  6
CONTINUOUS
 90
7
 70
0
 10
-10.787949229
 20
21.9497272941
 10
-10.7891871149
 20
21.9405332222
 10
-10.7904906064
 20
21.9233335232
 10
-10.7918151451
 20
21.8982490785
 10
-10.7930839163
 20
21.8654550542
 10
-10.7942871307
 20
21.8251761696
 10
-10.7966340832
 20
21.7232908405
  0
LINE
  5
25A
100
AcDbEntity
  8
CURVE
100
AcDbLine
 62
250
  6
CONTINUOUS
 10
-3.4335715651
 20
12.6687156831
 11
-0.2764720753
 21
15.3248291118
  0
LWPOLYLINE
  5
25B
100
AcDbEntity
  8
CURVE
100
AcDbPolyline
 62
250
  6
CONTINUOUS
 90
36
 70
0
 10
1.744876998
 20
-13.3992817794
 10
1.7504317865
 20
-13.3992111443
 10
1.7559661143
 20
-13.3990010232
 10
1.7614812294
 20
-13.3986540929
 10
1.7669783797
 20
-13.39817303
 10
1.7724588131
 20
-13.397560511
 10
1.7779237775
 20
-13.3968192128
 10
1.7833745208
 20
-13.3959518119
 10
1.7888114642
 20
-13.3949608649
 10
1.7942317224
 20
-13.393848448
 10
1.7996315834
 20
-13.3926165176
 10
1.8050073352
 20
-13.3912670298
 10
1.8103552656
 20
-13.3898019409
 10
1.8156716628
 20
-13.3882232071
 10
1.8209528147
 20
-13.3865327847
 10
1.8261953742
 20
-13.3847324276
 10
1.8313974543
 20
-13.3828230818
 10
1.836557533
 20
-13.3808054907
 10
1.8416740883
 20
-13.3786803979
 10
1.8467455979
 20
-13.3764485472
 10
1.85177054
 20
-13.374110682
 10
1.8567473925
 20
-13.371667546
 10
1.8616744039
 20
-13.369119802
 10
1.8665489059
 20
-13.3664677898
 10
1.8713680006
 20
-13.3637117686
 10
1.8761287903
 20
-13.3608519973
 10
1.8808283771
 20
-13.3578887351
 10
1.8854638632
 20
-13.354822241
 10
1.8900323509
 20
-13.3516527741
 10
1.8945311077
 20
-13.3483800551
 10
1.8989580625
 20
-13.3450016515
 10
1.9033113094
 20
-13.3415145926
 10
1.9075889427
 20
-13.3379159075
 10
1.9117890565
 20
-13.3342026254
 10
1.9159097451
 20
-13.3303717755
 10
1.9199491025
 20
-13.326420387
  0
LWPOLYLINE
  5
25C
100
AcDbEntity
  8
CURVE
100
AcDbPolyline
 62
250
  6
CONTINUOUS
 90
87
 70
0
 10
0.0692356085
 20
-11.5168300677
 10
0.0610784207
 20
-11.5169782251
 10
0.0530188745
 20
-11.5174179477
 10
0.0450323059
 20
-11.5181421104
 10
0.0370940507
 20
-11.5191435886
 10
0.0291794449
 20
-11.5204152575
 10
0.0192922887
 20
-11.5223765032
 10
0.009417885
 20
-11.5247502233
 10
-0.0004294284
 20
-11.527537852
 10
-0.0102353135
 20
-11.5307408232
 10
-0.0199830191
 20
-11.5343589852
 10
-0.0296461415
 20
-11.5383858426
 10
-0.0391958637
 20
-11.5428133142
 10
-0.0486033685
 20
-11.5476333187
 10
-0.0560087046
 20
-11.5517677139
 10
-0.0632963867
 20
-11.5561512117
 10
-0.0704582228
 20
-11.5607868658
 10
-0.0774860211
 20
-11.5656777297
 10
-0.0843715894
 20
-11.570826857
 10
-0.0911051876
 20
-11.576235666
 10
-0.0976708829
 20
-11.5818990337
 10
-0.1040511943
 20
-11.5878102017
 10
-0.1102286409
 20
-11.5939624116
 10
-0.1161857414
 20
-11.6003489052
 10
-0.121907471
 20
-11.6069635699
 10
-0.1273886278
 20
-11.6138028757
 10
-0.1326264661
 20
-11.6208639388
 10
-0.13761824
 20
-11.628143875
 10
-0.1423612038
 20
-11.6356398002
 10
-0.1468513557
 20
-11.643346637
 10
-0.151079671
 20
-11.6512505337
 10
-0.155035869
 20
-11.6593354455
 10
-0.1587096692
 20
-11.6675853272
 10
-0.1620907907
 20
-11.6759841338
 10
-0.1651699441
 20
-11.6845162121
 10
-0.1679418035
 20
-11.6931674757
 10
-0.1704020344
 20
-11.7019242299
 10
-0.1725463019
 20
-11.71077278
 10
-0.1743702715
 20
-11.7196994312
 10
-0.1758695516
 20
-11.7286905169
 10
-0.1770395248
 20
-11.737732482
 10
-0.1778755165
 20
-11.7468117992
 10
-0.1783728526
 20
-11.7559149415
 10
-0.1785268587
 20
-11.7650283817
 10
-0.1783350522
 20
-11.7741371099
 10
-0.1778037173
 20
-11.7832201854
 10
-0.1769413299
 20
-11.7922551848
 10
-0.1757563658
 20
-11.8012196848
 10
-0.1742573009
 20
-11.8100912619
 10
-0.1724520651
 20
-11.8188509834
 10
-0.1703464042
 20
-11.8274938797
 10
-0.167945518
 20
-11.8360184718
 10
-0.1652546062
 20
-11.8444232806
 10
-0.1622788686
 20
-11.8527068273
 10
-0.159022469
 20
-11.8608671174
 10
-0.1554854275
 20
-11.8689000957
 10
-0.151666728
 20
-11.8768011912
 10
-0.1475653545
 20
-11.8845658333
 10
-0.1431802912
 20
-11.892189451
 10
-0.1385118418
 20
-11.8996654425
 10
-0.133565589
 20
-11.9069790808
 10
-0.1283484356
 20
-11.9141136079
 10
-0.1228672841
 20
-11.9210522656
 10
-0.117129037
 20
-11.9277782959
 10
-0.1111422718
 20
-11.9342766496
 10
-0.104922265
 20
-11.9405391134
 10
-0.0984859681
 20
-11.9465591827
 10
-0.0918503326
 20
-11.9523303532
 10
-0.0850323097
 20
-11.9578461203
 10
-0.0780477911
 20
-11.9631011952
 10
-0.0709084282
 20
-11.9680951506
 10
-0.0636248126
 20
-11.9728287746
 10
-0.056207536
 20
-11.9773028557
 10
-0.0486671899
 20
-11.981518182
 10
-0.0390884802
 20
-11.9864228177
 10
-0.0293766336
 20
-11.9909148251
 10
-0.0195742596
 20
-11.9949846487
 10
-0.0097239678
 20
-11.9986227329
 10
0.0001373602
 20
-12.0018224969
 10
0.0099957567
 20
-12.0045892587
 10
0.019842982
 20
-12.0069313108
 10
0.0296707965
 20
-12.008856946
 10
0.0375184349
 20
-12.0101015636
 10
0.0453735562
 20
-12.0110793691
 10
0.0532613395
 20
-12.0117847504
 10
0.0612069639
 20
-12.0122120948
 10
0.0692356085
 20
-12.0123557902
  0
LINE
  5
25D
100
AcDbEntity
  8
CURVE
100
AcDbLine
 62
250
  6
CONTINUOUS
 10
0.0692356085
 20
-12.0123889132
 11
2.5332133748
 21
-12.0122874152
  0
LINE
  5
25E
100
AcDbEntity
  8
CURVE
100
AcDbLine
 62
250
  6
CONTINUOUS
 10
2.5332133748
 20
-11.516762419
 11
0.0692356085
 21
-11.5168628389
  0
LWPOLYLINE
  5
25F
100
AcDbEntity
  8
ASSI
100
AcDbPolyline
 62
250
  6
CONTINUOUS
 90
6
 70
0
 10
-10.7942871374
 20
-21.9752118449
 10
-10.7930839218
 20
-22.0154907284
 10
-10.7918151495
 20
-22.048284753
 10
-10.7904906097
 20
-22.0733691991
 10
-10.789187117
 20
-22.0905688995
 10
-10.7879492299
 20
-22.0997629723
  0
LINE
  5
260
100
AcDbEntity
  8
ASSI
100
AcDbLine
 62
250
  6
CONTINUOUS
 10
-11.2767613194
 20
21.2826598815
 11
-11.2746409345
 21
21.2011453395
  0
LINE
  5
261
100
AcDbEntity
  8
ASSI
100
AcDbLine
 62
250
  6
CONTINUOUS
 10
-10.7966340919
 20
-21.8733265184
 11
-10.7942871374
 21
-21.9752118449
  0
LINE
  5
262
100
AcDbEntity
  8
ASSI
100
AcDbLine
 62
250
  6
CONTINUOUS
 10
-11.2746409345
 20
21.2011453395
 11
-11.2728932076
 21
21.1072925197
  0
LINE
  5
263
100
AcDbEntity
  8
ASSI
100
AcDbLine
 62
250
  6
CONTINUOUS
 10
-10.7997007002
 20
-21.6726883746
 11
-10.7966340919
 21
-21.8733265184
  0
LINE
  5
264
100
AcDbEntity
  8
ASSI
100
AcDbLine
 62
250
  6
CONTINUOUS
 10
-11.2728932076
 20
21.1072925197
 11
-11.2715756997
 21
21.0037846674
  0
LINE
  5
265
100
AcDbEntity
  8
ASSI
100
AcDbLine
 62
250
  6
CONTINUOUS
 10
-10.8027393877
 20
-21.3356755369
 11
-10.7997007002
 21
-21.6726883746
  0
LINE
  5
266
100
AcDbEntity
  8
ASSI
100
AcDbLine
 62
250
  6
CONTINUOUS
 10
-11.2715756997
 20
21.0037846674
 11
-11.2707240191
 21
20.8946452076
  0
LINE
  5
267
100
AcDbEntity
  8
ASSI
100
AcDbLine
 62
7
  6
CONTINUOUS
 10
-11.3558133007
 20
-21.7366123895
 11
-11.3754276679
 21
-13.1750178381
  0
LINE
  5
268
100
AcDbEntity
  8
ASSI
100
AcDbLine
 62
250
  6
CONTINUOUS
 10
-10.8043303725
 20
-20.9524223984
 11
-10.8027393877
 21
-21.3356755369
  0
LINE
  5
269
100
AcDbEntity
  8
ASSI
100
AcDbLine
 62
250
  6
CONTINUOUS
 10
-11.2707240191
 20
20.8946452076
 11
-11.2638968681
 21
13.9051201302
  0
LINE
  5
26A
100
AcDbEntity
  8
ASSI
100
AcDbLine
 62
7
  6
CONTINUOUS
 10
-11.3754276679
 20
-13.1750178381
 11
-11.3754276679
 21
-0.6078884022
  0
LINE
  5
26B
100
AcDbEntity
  8
ASSI
100
AcDbLine
 62
7
  6
CONTINUOUS
 10
-11.3754276679
 20
0.457852726
 11
-11.3754276679
 21
13.0249821619
  0
LINE
  5
26C
100
AcDbEntity
  8
ASSI
100
AcDbLine
 62
250
  6
CONTINUOUS
 10
-11.2638968681
 20
13.9051201302
 11
-11.2586408908
 21
0.4967737454
  0
LINE
  5
26D
100
AcDbEntity
  8
ASSI
100
AcDbLine
 62
250
  6
CONTINUOUS
 10
-10.8018917135
 20
-0.6481243082
 11
-10.8043303637
 21
-20.9524223989
  0
LINE
  5
26E
100
AcDbEntity
  8
ASSI
100
AcDbLine
 62
250
  6
CONTINUOUS
 10
-11.2586408925
 20
-0.6468094211
 11
-11.2608358065
 21
-9.1328914819
  0
LINE
  5
26F
100
AcDbEntity
  8
ASSI
100
AcDbLine
 62
250
  6
CONTINUOUS
 10
-11.2608358065
 20
-9.1328914819
 11
-11.2654698678
 21
-15.9600963934
  0
LINE
  5
270
100
AcDbEntity
  8
ASSI
100
AcDbLine
 62
7
  6
CONTINUOUS
 10
-11.3558133007
 20
21.5865767133
 11
-11.3754276679
 21
13.0249821619
  0
LINE
  5
271
100
AcDbEntity
  8
ASSI
100
AcDbLine
 62
250
  6
CONTINUOUS
 10
-10.8037459613
 20
20.9973313803
 11
-10.8018916889
 21
0.4980886288
  0
LINE
  5
272
100
AcDbEntity
  8
ASSI
100
AcDbLine
 62
250
  6
CONTINUOUS
 10
-11.2654698678
 20
-15.9600963934
 11
-11.2707240199
 21
-21.0446808862
  0
LINE
  5
273
100
AcDbEntity
  8
ASSI
100
AcDbLine
 62
250
  6
CONTINUOUS
 10
-10.8013815045
 20
21.3622959647
 11
-10.8037459613
 21
20.9973313803
  0
LINE
  5
274
100
AcDbEntity
  8
ASSI
100
AcDbLine
 62
250
  6
CONTINUOUS
 10
-11.2707240199
 20
-21.0446808862
 11
-11.2715757007
 21
-21.1538203458
  0
LINE
  5
275
100
AcDbEntity
  8
ASSI
100
AcDbLine
 62
250
  6
CONTINUOUS
 10
-10.7987312051
 20
21.5953416557
 11
-10.8013815045
 21
21.3622959647
  0
LINE
  5
276
100
AcDbEntity
  8
ASSI
100
AcDbLine
 62
250
  6
CONTINUOUS
 10
-11.2715757007
 20
-21.1538203458
 11
-11.2728932086
 21
-21.2573281979
  0
LINE
  5
277
100
AcDbEntity
  8
ASSI
100
AcDbLine
 62
250
  6
CONTINUOUS
 10
-10.7966340832
 20
21.7232908405
 11
-10.7987312051
 21
21.5953416557
  0
LINE
  5
278
100
AcDbEntity
  8
ASSI
100
AcDbLine
 62
250
  6
CONTINUOUS
 10
-11.2728932086
 20
-21.2573281979
 11
-11.2746409355
 21
-21.3511810178
  0
LWPOLYLINE
  5
279
100
AcDbEntity
  8
ASSI
100
AcDbPolyline
 62
250
  6
CONTINUOUS
 90
10
 70
0
 10
-11.2746409355
 20
-21.3511810178
 10
-11.2767613204
 20
-21.4326955597
 10
-11.2779545998
 20
-21.4684709574
 10
-11.2792118968
 20
-21.5002217311
 10
-11.2805353341
 20
-21.5278656806
 10
-11.2819227889
 20
-21.5514850061
 10
-11.2833438166
 20
-21.5706008109
 10
-11.284788269
 20
-21.5850534629
 10
-11.2862662942
 20
-21.5950025942
 10
-11.2877778924
 20
-21.6004482049
  0
LWPOLYLINE
  5
27A
100
AcDbEntity
  8
0
100
AcDbPolyline
 62
7
  6
CONTINUOUS
 90
3
 70
0
 43
0.3500000019
 10
0.7602885742
 20
31.4160698242
 10
0.6888583984
 20
31.201784668
 10
0.546003418
 20
30.9160693359
  0
LWPOLYLINE
  5
27B
100
AcDbEntity
  8
CURVE
100
AcDbPolyline
 62
250
  6
CONTINUOUS
 90
86
 70
0
 10
1.6305511599
 20
12.2325711422
 10
1.6362125522
 20
12.2384342323
 10
1.6416110688
 20
12.2444331983
 10
1.6467682725
 20
12.2505826374
 10
1.6517057261
 20
12.2568971466
 10
1.6564449923
 20
12.263391323
 10
1.6621139273
 20
12.2717789766
 10
1.6674932231
 20
12.2804689091
 10
1.6725692163
 20
12.2894598618
 10
1.6773282437
 20
12.2987505757
 10
1.6817551918
 20
12.3083344289
 10
1.685829146
 20
12.3181833473
 10
1.6895277416
 20
12.3282638937
 10
1.6928286139
 20
12.3385426309
 10
1.6951682327
 20
12.3468884922
 10
1.6972294092
 20
12.3553385394
 10
1.6990025576
 20
12.3638915164
 10
1.700478092
 20
12.3725461669
 10
1.7016464265
 20
12.3813012345
 10
1.7024983158
 20
12.3901518901
 10
1.7030258772
 20
12.3990790122
 10
1.7032215682
 20
12.4080599065
 10
1.7030778467
 20
12.4170718785
 10
1.7025871703
 20
12.4260922341
 10
1.7017444254
 20
12.4350997752
 10
1.7005542121
 20
12.44407929
 10
1.6990235593
 20
12.4530170631
 10
1.6971594957
 20
12.4618993791
 10
1.69496905
 20
12.4707125226
 10
1.692458786
 20
12.4794431256
 10
1.689633407
 20
12.4880792106
 10
1.6864971514
 20
12.4966091473
 10
1.6830542574
 20
12.5050213055
 10
1.6793089636
 20
12.5133040551
 10
1.6752675791
 20
12.5214440975
 10
1.6709446972
 20
12.5294214612
 10
1.6663569822
 20
12.5372145062
 10
1.6615210984
 20
12.5448015927
 10
1.65645371
 20
12.5521610806
 10
1.651168787
 20
12.559275685
 10
1.6456695219
 20
12.5661455403
 10
1.6399564129
 20
12.572775136
 10
1.6340299582
 20
12.5791689614
 10
1.627890656
 20
12.5853315058
 10
1.6215384373
 20
12.5912665947
 10
1.6149709642
 20
12.5969753977
 10
1.6081853316
 20
12.6024584202
 10
1.6011786344
 20
12.607716168
 10
1.5939479676
 20
12.6127491466
 10
1.5864944064
 20
12.6175552827
 10
1.5788349473
 20
12.6221221873
 10
1.5709905672
 20
12.6264348923
 10
1.5629822429
 20
12.6304784298
 10
1.5548309513
 20
12.6342378319
 10
1.5465570749
 20
12.6377000967
 10
1.5381786183
 20
12.640860087
 10
1.529712992
 20
12.6437146317
 10
1.5211776061
 20
12.64626056
 10
1.512589871
 20
12.6484947006
 10
1.5039651269
 20
12.6504139474
 10
1.4953104333
 20
12.6520154534
 10
1.4866307799
 20
12.6532964362
 10
1.477931156
 20
12.6542541137
 10
1.4692165511
 20
12.6548857035
 10
1.4604948982
 20
12.6551900943
 10
1.4517859029
 20
12.6551728579
 10
1.4431122144
 20
12.6548412372
 10
1.434496482
 20
12.6542024747
 10
1.4259613546
 20
12.6532638133
 10
1.4189219474
 20
12.6522574804
 10
1.4119390637
 20
12.6510506003
 10
1.4049975225
 20
12.6496458593
 10
1.3946492919
 20
12.6471757279
 10
1.3844273211
 20
12.6442880779
 10
1.3743905989
 20
12.6410038447
 10
1.3645644843
 20
12.6373412084
 10
1.3549659293
 20
12.6333176602
 10
1.3456118853
 20
12.6289506915
 10
1.3365176271
 20
12.6242568545
 10
1.3276917205
 20
12.6192489465
 10
1.3191410543
 20
12.6139388258
 10
1.3108725173
 20
12.6083383506
 10
1.3028875218
 20
12.6024507119
 10
1.2951655752
 20
12.5962444302
 10
1.2876807079
 20
12.5896793589
 10
1.280406951
 20
12.5827153511
  0
LWPOLYLINE
  5
27C
100
AcDbEntity
  8
CURVE
100
AcDbPolyline
 62
250
  6
CONTINUOUS
 90
53
 70
0
 10
-0.105836496
 20
11.1957893619
 10
-0.1110459218
 20
11.1904098604
 10
-0.1160385167
 20
11.1849103981
 10
-0.1208301703
 20
11.179280124
 10
-0.1254367724
 20
11.1735081871
 10
-0.1298742127
 20
11.1675837365
 10
-0.1341549746
 20
11.1614979006
 10
-0.1382779162
 20
11.1552497241
 10
-0.1422384892
 20
11.1488402314
 10
-0.1460321453
 20
11.1422704466
 10
-0.149654336
 20
11.1355413939
 10
-0.1530998331
 20
11.1286553353
 10
-0.1563606873
 20
11.1216194845
 10
-0.1594282692
 20
11.114442293
 10
-0.1622939497
 20
11.1071322122
 10
-0.1649490993
 20
11.0996976936
 10
-0.1669944072
 20
11.0934158782
 10
-0.1688809123
 20
11.0870738634
 10
-0.1706020065
 20
11.0806919961
 10
-0.1721523476
 20
11.0742848856
 10
-0.1735316581
 20
11.0678441927
 10
-0.1747409262
 20
11.0613558409
 10
-0.1759672956
 20
11.0534939846
 10
-0.1769418061
 20
11.0455602771
 10
-0.1776560364
 20
11.0375717664
 10
-0.1781015651
 20
11.0295455002
 10
-0.1782699709
 20
11.0214985265
 10
-0.17815544
 20
11.0134476845
 10
-0.1777625883
 20
11.0054089792
 10
-0.1770986392
 20
10.9973982069
 10
-0.1761708162
 20
10.989431164
 10
-0.1749863426
 20
10.9815236468
 10
-0.1738074739
 20
10.9749870583
 10
-0.1724537749
 20
10.968488769
 10
-0.1709236287
 20
10.9620147712
 10
-0.1692168571
 20
10.9555573207
 10
-0.1673390377
 20
10.9491337272
 10
-0.1652971867
 20
10.9427675642
 10
-0.1626399302
 20
10.9352320348
 10
-0.1597663385
 20
10.9278230864
 10
-0.1566861782
 20
10.9205506544
 10
-0.1534092159
 20
10.9134246745
 10
-0.1499452183
 20
10.9064550821
 10
-0.1463030494
 20
10.8996501375
 10
-0.1424879636
 20
10.8930113993
 10
-0.138504313
 20
10.8865387509
 10
-0.1343564493
 20
10.8802320759
 10
-0.1300487246
 20
10.8740912575
 10
-0.1255820667
 20
10.868114373
 10
-0.1209437073
 20
10.8622922744
 10
-0.116117454
 20
10.8566140077
 10
-0.1110871143
 20
10.8510686186
 10
-0.105836496
 20
10.845645153
  0
LINE
  5
27D
100
AcDbEntity
  8
CURVE
100
AcDbLine
 62
250
  6
CONTINUOUS
 10
0.6671426787
 20
11.2683094831
 11
1.6305511599
 21
12.2325711422
  0
LINE
  5
27E
100
AcDbEntity
  8
CURVE
100
AcDbLine
 62
250
  6
CONTINUOUS
 10
1.280406951
 20
12.5827153511
 11
-0.105836496
 21
11.1957893619
  0
LWPOLYLINE
  5
27F
100
AcDbEntity
  8
ASSI
100
AcDbPolyline
 62
250
  6
CONTINUOUS
 90
13
 70
0
 10
-10.767428178
 20
-0.2476712411
 10
-10.7719052969
 20
-0.2515122747
 10
-10.776306542
 20
-0.2620667555
 10
-10.7805573255
 20
-0.2791558165
 10
-10.7845856093
 20
-0.3024898496
 10
-10.7883231262
 20
-0.3316734129
 10
-10.7917065364
 20
-0.3662119327
 10
-10.7946785013
 20
-0.4055200847
 10
-10.7971886551
 20
-0.4489317137
 10
-10.7991944581
 20
-0.495711123
 10
-10.8006619181
 20
-0.545065542
 10
-10.8015661659
 20
-0.5961585615
 10
-10.8018918773
 20
-0.6481243081
  0
LINE
  5
280
100
AcDbEntity
  8
ASSI
100
AcDbLine
 62
7
  6
CONTINUOUS
 10
-10.1754276679
 20
0.0579288717
 11
-10.1213169666
 21
0.0849821619
  0
LINE
  5
281
100
AcDbEntity
  8
ASSI
100
AcDbLine
 62
250
  6
CONTINUOUS
 10
-11.2586408908
 20
0.4967737454
 11
-11.3754276679
 21
0.457852726
  0
LINE
  5
282
100
AcDbEntity
  8
ASSI
100
AcDbLine
 62
250
  6
CONTINUOUS
 10
-10.8587779609
 20
0.0967889762
 11
-10.9753819559
 21
0.0579288717
  0
LWPOLYLINE
  5
283
100
AcDbEntity
  8
ASSI
100
AcDbPolyline
 62
250
  6
CONTINUOUS
 90
13
 70
0
 10
-4.9217801844
 20
0.3820158692
 10
-4.9364479287
 20
0.3423423463
 10
-4.9552232533
 20
0.3044390929
 10
-4.9778962651
 20
0.2687299967
 10
-5.0042135639
 20
0.2356143233
 10
-5.0338808385
 20
0.2054625582
 10
-5.066566058
 20
0.1786121685
 10
-5.1019035796
 20
0.1553634349
 10
-5.1394982834
 20
0.1359762267
 10
-5.178929677
 20
0.1206673184
 10
-5.21975677
 20
0.1096078411
 10
-5.2615230158
 20
0.1029213897
 10
-5.3037613595
 20
0.100682664
  0
LWPOLYLINE
  5
284
100
AcDbEntity
  8
ASSI
100
AcDbPolyline
 62
250
  6
CONTINUOUS
 90
13
 70
0
 10
-5.3037613595
 20
-0.2507183403
 10
-5.3053811017
 20
-0.254708401
 10
-5.3076186443
 20
-0.2653376393
 10
-5.3100614564
 20
-0.2822168665
 10
-5.3119475106
 20
-0.3053296061
 10
-5.3134548755
 20
-0.3346079585
 10
-5.3154110244
 20
-0.3692999331
 10
-5.3170177629
 20
-0.4085127222
 10
-5.3178314603
 20
-0.4518986524
 10
-5.3190031896
 20
-0.4988256236
 10
-5.3205176583
 20
-0.5483915211
 10
-5.3211537853
 20
-0.5995513854
 10
-5.3202963725
 20
-0.6512551053
  0
LINE
  5
285
100
AcDbEntity
  8
ASSI
100
AcDbLine
 62
250
  6
CONTINUOUS
 10
-5.3037613645
 20
-0.2507183403
 11
-5.292161476
 21
-0.2350178381
  0
LINE
  5
286
100
AcDbEntity
  8
ASSI
100
AcDbLine
 62
250
  6
CONTINUOUS
 10
-4.921780184
 20
-0.5320515467
 11
-4.909475086
 21
-0.5186456458
  0
LWPOLYLINE
  5
287
100
AcDbEntity
  8
ASSI
100
AcDbPolyline
 62
250
  6
CONTINUOUS
 90
4
 70
0
 10
-4.9773144094
 20
-0.546792857
 10
-5.0267027604
 20
-0.5616181956
 10
-5.0563839109
 20
-0.5702747283
 10
-5.1237042388
 20
-0.5908836437
  0
LWPOLYLINE
  5
288
100
AcDbEntity
  8
ASSI
100
AcDbPolyline
 62
250
  6
CONTINUOUS
 90
6
 70
0
 10
-5.1237042388
 20
-0.5908836437
 10
-5.1606621635
 20
-0.6019202931
 10
-5.1992548182
 20
-0.6138452885
 10
-5.2390202759
 20
-0.6265350234
 10
-5.2795249254
 20
-0.639166053
 10
-5.3202963725
 20
-0.6512551053
  0
LWPOLYLINE
  5
289
100
AcDbEntity
  8
ASSI
100
AcDbPolyline
 62
250
  6
CONTINUOUS
 90
13
 70
0
 10
-10.7674281734
 20
0.0976355652
 10
-10.7719050269
 20
0.1014772116
 10
-10.7763060103
 20
0.1120321832
 10
-10.7805565414
 20
0.1291216078
 10
-10.7845845876
 20
0.1524558758
 10
-10.7883218863
 20
0.1816395478
 10
-10.7917051025
 20
0.2161780565
 10
-10.7946769012
 20
0.2554860875
 10
-10.7971869198
 20
0.2988974986
 10
-10.799192621
 20
0.3456766089
 10
-10.8006600141
 20
0.3950306659
 10
-10.8015642312
 20
0.4461232805
 10
-10.801889948
 20
0.4980886004
  0
LWPOLYLINE
  5
28A
100
AcDbEntity
  8
CURVE
100
AcDbPolyline
 62
250
  6
CONTINUOUS
 90
55
 70
0
 10
-3.9290972876
 20
-14.3401663642
 10
-3.9289763065
 20
-14.347668524
 10
-3.9286157858
 20
-14.3551018282
 10
-3.92801936
 20
-14.362485154
 10
-3.9271906632
 20
-14.3698373783
 10
-3.9261333299
 20
-14.3771773784
 10
-3.9248499794
 20
-14.3845202339
 10
-3.9233391713
 20
-14.3918658352
 10
-3.9215984504
 20
-14.3992102752
 10
-3.9196253615
 20
-14.4065496469
 10
-3.9174174491
 20
-14.4138800433
 10
-3.9149726549
 20
-14.4211961931
 10
-3.9122905072
 20
-14.428487368
 10
-3.9093709309
 20
-14.4357414754
 10
-3.9062138512
 20
-14.442946423
 10
-3.9028191932
 20
-14.4500901181
 10
-3.8998104281
 20
-14.4559856519
 10
-3.8966465076
 20
-14.4618110658
 10
-3.8933373134
 20
-14.4675471741
 10
-3.8898894994
 20
-14.473179814
 10
-3.8862968091
 20
-14.4787149149
 10
-3.8825497583
 20
-14.4841634294
 10
-3.8786410623
 20
-14.4895327212
 10
-3.8745722342
 20
-14.494815798
 10
-3.8703469866
 20
-14.5000020788
 10
-3.8659690322
 20
-14.5050809826
 10
-3.8614420835
 20
-14.5100419283
 10
-3.8567698532
 20
-14.5148743347
 10
-3.8519570771
 20
-14.519568773
 10
-3.8470125839
 20
-14.5241204224
 10
-3.8419462256
 20
-14.5285256141
 10
-3.836767854
 20
-14.5327806794
 10
-3.8314873212
 20
-14.5368819497
 10
-3.8261144791
 20
-14.5408257561
 10
-3.8206556602
 20
-14.5446105622
 10
-3.8151031191
 20
-14.5482433596
 10
-3.809445591
 20
-14.5517332722
 10
-3.8036772148
 20
-14.5550860083
 10
-3.7978137457
 20
-14.5582936137
 10
-3.7918763424
 20
-14.5613447183
 10
-3.7846798186
 20
-14.5647867169
 10
-3.7774208291
 20
-14.5679869106
 10
-3.7701129043
 20
-14.5709452284
 10
-3.762769575
 20
-14.5736615989
 10
-3.7554043715
 20
-14.5761359511
 10
-3.7480290962
 20
-14.5783687293
 10
-3.7406486382
 20
-14.5803624411
 10
-3.7332661583
 20
-14.5821201097
 10
-3.7258848174
 20
-14.5836447584
 10
-3.7185077764
 20
-14.5849394104
 10
-3.7111344899
 20
-14.5860059744
 10
-3.7037495879
 20
-14.5868419015
 10
-3.6963339941
 20
-14.587443528
 10
-3.6888686323
 20
-14.5878071905
 10
-3.6813344264
 20
-14.5879292254
  0
LINE
  5
28B
100
AcDbEntity
  8
CURVE
100
AcDbLine
 62
250
  6
CONTINUOUS
 10
-3.9290972876
 20
12.7842359704
 11
-3.9290972876
 21
8.4453144578
  0
LINE
  5
28C
100
AcDbEntity
  8
CURVE
100
AcDbLine
 62
250
  6
CONTINUOUS
 10
-3.9290972876
 20
-10.0012448516
 11
-3.9290972876
 21
-14.3401663642
  0
LWPOLYLINE
  5
28D
100
AcDbEntity
  8
ASSI
100
AcDbPolyline
 62
7
  6
CONTINUOUS
 90
10
 70
0
 10
-4.909475086
 20
0.3686099696
 10
-4.9105619538
 20
0.3650916377
 10
-4.911682173
 20
0.361579357
 10
-4.9128357999
 20
0.3580728442
 10
-4.9140223384
 20
0.3545726237
 10
-4.9152423975
 20
0.3510776046
 10
-4.9164976724
 20
0.3475850659
 10
-4.9177887426
 20
0.3440938943
 10
-4.9191150912
 20
0.3406045983
 10
-4.9204767497
 20
0.3371168753
  0
LWPOLYLINE
  5
28E
100
AcDbEntity
  8
ASSI
100
AcDbPolyline
 62
250
  6
CONTINUOUS
 90
4
 70
0
 10
4.4264590736
 20
0.3967571807
 10
4.4758474246
 20
0.4115825193
 10
4.5055285751
 20
0.4202390521
 10
4.572848903
 20
0.4408479675
  0
LWPOLYLINE
  5
28F
100
AcDbEntity
  8
ASSI
100
AcDbPolyline
 62
250
  6
CONTINUOUS
 90
6
 70
0
 10
4.572848903
 20
0.4408479675
 10
4.6098068277
 20
0.4518846168
 10
4.6483994824
 20
0.4638096123
 10
4.6881649401
 20
0.4764993472
 10
4.7286695896
 20
0.4891303767
 10
4.7694410367
 20
0.501219429
  0
LWPOLYLINE
  5
290
100
AcDbEntity
  8
0
100
AcDbPolyline
 62
7
  6
CONTINUOUS
 90
2
 70
0
 43
0.3500000019
 10
18.1033300781
 20
-3.3607319641
 10
16.6033339844
 20
-3.3607319641
  0
LINE
  5
291
100
AcDbEntity
  8
ASSI
100
AcDbLine
 62
250
  6
CONTINUOUS
 10
-11.3754276679
 20
-0.6078884022
 11
-11.2586408925
 21
-0.6468094211
  0
LINE
  5
292
100
AcDbEntity
  8
ASSI
100
AcDbLine
 62
250
  6
CONTINUOUS
 10
-10.9753819559
 20
-0.207964548
 11
-10.8587779626
 21
-0.2468246519
  0
LINE
  5
293
100
AcDbEntity
  8
ASSI
100
AcDbLine
 62
7
  6
CONTINUOUS
 10
-10.1213169666
 20
-0.2350178381
 11
-10.1754276679
 21
-0.207964548
  0
LWPOLYLINE
  5
294
100
AcDbEntity
  8
CURVE
100
AcDbPolyline
 62
250
  6
CONTINUOUS
 90
89
 70
0
 10
1.9779651995
 20
-9.3574368106
 10
1.9844402371
 20
-9.3626516582
 10
1.9910111735
 20
-9.3675879085
 10
1.9976957933
 20
-9.3722656639
 10
2.0045118811
 20
-9.3767050266
 10
2.0114772216
 20
-9.3809260989
 10
2.0204139907
 20
-9.3859171305
 10
2.0296051702
 20
-9.3905839807
 10
2.0390441744
 20
-9.3949121368
 10
2.048724418
 20
-9.3988870861
 10
2.0586372481
 20
-9.4024933256
 10
2.0687657435
 20
-9.4057113901
 10
2.0790909154
 20
-9.4085208242
 10
2.0895937754
 20
-9.4109011722
 10
2.0966821791
 20
-9.4122396898
 10
2.1038184409
 20
-9.41337296
 10
2.1109798862
 20
-9.4142955315
 10
2.1181506248
 20
-9.4150019884
 10
2.1253419066
 20
-9.4154870559
 10
2.1325717664
 20
-9.4157454946
 10
2.1413144488
 20
-9.415750829
 10
2.1501130269
 20
-9.415423631
 10
2.1589418744
 20
-9.4147652584
 10
2.1677753649
 20
-9.4137770694
 10
2.1765878718
 20
-9.4124604219
 10
2.1853562356
 20
-9.4108175717
 10
2.1940671635
 20
-9.4088543658
 10
2.2027098295
 20
-9.4065775491
 10
2.2112734076
 20
-9.4039938665
 10
2.2197470717
 20
-9.4011100628
 10
2.2281199989
 20
-9.397932496
 10
2.2363813778
 20
-9.3944659767
 10
2.2445204004
 20
-9.3907149286
 10
2.2525262584
 20
-9.3866837754
 10
2.2603881435
 20
-9.3823769407
 10
2.2680939827
 20
-9.3778005354
 10
2.2756266436
 20
-9.3729674183
 10
2.2829677289
 20
-9.3678921354
 10
2.2900988415
 20
-9.3625892327
 10
2.2970015842
 20
-9.3570732561
 10
2.3036608494
 20
-9.3513562389
 10
2.3100746882
 20
-9.3454401639
 10
2.3162444413
 20
-9.3393245012
 10
2.3221714495
 20
-9.3330087209
 10
2.3278570534
 20
-9.3264922931
 10
2.3333024323
 20
-9.3197741479
 10
2.3385081194
 20
-9.3128510556
 10
2.3434744862
 20
-9.3057192465
 10
2.3482019045
 20
-9.2983749509
 10
2.3526907459
 20
-9.2908143992
 10
2.3569391343
 20
-9.2830370411
 10
2.3609362029
 20
-9.2750552044
 10
2.3646688374
 20
-9.2668844362
 10
2.3681239233
 20
-9.2585402836
 10
2.3712883461
 20
-9.250038294
 10
2.3736938066
 20
-9.2428484777
 10
2.375880345
 20
-9.235596018
 10
2.3778399957
 20
-9.2283170838
 10
2.3795671263
 20
-9.2210393563
 10
2.3810654363
 20
-9.2137565646
 10
2.3823409585
 20
-9.2064539498
 10
2.3835834655
 20
-9.1976505482
 10
2.3845090676
 20
-9.1888119421
 10
2.3851129874
 20
-9.1799527247
 10
2.3853904475
 20
-9.1710874893
 10
2.3853366704
 20
-9.1622308292
 10
2.3849493295
 20
-9.1533985464
 10
2.3842359007
 20
-9.1446112781
 10
2.3832063104
 20
-9.1358908704
 10
2.3818704853
 20
-9.1272591691
 10
2.3802383518
 20
-9.1187380204
 10
2.3786583065
 20
-9.1117324822
 10
2.3768806354
 20
-9.1048027796
 10
2.3749065889
 20
-9.0979328051
 10
2.371583949
 20
-9.0877247679
 10
2.3678498891
 20
-9.0776815328
 10
2.3637305976
 20
-9.0678612534
 10
2.3592465712
 20
-9.0582880722
 10
2.3544168836
 20
-9.0489776289
 10
2.3492606089
 20
-9.0399455634
 10
2.343795735
 20
-9.0312058996
 10
2.3380359073
 20
-9.022766198
 10
2.3319936853
 20
-9.014632403
 10
2.3256816284
 20
-9.0068104594
 10
2.3204414119
 20
-9.000778993
 10
2.3150145902
 20
-8.9949393243
 10
2.3093792143
 20
-8.9892798618
 10
2.3035133353
 20
-8.9837890138
 10
2.2973950041
 20
-8.9784551887
  0
LWPOLYLINE
  5
295
100
AcDbEntity
  8
CURVE
100
AcDbPolyline
 62
250
  6
CONTINUOUS
 90
49
 70
0
 10
-0.116757173
 20
-6.9475505229
 10
-0.1223831545
 20
-6.9429892322
 10
-0.1280775229
 20
-6.9386497241
 10
-0.1338489775
 20
-6.9345191177
 10
-0.1397062177
 20
-6.9305845321
 10
-0.1456579429
 20
-6.9268330862
 10
-0.1517128524
 20
-6.9232518993
 10
-0.1578780646
 20
-6.9198307763
 10
-0.1641543741
 20
-6.9165702672
 10
-0.1705409944
 20
-6.9134736079
 10
-0.1770371391
 20
-6.9105440344
 10
-0.1836420217
 20
-6.9077847826
 10
-0.1903548558
 20
-6.9051990885
 10
-0.1971731059
 20
-6.9027906292
 10
-0.2040872397
 20
-6.9005648461
 10
-0.2110859758
 20
-6.8985276218
 10
-0.2181580328
 20
-6.8966848389
 10
-0.2252921294
 20
-6.8950423799
 10
-0.2324769843
 20
-6.8936061276
 10
-0.2397020222
 20
-6.8923814377
 10
-0.2469594933
 20
-6.8913715596
 10
-0.2542423536
 20
-6.8905792159
 10
-0.2615435596
 20
-6.8900071292
 10
-0.2688560675
 20
-6.8896580222
 10
-0.2761728335
 20
-6.8895346175
 10
-0.2834870599
 20
-6.8896387186
 10
-0.2907929328
 20
-6.889968453
 10
-0.2980848844
 20
-6.8905210289
 10
-0.3053573469
 20
-6.8912936548
 10
-0.3126047523
 20
-6.8922835389
 10
-0.3198215329
 20
-6.8934878896
 10
-0.3270012795
 20
-6.8949035238
 10
-0.3341342185
 20
-6.8965256926
 10
-0.3412097347
 20
-6.8983492558
 10
-0.3482172133
 20
-6.9003690732
 10
-0.3551460393
 20
-6.9025800045
 10
-0.3619855976
 20
-6.9049769094
 10
-0.3687267725
 20
-6.9075549878
 10
-0.375366445
 20
-6.9103108006
 10
-0.381902995
 20
-6.9132412488
 10
-0.3883348027
 20
-6.9163432335
 10
-0.3946602482
 20
-6.9196136556
 10
-0.4008777117
 20
-6.9230494162
 10
-0.4069872528
 20
-6.9266501385
 10
-0.4129956505
 20
-6.930426334
 10
-0.4189113633
 20
-6.9343912365
 10
-0.4247428498
 20
-6.9385580796
 10
-0.4304985683
 20
-6.9429400972
 10
-0.4361869776
 20
-6.9475505229
  0
LINE
  5
296
100
AcDbEntity
  8
CURVE
100
AcDbLine
 62
250
  6
CONTINUOUS
 10
2.2973950041
 20
-8.9784551887
 11
-0.116757173
 21
-6.9475505229
  0
LINE
  5
297
100
AcDbEntity
  8
CURVE
100
AcDbLine
 62
250
  6
CONTINUOUS
 10
-0.2764720753
 20
-7.4606517101
 11
1.9779651995
 21
-9.3574368106
  0
LWPOLYLINE
  5
298
100
AcDbEntity
  8
CURVE
100
AcDbPolyline
 62
250
  6
CONTINUOUS
 90
87
 70
0
 10
1.9199491025
 20
-10.2027654708
 10
1.9140708621
 20
-10.1970909415
 10
1.9080555893
 20
-10.1916819682
 10
1.9018888608
 20
-10.1865168778
 10
1.8955562538
 20
-10.1815739972
 10
1.8890433451
 20
-10.1768316532
 10
1.8806316143
 20
-10.1711620053
 10
1.8719170169
 20
-10.1657852726
 10
1.8629009437
 20
-10.1607148962
 10
1.8535847852
 20
-10.155964317
 10
1.8439753158
 20
-10.1515484225
 10
1.8341008443
 20
-10.1474878854
 10
1.823995063
 20
-10.1438048249
 10
1.8136916642
 20
-10.1405213601
 10
1.8053266755
 20
-10.1381968457
 10
1.7968582667
 20
-10.1361516602
 10
1.7882879296
 20
-10.1343952352
 10
1.7796171561
 20
-10.132937002
 10
1.7708474382
 20
-10.1317863923
 10
1.7619837854
 20
-10.1309524772
 10
1.7530452788
 20
-10.1304428867
 10
1.7440545169
 20
-10.1302648904
 10
1.7350340985
 20
-10.130425758
 10
1.7260066222
 20
-10.1309327594
 10
1.7169932227
 20
-10.1317907802
 10
1.7080091787
 20
-10.1329951709
 10
1.6990683048
 20
-10.1345388982
 10
1.6901844158
 20
-10.1364149287
 10
1.6813713264
 20
-10.1386162289
 10
1.6726424521
 20
-10.1411362434
 10
1.6640096121
 20
-10.143970329
 10
1.6554842263
 20
-10.1471143201
 10
1.6470777147
 20
-10.1505640513
 10
1.6388014974
 20
-10.1543153574
 10
1.630668687
 20
-10.1583619828
 10
1.6226991671
 20
-10.1626893119
 10
1.614914514
 20
-10.1672806388
 10
1.6073363039
 20
-10.172119258
 10
1.5999861131
 20
-10.1771884636
 10
1.5928811293
 20
-10.182474337
 10
1.5860209858
 20
-10.187974108
 10
1.5794009274
 20
-10.1936877935
 10
1.5730161989
 20
-10.1996154104
 10
1.566862045
 20
-10.2057569754
 10
1.5609345416
 20
-10.2121126311
 10
1.5552330885
 20
-10.2186830215
 10
1.5497579166
 20
-10.2254689162
 10
1.5445092567
 20
-10.2324710849
 10
1.5394873397
 20
-10.2396902972
 10
1.534694379
 20
-10.2471250068
 10
1.530140519
 20
-10.2547644037
 10
1.5258378864
 20
-10.262595362
 10
1.5217986079
 20
-10.270604756
 10
1.5180348104
 20
-10.2787794597
 10
1.5151180136
 20
-10.2857043587
 10
1.5124110541
 20
-10.2927023692
 10
1.5099240416
 20
-10.2997409192
 10
1.507664336
 20
-10.3067949471
 10
1.5056282983
 20
-10.3138694312
 10
1.5038095393
 20
-10.3209768596
 10
1.5019076417
 20
-10.3295611079
 10
1.5003151897
 20
-10.3381979428
 10
1.4990379476
 20
-10.3468745281
 10
1.4980816795
 20
-10.3555780273
 10
1.4974521497
 20
-10.3642956039
 10
1.4971528032
 20
-10.3730131873
 10
1.4971778089
 20
-10.3817117695
 10
1.4975190162
 20
-10.3903711083
 10
1.4981682748
 20
-10.3989709613
 10
1.4991174344
 20
-10.4074910863
 10
1.5001319976
 20
-10.4145200133
 10
1.5013467653
 20
-10.4214937814
 10
1.5027593372
 20
-10.4284266555
 10
1.5052415005
 20
-10.4387614074
 10
1.5081412597
 20
-10.4489698634
 10
1.5114372996
 20
-10.4589938849
 10
1.5151112967
 20
-10.4688082991
 10
1.5191456757
 20
-10.4783961751
 10
1.5235228614
 20
-10.4877405821
 10
1.5282262079
 20
-10.4968262646
 10
1.5332427871
 20
-10.5056446706
 10
1.5385606002
 20
-10.5141889236
 10
1.5441676487
 20
-10.5224521473
 10
1.5500606318
 20
-10.5304329723
 10
1.5562710408
 20
-10.5381520583
 10
1.5628390649
 20
-10.5456355718
 10
1.5698048936
 20
-10.5529096797
  0
LINE
  5
299
100
AcDbEntity
  8
CURVE
100
AcDbLine
 62
250
  6
CONTINUOUS
 10
3.3061925494
 20
-11.5893501889
 11
1.9199491025
 21
-10.2027654708
  0
LINE
  5
29A
100
AcDbEntity
  8
CURVE
100
AcDbLine
 62
250
  6
CONTINUOUS
 10
1.5698048936
 20
-10.5529096797
 11
2.5332133748
 21
-11.5168300677
  0
LWPOLYLINE
  5
29B
100
AcDbEntity
  8
ASSI
100
AcDbPolyline
 62
7
  6
CONTINUOUS
 90
13
 70
0
 10
-4.9204767855
 20
-0.4871525815
 10
-4.9354955375
 20
-0.4537353114
 10
-4.9534541566
 20
-0.4219671873
 10
-4.9741640317
 20
-0.3920817487
 10
-4.9973912176
 20
-0.3643267195
 10
-5.0229418427
 20
-0.3388720883
 10
-5.050686039
 20
-0.315829203
 10
-5.0804035655
 20
-0.2953933128
 10
-5.1118524594
 20
-0.2777291875
 10
-5.1448835029
 20
-0.2629204133
 10
-5.1792806026
 20
-0.2511081912
 10
-5.2147485839
 20
-0.242462579
 10
-5.2510136164
 20
-0.2371071845
  0
LWPOLYLINE
  5
29C
100
AcDbEntity
  8
ASSI
100
AcDbPolyline
 62
250
  6
CONTINUOUS
 90
13
 70
0
 10
-5.3037613595
 20
0.100682664
 10
-5.3053812728
 20
0.1046722923
 10
-5.3076186525
 20
0.1153004639
 10
-5.3100611592
 20
0.1321782273
 10
-5.3119471108
 20
0.1552893014
 10
-5.3134545746
 20
0.1845659878
 10
-5.3154107016
 20
0.2192566164
 10
-5.3170173725
 20
0.2584687895
 10
-5.3178311892
 20
0.3018549673
 10
-5.3190030627
 20
0.3487829219
 10
-5.3205176145
 20
0.3983504692
 10
-5.3211538061
 20
0.4495127091
 10
-5.3202963725
 20
0.501219429
  0
LWPOLYLINE
  5
29D
100
AcDbEntity
  8
ASSI
100
AcDbPolyline
 62
7
  6
CONTINUOUS
 90
10
 70
0
 10
-4.9204767742
 20
-0.4871525784
 10
-4.9191151038
 20
-0.4906402922
 10
-4.9177887464
 20
-0.494129581
 10
-4.9164976704
 20
-0.4976207475
 10
-4.9152423939
 20
-0.5011132839
 10
-4.9140223361
 20
-0.5046083028
 10
-4.912835799
 20
-0.5081085231
 10
-4.9116821724
 20
-0.511615035
 10
-4.9105619535
 20
-0.5151273148
 10
-4.909475086
 20
-0.5186456458
  0
LWPOLYLINE
  5
29E
100
AcDbEntity
  8
ASSI
100
AcDbPolyline
 62
250
  6
CONTINUOUS
 90
19
 70
0
 10
-5.3202963725
 20
-0.6512551053
 10
-5.2747542448
 20
-0.7810004813
 10
-5.2207341352
 20
-0.9062001661
 10
-5.1582357905
 20
-1.026854186
 10
-5.0868363191
 20
-1.1435813967
 10
-5.0069579946
 20
-1.2557629845
 10
-4.9198683191
 20
-1.3615424578
 10
-4.8255029133
 20
-1.4607449729
 10
-4.7239255201
 20
-1.5535453718
 10
-4.6165959341
 20
-1.6386116701
 10
-4.5034420199
 20
-1.7158418126
 10
-4.3845353861
 20
-1.7853378156
 10
-4.2615516137
 20
-1.8460737869
 10
-4.1343277502
 20
-1.8979430278
 10
-4.0030264283
 20
-1.9410521707
 10
-3.8698118339
 20
-1.9746953123
 10
-3.7354054071
 20
-1.9986371253
 10
-3.5990857068
 20
-2.0131128589
 10
-3.4608527285
 20
-2.0181224727
  0
LWPOLYLINE
  5
29F
100
AcDbEntity
  8
ASSI
100
AcDbPolyline
 62
250
  6
CONTINUOUS
 90
19
 70
0
 10
-4.921780184
 20
-0.5320515467
 10
-4.886124583
 20
-0.634104333
 10
-4.8433346346
 20
-0.7335512627
 10
-4.7935905582
 20
-0.829888511
 10
-4.7370737617
 20
-0.9226772281
 10
-4.6740631272
 20
-1.0113813627
 10
-4.60497078
 20
-1.0953960713
 10
-4.530203451
 20
-1.1742504646
 10
-4.4500883487
 20
-1.2476211721
 10
-4.3649858591
 20
-1.3151785012
 10
-4.275320042
 20
-1.376580736
 10
-4.1815307213
 20
-1.4315218503
 10
-4.084022405
 20
-1.4797508593
 10
-3.9831953538
 20
-1.5210396324
 10
-3.8796192894
 20
-1.5551256761
 10
-3.7739853992
 20
-1.581781916
 10
-3.6668869089
 20
-1.6008860779
 10
-3.5588027512
 20
-1.6123801682
 10
-3.4502727834
 20
-1.6162272272
  0
LWPOLYLINE
  5
2A0
100
AcDbEntity
  8
ASSI
100
AcDbPolyline
 62
250
  6
CONTINUOUS
 90
9
 70
0
 10
-11.2877778915
 20
21.4504125268
 10
-11.2862662933
 20
21.4449669159
 10
-11.284788268
 20
21.4350177844
 10
-11.2833438156
 20
21.4205651324
 10
-11.2819227879
 20
21.4014493276
 10
-11.2805353331
 20
21.3778300023
 10
-11.2792118958
 20
21.3501860529
 10
-11.2779545989
 20
21.3184352792
 10
-11.2767613194
 20
21.2826598815
  0
LWPOLYLINE
  5
2A1
100
AcDbEntity
  8
CURVE
100
AcDbPolyline
 62
250
  6
CONTINUOUS
 90
55
 70
0
 10
-3.9290972876
 20
8.4453144578
 10
-3.9289763597
 20
8.4378138893
 10
-3.9286159905
 20
8.4303821042
 10
-3.9280198021
 20
8.4230002102
 10
-3.9271914164
 20
8.4156493151
 10
-3.9261344556
 20
8.4083105266
 10
-3.9248515276
 20
8.4009687541
 10
-3.9233411849
 20
8.393624112
 10
-3.921600966
 20
8.3862805163
 10
-3.9196284094
 20
8.3789418831
 10
-3.9174210535
 20
8.3716121283
 10
-3.9149768336
 20
8.3642965305
 10
-3.9122952714
 20
8.3570058183
 10
-3.9093762855
 20
8.3497520831
 10
-3.9062197941
 20
8.342547416
 10
-3.902825716
 20
8.3354039084
 10
-3.8998174227
 20
8.3295084592
 10
-3.8966539589
 20
8.3236830654
 10
-3.8933452017
 20
8.3179469138
 10
-3.8898977981
 20
8.3123141655
 10
-3.8863054761
 20
8.3067788788
 10
-3.8825587335
 20
8.3013300861
 10
-3.8786502717
 20
8.2959604146
 10
-3.8745816059
 20
8.2906768693
 10
-3.8703564543
 20
8.2854900501
 10
-3.8659785354
 20
8.2804105567
 10
-3.8614515676
 20
8.2754489887
 10
-3.8567792694
 20
8.270615946
 10
-3.8519663815
 20
8.2659208734
 10
-3.8470217343
 20
8.2613685965
 10
-3.8419551806
 20
8.256962786
 10
-3.8367765729
 20
8.2527071128
 10
-3.8314957642
 20
8.2486052475
 10
-3.8261226071
 20
8.2446608609
 10
-3.820663431
 20
8.2408754894
 10
-3.8151104718
 20
8.2372421325
 10
-3.8094524424
 20
8.2337516553
 10
-3.8036834691
 20
8.2303983445
 10
-3.7978193346
 20
8.2271901735
 10
-3.7918812351
 20
8.2241385371
 10
-3.7846838807
 20
8.2206959731
 10
-3.7774240919
 20
8.2174952964
 10
-3.7701154211
 20
8.2145365757
 10
-3.7627714205
 20
8.2118198796
 10
-3.7554056426
 20
8.2093452766
 10
-3.7480299054
 20
8.207112318
 10
-3.7406490903
 20
8.2051184857
 10
-3.7332663444
 20
8.2033607441
 10
-3.7258848148
 20
8.2018360578
 10
-3.7185076488
 20
8.2005413912
 10
-3.7111342894
 20
8.1994748246
 10
-3.703749364
 20
8.198638902
 10
-3.6963337961
 20
8.1980372833
 10
-3.6888685091
 20
8.1976736282
 10
-3.6813344264
 20
8.1975515965
  0
LINE
  5
2A2
100
AcDbEntity
  8
ASSI
100
AcDbLine
 62
250
  6
CONTINUOUS
 10
-3.4504273561
 20
-1.6000178381
 11
-3.4502727836
 21
-1.6162272125
  0
LINE
  5
2A3
100
AcDbEntity
  8
ASSI
100
AcDbLine
 62
250
  6
CONTINUOUS
 10
-3.459442365
 20
1.6682854331
 11
-3.460488597
 21
1.7647476235
  0
LINE
  5
2A4
100
AcDbEntity
  8
ASSI
100
AcDbLine
 62
250
  6
CONTINUOUS
 10
-3.460488597
 20
1.7647476235
 11
-3.4608525812
 21
1.8680867693
  0
LINE
  5
2A5
100
AcDbEntity
  8
CURVE
100
AcDbLine
 62
250
  6
CONTINUOUS
 10
-3.4335715651
 20
-14.0924035029
 11
-3.4335715651
 21
-10.1167651388
  0
LINE
  5
2A6
100
AcDbEntity
  8
CURVE
100
AcDbLine
 62
250
  6
CONTINUOUS
 10
-3.4335715651
 20
8.693077319
 11
-3.4335715651
 21
12.6687156831
  0
LINE
  5
2A7
100
AcDbEntity
  8
ASSI
100
AcDbLine
 62
250
  6
CONTINUOUS
 10
-3.4604886512
 20
-1.914785476
 11
-3.4608527284
 21
-2.0181224727
  0
LINE
  5
2A8
100
AcDbEntity
  8
ASSI
100
AcDbLine
 62
250
  6
CONTINUOUS
 10
-3.4504276679
 20
1.4499821619
 11
-3.4502705862
 21
1.4661915366
  0
LWPOLYLINE
  5
2A9
100
AcDbEntity
  8
ASSI
100
AcDbPolyline
 62
250
  6
CONTINUOUS
 90
10
 70
0
 10
-3.4504276679
 20
-1.616227189
 10
-3.4517850219
 20
-1.6200862862
 10
-3.4531192675
 20
-1.6306892295
 10
-3.45440769
 20
-1.6478555089
 10
-3.4556283546
 20
-1.6712928769
 10
-3.45676048
 20
-1.7006023238
 10
-3.4577847924
 20
-1.7352848705
 10
-3.4586838534
 20
-1.7747500637
 10
-3.4594423568
 20
-1.8183260277
 10
-3.4604886512
 20
-1.914785476
  0
LINE
  5
2AA
100
AcDbEntity
  8
ASSI
100
AcDbLine
 62
250
  6
CONTINUOUS
 10
10.2370938941
 20
21.9497272961
 11
10.3043315432
 21
22.0842948676
  0
LINE
  5
2AB
100
AcDbEntity
  8
ASSI
100
AcDbLine
 62
250
  6
CONTINUOUS
 10
-11.2877778924
 20
-21.6004482049
 11
-11.3558133007
 21
-21.7366123895
  0
LINE
  5
2AC
100
AcDbEntity
  8
ASSI
100
AcDbLine
 62
250
  6
CONTINUOUS
 10
4.391821518
 20
0.3870624351
 11
4.4264590736
 21
0.3967571807
  0
LINE
  5
2AD
100
AcDbEntity
  8
ASSI
100
AcDbLine
 62
250
  6
CONTINUOUS
 10
-4.9426768538
 20
-0.5370981113
 11
-4.9773144094
 21
-0.546792857
  0
LWPOLYLINE
  5
2AE
100
AcDbEntity
  8
ASSI
100
AcDbPolyline
 62
7
  6
CONTINUOUS
 90
13
 70
0
 10
4.7001583954
 20
-0.23710717
 10
4.6638933839
 20
-0.2424625466
 10
4.6284254119
 20
-0.2511081441
 10
4.5940283125
 20
-0.2629203538
 10
4.5609972625
 20
-0.2777291168
 10
4.529548357
 20
-0.2953932325
 10
4.4998308154
 20
-0.3158291172
 10
4.4720866006
 20
-0.3388720027
 10
4.4465359554
 20
-0.3643266392
 10
4.4233087505
 20
-0.3920816775
 10
4.4025988584
 20
-0.4219671289
 10
4.3846402236
 20
-0.4537352706
 10
4.3696214575
 20
-0.4871525637
  0
LWPOLYLINE
  5
2AF
100
AcDbEntity
  8
ASSI
100
AcDbPolyline
 62
7
  6
CONTINUOUS
 90
10
 70
0
 10
4.7001583954
 20
-0.2371073938
 10
4.7047635978
 20
-0.2366657916
 10
4.7093594865
 20
-0.2362768437
 10
4.7139460614
 20
-0.2359405501
 10
4.7185219811
 20
-0.2356573068
 10
4.723088587
 20
-0.2354267179
 10
4.7276499035
 20
-0.2352475953
 10
4.7322072719
 20
-0.2351195432
 10
4.7367593508
 20
-0.2350429574
 10
4.7413061402
 20
-0.2350178381
  0
LWPOLYLINE
  5
2B0
100
AcDbEntity
  8
ASSI
100
AcDbPolyline
 62
250
  6
CONTINUOUS
 90
13
 70
0
 10
10.3079226268
 20
0.0967889756
 10
10.3601055085
 20
0.1002215463
 10
10.4113962179
 20
0.1104367967
 10
10.4609174438
 20
0.1272601458
 10
10.5078220782
 20
0.150403959
 10
10.5513078088
 20
0.1794725103
 10
10.5906308186
 20
0.2139687865
 10
10.6251184106
 20
0.2533029347
 10
10.6541804462
 20
0.296802195
 10
10.6773195814
 20
0.3437224429
 10
10.6941398676
 20
0.3932610679
 10
10.7043534747
 20
0.4445707356
 10
10.7077855566
 20
0.4967737449
  0
LWPOLYLINE
  5
2B1
100
AcDbEntity
  8
ASSI
100
AcDbPolyline
 62
250
  6
CONTINUOUS
 90
19
 70
0
 10
2.9099973927
 20
-2.0181224727
 10
3.0481157956
 20
-2.0131289273
 10
3.1843452245
 20
-1.998672582
 10
3.3186856826
 20
-1.9747534774
 10
3.4518623597
 20
-1.9411391308
 10
3.5831500643
 20
-1.8980621027
 10
3.71037336
 20
-1.8462199956
 10
3.8333720887
 20
-1.7855002562
 10
3.9523067266
 20
-1.7160155041
 10
4.0654830176
 20
-1.6388010935
 10
4.1728181364
 20
-1.5537634035
 10
4.2743954363
 20
-1.4609960938
 10
4.3687700993
 20
-1.3618154242
 10
4.4558848171
 20
-1.2560463661
 10
4.5357975333
 20
-1.1438639498
 10
4.6072364175
 20
-1.0271095031
 10
4.6697777536
 20
-0.9063967849
 10
4.7238458755
 20
-0.7811119944
 10
4.7694410367
 20
-0.6512551053
  0
LWPOLYLINE
  5
2B2
100
AcDbEntity
  8
ASSI
100
AcDbPolyline
 62
250
  6
CONTINUOUS
 90
19
 70
0
 10
2.8994152501
 20
-1.6162272277
 10
3.0078582121
 20
-1.6123864812
 10
3.1158730218
 20
-1.6009086108
 10
3.2229204988
 20
-1.5818269689
 10
3.3285239102
 20
-1.555195341
 10
3.4320875919
 20
-1.5211326987
 10
3.5329137434
 20
-1.4798651862
 10
3.6304351669
 20
-1.4316513853
 10
3.7242470566
 20
-1.3767187409
 10
3.813929541
 20
-1.31532678
 10
3.8990345467
 20
-1.2477904328
 10
3.9791489911
 20
-1.1744461317
 10
4.0539255246
 20
-1.0956110309
 10
4.1230373029
 20
-1.0116042219
 10
4.1860733851
 20
-0.922897443
 10
4.2426235458
 20
-0.8300872759
 10
4.2924063221
 20
-0.7337056715
 10
4.3352348634
 20
-0.6341926659
 10
4.3709248482
 20
-0.5320515467
  0
LWPOLYLINE
  5
2B3
100
AcDbEntity
  8
ASSI
100
AcDbPolyline
 62
250
  6
CONTINUOUS
 90
5
 70
0
 10
10.299472611
 20
-0.2471532146
 10
10.3029585834
 20
-0.247074243
 10
10.3055083535
 20
-0.2469935293
 10
10.3071630341
 20
-0.2469103325
 10
10.3079226251
 20
-0.2468246524
  0
LWPOLYLINE
  5
2B4
100
AcDbEntity
  8
ASSI
100
AcDbPolyline
 62
250
  6
CONTINUOUS
 90
4
 70
0
 10
-4.9217801844
 20
-0.5320515454
 10
-4.9246093704
 20
-0.5321037584
 10
-4.9316101366
 20
-0.5338725509
 10
-4.9426768538
 20
-0.5370981113
  0
LWPOLYLINE
  5
2B5
100
AcDbEntity
  8
ASSI
100
AcDbPolyline
 62
250
  6
CONTINUOUS
 90
3
 70
0
 10
10.695830497
 20
-0.6470696063
 10
10.7041522762
 20
-0.6469409159
 10
10.7077855551
 20
-0.6468094217
  0
LWPOLYLINE
  5
2B6
100
AcDbEntity
  8
ASSI
100
AcDbPolyline
 62
250
  6
CONTINUOUS
 90
3
 70
0
 10
10.2839926296
 20
-0.247368399
 10
10.2899387359
 20
-0.2473014851
 10
10.299472611
 20
-0.2471532146
  0
LINE
  5
2B7
100
AcDbEntity
  8
ASSI
100
AcDbLine
 62
250
  6
CONTINUOUS
 10
10.6437624857
 20
-0.6474347817
 11
10.695830497
 21
-0.6470696063
  0
LINE
  5
2B8
100
AcDbEntity
  8
ASSI
100
AcDbLine
 62
250
  6
CONTINUOUS
 10
4.7694410367
 20
-0.6512551053
 11
10.6437624857
 21
-0.6474347817
  0
LINE
  5
2B9
100
AcDbEntity
  8
ASSI
100
AcDbLine
 62
7
  6
CONTINUOUS
 10
2.8995723321
 20
-1.6000178381
 11
-3.4504273561
 21
-1.6000178381
  0
LWPOLYLINE
  5
2BA
100
AcDbEntity
  8
0
100
AcDbPolyline
 62
7
  6
CONTINUOUS
 90
2
 70
0
 43
0.3500000019
 10
18.1033300781
 20
-1.0035892868
 10
16.6033339844
 20
-1.0035892868
  0
LINE
  5
2BB
100
AcDbEntity
  8
ASSI
100
AcDbLine
 62
250
  6
CONTINUOUS
 10
-3.4608527285
 20
-2.0181224727
 11
2.9099973927
 21
-2.0181224727
  0
LINE
  5
2BC
100
AcDbEntity
  8
ASSI
100
AcDbLine
 62
250
  6
CONTINUOUS
 10
-3.4502727836
 20
-1.6162272125
 11
2.8994152503
 21
-1.6162272128
  0
LINE
  5
2BD
100
AcDbEntity
  8
ASSI
100
AcDbLine
 62
250
  6
CONTINUOUS
 10
-11.1946178232
 20
-0.647434786
 11
-5.3202963725
 21
-0.6512551053
  0
LWPOLYLINE
  5
2BE
100
AcDbEntity
  8
ASSI
100
AcDbPolyline
 62
250
  6
CONTINUOUS
 90
4
 70
0
 10
-11.2586408926
 20
-0.6468094211
 10
-11.2550076137
 20
-0.6469409164
 10
-11.2466858345
 20
-0.6470696078
 10
-11.1946178232
 20
-0.647434786
  0
LWPOLYLINE
  5
2BF
100
AcDbEntity
  8
ASSI
100
AcDbPolyline
 62
250
  6
CONTINUOUS
 90
7
 70
0
 10
-10.8587779626
 20
-0.2468246519
 10
-10.8580183716
 20
-0.2469103319
 10
-10.856363691
 20
-0.2469935288
 10
-10.8538139209
 20
-0.2470742424
 10
-10.8503279486
 20
-0.2471532141
 10
-10.8459468866
 20
-0.2472297025
 10
-10.8348479673
 20
-0.2473683984
  0
LINE
  5
2C0
100
AcDbEntity
  8
ASSI
100
AcDbLine
 62
250
  6
CONTINUOUS
 10
-4.909475086
 20
0.3686099696
 11
-4.921780184
 21
0.3820158704
  0
LINE
  5
2C1
100
AcDbEntity
  8
ASSI
100
AcDbLine
 62
250
  6
CONTINUOUS
 10
-5.292161476
 20
0.0849821619
 11
-5.3037613645
 21
0.100682664
  0
LWPOLYLINE
  5
2C2
100
AcDbEntity
  8
ASSI
100
AcDbPolyline
 62
250
  6
CONTINUOUS
 90
9
 70
0
 10
-3.4504276653
 20
1.4661789219
 10
-3.4517850336
 20
1.4700382299
 10
-3.4531192923
 20
1.4806416547
 10
-3.4544077252
 20
1.4978086692
 10
-3.4556283965
 20
1.5212469992
 10
-3.4567605238
 20
1.550557599
 10
-3.4577848317
 20
1.5852414455
 10
-3.4586838809
 20
1.6247080343
 10
-3.459442365
 20
1.6682854331
  0
LINE
  5
2C3
100
AcDbEntity
  8
ASSI
100
AcDbLine
 62
250
  6
CONTINUOUS
 10
10.7369225566
 20
21.4504125287
 11
10.8049579649
 21
21.5865767133
  0
LINE
  5
2C4
100
AcDbEntity
  8
ASSI
100
AcDbLine
 62
250
  6
CONTINUOUS
 10
-10.7879492299
 20
-22.0997629723
 11
-10.855186879
 21
-22.2343305439
  0
LINE
  5
2C5
100
AcDbEntity
  8
ASSI
100
AcDbLine
 62
7
  6
CONTINUOUS
 10
9.6245723321
 20
-0.207964548
 11
9.5704616308
 21
-0.2350178381
  0
LINE
  5
2C6
100
AcDbEntity
  8
ASSI
100
AcDbLine
 62
250
  6
CONTINUOUS
 10
10.3079226251
 20
-0.2468246524
 11
10.42452662
 21
-0.207964548
  0
LINE
  5
2C7
100
AcDbEntity
  8
ASSI
100
AcDbLine
 62
250
  6
CONTINUOUS
 10
10.707785555
 20
-0.6468094217
 11
10.8245723321
 21
-0.6078884022
  0
LWPOLYLINE
  5
2C8
100
AcDbEntity
  8
ASSI
100
AcDbPolyline
 62
7
  6
CONTINUOUS
 90
13
 70
0
 10
-5.2510137312
 20
0.0870714938
 10
-5.2147487197
 20
0.0924268704
 10
-5.1792807477
 20
0.1010724678
 10
-5.1448836483
 20
0.1128846775
 10
-5.1118525983
 20
0.1276934405
 10
-5.0804036928
 20
0.1453575562
 10
-5.0506861512
 20
0.1657934409
 10
-5.0229419365
 20
0.1888363264
 10
-4.9973912912
 20
0.2142909629
 10
-4.9741640863
 20
0.2420460012
 10
-4.9534541942
 20
0.2719314527
 10
-4.9354955595
 20
0.3036995944
 10
-4.9204767933
 20
0.3371168875
  0
LWPOLYLINE
  5
2C9
100
AcDbEntity
  8
ASSI
100
AcDbPolyline
 62
7
  6
CONTINUOUS
 90
10
 70
0
 10
-5.2510137312
 20
0.0870717176
 10
-5.2556189336
 20
0.0866301154
 10
-5.2602148223
 20
0.0862411675
 10
-5.2648013972
 20
0.0859048739
 10
-5.2693773169
 20
0.0856216306
 10
-5.2739439228
 20
0.0853910416
 10
-5.2785052393
 20
0.085211919
 10
-5.2830626077
 20
0.0850838669
 10
-5.2876146866
 20
0.0850072812
 10
-5.2921614761
 20
0.0849821619
  0
LWPOLYLINE
  5
2CA
100
AcDbEntity
  8
ASSI
100
AcDbPolyline
 62
250
  6
CONTINUOUS
 90
13
 70
0
 10
-10.8587779626
 20
-0.2468246519
 10
-10.9109608443
 20
-0.2502572225
 10
-10.9622515537
 20
-0.260472473
 10
-11.0117727796
 20
-0.2772958221
 10
-11.058677414
 20
-0.3004396353
 10
-11.1021631446
 20
-0.3295081865
 10
-11.1414861544
 20
-0.3640044628
 10
-11.1759737464
 20
-0.403338611
 10
-11.205035782
 20
-0.4468378712
 10
-11.2281749172
 20
-0.4937581192
 10
-11.2449952034
 20
-0.5432967442
 10
-11.2552088105
 20
-0.5946064118
 10
-11.2586408924
 20
-0.6468094212
  0
LWPOLYLINE
  5
2CB
100
AcDbEntity
  8
ASSI
100
AcDbPolyline
 62
250
  6
CONTINUOUS
 90
19
 70
0
 10
-3.4502705859
 20
1.4661915514
 10
-3.5587135479
 20
1.462350805
 10
-3.6667283576
 20
1.4508729346
 10
-3.7737758346
 20
1.4317912926
 10
-3.879379246
 20
1.4051596647
 10
-3.9829429277
 20
1.3710970225
 10
-4.0837690792
 20
1.3298295099
 10
-4.1812905027
 20
1.2816157091
 10
-4.2751023925
 20
1.2266830647
 10
-4.3647848768
 20
1.1652911037
 10
-4.4498898825
 20
1.0977547566
 10
-4.5300043269
 20
1.0244104555
 10
-4.6047808604
 20
0.9455753547
 10
-4.6738926387
 20
0.8615685456
 10
-4.7369287209
 20
0.7728617668
 10
-4.7934788817
 20
0.6800515996
 10
-4.8432616579
 20
0.5836699952
 10
-4.8860901992
 20
0.4841569896
 10
-4.921780184
 20
0.3820158704
  0
LWPOLYLINE
  5
2CC
100
AcDbEntity
  8
ASSI
100
AcDbPolyline
 62
250
  6
CONTINUOUS
 90
5
 70
0
 10
-10.8503279468
 20
0.0971175384
 10
-10.8538139192
 20
0.0970385668
 10
-10.8563636893
 20
0.0969578531
 10
-10.8580183699
 20
0.0968746562
 10
-10.8587779609
 20
0.0967889762
  0
LWPOLYLINE
  5
2CD
100
AcDbEntity
  8
ASSI
100
AcDbPolyline
 62
250
  6
CONTINUOUS
 90
4
 70
0
 10
4.3709248486
 20
0.3820158692
 10
4.3737540346
 20
0.3820680822
 10
4.3807548008
 20
0.3838368747
 10
4.391821518
 20
0.3870624351
  0
LWPOLYLINE
  5
2CE
100
AcDbEntity
  8
ASSI
100
AcDbPolyline
 62
250
  6
CONTINUOUS
 90
3
 70
0
 10
-11.2466858328
 20
0.4970339301
 10
-11.255007612
 20
0.4969052397
 10
-11.2586408909
 20
0.4967737454
  0
LINE
  5
2CF
100
AcDbEntity
  8
ASSI
100
AcDbLine
 62
250
  6
CONTINUOUS
 10
-10.8407940717
 20
0.0972658089
 11
-10.8503279468
 21
0.0971175384
  0
LINE
  5
2D0
100
AcDbEntity
  8
ASSI
100
AcDbLine
 62
250
  6
CONTINUOUS
 10
-10.8208284633
 20
0.0974506931
 11
-10.8407940717
 21
0.0972658089
  0
LINE
  5
2D1
100
AcDbEntity
  8
ASSI
100
AcDbLine
 62
250
  6
CONTINUOUS
 10
-11.1946178215
 20
0.4973991054
 11
-11.2466858328
 21
0.4970339301
  0
LINE
  5
2D2
100
AcDbEntity
  8
ASSI
100
AcDbLine
 62
250
  6
CONTINUOUS
 10
10.2535739201
 20
-0.2475782107
 11
10.2839926296
 21
-0.247368399
  0
LINE
  5
2D3
100
AcDbEntity
  8
ASSI
100
AcDbLine
 62
250
  6
CONTINUOUS
 10
-10.7771506945
 20
0.0976238912
 11
-10.8208284633
 21
0.0974506931
  0
LINE
  5
2D4
100
AcDbEntity
  8
ASSI
100
AcDbLine
 62
250
  6
CONTINUOUS
 10
4.7529060287
 20
-0.2507183403
 11
10.2535739201
 21
-0.2475782107
  0
LINE
  5
2D5
100
AcDbEntity
  8
ASSI
100
AcDbLine
 62
250
  6
CONTINUOUS
 10
-5.3037613645
 20
0.100682664
 11
-10.7771506945
 21
0.0976238912
  0
LINE
  5
2D6
100
AcDbEntity
  8
ASSI
100
AcDbLine
 62
250
  6
CONTINUOUS
 10
-5.3202963725
 20
0.501219429
 11
-11.1946178215
 21
0.4973991054
  0
LINE
  5
2D7
100
AcDbEntity
  8
ASSI
100
AcDbLine
 62
7
  6
CONTINUOUS
 10
9.5704616308
 20
-0.2350178381
 11
4.7413061402
 21
-0.2350178381
  0
LINE
  5
2D8
100
AcDbEntity
  8
ASSI
100
AcDbLine
 62
7
  6
CONTINUOUS
 10
-5.292161476
 20
-0.2350178381
 11
-10.1213169666
 21
-0.2350178381
  0
LINE
  5
2D9
100
AcDbEntity
  8
ASSI
100
AcDbLine
 62
7
  6
CONTINUOUS
 10
-10.9753819559
 20
-0.207964548
 11
-10.1754276679
 21
-0.207964548
  0
LINE
  5
2DA
100
AcDbEntity
  8
ASSI
100
AcDbLine
 62
7
  6
CONTINUOUS
 10
9.6245723321
 20
-0.207964548
 11
10.42452662
 21
-0.207964548
  0
LINE
  5
2DB
100
AcDbEntity
  8
ASSI
100
AcDbLine
 62
7
  6
CONTINUOUS
 10
10.42452662
 20
0.0579288717
 11
9.6245723321
 21
0.0579288717
  0
LINE
  5
2DC
100
AcDbEntity
  8
ASSI
100
AcDbLine
 62
7
  6
CONTINUOUS
 10
-10.1754276679
 20
0.0579288717
 11
-10.9753819559
 21
0.0579288717
  0
LINE
  5
2DD
100
AcDbEntity
  8
ASSI
100
AcDbLine
 62
7
  6
CONTINUOUS
 10
-10.1213169666
 20
0.0849821619
 11
-5.292161476
 21
0.0849821619
  0
LINE
  5
2DE
100
AcDbEntity
  8
ASSI
100
AcDbLine
 62
7
  6
CONTINUOUS
 10
4.7413061402
 20
0.0849821619
 11
9.5704616308
 21
0.0849821619
  0
LINE
  5
2DF
100
AcDbEntity
  8
ASSI
100
AcDbLine
 62
7
  6
CONTINUOUS
 10
-3.4504276679
 20
1.4499821619
 11
2.8995720203
 21
1.4499821619
  0
LINE
  5
2E0
100
AcDbEntity
  8
ASSI
100
AcDbLine
 62
250
  6
CONTINUOUS
 10
2.8994174478
 20
1.4661915362
 11
-3.4502705862
 21
1.4661915366
  0
LINE
  5
2E1
100
AcDbEntity
  8
ASSI
100
AcDbLine
 62
250
  6
CONTINUOUS
 10
10.2535739218
 20
0.0975425338
 11
4.7529060287
 21
0.100682664
  0
LINE
  5
2E2
100
AcDbEntity
  8
ASSI
100
AcDbLine
 62
250
  6
CONTINUOUS
 10
10.6437624874
 20
0.4973991097
 11
4.7694410367
 21
0.501219429
  0
LINE
  5
2E3
100
AcDbEntity
  8
ASSI
100
AcDbLine
 62
250
  6
CONTINUOUS
 10
-10.812920755
 20
-0.2475355116
 11
-5.3037613645
 21
-0.2507183403
  0
LWPOLYLINE
  5
2E4
100
AcDbEntity
  8
ASSI
100
AcDbPolyline
 62
7
  6
CONTINUOUS
 90
10
 70
0
 10
-5.2921614761
 20
-0.2350178381
 10
-5.2876146785
 20
-0.2350429575
 10
-5.2830625914
 20
-0.2351195435
 10
-5.2785052148
 20
-0.2352475961
 10
-5.2739438916
 20
-0.235426724
 10
-5.2693772789
 20
-0.2356573184
 10
-5.264801348
 20
-0.2359405535
 10
-5.2602147558
 20
-0.2362768205
 10
-5.2556188452
 20
-0.2366657282
 10
-5.2510136164
 20
-0.2371072766
  0
LWPOLYLINE
  5
2E5
100
AcDbEntity
  8
ASSI
100
AcDbPolyline
 62
7
  6
CONTINUOUS
 90
10
 70
0
 10
4.7413061403
 20
0.0849821619
 10
4.7367593427
 20
0.0850072813
 10
4.7322072556
 20
0.0850838673
 10
4.7276498789
 20
0.0852119199
 10
4.7230885558
 20
0.0853910477
 10
4.7185219431
 20
0.0856216421
 10
4.7139460122
 20
0.0859048772
 10
4.7093594199
 20
0.0862411443
 10
4.7047635094
 20
0.086630052
 10
4.7001582806
 20
0.0870716004
  0
LINE
  5
2E6
100
AcDbEntity
  8
ASSI
100
AcDbLine
 62
250
  6
CONTINUOUS
 10
-10.8348479673
 20
-0.2473683984
 11
-10.812920755
 21
-0.2475355116
  0
LINE
  5
2E7
100
AcDbEntity
  8
ASSI
100
AcDbLine
 62
250
  6
CONTINUOUS
 10
10.2839926315
 20
0.0973327221
 11
10.2535739218
 21
0.0975425338
  0
LWPOLYLINE
  5
2E8
100
AcDbEntity
  8
ASSI
100
AcDbPolyline
 62
250
  6
CONTINUOUS
 90
5
 70
0
 10
4.3709248486
 20
-0.5320515454
 10
4.3737544966
 20
-0.532103645
 10
4.3807562627
 20
-0.5338727534
 10
4.3918244127
 20
-0.5370988936
 10
4.4264659361
 20
-0.5467947612
  0
LWPOLYLINE
  5
2E9
100
AcDbEntity
  8
ASSI
100
AcDbPolyline
 62
250
  6
CONTINUOUS
 90
5
 70
0
 10
-4.9217801844
 20
0.3820158692
 10
-4.9246098324
 20
0.3820679688
 10
-4.9316115985
 20
0.3838370772
 10
-4.9426797485
 20
0.3870632174
 10
-4.9773212719
 20
0.3967590849
  0
LWPOLYLINE
  5
2EA
100
AcDbEntity
  8
ASSI
100
AcDbPolyline
 62
250
  6
CONTINUOUS
 90
4
 70
0
 10
10.7077855568
 20
0.4967737448
 10
10.7041522779
 20
0.4969052402
 10
10.6958304987
 20
0.4970339315
 10
10.6437624874
 20
0.4973991097
  0
LWPOLYLINE
  5
2EB
100
AcDbEntity
  8
ASSI
100
AcDbPolyline
 62
250
  6
CONTINUOUS
 90
13
 70
0
 10
-5.3037613595
 20
-0.2507183403
 10
-5.2615230158
 20
-0.252957066
 10
-5.21975677
 20
-0.2596435174
 10
-5.178929677
 20
-0.2707029946
 10
-5.1394982834
 20
-0.2860119029
 10
-5.1019035796
 20
-0.3053991112
 10
-5.066566058
 20
-0.3286478447
 10
-5.0338808385
 20
-0.3554982344
 10
-5.0042135639
 20
-0.3856499995
 10
-4.9778962651
 20
-0.418765673
 10
-4.9552232533
 20
-0.4544747692
 10
-4.9364479287
 20
-0.4923780226
 10
-4.9217801844
 20
-0.5320515454
  0
LWPOLYLINE
  5
2EC
100
AcDbEntity
  8
ASSI
100
AcDbPolyline
 62
250
  6
CONTINUOUS
 90
13
 70
0
 10
4.7529060237
 20
0.100682664
 10
4.71066768
 20
0.1029213897
 10
4.6689014341
 20
0.1096078411
 10
4.6280743412
 20
0.1206673184
 10
4.5886429476
 20
0.1359762267
 10
4.5510482438
 20
0.1553634349
 10
4.5157107222
 20
0.1786121685
 10
4.4830255027
 20
0.2054625582
 10
4.4533582281
 20
0.2356143233
 10
4.4270409293
 20
0.2687299967
 10
4.4043679175
 20
0.3044390929
 10
4.3855925929
 20
0.3423423463
 10
4.3709248486
 20
0.3820158692
  0
LWPOLYLINE
  5
2ED
100
AcDbEntity
  8
ASSI
100
AcDbPolyline
 62
250
  6
CONTINUOUS
 90
13
 70
0
 10
-10.8587779609
 20
0.0967889762
 10
-10.9109630012
 20
0.100221832
 10
-10.9622554002
 20
0.1104378305
 10
-11.0117777857
 20
0.1272622239
 10
-11.058683062
 20
0.1504072257
 10
-11.1021688999
 20
0.1794769335
 10
-11.1414914609
 20
0.213974101
 10
-11.1759781204
 20
0.2533086437
 10
-11.2050389734
 20
0.2968077319
 10
-11.2281769251
 20
0.3437273005
 10
-11.2449961938
 20
0.3932647758
 10
-11.2552090806
 20
0.444572804
 10
-11.2586408909
 20
0.4967737454
  0
LWPOLYLINE
  5
2EE
100
AcDbEntity
  8
ASSI
100
AcDbPolyline
 62
250
  6
CONTINUOUS
 90
13
 70
0
 10
10.3079226251
 20
-0.2468246524
 10
10.3601076654
 20
-0.2502575083
 10
10.4114000644
 20
-0.2604735068
 10
10.4609224499
 20
-0.2772979002
 10
10.5078277262
 20
-0.3004429019
 10
10.5513135641
 20
-0.3295126097
 10
10.5906361251
 20
-0.3640097773
 10
10.6251227846
 20
-0.4033443199
 10
10.6541836376
 20
-0.4468434082
 10
10.6773215893
 20
-0.4937629768
 10
10.694140858
 20
-0.5433004521
 10
10.7043537448
 20
-0.5946084802
 10
10.7077855551
 20
-0.6468094217
  0
LINE
  5
2EF
100
AcDbEntity
  8
ASSI
100
AcDbLine
 62
250
  6
CONTINUOUS
 10
-5.0267133714
 20
0.4115857356
 11
-5.0563957903
 21
0.4202426038
  0
LINE
  5
2F0
100
AcDbEntity
  8
ASSI
100
AcDbLine
 62
250
  6
CONTINUOUS
 10
-4.9773212719
 20
0.3967590849
 11
-5.0267133714
 21
0.4115857356
  0
LWPOLYLINE
  5
2F1
100
AcDbEntity
  8
ASSI
100
AcDbPolyline
 62
250
  6
CONTINUOUS
 90
7
 70
0
 10
-5.0563957903
 20
0.4202426038
 10
-5.1237165482
 20
0.4408517471
 10
-5.1606734042
 20
0.4518880815
 10
-5.1992642411
 20
0.4638124872
 10
-5.2390272037
 20
0.4765014171
 10
-5.2795286813
 20
0.4891314561
 10
-5.3202963725
 20
0.501219429
  0
LWPOLYLINE
  5
2F2
100
AcDbEntity
  8
ASSI
100
AcDbPolyline
 62
250
  6
CONTINUOUS
 90
10
 70
0
 10
2.8995723321
 20
1.4661915127
 10
2.9009296861
 20
1.4700506099
 10
2.9022639317
 20
1.4806535532
 10
2.9035523542
 20
1.4978198326
 10
2.9047730188
 20
1.5212572006
 10
2.9059051442
 20
1.5505666475
 10
2.9069294566
 20
1.5852491943
 10
2.9078285175
 20
1.6247143874
 10
2.908587021
 20
1.6682903514
 10
2.9096333154
 20
1.7647497997
  0
LINE
  5
2F3
100
AcDbEntity
  8
ASSI
100
AcDbLine
 62
250
  6
CONTINUOUS
 10
4.7529060287
 20
0.100682664
 11
4.7413061402
 21
0.0849821619
  0
LINE
  5
2F4
100
AcDbEntity
  8
ASSI
100
AcDbLine
 62
250
  6
CONTINUOUS
 10
4.3709248482
 20
0.3820158704
 11
4.3586197502
 21
0.3686099696
  0
LWPOLYLINE
  5
2F5
100
AcDbEntity
  8
CURVE
100
AcDbPolyline
 62
250
  6
CONTINUOUS
 90
40
 70
0
 10
-3.8410493287
 20
-9.8118393585
 10
-3.8450099133
 20
-9.8152562794
 10
-3.848871929
 20
-9.8187566852
 10
-3.8526419384
 20
-9.822343037
 10
-3.856326504
 20
-9.8260177958
 10
-3.8599321885
 20
-9.8297834228
 10
-3.8634643647
 20
-9.8336418062
 10
-3.866923646
 20
-9.8375925429
 10
-3.870309456
 20
-9.8416346571
 10
-3.8736212182
 20
-9.8457671728
 10
-3.8768583564
 20
-9.8499891142
 10
-3.8800198622
 20
-9.8542988554
 10
-3.8831030003
 20
-9.8586921713
 10
-3.8861046038
 20
-9.8631641869
 10
-3.8890215056
 20
-9.8677100272
 10
-3.8918505384
 20
-9.8723248173
 10
-3.8945887642
 20
-9.877003734
 10
-3.8972341601
 20
-9.8817421626
 10
-3.899784932
 20
-9.88653554
 10
-3.902239286
 20
-9.8913793034
 10
-3.9045954281
 20
-9.8962688898
 10
-3.9070961977
 20
-9.9017506912
 10
-3.9094722591
 20
-9.9072815777
 10
-3.911722368
 20
-9.912859696
 10
-3.9138452804
 20
-9.9184831928
 10
-3.9158397522
 20
-9.9241502147
 10
-3.9177045391
 20
-9.9298589086
 10
-3.9194383971
 20
-9.935607421
 10
-3.921040082
 20
-9.9413938986
 10
-3.9225083497
 20
-9.9472164882
 10
-3.9237142742
 20
-9.9524864686
 10
-3.9248077176
 20
-9.9577846824
 10
-3.9257852743
 20
-9.9631116132
 10
-3.926643539
 20
-9.9684677451
 10
-3.9273791061
 20
-9.9738535618
 10
-3.9279885702
 20
-9.9792695471
 10
-3.9284685259
 20
-9.984716185
 10
-3.9288155677
 20
-9.9901939591
 10
-3.9290262901
 20
-9.9957033533
 10
-3.9290972876
 20
-10.0012448516
  0
LINE
  5
2F6
100
AcDbEntity
  8
CURVE
100
AcDbLine
 62
250
  6
CONTINUOUS
 10
-0.4361869776
 20
-6.9475505229
 11
-3.8410493287
 21
-9.8118393585
  0
LWPOLYLINE
  5
2F7
100
AcDbEntity
  8
ASSI
100
AcDbPolyline
 62
250
  6
CONTINUOUS
 90
19
 70
0
 10
-3.4608527285
 20
1.8680867964
 10
-3.5989711314
 20
1.8630932511
 10
-3.7352005603
 20
1.8486369058
 10
-3.8695410184
 20
1.8247178011
 10
-4.0027176955
 20
1.7911034546
 10
-4.1340054002
 20
1.7480264264
 10
-4.2612286958
 20
1.6961843194
 10
-4.3842274245
 20
1.6354645799
 10
-4.5031620624
 20
1.5659798279
 10
-4.6163383534
 20
1.4887654172
 10
-4.7236734722
 20
1.4037277272
 10
-4.8252507721
 20
1.3109604176
 10
-4.9196254351
 20
1.2117797479
 10
-5.0067401529
 20
1.1060106898
 10
-5.0866528691
 20
0.9938282736
 10
-5.1580917533
 20
0.8770738268
 10
-5.2206330894
 20
0.7563611087
 10
-5.2747012113
 20
0.6310763182
 10
-5.3202963725
 20
0.501219429
  0
LINE
  5
2F8
100
AcDbEntity
  8
ASSI
100
AcDbLine
 62
250
  6
CONTINUOUS
 10
2.9099973927
 20
1.8680867964
 11
-3.4608527285
 21
1.8680867964
  0
LWPOLYLINE
  5
2F9
100
AcDbEntity
  8
ASSI
100
AcDbPolyline
 62
250
  6
CONTINUOUS
 90
7
 70
0
 10
10.3079226268
 20
0.0967889756
 10
10.3071630358
 20
0.0968746556
 10
10.3055083552
 20
0.0969578525
 10
10.3029585851
 20
0.0970385662
 10
10.2994726127
 20
0.0971175378
 10
10.2950915508
 20
0.0971940263
 10
10.2839926315
 20
0.0973327221
  0
LINE
  5
2FA
100
AcDbEntity
  8
ASSI
100
AcDbLine
 62
250
  6
CONTINUOUS
 10
4.4758580355
 20
-0.5616214119
 11
4.5055404544
 21
-0.5702782801
  0
LINE
  5
2FB
100
AcDbEntity
  8
ASSI
100
AcDbLine
 62
250
  6
CONTINUOUS
 10
4.4264659361
 20
-0.5467947612
 11
4.4758580355
 21
-0.5616214119
  0
LWPOLYLINE
  5
2FC
100
AcDbEntity
  8
ASSI
100
AcDbPolyline
 62
250
  6
CONTINUOUS
 90
7
 70
0
 10
4.5055404544
 20
-0.5702782801
 10
4.5728612124
 20
-0.5908874234
 10
4.6098180684
 20
-0.6019237577
 10
4.6484089053
 20
-0.6138481634
 10
4.6881718679
 20
-0.6265370933
 10
4.7286733455
 20
-0.6391671324
 10
4.7694410367
 20
-0.6512551053
  0
LINE
  5
2FD
100
AcDbEntity
  8
ASSI
100
AcDbLine
 62
250
  6
CONTINUOUS
 10
10.3043315432
 20
-22.2343305439
 11
10.2370938946
 21
-22.0997629732
  0
LINE
  5
2FE
100
AcDbEntity
  8
ASSI
100
AcDbLine
 62
250
  6
CONTINUOUS
 10
-11.3558133007
 20
21.5865767133
 11
-11.2877778915
 21
21.4504125268
  0
LINE
  5
2FF
100
AcDbEntity
  8
ASSI
100
AcDbLine
 62
250
  6
CONTINUOUS
 10
10.8049579649
 20
-21.7366123895
 11
10.7369225557
 21
-21.600448203
  0
LINE
  5
300
100
AcDbEntity
  8
ASSI
100
AcDbLine
 62
250
  6
CONTINUOUS
 10
-10.855186879
 20
22.0842948676
 11
-10.7879492304
 21
21.949727297
  0
LINE
  5
301
100
AcDbEntity
  8
ASSI
100
AcDbLine
 62
250
  6
CONTINUOUS
 10
2.8995720203
 20
1.4499821619
 11
2.8994174478
 21
1.4661915362
  0
LINE
  5
302
100
AcDbEntity
  8
ASSI
100
AcDbLine
 62
250
  6
CONTINUOUS
 10
2.9085870291
 20
-1.8183211094
 11
2.9096332612
 21
-1.9147832997
  0
LINE
  5
303
100
AcDbEntity
  8
ASSI
100
AcDbLine
 62
250
  6
CONTINUOUS
 10
2.9096332612
 20
-1.9147832997
 11
2.9099972454
 21
-2.0181224455
  0
LINE
  5
304
100
AcDbEntity
  8
ASSI
100
AcDbLine
 62
250
  6
CONTINUOUS
 10
2.9096333154
 20
1.7647497997
 11
2.9099973925
 21
1.8680867964
  0
LINE
  5
305
100
AcDbEntity
  8
ASSI
100
AcDbLine
 62
250
  6
CONTINUOUS
 10
2.8995723321
 20
-1.6000178381
 11
2.8994152503
 21
-1.6162272128
  0
LWPOLYLINE
  5
306
100
AcDbEntity
  8
ASSI
100
AcDbPolyline
 62
7
  6
CONTINUOUS
 90
10
 70
0
 10
4.3586197502
 20
-0.5186456458
 10
4.359706618
 20
-0.5151273139
 10
4.3608268372
 20
-0.5116150332
 10
4.3619804641
 20
-0.5081085204
 10
4.3631670026
 20
-0.5046083
 10
4.3643870617
 20
-0.5011132808
 10
4.3656423366
 20
-0.4976207421
 10
4.3669334068
 20
-0.4941295705
 10
4.3682597554
 20
-0.4906402746
 10
4.3696214139
 20
-0.4871525515
  0
LWPOLYLINE
  5
307
100
AcDbEntity
  8
ASSI
100
AcDbPolyline
 62
250
  6
CONTINUOUS
 90
13
 70
0
 10
4.3709248486
 20
-0.5320515454
 10
4.3855925929
 20
-0.4923780226
 10
4.4043679175
 20
-0.4544747692
 10
4.4270409293
 20
-0.418765673
 10
4.4533582281
 20
-0.3856499995
 10
4.4830255027
 20
-0.3554982344
 10
4.5157107222
 20
-0.3286478447
 10
4.5510482438
 20
-0.3053991112
 10
4.5886429476
 20
-0.2860119029
 10
4.6280743412
 20
-0.2707029946
 10
4.6689014342
 20
-0.2596435174
 10
4.71066768
 20
-0.252957066
 10
4.7529060237
 20
-0.2507183403
  0
LWPOLYLINE
  5
308
100
AcDbEntity
  8
ASSI
100
AcDbPolyline
 62
250
  6
CONTINUOUS
 90
13
 70
0
 10
4.7529060237
 20
0.100682664
 10
4.7545257659
 20
0.1046727247
 10
4.7567633085
 20
0.115301963
 10
4.7592061206
 20
0.1321811903
 10
4.7610921748
 20
0.1552939299
 10
4.7625995397
 20
0.1845722822
 10
4.7645556886
 20
0.2192642569
 10
4.7661624271
 20
0.258477046
 10
4.7669761245
 20
0.3018629761
 10
4.7681478538
 20
0.3487899473
 10
4.7696623225
 20
0.3983558448
 10
4.7702984495
 20
0.4495157091
 10
4.7694410367
 20
0.501219429
  0
LWPOLYLINE
  5
309
100
AcDbEntity
  8
ASSI
100
AcDbPolyline
 62
250
  6
CONTINUOUS
 90
13
 70
0
 10
10.2165728422
 20
0.0976355648
 10
10.221049961
 20
0.1014765985
 10
10.2254512062
 20
0.1120310792
 10
10.2297019897
 20
0.1291201403
 10
10.2337302735
 20
0.1524541734
 10
10.2374677904
 20
0.1816377367
 10
10.2408512006
 20
0.2161762565
 10
10.2438231655
 20
0.2554844085
 10
10.2463333193
 20
0.2988960375
 10
10.2483391223
 20
0.3456754468
 10
10.2498065822
 20
0.3950298658
 10
10.2507108301
 20
0.4461228852
 10
10.2510365415
 20
0.4980886318
  0
LINE
  5
30A
100
AcDbEntity
  8
CURVE
100
AcDbLine
 62
250
  6
CONTINUOUS
 10
-3.4335715651
 20
-10.1167651388
 11
-0.2764720753
 21
-7.4606517101
  0
LWPOLYLINE
  5
30B
100
AcDbEntity
  8
0
100
AcDbPolyline
 62
7
  6
CONTINUOUS
 90
10
 70
0
 43
0.3500000019
 10
17.6033295898
 20
0.9964107361
 10
17.7461899414
 20
1.0678393173
 10
17.8176201172
 20
1.0678393173
 10
17.9604750977
 20
0.9249821548
 10
17.9604750977
 20
0.8535535736
 10
17.8890449219
 20
0.7821249924
 10
17.8176201172
 20
0.7821249924
 10
17.6747597656
 20
0.8535535736
 10
17.6033295898
 20
0.9249821548
 10
17.6033295898
 20
0.9964107361
  0
LINE
  5
30C
100
AcDbEntity
  8
ASSI
100
AcDbLine
 62
250
  6
CONTINUOUS
 10
10.42452662
 20
0.0579288717
 11
10.3079226268
 21
0.0967889756
  0
LINE
  5
30D
100
AcDbEntity
  8
ASSI
100
AcDbLine
 62
250
  6
CONTINUOUS
 10
10.8245723321
 20
0.457852726
 11
10.7077855567
 21
0.4967737449
  0
LINE
  5
30E
100
AcDbEntity
  8
ASSI
100
AcDbLine
 62
250
  6
CONTINUOUS
 10
4.3586197502
 20
-0.5186456458
 11
4.3709248482
 21
-0.5320515467
  0
LWPOLYLINE
  5
30F
100
AcDbEntity
  8
ASSI
100
AcDbPolyline
 62
250
  6
CONTINUOUS
 90
9
 70
0
 10
2.8995723295
 20
-1.6162145981
 10
2.9009296978
 20
-1.6200739061
 10
2.9022639565
 20
-1.6306773309
 10
2.9035523894
 20
-1.6478443455
 10
2.9047730607
 20
-1.6712826755
 10
2.905905188
 20
-1.7005932753
 10
2.9069294959
 20
-1.7352771218
 10
2.9078285451
 20
-1.7747437106
 10
2.9085870291
 20
-1.8183211094
  0
LINE
  5
310
100
AcDbEntity
  8
ASSI
100
AcDbLine
 62
7
  6
CONTINUOUS
 10
9.5704616308
 20
0.0849821619
 11
9.6245723321
 21
0.0579288717
  0
LINE
  5
311
100
AcDbEntity
  8
ASSI
100
AcDbLine
 62
250
  6
CONTINUOUS
 10
4.7413061402
 20
-0.2350178381
 11
4.7529060287
 21
-0.2507183403
  0
LWPOLYLINE
  5
312
100
AcDbEntity
  8
ASSI
100
AcDbPolyline
 62
7
  6
CONTINUOUS
 90
13
 70
0
 10
4.3696214497
 20
0.3371169053
 10
4.3846402017
 20
0.3036996352
 10
4.4025988208
 20
0.2719315111
 10
4.4233086959
 20
0.2420460724
 10
4.4465358818
 20
0.2142910433
 10
4.4720865069
 20
0.188836412
 10
4.4998307032
 20
0.1657935267
 10
4.5295482297
 20
0.1453576365
 10
4.5609971236
 20
0.1276935113
 10
4.5940281671
 20
0.112884737
 10
4.6284252668
 20
0.101072515
 10
4.6638932481
 20
0.0924269027
 10
4.7001582806
 20
0.0870715082
  0
LWPOLYLINE
  5
313
100
AcDbEntity
  8
ASSI
100
AcDbPolyline
 62
250
  6
CONTINUOUS
 90
13
 70
0
 10
4.7529060237
 20
-0.2507183403
 10
4.754525937
 20
-0.2547079686
 10
4.7567633167
 20
-0.2653361401
 10
4.7592058233
 20
-0.2822139035
 10
4.761091775
 20
-0.3053249777
 10
4.7625992388
 20
-0.3346016641
 10
4.7645553658
 20
-0.3692922926
 10
4.7661620367
 20
-0.4085044658
 10
4.7669758534
 20
-0.4518906436
 10
4.7681477269
 20
-0.4988185981
 10
4.7696622787
 20
-0.5483861455
 10
4.7702984703
 20
-0.5995483854
 10
4.7694410367
 20
-0.6512551053
  0
LWPOLYLINE
  5
314
100
AcDbEntity
  8
ASSI
100
AcDbPolyline
 62
7
  6
CONTINUOUS
 90
10
 70
0
 10
4.3696214384
 20
0.3371169021
 10
4.368259768
 20
0.340604616
 10
4.3669334105
 20
0.3440939047
 10
4.3656423346
 20
0.3475850712
 10
4.364387058
 20
0.3510776076
 10
4.3631670003
 20
0.3545726266
 10
4.3619804632
 20
0.3580728469
 10
4.3608268366
 20
0.3615793588
 10
4.3597066177
 20
0.3650916385
 10
4.3586197502
 20
0.3686099696
  0
LWPOLYLINE
  5
315
100
AcDbEntity
  8
ASSI
100
AcDbPolyline
 62
250
  6
CONTINUOUS
 90
19
 70
0
 10
4.7694410367
 20
0.501219429
 10
4.723898909
 20
0.630964805
 10
4.6698787994
 20
0.7561644898
 10
4.6073804547
 20
0.8768185097
 10
4.5359809833
 20
0.9935457204
 10
4.4561026588
 20
1.1057273083
 10
4.3690129833
 20
1.2115067815
 10
4.2746475775
 20
1.3107092967
 10
4.1730701842
 20
1.4035096955
 10
4.0657405983
 20
1.4885759938
 10
3.9525866841
 20
1.5658061363
 10
3.8336800503
 20
1.6353021393
 10
3.7106962779
 20
1.6960381107
 10
3.5834724144
 20
1.7479073515
 10
3.4521710925
 20
1.7910164945
 10
3.3189564981
 20
1.8246596361
 10
3.1845500713
 20
1.848601449
 10
3.048230371
 20
1.8630771827
 10
2.9099973927
 20
1.8680867964
  0
LWPOLYLINE
  5
316
100
AcDbEntity
  8
ASSI
100
AcDbPolyline
 62
250
  6
CONTINUOUS
 90
19
 70
0
 10
4.3709248482
 20
0.3820158704
 10
4.3352692472
 20
0.4840686567
 10
4.2924792988
 20
0.5835155864
 10
4.2427352224
 20
0.6798528347
 10
4.1862184259
 20
0.7726415519
 10
4.1232077914
 20
0.8613456865
 10
4.0541154442
 20
0.945360395
 10
3.9793481152
 20
1.0242147883
 10
3.8992330129
 20
1.0975854958
 10
3.8141305233
 20
1.1651428249
 10
3.7244647062
 20
1.2265450597
 10
3.6306753855
 20
1.281486174
 10
3.5331670692
 20
1.3297151831
 10
3.432340018
 20
1.3710039562
 10
3.3287639536
 20
1.4050899999
 10
3.2231300634
 20
1.4317462397
 10
3.1160315731
 20
1.4508504017
 10
3.0079474153
 20
1.462344492
 10
2.8994174476
 20
1.466191551
  0
LWPOLYLINE
  5
317
100
AcDbEntity
  8
ASSI
100
AcDbPolyline
 62
250
  6
CONTINUOUS
 90
9
 70
0
 10
10.7369225557
 20
-21.600448203
 10
10.7354109575
 20
-21.5950025921
 10
10.7339329322
 20
-21.5850534607
 10
10.7324884798
 20
-21.5706008087
 10
10.7310674521
 20
-21.5514850039
 10
10.7296799973
 20
-21.5278656786
 10
10.72835656
 20
-21.5002217292
 10
10.7270992631
 20
-21.4684709555
 10
10.7259059836
 20
-21.4326955577
  0
LWPOLYLINE
  5
318
100
AcDbEntity
  8
CURVE
100
AcDbPolyline
 62
250
  6
CONTINUOUS
 90
75
 70
0
 10
1.5698048936
 20
-12.9762761781
 10
1.5643142264
 20
-12.9819569973
 10
1.5590718883
 20
-12.9877655946
 10
1.5540584023
 20
-12.9937151521
 10
1.5492542911
 20
-12.9998188516
 10
1.5446400778
 20
-13.0060898753
 10
1.5402006692
 20
-13.0125380967
 10
1.5359385077
 20
-13.0191601565
 10
1.5318604198
 20
-13.0259493871
 10
1.5279732318
 20
-13.0328991208
 10
1.5242837701
 20
-13.0400026898
 10
1.5213647795
 20
-13.0460361508
 10
1.5185893597
 20
-13.0521746563
 10
1.515959031
 20
-13.0584210512
 10
1.5134763004
 20
-13.0647748097
 10
1.511147622
 20
-13.0712219239
 10
1.5089804366
 20
-13.0777450156
 10
1.5066023465
 20
-13.0856545578
 10
1.5044736876
 20
-13.0936545168
 10
1.5026006262
 20
-13.1017509266
 10
1.5009893289
 20
-13.1099498211
 10
1.4996459621
 20
-13.1182572345
 10
1.4985773821
 20
-13.1266744049
 10
1.4977932056
 20
-13.1351833879
 10
1.4973037393
 20
-13.1437614433
 10
1.4971192898
 20
-13.1523858308
 10
1.4972501637
 20
-13.1610338102
 10
1.4977038891
 20
-13.1696837816
 10
1.498476879
 20
-13.1783187063
 10
1.4995627678
 20
-13.1869226859
 10
1.50095519
 20
-13.1954798222
 10
1.50264778
 20
-13.2039742167
 10
1.5046346597
 20
-13.2123916581
 10
1.506911901
 20
-13.2207246831
 10
1.5094760632
 20
-13.2289675157
 10
1.5123237056
 20
-13.2371143796
 10
1.5154513877
 20
-13.2451594986
 10
1.5188561851
 20
-13.2530970117
 10
1.5225372392
 20
-13.2609207192
 10
1.5264942074
 20
-13.2686243363
 10
1.5307267477
 20
-13.2762015785
 10
1.5352345175
 20
-13.283646161
 10
1.5400167123
 20
-13.2909504896
 10
1.5450706793
 20
-13.2981017313
 10
1.5503933034
 20
-13.3050857432
 10
1.5559814693
 20
-13.3118883827
 10
1.5618320621
 20
-13.3184955069
 10
1.5669013404
 20
-13.3238393348
 10
1.5721222948
 20
-13.3290140598
 10
1.5774665236
 20
-13.3339961749
 10
1.5829093114
 20
-13.3387674345
 10
1.5884406876
 20
-13.3433306398
 10
1.5940543676
 20
-13.3476938537
 10
1.5997464147
 20
-13.3518654216
 10
1.6055222837
 20
-13.3558548193
 10
1.6113897772
 20
-13.3596718055
 10
1.6173533691
 20
-13.3633236906
 10
1.6234042179
 20
-13.3668079928
 10
1.6295301532
 20
-13.3701197824
 10
1.6357191539
 20
-13.3732547072
 10
1.6419597957
 20
-13.3762107257
 10
1.6482408036
 20
-13.3789863739
 10
1.6545526613
 20
-13.3815807349
 10
1.660892888
 20
-13.3839950791
 10
1.6672607619
 20
-13.3862312237
 10
1.6749363074
 20
-13.3886814899
 10
1.6826410926
 20
-13.3908782503
 10
1.6903655849
 20
-13.3928219899
 10
1.6981002515
 20
-13.3945131933
 10
1.7058355598
 20
-13.3959523456
 10
1.7135674884
 20
-13.3971391111
 10
1.7213140614
 20
-13.3980698738
 10
1.7290988138
 20
-13.3987401971
 10
1.7369452809
 20
-13.3991456444
 10
1.744876998
 20
-13.3992817794
  0
LWPOLYLINE
  5
319
100
AcDbEntity
  8
CURVE
100
AcDbPolyline
 62
250
  6
CONTINUOUS
 90
53
 70
0
 10
3.3061925494
 20
-11.9394943978
 10
3.3114017585
 20
-11.9341151293
 10
3.3163941483
 20
-11.9286159183
 10
3.3211856132
 20
-11.9229859057
 10
3.3257920474
 20
-11.9172142326
 10
3.3302293453
 20
-11.9112900398
 10
3.3345099933
 20
-11.9052044498
 10
3.3386328467
 20
-11.8989565105
 10
3.3425933528
 20
-11.8925472512
 10
3.346386959
 20
-11.885977701
 10
3.3500091126
 20
-11.8792488892
 10
3.3534545819
 20
-11.8723630821
 10
3.3567154184
 20
-11.8653274933
 10
3.3597829946
 20
-11.8581505735
 10
3.3626486829
 20
-11.8508407733
 10
3.3653038558
 20
-11.8434065433
 10
3.3673491962
 20
-11.8371249725
 10
3.3692357476
 20
-11.8307831979
 10
3.3709569035
 20
-11.824401557
 10
3.3725073229
 20
-11.8179946517
 10
3.3738867269
 20
-11.8115541424
 10
3.3750961018
 20
-11.805065954
 10
3.3763226144
 20
-11.7972042704
 10
3.3772972833
 20
-11.7892707175
 10
3.3780116861
 20
-11.7812823516
 10
3.3784574006
 20
-11.7732562293
 10
3.3786260044
 20
-11.765209407
 10
3.3785116827
 20
-11.7571587298
 10
3.37811905
 20
-11.749120197
 10
3.3774553284
 20
-11.7411095968
 10
3.3765277402
 20
-11.7331427173
 10
3.3753435074
 20
-11.7252353465
 10
3.3741648429
 20
-11.7186988619
 10
3.3728113508
 20
-11.7122006594
 10
3.3712814135
 20
-11.7057267319
 10
3.3695748519
 20
-11.6992693346
 10
3.3676972407
 20
-11.6928457733
 10
3.365655593
 20
-11.6864796164
 10
3.3629985688
 20
-11.6789440534
 10
3.3601251904
 20
-11.6715350218
 10
3.3570452172
 20
-11.6642624522
 10
3.3537684088
 20
-11.6571362752
 10
3.3503045247
 20
-11.6501664217
 10
3.3466624206
 20
-11.6433611471
 10
3.3428473385
 20
-11.6367220068
 10
3.3388636162
 20
-11.6302488809
 10
3.3347155921
 20
-11.6239416496
 10
3.3304076042
 20
-11.617800193
 10
3.3259405707
 20
-11.6118225901
 10
3.3213017301
 20
-11.6059997152
 10
3.3164749006
 20
-11.6003206413
 10
3.3114439009
 20
-11.5947744415
 10
3.3061925494
 20
-11.5893501889
  0
LINE
  5
31A
100
AcDbEntity
  8
CURVE
100
AcDbLine
 62
250
  6
CONTINUOUS
 10
2.5332133748
 20
-12.0123557902
 11
1.5698048936
 21
-12.9762761781
  0
LINE
  5
31B
100
AcDbEntity
  8
CURVE
100
AcDbLine
 62
250
  6
CONTINUOUS
 10
1.9199491025
 20
-13.326420387
 11
3.3061925494
 21
-11.9394943978
  0
LWPOLYLINE
  5
31C
100
AcDbEntity
  8
CURVE
100
AcDbPolyline
 62
250
  6
CONTINUOUS
 90
87
 70
0
 10
2.1376801018
 20
8.1975515965
 10
2.1459055097
 20
8.1977022519
 10
2.1540304474
 20
8.1981492084
 10
2.1620798279
 20
8.1988849517
 10
2.1700785641
 20
8.1999019673
 10
2.178051569
 20
8.201192741
 10
2.1880093277
 20
8.2031825524
 10
2.1979528696
 20
8.205590612
 10
2.2078692569
 20
8.2084191622
 10
2.2177455514
 20
8.2116704454
 10
2.2275655799
 20
8.2153447449
 10
2.2373002266
 20
8.2194345069
 10
2.2469171406
 20
8.223930218
 10
2.2563839709
 20
8.2288223652
 10
2.2638289878
 20
8.2330163195
 10
2.2711488001
 20
8.2374602061
 10
2.2783349614
 20
8.2421563268
 10
2.2853790253
 20
8.2471069833
 10
2.2922725454
 20
8.2523144772
 10
2.2990056116
 20
8.2577794888
 10
2.305562458
 20
8.2634962133
 10
2.3119258553
 20
8.2694572241
 10
2.3180785739
 20
8.2756550948
 10
2.3240033842
 20
8.2820823991
 10
2.3296852835
 20
8.2887314272
 10
2.3351181761
 20
8.2955933366
 10
2.3402981931
 20
8.3026590013
 10
2.3452214658
 20
8.3099192955
 10
2.3498841252
 20
8.3173650933
 10
2.3542821186
 20
8.3249870497
 10
2.3584106583
 20
8.3327749437
 10
2.3622647726
 20
8.3407183353
 10
2.3658394899
 20
8.3488067843
 10
2.3691298388
 20
8.3570298507
 10
2.3721308902
 20
8.3653761431
 10
2.3748378867
 20
8.3738304646
 10
2.3772461132
 20
8.3823766671
 10
2.3793508549
 20
8.3909986024
 10
2.381147397
 20
8.3996801223
 10
2.3827771942
 20
8.4093785215
 10
2.3840192661
 20
8.4191205347
 10
2.3848722017
 20
8.4288961506
 10
2.3853345899
 20
8.4386953579
 10
2.3854050198
 20
8.4485081453
 10
2.3850820803
 20
8.4583245015
 10
2.3843643603
 20
8.4681344152
 10
2.383250449
 20
8.4779278751
 10
2.3817389351
 20
8.4876948699
 10
2.3798298229
 20
8.4974234184
 10
2.3775287766
 20
8.507093659
 10
2.3748428756
 20
8.5166837604
 10
2.3717791993
 20
8.526171891
 10
2.3683448272
 20
8.5355362196
 10
2.3645468385
 20
8.5447549147
 10
2.3603923128
 20
8.5538061448
 10
2.3558883294
 20
8.5626680785
 10
2.3510419677
 20
8.5713188843
 10
2.346392961
 20
8.578907724
 10
2.3414751299
 20
8.5863019856
 10
2.3362912421
 20
8.5934957881
 10
2.3308440654
 20
8.6004832505
 10
2.3251363674
 20
8.6072584917
 10
2.3191737766
 20
8.6138147048
 10
2.3129733646
 20
8.6201413787
 10
2.3065550637
 20
8.6262270768
 10
2.2999388061
 20
8.6320603621
 10
2.2931445241
 20
8.6376297979
 10
2.2873574643
 20
8.6420644176
 10
2.2814508683
 20
8.6463206049
 10
2.275414986
 20
8.6504110982
 10
2.2692458085
 20
8.6543441637
 10
2.2629622923
 20
8.6581101766
 10
2.2565891349
 20
8.6616950396
 10
2.2488535169
 20
8.6657418947
 10
2.2410413955
 20
8.6695071521
 10
2.2331697864
 20
8.6729903702
 10
2.225255705
 20
8.6761911073
 10
2.2173161667
 20
8.6791089217
 10
2.2073781133
 20
8.6823588899
 10
2.1974375803
 20
8.6851726362
 10
2.1875052776
 20
8.6875566958
 10
2.1775919152
 20
8.6895176036
 10
2.1696767638
 20
8.6907845872
 10
2.1617542976
 20
8.6917794933
 10
2.1537982258
 20
8.6924968791
 10
2.1457822575
 20
8.6929313019
 10
2.1376801018
 20
8.693077319
  0
LWPOLYLINE
  5
31D
100
AcDbEntity
  8
CURVE
100
AcDbPolyline
 62
250
  6
CONTINUOUS
 90
71
 70
0
 10
1.4554790554
 20
9.3861990425
 10
1.4638927926
 20
9.3863399439
 10
1.4721877694
 20
9.3867593734
 10
1.480388552
 20
9.3874524193
 10
1.4885197062
 20
9.3884141697
 10
1.496605798
 20
9.389639713
 10
1.5046663716
 20
9.3911258078
 10
1.5127008836
 20
9.3928758956
 10
1.5207037687
 20
9.3948950884
 10
1.5286694617
 20
9.3971884983
 10
1.5365923974
 20
9.3997612372
 10
1.5444648653
 20
9.402616847
 10
1.552270574
 20
9.4057525885
 10
1.559991087
 20
9.4091641523
 10
1.5676079675
 20
9.4128472292
 10
1.5751027791
 20
9.4167975097
 10
1.5824587321
 20
9.4210106549
 10
1.5896656247
 20
9.4254822077
 10
1.596714902
 20
9.4302076812
 10
1.6035980093
 20
9.4351825887
 10
1.6103063916
 20
9.4404024435
 10
1.6168317069
 20
9.4458623395
 10
1.6231664643
 20
9.4515556939
 10
1.6293033854
 20
9.4574755047
 10
1.635235192
 20
9.4636147698
 10
1.6409546058
 20
9.4699664871
 10
1.6464550748
 20
9.4765237382
 10
1.6517329512
 20
9.4832799401
 10
1.6567853133
 20
9.490228593
 10
1.6616092396
 20
9.4973631976
 10
1.6662018085
 20
9.5046772542
 10
1.6705590822
 20
9.5121629445
 10
1.6746730587
 20
9.5198071741
 10
1.67853472
 20
9.5275955296
 10
1.682135048
 20
9.5355135978
 10
1.6854650246
 20
9.5435469652
 10
1.6885165071
 20
9.5516801323
 10
1.6912848543
 20
9.559893254
 10
1.6937663004
 20
9.5681653986
 10
1.6959570795
 20
9.5764756348
 10
1.6978534259
 20
9.5848030311
 10
1.6994522236
 20
9.5931300837
 10
1.700752956
 20
9.6014529996
 10
1.7017557565
 20
9.6097714135
 10
1.7024607585
 20
9.61808496
 10
1.7028680951
 20
9.626393274
 10
1.7029785317
 20
9.6346949612
 10
1.7027953608
 20
9.6429845125
 10
1.7023225069
 20
9.6512553898
 10
1.7015638945
 20
9.6595010549
 10
1.700523448
 20
9.66771497
 10
1.6992054655
 20
9.6758897513
 10
1.6976157397
 20
9.6840146336
 10
1.6957604369
 20
9.6920780057
 10
1.6936457234
 20
9.7000682568
 10
1.6912777654
 20
9.7079737759
 10
1.688663452
 20
9.7157823454
 10
1.6858125621
 20
9.7234793208
 10
1.6827355973
 20
9.7310494513
 10
1.6794430594
 20
9.7384774856
 10
1.67594545
 20
9.7457481728
 10
1.6722523091
 20
9.752848779
 10
1.6683693305
 20
9.7597766397
 10
1.6643012465
 20
9.7665316074
 10
1.6600527895
 20
9.7731135348
 10
1.6556286915
 20
9.7795222746
 10
1.6510297805
 20
9.7857596125
 10
1.6462412663
 20
9.7918350668
 10
1.6412444545
 20
9.7977600892
 10
1.6360206505
 20
9.803546131
 10
1.6305511599
 20
9.8092046438
  0
LINE
  5
31E
100
AcDbEntity
  8
CURVE
100
AcDbLine
 62
250
  6
CONTINUOUS
 10
-3.6813344264
 20
8.1974379006
 11
2.1376801018
 21
8.1975009825
  0
LINE
  5
31F
100
AcDbEntity
  8
CURVE
100
AcDbLine
 62
250
  6
CONTINUOUS
 10
2.1376801018
 20
8.6930226068
 11
-3.4335715651
 21
8.6929755049
  0
LWPOLYLINE
  5
320
100
AcDbEntity
  8
0
100
AcDbPolyline
 62
7
  6
CONTINUOUS
 90
3
 70
0
 43
0.3500000019
 10
17.8176201172
 20
1.0678393173
 10
18.0319052734
 20
0.9964107361
 10
18.3176152344
 20
0.8535535736
  0
LWPOLYLINE
  5
321
100
AcDbEntity
  8
ASSI
100
AcDbPolyline
 62
250
  6
CONTINUOUS
 90
13
 70
0
 10
10.2165728376
 20
-0.2476712414
 10
10.2210496911
 20
-0.2515128878
 10
10.2254506745
 20
-0.2620678594
 10
10.2297012056
 20
-0.2791572841
 10
10.2337292517
 20
-0.302491552
 10
10.2374665505
 20
-0.3316752241
 10
10.2408497667
 20
-0.3662137328
 10
10.2438215654
 20
-0.4055217637
 10
10.2463315839
 20
-0.4489331748
 10
10.2483372852
 20
-0.4957122851
 10
10.2498046783
 20
-0.5450663422
 10
10.2507088954
 20
-0.5961589567
 10
10.2510346122
 20
-0.6481242766
  0
LWPOLYLINE
  5
322
100
AcDbEntity
  8
CURVE
100
AcDbPolyline
 62
250
  6
CONTINUOUS
 90
92
 70
0
 10
3.131120445
 20
10.7727837606
 10
3.1394764043
 20
10.77293922
 10
3.1477312599
 20
10.7734005393
 10
3.1559114824
 20
10.7741601303
 10
3.1640435425
 20
10.7752104047
 10
3.1721539108
 20
10.7765437742
 10
3.1802640069
 20
10.778154567
 10
3.1883750457
 20
10.7800447777
 10
3.196483191
 20
10.782218317
 10
3.2045846067
 20
10.7846790958
 10
3.2126754564
 20
10.7874310252
 10
3.220748569
 20
10.7904763194
 10
3.2287834326
 20
10.7938104067
 10
3.2367562004
 20
10.7974270187
 10
3.2446430256
 20
10.8013198873
 10
3.2524200613
 20
10.805482744
 10
3.2600651815
 20
10.809909838
 10
3.2675631433
 20
10.8145974884
 10
3.2749004247
 20
10.8195425315
 10
3.2820635037
 20
10.8247418036
 10
3.2890388581
 20
10.8301921414
 10
3.2958132727
 20
10.8358898041
 10
3.3023747585
 20
10.8418287435
 10
3.3087116332
 20
10.8480023342
 10
3.3148122146
 20
10.8544039512
 10
3.3206648205
 20
10.861026969
 10
3.32625893
 20
10.8678633839
 10
3.3315886669
 20
10.8748996782
 10
3.3366493167
 20
10.8821209557
 10
3.3414361647
 20
10.8895123202
 10
3.3459444961
 20
10.8970588756
 10
3.3501703337
 20
10.9047471694
 10
3.354112649
 20
10.9125695244
 10
3.3577711512
 20
10.920519707
 10
3.3611455492
 20
10.928591484
 10
3.3642355521
 20
10.9367786217
 10
3.3670402362
 20
10.9450733846
 10
3.3695561467
 20
10.9534620279
 10
3.3717791963
 20
10.9619293047
 10
3.3737052976
 20
10.9704599681
 10
3.3753303631
 20
10.9790387712
 10
3.3767786805
 20
10.9886110272
 10
3.3778490581
 20
10.9982169981
 10
3.3785402514
 20
11.0078497905
 10
3.3788510159
 20
11.0175025109
 10
3.3787801069
 20
11.0271682659
 10
3.3783262801
 20
11.036840162
 10
3.3774882908
 20
11.0465113058
 10
3.3762648945
 20
11.0561748037
 10
3.3746548468
 20
11.0658237625
 10
3.3728747471
 20
11.0744873886
 10
3.3707828984
 20
11.0831147793
 10
3.3683817474
 20
11.0916870599
 10
3.3656737408
 20
11.1001853554
 10
3.3626613254
 20
11.1085907911
 10
3.3593483891
 20
11.1168842841
 10
3.3557445846
 20
11.1250459206
 10
3.3518610059
 20
11.1330555787
 10
3.3477087468
 20
11.1408931365
 10
3.3432989013
 20
11.1485384723
 10
3.3394324581
 20
11.1547526859
 10
3.3353844108
 20
11.1608345154
 10
3.3311443303
 20
11.1667990379
 10
3.3267052705
 20
11.1726555674
 10
3.3220742163
 20
11.1783903666
 10
3.3172616352
 20
11.183983935
 10
3.3122788681
 20
11.1894181864
 10
3.3071407502
 20
11.1946806905
 10
3.3018629897
 20
11.1997604308
 10
3.2964591937
 20
11.2046494198
 10
3.2909345633
 20
11.2093517847
 10
3.2852921979
 20
11.2138746813
 10
3.2795338355
 20
11.2182249511
 10
3.2736557676
 20
11.2224081774
 10
3.2676529242
 20
11.2264296292
 10
3.2615248118
 20
11.2302918071
 10
3.2552892448
 20
11.2339861392
 10
3.2489686139
 20
11.2375012851
 10
3.2412993579
 20
11.2414701232
 10
3.2335560969
 20
11.2451639411
 10
3.2257550746
 20
11.2485820764
 10
3.2179125349
 20
11.2517238666
 10
3.2100447214
 20
11.2545886493
 10
3.2001956787
 20
11.2577803056
 10
3.1903433664
 20
11.2605441811
 10
3.1804986244
 20
11.2628863541
 10
3.1706722923
 20
11.2648129032
 10
3.1628265867
 20
11.2660575782
 10
3.1549740751
 20
11.2670348589
 10
3.1470892315
 20
11.26773946
 10
3.1391465301
 20
11.2681660965
 10
3.131120445
 20
11.2683094831
  0
LINE
  5
323
100
AcDbEntity
  8
CURVE
100
AcDbLine
 62
250
  6
CONTINUOUS
 10
0.6671426787
 20
10.7728346376
 11
3.131120445
 21
10.7726986333
  0
LWPOLYLINE
  5
324
100
AcDbEntity
  8
CURVE
100
AcDbPolyline
 62
250
  6
CONTINUOUS
 90
36
 70
0
 10
1.280406951
 20
9.4590604349
 10
1.2843713535
 20
9.4551804263
 10
1.2884194758
 20
9.4514116754
 10
1.2925503334
 20
9.447751507
 10
1.2967629419
 20
9.4441972457
 10
1.3010563168
 20
9.4407462163
 10
1.3054294738
 20
9.4373957436
 10
1.3098814284
 20
9.4341431522
 10
1.3144107296
 20
9.4309864241
 10
1.3190140596
 20
9.4279261709
 10
1.3236876342
 20
9.4249636611
 10
1.328427669
 20
9.4221001635
 10
1.3332303797
 20
9.4193369467
 10
1.3380919819
 20
9.4166752795
 10
1.3430086913
 20
9.4141164306
 10
1.3479770724
 20
9.4116615783
 10
1.3529950858
 20
9.4093115404
 10
1.3580610408
 20
9.4070670441
 10
1.3631732467
 20
9.4049288167
 10
1.3683300128
 20
9.4028975857
 10
1.3735296486
 20
9.4009740783
 10
1.3787704634
 20
9.3991590218
 10
1.3840506924
 20
9.3974533484
 10
1.3893682736
 20
9.3958588092
 10
1.394721071
 20
9.39437736
 10
1.4001069487
 20
9.3930109566
 10
1.4055237704
 20
9.3917615549
 10
1.4109694002
 20
9.3906311108
 10
1.4164417021
 20
9.38962158
 10
1.4219390175
 20
9.3887351935
 10
1.4274615991
 20
9.3879752818
 10
1.433010177
 20
9.3873454506
 10
1.4385854814
 20
9.3868493055
 10
1.4441882425
 20
9.386490452
 10
1.4498191904
 20
9.3862724958
 10
1.4554790554
 20
9.3861990425
  0
LINE
  5
325
100
AcDbEntity
  8
CURVE
100
AcDbLine
 62
250
  6
CONTINUOUS
 10
-0.105836496
 20
10.845645153
 11
1.280406951
 21
9.4590604349
  0
LINE
  5
326
100
AcDbEntity
  8
CURVE
100
AcDbLine
 62
250
  6
CONTINUOUS
 10
1.6305511599
 20
9.8092046438
 11
0.6671426787
 21
10.7727837606
  0
LWPOLYLINE
  5
327
100
AcDbEntity
  8
ASSI
100
AcDbPolyline
 62
250
  6
CONTINUOUS
 90
6
 70
0
 10
10.2434318016
 20
21.8251761687
 10
10.242228586
 20
21.8654550521
 10
10.2409598136
 20
21.8982490768
 10
10.2396352738
 20
21.9233335229
 10
10.2383317812
 20
21.9405332233
 10
10.2370938941
 20
21.9497272961
  0
LINE
  5
328
100
AcDbEntity
  8
ASSI
100
AcDbLine
 62
250
  6
CONTINUOUS
 10
10.7259059836
 20
-21.4326955577
 11
10.7237855987
 21
-21.3511810157
  0
LINE
  5
329
100
AcDbEntity
  8
ASSI
100
AcDbLine
 62
250
  6
CONTINUOUS
 10
10.2457787561
 20
21.7232908421
 11
10.2434318016
 21
21.8251761687
  0
LINE
  5
32A
100
AcDbEntity
  8
ASSI
100
AcDbLine
 62
250
  6
CONTINUOUS
 10
10.7237855987
 20
-21.3511810157
 11
10.7220378718
 21
-21.2573281959
  0
LINE
  5
32B
100
AcDbEntity
  8
ASSI
100
AcDbLine
 62
250
  6
CONTINUOUS
 10
10.2488453644
 20
21.5226526984
 11
10.2457787561
 21
21.7232908421
  0
LINE
  5
32C
100
AcDbEntity
  8
ASSI
100
AcDbLine
 62
250
  6
CONTINUOUS
 10
10.7220378718
 20
-21.2573281959
 11
10.7207203639
 21
-21.1538203437
  0
LINE
  5
32D
100
AcDbEntity
  8
ASSI
100
AcDbLine
 62
250
  6
CONTINUOUS
 10
10.2518840519
 20
21.1856398607
 11
10.2488453644
 21
21.5226526984
  0
LINE
  5
32E
100
AcDbEntity
  8
ASSI
100
AcDbLine
 62
250
  6
CONTINUOUS
 10
10.7207203639
 20
-21.1538203437
 11
10.7198686833
 21
-21.0446808839
  0
LINE
  5
32F
100
AcDbEntity
  8
ASSI
100
AcDbLine
 62
250
  6
CONTINUOUS
 10
10.2534750367
 20
20.8023867221
 11
10.2518840519
 21
21.1856398607
  0
LINE
  5
330
100
AcDbEntity
  8
ASSI
100
AcDbLine
 62
7
  6
CONTINUOUS
 10
10.8049579649
 20
21.5865767133
 11
10.8245723321
 21
13.0249821619
  0
LINE
  5
331
100
AcDbEntity
  8
ASSI
100
AcDbLine
 62
250
  6
CONTINUOUS
 10
10.7198686833
 20
-21.0446808839
 11
10.7130415323
 21
-14.0551558064
  0
LINE
  5
332
100
AcDbEntity
  8
ASSI
100
AcDbLine
 62
250
  6
CONTINUOUS
 10
10.7130415323
 20
-14.0551558064
 11
10.7085208831
 21
-5.2666307489
  0
LINE
  5
333
100
AcDbEntity
  8
ASSI
100
AcDbLine
 62
250
  6
CONTINUOUS
 10
10.7085208831
 20
-5.2666307489
 11
10.707785555
 21
-0.6468094217
  0
LINE
  5
334
100
AcDbEntity
  8
ASSI
100
AcDbLine
 62
7
  6
CONTINUOUS
 10
10.8245723321
 20
13.0249821619
 11
10.8245723321
 21
0.457852726
  0
LINE
  5
335
100
AcDbEntity
  8
ASSI
100
AcDbLine
 62
7
  6
CONTINUOUS
 10
10.8245723321
 20
-0.6078884022
 11
10.8245723321
 21
-13.1750178381
  0
LINE
  5
336
100
AcDbEntity
  8
ASSI
100
AcDbLine
 62
250
  6
CONTINUOUS
 10
10.2510363777
 20
0.498088632
 11
10.2534750279
 21
20.8023867227
  0
LINE
  5
337
100
AcDbEntity
  8
ASSI
100
AcDbLine
 62
250
  6
CONTINUOUS
 10
10.7077855567
 20
0.4967737449
 11
10.7111650385
 21
11.1736397081
  0
LINE
  5
338
100
AcDbEntity
  8
ASSI
100
AcDbLine
 62
7
  6
CONTINUOUS
 10
10.8049579649
 20
-21.7366123895
 11
10.8245723321
 21
-13.1750178381
  0
LINE
  5
339
100
AcDbEntity
  8
ASSI
100
AcDbLine
 62
250
  6
CONTINUOUS
 10
10.2528906255
 20
-21.1473670566
 11
10.2510363531
 21
-0.648124305
  0
LINE
  5
33A
100
AcDbEntity
  8
ASSI
100
AcDbLine
 62
250
  6
CONTINUOUS
 10
10.7111650385
 20
11.1736397081
 11
10.7198686841
 21
20.8946452099
  0
LINE
  5
33B
100
AcDbEntity
  8
ASSI
100
AcDbLine
 62
250
  6
CONTINUOUS
 10
10.2505261687
 20
-21.5123316409
 11
10.2528906255
 21
-21.1473670566
  0
LINE
  5
33C
100
AcDbEntity
  8
ASSI
100
AcDbLine
 62
250
  6
CONTINUOUS
 10
10.7198686841
 20
20.8946452099
 11
10.7207203649
 21
21.0037846695
  0
LINE
  5
33D
100
AcDbEntity
  8
ASSI
100
AcDbLine
 62
250
  6
CONTINUOUS
 10
10.2478758693
 20
-21.7453773319
 11
10.2505261687
 21
-21.5123316409
  0
LINE
  5
33E
100
AcDbEntity
  8
ASSI
100
AcDbLine
 62
250
  6
CONTINUOUS
 10
10.7207203649
 20
21.0037846695
 11
10.7220378728
 21
21.1072925217
  0
LINE
  5
33F
100
AcDbEntity
  8
ASSI
100
AcDbLine
 62
250
  6
CONTINUOUS
 10
10.2457787474
 20
-21.8733265168
 11
10.2478758693
 21
-21.7453773319
  0
LINE
  5
340
100
AcDbEntity
  8
ASSI
100
AcDbLine
 62
250
  6
CONTINUOUS
 10
10.7220378728
 20
21.1072925217
 11
10.7237855996
 21
21.2011453415
  0
LWPOLYLINE
  5
341
100
AcDbEntity
  8
ASSI
100
AcDbPolyline
 62
250
  6
CONTINUOUS
 90
10
 70
0
 10
10.7237855996
 20
21.2011453415
 10
10.7259059846
 20
21.2826598835
 10
10.727099264
 20
21.3184352812
 10
10.7283565609
 20
21.3501860548
 10
10.7296799983
 20
21.3778300043
 10
10.7310674531
 20
21.4014493298
 10
10.7324884808
 20
21.4205651347
 10
10.7339329331
 20
21.4350177867
 10
10.7354109584
 20
21.444966918
 10
10.7369225566
 20
21.4504125287
  0
LINE
  5
342
100
AcDbEntity
  8
CURVE
100
AcDbLine
 62
250
  6
CONTINUOUS
 10
3.131120445
 20
11.2682230142
 11
0.6671426787
 21
11.268361162
  0
LWPOLYLINE
  5
343
100
AcDbEntity
  8
ASSI
100
AcDbPolyline
 62
250
  6
CONTINUOUS
 90
7
 70
0
 10
10.2370938932
 20
-22.0997629704
 10
10.2383317791
 20
-22.0905688985
 10
10.2396352706
 20
-22.0733691995
 10
10.2409598093
 20
-22.0482847548
 10
10.2422285805
 20
-22.0154907304
 10
10.2434317948
 20
-21.9752118459
 10
10.2457787474
 20
-21.8733265168
  0
LWPOLYLINE
  5
344
100
AcDbEntity
  8
CURVE
100
AcDbPolyline
 62
250
  6
CONTINUOUS
 90
89
 70
0
 10
1.9779651995
 20
13.4280440114
 10
1.9844408298
 20
13.4228286985
 10
1.9910123247
 20
13.4178920677
 10
1.9976974865
 20
13.4132140007
 10
2.0045141178
 20
13.4087743789
 10
2.011480021
 20
13.4045530839
 10
2.0204175386
 20
13.3995618079
 10
2.0296095034
 20
13.3948947581
 10
2.0390493089
 20
13.3905664605
 10
2.0487303484
 20
13.386591441
 10
2.0586439494
 20
13.3829852131
 10
2.0687731747
 20
13.3797672409
 10
2.079099021
 20
13.3769579762
 10
2.0896024851
 20
13.3745778709
 10
2.0966912461
 20
13.3732395536
 10
2.1038278287
 20
13.372106512
 10
2.1109895593
 20
13.3711841949
 10
2.1181605461
 20
13.3704780152
 10
2.1253520258
 20
13.3699932437
 10
2.1325820173
 20
13.3697351157
 10
2.1413247543
 20
13.3697301662
 10
2.1501232788
 20
13.3700577515
 10
2.1589519746
 20
13.3707165013
 10
2.167785225
 20
13.3717050451
 10
2.1765974138
 20
13.3730220127
 10
2.1853653929
 20
13.3746651389
 10
2.1940758882
 20
13.3766285796
 10
2.2027180938
 20
13.378905596
 10
2.2112812039
 20
13.3814894492
 10
2.2197544128
 20
13.3843734005
 10
2.2281269131
 20
13.3875510965
 10
2.2363878906
 20
13.3910177256
 10
2.2445265297
 20
13.3947688619
 10
2.2525320146
 20
13.3988000794
 10
2.2603935296
 20
13.4031069521
 10
2.2680989976
 20
13.4076833697
 10
2.2756312961
 20
13.4125164836
 10
2.2829720409
 20
13.417591761
 10
2.2901028482
 20
13.4228946692
 10
2.2970053338
 20
13.4284106752
 10
2.3036643994
 20
13.4341277561
 10
2.3100780884
 20
13.4400439284
 10
2.3162477301
 20
13.4461597183
 10
2.3221746536
 20
13.4524756522
 10
2.327860188
 20
13.4589922565
 10
2.3333055031
 20
13.465710599
 10
2.3385111308
 20
13.4726339142
 10
2.3434774439
 20
13.4797659782
 10
2.3482048149
 20
13.4871105669
 10
2.3526936166
 20
13.4946714564
 10
2.3569419725
 20
13.5024492028
 10
2.3609390104
 20
13.5104314826
 10
2.3646716092
 20
13.5186027525
 10
2.3681266477
 20
13.5269474691
 10
2.3712910047
 20
13.5354500889
 10
2.3736963906
 20
13.5426404768
 10
2.3758828273
 20
13.5498935185
 10
2.3778423397
 20
13.5571730067
 10
2.3795692887
 20
13.5644512305
 10
2.3810673787
 20
13.571734464
 10
2.3823426502
 20
13.5790374777
 10
2.3835848246
 20
13.5878413164
 10
2.3845100611
 20
13.5966803248
 10
2.385113582
 20
13.6055399196
 10
2.3853906099
 20
13.6144055173
 10
2.3853363671
 20
13.6232625348
 10
2.3849485282
 20
13.632095175
 10
2.3842345767
 20
13.640882786
 10
2.3832044481
 20
13.6496035024
 10
2.3818680779
 20
13.6582354586
 10
2.3802354018
 20
13.6667567891
 10
2.378654912
 20
13.673762412
 10
2.3768768056
 20
13.6806921416
 10
2.3749023347
 20
13.6875620927
 10
2.3715790841
 20
13.697770008
 10
2.3678444611
 20
13.7078130028
 10
2.3637246748
 20
13.7176329058
 10
2.3592402458
 20
13.7272055649
 10
2.3544102725
 20
13.7365153328
 10
2.3492538533
 20
13.7455465623
 10
2.3437890015
 20
13.7542852251
 10
2.3380293901
 20
13.7627237685
 10
2.3319876071
 20
13.7708562588
 10
2.3256762403
 20
13.7786767621
 10
2.3204367721
 20
13.7847069899
 10
2.3150108705
 20
13.7905453697
 10
2.3093765794
 20
13.7962035227
 10
2.3035119426
 20
13.8016930701
 10
2.2973950041
 20
13.8070256332
  0
LWPOLYLINE
  5
345
100
AcDbEntity
  8
CURVE
100
AcDbPolyline
 62
250
  6
CONTINUOUS
 90
49
 70
0
 10
-0.116757173
 20
15.837930299
 10
-0.1223969714
 20
15.8425024539
 10
-0.1281049875
 20
15.8468514045
 10
-0.1338898322
 20
15.8509900924
 10
-0.1397601161
 20
15.854931459
 10
-0.1457244499
 20
15.8586884458
 10
-0.1517914443
 20
15.8622739945
 10
-0.1579681327
 20
15.8656983616
 10
-0.1642552392
 20
15.8689610652
 10
-0.1706519104
 20
15.8720589383
 10
-0.1771572932
 20
15.8749888142
 10
-0.183770534
 20
15.877747526
 10
-0.1904907798
 20
15.880331907
 10
-0.1973154477
 20
15.8827383477
 10
-0.2042350363
 20
15.8849614695
 10
-0.2112383148
 20
15.8869954511
 10
-0.2183140525
 20
15.8888344712
 10
-0.2254510183
 20
15.8904727087
 10
-0.2326379816
 20
15.8919043423
 10
-0.2398643498
 20
15.8931240918
 10
-0.2471220837
 20
15.8941288415
 10
-0.2544037823
 20
15.8949160165
 10
-0.2617020449
 20
15.8954830421
 10
-0.2690094704
 20
15.8958273434
 10
-0.276318658
 20
15.8959463457
 10
-0.283622599
 20
15.8958383871
 10
-0.2909158539
 20
15.8955054581
 10
-0.2981933752
 20
15.8949504619
 10
-0.3054501155
 20
15.8941763018
 10
-0.3126810276
 20
15.8931858812
 10
-0.3198810639
 20
15.8919821033
 10
-0.3270443181
 20
15.8905681959
 10
-0.3341614471
 20
15.8889486841
 10
-0.341222249
 20
15.8871284175
 10
-0.3482165217
 20
15.8851122454
 10
-0.3551340631
 20
15.8829050176
 10
-0.3619646713
 20
15.8805115835
 10
-0.36869952
 20
15.8779364954
 10
-0.3753352871
 20
15.8751831172
 10
-0.3818700261
 20
15.8722545156
 10
-0.3883017906
 20
15.8691537572
 10
-0.3946286342
 20
15.8658839087
 10
-0.4008486105
 20
15.8624480367
 10
-0.4069614942
 20
15.858846487
 10
-0.4129739433
 20
15.8550687208
 10
-0.4188943371
 20
15.8511014785
 10
-0.4247310546
 20
15.8469315006
 10
-0.4304924751
 20
15.8425455273
 10
-0.4361869776
 20
15.837930299
  0
LINE
  5
346
100
AcDbEntity
  8
CURVE
100
AcDbLine
 62
250
  6
CONTINUOUS
 10
2.2973950041
 20
13.8070256332
 11
-0.116757173
 21
15.837930299
  0
LINE
  5
347
100
AcDbEntity
  8
CURVE
100
AcDbLine
 62
250
  6
CONTINUOUS
 10
-0.2764720753
 20
15.3248291118
 11
1.9779651995
 21
13.4280440114
  0
LWPOLYLINE
  5
348
100
AcDbEntity
  8
0
100
AcDbPolyline
 62
7
  6
CONTINUOUS
 90
10
 70
0
 43
0.3500000019
 10
0.6888583984
 20
31.630357666
 10
0.7602885742
 20
31.4875
 10
0.7602885742
 20
31.4160698242
 10
0.6174282227
 20
31.2732148438
 10
0.546003418
 20
31.2732148438
 10
0.4745732422
 20
31.344642334
 10
0.4745732422
 20
31.4160698242
 10
0.546003418
 20
31.5589274902
 10
0.6174282227
 20
31.630357666
 10
0.6888583984
 20
31.630357666
  0
LWPOLYLINE
  5
349
100
AcDbEntity
  8
0
100
AcDbPolyline
 62
7
  6
CONTINUOUS
 90
5
 70
0
 43
0.3500000019
 10
16.3890488281
 20
2.9249821777
 10
16.1747583008
 20
3.282125
 10
15.531902832
 20
3.282125
 10
15.1033325195
 20
2.9249821777
 10
15.1033325195
 20
2.0678393707
  0
LWPOLYLINE
  5
34A
100
AcDbEntity
  8
0
100
AcDbPolyline
 62
7
  6
CONTINUOUS
 90
3
 70
0
 43
0.3500000019
 10
17.4604746094
 20
-0.5035892601
 10
17.4604746094
 20
-2.0035893402
 10
15.1033325195
 20
-1.3607321091
  0
LWPOLYLINE
  5
34B
100
AcDbEntity
  8
0
100
AcDbPolyline
 62
7
  6
CONTINUOUS
 90
3
 70
0
 43
0.3500000019
 10
17.4604746094
 20
-2.8607321472
 10
17.4604746094
 20
-4.3607322693
 10
15.1033325195
 20
-3.7178751221
  0
LWPOLYLINE
  5
34C
100
AcDbEntity
  8
0
100
AcDbPolyline
 62
7
  6
CONTINUOUS
 90
6
 70
0
 43
0.3500000019
 10
18.1033300781
 20
2.0678393707
 10
18.1033300781
 20
3.1392680054
 10
17.8890449219
 20
3.3535534973
 10
16.8176191406
 20
3.3535534973
 10
16.3890488281
 20
2.9249821777
 10
16.3890488281
 20
2.4964106903
  0
LWPOLYLINE
  5
34D
100
AcDbEntity
  8
ASSI
100
AcDbPolyline
 62
250
  6
CONTINUOUS
 90
13
 70
0
 10
-10.8043303573
 20
20.802386737
 10
-10.8653192624
 20
20.8019785219
 10
-10.9248738961
 20
20.8012534219
 10
-10.9820932089
 20
20.8002224076
 10
-11.0361114841
 20
20.798901078
 10
-11.0861114363
 20
20.7973094247
 10
-11.1313365762
 20
20.7954715289
 10
-11.1711026567
 20
20.7934151975
 10
-11.2048080251
 20
20.7911715425
 10
-11.231942726
 20
20.7887745098
 10
-11.2520962169
 20
20.786260366
 10
-11.2649635794
 20
20.7836671497
 10
-11.2703501331
 20
20.7810340957
  0
LINE
  5
34E
100
AcDbEntity
  8
ASSI
100
AcDbLine
 62
250
  6
CONTINUOUS
 10
10.2534750279
 20
20.8023867227
 11
5.4804456041
 21
20.797310654
  0
LINE
  5
34F
100
AcDbEntity
  8
ASSI
100
AcDbLine
 62
250
  6
CONTINUOUS
 10
5.4804456041
 20
20.797310654
 11
0.7031636749
 21
20.7952137176
  0
LINE
  5
350
100
AcDbEntity
  8
ASSI
100
AcDbLine
 62
250
  6
CONTINUOUS
 10
0.7031636749
 20
20.7952137176
 11
-4.0705765974
 21
20.7960897791
  0
LINE
  5
351
100
AcDbEntity
  8
ASSI
100
AcDbLine
 62
250
  6
CONTINUOUS
 10
-4.0705765974
 20
20.7960897791
 11
-9.9790652203
 21
20.8013066257
  0
LINE
  5
352
100
AcDbEntity
  8
ASSI
100
AcDbLine
 62
250
  6
CONTINUOUS
 10
-9.9790652203
 20
20.8013066257
 11
-10.8043303576
 21
20.8023867177
  0
LWPOLYLINE
  5
353
100
AcDbEntity
  8
ASSI
100
AcDbPolyline
 62
250
  6
CONTINUOUS
 90
13
 70
0
 10
10.2534736861
 20
20.8023858873
 10
10.3144616635
 20
20.8019776915
 10
10.3740154543
 20
20.8012526257
 10
10.4312340501
 20
20.8002216596
 10
10.4852517725
 20
20.7989003912
 10
10.5352513702
 20
20.7973088101
 10
10.5804763831
 20
20.7954709951
 10
10.6202425877
 20
20.793414751
 10
10.6539483482
 20
20.7911711874
 10
10.6810837195
 20
20.7887742479
 10
10.7012381618
 20
20.7862601966
 10
10.7141067522
 20
20.7836670693
 10
10.7194947975
 20
20.7810340984
  0
LINE
  5
354
100
AcDbEntity
  8
ASSI
100
AcDbLine
 62
7
  6
CONTINUOUS
 10
7.1245723321
 20
22.0472209317
 11
7.5329973251
 21
22.0842948676
  0
LINE
  5
355
100
AcDbEntity
  8
ASSI
100
AcDbLine
 62
7
  6
CONTINUOUS
 10
-4.0754276679
 20
22.0472209317
 11
-3.6670026749
 21
22.0842948676
  0
LWPOLYLINE
  5
356
100
AcDbEntity
  8
ASSI
100
AcDbPolyline
 62
250
  6
CONTINUOUS
 90
16
 70
0
 10
-10.787949229
 20
21.9497272941
 10
-10.8401511986
 20
21.9469252123
 10
-10.8917821087
 20
21.9386925222
 10
-10.9422772509
 20
21.9251192998
 10
-10.991084367
 20
21.9063540221
 10
-11.03766962
 20
21.8826019673
 10
-11.0815234444
 20
21.8541229918
 10
-11.1221662155
 20
21.8212286344
 10
-11.1591534607
 20
21.784278703
 10
-11.1920806663
 20
21.7436773862
 10
-11.2205877459
 20
21.699868797
 10
-11.2443629814
 20
21.6533320919
 10
-11.2631464074
 20
21.6045762487
 10
-11.2767326474
 20
21.5541345157
 10
-11.2849731646
 20
21.5025585823
 10
-11.2877778915
 20
21.4504125268
  0
LINE
  5
357
100
AcDbEntity
  8
ASSI
100
AcDbLine
 62
250
  6
CONTINUOUS
 10
10.2370938941
 20
21.9497272961
 11
6.8344597183
 21
21.9395061484
  0
LINE
  5
358
100
AcDbEntity
  8
ASSI
100
AcDbLine
 62
250
  6
CONTINUOUS
 10
6.8344597183
 20
21.9395061484
 11
3.4304570962
 21
21.9332348055
  0
LINE
  5
359
100
AcDbEntity
  8
ASSI
100
AcDbLine
 62
250
  6
CONTINUOUS
 10
3.4304570962
 20
21.9332348055
 11
0.02456541
 21
21.930911351
  0
LINE
  5
35A
100
AcDbEntity
  8
ASSI
100
AcDbLine
 62
7
  6
CONTINUOUS
 10
-7.6754276679
 20
22.0472209317
 11
-4.0754276679
 21
22.0472209317
  0
LINE
  5
35B
100
AcDbEntity
  8
ASSI
100
AcDbLine
 62
7
  6
CONTINUOUS
 10
3.5245723321
 20
22.0472209317
 11
7.1245723321
 21
22.0472209317
  0
LINE
  5
35C
100
AcDbEntity
  8
ASSI
100
AcDbLine
 62
7
  6
CONTINUOUS
 10
-10.855186879
 20
22.0842948676
 11
-8.0838526609
 21
22.0842948676
  0
LINE
  5
35D
100
AcDbEntity
  8
ASSI
100
AcDbLine
 62
7
  6
CONTINUOUS
 10
-3.6670026749
 20
22.0842948676
 11
3.1161473391
 21
22.0842948676
  0
LINE
  5
35E
100
AcDbEntity
  8
ASSI
100
AcDbLine
 62
7
  6
CONTINUOUS
 10
7.5329973251
 20
22.0842948676
 11
10.3043315432
 21
22.0842948676
  0
LINE
  5
35F
100
AcDbEntity
  8
ASSI
100
AcDbLine
 62
250
  6
CONTINUOUS
 10
0.02456541
 20
21.930911351
 11
-3.3743463336
 21
21.9325280959
  0
LINE
  5
360
100
AcDbEntity
  8
ASSI
100
AcDbLine
 62
250
  6
CONTINUOUS
 10
-3.3743463336
 20
21.9325280959
 11
-6.8761405111
 21
21.9383172799
  0
LWPOLYLINE
  5
361
100
AcDbEntity
  8
ASSI
100
AcDbPolyline
 62
250
  6
CONTINUOUS
 90
3
 70
0
 10
-6.8761405111
 20
21.9383172799
 10
-9.9623199602
 20
21.946912282
 10
-10.7879492304
 20
21.949727297
  0
LWPOLYLINE
  5
362
100
AcDbEntity
  8
ASSI
100
AcDbPolyline
 62
250
  6
CONTINUOUS
 90
16
 70
0
 10
10.2370938941
 20
21.9497272961
 10
10.2892948643
 20
21.9469253209
 10
10.3409249059
 20
21.9386929239
 10
10.3914193349
 20
21.9251201437
 10
10.4402258874
 20
21.9063554275
 10
10.48681076
 20
21.8826040073
 10
10.5306644484
 20
21.8541256555
 10
10.5713073193
 20
21.8212318432
 10
10.6082948566
 20
21.7842823343
 10
10.641222523
 20
21.7436812499
 10
10.6697301846
 20
21.6998726494
 10
10.6935060496
 20
21.6533356726
 10
10.7122900784
 20
21.6045793003
 10
10.7258768277
 20
21.5541367869
 10
10.7341176976
 20
21.5025598285
 10
10.7369225566
 20
21.4504125287
  0
LINE
  5
363
100
AcDbEntity
  8
ASSI
100
AcDbLine
 62
7
  6
CONTINUOUS
 10
-7.6754276679
 20
22.0472209317
 11
-8.0838526609
 21
22.0842948676
  0
LINE
  5
364
100
AcDbEntity
  8
ASSI
100
AcDbLine
 62
7
  6
CONTINUOUS
 10
3.5245723321
 20
22.0472209317
 11
3.1161473391
 21
22.0842948676
  0
LWPOLYLINE
  5
365
100
AcDbEntity
  8
0
100
AcDbPolyline
 62
7
  6
CONTINUOUS
 90
7
 70
0
 43
0.3500000019
 10
3.2602856445
 20
31.1303571777
 10
1.7602841797
 20
31.1303571777
 10
3.2602856445
 20
33.2732141113
 10
3.2602856445
 20
33.7017844238
 10
2.831715332
 20
34.1303574219
 10
2.1888598633
 20
34.1303574219
 10
1.7602841797
 20
33.4874992676
  0
LWPOLYLINE
  5
366
100
AcDbEntity
  8
0
100
AcDbPolyline
 62
7
  6
CONTINUOUS
 90
7
 70
0
 43
0.3500000019
 10
-0.8111430664
 20
31.1303571777
 10
-2.3111445312
 20
31.1303571777
 10
-0.8111430664
 20
33.2732141113
 10
-0.8111430664
 20
33.7017844238
 10
-1.2397133789
 20
34.1303574219
 10
-1.8825688477
 20
34.1303574219
 10
-2.3111445312
 20
33.4874992676
  0
LWPOLYLINE
  5
367
100
AcDbEntity
  8
0
100
AcDbPolyline
 62
7
  6
CONTINUOUS
 90
7
 70
0
 43
0.3500000019
 10
-3.1682851562
 20
31.1303571777
 10
-4.6682866211
 20
31.1303571777
 10
-3.1682851562
 20
33.2732141113
 10
-3.1682851562
 20
33.7017844238
 10
-3.5968554687
 20
34.1303574219
 10
-4.2397109375
 20
34.1303574219
 10
-4.6682866211
 20
33.4874992676
  0
LINE
  5
368
100
AcDbEntity
  8
ASSI
100
AcDbLine
 62
250
  6
CONTINUOUS
 10
-33.3088310733
 20
-20.9451868161
 11
-32.951716143
 21
-20.952422394
  0
LINE
  5
369
100
AcDbEntity
  8
ASSI
100
AcDbLine
 62
7
  6
CONTINUOUS
 10
-29.2462441711
 20
-22.2343305439
 11
-32.1732684323
 21
-22.0809317024
  0
LINE
  5
36A
100
AcDbEntity
  8
ASSI
100
AcDbLine
 62
250
  6
CONTINUOUS
 10
-29.202699475
 20
-21.7366123895
 11
-31.8008669302
 21
-21.600448203
  0
LWPOLYLINE
  5
36B
100
AcDbEntity
  8
ASSI
100
AcDbPolyline
 62
7
  6
CONTINUOUS
 90
3
 70
0
 10
-31.8139464342
 20
-22.0997629704
 10
-31.9121524179
 20
-22.0905688985
 10
-31.9734079205
 20
-22.0806756929
  0
LWPOLYLINE
  5
36C
100
AcDbEntity
  8
ASSI
100
AcDbPolyline
 62
250
  6
CONTINUOUS
 90
19
 70
0
 10
-31.8008669302
 20
-21.600448203
 10
-31.8585925357
 20
-21.5950025921
 10
-31.9150360442
 20
-21.5850534607
 10
-31.9701974555
 20
-21.5706008087
 10
-32.0244643133
 20
-21.5514850039
 10
-32.0774490739
 20
-21.5278656786
 10
-32.1279891068
 20
-21.5002217292
 10
-32.1760033385
 20
-21.4684709555
 10
-32.2215728424
 20
-21.4326955577
 10
-32.2637782088
 20
-21.3936210331
 10
-32.3025470762
 20
-21.3511810157
 10
-32.3379518061
 20
-21.3054418715
 10
-32.3692900723
 20
-21.2573281959
 10
-32.3964801035
 20
-21.2067615355
 10
-32.4196036711
 20
-21.1538203437
 10
-32.438203763
 20
-21.0996645759
 10
-32.4521280419
 20
-21.0446808839
 10
-32.4615288451
 20
-20.9884826159
 10
-32.4664061725
 20
-20.9310697719
  0
LWPOLYLINE
  5
36D
100
AcDbEntity
  8
ASSI
100
AcDbPolyline
 62
250
  6
CONTINUOUS
 90
3
 70
0
 10
-31.9734079205
 20
-22.0806756929
 10
-32.0092475079
 20
-22.0733691995
 10
-32.1045813113
 20
-22.0482847548
  0
LWPOLYLINE
  5
36E
100
AcDbEntity
  8
ASSI
100
AcDbPolyline
 62
250
  6
CONTINUOUS
 90
16
 70
0
 10
-32.1045813113
 20
-22.0482847548
 10
-32.1975144908
 20
-22.0154907304
 10
-32.2874276397
 20
-21.9752118459
 10
-32.3737240985
 20
-21.9277178055
 10
-32.4558313876
 20
-21.8733265168
 10
-32.5331961302
 20
-21.8124079806
 10
-32.6052922555
 20
-21.7453773319
 10
-32.6716384954
 20
-21.6726883692
 10
-32.7317948828
 20
-21.5948309107
 10
-32.785356392
 20
-21.5123316409
 10
-32.8319637259
 20
-21.4257548067
 10
-32.8713148242
 20
-21.3356755183
 10
-32.9031548341
 20
-21.2426747264
 10
-32.9272695962
 20
-21.1473670566
 10
-32.9434936068
 20
-21.0503994763
 10
-32.9517161727
 20
-20.9524223949
  0
LINE
  5
36F
100
AcDbEntity
  8
ASSI
100
AcDbLine
 62
250
  6
CONTINUOUS
 10
-32.9517161389
 20
-20.9524224133
 11
-32.9284666121
 21
-20.9512890981
  0
LINE
  5
370
100
AcDbEntity
  8
ASSI
100
AcDbLine
 62
250
  6
CONTINUOUS
 10
-32.9284666121
 20
-20.9512890981
 11
-32.4664061725
 21
-20.9310697719
  0
LINE
  5
371
100
AcDbEntity
  8
ASSI
100
AcDbLine
 62
250
  6
CONTINUOUS
 10
-28.8765327304
 20
-18.0085094393
 11
-28.85365701
 21
-18.0085094393
  0
LWPOLYLINE
  5
372
100
AcDbEntity
  8
CURVE
100
AcDbPolyline
 62
250
  6
CONTINUOUS
 90
16
 70
0
 10
-33.6617390793
 20
10.7727837606
 10
-33.6615148393
 20
10.77293922
 10
-33.6612845951
 20
10.7734005393
 10
-33.6610478582
 20
10.7741601303
 10
-33.6608041402
 20
10.7752104047
 10
-33.6605529524
 20
10.7765437742
 10
-33.660293887
 20
10.778154567
 10
-33.660026857
 20
10.7800447777
 10
-33.6597518563
 20
10.782218317
 10
-33.6594688784
 20
10.7846790958
 10
-33.6591779171
 20
10.7874310252
 10
-33.6588791038
 20
10.7904763194
 10
-33.6585731218
 20
10.7938104067
 10
-33.658260792
 20
10.7974270187
 10
-33.6579429354
 20
10.8013198873
 10
-33.6572938685
 20
10.809909838
  0
LWPOLYLINE
  5
373
100
AcDbEntity
  8
ASSI
100
AcDbPolyline
 62
250
  6
CONTINUOUS
 90
11
 70
0
 10
-31.8139463974
 20
21.9497272961
 10
-31.8151664795
 20
21.9469253209
 10
-31.8160870159
 20
21.9386929239
 10
-31.8166979386
 20
21.9251201437
 10
-31.8169925661
 20
21.9063554275
 10
-31.8169676756
 20
21.8826040073
 10
-31.8166235387
 20
21.8541256555
 10
-31.8159639188
 20
21.8212318432
 10
-31.8149960307
 20
21.7842823343
 10
-31.81373046
 20
21.7436812499
 10
-31.8103647425
 20
21.6533356726
  0
LINE
  5
374
100
AcDbEntity
  8
CURVE
100
AcDbLine
 62
250
  6
CONTINUOUS
 10
-33.5902936589
 20
-14.5879445054
 11
-33.5689106076
 21
-14.5878695528
  0
LWPOLYLINE
  5
375
100
AcDbEntity
  8
CURVE
100
AcDbPolyline
 62
250
  6
CONTINUOUS
 90
12
 70
0
 10
-33.7300223772
 20
9.3861990425
 10
-33.7299046635
 20
9.3863399439
 10
-33.7297814664
 20
9.3867593734
 10
-33.7296525774
 20
9.3874524193
 10
-33.7295177882
 20
9.3884141697
 10
-33.7293768903
 20
9.389639713
 10
-33.7292297031
 20
9.3911258078
 10
-33.7290761569
 20
9.3928758956
 10
-33.7289162098
 20
9.3948950884
 10
-33.7287498197
 20
9.3971884983
 10
-33.7285769449
 20
9.3997612372
 10
-33.7282121321
 20
9.4057525885
  0
LWPOLYLINE
  5
376
100
AcDbEntity
  8
CURVE
100
AcDbPolyline
 62
250
  6
CONTINUOUS
 90
14
 70
0
 10
-33.7450537859
 20
8.1975515965
 10
-33.7448931924
 20
8.1977022519
 10
-33.7447279282
 20
8.1981492084
 10
-33.7445576765
 20
8.1988849517
 10
-33.7443821203
 20
8.1999019673
 10
-33.7442009426
 20
8.201192741
 10
-33.7439662191
 20
8.2031825524
 10
-33.7437224191
 20
8.205590612
 10
-33.7434697445
 20
8.2084191622
 10
-33.7432083978
 20
8.2116704454
 10
-33.74293869
 20
8.2153447449
 10
-33.7426613688
 20
8.2194345069
 10
-33.7423772905
 20
8.223930218
 10
-33.7418516056
 20
8.2330163195
  0
LINE
  5
377
100
AcDbEntity
  8
CURVE
100
AcDbLine
 62
250
  6
CONTINUOUS
 10
-33.5864274523
 20
-14.0923406452
 11
-33.6079776199
 21
-14.0924165518
  0
LWPOLYLINE
  5
378
100
AcDbEntity
  8
ASSI
100
AcDbPolyline
 62
250
  6
CONTINUOUS
 90
9
 70
0
 10
-31.8139464342
 20
-22.0997629704
 10
-31.8151665459
 20
-22.0969608885
 10
-31.8160870974
 20
-22.0887281984
 10
-31.8166980221
 20
-22.075154976
 10
-31.8169926401
 20
-22.0563896983
 10
-31.8169677305
 20
-22.0326376436
 10
-31.816623567
 20
-22.0041586681
 10
-31.8159639172
 20
-21.9712643107
 10
-31.814995999
 20
-21.9343143793
  0
LINE
  5
379
100
AcDbEntity
  8
CURVE
100
AcDbLine
 62
250
  6
CONTINUOUS
 10
-33.6750475238
 20
-12.0123889132
 11
-33.6454416512
 21
-12.0122874152
  0
LINE
  5
37A
100
AcDbEntity
  8
CURVE
100
AcDbLine
 62
250
  6
CONTINUOUS
 10
-33.6597445014
 20
-11.516762419
 11
-33.6895330897
 21
-11.5168628389
  0
LWPOLYLINE
  5
37B
100
AcDbEntity
  8
CURVE
100
AcDbPolyline
 62
250
  6
CONTINUOUS
 90
11
 70
0
 10
-33.5842478987
 20
-14.1092665013
 10
-33.5844957629
 20
-14.1063527287
 10
-33.5847913904
 20
-14.1031072063
 10
-33.5850711924
 20
-14.1002972645
 10
-33.5853352088
 20
-14.0979164138
 10
-33.5855834792
 20
-14.095958165
 10
-33.5857708281
 20
-14.0946929354
 10
-33.5859484033
 20
-14.0936994361
 10
-33.586116483
 20
-14.0929830854
 10
-33.5862753455
 20
-14.0925493016
 10
-33.586425269
 20
-14.0924035029
  0
LWPOLYLINE
  5
37C
100
AcDbEntity
  8
CURVE
100
AcDbPolyline
 62
250
  6
CONTINUOUS
 90
10
 70
0
 10
-33.6178074002
 20
-13.3886814899
 10
-33.6176220486
 20
-13.3908782503
 10
-33.6174443382
 20
-13.3928219899
 10
-33.6172743947
 20
-13.3945131933
 10
-33.6171123435
 20
-13.3959523456
 10
-33.6169582538
 20
-13.3971391111
 10
-33.6168119705
 20
-13.3980698738
 10
-33.6166732821
 20
-13.3987401971
 10
-33.6165419772
 20
-13.3991456444
 10
-33.6164178444
 20
-13.3992817794
  0
LINE
  5
37D
100
AcDbEntity
  8
CURVE
100
AcDbLine
 62
250
  6
CONTINUOUS
 10
-33.5837230389
 20
-14.1159411313
 11
-33.5842478987
 21
-14.1092665013
  0
LINE
  5
37E
100
AcDbEntity
  8
CURVE
100
AcDbLine
 62
250
  6
CONTINUOUS
 10
-33.6181666625
 20
-13.3839950791
 11
-33.6178074002
 21
-13.3886814899
  0
LINE
  5
37F
100
AcDbEntity
  8
CURVE
100
AcDbLine
 62
250
  6
CONTINUOUS
 10
-33.5831615536
 20
-14.1237423929
 11
-33.5837230389
 21
-14.1159411313
  0
LWPOLYLINE
  5
380
100
AcDbEntity
  8
CURVE
100
AcDbPolyline
 62
250
  6
CONTINUOUS
 90
23
 70
0
 10
-33.7095021327
 20
-10.1474878854
 10
-33.7097598699
 20
-10.1438048249
 10
-33.7100100258
 20
-10.1405213601
 10
-33.7102039711
 20
-10.1381968457
 10
-33.7103920507
 20
-10.1361516602
 10
-33.7105739868
 20
-10.1343952352
 10
-33.7107495017
 20
-10.132937002
 10
-33.7109183178
 20
-10.1317863923
 10
-33.7110801119
 20
-10.1309524772
 10
-33.7112343805
 20
-10.1304428867
 10
-33.7113805746
 20
-10.1302648904
 10
-33.7115181451
 20
-10.130425758
 10
-33.7116465432
 20
-10.1309327594
 10
-33.7117653064
 20
-10.1317907802
 10
-33.7118743179
 20
-10.1329951709
 10
-33.7119735475
 20
-10.1345388982
 10
-33.7120629649
 20
-10.1364149287
 10
-33.7121425399
 20
-10.1386162289
 10
-33.7122122382
 20
-10.1411362434
 10
-33.7122720089
 20
-10.143970329
 10
-33.7123217972
 20
-10.1471143201
 10
-33.7123615481
 20
-10.1505640513
 10
-33.712410749
 20
-10.1583619828
  0
LINE
  5
381
100
AcDbEntity
  8
CURVE
100
AcDbLine
 62
250
  6
CONTINUOUS
 10
-33.6185150578
 20
-13.3789863739
 11
-33.6181666625
 21
-13.3839950791
  0
LWPOLYLINE
  5
382
100
AcDbEntity
  8
CURVE
100
AcDbPolyline
 62
250
  6
CONTINUOUS
 90
25
 70
0
 10
-33.7240624511
 20
-9.3949121368
 10
-33.7237944122
 20
-9.3988870861
 10
-33.7235298749
 20
-9.4024933256
 10
-33.7232695581
 20
-9.4057113901
 10
-33.723014243
 20
-9.4085208242
 10
-33.7227647107
 20
-9.4109011722
 10
-33.7226020066
 20
-9.4122396898
 10
-33.7224427656
 20
-9.41337296
 10
-33.7222875333
 20
-9.4142955315
 10
-33.7221367269
 20
-9.4150019884
 10
-33.7219902496
 20
-9.4154870559
 10
-33.7218478757
 20
-9.4157454946
 10
-33.7216822662
 20
-9.415750829
 10
-33.7215226906
 20
-9.415423631
 10
-33.7213695987
 20
-9.4147652584
 10
-33.7212234399
 20
-9.4137770694
 10
-33.7210846641
 20
-9.4124604219
 10
-33.7209536565
 20
-9.4108175717
 10
-33.7208305457
 20
-9.4088543658
 10
-33.7207153962
 20
-9.4065775491
 10
-33.7206082722
 20
-9.4039938665
 10
-33.7205092382
 20
-9.4011100628
 10
-33.7204183687
 20
-9.397932496
 10
-33.7203357792
 20
-9.3944659767
 10
-33.7201959424
 20
-9.3866837754
  0
LINE
  5
383
100
AcDbEntity
  8
CURVE
100
AcDbLine
 62
250
  6
CONTINUOUS
 10
-33.582415704
 20
-14.1350112594
 11
-33.5831615536
 21
-14.1237423929
  0
LINE
  5
384
100
AcDbEntity
  8
CURVE
100
AcDbLine
 62
250
  6
CONTINUOUS
 10
-33.6190762806
 20
-13.3701197824
 11
-33.6185150578
 21
-13.3789863739
  0
LINE
  5
385
100
AcDbEntity
  8
CURVE
100
AcDbLine
 62
250
  6
CONTINUOUS
 10
-33.7089685147
 20
-10.155964317
 11
-33.7095021327
 21
-10.1474878854
  0
LINE
  5
386
100
AcDbEntity
  8
CURVE
100
AcDbLine
 62
250
  6
CONTINUOUS
 10
-33.5816356246
 20
-14.147777707
 11
-33.582415704
 21
-14.1350112594
  0
LINE
  5
387
100
AcDbEntity
  8
CURVE
100
AcDbLine
 62
250
  6
CONTINUOUS
 10
-33.7246072186
 20
-9.3859171305
 11
-33.7240624511
 21
-9.3949121368
  0
LINE
  5
388
100
AcDbEntity
  8
CURVE
100
AcDbLine
 62
250
  6
CONTINUOUS
 10
-33.6196789567
 20
-13.3596718055
 11
-33.6190762806
 21
-13.3701197824
  0
LINE
  5
389
100
AcDbEntity
  8
CURVE
100
AcDbLine
 62
250
  6
CONTINUOUS
 10
-33.5806486168
 20
-14.1652498505
 11
-33.5816356246
 21
-14.147777707
  0
LINE
  5
38A
100
AcDbEntity
  8
CURVE
100
AcDbLine
 62
250
  6
CONTINUOUS
 10
-33.7084173937
 20
-10.1657852726
 11
-33.7089685147
 21
-10.155964317
  0
LINE
  5
38B
100
AcDbEntity
  8
CURVE
100
AcDbLine
 62
250
  6
CONTINUOUS
 10
-33.7251053547
 20
-9.3767050266
 11
-33.7246072186
 21
-9.3859171305
  0
LINE
  5
38C
100
AcDbEntity
  8
CURVE
100
AcDbLine
 62
250
  6
CONTINUOUS
 10
-33.6378773093
 20
-11.6059997152
 11
-33.6636526044
 21
-11.1234732641
  0
LINE
  5
38D
100
AcDbEntity
  8
CURVE
100
AcDbLine
 62
250
  6
CONTINUOUS
 10
-33.6205406873
 20
-13.3433306398
 11
-33.6196789567
 21
-13.3596718055
  0
LWPOLYLINE
  5
38E
100
AcDbEntity
  8
CURVE
100
AcDbPolyline
 62
250
  6
CONTINUOUS
 90
6
 70
0
 10
-33.6751737398
 20
-12.0105536212
 10
-33.6751408819
 20
-12.0111969478
 10
-33.6751118937
 20
-12.0117008734
 10
-33.6750868118
 20
-12.0120633525
 10
-33.6750656726
 20
-12.0122823399
 10
-33.6750485126
 20
-12.0123557902
  0
LINE
  5
38F
100
AcDbEntity
  8
CURVE
100
AcDbLine
 62
250
  6
CONTINUOUS
 10
-33.5792710778
 20
-14.1918768644
 11
-33.5806486168
 21
-14.1652498505
  0
LINE
  5
390
100
AcDbEntity
  8
CURVE
100
AcDbLine
 62
250
  6
CONTINUOUS
 10
-33.7076242372
 20
-10.1815739972
 11
-33.7084173937
 21
-10.1657852726
  0
LINE
  5
391
100
AcDbEntity
  8
CURVE
100
AcDbLine
 62
250
  6
CONTINUOUS
 10
-33.6636526044
 20
-11.1234732641
 11
-33.6862854285
 21
-10.6612765402
  0
LINE
  5
392
100
AcDbEntity
  8
CURVE
100
AcDbLine
 62
250
  6
CONTINUOUS
 10
-33.7257869052
 20
-9.3626516582
 11
-33.7251053547
 21
-9.3767050266
  0
LINE
  5
393
100
AcDbEntity
  8
CURVE
100
AcDbLine
 62
250
  6
CONTINUOUS
 10
-33.6367069091
 20
-11.6302488809
 11
-33.6378773093
 21
-11.6059997152
  0
LINE
  5
394
100
AcDbEntity
  8
CURVE
100
AcDbLine
 62
250
  6
CONTINUOUS
 10
-33.6217282931
 20
-13.3184955069
 11
-33.6205406873
 21
-13.3433306398
  0
LINE
  5
395
100
AcDbEntity
  8
CURVE
100
AcDbLine
 62
250
  6
CONTINUOUS
 10
-33.6826979342
 20
-11.0329601416
 11
-33.6597425902
 21
-11.5168300677
  0
LINE
  5
396
100
AcDbEntity
  8
CURVE
100
AcDbLine
 62
250
  6
CONTINUOUS
 10
-33.5774158757
 20
-14.2315537745
 11
-33.5792710778
 21
-14.1918768644
  0
LINE
  5
397
100
AcDbEntity
  8
CURVE
100
AcDbLine
 62
250
  6
CONTINUOUS
 10
-33.6862854285
 20
-10.6612765402
 11
-33.7076242372
 21
-10.1815739972
  0
LINE
  5
398
100
AcDbEntity
  8
CURVE
100
AcDbLine
 62
250
  6
CONTINUOUS
 10
-33.7394030106
 20
-9.0383821827
 11
-33.7257869052
 21
-9.3626516582
  0
LINE
  5
399
100
AcDbEntity
  8
CURVE
100
AcDbLine
 62
250
  6
CONTINUOUS
 10
-33.6235441013
 20
-13.2762015785
 11
-33.6217282931
 21
-13.3184955069
  0
LINE
  5
39A
100
AcDbEntity
  8
CURVE
100
AcDbLine
 62
250
  6
CONTINUOUS
 10
-33.7032112005
 20
-10.5529096797
 11
-33.6826979342
 21
-11.0329601416
  0
LINE
  5
39B
100
AcDbEntity
  8
CURVE
100
AcDbLine
 62
250
  6
CONTINUOUS
 10
-33.6352389056
 20
-11.6642624522
 11
-33.6367069091
 21
-11.6302488809
  0
LINE
  5
39C
100
AcDbEntity
  8
CURVE
100
AcDbLine
 62
250
  6
CONTINUOUS
 10
-33.7275345917
 20
-9.000778993
 11
-33.7481298711
 21
-8.5230172933
  0
LINE
  5
39D
100
AcDbEntity
  8
CURVE
100
AcDbLine
 62
250
  6
CONTINUOUS
 10
-33.675343241
 20
-12.0066224203
 11
-33.675210431
 21
-12.0097729388
  0
LWPOLYLINE
  5
39E
100
AcDbEntity
  8
ASSI
100
AcDbPolyline
 62
250
  6
CONTINUOUS
 90
10
 70
0
 10
-32.951716143
 20
-20.952422394
 10
-33.0460747553
 20
-18.6203634524
 10
-33.1280002896
 20
-16.3260901102
 10
-33.1980291598
 20
-14.0696727907
 10
-33.2560790056
 20
-11.8764034146
 10
-33.3035035289
 20
-9.7211201618
 10
-33.3419709162
 20
-7.5281829113
 10
-33.3712437384
 20
-5.272394575
 10
-33.3903014037
 20
-2.979026167
 10
-33.3986150555
 20
-0.648124305
  0
LINE
  5
39F
100
AcDbEntity
  8
CURVE
100
AcDbLine
 62
250
  6
CONTINUOUS
 10
-33.5750573008
 20
-14.2879412639
 11
-33.5774158757
 21
-14.2315537745
  0
LINE
  5
3A0
100
AcDbEntity
  8
ASSI
100
AcDbLine
 62
250
  6
CONTINUOUS
 10
-33.7697493921
 20
1.3839075869
 11
-33.7698942241
 21
1.4035096955
  0
LINE
  5
3A1
100
AcDbEntity
  8
CURVE
100
AcDbLine
 62
250
  6
CONTINUOUS
 10
-33.625985922
 20
-13.2123916581
 11
-33.6235441013
 21
-13.2762015785
  0
LINE
  5
3A2
100
AcDbEntity
  8
CURVE
100
AcDbLine
 62
250
  6
CONTINUOUS
 10
-33.7263821424
 20
-9.0312058996
 11
-33.7275345917
 21
-9.000778993
  0
LINE
  5
3A3
100
AcDbEntity
  8
CURVE
100
AcDbLine
 62
250
  6
CONTINUOUS
 10
-33.6336641152
 20
-11.7057267319
 11
-33.6352389056
 21
-11.6642624522
  0
LINE
  5
3A4
100
AcDbEntity
  8
CURVE
100
AcDbLine
 62
250
  6
CONTINUOUS
 10
-33.7046618838
 20
-10.5141889236
 11
-33.7032112005
 21
-10.5529096797
  0
LINE
  5
3A5
100
AcDbEntity
  8
CURVE
100
AcDbLine
 62
250
  6
CONTINUOUS
 10
-33.7481298711
 20
-8.5230172933
 11
-33.7649184796
 21
-8.0699322031
  0
LINE
  5
3A6
100
AcDbEntity
  8
CURVE
100
AcDbLine
 62
250
  6
CONTINUOUS
 10
-33.6757136152
 20
-11.9965972509
 11
-33.675343241
 21
-12.0066224203
  0
LINE
  5
3A7
100
AcDbEntity
  8
CURVE
100
AcDbLine
 62
250
  6
CONTINUOUS
 10
-33.5728800673
 20
-14.3466790335
 11
-33.5750573008
 21
-14.2879412639
  0
LINE
  5
3A8
100
AcDbEntity
  8
ASSI
100
AcDbLine
 62
7
  6
CONTINUOUS
 10
-33.7697493921
 20
1.3839075869
 11
-33.7656667918
 21
1.2709541704
  0
LINE
  5
3A9
100
AcDbEntity
  8
CURVE
100
AcDbLine
 62
250
  6
CONTINUOUS
 10
-33.7619870973
 20
-8.4037724154
 11
-33.7394030106
 21
-9.0383821827
  0
LINE
  5
3AA
100
AcDbEntity
  8
ASSI
100
AcDbLine
 62
250
  6
CONTINUOUS
 10
-33.7657887729
 20
1.2745994993
 11
-33.7664710824
 21
1.3107092967
  0
LINE
  5
3AB
100
AcDbEntity
  8
CURVE
100
AcDbLine
 62
250
  6
CONTINUOUS
 10
-33.6285939907
 20
-13.1351833879
 11
-33.625985922
 21
-13.2123916581
  0
LINE
  5
3AC
100
AcDbEntity
  8
CURVE
100
AcDbLine
 62
250
  6
CONTINUOUS
 10
-33.7248519226
 20
-9.0776815328
 11
-33.7263821424
 21
-9.0312058996
  0
LINE
  5
3AD
100
AcDbEntity
  8
CURVE
100
AcDbLine
 62
250
  6
CONTINUOUS
 10
-33.6322358056
 20
-11.749120197
 11
-33.6336641152
 21
-11.7057267319
  0
LINE
  5
3AE
100
AcDbEntity
  8
CURVE
100
AcDbLine
 62
250
  6
CONTINUOUS
 10
-33.6781908514
 20
-11.9190013046
 11
-33.6757136152
 21
-11.9965972509
  0
LINE
  5
3AF
100
AcDbEntity
  8
CURVE
100
AcDbLine
 62
250
  6
CONTINUOUS
 10
-33.5710460045
 20
-14.4030042237
 11
-33.5728800673
 21
-14.3466790335
  0
LINE
  5
3B0
100
AcDbEntity
  8
CURVE
100
AcDbLine
 62
250
  6
CONTINUOUS
 10
-33.7067750649
 20
-10.4489698634
 11
-33.7046618838
 21
-10.5141889236
  0
LINE
  5
3B1
100
AcDbEntity
  8
CURVE
100
AcDbLine
 62
250
  6
CONTINUOUS
 10
-33.7649184796
 20
-8.0699322031
 11
-33.7788738298
 21
-7.6192043691
  0
LINE
  5
3B2
100
AcDbEntity
  8
ASSI
100
AcDbLine
 62
7
  6
CONTINUOUS
 10
-33.7657887729
 20
1.2745994993
 11
-33.7617417346
 21
1.1438622776
  0
LINE
  5
3B3
100
AcDbEntity
  8
CURVE
100
AcDbLine
 62
250
  6
CONTINUOUS
 10
-33.6308383163
 20
-13.0584210512
 11
-33.6285939907
 21
-13.1351833879
  0
LINE
  5
3B4
100
AcDbEntity
  8
CURVE
100
AcDbLine
 62
250
  6
CONTINUOUS
 10
-33.7234529911
 20
-9.1272591691
 11
-33.7248519226
 21
-9.0776815328
  0
LINE
  5
3B5
100
AcDbEntity
  8
CURVE
100
AcDbLine
 62
250
  6
CONTINUOUS
 10
-33.6886898301
 20
-11.5561512117
 11
-33.6781908514
 21
-11.9190013046
  0
LINE
  5
3B6
100
AcDbEntity
  8
CURVE
100
AcDbLine
 62
250
  6
CONTINUOUS
 10
-33.5696511842
 20
-14.4526123428
 11
-33.5710460045
 21
-14.4030042237
  0
LINE
  5
3B7
100
AcDbEntity
  8
CURVE
100
AcDbLine
 62
250
  6
CONTINUOUS
 10
-33.6311097827
 20
-11.7892707175
 11
-33.6322358056
 21
-11.749120197
  0
LINE
  5
3B8
100
AcDbEntity
  8
CURVE
100
AcDbLine
 62
250
  6
CONTINUOUS
 10
-33.7088802456
 20
-10.3730131873
 11
-33.7067750649
 21
-10.4489698634
  0
LINE
  5
3B9
100
AcDbEntity
  8
ASSI
100
AcDbLine
 62
7
  6
CONTINUOUS
 10
-33.7618636353
 20
1.1481233747
 11
-33.7580468075
 21
1.0028552414
  0
LINE
  5
3BA
100
AcDbEntity
  8
CURVE
100
AcDbLine
 62
250
  6
CONTINUOUS
 10
-33.7788738298
 20
-7.6192043691
 11
-33.7900111693
 21
-7.1708435358
  0
LINE
  5
3BB
100
AcDbEntity
  8
CURVE
100
AcDbLine
 62
250
  6
CONTINUOUS
 10
-33.6321361073
 20
-13.0060898753
 11
-33.6308383163
 21
-13.0584210512
  0
LINE
  5
3BC
100
AcDbEntity
  8
CURVE
100
AcDbLine
 62
250
  6
CONTINUOUS
 10
-33.6893797396
 20
-11.5281451729
 11
-33.6886898301
 21
-11.5561512117
  0
LINE
  5
3BD
100
AcDbEntity
  8
CURVE
100
AcDbLine
 62
250
  6
CONTINUOUS
 10
-33.7222025428
 20
-9.1799527247
 11
-33.7234529911
 21
-9.1272591691
  0
LINE
  5
3BE
100
AcDbEntity
  8
CURVE
100
AcDbLine
 62
250
  6
CONTINUOUS
 10
-33.5687758047
 20
-14.4898054768
 11
-33.5696511842
 21
-14.4526123428
  0
LINE
  5
3BF
100
AcDbEntity
  8
CURVE
100
AcDbLine
 62
250
  6
CONTINUOUS
 10
-33.6301424034
 20
-11.8307831979
 11
-33.6311097827
 21
-11.7892707175
  0
LINE
  5
3C0
100
AcDbEntity
  8
CURVE
100
AcDbLine
 62
250
  6
CONTINUOUS
 10
-33.7105744427
 20
-10.2997409192
 11
-33.7088802456
 21
-10.3730131873
  0
LWPOLYLINE
  5
3C1
100
AcDbEntity
  8
CURVE
100
AcDbPolyline
 62
250
  6
CONTINUOUS
 90
3
 70
0
 10
-33.7854830118
 20
-7.4606517101
 10
-33.7790277132
 20
-7.7738487431
 10
-33.7619870973
 20
-8.4037724154
  0
LINE
  5
3C2
100
AcDbEntity
  8
ASSI
100
AcDbLine
 62
7
  6
CONTINUOUS
 10
-33.7581648751
 20
1.007764725
 11
-33.75400802
 21
0.8133024263
  0
LINE
  5
3C3
100
AcDbEntity
  8
CURVE
100
AcDbLine
 62
250
  6
CONTINUOUS
 10
-33.7900111693
 20
-7.1708435358
 11
-33.7956225468
 21
-6.8895367841
  0
LINE
  5
3C4
100
AcDbEntity
  8
CURVE
100
AcDbLine
 62
250
  6
CONTINUOUS
 10
-33.632747168
 20
-12.9762761781
 11
-33.6321361073
 21
-13.0060898753
  0
LINE
  5
3C5
100
AcDbEntity
  8
ASSI
100
AcDbLine
 62
250
  6
CONTINUOUS
 10
-33.7546809267
 20
0.8482545061
 11
-33.7548308707
 21
0.8768185097
  0
LINE
  5
3C6
100
AcDbEntity
  8
CURVE
100
AcDbLine
 62
250
  6
CONTINUOUS
 10
-33.7211389853
 20
-9.235596018
 11
-33.7222025428
 21
-9.1799527247
  0
LINE
  5
3C7
100
AcDbEntity
  8
CURVE
100
AcDbLine
 62
250
  6
CONTINUOUS
 10
-33.6294949735
 20
-11.8653274933
 11
-33.6301424034
 21
-11.8307831979
  0
LWPOLYLINE
  5
3C8
100
AcDbEntity
  8
CURVE
100
AcDbPolyline
 62
250
  6
CONTINUOUS
 90
3
 70
0
 10
-33.6895311456
 20
-11.5204152575
 10
-33.6895054065
 20
-11.521951302
 10
-33.6893797396
 20
-11.5281451729
  0
LINE
  5
3C9
100
AcDbEntity
  8
CURVE
100
AcDbLine
 62
250
  6
CONTINUOUS
 10
-33.5682854863
 20
-14.5159549136
 11
-33.5687758047
 21
-14.4898054768
  0
LINE
  5
3CA
100
AcDbEntity
  8
CURVE
100
AcDbLine
 62
250
  6
CONTINUOUS
 10
-33.7116835697
 20
-10.2396902972
 11
-33.7105744427
 21
-10.2997409192
  0
LINE
  5
3CB
100
AcDbEntity
  8
ASSI
100
AcDbLine
 62
7
  6
CONTINUOUS
 10
-33.7546809267
 20
0.8482545061
 11
-33.7510566132
 21
0.6366151857
  0
LINE
  5
3CC
100
AcDbEntity
  8
CURVE
100
AcDbLine
 62
250
  6
CONTINUOUS
 10
-33.6403327355
 20
-12.4929540717
 11
-33.632747168
 21
-12.9762761781
  0
LINE
  5
3CD
100
AcDbEntity
  8
CURVE
100
AcDbLine
 62
250
  6
CONTINUOUS
 10
-33.6157924313
 20
-13.3450016515
 11
-33.6225782534
 21
-12.8617117696
  0
LINE
  5
3CE
100
AcDbEntity
  8
CURVE
100
AcDbLine
 62
250
  6
CONTINUOUS
 10
-33.7204548645
 20
-9.2830370411
 11
-33.7211389853
 21
-9.235596018
  0
LINE
  5
3CF
100
AcDbEntity
  8
CURVE
100
AcDbLine
 62
250
  6
CONTINUOUS
 10
-33.5680445064
 20
-14.5331094862
 11
-33.5682854863
 21
-14.5159549136
  0
LINE
  5
3D0
100
AcDbEntity
  8
CURVE
100
AcDbLine
 62
250
  6
CONTINUOUS
 10
-33.7121505613
 20
-10.2057569754
 11
-33.7116835697
 21
-10.2396902972
  0
LINE
  5
3D1
100
AcDbEntity
  8
CURVE
100
AcDbLine
 62
250
  6
CONTINUOUS
 10
-33.629023182
 20
-11.8989565105
 11
-33.6294949735
 21
-11.8653274933
  0
LINE
  5
3D2
100
AcDbEntity
  8
ASSI
100
AcDbLine
 62
7
  6
CONTINUOUS
 10
-33.7511522739
 20
0.6431261563
 11
-33.7492341903
 21
0.4960780541
  0
LINE
  5
3D3
100
AcDbEntity
  8
ASSI
100
AcDbLine
 62
7
  6
CONTINUOUS
 10
-33.749243097
 20
0.4964111227
 11
-33.7492439778
 21
0.4965068554
  0
LINE
  5
3D4
100
AcDbEntity
  8
CURVE
100
AcDbLine
 62
250
  6
CONTINUOUS
 10
-33.6454396358
 20
-12.0123557902
 11
-33.6403327355
 21
-12.4929540717
  0
LINE
  5
3D5
100
AcDbEntity
  8
CURVE
100
AcDbLine
 62
250
  6
CONTINUOUS
 10
-33.6225782534
 20
-12.8617117696
 11
-33.6268001255
 21
-12.3994011114
  0
LINE
  5
3D6
100
AcDbEntity
  8
CURVE
100
AcDbLine
 62
250
  6
CONTINUOUS
 10
-33.7201031645
 20
-9.3197741479
 11
-33.7204548645
 21
-9.2830370411
  0
LINE
  5
3D7
100
AcDbEntity
  8
CURVE
100
AcDbLine
 62
250
  6
CONTINUOUS
 10
-33.6156395332
 20
-13.3608519973
 11
-33.6157924313
 21
-13.3450016515
  0
LINE
  5
3D8
100
AcDbEntity
  8
CURVE
100
AcDbLine
 62
250
  6
CONTINUOUS
 10
-33.7123607419
 20
-10.182474337
 11
-33.7121505613
 21
-10.2057569754
  0
LINE
  5
3D9
100
AcDbEntity
  8
CURVE
100
AcDbLine
 62
250
  6
CONTINUOUS
 10
-33.6288069107
 20
-11.9229859057
 11
-33.629023182
 21
-11.8989565105
  0
LINE
  5
3DA
100
AcDbEntity
  8
CURVE
100
AcDbLine
 62
250
  6
CONTINUOUS
 10
-33.7327612743
 20
8.6420644176
 11
-33.7328612036
 21
8.6543441637
  0
LWPOLYLINE
  5
3DB
100
AcDbEntity
  8
ASSI
100
AcDbPolyline
 62
7
  6
CONTINUOUS
 90
10
 70
0
 10
-33.8489537169
 20
-2.0185166197
 10
-33.8440594972
 20
-2.8485481976
 10
-33.8218244717
 20
-5.1227168776
 10
-33.7866584664
 20
-7.3967279698
 10
-33.7385618049
 20
-9.6705079436
 10
-33.6775368574
 20
-11.9439833177
 10
-33.6035866169
 20
-14.2170806124
 10
-33.5167140761
 20
-16.489726365
 10
-33.4169222275
 20
-18.7618471303
 10
-33.3088310692
 20
-20.9451868949
  0
LINE
  5
3DC
100
AcDbEntity
  8
CURVE
100
AcDbLine
 62
250
  6
CONTINUOUS
 10
-33.7308261423
 20
9.4093115404
 11
-33.7307809924
 21
9.4028975857
  0
LWPOLYLINE
  5
3DD
100
AcDbEntity
  8
CURVE
100
AcDbPolyline
 62
250
  6
CONTINUOUS
 90
3
 70
0
 10
-33.5678867845
 20
-14.5524252949
 10
-33.5679093303
 20
-14.5479769659
 10
-33.5680445064
 20
-14.5331094862
  0
LINE
  5
3DE
100
AcDbEntity
  8
CURVE
100
AcDbLine
 62
250
  6
CONTINUOUS
 10
-33.7199891426
 20
-9.3454401639
 11
-33.7201031645
 21
-9.3197741479
  0
LINE
  5
3DF
100
AcDbEntity
  8
CURVE
100
AcDbLine
 62
250
  6
CONTINUOUS
 10
-33.6268001255
 20
-12.3994011114
 11
-33.6288069107
 21
-11.9229859057
  0
LINE
  5
3E0
100
AcDbEntity
  8
CURVE
100
AcDbLine
 62
250
  6
CONTINUOUS
 10
-33.7124199056
 20
-10.1672806388
 11
-33.7123607419
 21
-10.182474337
  0
LINE
  5
3E1
100
AcDbEntity
  8
CURVE
100
AcDbLine
 62
250
  6
CONTINUOUS
 10
-33.7327127424
 20
8.6262270768
 11
-33.7327612743
 21
8.6420644176
  0
LWPOLYLINE
  5
3E2
100
AcDbEntity
  8
CURVE
100
AcDbPolyline
 62
250
  6
CONTINUOUS
 90
3
 70
0
 10
-33.6155918921
 20
-13.374110682
 10
-33.6155932567
 20
-13.371667546
 10
-33.6156395332
 20
-13.3608519973
  0
LINE
  5
3E3
100
AcDbEntity
  8
CURVE
100
AcDbLine
 62
250
  6
CONTINUOUS
 10
-33.7308398426
 20
9.4193369467
 11
-33.7308261423
 21
9.4093115404
  0
LINE
  5
3E4
100
AcDbEntity
  8
CURVE
100
AcDbLine
 62
250
  6
CONTINUOUS
 10
-33.639076938
 20
12.6304784298
 11
-33.6390754025
 21
12.6377000967
  0
LINE
  5
3E5
100
AcDbEntity
  8
CURVE
100
AcDbLine
 62
250
  6
CONTINUOUS
 10
-33.7199993511
 20
-9.3625892327
 11
-33.7199891426
 21
-9.3454401639
  0
LINE
  5
3E6
100
AcDbEntity
  8
CURVE
100
AcDbLine
 62
250
  6
CONTINUOUS
 10
-33.712410749
 20
-10.1583619828
 11
-33.7124199056
 21
-10.1672806388
  0
LINE
  5
3E7
100
AcDbEntity
  8
CURVE
100
AcDbLine
 62
250
  6
CONTINUOUS
 10
-33.6455779675
 20
11.183983935
 11
-33.6455669292
 21
11.1997604308
  0
LINE
  5
3E8
100
AcDbEntity
  8
CURVE
100
AcDbLine
 62
250
  6
CONTINUOUS
 10
-33.7327686453
 20
8.6004832505
 11
-33.7327127424
 21
8.6262270768
  0
LINE
  5
3E9
100
AcDbEntity
  8
CURVE
100
AcDbLine
 62
250
  6
CONTINUOUS
 10
-33.6069384349
 20
13.4087743789
 11
-33.6069748866
 21
13.3995618079
  0
LINE
  5
3EA
100
AcDbEntity
  8
CURVE
100
AcDbLine
 62
250
  6
CONTINUOUS
 10
-33.7307815523
 20
9.4341431522
 11
-33.7308398426
 21
9.4193369467
  0
LINE
  5
3EB
100
AcDbEntity
  8
CURVE
100
AcDbLine
 62
250
  6
CONTINUOUS
 10
-33.6457137068
 20
11.1608345154
 11
-33.6455779675
 21
11.183983935
  0
LINE
  5
3EC
100
AcDbEntity
  8
CURVE
100
AcDbLine
 62
250
  6
CONTINUOUS
 10
-33.6391569264
 20
12.6175552827
 11
-33.639076938
 21
12.6304784298
  0
LINE
  5
3ED
100
AcDbEntity
  8
CURVE
100
AcDbLine
 62
250
  6
CONTINUOUS
 10
-33.7200907223
 20
-9.3778005354
 11
-33.7199993511
 21
-9.3625892327
  0
LINE
  5
3EE
100
AcDbEntity
  8
CURVE
100
AcDbLine
 62
250
  6
CONTINUOUS
 10
-33.7330602956
 20
8.5626680785
 11
-33.7327686453
 21
8.6004832505
  0
LINE
  5
3EF
100
AcDbEntity
  8
CURVE
100
AcDbLine
 62
250
  6
CONTINUOUS
 10
-33.7305968974
 20
9.4551804263
 11
-33.7307815523
 21
9.4341431522
  0
LINE
  5
3F0
100
AcDbEntity
  8
CURVE
100
AcDbLine
 62
250
  6
CONTINUOUS
 10
-33.6068080679
 20
13.4228286985
 11
-33.6069384349
 21
13.4087743789
  0
LINE
  5
3F1
100
AcDbEntity
  8
CURVE
100
AcDbLine
 62
250
  6
CONTINUOUS
 10
-33.6460182915
 20
11.1330555787
 11
-33.6457137068
 21
11.1608345154
  0
LINE
  5
3F2
100
AcDbEntity
  8
ASSI
100
AcDbLine
 62
7
  6
CONTINUOUS
 10
-33.7492430905
 20
-0.646446189
 11
-33.7504959125
 21
-0.746951288
  0
LINE
  5
3F3
100
AcDbEntity
  8
CURVE
100
AcDbLine
 62
250
  6
CONTINUOUS
 10
-33.7201959424
 20
-9.3866837754
 11
-33.7200907223
 21
-9.3778005354
  0
LINE
  5
3F4
100
AcDbEntity
  8
CURVE
100
AcDbLine
 62
250
  6
CONTINUOUS
 10
-33.6394028614
 20
12.5969753977
 11
-33.6391569264
 21
12.6175552827
  0
LINE
  5
3F5
100
AcDbEntity
  8
CURVE
100
AcDbLine
 62
250
  6
CONTINUOUS
 10
-33.7177980422
 20
9.7731135348
 11
-33.7114718546
 21
10.2897840012
  0
LINE
  5
3F6
100
AcDbEntity
  8
CURVE
100
AcDbLine
 62
250
  6
CONTINUOUS
 10
-33.7336443473
 20
8.5166837604
 11
-33.7330602956
 21
8.5626680785
  0
LINE
  5
3F7
100
AcDbEntity
  8
CURVE
100
AcDbLine
 62
250
  6
CONTINUOUS
 10
-33.6036438875
 20
13.6355850753
 11
-33.6068080679
 21
13.4228286985
  0
LINE
  5
3F8
100
AcDbEntity
  8
CURVE
100
AcDbLine
 62
250
  6
CONTINUOUS
 10
-33.7241198768
 20
9.9188881034
 11
-33.7305968974
 21
9.4551804263
  0
LINE
  5
3F9
100
AcDbEntity
  8
CURVE
100
AcDbLine
 62
250
  6
CONTINUOUS
 10
-33.5884743564
 20
13.7847069899
 11
-33.581614335
 21
14.2519199297
  0
LINE
  5
3FA
100
AcDbEntity
  8
CURVE
100
AcDbLine
 62
250
  6
CONTINUOUS
 10
-33.6465325304
 20
11.1001853554
 11
-33.6460182915
 21
11.1330555787
  0
LINE
  5
3FB
100
AcDbEntity
  8
ASSI
100
AcDbLine
 62
7
  6
CONTINUOUS
 10
-33.7504959125
 20
-0.746951288
 11
-33.753935715
 21
-0.9594869197
  0
LINE
  5
3FC
100
AcDbEntity
  8
CURVE
100
AcDbLine
 62
250
  6
CONTINUOUS
 10
-33.7187617005
 20
9.7157823454
 11
-33.7177980422
 21
9.7731135348
  0
LINE
  5
3FD
100
AcDbEntity
  8
ASSI
100
AcDbLine
 62
250
  6
CONTINUOUS
 10
-33.753935715
 20
-0.9594869197
 11
-33.7525749149
 21
-0.9063967849
  0
LINE
  5
3FE
100
AcDbEntity
  8
CURVE
100
AcDbLine
 62
250
  6
CONTINUOUS
 10
-33.7114718546
 20
10.2897840012
 11
-33.7031170001
 21
10.7727837606
  0
LINE
  5
3FF
100
AcDbEntity
  8
CURVE
100
AcDbLine
 62
250
  6
CONTINUOUS
 10
-33.6399314613
 20
12.5661455403
 11
-33.6394028614
 21
12.5969753977
  0
LINE
  5
400
100
AcDbEntity
  8
CURVE
100
AcDbLine
 62
250
  6
CONTINUOUS
 10
-33.7346649399
 20
8.4583245015
 11
-33.7336443473
 21
8.5166837604
  0
LINE
  5
401
100
AcDbEntity
  8
CURVE
100
AcDbLine
 62
250
  6
CONTINUOUS
 10
-33.7154236635
 20
10.3810858971
 11
-33.7241198768
 21
9.9188881034
  0
LINE
  5
402
100
AcDbEntity
  8
CURVE
100
AcDbLine
 62
250
  6
CONTINUOUS
 10
-33.5956500483
 20
14.0530799345
 11
-33.6036438875
 21
13.6355850753
  0
LINE
  5
403
100
AcDbEntity
  8
CURVE
100
AcDbLine
 62
250
  6
CONTINUOUS
 10
-33.5890643779
 20
13.7542852251
 11
-33.5884743564
 21
13.7847069899
  0
LINE
  5
404
100
AcDbEntity
  8
CURVE
100
AcDbLine
 62
250
  6
CONTINUOUS
 10
-33.581614335
 20
14.2519199297
 11
-33.5723270919
 21
14.7004861272
  0
LINE
  5
405
100
AcDbEntity
  8
CURVE
100
AcDbLine
 62
250
  6
CONTINUOUS
 10
-33.6474365667
 20
11.0561748037
 11
-33.6465325304
 21
11.1001853554
  0
LINE
  5
406
100
AcDbEntity
  8
CURVE
100
AcDbLine
 62
250
  6
CONTINUOUS
 10
-33.7203087599
 20
9.6429845125
 11
-33.7187617005
 21
9.7157823454
  0
LINE
  5
407
100
AcDbEntity
  8
ASSI
100
AcDbLine
 62
7
  6
CONTINUOUS
 10
-33.753935715
 20
-0.9594869197
 11
-33.7580289468
 21
-1.152146221
  0
LINE
  5
408
100
AcDbEntity
  8
CURVE
100
AcDbLine
 62
250
  6
CONTINUOUS
 10
-33.6410962183
 20
12.5133040551
 11
-33.6399314613
 21
12.5661455403
  0
LINE
  5
409
100
AcDbEntity
  8
CURVE
100
AcDbLine
 62
250
  6
CONTINUOUS
 10
-33.7359804271
 20
8.3996801223
 11
-33.7346649399
 21
8.4583245015
  0
LINE
  5
40A
100
AcDbEntity
  8
ASSI
100
AcDbLine
 62
250
  6
CONTINUOUS
 10
-33.7580289468
 20
-1.152146221
 11
-33.7573909368
 21
-1.1438639498
  0
LINE
  5
40B
100
AcDbEntity
  8
CURVE
100
AcDbLine
 62
250
  6
CONTINUOUS
 10
-33.590181304
 20
13.7078130028
 11
-33.5890643779
 21
13.7542852251
  0
LINE
  5
40C
100
AcDbEntity
  8
CURVE
100
AcDbLine
 62
250
  6
CONTINUOUS
 10
-33.5852414946
 20
14.4737925537
 11
-33.5956500483
 21
14.0530799345
  0
LINE
  5
40D
100
AcDbEntity
  8
CURVE
100
AcDbLine
 62
250
  6
CONTINUOUS
 10
-33.6484154159
 20
11.0175025109
 11
-33.6474365667
 21
11.0561748037
  0
LINE
  5
40E
100
AcDbEntity
  8
ASSI
100
AcDbLine
 62
7
  6
CONTINUOUS
 10
-33.7580289468
 20
-1.152146221
 11
-33.7616694587
 21
-1.2913605996
  0
LINE
  5
40F
100
AcDbEntity
  8
CURVE
100
AcDbLine
 62
250
  6
CONTINUOUS
 10
-33.7222480577
 20
9.5681653986
 11
-33.7203087599
 21
9.6429845125
  0
LINE
  5
410
100
AcDbEntity
  8
CURVE
100
AcDbLine
 62
250
  6
CONTINUOUS
 10
-33.5723270919
 20
14.7004861272
 11
-33.5602631889
 21
15.1527200014
  0
LINE
  5
411
100
AcDbEntity
  8
CURVE
100
AcDbLine
 62
250
  6
CONTINUOUS
 10
-33.6429406841
 20
12.44407929
 11
-33.6410962183
 21
12.5133040551
  0
LINE
  5
412
100
AcDbEntity
  8
CURVE
100
AcDbLine
 62
250
  6
CONTINUOUS
 10
-33.7373638787
 20
8.3488067843
 11
-33.7359804271
 21
8.3996801223
  0
LINE
  5
413
100
AcDbEntity
  8
CURVE
100
AcDbLine
 62
250
  6
CONTINUOUS
 10
-33.591858598
 20
13.6496035024
 11
-33.590181304
 21
13.7078130028
  0
LINE
  5
414
100
AcDbEntity
  8
CURVE
100
AcDbLine
 62
250
  6
CONTINUOUS
 10
-33.5723989754
 20
14.8977107925
 11
-33.5852414946
 21
14.4737925537
  0
LINE
  5
415
100
AcDbEntity
  8
CURVE
100
AcDbLine
 62
250
  6
CONTINUOUS
 10
-33.6498342828
 20
10.9704599681
 11
-33.6484154159
 21
11.0175025109
  0
LINE
  5
416
100
AcDbEntity
  8
CURVE
100
AcDbLine
 62
250
  6
CONTINUOUS
 10
-33.7241864386
 20
9.5046772542
 11
-33.7222480577
 21
9.5681653986
  0
LINE
  5
417
100
AcDbEntity
  8
ASSI
100
AcDbLine
 62
7
  6
CONTINUOUS
 10
-33.7616694587
 20
-1.2913605996
 11
-33.7655343726
 21
-1.4170273471
  0
LINE
  5
418
100
AcDbEntity
  8
CURVE
100
AcDbLine
 62
250
  6
CONTINUOUS
 10
-33.680137673
 20
11.6547183675
 11
-33.7154236635
 21
10.3810858971
  0
LINE
  5
419
100
AcDbEntity
  8
CURVE
100
AcDbLine
 62
250
  6
CONTINUOUS
 10
-33.6454510638
 20
12.3638915164
 11
-33.6429406841
 21
12.44407929
  0
LINE
  5
41A
100
AcDbEntity
  8
CURVE
100
AcDbLine
 62
250
  6
CONTINUOUS
 10
-33.7386012653
 20
8.3099192955
 11
-33.7373638787
 21
8.3488067843
  0
LINE
  5
41B
100
AcDbEntity
  8
CURVE
100
AcDbLine
 62
250
  6
CONTINUOUS
 10
-33.5602631889
 20
15.1527200014
 11
-33.5454017734
 21
15.6086121782
  0
LINE
  5
41C
100
AcDbEntity
  8
CURVE
100
AcDbLine
 62
250
  6
CONTINUOUS
 10
-33.5939425423
 20
13.5878413164
 11
-33.591858598
 21
13.6496035024
  0
LINE
  5
41D
100
AcDbEntity
  8
CURVE
100
AcDbLine
 62
250
  6
CONTINUOUS
 10
-33.5571064209
 20
15.3248291118
 11
-33.5723989754
 21
14.8977107925
  0
LINE
  5
41E
100
AcDbEntity
  8
CURVE
100
AcDbLine
 62
250
  6
CONTINUOUS
 10
-33.7256291551
 20
9.4636147698
 11
-33.7241864386
 21
9.5046772542
  0
LINE
  5
41F
100
AcDbEntity
  8
CURVE
100
AcDbLine
 62
250
  6
CONTINUOUS
 10
-33.6632989062
 20
12.1170288603
 11
-33.680137673
 21
11.6547183675
  0
LINE
  5
420
100
AcDbEntity
  8
CURVE
100
AcDbLine
 62
250
  6
CONTINUOUS
 10
-33.6513165712
 20
10.928591484
 11
-33.6498342828
 21
10.9704599681
  0
LINE
  5
421
100
AcDbEntity
  8
ASSI
100
AcDbLine
 62
7
  6
CONTINUOUS
 10
-33.7655343726
 20
-1.4170273471
 11
-33.7695557301
 21
-1.5289620149
  0
LINE
  5
422
100
AcDbEntity
  8
CURVE
100
AcDbLine
 62
250
  6
CONTINUOUS
 10
-33.7396159195
 20
8.2820823991
 11
-33.7386012653
 21
8.3099192955
  0
LINE
  5
423
100
AcDbEntity
  8
CURVE
100
AcDbLine
 62
250
  6
CONTINUOUS
 10
-33.5454017734
 20
15.6086121782
 11
-33.5346930828
 21
15.8959439829
  0
LINE
  5
424
100
AcDbEntity
  8
CURVE
100
AcDbLine
 62
250
  6
CONTINUOUS
 10
-33.6481383288
 20
12.2894598618
 11
-33.6454510638
 21
12.3638915164
  0
LINE
  5
425
100
AcDbEntity
  8
CURVE
100
AcDbLine
 62
250
  6
CONTINUOUS
 10
-33.6893852657
 20
11.2683094831
 11
-33.6711615379
 21
11.7485380177
  0
LINE
  5
426
100
AcDbEntity
  8
CURVE
100
AcDbLine
 62
250
  6
CONTINUOUS
 10
-33.5959521927
 20
13.5354500889
 11
-33.5939425423
 21
13.5878413164
  0
LINE
  5
427
100
AcDbEntity
  8
CURVE
100
AcDbLine
 62
250
  6
CONTINUOUS
 10
-33.7265495637
 20
9.4404024435
 11
-33.7256291551
 21
9.4636147698
  0
LINE
  5
428
100
AcDbEntity
  8
CURVE
100
AcDbLine
 62
250
  6
CONTINUOUS
 10
-33.6525899979
 20
10.8970588756
 11
-33.6513165712
 21
10.928591484
  0
LINE
  5
429
100
AcDbEntity
  8
CURVE
100
AcDbLine
 62
250
  6
CONTINUOUS
 10
-33.7403778557
 20
8.2634962133
 11
-33.7396159195
 21
8.2820823991
  0
LINE
  5
42A
100
AcDbEntity
  8
ASSI
100
AcDbLine
 62
7
  6
CONTINUOUS
 10
-33.7695557301
 20
-1.5289620149
 11
-33.7726320185
 21
-1.6039724865
  0
LINE
  5
42B
100
AcDbEntity
  8
CURVE
100
AcDbLine
 62
250
  6
CONTINUOUS
 10
-33.6499735504
 20
12.2444331983
 11
-33.6481383288
 21
12.2894598618
  0
LINE
  5
42C
100
AcDbEntity
  8
CURVE
100
AcDbLine
 62
250
  6
CONTINUOUS
 10
-33.6438990033
 20
12.5896793589
 11
-33.6632989062
 21
12.1170288603
  0
LINE
  5
42D
100
AcDbEntity
  8
CURVE
100
AcDbLine
 62
250
  6
CONTINUOUS
 10
-33.6711615379
 20
11.7485380177
 11
-33.6499735504
 21
12.2444331983
  0
LINE
  5
42E
100
AcDbEntity
  8
CURVE
100
AcDbLine
 62
250
  6
CONTINUOUS
 10
-33.5980298991
 20
13.4871105669
 11
-33.5959521927
 21
13.5354500889
  0
LINE
  5
42F
100
AcDbEntity
  8
CURVE
100
AcDbLine
 62
250
  6
CONTINUOUS
 10
-33.727205531
 20
9.4254822077
 11
-33.7265495637
 21
9.4404024435
  0
LINE
  5
430
100
AcDbEntity
  8
CURVE
100
AcDbLine
 62
250
  6
CONTINUOUS
 10
-33.7411265046
 20
8.2471069833
 11
-33.7403778557
 21
8.2634962133
  0
LINE
  5
431
100
AcDbEntity
  8
ASSI
100
AcDbLine
 62
7
  6
CONTINUOUS
 10
-33.7726320185
 20
-1.6039724865
 11
-33.7757149537
 21
-1.671323557
  0
LINE
  5
432
100
AcDbEntity
  8
CURVE
100
AcDbLine
 62
250
  6
CONTINUOUS
 10
-33.6539215983
 20
10.8678633839
 11
-33.6525899979
 21
10.8970588756
  0
LINE
  5
433
100
AcDbEntity
  8
CURVE
100
AcDbLine
 62
250
  6
CONTINUOUS
 10
-33.642757944
 20
12.6139388258
 11
-33.6438990033
 21
12.5896793589
  0
LWPOLYLINE
  5
434
100
AcDbEntity
  8
ASSI
100
AcDbPolyline
 62
7
  6
CONTINUOUS
 90
10
 70
0
 10
-33.3088310692
 20
20.7951512187
 10
-33.4169222275
 20
18.6118114541
 10
-33.5167140761
 20
16.3396906887
 10
-33.6035866169
 20
14.0670449361
 10
-33.6775368574
 20
11.7939476415
 10
-33.7385618049
 20
9.5204722674
 10
-33.7866584664
 20
7.2466922936
 10
-33.8218244717
 20
4.9726812014
 10
-33.8440594972
 20
2.6985125213
 10
-33.8489537169
 20
1.8684809434
  0
LINE
  5
435
100
AcDbEntity
  8
CURVE
100
AcDbLine
 62
250
  6
CONTINUOUS
 10
-33.5996971102
 20
13.4524756522
 11
-33.5980298991
 21
13.4871105669
  0
LINE
  5
436
100
AcDbEntity
  8
CURVE
100
AcDbLine
 62
250
  6
CONTINUOUS
 10
-33.7278242322
 20
9.4128472292
 11
-33.727205531
 21
9.4254822077
  0
LINE
  5
437
100
AcDbEntity
  8
CURVE
100
AcDbLine
 62
250
  6
CONTINUOUS
 10
-33.6549397628
 20
10.8480023342
 11
-33.6539215983
 21
10.8678633839
  0
LINE
  5
438
100
AcDbEntity
  8
ASSI
100
AcDbLine
 62
7
  6
CONTINUOUS
 10
-33.7757149537
 20
-1.671323557
 11
-33.7787800172
 21
-1.731038932
  0
LINE
  5
439
100
AcDbEntity
  8
CURVE
100
AcDbLine
 62
250
  6
CONTINUOUS
 10
-33.7418516056
 20
8.2330163195
 11
-33.7411265046
 21
8.2471069833
  0
LINE
  5
43A
100
AcDbEntity
  8
ASSI
100
AcDbLine
 62
250
  6
CONTINUOUS
 10
-33.7809020428
 20
-1.7855002562
 11
-33.78080135
 21
-1.7666410496
  0
LWPOLYLINE
  5
43B
100
AcDbEntity
  8
ASSI
100
AcDbPolyline
 62
250
  6
CONTINUOUS
 90
3
 70
0
 10
-33.7787800172
 20
-1.731038932
 10
-33.7771248997
 20
-1.7160155041
 10
-33.7777616255
 20
-1.711977953
  0
LINE
  5
43C
100
AcDbEntity
  8
CURVE
100
AcDbLine
 62
250
  6
CONTINUOUS
 10
-33.6419620441
 20
12.6289506915
 11
-33.642757944
 21
12.6139388258
  0
LINE
  5
43D
100
AcDbEntity
  8
CURVE
100
AcDbLine
 62
250
  6
CONTINUOUS
 10
-33.6009872114
 20
13.4284106752
 11
-33.5996971102
 21
13.4524756522
  0
LINE
  5
43E
100
AcDbEntity
  8
CURVE
100
AcDbLine
 62
250
  6
CONTINUOUS
 10
-33.7282121321
 20
9.4057525885
 11
-33.7278242322
 21
9.4128472292
  0
LINE
  5
43F
100
AcDbEntity
  8
ASSI
100
AcDbLine
 62
7
  6
CONTINUOUS
 10
-33.7787800172
 20
-1.731038932
 11
-33.78080135
 21
-1.7666410496
  0
LINE
  5
440
100
AcDbEntity
  8
CURVE
100
AcDbLine
 62
250
  6
CONTINUOUS
 10
-33.6559585234
 20
10.8301921414
 11
-33.6549397628
 21
10.8480023342
  0
LINE
  5
441
100
AcDbEntity
  8
CURVE
100
AcDbLine
 62
250
  6
CONTINUOUS
 10
-33.6019265973
 20
13.4125164836
 11
-33.6009872114
 21
13.4284106752
  0
LINE
  5
442
100
AcDbEntity
  8
ASSI
100
AcDbLine
 62
250
  6
CONTINUOUS
 10
-33.7847212017
 20
-1.8462199956
 11
-33.7837732174
 21
-1.8137808132
  0
LINE
  5
443
100
AcDbEntity
  8
ASSI
100
AcDbLine
 62
7
  6
CONTINUOUS
 10
-33.78080135
 20
-1.7666410496
 11
-33.7827926142
 21
-1.7988968561
  0
LINE
  5
444
100
AcDbEntity
  8
ASSI
100
AcDbLine
 62
250
  6
CONTINUOUS
 10
-33.7455998156
 20
-0.5995483854
 11
-33.7489234575
 21
-0.6512551053
  0
LINE
  5
445
100
AcDbEntity
  8
CURVE
100
AcDbLine
 62
250
  6
CONTINUOUS
 10
-33.6566311093
 20
10.8195425315
 11
-33.6559585234
 21
10.8301921414
  0
LINE
  5
446
100
AcDbEntity
  8
CURVE
100
AcDbLine
 62
250
  6
CONTINUOUS
 10
-33.6025298578
 20
13.4031069521
 11
-33.6019265973
 21
13.4125164836
  0
LINE
  5
447
100
AcDbEntity
  8
ASSI
100
AcDbLine
 62
250
  6
CONTINUOUS
 10
-33.7492439778
 20
0.4965068554
 11
-33.7489234575
 21
0.501219429
  0
LINE
  5
448
100
AcDbEntity
  8
ASSI
100
AcDbLine
 62
7
  6
CONTINUOUS
 10
-33.7827926142
 20
-1.7988968561
 11
-33.7847407926
 21
-1.8278306645
  0
LINE
  5
449
100
AcDbEntity
  8
CURVE
100
AcDbLine
 62
250
  6
CONTINUOUS
 10
-33.6572938685
 20
10.809909838
 11
-33.6566311093
 21
10.8195425315
  0
LINE
  5
44A
100
AcDbEntity
  8
CURVE
100
AcDbLine
 62
250
  6
CONTINUOUS
 10
-33.6031073415
 20
13.3947688619
 11
-33.6025298578
 21
13.4031069521
  0
LINE
  5
44B
100
AcDbEntity
  8
ASSI
100
AcDbLine
 62
7
  6
CONTINUOUS
 10
-33.7847407926
 20
-1.8278306645
 11
-33.7866188963
 21
-1.8532953849
  0
LWPOLYLINE
  5
44C
100
AcDbEntity
  8
ASSI
100
AcDbPolyline
 62
7
  6
CONTINUOUS
 90
9
 70
0
 10
-33.7866188963
 20
-1.8532953849
 10
-33.7884025008
 20
-1.8752054892
 10
-33.7892456296
 20
-1.8847612509
 10
-33.7900516081
 20
-1.8933944122
 10
-33.7908045582
 20
-1.9009973661
 10
-33.7915021211
 20
-1.9076195057
 10
-33.7921352212
 20
-1.9132505399
 10
-33.7926710863
 20
-1.9177022412
 10
-33.7931088595
 20
-1.9210874524
  0
LWPOLYLINE
  5
44D
100
AcDbEntity
  8
ASSI
100
AcDbPolyline
 62
250
  6
CONTINUOUS
 90
16
 70
0
 10
-32.9517161362
 20
20.8023867221
 10
-32.9434935687
 20
20.9003638128
 10
-32.9272695559
 20
20.9973313988
 10
-32.9031547916
 20
21.092639071
 10
-32.8713147807
 20
21.1856398607
 10
-32.8319636834
 20
21.2757191439
 10
-32.7853563509
 20
21.3622959738
 10
-32.7317948424
 20
21.4447952414
 10
-32.6716384555
 20
21.5226526984
 10
-32.6052922165
 20
21.5953416597
 10
-32.5331960924
 20
21.662372307
 10
-32.4558313512
 20
21.7232908421
 10
-32.3737240641
 20
21.7776821297
 10
-32.2874276088
 20
21.8251761687
 10
-32.197514464
 20
21.8654550521
 10
-32.1045812864
 20
21.8982490768
  0
LWPOLYLINE
  5
44E
100
AcDbEntity
  8
ASSI
100
AcDbPolyline
 62
250
  6
CONTINUOUS
 90
19
 70
0
 10
-32.4664061544
 20
20.7810340984
 10
-32.4615288193
 20
20.8384469421
 10
-32.4521280103
 20
20.8946452099
 10
-32.4382037274
 20
20.9496289018
 10
-32.419603634
 20
21.0037846695
 10
-32.3964800667
 20
21.0567258613
 10
-32.3692900359
 20
21.1072925217
 10
-32.3379517696
 20
21.1554061973
 10
-32.3025470398
 20
21.2011453415
 10
-32.2637781724
 20
21.243585359
 10
-32.221572806
 20
21.2826598835
 10
-32.176003302
 20
21.3184352812
 10
-32.1279890703
 20
21.3501860548
 10
-32.0774490373
 20
21.3778300043
 10
-32.0244642767
 20
21.4014493298
 10
-31.970197419
 20
21.4205651347
 10
-31.9150360076
 20
21.4350177867
 10
-31.8585924991
 20
21.444966918
 10
-31.8008668935
 20
21.4504125287
  0
LWPOLYLINE
  5
44F
100
AcDbEntity
  8
ASSI
100
AcDbPolyline
 62
250
  6
CONTINUOUS
 90
4
 70
0
 10
-33.791279968
 20
-1.9055105505
 10
-33.7943684085
 20
-1.9147832997
 10
-33.8042751736
 20
-1.9660257892
 10
-33.8074279587
 20
-2.0181224455
  0
LINE
  5
450
100
AcDbEntity
  8
ASSI
100
AcDbLine
 62
7
  6
CONTINUOUS
 10
-33.7878886682
 20
1.719089101
 11
-33.7860507897
 21
1.6958103759
  0
LWPOLYLINE
  5
451
100
AcDbEntity
  8
ASSI
100
AcDbPolyline
 62
250
  6
CONTINUOUS
 90
7
 70
0
 10
-33.7847112931
 20
1.6960381107
 10
-33.7885700348
 20
1.7479073515
 10
-33.7924534049
 20
1.7910164945
 10
-33.7962908241
 20
1.8246596361
 10
-33.8000592694
 20
1.848601449
 10
-33.8037752513
 20
1.8630771827
 10
-33.8074335909
 20
1.8680867964
  0
LINE
  5
452
100
AcDbEntity
  8
ASSI
100
AcDbLine
 62
7
  6
CONTINUOUS
 10
-33.7860507897
 20
1.6958103759
 11
-33.7841275705
 21
1.6689669343
  0
LINE
  5
453
100
AcDbEntity
  8
ASSI
100
AcDbLine
 62
250
  6
CONTINUOUS
 10
-33.7492439776
 20
-0.6465425053
 11
-33.7489234575
 21
-0.6512551053
  0
LINE
  5
454
100
AcDbEntity
  8
ASSI
100
AcDbLine
 62
250
  6
CONTINUOUS
 10
-33.7456002037
 20
0.4495157091
 11
-33.7489234575
 21
0.501219429
  0
LINE
  5
455
100
AcDbEntity
  8
ASSI
100
AcDbLine
 62
7
  6
CONTINUOUS
 10
-33.7841275705
 20
1.6689669343
 11
-33.782143555
 21
1.6386538612
  0
LINE
  5
456
100
AcDbEntity
  8
ASSI
100
AcDbLine
 62
250
  6
CONTINUOUS
 10
-33.7841275705
 20
1.6689669343
 11
-33.7847112931
 21
1.6960381107
  0
LINE
  5
457
100
AcDbEntity
  8
ASSI
100
AcDbLine
 62
7
  6
CONTINUOUS
 10
-33.7822433097
 20
1.6402371143
 11
-33.7801179009
 21
1.6048972543
  0
LINE
  5
458
100
AcDbEntity
  8
ASSI
100
AcDbLine
 62
250
  6
CONTINUOUS
 10
-33.7802221325
 20
1.6067023045
 11
-33.7808923559
 21
1.6353021393
  0
LINE
  5
459
100
AcDbEntity
  8
ASSI
100
AcDbLine
 62
7
  6
CONTINUOUS
 10
-33.7802221325
 20
1.6067023045
 11
-33.7780646038
 21
1.5676900871
  0
LINE
  5
45A
100
AcDbEntity
  8
ASSI
100
AcDbLine
 62
7
  6
CONTINUOUS
 10
-33.7781727361
 20
1.5697290091
 11
-33.7749539613
 21
1.5053481712
  0
LINE
  5
45B
100
AcDbEntity
  8
ASSI
100
AcDbLine
 62
250
  6
CONTINUOUS
 10
-33.7750674881
 20
1.5077604263
 11
-33.7771158974
 21
1.5658061363
  0
LINE
  5
45C
100
AcDbEntity
  8
ASSI
100
AcDbLine
 62
7
  6
CONTINUOUS
 10
-33.7750674881
 20
1.5077604263
 11
-33.7718272944
 21
1.4351142088
  0
LINE
  5
45D
100
AcDbEntity
  8
ASSI
100
AcDbLine
 62
250
  6
CONTINUOUS
 10
-33.7719459418
 20
1.4379178585
 11
-33.7734449908
 21
1.4885759938
  0
LWPOLYLINE
  5
45E
100
AcDbEntity
  8
ASSI
100
AcDbPolyline
 62
250
  6
CONTINUOUS
 90
9
 70
0
 10
-32.4664061725
 20
-20.9310697719
 10
-32.559931084
 20
-18.6012195754
 10
-32.642077833
 20
-16.3092482536
 10
-32.7128464197
 20
-14.0551558064
 10
-32.7716795268
 20
-11.8640995698
 10
-32.8191344715
 20
-9.7109222079
 10
-32.8568832053
 20
-7.5201517129
 10
-32.8854830454
 20
-5.2666307489
 10
-32.9043766747
 20
-2.9755166518
  0
LINE
  5
45F
100
AcDbEntity
  8
ASSI
100
AcDbLine
 62
7
  6
CONTINUOUS
 10
-33.7719459418
 20
1.4379178585
 11
-33.7688389236
 21
1.3602048666
  0
LWPOLYLINE
  5
460
100
AcDbEntity
  8
CURVE
100
AcDbPolyline
 62
250
  6
CONTINUOUS
 90
13
 70
0
 10
-33.646169495
 20
11.2451639411
 10
-33.6462846406
 20
11.2485820764
 10
-33.6464080639
 20
11.2517238666
 10
-33.6465393463
 20
11.2545886493
 10
-33.6467139265
 20
11.2577803056
 10
-33.6468996935
 20
11.2605441811
 10
-33.6470962086
 20
11.2628863541
 10
-33.6473030329
 20
11.2648129032
 10
-33.6474757936
 20
11.2660575782
 10
-33.6476556875
 20
11.2670348589
 10
-33.6478435308
 20
11.26773946
 10
-33.6480401396
 20
11.2681660965
 10
-33.64824633
 20
11.2683094831
  0
LWPOLYLINE
  5
461
100
AcDbEntity
  8
CURVE
100
AcDbPolyline
 62
250
  6
CONTINUOUS
 90
11
 70
0
 10
-33.7332641796
 20
8.6761911073
 10
-33.7333573441
 20
8.6791089217
 10
-33.7334819343
 20
8.6823588899
 10
-33.7336152157
 20
8.6851726362
 10
-33.7337568553
 20
8.6875566958
 10
-33.7339065203
 20
8.6895176036
 10
-33.7340319384
 20
8.6907845872
 10
-33.7341628988
 20
8.6917794933
 10
-33.7343000202
 20
8.6924968791
 10
-33.7344439217
 20
8.6929313019
 10
-33.7345952222
 20
8.693077319
  0
LINE
  5
462
100
AcDbEntity
  8
CURVE
100
AcDbLine
 62
250
  6
CONTINUOUS
 10
-33.645965712
 20
11.2375012851
 11
-33.646169495
 21
11.2451639411
  0
LWPOLYLINE
  5
463
100
AcDbEntity
  8
CURVE
100
AcDbPolyline
 62
250
  6
CONTINUOUS
 90
13
 70
0
 10
-33.7306743301
 20
9.3958588092
 10
-33.730639318
 20
9.39437736
 10
-33.7306009289
 20
9.3930109566
 10
-33.7305591421
 20
9.3917615549
 10
-33.7305139369
 20
9.3906311108
 10
-33.7304652926
 20
9.38962158
 10
-33.7304131759
 20
9.3887351935
 10
-33.7303575022
 20
9.3879752818
 10
-33.7302981744
 20
9.3873454506
 10
-33.7302350952
 20
9.3868493055
 10
-33.7301681674
 20
9.386490452
 10
-33.7300972938
 20
9.3862724958
 10
-33.7300223772
 20
9.3861990425
  0
LINE
  5
464
100
AcDbEntity
  8
CURVE
100
AcDbLine
 62
250
  6
CONTINUOUS
 10
-33.7330964899
 20
8.6695071521
 11
-33.7332641796
 21
8.6761911073
  0
LINE
  5
465
100
AcDbEntity
  8
CURVE
100
AcDbLine
 62
250
  6
CONTINUOUS
 10
-33.6458249633
 20
11.2302918071
 11
-33.645965712
 21
11.2375012851
  0
LINE
  5
466
100
AcDbEntity
  8
CURVE
100
AcDbLine
 62
250
  6
CONTINUOUS
 10
-33.7329558416
 20
8.6616950396
 11
-33.7330964899
 21
8.6695071521
  0
LWPOLYLINE
  5
467
100
AcDbEntity
  8
CURVE
100
AcDbPolyline
 62
250
  6
CONTINUOUS
 90
21
 70
0
 10
-33.6391155548
 20
12.6437146317
 10
-33.6391509265
 20
12.64626056
 10
-33.6391963054
 20
12.6484947006
 10
-33.6392515764
 20
12.6504139474
 10
-33.6393167331
 20
12.6520154534
 10
-33.6393917967
 20
12.6532964362
 10
-33.639476788
 20
12.6542541137
 10
-33.639571728
 20
12.6548857035
 10
-33.6396765486
 20
12.6551900943
 10
-33.6397908247
 20
12.6551728579
 10
-33.6399140423
 20
12.6548412372
 10
-33.6400456872
 20
12.6542024747
 10
-33.6401852453
 20
12.6532638133
 10
-33.6403072867
 20
12.6522574804
 10
-33.6404345837
 20
12.6510506003
 10
-33.6405672536
 20
12.6496458593
 10
-33.6407762706
 20
12.6471757279
 10
-33.6409961237
 20
12.6442880779
 10
-33.6412254288
 20
12.6410038447
 10
-33.6414633317
 20
12.6373412084
 10
-33.6419620441
 20
12.6289506915
  0
LINE
  5
468
100
AcDbEntity
  8
CURVE
100
AcDbLine
 62
250
  6
CONTINUOUS
 10
-33.6457130774
 20
11.2224081774
 11
-33.6458249633
 21
11.2302918071
  0
LINE
  5
469
100
AcDbEntity
  8
CURVE
100
AcDbLine
 62
250
  6
CONTINUOUS
 10
-33.7328612036
 20
8.6543441637
 11
-33.7329558416
 21
8.6616950396
  0
LWPOLYLINE
  5
46A
100
AcDbEntity
  8
CURVE
100
AcDbPolyline
 62
250
  6
CONTINUOUS
 90
3
 70
0
 10
-33.7307809924
 20
9.4028975857
 10
-33.7307593071
 20
9.4009740783
 10
-33.7307059858
 20
9.3974533484
  0
LWPOLYLINE
  5
46B
100
AcDbEntity
  8
CURVE
100
AcDbPolyline
 62
250
  6
CONTINUOUS
 90
24
 70
0
 10
-33.6069548236
 20
13.3905664605
 10
-33.6069199334
 20
13.386591441
 10
-33.6068679239
 20
13.3829852131
 10
-33.6067984062
 20
13.3797672409
 10
-33.6067109964
 20
13.3769579762
 10
-33.6066053107
 20
13.3745778709
 10
-33.6065245663
 20
13.3732395536
 10
-33.6064357482
 20
13.372106512
 10
-33.6063390761
 20
13.3711841949
 10
-33.6062346494
 20
13.3704780152
 10
-33.6061220864
 20
13.3699932437
 10
-33.606000885
 20
13.3697351157
 10
-33.605843563
 20
13.3697301662
 10
-33.6056735861
 20
13.3700577515
 10
-33.6054914614
 20
13.3707165013
 10
-33.6052976959
 20
13.3717050451
 10
-33.6050927968
 20
13.3730220127
 10
-33.6048772595
 20
13.3746651389
 10
-33.6046515327
 20
13.3766285796
 10
-33.6044160532
 20
13.378905596
 10
-33.604171258
 20
13.3814894492
 10
-33.6039175839
 20
13.3843734005
 10
-33.6036554563
 20
13.3875510965
 10
-33.6031073415
 20
13.3947688619
  0
LINE
  5
46C
100
AcDbEntity
  8
CURVE
100
AcDbLine
 62
250
  6
CONTINUOUS
 10
-33.6456018972
 20
11.2093517847
 11
-33.6457130774
 21
11.2224081774
  0
LINE
  5
46D
100
AcDbEntity
  8
CURVE
100
AcDbLine
 62
250
  6
CONTINUOUS
 10
-33.6390754025
 20
12.6377000967
 11
-33.6391155548
 21
12.6437146317
  0
LINE
  5
46E
100
AcDbEntity
  8
ASSI
100
AcDbLine
 62
250
  6
CONTINUOUS
 10
-32.9141101056
 20
-0.5433004521
 11
-32.9043766747
 21
-2.9755166518
  0
LINE
  5
46F
100
AcDbEntity
  8
CURVE
100
AcDbLine
 62
250
  6
CONTINUOUS
 10
-33.6455669292
 20
11.1997604308
 11
-33.6456018972
 21
11.2093517847
  0
LINE
  5
470
100
AcDbEntity
  8
CURVE
100
AcDbLine
 62
250
  6
CONTINUOUS
 10
-33.6069748866
 20
13.3995618079
 11
-33.6069548236
 21
13.3905664605
  0
LINE
  5
471
100
AcDbEntity
  8
ASSI
100
AcDbLine
 62
250
  6
CONTINUOUS
 10
-32.913905357
 20
0.296802195
 11
-32.9141099893
 21
0.3932610679
  0
LINE
  5
472
100
AcDbEntity
  8
CURVE
100
AcDbLine
 62
250
  6
CONTINUOUS
 10
-33.5678753354
 20
-14.56152091
 11
-33.5678867845
 21
-14.5524252949
  0
LWPOLYLINE
  5
473
100
AcDbEntity
  8
ASSI
100
AcDbPolyline
 62
250
  6
CONTINUOUS
 90
10
 70
0
 10
-33.3986150534
 20
0.498088632
 10
-33.3917391687
 20
2.5768276191
 10
-33.3756808186
 20
4.6881381404
 10
-33.3500165443
 20
6.8319771374
 10
-33.3146117468
 20
8.9924645403
 10
-33.2688789631
 20
11.1853857721
 10
-33.2110630481
 20
13.4581765978
 10
-33.1395301032
 20
15.8265861836
 10
-33.0534820204
 20
18.2746911342
 10
-32.9517161424
 20
20.8023867227
  0
LINE
  5
474
100
AcDbEntity
  8
CURVE
100
AcDbLine
 62
250
  6
CONTINUOUS
 10
-33.6156119949
 20
-13.3808054907
 11
-33.6155918921
 21
-13.374110682
  0
LINE
  5
475
100
AcDbEntity
  8
ASSI
100
AcDbLine
 62
250
  6
CONTINUOUS
 10
-32.9141099893
 20
0.3932610679
 11
-32.9074003378
 21
2.5735850876
  0
LWPOLYLINE
  5
476
100
AcDbEntity
  8
ASSI
100
AcDbPolyline
 62
250
  6
CONTINUOUS
 90
9
 70
0
 10
-32.9074003378
 20
2.5735850876
 10
-32.891190403
 20
4.6828284954
 10
-32.8649342237
 20
6.8245039684
 10
-32.8297436466
 20
8.9828558057
 10
-32.7845068251
 20
11.1736397081
 10
-32.7258882191
 20
13.4441227782
 10
-32.652775982
 20
15.8100607171
 10
-32.5662819604
 20
18.2556978238
 10
-32.4664061544
 20
20.7810340984
  0
LINE
  5
477
100
AcDbEntity
  8
CURVE
100
AcDbLine
 62
250
  6
CONTINUOUS
 10
-33.6156455334
 20
-13.3847324276
 11
-33.6156119949
 21
-13.3808054907
  0
LWPOLYLINE
  5
478
100
AcDbEntity
  8
CURVE
100
AcDbPolyline
 62
250
  6
CONTINUOUS
 90
3
 70
0
 10
-33.6157260032
 20
-13.3898019409
 10
-33.6156951574
 20
-13.3882232071
 10
-33.6156455334
 20
-13.3847324276
  0
LWPOLYLINE
  5
479
100
AcDbEntity
  8
CURVE
100
AcDbPolyline
 62
250
  6
CONTINUOUS
 90
5
 70
0
 10
-33.6895340274
 20
-11.5168300677
 10
-33.6895510993
 20
-11.5169782251
 10
-33.6895590747
 20
-11.5174179477
 10
-33.689558226
 20
-11.5181421104
 10
-33.6895488254
 20
-11.5191435886
  0
LWPOLYLINE
  5
47A
100
AcDbEntity
  8
ASSI
100
AcDbPolyline
 62
250
  6
CONTINUOUS
 90
10
 70
0
 10
-32.9065839243
 20
-0.2468246524
 10
-32.9079204796
 20
-0.2502575083
 10
-32.9091744649
 20
-0.2604735068
 10
-32.9103244304
 20
-0.2772979002
 10
-32.9113507057
 20
-0.3004429019
 10
-32.9122357359
 20
-0.3295126097
 10
-32.9129643823
 20
-0.3640097773
 10
-32.9135241814
 20
-0.4033443199
 10
-32.9139055576
 20
-0.4468434082
 10
-32.9141101056
 20
-0.5433004521
  0
LWPOLYLINE
  5
47B
100
AcDbEntity
  8
ASSI
100
AcDbPolyline
 62
250
  6
CONTINUOUS
 90
7
 70
0
 10
-33.8074335909
 20
-2.0181224727
 10
-33.8037782917
 20
-2.0131289273
 10
-33.8000649034
 20
-1.998672582
 10
-33.7962985215
 20
-1.9747534774
 10
-33.7924624291
 20
-1.9411391308
 10
-33.788579689
 20
-1.8980621027
 10
-33.7866188963
 20
-1.8532953849
  0
LWPOLYLINE
  5
47C
100
AcDbEntity
  8
ASSI
100
AcDbPolyline
 62
250
  6
CONTINUOUS
 90
4
 70
0
 10
-33.7912772619
 20
1.7554639372
 10
-33.7943704117
 20
1.7647497997
 10
-33.8042788512
 20
1.815991109
 10
-33.8074335847
 20
1.8680867964
  0
LINE
  5
47D
100
AcDbEntity
  8
ASSI
100
AcDbLine
 62
250
  6
CONTINUOUS
 10
-33.7355966445
 20
0.3983558448
 11
-33.7456002037
 21
0.4495157091
  0
LWPOLYLINE
  5
47E
100
AcDbEntity
  8
ASSI
100
AcDbPolyline
 62
7
  6
CONTINUOUS
 90
12
 70
0
 10
-33.7931354504
 20
1.771778502
 10
-33.793474309
 20
1.7736703183
 10
-33.7935402692
 20
1.7740753246
 10
-33.7933116968
 20
1.7725244629
 10
-33.7929313238
 20
1.7697102933
 10
-33.7924372204
 20
1.7657631755
 10
-33.7918267575
 20
1.7605199453
 10
-33.7911443328
 20
1.7542408324
 10
-33.7904023111
 20
1.7469576004
 10
-33.7896024635
 20
1.7386093088
 10
-33.7887629095
 20
1.7293181493
 10
-33.7878886682
 20
1.719089101
  0
LINE
  5
47F
100
AcDbEntity
  8
ASSI
100
AcDbLine
 62
250
  6
CONTINUOUS
 10
-31.8060136086
 20
21.5541367869
 11
-31.8008668935
 21
21.4504125287
  0
LINE
  5
480
100
AcDbEntity
  8
ASSI
100
AcDbLine
 62
250
  6
CONTINUOUS
 10
-31.8103647425
 20
21.6533356726
 11
-31.8060136086
 21
21.5541367869
  0
LINE
  5
481
100
AcDbEntity
  8
ASSI
100
AcDbLine
 62
250
  6
CONTINUOUS
 10
-31.814995999
 20
-21.9343143793
 11
-31.8121809737
 21
-21.8499044732
  0
LINE
  5
482
100
AcDbEntity
  8
ASSI
100
AcDbLine
 62
250
  6
CONTINUOUS
 10
-31.8121809737
 20
-21.8499044732
 11
-31.8083013321
 21
-21.7546119249
  0
LWPOLYLINE
  5
483
100
AcDbEntity
  8
ASSI
100
AcDbPolyline
 62
250
  6
CONTINUOUS
 90
3
 70
0
 10
-31.8083013321
 20
-21.7546119249
 10
-31.8035263533
 20
-21.6525942586
 10
-31.8008669302
 20
-21.600448203
  0
LWPOLYLINE
  5
484
100
AcDbEntity
  8
0
100
AcDbPolyline
 62
7
  6
CONTINUOUS
 90
3
 70
0
 43
0.3500000019
 10
-20.3464770508
 20
31.3710466309
 10
-20.4179072266
 20
31.1567614746
 10
-20.560762207
 20
30.8710461426
  0
LWPOLYLINE
  5
485
100
AcDbEntity
  8
ASSI
100
AcDbPolyline
 62
250
  6
CONTINUOUS
 90
9
 70
0
 10
-32.9065838597
 20
0.0967889756
 10
-32.9079203218
 20
0.1002215463
 10
-32.9091742379
 20
0.1104367967
 10
-32.9103241583
 20
0.1272601458
 10
-32.9113504111
 20
0.150403959
 10
-32.9122354403
 20
0.1794725103
 10
-32.9129641049
 20
0.2139687865
 10
-32.9135239381
 20
0.2533029347
 10
-32.913905357
 20
0.296802195
  0
LINE
  5
486
100
AcDbEntity
  8
ASSI
100
AcDbLine
 62
7
  6
CONTINUOUS
 10
-28.85365701
 20
-18.0085094393
 11
-28.85365701
 21
-17.7470387592
  0
LINE
  5
487
100
AcDbEntity
  8
ASSI
100
AcDbLine
 62
7
  6
CONTINUOUS
 10
-28.85365701
 20
17.597003083
 11
-28.85365701
 21
17.8584737631
  0
LINE
  5
488
100
AcDbEntity
  8
ASSI
100
AcDbLine
 62
7
  6
CONTINUOUS
 10
-29.2462441711
 20
22.0842948676
 11
-28.45365701
 21
13.0249821619
  0
LINE
  5
489
100
AcDbEntity
  8
ASSI
100
AcDbLine
 62
7
  6
CONTINUOUS
 10
-28.45365701
 20
13.0249821619
 11
-28.45365701
 21
0.0579288717
  0
LINE
  5
48A
100
AcDbEntity
  8
ASSI
100
AcDbLine
 62
7
  6
CONTINUOUS
 10
-28.45365701
 20
-0.207964548
 11
-28.45365701
 21
-13.1750178381
  0
LINE
  5
48B
100
AcDbEntity
  8
ASSI
100
AcDbLine
 62
7
  6
CONTINUOUS
 10
-28.45365701
 20
-13.1750178381
 11
-29.2462441711
 21
-22.2343305439
  0
LINE
  5
48C
100
AcDbEntity
  8
ASSI
100
AcDbLine
 62
250
  6
CONTINUOUS
 10
-33.8489537169
 20
-2.0185166194
 11
-33.8074335909
 21
-2.0181224727
  0
LWPOLYLINE
  5
48D
100
AcDbEntity
  8
ASSI
100
AcDbPolyline
 62
250
  6
CONTINUOUS
 90
12
 70
0
 10
-33.3527563573
 20
-0.2507183403
 10
-33.4057035341
 20
-0.2547079686
 10
-33.4563984656
 20
-0.2653361401
 10
-33.5047521336
 20
-0.2822139035
 10
-33.5508766048
 20
-0.3053249777
 10
-33.5941859705
 20
-0.3346016641
 10
-33.633294342
 20
-0.3692922926
 10
-33.6673287795
 20
-0.4085044658
 10
-33.6960735332
 20
-0.4518906436
 10
-33.7189937319
 20
-0.4988185981
 10
-33.7355952227
 20
-0.5483861455
 10
-33.7455998156
 20
-0.5995483854
  0
LWPOLYLINE
  5
48E
100
AcDbEntity
  8
ASSI
100
AcDbPolyline
 62
250
  6
CONTINUOUS
 90
13
 70
0
 10
-33.0035934091
 20
-0.2476712414
 10
-33.0553277746
 20
-0.2515128878
 10
-33.106126167
 20
-0.2620678594
 10
-33.1551277205
 20
-0.2791572841
 10
-33.2015020194
 20
-0.302491552
 10
-33.2444631716
 20
-0.3316752241
 10
-33.2832831266
 20
-0.3662137328
 10
-33.3173040137
 20
-0.4055217637
 10
-33.3459492903
 20
-0.4489331748
 10
-33.3687335132
 20
-0.4957122851
 10
-33.3852705645
 20
-0.5450663422
 10
-33.3952801956
 20
-0.5961589567
 10
-33.3985927761
 20
-0.6481242766
  0
LINE
  5
48F
100
AcDbEntity
  8
ASSI
100
AcDbLine
 62
250
  6
CONTINUOUS
 10
-33.7489234575
 20
-0.6512551053
 11
-33.3986150555
 21
-0.648124305
  0
LINE
  5
490
100
AcDbEntity
  8
ASSI
100
AcDbLine
 62
250
  6
CONTINUOUS
 10
-32.913564093
 20
-0.6468094217
 11
-28.45365701
 21
-0.6078884022
  0
LINE
  5
491
100
AcDbEntity
  8
ASSI
100
AcDbLine
 62
7
  6
CONTINUOUS
 10
-33.3527563571
 20
-0.2507183403
 11
-28.45365701
 21
-0.207964548
  0
LINE
  5
492
100
AcDbEntity
  8
ASSI
100
AcDbLine
 62
250
  6
CONTINUOUS
 10
-33.3986151176
 20
-0.648124303
 11
-32.9135640894
 21
-0.6468094217
  0
LINE
  5
493
100
AcDbEntity
  8
ASSI
100
AcDbLine
 62
250
  6
CONTINUOUS
 10
-32.9135640249
 20
0.4967737448
 11
-33.3986150512
 21
0.4980886333
  0
LINE
  5
494
100
AcDbEntity
  8
ASSI
100
AcDbLine
 62
7
  6
CONTINUOUS
 10
-28.45365701
 20
0.0579288717
 11
-33.3527563571
 21
0.100682664
  0
LINE
  5
495
100
AcDbEntity
  8
ASSI
100
AcDbLine
 62
250
  6
CONTINUOUS
 10
-28.45365701
 20
0.457852726
 11
-32.9135640282
 21
0.4967737449
  0
LINE
  5
496
100
AcDbEntity
  8
ASSI
100
AcDbLine
 62
250
  6
CONTINUOUS
 10
-33.3986150534
 20
0.498088632
 11
-33.7489234575
 21
0.501219429
  0
LWPOLYLINE
  5
497
100
AcDbEntity
  8
ASSI
100
AcDbPolyline
 62
250
  6
CONTINUOUS
 90
13
 70
0
 10
-33.0035933763
 20
0.0976355648
 10
-33.0553304186
 20
0.1014765985
 10
-33.1061315176
 20
0.1120310792
 10
-33.1551357472
 20
0.1291201403
 10
-33.2015126327
 20
0.1524541734
 10
-33.2444762251
 20
0.1816377367
 10
-33.2832984207
 20
0.2161762565
 10
-33.3173212996
 20
0.2554844085
 10
-33.3459682763
 20
0.2988960375
 10
-33.3687538705
 20
0.3456754468
 10
-33.3852919347
 20
0.3950298658
 10
-33.3953021984
 20
0.4461228852
 10
-33.3986150177
 20
0.4980886318
  0
LWPOLYLINE
  5
498
100
AcDbEntity
  8
ASSI
100
AcDbPolyline
 62
250
  6
CONTINUOUS
 90
11
 70
0
 10
-33.3527563573
 20
0.100682664
 10
-33.4057065726
 20
0.1046727247
 10
-33.4564038582
 20
0.115301963
 10
-33.5047591434
 20
0.1321811903
 10
-33.5508845173
 20
0.1552939299
 10
-33.5941940821
 20
0.1845722822
 10
-33.6333018986
 20
0.2192642569
 10
-33.6673350502
 20
0.258477046
 10
-33.6960781133
 20
0.3018629761
 10
-33.7189966126
 20
0.3487899473
 10
-33.7355966445
 20
0.3983558448
  0
LWPOLYLINE
  5
499
100
AcDbEntity
  8
CURVE
100
AcDbPolyline
 62
250
  6
CONTINUOUS
 90
12
 70
0
 10
-33.5689084615
 20
-14.5879292254
 10
-33.5687677516
 20
-14.5877783748
 10
-33.568639011
 20
-14.5873308498
 10
-33.5685215284
 20
-14.5865941905
 10
-33.5684145926
 20
-14.5855759368
 10
-33.5683174922
 20
-14.584283629
 10
-33.5682091464
 20
-14.5822915128
 10
-33.5681153614
 20
-14.5798807175
 10
-33.5680364418
 20
-14.5770489922
 10
-33.5679726919
 20
-14.5737940863
 10
-33.56792441
 20
-14.5701157167
 10
-33.5678753354
 20
-14.56152091
  0
LWPOLYLINE
  5
49A
100
AcDbEntity
  8
CURVE
100
AcDbPolyline
 62
250
  6
CONTINUOUS
 90
12
 70
0
 10
-33.6164178444
 20
-13.3992817794
 10
-33.6163361313
 20
-13.3992111443
 10
-33.616259117
 20
-13.3990010232
 10
-33.6161866947
 20
-13.3986540929
 10
-33.6161187574
 20
-13.39817303
 10
-33.6160551982
 20
-13.397560511
 10
-33.6159959103
 20
-13.3968192128
 10
-33.6159407867
 20
-13.3959518119
 10
-33.6158897375
 20
-13.3949608649
 10
-33.6158427401
 20
-13.393848448
 10
-33.615799789
 20
-13.3926165176
 10
-33.6157608786
 20
-13.3912670298
  0
LINE
  5
49B
100
AcDbEntity
  8
ASSI
100
AcDbLine
 62
250
  6
CONTINUOUS
 10
-33.8074335909
 20
1.8680867964
 11
-33.8489537169
 21
1.8684809431
  0
LWPOLYLINE
  5
49C
100
AcDbEntity
  8
0
100
AcDbPolyline
 62
7
  6
CONTINUOUS
 90
2
 70
0
 43
0.3500000019
 10
-18.3464804687
 20
31.0853339844
 10
-18.3464804687
 20
32.5853327637
  0
LINE
  5
49D
100
AcDbEntity
  8
CURVE
100
AcDbLine
 62
250
  6
CONTINUOUS
 10
-33.7681185521
 20
8.1975645571
 11
-33.7450548231
 21
8.1975009825
  0
LINE
  5
49E
100
AcDbEntity
  8
CURVE
100
AcDbLine
 62
250
  6
CONTINUOUS
 10
-33.7345964106
 20
8.6930226068
 11
-33.7575603393
 21
8.6930886772
  0
LINE
  5
49F
100
AcDbEntity
  8
CURVE
100
AcDbLine
 62
250
  6
CONTINUOUS
 10
-33.7031156218
 20
10.7728346376
 11
-33.6617413454
 21
10.7726986333
  0
LINE
  5
4A0
100
AcDbEntity
  8
CURVE
100
AcDbLine
 62
250
  6
CONTINUOUS
 10
-33.6482487371
 20
11.2682230142
 11
-33.6893838016
 21
11.268361162
  0
LINE
  5
4A1
100
AcDbEntity
  8
ASSI
100
AcDbLine
 62
250
  6
CONTINUOUS
 10
-28.8765327303
 20
17.8584737624
 11
-28.85365701
 21
17.8584737631
  0
LWPOLYLINE
  5
4A2
100
AcDbEntity
  8
ASSI
100
AcDbPolyline
 62
250
  6
CONTINUOUS
 90
3
 70
0
 10
-32.1045812864
 20
21.8982490768
 10
-32.0092474817
 20
21.9233335229
 10
-31.9733566803
 20
21.9306496479
  0
LWPOLYLINE
  5
4A3
100
AcDbEntity
  8
ASSI
100
AcDbPolyline
 62
7
  6
CONTINUOUS
 90
3
 70
0
 10
-31.9733566803
 20
21.9306496479
 10
-31.9121523877
 20
21.9405332233
 10
-31.8139463974
 20
21.9497272961
  0
LINE
  5
4A4
100
AcDbEntity
  8
ASSI
100
AcDbLine
 62
250
  6
CONTINUOUS
 10
-31.8008668935
 20
21.4504125287
 11
-29.202699475
 21
21.5865767133
  0
LINE
  5
4A5
100
AcDbEntity
  8
ASSI
100
AcDbLine
 62
7
  6
CONTINUOUS
 10
-32.1732684323
 20
21.9308960262
 11
-29.2462441711
 21
22.0842948676
  0
LINE
  5
4A6
100
AcDbEntity
  8
ASSI
100
AcDbLine
 62
250
  6
CONTINUOUS
 10
-32.9517161424
 20
20.8023867227
 11
-33.3088310733
 21
20.7951511399
  0
LWPOLYLINE
  5
4A7
100
AcDbEntity
  8
0
100
AcDbPolyline
 62
7
  6
CONTINUOUS
 90
8
 70
0
 43
0.3500000019
 10
-23.2036196289
 20
31.0853339844
 10
-22.3464790039
 20
31.0853339844
 10
-21.9179086914
 20
31.5139042969
 10
-21.9179086914
 20
32.3710476074
 10
-22.3464790039
 20
32.7996179199
 10
-23.2036196289
 20
32.7996179199
 10
-23.2036196289
 20
34.085331543
 10
-21.9179086914
 20
34.085331543
  0
LWPOLYLINE
  5
4A8
100
AcDbEntity
  8
0
100
AcDbPolyline
 62
7
  6
CONTINUOUS
 90
3
 70
0
 43
0.3500000019
 10
-17.8464799805
 20
31.7281894531
 10
-19.3464814453
 20
31.7281894531
 10
-18.7036206055
 20
34.085331543
  0
LWPOLYLINE
  5
4A9
100
AcDbEntity
  8
ASSI
100
AcDbPolyline
 62
250
  6
CONTINUOUS
 90
3
 70
0
 10
-32.9516962229
 20
20.8023858873
 10
-32.9437824584
 20
20.8019776915
 10
-32.4664061544
 20
20.7810340984
  0
LWPOLYLINE
  5
4AA
100
AcDbEntity
  8
0
100
AcDbPolyline
 62
7
  6
CONTINUOUS
 90
10
 70
0
 43
0.3500000019
 10
-20.4179072266
 20
31.5853317871
 10
-20.3464770508
 20
31.4424768066
 10
-20.3464770508
 20
31.3710466309
 10
-20.4893374023
 20
31.2281889648
 10
-20.560762207
 20
31.2281889648
 10
-20.6321923828
 20
31.2996191406
 10
-20.6321923828
 20
31.3710466309
 10
-20.560762207
 20
31.5139042969
 10
-20.4893374023
 20
31.5853317871
 10
-20.4179072266
 20
31.5853317871
  0
ARC
  5
4AB
100
AcDbEntity
  8
ASSI
100
AcDbCircle
 62
7
  6
CONTINUOUS
 10
2.8995723321
 20
-0.0750178381
 40
1.525
100
AcDbArc
 50
270.0
 51
343.0879461817
  0
ARC
  5
4AC
100
AcDbEntity
  8
ASSI
100
AcDbCircle
 62
7
  6
CONTINUOUS
 10
-3.4504276679
 20
-0.0750178381
 40
1.525
100
AcDbArc
 50
196.9120538183
 51
270.0000117153
  0
ARC
  5
4AD
100
AcDbEntity
  8
ASSI
100
AcDbCircle
 62
7
  6
CONTINUOUS
 10
-3.4504276679
 20
-0.0750178381
 40
1.525
100
AcDbArc
 50
90.0
 51
163.0879461817
  0
ARC
  5
4AE
100
AcDbEntity
  8
ASSI
100
AcDbCircle
 62
7
  6
CONTINUOUS
 10
2.8995723321
 20
-0.0750178381
 40
1.525
100
AcDbArc
 50
16.9120538183
 51
90.0000117153
  0
ARC
  5
4AF
100
AcDbEntity
  8
ASSI
100
AcDbCircle
 62
7
  6
CONTINUOUS
 10
-32.1104652848
 20
20.7325405845
 40
1.2
100
AcDbArc
 50
93.0
 51
177.0092050784
  0
ARC
  5
4B0
100
AcDbEntity
  8
ASSI
100
AcDbCircle
 62
7
  6
CONTINUOUS
 10
-32.1104652848
 20
-20.8825762607
 40
1.2
100
AcDbArc
 50
182.9907949216
 51
267.0
  0
ARC
  5
4B1
100
AcDbEntity
  8
ASSI
100
AcDbCircle
 62
7
  6
CONTINUOUS
 10
-33.3492657429
 20
0.5006674332
 40
0.4
100
AcDbArc
 50
180.5959698149
 51
269.4998899131
  0
ARC
  5
4B2
100
AcDbEntity
  8
ASSI
100
AcDbCircle
 62
7
  6
CONTINUOUS
 10
-33.4489582475
 20
1.8665374366
 40
0.4
100
AcDbArc
 50
179.7216121842
 51
213.4515843782
  0
ARC
  5
4B3
100
AcDbEntity
  8
ASSI
100
AcDbCircle
 62
7
  6
CONTINUOUS
 10
-33.4489582475
 20
-2.0165731128
 40
0.4
100
AcDbArc
 50
146.547796555
 51
180.2783878158
  0
ARC
  5
4B4
100
AcDbEntity
  8
ASSI
100
AcDbCircle
 62
7
  6
CONTINUOUS
 10
-33.3492657429
 20
-0.6507031095
 40
0.4
100
AcDbArc
 50
90.5001099963
 51
179.4040264176
  0
ARC
  5
4B5
100
AcDbEntity
  8
ASSI
100
AcDbCircle
 62
7
  6
CONTINUOUS
 10
-29.15365701
 20
17.8584737631
 40
0.3
100
AcDbArc
 50
0.0
 51
25.0000145451
  0
ARC
  5
4B6
100
AcDbEntity
  8
ASSI
100
AcDbCircle
 62
7
  6
CONTINUOUS
 10
-29.15365701
 20
-18.0085094393
 40
0.3
100
AcDbArc
 50
335.0
 51
360.0
  0
ELLIPSE
  5
4B7
100
AcDbEntity
  8
ASSI
100
AcDbEllipse
 62
7
  6
CONTINUOUS
 10
-10.8556434687
 20
-21.7359295824
 30
0.0
 11
0.4962344879
 21
-0.0628595572
 31
0.0
 40
0.9963456432
 41
-3.0137634083
 42
-1.4443370775
  0
ELLIPSE
  5
4B8
100
AcDbEntity
  8
ASSI
100
AcDbEllipse
 62
7
  6
CONTINUOUS
 10
10.3047881329
 20
-21.7359295824
 30
0.0
 11
0.4962344879
 21
0.0628595572
 31
0.0
 40
0.9963456432
 41
-1.6972555761
 42
-0.1278292453
  0
ELLIPSE
  5
4B9
100
AcDbEntity
  8
ASSI
100
AcDbEllipse
 62
7
  6
CONTINUOUS
 10
10.4244352151
 20
-0.6079797793
 30
0.0
 11
0.3796255539
 21
0.1265161514
 31
0.0
 40
0.9996192872
 41
-0.3215754254
 42
1.2489924673
  0
ELLIPSE
  5
4BA
100
AcDbEntity
  8
ASSI
100
AcDbEllipse
 62
7
  6
CONTINUOUS
 10
-10.9752905509
 20
-0.6079797793
 30
0.0
 11
0.3796255539
 21
-0.1265161514
 31
0.0
 40
0.9996192872
 41
1.8926001863
 42
3.463168079
  0
ELLIPSE
  5
4BB
100
AcDbEntity
  8
ASSI
100
AcDbEllipse
 62
7
  6
CONTINUOUS
 10
10.3047881329
 20
21.5858939062
 30
0.0
 11
0.4962344879
 21
-0.0628595572
 31
0.0
 40
0.9963456432
 41
0.1278292453
 42
1.6972555761
  0
ELLIPSE
  5
4BC
100
AcDbEntity
  8
ASSI
100
AcDbEllipse
 62
7
  6
CONTINUOUS
 10
-10.8556434687
 20
21.5858939062
 30
0.0
 11
0.4962344879
 21
0.0628595572
 31
0.0
 40
0.9963456432
 41
1.4443370775
 42
3.0137634083
  0
ELLIPSE
  5
4BD
100
AcDbEntity
  8
ASSI
100
AcDbEllipse
 62
7
  6
CONTINUOUS
 10
-10.9752905509
 20
0.4579441031
 30
0.0
 11
0.3796255539
 21
0.1265161514
 31
0.0
 40
0.9996192872
 41
2.8200172282
 42
4.3905851209
  0
ELLIPSE
  5
4BE
100
AcDbEntity
  8
ASSI
100
AcDbEllipse
 62
7
  6
CONTINUOUS
 10
10.4244352151
 20
0.4579441031
 30
0.0
 11
0.3796255539
 21
-0.1265161514
 31
0.0
 40
0.9996192872
 41
-1.2489924673
 42
0.3215754254
  0
ENDSEC
  0
SECTION
  2
OBJECTS
  0
DICTIONARY
  5
C
100
AcDbDictionary
280
0
281
1
  3
ACAD_GROUP
350
D
  3
ACAD_MLINESTYLE
350
17
  3
ACAD_LAYOUT
350
1A
  3
ACAD_PLOTSETTINGS
350
19
  3
ACAD_PLOTSTYLENAME
350
E
  0
DICTIONARY
  5
D
102
{ACAD_REACTORS
330
C
102
}
100
AcDbDictionary
280
0
281
1
  0
ACDBDICTIONARYWDFLT
  5
E
102
{ACAD_REACTORS
330
C
102
}
100
AcDbDictionary
281
1
  3
Normal
350
F
100
AcDbDictionaryWithDefault
340
F
  0
DICTIONARY
  5
17
102
{ACAD_REACTORS
330
C
102
}
100
AcDbDictionary
280
0
281
1
  3
Standard
350
18
  0
DICTIONARY
  5
19
102
{ACAD_REACTORS
330
C
102
}
100
AcDbDictionary
281
1
  0
DICTIONARY
  5
1A
102
{ACAD_REACTORS
330
C
102
}
100
AcDbDictionary
281
1
  3
Model
350
4BF
  3
Layout1
350
4C0
  0
ACDBPLACEHOLDER
  5
F
102
{ACAD_REACTORS
330
E
102
}
  0
MLINESTYLE
  5
18
102
{ACAD_REACTORS
330
17
102
}
100
AcDbMlineStyle
  2
STANDARD
 70
0
  3

 62
256
 51
90.0
 52
90.0
 71
2
 49
0.5
 62
256
  6
BYLAYER
 49
-0.5
 62
256
  6
BYLAYER
  0
LAYOUT
  5
4BF
102
{ACAD_REACTORS
330
1A
102
}
100
AcDbPlotSettings
  1

  2
none_device
  4

  6

 40
0.0
 41
0.0
 42
0.0
 43
0.0
 44
210.0
 45
297.0
 46
0.0
 47
0.0
 48
0.0
 49
0.0
140
0.0
141
0.0
142
1.0
143
1.0
 70
1024
 72
1
 73
0
 74
0
  7

 75
0
147
1.0
148
0.0
149
0.0
100
AcDbLayout
  1
Model
 70
0
 71
0
 10
0.0
 20
0.0
 11
210.0
 21
297.0
 12
0.0
 22
0.0
 32
0.0
 14
0.0
 24
0.0
 34
0.0
 15
0.0
 25
0.0
 35
0.0
146
0.0
 13
0.0
 23
0.0
 33
0.0
 16
1.0
 26
0.0
 36
0.0
 17
0.0
 27
1.0
 37
0.0
 76
0
330
214
345
0
346
0
  0
LAYOUT
  5
4C0
102
{ACAD_REACTORS
330
1A
102
}
100
AcDbPlotSettings
  1

  2
none_device
  4

  6

 40
0.0
 41
0.0
 42
0.0
 43
0.0
 44
210.0
 45
297.0
 46
0.0
 47
0.0
 48
0.0
 49
0.0
140
0.0
141
0.0
142
1.0
143
1.0
 70
0
 72
1
 73
0
 74
0
  7

 75
0
147
1.0
148
0.0
149
0.0
100
AcDbLayout
  1
Layout1
 70
0
 71
1
 10
0.0
 20
0.0
 11
210.0
 21
297.0
 12
0.0
 22
0.0
 32
0.0
 14
0.0
 24
0.0
 34
0.0
 15
0.0
 25
0.0
 35
0.0
146
0.0
 13
0.0
 23
0.0
 33
0.0
 16
1.0
 26
0.0
 36
0.0
 17
0.0
 27
1.0
 37
0.0
 76
0
330
215
345
0
346
0
  0
ENDSEC
  0
EOF
