  0
SECTION
  2
HEADER
  9
$ACADVER
  1
AC1015
  9
$DWGCODEPAGE
  3
ANSI_1252
  9
$EXTMAX
 10
297.0
 20
210.0
 30
0.0
  9
$EXTMIN
 10
0.0
 20
0.0
 30
0.0
  9
$LIMMIN
 10
0.0
 20
0.0
  9
$LIMMAX
 10
297.0
 20
210.0
  9
$VIEWCTR
 10
148.5
 20
105.0
  9
$VIEWSIZE
 40
210.0
  9
$CLAYER
  8
0
  9
$LTSCALE
 40
16.335
  9
$CELTYPE
  6
BYLAYER
  9
$DIMSCALE
 40
1.0
  9
$DIMASZ
 40
3.0
  9
$DIMEXO
 40
0.5
  9
$DIMDLI
 40
11.286
  9
$DIMEXE
 40
1.5
  9
$DIMCEN
 40
2.673
  9
$DIMLFAC
 40
1.0
  9
$DIMBLK
  1
_FILLED
  9
$DIMTXT
 40
3.0
  9
$DIMTOL
 70
1
  9
$DIMLIM
 70
0
  9
$DIMTFAC
 40
1.0
  9
$DIMTP
 40
0.01
  9
$DIMTM
 40
0.01
  9
$DIMGAP
 40
0.625
  9
$DIMDSEP
 70
44
  9
$PDMODE
 70
3
  9
$PDSIZE
 40
3.0
  9
$HANDSEED
  5
687
  9
$TILEMODE
 70
1
  9
$MEASUREMENT
 70
1
  9
$INSUNITS
 70
4
  0
ENDSEC
  0
SECTION
  2
CLASSES
  0
CLASS
  1
ACDBDICTIONARYWDFLT
  2
AcDbDictionaryWithDefault
  3
AutoCAD 2000
 90
0
280
0
281
0
  0
CLASS
  1
ACDBPLACEHOLDER
  2
AcDbPlaceHolder
  3
AutoCAD 2000
 90
0
280
0
281
0
  0
CLASS
  1
LAYOUT
  2
AcDbLayout
  3
AutoCAD 2000
 90
0
280
0
281
0
  0
ENDSEC
  0
SECTION
  2
TABLES
  0
TABLE
  2
VPORT
  5
8
100
AcDbSymbolTable
 70
2
  0
VPORT
  5
1F4
100
AcDbSymbolTableRecord
100
AcDbViewportTableRecord
  2
*ACTIVE
 70
0
 10
0.0
 20
0.0
 11
1.0
 21
1.0
 12
148.5
 22
105.0
 13
0.0
 23
0.0
 14
1.0
 24
1.0
 15
0.0
 25
0.0
 16
0.0
 26
0.0
 36
1.0
 17
0.0
 27
0.0
 37
0.0
 40
210.0
 41
1.4142857143
 42
50.0
 43
0.0
 44
0.0
 50
0.0
 51
0.0
 71
0
 72
100
 73
1
 74
1
 75
0
 76
0
 77
0
 78
0
  0
ENDTAB
  0
TABLE
  2
LTYPE
  5
5
100
AcDbSymbolTable
 70
6
  0
LTYPE
  5
14
100
AcDbSymbolTableRecord
100
AcDbLinetypeTableRecord
  2
BYBLOCK
 70
0
  3

 72
65
 73
0
 40
0.0
  0
LTYPE
  5
15
100
AcDbSymbolTableRecord
100
AcDbLinetypeTableRecord
  2
BYLAYER
 70
0
  3

 72
65
 73
0
 40
0.0
  0
LTYPE
  5
16
100
AcDbSymbolTableRecord
100
AcDbLinetypeTableRecord
  2
CONTINUOUS
 70
64
  3
Solid line
 72
65
 73
0
 40
0.0
  0
LTYPE
  5
1F5
100
AcDbSymbolTableRecord
100
AcDbLinetypeTableRecord
  2
CENTER
 70
64
  3
____ _ ____ _ ____ _ ____ _ ____ _ ____ _ ____
 72
65
 73
4
 40
0.6
 49
0.375
 74
0
 49
-0.075
 74
0
 49
0.075
 74
0
 49
-0.075
 74
0
  0
LTYPE
  5
1F6
100
AcDbSymbolTableRecord
100
AcDbLinetypeTableRecord
  2
HIDDEN
 70
64
  3
- - - - - - - - - - - - - - - - - - - -
 72
65
 73
2
 40
0.2
 49
0.1
 74
0
 49
-0.1
 74
0
  0
LTYPE
  5
1F7
100
AcDbSymbolTableRecord
100
AcDbLinetypeTableRecord
  2
PHANTOM
 70
64
  3
_____ _ _ _____ _ _ _____ _ _ _____
 72
65
 73
6
 40
0.8
 49
0.45
 74
0
 49
-0.05
 74
0
 49
0.1
 74
0
 49
-0.05
 74
0
 49
0.1
 74
0
 49
-0.05
 74
0
  0
LTYPE
  5
1F8
100
AcDbSymbolTableRecord
100
AcDbLinetypeTableRecord
  2
DOT
 70
64
  3
. . . . . . . . . . . . . . . . . . . .
 72
65
 73
2
 40
0.2
 49
0.1
 74
0
 49
-0.1
 74
0
  0
LTYPE
  5
1F9
100
AcDbSymbolTableRecord
100
AcDbLinetypeTableRecord
  2
DASHED
 70
64
  3
- - - - - - - - - - - - - - - - - - - -
 72
65
 73
2
 40
0.2
 49
0.1
 74
0
 49
-0.1
 74
0
  0
ENDTAB
  0
TABLE
  2
LAYER
  5
2
100
AcDbSymbolTable
 70
36
  0
LAYER
  5
10
100
AcDbSymbolTableRecord
100
AcDbLayerTableRecord
  2
0
 70
0
 62
7
  6
CONTINUOUS
370
-3
390
F
  0
LAYER
  5
1FA
100
AcDbSymbolTableRecord
100
AcDbLayerTableRecord
  2
DEFAULT_1
 70
0
 62
7
  6
CENTER
370
-3
390
F
  0
LAYER
  5
1FB
100
AcDbSymbolTableRecord
100
AcDbLayerTableRecord
  2
DEFAULT_2
 70
0
 62
7
  6
HIDDEN
370
-3
390
F
  0
LAYER
  5
1FC
100
AcDbSymbolTableRecord
100
AcDbLayerTableRecord
  2
DEFAULT_3
 70
0
 62
7
  6
PHANTOM
370
-3
390
F
  0
LAYER
  5
1FD
100
AcDbSymbolTableRecord
100
AcDbLayerTableRecord
  2
ASSI
 70
0
 62
7
  6
CONTINUOUS
370
-3
390
F
  0
LAYER
  5
1FE
100
AcDbSymbolTableRecord
100
AcDbLayerTableRecord
  2
COLOR3
 70
0
 62
7
  6
CONTINUOUS
370
-3
390
F
  0
LAYER
  5
1FF
100
AcDbSymbolTableRecord
100
AcDbLayerTableRecord
  2
COORDINATE
 70
0
 62
7
  6
CONTINUOUS
370
-3
390
F
  0
LAYER
  5
200
100
AcDbSymbolTableRecord
100
AcDbLayerTableRecord
  2
COPY_PUBLISH
 70
0
 62
7
  6
CONTINUOUS
370
-3
390
F
  0
LAYER
  5
201
100
AcDbSymbolTableRecord
100
AcDbLayerTableRecord
  2
COSMETIC
 70
0
 62
7
  6
CONTINUOUS
370
-3
390
F
  0
LAYER
  5
202
100
AcDbSymbolTableRecord
100
AcDbLayerTableRecord
  2
COSMETICI
 70
0
 62
7
  6
CONTINUOUS
370
-3
390
F
  0
LAYER
  5
203
100
AcDbSymbolTableRecord
100
AcDbLayerTableRecord
  2
CURVE
 70
0
 62
7
  6
CONTINUOUS
370
-3
390
F
  0
LAYER
  5
204
100
AcDbSymbolTableRecord
100
AcDbLayerTableRecord
  2
DRAFT
 70
0
 62
7
  6
CONTINUOUS
370
-3
390
F
  0
LAYER
  5
205
100
AcDbSymbolTableRecord
100
AcDbLayerTableRecord
  2
IMPORT_IGES
 70
0
 62
7
  6
CONTINUOUS
370
-3
390
F
  0
LAYER
  5
206
100
AcDbSymbolTableRecord
100
AcDbLayerTableRecord
  2
INTFCLR_1
 70
0
 62
7
  6
CONTINUOUS
370
-3
390
F
  0
LAYER
  5
207
100
AcDbSymbolTableRecord
100
AcDbLayerTableRecord
  2
INTF_1
 70
0
 62
7
  6
CONTINUOUS
370
-3
390
F
  0
LAYER
  5
208
100
AcDbSymbolTableRecord
100
AcDbLayerTableRecord
  2
INTF_10
 70
0
 62
7
  6
CONTINUOUS
370
-3
390
F
  0
LAYER
  5
209
100
AcDbSymbolTableRecord
100
AcDbLayerTableRecord
  2
INTF_13
 70
0
 62
7
  6
CONTINUOUS
370
-3
390
F
  0
LAYER
  5
20A
100
AcDbSymbolTableRecord
100
AcDbLayerTableRecord
  2
INTF_15
 70
0
 62
7
  6
CONTINUOUS
370
-3
390
F
  0
LAYER
  5
20B
100
AcDbSymbolTableRecord
100
AcDbLayerTableRecord
  2
INTF_16
 70
0
 62
7
  6
CONTINUOUS
370
-3
390
F
  0
LAYER
  5
20C
100
AcDbSymbolTableRecord
100
AcDbLayerTableRecord
  2
INTF_18
 70
0
 62
7
  6
CONTINUOUS
370
-3
390
F
  0
LAYER
  5
20D
100
AcDbSymbolTableRecord
100
AcDbLayerTableRecord
  2
INTF_20
 70
0
 62
7
  6
CONTINUOUS
370
-3
390
F
  0
LAYER
  5
20E
100
AcDbSymbolTableRecord
100
AcDbLayerTableRecord
  2
INTF_3
 70
0
 62
7
  6
CONTINUOUS
370
-3
390
F
  0
LAYER
  5
20F
100
AcDbSymbolTableRecord
100
AcDbLayerTableRecord
  2
INTF_5
 70
0
 62
7
  6
CONTINUOUS
370
-3
390
F
  0
LAYER
  5
210
100
AcDbSymbolTableRecord
100
AcDbLayerTableRecord
  2
INTF_8
 70
0
 62
7
  6
CONTINUOUS
370
-3
390
F
  0
LAYER
  5
211
100
AcDbSymbolTableRecord
100
AcDbLayerTableRecord
  2
NOTE
 70
0
 62
7
  6
CONTINUOUS
370
-3
390
F
  0
LAYER
  5
212
100
AcDbSymbolTableRecord
100
AcDbLayerTableRecord
  2
PIANI
 70
0
 62
7
  6
CONTINUOUS
370
-3
390
F
  0
LAYER
  5
213
100
AcDbSymbolTableRecord
100
AcDbLayerTableRecord
  2
PUNTI
 70
0
 62
7
  6
CONTINUOUS
370
-3
390
F
  0
LAYER
  5
214
100
AcDbSymbolTableRecord
100
AcDbLayerTableRecord
  2
RACCORDO
 70
0
 62
7
  6
CONTINUOUS
370
-3
390
F
  0
LAYER
  5
215
100
AcDbSymbolTableRecord
100
AcDbLayerTableRecord
  2
SIMBOLI
 70
0
 62
7
  6
CONTINUOUS
370
-3
390
F
  0
LAYER
  5
216
100
AcDbSymbolTableRecord
100
AcDbLayerTableRecord
  2
SMUSSO
 70
0
 62
7
  6
CONTINUOUS
370
-3
390
F
  0
LAYER
  5
217
100
AcDbSymbolTableRecord
100
AcDbLayerTableRecord
  2
SNAPLINE
 70
0
 62
7
  6
CONTINUOUS
370
-3
390
F
  0
LAYER
  5
218
100
AcDbSymbolTableRecord
100
AcDbLayerTableRecord
  2
SOLIDO
 70
0
 62
7
  6
CONTINUOUS
370
-3
390
F
  0
LAYER
  5
219
100
AcDbSymbolTableRecord
100
AcDbLayerTableRecord
  2
SUPERFICI
 70
0
 62
7
  6
CONTINUOUS
370
-3
390
F
  0
LAYER
  5
21A
100
AcDbSymbolTableRecord
100
AcDbLayerTableRecord
  2
SUPERFICI_SKEL
 70
0
 62
7
  6
CONTINUOUS
370
-3
390
F
  0
LAYER
  5
21B
100
AcDbSymbolTableRecord
100
AcDbLayerTableRecord
  2
TRASH
 70
0
 62
7
  6
CONTINUOUS
370
-3
390
F
  0
LAYER
  5
21C
100
AcDbSymbolTableRecord
100
AcDbLayerTableRecord
  2
___SHELL
 70
0
 62
7
  6
CONTINUOUS
370
-3
390
F
  0
ENDTAB
  0
TABLE
  2
STYLE
  5
3
100
AcDbSymbolTable
 70
1
  0
STYLE
  5
11
100
AcDbSymbolTableRecord
100
AcDbTextStyleTableRecord
  2
STANDARD
 70
0
 40
0.0
 41
0.8
 50
0.0
 71
0
 42
0.2
  3
txt
  4

  0
STYLE
  5
21D
100
AcDbSymbolTableRecord
100
AcDbTextStyleTableRecord
  2
TEXTSTYLE_1
 70
0
 40
0.0
 41
0.8
 50
0.0
 71
0
 42
0.2
  3
gdt
  4

  0
ENDTAB
  0
TABLE
  2
VIEW
  5
6
100
AcDbSymbolTable
 70
0
  0
ENDTAB
  0
TABLE
  2
UCS
  5
7
100
AcDbSymbolTable
 70
0
  0
ENDTAB
  0
TABLE
  2
APPID
  5
9
100
AcDbSymbolTable
 70
1
  0
APPID
  5
21E
100
AcDbSymbolTableRecord
100
AcDbRegAppTableRecord
  2
ACAD
 70
0
  0
ENDTAB
  0
TABLE
  2
BLOCK_RECORD
  5
1
100
AcDbSymbolTable
 70
0
  0
BLOCK_RECORD
  5
21F
100
AcDbSymbolTableRecord
100
AcDbBlockTableRecord
  2
*Model_Space
  0
BLOCK_RECORD
  5
220
100
AcDbSymbolTableRecord
100
AcDbBlockTableRecord
  2
*Paper_Space
  0
BLOCK_RECORD
  5
221
100
AcDbSymbolTableRecord
100
AcDbBlockTableRecord
  2
_FILLED
  0
BLOCK_RECORD
  5
222
100
AcDbSymbolTableRecord
100
AcDbBlockTableRecord
  2
*D0
  0
BLOCK_RECORD
  5
223
100
AcDbSymbolTableRecord
100
AcDbBlockTableRecord
  2
*D1
  0
BLOCK_RECORD
  5
224
100
AcDbSymbolTableRecord
100
AcDbBlockTableRecord
  2
*D2
  0
ENDTAB
  0
TABLE
  2
DIMSTYLE
  5
A
100
AcDbSymbolTable
 70
1
100
AcDbDimStyleTable
 71
0
  0
DIMSTYLE
105
225
100
AcDbSymbolTableRecord
100
AcDbDimStyleTableRecord
  2
STANDARD
 70
0
  3

  4

 40
1.0
 41
3.0
 42
0.5
 43
0.38
 44
1.5
 45
0.0
 46
0.0
 47
0.01
 48
0.01
140
3.0
141
0.09
142
0.0
143
25.4
144
1.0
145
0.0
146
1.0
147
0.625
 71
1.0
 72
0.0
 73
0
 74
0
 75
0
 76
0
 77
1
 78
8
170
0
171
2
172
0
173
0
174
0
175
0
176
0
177
0
178
0
270
2
271
2
272
2
273
2
274
2
275
0
280
0
281
0
282
0
283
1
284
8
285
0
286
0
287
3
288
0
340
11
278
44
341
221
342
221
343
221
344
221
  0
DIMSTYLE
105
226
100
AcDbSymbolTableRecord
100
AcDbDimStyleTableRecord
  2
DIMSTYLE_1
 70
0
  3

  4

 40
1.0
 41
3.0
 42
0.5
 43
0.38
 44
1.5
 45
0.0
 46
0.0
 47
0.0
 48
0.0
140
3.0
141
0.09
142
0.0
143
25.4
144
1.0
145
0.0
146
1.0
147
0.75
 71
0.0
 72
0.0
 73
0
 74
0
 75
0
 76
0
 77
1
 78
8
170
0
171
2
172
0
173
0
174
0
175
0
176
0
177
0
178
0
270
2
271
2
272
2
273
2
274
2
275
0
280
0
281
0
282
0
283
1
284
8
285
0
286
0
287
3
288
0
340
11
278
44
341
221
342
221
343
221
344
221
  0
DIMSTYLE
105
227
100
AcDbSymbolTableRecord
100
AcDbDimStyleTableRecord
  2
DIMSTYLE_2
 70
0
  3

  4

 40
1.0
 41
3.0
 42
0.5
 43
0.38
 44
1.5
 45
0.0
 46
0.0
 47
0.0
 48
0.0
140
3.0
141
0.09
142
0.0
143
25.4
144
1.0
145
0.0
146
1.0
147
0.75
 71
0.0
 72
0.0
 73
0
 74
0
 75
0
 76
0
 77
1
 78
8
170
0
171
2
172
0
173
0
174
0
175
0
176
0
177
0
178
0
270
2
271
1
272
1
273
2
274
2
275
0
280
0
281
0
282
0
283
1
284
8
285
0
286
0
287
3
288
0
340
11
278
44
341
221
342
221
343
221
344
221
  0
ENDTAB
  0
ENDSEC
  0
SECTION
  2
BLOCKS
  0
BLOCK
  5
20
100
AcDbEntity
  8
0
100
AcDbBlockBegin
  2
*Model_Space
 70
0
 10
0.0
 20
0.0
 30
0.0
  3
*Model_Space
  1

  0
ENDBLK
  5
21
100
AcDbEntity
  8
0
100
AcDbBlockEnd
  0
BLOCK
  5
1C
100
AcDbEntity
  8
0
100
AcDbBlockBegin
  2
*Paper_Space
 70
0
 10
0.0
 20
0.0
 30
0.0
  3
*Paper_Space
  1

  0
ENDBLK
  5
1D
100
AcDbEntity
  8
0
100
AcDbBlockEnd
  0
BLOCK
  5
228
100
AcDbEntity
  8
0
100
AcDbBlockBegin
  2
_FILLED
 70
64
 10
0.0
 20
0.0
  3
_FILLED
  1

  0
SOLID
  5
229
100
AcDbEntity
  8
0
  6
BYBLOCK
 62
0
100
AcDbTrace
 10
0.0
 20
0.0
 11
-1.0
 21
0.3166666667
 12
-1.0
 22
-0.3166666667
 13
-1.0
 23
-0.3166666667
  0
ENDBLK
  5
22A
100
AcDbEntity
  8
0
  6
BYBLOCK
 62
0
100
AcDbBlockEnd
  0
BLOCK
  5
22B
100
AcDbEntity
  8
0
100
AcDbBlockBegin
 62
7
  6
CONTINUOUS
  2
*D0
 70
65
 10
0.0
 20
0.0
  3
*D0
  1

  0
MTEXT
  5
22C
100
AcDbEntity
  8
0
100
AcDbMText
 62
7
  6
CONTINUOUS
  7
STANDARD
 71
2
 72
1
 10
149.8892931393
 20
148.1569700199
 30
0.0
 11
1.0
 21
0.0
 31
0.0
 44
0.9
  1
44,2
 40
3.0
 41
8.7857142857
  0
LINE
  5
22D
100
AcDbEntity
  8
0
100
AcDbLine
 62
7
  6
CONTINUOUS
 10
171.9884773413
 20
122.6135135135
 11
171.9884773413
 21
145.9069700199
  0
LINE
  5
22E
100
AcDbEntity
  8
0
100
AcDbLine
 62
7
  6
CONTINUOUS
 10
127.7901089373
 20
122.6135135135
 11
127.7901089373
 21
145.9069700199
  0
LINE
  5
22F
100
AcDbEntity
  8
0
100
AcDbLine
 62
7
  6
CONTINUOUS
 10
171.9884773413
 20
144.4069700199
 11
149.8892931393
 21
144.4069700199
  0
LINE
  5
230
100
AcDbEntity
  8
0
100
AcDbLine
 62
7
  6
CONTINUOUS
 10
127.7901089373
 20
144.4069700199
 11
149.8892931393
 21
144.4069700199
  0
INSERT
  5
231
100
AcDbEntity
  8
0
100
AcDbBlockReference
 62
7
  6
CONTINUOUS
  2
_FILLED
 10
171.9884773413
 20
144.4069700199
 41
3.0
 42
3.0
 43
3.0
  0
INSERT
  5
232
100
AcDbEntity
  8
0
100
AcDbBlockReference
 62
7
  6
CONTINUOUS
  2
_FILLED
 10
127.7901089373
 20
144.4069700199
 41
3.0
 42
3.0
 43
3.0
 50
180.0
  0
ENDBLK
  5
233
100
AcDbEntity
  8
0
  6
BYBLOCK
 62
0
100
AcDbBlockEnd
  0
BLOCK
  5
234
100
AcDbEntity
  8
0
100
AcDbBlockBegin
 62
7
  6
CONTINUOUS
  2
*D1
 70
65
 10
0.0
 20
0.0
  3
*D1
  1

  0
MTEXT
  5
235
100
AcDbEntity
  8
0
100
AcDbMText
 62
7
  6
CONTINUOUS
  7
STANDARD
 71
2
 72
1
 10
181.3252754034
 20
109.0135135135
 30
0.0
 11
0.0
 21
1.0
 31
0.0
 44
0.9
  1
44,3
 40
3.0
 41
8.5714285714
  0
LINE
  5
236
100
AcDbEntity
  8
0
100
AcDbLine
 62
7
  6
CONTINUOUS
 10
171.9682425282
 20
131.1702177901
 11
186.5752754034
 21
131.1702177901
  0
LINE
  5
237
100
AcDbEntity
  8
0
100
AcDbLine
 62
7
  6
CONTINUOUS
 10
171.9682425282
 20
86.8568092369
 11
186.5752754034
 21
86.8568092369
  0
LINE
  5
238
100
AcDbEntity
  8
0
100
AcDbLine
 62
7
  6
CONTINUOUS
 10
185.0752754034
 20
131.1702177901
 11
185.0752754034
 21
109.0135135135
  0
LINE
  5
239
100
AcDbEntity
  8
0
100
AcDbLine
 62
7
  6
CONTINUOUS
 10
185.0752754034
 20
86.8568092369
 11
185.0752754034
 21
109.0135135135
  0
INSERT
  5
23A
100
AcDbEntity
  8
0
100
AcDbBlockReference
 62
7
  6
CONTINUOUS
  2
_FILLED
 10
185.0752754034
 20
131.1702177901
 41
3.0
 42
3.0
 43
3.0
 50
90.0
  0
INSERT
  5
23B
100
AcDbEntity
  8
0
100
AcDbBlockReference
 62
7
  6
CONTINUOUS
  2
_FILLED
 10
185.0752754034
 20
86.8568092369
 41
3.0
 42
3.0
 43
3.0
 50
270.0
  0
ENDBLK
  5
23C
100
AcDbEntity
  8
0
  6
BYBLOCK
 62
0
100
AcDbBlockEnd
  0
BLOCK
  5
23D
100
AcDbEntity
  8
0
100
AcDbBlockBegin
 62
7
  6
CONTINUOUS
  2
*D2
 70
65
 10
0.0
 20
0.0
  3
*D2
  1

  0
MTEXT
  5
23E
100
AcDbEntity
  8
0
100
AcDbMText
 62
7
  6
CONTINUOUS
  7
STANDARD
 71
2
 72
1
 10
115.4480112832
 20
148.1569700199
 30
0.0
 11
1.0
 21
0.0
 31
0.0
 44
0.9
  1
5,3
 40
3.0
 41
6.0
  0
LINE
  5
23F
100
AcDbEntity
  8
0
100
AcDbLine
 62
7
  6
CONTINUOUS
 10
118.1226702363
 20
122.6135135135
 11
118.1226702363
 21
145.9069700199
  0
LINE
  5
240
100
AcDbEntity
  8
0
100
AcDbLine
 62
7
  6
CONTINUOUS
 10
112.7733523301
 20
110.2534313169
 11
112.7733523301
 21
145.9069700199
  0
LINE
  5
241
100
AcDbEntity
  8
0
100
AcDbLine
 62
7
  6
CONTINUOUS
 10
118.1226702363
 20
144.4069700199
 11
122.1226702363
 21
144.4069700199
  0
LINE
  5
242
100
AcDbEntity
  8
0
100
AcDbLine
 62
7
  6
CONTINUOUS
 10
122.1226702363
 20
144.4069700199
 11
115.4480112832
 21
144.4069700199
  0
LINE
  5
243
100
AcDbEntity
  8
0
100
AcDbLine
 62
7
  6
CONTINUOUS
 10
112.7733523301
 20
144.4069700199
 11
108.7733523301
 21
144.4069700199
  0
LINE
  5
244
100
AcDbEntity
  8
0
100
AcDbLine
 62
7
  6
CONTINUOUS
 10
108.7733523301
 20
144.4069700199
 11
115.4480112832
 21
144.4069700199
  0
INSERT
  5
245
100
AcDbEntity
  8
0
100
AcDbBlockReference
 62
7
  6
CONTINUOUS
  2
_FILLED
 10
118.1226702363
 20
144.4069700199
 41
3.0
 42
3.0
 43
3.0
 50
180.0
  0
INSERT
  5
246
100
AcDbEntity
  8
0
100
AcDbBlockReference
 62
7
  6
CONTINUOUS
  2
_FILLED
 10
112.7733523301
 20
144.4069700199
 41
3.0
 42
3.0
 43
3.0
  0
ENDBLK
  5
247
100
AcDbEntity
  8
0
  6
BYBLOCK
 62
0
100
AcDbBlockEnd
  0
ENDSEC
  0
SECTION
  2
ENTITIES
  0
DIMENSION
  5
248
100
AcDbEntity
  8
0
100
AcDbDimension
 62
7
  6
CONTINUOUS
  2
*D0
 10
127.7901089373
 20
144.4069700199
 11
149.8892931393
 21
144.4069700199
 70
160
 71
2
 42
44.1983684039
  3
DIMSTYLE_1
100
AcDbAlignedDimension
 13
171.9884773413
 23
122.1135135135
 14
127.7901089373
 24
122.1135135135
 50
180.0
100
AcDbRotatedDimension
  0
DIMENSION
  5
249
100
AcDbEntity
  8
0
100
AcDbDimension
 62
7
  6
CONTINUOUS
  2
*D1
 10
185.0752754034
 20
86.8568092369
 11
185.0752754034
 21
109.0135135135
 70
160
 71
2
 42
44.3134085533
  3
DIMSTYLE_2
100
AcDbAlignedDimension
 13
171.4682425282
 23
131.1702177901
 14
171.4682425282
 24
86.8568092369
 50
270.0
100
AcDbRotatedDimension
  0
DIMENSION
  5
24A
100
AcDbEntity
  8
0
100
AcDbDimension
 62
7
  6
CONTINUOUS
  2
*D2
 10
112.7733523301
 20
144.4069700199
 11
115.4480112832
 21
144.4069700199
 70
160
 71
2
 42
5.3493179062
  3
DIMSTYLE_2
100
AcDbAlignedDimension
 13
118.1226702363
 23
122.1135135135
 14
112.7733523301
 24
109.7534313169
 50
180.0
100
AcDbRotatedDimension
  0
LWPOLYLINE
  5
24B
100
AcDbEntity
  8
ASSI
100
AcDbPolyline
 62
253
  6
CONTINUOUS
 90
7
 70
0
 10
128.3764558036
 20
131.0379029551
 10
128.3754041072
 20
131.030517018
 10
128.3743105887
 20
131.0172413466
 10
128.3732031271
 20
130.9981445686
 10
128.3721303622
 20
130.9733249183
 10
128.371098231
 20
130.9429074415
 10
128.3690688039
 20
130.8659026695
  0
LWPOLYLINE
  5
24C
100
AcDbEntity
  8
0
100
AcDbPolyline
 62
253
  6
CONTINUOUS
 90
7
 70
0
 10
128.3764558036
 20
131.0379029551
 10
128.3754041072
 20
131.030517018
 10
128.3743105887
 20
131.0172413466
 10
128.3732031271
 20
130.9981445686
 10
128.3721303622
 20
130.9733249183
 10
128.371098231
 20
130.9429074415
 10
128.3690688039
 20
130.8659026695
  0
LINE
  5
24D
100
AcDbEntity
  8
ASSI
100
AcDbLine
 62
7
  6
CONTINUOUS
 10
164.3807363904
 20
86.8568092369
 11
164.7315581124
 21
86.8886543547
  0
LINE
  5
24E
100
AcDbEntity
  8
0
100
AcDbLine
 62
7
  6
CONTINUOUS
 10
164.3807363904
 20
86.8568092369
 11
164.7315581124
 21
86.8886543547
  0
LWPOLYLINE
  5
24F
100
AcDbEntity
  8
ASSI
100
AcDbPolyline
 62
253
  6
CONTINUOUS
 90
16
 70
0
 10
171.402130475
 20
86.9891240719
 10
171.4543321014
 20
86.9919261171
 10
171.505962713
 20
87.0001587065
 10
171.5564576097
 20
87.0137317768
 10
171.6052645315
 20
87.0324968612
 10
171.651849653
 20
87.0562486972
 10
171.6957034298
 20
87.0847274574
 10
171.7363462341
 20
87.117621626
 10
171.7733335787
 20
87.1545714104
 10
171.8062609423
 20
87.1951726455
 10
171.8347682219
 20
87.2389812369
 10
171.8585436742
 20
87.2855180338
 10
171.8773273085
 20
87.3342740588
 10
171.8909137251
 20
87.3847160618
 10
171.8991543648
 20
87.436292351
 10
171.9019591375
 20
87.4884388393
  0
LWPOLYLINE
  5
250
100
AcDbEntity
  8
0
100
AcDbPolyline
 62
253
  6
CONTINUOUS
 90
16
 70
0
 10
171.402130475
 20
86.9891240719
 10
171.4543321014
 20
86.9919261171
 10
171.505962713
 20
87.0001587065
 10
171.5564576097
 20
87.0137317768
 10
171.6052645315
 20
87.0324968612
 10
171.651849653
 20
87.0562486972
 10
171.6957034298
 20
87.0847274574
 10
171.7363462341
 20
87.117621626
 10
171.7733335787
 20
87.1545714104
 10
171.8062609423
 20
87.1951726455
 10
171.8347682219
 20
87.2389812369
 10
171.8585436742
 20
87.2855180338
 10
171.8773273085
 20
87.3342740588
 10
171.8909137251
 20
87.3847160618
 10
171.8991543648
 20
87.436292351
 10
171.9019591375
 20
87.4884388393
  0
LWPOLYLINE
  5
251
100
AcDbEntity
  8
ASSI
100
AcDbPolyline
 62
253
  6
CONTINUOUS
 90
16
 70
0
 10
128.3764558029
 20
86.9891240706
 10
128.3242548329
 20
86.9919260459
 10
128.2726247914
 20
87.000158443
 10
128.2221303625
 20
87.0137312232
 10
128.17332381
 20
87.0324959394
 10
128.1267389373
 20
87.0562473595
 10
128.0828852489
 20
87.0847257112
 10
128.042242378
 20
87.1176195234
 10
128.0052548407
 20
87.1545690324
 10
127.9723271742
 20
87.1951701167
 10
127.9438195125
 20
87.2389787172
 10
127.9200436475
 20
87.285515694
 10
127.9012596187
 20
87.3342720663
 10
127.8876728694
 20
87.3847145797
 10
127.8794319995
 20
87.4362915381
 10
127.8766271404
 20
87.488438838
  0
LWPOLYLINE
  5
252
100
AcDbEntity
  8
0
100
AcDbPolyline
 62
253
  6
CONTINUOUS
 90
16
 70
0
 10
128.3764558029
 20
86.9891240706
 10
128.3242548329
 20
86.9919260459
 10
128.2726247914
 20
87.000158443
 10
128.2221303625
 20
87.0137312232
 10
128.17332381
 20
87.0324959394
 10
128.1267389373
 20
87.0562473595
 10
128.0828852489
 20
87.0847257112
 10
128.042242378
 20
87.1176195234
 10
128.0052548407
 20
87.1545690324
 10
127.9723271742
 20
87.1951701167
 10
127.9438195125
 20
87.2389787172
 10
127.9200436475
 20
87.285515694
 10
127.9012596187
 20
87.3342720663
 10
127.8876728694
 20
87.3847145797
 10
127.8794319995
 20
87.4362915381
 10
127.8766271404
 20
87.488438838
  0
LINE
  5
253
100
AcDbEntity
  8
ASSI
100
AcDbLine
 62
7
  6
CONTINUOUS
 10
135.3978498882
 20
86.8568092369
 11
135.0470281662
 21
86.8886543547
  0
LINE
  5
254
100
AcDbEntity
  8
0
100
AcDbLine
 62
7
  6
CONTINUOUS
 10
135.3978498882
 20
86.8568092369
 11
135.0470281662
 21
86.8886543547
  0
LWPOLYLINE
  5
255
100
AcDbEntity
  8
ASSI
100
AcDbPolyline
 62
253
  6
CONTINUOUS
 90
8
 70
0
 10
128.3770146837
 20
109.3822843728
 10
128.380653841
 20
109.3491858844
 10
128.3845848079
 20
109.3205435434
 10
128.3882346763
 20
109.2966212305
 10
128.3925072365
 20
109.2775819378
 10
128.3974001548
 20
109.2636830764
 10
128.4019382629
 20
109.2551370411
 10
128.4056339434
 20
109.2519949852
  0
LWPOLYLINE
  5
256
100
AcDbEntity
  8
0
100
AcDbPolyline
 62
253
  6
CONTINUOUS
 90
8
 70
0
 10
128.3770146837
 20
109.3822843728
 10
128.380653841
 20
109.3491858844
 10
128.3845848079
 20
109.3205435434
 10
128.3882346763
 20
109.2966212305
 10
128.3925072365
 20
109.2775819378
 10
128.3974001548
 20
109.2636830764
 10
128.4019382629
 20
109.2551370411
 10
128.4056339434
 20
109.2519949852
  0
LWPOLYLINE
  5
257
100
AcDbEntity
  8
ASSI
100
AcDbPolyline
 62
253
  6
CONTINUOUS
 90
16
 70
0
 10
127.9058052809
 20
109.7519759468
 10
127.9084908184
 20
109.7003300068
 10
127.9165309892
 20
109.6490660144
 10
127.9298926023
 20
109.5987445023
 10
127.948506525
 20
109.5498722613
 10
127.9722081482
 20
109.5030598203
 10
128.0006837394
 20
109.4589876809
 10
128.0335785752
 20
109.4181876301
 10
128.070562406
 20
109.3810543953
 10
128.1112396525
 20
109.347988587
 10
128.1551737547
 20
109.3193526663
 10
128.2018769708
 20
109.2954715716
 10
128.2508236825
 20
109.2766166024
 10
128.3014703822
 20
109.2629963724
 10
128.3532638528
 20
109.254758928
 10
128.4056339434
 20
109.2519949852
  0
LWPOLYLINE
  5
258
100
AcDbEntity
  8
0
100
AcDbPolyline
 62
253
  6
CONTINUOUS
 90
16
 70
0
 10
127.9058052809
 20
109.7519759468
 10
127.9084908184
 20
109.7003300068
 10
127.9165309892
 20
109.6490660144
 10
127.9298926023
 20
109.5987445023
 10
127.948506525
 20
109.5498722613
 10
127.9722081482
 20
109.5030598203
 10
128.0006837394
 20
109.4589876809
 10
128.0335785752
 20
109.4181876301
 10
128.070562406
 20
109.3810543953
 10
128.1112396525
 20
109.347988587
 10
128.1551737547
 20
109.3193526663
 10
128.2018769708
 20
109.2954715716
 10
128.2508236825
 20
109.2766166024
 10
128.3014703822
 20
109.2629963724
 10
128.3532638528
 20
109.254758928
 10
128.4056339434
 20
109.2519949852
  0
LWPOLYLINE
  5
259
100
AcDbEntity
  8
ASSI
100
AcDbPolyline
 62
253
  6
CONTINUOUS
 90
4
 70
0
 10
128.366708384
 20
109.550542112
 10
128.3685093781
 20
109.5038312115
 10
128.3712235555
 20
109.4598611269
 10
128.3770146837
 20
109.3822843728
  0
LWPOLYLINE
  5
25A
100
AcDbEntity
  8
0
100
AcDbPolyline
 62
253
  6
CONTINUOUS
 90
4
 70
0
 10
128.366708384
 20
109.550542112
 10
128.3685093781
 20
109.5038312115
 10
128.3712235555
 20
109.4598611269
 10
128.3770146837
 20
109.3822843728
  0
LWPOLYLINE
  5
25B
100
AcDbEntity
  8
ASSI
100
AcDbPolyline
 62
253
  6
CONTINUOUS
 90
6
 70
0
 10
128.3710982302
 20
87.0841195855
 10
128.3721303616
 20
87.0537021092
 10
128.3732031265
 20
87.0288824588
 10
128.3743105881
 20
87.0097856801
 10
128.3754041066
 20
86.9965100082
 10
128.3764558029
 20
86.9891240706
  0
LWPOLYLINE
  5
25C
100
AcDbEntity
  8
0
100
AcDbPolyline
 62
253
  6
CONTINUOUS
 90
6
 70
0
 10
128.3710982302
 20
87.0841195855
 10
128.3721303616
 20
87.0537021092
 10
128.3732031265
 20
87.0288824588
 10
128.3743105881
 20
87.0097856801
 10
128.3754041066
 20
86.9965100082
 10
128.3764558029
 20
86.9891240706
  0
LINE
  5
25D
100
AcDbEntity
  8
ASSI
100
AcDbLine
 62
253
  6
CONTINUOUS
 10
127.8873092422
 20
130.3815308373
 11
127.8891949292
 21
130.3139302167
  0
LINE
  5
25E
100
AcDbEntity
  8
0
100
AcDbLine
 62
253
  6
CONTINUOUS
 10
127.8873092422
 20
130.3815308373
 11
127.8891949292
 21
130.3139302167
  0
LINE
  5
25F
100
AcDbEntity
  8
ASSI
100
AcDbLine
 62
253
  6
CONTINUOUS
 10
128.369068803
 20
87.1611243564
 11
128.3710982302
 21
87.0841195855
  0
LINE
  5
260
100
AcDbEntity
  8
0
100
AcDbLine
 62
253
  6
CONTINUOUS
 10
128.369068803
 20
87.1611243564
 11
128.3710982302
 21
87.0841195855
  0
LINE
  5
261
100
AcDbEntity
  8
ASSI
100
AcDbLine
 62
253
  6
CONTINUOUS
 10
127.8891949292
 20
130.3139302167
 11
127.8908087514
 21
130.2371834708
  0
LINE
  5
262
100
AcDbEntity
  8
0
100
AcDbLine
 62
253
  6
CONTINUOUS
 10
127.8891949292
 20
130.3139302167
 11
127.8908087514
 21
130.2371834708
  0
LINE
  5
263
100
AcDbEntity
  8
ASSI
100
AcDbLine
 62
253
  6
CONTINUOUS
 10
128.3671949876
 20
87.2583694243
 11
128.369068803
 21
87.1611243564
  0
LINE
  5
264
100
AcDbEntity
  8
0
100
AcDbLine
 62
253
  6
CONTINUOUS
 10
128.3671949876
 20
87.2583694243
 11
128.369068803
 21
87.1611243564
  0
LINE
  5
265
100
AcDbEntity
  8
ASSI
100
AcDbLine
 62
253
  6
CONTINUOUS
 10
127.8908087514
 20
130.2371834708
 11
127.8921270677
 21
130.152431469
  0
LINE
  5
266
100
AcDbEntity
  8
0
100
AcDbLine
 62
253
  6
CONTINUOUS
 10
127.8908087514
 20
130.2371834708
 11
127.8921270677
 21
130.152431469
  0
LINE
  5
267
100
AcDbEntity
  8
ASSI
100
AcDbLine
 62
253
  6
CONTINUOUS
 10
128.364695528
 20
87.4378407759
 11
128.3671949876
 21
87.2583694243
  0
LINE
  5
268
100
AcDbEntity
  8
0
100
AcDbLine
 62
253
  6
CONTINUOUS
 10
128.364695528
 20
87.4378407759
 11
128.3671949876
 21
87.2583694243
  0
LINE
  5
269
100
AcDbEntity
  8
ASSI
100
AcDbLine
 62
253
  6
CONTINUOUS
 10
127.8921270677
 20
130.152431469
 11
127.8934855523
 21
130.0144233096
  0
LINE
  5
26A
100
AcDbEntity
  8
0
100
AcDbLine
 62
253
  6
CONTINUOUS
 10
127.8921270677
 20
130.152431469
 11
127.8934855523
 21
130.0144233096
  0
LINE
  5
26B
100
AcDbEntity
  8
ASSI
100
AcDbLine
 62
253
  6
CONTINUOUS
 10
128.3621220999
 20
87.7270279996
 11
128.364695528
 21
87.4378407759
  0
LINE
  5
26C
100
AcDbEntity
  8
0
100
AcDbLine
 62
253
  6
CONTINUOUS
 10
128.3621220999
 20
87.7270279996
 11
128.364695528
 21
87.4378407759
  0
LWPOLYLINE
  5
26D
100
AcDbEntity
  8
ASSI
100
AcDbPolyline
 62
253
  6
CONTINUOUS
 90
3
 70
0
 10
128.3629675537
 20
108.2742928532
 10
128.3627427871
 20
108.3272807865
 10
128.3635954202
 20
108.3785306329
  0
LWPOLYLINE
  5
26E
100
AcDbEntity
  8
0
100
AcDbPolyline
 62
253
  6
CONTINUOUS
 90
3
 70
0
 10
128.3629675537
 20
108.2742928532
 10
128.3627427871
 20
108.3272807865
 10
128.3635954202
 20
108.3785306329
  0
LINE
  5
26F
100
AcDbEntity
  8
ASSI
100
AcDbLine
 62
7
  6
CONTINUOUS
 10
127.8097173287
 20
87.3545273912
 11
127.7901089373
 21
95.9135135135
  0
LINE
  5
270
100
AcDbEntity
  8
0
100
AcDbLine
 62
7
  6
CONTINUOUS
 10
127.8097173287
 20
87.3545273912
 11
127.7901089373
 21
95.9135135135
  0
LINE
  5
271
100
AcDbEntity
  8
ASSI
100
AcDbLine
 62
253
  6
CONTINUOUS
 10
128.3603945573
 20
88.136246033
 11
128.3621220999
 21
87.7270279996
  0
LINE
  5
272
100
AcDbEntity
  8
0
100
AcDbLine
 62
253
  6
CONTINUOUS
 10
128.3603945573
 20
88.136246033
 11
128.3621220999
 21
87.7270279996
  0
LINE
  5
273
100
AcDbEntity
  8
ASSI
100
AcDbLine
 62
253
  6
CONTINUOUS
 10
127.8934855523
 20
130.0144233096
 11
127.8940536556
 21
129.8693388704
  0
LINE
  5
274
100
AcDbEntity
  8
0
100
AcDbLine
 62
253
  6
CONTINUOUS
 10
127.8934855523
 20
130.0144233096
 11
127.8940536556
 21
129.8693388704
  0
LINE
  5
275
100
AcDbEntity
  8
ASSI
100
AcDbLine
 62
253
  6
CONTINUOUS
 10
127.8940536556
 20
129.8693388704
 11
127.9042767713
 21
116.5671775258
  0
LINE
  5
276
100
AcDbEntity
  8
0
100
AcDbLine
 62
253
  6
CONTINUOUS
 10
127.8940536556
 20
129.8693388704
 11
127.9042767713
 21
116.5671775258
  0
LINE
  5
277
100
AcDbEntity
  8
ASSI
100
AcDbLine
 62
7
  6
CONTINUOUS
 10
127.7901089373
 20
122.1135135135
 11
127.7901089373
 21
109.7134183313
  0
LINE
  5
278
100
AcDbEntity
  8
0
100
AcDbLine
 62
7
  6
CONTINUOUS
 10
127.7901089373
 20
122.1135135135
 11
127.7901089373
 21
109.7134183313
  0
LINE
  5
279
100
AcDbEntity
  8
ASSI
100
AcDbLine
 62
7
  6
CONTINUOUS
 10
127.7901089373
 20
95.9135135135
 11
127.7901089373
 21
108.3136086957
  0
LINE
  5
27A
100
AcDbEntity
  8
0
100
AcDbLine
 62
7
  6
CONTINUOUS
 10
127.7901089373
 20
95.9135135135
 11
127.7901089373
 21
108.3136086957
  0
LINE
  5
27B
100
AcDbEntity
  8
ASSI
100
AcDbLine
 62
253
  6
CONTINUOUS
 10
127.9042767713
 20
116.5671775258
 11
127.9058052809
 21
109.7519759468
  0
LINE
  5
27C
100
AcDbEntity
  8
0
100
AcDbLine
 62
253
  6
CONTINUOUS
 10
127.9042767713
 20
116.5671775258
 11
127.9058052809
 21
109.7519759468
  0
LINE
  5
27D
100
AcDbEntity
  8
ASSI
100
AcDbLine
 62
253
  6
CONTINUOUS
 10
128.3629677695
 20
108.2742928496
 11
128.3603945625
 21
88.136246032
  0
LINE
  5
27E
100
AcDbEntity
  8
0
100
AcDbLine
 62
253
  6
CONTINUOUS
 10
128.3629677695
 20
108.2742928496
 11
128.3603945625
 21
88.136246032
  0
LINE
  5
27F
100
AcDbEntity
  8
ASSI
100
AcDbLine
 62
253
  6
CONTINUOUS
 10
127.9058052834
 20
108.2750510794
 11
127.9035557251
 21
99.8504639094
  0
LINE
  5
280
100
AcDbEntity
  8
0
100
AcDbLine
 62
253
  6
CONTINUOUS
 10
127.9058052834
 20
108.2750510794
 11
127.9035557251
 21
99.8504639094
  0
LINE
  5
281
100
AcDbEntity
  8
ASSI
100
AcDbLine
 62
253
  6
CONTINUOUS
 10
127.9035557251
 20
99.8504639094
 11
127.8966587695
 21
90.6610110485
  0
LINE
  5
282
100
AcDbEntity
  8
0
100
AcDbLine
 62
253
  6
CONTINUOUS
 10
127.9035557251
 20
99.8504639094
 11
127.8966587695
 21
90.6610110485
  0
LINE
  5
283
100
AcDbEntity
  8
ASSI
100
AcDbLine
 62
7
  6
CONTINUOUS
 10
127.8097173287
 20
130.6724996358
 11
127.7901089373
 21
122.1135135135
  0
LINE
  5
284
100
AcDbEntity
  8
0
100
AcDbLine
 62
7
  6
CONTINUOUS
 10
127.8097173287
 20
130.6724996358
 11
127.7901089373
 21
122.1135135135
  0
LINE
  5
285
100
AcDbEntity
  8
ASSI
100
AcDbLine
 62
253
  6
CONTINUOUS
 10
128.3608679775
 20
130.0581230636
 11
128.362967758
 21
109.7527341829
  0
LINE
  5
286
100
AcDbEntity
  8
0
100
AcDbLine
 62
253
  6
CONTINUOUS
 10
128.3608679775
 20
130.0581230636
 11
128.362967758
 21
109.7527341829
  0
LINE
  5
287
100
AcDbEntity
  8
ASSI
100
AcDbLine
 62
253
  6
CONTINUOUS
 10
127.8966587695
 20
90.6610110485
 11
127.8937627396
 21
88.0601789419
  0
LINE
  5
288
100
AcDbEntity
  8
0
100
AcDbLine
 62
253
  6
CONTINUOUS
 10
127.8966587695
 20
90.6610110485
 11
127.8937627396
 21
88.0601789419
  0
LWPOLYLINE
  5
289
100
AcDbEntity
  8
ASSI
100
AcDbPolyline
 62
253
  6
CONTINUOUS
 90
4
 70
0
 10
128.362967551
 20
109.7527341849
 10
128.3627429131
 20
109.6997482487
 10
128.363595465
 20
109.6485000761
 10
128.366708384
 20
109.550542112
  0
LWPOLYLINE
  5
28A
100
AcDbEntity
  8
0
100
AcDbPolyline
 62
253
  6
CONTINUOUS
 90
4
 70
0
 10
128.362967551
 20
109.7527341849
 10
128.3627429131
 20
109.6997482487
 10
128.363595465
 20
109.6485000761
 10
128.366708384
 20
109.550542112
  0
LINE
  5
28B
100
AcDbEntity
  8
ASSI
100
AcDbLine
 62
253
  6
CONTINUOUS
 10
128.3632933376
 20
130.450589494
 11
128.3608679775
 21
130.0581230636
  0
LINE
  5
28C
100
AcDbEntity
  8
0
100
AcDbLine
 62
253
  6
CONTINUOUS
 10
128.3632933376
 20
130.450589494
 11
128.3608679775
 21
130.0581230636
  0
LINE
  5
28D
100
AcDbEntity
  8
ASSI
100
AcDbLine
 62
253
  6
CONTINUOUS
 10
127.8937627396
 20
88.0601789419
 11
127.8926632904
 21
87.919314404
  0
LINE
  5
28E
100
AcDbEntity
  8
0
100
AcDbLine
 62
253
  6
CONTINUOUS
 10
127.8937627396
 20
88.0601789419
 11
127.8926632904
 21
87.919314404
  0
LINE
  5
28F
100
AcDbEntity
  8
ASSI
100
AcDbLine
 62
253
  6
CONTINUOUS
 10
128.3654834999
 20
130.6531160779
 11
128.3632933376
 21
130.450589494
  0
LINE
  5
290
100
AcDbEntity
  8
0
100
AcDbLine
 62
253
  6
CONTINUOUS
 10
128.3654834999
 20
130.6531160779
 11
128.3632933376
 21
130.450589494
  0
LINE
  5
291
100
AcDbEntity
  8
ASSI
100
AcDbLine
 62
253
  6
CONTINUOUS
 10
127.8926632904
 20
87.919314404
 11
127.8915085002
 21
87.8314532145
  0
LINE
  5
292
100
AcDbEntity
  8
0
100
AcDbLine
 62
253
  6
CONTINUOUS
 10
127.8926632904
 20
87.919314404
 11
127.8915085002
 21
87.8314532145
  0
LINE
  5
293
100
AcDbEntity
  8
ASSI
100
AcDbLine
 62
253
  6
CONTINUOUS
 10
128.3671949885
 20
130.7686576007
 11
128.3654834999
 21
130.6531160779
  0
LINE
  5
294
100
AcDbEntity
  8
0
100
AcDbLine
 62
253
  6
CONTINUOUS
 10
128.3671949885
 20
130.7686576007
 11
128.3654834999
 21
130.6531160779
  0
LINE
  5
295
100
AcDbEntity
  8
ASSI
100
AcDbLine
 62
253
  6
CONTINUOUS
 10
127.8915085002
 20
87.8314532145
 11
127.8900379382
 21
87.7503815261
  0
LINE
  5
296
100
AcDbEntity
  8
0
100
AcDbLine
 62
253
  6
CONTINUOUS
 10
127.8915085002
 20
87.8314532145
 11
127.8900379382
 21
87.7503815261
  0
LINE
  5
297
100
AcDbEntity
  8
ASSI
100
AcDbLine
 62
253
  6
CONTINUOUS
 10
128.3690688039
 20
130.8659026695
 11
128.3671949885
 21
130.7686576007
  0
LINE
  5
298
100
AcDbEntity
  8
0
100
AcDbLine
 62
253
  6
CONTINUOUS
 10
128.3690688039
 20
130.8659026695
 11
128.3671949885
 21
130.7686576007
  0
LWPOLYLINE
  5
299
100
AcDbEntity
  8
ASSI
100
AcDbPolyline
 62
253
  6
CONTINUOUS
 90
12
 70
0
 10
127.8900379382
 20
87.7503815261
 10
127.8882808559
 20
87.6779597229
 10
127.8873092416
 20
87.6454961878
 10
127.8862792299
 20
87.6157478506
 10
127.8851916767
 20
87.5886730638
 10
127.8840626706
 20
87.5646728025
 10
127.882891025
 20
87.5437918135
 10
127.8816779265
 20
87.52598535
 10
127.8804430239
 20
87.5115201472
 10
127.8791928668
 20
87.5004851168
 10
127.8779209057
 20
87.4927913471
 10
127.8766271404
 20
87.488438838
  0
LWPOLYLINE
  5
29A
100
AcDbEntity
  8
0
100
AcDbPolyline
 62
253
  6
CONTINUOUS
 90
12
 70
0
 10
127.8900379382
 20
87.7503815261
 10
127.8882808559
 20
87.6779597229
 10
127.8873092416
 20
87.6454961878
 10
127.8862792299
 20
87.6157478506
 10
127.8851916767
 20
87.5886730638
 10
127.8840626706
 20
87.5646728025
 10
127.882891025
 20
87.5437918135
 10
127.8816779265
 20
87.52598535
 10
127.8804430239
 20
87.5115201472
 10
127.8791928668
 20
87.5004851168
 10
127.8779209057
 20
87.4927913471
 10
127.8766271404
 20
87.488438838
  0
LWPOLYLINE
  5
29B
100
AcDbEntity
  8
ASSI
100
AcDbPolyline
 62
253
  6
CONTINUOUS
 90
4
 70
0
 10
128.3635954202
 20
108.3785306329
 10
128.3667086372
 20
108.476490935
 10
128.3685096706
 20
108.5232024948
 10
128.3712239859
 20
108.5671727967
  0
LWPOLYLINE
  5
29C
100
AcDbEntity
  8
0
100
AcDbPolyline
 62
253
  6
CONTINUOUS
 90
4
 70
0
 10
128.3635954202
 20
108.3785306329
 10
128.3667086372
 20
108.476490935
 10
128.3685096706
 20
108.5232024948
 10
128.3712239859
 20
108.5671727967
  0
LWPOLYLINE
  5
29D
100
AcDbEntity
  8
ASSI
100
AcDbPolyline
 62
253
  6
CONTINUOUS
 90
16
 70
0
 10
127.9058052834
 20
108.2750510794
 10
127.9084908259
 20
108.3266970672
 10
127.9165310093
 20
108.3779610954
 10
127.9298926391
 20
108.4282826303
 10
127.9485065785
 20
108.47715488
 10
127.9722082151
 20
108.5239673178
 10
128.0006838155
 20
108.568039447
 10
128.0335786539
 20
108.608839481
 10
128.0705624796
 20
108.6459726951
 10
128.1112397189
 20
108.6790384857
 10
128.1551738156
 20
108.7076743937
 10
128.2018770257
 20
108.731555478
 10
128.2508237286
 20
108.750410438
 10
128.301470416
 20
108.7640306605
 10
128.3532638719
 20
108.7722680999
 10
128.4056339459
 20
108.7750320409
  0
LWPOLYLINE
  5
29E
100
AcDbEntity
  8
0
100
AcDbPolyline
 62
253
  6
CONTINUOUS
 90
16
 70
0
 10
127.9058052834
 20
108.2750510794
 10
127.9084908259
 20
108.3266970672
 10
127.9165310093
 20
108.3779610954
 10
127.9298926391
 20
108.4282826303
 10
127.9485065785
 20
108.47715488
 10
127.9722082151
 20
108.5239673178
 10
128.0006838155
 20
108.568039447
 10
128.0335786539
 20
108.608839481
 10
128.0705624796
 20
108.6459726951
 10
128.1112397189
 20
108.6790384857
 10
128.1551738156
 20
108.7076743937
 10
128.2018770257
 20
108.731555478
 10
128.2508237286
 20
108.750410438
 10
128.301470416
 20
108.7640306605
 10
128.3532638719
 20
108.7722680999
 10
128.4056339459
 20
108.7750320409
  0
LWPOLYLINE
  5
29F
100
AcDbEntity
  8
ASSI
100
AcDbPolyline
 62
253
  6
CONTINUOUS
 90
9
 70
0
 10
128.3712239859
 20
108.5671727967
 10
128.377015263
 20
108.6447486131
 10
128.3806544297
 20
108.6778461732
 10
128.384585419
 20
108.7064873984
 10
128.3882352255
 20
108.7304085308
 10
128.3925076655
 20
108.7494467511
 10
128.3974004368
 20
108.7633447516
 10
128.401938389
 20
108.7718902062
 10
128.4056339455
 20
108.7750320409
  0
LWPOLYLINE
  5
2A0
100
AcDbEntity
  8
0
100
AcDbPolyline
 62
253
  6
CONTINUOUS
 90
9
 70
0
 10
128.3712239859
 20
108.5671727967
 10
128.377015263
 20
108.6447486131
 10
128.3806544297
 20
108.6778461732
 10
128.384585419
 20
108.7064873984
 10
128.3882352255
 20
108.7304085308
 10
128.3925076655
 20
108.7494467511
 10
128.3974004368
 20
108.7633447516
 10
128.401938389
 20
108.7718902062
 10
128.4056339455
 20
108.7750320409
  0
LINE
  5
2A1
100
AcDbEntity
  8
ASSI
100
AcDbLine
 62
7
  6
CONTINUOUS
 10
153.1807363904
 20
86.8568092369
 11
153.5315581124
 21
86.8886543547
  0
LINE
  5
2A2
100
AcDbEntity
  8
0
100
AcDbLine
 62
7
  6
CONTINUOUS
 10
153.1807363904
 20
86.8568092369
 11
153.5315581124
 21
86.8886543547
  0
LINE
  5
2A3
100
AcDbEntity
  8
ASSI
100
AcDbLine
 62
7
  6
CONTINUOUS
 10
142.1807363904
 20
86.8568092369
 11
142.5315581124
 21
86.8886543547
  0
LINE
  5
2A4
100
AcDbEntity
  8
0
100
AcDbLine
 62
7
  6
CONTINUOUS
 10
142.1807363904
 20
86.8568092369
 11
142.5315581124
 21
86.8886543547
  0
LINE
  5
2A5
100
AcDbEntity
  8
ASSI
100
AcDbLine
 62
7
  6
CONTINUOUS
 10
130.9807363904
 20
86.8568092369
 11
131.3315581124
 21
86.8886543547
  0
LINE
  5
2A6
100
AcDbEntity
  8
0
100
AcDbLine
 62
7
  6
CONTINUOUS
 10
130.9807363904
 20
86.8568092369
 11
131.3315581124
 21
86.8886543547
  0
LWPOLYLINE
  5
2A7
100
AcDbEntity
  8
ASSI
100
AcDbPolyline
 62
253
  6
CONTINUOUS
 90
16
 70
0
 10
149.202130475
 20
86.9891240719
 10
149.2543321014
 20
86.9919261171
 10
149.305962713
 20
87.0001587065
 10
149.3564576097
 20
87.0137317768
 10
149.4052645315
 20
87.0324968612
 10
149.451849653
 20
87.0562486972
 10
149.4957034298
 20
87.0847274574
 10
149.5363462341
 20
87.117621626
 10
149.5733335787
 20
87.1545714104
 10
149.6062609423
 20
87.1951726455
 10
149.6347682219
 20
87.2389812369
 10
149.6585436742
 20
87.2855180338
 10
149.6773273085
 20
87.3342740588
 10
149.6909137251
 20
87.3847160618
 10
149.6991543648
 20
87.436292351
 10
149.7019591375
 20
87.4884388393
  0
LWPOLYLINE
  5
2A8
100
AcDbEntity
  8
0
100
AcDbPolyline
 62
253
  6
CONTINUOUS
 90
16
 70
0
 10
149.202130475
 20
86.9891240719
 10
149.2543321014
 20
86.9919261171
 10
149.305962713
 20
87.0001587065
 10
149.3564576097
 20
87.0137317768
 10
149.4052645315
 20
87.0324968612
 10
149.451849653
 20
87.0562486972
 10
149.4957034298
 20
87.0847274574
 10
149.5363462341
 20
87.117621626
 10
149.5733335787
 20
87.1545714104
 10
149.6062609423
 20
87.1951726455
 10
149.6347682219
 20
87.2389812369
 10
149.6585436742
 20
87.2855180338
 10
149.6773273085
 20
87.3342740588
 10
149.6909137251
 20
87.3847160618
 10
149.6991543648
 20
87.436292351
 10
149.7019591375
 20
87.4884388393
  0
LWPOLYLINE
  5
2A9
100
AcDbEntity
  8
ASSI
100
AcDbPolyline
 62
253
  6
CONTINUOUS
 90
14
 70
0
 10
171.5151957133
 20
88.137053028
 10
171.5620330565
 20
88.1377591096
 10
171.6071510319
 20
88.1386584214
 10
171.6501121793
 20
88.1397422439
 10
171.6904999511
 20
88.1410000685
 10
171.727922751
 20
88.1424196994
 10
171.7620177305
 20
88.143987372
 10
171.7924543078
 20
88.1456878862
 10
171.8189373723
 20
88.1475047541
 10
171.8412101464
 20
88.1494203594
 10
171.8590566753
 20
88.1514161286
 10
171.8723039206
 20
88.1534727109
 10
171.880823438
 20
88.1555701658
 10
171.884532623
 20
88.1576881567
  0
LWPOLYLINE
  5
2AA
100
AcDbEntity
  8
0
100
AcDbPolyline
 62
253
  6
CONTINUOUS
 90
14
 70
0
 10
171.5151957133
 20
88.137053028
 10
171.5620330565
 20
88.1377591096
 10
171.6071510319
 20
88.1386584214
 10
171.6501121793
 20
88.1397422439
 10
171.6904999511
 20
88.1410000685
 10
171.727922751
 20
88.1424196994
 10
171.7620177305
 20
88.143987372
 10
171.7924543078
 20
88.1456878862
 10
171.8189373723
 20
88.1475047541
 10
171.8412101464
 20
88.1494203594
 10
171.8590566753
 20
88.1514161286
 10
171.8723039206
 20
88.1534727109
 10
171.880823438
 20
88.1555701658
 10
171.884532623
 20
88.1576881567
  0
LWPOLYLINE
  5
2AB
100
AcDbEntity
  8
ASSI
100
AcDbPolyline
 62
253
  6
CONTINUOUS
 90
14
 70
0
 10
149.3151957133
 20
88.137053028
 10
149.3620330565
 20
88.1377591096
 10
149.4071510319
 20
88.1386584214
 10
149.4501121793
 20
88.1397422439
 10
149.4904999511
 20
88.1410000685
 10
149.527922751
 20
88.1424196994
 10
149.5620177305
 20
88.143987372
 10
149.5924543078
 20
88.1456878862
 10
149.6189373723
 20
88.1475047541
 10
149.6412101464
 20
88.1494203594
 10
149.6590566753
 20
88.1514161286
 10
149.6723039206
 20
88.1534727109
 10
149.680823438
 20
88.1555701658
 10
149.684532623
 20
88.1576881567
  0
LWPOLYLINE
  5
2AC
100
AcDbEntity
  8
0
100
AcDbPolyline
 62
253
  6
CONTINUOUS
 90
14
 70
0
 10
149.3151957133
 20
88.137053028
 10
149.3620330565
 20
88.1377591096
 10
149.4071510319
 20
88.1386584214
 10
149.4501121793
 20
88.1397422439
 10
149.4904999511
 20
88.1410000685
 10
149.527922751
 20
88.1424196994
 10
149.5620177305
 20
88.143987372
 10
149.5924543078
 20
88.1456878862
 10
149.6189373723
 20
88.1475047541
 10
149.6412101464
 20
88.1494203594
 10
149.6590566753
 20
88.1514161286
 10
149.6723039206
 20
88.1534727109
 10
149.680823438
 20
88.1555701658
 10
149.684532623
 20
88.1576881567
  0
LINE
  5
2AD
100
AcDbEntity
  8
ASSI
100
AcDbLine
 62
253
  6
CONTINUOUS
 10
171.4181917145
 20
88.1362460005
 11
171.5151957133
 21
88.137053028
  0
LINE
  5
2AE
100
AcDbEntity
  8
0
100
AcDbLine
 62
253
  6
CONTINUOUS
 10
171.4181917145
 20
88.1362460005
 11
171.5151957133
 21
88.137053028
  0
LINE
  5
2AF
100
AcDbEntity
  8
ASSI
100
AcDbLine
 62
253
  6
CONTINUOUS
 10
149.2181917145
 20
88.1362460005
 11
149.3151957133
 21
88.137053028
  0
LINE
  5
2B0
100
AcDbEntity
  8
0
100
AcDbLine
 62
253
  6
CONTINUOUS
 10
149.2181917145
 20
88.1362460005
 11
149.3151957133
 21
88.137053028
  0
LINE
  5
2B1
100
AcDbEntity
  8
ASSI
100
AcDbLine
 62
253
  6
CONTINUOUS
 10
150.5764558029
 20
86.9891240706
 11
153.9460213722
 21
86.9991502069
  0
LINE
  5
2B2
100
AcDbEntity
  8
0
100
AcDbLine
 62
253
  6
CONTINUOUS
 10
150.5764558029
 20
86.9891240706
 11
153.9460213722
 21
86.9991502069
  0
LINE
  5
2B3
100
AcDbEntity
  8
ASSI
100
AcDbLine
 62
253
  6
CONTINUOUS
 10
128.3764558029
 20
86.9891240706
 11
131.7460213722
 21
86.9991502069
  0
LINE
  5
2B4
100
AcDbEntity
  8
0
100
AcDbLine
 62
253
  6
CONTINUOUS
 10
128.3764558029
 20
86.9891240706
 11
131.7460213722
 21
86.9991502069
  0
LINE
  5
2B5
100
AcDbEntity
  8
ASSI
100
AcDbLine
 62
253
  6
CONTINUOUS
 10
153.9460213722
 20
86.9991502069
 11
157.3180674265
 21
87.0053043725
  0
LINE
  5
2B6
100
AcDbEntity
  8
0
100
AcDbLine
 62
253
  6
CONTINUOUS
 10
153.9460213722
 20
86.9991502069
 11
157.3180674265
 21
87.0053043725
  0
LINE
  5
2B7
100
AcDbEntity
  8
ASSI
100
AcDbLine
 62
253
  6
CONTINUOUS
 10
131.7460213722
 20
86.9991502069
 11
135.1180674265
 21
87.0053043725
  0
LINE
  5
2B8
100
AcDbEntity
  8
0
100
AcDbLine
 62
253
  6
CONTINUOUS
 10
131.7460213722
 20
86.9991502069
 11
135.1180674265
 21
87.0053043725
  0
LINE
  5
2B9
100
AcDbEntity
  8
ASSI
100
AcDbLine
 62
253
  6
CONTINUOUS
 10
150.5603945625
 20
88.136246032
 11
155.2873005123
 21
88.1412252682
  0
LINE
  5
2BA
100
AcDbEntity
  8
0
100
AcDbLine
 62
253
  6
CONTINUOUS
 10
150.5603945625
 20
88.136246032
 11
155.2873005123
 21
88.1412252682
  0
LINE
  5
2BB
100
AcDbEntity
  8
ASSI
100
AcDbLine
 62
253
  6
CONTINUOUS
 10
128.3603945625
 20
88.136246032
 11
133.7632149646
 21
88.1416980781
  0
LINE
  5
2BC
100
AcDbEntity
  8
0
100
AcDbLine
 62
253
  6
CONTINUOUS
 10
128.3603945625
 20
88.136246032
 11
133.7632149646
 21
88.1416980781
  0
LINE
  5
2BD
100
AcDbEntity
  8
ASSI
100
AcDbLine
 62
253
  6
CONTINUOUS
 10
157.3180674265
 20
87.0053043725
 11
160.6917245209
 21
87.007584582
  0
LINE
  5
2BE
100
AcDbEntity
  8
0
100
AcDbLine
 62
253
  6
CONTINUOUS
 10
157.3180674265
 20
87.0053043725
 11
160.6917245209
 21
87.007584582
  0
LINE
  5
2BF
100
AcDbEntity
  8
ASSI
100
AcDbLine
 62
253
  6
CONTINUOUS
 10
135.1180674265
 20
87.0053043725
 11
138.4917245209
 21
87.007584582
  0
LINE
  5
2C0
100
AcDbEntity
  8
0
100
AcDbLine
 62
253
  6
CONTINUOUS
 10
135.1180674265
 20
87.0053043725
 11
138.4917245209
 21
87.007584582
  0
LINE
  5
2C1
100
AcDbEntity
  8
ASSI
100
AcDbLine
 62
253
  6
CONTINUOUS
 10
155.2873005123
 20
88.1412252682
 11
160.0197246283
 21
88.1432831412
  0
LINE
  5
2C2
100
AcDbEntity
  8
0
100
AcDbLine
 62
253
  6
CONTINUOUS
 10
155.2873005123
 20
88.1412252682
 11
160.0197246283
 21
88.1432831412
  0
LINE
  5
2C3
100
AcDbEntity
  8
ASSI
100
AcDbLine
 62
7
  6
CONTINUOUS
 10
128.3103437504
 20
86.8568092369
 11
130.9807363904
 21
86.8568092369
  0
LINE
  5
2C4
100
AcDbEntity
  8
0
100
AcDbLine
 62
7
  6
CONTINUOUS
 10
128.3103437504
 20
86.8568092369
 11
130.9807363904
 21
86.8568092369
  0
LINE
  5
2C5
100
AcDbEntity
  8
ASSI
100
AcDbLine
 62
7
  6
CONTINUOUS
 10
135.3978498882
 20
86.8568092369
 11
142.1807363904
 21
86.8568092369
  0
LINE
  5
2C6
100
AcDbEntity
  8
0
100
AcDbLine
 62
7
  6
CONTINUOUS
 10
135.3978498882
 20
86.8568092369
 11
142.1807363904
 21
86.8568092369
  0
LINE
  5
2C7
100
AcDbEntity
  8
ASSI
100
AcDbLine
 62
7
  6
CONTINUOUS
 10
146.5978498882
 20
86.8568092369
 11
149.2682425282
 21
86.8568092369
  0
LINE
  5
2C8
100
AcDbEntity
  8
0
100
AcDbLine
 62
7
  6
CONTINUOUS
 10
146.5978498882
 20
86.8568092369
 11
149.2682425282
 21
86.8568092369
  0
LINE
  5
2C9
100
AcDbEntity
  8
ASSI
100
AcDbLine
 62
7
  6
CONTINUOUS
 10
150.5103437504
 20
86.8568092369
 11
153.1807363904
 21
86.8568092369
  0
LINE
  5
2CA
100
AcDbEntity
  8
0
100
AcDbLine
 62
7
  6
CONTINUOUS
 10
150.5103437504
 20
86.8568092369
 11
153.1807363904
 21
86.8568092369
  0
LINE
  5
2CB
100
AcDbEntity
  8
ASSI
100
AcDbLine
 62
7
  6
CONTINUOUS
 10
157.5978498882
 20
86.8568092369
 11
164.3807363904
 21
86.8568092369
  0
LINE
  5
2CC
100
AcDbEntity
  8
0
100
AcDbLine
 62
7
  6
CONTINUOUS
 10
157.5978498882
 20
86.8568092369
 11
164.3807363904
 21
86.8568092369
  0
LINE
  5
2CD
100
AcDbEntity
  8
ASSI
100
AcDbLine
 62
7
  6
CONTINUOUS
 10
168.7978498882
 20
86.8568092369
 11
171.4682425282
 21
86.8568092369
  0
LINE
  5
2CE
100
AcDbEntity
  8
0
100
AcDbLine
 62
7
  6
CONTINUOUS
 10
168.7978498882
 20
86.8568092369
 11
171.4682425282
 21
86.8568092369
  0
LINE
  5
2CF
100
AcDbEntity
  8
ASSI
100
AcDbLine
 62
7
  6
CONTINUOUS
 10
131.5047631931
 20
86.8938951327
 11
134.8738230855
 21
86.8938951327
  0
LINE
  5
2D0
100
AcDbEntity
  8
0
100
AcDbLine
 62
7
  6
CONTINUOUS
 10
131.5047631931
 20
86.8938951327
 11
134.8738230855
 21
86.8938951327
  0
LINE
  5
2D1
100
AcDbEntity
  8
ASSI
100
AcDbLine
 62
7
  6
CONTINUOUS
 10
142.7047631931
 20
86.8938951327
 11
146.0738230855
 21
86.8938951327
  0
LINE
  5
2D2
100
AcDbEntity
  8
0
100
AcDbLine
 62
7
  6
CONTINUOUS
 10
142.7047631931
 20
86.8938951327
 11
146.0738230855
 21
86.8938951327
  0
LINE
  5
2D3
100
AcDbEntity
  8
ASSI
100
AcDbLine
 62
7
  6
CONTINUOUS
 10
153.7047631931
 20
86.8938951327
 11
157.0738230855
 21
86.8938951327
  0
LINE
  5
2D4
100
AcDbEntity
  8
0
100
AcDbLine
 62
7
  6
CONTINUOUS
 10
153.7047631931
 20
86.8938951327
 11
157.0738230855
 21
86.8938951327
  0
LINE
  5
2D5
100
AcDbEntity
  8
ASSI
100
AcDbLine
 62
7
  6
CONTINUOUS
 10
164.9047631931
 20
86.8938951327
 11
168.2738230855
 21
86.8938951327
  0
LINE
  5
2D6
100
AcDbEntity
  8
0
100
AcDbLine
 62
7
  6
CONTINUOUS
 10
164.9047631931
 20
86.8938951327
 11
168.2738230855
 21
86.8938951327
  0
LINE
  5
2D7
100
AcDbEntity
  8
ASSI
100
AcDbLine
 62
253
  6
CONTINUOUS
 10
133.7632149646
 20
88.1416980781
 11
140.5203271462
 21
88.1431492231
  0
LINE
  5
2D8
100
AcDbEntity
  8
0
100
AcDbLine
 62
253
  6
CONTINUOUS
 10
133.7632149646
 20
88.1416980781
 11
140.5203271462
 21
88.1431492231
  0
LINE
  5
2D9
100
AcDbEntity
  8
ASSI
100
AcDbLine
 62
253
  6
CONTINUOUS
 10
160.0197246283
 20
88.1432831412
 11
165.4350257561
 21
88.1420573109
  0
LINE
  5
2DA
100
AcDbEntity
  8
0
100
AcDbLine
 62
253
  6
CONTINUOUS
 10
160.0197246283
 20
88.1432831412
 11
165.4350257561
 21
88.1420573109
  0
LINE
  5
2DB
100
AcDbEntity
  8
ASSI
100
AcDbLine
 62
253
  6
CONTINUOUS
 10
140.5203271462
 20
88.1431492231
 11
146.0769278093
 21
88.1398853597
  0
LINE
  5
2DC
100
AcDbEntity
  8
0
100
AcDbLine
 62
253
  6
CONTINUOUS
 10
140.5203271462
 20
88.1431492231
 11
146.0769278093
 21
88.1398853597
  0
LINE
  5
2DD
100
AcDbEntity
  8
ASSI
100
AcDbLine
 62
253
  6
CONTINUOUS
 10
138.4917245209
 20
87.007584582
 11
141.8594521779
 21
87.0059976474
  0
LINE
  5
2DE
100
AcDbEntity
  8
0
100
AcDbLine
 62
253
  6
CONTINUOUS
 10
138.4917245209
 20
87.007584582
 11
141.8594521779
 21
87.0059976474
  0
LINE
  5
2DF
100
AcDbEntity
  8
ASSI
100
AcDbLine
 62
253
  6
CONTINUOUS
 10
160.6917245209
 20
87.007584582
 11
164.0594521779
 21
87.0059976474
  0
LINE
  5
2E0
100
AcDbEntity
  8
0
100
AcDbLine
 62
253
  6
CONTINUOUS
 10
160.6917245209
 20
87.007584582
 11
164.0594521779
 21
87.0059976474
  0
LWPOLYLINE
  5
2E1
100
AcDbEntity
  8
ASSI
100
AcDbPolyline
 62
253
  6
CONTINUOUS
 90
3
 70
0
 10
165.4350257561
 20
88.1420573109
 10
170.6008073465
 20
88.1373054348
 10
171.4181917146
 20
88.1362460144
  0
LWPOLYLINE
  5
2E2
100
AcDbEntity
  8
0
100
AcDbPolyline
 62
253
  6
CONTINUOUS
 90
3
 70
0
 10
165.4350257561
 20
88.1420573109
 10
170.6008073465
 20
88.1373054348
 10
171.4181917146
 20
88.1362460144
  0
LINE
  5
2E3
100
AcDbEntity
  8
ASSI
100
AcDbLine
 62
253
  6
CONTINUOUS
 10
146.0769278093
 20
88.1398853597
 11
149.2181917146
 21
88.1362460144
  0
LINE
  5
2E4
100
AcDbEntity
  8
0
100
AcDbLine
 62
253
  6
CONTINUOUS
 10
146.0769278093
 20
88.1398853597
 11
149.2181917146
 21
88.1362460144
  0
LINE
  5
2E5
100
AcDbEntity
  8
ASSI
100
AcDbLine
 62
253
  6
CONTINUOUS
 10
141.8594521779
 20
87.0059976474
 11
145.3304658196
 21
87.0003121039
  0
LINE
  5
2E6
100
AcDbEntity
  8
0
100
AcDbLine
 62
253
  6
CONTINUOUS
 10
141.8594521779
 20
87.0059976474
 11
145.3304658196
 21
87.0003121039
  0
LINE
  5
2E7
100
AcDbEntity
  8
ASSI
100
AcDbLine
 62
253
  6
CONTINUOUS
 10
164.0594521779
 20
87.0059976474
 11
167.5304658196
 21
87.0003121039
  0
LINE
  5
2E8
100
AcDbEntity
  8
0
100
AcDbLine
 62
253
  6
CONTINUOUS
 10
164.0594521779
 20
87.0059976474
 11
167.5304658196
 21
87.0003121039
  0
LWPOLYLINE
  5
2E9
100
AcDbEntity
  8
ASSI
100
AcDbPolyline
 62
253
  6
CONTINUOUS
 90
3
 70
0
 10
145.3304658196
 20
87.0003121039
 10
148.3845520606
 20
86.9918849778
 10
149.202130475
 20
86.9891240719
  0
LWPOLYLINE
  5
2EA
100
AcDbEntity
  8
0
100
AcDbPolyline
 62
253
  6
CONTINUOUS
 90
3
 70
0
 10
145.3304658196
 20
87.0003121039
 10
148.3845520606
 20
86.9918849778
 10
149.202130475
 20
86.9891240719
  0
LWPOLYLINE
  5
2EB
100
AcDbEntity
  8
ASSI
100
AcDbPolyline
 62
253
  6
CONTINUOUS
 90
3
 70
0
 10
167.5304658196
 20
87.0003121039
 10
170.5845520606
 20
86.9918849778
 10
171.402130475
 20
86.9891240719
  0
LWPOLYLINE
  5
2EC
100
AcDbEntity
  8
0
100
AcDbPolyline
 62
253
  6
CONTINUOUS
 90
3
 70
0
 10
167.5304658196
 20
87.0003121039
 10
170.5845520606
 20
86.9918849778
 10
171.402130475
 20
86.9891240719
  0
LWPOLYLINE
  5
2ED
100
AcDbEntity
  8
ASSI
100
AcDbPolyline
 62
253
  6
CONTINUOUS
 90
15
 70
0
 10
128.3603954139
 20
88.1362465471
 10
128.2633923243
 20
88.1370535488
 10
128.2165553759
 20
88.1377596086
 10
128.1714377383
 20
88.1386588931
 10
128.1284768596
 20
88.1397426833
 10
128.0880892765
 20
88.1410004713
 10
128.0506665759
 20
88.142420062
 10
128.0165715978
 20
88.1439876914
 10
127.9861349178
 20
88.1456881601
 10
127.9596516414
 20
88.147504981
 10
127.9373785432
 20
88.1494205385
 10
127.9195315769
 20
88.1514162601
 10
127.9062837818
 20
88.1534727958
 10
127.8977636049
 20
88.1555702059
 10
127.8940536554
 20
88.1576881545
  0
LWPOLYLINE
  5
2EE
100
AcDbEntity
  8
0
100
AcDbPolyline
 62
253
  6
CONTINUOUS
 90
15
 70
0
 10
128.3603954139
 20
88.1362465471
 10
128.2633923243
 20
88.1370535488
 10
128.2165553759
 20
88.1377596086
 10
128.1714377383
 20
88.1386588931
 10
128.1284768596
 20
88.1397426833
 10
128.0880892765
 20
88.1410004713
 10
128.0506665759
 20
88.142420062
 10
128.0165715978
 20
88.1439876914
 10
127.9861349178
 20
88.1456881601
 10
127.9596516414
 20
88.147504981
 10
127.9373785432
 20
88.1494205385
 10
127.9195315769
 20
88.1514162601
 10
127.9062837818
 20
88.1534727958
 10
127.8977636049
 20
88.1555702059
 10
127.8940536554
 20
88.1576881545
  0
LWPOLYLINE
  5
2EF
100
AcDbEntity
  8
ASSI
100
AcDbPolyline
 62
253
  6
CONTINUOUS
 90
15
 70
0
 10
150.5603954139
 20
88.1362465471
 10
150.4633923243
 20
88.1370535488
 10
150.4165553759
 20
88.1377596086
 10
150.3714377383
 20
88.1386588931
 10
150.3284768596
 20
88.1397426833
 10
150.2880892765
 20
88.1410004713
 10
150.2506665759
 20
88.142420062
 10
150.2165715978
 20
88.1439876914
 10
150.1861349178
 20
88.1456881601
 10
150.1596516414
 20
88.147504981
 10
150.1373785432
 20
88.1494205385
 10
150.1195315769
 20
88.1514162601
 10
150.1062837818
 20
88.1534727958
 10
150.0977636049
 20
88.1555702059
 10
150.0940536554
 20
88.1576881545
  0
LWPOLYLINE
  5
2F0
100
AcDbEntity
  8
0
100
AcDbPolyline
 62
253
  6
CONTINUOUS
 90
15
 70
0
 10
150.5603954139
 20
88.1362465471
 10
150.4633923243
 20
88.1370535488
 10
150.4165553759
 20
88.1377596086
 10
150.3714377383
 20
88.1386588931
 10
150.3284768596
 20
88.1397426833
 10
150.2880892765
 20
88.1410004713
 10
150.2506665759
 20
88.142420062
 10
150.2165715978
 20
88.1439876914
 10
150.1861349178
 20
88.1456881601
 10
150.1596516414
 20
88.147504981
 10
150.1373785432
 20
88.1494205385
 10
150.1195315769
 20
88.1514162601
 10
150.1062837818
 20
88.1534727958
 10
150.0977636049
 20
88.1555702059
 10
150.0940536554
 20
88.1576881545
  0
LWPOLYLINE
  5
2F1
100
AcDbEntity
  8
ASSI
100
AcDbPolyline
 62
253
  6
CONTINUOUS
 90
16
 70
0
 10
150.5764558029
 20
86.9891240706
 10
150.5242548329
 20
86.9919260459
 10
150.4726247914
 20
87.000158443
 10
150.4221303625
 20
87.0137312232
 10
150.37332381
 20
87.0324959394
 10
150.3267389373
 20
87.0562473595
 10
150.2828852489
 20
87.0847257112
 10
150.242242378
 20
87.1176195234
 10
150.2052548407
 20
87.1545690324
 10
150.1723271742
 20
87.1951701167
 10
150.1438195125
 20
87.2389787172
 10
150.1200436475
 20
87.285515694
 10
150.1012596187
 20
87.3342720663
 10
150.0876728694
 20
87.3847145797
 10
150.0794319995
 20
87.4362915381
 10
150.0766271404
 20
87.488438838
  0
LWPOLYLINE
  5
2F2
100
AcDbEntity
  8
0
100
AcDbPolyline
 62
253
  6
CONTINUOUS
 90
16
 70
0
 10
150.5764558029
 20
86.9891240706
 10
150.5242548329
 20
86.9919260459
 10
150.4726247914
 20
87.000158443
 10
150.4221303625
 20
87.0137312232
 10
150.37332381
 20
87.0324959394
 10
150.3267389373
 20
87.0562473595
 10
150.2828852489
 20
87.0847257112
 10
150.242242378
 20
87.1176195234
 10
150.2052548407
 20
87.1545690324
 10
150.1723271742
 20
87.1951701167
 10
150.1438195125
 20
87.2389787172
 10
150.1200436475
 20
87.285515694
 10
150.1012596187
 20
87.3342720663
 10
150.0876728694
 20
87.3847145797
 10
150.0794319995
 20
87.4362915381
 10
150.0766271404
 20
87.488438838
  0
LINE
  5
2F3
100
AcDbEntity
  8
ASSI
100
AcDbLine
 62
7
  6
CONTINUOUS
 10
146.5978498882
 20
86.8568092369
 11
146.2470281662
 21
86.8886543547
  0
LINE
  5
2F4
100
AcDbEntity
  8
0
100
AcDbLine
 62
7
  6
CONTINUOUS
 10
146.5978498882
 20
86.8568092369
 11
146.2470281662
 21
86.8886543547
  0
LINE
  5
2F5
100
AcDbEntity
  8
ASSI
100
AcDbLine
 62
7
  6
CONTINUOUS
 10
157.5978498882
 20
86.8568092369
 11
157.2470281662
 21
86.8886543547
  0
LINE
  5
2F6
100
AcDbEntity
  8
0
100
AcDbLine
 62
7
  6
CONTINUOUS
 10
157.5978498882
 20
86.8568092369
 11
157.2470281662
 21
86.8886543547
  0
LINE
  5
2F7
100
AcDbEntity
  8
ASSI
100
AcDbLine
 62
7
  6
CONTINUOUS
 10
168.7978498882
 20
86.8568092369
 11
168.4470281662
 21
86.8886543547
  0
LINE
  5
2F8
100
AcDbEntity
  8
0
100
AcDbLine
 62
7
  6
CONTINUOUS
 10
168.7978498882
 20
86.8568092369
 11
168.4470281662
 21
86.8886543547
  0
LINE
  5
2F9
100
AcDbEntity
  8
0
100
AcDbLine
 62
253
  6
CONTINUOUS
 10
138.6642931393
 20
94.8470557165
 11
138.9142931393
 21
94.8470557165
  0
LINE
  5
2FA
100
AcDbEntity
  8
0
100
AcDbLine
 62
253
  6
CONTINUOUS
 10
160.8642931393
 20
94.8470557165
 11
161.1142931393
 21
94.8470557165
  0
LWPOLYLINE
  5
2FB
100
AcDbEntity
  8
0
100
AcDbPolyline
 62
253
  6
CONTINUOUS
 90
51
 70
0
 10
138.6642931393
 20
94.8470555135
 10
138.6564655286
 20
94.847178252
 10
138.648643519
 20
94.8475461655
 10
138.6408342948
 20
94.848158801
 10
138.6330450401
 20
94.8490157055
 10
138.6252829392
 20
94.8501164261
 10
138.6175551761
 20
94.8514605098
 10
138.6098689351
 20
94.8530475035
 10
138.6022314003
 20
94.8548769544
 10
138.5946497559
 20
94.8569484094
 10
138.5871311862
 20
94.8592614156
 10
138.5796831209
 20
94.8618148212
 10
138.5723139725
 20
94.8646046794
 10
138.5650323991
 20
94.8676263445
 10
138.5578470588
 20
94.870875171
 10
138.5507666097
 20
94.8743465133
 10
138.5437997098
 20
94.8780357258
 10
138.5369550173
 20
94.8819381628
 10
138.5302411903
 20
94.8860491788
 10
138.5236668869
 20
94.8903641282
 10
138.5172407651
 20
94.8948783653
 10
138.5109705536
 20
94.8995872387
 10
138.5048602632
 20
94.9044860731
 10
138.4989129751
 20
94.9095701874
 10
138.4931317707
 20
94.9148349004
 10
138.4875197313
 20
94.920275531
 10
138.4820800078
 20
94.925887821
 10
138.47681603
 20
94.9316692038
 10
138.4717312975
 20
94.9376175359
 10
138.4668293097
 20
94.9437306737
 10
138.4621135661
 20
94.9500064735
 10
138.4575881396
 20
94.9564415476
 10
138.4532593971
 20
94.9630275316
 10
138.4491342787
 20
94.9697548171
 10
138.4452197246
 20
94.9766137955
 10
138.4415226751
 20
94.9835948584
 10
138.4380494283
 20
94.990688482
 10
138.4348037151
 20
94.9978854826
 10
138.4317886242
 20
95.005176761
 10
138.4290072443
 20
95.0125532184
 10
138.4264626644
 20
95.0200057556
 10
138.4241575458
 20
95.0275256155
 10
138.4220928412
 20
95.0351054079
 10
138.4202690758
 20
95.0427380844
 10
138.4186867749
 20
95.0504165967
 10
138.4173464638
 20
95.0581338965
 10
138.4162486677
 20
95.0658829352
 10
138.4153939119
 20
95.0736566647
 10
138.4147827218
 20
95.0814480365
 10
138.4144156225
 20
95.0892500022
 10
138.4142931393
 20
95.0970555135
  0
LWPOLYLINE
  5
2FC
100
AcDbEntity
  8
0
100
AcDbPolyline
 62
253
  6
CONTINUOUS
 90
51
 70
0
 10
160.8642931393
 20
94.8470555135
 10
160.8564655286
 20
94.847178252
 10
160.848643519
 20
94.8475461655
 10
160.8408342948
 20
94.848158801
 10
160.8330450401
 20
94.8490157055
 10
160.8252829392
 20
94.8501164261
 10
160.8175551761
 20
94.8514605098
 10
160.8098689351
 20
94.8530475035
 10
160.8022314003
 20
94.8548769544
 10
160.7946497559
 20
94.8569484094
 10
160.7871311862
 20
94.8592614156
 10
160.7796831209
 20
94.8618148212
 10
160.7723139725
 20
94.8646046794
 10
160.7650323991
 20
94.8676263445
 10
160.7578470588
 20
94.870875171
 10
160.7507666097
 20
94.8743465133
 10
160.7437997098
 20
94.8780357258
 10
160.7369550173
 20
94.8819381628
 10
160.7302411903
 20
94.8860491788
 10
160.7236668869
 20
94.8903641282
 10
160.7172407651
 20
94.8948783653
 10
160.7109705536
 20
94.8995872387
 10
160.7048602632
 20
94.9044860731
 10
160.6989129751
 20
94.9095701874
 10
160.6931317707
 20
94.9148349004
 10
160.6875197313
 20
94.920275531
 10
160.6820800078
 20
94.925887821
 10
160.67681603
 20
94.9316692038
 10
160.6717312975
 20
94.9376175359
 10
160.6668293097
 20
94.9437306737
 10
160.6621135661
 20
94.9500064735
 10
160.6575881396
 20
94.9564415476
 10
160.6532593971
 20
94.9630275316
 10
160.6491342787
 20
94.9697548171
 10
160.6452197246
 20
94.9766137955
 10
160.6415226751
 20
94.9835948584
 10
160.6380494283
 20
94.990688482
 10
160.6348037151
 20
94.9978854826
 10
160.6317886242
 20
95.005176761
 10
160.6290072443
 20
95.0125532184
 10
160.6264626644
 20
95.0200057556
 10
160.6241575458
 20
95.0275256155
 10
160.6220928412
 20
95.0351054079
 10
160.6202690758
 20
95.0427380844
 10
160.6186867749
 20
95.0504165967
 10
160.6173464638
 20
95.0581338965
 10
160.6162486677
 20
95.0658829352
 10
160.6153939119
 20
95.0736566647
 10
160.6147827218
 20
95.0814480365
 10
160.6144156225
 20
95.0892500022
 10
160.6142931393
 20
95.0970555135
  0
LWPOLYLINE
  5
2FD
100
AcDbEntity
  8
ASSI
100
AcDbPolyline
 62
253
  6
CONTINUOUS
 90
10
 70
0
 10
127.8766271411
 20
130.5385881878
 10
127.8779209063
 20
130.5342356786
 10
127.8791928674
 20
130.5265419087
 10
127.8804430245
 20
130.5155068782
 10
127.8816779271
 20
130.5010416754
 10
127.8828910256
 20
130.483235212
 10
127.8840626713
 20
130.4623542229
 10
127.8851916774
 20
130.4383539616
 10
127.8862792306
 20
130.4112791746
 10
127.8873092422
 20
130.3815308373
  0
LWPOLYLINE
  5
2FE
100
AcDbEntity
  8
0
100
AcDbPolyline
 62
253
  6
CONTINUOUS
 90
10
 70
0
 10
127.8766271411
 20
130.5385881878
 10
127.8779209063
 20
130.5342356786
 10
127.8791928674
 20
130.5265419087
 10
127.8804430245
 20
130.5155068782
 10
127.8816779271
 20
130.5010416754
 10
127.8828910256
 20
130.483235212
 10
127.8840626713
 20
130.4623542229
 10
127.8851916774
 20
130.4383539616
 10
127.8862792306
 20
130.4112791746
 10
127.8873092422
 20
130.3815308373
  0
LINE
  5
2FF
100
AcDbEntity
  8
0
100
AcDbLine
 62
253
  6
CONTINUOUS
 10
138.4142931393
 20
122.9299715135
 11
138.4142931393
 21
118.0970555135
  0
LINE
  5
300
100
AcDbEntity
  8
0
100
AcDbLine
 62
253
  6
CONTINUOUS
 10
138.4142931393
 20
99.9299715135
 11
138.4142931393
 21
95.0970555135
  0
LINE
  5
301
100
AcDbEntity
  8
0
100
AcDbLine
 62
253
  6
CONTINUOUS
 10
139.1642931393
 20
95.0970555135
 11
139.1642931393
 21
99.9299715135
  0
LINE
  5
302
100
AcDbEntity
  8
0
100
AcDbLine
 62
253
  6
CONTINUOUS
 10
139.1642931393
 20
118.0970555135
 11
139.1642931393
 21
122.9299715135
  0
LWPOLYLINE
  5
303
100
AcDbEntity
  8
0
100
AcDbPolyline
 62
253
  6
CONTINUOUS
 90
51
 70
0
 10
138.4142931393
 20
99.9299715135
 10
138.414415972
 20
99.9378024459
 10
138.4147841646
 20
99.9456276171
 10
138.415397259
 20
99.9534398484
 10
138.4162547972
 20
99.9612319606
 10
138.4173563209
 20
99.9689967749
 10
138.4187013722
 20
99.9767271122
 10
138.4202894927
 20
99.9844157936
 10
138.4221202245
 20
99.9920556401
 10
138.4241931095
 20
99.9996394728
 10
138.4265076894
 20
100.0071601126
 10
138.4290628038
 20
100.0146101308
 10
138.4318544826
 20
100.0219810995
 10
138.4348780533
 20
100.0292643409
 10
138.4381288433
 20
100.0364511774
 10
138.4416021802
 20
100.0435329313
 10
138.4452933913
 20
100.0505009248
 10
138.4491978043
 20
100.0573464803
 10
138.4533107466
 20
100.06406092
 10
138.4576275457
 20
100.0706355662
 10
138.4621435291
 20
100.0770617412
 10
138.4668540225
 20
100.0833317065
 10
138.4717543448
 20
100.0894414797
 10
138.476839813
 20
100.0953880176
 10
138.4821057443
 20
100.1011682772
 10
138.4875474558
 20
100.1067792151
 10
138.4931606833
 20
100.1122177121
 10
138.4989428382
 20
100.1174803439
 10
138.5048917506
 20
100.1225636099
 10
138.5110052506
 20
100.1274640096
 10
138.5172811683
 20
100.1321780426
 10
138.5237160966
 20
100.1367016408
 10
138.5303016797
 20
100.1410284669
 10
138.5370283243
 20
100.1451516156
 10
138.5438864372
 20
100.1490641821
 10
138.5508664254
 20
100.1527592613
 10
138.5579587811
 20
100.1562305863
 10
138.5651543384
 20
100.1594744418
 10
138.5724440168
 20
100.1624877508
 10
138.5798187357
 20
100.1652674362
 10
138.5872694147
 20
100.1678104209
 10
138.5947873102
 20
100.1701140544
 10
138.6023650257
 20
100.1721773935
 10
138.6099955019
 20
100.1739999215
 10
138.6176716793
 20
100.1755811218
 10
138.6253864985
 20
100.1769204779
 10
138.6331328999
 20
100.1780174731
 10
138.6409038242
 20
100.1788715909
 10
138.6486922118
 20
100.1794823146
 10
138.6564910033
 20
100.1798491277
 10
138.6642931393
 20
100.1799715135
  0
LWPOLYLINE
  5
304
100
AcDbEntity
  8
0
100
AcDbPolyline
 62
253
  6
CONTINUOUS
 90
51
 70
0
 10
139.1642931393
 20
118.0970555135
 10
139.1641703066
 20
118.0892245812
 10
139.163802114
 20
118.0813994099
 10
139.1631890195
 20
118.0735871786
 10
139.1623314814
 20
118.0657950664
 10
139.1612299576
 20
118.0580302521
 10
139.1598849064
 20
118.0502999148
 10
139.1582967859
 20
118.0426112334
 10
139.156466054
 20
118.0349713869
 10
139.1543931691
 20
118.0273875542
 10
139.1520785892
 20
118.0198669144
 10
139.1495234747
 20
118.0124168962
 10
139.146731796
 20
118.0050459276
 10
139.1437082253
 20
117.9977626861
 10
139.1404574353
 20
117.9905758496
 10
139.1369840984
 20
117.9834940957
 10
139.1332928873
 20
117.9765261022
 10
139.1293884743
 20
117.9696805468
 10
139.125275532
 20
117.9629661071
 10
139.1209587329
 20
117.9563914608
 10
139.1164427495
 20
117.9499652858
 10
139.1117322561
 20
117.9436953205
 10
139.1068319338
 20
117.9375855474
 10
139.1017464656
 20
117.9316390094
 10
139.0964805343
 20
117.9258587499
 10
139.0910388228
 20
117.9202478119
 10
139.0854255953
 20
117.9148093149
 10
139.0796434404
 20
117.9095466832
 10
139.073694528
 20
117.9044634172
 10
139.067581028
 20
117.8995630174
 10
139.0613051103
 20
117.8948489845
 10
139.0548701819
 20
117.8903253862
 10
139.0482845989
 20
117.8859985602
 10
139.0415579543
 20
117.8818754114
 10
139.0346998414
 20
117.8779628449
 10
139.0277198532
 20
117.8742677657
 10
139.0206274975
 20
117.8707964408
 10
139.0134319402
 20
117.8675525852
 10
139.0061422618
 20
117.8645392762
 10
138.9987675429
 20
117.8617595908
 10
138.9913168638
 20
117.8592166061
 10
138.9837989684
 20
117.8569129726
 10
138.9762212529
 20
117.8548496335
 10
138.9685907767
 20
117.8530271055
 10
138.9609145993
 20
117.8514459052
 10
138.9531997801
 20
117.8501065491
 10
138.9454533787
 20
117.8490095539
 10
138.9376824544
 20
117.8481554361
 10
138.9298940668
 20
117.8475447124
 10
138.9220952753
 20
117.8471778993
 10
138.9142931393
 20
117.8470555135
  0
LWPOLYLINE
  5
305
100
AcDbEntity
  8
0
100
AcDbPolyline
 62
253
  6
CONTINUOUS
 90
51
 70
0
 10
138.4142931393
 20
122.9299715135
 10
138.4144165757
 20
122.9378038924
 10
138.4147863258
 20
122.9456305705
 10
138.4154015515
 20
122.9534443113
 10
138.4162614142
 20
122.9612378782
 10
138.4173650757
 20
122.9690040345
 10
138.4187116976
 20
122.9767355437
 10
138.4203004415
 20
122.9844251691
 10
138.422130469
 20
122.9920656742
 10
138.4242009418
 20
122.9996498222
 10
138.4265110216
 20
123.0071703768
 10
138.4290594864
 20
123.0146199031
 10
138.4318435804
 20
123.0219901743
 10
138.4348601644
 20
123.0292727656
 10
138.4381060989
 20
123.0364592521
 10
138.4415782447
 20
123.043541209
 10
138.4452729191
 20
123.0505101188
 10
138.449184266
 20
123.0573570938
 10
138.4533058862
 20
123.0640731542
 10
138.4576313802
 20
123.0706493196
 10
138.4621543488
 20
123.0770766099
 10
138.4668688217
 20
123.0833470618
 10
138.4717705444
 20
123.0894567784
 10
138.4768556919
 20
123.0954028793
 10
138.4821204388
 20
123.1011824844
 10
138.4875609599
 20
123.1067927135
 10
138.4931736657
 20
123.1122305763
 10
138.4989559098
 20
123.1174926423
 10
138.5049052817
 20
123.122575371
 10
138.5110193706
 20
123.127475222
 10
138.5172957659
 20
123.1321886548
 10
138.5237308714
 20
123.1367115721
 10
138.5303163479
 20
123.1410376504
 10
138.5370426707
 20
123.1451600093
 10
138.5439003151
 20
123.1490717686
 10
138.5508797563
 20
123.1527660479
 10
138.5579715418
 20
123.1562366012
 10
138.5651665082
 20
123.1594797193
 10
138.5724555641
 20
123.1624923272
 10
138.5798296186
 20
123.16527135
 10
138.5872795802
 20
123.1678137127
 10
138.594796697
 20
123.1701167674
 10
138.6023735732
 20
123.1721795738
 10
138.6100031524
 20
123.174001619
 10
138.617678378
 20
123.1755823897
 10
138.6253921934
 20
123.1769213727
 10
138.6331375422
 20
123.178018055
 10
138.6409073676
 20
123.1788719234
 10
138.6486946134
 20
123.1794824647
 10
138.6564922228
 20
123.1798491658
 10
138.6642931393
 20
123.1799715135
  0
LWPOLYLINE
  5
306
100
AcDbEntity
  8
0
100
AcDbPolyline
 62
253
  6
CONTINUOUS
 90
51
 70
0
 10
139.1642931393
 20
95.0970555135
 10
139.1641697029
 20
95.0892231346
 10
139.1637999527
 20
95.0813964565
 10
139.1631847271
 20
95.0735827157
 10
139.1623248643
 20
95.0657891488
 10
139.1612212029
 20
95.0580229925
 10
139.159874581
 20
95.0502914833
 10
139.1582858371
 20
95.0426018579
 10
139.1564558096
 20
95.0349613529
 10
139.1543853368
 20
95.0273772048
 10
139.152075257
 20
95.0198566503
 10
139.1495267922
 20
95.012407124
 10
139.1467426982
 20
95.0050368527
 10
139.1437261142
 20
94.9977542614
 10
139.1404801797
 20
94.9905677749
 10
139.1370080339
 20
94.983485818
 10
139.1333133595
 20
94.9765169083
 10
139.1294020126
 20
94.9696699332
 10
139.1252803924
 20
94.9629538729
 10
139.1209548983
 20
94.9563777075
 10
139.1164319297
 20
94.9499504171
 10
139.1117174569
 20
94.9436799652
 10
139.1068157342
 20
94.9375702487
 10
139.1017305867
 20
94.9316241477
 10
139.0964658398
 20
94.9258445426
 10
139.0910253187
 20
94.9202343135
 10
139.0854126129
 20
94.9147964508
 10
139.0796303687
 20
94.9095343847
 10
139.0736809969
 20
94.904451656
 10
139.067566908
 20
94.899551805
 10
139.0612905127
 20
94.8948383723
 10
139.0548554072
 20
94.8903154549
 10
139.0482699307
 20
94.8859893766
 10
139.0415436079
 20
94.8818670177
 10
139.0346859635
 20
94.8779552584
 10
139.0277065223
 20
94.8742609791
 10
139.0206147368
 20
94.8707904258
 10
139.0134197704
 20
94.8675473077
 10
139.0061307144
 20
94.8645346998
 10
138.99875666
 20
94.861755677
 10
138.9913066984
 20
94.8592133143
 10
138.9837895816
 20
94.8569102597
 10
138.9762127053
 20
94.8548474532
 10
138.9685831262
 20
94.853025408
 10
138.9609079006
 20
94.8514446374
 10
138.9531940852
 20
94.8501056543
 10
138.9454487364
 20
94.849008972
 10
138.9376789109
 20
94.8481551036
 10
138.9298916652
 20
94.8475445623
 10
138.9220940558
 20
94.8471778612
 10
138.9142931393
 20
94.8470555135
  0
LINE
  5
307
100
AcDbEntity
  8
ASSI
100
AcDbLine
 62
253
  6
CONTINUOUS
 10
149.2021304757
 20
131.0379029564
 11
149.2682425282
 21
131.1702177901
  0
LINE
  5
308
100
AcDbEntity
  8
0
100
AcDbLine
 62
253
  6
CONTINUOUS
 10
149.2021304757
 20
131.0379029564
 11
149.2682425282
 21
131.1702177901
  0
LINE
  5
309
100
AcDbEntity
  8
ASSI
100
AcDbLine
 62
253
  6
CONTINUOUS
 10
127.8766271404
 20
87.488438838
 11
127.8097173287
 21
87.3545273912
  0
LINE
  5
30A
100
AcDbEntity
  8
0
100
AcDbLine
 62
253
  6
CONTINUOUS
 10
127.8766271404
 20
87.488438838
 11
127.8097173287
 21
87.3545273912
  0
LINE
  5
30B
100
AcDbEntity
  8
ASSI
100
AcDbLine
 62
253
  6
CONTINUOUS
 10
149.2682425282
 20
86.8568092369
 11
149.202130475
 21
86.9891240719
  0
LINE
  5
30C
100
AcDbEntity
  8
0
100
AcDbLine
 62
253
  6
CONTINUOUS
 10
149.2682425282
 20
86.8568092369
 11
149.202130475
 21
86.9891240719
  0
LINE
  5
30D
100
AcDbEntity
  8
ASSI
100
AcDbLine
 62
253
  6
CONTINUOUS
 10
127.8097173287
 20
130.6724996358
 11
127.8766271411
 21
130.5385881878
  0
LINE
  5
30E
100
AcDbEntity
  8
0
100
AcDbLine
 62
253
  6
CONTINUOUS
 10
127.8097173287
 20
130.6724996358
 11
127.8766271411
 21
130.5385881878
  0
LINE
  5
30F
100
AcDbEntity
  8
ASSI
100
AcDbLine
 62
253
  6
CONTINUOUS
 10
149.7019591381
 20
130.538588189
 11
149.7688689498
 21
130.6724996358
  0
LINE
  5
310
100
AcDbEntity
  8
0
100
AcDbLine
 62
253
  6
CONTINUOUS
 10
149.7019591381
 20
130.538588189
 11
149.7688689498
 21
130.6724996358
  0
LINE
  5
311
100
AcDbEntity
  8
ASSI
100
AcDbLine
 62
253
  6
CONTINUOUS
 10
128.3764558029
 20
86.9891240706
 11
128.3103437504
 21
86.8568092369
  0
LINE
  5
312
100
AcDbEntity
  8
0
100
AcDbLine
 62
253
  6
CONTINUOUS
 10
128.3764558029
 20
86.9891240706
 11
128.3103437504
 21
86.8568092369
  0
LINE
  5
313
100
AcDbEntity
  8
ASSI
100
AcDbLine
 62
253
  6
CONTINUOUS
 10
127.7901089373
 20
109.7134183313
 11
127.9058052809
 21
109.7519759468
  0
LINE
  5
314
100
AcDbEntity
  8
0
100
AcDbLine
 62
253
  6
CONTINUOUS
 10
127.7901089373
 20
109.7134183313
 11
127.9058052809
 21
109.7519759468
  0
LINE
  5
315
100
AcDbEntity
  8
0
100
AcDbLine
 62
253
  6
CONTINUOUS
 10
161.1142931393
 20
100.1799716916
 11
160.8642931393
 21
100.1799716916
  0
LINE
  5
316
100
AcDbEntity
  8
0
100
AcDbLine
 62
253
  6
CONTINUOUS
 10
138.9142931393
 20
100.1799716916
 11
138.6642931393
 21
100.1799716916
  0
LWPOLYLINE
  5
317
100
AcDbEntity
  8
0
100
AcDbPolyline
 62
253
  6
CONTINUOUS
 90
51
 70
0
 10
138.9142931393
 20
100.1799715135
 10
138.922121997
 20
100.1798487384
 10
138.929945207
 20
100.1794807165
 10
138.9377555848
 20
100.1788679027
 10
138.9455459461
 20
100.178010752
 10
138.9533091062
 20
100.1769097196
 10
138.9610378807
 20
100.1755652603
 10
138.9687250852
 20
100.1739778293
 10
138.9763635352
 20
100.1721478814
 10
138.9839460463
 20
100.1700758718
 10
138.9914654338
 20
100.1677622555
 10
138.9989142667
 20
100.1652081875
 10
139.0062841267
 20
100.1624176238
 10
139.0135663488
 20
100.1593952204
 10
139.0207522681
 20
100.1561456333
 10
139.0278332196
 20
100.1526735184
 10
139.0348005384
 20
100.1489835318
 10
139.0416455594
 20
100.1450803295
 10
139.0483596178
 20
100.1409685675
 10
139.0549340485
 20
100.1366529018
 10
139.0613601867
 20
100.1321379884
 10
139.0676303003
 20
100.1274284876
 10
139.0737403893
 20
100.122529077
 10
139.0796873867
 20
100.1174444382
 10
139.0854682256
 20
100.1121792533
 10
139.0910798389
 20
100.1067382039
 10
139.0965190876
 20
100.1011255506
 10
139.1017825438
 20
100.0953438686
 10
139.1068667077
 20
100.0893953117
 10
139.1117680795
 20
100.0832820339
 10
139.1164831593
 20
100.0770061891
 10
139.1210078761
 20
100.0705711726
 10
139.1253358746
 20
100.0639853454
 10
139.1294602285
 20
100.0572583103
 10
139.1333740113
 20
100.0503996697
 10
139.1370702966
 20
100.0434190263
 10
139.1405427985
 20
100.0363258973
 10
139.1437877921
 20
100.0291294588
 10
139.1468021931
 20
100.0218388012
 10
139.149582917
 20
100.0144630153
 10
139.1521268795
 20
100.0070111917
 10
139.1544314232
 20
99.9994920817
 10
139.1564955991
 20
99.9919130795
 10
139.1583188854
 20
99.9842812398
 10
139.1599007602
 20
99.9766036174
 10
139.1612407014
 20
99.968887267
 10
139.1623381873
 20
99.9611392435
 10
139.163192696
 20
99.9533666016
 10
139.1638037054
 20
99.9455763961
 10
139.1641706938
 20
99.9377756818
 10
139.1642931393
 20
99.9299715135
  0
LWPOLYLINE
  5
318
100
AcDbEntity
  8
0
100
AcDbPolyline
 62
253
  6
CONTINUOUS
 90
51
 70
0
 10
161.1142931393
 20
100.1799715135
 10
161.122121997
 20
100.1798487384
 10
161.129945207
 20
100.1794807165
 10
161.1377555848
 20
100.1788679027
 10
161.1455459461
 20
100.178010752
 10
161.1533091062
 20
100.1769097196
 10
161.1610378807
 20
100.1755652603
 10
161.1687250852
 20
100.1739778293
 10
161.1763635352
 20
100.1721478814
 10
161.1839460463
 20
100.1700758718
 10
161.1914654338
 20
100.1677622555
 10
161.1989142667
 20
100.1652081875
 10
161.2062841267
 20
100.1624176238
 10
161.2135663488
 20
100.1593952204
 10
161.2207522681
 20
100.1561456333
 10
161.2278332196
 20
100.1526735184
 10
161.2348005384
 20
100.1489835318
 10
161.2416455594
 20
100.1450803295
 10
161.2483596178
 20
100.1409685675
 10
161.2549340485
 20
100.1366529018
 10
161.2613601867
 20
100.1321379884
 10
161.2676303003
 20
100.1274284876
 10
161.2737403893
 20
100.122529077
 10
161.2796873867
 20
100.1174444382
 10
161.2854682256
 20
100.1121792533
 10
161.2910798389
 20
100.1067382039
 10
161.2965190876
 20
100.1011255506
 10
161.3017825438
 20
100.0953438686
 10
161.3068667077
 20
100.0893953117
 10
161.3117680795
 20
100.0832820339
 10
161.3164831593
 20
100.0770061891
 10
161.3210078761
 20
100.0705711726
 10
161.3253358746
 20
100.0639853454
 10
161.3294602285
 20
100.0572583103
 10
161.3333740113
 20
100.0503996697
 10
161.3370702966
 20
100.0434190263
 10
161.3405427985
 20
100.0363258973
 10
161.3437877921
 20
100.0291294588
 10
161.3468021931
 20
100.0218388012
 10
161.349582917
 20
100.0144630153
 10
161.3521268795
 20
100.0070111917
 10
161.3544314232
 20
99.9994920817
 10
161.3564955991
 20
99.9919130795
 10
161.3583188854
 20
99.9842812398
 10
161.3599007602
 20
99.9766036174
 10
161.3612407014
 20
99.968887267
 10
161.3623381873
 20
99.9611392435
 10
161.363192696
 20
99.9533666016
 10
161.3638037054
 20
99.9455763961
 10
161.3641706938
 20
99.9377756818
 10
161.3642931393
 20
99.9299715135
  0
LINE
  5
319
100
AcDbEntity
  8
ASSI
100
AcDbLine
 62
253
  6
CONTINUOUS
 10
127.9058052834
 20
108.2750510794
 11
127.7901089373
 21
108.3136086957
  0
LINE
  5
31A
100
AcDbEntity
  8
0
100
AcDbLine
 62
253
  6
CONTINUOUS
 10
127.9058052834
 20
108.2750510794
 11
127.7901089373
 21
108.3136086957
  0
LINE
  5
31B
100
AcDbEntity
  8
ASSI
100
AcDbLine
 62
253
  6
CONTINUOUS
 10
149.7688689498
 20
87.3545273912
 11
149.7019591375
 21
87.4884388393
  0
LINE
  5
31C
100
AcDbEntity
  8
0
100
AcDbLine
 62
253
  6
CONTINUOUS
 10
149.7688689498
 20
87.3545273912
 11
149.7019591375
 21
87.4884388393
  0
LINE
  5
31D
100
AcDbEntity
  8
ASSI
100
AcDbLine
 62
253
  6
CONTINUOUS
 10
128.3103437504
 20
131.1702177901
 11
128.3764558036
 21
131.0379029551
  0
LINE
  5
31E
100
AcDbEntity
  8
0
100
AcDbLine
 62
253
  6
CONTINUOUS
 10
128.3103437504
 20
131.1702177901
 11
128.3764558036
 21
131.0379029551
  0
LINE
  5
31F
100
AcDbEntity
  8
ASSI
100
AcDbLine
 62
253
  6
CONTINUOUS
 10
128.2901660774
 20
109.2135135135
 11
128.4056339434
 21
109.2519949852
  0
LINE
  5
320
100
AcDbEntity
  8
0
100
AcDbLine
 62
253
  6
CONTINUOUS
 10
128.2901660774
 20
109.2135135135
 11
128.4056339434
 21
109.2519949852
  0
LWPOLYLINE
  5
321
100
AcDbEntity
  8
SUPERFICI
100
AcDbPolyline
 62
7
  6
CONTINUOUS
 90
43
 70
0
 10
163.3079618539
 20
103.5342855997
 10
163.3757300207
 20
103.5413802064
 10
163.4425918358
 20
103.553134264
 10
163.5088769152
 20
103.5696407327
 10
163.57425565
 20
103.5908066487
 10
163.6377392277
 20
103.616353121
 10
163.6993181757
 20
103.6463744512
 10
163.7590020196
 20
103.6807763399
 10
163.8158304819
 20
103.7189969922
 10
163.869689249
 20
103.7610277086
 10
163.9206927245
 20
103.8068771964
 10
163.9682237341
 20
103.8560097675
 10
164.0123178272
 20
103.9085804476
 10
164.0529395545
 20
103.9644342263
 10
164.0893652604
 20
104.0225703574
 10
164.1214554434
 20
104.0828781609
 10
164.1493497045
 20
104.1454683328
 10
164.172743047
 20
104.2096721858
 10
164.1916227743
 20
104.2756867652
 10
164.2060016512
 20
104.3433150456
 10
164.2156128676
 20
104.4112972263
 10
164.2203656176
 20
104.4794554512
 10
164.2203507324
 20
104.5479675897
 10
164.2155738455
 20
104.6161074202
 10
164.205951715
 20
104.68403871
 10
164.1915675576
 20
104.7515977043
 10
164.1726766851
 20
104.8175668882
 10
164.1492520783
 20
104.8817825711
 10
164.121320688
 20
104.9444084444
 10
164.0892187741
 20
105.0047180547
 10
164.0528347186
 20
105.06277939
 10
164.012280041
 20
105.1185244583
 10
163.9682257136
 20
105.1710228258
 10
163.9206685549
 20
105.2201623955
 10
163.869611645
 20
105.2660552502
 10
163.8157353663
 20
105.3081072166
 10
163.7589690221
 20
105.3462937572
 10
163.6993832207
 20
105.3806393915
 10
163.6378703288
 20
105.4106235242
 10
163.5743699099
 20
105.4361746991
 10
163.5089423457
 20
105.4573643521
 10
163.4426612674
 20
105.4738862196
 10
163.3758845579
 20
105.4856382059
  0
LINE
  5
322
100
AcDbEntity
  8
SUPERFICI
100
AcDbLine
 62
7
  6
CONTINUOUS
 10
163.2392873308
 20
103.5318504494
 11
163.3079618539
 21
103.5342855997
  0
LINE
  5
323
100
AcDbEntity
  8
SUPERFICI
100
AcDbLine
 62
7
  6
CONTINUOUS
 10
141.0392873308
 20
103.5318504494
 11
141.1079618539
 21
103.5342855997
  0
LINE
  5
324
100
AcDbEntity
  8
ASSI
100
AcDbLine
 62
7
  6
CONTINUOUS
 10
163.2392873056
 20
103.5318504494
 11
158.7392989818
 21
103.5318504494
  0
LINE
  5
325
100
AcDbEntity
  8
0
100
AcDbLine
 62
7
  6
CONTINUOUS
 10
163.2392873056
 20
103.5318504494
 11
158.7392989818
 21
103.5318504494
  0
LINE
  5
326
100
AcDbEntity
  8
ASSI
100
AcDbLine
 62
7
  6
CONTINUOUS
 10
141.0392873056
 20
103.5318504494
 11
136.5392989818
 21
103.5318504494
  0
LINE
  5
327
100
AcDbEntity
  8
0
100
AcDbLine
 62
7
  6
CONTINUOUS
 10
141.0392873056
 20
103.5318504494
 11
136.5392989818
 21
103.5318504494
  0
LINE
  5
328
100
AcDbEntity
  8
SUPERFICI
100
AcDbLine
 62
7
  6
CONTINUOUS
 10
136.539298894
 20
103.5318504494
 11
141.0392873308
 21
103.5318504494
  0
LINE
  5
329
100
AcDbEntity
  8
SUPERFICI
100
AcDbLine
 62
7
  6
CONTINUOUS
 10
158.739298894
 20
103.5318504494
 11
163.2392873308
 21
103.5318504494
  0
LWPOLYLINE
  5
32A
100
AcDbEntity
  8
ASSI
100
AcDbPolyline
 62
7
  6
CONTINUOUS
 90
37
 70
0
 10
136.5392989818
 20
103.5318504494
 10
136.4532033428
 20
103.535778525
 10
136.3690174329
 20
103.5467935066
 10
136.2867412314
 20
103.5648953834
 10
136.2058453291
 20
103.59028024
 10
136.1268590958
 20
103.6227519867
 10
136.0513706388
 20
103.6617223539
 10
135.9793198303
 20
103.7074136883
 10
135.910766669
 20
103.7596036553
 10
135.8474793742
 20
103.8170369566
 10
135.7896837353
 20
103.8797344158
 10
135.7371537635
 20
103.9476752335
 10
135.6909799603
 20
104.0195416688
 10
135.6512299552
 20
104.0955527067
 10
135.6178359317
 20
104.1754893988
 10
135.5916852092
 20
104.257377091
 10
135.5729739768
 20
104.3411995497
 10
135.5615059271
 20
104.4269730432
 10
135.5575796501
 20
104.5127716505
 10
135.5613869158
 20
104.5986037573
 10
135.5727359537
 20
104.6844610046
 10
135.5913500713
 20
104.7683923315
 10
135.6174293813
 20
104.8504117499
 10
135.6507738891
 20
104.930505258
 10
135.6905067565
 20
105.0066797452
 10
135.7367055518
 20
105.0787215325
 10
135.7892928948
 20
105.1468442843
 10
135.8471595117
 20
105.2096958786
 10
135.9105348759
 20
105.2672417329
 10
135.9791897142
 20
105.3195164016
 10
136.0513265805
 20
105.3652714464
 10
136.1268805681
 20
105.4042852517
 10
136.2059167123
 20
105.4367793919
 10
136.2868324013
 20
105.4621701976
 10
136.3690934301
 20
105.4802630971
 10
136.4532340416
 20
105.4912526248
 10
136.5392542561
 20
105.4951387682
  0
LWPOLYLINE
  5
32B
100
AcDbEntity
  8
0
100
AcDbPolyline
 62
7
  6
CONTINUOUS
 90
37
 70
0
 10
136.5392989818
 20
103.5318504494
 10
136.4532033428
 20
103.535778525
 10
136.3690174329
 20
103.5467935066
 10
136.2867412314
 20
103.5648953834
 10
136.2058453291
 20
103.59028024
 10
136.1268590958
 20
103.6227519867
 10
136.0513706388
 20
103.6617223539
 10
135.9793198303
 20
103.7074136883
 10
135.910766669
 20
103.7596036553
 10
135.8474793742
 20
103.8170369566
 10
135.7896837353
 20
103.8797344158
 10
135.7371537635
 20
103.9476752335
 10
135.6909799603
 20
104.0195416688
 10
135.6512299552
 20
104.0955527067
 10
135.6178359317
 20
104.1754893988
 10
135.5916852092
 20
104.257377091
 10
135.5729739768
 20
104.3411995497
 10
135.5615059271
 20
104.4269730432
 10
135.5575796501
 20
104.5127716505
 10
135.5613869158
 20
104.5986037573
 10
135.5727359537
 20
104.6844610046
 10
135.5913500713
 20
104.7683923315
 10
135.6174293813
 20
104.8504117499
 10
135.6507738891
 20
104.930505258
 10
135.6905067565
 20
105.0066797452
 10
135.7367055518
 20
105.0787215325
 10
135.7892928948
 20
105.1468442843
 10
135.8471595117
 20
105.2096958786
 10
135.9105348759
 20
105.2672417329
 10
135.9791897142
 20
105.3195164016
 10
136.0513265805
 20
105.3652714464
 10
136.1268805681
 20
105.4042852517
 10
136.2059167123
 20
105.4367793919
 10
136.2868324013
 20
105.4621701976
 10
136.3690934301
 20
105.4802630971
 10
136.4532340416
 20
105.4912526248
 10
136.5392542561
 20
105.4951387682
  0
LWPOLYLINE
  5
32C
100
AcDbEntity
  8
ASSI
100
AcDbPolyline
 62
7
  6
CONTINUOUS
 90
37
 70
0
 10
158.7392989818
 20
103.5318504494
 10
158.6532033428
 20
103.535778525
 10
158.5690174329
 20
103.5467935066
 10
158.4867412314
 20
103.5648953834
 10
158.4058453291
 20
103.59028024
 10
158.3268590958
 20
103.6227519867
 10
158.2513706388
 20
103.6617223539
 10
158.1793198303
 20
103.7074136883
 10
158.110766669
 20
103.7596036553
 10
158.0474793742
 20
103.8170369566
 10
157.9896837353
 20
103.8797344158
 10
157.9371537635
 20
103.9476752335
 10
157.8909799603
 20
104.0195416688
 10
157.8512299552
 20
104.0955527067
 10
157.8178359317
 20
104.1754893988
 10
157.7916852092
 20
104.257377091
 10
157.7729739768
 20
104.3411995497
 10
157.7615059271
 20
104.4269730432
 10
157.7575796501
 20
104.5127716505
 10
157.7613869158
 20
104.5986037573
 10
157.7727359537
 20
104.6844610046
 10
157.7913500713
 20
104.7683923315
 10
157.8174293813
 20
104.8504117499
 10
157.8507738891
 20
104.930505258
 10
157.8905067565
 20
105.0066797452
 10
157.9367055518
 20
105.0787215325
 10
157.9892928948
 20
105.1468442843
 10
158.0471595117
 20
105.2096958786
 10
158.1105348759
 20
105.2672417329
 10
158.1791897142
 20
105.3195164016
 10
158.2513265805
 20
105.3652714464
 10
158.3268805681
 20
105.4042852517
 10
158.4059167123
 20
105.4367793919
 10
158.4868324013
 20
105.4621701976
 10
158.5690934301
 20
105.4802630971
 10
158.6532340416
 20
105.4912526248
 10
158.7392542561
 20
105.4951387682
  0
LWPOLYLINE
  5
32D
100
AcDbEntity
  8
0
100
AcDbPolyline
 62
7
  6
CONTINUOUS
 90
37
 70
0
 10
158.7392989818
 20
103.5318504494
 10
158.6532033428
 20
103.535778525
 10
158.5690174329
 20
103.5467935066
 10
158.4867412314
 20
103.5648953834
 10
158.4058453291
 20
103.59028024
 10
158.3268590958
 20
103.6227519867
 10
158.2513706388
 20
103.6617223539
 10
158.1793198303
 20
103.7074136883
 10
158.110766669
 20
103.7596036553
 10
158.0474793742
 20
103.8170369566
 10
157.9896837353
 20
103.8797344158
 10
157.9371537635
 20
103.9476752335
 10
157.8909799603
 20
104.0195416688
 10
157.8512299552
 20
104.0955527067
 10
157.8178359317
 20
104.1754893988
 10
157.7916852092
 20
104.257377091
 10
157.7729739768
 20
104.3411995497
 10
157.7615059271
 20
104.4269730432
 10
157.7575796501
 20
104.5127716505
 10
157.7613869158
 20
104.5986037573
 10
157.7727359537
 20
104.6844610046
 10
157.7913500713
 20
104.7683923315
 10
157.8174293813
 20
104.8504117499
 10
157.8507738891
 20
104.930505258
 10
157.8905067565
 20
105.0066797452
 10
157.9367055518
 20
105.0787215325
 10
157.9892928948
 20
105.1468442843
 10
158.0471595117
 20
105.2096958786
 10
158.1105348759
 20
105.2672417329
 10
158.1791897142
 20
105.3195164016
 10
158.2513265805
 20
105.3652714464
 10
158.3268805681
 20
105.4042852517
 10
158.4059167123
 20
105.4367793919
 10
158.4868324013
 20
105.4621701976
 10
158.5690934301
 20
105.4802630971
 10
158.6532340416
 20
105.4912526248
 10
158.7392542561
 20
105.4951387682
  0
LWPOLYLINE
  5
32E
100
AcDbEntity
  8
SUPERFICI
100
AcDbPolyline
 62
7
  6
CONTINUOUS
 90
3
 70
0
 10
136.4028666865
 20
103.5413767633
 10
136.4706327539
 20
103.5342826265
 10
136.539298894
 20
103.5318504494
  0
LINE
  5
32F
100
AcDbEntity
  8
ASSI
100
AcDbLine
 62
253
  6
CONTINUOUS
 10
128.4056339446
 20
108.7750320414
 11
128.2901660774
 21
108.8135135135
  0
LINE
  5
330
100
AcDbEntity
  8
0
100
AcDbLine
 62
253
  6
CONTINUOUS
 10
128.4056339446
 20
108.7750320414
 11
128.2901660774
 21
108.8135135135
  0
LWPOLYLINE
  5
331
100
AcDbEntity
  8
ASSI
100
AcDbPolyline
 62
253
  6
CONTINUOUS
 90
10
 70
0
 10
149.7019591375
 20
87.4884388393
 10
149.7006653723
 20
87.4927913485
 10
149.6993934112
 20
87.5004851183
 10
149.6981432541
 20
87.5115201488
 10
149.6969083515
 20
87.5259853516
 10
149.695695253
 20
87.5437918151
 10
149.6945236073
 20
87.5646728041
 10
149.6933946012
 20
87.5886730655
 10
149.692307048
 20
87.6157478524
 10
149.6912770363
 20
87.6454961897
  0
LWPOLYLINE
  5
332
100
AcDbEntity
  8
0
100
AcDbPolyline
 62
253
  6
CONTINUOUS
 90
10
 70
0
 10
149.7019591375
 20
87.4884388393
 10
149.7006653723
 20
87.4927913485
 10
149.6993934112
 20
87.5004851183
 10
149.6981432541
 20
87.5115201488
 10
149.6969083515
 20
87.5259853516
 10
149.695695253
 20
87.5437918151
 10
149.6945236073
 20
87.5646728041
 10
149.6933946012
 20
87.5886730655
 10
149.692307048
 20
87.6157478524
 10
149.6912770363
 20
87.6454961897
  0
LWPOLYLINE
  5
333
100
AcDbEntity
  8
ASSI
100
AcDbPolyline
 62
253
  6
CONTINUOUS
 90
8
 70
0
 10
150.5764558036
 20
131.0379029551
 10
150.5754041072
 20
131.030517018
 10
150.5743105887
 20
131.0172413466
 10
150.5732031271
 20
130.9981445686
 10
150.5721303622
 20
130.9733249183
 10
150.571098231
 20
130.9429074415
 10
150.5700697714
 20
130.9070414129
 10
150.5681219462
 20
130.8196972267
  0
LWPOLYLINE
  5
334
100
AcDbEntity
  8
0
100
AcDbPolyline
 62
253
  6
CONTINUOUS
 90
8
 70
0
 10
150.5764558036
 20
131.0379029551
 10
150.5754041072
 20
131.030517018
 10
150.5743105887
 20
131.0172413466
 10
150.5732031271
 20
130.9981445686
 10
150.5721303622
 20
130.9733249183
 10
150.571098231
 20
130.9429074415
 10
150.5700697714
 20
130.9070414129
 10
150.5681219462
 20
130.8196972267
  0
LWPOLYLINE
  5
335
100
AcDbEntity
  8
SUPERFICI
100
AcDbPolyline
 62
7
  6
CONTINUOUS
 90
43
 70
0
 10
158.6703278456
 20
105.4927195749
 10
158.6026999014
 20
105.485635857
 10
158.5359319725
 20
105.4738876104
 10
158.4696784341
 20
105.4573798238
 10
158.4042849057
 20
105.4362075278
 10
158.34078823
 20
105.4106557909
 10
158.2792143887
 20
105.3806323785
 10
158.2195373468
 20
105.3462295457
 10
158.1627158839
 20
105.3080090903
 10
158.1088640669
 20
105.265979832
 10
158.0578677388
 20
105.2201329683
 10
158.0103433163
 20
105.1710038557
 10
157.966255133
 20
105.1184376152
 10
157.9256387552
 20
105.0625891407
 10
157.8892174315
 20
105.0044584371
 10
157.8571305069
 20
104.9441562108
 10
157.8292385371
 20
104.8815717589
 10
157.8058465812
 20
104.8173729622
 10
157.7869671364
 20
104.7513629992
 10
157.7725876373
 20
104.6837386911
 10
157.7629755555
 20
104.6157583723
 10
157.7582214967
 20
104.5475993482
 10
157.75823483
 20
104.4790843007
 10
157.7630111831
 20
104.4109396182
 10
157.7726340559
 20
104.3430009729
 10
157.7870199738
 20
104.2754326791
 10
157.805914113
 20
104.20945408
 10
157.829343833
 20
104.1452290092
 10
157.8572818428
 20
104.0825936134
 10
157.889391349
 20
104.0222756977
 10
157.9257842412
 20
103.9642074203
 10
157.9663487283
 20
103.9084566066
 10
158.0104124911
 20
103.8559545572
 10
158.0579786658
 20
103.8068137624
 10
158.1090442176
 20
103.7609217173
 10
158.1629275534
 20
103.7188722253
 10
158.2196992477
 20
103.6806900115
 10
158.2792888143
 20
103.6463503426
 10
158.3408030419
 20
103.6163728322
 10
158.4042857596
 20
103.5908307517
 10
158.4696931927
 20
103.5696508277
 10
158.5360006871
 20
103.5531328545
 10
158.6028666865
 20
103.5413767633
  0
LWPOLYLINE
  5
336
100
AcDbEntity
  8
SUPERFICI
100
AcDbPolyline
 62
7
  6
CONTINUOUS
 90
43
 70
0
 10
141.1079618539
 20
103.5342855997
 10
141.1757300207
 20
103.5413802064
 10
141.2425918358
 20
103.553134264
 10
141.3088769152
 20
103.5696407327
 10
141.37425565
 20
103.5908066487
 10
141.4377392277
 20
103.616353121
 10
141.4993181757
 20
103.6463744512
 10
141.5590020196
 20
103.6807763399
 10
141.6158304819
 20
103.7189969922
 10
141.669689249
 20
103.7610277086
 10
141.7206927245
 20
103.8068771964
 10
141.7682237341
 20
103.8560097675
 10
141.8123178272
 20
103.9085804476
 10
141.8529395545
 20
103.9644342263
 10
141.8893652604
 20
104.0225703574
 10
141.9214554434
 20
104.0828781609
 10
141.9493497045
 20
104.1454683328
 10
141.972743047
 20
104.2096721858
 10
141.9916227743
 20
104.2756867652
 10
142.0060016512
 20
104.3433150456
 10
142.0156128676
 20
104.4112972263
 10
142.0203656176
 20
104.4794554512
 10
142.0203507324
 20
104.5479675897
 10
142.0155738455
 20
104.6161074202
 10
142.005951715
 20
104.68403871
 10
141.9915675576
 20
104.7515977043
 10
141.9726766851
 20
104.8175668882
 10
141.9492520783
 20
104.8817825711
 10
141.921320688
 20
104.9444084444
 10
141.8892187741
 20
105.0047180547
 10
141.8528347186
 20
105.06277939
 10
141.812280041
 20
105.1185244583
 10
141.7682257136
 20
105.1710228258
 10
141.7206685549
 20
105.2201623955
 10
141.669611645
 20
105.2660552502
 10
141.6157353663
 20
105.3081072166
 10
141.5589690221
 20
105.3462937572
 10
141.4993832207
 20
105.3806393915
 10
141.4378703288
 20
105.4106235242
 10
141.3743699099
 20
105.4361746991
 10
141.3089423457
 20
105.4573643521
 10
141.2426612674
 20
105.4738862196
 10
141.1758845579
 20
105.4856382059
  0
LINE
  5
337
100
AcDbEntity
  8
SUPERFICI
100
AcDbLine
 62
7
  6
CONTINUOUS
 10
158.7388158091
 20
105.4951387574
 11
158.6703278456
 21
105.4927195749
  0
LINE
  5
338
100
AcDbEntity
  8
SUPERFICI
100
AcDbLine
 62
7
  6
CONTINUOUS
 10
136.5388158091
 20
105.4951387574
 11
136.4703278456
 21
105.4927195749
  0
LINE
  5
339
100
AcDbEntity
  8
SUPERFICI
100
AcDbLine
 62
7
  6
CONTINUOUS
 10
163.2397705782
 20
105.4951387574
 11
158.7388158091
 21
105.4951387574
  0
LINE
  5
33A
100
AcDbEntity
  8
SUPERFICI
100
AcDbLine
 62
7
  6
CONTINUOUS
 10
141.0397705782
 20
105.4951387574
 11
136.5388158091
 21
105.4951387574
  0
LINE
  5
33B
100
AcDbEntity
  8
ASSI
100
AcDbLine
 62
7
  6
CONTINUOUS
 10
136.5392542561
 20
105.4951387682
 11
141.0393320818
 21
105.4951387682
  0
LINE
  5
33C
100
AcDbEntity
  8
0
100
AcDbLine
 62
7
  6
CONTINUOUS
 10
136.5392542561
 20
105.4951387682
 11
141.0393320818
 21
105.4951387682
  0
LINE
  5
33D
100
AcDbEntity
  8
ASSI
100
AcDbLine
 62
7
  6
CONTINUOUS
 10
158.7392542561
 20
105.4951387682
 11
163.2393320818
 21
105.4951387682
  0
LINE
  5
33E
100
AcDbEntity
  8
0
100
AcDbLine
 62
7
  6
CONTINUOUS
 10
158.7392542561
 20
105.4951387682
 11
163.2393320818
 21
105.4951387682
  0
LWPOLYLINE
  5
33F
100
AcDbEntity
  8
ASSI
100
AcDbPolyline
 62
7
  6
CONTINUOUS
 90
37
 70
0
 10
141.0393320818
 20
105.4951387682
 10
141.1254260911
 20
105.4912282407
 10
141.2096120108
 20
105.4802245583
 10
141.2918898617
 20
105.4621277333
 10
141.3727898931
 20
105.4367399972
 10
141.4517818949
 20
105.4042591556
 10
141.5272752386
 20
105.3652785798
 10
141.5993294688
 20
105.3195773776
 10
141.6678851702
 20
105.2673764819
 10
141.7311733522
 20
105.2099319861
 10
141.7889680541
 20
105.1472228696
 10
141.8414954359
 20
105.0792701807
 10
141.8876647388
 20
105.0073930938
 10
141.9274079025
 20
104.9313731039
 10
141.9607931743
 20
104.8514287309
 10
141.9869342699
 20
104.769534661
 10
142.0056350879
 20
104.6857068655
 10
142.017091848
 20
104.5999293635
 10
142.0210067327
 20
104.5141288846
 10
142.0171879238
 20
104.4282974711
 10
142.0058272398
 20
104.3424430547
 10
141.9872022887
 20
104.2585161755
 10
141.9611128359
 20
104.1765026361
 10
141.9277589979
 20
104.0964165994
 10
141.8880188936
 20
104.0202511248
 10
141.8418154765
 20
103.9482203998
 10
141.7892256051
 20
103.8801102002
 10
141.731358269
 20
103.8172709546
 10
141.6679842146
 20
103.7597369626
 10
141.5993324953
 20
103.7074739001
 10
141.5271996142
 20
103.6617292514
 10
141.4516510836
 20
103.6227259609
 10
141.3726212626
 20
103.590241072
 10
141.2917100023
 20
103.5648532114
 10
141.2094505874
 20
103.546755254
 10
141.1253096953
 20
103.5357543299
 10
141.0392873056
 20
103.5318504494
  0
LWPOLYLINE
  5
340
100
AcDbEntity
  8
0
100
AcDbPolyline
 62
7
  6
CONTINUOUS
 90
37
 70
0
 10
141.0393320818
 20
105.4951387682
 10
141.1254260911
 20
105.4912282407
 10
141.2096120108
 20
105.4802245583
 10
141.2918898617
 20
105.4621277333
 10
141.3727898931
 20
105.4367399972
 10
141.4517818949
 20
105.4042591556
 10
141.5272752386
 20
105.3652785798
 10
141.5993294688
 20
105.3195773776
 10
141.6678851702
 20
105.2673764819
 10
141.7311733522
 20
105.2099319861
 10
141.7889680541
 20
105.1472228696
 10
141.8414954359
 20
105.0792701807
 10
141.8876647388
 20
105.0073930938
 10
141.9274079025
 20
104.9313731039
 10
141.9607931743
 20
104.8514287309
 10
141.9869342699
 20
104.769534661
 10
142.0056350879
 20
104.6857068655
 10
142.017091848
 20
104.5999293635
 10
142.0210067327
 20
104.5141288846
 10
142.0171879238
 20
104.4282974711
 10
142.0058272398
 20
104.3424430547
 10
141.9872022887
 20
104.2585161755
 10
141.9611128359
 20
104.1765026361
 10
141.9277589979
 20
104.0964165994
 10
141.8880188936
 20
104.0202511248
 10
141.8418154765
 20
103.9482203998
 10
141.7892256051
 20
103.8801102002
 10
141.731358269
 20
103.8172709546
 10
141.6679842146
 20
103.7597369626
 10
141.5993324953
 20
103.7074739001
 10
141.5271996142
 20
103.6617292514
 10
141.4516510836
 20
103.6227259609
 10
141.3726212626
 20
103.590241072
 10
141.2917100023
 20
103.5648532114
 10
141.2094505874
 20
103.546755254
 10
141.1253096953
 20
103.5357543299
 10
141.0392873056
 20
103.5318504494
  0
LWPOLYLINE
  5
341
100
AcDbEntity
  8
ASSI
100
AcDbPolyline
 62
7
  6
CONTINUOUS
 90
37
 70
0
 10
163.2393320818
 20
105.4951387682
 10
163.3254260911
 20
105.4912282407
 10
163.4096120108
 20
105.4802245583
 10
163.4918898617
 20
105.4621277333
 10
163.5727898931
 20
105.4367399972
 10
163.6517818949
 20
105.4042591556
 10
163.7272752386
 20
105.3652785798
 10
163.7993294688
 20
105.3195773776
 10
163.8678851702
 20
105.2673764819
 10
163.9311733522
 20
105.2099319861
 10
163.9889680541
 20
105.1472228696
 10
164.0414954359
 20
105.0792701807
 10
164.0876647388
 20
105.0073930938
 10
164.1274079025
 20
104.9313731039
 10
164.1607931743
 20
104.8514287309
 10
164.1869342699
 20
104.769534661
 10
164.2056350879
 20
104.6857068655
 10
164.217091848
 20
104.5999293635
 10
164.2210067327
 20
104.5141288846
 10
164.2171879238
 20
104.4282974711
 10
164.2058272398
 20
104.3424430547
 10
164.1872022887
 20
104.2585161755
 10
164.1611128359
 20
104.1765026361
 10
164.1277589979
 20
104.0964165994
 10
164.0880188936
 20
104.0202511248
 10
164.0418154765
 20
103.9482203998
 10
163.9892256051
 20
103.8801102002
 10
163.931358269
 20
103.8172709546
 10
163.8679842146
 20
103.7597369626
 10
163.7993324953
 20
103.7074739001
 10
163.7271996142
 20
103.6617292514
 10
163.6516510836
 20
103.6227259609
 10
163.5726212626
 20
103.590241072
 10
163.4917100023
 20
103.5648532114
 10
163.4094505874
 20
103.546755254
 10
163.3253096953
 20
103.5357543299
 10
163.2392873056
 20
103.5318504494
  0
LWPOLYLINE
  5
342
100
AcDbEntity
  8
0
100
AcDbPolyline
 62
7
  6
CONTINUOUS
 90
37
 70
0
 10
163.2393320818
 20
105.4951387682
 10
163.3254260911
 20
105.4912282407
 10
163.4096120108
 20
105.4802245583
 10
163.4918898617
 20
105.4621277333
 10
163.5727898931
 20
105.4367399972
 10
163.6517818949
 20
105.4042591556
 10
163.7272752386
 20
105.3652785798
 10
163.7993294688
 20
105.3195773776
 10
163.8678851702
 20
105.2673764819
 10
163.9311733522
 20
105.2099319861
 10
163.9889680541
 20
105.1472228696
 10
164.0414954359
 20
105.0792701807
 10
164.0876647388
 20
105.0073930938
 10
164.1274079025
 20
104.9313731039
 10
164.1607931743
 20
104.8514287309
 10
164.1869342699
 20
104.769534661
 10
164.2056350879
 20
104.6857068655
 10
164.217091848
 20
104.5999293635
 10
164.2210067327
 20
104.5141288846
 10
164.2171879238
 20
104.4282974711
 10
164.2058272398
 20
104.3424430547
 10
164.1872022887
 20
104.2585161755
 10
164.1611128359
 20
104.1765026361
 10
164.1277589979
 20
104.0964165994
 10
164.0880188936
 20
104.0202511248
 10
164.0418154765
 20
103.9482203998
 10
163.9892256051
 20
103.8801102002
 10
163.931358269
 20
103.8172709546
 10
163.8679842146
 20
103.7597369626
 10
163.7993324953
 20
103.7074739001
 10
163.7271996142
 20
103.6617292514
 10
163.6516510836
 20
103.6227259609
 10
163.5726212626
 20
103.590241072
 10
163.4917100023
 20
103.5648532114
 10
163.4094505874
 20
103.546755254
 10
163.3253096953
 20
103.5357543299
 10
163.2392873056
 20
103.5318504494
  0
LWPOLYLINE
  5
343
100
AcDbEntity
  8
SUPERFICI
100
AcDbPolyline
 62
7
  6
CONTINUOUS
 90
3
 70
0
 10
158.6028666865
 20
103.5413767633
 10
158.6706327539
 20
103.5342826265
 10
158.739298894
 20
103.5318504494
  0
LWPOLYLINE
  5
344
100
AcDbEntity
  8
SUPERFICI
100
AcDbPolyline
 62
7
  6
CONTINUOUS
 90
3
 70
0
 10
141.1758845579
 20
105.4856382059
 10
141.1082543294
 20
105.4927223875
 10
141.0397705782
 20
105.4951387574
  0
LWPOLYLINE
  5
345
100
AcDbEntity
  8
ASSI
100
AcDbPolyline
 62
253
  6
CONTINUOUS
 90
8
 70
0
 10
149.2015715949
 20
108.6447426542
 10
149.1979324376
 20
108.6778411426
 10
149.1940014707
 20
108.7064834836
 10
149.1903516023
 20
108.7304057965
 10
149.1860790421
 20
108.7494450892
 10
149.1811861238
 20
108.7633439507
 10
149.1766480157
 20
108.7718899859
 10
149.1729523352
 20
108.7750320418
  0
LWPOLYLINE
  5
346
100
AcDbEntity
  8
0
100
AcDbPolyline
 62
253
  6
CONTINUOUS
 90
8
 70
0
 10
149.2015715949
 20
108.6447426542
 10
149.1979324376
 20
108.6778411426
 10
149.1940014707
 20
108.7064834836
 10
149.1903516023
 20
108.7304057965
 10
149.1860790421
 20
108.7494450892
 10
149.1811861238
 20
108.7633439507
 10
149.1766480157
 20
108.7718899859
 10
149.1729523352
 20
108.7750320418
  0
LWPOLYLINE
  5
347
100
AcDbEntity
  8
ASSI
100
AcDbPolyline
 62
253
  6
CONTINUOUS
 90
16
 70
0
 10
149.6727809977
 20
108.2750510803
 10
149.6700954602
 20
108.3266970202
 10
149.6620552894
 20
108.3779610126
 10
149.6486936763
 20
108.4282825247
 10
149.6300797536
 20
108.4771547657
 10
149.6063781304
 20
108.5239672067
 10
149.5779025392
 20
108.5680393461
 10
149.5450077034
 20
108.6088393969
 10
149.5080238725
 20
108.6459726318
 10
149.4673466261
 20
108.67903844
 10
149.4234125239
 20
108.7076743607
 10
149.3767093078
 20
108.7315554555
 10
149.327762596
 20
108.7504104246
 10
149.2771158964
 20
108.7640306547
 10
149.2253224258
 20
108.772268099
 10
149.1729523352
 20
108.7750320418
  0
LWPOLYLINE
  5
348
100
AcDbEntity
  8
0
100
AcDbPolyline
 62
253
  6
CONTINUOUS
 90
16
 70
0
 10
149.6727809977
 20
108.2750510803
 10
149.6700954602
 20
108.3266970202
 10
149.6620552894
 20
108.3779610126
 10
149.6486936763
 20
108.4282825247
 10
149.6300797536
 20
108.4771547657
 10
149.6063781304
 20
108.5239672067
 10
149.5779025392
 20
108.5680393461
 10
149.5450077034
 20
108.6088393969
 10
149.5080238725
 20
108.6459726318
 10
149.4673466261
 20
108.67903844
 10
149.4234125239
 20
108.7076743607
 10
149.3767093078
 20
108.7315554555
 10
149.327762596
 20
108.7504104246
 10
149.2771158964
 20
108.7640306547
 10
149.2253224258
 20
108.772268099
 10
149.1729523352
 20
108.7750320418
  0
LWPOLYLINE
  5
349
100
AcDbEntity
  8
ASSI
100
AcDbPolyline
 62
253
  6
CONTINUOUS
 90
16
 70
0
 10
150.1058052809
 20
109.7519759468
 10
150.1084908184
 20
109.7003300068
 10
150.1165309892
 20
109.6490660144
 10
150.1298926023
 20
109.5987445023
 10
150.148506525
 20
109.5498722613
 10
150.1722081482
 20
109.5030598203
 10
150.2006837394
 20
109.4589876809
 10
150.2335785752
 20
109.4181876301
 10
150.270562406
 20
109.3810543953
 10
150.3112396525
 20
109.347988587
 10
150.3551737547
 20
109.3193526663
 10
150.4018769708
 20
109.2954715716
 10
150.4508236825
 20
109.2766166024
 10
150.5014703822
 20
109.2629963724
 10
150.5532638528
 20
109.254758928
 10
150.6056339434
 20
109.2519949852
  0
LWPOLYLINE
  5
34A
100
AcDbEntity
  8
0
100
AcDbPolyline
 62
253
  6
CONTINUOUS
 90
16
 70
0
 10
150.1058052809
 20
109.7519759468
 10
150.1084908184
 20
109.7003300068
 10
150.1165309892
 20
109.6490660144
 10
150.1298926023
 20
109.5987445023
 10
150.148506525
 20
109.5498722613
 10
150.1722081482
 20
109.5030598203
 10
150.2006837394
 20
109.4589876809
 10
150.2335785752
 20
109.4181876301
 10
150.270562406
 20
109.3810543953
 10
150.3112396525
 20
109.347988587
 10
150.3551737547
 20
109.3193526663
 10
150.4018769708
 20
109.2954715716
 10
150.4508236825
 20
109.2766166024
 10
150.5014703822
 20
109.2629963724
 10
150.5532638528
 20
109.254758928
 10
150.6056339434
 20
109.2519949852
  0
LWPOLYLINE
  5
34B
100
AcDbEntity
  8
ASSI
100
AcDbPolyline
 62
253
  6
CONTINUOUS
 90
4
 70
0
 10
149.2118778946
 20
108.476484915
 10
149.2100769005
 20
108.5231958156
 10
149.207362723
 20
108.5671659001
 10
149.2015715949
 20
108.6447426542
  0
LWPOLYLINE
  5
34C
100
AcDbEntity
  8
0
100
AcDbPolyline
 62
253
  6
CONTINUOUS
 90
4
 70
0
 10
149.2118778946
 20
108.476484915
 10
149.2100769005
 20
108.5231958156
 10
149.207362723
 20
108.5671659001
 10
149.2015715949
 20
108.6447426542
  0
LWPOLYLINE
  5
34D
100
AcDbEntity
  8
ASSI
100
AcDbPolyline
 62
253
  6
CONTINUOUS
 90
6
 70
0
 10
150.5710982302
 20
87.0841195855
 10
150.5721303616
 20
87.0537021092
 10
150.5732031265
 20
87.0288824588
 10
150.5743105881
 20
87.0097856801
 10
150.5754041066
 20
86.9965100082
 10
150.5764558029
 20
86.9891240706
  0
LWPOLYLINE
  5
34E
100
AcDbEntity
  8
0
100
AcDbPolyline
 62
253
  6
CONTINUOUS
 90
6
 70
0
 10
150.5710982302
 20
87.0841195855
 10
150.5721303616
 20
87.0537021092
 10
150.5732031265
 20
87.0288824588
 10
150.5743105881
 20
87.0097856801
 10
150.5754041066
 20
86.9965100082
 10
150.5764558029
 20
86.9891240706
  0
LWPOLYLINE
  5
34F
100
AcDbEntity
  8
ASSI
100
AcDbPolyline
 62
253
  6
CONTINUOUS
 90
6
 70
0
 10
149.2074880484
 20
130.9429074415
 10
149.206455917
 20
130.9733249178
 10
149.2053831521
 20
130.9981445682
 10
149.2042756905
 20
131.0172413469
 10
149.203182172
 20
131.0305170188
 10
149.2021304756
 20
131.0379029564
  0
LWPOLYLINE
  5
350
100
AcDbEntity
  8
0
100
AcDbPolyline
 62
253
  6
CONTINUOUS
 90
6
 70
0
 10
149.2074880484
 20
130.9429074415
 10
149.206455917
 20
130.9733249178
 10
149.2053831521
 20
130.9981445682
 10
149.2042756905
 20
131.0172413469
 10
149.203182172
 20
131.0305170188
 10
149.2021304756
 20
131.0379029564
  0
LINE
  5
351
100
AcDbEntity
  8
ASSI
100
AcDbLine
 62
253
  6
CONTINUOUS
 10
149.6912770363
 20
87.6454961897
 11
149.6893913494
 21
87.7130968103
  0
LINE
  5
352
100
AcDbEntity
  8
0
100
AcDbLine
 62
253
  6
CONTINUOUS
 10
149.6912770363
 20
87.6454961897
 11
149.6893913494
 21
87.7130968103
  0
LINE
  5
353
100
AcDbEntity
  8
ASSI
100
AcDbLine
 62
253
  6
CONTINUOUS
 10
149.2095174756
 20
130.8659026706
 11
149.2074880484
 21
130.9429074415
  0
LINE
  5
354
100
AcDbEntity
  8
0
100
AcDbLine
 62
253
  6
CONTINUOUS
 10
149.2095174756
 20
130.8659026706
 11
149.2074880484
 21
130.9429074415
  0
LINE
  5
355
100
AcDbEntity
  8
ASSI
100
AcDbLine
 62
253
  6
CONTINUOUS
 10
150.569068803
 20
87.1611243564
 11
150.5710982302
 21
87.0841195855
  0
LINE
  5
356
100
AcDbEntity
  8
0
100
AcDbLine
 62
253
  6
CONTINUOUS
 10
150.569068803
 20
87.1611243564
 11
150.5710982302
 21
87.0841195855
  0
LINE
  5
357
100
AcDbEntity
  8
ASSI
100
AcDbLine
 62
253
  6
CONTINUOUS
 10
149.6893913494
 20
87.7130968103
 11
149.6877775272
 21
87.7898435562
  0
LINE
  5
358
100
AcDbEntity
  8
0
100
AcDbLine
 62
253
  6
CONTINUOUS
 10
149.6893913494
 20
87.7130968103
 11
149.6877775272
 21
87.7898435562
  0
LINE
  5
359
100
AcDbEntity
  8
ASSI
100
AcDbLine
 62
253
  6
CONTINUOUS
 10
149.211391291
 20
130.7686576027
 11
149.2095174756
 21
130.8659026706
  0
LINE
  5
35A
100
AcDbEntity
  8
0
100
AcDbLine
 62
253
  6
CONTINUOUS
 10
149.211391291
 20
130.7686576027
 11
149.2095174756
 21
130.8659026706
  0
LWPOLYLINE
  5
35B
100
AcDbEntity
  8
ASSI
100
AcDbPolyline
 62
253
  6
CONTINUOUS
 90
3
 70
0
 10
150.5663072741
 20
87.313988178
 10
150.5671949876
 20
87.2583694243
 10
150.569068803
 20
87.1611243564
  0
LWPOLYLINE
  5
35C
100
AcDbEntity
  8
0
100
AcDbPolyline
 62
253
  6
CONTINUOUS
 90
3
 70
0
 10
150.5663072741
 20
87.313988178
 10
150.5671949876
 20
87.2583694243
 10
150.569068803
 20
87.1611243564
  0
LINE
  5
35D
100
AcDbEntity
  8
ASSI
100
AcDbLine
 62
253
  6
CONTINUOUS
 10
149.6877775272
 20
87.7898435562
 11
149.6864592109
 21
87.8745955581
  0
LINE
  5
35E
100
AcDbEntity
  8
0
100
AcDbLine
 62
253
  6
CONTINUOUS
 10
149.6877775272
 20
87.7898435562
 11
149.6864592109
 21
87.8745955581
  0
LINE
  5
35F
100
AcDbEntity
  8
ASSI
100
AcDbLine
 62
253
  6
CONTINUOUS
 10
149.2138907505
 20
130.5891862511
 11
149.211391291
 21
130.7686576027
  0
LINE
  5
360
100
AcDbEntity
  8
0
100
AcDbLine
 62
253
  6
CONTINUOUS
 10
149.2138907505
 20
130.5891862511
 11
149.211391291
 21
130.7686576027
  0
LINE
  5
361
100
AcDbEntity
  8
ASSI
100
AcDbLine
 62
253
  6
CONTINUOUS
 10
149.6864592109
 20
87.8745955581
 11
149.6851007263
 21
88.0126037175
  0
LINE
  5
362
100
AcDbEntity
  8
0
100
AcDbLine
 62
253
  6
CONTINUOUS
 10
149.6864592109
 20
87.8745955581
 11
149.6851007263
 21
88.0126037175
  0
LINE
  5
363
100
AcDbEntity
  8
ASSI
100
AcDbLine
 62
253
  6
CONTINUOUS
 10
149.2164641787
 20
130.2999990275
 11
149.2138907505
 21
130.5891862511
  0
LINE
  5
364
100
AcDbEntity
  8
0
100
AcDbLine
 62
253
  6
CONTINUOUS
 10
149.2164641787
 20
130.2999990275
 11
149.2138907505
 21
130.5891862511
  0
LWPOLYLINE
  5
365
100
AcDbEntity
  8
ASSI
100
AcDbPolyline
 62
253
  6
CONTINUOUS
 90
3
 70
0
 10
149.2156187249
 20
109.7527341738
 10
149.2158434915
 20
109.6997462405
 10
149.2149908584
 20
109.6484963941
  0
LWPOLYLINE
  5
366
100
AcDbEntity
  8
0
100
AcDbPolyline
 62
253
  6
CONTINUOUS
 90
3
 70
0
 10
149.2156187249
 20
109.7527341738
 10
149.2158434915
 20
109.6997462405
 10
149.2149908584
 20
109.6484963941
  0
LINE
  5
367
100
AcDbEntity
  8
ASSI
100
AcDbLine
 62
253
  6
CONTINUOUS
 10
149.2181917213
 20
129.8907809941
 11
149.2164641787
 21
130.2999990275
  0
LINE
  5
368
100
AcDbEntity
  8
0
100
AcDbLine
 62
253
  6
CONTINUOUS
 10
149.2181917213
 20
129.8907809941
 11
149.2164641787
 21
130.2999990275
  0
LINE
  5
369
100
AcDbEntity
  8
ASSI
100
AcDbLine
 62
7
  6
CONTINUOUS
 10
149.7688689498
 20
130.6724996358
 11
149.7884773413
 21
122.1135135135
  0
LINE
  5
36A
100
AcDbEntity
  8
0
100
AcDbLine
 62
7
  6
CONTINUOUS
 10
149.7688689498
 20
130.6724996358
 11
149.7884773413
 21
122.1135135135
  0
LINE
  5
36B
100
AcDbEntity
  8
ASSI
100
AcDbLine
 62
7
  6
CONTINUOUS
 10
150.0097173287
 20
87.3545273912
 11
149.9901089373
 21
95.9135135135
  0
LINE
  5
36C
100
AcDbEntity
  8
0
100
AcDbLine
 62
7
  6
CONTINUOUS
 10
150.0097173287
 20
87.3545273912
 11
149.9901089373
 21
95.9135135135
  0
LINE
  5
36D
100
AcDbEntity
  8
ASSI
100
AcDbLine
 62
253
  6
CONTINUOUS
 10
149.6851007263
 20
88.0126037175
 11
149.684532623
 21
88.1576881567
  0
LINE
  5
36E
100
AcDbEntity
  8
0
100
AcDbLine
 62
253
  6
CONTINUOUS
 10
149.6851007263
 20
88.0126037175
 11
149.684532623
 21
88.1576881567
  0
LINE
  5
36F
100
AcDbEntity
  8
ASSI
100
AcDbLine
 62
253
  6
CONTINUOUS
 10
150.0934855523
 20
130.0144233096
 11
150.0940536556
 21
129.8693388704
  0
LINE
  5
370
100
AcDbEntity
  8
0
100
AcDbLine
 62
253
  6
CONTINUOUS
 10
150.0934855523
 20
130.0144233096
 11
150.0940536556
 21
129.8693388704
  0
LINE
  5
371
100
AcDbEntity
  8
ASSI
100
AcDbLine
 62
253
  6
CONTINUOUS
 10
149.684532623
 20
88.1576881567
 11
149.6765515581
 21
97.1532111241
  0
LINE
  5
372
100
AcDbEntity
  8
0
100
AcDbLine
 62
253
  6
CONTINUOUS
 10
149.684532623
 20
88.1576881567
 11
149.6765515581
 21
97.1532111241
  0
LINE
  5
373
100
AcDbEntity
  8
ASSI
100
AcDbLine
 62
253
  6
CONTINUOUS
 10
150.0940536556
 20
129.8693388704
 11
150.1042767713
 21
116.5671775258
  0
LINE
  5
374
100
AcDbEntity
  8
0
100
AcDbLine
 62
253
  6
CONTINUOUS
 10
150.0940536556
 20
129.8693388704
 11
150.1042767713
 21
116.5671775258
  0
LWPOLYLINE
  5
375
100
AcDbEntity
  8
ASSI
100
AcDbPolyline
 62
253
  6
CONTINUOUS
 90
3
 70
0
 10
149.6765515581
 20
97.1532111241
 10
149.6730399486
 20
105.9660109991
 10
149.6727809977
 20
108.2750510803
  0
LWPOLYLINE
  5
376
100
AcDbEntity
  8
0
100
AcDbPolyline
 62
253
  6
CONTINUOUS
 90
3
 70
0
 10
149.6765515581
 20
97.1532111241
 10
149.6730399486
 20
105.9660109991
 10
149.6727809977
 20
108.2750510803
  0
LINE
  5
377
100
AcDbEntity
  8
ASSI
100
AcDbLine
 62
7
  6
CONTINUOUS
 10
149.7884773413
 20
122.1135135135
 11
149.7884773413
 21
109.7134183313
  0
LINE
  5
378
100
AcDbEntity
  8
0
100
AcDbLine
 62
7
  6
CONTINUOUS
 10
149.7884773413
 20
122.1135135135
 11
149.7884773413
 21
109.7134183313
  0
LINE
  5
379
100
AcDbEntity
  8
ASSI
100
AcDbLine
 62
7
  6
CONTINUOUS
 10
149.7884773413
 20
95.9135135135
 11
149.7884773413
 21
108.3136086957
  0
LINE
  5
37A
100
AcDbEntity
  8
0
100
AcDbLine
 62
7
  6
CONTINUOUS
 10
149.7884773413
 20
95.9135135135
 11
149.7884773413
 21
108.3136086957
  0
LINE
  5
37B
100
AcDbEntity
  8
ASSI
100
AcDbLine
 62
7
  6
CONTINUOUS
 10
149.9901089373
 20
122.1135135135
 11
149.9901089373
 21
109.7134183313
  0
LINE
  5
37C
100
AcDbEntity
  8
0
100
AcDbLine
 62
7
  6
CONTINUOUS
 10
149.9901089373
 20
122.1135135135
 11
149.9901089373
 21
109.7134183313
  0
LINE
  5
37D
100
AcDbEntity
  8
ASSI
100
AcDbLine
 62
7
  6
CONTINUOUS
 10
149.9901089373
 20
95.9135135135
 11
149.9901089373
 21
108.3136086957
  0
LINE
  5
37E
100
AcDbEntity
  8
0
100
AcDbLine
 62
7
  6
CONTINUOUS
 10
149.9901089373
 20
95.9135135135
 11
149.9901089373
 21
108.3136086957
  0
LINE
  5
37F
100
AcDbEntity
  8
ASSI
100
AcDbLine
 62
253
  6
CONTINUOUS
 10
150.1042767713
 20
116.5671775258
 11
150.1058052809
 21
109.7519759468
  0
LINE
  5
380
100
AcDbEntity
  8
0
100
AcDbLine
 62
253
  6
CONTINUOUS
 10
150.1042767713
 20
116.5671775258
 11
150.1058052809
 21
109.7519759468
  0
LINE
  5
381
100
AcDbEntity
  8
ASSI
100
AcDbLine
 62
253
  6
CONTINUOUS
 10
149.215618509
 20
109.7527341774
 11
149.2181917161
 21
129.890780995
  0
LINE
  5
382
100
AcDbEntity
  8
0
100
AcDbLine
 62
253
  6
CONTINUOUS
 10
149.215618509
 20
109.7527341774
 11
149.2181917161
 21
129.890780995
  0
LINE
  5
383
100
AcDbEntity
  8
ASSI
100
AcDbLine
 62
253
  6
CONTINUOUS
 10
149.6727809952
 20
109.7519759476
 11
149.6762204765
 21
120.347114992
  0
LINE
  5
384
100
AcDbEntity
  8
0
100
AcDbLine
 62
253
  6
CONTINUOUS
 10
149.6727809952
 20
109.7519759476
 11
149.6762204765
 21
120.347114992
  0
LINE
  5
385
100
AcDbEntity
  8
ASSI
100
AcDbLine
 62
253
  6
CONTINUOUS
 10
150.1058052834
 20
108.2750510794
 11
150.1035557251
 21
99.8504639094
  0
LINE
  5
386
100
AcDbEntity
  8
0
100
AcDbLine
 62
253
  6
CONTINUOUS
 10
150.1058052834
 20
108.2750510794
 11
150.1035557251
 21
99.8504639094
  0
LINE
  5
387
100
AcDbEntity
  8
ASSI
100
AcDbLine
 62
253
  6
CONTINUOUS
 10
150.1035557251
 20
99.8504639094
 11
150.0966587695
 21
90.6610110485
  0
LINE
  5
388
100
AcDbEntity
  8
0
100
AcDbLine
 62
253
  6
CONTINUOUS
 10
150.1035557251
 20
99.8504639094
 11
150.0966587695
 21
90.6610110485
  0
LINE
  5
389
100
AcDbEntity
  8
ASSI
100
AcDbLine
 62
7
  6
CONTINUOUS
 10
149.7688689498
 20
87.3545273912
 11
149.7884773413
 21
95.9135135135
  0
LINE
  5
38A
100
AcDbEntity
  8
0
100
AcDbLine
 62
7
  6
CONTINUOUS
 10
149.7688689498
 20
87.3545273912
 11
149.7884773413
 21
95.9135135135
  0
LINE
  5
38B
100
AcDbEntity
  8
ASSI
100
AcDbLine
 62
7
  6
CONTINUOUS
 10
150.0097173287
 20
130.6724996358
 11
149.9901089373
 21
122.1135135135
  0
LINE
  5
38C
100
AcDbEntity
  8
0
100
AcDbLine
 62
7
  6
CONTINUOUS
 10
150.0097173287
 20
130.6724996358
 11
149.9901089373
 21
122.1135135135
  0
LINE
  5
38D
100
AcDbEntity
  8
ASSI
100
AcDbLine
 62
253
  6
CONTINUOUS
 10
149.2177183011
 20
87.9689039634
 11
149.2156185206
 21
108.2742928442
  0
LINE
  5
38E
100
AcDbEntity
  8
0
100
AcDbLine
 62
253
  6
CONTINUOUS
 10
149.2177183011
 20
87.9689039634
 11
149.2156185206
 21
108.2742928442
  0
LINE
  5
38F
100
AcDbEntity
  8
ASSI
100
AcDbLine
 62
253
  6
CONTINUOUS
 10
149.6762204765
 20
120.347114992
 11
149.684823539
 21
129.9668480851
  0
LINE
  5
390
100
AcDbEntity
  8
0
100
AcDbLine
 62
253
  6
CONTINUOUS
 10
149.6762204765
 20
120.347114992
 11
149.684823539
 21
129.9668480851
  0
LWPOLYLINE
  5
391
100
AcDbEntity
  8
ASSI
100
AcDbPolyline
 62
253
  6
CONTINUOUS
 90
3
 70
0
 10
150.0966587695
 20
90.6610110485
 10
150.0937627396
 20
88.0601789419
 10
150.0934855516
 20
88.0126037155
  0
LWPOLYLINE
  5
392
100
AcDbEntity
  8
0
100
AcDbPolyline
 62
253
  6
CONTINUOUS
 90
3
 70
0
 10
150.0966587695
 20
90.6610110485
 10
150.0937627396
 20
88.0601789419
 10
150.0934855516
 20
88.0126037155
  0
LWPOLYLINE
  5
393
100
AcDbEntity
  8
ASSI
100
AcDbPolyline
 62
253
  6
CONTINUOUS
 90
4
 70
0
 10
149.2156187276
 20
108.2742928421
 10
149.2158433655
 20
108.3272787783
 10
149.2149908136
 20
108.3785269509
 10
149.2118778946
 20
108.476484915
  0
LWPOLYLINE
  5
394
100
AcDbEntity
  8
0
100
AcDbPolyline
 62
253
  6
CONTINUOUS
 90
4
 70
0
 10
149.2156187276
 20
108.2742928421
 10
149.2158433655
 20
108.3272787783
 10
149.2149908136
 20
108.3785269509
 10
149.2118778946
 20
108.476484915
  0
LINE
  5
395
100
AcDbEntity
  8
ASSI
100
AcDbLine
 62
253
  6
CONTINUOUS
 10
149.215292941
 20
87.576437533
 11
149.2177183011
 21
87.9689039634
  0
LINE
  5
396
100
AcDbEntity
  8
0
100
AcDbLine
 62
253
  6
CONTINUOUS
 10
149.215292941
 20
87.576437533
 11
149.2177183011
 21
87.9689039634
  0
LINE
  5
397
100
AcDbEntity
  8
ASSI
100
AcDbLine
 62
253
  6
CONTINUOUS
 10
149.684823539
 20
129.9668480851
 11
149.6859229882
 21
130.107712623
  0
LINE
  5
398
100
AcDbEntity
  8
0
100
AcDbLine
 62
253
  6
CONTINUOUS
 10
149.684823539
 20
129.9668480851
 11
149.6859229882
 21
130.107712623
  0
LINE
  5
399
100
AcDbEntity
  8
ASSI
100
AcDbLine
 62
253
  6
CONTINUOUS
 10
149.2131027787
 20
87.3739109491
 11
149.215292941
 21
87.576437533
  0
LINE
  5
39A
100
AcDbEntity
  8
0
100
AcDbLine
 62
253
  6
CONTINUOUS
 10
149.2131027787
 20
87.3739109491
 11
149.215292941
 21
87.576437533
  0
LINE
  5
39B
100
AcDbEntity
  8
ASSI
100
AcDbLine
 62
253
  6
CONTINUOUS
 10
149.6859229882
 20
130.107712623
 11
149.6870777783
 21
130.1955738125
  0
LINE
  5
39C
100
AcDbEntity
  8
0
100
AcDbLine
 62
253
  6
CONTINUOUS
 10
149.6859229882
 20
130.107712623
 11
149.6870777783
 21
130.1955738125
  0
LINE
  5
39D
100
AcDbEntity
  8
ASSI
100
AcDbLine
 62
253
  6
CONTINUOUS
 10
149.2113912901
 20
87.2583694264
 11
149.2131027787
 21
87.3739109491
  0
LINE
  5
39E
100
AcDbEntity
  8
0
100
AcDbLine
 62
253
  6
CONTINUOUS
 10
149.2113912901
 20
87.2583694264
 11
149.2131027787
 21
87.3739109491
  0
LINE
  5
39F
100
AcDbEntity
  8
ASSI
100
AcDbLine
 62
253
  6
CONTINUOUS
 10
150.5681219462
 20
130.8196972267
 11
150.5663072751
 21
130.7130388463
  0
LINE
  5
3A0
100
AcDbEntity
  8
0
100
AcDbLine
 62
253
  6
CONTINUOUS
 10
150.5681219462
 20
130.8196972267
 11
150.5663072751
 21
130.7130388463
  0
LINE
  5
3A1
100
AcDbEntity
  8
ASSI
100
AcDbLine
 62
253
  6
CONTINUOUS
 10
149.6870777783
 20
130.1955738125
 11
149.6885483404
 21
130.2766455009
  0
LINE
  5
3A2
100
AcDbEntity
  8
0
100
AcDbLine
 62
253
  6
CONTINUOUS
 10
149.6870777783
 20
130.1955738125
 11
149.6885483404
 21
130.2766455009
  0
LINE
  5
3A3
100
AcDbEntity
  8
ASSI
100
AcDbLine
 62
253
  6
CONTINUOUS
 10
149.2095174747
 20
87.1611243575
 11
149.2113912901
 21
87.2583694264
  0
LINE
  5
3A4
100
AcDbEntity
  8
0
100
AcDbLine
 62
253
  6
CONTINUOUS
 10
149.2095174747
 20
87.1611243575
 11
149.2113912901
 21
87.2583694264
  0
LWPOLYLINE
  5
3A5
100
AcDbEntity
  8
ASSI
100
AcDbPolyline
 62
253
  6
CONTINUOUS
 90
12
 70
0
 10
149.6885483404
 20
130.2766455009
 10
149.6903054227
 20
130.3490673042
 10
149.691277037
 20
130.3815308392
 10
149.6923070487
 20
130.4112791764
 10
149.6933946019
 20
130.4383539632
 10
149.694523608
 20
130.4623542245
 10
149.6956952536
 20
130.4832352135
 10
149.6969083521
 20
130.501041677
 10
149.6981432547
 20
130.5155068798
 10
149.6993934118
 20
130.5265419102
 10
149.7006653729
 20
130.5342356799
 10
149.7019591381
 20
130.538588189
  0
LWPOLYLINE
  5
3A6
100
AcDbEntity
  8
0
100
AcDbPolyline
 62
253
  6
CONTINUOUS
 90
12
 70
0
 10
149.6885483404
 20
130.2766455009
 10
149.6903054227
 20
130.3490673042
 10
149.691277037
 20
130.3815308392
 10
149.6923070487
 20
130.4112791764
 10
149.6933946019
 20
130.4383539632
 10
149.694523608
 20
130.4623542245
 10
149.6956952536
 20
130.4832352135
 10
149.6969083521
 20
130.501041677
 10
149.6981432547
 20
130.5155068798
 10
149.6993934118
 20
130.5265419102
 10
149.7006653729
 20
130.5342356799
 10
149.7019591381
 20
130.538588189
  0
LWPOLYLINE
  5
3A7
100
AcDbEntity
  8
ASSI
100
AcDbPolyline
 62
253
  6
CONTINUOUS
 90
4
 70
0
 10
149.2149908584
 20
109.6484963941
 10
149.2118776414
 20
109.5505360921
 10
149.2100766079
 20
109.5038245322
 10
149.2073622927
 20
109.4598542303
  0
LWPOLYLINE
  5
3A8
100
AcDbEntity
  8
0
100
AcDbPolyline
 62
253
  6
CONTINUOUS
 90
4
 70
0
 10
149.2149908584
 20
109.6484963941
 10
149.2118776414
 20
109.5505360921
 10
149.2100766079
 20
109.5038245322
 10
149.2073622927
 20
109.4598542303
  0
LWPOLYLINE
  5
3A9
100
AcDbEntity
  8
ASSI
100
AcDbPolyline
 62
253
  6
CONTINUOUS
 90
16
 70
0
 10
149.6727809952
 20
109.7519759476
 10
149.6700954527
 20
109.7003299598
 10
149.6620552693
 20
109.6490659317
 10
149.6486936395
 20
109.5987443968
 10
149.6300797001
 20
109.549872147
 10
149.6063780635
 20
109.5030597092
 10
149.5779024631
 20
109.45898758
 10
149.5450076247
 20
109.4181875461
 10
149.5080237989
 20
109.3810543319
 10
149.4673465597
 20
109.3479885413
 10
149.423412463
 20
109.3193526333
 10
149.3767092529
 20
109.295471549
 10
149.3277625499
 20
109.2766165891
 10
149.2771158626
 20
109.2629963665
 10
149.2253224067
 20
109.2547589271
 10
149.1729523327
 20
109.2519949861
  0
LWPOLYLINE
  5
3AA
100
AcDbEntity
  8
0
100
AcDbPolyline
 62
253
  6
CONTINUOUS
 90
16
 70
0
 10
149.6727809952
 20
109.7519759476
 10
149.6700954527
 20
109.7003299598
 10
149.6620552693
 20
109.6490659317
 10
149.6486936395
 20
109.5987443968
 10
149.6300797001
 20
109.549872147
 10
149.6063780635
 20
109.5030597092
 10
149.5779024631
 20
109.45898758
 10
149.5450076247
 20
109.4181875461
 10
149.5080237989
 20
109.3810543319
 10
149.4673465597
 20
109.3479885413
 10
149.423412463
 20
109.3193526333
 10
149.3767092529
 20
109.295471549
 10
149.3277625499
 20
109.2766165891
 10
149.2771158626
 20
109.2629963665
 10
149.2253224067
 20
109.2547589271
 10
149.1729523327
 20
109.2519949861
  0
LWPOLYLINE
  5
3AB
100
AcDbEntity
  8
ASSI
100
AcDbPolyline
 62
253
  6
CONTINUOUS
 90
16
 70
0
 10
150.1058052834
 20
108.2750510794
 10
150.1084908259
 20
108.3266970672
 10
150.1165310093
 20
108.3779610954
 10
150.1298926391
 20
108.4282826303
 10
150.1485065785
 20
108.47715488
 10
150.1722082151
 20
108.5239673178
 10
150.2006838155
 20
108.568039447
 10
150.2335786539
 20
108.608839481
 10
150.2705624796
 20
108.6459726951
 10
150.3112397189
 20
108.6790384857
 10
150.3551738156
 20
108.7076743937
 10
150.4018770257
 20
108.731555478
 10
150.4508237286
 20
108.750410438
 10
150.501470416
 20
108.7640306605
 10
150.5532638719
 20
108.7722680999
 10
150.6056339459
 20
108.7750320409
  0
LWPOLYLINE
  5
3AC
100
AcDbEntity
  8
0
100
AcDbPolyline
 62
253
  6
CONTINUOUS
 90
16
 70
0
 10
150.1058052834
 20
108.2750510794
 10
150.1084908259
 20
108.3266970672
 10
150.1165310093
 20
108.3779610954
 10
150.1298926391
 20
108.4282826303
 10
150.1485065785
 20
108.47715488
 10
150.1722082151
 20
108.5239673178
 10
150.2006838155
 20
108.568039447
 10
150.2335786539
 20
108.608839481
 10
150.2705624796
 20
108.6459726951
 10
150.3112397189
 20
108.6790384857
 10
150.3551738156
 20
108.7076743937
 10
150.4018770257
 20
108.731555478
 10
150.4508237286
 20
108.750410438
 10
150.501470416
 20
108.7640306605
 10
150.5532638719
 20
108.7722680999
 10
150.6056339459
 20
108.7750320409
  0
LWPOLYLINE
  5
3AD
100
AcDbEntity
  8
ASSI
100
AcDbPolyline
 62
253
  6
CONTINUOUS
 90
9
 70
0
 10
149.2073622927
 20
109.4598542303
 10
149.2015710156
 20
109.3822784139
 10
149.1979318488
 20
109.3491808538
 10
149.1940008596
 20
109.3205396286
 10
149.1903510531
 20
109.2966184962
 10
149.186078613
 20
109.2775802759
 10
149.1811858418
 20
109.2636822754
 10
149.1766478895
 20
109.2551368208
 10
149.1729523331
 20
109.2519949861
  0
LWPOLYLINE
  5
3AE
100
AcDbEntity
  8
0
100
AcDbPolyline
 62
253
  6
CONTINUOUS
 90
9
 70
0
 10
149.2073622927
 20
109.4598542303
 10
149.2015710156
 20
109.3822784139
 10
149.1979318488
 20
109.3491808538
 10
149.1940008596
 20
109.3205396286
 10
149.1903510531
 20
109.2966184962
 10
149.186078613
 20
109.2775802759
 10
149.1811858418
 20
109.2636822754
 10
149.1766478895
 20
109.2551368208
 10
149.1729523331
 20
109.2519949861
  0
LINE
  5
3AF
100
AcDbEntity
  8
ASSI
100
AcDbLine
 62
253
  6
CONTINUOUS
 10
149.9901089373
 20
109.7134183313
 11
150.1058052809
 21
109.7519759468
  0
LINE
  5
3B0
100
AcDbEntity
  8
0
100
AcDbLine
 62
253
  6
CONTINUOUS
 10
149.9901089373
 20
109.7134183313
 11
150.1058052809
 21
109.7519759468
  0
LINE
  5
3B1
100
AcDbEntity
  8
ASSI
100
AcDbLine
 62
253
  6
CONTINUOUS
 10
149.2884202012
 20
108.8135135135
 11
149.1729523352
 21
108.7750320418
  0
LINE
  5
3B2
100
AcDbEntity
  8
0
100
AcDbLine
 62
253
  6
CONTINUOUS
 10
149.2884202012
 20
108.8135135135
 11
149.1729523352
 21
108.7750320418
  0
LINE
  5
3B3
100
AcDbEntity
  8
ASSI
100
AcDbLine
 62
253
  6
CONTINUOUS
 10
150.4901660774
 20
109.2135135135
 11
150.6056339434
 21
109.2519949852
  0
LINE
  5
3B4
100
AcDbEntity
  8
0
100
AcDbLine
 62
253
  6
CONTINUOUS
 10
150.4901660774
 20
109.2135135135
 11
150.6056339434
 21
109.2519949852
  0
LWPOLYLINE
  5
3B5
100
AcDbEntity
  8
SUPERFICI
100
AcDbPolyline
 62
7
  6
CONTINUOUS
 90
43
 70
0
 10
136.4703278456
 20
105.4927195749
 10
136.4026999014
 20
105.485635857
 10
136.3359319725
 20
105.4738876104
 10
136.2696784341
 20
105.4573798238
 10
136.2042849057
 20
105.4362075278
 10
136.14078823
 20
105.4106557909
 10
136.0792143887
 20
105.3806323785
 10
136.0195373468
 20
105.3462295457
 10
135.9627158839
 20
105.3080090903
 10
135.9088640669
 20
105.265979832
 10
135.8578677388
 20
105.2201329683
 10
135.8103433163
 20
105.1710038557
 10
135.766255133
 20
105.1184376152
 10
135.7256387552
 20
105.0625891407
 10
135.6892174315
 20
105.0044584371
 10
135.6571305069
 20
104.9441562108
 10
135.6292385371
 20
104.8815717589
 10
135.6058465812
 20
104.8173729622
 10
135.5869671364
 20
104.7513629992
 10
135.5725876373
 20
104.6837386911
 10
135.5629755555
 20
104.6157583723
 10
135.5582214967
 20
104.5475993482
 10
135.55823483
 20
104.4790843007
 10
135.5630111831
 20
104.4109396182
 10
135.5726340559
 20
104.3430009729
 10
135.5870199738
 20
104.2754326791
 10
135.605914113
 20
104.20945408
 10
135.629343833
 20
104.1452290092
 10
135.6572818428
 20
104.0825936134
 10
135.689391349
 20
104.0222756977
 10
135.7257842412
 20
103.9642074203
 10
135.7663487283
 20
103.9084566066
 10
135.8104124911
 20
103.8559545572
 10
135.8579786658
 20
103.8068137624
 10
135.9090442176
 20
103.7609217173
 10
135.9629275534
 20
103.7188722253
 10
136.0196992477
 20
103.6806900115
 10
136.0792888143
 20
103.6463503426
 10
136.1408030419
 20
103.6163728322
 10
136.2042857596
 20
103.5908307517
 10
136.2696931927
 20
103.5696508277
 10
136.3360006871
 20
103.5531328545
 10
136.4028666865
 20
103.5413767633
  0
LINE
  5
3B6
100
AcDbEntity
  8
ASSI
100
AcDbLine
 62
7
  6
CONTINUOUS
 10
169.2392931393
 20
108.7873329101
 11
169.5017591299
 21
108.8135135135
  0
LINE
  5
3B7
100
AcDbEntity
  8
0
100
AcDbLine
 62
7
  6
CONTINUOUS
 10
169.2392931393
 20
108.7873329101
 11
169.5017591299
 21
108.8135135135
  0
LINE
  5
3B8
100
AcDbEntity
  8
ASSI
100
AcDbLine
 62
7
  6
CONTINUOUS
 10
152.7392931393
 20
109.2396941169
 11
152.4768271487
 21
109.2135135135
  0
LINE
  5
3B9
100
AcDbEntity
  8
0
100
AcDbLine
 62
7
  6
CONTINUOUS
 10
152.7392931393
 20
109.2396941169
 11
152.4768271487
 21
109.2135135135
  0
LINE
  5
3BA
100
AcDbEntity
  8
ASSI
100
AcDbLine
 62
7
  6
CONTINUOUS
 10
147.0392931393
 20
108.7873329101
 11
147.3017591299
 21
108.8135135135
  0
LINE
  5
3BB
100
AcDbEntity
  8
0
100
AcDbLine
 62
7
  6
CONTINUOUS
 10
147.0392931393
 20
108.7873329101
 11
147.3017591299
 21
108.8135135135
  0
LINE
  5
3BC
100
AcDbEntity
  8
ASSI
100
AcDbLine
 62
253
  6
CONTINUOUS
 10
171.8727809977
 20
108.2750510803
 11
171.8691466705
 21
108.2749769748
  0
LINE
  5
3BD
100
AcDbEntity
  8
0
100
AcDbLine
 62
253
  6
CONTINUOUS
 10
171.8727809977
 20
108.2750510803
 11
171.8691466705
 21
108.2749769748
  0
LINE
  5
3BE
100
AcDbEntity
  8
ASSI
100
AcDbLine
 62
253
  6
CONTINUOUS
 10
149.6727809977
 20
108.2750510803
 11
149.6691466705
 21
108.2749769748
  0
LINE
  5
3BF
100
AcDbEntity
  8
0
100
AcDbLine
 62
253
  6
CONTINUOUS
 10
149.6727809977
 20
108.2750510803
 11
149.6691466705
 21
108.2749769748
  0
LINE
  5
3C0
100
AcDbEntity
  8
ASSI
100
AcDbLine
 62
253
  6
CONTINUOUS
 10
171.8691466705
 20
108.2749769748
 11
171.847881197
 21
108.2748315602
  0
LINE
  5
3C1
100
AcDbEntity
  8
0
100
AcDbLine
 62
253
  6
CONTINUOUS
 10
171.8691466705
 20
108.2749769748
 11
171.847881197
 21
108.2748315602
  0
LINE
  5
3C2
100
AcDbEntity
  8
ASSI
100
AcDbLine
 62
253
  6
CONTINUOUS
 10
149.6691466705
 20
108.2749769748
 11
149.647881197
 21
108.2748315602
  0
LINE
  5
3C3
100
AcDbEntity
  8
0
100
AcDbLine
 62
253
  6
CONTINUOUS
 10
149.6691466705
 20
108.2749769748
 11
149.647881197
 21
108.2748315602
  0
LINE
  5
3C4
100
AcDbEntity
  8
ASSI
100
AcDbLine
 62
253
  6
CONTINUOUS
 10
171.3729523352
 20
108.7750320418
 11
164.4519987736
 21
108.7715866205
  0
LINE
  5
3C5
100
AcDbEntity
  8
0
100
AcDbLine
 62
253
  6
CONTINUOUS
 10
171.3729523352
 20
108.7750320418
 11
164.4519987736
 21
108.7715866205
  0
LINE
  5
3C6
100
AcDbEntity
  8
ASSI
100
AcDbLine
 62
253
  6
CONTINUOUS
 10
149.1729523352
 20
108.7750320418
 11
142.2519987736
 21
108.7715866205
  0
LINE
  5
3C7
100
AcDbEntity
  8
0
100
AcDbLine
 62
253
  6
CONTINUOUS
 10
149.1729523352
 20
108.7750320418
 11
142.2519987736
 21
108.7715866205
  0
LINE
  5
3C8
100
AcDbEntity
  8
ASSI
100
AcDbLine
 62
253
  6
CONTINUOUS
 10
150.6056339434
 20
109.2519949852
 11
157.526587505
 21
109.2554404065
  0
LINE
  5
3C9
100
AcDbEntity
  8
0
100
AcDbLine
 62
253
  6
CONTINUOUS
 10
150.6056339434
 20
109.2519949852
 11
157.526587505
 21
109.2554404065
  0
LINE
  5
3CA
100
AcDbEntity
  8
ASSI
100
AcDbLine
 62
253
  6
CONTINUOUS
 10
128.4056339434
 20
109.2519949852
 11
135.326587505
 21
109.2554404065
  0
LINE
  5
3CB
100
AcDbEntity
  8
0
100
AcDbLine
 62
253
  6
CONTINUOUS
 10
128.4056339434
 20
109.2519949852
 11
135.326587505
 21
109.2554404065
  0
LINE
  5
3CC
100
AcDbEntity
  8
ASSI
100
AcDbLine
 62
253
  6
CONTINUOUS
 10
171.847881197
 20
108.2748315602
 11
164.4662240653
 21
108.2706956898
  0
LINE
  5
3CD
100
AcDbEntity
  8
0
100
AcDbLine
 62
253
  6
CONTINUOUS
 10
171.847881197
 20
108.2748315602
 11
164.4662240653
 21
108.2706956898
  0
LINE
  5
3CE
100
AcDbEntity
  8
ASSI
100
AcDbLine
 62
253
  6
CONTINUOUS
 10
149.647881197
 20
108.2748315602
 11
142.2662240653
 21
108.2706956898
  0
LINE
  5
3CF
100
AcDbEntity
  8
0
100
AcDbLine
 62
253
  6
CONTINUOUS
 10
149.647881197
 20
108.2748315602
 11
142.2662240653
 21
108.2706956898
  0
LINE
  5
3D0
100
AcDbEntity
  8
ASSI
100
AcDbLine
 62
7
  6
CONTINUOUS
 10
169.2392931393
 20
108.7873329101
 11
152.7392931393
 21
108.7873329101
  0
LINE
  5
3D1
100
AcDbEntity
  8
0
100
AcDbLine
 62
7
  6
CONTINUOUS
 10
169.2392931393
 20
108.7873329101
 11
152.7392931393
 21
108.7873329101
  0
LINE
  5
3D2
100
AcDbEntity
  8
ASSI
100
AcDbLine
 62
7
  6
CONTINUOUS
 10
147.0392931393
 20
108.7873329101
 11
130.5392931393
 21
108.7873329101
  0
LINE
  5
3D3
100
AcDbEntity
  8
0
100
AcDbLine
 62
7
  6
CONTINUOUS
 10
147.0392931393
 20
108.7873329101
 11
130.5392931393
 21
108.7873329101
  0
LINE
  5
3D4
100
AcDbEntity
  8
ASSI
100
AcDbLine
 62
7
  6
CONTINUOUS
 10
128.2901660774
 20
108.8135135135
 11
130.2768271487
 21
108.8135135135
  0
LINE
  5
3D5
100
AcDbEntity
  8
0
100
AcDbLine
 62
7
  6
CONTINUOUS
 10
128.2901660774
 20
108.8135135135
 11
130.2768271487
 21
108.8135135135
  0
LINE
  5
3D6
100
AcDbEntity
  8
ASSI
100
AcDbLine
 62
7
  6
CONTINUOUS
 10
147.3017591299
 20
108.8135135135
 11
149.2884202012
 21
108.8135135135
  0
LINE
  5
3D7
100
AcDbEntity
  8
0
100
AcDbLine
 62
7
  6
CONTINUOUS
 10
147.3017591299
 20
108.8135135135
 11
149.2884202012
 21
108.8135135135
  0
LINE
  5
3D8
100
AcDbEntity
  8
ASSI
100
AcDbLine
 62
7
  6
CONTINUOUS
 10
150.4901660774
 20
108.8135135135
 11
152.4768271487
 21
108.8135135135
  0
LINE
  5
3D9
100
AcDbEntity
  8
0
100
AcDbLine
 62
7
  6
CONTINUOUS
 10
150.4901660774
 20
108.8135135135
 11
152.4768271487
 21
108.8135135135
  0
LINE
  5
3DA
100
AcDbEntity
  8
ASSI
100
AcDbLine
 62
7
  6
CONTINUOUS
 10
169.5017591299
 20
108.8135135135
 11
171.4884202012
 21
108.8135135135
  0
LINE
  5
3DB
100
AcDbEntity
  8
0
100
AcDbLine
 62
7
  6
CONTINUOUS
 10
169.5017591299
 20
108.8135135135
 11
171.4884202012
 21
108.8135135135
  0
LINE
  5
3DC
100
AcDbEntity
  8
ASSI
100
AcDbLine
 62
7
  6
CONTINUOUS
 10
171.4884202012
 20
109.2135135135
 11
169.5017591299
 21
109.2135135135
  0
LINE
  5
3DD
100
AcDbEntity
  8
0
100
AcDbLine
 62
7
  6
CONTINUOUS
 10
171.4884202012
 20
109.2135135135
 11
169.5017591299
 21
109.2135135135
  0
LINE
  5
3DE
100
AcDbEntity
  8
ASSI
100
AcDbLine
 62
7
  6
CONTINUOUS
 10
152.4768271487
 20
109.2135135135
 11
150.4901660774
 21
109.2135135135
  0
LINE
  5
3DF
100
AcDbEntity
  8
0
100
AcDbLine
 62
7
  6
CONTINUOUS
 10
152.4768271487
 20
109.2135135135
 11
150.4901660774
 21
109.2135135135
  0
LINE
  5
3E0
100
AcDbEntity
  8
ASSI
100
AcDbLine
 62
7
  6
CONTINUOUS
 10
149.2884202012
 20
109.2135135135
 11
147.3017591299
 21
109.2135135135
  0
LINE
  5
3E1
100
AcDbEntity
  8
0
100
AcDbLine
 62
7
  6
CONTINUOUS
 10
149.2884202012
 20
109.2135135135
 11
147.3017591299
 21
109.2135135135
  0
LINE
  5
3E2
100
AcDbEntity
  8
ASSI
100
AcDbLine
 62
7
  6
CONTINUOUS
 10
130.2768271487
 20
109.2135135135
 11
128.2901660774
 21
109.2135135135
  0
LINE
  5
3E3
100
AcDbEntity
  8
0
100
AcDbLine
 62
7
  6
CONTINUOUS
 10
130.2768271487
 20
109.2135135135
 11
128.2901660774
 21
109.2135135135
  0
LINE
  5
3E4
100
AcDbEntity
  8
ASSI
100
AcDbLine
 62
7
  6
CONTINUOUS
 10
130.5392931393
 20
109.2396941169
 11
147.0392931393
 21
109.2396941169
  0
LINE
  5
3E5
100
AcDbEntity
  8
0
100
AcDbLine
 62
7
  6
CONTINUOUS
 10
130.5392931393
 20
109.2396941169
 11
147.0392931393
 21
109.2396941169
  0
LINE
  5
3E6
100
AcDbEntity
  8
ASSI
100
AcDbLine
 62
7
  6
CONTINUOUS
 10
152.7392931393
 20
109.2396941169
 11
169.2392931393
 21
109.2396941169
  0
LINE
  5
3E7
100
AcDbEntity
  8
0
100
AcDbLine
 62
7
  6
CONTINUOUS
 10
152.7392931393
 20
109.2396941169
 11
169.2392931393
 21
109.2396941169
  0
LINE
  5
3E8
100
AcDbEntity
  8
ASSI
100
AcDbLine
 62
253
  6
CONTINUOUS
 10
142.2662240653
 20
108.2706956898
 11
135.3123653579
 21
108.270695689
  0
LINE
  5
3E9
100
AcDbEntity
  8
0
100
AcDbLine
 62
253
  6
CONTINUOUS
 10
142.2662240653
 20
108.2706956898
 11
135.3123653579
 21
108.270695689
  0
LINE
  5
3EA
100
AcDbEntity
  8
ASSI
100
AcDbLine
 62
253
  6
CONTINUOUS
 10
164.4662240653
 20
108.2706956898
 11
157.5123653579
 21
108.270695689
  0
LINE
  5
3EB
100
AcDbEntity
  8
0
100
AcDbLine
 62
253
  6
CONTINUOUS
 10
164.4662240653
 20
108.2706956898
 11
157.5123653579
 21
108.270695689
  0
LINE
  5
3EC
100
AcDbEntity
  8
ASSI
100
AcDbLine
 62
253
  6
CONTINUOUS
 10
142.2519987736
 20
108.7715866205
 11
135.3265849104
 21
108.7715866211
  0
LINE
  5
3ED
100
AcDbEntity
  8
0
100
AcDbLine
 62
253
  6
CONTINUOUS
 10
142.2519987736
 20
108.7715866205
 11
135.3265849104
 21
108.7715866211
  0
LINE
  5
3EE
100
AcDbEntity
  8
ASSI
100
AcDbLine
 62
253
  6
CONTINUOUS
 10
164.4519987736
 20
108.7715866205
 11
157.5265849104
 21
108.7715866211
  0
LINE
  5
3EF
100
AcDbEntity
  8
0
100
AcDbLine
 62
253
  6
CONTINUOUS
 10
164.4519987736
 20
108.7715866205
 11
157.5265849104
 21
108.7715866211
  0
LINE
  5
3F0
100
AcDbEntity
  8
ASSI
100
AcDbLine
 62
253
  6
CONTINUOUS
 10
135.326587505
 20
109.2554404065
 11
142.2520013682
 21
109.2554404059
  0
LINE
  5
3F1
100
AcDbEntity
  8
0
100
AcDbLine
 62
253
  6
CONTINUOUS
 10
135.326587505
 20
109.2554404065
 11
142.2520013682
 21
109.2554404059
  0
LINE
  5
3F2
100
AcDbEntity
  8
ASSI
100
AcDbLine
 62
253
  6
CONTINUOUS
 10
157.526587505
 20
109.2554404065
 11
164.4520013682
 21
109.2554404059
  0
LINE
  5
3F3
100
AcDbEntity
  8
0
100
AcDbLine
 62
253
  6
CONTINUOUS
 10
157.526587505
 20
109.2554404065
 11
164.4520013682
 21
109.2554404059
  0
LINE
  5
3F4
100
AcDbEntity
  8
ASSI
100
AcDbLine
 62
253
  6
CONTINUOUS
 10
157.5123653579
 20
108.270695689
 11
150.3771643148
 21
108.2743817776
  0
LINE
  5
3F5
100
AcDbEntity
  8
0
100
AcDbLine
 62
253
  6
CONTINUOUS
 10
157.5123653579
 20
108.270695689
 11
150.3771643148
 21
108.2743817776
  0
LINE
  5
3F6
100
AcDbEntity
  8
ASSI
100
AcDbLine
 62
253
  6
CONTINUOUS
 10
135.3265849104
 20
108.7715866211
 11
128.4056339446
 21
108.7750320414
  0
LINE
  5
3F7
100
AcDbEntity
  8
0
100
AcDbLine
 62
253
  6
CONTINUOUS
 10
135.3265849104
 20
108.7715866211
 11
128.4056339446
 21
108.7750320414
  0
LINE
  5
3F8
100
AcDbEntity
  8
ASSI
100
AcDbLine
 62
253
  6
CONTINUOUS
 10
157.5265849104
 20
108.7715866211
 11
150.6056339446
 21
108.7750320414
  0
LINE
  5
3F9
100
AcDbEntity
  8
0
100
AcDbLine
 62
253
  6
CONTINUOUS
 10
157.5265849104
 20
108.7715866211
 11
150.6056339446
 21
108.7750320414
  0
LINE
  5
3FA
100
AcDbEntity
  8
ASSI
100
AcDbLine
 62
253
  6
CONTINUOUS
 10
142.2520013682
 20
109.2554404059
 11
149.1729523339
 21
109.2519949857
  0
LINE
  5
3FB
100
AcDbEntity
  8
0
100
AcDbLine
 62
253
  6
CONTINUOUS
 10
142.2520013682
 20
109.2554404059
 11
149.1729523339
 21
109.2519949857
  0
LINE
  5
3FC
100
AcDbEntity
  8
ASSI
100
AcDbLine
 62
253
  6
CONTINUOUS
 10
164.4520013682
 20
109.2554404059
 11
171.3729523339
 21
109.2519949857
  0
LINE
  5
3FD
100
AcDbEntity
  8
0
100
AcDbLine
 62
253
  6
CONTINUOUS
 10
164.4520013682
 20
109.2554404059
 11
171.3729523339
 21
109.2519949857
  0
LINE
  5
3FE
100
AcDbEntity
  8
ASSI
100
AcDbLine
 62
253
  6
CONTINUOUS
 10
135.3123653579
 20
108.270695689
 11
127.9307050839
 21
108.2748315644
  0
LINE
  5
3FF
100
AcDbEntity
  8
0
100
AcDbLine
 62
253
  6
CONTINUOUS
 10
135.3123653579
 20
108.270695689
 11
127.9307050839
 21
108.2748315644
  0
LINE
  5
400
100
AcDbEntity
  8
ASSI
100
AcDbLine
 62
253
  6
CONTINUOUS
 10
150.3771643148
 20
108.2743817776
 11
150.1307050839
 21
108.2748315644
  0
LINE
  5
401
100
AcDbEntity
  8
0
100
AcDbLine
 62
253
  6
CONTINUOUS
 10
150.3771643148
 20
108.2743817776
 11
150.1307050839
 21
108.2748315644
  0
LWPOLYLINE
  5
402
100
AcDbEntity
  8
ASSI
100
AcDbPolyline
 62
253
  6
CONTINUOUS
 90
3
 70
0
 10
127.9307050839
 20
108.2748315644
 10
127.9094396105
 20
108.2749769757
 10
127.9058052833
 20
108.2750510794
  0
LWPOLYLINE
  5
403
100
AcDbEntity
  8
0
100
AcDbPolyline
 62
253
  6
CONTINUOUS
 90
3
 70
0
 10
127.9307050839
 20
108.2748315644
 10
127.9094396105
 20
108.2749769757
 10
127.9058052833
 20
108.2750510794
  0
LWPOLYLINE
  5
404
100
AcDbEntity
  8
ASSI
100
AcDbPolyline
 62
253
  6
CONTINUOUS
 90
3
 70
0
 10
150.1307050839
 20
108.2748315644
 10
150.1094396105
 20
108.2749769757
 10
150.1058052833
 20
108.2750510794
  0
LWPOLYLINE
  5
405
100
AcDbEntity
  8
0
100
AcDbPolyline
 62
253
  6
CONTINUOUS
 90
3
 70
0
 10
150.1307050839
 20
108.2748315644
 10
150.1094396105
 20
108.2749769757
 10
150.1058052833
 20
108.2750510794
  0
LINE
  5
406
100
AcDbEntity
  8
ASSI
100
AcDbLine
 62
7
  6
CONTINUOUS
 10
130.5392931393
 20
108.7873329101
 11
130.2768271487
 21
108.8135135135
  0
LINE
  5
407
100
AcDbEntity
  8
0
100
AcDbLine
 62
7
  6
CONTINUOUS
 10
130.5392931393
 20
108.7873329101
 11
130.2768271487
 21
108.8135135135
  0
LINE
  5
408
100
AcDbEntity
  8
ASSI
100
AcDbLine
 62
7
  6
CONTINUOUS
 10
147.0392931393
 20
109.2396941169
 11
147.3017591299
 21
109.2135135135
  0
LINE
  5
409
100
AcDbEntity
  8
0
100
AcDbLine
 62
7
  6
CONTINUOUS
 10
147.0392931393
 20
109.2396941169
 11
147.3017591299
 21
109.2135135135
  0
LINE
  5
40A
100
AcDbEntity
  8
ASSI
100
AcDbLine
 62
7
  6
CONTINUOUS
 10
152.7392931393
 20
108.7873329101
 11
152.4768271487
 21
108.8135135135
  0
LINE
  5
40B
100
AcDbEntity
  8
0
100
AcDbLine
 62
7
  6
CONTINUOUS
 10
152.7392931393
 20
108.7873329101
 11
152.4768271487
 21
108.8135135135
  0
LWPOLYLINE
  5
40C
100
AcDbEntity
  8
SUPERFICI
100
AcDbPolyline
 62
7
  6
CONTINUOUS
 90
3
 70
0
 10
163.3758845579
 20
105.4856382059
 10
163.3082543294
 20
105.4927223875
 10
163.2397705782
 20
105.4951387574
  0
LINE
  5
40D
100
AcDbEntity
  8
ASSI
100
AcDbLine
 62
253
  6
CONTINUOUS
 10
150.1058052834
 20
108.2750510794
 11
149.9901089373
 21
108.3136086957
  0
LINE
  5
40E
100
AcDbEntity
  8
0
100
AcDbLine
 62
253
  6
CONTINUOUS
 10
150.1058052834
 20
108.2750510794
 11
149.9901089373
 21
108.3136086957
  0
LINE
  5
40F
100
AcDbEntity
  8
ASSI
100
AcDbLine
 62
253
  6
CONTINUOUS
 10
149.1729523339
 20
109.2519949857
 11
149.2884202012
 21
109.2135135135
  0
LINE
  5
410
100
AcDbEntity
  8
0
100
AcDbLine
 62
253
  6
CONTINUOUS
 10
149.1729523339
 20
109.2519949857
 11
149.2884202012
 21
109.2135135135
  0
LINE
  5
411
100
AcDbEntity
  8
ASSI
100
AcDbLine
 62
253
  6
CONTINUOUS
 10
150.6056339446
 20
108.7750320414
 11
150.4901660774
 21
108.8135135135
  0
LINE
  5
412
100
AcDbEntity
  8
0
100
AcDbLine
 62
253
  6
CONTINUOUS
 10
150.6056339446
 20
108.7750320414
 11
150.4901660774
 21
108.8135135135
  0
LWPOLYLINE
  5
413
100
AcDbEntity
  8
ASSI
100
AcDbPolyline
 62
253
  6
CONTINUOUS
 90
8
 70
0
 10
150.5770146837
 20
109.3822843728
 10
150.580653841
 20
109.3491858844
 10
150.5845848079
 20
109.3205435434
 10
150.5882346763
 20
109.2966212305
 10
150.5925072365
 20
109.2775819378
 10
150.5974001548
 20
109.2636830764
 10
150.6019382629
 20
109.2551370411
 10
150.6056339434
 20
109.2519949852
  0
LWPOLYLINE
  5
414
100
AcDbEntity
  8
0
100
AcDbPolyline
 62
253
  6
CONTINUOUS
 90
8
 70
0
 10
150.5770146837
 20
109.3822843728
 10
150.580653841
 20
109.3491858844
 10
150.5845848079
 20
109.3205435434
 10
150.5882346763
 20
109.2966212305
 10
150.5925072365
 20
109.2775819378
 10
150.5974001548
 20
109.2636830764
 10
150.6019382629
 20
109.2551370411
 10
150.6056339434
 20
109.2519949852
  0
LWPOLYLINE
  5
415
100
AcDbEntity
  8
ASSI
100
AcDbPolyline
 62
253
  6
CONTINUOUS
 90
4
 70
0
 10
150.566708384
 20
109.550542112
 10
150.5685093781
 20
109.5038312115
 10
150.5712235555
 20
109.4598611269
 10
150.5770146837
 20
109.3822843728
  0
LWPOLYLINE
  5
416
100
AcDbEntity
  8
0
100
AcDbPolyline
 62
253
  6
CONTINUOUS
 90
4
 70
0
 10
150.566708384
 20
109.550542112
 10
150.5685093781
 20
109.5038312115
 10
150.5712235555
 20
109.4598611269
 10
150.5770146837
 20
109.3822843728
  0
LINE
  5
417
100
AcDbEntity
  8
ASSI
100
AcDbLine
 62
253
  6
CONTINUOUS
 10
150.0873092422
 20
130.3815308373
 11
150.0891949292
 21
130.3139302167
  0
LINE
  5
418
100
AcDbEntity
  8
0
100
AcDbLine
 62
253
  6
CONTINUOUS
 10
150.0873092422
 20
130.3815308373
 11
150.0891949292
 21
130.3139302167
  0
LINE
  5
419
100
AcDbEntity
  8
ASSI
100
AcDbLine
 62
253
  6
CONTINUOUS
 10
150.0891949292
 20
130.3139302167
 11
150.0908087514
 21
130.2371834708
  0
LINE
  5
41A
100
AcDbEntity
  8
0
100
AcDbLine
 62
253
  6
CONTINUOUS
 10
150.0891949292
 20
130.3139302167
 11
150.0908087514
 21
130.2371834708
  0
LINE
  5
41B
100
AcDbEntity
  8
ASSI
100
AcDbLine
 62
253
  6
CONTINUOUS
 10
150.0908087514
 20
130.2371834708
 11
150.0921270677
 21
130.152431469
  0
LINE
  5
41C
100
AcDbEntity
  8
0
100
AcDbLine
 62
253
  6
CONTINUOUS
 10
150.0908087514
 20
130.2371834708
 11
150.0921270677
 21
130.152431469
  0
LINE
  5
41D
100
AcDbEntity
  8
ASSI
100
AcDbLine
 62
253
  6
CONTINUOUS
 10
150.5639585473
 20
87.5054613707
 11
150.5663072741
 21
87.313988178
  0
LINE
  5
41E
100
AcDbEntity
  8
0
100
AcDbLine
 62
253
  6
CONTINUOUS
 10
150.5639585473
 20
87.5054613707
 11
150.5663072741
 21
87.313988178
  0
LINE
  5
41F
100
AcDbEntity
  8
ASSI
100
AcDbLine
 62
253
  6
CONTINUOUS
 10
150.0921270677
 20
130.152431469
 11
150.0934855523
 21
130.0144233096
  0
LINE
  5
420
100
AcDbEntity
  8
0
100
AcDbLine
 62
253
  6
CONTINUOUS
 10
150.0921270677
 20
130.152431469
 11
150.0934855523
 21
130.0144233096
  0
LINE
  5
421
100
AcDbEntity
  8
ASSI
100
AcDbLine
 62
253
  6
CONTINUOUS
 10
150.5612241788
 20
87.8866534584
 11
150.5639585473
 21
87.5054613707
  0
LINE
  5
422
100
AcDbEntity
  8
0
100
AcDbLine
 62
253
  6
CONTINUOUS
 10
150.5612241788
 20
87.8866534584
 11
150.5639585473
 21
87.5054613707
  0
LWPOLYLINE
  5
423
100
AcDbEntity
  8
ASSI
100
AcDbPolyline
 62
253
  6
CONTINUOUS
 90
3
 70
0
 10
150.5629675537
 20
108.2742928532
 10
150.5627427871
 20
108.3272807865
 10
150.5635954202
 20
108.3785306329
  0
LWPOLYLINE
  5
424
100
AcDbEntity
  8
0
100
AcDbPolyline
 62
253
  6
CONTINUOUS
 90
3
 70
0
 10
150.5629675537
 20
108.2742928532
 10
150.5627427871
 20
108.3272807865
 10
150.5635954202
 20
108.3785306329
  0
LINE
  5
425
100
AcDbEntity
  8
ASSI
100
AcDbLine
 62
253
  6
CONTINUOUS
 10
150.5603945573
 20
88.136246033
 11
150.5612241788
 21
87.8866534584
  0
LINE
  5
426
100
AcDbEntity
  8
0
100
AcDbLine
 62
253
  6
CONTINUOUS
 10
150.5603945573
 20
88.136246033
 11
150.5612241788
 21
87.8866534584
  0
LINE
  5
427
100
AcDbEntity
  8
ASSI
100
AcDbLine
 62
253
  6
CONTINUOUS
 10
150.5629677695
 20
108.2742928496
 11
150.5603945625
 21
88.136246032
  0
LINE
  5
428
100
AcDbEntity
  8
0
100
AcDbLine
 62
253
  6
CONTINUOUS
 10
150.5629677695
 20
108.2742928496
 11
150.5603945625
 21
88.136246032
  0
LINE
  5
429
100
AcDbEntity
  8
ASSI
100
AcDbLine
 62
253
  6
CONTINUOUS
 10
150.5608679775
 20
130.0581230636
 11
150.562967758
 21
109.7527341829
  0
LINE
  5
42A
100
AcDbEntity
  8
0
100
AcDbLine
 62
253
  6
CONTINUOUS
 10
150.5608679775
 20
130.0581230636
 11
150.562967758
 21
109.7527341829
  0
LWPOLYLINE
  5
42B
100
AcDbEntity
  8
ASSI
100
AcDbPolyline
 62
253
  6
CONTINUOUS
 90
4
 70
0
 10
150.562967551
 20
109.7527341849
 10
150.5627429131
 20
109.6997482487
 10
150.563595465
 20
109.6485000761
 10
150.566708384
 20
109.550542112
  0
LWPOLYLINE
  5
42C
100
AcDbEntity
  8
0
100
AcDbPolyline
 62
253
  6
CONTINUOUS
 90
4
 70
0
 10
150.562967551
 20
109.7527341849
 10
150.5627429131
 20
109.6997482487
 10
150.563595465
 20
109.6485000761
 10
150.566708384
 20
109.550542112
  0
LINE
  5
42D
100
AcDbEntity
  8
ASSI
100
AcDbLine
 62
253
  6
CONTINUOUS
 10
150.5632933376
 20
130.450589494
 11
150.5608679775
 21
130.0581230636
  0
LINE
  5
42E
100
AcDbEntity
  8
0
100
AcDbLine
 62
253
  6
CONTINUOUS
 10
150.5632933376
 20
130.450589494
 11
150.5608679775
 21
130.0581230636
  0
LINE
  5
42F
100
AcDbEntity
  8
ASSI
100
AcDbLine
 62
253
  6
CONTINUOUS
 10
150.0934855516
 20
88.0126037155
 11
150.092127067
 21
87.874595556
  0
LINE
  5
430
100
AcDbEntity
  8
0
100
AcDbLine
 62
253
  6
CONTINUOUS
 10
150.0934855516
 20
88.0126037155
 11
150.092127067
 21
87.874595556
  0
LWPOLYLINE
  5
431
100
AcDbEntity
  8
ASSI
100
AcDbPolyline
 62
253
  6
CONTINUOUS
 90
3
 70
0
 10
150.5663072751
 20
130.7130388463
 10
150.5654834999
 20
130.6531160779
 10
150.5632933376
 20
130.450589494
  0
LWPOLYLINE
  5
432
100
AcDbEntity
  8
0
100
AcDbPolyline
 62
253
  6
CONTINUOUS
 90
3
 70
0
 10
150.5663072751
 20
130.7130388463
 10
150.5654834999
 20
130.6531160779
 10
150.5632933376
 20
130.450589494
  0
LINE
  5
433
100
AcDbEntity
  8
ASSI
100
AcDbLine
 62
253
  6
CONTINUOUS
 10
150.092127067
 20
87.874595556
 11
150.0908087507
 21
87.7898435541
  0
LINE
  5
434
100
AcDbEntity
  8
0
100
AcDbLine
 62
253
  6
CONTINUOUS
 10
150.092127067
 20
87.874595556
 11
150.0908087507
 21
87.7898435541
  0
LINE
  5
435
100
AcDbEntity
  8
ASSI
100
AcDbLine
 62
253
  6
CONTINUOUS
 10
150.0908087507
 20
87.7898435541
 11
150.0891949286
 21
87.7130968083
  0
LINE
  5
436
100
AcDbEntity
  8
0
100
AcDbLine
 62
253
  6
CONTINUOUS
 10
150.0908087507
 20
87.7898435541
 11
150.0891949286
 21
87.7130968083
  0
LWPOLYLINE
  5
437
100
AcDbEntity
  8
ASSI
100
AcDbPolyline
 62
253
  6
CONTINUOUS
 90
11
 70
0
 10
150.0891949286
 20
87.7130968083
 10
150.0873092416
 20
87.6454961878
 10
150.0862792299
 20
87.6157478506
 10
150.0851916767
 20
87.5886730638
 10
150.0840626706
 20
87.5646728025
 10
150.082891025
 20
87.5437918135
 10
150.0816779265
 20
87.52598535
 10
150.0804430239
 20
87.5115201472
 10
150.0791928668
 20
87.5004851168
 10
150.0779209057
 20
87.4927913471
 10
150.0766271404
 20
87.488438838
  0
LWPOLYLINE
  5
438
100
AcDbEntity
  8
0
100
AcDbPolyline
 62
253
  6
CONTINUOUS
 90
11
 70
0
 10
150.0891949286
 20
87.7130968083
 10
150.0873092416
 20
87.6454961878
 10
150.0862792299
 20
87.6157478506
 10
150.0851916767
 20
87.5886730638
 10
150.0840626706
 20
87.5646728025
 10
150.082891025
 20
87.5437918135
 10
150.0816779265
 20
87.52598535
 10
150.0804430239
 20
87.5115201472
 10
150.0791928668
 20
87.5004851168
 10
150.0779209057
 20
87.4927913471
 10
150.0766271404
 20
87.488438838
  0
LWPOLYLINE
  5
439
100
AcDbEntity
  8
ASSI
100
AcDbPolyline
 62
253
  6
CONTINUOUS
 90
4
 70
0
 10
150.5635954202
 20
108.3785306329
 10
150.5667086372
 20
108.476490935
 10
150.5685096706
 20
108.5232024948
 10
150.5712239859
 20
108.5671727967
  0
LWPOLYLINE
  5
43A
100
AcDbEntity
  8
0
100
AcDbPolyline
 62
253
  6
CONTINUOUS
 90
4
 70
0
 10
150.5635954202
 20
108.3785306329
 10
150.5667086372
 20
108.476490935
 10
150.5685096706
 20
108.5232024948
 10
150.5712239859
 20
108.5671727967
  0
LWPOLYLINE
  5
43B
100
AcDbEntity
  8
ASSI
100
AcDbPolyline
 62
253
  6
CONTINUOUS
 90
9
 70
0
 10
150.5712239859
 20
108.5671727967
 10
150.577015263
 20
108.6447486131
 10
150.5806544297
 20
108.6778461732
 10
150.584585419
 20
108.7064873984
 10
150.5882352255
 20
108.7304085308
 10
150.5925076655
 20
108.7494467511
 10
150.5974004368
 20
108.7633447516
 10
150.601938389
 20
108.7718902062
 10
150.6056339455
 20
108.7750320409
  0
LWPOLYLINE
  5
43C
100
AcDbEntity
  8
0
100
AcDbPolyline
 62
253
  6
CONTINUOUS
 90
9
 70
0
 10
150.5712239859
 20
108.5671727967
 10
150.577015263
 20
108.6447486131
 10
150.5806544297
 20
108.6778461732
 10
150.584585419
 20
108.7064873984
 10
150.5882352255
 20
108.7304085308
 10
150.5925076655
 20
108.7494467511
 10
150.5974004368
 20
108.7633447516
 10
150.601938389
 20
108.7718902062
 10
150.6056339455
 20
108.7750320409
  0
LWPOLYLINE
  5
43D
100
AcDbEntity
  8
ASSI
100
AcDbPolyline
 62
253
  6
CONTINUOUS
 90
7
 70
0
 10
149.202130475
 20
86.9891240719
 10
149.2031821714
 20
86.996510009
 10
149.2042756899
 20
87.0097856804
 10
149.2053831515
 20
87.0288824585
 10
149.2064559164
 20
87.0537021087
 10
149.2074880476
 20
87.0841195856
 10
149.2095174747
 20
87.1611243575
  0
LWPOLYLINE
  5
43E
100
AcDbEntity
  8
0
100
AcDbPolyline
 62
253
  6
CONTINUOUS
 90
7
 70
0
 10
149.202130475
 20
86.9891240719
 10
149.2031821714
 20
86.996510009
 10
149.2042756899
 20
87.0097856804
 10
149.2053831515
 20
87.0288824585
 10
149.2064559164
 20
87.0537021087
 10
149.2074880476
 20
87.0841195856
 10
149.2095174747
 20
87.1611243575
  0
LINE
  5
43F
100
AcDbEntity
  8
ASSI
100
AcDbLine
 62
253
  6
CONTINUOUS
 10
149.7884773413
 20
108.3136086957
 11
149.6727809977
 21
108.2750510803
  0
LINE
  5
440
100
AcDbEntity
  8
0
100
AcDbLine
 62
253
  6
CONTINUOUS
 10
149.7884773413
 20
108.3136086957
 11
149.6727809977
 21
108.2750510803
  0
LWPOLYLINE
  5
441
100
AcDbEntity
  8
SUPERFICI
100
AcDbPolyline
 62
7
  6
CONTINUOUS
 90
43
 70
0
 10
163.3082584329
 20
112.5343074522
 10
163.3758863772
 20
112.5413911701
 10
163.4426543061
 20
112.5531394166
 10
163.5089078445
 20
112.5696472032
 10
163.5743013729
 20
112.5908194992
 10
163.6377980486
 20
112.6163712361
 10
163.6993718899
 20
112.6463946486
 10
163.7590489318
 20
112.6807974813
 10
163.8158703947
 20
112.7190179368
 10
163.8697222117
 20
112.7610471951
 10
163.9207185397
 20
112.8068940587
 10
163.9682429623
 20
112.8560231714
 10
164.0123311456
 20
112.9085894118
 10
164.0529475234
 20
112.9644378863
 10
164.0893688471
 20
113.0225685899
 10
164.1214557717
 20
113.0828708163
 10
164.1493477415
 20
113.1454552682
 10
164.1727396974
 20
113.2096540648
 10
164.1916191422
 20
113.2756640279
 10
164.2059986413
 20
113.3432883359
 10
164.2156107231
 20
113.4112686547
 10
164.2203647818
 20
113.4794276788
 10
164.2203514486
 20
113.5479427264
 10
164.2155750955
 20
113.6160874088
 10
164.2059522227
 20
113.6840260541
 10
164.1915663048
 20
113.7515943479
 10
164.1726721656
 20
113.817572947
 10
164.1492424456
 20
113.8817980179
 10
164.1213044358
 20
113.9444334137
 10
164.0891949296
 20
114.0047513293
 10
164.0528020374
 20
114.0628196067
 10
164.0122375503
 20
114.1185704204
 10
163.9681737875
 20
114.1710724698
 10
163.9206076128
 20
114.2202132646
 10
163.869542061
 20
114.2661053098
 10
163.8156587252
 20
114.3081548017
 10
163.7588870309
 20
114.3463370155
 10
163.6992974643
 20
114.3806766845
 10
163.6377832367
 20
114.4106541949
 10
163.574300519
 20
114.4361962754
 10
163.5088930859
 20
114.4573761993
 10
163.4425855915
 20
114.4738941726
 10
163.3757195921
 20
114.4856502637
  0
LINE
  5
442
100
AcDbEntity
  8
ASSI
100
AcDbLine
 62
7
  6
CONTINUOUS
 10
130.5392931393
 20
109.2396941169
 11
130.2768271487
 21
109.2135135135
  0
LINE
  5
443
100
AcDbEntity
  8
0
100
AcDbLine
 62
7
  6
CONTINUOUS
 10
130.5392931393
 20
109.2396941169
 11
130.2768271487
 21
109.2135135135
  0
LINE
  5
444
100
AcDbEntity
  8
ASSI
100
AcDbLine
 62
253
  6
CONTINUOUS
 10
150.1058052809
 20
109.7519759468
 11
150.1094396081
 21
109.7520500522
  0
LINE
  5
445
100
AcDbEntity
  8
0
100
AcDbLine
 62
253
  6
CONTINUOUS
 10
150.1058052809
 20
109.7519759468
 11
150.1094396081
 21
109.7520500522
  0
LINE
  5
446
100
AcDbEntity
  8
ASSI
100
AcDbLine
 62
253
  6
CONTINUOUS
 10
127.9058052809
 20
109.7519759468
 11
127.9094396081
 21
109.7520500522
  0
LINE
  5
447
100
AcDbEntity
  8
0
100
AcDbLine
 62
253
  6
CONTINUOUS
 10
127.9058052809
 20
109.7519759468
 11
127.9094396081
 21
109.7520500522
  0
LINE
  5
448
100
AcDbEntity
  8
ASSI
100
AcDbLine
 62
253
  6
CONTINUOUS
 10
150.1094396081
 20
109.7520500522
 11
150.1307050816
 21
109.7521954668
  0
LINE
  5
449
100
AcDbEntity
  8
0
100
AcDbLine
 62
253
  6
CONTINUOUS
 10
150.1094396081
 20
109.7520500522
 11
150.1307050816
 21
109.7521954668
  0
LINE
  5
44A
100
AcDbEntity
  8
ASSI
100
AcDbLine
 62
253
  6
CONTINUOUS
 10
127.9094396081
 20
109.7520500522
 11
127.9307050816
 21
109.7521954668
  0
LINE
  5
44B
100
AcDbEntity
  8
0
100
AcDbLine
 62
253
  6
CONTINUOUS
 10
127.9094396081
 20
109.7520500522
 11
127.9307050816
 21
109.7521954668
  0
LINE
  5
44C
100
AcDbEntity
  8
ASSI
100
AcDbLine
 62
253
  6
CONTINUOUS
 10
150.1307050816
 20
109.7521954668
 11
157.5123622133
 21
109.7563313372
  0
LINE
  5
44D
100
AcDbEntity
  8
0
100
AcDbLine
 62
253
  6
CONTINUOUS
 10
150.1307050816
 20
109.7521954668
 11
157.5123622133
 21
109.7563313372
  0
LINE
  5
44E
100
AcDbEntity
  8
ASSI
100
AcDbLine
 62
253
  6
CONTINUOUS
 10
127.9307050816
 20
109.7521954668
 11
135.3123622133
 21
109.7563313372
  0
LINE
  5
44F
100
AcDbEntity
  8
0
100
AcDbLine
 62
253
  6
CONTINUOUS
 10
127.9307050816
 20
109.7521954668
 11
135.3123622133
 21
109.7563313372
  0
LINE
  5
450
100
AcDbEntity
  8
ASSI
100
AcDbLine
 62
253
  6
CONTINUOUS
 10
135.3123622133
 20
109.7563313372
 11
142.2662209207
 21
109.756331338
  0
LINE
  5
451
100
AcDbEntity
  8
0
100
AcDbLine
 62
253
  6
CONTINUOUS
 10
135.3123622133
 20
109.7563313372
 11
142.2662209207
 21
109.756331338
  0
LINE
  5
452
100
AcDbEntity
  8
ASSI
100
AcDbLine
 62
253
  6
CONTINUOUS
 10
157.5123622133
 20
109.7563313372
 11
164.4662209207
 21
109.756331338
  0
LINE
  5
453
100
AcDbEntity
  8
0
100
AcDbLine
 62
253
  6
CONTINUOUS
 10
157.5123622133
 20
109.7563313372
 11
164.4662209207
 21
109.756331338
  0
LINE
  5
454
100
AcDbEntity
  8
ASSI
100
AcDbLine
 62
253
  6
CONTINUOUS
 10
164.4662209207
 20
109.756331338
 11
171.6014219638
 21
109.7526452494
  0
LINE
  5
455
100
AcDbEntity
  8
0
100
AcDbLine
 62
253
  6
CONTINUOUS
 10
164.4662209207
 20
109.756331338
 11
171.6014219638
 21
109.7526452494
  0
LINE
  5
456
100
AcDbEntity
  8
ASSI
100
AcDbLine
 62
253
  6
CONTINUOUS
 10
142.2662209207
 20
109.756331338
 11
149.6478811946
 21
109.7521954626
  0
LINE
  5
457
100
AcDbEntity
  8
0
100
AcDbLine
 62
253
  6
CONTINUOUS
 10
142.2662209207
 20
109.756331338
 11
149.6478811946
 21
109.7521954626
  0
LINE
  5
458
100
AcDbEntity
  8
ASSI
100
AcDbLine
 62
253
  6
CONTINUOUS
 10
171.6014219638
 20
109.7526452494
 11
171.8478811946
 21
109.7521954626
  0
LINE
  5
459
100
AcDbEntity
  8
0
100
AcDbLine
 62
253
  6
CONTINUOUS
 10
171.6014219638
 20
109.7526452494
 11
171.8478811946
 21
109.7521954626
  0
LWPOLYLINE
  5
45A
100
AcDbEntity
  8
ASSI
100
AcDbPolyline
 62
253
  6
CONTINUOUS
 90
3
 70
0
 10
149.6478811946
 20
109.7521954626
 10
149.6691466681
 20
109.7520500514
 10
149.6727809952
 20
109.7519759476
  0
LWPOLYLINE
  5
45B
100
AcDbEntity
  8
0
100
AcDbPolyline
 62
253
  6
CONTINUOUS
 90
3
 70
0
 10
149.6478811946
 20
109.7521954626
 10
149.6691466681
 20
109.7520500514
 10
149.6727809952
 20
109.7519759476
  0
LWPOLYLINE
  5
45C
100
AcDbEntity
  8
ASSI
100
AcDbPolyline
 62
253
  6
CONTINUOUS
 90
3
 70
0
 10
171.8478811946
 20
109.7521954626
 10
171.8691466681
 20
109.7520500514
 10
171.8727809952
 20
109.7519759476
  0
LWPOLYLINE
  5
45D
100
AcDbEntity
  8
0
100
AcDbPolyline
 62
253
  6
CONTINUOUS
 90
3
 70
0
 10
171.8478811946
 20
109.7521954626
 10
171.8691466681
 20
109.7520500514
 10
171.8727809952
 20
109.7519759476
  0
LWPOLYLINE
  5
45E
100
AcDbEntity
  8
ASSI
100
AcDbPolyline
 62
7
  6
CONTINUOUS
 90
37
 70
0
 10
136.5392541968
 20
112.5318882589
 10
136.4531601874
 20
112.5357987863
 10
136.3689742677
 20
112.5468024687
 10
136.2866964169
 20
112.5648992937
 10
136.2057963855
 20
112.5902870298
 10
136.1268043837
 20
112.6227678714
 10
136.05131104
 20
112.6617484472
 10
135.9792568098
 20
112.7074496494
 10
135.9107011083
 20
112.7596505451
 10
135.8474129264
 20
112.817095041
 10
135.7896182245
 20
112.8798041574
 10
135.7370908427
 20
112.9477568463
 10
135.6909215398
 20
113.0196339332
 10
135.6511783761
 20
113.0956539232
 10
135.6177931043
 20
113.1755982962
 10
135.5916520086
 20
113.2574923661
 10
135.5729511906
 20
113.3413201616
 10
135.5614944306
 20
113.4270976635
 10
135.5575795459
 20
113.5128981424
 10
135.5613983548
 20
113.5987295559
 10
135.5727590388
 20
113.6845839723
 10
135.5913839899
 20
113.7685108516
 10
135.6174734426
 20
113.8505243909
 10
135.6508272807
 20
113.9306104276
 10
135.690567385
 20
114.0067759022
 10
135.7367708021
 20
114.0788066273
 10
135.7893606735
 20
114.1469168268
 10
135.8472280096
 20
114.2097560724
 10
135.910602064
 20
114.2672900645
 10
135.9792537833
 20
114.319553127
 10
136.0513866644
 20
114.3652977756
 10
136.126935195
 20
114.4043010662
 10
136.205965016
 20
114.436785955
 10
136.2868762763
 20
114.4621738157
 10
136.3691356912
 20
114.480271773
 10
136.4532765833
 20
114.4912726972
 10
136.539298973
 20
114.4951765776
  0
LWPOLYLINE
  5
45F
100
AcDbEntity
  8
0
100
AcDbPolyline
 62
7
  6
CONTINUOUS
 90
37
 70
0
 10
136.5392541968
 20
112.5318882589
 10
136.4531601874
 20
112.5357987863
 10
136.3689742677
 20
112.5468024687
 10
136.2866964169
 20
112.5648992937
 10
136.2057963855
 20
112.5902870298
 10
136.1268043837
 20
112.6227678714
 10
136.05131104
 20
112.6617484472
 10
135.9792568098
 20
112.7074496494
 10
135.9107011083
 20
112.7596505451
 10
135.8474129264
 20
112.817095041
 10
135.7896182245
 20
112.8798041574
 10
135.7370908427
 20
112.9477568463
 10
135.6909215398
 20
113.0196339332
 10
135.6511783761
 20
113.0956539232
 10
135.6177931043
 20
113.1755982962
 10
135.5916520086
 20
113.2574923661
 10
135.5729511906
 20
113.3413201616
 10
135.5614944306
 20
113.4270976635
 10
135.5575795459
 20
113.5128981424
 10
135.5613983548
 20
113.5987295559
 10
135.5727590388
 20
113.6845839723
 10
135.5913839899
 20
113.7685108516
 10
135.6174734426
 20
113.8505243909
 10
135.6508272807
 20
113.9306104276
 10
135.690567385
 20
114.0067759022
 10
135.7367708021
 20
114.0788066273
 10
135.7893606735
 20
114.1469168268
 10
135.8472280096
 20
114.2097560724
 10
135.910602064
 20
114.2672900645
 10
135.9792537833
 20
114.319553127
 10
136.0513866644
 20
114.3652977756
 10
136.126935195
 20
114.4043010662
 10
136.205965016
 20
114.436785955
 10
136.2868762763
 20
114.4621738157
 10
136.3691356912
 20
114.480271773
 10
136.4532765833
 20
114.4912726972
 10
136.539298973
 20
114.4951765776
  0
LINE
  5
460
100
AcDbEntity
  8
ASSI
100
AcDbLine
 62
7
  6
CONTINUOUS
 10
169.2392931393
 20
109.2396941169
 11
169.5017591299
 21
109.2135135135
  0
LINE
  5
461
100
AcDbEntity
  8
0
100
AcDbLine
 62
7
  6
CONTINUOUS
 10
169.2392931393
 20
109.2396941169
 11
169.5017591299
 21
109.2135135135
  0
LWPOLYLINE
  5
462
100
AcDbEntity
  8
SUPERFICI
100
AcDbPolyline
 62
7
  6
CONTINUOUS
 90
3
 70
0
 10
136.4027017207
 20
112.5413888211
 10
136.4703319492
 20
112.5343046396
 10
136.5388157004
 20
112.5318882696
  0
LINE
  5
463
100
AcDbEntity
  8
ASSI
100
AcDbLine
 62
253
  6
CONTINUOUS
 10
149.6727809952
 20
109.7519759476
 11
149.7884773413
 21
109.7134183313
  0
LINE
  5
464
100
AcDbEntity
  8
0
100
AcDbLine
 62
253
  6
CONTINUOUS
 10
149.6727809952
 20
109.7519759476
 11
149.7884773413
 21
109.7134183313
  0
LWPOLYLINE
  5
465
100
AcDbEntity
  8
SUPERFICI
100
AcDbPolyline
 62
7
  6
CONTINUOUS
 90
43
 70
0
 10
141.1082584329
 20
112.5343074522
 10
141.1758863772
 20
112.5413911701
 10
141.2426543061
 20
112.5531394166
 10
141.3089078445
 20
112.5696472032
 10
141.3743013729
 20
112.5908194992
 10
141.4377980486
 20
112.6163712361
 10
141.4993718899
 20
112.6463946486
 10
141.5590489318
 20
112.6807974813
 10
141.6158703947
 20
112.7190179368
 10
141.6697222117
 20
112.7610471951
 10
141.7207185397
 20
112.8068940587
 10
141.7682429623
 20
112.8560231714
 10
141.8123311456
 20
112.9085894118
 10
141.8529475234
 20
112.9644378863
 10
141.8893688471
 20
113.0225685899
 10
141.9214557717
 20
113.0828708163
 10
141.9493477415
 20
113.1454552682
 10
141.9727396974
 20
113.2096540648
 10
141.9916191422
 20
113.2756640279
 10
142.0059986413
 20
113.3432883359
 10
142.0156107231
 20
113.4112686547
 10
142.0203647818
 20
113.4794276788
 10
142.0203514486
 20
113.5479427264
 10
142.0155750955
 20
113.6160874088
 10
142.0059522227
 20
113.6840260541
 10
141.9915663048
 20
113.7515943479
 10
141.9726721656
 20
113.817572947
 10
141.9492424456
 20
113.8817980179
 10
141.9213044358
 20
113.9444334137
 10
141.8891949296
 20
114.0047513293
 10
141.8528020374
 20
114.0628196067
 10
141.8122375503
 20
114.1185704204
 10
141.7681737875
 20
114.1710724698
 10
141.7206076128
 20
114.2202132646
 10
141.669542061
 20
114.2661053098
 10
141.6156587252
 20
114.3081548017
 10
141.5588870309
 20
114.3463370155
 10
141.4992974643
 20
114.3806766845
 10
141.4377832367
 20
114.4106541949
 10
141.374300519
 20
114.4361962754
 10
141.3088930859
 20
114.4573761993
 10
141.2425855915
 20
114.4738941726
 10
141.1757195921
 20
114.4856502637
  0
LWPOLYLINE
  5
466
100
AcDbEntity
  8
SUPERFICI
100
AcDbPolyline
 62
7
  6
CONTINUOUS
 90
43
 70
0
 10
158.6706244247
 20
114.4927414273
 10
158.6028562578
 20
114.4856468207
 10
158.5359944427
 20
114.473892763
 10
158.4697093634
 20
114.4573862943
 10
158.4043306286
 20
114.4362203784
 10
158.3408470509
 20
114.4106739061
 10
158.2792681029
 20
114.3806525759
 10
158.219584259
 20
114.3462506871
 10
158.1627557967
 20
114.3080300349
 10
158.1088970296
 20
114.2659993185
 10
158.0578935541
 20
114.2201498307
 10
158.0103625444
 20
114.1710172595
 10
157.9662684514
 20
114.1184465794
 10
157.9256467241
 20
114.0625928008
 10
157.8892210182
 20
114.0044566697
 10
157.8571308352
 20
113.9441488661
 10
157.8292365741
 20
113.8815586942
 10
157.8058432316
 20
113.8173548412
 10
157.7869635043
 20
113.7513402618
 10
157.7725846274
 20
113.6837119814
 10
157.762973411
 20
113.6157298007
 10
157.7582206609
 20
113.5475715758
 10
157.7582355462
 20
113.4790594374
 10
157.763012433
 20
113.4109196068
 10
157.7726345636
 20
113.342988317
 10
157.787018721
 20
113.2754293227
 10
157.8059095935
 20
113.2094601388
 10
157.8293342002
 20
113.1452444559
 10
157.8572655906
 20
113.0826185827
 10
157.8893675045
 20
113.0223089723
 10
157.92575156
 20
112.964247637
 10
157.9663062376
 20
112.9085025687
 10
158.010360565
 20
112.8560042012
 10
158.0579177237
 20
112.8068646316
 10
158.1089746336
 20
112.7609717769
 10
158.1628509123
 20
112.7189198105
 10
158.2196172565
 20
112.6807332698
 10
158.2792030579
 20
112.6463876355
 10
158.3407159498
 20
112.6164035028
 10
158.4042163687
 20
112.5908523279
 10
158.4696439329
 20
112.5696626749
 10
158.5359250112
 20
112.5531408074
 10
158.6027017207
 20
112.5413888211
  0
LINE
  5
467
100
AcDbEntity
  8
SUPERFICI
100
AcDbLine
 62
7
  6
CONTINUOUS
 10
158.7392989478
 20
114.4951765776
 11
158.6706244247
 21
114.4927414273
  0
LINE
  5
468
100
AcDbEntity
  8
SUPERFICI
100
AcDbLine
 62
7
  6
CONTINUOUS
 10
163.2397704695
 20
112.5318882696
 11
163.3082584329
 21
112.5343074522
  0
LINE
  5
469
100
AcDbEntity
  8
SUPERFICI
100
AcDbLine
 62
7
  6
CONTINUOUS
 10
141.0397704695
 20
112.5318882696
 11
141.1082584329
 21
112.5343074522
  0
LINE
  5
46A
100
AcDbEntity
  8
SUPERFICI
100
AcDbLine
 62
7
  6
CONTINUOUS
 10
136.5388157004
 20
112.5318882696
 11
141.0397704695
 21
112.5318882696
  0
LINE
  5
46B
100
AcDbEntity
  8
SUPERFICI
100
AcDbLine
 62
7
  6
CONTINUOUS
 10
158.7388157004
 20
112.5318882696
 11
163.2397704695
 21
112.5318882696
  0
LINE
  5
46C
100
AcDbEntity
  8
ASSI
100
AcDbLine
 62
7
  6
CONTINUOUS
 10
163.2393320225
 20
112.5318882589
 11
158.7392541968
 21
112.5318882589
  0
LINE
  5
46D
100
AcDbEntity
  8
0
100
AcDbLine
 62
7
  6
CONTINUOUS
 10
163.2393320225
 20
112.5318882589
 11
158.7392541968
 21
112.5318882589
  0
LINE
  5
46E
100
AcDbEntity
  8
ASSI
100
AcDbLine
 62
7
  6
CONTINUOUS
 10
141.0393320225
 20
112.5318882589
 11
136.5392541968
 21
112.5318882589
  0
LINE
  5
46F
100
AcDbEntity
  8
0
100
AcDbLine
 62
7
  6
CONTINUOUS
 10
141.0393320225
 20
112.5318882589
 11
136.5392541968
 21
112.5318882589
  0
LINE
  5
470
100
AcDbEntity
  8
SUPERFICI
100
AcDbLine
 62
7
  6
CONTINUOUS
 10
163.2392873846
 20
114.4951765776
 11
158.7392989478
 21
114.4951765776
  0
LINE
  5
471
100
AcDbEntity
  8
SUPERFICI
100
AcDbLine
 62
7
  6
CONTINUOUS
 10
141.0392873846
 20
114.4951765776
 11
136.5392989478
 21
114.4951765776
  0
LINE
  5
472
100
AcDbEntity
  8
ASSI
100
AcDbLine
 62
7
  6
CONTINUOUS
 10
136.539298973
 20
114.4951765776
 11
141.0392872968
 21
114.4951765776
  0
LINE
  5
473
100
AcDbEntity
  8
0
100
AcDbLine
 62
7
  6
CONTINUOUS
 10
136.539298973
 20
114.4951765776
 11
141.0392872968
 21
114.4951765776
  0
LINE
  5
474
100
AcDbEntity
  8
ASSI
100
AcDbLine
 62
7
  6
CONTINUOUS
 10
158.739298973
 20
114.4951765776
 11
163.2392872968
 21
114.4951765776
  0
LINE
  5
475
100
AcDbEntity
  8
0
100
AcDbLine
 62
7
  6
CONTINUOUS
 10
158.739298973
 20
114.4951765776
 11
163.2392872968
 21
114.4951765776
  0
LWPOLYLINE
  5
476
100
AcDbEntity
  8
ASSI
100
AcDbPolyline
 62
7
  6
CONTINUOUS
 90
37
 70
0
 10
158.7392541968
 20
112.5318882589
 10
158.6531601874
 20
112.5357987863
 10
158.5689742677
 20
112.5468024687
 10
158.4866964169
 20
112.5648992937
 10
158.4057963855
 20
112.5902870298
 10
158.3268043837
 20
112.6227678714
 10
158.25131104
 20
112.6617484472
 10
158.1792568098
 20
112.7074496494
 10
158.1107011083
 20
112.7596505451
 10
158.0474129264
 20
112.817095041
 10
157.9896182245
 20
112.8798041574
 10
157.9370908427
 20
112.9477568463
 10
157.8909215398
 20
113.0196339332
 10
157.8511783761
 20
113.0956539232
 10
157.8177931043
 20
113.1755982962
 10
157.7916520086
 20
113.2574923661
 10
157.7729511906
 20
113.3413201616
 10
157.7614944306
 20
113.4270976635
 10
157.7575795459
 20
113.5128981424
 10
157.7613983548
 20
113.5987295559
 10
157.7727590388
 20
113.6845839723
 10
157.7913839899
 20
113.7685108516
 10
157.8174734426
 20
113.8505243909
 10
157.8508272807
 20
113.9306104276
 10
157.890567385
 20
114.0067759022
 10
157.9367708021
 20
114.0788066273
 10
157.9893606735
 20
114.1469168268
 10
158.0472280096
 20
114.2097560724
 10
158.110602064
 20
114.2672900645
 10
158.1792537833
 20
114.319553127
 10
158.2513866644
 20
114.3652977756
 10
158.326935195
 20
114.4043010662
 10
158.405965016
 20
114.436785955
 10
158.4868762763
 20
114.4621738157
 10
158.5691356912
 20
114.480271773
 10
158.6532765833
 20
114.4912726972
 10
158.739298973
 20
114.4951765776
  0
LWPOLYLINE
  5
477
100
AcDbEntity
  8
0
100
AcDbPolyline
 62
7
  6
CONTINUOUS
 90
37
 70
0
 10
158.7392541968
 20
112.5318882589
 10
158.6531601874
 20
112.5357987863
 10
158.5689742677
 20
112.5468024687
 10
158.4866964169
 20
112.5648992937
 10
158.4057963855
 20
112.5902870298
 10
158.3268043837
 20
112.6227678714
 10
158.25131104
 20
112.6617484472
 10
158.1792568098
 20
112.7074496494
 10
158.1107011083
 20
112.7596505451
 10
158.0474129264
 20
112.817095041
 10
157.9896182245
 20
112.8798041574
 10
157.9370908427
 20
112.9477568463
 10
157.8909215398
 20
113.0196339332
 10
157.8511783761
 20
113.0956539232
 10
157.8177931043
 20
113.1755982962
 10
157.7916520086
 20
113.2574923661
 10
157.7729511906
 20
113.3413201616
 10
157.7614944306
 20
113.4270976635
 10
157.7575795459
 20
113.5128981424
 10
157.7613983548
 20
113.5987295559
 10
157.7727590388
 20
113.6845839723
 10
157.7913839899
 20
113.7685108516
 10
157.8174734426
 20
113.8505243909
 10
157.8508272807
 20
113.9306104276
 10
157.890567385
 20
114.0067759022
 10
157.9367708021
 20
114.0788066273
 10
157.9893606735
 20
114.1469168268
 10
158.0472280096
 20
114.2097560724
 10
158.110602064
 20
114.2672900645
 10
158.1792537833
 20
114.319553127
 10
158.2513866644
 20
114.3652977756
 10
158.326935195
 20
114.4043010662
 10
158.405965016
 20
114.436785955
 10
158.4868762763
 20
114.4621738157
 10
158.5691356912
 20
114.480271773
 10
158.6532765833
 20
114.4912726972
 10
158.739298973
 20
114.4951765776
  0
LWPOLYLINE
  5
478
100
AcDbEntity
  8
ASSI
100
AcDbPolyline
 62
7
  6
CONTINUOUS
 90
37
 70
0
 10
141.0392872968
 20
114.4951765776
 10
141.1253829358
 20
114.491248502
 10
141.2095688456
 20
114.4802335205
 10
141.2918450472
 20
114.4621316436
 10
141.3727409495
 20
114.4367467871
 10
141.4517271828
 20
114.4042750404
 10
141.5272156398
 20
114.3653046731
 10
141.5992664482
 20
114.3196133387
 10
141.6678196096
 20
114.2674233718
 10
141.7311069043
 20
114.2099900704
 10
141.7889025433
 20
114.1472926112
 10
141.8414325151
 20
114.0793517935
 10
141.8876063183
 20
114.0074853582
 10
141.9273563234
 20
113.9314743203
 10
141.9607503469
 20
113.8515376282
 10
141.9869010694
 20
113.769649936
 10
142.0056123018
 20
113.6858274773
 10
142.0170803514
 20
113.6000539839
 10
142.0210066285
 20
113.5142553765
 10
142.0171993628
 20
113.4284232697
 10
142.0058503249
 20
113.3425660224
 10
141.9872362073
 20
113.2586346955
 10
141.9611568973
 20
113.1766152771
 10
141.9278123895
 20
113.096521769
 10
141.8880795221
 20
113.0203472819
 10
141.8418807268
 20
112.9483054945
 10
141.7892933838
 20
112.8801827427
 10
141.7314267669
 20
112.8173311484
 10
141.6680514027
 20
112.7597852942
 10
141.5993965644
 20
112.7075106254
 10
141.5272596981
 20
112.6617555806
 10
141.4517057104
 20
112.6227417754
 10
141.3726695663
 20
112.5902476351
 10
141.2917538773
 20
112.5648568294
 10
141.2094928485
 20
112.5467639299
 10
141.1253522369
 20
112.5357744023
 10
141.0393320225
 20
112.5318882589
  0
LWPOLYLINE
  5
479
100
AcDbEntity
  8
0
100
AcDbPolyline
 62
7
  6
CONTINUOUS
 90
37
 70
0
 10
141.0392872968
 20
114.4951765776
 10
141.1253829358
 20
114.491248502
 10
141.2095688456
 20
114.4802335205
 10
141.2918450472
 20
114.4621316436
 10
141.3727409495
 20
114.4367467871
 10
141.4517271828
 20
114.4042750404
 10
141.5272156398
 20
114.3653046731
 10
141.5992664482
 20
114.3196133387
 10
141.6678196096
 20
114.2674233718
 10
141.7311069043
 20
114.2099900704
 10
141.7889025433
 20
114.1472926112
 10
141.8414325151
 20
114.0793517935
 10
141.8876063183
 20
114.0074853582
 10
141.9273563234
 20
113.9314743203
 10
141.9607503469
 20
113.8515376282
 10
141.9869010694
 20
113.769649936
 10
142.0056123018
 20
113.6858274773
 10
142.0170803514
 20
113.6000539839
 10
142.0210066285
 20
113.5142553765
 10
142.0171993628
 20
113.4284232697
 10
142.0058503249
 20
113.3425660224
 10
141.9872362073
 20
113.2586346955
 10
141.9611568973
 20
113.1766152771
 10
141.9278123895
 20
113.096521769
 10
141.8880795221
 20
113.0203472819
 10
141.8418807268
 20
112.9483054945
 10
141.7892933838
 20
112.8801827427
 10
141.7314267669
 20
112.8173311484
 10
141.6680514027
 20
112.7597852942
 10
141.5993965644
 20
112.7075106254
 10
141.5272596981
 20
112.6617555806
 10
141.4517057104
 20
112.6227417754
 10
141.3726695663
 20
112.5902476351
 10
141.2917538773
 20
112.5648568294
 10
141.2094928485
 20
112.5467639299
 10
141.1253522369
 20
112.5357744023
 10
141.0393320225
 20
112.5318882589
  0
LWPOLYLINE
  5
47A
100
AcDbEntity
  8
SUPERFICI
100
AcDbPolyline
 62
7
  6
CONTINUOUS
 90
3
 70
0
 10
158.6027017207
 20
112.5413888211
 10
158.6703319492
 20
112.5343046396
 10
158.7388157004
 20
112.5318882696
  0
LWPOLYLINE
  5
47B
100
AcDbEntity
  8
SUPERFICI
100
AcDbPolyline
 62
7
  6
CONTINUOUS
 90
3
 70
0
 10
141.1757195921
 20
114.4856502637
 10
141.1079535247
 20
114.4927444005
 10
141.0392873846
 20
114.4951765776
  0
LINE
  5
47C
100
AcDbEntity
  8
ASSI
100
AcDbLine
 62
253
  6
CONTINUOUS
 10
171.4884202012
 20
108.8135135135
 11
171.3729523352
 21
108.7750320418
  0
LINE
  5
47D
100
AcDbEntity
  8
0
100
AcDbLine
 62
253
  6
CONTINUOUS
 10
171.4884202012
 20
108.8135135135
 11
171.3729523352
 21
108.7750320418
  0
LINE
  5
47E
100
AcDbEntity
  8
ASSI
100
AcDbLine
 62
253
  6
CONTINUOUS
 10
171.9884773413
 20
108.3136086957
 11
171.8727809977
 21
108.2750510803
  0
LINE
  5
47F
100
AcDbEntity
  8
0
100
AcDbLine
 62
253
  6
CONTINUOUS
 10
171.9884773413
 20
108.3136086957
 11
171.8727809977
 21
108.2750510803
  0
LWPOLYLINE
  5
480
100
AcDbEntity
  8
SUPERFICI
100
AcDbPolyline
 62
7
  6
CONTINUOUS
 90
43
 70
0
 10
136.4706244247
 20
114.4927414273
 10
136.4028562578
 20
114.4856468207
 10
136.3359944427
 20
114.473892763
 10
136.2697093634
 20
114.4573862943
 10
136.2043306286
 20
114.4362203784
 10
136.1408470509
 20
114.4106739061
 10
136.0792681029
 20
114.3806525759
 10
136.019584259
 20
114.3462506871
 10
135.9627557967
 20
114.3080300349
 10
135.9088970296
 20
114.2659993185
 10
135.8578935541
 20
114.2201498307
 10
135.8103625444
 20
114.1710172595
 10
135.7662684514
 20
114.1184465794
 10
135.7256467241
 20
114.0625928008
 10
135.6892210182
 20
114.0044566697
 10
135.6571308352
 20
113.9441488661
 10
135.6292365741
 20
113.8815586942
 10
135.6058432316
 20
113.8173548412
 10
135.5869635043
 20
113.7513402618
 10
135.5725846274
 20
113.6837119814
 10
135.562973411
 20
113.6157298007
 10
135.5582206609
 20
113.5475715758
 10
135.5582355462
 20
113.4790594374
 10
135.563012433
 20
113.4109196068
 10
135.5726345636
 20
113.342988317
 10
135.587018721
 20
113.2754293227
 10
135.6059095935
 20
113.2094601388
 10
135.6293342002
 20
113.1452444559
 10
135.6572655906
 20
113.0826185827
 10
135.6893675045
 20
113.0223089723
 10
135.72575156
 20
112.964247637
 10
135.7663062376
 20
112.9085025687
 10
135.810360565
 20
112.8560042012
 10
135.8579177237
 20
112.8068646316
 10
135.9089746336
 20
112.7609717769
 10
135.9628509123
 20
112.7189198105
 10
136.0196172565
 20
112.6807332698
 10
136.0792030579
 20
112.6463876355
 10
136.1407159498
 20
112.6164035028
 10
136.2042163687
 20
112.5908523279
 10
136.2696439329
 20
112.5696626749
 10
136.3359250112
 20
112.5531408074
 10
136.4027017207
 20
112.5413888211
  0
LINE
  5
481
100
AcDbEntity
  8
SUPERFICI
100
AcDbLine
 62
7
  6
CONTINUOUS
 10
136.5392989478
 20
114.4951765776
 11
136.4706244247
 21
114.4927414273
  0
LWPOLYLINE
  5
482
100
AcDbEntity
  8
ASSI
100
AcDbPolyline
 62
7
  6
CONTINUOUS
 90
37
 70
0
 10
163.2392872968
 20
114.4951765776
 10
163.3253829358
 20
114.491248502
 10
163.4095688456
 20
114.4802335205
 10
163.4918450472
 20
114.4621316436
 10
163.5727409495
 20
114.4367467871
 10
163.6517271828
 20
114.4042750404
 10
163.7272156398
 20
114.3653046731
 10
163.7992664482
 20
114.3196133387
 10
163.8678196096
 20
114.2674233718
 10
163.9311069043
 20
114.2099900704
 10
163.9889025433
 20
114.1472926112
 10
164.0414325151
 20
114.0793517935
 10
164.0876063183
 20
114.0074853582
 10
164.1273563234
 20
113.9314743203
 10
164.1607503469
 20
113.8515376282
 10
164.1869010694
 20
113.769649936
 10
164.2056123018
 20
113.6858274773
 10
164.2170803514
 20
113.6000539839
 10
164.2210066285
 20
113.5142553765
 10
164.2171993628
 20
113.4284232697
 10
164.2058503249
 20
113.3425660224
 10
164.1872362073
 20
113.2586346955
 10
164.1611568973
 20
113.1766152771
 10
164.1278123895
 20
113.096521769
 10
164.0880795221
 20
113.0203472819
 10
164.0418807268
 20
112.9483054945
 10
163.9892933838
 20
112.8801827427
 10
163.9314267669
 20
112.8173311484
 10
163.8680514027
 20
112.7597852942
 10
163.7993965644
 20
112.7075106254
 10
163.7272596981
 20
112.6617555806
 10
163.6517057104
 20
112.6227417754
 10
163.5726695663
 20
112.5902476351
 10
163.4917538773
 20
112.5648568294
 10
163.4094928485
 20
112.5467639299
 10
163.3253522369
 20
112.5357744023
 10
163.2393320225
 20
112.5318882589
  0
LWPOLYLINE
  5
483
100
AcDbEntity
  8
0
100
AcDbPolyline
 62
7
  6
CONTINUOUS
 90
37
 70
0
 10
163.2392872968
 20
114.4951765776
 10
163.3253829358
 20
114.491248502
 10
163.4095688456
 20
114.4802335205
 10
163.4918450472
 20
114.4621316436
 10
163.5727409495
 20
114.4367467871
 10
163.6517271828
 20
114.4042750404
 10
163.7272156398
 20
114.3653046731
 10
163.7992664482
 20
114.3196133387
 10
163.8678196096
 20
114.2674233718
 10
163.9311069043
 20
114.2099900704
 10
163.9889025433
 20
114.1472926112
 10
164.0414325151
 20
114.0793517935
 10
164.0876063183
 20
114.0074853582
 10
164.1273563234
 20
113.9314743203
 10
164.1607503469
 20
113.8515376282
 10
164.1869010694
 20
113.769649936
 10
164.2056123018
 20
113.6858274773
 10
164.2170803514
 20
113.6000539839
 10
164.2210066285
 20
113.5142553765
 10
164.2171993628
 20
113.4284232697
 10
164.2058503249
 20
113.3425660224
 10
164.1872362073
 20
113.2586346955
 10
164.1611568973
 20
113.1766152771
 10
164.1278123895
 20
113.096521769
 10
164.0880795221
 20
113.0203472819
 10
164.0418807268
 20
112.9483054945
 10
163.9892933838
 20
112.8801827427
 10
163.9314267669
 20
112.8173311484
 10
163.8680514027
 20
112.7597852942
 10
163.7993965644
 20
112.7075106254
 10
163.7272596981
 20
112.6617555806
 10
163.6517057104
 20
112.6227417754
 10
163.5726695663
 20
112.5902476351
 10
163.4917538773
 20
112.5648568294
 10
163.4094928485
 20
112.5467639299
 10
163.3253522369
 20
112.5357744023
 10
163.2393320225
 20
112.5318882589
  0
LWPOLYLINE
  5
484
100
AcDbEntity
  8
SUPERFICI
100
AcDbPolyline
 62
7
  6
CONTINUOUS
 90
3
 70
0
 10
163.3757195921
 20
114.4856502637
 10
163.3079535247
 20
114.4927444005
 10
163.2392873846
 20
114.4951765776
  0
LINE
  5
485
100
AcDbEntity
  8
ASSI
100
AcDbLine
 62
253
  6
CONTINUOUS
 10
171.3729523339
 20
109.2519949857
 11
171.4884202012
 21
109.2135135135
  0
LINE
  5
486
100
AcDbEntity
  8
0
100
AcDbLine
 62
253
  6
CONTINUOUS
 10
171.3729523339
 20
109.2519949857
 11
171.4884202012
 21
109.2135135135
  0
LINE
  5
487
100
AcDbEntity
  8
ASSI
100
AcDbLine
 62
253
  6
CONTINUOUS
 10
171.8727809952
 20
109.7519759476
 11
171.9884773413
 21
109.7134183313
  0
LINE
  5
488
100
AcDbEntity
  8
0
100
AcDbLine
 62
253
  6
CONTINUOUS
 10
171.8727809952
 20
109.7519759476
 11
171.9884773413
 21
109.7134183313
  0
LWPOLYLINE
  5
489
100
AcDbEntity
  8
ASSI
100
AcDbPolyline
 62
253
  6
CONTINUOUS
 90
10
 70
0
 10
150.0766271411
 20
130.5385881878
 10
150.0779209063
 20
130.5342356786
 10
150.0791928674
 20
130.5265419087
 10
150.0804430245
 20
130.5155068782
 10
150.0816779271
 20
130.5010416754
 10
150.0828910256
 20
130.483235212
 10
150.0840626713
 20
130.4623542229
 10
150.0851916774
 20
130.4383539616
 10
150.0862792306
 20
130.4112791746
 10
150.0873092422
 20
130.3815308373
  0
LWPOLYLINE
  5
48A
100
AcDbEntity
  8
0
100
AcDbPolyline
 62
253
  6
CONTINUOUS
 90
10
 70
0
 10
150.0766271411
 20
130.5385881878
 10
150.0779209063
 20
130.5342356786
 10
150.0791928674
 20
130.5265419087
 10
150.0804430245
 20
130.5155068782
 10
150.0816779271
 20
130.5010416754
 10
150.0828910256
 20
130.483235212
 10
150.0840626713
 20
130.4623542229
 10
150.0851916774
 20
130.4383539616
 10
150.0862792306
 20
130.4112791746
 10
150.0873092422
 20
130.3815308373
  0
LWPOLYLINE
  5
48B
100
AcDbEntity
  8
0
100
AcDbPolyline
 62
253
  6
CONTINUOUS
 90
51
 70
0
 10
160.6142931393
 20
122.9299715135
 10
160.6144165757
 20
122.9378038924
 10
160.6147863258
 20
122.9456305705
 10
160.6154015515
 20
122.9534443113
 10
160.6162614142
 20
122.9612378782
 10
160.6173650757
 20
122.9690040345
 10
160.6187116976
 20
122.9767355437
 10
160.6203004415
 20
122.9844251691
 10
160.622130469
 20
122.9920656742
 10
160.6242009418
 20
122.9996498222
 10
160.6265110216
 20
123.0071703768
 10
160.6290594864
 20
123.0146199031
 10
160.6318435804
 20
123.0219901743
 10
160.6348601644
 20
123.0292727656
 10
160.6381060989
 20
123.0364592521
 10
160.6415782447
 20
123.043541209
 10
160.6452729191
 20
123.0505101188
 10
160.649184266
 20
123.0573570938
 10
160.6533058862
 20
123.0640731542
 10
160.6576313802
 20
123.0706493196
 10
160.6621543488
 20
123.0770766099
 10
160.6668688217
 20
123.0833470618
 10
160.6717705444
 20
123.0894567784
 10
160.6768556919
 20
123.0954028793
 10
160.6821204388
 20
123.1011824844
 10
160.6875609599
 20
123.1067927135
 10
160.6931736657
 20
123.1122305763
 10
160.6989559098
 20
123.1174926423
 10
160.7049052817
 20
123.122575371
 10
160.7110193706
 20
123.127475222
 10
160.7172957659
 20
123.1321886548
 10
160.7237308714
 20
123.1367115721
 10
160.7303163479
 20
123.1410376504
 10
160.7370426707
 20
123.1451600093
 10
160.7439003151
 20
123.1490717686
 10
160.7508797563
 20
123.1527660479
 10
160.7579715418
 20
123.1562366012
 10
160.7651665082
 20
123.1594797193
 10
160.7724555641
 20
123.1624923272
 10
160.7798296186
 20
123.16527135
 10
160.7872795802
 20
123.1678137127
 10
160.794796697
 20
123.1701167674
 10
160.8023735732
 20
123.1721795738
 10
160.8100031524
 20
123.174001619
 10
160.817678378
 20
123.1755823897
 10
160.8253921934
 20
123.1769213727
 10
160.8331375422
 20
123.178018055
 10
160.8409073676
 20
123.1788719234
 10
160.8486946134
 20
123.1794824647
 10
160.8564922228
 20
123.1798491658
 10
160.8642931393
 20
123.1799715135
  0
LINE
  5
48C
100
AcDbEntity
  8
ASSI
100
AcDbLine
 62
253
  6
CONTINUOUS
 10
171.4021304757
 20
131.0379029564
 11
171.4682425282
 21
131.1702177901
  0
LINE
  5
48D
100
AcDbEntity
  8
0
100
AcDbLine
 62
253
  6
CONTINUOUS
 10
171.4021304757
 20
131.0379029564
 11
171.4682425282
 21
131.1702177901
  0
LINE
  5
48E
100
AcDbEntity
  8
ASSI
100
AcDbLine
 62
253
  6
CONTINUOUS
 10
150.0766271404
 20
87.488438838
 11
150.0097173287
 21
87.3545273912
  0
LINE
  5
48F
100
AcDbEntity
  8
0
100
AcDbLine
 62
253
  6
CONTINUOUS
 10
150.0766271404
 20
87.488438838
 11
150.0097173287
 21
87.3545273912
  0
LINE
  5
490
100
AcDbEntity
  8
ASSI
100
AcDbLine
 62
253
  6
CONTINUOUS
 10
171.9019591381
 20
130.538588189
 11
171.9688689498
 21
130.6724996358
  0
LINE
  5
491
100
AcDbEntity
  8
0
100
AcDbLine
 62
253
  6
CONTINUOUS
 10
171.9019591381
 20
130.538588189
 11
171.9688689498
 21
130.6724996358
  0
LINE
  5
492
100
AcDbEntity
  8
ASSI
100
AcDbLine
 62
253
  6
CONTINUOUS
 10
150.5764558029
 20
86.9891240706
 11
150.5103437504
 21
86.8568092369
  0
LINE
  5
493
100
AcDbEntity
  8
0
100
AcDbLine
 62
253
  6
CONTINUOUS
 10
150.5764558029
 20
86.9891240706
 11
150.5103437504
 21
86.8568092369
  0
LINE
  5
494
100
AcDbEntity
  8
0
100
AcDbLine
 62
253
  6
CONTINUOUS
 10
138.6642931393
 20
117.8470553354
 11
138.9142931393
 21
117.8470553354
  0
LINE
  5
495
100
AcDbEntity
  8
0
100
AcDbLine
 62
253
  6
CONTINUOUS
 10
160.8642931393
 20
117.8470553354
 11
161.1142931393
 21
117.8470553354
  0
LWPOLYLINE
  5
496
100
AcDbEntity
  8
0
100
AcDbPolyline
 62
253
  6
CONTINUOUS
 90
51
 70
0
 10
138.6642931393
 20
117.8470555135
 10
138.6564642816
 20
117.8471782886
 10
138.6486410716
 20
117.8475463106
 10
138.6408306938
 20
117.8481591244
 10
138.6330403325
 20
117.849016275
 10
138.6252771724
 20
117.8501173074
 10
138.6175483979
 20
117.8514617667
 10
138.6098611933
 20
117.8530491978
 10
138.6022227433
 20
117.8548791456
 10
138.5946402323
 20
117.8569511552
 10
138.5871208448
 20
117.8592647716
 10
138.5796720119
 20
117.8618188395
 10
138.5723021519
 20
117.8646094032
 10
138.5650199298
 20
117.8676318066
 10
138.5578340105
 20
117.8708813937
 10
138.550753059
 20
117.8743535086
 10
138.5437857402
 20
117.8780434952
 10
138.5369407192
 20
117.8819466975
 10
138.5302266608
 20
117.8860584595
 10
138.52365223
 20
117.8903741252
 10
138.5172260919
 20
117.8948890386
 10
138.5109559783
 20
117.8995985394
 10
138.5048458893
 20
117.9044979501
 10
138.4988988919
 20
117.9095825888
 10
138.493118053
 20
117.9148477737
 10
138.4875064397
 20
117.9202888231
 10
138.482067191
 20
117.9259014764
 10
138.4768037348
 20
117.9316831584
 10
138.4717195709
 20
117.9376317153
 10
138.4668181991
 20
117.9437449931
 10
138.4621031193
 20
117.9500208379
 10
138.4575784025
 20
117.9564558545
 10
138.453250404
 20
117.9630416816
 10
138.4491260501
 20
117.9697687168
 10
138.4452122673
 20
117.9766273573
 10
138.4415159819
 20
117.9836080007
 10
138.4380434801
 20
117.9907011297
 10
138.4347984865
 20
117.9978975683
 10
138.4317840855
 20
118.0051882258
 10
138.4290033615
 20
118.0125640117
 10
138.4264593991
 20
118.0200158353
 10
138.4241548554
 20
118.0275349453
 10
138.4220906794
 20
118.0351139475
 10
138.4202673932
 20
118.0427457872
 10
138.4186855184
 20
118.0504234097
 10
138.4173455772
 20
118.05813976
 10
138.4162480913
 20
118.0658877836
 10
138.4153935826
 20
118.0736604254
 10
138.4147825732
 20
118.0814506309
 10
138.4144155847
 20
118.0892513452
 10
138.4142931393
 20
118.0970555135
  0
LWPOLYLINE
  5
497
100
AcDbEntity
  8
0
100
AcDbPolyline
 62
253
  6
CONTINUOUS
 90
51
 70
0
 10
160.8642931393
 20
117.8470555135
 10
160.8564642816
 20
117.8471782886
 10
160.8486410716
 20
117.8475463106
 10
160.8408306938
 20
117.8481591244
 10
160.8330403325
 20
117.849016275
 10
160.8252771724
 20
117.8501173074
 10
160.8175483979
 20
117.8514617667
 10
160.8098611933
 20
117.8530491978
 10
160.8022227433
 20
117.8548791456
 10
160.7946402323
 20
117.8569511552
 10
160.7871208448
 20
117.8592647716
 10
160.7796720119
 20
117.8618188395
 10
160.7723021519
 20
117.8646094032
 10
160.7650199298
 20
117.8676318066
 10
160.7578340105
 20
117.8708813937
 10
160.750753059
 20
117.8743535086
 10
160.7437857402
 20
117.8780434952
 10
160.7369407192
 20
117.8819466975
 10
160.7302266608
 20
117.8860584595
 10
160.72365223
 20
117.8903741252
 10
160.7172260919
 20
117.8948890386
 10
160.7109559783
 20
117.8995985394
 10
160.7048458893
 20
117.9044979501
 10
160.6988988919
 20
117.9095825888
 10
160.693118053
 20
117.9148477737
 10
160.6875064397
 20
117.9202888231
 10
160.682067191
 20
117.9259014764
 10
160.6768037348
 20
117.9316831584
 10
160.6717195709
 20
117.9376317153
 10
160.6668181991
 20
117.9437449931
 10
160.6621031193
 20
117.9500208379
 10
160.6575784025
 20
117.9564558545
 10
160.653250404
 20
117.9630416816
 10
160.6491260501
 20
117.9697687168
 10
160.6452122673
 20
117.9766273573
 10
160.6415159819
 20
117.9836080007
 10
160.6380434801
 20
117.9907011297
 10
160.6347984865
 20
117.9978975683
 10
160.6317840855
 20
118.0051882258
 10
160.6290033615
 20
118.0125640117
 10
160.6264593991
 20
118.0200158353
 10
160.6241548554
 20
118.0275349453
 10
160.6220906794
 20
118.0351139475
 10
160.6202673932
 20
118.0427457872
 10
160.6186855184
 20
118.0504234097
 10
160.6173455772
 20
118.05813976
 10
160.6162480913
 20
118.0658877836
 10
160.6153935826
 20
118.0736604254
 10
160.6147825732
 20
118.0814506309
 10
160.6144155847
 20
118.0892513452
 10
160.6142931393
 20
118.0970555135
  0
LINE
  5
498
100
AcDbEntity
  8
ASSI
100
AcDbLine
 62
253
  6
CONTINUOUS
 10
171.4682425282
 20
86.8568092369
 11
171.402130475
 21
86.9891240719
  0
LINE
  5
499
100
AcDbEntity
  8
0
100
AcDbLine
 62
253
  6
CONTINUOUS
 10
171.4682425282
 20
86.8568092369
 11
171.402130475
 21
86.9891240719
  0
LINE
  5
49A
100
AcDbEntity
  8
ASSI
100
AcDbLine
 62
253
  6
CONTINUOUS
 10
150.0097173287
 20
130.6724996358
 11
150.0766271411
 21
130.5385881878
  0
LINE
  5
49B
100
AcDbEntity
  8
0
100
AcDbLine
 62
253
  6
CONTINUOUS
 10
150.0097173287
 20
130.6724996358
 11
150.0766271411
 21
130.5385881878
  0
LINE
  5
49C
100
AcDbEntity
  8
ASSI
100
AcDbLine
 62
253
  6
CONTINUOUS
 10
171.9688689498
 20
87.3545273912
 11
171.9019591375
 21
87.4884388393
  0
LINE
  5
49D
100
AcDbEntity
  8
0
100
AcDbLine
 62
253
  6
CONTINUOUS
 10
171.9688689498
 20
87.3545273912
 11
171.9019591375
 21
87.4884388393
  0
LINE
  5
49E
100
AcDbEntity
  8
ASSI
100
AcDbLine
 62
253
  6
CONTINUOUS
 10
150.5103437504
 20
131.1702177901
 11
150.5764558036
 21
131.0379029551
  0
LINE
  5
49F
100
AcDbEntity
  8
0
100
AcDbLine
 62
253
  6
CONTINUOUS
 10
150.5103437504
 20
131.1702177901
 11
150.5764558036
 21
131.0379029551
  0
LINE
  5
4A0
100
AcDbEntity
  8
0
100
AcDbLine
 62
253
  6
CONTINUOUS
 10
160.6142931393
 20
122.9299715135
 11
160.6142931393
 21
118.0970555135
  0
LINE
  5
4A1
100
AcDbEntity
  8
0
100
AcDbLine
 62
253
  6
CONTINUOUS
 10
160.6142931393
 20
99.9299715135
 11
160.6142931393
 21
95.0970555135
  0
LINE
  5
4A2
100
AcDbEntity
  8
0
100
AcDbLine
 62
253
  6
CONTINUOUS
 10
161.3642931393
 20
95.0970555135
 11
161.3642931393
 21
99.9299715135
  0
LINE
  5
4A3
100
AcDbEntity
  8
0
100
AcDbLine
 62
253
  6
CONTINUOUS
 10
161.3642931393
 20
118.0970555135
 11
161.3642931393
 21
122.9299715135
  0
LWPOLYLINE
  5
4A4
100
AcDbEntity
  8
0
100
AcDbPolyline
 62
253
  6
CONTINUOUS
 90
51
 70
0
 10
160.6142931393
 20
99.9299715135
 10
160.614415972
 20
99.9378024459
 10
160.6147841646
 20
99.9456276171
 10
160.615397259
 20
99.9534398484
 10
160.6162547972
 20
99.9612319606
 10
160.6173563209
 20
99.9689967749
 10
160.6187013722
 20
99.9767271122
 10
160.6202894927
 20
99.9844157936
 10
160.6221202245
 20
99.9920556401
 10
160.6241931095
 20
99.9996394728
 10
160.6265076894
 20
100.0071601126
 10
160.6290628038
 20
100.0146101308
 10
160.6318544826
 20
100.0219810995
 10
160.6348780533
 20
100.0292643409
 10
160.6381288433
 20
100.0364511774
 10
160.6416021802
 20
100.0435329313
 10
160.6452933913
 20
100.0505009248
 10
160.6491978043
 20
100.0573464803
 10
160.6533107466
 20
100.06406092
 10
160.6576275457
 20
100.0706355662
 10
160.6621435291
 20
100.0770617412
 10
160.6668540225
 20
100.0833317065
 10
160.6717543448
 20
100.0894414797
 10
160.676839813
 20
100.0953880176
 10
160.6821057443
 20
100.1011682772
 10
160.6875474558
 20
100.1067792151
 10
160.6931606833
 20
100.1122177121
 10
160.6989428382
 20
100.1174803439
 10
160.7048917506
 20
100.1225636099
 10
160.7110052506
 20
100.1274640096
 10
160.7172811683
 20
100.1321780426
 10
160.7237160966
 20
100.1367016408
 10
160.7303016797
 20
100.1410284669
 10
160.7370283243
 20
100.1451516156
 10
160.7438864372
 20
100.1490641821
 10
160.7508664254
 20
100.1527592613
 10
160.7579587811
 20
100.1562305863
 10
160.7651543384
 20
100.1594744418
 10
160.7724440168
 20
100.1624877508
 10
160.7798187357
 20
100.1652674362
 10
160.7872694147
 20
100.1678104209
 10
160.7947873102
 20
100.1701140544
 10
160.8023650257
 20
100.1721773935
 10
160.8099955019
 20
100.1739999215
 10
160.8176716793
 20
100.1755811218
 10
160.8253864985
 20
100.1769204779
 10
160.8331328999
 20
100.1780174731
 10
160.8409038242
 20
100.1788715909
 10
160.8486922118
 20
100.1794823146
 10
160.8564910033
 20
100.1798491277
 10
160.8642931393
 20
100.1799715135
  0
LWPOLYLINE
  5
4A5
100
AcDbEntity
  8
0
100
AcDbPolyline
 62
253
  6
CONTINUOUS
 90
51
 70
0
 10
161.3642931393
 20
118.0970555135
 10
161.3641703066
 20
118.0892245812
 10
161.363802114
 20
118.0813994099
 10
161.3631890195
 20
118.0735871786
 10
161.3623314814
 20
118.0657950664
 10
161.3612299576
 20
118.0580302521
 10
161.3598849064
 20
118.0502999148
 10
161.3582967859
 20
118.0426112334
 10
161.356466054
 20
118.0349713869
 10
161.3543931691
 20
118.0273875542
 10
161.3520785892
 20
118.0198669144
 10
161.3495234747
 20
118.0124168962
 10
161.346731796
 20
118.0050459276
 10
161.3437082253
 20
117.9977626861
 10
161.3404574353
 20
117.9905758496
 10
161.3369840984
 20
117.9834940957
 10
161.3332928873
 20
117.9765261022
 10
161.3293884743
 20
117.9696805468
 10
161.325275532
 20
117.9629661071
 10
161.3209587329
 20
117.9563914608
 10
161.3164427495
 20
117.9499652858
 10
161.3117322561
 20
117.9436953205
 10
161.3068319338
 20
117.9375855474
 10
161.3017464656
 20
117.9316390094
 10
161.2964805343
 20
117.9258587499
 10
161.2910388228
 20
117.9202478119
 10
161.2854255953
 20
117.9148093149
 10
161.2796434404
 20
117.9095466832
 10
161.273694528
 20
117.9044634172
 10
161.267581028
 20
117.8995630174
 10
161.2613051103
 20
117.8948489845
 10
161.2548701819
 20
117.8903253862
 10
161.2482845989
 20
117.8859985602
 10
161.2415579543
 20
117.8818754114
 10
161.2346998414
 20
117.8779628449
 10
161.2277198532
 20
117.8742677657
 10
161.2206274975
 20
117.8707964408
 10
161.2134319402
 20
117.8675525852
 10
161.2061422618
 20
117.8645392762
 10
161.1987675429
 20
117.8617595908
 10
161.1913168638
 20
117.8592166061
 10
161.1837989684
 20
117.8569129726
 10
161.1762212529
 20
117.8548496335
 10
161.1685907767
 20
117.8530271055
 10
161.1609145993
 20
117.8514459052
 10
161.1531997801
 20
117.8501065491
 10
161.1454533787
 20
117.8490095539
 10
161.1376824544
 20
117.8481554361
 10
161.1298940668
 20
117.8475447124
 10
161.1220952753
 20
117.8471778993
 10
161.1142931393
 20
117.8470555135
  0
LWPOLYLINE
  5
4A6
100
AcDbEntity
  8
0
100
AcDbPolyline
 62
253
  6
CONTINUOUS
 90
51
 70
0
 10
161.3642931393
 20
95.0970555135
 10
161.3641697029
 20
95.0892231346
 10
161.3637999527
 20
95.0813964565
 10
161.3631847271
 20
95.0735827157
 10
161.3623248643
 20
95.0657891488
 10
161.3612212029
 20
95.0580229925
 10
161.359874581
 20
95.0502914833
 10
161.3582858371
 20
95.0426018579
 10
161.3564558096
 20
95.0349613529
 10
161.3543853368
 20
95.0273772048
 10
161.352075257
 20
95.0198566503
 10
161.3495267922
 20
95.012407124
 10
161.3467426982
 20
95.0050368527
 10
161.3437261142
 20
94.9977542614
 10
161.3404801797
 20
94.9905677749
 10
161.3370080339
 20
94.983485818
 10
161.3333133595
 20
94.9765169083
 10
161.3294020126
 20
94.9696699332
 10
161.3252803924
 20
94.9629538729
 10
161.3209548983
 20
94.9563777075
 10
161.3164319297
 20
94.9499504171
 10
161.3117174569
 20
94.9436799652
 10
161.3068157342
 20
94.9375702487
 10
161.3017305867
 20
94.9316241477
 10
161.2964658398
 20
94.9258445426
 10
161.2910253187
 20
94.9202343135
 10
161.2854126129
 20
94.9147964508
 10
161.2796303687
 20
94.9095343847
 10
161.2736809969
 20
94.904451656
 10
161.267566908
 20
94.899551805
 10
161.2612905127
 20
94.8948383723
 10
161.2548554072
 20
94.8903154549
 10
161.2482699307
 20
94.8859893766
 10
161.2415436079
 20
94.8818670177
 10
161.2346859635
 20
94.8779552584
 10
161.2277065223
 20
94.8742609791
 10
161.2206147368
 20
94.8707904258
 10
161.2134197704
 20
94.8675473077
 10
161.2061307144
 20
94.8645346998
 10
161.19875666
 20
94.861755677
 10
161.1913066984
 20
94.8592133143
 10
161.1837895816
 20
94.8569102597
 10
161.1762127053
 20
94.8548474532
 10
161.1685831262
 20
94.853025408
 10
161.1609079006
 20
94.8514446374
 10
161.1531940852
 20
94.8501056543
 10
161.1454487364
 20
94.849008972
 10
161.1376789109
 20
94.8481551036
 10
161.1298916652
 20
94.8475445623
 10
161.1220940558
 20
94.8471778612
 10
161.1142931393
 20
94.8470555135
  0
LINE
  5
4A7
100
AcDbEntity
  8
0
100
AcDbLine
 62
253
  6
CONTINUOUS
 10
161.1142931393
 20
123.1799713105
 11
160.8642931393
 21
123.1799713105
  0
LINE
  5
4A8
100
AcDbEntity
  8
0
100
AcDbLine
 62
253
  6
CONTINUOUS
 10
138.9142931393
 20
123.1799713105
 11
138.6642931393
 21
123.1799713105
  0
LWPOLYLINE
  5
4A9
100
AcDbEntity
  8
0
100
AcDbPolyline
 62
253
  6
CONTINUOUS
 90
51
 70
0
 10
138.9142931393
 20
123.1799715135
 10
138.92212075
 20
123.179848775
 10
138.9299427596
 20
123.1794808615
 10
138.9377519838
 20
123.178868226
 10
138.9455412384
 20
123.1780113215
 10
138.9533033394
 20
123.1769106009
 10
138.9610311025
 20
123.1755665173
 10
138.9687173435
 20
123.1739795235
 10
138.9763548783
 20
123.1721500726
 10
138.9839365226
 20
123.1700786176
 10
138.9914550924
 20
123.1677656114
 10
138.9989031577
 20
123.1652122058
 10
139.006272306
 20
123.1624223477
 10
139.0135538795
 20
123.1594006825
 10
139.0207392198
 20
123.156151856
 10
139.0278196689
 20
123.1526805137
 10
139.0347865688
 20
123.1489913012
 10
139.0416312613
 20
123.1450888642
 10
139.0483450883
 20
123.1409778482
 10
139.0549193917
 20
123.1366628988
 10
139.0613455135
 20
123.1321486617
 10
139.067615725
 20
123.1274397883
 10
139.0737260154
 20
123.1225409539
 10
139.0796733034
 20
123.1174568397
 10
139.0854545079
 20
123.1121921266
 10
139.0910665473
 20
123.106751496
 10
139.0965062708
 20
123.101139206
 10
139.1017702486
 20
123.0953578232
 10
139.1068549811
 20
123.0894094911
 10
139.1117569689
 20
123.0832963533
 10
139.1164727125
 20
123.0770205535
 10
139.120998139
 20
123.0705854794
 10
139.1253268815
 20
123.0639994954
 10
139.1294519999
 20
123.0572722099
 10
139.133366554
 20
123.0504132315
 10
139.1370636035
 20
123.0434321687
 10
139.1405368503
 20
123.036338545
 10
139.1437825635
 20
123.0291415444
 10
139.1467976544
 20
123.021850266
 10
139.1495790343
 20
123.0144738086
 10
139.1521236142
 20
123.0070212714
 10
139.1544287328
 20
122.9995014115
 10
139.1564934374
 20
122.9919216191
 10
139.1583172028
 20
122.9842889426
 10
139.1598995037
 20
122.9766104303
 10
139.1612398148
 20
122.9688931306
 10
139.1623376109
 20
122.9611440918
 10
139.1631923666
 20
122.9533703623
 10
139.1638035568
 20
122.9455789906
 10
139.1641706561
 20
122.9377770248
 10
139.1642931393
 20
122.9299715135
  0
LWPOLYLINE
  5
4AA
100
AcDbEntity
  8
0
100
AcDbPolyline
 62
253
  6
CONTINUOUS
 90
51
 70
0
 10
161.1142931393
 20
123.1799715135
 10
161.12212075
 20
123.179848775
 10
161.1299427596
 20
123.1794808615
 10
161.1377519838
 20
123.178868226
 10
161.1455412384
 20
123.1780113215
 10
161.1533033394
 20
123.1769106009
 10
161.1610311025
 20
123.1755665173
 10
161.1687173435
 20
123.1739795235
 10
161.1763548783
 20
123.1721500726
 10
161.1839365226
 20
123.1700786176
 10
161.1914550924
 20
123.1677656114
 10
161.1989031577
 20
123.1652122058
 10
161.206272306
 20
123.1624223477
 10
161.2135538795
 20
123.1594006825
 10
161.2207392198
 20
123.156151856
 10
161.2278196689
 20
123.1526805137
 10
161.2347865688
 20
123.1489913012
 10
161.2416312613
 20
123.1450888642
 10
161.2483450883
 20
123.1409778482
 10
161.2549193917
 20
123.1366628988
 10
161.2613455135
 20
123.1321486617
 10
161.267615725
 20
123.1274397883
 10
161.2737260154
 20
123.1225409539
 10
161.2796733034
 20
123.1174568397
 10
161.2854545079
 20
123.1121921266
 10
161.2910665473
 20
123.106751496
 10
161.2965062708
 20
123.101139206
 10
161.3017702486
 20
123.0953578232
 10
161.3068549811
 20
123.0894094911
 10
161.3117569689
 20
123.0832963533
 10
161.3164727125
 20
123.0770205535
 10
161.320998139
 20
123.0705854794
 10
161.3253268815
 20
123.0639994954
 10
161.3294519999
 20
123.0572722099
 10
161.333366554
 20
123.0504132315
 10
161.3370636035
 20
123.0434321687
 10
161.3405368503
 20
123.036338545
 10
161.3437825635
 20
123.0291415444
 10
161.3467976544
 20
123.021850266
 10
161.3495790343
 20
123.0144738086
 10
161.3521236142
 20
123.0070212714
 10
161.3544287328
 20
122.9995014115
 10
161.3564934374
 20
122.9919216191
 10
161.3583172028
 20
122.9842889426
 10
161.3598995037
 20
122.9766104303
 10
161.3612398148
 20
122.9688931306
 10
161.3623376109
 20
122.9611440918
 10
161.3631923666
 20
122.9533703623
 10
161.3638035568
 20
122.9455789906
 10
161.3641706561
 20
122.9377770248
 10
161.3642931393
 20
122.9299715135
  0
LWPOLYLINE
  5
4AB
100
AcDbEntity
  8
ASSI
100
AcDbPolyline
 62
253
  6
CONTINUOUS
 90
10
 70
0
 10
171.9019591375
 20
87.4884388393
 10
171.9006653723
 20
87.4927913485
 10
171.8993934112
 20
87.5004851183
 10
171.8981432541
 20
87.5115201488
 10
171.8969083515
 20
87.5259853516
 10
171.895695253
 20
87.5437918151
 10
171.8945236073
 20
87.5646728041
 10
171.8933946012
 20
87.5886730655
 10
171.892307048
 20
87.6157478524
 10
171.8912770363
 20
87.6454961897
  0
LWPOLYLINE
  5
4AC
100
AcDbEntity
  8
0
100
AcDbPolyline
 62
253
  6
CONTINUOUS
 90
10
 70
0
 10
171.9019591375
 20
87.4884388393
 10
171.9006653723
 20
87.4927913485
 10
171.8993934112
 20
87.5004851183
 10
171.8981432541
 20
87.5115201488
 10
171.8969083515
 20
87.5259853516
 10
171.895695253
 20
87.5437918151
 10
171.8945236073
 20
87.5646728041
 10
171.8933946012
 20
87.5886730655
 10
171.892307048
 20
87.6157478524
 10
171.8912770363
 20
87.6454961897
  0
LINE
  5
4AD
100
AcDbEntity
  8
ASSI
100
AcDbLine
 62
7
  6
CONTINUOUS
 10
168.7978498882
 20
131.1702177901
 11
168.4470281662
 21
131.1383726723
  0
LINE
  5
4AE
100
AcDbEntity
  8
0
100
AcDbLine
 62
7
  6
CONTINUOUS
 10
168.7978498882
 20
131.1702177901
 11
168.4470281662
 21
131.1383726723
  0
LWPOLYLINE
  5
4AF
100
AcDbEntity
  8
ASSI
100
AcDbPolyline
 62
253
  6
CONTINUOUS
 90
14
 70
0
 10
150.4633905653
 20
129.889973999
 10
150.416553222
 20
129.8892679175
 10
150.3714352467
 20
129.8883686056
 10
150.3284740993
 20
129.8872847831
 10
150.2880863275
 20
129.8860269585
 10
150.2506635276
 20
129.8846073276
 10
150.2165685481
 20
129.883039655
 10
150.1861319708
 20
129.8813391408
 10
150.1596489063
 20
129.8795222729
 10
150.1373761322
 20
129.8776066676
 10
150.1195296032
 20
129.8756108984
 10
150.106282358
 20
129.8735543161
 10
150.0977628406
 20
129.8714568612
 10
150.0940536556
 20
129.8693388704
  0
LWPOLYLINE
  5
4B0
100
AcDbEntity
  8
0
100
AcDbPolyline
 62
253
  6
CONTINUOUS
 90
14
 70
0
 10
150.4633905653
 20
129.889973999
 10
150.416553222
 20
129.8892679175
 10
150.3714352467
 20
129.8883686056
 10
150.3284740993
 20
129.8872847831
 10
150.2880863275
 20
129.8860269585
 10
150.2506635276
 20
129.8846073276
 10
150.2165685481
 20
129.883039655
 10
150.1861319708
 20
129.8813391408
 10
150.1596489063
 20
129.8795222729
 10
150.1373761322
 20
129.8776066676
 10
150.1195296032
 20
129.8756108984
 10
150.106282358
 20
129.8735543161
 10
150.0977628406
 20
129.8714568612
 10
150.0940536556
 20
129.8693388704
  0
LINE
  5
4B1
100
AcDbEntity
  8
ASSI
100
AcDbLine
 62
253
  6
CONTINUOUS
 10
150.5603945641
 20
129.8907810265
 11
150.4633905653
 21
129.889973999
  0
LINE
  5
4B2
100
AcDbEntity
  8
0
100
AcDbLine
 62
253
  6
CONTINUOUS
 10
150.5603945641
 20
129.8907810265
 11
150.4633905653
 21
129.889973999
  0
LINE
  5
4B3
100
AcDbEntity
  8
ASSI
100
AcDbLine
 62
253
  6
CONTINUOUS
 10
171.4181917161
 20
129.890780995
 11
166.6912857663
 21
129.8858017589
  0
LINE
  5
4B4
100
AcDbEntity
  8
0
100
AcDbLine
 62
253
  6
CONTINUOUS
 10
171.4181917161
 20
129.890780995
 11
166.6912857663
 21
129.8858017589
  0
LINE
  5
4B5
100
AcDbEntity
  8
ASSI
100
AcDbLine
 62
253
  6
CONTINUOUS
 10
149.2181917161
 20
129.890780995
 11
143.815371314
 21
129.8853289489
  0
LINE
  5
4B6
100
AcDbEntity
  8
0
100
AcDbLine
 62
253
  6
CONTINUOUS
 10
149.2181917161
 20
129.890780995
 11
143.815371314
 21
129.8853289489
  0
LINE
  5
4B7
100
AcDbEntity
  8
ASSI
100
AcDbLine
 62
253
  6
CONTINUOUS
 10
166.6912857663
 20
129.8858017589
 11
161.9588616503
 21
129.8837438859
  0
LINE
  5
4B8
100
AcDbEntity
  8
0
100
AcDbLine
 62
253
  6
CONTINUOUS
 10
166.6912857663
 20
129.8858017589
 11
161.9588616503
 21
129.8837438859
  0
LINE
  5
4B9
100
AcDbEntity
  8
ASSI
100
AcDbLine
 62
253
  6
CONTINUOUS
 10
143.815371314
 20
129.8853289489
 11
137.0582591324
 21
129.8838778039
  0
LINE
  5
4BA
100
AcDbEntity
  8
0
100
AcDbLine
 62
253
  6
CONTINUOUS
 10
143.815371314
 20
129.8853289489
 11
137.0582591324
 21
129.8838778039
  0
LINE
  5
4BB
100
AcDbEntity
  8
ASSI
100
AcDbLine
 62
253
  6
CONTINUOUS
 10
161.9588616503
 20
129.8837438859
 11
156.5435605225
 21
129.8849697161
  0
LINE
  5
4BC
100
AcDbEntity
  8
0
100
AcDbLine
 62
253
  6
CONTINUOUS
 10
161.9588616503
 20
129.8837438859
 11
156.5435605225
 21
129.8849697161
  0
LINE
  5
4BD
100
AcDbEntity
  8
ASSI
100
AcDbLine
 62
253
  6
CONTINUOUS
 10
137.0582591324
 20
129.8838778039
 11
131.5016584692
 21
129.8871416674
  0
LINE
  5
4BE
100
AcDbEntity
  8
0
100
AcDbLine
 62
253
  6
CONTINUOUS
 10
137.0582591324
 20
129.8838778039
 11
131.5016584692
 21
129.8871416674
  0
LWPOLYLINE
  5
4BF
100
AcDbEntity
  8
ASSI
100
AcDbPolyline
 62
253
  6
CONTINUOUS
 90
3
 70
0
 10
156.5435605225
 20
129.8849697161
 10
151.377778932
 20
129.8897215922
 10
150.560394564
 20
129.8907810126
  0
LWPOLYLINE
  5
4C0
100
AcDbEntity
  8
0
100
AcDbPolyline
 62
253
  6
CONTINUOUS
 90
3
 70
0
 10
156.5435605225
 20
129.8849697161
 10
151.377778932
 20
129.8897215922
 10
150.560394564
 20
129.8907810126
  0
LINE
  5
4C1
100
AcDbEntity
  8
ASSI
100
AcDbLine
 62
253
  6
CONTINUOUS
 10
131.5016584692
 20
129.8871416674
 11
128.360394564
 21
129.8907810126
  0
LINE
  5
4C2
100
AcDbEntity
  8
0
100
AcDbLine
 62
253
  6
CONTINUOUS
 10
131.5016584692
 20
129.8871416674
 11
128.360394564
 21
129.8907810126
  0
LWPOLYLINE
  5
4C3
100
AcDbEntity
  8
ASSI
100
AcDbPolyline
 62
253
  6
CONTINUOUS
 90
15
 70
0
 10
149.2181908647
 20
129.89078048
 10
149.3151939543
 20
129.8899734782
 10
149.3620309027
 20
129.8892674184
 10
149.4071485403
 20
129.8883681339
 10
149.450109419
 20
129.8872843437
 10
149.4904970021
 20
129.8860265557
 10
149.5279197027
 20
129.884606965
 10
149.5620146808
 20
129.8830393356
 10
149.5924513608
 20
129.8813388669
 10
149.6189346372
 20
129.8795220461
 10
149.6412077354
 20
129.8776064885
 10
149.6590547017
 20
129.8756107669
 10
149.6723024968
 20
129.8735542312
 10
149.6808226737
 20
129.8714568211
 10
149.6845326232
 20
129.8693388725
  0
LWPOLYLINE
  5
4C4
100
AcDbEntity
  8
0
100
AcDbPolyline
 62
253
  6
CONTINUOUS
 90
15
 70
0
 10
149.2181908647
 20
129.89078048
 10
149.3151939543
 20
129.8899734782
 10
149.3620309027
 20
129.8892674184
 10
149.4071485403
 20
129.8883681339
 10
149.450109419
 20
129.8872843437
 10
149.4904970021
 20
129.8860265557
 10
149.5279197027
 20
129.884606965
 10
149.5620146808
 20
129.8830393356
 10
149.5924513608
 20
129.8813388669
 10
149.6189346372
 20
129.8795220461
 10
149.6412077354
 20
129.8776064885
 10
149.6590547017
 20
129.8756107669
 10
149.6723024968
 20
129.8735542312
 10
149.6808226737
 20
129.8714568211
 10
149.6845326232
 20
129.8693388725
  0
LINE
  5
4C5
100
AcDbEntity
  8
ASSI
100
AcDbLine
 62
7
  6
CONTINUOUS
 10
130.9807363904
 20
131.1702177901
 11
131.3315581124
 21
131.1383726723
  0
LINE
  5
4C6
100
AcDbEntity
  8
0
100
AcDbLine
 62
7
  6
CONTINUOUS
 10
130.9807363904
 20
131.1702177901
 11
131.3315581124
 21
131.1383726723
  0
LWPOLYLINE
  5
4C7
100
AcDbEntity
  8
ASSI
100
AcDbPolyline
 62
253
  6
CONTINUOUS
 90
8
 70
0
 10
171.4015715949
 20
108.6447426542
 10
171.3979324376
 20
108.6778411426
 10
171.3940014707
 20
108.7064834836
 10
171.3903516023
 20
108.7304057965
 10
171.3860790421
 20
108.7494450892
 10
171.3811861238
 20
108.7633439507
 10
171.3766480157
 20
108.7718899859
 10
171.3729523352
 20
108.7750320418
  0
LWPOLYLINE
  5
4C8
100
AcDbEntity
  8
0
100
AcDbPolyline
 62
253
  6
CONTINUOUS
 90
8
 70
0
 10
171.4015715949
 20
108.6447426542
 10
171.3979324376
 20
108.6778411426
 10
171.3940014707
 20
108.7064834836
 10
171.3903516023
 20
108.7304057965
 10
171.3860790421
 20
108.7494450892
 10
171.3811861238
 20
108.7633439507
 10
171.3766480157
 20
108.7718899859
 10
171.3729523352
 20
108.7750320418
  0
LWPOLYLINE
  5
4C9
100
AcDbEntity
  8
ASSI
100
AcDbPolyline
 62
253
  6
CONTINUOUS
 90
16
 70
0
 10
171.8727809977
 20
108.2750510803
 10
171.8700954602
 20
108.3266970202
 10
171.8620552894
 20
108.3779610126
 10
171.8486936763
 20
108.4282825247
 10
171.8300797536
 20
108.4771547657
 10
171.8063781304
 20
108.5239672067
 10
171.7779025392
 20
108.5680393461
 10
171.7450077034
 20
108.6088393969
 10
171.7080238725
 20
108.6459726318
 10
171.6673466261
 20
108.67903844
 10
171.6234125239
 20
108.7076743607
 10
171.5767093078
 20
108.7315554555
 10
171.527762596
 20
108.7504104246
 10
171.4771158964
 20
108.7640306547
 10
171.4253224258
 20
108.772268099
 10
171.3729523352
 20
108.7750320418
  0
LWPOLYLINE
  5
4CA
100
AcDbEntity
  8
0
100
AcDbPolyline
 62
253
  6
CONTINUOUS
 90
16
 70
0
 10
171.8727809977
 20
108.2750510803
 10
171.8700954602
 20
108.3266970202
 10
171.8620552894
 20
108.3779610126
 10
171.8486936763
 20
108.4282825247
 10
171.8300797536
 20
108.4771547657
 10
171.8063781304
 20
108.5239672067
 10
171.7779025392
 20
108.5680393461
 10
171.7450077034
 20
108.6088393969
 10
171.7080238725
 20
108.6459726318
 10
171.6673466261
 20
108.67903844
 10
171.6234125239
 20
108.7076743607
 10
171.5767093078
 20
108.7315554555
 10
171.527762596
 20
108.7504104246
 10
171.4771158964
 20
108.7640306547
 10
171.4253224258
 20
108.772268099
 10
171.3729523352
 20
108.7750320418
  0
LWPOLYLINE
  5
4CB
100
AcDbEntity
  8
ASSI
100
AcDbPolyline
 62
253
  6
CONTINUOUS
 90
4
 70
0
 10
171.4118778946
 20
108.476484915
 10
171.4100769005
 20
108.5231958156
 10
171.407362723
 20
108.5671659001
 10
171.4015715949
 20
108.6447426542
  0
LWPOLYLINE
  5
4CC
100
AcDbEntity
  8
0
100
AcDbPolyline
 62
253
  6
CONTINUOUS
 90
4
 70
0
 10
171.4118778946
 20
108.476484915
 10
171.4100769005
 20
108.5231958156
 10
171.407362723
 20
108.5671659001
 10
171.4015715949
 20
108.6447426542
  0
LWPOLYLINE
  5
4CD
100
AcDbEntity
  8
ASSI
100
AcDbPolyline
 62
253
  6
CONTINUOUS
 90
6
 70
0
 10
171.4074880484
 20
130.9429074415
 10
171.406455917
 20
130.9733249178
 10
171.4053831521
 20
130.9981445682
 10
171.4042756905
 20
131.0172413469
 10
171.403182172
 20
131.0305170188
 10
171.4021304756
 20
131.0379029564
  0
LWPOLYLINE
  5
4CE
100
AcDbEntity
  8
0
100
AcDbPolyline
 62
253
  6
CONTINUOUS
 90
6
 70
0
 10
171.4074880484
 20
130.9429074415
 10
171.406455917
 20
130.9733249178
 10
171.4053831521
 20
130.9981445682
 10
171.4042756905
 20
131.0172413469
 10
171.403182172
 20
131.0305170188
 10
171.4021304756
 20
131.0379029564
  0
LINE
  5
4CF
100
AcDbEntity
  8
ASSI
100
AcDbLine
 62
253
  6
CONTINUOUS
 10
171.8912770363
 20
87.6454961897
 11
171.8893913494
 21
87.7130968103
  0
LINE
  5
4D0
100
AcDbEntity
  8
0
100
AcDbLine
 62
253
  6
CONTINUOUS
 10
171.8912770363
 20
87.6454961897
 11
171.8893913494
 21
87.7130968103
  0
LINE
  5
4D1
100
AcDbEntity
  8
ASSI
100
AcDbLine
 62
253
  6
CONTINUOUS
 10
171.4095174756
 20
130.8659026706
 11
171.4074880484
 21
130.9429074415
  0
LINE
  5
4D2
100
AcDbEntity
  8
0
100
AcDbLine
 62
253
  6
CONTINUOUS
 10
171.4095174756
 20
130.8659026706
 11
171.4074880484
 21
130.9429074415
  0
LINE
  5
4D3
100
AcDbEntity
  8
ASSI
100
AcDbLine
 62
253
  6
CONTINUOUS
 10
171.8893913494
 20
87.7130968103
 11
171.8877775272
 21
87.7898435562
  0
LINE
  5
4D4
100
AcDbEntity
  8
0
100
AcDbLine
 62
253
  6
CONTINUOUS
 10
171.8893913494
 20
87.7130968103
 11
171.8877775272
 21
87.7898435562
  0
LINE
  5
4D5
100
AcDbEntity
  8
ASSI
100
AcDbLine
 62
253
  6
CONTINUOUS
 10
171.411391291
 20
130.7686576027
 11
171.4095174756
 21
130.8659026706
  0
LINE
  5
4D6
100
AcDbEntity
  8
0
100
AcDbLine
 62
253
  6
CONTINUOUS
 10
171.411391291
 20
130.7686576027
 11
171.4095174756
 21
130.8659026706
  0
LINE
  5
4D7
100
AcDbEntity
  8
ASSI
100
AcDbLine
 62
253
  6
CONTINUOUS
 10
171.8877775272
 20
87.7898435562
 11
171.8864592109
 21
87.8745955581
  0
LINE
  5
4D8
100
AcDbEntity
  8
0
100
AcDbLine
 62
253
  6
CONTINUOUS
 10
171.8877775272
 20
87.7898435562
 11
171.8864592109
 21
87.8745955581
  0
LINE
  5
4D9
100
AcDbEntity
  8
ASSI
100
AcDbLine
 62
253
  6
CONTINUOUS
 10
171.4138907505
 20
130.5891862511
 11
171.411391291
 21
130.7686576027
  0
LINE
  5
4DA
100
AcDbEntity
  8
0
100
AcDbLine
 62
253
  6
CONTINUOUS
 10
171.4138907505
 20
130.5891862511
 11
171.411391291
 21
130.7686576027
  0
LINE
  5
4DB
100
AcDbEntity
  8
ASSI
100
AcDbLine
 62
253
  6
CONTINUOUS
 10
171.8864592109
 20
87.8745955581
 11
171.8851007263
 21
88.0126037175
  0
LINE
  5
4DC
100
AcDbEntity
  8
0
100
AcDbLine
 62
253
  6
CONTINUOUS
 10
171.8864592109
 20
87.8745955581
 11
171.8851007263
 21
88.0126037175
  0
LINE
  5
4DD
100
AcDbEntity
  8
ASSI
100
AcDbLine
 62
253
  6
CONTINUOUS
 10
171.4164641787
 20
130.2999990275
 11
171.4138907505
 21
130.5891862511
  0
LINE
  5
4DE
100
AcDbEntity
  8
0
100
AcDbLine
 62
253
  6
CONTINUOUS
 10
171.4164641787
 20
130.2999990275
 11
171.4138907505
 21
130.5891862511
  0
LWPOLYLINE
  5
4DF
100
AcDbEntity
  8
ASSI
100
AcDbPolyline
 62
253
  6
CONTINUOUS
 90
3
 70
0
 10
171.4156187249
 20
109.7527341738
 10
171.4158434915
 20
109.6997462405
 10
171.4149908584
 20
109.6484963941
  0
LWPOLYLINE
  5
4E0
100
AcDbEntity
  8
0
100
AcDbPolyline
 62
253
  6
CONTINUOUS
 90
3
 70
0
 10
171.4156187249
 20
109.7527341738
 10
171.4158434915
 20
109.6997462405
 10
171.4149908584
 20
109.6484963941
  0
LINE
  5
4E1
100
AcDbEntity
  8
ASSI
100
AcDbLine
 62
253
  6
CONTINUOUS
 10
171.4181917213
 20
129.8907809941
 11
171.4164641787
 21
130.2999990275
  0
LINE
  5
4E2
100
AcDbEntity
  8
0
100
AcDbLine
 62
253
  6
CONTINUOUS
 10
171.4181917213
 20
129.8907809941
 11
171.4164641787
 21
130.2999990275
  0
LINE
  5
4E3
100
AcDbEntity
  8
ASSI
100
AcDbLine
 62
7
  6
CONTINUOUS
 10
171.9688689498
 20
130.6724996358
 11
171.9884773413
 21
122.1135135135
  0
LINE
  5
4E4
100
AcDbEntity
  8
0
100
AcDbLine
 62
7
  6
CONTINUOUS
 10
171.9688689498
 20
130.6724996358
 11
171.9884773413
 21
122.1135135135
  0
LINE
  5
4E5
100
AcDbEntity
  8
ASSI
100
AcDbLine
 62
253
  6
CONTINUOUS
 10
171.8851007263
 20
88.0126037175
 11
171.884532623
 21
88.1576881567
  0
LINE
  5
4E6
100
AcDbEntity
  8
0
100
AcDbLine
 62
253
  6
CONTINUOUS
 10
171.8851007263
 20
88.0126037175
 11
171.884532623
 21
88.1576881567
  0
LINE
  5
4E7
100
AcDbEntity
  8
ASSI
100
AcDbLine
 62
253
  6
CONTINUOUS
 10
171.884532623
 20
88.1576881567
 11
171.8765515581
 21
97.1532111241
  0
LINE
  5
4E8
100
AcDbEntity
  8
0
100
AcDbLine
 62
253
  6
CONTINUOUS
 10
171.884532623
 20
88.1576881567
 11
171.8765515581
 21
97.1532111241
  0
LWPOLYLINE
  5
4E9
100
AcDbEntity
  8
ASSI
100
AcDbPolyline
 62
253
  6
CONTINUOUS
 90
3
 70
0
 10
171.8765515581
 20
97.1532111241
 10
171.8730399486
 20
105.9660109991
 10
171.8727809977
 20
108.2750510803
  0
LWPOLYLINE
  5
4EA
100
AcDbEntity
  8
0
100
AcDbPolyline
 62
253
  6
CONTINUOUS
 90
3
 70
0
 10
171.8765515581
 20
97.1532111241
 10
171.8730399486
 20
105.9660109991
 10
171.8727809977
 20
108.2750510803
  0
LINE
  5
4EB
100
AcDbEntity
  8
ASSI
100
AcDbLine
 62
7
  6
CONTINUOUS
 10
171.9884773413
 20
122.1135135135
 11
171.9884773413
 21
109.7134183313
  0
LINE
  5
4EC
100
AcDbEntity
  8
0
100
AcDbLine
 62
7
  6
CONTINUOUS
 10
171.9884773413
 20
122.1135135135
 11
171.9884773413
 21
109.7134183313
  0
LINE
  5
4ED
100
AcDbEntity
  8
ASSI
100
AcDbLine
 62
7
  6
CONTINUOUS
 10
171.9884773413
 20
95.9135135135
 11
171.9884773413
 21
108.3136086957
  0
LINE
  5
4EE
100
AcDbEntity
  8
0
100
AcDbLine
 62
7
  6
CONTINUOUS
 10
171.9884773413
 20
95.9135135135
 11
171.9884773413
 21
108.3136086957
  0
LINE
  5
4EF
100
AcDbEntity
  8
ASSI
100
AcDbLine
 62
253
  6
CONTINUOUS
 10
171.415618509
 20
109.7527341774
 11
171.4181917161
 21
129.890780995
  0
LINE
  5
4F0
100
AcDbEntity
  8
0
100
AcDbLine
 62
253
  6
CONTINUOUS
 10
171.415618509
 20
109.7527341774
 11
171.4181917161
 21
129.890780995
  0
LINE
  5
4F1
100
AcDbEntity
  8
ASSI
100
AcDbLine
 62
253
  6
CONTINUOUS
 10
171.8727809952
 20
109.7519759476
 11
171.8762204765
 21
120.347114992
  0
LINE
  5
4F2
100
AcDbEntity
  8
0
100
AcDbLine
 62
253
  6
CONTINUOUS
 10
171.8727809952
 20
109.7519759476
 11
171.8762204765
 21
120.347114992
  0
LINE
  5
4F3
100
AcDbEntity
  8
ASSI
100
AcDbLine
 62
7
  6
CONTINUOUS
 10
171.9688689498
 20
87.3545273912
 11
171.9884773413
 21
95.9135135135
  0
LINE
  5
4F4
100
AcDbEntity
  8
0
100
AcDbLine
 62
7
  6
CONTINUOUS
 10
171.9688689498
 20
87.3545273912
 11
171.9884773413
 21
95.9135135135
  0
LINE
  5
4F5
100
AcDbEntity
  8
ASSI
100
AcDbLine
 62
253
  6
CONTINUOUS
 10
171.4177183011
 20
87.9689039634
 11
171.4156185206
 21
108.2742928442
  0
LINE
  5
4F6
100
AcDbEntity
  8
0
100
AcDbLine
 62
253
  6
CONTINUOUS
 10
171.4177183011
 20
87.9689039634
 11
171.4156185206
 21
108.2742928442
  0
LINE
  5
4F7
100
AcDbEntity
  8
ASSI
100
AcDbLine
 62
253
  6
CONTINUOUS
 10
171.8762204765
 20
120.347114992
 11
171.884823539
 21
129.9668480851
  0
LINE
  5
4F8
100
AcDbEntity
  8
0
100
AcDbLine
 62
253
  6
CONTINUOUS
 10
171.8762204765
 20
120.347114992
 11
171.884823539
 21
129.9668480851
  0
LWPOLYLINE
  5
4F9
100
AcDbEntity
  8
ASSI
100
AcDbPolyline
 62
253
  6
CONTINUOUS
 90
4
 70
0
 10
171.4156187276
 20
108.2742928421
 10
171.4158433655
 20
108.3272787783
 10
171.4149908136
 20
108.3785269509
 10
171.4118778946
 20
108.476484915
  0
LWPOLYLINE
  5
4FA
100
AcDbEntity
  8
0
100
AcDbPolyline
 62
253
  6
CONTINUOUS
 90
4
 70
0
 10
171.4156187276
 20
108.2742928421
 10
171.4158433655
 20
108.3272787783
 10
171.4149908136
 20
108.3785269509
 10
171.4118778946
 20
108.476484915
  0
LINE
  5
4FB
100
AcDbEntity
  8
ASSI
100
AcDbLine
 62
253
  6
CONTINUOUS
 10
171.415292941
 20
87.576437533
 11
171.4177183011
 21
87.9689039634
  0
LINE
  5
4FC
100
AcDbEntity
  8
0
100
AcDbLine
 62
253
  6
CONTINUOUS
 10
171.415292941
 20
87.576437533
 11
171.4177183011
 21
87.9689039634
  0
LINE
  5
4FD
100
AcDbEntity
  8
ASSI
100
AcDbLine
 62
253
  6
CONTINUOUS
 10
171.884823539
 20
129.9668480851
 11
171.8859229882
 21
130.107712623
  0
LINE
  5
4FE
100
AcDbEntity
  8
0
100
AcDbLine
 62
253
  6
CONTINUOUS
 10
171.884823539
 20
129.9668480851
 11
171.8859229882
 21
130.107712623
  0
LINE
  5
4FF
100
AcDbEntity
  8
ASSI
100
AcDbLine
 62
253
  6
CONTINUOUS
 10
171.4131027787
 20
87.3739109491
 11
171.415292941
 21
87.576437533
  0
LINE
  5
500
100
AcDbEntity
  8
0
100
AcDbLine
 62
253
  6
CONTINUOUS
 10
171.4131027787
 20
87.3739109491
 11
171.415292941
 21
87.576437533
  0
LINE
  5
501
100
AcDbEntity
  8
ASSI
100
AcDbLine
 62
253
  6
CONTINUOUS
 10
171.8859229882
 20
130.107712623
 11
171.8870777783
 21
130.1955738125
  0
LINE
  5
502
100
AcDbEntity
  8
0
100
AcDbLine
 62
253
  6
CONTINUOUS
 10
171.8859229882
 20
130.107712623
 11
171.8870777783
 21
130.1955738125
  0
LINE
  5
503
100
AcDbEntity
  8
ASSI
100
AcDbLine
 62
253
  6
CONTINUOUS
 10
171.4113912901
 20
87.2583694264
 11
171.4131027787
 21
87.3739109491
  0
LINE
  5
504
100
AcDbEntity
  8
0
100
AcDbLine
 62
253
  6
CONTINUOUS
 10
171.4113912901
 20
87.2583694264
 11
171.4131027787
 21
87.3739109491
  0
LINE
  5
505
100
AcDbEntity
  8
ASSI
100
AcDbLine
 62
253
  6
CONTINUOUS
 10
171.8870777783
 20
130.1955738125
 11
171.8885483404
 21
130.2766455009
  0
LINE
  5
506
100
AcDbEntity
  8
0
100
AcDbLine
 62
253
  6
CONTINUOUS
 10
171.8870777783
 20
130.1955738125
 11
171.8885483404
 21
130.2766455009
  0
LINE
  5
507
100
AcDbEntity
  8
ASSI
100
AcDbLine
 62
253
  6
CONTINUOUS
 10
171.4095174747
 20
87.1611243575
 11
171.4113912901
 21
87.2583694264
  0
LINE
  5
508
100
AcDbEntity
  8
0
100
AcDbLine
 62
253
  6
CONTINUOUS
 10
171.4095174747
 20
87.1611243575
 11
171.4113912901
 21
87.2583694264
  0
LWPOLYLINE
  5
509
100
AcDbEntity
  8
ASSI
100
AcDbPolyline
 62
253
  6
CONTINUOUS
 90
12
 70
0
 10
171.8885483404
 20
130.2766455009
 10
171.8903054227
 20
130.3490673042
 10
171.891277037
 20
130.3815308392
 10
171.8923070487
 20
130.4112791764
 10
171.8933946019
 20
130.4383539632
 10
171.894523608
 20
130.4623542245
 10
171.8956952536
 20
130.4832352135
 10
171.8969083521
 20
130.501041677
 10
171.8981432547
 20
130.5155068798
 10
171.8993934118
 20
130.5265419102
 10
171.9006653729
 20
130.5342356799
 10
171.9019591381
 20
130.538588189
  0
LWPOLYLINE
  5
50A
100
AcDbEntity
  8
0
100
AcDbPolyline
 62
253
  6
CONTINUOUS
 90
12
 70
0
 10
171.8885483404
 20
130.2766455009
 10
171.8903054227
 20
130.3490673042
 10
171.891277037
 20
130.3815308392
 10
171.8923070487
 20
130.4112791764
 10
171.8933946019
 20
130.4383539632
 10
171.894523608
 20
130.4623542245
 10
171.8956952536
 20
130.4832352135
 10
171.8969083521
 20
130.501041677
 10
171.8981432547
 20
130.5155068798
 10
171.8993934118
 20
130.5265419102
 10
171.9006653729
 20
130.5342356799
 10
171.9019591381
 20
130.538588189
  0
LWPOLYLINE
  5
50B
100
AcDbEntity
  8
ASSI
100
AcDbPolyline
 62
253
  6
CONTINUOUS
 90
4
 70
0
 10
171.4149908584
 20
109.6484963941
 10
171.4118776414
 20
109.5505360921
 10
171.4100766079
 20
109.5038245322
 10
171.4073622927
 20
109.4598542303
  0
LWPOLYLINE
  5
50C
100
AcDbEntity
  8
0
100
AcDbPolyline
 62
253
  6
CONTINUOUS
 90
4
 70
0
 10
171.4149908584
 20
109.6484963941
 10
171.4118776414
 20
109.5505360921
 10
171.4100766079
 20
109.5038245322
 10
171.4073622927
 20
109.4598542303
  0
LWPOLYLINE
  5
50D
100
AcDbEntity
  8
ASSI
100
AcDbPolyline
 62
253
  6
CONTINUOUS
 90
16
 70
0
 10
171.8727809952
 20
109.7519759476
 10
171.8700954527
 20
109.7003299598
 10
171.8620552693
 20
109.6490659317
 10
171.8486936395
 20
109.5987443968
 10
171.8300797001
 20
109.549872147
 10
171.8063780635
 20
109.5030597092
 10
171.7779024631
 20
109.45898758
 10
171.7450076247
 20
109.4181875461
 10
171.7080237989
 20
109.3810543319
 10
171.6673465597
 20
109.3479885413
 10
171.623412463
 20
109.3193526333
 10
171.5767092529
 20
109.295471549
 10
171.5277625499
 20
109.2766165891
 10
171.4771158626
 20
109.2629963665
 10
171.4253224067
 20
109.2547589271
 10
171.3729523327
 20
109.2519949861
  0
LWPOLYLINE
  5
50E
100
AcDbEntity
  8
0
100
AcDbPolyline
 62
253
  6
CONTINUOUS
 90
16
 70
0
 10
171.8727809952
 20
109.7519759476
 10
171.8700954527
 20
109.7003299598
 10
171.8620552693
 20
109.6490659317
 10
171.8486936395
 20
109.5987443968
 10
171.8300797001
 20
109.549872147
 10
171.8063780635
 20
109.5030597092
 10
171.7779024631
 20
109.45898758
 10
171.7450076247
 20
109.4181875461
 10
171.7080237989
 20
109.3810543319
 10
171.6673465597
 20
109.3479885413
 10
171.623412463
 20
109.3193526333
 10
171.5767092529
 20
109.295471549
 10
171.5277625499
 20
109.2766165891
 10
171.4771158626
 20
109.2629963665
 10
171.4253224067
 20
109.2547589271
 10
171.3729523327
 20
109.2519949861
  0
LWPOLYLINE
  5
50F
100
AcDbEntity
  8
ASSI
100
AcDbPolyline
 62
253
  6
CONTINUOUS
 90
9
 70
0
 10
171.4073622927
 20
109.4598542303
 10
171.4015710156
 20
109.3822784139
 10
171.3979318488
 20
109.3491808538
 10
171.3940008596
 20
109.3205396286
 10
171.3903510531
 20
109.2966184962
 10
171.386078613
 20
109.2775802759
 10
171.3811858418
 20
109.2636822754
 10
171.3766478895
 20
109.2551368208
 10
171.3729523331
 20
109.2519949861
  0
LWPOLYLINE
  5
510
100
AcDbEntity
  8
0
100
AcDbPolyline
 62
253
  6
CONTINUOUS
 90
9
 70
0
 10
171.4073622927
 20
109.4598542303
 10
171.4015710156
 20
109.3822784139
 10
171.3979318488
 20
109.3491808538
 10
171.3940008596
 20
109.3205396286
 10
171.3903510531
 20
109.2966184962
 10
171.386078613
 20
109.2775802759
 10
171.3811858418
 20
109.2636822754
 10
171.3766478895
 20
109.2551368208
 10
171.3729523331
 20
109.2519949861
  0
LINE
  5
511
100
AcDbEntity
  8
ASSI
100
AcDbLine
 62
7
  6
CONTINUOUS
 10
157.5978498882
 20
131.1702177901
 11
157.2470281662
 21
131.1383726723
  0
LINE
  5
512
100
AcDbEntity
  8
0
100
AcDbLine
 62
7
  6
CONTINUOUS
 10
157.5978498882
 20
131.1702177901
 11
157.2470281662
 21
131.1383726723
  0
LINE
  5
513
100
AcDbEntity
  8
ASSI
100
AcDbLine
 62
7
  6
CONTINUOUS
 10
146.5978498882
 20
131.1702177901
 11
146.2470281662
 21
131.1383726723
  0
LINE
  5
514
100
AcDbEntity
  8
0
100
AcDbLine
 62
7
  6
CONTINUOUS
 10
146.5978498882
 20
131.1702177901
 11
146.2470281662
 21
131.1383726723
  0
LINE
  5
515
100
AcDbEntity
  8
ASSI
100
AcDbLine
 62
7
  6
CONTINUOUS
 10
135.3978498882
 20
131.1702177901
 11
135.0470281662
 21
131.1383726723
  0
LINE
  5
516
100
AcDbEntity
  8
0
100
AcDbLine
 62
7
  6
CONTINUOUS
 10
135.3978498882
 20
131.1702177901
 11
135.0470281662
 21
131.1383726723
  0
LWPOLYLINE
  5
517
100
AcDbEntity
  8
ASSI
100
AcDbPolyline
 62
253
  6
CONTINUOUS
 90
16
 70
0
 10
150.5764558036
 20
131.0379029551
 10
150.5242541771
 20
131.0351009099
 10
150.4726235656
 20
131.0268683205
 10
150.4221286689
 20
131.0132952502
 10
150.3733217471
 20
130.9945301658
 10
150.3267366256
 20
130.9707783298
 10
150.2828828488
 20
130.9422995696
 10
150.2422400445
 20
130.909405401
 10
150.2052526998
 20
130.8724556167
 10
150.1723253363
 20
130.8318543815
 10
150.1438180566
 20
130.7880457902
 10
150.1200426044
 20
130.7415089932
 10
150.1012589701
 20
130.6927529682
 10
150.0876725535
 20
130.6423109652
 10
150.0794319138
 20
130.590734676
 10
150.0766271411
 20
130.5385881878
  0
LWPOLYLINE
  5
518
100
AcDbEntity
  8
0
100
AcDbPolyline
 62
253
  6
CONTINUOUS
 90
16
 70
0
 10
150.5764558036
 20
131.0379029551
 10
150.5242541771
 20
131.0351009099
 10
150.4726235656
 20
131.0268683205
 10
150.4221286689
 20
131.0132952502
 10
150.3733217471
 20
130.9945301658
 10
150.3267366256
 20
130.9707783298
 10
150.2828828488
 20
130.9422995696
 10
150.2422400445
 20
130.909405401
 10
150.2052526998
 20
130.8724556167
 10
150.1723253363
 20
130.8318543815
 10
150.1438180566
 20
130.7880457902
 10
150.1200426044
 20
130.7415089932
 10
150.1012589701
 20
130.6927529682
 10
150.0876725535
 20
130.6423109652
 10
150.0794319138
 20
130.590734676
 10
150.0766271411
 20
130.5385881878
  0
LWPOLYLINE
  5
519
100
AcDbEntity
  8
ASSI
100
AcDbPolyline
 62
253
  6
CONTINUOUS
 90
16
 70
0
 10
128.3764558036
 20
131.0379029551
 10
128.3242541771
 20
131.0351009099
 10
128.2726235656
 20
131.0268683205
 10
128.2221286689
 20
131.0132952502
 10
128.1733217471
 20
130.9945301658
 10
128.1267366256
 20
130.9707783298
 10
128.0828828488
 20
130.9422995696
 10
128.0422400445
 20
130.909405401
 10
128.0052526998
 20
130.8724556167
 10
127.9723253363
 20
130.8318543815
 10
127.9438180566
 20
130.7880457902
 10
127.9200426044
 20
130.7415089932
 10
127.9012589701
 20
130.6927529682
 10
127.8876725535
 20
130.6423109652
 10
127.8794319138
 20
130.590734676
 10
127.8766271411
 20
130.5385881878
  0
LWPOLYLINE
  5
51A
100
AcDbEntity
  8
0
100
AcDbPolyline
 62
253
  6
CONTINUOUS
 90
16
 70
0
 10
128.3764558036
 20
131.0379029551
 10
128.3242541771
 20
131.0351009099
 10
128.2726235656
 20
131.0268683205
 10
128.2221286689
 20
131.0132952502
 10
128.1733217471
 20
130.9945301658
 10
128.1267366256
 20
130.9707783298
 10
128.0828828488
 20
130.9422995696
 10
128.0422400445
 20
130.909405401
 10
128.0052526998
 20
130.8724556167
 10
127.9723253363
 20
130.8318543815
 10
127.9438180566
 20
130.7880457902
 10
127.9200426044
 20
130.7415089932
 10
127.9012589701
 20
130.6927529682
 10
127.8876725535
 20
130.6423109652
 10
127.8794319138
 20
130.590734676
 10
127.8766271411
 20
130.5385881878
  0
LWPOLYLINE
  5
51B
100
AcDbEntity
  8
ASSI
100
AcDbPolyline
 62
253
  6
CONTINUOUS
 90
14
 70
0
 10
128.2633905653
 20
129.889973999
 10
128.216553222
 20
129.8892679175
 10
128.1714352467
 20
129.8883686056
 10
128.1284740993
 20
129.8872847831
 10
128.0880863275
 20
129.8860269585
 10
128.0506635276
 20
129.8846073276
 10
128.0165685481
 20
129.883039655
 10
127.9861319708
 20
129.8813391408
 10
127.9596489063
 20
129.8795222729
 10
127.9373761322
 20
129.8776066676
 10
127.9195296032
 20
129.8756108984
 10
127.906282358
 20
129.8735543161
 10
127.8977628406
 20
129.8714568612
 10
127.8940536556
 20
129.8693388704
  0
LWPOLYLINE
  5
51C
100
AcDbEntity
  8
0
100
AcDbPolyline
 62
253
  6
CONTINUOUS
 90
14
 70
0
 10
128.2633905653
 20
129.889973999
 10
128.216553222
 20
129.8892679175
 10
128.1714352467
 20
129.8883686056
 10
128.1284740993
 20
129.8872847831
 10
128.0880863275
 20
129.8860269585
 10
128.0506635276
 20
129.8846073276
 10
128.0165685481
 20
129.883039655
 10
127.9861319708
 20
129.8813391408
 10
127.9596489063
 20
129.8795222729
 10
127.9373761322
 20
129.8776066676
 10
127.9195296032
 20
129.8756108984
 10
127.906282358
 20
129.8735543161
 10
127.8977628406
 20
129.8714568612
 10
127.8940536556
 20
129.8693388704
  0
LINE
  5
51D
100
AcDbEntity
  8
ASSI
100
AcDbLine
 62
253
  6
CONTINUOUS
 10
128.3603945641
 20
129.8907810265
 11
128.2633905653
 21
129.889973999
  0
LINE
  5
51E
100
AcDbEntity
  8
0
100
AcDbLine
 62
253
  6
CONTINUOUS
 10
128.3603945641
 20
129.8907810265
 11
128.2633905653
 21
129.889973999
  0
LINE
  5
51F
100
AcDbEntity
  8
ASSI
100
AcDbLine
 62
253
  6
CONTINUOUS
 10
171.4021304757
 20
131.0379029564
 11
168.0325649064
 21
131.0278768201
  0
LINE
  5
520
100
AcDbEntity
  8
0
100
AcDbLine
 62
253
  6
CONTINUOUS
 10
171.4021304757
 20
131.0379029564
 11
168.0325649064
 21
131.0278768201
  0
LINE
  5
521
100
AcDbEntity
  8
ASSI
100
AcDbLine
 62
253
  6
CONTINUOUS
 10
149.2021304757
 20
131.0379029564
 11
145.8325649064
 21
131.0278768201
  0
LINE
  5
522
100
AcDbEntity
  8
0
100
AcDbLine
 62
253
  6
CONTINUOUS
 10
149.2021304757
 20
131.0379029564
 11
145.8325649064
 21
131.0278768201
  0
LINE
  5
523
100
AcDbEntity
  8
ASSI
100
AcDbLine
 62
253
  6
CONTINUOUS
 10
168.0325649064
 20
131.0278768201
 11
164.6605188521
 21
131.0217226545
  0
LINE
  5
524
100
AcDbEntity
  8
0
100
AcDbLine
 62
253
  6
CONTINUOUS
 10
168.0325649064
 20
131.0278768201
 11
164.6605188521
 21
131.0217226545
  0
LINE
  5
525
100
AcDbEntity
  8
ASSI
100
AcDbLine
 62
253
  6
CONTINUOUS
 10
145.8325649064
 20
131.0278768201
 11
142.4605188521
 21
131.0217226545
  0
LINE
  5
526
100
AcDbEntity
  8
0
100
AcDbLine
 62
253
  6
CONTINUOUS
 10
145.8325649064
 20
131.0278768201
 11
142.4605188521
 21
131.0217226545
  0
LINE
  5
527
100
AcDbEntity
  8
ASSI
100
AcDbLine
 62
253
  6
CONTINUOUS
 10
164.6605188521
 20
131.0217226545
 11
161.2868617577
 21
131.019442445
  0
LINE
  5
528
100
AcDbEntity
  8
0
100
AcDbLine
 62
253
  6
CONTINUOUS
 10
164.6605188521
 20
131.0217226545
 11
161.2868617577
 21
131.019442445
  0
LINE
  5
529
100
AcDbEntity
  8
ASSI
100
AcDbLine
 62
253
  6
CONTINUOUS
 10
142.4605188521
 20
131.0217226545
 11
139.0868617577
 21
131.019442445
  0
LINE
  5
52A
100
AcDbEntity
  8
0
100
AcDbLine
 62
253
  6
CONTINUOUS
 10
142.4605188521
 20
131.0217226545
 11
139.0868617577
 21
131.019442445
  0
LINE
  5
52B
100
AcDbEntity
  8
ASSI
100
AcDbLine
 62
7
  6
CONTINUOUS
 10
168.2738230855
 20
131.1331318943
 11
164.9047631931
 21
131.1331318943
  0
LINE
  5
52C
100
AcDbEntity
  8
0
100
AcDbLine
 62
7
  6
CONTINUOUS
 10
168.2738230855
 20
131.1331318943
 11
164.9047631931
 21
131.1331318943
  0
LINE
  5
52D
100
AcDbEntity
  8
ASSI
100
AcDbLine
 62
7
  6
CONTINUOUS
 10
157.0738230855
 20
131.1331318943
 11
153.7047631931
 21
131.1331318943
  0
LINE
  5
52E
100
AcDbEntity
  8
0
100
AcDbLine
 62
7
  6
CONTINUOUS
 10
157.0738230855
 20
131.1331318943
 11
153.7047631931
 21
131.1331318943
  0
LINE
  5
52F
100
AcDbEntity
  8
ASSI
100
AcDbLine
 62
7
  6
CONTINUOUS
 10
146.0738230855
 20
131.1331318943
 11
142.7047631931
 21
131.1331318943
  0
LINE
  5
530
100
AcDbEntity
  8
0
100
AcDbLine
 62
7
  6
CONTINUOUS
 10
146.0738230855
 20
131.1331318943
 11
142.7047631931
 21
131.1331318943
  0
LINE
  5
531
100
AcDbEntity
  8
ASSI
100
AcDbLine
 62
7
  6
CONTINUOUS
 10
134.8738230855
 20
131.1331318943
 11
131.5047631931
 21
131.1331318943
  0
LINE
  5
532
100
AcDbEntity
  8
0
100
AcDbLine
 62
7
  6
CONTINUOUS
 10
134.8738230855
 20
131.1331318943
 11
131.5047631931
 21
131.1331318943
  0
LINE
  5
533
100
AcDbEntity
  8
ASSI
100
AcDbLine
 62
7
  6
CONTINUOUS
 10
171.4682425282
 20
131.1702177901
 11
168.7978498882
 21
131.1702177901
  0
LINE
  5
534
100
AcDbEntity
  8
0
100
AcDbLine
 62
7
  6
CONTINUOUS
 10
171.4682425282
 20
131.1702177901
 11
168.7978498882
 21
131.1702177901
  0
LINE
  5
535
100
AcDbEntity
  8
ASSI
100
AcDbLine
 62
7
  6
CONTINUOUS
 10
164.3807363904
 20
131.1702177901
 11
157.5978498882
 21
131.1702177901
  0
LINE
  5
536
100
AcDbEntity
  8
0
100
AcDbLine
 62
7
  6
CONTINUOUS
 10
164.3807363904
 20
131.1702177901
 11
157.5978498882
 21
131.1702177901
  0
LINE
  5
537
100
AcDbEntity
  8
ASSI
100
AcDbLine
 62
7
  6
CONTINUOUS
 10
153.1807363904
 20
131.1702177901
 11
150.5103437504
 21
131.1702177901
  0
LINE
  5
538
100
AcDbEntity
  8
0
100
AcDbLine
 62
7
  6
CONTINUOUS
 10
153.1807363904
 20
131.1702177901
 11
150.5103437504
 21
131.1702177901
  0
LINE
  5
539
100
AcDbEntity
  8
ASSI
100
AcDbLine
 62
7
  6
CONTINUOUS
 10
149.2682425282
 20
131.1702177901
 11
146.5978498882
 21
131.1702177901
  0
LINE
  5
53A
100
AcDbEntity
  8
0
100
AcDbLine
 62
7
  6
CONTINUOUS
 10
149.2682425282
 20
131.1702177901
 11
146.5978498882
 21
131.1702177901
  0
LINE
  5
53B
100
AcDbEntity
  8
ASSI
100
AcDbLine
 62
7
  6
CONTINUOUS
 10
142.1807363904
 20
131.1702177901
 11
135.3978498882
 21
131.1702177901
  0
LINE
  5
53C
100
AcDbEntity
  8
0
100
AcDbLine
 62
7
  6
CONTINUOUS
 10
142.1807363904
 20
131.1702177901
 11
135.3978498882
 21
131.1702177901
  0
LINE
  5
53D
100
AcDbEntity
  8
ASSI
100
AcDbLine
 62
7
  6
CONTINUOUS
 10
130.9807363904
 20
131.1702177901
 11
128.3103437504
 21
131.1702177901
  0
LINE
  5
53E
100
AcDbEntity
  8
0
100
AcDbLine
 62
7
  6
CONTINUOUS
 10
130.9807363904
 20
131.1702177901
 11
128.3103437504
 21
131.1702177901
  0
LINE
  5
53F
100
AcDbEntity
  8
ASSI
100
AcDbLine
 62
253
  6
CONTINUOUS
 10
139.0868617577
 20
131.019442445
 11
135.7191341007
 21
131.0210293796
  0
LINE
  5
540
100
AcDbEntity
  8
0
100
AcDbLine
 62
253
  6
CONTINUOUS
 10
139.0868617577
 20
131.019442445
 11
135.7191341007
 21
131.0210293796
  0
LINE
  5
541
100
AcDbEntity
  8
ASSI
100
AcDbLine
 62
253
  6
CONTINUOUS
 10
161.2868617577
 20
131.019442445
 11
157.9191341007
 21
131.0210293796
  0
LINE
  5
542
100
AcDbEntity
  8
0
100
AcDbLine
 62
253
  6
CONTINUOUS
 10
161.2868617577
 20
131.019442445
 11
157.9191341007
 21
131.0210293796
  0
LINE
  5
543
100
AcDbEntity
  8
ASSI
100
AcDbLine
 62
253
  6
CONTINUOUS
 10
135.7191341007
 20
131.0210293796
 11
132.248120459
 21
131.0267149231
  0
LINE
  5
544
100
AcDbEntity
  8
0
100
AcDbLine
 62
253
  6
CONTINUOUS
 10
135.7191341007
 20
131.0210293796
 11
132.248120459
 21
131.0267149231
  0
LINE
  5
545
100
AcDbEntity
  8
ASSI
100
AcDbLine
 62
253
  6
CONTINUOUS
 10
157.9191341007
 20
131.0210293796
 11
154.448120459
 21
131.0267149231
  0
LINE
  5
546
100
AcDbEntity
  8
0
100
AcDbLine
 62
253
  6
CONTINUOUS
 10
157.9191341007
 20
131.0210293796
 11
154.448120459
 21
131.0267149231
  0
LWPOLYLINE
  5
547
100
AcDbEntity
  8
ASSI
100
AcDbPolyline
 62
253
  6
CONTINUOUS
 90
3
 70
0
 10
132.248120459
 20
131.0267149231
 10
129.194034218
 20
131.0351420492
 10
128.3764558036
 20
131.0379029551
  0
LWPOLYLINE
  5
548
100
AcDbEntity
  8
0
100
AcDbPolyline
 62
253
  6
CONTINUOUS
 90
3
 70
0
 10
132.248120459
 20
131.0267149231
 10
129.194034218
 20
131.0351420492
 10
128.3764558036
 20
131.0379029551
  0
LWPOLYLINE
  5
549
100
AcDbEntity
  8
ASSI
100
AcDbPolyline
 62
253
  6
CONTINUOUS
 90
3
 70
0
 10
154.448120459
 20
131.0267149231
 10
151.394034218
 20
131.0351420492
 10
150.5764558036
 20
131.0379029551
  0
LWPOLYLINE
  5
54A
100
AcDbEntity
  8
0
100
AcDbPolyline
 62
253
  6
CONTINUOUS
 90
3
 70
0
 10
154.448120459
 20
131.0267149231
 10
151.394034218
 20
131.0351420492
 10
150.5764558036
 20
131.0379029551
  0
LWPOLYLINE
  5
54B
100
AcDbEntity
  8
ASSI
100
AcDbPolyline
 62
253
  6
CONTINUOUS
 90
15
 70
0
 10
171.4181908647
 20
129.89078048
 10
171.5151939543
 20
129.8899734782
 10
171.5620309027
 20
129.8892674184
 10
171.6071485403
 20
129.8883681339
 10
171.650109419
 20
129.8872843437
 10
171.6904970021
 20
129.8860265557
 10
171.7279197027
 20
129.884606965
 10
171.7620146808
 20
129.8830393356
 10
171.7924513608
 20
129.8813388669
 10
171.8189346372
 20
129.8795220461
 10
171.8412077354
 20
129.8776064885
 10
171.8590547017
 20
129.8756107669
 10
171.8723024968
 20
129.8735542312
 10
171.8808226737
 20
129.8714568211
 10
171.8845326232
 20
129.8693388725
  0
LWPOLYLINE
  5
54C
100
AcDbEntity
  8
0
100
AcDbPolyline
 62
253
  6
CONTINUOUS
 90
15
 70
0
 10
171.4181908647
 20
129.89078048
 10
171.5151939543
 20
129.8899734782
 10
171.5620309027
 20
129.8892674184
 10
171.6071485403
 20
129.8883681339
 10
171.650109419
 20
129.8872843437
 10
171.6904970021
 20
129.8860265557
 10
171.7279197027
 20
129.884606965
 10
171.7620146808
 20
129.8830393356
 10
171.7924513608
 20
129.8813388669
 10
171.8189346372
 20
129.8795220461
 10
171.8412077354
 20
129.8776064885
 10
171.8590547017
 20
129.8756107669
 10
171.8723024968
 20
129.8735542312
 10
171.8808226737
 20
129.8714568211
 10
171.8845326232
 20
129.8693388725
  0
LWPOLYLINE
  5
54D
100
AcDbEntity
  8
ASSI
100
AcDbPolyline
 62
253
  6
CONTINUOUS
 90
16
 70
0
 10
149.2021304756
 20
131.0379029564
 10
149.2543314457
 20
131.0351009812
 10
149.3059614872
 20
131.0268685841
 10
149.3564559161
 20
131.0132958038
 10
149.4052624686
 20
130.9945310877
 10
149.4518473413
 20
130.9707796676
 10
149.4957010297
 20
130.9423013158
 10
149.5363439006
 20
130.9094075036
 10
149.5733314379
 20
130.8724579947
 10
149.6062591044
 20
130.8318569104
 10
149.634766766
 20
130.7880483098
 10
149.6585426311
 20
130.741511333
 10
149.6773266598
 20
130.6927549607
 10
149.6909134092
 20
130.6423124473
 10
149.6991542791
 20
130.5907354889
 10
149.7019591381
 20
130.538588189
  0
LWPOLYLINE
  5
54E
100
AcDbEntity
  8
0
100
AcDbPolyline
 62
253
  6
CONTINUOUS
 90
16
 70
0
 10
149.2021304756
 20
131.0379029564
 10
149.2543314457
 20
131.0351009812
 10
149.3059614872
 20
131.0268685841
 10
149.3564559161
 20
131.0132958038
 10
149.4052624686
 20
130.9945310877
 10
149.4518473413
 20
130.9707796676
 10
149.4957010297
 20
130.9423013158
 10
149.5363439006
 20
130.9094075036
 10
149.5733314379
 20
130.8724579947
 10
149.6062591044
 20
130.8318569104
 10
149.634766766
 20
130.7880483098
 10
149.6585426311
 20
130.741511333
 10
149.6773266598
 20
130.6927549607
 10
149.6909134092
 20
130.6423124473
 10
149.6991542791
 20
130.5907354889
 10
149.7019591381
 20
130.538588189
  0
LWPOLYLINE
  5
54F
100
AcDbEntity
  8
ASSI
100
AcDbPolyline
 62
253
  6
CONTINUOUS
 90
16
 70
0
 10
171.4021304756
 20
131.0379029564
 10
171.4543314457
 20
131.0351009812
 10
171.5059614872
 20
131.0268685841
 10
171.5564559161
 20
131.0132958038
 10
171.6052624686
 20
130.9945310877
 10
171.6518473413
 20
130.9707796676
 10
171.6957010297
 20
130.9423013158
 10
171.7363439006
 20
130.9094075036
 10
171.7733314379
 20
130.8724579947
 10
171.8062591044
 20
130.8318569104
 10
171.834766766
 20
130.7880483098
 10
171.8585426311
 20
130.741511333
 10
171.8773266598
 20
130.6927549607
 10
171.8909134092
 20
130.6423124473
 10
171.8991542791
 20
130.5907354889
 10
171.9019591381
 20
130.538588189
  0
LWPOLYLINE
  5
550
100
AcDbEntity
  8
0
100
AcDbPolyline
 62
253
  6
CONTINUOUS
 90
16
 70
0
 10
171.4021304756
 20
131.0379029564
 10
171.4543314457
 20
131.0351009812
 10
171.5059614872
 20
131.0268685841
 10
171.5564559161
 20
131.0132958038
 10
171.6052624686
 20
130.9945310877
 10
171.6518473413
 20
130.9707796676
 10
171.6957010297
 20
130.9423013158
 10
171.7363439006
 20
130.9094075036
 10
171.7733314379
 20
130.8724579947
 10
171.8062591044
 20
130.8318569104
 10
171.834766766
 20
130.7880483098
 10
171.8585426311
 20
130.741511333
 10
171.8773266598
 20
130.6927549607
 10
171.8909134092
 20
130.6423124473
 10
171.8991542791
 20
130.5907354889
 10
171.9019591381
 20
130.538588189
  0
LINE
  5
551
100
AcDbEntity
  8
ASSI
100
AcDbLine
 62
7
  6
CONTINUOUS
 10
142.1807363904
 20
131.1702177901
 11
142.5315581124
 21
131.1383726723
  0
LINE
  5
552
100
AcDbEntity
  8
0
100
AcDbLine
 62
7
  6
CONTINUOUS
 10
142.1807363904
 20
131.1702177901
 11
142.5315581124
 21
131.1383726723
  0
LINE
  5
553
100
AcDbEntity
  8
ASSI
100
AcDbLine
 62
7
  6
CONTINUOUS
 10
153.1807363904
 20
131.1702177901
 11
153.5315581124
 21
131.1383726723
  0
LINE
  5
554
100
AcDbEntity
  8
0
100
AcDbLine
 62
7
  6
CONTINUOUS
 10
153.1807363904
 20
131.1702177901
 11
153.5315581124
 21
131.1383726723
  0
LINE
  5
555
100
AcDbEntity
  8
ASSI
100
AcDbLine
 62
7
  6
CONTINUOUS
 10
164.3807363904
 20
131.1702177901
 11
164.7315581124
 21
131.1383726723
  0
LINE
  5
556
100
AcDbEntity
  8
0
100
AcDbLine
 62
7
  6
CONTINUOUS
 10
164.3807363904
 20
131.1702177901
 11
164.7315581124
 21
131.1383726723
  0
LWPOLYLINE
  5
557
100
AcDbEntity
  8
ASSI
100
AcDbPolyline
 62
253
  6
CONTINUOUS
 90
7
 70
0
 10
171.402130475
 20
86.9891240719
 10
171.4031821714
 20
86.996510009
 10
171.4042756899
 20
87.0097856804
 10
171.4053831515
 20
87.0288824585
 10
171.4064559164
 20
87.0537021087
 10
171.4074880476
 20
87.0841195856
 10
171.4095174747
 20
87.1611243575
  0
LWPOLYLINE
  5
558
100
AcDbEntity
  8
0
100
AcDbPolyline
 62
253
  6
CONTINUOUS
 90
7
 70
0
 10
171.402130475
 20
86.9891240719
 10
171.4031821714
 20
86.996510009
 10
171.4042756899
 20
87.0097856804
 10
171.4053831515
 20
87.0288824585
 10
171.4064559164
 20
87.0537021087
 10
171.4074880476
 20
87.0841195856
 10
171.4095174747
 20
87.1611243575
  0
LINE
  5
559
100
AcDbEntity
  8
0
100
AcDbLine
 62
7
  6
CONTINUOUS
 10
117.3303112832
 20
86.8568092369
 11
114.4530548434
 21
87.0075998573
  0
LINE
  5
55A
100
AcDbEntity
  8
ASSI
100
AcDbLine
 62
7
  6
CONTINUOUS
 10
117.3303112832
 20
86.8568092369
 11
114.4530548434
 21
87.0075998573
  0
LWPOLYLINE
  5
55B
100
AcDbEntity
  8
0
100
AcDbPolyline
 62
253
  6
CONTINUOUS
 90
5
 70
0
 10
114.8055938307
 20
86.9891240719
 10
114.7213856603
 20
86.996510009
 10
114.6379225986
 20
87.0097856804
 10
114.5556154504
 20
87.0288824585
 10
114.4748703338
 20
87.0537021087
  0
LWPOLYLINE
  5
55C
100
AcDbEntity
  8
ASSI
100
AcDbPolyline
 62
253
  6
CONTINUOUS
 90
5
 70
0
 10
114.8055938307
 20
86.9891240719
 10
114.7213856603
 20
86.996510009
 10
114.6379225986
 20
87.0097856804
 10
114.5556154504
 20
87.0288824585
 10
114.4748703338
 20
87.0537021087
  0
LWPOLYLINE
  5
55D
100
AcDbEntity
  8
0
100
AcDbPolyline
 62
253
  6
CONTINUOUS
 90
5
 70
0
 10
114.4748703531
 20
130.9733249178
 10
114.5556154685
 20
130.9981445682
 10
114.6379226173
 20
131.0172413469
 10
114.7213856807
 20
131.0305170188
 10
114.8055938542
 20
131.0379029564
  0
LWPOLYLINE
  5
55E
100
AcDbEntity
  8
ASSI
100
AcDbPolyline
 62
253
  6
CONTINUOUS
 90
5
 70
0
 10
114.4748703531
 20
130.9733249178
 10
114.5556154685
 20
130.9981445682
 10
114.6379226173
 20
131.0172413469
 10
114.7213856807
 20
131.0305170188
 10
114.8055938542
 20
131.0379029564
  0
LINE
  5
55F
100
AcDbEntity
  8
0
100
AcDbLine
 62
253
  6
CONTINUOUS
 10
113.6678537766
 20
88.1362460005
 11
113.6735581116
 21
88.1365470229
  0
LINE
  5
560
100
AcDbEntity
  8
ASSI
100
AcDbLine
 62
253
  6
CONTINUOUS
 10
113.6678537766
 20
88.1362460005
 11
113.6735581116
 21
88.1365470229
  0
LINE
  5
561
100
AcDbEntity
  8
0
100
AcDbLine
 62
253
  6
CONTINUOUS
 10
113.6735581116
 20
88.1365470229
 11
113.877140953
 21
88.1456878862
  0
LINE
  5
562
100
AcDbEntity
  8
ASSI
100
AcDbLine
 62
253
  6
CONTINUOUS
 10
113.6735581116
 20
88.1365470229
 11
113.877140953
 21
88.1456878862
  0
LINE
  5
563
100
AcDbEntity
  8
0
100
AcDbLine
 62
253
  6
CONTINUOUS
 10
113.877140953
 20
88.1456878862
 11
114.1531815927
 21
88.1576881567
  0
LINE
  5
564
100
AcDbEntity
  8
ASSI
100
AcDbLine
 62
253
  6
CONTINUOUS
 10
113.877140953
 20
88.1456878862
 11
114.1531815927
 21
88.1576881567
  0
LINE
  5
565
100
AcDbEntity
  8
0
100
AcDbLine
 62
253
  6
CONTINUOUS
 10
113.3174961716
 20
88.1433445633
 11
113.6678537742
 21
88.1362460144
  0
LINE
  5
566
100
AcDbEntity
  8
ASSI
100
AcDbLine
 62
253
  6
CONTINUOUS
 10
113.3174961716
 20
88.1433445633
 11
113.6678537742
 21
88.1362460144
  0
LINE
  5
567
100
AcDbEntity
  8
0
100
AcDbLine
 62
253
  6
CONTINUOUS
 10
117.3738559793
 20
87.3545273912
 11
114.8186733347
 21
87.4884388393
  0
LINE
  5
568
100
AcDbEntity
  8
ASSI
100
AcDbLine
 62
253
  6
CONTINUOUS
 10
117.3738559793
 20
87.3545273912
 11
114.8186733347
 21
87.4884388393
  0
LWPOLYLINE
  5
569
100
AcDbEntity
  8
0
100
AcDbPolyline
 62
253
  6
CONTINUOUS
 90
22
 70
0
 10
114.8186733347
 20
87.4884388393
 10
114.7692664342
 20
87.4927913485
 10
114.7206921976
 20
87.5004851183
 10
114.6729506251
 20
87.5115201488
 10
114.6257915975
 20
87.5259853516
 10
114.5794652339
 20
87.5437918151
 10
114.5347218915
 20
87.5646728041
 10
114.4916068882
 20
87.5886730655
 10
114.4500749062
 20
87.6157478524
 10
114.4107403489
 20
87.6454961897
 10
114.3736358959
 20
87.6779597249
 10
114.3387288678
 20
87.7130968103
 10
114.3065356293
 20
87.7503815282
 10
114.2770994845
 20
87.7898435562
 10
114.2503771293
 20
87.8314532166
 10
114.2267550163
 20
87.8745955581
 10
114.2062774719
 20
87.9193144061
 10
114.1889001696
 20
87.9655659351
 10
114.1748765832
 20
88.0126037175
 10
114.1642912038
 20
88.0601789439
 10
114.1570595403
 20
88.1085404236
 10
114.1531815927
 20
88.1576881567
  0
LWPOLYLINE
  5
56A
100
AcDbEntity
  8
ASSI
100
AcDbPolyline
 62
253
  6
CONTINUOUS
 90
22
 70
0
 10
114.8186733347
 20
87.4884388393
 10
114.7692664342
 20
87.4927913485
 10
114.7206921976
 20
87.5004851183
 10
114.6729506251
 20
87.5115201488
 10
114.6257915975
 20
87.5259853516
 10
114.5794652339
 20
87.5437918151
 10
114.5347218915
 20
87.5646728041
 10
114.4916068882
 20
87.5886730655
 10
114.4500749062
 20
87.6157478524
 10
114.4107403489
 20
87.6454961897
 10
114.3736358959
 20
87.6779597249
 10
114.3387288678
 20
87.7130968103
 10
114.3065356293
 20
87.7503815282
 10
114.2770994845
 20
87.7898435562
 10
114.2503771293
 20
87.8314532166
 10
114.2267550163
 20
87.8745955581
 10
114.2062774719
 20
87.9193144061
 10
114.1889001696
 20
87.9655659351
 10
114.1748765832
 20
88.0126037175
 10
114.1642912038
 20
88.0601789439
 10
114.1570595403
 20
88.1085404236
 10
114.1531815927
 20
88.1576881567
  0
LWPOLYLINE
  5
56B
100
AcDbEntity
  8
0
100
AcDbPolyline
 62
253
  6
CONTINUOUS
 90
18
 70
0
 10
114.4748703338
 20
87.0537021087
 10
114.3960824706
 20
87.0841195856
 10
114.3196349802
 20
87.1199856142
 10
114.245899771
 20
87.1611243575
 10
114.175243241
 20
87.2073298003
 10
114.1080201645
 20
87.2583694264
 10
114.0445614501
 20
87.3139881807
 10
113.9851759476
 20
87.3739109491
 10
113.930156887
 20
87.4378407802
 10
113.8797729955
 20
87.5054613757
 10
113.8342703152
 20
87.576437533
 10
113.7938736449
 20
87.6504169732
 10
113.758782014
 20
87.727028009
 10
113.7291620419
 20
87.805897582
 10
113.7051540955
 20
87.8866534706
 10
113.6868767976
 20
87.9689039634
 10
113.6744225277
 20
88.0522383494
 10
113.6678537664
 20
88.1362460143
  0
LWPOLYLINE
  5
56C
100
AcDbEntity
  8
ASSI
100
AcDbPolyline
 62
253
  6
CONTINUOUS
 90
18
 70
0
 10
114.4748703338
 20
87.0537021087
 10
114.3960824706
 20
87.0841195856
 10
114.3196349802
 20
87.1199856142
 10
114.245899771
 20
87.1611243575
 10
114.175243241
 20
87.2073298003
 10
114.1080201645
 20
87.2583694264
 10
114.0445614501
 20
87.3139881807
 10
113.9851759476
 20
87.3739109491
 10
113.930156887
 20
87.4378407802
 10
113.8797729955
 20
87.5054613757
 10
113.8342703152
 20
87.576437533
 10
113.7938736449
 20
87.6504169732
 10
113.758782014
 20
87.727028009
 10
113.7291620419
 20
87.805897582
 10
113.7051540955
 20
87.8866534706
 10
113.6868767976
 20
87.9689039634
 10
113.6744225277
 20
88.0522383494
 10
113.6678537664
 20
88.1362460143
  0
LINE
  5
56D
100
AcDbEntity
  8
0
100
AcDbLine
 62
253
  6
CONTINUOUS
 10
117.7226702363
 20
91.0800219123
 11
117.699794516
 21
91.0800219125
  0
LINE
  5
56E
100
AcDbEntity
  8
ASSI
100
AcDbLine
 62
253
  6
CONTINUOUS
 10
117.7226702363
 20
91.0800219123
 11
117.699794516
 21
91.0800219125
  0
LINE
  5
56F
100
AcDbEntity
  8
0
100
AcDbLine
 62
253
  6
CONTINUOUS
 10
113.0236044484
 20
94.8470555135
 11
113.0236621416
 21
94.8470557165
  0
LWPOLYLINE
  5
570
100
AcDbEntity
  8
0
100
AcDbPolyline
 62
253
  6
CONTINUOUS
 90
11
 70
0
 10
114.8055938542
 20
131.0379029564
 10
114.8043737702
 20
131.0351009812
 10
114.8034532325
 20
131.0268685841
 10
114.8028423091
 20
131.0132958038
 10
114.8025476816
 20
130.9945310877
 10
114.8025725726
 20
130.9707796676
 10
114.8029167102
 20
130.9423013158
 10
114.8035763305
 20
130.9094075036
 10
114.8045442191
 20
130.8724579947
 10
114.8058097902
 20
130.8318569104
 10
114.8091755085
 20
130.741511333
  0
LWPOLYLINE
  5
571
100
AcDbEntity
  8
ASSI
100
AcDbPolyline
 62
253
  6
CONTINUOUS
 90
11
 70
0
 10
114.8055938542
 20
131.0379029564
 10
114.8043737702
 20
131.0351009812
 10
114.8034532325
 20
131.0268685841
 10
114.8028423091
 20
131.0132958038
 10
114.8025476816
 20
130.9945310877
 10
114.8025725726
 20
130.9707796676
 10
114.8029167102
 20
130.9423013158
 10
114.8035763305
 20
130.9094075036
 10
114.8045442191
 20
130.8724579947
 10
114.8058097902
 20
130.8318569104
 10
114.8091755085
 20
130.741511333
  0
LWPOLYLINE
  5
572
100
AcDbEntity
  8
0
100
AcDbPolyline
 62
253
  6
CONTINUOUS
 90
9
 70
0
 10
114.8055938307
 20
86.9891240719
 10
114.8043737288
 20
86.9919261171
 10
114.8034531824
 20
87.0001587065
 10
114.8028422587
 20
87.0137317768
 10
114.8025476382
 20
87.0324968612
 10
114.8025725425
 20
87.0562486972
 10
114.8029166978
 20
87.0847274574
 10
114.803576338
 20
87.117621626
 10
114.8045442462
 20
87.1545714104
  0
LWPOLYLINE
  5
573
100
AcDbEntity
  8
ASSI
100
AcDbPolyline
 62
253
  6
CONTINUOUS
 90
9
 70
0
 10
114.8055938307
 20
86.9891240719
 10
114.8043737288
 20
86.9919261171
 10
114.8034531824
 20
87.0001587065
 10
114.8028422587
 20
87.0137317768
 10
114.8025476382
 20
87.0324968612
 10
114.8025725425
 20
87.0562486972
 10
114.8029166978
 20
87.0847274574
 10
114.803576338
 20
87.117621626
 10
114.8045442462
 20
87.1545714104
  0
LINE
  5
574
100
AcDbEntity
  8
0
100
AcDbLine
 62
253
  6
CONTINUOUS
 10
112.8702686551
 20
100.1799716916
 11
112.870207072
 21
100.1799715135
  0
LWPOLYLINE
  5
575
100
AcDbEntity
  8
0
100
AcDbPolyline
 62
253
  6
CONTINUOUS
 90
4
 70
0
 10
112.8702686591
 20
100.1799715135
 10
112.8702793312
 20
100.1798487384
 10
112.8702959024
 20
100.1794807165
 10
112.8703183495
 20
100.1788679027
  0
LWPOLYLINE
  5
576
100
AcDbEntity
  8
ASSI
100
AcDbPolyline
 62
7
  6
CONTINUOUS
 90
4
 70
0
 10
113.0246990494
 20
94.816203022
 10
113.1111253083
 20
92.5620298244
 10
113.210261775
 20
90.308374167
 10
113.3174961761
 20
88.1433444762
  0
LINE
  5
577
100
AcDbEntity
  8
0
100
AcDbLine
 62
253
  6
CONTINUOUS
 10
113.0153440419
 20
95.0970555135
 11
113.0194752574
 21
94.9765169083
  0
LINE
  5
578
100
AcDbEntity
  8
0
100
AcDbLine
 62
253
  6
CONTINUOUS
 10
113.0194719913
 20
123.0504132315
 11
113.0153440419
 21
122.9299715135
  0
LWPOLYLINE
  5
579
100
AcDbEntity
  8
0
100
AcDbPolyline
 62
7
  6
CONTINUOUS
 90
8
 70
0
 10
113.3174961761
 20
129.8836825508
 10
113.210261775
 20
127.7186528601
 10
113.1111253083
 20
125.4649972026
 10
113.0246990494
 20
123.210824005
 10
112.9509859162
 20
120.956204937
 10
112.8899888273
 20
118.7012116854
 10
112.8417107012
 20
116.445915954
 10
112.8102151807
 20
114.4951795613
  0
LWPOLYLINE
  5
57A
100
AcDbEntity
  8
ASSI
100
AcDbPolyline
 62
7
  6
CONTINUOUS
 90
4
 70
0
 10
113.3174961761
 20
129.8836825508
 10
113.210261775
 20
127.7186528601
 10
113.1111253083
 20
125.4649972026
 10
113.0246990494
 20
123.210824005
  0
LWPOLYLINE
  5
57B
100
AcDbEntity
  8
0
100
AcDbPolyline
 62
253
  6
CONTINUOUS
 90
18
 70
0
 10
113.6678537915
 20
129.8907809941
 10
113.674422553
 20
129.9747886735
 10
113.6868768244
 20
130.0581230697
 10
113.7051541242
 20
130.1403735686
 10
113.7291620716
 20
130.2211294578
 10
113.7587820432
 20
130.2999990275
 10
113.7938736732
 20
130.3766100604
 10
113.8342703434
 20
130.4505894996
 10
113.8797730235
 20
130.5215656563
 10
113.9301569148
 20
130.5891862511
 10
113.9851759749
 20
130.6531160814
 10
114.0445614768
 20
130.713038849
 10
114.1080201904
 20
130.7686576027
 10
114.1752432661
 20
130.8196972282
 10
114.2458997954
 20
130.8659026706
 10
114.3196350036
 20
130.9070414135
 10
114.3960824921
 20
130.9429074415
 10
114.4748703531
 20
130.9733249178
  0
LWPOLYLINE
  5
57C
100
AcDbEntity
  8
ASSI
100
AcDbPolyline
 62
253
  6
CONTINUOUS
 90
18
 70
0
 10
113.6678537915
 20
129.8907809941
 10
113.674422553
 20
129.9747886735
 10
113.6868768244
 20
130.0581230697
 10
113.7051541242
 20
130.1403735686
 10
113.7291620716
 20
130.2211294578
 10
113.7587820432
 20
130.2999990275
 10
113.7938736732
 20
130.3766100604
 10
113.8342703434
 20
130.4505894996
 10
113.8797730235
 20
130.5215656563
 10
113.9301569148
 20
130.5891862511
 10
113.9851759749
 20
130.6531160814
 10
114.0445614768
 20
130.713038849
 10
114.1080201904
 20
130.7686576027
 10
114.1752432661
 20
130.8196972282
 10
114.2458997954
 20
130.8659026706
 10
114.3196350036
 20
130.9070414135
 10
114.3960824921
 20
130.9429074415
 10
114.4748703531
 20
130.9733249178
  0
LWPOLYLINE
  5
57D
100
AcDbEntity
  8
0
100
AcDbPolyline
 62
253
  6
CONTINUOUS
 90
22
 70
0
 10
114.1531816057
 20
129.8693388725
 10
114.157059559
 20
129.9184866055
 10
114.1642912267
 20
129.9668480851
 10
114.1748766089
 20
130.0144233115
 10
114.1889001964
 20
130.0614610939
 10
114.2062774984
 20
130.107712623
 10
114.2267550425
 20
130.152431471
 10
114.2503771554
 20
130.1955738125
 10
114.2770995105
 20
130.2371834729
 10
114.3065356552
 20
130.2766455009
 10
114.3387288937
 20
130.3139302188
 10
114.3736359217
 20
130.3490673042
 10
114.4107403746
 20
130.3815308392
 10
114.4500749317
 20
130.4112791764
 10
114.4916069136
 20
130.4383539632
 10
114.5347219167
 20
130.4623542245
 10
114.5794652588
 20
130.4832352135
 10
114.6257916221
 20
130.501041677
 10
114.6729506494
 20
130.5155068798
 10
114.7206922217
 20
130.5265419102
 10
114.7692664579
 20
130.5342356799
 10
114.8186733582
 20
130.538588189
  0
LWPOLYLINE
  5
57E
100
AcDbEntity
  8
ASSI
100
AcDbPolyline
 62
253
  6
CONTINUOUS
 90
22
 70
0
 10
114.1531816057
 20
129.8693388725
 10
114.157059559
 20
129.9184866055
 10
114.1642912267
 20
129.9668480851
 10
114.1748766089
 20
130.0144233115
 10
114.1889001964
 20
130.0614610939
 10
114.2062774984
 20
130.107712623
 10
114.2267550425
 20
130.152431471
 10
114.2503771554
 20
130.1955738125
 10
114.2770995105
 20
130.2371834729
 10
114.3065356552
 20
130.2766455009
 10
114.3387288937
 20
130.3139302188
 10
114.3736359217
 20
130.3490673042
 10
114.4107403746
 20
130.3815308392
 10
114.4500749317
 20
130.4112791764
 10
114.4916069136
 20
130.4383539632
 10
114.5347219167
 20
130.4623542245
 10
114.5794652588
 20
130.4832352135
 10
114.6257916221
 20
130.501041677
 10
114.6729506494
 20
130.5155068798
 10
114.7206922217
 20
130.5265419102
 10
114.7692664579
 20
130.5342356799
 10
114.8186733582
 20
130.538588189
  0
LWPOLYLINE
  5
57F
100
AcDbEntity
  8
SUPERFICI
100
AcDbPolyline
 62
7
  6
CONTINUOUS
 90
4
 70
0
 10
112.8100584444
 20
112.5343074522
 10
112.8114169374
 20
112.5413911701
 10
112.8128364178
 20
112.5531394166
 10
112.814323753
 20
112.5696472032
  0
LINE
  5
580
100
AcDbEntity
  8
SUPERFICI
100
AcDbLine
 62
7
  6
CONTINUOUS
 10
112.80876218
 20
112.5318882696
 11
112.8100584444
 21
112.5343074522
  0
LINE
  5
581
100
AcDbEntity
  8
0
100
AcDbLine
 62
7
  6
CONTINUOUS
 10
112.8306611431
 20
103.5318504494
 11
112.8124869722
 21
103.5318477943
  0
LINE
  5
582
100
AcDbEntity
  8
ASSI
100
AcDbLine
 62
7
  6
CONTINUOUS
 10
112.8306611431
 20
103.5318504494
 11
112.8124869722
 21
103.5318477943
  0
LINE
  5
583
100
AcDbEntity
  8
SUPERFICI
100
AcDbLine
 62
7
  6
CONTINUOUS
 10
112.8102151807
 20
103.5318474622
 11
112.8306611436
 21
103.5318504494
  0
LINE
  5
584
100
AcDbEntity
  8
SUPERFICI
100
AcDbLine
 62
7
  6
CONTINUOUS
 10
112.8100583423
 20
105.4927223875
 11
112.808762182
 21
105.4951387574
  0
LWPOLYLINE
  5
585
100
AcDbEntity
  8
0
100
AcDbPolyline
 62
7
  6
CONTINUOUS
 90
4
 70
0
 10
112.8087541408
 20
105.4951387682
 10
112.8103970892
 20
105.4912282407
 10
112.8121247951
 20
105.4802245583
 10
112.8139337877
 20
105.4621277333
  0
LWPOLYLINE
  5
586
100
AcDbEntity
  8
ASSI
100
AcDbPolyline
 62
7
  6
CONTINUOUS
 90
4
 70
0
 10
112.8087541408
 20
105.4951387682
 10
112.8103970892
 20
105.4912282407
 10
112.8121247951
 20
105.4802245583
 10
112.8139337877
 20
105.4621277333
  0
LWPOLYLINE
  5
587
100
AcDbEntity
  8
0
100
AcDbPolyline
 62
7
  6
CONTINUOUS
 90
5
 70
0
 10
112.8139337877
 20
105.4621277333
 10
112.8158339643
 20
105.4367399972
 10
112.8178105685
 20
105.4042591556
 10
112.8198206558
 20
105.3652785798
 10
112.8218629141
 20
105.3195773776
  0
LWPOLYLINE
  5
588
100
AcDbEntity
  8
ASSI
100
AcDbPolyline
 62
7
  6
CONTINUOUS
 90
5
 70
0
 10
112.8139337877
 20
105.4621277333
 10
112.8158339643
 20
105.4367399972
 10
112.8178105685
 20
105.4042591556
 10
112.8198206558
 20
105.3652785798
 10
112.8218629141
 20
105.3195773776
  0
LWPOLYLINE
  5
589
100
AcDbEntity
  8
0
100
AcDbPolyline
 62
7
  6
CONTINUOUS
 90
5
 70
0
 10
112.8350619879
 20
114.4621316436
 10
112.8363827535
 20
114.4367467871
 10
112.8376228788
 20
114.4042750404
 10
112.8387532245
 20
114.3653046731
 10
112.8397678652
 20
114.3196133387
  0
LWPOLYLINE
  5
58A
100
AcDbEntity
  8
ASSI
100
AcDbPolyline
 62
7
  6
CONTINUOUS
 90
5
 70
0
 10
112.8350619879
 20
114.4621316436
 10
112.8363827535
 20
114.4367467871
 10
112.8376228788
 20
114.4042750404
 10
112.8387532245
 20
114.3653046731
 10
112.8397678652
 20
114.3196133387
  0
LWPOLYLINE
  5
58B
100
AcDbEntity
  8
0
100
AcDbPolyline
 62
253
  6
CONTINUOUS
 90
16
 70
0
 10
113.2193178305
 20
109.7527341738
 10
113.222082156
 20
109.6997462405
 10
113.2301284027
 20
109.6484963941
 10
113.24323917
 20
109.5988669729
 10
113.2615255197
 20
109.5505360921
 10
113.285009214
 20
109.5038245322
 10
113.3131658461
 20
109.4598542303
 10
113.3455436001
 20
109.4193142607
 10
113.3820762968
 20
109.3822784139
 10
113.4223119756
 20
109.3491808538
 10
113.465660899
 20
109.3205396286
 10
113.5117099406
 20
109.2966184962
 10
113.5600881462
 20
109.2775802759
 10
113.6102484647
 20
109.2636822754
 10
113.6614825707
 20
109.2551368208
 10
113.7131302394
 20
109.2519949861
  0
LWPOLYLINE
  5
58C
100
AcDbEntity
  8
ASSI
100
AcDbPolyline
 62
253
  6
CONTINUOUS
 90
16
 70
0
 10
113.2193178305
 20
109.7527341738
 10
113.222082156
 20
109.6997462405
 10
113.2301284027
 20
109.6484963941
 10
113.24323917
 20
109.5988669729
 10
113.2615255197
 20
109.5505360921
 10
113.285009214
 20
109.5038245322
 10
113.3131658461
 20
109.4598542303
 10
113.3455436001
 20
109.4193142607
 10
113.3820762968
 20
109.3822784139
 10
113.4223119756
 20
109.3491808538
 10
113.465660899
 20
109.3205396286
 10
113.5117099406
 20
109.2966184962
 10
113.5600881462
 20
109.2775802759
 10
113.6102484647
 20
109.2636822754
 10
113.6614825707
 20
109.2551368208
 10
113.7131302394
 20
109.2519949861
  0
LWPOLYLINE
  5
58D
100
AcDbEntity
  8
SUPERFICI
100
AcDbPolyline
 62
7
  6
CONTINUOUS
 90
8
 70
0
 10
112.8207030663
 20
105.3462937572
 10
112.8190636035
 20
105.3806393915
 10
112.8174528761
 20
105.4106235242
 10
112.8158722341
 20
105.4361746991
 10
112.8143245975
 20
105.4573643521
 10
112.8128365691
 20
105.4738862196
 10
112.8114168815
 20
105.4856382059
 10
112.8103010296
 20
105.4914568808
  0
LWPOLYLINE
  5
58E
100
AcDbEntity
  8
0
100
AcDbPolyline
 62
253
  6
CONTINUOUS
 90
10
 70
0
 10
113.6678537742
 20
88.1362460144
 10
113.5737668046
 20
90.4509100959
 10
113.4920097406
 20
92.7275218439
 10
113.4220443902
 20
94.9660113645
 10
113.3639576086
 20
97.1410926077
 10
113.3163891472
 20
99.2779225657
 10
113.2776480669
 20
101.452126022
 10
113.2479581392
 20
103.6888955826
 10
113.2283405331
 20
105.962966415
 10
113.2193179109
 20
108.2742928442
  0
LWPOLYLINE
  5
58F
100
AcDbEntity
  8
ASSI
100
AcDbPolyline
 62
253
  6
CONTINUOUS
 90
10
 70
0
 10
113.6678537742
 20
88.1362460144
 10
113.5737668046
 20
90.4509100959
 10
113.4920097406
 20
92.7275218439
 10
113.4220443902
 20
94.9660113645
 10
113.3639576086
 20
97.1410926077
 10
113.3163891472
 20
99.2779225657
 10
113.2776480669
 20
101.452126022
 10
113.2479581392
 20
103.6888955826
 10
113.2283405331
 20
105.962966415
 10
113.2193179109
 20
108.2742928442
  0
LWPOLYLINE
  5
590
100
AcDbEntity
  8
0
100
AcDbPolyline
 62
253
  6
CONTINUOUS
 90
10
 70
0
 10
114.1531815927
 20
88.1576881567
 10
114.0599378507
 20
90.4700678735
 10
113.9779646032
 20
92.7443064599
 10
113.9072618501
 20
94.9804039158
 10
113.8483970204
 20
97.1532111241
 10
113.8008026852
 20
99.2878772019
 10
113.7627765572
 20
101.4598495012
 10
113.7337512074
 20
103.6942771394
 10
113.714294065
 20
105.9660109991
 10
113.7037879109
 20
108.3779610126
  0
LWPOLYLINE
  5
591
100
AcDbEntity
  8
ASSI
100
AcDbPolyline
 62
253
  6
CONTINUOUS
 90
10
 70
0
 10
114.1531815927
 20
88.1576881567
 10
114.0599378507
 20
90.4700678735
 10
113.9779646032
 20
92.7443064599
 10
113.9072618501
 20
94.9804039158
 10
113.8483970204
 20
97.1532111241
 10
113.8008026852
 20
99.2878772019
 10
113.7627765572
 20
101.4598495012
 10
113.7337512074
 20
103.6942771394
 10
113.714294065
 20
105.9660109991
 10
113.7037879109
 20
108.3779610126
  0
LINE
  5
592
100
AcDbEntity
  8
SUPERFICI
100
AcDbLine
 62
7
  6
CONTINUOUS
 10
112.8239827078
 20
105.2660552502
 11
112.8207030663
 21
105.3462937572
  0
LINE
  5
593
100
AcDbEntity
  8
0
100
AcDbLine
 62
7
  6
CONTINUOUS
 10
112.8218629141
 20
105.3195773776
 11
112.8259643521
 21
105.2099319861
  0
LINE
  5
594
100
AcDbEntity
  8
ASSI
100
AcDbLine
 62
7
  6
CONTINUOUS
 10
112.8218629141
 20
105.3195773776
 11
112.8259643521
 21
105.2099319861
  0
LINE
  5
595
100
AcDbEntity
  8
ASSI
100
AcDbLine
 62
7
  6
CONTINUOUS
 10
112.9509859162
 20
97.07082209
 11
113.0246990494
 21
94.816203022
  0
LINE
  5
596
100
AcDbEntity
  8
SUPERFICI
100
AcDbLine
 62
7
  6
CONTINUOUS
 10
112.8272239147
 20
105.1710228258
 11
112.8239827078
 21
105.2660552502
  0
LINE
  5
597
100
AcDbEntity
  8
0
100
AcDbLine
 62
253
  6
CONTINUOUS
 10
112.9751231619
 20
96.3051215359
 11
112.9385520465
 21
97.5133035581
  0
LINE
  5
598
100
AcDbEntity
  8
0
100
AcDbLine
 62
7
  6
CONTINUOUS
 10
112.8259643521
 20
105.2099319861
 11
112.8299009675
 21
105.0792701807
  0
LINE
  5
599
100
AcDbEntity
  8
ASSI
100
AcDbLine
 62
7
  6
CONTINUOUS
 10
112.8259643521
 20
105.2099319861
 11
112.8299009675
 21
105.0792701807
  0
LINE
  5
59A
100
AcDbEntity
  8
SUPERFICI
100
AcDbLine
 62
7
  6
CONTINUOUS
 10
112.8303431924
 20
105.06277939
 11
112.8272239147
 21
105.1710228258
  0
LINE
  5
59B
100
AcDbEntity
  8
0
100
AcDbLine
 62
253
  6
CONTINUOUS
 10
112.8703466494
 20
100.178010752
 11
112.870706661
 21
100.1652081875
  0
LWPOLYLINE
  5
59C
100
AcDbEntity
  8
0
100
AcDbPolyline
 62
253
  6
CONTINUOUS
 90
4
 70
0
 10
113.0236621488
 20
123.1799715135
 10
113.0236652554
 20
123.179848775
 10
113.0236601241
 20
123.1794808615
 10
113.0236467593
 20
123.178868226
  0
LWPOLYLINE
  5
59D
100
AcDbEntity
  8
0
100
AcDbPolyline
 62
253
  6
CONTINUOUS
 90
5
 70
0
 10
113.0235577253
 20
94.8514446374
 10
113.0236468166
 20
94.8481551036
 10
113.0236601311
 20
94.8475445623
 10
113.0236652439
 20
94.8471778612
 10
113.0236621488
 20
94.8470555135
  0
LWPOLYLINE
  5
59E
100
AcDbEntity
  8
SUPERFICI
100
AcDbPolyline
 62
7
  6
CONTINUOUS
 90
8
 70
0
 10
112.8392080329
 20
114.3463370155
 10
112.8383420192
 20
114.3806766845
 10
112.837408681
 20
114.4106541949
 10
112.8364079362
 20
114.4361962754
 10
112.8353437616
 20
114.4573761993
 10
112.8342346809
 20
114.4738941726
 10
112.8330866921
 20
114.4856502637
 10
112.8321044018
 20
114.4914985025
  0
LINE
  5
59F
100
AcDbEntity
  8
0
100
AcDbLine
 62
7
  6
CONTINUOUS
 10
112.8299009675
 20
105.0792701807
 11
112.833523205
 21
104.9313731039
  0
LINE
  5
5A0
100
AcDbEntity
  8
ASSI
100
AcDbLine
 62
7
  6
CONTINUOUS
 10
112.8299009675
 20
105.0792701807
 11
112.833523205
 21
104.9313731039
  0
LINE
  5
5A1
100
AcDbEntity
  8
0
100
AcDbLine
 62
253
  6
CONTINUOUS
 10
112.870706661
 20
100.1652081875
 11
112.9056311592
 21
98.721590558
  0
LINE
  5
5A2
100
AcDbEntity
  8
SUPERFICI
100
AcDbLine
 62
7
  6
CONTINUOUS
 10
112.8345835806
 20
104.8817825711
 11
112.8303431924
 21
105.06277939
  0
LWPOLYLINE
  5
5A3
100
AcDbEntity
  8
ASSI
100
AcDbPolyline
 62
7
  6
CONTINUOUS
 90
3
 70
0
 10
112.8417107012
 20
101.581111073
 10
112.8899888273
 20
99.3258153416
 10
112.9509859162
 20
97.07082209
  0
LINE
  5
5A4
100
AcDbEntity
  8
0
100
AcDbLine
 62
7
  6
CONTINUOUS
 10
112.833523205
 20
104.9313731039
 11
112.8367133322
 21
104.769534661
  0
LINE
  5
5A5
100
AcDbEntity
  8
ASSI
100
AcDbLine
 62
7
  6
CONTINUOUS
 10
112.833523205
 20
104.9313731039
 11
112.8367133322
 21
104.769534661
  0
LWPOLYLINE
  5
5A6
100
AcDbEntity
  8
0
100
AcDbPolyline
 62
253
  6
CONTINUOUS
 90
9
 70
0
 10
113.7048379685
 20
109.4181875461
 10
113.7054823674
 20
109.3810543319
 10
113.7062589776
 20
109.3479885413
 10
113.7071595306
 20
109.3193526333
 10
113.7081740901
 20
109.295471549
 10
113.70929126
 20
109.2766165891
 10
113.7104986284
 20
109.2629963665
 10
113.711783001
 20
109.2547589271
 10
113.7131302394
 20
109.2519949861
  0
LWPOLYLINE
  5
5A7
100
AcDbEntity
  8
ASSI
100
AcDbPolyline
 62
253
  6
CONTINUOUS
 90
9
 70
0
 10
113.7048379685
 20
109.4181875461
 10
113.7054823674
 20
109.3810543319
 10
113.7062589776
 20
109.3479885413
 10
113.7071595306
 20
109.3193526333
 10
113.7081740901
 20
109.295471549
 10
113.70929126
 20
109.2766165891
 10
113.7104986284
 20
109.2629963665
 10
113.711783001
 20
109.2547589271
 10
113.7131302394
 20
109.2519949861
  0
LINE
  5
5A8
100
AcDbEntity
  8
SUPERFICI
100
AcDbLine
 62
7
  6
CONTINUOUS
 10
112.8406877243
 20
114.2661053098
 11
112.8392080329
 21
114.3463370155
  0
LWPOLYLINE
  5
5A9
100
AcDbEntity
  8
0
100
AcDbPolyline
 62
7
  6
CONTINUOUS
 90
8
 70
0
 10
112.8102151807
 20
103.5318474658
 10
112.8417107012
 20
101.581111073
 10
112.8899888273
 20
99.3258153416
 10
112.9509859162
 20
97.07082209
 10
113.0246990494
 20
94.816203022
 10
113.1111253083
 20
92.5620298244
 10
113.210261775
 20
90.308374167
 10
113.3174961761
 20
88.1433444762
  0
LINE
  5
5AA
100
AcDbEntity
  8
ASSI
100
AcDbLine
 62
7
  6
CONTINUOUS
 10
112.8102151807
 20
103.5318474658
 11
112.8417107012
 21
101.581111073
  0
LINE
  5
5AB
100
AcDbEntity
  8
SUPERFICI
100
AcDbLine
 62
7
  6
CONTINUOUS
 10
112.8381099654
 20
104.68403871
 11
112.8345835806
 21
104.8817825711
  0
LINE
  5
5AC
100
AcDbEntity
  8
0
100
AcDbLine
 62
7
  6
CONTINUOUS
 10
112.8397678652
 20
114.3196133387
 11
112.8414144911
 21
114.2099900704
  0
LINE
  5
5AD
100
AcDbEntity
  8
ASSI
100
AcDbLine
 62
7
  6
CONTINUOUS
 10
112.8397678652
 20
114.3196133387
 11
112.8414144911
 21
114.2099900704
  0
LINE
  5
5AE
100
AcDbEntity
  8
0
100
AcDbLine
 62
7
  6
CONTINUOUS
 10
112.8367133322
 20
104.769534661
 11
112.8403478597
 21
104.5141288846
  0
LINE
  5
5AF
100
AcDbEntity
  8
ASSI
100
AcDbLine
 62
7
  6
CONTINUOUS
 10
112.8367133322
 20
104.769534661
 11
112.8403478597
 21
104.5141288846
  0
LINE
  5
5B0
100
AcDbEntity
  8
SUPERFICI
100
AcDbLine
 62
7
  6
CONTINUOUS
 10
112.8407159757
 20
104.4794554512
 11
112.8381099654
 21
104.68403871
  0
LINE
  5
5B1
100
AcDbEntity
  8
SUPERFICI
100
AcDbLine
 62
7
  6
CONTINUOUS
 10
112.8418057547
 20
114.1710724698
 11
112.8406877243
 21
114.2661053098
  0
LWPOLYLINE
  5
5B2
100
AcDbEntity
  8
SUPERFICI
100
AcDbPolyline
 62
7
  6
CONTINUOUS
 90
3
 70
0
 10
112.7881256237
 20
105.495193545
 10
112.7895779481
 20
105.3337890092
 10
112.8102151807
 20
103.5318474658
  0
LINE
  5
5B3
100
AcDbEntity
  8
0
100
AcDbLine
 62
253
  6
CONTINUOUS
 10
113.7039715951
 20
109.5030597092
 11
113.7048379685
 21
109.4181875461
  0
LINE
  5
5B4
100
AcDbEntity
  8
ASSI
100
AcDbLine
 62
253
  6
CONTINUOUS
 10
113.7039715951
 20
109.5030597092
 11
113.7048379685
 21
109.4181875461
  0
LINE
  5
5B5
100
AcDbEntity
  8
0
100
AcDbLine
 62
7
  6
CONTINUOUS
 10
112.8414144911
 20
114.2099900704
 11
112.842438847
 21
114.0793517935
  0
LINE
  5
5B6
100
AcDbEntity
  8
ASSI
100
AcDbLine
 62
7
  6
CONTINUOUS
 10
112.8414144911
 20
114.2099900704
 11
112.842438847
 21
114.0793517935
  0
LINE
  5
5B7
100
AcDbEntity
  8
SUPERFICI
100
AcDbLine
 62
7
  6
CONTINUOUS
 10
112.8422881333
 20
104.2756867652
 11
112.8407159757
 21
104.4794554512
  0
LINE
  5
5B8
100
AcDbEntity
  8
0
100
AcDbLine
 62
7
  6
CONTINUOUS
 10
112.8403478597
 20
104.5141288846
 11
112.8423738105
 21
104.2585161755
  0
LINE
  5
5B9
100
AcDbEntity
  8
ASSI
100
AcDbLine
 62
7
  6
CONTINUOUS
 10
112.8403478597
 20
104.5141288846
 11
112.8423738105
 21
104.2585161755
  0
LINE
  5
5BA
100
AcDbEntity
  8
SUPERFICI
100
AcDbLine
 62
7
  6
CONTINUOUS
 10
112.8425144355
 20
114.0628196067
 11
112.8418057547
 21
114.1710724698
  0
LWPOLYLINE
  5
5BB
100
AcDbEntity
  8
0
100
AcDbPolyline
 62
7
  6
CONTINUOUS
 90
3
 70
0
 10
112.7733425679
 20
108.2702459743
 10
112.7833188878
 20
106.0923231172
 10
112.7881256237
 20
105.495193545
  0
LWPOLYLINE
  5
5BC
100
AcDbEntity
  8
ASSI
100
AcDbPolyline
 62
7
  6
CONTINUOUS
 90
3
 70
0
 10
112.7733425679
 20
108.2702459743
 10
112.7833188878
 20
106.0923231172
 10
112.7881256237
 20
105.495193545
  0
LINE
  5
5BD
100
AcDbEntity
  8
0
100
AcDbLine
 62
7
  6
CONTINUOUS
 10
112.8423738105
 20
104.2585161755
 11
112.8427754848
 21
104.0964165994
  0
LINE
  5
5BE
100
AcDbEntity
  8
ASSI
100
AcDbLine
 62
7
  6
CONTINUOUS
 10
112.8423738105
 20
104.2585161755
 11
112.8427754848
 21
104.0964165994
  0
LINE
  5
5BF
100
AcDbEntity
  8
0
100
AcDbLine
 62
253
  6
CONTINUOUS
 10
113.7036985504
 20
109.5987443968
 11
113.7039715951
 21
109.5030597092
  0
LINE
  5
5C0
100
AcDbEntity
  8
ASSI
100
AcDbLine
 62
253
  6
CONTINUOUS
 10
113.7036985504
 20
109.5987443968
 11
113.7039715951
 21
109.5030597092
  0
LINE
  5
5C1
100
AcDbEntity
  8
0
100
AcDbLine
 62
7
  6
CONTINUOUS
 10
112.842438847
 20
114.0793517935
 11
112.8427756984
 21
113.9314743203
  0
LINE
  5
5C2
100
AcDbEntity
  8
ASSI
100
AcDbLine
 62
7
  6
CONTINUOUS
 10
112.842438847
 20
114.0793517935
 11
112.8427756984
 21
113.9314743203
  0
LINE
  5
5C3
100
AcDbEntity
  8
SUPERFICI
100
AcDbLine
 62
7
  6
CONTINUOUS
 10
112.8427793804
 20
104.0828781609
 11
112.8422881333
 21
104.2756867652
  0
LINE
  5
5C4
100
AcDbEntity
  8
SUPERFICI
100
AcDbLine
 62
7
  6
CONTINUOUS
 10
112.8427361768
 20
113.8817980179
 11
112.8425144355
 21
114.0628196067
  0
LINE
  5
5C5
100
AcDbEntity
  8
0
100
AcDbLine
 62
253
  6
CONTINUOUS
 10
113.7037879109
 20
108.3779610126
 11
113.703759569
 21
108.4771547657
  0
LINE
  5
5C6
100
AcDbEntity
  8
ASSI
100
AcDbLine
 62
253
  6
CONTINUOUS
 10
113.7037879109
 20
108.3779610126
 11
113.703759569
 21
108.4771547657
  0
LINE
  5
5C7
100
AcDbEntity
  8
0
100
AcDbLine
 62
7
  6
CONTINUOUS
 10
112.8427756984
 20
113.9314743203
 11
112.8423793196
 21
113.769649936
  0
LINE
  5
5C8
100
AcDbEntity
  8
ASSI
100
AcDbLine
 62
7
  6
CONTINUOUS
 10
112.8427756984
 20
113.9314743203
 11
112.8423793196
 21
113.769649936
  0
LINE
  5
5C9
100
AcDbEntity
  8
0
100
AcDbLine
 62
7
  6
CONTINUOUS
 10
112.8427754848
 20
104.0964165994
 11
112.8424415101
 21
103.9482203998
  0
LINE
  5
5CA
100
AcDbEntity
  8
ASSI
100
AcDbLine
 62
7
  6
CONTINUOUS
 10
112.8427754848
 20
104.0964165994
 11
112.8424415101
 21
103.9482203998
  0
LWPOLYLINE
  5
5CB
100
AcDbEntity
  8
0
100
AcDbPolyline
 62
253
  6
CONTINUOUS
 90
10
 70
0
 10
113.2193179099
 20
109.7527341774
 10
113.2268617168
 20
111.8190150411
 10
113.2435110908
 20
113.9160456048
 10
113.2696647984
 20
116.0437833119
 10
113.3054193832
 20
118.1859268426
 10
113.3513457668
 20
120.3586846972
 10
113.409219566
 20
122.610759516
 10
113.4806788023
 20
124.9583232025
 10
113.5664939437
 20
127.3850315146
 10
113.6678537736
 20
129.890780995
  0
LWPOLYLINE
  5
5CC
100
AcDbEntity
  8
ASSI
100
AcDbPolyline
 62
253
  6
CONTINUOUS
 90
10
 70
0
 10
113.2193179099
 20
109.7527341774
 10
113.2268617168
 20
111.8190150411
 10
113.2435110908
 20
113.9160456048
 10
113.2696647984
 20
116.0437833119
 10
113.3054193832
 20
118.1859268426
 10
113.3513457668
 20
120.3586846972
 10
113.409219566
 20
122.610759516
 10
113.4806788023
 20
124.9583232025
 10
113.5664939437
 20
127.3850315146
 10
113.6678537736
 20
129.890780995
  0
LINE
  5
5CD
100
AcDbEntity
  8
SUPERFICI
100
AcDbLine
 62
7
  6
CONTINUOUS
 10
112.8422125807
 20
103.9085804476
 11
112.8427793804
 21
104.0828781609
  0
LINE
  5
5CE
100
AcDbEntity
  8
SUPERFICI
100
AcDbLine
 62
7
  6
CONTINUOUS
 10
112.8418826316
 20
113.6840260541
 11
112.8427361768
 21
113.8817980179
  0
LINE
  5
5CF
100
AcDbEntity
  8
0
100
AcDbLine
 62
253
  6
CONTINUOUS
 10
113.7112819663
 20
111.8162441574
 11
113.7036985504
 21
109.5987443968
  0
LINE
  5
5D0
100
AcDbEntity
  8
ASSI
100
AcDbLine
 62
253
  6
CONTINUOUS
 10
113.7112819663
 20
111.8162441574
 11
113.7036985504
 21
109.5987443968
  0
LWPOLYLINE
  5
5D1
100
AcDbEntity
  8
0
100
AcDbPolyline
 62
7
  6
CONTINUOUS
 90
3
 70
0
 10
112.7881256237
 20
112.531833482
 10
112.7833188878
 20
111.9347039098
 10
112.7733425679
 20
109.7567810528
  0
LWPOLYLINE
  5
5D2
100
AcDbEntity
  8
ASSI
100
AcDbPolyline
 62
7
  6
CONTINUOUS
 90
3
 70
0
 10
112.7881256237
 20
112.531833482
 10
112.7833188878
 20
111.9347039098
 10
112.7733425679
 20
109.7567810528
  0
LWPOLYLINE
  5
5D3
100
AcDbEntity
  8
0
100
AcDbPolyline
 62
253
  6
CONTINUOUS
 90
9
 70
0
 10
113.7112819663
 20
111.8162441574
 10
113.7280764193
 20
113.9111277003
 10
113.7547883918
 20
116.0366265765
 10
113.7903121996
 20
118.1765631176
 10
113.8357535268
 20
120.347114992
 10
113.8944294257
 20
122.5968152042
 10
113.9674455806
 20
124.9418414225
 10
114.0536963073
 20
127.3660159786
 10
114.1531816057
 20
129.8693388725
  0
LWPOLYLINE
  5
5D4
100
AcDbEntity
  8
ASSI
100
AcDbPolyline
 62
253
  6
CONTINUOUS
 90
9
 70
0
 10
113.7112819663
 20
111.8162441574
 10
113.7280764193
 20
113.9111277003
 10
113.7547883918
 20
116.0366265765
 10
113.7903121996
 20
118.1765631176
 10
113.8357535268
 20
120.347114992
 10
113.8944294257
 20
122.5968152042
 10
113.9674455806
 20
124.9418414225
 10
114.0536963073
 20
127.3660159786
 10
114.1531816057
 20
129.8693388725
  0
LWPOLYLINE
  5
5D5
100
AcDbEntity
  8
0
100
AcDbPolyline
 62
253
  6
CONTINUOUS
 90
11
 70
0
 10
113.703759569
 20
108.4771547657
 10
113.7043327398
 20
108.5680393461
 10
113.7048380647
 20
108.6088393969
 10
113.7054824636
 20
108.6459726318
 10
113.7062590738
 20
108.67903844
 10
113.7071596269
 20
108.7076743607
 10
113.7081741865
 20
108.7315554555
 10
113.7092913564
 20
108.7504104246
 10
113.710498725
 20
108.7640306547
 10
113.7117830976
 20
108.772268099
 10
113.7131303362
 20
108.7750320418
  0
LWPOLYLINE
  5
5D6
100
AcDbEntity
  8
ASSI
100
AcDbPolyline
 62
253
  6
CONTINUOUS
 90
11
 70
0
 10
113.703759569
 20
108.4771547657
 10
113.7043327398
 20
108.5680393461
 10
113.7048380647
 20
108.6088393969
 10
113.7054824636
 20
108.6459726318
 10
113.7062590738
 20
108.67903844
 10
113.7071596269
 20
108.7076743607
 10
113.7081741865
 20
108.7315554555
 10
113.7092913564
 20
108.7504104246
 10
113.710498725
 20
108.7640306547
 10
113.7117830976
 20
108.772268099
 10
113.7131303362
 20
108.7750320418
  0
LINE
  5
5D7
100
AcDbEntity
  8
0
100
AcDbLine
 62
7
  6
CONTINUOUS
 10
112.8424415101
 20
103.9482203998
 11
112.8414174764
 21
103.8172709546
  0
LINE
  5
5D8
100
AcDbEntity
  8
ASSI
100
AcDbLine
 62
7
  6
CONTINUOUS
 10
112.8424415101
 20
103.9482203998
 11
112.8414174764
 21
103.8172709546
  0
LINE
  5
5D9
100
AcDbEntity
  8
0
100
AcDbLine
 62
7
  6
CONTINUOUS
 10
112.8423793196
 20
113.769649936
 11
112.8403628689
 21
113.5142553765
  0
LINE
  5
5DA
100
AcDbEntity
  8
ASSI
100
AcDbLine
 62
7
  6
CONTINUOUS
 10
112.8423793196
 20
113.769649936
 11
112.8403628689
 21
113.5142553765
  0
LINE
  5
5DB
100
AcDbEntity
  8
SUPERFICI
100
AcDbLine
 62
7
  6
CONTINUOUS
 10
112.8412973589
 20
103.8068771964
 11
112.8422125807
 21
103.9085804476
  0
LINE
  5
5DC
100
AcDbEntity
  8
SUPERFICI
100
AcDbLine
 62
7
  6
CONTINUOUS
 10
112.8399622441
 20
113.4794276788
 11
112.8418826316
 21
113.6840260541
  0
LWPOLYLINE
  5
5DD
100
AcDbEntity
  8
SUPERFICI
100
AcDbPolyline
 62
7
  6
CONTINUOUS
 90
3
 70
0
 10
112.8102151807
 20
114.4951795613
 10
112.8081249336
 20
114.3404890348
 10
112.7881256237
 20
112.531833482
  0
LINE
  5
5DE
100
AcDbEntity
  8
SUPERFICI
100
AcDbLine
 62
7
  6
CONTINUOUS
 10
112.8370251853
 20
113.2756640279
 11
112.8399622441
 21
113.4794276788
  0
LINE
  5
5DF
100
AcDbEntity
  8
0
100
AcDbLine
 62
7
  6
CONTINUOUS
 10
112.8403628689
 20
113.5142553765
 11
112.8367331008
 21
113.2586346955
  0
LINE
  5
5E0
100
AcDbEntity
  8
ASSI
100
AcDbLine
 62
7
  6
CONTINUOUS
 10
112.8403628689
 20
113.5142553765
 11
112.8367331008
 21
113.2586346955
  0
LWPOLYLINE
  5
5E1
100
AcDbEntity
  8
0
100
AcDbPolyline
 62
7
  6
CONTINUOUS
 90
9
 70
0
 10
112.8414174764
 20
103.8172709546
 10
112.8397685772
 20
103.7074739001
 10
112.8387527786
 20
103.6617292514
 10
112.8376215882
 20
103.6227259609
 10
112.8363807804
 20
103.590241072
 10
112.8350598262
 20
103.5648532114
 10
112.8336686959
 20
103.546755254
 10
112.8322014472
 20
103.5357543299
 10
112.8306611431
 20
103.5318504494
  0
LWPOLYLINE
  5
5E2
100
AcDbEntity
  8
ASSI
100
AcDbPolyline
 62
7
  6
CONTINUOUS
 90
9
 70
0
 10
112.8414174764
 20
103.8172709546
 10
112.8397685772
 20
103.7074739001
 10
112.8387527786
 20
103.6617292514
 10
112.8376215882
 20
103.6227259609
 10
112.8363807804
 20
103.590241072
 10
112.8350598262
 20
103.5648532114
 10
112.8336686959
 20
103.546755254
 10
112.8322014472
 20
103.5357543299
 10
112.8306611431
 20
103.5318504494
  0
LINE
  5
5E3
100
AcDbEntity
  8
0
100
AcDbLine
 62
7
  6
CONTINUOUS
 10
112.8367331008
 20
113.2586346955
 11
112.8335422452
 21
113.096521769
  0
LINE
  5
5E4
100
AcDbEntity
  8
ASSI
100
AcDbLine
 62
7
  6
CONTINUOUS
 10
112.8367331008
 20
113.2586346955
 11
112.8335422452
 21
113.096521769
  0
LWPOLYLINE
  5
5E5
100
AcDbEntity
  8
ASSI
100
AcDbPolyline
 62
7
  6
CONTINUOUS
 90
3
 70
0
 10
112.8899888273
 20
118.7012116854
 10
112.8417107012
 20
116.445915954
 10
112.8102151807
 20
114.4951795613
  0
LINE
  5
5E6
100
AcDbEntity
  8
SUPERFICI
100
AcDbLine
 62
7
  6
CONTINUOUS
 10
112.8332432574
 20
113.0828708163
 11
112.8370251853
 21
113.2756640279
  0
LINE
  5
5E7
100
AcDbEntity
  8
0
100
AcDbLine
 62
253
  6
CONTINUOUS
 10
112.8763609632
 20
118.0970555135
 11
112.9056311592
 21
119.305436469
  0
LINE
  5
5E8
100
AcDbEntity
  8
0
100
AcDbLine
 62
7
  6
CONTINUOUS
 10
112.8335422452
 20
113.096521769
 11
112.8299158529
 21
112.9483054945
  0
LINE
  5
5E9
100
AcDbEntity
  8
ASSI
100
AcDbLine
 62
7
  6
CONTINUOUS
 10
112.8335422452
 20
113.096521769
 11
112.8299158529
 21
112.9483054945
  0
LINE
  5
5EA
100
AcDbEntity
  8
SUPERFICI
100
AcDbLine
 62
7
  6
CONTINUOUS
 10
112.8288024294
 20
112.9085894118
 11
112.8332432574
 21
113.0828708163
  0
LWPOLYLINE
  5
5EB
100
AcDbEntity
  8
0
100
AcDbPolyline
 62
253
  6
CONTINUOUS
 90
3
 70
0
 10
112.87103315
 20
117.8742677657
 10
112.8703804134
 20
117.8501065491
 10
112.8703463973
 20
117.8490095539
  0
LINE
  5
5EC
100
AcDbEntity
  8
0
100
AcDbLine
 62
253
  6
CONTINUOUS
 10
112.9385520465
 20
120.5137234689
 11
112.9751231619
 21
121.7219054911
  0
LINE
  5
5ED
100
AcDbEntity
  8
0
100
AcDbLine
 62
253
  6
CONTINUOUS
 10
113.0236251649
 20
123.1780113215
 11
113.0230617701
 21
123.1594006825
  0
LINE
  5
5EE
100
AcDbEntity
  8
0
100
AcDbLine
 62
7
  6
CONTINUOUS
 10
112.8299158529
 20
112.9483054945
 11
112.8259726356
 21
112.8173311484
  0
LINE
  5
5EF
100
AcDbEntity
  8
ASSI
100
AcDbLine
 62
7
  6
CONTINUOUS
 10
112.8299158529
 20
112.9483054945
 11
112.8259726356
 21
112.8173311484
  0
LWPOLYLINE
  5
5F0
100
AcDbEntity
  8
ASSI
100
AcDbPolyline
 62
7
  6
CONTINUOUS
 90
3
 70
0
 10
113.0246990494
 20
123.210824005
 10
112.9509859162
 20
120.956204937
 10
112.8899888273
 20
118.7012116854
  0
LINE
  5
5F1
100
AcDbEntity
  8
SUPERFICI
100
AcDbLine
 62
7
  6
CONTINUOUS
 10
112.8256188724
 20
112.8068940587
 11
112.8288024294
 21
112.9085894118
  0
LWPOLYLINE
  5
5F2
100
AcDbEntity
  8
0
100
AcDbPolyline
 62
253
  6
CONTINUOUS
 90
4
 70
0
 10
112.8703181892
 20
117.8481554361
 10
112.8702958138
 20
117.8475447124
 10
112.8702792956
 20
117.8471778993
 10
112.8702686591
 20
117.8470555135
  0
LWPOLYLINE
  5
5F3
100
AcDbEntity
  8
0
100
AcDbPolyline
 62
7
  6
CONTINUOUS
 90
9
 70
0
 10
112.8259726356
 20
112.8173311484
 10
112.8218650056
 20
112.7075106254
 10
112.8198203735
 20
112.6617555806
 10
112.8178086832
 20
112.6227417754
 10
112.8158310831
 20
112.5902476351
 10
112.8139306416
 20
112.5648568294
 10
112.8121221078
 20
112.5467639299
 10
112.8103954704
 20
112.5357744023
 10
112.8087541397
 20
112.5318882589
  0
LWPOLYLINE
  5
5F4
100
AcDbEntity
  8
ASSI
100
AcDbPolyline
 62
7
  6
CONTINUOUS
 90
9
 70
0
 10
112.8259726356
 20
112.8173311484
 10
112.8218650056
 20
112.7075106254
 10
112.8198203735
 20
112.6617555806
 10
112.8178086832
 20
112.6227417754
 10
112.8158310831
 20
112.5902476351
 10
112.8139306416
 20
112.5648568294
 10
112.8121221078
 20
112.5467639299
 10
112.8103954704
 20
112.5357744023
 10
112.8087541397
 20
112.5318882589
  0
LWPOLYLINE
  5
5F5
100
AcDbEntity
  8
SUPERFICI
100
AcDbPolyline
 62
7
  6
CONTINUOUS
 90
7
 70
0
 10
112.8353435684
 20
103.5696407327
 10
112.8364073222
 20
103.5908066487
 10
112.837408002
 20
103.616353121
 10
112.8383421532
 20
103.6463744512
 10
112.8392094709
 20
103.6807763399
 10
112.8399937986
 20
103.7189969922
 10
112.8412973589
 20
103.8068771964
  0
LWPOLYLINE
  5
5F6
100
AcDbEntity
  8
0
100
AcDbPolyline
 62
253
  6
CONTINUOUS
 90
16
 70
0
 10
113.219317928
 20
108.2742928421
 10
113.2220820305
 20
108.3272787783
 10
113.2301277141
 20
108.3785269509
 10
113.2432376605
 20
108.4281550403
 10
113.2615229787
 20
108.476484915
 10
113.2850055035
 20
108.5231958156
 10
113.3131609967
 20
108.5671659001
 10
113.3455378211
 20
108.6077061431
 10
113.3820698747
 20
108.6447426542
 10
113.422305257
 20
108.6778411426
 10
113.4656543393
 20
108.7064834836
 10
113.5117040321
 20
108.7304057965
 10
113.560083268
 20
108.7494450892
 10
113.6102449328
 20
108.7633439507
 10
113.6614807145
 20
108.7718899859
 10
113.7131303362
 20
108.7750320418
  0
LWPOLYLINE
  5
5F7
100
AcDbEntity
  8
ASSI
100
AcDbPolyline
 62
253
  6
CONTINUOUS
 90
16
 70
0
 10
113.219317928
 20
108.2742928421
 10
113.2220820305
 20
108.3272787783
 10
113.2301277141
 20
108.3785269509
 10
113.2432376605
 20
108.4281550403
 10
113.2615229787
 20
108.476484915
 10
113.2850055035
 20
108.5231958156
 10
113.3131609967
 20
108.5671659001
 10
113.3455378211
 20
108.6077061431
 10
113.3820698747
 20
108.6447426542
 10
113.422305257
 20
108.6778411426
 10
113.4656543393
 20
108.7064834836
 10
113.5117040321
 20
108.7304057965
 10
113.560083268
 20
108.7494450892
 10
113.6102449328
 20
108.7633439507
 10
113.6614807145
 20
108.7718899859
 10
113.7131303362
 20
108.7750320418
  0
LWPOLYLINE
  5
5F8
100
AcDbEntity
  8
SUPERFICI
100
AcDbPolyline
 62
7
  6
CONTINUOUS
 90
7
 70
0
 10
112.814323753
 20
112.5696472032
 10
112.8158705001
 20
112.5908194992
 10
112.8174510291
 20
112.6163712361
 10
112.8190634163
 20
112.6463946486
 10
112.8207054504
 20
112.6807974813
 10
112.8223482061
 20
112.7190179368
 10
112.8256188724
 20
112.8068940587
  0
LWPOLYLINE
  5
5F9
100
AcDbEntity
  8
SUPERFICI
100
AcDbPolyline
 62
7
  6
CONTINUOUS
 90
4
 70
0
 10
112.8318952521
 20
103.5342855997
 10
112.8330868465
 20
103.5413802064
 10
112.8342347856
 20
103.553134264
 10
112.8353435684
 20
103.5696407327
  0
LINE
  5
5FA
100
AcDbEntity
  8
0
100
AcDbLine
 62
7
  6
CONTINUOUS
 10
112.7881256237
 20
105.4951935383
 11
112.8087541408
 21
105.4951387682
  0
LINE
  5
5FB
100
AcDbEntity
  8
ASSI
100
AcDbLine
 62
7
  6
CONTINUOUS
 10
112.7881256237
 20
105.4951935383
 11
112.8087541408
 21
105.4951387682
  0
LINE
  5
5FC
100
AcDbEntity
  8
SUPERFICI
100
AcDbLine
 62
7
  6
CONTINUOUS
 10
112.808762182
 20
105.4951387574
 11
112.7883953701
 21
105.4951928236
  0
LINE
  5
5FD
100
AcDbEntity
  8
0
100
AcDbLine
 62
253
  6
CONTINUOUS
 10
114.8135266429
 20
130.6423124473
 11
114.8186733582
 21
130.538588189
  0
LINE
  5
5FE
100
AcDbEntity
  8
ASSI
100
AcDbLine
 62
253
  6
CONTINUOUS
 10
114.8135266429
 20
130.6423124473
 11
114.8186733582
 21
130.538588189
  0
LINE
  5
5FF
100
AcDbEntity
  8
0
100
AcDbLine
 62
253
  6
CONTINUOUS
 10
114.8091755085
 20
130.741511333
 11
114.8135266429
 21
130.6423124473
  0
LINE
  5
600
100
AcDbEntity
  8
ASSI
100
AcDbLine
 62
253
  6
CONTINUOUS
 10
114.8091755085
 20
130.741511333
 11
114.8135266429
 21
130.6423124473
  0
LINE
  5
601
100
AcDbEntity
  8
0
100
AcDbLine
 62
253
  6
CONTINUOUS
 10
114.8045442462
 20
87.1545714104
 11
114.8073592566
 21
87.2389812369
  0
LINE
  5
602
100
AcDbEntity
  8
ASSI
100
AcDbLine
 62
253
  6
CONTINUOUS
 10
114.8045442462
 20
87.1545714104
 11
114.8073592566
 21
87.2389812369
  0
LINE
  5
603
100
AcDbEntity
  8
0
100
AcDbLine
 62
253
  6
CONTINUOUS
 10
114.8073592566
 20
87.2389812369
 11
114.8112388972
 21
87.3342740588
  0
LINE
  5
604
100
AcDbEntity
  8
ASSI
100
AcDbLine
 62
253
  6
CONTINUOUS
 10
114.8073592566
 20
87.2389812369
 11
114.8112388972
 21
87.3342740588
  0
LWPOLYLINE
  5
605
100
AcDbEntity
  8
0
100
AcDbPolyline
 62
253
  6
CONTINUOUS
 90
3
 70
0
 10
114.8112388972
 20
87.3342740588
 10
114.8160138944
 20
87.436292351
 10
114.8186733347
 20
87.4884388393
  0
LWPOLYLINE
  5
606
100
AcDbEntity
  8
ASSI
100
AcDbPolyline
 62
253
  6
CONTINUOUS
 90
3
 70
0
 10
114.8112388972
 20
87.3342740588
 10
114.8160138944
 20
87.436292351
 10
114.8186733347
 20
87.4884388393
  0
LINE
  5
607
100
AcDbEntity
  8
SUPERFICI
100
AcDbLine
 62
7
  6
CONTINUOUS
 10
112.8306611436
 20
103.5318504494
 11
112.8318952521
 21
103.5342855997
  0
LINE
  5
608
100
AcDbEntity
  8
SUPERFICI
100
AcDbLine
 62
7
  6
CONTINUOUS
 10
112.8318951365
 20
114.4927444005
 11
112.8306611446
 21
114.4951765776
  0
LWPOLYLINE
  5
609
100
AcDbEntity
  8
0
100
AcDbPolyline
 62
7
  6
CONTINUOUS
 90
4
 70
0
 10
112.830661143
 20
114.4951765776
 10
112.8322025008
 20
114.491248502
 10
112.8336704901
 20
114.4802335205
 10
112.8350619879
 20
114.4621316436
  0
LWPOLYLINE
  5
60A
100
AcDbEntity
  8
ASSI
100
AcDbPolyline
 62
7
  6
CONTINUOUS
 90
4
 70
0
 10
112.830661143
 20
114.4951765776
 10
112.8322025008
 20
114.491248502
 10
112.8336704901
 20
114.4802335205
 10
112.8350619879
 20
114.4621316436
  0
LINE
  5
60B
100
AcDbEntity
  8
0
100
AcDbLine
 62
7
  6
CONTINUOUS
 10
117.7226702363
 20
126.9470028809
 11
117.7226702363
 21
126.6855344346
  0
LINE
  5
60C
100
AcDbEntity
  8
ASSI
100
AcDbLine
 62
7
  6
CONTINUOUS
 10
117.7226702363
 20
126.9470028809
 11
117.7226702363
 21
126.6855344346
  0
LINE
  5
60D
100
AcDbEntity
  8
0
100
AcDbLine
 62
7
  6
CONTINUOUS
 10
117.7226702363
 20
91.3414925924
 11
117.7226702363
 21
91.0800241897
  0
LINE
  5
60E
100
AcDbEntity
  8
ASSI
100
AcDbLine
 62
7
  6
CONTINUOUS
 10
117.7226702363
 20
91.3414925924
 11
117.7226702363
 21
91.0800219123
  0
LINE
  5
60F
100
AcDbEntity
  8
0
100
AcDbLine
 62
253
  6
CONTINUOUS
 10
113.2193179109
 20
108.2742928442
 11
112.7733425679
 21
108.2702459781
  0
LINE
  5
610
100
AcDbEntity
  8
ASSI
100
AcDbLine
 62
253
  6
CONTINUOUS
 10
113.2193179109
 20
108.2742928442
 11
112.7733425679
 21
108.2702459781
  0
LINE
  5
611
100
AcDbEntity
  8
0
100
AcDbLine
 62
253
  6
CONTINUOUS
 10
118.1226702363
 20
108.3136086957
 11
113.7044051298
 21
108.2750510803
  0
LINE
  5
612
100
AcDbEntity
  8
ASSI
100
AcDbLine
 62
253
  6
CONTINUOUS
 10
118.1226702363
 20
108.3136086957
 11
113.7044051298
 21
108.2750510803
  0
LINE
  5
613
100
AcDbEntity
  8
0
100
AcDbLine
 62
7
  6
CONTINUOUS
 10
118.1226702363
 20
108.8135135135
 11
113.2689734322
 21
108.7711559432
  0
LINE
  5
614
100
AcDbEntity
  8
ASSI
100
AcDbLine
 62
7
  6
CONTINUOUS
 10
118.1226702363
 20
108.8135135135
 11
113.2689734322
 21
108.7711559432
  0
LINE
  5
615
100
AcDbEntity
  8
0
100
AcDbLine
 62
253
  6
CONTINUOUS
 10
113.704405131
 20
108.2750510803
 11
113.219317928
 21
108.2742928421
  0
LINE
  5
616
100
AcDbEntity
  8
ASSI
100
AcDbLine
 62
253
  6
CONTINUOUS
 10
113.704405131
 20
108.2750510803
 11
113.219317928
 21
108.2742928421
  0
LINE
  5
617
100
AcDbEntity
  8
0
100
AcDbLine
 62
7
  6
CONTINUOUS
 10
113.2689734322
 20
109.2558710838
 11
118.1226702363
 21
109.2135135135
  0
LINE
  5
618
100
AcDbEntity
  8
ASSI
100
AcDbLine
 62
7
  6
CONTINUOUS
 10
113.2689734322
 20
109.2558710838
 11
118.1226702363
 21
109.2135135135
  0
LINE
  5
619
100
AcDbEntity
  8
0
100
AcDbLine
 62
7
  6
CONTINUOUS
 10
117.3303112832
 20
131.1702177901
 11
118.1226702363
 21
122.1135135135
  0
LINE
  5
61A
100
AcDbEntity
  8
ASSI
100
AcDbLine
 62
7
  6
CONTINUOUS
 10
117.3303112832
 20
131.1702177901
 11
118.1226702363
 21
122.1135135135
  0
LINE
  5
61B
100
AcDbEntity
  8
0
100
AcDbLine
 62
7
  6
CONTINUOUS
 10
118.1226702363
 20
122.1135135135
 11
118.1226702363
 21
109.2135135135
  0
LINE
  5
61C
100
AcDbEntity
  8
ASSI
100
AcDbLine
 62
7
  6
CONTINUOUS
 10
118.1226702363
 20
122.1135135135
 11
118.1226702363
 21
109.2135135135
  0
LINE
  5
61D
100
AcDbEntity
  8
0
100
AcDbLine
 62
7
  6
CONTINUOUS
 10
118.1226702363
 20
95.9135135135
 11
118.1226702363
 21
108.8135135135
  0
LINE
  5
61E
100
AcDbEntity
  8
ASSI
100
AcDbLine
 62
7
  6
CONTINUOUS
 10
118.1226702363
 20
95.9135135135
 11
118.1226702363
 21
108.8135135135
  0
LINE
  5
61F
100
AcDbEntity
  8
0
100
AcDbLine
 62
7
  6
CONTINUOUS
 10
117.3303112832
 20
86.8568092369
 11
118.1226702363
 21
95.9135135135
  0
LINE
  5
620
100
AcDbEntity
  8
ASSI
100
AcDbLine
 62
7
  6
CONTINUOUS
 10
117.3303112832
 20
86.8568092369
 11
118.1226702363
 21
95.9135135135
  0
LINE
  5
621
100
AcDbEntity
  8
0
100
AcDbLine
 62
253
  6
CONTINUOUS
 10
113.2193178305
 20
109.7527341738
 11
113.7044050342
 21
109.7519759476
  0
LINE
  5
622
100
AcDbEntity
  8
ASSI
100
AcDbLine
 62
253
  6
CONTINUOUS
 10
113.2193178305
 20
109.7527341738
 11
113.7044050342
 21
109.7519759476
  0
LINE
  5
623
100
AcDbEntity
  8
0
100
AcDbLine
 62
253
  6
CONTINUOUS
 10
113.7044050327
 20
109.7519759476
 11
118.1226702363
 21
109.7134183313
  0
LINE
  5
624
100
AcDbEntity
  8
ASSI
100
AcDbLine
 62
253
  6
CONTINUOUS
 10
113.7044050327
 20
109.7519759476
 11
118.1226702363
 21
109.7134183313
  0
LINE
  5
625
100
AcDbEntity
  8
0
100
AcDbLine
 62
253
  6
CONTINUOUS
 10
112.7733425679
 20
109.7567810489
 11
113.2193179099
 21
109.7527341774
  0
LINE
  5
626
100
AcDbEntity
  8
ASSI
100
AcDbLine
 62
253
  6
CONTINUOUS
 10
112.7733425679
 20
109.7567810489
 11
113.2193179099
 21
109.7527341774
  0
LINE
  5
627
100
AcDbEntity
  8
0
100
AcDbLine
 62
7
  6
CONTINUOUS
 10
112.8087541397
 20
112.5318882589
 11
112.788380299
 21
112.5318341649
  0
LINE
  5
628
100
AcDbEntity
  8
ASSI
100
AcDbLine
 62
7
  6
CONTINUOUS
 10
112.8087541397
 20
112.5318882589
 11
112.788380299
 21
112.5318341649
  0
LINE
  5
629
100
AcDbEntity
  8
SUPERFICI
100
AcDbLine
 62
7
  6
CONTINUOUS
 10
112.7883802968
 20
112.5318341634
 11
112.80876218
 21
112.5318882696
  0
LINE
  5
62A
100
AcDbEntity
  8
SUPERFICI
100
AcDbLine
 62
7
  6
CONTINUOUS
 10
112.8306611446
 20
114.4951765776
 11
112.8124871231
 21
114.4951792327
  0
LINE
  5
62B
100
AcDbEntity
  8
0
100
AcDbLine
 62
7
  6
CONTINUOUS
 10
112.8102151807
 20
114.4951795644
 11
112.830661143
 21
114.4951765776
  0
LINE
  5
62C
100
AcDbEntity
  8
ASSI
100
AcDbLine
 62
7
  6
CONTINUOUS
 10
112.8102151807
 20
114.4951795644
 11
112.830661143
 21
114.4951765776
  0
LINE
  5
62D
100
AcDbEntity
  8
0
100
AcDbLine
 62
253
  6
CONTINUOUS
 10
112.870207072
 20
117.8470555135
 11
112.8702686551
 21
117.8470553354
  0
LINE
  5
62E
100
AcDbEntity
  8
0
100
AcDbLine
 62
253
  6
CONTINUOUS
 10
113.0236621416
 20
123.1799713105
 11
113.0236044484
 21
123.1799715135
  0
LINE
  5
62F
100
AcDbEntity
  8
0
100
AcDbLine
 62
253
  6
CONTINUOUS
 10
117.7226702363
 20
126.9470051147
 11
117.6997945159
 21
126.9470051147
  0
LINE
  5
630
100
AcDbEntity
  8
ASSI
100
AcDbLine
 62
253
  6
CONTINUOUS
 10
117.7226702363
 20
126.9470051147
 11
117.6997945159
 21
126.9470051147
  0
LWPOLYLINE
  5
631
100
AcDbEntity
  8
0
100
AcDbPolyline
 62
253
  6
CONTINUOUS
 90
4
 70
0
 10
113.667866545
 20
129.89078048
 10
113.6735706226
 20
129.8904794673
 10
113.6840518601
 20
129.8899734782
 10
114.1531816057
 20
129.8693388725
  0
LWPOLYLINE
  5
632
100
AcDbEntity
  8
ASSI
100
AcDbPolyline
 62
253
  6
CONTINUOUS
 90
4
 70
0
 10
113.667866545
 20
129.89078048
 10
113.6735706226
 20
129.8904794673
 10
113.6840518601
 20
129.8899734782
 10
114.1531816057
 20
129.8693388725
  0
LINE
  5
633
100
AcDbEntity
  8
0
100
AcDbLine
 62
253
  6
CONTINUOUS
 10
114.8186733582
 20
130.538588189
 11
117.3738559793
 21
130.6724996358
  0
LINE
  5
634
100
AcDbEntity
  8
ASSI
100
AcDbLine
 62
253
  6
CONTINUOUS
 10
114.8186733582
 20
130.538588189
 11
117.3738559793
 21
130.6724996358
  0
LINE
  5
635
100
AcDbEntity
  8
0
100
AcDbLine
 62
7
  6
CONTINUOUS
 10
114.4533463131
 20
131.019442445
 11
117.3303112832
 21
131.1702177901
  0
LINE
  5
636
100
AcDbEntity
  8
ASSI
100
AcDbLine
 62
7
  6
CONTINUOUS
 10
114.4533463131
 20
131.019442445
 11
117.3303112832
 21
131.1702177901
  0
LINE
  5
637
100
AcDbEntity
  8
0
100
AcDbLine
 62
253
  6
CONTINUOUS
 10
113.6678537736
 20
129.890780995
 11
113.3174961716
 21
129.8836824638
  0
LINE
  5
638
100
AcDbEntity
  8
ASSI
100
AcDbLine
 62
253
  6
CONTINUOUS
 10
113.6678537736
 20
129.890780995
 11
113.3174961716
 21
129.8836824638
  0
ARC
  5
639
100
AcDbEntity
  8
0
100
AcDbCircle
 62
7
  6
CONTINUOUS
 10
114.5158617829
 20
129.8210719267
 40
1.2
100
AcDbArc
 50
93.0
 51
177.0092051173
  0
ARC
  5
63A
100
AcDbEntity
  8
ASSI
100
AcDbCircle
 62
7
  6
CONTINUOUS
 10
114.5158617829
 20
129.8210719267
 40
1.2
100
AcDbArc
 50
93.0
 51
177.0092051173
  0
ARC
  5
63B
100
AcDbEntity
  8
0
100
AcDbCircle
 62
7
  6
CONTINUOUS
 10
114.5158617829
 20
88.2059551003
 40
1.2
100
AcDbArc
 50
182.9907948827
 51
267.0
  0
ARC
  5
63C
100
AcDbEntity
  8
ASSI
100
AcDbCircle
 62
7
  6
CONTINUOUS
 10
114.5158617829
 20
88.2059551003
 40
1.2
100
AcDbArc
 50
182.9907948827
 51
267.0
  0
ARC
  5
63D
100
AcDbEntity
  8
0
100
AcDbCircle
 62
7
  6
CONTINUOUS
 10
113.2733464706
 20
109.7558519601
 40
0.5
100
AcDbArc
 50
179.8935347747
 51
269.5
  0
ARC
  5
63E
100
AcDbEntity
  8
ASSI
100
AcDbCircle
 62
7
  6
CONTINUOUS
 10
113.2733464706
 20
109.7558519601
 40
0.5
100
AcDbArc
 50
179.8935347747
 51
269.5
  0
ARC
  5
63F
100
AcDbEntity
  8
0
100
AcDbCircle
 62
7
  6
CONTINUOUS
 10
113.2733464706
 20
108.2711750669
 40
0.5
100
AcDbArc
 50
90.5
 51
180.1064652253
  0
ARC
  5
640
100
AcDbEntity
  8
ASSI
100
AcDbCircle
 62
7
  6
CONTINUOUS
 10
113.2733464706
 20
108.2711750669
 40
0.5
100
AcDbArc
 50
90.5
 51
180.1064652253
  0
ARC
  5
641
100
AcDbEntity
  8
0
100
AcDbCircle
 62
7
  6
CONTINUOUS
 10
117.4226702363
 20
126.9470051147
 40
0.3
100
AcDbArc
 50
359.9995650467
 51
25.0000767071
  0
ARC
  5
642
100
AcDbEntity
  8
ASSI
100
AcDbCircle
 62
7
  6
CONTINUOUS
 10
117.4226702363
 20
126.9470051147
 40
0.3
100
AcDbArc
 50
359.9995650467
 51
25.0000767071
  0
ARC
  5
643
100
AcDbEntity
  8
0
100
AcDbCircle
 62
7
  6
CONTINUOUS
 10
117.4226702363
 20
91.0800219123
 40
0.3
100
AcDbArc
 50
334.9999285842
 51
0.0004349533
  0
ARC
  5
644
100
AcDbEntity
  8
ASSI
100
AcDbCircle
 62
7
  6
CONTINUOUS
 10
117.4226702363
 20
91.0800219123
 40
0.3
100
AcDbArc
 50
334.9999285842
 51
0.0004349533
  0
ELLIPSE
  5
645
100
AcDbEntity
  8
ASSI
100
AcDbEllipse
 62
7
  6
CONTINUOUS
 10
149.2686991179
 20
130.6718168287
 30
0.0
 11
0.4962344879
 21
-0.0628595572
 31
0.0
 40
0.9963456432
 41
0.1278292453
 42
1.6972555761
  0
ELLIPSE
  5
646
100
AcDbEntity
  8
ASSI
100
AcDbEllipse
 62
7
  6
CONTINUOUS
 10
128.3098871607
 20
130.6718168287
 30
0.0
 11
0.4962344879
 21
0.0628595572
 31
0.0
 40
0.9963456432
 41
1.4443370775
 42
3.0137634083
  0
ELLIPSE
  5
647
100
AcDbEntity
  8
ASSI
100
AcDbEllipse
 62
7
  6
CONTINUOUS
 10
149.288305945
 20
109.7135325527
 30
0.0
 11
0.4745319423
 21
-0.1581451893
 31
0.0
 40
0.9996192872
 41
-1.2489924673
 42
0.3215754254
  0
ELLIPSE
  5
648
100
AcDbEntity
  8
ASSI
100
AcDbEllipse
 62
7
  6
CONTINUOUS
 10
128.2902803336
 20
109.7135325527
 30
0.0
 11
0.4745319423
 21
0.1581451893
 31
0.0
 40
0.9996192872
 41
2.8200172282
 42
4.3905851209
  0
ELLIPSE
  5
649
100
AcDbEntity
  8
ASSI
100
AcDbEllipse
 62
7
  6
CONTINUOUS
 10
131.5047631931
 20
131.1436134502
 30
0.0
 11
0.2
 21
-0.0
 31
0.0
 40
0.0524077793
 41
-2.617993878
 42
-1.5707963268
  0
ELLIPSE
  5
64A
100
AcDbEntity
  8
ASSI
100
AcDbEllipse
 62
7
  6
CONTINUOUS
 10
134.8738230855
 20
131.1436134502
 30
0.0
 11
0.2
 21
0.0
 31
0.0
 40
0.0524077793
 41
-1.5707963268
 42
-0.5235987756
  0
ELLIPSE
  5
64B
100
AcDbEntity
  8
ASSI
100
AcDbEllipse
 62
7
  6
CONTINUOUS
 10
146.0738230855
 20
131.1436134502
 30
0.0
 11
0.2
 21
0.0
 31
0.0
 40
0.0524077793
 41
-1.5707963268
 42
-0.5235987756
  0
ELLIPSE
  5
64C
100
AcDbEntity
  8
ASSI
100
AcDbEllipse
 62
7
  6
CONTINUOUS
 10
142.7047631931
 20
131.1436134502
 30
0.0
 11
0.2
 21
-0.0
 31
0.0
 40
0.0524077793
 41
-2.617993878
 42
-1.5707963268
  0
ELLIPSE
  5
64D
100
AcDbEntity
  8
0
100
AcDbEllipse
 62
7
  6
CONTINUOUS
 10
149.2686991179
 20
130.6718168287
 30
0.0
 11
0.4962344879
 21
-0.0628595572
 31
0.0
 40
0.9963456432
 41
0.1278292453
 42
1.6972555761
  0
ELLIPSE
  5
64E
100
AcDbEntity
  8
0
100
AcDbEllipse
 62
7
  6
CONTINUOUS
 10
128.3098871607
 20
130.6718168287
 30
0.0
 11
0.4962344879
 21
0.0628595572
 31
0.0
 40
0.9963456432
 41
1.4443370775
 42
3.0137634083
  0
ELLIPSE
  5
64F
100
AcDbEntity
  8
0
100
AcDbEllipse
 62
7
  6
CONTINUOUS
 10
149.288305945
 20
109.7135325527
 30
0.0
 11
0.4745319423
 21
-0.1581451893
 31
0.0
 40
0.9996192872
 41
-1.2489924673
 42
0.3215754254
  0
ELLIPSE
  5
650
100
AcDbEntity
  8
0
100
AcDbEllipse
 62
7
  6
CONTINUOUS
 10
128.2902803336
 20
109.7135325527
 30
0.0
 11
0.4745319423
 21
0.1581451893
 31
0.0
 40
0.9996192872
 41
2.8200172282
 42
4.3905851209
  0
ELLIPSE
  5
651
100
AcDbEntity
  8
0
100
AcDbEllipse
 62
7
  6
CONTINUOUS
 10
131.5047631931
 20
131.1436134502
 30
0.0
 11
0.2
 21
-0.0
 31
0.0
 40
0.0524077793
 41
-2.617993878
 42
-1.5707963268
  0
ELLIPSE
  5
652
100
AcDbEntity
  8
0
100
AcDbEllipse
 62
7
  6
CONTINUOUS
 10
134.8738230855
 20
131.1436134502
 30
0.0
 11
0.2
 21
0.0
 31
0.0
 40
0.0524077793
 41
-1.5707963268
 42
-0.5235987756
  0
ELLIPSE
  5
653
100
AcDbEntity
  8
0
100
AcDbEllipse
 62
7
  6
CONTINUOUS
 10
146.0738230855
 20
131.1436134502
 30
0.0
 11
0.2
 21
0.0
 31
0.0
 40
0.0524077793
 41
-1.5707963268
 42
-0.5235987756
  0
ELLIPSE
  5
654
100
AcDbEntity
  8
0
100
AcDbEllipse
 62
7
  6
CONTINUOUS
 10
142.7047631931
 20
131.1436134502
 30
0.0
 11
0.2
 21
-0.0
 31
0.0
 40
0.0524077793
 41
-2.617993878
 42
-1.5707963268
  0
ELLIPSE
  5
655
100
AcDbEntity
  8
ASSI
100
AcDbEllipse
 62
7
  6
CONTINUOUS
 10
150.5098871607
 20
87.3552101983
 30
0.0
 11
0.4962344879
 21
-0.0628595572
 31
0.0
 40
0.9963456432
 41
-3.0137634083
 42
-1.4443370775
  0
ELLIPSE
  5
656
100
AcDbEntity
  8
ASSI
100
AcDbEllipse
 62
7
  6
CONTINUOUS
 10
171.4686991179
 20
87.3552101983
 30
0.0
 11
0.4962344879
 21
0.0628595572
 31
0.0
 40
0.9963456432
 41
-1.6972555761
 42
-0.1278292453
  0
ELLIPSE
  5
657
100
AcDbEntity
  8
ASSI
100
AcDbEllipse
 62
7
  6
CONTINUOUS
 10
150.4902803336
 20
108.3134944743
 30
0.0
 11
0.4745319423
 21
-0.1581451893
 31
0.0
 40
0.9996192872
 41
1.8926001863
 42
3.463168079
  0
ELLIPSE
  5
658
100
AcDbEntity
  8
ASSI
100
AcDbEllipse
 62
7
  6
CONTINUOUS
 10
171.488305945
 20
108.3134944743
 30
0.0
 11
0.4745319423
 21
0.1581451893
 31
0.0
 40
0.9996192872
 41
-0.3215754254
 42
1.2489924673
  0
ELLIPSE
  5
659
100
AcDbEntity
  8
ASSI
100
AcDbEllipse
 62
7
  6
CONTINUOUS
 10
168.2738230855
 20
86.8834135768
 30
0.0
 11
0.2
 21
0.0
 31
0.0
 40
0.0524077793
 41
0.5235987756
 42
1.5707963268
  0
ELLIPSE
  5
65A
100
AcDbEntity
  8
ASSI
100
AcDbEllipse
 62
7
  6
CONTINUOUS
 10
164.9047631931
 20
86.8834135768
 30
0.0
 11
0.2
 21
0.0
 31
0.0
 40
0.0524077793
 41
1.5707963268
 42
2.617993878
  0
ELLIPSE
  5
65B
100
AcDbEntity
  8
ASSI
100
AcDbEllipse
 62
7
  6
CONTINUOUS
 10
153.7047631931
 20
86.8834135768
 30
0.0
 11
0.2
 21
-0.0
 31
0.0
 40
0.0524077793
 41
1.5707963268
 42
2.617993878
  0
ELLIPSE
  5
65C
100
AcDbEntity
  8
ASSI
100
AcDbEllipse
 62
7
  6
CONTINUOUS
 10
157.0738230855
 20
86.8834135768
 30
0.0
 11
0.2
 21
-0.0
 31
0.0
 40
0.0524077793
 41
0.5235987756
 42
1.5707963268
  0
ELLIPSE
  5
65D
100
AcDbEntity
  8
0
100
AcDbEllipse
 62
7
  6
CONTINUOUS
 10
150.5098871607
 20
87.3552101983
 30
0.0
 11
0.4962344879
 21
-0.0628595572
 31
0.0
 40
0.9963456432
 41
-3.0137634083
 42
-1.4443370775
  0
ELLIPSE
  5
65E
100
AcDbEntity
  8
0
100
AcDbEllipse
 62
7
  6
CONTINUOUS
 10
171.4686991179
 20
87.3552101983
 30
0.0
 11
0.4962344879
 21
0.0628595572
 31
0.0
 40
0.9963456432
 41
-1.6972555761
 42
-0.1278292453
  0
ELLIPSE
  5
65F
100
AcDbEntity
  8
0
100
AcDbEllipse
 62
7
  6
CONTINUOUS
 10
150.4902803336
 20
108.3134944743
 30
0.0
 11
0.4745319423
 21
-0.1581451893
 31
0.0
 40
0.9996192872
 41
1.8926001863
 42
3.463168079
  0
ELLIPSE
  5
660
100
AcDbEntity
  8
0
100
AcDbEllipse
 62
7
  6
CONTINUOUS
 10
171.488305945
 20
108.3134944743
 30
0.0
 11
0.4745319423
 21
0.1581451893
 31
0.0
 40
0.9996192872
 41
-0.3215754254
 42
1.2489924673
  0
ELLIPSE
  5
661
100
AcDbEntity
  8
0
100
AcDbEllipse
 62
7
  6
CONTINUOUS
 10
168.2738230855
 20
86.8834135768
 30
0.0
 11
0.2
 21
0.0
 31
0.0
 40
0.0524077793
 41
0.5235987756
 42
1.5707963268
  0
ELLIPSE
  5
662
100
AcDbEntity
  8
0
100
AcDbEllipse
 62
7
  6
CONTINUOUS
 10
164.9047631931
 20
86.8834135768
 30
0.0
 11
0.2
 21
0.0
 31
0.0
 40
0.0524077793
 41
1.5707963268
 42
2.617993878
  0
ELLIPSE
  5
663
100
AcDbEntity
  8
0
100
AcDbEllipse
 62
7
  6
CONTINUOUS
 10
153.7047631931
 20
86.8834135768
 30
0.0
 11
0.2
 21
-0.0
 31
0.0
 40
0.0524077793
 41
1.5707963268
 42
2.617993878
  0
ELLIPSE
  5
664
100
AcDbEntity
  8
0
100
AcDbEllipse
 62
7
  6
CONTINUOUS
 10
157.0738230855
 20
86.8834135768
 30
0.0
 11
0.2
 21
-0.0
 31
0.0
 40
0.0524077793
 41
0.5235987756
 42
1.5707963268
  0
ELLIPSE
  5
665
100
AcDbEntity
  8
ASSI
100
AcDbEllipse
 62
7
  6
CONTINUOUS
 10
171.4686991179
 20
130.6718168287
 30
0.0
 11
0.4962344879
 21
-0.0628595572
 31
0.0
 40
0.9963456432
 41
0.1278292453
 42
1.6972555761
  0
ELLIPSE
  5
666
100
AcDbEntity
  8
ASSI
100
AcDbEllipse
 62
7
  6
CONTINUOUS
 10
150.5098871607
 20
130.6718168287
 30
0.0
 11
0.4962344879
 21
0.0628595572
 31
0.0
 40
0.9963456432
 41
1.4443370775
 42
3.0137634083
  0
ELLIPSE
  5
667
100
AcDbEntity
  8
ASSI
100
AcDbEllipse
 62
7
  6
CONTINUOUS
 10
171.488305945
 20
109.7135325527
 30
0.0
 11
0.4745319423
 21
-0.1581451893
 31
0.0
 40
0.9996192872
 41
-1.2489924673
 42
0.3215754254
  0
ELLIPSE
  5
668
100
AcDbEntity
  8
ASSI
100
AcDbEllipse
 62
7
  6
CONTINUOUS
 10
150.4902803336
 20
109.7135325527
 30
0.0
 11
0.4745319423
 21
0.1581451893
 31
0.0
 40
0.9996192872
 41
2.8200172282
 42
4.3905851209
  0
ELLIPSE
  5
669
100
AcDbEntity
  8
ASSI
100
AcDbEllipse
 62
7
  6
CONTINUOUS
 10
153.7047631931
 20
131.1436134502
 30
0.0
 11
0.2
 21
-0.0
 31
0.0
 40
0.0524077793
 41
-2.617993878
 42
-1.5707963268
  0
ELLIPSE
  5
66A
100
AcDbEntity
  8
ASSI
100
AcDbEllipse
 62
7
  6
CONTINUOUS
 10
157.0738230855
 20
131.1436134502
 30
0.0
 11
0.2
 21
0.0
 31
0.0
 40
0.0524077793
 41
-1.5707963268
 42
-0.5235987756
  0
ELLIPSE
  5
66B
100
AcDbEntity
  8
ASSI
100
AcDbEllipse
 62
7
  6
CONTINUOUS
 10
168.2738230855
 20
131.1436134502
 30
0.0
 11
0.2
 21
0.0
 31
0.0
 40
0.0524077793
 41
-1.5707963268
 42
-0.5235987756
  0
ELLIPSE
  5
66C
100
AcDbEntity
  8
ASSI
100
AcDbEllipse
 62
7
  6
CONTINUOUS
 10
164.9047631931
 20
131.1436134502
 30
0.0
 11
0.2
 21
0.0
 31
0.0
 40
0.0524077793
 41
-2.617993878
 42
-1.5707963268
  0
ELLIPSE
  5
66D
100
AcDbEntity
  8
0
100
AcDbEllipse
 62
7
  6
CONTINUOUS
 10
171.4686991179
 20
130.6718168287
 30
0.0
 11
0.4962344879
 21
-0.0628595572
 31
0.0
 40
0.9963456432
 41
0.1278292453
 42
1.6972555761
  0
ELLIPSE
  5
66E
100
AcDbEntity
  8
0
100
AcDbEllipse
 62
7
  6
CONTINUOUS
 10
150.5098871607
 20
130.6718168287
 30
0.0
 11
0.4962344879
 21
0.0628595572
 31
0.0
 40
0.9963456432
 41
1.4443370775
 42
3.0137634083
  0
ELLIPSE
  5
66F
100
AcDbEntity
  8
0
100
AcDbEllipse
 62
7
  6
CONTINUOUS
 10
171.488305945
 20
109.7135325527
 30
0.0
 11
0.4745319423
 21
-0.1581451893
 31
0.0
 40
0.9996192872
 41
-1.2489924673
 42
0.3215754254
  0
ELLIPSE
  5
670
100
AcDbEntity
  8
0
100
AcDbEllipse
 62
7
  6
CONTINUOUS
 10
150.4902803336
 20
109.7135325527
 30
0.0
 11
0.4745319423
 21
0.1581451893
 31
0.0
 40
0.9996192872
 41
2.8200172282
 42
4.3905851209
  0
ELLIPSE
  5
671
100
AcDbEntity
  8
0
100
AcDbEllipse
 62
7
  6
CONTINUOUS
 10
153.7047631931
 20
131.1436134502
 30
0.0
 11
0.2
 21
-0.0
 31
0.0
 40
0.0524077793
 41
-2.617993878
 42
-1.5707963268
  0
ELLIPSE
  5
672
100
AcDbEntity
  8
0
100
AcDbEllipse
 62
7
  6
CONTINUOUS
 10
157.0738230855
 20
131.1436134502
 30
0.0
 11
0.2
 21
0.0
 31
0.0
 40
0.0524077793
 41
-1.5707963268
 42
-0.5235987756
  0
ELLIPSE
  5
673
100
AcDbEntity
  8
0
100
AcDbEllipse
 62
7
  6
CONTINUOUS
 10
168.2738230855
 20
131.1436134502
 30
0.0
 11
0.2
 21
0.0
 31
0.0
 40
0.0524077793
 41
-1.5707963268
 42
-0.5235987756
  0
ELLIPSE
  5
674
100
AcDbEntity
  8
0
100
AcDbEllipse
 62
7
  6
CONTINUOUS
 10
164.9047631931
 20
131.1436134502
 30
0.0
 11
0.2
 21
0.0
 31
0.0
 40
0.0524077793
 41
-2.617993878
 42
-1.5707963268
  0
ELLIPSE
  5
675
100
AcDbEntity
  8
ASSI
100
AcDbEllipse
 62
7
  6
CONTINUOUS
 10
128.3098871607
 20
87.3552101983
 30
0.0
 11
0.4962344879
 21
-0.0628595572
 31
0.0
 40
0.9963456432
 41
-3.0137634083
 42
-1.4443370775
  0
ELLIPSE
  5
676
100
AcDbEntity
  8
ASSI
100
AcDbEllipse
 62
7
  6
CONTINUOUS
 10
149.2686991179
 20
87.3552101983
 30
0.0
 11
0.4962344879
 21
0.0628595572
 31
0.0
 40
0.9963456432
 41
-1.6972555761
 42
-0.1278292453
  0
ELLIPSE
  5
677
100
AcDbEntity
  8
ASSI
100
AcDbEllipse
 62
7
  6
CONTINUOUS
 10
128.2902803336
 20
108.3134944743
 30
0.0
 11
0.4745319423
 21
-0.1581451893
 31
0.0
 40
0.9996192872
 41
1.8926001863
 42
3.463168079
  0
ELLIPSE
  5
678
100
AcDbEntity
  8
ASSI
100
AcDbEllipse
 62
7
  6
CONTINUOUS
 10
149.288305945
 20
108.3134944743
 30
0.0
 11
0.4745319423
 21
0.1581451893
 31
0.0
 40
0.9996192872
 41
-0.3215754254
 42
1.2489924673
  0
ELLIPSE
  5
679
100
AcDbEntity
  8
ASSI
100
AcDbEllipse
 62
7
  6
CONTINUOUS
 10
146.0738230855
 20
86.8834135768
 30
0.0
 11
0.2
 21
0.0
 31
0.0
 40
0.0524077793
 41
0.5235987756
 42
1.5707963268
  0
ELLIPSE
  5
67A
100
AcDbEntity
  8
ASSI
100
AcDbEllipse
 62
7
  6
CONTINUOUS
 10
142.7047631931
 20
86.8834135768
 30
0.0
 11
0.2
 21
-0.0
 31
0.0
 40
0.0524077793
 41
1.5707963268
 42
2.617993878
  0
ELLIPSE
  5
67B
100
AcDbEntity
  8
ASSI
100
AcDbEllipse
 62
7
  6
CONTINUOUS
 10
131.5047631931
 20
86.8834135768
 30
0.0
 11
0.2
 21
-0.0
 31
0.0
 40
0.0524077793
 41
1.5707963268
 42
2.617993878
  0
ELLIPSE
  5
67C
100
AcDbEntity
  8
ASSI
100
AcDbEllipse
 62
7
  6
CONTINUOUS
 10
134.8738230855
 20
86.8834135768
 30
0.0
 11
0.2
 21
0.0
 31
0.0
 40
0.0524077793
 41
0.5235987756
 42
1.5707963268
  0
ELLIPSE
  5
67D
100
AcDbEntity
  8
0
100
AcDbEllipse
 62
7
  6
CONTINUOUS
 10
128.3098871607
 20
87.3552101983
 30
0.0
 11
0.4962344879
 21
-0.0628595572
 31
0.0
 40
0.9963456432
 41
-3.0137634083
 42
-1.4443370775
  0
ELLIPSE
  5
67E
100
AcDbEntity
  8
0
100
AcDbEllipse
 62
7
  6
CONTINUOUS
 10
149.2686991179
 20
87.3552101983
 30
0.0
 11
0.4962344879
 21
0.0628595572
 31
0.0
 40
0.9963456432
 41
-1.6972555761
 42
-0.1278292453
  0
ELLIPSE
  5
67F
100
AcDbEntity
  8
0
100
AcDbEllipse
 62
7
  6
CONTINUOUS
 10
128.2902803336
 20
108.3134944743
 30
0.0
 11
0.4745319423
 21
-0.1581451893
 31
0.0
 40
0.9996192872
 41
1.8926001863
 42
3.463168079
  0
ELLIPSE
  5
680
100
AcDbEntity
  8
0
100
AcDbEllipse
 62
7
  6
CONTINUOUS
 10
149.288305945
 20
108.3134944743
 30
0.0
 11
0.4745319423
 21
0.1581451893
 31
0.0
 40
0.9996192872
 41
-0.3215754254
 42
1.2489924673
  0
ELLIPSE
  5
681
100
AcDbEntity
  8
0
100
AcDbEllipse
 62
7
  6
CONTINUOUS
 10
146.0738230855
 20
86.8834135768
 30
0.0
 11
0.2
 21
0.0
 31
0.0
 40
0.0524077793
 41
0.5235987756
 42
1.5707963268
  0
ELLIPSE
  5
682
100
AcDbEntity
  8
0
100
AcDbEllipse
 62
7
  6
CONTINUOUS
 10
142.7047631931
 20
86.8834135768
 30
0.0
 11
0.2
 21
-0.0
 31
0.0
 40
0.0524077793
 41
1.5707963268
 42
2.617993878
  0
ELLIPSE
  5
683
100
AcDbEntity
  8
0
100
AcDbEllipse
 62
7
  6
CONTINUOUS
 10
131.5047631931
 20
86.8834135768
 30
0.0
 11
0.2
 21
-0.0
 31
0.0
 40
0.0524077793
 41
1.5707963268
 42
2.617993878
  0
ELLIPSE
  5
684
100
AcDbEntity
  8
0
100
AcDbEllipse
 62
7
  6
CONTINUOUS
 10
134.8738230855
 20
86.8834135768
 30
0.0
 11
0.2
 21
0.0
 31
0.0
 40
0.0524077793
 41
0.5235987756
 42
1.5707963268
  0
ENDSEC
  0
SECTION
  2
OBJECTS
  0
DICTIONARY
  5
C
100
AcDbDictionary
280
0
281
1
  3
ACAD_GROUP
350
D
  3
ACAD_MLINESTYLE
350
17
  3
ACAD_LAYOUT
350
1A
  3
ACAD_PLOTSETTINGS
350
19
  3
ACAD_PLOTSTYLENAME
350
E
  0
DICTIONARY
  5
D
102
{ACAD_REACTORS
330
C
102
}
100
AcDbDictionary
280
0
281
1
  0
ACDBDICTIONARYWDFLT
  5
E
102
{ACAD_REACTORS
330
C
102
}
100
AcDbDictionary
281
1
  3
Normal
350
F
100
AcDbDictionaryWithDefault
340
F
  0
DICTIONARY
  5
17
102
{ACAD_REACTORS
330
C
102
}
100
AcDbDictionary
280
0
281
1
  3
Standard
350
18
  0
DICTIONARY
  5
19
102
{ACAD_REACTORS
330
C
102
}
100
AcDbDictionary
281
1
  0
DICTIONARY
  5
1A
102
{ACAD_REACTORS
330
C
102
}
100
AcDbDictionary
281
1
  3
Model
350
685
  3
Layout1
350
686
  0
ACDBPLACEHOLDER
  5
F
102
{ACAD_REACTORS
330
E
102
}
  0
MLINESTYLE
  5
18
102
{ACAD_REACTORS
330
17
102
}
100
AcDbMlineStyle
  2
STANDARD
 70
0
  3

 62
256
 51
90.0
 52
90.0
 71
2
 49
0.5
 62
256
  6
BYLAYER
 49
-0.5
 62
256
  6
BYLAYER
  0
LAYOUT
  5
685
102
{ACAD_REACTORS
330
1A
102
}
100
AcDbPlotSettings
  1

  2
none_device
  4
ISO_A4_(297.00_x_210.00_MM)
  6

 40
0.0
 41
0.0
 42
0.0
 43
0.0
 44
297.0
 45
210.0
 46
0.0
 47
0.0
 48
0.0
 49
0.0
140
0.0
141
0.0
142
1.0
143
1.0
 70
1024
 72
1
 73
0
 74
0
  7

 75
0
147
1.0
148
0.0
149
0.0
100
AcDbLayout
  1
Model
 70
0
 71
0
 10
0.0
 20
0.0
 11
297.0
 21
210.0
 12
0.0
 22
0.0
 32
0.0
 14
0.0
 24
0.0
 34
0.0
 15
0.0
 25
0.0
 35
0.0
146
0.0
 13
0.0
 23
0.0
 33
0.0
 16
1.0
 26
0.0
 36
0.0
 17
0.0
 27
1.0
 37
0.0
 76
0
330
21F
345
0
346
0
  0
LAYOUT
  5
686
102
{ACAD_REACTORS
330
1A
102
}
100
AcDbPlotSettings
  1

  2
none_device
  4
ISO_A4_(297.00_x_210.00_MM)
  6

 40
0.0
 41
0.0
 42
0.0
 43
0.0
 44
297.0
 45
210.0
 46
0.0
 47
0.0
 48
0.0
 49
0.0
140
0.0
141
0.0
142
1.0
143
1.0
 70
0
 72
1
 73
0
 74
0
  7

 75
0
147
1.0
148
0.0
149
0.0
100
AcDbLayout
  1
Layout1
 70
0
 71
1
 10
0.0
 20
0.0
 11
297.0
 21
210.0
 12
0.0
 22
0.0
 32
0.0
 14
0.0
 24
0.0
 34
0.0
 15
0.0
 25
0.0
 35
0.0
146
0.0
 13
0.0
 23
0.0
 33
0.0
 16
1.0
 26
0.0
 36
0.0
 17
0.0
 27
1.0
 37
0.0
 76
0
330
220
345
0
346
0
  0
ENDSEC
  0
EOF
