  0
SECTION
  2
HEADER
  9
$ACADVER
  1
AC1015
  9
$DWGCODEPAGE
  3
ANSI_1252
  9
$EXTMAX
 10
297.0
 20
210.0
 30
0.0
  9
$EXTMIN
 10
0.0
 20
0.0
 30
0.0
  9
$LIMMIN
 10
0.0
 20
0.0
  9
$LIMMAX
 10
297.0
 20
210.0
  9
$VIEWCTR
 10
148.5
 20
105.0
  9
$VIEWSIZE
 40
210.0
  9
$CLAYER
  8
0
  9
$LTSCALE
 40
16.335
  9
$CELTYPE
  6
BYLAYER
  9
$DIMSCALE
 40
1.0
  9
$DIMASZ
 40
3.0
  9
$DIMEXO
 40
0.5
  9
$DIMDLI
 40
11.286
  9
$DIMEXE
 40
1.5
  9
$DIMCEN
 40
2.673
  9
$DIMLFAC
 40
1.0
  9
$DIMBLK
  1
_FILLED
  9
$DIMTXT
 40
3.0
  9
$DIMTOL
 70
1
  9
$DIMLIM
 70
0
  9
$DIMTFAC
 40
1.0
  9
$DIMTP
 40
0.01
  9
$DIMTM
 40
0.01
  9
$DIMGAP
 40
0.625
  9
$DIMDSEP
 70
44
  9
$PDMODE
 70
3
  9
$PDSIZE
 40
3.0
  9
$HANDSEED
  5
6B2
  9
$TILEMODE
 70
1
  9
$MEASUREMENT
 70
1
  9
$INSUNITS
 70
4
  0
ENDSEC
  0
SECTION
  2
CLASSES
  0
CLASS
  1
ACDBDICTIONARYWDFLT
  2
AcDbDictionaryWithDefault
  3
AutoCAD 2000
 90
0
280
0
281
0
  0
CLASS
  1
ACDBPLACEHOLDER
  2
AcDbPlaceHolder
  3
AutoCAD 2000
 90
0
280
0
281
0
  0
CLASS
  1
LAYOUT
  2
AcDbLayout
  3
AutoCAD 2000
 90
0
280
0
281
0
  0
ENDSEC
  0
SECTION
  2
TABLES
  0
TABLE
  2
VPORT
  5
8
100
AcDbSymbolTable
 70
2
  0
VPORT
  5
1F4
100
AcDbSymbolTableRecord
100
AcDbViewportTableRecord
  2
*ACTIVE
 70
0
 10
0.0
 20
0.0
 11
1.0
 21
1.0
 12
148.5
 22
105.0
 13
0.0
 23
0.0
 14
1.0
 24
1.0
 15
0.0
 25
0.0
 16
0.0
 26
0.0
 36
1.0
 17
0.0
 27
0.0
 37
0.0
 40
210.0
 41
1.4142857143
 42
50.0
 43
0.0
 44
0.0
 50
0.0
 51
0.0
 71
0
 72
100
 73
1
 74
1
 75
0
 76
0
 77
0
 78
0
  0
ENDTAB
  0
TABLE
  2
LTYPE
  5
5
100
AcDbSymbolTable
 70
6
  0
LTYPE
  5
14
100
AcDbSymbolTableRecord
100
AcDbLinetypeTableRecord
  2
BYBLOCK
 70
0
  3

 72
65
 73
0
 40
0.0
  0
LTYPE
  5
15
100
AcDbSymbolTableRecord
100
AcDbLinetypeTableRecord
  2
BYLAYER
 70
0
  3

 72
65
 73
0
 40
0.0
  0
LTYPE
  5
16
100
AcDbSymbolTableRecord
100
AcDbLinetypeTableRecord
  2
CONTINUOUS
 70
64
  3
Solid line
 72
65
 73
0
 40
0.0
  0
LTYPE
  5
1F5
100
AcDbSymbolTableRecord
100
AcDbLinetypeTableRecord
  2
CENTER
 70
64
  3
____ _ ____ _ ____ _ ____ _ ____ _ ____ _ ____
 72
65
 73
4
 40
0.6
 49
0.375
 74
0
 49
-0.075
 74
0
 49
0.075
 74
0
 49
-0.075
 74
0
  0
LTYPE
  5
1F6
100
AcDbSymbolTableRecord
100
AcDbLinetypeTableRecord
  2
HIDDEN
 70
64
  3
- - - - - - - - - - - - - - - - - - - -
 72
65
 73
2
 40
0.2
 49
0.1
 74
0
 49
-0.1
 74
0
  0
LTYPE
  5
1F7
100
AcDbSymbolTableRecord
100
AcDbLinetypeTableRecord
  2
PHANTOM
 70
64
  3
_____ _ _ _____ _ _ _____ _ _ _____
 72
65
 73
6
 40
0.8
 49
0.45
 74
0
 49
-0.05
 74
0
 49
0.1
 74
0
 49
-0.05
 74
0
 49
0.1
 74
0
 49
-0.05
 74
0
  0
LTYPE
  5
1F8
100
AcDbSymbolTableRecord
100
AcDbLinetypeTableRecord
  2
DOT
 70
64
  3
. . . . . . . . . . . . . . . . . . . .
 72
65
 73
2
 40
0.2
 49
0.1
 74
0
 49
-0.1
 74
0
  0
LTYPE
  5
1F9
100
AcDbSymbolTableRecord
100
AcDbLinetypeTableRecord
  2
DASHED
 70
64
  3
- - - - - - - - - - - - - - - - - - - -
 72
65
 73
2
 40
0.2
 49
0.1
 74
0
 49
-0.1
 74
0
  0
ENDTAB
  0
TABLE
  2
LAYER
  5
2
100
AcDbSymbolTable
 70
36
  0
LAYER
  5
10
100
AcDbSymbolTableRecord
100
AcDbLayerTableRecord
  2
0
 70
0
 62
7
  6
CONTINUOUS
370
-3
390
F
  0
LAYER
  5
1FA
100
AcDbSymbolTableRecord
100
AcDbLayerTableRecord
  2
DEFAULT_1
 70
0
 62
7
  6
CENTER
370
-3
390
F
  0
LAYER
  5
1FB
100
AcDbSymbolTableRecord
100
AcDbLayerTableRecord
  2
DEFAULT_2
 70
0
 62
7
  6
HIDDEN
370
-3
390
F
  0
LAYER
  5
1FC
100
AcDbSymbolTableRecord
100
AcDbLayerTableRecord
  2
DEFAULT_3
 70
0
 62
7
  6
PHANTOM
370
-3
390
F
  0
LAYER
  5
1FD
100
AcDbSymbolTableRecord
100
AcDbLayerTableRecord
  2
ASSI
 70
0
 62
7
  6
CONTINUOUS
370
-3
390
F
  0
LAYER
  5
1FE
100
AcDbSymbolTableRecord
100
AcDbLayerTableRecord
  2
COLOR3
 70
0
 62
7
  6
CONTINUOUS
370
-3
390
F
  0
LAYER
  5
1FF
100
AcDbSymbolTableRecord
100
AcDbLayerTableRecord
  2
COORDINATE
 70
0
 62
7
  6
CONTINUOUS
370
-3
390
F
  0
LAYER
  5
200
100
AcDbSymbolTableRecord
100
AcDbLayerTableRecord
  2
COPY_PUBLISH
 70
0
 62
7
  6
CONTINUOUS
370
-3
390
F
  0
LAYER
  5
201
100
AcDbSymbolTableRecord
100
AcDbLayerTableRecord
  2
COSMETIC
 70
0
 62
7
  6
CONTINUOUS
370
-3
390
F
  0
LAYER
  5
202
100
AcDbSymbolTableRecord
100
AcDbLayerTableRecord
  2
COSMETICI
 70
0
 62
7
  6
CONTINUOUS
370
-3
390
F
  0
LAYER
  5
203
100
AcDbSymbolTableRecord
100
AcDbLayerTableRecord
  2
CURVE
 70
0
 62
7
  6
CONTINUOUS
370
-3
390
F
  0
LAYER
  5
204
100
AcDbSymbolTableRecord
100
AcDbLayerTableRecord
  2
DRAFT
 70
0
 62
7
  6
CONTINUOUS
370
-3
390
F
  0
LAYER
  5
205
100
AcDbSymbolTableRecord
100
AcDbLayerTableRecord
  2
IMPORT_IGES
 70
0
 62
7
  6
CONTINUOUS
370
-3
390
F
  0
LAYER
  5
206
100
AcDbSymbolTableRecord
100
AcDbLayerTableRecord
  2
INTFCLR_1
 70
0
 62
7
  6
CONTINUOUS
370
-3
390
F
  0
LAYER
  5
207
100
AcDbSymbolTableRecord
100
AcDbLayerTableRecord
  2
INTF_1
 70
0
 62
7
  6
CONTINUOUS
370
-3
390
F
  0
LAYER
  5
208
100
AcDbSymbolTableRecord
100
AcDbLayerTableRecord
  2
INTF_10
 70
0
 62
7
  6
CONTINUOUS
370
-3
390
F
  0
LAYER
  5
209
100
AcDbSymbolTableRecord
100
AcDbLayerTableRecord
  2
INTF_13
 70
0
 62
7
  6
CONTINUOUS
370
-3
390
F
  0
LAYER
  5
20A
100
AcDbSymbolTableRecord
100
AcDbLayerTableRecord
  2
INTF_15
 70
0
 62
7
  6
CONTINUOUS
370
-3
390
F
  0
LAYER
  5
20B
100
AcDbSymbolTableRecord
100
AcDbLayerTableRecord
  2
INTF_16
 70
0
 62
7
  6
CONTINUOUS
370
-3
390
F
  0
LAYER
  5
20C
100
AcDbSymbolTableRecord
100
AcDbLayerTableRecord
  2
INTF_18
 70
0
 62
7
  6
CONTINUOUS
370
-3
390
F
  0
LAYER
  5
20D
100
AcDbSymbolTableRecord
100
AcDbLayerTableRecord
  2
INTF_20
 70
0
 62
7
  6
CONTINUOUS
370
-3
390
F
  0
LAYER
  5
20E
100
AcDbSymbolTableRecord
100
AcDbLayerTableRecord
  2
INTF_3
 70
0
 62
7
  6
CONTINUOUS
370
-3
390
F
  0
LAYER
  5
20F
100
AcDbSymbolTableRecord
100
AcDbLayerTableRecord
  2
INTF_5
 70
0
 62
7
  6
CONTINUOUS
370
-3
390
F
  0
LAYER
  5
210
100
AcDbSymbolTableRecord
100
AcDbLayerTableRecord
  2
INTF_8
 70
0
 62
7
  6
CONTINUOUS
370
-3
390
F
  0
LAYER
  5
211
100
AcDbSymbolTableRecord
100
AcDbLayerTableRecord
  2
NOTE
 70
0
 62
7
  6
CONTINUOUS
370
-3
390
F
  0
LAYER
  5
212
100
AcDbSymbolTableRecord
100
AcDbLayerTableRecord
  2
PIANI
 70
0
 62
7
  6
CONTINUOUS
370
-3
390
F
  0
LAYER
  5
213
100
AcDbSymbolTableRecord
100
AcDbLayerTableRecord
  2
PUNTI
 70
0
 62
7
  6
CONTINUOUS
370
-3
390
F
  0
LAYER
  5
214
100
AcDbSymbolTableRecord
100
AcDbLayerTableRecord
  2
RACCORDO
 70
0
 62
7
  6
CONTINUOUS
370
-3
390
F
  0
LAYER
  5
215
100
AcDbSymbolTableRecord
100
AcDbLayerTableRecord
  2
SIMBOLI
 70
0
 62
7
  6
CONTINUOUS
370
-3
390
F
  0
LAYER
  5
216
100
AcDbSymbolTableRecord
100
AcDbLayerTableRecord
  2
SMUSSO
 70
0
 62
7
  6
CONTINUOUS
370
-3
390
F
  0
LAYER
  5
217
100
AcDbSymbolTableRecord
100
AcDbLayerTableRecord
  2
SNAPLINE
 70
0
 62
7
  6
CONTINUOUS
370
-3
390
F
  0
LAYER
  5
218
100
AcDbSymbolTableRecord
100
AcDbLayerTableRecord
  2
SOLIDO
 70
0
 62
7
  6
CONTINUOUS
370
-3
390
F
  0
LAYER
  5
219
100
AcDbSymbolTableRecord
100
AcDbLayerTableRecord
  2
SUPERFICI
 70
0
 62
7
  6
CONTINUOUS
370
-3
390
F
  0
LAYER
  5
21A
100
AcDbSymbolTableRecord
100
AcDbLayerTableRecord
  2
SUPERFICI_SKEL
 70
0
 62
7
  6
CONTINUOUS
370
-3
390
F
  0
LAYER
  5
21B
100
AcDbSymbolTableRecord
100
AcDbLayerTableRecord
  2
TRASH
 70
0
 62
7
  6
CONTINUOUS
370
-3
390
F
  0
LAYER
  5
21C
100
AcDbSymbolTableRecord
100
AcDbLayerTableRecord
  2
___SHELL
 70
0
 62
7
  6
CONTINUOUS
370
-3
390
F
  0
ENDTAB
  0
TABLE
  2
STYLE
  5
3
100
AcDbSymbolTable
 70
1
  0
STYLE
  5
11
100
AcDbSymbolTableRecord
100
AcDbTextStyleTableRecord
  2
STANDARD
 70
0
 40
0.0
 41
0.8
 50
0.0
 71
0
 42
0.2
  3
txt
  4

  0
STYLE
  5
21D
100
AcDbSymbolTableRecord
100
AcDbTextStyleTableRecord
  2
TEXTSTYLE_1
 70
0
 40
0.0
 41
0.8
 50
0.0
 71
0
 42
0.2
  3
gdt
  4

  0
ENDTAB
  0
TABLE
  2
VIEW
  5
6
100
AcDbSymbolTable
 70
0
  0
ENDTAB
  0
TABLE
  2
UCS
  5
7
100
AcDbSymbolTable
 70
0
  0
ENDTAB
  0
TABLE
  2
APPID
  5
9
100
AcDbSymbolTable
 70
1
  0
APPID
  5
21E
100
AcDbSymbolTableRecord
100
AcDbRegAppTableRecord
  2
ACAD
 70
0
  0
ENDTAB
  0
TABLE
  2
BLOCK_RECORD
  5
1
100
AcDbSymbolTable
 70
0
  0
BLOCK_RECORD
  5
21F
100
AcDbSymbolTableRecord
100
AcDbBlockTableRecord
  2
*Model_Space
  0
BLOCK_RECORD
  5
220
100
AcDbSymbolTableRecord
100
AcDbBlockTableRecord
  2
*Paper_Space
  0
BLOCK_RECORD
  5
221
100
AcDbSymbolTableRecord
100
AcDbBlockTableRecord
  2
_FILLED
  0
BLOCK_RECORD
  5
222
100
AcDbSymbolTableRecord
100
AcDbBlockTableRecord
  2
*D0
  0
BLOCK_RECORD
  5
223
100
AcDbSymbolTableRecord
100
AcDbBlockTableRecord
  2
*D1
  0
BLOCK_RECORD
  5
224
100
AcDbSymbolTableRecord
100
AcDbBlockTableRecord
  2
*D2
  0
ENDTAB
  0
TABLE
  2
DIMSTYLE
  5
A
100
AcDbSymbolTable
 70
1
100
AcDbDimStyleTable
 71
0
  0
DIMSTYLE
105
225
100
AcDbSymbolTableRecord
100
AcDbDimStyleTableRecord
  2
STANDARD
 70
0
  3

  4

 40
1.0
 41
3.0
 42
0.5
 43
0.38
 44
1.5
 45
0.0
 46
0.0
 47
0.01
 48
0.01
140
3.0
141
0.09
142
0.0
143
25.4
144
1.0
145
0.0
146
1.0
147
0.625
 71
1.0
 72
0.0
 73
0
 74
0
 75
0
 76
0
 77
1
 78
8
170
0
171
2
172
0
173
0
174
0
175
0
176
0
177
0
178
0
270
2
271
2
272
2
273
2
274
2
275
0
280
0
281
0
282
0
283
1
284
8
285
0
286
0
287
3
288
0
340
11
278
44
341
221
342
221
343
221
344
221
  0
DIMSTYLE
105
226
100
AcDbSymbolTableRecord
100
AcDbDimStyleTableRecord
  2
DIMSTYLE_1
 70
0
  3

  4

 40
1.0
 41
3.0
 42
0.5
 43
0.38
 44
1.5
 45
0.0
 46
0.0
 47
0.0
 48
0.0
140
3.0
141
0.09
142
0.0
143
25.4
144
1.0
145
0.0
146
1.0
147
0.75
 71
0.0
 72
0.0
 73
0
 74
0
 75
0
 76
0
 77
1
 78
8
170
0
171
2
172
0
173
0
174
0
175
0
176
0
177
0
178
0
270
2
271
2
272
2
273
2
274
2
275
0
280
0
281
0
282
0
283
1
284
8
285
0
286
0
287
3
288
0
340
11
278
44
341
221
342
221
343
221
344
221
  0
DIMSTYLE
105
227
100
AcDbSymbolTableRecord
100
AcDbDimStyleTableRecord
  2
DIMSTYLE_2
 70
0
  3

  4

 40
1.0
 41
3.0
 42
0.5
 43
0.38
 44
1.5
 45
0.0
 46
0.0
 47
0.0
 48
0.0
140
3.0
141
0.09
142
0.0
143
25.4
144
1.0
145
0.0
146
1.0
147
0.75
 71
0.0
 72
0.0
 73
0
 74
0
 75
0
 76
0
 77
1
 78
8
170
0
171
2
172
0
173
0
174
0
175
0
176
0
177
0
178
0
270
2
271
1
272
1
273
2
274
2
275
0
280
0
281
0
282
0
283
1
284
8
285
0
286
0
287
3
288
0
340
11
278
44
341
221
342
221
343
221
344
221
  0
ENDTAB
  0
ENDSEC
  0
SECTION
  2
BLOCKS
  0
BLOCK
  5
20
100
AcDbEntity
  8
0
100
AcDbBlockBegin
  2
*Model_Space
 70
0
 10
0.0
 20
0.0
 30
0.0
  3
*Model_Space
  1

  0
ENDBLK
  5
21
100
AcDbEntity
  8
0
100
AcDbBlockEnd
  0
BLOCK
  5
1C
100
AcDbEntity
  8
0
100
AcDbBlockBegin
  2
*Paper_Space
 70
0
 10
0.0
 20
0.0
 30
0.0
  3
*Paper_Space
  1

  0
ENDBLK
  5
1D
100
AcDbEntity
  8
0
100
AcDbBlockEnd
  0
BLOCK
  5
228
100
AcDbEntity
  8
0
100
AcDbBlockBegin
  2
_FILLED
 70
64
 10
0.0
 20
0.0
  3
_FILLED
  1

  0
SOLID
  5
229
100
AcDbEntity
  8
0
  6
BYBLOCK
 62
0
100
AcDbTrace
 10
0.0
 20
0.0
 11
-1.0
 21
0.3166666667
 12
-1.0
 22
-0.3166666667
 13
-1.0
 23
-0.3166666667
  0
ENDBLK
  5
22A
100
AcDbEntity
  8
0
  6
BYBLOCK
 62
0
100
AcDbBlockEnd
  0
BLOCK
  5
22B
100
AcDbEntity
  8
0
100
AcDbBlockBegin
 62
7
  6
CONTINUOUS
  2
*D0
 70
65
 10
0.0
 20
0.0
  3
*D0
  1

  0
MTEXT
  5
22C
100
AcDbEntity
  8
0
100
AcDbMText
 62
7
  6
CONTINUOUS
  7
STANDARD
 71
2
 72
1
 10
148.4001209576
 20
136.8609544632
 30
0.0
 11
1.0
 21
0.0
 31
0.0
 44
0.9
  1
44,2
 40
3.0
 41
8.7857142857
  0
LINE
  5
22D
100
AcDbEntity
  8
0
100
AcDbLine
 62
7
  6
CONTINUOUS
 10
127.4778121888
 20
111.3174979568
 11
127.4778121888
 21
134.6109544632
  0
LINE
  5
22E
100
AcDbEntity
  8
0
100
AcDbLine
 62
7
  6
CONTINUOUS
 10
171.6761805927
 20
111.3174979568
 11
171.6761805927
 21
134.6109544632
  0
LINE
  5
22F
100
AcDbEntity
  8
0
100
AcDbLine
 62
7
  6
CONTINUOUS
 10
127.4778121888
 20
133.1109544632
 11
149.5769963908
 21
133.1109544632
  0
LINE
  5
230
100
AcDbEntity
  8
0
100
AcDbLine
 62
7
  6
CONTINUOUS
 10
171.6761805927
 20
133.1109544632
 11
149.5769963908
 21
133.1109544632
  0
INSERT
  5
231
100
AcDbEntity
  8
0
100
AcDbBlockReference
 62
7
  6
CONTINUOUS
  2
_FILLED
 10
127.4778121888
 20
133.1109544632
 41
3.0
 42
3.0
 43
3.0
 50
180.0
  0
INSERT
  5
232
100
AcDbEntity
  8
0
100
AcDbBlockReference
 62
7
  6
CONTINUOUS
  2
_FILLED
 10
171.6761805927
 20
133.1109544632
 41
3.0
 42
3.0
 43
3.0
  0
ENDBLK
  5
233
100
AcDbEntity
  8
0
  6
BYBLOCK
 62
0
100
AcDbBlockEnd
  0
BLOCK
  5
234
100
AcDbEntity
  8
0
100
AcDbBlockBegin
 62
7
  6
CONTINUOUS
  2
*D1
 70
65
 10
0.0
 20
0.0
  3
*D1
  1

  0
MTEXT
  5
235
100
AcDbEntity
  8
0
100
AcDbMText
 62
7
  6
CONTINUOUS
  7
STANDARD
 71
2
 72
1
 10
181.0129786549
 20
97.7174979568
 30
0.0
 11
0.0
 21
1.0
 31
0.0
 44
0.9
  1
44,3
 40
3.0
 41
8.5714285714
  0
LINE
  5
236
100
AcDbEntity
  8
0
100
AcDbLine
 62
7
  6
CONTINUOUS
 10
171.6559457797
 20
119.8742022335
 11
186.2629786549
 21
119.8742022335
  0
LINE
  5
237
100
AcDbEntity
  8
0
100
AcDbLine
 62
7
  6
CONTINUOUS
 10
171.6559457797
 20
75.5607936802
 11
186.2629786549
 21
75.5607936802
  0
LINE
  5
238
100
AcDbEntity
  8
0
100
AcDbLine
 62
7
  6
CONTINUOUS
 10
184.7629786549
 20
119.8742022335
 11
184.7629786549
 21
97.7174979568
  0
LINE
  5
239
100
AcDbEntity
  8
0
100
AcDbLine
 62
7
  6
CONTINUOUS
 10
184.7629786549
 20
75.5607936802
 11
184.7629786549
 21
97.7174979568
  0
INSERT
  5
23A
100
AcDbEntity
  8
0
100
AcDbBlockReference
 62
7
  6
CONTINUOUS
  2
_FILLED
 10
184.7629786549
 20
119.8742022335
 41
3.0
 42
3.0
 43
3.0
 50
90.0
  0
INSERT
  5
23B
100
AcDbEntity
  8
0
100
AcDbBlockReference
 62
7
  6
CONTINUOUS
  2
_FILLED
 10
184.7629786549
 20
75.5607936802
 41
3.0
 42
3.0
 43
3.0
 50
270.0
  0
ENDBLK
  5
23C
100
AcDbEntity
  8
0
  6
BYBLOCK
 62
0
100
AcDbBlockEnd
  0
BLOCK
  5
23D
100
AcDbEntity
  8
0
100
AcDbBlockBegin
 62
7
  6
CONTINUOUS
  2
*D2
 70
65
 10
0.0
 20
0.0
  3
*D2
  1

  0
MTEXT
  5
23E
100
AcDbEntity
  8
0
100
AcDbMText
 62
7
  6
CONTINUOUS
  7
STANDARD
 71
2
 72
1
 10
115.4344566019
 20
136.8609544632
 30
0.0
 11
1.0
 21
0.0
 31
0.0
 44
0.9
  1
5,3
 40
3.0
 41
6.0
  0
LINE
  5
23F
100
AcDbEntity
  8
0
100
AcDbLine
 62
7
  6
CONTINUOUS
 10
118.1091180533
 20
111.3174979568
 11
118.1091180533
 21
134.6109544632
  0
LINE
  5
240
100
AcDbEntity
  8
0
100
AcDbLine
 62
7
  6
CONTINUOUS
 10
112.7597951505
 20
98.9607653336
 11
112.7597951505
 21
134.6109544632
  0
LINE
  5
241
100
AcDbEntity
  8
0
100
AcDbLine
 62
7
  6
CONTINUOUS
 10
118.1091180533
 20
133.1109544632
 11
122.1091180533
 21
133.1109544632
  0
LINE
  5
242
100
AcDbEntity
  8
0
100
AcDbLine
 62
7
  6
CONTINUOUS
 10
122.1091180533
 20
133.1109544632
 11
115.4344566019
 21
133.1109544632
  0
LINE
  5
243
100
AcDbEntity
  8
0
100
AcDbLine
 62
7
  6
CONTINUOUS
 10
112.7597951505
 20
133.1109544632
 11
108.7597951505
 21
133.1109544632
  0
LINE
  5
244
100
AcDbEntity
  8
0
100
AcDbLine
 62
7
  6
CONTINUOUS
 10
108.7597951505
 20
133.1109544632
 11
115.4344566019
 21
133.1109544632
  0
INSERT
  5
245
100
AcDbEntity
  8
0
100
AcDbBlockReference
 62
7
  6
CONTINUOUS
  2
_FILLED
 10
118.1091180533
 20
133.1109544632
 41
3.0
 42
3.0
 43
3.0
 50
180.0
  0
INSERT
  5
246
100
AcDbEntity
  8
0
100
AcDbBlockReference
 62
7
  6
CONTINUOUS
  2
_FILLED
 10
112.7597951505
 20
133.1109544632
 41
3.0
 42
3.0
 43
3.0
  0
ENDBLK
  5
247
100
AcDbEntity
  8
0
  6
BYBLOCK
 62
0
100
AcDbBlockEnd
  0
ENDSEC
  0
SECTION
  2
ENTITIES
  0
DIMENSION
  5
248
100
AcDbEntity
  8
0
100
AcDbDimension
 62
7
  6
CONTINUOUS
  2
*D0
 10
171.6761805927
 20
133.1109544632
 11
148.4001209576
 21
133.1109544632
 70
160
 71
2
 42
44.1983684039
  3
DIMSTYLE_1
100
AcDbAlignedDimension
 13
127.4778121888
 23
110.8174979568
 14
171.6761805927
 24
110.8174979568
100
AcDbRotatedDimension
  0
DIMENSION
  5
249
100
AcDbEntity
  8
0
100
AcDbDimension
 62
7
  6
CONTINUOUS
  2
*D1
 10
184.7629786549
 20
75.5607936802
 11
184.7629786549
 21
97.7174979568
 70
160
 71
2
 42
44.3134085533
  3
DIMSTYLE_2
100
AcDbAlignedDimension
 13
171.1559457797
 23
119.8742022335
 14
171.1559457797
 24
75.5607936802
 50
270.0
100
AcDbRotatedDimension
  0
DIMENSION
  5
24A
100
AcDbEntity
  8
0
100
AcDbDimension
 62
7
  6
CONTINUOUS
  2
*D2
 10
112.7597951505
 20
133.1109544632
 11
115.4344566019
 21
133.1109544632
 70
160
 71
2
 42
5.3493229028
  3
DIMSTYLE_2
100
AcDbAlignedDimension
 13
118.1091180533
 23
110.8174979568
 14
112.7597951505
 24
98.4607653336
 50
180.0
100
AcDbRotatedDimension
  0
LWPOLYLINE
  5
24B
100
AcDbEntity
  8
ASSI
100
AcDbPolyline
 62
253
  6
CONTINUOUS
 90
7
 70
0
 10
128.064159055
 20
119.7418873985
 10
128.0631073587
 20
119.7345014613
 10
128.0620138402
 20
119.7212257899
 10
128.0609063786
 20
119.7021290119
 10
128.0598336137
 20
119.6773093616
 10
128.0588014824
 20
119.6468918848
 10
128.0567720554
 20
119.5698871128
  0
LWPOLYLINE
  5
24C
100
AcDbEntity
  8
0
100
AcDbPolyline
 62
253
  6
CONTINUOUS
 90
7
 70
0
 10
128.064159055
 20
119.7418873985
 10
128.0631073587
 20
119.7345014613
 10
128.0620138402
 20
119.7212257899
 10
128.0609063786
 20
119.7021290119
 10
128.0598336137
 20
119.6773093616
 10
128.0588014824
 20
119.6468918848
 10
128.0567720554
 20
119.5698871128
  0
LINE
  5
24D
100
AcDbEntity
  8
ASSI
100
AcDbLine
 62
7
  6
CONTINUOUS
 10
164.0684396419
 20
75.5607936802
 11
164.4192613639
 21
75.5926387981
  0
LINE
  5
24E
100
AcDbEntity
  8
0
100
AcDbLine
 62
7
  6
CONTINUOUS
 10
164.0684396419
 20
75.5607936802
 11
164.4192613639
 21
75.5926387981
  0
LWPOLYLINE
  5
24F
100
AcDbEntity
  8
ASSI
100
AcDbPolyline
 62
253
  6
CONTINUOUS
 90
16
 70
0
 10
171.0898337265
 20
75.6931085152
 10
171.1420353529
 20
75.6959105604
 10
171.1936659645
 20
75.7041431498
 10
171.2441608612
 20
75.7177162201
 10
171.292967783
 20
75.7364813045
 10
171.3395529045
 20
75.7602331405
 10
171.3834066812
 20
75.7887119007
 10
171.4240494856
 20
75.8216060693
 10
171.4610368302
 20
75.8585558537
 10
171.4939641938
 20
75.8991570888
 10
171.5224714734
 20
75.9429656802
 10
171.5462469257
 20
75.9895024772
 10
171.56503056
 20
76.0382585021
 10
171.5786169766
 20
76.0887005051
 10
171.5868576162
 20
76.1402767943
 10
171.589662389
 20
76.1924232826
  0
LWPOLYLINE
  5
250
100
AcDbEntity
  8
0
100
AcDbPolyline
 62
253
  6
CONTINUOUS
 90
16
 70
0
 10
171.0898337265
 20
75.6931085152
 10
171.1420353529
 20
75.6959105604
 10
171.1936659645
 20
75.7041431498
 10
171.2441608612
 20
75.7177162201
 10
171.292967783
 20
75.7364813045
 10
171.3395529045
 20
75.7602331405
 10
171.3834066812
 20
75.7887119007
 10
171.4240494856
 20
75.8216060693
 10
171.4610368302
 20
75.8585558537
 10
171.4939641938
 20
75.8991570888
 10
171.5224714734
 20
75.9429656802
 10
171.5462469257
 20
75.9895024772
 10
171.56503056
 20
76.0382585021
 10
171.5786169766
 20
76.0887005051
 10
171.5868576162
 20
76.1402767943
 10
171.589662389
 20
76.1924232826
  0
LWPOLYLINE
  5
251
100
AcDbEntity
  8
ASSI
100
AcDbPolyline
 62
253
  6
CONTINUOUS
 90
16
 70
0
 10
128.0641590544
 20
75.693108514
 10
128.0119580844
 20
75.6959104892
 10
127.9603280428
 20
75.7041428863
 10
127.9098336139
 20
75.7177156665
 10
127.8610270615
 20
75.7364803827
 10
127.8144421888
 20
75.7602318028
 10
127.7705885004
 20
75.7887101545
 10
127.7299456295
 20
75.8216039667
 10
127.6929580921
 20
75.8585534757
 10
127.6600304257
 20
75.89915456
 10
127.631522764
 20
75.9429631605
 10
127.607746899
 20
75.9895001373
 10
127.5889628702
 20
76.0382565096
 10
127.5753761209
 20
76.088699023
 10
127.567135251
 20
76.1402759814
 10
127.5643303919
 20
76.1924232813
  0
LWPOLYLINE
  5
252
100
AcDbEntity
  8
0
100
AcDbPolyline
 62
253
  6
CONTINUOUS
 90
16
 70
0
 10
128.0641590544
 20
75.693108514
 10
128.0119580844
 20
75.6959104892
 10
127.9603280428
 20
75.7041428863
 10
127.9098336139
 20
75.7177156665
 10
127.8610270615
 20
75.7364803827
 10
127.8144421888
 20
75.7602318028
 10
127.7705885004
 20
75.7887101545
 10
127.7299456295
 20
75.8216039667
 10
127.6929580921
 20
75.8585534757
 10
127.6600304257
 20
75.89915456
 10
127.631522764
 20
75.9429631605
 10
127.607746899
 20
75.9895001373
 10
127.5889628702
 20
76.0382565096
 10
127.5753761209
 20
76.088699023
 10
127.567135251
 20
76.1402759814
 10
127.5643303919
 20
76.1924232813
  0
LINE
  5
253
100
AcDbEntity
  8
ASSI
100
AcDbLine
 62
7
  6
CONTINUOUS
 10
135.0855531397
 20
75.5607936802
 11
134.7347314177
 21
75.5926387981
  0
LINE
  5
254
100
AcDbEntity
  8
0
100
AcDbLine
 62
7
  6
CONTINUOUS
 10
135.0855531397
 20
75.5607936802
 11
134.7347314177
 21
75.5926387981
  0
LWPOLYLINE
  5
255
100
AcDbEntity
  8
ASSI
100
AcDbPolyline
 62
253
  6
CONTINUOUS
 90
8
 70
0
 10
128.0647179352
 20
98.0862688161
 10
128.0683570925
 20
98.0531703277
 10
128.0722880594
 20
98.0245279867
 10
128.0759379278
 20
98.0006056738
 10
128.080210488
 20
97.9815663811
 10
128.0851034063
 20
97.9676675197
 10
128.0896415144
 20
97.9591214844
 10
128.0933371949
 20
97.9559794285
  0
LWPOLYLINE
  5
256
100
AcDbEntity
  8
0
100
AcDbPolyline
 62
253
  6
CONTINUOUS
 90
8
 70
0
 10
128.0647179352
 20
98.0862688161
 10
128.0683570925
 20
98.0531703277
 10
128.0722880594
 20
98.0245279867
 10
128.0759379278
 20
98.0006056738
 10
128.080210488
 20
97.9815663811
 10
128.0851034063
 20
97.9676675197
 10
128.0896415144
 20
97.9591214844
 10
128.0933371949
 20
97.9559794285
  0
LWPOLYLINE
  5
257
100
AcDbEntity
  8
ASSI
100
AcDbPolyline
 62
253
  6
CONTINUOUS
 90
16
 70
0
 10
127.5935085324
 20
98.4559603901
 10
127.5961940698
 20
98.4043144502
 10
127.6042342407
 20
98.3530504577
 10
127.6175958538
 20
98.3027289456
 10
127.6362097765
 20
98.2538567046
 10
127.6599113997
 20
98.2070442637
 10
127.6883869908
 20
98.1629721242
 10
127.7212818267
 20
98.1221720734
 10
127.7582656575
 20
98.0850388386
 10
127.798942904
 20
98.0519730303
 10
127.8428770062
 20
98.0233371096
 10
127.8895802223
 20
97.9994560149
 10
127.938526934
 20
97.9806010457
 10
127.9891736337
 20
97.9669808157
 10
128.0409671043
 20
97.9587433713
 10
128.0933371949
 20
97.9559794285
  0
LWPOLYLINE
  5
258
100
AcDbEntity
  8
0
100
AcDbPolyline
 62
253
  6
CONTINUOUS
 90
16
 70
0
 10
127.5935085324
 20
98.4559603901
 10
127.5961940698
 20
98.4043144502
 10
127.6042342407
 20
98.3530504577
 10
127.6175958538
 20
98.3027289456
 10
127.6362097765
 20
98.2538567046
 10
127.6599113997
 20
98.2070442637
 10
127.6883869908
 20
98.1629721242
 10
127.7212818267
 20
98.1221720734
 10
127.7582656575
 20
98.0850388386
 10
127.798942904
 20
98.0519730303
 10
127.8428770062
 20
98.0233371096
 10
127.8895802223
 20
97.9994560149
 10
127.938526934
 20
97.9806010457
 10
127.9891736337
 20
97.9669808157
 10
128.0409671043
 20
97.9587433713
 10
128.0933371949
 20
97.9559794285
  0
LWPOLYLINE
  5
259
100
AcDbEntity
  8
ASSI
100
AcDbPolyline
 62
253
  6
CONTINUOUS
 90
4
 70
0
 10
128.0544116355
 20
98.2545265553
 10
128.0562126296
 20
98.2078156548
 10
128.058926807
 20
98.1638455702
 10
128.0647179352
 20
98.0862688161
  0
LWPOLYLINE
  5
25A
100
AcDbEntity
  8
0
100
AcDbPolyline
 62
253
  6
CONTINUOUS
 90
4
 70
0
 10
128.0544116355
 20
98.2545265553
 10
128.0562126296
 20
98.2078156548
 10
128.058926807
 20
98.1638455702
 10
128.0647179352
 20
98.0862688161
  0
LWPOLYLINE
  5
25B
100
AcDbEntity
  8
ASSI
100
AcDbPolyline
 62
253
  6
CONTINUOUS
 90
6
 70
0
 10
128.0588014816
 20
75.7881040288
 10
128.059833613
 20
75.7576865525
 10
128.060906378
 20
75.7328669021
 10
128.0620138396
 20
75.7137701235
 10
128.0631073581
 20
75.7004944515
 10
128.0641590544
 20
75.693108514
  0
LWPOLYLINE
  5
25C
100
AcDbEntity
  8
0
100
AcDbPolyline
 62
253
  6
CONTINUOUS
 90
6
 70
0
 10
128.0588014816
 20
75.7881040288
 10
128.059833613
 20
75.7576865525
 10
128.060906378
 20
75.7328669021
 10
128.0620138396
 20
75.7137701235
 10
128.0631073581
 20
75.7004944515
 10
128.0641590544
 20
75.693108514
  0
LINE
  5
25D
100
AcDbEntity
  8
ASSI
100
AcDbLine
 62
253
  6
CONTINUOUS
 10
127.5750124937
 20
119.0855152806
 11
127.5768981807
 21
119.01791466
  0
LINE
  5
25E
100
AcDbEntity
  8
0
100
AcDbLine
 62
253
  6
CONTINUOUS
 10
127.5750124937
 20
119.0855152806
 11
127.5768981807
 21
119.01791466
  0
LINE
  5
25F
100
AcDbEntity
  8
ASSI
100
AcDbLine
 62
253
  6
CONTINUOUS
 10
128.0567720545
 20
75.8651087997
 11
128.0588014816
 21
75.7881040288
  0
LINE
  5
260
100
AcDbEntity
  8
0
100
AcDbLine
 62
253
  6
CONTINUOUS
 10
128.0567720545
 20
75.8651087997
 11
128.0588014816
 21
75.7881040288
  0
LINE
  5
261
100
AcDbEntity
  8
ASSI
100
AcDbLine
 62
253
  6
CONTINUOUS
 10
127.5768981807
 20
119.01791466
 11
127.5785120029
 21
118.9411679141
  0
LINE
  5
262
100
AcDbEntity
  8
0
100
AcDbLine
 62
253
  6
CONTINUOUS
 10
127.5768981807
 20
119.01791466
 11
127.5785120029
 21
118.9411679141
  0
LINE
  5
263
100
AcDbEntity
  8
ASSI
100
AcDbLine
 62
253
  6
CONTINUOUS
 10
128.0548982391
 20
75.9623538676
 11
128.0567720545
 21
75.8651087997
  0
LINE
  5
264
100
AcDbEntity
  8
0
100
AcDbLine
 62
253
  6
CONTINUOUS
 10
128.0548982391
 20
75.9623538676
 11
128.0567720545
 21
75.8651087997
  0
LINE
  5
265
100
AcDbEntity
  8
ASSI
100
AcDbLine
 62
253
  6
CONTINUOUS
 10
127.5785120029
 20
118.9411679141
 11
127.5798303192
 21
118.8564159123
  0
LINE
  5
266
100
AcDbEntity
  8
0
100
AcDbLine
 62
253
  6
CONTINUOUS
 10
127.5785120029
 20
118.9411679141
 11
127.5798303192
 21
118.8564159123
  0
LINE
  5
267
100
AcDbEntity
  8
ASSI
100
AcDbLine
 62
253
  6
CONTINUOUS
 10
128.0523987795
 20
76.1418252192
 11
128.0548982391
 21
75.9623538676
  0
LINE
  5
268
100
AcDbEntity
  8
0
100
AcDbLine
 62
253
  6
CONTINUOUS
 10
128.0523987795
 20
76.1418252192
 11
128.0548982391
 21
75.9623538676
  0
LINE
  5
269
100
AcDbEntity
  8
ASSI
100
AcDbLine
 62
253
  6
CONTINUOUS
 10
127.5798303192
 20
118.8564159123
 11
127.5811888038
 21
118.7184077529
  0
LINE
  5
26A
100
AcDbEntity
  8
0
100
AcDbLine
 62
253
  6
CONTINUOUS
 10
127.5798303192
 20
118.8564159123
 11
127.5811888038
 21
118.7184077529
  0
LINE
  5
26B
100
AcDbEntity
  8
ASSI
100
AcDbLine
 62
253
  6
CONTINUOUS
 10
128.0498253514
 20
76.4310124429
 11
128.0523987795
 21
76.1418252192
  0
LINE
  5
26C
100
AcDbEntity
  8
0
100
AcDbLine
 62
253
  6
CONTINUOUS
 10
128.0498253514
 20
76.4310124429
 11
128.0523987795
 21
76.1418252192
  0
LWPOLYLINE
  5
26D
100
AcDbEntity
  8
ASSI
100
AcDbPolyline
 62
253
  6
CONTINUOUS
 90
3
 70
0
 10
128.0506708051
 20
96.9782772965
 10
128.0504460386
 20
97.0312652298
 10
128.0512986717
 20
97.0825150762
  0
LWPOLYLINE
  5
26E
100
AcDbEntity
  8
0
100
AcDbPolyline
 62
253
  6
CONTINUOUS
 90
3
 70
0
 10
128.0506708051
 20
96.9782772965
 10
128.0504460386
 20
97.0312652298
 10
128.0512986717
 20
97.0825150762
  0
LINE
  5
26F
100
AcDbEntity
  8
ASSI
100
AcDbLine
 62
7
  6
CONTINUOUS
 10
127.4974205802
 20
76.0585118345
 11
127.4778121888
 21
84.6174979568
  0
LINE
  5
270
100
AcDbEntity
  8
0
100
AcDbLine
 62
7
  6
CONTINUOUS
 10
127.4974205802
 20
76.0585118345
 11
127.4778121888
 21
84.6174979568
  0
LINE
  5
271
100
AcDbEntity
  8
ASSI
100
AcDbLine
 62
253
  6
CONTINUOUS
 10
128.0480978088
 20
76.8402304763
 11
128.0498253514
 21
76.4310124429
  0
LINE
  5
272
100
AcDbEntity
  8
0
100
AcDbLine
 62
253
  6
CONTINUOUS
 10
128.0480978088
 20
76.8402304763
 11
128.0498253514
 21
76.4310124429
  0
LINE
  5
273
100
AcDbEntity
  8
ASSI
100
AcDbLine
 62
253
  6
CONTINUOUS
 10
127.5811888038
 20
118.7184077529
 11
127.5817569071
 21
118.5733233137
  0
LINE
  5
274
100
AcDbEntity
  8
0
100
AcDbLine
 62
253
  6
CONTINUOUS
 10
127.5811888038
 20
118.7184077529
 11
127.5817569071
 21
118.5733233137
  0
LINE
  5
275
100
AcDbEntity
  8
ASSI
100
AcDbLine
 62
253
  6
CONTINUOUS
 10
127.5817569071
 20
118.5733233137
 11
127.5919800228
 21
105.2711619691
  0
LINE
  5
276
100
AcDbEntity
  8
0
100
AcDbLine
 62
253
  6
CONTINUOUS
 10
127.5817569071
 20
118.5733233137
 11
127.5919800228
 21
105.2711619691
  0
LINE
  5
277
100
AcDbEntity
  8
ASSI
100
AcDbLine
 62
7
  6
CONTINUOUS
 10
127.4778121888
 20
110.8174979568
 11
127.4778121888
 21
98.4174027746
  0
LINE
  5
278
100
AcDbEntity
  8
0
100
AcDbLine
 62
7
  6
CONTINUOUS
 10
127.4778121888
 20
110.8174979568
 11
127.4778121888
 21
98.4174027746
  0
LINE
  5
279
100
AcDbEntity
  8
ASSI
100
AcDbLine
 62
7
  6
CONTINUOUS
 10
127.4778121888
 20
84.6174979568
 11
127.4778121888
 21
97.017593139
  0
LINE
  5
27A
100
AcDbEntity
  8
0
100
AcDbLine
 62
7
  6
CONTINUOUS
 10
127.4778121888
 20
84.6174979568
 11
127.4778121888
 21
97.017593139
  0
LINE
  5
27B
100
AcDbEntity
  8
ASSI
100
AcDbLine
 62
253
  6
CONTINUOUS
 10
127.5919800228
 20
105.2711619691
 11
127.5935085324
 21
98.4559603901
  0
LINE
  5
27C
100
AcDbEntity
  8
0
100
AcDbLine
 62
253
  6
CONTINUOUS
 10
127.5919800228
 20
105.2711619691
 11
127.5935085324
 21
98.4559603901
  0
LINE
  5
27D
100
AcDbEntity
  8
ASSI
100
AcDbLine
 62
253
  6
CONTINUOUS
 10
128.050671021
 20
96.9782772929
 11
128.048097814
 21
76.8402304753
  0
LINE
  5
27E
100
AcDbEntity
  8
0
100
AcDbLine
 62
253
  6
CONTINUOUS
 10
128.050671021
 20
96.9782772929
 11
128.048097814
 21
76.8402304753
  0
LINE
  5
27F
100
AcDbEntity
  8
ASSI
100
AcDbLine
 62
253
  6
CONTINUOUS
 10
127.5935085349
 20
96.9790355227
 11
127.5912589766
 21
88.5544483527
  0
LINE
  5
280
100
AcDbEntity
  8
0
100
AcDbLine
 62
253
  6
CONTINUOUS
 10
127.5935085349
 20
96.9790355227
 11
127.5912589766
 21
88.5544483527
  0
LINE
  5
281
100
AcDbEntity
  8
ASSI
100
AcDbLine
 62
253
  6
CONTINUOUS
 10
127.5912589766
 20
88.5544483527
 11
127.584362021
 21
79.3649954918
  0
LINE
  5
282
100
AcDbEntity
  8
0
100
AcDbLine
 62
253
  6
CONTINUOUS
 10
127.5912589766
 20
88.5544483527
 11
127.584362021
 21
79.3649954918
  0
LINE
  5
283
100
AcDbEntity
  8
ASSI
100
AcDbLine
 62
7
  6
CONTINUOUS
 10
127.4974205802
 20
119.3764840791
 11
127.4778121888
 21
110.8174979568
  0
LINE
  5
284
100
AcDbEntity
  8
0
100
AcDbLine
 62
7
  6
CONTINUOUS
 10
127.4974205802
 20
119.3764840791
 11
127.4778121888
 21
110.8174979568
  0
LINE
  5
285
100
AcDbEntity
  8
ASSI
100
AcDbLine
 62
253
  6
CONTINUOUS
 10
128.0485712289
 20
118.7621075069
 11
128.0506710095
 21
98.4567186262
  0
LINE
  5
286
100
AcDbEntity
  8
0
100
AcDbLine
 62
253
  6
CONTINUOUS
 10
128.0485712289
 20
118.7621075069
 11
128.0506710095
 21
98.4567186262
  0
LINE
  5
287
100
AcDbEntity
  8
ASSI
100
AcDbLine
 62
253
  6
CONTINUOUS
 10
127.584362021
 20
79.3649954918
 11
127.5814659911
 21
76.7641633852
  0
LINE
  5
288
100
AcDbEntity
  8
0
100
AcDbLine
 62
253
  6
CONTINUOUS
 10
127.584362021
 20
79.3649954918
 11
127.5814659911
 21
76.7641633852
  0
LWPOLYLINE
  5
289
100
AcDbEntity
  8
ASSI
100
AcDbPolyline
 62
253
  6
CONTINUOUS
 90
4
 70
0
 10
128.0506708025
 20
98.4567186282
 10
128.0504461646
 20
98.403732692
 10
128.0512987165
 20
98.3524845195
 10
128.0544116355
 20
98.2545265553
  0
LWPOLYLINE
  5
28A
100
AcDbEntity
  8
0
100
AcDbPolyline
 62
253
  6
CONTINUOUS
 90
4
 70
0
 10
128.0506708025
 20
98.4567186282
 10
128.0504461646
 20
98.403732692
 10
128.0512987165
 20
98.3524845195
 10
128.0544116355
 20
98.2545265553
  0
LINE
  5
28B
100
AcDbEntity
  8
ASSI
100
AcDbLine
 62
253
  6
CONTINUOUS
 10
128.0509965891
 20
119.1545739373
 11
128.0485712289
 21
118.7621075069
  0
LINE
  5
28C
100
AcDbEntity
  8
0
100
AcDbLine
 62
253
  6
CONTINUOUS
 10
128.0509965891
 20
119.1545739373
 11
128.0485712289
 21
118.7621075069
  0
LINE
  5
28D
100
AcDbEntity
  8
ASSI
100
AcDbLine
 62
253
  6
CONTINUOUS
 10
127.5814659911
 20
76.7641633852
 11
127.5803665419
 21
76.6232988473
  0
LINE
  5
28E
100
AcDbEntity
  8
0
100
AcDbLine
 62
253
  6
CONTINUOUS
 10
127.5814659911
 20
76.7641633852
 11
127.5803665419
 21
76.6232988473
  0
LINE
  5
28F
100
AcDbEntity
  8
ASSI
100
AcDbLine
 62
253
  6
CONTINUOUS
 10
128.0531867514
 20
119.3571005212
 11
128.0509965891
 21
119.1545739373
  0
LINE
  5
290
100
AcDbEntity
  8
0
100
AcDbLine
 62
253
  6
CONTINUOUS
 10
128.0531867514
 20
119.3571005212
 11
128.0509965891
 21
119.1545739373
  0
LINE
  5
291
100
AcDbEntity
  8
ASSI
100
AcDbLine
 62
253
  6
CONTINUOUS
 10
127.5803665419
 20
76.6232988473
 11
127.5792117517
 21
76.5354376578
  0
LINE
  5
292
100
AcDbEntity
  8
0
100
AcDbLine
 62
253
  6
CONTINUOUS
 10
127.5803665419
 20
76.6232988473
 11
127.5792117517
 21
76.5354376578
  0
LINE
  5
293
100
AcDbEntity
  8
ASSI
100
AcDbLine
 62
253
  6
CONTINUOUS
 10
128.05489824
 20
119.472642044
 11
128.0531867514
 21
119.3571005212
  0
LINE
  5
294
100
AcDbEntity
  8
0
100
AcDbLine
 62
253
  6
CONTINUOUS
 10
128.05489824
 20
119.472642044
 11
128.0531867514
 21
119.3571005212
  0
LINE
  5
295
100
AcDbEntity
  8
ASSI
100
AcDbLine
 62
253
  6
CONTINUOUS
 10
127.5792117517
 20
76.5354376578
 11
127.5777411897
 21
76.4543659694
  0
LINE
  5
296
100
AcDbEntity
  8
0
100
AcDbLine
 62
253
  6
CONTINUOUS
 10
127.5792117517
 20
76.5354376578
 11
127.5777411897
 21
76.4543659694
  0
LINE
  5
297
100
AcDbEntity
  8
ASSI
100
AcDbLine
 62
253
  6
CONTINUOUS
 10
128.0567720554
 20
119.5698871128
 11
128.05489824
 21
119.472642044
  0
LINE
  5
298
100
AcDbEntity
  8
0
100
AcDbLine
 62
253
  6
CONTINUOUS
 10
128.0567720554
 20
119.5698871128
 11
128.05489824
 21
119.472642044
  0
LWPOLYLINE
  5
299
100
AcDbEntity
  8
ASSI
100
AcDbPolyline
 62
253
  6
CONTINUOUS
 90
12
 70
0
 10
127.5777411897
 20
76.4543659694
 10
127.5759841073
 20
76.3819441662
 10
127.5750124931
 20
76.3494806311
 10
127.5739824814
 20
76.3197322939
 10
127.5728949282
 20
76.2926575071
 10
127.5717659221
 20
76.2686572459
 10
127.5705942765
 20
76.2477762568
 10
127.5693811779
 20
76.2299697933
 10
127.5681462754
 20
76.2155045905
 10
127.5668961183
 20
76.2044695601
 10
127.5656241572
 20
76.1967757904
 10
127.5643303919
 20
76.1924232813
  0
LWPOLYLINE
  5
29A
100
AcDbEntity
  8
0
100
AcDbPolyline
 62
253
  6
CONTINUOUS
 90
12
 70
0
 10
127.5777411897
 20
76.4543659694
 10
127.5759841073
 20
76.3819441662
 10
127.5750124931
 20
76.3494806311
 10
127.5739824814
 20
76.3197322939
 10
127.5728949282
 20
76.2926575071
 10
127.5717659221
 20
76.2686572459
 10
127.5705942765
 20
76.2477762568
 10
127.5693811779
 20
76.2299697933
 10
127.5681462754
 20
76.2155045905
 10
127.5668961183
 20
76.2044695601
 10
127.5656241572
 20
76.1967757904
 10
127.5643303919
 20
76.1924232813
  0
LWPOLYLINE
  5
29B
100
AcDbEntity
  8
ASSI
100
AcDbPolyline
 62
253
  6
CONTINUOUS
 90
4
 70
0
 10
128.0512986717
 20
97.0825150762
 10
128.0544118887
 20
97.1804753783
 10
128.0562129221
 20
97.2271869381
 10
128.0589272374
 20
97.27115724
  0
LWPOLYLINE
  5
29C
100
AcDbEntity
  8
0
100
AcDbPolyline
 62
253
  6
CONTINUOUS
 90
4
 70
0
 10
128.0512986717
 20
97.0825150762
 10
128.0544118887
 20
97.1804753783
 10
128.0562129221
 20
97.2271869381
 10
128.0589272374
 20
97.27115724
  0
LWPOLYLINE
  5
29D
100
AcDbEntity
  8
ASSI
100
AcDbPolyline
 62
253
  6
CONTINUOUS
 90
16
 70
0
 10
127.5935085349
 20
96.9790355227
 10
127.5961940774
 20
97.0306815105
 10
127.6042342608
 20
97.0819455387
 10
127.6175958906
 20
97.1322670736
 10
127.6362098299
 20
97.1811393233
 10
127.6599114665
 20
97.2279517611
 10
127.688387067
 20
97.2720238903
 10
127.7212819054
 20
97.3128239243
 10
127.7582657311
 20
97.3499571384
 10
127.7989429704
 20
97.383022929
 10
127.8428770671
 20
97.411658837
 10
127.8895802772
 20
97.4355399213
 10
127.9385269801
 20
97.4543948813
 10
127.9891736674
 20
97.4680151038
 10
128.0409671234
 20
97.4762525432
 10
128.0933371974
 20
97.4790164842
  0
LWPOLYLINE
  5
29E
100
AcDbEntity
  8
0
100
AcDbPolyline
 62
253
  6
CONTINUOUS
 90
16
 70
0
 10
127.5935085349
 20
96.9790355227
 10
127.5961940774
 20
97.0306815105
 10
127.6042342608
 20
97.0819455387
 10
127.6175958906
 20
97.1322670736
 10
127.6362098299
 20
97.1811393233
 10
127.6599114665
 20
97.2279517611
 10
127.688387067
 20
97.2720238903
 10
127.7212819054
 20
97.3128239243
 10
127.7582657311
 20
97.3499571384
 10
127.7989429704
 20
97.383022929
 10
127.8428770671
 20
97.411658837
 10
127.8895802772
 20
97.4355399213
 10
127.9385269801
 20
97.4543948813
 10
127.9891736674
 20
97.4680151038
 10
128.0409671234
 20
97.4762525432
 10
128.0933371974
 20
97.4790164842
  0
LWPOLYLINE
  5
29F
100
AcDbEntity
  8
ASSI
100
AcDbPolyline
 62
253
  6
CONTINUOUS
 90
9
 70
0
 10
128.0589272374
 20
97.27115724
 10
128.0647185145
 20
97.3487330564
 10
128.0683576812
 20
97.3818306165
 10
128.0722886705
 20
97.4104718417
 10
128.075938477
 20
97.4343929741
 10
128.080210917
 20
97.4534311944
 10
128.0851036883
 20
97.4673291949
 10
128.0896416405
 20
97.4758746495
 10
128.0933371969
 20
97.4790164842
  0
LWPOLYLINE
  5
2A0
100
AcDbEntity
  8
0
100
AcDbPolyline
 62
253
  6
CONTINUOUS
 90
9
 70
0
 10
128.0589272374
 20
97.27115724
 10
128.0647185145
 20
97.3487330564
 10
128.0683576812
 20
97.3818306165
 10
128.0722886705
 20
97.4104718417
 10
128.075938477
 20
97.4343929741
 10
128.080210917
 20
97.4534311944
 10
128.0851036883
 20
97.4673291949
 10
128.0896416405
 20
97.4758746495
 10
128.0933371969
 20
97.4790164842
  0
LINE
  5
2A1
100
AcDbEntity
  8
ASSI
100
AcDbLine
 62
7
  6
CONTINUOUS
 10
152.8684396419
 20
75.5607936802
 11
153.2192613639
 21
75.5926387981
  0
LINE
  5
2A2
100
AcDbEntity
  8
0
100
AcDbLine
 62
7
  6
CONTINUOUS
 10
152.8684396419
 20
75.5607936802
 11
153.2192613639
 21
75.5926387981
  0
LINE
  5
2A3
100
AcDbEntity
  8
ASSI
100
AcDbLine
 62
7
  6
CONTINUOUS
 10
141.8684396419
 20
75.5607936802
 11
142.2192613639
 21
75.5926387981
  0
LINE
  5
2A4
100
AcDbEntity
  8
0
100
AcDbLine
 62
7
  6
CONTINUOUS
 10
141.8684396419
 20
75.5607936802
 11
142.2192613639
 21
75.5926387981
  0
LINE
  5
2A5
100
AcDbEntity
  8
ASSI
100
AcDbLine
 62
7
  6
CONTINUOUS
 10
130.6684396419
 20
75.5607936802
 11
131.0192613639
 21
75.5926387981
  0
LINE
  5
2A6
100
AcDbEntity
  8
0
100
AcDbLine
 62
7
  6
CONTINUOUS
 10
130.6684396419
 20
75.5607936802
 11
131.0192613639
 21
75.5926387981
  0
LWPOLYLINE
  5
2A7
100
AcDbEntity
  8
ASSI
100
AcDbPolyline
 62
253
  6
CONTINUOUS
 90
16
 70
0
 10
148.8898337265
 20
75.6931085152
 10
148.9420353529
 20
75.6959105604
 10
148.9936659645
 20
75.7041431498
 10
149.0441608612
 20
75.7177162201
 10
149.092967783
 20
75.7364813045
 10
149.1395529045
 20
75.7602331405
 10
149.1834066812
 20
75.7887119007
 10
149.2240494856
 20
75.8216060693
 10
149.2610368302
 20
75.8585558537
 10
149.2939641938
 20
75.8991570888
 10
149.3224714734
 20
75.9429656802
 10
149.3462469257
 20
75.9895024772
 10
149.36503056
 20
76.0382585021
 10
149.3786169766
 20
76.0887005051
 10
149.3868576162
 20
76.1402767943
 10
149.389662389
 20
76.1924232826
  0
LWPOLYLINE
  5
2A8
100
AcDbEntity
  8
0
100
AcDbPolyline
 62
253
  6
CONTINUOUS
 90
16
 70
0
 10
148.8898337265
 20
75.6931085152
 10
148.9420353529
 20
75.6959105604
 10
148.9936659645
 20
75.7041431498
 10
149.0441608612
 20
75.7177162201
 10
149.092967783
 20
75.7364813045
 10
149.1395529045
 20
75.7602331405
 10
149.1834066812
 20
75.7887119007
 10
149.2240494856
 20
75.8216060693
 10
149.2610368302
 20
75.8585558537
 10
149.2939641938
 20
75.8991570888
 10
149.3224714734
 20
75.9429656802
 10
149.3462469257
 20
75.9895024772
 10
149.36503056
 20
76.0382585021
 10
149.3786169766
 20
76.0887005051
 10
149.3868576162
 20
76.1402767943
 10
149.389662389
 20
76.1924232826
  0
LWPOLYLINE
  5
2A9
100
AcDbEntity
  8
ASSI
100
AcDbPolyline
 62
253
  6
CONTINUOUS
 90
14
 70
0
 10
171.2028989648
 20
76.8410374713
 10
171.249736308
 20
76.8417435529
 10
171.2948542834
 20
76.8426428647
 10
171.3378154308
 20
76.8437266872
 10
171.3782032026
 20
76.8449845118
 10
171.4156260024
 20
76.8464041427
 10
171.449720982
 20
76.8479718153
 10
171.4801575593
 20
76.8496723295
 10
171.5066406238
 20
76.8514891974
 10
171.5289133979
 20
76.8534048027
 10
171.5467599268
 20
76.8554005719
 10
171.5600071721
 20
76.8574571542
 10
171.5685266894
 20
76.8595546092
 10
171.5722358744
 20
76.8616726
  0
LWPOLYLINE
  5
2AA
100
AcDbEntity
  8
0
100
AcDbPolyline
 62
253
  6
CONTINUOUS
 90
14
 70
0
 10
171.2028989648
 20
76.8410374713
 10
171.249736308
 20
76.8417435529
 10
171.2948542834
 20
76.8426428647
 10
171.3378154308
 20
76.8437266872
 10
171.3782032026
 20
76.8449845118
 10
171.4156260024
 20
76.8464041427
 10
171.449720982
 20
76.8479718153
 10
171.4801575593
 20
76.8496723295
 10
171.5066406238
 20
76.8514891974
 10
171.5289133979
 20
76.8534048027
 10
171.5467599268
 20
76.8554005719
 10
171.5600071721
 20
76.8574571542
 10
171.5685266894
 20
76.8595546092
 10
171.5722358744
 20
76.8616726
  0
LWPOLYLINE
  5
2AB
100
AcDbEntity
  8
ASSI
100
AcDbPolyline
 62
253
  6
CONTINUOUS
 90
14
 70
0
 10
149.0028989648
 20
76.8410374713
 10
149.049736308
 20
76.8417435529
 10
149.0948542834
 20
76.8426428647
 10
149.1378154308
 20
76.8437266872
 10
149.1782032026
 20
76.8449845118
 10
149.2156260024
 20
76.8464041427
 10
149.249720982
 20
76.8479718153
 10
149.2801575593
 20
76.8496723295
 10
149.3066406238
 20
76.8514891974
 10
149.3289133979
 20
76.8534048027
 10
149.3467599268
 20
76.8554005719
 10
149.3600071721
 20
76.8574571542
 10
149.3685266894
 20
76.8595546092
 10
149.3722358744
 20
76.8616726
  0
LWPOLYLINE
  5
2AC
100
AcDbEntity
  8
0
100
AcDbPolyline
 62
253
  6
CONTINUOUS
 90
14
 70
0
 10
149.0028989648
 20
76.8410374713
 10
149.049736308
 20
76.8417435529
 10
149.0948542834
 20
76.8426428647
 10
149.1378154308
 20
76.8437266872
 10
149.1782032026
 20
76.8449845118
 10
149.2156260024
 20
76.8464041427
 10
149.249720982
 20
76.8479718153
 10
149.2801575593
 20
76.8496723295
 10
149.3066406238
 20
76.8514891974
 10
149.3289133979
 20
76.8534048027
 10
149.3467599268
 20
76.8554005719
 10
149.3600071721
 20
76.8574571542
 10
149.3685266894
 20
76.8595546092
 10
149.3722358744
 20
76.8616726
  0
LINE
  5
2AD
100
AcDbEntity
  8
ASSI
100
AcDbLine
 62
253
  6
CONTINUOUS
 10
171.105894966
 20
76.8402304438
 11
171.2028989648
 21
76.8410374713
  0
LINE
  5
2AE
100
AcDbEntity
  8
0
100
AcDbLine
 62
253
  6
CONTINUOUS
 10
171.105894966
 20
76.8402304438
 11
171.2028989648
 21
76.8410374713
  0
LINE
  5
2AF
100
AcDbEntity
  8
ASSI
100
AcDbLine
 62
253
  6
CONTINUOUS
 10
148.905894966
 20
76.8402304438
 11
149.0028989648
 21
76.8410374713
  0
LINE
  5
2B0
100
AcDbEntity
  8
0
100
AcDbLine
 62
253
  6
CONTINUOUS
 10
148.905894966
 20
76.8402304438
 11
149.0028989648
 21
76.8410374713
  0
LINE
  5
2B1
100
AcDbEntity
  8
ASSI
100
AcDbLine
 62
253
  6
CONTINUOUS
 10
150.2641590544
 20
75.693108514
 11
153.6337246237
 21
75.7031346502
  0
LINE
  5
2B2
100
AcDbEntity
  8
0
100
AcDbLine
 62
253
  6
CONTINUOUS
 10
150.2641590544
 20
75.693108514
 11
153.6337246237
 21
75.7031346502
  0
LINE
  5
2B3
100
AcDbEntity
  8
ASSI
100
AcDbLine
 62
253
  6
CONTINUOUS
 10
128.0641590544
 20
75.693108514
 11
131.4337246237
 21
75.7031346502
  0
LINE
  5
2B4
100
AcDbEntity
  8
0
100
AcDbLine
 62
253
  6
CONTINUOUS
 10
128.0641590544
 20
75.693108514
 11
131.4337246237
 21
75.7031346502
  0
LINE
  5
2B5
100
AcDbEntity
  8
ASSI
100
AcDbLine
 62
253
  6
CONTINUOUS
 10
153.6337246237
 20
75.7031346502
 11
157.005770678
 21
75.7092888158
  0
LINE
  5
2B6
100
AcDbEntity
  8
0
100
AcDbLine
 62
253
  6
CONTINUOUS
 10
153.6337246237
 20
75.7031346502
 11
157.005770678
 21
75.7092888158
  0
LINE
  5
2B7
100
AcDbEntity
  8
ASSI
100
AcDbLine
 62
253
  6
CONTINUOUS
 10
131.4337246237
 20
75.7031346502
 11
134.805770678
 21
75.7092888158
  0
LINE
  5
2B8
100
AcDbEntity
  8
0
100
AcDbLine
 62
253
  6
CONTINUOUS
 10
131.4337246237
 20
75.7031346502
 11
134.805770678
 21
75.7092888158
  0
LINE
  5
2B9
100
AcDbEntity
  8
ASSI
100
AcDbLine
 62
253
  6
CONTINUOUS
 10
150.248097814
 20
76.8402304753
 11
154.9750037638
 21
76.8452097115
  0
LINE
  5
2BA
100
AcDbEntity
  8
0
100
AcDbLine
 62
253
  6
CONTINUOUS
 10
150.248097814
 20
76.8402304753
 11
154.9750037638
 21
76.8452097115
  0
LINE
  5
2BB
100
AcDbEntity
  8
ASSI
100
AcDbLine
 62
253
  6
CONTINUOUS
 10
128.048097814
 20
76.8402304753
 11
133.450918216
 21
76.8456825214
  0
LINE
  5
2BC
100
AcDbEntity
  8
0
100
AcDbLine
 62
253
  6
CONTINUOUS
 10
128.048097814
 20
76.8402304753
 11
133.450918216
 21
76.8456825214
  0
LINE
  5
2BD
100
AcDbEntity
  8
ASSI
100
AcDbLine
 62
253
  6
CONTINUOUS
 10
157.005770678
 20
75.7092888158
 11
160.3794277724
 21
75.7115690253
  0
LINE
  5
2BE
100
AcDbEntity
  8
0
100
AcDbLine
 62
253
  6
CONTINUOUS
 10
157.005770678
 20
75.7092888158
 11
160.3794277724
 21
75.7115690253
  0
LINE
  5
2BF
100
AcDbEntity
  8
ASSI
100
AcDbLine
 62
253
  6
CONTINUOUS
 10
134.805770678
 20
75.7092888158
 11
138.1794277724
 21
75.7115690253
  0
LINE
  5
2C0
100
AcDbEntity
  8
0
100
AcDbLine
 62
253
  6
CONTINUOUS
 10
134.805770678
 20
75.7092888158
 11
138.1794277724
 21
75.7115690253
  0
LINE
  5
2C1
100
AcDbEntity
  8
ASSI
100
AcDbLine
 62
253
  6
CONTINUOUS
 10
154.9750037638
 20
76.8452097115
 11
159.7074278798
 21
76.8472675845
  0
LINE
  5
2C2
100
AcDbEntity
  8
0
100
AcDbLine
 62
253
  6
CONTINUOUS
 10
154.9750037638
 20
76.8452097115
 11
159.7074278798
 21
76.8472675845
  0
LINE
  5
2C3
100
AcDbEntity
  8
ASSI
100
AcDbLine
 62
7
  6
CONTINUOUS
 10
127.9980470018
 20
75.5607936802
 11
130.6684396419
 21
75.5607936802
  0
LINE
  5
2C4
100
AcDbEntity
  8
0
100
AcDbLine
 62
7
  6
CONTINUOUS
 10
127.9980470018
 20
75.5607936802
 11
130.6684396419
 21
75.5607936802
  0
LINE
  5
2C5
100
AcDbEntity
  8
ASSI
100
AcDbLine
 62
7
  6
CONTINUOUS
 10
135.0855531397
 20
75.5607936802
 11
141.8684396419
 21
75.5607936802
  0
LINE
  5
2C6
100
AcDbEntity
  8
0
100
AcDbLine
 62
7
  6
CONTINUOUS
 10
135.0855531397
 20
75.5607936802
 11
141.8684396419
 21
75.5607936802
  0
LINE
  5
2C7
100
AcDbEntity
  8
ASSI
100
AcDbLine
 62
7
  6
CONTINUOUS
 10
146.2855531397
 20
75.5607936802
 11
148.9559457797
 21
75.5607936802
  0
LINE
  5
2C8
100
AcDbEntity
  8
0
100
AcDbLine
 62
7
  6
CONTINUOUS
 10
146.2855531397
 20
75.5607936802
 11
148.9559457797
 21
75.5607936802
  0
LINE
  5
2C9
100
AcDbEntity
  8
ASSI
100
AcDbLine
 62
7
  6
CONTINUOUS
 10
150.1980470018
 20
75.5607936802
 11
152.8684396419
 21
75.5607936802
  0
LINE
  5
2CA
100
AcDbEntity
  8
0
100
AcDbLine
 62
7
  6
CONTINUOUS
 10
150.1980470018
 20
75.5607936802
 11
152.8684396419
 21
75.5607936802
  0
LINE
  5
2CB
100
AcDbEntity
  8
ASSI
100
AcDbLine
 62
7
  6
CONTINUOUS
 10
157.2855531397
 20
75.5607936802
 11
164.0684396419
 21
75.5607936802
  0
LINE
  5
2CC
100
AcDbEntity
  8
0
100
AcDbLine
 62
7
  6
CONTINUOUS
 10
157.2855531397
 20
75.5607936802
 11
164.0684396419
 21
75.5607936802
  0
LINE
  5
2CD
100
AcDbEntity
  8
ASSI
100
AcDbLine
 62
7
  6
CONTINUOUS
 10
168.4855531397
 20
75.5607936802
 11
171.1559457797
 21
75.5607936802
  0
LINE
  5
2CE
100
AcDbEntity
  8
0
100
AcDbLine
 62
7
  6
CONTINUOUS
 10
168.4855531397
 20
75.5607936802
 11
171.1559457797
 21
75.5607936802
  0
LINE
  5
2CF
100
AcDbEntity
  8
ASSI
100
AcDbLine
 62
7
  6
CONTINUOUS
 10
131.1924664446
 20
75.597879576
 11
134.5615263369
 21
75.597879576
  0
LINE
  5
2D0
100
AcDbEntity
  8
0
100
AcDbLine
 62
7
  6
CONTINUOUS
 10
131.1924664446
 20
75.597879576
 11
134.5615263369
 21
75.597879576
  0
LINE
  5
2D1
100
AcDbEntity
  8
ASSI
100
AcDbLine
 62
7
  6
CONTINUOUS
 10
142.3924664446
 20
75.597879576
 11
145.7615263369
 21
75.597879576
  0
LINE
  5
2D2
100
AcDbEntity
  8
0
100
AcDbLine
 62
7
  6
CONTINUOUS
 10
142.3924664446
 20
75.597879576
 11
145.7615263369
 21
75.597879576
  0
LINE
  5
2D3
100
AcDbEntity
  8
ASSI
100
AcDbLine
 62
7
  6
CONTINUOUS
 10
153.3924664446
 20
75.597879576
 11
156.7615263369
 21
75.597879576
  0
LINE
  5
2D4
100
AcDbEntity
  8
0
100
AcDbLine
 62
7
  6
CONTINUOUS
 10
153.3924664446
 20
75.597879576
 11
156.7615263369
 21
75.597879576
  0
LINE
  5
2D5
100
AcDbEntity
  8
ASSI
100
AcDbLine
 62
7
  6
CONTINUOUS
 10
164.5924664446
 20
75.597879576
 11
167.9615263369
 21
75.597879576
  0
LINE
  5
2D6
100
AcDbEntity
  8
0
100
AcDbLine
 62
7
  6
CONTINUOUS
 10
164.5924664446
 20
75.597879576
 11
167.9615263369
 21
75.597879576
  0
LINE
  5
2D7
100
AcDbEntity
  8
ASSI
100
AcDbLine
 62
253
  6
CONTINUOUS
 10
133.450918216
 20
76.8456825214
 11
140.2080303976
 21
76.8471336665
  0
LINE
  5
2D8
100
AcDbEntity
  8
0
100
AcDbLine
 62
253
  6
CONTINUOUS
 10
133.450918216
 20
76.8456825214
 11
140.2080303976
 21
76.8471336665
  0
LINE
  5
2D9
100
AcDbEntity
  8
ASSI
100
AcDbLine
 62
253
  6
CONTINUOUS
 10
159.7074278798
 20
76.8472675845
 11
165.1227290076
 21
76.8460417542
  0
LINE
  5
2DA
100
AcDbEntity
  8
0
100
AcDbLine
 62
253
  6
CONTINUOUS
 10
159.7074278798
 20
76.8472675845
 11
165.1227290076
 21
76.8460417542
  0
LINE
  5
2DB
100
AcDbEntity
  8
ASSI
100
AcDbLine
 62
253
  6
CONTINUOUS
 10
140.2080303976
 20
76.8471336665
 11
145.7646310608
 21
76.843869803
  0
LINE
  5
2DC
100
AcDbEntity
  8
0
100
AcDbLine
 62
253
  6
CONTINUOUS
 10
140.2080303976
 20
76.8471336665
 11
145.7646310608
 21
76.843869803
  0
LINE
  5
2DD
100
AcDbEntity
  8
ASSI
100
AcDbLine
 62
253
  6
CONTINUOUS
 10
138.1794277724
 20
75.7115690253
 11
141.5471554294
 21
75.7099820907
  0
LINE
  5
2DE
100
AcDbEntity
  8
0
100
AcDbLine
 62
253
  6
CONTINUOUS
 10
138.1794277724
 20
75.7115690253
 11
141.5471554294
 21
75.7099820907
  0
LINE
  5
2DF
100
AcDbEntity
  8
ASSI
100
AcDbLine
 62
253
  6
CONTINUOUS
 10
160.3794277724
 20
75.7115690253
 11
163.7471554294
 21
75.7099820907
  0
LINE
  5
2E0
100
AcDbEntity
  8
0
100
AcDbLine
 62
253
  6
CONTINUOUS
 10
160.3794277724
 20
75.7115690253
 11
163.7471554294
 21
75.7099820907
  0
LWPOLYLINE
  5
2E1
100
AcDbEntity
  8
ASSI
100
AcDbPolyline
 62
253
  6
CONTINUOUS
 90
3
 70
0
 10
165.1227290076
 20
76.8460417542
 10
170.288510598
 20
76.8412898781
 10
171.1058949661
 20
76.8402304578
  0
LWPOLYLINE
  5
2E2
100
AcDbEntity
  8
0
100
AcDbPolyline
 62
253
  6
CONTINUOUS
 90
3
 70
0
 10
165.1227290076
 20
76.8460417542
 10
170.288510598
 20
76.8412898781
 10
171.1058949661
 20
76.8402304578
  0
LINE
  5
2E3
100
AcDbEntity
  8
ASSI
100
AcDbLine
 62
253
  6
CONTINUOUS
 10
145.7646310608
 20
76.843869803
 11
148.9058949661
 21
76.8402304578
  0
LINE
  5
2E4
100
AcDbEntity
  8
0
100
AcDbLine
 62
253
  6
CONTINUOUS
 10
145.7646310608
 20
76.843869803
 11
148.9058949661
 21
76.8402304578
  0
LINE
  5
2E5
100
AcDbEntity
  8
ASSI
100
AcDbLine
 62
253
  6
CONTINUOUS
 10
141.5471554294
 20
75.7099820907
 11
145.0181690711
 21
75.7042965472
  0
LINE
  5
2E6
100
AcDbEntity
  8
0
100
AcDbLine
 62
253
  6
CONTINUOUS
 10
141.5471554294
 20
75.7099820907
 11
145.0181690711
 21
75.7042965472
  0
LINE
  5
2E7
100
AcDbEntity
  8
ASSI
100
AcDbLine
 62
253
  6
CONTINUOUS
 10
163.7471554294
 20
75.7099820907
 11
167.2181690711
 21
75.7042965472
  0
LINE
  5
2E8
100
AcDbEntity
  8
0
100
AcDbLine
 62
253
  6
CONTINUOUS
 10
163.7471554294
 20
75.7099820907
 11
167.2181690711
 21
75.7042965472
  0
LWPOLYLINE
  5
2E9
100
AcDbEntity
  8
ASSI
100
AcDbPolyline
 62
253
  6
CONTINUOUS
 90
3
 70
0
 10
145.0181690711
 20
75.7042965472
 10
148.0722553121
 20
75.6958694211
 10
148.8898337265
 20
75.6931085152
  0
LWPOLYLINE
  5
2EA
100
AcDbEntity
  8
0
100
AcDbPolyline
 62
253
  6
CONTINUOUS
 90
3
 70
0
 10
145.0181690711
 20
75.7042965472
 10
148.0722553121
 20
75.6958694211
 10
148.8898337265
 20
75.6931085152
  0
LWPOLYLINE
  5
2EB
100
AcDbEntity
  8
ASSI
100
AcDbPolyline
 62
253
  6
CONTINUOUS
 90
3
 70
0
 10
167.2181690711
 20
75.7042965472
 10
170.2722553121
 20
75.6958694211
 10
171.0898337265
 20
75.6931085152
  0
LWPOLYLINE
  5
2EC
100
AcDbEntity
  8
0
100
AcDbPolyline
 62
253
  6
CONTINUOUS
 90
3
 70
0
 10
167.2181690711
 20
75.7042965472
 10
170.2722553121
 20
75.6958694211
 10
171.0898337265
 20
75.6931085152
  0
LWPOLYLINE
  5
2ED
100
AcDbEntity
  8
ASSI
100
AcDbPolyline
 62
253
  6
CONTINUOUS
 90
15
 70
0
 10
128.0480986654
 20
76.8402309904
 10
127.9510955757
 20
76.8410379921
 10
127.9042586274
 20
76.8417440519
 10
127.8591409898
 20
76.8426433365
 10
127.8161801111
 20
76.8437271267
 10
127.775792528
 20
76.8449849146
 10
127.7383698273
 20
76.8464045053
 10
127.7042748493
 20
76.8479721347
 10
127.6738381693
 20
76.8496726034
 10
127.6473548929
 20
76.8514894243
 10
127.6250817947
 20
76.8534049819
 10
127.6072348284
 20
76.8554007034
 10
127.5939870333
 20
76.8574572391
 10
127.5854668564
 20
76.8595546492
 10
127.5817569068
 20
76.8616725978
  0
LWPOLYLINE
  5
2EE
100
AcDbEntity
  8
0
100
AcDbPolyline
 62
253
  6
CONTINUOUS
 90
15
 70
0
 10
128.0480986654
 20
76.8402309904
 10
127.9510955757
 20
76.8410379921
 10
127.9042586274
 20
76.8417440519
 10
127.8591409898
 20
76.8426433365
 10
127.8161801111
 20
76.8437271267
 10
127.775792528
 20
76.8449849146
 10
127.7383698273
 20
76.8464045053
 10
127.7042748493
 20
76.8479721347
 10
127.6738381693
 20
76.8496726034
 10
127.6473548929
 20
76.8514894243
 10
127.6250817947
 20
76.8534049819
 10
127.6072348284
 20
76.8554007034
 10
127.5939870333
 20
76.8574572391
 10
127.5854668564
 20
76.8595546492
 10
127.5817569068
 20
76.8616725978
  0
LWPOLYLINE
  5
2EF
100
AcDbEntity
  8
ASSI
100
AcDbPolyline
 62
253
  6
CONTINUOUS
 90
15
 70
0
 10
150.2480986654
 20
76.8402309904
 10
150.1510955757
 20
76.8410379921
 10
150.1042586274
 20
76.8417440519
 10
150.0591409898
 20
76.8426433365
 10
150.0161801111
 20
76.8437271267
 10
149.975792528
 20
76.8449849146
 10
149.9383698273
 20
76.8464045053
 10
149.9042748493
 20
76.8479721347
 10
149.8738381693
 20
76.8496726034
 10
149.8473548929
 20
76.8514894243
 10
149.8250817947
 20
76.8534049819
 10
149.8072348284
 20
76.8554007034
 10
149.7939870333
 20
76.8574572391
 10
149.7854668564
 20
76.8595546492
 10
149.7817569068
 20
76.8616725978
  0
LWPOLYLINE
  5
2F0
100
AcDbEntity
  8
0
100
AcDbPolyline
 62
253
  6
CONTINUOUS
 90
15
 70
0
 10
150.2480986654
 20
76.8402309904
 10
150.1510955757
 20
76.8410379921
 10
150.1042586274
 20
76.8417440519
 10
150.0591409898
 20
76.8426433365
 10
150.0161801111
 20
76.8437271267
 10
149.975792528
 20
76.8449849146
 10
149.9383698273
 20
76.8464045053
 10
149.9042748493
 20
76.8479721347
 10
149.8738381693
 20
76.8496726034
 10
149.8473548929
 20
76.8514894243
 10
149.8250817947
 20
76.8534049819
 10
149.8072348284
 20
76.8554007034
 10
149.7939870333
 20
76.8574572391
 10
149.7854668564
 20
76.8595546492
 10
149.7817569068
 20
76.8616725978
  0
LWPOLYLINE
  5
2F1
100
AcDbEntity
  8
ASSI
100
AcDbPolyline
 62
253
  6
CONTINUOUS
 90
16
 70
0
 10
150.2641590544
 20
75.693108514
 10
150.2119580844
 20
75.6959104892
 10
150.1603280428
 20
75.7041428863
 10
150.1098336139
 20
75.7177156665
 10
150.0610270615
 20
75.7364803827
 10
150.0144421888
 20
75.7602318028
 10
149.9705885004
 20
75.7887101545
 10
149.9299456295
 20
75.8216039667
 10
149.8929580921
 20
75.8585534757
 10
149.8600304257
 20
75.89915456
 10
149.831522764
 20
75.9429631605
 10
149.807746899
 20
75.9895001373
 10
149.7889628702
 20
76.0382565096
 10
149.7753761209
 20
76.088699023
 10
149.767135251
 20
76.1402759814
 10
149.7643303919
 20
76.1924232813
  0
LWPOLYLINE
  5
2F2
100
AcDbEntity
  8
0
100
AcDbPolyline
 62
253
  6
CONTINUOUS
 90
16
 70
0
 10
150.2641590544
 20
75.693108514
 10
150.2119580844
 20
75.6959104892
 10
150.1603280428
 20
75.7041428863
 10
150.1098336139
 20
75.7177156665
 10
150.0610270615
 20
75.7364803827
 10
150.0144421888
 20
75.7602318028
 10
149.9705885004
 20
75.7887101545
 10
149.9299456295
 20
75.8216039667
 10
149.8929580921
 20
75.8585534757
 10
149.8600304257
 20
75.89915456
 10
149.831522764
 20
75.9429631605
 10
149.807746899
 20
75.9895001373
 10
149.7889628702
 20
76.0382565096
 10
149.7753761209
 20
76.088699023
 10
149.767135251
 20
76.1402759814
 10
149.7643303919
 20
76.1924232813
  0
LINE
  5
2F3
100
AcDbEntity
  8
ASSI
100
AcDbLine
 62
7
  6
CONTINUOUS
 10
146.2855531397
 20
75.5607936802
 11
145.9347314177
 21
75.5926387981
  0
LINE
  5
2F4
100
AcDbEntity
  8
0
100
AcDbLine
 62
7
  6
CONTINUOUS
 10
146.2855531397
 20
75.5607936802
 11
145.9347314177
 21
75.5926387981
  0
LINE
  5
2F5
100
AcDbEntity
  8
ASSI
100
AcDbLine
 62
7
  6
CONTINUOUS
 10
157.2855531397
 20
75.5607936802
 11
156.9347314177
 21
75.5926387981
  0
LINE
  5
2F6
100
AcDbEntity
  8
0
100
AcDbLine
 62
7
  6
CONTINUOUS
 10
157.2855531397
 20
75.5607936802
 11
156.9347314177
 21
75.5926387981
  0
LINE
  5
2F7
100
AcDbEntity
  8
ASSI
100
AcDbLine
 62
7
  6
CONTINUOUS
 10
168.4855531397
 20
75.5607936802
 11
168.1347314177
 21
75.5926387981
  0
LINE
  5
2F8
100
AcDbEntity
  8
0
100
AcDbLine
 62
7
  6
CONTINUOUS
 10
168.4855531397
 20
75.5607936802
 11
168.1347314177
 21
75.5926387981
  0
LWPOLYLINE
  5
2F9
100
AcDbEntity
  8
0
100
AcDbPolyline
 62
253
  6
CONTINUOUS
 90
79
 70
0
 10
134.3321994408
 20
107.8879432792
 10
134.3229233054
 20
107.8784557771
 10
134.3140973501
 20
107.868663026
 10
134.305709127
 20
107.8585733596
 10
134.2977461885
 20
107.848195112
 10
134.290196087
 20
107.8375366171
 10
134.2830463747
 20
107.8266062088
 10
134.2762877951
 20
107.8154118174
 10
134.269923857
 20
107.8039597591
 10
134.2639612602
 20
107.7922559463
 10
134.2584067046
 20
107.7803062916
 10
134.2532668902
 20
107.7681167073
 10
134.2485485168
 20
107.755693106
 10
134.2442596869
 20
107.743042629
 10
134.2404141138
 20
107.7301773325
 10
134.2370269134
 20
107.7171105015
 10
134.2341143355
 20
107.7038486438
 10
134.2316971663
 20
107.6903711583
 10
134.2297973262
 20
107.6766506667
 10
134.2284382663
 20
107.6626749596
 10
134.2276495621
 20
107.6484925042
 10
134.2274623197
 20
107.6341669364
 10
134.2279040568
 20
107.6197519211
 10
134.2289879373
 20
107.6052612387
 10
134.2307235364
 20
107.5906986982
 10
134.2331170754
 20
107.5760769095
 10
134.2361613593
 20
107.5614436865
 10
134.2398458396
 20
107.5468556438
 10
134.2441599672
 20
107.5323693961
 10
134.2490931935
 20
107.5180415579
 10
134.2546349696
 20
107.503928744
 10
134.2607723737
 20
107.4900830976
 10
134.2674829913
 20
107.4765388768
 10
134.2747420351
 20
107.4633258684
 10
134.2825247175
 20
107.4504738589
 10
134.2908062512
 20
107.4380126352
 10
134.2995618488
 20
107.4259719838
 10
134.3087720445
 20
107.414376309
 10
134.3184386601
 20
107.4032284843
 10
134.3285688391
 20
107.3925260008
 10
134.3391697249
 20
107.3822663495
 10
134.3502484612
 20
107.3724470213
 10
134.3618121913
 20
107.3630655074
 10
134.3738594529
 20
107.3541249562
 10
134.3863543607
 20
107.345651146
 10
134.3992524233
 20
107.3376755127
 10
134.4125091493
 20
107.3302294919
 10
134.4260800477
 20
107.3233445196
 10
134.4399206269
 20
107.3170520314
 10
134.4539850153
 20
107.3113787326
 10
134.4682218189
 20
107.3063324066
 10
134.4825782632
 20
107.301916106
 10
134.4970015738
 20
107.2981328835
 10
134.5114389761
 20
107.2949857919
 10
134.5258376957
 20
107.2924778839
 10
134.5401544563
 20
107.2906097149
 10
134.5543839742
 20
107.2893718512
 10
134.5685304639
 20
107.2887523617
 10
134.5825893181
 20
107.2887368511
 10
134.596520643
 20
107.2893010673
 10
134.6102757228
 20
107.2904182936
 10
134.6238173736
 20
107.2920629749
 10
134.6371545383
 20
107.2942142017
 10
134.6503076917
 20
107.2968522258
 10
134.6632930864
 20
107.2999592279
 10
134.6761100865
 20
107.3035251035
 10
134.6887538339
 20
107.3075416773
 10
134.7012181675
 20
107.3120010114
 10
134.7134917135
 20
107.3168961182
 10
134.725561795
 20
107.322220248
 10
134.7374157352
 20
107.3279666507
 10
134.7490408571
 20
107.3341285767
 10
134.7604244839
 20
107.3406992759
 10
134.7715547762
 20
107.3476755329
 10
134.7824232455
 20
107.3550682692
 10
134.7930222407
 20
107.3628919406
 10
134.8033441107
 20
107.3711610029
 10
134.8133812046
 20
107.3798899121
 10
134.8231258713
 20
107.3890931239
  0
LWPOLYLINE
  5
2FA
100
AcDbEntity
  8
0
100
AcDbPolyline
 62
253
  6
CONTINUOUS
 90
16
 70
0
 10
134.331510096
 20
87.5470526344
 10
134.5649820875
 20
87.3197004879
 10
134.8007806159
 20
87.0950273014
 10
135.0389255374
 20
86.8730065251
 10
135.2794367087
 20
86.653611609
 10
135.5223339861
 20
86.436816003
 10
135.7676210047
 20
86.2226080912
 10
136.0152365142
 20
86.0110359935
 10
136.2651030431
 20
85.8021627637
 10
136.5171431196
 20
85.5960514557
 10
136.7712792722
 20
85.3927651235
 10
137.027451602
 20
85.1923534881
 10
137.285670501
 20
84.9948129392
 10
137.545963934
 20
84.8001265336
 10
137.8083598658
 20
84.6082773282
 10
138.0728862612
 20
84.41924838
  0
LWPOLYLINE
  5
2FB
100
AcDbEntity
  8
0
100
AcDbPolyline
 62
253
  6
CONTINUOUS
 90
16
 70
0
 10
134.8231258713
 20
107.3890931239
 10
135.046064836
 20
107.6062801903
 10
135.2711664196
 20
107.8209509118
 10
135.4984427464
 20
108.0331260174
 10
135.7279059404
 20
108.2428262364
 10
135.9595681258
 20
108.4500722976
 10
136.1934302206
 20
108.654874037
 10
136.4294483181
 20
108.8571977171
 10
136.6675673053
 20
109.0569987073
 10
136.9077320694
 20
109.2542323769
 10
137.1498874975
 20
109.4488540952
 10
137.3939911522
 20
109.6408283912
 10
137.6400512984
 20
109.830156433
 10
137.8880888764
 20
110.0168485484
 10
138.1381248268
 20
110.2009150651
 10
138.3901800899
 20
110.3823663109
  0
LWPOLYLINE
  5
2FC
100
AcDbEntity
  8
0
100
AcDbPolyline
 62
253
  6
CONTINUOUS
 90
16
 70
0
 10
138.073575606
 20
111.0157475337
 10
137.8089976872
 20
110.8267276303
 10
137.5465571354
 20
110.6348861023
 10
137.2862257592
 20
110.440205743
 10
137.027975367
 20
110.2426693457
 10
136.7717777672
 20
110.0422597037
 10
136.517622514
 20
109.8389730889
 10
136.2655701434
 20
109.6328596868
 10
136.0156989374
 20
109.4239831615
 10
135.7680871776
 20
109.2124071773
 10
135.5228131458
 20
108.9981953981
 10
135.2799387292
 20
108.7813964119
 10
135.0394602364
 20
108.5619985008
 10
134.8013575814
 20
108.3399748711
 10
134.5656106782
 20
108.1152987285
 10
134.3321994408
 20
107.8879432792
  0
LWPOLYLINE
  5
2FD
100
AcDbEntity
  8
0
100
AcDbPolyline
 62
253
  6
CONTINUOUS
 90
46
 70
0
 10
138.3901800899
 20
110.3823663109
 10
138.3936015435
 20
110.3847149763
 10
138.3970350761
 20
110.3869530079
 10
138.4004859939
 20
110.3890825111
 10
138.4039596032
 20
110.3911055914
 10
138.4074612102
 20
110.3930243545
 10
138.4109961212
 20
110.3948409057
 10
138.4145684025
 20
110.3965568745
 10
138.4181771605
 20
110.3981719857
 10
138.4218202619
 20
110.3996854878
 10
138.4254955734
 20
110.4010966297
 10
138.4292009615
 20
110.4024046599
 10
138.4329342929
 20
110.4036088271
 10
138.4366932343
 20
110.4047086482
 10
138.4404746534
 20
110.405704713
 10
138.4442752182
 20
110.4065978796
 10
138.4480915965
 20
110.407389006
 10
138.4519204563
 20
110.4080789505
 10
138.4557584653
 20
110.4086685709
 10
138.4596024564
 20
110.4091586626
 10
138.4634499216
 20
110.4095497686
 10
138.4672985181
 20
110.4098423692
 10
138.4711459027
 20
110.4100369448
 10
138.4749897326
 20
110.4101339755
 10
138.4788276647
 20
110.4101339418
 10
138.4834222998
 20
110.4100063761
 10
138.4880022231
 20
110.4097401023
 10
138.4925645895
 20
110.4093354935
 10
138.4971065539
 20
110.4087929227
 10
138.5016252712
 20
110.4081127632
 10
138.5061175446
 20
110.4072955512
 10
138.5105787712
 20
110.4063424745
 10
138.5150039961
 20
110.405254884
 10
138.5193882648
 20
110.4040341309
 10
138.5237266225
 20
110.4026815658
 10
138.5280145637
 20
110.4011989289
 10
138.5322493791
 20
110.3995895159
 10
138.5364288088
 20
110.3978570116
 10
138.5405505925
 20
110.396005101
 10
138.5446124703
 20
110.3940374689
 10
138.5479509643
 20
110.3923109886
 10
138.5512509061
 20
110.3905025557
 10
138.5545169146
 20
110.3886080208
 10
138.5577536083
 20
110.3866232346
 10
138.5609656061
 20
110.3845440478
 10
138.5641575267
 20
110.3823663109
  0
LWPOLYLINE
  5
2FE
100
AcDbEntity
  8
0
100
AcDbPolyline
 62
253
  6
CONTINUOUS
 90
51
 70
0
 10
138.0728862612
 20
84.41924838
 10
138.0869319079
 20
84.4096271964
 10
138.1011369331
 20
84.4004095976
 10
138.1155189131
 20
84.3915774806
 10
138.1300954242
 20
84.3831127424
 10
138.1448840428
 20
84.37499728
 10
138.1598995748
 20
84.3672167247
 10
138.1751457437
 20
84.3597716445
 10
138.1906235029
 20
84.3526663418
 10
138.2063338056
 20
84.3459051188
 10
138.222277605
 20
84.3394922779
 10
138.2384518412
 20
84.333433392
 10
138.2548374018
 20
84.3277391175
 10
138.2714111614
 20
84.3224213812
 10
138.2881499944
 20
84.3174921102
 10
138.3050307755
 20
84.3129632315
 10
138.3220312791
 20
84.3088454802
 10
138.3391328802
 20
84.3051448243
 10
138.3563178537
 20
84.30186604
 10
138.3735684744
 20
84.2990139036
 10
138.3908670175
 20
84.2965931911
 10
138.4081976051
 20
84.2946083813
 10
138.4255517493
 20
84.293062763
 10
138.4429228093
 20
84.2919593276
 10
138.4603041445
 20
84.2913010663
 10
138.4776891143
 20
84.2910909705
 10
138.4950715653
 20
84.2913310998
 10
138.5124472931
 20
84.2920197871
 10
138.5298125805
 20
84.2931544336
 10
138.5471637104
 20
84.2947324404
 10
138.5644969658
 20
84.2967512087
 10
138.581805631
 20
84.299207733
 10
138.5990709965
 20
84.3020973814
 10
138.6162713544
 20
84.3054151152
 10
138.6333849968
 20
84.3091558956
 10
138.6503902158
 20
84.3133146842
 10
138.6672645243
 20
84.3178848698
 10
138.6839823186
 20
84.3228535516
 10
138.7005172161
 20
84.3282062564
 10
138.7168428338
 20
84.333928511
 10
138.7329327892
 20
84.3400058423
 10
138.7487657644
 20
84.3464254519
 10
138.7643407019
 20
84.3531812411
 10
138.7796616091
 20
84.3602687859
 10
138.7947324934
 20
84.3676836626
 10
138.8095573623
 20
84.3754214471
 10
138.8241425067
 20
84.3834813094
 10
138.8385033517
 20
84.3918767948
 10
138.8526576058
 20
84.4006250423
 10
138.8666229776
 20
84.409743191
 10
138.8804171756
 20
84.41924838
  0
LWPOLYLINE
  5
2FF
100
AcDbEntity
  8
0
100
AcDbPolyline
 62
253
  6
CONTINUOUS
 90
16
 70
0
 10
138.3898352549
 20
85.0526296028
 10
138.1378166534
 20
85.234048081
 10
137.8877822502
 20
85.4180985729
 10
137.6396937252
 20
85.604811409
 10
137.3935127584
 20
85.79421692
 10
137.1492010296
 20
85.9863454364
 10
136.9067456568
 20
86.1812064439
 10
136.6662355097
 20
86.3787260475
 10
136.427784896
 20
86.5788095073
 10
136.1915081234
 20
86.7813620835
 10
135.9575194997
 20
86.986289036
 10
135.7259083857
 20
87.1935170589
 10
135.4966643554
 20
87.403058582
 10
135.2697520356
 20
87.6149474691
 10
135.0451360536
 20
87.8292175837
 10
134.8227810363
 20
88.0459027898
  0
LWPOLYLINE
  5
300
100
AcDbEntity
  8
0
100
AcDbPolyline
 62
253
  6
CONTINUOUS
 90
79
 70
0
 10
134.8227810363
 20
88.0459027898
 10
134.8131226913
 20
88.0549837846
 10
134.8031703376
 20
88.0636136652
 10
134.7929317924
 20
88.0718046844
 10
134.7824148733
 20
88.0795690948
 10
134.7716273978
 20
88.086919149
 10
134.7605771834
 20
88.0938670996
 10
134.7492717033
 20
88.1004220496
 10
134.7377170543
 20
88.1065805034
 10
134.7259189886
 20
88.1123358155
 10
134.713883259
 20
88.1176813405
 10
134.7016156177
 20
88.122610433
 10
134.6891218172
 20
88.1271164476
 10
134.6764088829
 20
88.1311913551
 10
134.6634889312
 20
88.1348215908
 10
134.6503753515
 20
88.1379922063
 10
134.6370747668
 20
88.1406870327
 10
134.6235667356
 20
88.1428850203
 10
134.6098240498
 20
88.1445638991
 10
134.5958346858
 20
88.1457001115
 10
134.5816473561
 20
88.1462649491
 10
134.5673259578
 20
88.1462284157
 10
134.5529244213
 20
88.1455639229
 10
134.5384568128
 20
88.1442585113
 10
134.5239272323
 20
88.1423026292
 10
134.5093484862
 20
88.1396901719
 10
134.4947682073
 20
88.1364288229
 10
134.4802427347
 20
88.1325297129
 10
134.4658284077
 20
88.1280039726
 10
134.4515815656
 20
88.1228627325
 10
134.4375585475
 20
88.1171171235
 10
134.4238112382
 20
88.1107805526
 10
134.4103737038
 20
88.1038755335
 10
134.3972755559
 20
88.0964268564
 10
134.384546406
 20
88.0884593115
 10
134.3722158658
 20
88.079997689
 10
134.3603135469
 20
88.0710667791
 10
134.3488637635
 20
88.0616860896
 10
134.3378696409
 20
88.051853999
 10
134.3273290072
 20
88.0415636033
 10
134.3172396903
 20
88.0308079987
 10
134.3075995183
 20
88.0195802812
 10
134.2984063192
 20
88.0078735469
 10
134.2896633414
 20
87.9956895594
 10
134.2813955151
 20
87.9830647523
 10
134.2736331908
 20
87.9700442266
 10
134.2664067191
 20
87.9566730832
 10
134.2597464506
 20
87.9429964233
 10
134.253682736
 20
87.9290593478
 10
134.2482412032
 20
87.9149082544
 10
134.2434285903
 20
87.9005947262
 10
134.2392469129
 20
87.8861716431
 10
134.2356981866
 20
87.871691885
 10
134.232784427
 20
87.8572083317
 10
134.2305076496
 20
87.8427738629
 10
134.2288675329
 20
87.8284318035
 10
134.2278544063
 20
87.8141872586
 10
134.2274562624
 20
87.8000357782
 10
134.2276585464
 20
87.7859816829
 10
134.2284365149
 20
87.7720643749
 10
134.2297628775
 20
87.7583320269
 10
134.2316116827
 20
87.7448213114
 10
134.2339623367
 20
87.7315229003
 10
134.2367955844
 20
87.7184159651
 10
134.2400940331
 20
87.7054839125
 10
134.2438477376
 20
87.6927270898
 10
134.2480486148
 20
87.6801500793
 10
134.2526887852
 20
87.6677587966
 10
134.257761185
 20
87.6555644918
 10
134.2632589544
 20
87.643579748
 10
134.2691752334
 20
87.6318171486
 10
134.2755031621
 20
87.620289277
 10
134.2822358806
 20
87.6090087164
 10
134.2893700542
 20
87.5979872588
 10
134.2969164498
 20
87.5872335313
 10
134.3048893597
 20
87.5767553695
 10
134.3133030758
 20
87.566560609
 10
134.3221718905
 20
87.5566570854
 10
134.331510096
 20
87.5470526344
  0
LWPOLYLINE
  5
301
100
AcDbEntity
  8
ASSI
100
AcDbPolyline
 62
253
  6
CONTINUOUS
 90
10
 70
0
 10
127.5643303926
 20
119.2425726311
 10
127.5656241578
 20
119.2382201219
 10
127.5668961189
 20
119.230526352
 10
127.568146276
 20
119.2194913216
 10
127.5693811786
 20
119.2050261187
 10
127.5705942771
 20
119.1872196553
 10
127.5717659228
 20
119.1663386662
 10
127.5728949289
 20
119.1423384049
 10
127.5739824821
 20
119.1152636179
 10
127.5750124937
 20
119.0855152806
  0
LWPOLYLINE
  5
302
100
AcDbEntity
  8
0
100
AcDbPolyline
 62
253
  6
CONTINUOUS
 90
10
 70
0
 10
127.5643303926
 20
119.2425726311
 10
127.5656241578
 20
119.2382201219
 10
127.5668961189
 20
119.230526352
 10
127.568146276
 20
119.2194913216
 10
127.5693811786
 20
119.2050261187
 10
127.5705942771
 20
119.1872196553
 10
127.5717659228
 20
119.1663386662
 10
127.5728949289
 20
119.1423384049
 10
127.5739824821
 20
119.1152636179
 10
127.5750124937
 20
119.0855152806
  0
LINE
  5
303
100
AcDbEntity
  8
ASSI
100
AcDbLine
 62
253
  6
CONTINUOUS
 10
148.8898337271
 20
119.7418873997
 11
148.9559457797
 21
119.8742022335
  0
LINE
  5
304
100
AcDbEntity
  8
0
100
AcDbLine
 62
253
  6
CONTINUOUS
 10
148.8898337271
 20
119.7418873997
 11
148.9559457797
 21
119.8742022335
  0
LINE
  5
305
100
AcDbEntity
  8
ASSI
100
AcDbLine
 62
253
  6
CONTINUOUS
 10
127.5643303919
 20
76.1924232813
 11
127.4974205802
 21
76.0585118345
  0
LINE
  5
306
100
AcDbEntity
  8
0
100
AcDbLine
 62
253
  6
CONTINUOUS
 10
127.5643303919
 20
76.1924232813
 11
127.4974205802
 21
76.0585118345
  0
LINE
  5
307
100
AcDbEntity
  8
ASSI
100
AcDbLine
 62
253
  6
CONTINUOUS
 10
148.9559457797
 20
75.5607936802
 11
148.8898337265
 21
75.6931085152
  0
LINE
  5
308
100
AcDbEntity
  8
0
100
AcDbLine
 62
253
  6
CONTINUOUS
 10
148.9559457797
 20
75.5607936802
 11
148.8898337265
 21
75.6931085152
  0
LINE
  5
309
100
AcDbEntity
  8
ASSI
100
AcDbLine
 62
253
  6
CONTINUOUS
 10
127.4974205802
 20
119.3764840791
 11
127.5643303926
 21
119.2425726311
  0
LINE
  5
30A
100
AcDbEntity
  8
0
100
AcDbLine
 62
253
  6
CONTINUOUS
 10
127.4974205802
 20
119.3764840791
 11
127.5643303926
 21
119.2425726311
  0
LINE
  5
30B
100
AcDbEntity
  8
ASSI
100
AcDbLine
 62
253
  6
CONTINUOUS
 10
149.3896623896
 20
119.2425726323
 11
149.4565722013
 21
119.3764840791
  0
LINE
  5
30C
100
AcDbEntity
  8
0
100
AcDbLine
 62
253
  6
CONTINUOUS
 10
149.3896623896
 20
119.2425726323
 11
149.4565722013
 21
119.3764840791
  0
LINE
  5
30D
100
AcDbEntity
  8
ASSI
100
AcDbLine
 62
253
  6
CONTINUOUS
 10
128.0641590544
 20
75.693108514
 11
127.9980470018
 21
75.5607936802
  0
LINE
  5
30E
100
AcDbEntity
  8
0
100
AcDbLine
 62
253
  6
CONTINUOUS
 10
128.0641590544
 20
75.693108514
 11
127.9980470018
 21
75.5607936802
  0
LINE
  5
30F
100
AcDbEntity
  8
ASSI
100
AcDbLine
 62
253
  6
CONTINUOUS
 10
127.4778121888
 20
98.4174027746
 11
127.5935085324
 21
98.4559603901
  0
LINE
  5
310
100
AcDbEntity
  8
0
100
AcDbLine
 62
253
  6
CONTINUOUS
 10
127.4778121888
 20
98.4174027746
 11
127.5935085324
 21
98.4559603901
  0
LINE
  5
311
100
AcDbEntity
  8
ASSI
100
AcDbLine
 62
253
  6
CONTINUOUS
 10
127.5935085349
 20
96.9790355227
 11
127.4778121888
 21
97.017593139
  0
LINE
  5
312
100
AcDbEntity
  8
0
100
AcDbLine
 62
253
  6
CONTINUOUS
 10
127.5935085349
 20
96.9790355227
 11
127.4778121888
 21
97.017593139
  0
LINE
  5
313
100
AcDbEntity
  8
ASSI
100
AcDbLine
 62
253
  6
CONTINUOUS
 10
149.4565722013
 20
76.0585118345
 11
149.389662389
 21
76.1924232826
  0
LINE
  5
314
100
AcDbEntity
  8
0
100
AcDbLine
 62
253
  6
CONTINUOUS
 10
149.4565722013
 20
76.0585118345
 11
149.389662389
 21
76.1924232826
  0
LINE
  5
315
100
AcDbEntity
  8
ASSI
100
AcDbLine
 62
253
  6
CONTINUOUS
 10
127.9980470018
 20
119.8742022335
 11
128.064159055
 21
119.7418873985
  0
LINE
  5
316
100
AcDbEntity
  8
0
100
AcDbLine
 62
253
  6
CONTINUOUS
 10
127.9980470018
 20
119.8742022335
 11
128.064159055
 21
119.7418873985
  0
LINE
  5
317
100
AcDbEntity
  8
ASSI
100
AcDbLine
 62
253
  6
CONTINUOUS
 10
127.9778693289
 20
97.9174979568
 11
128.0933371949
 21
97.9559794285
  0
LINE
  5
318
100
AcDbEntity
  8
0
100
AcDbLine
 62
253
  6
CONTINUOUS
 10
127.9778693289
 20
97.9174979568
 11
128.0933371949
 21
97.9559794285
  0
LWPOLYLINE
  5
319
100
AcDbEntity
  8
SUPERFICI
100
AcDbPolyline
 62
7
  6
CONTINUOUS
 90
43
 70
0
 10
162.9956651054
 20
92.238270043
 10
163.0634332722
 20
92.2453646497
 10
163.1302950873
 20
92.2571187073
 10
163.1965801666
 20
92.2736251761
 10
163.2619589015
 20
92.294791092
 10
163.3254424792
 20
92.3203375643
 10
163.3870214272
 20
92.3503588945
 10
163.4467052711
 20
92.3847607832
 10
163.5035337334
 20
92.4229814355
 10
163.5573925005
 20
92.4650121519
 10
163.608395976
 20
92.5108616397
 10
163.6559269856
 20
92.5599942108
 10
163.7000210787
 20
92.6125648909
 10
163.740642806
 20
92.6684186696
 10
163.7770685118
 20
92.7265548007
 10
163.8091586949
 20
92.7868626042
 10
163.8370529559
 20
92.8494527761
 10
163.8604462984
 20
92.9136566292
 10
163.8793260257
 20
92.9796712085
 10
163.8937049027
 20
93.047299489
 10
163.9033161191
 20
93.1152816696
 10
163.9080688691
 20
93.1834398945
 10
163.9080539838
 20
93.251952033
 10
163.903277097
 20
93.3200918635
 10
163.8936549665
 20
93.3880231533
 10
163.8792708091
 20
93.4555821476
 10
163.8603799365
 20
93.5215513315
 10
163.8369553298
 20
93.5857670145
 10
163.8090239395
 20
93.6483928877
 10
163.7769220256
 20
93.708702498
 10
163.74053797
 20
93.7667638333
 10
163.6999832925
 20
93.8225089016
 10
163.6559289651
 20
93.8750072691
 10
163.6083718064
 20
93.9241468388
 10
163.5573148965
 20
93.9700396935
 10
163.5034386178
 20
94.0120916599
 10
163.4466722736
 20
94.0502782005
 10
163.3870864722
 20
94.0846238349
 10
163.3255735803
 20
94.1146079675
 10
163.2620731614
 20
94.1401591424
 10
163.1966455972
 20
94.1613487955
 10
163.1303645188
 20
94.1778706629
 10
163.0635878094
 20
94.1896226493
  0
LINE
  5
31A
100
AcDbEntity
  8
SUPERFICI
100
AcDbLine
 62
7
  6
CONTINUOUS
 10
162.9269905823
 20
92.2358348927
 11
162.9956651054
 21
92.238270043
  0
LINE
  5
31B
100
AcDbEntity
  8
SUPERFICI
100
AcDbLine
 62
7
  6
CONTINUOUS
 10
140.7269905823
 20
92.2358348927
 11
140.7956651054
 21
92.238270043
  0
LINE
  5
31C
100
AcDbEntity
  8
ASSI
100
AcDbLine
 62
7
  6
CONTINUOUS
 10
162.9269905571
 20
92.2358348927
 11
158.4270022333
 21
92.2358348927
  0
LINE
  5
31D
100
AcDbEntity
  8
0
100
AcDbLine
 62
7
  6
CONTINUOUS
 10
162.9269905571
 20
92.2358348927
 11
158.4270022333
 21
92.2358348927
  0
LINE
  5
31E
100
AcDbEntity
  8
ASSI
100
AcDbLine
 62
7
  6
CONTINUOUS
 10
140.7269905571
 20
92.2358348927
 11
136.2270022333
 21
92.2358348927
  0
LINE
  5
31F
100
AcDbEntity
  8
0
100
AcDbLine
 62
7
  6
CONTINUOUS
 10
140.7269905571
 20
92.2358348927
 11
136.2270022333
 21
92.2358348927
  0
LINE
  5
320
100
AcDbEntity
  8
SUPERFICI
100
AcDbLine
 62
7
  6
CONTINUOUS
 10
136.2270021454
 20
92.2358348927
 11
140.7269905823
 21
92.2358348927
  0
LINE
  5
321
100
AcDbEntity
  8
SUPERFICI
100
AcDbLine
 62
7
  6
CONTINUOUS
 10
158.4270021454
 20
92.2358348927
 11
162.9269905823
 21
92.2358348927
  0
LWPOLYLINE
  5
322
100
AcDbEntity
  8
ASSI
100
AcDbPolyline
 62
7
  6
CONTINUOUS
 90
37
 70
0
 10
136.2270022333
 20
92.2358348927
 10
136.1409065943
 20
92.2397629683
 10
136.0567206844
 20
92.2507779499
 10
135.9744444829
 20
92.2688798268
 10
135.8935485805
 20
92.2942646833
 10
135.8145623472
 20
92.32673643
 10
135.7390738902
 20
92.3657067972
 10
135.6670230818
 20
92.4113981316
 10
135.5984699205
 20
92.4635880986
 10
135.5351826257
 20
92.5210213999
 10
135.4773869868
 20
92.5837188591
 10
135.424857015
 20
92.6516596768
 10
135.3786832118
 20
92.7235261121
 10
135.3389332067
 20
92.79953715
 10
135.3055391832
 20
92.8794738421
 10
135.2793884607
 20
92.9613615343
 10
135.2606772283
 20
93.045183993
 10
135.2492091786
 20
93.1309574865
 10
135.2452829016
 20
93.2167560938
 10
135.2490901673
 20
93.3025882006
 10
135.2604392052
 20
93.3884454479
 10
135.2790533228
 20
93.4723767748
 10
135.3051326328
 20
93.5543961933
 10
135.3384771406
 20
93.6344897013
 10
135.378210008
 20
93.7106641885
 10
135.4244088033
 20
93.7827059758
 10
135.4769961463
 20
93.8508287276
 10
135.5348627632
 20
93.9136803219
 10
135.5982381274
 20
93.9712261762
 10
135.6668929657
 20
94.0235008449
 10
135.739029832
 20
94.0692558897
 10
135.8145838196
 20
94.108269695
 10
135.8936199638
 20
94.1407638352
 10
135.9745356528
 20
94.1661546409
 10
136.0567966816
 20
94.1842475404
 10
136.1409372931
 20
94.1952370681
 10
136.2269575075
 20
94.1991232115
  0
LWPOLYLINE
  5
323
100
AcDbEntity
  8
0
100
AcDbPolyline
 62
7
  6
CONTINUOUS
 90
37
 70
0
 10
136.2270022333
 20
92.2358348927
 10
136.1409065943
 20
92.2397629683
 10
136.0567206844
 20
92.2507779499
 10
135.9744444829
 20
92.2688798268
 10
135.8935485805
 20
92.2942646833
 10
135.8145623472
 20
92.32673643
 10
135.7390738902
 20
92.3657067972
 10
135.6670230818
 20
92.4113981316
 10
135.5984699205
 20
92.4635880986
 10
135.5351826257
 20
92.5210213999
 10
135.4773869868
 20
92.5837188591
 10
135.424857015
 20
92.6516596768
 10
135.3786832118
 20
92.7235261121
 10
135.3389332067
 20
92.79953715
 10
135.3055391832
 20
92.8794738421
 10
135.2793884607
 20
92.9613615343
 10
135.2606772283
 20
93.045183993
 10
135.2492091786
 20
93.1309574865
 10
135.2452829016
 20
93.2167560938
 10
135.2490901673
 20
93.3025882006
 10
135.2604392052
 20
93.3884454479
 10
135.2790533228
 20
93.4723767748
 10
135.3051326328
 20
93.5543961933
 10
135.3384771406
 20
93.6344897013
 10
135.378210008
 20
93.7106641885
 10
135.4244088033
 20
93.7827059758
 10
135.4769961463
 20
93.8508287276
 10
135.5348627632
 20
93.9136803219
 10
135.5982381274
 20
93.9712261762
 10
135.6668929657
 20
94.0235008449
 10
135.739029832
 20
94.0692558897
 10
135.8145838196
 20
94.108269695
 10
135.8936199638
 20
94.1407638352
 10
135.9745356528
 20
94.1661546409
 10
136.0567966816
 20
94.1842475404
 10
136.1409372931
 20
94.1952370681
 10
136.2269575075
 20
94.1991232115
  0
LWPOLYLINE
  5
324
100
AcDbEntity
  8
ASSI
100
AcDbPolyline
 62
7
  6
CONTINUOUS
 90
37
 70
0
 10
158.4270022333
 20
92.2358348927
 10
158.3409065943
 20
92.2397629683
 10
158.2567206844
 20
92.2507779499
 10
158.1744444829
 20
92.2688798268
 10
158.0935485805
 20
92.2942646833
 10
158.0145623472
 20
92.32673643
 10
157.9390738902
 20
92.3657067972
 10
157.8670230818
 20
92.4113981316
 10
157.7984699205
 20
92.4635880986
 10
157.7351826257
 20
92.5210213999
 10
157.6773869868
 20
92.5837188591
 10
157.624857015
 20
92.6516596768
 10
157.5786832118
 20
92.7235261121
 10
157.5389332067
 20
92.79953715
 10
157.5055391832
 20
92.8794738421
 10
157.4793884607
 20
92.9613615343
 10
157.4606772283
 20
93.045183993
 10
157.4492091786
 20
93.1309574865
 10
157.4452829016
 20
93.2167560938
 10
157.4490901673
 20
93.3025882006
 10
157.4604392052
 20
93.3884454479
 10
157.4790533228
 20
93.4723767748
 10
157.5051326328
 20
93.5543961933
 10
157.5384771406
 20
93.6344897013
 10
157.578210008
 20
93.7106641885
 10
157.6244088033
 20
93.7827059758
 10
157.6769961463
 20
93.8508287276
 10
157.7348627632
 20
93.9136803219
 10
157.7982381274
 20
93.9712261762
 10
157.8668929657
 20
94.0235008449
 10
157.939029832
 20
94.0692558897
 10
158.0145838196
 20
94.108269695
 10
158.0936199638
 20
94.1407638352
 10
158.1745356528
 20
94.1661546409
 10
158.2567966816
 20
94.1842475404
 10
158.3409372931
 20
94.1952370681
 10
158.4269575075
 20
94.1991232115
  0
LWPOLYLINE
  5
325
100
AcDbEntity
  8
0
100
AcDbPolyline
 62
7
  6
CONTINUOUS
 90
37
 70
0
 10
158.4270022333
 20
92.2358348927
 10
158.3409065943
 20
92.2397629683
 10
158.2567206844
 20
92.2507779499
 10
158.1744444829
 20
92.2688798268
 10
158.0935485805
 20
92.2942646833
 10
158.0145623472
 20
92.32673643
 10
157.9390738902
 20
92.3657067972
 10
157.8670230818
 20
92.4113981316
 10
157.7984699205
 20
92.4635880986
 10
157.7351826257
 20
92.5210213999
 10
157.6773869868
 20
92.5837188591
 10
157.624857015
 20
92.6516596768
 10
157.5786832118
 20
92.7235261121
 10
157.5389332067
 20
92.79953715
 10
157.5055391832
 20
92.8794738421
 10
157.4793884607
 20
92.9613615343
 10
157.4606772283
 20
93.045183993
 10
157.4492091786
 20
93.1309574865
 10
157.4452829016
 20
93.2167560938
 10
157.4490901673
 20
93.3025882006
 10
157.4604392052
 20
93.3884454479
 10
157.4790533228
 20
93.4723767748
 10
157.5051326328
 20
93.5543961933
 10
157.5384771406
 20
93.6344897013
 10
157.578210008
 20
93.7106641885
 10
157.6244088033
 20
93.7827059758
 10
157.6769961463
 20
93.8508287276
 10
157.7348627632
 20
93.9136803219
 10
157.7982381274
 20
93.9712261762
 10
157.8668929657
 20
94.0235008449
 10
157.939029832
 20
94.0692558897
 10
158.0145838196
 20
94.108269695
 10
158.0936199638
 20
94.1407638352
 10
158.1745356528
 20
94.1661546409
 10
158.2567966816
 20
94.1842475404
 10
158.3409372931
 20
94.1952370681
 10
158.4269575075
 20
94.1991232115
  0
LWPOLYLINE
  5
326
100
AcDbEntity
  8
SUPERFICI
100
AcDbPolyline
 62
7
  6
CONTINUOUS
 90
3
 70
0
 10
136.090569938
 20
92.2453612066
 10
136.1583360054
 20
92.2382670698
 10
136.2270021454
 20
92.2358348927
  0
LINE
  5
327
100
AcDbEntity
  8
ASSI
100
AcDbLine
 62
253
  6
CONTINUOUS
 10
128.0933371961
 20
97.4790164847
 11
127.9778693289
 21
97.5174979568
  0
LINE
  5
328
100
AcDbEntity
  8
0
100
AcDbLine
 62
253
  6
CONTINUOUS
 10
128.0933371961
 20
97.4790164847
 11
127.9778693289
 21
97.5174979568
  0
LWPOLYLINE
  5
329
100
AcDbEntity
  8
0
100
AcDbPolyline
 62
253
  6
CONTINUOUS
 90
51
 70
0
 10
160.2728862612
 20
84.41924838
 10
160.2869319079
 20
84.4096271964
 10
160.3011369331
 20
84.4004095976
 10
160.3155189131
 20
84.3915774806
 10
160.3300954242
 20
84.3831127424
 10
160.3448840428
 20
84.37499728
 10
160.3598995748
 20
84.3672167247
 10
160.3751457437
 20
84.3597716445
 10
160.3906235029
 20
84.3526663418
 10
160.4063338056
 20
84.3459051188
 10
160.422277605
 20
84.3394922779
 10
160.4384518412
 20
84.333433392
 10
160.4548374018
 20
84.3277391175
 10
160.4714111614
 20
84.3224213812
 10
160.4881499944
 20
84.3174921102
 10
160.5050307755
 20
84.3129632315
 10
160.5220312791
 20
84.3088454802
 10
160.5391328802
 20
84.3051448243
 10
160.5563178537
 20
84.30186604
 10
160.5735684744
 20
84.2990139036
 10
160.5908670175
 20
84.2965931911
 10
160.6081976051
 20
84.2946083813
 10
160.6255517493
 20
84.293062763
 10
160.6429228093
 20
84.2919593276
 10
160.6603041445
 20
84.2913010663
 10
160.6776891143
 20
84.2910909705
 10
160.6950715653
 20
84.2913310998
 10
160.7124472931
 20
84.2920197871
 10
160.7298125805
 20
84.2931544336
 10
160.7471637104
 20
84.2947324404
 10
160.7644969658
 20
84.2967512087
 10
160.781805631
 20
84.299207733
 10
160.7990709965
 20
84.3020973814
 10
160.8162713544
 20
84.3054151152
 10
160.8333849968
 20
84.3091558956
 10
160.8503902158
 20
84.3133146842
 10
160.8672645243
 20
84.3178848698
 10
160.8839823186
 20
84.3228535516
 10
160.9005172161
 20
84.3282062564
 10
160.9168428338
 20
84.333928511
 10
160.9329327892
 20
84.3400058423
 10
160.9487657644
 20
84.3464254519
 10
160.9643407019
 20
84.3531812411
 10
160.9796616091
 20
84.3602687859
 10
160.9947324934
 20
84.3676836626
 10
161.0095573623
 20
84.3754214471
 10
161.0241425067
 20
84.3834813094
 10
161.0385033517
 20
84.3918767948
 10
161.0526576058
 20
84.4006250423
 10
161.0666229776
 20
84.409743191
 10
161.0804171756
 20
84.41924838
  0
LWPOLYLINE
  5
32A
100
AcDbEntity
  8
ASSI
100
AcDbPolyline
 62
253
  6
CONTINUOUS
 90
10
 70
0
 10
149.389662389
 20
76.1924232826
 10
149.3883686238
 20
76.1967757918
 10
149.3870966626
 20
76.2044695616
 10
149.3858465056
 20
76.2155045921
 10
149.384611603
 20
76.2299697949
 10
149.3833985044
 20
76.2477762584
 10
149.3822268588
 20
76.2686572474
 10
149.3810978527
 20
76.2926575088
 10
149.3800102995
 20
76.3197322957
 10
149.3789802878
 20
76.349480633
  0
LWPOLYLINE
  5
32B
100
AcDbEntity
  8
0
100
AcDbPolyline
 62
253
  6
CONTINUOUS
 90
10
 70
0
 10
149.389662389
 20
76.1924232826
 10
149.3883686238
 20
76.1967757918
 10
149.3870966626
 20
76.2044695616
 10
149.3858465056
 20
76.2155045921
 10
149.384611603
 20
76.2299697949
 10
149.3833985044
 20
76.2477762584
 10
149.3822268588
 20
76.2686572474
 10
149.3810978527
 20
76.2926575088
 10
149.3800102995
 20
76.3197322957
 10
149.3789802878
 20
76.349480633
  0
LWPOLYLINE
  5
32C
100
AcDbEntity
  8
ASSI
100
AcDbPolyline
 62
253
  6
CONTINUOUS
 90
8
 70
0
 10
150.264159055
 20
119.7418873985
 10
150.2631073587
 20
119.7345014613
 10
150.2620138402
 20
119.7212257899
 10
150.2609063786
 20
119.7021290119
 10
150.2598336137
 20
119.6773093616
 10
150.2588014824
 20
119.6468918848
 10
150.2577730229
 20
119.6110258562
 10
150.2558251977
 20
119.52368167
  0
LWPOLYLINE
  5
32D
100
AcDbEntity
  8
0
100
AcDbPolyline
 62
253
  6
CONTINUOUS
 90
8
 70
0
 10
150.264159055
 20
119.7418873985
 10
150.2631073587
 20
119.7345014613
 10
150.2620138402
 20
119.7212257899
 10
150.2609063786
 20
119.7021290119
 10
150.2598336137
 20
119.6773093616
 10
150.2588014824
 20
119.6468918848
 10
150.2577730229
 20
119.6110258562
 10
150.2558251977
 20
119.52368167
  0
LWPOLYLINE
  5
32E
100
AcDbEntity
  8
0
100
AcDbPolyline
 62
253
  6
CONTINUOUS
 90
16
 70
0
 10
160.273575606
 20
111.0157475337
 10
160.0089976872
 20
110.8267276303
 10
159.7465571354
 20
110.6348861023
 10
159.4862257592
 20
110.440205743
 10
159.227975367
 20
110.2426693457
 10
158.9717777672
 20
110.0422597037
 10
158.717622514
 20
109.8389730889
 10
158.4655701434
 20
109.6328596868
 10
158.2156989374
 20
109.4239831615
 10
157.9680871776
 20
109.2124071773
 10
157.7228131458
 20
108.9981953981
 10
157.4799387292
 20
108.7813964119
 10
157.2394602364
 20
108.5619985008
 10
157.0013575814
 20
108.3399748711
 10
156.7656106782
 20
108.1152987285
 10
156.5321994408
 20
107.8879432792
  0
LWPOLYLINE
  5
32F
100
AcDbEntity
  8
0
100
AcDbPolyline
 62
253
  6
CONTINUOUS
 90
46
 70
0
 10
160.5901800899
 20
110.3823663109
 10
160.5936015435
 20
110.3847149763
 10
160.5970350761
 20
110.3869530079
 10
160.6004859939
 20
110.3890825111
 10
160.6039596032
 20
110.3911055914
 10
160.6074612102
 20
110.3930243545
 10
160.6109961212
 20
110.3948409057
 10
160.6145684025
 20
110.3965568745
 10
160.6181771605
 20
110.3981719857
 10
160.6218202619
 20
110.3996854878
 10
160.6254955734
 20
110.4010966297
 10
160.6292009615
 20
110.4024046599
 10
160.6329342929
 20
110.4036088271
 10
160.6366932343
 20
110.4047086482
 10
160.6404746534
 20
110.405704713
 10
160.6442752182
 20
110.4065978796
 10
160.6480915965
 20
110.407389006
 10
160.6519204563
 20
110.4080789505
 10
160.6557584653
 20
110.4086685709
 10
160.6596024564
 20
110.4091586626
 10
160.6634499216
 20
110.4095497686
 10
160.6672985181
 20
110.4098423692
 10
160.6711459027
 20
110.4100369448
 10
160.6749897326
 20
110.4101339755
 10
160.6788276647
 20
110.4101339418
 10
160.6834222998
 20
110.4100063761
 10
160.6880022231
 20
110.4097401023
 10
160.6925645895
 20
110.4093354935
 10
160.6971065539
 20
110.4087929227
 10
160.7016252712
 20
110.4081127632
 10
160.7061175446
 20
110.4072955512
 10
160.7105787712
 20
110.4063424745
 10
160.7150039961
 20
110.405254884
 10
160.7193882648
 20
110.4040341309
 10
160.7237266225
 20
110.4026815658
 10
160.7280145637
 20
110.4011989289
 10
160.7322493791
 20
110.3995895159
 10
160.7364288088
 20
110.3978570116
 10
160.7405505925
 20
110.396005101
 10
160.7446124703
 20
110.3940374689
 10
160.7479509643
 20
110.3923109886
 10
160.7512509061
 20
110.3905025557
 10
160.7545169146
 20
110.3886080208
 10
160.7577536083
 20
110.3866232346
 10
160.7609656061
 20
110.3845440478
 10
160.7641575267
 20
110.3823663109
  0
LWPOLYLINE
  5
330
100
AcDbEntity
  8
SUPERFICI
100
AcDbPolyline
 62
7
  6
CONTINUOUS
 90
43
 70
0
 10
158.3580310971
 20
94.1967040182
 10
158.2904031529
 20
94.1896203003
 10
158.223635224
 20
94.1778720537
 10
158.1573816856
 20
94.1613642671
 10
158.0919881572
 20
94.1401919711
 10
158.0284914815
 20
94.1146402342
 10
157.9669176402
 20
94.0846168218
 10
157.9072405983
 20
94.0502139891
 10
157.8504191354
 20
94.0119935336
 10
157.7965673184
 20
93.9699642753
 10
157.7455709903
 20
93.9241174116
 10
157.6980465678
 20
93.874988299
 10
157.6539583845
 20
93.8224220585
 10
157.6133420067
 20
93.766573584
 10
157.576920683
 20
93.7084428804
 10
157.5448337584
 20
93.6481406541
 10
157.5169417886
 20
93.5855562022
 10
157.4935498327
 20
93.5213574055
 10
157.4746703879
 20
93.4553474425
 10
157.4602908888
 20
93.3877231344
 10
157.450678807
 20
93.3197428156
 10
157.4459247482
 20
93.2515837915
 10
157.4459380815
 20
93.183068744
 10
157.4507144345
 20
93.1149240615
 10
157.4603373074
 20
93.0469854162
 10
157.4747232253
 20
92.9794171224
 10
157.4936173645
 20
92.9134385233
 10
157.5170470845
 20
92.8492134525
 10
157.5449850943
 20
92.7865780567
 10
157.5770946005
 20
92.726260141
 10
157.6134874926
 20
92.6681918636
 10
157.6540519797
 20
92.6124410499
 10
157.6981157426
 20
92.5599390005
 10
157.7456819173
 20
92.5107982058
 10
157.7967474691
 20
92.4649061606
 10
157.8506308049
 20
92.4228566686
 10
157.9074024992
 20
92.3846744548
 10
157.9669920658
 20
92.3503347859
 10
158.0285062933
 20
92.3203572755
 10
158.0919890111
 20
92.294815195
 10
158.1573964442
 20
92.2736352711
 10
158.2237039386
 20
92.2571172978
 10
158.290569938
 20
92.2453612066
  0
LWPOLYLINE
  5
331
100
AcDbEntity
  8
SUPERFICI
100
AcDbPolyline
 62
7
  6
CONTINUOUS
 90
43
 70
0
 10
140.7956651054
 20
92.238270043
 10
140.8634332722
 20
92.2453646497
 10
140.9302950873
 20
92.2571187073
 10
140.9965801666
 20
92.2736251761
 10
141.0619589015
 20
92.294791092
 10
141.1254424792
 20
92.3203375643
 10
141.1870214272
 20
92.3503588945
 10
141.2467052711
 20
92.3847607832
 10
141.3035337334
 20
92.4229814355
 10
141.3573925005
 20
92.4650121519
 10
141.408395976
 20
92.5108616397
 10
141.4559269856
 20
92.5599942108
 10
141.5000210787
 20
92.6125648909
 10
141.540642806
 20
92.6684186696
 10
141.5770685118
 20
92.7265548007
 10
141.6091586949
 20
92.7868626042
 10
141.6370529559
 20
92.8494527761
 10
141.6604462984
 20
92.9136566292
 10
141.6793260257
 20
92.9796712085
 10
141.6937049027
 20
93.047299489
 10
141.7033161191
 20
93.1152816696
 10
141.7080688691
 20
93.1834398945
 10
141.7080539838
 20
93.251952033
 10
141.703277097
 20
93.3200918635
 10
141.6936549665
 20
93.3880231533
 10
141.6792708091
 20
93.4555821476
 10
141.6603799365
 20
93.5215513315
 10
141.6369553298
 20
93.5857670145
 10
141.6090239395
 20
93.6483928877
 10
141.5769220256
 20
93.708702498
 10
141.54053797
 20
93.7667638333
 10
141.4999832925
 20
93.8225089016
 10
141.4559289651
 20
93.8750072691
 10
141.4083718064
 20
93.9241468388
 10
141.3573148965
 20
93.9700396935
 10
141.3034386178
 20
94.0120916599
 10
141.2466722736
 20
94.0502782005
 10
141.1870864722
 20
94.0846238349
 10
141.1255735803
 20
94.1146079675
 10
141.0620731614
 20
94.1401591424
 10
140.9966455972
 20
94.1613487955
 10
140.9303645188
 20
94.1778706629
 10
140.8635878094
 20
94.1896226493
  0
LINE
  5
332
100
AcDbEntity
  8
SUPERFICI
100
AcDbLine
 62
7
  6
CONTINUOUS
 10
158.4265190606
 20
94.1991232007
 11
158.3580310971
 21
94.1967040182
  0
LINE
  5
333
100
AcDbEntity
  8
SUPERFICI
100
AcDbLine
 62
7
  6
CONTINUOUS
 10
136.2265190606
 20
94.1991232007
 11
136.1580310971
 21
94.1967040182
  0
LINE
  5
334
100
AcDbEntity
  8
SUPERFICI
100
AcDbLine
 62
7
  6
CONTINUOUS
 10
162.9274738297
 20
94.1991232007
 11
158.4265190606
 21
94.1991232007
  0
LINE
  5
335
100
AcDbEntity
  8
SUPERFICI
100
AcDbLine
 62
7
  6
CONTINUOUS
 10
140.7274738297
 20
94.1991232007
 11
136.2265190606
 21
94.1991232007
  0
LINE
  5
336
100
AcDbEntity
  8
ASSI
100
AcDbLine
 62
7
  6
CONTINUOUS
 10
136.2269575075
 20
94.1991232115
 11
140.7270353333
 21
94.1991232115
  0
LINE
  5
337
100
AcDbEntity
  8
0
100
AcDbLine
 62
7
  6
CONTINUOUS
 10
136.2269575075
 20
94.1991232115
 11
140.7270353333
 21
94.1991232115
  0
LINE
  5
338
100
AcDbEntity
  8
ASSI
100
AcDbLine
 62
7
  6
CONTINUOUS
 10
158.4269575075
 20
94.1991232115
 11
162.9270353333
 21
94.1991232115
  0
LINE
  5
339
100
AcDbEntity
  8
0
100
AcDbLine
 62
7
  6
CONTINUOUS
 10
158.4269575075
 20
94.1991232115
 11
162.9270353333
 21
94.1991232115
  0
LWPOLYLINE
  5
33A
100
AcDbEntity
  8
ASSI
100
AcDbPolyline
 62
7
  6
CONTINUOUS
 90
37
 70
0
 10
140.7270353333
 20
94.1991232115
 10
140.8131293426
 20
94.195212684
 10
140.8973152623
 20
94.1842090016
 10
140.9795931132
 20
94.1661121766
 10
141.0604931446
 20
94.1407244405
 10
141.1394851464
 20
94.1082435989
 10
141.2149784901
 20
94.0692630231
 10
141.2870327203
 20
94.0235618209
 10
141.3555884217
 20
93.9713609252
 10
141.4188766037
 20
93.9139164294
 10
141.4766713056
 20
93.8512073129
 10
141.5291986874
 20
93.783254624
 10
141.5753679903
 20
93.7113775371
 10
141.615111154
 20
93.6353575472
 10
141.6484964258
 20
93.5554131742
 10
141.6746375214
 20
93.4735191043
 10
141.6933383394
 20
93.3896913088
 10
141.7047950995
 20
93.3039138068
 10
141.7087099841
 20
93.2181133279
 10
141.7048911753
 20
93.1322819144
 10
141.6935304913
 20
93.0464274981
 10
141.6749055402
 20
92.9625006188
 10
141.6488160874
 20
92.8804870794
 10
141.6154622494
 20
92.8004010427
 10
141.5757221451
 20
92.7242355681
 10
141.5295187279
 20
92.6522048431
 10
141.4769288566
 20
92.5840946435
 10
141.4190615205
 20
92.5212553979
 10
141.355687466
 20
92.4637214059
 10
141.2870357468
 20
92.4114583434
 10
141.2149028657
 20
92.3657136947
 10
141.1393543351
 20
92.3267104042
 10
141.0603245141
 20
92.2942255153
 10
140.9794132537
 20
92.2688376547
 10
140.8971538389
 20
92.2507396973
 10
140.8130129468
 20
92.2397387732
 10
140.7269905571
 20
92.2358348927
  0
LWPOLYLINE
  5
33B
100
AcDbEntity
  8
0
100
AcDbPolyline
 62
7
  6
CONTINUOUS
 90
37
 70
0
 10
140.7270353333
 20
94.1991232115
 10
140.8131293426
 20
94.195212684
 10
140.8973152623
 20
94.1842090016
 10
140.9795931132
 20
94.1661121766
 10
141.0604931446
 20
94.1407244405
 10
141.1394851464
 20
94.1082435989
 10
141.2149784901
 20
94.0692630231
 10
141.2870327203
 20
94.0235618209
 10
141.3555884217
 20
93.9713609252
 10
141.4188766037
 20
93.9139164294
 10
141.4766713056
 20
93.8512073129
 10
141.5291986874
 20
93.783254624
 10
141.5753679903
 20
93.7113775371
 10
141.615111154
 20
93.6353575472
 10
141.6484964258
 20
93.5554131742
 10
141.6746375214
 20
93.4735191043
 10
141.6933383394
 20
93.3896913088
 10
141.7047950995
 20
93.3039138068
 10
141.7087099841
 20
93.2181133279
 10
141.7048911753
 20
93.1322819144
 10
141.6935304913
 20
93.0464274981
 10
141.6749055402
 20
92.9625006188
 10
141.6488160874
 20
92.8804870794
 10
141.6154622494
 20
92.8004010427
 10
141.5757221451
 20
92.7242355681
 10
141.5295187279
 20
92.6522048431
 10
141.4769288566
 20
92.5840946435
 10
141.4190615205
 20
92.5212553979
 10
141.355687466
 20
92.4637214059
 10
141.2870357468
 20
92.4114583434
 10
141.2149028657
 20
92.3657136947
 10
141.1393543351
 20
92.3267104042
 10
141.0603245141
 20
92.2942255153
 10
140.9794132537
 20
92.2688376547
 10
140.8971538389
 20
92.2507396973
 10
140.8130129468
 20
92.2397387732
 10
140.7269905571
 20
92.2358348927
  0
LWPOLYLINE
  5
33C
100
AcDbEntity
  8
ASSI
100
AcDbPolyline
 62
7
  6
CONTINUOUS
 90
37
 70
0
 10
162.9270353333
 20
94.1991232115
 10
163.0131293426
 20
94.195212684
 10
163.0973152623
 20
94.1842090016
 10
163.1795931132
 20
94.1661121766
 10
163.2604931446
 20
94.1407244405
 10
163.3394851464
 20
94.1082435989
 10
163.4149784901
 20
94.0692630231
 10
163.4870327203
 20
94.0235618209
 10
163.5555884217
 20
93.9713609252
 10
163.6188766037
 20
93.9139164294
 10
163.6766713056
 20
93.8512073129
 10
163.7291986874
 20
93.783254624
 10
163.7753679903
 20
93.7113775371
 10
163.815111154
 20
93.6353575472
 10
163.8484964258
 20
93.5554131742
 10
163.8746375214
 20
93.4735191043
 10
163.8933383394
 20
93.3896913088
 10
163.9047950995
 20
93.3039138068
 10
163.9087099841
 20
93.2181133279
 10
163.9048911753
 20
93.1322819144
 10
163.8935304913
 20
93.0464274981
 10
163.8749055402
 20
92.9625006188
 10
163.8488160874
 20
92.8804870794
 10
163.8154622494
 20
92.8004010427
 10
163.7757221451
 20
92.7242355681
 10
163.7295187279
 20
92.6522048431
 10
163.6769288566
 20
92.5840946435
 10
163.6190615205
 20
92.5212553979
 10
163.555687466
 20
92.4637214059
 10
163.4870357468
 20
92.4114583434
 10
163.4149028657
 20
92.3657136947
 10
163.3393543351
 20
92.3267104042
 10
163.2603245141
 20
92.2942255153
 10
163.1794132537
 20
92.2688376547
 10
163.0971538389
 20
92.2507396973
 10
163.0130129468
 20
92.2397387732
 10
162.9269905571
 20
92.2358348927
  0
LWPOLYLINE
  5
33D
100
AcDbEntity
  8
0
100
AcDbPolyline
 62
7
  6
CONTINUOUS
 90
37
 70
0
 10
162.9270353333
 20
94.1991232115
 10
163.0131293426
 20
94.195212684
 10
163.0973152623
 20
94.1842090016
 10
163.1795931132
 20
94.1661121766
 10
163.2604931446
 20
94.1407244405
 10
163.3394851464
 20
94.1082435989
 10
163.4149784901
 20
94.0692630231
 10
163.4870327203
 20
94.0235618209
 10
163.5555884217
 20
93.9713609252
 10
163.6188766037
 20
93.9139164294
 10
163.6766713056
 20
93.8512073129
 10
163.7291986874
 20
93.783254624
 10
163.7753679903
 20
93.7113775371
 10
163.815111154
 20
93.6353575472
 10
163.8484964258
 20
93.5554131742
 10
163.8746375214
 20
93.4735191043
 10
163.8933383394
 20
93.3896913088
 10
163.9047950995
 20
93.3039138068
 10
163.9087099841
 20
93.2181133279
 10
163.9048911753
 20
93.1322819144
 10
163.8935304913
 20
93.0464274981
 10
163.8749055402
 20
92.9625006188
 10
163.8488160874
 20
92.8804870794
 10
163.8154622494
 20
92.8004010427
 10
163.7757221451
 20
92.7242355681
 10
163.7295187279
 20
92.6522048431
 10
163.6769288566
 20
92.5840946435
 10
163.6190615205
 20
92.5212553979
 10
163.555687466
 20
92.4637214059
 10
163.4870357468
 20
92.4114583434
 10
163.4149028657
 20
92.3657136947
 10
163.3393543351
 20
92.3267104042
 10
163.2603245141
 20
92.2942255153
 10
163.1794132537
 20
92.2688376547
 10
163.0971538389
 20
92.2507396973
 10
163.0130129468
 20
92.2397387732
 10
162.9269905571
 20
92.2358348927
  0
LWPOLYLINE
  5
33E
100
AcDbEntity
  8
SUPERFICI
100
AcDbPolyline
 62
7
  6
CONTINUOUS
 90
3
 70
0
 10
158.290569938
 20
92.2453612066
 10
158.3583360054
 20
92.2382670698
 10
158.4270021454
 20
92.2358348927
  0
LWPOLYLINE
  5
33F
100
AcDbEntity
  8
SUPERFICI
100
AcDbPolyline
 62
7
  6
CONTINUOUS
 90
3
 70
0
 10
140.8635878094
 20
94.1896226493
 10
140.7959575809
 20
94.1967068308
 10
140.7274738297
 20
94.1991232007
  0
LWPOLYLINE
  5
340
100
AcDbEntity
  8
0
100
AcDbPolyline
 62
253
  6
CONTINUOUS
 90
16
 70
0
 10
160.5898352549
 20
85.0526296028
 10
160.3378166534
 20
85.234048081
 10
160.0877822502
 20
85.4180985729
 10
159.8396937252
 20
85.604811409
 10
159.5935127584
 20
85.79421692
 10
159.3492010296
 20
85.9863454364
 10
159.1067456568
 20
86.1812064439
 10
158.8662355097
 20
86.3787260475
 10
158.627784896
 20
86.5788095073
 10
158.3915081234
 20
86.7813620835
 10
158.1575194997
 20
86.986289036
 10
157.9259083857
 20
87.1935170589
 10
157.6966643554
 20
87.403058582
 10
157.4697520356
 20
87.6149474691
 10
157.2451360536
 20
87.8292175837
 10
157.0227810363
 20
88.0459027898
  0
LWPOLYLINE
  5
341
100
AcDbEntity
  8
0
100
AcDbPolyline
 62
253
  6
CONTINUOUS
 90
16
 70
0
 10
156.531510096
 20
87.5470526344
 10
156.7649820875
 20
87.3197004879
 10
157.0007806159
 20
87.0950273014
 10
157.2389255374
 20
86.8730065251
 10
157.4794367087
 20
86.653611609
 10
157.7223339861
 20
86.436816003
 10
157.9676210047
 20
86.2226080912
 10
158.2152365142
 20
86.0110359935
 10
158.4651030431
 20
85.8021627637
 10
158.7171431196
 20
85.5960514557
 10
158.9712792722
 20
85.3927651235
 10
159.227451602
 20
85.1923534881
 10
159.485670501
 20
84.9948129392
 10
159.745963934
 20
84.8001265336
 10
160.0083598658
 20
84.6082773282
 10
160.2728862612
 20
84.41924838
  0
LWPOLYLINE
  5
342
100
AcDbEntity
  8
ASSI
100
AcDbPolyline
 62
253
  6
CONTINUOUS
 90
8
 70
0
 10
148.8892748464
 20
97.3487270975
 10
148.8856356891
 20
97.3818255859
 10
148.8817047222
 20
97.4104679269
 10
148.8780548538
 20
97.4343902398
 10
148.8737822936
 20
97.4534295325
 10
148.8688893753
 20
97.467328394
 10
148.8643512672
 20
97.4758744292
 10
148.8606555867
 20
97.4790164851
  0
LWPOLYLINE
  5
343
100
AcDbEntity
  8
0
100
AcDbPolyline
 62
253
  6
CONTINUOUS
 90
8
 70
0
 10
148.8892748464
 20
97.3487270975
 10
148.8856356891
 20
97.3818255859
 10
148.8817047222
 20
97.4104679269
 10
148.8780548538
 20
97.4343902398
 10
148.8737822936
 20
97.4534295325
 10
148.8688893753
 20
97.467328394
 10
148.8643512672
 20
97.4758744292
 10
148.8606555867
 20
97.4790164851
  0
LWPOLYLINE
  5
344
100
AcDbEntity
  8
ASSI
100
AcDbPolyline
 62
253
  6
CONTINUOUS
 90
16
 70
0
 10
149.3604842492
 20
96.9790355236
 10
149.3577987117
 20
97.0306814635
 10
149.3497585409
 20
97.0819454559
 10
149.3363969278
 20
97.132266968
 10
149.3177830051
 20
97.181139209
 10
149.2940813818
 20
97.22795165
 10
149.2656057907
 20
97.2720237894
 10
149.2327109549
 20
97.3128238402
 10
149.195727124
 20
97.3499570751
 10
149.1550498776
 20
97.3830228833
 10
149.1111157753
 20
97.4116588041
 10
149.0644125593
 20
97.4355398988
 10
149.0154658475
 20
97.4543948679
 10
148.9648191479
 20
97.468015098
 10
148.9130256773
 20
97.4762525423
 10
148.8606555867
 20
97.4790164851
  0
LWPOLYLINE
  5
345
100
AcDbEntity
  8
0
100
AcDbPolyline
 62
253
  6
CONTINUOUS
 90
16
 70
0
 10
149.3604842492
 20
96.9790355236
 10
149.3577987117
 20
97.0306814635
 10
149.3497585409
 20
97.0819454559
 10
149.3363969278
 20
97.132266968
 10
149.3177830051
 20
97.181139209
 10
149.2940813818
 20
97.22795165
 10
149.2656057907
 20
97.2720237894
 10
149.2327109549
 20
97.3128238402
 10
149.195727124
 20
97.3499570751
 10
149.1550498776
 20
97.3830228833
 10
149.1111157753
 20
97.4116588041
 10
149.0644125593
 20
97.4355398988
 10
149.0154658475
 20
97.4543948679
 10
148.9648191479
 20
97.468015098
 10
148.9130256773
 20
97.4762525423
 10
148.8606555867
 20
97.4790164851
  0
LWPOLYLINE
  5
346
100
AcDbEntity
  8
ASSI
100
AcDbPolyline
 62
253
  6
CONTINUOUS
 90
16
 70
0
 10
149.7935085324
 20
98.4559603901
 10
149.7961940698
 20
98.4043144502
 10
149.8042342407
 20
98.3530504577
 10
149.8175958538
 20
98.3027289456
 10
149.8362097765
 20
98.2538567046
 10
149.8599113997
 20
98.2070442637
 10
149.8883869908
 20
98.1629721242
 10
149.9212818267
 20
98.1221720734
 10
149.9582656575
 20
98.0850388386
 10
149.998942904
 20
98.0519730303
 10
150.0428770062
 20
98.0233371096
 10
150.0895802223
 20
97.9994560149
 10
150.138526934
 20
97.9806010457
 10
150.1891736337
 20
97.9669808157
 10
150.2409671043
 20
97.9587433713
 10
150.2933371949
 20
97.9559794285
  0
LWPOLYLINE
  5
347
100
AcDbEntity
  8
0
100
AcDbPolyline
 62
253
  6
CONTINUOUS
 90
16
 70
0
 10
149.7935085324
 20
98.4559603901
 10
149.7961940698
 20
98.4043144502
 10
149.8042342407
 20
98.3530504577
 10
149.8175958538
 20
98.3027289456
 10
149.8362097765
 20
98.2538567046
 10
149.8599113997
 20
98.2070442637
 10
149.8883869908
 20
98.1629721242
 10
149.9212818267
 20
98.1221720734
 10
149.9582656575
 20
98.0850388386
 10
149.998942904
 20
98.0519730303
 10
150.0428770062
 20
98.0233371096
 10
150.0895802223
 20
97.9994560149
 10
150.138526934
 20
97.9806010457
 10
150.1891736337
 20
97.9669808157
 10
150.2409671043
 20
97.9587433713
 10
150.2933371949
 20
97.9559794285
  0
LWPOLYLINE
  5
348
100
AcDbEntity
  8
ASSI
100
AcDbPolyline
 62
253
  6
CONTINUOUS
 90
4
 70
0
 10
148.8995811461
 20
97.1804693583
 10
148.897780152
 20
97.2271802589
 10
148.8950659745
 20
97.2711503434
 10
148.8892748464
 20
97.3487270975
  0
LWPOLYLINE
  5
349
100
AcDbEntity
  8
0
100
AcDbPolyline
 62
253
  6
CONTINUOUS
 90
4
 70
0
 10
148.8995811461
 20
97.1804693583
 10
148.897780152
 20
97.2271802589
 10
148.8950659745
 20
97.2711503434
 10
148.8892748464
 20
97.3487270975
  0
LWPOLYLINE
  5
34A
100
AcDbEntity
  8
ASSI
100
AcDbPolyline
 62
253
  6
CONTINUOUS
 90
6
 70
0
 10
150.2588014816
 20
75.7881040288
 10
150.259833613
 20
75.7576865525
 10
150.260906378
 20
75.7328669021
 10
150.2620138396
 20
75.7137701235
 10
150.2631073581
 20
75.7004944515
 10
150.2641590544
 20
75.693108514
  0
LWPOLYLINE
  5
34B
100
AcDbEntity
  8
0
100
AcDbPolyline
 62
253
  6
CONTINUOUS
 90
6
 70
0
 10
150.2588014816
 20
75.7881040288
 10
150.259833613
 20
75.7576865525
 10
150.260906378
 20
75.7328669021
 10
150.2620138396
 20
75.7137701235
 10
150.2631073581
 20
75.7004944515
 10
150.2641590544
 20
75.693108514
  0
LWPOLYLINE
  5
34C
100
AcDbEntity
  8
ASSI
100
AcDbPolyline
 62
253
  6
CONTINUOUS
 90
6
 70
0
 10
148.8951912999
 20
119.6468918848
 10
148.8941591685
 20
119.6773093612
 10
148.8930864036
 20
119.7021290115
 10
148.891978942
 20
119.7212257902
 10
148.8908854235
 20
119.7345014621
 10
148.8898337271
 20
119.7418873997
  0
LWPOLYLINE
  5
34D
100
AcDbEntity
  8
0
100
AcDbPolyline
 62
253
  6
CONTINUOUS
 90
6
 70
0
 10
148.8951912999
 20
119.6468918848
 10
148.8941591685
 20
119.6773093612
 10
148.8930864036
 20
119.7021290115
 10
148.891978942
 20
119.7212257902
 10
148.8908854235
 20
119.7345014621
 10
148.8898337271
 20
119.7418873997
  0
LINE
  5
34E
100
AcDbEntity
  8
ASSI
100
AcDbLine
 62
253
  6
CONTINUOUS
 10
149.3789802878
 20
76.349480633
 11
149.3770946008
 21
76.4170812537
  0
LINE
  5
34F
100
AcDbEntity
  8
0
100
AcDbLine
 62
253
  6
CONTINUOUS
 10
149.3789802878
 20
76.349480633
 11
149.3770946008
 21
76.4170812537
  0
LINE
  5
350
100
AcDbEntity
  8
ASSI
100
AcDbLine
 62
253
  6
CONTINUOUS
 10
148.8972207271
 20
119.5698871139
 11
148.8951912999
 21
119.6468918848
  0
LINE
  5
351
100
AcDbEntity
  8
0
100
AcDbLine
 62
253
  6
CONTINUOUS
 10
148.8972207271
 20
119.5698871139
 11
148.8951912999
 21
119.6468918848
  0
LINE
  5
352
100
AcDbEntity
  8
ASSI
100
AcDbLine
 62
253
  6
CONTINUOUS
 10
150.2567720545
 20
75.8651087997
 11
150.2588014816
 21
75.7881040288
  0
LINE
  5
353
100
AcDbEntity
  8
0
100
AcDbLine
 62
253
  6
CONTINUOUS
 10
150.2567720545
 20
75.8651087997
 11
150.2588014816
 21
75.7881040288
  0
LINE
  5
354
100
AcDbEntity
  8
ASSI
100
AcDbLine
 62
253
  6
CONTINUOUS
 10
149.3770946008
 20
76.4170812537
 11
149.3754807786
 21
76.4938279995
  0
LINE
  5
355
100
AcDbEntity
  8
0
100
AcDbLine
 62
253
  6
CONTINUOUS
 10
149.3770946008
 20
76.4170812537
 11
149.3754807786
 21
76.4938279995
  0
LINE
  5
356
100
AcDbEntity
  8
ASSI
100
AcDbLine
 62
253
  6
CONTINUOUS
 10
148.8990945425
 20
119.472642046
 11
148.8972207271
 21
119.5698871139
  0
LINE
  5
357
100
AcDbEntity
  8
0
100
AcDbLine
 62
253
  6
CONTINUOUS
 10
148.8990945425
 20
119.472642046
 11
148.8972207271
 21
119.5698871139
  0
LWPOLYLINE
  5
358
100
AcDbEntity
  8
ASSI
100
AcDbPolyline
 62
253
  6
CONTINUOUS
 90
3
 70
0
 10
150.2540105256
 20
76.0179726213
 10
150.2548982391
 20
75.9623538676
 10
150.2567720545
 20
75.8651087997
  0
LWPOLYLINE
  5
359
100
AcDbEntity
  8
0
100
AcDbPolyline
 62
253
  6
CONTINUOUS
 90
3
 70
0
 10
150.2540105256
 20
76.0179726213
 10
150.2548982391
 20
75.9623538676
 10
150.2567720545
 20
75.8651087997
  0
LINE
  5
35A
100
AcDbEntity
  8
ASSI
100
AcDbLine
 62
253
  6
CONTINUOUS
 10
149.3754807786
 20
76.4938279995
 11
149.3741624623
 21
76.5785800014
  0
LINE
  5
35B
100
AcDbEntity
  8
0
100
AcDbLine
 62
253
  6
CONTINUOUS
 10
149.3754807786
 20
76.4938279995
 11
149.3741624623
 21
76.5785800014
  0
LINE
  5
35C
100
AcDbEntity
  8
ASSI
100
AcDbLine
 62
253
  6
CONTINUOUS
 10
148.901594002
 20
119.2931706944
 11
148.8990945425
 21
119.472642046
  0
LINE
  5
35D
100
AcDbEntity
  8
0
100
AcDbLine
 62
253
  6
CONTINUOUS
 10
148.901594002
 20
119.2931706944
 11
148.8990945425
 21
119.472642046
  0
LINE
  5
35E
100
AcDbEntity
  8
ASSI
100
AcDbLine
 62
253
  6
CONTINUOUS
 10
149.3741624623
 20
76.5785800014
 11
149.3728039778
 21
76.7165881608
  0
LINE
  5
35F
100
AcDbEntity
  8
0
100
AcDbLine
 62
253
  6
CONTINUOUS
 10
149.3741624623
 20
76.5785800014
 11
149.3728039778
 21
76.7165881608
  0
LINE
  5
360
100
AcDbEntity
  8
ASSI
100
AcDbLine
 62
253
  6
CONTINUOUS
 10
148.9041674302
 20
119.0039834708
 11
148.901594002
 21
119.2931706944
  0
LINE
  5
361
100
AcDbEntity
  8
0
100
AcDbLine
 62
253
  6
CONTINUOUS
 10
148.9041674302
 20
119.0039834708
 11
148.901594002
 21
119.2931706944
  0
LWPOLYLINE
  5
362
100
AcDbEntity
  8
ASSI
100
AcDbPolyline
 62
253
  6
CONTINUOUS
 90
3
 70
0
 10
148.9033219764
 20
98.4567186171
 10
148.903546743
 20
98.4037306839
 10
148.9026941099
 20
98.3524808374
  0
LWPOLYLINE
  5
363
100
AcDbEntity
  8
0
100
AcDbPolyline
 62
253
  6
CONTINUOUS
 90
3
 70
0
 10
148.9033219764
 20
98.4567186171
 10
148.903546743
 20
98.4037306839
 10
148.9026941099
 20
98.3524808374
  0
LINE
  5
364
100
AcDbEntity
  8
ASSI
100
AcDbLine
 62
253
  6
CONTINUOUS
 10
148.9058949728
 20
118.5947654374
 11
148.9041674302
 21
119.0039834708
  0
LINE
  5
365
100
AcDbEntity
  8
0
100
AcDbLine
 62
253
  6
CONTINUOUS
 10
148.9058949728
 20
118.5947654374
 11
148.9041674302
 21
119.0039834708
  0
LINE
  5
366
100
AcDbEntity
  8
ASSI
100
AcDbLine
 62
7
  6
CONTINUOUS
 10
149.4565722013
 20
119.3764840791
 11
149.4761805927
 21
110.8174979568
  0
LINE
  5
367
100
AcDbEntity
  8
0
100
AcDbLine
 62
7
  6
CONTINUOUS
 10
149.4565722013
 20
119.3764840791
 11
149.4761805927
 21
110.8174979568
  0
LINE
  5
368
100
AcDbEntity
  8
ASSI
100
AcDbLine
 62
7
  6
CONTINUOUS
 10
149.6974205802
 20
76.0585118345
 11
149.6778121888
 21
84.6174979568
  0
LINE
  5
369
100
AcDbEntity
  8
0
100
AcDbLine
 62
7
  6
CONTINUOUS
 10
149.6974205802
 20
76.0585118345
 11
149.6778121888
 21
84.6174979568
  0
LINE
  5
36A
100
AcDbEntity
  8
ASSI
100
AcDbLine
 62
253
  6
CONTINUOUS
 10
149.3728039778
 20
76.7165881608
 11
149.3722358744
 21
76.8616726
  0
LINE
  5
36B
100
AcDbEntity
  8
0
100
AcDbLine
 62
253
  6
CONTINUOUS
 10
149.3728039778
 20
76.7165881608
 11
149.3722358744
 21
76.8616726
  0
LINE
  5
36C
100
AcDbEntity
  8
ASSI
100
AcDbLine
 62
253
  6
CONTINUOUS
 10
149.7811888038
 20
118.7184077529
 11
149.7817569071
 21
118.5733233137
  0
LINE
  5
36D
100
AcDbEntity
  8
0
100
AcDbLine
 62
253
  6
CONTINUOUS
 10
149.7811888038
 20
118.7184077529
 11
149.7817569071
 21
118.5733233137
  0
LINE
  5
36E
100
AcDbEntity
  8
ASSI
100
AcDbLine
 62
253
  6
CONTINUOUS
 10
149.3722358744
 20
76.8616726
 11
149.3642548095
 21
85.8571955674
  0
LINE
  5
36F
100
AcDbEntity
  8
0
100
AcDbLine
 62
253
  6
CONTINUOUS
 10
149.3722358744
 20
76.8616726
 11
149.3642548095
 21
85.8571955674
  0
LINE
  5
370
100
AcDbEntity
  8
ASSI
100
AcDbLine
 62
253
  6
CONTINUOUS
 10
149.7817569071
 20
118.5733233137
 11
149.7919800228
 21
105.2711619691
  0
LINE
  5
371
100
AcDbEntity
  8
0
100
AcDbLine
 62
253
  6
CONTINUOUS
 10
149.7817569071
 20
118.5733233137
 11
149.7919800228
 21
105.2711619691
  0
LWPOLYLINE
  5
372
100
AcDbEntity
  8
ASSI
100
AcDbPolyline
 62
253
  6
CONTINUOUS
 90
3
 70
0
 10
149.3642548095
 20
85.8571955674
 10
149.3607432001
 20
94.6699954424
 10
149.3604842492
 20
96.9790355236
  0
LWPOLYLINE
  5
373
100
AcDbEntity
  8
0
100
AcDbPolyline
 62
253
  6
CONTINUOUS
 90
3
 70
0
 10
149.3642548095
 20
85.8571955674
 10
149.3607432001
 20
94.6699954424
 10
149.3604842492
 20
96.9790355236
  0
LINE
  5
374
100
AcDbEntity
  8
ASSI
100
AcDbLine
 62
7
  6
CONTINUOUS
 10
149.4761805927
 20
110.8174979568
 11
149.4761805927
 21
98.4174027746
  0
LINE
  5
375
100
AcDbEntity
  8
0
100
AcDbLine
 62
7
  6
CONTINUOUS
 10
149.4761805927
 20
110.8174979568
 11
149.4761805927
 21
98.4174027746
  0
LINE
  5
376
100
AcDbEntity
  8
ASSI
100
AcDbLine
 62
7
  6
CONTINUOUS
 10
149.4761805927
 20
84.6174979568
 11
149.4761805927
 21
97.017593139
  0
LINE
  5
377
100
AcDbEntity
  8
0
100
AcDbLine
 62
7
  6
CONTINUOUS
 10
149.4761805927
 20
84.6174979568
 11
149.4761805927
 21
97.017593139
  0
LINE
  5
378
100
AcDbEntity
  8
ASSI
100
AcDbLine
 62
7
  6
CONTINUOUS
 10
149.6778121888
 20
110.8174979568
 11
149.6778121888
 21
98.4174027746
  0
LINE
  5
379
100
AcDbEntity
  8
0
100
AcDbLine
 62
7
  6
CONTINUOUS
 10
149.6778121888
 20
110.8174979568
 11
149.6778121888
 21
98.4174027746
  0
LINE
  5
37A
100
AcDbEntity
  8
ASSI
100
AcDbLine
 62
7
  6
CONTINUOUS
 10
149.6778121888
 20
84.6174979568
 11
149.6778121888
 21
97.017593139
  0
LINE
  5
37B
100
AcDbEntity
  8
0
100
AcDbLine
 62
7
  6
CONTINUOUS
 10
149.6778121888
 20
84.6174979568
 11
149.6778121888
 21
97.017593139
  0
LINE
  5
37C
100
AcDbEntity
  8
ASSI
100
AcDbLine
 62
253
  6
CONTINUOUS
 10
149.7919800228
 20
105.2711619691
 11
149.7935085324
 21
98.4559603901
  0
LINE
  5
37D
100
AcDbEntity
  8
0
100
AcDbLine
 62
253
  6
CONTINUOUS
 10
149.7919800228
 20
105.2711619691
 11
149.7935085324
 21
98.4559603901
  0
LINE
  5
37E
100
AcDbEntity
  8
ASSI
100
AcDbLine
 62
253
  6
CONTINUOUS
 10
148.9033217605
 20
98.4567186207
 11
148.9058949675
 21
118.5947654383
  0
LINE
  5
37F
100
AcDbEntity
  8
0
100
AcDbLine
 62
253
  6
CONTINUOUS
 10
148.9033217605
 20
98.4567186207
 11
148.9058949675
 21
118.5947654383
  0
LINE
  5
380
100
AcDbEntity
  8
ASSI
100
AcDbLine
 62
253
  6
CONTINUOUS
 10
149.3604842466
 20
98.4559603909
 11
149.363923728
 21
109.0510994353
  0
LINE
  5
381
100
AcDbEntity
  8
0
100
AcDbLine
 62
253
  6
CONTINUOUS
 10
149.3604842466
 20
98.4559603909
 11
149.363923728
 21
109.0510994353
  0
LINE
  5
382
100
AcDbEntity
  8
ASSI
100
AcDbLine
 62
253
  6
CONTINUOUS
 10
149.7935085349
 20
96.9790355227
 11
149.7912589766
 21
88.5544483527
  0
LINE
  5
383
100
AcDbEntity
  8
0
100
AcDbLine
 62
253
  6
CONTINUOUS
 10
149.7935085349
 20
96.9790355227
 11
149.7912589766
 21
88.5544483527
  0
LINE
  5
384
100
AcDbEntity
  8
ASSI
100
AcDbLine
 62
253
  6
CONTINUOUS
 10
149.7912589766
 20
88.5544483527
 11
149.784362021
 21
79.3649954918
  0
LINE
  5
385
100
AcDbEntity
  8
0
100
AcDbLine
 62
253
  6
CONTINUOUS
 10
149.7912589766
 20
88.5544483527
 11
149.784362021
 21
79.3649954918
  0
LINE
  5
386
100
AcDbEntity
  8
ASSI
100
AcDbLine
 62
7
  6
CONTINUOUS
 10
149.4565722013
 20
76.0585118345
 11
149.4761805927
 21
84.6174979568
  0
LINE
  5
387
100
AcDbEntity
  8
0
100
AcDbLine
 62
7
  6
CONTINUOUS
 10
149.4565722013
 20
76.0585118345
 11
149.4761805927
 21
84.6174979568
  0
LINE
  5
388
100
AcDbEntity
  8
ASSI
100
AcDbLine
 62
7
  6
CONTINUOUS
 10
149.6974205802
 20
119.3764840791
 11
149.6778121888
 21
110.8174979568
  0
LINE
  5
389
100
AcDbEntity
  8
0
100
AcDbLine
 62
7
  6
CONTINUOUS
 10
149.6974205802
 20
119.3764840791
 11
149.6778121888
 21
110.8174979568
  0
LINE
  5
38A
100
AcDbEntity
  8
ASSI
100
AcDbLine
 62
253
  6
CONTINUOUS
 10
148.9054215526
 20
76.6728884067
 11
148.9033217721
 21
96.9782772875
  0
LINE
  5
38B
100
AcDbEntity
  8
0
100
AcDbLine
 62
253
  6
CONTINUOUS
 10
148.9054215526
 20
76.6728884067
 11
148.9033217721
 21
96.9782772875
  0
LINE
  5
38C
100
AcDbEntity
  8
ASSI
100
AcDbLine
 62
253
  6
CONTINUOUS
 10
149.363923728
 20
109.0510994353
 11
149.3725267905
 21
118.6708325285
  0
LINE
  5
38D
100
AcDbEntity
  8
0
100
AcDbLine
 62
253
  6
CONTINUOUS
 10
149.363923728
 20
109.0510994353
 11
149.3725267905
 21
118.6708325285
  0
LWPOLYLINE
  5
38E
100
AcDbEntity
  8
ASSI
100
AcDbPolyline
 62
253
  6
CONTINUOUS
 90
3
 70
0
 10
149.784362021
 20
79.3649954918
 10
149.7814659911
 20
76.7641633852
 10
149.7811888031
 20
76.7165881588
  0
LWPOLYLINE
  5
38F
100
AcDbEntity
  8
0
100
AcDbPolyline
 62
253
  6
CONTINUOUS
 90
3
 70
0
 10
149.784362021
 20
79.3649954918
 10
149.7814659911
 20
76.7641633852
 10
149.7811888031
 20
76.7165881588
  0
LWPOLYLINE
  5
390
100
AcDbEntity
  8
ASSI
100
AcDbPolyline
 62
253
  6
CONTINUOUS
 90
4
 70
0
 10
148.9033219791
 20
96.9782772854
 10
148.903546617
 20
97.0312632216
 10
148.9026940651
 20
97.0825113942
 10
148.8995811461
 20
97.1804693583
  0
LWPOLYLINE
  5
391
100
AcDbEntity
  8
0
100
AcDbPolyline
 62
253
  6
CONTINUOUS
 90
4
 70
0
 10
148.9033219791
 20
96.9782772854
 10
148.903546617
 20
97.0312632216
 10
148.9026940651
 20
97.0825113942
 10
148.8995811461
 20
97.1804693583
  0
LINE
  5
392
100
AcDbEntity
  8
ASSI
100
AcDbLine
 62
253
  6
CONTINUOUS
 10
148.9029961924
 20
76.2804219763
 11
148.9054215526
 21
76.6728884067
  0
LINE
  5
393
100
AcDbEntity
  8
0
100
AcDbLine
 62
253
  6
CONTINUOUS
 10
148.9029961924
 20
76.2804219763
 11
148.9054215526
 21
76.6728884067
  0
LINE
  5
394
100
AcDbEntity
  8
ASSI
100
AcDbLine
 62
253
  6
CONTINUOUS
 10
149.3725267905
 20
118.6708325285
 11
149.3736262397
 21
118.8116970663
  0
LINE
  5
395
100
AcDbEntity
  8
0
100
AcDbLine
 62
253
  6
CONTINUOUS
 10
149.3725267905
 20
118.6708325285
 11
149.3736262397
 21
118.8116970663
  0
LINE
  5
396
100
AcDbEntity
  8
ASSI
100
AcDbLine
 62
253
  6
CONTINUOUS
 10
148.9008060301
 20
76.0778953924
 11
148.9029961924
 21
76.2804219763
  0
LINE
  5
397
100
AcDbEntity
  8
0
100
AcDbLine
 62
253
  6
CONTINUOUS
 10
148.9008060301
 20
76.0778953924
 11
148.9029961924
 21
76.2804219763
  0
LINE
  5
398
100
AcDbEntity
  8
ASSI
100
AcDbLine
 62
253
  6
CONTINUOUS
 10
149.3736262397
 20
118.8116970663
 11
149.3747810298
 21
118.8995582558
  0
LINE
  5
399
100
AcDbEntity
  8
0
100
AcDbLine
 62
253
  6
CONTINUOUS
 10
149.3736262397
 20
118.8116970663
 11
149.3747810298
 21
118.8995582558
  0
LINE
  5
39A
100
AcDbEntity
  8
ASSI
100
AcDbLine
 62
253
  6
CONTINUOUS
 10
148.8990945416
 20
75.9623538697
 11
148.9008060301
 21
76.0778953924
  0
LINE
  5
39B
100
AcDbEntity
  8
0
100
AcDbLine
 62
253
  6
CONTINUOUS
 10
148.8990945416
 20
75.9623538697
 11
148.9008060301
 21
76.0778953924
  0
LINE
  5
39C
100
AcDbEntity
  8
ASSI
100
AcDbLine
 62
253
  6
CONTINUOUS
 10
150.2558251977
 20
119.52368167
 11
150.2540105266
 21
119.4170232896
  0
LINE
  5
39D
100
AcDbEntity
  8
0
100
AcDbLine
 62
253
  6
CONTINUOUS
 10
150.2558251977
 20
119.52368167
 11
150.2540105266
 21
119.4170232896
  0
LINE
  5
39E
100
AcDbEntity
  8
ASSI
100
AcDbLine
 62
253
  6
CONTINUOUS
 10
149.3747810298
 20
118.8995582558
 11
149.3762515919
 21
118.9806299442
  0
LINE
  5
39F
100
AcDbEntity
  8
0
100
AcDbLine
 62
253
  6
CONTINUOUS
 10
149.3747810298
 20
118.8995582558
 11
149.3762515919
 21
118.9806299442
  0
LINE
  5
3A0
100
AcDbEntity
  8
ASSI
100
AcDbLine
 62
253
  6
CONTINUOUS
 10
148.8972207262
 20
75.8651088008
 11
148.8990945416
 21
75.9623538697
  0
LINE
  5
3A1
100
AcDbEntity
  8
0
100
AcDbLine
 62
253
  6
CONTINUOUS
 10
148.8972207262
 20
75.8651088008
 11
148.8990945416
 21
75.9623538697
  0
LWPOLYLINE
  5
3A2
100
AcDbEntity
  8
ASSI
100
AcDbPolyline
 62
253
  6
CONTINUOUS
 90
12
 70
0
 10
149.3762515919
 20
118.9806299442
 10
149.3780086742
 20
119.0530517475
 10
149.3789802885
 20
119.0855152825
 10
149.3800103001
 20
119.1152636197
 10
149.3810978534
 20
119.1423384065
 10
149.3822268594
 20
119.1663386678
 10
149.3833985051
 20
119.1872196568
 10
149.3846116036
 20
119.2050261203
 10
149.3858465062
 20
119.2194913231
 10
149.3870966633
 20
119.2305263535
 10
149.3883686244
 20
119.2382201232
 10
149.3896623896
 20
119.2425726323
  0
LWPOLYLINE
  5
3A3
100
AcDbEntity
  8
0
100
AcDbPolyline
 62
253
  6
CONTINUOUS
 90
12
 70
0
 10
149.3762515919
 20
118.9806299442
 10
149.3780086742
 20
119.0530517475
 10
149.3789802885
 20
119.0855152825
 10
149.3800103001
 20
119.1152636197
 10
149.3810978534
 20
119.1423384065
 10
149.3822268594
 20
119.1663386678
 10
149.3833985051
 20
119.1872196568
 10
149.3846116036
 20
119.2050261203
 10
149.3858465062
 20
119.2194913231
 10
149.3870966633
 20
119.2305263535
 10
149.3883686244
 20
119.2382201232
 10
149.3896623896
 20
119.2425726323
  0
LWPOLYLINE
  5
3A4
100
AcDbEntity
  8
ASSI
100
AcDbPolyline
 62
253
  6
CONTINUOUS
 90
4
 70
0
 10
148.9026941099
 20
98.3524808374
 10
148.8995808929
 20
98.2545205354
 10
148.8977798594
 20
98.2078089755
 10
148.8950655442
 20
98.1638386736
  0
LWPOLYLINE
  5
3A5
100
AcDbEntity
  8
0
100
AcDbPolyline
 62
253
  6
CONTINUOUS
 90
4
 70
0
 10
148.9026941099
 20
98.3524808374
 10
148.8995808929
 20
98.2545205354
 10
148.8977798594
 20
98.2078089755
 10
148.8950655442
 20
98.1638386736
  0
LWPOLYLINE
  5
3A6
100
AcDbEntity
  8
ASSI
100
AcDbPolyline
 62
253
  6
CONTINUOUS
 90
16
 70
0
 10
149.3604842467
 20
98.4559603909
 10
149.3577987042
 20
98.4043144031
 10
149.3497585208
 20
98.353050375
 10
149.336396891
 20
98.3027288401
 10
149.3177829516
 20
98.2538565904
 10
149.294081315
 20
98.2070441525
 10
149.2656057146
 20
98.1629720233
 10
149.2327108762
 20
98.1221719894
 10
149.1957270504
 20
98.0850387752
 10
149.1550498112
 20
98.0519729846
 10
149.1111157145
 20
98.0233370766
 10
149.0644125044
 20
97.9994559923
 10
149.0154658014
 20
97.9806010324
 10
148.9648191141
 20
97.9669808099
 10
148.9130256581
 20
97.9587433704
 10
148.8606555842
 20
97.9559794294
  0
LWPOLYLINE
  5
3A7
100
AcDbEntity
  8
0
100
AcDbPolyline
 62
253
  6
CONTINUOUS
 90
16
 70
0
 10
149.3604842467
 20
98.4559603909
 10
149.3577987042
 20
98.4043144031
 10
149.3497585208
 20
98.353050375
 10
149.336396891
 20
98.3027288401
 10
149.3177829516
 20
98.2538565904
 10
149.294081315
 20
98.2070441525
 10
149.2656057146
 20
98.1629720233
 10
149.2327108762
 20
98.1221719894
 10
149.1957270504
 20
98.0850387752
 10
149.1550498112
 20
98.0519729846
 10
149.1111157145
 20
98.0233370766
 10
149.0644125044
 20
97.9994559923
 10
149.0154658014
 20
97.9806010324
 10
148.9648191141
 20
97.9669808099
 10
148.9130256581
 20
97.9587433704
 10
148.8606555842
 20
97.9559794294
  0
LWPOLYLINE
  5
3A8
100
AcDbEntity
  8
ASSI
100
AcDbPolyline
 62
253
  6
CONTINUOUS
 90
16
 70
0
 10
149.7935085349
 20
96.9790355227
 10
149.7961940774
 20
97.0306815105
 10
149.8042342608
 20
97.0819455387
 10
149.8175958906
 20
97.1322670736
 10
149.8362098299
 20
97.1811393233
 10
149.8599114665
 20
97.2279517611
 10
149.888387067
 20
97.2720238903
 10
149.9212819054
 20
97.3128239243
 10
149.9582657311
 20
97.3499571384
 10
149.9989429704
 20
97.383022929
 10
150.0428770671
 20
97.411658837
 10
150.0895802772
 20
97.4355399213
 10
150.1385269801
 20
97.4543948813
 10
150.1891736674
 20
97.4680151038
 10
150.2409671234
 20
97.4762525432
 10
150.2933371974
 20
97.4790164842
  0
LWPOLYLINE
  5
3A9
100
AcDbEntity
  8
0
100
AcDbPolyline
 62
253
  6
CONTINUOUS
 90
16
 70
0
 10
149.7935085349
 20
96.9790355227
 10
149.7961940774
 20
97.0306815105
 10
149.8042342608
 20
97.0819455387
 10
149.8175958906
 20
97.1322670736
 10
149.8362098299
 20
97.1811393233
 10
149.8599114665
 20
97.2279517611
 10
149.888387067
 20
97.2720238903
 10
149.9212819054
 20
97.3128239243
 10
149.9582657311
 20
97.3499571384
 10
149.9989429704
 20
97.383022929
 10
150.0428770671
 20
97.411658837
 10
150.0895802772
 20
97.4355399213
 10
150.1385269801
 20
97.4543948813
 10
150.1891736674
 20
97.4680151038
 10
150.2409671234
 20
97.4762525432
 10
150.2933371974
 20
97.4790164842
  0
LWPOLYLINE
  5
3AA
100
AcDbEntity
  8
ASSI
100
AcDbPolyline
 62
253
  6
CONTINUOUS
 90
9
 70
0
 10
148.8950655442
 20
98.1638386736
 10
148.8892742671
 20
98.0862628572
 10
148.8856351003
 20
98.0531652971
 10
148.8817041111
 20
98.0245240719
 10
148.8780543046
 20
98.0006029395
 10
148.8737818645
 20
97.9815647192
 10
148.8688890933
 20
97.9676667187
 10
148.864351141
 20
97.9591212641
 10
148.8606555846
 20
97.9559794294
  0
LWPOLYLINE
  5
3AB
100
AcDbEntity
  8
0
100
AcDbPolyline
 62
253
  6
CONTINUOUS
 90
9
 70
0
 10
148.8950655442
 20
98.1638386736
 10
148.8892742671
 20
98.0862628572
 10
148.8856351003
 20
98.0531652971
 10
148.8817041111
 20
98.0245240719
 10
148.8780543046
 20
98.0006029395
 10
148.8737818645
 20
97.9815647192
 10
148.8688890933
 20
97.9676667187
 10
148.864351141
 20
97.9591212641
 10
148.8606555846
 20
97.9559794294
  0
LWPOLYLINE
  5
3AC
100
AcDbEntity
  8
0
100
AcDbPolyline
 62
253
  6
CONTINUOUS
 90
79
 70
0
 10
156.5321994408
 20
107.8879432792
 10
156.5229233054
 20
107.8784557771
 10
156.5140973501
 20
107.868663026
 10
156.505709127
 20
107.8585733596
 10
156.4977461885
 20
107.848195112
 10
156.490196087
 20
107.8375366171
 10
156.4830463747
 20
107.8266062088
 10
156.4762877951
 20
107.8154118174
 10
156.469923857
 20
107.8039597591
 10
156.4639612602
 20
107.7922559463
 10
156.4584067046
 20
107.7803062916
 10
156.4532668902
 20
107.7681167073
 10
156.4485485168
 20
107.755693106
 10
156.4442596869
 20
107.743042629
 10
156.4404141138
 20
107.7301773325
 10
156.4370269134
 20
107.7171105015
 10
156.4341143355
 20
107.7038486438
 10
156.4316971663
 20
107.6903711583
 10
156.4297973262
 20
107.6766506667
 10
156.4284382663
 20
107.6626749596
 10
156.4276495621
 20
107.6484925042
 10
156.4274623197
 20
107.6341669364
 10
156.4279040568
 20
107.6197519211
 10
156.4289879373
 20
107.6052612387
 10
156.4307235364
 20
107.5906986982
 10
156.4331170754
 20
107.5760769095
 10
156.4361613593
 20
107.5614436865
 10
156.4398458396
 20
107.5468556438
 10
156.4441599672
 20
107.5323693961
 10
156.4490931935
 20
107.5180415579
 10
156.4546349696
 20
107.503928744
 10
156.4607723737
 20
107.4900830976
 10
156.4674829913
 20
107.4765388768
 10
156.4747420351
 20
107.4633258684
 10
156.4825247175
 20
107.4504738589
 10
156.4908062512
 20
107.4380126352
 10
156.4995618488
 20
107.4259719838
 10
156.5087720445
 20
107.414376309
 10
156.5184386601
 20
107.4032284843
 10
156.5285688391
 20
107.3925260008
 10
156.5391697249
 20
107.3822663495
 10
156.5502484612
 20
107.3724470213
 10
156.5618121913
 20
107.3630655074
 10
156.5738594529
 20
107.3541249562
 10
156.5863543607
 20
107.345651146
 10
156.5992524233
 20
107.3376755127
 10
156.6125091493
 20
107.3302294919
 10
156.6260800477
 20
107.3233445196
 10
156.6399206269
 20
107.3170520314
 10
156.6539850153
 20
107.3113787326
 10
156.6682218189
 20
107.3063324066
 10
156.6825782632
 20
107.301916106
 10
156.6970015738
 20
107.2981328835
 10
156.7114389761
 20
107.2949857919
 10
156.7258376957
 20
107.2924778839
 10
156.7401544563
 20
107.2906097149
 10
156.7543839742
 20
107.2893718512
 10
156.7685304639
 20
107.2887523617
 10
156.7825893181
 20
107.2887368511
 10
156.796520643
 20
107.2893010673
 10
156.8102757228
 20
107.2904182936
 10
156.8238173736
 20
107.2920629749
 10
156.8371545383
 20
107.2942142017
 10
156.8503076917
 20
107.2968522258
 10
156.8632930864
 20
107.2999592279
 10
156.8761100865
 20
107.3035251035
 10
156.8887538339
 20
107.3075416773
 10
156.9012181675
 20
107.3120010114
 10
156.9134917135
 20
107.3168961182
 10
156.925561795
 20
107.322220248
 10
156.9374157352
 20
107.3279666507
 10
156.9490408571
 20
107.3341285767
 10
156.9604244839
 20
107.3406992759
 10
156.9715547762
 20
107.3476755329
 10
156.9824232455
 20
107.3550682692
 10
156.9930222407
 20
107.3628919406
 10
157.0033441107
 20
107.3711610029
 10
157.0133812046
 20
107.3798899121
 10
157.0231258713
 20
107.3890931239
  0
LWPOLYLINE
  5
3AD
100
AcDbEntity
  8
0
100
AcDbPolyline
 62
253
  6
CONTINUOUS
 90
16
 70
0
 10
157.0231258713
 20
107.3890931239
 10
157.246064836
 20
107.6062801903
 10
157.4711664196
 20
107.8209509118
 10
157.6984427464
 20
108.0331260174
 10
157.9279059404
 20
108.2428262364
 10
158.1595681258
 20
108.4500722976
 10
158.3934302206
 20
108.654874037
 10
158.6294483181
 20
108.8571977171
 10
158.8675673053
 20
109.0569987073
 10
159.1077320694
 20
109.2542323769
 10
159.3498874975
 20
109.4488540952
 10
159.5939911522
 20
109.6408283912
 10
159.8400512984
 20
109.830156433
 10
160.0880888764
 20
110.0168485484
 10
160.3381248268
 20
110.2009150651
 10
160.5901800899
 20
110.3823663109
  0
LINE
  5
3AE
100
AcDbEntity
  8
ASSI
100
AcDbLine
 62
253
  6
CONTINUOUS
 10
149.6778121888
 20
98.4174027746
 11
149.7935085324
 21
98.4559603901
  0
LINE
  5
3AF
100
AcDbEntity
  8
0
100
AcDbLine
 62
253
  6
CONTINUOUS
 10
149.6778121888
 20
98.4174027746
 11
149.7935085324
 21
98.4559603901
  0
LINE
  5
3B0
100
AcDbEntity
  8
ASSI
100
AcDbLine
 62
253
  6
CONTINUOUS
 10
148.9761234527
 20
97.5174979568
 11
148.8606555867
 21
97.4790164851
  0
LINE
  5
3B1
100
AcDbEntity
  8
0
100
AcDbLine
 62
253
  6
CONTINUOUS
 10
148.9761234527
 20
97.5174979568
 11
148.8606555867
 21
97.4790164851
  0
LINE
  5
3B2
100
AcDbEntity
  8
ASSI
100
AcDbLine
 62
253
  6
CONTINUOUS
 10
150.1778693289
 20
97.9174979568
 11
150.2933371949
 21
97.9559794285
  0
LINE
  5
3B3
100
AcDbEntity
  8
0
100
AcDbLine
 62
253
  6
CONTINUOUS
 10
150.1778693289
 20
97.9174979568
 11
150.2933371949
 21
97.9559794285
  0
LWPOLYLINE
  5
3B4
100
AcDbEntity
  8
SUPERFICI
100
AcDbPolyline
 62
7
  6
CONTINUOUS
 90
43
 70
0
 10
136.1580310971
 20
94.1967040182
 10
136.0904031529
 20
94.1896203003
 10
136.023635224
 20
94.1778720537
 10
135.9573816856
 20
94.1613642671
 10
135.8919881572
 20
94.1401919711
 10
135.8284914815
 20
94.1146402342
 10
135.7669176402
 20
94.0846168218
 10
135.7072405983
 20
94.0502139891
 10
135.6504191354
 20
94.0119935336
 10
135.5965673184
 20
93.9699642753
 10
135.5455709903
 20
93.9241174116
 10
135.4980465678
 20
93.874988299
 10
135.4539583845
 20
93.8224220585
 10
135.4133420067
 20
93.766573584
 10
135.376920683
 20
93.7084428804
 10
135.3448337584
 20
93.6481406541
 10
135.3169417886
 20
93.5855562022
 10
135.2935498327
 20
93.5213574055
 10
135.2746703879
 20
93.4553474425
 10
135.2602908888
 20
93.3877231344
 10
135.250678807
 20
93.3197428156
 10
135.2459247482
 20
93.2515837915
 10
135.2459380815
 20
93.183068744
 10
135.2507144345
 20
93.1149240615
 10
135.2603373074
 20
93.0469854162
 10
135.2747232253
 20
92.9794171224
 10
135.2936173645
 20
92.9134385233
 10
135.3170470845
 20
92.8492134525
 10
135.3449850943
 20
92.7865780567
 10
135.3770946005
 20
92.726260141
 10
135.4134874926
 20
92.6681918636
 10
135.4540519797
 20
92.6124410499
 10
135.4981157426
 20
92.5599390005
 10
135.5456819173
 20
92.5107982058
 10
135.5967474691
 20
92.4649061606
 10
135.6506308049
 20
92.4228566686
 10
135.7074024992
 20
92.3846744548
 10
135.7669920658
 20
92.3503347859
 10
135.8285062933
 20
92.3203572755
 10
135.8919890111
 20
92.294815195
 10
135.9573964442
 20
92.2736352711
 10
136.0237039386
 20
92.2571172978
 10
136.090569938
 20
92.2453612066
  0
LINE
  5
3B5
100
AcDbEntity
  8
ASSI
100
AcDbLine
 62
7
  6
CONTINUOUS
 10
168.9269963908
 20
97.4913173534
 11
169.1894623814
 21
97.5174979568
  0
LINE
  5
3B6
100
AcDbEntity
  8
0
100
AcDbLine
 62
7
  6
CONTINUOUS
 10
168.9269963908
 20
97.4913173534
 11
169.1894623814
 21
97.5174979568
  0
LINE
  5
3B7
100
AcDbEntity
  8
ASSI
100
AcDbLine
 62
7
  6
CONTINUOUS
 10
152.4269963908
 20
97.9436785602
 11
152.1645304002
 21
97.9174979568
  0
LINE
  5
3B8
100
AcDbEntity
  8
0
100
AcDbLine
 62
7
  6
CONTINUOUS
 10
152.4269963908
 20
97.9436785602
 11
152.1645304002
 21
97.9174979568
  0
LINE
  5
3B9
100
AcDbEntity
  8
ASSI
100
AcDbLine
 62
7
  6
CONTINUOUS
 10
146.7269963908
 20
97.4913173534
 11
146.9894623814
 21
97.5174979568
  0
LINE
  5
3BA
100
AcDbEntity
  8
0
100
AcDbLine
 62
7
  6
CONTINUOUS
 10
146.7269963908
 20
97.4913173534
 11
146.9894623814
 21
97.5174979568
  0
LINE
  5
3BB
100
AcDbEntity
  8
ASSI
100
AcDbLine
 62
253
  6
CONTINUOUS
 10
171.5604842492
 20
96.9790355236
 11
171.556849922
 21
96.9789614182
  0
LINE
  5
3BC
100
AcDbEntity
  8
0
100
AcDbLine
 62
253
  6
CONTINUOUS
 10
171.5604842492
 20
96.9790355236
 11
171.556849922
 21
96.9789614182
  0
LINE
  5
3BD
100
AcDbEntity
  8
ASSI
100
AcDbLine
 62
253
  6
CONTINUOUS
 10
149.3604842492
 20
96.9790355236
 11
149.356849922
 21
96.9789614182
  0
LINE
  5
3BE
100
AcDbEntity
  8
0
100
AcDbLine
 62
253
  6
CONTINUOUS
 10
149.3604842492
 20
96.9790355236
 11
149.356849922
 21
96.9789614182
  0
LINE
  5
3BF
100
AcDbEntity
  8
ASSI
100
AcDbLine
 62
253
  6
CONTINUOUS
 10
171.556849922
 20
96.9789614182
 11
171.5355844484
 21
96.9788160035
  0
LINE
  5
3C0
100
AcDbEntity
  8
0
100
AcDbLine
 62
253
  6
CONTINUOUS
 10
171.556849922
 20
96.9789614182
 11
171.5355844484
 21
96.9788160035
  0
LINE
  5
3C1
100
AcDbEntity
  8
ASSI
100
AcDbLine
 62
253
  6
CONTINUOUS
 10
149.356849922
 20
96.9789614182
 11
149.3355844484
 21
96.9788160035
  0
LINE
  5
3C2
100
AcDbEntity
  8
0
100
AcDbLine
 62
253
  6
CONTINUOUS
 10
149.356849922
 20
96.9789614182
 11
149.3355844484
 21
96.9788160035
  0
LINE
  5
3C3
100
AcDbEntity
  8
ASSI
100
AcDbLine
 62
253
  6
CONTINUOUS
 10
171.0606555867
 20
97.4790164851
 11
164.1397020251
 21
97.4755710638
  0
LINE
  5
3C4
100
AcDbEntity
  8
0
100
AcDbLine
 62
253
  6
CONTINUOUS
 10
171.0606555867
 20
97.4790164851
 11
164.1397020251
 21
97.4755710638
  0
LINE
  5
3C5
100
AcDbEntity
  8
ASSI
100
AcDbLine
 62
253
  6
CONTINUOUS
 10
148.8606555867
 20
97.4790164851
 11
141.9397020251
 21
97.4755710638
  0
LINE
  5
3C6
100
AcDbEntity
  8
0
100
AcDbLine
 62
253
  6
CONTINUOUS
 10
148.8606555867
 20
97.4790164851
 11
141.9397020251
 21
97.4755710638
  0
LINE
  5
3C7
100
AcDbEntity
  8
ASSI
100
AcDbLine
 62
253
  6
CONTINUOUS
 10
150.2933371949
 20
97.9559794285
 11
157.2142907565
 21
97.9594248498
  0
LINE
  5
3C8
100
AcDbEntity
  8
0
100
AcDbLine
 62
253
  6
CONTINUOUS
 10
150.2933371949
 20
97.9559794285
 11
157.2142907565
 21
97.9594248498
  0
LINE
  5
3C9
100
AcDbEntity
  8
ASSI
100
AcDbLine
 62
253
  6
CONTINUOUS
 10
128.0933371949
 20
97.9559794285
 11
135.0142907565
 21
97.9594248498
  0
LINE
  5
3CA
100
AcDbEntity
  8
0
100
AcDbLine
 62
253
  6
CONTINUOUS
 10
128.0933371949
 20
97.9559794285
 11
135.0142907565
 21
97.9594248498
  0
LINE
  5
3CB
100
AcDbEntity
  8
ASSI
100
AcDbLine
 62
253
  6
CONTINUOUS
 10
171.5355844484
 20
96.9788160035
 11
164.1539273168
 21
96.9746801331
  0
LINE
  5
3CC
100
AcDbEntity
  8
0
100
AcDbLine
 62
253
  6
CONTINUOUS
 10
171.5355844484
 20
96.9788160035
 11
164.1539273168
 21
96.9746801331
  0
LINE
  5
3CD
100
AcDbEntity
  8
ASSI
100
AcDbLine
 62
253
  6
CONTINUOUS
 10
149.3355844484
 20
96.9788160035
 11
141.9539273168
 21
96.9746801331
  0
LINE
  5
3CE
100
AcDbEntity
  8
0
100
AcDbLine
 62
253
  6
CONTINUOUS
 10
149.3355844484
 20
96.9788160035
 11
141.9539273168
 21
96.9746801331
  0
LINE
  5
3CF
100
AcDbEntity
  8
ASSI
100
AcDbLine
 62
7
  6
CONTINUOUS
 10
168.9269963908
 20
97.4913173534
 11
152.4269963908
 21
97.4913173534
  0
LINE
  5
3D0
100
AcDbEntity
  8
0
100
AcDbLine
 62
7
  6
CONTINUOUS
 10
168.9269963908
 20
97.4913173534
 11
152.4269963908
 21
97.4913173534
  0
LINE
  5
3D1
100
AcDbEntity
  8
ASSI
100
AcDbLine
 62
7
  6
CONTINUOUS
 10
146.7269963908
 20
97.4913173534
 11
130.2269963908
 21
97.4913173534
  0
LINE
  5
3D2
100
AcDbEntity
  8
0
100
AcDbLine
 62
7
  6
CONTINUOUS
 10
146.7269963908
 20
97.4913173534
 11
130.2269963908
 21
97.4913173534
  0
LINE
  5
3D3
100
AcDbEntity
  8
ASSI
100
AcDbLine
 62
7
  6
CONTINUOUS
 10
127.9778693289
 20
97.5174979568
 11
129.9645304002
 21
97.5174979568
  0
LINE
  5
3D4
100
AcDbEntity
  8
0
100
AcDbLine
 62
7
  6
CONTINUOUS
 10
127.9778693289
 20
97.5174979568
 11
129.9645304002
 21
97.5174979568
  0
LINE
  5
3D5
100
AcDbEntity
  8
ASSI
100
AcDbLine
 62
7
  6
CONTINUOUS
 10
146.9894623814
 20
97.5174979568
 11
148.9761234527
 21
97.5174979568
  0
LINE
  5
3D6
100
AcDbEntity
  8
0
100
AcDbLine
 62
7
  6
CONTINUOUS
 10
146.9894623814
 20
97.5174979568
 11
148.9761234527
 21
97.5174979568
  0
LINE
  5
3D7
100
AcDbEntity
  8
ASSI
100
AcDbLine
 62
7
  6
CONTINUOUS
 10
150.1778693289
 20
97.5174979568
 11
152.1645304002
 21
97.5174979568
  0
LINE
  5
3D8
100
AcDbEntity
  8
0
100
AcDbLine
 62
7
  6
CONTINUOUS
 10
150.1778693289
 20
97.5174979568
 11
152.1645304002
 21
97.5174979568
  0
LINE
  5
3D9
100
AcDbEntity
  8
ASSI
100
AcDbLine
 62
7
  6
CONTINUOUS
 10
169.1894623814
 20
97.5174979568
 11
171.1761234527
 21
97.5174979568
  0
LINE
  5
3DA
100
AcDbEntity
  8
0
100
AcDbLine
 62
7
  6
CONTINUOUS
 10
169.1894623814
 20
97.5174979568
 11
171.1761234527
 21
97.5174979568
  0
LINE
  5
3DB
100
AcDbEntity
  8
ASSI
100
AcDbLine
 62
7
  6
CONTINUOUS
 10
171.1761234527
 20
97.9174979568
 11
169.1894623814
 21
97.9174979568
  0
LINE
  5
3DC
100
AcDbEntity
  8
0
100
AcDbLine
 62
7
  6
CONTINUOUS
 10
171.1761234527
 20
97.9174979568
 11
169.1894623814
 21
97.9174979568
  0
LINE
  5
3DD
100
AcDbEntity
  8
ASSI
100
AcDbLine
 62
7
  6
CONTINUOUS
 10
152.1645304002
 20
97.9174979568
 11
150.1778693289
 21
97.9174979568
  0
LINE
  5
3DE
100
AcDbEntity
  8
0
100
AcDbLine
 62
7
  6
CONTINUOUS
 10
152.1645304002
 20
97.9174979568
 11
150.1778693289
 21
97.9174979568
  0
LINE
  5
3DF
100
AcDbEntity
  8
ASSI
100
AcDbLine
 62
7
  6
CONTINUOUS
 10
148.9761234527
 20
97.9174979568
 11
146.9894623814
 21
97.9174979568
  0
LINE
  5
3E0
100
AcDbEntity
  8
0
100
AcDbLine
 62
7
  6
CONTINUOUS
 10
148.9761234527
 20
97.9174979568
 11
146.9894623814
 21
97.9174979568
  0
LINE
  5
3E1
100
AcDbEntity
  8
ASSI
100
AcDbLine
 62
7
  6
CONTINUOUS
 10
129.9645304002
 20
97.9174979568
 11
127.9778693289
 21
97.9174979568
  0
LINE
  5
3E2
100
AcDbEntity
  8
0
100
AcDbLine
 62
7
  6
CONTINUOUS
 10
129.9645304002
 20
97.9174979568
 11
127.9778693289
 21
97.9174979568
  0
LINE
  5
3E3
100
AcDbEntity
  8
ASSI
100
AcDbLine
 62
7
  6
CONTINUOUS
 10
130.2269963908
 20
97.9436785602
 11
146.7269963908
 21
97.9436785602
  0
LINE
  5
3E4
100
AcDbEntity
  8
0
100
AcDbLine
 62
7
  6
CONTINUOUS
 10
130.2269963908
 20
97.9436785602
 11
146.7269963908
 21
97.9436785602
  0
LINE
  5
3E5
100
AcDbEntity
  8
ASSI
100
AcDbLine
 62
7
  6
CONTINUOUS
 10
152.4269963908
 20
97.9436785602
 11
168.9269963908
 21
97.9436785602
  0
LINE
  5
3E6
100
AcDbEntity
  8
0
100
AcDbLine
 62
7
  6
CONTINUOUS
 10
152.4269963908
 20
97.9436785602
 11
168.9269963908
 21
97.9436785602
  0
LINE
  5
3E7
100
AcDbEntity
  8
ASSI
100
AcDbLine
 62
253
  6
CONTINUOUS
 10
141.9539273168
 20
96.9746801331
 11
135.0000686094
 21
96.9746801323
  0
LINE
  5
3E8
100
AcDbEntity
  8
0
100
AcDbLine
 62
253
  6
CONTINUOUS
 10
141.9539273168
 20
96.9746801331
 11
135.0000686094
 21
96.9746801323
  0
LINE
  5
3E9
100
AcDbEntity
  8
ASSI
100
AcDbLine
 62
253
  6
CONTINUOUS
 10
164.1539273168
 20
96.9746801331
 11
157.2000686094
 21
96.9746801323
  0
LINE
  5
3EA
100
AcDbEntity
  8
0
100
AcDbLine
 62
253
  6
CONTINUOUS
 10
164.1539273168
 20
96.9746801331
 11
157.2000686094
 21
96.9746801323
  0
LINE
  5
3EB
100
AcDbEntity
  8
ASSI
100
AcDbLine
 62
253
  6
CONTINUOUS
 10
141.9397020251
 20
97.4755710638
 11
135.0142881619
 21
97.4755710644
  0
LINE
  5
3EC
100
AcDbEntity
  8
0
100
AcDbLine
 62
253
  6
CONTINUOUS
 10
141.9397020251
 20
97.4755710638
 11
135.0142881619
 21
97.4755710644
  0
LINE
  5
3ED
100
AcDbEntity
  8
ASSI
100
AcDbLine
 62
253
  6
CONTINUOUS
 10
164.1397020251
 20
97.4755710638
 11
157.2142881619
 21
97.4755710644
  0
LINE
  5
3EE
100
AcDbEntity
  8
0
100
AcDbLine
 62
253
  6
CONTINUOUS
 10
164.1397020251
 20
97.4755710638
 11
157.2142881619
 21
97.4755710644
  0
LINE
  5
3EF
100
AcDbEntity
  8
ASSI
100
AcDbLine
 62
253
  6
CONTINUOUS
 10
135.0142907565
 20
97.9594248498
 11
141.9397046197
 21
97.9594248492
  0
LINE
  5
3F0
100
AcDbEntity
  8
0
100
AcDbLine
 62
253
  6
CONTINUOUS
 10
135.0142907565
 20
97.9594248498
 11
141.9397046197
 21
97.9594248492
  0
LINE
  5
3F1
100
AcDbEntity
  8
ASSI
100
AcDbLine
 62
253
  6
CONTINUOUS
 10
157.2142907565
 20
97.9594248498
 11
164.1397046197
 21
97.9594248492
  0
LINE
  5
3F2
100
AcDbEntity
  8
0
100
AcDbLine
 62
253
  6
CONTINUOUS
 10
157.2142907565
 20
97.9594248498
 11
164.1397046197
 21
97.9594248492
  0
LINE
  5
3F3
100
AcDbEntity
  8
ASSI
100
AcDbLine
 62
253
  6
CONTINUOUS
 10
157.2000686094
 20
96.9746801323
 11
150.0648675662
 21
96.9783662209
  0
LINE
  5
3F4
100
AcDbEntity
  8
0
100
AcDbLine
 62
253
  6
CONTINUOUS
 10
157.2000686094
 20
96.9746801323
 11
150.0648675662
 21
96.9783662209
  0
LINE
  5
3F5
100
AcDbEntity
  8
ASSI
100
AcDbLine
 62
253
  6
CONTINUOUS
 10
135.0142881619
 20
97.4755710644
 11
128.0933371961
 21
97.4790164847
  0
LINE
  5
3F6
100
AcDbEntity
  8
0
100
AcDbLine
 62
253
  6
CONTINUOUS
 10
135.0142881619
 20
97.4755710644
 11
128.0933371961
 21
97.4790164847
  0
LINE
  5
3F7
100
AcDbEntity
  8
ASSI
100
AcDbLine
 62
253
  6
CONTINUOUS
 10
157.2142881619
 20
97.4755710644
 11
150.2933371961
 21
97.4790164847
  0
LINE
  5
3F8
100
AcDbEntity
  8
0
100
AcDbLine
 62
253
  6
CONTINUOUS
 10
157.2142881619
 20
97.4755710644
 11
150.2933371961
 21
97.4790164847
  0
LINE
  5
3F9
100
AcDbEntity
  8
ASSI
100
AcDbLine
 62
253
  6
CONTINUOUS
 10
141.9397046197
 20
97.9594248492
 11
148.8606555854
 21
97.955979429
  0
LINE
  5
3FA
100
AcDbEntity
  8
0
100
AcDbLine
 62
253
  6
CONTINUOUS
 10
141.9397046197
 20
97.9594248492
 11
148.8606555854
 21
97.955979429
  0
LINE
  5
3FB
100
AcDbEntity
  8
ASSI
100
AcDbLine
 62
253
  6
CONTINUOUS
 10
164.1397046197
 20
97.9594248492
 11
171.0606555854
 21
97.955979429
  0
LINE
  5
3FC
100
AcDbEntity
  8
0
100
AcDbLine
 62
253
  6
CONTINUOUS
 10
164.1397046197
 20
97.9594248492
 11
171.0606555854
 21
97.955979429
  0
LINE
  5
3FD
100
AcDbEntity
  8
ASSI
100
AcDbLine
 62
253
  6
CONTINUOUS
 10
135.0000686094
 20
96.9746801323
 11
127.6184083354
 21
96.9788160077
  0
LINE
  5
3FE
100
AcDbEntity
  8
0
100
AcDbLine
 62
253
  6
CONTINUOUS
 10
135.0000686094
 20
96.9746801323
 11
127.6184083354
 21
96.9788160077
  0
LINE
  5
3FF
100
AcDbEntity
  8
ASSI
100
AcDbLine
 62
253
  6
CONTINUOUS
 10
150.0648675662
 20
96.9783662209
 11
149.8184083354
 21
96.9788160077
  0
LINE
  5
400
100
AcDbEntity
  8
0
100
AcDbLine
 62
253
  6
CONTINUOUS
 10
150.0648675662
 20
96.9783662209
 11
149.8184083354
 21
96.9788160077
  0
LWPOLYLINE
  5
401
100
AcDbEntity
  8
ASSI
100
AcDbPolyline
 62
253
  6
CONTINUOUS
 90
3
 70
0
 10
127.6184083354
 20
96.9788160077
 10
127.597142862
 20
96.978961419
 10
127.5935085348
 20
96.9790355227
  0
LWPOLYLINE
  5
402
100
AcDbEntity
  8
0
100
AcDbPolyline
 62
253
  6
CONTINUOUS
 90
3
 70
0
 10
127.6184083354
 20
96.9788160077
 10
127.597142862
 20
96.978961419
 10
127.5935085348
 20
96.9790355227
  0
LWPOLYLINE
  5
403
100
AcDbEntity
  8
ASSI
100
AcDbPolyline
 62
253
  6
CONTINUOUS
 90
3
 70
0
 10
149.8184083354
 20
96.9788160077
 10
149.797142862
 20
96.978961419
 10
149.7935085348
 20
96.9790355227
  0
LWPOLYLINE
  5
404
100
AcDbEntity
  8
0
100
AcDbPolyline
 62
253
  6
CONTINUOUS
 90
3
 70
0
 10
149.8184083354
 20
96.9788160077
 10
149.797142862
 20
96.978961419
 10
149.7935085348
 20
96.9790355227
  0
LINE
  5
405
100
AcDbEntity
  8
ASSI
100
AcDbLine
 62
7
  6
CONTINUOUS
 10
130.2269963908
 20
97.4913173534
 11
129.9645304002
 21
97.5174979568
  0
LINE
  5
406
100
AcDbEntity
  8
0
100
AcDbLine
 62
7
  6
CONTINUOUS
 10
130.2269963908
 20
97.4913173534
 11
129.9645304002
 21
97.5174979568
  0
LINE
  5
407
100
AcDbEntity
  8
ASSI
100
AcDbLine
 62
7
  6
CONTINUOUS
 10
146.7269963908
 20
97.9436785602
 11
146.9894623814
 21
97.9174979568
  0
LINE
  5
408
100
AcDbEntity
  8
0
100
AcDbLine
 62
7
  6
CONTINUOUS
 10
146.7269963908
 20
97.9436785602
 11
146.9894623814
 21
97.9174979568
  0
LINE
  5
409
100
AcDbEntity
  8
ASSI
100
AcDbLine
 62
7
  6
CONTINUOUS
 10
152.4269963908
 20
97.4913173534
 11
152.1645304002
 21
97.5174979568
  0
LINE
  5
40A
100
AcDbEntity
  8
0
100
AcDbLine
 62
7
  6
CONTINUOUS
 10
152.4269963908
 20
97.4913173534
 11
152.1645304002
 21
97.5174979568
  0
LWPOLYLINE
  5
40B
100
AcDbEntity
  8
SUPERFICI
100
AcDbPolyline
 62
7
  6
CONTINUOUS
 90
3
 70
0
 10
163.0635878094
 20
94.1896226493
 10
162.9959575809
 20
94.1967068308
 10
162.9274738297
 20
94.1991232007
  0
LINE
  5
40C
100
AcDbEntity
  8
ASSI
100
AcDbLine
 62
253
  6
CONTINUOUS
 10
149.7935085349
 20
96.9790355227
 11
149.6778121888
 21
97.017593139
  0
LINE
  5
40D
100
AcDbEntity
  8
0
100
AcDbLine
 62
253
  6
CONTINUOUS
 10
149.7935085349
 20
96.9790355227
 11
149.6778121888
 21
97.017593139
  0
LINE
  5
40E
100
AcDbEntity
  8
ASSI
100
AcDbLine
 62
253
  6
CONTINUOUS
 10
148.8606555854
 20
97.955979429
 11
148.9761234527
 21
97.9174979568
  0
LINE
  5
40F
100
AcDbEntity
  8
0
100
AcDbLine
 62
253
  6
CONTINUOUS
 10
148.8606555854
 20
97.955979429
 11
148.9761234527
 21
97.9174979568
  0
LINE
  5
410
100
AcDbEntity
  8
ASSI
100
AcDbLine
 62
253
  6
CONTINUOUS
 10
150.2933371961
 20
97.4790164847
 11
150.1778693289
 21
97.5174979568
  0
LINE
  5
411
100
AcDbEntity
  8
0
100
AcDbLine
 62
253
  6
CONTINUOUS
 10
150.2933371961
 20
97.4790164847
 11
150.1778693289
 21
97.5174979568
  0
LWPOLYLINE
  5
412
100
AcDbEntity
  8
0
100
AcDbPolyline
 62
253
  6
CONTINUOUS
 90
79
 70
0
 10
157.0227810363
 20
88.0459027898
 10
157.0131226913
 20
88.0549837846
 10
157.0031703376
 20
88.0636136652
 10
156.9929317924
 20
88.0718046844
 10
156.9824148733
 20
88.0795690948
 10
156.9716273978
 20
88.086919149
 10
156.9605771834
 20
88.0938670996
 10
156.9492717033
 20
88.1004220496
 10
156.9377170543
 20
88.1065805034
 10
156.9259189886
 20
88.1123358155
 10
156.913883259
 20
88.1176813405
 10
156.9016156177
 20
88.122610433
 10
156.8891218172
 20
88.1271164476
 10
156.8764088829
 20
88.1311913551
 10
156.8634889312
 20
88.1348215908
 10
156.8503753515
 20
88.1379922063
 10
156.8370747668
 20
88.1406870327
 10
156.8235667356
 20
88.1428850203
 10
156.8098240498
 20
88.1445638991
 10
156.7958346858
 20
88.1457001115
 10
156.7816473561
 20
88.1462649491
 10
156.7673259578
 20
88.1462284157
 10
156.7529244213
 20
88.1455639229
 10
156.7384568128
 20
88.1442585113
 10
156.7239272323
 20
88.1423026292
 10
156.7093484862
 20
88.1396901719
 10
156.6947682073
 20
88.1364288229
 10
156.6802427347
 20
88.1325297129
 10
156.6658284077
 20
88.1280039726
 10
156.6515815656
 20
88.1228627325
 10
156.6375585475
 20
88.1171171235
 10
156.6238112382
 20
88.1107805526
 10
156.6103737038
 20
88.1038755335
 10
156.5972755559
 20
88.0964268564
 10
156.584546406
 20
88.0884593115
 10
156.5722158658
 20
88.079997689
 10
156.5603135469
 20
88.0710667791
 10
156.5488637635
 20
88.0616860896
 10
156.5378696409
 20
88.051853999
 10
156.5273290072
 20
88.0415636033
 10
156.5172396903
 20
88.0308079987
 10
156.5075995183
 20
88.0195802812
 10
156.4984063192
 20
88.0078735469
 10
156.4896633414
 20
87.9956895594
 10
156.4813955151
 20
87.9830647523
 10
156.4736331908
 20
87.9700442266
 10
156.4664067191
 20
87.9566730832
 10
156.4597464506
 20
87.9429964233
 10
156.453682736
 20
87.9290593478
 10
156.4482412032
 20
87.9149082544
 10
156.4434285903
 20
87.9005947262
 10
156.4392469129
 20
87.8861716431
 10
156.4356981866
 20
87.871691885
 10
156.432784427
 20
87.8572083317
 10
156.4305076496
 20
87.8427738629
 10
156.4288675329
 20
87.8284318035
 10
156.4278544063
 20
87.8141872586
 10
156.4274562624
 20
87.8000357782
 10
156.4276585464
 20
87.7859816829
 10
156.4284365149
 20
87.7720643749
 10
156.4297628775
 20
87.7583320269
 10
156.4316116827
 20
87.7448213114
 10
156.4339623367
 20
87.7315229003
 10
156.4367955844
 20
87.7184159651
 10
156.4400940331
 20
87.7054839125
 10
156.4438477376
 20
87.6927270898
 10
156.4480486148
 20
87.6801500793
 10
156.4526887852
 20
87.6677587966
 10
156.457761185
 20
87.6555644918
 10
156.4632589544
 20
87.643579748
 10
156.4691752334
 20
87.6318171486
 10
156.4755031621
 20
87.620289277
 10
156.4822358806
 20
87.6090087164
 10
156.4893700542
 20
87.5979872588
 10
156.4969164498
 20
87.5872335313
 10
156.5048893597
 20
87.5767553695
 10
156.5133030758
 20
87.566560609
 10
156.5221718905
 20
87.5566570854
 10
156.531510096
 20
87.5470526344
  0
LWPOLYLINE
  5
413
100
AcDbEntity
  8
ASSI
100
AcDbPolyline
 62
253
  6
CONTINUOUS
 90
8
 70
0
 10
150.2647179352
 20
98.0862688161
 10
150.2683570925
 20
98.0531703277
 10
150.2722880594
 20
98.0245279867
 10
150.2759379278
 20
98.0006056738
 10
150.280210488
 20
97.9815663811
 10
150.2851034063
 20
97.9676675197
 10
150.2896415144
 20
97.9591214844
 10
150.2933371949
 20
97.9559794285
  0
LWPOLYLINE
  5
414
100
AcDbEntity
  8
0
100
AcDbPolyline
 62
253
  6
CONTINUOUS
 90
8
 70
0
 10
150.2647179352
 20
98.0862688161
 10
150.2683570925
 20
98.0531703277
 10
150.2722880594
 20
98.0245279867
 10
150.2759379278
 20
98.0006056738
 10
150.280210488
 20
97.9815663811
 10
150.2851034063
 20
97.9676675197
 10
150.2896415144
 20
97.9591214844
 10
150.2933371949
 20
97.9559794285
  0
LWPOLYLINE
  5
415
100
AcDbEntity
  8
ASSI
100
AcDbPolyline
 62
253
  6
CONTINUOUS
 90
4
 70
0
 10
150.2544116355
 20
98.2545265553
 10
150.2562126296
 20
98.2078156548
 10
150.258926807
 20
98.1638455702
 10
150.2647179352
 20
98.0862688161
  0
LWPOLYLINE
  5
416
100
AcDbEntity
  8
0
100
AcDbPolyline
 62
253
  6
CONTINUOUS
 90
4
 70
0
 10
150.2544116355
 20
98.2545265553
 10
150.2562126296
 20
98.2078156548
 10
150.258926807
 20
98.1638455702
 10
150.2647179352
 20
98.0862688161
  0
LINE
  5
417
100
AcDbEntity
  8
ASSI
100
AcDbLine
 62
253
  6
CONTINUOUS
 10
149.7750124937
 20
119.0855152806
 11
149.7768981807
 21
119.01791466
  0
LINE
  5
418
100
AcDbEntity
  8
0
100
AcDbLine
 62
253
  6
CONTINUOUS
 10
149.7750124937
 20
119.0855152806
 11
149.7768981807
 21
119.01791466
  0
LINE
  5
419
100
AcDbEntity
  8
ASSI
100
AcDbLine
 62
253
  6
CONTINUOUS
 10
149.7768981807
 20
119.01791466
 11
149.7785120029
 21
118.9411679141
  0
LINE
  5
41A
100
AcDbEntity
  8
0
100
AcDbLine
 62
253
  6
CONTINUOUS
 10
149.7768981807
 20
119.01791466
 11
149.7785120029
 21
118.9411679141
  0
LINE
  5
41B
100
AcDbEntity
  8
ASSI
100
AcDbLine
 62
253
  6
CONTINUOUS
 10
149.7785120029
 20
118.9411679141
 11
149.7798303192
 21
118.8564159123
  0
LINE
  5
41C
100
AcDbEntity
  8
0
100
AcDbLine
 62
253
  6
CONTINUOUS
 10
149.7785120029
 20
118.9411679141
 11
149.7798303192
 21
118.8564159123
  0
LINE
  5
41D
100
AcDbEntity
  8
ASSI
100
AcDbLine
 62
253
  6
CONTINUOUS
 10
150.2516617988
 20
76.209445814
 11
150.2540105256
 21
76.0179726213
  0
LINE
  5
41E
100
AcDbEntity
  8
0
100
AcDbLine
 62
253
  6
CONTINUOUS
 10
150.2516617988
 20
76.209445814
 11
150.2540105256
 21
76.0179726213
  0
LINE
  5
41F
100
AcDbEntity
  8
ASSI
100
AcDbLine
 62
253
  6
CONTINUOUS
 10
149.7798303192
 20
118.8564159123
 11
149.7811888038
 21
118.7184077529
  0
LINE
  5
420
100
AcDbEntity
  8
0
100
AcDbLine
 62
253
  6
CONTINUOUS
 10
149.7798303192
 20
118.8564159123
 11
149.7811888038
 21
118.7184077529
  0
LINE
  5
421
100
AcDbEntity
  8
ASSI
100
AcDbLine
 62
253
  6
CONTINUOUS
 10
150.2489274303
 20
76.5906379017
 11
150.2516617988
 21
76.209445814
  0
LINE
  5
422
100
AcDbEntity
  8
0
100
AcDbLine
 62
253
  6
CONTINUOUS
 10
150.2489274303
 20
76.5906379017
 11
150.2516617988
 21
76.209445814
  0
LWPOLYLINE
  5
423
100
AcDbEntity
  8
ASSI
100
AcDbPolyline
 62
253
  6
CONTINUOUS
 90
3
 70
0
 10
150.2506708051
 20
96.9782772965
 10
150.2504460386
 20
97.0312652298
 10
150.2512986717
 20
97.0825150762
  0
LWPOLYLINE
  5
424
100
AcDbEntity
  8
0
100
AcDbPolyline
 62
253
  6
CONTINUOUS
 90
3
 70
0
 10
150.2506708051
 20
96.9782772965
 10
150.2504460386
 20
97.0312652298
 10
150.2512986717
 20
97.0825150762
  0
LINE
  5
425
100
AcDbEntity
  8
ASSI
100
AcDbLine
 62
253
  6
CONTINUOUS
 10
150.2480978088
 20
76.8402304763
 11
150.2489274303
 21
76.5906379017
  0
LINE
  5
426
100
AcDbEntity
  8
0
100
AcDbLine
 62
253
  6
CONTINUOUS
 10
150.2480978088
 20
76.8402304763
 11
150.2489274303
 21
76.5906379017
  0
LINE
  5
427
100
AcDbEntity
  8
ASSI
100
AcDbLine
 62
253
  6
CONTINUOUS
 10
150.250671021
 20
96.9782772929
 11
150.248097814
 21
76.8402304753
  0
LINE
  5
428
100
AcDbEntity
  8
0
100
AcDbLine
 62
253
  6
CONTINUOUS
 10
150.250671021
 20
96.9782772929
 11
150.248097814
 21
76.8402304753
  0
LINE
  5
429
100
AcDbEntity
  8
ASSI
100
AcDbLine
 62
253
  6
CONTINUOUS
 10
150.2485712289
 20
118.7621075069
 11
150.2506710095
 21
98.4567186262
  0
LINE
  5
42A
100
AcDbEntity
  8
0
100
AcDbLine
 62
253
  6
CONTINUOUS
 10
150.2485712289
 20
118.7621075069
 11
150.2506710095
 21
98.4567186262
  0
LWPOLYLINE
  5
42B
100
AcDbEntity
  8
ASSI
100
AcDbPolyline
 62
253
  6
CONTINUOUS
 90
4
 70
0
 10
150.2506708025
 20
98.4567186282
 10
150.2504461646
 20
98.403732692
 10
150.2512987165
 20
98.3524845195
 10
150.2544116355
 20
98.2545265553
  0
LWPOLYLINE
  5
42C
100
AcDbEntity
  8
0
100
AcDbPolyline
 62
253
  6
CONTINUOUS
 90
4
 70
0
 10
150.2506708025
 20
98.4567186282
 10
150.2504461646
 20
98.403732692
 10
150.2512987165
 20
98.3524845195
 10
150.2544116355
 20
98.2545265553
  0
LINE
  5
42D
100
AcDbEntity
  8
ASSI
100
AcDbLine
 62
253
  6
CONTINUOUS
 10
150.2509965891
 20
119.1545739373
 11
150.2485712289
 21
118.7621075069
  0
LINE
  5
42E
100
AcDbEntity
  8
0
100
AcDbLine
 62
253
  6
CONTINUOUS
 10
150.2509965891
 20
119.1545739373
 11
150.2485712289
 21
118.7621075069
  0
LINE
  5
42F
100
AcDbEntity
  8
ASSI
100
AcDbLine
 62
253
  6
CONTINUOUS
 10
149.7811888031
 20
76.7165881588
 11
149.7798303185
 21
76.5785799993
  0
LINE
  5
430
100
AcDbEntity
  8
0
100
AcDbLine
 62
253
  6
CONTINUOUS
 10
149.7811888031
 20
76.7165881588
 11
149.7798303185
 21
76.5785799993
  0
LWPOLYLINE
  5
431
100
AcDbEntity
  8
ASSI
100
AcDbPolyline
 62
253
  6
CONTINUOUS
 90
3
 70
0
 10
150.2540105266
 20
119.4170232896
 10
150.2531867514
 20
119.3571005212
 10
150.2509965891
 20
119.1545739373
  0
LWPOLYLINE
  5
432
100
AcDbEntity
  8
0
100
AcDbPolyline
 62
253
  6
CONTINUOUS
 90
3
 70
0
 10
150.2540105266
 20
119.4170232896
 10
150.2531867514
 20
119.3571005212
 10
150.2509965891
 20
119.1545739373
  0
LINE
  5
433
100
AcDbEntity
  8
ASSI
100
AcDbLine
 62
253
  6
CONTINUOUS
 10
149.7798303185
 20
76.5785799993
 11
149.7785120022
 21
76.4938279974
  0
LINE
  5
434
100
AcDbEntity
  8
0
100
AcDbLine
 62
253
  6
CONTINUOUS
 10
149.7798303185
 20
76.5785799993
 11
149.7785120022
 21
76.4938279974
  0
LINE
  5
435
100
AcDbEntity
  8
ASSI
100
AcDbLine
 62
253
  6
CONTINUOUS
 10
149.7785120022
 20
76.4938279974
 11
149.77689818
 21
76.4170812516
  0
LINE
  5
436
100
AcDbEntity
  8
0
100
AcDbLine
 62
253
  6
CONTINUOUS
 10
149.7785120022
 20
76.4938279974
 11
149.77689818
 21
76.4170812516
  0
LWPOLYLINE
  5
437
100
AcDbEntity
  8
ASSI
100
AcDbPolyline
 62
253
  6
CONTINUOUS
 90
11
 70
0
 10
149.77689818
 20
76.4170812516
 10
149.7750124931
 20
76.3494806311
 10
149.7739824814
 20
76.3197322939
 10
149.7728949282
 20
76.2926575071
 10
149.7717659221
 20
76.2686572459
 10
149.7705942765
 20
76.2477762568
 10
149.7693811779
 20
76.2299697933
 10
149.7681462754
 20
76.2155045905
 10
149.7668961183
 20
76.2044695601
 10
149.7656241572
 20
76.1967757904
 10
149.7643303919
 20
76.1924232813
  0
LWPOLYLINE
  5
438
100
AcDbEntity
  8
0
100
AcDbPolyline
 62
253
  6
CONTINUOUS
 90
11
 70
0
 10
149.77689818
 20
76.4170812516
 10
149.7750124931
 20
76.3494806311
 10
149.7739824814
 20
76.3197322939
 10
149.7728949282
 20
76.2926575071
 10
149.7717659221
 20
76.2686572459
 10
149.7705942765
 20
76.2477762568
 10
149.7693811779
 20
76.2299697933
 10
149.7681462754
 20
76.2155045905
 10
149.7668961183
 20
76.2044695601
 10
149.7656241572
 20
76.1967757904
 10
149.7643303919
 20
76.1924232813
  0
LWPOLYLINE
  5
439
100
AcDbEntity
  8
ASSI
100
AcDbPolyline
 62
253
  6
CONTINUOUS
 90
4
 70
0
 10
150.2512986717
 20
97.0825150762
 10
150.2544118887
 20
97.1804753783
 10
150.2562129221
 20
97.2271869381
 10
150.2589272374
 20
97.27115724
  0
LWPOLYLINE
  5
43A
100
AcDbEntity
  8
0
100
AcDbPolyline
 62
253
  6
CONTINUOUS
 90
4
 70
0
 10
150.2512986717
 20
97.0825150762
 10
150.2544118887
 20
97.1804753783
 10
150.2562129221
 20
97.2271869381
 10
150.2589272374
 20
97.27115724
  0
LWPOLYLINE
  5
43B
100
AcDbEntity
  8
ASSI
100
AcDbPolyline
 62
253
  6
CONTINUOUS
 90
9
 70
0
 10
150.2589272374
 20
97.27115724
 10
150.2647185145
 20
97.3487330564
 10
150.2683576812
 20
97.3818306165
 10
150.2722886705
 20
97.4104718417
 10
150.275938477
 20
97.4343929741
 10
150.280210917
 20
97.4534311944
 10
150.2851036883
 20
97.4673291949
 10
150.2896416405
 20
97.4758746495
 10
150.2933371969
 20
97.4790164842
  0
LWPOLYLINE
  5
43C
100
AcDbEntity
  8
0
100
AcDbPolyline
 62
253
  6
CONTINUOUS
 90
9
 70
0
 10
150.2589272374
 20
97.27115724
 10
150.2647185145
 20
97.3487330564
 10
150.2683576812
 20
97.3818306165
 10
150.2722886705
 20
97.4104718417
 10
150.275938477
 20
97.4343929741
 10
150.280210917
 20
97.4534311944
 10
150.2851036883
 20
97.4673291949
 10
150.2896416405
 20
97.4758746495
 10
150.2933371969
 20
97.4790164842
  0
LWPOLYLINE
  5
43D
100
AcDbEntity
  8
ASSI
100
AcDbPolyline
 62
253
  6
CONTINUOUS
 90
7
 70
0
 10
148.8898337265
 20
75.6931085152
 10
148.8908854229
 20
75.7004944523
 10
148.8919789414
 20
75.7137701237
 10
148.893086403
 20
75.7328669018
 10
148.8941591678
 20
75.757686552
 10
148.8951912991
 20
75.7881040289
 10
148.8972207262
 20
75.8651088008
  0
LWPOLYLINE
  5
43E
100
AcDbEntity
  8
0
100
AcDbPolyline
 62
253
  6
CONTINUOUS
 90
7
 70
0
 10
148.8898337265
 20
75.6931085152
 10
148.8908854229
 20
75.7004944523
 10
148.8919789414
 20
75.7137701237
 10
148.893086403
 20
75.7328669018
 10
148.8941591678
 20
75.757686552
 10
148.8951912991
 20
75.7881040289
 10
148.8972207262
 20
75.8651088008
  0
LWPOLYLINE
  5
43F
100
AcDbEntity
  8
0
100
AcDbPolyline
 62
253
  6
CONTINUOUS
 90
79
 70
0
 10
142.6217933408
 20
87.5470526344
 10
142.6310694761
 20
87.5565401365
 10
142.6398954315
 20
87.5663328877
 10
142.6482836546
 20
87.576422554
 10
142.656246593
 20
87.5868008016
 10
142.6637966946
 20
87.5974592965
 10
142.6709464069
 20
87.6083897048
 10
142.6777049864
 20
87.6195840962
 10
142.6840689246
 20
87.6310361545
 10
142.6900315214
 20
87.6427399673
 10
142.6955860769
 20
87.6546896221
 10
142.7007258914
 20
87.6668792063
 10
142.7054442648
 20
87.6793028076
 10
142.7097330947
 20
87.6919532846
 10
142.7135786677
 20
87.7048185812
 10
142.7169658682
 20
87.7178854122
 10
142.7198784461
 20
87.7311472698
 10
142.7222956153
 20
87.7446247553
 10
142.7241954554
 20
87.758345247
 10
142.7255545152
 20
87.772320954
 10
142.7263432195
 20
87.7865034095
 10
142.7265304619
 20
87.8008289772
 10
142.7260887247
 20
87.8152439925
 10
142.7250048442
 20
87.8297346749
 10
142.7232692451
 20
87.8442972155
 10
142.7208757062
 20
87.8589190041
 10
142.7178314222
 20
87.8735522271
 10
142.714146942
 20
87.8881402698
 10
142.7098328143
 20
87.9026265176
 10
142.704899588
 20
87.9169543558
 10
142.6993578119
 20
87.9310671697
 10
142.6932204079
 20
87.944912816
 10
142.6865097903
 20
87.9584570368
 10
142.6792507465
 20
87.9716700453
 10
142.671468064
 20
87.9845220547
 10
142.6631865303
 20
87.9969832785
 10
142.6544309328
 20
88.0090239298
 10
142.6452207371
 20
88.0206196046
 10
142.6355541215
 20
88.0317674293
 10
142.6254239425
 20
88.0424699128
 10
142.6148230566
 20
88.0527295642
 10
142.6037443204
 20
88.0625488923
 10
142.5921805903
 20
88.0719304062
 10
142.5801333286
 20
88.0808709574
 10
142.5676384209
 20
88.0893447676
 10
142.5547403583
 20
88.097320401
 10
142.5414836322
 20
88.1047664217
 10
142.5279127339
 20
88.1116513941
 10
142.5140721546
 20
88.1179438823
 10
142.5000077662
 20
88.123617181
 10
142.4857709626
 20
88.128663507
 10
142.4714145183
 20
88.1330798076
 10
142.4569912078
 20
88.1368630301
 10
142.4425538055
 20
88.1400101217
 10
142.4281550859
 20
88.1425180297
 10
142.4138383253
 20
88.1443861987
 10
142.3996088074
 20
88.1456240625
 10
142.3854623177
 20
88.146243552
 10
142.3714034634
 20
88.1462590625
 10
142.3574721386
 20
88.1456948463
 10
142.3437170588
 20
88.14457762
 10
142.330175408
 20
88.1429329387
 10
142.3168382433
 20
88.1407817119
 10
142.3036850899
 20
88.1381436878
 10
142.2906996952
 20
88.1350366858
 10
142.2778826951
 20
88.1314708101
 10
142.2652389477
 20
88.1274542363
 10
142.2527746141
 20
88.1229949022
 10
142.2405010681
 20
88.1180997954
 10
142.2284309866
 20
88.1127756657
 10
142.2165770464
 20
88.1070292629
 10
142.2049519245
 20
88.100867337
 10
142.1935682977
 20
88.0942966377
 10
142.1824380053
 20
88.0873203807
 10
142.171569536
 20
88.0799276445
 10
142.1609705409
 20
88.0721039731
 10
142.1506486708
 20
88.0638349107
 10
142.1406115769
 20
88.0551060016
 10
142.1308669103
 20
88.0459027898
  0
LWPOLYLINE
  5
440
100
AcDbEntity
  8
0
100
AcDbPolyline
 62
253
  6
CONTINUOUS
 90
16
 70
0
 10
142.1308669103
 20
88.0459027898
 10
141.9079279456
 20
87.8287157233
 10
141.6828263619
 20
87.6140450018
 10
141.4555500352
 20
87.4018698962
 10
141.2260868412
 20
87.1921696773
 10
140.9944246557
 20
86.984923616
 10
140.7605625609
 20
86.7801218767
 10
140.5245444635
 20
86.5777981965
 10
140.2864254762
 20
86.3779972063
 10
140.0462607121
 20
86.1807635368
 10
139.8041052841
 20
85.9861418185
 10
139.5600016294
 20
85.7941675224
 10
139.3139414832
 20
85.6048394806
 10
139.0659039051
 20
85.4181473652
 10
138.8158679547
 20
85.2340808485
 10
138.5638126917
 20
85.0526296028
  0
LINE
  5
441
100
AcDbEntity
  8
ASSI
100
AcDbLine
 62
253
  6
CONTINUOUS
 10
149.4761805927
 20
97.017593139
 11
149.3604842492
 21
96.9790355236
  0
LINE
  5
442
100
AcDbEntity
  8
0
100
AcDbLine
 62
253
  6
CONTINUOUS
 10
149.4761805927
 20
97.017593139
 11
149.3604842492
 21
96.9790355236
  0
LWPOLYLINE
  5
443
100
AcDbEntity
  8
SUPERFICI
100
AcDbPolyline
 62
7
  6
CONTINUOUS
 90
43
 70
0
 10
162.9959616844
 20
101.2382918955
 10
163.0635896287
 20
101.2453756134
 10
163.1303575575
 20
101.2571238599
 10
163.196611096
 20
101.2736316465
 10
163.2620046244
 20
101.2948039425
 10
163.3255013
 20
101.3203556794
 10
163.3870751414
 20
101.3503790919
 10
163.4467521833
 20
101.3847819246
 10
163.5035736461
 20
101.4230023801
 10
163.5574254632
 20
101.4650316384
 10
163.6084217912
 20
101.510878502
 10
163.6559462137
 20
101.5600076147
 10
163.700034397
 20
101.6125738551
 10
163.7406507749
 20
101.6684223296
 10
163.7770720985
 20
101.7265530332
 10
163.8091590231
 20
101.7868552596
 10
163.837050993
 20
101.8494397115
 10
163.8604429488
 20
101.9136385081
 10
163.8793223937
 20
101.9796484712
 10
163.8937018928
 20
102.0472727792
 10
163.9033139746
 20
102.115253098
 10
163.9080680333
 20
102.1834121221
 10
163.9080547
 20
102.2519271697
 10
163.903278347
 20
102.3200718521
 10
163.8936554742
 20
102.3880104974
 10
163.8792695563
 20
102.4555787912
 10
163.8603754171
 20
102.5215573904
 10
163.8369456971
 20
102.5857824612
 10
163.8090076873
 20
102.648417857
 10
163.776898181
 20
102.7087357726
 10
163.7405052889
 20
102.76680405
 10
163.6999408018
 20
102.8225548637
 10
163.655877039
 20
102.8750569131
 10
163.6083108643
 20
102.9241977079
 10
163.5572453125
 20
102.9700897531
 10
163.5033619767
 20
103.012139245
 10
163.4465902823
 20
103.0503214588
 10
163.3870007157
 20
103.0846611278
 10
163.3254864882
 20
103.1146386382
 10
163.2620037705
 20
103.1401807187
 10
163.1965963374
 20
103.1613606426
 10
163.130288843
 20
103.1778786159
 10
163.0634228436
 20
103.189634707
  0
LINE
  5
444
100
AcDbEntity
  8
ASSI
100
AcDbLine
 62
7
  6
CONTINUOUS
 10
130.2269963908
 20
97.9436785602
 11
129.9645304002
 21
97.9174979568
  0
LINE
  5
445
100
AcDbEntity
  8
0
100
AcDbLine
 62
7
  6
CONTINUOUS
 10
130.2269963908
 20
97.9436785602
 11
129.9645304002
 21
97.9174979568
  0
LINE
  5
446
100
AcDbEntity
  8
ASSI
100
AcDbLine
 62
253
  6
CONTINUOUS
 10
149.7935085323
 20
98.4559603901
 11
149.7971428595
 21
98.4560344955
  0
LINE
  5
447
100
AcDbEntity
  8
0
100
AcDbLine
 62
253
  6
CONTINUOUS
 10
149.7935085323
 20
98.4559603901
 11
149.7971428595
 21
98.4560344955
  0
LINE
  5
448
100
AcDbEntity
  8
ASSI
100
AcDbLine
 62
253
  6
CONTINUOUS
 10
127.5935085323
 20
98.4559603901
 11
127.5971428595
 21
98.4560344955
  0
LINE
  5
449
100
AcDbEntity
  8
0
100
AcDbLine
 62
253
  6
CONTINUOUS
 10
127.5935085323
 20
98.4559603901
 11
127.5971428595
 21
98.4560344955
  0
LINE
  5
44A
100
AcDbEntity
  8
ASSI
100
AcDbLine
 62
253
  6
CONTINUOUS
 10
149.7971428595
 20
98.4560344955
 11
149.8184083331
 21
98.4561799101
  0
LINE
  5
44B
100
AcDbEntity
  8
0
100
AcDbLine
 62
253
  6
CONTINUOUS
 10
149.7971428595
 20
98.4560344955
 11
149.8184083331
 21
98.4561799101
  0
LINE
  5
44C
100
AcDbEntity
  8
ASSI
100
AcDbLine
 62
253
  6
CONTINUOUS
 10
127.5971428595
 20
98.4560344955
 11
127.6184083331
 21
98.4561799101
  0
LINE
  5
44D
100
AcDbEntity
  8
0
100
AcDbLine
 62
253
  6
CONTINUOUS
 10
127.5971428595
 20
98.4560344955
 11
127.6184083331
 21
98.4561799101
  0
LINE
  5
44E
100
AcDbEntity
  8
ASSI
100
AcDbLine
 62
253
  6
CONTINUOUS
 10
149.8184083331
 20
98.4561799101
 11
157.2000654647
 21
98.4603157805
  0
LINE
  5
44F
100
AcDbEntity
  8
0
100
AcDbLine
 62
253
  6
CONTINUOUS
 10
149.8184083331
 20
98.4561799101
 11
157.2000654647
 21
98.4603157805
  0
LINE
  5
450
100
AcDbEntity
  8
ASSI
100
AcDbLine
 62
253
  6
CONTINUOUS
 10
127.6184083331
 20
98.4561799101
 11
135.0000654647
 21
98.4603157805
  0
LINE
  5
451
100
AcDbEntity
  8
0
100
AcDbLine
 62
253
  6
CONTINUOUS
 10
127.6184083331
 20
98.4561799101
 11
135.0000654647
 21
98.4603157805
  0
LINE
  5
452
100
AcDbEntity
  8
ASSI
100
AcDbLine
 62
253
  6
CONTINUOUS
 10
135.0000654647
 20
98.4603157805
 11
141.9539241722
 21
98.4603157814
  0
LINE
  5
453
100
AcDbEntity
  8
0
100
AcDbLine
 62
253
  6
CONTINUOUS
 10
135.0000654647
 20
98.4603157805
 11
141.9539241722
 21
98.4603157814
  0
LINE
  5
454
100
AcDbEntity
  8
ASSI
100
AcDbLine
 62
253
  6
CONTINUOUS
 10
157.2000654647
 20
98.4603157805
 11
164.1539241722
 21
98.4603157814
  0
LINE
  5
455
100
AcDbEntity
  8
0
100
AcDbLine
 62
253
  6
CONTINUOUS
 10
157.2000654647
 20
98.4603157805
 11
164.1539241722
 21
98.4603157814
  0
LINE
  5
456
100
AcDbEntity
  8
ASSI
100
AcDbLine
 62
253
  6
CONTINUOUS
 10
164.1539241722
 20
98.4603157814
 11
171.2891252153
 21
98.4566296927
  0
LINE
  5
457
100
AcDbEntity
  8
0
100
AcDbLine
 62
253
  6
CONTINUOUS
 10
164.1539241722
 20
98.4603157814
 11
171.2891252153
 21
98.4566296927
  0
LINE
  5
458
100
AcDbEntity
  8
ASSI
100
AcDbLine
 62
253
  6
CONTINUOUS
 10
141.9539241722
 20
98.4603157814
 11
149.3355844461
 21
98.4561799059
  0
LINE
  5
459
100
AcDbEntity
  8
0
100
AcDbLine
 62
253
  6
CONTINUOUS
 10
141.9539241722
 20
98.4603157814
 11
149.3355844461
 21
98.4561799059
  0
LINE
  5
45A
100
AcDbEntity
  8
ASSI
100
AcDbLine
 62
253
  6
CONTINUOUS
 10
171.2891252153
 20
98.4566296927
 11
171.5355844461
 21
98.4561799059
  0
LINE
  5
45B
100
AcDbEntity
  8
0
100
AcDbLine
 62
253
  6
CONTINUOUS
 10
171.2891252153
 20
98.4566296927
 11
171.5355844461
 21
98.4561799059
  0
LWPOLYLINE
  5
45C
100
AcDbEntity
  8
ASSI
100
AcDbPolyline
 62
253
  6
CONTINUOUS
 90
3
 70
0
 10
149.3355844461
 20
98.4561799059
 10
149.3568499196
 20
98.4560344947
 10
149.3604842467
 20
98.4559603909
  0
LWPOLYLINE
  5
45D
100
AcDbEntity
  8
0
100
AcDbPolyline
 62
253
  6
CONTINUOUS
 90
3
 70
0
 10
149.3355844461
 20
98.4561799059
 10
149.3568499196
 20
98.4560344947
 10
149.3604842467
 20
98.4559603909
  0
LWPOLYLINE
  5
45E
100
AcDbEntity
  8
ASSI
100
AcDbPolyline
 62
253
  6
CONTINUOUS
 90
3
 70
0
 10
171.5355844461
 20
98.4561799059
 10
171.5568499196
 20
98.4560344947
 10
171.5604842467
 20
98.4559603909
  0
LWPOLYLINE
  5
45F
100
AcDbEntity
  8
0
100
AcDbPolyline
 62
253
  6
CONTINUOUS
 90
3
 70
0
 10
171.5355844461
 20
98.4561799059
 10
171.5568499196
 20
98.4560344947
 10
171.5604842467
 20
98.4559603909
  0
LWPOLYLINE
  5
460
100
AcDbEntity
  8
ASSI
100
AcDbPolyline
 62
7
  6
CONTINUOUS
 90
37
 70
0
 10
136.2269574483
 20
101.2358727022
 10
136.1408634389
 20
101.2397832296
 10
136.0566775192
 20
101.250786912
 10
135.9743996684
 20
101.268883737
 10
135.8934996369
 20
101.2942714731
 10
135.8145076352
 20
101.3267523147
 10
135.7390142915
 20
101.3657328905
 10
135.6669600613
 20
101.4114340927
 10
135.5984043598
 20
101.4636349884
 10
135.5351161779
 20
101.5210794843
 10
135.477321476
 20
101.5837886007
 10
135.4247940942
 20
101.6517412896
 10
135.3786247912
 20
101.7236183765
 10
135.3388816276
 20
101.7996383665
 10
135.3054963558
 20
101.8795827395
 10
135.2793552601
 20
101.9614768094
 10
135.2606544421
 20
102.0453046049
 10
135.249197682
 20
102.1310821068
 10
135.2452827974
 20
102.2168825857
 10
135.2491016062
 20
102.3027139992
 10
135.2604622903
 20
102.3885684156
 10
135.2790872414
 20
102.4724952949
 10
135.3051766941
 20
102.5545088342
 10
135.3385305322
 20
102.6345948709
 10
135.3782706365
 20
102.7107603455
 10
135.4244740536
 20
102.7827910706
 10
135.477063925
 20
102.8509012701
 10
135.5349312611
 20
102.9137405158
 10
135.5983053155
 20
102.9712745078
 10
135.6669570348
 20
103.0235375703
 10
135.7390899159
 20
103.0692822189
 10
135.8146384465
 20
103.1082855095
 10
135.8936682675
 20
103.1407703983
 10
135.9745795278
 20
103.166158259
 10
136.0568389427
 20
103.1842562163
 10
136.1409798348
 20
103.1952571405
 10
136.2270022244
 20
103.1991610209
  0
LWPOLYLINE
  5
461
100
AcDbEntity
  8
0
100
AcDbPolyline
 62
7
  6
CONTINUOUS
 90
37
 70
0
 10
136.2269574483
 20
101.2358727022
 10
136.1408634389
 20
101.2397832296
 10
136.0566775192
 20
101.250786912
 10
135.9743996684
 20
101.268883737
 10
135.8934996369
 20
101.2942714731
 10
135.8145076352
 20
101.3267523147
 10
135.7390142915
 20
101.3657328905
 10
135.6669600613
 20
101.4114340927
 10
135.5984043598
 20
101.4636349884
 10
135.5351161779
 20
101.5210794843
 10
135.477321476
 20
101.5837886007
 10
135.4247940942
 20
101.6517412896
 10
135.3786247912
 20
101.7236183765
 10
135.3388816276
 20
101.7996383665
 10
135.3054963558
 20
101.8795827395
 10
135.2793552601
 20
101.9614768094
 10
135.2606544421
 20
102.0453046049
 10
135.249197682
 20
102.1310821068
 10
135.2452827974
 20
102.2168825857
 10
135.2491016062
 20
102.3027139992
 10
135.2604622903
 20
102.3885684156
 10
135.2790872414
 20
102.4724952949
 10
135.3051766941
 20
102.5545088342
 10
135.3385305322
 20
102.6345948709
 10
135.3782706365
 20
102.7107603455
 10
135.4244740536
 20
102.7827910706
 10
135.477063925
 20
102.8509012701
 10
135.5349312611
 20
102.9137405158
 10
135.5983053155
 20
102.9712745078
 10
135.6669570348
 20
103.0235375703
 10
135.7390899159
 20
103.0692822189
 10
135.8146384465
 20
103.1082855095
 10
135.8936682675
 20
103.1407703983
 10
135.9745795278
 20
103.166158259
 10
136.0568389427
 20
103.1842562163
 10
136.1409798348
 20
103.1952571405
 10
136.2270022244
 20
103.1991610209
  0
LINE
  5
462
100
AcDbEntity
  8
ASSI
100
AcDbLine
 62
7
  6
CONTINUOUS
 10
168.9269963908
 20
97.9436785602
 11
169.1894623814
 21
97.9174979568
  0
LINE
  5
463
100
AcDbEntity
  8
0
100
AcDbLine
 62
7
  6
CONTINUOUS
 10
168.9269963908
 20
97.9436785602
 11
169.1894623814
 21
97.9174979568
  0
LWPOLYLINE
  5
464
100
AcDbEntity
  8
SUPERFICI
100
AcDbPolyline
 62
7
  6
CONTINUOUS
 90
3
 70
0
 10
136.0904049722
 20
101.2453732644
 10
136.1580352006
 20
101.2382890829
 10
136.2265189518
 20
101.235872713
  0
LINE
  5
465
100
AcDbEntity
  8
ASSI
100
AcDbLine
 62
253
  6
CONTINUOUS
 10
149.3604842466
 20
98.4559603909
 11
149.4761805927
 21
98.4174027746
  0
LINE
  5
466
100
AcDbEntity
  8
0
100
AcDbLine
 62
253
  6
CONTINUOUS
 10
149.3604842466
 20
98.4559603909
 11
149.4761805927
 21
98.4174027746
  0
LWPOLYLINE
  5
467
100
AcDbEntity
  8
0
100
AcDbPolyline
 62
253
  6
CONTINUOUS
 90
79
 70
0
 10
142.1312117453
 20
107.3890931239
 10
142.1408700902
 20
107.3800121291
 10
142.150822444
 20
107.3713822484
 10
142.1610609892
 20
107.3631912292
 10
142.1715779082
 20
107.3554268188
 10
142.1823653837
 20
107.3480767647
 10
142.1934155982
 20
107.341128814
 10
142.2047210782
 20
107.334573864
 10
142.2162757273
 20
107.3284154102
 10
142.2280737929
 20
107.3226600982
 10
142.2401095226
 20
107.3173145732
 10
142.2523771639
 20
107.3123854807
 10
142.2648709644
 20
107.3078794661
 10
142.2775838987
 20
107.3038045585
 10
142.2905038504
 20
107.3001743228
 10
142.3036174301
 20
107.2970037074
 10
142.3169180147
 20
107.294308881
 10
142.330426046
 20
107.2921108934
 10
142.3441687317
 20
107.2904320145
 10
142.3581580958
 20
107.2892958021
 10
142.3723454254
 20
107.2887309646
 10
142.3866668238
 20
107.2887674979
 10
142.4010683603
 20
107.2894319908
 10
142.4155359687
 20
107.2907374023
 10
142.4300655492
 20
107.2926932844
 10
142.4446442953
 20
107.2953057418
 10
142.4592245743
 20
107.2985670907
 10
142.4737500469
 20
107.3024662007
 10
142.4881643738
 20
107.3069919411
 10
142.502411216
 20
107.3121331811
 10
142.516434234
 20
107.3178787902
 10
142.5301815434
 20
107.3242153611
 10
142.5436190778
 20
107.3311203801
 10
142.5567172257
 20
107.3385690572
 10
142.5694463756
 20
107.3465366021
 10
142.5817769158
 20
107.3549982246
 10
142.5936792347
 20
107.3639291345
 10
142.6051290181
 20
107.373309824
 10
142.6161231407
 20
107.3831419147
 10
142.6266637744
 20
107.3934323103
 10
142.6367530912
 20
107.404187915
 10
142.6463932632
 20
107.4154156325
 10
142.6555864624
 20
107.4271223667
 10
142.6643294402
 20
107.4393063542
 10
142.6725972665
 20
107.4519311613
 10
142.6803595908
 20
107.4649516871
 10
142.6875860625
 20
107.4783228304
 10
142.6942463309
 20
107.4919994904
 10
142.7003100456
 20
107.5059365658
 10
142.7057515784
 20
107.5200876593
 10
142.7105641913
 20
107.5344011875
 10
142.7147458686
 20
107.5488242705
 10
142.7182945949
 20
107.5633040286
 10
142.7212083545
 20
107.577787582
 10
142.7234851319
 20
107.5922220508
 10
142.7251252487
 20
107.6065641101
 10
142.7261383752
 20
107.6208086551
 10
142.7265365191
 20
107.6349601355
 10
142.7263342351
 20
107.6490142308
 10
142.7255562666
 20
107.6629315388
 10
142.7242299041
 20
107.6766638868
 10
142.7223810988
 20
107.6901746022
 10
142.7200304449
 20
107.7034730134
 10
142.7171971972
 20
107.7165799486
 10
142.7138987484
 20
107.7295120011
 10
142.7101450439
 20
107.7422688238
 10
142.7059441668
 20
107.7548458344
 10
142.7013039964
 20
107.767237117
 10
142.6962315965
 20
107.7794314219
 10
142.6907338271
 20
107.7914161656
 10
142.6848175481
 20
107.803178765
 10
142.6784896194
 20
107.8147066367
 10
142.671756901
 20
107.8259871973
 10
142.6646227273
 20
107.8370086548
 10
142.6570763317
 20
107.8477623823
 10
142.6491034219
 20
107.8582405442
 10
142.6406897057
 20
107.8684353047
 10
142.631820891
 20
107.8783388282
 10
142.6224826856
 20
107.8879432792
  0
LWPOLYLINE
  5
468
100
AcDbEntity
  8
0
100
AcDbPolyline
 62
253
  6
CONTINUOUS
 90
16
 70
0
 10
142.6224826856
 20
107.8879432792
 10
142.389010694
 20
108.1152954258
 10
142.1532121657
 20
108.3399686122
 10
141.9150672441
 20
108.5619893885
 10
141.6745560728
 20
108.7813843047
 10
141.4316587955
 20
108.9981799106
 10
141.1863717769
 20
109.2123878224
 10
140.9387562673
 20
109.4239599202
 10
140.6888897385
 20
109.63283315
 10
140.436849662
 20
109.8389444579
 10
140.1827135094
 20
110.0422307901
 10
139.9265411796
 20
110.2426424255
 10
139.6683222806
 20
110.4401829745
 10
139.4080288475
 20
110.6348693801
 10
139.1456329157
 20
110.8267185854
 10
138.8811065204
 20
111.0157475337
  0
LWPOLYLINE
  5
469
100
AcDbEntity
  8
0
100
AcDbPolyline
 62
253
  6
CONTINUOUS
 90
16
 70
0
 10
138.8804171756
 20
84.41924838
 10
139.1449950944
 20
84.6082682834
 10
139.4074356461
 20
84.8001098114
 10
139.6677670223
 20
84.9947901706
 10
139.9260174146
 20
85.1923265679
 10
140.1822150143
 20
85.3927362099
 10
140.4363702676
 20
85.5960228248
 10
140.6884226382
 20
85.8021362269
 10
140.9382938442
 20
86.0110127521
 10
141.185905604
 20
86.2225887364
 10
141.4311796358
 20
86.4368005155
 10
141.6740540523
 20
86.6535995018
 10
141.9145325451
 20
86.8729974128
 10
142.1526352001
 20
87.0950210426
 10
142.3883821033
 20
87.3196971851
 10
142.6217933408
 20
87.5470526344
  0
LWPOLYLINE
  5
46A
100
AcDbEntity
  8
0
100
AcDbPolyline
 62
253
  6
CONTINUOUS
 90
46
 70
0
 10
138.5638126917
 20
85.0526296028
 10
138.5603912381
 20
85.0502809374
 10
138.5569577055
 20
85.0480429058
 10
138.5535067876
 20
85.0459134026
 10
138.5500331783
 20
85.0438903222
 10
138.5465315713
 20
85.0419715592
 10
138.5429966603
 20
85.0401550079
 10
138.5394243791
 20
85.0384390391
 10
138.5358156211
 20
85.036823928
 10
138.5321725196
 20
85.0353104258
 10
138.5284972082
 20
85.0338992839
 10
138.5247918201
 20
85.0325912537
 10
138.5210584887
 20
85.0313870866
 10
138.5172995473
 20
85.0302872655
 10
138.5135181281
 20
85.0292912007
 10
138.5097175633
 20
85.0283980341
 10
138.505901185
 20
85.0276069076
 10
138.5020723253
 20
85.0269169632
 10
138.4982343163
 20
85.0263273427
 10
138.4943903252
 20
85.0258372511
 10
138.4905428599
 20
85.0254461451
 10
138.4866942635
 20
85.0251535444
 10
138.4828468788
 20
85.0249589689
 10
138.4790030489
 20
85.0248619381
 10
138.4751651168
 20
85.0248619719
 10
138.4705704817
 20
85.0249895375
 10
138.4659905584
 20
85.0252558113
 10
138.461428192
 20
85.0256604202
 10
138.4568862277
 20
85.0262029909
 10
138.4523675104
 20
85.0268831504
 10
138.4478752369
 20
85.0277003625
 10
138.4434140104
 20
85.0286534392
 10
138.4389887854
 20
85.0297410296
 10
138.4346045167
 20
85.0309617828
 10
138.430266159
 20
85.0323143478
 10
138.4259782179
 20
85.0337969848
 10
138.4217434024
 20
85.0354063978
 10
138.4175639728
 20
85.037138902
 10
138.413442189
 20
85.0389908126
 10
138.4093803112
 20
85.0409584447
 10
138.4060418173
 20
85.042684925
 10
138.4027418754
 20
85.0444933579
 10
138.399475867
 20
85.0463878928
 10
138.3962391732
 20
85.048372679
 10
138.3930271754
 20
85.0504518659
 10
138.3898352549
 20
85.0526296028
  0
LWPOLYLINE
  5
46B
100
AcDbEntity
  8
SUPERFICI
100
AcDbPolyline
 62
7
  6
CONTINUOUS
 90
43
 70
0
 10
140.7959616844
 20
101.2382918955
 10
140.8635896287
 20
101.2453756134
 10
140.9303575575
 20
101.2571238599
 10
140.996611096
 20
101.2736316465
 10
141.0620046244
 20
101.2948039425
 10
141.1255013
 20
101.3203556794
 10
141.1870751414
 20
101.3503790919
 10
141.2467521833
 20
101.3847819246
 10
141.3035736461
 20
101.4230023801
 10
141.3574254632
 20
101.4650316384
 10
141.4084217912
 20
101.510878502
 10
141.4559462137
 20
101.5600076147
 10
141.500034397
 20
101.6125738551
 10
141.5406507749
 20
101.6684223296
 10
141.5770720985
 20
101.7265530332
 10
141.6091590231
 20
101.7868552596
 10
141.637050993
 20
101.8494397115
 10
141.6604429488
 20
101.9136385081
 10
141.6793223937
 20
101.9796484712
 10
141.6937018928
 20
102.0472727792
 10
141.7033139746
 20
102.115253098
 10
141.7080680333
 20
102.1834121221
 10
141.7080547
 20
102.2519271697
 10
141.703278347
 20
102.3200718521
 10
141.6936554742
 20
102.3880104974
 10
141.6792695563
 20
102.4555787912
 10
141.6603754171
 20
102.5215573904
 10
141.6369456971
 20
102.5857824612
 10
141.6090076873
 20
102.648417857
 10
141.576898181
 20
102.7087357726
 10
141.5405052889
 20
102.76680405
 10
141.4999408018
 20
102.8225548637
 10
141.455877039
 20
102.8750569131
 10
141.4083108643
 20
102.9241977079
 10
141.3572453125
 20
102.9700897531
 10
141.3033619767
 20
103.012139245
 10
141.2465902823
 20
103.0503214588
 10
141.1870007157
 20
103.0846611278
 10
141.1254864882
 20
103.1146386382
 10
141.0620037705
 20
103.1401807187
 10
140.9965963374
 20
103.1613606426
 10
140.930288843
 20
103.1778786159
 10
140.8634228436
 20
103.189634707
  0
LWPOLYLINE
  5
46C
100
AcDbEntity
  8
SUPERFICI
100
AcDbPolyline
 62
7
  6
CONTINUOUS
 90
43
 70
0
 10
158.3583276761
 20
103.1967258706
 10
158.2905595093
 20
103.189631264
 10
158.2236976942
 20
103.1778772063
 10
158.1574126149
 20
103.1613707376
 10
158.0920338801
 20
103.1402048217
 10
158.0285503023
 20
103.1146583494
 10
157.9669713544
 20
103.0846370192
 10
157.9072875105
 20
103.0502351304
 10
157.8504590482
 20
103.0120144782
 10
157.7966002811
 20
102.9699837618
 10
157.7455968055
 20
102.924134274
 10
157.6980657959
 20
102.8750017028
 10
157.6539717028
 20
102.8224310227
 10
157.6133499756
 20
102.7665772441
 10
157.5769242697
 20
102.708441113
 10
157.5448340867
 20
102.6481333094
 10
157.5169398256
 20
102.5855431375
 10
157.4935464831
 20
102.5213392845
 10
157.4746667558
 20
102.4553247051
 10
157.4602878789
 20
102.3876964247
 10
157.4506766625
 20
102.319714244
 10
157.4459239124
 20
102.2515560191
 10
157.4459387977
 20
102.1830438807
 10
157.4507156845
 20
102.1149040501
 10
157.4603378151
 20
102.0469727603
 10
157.4747219724
 20
101.979413766
 10
157.493612845
 20
101.9134445821
 10
157.5170374517
 20
101.8492288992
 10
157.5449688421
 20
101.786603026
 10
157.5770707559
 20
101.7262934156
 10
157.6134548115
 20
101.6682320803
 10
157.6540094891
 20
101.6124870121
 10
157.6980638165
 20
101.5599886445
 10
157.7456209752
 20
101.5108490749
 10
157.796677885
 20
101.4649562202
 10
157.8505541638
 20
101.4229042538
 10
157.907320508
 20
101.3847177131
 10
157.9669063094
 20
101.3503720788
 10
158.0284192013
 20
101.3203879461
 10
158.0919196202
 20
101.2948367712
 10
158.1573471844
 20
101.2736471182
 10
158.2236282627
 20
101.2571252507
 10
158.2904049722
 20
101.2453732644
  0
LINE
  5
46D
100
AcDbEntity
  8
SUPERFICI
100
AcDbLine
 62
7
  6
CONTINUOUS
 10
158.4270021993
 20
103.1991610209
 11
158.3583276761
 21
103.1967258706
  0
LINE
  5
46E
100
AcDbEntity
  8
SUPERFICI
100
AcDbLine
 62
7
  6
CONTINUOUS
 10
162.9274737209
 20
101.2358727129
 11
162.9959616844
 21
101.2382918955
  0
LINE
  5
46F
100
AcDbEntity
  8
SUPERFICI
100
AcDbLine
 62
7
  6
CONTINUOUS
 10
140.7274737209
 20
101.2358727129
 11
140.7959616844
 21
101.2382918955
  0
LINE
  5
470
100
AcDbEntity
  8
SUPERFICI
100
AcDbLine
 62
7
  6
CONTINUOUS
 10
136.2265189518
 20
101.235872713
 11
140.7274737209
 21
101.2358727129
  0
LINE
  5
471
100
AcDbEntity
  8
SUPERFICI
100
AcDbLine
 62
7
  6
CONTINUOUS
 10
158.4265189518
 20
101.235872713
 11
162.9274737209
 21
101.2358727129
  0
LINE
  5
472
100
AcDbEntity
  8
ASSI
100
AcDbLine
 62
7
  6
CONTINUOUS
 10
162.927035274
 20
101.2358727022
 11
158.4269574483
 21
101.2358727022
  0
LINE
  5
473
100
AcDbEntity
  8
0
100
AcDbLine
 62
7
  6
CONTINUOUS
 10
162.927035274
 20
101.2358727022
 11
158.4269574483
 21
101.2358727022
  0
LINE
  5
474
100
AcDbEntity
  8
ASSI
100
AcDbLine
 62
7
  6
CONTINUOUS
 10
140.727035274
 20
101.2358727022
 11
136.2269574483
 21
101.2358727022
  0
LINE
  5
475
100
AcDbEntity
  8
0
100
AcDbLine
 62
7
  6
CONTINUOUS
 10
140.727035274
 20
101.2358727022
 11
136.2269574483
 21
101.2358727022
  0
LINE
  5
476
100
AcDbEntity
  8
SUPERFICI
100
AcDbLine
 62
7
  6
CONTINUOUS
 10
162.9269906361
 20
103.1991610209
 11
158.4270021993
 21
103.1991610209
  0
LINE
  5
477
100
AcDbEntity
  8
SUPERFICI
100
AcDbLine
 62
7
  6
CONTINUOUS
 10
140.7269906361
 20
103.1991610209
 11
136.2270021993
 21
103.1991610209
  0
LINE
  5
478
100
AcDbEntity
  8
ASSI
100
AcDbLine
 62
7
  6
CONTINUOUS
 10
136.2270022244
 20
103.1991610209
 11
140.7269905483
 21
103.1991610209
  0
LINE
  5
479
100
AcDbEntity
  8
0
100
AcDbLine
 62
7
  6
CONTINUOUS
 10
136.2270022244
 20
103.1991610209
 11
140.7269905483
 21
103.1991610209
  0
LINE
  5
47A
100
AcDbEntity
  8
ASSI
100
AcDbLine
 62
7
  6
CONTINUOUS
 10
158.4270022244
 20
103.1991610209
 11
162.9269905483
 21
103.1991610209
  0
LINE
  5
47B
100
AcDbEntity
  8
0
100
AcDbLine
 62
7
  6
CONTINUOUS
 10
158.4270022244
 20
103.1991610209
 11
162.9269905483
 21
103.1991610209
  0
LWPOLYLINE
  5
47C
100
AcDbEntity
  8
ASSI
100
AcDbPolyline
 62
7
  6
CONTINUOUS
 90
37
 70
0
 10
158.4269574483
 20
101.2358727022
 10
158.3408634389
 20
101.2397832296
 10
158.2566775192
 20
101.250786912
 10
158.1743996684
 20
101.268883737
 10
158.0934996369
 20
101.2942714731
 10
158.0145076352
 20
101.3267523147
 10
157.9390142915
 20
101.3657328905
 10
157.8669600613
 20
101.4114340927
 10
157.7984043598
 20
101.4636349884
 10
157.7351161779
 20
101.5210794843
 10
157.677321476
 20
101.5837886007
 10
157.6247940942
 20
101.6517412896
 10
157.5786247912
 20
101.7236183765
 10
157.5388816276
 20
101.7996383665
 10
157.5054963558
 20
101.8795827395
 10
157.4793552601
 20
101.9614768094
 10
157.4606544421
 20
102.0453046049
 10
157.449197682
 20
102.1310821068
 10
157.4452827974
 20
102.2168825857
 10
157.4491016062
 20
102.3027139992
 10
157.4604622903
 20
102.3885684156
 10
157.4790872414
 20
102.4724952949
 10
157.5051766941
 20
102.5545088342
 10
157.5385305322
 20
102.6345948709
 10
157.5782706365
 20
102.7107603455
 10
157.6244740536
 20
102.7827910706
 10
157.677063925
 20
102.8509012701
 10
157.7349312611
 20
102.9137405158
 10
157.7983053155
 20
102.9712745078
 10
157.8669570348
 20
103.0235375703
 10
157.9390899159
 20
103.0692822189
 10
158.0146384465
 20
103.1082855095
 10
158.0936682675
 20
103.1407703983
 10
158.1745795278
 20
103.166158259
 10
158.2568389427
 20
103.1842562163
 10
158.3409798348
 20
103.1952571405
 10
158.4270022244
 20
103.1991610209
  0
LWPOLYLINE
  5
47D
100
AcDbEntity
  8
0
100
AcDbPolyline
 62
7
  6
CONTINUOUS
 90
37
 70
0
 10
158.4269574483
 20
101.2358727022
 10
158.3408634389
 20
101.2397832296
 10
158.2566775192
 20
101.250786912
 10
158.1743996684
 20
101.268883737
 10
158.0934996369
 20
101.2942714731
 10
158.0145076352
 20
101.3267523147
 10
157.9390142915
 20
101.3657328905
 10
157.8669600613
 20
101.4114340927
 10
157.7984043598
 20
101.4636349884
 10
157.7351161779
 20
101.5210794843
 10
157.677321476
 20
101.5837886007
 10
157.6247940942
 20
101.6517412896
 10
157.5786247912
 20
101.7236183765
 10
157.5388816276
 20
101.7996383665
 10
157.5054963558
 20
101.8795827395
 10
157.4793552601
 20
101.9614768094
 10
157.4606544421
 20
102.0453046049
 10
157.449197682
 20
102.1310821068
 10
157.4452827974
 20
102.2168825857
 10
157.4491016062
 20
102.3027139992
 10
157.4604622903
 20
102.3885684156
 10
157.4790872414
 20
102.4724952949
 10
157.5051766941
 20
102.5545088342
 10
157.5385305322
 20
102.6345948709
 10
157.5782706365
 20
102.7107603455
 10
157.6244740536
 20
102.7827910706
 10
157.677063925
 20
102.8509012701
 10
157.7349312611
 20
102.9137405158
 10
157.7983053155
 20
102.9712745078
 10
157.8669570348
 20
103.0235375703
 10
157.9390899159
 20
103.0692822189
 10
158.0146384465
 20
103.1082855095
 10
158.0936682675
 20
103.1407703983
 10
158.1745795278
 20
103.166158259
 10
158.2568389427
 20
103.1842562163
 10
158.3409798348
 20
103.1952571405
 10
158.4270022244
 20
103.1991610209
  0
LWPOLYLINE
  5
47E
100
AcDbEntity
  8
ASSI
100
AcDbPolyline
 62
7
  6
CONTINUOUS
 90
37
 70
0
 10
140.7269905483
 20
103.1991610209
 10
140.8130861873
 20
103.1952329453
 10
140.8972720971
 20
103.1842179638
 10
140.9795482987
 20
103.1661160869
 10
141.060444201
 20
103.1407312304
 10
141.1394304343
 20
103.1082594837
 10
141.2149188913
 20
103.0692891164
 10
141.2869696997
 20
103.023597782
 10
141.3555228611
 20
102.9714078151
 10
141.4188101558
 20
102.9139745138
 10
141.4766057948
 20
102.8512770545
 10
141.5291357666
 20
102.7833362368
 10
141.5753095698
 20
102.7114698015
 10
141.6150595749
 20
102.6354587636
 10
141.6484535984
 20
102.5555220716
 10
141.6746043209
 20
102.4736343793
 10
141.6933155533
 20
102.3898119206
 10
141.7047836029
 20
102.3040384272
 10
141.70870988
 20
102.2182398198
 10
141.7049026143
 20
102.132407713
 10
141.6935535763
 20
102.0465504657
 10
141.6749394588
 20
101.9626191388
 10
141.6488601488
 20
101.8805997204
 10
141.615515641
 20
101.8005062123
 10
141.5757827736
 20
101.7243317252
 10
141.5295839783
 20
101.6522899378
 10
141.4769966353
 20
101.584167186
 10
141.4191300184
 20
101.5213155917
 10
141.3557546542
 20
101.4637697375
 10
141.2870998159
 20
101.4114950687
 10
141.2149629496
 20
101.3657400239
 10
141.1394089619
 20
101.3267262187
 10
141.0603728178
 20
101.2942320784
 10
140.9794571287
 20
101.2688412727
 10
140.8971960999
 20
101.2507483732
 10
140.8130554884
 20
101.2397588456
 10
140.727035274
 20
101.2358727022
  0
LWPOLYLINE
  5
47F
100
AcDbEntity
  8
0
100
AcDbPolyline
 62
7
  6
CONTINUOUS
 90
37
 70
0
 10
140.7269905483
 20
103.1991610209
 10
140.8130861873
 20
103.1952329453
 10
140.8972720971
 20
103.1842179638
 10
140.9795482987
 20
103.1661160869
 10
141.060444201
 20
103.1407312304
 10
141.1394304343
 20
103.1082594837
 10
141.2149188913
 20
103.0692891164
 10
141.2869696997
 20
103.023597782
 10
141.3555228611
 20
102.9714078151
 10
141.4188101558
 20
102.9139745138
 10
141.4766057948
 20
102.8512770545
 10
141.5291357666
 20
102.7833362368
 10
141.5753095698
 20
102.7114698015
 10
141.6150595749
 20
102.6354587636
 10
141.6484535984
 20
102.5555220716
 10
141.6746043209
 20
102.4736343793
 10
141.6933155533
 20
102.3898119206
 10
141.7047836029
 20
102.3040384272
 10
141.70870988
 20
102.2182398198
 10
141.7049026143
 20
102.132407713
 10
141.6935535763
 20
102.0465504657
 10
141.6749394588
 20
101.9626191388
 10
141.6488601488
 20
101.8805997204
 10
141.615515641
 20
101.8005062123
 10
141.5757827736
 20
101.7243317252
 10
141.5295839783
 20
101.6522899378
 10
141.4769966353
 20
101.584167186
 10
141.4191300184
 20
101.5213155917
 10
141.3557546542
 20
101.4637697375
 10
141.2870998159
 20
101.4114950687
 10
141.2149629496
 20
101.3657400239
 10
141.1394089619
 20
101.3267262187
 10
141.0603728178
 20
101.2942320784
 10
140.9794571287
 20
101.2688412727
 10
140.8971960999
 20
101.2507483732
 10
140.8130554884
 20
101.2397588456
 10
140.727035274
 20
101.2358727022
  0
LWPOLYLINE
  5
480
100
AcDbEntity
  8
SUPERFICI
100
AcDbPolyline
 62
7
  6
CONTINUOUS
 90
3
 70
0
 10
158.2904049722
 20
101.2453732644
 10
158.3580352006
 20
101.2382890829
 10
158.4265189518
 20
101.235872713
  0
LWPOLYLINE
  5
481
100
AcDbEntity
  8
SUPERFICI
100
AcDbPolyline
 62
7
  6
CONTINUOUS
 90
3
 70
0
 10
140.8634228436
 20
103.189634707
 10
140.7956567761
 20
103.1967288438
 10
140.7269906361
 20
103.1991610209
  0
LWPOLYLINE
  5
482
100
AcDbEntity
  8
0
100
AcDbPolyline
 62
253
  6
CONTINUOUS
 90
51
 70
0
 10
138.8811065204
 20
111.0157475337
 10
138.8670608736
 20
111.0253687173
 10
138.8528558484
 20
111.0345863161
 10
138.8384738684
 20
111.0434184331
 10
138.8238973573
 20
111.0518831713
 10
138.8091087387
 20
111.0599986336
 10
138.7940932068
 20
111.0677791889
 10
138.7788470378
 20
111.0752242691
 10
138.7633692786
 20
111.0823295718
 10
138.7476589759
 20
111.0890907948
 10
138.7317151765
 20
111.0955036358
 10
138.7155409403
 20
111.1015625216
 10
138.6991553797
 20
111.1072567962
 10
138.6825816202
 20
111.1125745324
 10
138.6658427871
 20
111.1175038034
 10
138.6489620061
 20
111.1220326821
 10
138.6319615025
 20
111.1261504334
 10
138.6148599014
 20
111.1298510893
 10
138.5976749279
 20
111.1331298736
 10
138.5804243071
 20
111.1359820101
 10
138.5631257641
 20
111.1384027226
 10
138.5457951764
 20
111.1403875323
 10
138.5284410323
 20
111.1419331506
 10
138.5110699723
 20
111.143036586
 10
138.493688637
 20
111.1436948473
 10
138.4763036672
 20
111.1439049431
 10
138.4589212163
 20
111.1436648138
 10
138.4415454885
 20
111.1429761265
 10
138.4241802011
 20
111.1418414801
 10
138.4068290711
 20
111.1402634733
 10
138.3894958158
 20
111.138244705
 10
138.3721871506
 20
111.1357881806
 10
138.3549217851
 20
111.1328985322
 10
138.3377214271
 20
111.1295807985
 10
138.3206077847
 20
111.125840018
 10
138.3036025657
 20
111.1216812294
 10
138.2867282573
 20
111.1171110439
 10
138.2700104629
 20
111.1121423621
 10
138.2534755655
 20
111.1067896573
 10
138.2371499477
 20
111.1010674026
 10
138.2210599924
 20
111.0949900713
 10
138.2052270172
 20
111.0885704617
 10
138.1896520797
 20
111.0818146725
 10
138.1743311725
 20
111.0747271277
 10
138.1592602882
 20
111.0673122511
 10
138.1444354193
 20
111.0595744666
 10
138.1298502748
 20
111.0515146043
 10
138.1154894299
 20
111.0431191189
 10
138.1013351757
 20
111.0343708714
 10
138.087369804
 20
111.0252527226
 10
138.073575606
 20
111.0157475337
  0
LWPOLYLINE
  5
483
100
AcDbEntity
  8
0
100
AcDbPolyline
 62
253
  6
CONTINUOUS
 90
16
 70
0
 10
138.5641575267
 20
110.3823663109
 10
138.8161761282
 20
110.2009478326
 10
139.0662105314
 20
110.0168973408
 10
139.3142990564
 20
109.8301845046
 10
139.5604800232
 20
109.6407789937
 10
139.8047917519
 20
109.4486504772
 10
140.0472471248
 20
109.2537894697
 10
140.2877572719
 20
109.0562698661
 10
140.5262078856
 20
108.8561864063
 10
140.7624846581
 20
108.6536338302
 10
140.9964732819
 20
108.4487068776
 10
141.2280843958
 20
108.2414788547
 10
141.4573284262
 20
108.0319373316
 10
141.6842407459
 20
107.8200484446
 10
141.908856728
 20
107.6057783299
 10
142.1312117453
 20
107.3890931239
  0
LINE
  5
484
100
AcDbEntity
  8
ASSI
100
AcDbLine
 62
253
  6
CONTINUOUS
 10
171.1761234527
 20
97.5174979568
 11
171.0606555867
 21
97.4790164851
  0
LINE
  5
485
100
AcDbEntity
  8
0
100
AcDbLine
 62
253
  6
CONTINUOUS
 10
171.1761234527
 20
97.5174979568
 11
171.0606555867
 21
97.4790164851
  0
LINE
  5
486
100
AcDbEntity
  8
ASSI
100
AcDbLine
 62
253
  6
CONTINUOUS
 10
171.6761805927
 20
97.017593139
 11
171.5604842492
 21
96.9790355236
  0
LINE
  5
487
100
AcDbEntity
  8
0
100
AcDbLine
 62
253
  6
CONTINUOUS
 10
171.6761805927
 20
97.017593139
 11
171.5604842492
 21
96.9790355236
  0
LWPOLYLINE
  5
488
100
AcDbEntity
  8
SUPERFICI
100
AcDbPolyline
 62
7
  6
CONTINUOUS
 90
43
 70
0
 10
136.1583276761
 20
103.1967258706
 10
136.0905595093
 20
103.189631264
 10
136.0236976942
 20
103.1778772063
 10
135.9574126149
 20
103.1613707376
 10
135.8920338801
 20
103.1402048217
 10
135.8285503023
 20
103.1146583494
 10
135.7669713544
 20
103.0846370192
 10
135.7072875105
 20
103.0502351304
 10
135.6504590482
 20
103.0120144782
 10
135.5966002811
 20
102.9699837618
 10
135.5455968055
 20
102.924134274
 10
135.4980657959
 20
102.8750017028
 10
135.4539717028
 20
102.8224310227
 10
135.4133499756
 20
102.7665772441
 10
135.3769242697
 20
102.708441113
 10
135.3448340867
 20
102.6481333094
 10
135.3169398256
 20
102.5855431375
 10
135.2935464831
 20
102.5213392845
 10
135.2746667558
 20
102.4553247051
 10
135.2602878789
 20
102.3876964247
 10
135.2506766625
 20
102.319714244
 10
135.2459239124
 20
102.2515560191
 10
135.2459387977
 20
102.1830438807
 10
135.2507156845
 20
102.1149040501
 10
135.2603378151
 20
102.0469727603
 10
135.2747219724
 20
101.979413766
 10
135.293612845
 20
101.9134445821
 10
135.3170374517
 20
101.8492288992
 10
135.3449688421
 20
101.786603026
 10
135.3770707559
 20
101.7262934156
 10
135.4134548115
 20
101.6682320803
 10
135.4540094891
 20
101.6124870121
 10
135.4980638165
 20
101.5599886445
 10
135.5456209752
 20
101.5108490749
 10
135.596677885
 20
101.4649562202
 10
135.6505541638
 20
101.4229042538
 10
135.707320508
 20
101.3847177131
 10
135.7669063094
 20
101.3503720788
 10
135.8284192013
 20
101.3203879461
 10
135.8919196202
 20
101.2948367712
 10
135.9573471844
 20
101.2736471182
 10
136.0236282627
 20
101.2571252507
 10
136.0904049722
 20
101.2453732644
  0
LINE
  5
489
100
AcDbEntity
  8
SUPERFICI
100
AcDbLine
 62
7
  6
CONTINUOUS
 10
136.2270021993
 20
103.1991610209
 11
136.1583276761
 21
103.1967258706
  0
LWPOLYLINE
  5
48A
100
AcDbEntity
  8
ASSI
100
AcDbPolyline
 62
7
  6
CONTINUOUS
 90
37
 70
0
 10
162.9269905483
 20
103.1991610209
 10
163.0130861873
 20
103.1952329453
 10
163.0972720971
 20
103.1842179638
 10
163.1795482987
 20
103.1661160869
 10
163.260444201
 20
103.1407312304
 10
163.3394304343
 20
103.1082594837
 10
163.4149188913
 20
103.0692891164
 10
163.4869696997
 20
103.023597782
 10
163.5555228611
 20
102.9714078151
 10
163.6188101558
 20
102.9139745138
 10
163.6766057948
 20
102.8512770545
 10
163.7291357666
 20
102.7833362368
 10
163.7753095698
 20
102.7114698015
 10
163.8150595749
 20
102.6354587636
 10
163.8484535984
 20
102.5555220716
 10
163.8746043209
 20
102.4736343793
 10
163.8933155533
 20
102.3898119206
 10
163.9047836029
 20
102.3040384272
 10
163.90870988
 20
102.2182398198
 10
163.9049026143
 20
102.132407713
 10
163.8935535763
 20
102.0465504657
 10
163.8749394588
 20
101.9626191388
 10
163.8488601488
 20
101.8805997204
 10
163.815515641
 20
101.8005062123
 10
163.7757827736
 20
101.7243317252
 10
163.7295839783
 20
101.6522899378
 10
163.6769966353
 20
101.584167186
 10
163.6191300184
 20
101.5213155917
 10
163.5557546542
 20
101.4637697375
 10
163.4870998159
 20
101.4114950687
 10
163.4149629496
 20
101.3657400239
 10
163.3394089619
 20
101.3267262187
 10
163.2603728178
 20
101.2942320784
 10
163.1794571287
 20
101.2688412727
 10
163.0971960999
 20
101.2507483732
 10
163.0130554884
 20
101.2397588456
 10
162.927035274
 20
101.2358727022
  0
LWPOLYLINE
  5
48B
100
AcDbEntity
  8
0
100
AcDbPolyline
 62
7
  6
CONTINUOUS
 90
37
 70
0
 10
162.9269905483
 20
103.1991610209
 10
163.0130861873
 20
103.1952329453
 10
163.0972720971
 20
103.1842179638
 10
163.1795482987
 20
103.1661160869
 10
163.260444201
 20
103.1407312304
 10
163.3394304343
 20
103.1082594837
 10
163.4149188913
 20
103.0692891164
 10
163.4869696997
 20
103.023597782
 10
163.5555228611
 20
102.9714078151
 10
163.6188101558
 20
102.9139745138
 10
163.6766057948
 20
102.8512770545
 10
163.7291357666
 20
102.7833362368
 10
163.7753095698
 20
102.7114698015
 10
163.8150595749
 20
102.6354587636
 10
163.8484535984
 20
102.5555220716
 10
163.8746043209
 20
102.4736343793
 10
163.8933155533
 20
102.3898119206
 10
163.9047836029
 20
102.3040384272
 10
163.90870988
 20
102.2182398198
 10
163.9049026143
 20
102.132407713
 10
163.8935535763
 20
102.0465504657
 10
163.8749394588
 20
101.9626191388
 10
163.8488601488
 20
101.8805997204
 10
163.815515641
 20
101.8005062123
 10
163.7757827736
 20
101.7243317252
 10
163.7295839783
 20
101.6522899378
 10
163.6769966353
 20
101.584167186
 10
163.6191300184
 20
101.5213155917
 10
163.5557546542
 20
101.4637697375
 10
163.4870998159
 20
101.4114950687
 10
163.4149629496
 20
101.3657400239
 10
163.3394089619
 20
101.3267262187
 10
163.2603728178
 20
101.2942320784
 10
163.1794571287
 20
101.2688412727
 10
163.0971960999
 20
101.2507483732
 10
163.0130554884
 20
101.2397588456
 10
162.927035274
 20
101.2358727022
  0
LWPOLYLINE
  5
48C
100
AcDbEntity
  8
SUPERFICI
100
AcDbPolyline
 62
7
  6
CONTINUOUS
 90
3
 70
0
 10
163.0634228436
 20
103.189634707
 10
162.9956567761
 20
103.1967288438
 10
162.9269906361
 20
103.1991610209
  0
LINE
  5
48D
100
AcDbEntity
  8
ASSI
100
AcDbLine
 62
253
  6
CONTINUOUS
 10
171.0606555854
 20
97.955979429
 11
171.1761234527
 21
97.9174979568
  0
LINE
  5
48E
100
AcDbEntity
  8
0
100
AcDbLine
 62
253
  6
CONTINUOUS
 10
171.0606555854
 20
97.955979429
 11
171.1761234527
 21
97.9174979568
  0
LINE
  5
48F
100
AcDbEntity
  8
ASSI
100
AcDbLine
 62
253
  6
CONTINUOUS
 10
171.5604842466
 20
98.4559603909
 11
171.6761805927
 21
98.4174027746
  0
LINE
  5
490
100
AcDbEntity
  8
0
100
AcDbLine
 62
253
  6
CONTINUOUS
 10
171.5604842466
 20
98.4559603909
 11
171.6761805927
 21
98.4174027746
  0
LWPOLYLINE
  5
491
100
AcDbEntity
  8
ASSI
100
AcDbPolyline
 62
253
  6
CONTINUOUS
 90
10
 70
0
 10
149.7643303926
 20
119.2425726311
 10
149.7656241578
 20
119.2382201219
 10
149.7668961189
 20
119.230526352
 10
149.768146276
 20
119.2194913216
 10
149.7693811786
 20
119.2050261187
 10
149.7705942771
 20
119.1872196553
 10
149.7717659228
 20
119.1663386662
 10
149.7728949289
 20
119.1423384049
 10
149.7739824821
 20
119.1152636179
 10
149.7750124937
 20
119.0855152806
  0
LWPOLYLINE
  5
492
100
AcDbEntity
  8
0
100
AcDbPolyline
 62
253
  6
CONTINUOUS
 90
10
 70
0
 10
149.7643303926
 20
119.2425726311
 10
149.7656241578
 20
119.2382201219
 10
149.7668961189
 20
119.230526352
 10
149.768146276
 20
119.2194913216
 10
149.7693811786
 20
119.2050261187
 10
149.7705942771
 20
119.1872196553
 10
149.7717659228
 20
119.1663386662
 10
149.7728949289
 20
119.1423384049
 10
149.7739824821
 20
119.1152636179
 10
149.7750124937
 20
119.0855152806
  0
LINE
  5
493
100
AcDbEntity
  8
ASSI
100
AcDbLine
 62
253
  6
CONTINUOUS
 10
171.0898337271
 20
119.7418873997
 11
171.1559457797
 21
119.8742022335
  0
LINE
  5
494
100
AcDbEntity
  8
0
100
AcDbLine
 62
253
  6
CONTINUOUS
 10
171.0898337271
 20
119.7418873997
 11
171.1559457797
 21
119.8742022335
  0
LINE
  5
495
100
AcDbEntity
  8
ASSI
100
AcDbLine
 62
253
  6
CONTINUOUS
 10
149.7643303919
 20
76.1924232813
 11
149.6974205802
 21
76.0585118345
  0
LINE
  5
496
100
AcDbEntity
  8
0
100
AcDbLine
 62
253
  6
CONTINUOUS
 10
149.7643303919
 20
76.1924232813
 11
149.6974205802
 21
76.0585118345
  0
LINE
  5
497
100
AcDbEntity
  8
ASSI
100
AcDbLine
 62
253
  6
CONTINUOUS
 10
171.5896623896
 20
119.2425726323
 11
171.6565722013
 21
119.3764840791
  0
LINE
  5
498
100
AcDbEntity
  8
0
100
AcDbLine
 62
253
  6
CONTINUOUS
 10
171.5896623896
 20
119.2425726323
 11
171.6565722013
 21
119.3764840791
  0
LINE
  5
499
100
AcDbEntity
  8
ASSI
100
AcDbLine
 62
253
  6
CONTINUOUS
 10
150.2641590544
 20
75.693108514
 11
150.1980470018
 21
75.5607936802
  0
LINE
  5
49A
100
AcDbEntity
  8
0
100
AcDbLine
 62
253
  6
CONTINUOUS
 10
150.2641590544
 20
75.693108514
 11
150.1980470018
 21
75.5607936802
  0
LINE
  5
49B
100
AcDbEntity
  8
ASSI
100
AcDbLine
 62
253
  6
CONTINUOUS
 10
171.1559457797
 20
75.5607936802
 11
171.0898337265
 21
75.6931085152
  0
LINE
  5
49C
100
AcDbEntity
  8
0
100
AcDbLine
 62
253
  6
CONTINUOUS
 10
171.1559457797
 20
75.5607936802
 11
171.0898337265
 21
75.6931085152
  0
LINE
  5
49D
100
AcDbEntity
  8
ASSI
100
AcDbLine
 62
253
  6
CONTINUOUS
 10
149.6974205802
 20
119.3764840791
 11
149.7643303926
 21
119.2425726311
  0
LINE
  5
49E
100
AcDbEntity
  8
0
100
AcDbLine
 62
253
  6
CONTINUOUS
 10
149.6974205802
 20
119.3764840791
 11
149.7643303926
 21
119.2425726311
  0
LINE
  5
49F
100
AcDbEntity
  8
ASSI
100
AcDbLine
 62
253
  6
CONTINUOUS
 10
171.6565722013
 20
76.0585118345
 11
171.589662389
 21
76.1924232826
  0
LINE
  5
4A0
100
AcDbEntity
  8
0
100
AcDbLine
 62
253
  6
CONTINUOUS
 10
171.6565722013
 20
76.0585118345
 11
171.589662389
 21
76.1924232826
  0
LINE
  5
4A1
100
AcDbEntity
  8
ASSI
100
AcDbLine
 62
253
  6
CONTINUOUS
 10
150.1980470018
 20
119.8742022335
 11
150.264159055
 21
119.7418873985
  0
LINE
  5
4A2
100
AcDbEntity
  8
0
100
AcDbLine
 62
253
  6
CONTINUOUS
 10
150.1980470018
 20
119.8742022335
 11
150.264159055
 21
119.7418873985
  0
LWPOLYLINE
  5
4A3
100
AcDbEntity
  8
ASSI
100
AcDbPolyline
 62
253
  6
CONTINUOUS
 90
10
 70
0
 10
171.589662389
 20
76.1924232826
 10
171.5883686238
 20
76.1967757918
 10
171.5870966626
 20
76.2044695616
 10
171.5858465056
 20
76.2155045921
 10
171.584611603
 20
76.2299697949
 10
171.5833985044
 20
76.2477762584
 10
171.5822268588
 20
76.2686572474
 10
171.5810978527
 20
76.2926575088
 10
171.5800102995
 20
76.3197322957
 10
171.5789802878
 20
76.349480633
  0
LWPOLYLINE
  5
4A4
100
AcDbEntity
  8
0
100
AcDbPolyline
 62
253
  6
CONTINUOUS
 90
10
 70
0
 10
171.589662389
 20
76.1924232826
 10
171.5883686238
 20
76.1967757918
 10
171.5870966626
 20
76.2044695616
 10
171.5858465056
 20
76.2155045921
 10
171.584611603
 20
76.2299697949
 10
171.5833985044
 20
76.2477762584
 10
171.5822268588
 20
76.2686572474
 10
171.5810978527
 20
76.2926575088
 10
171.5800102995
 20
76.3197322957
 10
171.5789802878
 20
76.349480633
  0
LWPOLYLINE
  5
4A5
100
AcDbEntity
  8
0
100
AcDbPolyline
 62
253
  6
CONTINUOUS
 90
79
 70
0
 10
164.8217933408
 20
87.5470526344
 10
164.8310694761
 20
87.5565401365
 10
164.8398954315
 20
87.5663328877
 10
164.8482836546
 20
87.576422554
 10
164.856246593
 20
87.5868008016
 10
164.8637966946
 20
87.5974592965
 10
164.8709464069
 20
87.6083897048
 10
164.8777049864
 20
87.6195840962
 10
164.8840689246
 20
87.6310361545
 10
164.8900315214
 20
87.6427399673
 10
164.8955860769
 20
87.6546896221
 10
164.9007258914
 20
87.6668792063
 10
164.9054442648
 20
87.6793028076
 10
164.9097330947
 20
87.6919532846
 10
164.9135786677
 20
87.7048185812
 10
164.9169658682
 20
87.7178854122
 10
164.9198784461
 20
87.7311472698
 10
164.9222956153
 20
87.7446247553
 10
164.9241954554
 20
87.758345247
 10
164.9255545152
 20
87.772320954
 10
164.9263432195
 20
87.7865034095
 10
164.9265304619
 20
87.8008289772
 10
164.9260887247
 20
87.8152439925
 10
164.9250048442
 20
87.8297346749
 10
164.9232692451
 20
87.8442972155
 10
164.9208757062
 20
87.8589190041
 10
164.9178314222
 20
87.8735522271
 10
164.914146942
 20
87.8881402698
 10
164.9098328143
 20
87.9026265176
 10
164.904899588
 20
87.9169543558
 10
164.8993578119
 20
87.9310671697
 10
164.8932204079
 20
87.944912816
 10
164.8865097903
 20
87.9584570368
 10
164.8792507465
 20
87.9716700453
 10
164.871468064
 20
87.9845220547
 10
164.8631865303
 20
87.9969832785
 10
164.8544309328
 20
88.0090239298
 10
164.8452207371
 20
88.0206196046
 10
164.8355541215
 20
88.0317674293
 10
164.8254239425
 20
88.0424699128
 10
164.8148230566
 20
88.0527295642
 10
164.8037443204
 20
88.0625488923
 10
164.7921805903
 20
88.0719304062
 10
164.7801333286
 20
88.0808709574
 10
164.7676384209
 20
88.0893447676
 10
164.7547403583
 20
88.097320401
 10
164.7414836322
 20
88.1047664217
 10
164.7279127339
 20
88.1116513941
 10
164.7140721546
 20
88.1179438823
 10
164.7000077662
 20
88.123617181
 10
164.6857709626
 20
88.128663507
 10
164.6714145183
 20
88.1330798076
 10
164.6569912078
 20
88.1368630301
 10
164.6425538055
 20
88.1400101217
 10
164.6281550859
 20
88.1425180297
 10
164.6138383253
 20
88.1443861987
 10
164.5996088074
 20
88.1456240625
 10
164.5854623177
 20
88.146243552
 10
164.5714034634
 20
88.1462590625
 10
164.5574721386
 20
88.1456948463
 10
164.5437170588
 20
88.14457762
 10
164.530175408
 20
88.1429329387
 10
164.5168382433
 20
88.1407817119
 10
164.5036850899
 20
88.1381436878
 10
164.4906996952
 20
88.1350366858
 10
164.4778826951
 20
88.1314708101
 10
164.4652389477
 20
88.1274542363
 10
164.4527746141
 20
88.1229949022
 10
164.4405010681
 20
88.1180997954
 10
164.4284309866
 20
88.1127756657
 10
164.4165770464
 20
88.1070292629
 10
164.4049519245
 20
88.100867337
 10
164.3935682977
 20
88.0942966377
 10
164.3824380053
 20
88.0873203807
 10
164.371569536
 20
88.0799276445
 10
164.3609705409
 20
88.0721039731
 10
164.3506486708
 20
88.0638349107
 10
164.3406115769
 20
88.0551060016
 10
164.3308669103
 20
88.0459027898
  0
LWPOLYLINE
  5
4A6
100
AcDbEntity
  8
0
100
AcDbPolyline
 62
253
  6
CONTINUOUS
 90
16
 70
0
 10
164.3308669103
 20
88.0459027898
 10
164.1079279456
 20
87.8287157233
 10
163.8828263619
 20
87.6140450018
 10
163.6555500352
 20
87.4018698962
 10
163.4260868412
 20
87.1921696773
 10
163.1944246557
 20
86.984923616
 10
162.9605625609
 20
86.7801218767
 10
162.7245444635
 20
86.5777981965
 10
162.4864254762
 20
86.3779972063
 10
162.2462607121
 20
86.1807635368
 10
162.0041052841
 20
85.9861418185
 10
161.7600016294
 20
85.7941675224
 10
161.5139414832
 20
85.6048394806
 10
161.2659039051
 20
85.4181473652
 10
161.0158679547
 20
85.2340808485
 10
160.7638126917
 20
85.0526296028
  0
LWPOLYLINE
  5
4A7
100
AcDbEntity
  8
0
100
AcDbPolyline
 62
253
  6
CONTINUOUS
 90
16
 70
0
 10
161.0804171756
 20
84.41924838
 10
161.3449950944
 20
84.6082682834
 10
161.6074356461
 20
84.8001098114
 10
161.8677670223
 20
84.9947901706
 10
162.1260174146
 20
85.1923265679
 10
162.3822150143
 20
85.3927362099
 10
162.6363702676
 20
85.5960228248
 10
162.8884226382
 20
85.8021362269
 10
163.1382938442
 20
86.0110127521
 10
163.385905604
 20
86.2225887364
 10
163.6311796358
 20
86.4368005155
 10
163.8740540523
 20
86.6535995018
 10
164.1145325451
 20
86.8729974128
 10
164.3526352001
 20
87.0950210426
 10
164.5883821033
 20
87.3196971851
 10
164.8217933408
 20
87.5470526344
  0
LWPOLYLINE
  5
4A8
100
AcDbEntity
  8
0
100
AcDbPolyline
 62
253
  6
CONTINUOUS
 90
46
 70
0
 10
160.7638126917
 20
85.0526296028
 10
160.7603912381
 20
85.0502809374
 10
160.7569577055
 20
85.0480429058
 10
160.7535067876
 20
85.0459134026
 10
160.7500331783
 20
85.0438903222
 10
160.7465315713
 20
85.0419715592
 10
160.7429966603
 20
85.0401550079
 10
160.7394243791
 20
85.0384390391
 10
160.7358156211
 20
85.036823928
 10
160.7321725196
 20
85.0353104258
 10
160.7284972082
 20
85.0338992839
 10
160.7247918201
 20
85.0325912537
 10
160.7210584887
 20
85.0313870866
 10
160.7172995473
 20
85.0302872655
 10
160.7135181281
 20
85.0292912007
 10
160.7097175633
 20
85.0283980341
 10
160.705901185
 20
85.0276069076
 10
160.7020723253
 20
85.0269169632
 10
160.6982343163
 20
85.0263273427
 10
160.6943903252
 20
85.0258372511
 10
160.6905428599
 20
85.0254461451
 10
160.6866942635
 20
85.0251535444
 10
160.6828468788
 20
85.0249589689
 10
160.6790030489
 20
85.0248619381
 10
160.6751651168
 20
85.0248619719
 10
160.6705704817
 20
85.0249895375
 10
160.6659905584
 20
85.0252558113
 10
160.661428192
 20
85.0256604202
 10
160.6568862277
 20
85.0262029909
 10
160.6523675104
 20
85.0268831504
 10
160.6478752369
 20
85.0277003625
 10
160.6434140104
 20
85.0286534392
 10
160.6389887854
 20
85.0297410296
 10
160.6346045167
 20
85.0309617828
 10
160.630266159
 20
85.0323143478
 10
160.6259782179
 20
85.0337969848
 10
160.6217434024
 20
85.0354063978
 10
160.6175639728
 20
85.037138902
 10
160.613442189
 20
85.0389908126
 10
160.6093803112
 20
85.0409584447
 10
160.6060418173
 20
85.042684925
 10
160.6027418754
 20
85.0444933579
 10
160.599475867
 20
85.0463878928
 10
160.5962391732
 20
85.048372679
 10
160.5930271754
 20
85.0504518659
 10
160.5898352549
 20
85.0526296028
  0
LWPOLYLINE
  5
4A9
100
AcDbEntity
  8
0
100
AcDbPolyline
 62
253
  6
CONTINUOUS
 90
51
 70
0
 10
161.0811065204
 20
111.0157475337
 10
161.0670608736
 20
111.0253687173
 10
161.0528558484
 20
111.0345863161
 10
161.0384738684
 20
111.0434184331
 10
161.0238973573
 20
111.0518831713
 10
161.0091087387
 20
111.0599986336
 10
160.9940932068
 20
111.0677791889
 10
160.9788470378
 20
111.0752242691
 10
160.9633692786
 20
111.0823295718
 10
160.9476589759
 20
111.0890907948
 10
160.9317151765
 20
111.0955036358
 10
160.9155409403
 20
111.1015625216
 10
160.8991553797
 20
111.1072567962
 10
160.8825816202
 20
111.1125745324
 10
160.8658427871
 20
111.1175038034
 10
160.8489620061
 20
111.1220326821
 10
160.8319615025
 20
111.1261504334
 10
160.8148599014
 20
111.1298510893
 10
160.7976749279
 20
111.1331298736
 10
160.7804243071
 20
111.1359820101
 10
160.7631257641
 20
111.1384027226
 10
160.7457951764
 20
111.1403875323
 10
160.7284410323
 20
111.1419331506
 10
160.7110699723
 20
111.143036586
 10
160.693688637
 20
111.1436948473
 10
160.6763036672
 20
111.1439049431
 10
160.6589212163
 20
111.1436648138
 10
160.6415454885
 20
111.1429761265
 10
160.6241802011
 20
111.1418414801
 10
160.6068290711
 20
111.1402634733
 10
160.5894958158
 20
111.138244705
 10
160.5721871506
 20
111.1357881806
 10
160.5549217851
 20
111.1328985322
 10
160.5377214271
 20
111.1295807985
 10
160.5206077847
 20
111.125840018
 10
160.5036025657
 20
111.1216812294
 10
160.4867282573
 20
111.1171110439
 10
160.4700104629
 20
111.1121423621
 10
160.4534755655
 20
111.1067896573
 10
160.4371499477
 20
111.1010674026
 10
160.4210599924
 20
111.0949900713
 10
160.4052270172
 20
111.0885704617
 10
160.3896520797
 20
111.0818146725
 10
160.3743311725
 20
111.0747271277
 10
160.3592602882
 20
111.0673122511
 10
160.3444354193
 20
111.0595744666
 10
160.3298502748
 20
111.0515146043
 10
160.3154894299
 20
111.0431191189
 10
160.3013351757
 20
111.0343708714
 10
160.287369804
 20
111.0252527226
 10
160.273575606
 20
111.0157475337
  0
LWPOLYLINE
  5
4AA
100
AcDbEntity
  8
0
100
AcDbPolyline
 62
253
  6
CONTINUOUS
 90
16
 70
0
 10
160.7641575267
 20
110.3823663109
 10
161.0161761282
 20
110.2009478326
 10
161.2662105314
 20
110.0168973408
 10
161.5142990564
 20
109.8301845046
 10
161.7604800232
 20
109.6407789937
 10
162.0047917519
 20
109.4486504772
 10
162.2472471248
 20
109.2537894697
 10
162.4877572719
 20
109.0562698661
 10
162.7262078856
 20
108.8561864063
 10
162.9624846581
 20
108.6536338302
 10
163.1964732819
 20
108.4487068776
 10
163.4280843958
 20
108.2414788547
 10
163.6573284262
 20
108.0319373316
 10
163.8842407459
 20
107.8200484446
 10
164.108856728
 20
107.6057783299
 10
164.3312117453
 20
107.3890931239
  0
LWPOLYLINE
  5
4AB
100
AcDbEntity
  8
0
100
AcDbPolyline
 62
253
  6
CONTINUOUS
 90
79
 70
0
 10
164.3312117453
 20
107.3890931239
 10
164.3408700902
 20
107.3800121291
 10
164.350822444
 20
107.3713822484
 10
164.3610609892
 20
107.3631912292
 10
164.3715779082
 20
107.3554268188
 10
164.3823653837
 20
107.3480767647
 10
164.3934155982
 20
107.341128814
 10
164.4047210782
 20
107.334573864
 10
164.4162757273
 20
107.3284154102
 10
164.4280737929
 20
107.3226600982
 10
164.4401095226
 20
107.3173145732
 10
164.4523771639
 20
107.3123854807
 10
164.4648709644
 20
107.3078794661
 10
164.4775838987
 20
107.3038045585
 10
164.4905038504
 20
107.3001743228
 10
164.5036174301
 20
107.2970037074
 10
164.5169180147
 20
107.294308881
 10
164.530426046
 20
107.2921108934
 10
164.5441687317
 20
107.2904320145
 10
164.5581580958
 20
107.2892958021
 10
164.5723454254
 20
107.2887309646
 10
164.5866668238
 20
107.2887674979
 10
164.6010683603
 20
107.2894319908
 10
164.6155359687
 20
107.2907374023
 10
164.6300655492
 20
107.2926932844
 10
164.6446442953
 20
107.2953057418
 10
164.6592245743
 20
107.2985670907
 10
164.6737500469
 20
107.3024662007
 10
164.6881643738
 20
107.3069919411
 10
164.702411216
 20
107.3121331811
 10
164.716434234
 20
107.3178787902
 10
164.7301815434
 20
107.3242153611
 10
164.7436190778
 20
107.3311203801
 10
164.7567172257
 20
107.3385690572
 10
164.7694463756
 20
107.3465366021
 10
164.7817769158
 20
107.3549982246
 10
164.7936792347
 20
107.3639291345
 10
164.8051290181
 20
107.373309824
 10
164.8161231407
 20
107.3831419147
 10
164.8266637744
 20
107.3934323103
 10
164.8367530912
 20
107.404187915
 10
164.8463932632
 20
107.4154156325
 10
164.8555864624
 20
107.4271223667
 10
164.8643294402
 20
107.4393063542
 10
164.8725972665
 20
107.4519311613
 10
164.8803595908
 20
107.4649516871
 10
164.8875860625
 20
107.4783228304
 10
164.8942463309
 20
107.4919994904
 10
164.9003100456
 20
107.5059365658
 10
164.9057515784
 20
107.5200876593
 10
164.9105641913
 20
107.5344011875
 10
164.9147458686
 20
107.5488242705
 10
164.9182945949
 20
107.5633040286
 10
164.9212083545
 20
107.577787582
 10
164.9234851319
 20
107.5922220508
 10
164.9251252487
 20
107.6065641101
 10
164.9261383752
 20
107.6208086551
 10
164.9265365191
 20
107.6349601355
 10
164.9263342351
 20
107.6490142308
 10
164.9255562666
 20
107.6629315388
 10
164.9242299041
 20
107.6766638868
 10
164.9223810988
 20
107.6901746022
 10
164.9200304449
 20
107.7034730134
 10
164.9171971972
 20
107.7165799486
 10
164.9138987484
 20
107.7295120011
 10
164.9101450439
 20
107.7422688238
 10
164.9059441668
 20
107.7548458344
 10
164.9013039964
 20
107.767237117
 10
164.8962315965
 20
107.7794314219
 10
164.8907338271
 20
107.7914161656
 10
164.8848175481
 20
107.803178765
 10
164.8784896194
 20
107.8147066367
 10
164.871756901
 20
107.8259871973
 10
164.8646227273
 20
107.8370086548
 10
164.8570763317
 20
107.8477623823
 10
164.8491034219
 20
107.8582405442
 10
164.8406897057
 20
107.8684353047
 10
164.831820891
 20
107.8783388282
 10
164.8224826856
 20
107.8879432792
  0
LWPOLYLINE
  5
4AC
100
AcDbEntity
  8
0
100
AcDbPolyline
 62
253
  6
CONTINUOUS
 90
16
 70
0
 10
164.8224826856
 20
107.8879432792
 10
164.589010694
 20
108.1152954258
 10
164.3532121657
 20
108.3399686122
 10
164.1150672441
 20
108.5619893885
 10
163.8745560728
 20
108.7813843047
 10
163.6316587955
 20
108.9981799106
 10
163.3863717769
 20
109.2123878224
 10
163.1387562673
 20
109.4239599202
 10
162.8888897385
 20
109.63283315
 10
162.636849662
 20
109.8389444579
 10
162.3827135094
 20
110.0422307901
 10
162.1265411796
 20
110.2426424255
 10
161.8683222806
 20
110.4401829745
 10
161.6080288475
 20
110.6348693801
 10
161.3456329157
 20
110.8267185854
 10
161.0811065204
 20
111.0157475337
  0
LINE
  5
4AD
100
AcDbEntity
  8
ASSI
100
AcDbLine
 62
7
  6
CONTINUOUS
 10
168.4855531397
 20
119.8742022335
 11
168.1347314177
 21
119.8423571156
  0
LINE
  5
4AE
100
AcDbEntity
  8
0
100
AcDbLine
 62
7
  6
CONTINUOUS
 10
168.4855531397
 20
119.8742022335
 11
168.1347314177
 21
119.8423571156
  0
LWPOLYLINE
  5
4AF
100
AcDbEntity
  8
ASSI
100
AcDbPolyline
 62
253
  6
CONTINUOUS
 90
14
 70
0
 10
150.1510938168
 20
118.5939584423
 10
150.1042564735
 20
118.5932523608
 10
150.0591384982
 20
118.5923530489
 10
150.0161773508
 20
118.5912692264
 10
149.975789579
 20
118.5900114018
 10
149.9383667791
 20
118.5885917709
 10
149.9042717995
 20
118.5870240984
 10
149.8738352223
 20
118.5853235841
 10
149.8473521578
 20
118.5835067162
 10
149.8250793836
 20
118.5815911109
 10
149.8072328547
 20
118.5795953417
 10
149.7939856095
 20
118.5775387594
 10
149.7854660921
 20
118.5754413045
 10
149.7817569071
 20
118.5733233137
  0
LWPOLYLINE
  5
4B0
100
AcDbEntity
  8
0
100
AcDbPolyline
 62
253
  6
CONTINUOUS
 90
14
 70
0
 10
150.1510938168
 20
118.5939584423
 10
150.1042564735
 20
118.5932523608
 10
150.0591384982
 20
118.5923530489
 10
150.0161773508
 20
118.5912692264
 10
149.975789579
 20
118.5900114018
 10
149.9383667791
 20
118.5885917709
 10
149.9042717995
 20
118.5870240984
 10
149.8738352223
 20
118.5853235841
 10
149.8473521578
 20
118.5835067162
 10
149.8250793836
 20
118.5815911109
 10
149.8072328547
 20
118.5795953417
 10
149.7939856095
 20
118.5775387594
 10
149.7854660921
 20
118.5754413045
 10
149.7817569071
 20
118.5733233137
  0
LINE
  5
4B1
100
AcDbEntity
  8
ASSI
100
AcDbLine
 62
253
  6
CONTINUOUS
 10
150.2480978156
 20
118.5947654698
 11
150.1510938168
 21
118.5939584423
  0
LINE
  5
4B2
100
AcDbEntity
  8
0
100
AcDbLine
 62
253
  6
CONTINUOUS
 10
150.2480978156
 20
118.5947654698
 11
150.1510938168
 21
118.5939584423
  0
LINE
  5
4B3
100
AcDbEntity
  8
ASSI
100
AcDbLine
 62
253
  6
CONTINUOUS
 10
171.1058949675
 20
118.5947654383
 11
166.3789890178
 21
118.5897862022
  0
LINE
  5
4B4
100
AcDbEntity
  8
0
100
AcDbLine
 62
253
  6
CONTINUOUS
 10
171.1058949675
 20
118.5947654383
 11
166.3789890178
 21
118.5897862022
  0
LINE
  5
4B5
100
AcDbEntity
  8
ASSI
100
AcDbLine
 62
253
  6
CONTINUOUS
 10
148.9058949675
 20
118.5947654383
 11
143.5030745655
 21
118.5893133922
  0
LINE
  5
4B6
100
AcDbEntity
  8
0
100
AcDbLine
 62
253
  6
CONTINUOUS
 10
148.9058949675
 20
118.5947654383
 11
143.5030745655
 21
118.5893133922
  0
LINE
  5
4B7
100
AcDbEntity
  8
ASSI
100
AcDbLine
 62
253
  6
CONTINUOUS
 10
166.3789890178
 20
118.5897862022
 11
161.6465649018
 21
118.5877283292
  0
LINE
  5
4B8
100
AcDbEntity
  8
0
100
AcDbLine
 62
253
  6
CONTINUOUS
 10
166.3789890178
 20
118.5897862022
 11
161.6465649018
 21
118.5877283292
  0
LINE
  5
4B9
100
AcDbEntity
  8
ASSI
100
AcDbLine
 62
253
  6
CONTINUOUS
 10
143.5030745655
 20
118.5893133922
 11
136.7459623839
 21
118.5878622472
  0
LINE
  5
4BA
100
AcDbEntity
  8
0
100
AcDbLine
 62
253
  6
CONTINUOUS
 10
143.5030745655
 20
118.5893133922
 11
136.7459623839
 21
118.5878622472
  0
LINE
  5
4BB
100
AcDbEntity
  8
ASSI
100
AcDbLine
 62
253
  6
CONTINUOUS
 10
161.6465649018
 20
118.5877283292
 11
156.231263774
 21
118.5889541594
  0
LINE
  5
4BC
100
AcDbEntity
  8
0
100
AcDbLine
 62
253
  6
CONTINUOUS
 10
161.6465649018
 20
118.5877283292
 11
156.231263774
 21
118.5889541594
  0
LINE
  5
4BD
100
AcDbEntity
  8
ASSI
100
AcDbLine
 62
253
  6
CONTINUOUS
 10
136.7459623839
 20
118.5878622472
 11
131.1893617207
 21
118.5911261107
  0
LINE
  5
4BE
100
AcDbEntity
  8
0
100
AcDbLine
 62
253
  6
CONTINUOUS
 10
136.7459623839
 20
118.5878622472
 11
131.1893617207
 21
118.5911261107
  0
LWPOLYLINE
  5
4BF
100
AcDbEntity
  8
ASSI
100
AcDbPolyline
 62
253
  6
CONTINUOUS
 90
3
 70
0
 10
156.231263774
 20
118.5889541594
 10
151.0654821835
 20
118.5937060355
 10
150.2480978155
 20
118.5947654559
  0
LWPOLYLINE
  5
4C0
100
AcDbEntity
  8
0
100
AcDbPolyline
 62
253
  6
CONTINUOUS
 90
3
 70
0
 10
156.231263774
 20
118.5889541594
 10
151.0654821835
 20
118.5937060355
 10
150.2480978155
 20
118.5947654559
  0
LINE
  5
4C1
100
AcDbEntity
  8
ASSI
100
AcDbLine
 62
253
  6
CONTINUOUS
 10
131.1893617207
 20
118.5911261107
 11
128.0480978155
 21
118.5947654559
  0
LINE
  5
4C2
100
AcDbEntity
  8
0
100
AcDbLine
 62
253
  6
CONTINUOUS
 10
131.1893617207
 20
118.5911261107
 11
128.0480978155
 21
118.5947654559
  0
LWPOLYLINE
  5
4C3
100
AcDbEntity
  8
ASSI
100
AcDbPolyline
 62
253
  6
CONTINUOUS
 90
15
 70
0
 10
148.9058941161
 20
118.5947649233
 10
149.0028972058
 20
118.5939579215
 10
149.0497341542
 20
118.5932518617
 10
149.0948517917
 20
118.5923525772
 10
149.1378126705
 20
118.591268787
 10
149.1782002536
 20
118.590010999
 10
149.2156229542
 20
118.5885914083
 10
149.2497179323
 20
118.587023779
 10
149.2801546123
 20
118.5853233102
 10
149.3066378887
 20
118.5835064894
 10
149.3289109869
 20
118.5815909318
 10
149.3467579532
 20
118.5795952102
 10
149.3600057483
 20
118.5775386746
 10
149.3685259252
 20
118.5754412645
 10
149.3722358747
 20
118.5733233158
  0
LWPOLYLINE
  5
4C4
100
AcDbEntity
  8
0
100
AcDbPolyline
 62
253
  6
CONTINUOUS
 90
15
 70
0
 10
148.9058941161
 20
118.5947649233
 10
149.0028972058
 20
118.5939579215
 10
149.0497341542
 20
118.5932518617
 10
149.0948517917
 20
118.5923525772
 10
149.1378126705
 20
118.591268787
 10
149.1782002536
 20
118.590010999
 10
149.2156229542
 20
118.5885914083
 10
149.2497179323
 20
118.587023779
 10
149.2801546123
 20
118.5853233102
 10
149.3066378887
 20
118.5835064894
 10
149.3289109869
 20
118.5815909318
 10
149.3467579532
 20
118.5795952102
 10
149.3600057483
 20
118.5775386746
 10
149.3685259252
 20
118.5754412645
 10
149.3722358747
 20
118.5733233158
  0
LINE
  5
4C5
100
AcDbEntity
  8
ASSI
100
AcDbLine
 62
7
  6
CONTINUOUS
 10
130.6684396419
 20
119.8742022335
 11
131.0192613639
 21
119.8423571156
  0
LINE
  5
4C6
100
AcDbEntity
  8
0
100
AcDbLine
 62
7
  6
CONTINUOUS
 10
130.6684396419
 20
119.8742022335
 11
131.0192613639
 21
119.8423571156
  0
LWPOLYLINE
  5
4C7
100
AcDbEntity
  8
ASSI
100
AcDbPolyline
 62
253
  6
CONTINUOUS
 90
8
 70
0
 10
171.0892748464
 20
97.3487270975
 10
171.0856356891
 20
97.3818255859
 10
171.0817047222
 20
97.4104679269
 10
171.0780548538
 20
97.4343902398
 10
171.0737822936
 20
97.4534295325
 10
171.0688893753
 20
97.467328394
 10
171.0643512672
 20
97.4758744292
 10
171.0606555867
 20
97.4790164851
  0
LWPOLYLINE
  5
4C8
100
AcDbEntity
  8
0
100
AcDbPolyline
 62
253
  6
CONTINUOUS
 90
8
 70
0
 10
171.0892748464
 20
97.3487270975
 10
171.0856356891
 20
97.3818255859
 10
171.0817047222
 20
97.4104679269
 10
171.0780548538
 20
97.4343902398
 10
171.0737822936
 20
97.4534295325
 10
171.0688893753
 20
97.467328394
 10
171.0643512672
 20
97.4758744292
 10
171.0606555867
 20
97.4790164851
  0
LWPOLYLINE
  5
4C9
100
AcDbEntity
  8
ASSI
100
AcDbPolyline
 62
253
  6
CONTINUOUS
 90
16
 70
0
 10
171.5604842492
 20
96.9790355236
 10
171.5577987117
 20
97.0306814635
 10
171.5497585409
 20
97.0819454559
 10
171.5363969278
 20
97.132266968
 10
171.5177830051
 20
97.181139209
 10
171.4940813818
 20
97.22795165
 10
171.4656057907
 20
97.2720237894
 10
171.4327109549
 20
97.3128238402
 10
171.395727124
 20
97.3499570751
 10
171.3550498776
 20
97.3830228833
 10
171.3111157753
 20
97.4116588041
 10
171.2644125593
 20
97.4355398988
 10
171.2154658475
 20
97.4543948679
 10
171.1648191479
 20
97.468015098
 10
171.1130256773
 20
97.4762525423
 10
171.0606555867
 20
97.4790164851
  0
LWPOLYLINE
  5
4CA
100
AcDbEntity
  8
0
100
AcDbPolyline
 62
253
  6
CONTINUOUS
 90
16
 70
0
 10
171.5604842492
 20
96.9790355236
 10
171.5577987117
 20
97.0306814635
 10
171.5497585409
 20
97.0819454559
 10
171.5363969278
 20
97.132266968
 10
171.5177830051
 20
97.181139209
 10
171.4940813818
 20
97.22795165
 10
171.4656057907
 20
97.2720237894
 10
171.4327109549
 20
97.3128238402
 10
171.395727124
 20
97.3499570751
 10
171.3550498776
 20
97.3830228833
 10
171.3111157753
 20
97.4116588041
 10
171.2644125593
 20
97.4355398988
 10
171.2154658475
 20
97.4543948679
 10
171.1648191479
 20
97.468015098
 10
171.1130256773
 20
97.4762525423
 10
171.0606555867
 20
97.4790164851
  0
LWPOLYLINE
  5
4CB
100
AcDbEntity
  8
ASSI
100
AcDbPolyline
 62
253
  6
CONTINUOUS
 90
4
 70
0
 10
171.0995811461
 20
97.1804693583
 10
171.097780152
 20
97.2271802589
 10
171.0950659745
 20
97.2711503434
 10
171.0892748464
 20
97.3487270975
  0
LWPOLYLINE
  5
4CC
100
AcDbEntity
  8
0
100
AcDbPolyline
 62
253
  6
CONTINUOUS
 90
4
 70
0
 10
171.0995811461
 20
97.1804693583
 10
171.097780152
 20
97.2271802589
 10
171.0950659745
 20
97.2711503434
 10
171.0892748464
 20
97.3487270975
  0
LWPOLYLINE
  5
4CD
100
AcDbEntity
  8
ASSI
100
AcDbPolyline
 62
253
  6
CONTINUOUS
 90
6
 70
0
 10
171.0951912999
 20
119.6468918848
 10
171.0941591685
 20
119.6773093612
 10
171.0930864036
 20
119.7021290115
 10
171.091978942
 20
119.7212257902
 10
171.0908854235
 20
119.7345014621
 10
171.0898337271
 20
119.7418873997
  0
LWPOLYLINE
  5
4CE
100
AcDbEntity
  8
0
100
AcDbPolyline
 62
253
  6
CONTINUOUS
 90
6
 70
0
 10
171.0951912999
 20
119.6468918848
 10
171.0941591685
 20
119.6773093612
 10
171.0930864036
 20
119.7021290115
 10
171.091978942
 20
119.7212257902
 10
171.0908854235
 20
119.7345014621
 10
171.0898337271
 20
119.7418873997
  0
LINE
  5
4CF
100
AcDbEntity
  8
ASSI
100
AcDbLine
 62
253
  6
CONTINUOUS
 10
171.5789802878
 20
76.349480633
 11
171.5770946008
 21
76.4170812537
  0
LINE
  5
4D0
100
AcDbEntity
  8
0
100
AcDbLine
 62
253
  6
CONTINUOUS
 10
171.5789802878
 20
76.349480633
 11
171.5770946008
 21
76.4170812537
  0
LINE
  5
4D1
100
AcDbEntity
  8
ASSI
100
AcDbLine
 62
253
  6
CONTINUOUS
 10
171.0972207271
 20
119.5698871139
 11
171.0951912999
 21
119.6468918848
  0
LINE
  5
4D2
100
AcDbEntity
  8
0
100
AcDbLine
 62
253
  6
CONTINUOUS
 10
171.0972207271
 20
119.5698871139
 11
171.0951912999
 21
119.6468918848
  0
LINE
  5
4D3
100
AcDbEntity
  8
ASSI
100
AcDbLine
 62
253
  6
CONTINUOUS
 10
171.5770946008
 20
76.4170812537
 11
171.5754807786
 21
76.4938279995
  0
LINE
  5
4D4
100
AcDbEntity
  8
0
100
AcDbLine
 62
253
  6
CONTINUOUS
 10
171.5770946008
 20
76.4170812537
 11
171.5754807786
 21
76.4938279995
  0
LINE
  5
4D5
100
AcDbEntity
  8
ASSI
100
AcDbLine
 62
253
  6
CONTINUOUS
 10
171.0990945425
 20
119.472642046
 11
171.0972207271
 21
119.5698871139
  0
LINE
  5
4D6
100
AcDbEntity
  8
0
100
AcDbLine
 62
253
  6
CONTINUOUS
 10
171.0990945425
 20
119.472642046
 11
171.0972207271
 21
119.5698871139
  0
LINE
  5
4D7
100
AcDbEntity
  8
ASSI
100
AcDbLine
 62
253
  6
CONTINUOUS
 10
171.5754807786
 20
76.4938279995
 11
171.5741624623
 21
76.5785800014
  0
LINE
  5
4D8
100
AcDbEntity
  8
0
100
AcDbLine
 62
253
  6
CONTINUOUS
 10
171.5754807786
 20
76.4938279995
 11
171.5741624623
 21
76.5785800014
  0
LINE
  5
4D9
100
AcDbEntity
  8
ASSI
100
AcDbLine
 62
253
  6
CONTINUOUS
 10
171.101594002
 20
119.2931706944
 11
171.0990945425
 21
119.472642046
  0
LINE
  5
4DA
100
AcDbEntity
  8
0
100
AcDbLine
 62
253
  6
CONTINUOUS
 10
171.101594002
 20
119.2931706944
 11
171.0990945425
 21
119.472642046
  0
LINE
  5
4DB
100
AcDbEntity
  8
ASSI
100
AcDbLine
 62
253
  6
CONTINUOUS
 10
171.5741624623
 20
76.5785800014
 11
171.5728039778
 21
76.7165881608
  0
LINE
  5
4DC
100
AcDbEntity
  8
0
100
AcDbLine
 62
253
  6
CONTINUOUS
 10
171.5741624623
 20
76.5785800014
 11
171.5728039778
 21
76.7165881608
  0
LINE
  5
4DD
100
AcDbEntity
  8
ASSI
100
AcDbLine
 62
253
  6
CONTINUOUS
 10
171.1041674302
 20
119.0039834708
 11
171.101594002
 21
119.2931706944
  0
LINE
  5
4DE
100
AcDbEntity
  8
0
100
AcDbLine
 62
253
  6
CONTINUOUS
 10
171.1041674302
 20
119.0039834708
 11
171.101594002
 21
119.2931706944
  0
LWPOLYLINE
  5
4DF
100
AcDbEntity
  8
ASSI
100
AcDbPolyline
 62
253
  6
CONTINUOUS
 90
3
 70
0
 10
171.1033219764
 20
98.4567186171
 10
171.103546743
 20
98.4037306839
 10
171.1026941099
 20
98.3524808374
  0
LWPOLYLINE
  5
4E0
100
AcDbEntity
  8
0
100
AcDbPolyline
 62
253
  6
CONTINUOUS
 90
3
 70
0
 10
171.1033219764
 20
98.4567186171
 10
171.103546743
 20
98.4037306839
 10
171.1026941099
 20
98.3524808374
  0
LINE
  5
4E1
100
AcDbEntity
  8
ASSI
100
AcDbLine
 62
253
  6
CONTINUOUS
 10
171.1058949728
 20
118.5947654374
 11
171.1041674302
 21
119.0039834708
  0
LINE
  5
4E2
100
AcDbEntity
  8
0
100
AcDbLine
 62
253
  6
CONTINUOUS
 10
171.1058949728
 20
118.5947654374
 11
171.1041674302
 21
119.0039834708
  0
LINE
  5
4E3
100
AcDbEntity
  8
ASSI
100
AcDbLine
 62
7
  6
CONTINUOUS
 10
171.6565722013
 20
119.3764840791
 11
171.6761805927
 21
110.8174979568
  0
LINE
  5
4E4
100
AcDbEntity
  8
0
100
AcDbLine
 62
7
  6
CONTINUOUS
 10
171.6565722013
 20
119.3764840791
 11
171.6761805927
 21
110.8174979568
  0
LINE
  5
4E5
100
AcDbEntity
  8
ASSI
100
AcDbLine
 62
253
  6
CONTINUOUS
 10
171.5728039778
 20
76.7165881608
 11
171.5722358744
 21
76.8616726
  0
LINE
  5
4E6
100
AcDbEntity
  8
0
100
AcDbLine
 62
253
  6
CONTINUOUS
 10
171.5728039778
 20
76.7165881608
 11
171.5722358744
 21
76.8616726
  0
LINE
  5
4E7
100
AcDbEntity
  8
ASSI
100
AcDbLine
 62
253
  6
CONTINUOUS
 10
171.5722358744
 20
76.8616726
 11
171.5642548095
 21
85.8571955674
  0
LINE
  5
4E8
100
AcDbEntity
  8
0
100
AcDbLine
 62
253
  6
CONTINUOUS
 10
171.5722358744
 20
76.8616726
 11
171.5642548095
 21
85.8571955674
  0
LWPOLYLINE
  5
4E9
100
AcDbEntity
  8
ASSI
100
AcDbPolyline
 62
253
  6
CONTINUOUS
 90
3
 70
0
 10
171.5642548095
 20
85.8571955674
 10
171.5607432001
 20
94.6699954424
 10
171.5604842492
 20
96.9790355236
  0
LWPOLYLINE
  5
4EA
100
AcDbEntity
  8
0
100
AcDbPolyline
 62
253
  6
CONTINUOUS
 90
3
 70
0
 10
171.5642548095
 20
85.8571955674
 10
171.5607432001
 20
94.6699954424
 10
171.5604842492
 20
96.9790355236
  0
LINE
  5
4EB
100
AcDbEntity
  8
ASSI
100
AcDbLine
 62
7
  6
CONTINUOUS
 10
171.6761805927
 20
110.8174979568
 11
171.6761805927
 21
98.4174027746
  0
LINE
  5
4EC
100
AcDbEntity
  8
0
100
AcDbLine
 62
7
  6
CONTINUOUS
 10
171.6761805927
 20
110.8174979568
 11
171.6761805927
 21
98.4174027746
  0
LINE
  5
4ED
100
AcDbEntity
  8
ASSI
100
AcDbLine
 62
7
  6
CONTINUOUS
 10
171.6761805927
 20
84.6174979568
 11
171.6761805927
 21
97.017593139
  0
LINE
  5
4EE
100
AcDbEntity
  8
0
100
AcDbLine
 62
7
  6
CONTINUOUS
 10
171.6761805927
 20
84.6174979568
 11
171.6761805927
 21
97.017593139
  0
LINE
  5
4EF
100
AcDbEntity
  8
ASSI
100
AcDbLine
 62
253
  6
CONTINUOUS
 10
171.1033217605
 20
98.4567186207
 11
171.1058949675
 21
118.5947654383
  0
LINE
  5
4F0
100
AcDbEntity
  8
0
100
AcDbLine
 62
253
  6
CONTINUOUS
 10
171.1033217605
 20
98.4567186207
 11
171.1058949675
 21
118.5947654383
  0
LINE
  5
4F1
100
AcDbEntity
  8
ASSI
100
AcDbLine
 62
253
  6
CONTINUOUS
 10
171.5604842466
 20
98.4559603909
 11
171.563923728
 21
109.0510994353
  0
LINE
  5
4F2
100
AcDbEntity
  8
0
100
AcDbLine
 62
253
  6
CONTINUOUS
 10
171.5604842466
 20
98.4559603909
 11
171.563923728
 21
109.0510994353
  0
LINE
  5
4F3
100
AcDbEntity
  8
ASSI
100
AcDbLine
 62
7
  6
CONTINUOUS
 10
171.6565722013
 20
76.0585118345
 11
171.6761805927
 21
84.6174979568
  0
LINE
  5
4F4
100
AcDbEntity
  8
0
100
AcDbLine
 62
7
  6
CONTINUOUS
 10
171.6565722013
 20
76.0585118345
 11
171.6761805927
 21
84.6174979568
  0
LINE
  5
4F5
100
AcDbEntity
  8
ASSI
100
AcDbLine
 62
253
  6
CONTINUOUS
 10
171.1054215526
 20
76.6728884067
 11
171.1033217721
 21
96.9782772875
  0
LINE
  5
4F6
100
AcDbEntity
  8
0
100
AcDbLine
 62
253
  6
CONTINUOUS
 10
171.1054215526
 20
76.6728884067
 11
171.1033217721
 21
96.9782772875
  0
LINE
  5
4F7
100
AcDbEntity
  8
ASSI
100
AcDbLine
 62
253
  6
CONTINUOUS
 10
171.563923728
 20
109.0510994353
 11
171.5725267905
 21
118.6708325285
  0
LINE
  5
4F8
100
AcDbEntity
  8
0
100
AcDbLine
 62
253
  6
CONTINUOUS
 10
171.563923728
 20
109.0510994353
 11
171.5725267905
 21
118.6708325285
  0
LWPOLYLINE
  5
4F9
100
AcDbEntity
  8
ASSI
100
AcDbPolyline
 62
253
  6
CONTINUOUS
 90
4
 70
0
 10
171.1033219791
 20
96.9782772854
 10
171.103546617
 20
97.0312632216
 10
171.1026940651
 20
97.0825113942
 10
171.0995811461
 20
97.1804693583
  0
LWPOLYLINE
  5
4FA
100
AcDbEntity
  8
0
100
AcDbPolyline
 62
253
  6
CONTINUOUS
 90
4
 70
0
 10
171.1033219791
 20
96.9782772854
 10
171.103546617
 20
97.0312632216
 10
171.1026940651
 20
97.0825113942
 10
171.0995811461
 20
97.1804693583
  0
LINE
  5
4FB
100
AcDbEntity
  8
ASSI
100
AcDbLine
 62
253
  6
CONTINUOUS
 10
171.1029961924
 20
76.2804219763
 11
171.1054215526
 21
76.6728884067
  0
LINE
  5
4FC
100
AcDbEntity
  8
0
100
AcDbLine
 62
253
  6
CONTINUOUS
 10
171.1029961924
 20
76.2804219763
 11
171.1054215526
 21
76.6728884067
  0
LINE
  5
4FD
100
AcDbEntity
  8
ASSI
100
AcDbLine
 62
253
  6
CONTINUOUS
 10
171.5725267905
 20
118.6708325285
 11
171.5736262397
 21
118.8116970663
  0
LINE
  5
4FE
100
AcDbEntity
  8
0
100
AcDbLine
 62
253
  6
CONTINUOUS
 10
171.5725267905
 20
118.6708325285
 11
171.5736262397
 21
118.8116970663
  0
LINE
  5
4FF
100
AcDbEntity
  8
ASSI
100
AcDbLine
 62
253
  6
CONTINUOUS
 10
171.1008060301
 20
76.0778953924
 11
171.1029961924
 21
76.2804219763
  0
LINE
  5
500
100
AcDbEntity
  8
0
100
AcDbLine
 62
253
  6
CONTINUOUS
 10
171.1008060301
 20
76.0778953924
 11
171.1029961924
 21
76.2804219763
  0
LINE
  5
501
100
AcDbEntity
  8
ASSI
100
AcDbLine
 62
253
  6
CONTINUOUS
 10
171.5736262397
 20
118.8116970663
 11
171.5747810298
 21
118.8995582558
  0
LINE
  5
502
100
AcDbEntity
  8
0
100
AcDbLine
 62
253
  6
CONTINUOUS
 10
171.5736262397
 20
118.8116970663
 11
171.5747810298
 21
118.8995582558
  0
LINE
  5
503
100
AcDbEntity
  8
ASSI
100
AcDbLine
 62
253
  6
CONTINUOUS
 10
171.0990945416
 20
75.9623538697
 11
171.1008060301
 21
76.0778953924
  0
LINE
  5
504
100
AcDbEntity
  8
0
100
AcDbLine
 62
253
  6
CONTINUOUS
 10
171.0990945416
 20
75.9623538697
 11
171.1008060301
 21
76.0778953924
  0
LINE
  5
505
100
AcDbEntity
  8
ASSI
100
AcDbLine
 62
253
  6
CONTINUOUS
 10
171.5747810298
 20
118.8995582558
 11
171.5762515919
 21
118.9806299442
  0
LINE
  5
506
100
AcDbEntity
  8
0
100
AcDbLine
 62
253
  6
CONTINUOUS
 10
171.5747810298
 20
118.8995582558
 11
171.5762515919
 21
118.9806299442
  0
LINE
  5
507
100
AcDbEntity
  8
ASSI
100
AcDbLine
 62
253
  6
CONTINUOUS
 10
171.0972207262
 20
75.8651088008
 11
171.0990945416
 21
75.9623538697
  0
LINE
  5
508
100
AcDbEntity
  8
0
100
AcDbLine
 62
253
  6
CONTINUOUS
 10
171.0972207262
 20
75.8651088008
 11
171.0990945416
 21
75.9623538697
  0
LWPOLYLINE
  5
509
100
AcDbEntity
  8
ASSI
100
AcDbPolyline
 62
253
  6
CONTINUOUS
 90
12
 70
0
 10
171.5762515919
 20
118.9806299442
 10
171.5780086742
 20
119.0530517475
 10
171.5789802885
 20
119.0855152825
 10
171.5800103001
 20
119.1152636197
 10
171.5810978534
 20
119.1423384065
 10
171.5822268594
 20
119.1663386678
 10
171.5833985051
 20
119.1872196568
 10
171.5846116036
 20
119.2050261203
 10
171.5858465062
 20
119.2194913231
 10
171.5870966633
 20
119.2305263535
 10
171.5883686244
 20
119.2382201232
 10
171.5896623896
 20
119.2425726323
  0
LWPOLYLINE
  5
50A
100
AcDbEntity
  8
0
100
AcDbPolyline
 62
253
  6
CONTINUOUS
 90
12
 70
0
 10
171.5762515919
 20
118.9806299442
 10
171.5780086742
 20
119.0530517475
 10
171.5789802885
 20
119.0855152825
 10
171.5800103001
 20
119.1152636197
 10
171.5810978534
 20
119.1423384065
 10
171.5822268594
 20
119.1663386678
 10
171.5833985051
 20
119.1872196568
 10
171.5846116036
 20
119.2050261203
 10
171.5858465062
 20
119.2194913231
 10
171.5870966633
 20
119.2305263535
 10
171.5883686244
 20
119.2382201232
 10
171.5896623896
 20
119.2425726323
  0
LWPOLYLINE
  5
50B
100
AcDbEntity
  8
ASSI
100
AcDbPolyline
 62
253
  6
CONTINUOUS
 90
4
 70
0
 10
171.1026941099
 20
98.3524808374
 10
171.0995808929
 20
98.2545205354
 10
171.0977798594
 20
98.2078089755
 10
171.0950655442
 20
98.1638386736
  0
LWPOLYLINE
  5
50C
100
AcDbEntity
  8
0
100
AcDbPolyline
 62
253
  6
CONTINUOUS
 90
4
 70
0
 10
171.1026941099
 20
98.3524808374
 10
171.0995808929
 20
98.2545205354
 10
171.0977798594
 20
98.2078089755
 10
171.0950655442
 20
98.1638386736
  0
LWPOLYLINE
  5
50D
100
AcDbEntity
  8
ASSI
100
AcDbPolyline
 62
253
  6
CONTINUOUS
 90
16
 70
0
 10
171.5604842467
 20
98.4559603909
 10
171.5577987042
 20
98.4043144031
 10
171.5497585208
 20
98.353050375
 10
171.536396891
 20
98.3027288401
 10
171.5177829516
 20
98.2538565904
 10
171.494081315
 20
98.2070441525
 10
171.4656057146
 20
98.1629720233
 10
171.4327108762
 20
98.1221719894
 10
171.3957270504
 20
98.0850387752
 10
171.3550498112
 20
98.0519729846
 10
171.3111157145
 20
98.0233370766
 10
171.2644125044
 20
97.9994559923
 10
171.2154658014
 20
97.9806010324
 10
171.1648191141
 20
97.9669808099
 10
171.1130256581
 20
97.9587433704
 10
171.0606555842
 20
97.9559794294
  0
LWPOLYLINE
  5
50E
100
AcDbEntity
  8
0
100
AcDbPolyline
 62
253
  6
CONTINUOUS
 90
16
 70
0
 10
171.5604842467
 20
98.4559603909
 10
171.5577987042
 20
98.4043144031
 10
171.5497585208
 20
98.353050375
 10
171.536396891
 20
98.3027288401
 10
171.5177829516
 20
98.2538565904
 10
171.494081315
 20
98.2070441525
 10
171.4656057146
 20
98.1629720233
 10
171.4327108762
 20
98.1221719894
 10
171.3957270504
 20
98.0850387752
 10
171.3550498112
 20
98.0519729846
 10
171.3111157145
 20
98.0233370766
 10
171.2644125044
 20
97.9994559923
 10
171.2154658014
 20
97.9806010324
 10
171.1648191141
 20
97.9669808099
 10
171.1130256581
 20
97.9587433704
 10
171.0606555842
 20
97.9559794294
  0
LWPOLYLINE
  5
50F
100
AcDbEntity
  8
ASSI
100
AcDbPolyline
 62
253
  6
CONTINUOUS
 90
9
 70
0
 10
171.0950655442
 20
98.1638386736
 10
171.0892742671
 20
98.0862628572
 10
171.0856351003
 20
98.0531652971
 10
171.0817041111
 20
98.0245240719
 10
171.0780543046
 20
98.0006029395
 10
171.0737818645
 20
97.9815647192
 10
171.0688890933
 20
97.9676667187
 10
171.064351141
 20
97.9591212641
 10
171.0606555846
 20
97.9559794294
  0
LWPOLYLINE
  5
510
100
AcDbEntity
  8
0
100
AcDbPolyline
 62
253
  6
CONTINUOUS
 90
9
 70
0
 10
171.0950655442
 20
98.1638386736
 10
171.0892742671
 20
98.0862628572
 10
171.0856351003
 20
98.0531652971
 10
171.0817041111
 20
98.0245240719
 10
171.0780543046
 20
98.0006029395
 10
171.0737818645
 20
97.9815647192
 10
171.0688890933
 20
97.9676667187
 10
171.064351141
 20
97.9591212641
 10
171.0606555846
 20
97.9559794294
  0
LINE
  5
511
100
AcDbEntity
  8
ASSI
100
AcDbLine
 62
7
  6
CONTINUOUS
 10
157.2855531397
 20
119.8742022335
 11
156.9347314177
 21
119.8423571156
  0
LINE
  5
512
100
AcDbEntity
  8
0
100
AcDbLine
 62
7
  6
CONTINUOUS
 10
157.2855531397
 20
119.8742022335
 11
156.9347314177
 21
119.8423571156
  0
LINE
  5
513
100
AcDbEntity
  8
ASSI
100
AcDbLine
 62
7
  6
CONTINUOUS
 10
146.2855531397
 20
119.8742022335
 11
145.9347314177
 21
119.8423571156
  0
LINE
  5
514
100
AcDbEntity
  8
0
100
AcDbLine
 62
7
  6
CONTINUOUS
 10
146.2855531397
 20
119.8742022335
 11
145.9347314177
 21
119.8423571156
  0
LINE
  5
515
100
AcDbEntity
  8
ASSI
100
AcDbLine
 62
7
  6
CONTINUOUS
 10
135.0855531397
 20
119.8742022335
 11
134.7347314177
 21
119.8423571156
  0
LINE
  5
516
100
AcDbEntity
  8
0
100
AcDbLine
 62
7
  6
CONTINUOUS
 10
135.0855531397
 20
119.8742022335
 11
134.7347314177
 21
119.8423571156
  0
LWPOLYLINE
  5
517
100
AcDbEntity
  8
ASSI
100
AcDbPolyline
 62
253
  6
CONTINUOUS
 90
16
 70
0
 10
150.264159055
 20
119.7418873985
 10
150.2119574286
 20
119.7390853532
 10
150.1603268171
 20
119.7308527638
 10
150.1098319204
 20
119.7172796935
 10
150.0610249986
 20
119.6985146091
 10
150.0144398771
 20
119.6747627731
 10
149.9705861003
 20
119.6462840129
 10
149.929943296
 20
119.6133898443
 10
149.8929559513
 20
119.57644006
 10
149.8600285878
 20
119.5358388248
 10
149.8315213081
 20
119.4920302335
 10
149.8077458559
 20
119.4454934365
 10
149.7889622215
 20
119.3967374115
 10
149.775375805
 20
119.3462954085
 10
149.7671351653
 20
119.2947191194
 10
149.7643303926
 20
119.2425726311
  0
LWPOLYLINE
  5
518
100
AcDbEntity
  8
0
100
AcDbPolyline
 62
253
  6
CONTINUOUS
 90
16
 70
0
 10
150.264159055
 20
119.7418873985
 10
150.2119574286
 20
119.7390853532
 10
150.1603268171
 20
119.7308527638
 10
150.1098319204
 20
119.7172796935
 10
150.0610249986
 20
119.6985146091
 10
150.0144398771
 20
119.6747627731
 10
149.9705861003
 20
119.6462840129
 10
149.929943296
 20
119.6133898443
 10
149.8929559513
 20
119.57644006
 10
149.8600285878
 20
119.5358388248
 10
149.8315213081
 20
119.4920302335
 10
149.8077458559
 20
119.4454934365
 10
149.7889622215
 20
119.3967374115
 10
149.775375805
 20
119.3462954085
 10
149.7671351653
 20
119.2947191194
 10
149.7643303926
 20
119.2425726311
  0
LWPOLYLINE
  5
519
100
AcDbEntity
  8
ASSI
100
AcDbPolyline
 62
253
  6
CONTINUOUS
 90
16
 70
0
 10
128.064159055
 20
119.7418873985
 10
128.0119574286
 20
119.7390853532
 10
127.9603268171
 20
119.7308527638
 10
127.9098319204
 20
119.7172796935
 10
127.8610249986
 20
119.6985146091
 10
127.8144398771
 20
119.6747627731
 10
127.7705861003
 20
119.6462840129
 10
127.729943296
 20
119.6133898443
 10
127.6929559513
 20
119.57644006
 10
127.6600285878
 20
119.5358388248
 10
127.6315213081
 20
119.4920302335
 10
127.6077458559
 20
119.4454934365
 10
127.5889622215
 20
119.3967374115
 10
127.575375805
 20
119.3462954085
 10
127.5671351653
 20
119.2947191194
 10
127.5643303926
 20
119.2425726311
  0
LWPOLYLINE
  5
51A
100
AcDbEntity
  8
0
100
AcDbPolyline
 62
253
  6
CONTINUOUS
 90
16
 70
0
 10
128.064159055
 20
119.7418873985
 10
128.0119574286
 20
119.7390853532
 10
127.9603268171
 20
119.7308527638
 10
127.9098319204
 20
119.7172796935
 10
127.8610249986
 20
119.6985146091
 10
127.8144398771
 20
119.6747627731
 10
127.7705861003
 20
119.6462840129
 10
127.729943296
 20
119.6133898443
 10
127.6929559513
 20
119.57644006
 10
127.6600285878
 20
119.5358388248
 10
127.6315213081
 20
119.4920302335
 10
127.6077458559
 20
119.4454934365
 10
127.5889622215
 20
119.3967374115
 10
127.575375805
 20
119.3462954085
 10
127.5671351653
 20
119.2947191194
 10
127.5643303926
 20
119.2425726311
  0
LWPOLYLINE
  5
51B
100
AcDbEntity
  8
ASSI
100
AcDbPolyline
 62
253
  6
CONTINUOUS
 90
14
 70
0
 10
127.9510938168
 20
118.5939584423
 10
127.9042564735
 20
118.5932523608
 10
127.8591384982
 20
118.5923530489
 10
127.8161773508
 20
118.5912692264
 10
127.775789579
 20
118.5900114018
 10
127.7383667791
 20
118.5885917709
 10
127.7042717995
 20
118.5870240984
 10
127.6738352223
 20
118.5853235841
 10
127.6473521578
 20
118.5835067162
 10
127.6250793836
 20
118.5815911109
 10
127.6072328547
 20
118.5795953417
 10
127.5939856095
 20
118.5775387594
 10
127.5854660921
 20
118.5754413045
 10
127.5817569071
 20
118.5733233137
  0
LWPOLYLINE
  5
51C
100
AcDbEntity
  8
0
100
AcDbPolyline
 62
253
  6
CONTINUOUS
 90
14
 70
0
 10
127.9510938168
 20
118.5939584423
 10
127.9042564735
 20
118.5932523608
 10
127.8591384982
 20
118.5923530489
 10
127.8161773508
 20
118.5912692264
 10
127.775789579
 20
118.5900114018
 10
127.7383667791
 20
118.5885917709
 10
127.7042717995
 20
118.5870240984
 10
127.6738352223
 20
118.5853235841
 10
127.6473521578
 20
118.5835067162
 10
127.6250793836
 20
118.5815911109
 10
127.6072328547
 20
118.5795953417
 10
127.5939856095
 20
118.5775387594
 10
127.5854660921
 20
118.5754413045
 10
127.5817569071
 20
118.5733233137
  0
LINE
  5
51D
100
AcDbEntity
  8
ASSI
100
AcDbLine
 62
253
  6
CONTINUOUS
 10
128.0480978156
 20
118.5947654698
 11
127.9510938168
 21
118.5939584423
  0
LINE
  5
51E
100
AcDbEntity
  8
0
100
AcDbLine
 62
253
  6
CONTINUOUS
 10
128.0480978156
 20
118.5947654698
 11
127.9510938168
 21
118.5939584423
  0
LINE
  5
51F
100
AcDbEntity
  8
ASSI
100
AcDbLine
 62
253
  6
CONTINUOUS
 10
171.0898337271
 20
119.7418873997
 11
167.7202681579
 21
119.7318612634
  0
LINE
  5
520
100
AcDbEntity
  8
0
100
AcDbLine
 62
253
  6
CONTINUOUS
 10
171.0898337271
 20
119.7418873997
 11
167.7202681579
 21
119.7318612634
  0
LINE
  5
521
100
AcDbEntity
  8
ASSI
100
AcDbLine
 62
253
  6
CONTINUOUS
 10
148.8898337271
 20
119.7418873997
 11
145.5202681579
 21
119.7318612634
  0
LINE
  5
522
100
AcDbEntity
  8
0
100
AcDbLine
 62
253
  6
CONTINUOUS
 10
148.8898337271
 20
119.7418873997
 11
145.5202681579
 21
119.7318612634
  0
LINE
  5
523
100
AcDbEntity
  8
ASSI
100
AcDbLine
 62
253
  6
CONTINUOUS
 10
167.7202681579
 20
119.7318612634
 11
164.3482221036
 21
119.7257070978
  0
LINE
  5
524
100
AcDbEntity
  8
0
100
AcDbLine
 62
253
  6
CONTINUOUS
 10
167.7202681579
 20
119.7318612634
 11
164.3482221036
 21
119.7257070978
  0
LINE
  5
525
100
AcDbEntity
  8
ASSI
100
AcDbLine
 62
253
  6
CONTINUOUS
 10
145.5202681579
 20
119.7318612634
 11
142.1482221036
 21
119.7257070978
  0
LINE
  5
526
100
AcDbEntity
  8
0
100
AcDbLine
 62
253
  6
CONTINUOUS
 10
145.5202681579
 20
119.7318612634
 11
142.1482221036
 21
119.7257070978
  0
LINE
  5
527
100
AcDbEntity
  8
ASSI
100
AcDbLine
 62
253
  6
CONTINUOUS
 10
164.3482221036
 20
119.7257070978
 11
160.9745650091
 21
119.7234268883
  0
LINE
  5
528
100
AcDbEntity
  8
0
100
AcDbLine
 62
253
  6
CONTINUOUS
 10
164.3482221036
 20
119.7257070978
 11
160.9745650091
 21
119.7234268883
  0
LINE
  5
529
100
AcDbEntity
  8
ASSI
100
AcDbLine
 62
253
  6
CONTINUOUS
 10
142.1482221036
 20
119.7257070978
 11
138.7745650091
 21
119.7234268883
  0
LINE
  5
52A
100
AcDbEntity
  8
0
100
AcDbLine
 62
253
  6
CONTINUOUS
 10
142.1482221036
 20
119.7257070978
 11
138.7745650091
 21
119.7234268883
  0
LINE
  5
52B
100
AcDbEntity
  8
ASSI
100
AcDbLine
 62
7
  6
CONTINUOUS
 10
167.9615263369
 20
119.8371163377
 11
164.5924664446
 21
119.8371163377
  0
LINE
  5
52C
100
AcDbEntity
  8
0
100
AcDbLine
 62
7
  6
CONTINUOUS
 10
167.9615263369
 20
119.8371163377
 11
164.5924664446
 21
119.8371163377
  0
LINE
  5
52D
100
AcDbEntity
  8
ASSI
100
AcDbLine
 62
7
  6
CONTINUOUS
 10
156.7615263369
 20
119.8371163377
 11
153.3924664446
 21
119.8371163377
  0
LINE
  5
52E
100
AcDbEntity
  8
0
100
AcDbLine
 62
7
  6
CONTINUOUS
 10
156.7615263369
 20
119.8371163377
 11
153.3924664446
 21
119.8371163377
  0
LINE
  5
52F
100
AcDbEntity
  8
ASSI
100
AcDbLine
 62
7
  6
CONTINUOUS
 10
145.7615263369
 20
119.8371163377
 11
142.3924664446
 21
119.8371163377
  0
LINE
  5
530
100
AcDbEntity
  8
0
100
AcDbLine
 62
7
  6
CONTINUOUS
 10
145.7615263369
 20
119.8371163377
 11
142.3924664446
 21
119.8371163377
  0
LINE
  5
531
100
AcDbEntity
  8
ASSI
100
AcDbLine
 62
7
  6
CONTINUOUS
 10
134.5615263369
 20
119.8371163377
 11
131.1924664446
 21
119.8371163377
  0
LINE
  5
532
100
AcDbEntity
  8
0
100
AcDbLine
 62
7
  6
CONTINUOUS
 10
134.5615263369
 20
119.8371163377
 11
131.1924664446
 21
119.8371163377
  0
LINE
  5
533
100
AcDbEntity
  8
ASSI
100
AcDbLine
 62
7
  6
CONTINUOUS
 10
171.1559457797
 20
119.8742022335
 11
168.4855531397
 21
119.8742022335
  0
LINE
  5
534
100
AcDbEntity
  8
0
100
AcDbLine
 62
7
  6
CONTINUOUS
 10
171.1559457797
 20
119.8742022335
 11
168.4855531397
 21
119.8742022335
  0
LINE
  5
535
100
AcDbEntity
  8
ASSI
100
AcDbLine
 62
7
  6
CONTINUOUS
 10
164.0684396419
 20
119.8742022335
 11
157.2855531397
 21
119.8742022335
  0
LINE
  5
536
100
AcDbEntity
  8
0
100
AcDbLine
 62
7
  6
CONTINUOUS
 10
164.0684396419
 20
119.8742022335
 11
157.2855531397
 21
119.8742022335
  0
LINE
  5
537
100
AcDbEntity
  8
ASSI
100
AcDbLine
 62
7
  6
CONTINUOUS
 10
152.8684396419
 20
119.8742022335
 11
150.1980470018
 21
119.8742022335
  0
LINE
  5
538
100
AcDbEntity
  8
0
100
AcDbLine
 62
7
  6
CONTINUOUS
 10
152.8684396419
 20
119.8742022335
 11
150.1980470018
 21
119.8742022335
  0
LINE
  5
539
100
AcDbEntity
  8
ASSI
100
AcDbLine
 62
7
  6
CONTINUOUS
 10
148.9559457797
 20
119.8742022335
 11
146.2855531397
 21
119.8742022335
  0
LINE
  5
53A
100
AcDbEntity
  8
0
100
AcDbLine
 62
7
  6
CONTINUOUS
 10
148.9559457797
 20
119.8742022335
 11
146.2855531397
 21
119.8742022335
  0
LINE
  5
53B
100
AcDbEntity
  8
ASSI
100
AcDbLine
 62
7
  6
CONTINUOUS
 10
141.8684396419
 20
119.8742022335
 11
135.0855531397
 21
119.8742022335
  0
LINE
  5
53C
100
AcDbEntity
  8
0
100
AcDbLine
 62
7
  6
CONTINUOUS
 10
141.8684396419
 20
119.8742022335
 11
135.0855531397
 21
119.8742022335
  0
LINE
  5
53D
100
AcDbEntity
  8
ASSI
100
AcDbLine
 62
7
  6
CONTINUOUS
 10
130.6684396419
 20
119.8742022335
 11
127.9980470018
 21
119.8742022335
  0
LINE
  5
53E
100
AcDbEntity
  8
0
100
AcDbLine
 62
7
  6
CONTINUOUS
 10
130.6684396419
 20
119.8742022335
 11
127.9980470018
 21
119.8742022335
  0
LINE
  5
53F
100
AcDbEntity
  8
ASSI
100
AcDbLine
 62
253
  6
CONTINUOUS
 10
138.7745650091
 20
119.7234268883
 11
135.4068373522
 21
119.7250138229
  0
LINE
  5
540
100
AcDbEntity
  8
0
100
AcDbLine
 62
253
  6
CONTINUOUS
 10
138.7745650091
 20
119.7234268883
 11
135.4068373522
 21
119.7250138229
  0
LINE
  5
541
100
AcDbEntity
  8
ASSI
100
AcDbLine
 62
253
  6
CONTINUOUS
 10
160.9745650091
 20
119.7234268883
 11
157.6068373522
 21
119.7250138229
  0
LINE
  5
542
100
AcDbEntity
  8
0
100
AcDbLine
 62
253
  6
CONTINUOUS
 10
160.9745650091
 20
119.7234268883
 11
157.6068373522
 21
119.7250138229
  0
LINE
  5
543
100
AcDbEntity
  8
ASSI
100
AcDbLine
 62
253
  6
CONTINUOUS
 10
135.4068373522
 20
119.7250138229
 11
131.9358237105
 21
119.7306993664
  0
LINE
  5
544
100
AcDbEntity
  8
0
100
AcDbLine
 62
253
  6
CONTINUOUS
 10
135.4068373522
 20
119.7250138229
 11
131.9358237105
 21
119.7306993664
  0
LINE
  5
545
100
AcDbEntity
  8
ASSI
100
AcDbLine
 62
253
  6
CONTINUOUS
 10
157.6068373522
 20
119.7250138229
 11
154.1358237105
 21
119.7306993664
  0
LINE
  5
546
100
AcDbEntity
  8
0
100
AcDbLine
 62
253
  6
CONTINUOUS
 10
157.6068373522
 20
119.7250138229
 11
154.1358237105
 21
119.7306993664
  0
LWPOLYLINE
  5
547
100
AcDbEntity
  8
ASSI
100
AcDbPolyline
 62
253
  6
CONTINUOUS
 90
3
 70
0
 10
131.9358237105
 20
119.7306993664
 10
128.8817374694
 20
119.7391264925
 10
128.064159055
 20
119.7418873985
  0
LWPOLYLINE
  5
548
100
AcDbEntity
  8
0
100
AcDbPolyline
 62
253
  6
CONTINUOUS
 90
3
 70
0
 10
131.9358237105
 20
119.7306993664
 10
128.8817374694
 20
119.7391264925
 10
128.064159055
 20
119.7418873985
  0
LWPOLYLINE
  5
549
100
AcDbEntity
  8
ASSI
100
AcDbPolyline
 62
253
  6
CONTINUOUS
 90
3
 70
0
 10
154.1358237105
 20
119.7306993664
 10
151.0817374694
 20
119.7391264925
 10
150.264159055
 20
119.7418873985
  0
LWPOLYLINE
  5
54A
100
AcDbEntity
  8
0
100
AcDbPolyline
 62
253
  6
CONTINUOUS
 90
3
 70
0
 10
154.1358237105
 20
119.7306993664
 10
151.0817374694
 20
119.7391264925
 10
150.264159055
 20
119.7418873985
  0
LWPOLYLINE
  5
54B
100
AcDbEntity
  8
ASSI
100
AcDbPolyline
 62
253
  6
CONTINUOUS
 90
15
 70
0
 10
171.1058941161
 20
118.5947649233
 10
171.2028972058
 20
118.5939579215
 10
171.2497341542
 20
118.5932518617
 10
171.2948517917
 20
118.5923525772
 10
171.3378126705
 20
118.591268787
 10
171.3782002536
 20
118.590010999
 10
171.4156229542
 20
118.5885914083
 10
171.4497179323
 20
118.587023779
 10
171.4801546123
 20
118.5853233102
 10
171.5066378887
 20
118.5835064894
 10
171.5289109869
 20
118.5815909318
 10
171.5467579532
 20
118.5795952102
 10
171.5600057483
 20
118.5775386746
 10
171.5685259252
 20
118.5754412645
 10
171.5722358747
 20
118.5733233158
  0
LWPOLYLINE
  5
54C
100
AcDbEntity
  8
0
100
AcDbPolyline
 62
253
  6
CONTINUOUS
 90
15
 70
0
 10
171.1058941161
 20
118.5947649233
 10
171.2028972058
 20
118.5939579215
 10
171.2497341542
 20
118.5932518617
 10
171.2948517917
 20
118.5923525772
 10
171.3378126705
 20
118.591268787
 10
171.3782002536
 20
118.590010999
 10
171.4156229542
 20
118.5885914083
 10
171.4497179323
 20
118.587023779
 10
171.4801546123
 20
118.5853233102
 10
171.5066378887
 20
118.5835064894
 10
171.5289109869
 20
118.5815909318
 10
171.5467579532
 20
118.5795952102
 10
171.5600057483
 20
118.5775386746
 10
171.5685259252
 20
118.5754412645
 10
171.5722358747
 20
118.5733233158
  0
LWPOLYLINE
  5
54D
100
AcDbEntity
  8
ASSI
100
AcDbPolyline
 62
253
  6
CONTINUOUS
 90
16
 70
0
 10
148.8898337271
 20
119.7418873997
 10
148.9420346972
 20
119.7390854245
 10
148.9936647387
 20
119.7308530274
 10
149.0441591676
 20
119.7172802472
 10
149.0929657201
 20
119.698515531
 10
149.1395505927
 20
119.6747641109
 10
149.1834042812
 20
119.6462857591
 10
149.2240471521
 20
119.6133919469
 10
149.2610346894
 20
119.576442438
 10
149.2939623559
 20
119.5358413537
 10
149.3224700175
 20
119.4920327531
 10
149.3462458825
 20
119.4454957763
 10
149.3650299113
 20
119.396739404
 10
149.3786166607
 20
119.3462968906
 10
149.3868575306
 20
119.2947199322
 10
149.3896623896
 20
119.2425726323
  0
LWPOLYLINE
  5
54E
100
AcDbEntity
  8
0
100
AcDbPolyline
 62
253
  6
CONTINUOUS
 90
16
 70
0
 10
148.8898337271
 20
119.7418873997
 10
148.9420346972
 20
119.7390854245
 10
148.9936647387
 20
119.7308530274
 10
149.0441591676
 20
119.7172802472
 10
149.0929657201
 20
119.698515531
 10
149.1395505927
 20
119.6747641109
 10
149.1834042812
 20
119.6462857591
 10
149.2240471521
 20
119.6133919469
 10
149.2610346894
 20
119.576442438
 10
149.2939623559
 20
119.5358413537
 10
149.3224700175
 20
119.4920327531
 10
149.3462458825
 20
119.4454957763
 10
149.3650299113
 20
119.396739404
 10
149.3786166607
 20
119.3462968906
 10
149.3868575306
 20
119.2947199322
 10
149.3896623896
 20
119.2425726323
  0
LWPOLYLINE
  5
54F
100
AcDbEntity
  8
ASSI
100
AcDbPolyline
 62
253
  6
CONTINUOUS
 90
16
 70
0
 10
171.0898337271
 20
119.7418873997
 10
171.1420346972
 20
119.7390854245
 10
171.1936647387
 20
119.7308530274
 10
171.2441591676
 20
119.7172802472
 10
171.2929657201
 20
119.698515531
 10
171.3395505927
 20
119.6747641109
 10
171.3834042812
 20
119.6462857591
 10
171.4240471521
 20
119.6133919469
 10
171.4610346894
 20
119.576442438
 10
171.4939623559
 20
119.5358413537
 10
171.5224700175
 20
119.4920327531
 10
171.5462458825
 20
119.4454957763
 10
171.5650299113
 20
119.396739404
 10
171.5786166607
 20
119.3462968906
 10
171.5868575306
 20
119.2947199322
 10
171.5896623896
 20
119.2425726323
  0
LWPOLYLINE
  5
550
100
AcDbEntity
  8
0
100
AcDbPolyline
 62
253
  6
CONTINUOUS
 90
16
 70
0
 10
171.0898337271
 20
119.7418873997
 10
171.1420346972
 20
119.7390854245
 10
171.1936647387
 20
119.7308530274
 10
171.2441591676
 20
119.7172802472
 10
171.2929657201
 20
119.698515531
 10
171.3395505927
 20
119.6747641109
 10
171.3834042812
 20
119.6462857591
 10
171.4240471521
 20
119.6133919469
 10
171.4610346894
 20
119.576442438
 10
171.4939623559
 20
119.5358413537
 10
171.5224700175
 20
119.4920327531
 10
171.5462458825
 20
119.4454957763
 10
171.5650299113
 20
119.396739404
 10
171.5786166607
 20
119.3462968906
 10
171.5868575306
 20
119.2947199322
 10
171.5896623896
 20
119.2425726323
  0
LINE
  5
551
100
AcDbEntity
  8
ASSI
100
AcDbLine
 62
7
  6
CONTINUOUS
 10
141.8684396419
 20
119.8742022335
 11
142.2192613639
 21
119.8423571156
  0
LINE
  5
552
100
AcDbEntity
  8
0
100
AcDbLine
 62
7
  6
CONTINUOUS
 10
141.8684396419
 20
119.8742022335
 11
142.2192613639
 21
119.8423571156
  0
LINE
  5
553
100
AcDbEntity
  8
ASSI
100
AcDbLine
 62
7
  6
CONTINUOUS
 10
152.8684396419
 20
119.8742022335
 11
153.2192613639
 21
119.8423571156
  0
LINE
  5
554
100
AcDbEntity
  8
0
100
AcDbLine
 62
7
  6
CONTINUOUS
 10
152.8684396419
 20
119.8742022335
 11
153.2192613639
 21
119.8423571156
  0
LINE
  5
555
100
AcDbEntity
  8
ASSI
100
AcDbLine
 62
7
  6
CONTINUOUS
 10
164.0684396419
 20
119.8742022335
 11
164.4192613639
 21
119.8423571156
  0
LINE
  5
556
100
AcDbEntity
  8
0
100
AcDbLine
 62
7
  6
CONTINUOUS
 10
164.0684396419
 20
119.8742022335
 11
164.4192613639
 21
119.8423571156
  0
LWPOLYLINE
  5
557
100
AcDbEntity
  8
ASSI
100
AcDbPolyline
 62
253
  6
CONTINUOUS
 90
7
 70
0
 10
171.0898337265
 20
75.6931085152
 10
171.0908854229
 20
75.7004944523
 10
171.0919789414
 20
75.7137701237
 10
171.093086403
 20
75.7328669018
 10
171.0941591678
 20
75.757686552
 10
171.0951912991
 20
75.7881040289
 10
171.0972207262
 20
75.8651088008
  0
LWPOLYLINE
  5
558
100
AcDbEntity
  8
0
100
AcDbPolyline
 62
253
  6
CONTINUOUS
 90
7
 70
0
 10
171.0898337265
 20
75.6931085152
 10
171.0908854229
 20
75.7004944523
 10
171.0919789414
 20
75.7137701237
 10
171.093086403
 20
75.7328669018
 10
171.0941591678
 20
75.757686552
 10
171.0951912991
 20
75.7881040289
 10
171.0972207262
 20
75.8651088008
  0
LINE
  5
559
100
AcDbEntity
  8
0
100
AcDbLine
 62
7
  6
CONTINUOUS
 10
117.3167591002
 20
75.5607936802
 11
114.4395026605
 21
75.7115843006
  0
LINE
  5
55A
100
AcDbEntity
  8
ASSI
100
AcDbLine
 62
7
  6
CONTINUOUS
 10
117.3167591002
 20
75.5607936802
 11
114.4395026605
 21
75.7115843006
  0
LWPOLYLINE
  5
55B
100
AcDbEntity
  8
0
100
AcDbPolyline
 62
253
  6
CONTINUOUS
 90
5
 70
0
 10
114.7920416478
 20
75.6931085152
 10
114.7078334773
 20
75.7004944523
 10
114.6243704157
 20
75.7137701237
 10
114.5420632674
 20
75.7328669018
 10
114.4613181509
 20
75.757686552
  0
LWPOLYLINE
  5
55C
100
AcDbEntity
  8
ASSI
100
AcDbPolyline
 62
253
  6
CONTINUOUS
 90
5
 70
0
 10
114.7920416478
 20
75.6931085152
 10
114.7078334773
 20
75.7004944523
 10
114.6243704157
 20
75.7137701237
 10
114.5420632674
 20
75.7328669018
 10
114.4613181509
 20
75.757686552
  0
LWPOLYLINE
  5
55D
100
AcDbEntity
  8
0
100
AcDbPolyline
 62
253
  6
CONTINUOUS
 90
5
 70
0
 10
114.4613181701
 20
119.6773093612
 10
114.5420632855
 20
119.7021290115
 10
114.6243704344
 20
119.7212257902
 10
114.7078334978
 20
119.7345014621
 10
114.7920416713
 20
119.7418873997
  0
LWPOLYLINE
  5
55E
100
AcDbEntity
  8
ASSI
100
AcDbPolyline
 62
253
  6
CONTINUOUS
 90
5
 70
0
 10
114.4613181701
 20
119.6773093612
 10
114.5420632855
 20
119.7021290115
 10
114.6243704344
 20
119.7212257902
 10
114.7078334978
 20
119.7345014621
 10
114.7920416713
 20
119.7418873997
  0
LINE
  5
55F
100
AcDbEntity
  8
0
100
AcDbLine
 62
253
  6
CONTINUOUS
 10
113.6543015937
 20
76.8402304438
 11
113.6600059286
 21
76.8405314663
  0
LINE
  5
560
100
AcDbEntity
  8
ASSI
100
AcDbLine
 62
253
  6
CONTINUOUS
 10
113.6543015937
 20
76.8402304438
 11
113.6600059286
 21
76.8405314663
  0
LINE
  5
561
100
AcDbEntity
  8
0
100
AcDbLine
 62
253
  6
CONTINUOUS
 10
113.6600059286
 20
76.8405314663
 11
113.8635887701
 21
76.8496723295
  0
LINE
  5
562
100
AcDbEntity
  8
ASSI
100
AcDbLine
 62
253
  6
CONTINUOUS
 10
113.6600059286
 20
76.8405314663
 11
113.8635887701
 21
76.8496723295
  0
LINE
  5
563
100
AcDbEntity
  8
0
100
AcDbLine
 62
253
  6
CONTINUOUS
 10
113.8635887701
 20
76.8496723295
 11
114.1396294097
 21
76.8616726
  0
LINE
  5
564
100
AcDbEntity
  8
ASSI
100
AcDbLine
 62
253
  6
CONTINUOUS
 10
113.8635887701
 20
76.8496723295
 11
114.1396294097
 21
76.8616726
  0
LINE
  5
565
100
AcDbEntity
  8
0
100
AcDbLine
 62
253
  6
CONTINUOUS
 10
113.3039439886
 20
76.8473290066
 11
113.6543015913
 21
76.8402304578
  0
LINE
  5
566
100
AcDbEntity
  8
ASSI
100
AcDbLine
 62
253
  6
CONTINUOUS
 10
113.3039439886
 20
76.8473290066
 11
113.6543015913
 21
76.8402304578
  0
LINE
  5
567
100
AcDbEntity
  8
0
100
AcDbLine
 62
253
  6
CONTINUOUS
 10
117.3603037964
 20
76.0585118345
 11
114.8051211517
 21
76.1924232826
  0
LINE
  5
568
100
AcDbEntity
  8
ASSI
100
AcDbLine
 62
253
  6
CONTINUOUS
 10
117.3603037964
 20
76.0585118345
 11
114.8051211517
 21
76.1924232826
  0
LWPOLYLINE
  5
569
100
AcDbEntity
  8
0
100
AcDbPolyline
 62
253
  6
CONTINUOUS
 90
22
 70
0
 10
114.8051211517
 20
76.1924232826
 10
114.7557142512
 20
76.1967757918
 10
114.7071400147
 20
76.2044695616
 10
114.6593984421
 20
76.2155045921
 10
114.6122394145
 20
76.2299697949
 10
114.5659130509
 20
76.2477762584
 10
114.5211697086
 20
76.2686572474
 10
114.4780547053
 20
76.2926575088
 10
114.4365227232
 20
76.3197322957
 10
114.3971881659
 20
76.349480633
 10
114.360083713
 20
76.3819441682
 10
114.3251766848
 20
76.4170812537
 10
114.2929834463
 20
76.4543659715
 10
114.2635473015
 20
76.4938279995
 10
114.2368249463
 20
76.5354376599
 10
114.2132028334
 20
76.5785800014
 10
114.1927252889
 20
76.6232988494
 10
114.1753479867
 20
76.6695503784
 10
114.1613244002
 20
76.7165881608
 10
114.1507390209
 20
76.7641633872
 10
114.1435073574
 20
76.8125248669
 10
114.1396294097
 20
76.8616726
  0
LWPOLYLINE
  5
56A
100
AcDbEntity
  8
ASSI
100
AcDbPolyline
 62
253
  6
CONTINUOUS
 90
22
 70
0
 10
114.8051211517
 20
76.1924232826
 10
114.7557142512
 20
76.1967757918
 10
114.7071400147
 20
76.2044695616
 10
114.6593984421
 20
76.2155045921
 10
114.6122394145
 20
76.2299697949
 10
114.5659130509
 20
76.2477762584
 10
114.5211697086
 20
76.2686572474
 10
114.4780547053
 20
76.2926575088
 10
114.4365227232
 20
76.3197322957
 10
114.3971881659
 20
76.349480633
 10
114.360083713
 20
76.3819441682
 10
114.3251766848
 20
76.4170812537
 10
114.2929834463
 20
76.4543659715
 10
114.2635473015
 20
76.4938279995
 10
114.2368249463
 20
76.5354376599
 10
114.2132028334
 20
76.5785800014
 10
114.1927252889
 20
76.6232988494
 10
114.1753479867
 20
76.6695503784
 10
114.1613244002
 20
76.7165881608
 10
114.1507390209
 20
76.7641633872
 10
114.1435073574
 20
76.8125248669
 10
114.1396294097
 20
76.8616726
  0
LWPOLYLINE
  5
56B
100
AcDbEntity
  8
0
100
AcDbPolyline
 62
253
  6
CONTINUOUS
 90
18
 70
0
 10
114.4613181509
 20
75.757686552
 10
114.3825302877
 20
75.7881040289
 10
114.3060827973
 20
75.8239700575
 10
114.2323475881
 20
75.8651088008
 10
114.161691058
 20
75.9113142436
 10
114.0944679815
 20
75.9623538697
 10
114.0310092672
 20
76.017972624
 10
113.9716237646
 20
76.0778953924
 10
113.9166047041
 20
76.1418252235
 10
113.8662208125
 20
76.209445819
 10
113.8207181323
 20
76.2804219763
 10
113.780321462
 20
76.3544014165
 10
113.7452298311
 20
76.4310124523
 10
113.715609859
 20
76.5098820253
 10
113.6916019125
 20
76.5906379139
 10
113.6733246146
 20
76.6728884067
 10
113.6608703448
 20
76.7562227927
 10
113.6543015835
 20
76.8402304576
  0
LWPOLYLINE
  5
56C
100
AcDbEntity
  8
ASSI
100
AcDbPolyline
 62
253
  6
CONTINUOUS
 90
18
 70
0
 10
114.4613181509
 20
75.757686552
 10
114.3825302877
 20
75.7881040289
 10
114.3060827973
 20
75.8239700575
 10
114.2323475881
 20
75.8651088008
 10
114.161691058
 20
75.9113142436
 10
114.0944679815
 20
75.9623538697
 10
114.0310092672
 20
76.017972624
 10
113.9716237646
 20
76.0778953924
 10
113.9166047041
 20
76.1418252235
 10
113.8662208125
 20
76.209445819
 10
113.8207181323
 20
76.2804219763
 10
113.780321462
 20
76.3544014165
 10
113.7452298311
 20
76.4310124523
 10
113.715609859
 20
76.5098820253
 10
113.6916019125
 20
76.5906379139
 10
113.6733246146
 20
76.6728884067
 10
113.6608703448
 20
76.7562227927
 10
113.6543015835
 20
76.8402304576
  0
LINE
  5
56D
100
AcDbEntity
  8
0
100
AcDbLine
 62
253
  6
CONTINUOUS
 10
117.7091180533
 20
79.7840063556
 11
117.686242333
 21
79.7840063558
  0
LINE
  5
56E
100
AcDbEntity
  8
ASSI
100
AcDbLine
 62
253
  6
CONTINUOUS
 10
117.7091180533
 20
79.7840063556
 11
117.686242333
 21
79.7840063558
  0
LWPOLYLINE
  5
56F
100
AcDbEntity
  8
0
100
AcDbPolyline
 62
253
  6
CONTINUOUS
 90
11
 70
0
 10
114.7920416713
 20
119.7418873997
 10
114.7908215873
 20
119.7390854245
 10
114.7899010495
 20
119.7308530274
 10
114.7892901261
 20
119.7172802472
 10
114.7889954987
 20
119.698515531
 10
114.7890203897
 20
119.6747641109
 10
114.7893645272
 20
119.6462857591
 10
114.7900241475
 20
119.6133919469
 10
114.7909920362
 20
119.576442438
 10
114.7922576073
 20
119.5358413537
 10
114.7956233255
 20
119.4454957763
  0
LWPOLYLINE
  5
570
100
AcDbEntity
  8
ASSI
100
AcDbPolyline
 62
253
  6
CONTINUOUS
 90
11
 70
0
 10
114.7920416713
 20
119.7418873997
 10
114.7908215873
 20
119.7390854245
 10
114.7899010495
 20
119.7308530274
 10
114.7892901261
 20
119.7172802472
 10
114.7889954987
 20
119.698515531
 10
114.7890203897
 20
119.6747641109
 10
114.7893645272
 20
119.6462857591
 10
114.7900241475
 20
119.6133919469
 10
114.7909920362
 20
119.576442438
 10
114.7922576073
 20
119.5358413537
 10
114.7956233255
 20
119.4454957763
  0
LWPOLYLINE
  5
571
100
AcDbEntity
  8
0
100
AcDbPolyline
 62
253
  6
CONTINUOUS
 90
9
 70
0
 10
114.7920416478
 20
75.6931085152
 10
114.7908215458
 20
75.6959105604
 10
114.7899009994
 20
75.7041431498
 10
114.7892900757
 20
75.7177162201
 10
114.7889954553
 20
75.7364813045
 10
114.7890203596
 20
75.7602331405
 10
114.7893645149
 20
75.7887119007
 10
114.790024155
 20
75.8216060693
 10
114.7909920632
 20
75.8585558537
  0
LWPOLYLINE
  5
572
100
AcDbEntity
  8
ASSI
100
AcDbPolyline
 62
253
  6
CONTINUOUS
 90
9
 70
0
 10
114.7920416478
 20
75.6931085152
 10
114.7908215458
 20
75.6959105604
 10
114.7899009994
 20
75.7041431498
 10
114.7892900757
 20
75.7177162201
 10
114.7889954553
 20
75.7364813045
 10
114.7890203596
 20
75.7602331405
 10
114.7893645149
 20
75.7887119007
 10
114.790024155
 20
75.8216060693
 10
114.7909920632
 20
75.8585558537
  0
LWPOLYLINE
  5
573
100
AcDbEntity
  8
0
100
AcDbPolyline
 62
253
  6
CONTINUOUS
 90
30
 70
0
 10
112.9404602066
 20
88.0893447676
 10
112.9398612039
 20
88.097320401
 10
112.9392645454
 20
88.1047664217
 10
112.9386724822
 20
88.1116513941
 10
112.9380872652
 20
88.1179438823
 10
112.9375110584
 20
88.123617181
 10
112.9369456767
 20
88.128663507
 10
112.9363928479
 20
88.1330798076
 10
112.9358542997
 20
88.1368630301
 10
112.93533176
 20
88.1400101217
 10
112.9348269564
 20
88.1425180297
 10
112.9343412543
 20
88.1443861987
 10
112.9338745687
 20
88.1456240625
 10
112.9334264521
 20
88.146243552
 10
112.9329966688
 20
88.1462590625
 10
112.9325858295
 20
88.1456948463
 10
112.9321947565
 20
88.14457762
 10
112.9318239464
 20
88.1429329387
 10
112.931472593
 20
88.1407817119
 10
112.9311395641
 20
88.1381436878
 10
112.9308239039
 20
88.1350366858
 10
112.9305253614
 20
88.1314708101
 10
112.9302438616
 20
88.1274542363
 10
112.929979371
 20
88.1229949022
 10
112.9297320207
 20
88.1180997954
 10
112.9295019831
 20
88.1127756657
 10
112.9292894306
 20
88.1070292629
 10
112.9290945356
 20
88.100867337
 10
112.9289174704
 20
88.0942966377
 10
112.9286179827
 20
88.0799276445
  0
LINE
  5
574
100
AcDbEntity
  8
0
100
AcDbLine
 62
253
  6
CONTINUOUS
 10
112.9416562405
 20
88.0719304062
 11
112.9404602066
 21
88.0893447676
  0
LINE
  5
575
100
AcDbEntity
  8
0
100
AcDbLine
 62
253
  6
CONTINUOUS
 10
112.9428379159
 20
88.0527295642
 11
112.9416562405
 21
88.0719304062
  0
LINE
  5
576
100
AcDbEntity
  8
0
100
AcDbLine
 62
253
  6
CONTINUOUS
 10
112.9440036105
 20
88.0317674293
 11
112.9428379159
 21
88.0527295642
  0
LINE
  5
577
100
AcDbEntity
  8
0
100
AcDbLine
 62
253
  6
CONTINUOUS
 10
112.945154979
 20
88.0090239298
 11
112.9440036105
 21
88.0317674293
  0
LINE
  5
578
100
AcDbEntity
  8
0
100
AcDbLine
 62
253
  6
CONTINUOUS
 10
112.9468508029
 20
87.9716700453
 11
112.945154979
 21
88.0090239298
  0
LINE
  5
579
100
AcDbEntity
  8
0
100
AcDbLine
 62
253
  6
CONTINUOUS
 10
112.9452198694
 20
107.4271223667
 11
112.9469257397
 21
107.4649516871
  0
LWPOLYLINE
  5
57A
100
AcDbEntity
  8
0
100
AcDbPolyline
 62
7
  6
CONTINUOUS
 90
8
 70
0
 10
113.3039439932
 20
118.5876669942
 10
113.196709592
 20
116.4226373034
 10
113.0975731253
 20
114.1689816459
 10
113.0111468664
 20
111.9148084483
 10
112.9374337333
 20
109.6601893803
 10
112.8764366443
 20
107.4051961287
 10
112.8281585182
 20
105.1499003973
 10
112.7966629977
 20
103.1991640046
  0
LWPOLYLINE
  5
57B
100
AcDbEntity
  8
ASSI
100
AcDbPolyline
 62
7
  6
CONTINUOUS
 90
4
 70
0
 10
113.3039439932
 20
118.5876669942
 10
113.196709592
 20
116.4226373034
 10
113.0975731253
 20
114.1689816459
 10
113.0111468664
 20
111.9148084483
  0
LINE
  5
57C
100
AcDbEntity
  8
0
100
AcDbLine
 62
253
  6
CONTINUOUS
 10
112.9440652139
 20
107.404187915
 11
112.9452198694
 21
107.4271223667
  0
LINE
  5
57D
100
AcDbEntity
  8
0
100
AcDbLine
 62
253
  6
CONTINUOUS
 10
112.9429006044
 20
107.3831419147
 11
112.9440652139
 21
107.404187915
  0
LINE
  5
57E
100
AcDbEntity
  8
0
100
AcDbLine
 62
253
  6
CONTINUOUS
 10
112.9417247614
 20
107.3639291345
 11
112.9429006044
 21
107.3831419147
  0
LWPOLYLINE
  5
57F
100
AcDbEntity
  8
0
100
AcDbPolyline
 62
253
  6
CONTINUOUS
 90
18
 70
0
 10
113.6543016085
 20
118.5947654374
 10
113.6608703701
 20
118.6787731168
 10
113.6733246415
 20
118.762107513
 10
113.6916019413
 20
118.8443580119
 10
113.7156098887
 20
118.9251139011
 10
113.7452298602
 20
119.0039834708
 10
113.7803214903
 20
119.0805945037
 10
113.8207181604
 20
119.154573943
 10
113.8662208406
 20
119.2255500996
 10
113.9166047319
 20
119.2931706944
 10
113.9716237919
 20
119.3571005248
 10
114.0310092938
 20
119.4170232923
 10
114.0944680074
 20
119.472642046
 10
114.1616910832
 20
119.5236816716
 10
114.2323476125
 20
119.5698871139
 10
114.3060828206
 20
119.6110258568
 10
114.3825303091
 20
119.6468918848
 10
114.4613181701
 20
119.6773093612
  0
LWPOLYLINE
  5
580
100
AcDbEntity
  8
ASSI
100
AcDbPolyline
 62
253
  6
CONTINUOUS
 90
18
 70
0
 10
113.6543016085
 20
118.5947654374
 10
113.6608703701
 20
118.6787731168
 10
113.6733246415
 20
118.762107513
 10
113.6916019413
 20
118.8443580119
 10
113.7156098887
 20
118.9251139011
 10
113.7452298602
 20
119.0039834708
 10
113.7803214903
 20
119.0805945037
 10
113.8207181604
 20
119.154573943
 10
113.8662208406
 20
119.2255500996
 10
113.9166047319
 20
119.2931706944
 10
113.9716237919
 20
119.3571005248
 10
114.0310092938
 20
119.4170232923
 10
114.0944680074
 20
119.472642046
 10
114.1616910832
 20
119.5236816716
 10
114.2323476125
 20
119.5698871139
 10
114.3060828206
 20
119.6110258568
 10
114.3825303091
 20
119.6468918848
 10
114.4613181701
 20
119.6773093612
  0
LWPOLYLINE
  5
581
100
AcDbEntity
  8
0
100
AcDbPolyline
 62
253
  6
CONTINUOUS
 90
22
 70
0
 10
114.1396294228
 20
118.5733233158
 10
114.143507376
 20
118.6224710488
 10
114.1507390438
 20
118.6708325285
 10
114.161324426
 20
118.7184077549
 10
114.1753480135
 20
118.7654455372
 10
114.1927253154
 20
118.8116970663
 10
114.2132028595
 20
118.8564159143
 10
114.2368249725
 20
118.8995582558
 10
114.2635473275
 20
118.9411679162
 10
114.2929834723
 20
118.9806299442
 10
114.3251767107
 20
119.0179146621
 10
114.3600837388
 20
119.0530517475
 10
114.3971881916
 20
119.0855152825
 10
114.4365227488
 20
119.1152636197
 10
114.4780547307
 20
119.1423384065
 10
114.5211697338
 20
119.1663386678
 10
114.5659130759
 20
119.1872196568
 10
114.6122394392
 20
119.2050261203
 10
114.6593984665
 20
119.2194913231
 10
114.7071400387
 20
119.2305263535
 10
114.755714275
 20
119.2382201232
 10
114.8051211752
 20
119.2425726323
  0
LWPOLYLINE
  5
582
100
AcDbEntity
  8
ASSI
100
AcDbPolyline
 62
253
  6
CONTINUOUS
 90
22
 70
0
 10
114.1396294228
 20
118.5733233158
 10
114.143507376
 20
118.6224710488
 10
114.1507390438
 20
118.6708325285
 10
114.161324426
 20
118.7184077549
 10
114.1753480135
 20
118.7654455372
 10
114.1927253154
 20
118.8116970663
 10
114.2132028595
 20
118.8564159143
 10
114.2368249725
 20
118.8995582558
 10
114.2635473275
 20
118.9411679162
 10
114.2929834723
 20
118.9806299442
 10
114.3251767107
 20
119.0179146621
 10
114.3600837388
 20
119.0530517475
 10
114.3971881916
 20
119.0855152825
 10
114.4365227488
 20
119.1152636197
 10
114.4780547307
 20
119.1423384065
 10
114.5211697338
 20
119.1663386678
 10
114.5659130759
 20
119.1872196568
 10
114.6122394392
 20
119.2050261203
 10
114.6593984665
 20
119.2194913231
 10
114.7071400387
 20
119.2305263535
 10
114.755714275
 20
119.2382201232
 10
114.8051211752
 20
119.2425726323
  0
LWPOLYLINE
  5
583
100
AcDbEntity
  8
SUPERFICI
100
AcDbPolyline
 62
7
  6
CONTINUOUS
 90
4
 70
0
 10
112.7965062615
 20
101.2382918955
 10
112.7978647545
 20
101.2453756134
 10
112.7992842348
 20
101.2571238599
 10
112.80077157
 20
101.2736316465
  0
LINE
  5
584
100
AcDbEntity
  8
SUPERFICI
100
AcDbLine
 62
7
  6
CONTINUOUS
 10
112.795209997
 20
101.2358727129
 11
112.7965062615
 21
101.2382918955
  0
LINE
  5
585
100
AcDbEntity
  8
0
100
AcDbLine
 62
7
  6
CONTINUOUS
 10
112.8171089602
 20
92.2358348927
 11
112.7989347893
 21
92.2358322376
  0
LINE
  5
586
100
AcDbEntity
  8
ASSI
100
AcDbLine
 62
7
  6
CONTINUOUS
 10
112.8171089602
 20
92.2358348927
 11
112.7989347893
 21
92.2358322376
  0
LINE
  5
587
100
AcDbEntity
  8
SUPERFICI
100
AcDbLine
 62
7
  6
CONTINUOUS
 10
112.7966629978
 20
92.2358319055
 11
112.8171089606
 21
92.2358348927
  0
LINE
  5
588
100
AcDbEntity
  8
SUPERFICI
100
AcDbLine
 62
7
  6
CONTINUOUS
 10
112.7965061594
 20
94.1967068308
 11
112.795209999
 21
94.1991232007
  0
LWPOLYLINE
  5
589
100
AcDbEntity
  8
0
100
AcDbPolyline
 62
7
  6
CONTINUOUS
 90
4
 70
0
 10
112.7952019578
 20
94.1991232115
 10
112.7968449063
 20
94.195212684
 10
112.7985726122
 20
94.1842090016
 10
112.8003816048
 20
94.1661121766
  0
LWPOLYLINE
  5
58A
100
AcDbEntity
  8
ASSI
100
AcDbPolyline
 62
7
  6
CONTINUOUS
 90
4
 70
0
 10
112.7952019578
 20
94.1991232115
 10
112.7968449063
 20
94.195212684
 10
112.7985726122
 20
94.1842090016
 10
112.8003816048
 20
94.1661121766
  0
LWPOLYLINE
  5
58B
100
AcDbEntity
  8
0
100
AcDbPolyline
 62
7
  6
CONTINUOUS
 90
5
 70
0
 10
112.8003816048
 20
94.1661121766
 10
112.8022817814
 20
94.1407244405
 10
112.8042583855
 20
94.1082435989
 10
112.8062684728
 20
94.0692630231
 10
112.8083107311
 20
94.0235618209
  0
LWPOLYLINE
  5
58C
100
AcDbEntity
  8
ASSI
100
AcDbPolyline
 62
7
  6
CONTINUOUS
 90
5
 70
0
 10
112.8003816048
 20
94.1661121766
 10
112.8022817814
 20
94.1407244405
 10
112.8042583855
 20
94.1082435989
 10
112.8062684728
 20
94.0692630231
 10
112.8083107311
 20
94.0235618209
  0
LWPOLYLINE
  5
58D
100
AcDbEntity
  8
0
100
AcDbPolyline
 62
7
  6
CONTINUOUS
 90
5
 70
0
 10
112.821509805
 20
103.1661160869
 10
112.8228305705
 20
103.1407312304
 10
112.8240706959
 20
103.1082594837
 10
112.8252010415
 20
103.0692891164
 10
112.8262156822
 20
103.023597782
  0
LWPOLYLINE
  5
58E
100
AcDbEntity
  8
ASSI
100
AcDbPolyline
 62
7
  6
CONTINUOUS
 90
5
 70
0
 10
112.821509805
 20
103.1661160869
 10
112.8228305705
 20
103.1407312304
 10
112.8240706959
 20
103.1082594837
 10
112.8252010415
 20
103.0692891164
 10
112.8262156822
 20
103.023597782
  0
LWPOLYLINE
  5
58F
100
AcDbEntity
  8
0
100
AcDbPolyline
 62
253
  6
CONTINUOUS
 90
16
 70
0
 10
113.2057656476
 20
98.4567186171
 10
113.208529973
 20
98.4037306839
 10
113.2165762197
 20
98.3524808374
 10
113.229686987
 20
98.3028514162
 10
113.2479733368
 20
98.2545205354
 10
113.2714570311
 20
98.2078089755
 10
113.2996136632
 20
98.1638386736
 10
113.3319914171
 20
98.123298704
 10
113.3685241138
 20
98.0862628572
 10
113.4087597926
 20
98.0531652971
 10
113.452108716
 20
98.0245240719
 10
113.4981577577
 20
98.0006029395
 10
113.5465359632
 20
97.9815647192
 10
113.5966962817
 20
97.9676667187
 10
113.6479303877
 20
97.9591212641
 10
113.6995780564
 20
97.9559794294
  0
LWPOLYLINE
  5
590
100
AcDbEntity
  8
ASSI
100
AcDbPolyline
 62
253
  6
CONTINUOUS
 90
16
 70
0
 10
113.2057656476
 20
98.4567186171
 10
113.208529973
 20
98.4037306839
 10
113.2165762197
 20
98.3524808374
 10
113.229686987
 20
98.3028514162
 10
113.2479733368
 20
98.2545205354
 10
113.2714570311
 20
98.2078089755
 10
113.2996136632
 20
98.1638386736
 10
113.3319914171
 20
98.123298704
 10
113.3685241138
 20
98.0862628572
 10
113.4087597926
 20
98.0531652971
 10
113.452108716
 20
98.0245240719
 10
113.4981577577
 20
98.0006029395
 10
113.5465359632
 20
97.9815647192
 10
113.5966962817
 20
97.9676667187
 10
113.6479303877
 20
97.9591212641
 10
113.6995780564
 20
97.9559794294
  0
LWPOLYLINE
  5
591
100
AcDbEntity
  8
SUPERFICI
100
AcDbPolyline
 62
7
  6
CONTINUOUS
 90
8
 70
0
 10
112.8071508833
 20
94.0502782005
 10
112.8055114205
 20
94.0846238349
 10
112.8039006931
 20
94.1146079675
 10
112.8023200511
 20
94.1401591424
 10
112.8007724145
 20
94.1613487955
 10
112.7992843862
 20
94.1778706629
 10
112.7978646986
 20
94.1896226493
 10
112.7967488466
 20
94.1954413241
  0
LWPOLYLINE
  5
592
100
AcDbEntity
  8
0
100
AcDbPolyline
 62
253
  6
CONTINUOUS
 90
10
 70
0
 10
113.6543015913
 20
76.8402304578
 10
113.5602146217
 20
79.1548945392
 10
113.4784575576
 20
81.4315062872
 10
113.4084922072
 20
83.6699958078
 10
113.3504054256
 20
85.845077051
 10
113.3028369642
 20
87.981907009
 10
113.2640958839
 20
90.1561104653
 10
113.2344059563
 20
92.392880026
 10
113.2147883502
 20
94.6669508584
 10
113.205765728
 20
96.9782772875
  0
LWPOLYLINE
  5
593
100
AcDbEntity
  8
ASSI
100
AcDbPolyline
 62
253
  6
CONTINUOUS
 90
10
 70
0
 10
113.6543015913
 20
76.8402304578
 10
113.5602146217
 20
79.1548945392
 10
113.4784575576
 20
81.4315062872
 10
113.4084922072
 20
83.6699958078
 10
113.3504054256
 20
85.845077051
 10
113.3028369642
 20
87.981907009
 10
113.2640958839
 20
90.1561104653
 10
113.2344059563
 20
92.392880026
 10
113.2147883502
 20
94.6669508584
 10
113.205765728
 20
96.9782772875
  0
LWPOLYLINE
  5
594
100
AcDbEntity
  8
0
100
AcDbPolyline
 62
253
  6
CONTINUOUS
 90
10
 70
0
 10
114.1396294097
 20
76.8616726
 10
114.0463856678
 20
79.1740523168
 10
113.9644124203
 20
81.4482909032
 10
113.8937096671
 20
83.6843883591
 10
113.8348448375
 20
85.8571955674
 10
113.7872505022
 20
87.9918616452
 10
113.7492243742
 20
90.1638339445
 10
113.7201990245
 20
92.3982615827
 10
113.700741882
 20
94.6699954424
 10
113.690235728
 20
97.0819454559
  0
LWPOLYLINE
  5
595
100
AcDbEntity
  8
ASSI
100
AcDbPolyline
 62
253
  6
CONTINUOUS
 90
10
 70
0
 10
114.1396294097
 20
76.8616726
 10
114.0463856678
 20
79.1740523168
 10
113.9644124203
 20
81.4482909032
 10
113.8937096671
 20
83.6843883591
 10
113.8348448375
 20
85.8571955674
 10
113.7872505022
 20
87.9918616452
 10
113.7492243742
 20
90.1638339445
 10
113.7201990245
 20
92.3982615827
 10
113.700741882
 20
94.6699954424
 10
113.690235728
 20
97.0819454559
  0
LINE
  5
596
100
AcDbEntity
  8
SUPERFICI
100
AcDbLine
 62
7
  6
CONTINUOUS
 10
112.8104305248
 20
93.9700396935
 11
112.8071508833
 21
94.0502782005
  0
LINE
  5
597
100
AcDbEntity
  8
0
100
AcDbLine
 62
253
  6
CONTINUOUS
 10
112.9484757784
 20
87.9310671697
 11
112.9468508029
 21
87.9716700453
  0
LINE
  5
598
100
AcDbEntity
  8
0
100
AcDbLine
 62
7
  6
CONTINUOUS
 10
112.8083107311
 20
94.0235618209
 11
112.8124121691
 21
93.9139164294
  0
LINE
  5
599
100
AcDbEntity
  8
ASSI
100
AcDbLine
 62
7
  6
CONTINUOUS
 10
112.8083107311
 20
94.0235618209
 11
112.8124121691
 21
93.9139164294
  0
LINE
  5
59A
100
AcDbEntity
  8
0
100
AcDbLine
 62
253
  6
CONTINUOUS
 10
112.9499867849
 20
87.8881402698
 11
112.9484757784
 21
87.9310671697
  0
LWPOLYLINE
  5
59B
100
AcDbEntity
  8
ASSI
100
AcDbPolyline
 62
7
  6
CONTINUOUS
 90
5
 70
0
 10
112.9374337333
 20
85.7748065334
 10
113.0111468664
 20
83.5201874653
 10
113.0975731253
 20
81.2660142677
 10
113.196709592
 20
79.0123586103
 10
113.3039439932
 20
76.8473289195
  0
LINE
  5
59C
100
AcDbEntity
  8
SUPERFICI
100
AcDbLine
 62
7
  6
CONTINUOUS
 10
112.8136717317
 20
93.8750072691
 11
112.8104305248
 21
93.9700396935
  0
LWPOLYLINE
  5
59D
100
AcDbEntity
  8
0
100
AcDbPolyline
 62
253
  6
CONTINUOUS
 90
29
 70
0
 10
112.9290982589
 20
107.334573864
 10
112.9292911345
 20
107.3284154102
 10
112.9295017977
 20
107.3226600982
 10
112.9297302835
 20
107.3173145732
 10
112.929976627
 20
107.3123854807
 10
112.9302408632
 20
107.3078794661
 10
112.93052302
 20
107.3038045585
 10
112.9308230953
 20
107.3001743228
 10
112.9311410801
 20
107.2970037074
 10
112.9314772003
 20
107.294308881
 10
112.9318326233
 20
107.2921108934
 10
112.9322087514
 20
107.2904320145
 10
112.932606553
 20
107.2892958021
 10
112.9330252599
 20
107.2887309646
 10
112.9334636699
 20
107.2887674979
 10
112.9339208027
 20
107.2894319908
 10
112.9343965677
 20
107.2907374023
 10
112.9348910964
 20
107.2926932844
 10
112.935404157
 20
107.2953057418
 10
112.935934066
 20
107.2985670907
 10
112.9364787767
 20
107.3024662007
 10
112.9370362422
 20
107.3069919411
 10
112.937604416
 20
107.3121331811
 10
112.9381812513
 20
107.3178787902
 10
112.9387647718
 20
107.3242153611
 10
112.9393532833
 20
107.3311203801
 10
112.9399451618
 20
107.3385690572
 10
112.9405387836
 20
107.3465366021
 10
112.9417247614
 20
107.3639291345
  0
LINE
  5
59E
100
AcDbEntity
  8
0
100
AcDbLine
 62
7
  6
CONTINUOUS
 10
112.8124121691
 20
93.9139164294
 11
112.8163487846
 21
93.783254624
  0
LINE
  5
59F
100
AcDbEntity
  8
ASSI
100
AcDbLine
 62
7
  6
CONTINUOUS
 10
112.8124121691
 20
93.9139164294
 11
112.8163487846
 21
93.783254624
  0
LINE
  5
5A0
100
AcDbEntity
  8
0
100
AcDbLine
 62
253
  6
CONTINUOUS
 10
112.9517444245
 20
87.8297346749
 11
112.9499867849
 21
87.8881402698
  0
LINE
  5
5A1
100
AcDbEntity
  8
SUPERFICI
100
AcDbLine
 62
7
  6
CONTINUOUS
 10
112.8167910094
 20
93.7667638333
 11
112.8136717317
 21
93.8750072691
  0
LINE
  5
5A2
100
AcDbEntity
  8
ASSI
100
AcDbLine
 62
7
  6
CONTINUOUS
 10
112.8764366443
 20
88.0297997849
 11
112.9374337333
 21
85.7748065334
  0
LWPOLYLINE
  5
5A3
100
AcDbEntity
  8
SUPERFICI
100
AcDbPolyline
 62
7
  6
CONTINUOUS
 90
8
 70
0
 10
112.82565585
 20
103.0503214588
 10
112.8247898362
 20
103.0846611278
 10
112.823856498
 20
103.1146386382
 10
112.8228557532
 20
103.1401807187
 10
112.8217915786
 20
103.1613606426
 10
112.8206824979
 20
103.1778786159
 10
112.8195345092
 20
103.189634707
 10
112.8185522188
 20
103.1954829458
  0
LINE
  5
5A4
100
AcDbEntity
  8
0
100
AcDbLine
 62
253
  6
CONTINUOUS
 10
112.9808357896
 20
84.41924838
 11
112.970993931
 21
84.8001098114
  0
LINE
  5
5A5
100
AcDbEntity
  8
0
100
AcDbLine
 62
253
  6
CONTINUOUS
 10
112.945209337
 20
85.6048394806
 11
112.9543863664
 21
85.2340808485
  0
LINE
  5
5A6
100
AcDbEntity
  8
0
100
AcDbLine
 62
7
  6
CONTINUOUS
 10
112.8163487846
 20
93.783254624
 11
112.8199710221
 21
93.6353575472
  0
LINE
  5
5A7
100
AcDbEntity
  8
ASSI
100
AcDbLine
 62
7
  6
CONTINUOUS
 10
112.8163487846
 20
93.783254624
 11
112.8199710221
 21
93.6353575472
  0
LINE
  5
5A8
100
AcDbEntity
  8
0
100
AcDbLine
 62
253
  6
CONTINUOUS
 10
112.9287658149
 20
107.3480767647
 11
112.9290982589
 21
107.334573864
  0
LINE
  5
5A9
100
AcDbEntity
  8
0
100
AcDbLine
 62
253
  6
CONTINUOUS
 10
112.9531448697
 20
87.772320954
 11
112.9517444245
 21
87.8297346749
  0
LINE
  5
5AA
100
AcDbEntity
  8
SUPERFICI
100
AcDbLine
 62
7
  6
CONTINUOUS
 10
112.8210313977
 20
93.5857670145
 11
112.8167910094
 21
93.7667638333
  0
LINE
  5
5AB
100
AcDbEntity
  8
0
100
AcDbLine
 62
7
  6
CONTINUOUS
 10
112.8199710221
 20
93.6353575472
 11
112.8231611492
 21
93.4735191043
  0
LINE
  5
5AC
100
AcDbEntity
  8
ASSI
100
AcDbLine
 62
7
  6
CONTINUOUS
 10
112.8199710221
 20
93.6353575472
 11
112.8231611492
 21
93.4735191043
  0
LINE
  5
5AD
100
AcDbEntity
  8
0
100
AcDbLine
 62
253
  6
CONTINUOUS
 10
112.970993931
 20
84.8001098114
 11
112.9631969125
 21
85.1923265679
  0
LINE
  5
5AE
100
AcDbEntity
  8
0
100
AcDbLine
 62
253
  6
CONTINUOUS
 10
112.9379056559
 20
85.9861418185
 11
112.945209337
 21
85.6048394806
  0
LWPOLYLINE
  5
5AF
100
AcDbEntity
  8
0
100
AcDbPolyline
 62
253
  6
CONTINUOUS
 90
9
 70
0
 10
113.6912857856
 20
98.1221719894
 10
113.6919301845
 20
98.0850387752
 10
113.6927067947
 20
98.0519729846
 10
113.6936073477
 20
98.0233370766
 10
113.6946219072
 20
97.9994559923
 10
113.695739077
 20
97.9806010324
 10
113.6969464455
 20
97.9669808099
 10
113.698230818
 20
97.9587433704
 10
113.6995780565
 20
97.9559794294
  0
LWPOLYLINE
  5
5B0
100
AcDbEntity
  8
ASSI
100
AcDbPolyline
 62
253
  6
CONTINUOUS
 90
9
 70
0
 10
113.6912857856
 20
98.1221719894
 10
113.6919301845
 20
98.0850387752
 10
113.6927067947
 20
98.0519729846
 10
113.6936073477
 20
98.0233370766
 10
113.6946219072
 20
97.9994559923
 10
113.695739077
 20
97.9806010324
 10
113.6969464455
 20
97.9669808099
 10
113.698230818
 20
97.9587433704
 10
113.6995780565
 20
97.9559794294
  0
LINE
  5
5B1
100
AcDbEntity
  8
0
100
AcDbLine
 62
253
  6
CONTINUOUS
 10
112.9541786022
 20
87.7178854122
 11
112.9531448697
 21
87.772320954
  0
LINE
  5
5B2
100
AcDbEntity
  8
SUPERFICI
100
AcDbLine
 62
7
  6
CONTINUOUS
 10
112.8271355413
 20
102.9700897531
 11
112.82565585
 21
103.0503214588
  0
LWPOLYLINE
  5
5B3
100
AcDbEntity
  8
0
100
AcDbPolyline
 62
7
  6
CONTINUOUS
 90
8
 70
0
 10
112.7966629977
 20
92.2358319091
 10
112.8281585182
 20
90.2850955163
 10
112.8764366443
 20
88.0297997849
 10
112.9374337333
 20
85.7748065334
 10
113.0111468664
 20
83.5201874653
 10
113.0975731253
 20
81.2660142677
 10
113.196709592
 20
79.0123586103
 10
113.3039439932
 20
76.8473289195
  0
LWPOLYLINE
  5
5B4
100
AcDbEntity
  8
ASSI
100
AcDbPolyline
 62
7
  6
CONTINUOUS
 90
3
 70
0
 10
112.7966629977
 20
92.2358319091
 10
112.8281585182
 20
90.2850955163
 10
112.8764366443
 20
88.0297997849
  0
LINE
  5
5B5
100
AcDbEntity
  8
SUPERFICI
100
AcDbLine
 62
7
  6
CONTINUOUS
 10
112.8245577824
 20
93.3880231533
 11
112.8210313977
 21
93.5857670145
  0
LINE
  5
5B6
100
AcDbEntity
  8
0
100
AcDbLine
 62
253
  6
CONTINUOUS
 10
112.9285062179
 20
107.3631912292
 11
112.9287658149
 21
107.3480767647
  0
LINE
  5
5B7
100
AcDbEntity
  8
0
100
AcDbLine
 62
7
  6
CONTINUOUS
 10
112.8262156822
 20
103.023597782
 11
112.8278623081
 21
102.9139745138
  0
LINE
  5
5B8
100
AcDbEntity
  8
ASSI
100
AcDbLine
 62
7
  6
CONTINUOUS
 10
112.8262156822
 20
103.023597782
 11
112.8278623081
 21
102.9139745138
  0
LINE
  5
5B9
100
AcDbEntity
  8
0
100
AcDbLine
 62
253
  6
CONTINUOUS
 10
112.9631969125
 20
85.1923265679
 11
112.9574118671
 21
85.5960228248
  0
LINE
  5
5BA
100
AcDbEntity
  8
0
100
AcDbLine
 62
253
  6
CONTINUOUS
 10
112.9324418281
 20
86.3779972063
 11
112.9379056559
 21
85.9861418185
  0
LINE
  5
5BB
100
AcDbEntity
  8
0
100
AcDbLine
 62
7
  6
CONTINUOUS
 10
112.8231611492
 20
93.4735191043
 11
112.8267956767
 21
93.2181133279
  0
LINE
  5
5BC
100
AcDbEntity
  8
ASSI
100
AcDbLine
 62
7
  6
CONTINUOUS
 10
112.8231611492
 20
93.4735191043
 11
112.8267956767
 21
93.2181133279
  0
LINE
  5
5BD
100
AcDbEntity
  8
0
100
AcDbLine
 62
253
  6
CONTINUOUS
 10
112.954884691
 20
87.6668792063
 11
112.9541786022
 21
87.7178854122
  0
LINE
  5
5BE
100
AcDbEntity
  8
SUPERFICI
100
AcDbLine
 62
7
  6
CONTINUOUS
 10
112.8271637927
 20
93.1834398945
 11
112.8245577824
 21
93.3880231533
  0
LINE
  5
5BF
100
AcDbEntity
  8
SUPERFICI
100
AcDbLine
 62
7
  6
CONTINUOUS
 10
112.8282535717
 20
102.8750569131
 11
112.8271355413
 21
102.9700897531
  0
LINE
  5
5C0
100
AcDbEntity
  8
0
100
AcDbLine
 62
253
  6
CONTINUOUS
 10
112.9283231685
 20
107.3800121291
 11
112.9285062179
 21
107.3631912292
  0
LWPOLYLINE
  5
5C1
100
AcDbEntity
  8
SUPERFICI
100
AcDbPolyline
 62
7
  6
CONTINUOUS
 90
3
 70
0
 10
112.7745734407
 20
94.1991779883
 10
112.7760257651
 20
94.0377734525
 10
112.7966629977
 20
92.2358319091
  0
LINE
  5
5C2
100
AcDbEntity
  8
0
100
AcDbLine
 62
253
  6
CONTINUOUS
 10
113.6904194122
 20
98.2070441525
 11
113.6912857856
 21
98.1221719894
  0
LINE
  5
5C3
100
AcDbEntity
  8
ASSI
100
AcDbLine
 62
253
  6
CONTINUOUS
 10
113.6904194122
 20
98.2070441525
 11
113.6912857856
 21
98.1221719894
  0
LINE
  5
5C4
100
AcDbEntity
  8
0
100
AcDbLine
 62
253
  6
CONTINUOUS
 10
112.9287831436
 20
86.7801218767
 11
112.9324418281
 21
86.3779972063
  0
LINE
  5
5C5
100
AcDbEntity
  8
0
100
AcDbLine
 62
253
  6
CONTINUOUS
 10
112.9574118671
 20
85.5960228248
 11
112.9536037016
 21
86.0110127521
  0
LINE
  5
5C6
100
AcDbEntity
  8
0
100
AcDbLine
 62
7
  6
CONTINUOUS
 10
112.8278623081
 20
102.9139745138
 11
112.8288866641
 21
102.7833362368
  0
LINE
  5
5C7
100
AcDbEntity
  8
ASSI
100
AcDbLine
 62
7
  6
CONTINUOUS
 10
112.8278623081
 20
102.9139745138
 11
112.8288866641
 21
102.7833362368
  0
LINE
  5
5C8
100
AcDbEntity
  8
0
100
AcDbLine
 62
253
  6
CONTINUOUS
 10
112.955286682
 20
87.6195840962
 11
112.954884691
 21
87.6668792063
  0
LINE
  5
5C9
100
AcDbEntity
  8
SUPERFICI
100
AcDbLine
 62
7
  6
CONTINUOUS
 10
112.8287359504
 20
92.9796712085
 11
112.8271637927
 21
93.1834398945
  0
LINE
  5
5CA
100
AcDbEntity
  8
0
100
AcDbLine
 62
7
  6
CONTINUOUS
 10
112.8267956767
 20
93.2181133279
 11
112.8288216275
 21
92.9625006188
  0
LINE
  5
5CB
100
AcDbEntity
  8
ASSI
100
AcDbLine
 62
7
  6
CONTINUOUS
 10
112.8267956767
 20
93.2181133279
 11
112.8288216275
 21
92.9625006188
  0
LINE
  5
5CC
100
AcDbEntity
  8
SUPERFICI
100
AcDbLine
 62
7
  6
CONTINUOUS
 10
112.8289622525
 20
102.76680405
 11
112.8282535717
 21
102.8750569131
  0
LWPOLYLINE
  5
5CD
100
AcDbEntity
  8
0
100
AcDbPolyline
 62
7
  6
CONTINUOUS
 90
3
 70
0
 10
112.759790385
 20
96.9742304176
 10
112.7697667048
 20
94.7963075605
 10
112.7745734407
 20
94.1991779883
  0
LWPOLYLINE
  5
5CE
100
AcDbEntity
  8
ASSI
100
AcDbPolyline
 62
7
  6
CONTINUOUS
 90
3
 70
0
 10
112.759790385
 20
96.9742304176
 10
112.7697667048
 20
94.7963075605
 10
112.7745734407
 20
94.1991779883
  0
LINE
  5
5CF
100
AcDbEntity
  8
0
100
AcDbLine
 62
253
  6
CONTINUOUS
 10
112.9536037016
 20
86.0110127521
 11
112.9517350966
 21
86.4368005155
  0
LINE
  5
5D0
100
AcDbEntity
  8
0
100
AcDbLine
 62
253
  6
CONTINUOUS
 10
112.9553859429
 20
107.8684353047
 11
112.9517796181
 21
108.5619893885
  0
LINE
  5
5D1
100
AcDbEntity
  8
0
100
AcDbLine
 62
253
  6
CONTINUOUS
 10
112.9267453065
 20
107.8200484446
 11
112.9283231685
 21
107.3800121291
  0
LINE
  5
5D2
100
AcDbEntity
  8
0
100
AcDbLine
 62
253
  6
CONTINUOUS
 10
112.9553922472
 20
87.5868008016
 11
112.955286682
 21
87.6195840962
  0
LINE
  5
5D3
100
AcDbEntity
  8
0
100
AcDbLine
 62
253
  6
CONTINUOUS
 10
112.926600855
 20
87.4018698962
 11
112.9287831436
 21
86.7801218767
  0
LINE
  5
5D4
100
AcDbEntity
  8
0
100
AcDbLine
 62
7
  6
CONTINUOUS
 10
112.8288216275
 20
92.9625006188
 11
112.8292233018
 21
92.8004010427
  0
LINE
  5
5D5
100
AcDbEntity
  8
ASSI
100
AcDbLine
 62
7
  6
CONTINUOUS
 10
112.8288216275
 20
92.9625006188
 11
112.8292233018
 21
92.8004010427
  0
LINE
  5
5D6
100
AcDbEntity
  8
0
100
AcDbLine
 62
253
  6
CONTINUOUS
 10
113.6901463675
 20
98.3027288401
 11
113.6904194122
 21
98.2070441525
  0
LINE
  5
5D7
100
AcDbEntity
  8
ASSI
100
AcDbLine
 62
253
  6
CONTINUOUS
 10
113.6901463675
 20
98.3027288401
 11
113.6904194122
 21
98.2070441525
  0
LINE
  5
5D8
100
AcDbEntity
  8
0
100
AcDbLine
 62
7
  6
CONTINUOUS
 10
112.8288866641
 20
102.7833362368
 11
112.8292235155
 21
102.6354587636
  0
LINE
  5
5D9
100
AcDbEntity
  8
ASSI
100
AcDbLine
 62
7
  6
CONTINUOUS
 10
112.8288866641
 20
102.7833362368
 11
112.8292235155
 21
102.6354587636
  0
LINE
  5
5DA
100
AcDbEntity
  8
SUPERFICI
100
AcDbLine
 62
7
  6
CONTINUOUS
 10
112.8292271974
 20
92.7868626042
 11
112.8287359504
 21
92.9796712085
  0
LINE
  5
5DB
100
AcDbEntity
  8
SUPERFICI
100
AcDbLine
 62
7
  6
CONTINUOUS
 10
112.8291839938
 20
102.5857824612
 11
112.8289622525
 21
102.76680405
  0
LINE
  5
5DC
100
AcDbEntity
  8
0
100
AcDbLine
 62
253
  6
CONTINUOUS
 10
112.9517796181
 20
108.5619893885
 11
112.9517455435
 21
108.9981799106
  0
LINE
  5
5DD
100
AcDbEntity
  8
0
100
AcDbLine
 62
253
  6
CONTINUOUS
 10
113.690235728
 20
97.0819454559
 11
113.6902073861
 21
97.181139209
  0
LINE
  5
5DE
100
AcDbEntity
  8
ASSI
100
AcDbLine
 62
253
  6
CONTINUOUS
 10
113.690235728
 20
97.0819454559
 11
113.6902073861
 21
97.181139209
  0
LINE
  5
5DF
100
AcDbEntity
  8
0
100
AcDbLine
 62
253
  6
CONTINUOUS
 10
112.955389834
 20
107.8370086548
 11
112.9553859429
 21
107.8684353047
  0
LINE
  5
5E0
100
AcDbEntity
  8
0
100
AcDbLine
 62
253
  6
CONTINUOUS
 10
112.9517350966
 20
86.4368005155
 11
112.9524769272
 21
87.0950210426
  0
LINE
  5
5E1
100
AcDbEntity
  8
0
100
AcDbLine
 62
253
  6
CONTINUOUS
 10
112.9276234113
 20
108.4487068776
 11
112.9267453065
 21
107.8200484446
  0
LINE
  5
5E2
100
AcDbEntity
  8
0
100
AcDbLine
 62
7
  6
CONTINUOUS
 10
112.8292235155
 20
102.6354587636
 11
112.8288271366
 21
102.4736343793
  0
LINE
  5
5E3
100
AcDbEntity
  8
ASSI
100
AcDbLine
 62
7
  6
CONTINUOUS
 10
112.8292235155
 20
102.6354587636
 11
112.8288271366
 21
102.4736343793
  0
LINE
  5
5E4
100
AcDbEntity
  8
0
100
AcDbLine
 62
7
  6
CONTINUOUS
 10
112.8292233018
 20
92.8004010427
 11
112.8288893272
 21
92.6522048431
  0
LINE
  5
5E5
100
AcDbEntity
  8
ASSI
100
AcDbLine
 62
7
  6
CONTINUOUS
 10
112.8292233018
 20
92.8004010427
 11
112.8288893272
 21
92.6522048431
  0
LWPOLYLINE
  5
5E6
100
AcDbEntity
  8
0
100
AcDbPolyline
 62
253
  6
CONTINUOUS
 90
10
 70
0
 10
113.205765727
 20
98.4567186207
 10
113.2133095339
 20
100.5229994844
 10
113.2299589079
 20
102.6200300481
 10
113.2561126154
 20
104.7477677552
 10
113.2918672003
 20
106.8899112859
 10
113.3377935839
 20
109.0626691405
 10
113.395667383
 20
111.3147439593
 10
113.4671266193
 20
113.6623076458
 10
113.5529417608
 20
116.089015958
 10
113.6543015906
 20
118.5947654383
  0
LWPOLYLINE
  5
5E7
100
AcDbEntity
  8
ASSI
100
AcDbPolyline
 62
253
  6
CONTINUOUS
 90
10
 70
0
 10
113.205765727
 20
98.4567186207
 10
113.2133095339
 20
100.5229994844
 10
113.2299589079
 20
102.6200300481
 10
113.2561126154
 20
104.7477677552
 10
113.2918672003
 20
106.8899112859
 10
113.3377935839
 20
109.0626691405
 10
113.395667383
 20
111.3147439593
 10
113.4671266193
 20
113.6623076458
 10
113.5529417608
 20
116.089015958
 10
113.6543015906
 20
118.5947654383
  0
LINE
  5
5E8
100
AcDbEntity
  8
0
100
AcDbLine
 62
253
  6
CONTINUOUS
 10
112.9282516768
 20
88.0459027898
 11
112.926600855
 21
87.4018698962
  0
LINE
  5
5E9
100
AcDbEntity
  8
0
100
AcDbLine
 62
253
  6
CONTINUOUS
 10
112.9553219544
 20
87.5565401365
 11
112.9553922472
 21
87.5868008016
  0
LINE
  5
5EA
100
AcDbEntity
  8
SUPERFICI
100
AcDbLine
 62
7
  6
CONTINUOUS
 10
112.8286603978
 20
92.6125648909
 11
112.8292271974
 21
92.7868626042
  0
LINE
  5
5EB
100
AcDbEntity
  8
0
100
AcDbLine
 62
253
  6
CONTINUOUS
 10
112.9517455435
 20
108.9981799106
 11
112.9536116965
 21
109.4239599202
  0
LINE
  5
5EC
100
AcDbEntity
  8
SUPERFICI
100
AcDbLine
 62
7
  6
CONTINUOUS
 10
112.8283304486
 20
102.3880104974
 11
112.8291839938
 21
102.5857824612
  0
LINE
  5
5ED
100
AcDbEntity
  8
0
100
AcDbLine
 62
253
  6
CONTINUOUS
 10
112.9552196734
 20
107.803178765
 11
112.955389834
 21
107.8370086548
  0
LINE
  5
5EE
100
AcDbEntity
  8
0
100
AcDbLine
 62
253
  6
CONTINUOUS
 10
112.9524769272
 20
87.0950210426
 11
112.9553219544
 21
87.5565401365
  0
LINE
  5
5EF
100
AcDbEntity
  8
0
100
AcDbLine
 62
253
  6
CONTINUOUS
 10
113.6977297833
 20
100.5202286007
 11
113.6901463675
 21
98.3027288401
  0
LINE
  5
5F0
100
AcDbEntity
  8
ASSI
100
AcDbLine
 62
253
  6
CONTINUOUS
 10
113.6977297833
 20
100.5202286007
 11
113.6901463675
 21
98.3027288401
  0
LWPOLYLINE
  5
5F1
100
AcDbEntity
  8
0
100
AcDbPolyline
 62
7
  6
CONTINUOUS
 90
3
 70
0
 10
112.7745734407
 20
101.2358179253
 10
112.7697667048
 20
100.6386883532
 10
112.759790385
 20
98.4607654961
  0
LWPOLYLINE
  5
5F2
100
AcDbEntity
  8
ASSI
100
AcDbPolyline
 62
7
  6
CONTINUOUS
 90
3
 70
0
 10
112.7745734407
 20
101.2358179253
 10
112.7697667048
 20
100.6386883532
 10
112.759790385
 20
98.4607654961
  0
LINE
  5
5F3
100
AcDbEntity
  8
0
100
AcDbLine
 62
253
  6
CONTINUOUS
 10
112.9303896403
 20
108.8561864063
 11
112.9276234113
 21
108.4487068776
  0
LWPOLYLINE
  5
5F4
100
AcDbEntity
  8
0
100
AcDbPolyline
 62
253
  6
CONTINUOUS
 90
9
 70
0
 10
113.6977297833
 20
100.5202286007
 10
113.7145242364
 20
102.6151121436
 10
113.7412362089
 20
104.7406110198
 10
113.7767600166
 20
106.8805475609
 10
113.8222013438
 20
109.0510994353
 10
113.8808772428
 20
111.3007996475
 10
113.9538933977
 20
113.6458258658
 10
114.0401441243
 20
116.0700004219
 10
114.1396294228
 20
118.5733233158
  0
LWPOLYLINE
  5
5F5
100
AcDbEntity
  8
ASSI
100
AcDbPolyline
 62
253
  6
CONTINUOUS
 90
9
 70
0
 10
113.6977297833
 20
100.5202286007
 10
113.7145242364
 20
102.6151121436
 10
113.7412362089
 20
104.7406110198
 10
113.7767600166
 20
106.8805475609
 10
113.8222013438
 20
109.0510994353
 10
113.8808772428
 20
111.3007996475
 10
113.9538933977
 20
113.6458258658
 10
114.0401441243
 20
116.0700004219
 10
114.1396294228
 20
118.5733233158
  0
LWPOLYLINE
  5
5F6
100
AcDbEntity
  8
0
100
AcDbPolyline
 62
253
  6
CONTINUOUS
 90
11
 70
0
 10
113.6902073861
 20
97.181139209
 10
113.6907805568
 20
97.2720237894
 10
113.6912858818
 20
97.3128238402
 10
113.6919302806
 20
97.3499570751
 10
113.6927068909
 20
97.3830228833
 10
113.6936074439
 20
97.4116588041
 10
113.6946220035
 20
97.4355398988
 10
113.6957391735
 20
97.4543948679
 10
113.696946542
 20
97.468015098
 10
113.6982309147
 20
97.4762525423
 10
113.6995781532
 20
97.4790164851
  0
LWPOLYLINE
  5
5F7
100
AcDbEntity
  8
ASSI
100
AcDbPolyline
 62
253
  6
CONTINUOUS
 90
11
 70
0
 10
113.6902073861
 20
97.181139209
 10
113.6907805568
 20
97.2720237894
 10
113.6912858818
 20
97.3128238402
 10
113.6919302806
 20
97.3499570751
 10
113.6927068909
 20
97.3830228833
 10
113.6936074439
 20
97.4116588041
 10
113.6946220035
 20
97.4355398988
 10
113.6957391735
 20
97.4543948679
 10
113.696946542
 20
97.468015098
 10
113.6982309147
 20
97.4762525423
 10
113.6995781532
 20
97.4790164851
  0
LINE
  5
5F8
100
AcDbEntity
  8
0
100
AcDbLine
 62
7
  6
CONTINUOUS
 10
112.8288893272
 20
92.6522048431
 11
112.8278652934
 21
92.5212553979
  0
LINE
  5
5F9
100
AcDbEntity
  8
ASSI
100
AcDbLine
 62
7
  6
CONTINUOUS
 10
112.8288893272
 20
92.6522048431
 11
112.8278652934
 21
92.5212553979
  0
LINE
  5
5FA
100
AcDbEntity
  8
0
100
AcDbLine
 62
253
  6
CONTINUOUS
 10
112.9283946646
 20
88.0638349107
 11
112.9282516768
 21
88.0459027898
  0
LINE
  5
5FB
100
AcDbEntity
  8
0
100
AcDbLine
 62
7
  6
CONTINUOUS
 10
112.8288271366
 20
102.4736343793
 11
112.8268106859
 21
102.2182398198
  0
LINE
  5
5FC
100
AcDbEntity
  8
ASSI
100
AcDbLine
 62
7
  6
CONTINUOUS
 10
112.8288271366
 20
102.4736343793
 11
112.8268106859
 21
102.2182398198
  0
LINE
  5
5FD
100
AcDbEntity
  8
0
100
AcDbLine
 62
253
  6
CONTINUOUS
 10
112.9536116965
 20
109.4239599202
 11
112.9574181285
 21
109.8389444579
  0
LINE
  5
5FE
100
AcDbEntity
  8
SUPERFICI
100
AcDbLine
 62
7
  6
CONTINUOUS
 10
112.827745176
 20
92.5108616397
 11
112.8286603978
 21
92.6125648909
  0
LINE
  5
5FF
100
AcDbEntity
  8
SUPERFICI
100
AcDbLine
 62
7
  6
CONTINUOUS
 10
112.8264100612
 20
102.1834121221
 11
112.8283304486
 21
102.3880104974
  0
LINE
  5
600
100
AcDbEntity
  8
0
100
AcDbLine
 62
253
  6
CONTINUOUS
 10
112.9547328383
 20
107.7548458344
 11
112.9552196734
 21
107.803178765
  0
LINE
  5
601
100
AcDbEntity
  8
0
100
AcDbLine
 62
253
  6
CONTINUOUS
 10
112.9349464277
 20
109.2537894697
 11
112.9303896403
 21
108.8561864063
  0
LWPOLYLINE
  5
602
100
AcDbEntity
  8
SUPERFICI
100
AcDbPolyline
 62
7
  6
CONTINUOUS
 90
3
 70
0
 10
112.7966629977
 20
103.1991640046
 10
112.7945727507
 20
103.0444734781
 10
112.7745734407
 20
101.2358179253
  0
LINE
  5
603
100
AcDbEntity
  8
0
100
AcDbLine
 62
253
  6
CONTINUOUS
 10
112.9286179827
 20
88.0799276445
 11
112.9283946646
 21
88.0638349107
  0
LINE
  5
604
100
AcDbEntity
  8
0
100
AcDbLine
 62
253
  6
CONTINUOUS
 10
112.9574181285
 20
109.8389444579
 11
112.9632018261
 21
110.2426424255
  0
LINE
  5
605
100
AcDbEntity
  8
SUPERFICI
100
AcDbLine
 62
7
  6
CONTINUOUS
 10
112.8234730024
 20
101.9796484712
 11
112.8264100612
 21
102.1834121221
  0
LINE
  5
606
100
AcDbEntity
  8
0
100
AcDbLine
 62
7
  6
CONTINUOUS
 10
112.8268106859
 20
102.2182398198
 11
112.8231809178
 21
101.9626191388
  0
LINE
  5
607
100
AcDbEntity
  8
ASSI
100
AcDbLine
 62
7
  6
CONTINUOUS
 10
112.8268106859
 20
102.2182398198
 11
112.8231809178
 21
101.9626191388
  0
LINE
  5
608
100
AcDbEntity
  8
0
100
AcDbLine
 62
253
  6
CONTINUOUS
 10
112.95394906
 20
107.7034730134
 11
112.9547328383
 21
107.7548458344
  0
LWPOLYLINE
  5
609
100
AcDbEntity
  8
0
100
AcDbPolyline
 62
7
  6
CONTINUOUS
 90
9
 70
0
 10
112.8278652934
 20
92.5212553979
 10
112.8262163943
 20
92.4114583434
 10
112.8252005957
 20
92.3657136947
 10
112.8240694052
 20
92.3267104042
 10
112.8228285974
 20
92.2942255153
 10
112.8215076433
 20
92.2688376547
 10
112.8201165129
 20
92.2507396973
 10
112.8186492642
 20
92.2397387732
 10
112.8171089602
 20
92.2358348927
  0
LWPOLYLINE
  5
60A
100
AcDbEntity
  8
ASSI
100
AcDbPolyline
 62
7
  6
CONTINUOUS
 90
9
 70
0
 10
112.8278652934
 20
92.5212553979
 10
112.8262163943
 20
92.4114583434
 10
112.8252005957
 20
92.3657136947
 10
112.8240694052
 20
92.3267104042
 10
112.8228285974
 20
92.2942255153
 10
112.8215076433
 20
92.2688376547
 10
112.8201165129
 20
92.2507396973
 10
112.8186492642
 20
92.2397387732
 10
112.8171089602
 20
92.2358348927
  0
LINE
  5
60B
100
AcDbEntity
  8
0
100
AcDbLine
 62
253
  6
CONTINUOUS
 10
112.941326957
 20
109.6407789937
 11
112.9349464277
 21
109.2537894697
  0
LINE
  5
60C
100
AcDbEntity
  8
0
100
AcDbLine
 62
7
  6
CONTINUOUS
 10
112.8231809178
 20
101.9626191388
 11
112.8199900623
 21
101.8005062123
  0
LINE
  5
60D
100
AcDbEntity
  8
ASSI
100
AcDbLine
 62
7
  6
CONTINUOUS
 10
112.8231809178
 20
101.9626191388
 11
112.8199900623
 21
101.8005062123
  0
LINE
  5
60E
100
AcDbEntity
  8
0
100
AcDbLine
 62
253
  6
CONTINUOUS
 10
112.9632018261
 20
110.2426424255
 11
112.9709975573
 21
110.6348693801
  0
LWPOLYLINE
  5
60F
100
AcDbEntity
  8
ASSI
100
AcDbPolyline
 62
7
  6
CONTINUOUS
 90
3
 70
0
 10
112.8764366443
 20
107.4051961287
 10
112.8281585182
 20
105.1499003973
 10
112.7966629977
 20
103.1991640046
  0
LINE
  5
610
100
AcDbEntity
  8
SUPERFICI
100
AcDbLine
 62
7
  6
CONTINUOUS
 10
112.8196910744
 20
101.7868552596
 11
112.8234730024
 21
101.9796484712
  0
LINE
  5
611
100
AcDbEntity
  8
0
100
AcDbLine
 62
253
  6
CONTINUOUS
 10
112.9528411108
 20
107.6490142308
 11
112.95394906
 21
107.7034730134
  0
LINE
  5
612
100
AcDbEntity
  8
0
100
AcDbLine
 62
253
  6
CONTINUOUS
 10
112.9495636137
 20
110.0168973408
 11
112.941326957
 21
109.6407789937
  0
LINE
  5
613
100
AcDbEntity
  8
0
100
AcDbLine
 62
7
  6
CONTINUOUS
 10
112.8199900623
 20
101.8005062123
 11
112.8163636699
 21
101.6522899378
  0
LINE
  5
614
100
AcDbEntity
  8
ASSI
100
AcDbLine
 62
7
  6
CONTINUOUS
 10
112.8199900623
 20
101.8005062123
 11
112.8163636699
 21
101.6522899378
  0
LINE
  5
615
100
AcDbEntity
  8
0
100
AcDbLine
 62
253
  6
CONTINUOUS
 10
112.9513812445
 20
107.5922220508
 11
112.9528411108
 21
107.6490142308
  0
LINE
  5
616
100
AcDbEntity
  8
SUPERFICI
100
AcDbLine
 62
7
  6
CONTINUOUS
 10
112.8152502465
 20
101.6125738551
 11
112.8196910744
 21
101.7868552596
  0
LINE
  5
617
100
AcDbEntity
  8
0
100
AcDbLine
 62
253
  6
CONTINUOUS
 10
112.9709975573
 20
110.6348693801
 11
112.9845107354
 21
111.1439051821
  0
LINE
  5
618
100
AcDbEntity
  8
0
100
AcDbLine
 62
253
  6
CONTINUOUS
 10
112.9596879854
 20
110.3823663109
 11
112.9495636137
 21
110.0168973408
  0
LINE
  5
619
100
AcDbEntity
  8
0
100
AcDbLine
 62
7
  6
CONTINUOUS
 10
112.8163636699
 20
101.6522899378
 11
112.8124204526
 21
101.5213155917
  0
LINE
  5
61A
100
AcDbEntity
  8
ASSI
100
AcDbLine
 62
7
  6
CONTINUOUS
 10
112.8163636699
 20
101.6522899378
 11
112.8124204526
 21
101.5213155917
  0
LWPOLYLINE
  5
61B
100
AcDbEntity
  8
ASSI
100
AcDbPolyline
 62
7
  6
CONTINUOUS
 90
3
 70
0
 10
113.0111468664
 20
111.9148084483
 10
112.9374337333
 20
109.6601893803
 10
112.8764366443
 20
107.4051961287
  0
LINE
  5
61C
100
AcDbEntity
  8
SUPERFICI
100
AcDbLine
 62
7
  6
CONTINUOUS
 10
112.8120666895
 20
101.510878502
 11
112.8152502465
 21
101.6125738551
  0
LINE
  5
61D
100
AcDbEntity
  8
0
100
AcDbLine
 62
253
  6
CONTINUOUS
 10
112.9495711907
 20
107.5344011875
 11
112.9513812445
 21
107.5922220508
  0
LINE
  5
61E
100
AcDbEntity
  8
0
100
AcDbLine
 62
253
  6
CONTINUOUS
 10
112.9480239102
 20
107.4919994904
 11
112.9495711907
 21
107.5344011875
  0
LWPOLYLINE
  5
61F
100
AcDbEntity
  8
0
100
AcDbPolyline
 62
7
  6
CONTINUOUS
 90
9
 70
0
 10
112.8124204526
 20
101.5213155917
 10
112.8083128226
 20
101.4114950687
 10
112.8062681905
 20
101.3657400239
 10
112.8042565003
 20
101.3267262187
 10
112.8022789001
 20
101.2942320784
 10
112.8003784586
 20
101.2688412727
 10
112.7985699248
 20
101.2507483732
 10
112.7968432874
 20
101.2397588456
 10
112.7952019567
 20
101.2358727022
  0
LWPOLYLINE
  5
620
100
AcDbEntity
  8
ASSI
100
AcDbPolyline
 62
7
  6
CONTINUOUS
 90
9
 70
0
 10
112.8124204526
 20
101.5213155917
 10
112.8083128226
 20
101.4114950687
 10
112.8062681905
 20
101.3657400239
 10
112.8042565003
 20
101.3267262187
 10
112.8022789001
 20
101.2942320784
 10
112.8003784586
 20
101.2688412727
 10
112.7985699248
 20
101.2507483732
 10
112.7968432874
 20
101.2397588456
 10
112.7952019567
 20
101.2358727022
  0
LINE
  5
621
100
AcDbEntity
  8
0
100
AcDbLine
 62
253
  6
CONTINUOUS
 10
112.9469257397
 20
107.4649516871
 11
112.9480239102
 21
107.4919994904
  0
LWPOLYLINE
  5
622
100
AcDbEntity
  8
SUPERFICI
100
AcDbPolyline
 62
7
  6
CONTINUOUS
 90
7
 70
0
 10
112.8217913854
 20
92.2736251761
 10
112.8228551393
 20
92.294791092
 10
112.823855819
 20
92.3203375643
 10
112.8247899702
 20
92.3503588945
 10
112.8256572879
 20
92.3847607832
 10
112.8264416157
 20
92.4229814355
 10
112.827745176
 20
92.5108616397
  0
LWPOLYLINE
  5
623
100
AcDbEntity
  8
0
100
AcDbPolyline
 62
253
  6
CONTINUOUS
 90
16
 70
0
 10
113.2057657451
 20
96.9782772854
 10
113.2085298475
 20
97.0312632216
 10
113.2165755312
 20
97.0825113942
 10
113.2296854776
 20
97.1321394836
 10
113.2479707958
 20
97.1804693583
 10
113.2714533206
 20
97.2271802589
 10
113.2996088138
 20
97.2711503434
 10
113.3319856382
 20
97.3116905864
 10
113.3685176917
 20
97.3487270975
 10
113.4087530741
 20
97.3818255859
 10
113.4521021563
 20
97.4104679269
 10
113.4981518491
 20
97.4343902398
 10
113.5465310851
 20
97.4534295325
 10
113.5966927499
 20
97.467328394
 10
113.6479285316
 20
97.4758744292
 10
113.6995781532
 20
97.4790164851
  0
LWPOLYLINE
  5
624
100
AcDbEntity
  8
ASSI
100
AcDbPolyline
 62
253
  6
CONTINUOUS
 90
16
 70
0
 10
113.2057657451
 20
96.9782772854
 10
113.2085298475
 20
97.0312632216
 10
113.2165755312
 20
97.0825113942
 10
113.2296854776
 20
97.1321394836
 10
113.2479707958
 20
97.1804693583
 10
113.2714533206
 20
97.2271802589
 10
113.2996088138
 20
97.2711503434
 10
113.3319856382
 20
97.3116905864
 10
113.3685176917
 20
97.3487270975
 10
113.4087530741
 20
97.3818255859
 10
113.4521021563
 20
97.4104679269
 10
113.4981518491
 20
97.4343902398
 10
113.5465310851
 20
97.4534295325
 10
113.5966927499
 20
97.467328394
 10
113.6479285316
 20
97.4758744292
 10
113.6995781532
 20
97.4790164851
  0
LWPOLYLINE
  5
625
100
AcDbEntity
  8
SUPERFICI
100
AcDbPolyline
 62
7
  6
CONTINUOUS
 90
7
 70
0
 10
112.80077157
 20
101.2736316465
 10
112.8023183172
 20
101.2948039425
 10
112.8038988461
 20
101.3203556794
 10
112.8055112333
 20
101.3503790919
 10
112.8071532675
 20
101.3847819246
 10
112.8087960232
 20
101.4230023801
 10
112.8120666895
 20
101.510878502
  0
LWPOLYLINE
  5
626
100
AcDbEntity
  8
SUPERFICI
100
AcDbPolyline
 62
7
  6
CONTINUOUS
 90
4
 70
0
 10
112.8183430692
 20
92.238270043
 10
112.8195346636
 20
92.2453646497
 10
112.8206826026
 20
92.2571187073
 10
112.8217913854
 20
92.2736251761
  0
LINE
  5
627
100
AcDbEntity
  8
0
100
AcDbLine
 62
7
  6
CONTINUOUS
 10
112.7745734408
 20
94.1991779817
 11
112.7952019578
 21
94.1991232115
  0
LINE
  5
628
100
AcDbEntity
  8
ASSI
100
AcDbLine
 62
7
  6
CONTINUOUS
 10
112.7745734408
 20
94.1991779817
 11
112.7952019578
 21
94.1991232115
  0
LINE
  5
629
100
AcDbEntity
  8
SUPERFICI
100
AcDbLine
 62
7
  6
CONTINUOUS
 10
112.795209999
 20
94.1991232007
 11
112.7748431867
 21
94.1991772669
  0
LINE
  5
62A
100
AcDbEntity
  8
0
100
AcDbLine
 62
253
  6
CONTINUOUS
 10
114.7999744599
 20
119.3462968906
 11
114.8051211752
 21
119.2425726323
  0
LINE
  5
62B
100
AcDbEntity
  8
ASSI
100
AcDbLine
 62
253
  6
CONTINUOUS
 10
114.7999744599
 20
119.3462968906
 11
114.8051211752
 21
119.2425726323
  0
LINE
  5
62C
100
AcDbEntity
  8
0
100
AcDbLine
 62
253
  6
CONTINUOUS
 10
114.7956233255
 20
119.4454957763
 11
114.7999744599
 21
119.3462968906
  0
LINE
  5
62D
100
AcDbEntity
  8
ASSI
100
AcDbLine
 62
253
  6
CONTINUOUS
 10
114.7956233255
 20
119.4454957763
 11
114.7999744599
 21
119.3462968906
  0
LINE
  5
62E
100
AcDbEntity
  8
0
100
AcDbLine
 62
253
  6
CONTINUOUS
 10
114.7909920632
 20
75.8585558537
 11
114.7938070736
 21
75.9429656802
  0
LINE
  5
62F
100
AcDbEntity
  8
ASSI
100
AcDbLine
 62
253
  6
CONTINUOUS
 10
114.7909920632
 20
75.8585558537
 11
114.7938070736
 21
75.9429656802
  0
LINE
  5
630
100
AcDbEntity
  8
0
100
AcDbLine
 62
253
  6
CONTINUOUS
 10
114.7938070736
 20
75.9429656802
 11
114.7976867142
 21
76.0382585021
  0
LINE
  5
631
100
AcDbEntity
  8
ASSI
100
AcDbLine
 62
253
  6
CONTINUOUS
 10
114.7938070736
 20
75.9429656802
 11
114.7976867142
 21
76.0382585021
  0
LWPOLYLINE
  5
632
100
AcDbEntity
  8
0
100
AcDbPolyline
 62
253
  6
CONTINUOUS
 90
3
 70
0
 10
114.7976867142
 20
76.0382585021
 10
114.8024617114
 20
76.1402767943
 10
114.8051211517
 20
76.1924232826
  0
LWPOLYLINE
  5
633
100
AcDbEntity
  8
ASSI
100
AcDbPolyline
 62
253
  6
CONTINUOUS
 90
3
 70
0
 10
114.7976867142
 20
76.0382585021
 10
114.8024617114
 20
76.1402767943
 10
114.8051211517
 20
76.1924232826
  0
LINE
  5
634
100
AcDbEntity
  8
SUPERFICI
100
AcDbLine
 62
7
  6
CONTINUOUS
 10
112.8171089606
 20
92.2358348927
 11
112.8183430692
 21
92.238270043
  0
LINE
  5
635
100
AcDbEntity
  8
SUPERFICI
100
AcDbLine
 62
7
  6
CONTINUOUS
 10
112.8183429535
 20
103.1967288438
 11
112.8171089616
 21
103.1991610209
  0
LWPOLYLINE
  5
636
100
AcDbEntity
  8
0
100
AcDbPolyline
 62
7
  6
CONTINUOUS
 90
4
 70
0
 10
112.81710896
 20
103.1991610209
 10
112.8186503178
 20
103.1952329453
 10
112.8201183072
 20
103.1842179638
 10
112.821509805
 20
103.1661160869
  0
LWPOLYLINE
  5
637
100
AcDbEntity
  8
ASSI
100
AcDbPolyline
 62
7
  6
CONTINUOUS
 90
4
 70
0
 10
112.81710896
 20
103.1991610209
 10
112.8186503178
 20
103.1952329453
 10
112.8201183072
 20
103.1842179638
 10
112.821509805
 20
103.1661160869
  0
LINE
  5
638
100
AcDbEntity
  8
0
100
AcDbLine
 62
7
  6
CONTINUOUS
 10
117.7091180533
 20
115.6509873242
 11
117.7091180533
 21
115.3895188779
  0
LINE
  5
639
100
AcDbEntity
  8
ASSI
100
AcDbLine
 62
7
  6
CONTINUOUS
 10
117.7091180533
 20
115.6509873242
 11
117.7091180533
 21
115.3895188779
  0
LINE
  5
63A
100
AcDbEntity
  8
0
100
AcDbLine
 62
7
  6
CONTINUOUS
 10
117.7091180533
 20
80.0454770357
 11
117.7091180533
 21
79.784008633
  0
LINE
  5
63B
100
AcDbEntity
  8
ASSI
100
AcDbLine
 62
7
  6
CONTINUOUS
 10
117.7091180533
 20
80.0454770357
 11
117.7091180533
 21
79.7840063556
  0
LINE
  5
63C
100
AcDbEntity
  8
0
100
AcDbLine
 62
253
  6
CONTINUOUS
 10
113.205765728
 20
96.9782772875
 11
112.759790385
 21
96.9742304214
  0
LINE
  5
63D
100
AcDbEntity
  8
ASSI
100
AcDbLine
 62
253
  6
CONTINUOUS
 10
113.205765728
 20
96.9782772875
 11
112.759790385
 21
96.9742304214
  0
LINE
  5
63E
100
AcDbEntity
  8
0
100
AcDbLine
 62
253
  6
CONTINUOUS
 10
118.1091180533
 20
97.017593139
 11
113.6908529468
 21
96.9790355236
  0
LINE
  5
63F
100
AcDbEntity
  8
ASSI
100
AcDbLine
 62
253
  6
CONTINUOUS
 10
118.1091180533
 20
97.017593139
 11
113.6908529468
 21
96.9790355236
  0
LINE
  5
640
100
AcDbEntity
  8
0
100
AcDbLine
 62
7
  6
CONTINUOUS
 10
118.1091180533
 20
97.5174979568
 11
113.2554212492
 21
97.4751403865
  0
LINE
  5
641
100
AcDbEntity
  8
ASSI
100
AcDbLine
 62
7
  6
CONTINUOUS
 10
118.1091180533
 20
97.5174979568
 11
113.2554212492
 21
97.4751403865
  0
LINE
  5
642
100
AcDbEntity
  8
0
100
AcDbLine
 62
253
  6
CONTINUOUS
 10
113.690852948
 20
96.9790355236
 11
113.2057657451
 21
96.9782772854
  0
LINE
  5
643
100
AcDbEntity
  8
ASSI
100
AcDbLine
 62
253
  6
CONTINUOUS
 10
113.690852948
 20
96.9790355236
 11
113.2057657451
 21
96.9782772854
  0
LINE
  5
644
100
AcDbEntity
  8
0
100
AcDbLine
 62
7
  6
CONTINUOUS
 10
113.2554212492
 20
97.9598555271
 11
118.1091180533
 21
97.9174979568
  0
LINE
  5
645
100
AcDbEntity
  8
ASSI
100
AcDbLine
 62
7
  6
CONTINUOUS
 10
113.2554212492
 20
97.9598555271
 11
118.1091180533
 21
97.9174979568
  0
LINE
  5
646
100
AcDbEntity
  8
0
100
AcDbLine
 62
7
  6
CONTINUOUS
 10
117.3167591002
 20
119.8742022335
 11
118.1091180533
 21
110.8174979568
  0
LINE
  5
647
100
AcDbEntity
  8
ASSI
100
AcDbLine
 62
7
  6
CONTINUOUS
 10
117.3167591002
 20
119.8742022335
 11
118.1091180533
 21
110.8174979568
  0
LINE
  5
648
100
AcDbEntity
  8
0
100
AcDbLine
 62
7
  6
CONTINUOUS
 10
118.1091180533
 20
110.8174979568
 11
118.1091180533
 21
97.9174979568
  0
LINE
  5
649
100
AcDbEntity
  8
ASSI
100
AcDbLine
 62
7
  6
CONTINUOUS
 10
118.1091180533
 20
110.8174979568
 11
118.1091180533
 21
97.9174979568
  0
LINE
  5
64A
100
AcDbEntity
  8
0
100
AcDbLine
 62
7
  6
CONTINUOUS
 10
118.1091180533
 20
84.6174979568
 11
118.1091180533
 21
97.5174979568
  0
LINE
  5
64B
100
AcDbEntity
  8
ASSI
100
AcDbLine
 62
7
  6
CONTINUOUS
 10
118.1091180533
 20
84.6174979568
 11
118.1091180533
 21
97.5174979568
  0
LINE
  5
64C
100
AcDbEntity
  8
0
100
AcDbLine
 62
7
  6
CONTINUOUS
 10
117.3167591002
 20
75.5607936802
 11
118.1091180533
 21
84.6174979568
  0
LINE
  5
64D
100
AcDbEntity
  8
ASSI
100
AcDbLine
 62
7
  6
CONTINUOUS
 10
117.3167591002
 20
75.5607936802
 11
118.1091180533
 21
84.6174979568
  0
LINE
  5
64E
100
AcDbEntity
  8
0
100
AcDbLine
 62
253
  6
CONTINUOUS
 10
113.2057656476
 20
98.4567186171
 11
113.6908528513
 21
98.4559603909
  0
LINE
  5
64F
100
AcDbEntity
  8
ASSI
100
AcDbLine
 62
253
  6
CONTINUOUS
 10
113.2057656476
 20
98.4567186171
 11
113.6908528513
 21
98.4559603909
  0
LINE
  5
650
100
AcDbEntity
  8
0
100
AcDbLine
 62
253
  6
CONTINUOUS
 10
113.6908528497
 20
98.4559603909
 11
118.1091180533
 21
98.4174027746
  0
LINE
  5
651
100
AcDbEntity
  8
ASSI
100
AcDbLine
 62
253
  6
CONTINUOUS
 10
113.6908528497
 20
98.4559603909
 11
118.1091180533
 21
98.4174027746
  0
LINE
  5
652
100
AcDbEntity
  8
0
100
AcDbLine
 62
253
  6
CONTINUOUS
 10
112.759790385
 20
98.4607654922
 11
113.205765727
 21
98.4567186207
  0
LINE
  5
653
100
AcDbEntity
  8
ASSI
100
AcDbLine
 62
253
  6
CONTINUOUS
 10
112.759790385
 20
98.4607654922
 11
113.205765727
 21
98.4567186207
  0
LINE
  5
654
100
AcDbEntity
  8
0
100
AcDbLine
 62
7
  6
CONTINUOUS
 10
112.7952019567
 20
101.2358727022
 11
112.7748281161
 21
101.2358186082
  0
LINE
  5
655
100
AcDbEntity
  8
ASSI
100
AcDbLine
 62
7
  6
CONTINUOUS
 10
112.7952019567
 20
101.2358727022
 11
112.7748281161
 21
101.2358186082
  0
LINE
  5
656
100
AcDbEntity
  8
SUPERFICI
100
AcDbLine
 62
7
  6
CONTINUOUS
 10
112.7748281139
 20
101.2358186067
 11
112.795209997
 21
101.2358727129
  0
LINE
  5
657
100
AcDbEntity
  8
SUPERFICI
100
AcDbLine
 62
7
  6
CONTINUOUS
 10
112.8171089616
 20
103.1991610209
 11
112.7989349401
 21
103.1991636761
  0
LINE
  5
658
100
AcDbEntity
  8
0
100
AcDbLine
 62
7
  6
CONTINUOUS
 10
112.7966629978
 20
103.1991640077
 11
112.81710896
 21
103.1991610209
  0
LINE
  5
659
100
AcDbEntity
  8
ASSI
100
AcDbLine
 62
7
  6
CONTINUOUS
 10
112.7966629978
 20
103.1991640077
 11
112.81710896
 21
103.1991610209
  0
LINE
  5
65A
100
AcDbEntity
  8
0
100
AcDbLine
 62
253
  6
CONTINUOUS
 10
117.7091180533
 20
115.650989558
 11
117.686242333
 21
115.650989558
  0
LINE
  5
65B
100
AcDbEntity
  8
ASSI
100
AcDbLine
 62
253
  6
CONTINUOUS
 10
117.7091180533
 20
115.650989558
 11
117.686242333
 21
115.650989558
  0
LWPOLYLINE
  5
65C
100
AcDbEntity
  8
0
100
AcDbPolyline
 62
253
  6
CONTINUOUS
 90
4
 70
0
 10
113.6543143621
 20
118.5947649233
 10
113.6600184396
 20
118.5944639107
 10
113.6704996772
 20
118.5939579215
 10
114.1396294228
 20
118.5733233158
  0
LWPOLYLINE
  5
65D
100
AcDbEntity
  8
ASSI
100
AcDbPolyline
 62
253
  6
CONTINUOUS
 90
4
 70
0
 10
113.6543143621
 20
118.5947649233
 10
113.6600184396
 20
118.5944639107
 10
113.6704996772
 20
118.5939579215
 10
114.1396294228
 20
118.5733233158
  0
LINE
  5
65E
100
AcDbEntity
  8
0
100
AcDbLine
 62
253
  6
CONTINUOUS
 10
114.8051211752
 20
119.2425726323
 11
117.3603037964
 21
119.3764840791
  0
LINE
  5
65F
100
AcDbEntity
  8
ASSI
100
AcDbLine
 62
253
  6
CONTINUOUS
 10
114.8051211752
 20
119.2425726323
 11
117.3603037964
 21
119.3764840791
  0
LINE
  5
660
100
AcDbEntity
  8
0
100
AcDbLine
 62
7
  6
CONTINUOUS
 10
114.4397941302
 20
119.7234268883
 11
117.3167591002
 21
119.8742022335
  0
LINE
  5
661
100
AcDbEntity
  8
ASSI
100
AcDbLine
 62
7
  6
CONTINUOUS
 10
114.4397941302
 20
119.7234268883
 11
117.3167591002
 21
119.8742022335
  0
LINE
  5
662
100
AcDbEntity
  8
0
100
AcDbLine
 62
253
  6
CONTINUOUS
 10
113.6543015906
 20
118.5947654383
 11
113.3039439886
 21
118.5876669071
  0
LINE
  5
663
100
AcDbEntity
  8
ASSI
100
AcDbLine
 62
253
  6
CONTINUOUS
 10
113.6543015906
 20
118.5947654383
 11
113.3039439886
 21
118.5876669071
  0
ARC
  5
664
100
AcDbEntity
  8
0
100
AcDbCircle
 62
7
  6
CONTINUOUS
 10
114.5023096
 20
118.52505637
 40
1.2
100
AcDbArc
 50
93.0
 51
177.0092051173
  0
ARC
  5
665
100
AcDbEntity
  8
ASSI
100
AcDbCircle
 62
7
  6
CONTINUOUS
 10
114.5023096
 20
118.52505637
 40
1.2
100
AcDbArc
 50
93.0
 51
177.0092051173
  0
ARC
  5
666
100
AcDbEntity
  8
0
100
AcDbCircle
 62
7
  6
CONTINUOUS
 10
114.5023096
 20
76.9099395436
 40
1.2
100
AcDbArc
 50
182.9907948827
 51
267.0
  0
ARC
  5
667
100
AcDbEntity
  8
ASSI
100
AcDbCircle
 62
7
  6
CONTINUOUS
 10
114.5023096
 20
76.9099395436
 40
1.2
100
AcDbArc
 50
182.9907948827
 51
267.0
  0
ARC
  5
668
100
AcDbEntity
  8
0
100
AcDbCircle
 62
7
  6
CONTINUOUS
 10
113.2597942876
 20
98.4598364034
 40
0.5
100
AcDbArc
 50
179.8935347747
 51
269.5
  0
ARC
  5
669
100
AcDbEntity
  8
ASSI
100
AcDbCircle
 62
7
  6
CONTINUOUS
 10
113.2597942876
 20
98.4598364034
 40
0.5
100
AcDbArc
 50
179.8935347747
 51
269.5
  0
ARC
  5
66A
100
AcDbEntity
  8
0
100
AcDbCircle
 62
7
  6
CONTINUOUS
 10
113.2597942876
 20
96.9751595102
 40
0.5
100
AcDbArc
 50
90.5
 51
180.1064652253
  0
ARC
  5
66B
100
AcDbEntity
  8
ASSI
100
AcDbCircle
 62
7
  6
CONTINUOUS
 10
113.2597942876
 20
96.9751595102
 40
0.5
100
AcDbArc
 50
90.5
 51
180.1064652253
  0
ARC
  5
66C
100
AcDbEntity
  8
0
100
AcDbCircle
 62
7
  6
CONTINUOUS
 10
117.4091180533
 20
115.650989558
 40
0.3
100
AcDbArc
 50
359.9995650467
 51
25.0000767071
  0
ARC
  5
66D
100
AcDbEntity
  8
ASSI
100
AcDbCircle
 62
7
  6
CONTINUOUS
 10
117.4091180533
 20
115.650989558
 40
0.3
100
AcDbArc
 50
359.9995650467
 51
25.0000767071
  0
ARC
  5
66E
100
AcDbEntity
  8
0
100
AcDbCircle
 62
7
  6
CONTINUOUS
 10
117.4091180533
 20
79.7840063556
 40
0.3
100
AcDbArc
 50
334.9999285842
 51
0.0004349533
  0
ARC
  5
66F
100
AcDbEntity
  8
ASSI
100
AcDbCircle
 62
7
  6
CONTINUOUS
 10
117.4091180533
 20
79.7840063556
 40
0.3
100
AcDbArc
 50
334.9999285842
 51
0.0004349533
  0
ELLIPSE
  5
670
100
AcDbEntity
  8
ASSI
100
AcDbEllipse
 62
7
  6
CONTINUOUS
 10
150.1975904122
 20
76.0591946416
 30
0.0
 11
0.4962344879
 21
-0.0628595572
 31
0.0
 40
0.9963456432
 41
-3.0137634083
 42
-1.4443370775
  0
ELLIPSE
  5
671
100
AcDbEntity
  8
ASSI
100
AcDbEllipse
 62
7
  6
CONTINUOUS
 10
171.1564023694
 20
76.0591946416
 30
0.0
 11
0.4962344879
 21
0.0628595572
 31
0.0
 40
0.9963456432
 41
-1.6972555761
 42
-0.1278292453
  0
ELLIPSE
  5
672
100
AcDbEntity
  8
ASSI
100
AcDbEllipse
 62
7
  6
CONTINUOUS
 10
150.1779835851
 20
97.0174789176
 30
0.0
 11
0.4745319423
 21
-0.1581451893
 31
0.0
 40
0.9996192872
 41
1.8926001863
 42
3.463168079
  0
ELLIPSE
  5
673
100
AcDbEntity
  8
ASSI
100
AcDbEllipse
 62
7
  6
CONTINUOUS
 10
171.1760091965
 20
97.0174789176
 30
0.0
 11
0.4745319423
 21
0.1581451893
 31
0.0
 40
0.9996192872
 41
-0.3215754254
 42
1.2489924673
  0
ELLIPSE
  5
674
100
AcDbEntity
  8
ASSI
100
AcDbEllipse
 62
7
  6
CONTINUOUS
 10
167.9615263369
 20
75.5873980201
 30
0.0
 11
0.2
 21
-0.0
 31
0.0
 40
0.0524077793
 41
0.5235987756
 42
1.5707963268
  0
ELLIPSE
  5
675
100
AcDbEntity
  8
ASSI
100
AcDbEllipse
 62
7
  6
CONTINUOUS
 10
164.5924664446
 20
75.5873980201
 30
0.0
 11
0.2
 21
0.0
 31
0.0
 40
0.0524077793
 41
1.5707963268
 42
2.617993878
  0
ELLIPSE
  5
676
100
AcDbEntity
  8
ASSI
100
AcDbEllipse
 62
7
  6
CONTINUOUS
 10
153.3924664446
 20
75.5873980201
 30
0.0
 11
0.2
 21
0.0
 31
0.0
 40
0.0524077793
 41
1.5707963268
 42
2.617993878
  0
ELLIPSE
  5
677
100
AcDbEntity
  8
ASSI
100
AcDbEllipse
 62
7
  6
CONTINUOUS
 10
156.7615263369
 20
75.5873980201
 30
0.0
 11
0.2
 21
0.0
 31
0.0
 40
0.0524077793
 41
0.5235987756
 42
1.5707963268
  0
ELLIPSE
  5
678
100
AcDbEntity
  8
0
100
AcDbEllipse
 62
7
  6
CONTINUOUS
 10
150.1975904122
 20
76.0591946416
 30
0.0
 11
0.4962344879
 21
-0.0628595572
 31
0.0
 40
0.9963456432
 41
-3.0137634083
 42
-1.4443370775
  0
ELLIPSE
  5
679
100
AcDbEntity
  8
0
100
AcDbEllipse
 62
7
  6
CONTINUOUS
 10
171.1564023694
 20
76.0591946416
 30
0.0
 11
0.4962344879
 21
0.0628595572
 31
0.0
 40
0.9963456432
 41
-1.6972555761
 42
-0.1278292453
  0
ELLIPSE
  5
67A
100
AcDbEntity
  8
0
100
AcDbEllipse
 62
7
  6
CONTINUOUS
 10
150.1779835851
 20
97.0174789176
 30
0.0
 11
0.4745319423
 21
-0.1581451893
 31
0.0
 40
0.9996192872
 41
1.8926001863
 42
3.463168079
  0
ELLIPSE
  5
67B
100
AcDbEntity
  8
0
100
AcDbEllipse
 62
7
  6
CONTINUOUS
 10
171.1760091965
 20
97.0174789176
 30
0.0
 11
0.4745319423
 21
0.1581451893
 31
0.0
 40
0.9996192872
 41
-0.3215754254
 42
1.2489924673
  0
ELLIPSE
  5
67C
100
AcDbEntity
  8
0
100
AcDbEllipse
 62
7
  6
CONTINUOUS
 10
167.9615263369
 20
75.5873980201
 30
0.0
 11
0.2
 21
-0.0
 31
0.0
 40
0.0524077793
 41
0.5235987756
 42
1.5707963268
  0
ELLIPSE
  5
67D
100
AcDbEntity
  8
0
100
AcDbEllipse
 62
7
  6
CONTINUOUS
 10
164.5924664446
 20
75.5873980201
 30
0.0
 11
0.2
 21
0.0
 31
0.0
 40
0.0524077793
 41
1.5707963268
 42
2.617993878
  0
ELLIPSE
  5
67E
100
AcDbEntity
  8
0
100
AcDbEllipse
 62
7
  6
CONTINUOUS
 10
153.3924664446
 20
75.5873980201
 30
0.0
 11
0.2
 21
0.0
 31
0.0
 40
0.0524077793
 41
1.5707963268
 42
2.617993878
  0
ELLIPSE
  5
67F
100
AcDbEntity
  8
0
100
AcDbEllipse
 62
7
  6
CONTINUOUS
 10
156.7615263369
 20
75.5873980201
 30
0.0
 11
0.2
 21
0.0
 31
0.0
 40
0.0524077793
 41
0.5235987756
 42
1.5707963268
  0
ELLIPSE
  5
680
100
AcDbEntity
  8
ASSI
100
AcDbEllipse
 62
7
  6
CONTINUOUS
 10
148.9564023694
 20
119.375801272
 30
0.0
 11
0.4962344879
 21
-0.0628595572
 31
0.0
 40
0.9963456432
 41
0.1278292453
 42
1.6972555761
  0
ELLIPSE
  5
681
100
AcDbEntity
  8
ASSI
100
AcDbEllipse
 62
7
  6
CONTINUOUS
 10
127.9975904122
 20
119.375801272
 30
0.0
 11
0.4962344879
 21
0.0628595572
 31
0.0
 40
0.9963456432
 41
1.4443370775
 42
3.0137634083
  0
ELLIPSE
  5
682
100
AcDbEntity
  8
ASSI
100
AcDbEllipse
 62
7
  6
CONTINUOUS
 10
148.9760091965
 20
98.417516996
 30
0.0
 11
0.4745319423
 21
-0.1581451893
 31
0.0
 40
0.9996192872
 41
-1.2489924673
 42
0.3215754254
  0
ELLIPSE
  5
683
100
AcDbEntity
  8
ASSI
100
AcDbEllipse
 62
7
  6
CONTINUOUS
 10
127.9779835851
 20
98.417516996
 30
0.0
 11
0.4745319423
 21
0.1581451893
 31
0.0
 40
0.9996192872
 41
2.8200172282
 42
4.3905851209
  0
ELLIPSE
  5
684
100
AcDbEntity
  8
ASSI
100
AcDbEllipse
 62
7
  6
CONTINUOUS
 10
131.1924664446
 20
119.8475978935
 30
0.0
 11
0.2
 21
-0.0
 31
0.0
 40
0.0524077793
 41
-2.617993878
 42
-1.5707963268
  0
ELLIPSE
  5
685
100
AcDbEntity
  8
ASSI
100
AcDbEllipse
 62
7
  6
CONTINUOUS
 10
134.5615263369
 20
119.8475978935
 30
0.0
 11
0.2
 21
-0.0
 31
0.0
 40
0.0524077793
 41
-1.5707963268
 42
-0.5235987756
  0
ELLIPSE
  5
686
100
AcDbEntity
  8
ASSI
100
AcDbEllipse
 62
7
  6
CONTINUOUS
 10
145.7615263369
 20
119.8475978935
 30
0.0
 11
0.2
 21
0.0
 31
0.0
 40
0.0524077793
 41
-1.5707963268
 42
-0.5235987756
  0
ELLIPSE
  5
687
100
AcDbEntity
  8
ASSI
100
AcDbEllipse
 62
7
  6
CONTINUOUS
 10
142.3924664446
 20
119.8475978935
 30
0.0
 11
0.2
 21
0.0
 31
0.0
 40
0.0524077793
 41
-2.617993878
 42
-1.5707963268
  0
ELLIPSE
  5
688
100
AcDbEntity
  8
0
100
AcDbEllipse
 62
7
  6
CONTINUOUS
 10
148.9564023694
 20
119.375801272
 30
0.0
 11
0.4962344879
 21
-0.0628595572
 31
0.0
 40
0.9963456432
 41
0.1278292453
 42
1.6972555761
  0
ELLIPSE
  5
689
100
AcDbEntity
  8
0
100
AcDbEllipse
 62
7
  6
CONTINUOUS
 10
127.9975904122
 20
119.375801272
 30
0.0
 11
0.4962344879
 21
0.0628595572
 31
0.0
 40
0.9963456432
 41
1.4443370775
 42
3.0137634083
  0
ELLIPSE
  5
68A
100
AcDbEntity
  8
0
100
AcDbEllipse
 62
7
  6
CONTINUOUS
 10
148.9760091965
 20
98.417516996
 30
0.0
 11
0.4745319423
 21
-0.1581451893
 31
0.0
 40
0.9996192872
 41
-1.2489924673
 42
0.3215754254
  0
ELLIPSE
  5
68B
100
AcDbEntity
  8
0
100
AcDbEllipse
 62
7
  6
CONTINUOUS
 10
127.9779835851
 20
98.417516996
 30
0.0
 11
0.4745319423
 21
0.1581451893
 31
0.0
 40
0.9996192872
 41
2.8200172282
 42
4.3905851209
  0
ELLIPSE
  5
68C
100
AcDbEntity
  8
0
100
AcDbEllipse
 62
7
  6
CONTINUOUS
 10
131.1924664446
 20
119.8475978935
 30
0.0
 11
0.2
 21
-0.0
 31
0.0
 40
0.0524077793
 41
-2.617993878
 42
-1.5707963268
  0
ELLIPSE
  5
68D
100
AcDbEntity
  8
0
100
AcDbEllipse
 62
7
  6
CONTINUOUS
 10
134.5615263369
 20
119.8475978935
 30
0.0
 11
0.2
 21
-0.0
 31
0.0
 40
0.0524077793
 41
-1.5707963268
 42
-0.5235987756
  0
ELLIPSE
  5
68E
100
AcDbEntity
  8
0
100
AcDbEllipse
 62
7
  6
CONTINUOUS
 10
145.7615263369
 20
119.8475978935
 30
0.0
 11
0.2
 21
0.0
 31
0.0
 40
0.0524077793
 41
-1.5707963268
 42
-0.5235987756
  0
ELLIPSE
  5
68F
100
AcDbEntity
  8
0
100
AcDbEllipse
 62
7
  6
CONTINUOUS
 10
142.3924664446
 20
119.8475978935
 30
0.0
 11
0.2
 21
0.0
 31
0.0
 40
0.0524077793
 41
-2.617993878
 42
-1.5707963268
  0
ELLIPSE
  5
690
100
AcDbEntity
  8
ASSI
100
AcDbEllipse
 62
7
  6
CONTINUOUS
 10
171.1564023694
 20
119.375801272
 30
0.0
 11
0.4962344879
 21
-0.0628595572
 31
0.0
 40
0.9963456432
 41
0.1278292453
 42
1.6972555761
  0
ELLIPSE
  5
691
100
AcDbEntity
  8
ASSI
100
AcDbEllipse
 62
7
  6
CONTINUOUS
 10
150.1975904122
 20
119.375801272
 30
0.0
 11
0.4962344879
 21
0.0628595572
 31
0.0
 40
0.9963456432
 41
1.4443370775
 42
3.0137634083
  0
ELLIPSE
  5
692
100
AcDbEntity
  8
ASSI
100
AcDbEllipse
 62
7
  6
CONTINUOUS
 10
171.1760091965
 20
98.417516996
 30
0.0
 11
0.4745319423
 21
-0.1581451893
 31
0.0
 40
0.9996192872
 41
-1.2489924673
 42
0.3215754254
  0
ELLIPSE
  5
693
100
AcDbEntity
  8
ASSI
100
AcDbEllipse
 62
7
  6
CONTINUOUS
 10
150.1779835851
 20
98.417516996
 30
0.0
 11
0.4745319423
 21
0.1581451893
 31
0.0
 40
0.9996192872
 41
2.8200172282
 42
4.3905851209
  0
ELLIPSE
  5
694
100
AcDbEntity
  8
ASSI
100
AcDbEllipse
 62
7
  6
CONTINUOUS
 10
153.3924664446
 20
119.8475978935
 30
0.0
 11
0.2
 21
0.0
 31
0.0
 40
0.0524077793
 41
-2.617993878
 42
-1.5707963268
  0
ELLIPSE
  5
695
100
AcDbEntity
  8
ASSI
100
AcDbEllipse
 62
7
  6
CONTINUOUS
 10
156.7615263369
 20
119.8475978935
 30
0.0
 11
0.2
 21
0.0
 31
0.0
 40
0.0524077793
 41
-1.5707963268
 42
-0.5235987756
  0
ELLIPSE
  5
696
100
AcDbEntity
  8
ASSI
100
AcDbEllipse
 62
7
  6
CONTINUOUS
 10
167.9615263369
 20
119.8475978935
 30
0.0
 11
0.2
 21
0.0
 31
0.0
 40
0.0524077793
 41
-1.5707963268
 42
-0.5235987756
  0
ELLIPSE
  5
697
100
AcDbEntity
  8
ASSI
100
AcDbEllipse
 62
7
  6
CONTINUOUS
 10
164.5924664446
 20
119.8475978935
 30
0.0
 11
0.2
 21
0.0
 31
0.0
 40
0.0524077793
 41
-2.617993878
 42
-1.5707963268
  0
ELLIPSE
  5
698
100
AcDbEntity
  8
0
100
AcDbEllipse
 62
7
  6
CONTINUOUS
 10
171.1564023694
 20
119.375801272
 30
0.0
 11
0.4962344879
 21
-0.0628595572
 31
0.0
 40
0.9963456432
 41
0.1278292453
 42
1.6972555761
  0
ELLIPSE
  5
699
100
AcDbEntity
  8
0
100
AcDbEllipse
 62
7
  6
CONTINUOUS
 10
150.1975904122
 20
119.375801272
 30
0.0
 11
0.4962344879
 21
0.0628595572
 31
0.0
 40
0.9963456432
 41
1.4443370775
 42
3.0137634083
  0
ELLIPSE
  5
69A
100
AcDbEntity
  8
0
100
AcDbEllipse
 62
7
  6
CONTINUOUS
 10
171.1760091965
 20
98.417516996
 30
0.0
 11
0.4745319423
 21
-0.1581451893
 31
0.0
 40
0.9996192872
 41
-1.2489924673
 42
0.3215754254
  0
ELLIPSE
  5
69B
100
AcDbEntity
  8
0
100
AcDbEllipse
 62
7
  6
CONTINUOUS
 10
150.1779835851
 20
98.417516996
 30
0.0
 11
0.4745319423
 21
0.1581451893
 31
0.0
 40
0.9996192872
 41
2.8200172282
 42
4.3905851209
  0
ELLIPSE
  5
69C
100
AcDbEntity
  8
0
100
AcDbEllipse
 62
7
  6
CONTINUOUS
 10
153.3924664446
 20
119.8475978935
 30
0.0
 11
0.2
 21
0.0
 31
0.0
 40
0.0524077793
 41
-2.617993878
 42
-1.5707963268
  0
ELLIPSE
  5
69D
100
AcDbEntity
  8
0
100
AcDbEllipse
 62
7
  6
CONTINUOUS
 10
156.7615263369
 20
119.8475978935
 30
0.0
 11
0.2
 21
0.0
 31
0.0
 40
0.0524077793
 41
-1.5707963268
 42
-0.5235987756
  0
ELLIPSE
  5
69E
100
AcDbEntity
  8
0
100
AcDbEllipse
 62
7
  6
CONTINUOUS
 10
167.9615263369
 20
119.8475978935
 30
0.0
 11
0.2
 21
0.0
 31
0.0
 40
0.0524077793
 41
-1.5707963268
 42
-0.5235987756
  0
ELLIPSE
  5
69F
100
AcDbEntity
  8
0
100
AcDbEllipse
 62
7
  6
CONTINUOUS
 10
164.5924664446
 20
119.8475978935
 30
0.0
 11
0.2
 21
0.0
 31
0.0
 40
0.0524077793
 41
-2.617993878
 42
-1.5707963268
  0
ELLIPSE
  5
6A0
100
AcDbEntity
  8
ASSI
100
AcDbEllipse
 62
7
  6
CONTINUOUS
 10
127.9975904122
 20
76.0591946416
 30
0.0
 11
0.4962344879
 21
-0.0628595572
 31
0.0
 40
0.9963456432
 41
-3.0137634083
 42
-1.4443370775
  0
ELLIPSE
  5
6A1
100
AcDbEntity
  8
ASSI
100
AcDbEllipse
 62
7
  6
CONTINUOUS
 10
148.9564023694
 20
76.0591946416
 30
0.0
 11
0.4962344879
 21
0.0628595572
 31
0.0
 40
0.9963456432
 41
-1.6972555761
 42
-0.1278292453
  0
ELLIPSE
  5
6A2
100
AcDbEntity
  8
ASSI
100
AcDbEllipse
 62
7
  6
CONTINUOUS
 10
127.9779835851
 20
97.0174789176
 30
0.0
 11
0.4745319423
 21
-0.1581451893
 31
0.0
 40
0.9996192872
 41
1.8926001863
 42
3.463168079
  0
ELLIPSE
  5
6A3
100
AcDbEntity
  8
ASSI
100
AcDbEllipse
 62
7
  6
CONTINUOUS
 10
148.9760091965
 20
97.0174789176
 30
0.0
 11
0.4745319423
 21
0.1581451893
 31
0.0
 40
0.9996192872
 41
-0.3215754254
 42
1.2489924673
  0
ELLIPSE
  5
6A4
100
AcDbEntity
  8
ASSI
100
AcDbEllipse
 62
7
  6
CONTINUOUS
 10
145.7615263369
 20
75.5873980201
 30
0.0
 11
0.2
 21
0.0
 31
0.0
 40
0.0524077793
 41
0.5235987756
 42
1.5707963268
  0
ELLIPSE
  5
6A5
100
AcDbEntity
  8
ASSI
100
AcDbEllipse
 62
7
  6
CONTINUOUS
 10
142.3924664446
 20
75.5873980201
 30
0.0
 11
0.2
 21
-0.0
 31
0.0
 40
0.0524077793
 41
1.5707963268
 42
2.617993878
  0
ELLIPSE
  5
6A6
100
AcDbEntity
  8
ASSI
100
AcDbEllipse
 62
7
  6
CONTINUOUS
 10
131.1924664446
 20
75.5873980201
 30
0.0
 11
0.2
 21
-0.0
 31
0.0
 40
0.0524077793
 41
1.5707963268
 42
2.617993878
  0
ELLIPSE
  5
6A7
100
AcDbEntity
  8
ASSI
100
AcDbEllipse
 62
7
  6
CONTINUOUS
 10
134.5615263369
 20
75.5873980201
 30
0.0
 11
0.2
 21
0.0
 31
0.0
 40
0.0524077793
 41
0.5235987756
 42
1.5707963268
  0
ELLIPSE
  5
6A8
100
AcDbEntity
  8
0
100
AcDbEllipse
 62
7
  6
CONTINUOUS
 10
127.9975904122
 20
76.0591946416
 30
0.0
 11
0.4962344879
 21
-0.0628595572
 31
0.0
 40
0.9963456432
 41
-3.0137634083
 42
-1.4443370775
  0
ELLIPSE
  5
6A9
100
AcDbEntity
  8
0
100
AcDbEllipse
 62
7
  6
CONTINUOUS
 10
148.9564023694
 20
76.0591946416
 30
0.0
 11
0.4962344879
 21
0.0628595572
 31
0.0
 40
0.9963456432
 41
-1.6972555761
 42
-0.1278292453
  0
ELLIPSE
  5
6AA
100
AcDbEntity
  8
0
100
AcDbEllipse
 62
7
  6
CONTINUOUS
 10
127.9779835851
 20
97.0174789176
 30
0.0
 11
0.4745319423
 21
-0.1581451893
 31
0.0
 40
0.9996192872
 41
1.8926001863
 42
3.463168079
  0
ELLIPSE
  5
6AB
100
AcDbEntity
  8
0
100
AcDbEllipse
 62
7
  6
CONTINUOUS
 10
148.9760091965
 20
97.0174789176
 30
0.0
 11
0.4745319423
 21
0.1581451893
 31
0.0
 40
0.9996192872
 41
-0.3215754254
 42
1.2489924673
  0
ELLIPSE
  5
6AC
100
AcDbEntity
  8
0
100
AcDbEllipse
 62
7
  6
CONTINUOUS
 10
145.7615263369
 20
75.5873980201
 30
0.0
 11
0.2
 21
0.0
 31
0.0
 40
0.0524077793
 41
0.5235987756
 42
1.5707963268
  0
ELLIPSE
  5
6AD
100
AcDbEntity
  8
0
100
AcDbEllipse
 62
7
  6
CONTINUOUS
 10
142.3924664446
 20
75.5873980201
 30
0.0
 11
0.2
 21
-0.0
 31
0.0
 40
0.0524077793
 41
1.5707963268
 42
2.617993878
  0
ELLIPSE
  5
6AE
100
AcDbEntity
  8
0
100
AcDbEllipse
 62
7
  6
CONTINUOUS
 10
131.1924664446
 20
75.5873980201
 30
0.0
 11
0.2
 21
-0.0
 31
0.0
 40
0.0524077793
 41
1.5707963268
 42
2.617993878
  0
ELLIPSE
  5
6AF
100
AcDbEntity
  8
0
100
AcDbEllipse
 62
7
  6
CONTINUOUS
 10
134.5615263369
 20
75.5873980201
 30
0.0
 11
0.2
 21
0.0
 31
0.0
 40
0.0524077793
 41
0.5235987756
 42
1.5707963268
  0
ENDSEC
  0
SECTION
  2
OBJECTS
  0
DICTIONARY
  5
C
100
AcDbDictionary
280
0
281
1
  3
ACAD_GROUP
350
D
  3
ACAD_MLINESTYLE
350
17
  3
ACAD_LAYOUT
350
1A
  3
ACAD_PLOTSETTINGS
350
19
  3
ACAD_PLOTSTYLENAME
350
E
  0
DICTIONARY
  5
D
102
{ACAD_REACTORS
330
C
102
}
100
AcDbDictionary
280
0
281
1
  0
ACDBDICTIONARYWDFLT
  5
E
102
{ACAD_REACTORS
330
C
102
}
100
AcDbDictionary
281
1
  3
Normal
350
F
100
AcDbDictionaryWithDefault
340
F
  0
DICTIONARY
  5
17
102
{ACAD_REACTORS
330
C
102
}
100
AcDbDictionary
280
0
281
1
  3
Standard
350
18
  0
DICTIONARY
  5
19
102
{ACAD_REACTORS
330
C
102
}
100
AcDbDictionary
281
1
  0
DICTIONARY
  5
1A
102
{ACAD_REACTORS
330
C
102
}
100
AcDbDictionary
281
1
  3
Model
350
6B0
  3
Layout1
350
6B1
  0
ACDBPLACEHOLDER
  5
F
102
{ACAD_REACTORS
330
E
102
}
  0
MLINESTYLE
  5
18
102
{ACAD_REACTORS
330
17
102
}
100
AcDbMlineStyle
  2
STANDARD
 70
0
  3

 62
256
 51
90.0
 52
90.0
 71
2
 49
0.5
 62
256
  6
BYLAYER
 49
-0.5
 62
256
  6
BYLAYER
  0
LAYOUT
  5
6B0
102
{ACAD_REACTORS
330
1A
102
}
100
AcDbPlotSettings
  1

  2
none_device
  4
ISO_A4_(297.00_x_210.00_MM)
  6

 40
0.0
 41
0.0
 42
0.0
 43
0.0
 44
297.0
 45
210.0
 46
0.0
 47
0.0
 48
0.0
 49
0.0
140
0.0
141
0.0
142
1.0
143
1.0
 70
1024
 72
1
 73
0
 74
0
  7

 75
0
147
1.0
148
0.0
149
0.0
100
AcDbLayout
  1
Model
 70
0
 71
0
 10
0.0
 20
0.0
 11
297.0
 21
210.0
 12
0.0
 22
0.0
 32
0.0
 14
0.0
 24
0.0
 34
0.0
 15
0.0
 25
0.0
 35
0.0
146
0.0
 13
0.0
 23
0.0
 33
0.0
 16
1.0
 26
0.0
 36
0.0
 17
0.0
 27
1.0
 37
0.0
 76
0
330
21F
345
0
346
0
  0
LAYOUT
  5
6B1
102
{ACAD_REACTORS
330
1A
102
}
100
AcDbPlotSettings
  1

  2
none_device
  4
ISO_A4_(297.00_x_210.00_MM)
  6

 40
0.0
 41
0.0
 42
0.0
 43
0.0
 44
297.0
 45
210.0
 46
0.0
 47
0.0
 48
0.0
 49
0.0
140
0.0
141
0.0
142
1.0
143
1.0
 70
0
 72
1
 73
0
 74
0
  7

 75
0
147
1.0
148
0.0
149
0.0
100
AcDbLayout
  1
Layout1
 70
0
 71
1
 10
0.0
 20
0.0
 11
297.0
 21
210.0
 12
0.0
 22
0.0
 32
0.0
 14
0.0
 24
0.0
 34
0.0
 15
0.0
 25
0.0
 35
0.0
146
0.0
 13
0.0
 23
0.0
 33
0.0
 16
1.0
 26
0.0
 36
0.0
 17
0.0
 27
1.0
 37
0.0
 76
0
330
220
345
0
346
0
  0
ENDSEC
  0
EOF
