  0
SECTION
  2
HEADER
  9
$ACADVER
  1
AC1021
  9
$DWGCODEPAGE
  3
ANSI_1252
  9
$EXTMAX
 10
297.0
 20
210.0
 30
0.0
  9
$EXTMIN
 10
0.0
 20
0.0
 30
0.0
  9
$LIMMIN
 10
0.0
 20
0.0
  9
$LIMMAX
 10
297.0
 20
210.0
  9
$VIEWCTR
 10
148.5
 20
105.0
  9
$VIEWSIZE
 40
210.0
  9
$CLAYER
  8
0
  9
$LTSCALE
 40
16.335
  9
$CELTYPE
  6
BYLAYER
  9
$DIMSCALE
 40
1.0
  9
$DIMASZ
 40
3.0
  9
$DIMEXO
 40
1.85625
  9
$DIMDLI
 40
11.286
  9
$DIMEXE
 40
5.346
  9
$DIMCEN
 40
2.673
  9
$DIMLFAC
 40
1.0
  9
$DIMBLK
  1
_FILLED
  9
$DIMTXT
 40
3.0
  9
$DIMTOL
 70
1
  9
$DIMLIM
 70
0
  9
$DIMTFAC
 40
1.0
  9
$DIMTP
 40
0.01
  9
$DIMTM
 40
0.01
  9
$PDMODE
 70
3
  9
$PDSIZE
 40
3.0
  9
$HANDSEED
  5
509
  9
$TILEMODE
 70
1
  9
$MEASUREMENT
 70
1
  9
$INSUNITS
 70
4
  0
ENDSEC
  0
SECTION
  2
CLASSES
  0
CLASS
  1
ACDBDICTIONARYWDFLT
  2
AcDbDictionaryWithDefault
  3
AutoCAD 2000
 90
0
 91
1
280
0
281
0
  0
CLASS
  1
ACDBPLACEHOLDER
  2
AcDbPlaceHolder
  3
AutoCAD 2000
 90
0
 91
1
280
0
281
0
  0
CLASS
  1
LAYOUT
  2
AcDbLayout
  3
AutoCAD 2000
 90
0
 91
0
280
0
281
0
  0
ENDSEC
  0
SECTION
  2
TABLES
  0
TABLE
  2
VPORT
  5
8
100
AcDbSymbolTable
 70
2
  0
VPORT
  5
1F4
100
AcDbSymbolTableRecord
100
AcDbViewportTableRecord
  2
*ACTIVE
 70
0
 10
0.0
 20
0.0
 11
1.0
 21
1.0
 12
148.5
 22
105.0
 13
0.0
 23
0.0
 14
1.0
 24
1.0
 15
0.0
 25
0.0
 16
0.0
 26
0.0
 36
1.0
 17
0.0
 27
0.0
 37
0.0
 40
210.0
 41
1.4142857143
 42
50.0
 43
0.0
 44
0.0
 50
0.0
 51
0.0
 71
0
 72
100
 73
1
 74
1
 75
0
 76
0
 77
0
 78
0
  0
ENDTAB
  0
TABLE
  2
LTYPE
  5
5
100
AcDbSymbolTable
 70
6
  0
LTYPE
  5
14
100
AcDbSymbolTableRecord
100
AcDbLinetypeTableRecord
  2
BYBLOCK
 70
0
  3

 72
65
 73
0
 40
0.0
  0
LTYPE
  5
15
100
AcDbSymbolTableRecord
100
AcDbLinetypeTableRecord
  2
BYLAYER
 70
0
  3

 72
65
 73
0
 40
0.0
  0
LTYPE
  5
16
100
AcDbSymbolTableRecord
100
AcDbLinetypeTableRecord
  2
CONTINUOUS
 70
64
  3
Solid line
 72
65
 73
0
 40
0.0
  0
LTYPE
  5
1F5
100
AcDbSymbolTableRecord
100
AcDbLinetypeTableRecord
  2
CENTER
 70
64
  3
____ _ ____ _ ____ _ ____ _ ____ _ ____ _ ____
 72
65
 73
4
 40
0.6
 49
0.375
 74
0
 49
-0.075
 74
0
 49
0.075
 74
0
 49
-0.075
 74
0
  0
LTYPE
  5
1F6
100
AcDbSymbolTableRecord
100
AcDbLinetypeTableRecord
  2
HIDDEN
 70
64
  3
- - - - - - - - - - - - - - - - - - - -
 72
65
 73
2
 40
0.2
 49
0.1
 74
0
 49
-0.1
 74
0
  0
LTYPE
  5
1F7
100
AcDbSymbolTableRecord
100
AcDbLinetypeTableRecord
  2
PHANTOM
 70
64
  3
_____ _ _ _____ _ _ _____ _ _ _____
 72
65
 73
6
 40
0.8
 49
0.45
 74
0
 49
-0.05
 74
0
 49
0.1
 74
0
 49
-0.05
 74
0
 49
0.1
 74
0
 49
-0.05
 74
0
  0
LTYPE
  5
1F8
100
AcDbSymbolTableRecord
100
AcDbLinetypeTableRecord
  2
DOT
 70
64
  3
. . . . . . . . . . . . . . . . . . . .
 72
65
 73
2
 40
0.2
 49
0.1
 74
0
 49
-0.1
 74
0
  0
LTYPE
  5
1F9
100
AcDbSymbolTableRecord
100
AcDbLinetypeTableRecord
  2
DASHED
 70
64
  3
- - - - - - - - - - - - - - - - - - - -
 72
65
 73
2
 40
0.2
 49
0.1
 74
0
 49
-0.1
 74
0
  0
ENDTAB
  0
TABLE
  2
LAYER
  5
2
100
AcDbSymbolTable
 70
36
  0
LAYER
  5
10
100
AcDbSymbolTableRecord
100
AcDbLayerTableRecord
  2
0
 70
0
 62
7
  6
CONTINUOUS
370
-3
390
F
  0
LAYER
  5
1FA
100
AcDbSymbolTableRecord
100
AcDbLayerTableRecord
  2
DEFAULT_1
 70
0
 62
7
  6
CENTER
370
-3
390
F
  0
LAYER
  5
1FB
100
AcDbSymbolTableRecord
100
AcDbLayerTableRecord
  2
DEFAULT_2
 70
0
 62
7
  6
HIDDEN
370
-3
390
F
  0
LAYER
  5
1FC
100
AcDbSymbolTableRecord
100
AcDbLayerTableRecord
  2
DEFAULT_3
 70
0
 62
7
  6
PHANTOM
370
-3
390
F
  0
LAYER
  5
1FD
100
AcDbSymbolTableRecord
100
AcDbLayerTableRecord
  2
ASSI
 70
0
 62
7
  6
CONTINUOUS
370
-3
390
F
  0
LAYER
  5
1FE
100
AcDbSymbolTableRecord
100
AcDbLayerTableRecord
  2
COLOR3
 70
0
 62
7
  6
CONTINUOUS
370
-3
390
F
  0
LAYER
  5
1FF
100
AcDbSymbolTableRecord
100
AcDbLayerTableRecord
  2
COORDINATE
 70
0
 62
7
  6
CONTINUOUS
370
-3
390
F
  0
LAYER
  5
200
100
AcDbSymbolTableRecord
100
AcDbLayerTableRecord
  2
COPY_PUBLISH
 70
0
 62
7
  6
CONTINUOUS
370
-3
390
F
  0
LAYER
  5
201
100
AcDbSymbolTableRecord
100
AcDbLayerTableRecord
  2
COSMETIC
 70
0
 62
7
  6
CONTINUOUS
370
-3
390
F
  0
LAYER
  5
202
100
AcDbSymbolTableRecord
100
AcDbLayerTableRecord
  2
COSMETICI
 70
0
 62
7
  6
CONTINUOUS
370
-3
390
F
  0
LAYER
  5
203
100
AcDbSymbolTableRecord
100
AcDbLayerTableRecord
  2
CURVE
 70
0
 62
7
  6
CONTINUOUS
370
-3
390
F
  0
LAYER
  5
204
100
AcDbSymbolTableRecord
100
AcDbLayerTableRecord
  2
DRAFT
 70
0
 62
7
  6
CONTINUOUS
370
-3
390
F
  0
LAYER
  5
205
100
AcDbSymbolTableRecord
100
AcDbLayerTableRecord
  2
IMPORT_IGES
 70
0
 62
7
  6
CONTINUOUS
370
-3
390
F
  0
LAYER
  5
206
100
AcDbSymbolTableRecord
100
AcDbLayerTableRecord
  2
INTFCLR_1
 70
0
 62
7
  6
CONTINUOUS
370
-3
390
F
  0
LAYER
  5
207
100
AcDbSymbolTableRecord
100
AcDbLayerTableRecord
  2
INTF_1
 70
0
 62
7
  6
CONTINUOUS
370
-3
390
F
  0
LAYER
  5
208
100
AcDbSymbolTableRecord
100
AcDbLayerTableRecord
  2
INTF_10
 70
0
 62
7
  6
CONTINUOUS
370
-3
390
F
  0
LAYER
  5
209
100
AcDbSymbolTableRecord
100
AcDbLayerTableRecord
  2
INTF_13
 70
0
 62
7
  6
CONTINUOUS
370
-3
390
F
  0
LAYER
  5
20A
100
AcDbSymbolTableRecord
100
AcDbLayerTableRecord
  2
INTF_15
 70
0
 62
7
  6
CONTINUOUS
370
-3
390
F
  0
LAYER
  5
20B
100
AcDbSymbolTableRecord
100
AcDbLayerTableRecord
  2
INTF_16
 70
0
 62
7
  6
CONTINUOUS
370
-3
390
F
  0
LAYER
  5
20C
100
AcDbSymbolTableRecord
100
AcDbLayerTableRecord
  2
INTF_18
 70
0
 62
7
  6
CONTINUOUS
370
-3
390
F
  0
LAYER
  5
20D
100
AcDbSymbolTableRecord
100
AcDbLayerTableRecord
  2
INTF_20
 70
0
 62
7
  6
CONTINUOUS
370
-3
390
F
  0
LAYER
  5
20E
100
AcDbSymbolTableRecord
100
AcDbLayerTableRecord
  2
INTF_3
 70
0
 62
7
  6
CONTINUOUS
370
-3
390
F
  0
LAYER
  5
20F
100
AcDbSymbolTableRecord
100
AcDbLayerTableRecord
  2
INTF_5
 70
0
 62
7
  6
CONTINUOUS
370
-3
390
F
  0
LAYER
  5
210
100
AcDbSymbolTableRecord
100
AcDbLayerTableRecord
  2
INTF_8
 70
0
 62
7
  6
CONTINUOUS
370
-3
390
F
  0
LAYER
  5
211
100
AcDbSymbolTableRecord
100
AcDbLayerTableRecord
  2
NOTE
 70
0
 62
7
  6
CONTINUOUS
370
-3
390
F
  0
LAYER
  5
212
100
AcDbSymbolTableRecord
100
AcDbLayerTableRecord
  2
PIANI
 70
0
 62
7
  6
CONTINUOUS
370
-3
390
F
  0
LAYER
  5
213
100
AcDbSymbolTableRecord
100
AcDbLayerTableRecord
  2
PUNTI
 70
0
 62
7
  6
CONTINUOUS
370
-3
390
F
  0
LAYER
  5
214
100
AcDbSymbolTableRecord
100
AcDbLayerTableRecord
  2
RACCORDO
 70
0
 62
7
  6
CONTINUOUS
370
-3
390
F
  0
LAYER
  5
215
100
AcDbSymbolTableRecord
100
AcDbLayerTableRecord
  2
SIMBOLI
 70
0
 62
7
  6
CONTINUOUS
370
-3
390
F
  0
LAYER
  5
216
100
AcDbSymbolTableRecord
100
AcDbLayerTableRecord
  2
SMUSSO
 70
0
 62
7
  6
CONTINUOUS
370
-3
390
F
  0
LAYER
  5
217
100
AcDbSymbolTableRecord
100
AcDbLayerTableRecord
  2
SNAPLINE
 70
0
 62
7
  6
CONTINUOUS
370
-3
390
F
  0
LAYER
  5
218
100
AcDbSymbolTableRecord
100
AcDbLayerTableRecord
  2
SOLIDO
 70
0
 62
7
  6
CONTINUOUS
370
-3
390
F
  0
LAYER
  5
219
100
AcDbSymbolTableRecord
100
AcDbLayerTableRecord
  2
SUPERFICI
 70
0
 62
7
  6
CONTINUOUS
370
-3
390
F
  0
LAYER
  5
21A
100
AcDbSymbolTableRecord
100
AcDbLayerTableRecord
  2
SUPERFICI_SKEL
 70
0
 62
7
  6
CONTINUOUS
370
-3
390
F
  0
LAYER
  5
21B
100
AcDbSymbolTableRecord
100
AcDbLayerTableRecord
  2
TRASH
 70
0
 62
7
  6
CONTINUOUS
370
-3
390
F
  0
LAYER
  5
21C
100
AcDbSymbolTableRecord
100
AcDbLayerTableRecord
  2
___SHELL
 70
0
 62
7
  6
CONTINUOUS
370
-3
390
F
  0
ENDTAB
  0
TABLE
  2
STYLE
  5
3
100
AcDbSymbolTable
 70
1
  0
STYLE
  5
11
100
AcDbSymbolTableRecord
100
AcDbTextStyleTableRecord
  2
STANDARD
 70
0
 40
0.0
 41
0.8
 50
0.0
 71
0
 42
0.2
  3
txt
  4

  0
STYLE
  5
21D
100
AcDbSymbolTableRecord
100
AcDbTextStyleTableRecord
  2
TEXTSTYLE_1
 70
0
 40
0.0
 41
0.8
 50
0.0
 71
0
 42
0.2
  3
gdt
  4

  0
ENDTAB
  0
TABLE
  2
VIEW
  5
6
100
AcDbSymbolTable
 70
0
  0
ENDTAB
  0
TABLE
  2
UCS
  5
7
100
AcDbSymbolTable
 70
0
  0
ENDTAB
  0
TABLE
  2
APPID
  5
9
100
AcDbSymbolTable
 70
1
  0
APPID
  5
21E
100
AcDbSymbolTableRecord
100
AcDbRegAppTableRecord
  2
ACAD
 70
0
  0
ENDTAB
  0
TABLE
  2
BLOCK_RECORD
  5
1
100
AcDbSymbolTable
 70
0
  0
BLOCK_RECORD
  5
21F
100
AcDbSymbolTableRecord
100
AcDbBlockTableRecord
  2
*Model_Space
  0
BLOCK_RECORD
  5
220
100
AcDbSymbolTableRecord
100
AcDbBlockTableRecord
  2
*Paper_Space
  0
BLOCK_RECORD
  5
221
100
AcDbSymbolTableRecord
100
AcDbBlockTableRecord
  2
_FILLED
  0
BLOCK_RECORD
  5
222
100
AcDbSymbolTableRecord
100
AcDbBlockTableRecord
  2
*D0
  0
BLOCK_RECORD
  5
223
100
AcDbSymbolTableRecord
100
AcDbBlockTableRecord
  2
*D1
  0
BLOCK_RECORD
  5
224
100
AcDbSymbolTableRecord
100
AcDbBlockTableRecord
  2
*D2
  0
ENDTAB
  0
TABLE
  2
DIMSTYLE
  5
A
100
AcDbSymbolTable
 70
1
100
AcDbDimStyleTable
 71
0
  0
DIMSTYLE
105
225
100
AcDbSymbolTableRecord
100
AcDbDimStyleTableRecord
  2
STANDARD
 70
0
  3

  4

 40
1.0
 41
3.0
 42
0.0625
 43
0.38
 44
0.18
 45
0.0
 46
0.0
 47
0.01
 48
0.01
140
3.0
141
0.09
142
0.0
143
25.4
144
1.0
145
0.0
146
1.0
147
0.09
 71
1.0
 72
0.0
 73
0
 74
0
 75
0
 76
0
 77
1
 78
8
170
0
171
2
172
0
173
0
174
0
175
0
176
0
177
0
178
0
270
2
271
2
272
2
273
2
274
2
275
0
280
0
281
0
282
0
283
1
284
8
285
0
286
0
287
3
288
0
340
11
341
221
342
221
343
221
344
221
  0
DIMSTYLE
105
226
100
AcDbSymbolTableRecord
100
AcDbDimStyleTableRecord
  2
DIMSTYLE_1
 70
0
  3

  4

 40
1.0
 41
3.0
 42
0.0625
 43
0.38
 44
0.18
 45
0.0
 46
0.0
 47
0.0
 48
0.0
140
3.0
141
0.09
142
0.0
143
25.4
144
1.0
145
0.0
146
1.0
147
0.09
 71
0.0
 72
0.0
 73
0
 74
0
 75
0
 76
0
 77
1
 78
8
170
0
171
2
172
0
173
0
174
0
175
0
176
0
177
0
178
0
270
2
271
2
272
2
273
2
274
2
275
0
280
0
281
0
282
0
283
1
284
8
285
0
286
0
287
3
288
0
340
11
341
221
342
221
343
221
344
221
  0
DIMSTYLE
105
227
100
AcDbSymbolTableRecord
100
AcDbDimStyleTableRecord
  2
DIMSTYLE_2
 70
0
  3

  4

 40
1.0
 41
3.0
 42
0.0625
 43
0.38
 44
0.18
 45
0.0
 46
0.0
 47
0.0
 48
0.0
140
3.0
141
0.09
142
0.0
143
25.4
144
1.0
145
0.0
146
1.0
147
0.09
 71
0.0
 72
0.0
 73
0
 74
0
 75
0
 76
0
 77
1
 78
8
170
0
171
2
172
0
173
0
174
0
175
0
176
0
177
0
178
0
270
2
271
1
272
1
273
2
274
2
275
0
280
0
281
0
282
0
283
1
284
8
285
0
286
0
287
3
288
0
340
11
341
221
342
221
343
221
344
221
  0
ENDTAB
  0
ENDSEC
  0
SECTION
  2
BLOCKS
  0
BLOCK
  5
20
100
AcDbEntity
  8
0
100
AcDbBlockBegin
  2
*Model_Space
 70
0
 10
0.0
 20
0.0
 30
0.0
  3
*Model_Space
  1

  0
ENDBLK
  5
21
100
AcDbEntity
  8
0
100
AcDbBlockEnd
  0
BLOCK
  5
1C
100
AcDbEntity
  8
0
100
AcDbBlockBegin
  2
*Paper_Space
 70
0
 10
0.0
 20
0.0
 30
0.0
  3
*Paper_Space
  1

  0
ENDBLK
  5
1D
100
AcDbEntity
  8
0
100
AcDbBlockEnd
  0
BLOCK
  5
228
100
AcDbEntity
  8
0
100
AcDbBlockBegin
  2
_FILLED
 70
64
 10
0.0
 20
0.0
  3
_FILLED
  1

  0
SOLID
  5
229
100
AcDbEntity
  8
0
  6
BYBLOCK
 62
0
100
AcDbTrace
 10
0.0
 20
0.0
 11
-1.0
 21
0.1333333333
 12
-1.0
 22
-0.1333333333
 13
-1.0
 23
-0.1333333333
  0
ENDBLK
  5
22A
100
AcDbEntity
  8
0
  6
BYBLOCK
 62
0
100
AcDbBlockEnd
  0
BLOCK
  5
22B
100
AcDbEntity
  8
0
100
AcDbBlockBegin
 62
7
  6
CONTINUOUS
  2
*D0
 70
65
 10
0.0
 20
0.0
  3
*D0
  1

  0
MTEXT
  5
22C
100
AcDbEntity
  8
0
100
AcDbMText
 62
7
  6
CONTINUOUS
  7
STANDARD
 71
2
 72
1
 10
150.0436590437
 20
143.5261938921
 30
0.0
 11
1.0
 21
0.0
 31
0.0
 44
0.9
  1
44,5
 40
3.0
 41
8.5714285714
  0
LINE
  5
22D
100
AcDbEntity
  8
0
100
AcDbLine
 62
7
  6
CONTINUOUS
 10
127.7944748417
 20
117.9825363825
 11
127.7944748417
 21
141.2761938921
  0
LINE
  5
22E
100
AcDbEntity
  8
0
100
AcDbLine
 62
7
  6
CONTINUOUS
 10
172.2928432456
 20
117.9825363825
 11
172.2928432456
 21
141.2761938921
  0
LINE
  5
22F
100
AcDbEntity
  8
0
100
AcDbLine
 62
7
  6
CONTINUOUS
 10
127.7944748417
 20
139.7761938921
 11
150.0436590437
 21
139.7761938921
  0
LINE
  5
230
100
AcDbEntity
  8
0
100
AcDbLine
 62
7
  6
CONTINUOUS
 10
172.2928432456
 20
139.7761938921
 11
150.0436590437
 21
139.7761938921
  0
INSERT
  5
231
100
AcDbEntity
  8
0
100
AcDbBlockReference
 62
7
  6
CONTINUOUS
  2
_FILLED
 10
127.7944748417
 20
139.7761938921
 41
3.0
 42
3.0
 43
3.0
 50
180.0
  0
INSERT
  5
232
100
AcDbEntity
  8
0
100
AcDbBlockReference
 62
7
  6
CONTINUOUS
  2
_FILLED
 10
172.2928432456
 20
139.7761938921
 41
3.0
 42
3.0
 43
3.0
  0
ENDBLK
  5
233
100
AcDbEntity
  8
0
  6
BYBLOCK
 62
0
100
AcDbBlockEnd
  0
BLOCK
  5
234
100
AcDbEntity
  8
0
100
AcDbBlockBegin
 62
7
  6
CONTINUOUS
  2
*D1
 70
65
 10
0.0
 20
0.0
  3
*D1
  1

  0
MTEXT
  5
235
100
AcDbEntity
  8
0
100
AcDbMText
 62
7
  6
CONTINUOUS
  7
STANDARD
 71
2
 72
1
 10
181.6299416181
 20
104.3825363825
 30
0.0
 11
0.0
 21
1.0
 31
0.0
 44
0.9
  1
44,3
 40
3.0
 41
8.5714285714
  0
LINE
  5
236
100
AcDbEntity
  8
0
100
AcDbLine
 62
7
  6
CONTINUOUS
 10
172.2726084326
 20
126.5392406592
 11
186.8799416181
 21
126.5392406592
  0
LINE
  5
237
100
AcDbEntity
  8
0
100
AcDbLine
 62
7
  6
CONTINUOUS
 10
172.2726084326
 20
82.2258321059
 11
186.8799416181
 21
82.2258321059
  0
LINE
  5
238
100
AcDbEntity
  8
0
100
AcDbLine
 62
7
  6
CONTINUOUS
 10
185.3799416181
 20
126.5392406592
 11
185.3799416181
 21
104.3825363825
  0
LINE
  5
239
100
AcDbEntity
  8
0
100
AcDbLine
 62
7
  6
CONTINUOUS
 10
185.3799416181
 20
82.2258321059
 11
185.3799416181
 21
104.3825363825
  0
INSERT
  5
23A
100
AcDbEntity
  8
0
100
AcDbBlockReference
 62
7
  6
CONTINUOUS
  2
_FILLED
 10
185.3799416181
 20
126.5392406592
 41
3.0
 42
3.0
 43
3.0
 50
90.0
  0
INSERT
  5
23B
100
AcDbEntity
  8
0
100
AcDbBlockReference
 62
7
  6
CONTINUOUS
  2
_FILLED
 10
185.3799416181
 20
82.2258321059
 41
3.0
 42
3.0
 43
3.0
 50
270.0
  0
ENDBLK
  5
23C
100
AcDbEntity
  8
0
  6
BYBLOCK
 62
0
100
AcDbBlockEnd
  0
BLOCK
  5
23D
100
AcDbEntity
  8
0
100
AcDbBlockBegin
 62
7
  6
CONTINUOUS
  2
*D2
 70
65
 10
0.0
 20
0.0
  3
*D2
  1

  0
MTEXT
  5
23E
100
AcDbEntity
  8
0
100
AcDbMText
 62
7
  6
CONTINUOUS
  7
STANDARD
 71
2
 72
1
 10
114.1779394585
 20
143.5261938921
 30
0.0
 11
1.0
 21
0.0
 31
0.0
 44
0.9
  1
5,3
 40
3.0
 41
6.0
  0
LINE
  5
23F
100
AcDbEntity
  8
0
100
AcDbLine
 62
7
  6
CONTINUOUS
 10
116.8525122528
 20
117.9825363825
 11
116.8525122528
 21
141.2761938921
  0
LINE
  5
240
100
AcDbEntity
  8
0
100
AcDbLine
 62
7
  6
CONTINUOUS
 10
111.5033666643
 20
105.6258018923
 11
111.5033666643
 21
141.2761938921
  0
LINE
  5
241
100
AcDbEntity
  8
0
100
AcDbLine
 62
7
  6
CONTINUOUS
 10
116.8525122528
 20
139.7761938921
 11
120.8525122528
 21
139.7761938921
  0
LINE
  5
242
100
AcDbEntity
  8
0
100
AcDbLine
 62
7
  6
CONTINUOUS
 10
120.8525122528
 20
139.7761938921
 11
114.1779394585
 21
139.7761938921
  0
LINE
  5
243
100
AcDbEntity
  8
0
100
AcDbLine
 62
7
  6
CONTINUOUS
 10
111.5033666643
 20
139.7761938921
 11
107.5033666643
 21
139.7761938921
  0
LINE
  5
244
100
AcDbEntity
  8
0
100
AcDbLine
 62
7
  6
CONTINUOUS
 10
107.5033666643
 20
139.7761938921
 11
114.1779394585
 21
139.7761938921
  0
INSERT
  5
245
100
AcDbEntity
  8
0
100
AcDbBlockReference
 62
7
  6
CONTINUOUS
  2
_FILLED
 10
116.8525122528
 20
139.7761938921
 41
3.0
 42
3.0
 43
3.0
 50
180.0
  0
INSERT
  5
246
100
AcDbEntity
  8
0
100
AcDbBlockReference
 62
7
  6
CONTINUOUS
  2
_FILLED
 10
111.5033666643
 20
139.7761938921
 41
3.0
 42
3.0
 43
3.0
  0
ENDBLK
  5
247
100
AcDbEntity
  8
0
  6
BYBLOCK
 62
0
100
AcDbBlockEnd
  0
ENDSEC
  0
SECTION
  2
ENTITIES
  0
DIMENSION
  5
248
100
AcDbEntity
  8
0
100
AcDbDimension
 62
7
  6
CONTINUOUS
  2
*D0
 10
172.2928432456
 20
139.7761938921
 11
145.7579447579
 21
142.0261938921
 70
160
 71
2
 42
44.4983684039
  3
DIMSTYLE_1
100
AcDbAlignedDimension
 13
127.7944748417
 23
117.9825363825
 14
172.2928432456
 24
117.9825363825
100
AcDbRotatedDimension
  0
DIMENSION
  5
249
100
AcDbEntity
  8
0
100
AcDbDimension
 62
7
  6
CONTINUOUS
  2
*D1
 10
185.3799416181
 20
82.2258321059
 11
185.0502571158
 21
100.55112211
 70
160
 71
2
 42
44.3134085533
  3
DIMSTYLE_2
100
AcDbAlignedDimension
 13
172.2726084326
 23
126.5392406592
 14
172.2726084326
 24
82.2258321059
 50
270.0
100
AcDbRotatedDimension
  0
DIMENSION
  5
24A
100
AcDbEntity
  8
0
100
AcDbDimension
 62
7
  6
CONTINUOUS
  2
*D2
 10
111.5033666643
 20
139.7761938921
 11
111.1779394585
 21
142.0261938921
 70
160
 71
2
 42
5.3491455885
  3
DIMSTYLE_2
100
AcDbAlignedDimension
 13
116.8525122528
 23
117.9825363825
 14
111.5033666643
 24
105.6258018923
 50
180.0
100
AcDbRotatedDimension
  0
LWPOLYLINE
  5
24B
100
AcDbEntity
  8
0
100
AcDbPolyline
 62
253
  6
CONTINUOUS
 90
7
 70
0
 10
128.380821209
 20
126.4069268227
 10
128.3797711404
 20
126.3995407992
 10
128.3786792823
 20
126.3862649362
 10
128.3775734933
 20
126.3671678629
 10
128.3765023804
 20
126.3423478172
 10
128.3754718719
 20
126.311929848
 10
128.3734456244
 20
126.2349238106
  0
LWPOLYLINE
  5
24C
100
AcDbEntity
  8
ASSI
100
AcDbPolyline
 62
253
  6
CONTINUOUS
 90
7
 70
0
 10
128.380821209
 20
126.4069268227
 10
128.3797711404
 20
126.3995407992
 10
128.3786792823
 20
126.3862649362
 10
128.3775734933
 20
126.3671678629
 10
128.3765023804
 20
126.3423478172
 10
128.3754718719
 20
126.311929848
 10
128.3734456244
 20
126.2349238106
  0
LINE
  5
24D
100
AcDbEntity
  8
0
100
AcDbLine
 62
7
  6
CONTINUOUS
 10
164.6851022947
 20
82.2258321059
 11
165.0359240167
 21
82.2576772238
  0
LINE
  5
24E
100
AcDbEntity
  8
ASSI
100
AcDbLine
 62
7
  6
CONTINUOUS
 10
164.6851022947
 20
82.2258321059
 11
165.0359240167
 21
82.2576772238
  0
LWPOLYLINE
  5
24F
100
AcDbEntity
  8
0
100
AcDbPolyline
 62
253
  6
CONTINUOUS
 90
16
 70
0
 10
171.7064968783
 20
82.3581459423
 10
171.7586985048
 20
82.3609479876
 10
171.8103291164
 20
82.369180577
 10
171.8608240131
 20
82.3827536473
 10
171.9096309349
 20
82.4015187317
 10
171.9562160564
 20
82.4252705677
 10
172.0000698332
 20
82.453749328
 10
172.0407126375
 20
82.4866434966
 10
172.0776999822
 20
82.5235932809
 10
172.1106273457
 20
82.5641945161
 10
172.1391346253
 20
82.6080031075
 10
172.1629100776
 20
82.6545399044
 10
172.1816937119
 20
82.7032959294
 10
172.1952801284
 20
82.7537379324
 10
172.2035207681
 20
82.8053142215
 10
172.2063255408
 20
82.8574607097
  0
LWPOLYLINE
  5
250
100
AcDbEntity
  8
ASSI
100
AcDbPolyline
 62
253
  6
CONTINUOUS
 90
16
 70
0
 10
171.7064968783
 20
82.3581459423
 10
171.7586985048
 20
82.3609479876
 10
171.8103291164
 20
82.369180577
 10
171.8608240131
 20
82.3827536473
 10
171.9096309349
 20
82.4015187317
 10
171.9562160564
 20
82.4252705677
 10
172.0000698332
 20
82.453749328
 10
172.0407126375
 20
82.4866434966
 10
172.0776999822
 20
82.5235932809
 10
172.1106273457
 20
82.5641945161
 10
172.1391346253
 20
82.6080031075
 10
172.1629100776
 20
82.6545399044
 10
172.1816937119
 20
82.7032959294
 10
172.1952801284
 20
82.7537379324
 10
172.2035207681
 20
82.8053142215
 10
172.2063255408
 20
82.8574607097
  0
LWPOLYLINE
  5
251
100
AcDbEntity
  8
0
100
AcDbPolyline
 62
253
  6
CONTINUOUS
 90
16
 70
0
 10
128.3808212071
 20
82.3581459385
 10
128.328620237
 20
82.3609479137
 10
128.2769901955
 20
82.3691803108
 10
128.2264957666
 20
82.382753091
 10
128.1776892141
 20
82.4015178072
 10
128.1311043414
 20
82.4252692273
 10
128.087250653
 20
82.4537475791
 10
128.0466077821
 20
82.4866413913
 10
128.0096202448
 20
82.5235909002
 10
127.9766925783
 20
82.5641919845
 10
127.9481849167
 20
82.6080005851
 10
127.9244090516
 20
82.6545375619
 10
127.9056250229
 20
82.7032939342
 10
127.8920382735
 20
82.7537364476
 10
127.8837974036
 20
82.805313406
 10
127.8809925446
 20
82.8574607059
  0
LWPOLYLINE
  5
252
100
AcDbEntity
  8
ASSI
100
AcDbPolyline
 62
253
  6
CONTINUOUS
 90
16
 70
0
 10
128.3808212071
 20
82.3581459385
 10
128.328620237
 20
82.3609479137
 10
128.2769901955
 20
82.3691803108
 10
128.2264957666
 20
82.382753091
 10
128.1776892141
 20
82.4015178072
 10
128.1311043414
 20
82.4252692273
 10
128.087250653
 20
82.4537475791
 10
128.0466077821
 20
82.4866413913
 10
128.0096202448
 20
82.5235909002
 10
127.9766925783
 20
82.5641919845
 10
127.9481849167
 20
82.6080005851
 10
127.9244090516
 20
82.6545375619
 10
127.9056250229
 20
82.7032939342
 10
127.8920382735
 20
82.7537364476
 10
127.8837974036
 20
82.805313406
 10
127.8809925446
 20
82.8574607059
  0
LINE
  5
253
100
AcDbEntity
  8
0
100
AcDbLine
 62
7
  6
CONTINUOUS
 10
135.4022157926
 20
82.2258321059
 11
135.0513940706
 21
82.2576772238
  0
LINE
  5
254
100
AcDbEntity
  8
ASSI
100
AcDbLine
 62
7
  6
CONTINUOUS
 10
135.4022157926
 20
82.2258321059
 11
135.0513940706
 21
82.2576772238
  0
LWPOLYLINE
  5
255
100
AcDbEntity
  8
0
100
AcDbPolyline
 62
253
  6
CONTINUOUS
 90
8
 70
0
 10
128.3815023021
 20
104.7513049318
 10
128.3851258128
 20
104.7182064492
 10
128.3890400481
 20
104.6895641125
 10
128.3926719104
 20
104.6656418429
 10
128.3969256793
 20
104.6466025672
 10
128.4017993004
 20
104.6327037009
 10
128.4063175941
 20
104.6241576664
 10
128.4099931054
 20
104.6210156073
  0
LWPOLYLINE
  5
256
100
AcDbEntity
  8
ASSI
100
AcDbPolyline
 62
253
  6
CONTINUOUS
 90
8
 70
0
 10
128.3815023021
 20
104.7513049318
 10
128.3851258128
 20
104.7182064492
 10
128.3890400481
 20
104.6895641125
 10
128.3926719104
 20
104.6656418429
 10
128.3969256793
 20
104.6466025672
 10
128.4017993004
 20
104.6327037009
 10
128.4063175941
 20
104.6241576664
 10
128.4099931054
 20
104.6210156073
  0
LWPOLYLINE
  5
257
100
AcDbEntity
  8
0
100
AcDbPolyline
 62
253
  6
CONTINUOUS
 90
19
 70
0
 10
127.9101644429
 20
105.1209965688
 10
127.9120311614
 20
105.077939272
 10
127.9176186685
 20
105.0350821852
 10
127.9269163732
 20
104.9927495985
 10
127.9398932959
 20
104.9512439067
 10
127.9564773406
 20
104.9109120348
 10
127.9765360191
 20
104.8721349547
 10
127.9999269791
 20
104.8352157296
 10
128.0264832419
 20
104.8004418636
 10
128.0559649507
 20
104.7681346343
 10
128.0881178347
 20
104.7385598164
 10
128.1227148292
 20
104.7119144926
 10
128.1595183326
 20
104.6883817392
 10
128.1982666826
 20
104.6681370517
 10
128.2386502769
 20
104.6513499703
 10
128.2803398516
 20
104.6381589763
 10
128.3230085196
 20
104.6286649117
 10
128.3663367547
 20
104.6229363452
 10
128.4099931054
 20
104.6210156073
  0
LWPOLYLINE
  5
258
100
AcDbEntity
  8
ASSI
100
AcDbPolyline
 62
253
  6
CONTINUOUS
 90
19
 70
0
 10
127.9101644429
 20
105.1209965688
 10
127.9120311614
 20
105.077939272
 10
127.9176186685
 20
105.0350821852
 10
127.9269163732
 20
104.9927495985
 10
127.9398932959
 20
104.9512439067
 10
127.9564773406
 20
104.9109120348
 10
127.9765360191
 20
104.8721349547
 10
127.9999269791
 20
104.8352157296
 10
128.0264832419
 20
104.8004418636
 10
128.0559649507
 20
104.7681346343
 10
128.0881178347
 20
104.7385598164
 10
128.1227148292
 20
104.7119144926
 10
128.1595183326
 20
104.6883817392
 10
128.1982666826
 20
104.6681370517
 10
128.2386502769
 20
104.6513499703
 10
128.2803398516
 20
104.6381589763
 10
128.3230085196
 20
104.6286649117
 10
128.3663367547
 20
104.6229363452
 10
128.4099931054
 20
104.6210156073
  0
LWPOLYLINE
  5
259
100
AcDbEntity
  8
0
100
AcDbPolyline
 62
253
  6
CONTINUOUS
 90
4
 70
0
 10
128.3712432029
 20
104.9195627018
 10
128.3730347937
 20
104.8728517742
 10
128.3757381102
 20
104.8288815711
 10
128.3815023021
 20
104.7513049318
  0
LWPOLYLINE
  5
25A
100
AcDbEntity
  8
ASSI
100
AcDbPolyline
 62
253
  6
CONTINUOUS
 90
4
 70
0
 10
128.3712432029
 20
104.9195627018
 10
128.3730347937
 20
104.8728517742
 10
128.3757381102
 20
104.8288815711
 10
128.3815023021
 20
104.7513049318
  0
LWPOLYLINE
  5
25B
100
AcDbEntity
  8
0
100
AcDbPolyline
 62
253
  6
CONTINUOUS
 90
6
 70
0
 10
128.3754719097
 20
82.4531429138
 10
128.3765024109
 20
82.4227249452
 10
128.3775735161
 20
82.3979048996
 10
128.3786792971
 20
82.3788078258
 10
128.379771147
 20
82.3655319623
 10
128.3808212071
 20
82.3581459385
  0
LWPOLYLINE
  5
25C
100
AcDbEntity
  8
ASSI
100
AcDbPolyline
 62
253
  6
CONTINUOUS
 90
6
 70
0
 10
128.3754719097
 20
82.4531429138
 10
128.3765024109
 20
82.4227249452
 10
128.3775735161
 20
82.3979048996
 10
128.3786792971
 20
82.3788078258
 10
128.379771147
 20
82.3655319623
 10
128.3808212071
 20
82.3581459385
  0
LINE
  5
25D
100
AcDbEntity
  8
0
100
AcDbLine
 62
253
  6
CONTINUOUS
 10
127.8916746799
 20
125.7505522755
 11
127.8935603646
 21
125.6829505679
  0
LINE
  5
25E
100
AcDbEntity
  8
ASSI
100
AcDbLine
 62
253
  6
CONTINUOUS
 10
127.8916746799
 20
125.7505522755
 11
127.8935603646
 21
125.6829505679
  0
LINE
  5
25F
100
AcDbEntity
  8
0
100
AcDbLine
 62
253
  6
CONTINUOUS
 10
128.3734456761
 20
82.5301489495
 11
128.3754719097
 21
82.4531429138
  0
LINE
  5
260
100
AcDbEntity
  8
ASSI
100
AcDbLine
 62
253
  6
CONTINUOUS
 10
128.3734456761
 20
82.5301489495
 11
128.3754719097
 21
82.4531429138
  0
LINE
  5
261
100
AcDbEntity
  8
0
100
AcDbLine
 62
253
  6
CONTINUOUS
 10
127.8935603646
 20
125.6829505679
 11
127.8951741791
 21
125.6062026054
  0
LINE
  5
262
100
AcDbEntity
  8
ASSI
100
AcDbLine
 62
253
  6
CONTINUOUS
 10
127.8935603646
 20
125.6829505679
 11
127.8951741791
 21
125.6062026054
  0
LINE
  5
263
100
AcDbEntity
  8
0
100
AcDbLine
 62
253
  6
CONTINUOUS
 10
128.3715748599
 20
82.6273956219
 11
128.3734456761
 21
82.5301489495
  0
LINE
  5
264
100
AcDbEntity
  8
ASSI
100
AcDbLine
 62
253
  6
CONTINUOUS
 10
128.3715748599
 20
82.6273956219
 11
128.3734456761
 21
82.5301489495
  0
LINE
  5
265
100
AcDbEntity
  8
0
100
AcDbLine
 62
253
  6
CONTINUOUS
 10
127.8951741791
 20
125.6062026054
 11
127.8964924819
 21
125.5214492933
  0
LINE
  5
266
100
AcDbEntity
  8
ASSI
100
AcDbLine
 62
253
  6
CONTINUOUS
 10
127.8951741791
 20
125.6062026054
 11
127.8964924819
 21
125.5214492933
  0
LINE
  5
267
100
AcDbEntity
  8
0
100
AcDbLine
 62
253
  6
CONTINUOUS
 10
128.3690794112
 20
82.8068699016
 11
128.3715748599
 21
82.6273956219
  0
LINE
  5
268
100
AcDbEntity
  8
ASSI
100
AcDbLine
 62
253
  6
CONTINUOUS
 10
128.3690794112
 20
82.8068699016
 11
128.3715748599
 21
82.6273956219
  0
LINE
  5
269
100
AcDbEntity
  8
0
100
AcDbLine
 62
253
  6
CONTINUOUS
 10
127.8964924819
 20
125.5214492933
 11
127.8978509338
 21
125.3834391386
  0
LINE
  5
26A
100
AcDbEntity
  8
ASSI
100
AcDbLine
 62
253
  6
CONTINUOUS
 10
127.8964924819
 20
125.5214492933
 11
127.8978509338
 21
125.3834391386
  0
LINE
  5
26B
100
AcDbEntity
  8
0
100
AcDbLine
 62
253
  6
CONTINUOUS
 10
128.3665100757
 20
83.0960616121
 11
128.3690794112
 21
82.8068699016
  0
LINE
  5
26C
100
AcDbEntity
  8
ASSI
100
AcDbLine
 62
253
  6
CONTINUOUS
 10
128.3665100757
 20
83.0960616121
 11
128.3690794112
 21
82.8068699016
  0
LWPOLYLINE
  5
26D
100
AcDbEntity
  8
0
100
AcDbPolyline
 62
253
  6
CONTINUOUS
 90
3
 70
0
 10
128.3675193653
 20
103.6433184167
 10
128.3672929712
 20
103.6963068246
 10
128.368142433
 20
103.7475564901
  0
LWPOLYLINE
  5
26E
100
AcDbEntity
  8
ASSI
100
AcDbPolyline
 62
253
  6
CONTINUOUS
 90
3
 70
0
 10
128.3675193653
 20
103.6433184167
 10
128.3672929712
 20
103.6963068246
 10
128.368142433
 20
103.7475564901
  0
LINE
  5
26F
100
AcDbEntity
  8
0
100
AcDbLine
 62
7
  6
CONTINUOUS
 10
127.8140832331
 20
82.7235502602
 11
127.7944748417
 21
91.2825363825
  0
LINE
  5
270
100
AcDbEntity
  8
ASSI
100
AcDbLine
 62
7
  6
CONTINUOUS
 10
127.8140832331
 20
82.7235502602
 11
127.7944748417
 21
91.2825363825
  0
LINE
  5
271
100
AcDbEntity
  8
0
100
AcDbLine
 62
253
  6
CONTINUOUS
 10
128.3647850306
 20
83.505285035
 11
128.3665100757
 21
83.0960616121
  0
LINE
  5
272
100
AcDbEntity
  8
ASSI
100
AcDbLine
 62
253
  6
CONTINUOUS
 10
128.3647850306
 20
83.505285035
 11
128.3665100757
 21
83.0960616121
  0
LINE
  5
273
100
AcDbEntity
  8
0
100
AcDbLine
 62
253
  6
CONTINUOUS
 10
127.8978509338
 20
125.3834391386
 11
127.8984189895
 21
125.2383528539
  0
LINE
  5
274
100
AcDbEntity
  8
ASSI
100
AcDbLine
 62
253
  6
CONTINUOUS
 10
127.8978509338
 20
125.3834391386
 11
127.8984189895
 21
125.2383528539
  0
LINE
  5
275
100
AcDbEntity
  8
0
100
AcDbLine
 62
253
  6
CONTINUOUS
 10
127.8984189895
 20
125.2383528539
 11
127.9086379474
 21
111.9337386629
  0
LINE
  5
276
100
AcDbEntity
  8
ASSI
100
AcDbLine
 62
253
  6
CONTINUOUS
 10
127.8984189895
 20
125.2383528539
 11
127.9086379474
 21
111.9337386629
  0
LINE
  5
277
100
AcDbEntity
  8
0
100
AcDbLine
 62
7
  6
CONTINUOUS
 10
127.7944748417
 20
117.4825363825
 11
127.7944748417
 21
105.0824412003
  0
LINE
  5
278
100
AcDbEntity
  8
ASSI
100
AcDbLine
 62
7
  6
CONTINUOUS
 10
127.7944748417
 20
117.4825363825
 11
127.7944748417
 21
105.0824412003
  0
LINE
  5
279
100
AcDbEntity
  8
0
100
AcDbLine
 62
7
  6
CONTINUOUS
 10
127.7944748417
 20
91.2825363825
 11
127.7944748417
 21
103.6826315647
  0
LINE
  5
27A
100
AcDbEntity
  8
ASSI
100
AcDbLine
 62
7
  6
CONTINUOUS
 10
127.7944748417
 20
91.2825363825
 11
127.7944748417
 21
103.6826315647
  0
LINE
  5
27B
100
AcDbEntity
  8
0
100
AcDbLine
 62
253
  6
CONTINUOUS
 10
127.9086379474
 20
111.9337386629
 11
127.9101644429
 21
105.1209965688
  0
LINE
  5
27C
100
AcDbEntity
  8
ASSI
100
AcDbLine
 62
253
  6
CONTINUOUS
 10
127.9086379474
 20
111.9337386629
 11
127.9101644429
 21
105.1209965688
  0
LINE
  5
27D
100
AcDbEntity
  8
0
100
AcDbLine
 62
253
  6
CONTINUOUS
 10
128.3675194382
 20
103.6433184246
 11
128.3647849937
 21
83.5052850309
  0
LINE
  5
27E
100
AcDbEntity
  8
ASSI
100
AcDbLine
 62
253
  6
CONTINUOUS
 10
128.3675194382
 20
103.6433184246
 11
128.3647849937
 21
83.5052850309
  0
LINE
  5
27F
100
AcDbEntity
  8
0
100
AcDbLine
 62
253
  6
CONTINUOUS
 10
127.9101644411
 20
103.6440761969
 11
127.9079170303
 21
95.2209095245
  0
LINE
  5
280
100
AcDbEntity
  8
ASSI
100
AcDbLine
 62
253
  6
CONTINUOUS
 10
127.9101644411
 20
103.6440761969
 11
127.9079170303
 21
95.2209095245
  0
LINE
  5
281
100
AcDbEntity
  8
0
100
AcDbLine
 62
253
  6
CONTINUOUS
 10
127.9079170303
 20
95.2209095245
 11
127.9010233049
 21
86.0303745042
  0
LINE
  5
282
100
AcDbEntity
  8
ASSI
100
AcDbLine
 62
253
  6
CONTINUOUS
 10
127.9079170303
 20
95.2209095245
 11
127.9010233049
 21
86.0303745042
  0
LINE
  5
283
100
AcDbEntity
  8
0
100
AcDbLine
 62
7
  6
CONTINUOUS
 10
127.8140832331
 20
126.0415225049
 11
127.7944748417
 21
117.4825363825
  0
LINE
  5
284
100
AcDbEntity
  8
ASSI
100
AcDbLine
 62
7
  6
CONTINUOUS
 10
127.8140832331
 20
126.0415225049
 11
127.7944748417
 21
117.4825363825
  0
LINE
  5
285
100
AcDbEntity
  8
0
100
AcDbLine
 62
253
  6
CONTINUOUS
 10
128.3652577482
 20
125.4271318149
 11
128.3675194405
 21
105.1217543371
  0
LINE
  5
286
100
AcDbEntity
  8
ASSI
100
AcDbLine
 62
253
  6
CONTINUOUS
 10
128.3652577482
 20
125.4271318149
 11
128.3675194405
 21
105.1217543371
  0
LINE
  5
287
100
AcDbEntity
  8
0
100
AcDbLine
 62
253
  6
CONTINUOUS
 10
127.9010233049
 20
86.0303745042
 11
127.8981281054
 21
83.4292094785
  0
LINE
  5
288
100
AcDbEntity
  8
ASSI
100
AcDbLine
 62
253
  6
CONTINUOUS
 10
127.9010233049
 20
86.0303745042
 11
127.8981281054
 21
83.4292094785
  0
LWPOLYLINE
  5
289
100
AcDbEntity
  8
0
100
AcDbPolyline
 62
253
  6
CONTINUOUS
 90
4
 70
0
 10
128.3675193671
 20
105.1217543414
 10
128.3672931019
 20
105.0687679291
 10
128.3681424827
 20
105.0175199361
 10
128.3712432029
 20
104.9195627018
  0
LWPOLYLINE
  5
28A
100
AcDbEntity
  8
ASSI
100
AcDbPolyline
 62
253
  6
CONTINUOUS
 90
4
 70
0
 10
128.3675193671
 20
105.1217543414
 10
128.3672931019
 20
105.0687679291
 10
128.3681424827
 20
105.0175199361
 10
128.3712432029
 20
104.9195627018
  0
LINE
  5
28B
100
AcDbEntity
  8
0
100
AcDbLine
 62
253
  6
CONTINUOUS
 10
128.3676793779
 20
125.8196039043
 11
128.3652577482
 21
125.4271318149
  0
LINE
  5
28C
100
AcDbEntity
  8
ASSI
100
AcDbLine
 62
253
  6
CONTINUOUS
 10
128.3676793779
 20
125.8196039043
 11
128.3652577482
 21
125.4271318149
  0
LINE
  5
28D
100
AcDbEntity
  8
0
100
AcDbLine
 62
253
  6
CONTINUOUS
 10
127.8981281054
 20
83.4292094785
 11
127.8970286937
 21
83.2883429798
  0
LINE
  5
28E
100
AcDbEntity
  8
ASSI
100
AcDbLine
 62
253
  6
CONTINUOUS
 10
127.8981281054
 20
83.4292094785
 11
127.8970286937
 21
83.2883429798
  0
LINE
  5
28F
100
AcDbEntity
  8
0
100
AcDbLine
 62
253
  6
CONTINUOUS
 10
128.3698660447
 20
126.0221337202
 11
128.3676793779
 21
125.8196039043
  0
LINE
  5
290
100
AcDbEntity
  8
ASSI
100
AcDbLine
 62
253
  6
CONTINUOUS
 10
128.3698660447
 20
126.0221337202
 11
128.3676793779
 21
125.8196039043
  0
LINE
  5
291
100
AcDbEntity
  8
0
100
AcDbLine
 62
253
  6
CONTINUOUS
 10
127.8970286937
 20
83.2883429798
 11
127.8958739204
 21
83.2004804657
  0
LINE
  5
292
100
AcDbEntity
  8
ASSI
100
AcDbLine
 62
253
  6
CONTINUOUS
 10
127.8970286937
 20
83.2883429798
 11
127.8958739204
 21
83.2004804657
  0
LINE
  5
293
100
AcDbEntity
  8
0
100
AcDbLine
 62
253
  6
CONTINUOUS
 10
128.3715747957
 20
126.1376771369
 11
128.3698660447
 21
126.0221337202
  0
LINE
  5
294
100
AcDbEntity
  8
ASSI
100
AcDbLine
 62
253
  6
CONTINUOUS
 10
128.3715747957
 20
126.1376771369
 11
128.3698660447
 21
126.0221337202
  0
LINE
  5
295
100
AcDbEntity
  8
0
100
AcDbLine
 62
253
  6
CONTINUOUS
 10
127.8958739204
 20
83.2004804657
 11
127.8944033688
 21
83.1194075021
  0
LINE
  5
296
100
AcDbEntity
  8
ASSI
100
AcDbLine
 62
253
  6
CONTINUOUS
 10
127.8958739204
 20
83.2004804657
 11
127.8944033688
 21
83.1194075021
  0
LINE
  5
297
100
AcDbEntity
  8
0
100
AcDbLine
 62
253
  6
CONTINUOUS
 10
128.3734456244
 20
126.2349238106
 11
128.3715747957
 21
126.1376771369
  0
LINE
  5
298
100
AcDbEntity
  8
ASSI
100
AcDbLine
 62
253
  6
CONTINUOUS
 10
128.3734456244
 20
126.2349238106
 11
128.3715747957
 21
126.1376771369
  0
LWPOLYLINE
  5
299
100
AcDbEntity
  8
0
100
AcDbPolyline
 62
253
  6
CONTINUOUS
 90
12
 70
0
 10
127.8944033688
 20
83.1194075021
 10
127.8926462914
 20
83.046984541
 10
127.8916746777
 20
83.014520484
 10
127.8906446656
 20
82.9847716698
 10
127.8895571109
 20
82.9576964489
 10
127.8884281024
 20
82.9336958051
 10
127.8872564536
 20
82.9128144859
 10
127.8860433511
 20
82.8950077439
 10
127.884808444
 20
82.8805423207
 10
127.8835582821
 20
82.8695071302
 10
127.8822863156
 20
82.8618132586
 10
127.8809925446
 20
82.8574607059
  0
LWPOLYLINE
  5
29A
100
AcDbEntity
  8
ASSI
100
AcDbPolyline
 62
253
  6
CONTINUOUS
 90
12
 70
0
 10
127.8944033688
 20
83.1194075021
 10
127.8926462914
 20
83.046984541
 10
127.8916746777
 20
83.014520484
 10
127.8906446656
 20
82.9847716698
 10
127.8895571109
 20
82.9576964489
 10
127.8884281024
 20
82.9336958051
 10
127.8872564536
 20
82.9128144859
 10
127.8860433511
 20
82.8950077439
 10
127.884808444
 20
82.8805423207
 10
127.8835582821
 20
82.8695071302
 10
127.8822863156
 20
82.8618132586
 10
127.8809925446
 20
82.8574607059
  0
LWPOLYLINE
  5
29B
100
AcDbEntity
  8
0
100
AcDbPolyline
 62
253
  6
CONTINUOUS
 90
4
 70
0
 10
128.368142433
 20
103.7475564901
 10
128.3712434501
 20
103.8455160606
 10
128.3730350795
 20
103.8922276471
 10
128.3757385331
 20
103.9361980671
  0
LWPOLYLINE
  5
29C
100
AcDbEntity
  8
ASSI
100
AcDbPolyline
 62
253
  6
CONTINUOUS
 90
4
 70
0
 10
128.368142433
 20
103.7475564901
 10
128.3712434501
 20
103.8455160606
 10
128.3730350795
 20
103.8922276471
 10
128.3757385331
 20
103.9361980671
  0
LWPOLYLINE
  5
29D
100
AcDbEntity
  8
0
100
AcDbPolyline
 62
253
  6
CONTINUOUS
 90
19
 70
0
 10
127.9101644411
 20
103.6440761969
 10
127.9120311627
 20
103.6871335288
 10
127.9176186782
 20
103.7299906458
 10
127.9269163954
 20
103.7723232571
 10
127.9398933344
 20
103.8138289703
 10
127.9564773974
 20
103.8541608574
 10
127.9765360909
 20
103.8929379391
 10
127.9999270545
 20
103.9298571468
 10
128.0264833103
 20
103.9646309861
 10
128.0559650115
 20
103.9969381942
 10
128.0881178945
 20
104.0265130011
 10
128.1227148902
 20
104.0531583172
 10
128.1595183926
 20
104.0766910622
 10
128.1982667367
 20
104.0969357401
 10
128.2386503224
 20
104.1137228126
 10
128.2803398868
 20
104.1269137993
 10
128.3230085435
 20
104.1364078585
 10
128.3663367662
 20
104.1421364217
 10
128.4099931036
 20
104.1440571584
  0
LWPOLYLINE
  5
29E
100
AcDbEntity
  8
ASSI
100
AcDbPolyline
 62
253
  6
CONTINUOUS
 90
19
 70
0
 10
127.9101644411
 20
103.6440761969
 10
127.9120311627
 20
103.6871335288
 10
127.9176186782
 20
103.7299906458
 10
127.9269163954
 20
103.7723232571
 10
127.9398933344
 20
103.8138289703
 10
127.9564773974
 20
103.8541608574
 10
127.9765360909
 20
103.8929379391
 10
127.9999270545
 20
103.9298571468
 10
128.0264833103
 20
103.9646309861
 10
128.0559650115
 20
103.9969381942
 10
128.0881178945
 20
104.0265130011
 10
128.1227148902
 20
104.0531583172
 10
128.1595183926
 20
104.0766910622
 10
128.1982667367
 20
104.0969357401
 10
128.2386503224
 20
104.1137228126
 10
128.2803398868
 20
104.1269137993
 10
128.3230085435
 20
104.1364078585
 10
128.3663367662
 20
104.1421364217
 10
128.4099931036
 20
104.1440571584
  0
LWPOLYLINE
  5
29F
100
AcDbEntity
  8
0
100
AcDbPolyline
 62
253
  6
CONTINUOUS
 90
9
 70
0
 10
128.3757385331
 20
103.9361980671
 10
128.3815028726
 20
104.0137737681
 10
128.3851263921
 20
104.0468713228
 10
128.3890406492
 20
104.0755125432
 10
128.392672449
 20
104.0994336334
 10
128.3969260975
 20
104.1184718423
 10
128.4017995725
 20
104.132369856
 10
128.4063177129
 20
104.1409153172
 10
128.4099931041
 20
104.1440571584
  0
LWPOLYLINE
  5
2A0
100
AcDbEntity
  8
ASSI
100
AcDbPolyline
 62
253
  6
CONTINUOUS
 90
9
 70
0
 10
128.3757385331
 20
103.9361980671
 10
128.3815028726
 20
104.0137737681
 10
128.3851263921
 20
104.0468713228
 10
128.3890406492
 20
104.0755125432
 10
128.392672449
 20
104.0994336334
 10
128.3969260975
 20
104.1184718423
 10
128.4017995725
 20
104.132369856
 10
128.4063177129
 20
104.1409153172
 10
128.4099931041
 20
104.1440571584
  0
LINE
  5
2A1
100
AcDbEntity
  8
0
100
AcDbLine
 62
7
  6
CONTINUOUS
 10
153.4851022947
 20
82.2258321059
 11
153.8359240167
 21
82.2576772238
  0
LINE
  5
2A2
100
AcDbEntity
  8
ASSI
100
AcDbLine
 62
7
  6
CONTINUOUS
 10
153.4851022947
 20
82.2258321059
 11
153.8359240167
 21
82.2576772238
  0
LINE
  5
2A3
100
AcDbEntity
  8
0
100
AcDbLine
 62
7
  6
CONTINUOUS
 10
142.1851022947
 20
82.2258321059
 11
142.5359240167
 21
82.2576772238
  0
LINE
  5
2A4
100
AcDbEntity
  8
ASSI
100
AcDbLine
 62
7
  6
CONTINUOUS
 10
142.1851022947
 20
82.2258321059
 11
142.5359240167
 21
82.2576772238
  0
LINE
  5
2A5
100
AcDbEntity
  8
0
100
AcDbLine
 62
7
  6
CONTINUOUS
 10
130.9851022947
 20
82.2258321059
 11
131.3359240167
 21
82.2576772238
  0
LINE
  5
2A6
100
AcDbEntity
  8
ASSI
100
AcDbLine
 62
7
  6
CONTINUOUS
 10
130.9851022947
 20
82.2258321059
 11
131.3359240167
 21
82.2576772238
  0
LWPOLYLINE
  5
2A7
100
AcDbEntity
  8
0
100
AcDbPolyline
 62
253
  6
CONTINUOUS
 90
14
 70
0
 10
171.8195411704
 20
83.5060916048
 10
171.8663807399
 20
83.506797384
 10
171.911501007
 20
83.5076963434
 10
171.9544644596
 20
83.5087797663
 10
171.9948544994
 20
83.5100371471
 10
172.0322794814
 20
83.5114562935
 10
172.0663765116
 20
83.5130234448
 10
172.0968149655
 20
83.5147234049
 10
172.1232996945
 20
83.5165396901
 10
172.1455738873
 20
83.5184546885
 10
172.1634215607
 20
83.5204498313
 10
172.1766696534
 20
83.5225057724
 10
172.1851897042
 20
83.5246025763
 10
172.1888990978
 20
83.5267199112
  0
LWPOLYLINE
  5
2A8
100
AcDbEntity
  8
ASSI
100
AcDbPolyline
 62
253
  6
CONTINUOUS
 90
14
 70
0
 10
171.8195411704
 20
83.5060916048
 10
171.8663807399
 20
83.506797384
 10
171.911501007
 20
83.5076963434
 10
171.9544644596
 20
83.5087797663
 10
171.9948544994
 20
83.5100371471
 10
172.0322794814
 20
83.5114562935
 10
172.0663765116
 20
83.5130234448
 10
172.0968149655
 20
83.5147234049
 10
172.1232996945
 20
83.5165396901
 10
172.1455738873
 20
83.5184546885
 10
172.1634215607
 20
83.5204498313
 10
172.1766696534
 20
83.5225057724
 10
172.1851897042
 20
83.5246025763
 10
172.1888990978
 20
83.5267199112
  0
LINE
  5
2A9
100
AcDbEntity
  8
0
100
AcDbLine
 62
253
  6
CONTINUOUS
 10
171.7225331245
 20
83.5052850222
 11
171.8195411704
 21
83.5060916048
  0
LINE
  5
2AA
100
AcDbEntity
  8
ASSI
100
AcDbLine
 62
253
  6
CONTINUOUS
 10
171.7225331245
 20
83.5052850222
 11
171.8195411704
 21
83.5060916048
  0
LINE
  5
2AB
100
AcDbEntity
  8
0
100
AcDbLine
 62
253
  6
CONTINUOUS
 10
128.3808212071
 20
82.3581459385
 11
131.6297387525
 21
82.3678618794
  0
LINE
  5
2AC
100
AcDbEntity
  8
ASSI
100
AcDbLine
 62
253
  6
CONTINUOUS
 10
128.3808212071
 20
82.3581459385
 11
131.6297387525
 21
82.3678618794
  0
LINE
  5
2AD
100
AcDbEntity
  8
0
100
AcDbLine
 62
253
  6
CONTINUOUS
 10
131.6297387525
 20
82.3678618794
 11
135.0325467254
 21
82.3741799245
  0
LINE
  5
2AE
100
AcDbEntity
  8
ASSI
100
AcDbLine
 62
253
  6
CONTINUOUS
 10
131.6297387525
 20
82.3678618794
 11
135.0325467254
 21
82.3741799245
  0
LINE
  5
2AF
100
AcDbEntity
  8
0
100
AcDbLine
 62
253
  6
CONTINUOUS
 10
128.3647849937
 20
83.5052850309
 11
133.8575346993
 21
83.5112225985
  0
LINE
  5
2B0
100
AcDbEntity
  8
ASSI
100
AcDbLine
 62
253
  6
CONTINUOUS
 10
128.3647849937
 20
83.5052850309
 11
133.8575346993
 21
83.5112225985
  0
LINE
  5
2B1
100
AcDbEntity
  8
0
100
AcDbLine
 62
253
  6
CONTINUOUS
 10
135.0325467254
 20
82.3741799245
 11
138.7941127482
 21
82.3766223838
  0
LINE
  5
2B2
100
AcDbEntity
  8
ASSI
100
AcDbLine
 62
253
  6
CONTINUOUS
 10
135.0325467254
 20
82.3741799245
 11
138.7941127482
 21
82.3766223838
  0
LINE
  5
2B3
100
AcDbEntity
  8
0
100
AcDbLine
 62
7
  6
CONTINUOUS
 10
128.3147096547
 20
82.2258321059
 11
130.9851022947
 21
82.2258321059
  0
LINE
  5
2B4
100
AcDbEntity
  8
ASSI
100
AcDbLine
 62
7
  6
CONTINUOUS
 10
128.3147096547
 20
82.2258321059
 11
130.9851022947
 21
82.2258321059
  0
LINE
  5
2B5
100
AcDbEntity
  8
0
100
AcDbLine
 62
7
  6
CONTINUOUS
 10
135.4022157926
 20
82.2258321059
 11
142.1851022947
 21
82.2258321059
  0
LINE
  5
2B6
100
AcDbEntity
  8
ASSI
100
AcDbLine
 62
7
  6
CONTINUOUS
 10
135.4022157926
 20
82.2258321059
 11
142.1851022947
 21
82.2258321059
  0
LINE
  5
2B7
100
AcDbEntity
  8
0
100
AcDbLine
 62
7
  6
CONTINUOUS
 10
146.6022157926
 20
82.2258321059
 11
153.4851022947
 21
82.2258321059
  0
LINE
  5
2B8
100
AcDbEntity
  8
ASSI
100
AcDbLine
 62
7
  6
CONTINUOUS
 10
146.6022157926
 20
82.2258321059
 11
153.4851022947
 21
82.2258321059
  0
LINE
  5
2B9
100
AcDbEntity
  8
0
100
AcDbLine
 62
7
  6
CONTINUOUS
 10
157.9022157926
 20
82.2258321059
 11
164.6851022947
 21
82.2258321059
  0
LINE
  5
2BA
100
AcDbEntity
  8
ASSI
100
AcDbLine
 62
7
  6
CONTINUOUS
 10
157.9022157926
 20
82.2258321059
 11
164.6851022947
 21
82.2258321059
  0
LINE
  5
2BB
100
AcDbEntity
  8
0
100
AcDbLine
 62
7
  6
CONTINUOUS
 10
169.1022157926
 20
82.2258321059
 11
171.7726084326
 21
82.2258321059
  0
LINE
  5
2BC
100
AcDbEntity
  8
ASSI
100
AcDbLine
 62
7
  6
CONTINUOUS
 10
169.1022157926
 20
82.2258321059
 11
171.7726084326
 21
82.2258321059
  0
LINE
  5
2BD
100
AcDbEntity
  8
0
100
AcDbLine
 62
7
  6
CONTINUOUS
 10
146.0781889898
 20
82.2629180017
 11
142.7091290975
 21
82.2629180017
  0
LINE
  5
2BE
100
AcDbEntity
  8
ASSI
100
AcDbLine
 62
7
  6
CONTINUOUS
 10
146.0781889898
 20
82.2629180017
 11
142.7091290975
 21
82.2629180017
  0
LINE
  5
2BF
100
AcDbEntity
  8
0
100
AcDbLine
 62
7
  6
CONTINUOUS
 10
134.8781889898
 20
82.2629180017
 11
131.5091290975
 21
82.2629180017
  0
LINE
  5
2C0
100
AcDbEntity
  8
ASSI
100
AcDbLine
 62
7
  6
CONTINUOUS
 10
134.8781889898
 20
82.2629180017
 11
131.5091290975
 21
82.2629180017
  0
LINE
  5
2C1
100
AcDbEntity
  8
0
100
AcDbLine
 62
7
  6
CONTINUOUS
 10
154.0091290975
 20
82.2629180017
 11
157.3781889898
 21
82.2629180017
  0
LINE
  5
2C2
100
AcDbEntity
  8
ASSI
100
AcDbLine
 62
7
  6
CONTINUOUS
 10
154.0091290975
 20
82.2629180017
 11
157.3781889898
 21
82.2629180017
  0
LINE
  5
2C3
100
AcDbEntity
  8
0
100
AcDbLine
 62
7
  6
CONTINUOUS
 10
165.2091290975
 20
82.2629180017
 11
168.5781889898
 21
82.2629180017
  0
LINE
  5
2C4
100
AcDbEntity
  8
ASSI
100
AcDbLine
 62
7
  6
CONTINUOUS
 10
165.2091290975
 20
82.2629180017
 11
168.5781889898
 21
82.2629180017
  0
LINE
  5
2C5
100
AcDbEntity
  8
0
100
AcDbLine
 62
253
  6
CONTINUOUS
 10
133.8575346993
 20
83.5112225985
 11
163.0964425955
 21
83.5124773386
  0
LINE
  5
2C6
100
AcDbEntity
  8
ASSI
100
AcDbLine
 62
253
  6
CONTINUOUS
 10
133.8575346993
 20
83.5112225985
 11
163.0964425955
 21
83.5124773386
  0
LINE
  5
2C7
100
AcDbEntity
  8
0
100
AcDbLine
 62
253
  6
CONTINUOUS
 10
138.7941127482
 20
82.3766223838
 11
163.9709810066
 21
82.3753705
  0
LINE
  5
2C8
100
AcDbEntity
  8
ASSI
100
AcDbLine
 62
253
  6
CONTINUOUS
 10
138.7941127482
 20
82.3766223838
 11
163.9709810066
 21
82.3753705
  0
LINE
  5
2C9
100
AcDbEntity
  8
0
100
AcDbLine
 62
253
  6
CONTINUOUS
 10
163.0964425955
 20
83.5124773386
 11
167.3736690316
 21
83.510307147
  0
LINE
  5
2CA
100
AcDbEntity
  8
ASSI
100
AcDbLine
 62
253
  6
CONTINUOUS
 10
163.0964425955
 20
83.5124773386
 11
167.3736690316
 21
83.510307147
  0
LINE
  5
2CB
100
AcDbEntity
  8
0
100
AcDbLine
 62
253
  6
CONTINUOUS
 10
167.3736690316
 20
83.510307147
 11
171.7225331246
 21
83.5052850341
  0
LINE
  5
2CC
100
AcDbEntity
  8
ASSI
100
AcDbLine
 62
253
  6
CONTINUOUS
 10
167.3736690316
 20
83.510307147
 11
171.7225331246
 21
83.5052850341
  0
LINE
  5
2CD
100
AcDbEntity
  8
0
100
AcDbLine
 62
253
  6
CONTINUOUS
 10
163.9709810066
 20
82.3753705
 11
167.3604612439
 21
82.3703350094
  0
LINE
  5
2CE
100
AcDbEntity
  8
ASSI
100
AcDbLine
 62
253
  6
CONTINUOUS
 10
163.9709810066
 20
82.3753705
 11
167.3604612439
 21
82.3703350094
  0
LWPOLYLINE
  5
2CF
100
AcDbEntity
  8
0
100
AcDbPolyline
 62
253
  6
CONTINUOUS
 90
3
 70
0
 10
167.3604612439
 20
82.3703350094
 10
170.8096792635
 20
82.3611693492
 10
171.7064968783
 20
82.3581459423
  0
LWPOLYLINE
  5
2D0
100
AcDbEntity
  8
ASSI
100
AcDbPolyline
 62
253
  6
CONTINUOUS
 90
3
 70
0
 10
167.3604612439
 20
82.3703350094
 10
170.8096792635
 20
82.3611693492
 10
171.7064968783
 20
82.3581459423
  0
LWPOLYLINE
  5
2D1
100
AcDbEntity
  8
0
100
AcDbPolyline
 62
253
  6
CONTINUOUS
 90
15
 70
0
 10
128.3647858865
 20
83.5052855653
 10
128.2677787425
 20
83.5060921217
 10
128.2209395633
 20
83.5067978789
 10
128.1758196291
 20
83.5076968108
 10
128.1328564399
 20
83.5087802011
 10
128.0924665832
 20
83.5100375452
 10
128.0550416946
 20
83.5114566513
 10
128.0209446602
 20
83.5130237593
 10
127.9905060977
 20
83.5147236738
 10
127.9640211512
 20
83.5165399119
 10
127.9417466288
 20
83.5184548626
 10
127.9238985129
 20
83.5204499578
 10
127.9106498655
 20
83.5225058523
 10
127.9021291506
 20
83.5246026114
 10
127.8984189884
 20
83.5267199041
  0
LWPOLYLINE
  5
2D2
100
AcDbEntity
  8
ASSI
100
AcDbPolyline
 62
253
  6
CONTINUOUS
 90
15
 70
0
 10
128.3647858865
 20
83.5052855653
 10
128.2677787425
 20
83.5060921217
 10
128.2209395633
 20
83.5067978789
 10
128.1758196291
 20
83.5076968108
 10
128.1328564399
 20
83.5087802011
 10
128.0924665832
 20
83.5100375452
 10
128.0550416946
 20
83.5114566513
 10
128.0209446602
 20
83.5130237593
 10
127.9905060977
 20
83.5147236738
 10
127.9640211512
 20
83.5165399119
 10
127.9417466288
 20
83.5184548626
 10
127.9238985129
 20
83.5204499578
 10
127.9106498655
 20
83.5225058523
 10
127.9021291506
 20
83.5246026114
 10
127.8984189884
 20
83.5267199041
  0
LINE
  5
2D3
100
AcDbEntity
  8
0
100
AcDbLine
 62
7
  6
CONTINUOUS
 10
146.6022157926
 20
82.2258321059
 11
146.2513940706
 21
82.2576772238
  0
LINE
  5
2D4
100
AcDbEntity
  8
ASSI
100
AcDbLine
 62
7
  6
CONTINUOUS
 10
146.6022157926
 20
82.2258321059
 11
146.2513940706
 21
82.2576772238
  0
LINE
  5
2D5
100
AcDbEntity
  8
0
100
AcDbLine
 62
7
  6
CONTINUOUS
 10
157.9022157926
 20
82.2258321059
 11
157.5513940706
 21
82.2576772238
  0
LINE
  5
2D6
100
AcDbEntity
  8
ASSI
100
AcDbLine
 62
7
  6
CONTINUOUS
 10
157.9022157926
 20
82.2258321059
 11
157.5513940706
 21
82.2576772238
  0
LINE
  5
2D7
100
AcDbEntity
  8
0
100
AcDbLine
 62
7
  6
CONTINUOUS
 10
169.1022157926
 20
82.2258321059
 11
168.7513940706
 21
82.2576772238
  0
LINE
  5
2D8
100
AcDbEntity
  8
ASSI
100
AcDbLine
 62
7
  6
CONTINUOUS
 10
169.1022157926
 20
82.2258321059
 11
168.7513940706
 21
82.2576772238
  0
LWPOLYLINE
  5
2D9
100
AcDbEntity
  8
0
100
AcDbPolyline
 62
253
  6
CONTINUOUS
 90
10
 70
0
 10
127.8809925465
 20
125.9076120554
 10
127.8822863176
 20
125.9032595024
 10
127.8835582841
 20
125.8955656306
 10
127.884808446
 20
125.88453044
 10
127.8860433531
 20
125.8700650167
 10
127.8872564557
 20
125.8522582745
 10
127.8884281045
 20
125.8313769552
 10
127.889557113
 20
125.8073763111
 10
127.8906446678
 20
125.7803010899
 10
127.8916746799
 20
125.7505522755
  0
LWPOLYLINE
  5
2DA
100
AcDbEntity
  8
ASSI
100
AcDbPolyline
 62
253
  6
CONTINUOUS
 90
10
 70
0
 10
127.8809925465
 20
125.9076120554
 10
127.8822863176
 20
125.9032595024
 10
127.8835582841
 20
125.8955656306
 10
127.884808446
 20
125.88453044
 10
127.8860433531
 20
125.8700650167
 10
127.8872564557
 20
125.8522582745
 10
127.8884281045
 20
125.8313769552
 10
127.889557113
 20
125.8073763111
 10
127.8906446678
 20
125.7803010899
 10
127.8916746799
 20
125.7505522755
  0
LWPOLYLINE
  5
2DB
100
AcDbEntity
  8
0
100
AcDbPolyline
 62
253
  6
CONTINUOUS
 90
3
 70
0
 10
138.7947927299
 20
104.6366263302
 10
138.7949399077
 20
104.6280614758
 10
138.7950887014
 20
104.624892338
  0
LWPOLYLINE
  5
2DC
100
AcDbEntity
  8
ASSI
100
AcDbPolyline
 62
253
  6
CONTINUOUS
 90
3
 70
0
 10
138.7947927299
 20
104.6366263302
 10
138.7949399077
 20
104.6280614758
 10
138.7950887014
 20
104.624892338
  0
LINE
  5
2DD
100
AcDbEntity
  8
0
100
AcDbLine
 62
253
  6
CONTINUOUS
 10
138.7945095816
 20
104.6695135175
 11
138.7947927299
 21
104.6366263302
  0
LINE
  5
2DE
100
AcDbEntity
  8
ASSI
100
AcDbLine
 62
253
  6
CONTINUOUS
 10
138.7945095816
 20
104.6695135175
 11
138.7947927299
 21
104.6366263302
  0
LINE
  5
2DF
100
AcDbEntity
  8
0
100
AcDbLine
 62
253
  6
CONTINUOUS
 10
138.7937855519
 20
104.923191346
 11
138.7945095816
 21
104.6695135175
  0
LINE
  5
2E0
100
AcDbEntity
  8
ASSI
100
AcDbLine
 62
253
  6
CONTINUOUS
 10
138.7937855519
 20
104.923191346
 11
138.7945095816
 21
104.6695135175
  0
LINE
  5
2E1
100
AcDbEntity
  8
0
100
AcDbLine
 62
253
  6
CONTINUOUS
 10
138.7937855519
 20
104.923191346
 11
138.7936644221
 21
125.3500018747
  0
LINE
  5
2E2
100
AcDbEntity
  8
ASSI
100
AcDbLine
 62
253
  6
CONTINUOUS
 10
138.7937855519
 20
104.923191346
 11
138.7936644221
 21
125.3500018747
  0
LINE
  5
2E3
100
AcDbEntity
  8
0
100
AcDbLine
 62
253
  6
CONTINUOUS
 10
138.7941127482
 20
82.3766223838
 11
138.7936678293
 21
103.6913123256
  0
LINE
  5
2E4
100
AcDbEntity
  8
ASSI
100
AcDbLine
 62
253
  6
CONTINUOUS
 10
138.7941127482
 20
82.3766223838
 11
138.7936678293
 21
103.6913123256
  0
LINE
  5
2E5
100
AcDbEntity
  8
0
100
AcDbLine
 62
253
  6
CONTINUOUS
 10
138.7936644221
 20
125.3500018747
 11
138.7941127482
 21
126.3884503813
  0
LINE
  5
2E6
100
AcDbEntity
  8
ASSI
100
AcDbLine
 62
253
  6
CONTINUOUS
 10
138.7936644221
 20
125.3500018747
 11
138.7941127482
 21
126.3884503813
  0
LINE
  5
2E7
100
AcDbEntity
  8
0
100
AcDbLine
 62
253
  6
CONTINUOUS
 10
138.7936678293
 20
103.6913123256
 11
138.7943766926
 21
104.0715940089
  0
LINE
  5
2E8
100
AcDbEntity
  8
ASSI
100
AcDbLine
 62
253
  6
CONTINUOUS
 10
138.7936678293
 20
103.6913123256
 11
138.7943766926
 21
104.0715940089
  0
LWPOLYLINE
  5
2E9
100
AcDbEntity
  8
0
100
AcDbPolyline
 62
253
  6
CONTINUOUS
 90
5
 70
0
 10
138.7943766926
 20
104.0715940089
 10
138.7946487709
 20
104.1145788222
 10
138.7947927328
 20
104.1284463898
 10
138.7949399091
 20
104.1370112649
 10
138.7950887014
 20
104.1401804271
  0
LWPOLYLINE
  5
2EA
100
AcDbEntity
  8
ASSI
100
AcDbPolyline
 62
253
  6
CONTINUOUS
 90
5
 70
0
 10
138.7943766926
 20
104.0715940089
 10
138.7946487709
 20
104.1145788222
 10
138.7947927328
 20
104.1284463898
 10
138.7949399091
 20
104.1370112649
 10
138.7950887014
 20
104.1401804271
  0
LINE
  5
2EB
100
AcDbEntity
  8
0
100
AcDbLine
 62
253
  6
CONTINUOUS
 10
127.8809925446
 20
82.8574607059
 11
127.8140832331
 21
82.7235502602
  0
LINE
  5
2EC
100
AcDbEntity
  8
ASSI
100
AcDbLine
 62
253
  6
CONTINUOUS
 10
127.8809925446
 20
82.8574607059
 11
127.8140832331
 21
82.7235502602
  0
LWPOLYLINE
  5
2ED
100
AcDbEntity
  8
0
100
AcDbPolyline
 62
253
  6
CONTINUOUS
 90
55
 70
0
 10
148.5551150437
 20
117.9693983825
 10
148.5974193273
 20
118.0149861891
 10
148.641148577
 20
118.0592742315
 10
148.6862794798
 20
118.1022241135
 10
148.7327887222
 20
118.1437974388
 10
148.7806529912
 20
118.183955811
 10
148.8298489734
 20
118.2226608339
 10
148.8803404806
 20
118.2598707298
 10
148.9320398234
 20
118.2955301964
 10
148.9848464373
 20
118.3295805496
 10
149.038659758
 20
118.3619631058
 10
149.093379221
 20
118.392619181
 10
149.1489042618
 20
118.4214900916
 10
149.205144783
 20
118.4485269995
 10
149.2620525558
 20
118.4737204499
 10
149.319589818
 20
118.4970708341
 10
149.377718808
 20
118.518578543
 10
149.4364017636
 20
118.5382439679
 10
149.4956009232
 20
118.5560674999
 10
149.5552762121
 20
118.5720479262
 10
149.6153783055
 20
118.5861776194
 10
149.675855566
 20
118.5984473481
 10
149.7366563562
 20
118.6088478811
 10
149.7977290386
 20
118.617369987
 10
149.8590219758
 20
118.6240044345
 10
149.9204826077
 20
118.6287436101
 10
149.9820546838
 20
118.6315863714
 10
150.0436810309
 20
118.6325331938
 10
150.1053044759
 20
118.6315845526
 10
150.1668678455
 20
118.6287409231
 10
150.2283139666
 20
118.6240027808
 10
150.2895871794
 20
118.6173718501
 10
150.3506378779
 20
118.6088548513
 10
150.4114179697
 20
118.598459754
 10
150.4718793622
 20
118.5861945278
 10
150.5319739627
 20
118.5720671419
 10
150.5916536789
 20
118.5560855661
 10
150.6508716384
 20
118.5382563705
 10
150.70958585
 20
118.5185805284
 10
150.7677555429
 20
118.4970576138
 10
150.8253399463
 20
118.4736872008
 10
150.8822982893
 20
118.4484688634
 10
150.938589801
 20
118.4214021756
 10
150.994163295
 20
118.3924970995
 10
151.0489259231
 20
118.3618051492
 10
151.1027744213
 20
118.3293882268
 10
151.155605526
 20
118.2953082345
 10
151.2073159731
 20
118.2596270745
 10
151.257802499
 20
118.2224066489
 10
151.3069755737
 20
118.183705028
 10
151.3548006025
 20
118.1435649555
 10
151.4012567246
 20
118.1020253429
 10
151.4463230794
 20
118.0591251021
 10
151.489978806
 20
118.0149031447
 10
151.5322030437
 20
117.9693983825
  0
LWPOLYLINE
  5
2EE
100
AcDbEntity
  8
0
100
AcDbPolyline
 62
253
  6
CONTINUOUS
 90
35
 70
0
 10
148.5551144851
 20
90.7956738801
 10
148.5350721589
 20
90.8184029301
 10
148.5155109499
 20
90.8414884683
 10
148.4964214078
 20
90.8649280562
 10
148.4777940827
 20
90.8887192549
 10
148.4596195244
 20
90.9128596258
 10
148.4418905181
 20
90.9373447133
 10
148.4246087909
 20
90.9621619939
 10
148.4077783052
 20
90.9872969274
 10
148.3914030234
 20
91.0127349733
 10
148.3754869079
 20
91.0384615913
 10
148.3600334432
 20
91.0644633675
 10
148.3450442018
 20
91.0907313934
 10
148.3305202781
 20
91.1172578869
 10
148.3164627666
 20
91.1440350659
 10
148.3028727618
 20
91.1710551485
 10
148.2865453255
 20
91.2051595435
 10
148.2709580429
 20
91.2396135026
 10
148.2561188784
 20
91.2743992127
 10
148.2420357964
 20
91.3094988607
 10
148.2313192352
 20
91.3377932437
 10
148.2210967796
 20
91.3662716247
 10
148.2113735453
 20
91.3949284818
 10
148.202154648
 20
91.4237582932
 10
148.1934452033
 20
91.4527555369
 10
148.1852508968
 20
91.4819132321
 10
148.1775796934
 20
91.5112185615
 10
148.1704401277
 20
91.5406572488
 10
148.1638407346
 20
91.5702150178
 10
148.1577900488
 20
91.599877592
 10
148.1522965257
 20
91.6296340435
 10
148.1473683042
 20
91.6594868361
 10
148.1430134437
 20
91.689441782
 10
148.1392400037
 20
91.7195046935
 10
148.1360560437
 20
91.7496813825
  0
LINE
  5
2EF
100
AcDbEntity
  8
0
100
AcDbLine
 62
253
  6
CONTINUOUS
 10
127.8140832331
 20
126.0415225049
 11
127.8809925465
 21
125.9076120554
  0
LINE
  5
2F0
100
AcDbEntity
  8
ASSI
100
AcDbLine
 62
253
  6
CONTINUOUS
 10
127.8140832331
 20
126.0415225049
 11
127.8809925465
 21
125.9076120554
  0
LINE
  5
2F1
100
AcDbEntity
  8
0
100
AcDbLine
 62
253
  6
CONTINUOUS
 10
128.3808212071
 20
82.3581459385
 11
128.3147096547
 21
82.2258321059
  0
LINE
  5
2F2
100
AcDbEntity
  8
ASSI
100
AcDbLine
 62
253
  6
CONTINUOUS
 10
128.3808212071
 20
82.3581459385
 11
128.3147096547
 21
82.2258321059
  0
LWPOLYLINE
  5
2F3
100
AcDbEntity
  8
0
100
AcDbPolyline
 62
253
  6
CONTINUOUS
 90
35
 70
0
 10
149.0011790437
 20
117.5681173825
 10
148.988362705
 20
117.5535837567
 10
148.9758557953
 20
117.5388239058
 10
148.9636523624
 20
117.5238398732
 10
148.9517464542
 20
117.5086337022
 10
148.9401321185
 20
117.4932074362
 10
148.9288046935
 20
117.4775641566
 10
148.9177646784
 20
117.4617110976
 10
148.9070138628
 20
117.4456565312
 10
148.8965540363
 20
117.4294087297
 10
148.8863869885
 20
117.4129759652
 10
148.8765143701
 20
117.3963660092
 10
148.866937276
 20
117.3795846297
 10
148.8576566624
 20
117.3626370942
 10
148.8486734854
 20
117.3455286699
 10
148.8399887011
 20
117.3282646243
 10
148.8295543107
 20
117.3064738785
 10
148.8195926321
 20
117.284459268
 10
148.8101086444
 20
117.2622318562
 10
148.8011073269
 20
117.2398027066
 10
148.7942572715
 20
117.2217212247
 10
148.7877226412
 20
117.2035213023
 10
148.7815067653
 20
117.1852065305
 10
148.7756129733
 20
117.1667805004
 10
148.7700445946
 20
117.148246803
 10
148.7648053104
 20
117.1296098759
 10
148.7599002086
 20
117.1108775427
 10
148.7553347287
 20
117.0920584731
 10
148.7511143105
 20
117.0731613372
 10
148.7472443936
 20
117.0541948049
 10
148.7437304023
 20
117.0351655041
 10
148.7405777003
 20
117.0160718952
 10
148.7377916358
 20
116.9969103967
 10
148.7353775571
 20
116.977677427
 10
148.7333408127
 20
116.9583694046
  0
LWPOLYLINE
  5
2F4
100
AcDbEntity
  8
0
100
AcDbPolyline
 62
253
  6
CONTINUOUS
 90
55
 70
0
 10
149.0011790437
 20
117.5681173825
 10
149.0298073028
 20
117.5990002295
 10
149.0593518962
 20
117.6290177444
 10
149.0897957259
 20
117.6581462413
 10
149.121121694
 20
117.6863620343
 10
149.1533127026
 20
117.7136414377
 10
149.1863516538
 20
117.7399607654
 10
149.2202214497
 20
117.7652963317
 10
149.2548973766
 20
117.7896233405
 10
149.2903242579
 20
117.8129125543
 10
149.3264393011
 20
117.8351336257
 10
149.3631797136
 20
117.8562562069
 10
149.4004827031
 20
117.8762499504
 10
149.438285477
 20
117.8950845085
 10
149.4765252429
 20
117.9127295338
 10
149.5151475526
 20
117.9291602464
 10
149.5541313353
 20
117.9443741382
 10
149.5934638642
 20
117.9583742691
 10
149.633132413
 20
117.9711636989
 10
149.6731242548
 20
117.9827454874
 10
149.7134266632
 20
117.9931226944
 10
149.7540269116
 20
118.0022983796
 10
149.8017452934
 20
118.0114860305
 10
149.8497833405
 20
118.019030456
 10
149.8980726473
 20
118.0249196704
 10
149.9465448081
 20
118.0291416883
 10
149.9951314174
 20
118.031684524
 10
150.0437640695
 20
118.0325361918
 10
150.0923764274
 20
118.0316887303
 10
150.1409104282
 20
118.0291502734
 10
150.189310078
 20
118.0249329794
 10
150.2375193826
 20
118.0190490064
 10
150.2854823478
 20
118.0115105125
 10
150.3331429796
 20
118.0023296558
 10
150.3737152477
 20
117.9931603373
 10
150.4140092454
 20
117.9827887206
 10
150.4540099632
 20
117.9712102092
 10
150.4937023917
 20
117.9584202063
 10
150.5330715215
 20
117.9444141152
 10
150.5721023432
 20
117.9291873391
 10
150.6107798475
 20
117.9127352814
 10
150.6490804236
 20
117.8950597182
 10
150.6869460563
 20
117.8761879171
 10
150.724310129
 20
117.8561535186
 10
150.7611060252
 20
117.8349901632
 10
150.7972671282
 20
117.8127314912
 10
150.8327268215
 20
117.7894111433
 10
150.8674184886
 20
117.7650627597
 10
150.9012841993
 20
117.7397183849
 10
150.9343007685
 20
117.7134036783
 10
150.9664536978
 20
117.6861427031
 10
150.9977284886
 20
117.6579595227
 10
151.0281106422
 20
117.6288782002
 10
151.0575856601
 20
117.5989227991
 10
151.0861390437
 20
117.5681173825
  0
LINE
  5
2F5
100
AcDbEntity
  8
0
100
AcDbLine
 62
253
  6
CONTINUOUS
 10
127.7944748417
 20
105.0824412003
 11
127.9101644429
 21
105.1209965688
  0
LINE
  5
2F6
100
AcDbEntity
  8
ASSI
100
AcDbLine
 62
253
  6
CONTINUOUS
 10
127.7944748417
 20
105.0824412003
 11
127.9101644429
 21
105.1209965688
  0
LINE
  5
2F7
100
AcDbEntity
  8
0
100
AcDbLine
 62
253
  6
CONTINUOUS
 10
127.9101644411
 20
103.6440761969
 11
127.7944748417
 21
103.6826315647
  0
LINE
  5
2F8
100
AcDbEntity
  8
ASSI
100
AcDbLine
 62
253
  6
CONTINUOUS
 10
127.9101644411
 20
103.6440761969
 11
127.7944748417
 21
103.6826315647
  0
LINE
  5
2F9
100
AcDbEntity
  8
0
100
AcDbLine
 62
253
  6
CONTINUOUS
 10
128.3147096547
 20
126.5392406592
 11
128.380821209
 21
126.4069268227
  0
LINE
  5
2FA
100
AcDbEntity
  8
ASSI
100
AcDbLine
 62
253
  6
CONTINUOUS
 10
128.3147096547
 20
126.5392406592
 11
128.380821209
 21
126.4069268227
  0
LWPOLYLINE
  5
2FB
100
AcDbEntity
  8
0
100
AcDbPolyline
 62
253
  6
CONTINUOUS
 90
35
 70
0
 10
151.5322036022
 20
113.7956738801
 10
151.552245573
 20
113.8184025192
 10
151.5718065084
 20
113.8414877118
 10
151.5908958518
 20
113.8649270203
 10
151.6095230464
 20
113.8887180071
 10
151.6276975355
 20
113.9128582344
 10
151.6454265267
 20
113.9373432467
 10
151.6627082854
 20
113.9621605161
 10
151.6795388412
 20
113.987295497
 10
151.6959142239
 20
114.0127336436
 10
151.7118304632
 20
114.0384604102
 10
151.7272840675
 20
114.0644623774
 10
151.7422734593
 20
114.0907306314
 10
151.7567975397
 20
114.1172573849
 10
151.77085521
 20
114.1440348506
 10
151.7844453711
 20
114.1710552411
 10
151.8007729934
 20
114.2051600424
 10
151.816360446
 20
114.2396144192
 10
151.8311997594
 20
114.2744005447
 10
151.8452829639
 20
114.309500592
 10
151.8559996007
 20
114.3377952737
 10
151.8662221112
 20
114.3662739272
 10
151.8759453793
 20
114.3949310233
 10
151.885164289
 20
114.4237610329
 10
151.8938737242
 20
114.4527584269
 10
151.9020679996
 20
114.4819162167
 10
151.9097391522
 20
114.5112215761
 10
151.9168786493
 20
114.5406602193
 10
151.9234779587
 20
114.5702178605
 10
151.9295285478
 20
114.5998802141
 10
151.9350219642
 20
114.6296363439
 10
151.939950075
 20
114.6594887131
 10
151.9443048271
 20
114.6894431341
 10
151.9480781677
 20
114.7195054197
 10
151.9512620437
 20
114.7496813825
  0
LWPOLYLINE
  5
2FC
100
AcDbEntity
  8
0
100
AcDbPolyline
 62
253
  6
CONTINUOUS
 90
55
 70
0
 10
151.0861390437
 20
114.1969553825
 10
151.0575162188
 20
114.1660782531
 10
151.0279767556
 20
114.1360655267
 10
150.9975377179
 20
114.1069409347
 10
150.9662161696
 20
114.0787282082
 10
150.9340291745
 20
114.0514510784
 10
150.9009937963
 20
114.0251332764
 10
150.8671270989
 20
113.9997985336
 10
150.8324537591
 20
113.9754717014
 10
150.7970289058
 20
113.9521821137
 10
150.7609152805
 20
113.9299602243
 10
150.7241756252
 20
113.9088364875
 10
150.6868726815
 20
113.8888413573
 10
150.6490691914
 20
113.8700052878
 10
150.6108278964
 20
113.8523587331
 10
150.5722032906
 20
113.8359265594
 10
150.5332168769
 20
113.8207112823
 10
150.4938819103
 20
113.8067098293
 10
150.4542116459
 20
113.7939191281
 10
150.4142193387
 20
113.7823361064
 10
150.3739182437
 20
113.7719576918
 10
150.3333216161
 20
113.7627808119
 10
150.2856106328
 20
113.7535917791
 10
150.2375820007
 20
113.7460460253
 10
150.1893022823
 20
113.740155589
 10
150.14083804
 20
113.7359325087
 10
150.0922558363
 20
113.7333888228
 10
150.0436222337
 20
113.7325365698
 10
149.9950023567
 20
113.7333837576
 10
149.9464555783
 20
113.7359222717
 10
149.8980398337
 20
113.7401399668
 10
149.8498130582
 20
113.7460246977
 10
149.8018331867
 20
113.7535643193
 10
149.7541581546
 20
113.7627466863
 10
149.7135767236
 20
113.7719176029
 10
149.6732763397
 20
113.7822910511
 10
149.6332715217
 20
113.7938715705
 10
149.5935767885
 20
113.8066637008
 10
149.554206659
 20
113.8206719815
 10
149.515175652
 20
113.8359009523
 10
149.4764982865
 20
113.8523551527
 10
149.4381977894
 20
113.8700327454
 10
149.4003322206
 20
113.8889063847
 10
149.3629683482
 20
113.9089423481
 10
149.3261729401
 20
113.930106913
 10
149.2900127645
 20
113.9523663566
 10
149.2545545892
 20
113.9756869565
 10
149.2198651825
 20
114.0000349899
 10
149.1860025824
 20
114.0253783341
 10
149.152989908
 20
114.0516912652
 10
149.1208415485
 20
114.0789496592
 10
149.0895718932
 20
114.107129392
 10
149.0591953311
 20
114.1362063395
 10
149.0297262515
 20
114.1661563777
 10
149.0011790437
 20
114.1969553825
  0
LWPOLYLINE
  5
2FD
100
AcDbEntity
  8
0
100
AcDbPolyline
 62
253
  6
CONTINUOUS
 90
55
 70
0
 10
151.5322030437
 20
113.7956743825
 10
151.4899101856
 20
113.7500985203
 10
151.4461917457
 20
113.7058203871
 10
151.4010709243
 20
113.6628784971
 10
151.354570922
 20
113.6213113649
 10
151.3067149396
 20
113.5811575046
 10
151.2575261774
 20
113.5424554307
 10
151.2070407245
 20
113.5052470491
 10
151.1553462235
 20
113.4695878327
 10
151.1025432054
 20
113.4355366457
 10
151.0487322011
 20
113.4031523528
 10
150.9940137417
 20
113.3724938183
 10
150.938488358
 20
113.3436199067
 10
150.8822461877
 20
113.3165796301
 10
150.8253357944
 20
113.2913825917
 10
150.7677953483
 20
113.2680285424
 10
150.7096630195
 20
113.2465172331
 10
150.6509769783
 20
113.2268484147
 10
150.5917753947
 20
113.2090218381
 10
150.5320986176
 20
113.1930388172
 10
150.4719957096
 20
113.1789069174
 10
150.4115179117
 20
113.1666352672
 10
150.3507164653
 20
113.1562329951
 10
150.2896426114
 20
113.1477092295
 10
150.2283475912
 20
113.1410730988
 10
150.1668836285
 20
113.1363321629
 10
150.1053068776
 20
113.1334877065
 10
150.0436744756
 20
113.132539446
 10
149.9820435594
 20
113.1334870975
 10
149.9204712661
 20
113.1363303772
 10
149.8590147327
 20
113.1410690014
 10
149.797729695
 20
113.147701378
 10
149.7366662851
 20
113.1562206824
 10
149.6758732338
 20
113.1666187817
 10
149.6153992719
 20
113.178887543
 10
149.5552931304
 20
113.1930188336
 10
149.49560354
 20
113.2090045205
 10
149.4363778619
 20
113.226837887
 10
149.3776579783
 20
113.2465178802
 10
149.3194844017
 20
113.2680448636
 10
149.2618976447
 20
113.2914192003
 10
149.2049382197
 20
113.3166412537
 10
149.1486466392
 20
113.3437113871
 10
149.0930738937
 20
113.3726195517
 10
149.0383128853
 20
113.4033140509
 10
148.9844669941
 20
113.4357327759
 10
148.9316396003
 20
113.469813618
 10
148.879934084
 20
113.5054944686
 10
148.8294538252
 20
113.5427132188
 10
148.780288422
 20
113.5814116065
 10
148.7324723443
 20
113.6215467559
 10
148.6860262798
 20
113.6630796375
 10
148.6409709163
 20
113.7059712221
 10
148.5973269417
 20
113.7501824802
 10
148.5551150437
 20
113.7956743825
  0
LINE
  5
2FE
100
AcDbEntity
  8
0
100
AcDbLine
 62
253
  6
CONTINUOUS
 10
128.2945319818
 20
104.5825363825
 11
128.4099931055
 21
104.6210156073
  0
LINE
  5
2FF
100
AcDbEntity
  8
ASSI
100
AcDbLine
 62
253
  6
CONTINUOUS
 10
128.2945319818
 20
104.5825363825
 11
128.4099931055
 21
104.6210156073
  0
LWPOLYLINE
  5
300
100
AcDbEntity
  8
SUPERFICI
100
AcDbPolyline
 62
7
  6
CONTINUOUS
 90
46
 70
0
 10
152.2938017703
 20
98.9008840473
 10
152.362477132
 20
98.9033109606
 10
152.4302763186
 20
98.9104173636
 10
152.4971993302
 20
98.9222032614
 10
152.5635925844
 20
98.9387652654
 10
152.6291096637
 20
98.9600067807
 10
152.6927113147
 20
98.9856380062
 10
152.7543776929
 20
99.0157599396
 10
152.814128643
 20
99.0502716108
 10
152.8709844459
 20
99.0885802665
 10
152.9248185634
 20
99.1306742581
 10
152.9757575337
 20
99.1765652659
 10
153.0232012522
 20
99.2256955268
 10
153.0671785942
 20
99.2782057653
 10
153.1076606844
 20
99.3339552886
 10
153.1439607927
 20
99.3919642
 10
153.1759475628
 20
99.4521194054
 10
153.2037523509
 20
99.5145340205
 10
153.2270824958
 20
99.5785674549
 10
153.2459316782
 20
99.6444220065
 10
153.2603062173
 20
99.7118953924
 10
153.2699324089
 20
99.7797401392
 10
153.2747202109
 20
99.8477834366
 10
153.2747596655
 20
99.9161980923
 10
153.2700471945
 20
99.9842550485
 10
153.2604953065
 20
100.0521225997
 10
153.246191493
 20
100.1196324414
 10
153.2273946505
 20
100.1855506064
 10
153.204081392
 20
100.2497020151
 10
153.1762751046
 20
100.3122617243
 10
153.1443048459
 20
100.3725209632
 10
153.1080682819
 20
100.4305459143
 10
153.0676677467
 20
100.4862703701
 10
153.0237393001
 20
100.5387869694
 10
152.9762762401
 20
100.587997234
 10
152.9252852686
 20
100.6339996155
 10
152.8714225519
 20
100.6761821435
 10
152.8146026276
 20
100.7145265377
 10
152.754910958
 20
100.7490510558
 10
152.6932600964
 20
100.7791985344
 10
152.6296011312
 20
100.8048881242
 10
152.563982974
 20
100.8262006583
 10
152.4974649117
 20
100.8428214976
 10
152.4304000403
 20
100.85464576
 10
152.3624352638
 20
100.8617783201
 10
152.2935705824
 20
100.8642191764
  0
LINE
  5
301
100
AcDbEntity
  8
SUPERFICI
100
AcDbLine
 62
7
  6
CONTINUOUS
 10
147.7935164348
 20
98.9008840473
 11
152.2938017703
 21
98.9008840473
  0
LINE
  5
302
100
AcDbEntity
  8
0
100
AcDbLine
 62
7
  6
CONTINUOUS
 10
152.293671216
 20
98.900870366
 11
147.7936468528
 21
98.9008840463
  0
LINE
  5
303
100
AcDbEntity
  8
ASSI
100
AcDbLine
 62
7
  6
CONTINUOUS
 10
152.293671216
 20
98.900870366
 11
147.7936468528
 21
98.9008840463
  0
LWPOLYLINE
  5
304
100
AcDbEntity
  8
0
100
AcDbPolyline
 62
7
  6
CONTINUOUS
 90
40
 70
0
 10
147.7936468528
 20
98.9008840463
 10
147.7143565543
 20
98.904184022
 10
147.6365530398
 20
98.9135644189
 10
147.5602363094
 20
98.9290252453
 10
147.4849748056
 20
98.9507139823
 10
147.4112000858
 20
98.9784831767
 10
147.3402068221
 20
99.0118904397
 10
147.2719532639
 20
99.0510905016
 10
147.2064811618
 20
99.0959286773
 10
147.1452104397
 20
99.1454984536
 10
147.0883178622
 20
99.1998102638
 10
147.0356266648
 20
99.2588537237
 10
146.9880264768
 20
99.3216910852
 10
146.9455077849
 20
99.3885310301
 10
146.9080801024
 20
99.4591649213
 10
146.8766615998
 20
99.5320290174
 10
146.8514456494
 20
99.6070301616
 10
146.8322388789
 20
99.6842615334
 10
146.8193793412
 20
99.762438875
 10
146.8129762694
 20
99.8417534196
 10
146.8129204305
 20
99.9220139384
 10
146.8192221784
 20
100.0013624584
 10
146.8319919841
 20
100.0796139285
 10
146.8511193767
 20
100.1569533771
 10
146.876283297
 20
100.23207793
 10
146.9076874419
 20
100.3050823959
 10
146.9451281145
 20
100.3758719323
 10
146.9876731655
 20
100.4428591733
 10
147.0353079551
 20
100.5058314059
 10
147.088047123
 20
100.5650013002
 10
147.145002438
 20
100.6194195559
 10
147.2063635202
 20
100.6690715664
 10
147.2719407495
 20
100.7139719007
 10
147.3402770348
 20
100.7532150192
 10
147.4113183274
 20
100.7866416516
 10
147.485118676
 20
100.8144110403
 10
147.560383136
 20
100.8360954162
 10
147.6366800592
 20
100.8515521849
 10
147.7144410939
 20
100.8609239276
 10
147.79366624
 20
100.8642106414
  0
LWPOLYLINE
  5
305
100
AcDbEntity
  8
ASSI
100
AcDbPolyline
 62
7
  6
CONTINUOUS
 90
40
 70
0
 10
147.7936468528
 20
98.9008840463
 10
147.7143565543
 20
98.904184022
 10
147.6365530398
 20
98.9135644189
 10
147.5602363094
 20
98.9290252453
 10
147.4849748056
 20
98.9507139823
 10
147.4112000858
 20
98.9784831767
 10
147.3402068221
 20
99.0118904397
 10
147.2719532639
 20
99.0510905016
 10
147.2064811618
 20
99.0959286773
 10
147.1452104397
 20
99.1454984536
 10
147.0883178622
 20
99.1998102638
 10
147.0356266648
 20
99.2588537237
 10
146.9880264768
 20
99.3216910852
 10
146.9455077849
 20
99.3885310301
 10
146.9080801024
 20
99.4591649213
 10
146.8766615998
 20
99.5320290174
 10
146.8514456494
 20
99.6070301616
 10
146.8322388789
 20
99.6842615334
 10
146.8193793412
 20
99.762438875
 10
146.8129762694
 20
99.8417534196
 10
146.8129204305
 20
99.9220139384
 10
146.8192221784
 20
100.0013624584
 10
146.8319919841
 20
100.0796139285
 10
146.8511193767
 20
100.1569533771
 10
146.876283297
 20
100.23207793
 10
146.9076874419
 20
100.3050823959
 10
146.9451281145
 20
100.3758719323
 10
146.9876731655
 20
100.4428591733
 10
147.0353079551
 20
100.5058314059
 10
147.088047123
 20
100.5650013002
 10
147.145002438
 20
100.6194195559
 10
147.2063635202
 20
100.6690715664
 10
147.2719407495
 20
100.7139719007
 10
147.3402770348
 20
100.7532150192
 10
147.4113183274
 20
100.7866416516
 10
147.485118676
 20
100.8144110403
 10
147.560383136
 20
100.8360954162
 10
147.6366800592
 20
100.8515521849
 10
147.7144410939
 20
100.8609239276
 10
147.79366624
 20
100.8642106414
  0
LWPOLYLINE
  5
306
100
AcDbEntity
  8
SUPERFICI
100
AcDbPolyline
 62
7
  6
CONTINUOUS
 90
3
 70
0
 10
147.6568536733
 20
98.9104427363
 10
147.7247466786
 20
98.903316468
 10
147.7935164348
 20
98.9008840473
  0
LINE
  5
307
100
AcDbEntity
  8
0
100
AcDbLine
 62
253
  6
CONTINUOUS
 10
128.4099931046
 20
104.1440571581
 11
128.2945319818
 21
104.1825363825
  0
LINE
  5
308
100
AcDbEntity
  8
ASSI
100
AcDbLine
 62
253
  6
CONTINUOUS
 10
128.4099931046
 20
104.1440571581
 11
128.2945319818
 21
104.1825363825
  0
LWPOLYLINE
  5
309
100
AcDbEntity
  8
0
100
AcDbPolyline
 62
253
  6
CONTINUOUS
 90
35
 70
0
 10
151.0861390437
 20
94.5681173825
 10
151.0989551455
 20
94.5535840307
 10
151.1114618687
 20
94.5388244153
 10
151.1236651621
 20
94.5238405781
 10
151.1355709742
 20
94.5086345607
 10
151.1471852537
 20
94.4932084045
 10
151.1585126588
 20
94.4775651904
 10
151.1695526849
 20
94.4617121554
 10
151.1803035372
 20
94.4456575756
 10
151.1907634207
 20
94.4294097271
 10
151.2009305404
 20
94.412976886
 10
151.2108032408
 20
94.3963668275
 10
151.2203804235
 20
94.3795853232
 10
151.2296611299
 20
94.3626376439
 10
151.2386444011
 20
94.3455290604
 10
151.2473292784
 20
94.3282648432
 10
151.2577637796
 20
94.3064738711
 10
151.2677255599
 20
94.2844590282
 10
151.2772096373
 20
94.2622313854
 10
151.2862110296
 20
94.239802014
 10
151.2930611325
 20
94.2217203663
 10
151.2995957988
 20
94.2035202923
 10
151.3058116992
 20
94.1852053864
 10
151.3117055041
 20
94.1667792432
 10
151.3172738841
 20
94.1482454571
 10
151.3225131582
 20
94.1296084695
 10
151.3274182395
 20
94.1108761084
 10
151.3319836893
 20
94.0920570487
 10
151.3362040693
 20
94.0731599652
 10
151.3400739409
 20
94.0541935329
 10
151.3435878812
 20
94.0351643836
 10
151.3467405297
 20
94.0160709782
 10
151.3495265415
 20
93.9969097346
 10
151.3519405714
 20
93.9776770708
 10
151.3539772746
 20
93.9583694046
  0
LWPOLYLINE
  5
30A
100
AcDbEntity
  8
0
100
AcDbPolyline
 62
253
  6
CONTINUOUS
 90
35
 70
0
 10
148.7333410437
 20
91.8067033825
 10
148.7353733261
 20
91.7874347071
 10
148.7377814985
 20
91.7682406204
 10
148.7405600451
 20
91.7491181188
 10
148.7437034507
 20
91.7300641989
 10
148.7472061997
 20
91.711075857
 10
148.751062883
 20
91.6921517472
 10
148.7552685169
 20
91.6732971538
 10
148.759818224
 20
91.6545190182
 10
148.7647071271
 20
91.6358242823
 10
148.7699303488
 20
91.6172198878
 10
148.7754832853
 20
91.5987123336
 10
148.7813624277
 20
91.5803063487
 10
148.7875645407
 20
91.5620062189
 10
148.7940863891
 20
91.5438162306
 10
148.8009247374
 20
91.5257406698
 10
148.8099130777
 20
91.503314128
 10
148.8193861082
 20
91.4810842425
 10
148.8293390432
 20
91.4590621796
 10
148.8397670969
 20
91.4372591057
 10
148.8484487521
 20
91.4199816829
 10
148.857431028
 20
91.4028564399
 10
148.8667135321
 20
91.3858882574
 10
148.8762958721
 20
91.3690820157
 10
148.8861776556
 20
91.3524425954
 10
148.896358104
 20
91.3359757097
 10
148.9068348939
 20
91.3196904018
 10
148.917605316
 20
91.3035965477
 10
148.9286666606
 20
91.2877040231
 10
148.9400162183
 20
91.272022704
 10
148.9516527743
 20
91.2565610717
 10
148.963581093
 20
91.2413220299
 10
148.9758074335
 20
91.2263070876
 10
148.9883380548
 20
91.2115177539
 10
149.0011792161
 20
91.1969555377
  0
LWPOLYLINE
  5
30B
100
AcDbEntity
  8
0
100
AcDbPolyline
 62
253
  6
CONTINUOUS
 90
13
 70
0
 10
148.1360558677
 20
91.7496813657
 10
148.1274259817
 20
91.8438418376
 10
148.1195446712
 20
91.9380662044
 10
148.1124123726
 20
92.0323482476
 10
148.1060295225
 20
92.1266817483
 10
148.1003965222
 20
92.2210606677
 10
148.0955136319
 20
92.3154796862
 10
148.0913810765
 20
92.4099336639
 10
148.087999081
 20
92.5044174611
 10
148.0853678522
 20
92.5989257558
 10
148.0834875251
 20
92.6934524966
 10
148.0823582166
 20
92.78799145
 10
148.0819800437
 20
92.8825363825
  0
LWPOLYLINE
  5
30C
100
AcDbEntity
  8
0
100
AcDbPolyline
 62
253
  6
CONTINUOUS
 90
13
 70
0
 10
148.7333409006
 20
91.8067033688
 10
148.7251454312
 20
91.8961239876
 10
148.7176608487
 20
91.9856053378
 10
148.7108875691
 20
92.0751415108
 10
148.7048260082
 20
92.1647265981
 10
148.6994765484
 20
92.2543548637
 10
148.6948394378
 20
92.3440212624
 10
148.690914891
 20
92.4337209216
 10
148.6877031229
 20
92.5234489687
 10
148.685204331
 20
92.613200356
 10
148.6834186452
 20
92.7029693358
 10
148.6823461784
 20
92.7927499856
 10
148.6819870437
 20
92.8825363825
  0
LWPOLYLINE
  5
30D
100
AcDbEntity
  8
0
100
AcDbPolyline
 62
253
  6
CONTINUOUS
 90
35
 70
0
 10
148.1360567916
 20
117.0153913111
 10
148.139235805
 20
117.0455245567
 10
148.1430027601
 20
117.0755450481
 10
148.1473494934
 20
117.1054580975
 10
148.1522678411
 20
117.1352690173
 10
148.1577496395
 20
117.1649831198
 10
148.1637867489
 20
117.1946026992
 10
148.170371125
 20
117.2241179771
 10
148.1774947473
 20
117.2535161571
 10
148.1851495956
 20
117.2827844428
 10
148.1933276494
 20
117.3119100376
 10
148.2020213926
 20
117.340881261
 10
148.211225326
 20
117.3696908964
 10
148.2209344545
 20
117.3983328429
 10
148.2311437831
 20
117.4268009998
 10
148.2418483168
 20
117.4550892663
 10
148.2559180922
 20
117.4901863298
 10
148.2707460786
 20
117.524974839
 10
148.2863245337
 20
117.5594368507
 10
148.3026457152
 20
117.5935544217
 10
148.3162327803
 20
117.6205887045
 10
148.3302896298
 20
117.6473835609
 10
148.3448156583
 20
117.6739314899
 10
148.3598102603
 20
117.7002249908
 10
148.3752728304
 20
117.7262565627
 10
148.3912020728
 20
117.7520172963
 10
148.4075939305
 20
117.7774926486
 10
148.4244436561
 20
117.8026666681
 10
148.4417465022
 20
117.8275234035
 10
148.4594977214
 20
117.8520469031
 10
148.4776949806
 20
117.8762235421
 10
148.4963456039
 20
117.9000490018
 10
148.5154593299
 20
117.9235212898
 10
148.535045897
 20
117.9466384142
 10
148.5551150437
 20
117.9693983825
  0
LWPOLYLINE
  5
30E
100
AcDbEntity
  8
SUPERFICI
100
AcDbPolyline
 62
7
  6
CONTINUOUS
 90
43
 70
0
 10
147.7249770652
 20
100.8617838044
 10
147.6571058574
 20
100.8546710734
 10
147.5901340321
 20
100.8428809848
 10
147.5237229229
 20
100.8263178058
 10
147.4582111961
 20
100.8050772767
 10
147.3946148505
 20
100.7794466105
 10
147.332945863
 20
100.7493239226
 10
147.2731922566
 20
100.7148111138
 10
147.2163340993
 20
100.6765010756
 10
147.1624979993
 20
100.6344054441
 10
147.1115573485
 20
100.5885126054
 10
147.0641123897
 20
100.5393805754
 10
147.0201343182
 20
100.4868686179
 10
146.9796519388
 20
100.4311174959
 10
146.9433519089
 20
100.3731074709
 10
146.9113656772
 20
100.3129518007
 10
146.883561795
 20
100.2505372516
 10
146.8602325736
 20
100.1865043426
 10
146.8413842895
 20
100.1206509877
 10
146.8270106661
 20
100.0531792957
 10
146.8173851854
 20
99.9853360692
 10
146.8125977491
 20
99.9172939568
 10
146.8125584555
 20
99.84888032
 10
146.8172710805
 20
99.7808240189
 10
146.8268231698
 20
99.7129565529
 10
146.8411271776
 20
99.6454464254
 10
146.8599242425
 20
99.5795279912
 10
146.8832378173
 20
99.5153763455
 10
146.911044449
 20
99.4528163786
 10
146.943014918
 20
99.3925571258
 10
146.9792515771
 20
99.334532461
 10
147.0196520735
 20
99.278808488
 10
147.0635801281
 20
99.2262925781
 10
147.111042369
 20
99.177083246
 10
147.1620321682
 20
99.1310819456
 10
147.2158933633
 20
99.0889004503
 10
147.2727113114
 20
99.050557014
 10
147.3324006554
 20
99.0160333508
 10
147.3940491616
 20
98.98588642
 10
147.4577135557
 20
98.9601961394
 10
147.5233371118
 20
98.9388825637
 10
147.5898374189
 20
98.9222628574
 10
147.6568536733
 20
98.9104427363
  0
LINE
  5
30F
100
AcDbEntity
  8
SUPERFICI
100
AcDbLine
 62
7
  6
CONTINUOUS
 10
147.7937476554
 20
100.8642191764
 11
147.7249770652
 21
100.8617838044
  0
LINE
  5
310
100
AcDbEntity
  8
SUPERFICI
100
AcDbLine
 62
7
  6
CONTINUOUS
 10
152.2935705824
 20
100.8642191764
 11
147.7937476554
 21
100.8642191764
  0
LINE
  5
311
100
AcDbEntity
  8
0
100
AcDbLine
 62
7
  6
CONTINUOUS
 10
147.79366624
 20
100.8642106414
 11
152.2936518362
 21
100.8642191767
  0
LINE
  5
312
100
AcDbEntity
  8
ASSI
100
AcDbLine
 62
7
  6
CONTINUOUS
 10
147.79366624
 20
100.8642106414
 11
152.2936518362
 21
100.8642191767
  0
LWPOLYLINE
  5
313
100
AcDbEntity
  8
0
100
AcDbPolyline
 62
7
  6
CONTINUOUS
 90
40
 70
0
 10
152.2936518362
 20
100.8642191767
 10
152.372944166
 20
100.8609106227
 10
152.4507494431
 20
100.8515239675
 10
152.5270676675
 20
100.836059214
 10
152.6023303696
 20
100.8143696893
 10
152.6761060189
 20
100.7866020795
 10
152.7471000249
 20
100.7531964298
 10
152.8153541461
 20
100.7139972174
 10
152.8808266238
 20
100.669159993
 10
152.9420975914
 20
100.6195914129
 10
152.9989901968
 20
100.5652811862
 10
153.0516812921
 20
100.5062396413
 10
153.0992815669
 20
100.4434043601
 10
153.1418005848
 20
100.3765668135
 10
153.1792287823
 20
100.3059355733
 10
153.2106481585
 20
100.2330738648
 10
153.2358654518
 20
100.1580748314
 10
153.2550739239
 20
100.0808453636
 10
153.2679353585
 20
100.0026692927
 10
153.2743406113
 20
99.9233552438
 10
153.2743988267
 20
99.8430946151
 10
153.2680992219
 20
99.7637453775
 10
153.2553312351
 20
99.6854924046
 10
153.2362054283
 20
99.6081508191
 10
153.2110427036
 20
99.5330239446
 10
153.1796392556
 20
99.4600169083
 10
153.1421988898
 20
99.3892245606
 10
153.0996539254
 20
99.3222347891
 10
153.0520189432
 20
99.2592603673
 10
152.9992793623
 20
99.2000884771
 10
152.9423237593
 20
99.1456686034
 10
152.8809625765
 20
99.0960154084
 10
152.8153853716
 20
99.0511141804
 10
152.7470493942
 20
99.0118703358
 10
152.6760086386
 20
98.9784431324
 10
152.6022091105
 20
98.9506732669
 10
152.5269460775
 20
98.9289883123
 10
152.4506512953
 20
98.9135307833
 10
152.3728930081
 20
98.9041581372
 10
152.293671216
 20
98.900870366
  0
LWPOLYLINE
  5
314
100
AcDbEntity
  8
ASSI
100
AcDbPolyline
 62
7
  6
CONTINUOUS
 90
40
 70
0
 10
152.2936518362
 20
100.8642191767
 10
152.372944166
 20
100.8609106227
 10
152.4507494431
 20
100.8515239675
 10
152.5270676675
 20
100.836059214
 10
152.6023303696
 20
100.8143696893
 10
152.6761060189
 20
100.7866020795
 10
152.7471000249
 20
100.7531964298
 10
152.8153541461
 20
100.7139972174
 10
152.8808266238
 20
100.669159993
 10
152.9420975914
 20
100.6195914129
 10
152.9989901968
 20
100.5652811862
 10
153.0516812921
 20
100.5062396413
 10
153.0992815669
 20
100.4434043601
 10
153.1418005848
 20
100.3765668135
 10
153.1792287823
 20
100.3059355733
 10
153.2106481585
 20
100.2330738648
 10
153.2358654518
 20
100.1580748314
 10
153.2550739239
 20
100.0808453636
 10
153.2679353585
 20
100.0026692927
 10
153.2743406113
 20
99.9233552438
 10
153.2743988267
 20
99.8430946151
 10
153.2680992219
 20
99.7637453775
 10
153.2553312351
 20
99.6854924046
 10
153.2362054283
 20
99.6081508191
 10
153.2110427036
 20
99.5330239446
 10
153.1796392556
 20
99.4600169083
 10
153.1421988898
 20
99.3892245606
 10
153.0996539254
 20
99.3222347891
 10
153.0520189432
 20
99.2592603673
 10
152.9992793623
 20
99.2000884771
 10
152.9423237593
 20
99.1456686034
 10
152.8809625765
 20
99.0960154084
 10
152.8153853716
 20
99.0511141804
 10
152.7470493942
 20
99.0118703358
 10
152.6760086386
 20
98.9784431324
 10
152.6022091105
 20
98.9506732669
 10
152.5269460775
 20
98.9289883123
 10
152.4506512953
 20
98.9135307833
 10
152.3728930081
 20
98.9041581372
 10
152.293671216
 20
98.900870366
  0
LWPOLYLINE
  5
315
100
AcDbEntity
  8
0
100
AcDbPolyline
 62
253
  6
CONTINUOUS
 90
35
 70
0
 10
148.1360567916
 20
114.7496814539
 10
148.139235719
 20
114.7195489505
 10
148.1430025737
 20
114.6895290897
 10
148.1473491993
 20
114.659616558
 10
148.1522674396
 20
114.6298060418
 10
148.1577491383
 20
114.6000922276
 10
148.1637861622
 20
114.570472822
 10
148.1703704702
 20
114.5409576132
 10
148.177494044
 20
114.5115594094
 10
148.1851488655
 20
114.482291019
 10
148.1933269166
 20
114.4531652504
 10
148.2020206827
 20
114.4241937954
 10
148.2112246641
 20
114.3953838801
 10
148.2209338648
 20
114.3667416142
 10
148.2311432888
 20
114.3382731075
 10
148.2418479399
 20
114.3099844695
 10
148.2559178907
 20
114.2748869244
 10
148.2707460787
 20
114.2400979287
 10
148.2863247548
 20
114.2056354407
 10
148.30264617
 20
114.1715174185
 10
148.3162334265
 20
114.1444828028
 10
148.3302904657
 20
114.1176876453
 10
148.3448166765
 20
114.0911394531
 10
148.3598114482
 20
114.0648457332
 10
148.3752741697
 20
114.0388139924
 10
148.3912035389
 20
114.0130531461
 10
148.4075954901
 20
113.9875777434
 10
148.4244452662
 20
113.9624037416
 10
148.4417481104
 20
113.9375470981
 10
148.4594992657
 20
113.9130237701
 10
148.4776963897
 20
113.8888473873
 10
148.4963467987
 20
113.8650222674
 10
148.5154602235
 20
113.8415504
 10
148.5350463949
 20
113.8184337751
 10
148.5551150437
 20
113.7956743825
  0
LWPOLYLINE
  5
316
100
AcDbEntity
  8
0
100
AcDbPolyline
 62
253
  6
CONTINUOUS
 90
13
 70
0
 10
148.1360558677
 20
114.7496813657
 10
148.1274273053
 20
114.8438266668
 10
148.1195468366
 20
114.9380388355
 10
148.1124149673
 20
115.0323118416
 10
148.1060322028
 20
115.1266396548
 10
148.1003990159
 20
115.2210163008
 10
148.0955157487
 20
115.3154360284
 10
148.0913827107
 20
115.4098931422
 10
148.088000211
 20
115.5043819469
 10
148.085368532
 20
115.5988966881
 10
148.083487847
 20
115.6934313745
 10
148.0823583021
 20
115.7879799561
 10
148.0819800437
 20
115.8825363825
  0
LWPOLYLINE
  5
317
100
AcDbEntity
  8
0
100
AcDbPolyline
 62
253
  6
CONTINUOUS
 90
13
 70
0
 10
148.7333409006
 20
114.8067033688
 10
148.7251468741
 20
114.8961074055
 10
148.7176631964
 20
114.9855755543
 10
148.7108903602
 20
115.0751022269
 10
148.7048288585
 20
115.1646818346
 10
148.699479155
 20
115.2543087507
 10
148.6948415971
 20
115.3439771954
 10
148.690916503
 20
115.4336813508
 10
148.687704191
 20
115.523415399
 10
148.6852049468
 20
115.6131735567
 10
148.6834189256
 20
115.7029501796
 10
148.6823462503
 20
115.7927396581
 10
148.6819870437
 20
115.8825363825
  0
LWPOLYLINE
  5
318
100
AcDbEntity
  8
0
100
AcDbPolyline
 62
253
  6
CONTINUOUS
 90
13
 70
0
 10
148.0819802204
 20
115.8825363825
 10
148.0823583894
 20
115.977080818
 10
148.0834876875
 20
116.0716193646
 10
148.0853679999
 20
116.1661457889
 10
148.0879992118
 20
116.2606538574
 10
148.0913811905
 20
116.3551375189
 10
148.0955137312
 20
116.4495914511
 10
148.1003966111
 20
116.5440105142
 10
148.1060296074
 20
116.638389568
 10
148.1124124621
 20
116.7327232927
 10
148.1195447759
 20
116.8270056494
 10
148.1274261146
 20
116.9212304189
 10
148.1360560437
 20
117.0153913825
  0
LWPOLYLINE
  5
319
100
AcDbEntity
  8
0
100
AcDbPolyline
 62
253
  6
CONTINUOUS
 90
13
 70
0
 10
148.0819802204
 20
92.8825363825
 10
148.0823584746
 20
92.9770928795
 10
148.0834880172
 20
93.0716416938
 10
148.0853687179
 20
93.1661769219
 10
148.0880004465
 20
93.2606926598
 10
148.0913830383
 20
93.3551829653
 10
148.0955161906
 20
93.4496417412
 10
148.1003995665
 20
93.5440628516
 10
148.1060328289
 20
93.6384401608
 10
148.1124156101
 20
93.7327675754
 10
148.11954742
 20
93.8270391714
 10
148.1274277381
 20
93.9212490676
 10
148.1360560437
 20
94.0153913825
  0
LWPOLYLINE
  5
31A
100
AcDbEntity
  8
0
100
AcDbPolyline
 62
253
  6
CONTINUOUS
 90
13
 70
0
 10
148.6819871874
 20
115.8825363825
 10
148.6823463181
 20
115.9723222723
 10
148.6834187743
 20
116.0621025071
 10
148.685204445
 20
116.1518711642
 10
148.6877032197
 20
116.2416223209
 10
148.6909149707
 20
116.3313502297
 10
148.6948395024
 20
116.4210498427
 10
148.6994766024
 20
116.5107162872
 10
148.7048260582
 20
116.6003446902
 10
148.7108876238
 20
116.6899300065
 10
148.7176609191
 20
116.7794664999
 10
148.7251455302
 20
116.8689482615
 10
148.7333410437
 20
116.9583693825
  0
LWPOLYLINE
  5
31B
100
AcDbEntity
  8
0
100
AcDbPolyline
 62
253
  6
CONTINUOUS
 90
13
 70
0
 10
148.6819871874
 20
92.8825363825
 10
148.6823463874
 20
92.9723330581
 10
148.6834190568
 20
93.0621227234
 10
148.6852050941
 20
93.1518999584
 10
148.6877043978
 20
93.2416593432
 10
148.6909168243
 20
93.3313952965
 10
148.6948420621
 20
93.4211015914
 10
148.6994797579
 20
93.5107718399
 10
148.704829558
 20
93.6003996537
 10
148.7108910827
 20
93.68997881
 10
148.7176638464
 20
93.7795037476
 10
148.7251473373
 20
93.8689690705
 10
148.7333410437
 20
93.9583693825
  0
LWPOLYLINE
  5
31C
100
AcDbEntity
  8
0
100
AcDbPolyline
 62
253
  6
CONTINUOUS
 90
35
 70
0
 10
148.7333410437
 20
93.9583693825
 10
148.7353733008
 20
93.9776378393
 10
148.7377814442
 20
93.996831745
 10
148.7405599606
 20
94.0159541033
 10
148.7437033373
 20
94.0350079182
 10
148.747206061
 20
94.0539961934
 10
148.7510627249
 20
94.0729202746
 10
148.7552683463
 20
94.0917748742
 10
148.7598180485
 20
94.1105530466
 10
148.7647069549
 20
94.129247846
 10
148.7699301889
 20
94.1478523268
 10
148.7754831473
 20
94.166359986
 10
148.7813623209
 20
94.1847660916
 10
148.7875644741
 20
94.2030663546
 10
148.7940863712
 20
94.2212564856
 10
148.8009247764
 20
94.2393321957
 10
148.8099131984
 20
94.2617589285
 10
148.8193863202
 20
94.2839890044
 10
148.8293393531
 20
94.3060112512
 10
148.8397675086
 20
94.3278144967
 10
148.8484492461
 20
94.345092044
 10
148.8574316024
 20
94.3622173967
 10
148.8667141825
 20
94.3791856717
 10
148.8762965914
 20
94.3959919853
 10
148.8861784339
 20
94.4126314543
 10
148.8963589288
 20
94.4290983627
 10
148.9068357487
 20
94.4453836646
 10
148.9176061798
 20
94.4614774818
 10
148.9286675085
 20
94.4773699358
 10
148.9400170208
 20
94.4930511483
 10
148.951653498
 20
94.508512636
 10
148.9635817006
 20
94.5237514959
 10
148.9758078842
 20
94.5387662197
 10
148.9883383042
 20
94.5535552996
 10
149.0011792161
 20
94.5681172274
  0
LWPOLYLINE
  5
31D
100
AcDbEntity
  8
0
100
AcDbPolyline
 62
253
  6
CONTINUOUS
 90
35
 70
0
 10
151.3539770437
 20
114.8067033825
 10
151.3519447865
 20
114.7874349258
 10
151.3495366431
 20
114.7682410201
 10
151.3467581267
 20
114.7491186617
 10
151.3436147501
 20
114.7300648469
 10
151.3401120263
 20
114.7110765716
 10
151.3362553624
 20
114.6921524905
 10
151.3320497411
 20
114.6732978909
 10
151.3275000388
 20
114.6545197185
 10
151.3226111324
 20
114.6358249191
 10
151.3173878985
 20
114.6172204383
 10
151.3118349401
 20
114.5987127791
 10
151.3059557664
 20
114.5803066735
 10
151.2997536132
 20
114.5620064105
 10
151.2932317162
 20
114.5438162794
 10
151.2863933109
 20
114.5257405694
 10
151.2774048889
 20
114.5033138366
 10
151.2679317671
 20
114.4810837607
 10
151.2579787342
 20
114.4590615139
 10
151.2475505787
 20
114.4372582683
 10
151.2388688412
 20
114.4199807211
 10
151.2298864849
 20
114.4028553683
 10
151.2206039048
 20
114.3858870934
 10
151.211021496
 20
114.3690807798
 10
151.2011396534
 20
114.3524413108
 10
151.1909591585
 20
114.3359744024
 10
151.1804823386
 20
114.3196891005
 10
151.1697119075
 20
114.3035952833
 10
151.1586505789
 20
114.2877028293
 10
151.1473010665
 20
114.2720216168
 10
151.1356645893
 20
114.256560129
 10
151.1237363867
 20
114.2413212692
 10
151.1115102031
 20
114.2263065453
 10
151.0989797831
 20
114.2115174655
 10
151.0861388712
 20
114.1969555377
  0
LINE
  5
31E
100
AcDbEntity
  8
0
100
AcDbLine
 62
7
  6
CONTINUOUS
 10
169.5436590437
 20
104.1563557792
 11
169.8061250342
 21
104.1825363825
  0
LINE
  5
31F
100
AcDbEntity
  8
ASSI
100
AcDbLine
 62
7
  6
CONTINUOUS
 10
169.5436590437
 20
104.1563557792
 11
169.8061250342
 21
104.1825363825
  0
LINE
  5
320
100
AcDbEntity
  8
0
100
AcDbLine
 62
253
  6
CONTINUOUS
 10
172.1771536445
 20
103.6440761963
 11
172.1735177297
 21
103.6440021198
  0
LINE
  5
321
100
AcDbEntity
  8
ASSI
100
AcDbLine
 62
253
  6
CONTINUOUS
 10
172.1771536445
 20
103.6440761963
 11
172.1735177297
 21
103.6440021198
  0
LINE
  5
322
100
AcDbEntity
  8
0
100
AcDbLine
 62
253
  6
CONTINUOUS
 10
172.1735177297
 20
103.6440021198
 11
172.1522417504
 21
103.6438567634
  0
LINE
  5
323
100
AcDbEntity
  8
ASSI
100
AcDbLine
 62
253
  6
CONTINUOUS
 10
172.1735177297
 20
103.6440021198
 11
172.1522417504
 21
103.6438567634
  0
LINE
  5
324
100
AcDbEntity
  8
0
100
AcDbLine
 62
253
  6
CONTINUOUS
 10
172.1522417504
 20
103.6438567634
 11
161.2936590437
 21
103.6392708728
  0
LINE
  5
325
100
AcDbEntity
  8
ASSI
100
AcDbLine
 62
253
  6
CONTINUOUS
 10
172.1522417504
 20
103.6438567634
 11
161.2936590437
 21
103.6392708728
  0
LINE
  5
326
100
AcDbEntity
  8
0
100
AcDbLine
 62
253
  6
CONTINUOUS
 10
171.6773249819
 20
104.1440571578
 11
164.4250400267
 21
104.1405733065
  0
LINE
  5
327
100
AcDbEntity
  8
ASSI
100
AcDbLine
 62
253
  6
CONTINUOUS
 10
171.6773249819
 20
104.1440571578
 11
164.4250400267
 21
104.1405733065
  0
LINE
  5
328
100
AcDbEntity
  8
0
100
AcDbLine
 62
253
  6
CONTINUOUS
 10
128.4099931055
 20
104.6210156073
 11
136.7431624447
 21
104.6247197435
  0
LINE
  5
329
100
AcDbEntity
  8
ASSI
100
AcDbLine
 62
253
  6
CONTINUOUS
 10
128.4099931055
 20
104.6210156073
 11
136.7431624447
 21
104.6247197435
  0
LINE
  5
32A
100
AcDbEntity
  8
0
100
AcDbLine
 62
253
  6
CONTINUOUS
 10
161.2936590437
 20
103.6392708728
 11
138.7936590437
 21
103.6392708728
  0
LINE
  5
32B
100
AcDbEntity
  8
ASSI
100
AcDbLine
 62
253
  6
CONTINUOUS
 10
161.2936590437
 20
103.6392708728
 11
138.7936590437
 21
103.6392708728
  0
LINE
  5
32C
100
AcDbEntity
  8
0
100
AcDbLine
 62
7
  6
CONTINUOUS
 10
169.5436590437
 20
104.1563557792
 11
130.5436590437
 21
104.1563557792
  0
LINE
  5
32D
100
AcDbEntity
  8
ASSI
100
AcDbLine
 62
7
  6
CONTINUOUS
 10
169.5436590437
 20
104.1563557792
 11
130.5436590437
 21
104.1563557792
  0
LINE
  5
32E
100
AcDbEntity
  8
0
100
AcDbLine
 62
7
  6
CONTINUOUS
 10
128.2945319818
 20
104.1825363825
 11
130.2811930531
 21
104.1825363825
  0
LINE
  5
32F
100
AcDbEntity
  8
ASSI
100
AcDbLine
 62
7
  6
CONTINUOUS
 10
128.2945319818
 20
104.1825363825
 11
130.2811930531
 21
104.1825363825
  0
LINE
  5
330
100
AcDbEntity
  8
0
100
AcDbLine
 62
7
  6
CONTINUOUS
 10
169.8061250342
 20
104.1825363825
 11
171.7927861056
 21
104.1825363825
  0
LINE
  5
331
100
AcDbEntity
  8
ASSI
100
AcDbLine
 62
7
  6
CONTINUOUS
 10
169.8061250342
 20
104.1825363825
 11
171.7927861056
 21
104.1825363825
  0
LINE
  5
332
100
AcDbEntity
  8
0
100
AcDbLine
 62
7
  6
CONTINUOUS
 10
171.7927861056
 20
104.5825363825
 11
169.8061250342
 21
104.5825363825
  0
LINE
  5
333
100
AcDbEntity
  8
ASSI
100
AcDbLine
 62
7
  6
CONTINUOUS
 10
171.7927861056
 20
104.5825363825
 11
169.8061250342
 21
104.5825363825
  0
LINE
  5
334
100
AcDbEntity
  8
0
100
AcDbLine
 62
7
  6
CONTINUOUS
 10
130.2811930531
 20
104.5825363825
 11
128.2945319818
 21
104.5825363825
  0
LINE
  5
335
100
AcDbEntity
  8
ASSI
100
AcDbLine
 62
7
  6
CONTINUOUS
 10
130.2811930531
 20
104.5825363825
 11
128.2945319818
 21
104.5825363825
  0
LINE
  5
336
100
AcDbEntity
  8
0
100
AcDbLine
 62
7
  6
CONTINUOUS
 10
130.5436590437
 20
104.6087169859
 11
169.5436590437
 21
104.6087169859
  0
LINE
  5
337
100
AcDbEntity
  8
ASSI
100
AcDbLine
 62
7
  6
CONTINUOUS
 10
130.5436590437
 20
104.6087169859
 11
169.5436590437
 21
104.6087169859
  0
LINE
  5
338
100
AcDbEntity
  8
0
100
AcDbLine
 62
253
  6
CONTINUOUS
 10
164.4250400267
 20
104.1405733065
 11
135.656815958
 21
104.140574552
  0
LINE
  5
339
100
AcDbEntity
  8
ASSI
100
AcDbLine
 62
253
  6
CONTINUOUS
 10
164.4250400267
 20
104.1405733065
 11
135.656815958
 21
104.140574552
  0
LINE
  5
33A
100
AcDbEntity
  8
0
100
AcDbLine
 62
253
  6
CONTINUOUS
 10
136.7431624447
 20
104.6247197435
 11
166.7028570876
 21
104.6238097285
  0
LINE
  5
33B
100
AcDbEntity
  8
ASSI
100
AcDbLine
 62
253
  6
CONTINUOUS
 10
136.7431624447
 20
104.6247197435
 11
166.7028570876
 21
104.6238097285
  0
LINE
  5
33C
100
AcDbEntity
  8
0
100
AcDbLine
 62
253
  6
CONTINUOUS
 10
138.7936590437
 20
103.6392708728
 11
128.2259438105
 21
103.6433748246
  0
LINE
  5
33D
100
AcDbEntity
  8
ASSI
100
AcDbLine
 62
253
  6
CONTINUOUS
 10
138.7936590437
 20
103.6392708728
 11
128.2259438105
 21
103.6433748246
  0
LINE
  5
33E
100
AcDbEntity
  8
0
100
AcDbLine
 62
253
  6
CONTINUOUS
 10
135.656815958
 20
104.140574552
 11
128.4099931046
 21
104.1440571581
  0
LINE
  5
33F
100
AcDbEntity
  8
ASSI
100
AcDbLine
 62
253
  6
CONTINUOUS
 10
135.656815958
 20
104.140574552
 11
128.4099931046
 21
104.1440571581
  0
LINE
  5
340
100
AcDbEntity
  8
0
100
AcDbLine
 62
253
  6
CONTINUOUS
 10
166.7028570876
 20
104.6238097285
 11
171.6773249827
 21
104.621015607
  0
LINE
  5
341
100
AcDbEntity
  8
ASSI
100
AcDbLine
 62
253
  6
CONTINUOUS
 10
166.7028570876
 20
104.6238097285
 11
171.6773249827
 21
104.621015607
  0
LINE
  5
342
100
AcDbEntity
  8
0
100
AcDbLine
 62
253
  6
CONTINUOUS
 10
128.2259438105
 20
103.6433748246
 11
127.9350763352
 21
103.6438567608
  0
LINE
  5
343
100
AcDbEntity
  8
ASSI
100
AcDbLine
 62
253
  6
CONTINUOUS
 10
128.2259438105
 20
103.6433748246
 11
127.9350763352
 21
103.6438567608
  0
LWPOLYLINE
  5
344
100
AcDbEntity
  8
0
100
AcDbPolyline
 62
253
  6
CONTINUOUS
 90
3
 70
0
 10
127.9350763352
 20
103.6438567608
 10
127.9138003559
 20
103.6440021193
 10
127.9101644411
 20
103.6440761969
  0
LWPOLYLINE
  5
345
100
AcDbEntity
  8
ASSI
100
AcDbPolyline
 62
253
  6
CONTINUOUS
 90
3
 70
0
 10
127.9350763352
 20
103.6438567608
 10
127.9138003559
 20
103.6440021193
 10
127.9101644411
 20
103.6440761969
  0
LINE
  5
346
100
AcDbEntity
  8
0
100
AcDbLine
 62
7
  6
CONTINUOUS
 10
130.5436590437
 20
104.1563557792
 11
130.2811930531
 21
104.1825363825
  0
LINE
  5
347
100
AcDbEntity
  8
ASSI
100
AcDbLine
 62
7
  6
CONTINUOUS
 10
130.5436590437
 20
104.1563557792
 11
130.2811930531
 21
104.1825363825
  0
LWPOLYLINE
  5
348
100
AcDbEntity
  8
0
100
AcDbPolyline
 62
253
  6
CONTINUOUS
 90
35
 70
0
 10
151.9512612958
 20
94.0153913111
 10
151.9480823683
 20
94.0455238145
 10
151.9443155136
 20
94.0755436753
 10
151.939968888
 20
94.105456207
 10
151.9350506477
 20
94.1352667233
 10
151.929568949
 20
94.1649805375
 10
151.9235319251
 20
94.1945999431
 10
151.9169476171
 20
94.2241151519
 10
151.9098240433
 20
94.2535133557
 10
151.9021692218
 20
94.2827817461
 10
151.8939911707
 20
94.3119075147
 10
151.8852974046
 20
94.3408789697
 10
151.8760934232
 20
94.369688885
 10
151.8663842225
 20
94.3983311508
 10
151.8561747986
 20
94.4267996576
 10
151.8454701474
 20
94.4550882956
 10
151.8314001966
 20
94.4901858407
 10
151.8165720086
 20
94.5249748364
 10
151.8009933325
 20
94.5594373244
 10
151.7846719173
 20
94.5935553466
 10
151.7710846608
 20
94.6205899623
 10
151.7570276217
 20
94.6473851198
 10
151.7425014108
 20
94.6739333119
 10
151.7275066391
 20
94.7002270319
 10
151.7120439177
 20
94.7262587727
 10
151.6961145484
 20
94.7520196189
 10
151.6797225972
 20
94.7774950216
 10
151.6628728211
 20
94.8026690235
 10
151.6455699769
 20
94.827525667
 10
151.6278188217
 20
94.8520489949
 10
151.6096216976
 20
94.8762253777
 10
151.5909712886
 20
94.9000504977
 10
151.5718578638
 20
94.9235223651
 10
151.5522716924
 20
94.9466389899
 10
151.5322030437
 20
94.9693983825
  0
LWPOLYLINE
  5
349
100
AcDbEntity
  8
0
100
AcDbPolyline
 62
253
  6
CONTINUOUS
 90
35
 70
0
 10
151.3539770437
 20
116.9583693825
 10
151.3519447612
 20
116.9776380579
 10
151.3495365889
 20
116.9968321447
 10
151.3467580422
 20
117.0159546462
 10
151.3436146366
 20
117.0350085662
 10
151.3401118876
 20
117.0539969081
 10
151.3362552043
 20
117.0729210178
 10
151.3320495704
 20
117.0917756113
 10
151.3274998633
 20
117.1105537468
 10
151.3226109602
 20
117.1292484827
 10
151.3173877386
 20
117.1478528773
 10
151.311834802
 20
117.1663604314
 10
151.3059556596
 20
117.1847664164
 10
151.2997535466
 20
117.2030665461
 10
151.2932316982
 20
117.2212565345
 10
151.2863933499
 20
117.2393320953
 10
151.2774050096
 20
117.2617586371
 10
151.2679319791
 20
117.2839885226
 10
151.2579790441
 20
117.3060105854
 10
151.2475509904
 20
117.3278136594
 10
151.2388693352
 20
117.3450910822
 10
151.2298870593
 20
117.3622163251
 10
151.2206045552
 20
117.3791845077
 10
151.2110222152
 20
117.3959907494
 10
151.2011404317
 20
117.4126301696
 10
151.1909599834
 20
117.4290970554
 10
151.1804831934
 20
117.4453823632
 10
151.1697127713
 20
117.4614762174
 10
151.1586514267
 20
117.477368742
 10
151.147301869
 20
117.4930500611
 10
151.135665313
 20
117.5085116933
 10
151.1237369943
 20
117.5237507351
 10
151.1115106538
 20
117.5387656775
 10
151.0989800325
 20
117.5535550112
 10
151.0861388712
 20
117.5681172274
  0
LWPOLYLINE
  5
34A
100
AcDbEntity
  8
0
100
AcDbPolyline
 62
253
  6
CONTINUOUS
 90
13
 70
0
 10
151.3539771867
 20
93.9583693962
 10
151.3621712132
 20
93.8689653596
 10
151.3696548909
 20
93.7794972107
 10
151.3764277271
 20
93.6899705382
 10
151.3824892288
 20
93.6003909305
 10
151.3878389323
 20
93.5107640144
 10
151.3924764902
 20
93.4210955697
 10
151.3964015843
 20
93.3313914142
 10
151.3996138963
 20
93.241657366
 10
151.4021131405
 20
93.1518992083
 10
151.4038991617
 20
93.0621225854
 10
151.404971837
 20
92.972333107
 10
151.4053310437
 20
92.8825363825
  0
LWPOLYLINE
  5
34B
100
AcDbEntity
  8
0
100
AcDbPolyline
 62
253
  6
CONTINUOUS
 90
13
 70
0
 10
151.9512622196
 20
94.0153913994
 10
151.9598907821
 20
93.9212460982
 10
151.9677712507
 20
93.8270339295
 10
151.97490312
 20
93.7327609235
 10
151.9812858845
 20
93.6384331102
 10
151.9869190714
 20
93.5440564643
 10
151.9918023386
 20
93.4496367367
 10
151.9959353767
 20
93.3551796229
 10
151.9993178763
 20
93.2606908181
 10
152.0019495553
 20
93.166176077
 10
152.0038302404
 20
93.0716413905
 10
152.0049597852
 20
92.977092809
 10
152.0053380437
 20
92.8825363825
  0
LWPOLYLINE
  5
34C
100
AcDbEntity
  8
0
100
AcDbPolyline
 62
253
  6
CONTINUOUS
 90
13
 70
0
 10
151.3539771867
 20
116.9583693962
 10
151.3621726561
 20
116.8689487775
 10
151.3696572386
 20
116.7794674273
 10
151.3764305182
 20
116.6899312542
 10
151.3824920791
 20
116.600346167
 10
151.3878415389
 20
116.5107179014
 10
151.3924786495
 20
116.4210515027
 10
151.3964031963
 20
116.3313518435
 10
151.3996149644
 20
116.2416237964
 10
151.4021137563
 20
116.1518724091
 10
151.4038994421
 20
116.0621034292
 10
151.4049719089
 20
115.9723227795
 10
151.4053310437
 20
115.8825363825
  0
LWPOLYLINE
  5
34D
100
AcDbEntity
  8
0
100
AcDbPolyline
 62
253
  6
CONTINUOUS
 90
13
 70
0
 10
151.4053308999
 20
115.8825363825
 10
151.4049716999
 20
115.792739707
 10
151.4038990305
 20
115.7029500417
 10
151.4021129932
 20
115.6131728067
 10
151.3996136896
 20
115.5234134218
 10
151.3964012631
 20
115.4336774686
 10
151.3924760252
 20
115.3439711737
 10
151.3878383294
 20
115.2543009252
 10
151.3824885293
 20
115.1646731114
 10
151.3764270046
 20
115.075093955
 10
151.3696542409
 20
114.9855690174
 10
151.36217075
 20
114.8961036946
 10
151.3539770437
 20
114.8067033825
  0
LWPOLYLINE
  5
34E
100
AcDbEntity
  8
0
100
AcDbPolyline
 62
253
  6
CONTINUOUS
 90
13
 70
0
 10
151.4053308999
 20
92.8825363825
 10
151.4049717692
 20
92.7927504927
 10
151.4038993131
 20
92.702970258
 10
151.4021136423
 20
92.6132016009
 10
151.3996148676
 20
92.5234504441
 10
151.3964031166
 20
92.4337225354
 10
151.3924785849
 20
92.3440229224
 10
151.3878414849
 20
92.2543564779
 10
151.3824920291
 20
92.1647280748
 10
151.3764304635
 20
92.0751427585
 10
151.3696571683
 20
91.9856062652
 10
151.3621725571
 20
91.8961245036
 10
151.3539770437
 20
91.8067033825
  0
LWPOLYLINE
  5
34F
100
AcDbEntity
  8
0
100
AcDbPolyline
 62
253
  6
CONTINUOUS
 90
13
 70
0
 10
152.0053378669
 20
115.8825363825
 10
152.0049596127
 20
115.7879798856
 10
152.0038300701
 20
115.6934310712
 10
152.0019493694
 20
115.5988958432
 10
151.9993176408
 20
115.5043801052
 10
151.9959350491
 20
115.4098897998
 10
151.9918018967
 20
115.3154310239
 10
151.9869185208
 20
115.2210099134
 10
151.9812852584
 20
115.1266326042
 10
151.9749024773
 20
115.0323051897
 10
151.9677706673
 20
114.9380335936
 10
151.9598903492
 20
114.8438236974
 10
151.9512620437
 20
114.7496813825
  0
LWPOLYLINE
  5
350
100
AcDbEntity
  8
0
100
AcDbPolyline
 62
253
  6
CONTINUOUS
 90
13
 70
0
 10
152.0053378669
 20
92.8825363825
 10
152.0049596979
 20
92.7879919471
 10
152.0038303998
 20
92.6934534005
 10
152.0019500874
 20
92.5989269762
 10
151.9993188755
 20
92.5044189077
 10
151.9959368968
 20
92.4099352462
 10
151.9918043561
 20
92.3154813139
 10
151.9869214762
 20
92.2210622509
 10
151.9812884799
 20
92.1266831971
 10
151.9749056253
 20
92.0323494724
 10
151.9677733114
 20
91.9380671157
 10
151.9598919727
 20
91.8438423461
 10
151.9512620437
 20
91.7496813825
  0
LINE
  5
351
100
AcDbEntity
  8
0
100
AcDbLine
 62
7
  6
CONTINUOUS
 10
130.5436590437
 20
104.6087169859
 11
130.2811930531
 21
104.5825363825
  0
LINE
  5
352
100
AcDbEntity
  8
ASSI
100
AcDbLine
 62
7
  6
CONTINUOUS
 10
130.5436590437
 20
104.6087169859
 11
130.2811930531
 21
104.5825363825
  0
LINE
  5
353
100
AcDbEntity
  8
0
100
AcDbLine
 62
253
  6
CONTINUOUS
 10
127.9101644429
 20
105.1209965688
 11
127.9138003576
 21
105.1210706453
  0
LINE
  5
354
100
AcDbEntity
  8
ASSI
100
AcDbLine
 62
253
  6
CONTINUOUS
 10
127.9101644429
 20
105.1209965688
 11
127.9138003576
 21
105.1210706453
  0
LINE
  5
355
100
AcDbEntity
  8
0
100
AcDbLine
 62
253
  6
CONTINUOUS
 10
127.9138003576
 20
105.1210706453
 11
127.9350763369
 21
105.1212160017
  0
LINE
  5
356
100
AcDbEntity
  8
ASSI
100
AcDbLine
 62
253
  6
CONTINUOUS
 10
127.9138003576
 20
105.1210706453
 11
127.9350763369
 21
105.1212160017
  0
LINE
  5
357
100
AcDbEntity
  8
0
100
AcDbLine
 62
253
  6
CONTINUOUS
 10
127.9350763369
 20
105.1212160017
 11
138.7936590437
 21
105.1258018923
  0
LINE
  5
358
100
AcDbEntity
  8
ASSI
100
AcDbLine
 62
253
  6
CONTINUOUS
 10
127.9350763369
 20
105.1212160017
 11
138.7936590437
 21
105.1258018923
  0
LINE
  5
359
100
AcDbEntity
  8
0
100
AcDbLine
 62
253
  6
CONTINUOUS
 10
138.7936590437
 20
105.1258018923
 11
161.2936590437
 21
105.1258018923
  0
LINE
  5
35A
100
AcDbEntity
  8
ASSI
100
AcDbLine
 62
253
  6
CONTINUOUS
 10
138.7936590437
 20
105.1258018923
 11
161.2936590437
 21
105.1258018923
  0
LINE
  5
35B
100
AcDbEntity
  8
0
100
AcDbLine
 62
253
  6
CONTINUOUS
 10
161.2936590437
 20
105.1258018923
 11
172.0240191949
 21
105.12153197
  0
LINE
  5
35C
100
AcDbEntity
  8
ASSI
100
AcDbLine
 62
253
  6
CONTINUOUS
 10
161.2936590437
 20
105.1258018923
 11
172.0240191949
 21
105.12153197
  0
LWPOLYLINE
  5
35D
100
AcDbEntity
  8
0
100
AcDbPolyline
 62
253
  6
CONTINUOUS
 90
4
 70
0
 10
172.0240191949
 20
105.12153197
 10
172.1651874968
 20
105.1211440225
 10
172.1735177314
 20
105.1210706457
 10
172.1771536462
 20
105.1209965682
  0
LWPOLYLINE
  5
35E
100
AcDbEntity
  8
ASSI
100
AcDbPolyline
 62
253
  6
CONTINUOUS
 90
4
 70
0
 10
172.0240191949
 20
105.12153197
 10
172.1651874968
 20
105.1211440225
 10
172.1735177314
 20
105.1210706457
 10
172.1771536462
 20
105.1209965682
  0
LINE
  5
35F
100
AcDbEntity
  8
0
100
AcDbLine
 62
7
  6
CONTINUOUS
 10
169.5436590437
 20
104.6087169859
 11
169.8061250342
 21
104.5825363825
  0
LINE
  5
360
100
AcDbEntity
  8
ASSI
100
AcDbLine
 62
7
  6
CONTINUOUS
 10
169.5436590437
 20
104.6087169859
 11
169.8061250342
 21
104.5825363825
  0
LWPOLYLINE
  5
361
100
AcDbEntity
  8
0
100
AcDbPolyline
 62
253
  6
CONTINUOUS
 90
13
 70
0
 10
151.9512622196
 20
117.0153913994
 10
151.9598921056
 20
116.9212309275
 10
151.9677734162
 20
116.8270065607
 10
151.9749057147
 20
116.7327245175
 10
151.9812885648
 20
116.6383910168
 10
151.9869215651
 20
116.5440120974
 10
151.9918044554
 20
116.4495930789
 10
151.9959370108
 20
116.3551391012
 10
151.9993190063
 20
116.2606553039
 10
152.0019502351
 20
116.1661470093
 10
152.0038305622
 20
116.0716202685
 10
152.0049598707
 20
115.977081315
 10
152.0053380437
 20
115.8825363825
  0
LWPOLYLINE
  5
362
100
AcDbEntity
  8
0
100
AcDbPolyline
 62
253
  6
CONTINUOUS
 90
35
 70
0
 10
151.9512612958
 20
91.7496814539
 10
151.9480822824
 20
91.7195482083
 10
151.9443153272
 20
91.689527717
 10
151.9399685939
 20
91.6596146676
 10
151.9350502462
 20
91.6298037478
 10
151.9295684478
 20
91.6000896453
 10
151.9235313384
 20
91.5704700659
 10
151.9169469623
 20
91.540954788
 10
151.90982334
 20
91.5115566079
 10
151.9021684917
 20
91.4822883223
 10
151.8939904379
 20
91.4531627275
 10
151.8852966947
 20
91.4241915041
 10
151.8760927613
 20
91.3953818687
 10
151.8663836328
 20
91.3667399222
 10
151.8561743042
 20
91.3382717653
 10
151.8454697705
 20
91.3099834988
 10
151.8313999951
 20
91.2748864353
 10
151.8165720087
 20
91.2400979261
 10
151.8009935536
 20
91.2056359144
 10
151.7846723721
 20
91.1715183433
 10
151.771085307
 20
91.1444840605
 10
151.7570284575
 20
91.1176892042
 10
151.742502429
 20
91.0911412752
 10
151.727507827
 20
91.0648477743
 10
151.712045257
 20
91.0388162024
 10
151.6961160145
 20
91.0130554688
 10
151.6797241568
 20
90.9875801165
 10
151.6628744312
 20
90.9624060969
 10
151.6455715851
 20
90.9375493616
 10
151.6278203659
 20
90.913025862
 10
151.6096231067
 20
90.888849223
 10
151.5909724834
 20
90.8650237633
 10
151.5718587574
 20
90.8415514752
 10
151.5522721903
 20
90.8184343509
 10
151.5322030437
 20
90.7956743825
  0
LWPOLYLINE
  5
363
100
AcDbEntity
  8
0
100
AcDbPolyline
 62
253
  6
CONTINUOUS
 90
35
 70
0
 10
148.5551144851
 20
94.969398885
 10
148.5350725144
 20
94.9466702459
 10
148.5155115789
 20
94.9235850533
 10
148.4964222355
 20
94.9001457447
 10
148.4777950409
 20
94.876354758
 10
148.4596205518
 20
94.8522145306
 10
148.4418915606
 20
94.8277295184
 10
148.424609802
 20
94.8029122489
 10
148.4077792461
 20
94.7777772681
 10
148.3914038634
 20
94.7523391215
 10
148.3754876241
 20
94.7266123549
 10
148.3600340198
 20
94.7006103877
 10
148.345044628
 20
94.6743421337
 10
148.3305205476
 20
94.6478153801
 10
148.3164628774
 20
94.6210379144
 10
148.3028727162
 20
94.594017524
 10
148.286545094
 20
94.5599127226
 10
148.2709576413
 20
94.5254583458
 10
148.2561183279
 20
94.4906722204
 10
148.2420351235
 20
94.455572173
 10
148.2313184866
 20
94.4272774913
 10
148.2210959761
 20
94.3987988379
 10
148.211372708
 20
94.3701417418
 10
148.2021537983
 20
94.3413117322
 10
148.1934443631
 20
94.3123143382
 10
148.1852500877
 20
94.2831565484
 10
148.1775789352
 20
94.253851189
 10
148.170439438
 20
94.2244125458
 10
148.1638401286
 20
94.1948549046
 10
148.1577895395
 20
94.165192551
 10
148.1522961231
 20
94.1354364211
 10
148.1473680123
 20
94.105584052
 10
148.1430132602
 20
94.0756296309
 10
148.1392399197
 20
94.0455673454
 10
148.1360560437
 20
94.0153913825
  0
LWPOLYLINE
  5
364
100
AcDbEntity
  8
0
100
AcDbPolyline
 62
253
  6
CONTINUOUS
 90
55
 70
0
 10
148.5551150437
 20
94.9693983825
 10
148.5974079017
 20
95.0149742448
 10
148.6411263417
 20
95.059252378
 10
148.6862471631
 20
95.1021942679
 10
148.7327471653
 20
95.1437614002
 10
148.7806031478
 20
95.1839152605
 10
148.8297919099
 20
95.2226173344
 10
148.8802773628
 20
95.259825716
 10
148.9319718638
 20
95.2954849324
 10
148.9847748819
 20
95.3295361193
 10
149.0385858862
 20
95.3619204122
 10
149.0933043456
 20
95.3925789467
 10
149.1488297293
 20
95.4214528584
 10
149.2050718996
 20
95.448493135
 10
149.2619822929
 20
95.4736901734
 10
149.319522739
 20
95.4970442227
 10
149.3776550678
 20
95.5185555319
 10
149.4363411091
 20
95.5382243503
 10
149.4955426926
 20
95.5560509269
 10
149.5552194697
 20
95.5720339479
 10
149.6153223778
 20
95.5861658477
 10
149.6758001756
 20
95.5984374979
 10
149.736601622
 20
95.60883977
 10
149.7976754759
 20
95.6173635356
 10
149.8589704961
 20
95.6239996663
 10
149.9204344589
 20
95.6287406022
 10
149.9820112097
 20
95.6315850585
 10
150.0436436117
 20
95.6325333191
 10
150.1052745279
 20
95.6315856676
 10
150.1668468212
 20
95.6287423878
 10
150.2283033547
 20
95.6240037637
 10
150.2895883923
 20
95.6173713871
 10
150.3506518022
 20
95.6088520827
 10
150.4114448535
 20
95.5984539834
 10
150.4719188154
 20
95.5861852221
 10
150.5320249569
 20
95.5720539315
 10
150.5917145473
 20
95.5560682446
 10
150.6509402254
 20
95.5382348781
 10
150.709660109
 20
95.5185548849
 10
150.7678336856
 20
95.4970279015
 10
150.8254204426
 20
95.4736535648
 10
150.8823798676
 20
95.4484315114
 10
150.9386714481
 20
95.421361378
 10
150.9942441936
 20
95.3924532134
 10
151.049005202
 20
95.3617587142
 10
151.1028510932
 20
95.3293399892
 10
151.155678487
 20
95.295259147
 10
151.2073840034
 20
95.2595782965
 10
151.2578642622
 20
95.2223595463
 10
151.3070296653
 20
95.1836611586
 10
151.3548457431
 20
95.1435260092
 10
151.4012918075
 20
95.1019931276
 10
151.446347171
 20
95.059101543
 10
151.4899911456
 20
95.0148902849
 10
151.5322030437
 20
94.9693983825
  0
LWPOLYLINE
  5
365
100
AcDbEntity
  8
SUPERFICI
100
AcDbPolyline
 62
7
  6
CONTINUOUS
 90
43
 70
0
 10
152.3623410221
 20
107.9032889606
 10
152.4302122299
 20
107.9104016917
 10
152.4971840552
 20
107.9221917803
 10
152.5635951644
 20
107.9387549592
 10
152.6291068912
 20
107.9599954883
 10
152.6927032368
 20
107.9856261546
 10
152.7543722244
 20
108.0157488424
 10
152.8141258307
 20
108.0502616512
 10
152.8709839881
 20
108.0885716895
 10
152.924820088
 20
108.130667321
 10
152.9757607388
 20
108.1765601597
 10
153.0232056976
 20
108.2256921896
 10
153.0671837691
 20
108.2782041471
 10
153.1076661485
 20
108.3339552691
 10
153.1439661784
 20
108.3919652942
 10
153.1759524101
 20
108.4521209644
 10
153.2037562923
 20
108.5145355134
 10
153.2270855137
 20
108.5785684224
 10
153.2459337978
 20
108.6444217774
 10
153.2603074212
 20
108.7118934694
 10
153.269932902
 20
108.7797366959
 10
153.2747203382
 20
108.8477788082
 10
153.2747596318
 20
108.9161924451
 10
153.2700470068
 20
108.9842487462
 10
153.2604949175
 20
109.0521162122
 10
153.2461909097
 20
109.1196263396
 10
153.2273938448
 20
109.1855447739
 10
153.20408027
 20
109.2496964196
 10
153.1762736383
 20
109.3122563865
 10
153.1443031693
 20
109.3725156393
 10
153.1080665102
 20
109.4305403041
 10
153.0676660138
 20
109.4862642771
 10
153.0237379592
 20
109.538780187
 10
152.9762757183
 20
109.5879895191
 10
152.9252859192
 20
109.6339908194
 10
152.8714247241
 20
109.6761723148
 10
152.8146067759
 20
109.7145157511
 10
152.7549174319
 20
109.7490394143
 10
152.6932689257
 20
109.7791863451
 10
152.6296045317
 20
109.8048766256
 10
152.5639809755
 20
109.8261902014
 10
152.4974806684
 20
109.8428099077
 10
152.4304644141
 20
109.8546300287
  0
LINE
  5
366
100
AcDbEntity
  8
SUPERFICI
100
AcDbLine
 62
7
  6
CONTINUOUS
 10
152.2935704319
 20
107.9008535887
 11
152.3623410221
 21
107.9032889606
  0
LINE
  5
367
100
AcDbEntity
  8
0
100
AcDbLine
 62
7
  6
CONTINUOUS
 10
152.2936518473
 20
107.9008621236
 11
147.7936662511
 21
107.9008535883
  0
LINE
  5
368
100
AcDbEntity
  8
ASSI
100
AcDbLine
 62
7
  6
CONTINUOUS
 10
152.2936518473
 20
107.9008621236
 11
147.7936662511
 21
107.9008535883
  0
LINE
  5
369
100
AcDbEntity
  8
SUPERFICI
100
AcDbLine
 62
7
  6
CONTINUOUS
 10
147.7937475049
 20
107.9008535887
 11
152.2935704319
 21
107.9008535887
  0
LINE
  5
36A
100
AcDbEntity
  8
0
100
AcDbLine
 62
7
  6
CONTINUOUS
 10
147.7936468713
 20
109.8642023991
 11
152.2936712345
 21
109.8641887188
  0
LINE
  5
36B
100
AcDbEntity
  8
ASSI
100
AcDbLine
 62
7
  6
CONTINUOUS
 10
147.7936468713
 20
109.8642023991
 11
152.2936712345
 21
109.8641887188
  0
LINE
  5
36C
100
AcDbEntity
  8
SUPERFICI
100
AcDbLine
 62
7
  6
CONTINUOUS
 10
152.2938016525
 20
109.8641887178
 11
147.793516317
 21
109.8641887178
  0
LWPOLYLINE
  5
36D
100
AcDbEntity
  8
0
100
AcDbPolyline
 62
7
  6
CONTINUOUS
 90
40
 70
0
 10
147.7936662511
 20
107.9008535883
 10
147.7143739214
 20
107.9041621424
 10
147.6365686442
 20
107.9135487976
 10
147.5602504198
 20
107.929013551
 10
147.4849877178
 20
107.9507030758
 10
147.4112120684
 20
107.9784706855
 10
147.3402180624
 20
108.0118763353
 10
147.2719639413
 20
108.0510755476
 10
147.2064914635
 20
108.0959127721
 10
147.1452204959
 20
108.1454813522
 10
147.0883278905
 20
108.1997915788
 10
147.0356367952
 20
108.2588331238
 10
146.9880365204
 20
108.321668405
 10
146.9455175025
 20
108.3885059516
 10
146.9080893051
 20
108.4591371917
 10
146.8766699289
 20
108.5319989003
 10
146.8514526355
 20
108.6069979337
 10
146.8322441634
 20
108.6842274015
 10
146.8193827288
 20
108.7624034723
 10
146.812977476
 20
108.8417175212
 10
146.8129192606
 20
108.92197815
 10
146.8192188655
 20
109.0013273875
 10
146.8319868522
 20
109.0795803605
 10
146.8511126591
 20
109.1569219459
 10
146.8762753837
 20
109.2320488205
 10
146.9076788317
 20
109.3050558568
 10
146.9451191975
 20
109.3758482045
 10
146.987664162
 20
109.442837976
 10
147.0352991442
 20
109.5058123977
 10
147.088038725
 20
109.5649842879
 10
147.144994328
 20
109.6194041617
 10
147.2063555108
 20
109.6690573567
 10
147.2719327157
 20
109.7139585847
 10
147.3402686931
 20
109.7532024293
 10
147.4113094487
 20
109.7866296327
 10
147.4851089768
 20
109.8143994982
 10
147.5603720098
 20
109.8360844528
 10
147.636666792
 20
109.8515419818
 10
147.7144250792
 20
109.8609146278
 10
147.7936468713
 20
109.8642023991
  0
LWPOLYLINE
  5
36E
100
AcDbEntity
  8
ASSI
100
AcDbPolyline
 62
7
  6
CONTINUOUS
 90
40
 70
0
 10
147.7936662511
 20
107.9008535883
 10
147.7143739214
 20
107.9041621424
 10
147.6365686442
 20
107.9135487976
 10
147.5602504198
 20
107.929013551
 10
147.4849877178
 20
107.9507030758
 10
147.4112120684
 20
107.9784706855
 10
147.3402180624
 20
108.0118763353
 10
147.2719639413
 20
108.0510755476
 10
147.2064914635
 20
108.0959127721
 10
147.1452204959
 20
108.1454813522
 10
147.0883278905
 20
108.1997915788
 10
147.0356367952
 20
108.2588331238
 10
146.9880365204
 20
108.321668405
 10
146.9455175025
 20
108.3885059516
 10
146.9080893051
 20
108.4591371917
 10
146.8766699289
 20
108.5319989003
 10
146.8514526355
 20
108.6069979337
 10
146.8322441634
 20
108.6842274015
 10
146.8193827288
 20
108.7624034723
 10
146.812977476
 20
108.8417175212
 10
146.8129192606
 20
108.92197815
 10
146.8192188655
 20
109.0013273875
 10
146.8319868522
 20
109.0795803605
 10
146.8511126591
 20
109.1569219459
 10
146.8762753837
 20
109.2320488205
 10
146.9076788317
 20
109.3050558568
 10
146.9451191975
 20
109.3758482045
 10
146.987664162
 20
109.442837976
 10
147.0352991442
 20
109.5058123977
 10
147.088038725
 20
109.5649842879
 10
147.144994328
 20
109.6194041617
 10
147.2063555108
 20
109.6690573567
 10
147.2719327157
 20
109.7139585847
 10
147.3402686931
 20
109.7532024293
 10
147.4113094487
 20
109.7866296327
 10
147.4851089768
 20
109.8143994982
 10
147.5603720098
 20
109.8360844528
 10
147.636666792
 20
109.8515419818
 10
147.7144250792
 20
109.8609146278
 10
147.7936468713
 20
109.8642023991
  0
LWPOLYLINE
  5
36F
100
AcDbEntity
  8
0
100
AcDbPolyline
 62
253
  6
CONTINUOUS
 90
55
 70
0
 10
149.0011790437
 20
94.5681173825
 10
149.0298018685
 20
94.598994512
 10
149.0593413317
 20
94.6290072383
 10
149.0897803694
 20
94.6581318304
 10
149.1211019177
 20
94.6863445569
 10
149.1532889128
 20
94.7136216867
 10
149.186324291
 20
94.7399394886
 10
149.2201909884
 20
94.7652742315
 10
149.2548643282
 20
94.7896010636
 10
149.2902891816
 20
94.8128906514
 10
149.3264028068
 20
94.8351125407
 10
149.3631424621
 20
94.8562362775
 10
149.4004454058
 20
94.8762314077
 10
149.438248896
 20
94.8950674773
 10
149.4764901909
 20
94.912714032
 10
149.5151147967
 20
94.9291462057
 10
149.5541012104
 20
94.9443614828
 10
149.593436177
 20
94.9583629358
 10
149.6331064414
 20
94.971153637
 10
149.6730987486
 20
94.9827366587
 10
149.7133998436
 20
94.9931150733
 10
149.7539964712
 20
95.0022919532
 10
149.8017074545
 20
95.011480986
 10
149.8497360867
 20
95.0190267397
 10
149.8980158051
 20
95.024917176
 10
149.9464800473
 20
95.0291402564
 10
149.995062251
 20
95.0316839423
 10
150.0436958536
 20
95.0325361953
 10
150.0923157306
 20
95.0316890074
 10
150.140862509
 20
95.0291504934
 10
150.1892782536
 20
95.0249327983
 10
150.2375050291
 20
95.0190480673
 10
150.2854849006
 20
95.0115084458
 10
150.3331599327
 20
95.0023260788
 10
150.3737413637
 20
94.9931551622
 10
150.4140417476
 20
94.982781714
 10
150.4540465656
 20
94.9712011946
 10
150.4937412988
 20
94.9584090643
 10
150.5331114283
 20
94.9444007836
 10
150.5721424353
 20
94.9291718128
 10
150.6108198009
 20
94.9127176124
 10
150.6491202979
 20
94.8950400197
 10
150.6869858667
 20
94.8761663803
 10
150.7243497391
 20
94.8561304169
 10
150.7611451472
 20
94.8349658521
 10
150.7973053228
 20
94.8127064085
 10
150.8327634981
 20
94.7893858086
 10
150.8674529048
 20
94.7650377751
 10
150.9013155049
 20
94.739694431
 10
150.9343281793
 20
94.7133814998
 10
150.9664765388
 20
94.6861231059
 10
150.9977461942
 20
94.6579433731
 10
151.0281227562
 20
94.6288664256
 10
151.0575918358
 20
94.5989163874
 10
151.0861390437
 20
94.5681173825
  0
LINE
  5
370
100
AcDbEntity
  8
0
100
AcDbLine
 62
253
  6
CONTINUOUS
 10
171.7927861056
 20
104.1825363825
 11
171.6773249819
 21
104.1440571578
  0
LINE
  5
371
100
AcDbEntity
  8
ASSI
100
AcDbLine
 62
253
  6
CONTINUOUS
 10
171.7927861056
 20
104.1825363825
 11
171.6773249819
 21
104.1440571578
  0
LINE
  5
372
100
AcDbEntity
  8
0
100
AcDbLine
 62
253
  6
CONTINUOUS
 10
172.2928432456
 20
103.6826315647
 11
172.1771536444
 21
103.6440761963
  0
LINE
  5
373
100
AcDbEntity
  8
ASSI
100
AcDbLine
 62
253
  6
CONTINUOUS
 10
172.2928432456
 20
103.6826315647
 11
172.1771536444
 21
103.6440761963
  0
LWPOLYLINE
  5
374
100
AcDbEntity
  8
SUPERFICI
100
AcDbPolyline
 62
7
  6
CONTINUOUS
 90
46
 70
0
 10
147.793516317
 20
109.8641887178
 10
147.7248409554
 20
109.8617618045
 10
147.6570417687
 20
109.8546554015
 10
147.5901187571
 20
109.8428695036
 10
147.5237255029
 20
109.8263074997
 10
147.4582084237
 20
109.8050659843
 10
147.3946067726
 20
109.7794347589
 10
147.3329403944
 20
109.7493128255
 10
147.2731894443
 20
109.7148011543
 10
147.2163336414
 20
109.6764924986
 10
147.1624995239
 20
109.634398507
 10
147.1115605536
 20
109.5885074992
 10
147.0641168351
 20
109.5393772383
 10
147.0201394931
 20
109.4868669998
 10
146.9796574029
 20
109.4311174765
 10
146.9433572946
 20
109.373108565
 10
146.9113705245
 20
109.3129533597
 10
146.8835657364
 20
109.2505387446
 10
146.8602355915
 20
109.1865053102
 10
146.8413864091
 20
109.1206507585
 10
146.82701187
 20
109.0531773727
 10
146.8173856784
 20
108.9853326259
 10
146.8125978764
 20
108.9172893285
 10
146.8125584218
 20
108.8488746727
 10
146.8172708928
 20
108.7808177166
 10
146.8268227808
 20
108.7129501654
 10
146.8411265944
 20
108.6454403237
 10
146.8599234368
 20
108.5795221586
 10
146.8832366953
 20
108.51537075
 10
146.9110429828
 20
108.4528110407
 10
146.9430132414
 20
108.3925518019
 10
146.9792498054
 20
108.3345268508
 10
147.0196503406
 20
108.2788023949
 10
147.0635787872
 20
108.2262857957
 10
147.1110418472
 20
108.1770755311
 10
147.1620328187
 20
108.1310731495
 10
147.2158955354
 20
108.0888906215
 10
147.2727154597
 20
108.0505462274
 10
147.3324071293
 20
108.0160217093
 10
147.394057991
 20
107.9858742307
 10
147.4577169561
 20
107.9601846408
 10
147.5233351134
 20
107.9388721068
 10
147.5898531756
 20
107.9222512675
 10
147.6569180471
 20
107.9104270051
 10
147.7248828235
 20
107.903294445
 10
147.7937475049
 20
107.9008535887
  0
LWPOLYLINE
  5
375
100
AcDbEntity
  8
0
100
AcDbPolyline
 62
7
  6
CONTINUOUS
 90
40
 70
0
 10
152.2936712345
 20
109.8641887188
 10
152.372961533
 20
109.8608887431
 10
152.4507650475
 20
109.8515083462
 10
152.527081778
 20
109.8360475198
 10
152.6023432818
 20
109.8143587828
 10
152.6761180015
 20
109.7865895884
 10
152.7471112652
 20
109.7531823254
 10
152.8153648234
 20
109.7139822635
 10
152.8808369255
 20
109.6691440877
 10
152.9421076476
 20
109.6195743115
 10
152.9990002251
 20
109.5652625012
 10
153.0516914225
 20
109.5062190414
 10
153.0992916105
 20
109.4433816799
 10
153.1418103025
 20
109.3765417349
 10
153.1792379849
 20
109.3059078438
 10
153.2106564875
 20
109.2330437477
 10
153.2358724379
 20
109.1580426034
 10
153.2550792085
 20
109.0808112317
 10
153.2679387461
 20
109.0026338901
 10
153.2743418179
 20
108.9233193454
 10
153.2743976568
 20
108.8430588267
 10
153.2680959089
 20
108.7637103067
 10
153.2553261032
 20
108.6854588366
 10
153.2361987107
 20
108.608119388
 10
153.2110347904
 20
108.5329948351
 10
153.1796306455
 20
108.4599903692
 10
153.1421899728
 20
108.3892008328
 10
153.0996449219
 20
108.3222135918
 10
153.0520101322
 20
108.2592413592
 10
152.9992709643
 20
108.2000714648
 10
152.9423156493
 20
108.1456532091
 10
152.8809545671
 20
108.0960011986
 10
152.8153773378
 20
108.0511008644
 10
152.7470410525
 20
108.0118577459
 10
152.6759997599
 20
107.9784311134
 10
152.6021994113
 20
107.9506617248
 10
152.5269349513
 20
107.9289773489
 10
152.4506380281
 20
107.9135205801
 10
152.3728769934
 20
107.9041488374
 10
152.2936518473
 20
107.9008621236
  0
LWPOLYLINE
  5
376
100
AcDbEntity
  8
ASSI
100
AcDbPolyline
 62
7
  6
CONTINUOUS
 90
40
 70
0
 10
152.2936712345
 20
109.8641887188
 10
152.372961533
 20
109.8608887431
 10
152.4507650475
 20
109.8515083462
 10
152.527081778
 20
109.8360475198
 10
152.6023432818
 20
109.8143587828
 10
152.6761180015
 20
109.7865895884
 10
152.7471112652
 20
109.7531823254
 10
152.8153648234
 20
109.7139822635
 10
152.8808369255
 20
109.6691440877
 10
152.9421076476
 20
109.6195743115
 10
152.9990002251
 20
109.5652625012
 10
153.0516914225
 20
109.5062190414
 10
153.0992916105
 20
109.4433816799
 10
153.1418103025
 20
109.3765417349
 10
153.1792379849
 20
109.3059078438
 10
153.2106564875
 20
109.2330437477
 10
153.2358724379
 20
109.1580426034
 10
153.2550792085
 20
109.0808112317
 10
153.2679387461
 20
109.0026338901
 10
153.2743418179
 20
108.9233193454
 10
153.2743976568
 20
108.8430588267
 10
153.2680959089
 20
108.7637103067
 10
153.2553261032
 20
108.6854588366
 10
153.2361987107
 20
108.608119388
 10
153.2110347904
 20
108.5329948351
 10
153.1796306455
 20
108.4599903692
 10
153.1421899728
 20
108.3892008328
 10
153.0996449219
 20
108.3222135918
 10
153.0520101322
 20
108.2592413592
 10
152.9992709643
 20
108.2000714648
 10
152.9423156493
 20
108.1456532091
 10
152.8809545671
 20
108.0960011986
 10
152.8153773378
 20
108.0511008644
 10
152.7470410525
 20
108.0118577459
 10
152.6759997599
 20
107.9784311134
 10
152.6021994113
 20
107.9506617248
 10
152.5269349513
 20
107.9289773489
 10
152.4506380281
 20
107.9135205801
 10
152.3728769934
 20
107.9041488374
 10
152.2936518473
 20
107.9008621236
  0
LWPOLYLINE
  5
377
100
AcDbEntity
  8
SUPERFICI
100
AcDbPolyline
 62
7
  6
CONTINUOUS
 90
3
 70
0
 10
152.4304644141
 20
109.8546300287
 10
152.3625714088
 20
109.8617562971
 10
152.2938016525
 20
109.8641887178
  0
LINE
  5
378
100
AcDbEntity
  8
0
100
AcDbLine
 62
253
  6
CONTINUOUS
 10
171.6773249827
 20
104.621015607
 11
171.7927861056
 21
104.5825363825
  0
LINE
  5
379
100
AcDbEntity
  8
ASSI
100
AcDbLine
 62
253
  6
CONTINUOUS
 10
171.6773249827
 20
104.621015607
 11
171.7927861056
 21
104.5825363825
  0
LINE
  5
37A
100
AcDbEntity
  8
0
100
AcDbLine
 62
253
  6
CONTINUOUS
 10
172.1771536462
 20
105.1209965682
 11
172.2928432456
 21
105.0824412003
  0
LINE
  5
37B
100
AcDbEntity
  8
ASSI
100
AcDbLine
 62
253
  6
CONTINUOUS
 10
172.1771536462
 20
105.1209965682
 11
172.2928432456
 21
105.0824412003
  0
LWPOLYLINE
  5
37C
100
AcDbEntity
  8
0
100
AcDbPolyline
 62
253
  6
CONTINUOUS
 90
35
 70
0
 10
149.0011790437
 20
114.1969553825
 10
148.9883629419
 20
114.2114887344
 10
148.9758562186
 20
114.2262483497
 10
148.9636529253
 20
114.2412321869
 10
148.9517471131
 20
114.2564382044
 10
148.9401328336
 20
114.2718643605
 10
148.9288054285
 20
114.2875075746
 10
148.9177654024
 20
114.3033606096
 10
148.9070145501
 20
114.3194151894
 10
148.8965546666
 20
114.335663038
 10
148.8863875469
 20
114.3520958791
 10
148.8765148466
 20
114.3687059376
 10
148.8669376638
 20
114.3854874419
 10
148.8576569574
 20
114.4024351211
 10
148.8486736862
 20
114.4195437047
 10
148.8399888089
 20
114.4368079219
 10
148.8295543077
 20
114.458598894
 10
148.8195925274
 20
114.4806137369
 10
148.81010845
 20
114.5028413796
 10
148.8011070577
 20
114.5252707511
 10
148.7942569548
 20
114.5433523987
 10
148.7877222885
 20
114.5615524728
 10
148.7815063881
 20
114.5798673787
 10
148.7756125832
 20
114.5982935219
 10
148.7700442032
 20
114.6168273079
 10
148.7648049291
 20
114.6354642956
 10
148.7598998479
 20
114.6541966567
 10
148.755334398
 20
114.6730157164
 10
148.7511140181
 20
114.6919127998
 10
148.7472441464
 20
114.7108792322
 10
148.7437302061
 20
114.7299083815
 10
148.7405775576
 20
114.7490017869
 10
148.7377915459
 20
114.7681630305
 10
148.7353775159
 20
114.7873956943
 10
148.7333408127
 20
114.8067033605
  0
LINE
  5
37D
100
AcDbEntity
  8
0
100
AcDbLine
 62
253
  6
CONTINUOUS
 10
171.7064968803
 20
126.4069268266
 11
171.7726084326
 21
126.5392406592
  0
LINE
  5
37E
100
AcDbEntity
  8
ASSI
100
AcDbLine
 62
253
  6
CONTINUOUS
 10
171.7064968803
 20
126.4069268266
 11
171.7726084326
 21
126.5392406592
  0
LINE
  5
37F
100
AcDbEntity
  8
0
100
AcDbLine
 62
253
  6
CONTINUOUS
 10
172.2063255428
 20
125.9076120592
 11
172.2732348542
 21
126.0415225049
  0
LINE
  5
380
100
AcDbEntity
  8
ASSI
100
AcDbLine
 62
253
  6
CONTINUOUS
 10
172.2063255428
 20
125.9076120592
 11
172.2732348542
 21
126.0415225049
  0
LWPOLYLINE
  5
381
100
AcDbEntity
  8
0
100
AcDbPolyline
 62
253
  6
CONTINUOUS
 90
35
 70
0
 10
151.0861390437
 20
91.1969553825
 10
151.0989553823
 20
91.2114890084
 10
151.111462292
 20
91.2262488593
 10
151.1236657249
 20
91.2412328919
 10
151.1355716331
 20
91.2564390628
 10
151.1471859688
 20
91.2718653289
 10
151.1585133938
 20
91.2875086084
 10
151.1695534089
 20
91.3033616675
 10
151.1803042245
 20
91.3194162339
 10
151.190764051
 20
91.3356640354
 10
151.2009310988
 20
91.3520967999
 10
151.2108037172
 20
91.3687067559
 10
151.2203808113
 20
91.3854881354
 10
151.2296614249
 20
91.4024356709
 10
151.2386446019
 20
91.4195440952
 10
151.2473293862
 20
91.4368081408
 10
151.2577637766
 20
91.4585988866
 10
151.2677254552
 20
91.4806134971
 10
151.2772094429
 20
91.5028409089
 10
151.2862107604
 20
91.5252700585
 10
151.2930608158
 20
91.5433515404
 10
151.2995954462
 20
91.5615514627
 10
151.3058113221
 20
91.5798662346
 10
151.311705114
 20
91.5982922647
 10
151.3172734927
 20
91.6168259621
 10
151.3225127769
 20
91.6354628891
 10
151.3274178788
 20
91.6541952224
 10
151.3319833586
 20
91.6730142919
 10
151.3362037768
 20
91.6919114279
 10
151.3400736937
 20
91.7108779602
 10
151.343587685
 20
91.729907261
 10
151.346740387
 20
91.7490008698
 10
151.3495264515
 20
91.7681623683
 10
151.3519405302
 20
91.787395338
 10
151.3539772746
 20
91.8067033605
  0
LWPOLYLINE
  5
382
100
AcDbEntity
  8
0
100
AcDbPolyline
 62
253
  6
CONTINUOUS
 90
55
 70
0
 10
151.0861390437
 20
91.1969553825
 10
151.0575107845
 20
91.1660725355
 10
151.0279661911
 20
91.1360550207
 10
150.9975223614
 20
91.1069265238
 10
150.9661963933
 20
91.0787107307
 10
150.9340053847
 20
91.0514313274
 10
150.9009664335
 20
91.0251119997
 10
150.8670966376
 20
90.9997764333
 10
150.8324207107
 20
90.9754494246
 10
150.7969938294
 20
90.9521602107
 10
150.7608787862
 20
90.9299391394
 10
150.7241383737
 20
90.9088165582
 10
150.6868353842
 20
90.8888228147
 10
150.6490326103
 20
90.8699882565
 10
150.6107928444
 20
90.8523432313
 10
150.5721705347
 20
90.8359125187
 10
150.5331867521
 20
90.8206986269
 10
150.4938542231
 20
90.8066984959
 10
150.4541856744
 20
90.7939090662
 10
150.4141938325
 20
90.7823272777
 10
150.3738914241
 20
90.7719500707
 10
150.3332911757
 20
90.7627743855
 10
150.285572794
 20
90.7535867346
 10
150.2375347469
 20
90.7460423091
 10
150.1892454401
 20
90.7401530946
 10
150.1407732792
 20
90.7359310768
 10
150.0921866699
 20
90.7333882411
 10
150.0435540178
 20
90.7325365732
 10
149.99494166
 20
90.7333840348
 10
149.9464076591
 20
90.7359224917
 10
149.8980080093
 20
90.7401397857
 10
149.8497987047
 20
90.7460237587
 10
149.8018357395
 20
90.7535622526
 10
149.7541751077
 20
90.7627431093
 10
149.7136028396
 20
90.7719124278
 10
149.6733088419
 20
90.7822840444
 10
149.6333081241
 20
90.7938625558
 10
149.5936156956
 20
90.8066525588
 10
149.5542465658
 20
90.8206586499
 10
149.5152157441
 20
90.835885426
 10
149.4765382398
 20
90.8523374837
 10
149.4382376637
 20
90.8700130469
 10
149.400372031
 20
90.888884848
 10
149.3630079583
 20
90.9089192465
 10
149.3262120621
 20
90.9300826019
 10
149.2900509591
 20
90.9523412739
 10
149.2545912658
 20
90.9756616218
 10
149.2198995987
 20
91.0000100053
 10
149.186033888
 20
91.0253543802
 10
149.1530173188
 20
91.0516690868
 10
149.1208643895
 20
91.078930062
 10
149.0895895987
 20
91.1071132424
 10
149.0592074451
 20
91.1361945648
 10
149.0297324272
 20
91.166149966
 10
149.0011790437
 20
91.1969553825
  0
LWPOLYLINE
  5
383
100
AcDbEntity
  8
0
100
AcDbPolyline
 62
253
  6
CONTINUOUS
 90
55
 70
0
 10
151.5322030437
 20
90.7956743825
 10
151.48989876
 20
90.750086576
 10
151.4461695103
 20
90.7057985336
 10
151.4010386076
 20
90.6628486516
 10
151.3545293651
 20
90.6212753263
 10
151.3066650962
 20
90.5811169541
 10
151.2574691139
 20
90.5424119312
 10
151.2069776067
 20
90.5052020352
 10
151.155278264
 20
90.4695425687
 10
151.10247165
 20
90.4354922155
 10
151.0486583293
 20
90.4031096593
 10
150.9939388663
 20
90.372453584
 10
150.9384138255
 20
90.3435826735
 10
150.8821733043
 20
90.3165457656
 10
150.8252655316
 20
90.2913523152
 10
150.7677282693
 20
90.268001931
 10
150.7095992794
 20
90.246494222
 10
150.6509163237
 20
90.2268287971
 10
150.5917171641
 20
90.2090052652
 10
150.5320418752
 20
90.1930248389
 10
150.4719397818
 20
90.1788951457
 10
150.4114625213
 20
90.166625417
 10
150.3506617311
 20
90.156224884
 10
150.2895890487
 20
90.1477027781
 10
150.2282961115
 20
90.1410683306
 10
150.1668354796
 20
90.136329155
 10
150.1052634035
 20
90.1334863937
 10
150.0436370564
 20
90.1325395713
 10
149.9820136114
 20
90.1334882125
 10
149.9204502418
 20
90.1363318419
 10
149.8590041208
 20
90.1410699842
 10
149.7977309079
 20
90.147700915
 10
149.7366802094
 20
90.1562179138
 10
149.6759001176
 20
90.166613011
 10
149.6154387252
 20
90.1788782373
 10
149.5553441246
 20
90.1930056231
 10
149.4956644084
 20
90.208987199
 10
149.436446449
 20
90.2268163946
 10
149.3777322373
 20
90.2464922367
 10
149.3195625444
 20
90.2680151512
 10
149.261978141
 20
90.2913855643
 10
149.205019798
 20
90.3166039017
 10
149.1487282863
 20
90.3436705895
 10
149.0931547923
 20
90.3725756656
 10
149.0383921642
 20
90.4032676159
 10
148.984543666
 20
90.4356845383
 10
148.9317125614
 20
90.4697645305
 10
148.8800021142
 20
90.5054456906
 10
148.8295155883
 20
90.5426661162
 10
148.7803425136
 20
90.581367737
 10
148.7325174849
 20
90.6215078096
 10
148.6860613627
 20
90.6630474222
 10
148.640995008
 20
90.705947663
 10
148.5973392813
 20
90.7501696204
 10
148.5551150437
 20
90.7956743825
  0
LWPOLYLINE
  5
384
100
AcDbEntity
  8
0
100
AcDbPolyline
 62
253
  6
CONTINUOUS
 90
35
 70
0
 10
151.5322036022
 20
117.969398885
 10
151.5522459284
 20
117.946669835
 10
151.5718071375
 20
117.9235842968
 10
151.5908966795
 20
117.9001447089
 10
151.6095240046
 20
117.8763535102
 10
151.6276985629
 20
117.8522131393
 10
151.6454275692
 20
117.8277280518
 10
151.6627092964
 20
117.8029107712
 10
151.6795397821
 20
117.7777758377
 10
151.6959150639
 20
117.7523377918
 10
151.7118311794
 20
117.7266111737
 10
151.7272846441
 20
117.7006093976
 10
151.7422738855
 20
117.6743413717
 10
151.7567978092
 20
117.6478148782
 10
151.7708553207
 20
117.6210376991
 10
151.7844453255
 20
117.5940176166
 10
151.8007727618
 20
117.5599132216
 10
151.8163600444
 20
117.5254592625
 10
151.8311992089
 20
117.4906735524
 10
151.8452822909
 20
117.4555739044
 10
151.8559988522
 20
117.4272795214
 10
151.8662213077
 20
117.3988011404
 10
151.875944542
 20
117.3701442833
 10
151.8851634393
 20
117.3413144719
 10
151.893872884
 20
117.3123172282
 10
151.9020671905
 20
117.283159533
 10
151.9097383939
 20
117.2538542036
 10
151.9168779596
 20
117.2244155163
 10
151.9234773527
 20
117.1948577473
 10
151.9295280386
 20
117.165195173
 10
151.9350215616
 20
117.1354387216
 10
151.9399497831
 20
117.105585929
 10
151.9443046436
 20
117.0756309831
 10
151.9480780836
 20
117.0455680716
 10
151.9512620437
 20
117.0153913825
  0
LINE
  5
385
100
AcDbEntity
  8
0
100
AcDbLine
 62
253
  6
CONTINUOUS
 10
171.7726084326
 20
82.2258321059
 11
171.7064968783
 21
82.3581459423
  0
LINE
  5
386
100
AcDbEntity
  8
ASSI
100
AcDbLine
 62
253
  6
CONTINUOUS
 10
171.7726084326
 20
82.2258321059
 11
171.7064968783
 21
82.3581459423
  0
LINE
  5
387
100
AcDbEntity
  8
0
100
AcDbLine
 62
253
  6
CONTINUOUS
 10
172.2732348542
 20
82.7235502602
 11
172.2063255408
 21
82.8574607097
  0
LINE
  5
388
100
AcDbEntity
  8
ASSI
100
AcDbLine
 62
253
  6
CONTINUOUS
 10
172.2732348542
 20
82.7235502602
 11
172.2063255408
 21
82.8574607097
  0
LWPOLYLINE
  5
389
100
AcDbEntity
  8
0
100
AcDbPolyline
 62
253
  6
CONTINUOUS
 90
3
 70
0
 10
161.2925253574
 20
104.1284464349
 10
161.2923781797
 20
104.1370112893
 10
161.2922293859
 20
104.1401804271
  0
LWPOLYLINE
  5
38A
100
AcDbEntity
  8
ASSI
100
AcDbPolyline
 62
253
  6
CONTINUOUS
 90
3
 70
0
 10
161.2925253574
 20
104.1284464349
 10
161.2923781797
 20
104.1370112893
 10
161.2922293859
 20
104.1401804271
  0
LINE
  5
38B
100
AcDbEntity
  8
0
100
AcDbLine
 62
253
  6
CONTINUOUS
 10
161.2928085057
 20
104.0955592476
 11
161.2925253574
 21
104.1284464349
  0
LINE
  5
38C
100
AcDbEntity
  8
ASSI
100
AcDbLine
 62
253
  6
CONTINUOUS
 10
161.2928085057
 20
104.0955592476
 11
161.2925253574
 21
104.1284464349
  0
LINE
  5
38D
100
AcDbEntity
  8
0
100
AcDbLine
 62
253
  6
CONTINUOUS
 10
161.2935325354
 20
103.841881419
 11
161.2928085057
 21
104.0955592476
  0
LINE
  5
38E
100
AcDbEntity
  8
ASSI
100
AcDbLine
 62
253
  6
CONTINUOUS
 10
161.2935325354
 20
103.841881419
 11
161.2928085057
 21
104.0955592476
  0
LINE
  5
38F
100
AcDbEntity
  8
0
100
AcDbLine
 62
253
  6
CONTINUOUS
 10
161.2935325354
 20
103.841881419
 11
161.2936536653
 21
83.4150708903
  0
LINE
  5
390
100
AcDbEntity
  8
ASSI
100
AcDbLine
 62
253
  6
CONTINUOUS
 10
161.2935325354
 20
103.841881419
 11
161.2936536653
 21
83.4150708903
  0
LINE
  5
391
100
AcDbEntity
  8
0
100
AcDbLine
 62
253
  6
CONTINUOUS
 10
161.2932053392
 20
126.3884503813
 11
161.2930665562
 21
104.7221291576
  0
LINE
  5
392
100
AcDbEntity
  8
ASSI
100
AcDbLine
 62
253
  6
CONTINUOUS
 10
161.2932053392
 20
126.3884503813
 11
161.2930665562
 21
104.7221291576
  0
LINE
  5
393
100
AcDbEntity
  8
0
100
AcDbLine
 62
253
  6
CONTINUOUS
 10
161.2936536653
 20
83.4150708903
 11
161.2932053392
 21
82.3766223838
  0
LINE
  5
394
100
AcDbEntity
  8
ASSI
100
AcDbLine
 62
253
  6
CONTINUOUS
 10
161.2936536653
 20
83.4150708903
 11
161.2932053392
 21
82.3766223838
  0
LWPOLYLINE
  5
395
100
AcDbEntity
  8
0
100
AcDbPolyline
 62
253
  6
CONTINUOUS
 90
5
 70
0
 10
161.2930665562
 20
104.7221291576
 10
161.2926693164
 20
104.6504939429
 10
161.2925253545
 20
104.6366263752
 10
161.2923781782
 20
104.6280615002
 10
161.2922293859
 20
104.624892338
  0
LWPOLYLINE
  5
396
100
AcDbEntity
  8
ASSI
100
AcDbPolyline
 62
253
  6
CONTINUOUS
 90
5
 70
0
 10
161.2930665562
 20
104.7221291576
 10
161.2926693164
 20
104.6504939429
 10
161.2925253545
 20
104.6366263752
 10
161.2923781782
 20
104.6280615002
 10
161.2922293859
 20
104.624892338
  0
LWPOLYLINE
  5
397
100
AcDbEntity
  8
0
100
AcDbPolyline
 62
253
  6
CONTINUOUS
 90
10
 70
0
 10
172.2063255408
 20
82.8574607097
 10
172.2050317698
 20
82.8618132627
 10
172.2037598033
 20
82.8695071345
 10
172.2025096413
 20
82.8805423251
 10
172.2012747342
 20
82.8950077484
 10
172.2000616316
 20
82.9128144906
 10
172.1988899828
 20
82.9336958099
 10
172.1977609743
 20
82.9576964539
 10
172.1966734195
 20
82.9847716752
 10
172.1956434074
 20
83.0145204896
  0
LWPOLYLINE
  5
398
100
AcDbEntity
  8
ASSI
100
AcDbPolyline
 62
253
  6
CONTINUOUS
 90
10
 70
0
 10
172.2063255408
 20
82.8574607097
 10
172.2050317698
 20
82.8618132627
 10
172.2037598033
 20
82.8695071345
 10
172.2025096413
 20
82.8805423251
 10
172.2012747342
 20
82.8950077484
 10
172.2000616316
 20
82.9128144906
 10
172.1988899828
 20
82.9336958099
 10
172.1977609743
 20
82.9576964539
 10
172.1966734195
 20
82.9847716752
 10
172.1956434074
 20
83.0145204896
  0
LINE
  5
399
100
AcDbEntity
  8
0
100
AcDbLine
 62
7
  6
CONTINUOUS
 10
169.1022157926
 20
126.5392406592
 11
168.7513940706
 21
126.5073955413
  0
LINE
  5
39A
100
AcDbEntity
  8
ASSI
100
AcDbLine
 62
7
  6
CONTINUOUS
 10
169.1022157926
 20
126.5392406592
 11
168.7513940706
 21
126.5073955413
  0
LINE
  5
39B
100
AcDbEntity
  8
0
100
AcDbLine
 62
253
  6
CONTINUOUS
 10
171.7225330936
 20
125.2597877342
 11
166.2297833881
 21
125.2538501666
  0
LINE
  5
39C
100
AcDbEntity
  8
ASSI
100
AcDbLine
 62
253
  6
CONTINUOUS
 10
171.7225330936
 20
125.2597877342
 11
166.2297833881
 21
125.2538501666
  0
LINE
  5
39D
100
AcDbEntity
  8
0
100
AcDbLine
 62
253
  6
CONTINUOUS
 10
166.2297833881
 20
125.2538501666
 11
136.9908754918
 21
125.2525954265
  0
LINE
  5
39E
100
AcDbEntity
  8
ASSI
100
AcDbLine
 62
253
  6
CONTINUOUS
 10
166.2297833881
 20
125.2538501666
 11
136.9908754918
 21
125.2525954265
  0
LINE
  5
39F
100
AcDbEntity
  8
0
100
AcDbLine
 62
253
  6
CONTINUOUS
 10
136.9908754918
 20
125.2525954265
 11
132.7136490557
 21
125.2547656181
  0
LINE
  5
3A0
100
AcDbEntity
  8
ASSI
100
AcDbLine
 62
253
  6
CONTINUOUS
 10
136.9908754918
 20
125.2525954265
 11
132.7136490557
 21
125.2547656181
  0
LINE
  5
3A1
100
AcDbEntity
  8
0
100
AcDbLine
 62
253
  6
CONTINUOUS
 10
132.7136490557
 20
125.2547656181
 11
128.3647849627
 21
125.259787731
  0
LINE
  5
3A2
100
AcDbEntity
  8
ASSI
100
AcDbLine
 62
253
  6
CONTINUOUS
 10
132.7136490557
 20
125.2547656181
 11
128.3647849627
 21
125.259787731
  0
LINE
  5
3A3
100
AcDbEntity
  8
0
100
AcDbLine
 62
7
  6
CONTINUOUS
 10
130.9851022947
 20
126.5392406592
 11
131.3359240167
 21
126.5073955413
  0
LINE
  5
3A4
100
AcDbEntity
  8
ASSI
100
AcDbLine
 62
7
  6
CONTINUOUS
 10
130.9851022947
 20
126.5392406592
 11
131.3359240167
 21
126.5073955413
  0
LWPOLYLINE
  5
3A5
100
AcDbEntity
  8
0
100
AcDbPolyline
 62
253
  6
CONTINUOUS
 90
8
 70
0
 10
171.7058157852
 20
104.0137678332
 10
171.7021922745
 20
104.0468663159
 10
171.6982780393
 20
104.0755086525
 10
171.6946461769
 20
104.0994309222
 10
171.690392408
 20
104.1184701979
 10
171.685518787
 20
104.1323690641
 10
171.6810004932
 20
104.1409150987
 10
171.6773249819
 20
104.1440571578
  0
LWPOLYLINE
  5
3A6
100
AcDbEntity
  8
ASSI
100
AcDbPolyline
 62
253
  6
CONTINUOUS
 90
8
 70
0
 10
171.7058157852
 20
104.0137678332
 10
171.7021922745
 20
104.0468663159
 10
171.6982780393
 20
104.0755086525
 10
171.6946461769
 20
104.0994309222
 10
171.690392408
 20
104.1184701979
 10
171.685518787
 20
104.1323690641
 10
171.6810004932
 20
104.1409150987
 10
171.6773249819
 20
104.1440571578
  0
LWPOLYLINE
  5
3A7
100
AcDbEntity
  8
0
100
AcDbPolyline
 62
253
  6
CONTINUOUS
 90
19
 70
0
 10
172.1771536444
 20
103.6440761963
 10
172.1752869259
 20
103.6871334931
 10
172.1696994188
 20
103.7299905799
 10
172.1604017141
 20
103.7723231665
 10
172.1474247914
 20
103.8138288583
 10
172.1308407467
 20
103.8541607303
 10
172.1107820682
 20
103.8929378104
 10
172.0873911082
 20
103.9298570355
 10
172.0608348455
 20
103.9646309015
 10
172.0313531366
 20
103.9969381308
 10
171.9992002526
 20
104.0265129487
 10
171.9646032582
 20
104.0531582725
 10
171.9277997547
 20
104.0766910258
 10
171.8890514047
 20
104.0969357134
 10
171.8486678104
 20
104.1137227948
 10
171.8069782357
 20
104.1269137888
 10
171.7643095677
 20
104.1364078534
 10
171.7209813326
 20
104.1421364199
 10
171.6773249819
 20
104.1440571578
  0
LWPOLYLINE
  5
3A8
100
AcDbEntity
  8
ASSI
100
AcDbPolyline
 62
253
  6
CONTINUOUS
 90
19
 70
0
 10
172.1771536444
 20
103.6440761963
 10
172.1752869259
 20
103.6871334931
 10
172.1696994188
 20
103.7299905799
 10
172.1604017141
 20
103.7723231665
 10
172.1474247914
 20
103.8138288583
 10
172.1308407467
 20
103.8541607303
 10
172.1107820682
 20
103.8929378104
 10
172.0873911082
 20
103.9298570355
 10
172.0608348455
 20
103.9646309015
 10
172.0313531366
 20
103.9969381308
 10
171.9992002526
 20
104.0265129487
 10
171.9646032582
 20
104.0531582725
 10
171.9277997547
 20
104.0766910258
 10
171.8890514047
 20
104.0969357134
 10
171.8486678104
 20
104.1137227948
 10
171.8069782357
 20
104.1269137888
 10
171.7643095677
 20
104.1364078534
 10
171.7209813326
 20
104.1421364199
 10
171.6773249819
 20
104.1440571578
  0
LWPOLYLINE
  5
3A9
100
AcDbEntity
  8
0
100
AcDbPolyline
 62
253
  6
CONTINUOUS
 90
4
 70
0
 10
171.7160748844
 20
103.8455100633
 10
171.7142832936
 20
103.8922209909
 10
171.7115799771
 20
103.936191194
 10
171.7058157852
 20
104.0137678332
  0
LWPOLYLINE
  5
3AA
100
AcDbEntity
  8
ASSI
100
AcDbPolyline
 62
253
  6
CONTINUOUS
 90
4
 70
0
 10
171.7160748844
 20
103.8455100633
 10
171.7142832936
 20
103.8922209909
 10
171.7115799771
 20
103.936191194
 10
171.7058157852
 20
104.0137678332
  0
LWPOLYLINE
  5
3AB
100
AcDbEntity
  8
0
100
AcDbPolyline
 62
253
  6
CONTINUOUS
 90
6
 70
0
 10
171.7118461776
 20
126.3119298513
 10
171.7108156765
 20
126.3423478198
 10
171.7097445712
 20
126.3671678655
 10
171.7086387902
 20
126.3862649393
 10
171.7075469404
 20
126.3995408027
 10
171.7064968803
 20
126.4069268266
  0
LWPOLYLINE
  5
3AC
100
AcDbEntity
  8
ASSI
100
AcDbPolyline
 62
253
  6
CONTINUOUS
 90
6
 70
0
 10
171.7118461776
 20
126.3119298513
 10
171.7108156765
 20
126.3423478198
 10
171.7097445712
 20
126.3671678655
 10
171.7086387902
 20
126.3862649393
 10
171.7075469404
 20
126.3995408027
 10
171.7064968803
 20
126.4069268266
  0
LINE
  5
3AD
100
AcDbEntity
  8
0
100
AcDbLine
 62
253
  6
CONTINUOUS
 10
172.1956434074
 20
83.0145204896
 11
172.1937577227
 21
83.0821221972
  0
LINE
  5
3AE
100
AcDbEntity
  8
ASSI
100
AcDbLine
 62
253
  6
CONTINUOUS
 10
172.1956434074
 20
83.0145204896
 11
172.1937577227
 21
83.0821221972
  0
LINE
  5
3AF
100
AcDbEntity
  8
0
100
AcDbLine
 62
253
  6
CONTINUOUS
 10
171.7138724113
 20
126.2349238155
 11
171.7118461776
 21
126.3119298513
  0
LINE
  5
3B0
100
AcDbEntity
  8
ASSI
100
AcDbLine
 62
253
  6
CONTINUOUS
 10
171.7138724113
 20
126.2349238155
 11
171.7118461776
 21
126.3119298513
  0
LINE
  5
3B1
100
AcDbEntity
  8
0
100
AcDbLine
 62
253
  6
CONTINUOUS
 10
172.1937577227
 20
83.0821221972
 11
172.1921439082
 21
83.1588701597
  0
LINE
  5
3B2
100
AcDbEntity
  8
ASSI
100
AcDbLine
 62
253
  6
CONTINUOUS
 10
172.1937577227
 20
83.0821221972
 11
172.1921439082
 21
83.1588701597
  0
LINE
  5
3B3
100
AcDbEntity
  8
0
100
AcDbLine
 62
253
  6
CONTINUOUS
 10
171.7157432274
 20
126.1376771432
 11
171.7138724113
 21
126.2349238155
  0
LINE
  5
3B4
100
AcDbEntity
  8
ASSI
100
AcDbLine
 62
253
  6
CONTINUOUS
 10
171.7157432274
 20
126.1376771432
 11
171.7138724113
 21
126.2349238155
  0
LINE
  5
3B5
100
AcDbEntity
  8
0
100
AcDbLine
 62
253
  6
CONTINUOUS
 10
172.1921439082
 20
83.1588701597
 11
172.1908256054
 21
83.2436234718
  0
LINE
  5
3B6
100
AcDbEntity
  8
ASSI
100
AcDbLine
 62
253
  6
CONTINUOUS
 10
172.1921439082
 20
83.1588701597
 11
172.1908256054
 21
83.2436234718
  0
LINE
  5
3B7
100
AcDbEntity
  8
0
100
AcDbLine
 62
253
  6
CONTINUOUS
 10
171.7182386761
 20
125.9582028635
 11
171.7157432274
 21
126.1376771432
  0
LINE
  5
3B8
100
AcDbEntity
  8
ASSI
100
AcDbLine
 62
253
  6
CONTINUOUS
 10
171.7182386761
 20
125.9582028635
 11
171.7157432274
 21
126.1376771432
  0
LINE
  5
3B9
100
AcDbEntity
  8
0
100
AcDbLine
 62
253
  6
CONTINUOUS
 10
172.1908256054
 20
83.2436234718
 11
172.1894671535
 21
83.3816336265
  0
LINE
  5
3BA
100
AcDbEntity
  8
ASSI
100
AcDbLine
 62
253
  6
CONTINUOUS
 10
172.1908256054
 20
83.2436234718
 11
172.1894671535
 21
83.3816336265
  0
LINE
  5
3BB
100
AcDbEntity
  8
0
100
AcDbLine
 62
253
  6
CONTINUOUS
 10
171.7208080116
 20
125.669011153
 11
171.7182386761
 21
125.9582028635
  0
LINE
  5
3BC
100
AcDbEntity
  8
ASSI
100
AcDbLine
 62
253
  6
CONTINUOUS
 10
171.7208080116
 20
125.669011153
 11
171.7182386761
 21
125.9582028635
  0
LWPOLYLINE
  5
3BD
100
AcDbEntity
  8
0
100
AcDbPolyline
 62
253
  6
CONTINUOUS
 90
3
 70
0
 10
171.719798722
 20
105.1217543484
 10
171.7200251161
 20
105.0687659405
 10
171.7191756544
 20
105.0175162749
  0
LWPOLYLINE
  5
3BE
100
AcDbEntity
  8
ASSI
100
AcDbPolyline
 62
253
  6
CONTINUOUS
 90
3
 70
0
 10
171.719798722
 20
105.1217543484
 10
171.7200251161
 20
105.0687659405
 10
171.7191756544
 20
105.0175162749
  0
LINE
  5
3BF
100
AcDbEntity
  8
0
100
AcDbLine
 62
253
  6
CONTINUOUS
 10
171.7225330567
 20
125.25978773
 11
171.7208080116
 21
125.669011153
  0
LINE
  5
3C0
100
AcDbEntity
  8
ASSI
100
AcDbLine
 62
253
  6
CONTINUOUS
 10
171.7225330567
 20
125.25978773
 11
171.7208080116
 21
125.669011153
  0
LINE
  5
3C1
100
AcDbEntity
  8
0
100
AcDbLine
 62
7
  6
CONTINUOUS
 10
172.2732348542
 20
126.0415225049
 11
172.2928432456
 21
117.4825363825
  0
LINE
  5
3C2
100
AcDbEntity
  8
ASSI
100
AcDbLine
 62
7
  6
CONTINUOUS
 10
172.2732348542
 20
126.0415225049
 11
172.2928432456
 21
117.4825363825
  0
LINE
  5
3C3
100
AcDbEntity
  8
0
100
AcDbLine
 62
253
  6
CONTINUOUS
 10
172.1894671535
 20
83.3816336265
 11
172.1888990978
 21
83.5267199112
  0
LINE
  5
3C4
100
AcDbEntity
  8
ASSI
100
AcDbLine
 62
253
  6
CONTINUOUS
 10
172.1894671535
 20
83.3816336265
 11
172.1888990978
 21
83.5267199112
  0
LINE
  5
3C5
100
AcDbEntity
  8
0
100
AcDbLine
 62
253
  6
CONTINUOUS
 10
172.1888990978
 20
83.5267199112
 11
172.1809199424
 21
92.5249892805
  0
LINE
  5
3C6
100
AcDbEntity
  8
ASSI
100
AcDbLine
 62
253
  6
CONTINUOUS
 10
172.1888990978
 20
83.5267199112
 11
172.1809199424
 21
92.5249892805
  0
LWPOLYLINE
  5
3C7
100
AcDbEntity
  8
0
100
AcDbPolyline
 62
253
  6
CONTINUOUS
 90
3
 70
0
 10
172.1809199424
 20
92.5249892805
 10
172.1774120547
 20
101.3361262522
 10
172.1771536444
 20
103.6440761963
  0
LWPOLYLINE
  5
3C8
100
AcDbEntity
  8
ASSI
100
AcDbPolyline
 62
253
  6
CONTINUOUS
 90
3
 70
0
 10
172.1809199424
 20
92.5249892805
 10
172.1774120547
 20
101.3361262522
 10
172.1771536444
 20
103.6440761963
  0
LINE
  5
3C9
100
AcDbEntity
  8
0
100
AcDbLine
 62
7
  6
CONTINUOUS
 10
172.2928432456
 20
117.4825363825
 11
172.2928432456
 21
105.0824412003
  0
LINE
  5
3CA
100
AcDbEntity
  8
ASSI
100
AcDbLine
 62
7
  6
CONTINUOUS
 10
172.2928432456
 20
117.4825363825
 11
172.2928432456
 21
105.0824412003
  0
LINE
  5
3CB
100
AcDbEntity
  8
0
100
AcDbLine
 62
7
  6
CONTINUOUS
 10
172.2928432456
 20
91.2825363825
 11
172.2928432456
 21
103.6826315647
  0
LINE
  5
3CC
100
AcDbEntity
  8
ASSI
100
AcDbLine
 62
7
  6
CONTINUOUS
 10
172.2928432456
 20
91.2825363825
 11
172.2928432456
 21
103.6826315647
  0
LINE
  5
3CD
100
AcDbEntity
  8
0
100
AcDbLine
 62
253
  6
CONTINUOUS
 10
171.7197986491
 20
105.1217543405
 11
171.7225330936
 21
125.2597877342
  0
LINE
  5
3CE
100
AcDbEntity
  8
ASSI
100
AcDbLine
 62
253
  6
CONTINUOUS
 10
171.7197986491
 20
105.1217543405
 11
171.7225330936
 21
125.2597877342
  0
LINE
  5
3CF
100
AcDbEntity
  8
0
100
AcDbLine
 62
253
  6
CONTINUOUS
 10
172.1771536462
 20
105.1209965682
 11
172.1805901599
 21
115.7149613011
  0
LINE
  5
3D0
100
AcDbEntity
  8
ASSI
100
AcDbLine
 62
253
  6
CONTINUOUS
 10
172.1771536462
 20
105.1209965682
 11
172.1805901599
 21
115.7149613011
  0
LINE
  5
3D1
100
AcDbEntity
  8
0
100
AcDbLine
 62
7
  6
CONTINUOUS
 10
172.2732348542
 20
82.7235502602
 11
172.2928432456
 21
91.2825363825
  0
LINE
  5
3D2
100
AcDbEntity
  8
ASSI
100
AcDbLine
 62
7
  6
CONTINUOUS
 10
172.2732348542
 20
82.7235502602
 11
172.2928432456
 21
91.2825363825
  0
LINE
  5
3D3
100
AcDbEntity
  8
0
100
AcDbLine
 62
253
  6
CONTINUOUS
 10
171.7220603391
 20
83.3379409502
 11
171.7197986468
 21
103.643318428
  0
LINE
  5
3D4
100
AcDbEntity
  8
ASSI
100
AcDbLine
 62
253
  6
CONTINUOUS
 10
171.7220603391
 20
83.3379409502
 11
171.7197986468
 21
103.643318428
  0
LINE
  5
3D5
100
AcDbEntity
  8
0
100
AcDbLine
 62
253
  6
CONTINUOUS
 10
172.1805901599
 20
115.7149613011
 11
172.1891899819
 21
125.3358632865
  0
LINE
  5
3D6
100
AcDbEntity
  8
ASSI
100
AcDbLine
 62
253
  6
CONTINUOUS
 10
172.1805901599
 20
115.7149613011
 11
172.1891899819
 21
125.3358632865
  0
LWPOLYLINE
  5
3D7
100
AcDbEntity
  8
0
100
AcDbPolyline
 62
253
  6
CONTINUOUS
 90
4
 70
0
 10
171.7197987202
 20
103.6433184236
 10
171.7200249854
 20
103.696304836
 10
171.7191756046
 20
103.747552829
 10
171.7160748844
 20
103.8455100633
  0
LWPOLYLINE
  5
3D8
100
AcDbEntity
  8
ASSI
100
AcDbPolyline
 62
253
  6
CONTINUOUS
 90
4
 70
0
 10
171.7197987202
 20
103.6433184236
 10
171.7200249854
 20
103.696304836
 10
171.7191756046
 20
103.747552829
 10
171.7160748844
 20
103.8455100633
  0
LINE
  5
3D9
100
AcDbEntity
  8
0
100
AcDbLine
 62
253
  6
CONTINUOUS
 10
171.7196387094
 20
82.9454688608
 11
171.7220603391
 21
83.3379409502
  0
LINE
  5
3DA
100
AcDbEntity
  8
ASSI
100
AcDbLine
 62
253
  6
CONTINUOUS
 10
171.7196387094
 20
82.9454688608
 11
171.7220603391
 21
83.3379409502
  0
LINE
  5
3DB
100
AcDbEntity
  8
0
100
AcDbLine
 62
253
  6
CONTINUOUS
 10
172.1891899819
 20
125.3358632865
 11
172.1902893936
 21
125.4767297852
  0
LINE
  5
3DC
100
AcDbEntity
  8
ASSI
100
AcDbLine
 62
253
  6
CONTINUOUS
 10
172.1891899819
 20
125.3358632865
 11
172.1902893936
 21
125.4767297852
  0
LINE
  5
3DD
100
AcDbEntity
  8
0
100
AcDbLine
 62
253
  6
CONTINUOUS
 10
171.7174520426
 20
82.7429390448
 11
171.7196387094
 21
82.9454688608
  0
LINE
  5
3DE
100
AcDbEntity
  8
ASSI
100
AcDbLine
 62
253
  6
CONTINUOUS
 10
171.7174520426
 20
82.7429390448
 11
171.7196387094
 21
82.9454688608
  0
LINE
  5
3DF
100
AcDbEntity
  8
0
100
AcDbLine
 62
253
  6
CONTINUOUS
 10
172.1902893936
 20
125.4767297852
 11
172.1914441669
 21
125.5645922994
  0
LINE
  5
3E0
100
AcDbEntity
  8
ASSI
100
AcDbLine
 62
253
  6
CONTINUOUS
 10
172.1902893936
 20
125.4767297852
 11
172.1914441669
 21
125.5645922994
  0
LINE
  5
3E1
100
AcDbEntity
  8
0
100
AcDbLine
 62
253
  6
CONTINUOUS
 10
171.7157432916
 20
82.6273956282
 11
171.7174520426
 21
82.7429390448
  0
LINE
  5
3E2
100
AcDbEntity
  8
ASSI
100
AcDbLine
 62
253
  6
CONTINUOUS
 10
171.7157432916
 20
82.6273956282
 11
171.7174520426
 21
82.7429390448
  0
LINE
  5
3E3
100
AcDbEntity
  8
0
100
AcDbLine
 62
253
  6
CONTINUOUS
 10
172.1914441669
 20
125.5645922994
 11
172.1929147185
 21
125.645665263
  0
LINE
  5
3E4
100
AcDbEntity
  8
ASSI
100
AcDbLine
 62
253
  6
CONTINUOUS
 10
172.1914441669
 20
125.5645922994
 11
172.1929147185
 21
125.645665263
  0
LINE
  5
3E5
100
AcDbEntity
  8
0
100
AcDbLine
 62
253
  6
CONTINUOUS
 10
171.7138724629
 20
82.5301489544
 11
171.7157432916
 21
82.6273956282
  0
LINE
  5
3E6
100
AcDbEntity
  8
ASSI
100
AcDbLine
 62
253
  6
CONTINUOUS
 10
171.7138724629
 20
82.5301489544
 11
171.7157432916
 21
82.6273956282
  0
LWPOLYLINE
  5
3E7
100
AcDbEntity
  8
0
100
AcDbPolyline
 62
253
  6
CONTINUOUS
 90
12
 70
0
 10
172.1929147185
 20
125.645665263
 10
172.194671796
 20
125.718088224
 10
172.1956434096
 20
125.750552281
 10
172.1966734217
 20
125.7803010952
 10
172.1977609765
 20
125.8073763162
 10
172.1988899849
 20
125.83137696
 10
172.2000616337
 20
125.8522582792
 10
172.2012747363
 20
125.8700650212
 10
172.2025096433
 20
125.8845304444
 10
172.2037598053
 20
125.8955656348
 10
172.2050317717
 20
125.9032595064
 10
172.2063255428
 20
125.9076120592
  0
LWPOLYLINE
  5
3E8
100
AcDbEntity
  8
ASSI
100
AcDbPolyline
 62
253
  6
CONTINUOUS
 90
12
 70
0
 10
172.1929147185
 20
125.645665263
 10
172.194671796
 20
125.718088224
 10
172.1956434096
 20
125.750552281
 10
172.1966734217
 20
125.7803010952
 10
172.1977609765
 20
125.8073763162
 10
172.1988899849
 20
125.83137696
 10
172.2000616337
 20
125.8522582792
 10
172.2012747363
 20
125.8700650212
 10
172.2025096433
 20
125.8845304444
 10
172.2037598053
 20
125.8955656348
 10
172.2050317717
 20
125.9032595064
 10
172.2063255428
 20
125.9076120592
  0
LWPOLYLINE
  5
3E9
100
AcDbEntity
  8
0
100
AcDbPolyline
 62
253
  6
CONTINUOUS
 90
4
 70
0
 10
171.7191756544
 20
105.0175162749
 10
171.7160746372
 20
104.9195567045
 10
171.7142830078
 20
104.872845118
 10
171.7115795542
 20
104.828874698
  0
LWPOLYLINE
  5
3EA
100
AcDbEntity
  8
ASSI
100
AcDbPolyline
 62
253
  6
CONTINUOUS
 90
4
 70
0
 10
171.7191756544
 20
105.0175162749
 10
171.7160746372
 20
104.9195567045
 10
171.7142830078
 20
104.872845118
 10
171.7115795542
 20
104.828874698
  0
LWPOLYLINE
  5
3EB
100
AcDbEntity
  8
0
100
AcDbPolyline
 62
253
  6
CONTINUOUS
 90
19
 70
0
 10
172.1771536462
 20
105.1209965682
 10
172.1752869246
 20
105.0779392362
 10
172.1696994092
 20
105.0350821192
 10
172.160401692
 20
104.992749508
 10
172.1474247529
 20
104.9512437948
 10
172.1308406899
 20
104.9109119077
 10
172.1107819964
 20
104.8721348259
 10
172.0873910328
 20
104.8352156183
 10
172.060834777
 20
104.800441779
 10
172.0313530758
 20
104.7681345709
 10
171.9992001928
 20
104.738559764
 10
171.9646031971
 20
104.7119144478
 10
171.9277996947
 20
104.6883817028
 10
171.8890513506
 20
104.6681370249
 10
171.8486677649
 20
104.6513499524
 10
171.8069782005
 20
104.6381589658
 10
171.7643095438
 20
104.6286649065
 10
171.7209813211
 20
104.6229363434
 10
171.6773249837
 20
104.6210156067
  0
LWPOLYLINE
  5
3EC
100
AcDbEntity
  8
ASSI
100
AcDbPolyline
 62
253
  6
CONTINUOUS
 90
19
 70
0
 10
172.1771536462
 20
105.1209965682
 10
172.1752869246
 20
105.0779392362
 10
172.1696994092
 20
105.0350821192
 10
172.160401692
 20
104.992749508
 10
172.1474247529
 20
104.9512437948
 10
172.1308406899
 20
104.9109119077
 10
172.1107819964
 20
104.8721348259
 10
172.0873910328
 20
104.8352156183
 10
172.060834777
 20
104.800441779
 10
172.0313530758
 20
104.7681345709
 10
171.9992001928
 20
104.738559764
 10
171.9646031971
 20
104.7119144478
 10
171.9277996947
 20
104.6883817028
 10
171.8890513506
 20
104.6681370249
 10
171.8486677649
 20
104.6513499524
 10
171.8069782005
 20
104.6381589658
 10
171.7643095438
 20
104.6286649065
 10
171.7209813211
 20
104.6229363434
 10
171.6773249837
 20
104.6210156067
  0
LWPOLYLINE
  5
3ED
100
AcDbEntity
  8
0
100
AcDbPolyline
 62
253
  6
CONTINUOUS
 90
9
 70
0
 10
171.7115795542
 20
104.828874698
 10
171.7058152147
 20
104.751298997
 10
171.7021916952
 20
104.7182014423
 10
171.6982774381
 20
104.6895602219
 10
171.6946456383
 20
104.6656391316
 10
171.6903919898
 20
104.6466009228
 10
171.6855185148
 20
104.632702909
 10
171.6810003744
 20
104.6241574479
 10
171.6773249833
 20
104.6210156067
  0
LWPOLYLINE
  5
3EE
100
AcDbEntity
  8
ASSI
100
AcDbPolyline
 62
253
  6
CONTINUOUS
 90
9
 70
0
 10
171.7115795542
 20
104.828874698
 10
171.7058152147
 20
104.751298997
 10
171.7021916952
 20
104.7182014423
 10
171.6982774381
 20
104.6895602219
 10
171.6946456383
 20
104.6656391316
 10
171.6903919898
 20
104.6466009228
 10
171.6855185148
 20
104.632702909
 10
171.6810003744
 20
104.6241574479
 10
171.6773249833
 20
104.6210156067
  0
LINE
  5
3EF
100
AcDbEntity
  8
0
100
AcDbLine
 62
7
  6
CONTINUOUS
 10
157.9022157926
 20
126.5392406592
 11
157.5513940706
 21
126.5073955413
  0
LINE
  5
3F0
100
AcDbEntity
  8
ASSI
100
AcDbLine
 62
7
  6
CONTINUOUS
 10
157.9022157926
 20
126.5392406592
 11
157.5513940706
 21
126.5073955413
  0
LINE
  5
3F1
100
AcDbEntity
  8
0
100
AcDbLine
 62
7
  6
CONTINUOUS
 10
146.6022157926
 20
126.5392406592
 11
146.2513940706
 21
126.5073955413
  0
LINE
  5
3F2
100
AcDbEntity
  8
ASSI
100
AcDbLine
 62
7
  6
CONTINUOUS
 10
146.6022157926
 20
126.5392406592
 11
146.2513940706
 21
126.5073955413
  0
LINE
  5
3F3
100
AcDbEntity
  8
0
100
AcDbLine
 62
7
  6
CONTINUOUS
 10
135.4022157926
 20
126.5392406592
 11
135.0513940706
 21
126.5073955413
  0
LINE
  5
3F4
100
AcDbEntity
  8
ASSI
100
AcDbLine
 62
7
  6
CONTINUOUS
 10
135.4022157926
 20
126.5392406592
 11
135.0513940706
 21
126.5073955413
  0
LWPOLYLINE
  5
3F5
100
AcDbEntity
  8
0
100
AcDbPolyline
 62
253
  6
CONTINUOUS
 90
16
 70
0
 10
128.380821209
 20
126.4069268227
 10
128.3286195825
 20
126.4041247775
 10
128.2769889709
 20
126.3958921881
 10
128.2264940742
 20
126.3823191178
 10
128.1776871524
 20
126.3635540334
 10
128.1311020309
 20
126.3398021973
 10
128.0872482541
 20
126.3113234371
 10
128.0466054498
 20
126.2784292685
 10
128.0096181052
 20
126.2414794841
 10
127.9766907416
 20
126.200878249
 10
127.948183462
 20
126.1570696576
 10
127.9244080097
 20
126.1105328607
 10
127.9056243754
 20
126.0617768357
 10
127.8920379589
 20
126.0113348327
 10
127.8837973193
 20
125.9597585436
 10
127.8809925465
 20
125.9076120554
  0
LWPOLYLINE
  5
3F6
100
AcDbEntity
  8
ASSI
100
AcDbPolyline
 62
253
  6
CONTINUOUS
 90
16
 70
0
 10
128.380821209
 20
126.4069268227
 10
128.3286195825
 20
126.4041247775
 10
128.2769889709
 20
126.3958921881
 10
128.2264940742
 20
126.3823191178
 10
128.1776871524
 20
126.3635540334
 10
128.1311020309
 20
126.3398021973
 10
128.0872482541
 20
126.3113234371
 10
128.0466054498
 20
126.2784292685
 10
128.0096181052
 20
126.2414794841
 10
127.9766907416
 20
126.200878249
 10
127.948183462
 20
126.1570696576
 10
127.9244080097
 20
126.1105328607
 10
127.9056243754
 20
126.0617768357
 10
127.8920379589
 20
126.0113348327
 10
127.8837973193
 20
125.9597585436
 10
127.8809925465
 20
125.9076120554
  0
LWPOLYLINE
  5
3F7
100
AcDbEntity
  8
0
100
AcDbPolyline
 62
253
  6
CONTINUOUS
 90
14
 70
0
 10
128.2677769169
 20
125.2589811603
 10
128.2209373474
 20
125.2582753811
 10
128.1758170803
 20
125.2573764216
 10
128.1328536277
 20
125.2562929988
 10
128.0924635879
 20
125.255035618
 10
128.0550386059
 20
125.2536164715
 10
128.0209415757
 20
125.2520493203
 10
127.9905031218
 20
125.2503493602
 10
127.9640183929
 20
125.248533075
 10
127.9417442
 20
125.2466180766
 10
127.9238965266
 20
125.2446229338
 10
127.910648434
 20
125.2425669926
 10
127.9021283832
 20
125.2404701887
 10
127.8984189895
 20
125.2383528539
  0
LWPOLYLINE
  5
3F8
100
AcDbEntity
  8
ASSI
100
AcDbPolyline
 62
253
  6
CONTINUOUS
 90
14
 70
0
 10
128.2677769169
 20
125.2589811603
 10
128.2209373474
 20
125.2582753811
 10
128.1758170803
 20
125.2573764216
 10
128.1328536277
 20
125.2562929988
 10
128.0924635879
 20
125.255035618
 10
128.0550386059
 20
125.2536164715
 10
128.0209415757
 20
125.2520493203
 10
127.9905031218
 20
125.2503493602
 10
127.9640183929
 20
125.248533075
 10
127.9417442
 20
125.2466180766
 10
127.9238965266
 20
125.2446229338
 10
127.910648434
 20
125.2425669926
 10
127.9021283832
 20
125.2404701887
 10
127.8984189895
 20
125.2383528539
  0
LINE
  5
3F9
100
AcDbEntity
  8
0
100
AcDbLine
 62
253
  6
CONTINUOUS
 10
128.3647849628
 20
125.2597877429
 11
128.2677769169
 21
125.2589811603
  0
LINE
  5
3FA
100
AcDbEntity
  8
ASSI
100
AcDbLine
 62
253
  6
CONTINUOUS
 10
128.3647849628
 20
125.2597877429
 11
128.2677769169
 21
125.2589811603
  0
LINE
  5
3FB
100
AcDbEntity
  8
0
100
AcDbLine
 62
253
  6
CONTINUOUS
 10
171.7064968803
 20
126.4069268266
 11
168.4575793349
 21
126.3972108857
  0
LINE
  5
3FC
100
AcDbEntity
  8
ASSI
100
AcDbLine
 62
253
  6
CONTINUOUS
 10
171.7064968803
 20
126.4069268266
 11
168.4575793349
 21
126.3972108857
  0
LINE
  5
3FD
100
AcDbEntity
  8
0
100
AcDbLine
 62
253
  6
CONTINUOUS
 10
168.4575793349
 20
126.3972108857
 11
165.054771362
 21
126.3908928406
  0
LINE
  5
3FE
100
AcDbEntity
  8
ASSI
100
AcDbLine
 62
253
  6
CONTINUOUS
 10
168.4575793349
 20
126.3972108857
 11
165.054771362
 21
126.3908928406
  0
LINE
  5
3FF
100
AcDbEntity
  8
0
100
AcDbLine
 62
253
  6
CONTINUOUS
 10
165.054771362
 20
126.3908928406
 11
161.2932053392
 21
126.3884503813
  0
LINE
  5
400
100
AcDbEntity
  8
ASSI
100
AcDbLine
 62
253
  6
CONTINUOUS
 10
165.054771362
 20
126.3908928406
 11
161.2932053392
 21
126.3884503813
  0
LINE
  5
401
100
AcDbEntity
  8
0
100
AcDbLine
 62
7
  6
CONTINUOUS
 10
146.0781889898
 20
126.5021547634
 11
142.7091290975
 21
126.5021547634
  0
LINE
  5
402
100
AcDbEntity
  8
ASSI
100
AcDbLine
 62
7
  6
CONTINUOUS
 10
146.0781889898
 20
126.5021547634
 11
142.7091290975
 21
126.5021547634
  0
LINE
  5
403
100
AcDbEntity
  8
0
100
AcDbLine
 62
7
  6
CONTINUOUS
 10
134.8781889898
 20
126.5021547634
 11
131.5091290975
 21
126.5021547634
  0
LINE
  5
404
100
AcDbEntity
  8
ASSI
100
AcDbLine
 62
7
  6
CONTINUOUS
 10
134.8781889898
 20
126.5021547634
 11
131.5091290975
 21
126.5021547634
  0
LINE
  5
405
100
AcDbEntity
  8
0
100
AcDbLine
 62
7
  6
CONTINUOUS
 10
154.0091290975
 20
126.5021547634
 11
157.3781889898
 21
126.5021547634
  0
LINE
  5
406
100
AcDbEntity
  8
ASSI
100
AcDbLine
 62
7
  6
CONTINUOUS
 10
154.0091290975
 20
126.5021547634
 11
157.3781889898
 21
126.5021547634
  0
LINE
  5
407
100
AcDbEntity
  8
0
100
AcDbLine
 62
7
  6
CONTINUOUS
 10
165.2091290975
 20
126.5021547634
 11
168.5781889898
 21
126.5021547634
  0
LINE
  5
408
100
AcDbEntity
  8
ASSI
100
AcDbLine
 62
7
  6
CONTINUOUS
 10
165.2091290975
 20
126.5021547634
 11
168.5781889898
 21
126.5021547634
  0
LINE
  5
409
100
AcDbEntity
  8
0
100
AcDbLine
 62
7
  6
CONTINUOUS
 10
171.7726084326
 20
126.5392406592
 11
169.1022157926
 21
126.5392406592
  0
LINE
  5
40A
100
AcDbEntity
  8
ASSI
100
AcDbLine
 62
7
  6
CONTINUOUS
 10
171.7726084326
 20
126.5392406592
 11
169.1022157926
 21
126.5392406592
  0
LINE
  5
40B
100
AcDbEntity
  8
0
100
AcDbLine
 62
7
  6
CONTINUOUS
 10
164.6851022947
 20
126.5392406592
 11
157.9022157926
 21
126.5392406592
  0
LINE
  5
40C
100
AcDbEntity
  8
ASSI
100
AcDbLine
 62
7
  6
CONTINUOUS
 10
164.6851022947
 20
126.5392406592
 11
157.9022157926
 21
126.5392406592
  0
LINE
  5
40D
100
AcDbEntity
  8
0
100
AcDbLine
 62
7
  6
CONTINUOUS
 10
153.4851022947
 20
126.5392406592
 11
146.6022157926
 21
126.5392406592
  0
LINE
  5
40E
100
AcDbEntity
  8
ASSI
100
AcDbLine
 62
7
  6
CONTINUOUS
 10
153.4851022947
 20
126.5392406592
 11
146.6022157926
 21
126.5392406592
  0
LINE
  5
40F
100
AcDbEntity
  8
0
100
AcDbLine
 62
7
  6
CONTINUOUS
 10
142.1851022947
 20
126.5392406592
 11
135.4022157926
 21
126.5392406592
  0
LINE
  5
410
100
AcDbEntity
  8
ASSI
100
AcDbLine
 62
7
  6
CONTINUOUS
 10
142.1851022947
 20
126.5392406592
 11
135.4022157926
 21
126.5392406592
  0
LINE
  5
411
100
AcDbEntity
  8
0
100
AcDbLine
 62
7
  6
CONTINUOUS
 10
130.9851022947
 20
126.5392406592
 11
128.3147096547
 21
126.5392406592
  0
LINE
  5
412
100
AcDbEntity
  8
ASSI
100
AcDbLine
 62
7
  6
CONTINUOUS
 10
130.9851022947
 20
126.5392406592
 11
128.3147096547
 21
126.5392406592
  0
LINE
  5
413
100
AcDbEntity
  8
0
100
AcDbLine
 62
253
  6
CONTINUOUS
 10
161.2932053392
 20
126.3884503813
 11
136.1163370807
 21
126.389702265
  0
LINE
  5
414
100
AcDbEntity
  8
ASSI
100
AcDbLine
 62
253
  6
CONTINUOUS
 10
161.2932053392
 20
126.3884503813
 11
136.1163370807
 21
126.389702265
  0
LINE
  5
415
100
AcDbEntity
  8
0
100
AcDbLine
 62
253
  6
CONTINUOUS
 10
136.1163370807
 20
126.389702265
 11
132.7268568435
 21
126.3947377556
  0
LINE
  5
416
100
AcDbEntity
  8
ASSI
100
AcDbLine
 62
253
  6
CONTINUOUS
 10
136.1163370807
 20
126.389702265
 11
132.7268568435
 21
126.3947377556
  0
LWPOLYLINE
  5
417
100
AcDbEntity
  8
0
100
AcDbPolyline
 62
253
  6
CONTINUOUS
 90
3
 70
0
 10
132.7268568435
 20
126.3947377556
 10
129.2776388238
 20
126.4039034159
 10
128.380821209
 20
126.4069268227
  0
LWPOLYLINE
  5
418
100
AcDbEntity
  8
ASSI
100
AcDbPolyline
 62
253
  6
CONTINUOUS
 90
3
 70
0
 10
132.7268568435
 20
126.3947377556
 10
129.2776388238
 20
126.4039034159
 10
128.380821209
 20
126.4069268227
  0
LWPOLYLINE
  5
419
100
AcDbEntity
  8
0
100
AcDbPolyline
 62
253
  6
CONTINUOUS
 90
15
 70
0
 10
171.7225322008
 20
125.2597871998
 10
171.8195393448
 20
125.2589806434
 10
171.866378524
 20
125.2582748862
 10
171.9114984583
 20
125.2573759543
 10
171.9544616475
 20
125.2562925639
 10
171.9948515041
 20
125.2550352199
 10
172.0322763927
 20
125.2536161137
 10
172.0663734271
 20
125.2520490058
 10
172.0968119896
 20
125.2503490912
 10
172.1232969361
 20
125.2485328532
 10
172.1455714585
 20
125.2466179025
 10
172.1634195744
 20
125.2446228073
 10
172.1766682218
 20
125.2425669128
 10
172.1851889367
 20
125.2404701537
 10
172.1888990989
 20
125.238352861
  0
LWPOLYLINE
  5
41A
100
AcDbEntity
  8
ASSI
100
AcDbPolyline
 62
253
  6
CONTINUOUS
 90
15
 70
0
 10
171.7225322008
 20
125.2597871998
 10
171.8195393448
 20
125.2589806434
 10
171.866378524
 20
125.2582748862
 10
171.9114984583
 20
125.2573759543
 10
171.9544616475
 20
125.2562925639
 10
171.9948515041
 20
125.2550352199
 10
172.0322763927
 20
125.2536161137
 10
172.0663734271
 20
125.2520490058
 10
172.0968119896
 20
125.2503490912
 10
172.1232969361
 20
125.2485328532
 10
172.1455714585
 20
125.2466179025
 10
172.1634195744
 20
125.2446228073
 10
172.1766682218
 20
125.2425669128
 10
172.1851889367
 20
125.2404701537
 10
172.1888990989
 20
125.238352861
  0
LWPOLYLINE
  5
41B
100
AcDbEntity
  8
0
100
AcDbPolyline
 62
253
  6
CONTINUOUS
 90
16
 70
0
 10
171.7064968803
 20
126.4069268266
 10
171.7586978503
 20
126.4041248514
 10
171.8103278918
 20
126.3958924543
 10
171.8608223207
 20
126.3823196741
 10
171.9096288732
 20
126.3635549579
 10
171.9562137459
 20
126.3398035378
 10
172.0000674343
 20
126.311325186
 10
172.0407103052
 20
126.2784313738
 10
172.0776978425
 20
126.2414818649
 10
172.110625509
 20
126.2008807806
 10
172.1391331707
 20
126.15707218
 10
172.1629090357
 20
126.1105352032
 10
172.1816930645
 20
126.0617788309
 10
172.1952798138
 20
126.0113363175
 10
172.2035206837
 20
125.9597593591
 10
172.2063255428
 20
125.9076120592
  0
LWPOLYLINE
  5
41C
100
AcDbEntity
  8
ASSI
100
AcDbPolyline
 62
253
  6
CONTINUOUS
 90
16
 70
0
 10
171.7064968803
 20
126.4069268266
 10
171.7586978503
 20
126.4041248514
 10
171.8103278918
 20
126.3958924543
 10
171.8608223207
 20
126.3823196741
 10
171.9096288732
 20
126.3635549579
 10
171.9562137459
 20
126.3398035378
 10
172.0000674343
 20
126.311325186
 10
172.0407103052
 20
126.2784313738
 10
172.0776978425
 20
126.2414818649
 10
172.110625509
 20
126.2008807806
 10
172.1391331707
 20
126.15707218
 10
172.1629090357
 20
126.1105352032
 10
172.1816930645
 20
126.0617788309
 10
172.1952798138
 20
126.0113363175
 10
172.2035206837
 20
125.9597593591
 10
172.2063255428
 20
125.9076120592
  0
LINE
  5
41D
100
AcDbEntity
  8
0
100
AcDbLine
 62
7
  6
CONTINUOUS
 10
142.1851022947
 20
126.5392406592
 11
142.5359240167
 21
126.5073955413
  0
LINE
  5
41E
100
AcDbEntity
  8
ASSI
100
AcDbLine
 62
7
  6
CONTINUOUS
 10
142.1851022947
 20
126.5392406592
 11
142.5359240167
 21
126.5073955413
  0
LINE
  5
41F
100
AcDbEntity
  8
0
100
AcDbLine
 62
7
  6
CONTINUOUS
 10
153.4851022947
 20
126.5392406592
 11
153.8359240167
 21
126.5073955413
  0
LINE
  5
420
100
AcDbEntity
  8
ASSI
100
AcDbLine
 62
7
  6
CONTINUOUS
 10
153.4851022947
 20
126.5392406592
 11
153.8359240167
 21
126.5073955413
  0
LINE
  5
421
100
AcDbEntity
  8
0
100
AcDbLine
 62
7
  6
CONTINUOUS
 10
164.6851022947
 20
126.5392406592
 11
165.0359240167
 21
126.5073955413
  0
LINE
  5
422
100
AcDbEntity
  8
ASSI
100
AcDbLine
 62
7
  6
CONTINUOUS
 10
164.6851022947
 20
126.5392406592
 11
165.0359240167
 21
126.5073955413
  0
LWPOLYLINE
  5
423
100
AcDbEntity
  8
0
100
AcDbPolyline
 62
253
  6
CONTINUOUS
 90
7
 70
0
 10
171.7064968783
 20
82.3581459423
 10
171.7075469469
 20
82.3655319659
 10
171.708638805
 20
82.3788078288
 10
171.709744594
 20
82.3979049022
 10
171.7108157069
 20
82.4227249479
 10
171.7118462155
 20
82.4531429171
 10
171.7138724629
 20
82.5301489544
  0
LWPOLYLINE
  5
424
100
AcDbEntity
  8
ASSI
100
AcDbPolyline
 62
253
  6
CONTINUOUS
 90
7
 70
0
 10
171.7064968783
 20
82.3581459423
 10
171.7075469469
 20
82.3655319659
 10
171.708638805
 20
82.3788078288
 10
171.709744594
 20
82.3979049022
 10
171.7108157069
 20
82.4227249479
 10
171.7118462155
 20
82.4531429171
 10
171.7138724629
 20
82.5301489544
  0
LINE
  5
425
100
AcDbEntity
  8
0
100
AcDbLine
 62
7
  6
CONTINUOUS
 10
116.0601532997
 20
82.2258321059
 11
113.1829033963
 21
82.3766223838
  0
LINE
  5
426
100
AcDbEntity
  8
ASSI
100
AcDbLine
 62
7
  6
CONTINUOUS
 10
116.0601532997
 20
82.2258321059
 11
113.1829033963
 21
82.3766223838
  0
LWPOLYLINE
  5
427
100
AcDbEntity
  8
0
100
AcDbPolyline
 62
253
  6
CONTINUOUS
 90
5
 70
0
 10
113.535454901
 20
82.3581459423
 10
113.4512460932
 20
82.3655319659
 10
113.3677824035
 20
82.3788078288
 10
113.2854746491
 20
82.3979049022
 10
113.204728964
 20
82.4227249479
  0
LWPOLYLINE
  5
428
100
AcDbEntity
  8
ASSI
100
AcDbPolyline
 62
253
  6
CONTINUOUS
 90
5
 70
0
 10
113.535454901
 20
82.3581459423
 10
113.4512460932
 20
82.3655319659
 10
113.3677824035
 20
82.3788078288
 10
113.2854746491
 20
82.3979049022
 10
113.204728964
 20
82.4227249479
  0
LWPOLYLINE
  5
429
100
AcDbEntity
  8
0
100
AcDbPolyline
 62
253
  6
CONTINUOUS
 90
5
 70
0
 10
113.204729036
 20
126.3423478198
 10
113.2854747193
 20
126.3671678655
 10
113.3677824736
 20
126.3862649393
 10
113.4512461643
 20
126.3995408027
 10
113.5354549744
 20
126.4069268266
  0
LWPOLYLINE
  5
42A
100
AcDbEntity
  8
ASSI
100
AcDbPolyline
 62
253
  6
CONTINUOUS
 90
5
 70
0
 10
113.204729036
 20
126.3423478198
 10
113.2854747193
 20
126.3671678655
 10
113.3677824736
 20
126.3862649393
 10
113.4512461643
 20
126.3995408027
 10
113.5354549744
 20
126.4069268266
  0
LINE
  5
42B
100
AcDbEntity
  8
0
100
AcDbLine
 62
253
  6
CONTINUOUS
 10
112.397715579
 20
83.5052850222
 11
112.4034177401
 21
83.5055858495
  0
LINE
  5
42C
100
AcDbEntity
  8
ASSI
100
AcDbLine
 62
253
  6
CONTINUOUS
 10
112.397715579
 20
83.5052850222
 11
112.4034177401
 21
83.5055858495
  0
LINE
  5
42D
100
AcDbEntity
  8
0
100
AcDbLine
 62
253
  6
CONTINUOUS
 10
112.4034177401
 20
83.5055858495
 11
112.6069963918
 21
83.5147234049
  0
LINE
  5
42E
100
AcDbEntity
  8
ASSI
100
AcDbLine
 62
253
  6
CONTINUOUS
 10
112.4034177401
 20
83.5055858495
 11
112.6069963918
 21
83.5147234049
  0
LINE
  5
42F
100
AcDbEntity
  8
0
100
AcDbLine
 62
253
  6
CONTINUOUS
 10
112.6069963918
 20
83.5147234049
 11
112.8830453951
 21
83.5267199112
  0
LINE
  5
430
100
AcDbEntity
  8
ASSI
100
AcDbLine
 62
253
  6
CONTINUOUS
 10
112.6069963918
 20
83.5147234049
 11
112.8830453951
 21
83.5267199112
  0
LWPOLYLINE
  5
431
100
AcDbEntity
  8
0
100
AcDbPolyline
 62
253
  6
CONTINUOUS
 90
4
 70
0
 10
112.0473408812
 20
83.5123716526
 10
112.0502798245
 20
83.5124957966
 10
112.0582691869
 20
83.5124773386
 10
112.0710791111
 20
83.5123164858
  0
LWPOLYLINE
  5
432
100
AcDbEntity
  8
ASSI
100
AcDbPolyline
 62
253
  6
CONTINUOUS
 90
4
 70
0
 10
112.0473408812
 20
83.5123716526
 10
112.0502798245
 20
83.5124957966
 10
112.0582691869
 20
83.5124773386
 10
112.0710791111
 20
83.5123164858
  0
LINE
  5
433
100
AcDbEntity
  8
0
100
AcDbLine
 62
253
  6
CONTINUOUS
 10
112.0710791111
 20
83.5123164858
 11
112.3977155769
 21
83.5052850341
  0
LINE
  5
434
100
AcDbEntity
  8
ASSI
100
AcDbLine
 62
253
  6
CONTINUOUS
 10
112.0710791111
 20
83.5123164858
 11
112.3977155769
 21
83.5052850341
  0
LINE
  5
435
100
AcDbEntity
  8
0
100
AcDbLine
 62
253
  6
CONTINUOUS
 10
116.1036979958
 20
82.7235502602
 11
113.548534405
 21
82.8574607097
  0
LINE
  5
436
100
AcDbEntity
  8
ASSI
100
AcDbLine
 62
253
  6
CONTINUOUS
 10
116.1036979958
 20
82.7235502602
 11
113.548534405
 21
82.8574607097
  0
LWPOLYLINE
  5
437
100
AcDbEntity
  8
0
100
AcDbPolyline
 62
253
  6
CONTINUOUS
 90
22
 70
0
 10
113.548534405
 20
82.8574607097
 10
113.4991272815
 20
82.8618132627
 10
113.4505528403
 20
82.8695071345
 10
113.4028110814
 20
82.8805423251
 10
113.3556518815
 20
82.8950077484
 10
113.309325364
 20
82.9128144906
 10
113.2645818988
 20
82.9336958099
 10
113.2214668046
 20
82.9576964539
 10
113.1799347628
 20
82.9847716752
 10
113.1406001876
 20
83.0145204896
 10
113.1034957582
 20
83.0469845468
 10
113.0685887954
 20
83.0821221972
 10
113.0363956756
 20
83.1194075082
 10
113.0069597038
 20
83.1588701597
 10
112.980237575
 20
83.2004804718
 10
112.9566157507
 20
83.2436234718
 10
112.9361385602
 20
83.2883429858
 10
112.9187616743
 20
83.3345951878
 10
112.9047385675
 20
83.3816336265
 10
112.894153731
 20
83.4292094847
 10
112.8869226736
 20
83.4775715796
 10
112.8830453951
 20
83.5267199112
  0
LWPOLYLINE
  5
438
100
AcDbEntity
  8
ASSI
100
AcDbPolyline
 62
253
  6
CONTINUOUS
 90
22
 70
0
 10
113.548534405
 20
82.8574607097
 10
113.4991272815
 20
82.8618132627
 10
113.4505528403
 20
82.8695071345
 10
113.4028110814
 20
82.8805423251
 10
113.3556518815
 20
82.8950077484
 10
113.309325364
 20
82.9128144906
 10
113.2645818988
 20
82.9336958099
 10
113.2214668046
 20
82.9576964539
 10
113.1799347628
 20
82.9847716752
 10
113.1406001876
 20
83.0145204896
 10
113.1034957582
 20
83.0469845468
 10
113.0685887954
 20
83.0821221972
 10
113.0363956756
 20
83.1194075082
 10
113.0069597038
 20
83.1588701597
 10
112.980237575
 20
83.2004804718
 10
112.9566157507
 20
83.2436234718
 10
112.9361385602
 20
83.2883429858
 10
112.9187616743
 20
83.3345951878
 10
112.9047385675
 20
83.3816336265
 10
112.894153731
 20
83.4292094847
 10
112.8869226736
 20
83.4775715796
 10
112.8830453951
 20
83.5267199112
  0
LWPOLYLINE
  5
439
100
AcDbEntity
  8
0
100
AcDbPolyline
 62
253
  6
CONTINUOUS
 90
18
 70
0
 10
113.204728964
 20
82.4227249479
 10
113.1259405784
 20
82.4531429171
 10
113.0494926132
 20
82.489009533
 10
112.9757569876
 20
82.5301489544
 10
112.905100112
 20
82.5763551599
 10
112.8378767647
 20
82.6273956282
 10
112.7744178641
 20
82.6830152974
 10
112.7150322706
 20
82.7429390448
 10
112.6600132186
 20
82.8068699106
 10
112.6096294428
 20
82.8744915872
 10
112.564126994
 20
82.9454688608
 10
112.5237306741
 20
83.0194494398
 10
112.4886395171
 20
83.0960616256
 10
112.4590201473
 20
83.1749323464
 10
112.4350129329
 20
83.2556893634
 10
112.416736497
 20
83.3379409502
 10
112.4042832187
 20
83.4212763831
 10
112.3977155765
 20
83.5052850343
  0
LWPOLYLINE
  5
43A
100
AcDbEntity
  8
ASSI
100
AcDbPolyline
 62
253
  6
CONTINUOUS
 90
18
 70
0
 10
113.204728964
 20
82.4227249479
 10
113.1259405784
 20
82.4531429171
 10
113.0494926132
 20
82.489009533
 10
112.9757569876
 20
82.5301489544
 10
112.905100112
 20
82.5763551599
 10
112.8378767647
 20
82.6273956282
 10
112.7744178641
 20
82.6830152974
 10
112.7150322706
 20
82.7429390448
 10
112.6600132186
 20
82.8068699106
 10
112.6096294428
 20
82.8744915872
 10
112.564126994
 20
82.9454688608
 10
112.5237306741
 20
83.0194494398
 10
112.4886395171
 20
83.0960616256
 10
112.4590201473
 20
83.1749323464
 10
112.4350129329
 20
83.2556893634
 10
112.416736497
 20
83.3379409502
 10
112.4042832187
 20
83.4212763831
 10
112.3977155765
 20
83.5052850343
  0
LINE
  5
43B
100
AcDbEntity
  8
ASSI
100
AcDbLine
 62
7
  6
CONTINUOUS
 10
112.0467664282
 20
125.2528838041
 11
112.0467186958
 21
125.2528534207
  0
LINE
  5
43C
100
AcDbEntity
  8
0
100
AcDbLine
 62
7
  6
CONTINUOUS
 10
112.0467188273
 20
83.5122253937
 11
112.0473408812
 21
83.5123716526
  0
LINE
  5
43D
100
AcDbEntity
  8
ASSI
100
AcDbLine
 62
7
  6
CONTINUOUS
 10
112.0467188273
 20
83.5122253937
 11
112.0473408812
 21
83.5123716526
  0
LINE
  5
43E
100
AcDbEntity
  8
0
100
AcDbLine
 62
253
  6
CONTINUOUS
 10
116.4525122528
 20
86.4490447813
 11
116.4296365324
 21
86.4490447815
  0
LINE
  5
43F
100
AcDbEntity
  8
ASSI
100
AcDbLine
 62
253
  6
CONTINUOUS
 10
116.4525122528
 20
86.4490447813
 11
116.4296365324
 21
86.4490447815
  0
LWPOLYLINE
  5
440
100
AcDbEntity
  8
0
100
AcDbPolyline
 62
253
  6
CONTINUOUS
 90
11
 70
0
 10
113.5354549744
 20
126.4069268266
 10
113.5342348904
 20
126.4041248514
 10
113.5333143527
 20
126.3958924543
 10
113.5327034293
 20
126.3823196741
 10
113.5324088018
 20
126.3635549579
 10
113.5324336928
 20
126.3398035378
 10
113.5327778304
 20
126.311325186
 10
113.5334374507
 20
126.2784313738
 10
113.5344053393
 20
126.2414818649
 10
113.5356709104
 20
126.2008807806
 10
113.5390366287
 20
126.1105352032
  0
LWPOLYLINE
  5
441
100
AcDbEntity
  8
ASSI
100
AcDbPolyline
 62
253
  6
CONTINUOUS
 90
11
 70
0
 10
113.5354549744
 20
126.4069268266
 10
113.5342348904
 20
126.4041248514
 10
113.5333143527
 20
126.3958924543
 10
113.5327034293
 20
126.3823196741
 10
113.5324088018
 20
126.3635549579
 10
113.5324336928
 20
126.3398035378
 10
113.5327778304
 20
126.311325186
 10
113.5334374507
 20
126.2784313738
 10
113.5344053393
 20
126.2414818649
 10
113.5356709104
 20
126.2008807806
 10
113.5390366287
 20
126.1105352032
  0
LWPOLYLINE
  5
442
100
AcDbEntity
  8
0
100
AcDbPolyline
 62
253
  6
CONTINUOUS
 90
9
 70
0
 10
113.535454901
 20
82.3581459423
 10
113.5342347991
 20
82.3609479876
 10
113.5333142527
 20
82.369180577
 10
113.532703329
 20
82.3827536473
 10
113.5324087086
 20
82.4015187317
 10
113.5324336128
 20
82.4252705677
 10
113.5327777681
 20
82.453749328
 10
113.5334374083
 20
82.4866434966
 10
113.5344053165
 20
82.5235932809
  0
LWPOLYLINE
  5
443
100
AcDbEntity
  8
ASSI
100
AcDbPolyline
 62
253
  6
CONTINUOUS
 90
9
 70
0
 10
113.535454901
 20
82.3581459423
 10
113.5342347991
 20
82.3609479876
 10
113.5333142527
 20
82.369180577
 10
113.532703329
 20
82.3827536473
 10
113.5324087086
 20
82.4015187317
 10
113.5324336128
 20
82.4252705677
 10
113.5327777681
 20
82.453749328
 10
113.5334374083
 20
82.4866434966
 10
113.5344053165
 20
82.5235932809
  0
LWPOLYLINE
  5
444
100
AcDbEntity
  8
0
100
AcDbPolyline
 62
253
  6
CONTINUOUS
 90
4
 70
0
 10
111.753509189
 20
90.2161243514
 10
111.8389619975
 20
87.9807585694
 10
111.9369072676
 20
85.74615109
 10
112.0473408812
 20
83.5123716526
  0
LINE
  5
445
100
AcDbEntity
  8
0
100
AcDbLine
 62
253
  6
CONTINUOUS
 10
111.7264128075
 20
90.9997764333
 11
111.7355187077
 21
90.7333882411
  0
LINE
  5
446
100
AcDbEntity
  8
0
100
AcDbLine
 62
253
  6
CONTINUOUS
 10
111.7564788999
 20
118.6325331938
 11
111.7330885049
 21
117.9693983825
  0
LWPOLYLINE
  5
447
100
AcDbEntity
  8
CURVE
100
AcDbPolyline
 62
7
  6
CONTINUOUS
 90
7
 70
0
 10
112.0467333528
 20
125.253147227
 10
111.9381081501
 20
123.0757070829
 10
111.8383818995
 20
120.8238478083
 10
111.7514411709
 20
118.5712856417
 10
111.6772889186
 20
116.3180928687
 10
111.6159281082
 20
114.0643421093
 10
111.5673617073
 20
111.8101063179
  0
LWPOLYLINE
  5
448
100
AcDbEntity
  8
ASSI
100
AcDbPolyline
 62
7
  6
CONTINUOUS
 90
7
 70
0
 10
112.0467333528
 20
125.253147227
 10
111.9381081501
 20
123.0757070829
 10
111.8383818995
 20
120.8238478083
 10
111.7514411709
 20
118.5712856417
 10
111.6772889186
 20
116.3180928687
 10
111.6159281082
 20
114.0643421093
 10
111.5673617073
 20
111.8101063179
  0
LWPOLYLINE
  5
449
100
AcDbEntity
  8
0
100
AcDbPolyline
 62
253
  6
CONTINUOUS
 90
18
 70
0
 10
112.3977156602
 20
125.25978773
 10
112.4042833021
 20
125.3437963896
 10
112.4167365809
 20
125.4271318283
 10
112.4350130176
 20
125.5093834181
 10
112.4590202325
 20
125.5901404348
 10
112.4886396021
 20
125.669011153
 10
112.5237307585
 20
125.7456233366
 10
112.5641270782
 20
125.8196039147
 10
112.6096295269
 20
125.8905811876
 10
112.6600133023
 20
125.9582028635
 10
112.7150323536
 20
126.0221337283
 10
112.7744179463
 20
126.0820574748
 10
112.8378768458
 20
126.1376771432
 10
112.905100192
 20
126.1887176107
 10
112.9757570664
 20
126.2349238155
 10
113.0494926904
 20
126.2760632363
 10
113.1259406532
 20
126.3119298513
 10
113.204729036
 20
126.3423478198
  0
LWPOLYLINE
  5
44A
100
AcDbEntity
  8
ASSI
100
AcDbPolyline
 62
253
  6
CONTINUOUS
 90
18
 70
0
 10
112.3977156602
 20
125.25978773
 10
112.4042833021
 20
125.3437963896
 10
112.4167365809
 20
125.4271318283
 10
112.4350130176
 20
125.5093834181
 10
112.4590202325
 20
125.5901404348
 10
112.4886396021
 20
125.669011153
 10
112.5237307585
 20
125.7456233366
 10
112.5641270782
 20
125.8196039147
 10
112.6096295269
 20
125.8905811876
 10
112.6600133023
 20
125.9582028635
 10
112.7150323536
 20
126.0221337283
 10
112.7744179463
 20
126.0820574748
 10
112.8378768458
 20
126.1376771432
 10
112.905100192
 20
126.1887176107
 10
112.9757570664
 20
126.2349238155
 10
113.0494926904
 20
126.2760632363
 10
113.1259406532
 20
126.3119298513
 10
113.204729036
 20
126.3423478198
  0
LWPOLYLINE
  5
44B
100
AcDbEntity
  8
0
100
AcDbPolyline
 62
253
  6
CONTINUOUS
 90
22
 70
0
 10
112.8830454398
 20
125.238352861
 10
112.8869227377
 20
125.287501192
 10
112.8941538098
 20
125.3358632865
 10
112.9047386559
 20
125.3834391445
 10
112.918761766
 20
125.4304775831
 10
112.9361386502
 20
125.4767297852
 10
112.9566158388
 20
125.5214492994
 10
112.9802376626
 20
125.5645922994
 10
113.006959791
 20
125.6062026115
 10
113.0363957622
 20
125.645665263
 10
113.0685888814
 20
125.6829505738
 10
113.1034958434
 20
125.718088224
 10
113.140600272
 20
125.750552281
 10
113.1799348463
 20
125.7803010952
 10
113.2214668872
 20
125.8073763162
 10
113.2645819803
 20
125.83137696
 10
113.3093254442
 20
125.8522582792
 10
113.3556519604
 20
125.8700650212
 10
113.4028111589
 20
125.8845304444
 10
113.4505529164
 20
125.8955656348
 10
113.4991273563
 20
125.9032595064
 10
113.5485344784
 20
125.9076120592
  0
LWPOLYLINE
  5
44C
100
AcDbEntity
  8
ASSI
100
AcDbPolyline
 62
253
  6
CONTINUOUS
 90
22
 70
0
 10
112.8830454398
 20
125.238352861
 10
112.8869227377
 20
125.287501192
 10
112.8941538098
 20
125.3358632865
 10
112.9047386559
 20
125.3834391445
 10
112.918761766
 20
125.4304775831
 10
112.9361386502
 20
125.4767297852
 10
112.9566158388
 20
125.5214492994
 10
112.9802376626
 20
125.5645922994
 10
113.006959791
 20
125.6062026115
 10
113.0363957622
 20
125.645665263
 10
113.0685888814
 20
125.6829505738
 10
113.1034958434
 20
125.718088224
 10
113.140600272
 20
125.750552281
 10
113.1799348463
 20
125.7803010952
 10
113.2214668872
 20
125.8073763162
 10
113.2645819803
 20
125.83137696
 10
113.3093254442
 20
125.8522582792
 10
113.3556519604
 20
125.8700650212
 10
113.4028111589
 20
125.8845304444
 10
113.4505529164
 20
125.8955656348
 10
113.4991273563
 20
125.9032595064
 10
113.5485344784
 20
125.9076120592
  0
LWPOLYLINE
  5
44D
100
AcDbEntity
  8
0
100
AcDbPolyline
 62
253
  6
CONTINUOUS
 90
16
 70
0
 10
111.9494010286
 20
105.1217543484
 10
111.9521654128
 20
105.0687659405
 10
111.9602120536
 20
105.0175162749
 10
111.9733233447
 20
104.9678872902
 10
111.9916102231
 20
104.9195567045
 10
112.0150946563
 20
104.872845118
 10
112.0432524235
 20
104.828874698
 10
112.0756313054
 20
104.7883347692
 10
112.1121650642
 20
104.751298997
 10
112.1524021562
 20
104.7182014423
 10
112.1957525955
 20
104.6895602219
 10
112.2418029834
 20
104.6656391316
 10
112.2901827965
 20
104.6466009228
 10
112.3403450046
 20
104.632702909
 10
112.3915808474
 20
104.6241574479
 10
112.4432298997
 20
104.6210156067
  0
LWPOLYLINE
  5
44E
100
AcDbEntity
  8
ASSI
100
AcDbPolyline
 62
253
  6
CONTINUOUS
 90
16
 70
0
 10
111.9494010286
 20
105.1217543484
 10
111.9521654128
 20
105.0687659405
 10
111.9602120536
 20
105.0175162749
 10
111.9733233447
 20
104.9678872902
 10
111.9916102231
 20
104.9195567045
 10
112.0150946563
 20
104.872845118
 10
112.0432524235
 20
104.828874698
 10
112.0756313054
 20
104.7883347692
 10
112.1121650642
 20
104.751298997
 10
112.1524021562
 20
104.7182014423
 10
112.1957525955
 20
104.6895602219
 10
112.2418029834
 20
104.6656391316
 10
112.2901827965
 20
104.6466009228
 10
112.3403450046
 20
104.632702909
 10
112.3915808474
 20
104.6241574479
 10
112.4432298997
 20
104.6210156067
  0
LWPOLYLINE
  5
44F
100
AcDbEntity
  8
0
100
AcDbPolyline
 62
253
  6
CONTINUOUS
 90
16
 70
0
 10
111.5033666598
 20
105.1258018923
 10
111.5059851687
 20
105.0737604394
 10
111.5140055463
 20
105.0222741069
 10
111.5273406858
 20
104.9719020712
 10
111.5458457584
 20
104.9231914067
 10
111.5693197867
 20
104.8766711442
 10
111.5975078267
 20
104.8328465255
 10
111.6301037372
 20
104.7921935155
 10
111.6667535045
 20
104.7551536334
 10
111.7070590873
 20
104.7221291576
 10
111.7505827397
 20
104.6934787562
 10
111.7968517652
 20
104.669513592
 10
111.845363651
 20
104.6504939429
 10
111.895591525
 20
104.6366263752
 10
111.9469898784
 20
104.6280615002
 10
111.9990004903
 20
104.624892338
  0
LWPOLYLINE
  5
450
100
AcDbEntity
  8
ASSI
100
AcDbPolyline
 62
253
  6
CONTINUOUS
 90
16
 70
0
 10
111.5033666598
 20
105.1258018923
 10
111.5059851687
 20
105.0737604394
 10
111.5140055463
 20
105.0222741069
 10
111.5273406858
 20
104.9719020712
 10
111.5458457584
 20
104.9231914067
 10
111.5693197867
 20
104.8766711442
 10
111.5975078267
 20
104.8328465255
 10
111.6301037372
 20
104.7921935155
 10
111.6667535045
 20
104.7551536334
 10
111.7070590873
 20
104.7221291576
 10
111.7505827397
 20
104.6934787562
 10
111.7968517652
 20
104.669513592
 10
111.845363651
 20
104.6504939429
 10
111.895591525
 20
104.6366263752
 10
111.9469898784
 20
104.6280615002
 10
111.9990004903
 20
104.624892338
  0
LWPOLYLINE
  5
451
100
AcDbEntity
  8
0
100
AcDbPolyline
 62
253
  6
CONTINUOUS
 90
10
 70
0
 10
112.3977155769
 20
83.5052850341
 10
112.3036196039
 20
85.8210554998
 10
112.2218744377
 20
88.0984948311
 10
112.1519360187
 20
90.337532954
 10
112.0938852053
 20
92.5128808552
 10
112.0463569674
 20
94.6496982574
 10
112.0076564496
 20
96.8236183411
 10
111.9780024013
 20
99.0598364825
 10
111.9584111185
 20
101.3330850464
 10
111.9494009491
 20
103.643318428
  0
LWPOLYLINE
  5
452
100
AcDbEntity
  8
ASSI
100
AcDbPolyline
 62
253
  6
CONTINUOUS
 90
10
 70
0
 10
112.3977155769
 20
83.5052850341
 10
112.3036196039
 20
85.8210554998
 10
112.2218744377
 20
88.0984948311
 10
112.1519360187
 20
90.337532954
 10
112.0938852053
 20
92.5128808552
 10
112.0463569674
 20
94.6496982574
 10
112.0076564496
 20
96.8236183411
 10
111.9780024013
 20
99.0598364825
 10
111.9584111185
 20
101.3330850464
 10
111.9494009491
 20
103.643318428
  0
LWPOLYLINE
  5
453
100
AcDbEntity
  8
0
100
AcDbPolyline
 62
253
  6
CONTINUOUS
 90
10
 70
0
 10
112.8830453951
 20
83.5267199112
 10
112.7898045274
 20
85.8402046185
 10
112.7078435897
 20
88.1152697223
 10
112.6371625818
 20
90.3519152225
 10
112.5783337423
 20
92.5249892805
 10
112.5307848327
 20
94.659643735
 10
112.4927991378
 20
96.8313341022
 10
112.4638044192
 20
99.0652122208
 10
112.4443729154
 20
101.3361262522
 10
112.4339500586
 20
103.7299905799
  0
LWPOLYLINE
  5
454
100
AcDbEntity
  8
ASSI
100
AcDbPolyline
 62
253
  6
CONTINUOUS
 90
10
 70
0
 10
112.8830453951
 20
83.5267199112
 10
112.7898045274
 20
85.8402046185
 10
112.7078435897
 20
88.1152697223
 10
112.6371625818
 20
90.3519152225
 10
112.5783337423
 20
92.5249892805
 10
112.5307848327
 20
94.659643735
 10
112.4927991378
 20
96.8313341022
 10
112.4638044192
 20
99.0652122208
 10
112.4443729154
 20
101.3361262522
 10
112.4339500586
 20
103.7299905799
  0
LINE
  5
455
100
AcDbEntity
  8
SUPERFICI
100
AcDbLine
 62
7
  6
CONTINUOUS
 10
111.5392507609
 20
98.9008840473
 11
111.5391652635
 21
98.9033109606
  0
LINE
  5
456
100
AcDbEntity
  8
0
100
AcDbLine
 62
7
  6
CONTINUOUS
 10
111.5391456501
 20
98.9041581372
 11
111.5392510471
 21
98.900870366
  0
LINE
  5
457
100
AcDbEntity
  8
ASSI
100
AcDbLine
 62
7
  6
CONTINUOUS
 10
111.5391456501
 20
98.9041581372
 11
111.5392510471
 21
98.900870366
  0
LINE
  5
458
100
AcDbEntity
  8
0
100
AcDbLine
 62
253
  6
CONTINUOUS
 10
111.6619539771
 20
93.0716413905
 11
111.753509189
 21
90.2161243514
  0
LINE
  5
459
100
AcDbEntity
  8
0
100
AcDbLine
 62
253
  6
CONTINUOUS
 10
111.6805517885
 20
92.4522179416
 11
111.6129949327
 21
94.9693983825
  0
LWPOLYLINE
  5
45A
100
AcDbEntity
  8
0
100
AcDbPolyline
 62
253
  6
CONTINUOUS
 90
10
 70
0
 10
112.4352432357
 20
104.7681345709
 10
112.4358270932
 20
104.738559764
 10
112.4365005172
 20
104.7119144478
 10
112.4372588837
 20
104.6883817028
 10
112.4380968722
 20
104.6681370249
 10
112.439007855
 20
104.6513499524
 10
112.4399844187
 20
104.6381589658
 10
112.4410188833
 20
104.6286649065
 10
112.4421034803
 20
104.6229363434
 10
112.4432298997
 20
104.6210156067
  0
LWPOLYLINE
  5
45B
100
AcDbEntity
  8
ASSI
100
AcDbPolyline
 62
253
  6
CONTINUOUS
 90
10
 70
0
 10
112.4352432357
 20
104.7681345709
 10
112.4358270932
 20
104.738559764
 10
112.4365005172
 20
104.7119144478
 10
112.4372588837
 20
104.6883817028
 10
112.4380968722
 20
104.6681370249
 10
112.439007855
 20
104.6513499524
 10
112.4399844187
 20
104.6381589658
 10
112.4410188833
 20
104.6286649065
 10
112.4421034803
 20
104.6229363434
 10
112.4432298997
 20
104.6210156067
  0
LINE
  5
45C
100
AcDbEntity
  8
SUPERFICI
100
AcDbLine
 62
7
  6
CONTINUOUS
 10
111.5391652635
 20
98.9033109606
 11
111.5385227239
 21
98.9387652654
  0
LINE
  5
45D
100
AcDbEntity
  8
0
100
AcDbLine
 62
7
  6
CONTINUOUS
 10
111.5383295125
 20
98.9506732669
 11
111.5391456501
 21
98.9041581372
  0
LINE
  5
45E
100
AcDbEntity
  8
ASSI
100
AcDbLine
 62
7
  6
CONTINUOUS
 10
111.5383295125
 20
98.9506732669
 11
111.5391456501
 21
98.9041581372
  0
LWPOLYLINE
  5
45F
100
AcDbEntity
  8
0
100
AcDbPolyline
 62
253
  6
CONTINUOUS
 90
3
 70
0
 10
111.5383295125
 20
98.9506732669
 10
111.5721467193
 20
96.9260734297
 10
111.6200955264
 20
94.6889302295
  0
LWPOLYLINE
  5
460
100
AcDbEntity
  8
ASSI
100
AcDbPolyline
 62
253
  6
CONTINUOUS
 90
8
 70
0
 10
111.5383295125
 20
98.9506732669
 10
111.5721467193
 20
96.9260734297
 10
111.6200955264
 20
94.6889302295
 10
111.6805517885
 20
92.4522179416
 10
111.753509189
 20
90.2161243514
 10
111.8389619975
 20
87.9807585694
 10
111.9369072676
 20
85.74615109
 10
111.9381081501
 20
85.6893656822
  0
LWPOLYLINE
  5
461
100
AcDbEntity
  8
0
100
AcDbPolyline
 62
7
  6
CONTINUOUS
 90
18
 70
0
 10
111.4985983443
 20
105.1258505984
 10
111.4988117644
 20
105.1102776201
 10
111.502522873
 20
105.0623849374
 10
111.5108084839
 20
105.0150881841
 10
111.5235867359
 20
104.9688226023
 10
111.5407345473
 20
104.9240130647
 10
111.5620889838
 20
104.8810699795
 10
111.5874485525
 20
104.8403862164
 10
111.6165749625
 20
104.8023334246
 10
111.6491947467
 20
104.7672590015
 10
111.6850054554
 20
104.7354793425
 10
111.7236791458
 20
104.7072787902
 10
111.7648650667
 20
104.6829090527
 10
111.808178322
 20
104.662594066
 10
111.8532053911
 20
104.6465205553
 10
111.8995264409
 20
104.6348282374
 10
111.9467213236
 20
104.6276133105
 10
111.9942342084
 20
104.6249339327
  0
LWPOLYLINE
  5
462
100
AcDbEntity
  8
ASSI
100
AcDbPolyline
 62
7
  6
CONTINUOUS
 90
18
 70
0
 10
111.4985983443
 20
105.1258505984
 10
111.4988117644
 20
105.1102776201
 10
111.502522873
 20
105.0623849374
 10
111.5108084839
 20
105.0150881841
 10
111.5235867359
 20
104.9688226023
 10
111.5407345473
 20
104.9240130647
 10
111.5620889838
 20
104.8810699795
 10
111.5874485525
 20
104.8403862164
 10
111.6165749625
 20
104.8023334246
 10
111.6491947467
 20
104.7672590015
 10
111.6850054554
 20
104.7354793425
 10
111.7236791458
 20
104.7072787902
 10
111.7648650667
 20
104.6829090527
 10
111.808178322
 20
104.662594066
 10
111.8532053911
 20
104.6465205553
 10
111.8995264409
 20
104.6348282374
 10
111.9467213236
 20
104.6276133105
 10
111.9942342084
 20
104.6249339327
  0
LINE
  5
463
100
AcDbEntity
  8
SUPERFICI
100
AcDbLine
 62
7
  6
CONTINUOUS
 10
111.5385227239
 20
98.9387652654
 11
111.5273365607
 21
99.7797401392
  0
LINE
  5
464
100
AcDbEntity
  8
0
100
AcDbLine
 62
7
  6
CONTINUOUS
 10
111.5266066916
 20
99.8430946151
 11
111.5383295125
 21
98.9506732669
  0
LINE
  5
465
100
AcDbEntity
  8
ASSI
100
AcDbLine
 62
7
  6
CONTINUOUS
 10
111.5266066916
 20
99.8430946151
 11
111.5383295125
 21
98.9506732669
  0
LINE
  5
466
100
AcDbEntity
  8
0
100
AcDbLine
 62
253
  6
CONTINUOUS
 10
112.4343612376
 20
104.8352156183
 11
112.4352432357
 21
104.7681345709
  0
LINE
  5
467
100
AcDbEntity
  8
ASSI
100
AcDbLine
 62
253
  6
CONTINUOUS
 10
112.4343612376
 20
104.8352156183
 11
112.4352432357
 21
104.7681345709
  0
LINE
  5
468
100
AcDbEntity
  8
SUPERFICI
100
AcDbLine
 62
7
  6
CONTINUOUS
 10
111.5273365607
 20
99.7797401392
 11
111.517788694
 21
100.7490510558
  0
LINE
  5
469
100
AcDbEntity
  8
0
100
AcDbLine
 62
7
  6
CONTINUOUS
 10
111.5175159487
 20
100.7866020795
 11
111.5266066916
 21
99.8430946151
  0
LINE
  5
46A
100
AcDbEntity
  8
0
100
AcDbLine
 62
253
  6
CONTINUOUS
 10
112.4338840598
 20
104.9109119077
 11
112.4343612376
 21
104.8352156183
  0
LINE
  5
46B
100
AcDbEntity
  8
ASSI
100
AcDbLine
 62
253
  6
CONTINUOUS
 10
112.4338840598
 20
104.9109119077
 11
112.4343612376
 21
104.8352156183
  0
LWPOLYLINE
  5
46C
100
AcDbEntity
  8
CURVE
100
AcDbPolyline
 62
7
  6
CONTINUOUS
 90
10
 70
0
 10
111.4986012019
 20
103.6392221723
 10
111.5086239448
 20
101.4646026438
 10
111.5315926701
 20
99.2096145832
 10
111.5673617073
 20
96.9549664472
 10
111.6159281082
 20
94.7007306558
 10
111.6772889186
 20
92.4469798964
 10
111.7514411709
 20
90.1937871234
 10
111.8383818995
 20
87.9412249567
 10
111.9381081501
 20
85.6893656822
 10
112.0467333528
 20
83.5119255381
  0
LWPOLYLINE
  5
46D
100
AcDbEntity
  8
ASSI
100
AcDbPolyline
 62
7
  6
CONTINUOUS
 90
10
 70
0
 10
111.4986012019
 20
103.6392221723
 10
111.5086239448
 20
101.4646026438
 10
111.5315926701
 20
99.2096145832
 10
111.5673617073
 20
96.9549664472
 10
111.6159281082
 20
94.7007306558
 10
111.6772889186
 20
92.4469798964
 10
111.7514411709
 20
90.1937871234
 10
111.8383818995
 20
87.9412249567
 10
111.9381081501
 20
85.6893656822
 10
112.0467333528
 20
83.5119255381
  0
LWPOLYLINE
  5
46E
100
AcDbEntity
  8
0
100
AcDbPolyline
 62
253
  6
CONTINUOUS
 90
3
 70
0
 10
111.5033666643
 20
103.6392708728
 10
111.5137806226
 20
101.4012940938
 10
111.5367080215
 20
99.1635382785
  0
LWPOLYLINE
  5
46F
100
AcDbEntity
  8
ASSI
100
AcDbPolyline
 62
253
  6
CONTINUOUS
 90
3
 70
0
 10
111.5033666643
 20
103.6392708728
 10
111.5137806226
 20
101.4012940938
 10
111.5367080215
 20
99.1635382785
  0
LWPOLYLINE
  5
470
100
AcDbEntity
  8
SUPERFICI
100
AcDbPolyline
 62
7
  6
CONTINUOUS
 90
4
 70
0
 10
111.517788694
 20
100.7490510558
 10
111.5171125638
 20
100.85464576
 10
111.5171041045
 20
100.8617783201
 10
111.5171369
 20
100.8642191764
  0
LINE
  5
471
100
AcDbEntity
  8
0
100
AcDbLine
 62
253
  6
CONTINUOUS
 10
112.4339500586
 20
103.7299905799
 11
112.4338016947
 21
103.8138288583
  0
LINE
  5
472
100
AcDbEntity
  8
ASSI
100
AcDbLine
 62
253
  6
CONTINUOUS
 10
112.4339500586
 20
103.7299905799
 11
112.4338016947
 21
103.8138288583
  0
LINE
  5
473
100
AcDbEntity
  8
0
100
AcDbLine
 62
253
  6
CONTINUOUS
 10
112.4338241636
 20
104.992749508
 11
112.4338840598
 21
104.9109119077
  0
LINE
  5
474
100
AcDbEntity
  8
ASSI
100
AcDbLine
 62
253
  6
CONTINUOUS
 10
112.4338241636
 20
104.992749508
 11
112.4338840598
 21
104.9109119077
  0
LWPOLYLINE
  5
475
100
AcDbEntity
  8
0
100
AcDbPolyline
 62
253
  6
CONTINUOUS
 90
10
 70
0
 10
111.9494009493
 20
105.1217543405
 10
111.9569359643
 20
107.1873295818
 10
111.9735670721
 20
109.283876795
 10
111.9996955536
 20
111.4113534768
 10
112.0354220546
 20
113.5535200457
 10
112.0813204889
 20
115.7265232581
 10
112.1391648862
 20
117.9788806119
 10
112.2105929874
 20
120.3267023252
 10
112.2963793463
 20
122.7537058545
 10
112.397715575
 20
125.2597877342
  0
LWPOLYLINE
  5
476
100
AcDbEntity
  8
ASSI
100
AcDbPolyline
 62
253
  6
CONTINUOUS
 90
10
 70
0
 10
111.9494009493
 20
105.1217543405
 10
111.9569359643
 20
107.1873295818
 10
111.9735670721
 20
109.283876795
 10
111.9996955536
 20
111.4113534768
 10
112.0354220546
 20
113.5535200457
 10
112.0813204889
 20
115.7265232581
 10
112.1391648862
 20
117.9788806119
 10
112.2105929874
 20
120.3267023252
 10
112.2963793463
 20
122.7537058545
 10
112.397715575
 20
125.2597877342
  0
LINE
  5
477
100
AcDbEntity
  8
CURVE
100
AcDbLine
 62
7
  6
CONTINUOUS
 10
111.5086239448
 20
107.3004701213
 11
111.4986012019
 21
105.1258505927
  0
LINE
  5
478
100
AcDbEntity
  8
ASSI
100
AcDbLine
 62
7
  6
CONTINUOUS
 10
111.5086239448
 20
107.3004701213
 11
111.4986012019
 21
105.1258505927
  0
LWPOLYLINE
  5
479
100
AcDbEntity
  8
0
100
AcDbPolyline
 62
253
  6
CONTINUOUS
 90
4
 70
0
 10
111.5033666643
 20
105.1258018923
 10
111.5137805234
 20
107.363765353
 10
111.5367076876
 20
109.6015088797
 10
111.5721460323
 20
111.8389624706
  0
LWPOLYLINE
  5
47A
100
AcDbEntity
  8
ASSI
100
AcDbPolyline
 62
253
  6
CONTINUOUS
 90
10
 70
0
 10
111.5033666643
 20
105.1258018923
 10
111.5137805234
 20
107.363765353
 10
111.5367076876
 20
109.6015088797
 10
111.5721460323
 20
111.8389624706
 10
111.620094311
 20
114.0760923766
 10
111.6805499266
 20
116.3127924034
 10
111.7535069058
 20
118.548883966
 10
111.8389598156
 20
120.7842610145
 10
111.9369057895
 20
123.0188899796
 10
111.9381081501
 20
123.0757070829
  0
LINE
  5
47B
100
AcDbEntity
  8
0
100
AcDbLine
 62
253
  6
CONTINUOUS
 10
112.4338016947
 20
103.8138288583
 11
112.4340708448
 21
103.8929378104
  0
LINE
  5
47C
100
AcDbEntity
  8
ASSI
100
AcDbLine
 62
253
  6
CONTINUOUS
 10
112.4338016947
 20
103.8138288583
 11
112.4340708448
 21
103.8929378104
  0
LINE
  5
47D
100
AcDbEntity
  8
0
100
AcDbLine
 62
253
  6
CONTINUOUS
 10
112.4413673579
 20
107.1845612133
 11
112.4338241636
 21
104.992749508
  0
LINE
  5
47E
100
AcDbEntity
  8
ASSI
100
AcDbLine
 62
253
  6
CONTINUOUS
 10
112.4413673579
 20
107.1845612133
 11
112.4338241636
 21
104.992749508
  0
LWPOLYLINE
  5
47F
100
AcDbEntity
  8
0
100
AcDbPolyline
 62
253
  6
CONTINUOUS
 90
9
 70
0
 10
112.4413673579
 20
107.1845612133
 10
112.4581435993
 20
109.2789631966
 10
112.4848334174
 20
111.4042025182
 10
112.5203298491
 20
113.5441632405
 10
112.5657398575
 20
115.7149613011
 10
112.6243843318
 20
117.9649445122
 10
112.6973702352
 20
120.3102288113
 10
112.7835906045
 20
122.7346982609
 10
112.8830454398
 20
125.238352861
  0
LWPOLYLINE
  5
480
100
AcDbEntity
  8
ASSI
100
AcDbPolyline
 62
253
  6
CONTINUOUS
 90
9
 70
0
 10
112.4413673579
 20
107.1845612133
 10
112.4581435993
 20
109.2789631966
 10
112.4848334174
 20
111.4042025182
 10
112.5203298491
 20
113.5441632405
 10
112.5657398575
 20
115.7149613011
 10
112.6243843318
 20
117.9649445122
 10
112.6973702352
 20
120.3102288113
 10
112.7835906045
 20
122.7346982609
 10
112.8830454398
 20
125.238352861
  0
LWPOLYLINE
  5
481
100
AcDbEntity
  8
0
100
AcDbPolyline
 62
7
  6
CONTINUOUS
 90
4
 70
0
 10
111.5171368364
 20
100.8642191767
 10
111.5171033865
 20
100.8609106227
 10
111.5171236762
 20
100.8515239675
 10
111.5175159487
 20
100.7866020795
  0
LWPOLYLINE
  5
482
100
AcDbEntity
  8
ASSI
100
AcDbPolyline
 62
7
  6
CONTINUOUS
 90
4
 70
0
 10
111.5171368364
 20
100.8642191767
 10
111.5171033865
 20
100.8609106227
 10
111.5171236762
 20
100.8515239675
 10
111.5188252448
 20
100.6195914129
  0
LWPOLYLINE
  5
483
100
AcDbEntity
  8
0
100
AcDbPolyline
 62
253
  6
CONTINUOUS
 90
12
 70
0
 10
112.4340708448
 20
103.8929378104
 10
112.4347531027
 20
103.9646309015
 10
112.4352431675
 20
103.9969381308
 10
112.4358270249
 20
104.0265129487
 10
112.4365004488
 20
104.0531582725
 10
112.4372588153
 20
104.0766910258
 10
112.4380968038
 20
104.0969357134
 10
112.4390077868
 20
104.1137227948
 10
112.4399843507
 20
104.1269137888
 10
112.4410188156
 20
104.1364078534
 10
112.4421034129
 20
104.1421364199
 10
112.4432298327
 20
104.1440571578
  0
LWPOLYLINE
  5
484
100
AcDbEntity
  8
ASSI
100
AcDbPolyline
 62
253
  6
CONTINUOUS
 90
12
 70
0
 10
112.4340708448
 20
103.8929378104
 10
112.4347531027
 20
103.9646309015
 10
112.4352431675
 20
103.9969381308
 10
112.4358270249
 20
104.0265129487
 10
112.4365004488
 20
104.0531582725
 10
112.4372588153
 20
104.0766910258
 10
112.4380968038
 20
104.0969357134
 10
112.4390077868
 20
104.1137227948
 10
112.4399843507
 20
104.1269137888
 10
112.4410188156
 20
104.1364078534
 10
112.4421034129
 20
104.1421364199
 10
112.4432298327
 20
104.1440571578
  0
LWPOLYLINE
  5
485
100
AcDbEntity
  8
CURVE
100
AcDbPolyline
 62
7
  6
CONTINUOUS
 90
3
 70
0
 10
111.5673617073
 20
111.8101063179
 10
111.5315926701
 20
109.5554581819
 10
111.5086239448
 20
107.3004701213
  0
LWPOLYLINE
  5
486
100
AcDbEntity
  8
ASSI
100
AcDbPolyline
 62
7
  6
CONTINUOUS
 90
3
 70
0
 10
111.5673617073
 20
111.8101063179
 10
111.5315926701
 20
109.5554581819
 10
111.5086239448
 20
107.3004701213
  0
LINE
  5
487
100
AcDbEntity
  8
0
100
AcDbLine
 62
253
  6
CONTINUOUS
 10
111.5721460323
 20
111.8389624706
 11
111.6220940651
 21
114.1661563777
  0
LINE
  5
488
100
AcDbEntity
  8
0
100
AcDbLine
 62
253
  6
CONTINUOUS
 10
111.7000631088
 20
116.9583693962
 11
111.620094311
 21
114.0760923766
  0
LWPOLYLINE
  5
489
100
AcDbEntity
  8
0
100
AcDbPolyline
 62
253
  6
CONTINUOUS
 90
5
 70
0
 10
111.6805499266
 20
116.3127924034
 10
111.7535069058
 20
118.548883966
 10
111.8389598156
 20
120.7842610145
 10
111.9369057895
 20
123.0188899796
 10
112.0473408812
 20
125.2527011125
  0
LINE
  5
48A
100
AcDbEntity
  8
0
100
AcDbLine
 62
253
  6
CONTINUOUS
 10
111.6986288625
 20
116.9212309275
 11
111.7198018182
 21
117.5681172274
  0
LWPOLYLINE
  5
48B
100
AcDbEntity
  8
0
100
AcDbPolyline
 62
253
  6
CONTINUOUS
 90
16
 70
0
 10
111.5033664074
 20
103.6392708723
 10
111.5059849182
 20
103.6913123418
 10
111.5140053011
 20
103.7427986904
 10
111.5273404492
 20
103.7931707411
 10
111.5458455337
 20
103.841881419
 10
111.5693195767
 20
103.8884016928
 10
111.5975076339
 20
103.9322263203
 10
111.6301035638
 20
103.9728793361
 10
111.6667533523
 20
104.0099192207
 10
111.7070589575
 20
104.0429436955
 10
111.750582633
 20
104.0715940921
 10
111.7968516819
 20
104.0955592476
 10
111.8453635905
 20
104.1145788839
 10
111.8955914864
 20
104.1284464349
 10
111.9469898602
 20
104.1370112893
 10
111.9990004903
 20
104.1401804271
  0
LWPOLYLINE
  5
48C
100
AcDbEntity
  8
ASSI
100
AcDbPolyline
 62
253
  6
CONTINUOUS
 90
16
 70
0
 10
111.5033664074
 20
103.6392708723
 10
111.5059849182
 20
103.6913123418
 10
111.5140053011
 20
103.7427986904
 10
111.5273404492
 20
103.7931707411
 10
111.5458455337
 20
103.841881419
 10
111.5693195767
 20
103.8884016928
 10
111.5975076339
 20
103.9322263203
 10
111.6301035638
 20
103.9728793361
 10
111.6667533523
 20
104.0099192207
 10
111.7070589575
 20
104.0429436955
 10
111.750582633
 20
104.0715940921
 10
111.7968516819
 20
104.0955592476
 10
111.8453635905
 20
104.1145788839
 10
111.8955914864
 20
104.1284464349
 10
111.9469898602
 20
104.1370112893
 10
111.9990004903
 20
104.1401804271
  0
LWPOLYLINE
  5
48D
100
AcDbEntity
  8
0
100
AcDbPolyline
 62
253
  6
CONTINUOUS
 90
16
 70
0
 10
111.9494009615
 20
103.6433184236
 10
111.9521651249
 20
103.696304836
 10
111.9602112051
 20
103.747552829
 10
111.9733216781
 20
103.7971804829
 10
111.991607528
 20
103.8455100633
 10
112.0150907951
 20
103.8922209909
 10
112.0432474273
 20
103.936191194
 10
112.0756253842
 20
103.9767313965
 10
112.1121585052
 20
104.0137678332
 10
112.1523953069
 20
104.0468663159
 10
112.1957459145
 20
104.0755086525
 10
112.241796964
 20
104.0994309222
 10
112.2901778102
 20
104.1184701979
 10
112.3403413556
 20
104.1323690641
 10
112.3915788555
 20
104.1409150987
 10
112.4432298327
 20
104.1440571578
  0
LWPOLYLINE
  5
48E
100
AcDbEntity
  8
ASSI
100
AcDbPolyline
 62
253
  6
CONTINUOUS
 90
16
 70
0
 10
111.9494009615
 20
103.6433184236
 10
111.9521651249
 20
103.696304836
 10
111.9602112051
 20
103.747552829
 10
111.9733216781
 20
103.7971804829
 10
111.991607528
 20
103.8455100633
 10
112.0150907951
 20
103.8922209909
 10
112.0432474273
 20
103.936191194
 10
112.0756253842
 20
103.9767313965
 10
112.1121585052
 20
104.0137678332
 10
112.1523953069
 20
104.0468663159
 10
112.1957459145
 20
104.0755086525
 10
112.241796964
 20
104.0994309222
 10
112.2901778102
 20
104.1184701979
 10
112.3403413556
 20
104.1323690641
 10
112.3915788555
 20
104.1409150987
 10
112.4432298327
 20
104.1440571578
  0
LINE
  5
48F
100
AcDbEntity
  8
ASSI
100
AcDbLine
 62
7
  6
CONTINUOUS
 10
111.5179006319
 20
100.864211571
 11
111.5177981156
 21
100.8642124301
  0
LINE
  5
490
100
AcDbEntity
  8
SUPERFICI
100
AcDbLine
 62
7
  6
CONTINUOUS
 10
111.5177976344
 20
100.8642124294
 11
111.5179006319
 21
100.8642115689
  0
LINE
  5
491
100
AcDbEntity
  8
0
100
AcDbLine
 62
253
  6
CONTINUOUS
 10
113.5433877631
 20
126.0113363175
 11
113.5485344784
 21
125.9076120592
  0
LINE
  5
492
100
AcDbEntity
  8
ASSI
100
AcDbLine
 62
253
  6
CONTINUOUS
 10
113.5433877631
 20
126.0113363175
 11
113.5485344784
 21
125.9076120592
  0
LINE
  5
493
100
AcDbEntity
  8
0
100
AcDbLine
 62
253
  6
CONTINUOUS
 10
113.5390366287
 20
126.1105352032
 11
113.5433877631
 21
126.0113363175
  0
LINE
  5
494
100
AcDbEntity
  8
ASSI
100
AcDbLine
 62
253
  6
CONTINUOUS
 10
113.5390366287
 20
126.1105352032
 11
113.5433877631
 21
126.0113363175
  0
LINE
  5
495
100
AcDbEntity
  8
0
100
AcDbLine
 62
253
  6
CONTINUOUS
 10
113.5344053165
 20
82.5235932809
 11
113.5372203269
 21
82.6080031075
  0
LINE
  5
496
100
AcDbEntity
  8
ASSI
100
AcDbLine
 62
253
  6
CONTINUOUS
 10
113.5344053165
 20
82.5235932809
 11
113.5372203269
 21
82.6080031075
  0
LINE
  5
497
100
AcDbEntity
  8
0
100
AcDbLine
 62
253
  6
CONTINUOUS
 10
113.5372203269
 20
82.6080031075
 11
113.5410999675
 21
82.7032959294
  0
LINE
  5
498
100
AcDbEntity
  8
ASSI
100
AcDbLine
 62
253
  6
CONTINUOUS
 10
113.5372203269
 20
82.6080031075
 11
113.5410999675
 21
82.7032959294
  0
LWPOLYLINE
  5
499
100
AcDbEntity
  8
0
100
AcDbPolyline
 62
253
  6
CONTINUOUS
 90
3
 70
0
 10
113.5410999675
 20
82.7032959294
 10
113.5458749647
 20
82.8053142215
 10
113.548534405
 20
82.8574607097
  0
LWPOLYLINE
  5
49A
100
AcDbEntity
  8
ASSI
100
AcDbPolyline
 62
253
  6
CONTINUOUS
 90
3
 70
0
 10
113.5410999675
 20
82.7032959294
 10
113.5458749647
 20
82.8053142215
 10
113.548534405
 20
82.8574607097
  0
LINE
  5
49B
100
AcDbEntity
  8
0
100
AcDbLine
 62
7
  6
CONTINUOUS
 10
116.4525122528
 20
122.3160279837
 11
116.4525122528
 21
122.0545573036
  0
LINE
  5
49C
100
AcDbEntity
  8
ASSI
100
AcDbLine
 62
7
  6
CONTINUOUS
 10
116.4525122528
 20
122.3160279837
 11
116.4525122528
 21
122.0545573036
  0
LINE
  5
49D
100
AcDbEntity
  8
0
100
AcDbLine
 62
7
  6
CONTINUOUS
 10
116.4525122528
 20
86.7105154614
 11
116.4525122528
 21
86.4490447813
  0
LINE
  5
49E
100
AcDbEntity
  8
ASSI
100
AcDbLine
 62
7
  6
CONTINUOUS
 10
116.4525122528
 20
86.7105154614
 11
116.4525122528
 21
86.4490447813
  0
LINE
  5
49F
100
AcDbEntity
  8
0
100
AcDbLine
 62
7
  6
CONTINUOUS
 10
111.9942342084
 20
104.1401388324
 11
111.9754321071
 21
104.1390785319
  0
LINE
  5
4A0
100
AcDbEntity
  8
ASSI
100
AcDbLine
 62
7
  6
CONTINUOUS
 10
111.9942342084
 20
104.1401388324
 11
111.9754321071
 21
104.1390785319
  0
LINE
  5
4A1
100
AcDbEntity
  8
0
100
AcDbLine
 62
7
  6
CONTINUOUS
 10
111.5033666643
 20
103.6392708728
 11
111.498601203
 21
103.6392215594
  0
LINE
  5
4A2
100
AcDbEntity
  8
ASSI
100
AcDbLine
 62
7
  6
CONTINUOUS
 10
111.5033666643
 20
103.6392708728
 11
111.498601203
 21
103.6392215594
  0
LINE
  5
4A3
100
AcDbEntity
  8
0
100
AcDbLine
 62
253
  6
CONTINUOUS
 10
111.9494009491
 20
103.643318428
 11
111.5033666643
 21
103.6392708728
  0
LINE
  5
4A4
100
AcDbEntity
  8
ASSI
100
AcDbLine
 62
253
  6
CONTINUOUS
 10
111.9494009491
 20
103.643318428
 11
111.5033666643
 21
103.6392708728
  0
LINE
  5
4A5
100
AcDbEntity
  8
0
100
AcDbLine
 62
253
  6
CONTINUOUS
 10
116.8525122528
 20
103.6826315647
 11
112.4345046263
 21
103.6440761963
  0
LINE
  5
4A6
100
AcDbEntity
  8
ASSI
100
AcDbLine
 62
253
  6
CONTINUOUS
 10
116.8525122528
 20
103.6826315647
 11
112.4345046263
 21
103.6440761963
  0
LINE
  5
4A7
100
AcDbEntity
  8
0
100
AcDbLine
 62
7
  6
CONTINUOUS
 10
116.8525122528
 20
104.1825363825
 11
111.9943136119
 21
104.1401395253
  0
LINE
  5
4A8
100
AcDbEntity
  8
ASSI
100
AcDbLine
 62
7
  6
CONTINUOUS
 10
116.8525122528
 20
104.1825363825
 11
111.9943136119
 21
104.1401395253
  0
LINE
  5
4A9
100
AcDbEntity
  8
0
100
AcDbLine
 62
253
  6
CONTINUOUS
 10
112.4345046275
 20
103.6440761963
 11
111.9494009615
 21
103.6433184236
  0
LINE
  5
4AA
100
AcDbEntity
  8
ASSI
100
AcDbLine
 62
253
  6
CONTINUOUS
 10
112.4345046275
 20
103.6440761963
 11
111.9494009615
 21
103.6433184236
  0
LINE
  5
4AB
100
AcDbEntity
  8
0
100
AcDbLine
 62
7
  6
CONTINUOUS
 10
111.9942342084
 20
104.6249339327
 11
116.8525122528
 21
104.5825363825
  0
LINE
  5
4AC
100
AcDbEntity
  8
ASSI
100
AcDbLine
 62
7
  6
CONTINUOUS
 10
111.9942342084
 20
104.6249339327
 11
116.8525122528
 21
104.5825363825
  0
LINE
  5
4AD
100
AcDbEntity
  8
0
100
AcDbLine
 62
7
  6
CONTINUOUS
 10
116.0601532997
 20
126.5392406592
 11
116.8525122528
 21
117.4825363825
  0
LINE
  5
4AE
100
AcDbEntity
  8
ASSI
100
AcDbLine
 62
7
  6
CONTINUOUS
 10
116.0601532997
 20
126.5392406592
 11
116.8525122528
 21
117.4825363825
  0
LINE
  5
4AF
100
AcDbEntity
  8
0
100
AcDbLine
 62
7
  6
CONTINUOUS
 10
116.8525122528
 20
117.4825363825
 11
116.8525122528
 21
104.5825363825
  0
LINE
  5
4B0
100
AcDbEntity
  8
ASSI
100
AcDbLine
 62
7
  6
CONTINUOUS
 10
116.8525122528
 20
117.4825363825
 11
116.8525122528
 21
104.5825363825
  0
LINE
  5
4B1
100
AcDbEntity
  8
0
100
AcDbLine
 62
7
  6
CONTINUOUS
 10
116.8525122528
 20
91.2825363825
 11
116.8525122528
 21
104.1825363825
  0
LINE
  5
4B2
100
AcDbEntity
  8
ASSI
100
AcDbLine
 62
7
  6
CONTINUOUS
 10
116.8525122528
 20
91.2825363825
 11
116.8525122528
 21
104.1825363825
  0
LINE
  5
4B3
100
AcDbEntity
  8
0
100
AcDbLine
 62
7
  6
CONTINUOUS
 10
116.0601532997
 20
82.2258321059
 11
116.8525122528
 21
91.2825363825
  0
LINE
  5
4B4
100
AcDbEntity
  8
ASSI
100
AcDbLine
 62
7
  6
CONTINUOUS
 10
116.0601532997
 20
82.2258321059
 11
116.8525122528
 21
91.2825363825
  0
LINE
  5
4B5
100
AcDbEntity
  8
0
100
AcDbLine
 62
253
  6
CONTINUOUS
 10
111.9494010286
 20
105.1217543484
 11
112.4345046945
 21
105.1209965682
  0
LINE
  5
4B6
100
AcDbEntity
  8
ASSI
100
AcDbLine
 62
253
  6
CONTINUOUS
 10
111.9494010286
 20
105.1217543484
 11
112.4345046945
 21
105.1209965682
  0
LINE
  5
4B7
100
AcDbEntity
  8
0
100
AcDbLine
 62
253
  6
CONTINUOUS
 10
112.4345046933
 20
105.1209965682
 11
116.8525122528
 21
105.0824412003
  0
LINE
  5
4B8
100
AcDbEntity
  8
ASSI
100
AcDbLine
 62
253
  6
CONTINUOUS
 10
112.4345046933
 20
105.1209965682
 11
116.8525122528
 21
105.0824412003
  0
LINE
  5
4B9
100
AcDbEntity
  8
0
100
AcDbLine
 62
253
  6
CONTINUOUS
 10
111.5033666643
 20
105.1258018923
 11
111.9494009493
 21
105.1217543405
  0
LINE
  5
4BA
100
AcDbEntity
  8
ASSI
100
AcDbLine
 62
253
  6
CONTINUOUS
 10
111.5033666643
 20
105.1258018923
 11
111.9494009493
 21
105.1217543405
  0
LINE
  5
4BB
100
AcDbEntity
  8
0
100
AcDbLine
 62
7
  6
CONTINUOUS
 10
111.5032981317
 20
105.1258042285
 11
111.4986012359
 21
105.1258512109
  0
LINE
  5
4BC
100
AcDbEntity
  8
ASSI
100
AcDbLine
 62
7
  6
CONTINUOUS
 10
111.5032981317
 20
105.1258042285
 11
111.4986012359
 21
105.1258512109
  0
LINE
  5
4BD
100
AcDbEntity
  8
0
100
AcDbLine
 62
253
  6
CONTINUOUS
 10
116.4525122528
 20
122.3160279837
 11
116.4296365324
 21
122.3160279837
  0
LINE
  5
4BE
100
AcDbEntity
  8
ASSI
100
AcDbLine
 62
253
  6
CONTINUOUS
 10
116.4525122528
 20
122.3160279837
 11
116.4296365324
 21
122.3160279837
  0
LWPOLYLINE
  5
4BF
100
AcDbEntity
  8
0
100
AcDbPolyline
 62
253
  6
CONTINUOUS
 90
4
 70
0
 10
112.3977284107
 20
125.2597871998
 10
112.4034303074
 20
125.2594863826
 10
112.4139097297
 20
125.2589806434
 10
112.8830454398
 20
125.238352861
  0
LWPOLYLINE
  5
4C0
100
AcDbEntity
  8
ASSI
100
AcDbPolyline
 62
253
  6
CONTINUOUS
 90
4
 70
0
 10
112.3977284107
 20
125.2597871998
 10
112.4034303074
 20
125.2594863826
 10
112.4139097297
 20
125.2589806434
 10
112.8830454398
 20
125.238352861
  0
LINE
  5
4C1
100
AcDbEntity
  8
0
100
AcDbLine
 62
7
  6
CONTINUOUS
 10
112.0473408812
 20
125.2527011125
 11
112.0467188493
 21
125.2528479988
  0
LINE
  5
4C2
100
AcDbEntity
  8
ASSI
100
AcDbLine
 62
7
  6
CONTINUOUS
 10
112.0473408812
 20
125.2527011125
 11
112.0467188493
 21
125.2528479988
  0
LINE
  5
4C3
100
AcDbEntity
  8
0
100
AcDbLine
 62
7
  6
CONTINUOUS
 10
113.1822943899
 20
126.3884184646
 11
113.0952661833
 21
126.3806693068
  0
LINE
  5
4C4
100
AcDbEntity
  8
ASSI
100
AcDbLine
 62
7
  6
CONTINUOUS
 10
113.1822943899
 20
126.3884184646
 11
113.0952661833
 21
126.3806693068
  0
LINE
  5
4C5
100
AcDbEntity
  8
0
100
AcDbLine
 62
253
  6
CONTINUOUS
 10
113.5485344784
 20
125.9076120592
 11
116.1036979958
 21
126.0415225049
  0
LINE
  5
4C6
100
AcDbEntity
  8
ASSI
100
AcDbLine
 62
253
  6
CONTINUOUS
 10
113.5485344784
 20
125.9076120592
 11
116.1036979958
 21
126.0415225049
  0
LINE
  5
4C7
100
AcDbEntity
  8
0
100
AcDbLine
 62
7
  6
CONTINUOUS
 10
113.1829033963
 20
126.3884503813
 11
116.0601532997
 21
126.5392406592
  0
LINE
  5
4C8
100
AcDbEntity
  8
ASSI
100
AcDbLine
 62
7
  6
CONTINUOUS
 10
113.1829033963
 20
126.3884503813
 11
116.0601532997
 21
126.5392406592
  0
LWPOLYLINE
  5
4C9
100
AcDbEntity
  8
0
100
AcDbPolyline
 62
253
  6
CONTINUOUS
 90
5
 70
0
 10
112.397715575
 20
125.2597877342
 10
112.0936408186
 20
125.2531831271
 10
112.0688550325
 20
125.2527838568
 10
112.0531179897
 20
125.2526230815
 10
112.0473408812
 20
125.2527011125
  0
LWPOLYLINE
  5
4CA
100
AcDbEntity
  8
ASSI
100
AcDbPolyline
 62
253
  6
CONTINUOUS
 90
5
 70
0
 10
112.397715575
 20
125.2597877342
 10
112.0936408186
 20
125.2531831271
 10
112.0688550325
 20
125.2527838568
 10
112.0531179897
 20
125.2526230815
 10
112.0473408812
 20
125.2527011125
  0
ARC
  5
4CB
100
AcDbEntity
  8
0
100
AcDbCircle
 62
7
  6
CONTINUOUS
 10
113.2457065512
 20
83.5749778251
 40
1.2
100
AcDbArc
 50
182.9905824671
 51
267.0000000773
  0
ARC
  5
4CC
100
AcDbEntity
  8
ASSI
100
AcDbCircle
 62
7
  6
CONTINUOUS
 10
113.2457065512
 20
83.5749778251
 40
1.2
100
AcDbArc
 50
182.9905824671
 51
267.0000000773
  0
ARC
  5
4CD
100
AcDbEntity
  8
0
100
AcDbCircle
 62
7
  6
CONTINUOUS
 10
111.9985974894
 20
103.6401578709
 40
0.5
100
AcDbArc
 50
90.5575989706
 51
180.1072238528
  0
ARC
  5
4CE
100
AcDbEntity
  8
ASSI
100
AcDbCircle
 62
7
  6
CONTINUOUS
 10
111.9985974894
 20
103.6401578709
 40
0.5
100
AcDbArc
 50
90.5575989706
 51
180.1072238528
  0
ARC
  5
4CF
100
AcDbEntity
  8
0
100
AcDbCircle
 62
7
  6
CONTINUOUS
 10
113.2457055655
 20
125.1900948883
 40
1.2
100
AcDbArc
 50
92.9999527971
 51
177.0094126144
  0
ARC
  5
4D0
100
AcDbEntity
  8
ASSI
100
AcDbCircle
 62
7
  6
CONTINUOUS
 10
113.2457055655
 20
125.1900948883
 40
1.2
100
AcDbArc
 50
92.9999527971
 51
177.0094126144
  0
ARC
  5
4D1
100
AcDbEntity
  8
0
100
AcDbCircle
 62
7
  6
CONTINUOUS
 10
111.9985974894
 20
105.1249148941
 40
0.5
100
AcDbArc
 50
267.3411443881
 51
269.4424010294
  0
ARC
  5
4D2
100
AcDbEntity
  8
ASSI
100
AcDbCircle
 62
7
  6
CONTINUOUS
 10
111.9985974894
 20
105.1249148941
 40
0.5
100
AcDbArc
 50
267.3411443881
 51
269.4424010294
  0
ARC
  5
4D3
100
AcDbEntity
  8
0
100
AcDbCircle
 62
7
  6
CONTINUOUS
 10
116.1525122528
 20
86.4490447813
 40
0.3
100
AcDbArc
 50
334.999934893
 51
0.0004327973
  0
ARC
  5
4D4
100
AcDbEntity
  8
ASSI
100
AcDbCircle
 62
7
  6
CONTINUOUS
 10
116.1525122528
 20
86.4490447813
 40
0.3
100
AcDbArc
 50
334.999934893
 51
0.0004327973
  0
ARC
  5
4D5
100
AcDbEntity
  8
0
100
AcDbCircle
 62
7
  6
CONTINUOUS
 10
116.1525122528
 20
122.3160279837
 40
0.3
100
AcDbArc
 50
359.9995672027
 51
25.0000856102
  0
ARC
  5
4D6
100
AcDbEntity
  8
ASSI
100
AcDbCircle
 62
7
  6
CONTINUOUS
 10
116.1525122528
 20
122.3160279837
 40
0.3
100
AcDbArc
 50
359.9995672027
 51
25.0000856102
  0
ELLIPSE
  5
4D7
100
AcDbEntity
  8
0
100
AcDbEllipse
 62
7
  6
CONTINUOUS
 10
131.5091290975
 20
82.2524364458
 30
0.0
 11
0.2
 21
0.0
 31
0.0
 40
0.0524077793
 41
1.5707963268
 42
2.617993878
  0
ELLIPSE
  5
4D8
100
AcDbEntity
  8
0
100
AcDbEllipse
 62
7
  6
CONTINUOUS
 10
134.8781889898
 20
82.2524364458
 30
0.0
 11
0.2
 21
0.0
 31
0.0
 40
0.0524077793
 41
0.5235987756
 42
1.5707963268
  0
ELLIPSE
  5
4D9
100
AcDbEntity
  8
0
100
AcDbEllipse
 62
7
  6
CONTINUOUS
 10
142.7091290975
 20
82.2524364458
 30
0.0
 11
0.2
 21
-0.0
 31
0.0
 40
0.0524077793
 41
1.5707963268
 42
2.617993878
  0
ELLIPSE
  5
4DA
100
AcDbEntity
  8
0
100
AcDbEllipse
 62
7
  6
CONTINUOUS
 10
146.0781889898
 20
82.2524364458
 30
0.0
 11
0.2
 21
-0.0
 31
0.0
 40
0.0524077793
 41
0.5235987756
 42
1.5707963268
  0
ELLIPSE
  5
4DB
100
AcDbEntity
  8
0
100
AcDbEllipse
 62
7
  6
CONTINUOUS
 10
157.3781889898
 20
82.2524364458
 30
0.0
 11
0.2
 21
0.0
 31
0.0
 40
0.0524077793
 41
0.5235987756
 42
1.5707963268
  0
ELLIPSE
  5
4DC
100
AcDbEntity
  8
0
100
AcDbEllipse
 62
7
  6
CONTINUOUS
 10
154.0091290975
 20
82.2524364458
 30
0.0
 11
0.2
 21
-0.0
 31
0.0
 40
0.0524077793
 41
1.5707963268
 42
2.617993878
  0
ELLIPSE
  5
4DD
100
AcDbEntity
  8
0
100
AcDbEllipse
 62
7
  6
CONTINUOUS
 10
165.2091290975
 20
82.2524364458
 30
0.0
 11
0.2
 21
0.0
 31
0.0
 40
0.0524077793
 41
1.5707963268
 42
2.617993878
  0
ELLIPSE
  5
4DE
100
AcDbEntity
  8
0
100
AcDbEllipse
 62
7
  6
CONTINUOUS
 10
168.5781889898
 20
82.2524364458
 30
0.0
 11
0.2
 21
0.0
 31
0.0
 40
0.0524077793
 41
0.5235987756
 42
1.5707963268
  0
ELLIPSE
  5
4DF
100
AcDbEntity
  8
0
100
AcDbEllipse
 62
7
  6
CONTINUOUS
 10
171.7926718494
 20
103.6825173433
 30
0.0
 11
0.4745319423
 21
0.1581451893
 31
0.0
 40
0.9996192872
 41
-0.3215754254
 42
1.2489924673
  0
ELLIPSE
  5
4E0
100
AcDbEntity
  8
0
100
AcDbEllipse
 62
7
  6
CONTINUOUS
 10
128.2946462379
 20
103.6825173433
 30
0.0
 11
0.4745319423
 21
-0.1581451893
 31
0.0
 40
0.9996192872
 41
1.8926001863
 42
3.463168079
  0
ELLIPSE
  5
4E1
100
AcDbEntity
  8
0
100
AcDbEllipse
 62
7
  6
CONTINUOUS
 10
171.7730650223
 20
82.7242330673
 30
0.0
 11
0.4962344879
 21
0.0628595572
 31
0.0
 40
0.9963456432
 41
-1.6972555761
 42
-0.1278292453
  0
ELLIPSE
  5
4E2
100
AcDbEntity
  8
0
100
AcDbEllipse
 62
7
  6
CONTINUOUS
 10
128.3142530651
 20
82.7242330673
 30
0.0
 11
0.4962344879
 21
-0.0628595572
 31
0.0
 40
0.9963456432
 41
-3.0137634083
 42
-1.4443370775
  0
ELLIPSE
  5
4E3
100
AcDbEntity
  8
ASSI
100
AcDbEllipse
 62
7
  6
CONTINUOUS
 10
131.5091290975
 20
82.2524364458
 30
0.0
 11
0.2
 21
0.0
 31
0.0
 40
0.0524077793
 41
1.5707963268
 42
2.617993878
  0
ELLIPSE
  5
4E4
100
AcDbEntity
  8
ASSI
100
AcDbEllipse
 62
7
  6
CONTINUOUS
 10
134.8781889898
 20
82.2524364458
 30
0.0
 11
0.2
 21
0.0
 31
0.0
 40
0.0524077793
 41
0.5235987756
 42
1.5707963268
  0
ELLIPSE
  5
4E5
100
AcDbEntity
  8
ASSI
100
AcDbEllipse
 62
7
  6
CONTINUOUS
 10
142.7091290975
 20
82.2524364458
 30
0.0
 11
0.2
 21
-0.0
 31
0.0
 40
0.0524077793
 41
1.5707963268
 42
2.617993878
  0
ELLIPSE
  5
4E6
100
AcDbEntity
  8
ASSI
100
AcDbEllipse
 62
7
  6
CONTINUOUS
 10
146.0781889898
 20
82.2524364458
 30
0.0
 11
0.2
 21
-0.0
 31
0.0
 40
0.0524077793
 41
0.5235987756
 42
1.5707963268
  0
ELLIPSE
  5
4E7
100
AcDbEntity
  8
ASSI
100
AcDbEllipse
 62
7
  6
CONTINUOUS
 10
157.3781889898
 20
82.2524364458
 30
0.0
 11
0.2
 21
0.0
 31
0.0
 40
0.0524077793
 41
0.5235987756
 42
1.5707963268
  0
ELLIPSE
  5
4E8
100
AcDbEntity
  8
ASSI
100
AcDbEllipse
 62
7
  6
CONTINUOUS
 10
154.0091290975
 20
82.2524364458
 30
0.0
 11
0.2
 21
-0.0
 31
0.0
 40
0.0524077793
 41
1.5707963268
 42
2.617993878
  0
ELLIPSE
  5
4E9
100
AcDbEntity
  8
ASSI
100
AcDbEllipse
 62
7
  6
CONTINUOUS
 10
165.2091290975
 20
82.2524364458
 30
0.0
 11
0.2
 21
0.0
 31
0.0
 40
0.0524077793
 41
1.5707963268
 42
2.617993878
  0
ELLIPSE
  5
4EA
100
AcDbEntity
  8
ASSI
100
AcDbEllipse
 62
7
  6
CONTINUOUS
 10
168.5781889898
 20
82.2524364458
 30
0.0
 11
0.2
 21
0.0
 31
0.0
 40
0.0524077793
 41
0.5235987756
 42
1.5707963268
  0
ELLIPSE
  5
4EB
100
AcDbEntity
  8
ASSI
100
AcDbEllipse
 62
7
  6
CONTINUOUS
 10
171.7926718494
 20
103.6825173433
 30
0.0
 11
0.4745319423
 21
0.1581451893
 31
0.0
 40
0.9996192872
 41
-0.3215754254
 42
1.2489924673
  0
ELLIPSE
  5
4EC
100
AcDbEntity
  8
ASSI
100
AcDbEllipse
 62
7
  6
CONTINUOUS
 10
128.2946462379
 20
103.6825173433
 30
0.0
 11
0.4745319423
 21
-0.1581451893
 31
0.0
 40
0.9996192872
 41
1.8926001863
 42
3.463168079
  0
ELLIPSE
  5
4ED
100
AcDbEntity
  8
ASSI
100
AcDbEllipse
 62
7
  6
CONTINUOUS
 10
171.7730650223
 20
82.7242330673
 30
0.0
 11
0.4962344879
 21
0.0628595572
 31
0.0
 40
0.9963456432
 41
-1.6972555761
 42
-0.1278292453
  0
ELLIPSE
  5
4EE
100
AcDbEntity
  8
ASSI
100
AcDbEllipse
 62
7
  6
CONTINUOUS
 10
128.3142530651
 20
82.7242330673
 30
0.0
 11
0.4962344879
 21
-0.0628595572
 31
0.0
 40
0.9963456432
 41
-3.0137634083
 42
-1.4443370775
  0
ELLIPSE
  5
4EF
100
AcDbEntity
  8
0
100
AcDbEllipse
 62
7
  6
CONTINUOUS
 10
168.5781889898
 20
126.5126363192
 30
0.0
 11
0.2
 21
0.0
 31
0.0
 40
0.0524077793
 41
-1.5707963268
 42
-0.5235987756
  0
ELLIPSE
  5
4F0
100
AcDbEntity
  8
0
100
AcDbEllipse
 62
7
  6
CONTINUOUS
 10
165.2091290975
 20
126.5126363192
 30
0.0
 11
0.2
 21
0.0
 31
0.0
 40
0.0524077793
 41
-2.617993878
 42
-1.5707963268
  0
ELLIPSE
  5
4F1
100
AcDbEntity
  8
0
100
AcDbEllipse
 62
7
  6
CONTINUOUS
 10
157.3781889898
 20
126.5126363192
 30
0.0
 11
0.2
 21
-0.0
 31
0.0
 40
0.0524077793
 41
-1.5707963268
 42
-0.5235987756
  0
ELLIPSE
  5
4F2
100
AcDbEntity
  8
0
100
AcDbEllipse
 62
7
  6
CONTINUOUS
 10
154.0091290975
 20
126.5126363192
 30
0.0
 11
0.2
 21
0.0
 31
0.0
 40
0.0524077793
 41
-2.617993878
 42
-1.5707963268
  0
ELLIPSE
  5
4F3
100
AcDbEntity
  8
0
100
AcDbEllipse
 62
7
  6
CONTINUOUS
 10
142.7091290975
 20
126.5126363192
 30
0.0
 11
0.2
 21
-0.0
 31
0.0
 40
0.0524077793
 41
-2.617993878
 42
-1.5707963268
  0
ELLIPSE
  5
4F4
100
AcDbEntity
  8
0
100
AcDbEllipse
 62
7
  6
CONTINUOUS
 10
146.0781889898
 20
126.5126363192
 30
0.0
 11
0.2
 21
-0.0
 31
0.0
 40
0.0524077793
 41
-1.5707963268
 42
-0.5235987756
  0
ELLIPSE
  5
4F5
100
AcDbEntity
  8
0
100
AcDbEllipse
 62
7
  6
CONTINUOUS
 10
134.8781889898
 20
126.5126363192
 30
0.0
 11
0.2
 21
0.0
 31
0.0
 40
0.0524077793
 41
-1.5707963268
 42
-0.5235987756
  0
ELLIPSE
  5
4F6
100
AcDbEntity
  8
0
100
AcDbEllipse
 62
7
  6
CONTINUOUS
 10
131.5091290975
 20
126.5126363192
 30
0.0
 11
0.2
 21
0.0
 31
0.0
 40
0.0524077793
 41
-2.617993878
 42
-1.5707963268
  0
ELLIPSE
  5
4F7
100
AcDbEntity
  8
0
100
AcDbEllipse
 62
7
  6
CONTINUOUS
 10
128.2946462379
 20
105.0825554217
 30
0.0
 11
0.4745319423
 21
0.1581451893
 31
0.0
 40
0.9996192872
 41
2.8200172282
 42
4.390585121
  0
ELLIPSE
  5
4F8
100
AcDbEntity
  8
0
100
AcDbEllipse
 62
7
  6
CONTINUOUS
 10
171.7926718494
 20
105.0825554217
 30
0.0
 11
0.4745319423
 21
-0.1581451893
 31
0.0
 40
0.9996192872
 41
-1.2489924674
 42
0.3215754253
  0
ELLIPSE
  5
4F9
100
AcDbEntity
  8
0
100
AcDbEllipse
 62
7
  6
CONTINUOUS
 10
128.3142530651
 20
126.0408396977
 30
0.0
 11
0.4962344879
 21
0.0628595572
 31
0.0
 40
0.9963456432
 41
1.4443370775
 42
3.0137634083
  0
ELLIPSE
  5
4FA
100
AcDbEntity
  8
0
100
AcDbEllipse
 62
7
  6
CONTINUOUS
 10
171.7730650223
 20
126.0408396977
 30
0.0
 11
0.4962344879
 21
-0.0628595572
 31
0.0
 40
0.9963456432
 41
0.1278292453
 42
1.6972555761
  0
ELLIPSE
  5
4FB
100
AcDbEntity
  8
ASSI
100
AcDbEllipse
 62
7
  6
CONTINUOUS
 10
168.5781889898
 20
126.5126363192
 30
0.0
 11
0.2
 21
0.0
 31
0.0
 40
0.0524077793
 41
-1.5707963268
 42
-0.5235987756
  0
ELLIPSE
  5
4FC
100
AcDbEntity
  8
ASSI
100
AcDbEllipse
 62
7
  6
CONTINUOUS
 10
165.2091290975
 20
126.5126363192
 30
0.0
 11
0.2
 21
0.0
 31
0.0
 40
0.0524077793
 41
-2.617993878
 42
-1.5707963268
  0
ELLIPSE
  5
4FD
100
AcDbEntity
  8
ASSI
100
AcDbEllipse
 62
7
  6
CONTINUOUS
 10
157.3781889898
 20
126.5126363192
 30
0.0
 11
0.2
 21
-0.0
 31
0.0
 40
0.0524077793
 41
-1.5707963268
 42
-0.5235987756
  0
ELLIPSE
  5
4FE
100
AcDbEntity
  8
ASSI
100
AcDbEllipse
 62
7
  6
CONTINUOUS
 10
154.0091290975
 20
126.5126363192
 30
0.0
 11
0.2
 21
0.0
 31
0.0
 40
0.0524077793
 41
-2.617993878
 42
-1.5707963268
  0
ELLIPSE
  5
4FF
100
AcDbEntity
  8
ASSI
100
AcDbEllipse
 62
7
  6
CONTINUOUS
 10
142.7091290975
 20
126.5126363192
 30
0.0
 11
0.2
 21
-0.0
 31
0.0
 40
0.0524077793
 41
-2.617993878
 42
-1.5707963268
  0
ELLIPSE
  5
500
100
AcDbEntity
  8
ASSI
100
AcDbEllipse
 62
7
  6
CONTINUOUS
 10
146.0781889898
 20
126.5126363192
 30
0.0
 11
0.2
 21
-0.0
 31
0.0
 40
0.0524077793
 41
-1.5707963268
 42
-0.5235987756
  0
ELLIPSE
  5
501
100
AcDbEntity
  8
ASSI
100
AcDbEllipse
 62
7
  6
CONTINUOUS
 10
134.8781889898
 20
126.5126363192
 30
0.0
 11
0.2
 21
0.0
 31
0.0
 40
0.0524077793
 41
-1.5707963268
 42
-0.5235987756
  0
ELLIPSE
  5
502
100
AcDbEntity
  8
ASSI
100
AcDbEllipse
 62
7
  6
CONTINUOUS
 10
131.5091290975
 20
126.5126363192
 30
0.0
 11
0.2
 21
0.0
 31
0.0
 40
0.0524077793
 41
-2.617993878
 42
-1.5707963268
  0
ELLIPSE
  5
503
100
AcDbEntity
  8
ASSI
100
AcDbEllipse
 62
7
  6
CONTINUOUS
 10
128.2946462379
 20
105.0825554217
 30
0.0
 11
0.4745319423
 21
0.1581451893
 31
0.0
 40
0.9996192872
 41
2.8200172282
 42
4.390585121
  0
ELLIPSE
  5
504
100
AcDbEntity
  8
ASSI
100
AcDbEllipse
 62
7
  6
CONTINUOUS
 10
171.7926718494
 20
105.0825554217
 30
0.0
 11
0.4745319423
 21
-0.1581451893
 31
0.0
 40
0.9996192872
 41
-1.2489924674
 42
0.3215754253
  0
ELLIPSE
  5
505
100
AcDbEntity
  8
ASSI
100
AcDbEllipse
 62
7
  6
CONTINUOUS
 10
128.3142530651
 20
126.0408396977
 30
0.0
 11
0.4962344879
 21
0.0628595572
 31
0.0
 40
0.9963456432
 41
1.4443370775
 42
3.0137634083
  0
ELLIPSE
  5
506
100
AcDbEntity
  8
ASSI
100
AcDbEllipse
 62
7
  6
CONTINUOUS
 10
171.7730650223
 20
126.0408396977
 30
0.0
 11
0.4962344879
 21
-0.0628595572
 31
0.0
 40
0.9963456432
 41
0.1278292453
 42
1.6972555761
  0
ENDSEC
  0
SECTION
  2
OBJECTS
  0
DICTIONARY
  5
C
100
AcDbDictionary
280
0
281
1
  3
ACAD_GROUP
350
D
  3
ACAD_MLINESTYLE
350
17
  3
ACAD_LAYOUT
350
1A
  3
ACAD_PLOTSETTINGS
350
19
  3
ACAD_PLOTSTYLENAME
350
E
  0
DICTIONARY
  5
D
102
{ACAD_REACTORS
330
C
102
}
100
AcDbDictionary
280
0
281
1
  0
ACDBDICTIONARYWDFLT
  5
E
102
{ACAD_REACTORS
330
C
102
}
100
AcDbDictionary
281
1
  3
Normal
350
F
100
AcDbDictionaryWithDefault
340
F
  0
DICTIONARY
  5
17
102
{ACAD_REACTORS
330
C
102
}
100
AcDbDictionary
280
0
281
1
  3
Standard
350
18
  0
DICTIONARY
  5
19
102
{ACAD_REACTORS
330
C
102
}
100
AcDbDictionary
281
1
  0
DICTIONARY
  5
1A
102
{ACAD_REACTORS
330
C
102
}
100
AcDbDictionary
281
1
  3
Model
350
507
  3
Layout1
350
508
  0
ACDBPLACEHOLDER
  5
F
102
{ACAD_REACTORS
330
E
102
}
  0
MLINESTYLE
  5
18
102
{ACAD_REACTORS
330
17
102
}
100
AcDbMlineStyle
  2
STANDARD
 70
0
  3

 62
256
 51
90.0
 52
90.0
 71
2
 49
0.5
 62
256
  6
BYLAYER
 49
-0.5
 62
256
  6
BYLAYER
  0
LAYOUT
  5
507
102
{ACAD_REACTORS
330
1A
102
}
100
AcDbPlotSettings
  1

  2
none_device
  4
ISO_A4_(297.00_x_210.00_MM)
  6

 40
0.0
 41
0.0
 42
0.0
 43
0.0
 44
297.0
 45
210.0
 46
0.0
 47
0.0
 48
0.0
 49
0.0
140
0.0
141
0.0
142
1.0
143
1.0
 70
1024
 72
1
 73
0
 74
0
  7

 75
0
147
1.0
148
0.0
149
0.0
100
AcDbLayout
  1
Model
 70
0
 71
0
 10
0.0
 20
0.0
 11
297.0
 21
210.0
 12
0.0
 22
0.0
 32
0.0
 14
0.0
 24
0.0
 34
0.0
 15
0.0
 25
0.0
 35
0.0
146
0.0
 13
0.0
 23
0.0
 33
0.0
 16
1.0
 26
0.0
 36
0.0
 17
0.0
 27
1.0
 37
0.0
 76
0
330
21F
345
0
346
0
  0
LAYOUT
  5
508
102
{ACAD_REACTORS
330
1A
102
}
100
AcDbPlotSettings
  1

  2
none_device
  4
ISO_A4_(297.00_x_210.00_MM)
  6

 40
0.0
 41
0.0
 42
0.0
 43
0.0
 44
297.0
 45
210.0
 46
0.0
 47
0.0
 48
0.0
 49
0.0
140
0.0
141
0.0
142
1.0
143
1.0
 70
0
 72
1
 73
0
 74
0
  7

 75
0
147
1.0
148
0.0
149
0.0
100
AcDbLayout
  1
Layout1
 70
0
 71
1
 10
0.0
 20
0.0
 11
297.0
 21
210.0
 12
0.0
 22
0.0
 32
0.0
 14
0.0
 24
0.0
 34
0.0
 15
0.0
 25
0.0
 35
0.0
146
0.0
 13
0.0
 23
0.0
 33
0.0
 16
1.0
 26
0.0
 36
0.0
 17
0.0
 27
1.0
 37
0.0
 76
0
330
220
345
0
346
0
  0
ENDSEC
  0
EOF
