  0
SECTION
  2
HEADER
  9
$ACADVER
  1
AC1015
  9
$DWGCODEPAGE
  3
ANSI_1252
  9
$EXTMAX
 10
297.0
 20
210.0
 30
0.0
  9
$EXTMIN
 10
0.0
 20
0.0
 30
0.0
  9
$LIMMIN
 10
0.0
 20
0.0
  9
$LIMMAX
 10
297.0
 20
210.0
  9
$VIEWCTR
 10
148.5
 20
105.0
  9
$VIEWSIZE
 40
210.0
  9
$CLAYER
  8
0
  9
$LTSCALE
 40
16.335
  9
$CELTYPE
  6
BYLAYER
  9
$DIMSCALE
 40
1.0
  9
$DIMASZ
 40
3.0
  9
$DIMEXO
 40
0.5
  9
$DIMDLI
 40
11.286
  9
$DIMEXE
 40
1.5
  9
$DIMCEN
 40
2.673
  9
$DIMLFAC
 40
1.0
  9
$DIMBLK
  1
_FILLED
  9
$DIMTXT
 40
3.0
  9
$DIMTOL
 70
1
  9
$DIMLIM
 70
0
  9
$DIMTFAC
 40
1.0
  9
$DIMTP
 40
0.01
  9
$DIMTM
 40
0.01
  9
$DIMGAP
 40
0.625
  9
$DIMDSEP
 70
44
  9
$PDMODE
 70
3
  9
$PDSIZE
 40
3.0
  9
$HANDSEED
  5
404
  9
$TILEMODE
 70
1
  9
$MEASUREMENT
 70
1
  9
$INSUNITS
 70
4
  0
ENDSEC
  0
SECTION
  2
CLASSES
  0
CLASS
  1
ACDBDICTIONARYWDFLT
  2
AcDbDictionaryWithDefault
  3
AutoCAD 2000
 90
0
280
0
281
0
  0
CLASS
  1
ACDBPLACEHOLDER
  2
AcDbPlaceHolder
  3
AutoCAD 2000
 90
0
280
0
281
0
  0
CLASS
  1
LAYOUT
  2
AcDbLayout
  3
AutoCAD 2000
 90
0
280
0
281
0
  0
ENDSEC
  0
SECTION
  2
TABLES
  0
TABLE
  2
VPORT
  5
8
100
AcDbSymbolTable
 70
2
  0
VPORT
  5
1F4
100
AcDbSymbolTableRecord
100
AcDbViewportTableRecord
  2
*ACTIVE
 70
0
 10
0.0
 20
0.0
 11
1.0
 21
1.0
 12
148.5
 22
105.0
 13
0.0
 23
0.0
 14
1.0
 24
1.0
 15
0.0
 25
0.0
 16
0.0
 26
0.0
 36
1.0
 17
0.0
 27
0.0
 37
0.0
 40
210.0
 41
1.4142857143
 42
50.0
 43
0.0
 44
0.0
 50
0.0
 51
0.0
 71
0
 72
100
 73
1
 74
1
 75
0
 76
0
 77
0
 78
0
  0
ENDTAB
  0
TABLE
  2
LTYPE
  5
5
100
AcDbSymbolTable
 70
6
  0
LTYPE
  5
14
100
AcDbSymbolTableRecord
100
AcDbLinetypeTableRecord
  2
BYBLOCK
 70
0
  3

 72
65
 73
0
 40
0.0
  0
LTYPE
  5
15
100
AcDbSymbolTableRecord
100
AcDbLinetypeTableRecord
  2
BYLAYER
 70
0
  3

 72
65
 73
0
 40
0.0
  0
LTYPE
  5
16
100
AcDbSymbolTableRecord
100
AcDbLinetypeTableRecord
  2
CONTINUOUS
 70
64
  3
Solid line
 72
65
 73
0
 40
0.0
  0
LTYPE
  5
1F5
100
AcDbSymbolTableRecord
100
AcDbLinetypeTableRecord
  2
CENTER
 70
64
  3
____ _ ____ _ ____ _ ____ _ ____ _ ____ _ ____
 72
65
 73
4
 40
0.6
 49
0.375
 74
0
 49
-0.075
 74
0
 49
0.075
 74
0
 49
-0.075
 74
0
  0
LTYPE
  5
1F6
100
AcDbSymbolTableRecord
100
AcDbLinetypeTableRecord
  2
HIDDEN
 70
64
  3
- - - - - - - - - - - - - - - - - - - -
 72
65
 73
2
 40
0.2
 49
0.1
 74
0
 49
-0.1
 74
0
  0
LTYPE
  5
1F7
100
AcDbSymbolTableRecord
100
AcDbLinetypeTableRecord
  2
PHANTOM
 70
64
  3
_____ _ _ _____ _ _ _____ _ _ _____
 72
65
 73
6
 40
0.8
 49
0.45
 74
0
 49
-0.05
 74
0
 49
0.1
 74
0
 49
-0.05
 74
0
 49
0.1
 74
0
 49
-0.05
 74
0
  0
LTYPE
  5
1F8
100
AcDbSymbolTableRecord
100
AcDbLinetypeTableRecord
  2
DOT
 70
64
  3
. . . . . . . . . . . . . . . . . . . .
 72
65
 73
2
 40
0.2
 49
0.1
 74
0
 49
-0.1
 74
0
  0
LTYPE
  5
1F9
100
AcDbSymbolTableRecord
100
AcDbLinetypeTableRecord
  2
DASHED
 70
64
  3
- - - - - - - - - - - - - - - - - - - -
 72
65
 73
2
 40
0.2
 49
0.1
 74
0
 49
-0.1
 74
0
  0
ENDTAB
  0
TABLE
  2
LAYER
  5
2
100
AcDbSymbolTable
 70
36
  0
LAYER
  5
10
100
AcDbSymbolTableRecord
100
AcDbLayerTableRecord
  2
0
 70
0
 62
7
  6
CONTINUOUS
370
-3
390
F
  0
LAYER
  5
1FA
100
AcDbSymbolTableRecord
100
AcDbLayerTableRecord
  2
DEFAULT_1
 70
0
 62
7
  6
CENTER
370
-3
390
F
  0
LAYER
  5
1FB
100
AcDbSymbolTableRecord
100
AcDbLayerTableRecord
  2
DEFAULT_2
 70
0
 62
7
  6
HIDDEN
370
-3
390
F
  0
LAYER
  5
1FC
100
AcDbSymbolTableRecord
100
AcDbLayerTableRecord
  2
DEFAULT_3
 70
0
 62
7
  6
PHANTOM
370
-3
390
F
  0
LAYER
  5
1FD
100
AcDbSymbolTableRecord
100
AcDbLayerTableRecord
  2
ASSI
 70
0
 62
7
  6
CONTINUOUS
370
-3
390
F
  0
LAYER
  5
1FE
100
AcDbSymbolTableRecord
100
AcDbLayerTableRecord
  2
COLOR3
 70
0
 62
7
  6
CONTINUOUS
370
-3
390
F
  0
LAYER
  5
1FF
100
AcDbSymbolTableRecord
100
AcDbLayerTableRecord
  2
COORDINATE
 70
0
 62
7
  6
CONTINUOUS
370
-3
390
F
  0
LAYER
  5
200
100
AcDbSymbolTableRecord
100
AcDbLayerTableRecord
  2
COPY_PUBLISH
 70
0
 62
7
  6
CONTINUOUS
370
-3
390
F
  0
LAYER
  5
201
100
AcDbSymbolTableRecord
100
AcDbLayerTableRecord
  2
COSMETIC
 70
0
 62
7
  6
CONTINUOUS
370
-3
390
F
  0
LAYER
  5
202
100
AcDbSymbolTableRecord
100
AcDbLayerTableRecord
  2
COSMETICI
 70
0
 62
7
  6
CONTINUOUS
370
-3
390
F
  0
LAYER
  5
203
100
AcDbSymbolTableRecord
100
AcDbLayerTableRecord
  2
CURVE
 70
0
 62
7
  6
CONTINUOUS
370
-3
390
F
  0
LAYER
  5
204
100
AcDbSymbolTableRecord
100
AcDbLayerTableRecord
  2
DRAFT
 70
0
 62
7
  6
CONTINUOUS
370
-3
390
F
  0
LAYER
  5
205
100
AcDbSymbolTableRecord
100
AcDbLayerTableRecord
  2
IMPORT_IGES
 70
0
 62
7
  6
CONTINUOUS
370
-3
390
F
  0
LAYER
  5
206
100
AcDbSymbolTableRecord
100
AcDbLayerTableRecord
  2
INTFCLR_1
 70
0
 62
7
  6
CONTINUOUS
370
-3
390
F
  0
LAYER
  5
207
100
AcDbSymbolTableRecord
100
AcDbLayerTableRecord
  2
INTF_10
 70
0
 62
7
  6
CONTINUOUS
370
-3
390
F
  0
LAYER
  5
208
100
AcDbSymbolTableRecord
100
AcDbLayerTableRecord
  2
INTF_13
 70
0
 62
7
  6
CONTINUOUS
370
-3
390
F
  0
LAYER
  5
209
100
AcDbSymbolTableRecord
100
AcDbLayerTableRecord
  2
INTF_15
 70
0
 62
7
  6
CONTINUOUS
370
-3
390
F
  0
LAYER
  5
20A
100
AcDbSymbolTableRecord
100
AcDbLayerTableRecord
  2
INTF_16
 70
0
 62
7
  6
CONTINUOUS
370
-3
390
F
  0
LAYER
  5
20B
100
AcDbSymbolTableRecord
100
AcDbLayerTableRecord
  2
INTF_18
 70
0
 62
7
  6
CONTINUOUS
370
-3
390
F
  0
LAYER
  5
20C
100
AcDbSymbolTableRecord
100
AcDbLayerTableRecord
  2
INTF_20
 70
0
 62
7
  6
CONTINUOUS
370
-3
390
F
  0
LAYER
  5
20D
100
AcDbSymbolTableRecord
100
AcDbLayerTableRecord
  2
INTF_3
 70
0
 62
7
  6
CONTINUOUS
370
-3
390
F
  0
LAYER
  5
20E
100
AcDbSymbolTableRecord
100
AcDbLayerTableRecord
  2
INTF_5
 70
0
 62
7
  6
CONTINUOUS
370
-3
390
F
  0
LAYER
  5
20F
100
AcDbSymbolTableRecord
100
AcDbLayerTableRecord
  2
INTF_8
 70
0
 62
7
  6
CONTINUOUS
370
-3
390
F
  0
LAYER
  5
210
100
AcDbSymbolTableRecord
100
AcDbLayerTableRecord
  2
NOTE
 70
0
 62
7
  6
CONTINUOUS
370
-3
390
F
  0
LAYER
  5
211
100
AcDbSymbolTableRecord
100
AcDbLayerTableRecord
  2
PIANI
 70
0
 62
7
  6
CONTINUOUS
370
-3
390
F
  0
LAYER
  5
212
100
AcDbSymbolTableRecord
100
AcDbLayerTableRecord
  2
PUNTI
 70
0
 62
7
  6
CONTINUOUS
370
-3
390
F
  0
LAYER
  5
213
100
AcDbSymbolTableRecord
100
AcDbLayerTableRecord
  2
RACCORDO
 70
0
 62
7
  6
CONTINUOUS
370
-3
390
F
  0
LAYER
  5
214
100
AcDbSymbolTableRecord
100
AcDbLayerTableRecord
  2
SIMBOLI
 70
0
 62
7
  6
CONTINUOUS
370
-3
390
F
  0
LAYER
  5
215
100
AcDbSymbolTableRecord
100
AcDbLayerTableRecord
  2
SNAPLINE
 70
0
 62
7
  6
CONTINUOUS
370
-3
390
F
  0
LAYER
  5
216
100
AcDbSymbolTableRecord
100
AcDbLayerTableRecord
  2
SOLIDO
 70
0
 62
7
  6
CONTINUOUS
370
-3
390
F
  0
LAYER
  5
217
100
AcDbSymbolTableRecord
100
AcDbLayerTableRecord
  2
SUPERFICI
 70
0
 62
7
  6
CONTINUOUS
370
-3
390
F
  0
LAYER
  5
218
100
AcDbSymbolTableRecord
100
AcDbLayerTableRecord
  2
SUPERFICI_SKEL
 70
0
 62
7
  6
CONTINUOUS
370
-3
390
F
  0
LAYER
  5
219
100
AcDbSymbolTableRecord
100
AcDbLayerTableRecord
  2
TRASH
 70
0
 62
7
  6
CONTINUOUS
370
-3
390
F
  0
LAYER
  5
21A
100
AcDbSymbolTableRecord
100
AcDbLayerTableRecord
  2
___SHELL
 70
0
 62
7
  6
CONTINUOUS
370
-3
390
F
  0
ENDTAB
  0
TABLE
  2
STYLE
  5
3
100
AcDbSymbolTable
 70
1
  0
STYLE
  5
11
100
AcDbSymbolTableRecord
100
AcDbTextStyleTableRecord
  2
STANDARD
 70
0
 40
0.0
 41
0.8
 50
0.0
 71
0
 42
0.2
  3
txt
  4

  0
STYLE
  5
21B
100
AcDbSymbolTableRecord
100
AcDbTextStyleTableRecord
  2
TEXTSTYLE_1
 70
0
 40
0.0
 41
0.8
 50
0.0
 71
0
 42
0.2
  3
gdt
  4

  0
ENDTAB
  0
TABLE
  2
VIEW
  5
6
100
AcDbSymbolTable
 70
0
  0
ENDTAB
  0
TABLE
  2
UCS
  5
7
100
AcDbSymbolTable
 70
0
  0
ENDTAB
  0
TABLE
  2
APPID
  5
9
100
AcDbSymbolTable
 70
1
  0
APPID
  5
21C
100
AcDbSymbolTableRecord
100
AcDbRegAppTableRecord
  2
ACAD
 70
0
  0
ENDTAB
  0
TABLE
  2
BLOCK_RECORD
  5
1
100
AcDbSymbolTable
 70
0
  0
BLOCK_RECORD
  5
21D
100
AcDbSymbolTableRecord
100
AcDbBlockTableRecord
  2
*Model_Space
  0
BLOCK_RECORD
  5
21E
100
AcDbSymbolTableRecord
100
AcDbBlockTableRecord
  2
*Paper_Space
  0
BLOCK_RECORD
  5
21F
100
AcDbSymbolTableRecord
100
AcDbBlockTableRecord
  2
_FILLED
  0
BLOCK_RECORD
  5
220
100
AcDbSymbolTableRecord
100
AcDbBlockTableRecord
  2
*D0
  0
BLOCK_RECORD
  5
221
100
AcDbSymbolTableRecord
100
AcDbBlockTableRecord
  2
*D1
  0
BLOCK_RECORD
  5
222
100
AcDbSymbolTableRecord
100
AcDbBlockTableRecord
  2
*D2
  0
ENDTAB
  0
TABLE
  2
DIMSTYLE
  5
A
100
AcDbSymbolTable
 70
1
100
AcDbDimStyleTable
 71
0
  0
DIMSTYLE
105
223
100
AcDbSymbolTableRecord
100
AcDbDimStyleTableRecord
  2
STANDARD
 70
0
  3

  4

 40
1.0
 41
3.0
 42
0.5
 43
0.38
 44
1.5
 45
0.0
 46
0.0
 47
0.01
 48
0.01
140
3.0
141
0.09
142
0.0
143
25.4
144
1.0
145
0.0
146
1.0
147
0.625
 71
1.0
 72
0.0
 73
0
 74
0
 75
0
 76
0
 77
1
 78
8
170
0
171
2
172
0
173
0
174
0
175
0
176
0
177
0
178
0
270
2
271
2
272
2
273
2
274
2
275
0
280
0
281
0
282
0
283
1
284
8
285
0
286
0
287
3
288
0
340
11
278
44
341
21F
342
21F
343
21F
344
21F
  0
DIMSTYLE
105
224
100
AcDbSymbolTableRecord
100
AcDbDimStyleTableRecord
  2
DIMSTYLE_1
 70
0
  3

  4

 40
1.0
 41
3.0
 42
0.5
 43
0.38
 44
1.5
 45
0.0
 46
0.0
 47
0.0
 48
0.0
140
3.0
141
0.09
142
0.0
143
25.4
144
1.0
145
0.0
146
1.0
147
0.75
 71
0.0
 72
0.0
 73
0
 74
0
 75
0
 76
0
 77
1
 78
8
170
0
171
2
172
0
173
0
174
0
175
0
176
0
177
0
178
0
270
2
271
1
272
1
273
2
274
2
275
0
280
0
281
0
282
0
283
1
284
8
285
0
286
0
287
3
288
0
340
11
278
44
341
21F
342
21F
343
21F
344
21F
  0
ENDTAB
  0
ENDSEC
  0
SECTION
  2
BLOCKS
  0
BLOCK
  5
20
100
AcDbEntity
  8
0
100
AcDbBlockBegin
  2
*Model_Space
 70
0
 10
0.0
 20
0.0
 30
0.0
  3
*Model_Space
  1

  0
ENDBLK
  5
21
100
AcDbEntity
  8
0
100
AcDbBlockEnd
  0
BLOCK
  5
1C
100
AcDbEntity
  8
0
100
AcDbBlockBegin
  2
*Paper_Space
 70
0
 10
0.0
 20
0.0
 30
0.0
  3
*Paper_Space
  1

  0
ENDBLK
  5
1D
100
AcDbEntity
  8
0
100
AcDbBlockEnd
  0
BLOCK
  5
225
100
AcDbEntity
  8
0
100
AcDbBlockBegin
  2
_FILLED
 70
64
 10
0.0
 20
0.0
  3
_FILLED
  1

  0
SOLID
  5
226
100
AcDbEntity
  8
0
  6
BYBLOCK
 62
0
100
AcDbTrace
 10
0.0
 20
0.0
 11
-1.0
 21
0.3166666667
 12
-1.0
 22
-0.3166666667
 13
-1.0
 23
-0.3166666667
  0
ENDBLK
  5
227
100
AcDbEntity
  8
0
  6
BYBLOCK
 62
0
100
AcDbBlockEnd
  0
BLOCK
  5
228
100
AcDbEntity
  8
0
100
AcDbBlockBegin
 62
7
  6
CONTINUOUS
  2
*D0
 70
65
 10
0.0
 20
0.0
  3
*D0
  1

  0
MTEXT
  5
229
100
AcDbEntity
  8
0
100
AcDbMText
 62
7
  6
CONTINUOUS
  7
STANDARD
 71
2
 72
1
 10
154.4184985733
 20
143.353103076
 30
0.0
 11
1.0
 21
0.0
 31
0.0
 44
0.9
  1
44,3
 40
3.0
 41
8.5714285714
  0
LINE
  5
22A
100
AcDbEntity
  8
0
100
AcDbLine
 62
7
  6
CONTINUOUS
 10
176.5517244733
 20
126.4760064973
 11
176.5517244733
 21
141.103103076
  0
LINE
  5
22B
100
AcDbEntity
  8
0
100
AcDbLine
 62
7
  6
CONTINUOUS
 10
132.2852726733
 20
126.4760064973
 11
132.2852726733
 21
141.103103076
  0
LINE
  5
22C
100
AcDbEntity
  8
0
100
AcDbLine
 62
7
  6
CONTINUOUS
 10
176.5517244733
 20
139.603103076
 11
154.4184985733
 21
139.603103076
  0
LINE
  5
22D
100
AcDbEntity
  8
0
100
AcDbLine
 62
7
  6
CONTINUOUS
 10
132.2852726733
 20
139.603103076
 11
154.4184985733
 21
139.603103076
  0
INSERT
  5
22E
100
AcDbEntity
  8
0
100
AcDbBlockReference
 62
7
  6
CONTINUOUS
  2
_FILLED
 10
176.5517244733
 20
139.603103076
 41
3.0
 42
3.0
 43
3.0
  0
INSERT
  5
22F
100
AcDbEntity
  8
0
100
AcDbBlockReference
 62
7
  6
CONTINUOUS
  2
_FILLED
 10
132.2852726733
 20
139.603103076
 41
3.0
 42
3.0
 43
3.0
 50
180.0
  0
ENDBLK
  5
230
100
AcDbEntity
  8
0
  6
BYBLOCK
 62
0
100
AcDbBlockEnd
  0
BLOCK
  5
231
100
AcDbEntity
  8
0
100
AcDbBlockBegin
 62
7
  6
CONTINUOUS
  2
*D1
 70
65
 10
0.0
 20
0.0
  3
*D1
  1

  0
MTEXT
  5
232
100
AcDbEntity
  8
0
100
AcDbMText
 62
7
  6
CONTINUOUS
  7
STANDARD
 71
2
 72
1
 10
185.8544808374
 20
104.2096465696
 30
0.0
 11
0.0
 21
1.0
 31
0.0
 44
0.9
  1
44,5
 40
3.0
 41
8.5714285714
  0
LINE
  5
233
100
AcDbEntity
  8
0
100
AcDbLine
 62
7
  6
CONTINUOUS
 10
176.5522383097
 20
81.9432864068
 11
191.1044808374
 21
81.9432864068
  0
LINE
  5
234
100
AcDbEntity
  8
0
100
AcDbLine
 62
7
  6
CONTINUOUS
 10
176.5522383097
 20
126.4760067325
 11
191.1044808374
 21
126.4760067325
  0
LINE
  5
235
100
AcDbEntity
  8
0
100
AcDbLine
 62
7
  6
CONTINUOUS
 10
189.6044808374
 20
81.9432864068
 11
189.6044808374
 21
104.2096465696
  0
LINE
  5
236
100
AcDbEntity
  8
0
100
AcDbLine
 62
7
  6
CONTINUOUS
 10
189.6044808374
 20
126.4760067325
 11
189.6044808374
 21
104.2096465696
  0
INSERT
  5
237
100
AcDbEntity
  8
0
100
AcDbBlockReference
 62
7
  6
CONTINUOUS
  2
_FILLED
 10
189.6044808374
 20
81.9432864068
 41
3.0
 42
3.0
 43
3.0
 50
270.0
  0
INSERT
  5
238
100
AcDbEntity
  8
0
100
AcDbBlockReference
 62
7
  6
CONTINUOUS
  2
_FILLED
 10
189.6044808374
 20
126.4760067325
 41
3.0
 42
3.0
 43
3.0
 50
90.0
  0
ENDBLK
  5
239
100
AcDbEntity
  8
0
  6
BYBLOCK
 62
0
100
AcDbBlockEnd
  0
BLOCK
  5
23A
100
AcDbEntity
  8
0
100
AcDbBlockBegin
 62
7
  6
CONTINUOUS
  2
*D2
 70
65
 10
0.0
 20
0.0
  3
*D2
  1

  0
MTEXT
  5
23B
100
AcDbEntity
  8
0
100
AcDbMText
 62
7
  6
CONTINUOUS
  7
STANDARD
 71
2
 72
1
 10
119.340392975
 20
143.353103076
 30
0.0
 11
1.0
 21
0.0
 31
0.0
 44
0.9
  1
9,6
 40
3.0
 41
6.4285714286
  0
LINE
  5
23C
100
AcDbEntity
  8
0
100
AcDbLine
 62
7
  6
CONTINUOUS
 10
124.1650437925
 20
117.8834659663
 11
124.1650437925
 21
141.103103076
  0
LINE
  5
23D
100
AcDbEntity
  8
0
100
AcDbLine
 62
7
  6
CONTINUOUS
 10
114.5157421575
 20
105.4642728869
 11
114.5157421575
 21
141.103103076
  0
LINE
  5
23E
100
AcDbEntity
  8
0
100
AcDbLine
 62
7
  6
CONTINUOUS
 10
124.1650437925
 20
139.603103076
 11
119.340392975
 21
139.603103076
  0
LINE
  5
23F
100
AcDbEntity
  8
0
100
AcDbLine
 62
7
  6
CONTINUOUS
 10
114.5157421575
 20
139.603103076
 11
119.340392975
 21
139.603103076
  0
INSERT
  5
240
100
AcDbEntity
  8
0
100
AcDbBlockReference
 62
7
  6
CONTINUOUS
  2
_FILLED
 10
124.1650437925
 20
139.603103076
 41
3.0
 42
3.0
 43
3.0
  0
INSERT
  5
241
100
AcDbEntity
  8
0
100
AcDbBlockReference
 62
7
  6
CONTINUOUS
  2
_FILLED
 10
114.5157421575
 20
139.603103076
 41
3.0
 42
3.0
 43
3.0
 50
180.0
  0
ENDBLK
  5
242
100
AcDbEntity
  8
0
  6
BYBLOCK
 62
0
100
AcDbBlockEnd
  0
ENDSEC
  0
SECTION
  2
ENTITIES
  0
DIMENSION
  5
243
100
AcDbEntity
  8
0
100
AcDbDimension
 62
7
  6
CONTINUOUS
  2
*D0
 10
132.2852726733
 20
139.603103076
 11
154.4184985733
 21
139.603103076
 70
160
 71
2
 42
44.2664518
  3
DIMSTYLE_1
100
AcDbAlignedDimension
 13
176.5517244733
 23
125.9760064973
 14
132.2852726733
 24
125.9760064973
 50
180.0
100
AcDbRotatedDimension
  0
DIMENSION
  5
244
100
AcDbEntity
  8
0
100
AcDbDimension
 62
7
  6
CONTINUOUS
  2
*D1
 10
189.6044808374
 20
126.4760067325
 11
189.6044808374
 21
104.2096465696
 70
160
 71
2
 42
44.5327203257
  3
DIMSTYLE_1
100
AcDbAlignedDimension
 13
176.0522383097
 23
81.9432864068
 14
176.0522383097
 24
126.4760067325
 50
90.0
100
AcDbRotatedDimension
  0
DIMENSION
  5
245
100
AcDbEntity
  8
0
100
AcDbDimension
 62
7
  6
CONTINUOUS
  2
*D2
 10
114.5157421575
 20
139.603103076
 11
119.340392975
 21
139.603103076
 70
160
 71
2
 42
9.6493016351
  3
DIMSTYLE_1
100
AcDbAlignedDimension
 13
124.1650437925
 23
117.3834659663
 14
114.5157421575
 24
104.9642728869
 50
180.0
100
AcDbRotatedDimension
  0
LWPOLYLINE
  5
246
100
AcDbEntity
  8
0
100
AcDbPolyline
 62
253
  6
CONTINUOUS
 90
7
 70
0
 10
132.9056612376
 20
126.2340360113
 10
132.9046095412
 20
126.2266500741
 10
132.9035160227
 20
126.2133744028
 10
132.9024085611
 20
126.1942776247
 10
132.9013357963
 20
126.1694579744
 10
132.900303665
 20
126.1390404976
 10
132.8982742379
 20
126.0620357256
  0
LINE
  5
247
100
AcDbEntity
  8
0
100
AcDbLine
 62
7
  6
CONTINUOUS
 10
167.8751229003
 20
81.9432864068
 11
169.2607635464
 21
82.0690650771
  0
LWPOLYLINE
  5
248
100
AcDbEntity
  8
0
100
AcDbPolyline
 62
253
  6
CONTINUOUS
 90
16
 70
0
 10
175.9313359091
 20
82.185257128
 10
175.9835375355
 20
82.1880591732
 10
176.035168147
 20
82.1962917627
 10
176.0856630437
 20
82.209864833
 10
176.1344699655
 20
82.2286299173
 10
176.181055087
 20
82.2523817533
 10
176.2249088638
 20
82.2808605136
 10
176.2655516681
 20
82.3137546822
 10
176.3025390128
 20
82.3507044665
 10
176.3354663763
 20
82.3913057016
 10
176.363973656
 20
82.435114293
 10
176.3877491082
 20
82.48165109
 10
176.4065327426
 20
82.5304071149
 10
176.4201191591
 20
82.580849118
 10
176.4283597988
 20
82.6324254071
 10
176.4311645716
 20
82.6845718954
  0
LWPOLYLINE
  5
249
100
AcDbEntity
  8
0
100
AcDbPolyline
 62
253
  6
CONTINUOUS
 90
16
 70
0
 10
132.905661237
 20
82.1852571268
 10
132.8534602669
 20
82.188059102
 10
132.8018302254
 20
82.1962914991
 10
132.7513357965
 20
82.2098642793
 10
132.702529244
 20
82.2286289955
 10
132.6559443714
 20
82.2523804156
 10
132.6120906829
 20
82.2808587674
 10
132.571447812
 20
82.3137525796
 10
132.5344602747
 20
82.3507020885
 10
132.5015326082
 20
82.3913031728
 10
132.4730249466
 20
82.4351117734
 10
132.4492490816
 20
82.4816487502
 10
132.4304650528
 20
82.5304051225
 10
132.4168783034
 20
82.5808476358
 10
132.4086374335
 20
82.6324245943
 10
132.4058325745
 20
82.6845718942
  0
LINE
  5
24A
100
AcDbEntity
  8
0
100
AcDbLine
 62
7
  6
CONTINUOUS
 10
140.9618742463
 20
81.9432864068
 11
139.5762336002
 21
82.0690650771
  0
LWPOLYLINE
  5
24B
100
AcDbEntity
  8
0
100
AcDbPolyline
 62
253
  6
CONTINUOUS
 90
8
 70
0
 10
132.9062195534
 20
104.5897658677
 10
132.9098587084
 20
104.5566664774
 10
132.9137896876
 20
104.5280233362
 10
132.9174395546
 20
104.5041003463
 10
132.9217121363
 20
104.485060506
 10
132.9266050999
 20
104.4711612407
 10
132.9311432396
 20
104.4626149592
 10
132.9348389208
 20
104.4594728173
  0
LWPOLYLINE
  5
24C
100
AcDbEntity
  8
0
100
AcDbPolyline
 62
253
  6
CONTINUOUS
 90
16
 70
0
 10
132.4350102583
 20
104.9594537788
 10
132.4376957946
 20
104.9078078497
 10
132.4457359627
 20
104.8565438646
 10
132.4590975726
 20
104.8062223563
 10
132.477711493
 20
104.7573501147
 10
132.5014131154
 20
104.7105376701
 10
132.5298887065
 20
104.6664655272
 10
132.5627835421
 20
104.6256654738
 10
132.5997673733
 20
104.5885322365
 10
132.6404446204
 20
104.555466426
 10
132.6843787236
 20
104.5268305033
 10
132.731081941
 20
104.5029494068
 10
132.7800286543
 20
104.4840944363
 10
132.8306753557
 20
104.4704742053
 10
132.8824688282
 20
104.4622367603
 10
132.9348389207
 20
104.4594728173
  0
LWPOLYLINE
  5
24D
100
AcDbEntity
  8
0
100
AcDbPolyline
 62
253
  6
CONTINUOUS
 90
4
 70
0
 10
132.8959133951
 20
104.7580277759
 10
132.897714323
 20
104.7113157966
 10
132.9004284729
 20
104.6673446316
 10
132.9062195534
 20
104.5897658677
  0
LWPOLYLINE
  5
24E
100
AcDbEntity
  8
0
100
AcDbPolyline
 62
253
  6
CONTINUOUS
 90
6
 70
0
 10
132.9003036642
 20
82.2802526417
 10
132.9013357956
 20
82.2498351653
 10
132.9024085605
 20
82.2250155149
 10
132.9035160221
 20
82.2059187363
 10
132.9046095406
 20
82.1926430643
 10
132.905661237
 20
82.1852571268
  0
LINE
  5
24F
100
AcDbEntity
  8
0
100
AcDbLine
 62
253
  6
CONTINUOUS
 10
132.4165146763
 20
125.5776638935
 11
132.4184003633
 21
125.5100632728
  0
LINE
  5
250
100
AcDbEntity
  8
0
100
AcDbLine
 62
253
  6
CONTINUOUS
 10
132.898274237
 20
82.3572574126
 11
132.9003036642
 21
82.2802526417
  0
LINE
  5
251
100
AcDbEntity
  8
0
100
AcDbLine
 62
253
  6
CONTINUOUS
 10
132.4184003633
 20
125.5100632728
 11
132.4200141855
 21
125.4333165269
  0
LINE
  5
252
100
AcDbEntity
  8
0
100
AcDbLine
 62
253
  6
CONTINUOUS
 10
132.8964004217
 20
82.4545024805
 11
132.898274237
 21
82.3572574126
  0
LINE
  5
253
100
AcDbEntity
  8
0
100
AcDbLine
 62
253
  6
CONTINUOUS
 10
132.4200141855
 20
125.4333165269
 11
132.4213325018
 21
125.3485645251
  0
LINE
  5
254
100
AcDbEntity
  8
0
100
AcDbLine
 62
253
  6
CONTINUOUS
 10
132.8939009621
 20
82.633973832
 11
132.8964004217
 21
82.4545024805
  0
LINE
  5
255
100
AcDbEntity
  8
0
100
AcDbLine
 62
253
  6
CONTINUOUS
 10
132.4213325018
 20
125.3485645251
 11
132.4226909863
 21
125.2105563657
  0
LINE
  5
256
100
AcDbEntity
  8
0
100
AcDbLine
 62
253
  6
CONTINUOUS
 10
132.8913275339
 20
82.9231610557
 11
132.8939009621
 21
82.633973832
  0
LWPOLYLINE
  5
257
100
AcDbEntity
  8
0
100
AcDbPolyline
 62
253
  6
CONTINUOUS
 90
3
 70
0
 10
132.8921728867
 20
103.4590694848
 10
132.8919479893
 20
103.512058278
 10
132.8928005424
 20
103.5633090536
  0
LINE
  5
258
100
AcDbEntity
  8
0
100
AcDbLine
 62
253
  6
CONTINUOUS
 10
132.8895999913
 20
83.332379089
 11
132.8913275339
 21
82.9231610557
  0
LINE
  5
259
100
AcDbEntity
  8
0
100
AcDbLine
 62
253
  6
CONTINUOUS
 10
132.4226909863
 20
125.2105563657
 11
132.4232590897
 21
125.0654719265
  0
LINE
  5
25A
100
AcDbEntity
  8
0
100
AcDbLine
 62
253
  6
CONTINUOUS
 10
132.4232590897
 20
125.0654719265
 11
132.4334791447
 21
111.7707967173
  0
LINE
  5
25B
100
AcDbEntity
  8
0
100
AcDbLine
 62
7
  6
CONTINUOUS
 10
132.2852726733
 20
82.443286642
 11
132.2852726733
 21
100.0096465696
  0
LINE
  5
25C
100
AcDbEntity
  8
0
100
AcDbLine
 62
7
  6
CONTINUOUS
 10
132.2852726733
 20
108.4096465696
 11
132.2852726733
 21
125.9760064973
  0
LINE
  5
25D
100
AcDbEntity
  8
0
100
AcDbLine
 62
7
  6
CONTINUOUS
 10
132.3455002929
 20
103.4896699559
 11
132.3455002929
 21
100.0096465696
  0
LINE
  5
25E
100
AcDbEntity
  8
0
100
AcDbLine
 62
7
  6
CONTINUOUS
 10
132.3455002929
 20
104.9296231834
 11
132.3455002929
 21
108.4096465696
  0
LINE
  5
25F
100
AcDbEntity
  8
0
100
AcDbLine
 62
253
  6
CONTINUOUS
 10
132.4334791447
 20
111.7707967173
 11
132.4350102583
 21
104.9594537788
  0
LINE
  5
260
100
AcDbEntity
  8
0
100
AcDbLine
 62
253
  6
CONTINUOUS
 10
132.8921731025
 20
103.4590694812
 11
132.8895999966
 21
83.3323790881
  0
LINE
  5
261
100
AcDbEntity
  8
0
100
AcDbLine
 62
253
  6
CONTINUOUS
 10
132.4350102608
 20
103.4598393596
 11
132.4327578158
 21
95.0398690222
  0
LINE
  5
262
100
AcDbEntity
  8
0
100
AcDbLine
 62
253
  6
CONTINUOUS
 10
132.4327578158
 20
95.0398690222
 11
132.4258628115
 21
85.8556750116
  0
LINE
  5
263
100
AcDbEntity
  8
0
100
AcDbLine
 62
253
  6
CONTINUOUS
 10
132.8900734115
 20
125.2542561197
 11
132.892173091
 21
104.9602236636
  0
LINE
  5
264
100
AcDbEntity
  8
0
100
AcDbLine
 62
253
  6
CONTINUOUS
 10
132.4258628115
 20
85.8556750116
 11
132.4229681737
 21
83.256311998
  0
LWPOLYLINE
  5
265
100
AcDbEntity
  8
0
100
AcDbPolyline
 62
253
  6
CONTINUOUS
 90
4
 70
0
 10
132.892172884
 20
104.9602236658
 10
132.8919481153
 20
104.9072368696
 10
132.8928005872
 20
104.8559877679
 10
132.8959133951
 20
104.7580277759
  0
LINE
  5
266
100
AcDbEntity
  8
0
100
AcDbLine
 62
253
  6
CONTINUOUS
 10
132.8924987717
 20
125.6467225501
 11
132.8900734115
 21
125.2542561197
  0
LINE
  5
267
100
AcDbEntity
  8
0
100
AcDbLine
 62
253
  6
CONTINUOUS
 10
132.4229681737
 20
83.256311998
 11
132.4218687244
 21
83.1154474602
  0
LINE
  5
268
100
AcDbEntity
  8
0
100
AcDbLine
 62
253
  6
CONTINUOUS
 10
132.894688934
 20
125.849249134
 11
132.8924987717
 21
125.6467225501
  0
LINE
  5
269
100
AcDbEntity
  8
0
100
AcDbLine
 62
253
  6
CONTINUOUS
 10
132.4218687244
 20
83.1154474602
 11
132.4207139343
 21
83.0275862707
  0
LINE
  5
26A
100
AcDbEntity
  8
0
100
AcDbLine
 62
253
  6
CONTINUOUS
 10
132.8964004225
 20
125.9647906568
 11
132.894688934
 21
125.849249134
  0
LINE
  5
26B
100
AcDbEntity
  8
0
100
AcDbLine
 62
253
  6
CONTINUOUS
 10
132.4207139343
 20
83.0275862707
 11
132.4192433722
 21
82.9465145822
  0
LINE
  5
26C
100
AcDbEntity
  8
0
100
AcDbLine
 62
253
  6
CONTINUOUS
 10
132.8982742379
 20
126.0620357256
 11
132.8964004225
 21
125.9647906568
  0
LWPOLYLINE
  5
26D
100
AcDbEntity
  8
0
100
AcDbPolyline
 62
253
  6
CONTINUOUS
 90
12
 70
0
 10
132.4192433722
 20
82.9465145822
 10
132.4174862899
 20
82.874092779
 10
132.4165146756
 20
82.8416292439
 10
132.415484664
 20
82.8118809068
 10
132.4143971107
 20
82.78480612
 10
132.4132681047
 20
82.7608058587
 10
132.412096459
 20
82.7399248697
 10
132.4108833605
 20
82.7221184062
 10
132.4096484579
 20
82.7076532034
 10
132.4083983008
 20
82.696618173
 10
132.4071263397
 20
82.6889244032
 10
132.4058325745
 20
82.6845718942
  0
LWPOLYLINE
  5
26E
100
AcDbEntity
  8
0
100
AcDbPolyline
 62
253
  6
CONTINUOUS
 90
4
 70
0
 10
132.8928005424
 20
103.5633090536
 10
132.8959136482
 20
103.6612713836
 10
132.8977146155
 20
103.7079840221
 10
132.9004289032
 20
103.7519554046
  0
LWPOLYLINE
  5
26F
100
AcDbEntity
  8
0
100
AcDbPolyline
 62
253
  6
CONTINUOUS
 90
16
 70
0
 10
132.4350102608
 20
103.4598393596
 10
132.4376958021
 20
103.5114853367
 10
132.4457359829
 20
103.5627493575
 10
132.4590976094
 20
103.6130708886
 10
132.4777115464
 20
103.6619431389
 10
132.5014131823
 20
103.7087555803
 10
132.5298887826
 20
103.752827713
 10
132.5627836208
 20
103.7936277495
 10
132.5997674469
 20
103.8307609662
 10
132.6404446868
 20
103.863826759
 10
132.6843787845
 20
103.892462669
 10
132.7310819959
 20
103.916343755
 10
132.7800287004
 20
103.9351987163
 10
132.8306753895
 20
103.9488189399
 10
132.8824688473
 20
103.9570563799
 10
132.9348389233
 20
103.9598203211
  0
LWPOLYLINE
  5
270
100
AcDbEntity
  8
0
100
AcDbPolyline
 62
253
  6
CONTINUOUS
 90
9
 70
0
 10
132.9004289032
 20
103.7519554046
 10
132.9062201327
 20
103.8295332307
 10
132.9098592972
 20
103.8626316927
 10
132.9137902987
 20
103.891273718
 10
132.9174401038
 20
103.9151955273
 10
132.9217125654
 20
103.9342342952
 10
132.9266053818
 20
103.9481326996
 10
132.9311433658
 20
103.9566784004
 10
132.9348389228
 20
103.9598203211
  0
LINE
  5
271
100
AcDbEntity
  8
0
100
AcDbLine
 62
7
  6
CONTINUOUS
 10
156.6751229003
 20
81.9432864068
 11
158.0607635464
 21
82.0690650771
  0
LINE
  5
272
100
AcDbEntity
  8
0
100
AcDbLine
 62
7
  6
CONTINUOUS
 10
145.6751229003
 20
81.9432864068
 11
147.0607635464
 21
82.0690650771
  0
LINE
  5
273
100
AcDbEntity
  8
0
100
AcDbLine
 62
7
  6
CONTINUOUS
 10
134.4751229003
 20
81.9432864068
 11
135.8607635464
 21
82.0690650771
  0
LWPOLYLINE
  5
274
100
AcDbEntity
  8
0
100
AcDbPolyline
 62
253
  6
CONTINUOUS
 90
16
 70
0
 10
153.7313359091
 20
82.185257128
 10
153.7835375355
 20
82.1880591732
 10
153.835168147
 20
82.1962917627
 10
153.8856630437
 20
82.209864833
 10
153.9344699655
 20
82.2286299173
 10
153.981055087
 20
82.2523817534
 10
154.0249088638
 20
82.2808605136
 10
154.0655516681
 20
82.3137546822
 10
154.1025390128
 20
82.3507044665
 10
154.1354663763
 20
82.3913057016
 10
154.163973656
 20
82.435114293
 10
154.1877491082
 20
82.48165109
 10
154.2065327426
 20
82.5304071149
 10
154.2201191591
 20
82.580849118
 10
154.2283597988
 20
82.6324254071
 10
154.2311645716
 20
82.6845718954
  0
LWPOLYLINE
  5
275
100
AcDbEntity
  8
0
100
AcDbPolyline
 62
253
  6
CONTINUOUS
 90
14
 70
0
 10
176.0444011474
 20
83.3331860842
 10
176.0912384906
 20
83.3338921657
 10
176.1363564659
 20
83.3347914775
 10
176.1793176133
 20
83.3358753001
 10
176.2197053852
 20
83.3371331247
 10
176.257128185
 20
83.3385527556
 10
176.2912231646
 20
83.3401204281
 10
176.3216597418
 20
83.3418209424
 10
176.3481428063
 20
83.3436378102
 10
176.3704155805
 20
83.3455534155
 10
176.3882621094
 20
83.3475491847
 10
176.4015093546
 20
83.349605767
 10
176.410028872
 20
83.351703222
 10
176.413738057
 20
83.3538212128
  0
LWPOLYLINE
  5
276
100
AcDbEntity
  8
0
100
AcDbPolyline
 62
253
  6
CONTINUOUS
 90
14
 70
0
 10
153.8444011474
 20
83.3331860842
 10
153.8912384906
 20
83.3338921657
 10
153.9363564659
 20
83.3347914775
 10
153.9793176133
 20
83.3358753001
 10
154.0197053852
 20
83.3371331247
 10
154.057128185
 20
83.3385527556
 10
154.0912231646
 20
83.3401204281
 10
154.1216597418
 20
83.3418209424
 10
154.1481428063
 20
83.3436378102
 10
154.1704155805
 20
83.3455534155
 10
154.1882621094
 20
83.3475491847
 10
154.2015093546
 20
83.349605767
 10
154.210028872
 20
83.351703222
 10
154.213738057
 20
83.3538212128
  0
LINE
  5
277
100
AcDbEntity
  8
0
100
AcDbLine
 62
253
  6
CONTINUOUS
 10
175.9473971485
 20
83.3323790566
 11
176.0444011474
 21
83.3331860842
  0
LINE
  5
278
100
AcDbEntity
  8
0
100
AcDbLine
 62
253
  6
CONTINUOUS
 10
153.7473971485
 20
83.3323790566
 11
153.8444011474
 21
83.3331860842
  0
LINE
  5
279
100
AcDbEntity
  8
0
100
AcDbLine
 62
253
  6
CONTINUOUS
 10
155.105661237
 20
82.1852571268
 11
158.4752268062
 21
82.195283263
  0
LINE
  5
27A
100
AcDbEntity
  8
0
100
AcDbLine
 62
253
  6
CONTINUOUS
 10
132.905661237
 20
82.1852571268
 11
136.2752268062
 21
82.195283263
  0
LINE
  5
27B
100
AcDbEntity
  8
0
100
AcDbLine
 62
253
  6
CONTINUOUS
 10
158.4752268062
 20
82.195283263
 11
161.8472728605
 21
82.2014374287
  0
LINE
  5
27C
100
AcDbEntity
  8
0
100
AcDbLine
 62
253
  6
CONTINUOUS
 10
136.2752268062
 20
82.195283263
 11
139.6472728605
 21
82.2014374287
  0
LINE
  5
27D
100
AcDbEntity
  8
0
100
AcDbLine
 62
253
  6
CONTINUOUS
 10
155.0895999966
 20
83.3323790881
 11
159.8165059463
 21
83.3373583243
  0
LINE
  5
27E
100
AcDbEntity
  8
0
100
AcDbLine
 62
253
  6
CONTINUOUS
 10
132.8895999966
 20
83.3323790881
 11
138.2924203986
 21
83.3378311342
  0
LINE
  5
27F
100
AcDbEntity
  8
0
100
AcDbLine
 62
253
  6
CONTINUOUS
 10
161.8472728605
 20
82.2014374287
 11
165.220929955
 21
82.2037176382
  0
LINE
  5
280
100
AcDbEntity
  8
0
100
AcDbLine
 62
253
  6
CONTINUOUS
 10
139.6472728605
 20
82.2014374287
 11
143.020929955
 21
82.2037176382
  0
LINE
  5
281
100
AcDbEntity
  8
0
100
AcDbLine
 62
253
  6
CONTINUOUS
 10
159.8165059463
 20
83.3373583243
 11
164.5489300624
 21
83.3394161973
  0
LINE
  5
282
100
AcDbEntity
  8
0
100
AcDbLine
 62
7
  6
CONTINUOUS
 10
132.7847588369
 20
81.9432864068
 11
134.4751229003
 21
81.9432864068
  0
LINE
  5
283
100
AcDbEntity
  8
0
100
AcDbLine
 62
7
  6
CONTINUOUS
 10
140.9618742463
 20
81.9432864068
 11
145.6751229003
 21
81.9432864068
  0
LINE
  5
284
100
AcDbEntity
  8
0
100
AcDbLine
 62
7
  6
CONTINUOUS
 10
152.1618742463
 20
81.9432864068
 11
153.8522383097
 21
81.9432864068
  0
LINE
  5
285
100
AcDbEntity
  8
0
100
AcDbLine
 62
7
  6
CONTINUOUS
 10
154.9847588369
 20
81.9432864068
 11
156.6751229003
 21
81.9432864068
  0
LINE
  5
286
100
AcDbEntity
  8
0
100
AcDbLine
 62
7
  6
CONTINUOUS
 10
163.1618742463
 20
81.9432864068
 11
167.8751229003
 21
81.9432864068
  0
LINE
  5
287
100
AcDbEntity
  8
0
100
AcDbLine
 62
7
  6
CONTINUOUS
 10
174.3618742463
 20
81.9432864068
 11
176.0522383097
 21
81.9432864068
  0
LINE
  5
288
100
AcDbEntity
  8
0
100
AcDbLine
 62
7
  6
CONTINUOUS
 10
136.0339686272
 20
82.074305855
 11
139.4030285195
 21
82.074305855
  0
LINE
  5
289
100
AcDbEntity
  8
0
100
AcDbLine
 62
7
  6
CONTINUOUS
 10
147.2339686272
 20
82.074305855
 11
150.6030285195
 21
82.074305855
  0
LINE
  5
28A
100
AcDbEntity
  8
0
100
AcDbLine
 62
7
  6
CONTINUOUS
 10
158.2339686272
 20
82.074305855
 11
161.6030285195
 21
82.074305855
  0
LINE
  5
28B
100
AcDbEntity
  8
0
100
AcDbLine
 62
7
  6
CONTINUOUS
 10
169.4339686272
 20
82.074305855
 11
172.8030285195
 21
82.074305855
  0
LINE
  5
28C
100
AcDbEntity
  8
0
100
AcDbLine
 62
253
  6
CONTINUOUS
 10
138.2924203986
 20
83.3378311342
 11
145.0495325802
 21
83.3392822793
  0
LINE
  5
28D
100
AcDbEntity
  8
0
100
AcDbLine
 62
253
  6
CONTINUOUS
 10
164.5489300624
 20
83.3394161973
 11
169.9642311901
 21
83.338190367
  0
LINE
  5
28E
100
AcDbEntity
  8
0
100
AcDbLine
 62
253
  6
CONTINUOUS
 10
145.0495325802
 20
83.3392822793
 11
150.6061332434
 21
83.3360184158
  0
LINE
  5
28F
100
AcDbEntity
  8
0
100
AcDbLine
 62
253
  6
CONTINUOUS
 10
143.020929955
 20
82.2037176382
 11
146.3886576119
 21
82.2021307036
  0
LINE
  5
290
100
AcDbEntity
  8
0
100
AcDbLine
 62
253
  6
CONTINUOUS
 10
165.220929955
 20
82.2037176382
 11
168.5886576119
 21
82.2021307036
  0
LWPOLYLINE
  5
291
100
AcDbEntity
  8
0
100
AcDbPolyline
 62
253
  6
CONTINUOUS
 90
3
 70
0
 10
169.9642311901
 20
83.338190367
 10
175.1300127806
 20
83.3334384909
 10
175.9473971486
 20
83.3323790705
  0
LINE
  5
292
100
AcDbEntity
  8
0
100
AcDbLine
 62
253
  6
CONTINUOUS
 10
150.6061332434
 20
83.3360184158
 11
153.7473971486
 21
83.3323790705
  0
LINE
  5
293
100
AcDbEntity
  8
0
100
AcDbLine
 62
253
  6
CONTINUOUS
 10
146.3886576119
 20
82.2021307036
 11
149.8596712536
 21
82.19644516
  0
LINE
  5
294
100
AcDbEntity
  8
0
100
AcDbLine
 62
253
  6
CONTINUOUS
 10
168.5886576119
 20
82.2021307036
 11
172.0596712536
 21
82.19644516
  0
LWPOLYLINE
  5
295
100
AcDbEntity
  8
0
100
AcDbPolyline
 62
253
  6
CONTINUOUS
 90
3
 70
0
 10
149.8596712536
 20
82.19644516
 10
152.9137574947
 20
82.1880180339
 10
153.7313359091
 20
82.185257128
  0
LWPOLYLINE
  5
296
100
AcDbEntity
  8
0
100
AcDbPolyline
 62
253
  6
CONTINUOUS
 90
3
 70
0
 10
172.0596712536
 20
82.19644516
 10
175.1137574947
 20
82.1880180339
 10
175.9313359091
 20
82.185257128
  0
LWPOLYLINE
  5
297
100
AcDbEntity
  8
0
100
AcDbPolyline
 62
253
  6
CONTINUOUS
 90
15
 70
0
 10
132.889600848
 20
83.3323796032
 10
132.7925977583
 20
83.333186605
 10
132.74576081
 20
83.3338926647
 10
132.7006431724
 20
83.3347919493
 10
132.6576822936
 20
83.3358757395
 10
132.6172947105
 20
83.3371335275
 10
132.5798720099
 20
83.3385531182
 10
132.5457770318
 20
83.3401207475
 10
132.5153403518
 20
83.3418212163
 10
132.4888570754
 20
83.3436380371
 10
132.4665839772
 20
83.3455535947
 10
132.4487370109
 20
83.3475493163
 10
132.4354892159
 20
83.3496058519
 10
132.4269690389
 20
83.351703262
 10
132.4232590894
 20
83.3538212107
  0
LWPOLYLINE
  5
298
100
AcDbEntity
  8
0
100
AcDbPolyline
 62
253
  6
CONTINUOUS
 90
15
 70
0
 10
155.089600848
 20
83.3323796032
 10
154.9925977583
 20
83.333186605
 10
154.94576081
 20
83.3338926647
 10
154.9006431724
 20
83.3347919493
 10
154.8576822936
 20
83.3358757395
 10
154.8172947105
 20
83.3371335275
 10
154.7798720099
 20
83.3385531182
 10
154.7457770318
 20
83.3401207475
 10
154.7153403518
 20
83.3418212163
 10
154.6888570754
 20
83.3436380371
 10
154.6665839772
 20
83.3455535947
 10
154.6487370109
 20
83.3475493163
 10
154.6354892159
 20
83.3496058519
 10
154.6269690389
 20
83.351703262
 10
154.6232590894
 20
83.3538212107
  0
LWPOLYLINE
  5
299
100
AcDbEntity
  8
0
100
AcDbPolyline
 62
253
  6
CONTINUOUS
 90
16
 70
0
 10
155.105661237
 20
82.1852571268
 10
155.0534602669
 20
82.188059102
 10
155.0018302254
 20
82.1962914991
 10
154.9513357965
 20
82.2098642793
 10
154.902529244
 20
82.2286289955
 10
154.8559443714
 20
82.2523804156
 10
154.8120906829
 20
82.2808587674
 10
154.771447812
 20
82.3137525796
 10
154.7344602747
 20
82.3507020885
 10
154.7015326082
 20
82.3913031728
 10
154.6730249466
 20
82.4351117734
 10
154.6492490816
 20
82.4816487502
 10
154.6304650528
 20
82.5304051225
 10
154.6168783034
 20
82.5808476358
 10
154.6086374335
 20
82.6324245943
 10
154.6058325745
 20
82.6845718942
  0
LINE
  5
29A
100
AcDbEntity
  8
0
100
AcDbLine
 62
7
  6
CONTINUOUS
 10
152.1618742463
 20
81.9432864068
 11
150.7762336002
 21
82.0690650771
  0
LINE
  5
29B
100
AcDbEntity
  8
0
100
AcDbLine
 62
7
  6
CONTINUOUS
 10
163.1618742463
 20
81.9432864068
 11
161.7762336002
 21
82.0690650771
  0
LINE
  5
29C
100
AcDbEntity
  8
0
100
AcDbLine
 62
7
  6
CONTINUOUS
 10
174.3618742463
 20
81.9432864068
 11
172.9762336002
 21
82.0690650771
  0
LWPOLYLINE
  5
29D
100
AcDbEntity
  8
0
100
AcDbPolyline
 62
253
  6
CONTINUOUS
 90
10
 70
0
 10
132.4058325751
 20
125.7347212439
 10
132.4071263403
 20
125.7303687347
 10
132.4083983015
 20
125.7226749649
 10
132.4096484585
 20
125.7116399344
 10
132.4108833611
 20
125.6971747316
 10
132.4120964597
 20
125.6793682681
 10
132.4132681053
 20
125.6584872791
 10
132.4143971114
 20
125.6344870177
 10
132.4154846646
 20
125.6074122307
 10
132.4165146763
 20
125.5776638935
  0
LINE
  5
29E
100
AcDbEntity
  8
0
100
AcDbLine
 62
253
  6
CONTINUOUS
 10
153.7313359097
 20
126.2340360125
 11
153.8522383097
 21
126.4760067325
  0
LINE
  5
29F
100
AcDbEntity
  8
0
100
AcDbLine
 62
253
  6
CONTINUOUS
 10
132.4058325745
 20
82.6845718942
 11
132.2852726733
 21
82.443286642
  0
LINE
  5
2A0
100
AcDbEntity
  8
0
100
AcDbLine
 62
253
  6
CONTINUOUS
 10
153.8522383097
 20
81.9432864068
 11
153.7313359091
 21
82.185257128
  0
LINE
  5
2A1
100
AcDbEntity
  8
0
100
AcDbLine
 62
253
  6
CONTINUOUS
 10
132.2852726733
 20
125.9760064973
 11
132.4058325751
 21
125.7347212439
  0
LINE
  5
2A2
100
AcDbEntity
  8
0
100
AcDbLine
 62
253
  6
CONTINUOUS
 10
154.2311645722
 20
125.7347212451
 11
154.3517244733
 21
125.9760064973
  0
LINE
  5
2A3
100
AcDbEntity
  8
0
100
AcDbLine
 62
253
  6
CONTINUOUS
 10
132.905661237
 20
82.1852571268
 11
132.7847588369
 21
81.9432864068
  0
LINE
  5
2A4
100
AcDbEntity
  8
0
100
AcDbLine
 62
253
  6
CONTINUOUS
 10
132.3455002929
 20
104.9296231834
 11
132.4350102583
 21
104.9594537788
  0
LINE
  5
2A5
100
AcDbEntity
  8
0
100
AcDbLine
 62
253
  6
CONTINUOUS
 10
132.4350102608
 20
103.4598393596
 11
132.3455002929
 21
103.4896699559
  0
LINE
  5
2A6
100
AcDbEntity
  8
0
100
AcDbLine
 62
253
  6
CONTINUOUS
 10
154.3517244733
 20
82.443286642
 11
154.2311645716
 21
82.6845718954
  0
LINE
  5
2A7
100
AcDbEntity
  8
0
100
AcDbLine
 62
253
  6
CONTINUOUS
 10
132.7847588369
 20
126.4760067325
 11
132.9056612376
 21
126.2340360113
  0
LINE
  5
2A8
100
AcDbEntity
  8
0
100
AcDbLine
 62
253
  6
CONTINUOUS
 10
132.845557433
 20
104.4297183656
 11
132.9348389207
 21
104.4594728173
  0
LINE
  5
2A9
100
AcDbEntity
  8
0
100
AcDbLine
 62
253
  6
CONTINUOUS
 10
132.934838922
 20
103.9598203216
 11
132.845557433
 21
103.9895747737
  0
LWPOLYLINE
  5
2AA
100
AcDbEntity
  8
0
100
AcDbPolyline
 62
253
  6
CONTINUOUS
 90
10
 70
0
 10
154.2311645716
 20
82.6845718954
 10
154.2298708063
 20
82.6889244046
 10
154.2285988452
 20
82.6966181744
 10
154.2273486881
 20
82.7076532049
 10
154.2261137855
 20
82.7221184077
 10
154.224900687
 20
82.7399248712
 10
154.2237290413
 20
82.7608058602
 10
154.2226000352
 20
82.7848061216
 10
154.221512482
 20
82.8118809086
 10
154.2204824704
 20
82.8416292458
  0
LWPOLYLINE
  5
2AB
100
AcDbEntity
  8
0
100
AcDbPolyline
 62
253
  6
CONTINUOUS
 90
8
 70
0
 10
155.1056612376
 20
126.2340360113
 10
155.1046095412
 20
126.2266500741
 10
155.1035160227
 20
126.2133744028
 10
155.1024085611
 20
126.1942776247
 10
155.1013357963
 20
126.1694579744
 10
155.100303665
 20
126.1390404976
 10
155.0992752055
 20
126.103174469
 10
155.0973273803
 20
126.0158302829
  0
LINE
  5
2AC
100
AcDbEntity
  8
0
100
AcDbLine
 62
7
  6
CONTINUOUS
 10
176.5517244733
 20
100.0096465696
 11
176.4914968537
 21
100.0096465696
  0
LINE
  5
2AD
100
AcDbEntity
  8
0
100
AcDbLine
 62
7
  6
CONTINUOUS
 10
154.3517244733
 20
100.0096465696
 11
154.2914968537
 21
100.0096465696
  0
LINE
  5
2AE
100
AcDbEntity
  8
0
100
AcDbLine
 62
7
  6
CONTINUOUS
 10
132.2852726733
 20
100.0096465696
 11
132.3455002929
 21
100.0096465696
  0
LINE
  5
2AF
100
AcDbEntity
  8
0
100
AcDbLine
 62
7
  6
CONTINUOUS
 10
154.4852726733
 20
100.0096465696
 11
154.5455002929
 21
100.0096465696
  0
LWPOLYLINE
  5
2B0
100
AcDbEntity
  8
0
100
AcDbPolyline
 62
253
  6
CONTINUOUS
 90
8
 70
0
 10
153.7307775933
 20
103.8295272716
 10
153.7271384383
 20
103.8626266619
 10
153.723207459
 20
103.8912698031
 10
153.719557592
 20
103.915192793
 10
153.7152850103
 20
103.9342326333
 10
153.7103920468
 20
103.9481318986
 10
153.705853907
 20
103.9566781801
 10
153.7021582259
 20
103.959820322
  0
LWPOLYLINE
  5
2B1
100
AcDbEntity
  8
0
100
AcDbPolyline
 62
253
  6
CONTINUOUS
 90
16
 70
0
 10
154.2019868884
 20
103.4598393604
 10
154.199301352
 20
103.5114852896
 10
154.1912611839
 20
103.5627492747
 10
154.177899574
 20
103.613070783
 10
154.1592856537
 20
103.6619430246
 10
154.1355840312
 20
103.7087554692
 10
154.1071084402
 20
103.7528276121
 10
154.0742136045
 20
103.7936276655
 10
154.0372297734
 20
103.8307609028
 10
153.9965525262
 20
103.8638267133
 10
153.952618423
 20
103.892462636
 10
153.9059152056
 20
103.9163437325
 10
153.8569684923
 20
103.935198703
 10
153.8063217909
 20
103.948818934
 10
153.7545283184
 20
103.957056379
 10
153.7021582259
 20
103.959820322
  0
LWPOLYLINE
  5
2B2
100
AcDbEntity
  8
0
100
AcDbPolyline
 62
253
  6
CONTINUOUS
 90
16
 70
0
 10
154.6350102583
 20
104.9594537788
 10
154.6376957946
 20
104.9078078497
 10
154.6457359627
 20
104.8565438646
 10
154.6590975726
 20
104.8062223563
 10
154.677711493
 20
104.7573501147
 10
154.7014131154
 20
104.7105376701
 10
154.7298887065
 20
104.6664655272
 10
154.7627835421
 20
104.6256654738
 10
154.7997673733
 20
104.5885322365
 10
154.8404446204
 20
104.555466426
 10
154.8843787236
 20
104.5268305033
 10
154.931081941
 20
104.5029494068
 10
154.9800286543
 20
104.4840944363
 10
155.0306753557
 20
104.4704742053
 10
155.0824688282
 20
104.4622367603
 10
155.1348389207
 20
104.4594728173
  0
LWPOLYLINE
  5
2B3
100
AcDbEntity
  8
0
100
AcDbPolyline
 62
253
  6
CONTINUOUS
 90
4
 70
0
 10
153.7410837516
 20
103.6612653634
 10
153.7392828236
 20
103.7079773427
 10
153.7365686738
 20
103.7519485077
 10
153.7307775933
 20
103.8295272716
  0
LWPOLYLINE
  5
2B4
100
AcDbEntity
  8
0
100
AcDbPolyline
 62
253
  6
CONTINUOUS
 90
6
 70
0
 10
155.1003036642
 20
82.2802526417
 10
155.1013357956
 20
82.2498351653
 10
155.1024085605
 20
82.2250155149
 10
155.1035160221
 20
82.2059187363
 10
155.1046095406
 20
82.1926430643
 10
155.105661237
 20
82.1852571268
  0
LWPOLYLINE
  5
2B5
100
AcDbEntity
  8
0
100
AcDbPolyline
 62
253
  6
CONTINUOUS
 90
6
 70
0
 10
153.7366934825
 20
126.1390404976
 10
153.7356613511
 20
126.169457974
 10
153.7345885861
 20
126.1942776244
 10
153.7334811245
 20
126.213374403
 10
153.732387606
 20
126.226650075
 10
153.7313359097
 20
126.2340360125
  0
LINE
  5
2B6
100
AcDbEntity
  8
0
100
AcDbLine
 62
253
  6
CONTINUOUS
 10
154.2204824704
 20
82.8416292458
 11
154.2185967834
 21
82.9092298665
  0
LINE
  5
2B7
100
AcDbEntity
  8
0
100
AcDbLine
 62
253
  6
CONTINUOUS
 10
153.7387229096
 20
126.0620357267
 11
153.7366934825
 21
126.1390404976
  0
LINE
  5
2B8
100
AcDbEntity
  8
0
100
AcDbLine
 62
253
  6
CONTINUOUS
 10
155.098274237
 20
82.3572574126
 11
155.1003036642
 21
82.2802526417
  0
LINE
  5
2B9
100
AcDbEntity
  8
0
100
AcDbLine
 62
253
  6
CONTINUOUS
 10
154.2185967834
 20
82.9092298665
 11
154.2169829612
 21
82.9859766124
  0
LINE
  5
2BA
100
AcDbEntity
  8
0
100
AcDbLine
 62
253
  6
CONTINUOUS
 10
153.740596725
 20
125.9647906588
 11
153.7387229096
 21
126.0620357267
  0
LWPOLYLINE
  5
2BB
100
AcDbEntity
  8
0
100
AcDbPolyline
 62
253
  6
CONTINUOUS
 90
3
 70
0
 10
155.0955127082
 20
82.5101212341
 10
155.0964004217
 20
82.4545024805
 10
155.098274237
 20
82.3572574126
  0
LINE
  5
2BC
100
AcDbEntity
  8
0
100
AcDbLine
 62
253
  6
CONTINUOUS
 10
154.2169829612
 20
82.9859766124
 11
154.2156646449
 21
83.0707286142
  0
LINE
  5
2BD
100
AcDbEntity
  8
0
100
AcDbLine
 62
253
  6
CONTINUOUS
 10
153.7430961846
 20
125.7853193073
 11
153.740596725
 21
125.9647906588
  0
LINE
  5
2BE
100
AcDbEntity
  8
0
100
AcDbLine
 62
253
  6
CONTINUOUS
 10
154.2156646449
 20
83.0707286142
 11
154.2143061603
 21
83.2087367736
  0
LINE
  5
2BF
100
AcDbEntity
  8
0
100
AcDbLine
 62
253
  6
CONTINUOUS
 10
153.7456696127
 20
125.4961320836
 11
153.7430961846
 21
125.7853193073
  0
LWPOLYLINE
  5
2C0
100
AcDbEntity
  8
0
100
AcDbPolyline
 62
253
  6
CONTINUOUS
 90
3
 70
0
 10
153.74482426
 20
104.9602236545
 10
153.7450491573
 20
104.9072348613
 10
153.7441966042
 20
104.8559840857
  0
LINE
  5
2C1
100
AcDbEntity
  8
0
100
AcDbLine
 62
253
  6
CONTINUOUS
 10
153.7473971553
 20
125.0869140503
 11
153.7456696127
 21
125.4961320836
  0
LINE
  5
2C2
100
AcDbEntity
  8
0
100
AcDbLine
 62
253
  6
CONTINUOUS
 10
154.2143061603
 20
83.2087367736
 11
154.213738057
 21
83.3538212128
  0
LINE
  5
2C3
100
AcDbEntity
  8
0
100
AcDbLine
 62
253
  6
CONTINUOUS
 10
154.6226909863
 20
125.2105563657
 11
154.6232590897
 21
125.0654719265
  0
LINE
  5
2C4
100
AcDbEntity
  8
0
100
AcDbLine
 62
253
  6
CONTINUOUS
 10
154.213738057
 20
83.3538212128
 11
154.2057602823
 21
92.3442571726
  0
LINE
  5
2C5
100
AcDbEntity
  8
0
100
AcDbLine
 62
253
  6
CONTINUOUS
 10
154.6232590897
 20
125.0654719265
 11
154.6334791447
 21
111.7707967173
  0
LWPOLYLINE
  5
2C6
100
AcDbEntity
  8
0
100
AcDbPolyline
 62
253
  6
CONTINUOUS
 90
3
 70
0
 10
154.2057602823
 20
92.3442571726
 10
154.2022470099
 20
101.1521126958
 10
154.2019868884
 20
103.4598393604
  0
LINE
  5
2C7
100
AcDbEntity
  8
0
100
AcDbLine
 62
7
  6
CONTINUOUS
 10
154.2914968537
 20
103.4896699559
 11
154.2914968537
 21
100.0096465696
  0
LINE
  5
2C8
100
AcDbEntity
  8
0
100
AcDbLine
 62
7
  6
CONTINUOUS
 10
154.2914968537
 20
104.9296231834
 11
154.2914968537
 21
108.4096465696
  0
LINE
  5
2C9
100
AcDbEntity
  8
0
100
AcDbLine
 62
7
  6
CONTINUOUS
 10
154.3517244733
 20
125.9760064973
 11
154.3517244733
 21
108.4096465696
  0
LINE
  5
2CA
100
AcDbEntity
  8
0
100
AcDbLine
 62
7
  6
CONTINUOUS
 10
154.3517244733
 20
82.443286642
 11
154.3517244733
 21
100.0096465696
  0
LINE
  5
2CB
100
AcDbEntity
  8
0
100
AcDbLine
 62
7
  6
CONTINUOUS
 10
154.4852726733
 20
82.443286642
 11
154.4852726733
 21
100.0096465696
  0
LINE
  5
2CC
100
AcDbEntity
  8
0
100
AcDbLine
 62
7
  6
CONTINUOUS
 10
154.4852726733
 20
108.4096465696
 11
154.4852726733
 21
125.9760064973
  0
LINE
  5
2CD
100
AcDbEntity
  8
0
100
AcDbLine
 62
7
  6
CONTINUOUS
 10
154.5455002929
 20
103.4896699559
 11
154.5455002929
 21
100.0096465696
  0
LINE
  5
2CE
100
AcDbEntity
  8
0
100
AcDbLine
 62
7
  6
CONTINUOUS
 10
154.5455002929
 20
104.9296231834
 11
154.5455002929
 21
108.4096465696
  0
LINE
  5
2CF
100
AcDbEntity
  8
0
100
AcDbLine
 62
253
  6
CONTINUOUS
 10
154.6334791447
 20
111.7707967173
 11
154.6350102583
 21
104.9594537788
  0
LINE
  5
2D0
100
AcDbEntity
  8
0
100
AcDbLine
 62
253
  6
CONTINUOUS
 10
153.7448240441
 20
104.9602236581
 11
153.7473971501
 21
125.0869140512
  0
LINE
  5
2D1
100
AcDbEntity
  8
0
100
AcDbLine
 62
253
  6
CONTINUOUS
 10
154.2019868859
 20
104.9594537797
 11
154.2054293141
 21
115.5487559307
  0
LINE
  5
2D2
100
AcDbEntity
  8
0
100
AcDbLine
 62
253
  6
CONTINUOUS
 10
154.6350102608
 20
103.4598393596
 11
154.6327578158
 21
95.0398690222
  0
LINE
  5
2D3
100
AcDbEntity
  8
0
100
AcDbLine
 62
253
  6
CONTINUOUS
 10
154.6327578158
 20
95.0398690222
 11
154.6258628115
 21
85.8556750116
  0
LINE
  5
2D4
100
AcDbEntity
  8
0
100
AcDbLine
 62
253
  6
CONTINUOUS
 10
153.7469237352
 20
83.1650370196
 11
153.7448240557
 21
103.4590694757
  0
LINE
  5
2D5
100
AcDbEntity
  8
0
100
AcDbLine
 62
253
  6
CONTINUOUS
 10
154.2054293141
 20
115.5487559307
 11
154.214028973
 21
125.1629811413
  0
LWPOLYLINE
  5
2D6
100
AcDbEntity
  8
0
100
AcDbPolyline
 62
253
  6
CONTINUOUS
 90
3
 70
0
 10
154.6258628115
 20
85.8556750116
 10
154.6229681737
 20
83.256311998
 10
154.6226909857
 20
83.2087367716
  0
LWPOLYLINE
  5
2D7
100
AcDbEntity
  8
0
100
AcDbPolyline
 62
253
  6
CONTINUOUS
 90
4
 70
0
 10
153.7448242626
 20
103.4590694735
 10
153.7450490313
 20
103.5120562697
 10
153.7441965594
 20
103.5633053714
 10
153.7410837516
 20
103.6612653634
  0
LINE
  5
2D8
100
AcDbEntity
  8
0
100
AcDbLine
 62
253
  6
CONTINUOUS
 10
153.744498375
 20
82.7725705891
 11
153.7469237352
 21
83.1650370196
  0
LINE
  5
2D9
100
AcDbEntity
  8
0
100
AcDbLine
 62
253
  6
CONTINUOUS
 10
154.214028973
 20
125.1629811413
 11
154.2151284222
 21
125.3038456791
  0
LINE
  5
2DA
100
AcDbEntity
  8
0
100
AcDbLine
 62
253
  6
CONTINUOUS
 10
153.7423082127
 20
82.5700440052
 11
153.744498375
 21
82.7725705891
  0
LINE
  5
2DB
100
AcDbEntity
  8
0
100
AcDbLine
 62
253
  6
CONTINUOUS
 10
154.2151284222
 20
125.3038456791
 11
154.2162832124
 21
125.3917068686
  0
LINE
  5
2DC
100
AcDbEntity
  8
0
100
AcDbLine
 62
253
  6
CONTINUOUS
 10
153.7405967241
 20
82.4545024825
 11
153.7423082127
 21
82.5700440052
  0
LINE
  5
2DD
100
AcDbEntity
  8
0
100
AcDbLine
 62
253
  6
CONTINUOUS
 10
155.0973273803
 20
126.0158302829
 11
155.0955127091
 21
125.9091719024
  0
LINE
  5
2DE
100
AcDbEntity
  8
0
100
AcDbLine
 62
253
  6
CONTINUOUS
 10
154.2162832124
 20
125.3917068686
 11
154.2177537744
 21
125.4727785571
  0
LINE
  5
2DF
100
AcDbEntity
  8
0
100
AcDbLine
 62
253
  6
CONTINUOUS
 10
153.7387229087
 20
82.3572574137
 11
153.7405967241
 21
82.4545024825
  0
LWPOLYLINE
  5
2E0
100
AcDbEntity
  8
0
100
AcDbPolyline
 62
253
  6
CONTINUOUS
 90
12
 70
0
 10
154.2177537744
 20
125.4727785571
 10
154.2195108568
 20
125.5452003603
 10
154.2204824711
 20
125.5776638954
 10
154.2215124827
 20
125.6074122325
 10
154.2226000359
 20
125.6344870193
 10
154.223729042
 20
125.6584872806
 10
154.2249006876
 20
125.6793682696
 10
154.2261137862
 20
125.6971747331
 10
154.2273486887
 20
125.7116399359
 10
154.2285988458
 20
125.7226749663
 10
154.229870807
 20
125.7303687361
 10
154.2311645722
 20
125.7347212451
  0
LWPOLYLINE
  5
2E1
100
AcDbEntity
  8
0
100
AcDbPolyline
 62
253
  6
CONTINUOUS
 90
4
 70
0
 10
153.7441966042
 20
104.8559840857
 10
153.7410834984
 20
104.7580217557
 10
153.7392825311
 20
104.7113091172
 10
153.7365682435
 20
104.6673377347
  0
LWPOLYLINE
  5
2E2
100
AcDbEntity
  8
0
100
AcDbPolyline
 62
253
  6
CONTINUOUS
 90
16
 70
0
 10
154.2019868859
 20
104.9594537797
 10
154.1993013445
 20
104.9078078026
 10
154.1912611638
 20
104.8565437818
 10
154.1778995372
 20
104.8062222507
 10
154.1592856002
 20
104.7573500004
 10
154.1355839644
 20
104.710537559
 10
154.107108364
 20
104.6664654263
 10
154.0742135258
 20
104.6256653898
 10
154.0372296998
 20
104.5885321731
 10
153.9965524599
 20
104.5554663803
 10
153.9526183621
 20
104.5268304703
 10
153.9059151508
 20
104.5029493843
 10
153.8569684462
 20
104.4840944229
 10
153.8063217572
 20
104.4704741994
 10
153.7545282993
 20
104.4622367594
 10
153.7021582234
 20
104.4594728182
  0
LWPOLYLINE
  5
2E3
100
AcDbEntity
  8
0
100
AcDbPolyline
 62
253
  6
CONTINUOUS
 90
16
 70
0
 10
154.6350102608
 20
103.4598393596
 10
154.6376958021
 20
103.5114853367
 10
154.6457359829
 20
103.5627493575
 10
154.6590976094
 20
103.6130708886
 10
154.6777115464
 20
103.6619431389
 10
154.7014131823
 20
103.7087555803
 10
154.7298887826
 20
103.752827713
 10
154.7627836208
 20
103.7936277495
 10
154.7997674469
 20
103.8307609662
 10
154.8404446868
 20
103.863826759
 10
154.8843787845
 20
103.892462669
 10
154.9310819959
 20
103.916343755
 10
154.9800287004
 20
103.9351987163
 10
155.0306753895
 20
103.9488189399
 10
155.0824688473
 20
103.9570563799
 10
155.1348389233
 20
103.9598203211
  0
LWPOLYLINE
  5
2E4
100
AcDbEntity
  8
0
100
AcDbPolyline
 62
253
  6
CONTINUOUS
 90
9
 70
0
 10
153.7365682435
 20
104.6673377347
 10
153.730777014
 20
104.5897599086
 10
153.7271378495
 20
104.5566614466
 10
153.7232068479
 20
104.5280194213
 10
153.7195570428
 20
104.5040976119
 10
153.7152845813
 20
104.4850588441
 10
153.7103917648
 20
104.4711604397
 10
153.7058537809
 20
104.4626147389
 10
153.7021582238
 20
104.4594728182
  0
LINE
  5
2E5
100
AcDbEntity
  8
0
100
AcDbLine
 62
253
  6
CONTINUOUS
 10
154.5455002929
 20
104.9296231834
 11
154.6350102583
 21
104.9594537788
  0
LINE
  5
2E6
100
AcDbEntity
  8
0
100
AcDbLine
 62
253
  6
CONTINUOUS
 10
155.045557433
 20
104.4297183656
 11
155.1348389207
 21
104.4594728173
  0
LINE
  5
2E7
100
AcDbEntity
  8
0
100
AcDbLine
 62
253
  6
CONTINUOUS
 10
153.7914397137
 20
103.9895747737
 11
153.7021582259
 21
103.959820322
  0
LINE
  5
2E8
100
AcDbEntity
  8
0
100
AcDbLine
 62
7
  6
CONTINUOUS
 10
173.7684985733
 20
103.9738664117
 11
173.9259781677
 21
103.9895747737
  0
LINE
  5
2E9
100
AcDbEntity
  8
0
100
AcDbLine
 62
7
  6
CONTINUOUS
 10
157.2684985733
 20
104.4454267276
 11
157.111018979
 21
104.4297183656
  0
LINE
  5
2EA
100
AcDbEntity
  8
0
100
AcDbLine
 62
7
  6
CONTINUOUS
 10
151.5684985733
 20
103.9738664117
 11
151.7259781677
 21
103.9895747737
  0
LINE
  5
2EB
100
AcDbEntity
  8
0
100
AcDbLine
 62
253
  6
CONTINUOUS
 10
176.4019868884
 20
103.4598393605
 11
176.3983525583
 21
103.4597641165
  0
LINE
  5
2EC
100
AcDbEntity
  8
0
100
AcDbLine
 62
253
  6
CONTINUOUS
 10
154.2019868884
 20
103.4598393605
 11
154.1983525583
 21
103.4597641165
  0
LINE
  5
2ED
100
AcDbEntity
  8
0
100
AcDbLine
 62
253
  6
CONTINUOUS
 10
176.3983525583
 20
103.4597641165
 11
176.3770870654
 21
103.4596164678
  0
LINE
  5
2EE
100
AcDbEntity
  8
0
100
AcDbLine
 62
253
  6
CONTINUOUS
 10
154.1983525583
 20
103.4597641165
 11
154.1770870654
 21
103.4596164678
  0
LINE
  5
2EF
100
AcDbEntity
  8
0
100
AcDbLine
 62
253
  6
CONTINUOUS
 10
175.9021582259
 20
103.959820322
 11
168.9812045237
 21
103.9563749302
  0
LINE
  5
2F0
100
AcDbEntity
  8
0
100
AcDbLine
 62
253
  6
CONTINUOUS
 10
153.7021582259
 20
103.959820322
 11
146.7812045237
 21
103.9563749302
  0
LINE
  5
2F1
100
AcDbEntity
  8
0
100
AcDbLine
 62
253
  6
CONTINUOUS
 10
155.1348389207
 20
104.4594728173
 11
162.0557926229
 21
104.4629182091
  0
LINE
  5
2F2
100
AcDbEntity
  8
0
100
AcDbLine
 62
253
  6
CONTINUOUS
 10
132.9348389207
 20
104.4594728173
 11
139.8557926229
 21
104.4629182091
  0
LINE
  5
2F3
100
AcDbEntity
  8
0
100
AcDbLine
 62
253
  6
CONTINUOUS
 10
176.3770870654
 20
103.4596164678
 11
168.9954296963
 21
103.455470085
  0
LINE
  5
2F4
100
AcDbEntity
  8
0
100
AcDbLine
 62
253
  6
CONTINUOUS
 10
154.1770870654
 20
103.4596164678
 11
146.7954296963
 21
103.455470085
  0
LINE
  5
2F5
100
AcDbEntity
  8
0
100
AcDbLine
 62
7
  6
CONTINUOUS
 10
173.7684985733
 20
103.9738664117
 11
157.2684985733
 21
103.9738664117
  0
LINE
  5
2F6
100
AcDbEntity
  8
0
100
AcDbLine
 62
7
  6
CONTINUOUS
 10
151.5684985733
 20
103.9738664117
 11
135.0684985733
 21
103.9738664117
  0
LINE
  5
2F7
100
AcDbEntity
  8
0
100
AcDbLine
 62
7
  6
CONTINUOUS
 10
132.845557433
 20
103.9895747737
 11
134.911018979
 21
103.9895747737
  0
LINE
  5
2F8
100
AcDbEntity
  8
0
100
AcDbLine
 62
7
  6
CONTINUOUS
 10
151.7259781677
 20
103.9895747737
 11
153.7914397137
 21
103.9895747737
  0
LINE
  5
2F9
100
AcDbEntity
  8
0
100
AcDbLine
 62
7
  6
CONTINUOUS
 10
155.045557433
 20
103.9895747737
 11
157.111018979
 21
103.9895747737
  0
LINE
  5
2FA
100
AcDbEntity
  8
0
100
AcDbLine
 62
7
  6
CONTINUOUS
 10
173.9259781677
 20
103.9895747737
 11
175.9914397137
 21
103.9895747737
  0
LINE
  5
2FB
100
AcDbEntity
  8
0
100
AcDbLine
 62
7
  6
CONTINUOUS
 10
175.9914397137
 20
104.4297183656
 11
173.9259781677
 21
104.4297183656
  0
LINE
  5
2FC
100
AcDbEntity
  8
0
100
AcDbLine
 62
7
  6
CONTINUOUS
 10
157.111018979
 20
104.4297183656
 11
155.045557433
 21
104.4297183656
  0
LINE
  5
2FD
100
AcDbEntity
  8
0
100
AcDbLine
 62
7
  6
CONTINUOUS
 10
153.7914397137
 20
104.4297183656
 11
151.7259781677
 21
104.4297183656
  0
LINE
  5
2FE
100
AcDbEntity
  8
0
100
AcDbLine
 62
7
  6
CONTINUOUS
 10
134.911018979
 20
104.4297183656
 11
132.845557433
 21
104.4297183656
  0
LINE
  5
2FF
100
AcDbEntity
  8
0
100
AcDbLine
 62
7
  6
CONTINUOUS
 10
135.0684985733
 20
104.4454267276
 11
151.5684985733
 21
104.4454267276
  0
LINE
  5
300
100
AcDbEntity
  8
0
100
AcDbLine
 62
7
  6
CONTINUOUS
 10
157.2684985733
 20
104.4454267276
 11
173.7684985733
 21
104.4454267276
  0
LINE
  5
301
100
AcDbEntity
  8
0
100
AcDbLine
 62
253
  6
CONTINUOUS
 10
146.7954296963
 20
103.455470085
 11
139.8415705946
 21
103.4554700841
  0
LINE
  5
302
100
AcDbEntity
  8
0
100
AcDbLine
 62
253
  6
CONTINUOUS
 10
168.9954296963
 20
103.455470085
 11
162.0415705946
 21
103.4554700841
  0
LINE
  5
303
100
AcDbEntity
  8
0
100
AcDbLine
 62
253
  6
CONTINUOUS
 10
146.7812045237
 20
103.9563749302
 11
139.855790028
 21
103.9563749308
  0
LINE
  5
304
100
AcDbEntity
  8
0
100
AcDbLine
 62
253
  6
CONTINUOUS
 10
168.9812045237
 20
103.9563749302
 11
162.055790028
 21
103.9563749308
  0
LINE
  5
305
100
AcDbEntity
  8
0
100
AcDbLine
 62
253
  6
CONTINUOUS
 10
139.8557926229
 20
104.4629182091
 11
146.7812071186
 21
104.4629182085
  0
LINE
  5
306
100
AcDbEntity
  8
0
100
AcDbLine
 62
253
  6
CONTINUOUS
 10
162.0557926229
 20
104.4629182091
 11
168.9812071186
 21
104.4629182085
  0
LINE
  5
307
100
AcDbEntity
  8
0
100
AcDbLine
 62
253
  6
CONTINUOUS
 10
162.0415705946
 20
103.4554700841
 11
154.9063695249
 21
103.4591597751
  0
LINE
  5
308
100
AcDbEntity
  8
0
100
AcDbLine
 62
253
  6
CONTINUOUS
 10
139.855790028
 20
103.9563749308
 11
132.934838922
 21
103.9598203216
  0
LINE
  5
309
100
AcDbEntity
  8
0
100
AcDbLine
 62
253
  6
CONTINUOUS
 10
162.055790028
 20
103.9563749308
 11
155.134838922
 21
103.9598203216
  0
LINE
  5
30A
100
AcDbEntity
  8
0
100
AcDbLine
 62
253
  6
CONTINUOUS
 10
146.7812071186
 20
104.4629182085
 11
153.7021582246
 21
104.4594728177
  0
LINE
  5
30B
100
AcDbEntity
  8
0
100
AcDbLine
 62
253
  6
CONTINUOUS
 10
168.9812071186
 20
104.4629182085
 11
175.9021582246
 21
104.4594728177
  0
LINE
  5
30C
100
AcDbEntity
  8
0
100
AcDbLine
 62
253
  6
CONTINUOUS
 10
139.8415705946
 20
103.4554700841
 11
132.4599100835
 21
103.4596164721
  0
LINE
  5
30D
100
AcDbEntity
  8
0
100
AcDbLine
 62
253
  6
CONTINUOUS
 10
154.9063695249
 20
103.4591597751
 11
154.6599100835
 21
103.4596164721
  0
LWPOLYLINE
  5
30E
100
AcDbEntity
  8
0
100
AcDbPolyline
 62
253
  6
CONTINUOUS
 90
3
 70
0
 10
132.4599100835
 20
103.4596164721
 10
132.4386445907
 20
103.4597641174
 10
132.4350102607
 20
103.4598393596
  0
LWPOLYLINE
  5
30F
100
AcDbEntity
  8
0
100
AcDbPolyline
 62
253
  6
CONTINUOUS
 90
3
 70
0
 10
154.6599100835
 20
103.4596164721
 10
154.6386445907
 20
103.4597641174
 10
154.6350102607
 20
103.4598393596
  0
LINE
  5
310
100
AcDbEntity
  8
0
100
AcDbLine
 62
7
  6
CONTINUOUS
 10
135.0684985733
 20
103.9738664117
 11
134.911018979
 21
103.9895747737
  0
LINE
  5
311
100
AcDbEntity
  8
0
100
AcDbLine
 62
7
  6
CONTINUOUS
 10
151.5684985733
 20
104.4454267276
 11
151.7259781677
 21
104.4297183656
  0
LINE
  5
312
100
AcDbEntity
  8
0
100
AcDbLine
 62
7
  6
CONTINUOUS
 10
157.2684985733
 20
103.9738664117
 11
157.111018979
 21
103.9895747737
  0
LINE
  5
313
100
AcDbEntity
  8
0
100
AcDbLine
 62
253
  6
CONTINUOUS
 10
154.6350102608
 20
103.4598393596
 11
154.5455002929
 21
103.4896699559
  0
LINE
  5
314
100
AcDbEntity
  8
0
100
AcDbLine
 62
253
  6
CONTINUOUS
 10
155.134838922
 20
103.9598203216
 11
155.045557433
 21
103.9895747737
  0
LINE
  5
315
100
AcDbEntity
  8
0
100
AcDbLine
 62
253
  6
CONTINUOUS
 10
153.7021582246
 20
104.4594728177
 11
153.7914397137
 21
104.4297183656
  0
LWPOLYLINE
  5
316
100
AcDbEntity
  8
0
100
AcDbPolyline
 62
253
  6
CONTINUOUS
 90
8
 70
0
 10
155.1062195534
 20
104.5897658677
 10
155.1098587084
 20
104.5566664774
 10
155.1137896876
 20
104.5280233362
 10
155.1174395546
 20
104.5041003463
 10
155.1217121363
 20
104.485060506
 10
155.1266050999
 20
104.4711612407
 10
155.1311432396
 20
104.4626149592
 10
155.1348389208
 20
104.4594728173
  0
LWPOLYLINE
  5
317
100
AcDbEntity
  8
0
100
AcDbPolyline
 62
253
  6
CONTINUOUS
 90
4
 70
0
 10
155.0959133951
 20
104.7580277759
 10
155.097714323
 20
104.7113157966
 10
155.1004284729
 20
104.6673446316
 10
155.1062195534
 20
104.5897658677
  0
LINE
  5
318
100
AcDbEntity
  8
0
100
AcDbLine
 62
253
  6
CONTINUOUS
 10
154.6165146763
 20
125.5776638935
 11
154.6184003633
 21
125.5100632728
  0
LINE
  5
319
100
AcDbEntity
  8
0
100
AcDbLine
 62
253
  6
CONTINUOUS
 10
154.6184003633
 20
125.5100632728
 11
154.6200141855
 21
125.4333165269
  0
LINE
  5
31A
100
AcDbEntity
  8
0
100
AcDbLine
 62
253
  6
CONTINUOUS
 10
154.6200141855
 20
125.4333165269
 11
154.6213325018
 21
125.3485645251
  0
LINE
  5
31B
100
AcDbEntity
  8
0
100
AcDbLine
 62
253
  6
CONTINUOUS
 10
155.0931639813
 20
82.7015944269
 11
155.0955127082
 21
82.5101212341
  0
LINE
  5
31C
100
AcDbEntity
  8
0
100
AcDbLine
 62
253
  6
CONTINUOUS
 10
154.6213325018
 20
125.3485645251
 11
154.6226909863
 21
125.2105563657
  0
LINE
  5
31D
100
AcDbEntity
  8
0
100
AcDbLine
 62
253
  6
CONTINUOUS
 10
155.0904296128
 20
83.0827865145
 11
155.0931639813
 21
82.7015944269
  0
LWPOLYLINE
  5
31E
100
AcDbEntity
  8
0
100
AcDbPolyline
 62
253
  6
CONTINUOUS
 90
3
 70
0
 10
155.0921728867
 20
103.4590694848
 10
155.0919479893
 20
103.512058278
 10
155.0928005424
 20
103.5633090536
  0
LINE
  5
31F
100
AcDbEntity
  8
0
100
AcDbLine
 62
253
  6
CONTINUOUS
 10
155.0895999913
 20
83.332379089
 11
155.0904296128
 21
83.0827865145
  0
LINE
  5
320
100
AcDbEntity
  8
0
100
AcDbLine
 62
253
  6
CONTINUOUS
 10
155.0921731025
 20
103.4590694812
 11
155.0895999966
 21
83.3323790881
  0
LINE
  5
321
100
AcDbEntity
  8
0
100
AcDbLine
 62
253
  6
CONTINUOUS
 10
155.0900734115
 20
125.2542561197
 11
155.092173091
 21
104.9602236636
  0
LWPOLYLINE
  5
322
100
AcDbEntity
  8
0
100
AcDbPolyline
 62
253
  6
CONTINUOUS
 90
4
 70
0
 10
155.092172884
 20
104.9602236658
 10
155.0919481153
 20
104.9072368696
 10
155.0928005872
 20
104.8559877679
 10
155.0959133951
 20
104.7580277759
  0
LINE
  5
323
100
AcDbEntity
  8
0
100
AcDbLine
 62
253
  6
CONTINUOUS
 10
155.0924987717
 20
125.6467225501
 11
155.0900734115
 21
125.2542561197
  0
LINE
  5
324
100
AcDbEntity
  8
0
100
AcDbLine
 62
253
  6
CONTINUOUS
 10
154.6226909857
 20
83.2087367716
 11
154.6213325011
 21
83.0707286121
  0
LWPOLYLINE
  5
325
100
AcDbEntity
  8
0
100
AcDbPolyline
 62
253
  6
CONTINUOUS
 90
3
 70
0
 10
155.0955127091
 20
125.9091719024
 10
155.094688934
 20
125.849249134
 10
155.0924987717
 20
125.6467225501
  0
LINE
  5
326
100
AcDbEntity
  8
0
100
AcDbLine
 62
253
  6
CONTINUOUS
 10
154.6213325011
 20
83.0707286121
 11
154.6200141848
 21
82.9859766102
  0
LINE
  5
327
100
AcDbEntity
  8
0
100
AcDbLine
 62
253
  6
CONTINUOUS
 10
154.6200141848
 20
82.9859766102
 11
154.6184003626
 21
82.9092298644
  0
LWPOLYLINE
  5
328
100
AcDbEntity
  8
0
100
AcDbPolyline
 62
253
  6
CONTINUOUS
 90
11
 70
0
 10
154.6184003626
 20
82.9092298644
 10
154.6165146756
 20
82.8416292439
 10
154.615484664
 20
82.8118809068
 10
154.6143971107
 20
82.78480612
 10
154.6132681047
 20
82.7608058587
 10
154.612096459
 20
82.7399248697
 10
154.6108833605
 20
82.7221184062
 10
154.6096484579
 20
82.7076532034
 10
154.6083983008
 20
82.696618173
 10
154.6071263397
 20
82.6889244032
 10
154.6058325745
 20
82.6845718942
  0
LWPOLYLINE
  5
329
100
AcDbEntity
  8
0
100
AcDbPolyline
 62
253
  6
CONTINUOUS
 90
4
 70
0
 10
155.0928005424
 20
103.5633090536
 10
155.0959136482
 20
103.6612713836
 10
155.0977146155
 20
103.7079840221
 10
155.1004289032
 20
103.7519554046
  0
LWPOLYLINE
  5
32A
100
AcDbEntity
  8
0
100
AcDbPolyline
 62
253
  6
CONTINUOUS
 90
9
 70
0
 10
155.1004289032
 20
103.7519554046
 10
155.1062201327
 20
103.8295332307
 10
155.1098592972
 20
103.8626316927
 10
155.1137902987
 20
103.891273718
 10
155.1174401038
 20
103.9151955273
 10
155.1217125654
 20
103.9342342952
 10
155.1266053818
 20
103.9481326996
 10
155.1311433658
 20
103.9566784004
 10
155.1348389228
 20
103.9598203211
  0
LWPOLYLINE
  5
32B
100
AcDbEntity
  8
0
100
AcDbPolyline
 62
253
  6
CONTINUOUS
 90
7
 70
0
 10
153.7313359091
 20
82.185257128
 10
153.7323876054
 20
82.1926430652
 10
153.7334811239
 20
82.2059187365
 10
153.7345885855
 20
82.2250155146
 10
153.7356613504
 20
82.2498351649
 10
153.7366934817
 20
82.2802526417
 10
153.7387229087
 20
82.3572574137
  0
LINE
  5
32C
100
AcDbEntity
  8
0
100
AcDbLine
 62
253
  6
CONTINUOUS
 10
154.2914968537
 20
103.4896699559
 11
154.2019868884
 21
103.4598393604
  0
LINE
  5
32D
100
AcDbEntity
  8
0
100
AcDbLine
 62
7
  6
CONTINUOUS
 10
135.0684985733
 20
104.4454267276
 11
134.911018979
 21
104.4297183656
  0
LINE
  5
32E
100
AcDbEntity
  8
0
100
AcDbLine
 62
253
  6
CONTINUOUS
 10
154.6350102582
 20
104.9594537788
 11
154.6386445883
 21
104.9595290228
  0
LINE
  5
32F
100
AcDbEntity
  8
0
100
AcDbLine
 62
253
  6
CONTINUOUS
 10
132.4350102582
 20
104.9594537788
 11
132.4386445883
 21
104.9595290228
  0
LINE
  5
330
100
AcDbEntity
  8
0
100
AcDbLine
 62
253
  6
CONTINUOUS
 10
154.6386445883
 20
104.9595290228
 11
154.6599100812
 21
104.9596766715
  0
LINE
  5
331
100
AcDbEntity
  8
0
100
AcDbLine
 62
253
  6
CONTINUOUS
 10
132.4386445883
 20
104.9595290228
 11
132.4599100812
 21
104.9596766715
  0
LINE
  5
332
100
AcDbEntity
  8
0
100
AcDbLine
 62
253
  6
CONTINUOUS
 10
154.6599100812
 20
104.9596766715
 11
162.0415674503
 21
104.9638230543
  0
LINE
  5
333
100
AcDbEntity
  8
0
100
AcDbLine
 62
253
  6
CONTINUOUS
 10
132.4599100812
 20
104.9596766715
 11
139.8415674503
 21
104.9638230543
  0
LINE
  5
334
100
AcDbEntity
  8
0
100
AcDbLine
 62
253
  6
CONTINUOUS
 10
139.8415674503
 20
104.9638230543
 11
146.795426552
 21
104.9638230552
  0
LINE
  5
335
100
AcDbEntity
  8
0
100
AcDbLine
 62
253
  6
CONTINUOUS
 10
162.0415674503
 20
104.9638230543
 11
168.995426552
 21
104.9638230552
  0
LINE
  5
336
100
AcDbEntity
  8
0
100
AcDbLine
 62
253
  6
CONTINUOUS
 10
168.995426552
 20
104.9638230552
 11
176.1306276218
 21
104.9601333642
  0
LINE
  5
337
100
AcDbEntity
  8
0
100
AcDbLine
 62
253
  6
CONTINUOUS
 10
146.795426552
 20
104.9638230552
 11
154.1770870631
 21
104.9596766672
  0
LINE
  5
338
100
AcDbEntity
  8
0
100
AcDbLine
 62
253
  6
CONTINUOUS
 10
176.1306276218
 20
104.9601333642
 11
176.3770870631
 21
104.9596766672
  0
LWPOLYLINE
  5
339
100
AcDbEntity
  8
0
100
AcDbPolyline
 62
253
  6
CONTINUOUS
 90
3
 70
0
 10
154.1770870631
 20
104.9596766672
 10
154.1983525559
 20
104.9595290219
 10
154.2019868859
 20
104.9594537797
  0
LWPOLYLINE
  5
33A
100
AcDbEntity
  8
0
100
AcDbPolyline
 62
253
  6
CONTINUOUS
 90
3
 70
0
 10
176.3770870631
 20
104.9596766672
 10
176.3983525559
 20
104.9595290219
 10
176.4019868859
 20
104.9594537797
  0
LINE
  5
33B
100
AcDbEntity
  8
0
100
AcDbLine
 62
7
  6
CONTINUOUS
 10
173.7684985733
 20
104.4454267276
 11
173.9259781677
 21
104.4297183656
  0
LINE
  5
33C
100
AcDbEntity
  8
0
100
AcDbLine
 62
253
  6
CONTINUOUS
 10
154.2019868859
 20
104.9594537797
 11
154.2914968537
 21
104.9296231834
  0
LINE
  5
33D
100
AcDbEntity
  8
0
100
AcDbLine
 62
7
  6
CONTINUOUS
 10
176.5517244733
 20
108.4096465696
 11
176.4914968537
 21
108.4096465696
  0
LINE
  5
33E
100
AcDbEntity
  8
0
100
AcDbLine
 62
7
  6
CONTINUOUS
 10
154.3517244733
 20
108.4096465696
 11
154.2914968537
 21
108.4096465696
  0
LINE
  5
33F
100
AcDbEntity
  8
0
100
AcDbLine
 62
7
  6
CONTINUOUS
 10
132.2852726733
 20
108.4096465696
 11
132.3455002929
 21
108.4096465696
  0
LINE
  5
340
100
AcDbEntity
  8
0
100
AcDbLine
 62
7
  6
CONTINUOUS
 10
154.4852726733
 20
108.4096465696
 11
154.5455002929
 21
108.4096465696
  0
LINE
  5
341
100
AcDbEntity
  8
0
100
AcDbLine
 62
253
  6
CONTINUOUS
 10
175.9914397137
 20
103.9895747737
 11
175.9021582259
 21
103.959820322
  0
LINE
  5
342
100
AcDbEntity
  8
0
100
AcDbLine
 62
253
  6
CONTINUOUS
 10
176.4914968537
 20
103.4896699559
 11
176.4019868884
 21
103.4598393604
  0
LINE
  5
343
100
AcDbEntity
  8
0
100
AcDbLine
 62
253
  6
CONTINUOUS
 10
175.9021582246
 20
104.4594728177
 11
175.9914397137
 21
104.4297183656
  0
LINE
  5
344
100
AcDbEntity
  8
0
100
AcDbLine
 62
253
  6
CONTINUOUS
 10
176.4019868859
 20
104.9594537797
 11
176.4914968537
 21
104.9296231834
  0
LWPOLYLINE
  5
345
100
AcDbEntity
  8
0
100
AcDbPolyline
 62
253
  6
CONTINUOUS
 90
10
 70
0
 10
154.6058325751
 20
125.7347212439
 10
154.6071263403
 20
125.7303687347
 10
154.6083983015
 20
125.7226749649
 10
154.6096484585
 20
125.7116399344
 10
154.6108833611
 20
125.6971747316
 10
154.6120964597
 20
125.6793682681
 10
154.6132681053
 20
125.6584872791
 10
154.6143971114
 20
125.6344870177
 10
154.6154846646
 20
125.6074122307
 10
154.6165146763
 20
125.5776638935
  0
LINE
  5
346
100
AcDbEntity
  8
0
100
AcDbLine
 62
253
  6
CONTINUOUS
 10
175.9313359097
 20
126.2340360125
 11
176.0522383097
 21
126.4760067325
  0
LINE
  5
347
100
AcDbEntity
  8
0
100
AcDbLine
 62
253
  6
CONTINUOUS
 10
154.6058325745
 20
82.6845718942
 11
154.4852726733
 21
82.443286642
  0
LINE
  5
348
100
AcDbEntity
  8
0
100
AcDbLine
 62
253
  6
CONTINUOUS
 10
176.4311645722
 20
125.7347212451
 11
176.5517244733
 21
125.9760064973
  0
LINE
  5
349
100
AcDbEntity
  8
0
100
AcDbLine
 62
253
  6
CONTINUOUS
 10
155.105661237
 20
82.1852571268
 11
154.9847588369
 21
81.9432864068
  0
LINE
  5
34A
100
AcDbEntity
  8
0
100
AcDbLine
 62
253
  6
CONTINUOUS
 10
176.0522383097
 20
81.9432864068
 11
175.9313359091
 21
82.185257128
  0
LINE
  5
34B
100
AcDbEntity
  8
0
100
AcDbLine
 62
253
  6
CONTINUOUS
 10
154.4852726733
 20
125.9760064973
 11
154.6058325751
 21
125.7347212439
  0
LINE
  5
34C
100
AcDbEntity
  8
0
100
AcDbLine
 62
253
  6
CONTINUOUS
 10
176.5517244733
 20
82.443286642
 11
176.4311645716
 21
82.6845718954
  0
LINE
  5
34D
100
AcDbEntity
  8
0
100
AcDbLine
 62
253
  6
CONTINUOUS
 10
154.9847588369
 20
126.4760067325
 11
155.1056612376
 21
126.2340360113
  0
LWPOLYLINE
  5
34E
100
AcDbEntity
  8
0
100
AcDbPolyline
 62
253
  6
CONTINUOUS
 90
10
 70
0
 10
176.4311645716
 20
82.6845718954
 10
176.4298708063
 20
82.6889244046
 10
176.4285988452
 20
82.6966181744
 10
176.4273486881
 20
82.7076532049
 10
176.4261137855
 20
82.7221184077
 10
176.424900687
 20
82.7399248712
 10
176.4237290413
 20
82.7608058602
 10
176.4226000352
 20
82.7848061216
 10
176.421512482
 20
82.8118809086
 10
176.4204824704
 20
82.8416292458
  0
LINE
  5
34F
100
AcDbEntity
  8
0
100
AcDbLine
 62
7
  6
CONTINUOUS
 10
174.3618742463
 20
126.4760067325
 11
172.9762336002
 21
126.3502280622
  0
LWPOLYLINE
  5
350
100
AcDbEntity
  8
0
100
AcDbPolyline
 62
253
  6
CONTINUOUS
 90
14
 70
0
 10
154.9925959993
 20
125.0861070551
 10
154.9457586561
 20
125.0854009736
 10
154.9006406807
 20
125.0845016618
 10
154.8576795333
 20
125.0834178392
 10
154.8172917615
 20
125.0821600146
 10
154.7798689616
 20
125.0807403837
 10
154.7457739821
 20
125.0791727112
 10
154.7153374048
 20
125.0774721969
 10
154.6888543403
 20
125.0756553291
 10
154.6665815662
 20
125.0737397238
 10
154.6487350373
 20
125.0717439545
 10
154.635487792
 20
125.0696873723
 10
154.6269682747
 20
125.0675899173
 10
154.6232590897
 20
125.0654719265
  0
LINE
  5
351
100
AcDbEntity
  8
0
100
AcDbLine
 62
253
  6
CONTINUOUS
 10
155.0895999981
 20
125.0869140827
 11
154.9925959993
 21
125.0861070551
  0
LINE
  5
352
100
AcDbEntity
  8
0
100
AcDbLine
 62
253
  6
CONTINUOUS
 10
175.9473971501
 20
125.0869140512
 11
171.2204912004
 21
125.081934815
  0
LINE
  5
353
100
AcDbEntity
  8
0
100
AcDbLine
 62
253
  6
CONTINUOUS
 10
153.7473971501
 20
125.0869140512
 11
148.3445767481
 21
125.081462005
  0
LINE
  5
354
100
AcDbEntity
  8
0
100
AcDbLine
 62
253
  6
CONTINUOUS
 10
171.2204912004
 20
125.081934815
 11
166.4880670843
 21
125.079876942
  0
LINE
  5
355
100
AcDbEntity
  8
0
100
AcDbLine
 62
253
  6
CONTINUOUS
 10
148.3445767481
 20
125.081462005
 11
141.5874645665
 21
125.08001086
  0
LINE
  5
356
100
AcDbEntity
  8
0
100
AcDbLine
 62
253
  6
CONTINUOUS
 10
166.4880670843
 20
125.079876942
 11
161.0727659565
 21
125.0811027723
  0
LINE
  5
357
100
AcDbEntity
  8
0
100
AcDbLine
 62
253
  6
CONTINUOUS
 10
141.5874645665
 20
125.08001086
 11
136.0308639033
 21
125.0832747235
  0
LWPOLYLINE
  5
358
100
AcDbEntity
  8
0
100
AcDbPolyline
 62
253
  6
CONTINUOUS
 90
3
 70
0
 10
161.0727659565
 20
125.0811027723
 10
155.9069843661
 20
125.0858546484
 10
155.089599998
 20
125.0869140688
  0
LINE
  5
359
100
AcDbEntity
  8
0
100
AcDbLine
 62
253
  6
CONTINUOUS
 10
136.0308639033
 20
125.0832747235
 11
132.889599998
 21
125.0869140688
  0
LWPOLYLINE
  5
35A
100
AcDbEntity
  8
0
100
AcDbPolyline
 62
253
  6
CONTINUOUS
 90
15
 70
0
 10
153.7473962987
 20
125.0869135361
 10
153.8443993884
 20
125.0861065343
 10
153.8912363367
 20
125.0854004746
 10
153.9363539743
 20
125.08450119
 10
153.979314853
 20
125.0834173998
 10
154.0197024361
 20
125.0821596118
 10
154.0571251368
 20
125.0807400211
 10
154.0912201148
 20
125.0791723918
 10
154.1216567949
 20
125.077471923
 10
154.1481400712
 20
125.0756551022
 10
154.1704131694
 20
125.0737395446
 10
154.1882601357
 20
125.071743823
 10
154.2015079308
 20
125.0696872874
 10
154.2100281077
 20
125.0675898773
 10
154.2137380573
 20
125.0654719286
  0
LINE
  5
35B
100
AcDbEntity
  8
0
100
AcDbLine
 62
7
  6
CONTINUOUS
 10
134.4751229003
 20
126.4760067325
 11
135.8607635464
 21
126.3502280622
  0
LWPOLYLINE
  5
35C
100
AcDbEntity
  8
0
100
AcDbPolyline
 62
253
  6
CONTINUOUS
 90
8
 70
0
 10
175.9307775933
 20
103.8295272716
 10
175.9271384383
 20
103.8626266619
 10
175.923207459
 20
103.8912698031
 10
175.919557592
 20
103.915192793
 10
175.9152850103
 20
103.9342326333
 10
175.9103920468
 20
103.9481318986
 10
175.905853907
 20
103.9566781801
 10
175.9021582259
 20
103.959820322
  0
LWPOLYLINE
  5
35D
100
AcDbEntity
  8
0
100
AcDbPolyline
 62
253
  6
CONTINUOUS
 90
16
 70
0
 10
176.4019868884
 20
103.4598393604
 10
176.399301352
 20
103.5114852896
 10
176.3912611839
 20
103.5627492747
 10
176.377899574
 20
103.613070783
 10
176.3592856537
 20
103.6619430246
 10
176.3355840312
 20
103.7087554692
 10
176.3071084402
 20
103.7528276121
 10
176.2742136045
 20
103.7936276655
 10
176.2372297734
 20
103.8307609028
 10
176.1965525262
 20
103.8638267133
 10
176.152618423
 20
103.892462636
 10
176.1059152056
 20
103.9163437325
 10
176.0569684923
 20
103.935198703
 10
176.0063217909
 20
103.948818934
 10
175.9545283184
 20
103.957056379
 10
175.9021582259
 20
103.959820322
  0
LWPOLYLINE
  5
35E
100
AcDbEntity
  8
0
100
AcDbPolyline
 62
253
  6
CONTINUOUS
 90
4
 70
0
 10
175.9410837516
 20
103.6612653634
 10
175.9392828236
 20
103.7079773427
 10
175.9365686738
 20
103.7519485077
 10
175.9307775933
 20
103.8295272716
  0
LWPOLYLINE
  5
35F
100
AcDbEntity
  8
0
100
AcDbPolyline
 62
253
  6
CONTINUOUS
 90
6
 70
0
 10
175.9366934825
 20
126.1390404976
 10
175.9356613511
 20
126.169457974
 10
175.9345885861
 20
126.1942776244
 10
175.9334811245
 20
126.213374403
 10
175.932387606
 20
126.226650075
 10
175.9313359097
 20
126.2340360125
  0
LINE
  5
360
100
AcDbEntity
  8
0
100
AcDbLine
 62
253
  6
CONTINUOUS
 10
176.4204824704
 20
82.8416292458
 11
176.4185967834
 21
82.9092298665
  0
LINE
  5
361
100
AcDbEntity
  8
0
100
AcDbLine
 62
253
  6
CONTINUOUS
 10
175.9387229096
 20
126.0620357267
 11
175.9366934825
 21
126.1390404976
  0
LINE
  5
362
100
AcDbEntity
  8
0
100
AcDbLine
 62
253
  6
CONTINUOUS
 10
176.4185967834
 20
82.9092298665
 11
176.4169829612
 21
82.9859766124
  0
LINE
  5
363
100
AcDbEntity
  8
0
100
AcDbLine
 62
253
  6
CONTINUOUS
 10
175.940596725
 20
125.9647906588
 11
175.9387229096
 21
126.0620357267
  0
LINE
  5
364
100
AcDbEntity
  8
0
100
AcDbLine
 62
253
  6
CONTINUOUS
 10
176.4169829612
 20
82.9859766124
 11
176.4156646449
 21
83.0707286142
  0
LINE
  5
365
100
AcDbEntity
  8
0
100
AcDbLine
 62
253
  6
CONTINUOUS
 10
175.9430961846
 20
125.7853193073
 11
175.940596725
 21
125.9647906588
  0
LINE
  5
366
100
AcDbEntity
  8
0
100
AcDbLine
 62
253
  6
CONTINUOUS
 10
176.4156646449
 20
83.0707286142
 11
176.4143061603
 21
83.2087367736
  0
LINE
  5
367
100
AcDbEntity
  8
0
100
AcDbLine
 62
253
  6
CONTINUOUS
 10
175.9456696127
 20
125.4961320836
 11
175.9430961846
 21
125.7853193073
  0
LWPOLYLINE
  5
368
100
AcDbEntity
  8
0
100
AcDbPolyline
 62
253
  6
CONTINUOUS
 90
3
 70
0
 10
175.94482426
 20
104.9602236545
 10
175.9450491573
 20
104.9072348613
 10
175.9441966042
 20
104.8559840857
  0
LINE
  5
369
100
AcDbEntity
  8
0
100
AcDbLine
 62
253
  6
CONTINUOUS
 10
175.9473971553
 20
125.0869140503
 11
175.9456696127
 21
125.4961320836
  0
LINE
  5
36A
100
AcDbEntity
  8
0
100
AcDbLine
 62
253
  6
CONTINUOUS
 10
176.4143061603
 20
83.2087367736
 11
176.413738057
 21
83.3538212128
  0
LINE
  5
36B
100
AcDbEntity
  8
0
100
AcDbLine
 62
253
  6
CONTINUOUS
 10
176.413738057
 20
83.3538212128
 11
176.4057602823
 21
92.3442571726
  0
LWPOLYLINE
  5
36C
100
AcDbEntity
  8
0
100
AcDbPolyline
 62
253
  6
CONTINUOUS
 90
3
 70
0
 10
176.4057602823
 20
92.3442571726
 10
176.4022470099
 20
101.1521126958
 10
176.4019868884
 20
103.4598393604
  0
LINE
  5
36D
100
AcDbEntity
  8
0
100
AcDbLine
 62
7
  6
CONTINUOUS
 10
176.4914968537
 20
103.4896699559
 11
176.4914968537
 21
100.0096465696
  0
LINE
  5
36E
100
AcDbEntity
  8
0
100
AcDbLine
 62
7
  6
CONTINUOUS
 10
176.4914968537
 20
104.9296231834
 11
176.4914968537
 21
108.4096465696
  0
LINE
  5
36F
100
AcDbEntity
  8
0
100
AcDbLine
 62
7
  6
CONTINUOUS
 10
176.5517244733
 20
125.9760064973
 11
176.5517244733
 21
108.4096465696
  0
LINE
  5
370
100
AcDbEntity
  8
0
100
AcDbLine
 62
7
  6
CONTINUOUS
 10
176.5517244733
 20
82.443286642
 11
176.5517244733
 21
100.0096465696
  0
LINE
  5
371
100
AcDbEntity
  8
0
100
AcDbLine
 62
253
  6
CONTINUOUS
 10
175.9448240441
 20
104.9602236581
 11
175.9473971501
 21
125.0869140512
  0
LINE
  5
372
100
AcDbEntity
  8
0
100
AcDbLine
 62
253
  6
CONTINUOUS
 10
176.4019868859
 20
104.9594537797
 11
176.4054293141
 21
115.5487559307
  0
LINE
  5
373
100
AcDbEntity
  8
0
100
AcDbLine
 62
253
  6
CONTINUOUS
 10
175.9469237352
 20
83.1650370196
 11
175.9448240557
 21
103.4590694757
  0
LINE
  5
374
100
AcDbEntity
  8
0
100
AcDbLine
 62
253
  6
CONTINUOUS
 10
176.4054293141
 20
115.5487559307
 11
176.414028973
 21
125.1629811413
  0
LWPOLYLINE
  5
375
100
AcDbEntity
  8
0
100
AcDbPolyline
 62
253
  6
CONTINUOUS
 90
4
 70
0
 10
175.9448242626
 20
103.4590694735
 10
175.9450490313
 20
103.5120562697
 10
175.9441965594
 20
103.5633053714
 10
175.9410837516
 20
103.6612653634
  0
LINE
  5
376
100
AcDbEntity
  8
0
100
AcDbLine
 62
253
  6
CONTINUOUS
 10
175.944498375
 20
82.7725705891
 11
175.9469237352
 21
83.1650370196
  0
LINE
  5
377
100
AcDbEntity
  8
0
100
AcDbLine
 62
253
  6
CONTINUOUS
 10
176.414028973
 20
125.1629811413
 11
176.4151284222
 21
125.3038456791
  0
LINE
  5
378
100
AcDbEntity
  8
0
100
AcDbLine
 62
253
  6
CONTINUOUS
 10
175.9423082127
 20
82.5700440052
 11
175.944498375
 21
82.7725705891
  0
LINE
  5
379
100
AcDbEntity
  8
0
100
AcDbLine
 62
253
  6
CONTINUOUS
 10
176.4151284222
 20
125.3038456791
 11
176.4162832124
 21
125.3917068686
  0
LINE
  5
37A
100
AcDbEntity
  8
0
100
AcDbLine
 62
253
  6
CONTINUOUS
 10
175.9405967241
 20
82.4545024825
 11
175.9423082127
 21
82.5700440052
  0
LINE
  5
37B
100
AcDbEntity
  8
0
100
AcDbLine
 62
253
  6
CONTINUOUS
 10
176.4162832124
 20
125.3917068686
 11
176.4177537744
 21
125.4727785571
  0
LINE
  5
37C
100
AcDbEntity
  8
0
100
AcDbLine
 62
253
  6
CONTINUOUS
 10
175.9387229087
 20
82.3572574137
 11
175.9405967241
 21
82.4545024825
  0
LWPOLYLINE
  5
37D
100
AcDbEntity
  8
0
100
AcDbPolyline
 62
253
  6
CONTINUOUS
 90
12
 70
0
 10
176.4177537744
 20
125.4727785571
 10
176.4195108568
 20
125.5452003603
 10
176.4204824711
 20
125.5776638954
 10
176.4215124827
 20
125.6074122325
 10
176.4226000359
 20
125.6344870193
 10
176.423729042
 20
125.6584872806
 10
176.4249006876
 20
125.6793682696
 10
176.4261137862
 20
125.6971747331
 10
176.4273486887
 20
125.7116399359
 10
176.4285988458
 20
125.7226749663
 10
176.429870807
 20
125.7303687361
 10
176.4311645722
 20
125.7347212451
  0
LWPOLYLINE
  5
37E
100
AcDbEntity
  8
0
100
AcDbPolyline
 62
253
  6
CONTINUOUS
 90
4
 70
0
 10
175.9441966042
 20
104.8559840857
 10
175.9410834984
 20
104.7580217557
 10
175.9392825311
 20
104.7113091172
 10
175.9365682435
 20
104.6673377347
  0
LWPOLYLINE
  5
37F
100
AcDbEntity
  8
0
100
AcDbPolyline
 62
253
  6
CONTINUOUS
 90
16
 70
0
 10
176.4019868859
 20
104.9594537797
 10
176.3993013445
 20
104.9078078026
 10
176.3912611638
 20
104.8565437818
 10
176.3778995372
 20
104.8062222507
 10
176.3592856002
 20
104.7573500004
 10
176.3355839644
 20
104.710537559
 10
176.307108364
 20
104.6664654263
 10
176.2742135258
 20
104.6256653898
 10
176.2372296998
 20
104.5885321731
 10
176.1965524599
 20
104.5554663803
 10
176.1526183621
 20
104.5268304703
 10
176.1059151508
 20
104.5029493843
 10
176.0569684462
 20
104.4840944229
 10
176.0063217572
 20
104.4704741994
 10
175.9545282993
 20
104.4622367594
 10
175.9021582234
 20
104.4594728182
  0
LWPOLYLINE
  5
380
100
AcDbEntity
  8
0
100
AcDbPolyline
 62
253
  6
CONTINUOUS
 90
9
 70
0
 10
175.9365682435
 20
104.6673377347
 10
175.930777014
 20
104.5897599086
 10
175.9271378495
 20
104.5566614466
 10
175.9232068479
 20
104.5280194213
 10
175.9195570428
 20
104.5040976119
 10
175.9152845813
 20
104.4850588441
 10
175.9103917648
 20
104.4711604397
 10
175.9058537809
 20
104.4626147389
 10
175.9021582238
 20
104.4594728182
  0
LINE
  5
381
100
AcDbEntity
  8
0
100
AcDbLine
 62
7
  6
CONTINUOUS
 10
163.1618742463
 20
126.4760067325
 11
161.7762336002
 21
126.3502280622
  0
LINE
  5
382
100
AcDbEntity
  8
0
100
AcDbLine
 62
7
  6
CONTINUOUS
 10
152.1618742463
 20
126.4760067325
 11
150.7762336002
 21
126.3502280622
  0
LINE
  5
383
100
AcDbEntity
  8
0
100
AcDbLine
 62
7
  6
CONTINUOUS
 10
140.9618742463
 20
126.4760067325
 11
139.5762336002
 21
126.3502280622
  0
LWPOLYLINE
  5
384
100
AcDbEntity
  8
0
100
AcDbPolyline
 62
253
  6
CONTINUOUS
 90
16
 70
0
 10
155.1056612376
 20
126.2340360113
 10
155.0534596112
 20
126.2312339661
 10
155.0018289996
 20
126.2230013766
 10
154.9513341029
 20
126.2094283063
 10
154.9025271811
 20
126.1906632219
 10
154.8559420596
 20
126.1669113859
 10
154.8120882829
 20
126.1384326257
 10
154.7714454785
 20
126.1055384571
 10
154.7344581339
 20
126.0685886728
 10
154.7015307703
 20
126.0279874377
 10
154.6730234907
 20
125.9841788463
 10
154.6492480384
 20
125.9376420493
 10
154.6304644041
 20
125.8888860243
 10
154.6168779875
 20
125.8384440213
 10
154.6086373479
 20
125.7868677322
 10
154.6058325751
 20
125.7347212439
  0
LWPOLYLINE
  5
385
100
AcDbEntity
  8
0
100
AcDbPolyline
 62
253
  6
CONTINUOUS
 90
16
 70
0
 10
132.9056612376
 20
126.2340360113
 10
132.8534596112
 20
126.2312339661
 10
132.8018289996
 20
126.2230013766
 10
132.7513341029
 20
126.2094283063
 10
132.7025271811
 20
126.1906632219
 10
132.6559420596
 20
126.1669113859
 10
132.6120882829
 20
126.1384326257
 10
132.5714454785
 20
126.1055384571
 10
132.5344581339
 20
126.0685886728
 10
132.5015307703
 20
126.0279874377
 10
132.4730234907
 20
125.9841788463
 10
132.4492480384
 20
125.9376420493
 10
132.4304644041
 20
125.8888860243
 10
132.4168779875
 20
125.8384440213
 10
132.4086373479
 20
125.7868677322
 10
132.4058325751
 20
125.7347212439
  0
LWPOLYLINE
  5
386
100
AcDbEntity
  8
0
100
AcDbPolyline
 62
253
  6
CONTINUOUS
 90
14
 70
0
 10
132.7925959993
 20
125.0861070551
 10
132.7457586561
 20
125.0854009736
 10
132.7006406807
 20
125.0845016618
 10
132.6576795333
 20
125.0834178392
 10
132.6172917615
 20
125.0821600146
 10
132.5798689616
 20
125.0807403837
 10
132.5457739821
 20
125.0791727112
 10
132.5153374048
 20
125.0774721969
 10
132.4888543403
 20
125.0756553291
 10
132.4665815662
 20
125.0737397238
 10
132.4487350373
 20
125.0717439545
 10
132.435487792
 20
125.0696873723
 10
132.4269682747
 20
125.0675899173
 10
132.4232590897
 20
125.0654719265
  0
LINE
  5
387
100
AcDbEntity
  8
0
100
AcDbLine
 62
253
  6
CONTINUOUS
 10
132.8895999981
 20
125.0869140827
 11
132.7925959993
 21
125.0861070551
  0
LINE
  5
388
100
AcDbEntity
  8
0
100
AcDbLine
 62
253
  6
CONTINUOUS
 10
175.9313359097
 20
126.2340360125
 11
172.5617703404
 21
126.2240098763
  0
LINE
  5
389
100
AcDbEntity
  8
0
100
AcDbLine
 62
253
  6
CONTINUOUS
 10
153.7313359097
 20
126.2340360125
 11
150.3617703404
 21
126.2240098763
  0
LINE
  5
38A
100
AcDbEntity
  8
0
100
AcDbLine
 62
253
  6
CONTINUOUS
 10
172.5617703404
 20
126.2240098763
 11
169.1897242861
 21
126.2178557106
  0
LINE
  5
38B
100
AcDbEntity
  8
0
100
AcDbLine
 62
253
  6
CONTINUOUS
 10
150.3617703404
 20
126.2240098763
 11
146.9897242861
 21
126.2178557106
  0
LINE
  5
38C
100
AcDbEntity
  8
0
100
AcDbLine
 62
253
  6
CONTINUOUS
 10
169.1897242861
 20
126.2178557106
 11
165.8160671917
 21
126.2155755011
  0
LINE
  5
38D
100
AcDbEntity
  8
0
100
AcDbLine
 62
253
  6
CONTINUOUS
 10
146.9897242861
 20
126.2178557106
 11
143.6160671917
 21
126.2155755011
  0
LINE
  5
38E
100
AcDbEntity
  8
0
100
AcDbLine
 62
7
  6
CONTINUOUS
 10
172.8030285195
 20
126.3449872843
 11
169.4339686272
 21
126.3449872843
  0
LINE
  5
38F
100
AcDbEntity
  8
0
100
AcDbLine
 62
7
  6
CONTINUOUS
 10
161.6030285195
 20
126.3449872843
 11
158.2339686272
 21
126.3449872843
  0
LINE
  5
390
100
AcDbEntity
  8
0
100
AcDbLine
 62
7
  6
CONTINUOUS
 10
150.6030285195
 20
126.3449872843
 11
147.2339686272
 21
126.3449872843
  0
LINE
  5
391
100
AcDbEntity
  8
0
100
AcDbLine
 62
7
  6
CONTINUOUS
 10
139.4030285195
 20
126.3449872843
 11
136.0339686272
 21
126.3449872843
  0
LINE
  5
392
100
AcDbEntity
  8
0
100
AcDbLine
 62
7
  6
CONTINUOUS
 10
176.0522383097
 20
126.4760067325
 11
174.3618742463
 21
126.4760067325
  0
LINE
  5
393
100
AcDbEntity
  8
0
100
AcDbLine
 62
7
  6
CONTINUOUS
 10
167.8751229003
 20
126.4760067325
 11
163.1618742463
 21
126.4760067325
  0
LINE
  5
394
100
AcDbEntity
  8
0
100
AcDbLine
 62
7
  6
CONTINUOUS
 10
156.6751229003
 20
126.4760067325
 11
154.9847588369
 21
126.4760067325
  0
LINE
  5
395
100
AcDbEntity
  8
0
100
AcDbLine
 62
7
  6
CONTINUOUS
 10
153.8522383097
 20
126.4760067325
 11
152.1618742463
 21
126.4760067325
  0
LINE
  5
396
100
AcDbEntity
  8
0
100
AcDbLine
 62
7
  6
CONTINUOUS
 10
145.6751229003
 20
126.4760067325
 11
140.9618742463
 21
126.4760067325
  0
LINE
  5
397
100
AcDbEntity
  8
0
100
AcDbLine
 62
7
  6
CONTINUOUS
 10
134.4751229003
 20
126.4760067325
 11
132.7847588369
 21
126.4760067325
  0
LINE
  5
398
100
AcDbEntity
  8
0
100
AcDbLine
 62
253
  6
CONTINUOUS
 10
143.6160671917
 20
126.2155755011
 11
140.2483395347
 21
126.2171624357
  0
LINE
  5
399
100
AcDbEntity
  8
0
100
AcDbLine
 62
253
  6
CONTINUOUS
 10
165.8160671917
 20
126.2155755011
 11
162.4483395347
 21
126.2171624357
  0
LINE
  5
39A
100
AcDbEntity
  8
0
100
AcDbLine
 62
253
  6
CONTINUOUS
 10
140.2483395347
 20
126.2171624357
 11
136.777325893
 21
126.2228479793
  0
LINE
  5
39B
100
AcDbEntity
  8
0
100
AcDbLine
 62
253
  6
CONTINUOUS
 10
162.4483395347
 20
126.2171624357
 11
158.977325893
 21
126.2228479793
  0
LWPOLYLINE
  5
39C
100
AcDbEntity
  8
0
100
AcDbPolyline
 62
253
  6
CONTINUOUS
 90
3
 70
0
 10
136.777325893
 20
126.2228479793
 10
133.723239652
 20
126.2312751054
 10
132.9056612376
 20
126.2340360113
  0
LWPOLYLINE
  5
39D
100
AcDbEntity
  8
0
100
AcDbPolyline
 62
253
  6
CONTINUOUS
 90
3
 70
0
 10
158.977325893
 20
126.2228479793
 10
155.923239652
 20
126.2312751054
 10
155.1056612376
 20
126.2340360113
  0
LWPOLYLINE
  5
39E
100
AcDbEntity
  8
0
100
AcDbPolyline
 62
253
  6
CONTINUOUS
 90
15
 70
0
 10
175.9473962987
 20
125.0869135361
 10
176.0443993884
 20
125.0861065343
 10
176.0912363367
 20
125.0854004746
 10
176.1363539743
 20
125.08450119
 10
176.179314853
 20
125.0834173998
 10
176.2197024361
 20
125.0821596118
 10
176.2571251368
 20
125.0807400211
 10
176.2912201148
 20
125.0791723918
 10
176.3216567949
 20
125.077471923
 10
176.3481400712
 20
125.0756551022
 10
176.3704131694
 20
125.0737395446
 10
176.3882601357
 20
125.071743823
 10
176.4015079308
 20
125.0696872874
 10
176.4100281077
 20
125.0675898773
 10
176.4137380573
 20
125.0654719286
  0
LWPOLYLINE
  5
39F
100
AcDbEntity
  8
0
100
AcDbPolyline
 62
253
  6
CONTINUOUS
 90
16
 70
0
 10
153.7313359097
 20
126.2340360125
 10
153.7835368797
 20
126.2312340373
 10
153.8351669213
 20
126.2230016402
 10
153.8856613502
 20
126.20942886
 10
153.9344679026
 20
126.1906641438
 10
153.9810527753
 20
126.1669127237
 10
154.0249064637
 20
126.1384343719
 10
154.0655493346
 20
126.1055405597
 10
154.102536872
 20
126.0685910508
 10
154.1354645384
 20
126.0279899665
 10
154.1639722001
 20
125.9841813659
 10
154.1877480651
 20
125.9376443891
 10
154.2065320939
 20
125.8888880168
 10
154.2201188432
 20
125.8384455034
 10
154.2283597131
 20
125.786868545
 10
154.2311645722
 20
125.7347212451
  0
LWPOLYLINE
  5
3A0
100
AcDbEntity
  8
0
100
AcDbPolyline
 62
253
  6
CONTINUOUS
 90
16
 70
0
 10
175.9313359097
 20
126.2340360125
 10
175.9835368797
 20
126.2312340373
 10
176.0351669213
 20
126.2230016402
 10
176.0856613502
 20
126.20942886
 10
176.1344679026
 20
126.1906641438
 10
176.1810527753
 20
126.1669127237
 10
176.2249064637
 20
126.1384343719
 10
176.2655493346
 20
126.1055405597
 10
176.302536872
 20
126.0685910508
 10
176.3354645384
 20
126.0279899665
 10
176.3639722001
 20
125.9841813659
 10
176.3877480651
 20
125.9376443891
 10
176.4065320939
 20
125.8888880168
 10
176.4201188432
 20
125.8384455034
 10
176.4283597131
 20
125.786868545
 10
176.4311645722
 20
125.7347212451
  0
LINE
  5
3A1
100
AcDbEntity
  8
0
100
AcDbLine
 62
7
  6
CONTINUOUS
 10
145.6751229003
 20
126.4760067325
 11
147.0607635464
 21
126.3502280622
  0
LINE
  5
3A2
100
AcDbEntity
  8
0
100
AcDbLine
 62
7
  6
CONTINUOUS
 10
156.6751229003
 20
126.4760067325
 11
158.0607635464
 21
126.3502280622
  0
LINE
  5
3A3
100
AcDbEntity
  8
0
100
AcDbLine
 62
7
  6
CONTINUOUS
 10
167.8751229003
 20
126.4760067325
 11
169.2607635464
 21
126.3502280622
  0
LWPOLYLINE
  5
3A4
100
AcDbEntity
  8
0
100
AcDbPolyline
 62
253
  6
CONTINUOUS
 90
7
 70
0
 10
175.9313359091
 20
82.185257128
 10
175.9323876054
 20
82.1926430652
 10
175.9334811239
 20
82.2059187365
 10
175.9345885855
 20
82.2250155146
 10
175.9356613504
 20
82.2498351649
 10
175.9366934817
 20
82.2802526417
 10
175.9387229087
 20
82.3572574137
  0
LINE
  5
3A5
100
AcDbEntity
  8
0
100
AcDbLine
 62
7
  6
CONTINUOUS
 10
121.1650437925
 20
81.9432864068
 11
116.1954283997
 21
82.2037329135
  0
LWPOLYLINE
  5
3A6
100
AcDbEntity
  8
0
100
AcDbPolyline
 62
253
  6
CONTINUOUS
 90
22
 70
0
 10
116.547967387
 20
82.185257128
 10
116.4637592165
 20
82.1926430652
 10
116.3802961549
 20
82.2059187365
 10
116.2979890066
 20
82.2250155146
 10
116.2172438901
 20
82.2498351649
 10
116.1384560269
 20
82.2802526417
 10
116.0620085365
 20
82.3161186703
 10
115.9882733273
 20
82.3572574137
 10
115.9176167972
 20
82.4034628564
 10
115.8503937207
 20
82.4545024825
 10
115.7869350064
 20
82.5101212369
 10
115.7275495038
 20
82.5700440052
 10
115.6725304433
 20
82.6339738364
 10
115.6221465517
 20
82.7015944319
 10
115.5766438715
 20
82.7725705891
 10
115.5362472011
 20
82.8465500293
 10
115.5011555703
 20
82.9231610652
 10
115.4715355982
 20
83.0020306381
 10
115.4475276517
 20
83.0827865267
 10
115.4292503538
 20
83.1650370196
 10
115.416796084
 20
83.2483714055
 10
115.4102273227
 20
83.3323790704
  0
LINE
  5
3A7
100
AcDbEntity
  8
0
100
AcDbLine
 62
253
  6
CONTINUOUS
 10
115.4102273329
 20
83.3323790566
 11
115.4159316678
 21
83.3326800791
  0
LINE
  5
3A8
100
AcDbEntity
  8
0
100
AcDbLine
 62
253
  6
CONTINUOUS
 10
115.4159316678
 20
83.3326800791
 11
115.6195145093
 21
83.3418209424
  0
LINE
  5
3A9
100
AcDbEntity
  8
0
100
AcDbLine
 62
253
  6
CONTINUOUS
 10
115.6195145093
 20
83.3418209424
 11
115.8955551489
 21
83.3538212128
  0
LINE
  5
3AA
100
AcDbEntity
  8
0
100
AcDbLine
 62
253
  6
CONTINUOUS
 10
115.0598697278
 20
83.3394776194
 11
115.4102273305
 21
83.3323790705
  0
LINE
  5
3AB
100
AcDbEntity
  8
0
100
AcDbLine
 62
253
  6
CONTINUOUS
 10
121.1650437925
 20
82.443286642
 11
116.5610468909
 21
82.6845718954
  0
LWPOLYLINE
  5
3AC
100
AcDbEntity
  8
0
100
AcDbPolyline
 62
253
  6
CONTINUOUS
 90
22
 70
0
 10
116.5610468909
 20
82.6845718954
 10
116.5116399904
 20
82.6889244046
 10
116.4630657539
 20
82.6966181744
 10
116.4153241813
 20
82.7076532049
 10
116.3681651537
 20
82.7221184077
 10
116.3218387901
 20
82.7399248712
 10
116.2770954478
 20
82.7608058602
 10
116.2339804445
 20
82.7848061216
 10
116.1924484624
 20
82.8118809086
 10
116.1531139051
 20
82.8416292458
 10
116.1160094522
 20
82.874092781
 10
116.081102424
 20
82.9092298665
 10
116.0489091855
 20
82.9465145843
 10
116.0194730407
 20
82.9859766124
 10
115.9927506855
 20
83.0275862727
 10
115.9691285726
 20
83.0707286142
 10
115.9486510281
 20
83.1154474622
 10
115.9312737258
 20
83.1616989912
 10
115.9172501394
 20
83.2087367736
 10
115.9066647601
 20
83.256312
 10
115.8994330966
 20
83.3046734798
 10
115.8955551489
 20
83.3538212128
  0
LINE
  5
3AD
100
AcDbEntity
  8
0
100
AcDbLine
 62
7
  6
CONTINUOUS
 10
121.1650437925
 20
91.0096465696
 11
124.1650437925
 21
91.035827173
  0
LWPOLYLINE
  5
3AE
100
AcDbEntity
  8
0
100
AcDbPolyline
 62
253
  6
CONTINUOUS
 90
11
 70
0
 10
116.5479674105
 20
126.2340360125
 10
116.5467473265
 20
126.2312340373
 10
116.5458267887
 20
126.2230016402
 10
116.5452158653
 20
126.20942886
 10
116.5449212379
 20
126.1906641438
 10
116.5449461289
 20
126.1669127237
 10
116.5452902664
 20
126.1384343719
 10
116.5459498867
 20
126.1055405597
 10
116.5469177754
 20
126.0685910508
 10
116.5481833465
 20
126.0279899665
 10
116.5515490647
 20
125.9376443891
  0
LWPOLYLINE
  5
3AF
100
AcDbEntity
  8
0
100
AcDbPolyline
 62
253
  6
CONTINUOUS
 90
9
 70
0
 10
116.547967387
 20
82.185257128
 10
116.546747285
 20
82.1880591732
 10
116.5458267386
 20
82.1962917627
 10
116.5452158149
 20
82.209864833
 10
116.5449211945
 20
82.2286299173
 10
116.5449460987
 20
82.2523817533
 10
116.5452902541
 20
82.2808605136
 10
116.5459498942
 20
82.3137546822
 10
116.5469178024
 20
82.3507044665
  0
LINE
  5
3B0
100
AcDbEntity
  8
0
100
AcDbLine
 62
7
  6
CONTINUOUS
 10
121.1650437925
 20
95.2096465696
 11
124.1650437925
 21
95.1834659663
  0
LWPOLYLINE
  5
3B1
100
AcDbEntity
  8
0
100
AcDbPolyline
 62
7
  6
CONTINUOUS
 90
10
 70
0
 10
115.0598697324
 20
125.079815607
 10
114.9526943497
 20
122.9160465607
 10
114.8536026861
 20
120.6636521757
 10
114.7672070098
 20
118.4107407586
 10
114.6935102337
 20
116.1573838587
 10
114.6325152713
 20
113.9036530427
 10
114.5842250361
 20
111.6496198942
 10
114.548641919
 20
109.395355995
 10
114.525766305
 20
107.1409329755
 10
114.5157373923
 20
104.9642730505
  0
LWPOLYLINE
  5
3B2
100
AcDbEntity
  8
0
100
AcDbPolyline
 62
253
  6
CONTINUOUS
 90
22
 70
0
 10
115.4102273477
 20
125.0869140503
 10
115.4167961093
 20
125.1709217297
 10
115.4292503807
 20
125.2542561259
 10
115.4475276805
 20
125.3365066248
 10
115.4715356278
 20
125.4172625139
 10
115.5011555994
 20
125.4961320836
 10
115.5362472295
 20
125.5727431166
 10
115.5766438996
 20
125.6467225558
 10
115.6221465797
 20
125.7176987124
 10
115.6725304711
 20
125.7853193073
 10
115.7275495311
 20
125.8492491376
 10
115.786935033
 20
125.9091719052
 10
115.8503937466
 20
125.9647906588
 10
115.9176168224
 20
126.0158302844
 10
115.9882733517
 20
126.0620357267
 10
116.0620085598
 20
126.1031744697
 10
116.1384560483
 20
126.1390404976
 10
116.2172439093
 20
126.169457974
 10
116.2979890247
 20
126.1942776244
 10
116.3802961735
 20
126.213374403
 10
116.463759237
 20
126.226650075
 10
116.5479674105
 20
126.2340360125
  0
LWPOLYLINE
  5
3B3
100
AcDbEntity
  8
0
100
AcDbPolyline
 62
253
  6
CONTINUOUS
 90
22
 70
0
 10
115.895555162
 20
125.0654719286
 10
115.8994331152
 20
125.1146196616
 10
115.906664783
 20
125.1629811413
 10
115.9172501652
 20
125.2105563677
 10
115.9312737527
 20
125.25759415
 10
115.9486510546
 20
125.3038456791
 10
115.9691285987
 20
125.3485645271
 10
115.9927507117
 20
125.3917068686
 10
116.0194730667
 20
125.4333165291
 10
116.0489092115
 20
125.4727785571
 10
116.0811024499
 20
125.5100632749
 10
116.116009478
 20
125.5452003603
 10
116.1531139308
 20
125.5776638954
 10
116.192448488
 20
125.6074122325
 10
116.2339804699
 20
125.6344870193
 10
116.277095473
 20
125.6584872806
 10
116.3218388151
 20
125.6793682696
 10
116.3681651784
 20
125.6971747331
 10
116.4153242057
 20
125.7116399359
 10
116.4630657779
 20
125.7226749663
 10
116.5116400142
 20
125.7303687361
 10
116.5610469144
 20
125.7347212451
  0
LWPOLYLINE
  5
3B4
100
AcDbEntity
  8
0
100
AcDbPolyline
 62
253
  6
CONTINUOUS
 90
16
 70
0
 10
114.9617088136
 20
104.9602236545
 10
114.9644719948
 20
104.9072348613
 10
114.9725172925
 20
104.8559840857
 10
114.9856272936
 20
104.8063536763
 10
115.0039130527
 20
104.7580217557
 10
115.0273963378
 20
104.7113091172
 10
115.0555527487
 20
104.6673377347
 10
115.0879304551
 20
104.6267967296
 10
115.1244632648
 20
104.5897599086
 10
115.1646992134
 20
104.5566614466
 10
115.2080485439
 20
104.5280194213
 10
115.2540981042
 20
104.5040976119
 10
115.3024769299
 20
104.4850588441
 10
115.35263795
 20
104.4711604397
 10
115.4038728037
 20
104.4626147389
 10
115.455521235
 20
104.4594728182
  0
LWPOLYLINE
  5
3B5
100
AcDbEntity
  8
0
100
AcDbPolyline
 62
253
  6
CONTINUOUS
 90
10
 70
0
 10
115.4102273305
 20
83.3323790705
 10
115.3161908945
 20
85.6457223948
 10
115.2344710036
 20
87.9210419534
 10
115.1645301759
 20
90.1582679615
 10
115.106455771
 20
92.3321332108
 10
115.0588887072
 20
94.4677760451
 10
115.0201384248
 20
96.6407650917
 10
114.9904278031
 20
98.8762742807
 10
114.9707772976
 20
101.1490576038
 10
114.9617088933
 20
103.4590694757
  0
LWPOLYLINE
  5
3B6
100
AcDbEntity
  8
0
100
AcDbPolyline
 62
253
  6
CONTINUOUS
 90
10
 70
0
 10
115.8955551489
 20
83.3538212128
 10
115.8023608025
 20
85.6648814324
 10
115.7204249842
 20
87.9378292448
 10
115.6497476939
 20
90.1726646499
 10
115.590896225
 20
92.3442571726
 10
115.5433032842
 20
94.4777372881
 10
115.5052669917
 20
96.648496422
 10
115.4762200544
 20
98.8816650497
 10
115.4567297656
 20
101.1521126958
 10
115.4461789063
 20
103.5627492747
  0
LWPOLYLINE
  5
3B7
100
AcDbEntity
  8
0
100
AcDbPolyline
 62
253
  6
CONTINUOUS
 90
9
 70
0
 10
115.447228964
 20
104.6256653898
 10
115.4478733629
 20
104.5885321731
 10
115.4486499731
 20
104.5554663803
 10
115.4495505261
 20
104.5268304703
 10
115.4505650856
 20
104.5029493843
 10
115.4516822555
 20
104.4840944229
 10
115.452889624
 20
104.4704741994
 10
115.4541739966
 20
104.4622367594
 10
115.4555212351
 20
104.4594728182
  0
LINE
  5
3B8
100
AcDbEntity
  8
0
100
AcDbLine
 62
253
  6
CONTINUOUS
 10
115.4463625907
 20
104.710537559
 11
115.447228964
 21
104.6256653898
  0
LWPOLYLINE
  5
3B9
100
AcDbEntity
  8
0
100
AcDbPolyline
 62
7
  6
CONTINUOUS
 90
10
 70
0
 10
114.5157373923
 20
103.4550200888
 10
114.525766305
 20
101.2783601638
 10
114.548641919
 20
99.0239371443
 10
114.5842250361
 20
96.7696732451
 10
114.6325152713
 20
94.5156400966
 10
114.6935102337
 20
92.2619092806
 10
114.7672070098
 20
90.0085523807
 10
114.8536026861
 20
87.7556409636
 10
114.9526943497
 20
85.5032465786
 10
115.0598697324
 20
83.3394775323
  0
LINE
  5
3BA
100
AcDbEntity
  8
0
100
AcDbLine
 62
253
  6
CONTINUOUS
 10
115.4460895461
 20
104.8062222507
 11
115.4463625907
 21
104.710537559
  0
LINE
  5
3BB
100
AcDbEntity
  8
0
100
AcDbLine
 62
253
  6
CONTINUOUS
 10
115.4461789063
 20
103.5627492747
 11
115.4461505643
 21
103.6619430246
  0
LWPOLYLINE
  5
3BC
100
AcDbEntity
  8
0
100
AcDbPolyline
 62
253
  6
CONTINUOUS
 90
10
 70
0
 10
114.9617088923
 20
104.9602236581
 10
114.9692945789
 20
107.0253909695
 10
114.9859766369
 20
109.1212783961
 10
115.0121532338
 20
111.2478434426
 10
115.0479202704
 20
113.3887950723
 10
115.0938482511
 20
115.5603316448
 10
115.1517117369
 20
117.8111252451
 10
115.2231470497
 20
120.1573376768
 10
115.308923182
 20
122.5826350453
 10
115.4102273298
 20
125.0869140512
  0
LINE
  5
3BD
100
AcDbEntity
  8
0
100
AcDbLine
 62
253
  6
CONTINUOUS
 10
115.453715888
 20
107.0226093164
 11
115.4460895461
 21
104.8062222507
  0
LWPOLYLINE
  5
3BE
100
AcDbEntity
  8
0
100
AcDbPolyline
 62
253
  6
CONTINUOUS
 90
9
 70
0
 10
115.453715888
 20
107.0226093164
 10
115.4705428458
 20
109.11635081
 10
115.4972769017
 20
111.2406782605
 10
115.5328134309
 20
113.3794241171
 10
115.5782570582
 20
115.5487559307
 10
115.6369216576
 20
117.7971763534
 10
115.7099118536
 20
120.140852936
 10
115.7961230218
 20
122.5636181277
 10
115.895555162
 20
125.0654719286
  0
LWPOLYLINE
  5
3BF
100
AcDbEntity
  8
0
100
AcDbPolyline
 62
253
  6
CONTINUOUS
 90
11
 70
0
 10
115.4461505643
 20
103.6619430246
 10
115.4467237349
 20
103.7528276121
 10
115.4472290599
 20
103.7936276655
 10
115.4478734587
 20
103.8307609028
 10
115.448650069
 20
103.8638267133
 10
115.449550622
 20
103.892462636
 10
115.4505651816
 20
103.9163437325
 10
115.4516823516
 20
103.935198703
 10
115.4528897202
 20
103.948818934
 10
115.4541740929
 20
103.957056379
 10
115.4555213315
 20
103.959820322
  0
LWPOLYLINE
  5
3C0
100
AcDbEntity
  8
0
100
AcDbPolyline
 62
253
  6
CONTINUOUS
 90
16
 70
0
 10
114.9617089108
 20
103.4590694735
 10
114.9644718691
 20
103.5120562697
 10
114.9725166037
 20
103.5633053714
 10
114.9856257839
 20
103.612934449
 10
115.0039105114
 20
103.6612653634
 10
115.027392627
 20
103.7079773427
 10
115.055547899
 20
103.7519485077
 10
115.0879246758
 20
103.7924897862
 10
115.1244568422
 20
103.8295272716
 10
115.1646924944
 20
103.8626266619
 10
115.2080419838
 20
103.8912698031
 10
115.2540921952
 20
103.915192793
 10
115.3024720513
 20
103.9342326333
 10
115.3526344178
 20
103.9481318986
 10
115.4038709472
 20
103.9566781801
 10
115.4555213315
 20
103.959820322
  0
LINE
  5
3C1
100
AcDbEntity
  8
0
100
AcDbLine
 62
7
  6
CONTINUOUS
 10
121.1650437925
 20
100.0096465696
 11
118.8650437925
 21
100.0096465696
  0
LINE
  5
3C2
100
AcDbEntity
  8
0
100
AcDbLine
 62
253
  6
CONTINUOUS
 10
116.5559001991
 20
125.8384455034
 11
116.5610469144
 21
125.7347212451
  0
LINE
  5
3C3
100
AcDbEntity
  8
0
100
AcDbLine
 62
253
  6
CONTINUOUS
 10
116.5515490647
 20
125.9376443891
 11
116.5559001991
 21
125.8384455034
  0
LINE
  5
3C4
100
AcDbEntity
  8
0
100
AcDbLine
 62
253
  6
CONTINUOUS
 10
116.5469178024
 20
82.3507044665
 11
116.5497328128
 21
82.435114293
  0
LINE
  5
3C5
100
AcDbEntity
  8
0
100
AcDbLine
 62
253
  6
CONTINUOUS
 10
116.5497328128
 20
82.435114293
 11
116.5536124534
 21
82.5304071149
  0
LWPOLYLINE
  5
3C6
100
AcDbEntity
  8
0
100
AcDbPolyline
 62
253
  6
CONTINUOUS
 90
3
 70
0
 10
116.5536124534
 20
82.5304071149
 10
116.5583874506
 20
82.6324254071
 10
116.5610468909
 20
82.6845718954
  0
LINE
  5
3C7
100
AcDbEntity
  8
0
100
AcDbLine
 62
7
  6
CONTINUOUS
 10
118.8650437925
 20
103.9895747737
 11
118.8650437925
 21
100.0096465696
  0
LINE
  5
3C8
100
AcDbEntity
  8
0
100
AcDbLine
 62
7
  6
CONTINUOUS
 10
118.8650437925
 20
104.4297183656
 11
118.8650437925
 21
108.4096465696
  0
LINE
  5
3C9
100
AcDbEntity
  8
0
100
AcDbLine
 62
253
  6
CONTINUOUS
 10
114.9617088933
 20
103.4590694757
 11
114.5157373923
 21
103.4550200938
  0
LINE
  5
3CA
100
AcDbEntity
  8
0
100
AcDbLine
 62
253
  6
CONTINUOUS
 10
118.8650437925
 20
103.4896699559
 11
115.4467961251
 21
103.4598393604
  0
LINE
  5
3CB
100
AcDbEntity
  8
0
100
AcDbLine
 62
7
  6
CONTINUOUS
 10
118.8650437925
 20
103.9895747737
 11
115.0113682333
 21
103.9559442566
  0
LINE
  5
3CC
100
AcDbEntity
  8
0
100
AcDbLine
 62
253
  6
CONTINUOUS
 10
115.4467961263
 20
103.4598393605
 11
114.9617089108
 21
103.4590694735
  0
LINE
  5
3CD
100
AcDbEntity
  8
0
100
AcDbLine
 62
7
  6
CONTINUOUS
 10
115.0113682333
 20
104.4633488827
 11
118.8650437925
 21
104.4297183656
  0
LINE
  5
3CE
100
AcDbEntity
  8
0
100
AcDbLine
 62
7
  6
CONTINUOUS
 10
121.1650437925
 20
126.4760067325
 11
121.1650437925
 21
108.4096465696
  0
LINE
  5
3CF
100
AcDbEntity
  8
0
100
AcDbLine
 62
7
  6
CONTINUOUS
 10
121.1650437925
 20
81.9432864068
 11
121.1650437925
 21
100.0096465696
  0
LINE
  5
3D0
100
AcDbEntity
  8
0
100
AcDbLine
 62
253
  6
CONTINUOUS
 10
114.9617088136
 20
104.9602236545
 11
115.4467960299
 21
104.9594537797
  0
LINE
  5
3D1
100
AcDbEntity
  8
0
100
AcDbLine
 62
253
  6
CONTINUOUS
 10
115.4467960283
 20
104.9594537797
 11
118.8650437925
 21
104.9296231834
  0
LINE
  5
3D2
100
AcDbEntity
  8
0
100
AcDbLine
 62
253
  6
CONTINUOUS
 10
114.5157373923
 20
104.9642730455
 11
114.9617088923
 21
104.9602236581
  0
LINE
  5
3D3
100
AcDbEntity
  8
0
100
AcDbLine
 62
253
  6
CONTINUOUS
 10
123.5964453663
 20
117.3884280496
 11
123.5964453663
 21
113.2308650897
  0
LINE
  5
3D4
100
AcDbEntity
  8
0
100
AcDbLine
 62
253
  6
CONTINUOUS
 10
123.5964453663
 20
95.1884280496
 11
123.5964453663
 21
91.0308650897
  0
LINE
  5
3D5
100
AcDbEntity
  8
0
100
AcDbLine
 62
7
  6
CONTINUOUS
 10
124.1650437925
 20
117.3834659663
 11
124.1650437925
 21
113.235827173
  0
LINE
  5
3D6
100
AcDbEntity
  8
0
100
AcDbLine
 62
7
  6
CONTINUOUS
 10
124.1650437925
 20
95.1834659663
 11
124.1650437925
 21
91.035827173
  0
LINE
  5
3D7
100
AcDbEntity
  8
0
100
AcDbLine
 62
7
  6
CONTINUOUS
 10
121.1650437925
 20
108.4096465696
 11
118.8650437925
 21
108.4096465696
  0
LINE
  5
3D8
100
AcDbEntity
  8
0
100
AcDbLine
 62
7
  6
CONTINUOUS
 10
121.1650437925
 20
113.2096465696
 11
124.1650437925
 21
113.235827173
  0
LINE
  5
3D9
100
AcDbEntity
  8
0
100
AcDbLine
 62
7
  6
CONTINUOUS
 10
121.1650437925
 20
117.4096465696
 11
124.1650437925
 21
117.3834659663
  0
LWPOLYLINE
  5
3DA
100
AcDbEntity
  8
0
100
AcDbPolyline
 62
253
  6
CONTINUOUS
 90
4
 70
0
 10
115.4102401013
 20
125.0869135361
 10
115.4159441788
 20
125.0866125235
 10
115.4264254164
 20
125.0861065343
 10
115.895555162
 20
125.0654719286
  0
LINE
  5
3DB
100
AcDbEntity
  8
0
100
AcDbLine
 62
253
  6
CONTINUOUS
 10
116.5610469144
 20
125.7347212451
 11
121.1650437925
 21
125.9760064973
  0
LINE
  5
3DC
100
AcDbEntity
  8
0
100
AcDbLine
 62
7
  6
CONTINUOUS
 10
116.1954283997
 20
126.2155602258
 11
121.1650437925
 21
126.4760067325
  0
LINE
  5
3DD
100
AcDbEntity
  8
0
100
AcDbLine
 62
253
  6
CONTINUOUS
 10
115.4102273298
 20
125.0869140512
 11
115.0598697278
 21
125.0798155199
  0
ARC
  5
3DE
100
AcDbEntity
  8
0
100
AcDbCircle
 62
7
  6
CONTINUOUS
 10
116.2582353392
 20
125.0172049829
 40
1.2
100
AcDbArc
 50
93.0
 51
177.0092051173
  0
ARC
  5
3DF
100
AcDbEntity
  8
0
100
AcDbCircle
 62
7
  6
CONTINUOUS
 10
116.2582353392
 20
83.4020881564
 40
1.2
100
AcDbArc
 50
182.9907948827
 51
267.0
  0
ARC
  5
3E0
100
AcDbEntity
  8
0
100
AcDbCircle
 62
7
  6
CONTINUOUS
 10
115.015741268
 20
104.963329759
 40
0.5
100
AcDbArc
 50
179.8919077204
 51
269.5
  0
ARC
  5
3E1
100
AcDbEntity
  8
0
100
AcDbCircle
 62
7
  6
CONTINUOUS
 10
115.015741268
 20
103.4559633803
 40
0.5
100
AcDbArc
 50
90.5
 51
180.1080922796
  0
ELLIPSE
  5
3E2
100
AcDbEntity
  8
0
100
AcDbEllipse
 62
7
  6
CONTINUOUS
 10
172.8030285195
 20
82.0638242992
 30
0.0
 11
0.2
 21
0.0
 31
0.0
 40
0.0524077793
 41
0.5235987756
 42
1.5707963268
  0
ELLIPSE
  5
3E3
100
AcDbEntity
  8
0
100
AcDbEllipse
 62
7
  6
CONTINUOUS
 10
169.4339686272
 20
82.0638242992
 30
0.0
 11
0.2
 21
-0.0
 31
0.0
 40
0.0524077793
 41
1.5707963268
 42
2.617993878
  0
ELLIPSE
  5
3E4
100
AcDbEntity
  8
0
100
AcDbEllipse
 62
7
  6
CONTINUOUS
 10
158.2339686272
 20
82.0638242992
 30
0.0
 11
0.2
 21
-0.0
 31
0.0
 40
0.0524077793
 41
1.5707963268
 42
2.617993878
  0
ELLIPSE
  5
3E5
100
AcDbEntity
  8
0
100
AcDbEllipse
 62
7
  6
CONTINUOUS
 10
161.6030285195
 20
82.0638242992
 30
0.0
 11
0.2
 21
0.0
 31
0.0
 40
0.0524077793
 41
0.5235987756
 42
1.5707963268
  0
ELLIPSE
  5
3E6
100
AcDbEntity
  8
0
100
AcDbEllipse
 62
7
  6
CONTINUOUS
 10
154.9854440696
 20
82.4439725798
 30
0.0
 11
0.2238673116
 21
0.4480418466
 31
0.0
 40
0.9982882662
 41
-4.2483303396
 42
-2.6789040089
  0
ELLIPSE
  5
3E7
100
AcDbEntity
  8
0
100
AcDbEllipse
 62
7
  6
CONTINUOUS
 10
176.0515530771
 20
82.4439725798
 30
0.0
 11
-0.2238673116
 21
0.4480418466
 31
0.0
 40
0.9982882662
 41
-3.6042812983
 42
-2.0348549675
  0
ELLIPSE
  5
3E8
100
AcDbEntity
  8
0
100
AcDbEllipse
 62
7
  6
CONTINUOUS
 10
155.0456716892
 20
103.4895557345
 30
0.0
 11
0.4745319423
 21
-0.1581451893
 31
0.0
 40
0.9996192872
 41
1.8926001863
 42
3.463168079
  0
ELLIPSE
  5
3E9
100
AcDbEntity
  8
0
100
AcDbEllipse
 62
7
  6
CONTINUOUS
 10
175.9913254575
 20
103.4895557345
 30
0.0
 11
0.4745319423
 21
0.1581451893
 31
0.0
 40
0.9996192872
 41
-0.3215754254
 42
1.2489924673
  0
ELLIPSE
  5
3EA
100
AcDbEntity
  8
0
100
AcDbEllipse
 62
7
  6
CONTINUOUS
 10
136.0339686272
 20
126.3554688401
 30
0.0
 11
0.2
 21
-0.0
 31
0.0
 40
0.0524077793
 41
-2.617993878
 42
-1.5707963268
  0
ELLIPSE
  5
3EB
100
AcDbEntity
  8
0
100
AcDbEllipse
 62
7
  6
CONTINUOUS
 10
139.4030285195
 20
126.3554688401
 30
0.0
 11
0.2
 21
-0.0
 31
0.0
 40
0.0524077793
 41
-1.5707963268
 42
-0.5235987756
  0
ELLIPSE
  5
3EC
100
AcDbEntity
  8
0
100
AcDbEllipse
 62
7
  6
CONTINUOUS
 10
150.6030285195
 20
126.3554688401
 30
0.0
 11
0.2
 21
-0.0
 31
0.0
 40
0.0524077793
 41
-1.5707963268
 42
-0.5235987756
  0
ELLIPSE
  5
3ED
100
AcDbEntity
  8
0
100
AcDbEllipse
 62
7
  6
CONTINUOUS
 10
147.2339686272
 20
126.3554688401
 30
0.0
 11
0.2
 21
0.0
 31
0.0
 40
0.0524077793
 41
-2.617993878
 42
-1.5707963268
  0
ELLIPSE
  5
3EE
100
AcDbEntity
  8
0
100
AcDbEllipse
 62
7
  6
CONTINUOUS
 10
153.8515530771
 20
125.9753205595
 30
0.0
 11
0.2238673116
 21
0.4480418466
 31
0.0
 40
0.9982882662
 41
-1.1067376861
 42
0.4626886447
  0
ELLIPSE
  5
3EF
100
AcDbEntity
  8
0
100
AcDbEllipse
 62
7
  6
CONTINUOUS
 10
132.7854440696
 20
125.9753205595
 30
0.0
 11
-0.2238673116
 21
0.4480418466
 31
0.0
 40
0.9982882662
 41
-0.4626886447
 42
1.1067376861
  0
ELLIPSE
  5
3F0
100
AcDbEntity
  8
0
100
AcDbEllipse
 62
7
  6
CONTINUOUS
 10
153.7913254575
 20
104.9297374048
 30
0.0
 11
0.4745319423
 21
-0.1581451893
 31
0.0
 40
0.9996192872
 41
-1.2489924673
 42
0.3215754254
  0
ELLIPSE
  5
3F1
100
AcDbEntity
  8
0
100
AcDbEllipse
 62
7
  6
CONTINUOUS
 10
132.8456716892
 20
104.9297374048
 30
0.0
 11
0.4745319423
 21
0.1581451893
 31
0.0
 40
0.9996192872
 41
2.8200172282
 42
4.3905851209
  0
ELLIPSE
  5
3F2
100
AcDbEntity
  8
0
100
AcDbEllipse
 62
7
  6
CONTINUOUS
 10
158.2339686272
 20
126.3554688401
 30
0.0
 11
0.2
 21
-0.0
 31
0.0
 40
0.0524077793
 41
-2.617993878
 42
-1.5707963268
  0
ELLIPSE
  5
3F3
100
AcDbEntity
  8
0
100
AcDbEllipse
 62
7
  6
CONTINUOUS
 10
161.6030285195
 20
126.3554688401
 30
0.0
 11
0.2
 21
0.0
 31
0.0
 40
0.0524077793
 41
-1.5707963268
 42
-0.5235987756
  0
ELLIPSE
  5
3F4
100
AcDbEntity
  8
0
100
AcDbEllipse
 62
7
  6
CONTINUOUS
 10
172.8030285195
 20
126.3554688401
 30
0.0
 11
0.2
 21
0.0
 31
0.0
 40
0.0524077793
 41
-1.5707963268
 42
-0.5235987756
  0
ELLIPSE
  5
3F5
100
AcDbEntity
  8
0
100
AcDbEllipse
 62
7
  6
CONTINUOUS
 10
169.4339686272
 20
126.3554688401
 30
0.0
 11
0.2
 21
0.0
 31
0.0
 40
0.0524077793
 41
-2.617993878
 42
-1.5707963268
  0
ELLIPSE
  5
3F6
100
AcDbEntity
  8
0
100
AcDbEllipse
 62
7
  6
CONTINUOUS
 10
176.0515530771
 20
125.9753205595
 30
0.0
 11
0.2238673116
 21
0.4480418466
 31
0.0
 40
0.9982882662
 41
-1.1067376861
 42
0.4626886447
  0
ELLIPSE
  5
3F7
100
AcDbEntity
  8
0
100
AcDbEllipse
 62
7
  6
CONTINUOUS
 10
154.9854440696
 20
125.9753205595
 30
0.0
 11
-0.2238673116
 21
0.4480418466
 31
0.0
 40
0.9982882662
 41
-0.4626886447
 42
1.1067376861
  0
ELLIPSE
  5
3F8
100
AcDbEntity
  8
0
100
AcDbEllipse
 62
7
  6
CONTINUOUS
 10
175.9913254575
 20
104.9297374048
 30
0.0
 11
0.4745319423
 21
-0.1581451893
 31
0.0
 40
0.9996192872
 41
-1.2489924673
 42
0.3215754254
  0
ELLIPSE
  5
3F9
100
AcDbEntity
  8
0
100
AcDbEllipse
 62
7
  6
CONTINUOUS
 10
155.0456716892
 20
104.9297374048
 30
0.0
 11
0.4745319423
 21
0.1581451893
 31
0.0
 40
0.9996192872
 41
2.8200172282
 42
4.3905851209
  0
ELLIPSE
  5
3FA
100
AcDbEntity
  8
0
100
AcDbEllipse
 62
7
  6
CONTINUOUS
 10
150.6030285195
 20
82.0638242992
 30
0.0
 11
0.2
 21
-0.0
 31
0.0
 40
0.0524077793
 41
0.5235987756
 42
1.5707963268
  0
ELLIPSE
  5
3FB
100
AcDbEntity
  8
0
100
AcDbEllipse
 62
7
  6
CONTINUOUS
 10
147.2339686272
 20
82.0638242992
 30
0.0
 11
0.2
 21
0.0
 31
0.0
 40
0.0524077793
 41
1.5707963268
 42
2.617993878
  0
ELLIPSE
  5
3FC
100
AcDbEntity
  8
0
100
AcDbEllipse
 62
7
  6
CONTINUOUS
 10
136.0339686272
 20
82.0638242992
 30
0.0
 11
0.2
 21
-0.0
 31
0.0
 40
0.0524077793
 41
1.5707963268
 42
2.617993878
  0
ELLIPSE
  5
3FD
100
AcDbEntity
  8
0
100
AcDbEllipse
 62
7
  6
CONTINUOUS
 10
139.4030285195
 20
82.0638242992
 30
0.0
 11
0.2
 21
0.0
 31
0.0
 40
0.0524077793
 41
0.5235987756
 42
1.5707963268
  0
ELLIPSE
  5
3FE
100
AcDbEntity
  8
0
100
AcDbEllipse
 62
7
  6
CONTINUOUS
 10
132.7854440696
 20
82.4439725798
 30
0.0
 11
0.2238673116
 21
0.4480418466
 31
0.0
 40
0.9982882662
 41
-4.2483303396
 42
-2.6789040089
  0
ELLIPSE
  5
3FF
100
AcDbEntity
  8
0
100
AcDbEllipse
 62
7
  6
CONTINUOUS
 10
153.8515530771
 20
82.4439725798
 30
0.0
 11
-0.2238673116
 21
0.4480418466
 31
0.0
 40
0.9982882662
 41
-3.6042812983
 42
-2.0348549675
  0
ELLIPSE
  5
400
100
AcDbEntity
  8
0
100
AcDbEllipse
 62
7
  6
CONTINUOUS
 10
132.8456716892
 20
103.4895557345
 30
0.0
 11
0.4745319423
 21
-0.1581451893
 31
0.0
 40
0.9996192872
 41
1.8926001863
 42
3.463168079
  0
ELLIPSE
  5
401
100
AcDbEntity
  8
0
100
AcDbEllipse
 62
7
  6
CONTINUOUS
 10
153.7913254575
 20
103.4895557345
 30
0.0
 11
0.4745319423
 21
0.1581451893
 31
0.0
 40
0.9996192872
 41
-0.3215754254
 42
1.2489924673
  0
ENDSEC
  0
SECTION
  2
OBJECTS
  0
DICTIONARY
  5
C
100
AcDbDictionary
280
0
281
1
  3
ACAD_GROUP
350
D
  3
ACAD_MLINESTYLE
350
17
  3
ACAD_LAYOUT
350
1A
  3
ACAD_PLOTSETTINGS
350
19
  3
ACAD_PLOTSTYLENAME
350
E
  0
DICTIONARY
  5
D
102
{ACAD_REACTORS
330
C
102
}
100
AcDbDictionary
280
0
281
1
  0
ACDBDICTIONARYWDFLT
  5
E
102
{ACAD_REACTORS
330
C
102
}
100
AcDbDictionary
281
1
  3
Normal
350
F
100
AcDbDictionaryWithDefault
340
F
  0
DICTIONARY
  5
17
102
{ACAD_REACTORS
330
C
102
}
100
AcDbDictionary
280
0
281
1
  3
Standard
350
18
  0
DICTIONARY
  5
19
102
{ACAD_REACTORS
330
C
102
}
100
AcDbDictionary
281
1
  0
DICTIONARY
  5
1A
102
{ACAD_REACTORS
330
C
102
}
100
AcDbDictionary
281
1
  3
Model
350
402
  3
Layout1
350
403
  0
ACDBPLACEHOLDER
  5
F
102
{ACAD_REACTORS
330
E
102
}
  0
MLINESTYLE
  5
18
102
{ACAD_REACTORS
330
17
102
}
100
AcDbMlineStyle
  2
STANDARD
 70
0
  3

 62
256
 51
90.0
 52
90.0
 71
2
 49
0.5
 62
256
  6
BYLAYER
 49
-0.5
 62
256
  6
BYLAYER
  0
LAYOUT
  5
402
102
{ACAD_REACTORS
330
1A
102
}
100
AcDbPlotSettings
  1

  2
none_device
  4
ISO_A4_(297.00_x_210.00_MM)
  6

 40
0.0
 41
0.0
 42
0.0
 43
0.0
 44
297.0
 45
210.0
 46
0.0
 47
0.0
 48
0.0
 49
0.0
140
0.0
141
0.0
142
1.0
143
1.0
 70
1024
 72
1
 73
0
 74
0
  7

 75
0
147
1.0
148
0.0
149
0.0
100
AcDbLayout
  1
Model
 70
0
 71
0
 10
0.0
 20
0.0
 11
297.0
 21
210.0
 12
0.0
 22
0.0
 32
0.0
 14
0.0
 24
0.0
 34
0.0
 15
0.0
 25
0.0
 35
0.0
146
0.0
 13
0.0
 23
0.0
 33
0.0
 16
1.0
 26
0.0
 36
0.0
 17
0.0
 27
1.0
 37
0.0
 76
0
330
21D
345
0
346
0
  0
LAYOUT
  5
403
102
{ACAD_REACTORS
330
1A
102
}
100
AcDbPlotSettings
  1

  2
none_device
  4
ISO_A4_(297.00_x_210.00_MM)
  6

 40
0.0
 41
0.0
 42
0.0
 43
0.0
 44
297.0
 45
210.0
 46
0.0
 47
0.0
 48
0.0
 49
0.0
140
0.0
141
0.0
142
1.0
143
1.0
 70
0
 72
1
 73
0
 74
0
  7

 75
0
147
1.0
148
0.0
149
0.0
100
AcDbLayout
  1
Layout1
 70
0
 71
1
 10
0.0
 20
0.0
 11
297.0
 21
210.0
 12
0.0
 22
0.0
 32
0.0
 14
0.0
 24
0.0
 34
0.0
 15
0.0
 25
0.0
 35
0.0
146
0.0
 13
0.0
 23
0.0
 33
0.0
 16
1.0
 26
0.0
 36
0.0
 17
0.0
 27
1.0
 37
0.0
 76
0
330
21E
345
0
346
0
  0
ENDSEC
  0
EOF
