  0
SECTION
  2
HEADER
  9
$ACADVER
  1
AC1015
  9
$DWGCODEPAGE
  3
ANSI_1252
  9
$EXTMAX
 10
297.0
 20
210.0
 30
0.0
  9
$EXTMIN
 10
0.0
 20
0.0
 30
0.0
  9
$LIMMIN
 10
0.0
 20
0.0
  9
$LIMMAX
 10
297.0
 20
210.0
  9
$VIEWCTR
 10
148.5
 20
105.0
  9
$VIEWSIZE
 40
210.0
  9
$CLAYER
  8
0
  9
$LTSCALE
 40
16.335
  9
$CELTYPE
  6
BYLAYER
  9
$DIMSCALE
 40
1.0
  9
$DIMASZ
 40
3.0
  9
$DIMEXO
 40
0.5
  9
$DIMDLI
 40
11.286
  9
$DIMEXE
 40
1.5
  9
$DIMCEN
 40
2.673
  9
$DIMLFAC
 40
1.0
  9
$DIMBLK
  1
_FILLED
  9
$DIMTXT
 40
3.0
  9
$DIMTOL
 70
1
  9
$DIMLIM
 70
0
  9
$DIMTFAC
 40
1.0
  9
$DIMTP
 40
0.01
  9
$DIMTM
 40
0.01
  9
$DIMGAP
 40
0.625
  9
$DIMDSEP
 70
44
  9
$PDMODE
 70
3
  9
$PDSIZE
 40
3.0
  9
$HANDSEED
  5
35E
  9
$TILEMODE
 70
1
  9
$MEASUREMENT
 70
1
  9
$INSUNITS
 70
4
  0
ENDSEC
  0
SECTION
  2
CLASSES
  0
CLASS
  1
ACDBDICTIONARYWDFLT
  2
AcDbDictionaryWithDefault
  3
AutoCAD 2000
 90
0
280
0
281
0
  0
CLASS
  1
ACDBPLACEHOLDER
  2
AcDbPlaceHolder
  3
AutoCAD 2000
 90
0
280
0
281
0
  0
CLASS
  1
LAYOUT
  2
AcDbLayout
  3
AutoCAD 2000
 90
0
280
0
281
0
  0
ENDSEC
  0
SECTION
  2
TABLES
  0
TABLE
  2
VPORT
  5
8
100
AcDbSymbolTable
 70
2
  0
VPORT
  5
1F4
100
AcDbSymbolTableRecord
100
AcDbViewportTableRecord
  2
*ACTIVE
 70
0
 10
0.0
 20
0.0
 11
1.0
 21
1.0
 12
148.5
 22
105.0
 13
0.0
 23
0.0
 14
1.0
 24
1.0
 15
0.0
 25
0.0
 16
0.0
 26
0.0
 36
1.0
 17
0.0
 27
0.0
 37
0.0
 40
210.0
 41
1.4142857143
 42
50.0
 43
0.0
 44
0.0
 50
0.0
 51
0.0
 71
0
 72
100
 73
1
 74
1
 75
0
 76
0
 77
0
 78
0
  0
ENDTAB
  0
TABLE
  2
LTYPE
  5
5
100
AcDbSymbolTable
 70
6
  0
LTYPE
  5
14
100
AcDbSymbolTableRecord
100
AcDbLinetypeTableRecord
  2
BYBLOCK
 70
0
  3

 72
65
 73
0
 40
0.0
  0
LTYPE
  5
15
100
AcDbSymbolTableRecord
100
AcDbLinetypeTableRecord
  2
BYLAYER
 70
0
  3

 72
65
 73
0
 40
0.0
  0
LTYPE
  5
16
100
AcDbSymbolTableRecord
100
AcDbLinetypeTableRecord
  2
CONTINUOUS
 70
64
  3
Solid line
 72
65
 73
0
 40
0.0
  0
LTYPE
  5
1F5
100
AcDbSymbolTableRecord
100
AcDbLinetypeTableRecord
  2
CENTER
 70
64
  3
____ _ ____ _ ____ _ ____ _ ____ _ ____ _ ____
 72
65
 73
4
 40
0.6
 49
0.375
 74
0
 49
-0.075
 74
0
 49
0.075
 74
0
 49
-0.075
 74
0
  0
LTYPE
  5
1F6
100
AcDbSymbolTableRecord
100
AcDbLinetypeTableRecord
  2
HIDDEN
 70
64
  3
- - - - - - - - - - - - - - - - - - - -
 72
65
 73
2
 40
0.2
 49
0.1
 74
0
 49
-0.1
 74
0
  0
LTYPE
  5
1F7
100
AcDbSymbolTableRecord
100
AcDbLinetypeTableRecord
  2
PHANTOM
 70
64
  3
_____ _ _ _____ _ _ _____ _ _ _____
 72
65
 73
6
 40
0.8
 49
0.45
 74
0
 49
-0.05
 74
0
 49
0.1
 74
0
 49
-0.05
 74
0
 49
0.1
 74
0
 49
-0.05
 74
0
  0
LTYPE
  5
1F8
100
AcDbSymbolTableRecord
100
AcDbLinetypeTableRecord
  2
DOT
 70
64
  3
. . . . . . . . . . . . . . . . . . . .
 72
65
 73
2
 40
0.2
 49
0.1
 74
0
 49
-0.1
 74
0
  0
LTYPE
  5
1F9
100
AcDbSymbolTableRecord
100
AcDbLinetypeTableRecord
  2
DASHED
 70
64
  3
- - - - - - - - - - - - - - - - - - - -
 72
65
 73
2
 40
0.2
 49
0.1
 74
0
 49
-0.1
 74
0
  0
ENDTAB
  0
TABLE
  2
LAYER
  5
2
100
AcDbSymbolTable
 70
36
  0
LAYER
  5
10
100
AcDbSymbolTableRecord
100
AcDbLayerTableRecord
  2
0
 70
0
 62
7
  6
CONTINUOUS
370
-3
390
F
  0
LAYER
  5
1FA
100
AcDbSymbolTableRecord
100
AcDbLayerTableRecord
  2
DEFAULT_1
 70
0
 62
7
  6
CENTER
370
-3
390
F
  0
LAYER
  5
1FB
100
AcDbSymbolTableRecord
100
AcDbLayerTableRecord
  2
DEFAULT_2
 70
0
 62
7
  6
HIDDEN
370
-3
390
F
  0
LAYER
  5
1FC
100
AcDbSymbolTableRecord
100
AcDbLayerTableRecord
  2
DEFAULT_3
 70
0
 62
7
  6
PHANTOM
370
-3
390
F
  0
LAYER
  5
1FD
100
AcDbSymbolTableRecord
100
AcDbLayerTableRecord
  2
ASSI
 70
0
 62
7
  6
CONTINUOUS
370
-3
390
F
  0
LAYER
  5
1FE
100
AcDbSymbolTableRecord
100
AcDbLayerTableRecord
  2
COLOR3
 70
0
 62
7
  6
CONTINUOUS
370
-3
390
F
  0
LAYER
  5
1FF
100
AcDbSymbolTableRecord
100
AcDbLayerTableRecord
  2
COORDINATE
 70
0
 62
7
  6
CONTINUOUS
370
-3
390
F
  0
LAYER
  5
200
100
AcDbSymbolTableRecord
100
AcDbLayerTableRecord
  2
COPY_PUBLISH
 70
0
 62
7
  6
CONTINUOUS
370
-3
390
F
  0
LAYER
  5
201
100
AcDbSymbolTableRecord
100
AcDbLayerTableRecord
  2
COSMETIC
 70
0
 62
7
  6
CONTINUOUS
370
-3
390
F
  0
LAYER
  5
202
100
AcDbSymbolTableRecord
100
AcDbLayerTableRecord
  2
COSMETICI
 70
0
 62
7
  6
CONTINUOUS
370
-3
390
F
  0
LAYER
  5
203
100
AcDbSymbolTableRecord
100
AcDbLayerTableRecord
  2
CURVE
 70
0
 62
7
  6
CONTINUOUS
370
-3
390
F
  0
LAYER
  5
204
100
AcDbSymbolTableRecord
100
AcDbLayerTableRecord
  2
DRAFT
 70
0
 62
7
  6
CONTINUOUS
370
-3
390
F
  0
LAYER
  5
205
100
AcDbSymbolTableRecord
100
AcDbLayerTableRecord
  2
IMPORT_IGES
 70
0
 62
7
  6
CONTINUOUS
370
-3
390
F
  0
LAYER
  5
206
100
AcDbSymbolTableRecord
100
AcDbLayerTableRecord
  2
INTFCLR_1
 70
0
 62
7
  6
CONTINUOUS
370
-3
390
F
  0
LAYER
  5
207
100
AcDbSymbolTableRecord
100
AcDbLayerTableRecord
  2
INTF_10
 70
0
 62
7
  6
CONTINUOUS
370
-3
390
F
  0
LAYER
  5
208
100
AcDbSymbolTableRecord
100
AcDbLayerTableRecord
  2
INTF_13
 70
0
 62
7
  6
CONTINUOUS
370
-3
390
F
  0
LAYER
  5
209
100
AcDbSymbolTableRecord
100
AcDbLayerTableRecord
  2
INTF_15
 70
0
 62
7
  6
CONTINUOUS
370
-3
390
F
  0
LAYER
  5
20A
100
AcDbSymbolTableRecord
100
AcDbLayerTableRecord
  2
INTF_16
 70
0
 62
7
  6
CONTINUOUS
370
-3
390
F
  0
LAYER
  5
20B
100
AcDbSymbolTableRecord
100
AcDbLayerTableRecord
  2
INTF_18
 70
0
 62
7
  6
CONTINUOUS
370
-3
390
F
  0
LAYER
  5
20C
100
AcDbSymbolTableRecord
100
AcDbLayerTableRecord
  2
INTF_20
 70
0
 62
7
  6
CONTINUOUS
370
-3
390
F
  0
LAYER
  5
20D
100
AcDbSymbolTableRecord
100
AcDbLayerTableRecord
  2
INTF_3
 70
0
 62
7
  6
CONTINUOUS
370
-3
390
F
  0
LAYER
  5
20E
100
AcDbSymbolTableRecord
100
AcDbLayerTableRecord
  2
INTF_5
 70
0
 62
7
  6
CONTINUOUS
370
-3
390
F
  0
LAYER
  5
20F
100
AcDbSymbolTableRecord
100
AcDbLayerTableRecord
  2
INTF_8
 70
0
 62
7
  6
CONTINUOUS
370
-3
390
F
  0
LAYER
  5
210
100
AcDbSymbolTableRecord
100
AcDbLayerTableRecord
  2
NOTE
 70
0
 62
7
  6
CONTINUOUS
370
-3
390
F
  0
LAYER
  5
211
100
AcDbSymbolTableRecord
100
AcDbLayerTableRecord
  2
PIANI
 70
0
 62
7
  6
CONTINUOUS
370
-3
390
F
  0
LAYER
  5
212
100
AcDbSymbolTableRecord
100
AcDbLayerTableRecord
  2
PUNTI
 70
0
 62
7
  6
CONTINUOUS
370
-3
390
F
  0
LAYER
  5
213
100
AcDbSymbolTableRecord
100
AcDbLayerTableRecord
  2
RACCORDO
 70
0
 62
7
  6
CONTINUOUS
370
-3
390
F
  0
LAYER
  5
214
100
AcDbSymbolTableRecord
100
AcDbLayerTableRecord
  2
SIMBOLI
 70
0
 62
7
  6
CONTINUOUS
370
-3
390
F
  0
LAYER
  5
215
100
AcDbSymbolTableRecord
100
AcDbLayerTableRecord
  2
SNAPLINE
 70
0
 62
7
  6
CONTINUOUS
370
-3
390
F
  0
LAYER
  5
216
100
AcDbSymbolTableRecord
100
AcDbLayerTableRecord
  2
SOLIDO
 70
0
 62
7
  6
CONTINUOUS
370
-3
390
F
  0
LAYER
  5
217
100
AcDbSymbolTableRecord
100
AcDbLayerTableRecord
  2
SUPERFICI
 70
0
 62
7
  6
CONTINUOUS
370
-3
390
F
  0
LAYER
  5
218
100
AcDbSymbolTableRecord
100
AcDbLayerTableRecord
  2
SUPERFICI_SKEL
 70
0
 62
7
  6
CONTINUOUS
370
-3
390
F
  0
LAYER
  5
219
100
AcDbSymbolTableRecord
100
AcDbLayerTableRecord
  2
TRASH
 70
0
 62
7
  6
CONTINUOUS
370
-3
390
F
  0
LAYER
  5
21A
100
AcDbSymbolTableRecord
100
AcDbLayerTableRecord
  2
___SHELL
 70
0
 62
7
  6
CONTINUOUS
370
-3
390
F
  0
ENDTAB
  0
TABLE
  2
STYLE
  5
3
100
AcDbSymbolTable
 70
1
  0
STYLE
  5
11
100
AcDbSymbolTableRecord
100
AcDbTextStyleTableRecord
  2
STANDARD
 70
0
 40
0.0
 41
0.8
 50
0.0
 71
0
 42
0.2
  3
txt
  4

  0
STYLE
  5
21B
100
AcDbSymbolTableRecord
100
AcDbTextStyleTableRecord
  2
TEXTSTYLE_1
 70
0
 40
0.0
 41
0.8
 50
0.0
 71
0
 42
0.2
  3
gdt
  4

  0
ENDTAB
  0
TABLE
  2
VIEW
  5
6
100
AcDbSymbolTable
 70
0
  0
ENDTAB
  0
TABLE
  2
UCS
  5
7
100
AcDbSymbolTable
 70
0
  0
ENDTAB
  0
TABLE
  2
APPID
  5
9
100
AcDbSymbolTable
 70
1
  0
APPID
  5
21C
100
AcDbSymbolTableRecord
100
AcDbRegAppTableRecord
  2
ACAD
 70
0
  0
ENDTAB
  0
TABLE
  2
BLOCK_RECORD
  5
1
100
AcDbSymbolTable
 70
0
  0
BLOCK_RECORD
  5
21D
100
AcDbSymbolTableRecord
100
AcDbBlockTableRecord
  2
*Model_Space
  0
BLOCK_RECORD
  5
21E
100
AcDbSymbolTableRecord
100
AcDbBlockTableRecord
  2
*Paper_Space
  0
BLOCK_RECORD
  5
21F
100
AcDbSymbolTableRecord
100
AcDbBlockTableRecord
  2
_FILLED
  0
BLOCK_RECORD
  5
220
100
AcDbSymbolTableRecord
100
AcDbBlockTableRecord
  2
*D0
  0
BLOCK_RECORD
  5
221
100
AcDbSymbolTableRecord
100
AcDbBlockTableRecord
  2
*D1
  0
BLOCK_RECORD
  5
222
100
AcDbSymbolTableRecord
100
AcDbBlockTableRecord
  2
*D2
  0
ENDTAB
  0
TABLE
  2
DIMSTYLE
  5
A
100
AcDbSymbolTable
 70
1
100
AcDbDimStyleTable
 71
0
  0
DIMSTYLE
105
223
100
AcDbSymbolTableRecord
100
AcDbDimStyleTableRecord
  2
STANDARD
 70
0
  3

  4

 40
1.0
 41
3.0
 42
0.5
 43
0.38
 44
1.5
 45
0.0
 46
0.0
 47
0.01
 48
0.01
140
3.0
141
0.09
142
0.0
143
25.4
144
1.0
145
0.0
146
1.0
147
0.625
 71
1.0
 72
0.0
 73
0
 74
0
 75
0
 76
0
 77
1
 78
8
170
0
171
2
172
0
173
0
174
0
175
0
176
0
177
0
178
0
270
2
271
2
272
2
273
2
274
2
275
0
280
0
281
0
282
0
283
1
284
8
285
0
286
0
287
3
288
0
340
11
278
44
341
21F
342
21F
343
21F
344
21F
  0
DIMSTYLE
105
224
100
AcDbSymbolTableRecord
100
AcDbDimStyleTableRecord
  2
DIMSTYLE_1
 70
0
  3

  4

 40
1.0
 41
3.0
 42
0.5
 43
0.38
 44
1.5
 45
0.0
 46
0.0
 47
0.0
 48
0.0
140
3.0
141
0.09
142
0.0
143
25.4
144
1.0
145
0.0
146
1.0
147
0.75
 71
0.0
 72
0.0
 73
0
 74
0
 75
0
 76
0
 77
1
 78
8
170
0
171
2
172
0
173
0
174
0
175
0
176
0
177
0
178
0
270
2
271
1
272
1
273
2
274
2
275
0
280
0
281
0
282
0
283
1
284
8
285
0
286
0
287
3
288
0
340
11
278
44
341
21F
342
21F
343
21F
344
21F
  0
ENDTAB
  0
ENDSEC
  0
SECTION
  2
BLOCKS
  0
BLOCK
  5
20
100
AcDbEntity
  8
0
100
AcDbBlockBegin
  2
*Model_Space
 70
0
 10
0.0
 20
0.0
 30
0.0
  3
*Model_Space
  1

  0
ENDBLK
  5
21
100
AcDbEntity
  8
0
100
AcDbBlockEnd
  0
BLOCK
  5
1C
100
AcDbEntity
  8
0
100
AcDbBlockBegin
  2
*Paper_Space
 70
0
 10
0.0
 20
0.0
 30
0.0
  3
*Paper_Space
  1

  0
ENDBLK
  5
1D
100
AcDbEntity
  8
0
100
AcDbBlockEnd
  0
BLOCK
  5
225
100
AcDbEntity
  8
0
100
AcDbBlockBegin
  2
_FILLED
 70
64
 10
0.0
 20
0.0
  3
_FILLED
  1

  0
SOLID
  5
226
100
AcDbEntity
  8
0
  6
BYBLOCK
 62
0
100
AcDbTrace
 10
0.0
 20
0.0
 11
-1.0
 21
0.3166666667
 12
-1.0
 22
-0.3166666667
 13
-1.0
 23
-0.3166666667
  0
ENDBLK
  5
227
100
AcDbEntity
  8
0
  6
BYBLOCK
 62
0
100
AcDbBlockEnd
  0
BLOCK
  5
228
100
AcDbEntity
  8
0
100
AcDbBlockBegin
 62
7
  6
CONTINUOUS
  2
*D0
 70
65
 10
0.0
 20
0.0
  3
*D0
  1

  0
MTEXT
  5
229
100
AcDbEntity
  8
0
100
AcDbMText
 62
7
  6
CONTINUOUS
  7
STANDARD
 71
2
 72
1
 10
152.0050322245
 20
140.0734168399
 30
0.0
 11
1.0
 21
0.0
 31
0.0
 44
0.9
  1
44,6
 40
3.0
 41
8.7857142857
  0
LINE
  5
22A
100
AcDbEntity
  8
0
100
AcDbLine
 62
7
  6
CONTINUOUS
 10
174.2882581245
 20
128.1897767676
 11
174.2882581245
 21
137.8234168399
  0
LINE
  5
22B
100
AcDbEntity
  8
0
100
AcDbLine
 62
7
  6
CONTINUOUS
 10
129.7218063245
 20
128.1897767676
 11
129.7218063245
 21
137.8234168399
  0
LINE
  5
22C
100
AcDbEntity
  8
0
100
AcDbLine
 62
7
  6
CONTINUOUS
 10
174.2882581245
 20
136.3234168399
 11
152.0050322245
 21
136.3234168399
  0
LINE
  5
22D
100
AcDbEntity
  8
0
100
AcDbLine
 62
7
  6
CONTINUOUS
 10
129.7218063245
 20
136.3234168399
 11
152.0050322245
 21
136.3234168399
  0
INSERT
  5
22E
100
AcDbEntity
  8
0
100
AcDbBlockReference
 62
7
  6
CONTINUOUS
  2
_FILLED
 10
174.2882581245
 20
136.3234168399
 41
3.0
 42
3.0
 43
3.0
  0
INSERT
  5
22F
100
AcDbEntity
  8
0
100
AcDbBlockReference
 62
7
  6
CONTINUOUS
  2
_FILLED
 10
129.7218063245
 20
136.3234168399
 41
3.0
 42
3.0
 43
3.0
 50
180.0
  0
ENDBLK
  5
230
100
AcDbEntity
  8
0
  6
BYBLOCK
 62
0
100
AcDbBlockEnd
  0
BLOCK
  5
231
100
AcDbEntity
  8
0
100
AcDbBlockBegin
 62
7
  6
CONTINUOUS
  2
*D1
 70
65
 10
0.0
 20
0.0
  3
*D1
  1

  0
MTEXT
  5
232
100
AcDbEntity
  8
0
100
AcDbMText
 62
7
  6
CONTINUOUS
  7
STANDARD
 71
2
 72
1
 10
178.6050322245
 20
105.9234168399
 30
0.0
 11
0.0
 21
1.0
 31
0.0
 44
0.9
  1
44,5
 40
3.0
 41
8.5714285714
  0
LINE
  5
233
100
AcDbEntity
  8
0
100
AcDbLine
 62
7
  6
CONTINUOUS
 10
174.2887719609
 20
83.6570566771
 11
183.8550322245
 21
83.6570566771
  0
LINE
  5
234
100
AcDbEntity
  8
0
100
AcDbLine
 62
7
  6
CONTINUOUS
 10
174.2887719609
 20
128.1897770027
 11
183.8550322245
 21
128.1897770027
  0
LINE
  5
235
100
AcDbEntity
  8
0
100
AcDbLine
 62
7
  6
CONTINUOUS
 10
182.3550322245
 20
83.6570566771
 11
182.3550322245
 21
105.9234168399
  0
LINE
  5
236
100
AcDbEntity
  8
0
100
AcDbLine
 62
7
  6
CONTINUOUS
 10
182.3550322245
 20
128.1897770027
 11
182.3550322245
 21
105.9234168399
  0
INSERT
  5
237
100
AcDbEntity
  8
0
100
AcDbBlockReference
 62
7
  6
CONTINUOUS
  2
_FILLED
 10
182.3550322245
 20
83.6570566771
 41
3.0
 42
3.0
 43
3.0
 50
270.0
  0
INSERT
  5
238
100
AcDbEntity
  8
0
100
AcDbBlockReference
 62
7
  6
CONTINUOUS
  2
_FILLED
 10
182.3550322245
 20
128.1897770027
 41
3.0
 42
3.0
 43
3.0
 50
90.0
  0
ENDBLK
  5
239
100
AcDbEntity
  8
0
  6
BYBLOCK
 62
0
100
AcDbBlockEnd
  0
BLOCK
  5
23A
100
AcDbEntity
  8
0
100
AcDbBlockBegin
 62
7
  6
CONTINUOUS
  2
*D2
 70
65
 10
0.0
 20
0.0
  3
*D2
  1

  0
MTEXT
  5
23B
100
AcDbEntity
  8
0
100
AcDbMText
 62
7
  6
CONTINUOUS
  7
STANDARD
 71
2
 72
1
 10
116.9032065441
 20
140.0734168399
 30
0.0
 11
1.0
 21
0.0
 31
0.0
 44
0.9
  1
9,6
 40
3.0
 41
6.4285714286
  0
LINE
  5
23C
100
AcDbEntity
  8
0
100
AcDbLine
 62
7
  6
CONTINUOUS
 10
121.727768711
 20
119.5972362365
 11
121.727768711
 21
137.8234168399
  0
LINE
  5
23D
100
AcDbEntity
  8
0
100
AcDbLine
 62
7
  6
CONTINUOUS
 10
112.0786443771
 20
107.1780419972
 11
112.0786443771
 21
137.8234168399
  0
LINE
  5
23E
100
AcDbEntity
  8
0
100
AcDbLine
 62
7
  6
CONTINUOUS
 10
121.727768711
 20
136.3234168399
 11
116.9032065441
 21
136.3234168399
  0
LINE
  5
23F
100
AcDbEntity
  8
0
100
AcDbLine
 62
7
  6
CONTINUOUS
 10
112.0786443771
 20
136.3234168399
 11
116.9032065441
 21
136.3234168399
  0
INSERT
  5
240
100
AcDbEntity
  8
0
100
AcDbBlockReference
 62
7
  6
CONTINUOUS
  2
_FILLED
 10
121.727768711
 20
136.3234168399
 41
3.0
 42
3.0
 43
3.0
  0
INSERT
  5
241
100
AcDbEntity
  8
0
100
AcDbBlockReference
 62
7
  6
CONTINUOUS
  2
_FILLED
 10
112.0786443771
 20
136.3234168399
 41
3.0
 42
3.0
 43
3.0
 50
180.0
  0
ENDBLK
  5
242
100
AcDbEntity
  8
0
  6
BYBLOCK
 62
0
100
AcDbBlockEnd
  0
ENDSEC
  0
SECTION
  2
ENTITIES
  0
DIMENSION
  5
243
100
AcDbEntity
  8
0
100
AcDbDimension
 62
7
  6
CONTINUOUS
  2
*D0
 10
129.7218063245
 20
136.3234168399
 11
152.0050322245
 21
136.3234168399
 70
160
 71
2
 42
44.5664518
  3
DIMSTYLE_1
100
AcDbAlignedDimension
 13
174.2882581245
 23
127.6897767676
 14
129.7218063245
 24
127.6897767676
 50
180.0
100
AcDbRotatedDimension
  0
DIMENSION
  5
244
100
AcDbEntity
  8
0
100
AcDbDimension
 62
7
  6
CONTINUOUS
  2
*D1
 10
182.3550322245
 20
128.1897770027
 11
182.3550322245
 21
105.9234168399
 70
160
 71
2
 42
44.5327203257
  3
DIMSTYLE_1
100
AcDbAlignedDimension
 13
173.7887719609
 23
83.6570566771
 14
173.7887719609
 24
128.1897770027
 50
90.0
100
AcDbRotatedDimension
  0
DIMENSION
  5
245
100
AcDbEntity
  8
0
100
AcDbDimension
 62
7
  6
CONTINUOUS
  2
*D2
 10
112.0786443771
 20
136.3234168399
 11
116.9032065441
 21
136.3234168399
 70
160
 71
2
 42
9.6491243339
  3
DIMSTYLE_1
100
AcDbAlignedDimension
 13
121.727768711
 23
119.0972362365
 14
112.0786443771
 24
106.6780419972
 50
180.0
100
AcDbRotatedDimension
  0
LWPOLYLINE
  5
246
100
AcDbEntity
  8
0
100
AcDbPolyline
 62
253
  6
CONTINUOUS
 90
7
 70
0
 10
130.3421948271
 20
127.9478064051
 10
130.3411432012
 20
127.9404204519
 10
130.3400497541
 20
127.9271447461
 10
130.3389423643
 20
127.9080479155
 10
130.3378696703
 20
127.8832281952
 10
130.3368376085
 20
127.8528106315
 10
130.3348083172
 20
127.7758056387
  0
LINE
  5
247
100
AcDbEntity
  8
0
100
AcDbLine
 62
7
  6
CONTINUOUS
 10
165.6116565516
 20
83.6570566771
 11
166.9972971976
 21
83.7828353474
  0
LWPOLYLINE
  5
248
100
AcDbEntity
  8
0
100
AcDbPolyline
 62
253
  6
CONTINUOUS
 90
16
 70
0
 10
173.667869622
 20
83.8990272748
 10
173.7200712484
 20
83.90182932
 10
173.77170186
 20
83.9100619094
 10
173.8221967567
 20
83.9236349797
 10
173.8710036785
 20
83.9424000641
 10
173.9175888
 20
83.9661519001
 10
173.9614425767
 20
83.9946306603
 10
174.0020853811
 20
84.0275248289
 10
174.0390727257
 20
84.0644746133
 10
174.0720000893
 20
84.1050758484
 10
174.1005073689
 20
84.1488844398
 10
174.1242828212
 20
84.1954212368
 10
174.1430664555
 20
84.2441772617
 10
174.1566528721
 20
84.2946192647
 10
174.1648935117
 20
84.3461955539
 10
174.1676982845
 20
84.3983420421
  0
LWPOLYLINE
  5
249
100
AcDbEntity
  8
0
100
AcDbPolyline
 62
253
  6
CONTINUOUS
 90
16
 70
0
 10
130.3421948244
 20
83.8990272695
 10
130.2899938544
 20
83.9018292447
 10
130.2383638128
 20
83.9100616418
 10
130.1878693839
 20
83.923634422
 10
130.1390628315
 20
83.9423991382
 10
130.0924779588
 20
83.9661505583
 10
130.0486242704
 20
83.99462891
 10
130.0079813995
 20
84.0275227222
 10
129.9709938621
 20
84.0644722312
 10
129.9380661957
 20
84.1050733155
 10
129.909558534
 20
84.148881916
 10
129.885782669
 20
84.1954188928
 10
129.8669986402
 20
84.2441752651
 10
129.8534118909
 20
84.2946177785
 10
129.845171021
 20
84.3461947369
 10
129.8423661619
 20
84.3983420368
  0
LINE
  5
24A
100
AcDbEntity
  8
0
100
AcDbLine
 62
7
  6
CONTINUOUS
 10
138.3984078975
 20
83.6570566771
 11
137.0127672515
 21
83.7828353474
  0
LWPOLYLINE
  5
24B
100
AcDbEntity
  8
0
100
AcDbPolyline
 62
253
  6
CONTINUOUS
 90
8
 70
0
 10
130.3427598107
 20
106.3035350645
 10
130.3463977996
 20
106.2704356953
 10
130.3503275314
 20
106.2417925726
 10
130.3539760565
 20
106.2178696008
 10
130.3582472372
 20
106.1988297733
 10
130.3631387617
 20
106.1849305156
 10
130.3676754244
 20
106.1763842386
 10
130.3713696028
 20
106.173242098
  0
LWPOLYLINE
  5
24C
100
AcDbEntity
  8
0
100
AcDbPolyline
 62
253
  6
CONTINUOUS
 90
16
 70
0
 10
129.8715409402
 20
106.6732230596
 10
129.8742264724
 20
106.6215771705
 10
129.8822666305
 20
106.5703132131
 10
129.8956282279
 20
106.5199917199
 10
129.9142421386
 20
106.4711194776
 10
129.9379437569
 20
106.4243070215
 10
129.9664193458
 20
106.3802348669
 10
129.9993141786
 20
106.3394348053
 10
130.0362980083
 20
106.3023015597
 10
130.0769752563
 20
106.2692357403
 10
130.1209093636
 20
106.2405998083
 10
130.1676125878
 20
106.2167187033
 10
130.2165593091
 20
106.1978637259
 10
130.267206019
 20
106.18424349
 10
130.3189995007
 20
106.176006042
 10
130.3713696027
 20
106.173242098
  0
LWPOLYLINE
  5
24D
100
AcDbEntity
  8
0
100
AcDbPolyline
 62
253
  6
CONTINUOUS
 90
4
 70
0
 10
130.3324571672
 20
106.4717968758
 10
130.3342573959
 20
106.4250849206
 10
130.3369707369
 20
106.3811137725
 10
130.3427598107
 20
106.3035350645
  0
LWPOLYLINE
  5
24E
100
AcDbEntity
  8
0
100
AcDbPolyline
 62
253
  6
CONTINUOUS
 90
6
 70
0
 10
130.3368376193
 20
83.994023044
 10
130.3378696787
 20
83.9636054809
 10
130.3389423703
 20
83.9387857605
 10
130.3400497574
 20
83.9196889294
 10
130.3411432015
 20
83.906413223
 10
130.3421948244
 20
83.8990272695
  0
LINE
  5
24F
100
AcDbEntity
  8
0
100
AcDbLine
 62
253
  6
CONTINUOUS
 10
129.8530482778
 20
127.2914338506
 11
129.8549339654
 21
127.2238330427
  0
LINE
  5
250
100
AcDbEntity
  8
0
100
AcDbLine
 62
253
  6
CONTINUOUS
 10
130.3348083323
 20
84.0710280357
 11
130.3368376193
 21
83.994023044
  0
LINE
  5
251
100
AcDbEntity
  8
0
100
AcDbLine
 62
253
  6
CONTINUOUS
 10
129.8549339654
 20
127.2238330427
 11
129.8565477872
 21
127.1470860919
  0
LINE
  5
252
100
AcDbEntity
  8
0
100
AcDbLine
 62
253
  6
CONTINUOUS
 10
130.3329346482
 20
84.1682733798
 11
130.3348083323
 21
84.0710280357
  0
LINE
  5
253
100
AcDbEntity
  8
0
100
AcDbLine
 62
253
  6
CONTINUOUS
 10
129.8565477872
 20
127.1470860919
 11
129.8578661018
 21
127.062333874
  0
LINE
  5
254
100
AcDbEntity
  8
0
100
AcDbLine
 62
253
  6
CONTINUOUS
 10
130.3304353636
 20
84.3477452254
 11
130.3329346482
 21
84.1682733798
  0
LINE
  5
255
100
AcDbEntity
  8
0
100
AcDbLine
 62
253
  6
CONTINUOUS
 10
129.8578661018
 20
127.062333874
 11
129.8592245816
 21
126.9243253934
  0
LINE
  5
256
100
AcDbEntity
  8
0
100
AcDbLine
 62
253
  6
CONTINUOUS
 10
130.3278621155
 20
84.6369331842
 11
130.3304353636
 21
84.3477452254
  0
LWPOLYLINE
  5
257
100
AcDbEntity
  8
0
100
AcDbPolyline
 62
253
  6
CONTINUOUS
 90
3
 70
0
 10
130.3287179161
 20
105.1728410284
 10
130.3284929004
 20
105.2258298352
 10
130.3293452188
 20
105.2770805742
  0
LINE
  5
258
100
AcDbEntity
  8
0
100
AcDbLine
 62
253
  6
CONTINUOUS
 10
130.3261346601
 20
85.0461520544
 11
130.3278621155
 21
84.6369331842
  0
LINE
  5
259
100
AcDbEntity
  8
0
100
AcDbLine
 62
253
  6
CONTINUOUS
 10
129.8592245816
 20
126.9243253934
 11
129.8597926776
 21
126.779240669
  0
LINE
  5
25A
100
AcDbEntity
  8
0
100
AcDbLine
 62
253
  6
CONTINUOUS
 10
129.8597926776
 20
126.779240669
 11
129.8692869781
 21
115.0931066318
  0
LINE
  5
25B
100
AcDbEntity
  8
0
100
AcDbLine
 62
7
  6
CONTINUOUS
 10
129.7218063245
 20
84.1570569122
 11
129.7218063245
 21
101.7234168399
  0
LINE
  5
25C
100
AcDbEntity
  8
0
100
AcDbLine
 62
7
  6
CONTINUOUS
 10
129.7218063245
 20
110.1234168399
 11
129.7218063245
 21
127.6897767676
  0
LINE
  5
25D
100
AcDbEntity
  8
0
100
AcDbLine
 62
7
  6
CONTINUOUS
 10
129.7820339441
 20
105.2034402262
 11
129.7820339441
 21
101.7234168399
  0
LINE
  5
25E
100
AcDbEntity
  8
0
100
AcDbLine
 62
7
  6
CONTINUOUS
 10
129.7820339441
 20
106.6433934536
 11
129.7820339441
 21
110.1234168399
  0
LINE
  5
25F
100
AcDbEntity
  8
0
100
AcDbLine
 62
253
  6
CONTINUOUS
 10
129.8692869781
 20
115.0931066318
 11
129.8715409402
 21
106.6732230596
  0
LINE
  5
260
100
AcDbEntity
  8
0
100
AcDbLine
 62
253
  6
CONTINUOUS
 10
130.3287179548
 20
105.172841034
 11
130.3261346269
 21
85.0461520489
  0
LINE
  5
261
100
AcDbEntity
  8
0
100
AcDbLine
 62
253
  6
CONTINUOUS
 10
129.8715409402
 20
105.1736106203
 11
129.8692931769
 21
96.7624871946
  0
LINE
  5
262
100
AcDbEntity
  8
0
100
AcDbLine
 62
253
  6
CONTINUOUS
 10
129.8692931769
 20
96.7624871946
 11
129.8646550956
 21
89.9942817843
  0
LINE
  5
263
100
AcDbEntity
  8
0
100
AcDbLine
 62
253
  6
CONTINUOUS
 10
130.3266080425
 20
126.968023992
 11
130.3287179548
 21
106.6739926346
  0
LINE
  5
264
100
AcDbEntity
  8
0
100
AcDbLine
 62
253
  6
CONTINUOUS
 10
129.8646550956
 20
89.9942817843
 11
129.8595017649
 21
84.9700836052
  0
LWPOLYLINE
  5
265
100
AcDbEntity
  8
0
100
AcDbPolyline
 62
253
  6
CONTINUOUS
 90
4
 70
0
 10
130.3287179161
 20
106.6739926288
 10
130.3284930298
 20
106.6210058229
 10
130.3293452669
 20
106.5697567608
 10
130.3324571672
 20
106.4717968758
  0
LINE
  5
266
100
AcDbEntity
  8
0
100
AcDbLine
 62
253
  6
CONTINUOUS
 10
130.3290332445
 20
127.3604913299
 11
130.3266080425
 21
126.968023992
  0
LINE
  5
267
100
AcDbEntity
  8
0
100
AcDbLine
 62
253
  6
CONTINUOUS
 10
129.8595017649
 20
84.9700836052
 11
129.858402321
 21
84.8292187559
  0
LINE
  5
268
100
AcDbEntity
  8
0
100
AcDbLine
 62
253
  6
CONTINUOUS
 10
130.3312232574
 20
127.5630184499
 11
130.3290332445
 21
127.3604913299
  0
LINE
  5
269
100
AcDbEntity
  8
0
100
AcDbLine
 62
253
  6
CONTINUOUS
 10
129.858402321
 20
84.8292187559
 11
129.8572475332
 21
84.7413573499
  0
LINE
  5
26A
100
AcDbEntity
  8
0
100
AcDbLine
 62
253
  6
CONTINUOUS
 10
130.3329346292
 20
127.6785602935
 11
130.3312232574
 21
127.5630184499
  0
LINE
  5
26B
100
AcDbEntity
  8
0
100
AcDbLine
 62
253
  6
CONTINUOUS
 10
129.8572475332
 20
84.7413573499
 11
129.8557769722
 21
84.6602854492
  0
LINE
  5
26C
100
AcDbEntity
  8
0
100
AcDbLine
 62
253
  6
CONTINUOUS
 10
130.3348083172
 20
127.7758056387
 11
130.3329346292
 21
127.6785602935
  0
LWPOLYLINE
  5
26D
100
AcDbEntity
  8
0
100
AcDbPolyline
 62
253
  6
CONTINUOUS
 90
12
 70
0
 10
129.8557769722
 20
84.6602854492
 10
129.8540198897
 20
84.5878634485
 10
129.853048275
 20
84.5553998231
 10
129.8520182627
 20
84.5256514025
 10
129.8509307085
 20
84.4985765388
 10
129.8498017014
 20
84.4745762093
 10
129.8486300545
 20
84.4536951611
 10
129.8474169545
 20
84.4358886472
 10
129.8461820504
 20
84.4214234041
 10
129.8449318917
 20
84.4103883441
 10
129.8436599289
 20
84.402694555
 10
129.8423661619
 20
84.3983420368
  0
LWPOLYLINE
  5
26E
100
AcDbEntity
  8
0
100
AcDbPolyline
 62
253
  6
CONTINUOUS
 90
4
 70
0
 10
130.3293452188
 20
105.2770805742
 10
130.3324574174
 20
105.3750428007
 10
130.3342576851
 20
105.4217554159
 10
130.3369711635
 20
105.4657267822
  0
LWPOLYLINE
  5
26F
100
AcDbEntity
  8
0
100
AcDbPolyline
 62
253
  6
CONTINUOUS
 90
16
 70
0
 10
129.8715409402
 20
105.1736106203
 10
129.8742264774
 20
105.2252565572
 10
129.882266648
 20
105.2765205503
 10
129.8956282621
 20
105.3268420663
 10
129.9142421895
 20
105.3757143173
 10
129.9379438211
 20
105.4225267703
 10
129.9664194194
 20
105.4665989147
 10
129.9993142547
 20
105.5073989594
 10
130.0362980793
 20
105.5445321844
 10
130.0769753201
 20
105.577597986
 10
130.1209094219
 20
105.6062339053
 10
130.1676126401
 20
105.6301149999
 10
130.2165593527
 20
105.6489699681
 10
130.2672060503
 20
105.6625901965
 10
130.3189995173
 20
105.6708276396
 10
130.3713696027
 20
105.6735915818
  0
LWPOLYLINE
  5
270
100
AcDbEntity
  8
0
100
AcDbPolyline
 62
253
  6
CONTINUOUS
 90
9
 70
0
 10
130.3369711635
 20
105.4657267822
 10
130.3427603858
 20
105.543304555
 10
130.3463983838
 20
105.5764029973
 10
130.3503281377
 20
105.6050450051
 10
130.3539766004
 20
105.628966798
 10
130.3582476607
 20
105.6480055572
 10
130.3631390385
 20
105.6619039595
 10
130.3676755465
 20
105.6704496603
 10
130.3713696028
 20
105.6735915818
  0
LINE
  5
271
100
AcDbEntity
  8
0
100
AcDbLine
 62
7
  6
CONTINUOUS
 10
155.8550322245
 20
83.7094644564
 11
155.2776819553
 21
83.6570566771
  0
LINE
  5
272
100
AcDbEntity
  8
0
100
AcDbLine
 62
7
  6
CONTINUOUS
 10
144.5550322245
 20
83.7094644564
 11
143.9776819553
 21
83.6570566771
  0
LWPOLYLINE
  5
273
100
AcDbEntity
  8
0
100
AcDbPolyline
 62
253
  6
CONTINUOUS
 90
14
 70
0
 10
173.780933995
 20
85.046959019
 10
173.8277714307
 20
85.0476650587
 10
173.8728895012
 20
85.0485643188
 10
173.9158507441
 20
85.0496480799
 10
173.9562386099
 20
85.050905834
 10
173.9936615001
 20
85.0523253861
 10
174.0277565644
 20
85.0538929721
 10
174.0581932191
 20
85.055593393
 10
174.0846763522
 20
85.0574101616
 10
174.1069491846
 20
85.0593256625
 10
174.1247957604
 20
85.0613213231
 10
174.13804304
 20
85.0633777937
 10
174.1465625787
 20
85.0654751349
 10
174.1502717715
 20
85.0675930109
  0
LINE
  5
274
100
AcDbEntity
  8
0
100
AcDbLine
 62
253
  6
CONTINUOUS
 10
173.6839298278
 20
85.0461520433
 11
173.780933995
 21
85.046959019
  0
LINE
  5
275
100
AcDbEntity
  8
0
100
AcDbLine
 62
253
  6
CONTINUOUS
 10
130.3421948244
 20
83.8990272695
 11
133.5966658818
 21
83.9087741982
  0
LINE
  5
276
100
AcDbEntity
  8
0
100
AcDbLine
 62
253
  6
CONTINUOUS
 10
133.5966658818
 20
83.9087741982
 11
136.9962145743
 21
83.915096414
  0
LINE
  5
277
100
AcDbEntity
  8
0
100
AcDbLine
 62
253
  6
CONTINUOUS
 10
136.9962145743
 20
83.915096414
 11
140.7550708282
 21
83.9175029119
  0
LINE
  5
278
100
AcDbEntity
  8
0
100
AcDbLine
 62
253
  6
CONTINUOUS
 10
130.3261346269
 20
85.0461520489
 11
139.4603889219
 21
85.0531076427
  0
LINE
  5
279
100
AcDbEntity
  8
0
100
AcDbLine
 62
7
  6
CONTINUOUS
 10
130.2212924882
 20
83.6570566771
 11
131.9116565516
 21
83.6570566771
  0
LINE
  5
27A
100
AcDbEntity
  8
0
100
AcDbLine
 62
7
  6
CONTINUOUS
 10
138.3984078975
 20
83.6570566771
 11
143.9776819553
 21
83.6570566771
  0
LINE
  5
27B
100
AcDbEntity
  8
0
100
AcDbLine
 62
7
  6
CONTINUOUS
 10
148.7323824937
 20
83.6570566771
 11
155.2776819553
 21
83.6570566771
  0
LINE
  5
27C
100
AcDbEntity
  8
0
100
AcDbLine
 62
7
  6
CONTINUOUS
 10
160.0323824937
 20
83.6570566771
 11
165.6116565516
 21
83.6570566771
  0
LINE
  5
27D
100
AcDbEntity
  8
0
100
AcDbLine
 62
7
  6
CONTINUOUS
 10
172.0984078975
 20
83.6570566771
 11
173.7887719609
 21
83.6570566771
  0
LINE
  5
27E
100
AcDbEntity
  8
0
100
AcDbLine
 62
7
  6
CONTINUOUS
 10
148.1550322245
 20
83.7094644564
 11
144.5550322245
 21
83.7094644564
  0
LINE
  5
27F
100
AcDbEntity
  8
0
100
AcDbLine
 62
7
  6
CONTINUOUS
 10
155.8550322245
 20
83.7094644564
 11
159.4550322245
 21
83.7094644564
  0
LINE
  5
280
100
AcDbEntity
  8
0
100
AcDbLine
 62
7
  6
CONTINUOUS
 10
136.8395621707
 20
83.7880761253
 11
133.4705022784
 21
83.7880761253
  0
LINE
  5
281
100
AcDbEntity
  8
0
100
AcDbLine
 62
7
  6
CONTINUOUS
 10
167.1705022784
 20
83.7880761253
 11
170.5395621707
 21
83.7880761253
  0
LINE
  5
282
100
AcDbEntity
  8
0
100
AcDbLine
 62
253
  6
CONTINUOUS
 10
140.7550708282
 20
83.9175029119
 11
165.9259760386
 21
83.916287746
  0
LINE
  5
283
100
AcDbEntity
  8
0
100
AcDbLine
 62
253
  6
CONTINUOUS
 10
139.4603889219
 20
85.0531076427
 11
168.4863177875
 21
85.0514687523
  0
LINE
  5
284
100
AcDbEntity
  8
0
100
AcDbLine
 62
253
  6
CONTINUOUS
 10
168.4863177875
 20
85.0514687523
 11
173.6839298279
 21
85.0461520531
  0
LINE
  5
285
100
AcDbEntity
  8
0
100
AcDbLine
 62
253
  6
CONTINUOUS
 10
165.9259760386
 20
83.916287746
 11
169.3169997899
 21
83.9112508274
  0
LWPOLYLINE
  5
286
100
AcDbEntity
  8
0
100
AcDbPolyline
 62
253
  6
CONTINUOUS
 90
3
 70
0
 10
169.3169997899
 20
83.9112508274
 10
172.7698912436
 20
83.9020585635
 10
173.667869622
 20
83.8990272748
  0
LWPOLYLINE
  5
287
100
AcDbEntity
  8
0
100
AcDbPolyline
 62
253
  6
CONTINUOUS
 90
15
 70
0
 10
130.3261355167
 20
85.0461525865
 10
130.2291322588
 20
85.0469595361
 10
130.1822952173
 20
85.0476655539
 10
130.1371774833
 20
85.0485647864
 10
130.0942165072
 20
85.049648515
 10
130.0538288279
 20
85.0509062323
 10
130.0164060341
 20
85.0523257439
 10
129.982310968
 20
85.0538932866
 10
129.9518742067
 20
85.0555936618
 10
129.9253908575
 20
85.0574103831
 10
129.9031176964
 20
85.0593258361
 10
129.8852706782
 20
85.061321449
 10
129.8720228434
 20
85.0633778728
 10
129.8635026395
 20
85.065475169
 10
129.8597926762
 20
85.0675930027
  0
LINE
  5
288
100
AcDbEntity
  8
0
100
AcDbLine
 62
7
  6
CONTINUOUS
 10
148.1550322245
 20
83.7094644564
 11
148.7323824937
 21
83.6570566771
  0
LINE
  5
289
100
AcDbEntity
  8
0
100
AcDbLine
 62
7
  6
CONTINUOUS
 10
159.4550322245
 20
83.7094644564
 11
160.0323824937
 21
83.6570566771
  0
LINE
  5
28A
100
AcDbEntity
  8
0
100
AcDbLine
 62
7
  6
CONTINUOUS
 10
131.9116565516
 20
83.6570566771
 11
133.2972971976
 21
83.7828353474
  0
LINE
  5
28B
100
AcDbEntity
  8
0
100
AcDbLine
 62
7
  6
CONTINUOUS
 10
172.0984078975
 20
83.6570566771
 11
170.7127672515
 21
83.7828353474
  0
LWPOLYLINE
  5
28C
100
AcDbEntity
  8
0
100
AcDbPolyline
 62
253
  6
CONTINUOUS
 90
10
 70
0
 10
129.8423661646
 20
127.4484916377
 10
129.8436599316
 20
127.4441391193
 10
129.8449318944
 20
127.4364453301
 10
129.8461820531
 20
127.42541027
 10
129.8474169572
 20
127.410945027
 10
129.8486300572
 20
127.393138513
 10
129.8498017041
 20
127.3722574648
 10
129.8509307113
 20
127.3482571352
 10
129.8520182654
 20
127.3211822713
 10
129.8530482778
 20
127.2914338506
  0
LINE
  5
28D
100
AcDbEntity
  8
0
100
AcDbLine
 62
253
  6
CONTINUOUS
 10
140.7567611775
 20
106.1771182421
 11
140.7550708282
 21
127.9293307679
  0
LINE
  5
28E
100
AcDbEntity
  8
0
100
AcDbLine
 62
253
  6
CONTINUOUS
 10
140.7567611775
 20
105.6697154377
 11
140.7550708282
 21
83.9175029119
  0
LINE
  5
28F
100
AcDbEntity
  8
0
100
AcDbLine
 62
253
  6
CONTINUOUS
 10
129.8423661619
 20
84.3983420368
 11
129.7218063245
 21
84.1570569122
  0
LINE
  5
290
100
AcDbEntity
  8
0
100
AcDbLine
 62
253
  6
CONTINUOUS
 10
130.3421948244
 20
83.8990272695
 11
130.2212924882
 21
83.6570566771
  0
LINE
  5
291
100
AcDbEntity
  8
0
100
AcDbLine
 62
253
  6
CONTINUOUS
 10
129.7218063245
 20
127.6897767676
 11
129.8423661646
 21
127.4484916377
  0
LINE
  5
292
100
AcDbEntity
  8
0
100
AcDbLine
 62
253
  6
CONTINUOUS
 10
130.2212924882
 20
128.1897770027
 11
130.3421948271
 21
127.9478064051
  0
LINE
  5
293
100
AcDbEntity
  8
0
100
AcDbLine
 62
253
  6
CONTINUOUS
 10
129.7820339441
 20
106.6433934536
 11
129.8715409402
 21
106.6732230596
  0
LINE
  5
294
100
AcDbEntity
  8
0
100
AcDbLine
 62
253
  6
CONTINUOUS
 10
130.2820910842
 20
106.1434886358
 11
130.3713696029
 21
106.1732420981
  0
LINE
  5
295
100
AcDbEntity
  8
0
100
AcDbLine
 62
253
  6
CONTINUOUS
 10
129.8715409402
 20
105.1736106203
 11
129.7820339441
 21
105.2034402262
  0
LINE
  5
296
100
AcDbEntity
  8
0
100
AcDbLine
 62
253
  6
CONTINUOUS
 10
130.3713696029
 20
105.6735915817
 11
130.2820910842
 21
105.703345044
  0
LINE
  5
297
100
AcDbEntity
  8
0
100
AcDbLine
 62
7
  6
CONTINUOUS
 10
174.2882581245
 20
101.7234168399
 11
174.2280305049
 21
101.7234168399
  0
LINE
  5
298
100
AcDbEntity
  8
0
100
AcDbLine
 62
7
  6
CONTINUOUS
 10
129.7218063245
 20
101.7234168399
 11
129.7820339441
 21
101.7234168399
  0
LINE
  5
299
100
AcDbEntity
  8
0
100
AcDbLine
 62
7
  6
CONTINUOUS
 10
171.5050322245
 20
105.687636682
 11
171.6625118189
 21
105.703345044
  0
LINE
  5
29A
100
AcDbEntity
  8
0
100
AcDbLine
 62
7
  6
CONTINUOUS
 10
132.5050322245
 20
105.687636682
 11
132.3475526302
 21
105.703345044
  0
LINE
  5
29B
100
AcDbEntity
  8
0
100
AcDbLine
 62
253
  6
CONTINUOUS
 10
174.1385235089
 20
105.1736106203
 11
174.1348890605
 21
105.1735354069
  0
LINE
  5
29C
100
AcDbEntity
  8
0
100
AcDbLine
 62
253
  6
CONTINUOUS
 10
174.1348890605
 20
105.1735354069
 11
174.1136227852
 21
105.1733878184
  0
LINE
  5
29D
100
AcDbEntity
  8
0
100
AcDbLine
 62
253
  6
CONTINUOUS
 10
174.1136227852
 20
105.1733878184
 11
163.2532934894
 21
105.1687916826
  0
LINE
  5
29E
100
AcDbEntity
  8
0
100
AcDbLine
 62
253
  6
CONTINUOUS
 10
173.6386948461
 20
105.6735915817
 11
166.7267960016
 21
105.6701493053
  0
LINE
  5
29F
100
AcDbEntity
  8
0
100
AcDbLine
 62
253
  6
CONTINUOUS
 10
130.3713696029
 20
106.1732420981
 11
138.4398187151
 21
106.1769245847
  0
LINE
  5
2A0
100
AcDbEntity
  8
0
100
AcDbLine
 62
253
  6
CONTINUOUS
 10
163.2532934895
 20
105.1687912105
 11
140.7567709728
 21
105.1687912105
  0
LINE
  5
2A1
100
AcDbEntity
  8
0
100
AcDbLine
 62
253
  6
CONTINUOUS
 10
166.7267960016
 20
105.6701493053
 11
163.2533032716
 21
105.6697154445
  0
LINE
  5
2A2
100
AcDbEntity
  8
0
100
AcDbLine
 62
7
  6
CONTINUOUS
 10
163.2533032716
 20
105.6697154445
 11
140.7567611775
 21
105.6697154445
  0
LINE
  5
2A3
100
AcDbEntity
  8
0
100
AcDbLine
 62
7
  6
CONTINUOUS
 10
171.5050322245
 20
105.687636682
 11
132.5050322245
 21
105.687636682
  0
LINE
  5
2A4
100
AcDbEntity
  8
0
100
AcDbLine
 62
7
  6
CONTINUOUS
 10
130.2820910842
 20
105.703345044
 11
132.3475526302
 21
105.703345044
  0
LINE
  5
2A5
100
AcDbEntity
  8
0
100
AcDbLine
 62
7
  6
CONTINUOUS
 10
171.6625118189
 20
105.703345044
 11
173.7279733649
 21
105.703345044
  0
LINE
  5
2A6
100
AcDbEntity
  8
0
100
AcDbLine
 62
7
  6
CONTINUOUS
 10
173.7279733649
 20
106.1434886358
 11
171.6625118189
 21
106.1434886358
  0
LINE
  5
2A7
100
AcDbEntity
  8
0
100
AcDbLine
 62
7
  6
CONTINUOUS
 10
132.3475526302
 20
106.1434886358
 11
130.2820910842
 21
106.1434886358
  0
LINE
  5
2A8
100
AcDbEntity
  8
0
100
AcDbLine
 62
7
  6
CONTINUOUS
 10
132.5050322245
 20
106.1591969979
 11
171.5050322245
 21
106.1591969979
  0
LINE
  5
2A9
100
AcDbEntity
  8
0
100
AcDbLine
 62
7
  6
CONTINUOUS
 10
140.7567611775
 20
106.1771182354
 11
163.2533032716
 21
106.1771182354
  0
LINE
  5
2AA
100
AcDbEntity
  8
0
100
AcDbLine
 62
253
  6
CONTINUOUS
 10
138.4398187151
 20
106.1769245847
 11
140.7567611775
 21
106.1771182354
  0
LINE
  5
2AB
100
AcDbEntity
  8
0
100
AcDbLine
 62
253
  6
CONTINUOUS
 10
140.7567709728
 20
105.1687916826
 11
130.1871874716
 21
105.1728983762
  0
LINE
  5
2AC
100
AcDbEntity
  8
0
100
AcDbLine
 62
253
  6
CONTINUOUS
 10
140.7567611775
 20
105.6697154445
 11
132.6699717431
 21
105.6720646372
  0
LINE
  5
2AD
100
AcDbEntity
  8
0
100
AcDbLine
 62
253
  6
CONTINUOUS
 10
163.2533032716
 20
106.1771182354
 11
170.1887825338
 21
106.1753901947
  0
LINE
  5
2AE
100
AcDbEntity
  8
0
100
AcDbLine
 62
253
  6
CONTINUOUS
 10
132.6699717431
 20
105.6720646372
 11
130.3713696029
 21
105.6735915817
  0
LINE
  5
2AF
100
AcDbEntity
  8
0
100
AcDbLine
 62
253
  6
CONTINUOUS
 10
170.1887825338
 20
106.1753901947
 11
173.6386948462
 21
106.1732420981
  0
LINE
  5
2B0
100
AcDbEntity
  8
0
100
AcDbLine
 62
253
  6
CONTINUOUS
 10
130.1871874716
 20
105.1728983762
 11
129.8964416639
 21
105.1733878086
  0
LWPOLYLINE
  5
2B1
100
AcDbEntity
  8
0
100
AcDbPolyline
 62
253
  6
CONTINUOUS
 90
3
 70
0
 10
129.8964416639
 20
105.1733878086
 10
129.8751753885
 20
105.1735354036
 10
129.8715409402
 20
105.1736106203
  0
LINE
  5
2B2
100
AcDbEntity
  8
0
100
AcDbLine
 62
7
  6
CONTINUOUS
 10
132.5050322245
 20
106.1591969979
 11
132.3475526302
 21
106.1434886358
  0
LINE
  5
2B3
100
AcDbEntity
  8
0
100
AcDbLine
 62
253
  6
CONTINUOUS
 10
129.8715409402
 20
106.6732230596
 11
129.8751753885
 21
106.6732982729
  0
LINE
  5
2B4
100
AcDbEntity
  8
0
100
AcDbLine
 62
253
  6
CONTINUOUS
 10
129.8751753885
 20
106.6732982729
 11
129.8964416639
 21
106.6734458615
  0
LINE
  5
2B5
100
AcDbEntity
  8
0
100
AcDbLine
 62
253
  6
CONTINUOUS
 10
129.8964416639
 20
106.6734458615
 11
140.7567709596
 21
106.6780419972
  0
LINE
  5
2B6
100
AcDbEntity
  8
0
100
AcDbLine
 62
253
  6
CONTINUOUS
 10
140.7567709596
 20
106.6780424693
 11
163.2532934762
 21
106.6780424693
  0
LINE
  5
2B7
100
AcDbEntity
  8
0
100
AcDbLine
 62
253
  6
CONTINUOUS
 10
163.2532934762
 20
106.6780419972
 11
174.0188050125
 21
106.6737105859
  0
LWPOLYLINE
  5
2B8
100
AcDbEntity
  8
0
100
AcDbPolyline
 62
253
  6
CONTINUOUS
 90
4
 70
0
 10
174.0188050125
 20
106.6737105859
 10
174.1265625741
 20
106.6733727816
 10
174.1348890605
 20
106.6732982762
 10
174.1385235089
 20
106.6732230596
  0
LINE
  5
2B9
100
AcDbEntity
  8
0
100
AcDbLine
 62
7
  6
CONTINUOUS
 10
171.5050322245
 20
106.1591969979
 11
171.6625118189
 21
106.1434886358
  0
LINE
  5
2BA
100
AcDbEntity
  8
0
100
AcDbLine
 62
7
  6
CONTINUOUS
 10
174.2882581245
 20
110.1234168399
 11
174.2280305049
 21
110.1234168399
  0
LINE
  5
2BB
100
AcDbEntity
  8
0
100
AcDbLine
 62
7
  6
CONTINUOUS
 10
129.7218063245
 20
110.1234168399
 11
129.7820339441
 21
110.1234168399
  0
LINE
  5
2BC
100
AcDbEntity
  8
0
100
AcDbLine
 62
253
  6
CONTINUOUS
 10
173.7279733649
 20
105.703345044
 11
173.6386948461
 21
105.6735915817
  0
LINE
  5
2BD
100
AcDbEntity
  8
0
100
AcDbLine
 62
253
  6
CONTINUOUS
 10
174.2280305049
 20
105.2034402262
 11
174.1385235088
 21
105.1736106203
  0
LINE
  5
2BE
100
AcDbEntity
  8
0
100
AcDbLine
 62
253
  6
CONTINUOUS
 10
173.6386948462
 20
106.1732420981
 11
173.7279733649
 21
106.1434886358
  0
LINE
  5
2BF
100
AcDbEntity
  8
0
100
AcDbLine
 62
253
  6
CONTINUOUS
 10
174.1385235088
 20
106.6732230596
 11
174.2280305049
 21
106.6433934536
  0
LINE
  5
2C0
100
AcDbEntity
  8
0
100
AcDbLine
 62
253
  6
CONTINUOUS
 10
173.6678696246
 20
127.9478064104
 11
173.7887719609
 21
128.1897770027
  0
LINE
  5
2C1
100
AcDbEntity
  8
0
100
AcDbLine
 62
253
  6
CONTINUOUS
 10
174.1676982871
 20
127.448491643
 11
174.2882581245
 21
127.6897767676
  0
LINE
  5
2C2
100
AcDbEntity
  8
0
100
AcDbLine
 62
253
  6
CONTINUOUS
 10
173.7887719609
 20
83.6570566771
 11
173.667869622
 21
83.8990272748
  0
LINE
  5
2C3
100
AcDbEntity
  8
0
100
AcDbLine
 62
253
  6
CONTINUOUS
 10
174.2882581245
 20
84.1570569122
 11
174.1676982845
 21
84.3983420421
  0
LINE
  5
2C4
100
AcDbEntity
  8
0
100
AcDbLine
 62
253
  6
CONTINUOUS
 10
163.2533032716
 20
105.6697154377
 11
163.2549936208
 21
83.9175029119
  0
LINE
  5
2C5
100
AcDbEntity
  8
0
100
AcDbLine
 62
253
  6
CONTINUOUS
 10
163.2533032716
 20
106.1771182421
 11
163.2549936208
 21
127.9293307679
  0
LWPOLYLINE
  5
2C6
100
AcDbEntity
  8
0
100
AcDbPolyline
 62
253
  6
CONTINUOUS
 90
10
 70
0
 10
174.1676982845
 20
84.3983420421
 10
174.1664045175
 20
84.4026945605
 10
174.1651325546
 20
84.4103883497
 10
174.163882396
 20
84.4214234098
 10
174.1626474918
 20
84.4358886529
 10
174.1614343919
 20
84.4536951668
 10
174.160262745
 20
84.4745762151
 10
174.1591337378
 20
84.4985765446
 10
174.1580461836
 20
84.5256514085
 10
174.1570161713
 20
84.5553998293
  0
LINE
  5
2C7
100
AcDbEntity
  8
0
100
AcDbLine
 62
7
  6
CONTINUOUS
 10
172.0984078975
 20
128.1897770027
 11
170.7127672515
 21
128.0639983325
  0
LWPOLYLINE
  5
2C8
100
AcDbEntity
  8
0
100
AcDbPolyline
 62
253
  6
CONTINUOUS
 90
14
 70
0
 10
130.2291304541
 20
126.7998746609
 10
130.1822930184
 20
126.7991686211
 10
130.1371749479
 20
126.7982693611
 10
130.0942137049
 20
126.7971856
 10
130.0538258391
 20
126.7959278458
 10
130.016402949
 20
126.7945082938
 10
129.9823078847
 20
126.7929407077
 10
129.9518712299
 20
126.7912402868
 10
129.9253880969
 20
126.7894235183
 10
129.9031152644
 20
126.7875080174
 10
129.8852686887
 20
126.7855123567
 10
129.8720214091
 20
126.7834558861
 10
129.8635018704
 20
126.781358545
 10
129.8597926776
 20
126.779240669
  0
LINE
  5
2C9
100
AcDbEntity
  8
0
100
AcDbLine
 62
253
  6
CONTINUOUS
 10
130.3261346212
 20
126.8006816365
 11
130.2291304541
 21
126.7998746609
  0
LINE
  5
2CA
100
AcDbEntity
  8
0
100
AcDbLine
 62
253
  6
CONTINUOUS
 10
173.6839298222
 20
126.8006816309
 11
168.1873401158
 21
126.7951529106
  0
LINE
  5
2CB
100
AcDbEntity
  8
0
100
AcDbLine
 62
253
  6
CONTINUOUS
 10
168.1873401158
 20
126.7951529106
 11
140.7550799509
 21
126.7935844618
  0
LINE
  5
2CC
100
AcDbEntity
  8
0
100
AcDbLine
 62
253
  6
CONTINUOUS
 10
140.7550799511
 20
126.793582873
 11
134.6797161917
 21
126.795984283
  0
LINE
  5
2CD
100
AcDbEntity
  8
0
100
AcDbLine
 62
253
  6
CONTINUOUS
 10
134.6797161917
 20
126.795984283
 11
130.3261346211
 21
126.8006816267
  0
LWPOLYLINE
  5
2CE
100
AcDbEntity
  8
0
100
AcDbPolyline
 62
253
  6
CONTINUOUS
 90
15
 70
0
 10
173.6839289323
 20
126.8006810933
 10
173.7809321902
 20
126.7998741438
 10
173.8277692318
 20
126.799168126
 10
173.8728869657
 20
126.7982688934
 10
173.9158479418
 20
126.7971851649
 10
173.9562356212
 20
126.7959274475
 10
173.9936584149
 20
126.7945079359
 10
174.0277534811
 20
126.7929403932
 10
174.0581902424
 20
126.791240018
 10
174.0846735915
 20
126.7894232967
 10
174.1069467527
 20
126.7875078437
 10
174.1247937708
 20
126.7855122308
 10
174.1380416057
 20
126.783455807
 10
174.1465618096
 20
126.7813585108
 10
174.1502717728
 20
126.7792406771
  0
LINE
  5
2CF
100
AcDbEntity
  8
0
100
AcDbLine
 62
7
  6
CONTINUOUS
 10
131.9116565516
 20
128.1897770027
 11
133.2972971976
 21
128.0639983325
  0
LWPOLYLINE
  5
2D0
100
AcDbEntity
  8
0
100
AcDbPolyline
 62
253
  6
CONTINUOUS
 90
8
 70
0
 10
173.6673046383
 20
105.5432986154
 10
173.6636666495
 20
105.5763979846
 10
173.6597369176
 20
105.6050411073
 10
173.6560883926
 20
105.628964079
 10
173.6518172118
 20
105.6480039066
 10
173.6469256873
 20
105.6619031643
 10
173.6423890247
 20
105.6704494412
 10
173.6386948463
 20
105.6735915818
  0
LWPOLYLINE
  5
2D1
100
AcDbEntity
  8
0
100
AcDbPolyline
 62
253
  6
CONTINUOUS
 90
16
 70
0
 10
174.1385235088
 20
105.1736106203
 10
174.1358379766
 20
105.2252565094
 10
174.1277978186
 20
105.2765204667
 10
174.1144362212
 20
105.32684196
 10
174.0958223104
 20
105.3757142022
 10
174.0721206922
 20
105.4225266584
 10
174.0436451033
 20
105.4665988129
 10
174.0107502704
 20
105.5073988746
 10
173.9737664408
 20
105.5445321202
 10
173.9330891928
 20
105.5775979395
 10
173.8891550854
 20
105.6062338715
 10
173.8424518613
 20
105.6301149765
 10
173.7935051399
 20
105.6489699539
 10
173.74285843
 20
105.6625901899
 10
173.6910649483
 20
105.6708276378
 10
173.6386948463
 20
105.6735915818
  0
LWPOLYLINE
  5
2D2
100
AcDbEntity
  8
0
100
AcDbPolyline
 62
253
  6
CONTINUOUS
 90
4
 70
0
 10
173.6776072818
 20
105.375036804
 10
173.6758070532
 20
105.4217487592
 10
173.6730937122
 20
105.4657199073
 10
173.6673046383
 20
105.5432986154
  0
LWPOLYLINE
  5
2D3
100
AcDbEntity
  8
0
100
AcDbPolyline
 62
253
  6
CONTINUOUS
 90
6
 70
0
 10
173.6732268298
 20
127.8528106358
 10
173.6721947704
 20
127.8832281989
 10
173.6711220788
 20
127.9080479193
 10
173.6700146917
 20
127.9271447505
 10
173.6689212475
 20
127.9404204569
 10
173.6678696246
 20
127.9478064104
  0
LINE
  5
2D4
100
AcDbEntity
  8
0
100
AcDbLine
 62
253
  6
CONTINUOUS
 10
174.1570161713
 20
84.5553998293
 11
174.1551304837
 21
84.6230006372
  0
LINE
  5
2D5
100
AcDbEntity
  8
0
100
AcDbLine
 62
253
  6
CONTINUOUS
 10
173.6752561167
 20
127.7758056442
 11
173.6732268298
 21
127.8528106358
  0
LINE
  5
2D6
100
AcDbEntity
  8
0
100
AcDbLine
 62
253
  6
CONTINUOUS
 10
174.1551304837
 20
84.6230006372
 11
174.1535166619
 21
84.6997475879
  0
LINE
  5
2D7
100
AcDbEntity
  8
0
100
AcDbLine
 62
253
  6
CONTINUOUS
 10
173.6771298009
 20
127.6785603
 11
173.6752561167
 21
127.7758056442
  0
LINE
  5
2D8
100
AcDbEntity
  8
0
100
AcDbLine
 62
253
  6
CONTINUOUS
 10
174.1535166619
 20
84.6997475879
 11
174.1521983472
 21
84.7844998058
  0
LINE
  5
2D9
100
AcDbEntity
  8
0
100
AcDbLine
 62
253
  6
CONTINUOUS
 10
173.6796290855
 20
127.4990884545
 11
173.6771298009
 21
127.6785603
  0
LINE
  5
2DA
100
AcDbEntity
  8
0
100
AcDbLine
 62
253
  6
CONTINUOUS
 10
174.1521983472
 20
84.7844998058
 11
174.1508398675
 21
84.9225082864
  0
LINE
  5
2DB
100
AcDbEntity
  8
0
100
AcDbLine
 62
253
  6
CONTINUOUS
 10
173.6822023335
 20
127.2099004956
 11
173.6796290855
 21
127.4990884545
  0
LWPOLYLINE
  5
2DC
100
AcDbEntity
  8
0
100
AcDbPolyline
 62
253
  6
CONTINUOUS
 90
3
 70
0
 10
173.6813465329
 20
106.6739926514
 10
173.6815715487
 20
106.6210038446
 10
173.6807192303
 20
106.5697531056
  0
LINE
  5
2DD
100
AcDbEntity
  8
0
100
AcDbLine
 62
253
  6
CONTINUOUS
 10
173.683929789
 20
126.8006816255
 11
173.6822023335
 21
127.2099004956
  0
LINE
  5
2DE
100
AcDbEntity
  8
0
100
AcDbLine
 62
253
  6
CONTINUOUS
 10
174.1508398675
 20
84.9225082864
 11
174.1502717715
 21
85.0675930109
  0
LINE
  5
2DF
100
AcDbEntity
  8
0
100
AcDbLine
 62
253
  6
CONTINUOUS
 10
174.1502717715
 20
85.0675930109
 11
174.1426743893
 21
93.5044754573
  0
LINE
  5
2E0
100
AcDbEntity
  8
0
100
AcDbLine
 62
253
  6
CONTINUOUS
 10
174.1426743893
 20
93.5044754573
 11
174.1389967355
 21
101.7163530743
  0
LINE
  5
2E1
100
AcDbEntity
  8
0
100
AcDbLine
 62
253
  6
CONTINUOUS
 10
174.1389967355
 20
101.7163530743
 11
174.1385235088
 21
105.1736106203
  0
LINE
  5
2E2
100
AcDbEntity
  8
0
100
AcDbLine
 62
7
  6
CONTINUOUS
 10
174.2280305049
 20
105.2034402262
 11
174.2280305049
 21
101.7234168399
  0
LINE
  5
2E3
100
AcDbEntity
  8
0
100
AcDbLine
 62
7
  6
CONTINUOUS
 10
174.2280305049
 20
106.6433934536
 11
174.2280305049
 21
110.1234168399
  0
LINE
  5
2E4
100
AcDbEntity
  8
0
100
AcDbLine
 62
7
  6
CONTINUOUS
 10
174.2882581245
 20
127.6897767676
 11
174.2882581245
 21
110.1234168399
  0
LINE
  5
2E5
100
AcDbEntity
  8
0
100
AcDbLine
 62
7
  6
CONTINUOUS
 10
174.2882581245
 20
84.1570569122
 11
174.2882581245
 21
101.7234168399
  0
LINE
  5
2E6
100
AcDbEntity
  8
0
100
AcDbLine
 62
253
  6
CONTINUOUS
 10
173.6813464943
 20
106.6739926459
 11
173.6839298222
 21
126.8006816309
  0
LINE
  5
2E7
100
AcDbEntity
  8
0
100
AcDbLine
 62
253
  6
CONTINUOUS
 10
174.1385235088
 20
106.6732230596
 11
174.141961304
 21
117.2564733352
  0
LINE
  5
2E8
100
AcDbEntity
  8
0
100
AcDbLine
 62
253
  6
CONTINUOUS
 10
173.6834564065
 20
84.8788096878
 11
173.6813464942
 21
105.1728410453
  0
LINE
  5
2E9
100
AcDbEntity
  8
0
100
AcDbLine
 62
253
  6
CONTINUOUS
 10
174.141961304
 20
117.2564733352
 11
174.1505626842
 21
126.8767500746
  0
LWPOLYLINE
  5
2EA
100
AcDbEntity
  8
0
100
AcDbPolyline
 62
253
  6
CONTINUOUS
 90
4
 70
0
 10
173.6813465329
 20
105.172841051
 10
173.6815714193
 20
105.225827857
 10
173.6807191821
 20
105.2770769191
 10
173.6776072818
 20
105.375036804
  0
LINE
  5
2EB
100
AcDbEntity
  8
0
100
AcDbLine
 62
253
  6
CONTINUOUS
 10
173.6810312045
 20
84.48634235
 11
173.6834564065
 21
84.8788096878
  0
LINE
  5
2EC
100
AcDbEntity
  8
0
100
AcDbLine
 62
253
  6
CONTINUOUS
 10
174.1505626842
 20
126.8767500746
 11
174.151662128
 21
127.0176149239
  0
LINE
  5
2ED
100
AcDbEntity
  8
0
100
AcDbLine
 62
253
  6
CONTINUOUS
 10
173.6788411917
 20
84.28381523
 11
173.6810312045
 21
84.48634235
  0
LINE
  5
2EE
100
AcDbEntity
  8
0
100
AcDbLine
 62
253
  6
CONTINUOUS
 10
174.151662128
 20
127.0176149239
 11
174.1528169159
 21
127.1054763299
  0
LINE
  5
2EF
100
AcDbEntity
  8
0
100
AcDbLine
 62
253
  6
CONTINUOUS
 10
173.6771298198
 20
84.1682733863
 11
173.6788411917
 21
84.28381523
  0
LINE
  5
2F0
100
AcDbEntity
  8
0
100
AcDbLine
 62
253
  6
CONTINUOUS
 10
174.1528169159
 20
127.1054763299
 11
174.1542874769
 21
127.1865482307
  0
LINE
  5
2F1
100
AcDbEntity
  8
0
100
AcDbLine
 62
253
  6
CONTINUOUS
 10
173.6752561319
 20
84.0710280411
 11
173.6771298198
 21
84.1682733863
  0
LWPOLYLINE
  5
2F2
100
AcDbEntity
  8
0
100
AcDbPolyline
 62
253
  6
CONTINUOUS
 90
12
 70
0
 10
174.1542874769
 20
127.1865482307
 10
174.1560445594
 20
127.2589702313
 10
174.1570161741
 20
127.2914338567
 10
174.1580461864
 20
127.3211822773
 10
174.1591337405
 20
127.3482571411
 10
174.1602627477
 20
127.3722574705
 10
174.1614343946
 20
127.3931385187
 10
174.1626474946
 20
127.4109450327
 10
174.1638823987
 20
127.4254102757
 10
174.1651325573
 20
127.4364453357
 10
174.1664045201
 20
127.4441391248
 10
174.1676982871
 20
127.448491643
  0
LWPOLYLINE
  5
2F3
100
AcDbEntity
  8
0
100
AcDbPolyline
 62
253
  6
CONTINUOUS
 90
4
 70
0
 10
173.6807192303
 20
106.5697531056
 10
173.6776070317
 20
106.4717908791
 10
173.675806764
 20
106.4250782639
 10
173.6730932856
 20
106.3811068977
  0
LWPOLYLINE
  5
2F4
100
AcDbEntity
  8
0
100
AcDbPolyline
 62
253
  6
CONTINUOUS
 90
16
 70
0
 10
174.1385235088
 20
106.6732230596
 10
174.1358379717
 20
106.6215771226
 10
174.127797801
 20
106.5703131296
 10
174.1144361869
 20
106.5199916135
 10
174.0958222596
 20
106.4711193625
 10
174.0721206279
 20
106.4243069095
 10
174.0436450297
 20
106.3802347652
 10
174.0107501943
 20
106.3394347204
 10
173.9737663697
 20
106.3023014955
 10
173.933089129
 20
106.2692356938
 10
173.8891550271
 20
106.2405997745
 10
173.842451809
 20
106.2167186799
 10
173.7935050964
 20
106.1978637117
 10
173.7428583988
 20
106.1842434833
 10
173.6910649318
 20
106.1760060403
 10
173.6386948464
 20
106.173242098
  0
LWPOLYLINE
  5
2F5
100
AcDbEntity
  8
0
100
AcDbPolyline
 62
253
  6
CONTINUOUS
 90
9
 70
0
 10
173.6730932856
 20
106.3811068977
 10
173.6673040633
 20
106.3035291249
 10
173.6636660653
 20
106.2704306825
 10
173.6597363113
 20
106.2417886747
 10
173.6560878487
 20
106.2178668819
 10
173.6518167884
 20
106.1988281227
 10
173.6469254106
 20
106.1849297204
 10
173.6423889025
 20
106.1763840195
 10
173.6386948463
 20
106.173242098
  0
LINE
  5
2F6
100
AcDbEntity
  8
0
100
AcDbLine
 62
7
  6
CONTINUOUS
 10
159.4550322245
 20
128.1373692235
 11
160.0323824937
 21
128.1897770027
  0
LINE
  5
2F7
100
AcDbEntity
  8
0
100
AcDbLine
 62
7
  6
CONTINUOUS
 10
148.1550322245
 20
128.1373692235
 11
148.7323824937
 21
128.1897770027
  0
LINE
  5
2F8
100
AcDbEntity
  8
0
100
AcDbLine
 62
7
  6
CONTINUOUS
 10
138.3984078975
 20
128.1897770027
 11
137.0127672515
 21
128.0639983325
  0
LWPOLYLINE
  5
2F9
100
AcDbEntity
  8
0
100
AcDbPolyline
 62
253
  6
CONTINUOUS
 90
16
 70
0
 10
130.3421948271
 20
127.9478064051
 10
130.2899932007
 20
127.9450043598
 10
130.2383625891
 20
127.9367717704
 10
130.1878676924
 20
127.9231987001
 10
130.1390607706
 20
127.9044336157
 10
130.0924756491
 20
127.8806817797
 10
130.0486218723
 20
127.8522030195
 10
130.007979068
 20
127.8193088509
 10
129.9709917234
 20
127.7823590666
 10
129.9380643598
 20
127.7417578314
 10
129.9095570802
 20
127.6979492401
 10
129.8857816279
 20
127.6514124431
 10
129.8669979936
 20
127.6026564181
 10
129.853411577
 20
127.5522144151
 10
129.8451709374
 20
127.500638126
 10
129.8423661646
 20
127.4484916377
  0
LINE
  5
2FA
100
AcDbEntity
  8
0
100
AcDbLine
 62
253
  6
CONTINUOUS
 10
173.6678696246
 20
127.9478064104
 11
170.4133985673
 21
127.9380594817
  0
LINE
  5
2FB
100
AcDbEntity
  8
0
100
AcDbLine
 62
253
  6
CONTINUOUS
 10
170.4133985673
 20
127.9380594817
 11
167.0138498748
 21
127.9317372658
  0
LINE
  5
2FC
100
AcDbEntity
  8
0
100
AcDbLine
 62
253
  6
CONTINUOUS
 10
167.0138498748
 20
127.9317372658
 11
163.2549936208
 21
127.9293307679
  0
LINE
  5
2FD
100
AcDbEntity
  8
0
100
AcDbLine
 62
7
  6
CONTINUOUS
 10
136.8395621707
 20
128.0587575545
 11
133.4705022784
 21
128.0587575545
  0
LINE
  5
2FE
100
AcDbEntity
  8
0
100
AcDbLine
 62
7
  6
CONTINUOUS
 10
167.1705022784
 20
128.0587575545
 11
170.5395621707
 21
128.0587575545
  0
LINE
  5
2FF
100
AcDbEntity
  8
0
100
AcDbLine
 62
7
  6
CONTINUOUS
 10
148.1550322245
 20
128.1373692235
 11
144.5550322245
 21
128.1373692235
  0
LINE
  5
300
100
AcDbEntity
  8
0
100
AcDbLine
 62
7
  6
CONTINUOUS
 10
155.8550322245
 20
128.1373692235
 11
159.4550322245
 21
128.1373692235
  0
LINE
  5
301
100
AcDbEntity
  8
0
100
AcDbLine
 62
7
  6
CONTINUOUS
 10
173.7887719609
 20
128.1897770027
 11
172.0984078975
 21
128.1897770027
  0
LINE
  5
302
100
AcDbEntity
  8
0
100
AcDbLine
 62
7
  6
CONTINUOUS
 10
165.6116565516
 20
128.1897770027
 11
160.0323824937
 21
128.1897770027
  0
LINE
  5
303
100
AcDbEntity
  8
0
100
AcDbLine
 62
7
  6
CONTINUOUS
 10
155.2776819553
 20
128.1897770027
 11
148.7323824937
 21
128.1897770027
  0
LINE
  5
304
100
AcDbEntity
  8
0
100
AcDbLine
 62
7
  6
CONTINUOUS
 10
143.9776819553
 20
128.1897770027
 11
138.3984078975
 21
128.1897770027
  0
LINE
  5
305
100
AcDbEntity
  8
0
100
AcDbLine
 62
7
  6
CONTINUOUS
 10
131.9116565516
 20
128.1897770027
 11
130.2212924882
 21
128.1897770027
  0
LINE
  5
306
100
AcDbEntity
  8
0
100
AcDbLine
 62
253
  6
CONTINUOUS
 10
163.2549936208
 20
127.9293307679
 11
138.0840884104
 21
127.9305459338
  0
LINE
  5
307
100
AcDbEntity
  8
0
100
AcDbLine
 62
253
  6
CONTINUOUS
 10
138.0840884104
 20
127.9305459338
 11
134.6930646592
 21
127.9355828525
  0
LWPOLYLINE
  5
308
100
AcDbEntity
  8
0
100
AcDbPolyline
 62
253
  6
CONTINUOUS
 90
3
 70
0
 10
134.6930646592
 20
127.9355828525
 10
131.2401732055
 20
127.9447751164
 10
130.3421948271
 20
127.9478064051
  0
LWPOLYLINE
  5
309
100
AcDbEntity
  8
0
100
AcDbPolyline
 62
253
  6
CONTINUOUS
 90
16
 70
0
 10
173.6678696246
 20
127.9478064104
 10
173.7200705947
 20
127.9450044352
 10
173.7717006362
 20
127.9367720381
 10
173.8221950651
 20
127.9231992578
 10
173.8710016176
 20
127.9044345417
 10
173.9175864903
 20
127.8806831216
 10
173.9614401787
 20
127.8522047698
 10
174.0020830496
 20
127.8193109576
 10
174.0390705869
 20
127.7823614487
 10
174.0719982534
 20
127.7417603644
 10
174.100505915
 20
127.6979517638
 10
174.12428178
 20
127.651414787
 10
174.1430658088
 20
127.6026584147
 10
174.1566525582
 20
127.5522159013
 10
174.1648934281
 20
127.5006389429
 10
174.1676982871
 20
127.448491643
  0
LINE
  5
30A
100
AcDbEntity
  8
0
100
AcDbLine
 62
7
  6
CONTINUOUS
 10
144.5550322245
 20
128.1373692235
 11
143.9776819553
 21
128.1897770027
  0
LINE
  5
30B
100
AcDbEntity
  8
0
100
AcDbLine
 62
7
  6
CONTINUOUS
 10
155.8550322245
 20
128.1373692235
 11
155.2776819553
 21
128.1897770027
  0
LINE
  5
30C
100
AcDbEntity
  8
0
100
AcDbLine
 62
7
  6
CONTINUOUS
 10
165.6116565516
 20
128.1897770027
 11
166.9972971976
 21
128.0639983325
  0
LWPOLYLINE
  5
30D
100
AcDbEntity
  8
0
100
AcDbPolyline
 62
253
  6
CONTINUOUS
 90
7
 70
0
 10
173.667869622
 20
83.8990272748
 10
173.6689212479
 20
83.9064132279
 10
173.6700146949
 20
83.9196889337
 10
173.6711220847
 20
83.9387857643
 10
173.6721947788
 20
83.9636054846
 10
173.6732268405
 20
83.9940230483
 10
173.6752561319
 20
84.0710280411
  0
LINE
  5
30E
100
AcDbEntity
  8
0
100
AcDbLine
 62
7
  6
CONTINUOUS
 10
118.727768711
 20
83.6570566771
 11
113.7581585044
 21
83.9175029119
  0
LINE
  5
30F
100
AcDbEntity
  8
0
100
AcDbLine
 62
253
  6
CONTINUOUS
 10
118.727768711
 20
84.1570569122
 11
114.1237741662
 21
84.3983420421
  0
LWPOLYLINE
  5
310
100
AcDbEntity
  8
0
100
AcDbPolyline
 62
253
  6
CONTINUOUS
 90
22
 70
0
 10
114.1106946622
 20
83.8990272748
 10
114.0264863649
 20
83.9064132279
 10
113.9430231791
 20
83.9196889337
 10
113.8607159113
 20
83.9387857643
 10
113.7799706821
 20
83.9636054846
 10
113.7011827147
 20
83.9940230483
 10
113.6247351299
 20
84.0298891798
 10
113.550999838
 20
84.0710280411
 10
113.4803432384
 20
84.1172336158
 10
113.413120107
 20
84.1682733863
 10
113.3496613537
 20
84.2238922963
 10
113.2902758295
 20
84.28381523
 10
113.2352567657
 20
84.3477452343
 10
113.1848728902
 20
84.4153660091
 10
113.1393702462
 20
84.48634235
 10
113.0989736328
 20
84.5603219759
 10
113.0638820799
 20
84.6369331977
 10
113.0342622074
 20
84.7158029547
 10
113.0102543823
 20
84.7965590227
 10
112.9919772276
 20
84.8788096878
 10
112.979523122
 20
84.962144237
 10
112.9729545457
 20
85.0461520539
  0
LWPOLYLINE
  5
311
100
AcDbEntity
  8
0
100
AcDbPolyline
 62
253
  6
CONTINUOUS
 90
22
 70
0
 10
114.1237741662
 20
84.3983420421
 10
114.0743671978
 20
84.4026945605
 10
114.0257928968
 20
84.4103883497
 10
113.9780512634
 20
84.4214234098
 10
113.9308921772
 20
84.4358886529
 10
113.8845657586
 20
84.4536951668
 10
113.8398223677
 20
84.4745762151
 10
113.7967073228
 20
84.4985765446
 10
113.7551753057
 20
84.5256514085
 10
113.7158407223
 20
84.5553998293
 10
113.6787362524
 20
84.5878634548
 10
113.6438292163
 20
84.6230006372
 10
113.6116359807
 20
84.6602854555
 10
113.58219985
 20
84.6997475879
 10
113.5554775198
 20
84.7413573563
 10
113.5318554437
 20
84.7844998058
 10
113.5113779489
 20
84.8292187621
 10
113.4940007082
 20
84.8754703996
 10
113.4799771941
 20
84.9225082864
 10
113.4693918974
 20
84.9700836119
 10
113.4621603274
 20
85.0184451867
 10
113.4582824839
 20
85.0675930109
  0
LINE
  5
312
100
AcDbEntity
  8
0
100
AcDbLine
 62
253
  6
CONTINUOUS
 10
112.9729545367
 20
85.0461520433
 11
112.9786587826
 21
85.0464530452
  0
LINE
  5
313
100
AcDbEntity
  8
0
100
AcDbLine
 62
253
  6
CONTINUOUS
 10
112.9786587826
 20
85.0464530452
 11
113.1822414726
 21
85.055593393
  0
LINE
  5
314
100
AcDbEntity
  8
0
100
AcDbLine
 62
253
  6
CONTINUOUS
 10
113.1822414726
 20
85.055593393
 11
113.4582824839
 21
85.0675930109
  0
LINE
  5
315
100
AcDbEntity
  8
0
100
AcDbLine
 62
253
  6
CONTINUOUS
 10
112.6225974075
 20
85.0532508068
 11
112.9729545349
 21
85.0461520531
  0
LINE
  5
316
100
AcDbEntity
  8
0
100
AcDbLine
 62
7
  6
CONTINUOUS
 10
118.727768711
 20
92.7234168399
 11
121.727768711
 21
92.7495974433
  0
LWPOLYLINE
  5
317
100
AcDbEntity
  8
0
100
AcDbPolyline
 62
253
  6
CONTINUOUS
 90
11
 70
0
 10
114.1106947636
 20
127.9478064104
 10
114.1094746796
 20
127.9450044352
 10
114.1085541419
 20
127.9367720381
 10
114.1079432185
 20
127.9231992578
 10
114.107648591
 20
127.9044345417
 10
114.107673482
 20
127.8806831216
 10
114.1080176196
 20
127.8522047698
 10
114.1086772399
 20
127.8193109576
 10
114.1096451285
 20
127.7823614487
 10
114.1109106996
 20
127.7417603644
 10
114.1142764179
 20
127.651414787
  0
LWPOLYLINE
  5
318
100
AcDbEntity
  8
0
100
AcDbPolyline
 62
253
  6
CONTINUOUS
 90
9
 70
0
 10
114.1106946622
 20
83.8990272748
 10
114.1094745602
 20
83.90182932
 10
114.1085540138
 20
83.9100619094
 10
114.1079430902
 20
83.9236349797
 10
114.1076484697
 20
83.9424000641
 10
114.107673374
 20
83.9661519001
 10
114.1080175293
 20
83.9946306603
 10
114.1086771694
 20
84.0275248289
 10
114.1096450776
 20
84.0644746133
  0
LINE
  5
319
100
AcDbEntity
  8
0
100
AcDbLine
 62
7
  6
CONTINUOUS
 10
118.727768711
 20
96.9234168399
 11
121.727768711
 21
96.8972362365
  0
LWPOLYLINE
  5
31A
100
AcDbEntity
  8
0
100
AcDbPolyline
 62
253
  6
CONTINUOUS
 90
16
 70
0
 10
112.5245459907
 20
106.6739926514
 10
112.5273092006
 20
106.6210038446
 10
112.535354547
 20
106.5697531056
 10
112.548464602
 20
106.5201227528
 10
112.5667504109
 20
106.4717908791
 10
112.5902337572
 20
106.4250782639
 10
112.6183902542
 20
106.3811068977
 10
112.6507680421
 20
106.3405659189
 10
112.6873009245
 20
106.3035291249
 10
112.7275369684
 20
106.2704306825
 10
112.7708863974
 20
106.2417886747
 10
112.8169360408
 20
106.2178668819
 10
112.865314972
 20
106.1988281227
 10
112.9154761243
 20
106.1849297204
 10
112.9667111041
 20
106.1763840195
 10
113.0183596407
 20
106.173242098
  0
LWPOLYLINE
  5
31B
100
AcDbEntity
  8
0
100
AcDbPolyline
 62
253
  6
CONTINUOUS
 90
13
 70
0
 10
112.9729545349
 20
85.0461520531
 10
112.900837981
 20
86.7953541945
 10
112.836047538
 20
88.5163973321
 10
112.7782815034
 20
90.2092476052
 10
112.7275110783
 20
91.8646188049
 10
112.68311419
 20
93.4917346015
 10
112.6441864777
 20
95.1183371614
 10
112.6107223071
 20
96.7443636782
 10
112.5827143854
 20
98.3698392172
 10
112.5598166078
 20
100.0226506188
 10
112.5422265559
 20
101.7120844126
 10
112.5303733576
 20
103.4288212135
 10
112.5245459724
 20
105.1728410453
  0
LWPOLYLINE
  5
31C
100
AcDbEntity
  8
0
100
AcDbPolyline
 62
253
  6
CONTINUOUS
 90
13
 70
0
 10
113.4582824839
 20
85.0675930109
 10
113.3866311686
 20
86.8150712683
 10
113.3217119423
 20
88.5343442675
 10
113.263524805
 20
90.2254120084
 10
113.2124714403
 20
91.879046362
 10
113.1681501645
 20
93.5044754573
 10
113.1293559272
 20
95.1293836814
 10
113.0957097771
 20
96.753727048
 10
113.0675906654
 20
98.3775495434
 10
113.0449303949
 20
100.0286675137
 10
113.0277062333
 20
101.7163530743
 10
113.0159409129
 20
103.4313341098
 10
113.0090172152
 20
105.2765204667
  0
LWPOLYLINE
  5
31D
100
AcDbEntity
  8
0
100
AcDbPolyline
 62
253
  6
CONTINUOUS
 90
10
 70
0
 10
112.5245459724
 20
106.6739926459
 10
112.5320991813
 20
108.73406817
 10
112.5487195023
 20
110.8266619459
 10
112.5748275643
 20
112.9517306537
 10
112.610556155
 20
115.0936787283
 10
112.656493274
 20
117.268006455
 10
112.7143805358
 20
119.5212946595
 10
112.7858300747
 20
121.8690070641
 10
112.8716260926
 20
124.295504498
 10
112.9729545347
 20
126.8006816309
  0
LWPOLYLINE
  5
31E
100
AcDbEntity
  8
0
100
AcDbPolyline
 62
253
  6
CONTINUOUS
 90
16
 70
0
 10
112.5245459902
 20
105.172841051
 10
112.5273089803
 20
105.225827857
 10
112.5353537663
 20
105.2770769191
 10
112.5484630028
 20
105.3267059377
 10
112.5667477827
 20
105.375036804
 10
112.5902299622
 20
105.4217487592
 10
112.6183853232
 20
105.4657199073
 10
112.6507621844
 20
105.5062611582
 10
112.6872944266
 20
105.5432986154
 10
112.7275301773
 20
105.5763979846
 10
112.77087977
 20
105.6050411073
 10
112.8169300699
 20
105.628964079
 10
112.8653100322
 20
105.6480039066
 10
112.9154725245
 20
105.6619031643
 10
112.9667091681
 20
105.6704494412
 10
113.0183596402
 20
105.6735915818
  0
LWPOLYLINE
  5
31F
100
AcDbEntity
  8
0
100
AcDbPolyline
 62
253
  6
CONTINUOUS
 90
22
 70
0
 10
112.9729546511
 20
126.8006816255
 10
112.9795232278
 20
126.8846894507
 10
112.9919773344
 20
126.9680240056
 10
113.0102544904
 20
127.0502746738
 10
113.034262316
 20
127.1310307413
 10
113.0638821882
 20
127.2099004956
 10
113.0989737405
 20
127.2865117151
 10
113.1393703537
 20
127.3604913401
 10
113.1848729976
 20
127.4314676803
 10
113.2352568729
 20
127.4990884545
 10
113.2902759361
 20
127.5630184579
 10
113.3496614596
 20
127.6229413908
 10
113.413120212
 20
127.6785603
 10
113.4803433426
 20
127.72960007
 10
113.5509999413
 20
127.7758056442
 10
113.6247352321
 20
127.816944505
 10
113.7011828149
 20
127.8528106358
 10
113.7799707799
 20
127.8832281989
 10
113.8607160079
 20
127.9080479193
 10
113.9430232761
 20
127.9271447505
 10
114.0264864635
 20
127.9404204569
 10
114.1106947636
 20
127.9478064104
  0
LWPOLYLINE
  5
320
100
AcDbEntity
  8
0
100
AcDbPolyline
 62
253
  6
CONTINUOUS
 90
22
 70
0
 10
113.4582825379
 20
126.7792406771
 10
113.462160405
 20
126.8283885004
 10
113.4693919928
 20
126.8767500746
 10
113.4799773013
 20
126.9243253997
 10
113.4940008194
 20
126.9713632864
 10
113.5113780581
 20
127.0176149239
 10
113.531855551
 20
127.0623338803
 10
113.555477627
 20
127.1054763299
 10
113.582199957
 20
127.1470860983
 10
113.6116360875
 20
127.1865482307
 10
113.6438293228
 20
127.223833049
 10
113.6787363587
 20
127.2589702313
 10
113.7158408283
 20
127.2914338567
 10
113.7551754113
 20
127.3211822773
 10
113.796707428
 20
127.3482571411
 10
113.8398224725
 20
127.3722574705
 10
113.8845658629
 20
127.3931385187
 10
113.930892281
 20
127.4109450327
 10
113.9780513666
 20
127.4254102757
 10
114.0257929995
 20
127.4364453357
 10
114.0743672998
 20
127.4441391248
 10
114.1237742676
 20
127.448491643
  0
LWPOLYLINE
  5
321
100
AcDbEntity
  8
0
100
AcDbPolyline
 62
253
  6
CONTINUOUS
 90
9
 70
0
 10
113.0100673696
 20
106.3394347204
 10
113.0107117684
 20
106.3023014955
 10
113.0114883785
 20
106.2692356938
 10
113.0123889316
 20
106.2405997745
 10
113.0134034913
 20
106.2167186799
 10
113.0145206612
 20
106.1978637117
 10
113.0157280297
 20
106.1842434833
 10
113.0170124023
 20
106.1760060403
 10
113.0183596407
 20
106.173242098
  0
LINE
  5
322
100
AcDbEntity
  8
0
100
AcDbLine
 62
253
  6
CONTINUOUS
 10
113.0092009966
 20
106.4243069095
 11
113.0100673696
 21
106.3394347204
  0
LINE
  5
323
100
AcDbEntity
  8
0
100
AcDbLine
 62
253
  6
CONTINUOUS
 10
113.0089279525
 20
106.5199916135
 11
113.0092009966
 21
106.4243069095
  0
LINE
  5
324
100
AcDbEntity
  8
0
100
AcDbLine
 62
253
  6
CONTINUOUS
 10
113.0090172152
 20
105.2765204667
 11
113.0089888728
 21
105.3757142022
  0
LINE
  5
325
100
AcDbEntity
  8
0
100
AcDbLine
 62
253
  6
CONTINUOUS
 10
113.0164823762
 20
108.7313025644
 11
113.0089279525
 21
106.5199916135
  0
LWPOLYLINE
  5
326
100
AcDbEntity
  8
0
100
AcDbPolyline
 62
253
  6
CONTINUOUS
 90
9
 70
0
 10
113.0164823762
 20
108.7313025644
 10
113.0332549726
 20
110.8217610998
 10
113.0599522236
 20
112.9445986657
 10
113.0954730527
 20
115.0843464852
 10
113.1409185363
 20
117.2564733352
 10
113.1995919037
 20
119.5073855464
 10
113.2725942313
 20
121.8525518955
 10
113.3588244427
 20
124.2765036058
 10
113.4582825379
 20
126.7792406771
  0
LWPOLYLINE
  5
327
100
AcDbEntity
  8
0
100
AcDbPolyline
 62
253
  6
CONTINUOUS
 90
11
 70
0
 10
113.0089888728
 20
105.3757142022
 10
113.0095620431
 20
105.4665988129
 10
113.0100673678
 20
105.5073988746
 10
113.0107117666
 20
105.5445321202
 10
113.0114883768
 20
105.5775979395
 10
113.0123889298
 20
105.6062338715
 10
113.0134034896
 20
105.6301149765
 10
113.0145206597
 20
105.6489699539
 10
113.0157280285
 20
105.6625901899
 10
113.0170124014
 20
105.6708276378
 10
113.0183596402
 20
105.6735915818
  0
LINE
  5
328
100
AcDbEntity
  8
0
100
AcDbLine
 62
7
  6
CONTINUOUS
 10
118.727768711
 20
101.7234168399
 11
116.427768711
 21
101.7234168399
  0
LINE
  5
329
100
AcDbEntity
  8
0
100
AcDbLine
 62
253
  6
CONTINUOUS
 10
114.1186275523
 20
127.5522159013
 11
114.1237742676
 21
127.448491643
  0
LINE
  5
32A
100
AcDbEntity
  8
0
100
AcDbLine
 62
253
  6
CONTINUOUS
 10
114.1142764179
 20
127.651414787
 11
114.1186275523
 21
127.5522159013
  0
LINE
  5
32B
100
AcDbEntity
  8
0
100
AcDbLine
 62
253
  6
CONTINUOUS
 10
114.1096450776
 20
84.0644746133
 11
114.1124600881
 21
84.1488844398
  0
LINE
  5
32C
100
AcDbEntity
  8
0
100
AcDbLine
 62
253
  6
CONTINUOUS
 10
114.1124600881
 20
84.1488844398
 11
114.1163397287
 21
84.2441772617
  0
LWPOLYLINE
  5
32D
100
AcDbEntity
  8
0
100
AcDbPolyline
 62
253
  6
CONTINUOUS
 90
3
 70
0
 10
114.1163397287
 20
84.2441772617
 10
114.1211147259
 20
84.3461955539
 10
114.1237741662
 20
84.3983420421
  0
LINE
  5
32E
100
AcDbEntity
  8
0
100
AcDbLine
 62
7
  6
CONTINUOUS
 10
116.427768711
 20
105.703345044
 11
116.427768711
 21
101.7234168399
  0
LINE
  5
32F
100
AcDbEntity
  8
0
100
AcDbLine
 62
7
  6
CONTINUOUS
 10
116.427768711
 20
106.1434886358
 11
116.427768711
 21
110.1234168399
  0
LINE
  5
330
100
AcDbEntity
  8
0
100
AcDbLine
 62
253
  6
CONTINUOUS
 10
112.5245459724
 20
105.1728410453
 11
112.0786443686
 21
105.1687916826
  0
LINE
  5
331
100
AcDbEntity
  8
0
100
AcDbLine
 62
253
  6
CONTINUOUS
 10
116.427768711
 20
105.2034402262
 11
113.0096344338
 21
105.1736106203
  0
LINE
  5
332
100
AcDbEntity
  8
0
100
AcDbLine
 62
7
  6
CONTINUOUS
 10
116.427768711
 20
105.703345044
 11
112.5741982955
 21
105.6697154445
  0
LINE
  5
333
100
AcDbEntity
  8
0
100
AcDbLine
 62
253
  6
CONTINUOUS
 10
113.009634435
 20
105.1736106203
 11
112.5245459902
 21
105.172841051
  0
LINE
  5
334
100
AcDbEntity
  8
0
100
AcDbLine
 62
7
  6
CONTINUOUS
 10
118.727768711
 20
128.1897770027
 11
118.727768711
 21
110.1234168399
  0
LINE
  5
335
100
AcDbEntity
  8
0
100
AcDbLine
 62
7
  6
CONTINUOUS
 10
118.727768711
 20
83.6570566771
 11
118.727768711
 21
101.7234168399
  0
LINE
  5
336
100
AcDbEntity
  8
0
100
AcDbLine
 62
253
  6
CONTINUOUS
 10
112.5245459907
 20
106.6739926514
 11
113.0096344355
 21
106.6732230596
  0
LINE
  5
337
100
AcDbEntity
  8
0
100
AcDbLine
 62
7
  6
CONTINUOUS
 10
112.5741982955
 20
106.1771182354
 11
116.427768711
 21
106.1434886358
  0
LINE
  5
338
100
AcDbEntity
  8
0
100
AcDbLine
 62
253
  6
CONTINUOUS
 10
113.0096344343
 20
106.6732230596
 11
116.427768711
 21
106.6433934536
  0
LINE
  5
339
100
AcDbEntity
  8
0
100
AcDbLine
 62
253
  6
CONTINUOUS
 10
112.0786443686
 20
106.6780419972
 11
112.5245459724
 21
106.6739926459
  0
LINE
  5
33A
100
AcDbEntity
  8
0
100
AcDbLine
 62
253
  6
CONTINUOUS
 10
121.1591702848
 20
119.1021983198
 11
121.1591702848
 21
114.94463536
  0
LINE
  5
33B
100
AcDbEntity
  8
0
100
AcDbLine
 62
253
  6
CONTINUOUS
 10
121.1591702848
 20
96.9021983198
 11
121.1591702848
 21
92.74463536
  0
LINE
  5
33C
100
AcDbEntity
  8
0
100
AcDbLine
 62
7
  6
CONTINUOUS
 10
121.727768711
 20
119.0972362365
 11
121.727768711
 21
114.9495974433
  0
LINE
  5
33D
100
AcDbEntity
  8
0
100
AcDbLine
 62
7
  6
CONTINUOUS
 10
121.727768711
 20
96.8972362365
 11
121.727768711
 21
92.7495974433
  0
LINE
  5
33E
100
AcDbEntity
  8
0
100
AcDbLine
 62
7
  6
CONTINUOUS
 10
118.727768711
 20
110.1234168399
 11
116.427768711
 21
110.1234168399
  0
LINE
  5
33F
100
AcDbEntity
  8
0
100
AcDbLine
 62
7
  6
CONTINUOUS
 10
118.727768711
 20
114.9234168399
 11
121.727768711
 21
114.9495974433
  0
LINE
  5
340
100
AcDbEntity
  8
0
100
AcDbLine
 62
7
  6
CONTINUOUS
 10
118.727768711
 20
119.1234168399
 11
121.727768711
 21
119.0972362365
  0
LINE
  5
341
100
AcDbEntity
  8
0
100
AcDbLine
 62
253
  6
CONTINUOUS
 10
114.1237742676
 20
127.448491643
 11
118.727768711
 21
127.6897767676
  0
LINE
  5
342
100
AcDbEntity
  8
0
100
AcDbLine
 62
7
  6
CONTINUOUS
 10
113.7581585044
 20
127.9293307679
 11
118.727768711
 21
128.1897770027
  0
LINE
  5
343
100
AcDbEntity
  8
0
100
AcDbLine
 62
253
  6
CONTINUOUS
 10
112.6279957718
 20
126.7937260372
 11
112.6225974074
 21
126.7935828714
  0
LINE
  5
344
100
AcDbEntity
  8
0
100
AcDbLine
 62
253
  6
CONTINUOUS
 10
112.9729545347
 20
126.8006816309
 11
112.6279957718
 21
126.7937260372
  0
LWPOLYLINE
  5
345
100
AcDbEntity
  8
0
100
AcDbPolyline
 62
253
  6
CONTINUOUS
 90
4
 70
0
 10
112.9729674038
 20
126.8006810933
 10
112.9786713875
 20
126.8003801014
 10
112.9891525466
 20
126.7998741438
 10
113.4582825379
 20
126.7792406771
  0
ARC
  5
346
100
AcDbEntity
  8
0
100
AcDbCircle
 62
7
  6
CONTINUOUS
 10
512.077768711
 20
105.9234168399
 40
400.0
100
AcDbArc
 50
180.1080922233
 51
182.9907893124
  0
ARC
  5
347
100
AcDbEntity
  8
0
100
AcDbCircle
 62
7
  6
CONTINUOUS
 10
512.077768711
 20
105.9234168399
 40
400.0
100
AcDbArc
 50
177.0092106876
 51
179.8919077767
  0
ARC
  5
348
100
AcDbEntity
  8
0
100
AcDbCircle
 62
7
  6
CONTINUOUS
 10
113.8209630961
 20
85.1158582779
 40
1.2
100
AcDbArc
 50
182.9907131644
 51
266.9999309473
  0
ARC
  5
349
100
AcDbEntity
  8
0
100
AcDbCircle
 62
7
  6
CONTINUOUS
 10
113.8209630961
 20
126.7309754019
 40
1.2
100
AcDbArc
 50
93.0000690527
 51
177.0092868356
  0
ARC
  5
34A
100
AcDbEntity
  8
0
100
AcDbCircle
 62
7
  6
CONTINUOUS
 10
112.5786434869
 20
105.1697351979
 40
0.5
100
AcDbArc
 50
90.5093881215
 51
180.1081376112
  0
ARC
  5
34B
100
AcDbEntity
  8
0
100
AcDbCircle
 62
7
  6
CONTINUOUS
 10
112.5786434869
 20
106.677098482
 40
0.5
100
AcDbArc
 50
179.8918623888
 51
269.4906118785
  0
ELLIPSE
  5
34C
100
AcDbEntity
  8
0
100
AcDbEllipse
 62
7
  6
CONTINUOUS
 10
173.7880867283
 20
127.6890908297
 30
0.0
 11
0.2238673116
 21
0.4480418466
 31
0.0
 40
0.9982882662
 41
-1.1067376861
 42
0.4626886447
  0
ELLIPSE
  5
34D
100
AcDbEntity
  8
0
100
AcDbEllipse
 62
7
  6
CONTINUOUS
 10
130.2219777208
 20
127.6890908297
 30
0.0
 11
-0.2238673116
 21
0.4480418466
 31
0.0
 40
0.9982882662
 41
-0.4626886447
 42
1.1067376861
  0
ELLIPSE
  5
34E
100
AcDbEntity
  8
0
100
AcDbEllipse
 62
7
  6
CONTINUOUS
 10
173.7278591087
 20
106.643507675
 30
0.0
 11
0.4745319423
 21
-0.1581451893
 31
0.0
 40
0.9996192872
 41
-1.2489924673
 42
0.3215754254
  0
ELLIPSE
  5
34F
100
AcDbEntity
  8
0
100
AcDbEllipse
 62
7
  6
CONTINUOUS
 10
130.2822053404
 20
106.643507675
 30
0.0
 11
0.4745319423
 21
0.1581451893
 31
0.0
 40
0.9996192872
 41
2.8200172282
 42
4.3905851209
  0
ELLIPSE
  5
350
100
AcDbEntity
  8
0
100
AcDbEllipse
 62
7
  6
CONTINUOUS
 10
133.4705022784
 20
128.0692391104
 30
0.0
 11
0.2
 21
0.0
 31
0.0
 40
0.0524077793
 41
-2.617993878
 42
-1.5707963268
  0
ELLIPSE
  5
351
100
AcDbEntity
  8
0
100
AcDbEllipse
 62
7
  6
CONTINUOUS
 10
136.8395621707
 20
128.0692391104
 30
0.0
 11
0.2
 21
-0.0
 31
0.0
 40
0.0524077793
 41
-1.5707963268
 42
-0.5235987756
  0
ELLIPSE
  5
352
100
AcDbEntity
  8
0
100
AcDbEllipse
 62
7
  6
CONTINUOUS
 10
170.5395621707
 20
128.0692391104
 30
0.0
 11
0.2
 21
0.0
 31
0.0
 40
0.0524077793
 41
-1.5707963268
 42
-0.5235987756
  0
ELLIPSE
  5
353
100
AcDbEntity
  8
0
100
AcDbEllipse
 62
7
  6
CONTINUOUS
 10
167.1705022784
 20
128.0692391104
 30
0.0
 11
0.2
 21
0.0
 31
0.0
 40
0.0524077793
 41
-2.617993878
 42
-1.5707963268
  0
ELLIPSE
  5
354
100
AcDbEntity
  8
0
100
AcDbEllipse
 62
7
  6
CONTINUOUS
 10
130.2219777208
 20
84.1577428501
 30
0.0
 11
0.2238673116
 21
0.4480418466
 31
0.0
 40
0.9982882662
 41
-4.2483303396
 42
-2.6789040089
  0
ELLIPSE
  5
355
100
AcDbEntity
  8
0
100
AcDbEllipse
 62
7
  6
CONTINUOUS
 10
173.7880867283
 20
84.1577428501
 30
0.0
 11
-0.2238673116
 21
0.4480418466
 31
0.0
 40
0.9982882662
 41
-3.6042812983
 42
-2.0348549675
  0
ELLIPSE
  5
356
100
AcDbEntity
  8
0
100
AcDbEllipse
 62
7
  6
CONTINUOUS
 10
130.2822053404
 20
105.2033260048
 30
0.0
 11
0.4745319423
 21
-0.1581451893
 31
0.0
 40
0.9996192872
 41
1.8926001863
 42
3.463168079
  0
ELLIPSE
  5
357
100
AcDbEntity
  8
0
100
AcDbEllipse
 62
7
  6
CONTINUOUS
 10
173.7278591087
 20
105.2033260048
 30
0.0
 11
0.4745319423
 21
0.1581451893
 31
0.0
 40
0.9996192872
 41
-0.3215754254
 42
1.2489924673
  0
ELLIPSE
  5
358
100
AcDbEntity
  8
0
100
AcDbEllipse
 62
7
  6
CONTINUOUS
 10
170.5395621707
 20
83.7775945694
 30
0.0
 11
0.2
 21
0.0
 31
0.0
 40
0.0524077793
 41
0.5235987756
 42
1.5707963268
  0
ELLIPSE
  5
359
100
AcDbEntity
  8
0
100
AcDbEllipse
 62
7
  6
CONTINUOUS
 10
167.1705022784
 20
83.7775945694
 30
0.0
 11
0.2
 21
-0.0
 31
0.0
 40
0.0524077793
 41
1.5707963268
 42
2.617993878
  0
ELLIPSE
  5
35A
100
AcDbEntity
  8
0
100
AcDbEllipse
 62
7
  6
CONTINUOUS
 10
133.4705022784
 20
83.7775945694
 30
0.0
 11
0.2
 21
0.0
 31
0.0
 40
0.0524077793
 41
1.5707963268
 42
2.617993878
  0
ELLIPSE
  5
35B
100
AcDbEntity
  8
0
100
AcDbEllipse
 62
7
  6
CONTINUOUS
 10
136.8395621707
 20
83.7775945694
 30
0.0
 11
0.2
 21
-0.0
 31
0.0
 40
0.0524077793
 41
0.5235987756
 42
1.5707963268
  0
ENDSEC
  0
SECTION
  2
OBJECTS
  0
DICTIONARY
  5
C
100
AcDbDictionary
280
0
281
1
  3
ACAD_GROUP
350
D
  3
ACAD_MLINESTYLE
350
17
  3
ACAD_LAYOUT
350
1A
  3
ACAD_PLOTSETTINGS
350
19
  3
ACAD_PLOTSTYLENAME
350
E
  0
DICTIONARY
  5
D
102
{ACAD_REACTORS
330
C
102
}
100
AcDbDictionary
280
0
281
1
  0
ACDBDICTIONARYWDFLT
  5
E
102
{ACAD_REACTORS
330
C
102
}
100
AcDbDictionary
281
1
  3
Normal
350
F
100
AcDbDictionaryWithDefault
340
F
  0
DICTIONARY
  5
17
102
{ACAD_REACTORS
330
C
102
}
100
AcDbDictionary
280
0
281
1
  3
Standard
350
18
  0
DICTIONARY
  5
19
102
{ACAD_REACTORS
330
C
102
}
100
AcDbDictionary
281
1
  0
DICTIONARY
  5
1A
102
{ACAD_REACTORS
330
C
102
}
100
AcDbDictionary
281
1
  3
Model
350
35C
  3
Layout1
350
35D
  0
ACDBPLACEHOLDER
  5
F
102
{ACAD_REACTORS
330
E
102
}
  0
MLINESTYLE
  5
18
102
{ACAD_REACTORS
330
17
102
}
100
AcDbMlineStyle
  2
STANDARD
 70
0
  3

 62
256
 51
90.0
 52
90.0
 71
2
 49
0.5
 62
256
  6
BYLAYER
 49
-0.5
 62
256
  6
BYLAYER
  0
LAYOUT
  5
35C
102
{ACAD_REACTORS
330
1A
102
}
100
AcDbPlotSettings
  1

  2
none_device
  4
ISO_A4_(297.00_x_210.00_MM)
  6

 40
0.0
 41
0.0
 42
0.0
 43
0.0
 44
297.0
 45
210.0
 46
0.0
 47
0.0
 48
0.0
 49
0.0
140
0.0
141
0.0
142
1.0
143
1.0
 70
1024
 72
1
 73
0
 74
0
  7

 75
0
147
1.0
148
0.0
149
0.0
100
AcDbLayout
  1
Model
 70
0
 71
0
 10
0.0
 20
0.0
 11
297.0
 21
210.0
 12
0.0
 22
0.0
 32
0.0
 14
0.0
 24
0.0
 34
0.0
 15
0.0
 25
0.0
 35
0.0
146
0.0
 13
0.0
 23
0.0
 33
0.0
 16
1.0
 26
0.0
 36
0.0
 17
0.0
 27
1.0
 37
0.0
 76
0
330
21D
345
0
346
0
  0
LAYOUT
  5
35D
102
{ACAD_REACTORS
330
1A
102
}
100
AcDbPlotSettings
  1

  2
none_device
  4
ISO_A4_(297.00_x_210.00_MM)
  6

 40
0.0
 41
0.0
 42
0.0
 43
0.0
 44
297.0
 45
210.0
 46
0.0
 47
0.0
 48
0.0
 49
0.0
140
0.0
141
0.0
142
1.0
143
1.0
 70
0
 72
1
 73
0
 74
0
  7

 75
0
147
1.0
148
0.0
149
0.0
100
AcDbLayout
  1
Layout1
 70
0
 71
1
 10
0.0
 20
0.0
 11
297.0
 21
210.0
 12
0.0
 22
0.0
 32
0.0
 14
0.0
 24
0.0
 34
0.0
 15
0.0
 25
0.0
 35
0.0
146
0.0
 13
0.0
 23
0.0
 33
0.0
 16
1.0
 26
0.0
 36
0.0
 17
0.0
 27
1.0
 37
0.0
 76
0
330
21E
345
0
346
0
  0
ENDSEC
  0
EOF
