  0
SECTION
  2
HEADER
  9
$ACADVER
  1
AC1024
  9
$DWGCODEPAGE
  3
ANSI_1252
  9
$EXTMAX
 10
297.0
 20
210.0
 30
0.0
  9
$EXTMIN
 10
0.0
 20
0.0
 30
0.0
  9
$LIMMIN
 10
0.0
 20
0.0
  9
$LIMMAX
 10
297.0
 20
210.0
  9
$VIEWCTR
 10
148.5
 20
105.0
  9
$VIEWSIZE
 40
210.0
  9
$CLAYER
  8
0
  9
$LTSCALE
 40
16.335
  9
$CELTYPE
  6
BYLAYER
  9
$DIMSCALE
 40
1.0
  9
$DIMASZ
 40
3.0
  9
$DIMEXO
 40
0.5
  9
$DIMDLI
 40
11.286
  9
$DIMEXE
 40
1.5
  9
$DIMCEN
 40
2.673
  9
$DIMLFAC
 40
1.0
  9
$DIMBLK
  1
_FILLED
  9
$DIMALT
 70
0
  9
$DIMALTF
 40
0.0393700787
  9
$DIMTXT
 40
3.0
  9
$DIMTOL
 70
1
  9
$DIMLIM
 70
0
  9
$DIMTFAC
 40
1.0
  9
$DIMTP
 40
0.01
  9
$DIMTM
 40
0.01
  9
$DIMGAP
 40
0.625
  9
$DIMDSEP
 70
44
  9
$AUNITS
 70
0
  9
$PDMODE
 70
3
  9
$PDSIZE
 40
3.0
  9
$HANDSEED
  5
4BD
  9
$TILEMODE
 70
1
  9
$MEASUREMENT
 70
1
  9
$INSUNITS
 70
4
  0
ENDSEC
  0
SECTION
  2
CLASSES
  0
CLASS
  1
ACDBDICTIONARYWDFLT
  2
AcDbDictionaryWithDefault
  3
AutoCAD 2000
 90
0
 91
1
280
0
281
0
  0
CLASS
  1
ACDBPLACEHOLDER
  2
AcDbPlaceHolder
  3
AutoCAD 2000
 90
0
 91
1
280
0
281
0
  0
CLASS
  1
LAYOUT
  2
AcDbLayout
  3
AutoCAD 2000
 90
0
 91
0
280
0
281
0
  0
ENDSEC
  0
SECTION
  2
TABLES
  0
TABLE
  2
VPORT
  5
8
100
AcDbSymbolTable
 70
2
  0
VPORT
  5
1F4
100
AcDbSymbolTableRecord
100
AcDbViewportTableRecord
  2
*ACTIVE
 70
0
 10
0.0
 20
0.0
 11
1.0
 21
1.0
 12
148.5
 22
105.0
 13
0.0
 23
0.0
 14
1.0
 24
1.0
 15
0.0
 25
0.0
 16
0.0
 26
0.0
 36
1.0
 17
0.0
 27
0.0
 37
0.0
 40
210.0
 41
1.4142857143
 42
50.0
 43
0.0
 44
0.0
 50
0.0
 51
0.0
 71
0
 72
100
 73
1
 74
1
 75
0
 76
0
 77
0
 78
0
  0
ENDTAB
  0
TABLE
  2
LTYPE
  5
5
100
AcDbSymbolTable
 70
6
  0
LTYPE
  5
14
100
AcDbSymbolTableRecord
100
AcDbLinetypeTableRecord
  2
BYBLOCK
 70
0
  3

 72
65
 73
0
 40
0.0
  0
LTYPE
  5
15
100
AcDbSymbolTableRecord
100
AcDbLinetypeTableRecord
  2
BYLAYER
 70
0
  3

 72
65
 73
0
 40
0.0
  0
LTYPE
  5
16
100
AcDbSymbolTableRecord
100
AcDbLinetypeTableRecord
  2
CONTINUOUS
 70
64
  3
Solid line
 72
65
 73
0
 40
0.0
  0
LTYPE
  5
1F5
100
AcDbSymbolTableRecord
100
AcDbLinetypeTableRecord
  2
CENTER
 70
64
  3
____ _ ____ _ ____ _ ____ _ ____ _ ____ _ ____
 72
65
 73
4
 40
0.6
 49
0.375
 74
0
 49
-0.075
 74
0
 49
0.075
 74
0
 49
-0.075
 74
0
  0
LTYPE
  5
1F6
100
AcDbSymbolTableRecord
100
AcDbLinetypeTableRecord
  2
HIDDEN
 70
64
  3
- - - - - - - - - - - - - - - - - - - -
 72
65
 73
2
 40
0.2
 49
0.1
 74
0
 49
-0.1
 74
0
  0
LTYPE
  5
1F7
100
AcDbSymbolTableRecord
100
AcDbLinetypeTableRecord
  2
PHANTOM
 70
64
  3
_____ _ _ _____ _ _ _____ _ _ _____
 72
65
 73
6
 40
0.8
 49
0.45
 74
0
 49
-0.05
 74
0
 49
0.1
 74
0
 49
-0.05
 74
0
 49
0.1
 74
0
 49
-0.05
 74
0
  0
LTYPE
  5
1F8
100
AcDbSymbolTableRecord
100
AcDbLinetypeTableRecord
  2
DOT
 70
64
  3
. . . . . . . . . . . . . . . . . . . .
 72
65
 73
2
 40
0.2
 49
0.1
 74
0
 49
-0.1
 74
0
  0
LTYPE
  5
1F9
100
AcDbSymbolTableRecord
100
AcDbLinetypeTableRecord
  2
DASHED
 70
64
  3
- - - - - - - - - - - - - - - - - - - -
 72
65
 73
2
 40
0.2
 49
0.1
 74
0
 49
-0.1
 74
0
  0
ENDTAB
  0
TABLE
  2
LAYER
  5
2
100
AcDbSymbolTable
 70
36
  0
LAYER
  5
10
100
AcDbSymbolTableRecord
100
AcDbLayerTableRecord
  2
0
 70
0
 62
7
  6
CONTINUOUS
370
-3
390
F
  0
LAYER
  5
1FA
100
AcDbSymbolTableRecord
100
AcDbLayerTableRecord
  2
DEFAULT_1
 70
0
 62
7
  6
CENTER
370
-3
390
F
  0
LAYER
  5
1FB
100
AcDbSymbolTableRecord
100
AcDbLayerTableRecord
  2
DEFAULT_2
 70
0
 62
7
  6
HIDDEN
370
-3
390
F
  0
LAYER
  5
1FC
100
AcDbSymbolTableRecord
100
AcDbLayerTableRecord
  2
DEFAULT_3
 70
0
 62
7
  6
PHANTOM
370
-3
390
F
  0
LAYER
  5
1FD
100
AcDbSymbolTableRecord
100
AcDbLayerTableRecord
  2
ASSI
 70
0
 62
7
  6
CONTINUOUS
370
-3
390
F
  0
LAYER
  5
1FE
100
AcDbSymbolTableRecord
100
AcDbLayerTableRecord
  2
COORDINATE
 70
0
 62
7
  6
CONTINUOUS
370
-3
390
F
  0
LAYER
  5
1FF
100
AcDbSymbolTableRecord
100
AcDbLayerTableRecord
  2
COORD_ORIGINE
 70
0
 62
7
  6
CONTINUOUS
370
-3
390
F
  0
LAYER
  5
200
100
AcDbSymbolTableRecord
100
AcDbLayerTableRecord
  2
COPY_PUBLISH
 70
0
 62
7
  6
CONTINUOUS
370
-3
390
F
  0
LAYER
  5
201
100
AcDbSymbolTableRecord
100
AcDbLayerTableRecord
  2
COSMETICI
 70
0
 62
7
  6
CONTINUOUS
370
-3
390
F
  0
LAYER
  5
202
100
AcDbSymbolTableRecord
100
AcDbLayerTableRecord
  2
CURVE
 70
0
 62
7
  6
CONTINUOUS
370
-3
390
F
  0
LAYER
  5
203
100
AcDbSymbolTableRecord
100
AcDbLayerTableRecord
  2
DRAFT
 70
0
 62
7
  6
CONTINUOUS
370
-3
390
F
  0
LAYER
  5
204
100
AcDbSymbolTableRecord
100
AcDbLayerTableRecord
  2
IMPORT_IGES
 70
0
 62
7
  6
CONTINUOUS
370
-3
390
F
  0
LAYER
  5
205
100
AcDbSymbolTableRecord
100
AcDbLayerTableRecord
  2
INTF_1
 70
0
 62
7
  6
CONTINUOUS
370
-3
390
F
  0
LAYER
  5
206
100
AcDbSymbolTableRecord
100
AcDbLayerTableRecord
  2
INTF_11
 70
0
 62
7
  6
CONTINUOUS
370
-3
390
F
  0
LAYER
  5
207
100
AcDbSymbolTableRecord
100
AcDbLayerTableRecord
  2
INTF_2
 70
0
 62
7
  6
CONTINUOUS
370
-3
390
F
  0
LAYER
  5
208
100
AcDbSymbolTableRecord
100
AcDbLayerTableRecord
  2
INTF_CYAN
 70
0
 62
7
  6
CONTINUOUS
370
-3
390
F
  0
LAYER
  5
209
100
AcDbSymbolTableRecord
100
AcDbLayerTableRecord
  2
NOTE
 70
0
 62
7
  6
CONTINUOUS
370
-3
390
F
  0
LAYER
  5
20A
100
AcDbSymbolTableRecord
100
AcDbLayerTableRecord
  2
PIANI
 70
0
 62
7
  6
CONTINUOUS
370
-3
390
F
  0
LAYER
  5
20B
100
AcDbSymbolTableRecord
100
AcDbLayerTableRecord
  2
PIANI_ORIGINE
 70
0
 62
7
  6
CONTINUOUS
370
-3
390
F
  0
LAYER
  5
20C
100
AcDbSymbolTableRecord
100
AcDbLayerTableRecord
  2
PUNTI
 70
0
 62
7
  6
CONTINUOUS
370
-3
390
F
  0
LAYER
  5
20D
100
AcDbSymbolTableRecord
100
AcDbLayerTableRecord
  2
RACCORDO
 70
0
 62
7
  6
CONTINUOUS
370
-3
390
F
  0
LAYER
  5
20E
100
AcDbSymbolTableRecord
100
AcDbLayerTableRecord
  2
RGB____0____0____0__
 70
0
 62
7
  6
CONTINUOUS
370
-3
390
F
  0
LAYER
  5
20F
100
AcDbSymbolTableRecord
100
AcDbLayerTableRecord
  2
SIMBOLI
 70
0
 62
7
  6
CONTINUOUS
370
-3
390
F
  0
LAYER
  5
210
100
AcDbSymbolTableRecord
100
AcDbLayerTableRecord
  2
SMUSSO
 70
0
 62
7
  6
CONTINUOUS
370
-3
390
F
  0
LAYER
  5
211
100
AcDbSymbolTableRecord
100
AcDbLayerTableRecord
  2
SNAPLINE
 70
0
 62
7
  6
CONTINUOUS
370
-3
390
F
  0
LAYER
  5
212
100
AcDbSymbolTableRecord
100
AcDbLayerTableRecord
  2
SUPERFICI
 70
0
 62
7
  6
CONTINUOUS
370
-3
390
F
  0
LAYER
  5
213
100
AcDbSymbolTableRecord
100
AcDbLayerTableRecord
  2
TRASH
 70
0
 62
7
  6
CONTINUOUS
370
-3
390
F
  0
ENDTAB
  0
TABLE
  2
STYLE
  5
3
100
AcDbSymbolTable
 70
1
  0
STYLE
  5
11
100
AcDbSymbolTableRecord
100
AcDbTextStyleTableRecord
  2
STANDARD
 70
0
 40
0.0
 41
0.8
 50
0.0
 71
0
 42
0.2
  3
txt
  4

  0
STYLE
  5
214
100
AcDbSymbolTableRecord
100
AcDbTextStyleTableRecord
  2
TEXTSTYLE_1
 70
0
 40
0.0
 41
0.8
 50
0.0
 71
0
 42
0.2
  3
gdt
  4

  0
ENDTAB
  0
TABLE
  2
VIEW
  5
6
100
AcDbSymbolTable
 70
0
  0
ENDTAB
  0
TABLE
  2
UCS
  5
7
100
AcDbSymbolTable
 70
0
  0
ENDTAB
  0
TABLE
  2
APPID
  5
9
100
AcDbSymbolTable
 70
1
  0
APPID
  5
215
100
AcDbSymbolTableRecord
100
AcDbRegAppTableRecord
  2
ACAD
 70
0
  0
ENDTAB
  0
TABLE
  2
BLOCK_RECORD
  5
1
100
AcDbSymbolTable
 70
0
  0
BLOCK_RECORD
  5
216
100
AcDbSymbolTableRecord
100
AcDbBlockTableRecord
  2
*Model_Space
  0
BLOCK_RECORD
  5
217
100
AcDbSymbolTableRecord
100
AcDbBlockTableRecord
  2
*Paper_Space
  0
BLOCK_RECORD
  5
218
100
AcDbSymbolTableRecord
100
AcDbBlockTableRecord
  2
_FILLED
  0
BLOCK_RECORD
  5
219
100
AcDbSymbolTableRecord
100
AcDbBlockTableRecord
  2
*D0
  0
BLOCK_RECORD
  5
21A
100
AcDbSymbolTableRecord
100
AcDbBlockTableRecord
  2
*D1
  0
BLOCK_RECORD
  5
21B
100
AcDbSymbolTableRecord
100
AcDbBlockTableRecord
  2
*D2
  0
BLOCK_RECORD
  5
21C
100
AcDbSymbolTableRecord
100
AcDbBlockTableRecord
  2
*D3
  0
ENDTAB
  0
TABLE
  2
DIMSTYLE
  5
A
100
AcDbSymbolTable
 70
1
100
AcDbDimStyleTable
 71
0
  0
DIMSTYLE
105
21D
100
AcDbSymbolTableRecord
100
AcDbDimStyleTableRecord
  2
STANDARD
 70
0
  3

  4

 40
1.0
 41
3.0
 42
0.5
 43
0.38
 44
1.5
 45
0.0
 46
0.0
 47
0.01
 48
0.01
140
3.0
141
0.09
142
0.0
143
25.4
144
1.0
145
0.0
146
1.0
147
0.625
 71
1.0
 72
0.0
 73
0
 74
0
 75
0
 76
0
 77
1
 78
8
 79
2
170
0
171
1
172
0
173
0
174
0
175
0
176
0
177
0
178
0
270
2
179
2
271
2
272
2
273
2
274
2
275
0
280
0
281
0
282
0
283
1
284
8
285
0
286
0
287
3
288
0
340
11
278
44
341
218
342
218
343
218
344
218
  0
DIMSTYLE
105
21E
100
AcDbSymbolTableRecord
100
AcDbDimStyleTableRecord
  2
DIMSTYLE_1
 70
0
  3

  4

 40
1.0
 41
3.0
 42
0.5
 43
0.38
 44
1.5
 45
0.0
 46
0.0
 47
0.0
 48
0.0
140
3.0
141
0.09
142
0.0
143
25.4
144
1.0
145
0.0
146
1.0
147
0.75
 71
0.0
 72
0.0
 73
0
 74
0
 75
0
 76
0
 77
1
 78
8
 79
2
170
0
171
1
172
0
173
0
174
0
175
0
176
0
177
0
178
0
270
2
179
2
271
2
272
2
273
2
274
2
275
0
280
0
281
0
282
0
283
1
284
8
285
0
286
0
287
3
288
0
340
11
278
44
341
218
342
218
343
218
344
218
  0
ENDTAB
  0
ENDSEC
  0
SECTION
  2
BLOCKS
  0
BLOCK
  5
20
100
AcDbEntity
  8
0
100
AcDbBlockBegin
  2
*Model_Space
 70
0
 10
0.0
 20
0.0
 30
0.0
  3
*Model_Space
  1

  0
ENDBLK
  5
21
100
AcDbEntity
  8
0
100
AcDbBlockEnd
  0
BLOCK
  5
1C
100
AcDbEntity
  8
0
100
AcDbBlockBegin
  2
*Paper_Space
 70
0
 10
0.0
 20
0.0
 30
0.0
  3
*Paper_Space
  1

  0
ENDBLK
  5
1D
100
AcDbEntity
  8
0
100
AcDbBlockEnd
  0
BLOCK
  5
21F
100
AcDbEntity
  8
0
100
AcDbBlockBegin
  2
_FILLED
 70
64
 10
0.0
 20
0.0
  3
_FILLED
  1

  0
SOLID
  5
220
100
AcDbEntity
  8
0
  6
BYBLOCK
 62
0
100
AcDbTrace
 10
0.0
 20
0.0
 11
-1.0
 21
0.3166666667
 12
-1.0
 22
-0.3166666667
 13
-1.0
 23
-0.3166666667
  0
ENDBLK
  5
221
100
AcDbEntity
  8
0
  6
BYBLOCK
 62
0
100
AcDbBlockEnd
  0
BLOCK
  5
222
100
AcDbEntity
  8
0
100
AcDbBlockBegin
 62
7
  6
CONTINUOUS
  2
*D0
 70
65
 10
0.0
 20
0.0
  3
*D0
  1

  0
LINE
  5
223
100
AcDbEntity
  8
0
100
AcDbLine
 62
7
  6
CONTINUOUS
 10
-61.0
 20
44.7874498972
 11
-61.0
 21
56.5
  0
LINE
  5
224
100
AcDbEntity
  8
0
100
AcDbLine
 62
7
  6
CONTINUOUS
 10
61.0
 20
44.7838438995
 11
61.0
 21
56.5
  0
LINE
  5
225
100
AcDbEntity
  8
0
100
AcDbLine
 62
7
  6
CONTINUOUS
 10
-61.0
 20
55.0
 11
0.0
 21
55.0
  0
LINE
  5
226
100
AcDbEntity
  8
0
100
AcDbLine
 62
7
  6
CONTINUOUS
 10
61.0
 20
55.0
 11
0.0
 21
55.0
  0
INSERT
  5
227
100
AcDbEntity
  8
0
100
AcDbBlockReference
 62
7
  6
CONTINUOUS
  2
_FILLED
 10
-61.0
 20
55.0
 41
3.0
 42
3.0
 43
3.0
 50
180.0
  0
INSERT
  5
228
100
AcDbEntity
  8
0
100
AcDbBlockReference
 62
7
  6
CONTINUOUS
  2
_FILLED
 10
61.0
 20
55.0
 41
3.0
 42
3.0
 43
3.0
 50
0.0
  0
ENDBLK
  5
229
100
AcDbEntity
  8
0
  6
BYBLOCK
 62
0
100
AcDbBlockEnd
  0
BLOCK
  5
22A
100
AcDbEntity
  8
0
100
AcDbBlockBegin
 62
7
  6
CONTINUOUS
  2
*D1
 70
65
 10
0.0
 20
0.0
  3
*D1
  1

  0
LINE
  5
22B
100
AcDbEntity
  8
0
100
AcDbLine
 62
7
  6
CONTINUOUS
 10
60.7523733743
 20
45.0
 11
72.5
 21
45.0
  0
LINE
  5
22C
100
AcDbEntity
  8
0
100
AcDbLine
 62
7
  6
CONTINUOUS
 10
60.8121254115
 20
-45.0
 11
72.5
 21
-45.0
  0
LINE
  5
22D
100
AcDbEntity
  8
0
100
AcDbLine
 62
7
  6
CONTINUOUS
 10
71.0
 20
45.0
 11
71.0
 21
0.0
  0
LINE
  5
22E
100
AcDbEntity
  8
0
100
AcDbLine
 62
7
  6
CONTINUOUS
 10
71.0
 20
-45.0
 11
71.0
 21
0.0
  0
INSERT
  5
22F
100
AcDbEntity
  8
0
100
AcDbBlockReference
 62
7
  6
CONTINUOUS
  2
_FILLED
 10
71.0
 20
45.0
 41
3.0
 42
3.0
 43
3.0
 50
90.0
  0
INSERT
  5
230
100
AcDbEntity
  8
0
100
AcDbBlockReference
 62
7
  6
CONTINUOUS
  2
_FILLED
 10
71.0
 20
-45.0
 41
3.0
 42
3.0
 43
3.0
 50
270.0
  0
ENDBLK
  5
231
100
AcDbEntity
  8
0
  6
BYBLOCK
 62
0
100
AcDbBlockEnd
  0
BLOCK
  5
232
100
AcDbEntity
  8
0
100
AcDbBlockBegin
 62
7
  6
CONTINUOUS
  2
*D2
 70
65
 10
0.0
 20
0.0
  3
*D2
  1

  0
LINE
  5
233
100
AcDbEntity
  8
0
100
AcDbLine
 62
7
  6
CONTINUOUS
 10
-100.8750002002
 20
44.500609173
 11
-100.8750002002
 21
56.516259299
  0
LINE
  5
234
100
AcDbEntity
  8
0
100
AcDbLine
 62
7
  6
CONTINUOUS
 10
-105.7750002002
 20
21.7491776316
 11
-105.7750002002
 21
56.516259299
  0
LINE
  5
235
100
AcDbEntity
  8
0
100
AcDbLine
 62
7
  6
CONTINUOUS
 10
-100.8750002002
 20
55.016259299
 11
-96.8750002002
 21
55.016259299
  0
LINE
  5
236
100
AcDbEntity
  8
0
100
AcDbLine
 62
7
  6
CONTINUOUS
 10
-96.8750002002
 20
55.016259299
 11
-103.3250002002
 21
55.016259299
  0
LINE
  5
237
100
AcDbEntity
  8
0
100
AcDbLine
 62
7
  6
CONTINUOUS
 10
-105.7750002002
 20
55.016259299
 11
-118.3865443522
 21
55.016259299
  0
LINE
  5
238
100
AcDbEntity
  8
0
100
AcDbLine
 62
7
  6
CONTINUOUS
 10
-118.3865443522
 20
55.016259299
 11
-103.3250002002
 21
55.016259299
  0
INSERT
  5
239
100
AcDbEntity
  8
0
100
AcDbBlockReference
 62
7
  6
CONTINUOUS
  2
_FILLED
 10
-100.8750002002
 20
55.016259299
 41
3.0
 42
3.0
 43
3.0
 50
180.0
  0
INSERT
  5
23A
100
AcDbEntity
  8
0
100
AcDbBlockReference
 62
7
  6
CONTINUOUS
  2
_FILLED
 10
-105.7750002002
 20
55.016259299
 41
3.0
 42
3.0
 43
3.0
  0
ENDBLK
  5
23B
100
AcDbEntity
  8
0
  6
BYBLOCK
 62
0
100
AcDbBlockEnd
  0
BLOCK
  5
23C
100
AcDbEntity
  8
0
100
AcDbBlockBegin
 62
7
  6
CONTINUOUS
  2
*D3
 70
65
 10
0.0
 20
0.0
  3
*D3
  1

  0
LINE
  5
23D
100
AcDbEntity
  8
0
100
AcDbLine
 62
7
  6
CONTINUOUS
 10
-93.8750002002
 20
26.975
 11
-93.8750002002
 21
66.5176435526
  0
LINE
  5
23E
100
AcDbEntity
  8
0
100
AcDbLine
 62
7
  6
CONTINUOUS
 10
-105.7750002002
 20
22.2376644737
 11
-105.7750002002
 21
66.5176435526
  0
LINE
  5
23F
100
AcDbEntity
  8
0
100
AcDbLine
 62
7
  6
CONTINUOUS
 10
-93.8750002002
 20
65.0176435526
 11
-99.8250002002
 21
65.0176435526
  0
LINE
  5
240
100
AcDbEntity
  8
0
100
AcDbLine
 62
7
  6
CONTINUOUS
 10
-105.7750002002
 20
65.0176435526
 11
-99.8250002002
 21
65.0176435526
  0
LINE
  5
241
100
AcDbEntity
  8
0
100
AcDbLine
 62
7
  6
CONTINUOUS
 10
-99.8250002002
 20
65.0176435526
 11
-118.7555923055
 21
65.0176435526
  0
INSERT
  5
242
100
AcDbEntity
  8
0
100
AcDbBlockReference
 62
7
  6
CONTINUOUS
  2
_FILLED
 10
-93.8750002002
 20
65.0176435526
 41
3.0
 42
3.0
 43
3.0
  0
INSERT
  5
243
100
AcDbEntity
  8
0
100
AcDbBlockReference
 62
7
  6
CONTINUOUS
  2
_FILLED
 10
-105.7750002002
 20
65.0176435526
 41
3.0
 42
3.0
 43
3.0
 50
180.0
  0
ENDBLK
  5
244
100
AcDbEntity
  8
0
  6
BYBLOCK
 62
0
100
AcDbBlockEnd
  0
ENDSEC
  0
SECTION
  2
ENTITIES
  0
DIMENSION
  5
245
100
AcDbEntity
  8
0
100
AcDbDimension
 62
7
  6
CONTINUOUS
  2
*D0
 10
61.0
 20
55.0
 11
-3.2142857143
 21
55.0
 70
160
 71
2
 72
2
 41
0.9
 42
122.0
  3
DIMSTYLE_1
100
AcDbAlignedDimension
 13
-61.0
 23
44.2874498972
 14
61.0
 24
44.2838438995
100
AcDbRotatedDimension
  0
DIMENSION
  5
246
100
AcDbEntity
  8
0
100
AcDbDimension
 62
7
  6
CONTINUOUS
  2
*D1
 10
71.0
 20
-45.0
 11
71.0
 21
-2.3571428571
 70
160
 71
2
 72
2
 41
0.9
 42
90.0
  3
DIMSTYLE_1
100
AcDbAlignedDimension
 13
60.2523733743
 23
45.0
 14
60.3121254115
 24
-45.0
 50
270.0
100
AcDbRotatedDimension
  0
DIMENSION
  5
247
100
AcDbEntity
  8
0
100
AcDbDimension
 62
7
  6
CONTINUOUS
  2
*D2
 10
-105.7750002002
 20
55.016259299
 11
-118.3865443522
 21
55.016259299
 70
160
 71
3
 72
2
 41
0.9
 42
4.9
  3
DIMSTYLE_1
100
AcDbAlignedDimension
 13
-100.8750002002
 23
44.000609173
 14
-105.7750002002
 24
21.2491776316
 50
180.0
100
AcDbRotatedDimension
  0
DIMENSION
  5
248
100
AcDbEntity
  8
0
100
AcDbDimension
 62
7
  6
CONTINUOUS
  2
*D3
 10
-105.7750002002
 20
65.0176435526
 11
-118.7555923055
 21
65.0176435526
 70
160
 71
3
 72
2
 41
0.9
 42
11.9
  3
DIMSTYLE_1
100
AcDbAlignedDimension
 13
-93.8750002002
 23
26.475
 14
-105.7750002002
 24
21.7376644737
 50
180.0
100
AcDbRotatedDimension
  0
LWPOLYLINE
  5
249
100
AcDbEntity
  8
ASSI
100
AcDbPolyline
 62
250
  6
CONTINUOUS
 90
25
 70
0
 10
-60.9527124597
 20
-44.0265663421
 10
-60.9471726741
 20
-44.085771512
 10
-60.9382134389
 20
-44.1446122075
 10
-60.9258607803
 20
-44.2028832802
 10
-60.910187749
 20
-44.2602659909
 10
-60.8912231003
 20
-44.3166785859
 10
-60.8688845656
 20
-44.3722536749
 10
-60.8431316723
 20
-44.4268817152
 10
-60.8140387416
 20
-44.4802182454
 10
-60.7816605588
 20
-44.5320200732
 10
-60.7460539838
 20
-44.5820731454
 10
-60.7073062803
 20
-44.6301381194
 10
-60.6655528223
 20
-44.675943667
 10
-60.6209272483
 20
-44.7192672295
 10
-60.573554571
 20
-44.7599122704
 10
-60.52359044
 20
-44.7976633323
 10
-60.4713174682
 20
-44.8322586794
 10
-60.416812256
 20
-44.8636002873
 10
-60.3599095765
 20
-44.8916678819
 10
-60.3006555939
 20
-44.9162820769
 10
-60.2393854152
 20
-44.9371479662
 10
-60.1763681512
 20
-44.9540283369
 10
-60.1118700147
 20
-44.9667243259
 10
-60.0461504766
 20
-44.9750663734
 10
-59.9795021505
 20
-44.9788929775
  0
LWPOLYLINE
  5
24A
100
AcDbEntity
  8
ASSI
100
AcDbPolyline
 62
250
  6
CONTINUOUS
 90
24
 70
0
 10
-60.4517294397
 20
-44.2154064276
 10
-60.4474996803
 20
-44.2648376966
 10
-60.4416212502
 20
-44.3137973076
 10
-60.4340963429
 20
-44.3620878121
 10
-60.4249227649
 20
-44.4096471266
 10
-60.4140939364
 20
-44.4565302739
 10
-60.4015821343
 20
-44.5026638788
 10
-60.3874150815
 20
-44.5477866436
 10
-60.3716693678
 20
-44.5916542433
 10
-60.3543157033
 20
-44.6341055712
 10
-60.3353833777
 20
-44.6749581281
 10
-60.3150368508
 20
-44.7139530087
 10
-60.2932547737
 20
-44.750917813
 10
-60.2700584951
 20
-44.7856997866
 10
-60.2456765211
 20
-44.8180940627
 10
-60.2201518527
 20
-44.8478881301
 10
-60.1934414887
 20
-44.8750092272
 10
-60.1656449313
 20
-44.8994305425
 10
-60.1366771069
 20
-44.9210089084
 10
-60.1066230891
 20
-44.9394964344
 10
-60.0758376008
 20
-44.9546850136
 10
-60.044438883
 20
-44.9664089723
 10
-60.0123086946
 20
-44.9745255485
 10
-59.9794470358
 20
-44.9788897961
  0
LINE
  5
24B
100
AcDbEntity
  8
ASSI
100
AcDbLine
 62
250
  6
CONTINUOUS
 10
-60.954793953
 20
43.9554031259
 11
-60.9402209612
 21
42.6783861688
  0
LINE
  5
24C
100
AcDbEntity
  8
ASSI
100
AcDbLine
 62
250
  6
CONTINUOUS
 10
-60.9402209612
 20
42.6783861688
 11
-60.9260599611
 21
41.0923489539
  0
LINE
  5
24D
100
AcDbEntity
  8
ASSI
100
AcDbLine
 62
250
  6
CONTINUOUS
 10
-60.4405255477
 20
42.8176447183
 11
-60.4263645477
 21
41.2026914488
  0
LINE
  5
24E
100
AcDbEntity
  8
ASSI
100
AcDbLine
 62
250
  6
CONTINUOUS
 10
-60.9260599611
 20
41.0923489539
 11
-60.9114818934
 21
38.9793568504
  0
LINE
  5
24F
100
AcDbEntity
  8
ASSI
100
AcDbLine
 62
250
  6
CONTINUOUS
 10
-60.4263645477
 20
41.2026914488
 11
-60.4117864799
 21
39.0644545429
  0
LINE
  5
250
100
AcDbEntity
  8
ASSI
100
AcDbLine
 62
250
  6
CONTINUOUS
 10
-60.9114818934
 20
38.9793568504
 11
-60.8943946998
 21
35.6163272087
  0
LINE
  5
251
100
AcDbEntity
  8
ASSI
100
AcDbLine
 62
250
  6
CONTINUOUS
 10
-60.4117864799
 20
39.0644545429
 11
-60.3946992863
 21
35.6772014016
  0
LINE
  5
252
100
AcDbEntity
  8
ASSI
100
AcDbLine
 62
250
  6
CONTINUOUS
 10
-60.8943946998
 20
35.6163272087
 11
-60.8804313255
 21
31.7761700293
  0
LINE
  5
253
100
AcDbEntity
  8
ASSI
100
AcDbLine
 62
250
  6
CONTINUOUS
 10
-60.3946992863
 20
35.6772014016
 11
-60.380735912
 21
31.820137227
  0
LINE
  5
254
100
AcDbEntity
  8
ASSI
100
AcDbLine
 62
250
  6
CONTINUOUS
 10
-60.8804313255
 20
31.7761700293
 11
-60.8665949211
 21
26.2569453587
  0
LINE
  5
255
100
AcDbEntity
  8
ASSI
100
AcDbLine
 62
250
  6
CONTINUOUS
 10
-60.380735912
 20
31.820137227
 11
-60.3668995076
 21
26.2861411236
  0
LINE
  5
256
100
AcDbEntity
  8
ASSI
100
AcDbLine
 62
250
  6
CONTINUOUS
 10
-60.8665949211
 20
26.2569453587
 11
-60.8553479932
 21
19.0481745925
  0
LINE
  5
257
100
AcDbEntity
  8
ASSI
100
AcDbLine
 62
250
  6
CONTINUOUS
 10
-60.3668995076
 20
26.2861411236
 11
-60.3556525797
 21
19.0650711498
  0
LINE
  5
258
100
AcDbEntity
  8
ASSI
100
AcDbLine
 62
250
  6
CONTINUOUS
 10
-60.8553479932
 20
19.0481745925
 11
-60.8478926348
 21
9.666629151
  0
LINE
  5
259
100
AcDbEntity
  8
ASSI
100
AcDbLine
 62
250
  6
CONTINUOUS
 10
-60.3556525797
 20
19.0650711498
 11
-60.3481972213
 21
9.6733339531
  0
LINE
  5
25A
100
AcDbEntity
  8
ASSI
100
AcDbLine
 62
7
  6
CONTINUOUS
 10
-61.0
 20
44.000609173
 11
-61.0
 21
3.6
  0
LINE
  5
25B
100
AcDbEntity
  8
ASSI
100
AcDbLine
 62
7
  6
CONTINUOUS
 10
-61.0
 20
-3.6
 11
-61.0
 21
-44.000609173
  0
LINE
  5
25C
100
AcDbEntity
  8
ASSI
100
AcDbLine
 62
7
  6
CONTINUOUS
 10
-60.9126980763
 20
-3.4689805518
 11
-60.9126980763
 21
3.4689805518
  0
LINE
  5
25D
100
AcDbEntity
  8
ASSI
100
AcDbLine
 62
250
  6
CONTINUOUS
 10
-60.8478926348
 20
9.666629151
 11
-60.8457836376
 21
-1.4519672319
  0
LINE
  5
25E
100
AcDbEntity
  8
ASSI
100
AcDbLine
 62
250
  6
CONTINUOUS
 10
-60.3481972213
 20
9.6733339531
 11
-60.3460882241
 21
-1.4529789662
  0
LINE
  5
25F
100
AcDbEntity
  8
ASSI
100
AcDbLine
 62
250
  6
CONTINUOUS
 10
-60.8457836376
 20
-1.4519672319
 11
-60.8478135997
 21
-9.496752107
  0
LINE
  5
260
100
AcDbEntity
  8
ASSI
100
AcDbLine
 62
250
  6
CONTINUOUS
 10
-60.3460882241
 20
-1.4529789662
 11
-60.3481181862
 21
-9.5035194331
  0
LINE
  5
261
100
AcDbEntity
  8
ASSI
100
AcDbLine
 62
250
  6
CONTINUOUS
 10
-60.8478135997
 20
-9.496752107
 11
-60.8529844299
 21
-16.8374605533
  0
LINE
  5
262
100
AcDbEntity
  8
ASSI
100
AcDbLine
 62
250
  6
CONTINUOUS
 10
-60.3481181862
 20
-9.5035194331
 11
-60.3532890164
 21
-16.8514902319
  0
LWPOLYLINE
  5
263
100
AcDbEntity
  8
ASSI
100
AcDbPolyline
 62
250
  6
CONTINUOUS
 90
9
 70
0
 10
-60.455134492
 20
-44.1327686324
 10
-60.4551395646
 20
-44.136879477
 10
-60.4551137573
 20
-44.1409894821
 10
-60.4550570668
 20
-44.1450987699
 10
-60.4549694963
 20
-44.1492072103
 10
-60.4548510562
 20
-44.1533144215
 10
-60.45470175
 20
-44.1574202748
 10
-60.4545215741
 20
-44.1615248935
 10
-60.4517294397
 20
-44.2154064276
  0
LINE
  5
264
100
AcDbEntity
  8
ASSI
100
AcDbLine
 62
250
  6
CONTINUOUS
 10
-60.8529844299
 20
-16.8374605533
 11
-60.8607720998
 21
-23.012882442
  0
LINE
  5
265
100
AcDbEntity
  8
ASSI
100
AcDbLine
 62
250
  6
CONTINUOUS
 10
-60.3532890164
 20
-16.8514902319
 11
-60.3610766863
 21
-23.0354449598
  0
LWPOLYLINE
  5
266
100
AcDbEntity
  8
ASSI
100
AcDbPolyline
 62
250
  6
CONTINUOUS
 90
10
 70
0
 10
-60.954793953
 20
-43.9554031259
 10
-60.954809689
 20
-43.963317595
 10
-60.9547636352
 20
-43.9712311586
 10
-60.9546558074
 20
-43.9791433311
 10
-60.9544862349
 20
-43.987053391
 10
-60.9542549357
 20
-43.9949610894
 10
-60.9539618978
 20
-44.0028666484
 10
-60.9536071207
 20
-44.0107698184
 10
-60.953190634
 20
-44.0186698781
 10
-60.9527124597
 20
-44.0265663421
  0
LINE
  5
267
100
AcDbEntity
  8
ASSI
100
AcDbLine
 62
250
  6
CONTINUOUS
 10
-60.8607720998
 20
-23.012882442
 11
-60.8704743754
 21
-28.0526288039
  0
LINE
  5
268
100
AcDbEntity
  8
ASSI
100
AcDbLine
 62
250
  6
CONTINUOUS
 10
-60.3610766863
 20
-23.0354449598
 11
-60.3707789619
 21
-28.085474528
  0
LINE
  5
269
100
AcDbEntity
  8
ASSI
100
AcDbLine
 62
250
  6
CONTINUOUS
 10
-60.8704743754
 20
-28.0526288039
 11
-60.8814389237
 21
-32.0986902686
  0
LINE
  5
26A
100
AcDbEntity
  8
ASSI
100
AcDbLine
 62
250
  6
CONTINUOUS
 10
-60.3707789619
 20
-28.085474528
 11
-60.3817435102
 21
-32.1438769404
  0
LINE
  5
26B
100
AcDbEntity
  8
ASSI
100
AcDbLine
 62
250
  6
CONTINUOUS
 10
-60.8814389237
 20
-32.0986902686
 11
-60.8940266863
 21
-35.5300684567
  0
LINE
  5
26C
100
AcDbEntity
  8
ASSI
100
AcDbLine
 62
250
  6
CONTINUOUS
 10
-60.3817435102
 20
-32.1438769404
 11
-60.3943312728
 21
-35.5904669076
  0
LINE
  5
26D
100
AcDbEntity
  8
ASSI
100
AcDbLine
 62
250
  6
CONTINUOUS
 10
-60.8940266863
 20
-35.5300684567
 11
-60.9074912748
 21
-38.2929133296
  0
LINE
  5
26E
100
AcDbEntity
  8
ASSI
100
AcDbLine
 62
250
  6
CONTINUOUS
 10
-60.3943312728
 20
-35.5904669076
 11
-60.4077958613
 21
-38.3720371809
  0
LINE
  5
26F
100
AcDbEntity
  8
ASSI
100
AcDbLine
 62
250
  6
CONTINUOUS
 10
-60.4077958613
 20
-38.3720371809
 11
-60.4140935113
 21
-39.4416589614
  0
LINE
  5
270
100
AcDbEntity
  8
ASSI
100
AcDbLine
 62
250
  6
CONTINUOUS
 10
-60.9074912748
 20
-38.2929133296
 11
-60.9208174867
 21
-40.3964674346
  0
LINE
  5
271
100
AcDbEntity
  8
ASSI
100
AcDbLine
 62
250
  6
CONTINUOUS
 10
-60.4140935113
 20
-39.4416589614
 11
-60.4286474456
 21
-41.4901589607
  0
LINE
  5
272
100
AcDbEntity
  8
ASSI
100
AcDbLine
 62
250
  6
CONTINUOUS
 10
-60.9208174867
 20
-40.3964674346
 11
-60.935571123
 21
-42.2001497409
  0
LINE
  5
273
100
AcDbEntity
  8
ASSI
100
AcDbLine
 62
250
  6
CONTINUOUS
 10
-60.4286474456
 20
-41.4901589607
 11
-60.4436829475
 21
-43.1284278308
  0
LINE
  5
274
100
AcDbEntity
  8
ASSI
100
AcDbLine
 62
250
  6
CONTINUOUS
 10
-60.935571123
 20
-42.2001497409
 11
-60.9503794997
 21
-43.6006461172
  0
LINE
  5
275
100
AcDbEntity
  8
ASSI
100
AcDbLine
 62
250
  6
CONTINUOUS
 10
-60.4436829475
 20
-43.1284278308
 11
-60.455134492
 21
-44.1327686324
  0
LINE
  5
276
100
AcDbEntity
  8
ASSI
100
AcDbLine
 62
250
  6
CONTINUOUS
 10
-60.9503794997
 20
-43.6006461172
 11
-60.954793953
 21
-43.9554031259
  0
LWPOLYLINE
  5
277
100
AcDbEntity
  8
ASSI
100
AcDbPolyline
 62
250
  6
CONTINUOUS
 90
9
 70
0
 10
-60.4545215741
 20
44.1615248935
 10
-60.45470175
 20
44.1574202748
 10
-60.4548510562
 20
44.1533144215
 10
-60.4549694963
 20
44.1492072103
 10
-60.4550570668
 20
44.1450987699
 10
-60.4551137573
 20
44.1409894821
 10
-60.4551395646
 20
44.136879477
 10
-60.455134492
 20
44.1327686324
 10
-60.4405255477
 20
42.8176447183
  0
LWPOLYLINE
  5
278
100
AcDbEntity
  8
ASSI
100
AcDbPolyline
 62
250
  6
CONTINUOUS
 90
10
 70
0
 10
-60.9527124597
 20
44.0265663421
 10
-60.953190634
 20
44.0186698781
 10
-60.9536071207
 20
44.0107698184
 10
-60.9539618978
 20
44.0028666484
 10
-60.9542549357
 20
43.9949610894
 10
-60.9544862349
 20
43.987053391
 10
-60.9546558074
 20
43.9791433311
 10
-60.9547636352
 20
43.9712311586
 10
-60.954809689
 20
43.963317595
 10
-60.954793953
 20
43.9554031259
  0
LWPOLYLINE
  5
279
100
AcDbEntity
  8
ASSI
100
AcDbPolyline
 62
250
  6
CONTINUOUS
 90
25
 70
0
 10
59.979449029
 20
-44.9788897961
 10
60.0122864898
 20
-44.9745268018
 10
60.0442234319
 20
-44.96647166
 10
60.0752598555
 20
-44.9549340505
 10
60.1054105951
 20
-44.9401722242
 10
60.134660816
 20
-44.9223774789
 10
60.1629660141
 20
-44.90158487
 10
60.1903897082
 20
-44.8778675933
 10
60.2168683794
 20
-44.8514280302
 10
60.2421669675
 20
-44.8224235649
 10
60.2662832369
 20
-44.7909798005
 10
60.2892194232
 20
-44.7572790312
 10
60.3107471734
 20
-44.7215897858
 10
60.3307738314
 20
-44.6842652669
 10
60.3493920533
 20
-44.6453253405
 10
60.3666514535
 20
-44.6044902746
 10
60.3826205459
 20
-44.561775412
 10
60.3972308166
 20
-44.5173745591
 10
60.4103263388
 20
-44.4711890853
 10
60.4219465207
 20
-44.4231081949
 10
60.4320519541
 20
-44.3734212997
 10
60.4403684868
 20
-44.3226487266
 10
60.4468047347
 20
-44.2710704488
 10
60.451452082
 20
-44.2186860412
 10
60.4545215741
 20
-44.1615248935
  0
LINE
  5
27A
100
AcDbEntity
  8
ASSI
100
AcDbLine
 62
7
  6
CONTINUOUS
 10
-61.0
 20
-3.6
 11
-60.9126980763
 21
-3.4689805518
  0
LWPOLYLINE
  5
27B
100
AcDbEntity
  8
ASSI
100
AcDbPolyline
 62
250
  6
CONTINUOUS
 90
25
 70
0
 10
59.9795020272
 20
-44.9788928542
 10
60.046140906
 20
-44.9750678133
 10
60.1114622167
 20
-44.9667908292
 10
60.1751868756
 20
-44.9543019919
 10
60.2368798378
 20
-44.9379055575
 10
60.2965140759
 20
-44.9178353864
 10
60.3544337729
 20
-44.8941342631
 10
60.410589001
 20
-44.8668937234
 10
60.4646237668
 20
-44.8363577009
 10
60.5164105003
 20
-44.80269827
 10
60.5658304705
 20
-44.7660730304
 10
60.6126864793
 20
-44.7267089583
 10
60.6567664544
 20
-44.6849013631
 10
60.6977845916
 20
-44.6410837011
 10
60.7358669013
 20
-44.5952922565
 10
60.7713619712
 20
-44.5471613102
 10
60.8041689475
 20
-44.4967482013
 10
60.8340766428
 20
-44.4442968067
 10
60.8611214237
 20
-44.3896161171
 10
60.8851964214
 20
-44.3326280688
 10
60.9059939697
 20
-44.2737179864
 10
60.9232536113
 20
-44.2133999054
 10
60.9368422223
 20
-44.1520028103
 10
60.9466909179
 20
-44.0896464636
 10
60.9527124597
 20
-44.0265663421
  0
LINE
  5
27C
100
AcDbEntity
  8
ASSI
100
AcDbLine
 62
7
  6
CONTINUOUS
 10
-61.0
 20
3.6
 11
-60.9126980763
 21
3.4689805518
  0
LWPOLYLINE
  5
27D
100
AcDbEntity
  8
0
100
AcDbPolyline
 62
7
  6
CONTINUOUS
 90
3
 70
0
 43
0.3500000006
 10
-3.2142856836
 20
57.8928615417
 10
-2.3571427875
 20
58.7499994812
 10
-2.3571427875
 20
55.7499985657
  0
LWPOLYLINE
  5
27E
100
AcDbEntity
  8
ASSI
100
AcDbPolyline
 62
250
  6
CONTINUOUS
 90
19
 70
0
 10
-60.4543105286
 20
-44.1656282746
 10
-60.4961783406
 20
-44.1671087186
 10
-60.5377513008
 20
-44.1673503372
 10
-60.5787365644
 20
-44.1663514274
 10
-60.618845424
 20
-44.1641190272
 10
-60.6577953428
 20
-44.1606688568
 10
-60.6953119447
 20
-44.1560252075
 10
-60.7311309504
 20
-44.1502207844
 10
-60.7650000344
 20
-44.1432964734
 10
-60.7966806017
 20
-44.1353010441
 10
-60.8259494782
 20
-44.1262908123
 10
-60.852600475
 20
-44.1163292463
 10
-60.8764458382
 20
-44.1054865169
 10
-60.8973175845
 20
-44.0938389977
 10
-60.9150686753
 20
-44.0814687353
 10
-60.9295740507
 20
-44.0684628749
 10
-60.9407315201
 20
-44.0549130333
 10
-60.9484624794
 20
-44.0409146529
 10
-60.9527124599
 20
-44.0265663387
  0
LWPOLYLINE
  5
27F
100
AcDbEntity
  8
ASSI
100
AcDbPolyline
 62
250
  6
CONTINUOUS
 90
19
 70
0
 10
60.4550985394
 20
-44.1286569522
 10
60.4977671365
 20
-44.127540542
 10
60.5401243893
 20
-44.1251680764
 10
60.5818612247
 20
-44.1215568668
 10
60.6226730968
 20
-44.1167332636
 10
60.6622622089
 20
-44.1107324635
 10
60.7003396868
 20
-44.1035982533
 10
60.7366276861
 20
-44.0953826898
 10
60.7708614198
 20
-44.0861457206
 10
60.8027910908
 20
-44.0759547459
 10
60.832183714
 20
-44.0648841273
 10
60.8588248167
 20
-44.0530146451
 10
60.8825200034
 20
-44.0404329086
 10
60.9030963745
 20
-44.0272307244
 10
60.9204037878
 20
-44.0135044263
 10
60.9343159541
 20
-43.9993541726
 10
60.9447313585
 20
-43.9848832151
 10
60.9515740013
 20
-43.9701971457
 10
60.954793953
 20
-43.9554031259
  0
LINE
  5
280
100
AcDbEntity
  8
ASSI
100
AcDbLine
 62
7
  6
CONTINUOUS
 10
-60.000609173
 20
-45.0
 11
60.000609173
 21
-45.0
  0
LINE
  5
281
100
AcDbEntity
  8
ASSI
100
AcDbLine
 62
250
  6
CONTINUOUS
 10
59.9794989691
 20
-44.9788897961
 11
-59.9794989691
 21
-44.9788897961
  0
LINE
  5
282
100
AcDbEntity
  8
ASSI
100
AcDbLine
 62
250
  6
CONTINUOUS
 10
60.4543105286
 20
-44.1656282748
 11
-60.4543105286
 21
-44.1656282748
  0
LWPOLYLINE
  5
283
100
AcDbEntity
  8
ASSI
100
AcDbPolyline
 62
250
  6
CONTINUOUS
 90
19
 70
0
 10
-60.4550985394
 20
-44.1286569522
 10
-60.4977671473
 20
-44.1275405339
 10
-60.5401244095
 20
-44.1251680605
 10
-60.581861253
 20
-44.1215568434
 10
-60.6226731316
 20
-44.1167332332
 10
-60.6622622486
 20
-44.1107324268
 10
-60.7003397295
 20
-44.1035982111
 10
-60.7366277299
 20
-44.0953826432
 10
-60.770861463
 20
-44.0861456706
 10
-60.8027911317
 20
-44.0759546939
 10
-60.8321837512
 20
-44.0648840747
 10
-60.858824849
 20
-44.0530145935
 10
-60.88252003
 20
-44.0404328595
 10
-60.9030963951
 20
-44.0272306795
 10
-60.9204038025
 20
-44.0135043873
 10
-60.9343159632
 20
-43.9993541411
 10
-60.944731363
 20
-43.9848831926
 10
-60.9515740027
 20
-43.9701971337
 10
-60.954793953
 20
-43.9554031259
  0
LWPOLYLINE
  5
284
100
AcDbEntity
  8
ASSI
100
AcDbPolyline
 62
250
  6
CONTINUOUS
 90
19
 70
0
 10
60.4543105286
 20
-44.1656282748
 10
60.4961788559
 20
-44.1671090295
 10
60.5377522538
 20
-44.1673509062
 10
60.5787378701
 20
-44.1663522011
 10
60.6188469931
 20
-44.1641199494
 10
60.6577970853
 20
-44.1606698754
 10
60.6953137736
 20
-44.1560262822
 10
60.7311327822
 20
-44.1502218803
 10
60.7650017941
 20
-44.1432975572
 10
60.7966822283
 20
-44.1353020892
 10
60.825950921
 20
-44.1262917983
 10
60.852601697
 20
-44.1163301548
 10
60.8764468222
 20
-44.1054873308
 10
60.8973183263
 20
-44.0938397056
 10
60.9150691858
 20
-44.0814693275
 10
60.9295743596
 20
-44.0684633363
 10
60.9407316701
 20
-44.054913349
 10
60.9484625228
 20
-44.0409148147
 10
60.9527124597
 20
-44.0265663421
  0
LINE
  5
285
100
AcDbEntity
  8
ASSI
100
AcDbLine
 62
250
  6
CONTINUOUS
 10
-34.6072177474
 20
-22.3793288227
 11
-34.6072177474
 21
22.3793288227
  0
LWPOLYLINE
  5
286
100
AcDbEntity
  8
ASSI
100
AcDbPolyline
 62
250
  6
CONTINUOUS
 90
25
 70
0
 10
-34.1084379453
 20
22.3592491706
 10
-34.1076479842
 20
22.3852442319
 10
-34.1051609429
 20
22.4111042076
 10
-34.1009897487
 20
22.4367207104
 10
-34.0951554486
 20
22.4619823199
 10
-34.0876842095
 20
22.4867877966
 10
-34.0786044784
 20
22.5110457145
 10
-34.0679524072
 20
22.5346565322
 10
-34.0557735114
 20
22.5575181168
 10
-34.0421169496
 20
22.5795379724
 10
-34.0270329461
 20
22.6006297385
 10
-34.0105886301
 20
22.620695838
 10
-33.9928703842
 20
22.6396351216
 10
-33.9740017568
 20
22.6573283561
 10
-33.9540221871
 20
22.6737505998
 10
-33.9328822474
 20
22.6889286219
 10
-33.910598838
 20
22.7028064561
 10
-33.8873018078
 20
22.7152612331
 10
-33.8631038565
 20
22.7262051768
 10
-33.8380446746
 20
22.7355860917
 10
-33.8122781945
 20
22.7433138309
 10
-33.7861113745
 20
22.7492947704
 10
-33.7597304299
 20
22.753509109
 10
-33.7331872766
 20
22.7559685398
 10
-33.7065983685
 20
22.7566766315
  0
LWPOLYLINE
  5
287
100
AcDbEntity
  8
ASSI
100
AcDbPolyline
 62
250
  6
CONTINUOUS
 90
25
 70
0
 10
-34.6072177474
 20
22.3793288227
 10
-34.6052420794
 20
22.4381974971
 10
-34.599557422
 20
22.4962968345
 10
-34.5901637753
 20
22.5536303661
 10
-34.5769915575
 20
22.6104310202
 10
-34.5601103505
 20
22.6664720309
 10
-34.5397288991
 20
22.7210707479
 10
-34.5158051326
 20
22.7742276046
 10
-34.4883811218
 20
22.8259553497
 10
-34.4577918247
 20
22.8755960574
 10
-34.423981448
 20
22.9231489533
 10
-34.3870057849
 20
22.9686325249
 10
-34.3473671737
 20
23.0114228548
 10
-34.3051541465
 20
23.0514307865
 10
-34.2602781711
 20
23.0887655322
 10
-34.2129759886
 20
23.1231034897
 10
-34.163112805
 20
23.1545336675
 10
-34.1108234143
 20
23.1829846236
 10
-34.0567489399
 20
23.2078934778
 10
-34.0007141659
 20
23.2292130866
 10
-33.9428943082
 20
23.2470055413
 10
-33.8844561383
 20
23.2608722427
 10
-33.82578858
 20
23.2706834306
 10
-33.7665027094
 20
23.2765774559
 10
-33.7065985265
 20
23.2785564331
  0
LWPOLYLINE
  5
288
100
AcDbEntity
  8
ASSI
100
AcDbPolyline
 62
7
  6
CONTINUOUS
 90
22
 70
0
 10
-34.0639986665
 20
22.314947961
 10
-34.06287727
 20
22.3448238404
 10
-34.0595288631
 20
22.3744620965
 10
-34.0539871001
 20
22.4036995179
 10
-34.0463121418
 20
22.4323293444
 10
-34.0365530767
 20
22.460247108
 10
-34.0247126938
 20
22.4874394223
 10
-34.0108126647
 20
22.5137953981
 10
-33.9949334049
 20
22.5391104389
 10
-33.977154765
 20
22.5632252012
 10
-33.9575337921
 20
22.5860257874
 10
-33.9361934366
 20
22.607337172
 10
-33.9133536531
 20
22.6269405611
 10
-33.88919458
 20
22.6447075131
 10
-33.8638236727
 20
22.6605843505
 10
-33.8373818814
 20
22.6745012617
 10
-33.8100608898
 20
22.6863758654
 10
-33.7819797834
 20
22.6961743129
 10
-33.7531646497
 20
22.7038864313
 10
-33.723725109
 20
22.7094589499
 10
-33.6938647422
 20
22.7128280465
 10
-33.6637485127
 20
22.7139559901
  0
LINE
  5
289
100
AcDbEntity
  8
ASSI
100
AcDbLine
 62
250
  6
CONTINUOUS
 10
-34.108438001
 20
-22.3592492262
 11
-34.108438001
 21
22.3592492262
  0
LINE
  5
28A
100
AcDbEntity
  8
ASSI
100
AcDbLine
 62
7
  6
CONTINUOUS
 10
-34.0639986665
 20
-22.314947961
 11
-34.0639986665
 21
22.314947961
  0
LINE
  5
28B
100
AcDbEntity
  8
ASSI
100
AcDbLine
 62
250
  6
CONTINUOUS
 10
-33.7065985265
 20
23.2785564331
 11
-33.7065985265
 21
22.756676789
  0
LINE
  5
28C
100
AcDbEntity
  8
ASSI
100
AcDbLine
 62
250
  6
CONTINUOUS
 10
-33.7065985265
 20
-23.2785564331
 11
-33.7065985265
 21
-22.756676789
  0
LINE
  5
28D
100
AcDbEntity
  8
CURVE
100
AcDbLine
 62
250
  6
CONTINUOUS
 10
5.3591482119
 20
-28.8778013544
 11
4.7970156219
 21
-28.8778013544
  0
LINE
  5
28E
100
AcDbEntity
  8
CURVE
100
AcDbLine
 62
250
  6
CONTINUOUS
 10
-4.616107
 20
-28.877801
 11
-4.101097
 21
-28.877801
  0
LINE
  5
28F
100
AcDbEntity
  8
CURVE
100
AcDbLine
 62
250
  6
CONTINUOUS
 10
3.9020753449
 20
-28.8778013544
 11
3.3200188023
 21
-28.8778013544
  0
LINE
  5
290
100
AcDbEntity
  8
CURVE
100
AcDbLine
 62
250
  6
CONTINUOUS
 10
-2.085272
 20
-28.877801
 11
-1.526183
 21
-28.877801
  0
LINE
  5
291
100
AcDbEntity
  8
CURVE
100
AcDbLine
 62
250
  6
CONTINUOUS
 10
-0.714487
 20
-28.877801
 11
-0.632524
 21
-28.877801
  0
LINE
  5
292
100
AcDbEntity
  8
CURVE
100
AcDbLine
 62
250
  6
CONTINUOUS
 10
0.182406
 20
-28.877801
 11
0.754112
 21
-28.877801
  0
LINE
  5
293
100
AcDbEntity
  8
CURVE
100
AcDbLine
 62
250
  6
CONTINUOUS
 10
0.84588
 20
-28.877801
 11
1.423947
 21
-28.877801
  0
LINE
  5
294
100
AcDbEntity
  8
CURVE
100
AcDbLine
 62
250
  6
CONTINUOUS
 10
2.532466
 20
-28.877801
 11
3.148408
 21
-28.877801
  0
LINE
  5
295
100
AcDbEntity
  8
CURVE
100
AcDbLine
 62
250
  6
CONTINUOUS
 10
-2.399877
 20
-28.877801
 11
-2.984285
 21
-28.877801
  0
LWPOLYLINE
  5
296
100
AcDbEntity
  8
CURVE
100
AcDbPolyline
 62
250
  6
CONTINUOUS
 90
36
 70
0
 10
3.3200188023
 20
-26.110807341
 10
3.3638755776
 20
-26.1044513717
 10
3.4070421029
 20
-26.0983943852
 10
3.4495003964
 20
-26.0926468525
 10
3.4912324763
 20
-26.0872192447
 10
3.5322203609
 20
-26.0821220328
 10
3.5724587215
 20
-26.0773633163
 10
3.6119928414
 20
-26.0729417089
 10
3.6508806569
 20
-26.0688534528
 10
3.6891801044
 20
-26.06509479
 10
3.7269491202
 20
-26.0616619629
 10
3.7734947064
 20
-26.0578248083
 10
3.8193670177
 20
-26.0544919472
 10
3.864631053
 20
-26.0516644264
 10
3.9093518113
 20
-26.049343293
 10
3.9535976953
 20
-26.0475312576
 10
3.9974507221
 20
-26.0462376863
 10
4.0409963127
 20
-26.045473609
 10
4.084319888
 20
-26.0452500555
 10
4.1418617823
 20
-26.0458124392
 10
4.1992123819
 20
-26.047384965
 10
4.2564232265
 20
-26.0499972355
 10
4.2992660158
 20
-26.0526633327
 10
4.3420531218
 20
-26.055983952
 10
4.3847784821
 20
-26.0600121076
 10
4.4274360343
 20
-26.064800814
 10
4.4615057291
 20
-26.069218393
 10
4.4955043354
 20
-26.0742041477
 10
4.5294080418
 20
-26.0798055721
 10
4.5631930369
 20
-26.0860701603
 10
4.5968355094
 20
-26.0930454063
 10
4.6303130222
 20
-26.1007791248
 10
4.6636086357
 20
-26.1093204129
 10
4.696706785
 20
-26.1187186885
 10
4.7295919047
 20
-26.1290233694
 10
4.7622484297
 20
-26.1402838735
  0
LWPOLYLINE
  5
297
100
AcDbEntity
  8
CURVE
100
AcDbPolyline
 62
250
  6
CONTINUOUS
 90
56
 70
0
 10
4.2166806432
 20
-27.3236280866
 10
4.2339563224
 20
-27.3230806504
 10
4.2508936537
 20
-27.3222197266
 10
4.2674902587
 20
-27.3210485153
 10
4.2837437589
 20
-27.3195702165
 10
4.2996517757
 20
-27.31778803
 10
4.3152119306
 20
-27.3157051559
 10
4.3304218452
 20
-27.3133247941
 10
4.3452807491
 20
-27.3106489412
 10
4.3597943049
 20
-27.3076747798
 10
4.3739697831
 20
-27.3043982893
 10
4.3878144544
 20
-27.3008154488
 10
4.4013355896
 20
-27.2969222376
 10
4.4145404593
 20
-27.2927146349
 10
4.4274363342
 20
-27.28818862
 10
4.4384712924
 20
-27.2839635724
 10
4.4492730589
 20
-27.279486411
 10
4.4598394496
 20
-27.2747518849
 10
4.4701682806
 20
-27.2697547429
 10
4.4802580492
 20
-27.2644883963
 10
4.4901099787
 20
-27.2589409043
 10
4.4997259736
 20
-27.2530989886
 10
4.5091079387
 20
-27.2469493705
 10
4.5182561572
 20
-27.2404801889
 10
4.5271644268
 20
-27.2336852513
 10
4.5358249236
 20
-27.2265597825
 10
4.5442298237
 20
-27.2190990073
 10
4.5523747155
 20
-27.2112978364
 10
4.5602688357
 20
-27.2031499236
 10
4.5679248329
 20
-27.1946486089
 10
4.5753553561
 20
-27.1857872319
 10
4.5825688989
 20
-27.1765629103
 10
4.5895573347
 20
-27.1669878722
 10
4.5963083818
 20
-27.1570781237
 10
4.6028097585
 20
-27.1468496708
 10
4.6090513741
 20
-27.136315055
 10
4.6150319022
 20
-27.1254729603
 10
4.6207522074
 20
-27.1143186061
 10
4.6262131542
 20
-27.1028472118
 10
4.6314132109
 20
-27.0910584332
 10
4.6363412605
 20
-27.0789696708
 10
4.6409837895
 20
-27.0666027617
 10
4.6453272847
 20
-27.0539795426
 10
4.6493590495
 20
-27.0411215168
 10
4.6530696548
 20
-27.0280488526
 10
4.6564504884
 20
-27.0147813844
 10
4.6594929381
 20
-27.0013389468
 10
4.6621887055
 20
-26.9877410719
 10
4.6645307481
 20
-26.9740060813
 10
4.6665123372
 20
-26.9601519941
 10
4.6681267441
 20
-26.9461968293
 10
4.6691483972
 20
-26.934966354
 10
4.6699214245
 20
-26.9236578878
 10
4.670436503
 20
-26.9122465969
 10
4.6706843098
 20
-26.9007076479
 10
4.670655522
 20
-26.889016207
  0
LINE
  5
298
100
AcDbEntity
  8
CURVE
100
AcDbLine
 62
250
  6
CONTINUOUS
 10
1.585207
 20
-28.318881
 11
2.381074
 21
-28.318881
  0
LINE
  5
299
100
AcDbEntity
  8
CURVE
100
AcDbLine
 62
250
  6
CONTINUOUS
 10
2.26428
 20
-27.886391
 11
1.704751
 21
-27.886391
  0
LINE
  5
29A
100
AcDbEntity
  8
CURVE
100
AcDbLine
 62
250
  6
CONTINUOUS
 10
4.2154209623
 20
-27.7821519248
 11
3.9020753449
 21
-27.7821519248
  0
LINE
  5
29B
100
AcDbEntity
  8
CURVE
100
AcDbLine
 62
250
  6
CONTINUOUS
 10
3.8826972541
 20
-27.3236280866
 11
4.2166806432
 21
-27.3236280866
  0
LINE
  5
29C
100
AcDbEntity
  8
CURVE
100
AcDbLine
 62
250
  6
CONTINUOUS
 10
2.28939
 20
-26.078098
 11
1.724045
 21
-26.078098
  0
LINE
  5
29D
100
AcDbEntity
  8
CURVE
100
AcDbLine
 62
250
  6
CONTINUOUS
 10
0.492308
 20
-26.078098
 11
-0.085906
 21
-26.078098
  0
LINE
  5
29E
100
AcDbEntity
  8
CURVE
100
AcDbLine
 62
250
  6
CONTINUOUS
 10
-1.24855
 20
-26.078098
 11
-1.832475
 21
-26.078098
  0
LINE
  5
29F
100
AcDbEntity
  8
CURVE
100
AcDbLine
 62
250
  6
CONTINUOUS
 10
-3.20116
 20
-26.078098
 11
-3.785169
 21
-26.078098
  0
LINE
  5
2A0
100
AcDbEntity
  8
CURVE
100
AcDbLine
 62
250
  6
CONTINUOUS
 10
-4.86882
 20
-26.078098
 11
-5.503668
 21
-26.078098
  0
LINE
  5
2A1
100
AcDbEntity
  8
CURVE
100
AcDbLine
 62
250
  6
CONTINUOUS
 10
-2.984285
 20
-26.07793
 11
-2.399877
 21
-26.07793
  0
LINE
  5
2A2
100
AcDbEntity
  8
ASSI
100
AcDbLine
 62
250
  6
CONTINUOUS
 10
33.7065985265
 20
-23.2785564331
 11
-33.7065985265
 21
-23.2785564331
  0
LWPOLYLINE
  5
2A3
100
AcDbEntity
  8
ASSI
100
AcDbPolyline
 62
250
  6
CONTINUOUS
 90
25
 70
0
 10
-33.7065983828
 20
-22.7566766457
 10
-33.7327995155
 20
-22.7559911461
 10
-33.7588670008
 20
-22.7536166545
 10
-33.7846923071
 20
-22.7495671211
 10
-33.8101647342
 20
-22.7438656498
 10
-33.8351823733
 20
-22.7365384234
 10
-33.8596516888
 20
-22.7276117189
 10
-33.8834736515
 20
-22.7171226983
 10
-33.9065461575
 20
-22.7051175442
 10
-33.9287739243
 20
-22.6916425027
 10
-33.9500709854
 20
-22.676748734
 10
-33.9703403254
 20
-22.6605037842
 10
-33.9894782136
 20
-22.6429900491
 10
-34.0073659346
 20
-22.6243304717
 10
-34.0239789971
 20
-22.6045657299
 10
-34.0393415326
 20
-22.5836451644
 10
-34.053397815
 20
-22.561588402
 10
-34.0660264332
 20
-22.5385235258
 10
-34.0771381627
 20
-22.5145549148
 10
-34.0866808606
 20
-22.4897224356
 10
-34.0945642687
 20
-22.4641795638
 10
-34.1006912444
 20
-22.4382231477
 10
-34.1050396379
 20
-22.4120356778
 10
-34.1076210585
 20
-22.3856721968
 10
-34.1084379394
 20
-22.3592491647
  0
LWPOLYLINE
  5
2A4
100
AcDbEntity
  8
ASSI
100
AcDbPolyline
 62
250
  6
CONTINUOUS
 90
25
 70
0
 10
-33.7065985265
 20
-23.2785564331
 10
-33.7655974502
 20
-23.2765723172
 10
-33.8238250324
 20
-23.2708888417
 10
-33.8812812731
 20
-23.2615040801
 10
-33.9381900681
 20
-23.2483388015
 10
-33.9943275216
 20
-23.2314645413
 10
-34.0490219467
 20
-23.2111039902
 10
-34.102263397
 20
-23.1872064963
 10
-34.1540618189
 20
-23.1598085762
 10
-34.2037753653
 20
-23.1292632593
 10
-34.2513910367
 20
-23.0955060408
 10
-34.2969218326
 20
-23.0585829878
 10
-34.339764904
 20
-23.0190143129
 10
-34.3798209007
 20
-22.9768782255
 10
-34.4171891729
 20
-22.9320773795
 10
-34.4515649229
 20
-22.8848705713
 10
-34.4830272276
 20
-22.8351187319
 10
-34.5114970101
 20
-22.7829399499
 10
-34.5364322424
 20
-22.7289821508
 10
-34.5577824809
 20
-22.6730678266
 10
-34.5755981693
 20
-22.6153570736
 10
-34.5894886099
 20
-22.5570128816
 10
-34.5993235702
 20
-22.4984236684
 10
-34.6052332827
 20
-22.4391966191
 10
-34.6072177474
 20
-22.3793288227
  0
LWPOLYLINE
  5
2A5
100
AcDbEntity
  8
ASSI
100
AcDbPolyline
 62
7
  6
CONTINUOUS
 90
22
 70
0
 10
-33.6637485127
 20
-22.7139559901
 10
-33.6938293503
 20
-22.7128306988
 10
-33.7236552984
 20
-22.7094694725
 10
-33.7530619616
 20
-22.7039098491
 10
-33.7818410849
 20
-22.6962169992
 10
-33.8098890274
 20
-22.6864430562
 10
-33.837195027
 20
-22.6745908107
 10
-33.8636499977
 20
-22.6606841214
 10
-33.8890484035
 20
-22.6448067206
 10
-33.9132295373
 20
-22.6270391773
 10
-33.9360808055
 20
-22.6074414232
 10
-33.9574290549
 20
-22.5861385555
 10
-33.9770555144
 20
-22.5633496898
 10
-33.9948341852
 20
-22.5392561493
 10
-34.0107136831
 20
-22.5139671439
 10
-34.0246243996
 20
-22.4876230635
 10
-34.0364872496
 20
-22.46041494
 10
-34.046270722
 20
-22.4324635189
 10
-34.0539646262
 20
-22.4037977928
 10
-34.0595188527
 20
-22.3745283202
 10
-34.0628747671
 20
-22.34485712
 10
-34.0639986665
 20
-22.314947961
  0
LWPOLYLINE
  5
2A6
100
AcDbEntity
  8
CURVE
100
AcDbPolyline
 62
250
  6
CONTINUOUS
 90
24
 70
0
 10
4.3405134288
 20
-26.5385722488
 10
4.3190156047
 20
-26.5362359378
 10
4.2974926553
 20
-26.5342135336
 10
4.2759479746
 20
-26.5325043325
 10
4.2543849563
 20
-26.5311076305
 10
4.2328069942
 20
-26.5300227236
 10
4.2112174821
 20
-26.5292489079
 10
4.1896198138
 20
-26.5287854795
 10
4.1707164344
 20
-26.5286341189
 10
4.1518033009
 20
-26.5287198571
 10
4.1328743052
 20
-26.5290426912
 10
4.1139233393
 20
-26.5296026188
 10
4.0949434563
 20
-26.5304006714
 10
4.0759243532
 20
-26.5314420177
 10
4.056854888
 20
-26.5327328607
 10
4.037723919
 20
-26.5342794033
 10
4.0185238783
 20
-26.5360850574
 10
3.9992614938
 20
-26.5381420714
 10
3.979947068
 20
-26.5404399026
 10
3.9605909028
 20
-26.5429680084
 10
3.941199275
 20
-26.5457140099
 10
3.9217623586
 20
-26.5486581822
 10
3.9022663021
 20
-26.5517789646
 10
3.8826972541
 20
-26.5550547959
  0
LWPOLYLINE
  5
2A7
100
AcDbEntity
  8
CURVE
100
AcDbPolyline
 62
250
  6
CONTINUOUS
 90
41
 70
0
 10
4.8225031649
 20
-27.5709244369
 10
4.8317766847
 20
-27.5747956981
 10
4.8409985566
 20
-27.5789973988
 10
4.8501738946
 20
-27.5835377937
 10
4.8593078129
 20
-27.5884251375
 10
4.8684048978
 20
-27.5936682712
 10
4.8774676248
 20
-27.5992783814
 10
4.8864979415
 20
-27.605267241
 10
4.8954977959
 20
-27.6116466229
 10
4.9044655873
 20
-27.6184249804
 10
4.913385522
 20
-27.6255974879
 10
4.922238258
 20
-27.6331560005
 10
4.9310044533
 20
-27.641092373
 10
4.9396659126
 20
-27.6493970004
 10
4.9482090276
 20
-27.6580544376
 10
4.9566213371
 20
-27.6670477796
 10
4.9648903794
 20
-27.6763601212
 10
4.9730070055
 20
-27.6859781735
 10
4.9809753153
 20
-27.695903112
 10
4.9888027212
 20
-27.7061397282
 10
4.9964966353
 20
-27.7166928136
 10
5.0040626455
 20
-27.727564918
 10
5.0114990415
 20
-27.7387496237
 10
5.0188022882
 20
-27.7502382709
 10
5.0259688509
 20
-27.7620222001
 10
5.0339883283
 20
-27.775841159
 10
5.0418255231
 20
-27.7900284553
 10
5.0494812959
 20
-27.8045780624
 10
5.0569565073
 20
-27.8194839539
 10
5.0642520177
 20
-27.8347401033
 10
5.0713686878
 20
-27.850340484
 10
5.0783073781
 20
-27.8662790695
 10
5.0861786044
 20
-27.8852926243
 10
5.0938094356
 20
-27.9047434908
 10
5.1012005556
 20
-27.9246168492
 10
5.1083526481
 20
-27.9448978797
 10
5.1152663972
 20
-27.9655717625
 10
5.1219424866
 20
-27.9866236778
 10
5.1283923997
 20
-28.0080390662
 10
5.1346708174
 20
-28.029804411
 10
5.1408432204
 20
-28.0519064559
  0
LWPOLYLINE
  5
2A8
100
AcDbEntity
  8
ASSI
100
AcDbPolyline
 62
250
  6
CONTINUOUS
 90
13
 70
0
 10
-34.3673707398
 20
-22.376684405
 10
-34.3316642582
 20
-22.3757562431
 10
-34.2978725753
 20
-22.3747028728
 10
-34.2662305066
 20
-22.3735316137
 10
-34.2369579304
 20
-22.372250605
 10
-34.2102582592
 20
-22.3708687482
 10
-34.1863170271
 20
-22.3693956457
 10
-34.1653005995
 20
-22.3678415341
 10
-34.1473550179
 20
-22.3662172126
 10
-34.1326049848
 20
-22.3645339687
 10
-34.1211529968
 20
-22.3628034989
 10
-34.1130786328
 20
-22.3610378283
 10
-34.108438001
 20
-22.3592492262
  0
LINE
  5
2A9
100
AcDbEntity
  8
ASSI
100
AcDbLine
 62
250
  6
CONTINUOUS
 10
-34.4435240315
 20
-22.3781402195
 11
-34.3673707398
 21
-22.376684405
  0
LINE
  5
2AA
100
AcDbEntity
  8
ASSI
100
AcDbLine
 62
250
  6
CONTINUOUS
 10
-34.5242193958
 20
-22.379029921
 11
-34.4435240315
 21
-22.3781402195
  0
LINE
  5
2AB
100
AcDbEntity
  8
ASSI
100
AcDbLine
 62
250
  6
CONTINUOUS
 10
-34.6072177474
 20
-22.3793288227
 11
-34.5242193958
 21
-22.379029921
  0
LINE
  5
2AC
100
AcDbEntity
  8
ASSI
100
AcDbLine
 62
250
  6
CONTINUOUS
 10
33.7065985265
 20
-22.756676789
 11
-33.7065985265
 21
-22.756676789
  0
LINE
  5
2AD
100
AcDbEntity
  8
ASSI
100
AcDbLine
 62
7
  6
CONTINUOUS
 10
33.6637485127
 20
-22.7139559901
 11
-33.6637485127
 21
-22.7139559901
  0
LINE
  5
2AE
100
AcDbEntity
  8
ASSI
100
AcDbLine
 62
250
  6
CONTINUOUS
 10
34.6072177474
 20
-22.3793288228
 11
34.5242192965
 21
-22.3790299207
  0
LINE
  5
2AF
100
AcDbEntity
  8
ASSI
100
AcDbLine
 62
250
  6
CONTINUOUS
 10
34.5242192965
 20
-22.3790299207
 11
34.4435238686
 21
-22.3781402176
  0
LWPOLYLINE
  5
2B0
100
AcDbEntity
  8
ASSI
100
AcDbPolyline
 62
250
  6
CONTINUOUS
 90
14
 70
0
 10
34.4435238686
 20
-22.3781402176
 10
34.3673705506
 20
-22.3766844014
 10
34.3316640689
 20
-22.3757562386
 10
34.2978723935
 20
-22.3747028674
 10
34.2662303384
 20
-22.3735316078
 10
34.2369577808
 20
-22.3722505987
 10
34.2102581321
 20
-22.3708687418
 10
34.1863169239
 20
-22.3693956395
 10
34.1653005346
 20
-22.3678415295
 10
34.147354986
 20
-22.36621721
 10
34.1326049502
 20
-22.3645339646
 10
34.1211529373
 20
-22.3628034886
 10
34.113078559
 20
-22.3610378078
 10
34.1084379453
 20
-22.3592491918
  0
LWPOLYLINE
  5
2B1
100
AcDbEntity
  8
CURVE
100
AcDbPolyline
 62
250
  6
CONTINUOUS
 90
86
 70
0
 10
4.7622484297
 20
-26.1402838735
 10
4.7777867336
 20
-26.1462188242
 10
4.7935438092
 20
-26.1529063147
 10
4.8095449681
 20
-26.1603775444
 10
4.8258155222
 20
-26.1686637121
 10
4.8423807832
 20
-26.1777960172
 10
4.8592660629
 20
-26.1878056587
 10
4.8764757259
 20
-26.19871398
 10
4.8939303487
 20
-26.2105029009
 10
4.9115295606
 20
-26.2231444858
 10
4.9291729909
 20
-26.2366107986
 10
4.9467602689
 20
-26.2508739036
 10
4.9641910241
 20
-26.265905865
 10
4.9813737255
 20
-26.2816817882
 10
4.9982522018
 20
-26.2981889442
 10
5.0147791211
 20
-26.3154176453
 10
5.0309071519
 20
-26.3333582039
 10
5.0465889626
 20
-26.3520009322
 10
5.0617772213
 20
-26.3713361427
 10
5.0764240629
 20
-26.3913419268
 10
5.0904794875
 20
-26.4119474932
 10
5.1038929613
 20
-26.4330698298
 10
5.116613951
 20
-26.4546259244
 10
5.1285919228
 20
-26.4765327648
 10
5.1397763432
 20
-26.498707339
 10
5.1501279433
 20
-26.5210738161
 10
5.1596525127
 20
-26.5435850901
 10
5.1683671056
 20
-26.5662012363
 10
5.1762887762
 20
-26.5888823301
 10
5.1834345789
 20
-26.6115884468
 10
5.1898215678
 20
-26.6342796617
 10
5.196513595
 20
-26.6614296447
 10
5.2021985317
 20
-26.6884101445
 10
5.2069374211
 20
-26.7151306281
 10
5.2107913064
 20
-26.7415005626
 10
5.2138212308
 20
-26.7674294148
 10
5.2160856852
 20
-26.7928387982
 10
5.2176329513
 20
-26.817698912
 10
5.2185087584
 20
-26.8419921016
 10
5.2187588359
 20
-26.8657007127
 10
5.2184289131
 20
-26.8888070907
 10
5.2175617976
 20
-26.9112991158
 10
5.2161886088
 20
-26.9331868063
 10
5.2143375444
 20
-26.9544857149
 10
5.2120368023
 20
-26.9752113945
 10
5.20931458
 20
-26.995379398
 10
5.2053589545
 20
-27.0198313447
 10
5.2008253072
 20
-27.0434814849
 10
5.1957501205
 20
-27.06637508
 10
5.1901698765
 20
-27.0885573911
 10
5.1841213291
 20
-27.1100665073
 10
5.1776423198
 20
-27.1309118287
 10
5.1707709621
 20
-27.1510955832
 10
5.1635453691
 20
-27.1706199985
 10
5.1560029488
 20
-27.1894878584
 10
5.1481782873
 20
-27.20770417
 10
5.1401052653
 20
-27.2252744963
 10
5.1318177635
 20
-27.2422044001
 10
5.1204862684
 20
-27.2637965622
 10
5.1088755165
 20
-27.2843066002
 10
5.0970273162
 20
-27.3037810288
 10
5.084982628
 20
-27.3222621132
 10
5.072779023
 20
-27.3397751203
 10
5.0604532245
 20
-27.3563410673
 10
5.0480428203
 20
-27.3719882272
 10
5.035588856
 20
-27.3867738977
 10
5.0231332416
 20
-27.4007626325
 10
5.0107186251
 20
-27.4140168632
 10
4.9983906065
 20
-27.4265905342
 10
4.9861955242
 20
-27.438535468
 10
4.9741754511
 20
-27.4499021615
 10
4.9623554003
 20
-27.4607358087
 10
4.9507561198
 20
-27.4710802782
 10
4.9338013685
 20
-27.4857746077
 10
4.9173935522
 20
-27.499601791
 10
4.9015769994
 20
-27.512633396
 10
4.8938299729
 20
-27.5188245259
 10
4.8860783994
 20
-27.5247663183
 10
4.8782365142
 20
-27.5304135582
 10
4.870325616
 20
-27.5356578136
 10
4.8623884615
 20
-27.5403853144
 10
4.8544465782
 20
-27.5445241546
 10
4.8465080385
 20
-27.5480195188
 10
4.8385483234
 20
-27.55084309
 10
4.8305433241
 20
-27.5529722438
 10
4.8225031649
 20
-27.554380628
  0
LINE
  5
2B2
100
AcDbEntity
  8
ASSI
100
AcDbLine
 62
250
  6
CONTINUOUS
 10
-60.954793953
 20
-43.9554031259
 11
-61.0
 21
-44.000609173
  0
LINE
  5
2B3
100
AcDbEntity
  8
ASSI
100
AcDbLine
 62
250
  6
CONTINUOUS
 10
-60.954793953
 20
43.9554031259
 11
-61.0
 21
44.000609173
  0
LINE
  5
2B4
100
AcDbEntity
  8
CURVE
100
AcDbLine
 62
250
  6
CONTINUOUS
 10
-5.503668
 20
-26.078098
 11
-4.616107
 21
-28.877801
  0
LINE
  5
2B5
100
AcDbEntity
  8
CURVE
100
AcDbLine
 62
250
  6
CONTINUOUS
 10
-4.335146
 20
-28.00522
 11
-4.86882
 21
-26.078098
  0
LINE
  5
2B6
100
AcDbEntity
  8
ASSI
100
AcDbLine
 62
250
  6
CONTINUOUS
 10
-59.9794989691
 20
-44.9788897961
 11
-60.000609173
 21
-45.0
  0
LINE
  5
2B7
100
AcDbEntity
  8
ASSI
100
AcDbLine
 62
250
  6
CONTINUOUS
 10
-34.108438001
 20
-22.3592492262
 11
-34.0639986665
 21
-22.314947961
  0
LINE
  5
2B8
100
AcDbEntity
  8
ASSI
100
AcDbLine
 62
250
  6
CONTINUOUS
 10
-33.7065985265
 20
-22.756676789
 11
-33.6637485127
 21
-22.7139559901
  0
LINE
  5
2B9
100
AcDbEntity
  8
ASSI
100
AcDbLine
 62
250
  6
CONTINUOUS
 10
-34.108438001
 20
22.3592492262
 11
-34.0639986665
 21
22.314947961
  0
LINE
  5
2BA
100
AcDbEntity
  8
ASSI
100
AcDbLine
 62
250
  6
CONTINUOUS
 10
-33.7065985265
 20
22.756676789
 11
-33.6637485127
 21
22.7139559901
  0
LINE
  5
2BB
100
AcDbEntity
  8
ASSI
100
AcDbLine
 62
250
  6
CONTINUOUS
 10
-59.9794989691
 20
44.9788897961
 11
-60.000609173
 21
45.0
  0
LWPOLYLINE
  5
2BC
100
AcDbEntity
  8
CURVE
100
AcDbPolyline
 62
250
  6
CONTINUOUS
 90
47
 70
0
 10
4.5413801162
 20
-28.0286044899
 10
4.5374505459
 20
-28.018516391
 10
4.5333433163
 20
-28.0086674754
 10
4.5290675981
 20
-27.9990555514
 10
4.5246325621
 20
-27.9896784273
 10
4.5200473794
 20
-27.9805339113
 10
4.5153212206
 20
-27.9716198116
 10
4.5104632567
 20
-27.9629339366
 10
4.5054826586
 20
-27.9544740945
 10
4.500388597
 20
-27.9462380935
 10
4.4951902429
 20
-27.9382237419
 10
4.4893010966
 20
-27.9295759399
 10
4.4832948972
 20
-27.9211945052
 10
4.4771720256
 20
-27.9130748696
 10
4.4709328629
 20
-27.9052124649
 10
4.46457779
 20
-27.897602723
 10
4.4581071882
 20
-27.8902410758
 10
4.4515214382
 20
-27.8831229552
 10
4.4448209212
 20
-27.8762437928
 10
4.4380060182
 20
-27.8695990208
 10
4.431077339
 20
-27.8631854469
 10
4.4240364085
 20
-27.8570053834
 10
4.4168849805
 20
-27.8510625187
 10
4.4096248088
 20
-27.8453605413
 10
4.4022576471
 20
-27.8399031393
 10
4.3947852492
 20
-27.8346940013
 10
4.3872093687
 20
-27.8297368155
 10
4.3795317595
 20
-27.8250352703
 10
4.3717541753
 20
-27.8205930541
 10
4.3638781731
 20
-27.8164124939
 10
4.3559045234
 20
-27.8124904712
 10
4.3478337998
 20
-27.8088225064
 10
4.3396665758
 20
-27.8054041196
 10
4.3314034253
 20
-27.802230831
 10
4.3230449219
 20
-27.799298161
 10
4.3145916392
 20
-27.7966016296
 10
4.3060441509
 20
-27.7941367572
 10
4.2974030307
 20
-27.791899064
 10
4.2886687244
 20
-27.789885316
 10
4.2798411663
 20
-27.7880972626
 10
4.2709201631
 20
-27.7865378987
 10
4.2619055212
 20
-27.7852102197
 10
4.2527970474
 20
-27.7841172205
 10
4.243594548
 20
-27.7832618963
 10
4.2342978296
 20
-27.7826472422
 10
4.2249066989
 20
-27.7822762533
 10
4.2154209623
 20
-27.7821519248
  0
LINE
  5
2BD
100
AcDbEntity
  8
CURVE
100
AcDbLine
 62
250
  6
CONTINUOUS
 10
-1.400068
 20
-27.049647
 11
-0.714487
 21
-28.877801
  0
LINE
  5
2BE
100
AcDbEntity
  8
CURVE
100
AcDbLine
 62
250
  6
CONTINUOUS
 10
-0.670314
 20
-27.632502
 11
-1.24855
 21
-26.078098
  0
LINE
  5
2BF
100
AcDbEntity
  8
CURVE
100
AcDbLine
 62
250
  6
CONTINUOUS
 10
3.148408
 20
-28.877801
 11
2.28939
 21
-26.078098
  0
LINE
  5
2C0
100
AcDbEntity
  8
CURVE
100
AcDbLine
 62
250
  6
CONTINUOUS
 10
2.381074
 20
-28.318881
 11
2.532466
 21
-28.877801
  0
LINE
  5
2C1
100
AcDbEntity
  8
CURVE
100
AcDbLine
 62
250
  6
CONTINUOUS
 10
0.754112
 20
-28.877801
 11
0.492308
 21
-26.078098
  0
LINE
  5
2C2
100
AcDbEntity
  8
CURVE
100
AcDbLine
 62
250
  6
CONTINUOUS
 10
0.062337
 20
-27.057269
 11
0.182406
 21
-28.877801
  0
LINE
  5
2C3
100
AcDbEntity
  8
CURVE
100
AcDbLine
 62
250
  6
CONTINUOUS
 10
-2.984285
 20
-28.877801
 11
-2.984285
 21
-26.07793
  0
LINE
  5
2C4
100
AcDbEntity
  8
CURVE
100
AcDbLine
 62
250
  6
CONTINUOUS
 10
-2.399877
 20
-26.07793
 11
-2.399877
 21
-28.877801
  0
LINE
  5
2C5
100
AcDbEntity
  8
CURVE
100
AcDbLine
 62
250
  6
CONTINUOUS
 10
-1.526183
 20
-28.877801
 11
-1.400068
 21
-27.049647
  0
LINE
  5
2C6
100
AcDbEntity
  8
CURVE
100
AcDbLine
 62
250
  6
CONTINUOUS
 10
-1.832475
 20
-26.078098
 11
-2.085272
 21
-28.877801
  0
LWPOLYLINE
  5
2C7
100
AcDbEntity
  8
0
100
AcDbPolyline
 62
7
  6
CONTINUOUS
 90
13
 70
0
 43
0.3500000006
 10
69.392856308
 20
-0.0000003204
 10
68.1071448669
 20
-0.0000003204
 10
67.6785713654
 20
0.2142864304
 10
67.2499978638
 20
0.642857666
 10
67.2499978638
 20
0.8571421509
 10
67.6785713654
 20
1.2857133865
 10
68.1071448669
 20
1.5000001373
 10
69.392856308
 20
1.5000001373
 10
69.8214298096
 20
1.2857133865
 10
70.2499987793
 20
0.8571421509
 10
70.2499987793
 20
0.642857666
 10
69.8214298096
 20
0.2142864304
 10
69.392856308
 20
-0.0000003204
  0
LINE
  5
2C8
100
AcDbEntity
  8
ASSI
100
AcDbLine
 62
250
  6
CONTINUOUS
 10
34.0639853624
 20
0.0
 11
60.8457392556
 21
0.0
  0
LINE
  5
2C9
100
AcDbEntity
  8
ASSI
100
AcDbLine
 62
250
  6
CONTINUOUS
 10
-34.0639853624
 20
-0.0
 11
-60.8457392556
 21
-0.0
  0
LWPOLYLINE
  5
2CA
100
AcDbEntity
  8
CURVE
100
AcDbPolyline
 62
250
  6
CONTINUOUS
 90
9
 70
0
 10
4.6273198692
 20
-28.2910698032
 10
4.6172064421
 20
-28.2569528503
 10
4.6069696605
 20
-28.2231864722
 10
4.5965821262
 20
-28.1897844491
 10
4.586016441
 20
-28.1567605612
 10
4.5752452069
 20
-28.1241285886
 10
4.5642410255
 20
-28.0919023114
 10
4.5529764988
 20
-28.0600955099
 10
4.5414242285
 20
-28.0287219642
  0
LINE
  5
2CB
100
AcDbEntity
  8
CURVE
100
AcDbLine
 62
250
  6
CONTINUOUS
 10
4.7820516863
 20
-28.8260416443
 11
4.7086443731
 21
-28.5752190835
  0
LINE
  5
2CC
100
AcDbEntity
  8
CURVE
100
AcDbLine
 62
250
  6
CONTINUOUS
 10
4.7970156219
 20
-28.8778013544
 11
4.7820516863
 21
-28.8260416443
  0
LWPOLYLINE
  5
2CD
100
AcDbEntity
  8
CURVE
100
AcDbPolyline
 62
250
  6
CONTINUOUS
 90
3
 70
0
 10
4.7086443731
 20
-28.5752190835
 10
4.6539656169
 20
-28.383663598
 10
4.6273198692
 20
-28.2910698032
  0
LINE
  5
2CE
100
AcDbEntity
  8
CURVE
100
AcDbLine
 62
250
  6
CONTINUOUS
 10
5.1408432204
 20
-28.0519064559
 11
5.1945404026
 21
-28.2507080396
  0
LINE
  5
2CF
100
AcDbEntity
  8
CURVE
100
AcDbLine
 62
250
  6
CONTINUOUS
 10
5.326691641
 20
-28.755986508
 11
5.3591482119
 21
-28.8778013544
  0
LINE
  5
2D0
100
AcDbEntity
  8
CURVE
100
AcDbLine
 62
250
  6
CONTINUOUS
 10
5.1945404026
 20
-28.2507080396
 11
5.2618582594
 21
-28.5068223826
  0
LINE
  5
2D1
100
AcDbEntity
  8
CURVE
100
AcDbLine
 62
250
  6
CONTINUOUS
 10
5.2618582594
 20
-28.5068223826
 11
5.326691641
 21
-28.755986508
  0
LINE
  5
2D2
100
AcDbEntity
  8
CURVE
100
AcDbLine
 62
250
  6
CONTINUOUS
 10
1.995737
 20
-26.847385
 11
2.26428
 21
-27.886391
  0
LWPOLYLINE
  5
2D3
100
AcDbEntity
  8
CURVE
100
AcDbPolyline
 62
250
  6
CONTINUOUS
 90
49
 70
0
 10
4.670655522
 20
-26.889016207
 10
4.6703442083
 20
-26.8785057391
 10
4.6697126907
 20
-26.86805367
 10
4.6687642341
 20
-26.8576563113
 10
4.6675021032
 20
-26.8473099747
 10
4.6659295628
 20
-26.8370109719
 10
4.6640498777
 20
-26.8267556146
 10
4.6618663127
 20
-26.8165402144
 10
4.6593821327
 20
-26.8063610831
 10
4.6566000608
 20
-26.7962170047
 10
4.6535206549
 20
-26.7861166536
 10
4.6501439313
 20
-26.7760711765
 10
4.6464699061
 20
-26.7660917201
 10
4.6424985956
 20
-26.7561894311
 10
4.6382300162
 20
-26.7463754562
 10
4.633664184
 20
-26.7366609423
 10
4.6288011154
 20
-26.7270570361
 10
4.6236407853
 20
-26.7175753891
 10
4.6181830039
 20
-26.7082296731
 10
4.6124275397
 20
-26.6990340644
 10
4.6063741617
 20
-26.6900027396
 10
4.6000226385
 20
-26.6811498752
 10
4.593372739
 20
-26.6724896476
 10
4.5864242319
 20
-26.6640362334
 10
4.5791768859
 20
-26.655803809
 10
4.5716324131
 20
-26.6478051014
 10
4.5638002979
 20
-26.640047039
 10
4.555691968
 20
-26.6325351007
 10
4.5473188512
 20
-26.6252747655
 10
4.5386923752
 20
-26.6182715122
 10
4.5298239677
 20
-26.6115308198
 10
4.5207250564
 20
-26.6050581671
 10
4.511407069
 20
-26.598859033
 10
4.5018814352
 20
-26.5929381593
 10
4.492159592
 20
-26.5872973393
 10
4.4822529786
 20
-26.5819376292
 10
4.4721730341
 20
-26.576860085
 10
4.4619311975
 20
-26.5720657629
 10
4.4515389079
 20
-26.5675557191
 10
4.4410076043
 20
-26.5633310097
 10
4.430348726
 20
-26.5593926909
 10
4.4195710863
 20
-26.5557423057
 10
4.4086729969
 20
-26.552383345
 10
4.3976501436
 20
-26.5493197866
 10
4.3864982125
 20
-26.5465556081
 10
4.3752128894
 20
-26.5440947873
 10
4.3637898605
 20
-26.5419413019
 10
4.3522248116
 20
-26.5400991298
 10
4.3405134288
 20
-26.5385722487
  0
LINE
  5
2D4
100
AcDbEntity
  8
CURVE
100
AcDbLine
 62
250
  6
CONTINUOUS
 10
3.3200188023
 20
-28.8778013544
 11
3.3200188023
 21
-26.110807341
  0
LINE
  5
2D5
100
AcDbEntity
  8
CURVE
100
AcDbLine
 62
250
  6
CONTINUOUS
 10
3.8826972541
 20
-26.5550547959
 11
3.8826972541
 21
-27.3236280866
  0
LINE
  5
2D6
100
AcDbEntity
  8
CURVE
100
AcDbLine
 62
250
  6
CONTINUOUS
 10
3.9020753449
 20
-27.7821519248
 11
3.9020753449
 21
-28.8778013544
  0
LINE
  5
2D7
100
AcDbEntity
  8
CURVE
100
AcDbLine
 62
250
  6
CONTINUOUS
 10
4.8225031649
 20
-27.554380628
 11
4.8225031649
 21
-27.5709244369
  0
LINE
  5
2D8
100
AcDbEntity
  8
CURVE
100
AcDbLine
 62
250
  6
CONTINUOUS
 10
-3.785169
 20
-26.078098
 11
-4.335146
 21
-28.00522
  0
LINE
  5
2D9
100
AcDbEntity
  8
CURVE
100
AcDbLine
 62
250
  6
CONTINUOUS
 10
-4.101097
 20
-28.877801
 11
-3.20116
 21
-26.078098
  0
LINE
  5
2DA
100
AcDbEntity
  8
CURVE
100
AcDbLine
 62
250
  6
CONTINUOUS
 10
1.704751
 20
-27.886391
 11
1.995737
 21
-26.847385
  0
LINE
  5
2DB
100
AcDbEntity
  8
CURVE
100
AcDbLine
 62
250
  6
CONTINUOUS
 10
1.423947
 20
-28.877801
 11
1.585207
 21
-28.318881
  0
LINE
  5
2DC
100
AcDbEntity
  8
CURVE
100
AcDbLine
 62
250
  6
CONTINUOUS
 10
1.724045
 20
-26.078098
 11
0.84588
 21
-28.877801
  0
LINE
  5
2DD
100
AcDbEntity
  8
CURVE
100
AcDbLine
 62
250
  6
CONTINUOUS
 10
-0.085906
 20
-26.078098
 11
-0.670314
 21
-27.632502
  0
LINE
  5
2DE
100
AcDbEntity
  8
CURVE
100
AcDbLine
 62
250
  6
CONTINUOUS
 10
-0.632524
 20
-28.877801
 11
0.062337
 21
-27.057269
  0
LINE
  5
2DF
100
AcDbEntity
  8
ASSI
100
AcDbLine
 62
250
  6
CONTINUOUS
 10
59.9794989691
 20
44.9788897961
 11
60.000609173
 21
45.0
  0
LINE
  5
2E0
100
AcDbEntity
  8
ASSI
100
AcDbLine
 62
250
  6
CONTINUOUS
 10
60.954793953
 20
43.9554031259
 11
61.0
 21
44.000609173
  0
LINE
  5
2E1
100
AcDbEntity
  8
ASSI
100
AcDbLine
 62
250
  6
CONTINUOUS
 10
33.7065985265
 20
22.756676789
 11
33.6637485127
 21
22.7139559901
  0
LINE
  5
2E2
100
AcDbEntity
  8
ASSI
100
AcDbLine
 62
250
  6
CONTINUOUS
 10
34.108438001
 20
22.3592492262
 11
34.0639986665
 21
22.314947961
  0
LINE
  5
2E3
100
AcDbEntity
  8
ASSI
100
AcDbLine
 62
250
  6
CONTINUOUS
 10
34.108438001
 20
-22.3592492262
 11
34.0639986665
 21
-22.314947961
  0
LINE
  5
2E4
100
AcDbEntity
  8
ASSI
100
AcDbLine
 62
250
  6
CONTINUOUS
 10
33.7065985265
 20
-22.756676789
 11
33.6637485127
 21
-22.7139559901
  0
LINE
  5
2E5
100
AcDbEntity
  8
ASSI
100
AcDbLine
 62
250
  6
CONTINUOUS
 10
59.9794989691
 20
-44.9788897961
 11
60.000609173
 21
-45.0
  0
LINE
  5
2E6
100
AcDbEntity
  8
ASSI
100
AcDbLine
 62
250
  6
CONTINUOUS
 10
60.954793953
 20
-43.9554031259
 11
61.0
 21
-44.000609173
  0
LWPOLYLINE
  5
2E7
100
AcDbEntity
  8
ASSI
100
AcDbPolyline
 62
250
  6
CONTINUOUS
 90
13
 70
0
 10
34.3673707398
 20
22.376684405
 10
34.3316642582
 20
22.3757562431
 10
34.2978725753
 20
22.3747028728
 10
34.2662305066
 20
22.3735316137
 10
34.2369579304
 20
22.372250605
 10
34.2102582592
 20
22.3708687482
 10
34.1863170271
 20
22.3693956457
 10
34.1653005995
 20
22.3678415341
 10
34.1473550179
 20
22.3662172126
 10
34.1326049848
 20
22.3645339687
 10
34.1211529968
 20
22.3628034989
 10
34.1130786328
 20
22.3610378283
 10
34.108438001
 20
22.3592492262
  0
LINE
  5
2E8
100
AcDbEntity
  8
ASSI
100
AcDbLine
 62
250
  6
CONTINUOUS
 10
34.4435240315
 20
22.3781402195
 11
34.3673707398
 21
22.376684405
  0
LINE
  5
2E9
100
AcDbEntity
  8
ASSI
100
AcDbLine
 62
250
  6
CONTINUOUS
 10
34.5242193958
 20
22.379029921
 11
34.4435240315
 21
22.3781402195
  0
LINE
  5
2EA
100
AcDbEntity
  8
ASSI
100
AcDbLine
 62
250
  6
CONTINUOUS
 10
34.6072177474
 20
22.3793288227
 11
34.5242193958
 21
22.379029921
  0
LINE
  5
2EB
100
AcDbEntity
  8
ASSI
100
AcDbLine
 62
7
  6
CONTINUOUS
 10
33.6637485127
 20
22.7139559901
 11
-33.6637485127
 21
22.7139559901
  0
LINE
  5
2EC
100
AcDbEntity
  8
ASSI
100
AcDbLine
 62
250
  6
CONTINUOUS
 10
-33.7065985265
 20
22.756676789
 11
33.7065985265
 21
22.756676789
  0
LINE
  5
2ED
100
AcDbEntity
  8
ASSI
100
AcDbLine
 62
250
  6
CONTINUOUS
 10
-33.7065985265
 20
23.2785564331
 11
33.7065985265
 21
23.2785564331
  0
LINE
  5
2EE
100
AcDbEntity
  8
ASSI
100
AcDbLine
 62
250
  6
CONTINUOUS
 10
-34.6072177474
 20
22.3793288228
 11
-34.5242192965
 21
22.3790299207
  0
LINE
  5
2EF
100
AcDbEntity
  8
ASSI
100
AcDbLine
 62
250
  6
CONTINUOUS
 10
-34.5242192965
 20
22.3790299207
 11
-34.4435238686
 21
22.3781402176
  0
LWPOLYLINE
  5
2F0
100
AcDbEntity
  8
ASSI
100
AcDbPolyline
 62
250
  6
CONTINUOUS
 90
14
 70
0
 10
-34.4435238686
 20
22.3781402176
 10
-34.3673705506
 20
22.3766844014
 10
-34.3316640689
 20
22.3757562386
 10
-34.2978723935
 20
22.3747028674
 10
-34.2662303384
 20
22.3735316078
 10
-34.2369577808
 20
22.3722505987
 10
-34.2102581321
 20
22.3708687418
 10
-34.1863169239
 20
22.3693956395
 10
-34.1653005346
 20
22.3678415295
 10
-34.147354986
 20
22.36621721
 10
-34.1326049502
 20
22.3645339646
 10
-34.1211529373
 20
22.3628034886
 10
-34.113078559
 20
22.3610378078
 10
-34.1084379453
 20
22.3592491918
  0
LWPOLYLINE
  5
2F1
100
AcDbEntity
  8
ASSI
100
AcDbPolyline
 62
250
  6
CONTINUOUS
 90
25
 70
0
 10
33.7065983828
 20
22.7566766457
 10
33.7327995155
 20
22.7559911461
 10
33.7588670008
 20
22.7536166545
 10
33.7846923071
 20
22.7495671211
 10
33.8101647342
 20
22.7438656498
 10
33.8351823733
 20
22.7365384234
 10
33.8596516888
 20
22.7276117189
 10
33.8834736515
 20
22.7171226983
 10
33.9065461575
 20
22.7051175442
 10
33.9287739243
 20
22.6916425027
 10
33.9500709854
 20
22.676748734
 10
33.9703403254
 20
22.6605037842
 10
33.9894782136
 20
22.6429900491
 10
34.0073659346
 20
22.6243304717
 10
34.0239789971
 20
22.6045657299
 10
34.0393415326
 20
22.5836451644
 10
34.053397815
 20
22.561588402
 10
34.0660264332
 20
22.5385235258
 10
34.0771381627
 20
22.5145549148
 10
34.0866808606
 20
22.4897224356
 10
34.0945642687
 20
22.4641795638
 10
34.1006912444
 20
22.4382231477
 10
34.1050396379
 20
22.4120356778
 10
34.1076210585
 20
22.3856721968
 10
34.1084379394
 20
22.3592491647
  0
LWPOLYLINE
  5
2F2
100
AcDbEntity
  8
ASSI
100
AcDbPolyline
 62
7
  6
CONTINUOUS
 90
22
 70
0
 10
33.6637485127
 20
22.7139559901
 10
33.6938293503
 20
22.7128306988
 10
33.7236552984
 20
22.7094694725
 10
33.7530619616
 20
22.7039098491
 10
33.7818410849
 20
22.6962169992
 10
33.8098890274
 20
22.6864430562
 10
33.837195027
 20
22.6745908107
 10
33.8636499977
 20
22.6606841214
 10
33.8890484035
 20
22.6448067206
 10
33.9132295373
 20
22.6270391773
 10
33.9360808055
 20
22.6074414232
 10
33.9574290549
 20
22.5861385555
 10
33.9770555144
 20
22.5633496898
 10
33.9948341852
 20
22.5392561493
 10
34.0107136831
 20
22.5139671439
 10
34.0246243996
 20
22.4876230635
 10
34.0364872496
 20
22.46041494
 10
34.046270722
 20
22.4324635189
 10
34.0539646262
 20
22.4037977928
 10
34.0595188527
 20
22.3745283202
 10
34.0628747671
 20
22.34485712
 10
34.0639986665
 20
22.314947961
  0
LWPOLYLINE
  5
2F3
100
AcDbEntity
  8
ASSI
100
AcDbPolyline
 62
250
  6
CONTINUOUS
 90
25
 70
0
 10
33.7065985265
 20
23.2785564331
 10
33.7655974502
 20
23.2765723172
 10
33.8238250324
 20
23.2708888417
 10
33.8812812731
 20
23.2615040801
 10
33.9381900681
 20
23.2483388015
 10
33.9943275216
 20
23.2314645413
 10
34.0490219467
 20
23.2111039902
 10
34.102263397
 20
23.1872064963
 10
34.1540618189
 20
23.1598085762
 10
34.2037753653
 20
23.1292632593
 10
34.2513910367
 20
23.0955060408
 10
34.2969218326
 20
23.0585829878
 10
34.339764904
 20
23.0190143129
 10
34.3798209007
 20
22.9768782255
 10
34.4171891729
 20
22.9320773795
 10
34.4515649229
 20
22.8848705713
 10
34.4830272276
 20
22.8351187319
 10
34.5114970101
 20
22.7829399499
 10
34.5364322424
 20
22.7289821508
 10
34.5577824809
 20
22.6730678266
 10
34.5755981693
 20
22.6153570736
 10
34.5894886099
 20
22.5570128816
 10
34.5993235702
 20
22.4984236684
 10
34.6052332827
 20
22.4391966191
 10
34.6072177474
 20
22.3793288227
  0
LINE
  5
2F4
100
AcDbEntity
  8
ASSI
100
AcDbLine
 62
250
  6
CONTINUOUS
 10
33.7065985265
 20
23.2785564331
 11
33.7065985265
 21
22.756676789
  0
LINE
  5
2F5
100
AcDbEntity
  8
ASSI
100
AcDbLine
 62
250
  6
CONTINUOUS
 10
33.7065985265
 20
-23.2785564331
 11
33.7065985265
 21
-22.756676789
  0
LINE
  5
2F6
100
AcDbEntity
  8
ASSI
100
AcDbLine
 62
7
  6
CONTINUOUS
 10
34.0639986665
 20
22.314947961
 11
34.0639986665
 21
-22.314947961
  0
LINE
  5
2F7
100
AcDbEntity
  8
ASSI
100
AcDbLine
 62
250
  6
CONTINUOUS
 10
34.108438001
 20
22.3592492262
 11
34.108438001
 21
-22.3592492262
  0
LINE
  5
2F8
100
AcDbEntity
  8
ASSI
100
AcDbLine
 62
250
  6
CONTINUOUS
 10
34.6072177474
 20
22.3793288227
 11
34.6072177474
 21
-22.3793288227
  0
LWPOLYLINE
  5
2F9
100
AcDbEntity
  8
ASSI
100
AcDbPolyline
 62
250
  6
CONTINUOUS
 90
25
 70
0
 10
34.1084379453
 20
-22.3592491706
 10
34.1076479842
 20
-22.3852442319
 10
34.1051609429
 20
-22.4111042076
 10
34.1009897487
 20
-22.4367207104
 10
34.0951554486
 20
-22.4619823199
 10
34.0876842095
 20
-22.4867877966
 10
34.0786044784
 20
-22.5110457145
 10
34.0679524072
 20
-22.5346565322
 10
34.0557735114
 20
-22.5575181168
 10
34.0421169496
 20
-22.5795379724
 10
34.0270329461
 20
-22.6006297385
 10
34.0105886301
 20
-22.620695838
 10
33.9928703842
 20
-22.6396351216
 10
33.9740017568
 20
-22.6573283561
 10
33.9540221871
 20
-22.6737505998
 10
33.9328822474
 20
-22.6889286219
 10
33.910598838
 20
-22.7028064561
 10
33.8873018078
 20
-22.7152612331
 10
33.8631038565
 20
-22.7262051768
 10
33.8380446746
 20
-22.7355860917
 10
33.8122781945
 20
-22.7433138309
 10
33.7861113745
 20
-22.7492947704
 10
33.7597304299
 20
-22.753509109
 10
33.7331872766
 20
-22.7559685398
 10
33.7065983685
 20
-22.7566766315
  0
LWPOLYLINE
  5
2FA
100
AcDbEntity
  8
ASSI
100
AcDbPolyline
 62
250
  6
CONTINUOUS
 90
25
 70
0
 10
34.6072177474
 20
-22.3793288227
 10
34.6052420794
 20
-22.4381974971
 10
34.599557422
 20
-22.4962968345
 10
34.5901637753
 20
-22.5536303661
 10
34.5769915575
 20
-22.6104310202
 10
34.5601103505
 20
-22.6664720309
 10
34.5397288991
 20
-22.7210707479
 10
34.5158051326
 20
-22.7742276046
 10
34.4883811218
 20
-22.8259553497
 10
34.4577918247
 20
-22.8755960574
 10
34.423981448
 20
-22.9231489533
 10
34.3870057849
 20
-22.9686325249
 10
34.3473671737
 20
-23.0114228548
 10
34.3051541465
 20
-23.0514307865
 10
34.2602781711
 20
-23.0887655322
 10
34.2129759886
 20
-23.1231034897
 10
34.163112805
 20
-23.1545336675
 10
34.1108234143
 20
-23.1829846236
 10
34.0567489399
 20
-23.2078934778
 10
34.0007141659
 20
-23.2292130866
 10
33.9428943082
 20
-23.2470055413
 10
33.8844561383
 20
-23.2608722427
 10
33.82578858
 20
-23.2706834306
 10
33.7665027094
 20
-23.2765774559
 10
33.7065985265
 20
-23.2785564331
  0
LWPOLYLINE
  5
2FB
100
AcDbEntity
  8
ASSI
100
AcDbPolyline
 62
7
  6
CONTINUOUS
 90
22
 70
0
 10
34.0639986665
 20
-22.314947961
 10
34.06287727
 20
-22.3448238404
 10
34.0595288631
 20
-22.3744620965
 10
34.0539871001
 20
-22.4036995179
 10
34.0463121418
 20
-22.4323293444
 10
34.0365530767
 20
-22.460247108
 10
34.0247126938
 20
-22.4874394223
 10
34.0108126647
 20
-22.5137953981
 10
33.9949334049
 20
-22.5391104389
 10
33.977154765
 20
-22.5632252012
 10
33.9575337921
 20
-22.5860257874
 10
33.9361934366
 20
-22.607337172
 10
33.9133536531
 20
-22.6269405611
 10
33.88919458
 20
-22.6447075131
 10
33.8638236727
 20
-22.6605843505
 10
33.8373818814
 20
-22.6745012617
 10
33.8100608898
 20
-22.6863758654
 10
33.7819797834
 20
-22.6961743129
 10
33.7531646497
 20
-22.7038864313
 10
33.723725109
 20
-22.7094589499
 10
33.6938647422
 20
-22.7128280465
 10
33.6637485127
 20
-22.7139559901
  0
LWPOLYLINE
  5
2FC
100
AcDbEntity
  8
ASSI
100
AcDbPolyline
 62
250
  6
CONTINUOUS
 90
19
 70
0
 10
60.4543105286
 20
44.1656282746
 10
60.4961783406
 20
44.1671087186
 10
60.5377513008
 20
44.1673503372
 10
60.5787365644
 20
44.1663514274
 10
60.618845424
 20
44.1641190272
 10
60.6577953428
 20
44.1606688568
 10
60.6953119447
 20
44.1560252075
 10
60.7311309504
 20
44.1502207844
 10
60.7650000344
 20
44.1432964734
 10
60.7966806017
 20
44.1353010441
 10
60.8259494782
 20
44.1262908123
 10
60.852600475
 20
44.1163292463
 10
60.8764458382
 20
44.1054865169
 10
60.8973175845
 20
44.0938389977
 10
60.9150686753
 20
44.0814687353
 10
60.9295740507
 20
44.0684628749
 10
60.9407315201
 20
44.0549130333
 10
60.9484624794
 20
44.0409146529
 10
60.9527124599
 20
44.0265663387
  0
LWPOLYLINE
  5
2FD
100
AcDbEntity
  8
ASSI
100
AcDbPolyline
 62
250
  6
CONTINUOUS
 90
19
 70
0
 10
-60.4543105286
 20
44.1656282748
 10
-60.4961788559
 20
44.1671090294
 10
-60.5377522538
 20
44.1673509062
 10
-60.5787378701
 20
44.1663522011
 10
-60.6188469931
 20
44.1641199493
 10
-60.6577970853
 20
44.1606698753
 10
-60.6953137736
 20
44.1560262822
 10
-60.7311327822
 20
44.1502218802
 10
-60.7650017941
 20
44.1432975571
 10
-60.7966822284
 20
44.1353020891
 10
-60.8259509211
 20
44.1262917982
 10
-60.852601697
 20
44.1163301547
 10
-60.8764468222
 20
44.1054873308
 10
-60.8973183263
 20
44.0938397055
 10
-60.9150691858
 20
44.0814693274
 10
-60.9295743596
 20
44.0684633362
 10
-60.9407316701
 20
44.0549133489
 10
-60.9484625228
 20
44.0409148146
 10
-60.9527124597
 20
44.0265663421
  0
LWPOLYLINE
  5
2FE
100
AcDbEntity
  8
ASSI
100
AcDbPolyline
 62
250
  6
CONTINUOUS
 90
19
 70
0
 10
-60.4550985394
 20
44.1286569522
 10
-60.4977671367
 20
44.1275405414
 10
-60.5401243897
 20
44.1251680753
 10
-60.5818612252
 20
44.1215568651
 10
-60.6226730975
 20
44.1167332614
 10
-60.6622622097
 20
44.110732461
 10
-60.7003396876
 20
44.1035982504
 10
-60.7366276869
 20
44.0953826868
 10
-60.7708614207
 20
44.0861457174
 10
-60.8027910916
 20
44.0759547426
 10
-60.8321837147
 20
44.064884124
 10
-60.8588248173
 20
44.0530146419
 10
-60.8825200039
 20
44.0404329056
 10
-60.9030963749
 20
44.0272307216
 10
-60.9204037881
 20
44.0135044239
 10
-60.9343159543
 20
43.9993541707
 10
-60.9447313585
 20
43.9848832138
 10
-60.9515740014
 20
43.970197145
 10
-60.954793953
 20
43.9554031259
  0
LINE
  5
2FF
100
AcDbEntity
  8
ASSI
100
AcDbLine
 62
250
  6
CONTINUOUS
 10
-60.4543105286
 20
44.1656282748
 11
60.4543105286
 21
44.1656282748
  0
LINE
  5
300
100
AcDbEntity
  8
ASSI
100
AcDbLine
 62
250
  6
CONTINUOUS
 10
-59.9794989691
 20
44.9788897961
 11
59.9794989691
 21
44.9788897961
  0
LINE
  5
301
100
AcDbEntity
  8
ASSI
100
AcDbLine
 62
7
  6
CONTINUOUS
 10
60.000609173
 20
45.0
 11
-60.000609173
 21
45.0
  0
LWPOLYLINE
  5
302
100
AcDbEntity
  8
ASSI
100
AcDbPolyline
 62
250
  6
CONTINUOUS
 90
19
 70
0
 10
60.4550985394
 20
44.1286569522
 10
60.497767147
 20
44.127540534
 10
60.540124409
 20
44.1251680606
 10
60.5818612523
 20
44.1215568435
 10
60.6226731308
 20
44.1167332333
 10
60.6622622477
 20
44.110732427
 10
60.7003397285
 20
44.1035982113
 10
60.7366277289
 20
44.0953826434
 10
60.770861462
 20
44.0861456709
 10
60.8027911308
 20
44.0759546942
 10
60.8321837503
 20
44.0648840751
 10
60.8588248483
 20
44.0530145938
 10
60.8825200295
 20
44.0404328598
 10
60.9030963947
 20
44.0272306798
 10
60.9204038022
 20
44.0135043875
 10
60.934315963
 20
43.9993541413
 10
60.9447313629
 20
43.9848831928
 10
60.9515740027
 20
43.9701971338
 10
60.954793953
 20
43.9554031259
  0
LINE
  5
303
100
AcDbEntity
  8
ASSI
100
AcDbLine
 62
7
  6
CONTINUOUS
 10
61.0
 20
3.6
 11
60.9126980763
 21
3.4689805518
  0
LWPOLYLINE
  5
304
100
AcDbEntity
  8
ASSI
100
AcDbPolyline
 62
250
  6
CONTINUOUS
 90
25
 70
0
 10
-59.979449029
 20
44.9788897961
 10
-60.0122864898
 20
44.9745268018
 10
-60.0442234319
 20
44.96647166
 10
-60.0752598555
 20
44.9549340505
 10
-60.1054105951
 20
44.9401722242
 10
-60.134660816
 20
44.9223774789
 10
-60.1629660141
 20
44.90158487
 10
-60.1903897082
 20
44.8778675933
 10
-60.2168683794
 20
44.8514280302
 10
-60.2421669675
 20
44.8224235649
 10
-60.2662832369
 20
44.7909798005
 10
-60.2892194232
 20
44.7572790312
 10
-60.3107471734
 20
44.7215897858
 10
-60.3307738314
 20
44.6842652669
 10
-60.3493920533
 20
44.6453253405
 10
-60.3666514535
 20
44.6044902746
 10
-60.3826205459
 20
44.561775412
 10
-60.3972308166
 20
44.5173745591
 10
-60.4103263388
 20
44.4711890853
 10
-60.4219465207
 20
44.4231081949
 10
-60.4320519541
 20
44.3734212997
 10
-60.4403684868
 20
44.3226487266
 10
-60.4468047347
 20
44.2710704488
 10
-60.451452082
 20
44.2186860412
 10
-60.4545215741
 20
44.1615248935
  0
LWPOLYLINE
  5
305
100
AcDbEntity
  8
ASSI
100
AcDbPolyline
 62
250
  6
CONTINUOUS
 90
25
 70
0
 10
-59.9795020272
 20
44.9788928542
 10
-60.046140906
 20
44.9750678133
 10
-60.1114622167
 20
44.9667908292
 10
-60.1751868756
 20
44.9543019919
 10
-60.2368798378
 20
44.9379055575
 10
-60.2965140759
 20
44.9178353864
 10
-60.3544337729
 20
44.8941342631
 10
-60.410589001
 20
44.8668937234
 10
-60.4646237668
 20
44.8363577009
 10
-60.5164105003
 20
44.80269827
 10
-60.5658304705
 20
44.7660730304
 10
-60.6126864793
 20
44.7267089583
 10
-60.6567664544
 20
44.6849013631
 10
-60.6977845916
 20
44.6410837011
 10
-60.7358669013
 20
44.5952922565
 10
-60.7713619712
 20
44.5471613102
 10
-60.8041689475
 20
44.4967482013
 10
-60.8340766428
 20
44.4442968067
 10
-60.8611214237
 20
44.3896161171
 10
-60.8851964214
 20
44.3326280688
 10
-60.9059939697
 20
44.2737179864
 10
-60.9232536113
 20
44.2133999054
 10
-60.9368422223
 20
44.1520028103
 10
-60.9466909179
 20
44.0896464636
 10
-60.9527124597
 20
44.0265663421
  0
LWPOLYLINE
  5
306
100
AcDbEntity
  8
0
100
AcDbPolyline
 62
7
  6
CONTINUOUS
 90
10
 70
0
 43
0.3500000006
 10
70.2499987793
 20
-1.9285708809
 10
69.392856308
 20
-1.0714295425
 10
68.5357138367
 20
-0.8571427917
 10
67.6785713654
 20
-0.8571427917
 10
67.2499978638
 20
-1.2857140274
 10
67.2499978638
 20
-1.9285708809
 10
67.6785713654
 20
-2.3571432495
 10
68.5357138367
 20
-2.3571432495
 10
68.9642873383
 20
-1.9285708809
 10
68.9642873383
 20
-1.0000006256
  0
LINE
  5
307
100
AcDbEntity
  8
ASSI
100
AcDbLine
 62
7
  6
CONTINUOUS
 10
61.0
 20
-3.6
 11
60.9126980763
 21
-3.4689805518
  0
LWPOLYLINE
  5
308
100
AcDbEntity
  8
0
100
AcDbPolyline
 62
7
  6
CONTINUOUS
 90
7
 70
0
 43
0.3500000006
 10
2.3571427875
 20
55.7499985657
 10
0.8571428254
 20
55.7499985657
 10
2.3571427875
 20
57.8928615417
 10
2.3571427875
 20
58.3214305115
 10
1.9285714102
 20
58.7499994812
 10
1.2857142735
 20
58.7499994812
 10
0.8571428254
 20
58.1071460266
  0
LWPOLYLINE
  5
309
100
AcDbEntity
  8
0
100
AcDbPolyline
 62
7
  6
CONTINUOUS
 90
7
 70
0
 43
0.3500000006
 10
0.0
 20
55.7499985657
 10
-1.5000000329
 20
55.7499985657
 10
0.0
 20
57.8928615417
 10
0.0
 20
58.3214305115
 10
-0.4285714127
 20
58.7499994812
 10
-1.0714285848
 20
58.7499994812
 10
-1.5000000329
 20
58.1071460266
  0
LWPOLYLINE
  5
30A
100
AcDbEntity
  8
ASSI
100
AcDbPolyline
 62
250
  6
CONTINUOUS
 90
25
 70
0
 10
60.9527124597
 20
44.0265663421
 10
60.9471726741
 20
44.085771512
 10
60.9382134389
 20
44.1446122075
 10
60.9258607803
 20
44.2028832802
 10
60.910187749
 20
44.2602659909
 10
60.8912231003
 20
44.3166785859
 10
60.8688845656
 20
44.3722536749
 10
60.8431316723
 20
44.4268817152
 10
60.8140387416
 20
44.4802182454
 10
60.7816605588
 20
44.5320200732
 10
60.7460539838
 20
44.5820731454
 10
60.7073062803
 20
44.6301381194
 10
60.6655528223
 20
44.675943667
 10
60.6209272483
 20
44.7192672295
 10
60.573554571
 20
44.7599122704
 10
60.52359044
 20
44.7976633323
 10
60.4713174682
 20
44.8322586794
 10
60.416812256
 20
44.8636002873
 10
60.3599095765
 20
44.8916678819
 10
60.3006555939
 20
44.9162820769
 10
60.2393854152
 20
44.9371479662
 10
60.1763681512
 20
44.9540283369
 10
60.1118700147
 20
44.9667243259
 10
60.0461504766
 20
44.9750663734
 10
59.9795021505
 20
44.9788929775
  0
LWPOLYLINE
  5
30B
100
AcDbEntity
  8
ASSI
100
AcDbPolyline
 62
250
  6
CONTINUOUS
 90
24
 70
0
 10
60.4517294397
 20
44.2154064276
 10
60.4474996803
 20
44.2648376966
 10
60.4416212502
 20
44.3137973076
 10
60.4340963429
 20
44.3620878121
 10
60.4249227649
 20
44.4096471266
 10
60.4140939364
 20
44.4565302739
 10
60.4015821343
 20
44.5026638788
 10
60.3874150815
 20
44.5477866436
 10
60.3716693678
 20
44.5916542433
 10
60.3543157033
 20
44.6341055712
 10
60.3353833777
 20
44.6749581281
 10
60.3150368508
 20
44.7139530087
 10
60.2932547737
 20
44.750917813
 10
60.2700584951
 20
44.7856997866
 10
60.2456765211
 20
44.8180940627
 10
60.2201518527
 20
44.8478881301
 10
60.1934414887
 20
44.8750092272
 10
60.1656449313
 20
44.8994305425
 10
60.1366771069
 20
44.9210089084
 10
60.1066230891
 20
44.9394964344
 10
60.0758376008
 20
44.9546850136
 10
60.044438883
 20
44.9664089723
 10
60.0123086946
 20
44.9745255485
 10
59.9794470358
 20
44.9788897961
  0
LINE
  5
30C
100
AcDbEntity
  8
ASSI
100
AcDbLine
 62
250
  6
CONTINUOUS
 10
60.954793953
 20
-43.9554031259
 11
60.9402276848
 21
-42.6790477488
  0
LINE
  5
30D
100
AcDbEntity
  8
ASSI
100
AcDbLine
 62
250
  6
CONTINUOUS
 10
60.9402276848
 20
-42.6790477488
 11
60.9260702454
 21
-41.0936504294
  0
LINE
  5
30E
100
AcDbEntity
  8
ASSI
100
AcDbLine
 62
250
  6
CONTINUOUS
 10
60.4405322713
 20
-42.818323935
 11
60.4263748319
 21
-41.2040122245
  0
LINE
  5
30F
100
AcDbEntity
  8
ASSI
100
AcDbLine
 62
250
  6
CONTINUOUS
 10
60.9260702454
 20
-41.0936504294
 11
60.9114922311
 21
-38.9810675057
  0
LINE
  5
310
100
AcDbEntity
  8
ASSI
100
AcDbLine
 62
250
  6
CONTINUOUS
 10
60.4263748319
 20
-41.2040122245
 11
60.4117968176
 21
-39.0661813721
  0
LINE
  5
311
100
AcDbEntity
  8
ASSI
100
AcDbLine
 62
250
  6
CONTINUOUS
 10
60.9114922311
 20
-38.9810675057
 11
60.9078023894
 21
-38.3485343339
  0
LINE
  5
312
100
AcDbEntity
  8
ASSI
100
AcDbLine
 62
250
  6
CONTINUOUS
 10
60.4117968176
 20
-39.0661813721
 11
60.3985653471
 21
-36.5486674694
  0
LINE
  5
313
100
AcDbEntity
  8
ASSI
100
AcDbLine
 62
250
  6
CONTINUOUS
 10
60.9078023894
 20
-38.3485343339
 11
60.894402344
 21
-35.6181116769
  0
LINE
  5
314
100
AcDbEntity
  8
ASSI
100
AcDbLine
 62
250
  6
CONTINUOUS
 10
60.3985653471
 20
-36.5486674694
 11
60.3860037681
 21
-33.4260589267
  0
LINE
  5
315
100
AcDbEntity
  8
ASSI
100
AcDbLine
 62
250
  6
CONTINUOUS
 10
60.894402344
 20
-35.6181116769
 11
60.8824505302
 21
-32.4147381234
  0
LINE
  5
316
100
AcDbEntity
  8
ASSI
100
AcDbLine
 62
250
  6
CONTINUOUS
 10
60.3860037681
 20
-33.4260589267
 11
60.373973743
 21
-29.4037198482
  0
LINE
  5
317
100
AcDbEntity
  8
ASSI
100
AcDbLine
 62
250
  6
CONTINUOUS
 10
60.8824505302
 20
-32.4147381234
 11
60.8716581737
 21
-28.5550216058
  0
LINE
  5
318
100
AcDbEntity
  8
ASSI
100
AcDbLine
 62
250
  6
CONTINUOUS
 10
60.373973743
 20
-29.4037198482
 11
60.364118239
 21
-24.8306046173
  0
LINE
  5
319
100
AcDbEntity
  8
ASSI
100
AcDbLine
 62
250
  6
CONTINUOUS
 10
60.8716581737
 20
-28.5550216058
 11
60.8621265064
 21
-23.8409196395
  0
LINE
  5
31A
100
AcDbEntity
  8
ASSI
100
AcDbLine
 62
250
  6
CONTINUOUS
 10
60.364118239
 20
-24.8306046173
 11
60.3556544256
 21
-19.066653539
  0
LINE
  5
31B
100
AcDbEntity
  8
ASSI
100
AcDbLine
 62
250
  6
CONTINUOUS
 10
60.8621265064
 20
-23.8409196395
 11
60.8542733513
 21
-18.0933832729
  0
LINE
  5
31C
100
AcDbEntity
  8
ASSI
100
AcDbLine
 62
250
  6
CONTINUOUS
 10
60.3556544256
 20
-19.066653539
 11
60.3495125512
 21
-12.0772490784
  0
LINE
  5
31D
100
AcDbEntity
  8
ASSI
100
AcDbLine
 62
250
  6
CONTINUOUS
 10
60.8542733513
 20
-18.0933832729
 11
60.8488587958
 21
-11.4919492176
  0
LINE
  5
31E
100
AcDbEntity
  8
ASSI
100
AcDbLine
 62
250
  6
CONTINUOUS
 10
60.3495125512
 20
-12.0772490784
 11
60.3464127188
 21
-4.1454480456
  0
LINE
  5
31F
100
AcDbEntity
  8
ASSI
100
AcDbLine
 62
250
  6
CONTINUOUS
 10
60.8488587958
 20
-11.4919492176
 11
60.8459806808
 21
-3.3759980231
  0
LINE
  5
320
100
AcDbEntity
  8
ASSI
100
AcDbLine
 62
7
  6
CONTINUOUS
 10
60.9126980763
 20
-3.4689805518
 11
60.9126980763
 21
3.4689805518
  0
LINE
  5
321
100
AcDbEntity
  8
ASSI
100
AcDbLine
 62
7
  6
CONTINUOUS
 10
61.0
 20
-44.000609173
 11
61.0
 21
-3.6
  0
LINE
  5
322
100
AcDbEntity
  8
ASSI
100
AcDbLine
 62
7
  6
CONTINUOUS
 10
61.0
 20
3.6
 11
61.0
 21
44.000609173
  0
LINE
  5
323
100
AcDbEntity
  8
ASSI
100
AcDbLine
 62
250
  6
CONTINUOUS
 10
60.3464127188
 20
-4.1454480456
 11
60.3465713432
 21
4.9320669023
  0
LINE
  5
324
100
AcDbEntity
  8
ASSI
100
AcDbLine
 62
250
  6
CONTINUOUS
 10
60.8459806808
 20
-3.3759980231
 11
60.8472771412
 21
8.2450701213
  0
LINE
  5
325
100
AcDbEntity
  8
ASSI
100
AcDbLine
 62
250
  6
CONTINUOUS
 10
60.3465713432
 20
4.9320669023
 11
60.3508401251
 21
14.0088101725
  0
LINE
  5
326
100
AcDbEntity
  8
ASSI
100
AcDbLine
 62
250
  6
CONTINUOUS
 10
60.8472771412
 20
8.2450701213
 11
60.8525386342
 21
16.37086648
  0
LWPOLYLINE
  5
327
100
AcDbEntity
  8
ASSI
100
AcDbPolyline
 62
250
  6
CONTINUOUS
 90
9
 70
0
 10
60.455134492
 20
44.1327686324
 10
60.4551395646
 20
44.136879477
 10
60.4551137573
 20
44.1409894821
 10
60.4550570668
 20
44.1450987699
 10
60.4549694963
 20
44.1492072103
 10
60.4548510562
 20
44.1533144215
 10
60.45470175
 20
44.1574202748
 10
60.4545215741
 20
44.1615248935
 10
60.4517294397
 20
44.2154064276
  0
LINE
  5
328
100
AcDbEntity
  8
ASSI
100
AcDbLine
 62
250
  6
CONTINUOUS
 10
60.3508401251
 20
14.0088101725
 11
60.3589498813
 21
21.6191668146
  0
LINE
  5
329
100
AcDbEntity
  8
ASSI
100
AcDbLine
 62
250
  6
CONTINUOUS
 10
60.8525386342
 20
16.37086648
 11
60.8615617557
 21
23.501516129
  0
LINE
  5
32A
100
AcDbEntity
  8
ASSI
100
AcDbLine
 62
250
  6
CONTINUOUS
 10
60.3589498813
 20
21.6191668146
 11
60.3689480883
 21
27.2659771116
  0
LWPOLYLINE
  5
32B
100
AcDbEntity
  8
ASSI
100
AcDbPolyline
 62
250
  6
CONTINUOUS
 90
10
 70
0
 10
60.954793953
 20
43.9554031259
 10
60.954809689
 20
43.963317595
 10
60.9547636352
 20
43.9712311586
 10
60.9546558074
 20
43.9791433311
 10
60.9544862349
 20
43.987053391
 10
60.9542549357
 20
43.9949610894
 10
60.9539618978
 20
44.0028666484
 10
60.9536071207
 20
44.0107698184
 10
60.953190634
 20
44.0186698781
 10
60.9527124597
 20
44.0265663421
  0
LINE
  5
32C
100
AcDbEntity
  8
ASSI
100
AcDbLine
 62
250
  6
CONTINUOUS
 10
60.8615617557
 20
23.501516129
 11
60.8732198726
 21
29.1907593837
  0
LINE
  5
32D
100
AcDbEntity
  8
ASSI
100
AcDbLine
 62
250
  6
CONTINUOUS
 10
60.3689480883
 20
27.2659771116
 11
60.3798164313
 21
31.5172988883
  0
LINE
  5
32E
100
AcDbEntity
  8
ASSI
100
AcDbLine
 62
250
  6
CONTINUOUS
 10
60.8732198726
 20
29.1907593837
 11
60.8857637613
 21
33.3941998462
  0
LINE
  5
32F
100
AcDbEntity
  8
ASSI
100
AcDbLine
 62
250
  6
CONTINUOUS
 10
60.3798164313
 20
31.5172988883
 11
60.3943783304
 21
35.6015958375
  0
LINE
  5
330
100
AcDbEntity
  8
ASSI
100
AcDbLine
 62
250
  6
CONTINUOUS
 10
60.8857637613
 20
33.3941998462
 11
60.899785747
 21
36.8056120512
  0
LINE
  5
331
100
AcDbEntity
  8
ASSI
100
AcDbLine
 62
250
  6
CONTINUOUS
 10
60.3943783304
 20
35.6015958375
 11
60.4090430022
 21
38.5940754802
  0
LINE
  5
332
100
AcDbEntity
  8
ASSI
100
AcDbLine
 62
250
  6
CONTINUOUS
 10
60.4090430022
 20
38.5940754802
 11
60.4226815217
 21
40.7140209004
  0
LINE
  5
333
100
AcDbEntity
  8
ASSI
100
AcDbLine
 62
250
  6
CONTINUOUS
 10
60.899785747
 20
36.8056120512
 11
60.926909843
 21
41.1988454102
  0
LINE
  5
334
100
AcDbEntity
  8
ASSI
100
AcDbLine
 62
250
  6
CONTINUOUS
 10
60.4226815217
 20
40.7140209004
 11
60.4372963845
 21
42.4826580088
  0
LINE
  5
335
100
AcDbEntity
  8
ASSI
100
AcDbLine
 62
250
  6
CONTINUOUS
 10
60.926909843
 20
41.1988454102
 11
60.9409210449
 21
42.7472488256
  0
LINE
  5
336
100
AcDbEntity
  8
ASSI
100
AcDbLine
 62
250
  6
CONTINUOUS
 10
60.4372963845
 20
42.4826580088
 11
60.4518102117
 21
43.8588493824
  0
LINE
  5
337
100
AcDbEntity
  8
ASSI
100
AcDbLine
 62
250
  6
CONTINUOUS
 10
60.4518102117
 20
43.8588493824
 11
60.455134492
 21
44.1327686324
  0
LINE
  5
338
100
AcDbEntity
  8
ASSI
100
AcDbLine
 62
250
  6
CONTINUOUS
 10
60.9409210449
 20
42.7472488256
 11
60.954793953
 21
43.9554031259
  0
LWPOLYLINE
  5
339
100
AcDbEntity
  8
ASSI
100
AcDbPolyline
 62
250
  6
CONTINUOUS
 90
9
 70
0
 10
60.4545215741
 20
-44.1615248935
 10
60.45470175
 20
-44.1574202748
 10
60.4548510562
 20
-44.1533144215
 10
60.4549694963
 20
-44.1492072103
 10
60.4550570668
 20
-44.1450987699
 10
60.4551137573
 20
-44.1409894821
 10
60.4551395646
 20
-44.136879477
 10
60.455134492
 20
-44.1327686324
 10
60.4405322713
 20
-42.818323935
  0
LWPOLYLINE
  5
33A
100
AcDbEntity
  8
ASSI
100
AcDbPolyline
 62
250
  6
CONTINUOUS
 90
10
 70
0
 10
60.9527124597
 20
-44.0265663421
 10
60.953190634
 20
-44.0186698781
 10
60.9536071207
 20
-44.0107698184
 10
60.9539618978
 20
-44.0028666484
 10
60.9542549357
 20
-43.9949610894
 10
60.9544862349
 20
-43.987053391
 10
60.9546558074
 20
-43.9791433311
 10
60.9547636352
 20
-43.9712311586
 10
60.954809689
 20
-43.963317595
 10
60.954793953
 20
-43.9554031259
  0
LWPOLYLINE
  5
33B
100
AcDbEntity
  8
0
100
AcDbPolyline
 62
7
  6
CONTINUOUS
 90
3
 70
0
 43
0.3500000006
 10
-118.7555968323
 20
67.910502594
 10
-117.8984498291
 20
68.7676405334
 10
-117.8984498291
 20
65.7676396179
  0
LWPOLYLINE
  5
33C
100
AcDbEntity
  8
0
100
AcDbPolyline
 62
7
  6
CONTINUOUS
 90
3
 70
0
 43
0.3500000006
 10
-117.0413028259
 20
67.910502594
 10
-116.1841648865
 20
68.7676405334
 10
-116.1841648865
 20
65.7676396179
  0
LWPOLYLINE
  5
33D
100
AcDbEntity
  8
0
100
AcDbPolyline
 62
7
  6
CONTINUOUS
 90
10
 70
0
 43
0.3500000006
 10
-113.1841639709
 20
65.7676396179
 10
-112.3270169678
 20
66.6247866211
 10
-112.1127324829
 20
67.4819336243
 10
-112.1127324829
 20
68.3390715637
 10
-112.5413105164
 20
68.7676405334
 10
-113.1841639709
 20
68.7676405334
 10
-113.6127329407
 20
68.3390715637
 10
-113.6127329407
 20
67.4819336243
 10
-113.1841639709
 20
67.0533555908
 10
-112.2555948486
 20
67.0533555908
  0
LWPOLYLINE
  5
33E
100
AcDbEntity
  8
0
100
AcDbPolyline
 62
7
  6
CONTINUOUS
 90
10
 70
0
 43
0.3500000006
 10
-113.8865479431
 20
55.7662588806
 10
-113.0294009399
 20
56.6234058838
 10
-112.8151164551
 20
57.4805438232
 10
-112.8151164551
 20
58.3376908264
 10
-113.2436854248
 20
58.7662597961
 10
-113.8865479431
 20
58.7662597961
 10
-114.3151169128
 20
58.3376908264
 10
-114.3151169128
 20
57.4805438232
 10
-113.8865479431
 20
57.0519748535
 10
-112.9579697571
 20
57.0519748535
  0
LINE
  5
33F
100
AcDbEntity
  8
ASSI
100
AcDbLine
 62
7
  6
CONTINUOUS
 10
-101.4795173461
 20
-44.9788897961
 11
-100.8750002002
 21
-45.0
  0
LINE
  5
340
100
AcDbEntity
  8
ASSI
100
AcDbLine
 62
250
  6
CONTINUOUS
 10
-102.1695320134
 20
-43.9554031259
 11
-100.8750002002
 21
-44.000609173
  0
LWPOLYLINE
  5
341
100
AcDbEntity
  8
ASSI
100
AcDbPolyline
 62
250
  6
CONTINUOUS
 90
25
 70
0
 10
-101.4794297738
 20
-44.9788928542
 10
-101.5224406936
 20
-44.9750678133
 10
-101.5642582911
 20
-44.9667908292
 10
-101.6048812045
 20
-44.9543019919
 10
-101.6442858078
 20
-44.9379055575
 10
-101.6824983826
 20
-44.9178353864
 10
-101.7195896187
 20
-44.8941342631
 10
-101.755645777
 20
-44.8668937234
 10
-101.7905781364
 20
-44.8363577009
 10
-101.8241910036
 20
-44.80269827
 10
-101.8564920301
 20
-44.7660730304
 10
-101.8874759615
 20
-44.7267089583
 10
-101.9169295748
 20
-44.6849013631
 10
-101.9447245356
 20
-44.6410837011
 10
-101.9710000019
 20
-44.5952922565
 10
-101.9959397171
 20
-44.5471613102
 10
-102.0196176777
 20
-44.4967482013
 10
-102.0419595093
 20
-44.4442968067
 10
-102.062917605
 20
-44.3896161171
 10
-102.0825504816
 20
-44.3326280688
 10
-102.1007958762
 20
-44.2737179864
 10
-102.1174255127
 20
-44.2133999054
 10
-102.1323671868
 20
-44.1520028103
 10
-102.145701719
 20
-44.0896464636
 10
-102.1574342859
 20
-44.0265663421
  0
LWPOLYLINE
  5
342
100
AcDbEntity
  8
ASSI
100
AcDbPolyline
 62
250
  6
CONTINUOUS
 90
15
 70
0
 10
-102.5781584884
 20
-44.1641199494
 10
-102.5629255526
 20
-44.1606698754
 10
-102.5447049548
 20
-44.1560262822
 10
-102.5236250448
 20
-44.1502218803
 10
-102.499834314
 20
-44.1432975572
 10
-102.4735003497
 20
-44.1353020892
 10
-102.4448086539
 20
-44.1262917983
 10
-102.4139613374
 20
-44.1163301548
 10
-102.3811756954
 20
-44.1054873308
 10
-102.3466826772
 20
-44.0938397056
 10
-102.3107252592
 20
-44.0814693275
 10
-102.2735567334
 20
-44.0684633363
 10
-102.2354389232
 20
-44.054913349
 10
-102.1966403388
 20
-44.0409148147
 10
-102.1574342859
 20
-44.0265663421
  0
LWPOLYLINE
  5
343
100
AcDbEntity
  8
ASSI
100
AcDbPolyline
 62
250
  6
CONTINUOUS
 90
5
 70
0
 10
-102.6073980092
 20
44.1656282746
 10
-102.6049680563
 20
44.1671087186
 10
-102.5992543493
 20
44.1673503372
 10
-102.5902971179
 20
44.1663514274
 10
-102.5781594389
 20
44.1641190272
  0
LWPOLYLINE
  5
344
100
AcDbEntity
  8
ASSI
100
AcDbPolyline
 62
250
  6
CONTINUOUS
 90
5
 70
0
 10
-102.6073980092
 20
-44.1656282748
 10
-102.6049678927
 20
-44.1671090295
 10
-102.5992539589
 20
-44.1673509062
 10
-102.590296458
 20
-44.1663522011
 10
-102.5781584884
 20
-44.1641199494
  0
LWPOLYLINE
  5
345
100
AcDbEntity
  8
0
100
AcDbPolyline
 62
7
  6
CONTINUOUS
 90
3
 70
0
 43
0.3500000006
 10
-114.6127332458
 20
66.0533552856
 10
-114.6841644287
 20
65.8390708008
 10
-114.8270177307
 20
65.5533551331
  0
LWPOLYLINE
  5
346
100
AcDbEntity
  8
0
100
AcDbPolyline
 62
7
  6
CONTINUOUS
 90
3
 70
0
 43
0.3500000006
 10
-115.315117218
 20
56.0519745483
 10
-115.3865484009
 20
55.8376900635
 10
-115.5294017029
 20
55.5519743958
  0
LINE
  5
347
100
AcDbEntity
  8
RACCORDO
100
AcDbLine
 62
7
  6
CONTINUOUS
 10
-95.8500122705
 20
-26.8337829892
 11
-94.0237982747
 21
-26.3501367414
  0
LINE
  5
348
100
AcDbEntity
  8
RACCORDO
100
AcDbLine
 62
250
  6
CONTINUOUS
 10
-95.6472982487
 20
-26.6250583679
 11
-94.4722232098
 21
-26.3138568139
  0
LINE
  5
349
100
AcDbEntity
  8
RACCORDO
100
AcDbLine
 62
7
  6
CONTINUOUS
 10
-94.0335590864
 20
-26.3106750548
 11
-94.0424657249
 21
-26.3116065884
  0
LWPOLYLINE
  5
34A
100
AcDbEntity
  8
RACCORDO
100
AcDbPolyline
 62
7
  6
CONTINUOUS
 90
4
 70
0
 10
-95.9007803003
 20
-26.8404353489
 10
-95.8876243355
 20
-26.8399785672
 10
-95.8686654333
 20
-26.837779512
 10
-95.8500049904
 20
-26.8337810611
  0
LWPOLYLINE
  5
34B
100
AcDbEntity
  8
RACCORDO
100
AcDbPolyline
 62
250
  6
CONTINUOUS
 90
19
 70
0
 10
-94.0739530075
 20
-26.2531936162
 10
-94.0566002524
 20
-26.2525957911
 10
-94.0393817289
 20
-26.2509347613
 10
-94.0224275998
 20
-26.2482222136
 10
-94.005864733
 20
-26.2444774147
 10
-93.9898202484
 20
-26.2397280491
 10
-93.9744200357
 20
-26.2340109166
 10
-93.9597819256
 20
-26.2273699363
 10
-93.9460151094
 20
-26.2198548312
 10
-93.9332235016
 20
-26.2115223005
 10
-93.9215036788
 20
-26.2024351546
 10
-93.9109445588
 20
-26.1926622276
 10
-93.901626382
 20
-26.1822778124
 10
-93.8936196775
 20
-26.1713607152
 10
-93.8869846859
 20
-26.1599933148
 10
-93.8817713675
 20
-26.148261307
 10
-93.8780191183
 20
-26.1362533054
 10
-93.8757563592
 20
-26.1240602028
 10
-93.8750002002
 20
-26.1117741985
  0
LWPOLYLINE
  5
34C
100
AcDbEntity
  8
RACCORDO
100
AcDbPolyline
 62
250
  6
CONTINUOUS
 90
19
 70
0
 10
-94.0739530075
 20
-26.0595607844
 10
-94.0565818355
 20
-26.0589617556
 10
-94.0393453329
 20
-26.0572972693
 10
-94.0223740751
 20
-26.0545790649
 10
-94.005795489
 20
-26.0508265354
 10
-93.9897369138
 20
-26.0460674626
 10
-93.9743241692
 20
-26.0403386187
 10
-93.9596753739
 20
-26.0336839659
 10
-93.9459002493
 20
-26.0261534093
 10
-93.9331030445
 20
-26.01780379
 10
-93.9213794181
 20
-26.0086970272
 10
-93.910820197
 20
-25.9989031353
 10
-93.9015089264
 20
-25.9885003673
 10
-93.8935124559
 20
-25.9775644206
 10
-93.8868933408
 20
-25.9661820236
 10
-93.8817064661
 20
-25.9544561869
 10
-93.8779849549
 20
-25.9424826187
 10
-93.8757464984
 20
-25.9303471499
 10
-93.8750002002
 20
-25.9181413667
  0
LINE
  5
34D
100
AcDbEntity
  8
RACCORDO
100
AcDbLine
 62
7
  6
CONTINUOUS
 10
-94.0424657102
 20
-26.3116066294
 11
-100.8750002002
 21
-26.3473819822
  0
LINE
  5
34E
100
AcDbEntity
  8
RACCORDO
100
AcDbLine
 62
250
  6
CONTINUOUS
 10
-94.0739530075
 20
-26.2531936162
 11
-100.8750002002
 21
-26.2888041414
  0
LINE
  5
34F
100
AcDbEntity
  8
DRAFT
100
AcDbLine
 62
7
  6
CONTINUOUS
 10
-100.8750002002
 20
-26.8491273345
 11
-95.9007797057
 21
-26.8404456731
  0
LINE
  5
350
100
AcDbEntity
  8
RACCORDO
100
AcDbLine
 62
250
  6
CONTINUOUS
 10
-100.8750002002
 20
-26.6274198511
 11
-95.6472982487
 21
-26.6250583679
  0
LINE
  5
351
100
AcDbEntity
  8
RACCORDO
100
AcDbLine
 62
7
  6
CONTINUOUS
 10
-93.8750002002
 20
-26.475
 11
-94.4952731005
 21
-26.475
  0
LINE
  5
352
100
AcDbEntity
  8
RACCORDO
100
AcDbLine
 62
250
  6
CONTINUOUS
 10
-93.913835204
 20
-26.275
 11
-93.8750002002
 21
-26.275
  0
LINE
  5
353
100
AcDbEntity
  8
RACCORDO
100
AcDbLine
 62
250
  6
CONTINUOUS
 10
-93.8750002002
 20
-25.9181413667
 11
-94.0680203009
 21
-25.9181413667
  0
LINE
  5
354
100
AcDbEntity
  8
RACCORDO
100
AcDbLine
 62
250
  6
CONTINUOUS
 10
-93.8750002002
 20
-25.5809975124
 11
-94.0680203009
 21
-25.5809975124
  0
LINE
  5
355
100
AcDbEntity
  8
RACCORDO
100
AcDbLine
 62
250
  6
CONTINUOUS
 10
-95.917895922
 20
-25.4
 11
-100.8750002002
 21
-25.4
  0
LINE
  5
356
100
AcDbEntity
  8
RACCORDO
100
AcDbLine
 62
7
  6
CONTINUOUS
 10
-95.9248758214
 20
-25.2
 11
-100.8750002002
 21
-25.2
  0
LINE
  5
357
100
AcDbEntity
  8
0
100
AcDbLine
 62
7
  6
CONTINUOUS
 10
-96.2250002002
 20
-25.05
 11
-96.4250002002
 21
-25.05
  0
LINE
  5
358
100
AcDbEntity
  8
0
100
AcDbLine
 62
7
  6
CONTINUOUS
 10
-96.7250002002
 20
-25.05
 11
-96.9250002002
 21
-25.05
  0
LINE
  5
359
100
AcDbEntity
  8
0
100
AcDbLine
 62
7
  6
CONTINUOUS
 10
-97.2250002002
 20
-25.05
 11
-97.4250002002
 21
-25.05
  0
LINE
  5
35A
100
AcDbEntity
  8
0
100
AcDbLine
 62
7
  6
CONTINUOUS
 10
-97.7250002002
 20
-25.05
 11
-97.9250002002
 21
-25.05
  0
LINE
  5
35B
100
AcDbEntity
  8
0
100
AcDbLine
 62
7
  6
CONTINUOUS
 10
-98.2250002002
 20
-25.05
 11
-98.4250002002
 21
-25.05
  0
LINE
  5
35C
100
AcDbEntity
  8
0
100
AcDbLine
 62
7
  6
CONTINUOUS
 10
-98.7250002002
 20
-25.05
 11
-98.9250002002
 21
-25.05
  0
LINE
  5
35D
100
AcDbEntity
  8
0
100
AcDbLine
 62
7
  6
CONTINUOUS
 10
-99.2250002002
 20
-25.05
 11
-99.4250002002
 21
-25.05
  0
LINE
  5
35E
100
AcDbEntity
  8
0
100
AcDbLine
 62
7
  6
CONTINUOUS
 10
-99.7250002002
 20
-25.05
 11
-99.9250002002
 21
-25.05
  0
LINE
  5
35F
100
AcDbEntity
  8
0
100
AcDbLine
 62
7
  6
CONTINUOUS
 10
-100.2250002002
 20
-25.05
 11
-100.4250002002
 21
-25.05
  0
LINE
  5
360
100
AcDbEntity
  8
RACCORDO
100
AcDbLine
 62
250
  6
CONTINUOUS
 10
-94.0739530075
 20
-26.0595607844
 11
-100.8750002002
 21
-25.8724238709
  0
LINE
  5
361
100
AcDbEntity
  8
RACCORDO
100
AcDbLine
 62
250
  6
CONTINUOUS
 10
-94.0680203009
 20
-25.9181413667
 11
-100.8750002002
 21
-25.7308412095
  0
LWPOLYLINE
  5
362
100
AcDbEntity
  8
RACCORDO
100
AcDbPolyline
 62
250
  6
CONTINUOUS
 90
10
 70
0
 10
-95.8382929468
 20
-25.4039702478
 10
-95.8471167419
 20
-25.40313729
 10
-95.8559461386
 20
-25.4024022691
 10
-95.8647811369
 20
-25.4017651852
 10
-95.8736222124
 20
-25.4012260144
 10
-95.8824688895
 20
-25.4007847807
 10
-95.8913197417
 20
-25.4004415552
 10
-95.9001742934
 20
-25.4001963618
 10
-95.9090330202
 20
-25.4000491768
 10
-95.917895922
 20
-25.4
  0
LINE
  5
363
100
AcDbEntity
  8
RACCORDO
100
AcDbLine
 62
250
  6
CONTINUOUS
 10
-94.0680203009
 20
-25.5809975124
 11
-95.8382929468
 21
-25.4039702478
  0
LINE
  5
364
100
AcDbEntity
  8
RACCORDO
100
AcDbLine
 62
7
  6
CONTINUOUS
 10
-94.0550994564
 20
-25.3819900744
 11
-95.8253721023
 21
-25.2049628098
  0
LINE
  5
365
100
AcDbEntity
  8
RACCORDO
100
AcDbLine
 62
250
  6
CONTINUOUS
 10
-94.0249835062
 20
-26.349797771
 11
-94.0237982747
 21
-26.3501367414
  0
LWPOLYLINE
  5
366
100
AcDbEntity
  8
0
100
AcDbPolyline
 62
7
  6
CONTINUOUS
 90
2
 70
0
 43
0.3500000006
 10
-117.3865399475
 20
55.7662588806
 10
-117.3865399475
 20
57.2662593384
  0
LINE
  5
367
100
AcDbEntity
  8
ASSI
100
AcDbLine
 62
7
  6
CONTINUOUS
 10
-102.6532100263
 20
44.0409813982
 11
-102.6073980092
 21
44.1656282748
  0
LINE
  5
368
100
AcDbEntity
  8
0
100
AcDbLine
 62
7
  6
CONTINUOUS
 10
-100.2250002002
 20
25.05
 11
-100.0750002002
 21
25.2
  0
LINE
  5
369
100
AcDbEntity
  8
0
100
AcDbLine
 62
7
  6
CONTINUOUS
 10
-99.7250002002
 20
25.05
 11
-99.5750002002
 21
25.2
  0
LINE
  5
36A
100
AcDbEntity
  8
0
100
AcDbLine
 62
7
  6
CONTINUOUS
 10
-99.2250002002
 20
25.05
 11
-99.0750002002
 21
25.2
  0
LINE
  5
36B
100
AcDbEntity
  8
0
100
AcDbLine
 62
7
  6
CONTINUOUS
 10
-98.7250002002
 20
25.05
 11
-98.5750002002
 21
25.2
  0
LINE
  5
36C
100
AcDbEntity
  8
0
100
AcDbLine
 62
7
  6
CONTINUOUS
 10
-98.2250002002
 20
25.05
 11
-98.0750002002
 21
25.2
  0
LINE
  5
36D
100
AcDbEntity
  8
0
100
AcDbLine
 62
7
  6
CONTINUOUS
 10
-97.7250002002
 20
25.05
 11
-97.5750002002
 21
25.2
  0
LINE
  5
36E
100
AcDbEntity
  8
0
100
AcDbLine
 62
7
  6
CONTINUOUS
 10
-97.2250002002
 20
25.05
 11
-97.0750002002
 21
25.2
  0
LINE
  5
36F
100
AcDbEntity
  8
0
100
AcDbLine
 62
7
  6
CONTINUOUS
 10
-96.7250002002
 20
25.05
 11
-96.5750002002
 21
25.2
  0
LINE
  5
370
100
AcDbEntity
  8
0
100
AcDbLine
 62
7
  6
CONTINUOUS
 10
-100.0750002002
 20
-25.2
 11
-100.2250002002
 21
-25.05
  0
LINE
  5
371
100
AcDbEntity
  8
0
100
AcDbLine
 62
7
  6
CONTINUOUS
 10
-99.5750002002
 20
-25.2
 11
-99.7250002002
 21
-25.05
  0
LINE
  5
372
100
AcDbEntity
  8
0
100
AcDbLine
 62
7
  6
CONTINUOUS
 10
-99.0750002002
 20
-25.2
 11
-99.2250002002
 21
-25.05
  0
LINE
  5
373
100
AcDbEntity
  8
0
100
AcDbLine
 62
7
  6
CONTINUOUS
 10
-98.5750002002
 20
-25.2
 11
-98.7250002002
 21
-25.05
  0
LINE
  5
374
100
AcDbEntity
  8
0
100
AcDbLine
 62
7
  6
CONTINUOUS
 10
-98.0750002002
 20
-25.2
 11
-98.2250002002
 21
-25.05
  0
LINE
  5
375
100
AcDbEntity
  8
0
100
AcDbLine
 62
7
  6
CONTINUOUS
 10
-97.5750002002
 20
-25.2
 11
-97.7250002002
 21
-25.05
  0
LINE
  5
376
100
AcDbEntity
  8
0
100
AcDbLine
 62
7
  6
CONTINUOUS
 10
-97.0750002002
 20
-25.2
 11
-97.2250002002
 21
-25.05
  0
LINE
  5
377
100
AcDbEntity
  8
0
100
AcDbLine
 62
7
  6
CONTINUOUS
 10
-96.5750002002
 20
-25.2
 11
-96.7250002002
 21
-25.05
  0
LINE
  5
378
100
AcDbEntity
  8
ASSI
100
AcDbLine
 62
7
  6
CONTINUOUS
 10
-102.6533238547
 20
-44.0406677924
 11
-102.6073980092
 21
-44.1656282748
  0
LWPOLYLINE
  5
379
100
AcDbEntity
  8
ASSI
100
AcDbPolyline
 62
7
  6
CONTINUOUS
 90
21
 70
0
 10
-102.6211058377
 20
-44.1286569522
 10
-102.7179844592
 20
-43.8593104219
 10
-102.8094759396
 20
-43.5912993659
 10
-102.8954617634
 20
-43.3264879203
 10
-102.9752812724
 20
-43.0687328783
 10
-103.0494480025
 20
-42.818323935
 10
-103.1196424302
 20
-42.5711174528
 10
-103.1863240902
 20
-42.3266134386
 10
-103.2489900869
 20
-42.0878294033
 10
-103.3078906057
 20
-41.8550729772
 10
-103.3625212783
 20
-41.6316703093
 10
-103.4133965979
 20
-41.4168523392
 10
-103.462289831
 20
-41.2040122245
 10
-103.5094015333
 20
-40.9927821416
 10
-103.5545355128
 20
-40.7845596646
 10
-103.5988493366
 20
-40.5743463988
 10
-103.6428078137
 20
-40.3599697558
 10
-103.6859360595
 20
-40.1437845838
 10
-103.7279755489
 20
-39.9272808423
 10
-103.7688563451
 20
-39.7110892963
 10
-103.8086529157
 20
-39.4950950386
  0
LWPOLYLINE
  5
37A
100
AcDbEntity
  8
ASSI
100
AcDbPolyline
 62
250
  6
CONTINUOUS
 90
20
 70
0
 10
-102.1695320134
 20
-43.9554031259
 10
-102.2637363639
 20
-43.6907934675
 10
-102.3526489756
 20
-43.4308087929
 10
-102.4362698483
 20
-43.175449102
 10
-102.5141084731
 20
-42.9249359335
 10
-102.586655359
 20
-42.6790477488
 10
-102.6553820329
 20
-42.437119932
 10
-102.7207193483
 20
-42.1979583926
 10
-102.7822364518
 20
-41.962757221
 10
-102.8401123099
 20
-41.7344340734
 10
-102.893832198
 20
-41.5155244991
 10
-102.9439108407
 20
-41.3034929486
 10
-102.9920713784
 20
-41.0936504294
 10
-103.0385120243
 20
-40.8858410476
 10
-103.083034565
 20
-40.680220697
 10
-103.1267675015
 20
-40.4725680668
 10
-103.1701750654
 20
-40.2608492979
 10
-103.212793025
 20
-40.0470982494
 10
-103.2543571863
 20
-39.8331951874
 10
-103.2947915405
 20
-39.6194301272
  0
LINE
  5
37B
100
AcDbEntity
  8
ASSI
100
AcDbLine
 62
7
  6
CONTINUOUS
 10
-102.7177345504
 20
-43.8600052302
 11
-102.6857823327
 21
-43.9504379559
  0
LINE
  5
37C
100
AcDbEntity
  8
0
100
AcDbLine
 62
7
  6
CONTINUOUS
 10
-96.2250002002
 20
25.05
 11
-96.0750002002
 21
25.2
  0
LINE
  5
37D
100
AcDbEntity
  8
0
100
AcDbLine
 62
7
  6
CONTINUOUS
 10
-96.0750002002
 20
-25.2
 11
-96.2250002002
 21
-25.05
  0
LINE
  5
37E
100
AcDbEntity
  8
ASSI
100
AcDbLine
 62
7
  6
CONTINUOUS
 10
-104.2866750878
 20
36.3968403813
 11
-104.2226555003
 21
36.8736287674
  0
LINE
  5
37F
100
AcDbEntity
  8
ASSI
100
AcDbLine
 62
7
  6
CONTINUOUS
 10
-104.2226555003
 20
36.8736287674
 11
-104.1597374166
 21
37.3214678736
  0
LINE
  5
380
100
AcDbEntity
  8
ASSI
100
AcDbLine
 62
7
  6
CONTINUOUS
 10
-104.1597374166
 20
37.3214678736
 11
-104.0969501792
 21
37.7491181981
  0
LINE
  5
381
100
AcDbEntity
  8
ASSI
100
AcDbLine
 62
250
  6
CONTINUOUS
 10
-103.651321561
 20
37.4636367083
 11
-103.5880748729
 21
37.8850058443
  0
LINE
  5
382
100
AcDbEntity
  8
ASSI
100
AcDbLine
 62
7
  6
CONTINUOUS
 10
-104.0969501792
 20
37.7491181981
 11
-104.0322900989
 21
38.1706016814
  0
LINE
  5
383
100
AcDbEntity
  8
ASSI
100
AcDbLine
 62
250
  6
CONTINUOUS
 10
-103.5880748729
 20
37.8850058443
 11
-103.5225963904
 21
38.3023121618
  0
LINE
  5
384
100
AcDbEntity
  8
ASSI
100
AcDbLine
 62
7
  6
CONTINUOUS
 10
-104.0322900989
 20
38.1706016814
 11
-103.9643357138
 21
38.5940754802
  0
LINE
  5
385
100
AcDbEntity
  8
ASSI
100
AcDbLine
 62
250
  6
CONTINUOUS
 10
-103.5225963904
 20
38.3023121618
 11
-103.453289176
 21
38.724454765
  0
LINE
  5
386
100
AcDbEntity
  8
ASSI
100
AcDbLine
 62
250
  6
CONTINUOUS
 10
-102.1695320134
 20
43.9554031259
 11
-102.1574342859
 21
44.0265663421
  0
LINE
  5
387
100
AcDbEntity
  8
ASSI
100
AcDbLine
 62
7
  6
CONTINUOUS
 10
-103.9643357138
 20
38.5940754802
 11
-103.8925038734
 21
39.0212891362
  0
LWPOLYLINE
  5
388
100
AcDbEntity
  8
ASSI
100
AcDbPolyline
 62
250
  6
CONTINUOUS
 90
34
 70
0
 10
-103.453289176
 20
38.724454765
 10
-103.3800317062
 20
39.1495273443
 10
-103.341875104
 20
39.3631546047
 10
-103.3029747674
 20
39.575401198
 10
-103.2633879989
 20
39.7858559653
 10
-103.2230574959
 20
39.9949300654
 10
-103.1820499307
 20
40.2019387459
 10
-103.1402804688
 20
40.4071915354
 10
-103.0978339445
 20
40.6103789052
 10
-103.0550315334
 20
40.8098875162
 10
-103.0117079349
 20
41.0062058426
 10
-102.9680284495
 20
41.1988454102
 10
-102.9248101536
 20
41.3847274563
 10
-102.8822328313
 20
41.5628816307
 10
-102.8401166985
 20
41.7342782838
 10
-102.7987394795
 20
41.8987497042
 10
-102.758184441
 20
42.0559645842
 10
-102.7183683164
 20
42.2062542317
 10
-102.6793190297
 20
42.3504448583
 10
-102.6410634328
 20
42.4884930908
 10
-102.6035746738
 20
42.6204423025
 10
-102.5668001216
 20
42.7472488256
 10
-102.5307559495
 20
42.8689189845
 10
-102.4954259843
 20
42.9854464548
 10
-102.4607090745
 20
43.0977685958
 10
-102.4266226912
 20
43.2058896507
 10
-102.3931493634
 20
43.3098053761
 10
-102.3601355267
 20
43.4104404017
 10
-102.3275989808
 20
43.507799307
 10
-102.295521926
 20
43.6018775124
 10
-102.2636973982
 20
43.693585908
 10
-102.2320564095
 20
43.7832281238
 10
-102.2006679479
 20
43.8705005298
 10
-102.1695320134
 20
43.9554031259
  0
LWPOLYLINE
  5
389
100
AcDbEntity
  8
ASSI
100
AcDbPolyline
 62
7
  6
CONTINUOUS
 90
32
 70
0
 10
-103.8925038734
 20
39.0212891362
 10
-103.8164357341
 20
39.452199996
 10
-103.777125705
 20
39.6666632688
 10
-103.7371078522
 20
39.8794764506
 10
-103.6963208525
 20
40.0908406451
 10
-103.6548231893
 20
40.3003328688
 10
-103.6125354577
 20
40.5082358103
 10
-103.5695425144
 20
40.7140209004
 10
-103.5261537857
 20
40.9161767449
 10
-103.4822139607
 20
41.1154290036
 10
-103.4378924463
 20
41.3110156178
 10
-103.3939954017
 20
41.4995594217
 10
-103.3507209947
 20
41.6805534665
 10
-103.3078980602
 20
41.8550429938
 10
-103.2657852018
 20
42.0222978281
 10
-103.2244769932
 20
42.1822998217
 10
-103.1839025656
 20
42.3356627051
 10
-103.1440722291
 20
42.4826580088
 10
-103.1050198966
 20
42.6234584075
 10
-103.0667295206
 20
42.7584042961
 10
-103.0291350443
 20
42.8879849952
 10
-102.9922576949
 20
43.0123642251
 10
-102.9560891931
 20
43.1317950253
 10
-102.9205180419
 20
43.2468461534
 10
-102.8855658617
 20
43.3576287659
 10
-102.8512203916
 20
43.4643544304
 10
-102.8173186931
 20
43.5676777899
 10
-102.7838826095
 20
43.6676612487
 10
-102.7508975232
 20
43.764472359
 10
-102.7181459271
 20
43.8588493824
 10
-102.6855577828
 20
43.9510677237
 10
-102.6532100263
 20
44.0409813982
  0
LWPOLYLINE
  5
38A
100
AcDbEntity
  8
ASSI
100
AcDbPolyline
 62
250
  6
CONTINUOUS
 90
25
 70
0
 10
-102.1574342859
 20
44.0265663421
 10
-102.1465113916
 20
44.085771512
 10
-102.1340792509
 20
44.1446122075
 10
-102.1201316086
 20
44.2028832802
 10
-102.1046991912
 20
44.2602659909
 10
-102.0877408419
 20
44.3166785859
 10
-102.0691404003
 20
44.3722536749
 10
-102.048838478
 20
44.4268817152
 10
-102.0268797913
 20
44.4802182454
 10
-102.0033022919
 20
44.5320200732
 10
-101.978070458
 20
44.5820731454
 10
-101.9512090113
 20
44.6301381194
 10
-101.922847832
 20
44.675943667
 10
-101.8929628836
 20
44.7192672295
 10
-101.8615725998
 20
44.7599122704
 10
-101.8288723145
 20
44.7976633323
 10
-101.7949225013
 20
44.8322586794
 10
-101.7596626676
 20
44.8636002873
 10
-101.7231045242
 20
44.8916678819
 10
-101.6851407375
 20
44.9162820769
 10
-101.6458753928
 20
44.9371479662
 10
-101.6056358368
 20
44.9540283369
 10
-101.5645331657
 20
44.9667243259
 10
-101.5224617751
 20
44.9750663734
 10
-101.4794262434
 20
44.9788929775
  0
LINE
  5
38B
100
AcDbEntity
  8
ASSI
100
AcDbLine
 62
250
  6
CONTINUOUS
 10
-103.2947915405
 20
-39.6194301272
 11
-103.3724626868
 21
-39.1924541865
  0
LINE
  5
38C
100
AcDbEntity
  8
ASSI
100
AcDbLine
 62
7
  6
CONTINUOUS
 10
-103.8086529157
 20
-39.4950950386
 11
-103.8847536638
 21
-39.0661813721
  0
LINE
  5
38D
100
AcDbEntity
  8
ASSI
100
AcDbLine
 62
250
  6
CONTINUOUS
 10
-103.3724626868
 20
-39.1924541865
 11
-103.4455095222
 21
-38.7705390317
  0
LINE
  5
38E
100
AcDbEntity
  8
ASSI
100
AcDbLine
 62
250
  6
CONTINUOUS
 10
-102.1574342859
 20
-44.0265663421
 11
-102.1695320134
 21
-43.9554031259
  0
LINE
  5
38F
100
AcDbEntity
  8
ASSI
100
AcDbLine
 62
7
  6
CONTINUOUS
 10
-103.8847536638
 20
-39.0661813721
 11
-103.9566357036
 21
-38.6408527404
  0
LINE
  5
390
100
AcDbEntity
  8
ASSI
100
AcDbLine
 62
250
  6
CONTINUOUS
 10
-103.4455095222
 20
-38.7705390317
 11
-103.5151943287
 21
-38.3485343339
  0
LINE
  5
391
100
AcDbEntity
  8
ASSI
100
AcDbLine
 62
7
  6
CONTINUOUS
 10
-103.9566357036
 20
-38.6408527404
 11
-104.0253496413
 21
-38.214748462
  0
LINE
  5
392
100
AcDbEntity
  8
ASSI
100
AcDbLine
 62
250
  6
CONTINUOUS
 10
-103.5151943287
 20
-38.3485343339
 11
-103.5824891617
 21
-37.921258311
  0
LINE
  5
393
100
AcDbEntity
  8
ASSI
100
AcDbLine
 62
7
  6
CONTINUOUS
 10
-104.0253496413
 20
-38.214748462
 11
-104.0929336981
 21
-37.7758470422
  0
LINE
  5
394
100
AcDbEntity
  8
ASSI
100
AcDbLine
 62
250
  6
CONTINUOUS
 10
-103.5824891617
 20
-37.921258311
 11
-103.6493005049
 21
-37.4775570789
  0
LINE
  5
395
100
AcDbEntity
  8
ASSI
100
AcDbLine
 62
7
  6
CONTINUOUS
 10
-104.0929336981
 20
-37.7758470422
 11
-104.1606345616
 21
-37.3152207282
  0
LWPOLYLINE
  5
396
100
AcDbEntity
  8
ASSI
100
AcDbPolyline
 62
7
  6
CONTINUOUS
 90
3
 70
0
 10
-104.1606345616
 20
-37.3152207282
 10
-104.2307208926
 20
-36.8147617156
 10
-104.2666077346
 20
-36.5486674694
  0
LINE
  5
397
100
AcDbEntity
  8
ASSI
100
AcDbLine
 62
7
  6
CONTINUOUS
 10
-104.525311719
 20
-34.4057609483
 11
-104.5950427084
 21
-33.7506603734
  0
LINE
  5
398
100
AcDbEntity
  8
ASSI
100
AcDbLine
 62
250
  6
CONTINUOUS
 10
-104.0457241276
 20
-34.3512505187
 11
-104.1151485134
 21
-33.6991919164
  0
LINE
  5
399
100
AcDbEntity
  8
ASSI
100
AcDbLine
 62
7
  6
CONTINUOUS
 10
-104.5950427084
 20
-33.7506603734
 11
-104.6602855741
 21
-33.1028448727
  0
LINE
  5
39A
100
AcDbEntity
  8
ASSI
100
AcDbLine
 62
250
  6
CONTINUOUS
 10
-104.1151485134
 20
-33.6991919164
 11
-104.1801160182
 21
-33.0540009861
  0
LINE
  5
39B
100
AcDbEntity
  8
ASSI
100
AcDbLine
 62
7
  6
CONTINUOUS
 10
-104.6602855741
 20
-33.1028448727
 11
-104.721570548
 21
-32.4608202401
  0
LINE
  5
39C
100
AcDbEntity
  8
ASSI
100
AcDbLine
 62
250
  6
CONTINUOUS
 10
-104.1801160182
 20
-33.0540009861
 11
-104.2411765895
 21
-32.4147381234
  0
LINE
  5
39D
100
AcDbEntity
  8
ASSI
100
AcDbLine
 62
7
  6
CONTINUOUS
 10
-104.721570548
 20
-32.4608202401
 11
-104.7794344077
 21
-31.822153765
  0
LINE
  5
39E
100
AcDbEntity
  8
ASSI
100
AcDbLine
 62
250
  6
CONTINUOUS
 10
-104.2411765895
 20
-32.4147381234
 11
-104.2988216442
 21
-31.77817952
  0
LINE
  5
39F
100
AcDbEntity
  8
ASSI
100
AcDbLine
 62
250
  6
CONTINUOUS
 10
-104.2988216442
 20
-31.77817952
 11
-104.3542213657
 21
-31.1348332176
  0
LINE
  5
3A0
100
AcDbEntity
  8
ASSI
100
AcDbLine
 62
7
  6
CONTINUOUS
 10
-104.7794344077
 20
-31.822153765
 11
-104.8350075803
 21
-31.1763864571
  0
LINE
  5
3A1
100
AcDbEntity
  8
ASSI
100
AcDbLine
 62
7
  6
CONTINUOUS
 10
-104.8350075803
 20
-31.1763864571
 11
-104.8900556285
 21
-30.5025532959
  0
LINE
  5
3A2
100
AcDbEntity
  8
ASSI
100
AcDbLine
 62
250
  6
CONTINUOUS
 10
-104.3542213657
 20
-31.1348332176
 11
-104.4090853267
 21
-30.4629893938
  0
LINE
  5
3A3
100
AcDbEntity
  8
ASSI
100
AcDbLine
 62
7
  6
CONTINUOUS
 10
-104.8900556285
 20
-30.5025532959
 11
-104.9454518844
 21
-29.7868134624
  0
LINE
  5
3A4
100
AcDbEntity
  8
ASSI
100
AcDbLine
 62
250
  6
CONTINUOUS
 10
-104.4090853267
 20
-30.4629893938
 11
-104.4643124386
 21
-29.7492792705
  0
LINE
  5
3A5
100
AcDbEntity
  8
ASSI
100
AcDbLine
 62
7
  6
CONTINUOUS
 10
-104.9454518844
 20
-29.7868134624
 11
-105.0026164634
 21
-29.004513313
  0
LINE
  5
3A6
100
AcDbEntity
  8
ASSI
100
AcDbLine
 62
250
  6
CONTINUOUS
 10
-104.4643124386
 20
-29.7492792705
 11
-104.5213321086
 21
-28.9693321242
  0
LINE
  5
3A7
100
AcDbEntity
  8
ASSI
100
AcDbLine
 62
7
  6
CONTINUOUS
 10
-105.0026164634
 20
-29.004513313
 11
-105.0609397733
 21
-28.1553764511
  0
LINE
  5
3A8
100
AcDbEntity
  8
ASSI
100
AcDbLine
 62
250
  6
CONTINUOUS
 10
-104.5213321086
 20
-28.9693321242
 11
-104.579467645
 21
-28.1218190367
  0
LINE
  5
3A9
100
AcDbEntity
  8
ASSI
100
AcDbLine
 62
250
  6
CONTINUOUS
 10
-104.579467645
 20
-28.1218190367
 11
-104.6380113763
 21
-27.2118670241
  0
LINE
  5
3AA
100
AcDbEntity
  8
ASSI
100
AcDbLine
 62
7
  6
CONTINUOUS
 10
-105.0609397733
 20
-28.1553764511
 11
-105.119599854
 21
-27.2428645883
  0
LINE
  5
3AB
100
AcDbEntity
  8
ASSI
100
AcDbLine
 62
7
  6
CONTINUOUS
 10
-105.119599854
 20
-27.2428645883
 11
-105.1768730596
 21
-26.2875945388
  0
LINE
  5
3AC
100
AcDbEntity
  8
ASSI
100
AcDbLine
 62
250
  6
CONTINUOUS
 10
-104.6380113763
 20
-27.2118670241
 11
-104.6951379154
 21
-26.2583953578
  0
LINE
  5
3AD
100
AcDbEntity
  8
ASSI
100
AcDbLine
 62
7
  6
CONTINUOUS
 10
-105.1768730596
 20
-26.2875945388
 11
-105.2310268602
 21
-25.3173307328
  0
LINE
  5
3AE
100
AcDbEntity
  8
ASSI
100
AcDbLine
 62
250
  6
CONTINUOUS
 10
-104.6951379154
 20
-26.2583953578
 11
-104.749197166
 21
-25.2904493643
  0
LINE
  5
3AF
100
AcDbEntity
  8
ASSI
100
AcDbLine
 62
7
  6
CONTINUOUS
 10
-105.2310268602
 20
-25.3173307328
 11
-105.2814841278
 21
-24.345697136
  0
LINE
  5
3B0
100
AcDbEntity
  8
ASSI
100
AcDbLine
 62
250
  6
CONTINUOUS
 10
-104.749197166
 20
-25.2904493643
 11
-104.7995596382
 21
-24.320689729
  0
LINE
  5
3B1
100
AcDbEntity
  8
ASSI
100
AcDbLine
 62
7
  6
CONTINUOUS
 10
-105.2814841278
 20
-24.345697136
 11
-105.3278337652
 21
-23.386669547
  0
LWPOLYLINE
  5
3B2
100
AcDbEntity
  8
ASSI
100
AcDbPolyline
 62
250
  6
CONTINUOUS
 90
3
 70
0
 10
-104.7995596382
 20
-24.320689729
 10
-104.8458242527
 20
-23.3633515646
 10
-104.8676603599
 20
-22.8866131847
  0
LINE
  5
3B3
100
AcDbEntity
  8
ASSI
100
AcDbLine
 62
7
  6
CONTINUOUS
 10
-105.3278337652
 20
-23.386669547
 11
-105.3707591696
 21
-22.4325885799
  0
LINE
  5
3B4
100
AcDbEntity
  8
ASSI
100
AcDbLine
 62
7
  6
CONTINUOUS
 10
-105.3707591696
 20
-22.4325885799
 11
-105.4106354128
 21
-21.4801730997
  0
LINE
  5
3B5
100
AcDbEntity
  8
ASSI
100
AcDbLine
 62
7
  6
CONTINUOUS
 10
-105.4106354128
 20
-21.4801730997
 11
-105.4480446922
 21
-20.5189691889
  0
LINE
  5
3B6
100
AcDbEntity
  8
ASSI
100
AcDbLine
 62
7
  6
CONTINUOUS
 10
-105.4480446922
 20
-20.5189691889
 11
-105.4829692502
 21
-19.5519921664
  0
LINE
  5
3B7
100
AcDbEntity
  8
ASSI
100
AcDbLine
 62
7
  6
CONTINUOUS
 10
-105.4829692502
 20
-19.5519921664
 11
-105.5153395547
 21
-18.5846203952
  0
LINE
  5
3B8
100
AcDbEntity
  8
ASSI
100
AcDbLine
 62
7
  6
CONTINUOUS
 10
-105.5153395547
 20
-18.5846203952
 11
-105.5446989096
 21
-17.6367260067
  0
LINE
  5
3B9
100
AcDbEntity
  8
ASSI
100
AcDbLine
 62
7
  6
CONTINUOUS
 10
-105.5446989096
 20
-17.6367260067
 11
-105.5842082721
 21
-16.2303879981
  0
LINE
  5
3BA
100
AcDbEntity
  8
ASSI
100
AcDbLine
 62
7
  6
CONTINUOUS
 10
-105.5842082721
 20
-16.2303879981
 11
-105.6204886062
 21
-14.7681774234
  0
LINE
  5
3BB
100
AcDbEntity
  8
ASSI
100
AcDbLine
 62
7
  6
CONTINUOUS
 10
-105.6204886062
 20
-14.7681774234
 11
-105.6544939543
 21
-13.1928586966
  0
LWPOLYLINE
  5
3BC
100
AcDbEntity
  8
ASSI
100
AcDbPolyline
 62
7
  6
CONTINUOUS
 90
3
 70
0
 10
-105.6544939543
 20
-13.1928586966
 10
-105.6755937437
 20
-12.0772490784
 10
-105.6855856059
 20
-11.5001849185
  0
LINE
  5
3BD
100
AcDbEntity
  8
ASSI
100
AcDbLine
 62
7
  6
CONTINUOUS
 10
-105.6888502113
 20
11.3035819329
 11
-105.669129782
 21
12.4326990268
  0
LINE
  5
3BE
100
AcDbEntity
  8
ASSI
100
AcDbLine
 62
7
  6
CONTINUOUS
 10
-105.669129782
 20
12.4326990268
 11
-105.6375149451
 21
14.0088101725
  0
LINE
  5
3BF
100
AcDbEntity
  8
ASSI
100
AcDbLine
 62
7
  6
CONTINUOUS
 10
-105.6375149451
 20
14.0088101725
 11
-105.6040888836
 21
15.4527772634
  0
LINE
  5
3C0
100
AcDbEntity
  8
ASSI
100
AcDbLine
 62
7
  6
CONTINUOUS
 10
-105.6040888836
 20
15.4527772634
 11
-105.56714932
 21
16.8582315193
  0
LINE
  5
3C1
100
AcDbEntity
  8
ASSI
100
AcDbLine
 62
7
  6
CONTINUOUS
 10
-105.56714932
 20
16.8582315193
 11
-105.539422448
 21
17.8125964753
  0
LINE
  5
3C2
100
AcDbEntity
  8
ASSI
100
AcDbLine
 62
7
  6
CONTINUOUS
 10
-105.539422448
 20
17.8125964753
 11
-105.5092288869
 21
18.7730564189
  0
LINE
  5
3C3
100
AcDbEntity
  8
ASSI
100
AcDbLine
 62
7
  6
CONTINUOUS
 10
-105.5092288869
 20
18.7730564189
 11
-105.4768169032
 21
19.7277378664
  0
LINE
  5
3C4
100
AcDbEntity
  8
ASSI
100
AcDbLine
 62
7
  6
CONTINUOUS
 10
-105.4768169032
 20
19.7277378664
 11
-105.4421624191
 21
20.6749042784
  0
LINE
  5
3C5
100
AcDbEntity
  8
ASSI
100
AcDbLine
 62
7
  6
CONTINUOUS
 10
-105.4421624191
 20
20.6749042784
 11
-105.4049942076
 21
21.6191668146
  0
LINE
  5
3C6
100
AcDbEntity
  8
ASSI
100
AcDbLine
 62
7
  6
CONTINUOUS
 10
-105.4049942076
 20
21.6191668146
 11
-105.3648151686
 21
22.5688560047
  0
LINE
  5
3C7
100
AcDbEntity
  8
ASSI
100
AcDbLine
 62
7
  6
CONTINUOUS
 10
-105.3648151686
 20
22.5688560047
 11
-105.3213492759
 21
23.5250426301
  0
LINE
  5
3C8
100
AcDbEntity
  8
ASSI
100
AcDbLine
 62
250
  6
CONTINUOUS
 10
-104.8827397414
 20
22.5468728171
 11
-104.8393528272
 21
23.501516129
  0
LINE
  5
3C9
100
AcDbEntity
  8
ASSI
100
AcDbLine
 62
7
  6
CONTINUOUS
 10
-105.3213492759
 20
23.5250426301
 11
-105.2742392443
 21
24.4895975463
  0
LINE
  5
3CA
100
AcDbEntity
  8
ASSI
100
AcDbLine
 62
250
  6
CONTINUOUS
 10
-104.8393528272
 20
23.501516129
 11
-104.7923212568
 21
24.4642364782
  0
LINE
  5
3CB
100
AcDbEntity
  8
ASSI
100
AcDbLine
 62
7
  6
CONTINUOUS
 10
-105.2742392443
 20
24.4895975463
 11
-105.2241728471
 21
25.4440667661
  0
LINE
  5
3CC
100
AcDbEntity
  8
ASSI
100
AcDbLine
 62
250
  6
CONTINUOUS
 10
-104.7923212568
 20
24.4642364782
 11
-104.7423464392
 21
25.4167264687
  0
LINE
  5
3CD
100
AcDbEntity
  8
ASSI
100
AcDbLine
 62
250
  6
CONTINUOUS
 10
-104.7423464392
 20
25.4167264687
 11
-104.6900179179
 21
26.347267549
  0
LINE
  5
3CE
100
AcDbEntity
  8
ASSI
100
AcDbLine
 62
7
  6
CONTINUOUS
 10
-105.2241728471
 20
25.4440667661
 11
-105.1717225793
 21
26.3763342862
  0
LINE
  5
3CF
100
AcDbEntity
  8
ASSI
100
AcDbLine
 62
7
  6
CONTINUOUS
 10
-105.1717225793
 20
26.3763342862
 11
-105.1181629892
 21
27.2659771116
  0
LINE
  5
3D0
100
AcDbEntity
  8
ASSI
100
AcDbLine
 62
250
  6
CONTINUOUS
 10
-104.6900179179
 20
26.347267549
 11
-104.636558154
 21
27.234623991
  0
LINE
  5
3D1
100
AcDbEntity
  8
ASSI
100
AcDbLine
 62
7
  6
CONTINUOUS
 10
-105.1181629892
 20
27.2659771116
 11
-105.0648438998
 21
28.0965459502
  0
LINE
  5
3D2
100
AcDbEntity
  8
ASSI
100
AcDbLine
 62
250
  6
CONTINUOUS
 10
-104.636558154
 20
27.234623991
 11
-104.5833979873
 21
28.0636758014
  0
LINE
  5
3D3
100
AcDbEntity
  8
ASSI
100
AcDbLine
 62
7
  6
CONTINUOUS
 10
-105.0648438998
 20
28.0965459502
 11
-105.0124186854
 21
28.865559928
  0
LINE
  5
3D4
100
AcDbEntity
  8
ASSI
100
AcDbLine
 62
250
  6
CONTINUOUS
 10
-104.5833979873
 20
28.0636758014
 11
-104.5310949394
 21
28.830559909
  0
LINE
  5
3D5
100
AcDbEntity
  8
ASSI
100
AcDbLine
 62
7
  6
CONTINUOUS
 10
-105.0124186854
 20
28.865559928
 11
-104.9613833545
 21
29.5734493896
  0
LINE
  5
3D6
100
AcDbEntity
  8
ASSI
100
AcDbLine
 62
250
  6
CONTINUOUS
 10
-104.5310949394
 20
28.830559909
 11
-104.4802024409
 21
29.5365907688
  0
LINE
  5
3D7
100
AcDbEntity
  8
ASSI
100
AcDbLine
 62
7
  6
CONTINUOUS
 10
-104.9613833545
 20
29.5734493896
 11
-104.9105971487
 21
30.2417477005
  0
LINE
  5
3D8
100
AcDbEntity
  8
ASSI
100
AcDbLine
 62
250
  6
CONTINUOUS
 10
-104.4802024409
 20
29.5365907688
 11
-104.4295729637
 21
30.2030918773
  0
LINE
  5
3D9
100
AcDbEntity
  8
ASSI
100
AcDbLine
 62
7
  6
CONTINUOUS
 10
-104.9105971487
 20
30.2417477005
 11
-104.859325896
 21
30.8830868418
  0
LINE
  5
3DA
100
AcDbEntity
  8
ASSI
100
AcDbLine
 62
250
  6
CONTINUOUS
 10
-104.4295729637
 20
30.2030918773
 11
-104.3784466519
 21
30.8422430503
  0
LINE
  5
3DB
100
AcDbEntity
  8
ASSI
100
AcDbLine
 62
250
  6
CONTINUOUS
 10
-104.3784466519
 20
30.8422430503
 11
-104.3253295312
 21
31.4745480738
  0
LINE
  5
3DC
100
AcDbEntity
  8
ASSI
100
AcDbLine
 62
7
  6
CONTINUOUS
 10
-104.859325896
 20
30.8830868418
 11
-104.80602508
 21
31.5172988883
  0
LINE
  5
3DD
100
AcDbEntity
  8
ASSI
100
AcDbLine
 62
7
  6
CONTINUOUS
 10
-104.80602508
 20
31.5172988883
 11
-104.7496937316
 21
32.1545267671
  0
LINE
  5
3DE
100
AcDbEntity
  8
ASSI
100
AcDbLine
 62
250
  6
CONTINUOUS
 10
-104.3253295312
 20
31.4745480738
 11
-104.2691832403
 21
32.1092994348
  0
LINE
  5
3DF
100
AcDbEntity
  8
ASSI
100
AcDbLine
 62
7
  6
CONTINUOUS
 10
-104.7496937316
 20
32.1545267671
 11
-104.68988723
 21
32.7969676767
  0
LINE
  5
3E0
100
AcDbEntity
  8
ASSI
100
AcDbLine
 62
250
  6
CONTINUOUS
 10
-104.2691832403
 20
32.1092994348
 11
-104.2096043688
 21
32.7494045676
  0
LINE
  5
3E1
100
AcDbEntity
  8
ASSI
100
AcDbLine
 62
7
  6
CONTINUOUS
 10
-104.68988723
 20
32.7969676767
 11
-104.626328967
 21
33.4444047874
  0
LINE
  5
3E2
100
AcDbEntity
  8
ASSI
100
AcDbLine
 62
250
  6
CONTINUOUS
 10
-104.2096043688
 20
32.7494045676
 11
-104.146298065
 21
33.3941998462
  0
LINE
  5
3E3
100
AcDbEntity
  8
ASSI
100
AcDbLine
 62
7
  6
CONTINUOUS
 10
-104.626328967
 20
33.4444047874
 11
-104.5598406991
 21
34.0859810953
  0
LINE
  5
3E4
100
AcDbEntity
  8
ASSI
100
AcDbLine
 62
250
  6
CONTINUOUS
 10
-104.146298065
 20
33.3941998462
 11
-104.0800941477
 21
34.0328612978
  0
LINE
  5
3E5
100
AcDbEntity
  8
ASSI
100
AcDbLine
 62
7
  6
CONTINUOUS
 10
-104.5598406991
 20
34.0859810953
 11
-104.4911228874
 21
34.7138583805
  0
LINE
  5
3E6
100
AcDbEntity
  8
ASSI
100
AcDbLine
 62
250
  6
CONTINUOUS
 10
-104.0800941477
 20
34.0328612978
 11
-104.0117055636
 21
34.657973565
  0
LINE
  5
3E7
100
AcDbEntity
  8
ASSI
100
AcDbLine
 62
7
  6
CONTINUOUS
 10
-104.4911228874
 20
34.7138583805
 11
-104.4216714095
 21
35.3149970805
  0
LINE
  5
3E8
100
AcDbEntity
  8
ASSI
100
AcDbLine
 62
250
  6
CONTINUOUS
 10
-104.0117055636
 20
34.657973565
 11
-103.9425925916
 21
35.2558335483
  0
LINE
  5
3E9
100
AcDbEntity
  8
ASSI
100
AcDbLine
 62
250
  6
CONTINUOUS
 10
-103.9425925916
 20
35.2558335483
 11
-103.8745746799
 21
35.814917866
  0
LINE
  5
3EA
100
AcDbEntity
  8
ASSI
100
AcDbLine
 62
7
  6
CONTINUOUS
 10
-104.4216714095
 20
35.3149970805
 11
-104.353260373
 21
35.8768068487
  0
LINE
  5
3EB
100
AcDbEntity
  8
ASSI
100
AcDbLine
 62
250
  6
CONTINUOUS
 10
-103.8745746799
 20
35.814917866
 11
-103.8083743584
 21
36.3317906787
  0
LINE
  5
3EC
100
AcDbEntity
  8
ASSI
100
AcDbLine
 62
7
  6
CONTINUOUS
 10
-104.353260373
 20
35.8768068487
 11
-104.2866750878
 21
36.3968403813
  0
LINE
  5
3ED
100
AcDbEntity
  8
ASSI
100
AcDbLine
 62
250
  6
CONTINUOUS
 10
-103.8083743584
 20
36.3317906787
 11
-103.7447609327
 21
36.8056120512
  0
LWPOLYLINE
  5
3EE
100
AcDbEntity
  8
ASSI
100
AcDbPolyline
 62
250
  6
CONTINUOUS
 90
3
 70
0
 10
-103.7447609327
 20
36.8056120512
 10
-103.6822762684
 20
37.2505467138
 10
-103.651321561
 20
37.4636367083
  0
LINE
  5
3EF
100
AcDbEntity
  8
ASSI
100
AcDbLine
 62
250
  6
CONTINUOUS
 10
-103.6493005049
 20
-37.4775570789
 11
-103.7177151498
 21
-37.000407986
  0
LINE
  5
3F0
100
AcDbEntity
  8
ASSI
100
AcDbLine
 62
250
  6
CONTINUOUS
 10
-103.7177151498
 20
-37.000407986
 11
-103.7884308287
 21
-36.4826809584
  0
LINE
  5
3F1
100
AcDbEntity
  8
ASSI
100
AcDbLine
 62
250
  6
CONTINUOUS
 10
-103.7884308287
 20
-36.4826809584
 11
-103.8618642191
 21
-35.9159887706
  0
LINE
  5
3F2
100
AcDbEntity
  8
ASSI
100
AcDbLine
 62
7
  6
CONTINUOUS
 10
-104.2666077346
 20
-36.5486674694
 11
-104.3404826674
 21
-35.9785896531
  0
LINE
  5
3F3
100
AcDbEntity
  8
ASSI
100
AcDbLine
 62
7
  6
CONTINUOUS
 10
-104.3404826674
 20
-35.9785896531
 11
-104.4151257015
 21
-35.3700166608
  0
LINE
  5
3F4
100
AcDbEntity
  8
ASSI
100
AcDbLine
 62
250
  6
CONTINUOUS
 10
-103.8618642191
 20
-35.9159887706
 11
-103.936079488
 21
-35.3105383245
  0
LWPOLYLINE
  5
3F5
100
AcDbEntity
  8
ASSI
100
AcDbPolyline
 62
7
  6
CONTINUOUS
 90
3
 70
0
 10
-104.4151257015
 20
-35.3700166608
 10
-104.4892757186
 20
-34.7302695248
 10
-104.525311719
 20
-34.4057609483
  0
LWPOLYLINE
  5
3F6
100
AcDbEntity
  8
ASSI
100
AcDbPolyline
 62
250
  6
CONTINUOUS
 90
3
 70
0
 10
-103.936079488
 20
-35.3105383245
 10
-104.0098673868
 20
-34.6743048199
 10
-104.0457241276
 20
-34.3512505187
  0
LINE
  5
3F7
100
AcDbEntity
  8
ASSI
100
AcDbLine
 62
250
  6
CONTINUOUS
 10
-104.8676603599
 20
-22.8866131847
 11
-104.9089099909
 21
-21.9363675558
  0
LINE
  5
3F8
100
AcDbEntity
  8
ASSI
100
AcDbLine
 62
250
  6
CONTINUOUS
 10
-104.9089099909
 20
-21.9363675558
 11
-104.9474864379
 21
-20.9809169805
  0
LINE
  5
3F9
100
AcDbEntity
  8
ASSI
100
AcDbLine
 62
250
  6
CONTINUOUS
 10
-104.9474864379
 20
-20.9809169805
 11
-104.9835742203
 21
-20.0184933723
  0
LINE
  5
3FA
100
AcDbEntity
  8
ASSI
100
AcDbLine
 62
250
  6
CONTINUOUS
 10
-104.9835742203
 20
-20.0184933723
 11
-105.0172388437
 21
-19.0497548443
  0
LINE
  5
3FB
100
AcDbEntity
  8
ASSI
100
AcDbLine
 62
250
  6
CONTINUOUS
 10
-105.0172388437
 20
-19.0497548443
 11
-105.0480654226
 21
-18.0933832729
  0
LINE
  5
3FC
100
AcDbEntity
  8
ASSI
100
AcDbLine
 62
250
  6
CONTINUOUS
 10
-105.0480654226
 20
-18.0933832729
 11
-105.0892640681
 21
-16.6838686047
  0
LINE
  5
3FD
100
AcDbEntity
  8
ASSI
100
AcDbLine
 62
250
  6
CONTINUOUS
 10
-105.0892640681
 20
-16.6838686047
 11
-105.1262616382
 21
-15.2538512637
  0
LINE
  5
3FE
100
AcDbEntity
  8
ASSI
100
AcDbLine
 62
250
  6
CONTINUOUS
 10
-105.1262616382
 20
-15.2538512637
 11
-105.1609793443
 21
-13.7212742594
  0
LINE
  5
3FF
100
AcDbEntity
  8
ASSI
100
AcDbLine
 62
250
  6
CONTINUOUS
 10
-105.1609793443
 20
-13.7212742594
 11
-105.1827679705
 21
-12.6316215975
  0
LINE
  5
400
100
AcDbEntity
  8
ASSI
100
AcDbLine
 62
250
  6
CONTINUOUS
 10
-105.1827679705
 20
-12.6316215975
 11
-105.2031180065
 21
-11.4919492176
  0
LINE
  5
401
100
AcDbEntity
  8
ASSI
100
AcDbLine
 62
7
  6
CONTINUOUS
 10
-105.6855856059
 20
-11.5001849185
 11
-105.7044503129
 21
-10.2991642228
  0
LINE
  5
402
100
AcDbEntity
  8
ASSI
100
AcDbLine
 62
250
  6
CONTINUOUS
 10
-105.2031180065
 20
-11.4919492176
 11
-105.2219431995
 21
-10.2917046907
  0
LINE
  5
403
100
AcDbEntity
  8
ASSI
100
AcDbLine
 62
7
  6
CONTINUOUS
 10
-105.7044503129
 20
-10.2991642228
 11
-105.7216098231
 21
-9.0350503148
  0
LINE
  5
404
100
AcDbEntity
  8
ASSI
100
AcDbLine
 62
250
  6
CONTINUOUS
 10
-105.2219431995
 20
-10.2917046907
 11
-105.2390987446
 21
-9.0287915935
  0
LINE
  5
405
100
AcDbEntity
  8
ASSI
100
AcDbLine
 62
250
  6
CONTINUOUS
 10
-105.2390987446
 20
-9.0287915935
 11
-105.2542614801
 21
-7.705074789
  0
LINE
  5
406
100
AcDbEntity
  8
ASSI
100
AcDbLine
 62
7
  6
CONTINUOUS
 10
-105.7216098231
 20
-9.0350503148
 11
-105.7367800781
 21
-7.7102261923
  0
LINE
  5
407
100
AcDbEntity
  8
ASSI
100
AcDbLine
 62
7
  6
CONTINUOUS
 10
-105.7367800781
 20
-7.7102261923
 11
-105.7496735029
 21
-6.331168446
  0
LINE
  5
408
100
AcDbEntity
  8
ASSI
100
AcDbLine
 62
250
  6
CONTINUOUS
 10
-105.2542614801
 20
-7.705074789
 11
-105.2671418673
 21
-6.3270350783
  0
LINE
  5
409
100
AcDbEntity
  8
ASSI
100
AcDbLine
 62
7
  6
CONTINUOUS
 10
-105.7496735029
 20
-6.331168446
 11
-105.7601373853
 21
-4.8930197342
  0
LINE
  5
40A
100
AcDbEntity
  8
ASSI
100
AcDbLine
 62
250
  6
CONTINUOUS
 10
-105.2671418673
 20
-6.3270350783
 11
-105.2775969148
 21
-4.8898922636
  0
LINE
  5
40B
100
AcDbEntity
  8
ASSI
100
AcDbLine
 62
7
  6
CONTINUOUS
 10
-105.7601373853
 20
-4.8930197342
 11
-105.7680449766
 21
-3.3776296788
  0
LINE
  5
40C
100
AcDbEntity
  8
ASSI
100
AcDbLine
 62
250
  6
CONTINUOUS
 10
-105.2775969148
 20
-4.8898922636
 11
-105.2855364358
 21
-3.3759980231
  0
LINE
  5
40D
100
AcDbEntity
  8
ASSI
100
AcDbLine
 62
7
  6
CONTINUOUS
 10
-105.7680449766
 20
-3.3776296788
 11
-105.773164843
 21
-1.7515331359
  0
LINE
  5
40E
100
AcDbEntity
  8
ASSI
100
AcDbLine
 62
250
  6
CONTINUOUS
 10
-105.2855364358
 20
-3.3759980231
 11
-105.2905263833
 21
-1.7493649832
  0
LINE
  5
40F
100
AcDbEntity
  8
ASSI
100
AcDbLine
 62
250
  6
CONTINUOUS
 10
-105.2905263833
 20
-1.7493649832
 11
-105.2924499486
 21
-0.0
  0
LINE
  5
410
100
AcDbEntity
  8
ASSI
100
AcDbLine
 62
7
  6
CONTINUOUS
 10
-105.773164843
 20
-1.7515331359
 11
-105.7750002002
 21
0.0
  0
LINE
  5
411
100
AcDbEntity
  8
ASSI
100
AcDbLine
 62
7
  6
CONTINUOUS
 10
-103.3750002002
 20
-3.4689805518
 11
-103.3750002002
 21
3.4689805518
  0
LINE
  5
412
100
AcDbEntity
  8
ASSI
100
AcDbLine
 62
7
  6
CONTINUOUS
 10
-105.7750002002
 20
0.0
 11
-105.7737402828
 21
1.453677282
  0
LINE
  5
413
100
AcDbEntity
  8
ASSI
100
AcDbLine
 62
250
  6
CONTINUOUS
 10
-105.2924499486
 20
-0.0
 11
-105.2911778335
 21
1.4526656752
  0
LINE
  5
414
100
AcDbEntity
  8
ASSI
100
AcDbLine
 62
7
  6
CONTINUOUS
 10
-105.7737402828
 20
1.453677282
 11
-105.7700190019
 21
2.8669755919
  0
LINE
  5
415
100
AcDbEntity
  8
ASSI
100
AcDbLine
 62
250
  6
CONTINUOUS
 10
-105.2911778335
 20
1.4526656752
 11
-105.287482528
 21
2.8653401887
  0
LINE
  5
416
100
AcDbEntity
  8
ASSI
100
AcDbLine
 62
7
  6
CONTINUOUS
 10
-105.7700190019
 20
2.8669755919
 11
-105.7638954691
 21
4.2459198571
  0
LINE
  5
417
100
AcDbEntity
  8
ASSI
100
AcDbLine
 62
250
  6
CONTINUOUS
 10
-105.287482528
 20
2.8653401887
 11
-105.2813524095
 21
4.2432380664
  0
LINE
  5
418
100
AcDbEntity
  8
ASSI
100
AcDbLine
 62
7
  6
CONTINUOUS
 10
-105.7638954691
 20
4.2459198571
 11
-105.7552636338
 21
5.6137704894
  0
LINE
  5
419
100
AcDbEntity
  8
ASSI
100
AcDbLine
 62
250
  6
CONTINUOUS
 10
-105.2813524095
 20
4.2432380664
 11
-105.2727177893
 21
5.6100264002
  0
LINE
  5
41A
100
AcDbEntity
  8
ASSI
100
AcDbLine
 62
7
  6
CONTINUOUS
 10
-105.7552636338
 20
5.6137704894
 11
-105.744236779
 21
6.95070754
  0
LINE
  5
41B
100
AcDbEntity
  8
ASSI
100
AcDbLine
 62
250
  6
CONTINUOUS
 10
-105.2727177893
 20
5.6100264002
 11
-105.2617069677
 21
6.9460675059
  0
LINE
  5
41C
100
AcDbEntity
  8
ASSI
100
AcDbLine
 62
7
  6
CONTINUOUS
 10
-105.744236779
 20
6.95070754
 11
-105.7309292702
 21
8.250695633
  0
LINE
  5
41D
100
AcDbEntity
  8
ASSI
100
AcDbLine
 62
250
  6
CONTINUOUS
 10
-105.2617069677
 20
6.9460675059
 11
-105.248410666
 21
8.2450701213
  0
LINE
  5
41E
100
AcDbEntity
  8
ASSI
100
AcDbLine
 62
7
  6
CONTINUOUS
 10
-105.7309292702
 20
8.250695633
 11
-105.715503236
 21
9.5080928275
  0
LINE
  5
41F
100
AcDbEntity
  8
ASSI
100
AcDbLine
 62
250
  6
CONTINUOUS
 10
-105.248410666
 20
8.2450701213
 11
-105.2329877087
 21
9.5013213265
  0
LWPOLYLINE
  5
420
100
AcDbEntity
  8
ASSI
100
AcDbPolyline
 62
7
  6
CONTINUOUS
 90
3
 70
0
 10
-105.715503236
 20
9.5080928275
 10
-105.6981722032
 20
10.7173307536
 10
-105.6888502113
 20
11.3035819329
  0
LINE
  5
421
100
AcDbEntity
  8
ASSI
100
AcDbLine
 62
250
  6
CONTINUOUS
 10
-105.2329877087
 20
9.5013213265
 11
-105.2156841859
 21
10.7096735862
  0
LINE
  5
422
100
AcDbEntity
  8
ASSI
100
AcDbLine
 62
250
  6
CONTINUOUS
 10
-105.2156841859
 20
10.7096735862
 11
-105.1966887018
 21
11.8664477574
  0
LINE
  5
423
100
AcDbEntity
  8
ASSI
100
AcDbLine
 62
250
  6
CONTINUOUS
 10
-105.1966887018
 20
11.8664477574
 11
-105.1763118349
 21
12.9662152623
  0
LINE
  5
424
100
AcDbEntity
  8
ASSI
100
AcDbLine
 62
250
  6
CONTINUOUS
 10
-105.1763118349
 20
12.9662152623
 11
-105.1442508797
 21
14.4876050849
  0
LINE
  5
425
100
AcDbEntity
  8
ASSI
100
AcDbLine
 62
250
  6
CONTINUOUS
 10
-105.1442508797
 20
14.4876050849
 11
-105.1100185621
 21
15.9044121835
  0
LINE
  5
426
100
AcDbEntity
  8
ASSI
100
AcDbLine
 62
250
  6
CONTINUOUS
 10
-105.1100185621
 20
15.9044121835
 11
-105.0712464619
 21
17.3202340136
  0
LINE
  5
427
100
AcDbEntity
  8
ASSI
100
AcDbLine
 62
250
  6
CONTINUOUS
 10
-105.0712464619
 20
17.3202340136
 11
-105.0423245263
 21
18.276493997
  0
LINE
  5
428
100
AcDbEntity
  8
ASSI
100
AcDbLine
 62
250
  6
CONTINUOUS
 10
-105.0423245263
 20
18.276493997
 11
-105.0110121172
 21
19.2350726772
  0
LINE
  5
429
100
AcDbEntity
  8
ASSI
100
AcDbLine
 62
250
  6
CONTINUOUS
 10
-105.0110121172
 20
19.2350726772
 11
-104.9775923757
 21
20.183315707
  0
LINE
  5
42A
100
AcDbEntity
  8
ASSI
100
AcDbLine
 62
250
  6
CONTINUOUS
 10
-104.9775923757
 20
20.183315707
 11
-104.9417383666
 21
21.127725258
  0
LWPOLYLINE
  5
42B
100
AcDbEntity
  8
ASSI
100
AcDbPolyline
 62
250
  6
CONTINUOUS
 90
3
 70
0
 10
-104.9417383666
 20
21.127725258
 10
-104.9032115923
 20
22.071716377
 10
-104.8827397414
 20
22.5468728171
  0
LWPOLYLINE
  5
42C
100
AcDbEntity
  8
RACCORDO
100
AcDbPolyline
 62
250
  6
CONTINUOUS
 90
13
 70
0
 10
-95.6472982487
 20
26.6250583679
 10
-95.641515207
 20
26.6451599746
 10
-95.6358060041
 20
26.6643962314
 10
-95.6302393864
 20
26.6825355092
 10
-95.6248823828
 20
26.6993593878
 10
-95.6197994987
 20
26.7146652858
 10
-95.6150519384
 20
26.7282689007
 10
-95.6106968687
 20
26.7400064273
 10
-95.6067867304
 20
26.7497365306
 10
-95.6033686064
 20
26.7573420474
 10
-95.6004836555
 20
26.7627313974
 10
-95.5981666162
 20
26.7658396856
 10
-95.5964453889
 20
26.7666294841
  0
LINE
  5
42D
100
AcDbEntity
  8
RACCORDO
100
AcDbLine
 62
250
  6
CONTINUOUS
 10
-94.040312667
 20
26.3175157165
 11
-94.042465725
 21
26.3116065883
  0
LINE
  5
42E
100
AcDbEntity
  8
ASSI
100
AcDbLine
 62
7
  6
CONTINUOUS
 10
-100.8750002002
 20
-3.6
 11
-103.3750002002
 21
-3.4689805518
  0
LWPOLYLINE
  5
42F
100
AcDbEntity
  8
RACCORDO
100
AcDbPolyline
 62
250
  6
CONTINUOUS
 90
9
 70
0
 10
-94.0424657102
 20
-26.3116066294
 10
-94.0397938296
 20
-26.3189113361
 10
-94.037201642
 20
-26.3256982761
 10
-94.0347159767
 20
-26.3318687859
 10
-94.0323588788
 20
-26.3373350742
 10
-94.030168189
 20
-26.341972365
 10
-94.028190577
 20
-26.3456481979
 10
-94.0264558689
 20
-26.3482779466
 10
-94.0249835062
 20
-26.349797771
  0
LWPOLYLINE
  5
430
100
AcDbEntity
  8
RACCORDO
100
AcDbPolyline
 62
250
  6
CONTINUOUS
 90
13
 70
0
 10
-95.6472982487
 20
-26.6250583679
 10
-95.6415152103
 20
-26.6451599788
 10
-95.6358060102
 20
-26.6643962389
 10
-95.6302393947
 20
-26.6825355189
 10
-95.6248823928
 20
-26.6993593986
 10
-95.6197995098
 20
-26.7146652969
 10
-95.61505195
 20
-26.7282689112
 10
-95.6106968802
 20
-26.7400064366
 10
-95.6067867411
 20
-26.7497365381
 10
-95.6033686156
 20
-26.7573420528
 10
-95.6004836625
 20
-26.7627314007
 10
-95.5981666202
 20
-26.765839687
 10
-95.5964453889
 20
-26.7666294841
  0
LINE
  5
431
100
AcDbEntity
  8
RACCORDO
100
AcDbLine
 62
250
  6
CONTINUOUS
 10
-102.2680192377
 20
-3.5269949657
 11
-102.2680192377
 21
3.5269949657
  0
LINE
  5
432
100
AcDbEntity
  8
RACCORDO
100
AcDbLine
 62
7
  6
CONTINUOUS
 10
-101.8750002002
 20
-3.5475922207
 11
-101.8750002002
 21
3.5475922207
  0
LINE
  5
433
100
AcDbEntity
  8
ASSI
100
AcDbLine
 62
7
  6
CONTINUOUS
 10
-100.8750002002
 20
-3.6
 11
-100.8750002002
 21
-45.0
  0
LINE
  5
434
100
AcDbEntity
  8
ASSI
100
AcDbLine
 62
7
  6
CONTINUOUS
 10
-100.8750002002
 20
3.6
 11
-100.8750002002
 21
45.0
  0
LINE
  5
435
100
AcDbEntity
  8
RACCORDO
100
AcDbLine
 62
250
  6
CONTINUOUS
 10
-101.8750002002
 20
-1.75
 11
-103.3750002002
 21
-1.75
  0
LINE
  5
436
100
AcDbEntity
  8
ASSI
100
AcDbLine
 62
250
  6
CONTINUOUS
 10
-105.7750002002
 20
0.0
 11
-105.2924499486
 21
0.0
  0
LINE
  5
437
100
AcDbEntity
  8
RACCORDO
100
AcDbLine
 62
250
  6
CONTINUOUS
 10
-101.8750002002
 20
1.75
 11
-103.3750002002
 21
1.75
  0
LINE
  5
438
100
AcDbEntity
  8
RACCORDO
100
AcDbLine
 62
250
  6
CONTINUOUS
 10
-95.8382929468
 20
25.4039702478
 11
-95.834321223
 21
25.3626841609
  0
LWPOLYLINE
  5
439
100
AcDbEntity
  8
RACCORDO
100
AcDbPolyline
 62
250
  6
CONTINUOUS
 90
13
 70
0
 10
-95.834321223
 20
25.3626841609
 10
-95.8308260314
 20
25.3231945338
 10
-95.82930566
 20
25.3046654944
 10
-95.8279594565
 20
25.2872196578
 10
-95.8268021051
 20
25.2710473208
 10
-95.82584623
 20
25.256324889
 10
-95.8251022578
 20
25.2432129526
 10
-95.8245783036
 20
25.231854535
 10
-95.8242800827
 20
25.2223735321
 10
-95.824210848
 20
25.2148733616
 10
-95.8243713547
 20
25.2094358341
 10
-95.8247598521
 20
25.2061202616
 10
-95.8253721023
 20
25.2049628098
  0
LWPOLYLINE
  5
43A
100
AcDbEntity
  8
RACCORDO
100
AcDbPolyline
 62
250
  6
CONTINUOUS
 90
12
 70
0
 10
-95.918499366
 20
-25.3186526714
 10
-95.9188310512
 20
-25.3
 10
-95.9192289642
 20
-25.2824429495
 10
-95.9196887453
 20
-25.2661738787
 10
-95.9202053571
 20
-25.2513710349
 10
-95.9207731395
 20
-25.2381966011
 10
-95.9213858717
 20
-25.2267949192
 10
-95.9220368405
 20
-25.2172909085
 10
-95.9227189139
 20
-25.2097886967
 10
-95.9234246187
 20
-25.2043704799
 10
-95.9241462232
 20
-25.2010956209
 10
-95.9248758214
 20
-25.2
  0
LWPOLYLINE
  5
43B
100
AcDbEntity
  8
RACCORDO
100
AcDbPolyline
 62
250
  6
CONTINUOUS
 90
3
 70
0
 10
-94.0738935967
 20
26.3087327449
 10
-94.0739191886
 20
26.3110102318
 10
-94.0739530075
 20
26.3117714569
  0
LINE
  5
43C
100
AcDbEntity
  8
RACCORDO
100
AcDbLine
 62
250
  6
CONTINUOUS
 10
-95.9180484496
 20
-25.3584176618
 11
-95.918499366
 21
-25.3186526714
  0
LINE
  5
43D
100
AcDbEntity
  8
RACCORDO
100
AcDbLine
 62
250
  6
CONTINUOUS
 10
-95.917895922
 20
-25.4
 11
-95.9180484496
 21
-25.3584176618
  0
LINE
  5
43E
100
AcDbEntity
  8
RACCORDO
100
AcDbLine
 62
250
  6
CONTINUOUS
 10
-94.0738678084
 20
26.2997097216
 11
-94.0738935967
 21
26.3087327449
  0
LINE
  5
43F
100
AcDbEntity
  8
RACCORDO
100
AcDbLine
 62
250
  6
CONTINUOUS
 10
-94.0738678084
 20
-26.2997097084
 11
-94.0739530075
 21
-26.0595607844
  0
LINE
  5
440
100
AcDbEntity
  8
RACCORDO
100
AcDbLine
 62
250
  6
CONTINUOUS
 10
-94.0680203009
 20
25.9181413667
 11
-94.0680203009
 21
25.5809975124
  0
LINE
  5
441
100
AcDbEntity
  8
RACCORDO
100
AcDbLine
 62
250
  6
CONTINUOUS
 10
-94.0680203009
 20
-25.5809975124
 11
-94.0680203009
 21
-25.9181413667
  0
LINE
  5
442
100
AcDbEntity
  8
ASSI
100
AcDbLine
 62
7
  6
CONTINUOUS
 10
-93.8750002002
 20
26.475
 11
-93.8750002002
 21
26.156801895
  0
LINE
  5
443
100
AcDbEntity
  8
RACCORDO
100
AcDbLine
 62
7
  6
CONTINUOUS
 10
-93.8750002002
 20
-25.5809975124
 11
-93.8750002002
 21
-26.156801895
  0
LINE
  5
444
100
AcDbEntity
  8
ASSI
100
AcDbLine
 62
7
  6
CONTINUOUS
 10
-93.8750002002
 20
-26.156801895
 11
-93.8750002002
 21
-26.475
  0
LINE
  5
445
100
AcDbEntity
  8
RACCORDO
100
AcDbLine
 62
7
  6
CONTINUOUS
 10
-93.8750002002
 20
25.5809975124
 11
-93.8750002002
 21
26.156801895
  0
LINE
  5
446
100
AcDbEntity
  8
RACCORDO
100
AcDbLine
 62
250
  6
CONTINUOUS
 10
-94.0739530075
 20
26.0595607844
 11
-94.0738678084
 21
26.2997097216
  0
LINE
  5
447
100
AcDbEntity
  8
RACCORDO
100
AcDbLine
 62
250
  6
CONTINUOUS
 10
-95.917895922
 20
25.4
 11
-95.9180484494
 21
25.3584176907
  0
LWPOLYLINE
  5
448
100
AcDbEntity
  8
RACCORDO
100
AcDbPolyline
 62
250
  6
CONTINUOUS
 90
13
 70
0
 10
-95.9180484494
 20
25.3584176907
 10
-95.9184993653
 20
25.3186527156
 10
-95.9188310503
 20
25.3000000465
 10
-95.919228963
 20
25.2824429954
 10
-95.9196887439
 20
25.2661739213
 10
-95.9202053556
 20
25.2513710721
 10
-95.920773138
 20
25.2381966317
 10
-95.9213858703
 20
25.2267949425
 10
-95.9220368393
 20
25.2172909244
 10
-95.9227189128
 20
25.2097887063
 10
-95.9234246179
 20
25.2043704844
 10
-95.9241462228
 20
25.2010956221
 10
-95.9248758214
 20
25.2
  0
LINE
  5
449
100
AcDbEntity
  8
RACCORDO
100
AcDbLine
 62
250
  6
CONTINUOUS
 10
-94.0685183938
 20
-25.93532552
 11
-94.0680203009
 21
-25.9181413667
  0
LWPOLYLINE
  5
44A
100
AcDbEntity
  8
RACCORDO
100
AcDbPolyline
 62
250
  6
CONTINUOUS
 90
11
 70
0
 10
-95.8293056587
 20
-25.3046654777
 10
-95.8279594553
 20
-25.2872196414
 10
-95.826802104
 20
-25.2710473055
 10
-95.8258462292
 20
-25.2563248756
 10
-95.8251022572
 20
-25.2432129416
 10
-95.8245783033
 20
-25.2318545266
 10
-95.8242800826
 20
-25.2223735264
 10
-95.824210848
 20
-25.2148733581
 10
-95.8243713548
 20
-25.2094358325
 10
-95.8247598522
 20
-25.2061202611
 10
-95.8253721023
 20
-25.2049628098
  0
LINE
  5
44B
100
AcDbEntity
  8
RACCORDO
100
AcDbLine
 62
250
  6
CONTINUOUS
 10
-95.8325039855
 20
-25.3426046498
 11
-95.8293056587
 21
-25.3046654777
  0
LWPOLYLINE
  5
44C
100
AcDbEntity
  8
RACCORDO
100
AcDbPolyline
 62
250
  6
CONTINUOUS
 90
3
 70
0
 10
-95.8382929468
 20
-25.4039702478
 10
-95.8362579176
 20
-25.3832139955
 10
-95.8325039855
 20
-25.3426046498
  0
LINE
  5
44D
100
AcDbEntity
  8
ASSI
100
AcDbLine
 62
7
  6
CONTINUOUS
 10
-100.8750002002
 20
3.6
 11
-103.3750002002
 21
3.4689805518
  0
LINE
  5
44E
100
AcDbEntity
  8
RACCORDO
100
AcDbLine
 62
250
  6
CONTINUOUS
 10
-94.0680203009
 20
25.5809975124
 11
-94.0647170809
 21
25.5468910748
  0
LINE
  5
44F
100
AcDbEntity
  8
RACCORDO
100
AcDbLine
 62
250
  6
CONTINUOUS
 10
-94.0647170809
 20
25.5468910748
 11
-94.061700615
 21
25.5135930112
  0
LWPOLYLINE
  5
450
100
AcDbEntity
  8
RACCORDO
100
AcDbPolyline
 62
250
  6
CONTINUOUS
 90
14
 70
0
 10
-94.061700615
 20
25.5135930112
 10
-94.0590698663
 20
25.4821548829
 10
-94.0579290027
 20
25.467476216
 10
-94.0569169263
 20
25.4536453652
 10
-94.0560431549
 20
25.4407913067
 10
-94.0553147172
 20
25.4290200664
 10
-94.0547361874
 20
25.418408705
 10
-94.054311475
 20
25.409028867
 10
-94.0540439264
 20
25.4009500363
 10
-94.0539360301
 20
25.3942403246
 10
-94.0539887445
 20
25.3889553707
 10
-94.0542015472
 20
25.3851354772
 10
-94.0545727479
 20
25.3828080031
 10
-94.0550994564
 20
25.3819900744
  0
LWPOLYLINE
  5
451
100
AcDbEntity
  8
RACCORDO
100
AcDbPolyline
 62
250
  6
CONTINUOUS
 90
3
 70
0
 10
-94.0739530075
 20
26.0595607844
 10
-94.0731841752
 20
26.0466354442
 10
-94.0724293413
 20
26.0327224175
  0
LWPOLYLINE
  5
452
100
AcDbEntity
  8
RACCORDO
100
AcDbPolyline
 62
7
  6
CONTINUOUS
 90
4
 70
0
 10
-93.8750002002
 20
26.156801895
 10
-93.8759027159
 20
26.1724881562
 10
-93.8784890463
 20
26.1875352559
 10
-93.882568981
 20
26.2017849154
  0
LINE
  5
453
100
AcDbEntity
  8
RACCORDO
100
AcDbLine
 62
250
  6
CONTINUOUS
 10
-94.0724293413
 20
26.0327224175
 11
-94.0709836535
 21
26.0023439487
  0
LINE
  5
454
100
AcDbEntity
  8
RACCORDO
100
AcDbLine
 62
250
  6
CONTINUOUS
 10
-94.0709836535
 20
26.0023439487
 11
-94.0696634887
 21
25.96943168
  0
LWPOLYLINE
  5
455
100
AcDbEntity
  8
RACCORDO
100
AcDbPolyline
 62
250
  6
CONTINUOUS
 90
3
 70
0
 10
-94.0696634887
 20
25.96943168
 10
-94.0685184768
 20
25.9353282386
 10
-94.0680203011
 20
25.9181413667
  0
LINE
  5
456
100
AcDbEntity
  8
RACCORDO
100
AcDbLine
 62
250
  6
CONTINUOUS
 10
-94.0696633205
 20
-25.9694271024
 11
-94.0685183938
 21
-25.93532552
  0
LINE
  5
457
100
AcDbEntity
  8
RACCORDO
100
AcDbLine
 62
250
  6
CONTINUOUS
 10
-94.070983618
 20
-26.0023431354
 11
-94.0696633205
 21
-25.9694271024
  0
LWPOLYLINE
  5
458
100
AcDbEntity
  8
RACCORDO
100
AcDbPolyline
 62
250
  6
CONTINUOUS
 90
4
 70
0
 10
-94.0739530075
 20
-26.3117714569
 10
-94.0739191886
 20
-26.3110102304
 10
-94.0738935966
 20
-26.3087327403
 10
-94.0738678084
 20
-26.2997097084
  0
LWPOLYLINE
  5
459
100
AcDbEntity
  8
RACCORDO
100
AcDbPolyline
 62
7
  6
CONTINUOUS
 90
4
 70
0
 10
-93.8750002002
 20
-26.156801895
 10
-93.8759023636
 20
-26.1724851415
 10
-93.8784878282
 20
-26.187529985
 10
-93.8825666653
 20
-26.2017782112
  0
LWPOLYLINE
  5
45A
100
AcDbEntity
  8
RACCORDO
100
AcDbPolyline
 62
250
  6
CONTINUOUS
 90
4
 70
0
 10
-94.0739530075
 20
-26.0595607844
 10
-94.0731842193
 20
-26.0466362206
 10
-94.0724293968
 20
-26.0327234875
 10
-94.070983618
 20
-26.0023431354
  0
LWPOLYLINE
  5
45B
100
AcDbEntity
  8
RACCORDO
100
AcDbPolyline
 62
250
  6
CONTINUOUS
 90
12
 70
0
 10
-94.0579143109
 20
-25.4672815925
 10
-94.0569066169
 20
-25.4534994248
 10
-94.0560360622
 20
-25.4406822431
 10
-94.0553092517
 20
-25.4289264138
 10
-94.0547319298
 20
-25.4183238015
 10
-94.0543086494
 20
-25.4089575266
 10
-94.0540426402
 20
-25.4008992666
 10
-94.0539358908
 20
-25.3942095975
 10
-94.0539892119
 20
-25.3889393905
 10
-94.0542021943
 20
-25.3851286739
 10
-94.0545732166
 20
-25.3828063625
 10
-94.0550994564
 20
-25.3819900744
  0
LINE
  5
45C
100
AcDbEntity
  8
RACCORDO
100
AcDbLine
 62
250
  6
CONTINUOUS
 10
-94.0603111782
 20
-25.4973372124
 11
-94.0579143109
 21
-25.4672815925
  0
LINE
  5
45D
100
AcDbEntity
  8
RACCORDO
100
AcDbLine
 62
250
  6
CONTINUOUS
 10
-94.0631512762
 20
-25.529905551
 11
-94.0603111782
 21
-25.4973372124
  0
LWPOLYLINE
  5
45E
100
AcDbEntity
  8
RACCORDO
100
AcDbPolyline
 62
250
  6
CONTINUOUS
 90
3
 70
0
 10
-94.0680203009
 20
-25.5809975124
 10
-94.0663321691
 20
-25.5638352552
 10
-94.0631512762
 20
-25.529905551
  0
LWPOLYLINE
  5
45F
100
AcDbEntity
  8
0
100
AcDbPolyline
 62
7
  6
CONTINUOUS
 90
10
 70
0
 43
0.3500000006
 10
-115.3865484009
 20
56.2662590332
 10
-115.315117218
 20
56.1234057312
 10
-115.315117218
 20
56.0519745483
 10
-115.45797052
 20
55.9091121826
 10
-115.5294017029
 20
55.9091121826
 10
-115.6008328857
 20
55.9805433655
 10
-115.6008328857
 20
56.0519745483
 10
-115.5294017029
 20
56.1948278503
 10
-115.45797052
 20
56.2662590332
 10
-115.3865484009
 20
56.2662590332
  0
LWPOLYLINE
  5
460
100
AcDbEntity
  8
RACCORDO
100
AcDbPolyline
 62
7
  6
CONTINUOUS
 90
12
 70
0
 10
-93.8825666653
 20
-26.2017782112
 10
-93.8879388704
 20
-26.2150662582
 10
-93.8944084376
 20
-26.2273369714
 10
-93.9017938342
 20
-26.2386347732
 10
-93.909894809
 20
-26.2489000094
 10
-93.9185482963
 20
-26.2581324151
 10
-93.9276657188
 20
-26.2664869279
 10
-93.9371149059
 20
-26.2740052015
 10
-93.9467690061
 20
-26.2806728489
 10
-93.9565945627
 20
-26.2865562236
 10
-93.9665165434
 20
-26.291676509
 10
-93.9764350644
 20
-26.2960712139
  0
LWPOLYLINE
  5
461
100
AcDbEntity
  8
RACCORDO
100
AcDbPolyline
 62
7
  6
CONTINUOUS
 90
12
 70
0
 10
-93.882568981
 20
26.2017849154
 10
-93.8879421596
 20
26.2150733582
 10
-93.8944123861
 20
26.2273436849
 10
-93.9017983024
 20
26.2386409689
 10
-93.9098997596
 20
26.2489057418
 10
-93.918553569
 20
26.258137588
 10
-93.9276711825
 20
26.26649153
 10
-93.9371204398
 20
26.2740092731
 10
-93.9467744765
 20
26.2806764155
 10
-93.9565998462
 20
26.2865592859
 10
-93.9665215319
 20
26.291679079
 10
-93.9764396426
 20
26.2960733179
  0
LINE
  5
462
100
AcDbEntity
  8
0
100
AcDbLine
 62
7
  6
CONTINUOUS
 10
-100.4250002002
 20
-25.05
 11
-100.5750002002
 21
-25.2
  0
LINE
  5
463
100
AcDbEntity
  8
0
100
AcDbLine
 62
7
  6
CONTINUOUS
 10
-99.9250002002
 20
-25.05
 11
-100.0750002002
 21
-25.2
  0
LINE
  5
464
100
AcDbEntity
  8
0
100
AcDbLine
 62
7
  6
CONTINUOUS
 10
-99.4250002002
 20
-25.05
 11
-99.5750002002
 21
-25.2
  0
LINE
  5
465
100
AcDbEntity
  8
0
100
AcDbLine
 62
7
  6
CONTINUOUS
 10
-98.9250002002
 20
-25.05
 11
-99.0750002002
 21
-25.2
  0
LINE
  5
466
100
AcDbEntity
  8
0
100
AcDbLine
 62
7
  6
CONTINUOUS
 10
-98.4250002002
 20
-25.05
 11
-98.5750002002
 21
-25.2
  0
LINE
  5
467
100
AcDbEntity
  8
0
100
AcDbLine
 62
7
  6
CONTINUOUS
 10
-97.9250002002
 20
-25.05
 11
-98.0750002002
 21
-25.2
  0
LINE
  5
468
100
AcDbEntity
  8
0
100
AcDbLine
 62
7
  6
CONTINUOUS
 10
-100.5750002002
 20
25.2
 11
-100.4250002002
 21
25.05
  0
LINE
  5
469
100
AcDbEntity
  8
0
100
AcDbLine
 62
7
  6
CONTINUOUS
 10
-100.0750002002
 20
25.2
 11
-99.9250002002
 21
25.05
  0
LINE
  5
46A
100
AcDbEntity
  8
0
100
AcDbLine
 62
7
  6
CONTINUOUS
 10
-99.5750002002
 20
25.2
 11
-99.4250002002
 21
25.05
  0
LINE
  5
46B
100
AcDbEntity
  8
0
100
AcDbLine
 62
7
  6
CONTINUOUS
 10
-99.0750002002
 20
25.2
 11
-98.9250002002
 21
25.05
  0
LINE
  5
46C
100
AcDbEntity
  8
0
100
AcDbLine
 62
7
  6
CONTINUOUS
 10
-98.5750002002
 20
25.2
 11
-98.4250002002
 21
25.05
  0
LINE
  5
46D
100
AcDbEntity
  8
0
100
AcDbLine
 62
7
  6
CONTINUOUS
 10
-98.0750002002
 20
25.2
 11
-97.9250002002
 21
25.05
  0
LWPOLYLINE
  5
46E
100
AcDbEntity
  8
0
100
AcDbPolyline
 62
7
  6
CONTINUOUS
 90
10
 70
0
 43
0.3500000006
 10
-114.6841644287
 20
66.2676397705
 10
-114.6127332458
 20
66.1247864685
 10
-114.6127332458
 20
66.0533552856
 10
-114.7555956116
 20
65.9105019836
 10
-114.8270177307
 20
65.9105019836
 10
-114.8984489136
 20
65.9819331665
 10
-114.8984489136
 20
66.0533552856
 10
-114.8270177307
 20
66.1962176514
 10
-114.7555956116
 20
66.2676397705
 10
-114.6841644287
 20
66.2676397705
  0
LINE
  5
46F
100
AcDbEntity
  8
0
100
AcDbLine
 62
7
  6
CONTINUOUS
 10
-97.4250002002
 20
-25.05
 11
-97.5750002002
 21
-25.2
  0
LINE
  5
470
100
AcDbEntity
  8
0
100
AcDbLine
 62
7
  6
CONTINUOUS
 10
-96.9250002002
 20
-25.05
 11
-97.0750002002
 21
-25.2
  0
LINE
  5
471
100
AcDbEntity
  8
0
100
AcDbLine
 62
7
  6
CONTINUOUS
 10
-96.4250002002
 20
-25.05
 11
-96.5750002002
 21
-25.2
  0
LINE
  5
472
100
AcDbEntity
  8
0
100
AcDbLine
 62
7
  6
CONTINUOUS
 10
-97.5750002002
 20
25.2
 11
-97.4250002002
 21
25.05
  0
LINE
  5
473
100
AcDbEntity
  8
0
100
AcDbLine
 62
7
  6
CONTINUOUS
 10
-97.0750002002
 20
25.2
 11
-96.9250002002
 21
25.05
  0
LINE
  5
474
100
AcDbEntity
  8
0
100
AcDbLine
 62
7
  6
CONTINUOUS
 10
-96.5750002002
 20
25.2
 11
-96.4250002002
 21
25.05
  0
LINE
  5
475
100
AcDbEntity
  8
RACCORDO
100
AcDbLine
 62
250
  6
CONTINUOUS
 10
-95.8904996523
 20
-26.8316246107
 11
-95.6472982487
 21
-26.6250583679
  0
LWPOLYLINE
  5
476
100
AcDbEntity
  8
RACCORDO
100
AcDbPolyline
 62
250
  6
CONTINUOUS
 90
5
 70
0
 10
-95.8989076806
 20
-26.8388452356
 10
-95.8974535516
 20
-26.8376220086
 10
-95.8955796721
 20
-26.8360190018
 10
-95.8932818131
 20
-26.8340173908
 10
-95.8904996523
 20
-26.8316246107
  0
LWPOLYLINE
  5
477
100
AcDbEntity
  8
RACCORDO
100
AcDbPolyline
 62
250
  6
CONTINUOUS
 90
3
 70
0
 10
-95.9008492031
 20
-26.8404392199
 10
-95.9005916355
 20
-26.8402314829
 10
-95.89993783
 20
-26.8397095597
  0
LINE
  5
478
100
AcDbEntity
  8
RACCORDO
100
AcDbLine
 62
7
  6
CONTINUOUS
 10
-95.8253721023
 20
25.2049628098
 11
-94.0550994564
 21
25.3819900744
  0
LINE
  5
479
100
AcDbEntity
  8
RACCORDO
100
AcDbLine
 62
250
  6
CONTINUOUS
 10
-95.8382929468
 20
25.4039702478
 11
-94.0680203009
 21
25.5809975124
  0
LWPOLYLINE
  5
47A
100
AcDbEntity
  8
RACCORDO
100
AcDbPolyline
 62
250
  6
CONTINUOUS
 90
10
 70
0
 10
-95.917895922
 20
25.4
 10
-95.9090330202
 20
25.4000491768
 10
-95.9001742934
 20
25.4001963618
 10
-95.8913197417
 20
25.4004415552
 10
-95.8824688895
 20
25.4007847807
 10
-95.8736222124
 20
25.4012260144
 10
-95.8647811369
 20
25.4017651852
 10
-95.8559461386
 20
25.4024022691
 10
-95.8471167419
 20
25.40313729
 10
-95.8382929468
 20
25.4039702478
  0
LINE
  5
47B
100
AcDbEntity
  8
0
100
AcDbLine
 62
7
  6
CONTINUOUS
 10
-100.4250002002
 20
25.05
 11
-100.2250002002
 21
25.05
  0
LINE
  5
47C
100
AcDbEntity
  8
0
100
AcDbLine
 62
7
  6
CONTINUOUS
 10
-99.9250002002
 20
25.05
 11
-99.7250002002
 21
25.05
  0
LINE
  5
47D
100
AcDbEntity
  8
0
100
AcDbLine
 62
7
  6
CONTINUOUS
 10
-99.4250002002
 20
25.05
 11
-99.2250002002
 21
25.05
  0
LINE
  5
47E
100
AcDbEntity
  8
0
100
AcDbLine
 62
7
  6
CONTINUOUS
 10
-98.9250002002
 20
25.05
 11
-98.7250002002
 21
25.05
  0
LINE
  5
47F
100
AcDbEntity
  8
0
100
AcDbLine
 62
7
  6
CONTINUOUS
 10
-98.4250002002
 20
25.05
 11
-98.2250002002
 21
25.05
  0
LINE
  5
480
100
AcDbEntity
  8
0
100
AcDbLine
 62
7
  6
CONTINUOUS
 10
-97.9250002002
 20
25.05
 11
-97.7250002002
 21
25.05
  0
LINE
  5
481
100
AcDbEntity
  8
0
100
AcDbLine
 62
7
  6
CONTINUOUS
 10
-97.4250002002
 20
25.05
 11
-97.2250002002
 21
25.05
  0
LINE
  5
482
100
AcDbEntity
  8
0
100
AcDbLine
 62
7
  6
CONTINUOUS
 10
-96.9250002002
 20
25.05
 11
-96.7250002002
 21
25.05
  0
LINE
  5
483
100
AcDbEntity
  8
0
100
AcDbLine
 62
7
  6
CONTINUOUS
 10
-96.4250002002
 20
25.05
 11
-96.2250002002
 21
25.05
  0
LINE
  5
484
100
AcDbEntity
  8
RACCORDO
100
AcDbLine
 62
7
  6
CONTINUOUS
 10
-100.8750002002
 20
25.2
 11
-95.9248758214
 21
25.2
  0
LINE
  5
485
100
AcDbEntity
  8
RACCORDO
100
AcDbLine
 62
250
  6
CONTINUOUS
 10
-100.8750002002
 20
25.4
 11
-95.917895922
 21
25.4
  0
LINE
  5
486
100
AcDbEntity
  8
RACCORDO
100
AcDbLine
 62
250
  6
CONTINUOUS
 10
-94.0680203009
 20
25.5809975124
 11
-93.8750002002
 21
25.5809975124
  0
LINE
  5
487
100
AcDbEntity
  8
RACCORDO
100
AcDbLine
 62
250
  6
CONTINUOUS
 10
-95.9007304267
 20
26.8403626198
 11
-95.900851707
 21
26.8404457988
  0
LINE
  5
488
100
AcDbEntity
  8
RACCORDO
100
AcDbLine
 62
250
  6
CONTINUOUS
 10
-95.6472982487
 20
26.6250583679
 11
-95.8996947255
 21
26.8394675995
  0
LINE
  5
489
100
AcDbEntity
  8
RACCORDO
100
AcDbLine
 62
250
  6
CONTINUOUS
 10
-95.8996947255
 20
26.8394675995
 11
-95.9007304267
 21
26.8403626198
  0
LWPOLYLINE
  5
48A
100
AcDbEntity
  8
RACCORDO
100
AcDbPolyline
 62
7
  6
CONTINUOUS
 90
7
 70
0
 10
-93.9764350644
 20
-26.2960712139
 10
-93.9863085365
 20
-26.2998237625
 10
-93.9960608205
 20
-26.3029721535
 10
-94.0056510401
 20
-26.3055631888
 10
-94.0151113333
 20
-26.3076829388
 10
-94.0244326451
 20
-26.3093795507
 10
-94.0335590864
 20
-26.3106750548
  0
LINE
  5
48B
100
AcDbEntity
  8
RACCORDO
100
AcDbLine
 62
250
  6
CONTINUOUS
 10
-100.8750002002
 20
25.7308412095
 11
-94.0680203009
 21
25.9181413667
  0
LINE
  5
48C
100
AcDbEntity
  8
RACCORDO
100
AcDbLine
 62
250
  6
CONTINUOUS
 10
-100.8750002002
 20
25.8724238709
 11
-94.0739530075
 21
26.0595607844
  0
LWPOLYLINE
  5
48D
100
AcDbEntity
  8
RACCORDO
100
AcDbPolyline
 62
250
  6
CONTINUOUS
 90
15
 70
0
 10
-94.0237982747
 20
26.3501367414
 10
-94.0242933817
 20
26.3501349289
 10
-94.0248717181
 20
26.3498731637
 10
-94.0255385891
 20
26.3493284463
 10
-94.0262986362
 20
26.3484783075
 10
-94.027157456
 20
26.3472991624
 10
-94.0281221179
 20
26.3457642266
 10
-94.0291977446
 20
26.3438486761
 10
-94.0303894753
 20
26.3415275456
 10
-94.0317051381
 20
26.3387698041
 10
-94.0331503147
 20
26.3355478534
 10
-94.0347289091
 20
26.331837672
 10
-94.0364464028
 20
26.3276114295
 10
-94.0383068832
 20
26.3228442385
 10
-94.040312667
 20
26.3175157165
  0
LINE
  5
48E
100
AcDbEntity
  8
RACCORDO
100
AcDbLine
 62
250
  6
CONTINUOUS
 10
-94.0680203009
 20
25.9181413667
 11
-93.8750002002
 21
25.9181413667
  0
LINE
  5
48F
100
AcDbEntity
  8
RACCORDO
100
AcDbLine
 62
250
  6
CONTINUOUS
 10
-93.913835204
 20
26.275
 11
-93.8750002002
 21
26.275
  0
LINE
  5
490
100
AcDbEntity
  8
RACCORDO
100
AcDbLine
 62
7
  6
CONTINUOUS
 10
-94.4952731005
 20
26.475
 11
-93.8750002002
 21
26.475
  0
LINE
  5
491
100
AcDbEntity
  8
RACCORDO
100
AcDbLine
 62
250
  6
CONTINUOUS
 10
-100.8750002002
 20
26.6274198511
 11
-95.6472982487
 21
26.6250583679
  0
LINE
  5
492
100
AcDbEntity
  8
DRAFT
100
AcDbLine
 62
7
  6
CONTINUOUS
 10
-100.8750002002
 20
26.8491273345
 11
-95.9007797057
 21
26.8404456731
  0
LINE
  5
493
100
AcDbEntity
  8
RACCORDO
100
AcDbLine
 62
250
  6
CONTINUOUS
 10
-94.0739530075
 20
26.2531936162
 11
-100.8750002002
 21
26.2888041414
  0
LINE
  5
494
100
AcDbEntity
  8
RACCORDO
100
AcDbLine
 62
7
  6
CONTINUOUS
 10
-94.042465725
 20
26.3116065883
 11
-100.8750002002
 21
26.3473819822
  0
LWPOLYLINE
  5
495
100
AcDbEntity
  8
RACCORDO
100
AcDbPolyline
 62
250
  6
CONTINUOUS
 90
19
 70
0
 10
-94.0739530075
 20
26.2531936162
 10
-94.0566141518
 20
26.2525966989
 10
-94.0394064131
 20
26.2509379192
 10
-94.0224598057
 20
26.248228416
 10
-94.0059012192
 20
26.2444869161
 10
-93.9898578456
 20
26.2397405602
 10
-93.974455707
 20
26.2340255888
 10
-93.9598117147
 20
26.2273847793
 10
-93.9460370149
 20
26.2198679005
 10
-93.9332394106
 20
26.2115336054
 10
-93.9215168496
 20
26.202446303
 10
-93.9109561174
 20
26.1926739478
 10
-93.9016358083
 20
26.1822894011
 10
-93.8936260942
 20
26.1713704805
 10
-93.8869882955
 20
26.1600003515
 10
-93.8817730656
 20
26.1482658033
 10
-93.8780197674
 20
26.1362559167
 10
-93.8757564944
 20
26.1240612987
 10
-93.8750002002
 20
26.1117741985
  0
LWPOLYLINE
  5
496
100
AcDbEntity
  8
RACCORDO
100
AcDbPolyline
 62
250
  6
CONTINUOUS
 90
19
 70
0
 10
-94.0739530075
 20
26.0595607844
 10
-94.0565855657
 20
26.0589619995
 10
-94.0393543043
 20
26.0572984185
 10
-94.0223896213
 20
26.0545820626
 10
-94.0058192836
 20
26.0508327394
 10
-93.9897696903
 20
26.0460783828
 10
-93.9743646575
 20
26.040355293
 10
-93.9597212989
 20
26.0337068783
 10
-93.9459501346
 20
26.0261832118
 10
-93.9331561525
 20
26.0178415827
 10
-93.9214361061
 20
26.0087450891
 10
-93.910878814
 20
25.9989626837
 10
-93.9015648183
 20
25.9885692316
 10
-93.8935621717
 20
25.9776402818
 10
-93.8869340642
 20
25.9662616767
 10
-93.8817346051
 20
25.9545309926
 10
-93.8779995734
 20
25.9425417051
 10
-93.8757506763
 20
25.9303812035
 10
-93.8750002002
 20
25.9181413667
  0
LINE
  5
497
100
AcDbEntity
  8
RACCORDO
100
AcDbLine
 62
7
  6
CONTINUOUS
 10
-94.0278413071
 20
26.312017081
 11
-94.0425695659
 21
26.3131415398
  0
LINE
  5
498
100
AcDbEntity
  8
RACCORDO
100
AcDbLine
 62
7
  6
CONTINUOUS
 10
-94.0335594783
 20
26.3106751395
 11
-94.0424657249
 21
26.3116065884
  0
LWPOLYLINE
  5
499
100
AcDbEntity
  8
RACCORDO
100
AcDbPolyline
 62
7
  6
CONTINUOUS
 90
4
 70
0
 10
-95.8500049904
 20
26.8337810611
 10
-95.8686654346
 20
26.8377795122
 10
-95.8876243378
 20
26.8399785674
 10
-95.9007803003
 20
26.8404353489
  0
LINE
  5
49A
100
AcDbEntity
  8
RACCORDO
100
AcDbLine
 62
250
  6
CONTINUOUS
 10
-94.4722232098
 20
26.3138568139
 11
-95.6472982487
 21
26.6250583679
  0
LINE
  5
49B
100
AcDbEntity
  8
RACCORDO
100
AcDbLine
 62
7
  6
CONTINUOUS
 10
-94.0237982747
 20
26.3501367414
 11
-95.8500122705
 21
26.8337829892
  0
LWPOLYLINE
  5
49C
100
AcDbEntity
  8
RACCORDO
100
AcDbPolyline
 62
7
  6
CONTINUOUS
 90
7
 70
0
 10
-93.9764396426
 20
26.2960733179
 10
-93.986312564
 20
26.2998254069
 10
-93.9960640777
 20
26.3029733216
 10
-94.0056533914
 20
26.3055639236
 10
-94.015112872
 20
26.307683358
 10
-94.0244335518
 20
26.3093797682
 10
-94.0335594783
 20
26.3106751395
  0
LWPOLYLINE
  5
49D
100
AcDbEntity
  8
ASSI
100
AcDbPolyline
 62
250
  6
CONTINUOUS
 90
5
 70
0
 10
-102.6211058377
 20
-44.1286569522
 10
-102.6195735493
 20
-44.127540542
 10
-102.6146300641
 20
-44.1251680764
 10
-102.6063114539
 20
-44.1215568668
 10
-102.5946784178
 20
-44.1167332636
  0
LWPOLYLINE
  5
49E
100
AcDbEntity
  8
ASSI
100
AcDbPolyline
 62
250
  6
CONTINUOUS
 90
5
 70
0
 10
-102.6211058377
 20
44.1286569522
 10
-102.6195735513
 20
44.127540534
 10
-102.6146300663
 20
44.1251680606
 10
-102.6063114547
 20
44.1215568435
 10
-102.594678416
 20
44.1167332333
  0
LINE
  5
49F
100
AcDbEntity
  8
ASSI
100
AcDbLine
 62
250
  6
CONTINUOUS
 10
-102.5946784178
 20
-44.1167332636
 11
-102.5798158398
 21
-44.1107324635
  0
LINE
  5
4A0
100
AcDbEntity
  8
ASSI
100
AcDbLine
 62
250
  6
CONTINUOUS
 10
-102.5798158398
 20
-44.1107324635
 11
-102.5408586292
 21
-44.0953826898
  0
LINE
  5
4A1
100
AcDbEntity
  8
ASSI
100
AcDbLine
 62
250
  6
CONTINUOUS
 10
-102.5408586292
 20
-44.0953826898
 11
-102.4905748006
 21
-44.0759547459
  0
LINE
  5
4A2
100
AcDbEntity
  8
ASSI
100
AcDbLine
 62
250
  6
CONTINUOUS
 10
-102.4905748006
 20
-44.0759547459
 11
-102.3971961738
 21
-44.0404329086
  0
LINE
  5
4A3
100
AcDbEntity
  8
ASSI
100
AcDbLine
 62
250
  6
CONTINUOUS
 10
-102.3971961738
 20
-44.0404329086
 11
-102.248987512
 21
-43.9848832151
  0
LINE
  5
4A4
100
AcDbEntity
  8
ASSI
100
AcDbLine
 62
250
  6
CONTINUOUS
 10
-102.248987512
 20
-43.9848832151
 11
-102.1695320134
 21
-43.9554031259
  0
LINE
  5
4A5
100
AcDbEntity
  8
ASSI
100
AcDbLine
 62
250
  6
CONTINUOUS
 10
-102.3256197419
 20
44.0135043875
 11
-102.1695320134
 21
43.9554031259
  0
LINE
  5
4A6
100
AcDbEntity
  8
ASSI
100
AcDbLine
 62
250
  6
CONTINUOUS
 10
-102.4616313977
 20
44.0648840751
 11
-102.3256197419
 21
44.0135043875
  0
LINE
  5
4A7
100
AcDbEntity
  8
ASSI
100
AcDbLine
 62
250
  6
CONTINUOUS
 10
-102.5170482411
 20
44.0861456709
 11
-102.4616313977
 21
44.0648840751
  0
LWPOLYLINE
  5
4A8
100
AcDbEntity
  8
ASSI
100
AcDbPolyline
 62
250
  6
CONTINUOUS
 90
4
 70
0
 10
-102.594678416
 20
44.1167332333
 10
-102.5798158343
 20
44.110732427
 10
-102.5618321594
 20
44.1035982113
 10
-102.5170482411
 20
44.0861456709
  0
LINE
  5
4A9
100
AcDbEntity
  8
ASSI
100
AcDbLine
 62
250
  6
CONTINUOUS
 10
-102.1695320134
 20
43.9554031259
 11
-100.8750002002
 21
44.000609173
  0
LINE
  5
4AA
100
AcDbEntity
  8
ASSI
100
AcDbLine
 62
7
  6
CONTINUOUS
 10
-101.4795173461
 20
44.9788897961
 11
-100.8750002002
 21
45.0
  0
LWPOLYLINE
  5
4AB
100
AcDbEntity
  8
0
100
AcDbPolyline
 62
7
  6
CONTINUOUS
 90
3
 70
0
 43
0.3500000006
 10
-116.8865488586
 20
56.4091123352
 10
-118.3865402527
 20
56.4091123352
 10
-117.7436867981
 20
58.7662597961
  0
LWPOLYLINE
  5
4AC
100
AcDbEntity
  8
ASSI
100
AcDbPolyline
 62
250
  6
CONTINUOUS
 90
15
 70
0
 10
-102.5781594389
 20
44.1641190272
 10
-102.5629267956
 20
44.1606688568
 10
-102.5447064771
 20
44.1560252075
 10
-102.5236268152
 20
44.1502207844
 10
-102.4998362848
 20
44.1432964734
 10
-102.4735024635
 20
44.1353010441
 10
-102.4448108412
 20
44.1262908123
 10
-102.4139635192
 20
44.1163292463
 10
-102.3811777928
 20
44.1054865169
 10
-102.3466846073
 20
44.0938389977
 10
-102.3107269379
 20
44.0814687353
 10
-102.2735580872
 20
44.0684628749
 10
-102.2354398861
 20
44.0549130333
 10
-102.1966408479
 20
44.0409146529
 10
-102.1574342864
 20
44.0265663387
  0
ARC
  5
4AD
100
AcDbEntity
  8
ASSI
100
AcDbCircle
 62
7
  6
CONTINUOUS
 10
-101.4358929752
 20
-43.7296512623
 40
1.25
100
AcDbArc
 50
200.4128110386
 51
268.0
  0
ARC
  5
4AE
100
AcDbEntity
  8
ASSI
100
AcDbCircle
 62
7
  6
CONTINUOUS
 10
-101.4358929752
 20
43.7296512623
 40
1.25
100
AcDbArc
 50
92.0
 51
159.5871889614
  0
ARC
  5
4AF
100
AcDbEntity
  8
RACCORDO
100
AcDbCircle
 62
7
  6
CONTINUOUS
 10
-95.9248758214
 20
-26.2
 40
1.0
100
AcDbArc
 50
84.2894068625
 51
90.0
  0
ARC
  5
4B0
100
AcDbEntity
  8
RACCORDO
100
AcDbCircle
 62
7
  6
CONTINUOUS
 10
-94.0750002002
 20
-26.156801895
 40
0.2
100
AcDbArc
 50
284.8334185597
 51
360.0
  0
ARC
  5
4B1
100
AcDbEntity
  8
RACCORDO
100
AcDbCircle
 62
7
  6
CONTINUOUS
 10
-94.0750002002
 20
-26.1117741985
 40
0.2
100
AcDbArc
 50
270.3
 51
360.0
  0
ARC
  5
4B2
100
AcDbEntity
  8
RACCORDO
100
AcDbCircle
 62
7
  6
CONTINUOUS
 10
-94.0750002002
 20
-25.5809975124
 40
0.2
100
AcDbArc
 50
0.0
 51
84.2894068625
  0
ARC
  5
4B3
100
AcDbEntity
  8
RACCORDO
100
AcDbCircle
 62
7
  6
CONTINUOUS
 10
-95.9248758214
 20
26.2
 40
1.0
100
AcDbArc
 50
270.0
 51
275.7105931375
  0
ARC
  5
4B4
100
AcDbEntity
  8
RACCORDO
100
AcDbCircle
 62
7
  6
CONTINUOUS
 10
-94.0750002002
 20
26.156801895
 40
0.2
100
AcDbArc
 50
0.0
 51
75.1665814403
  0
ARC
  5
4B5
100
AcDbEntity
  8
RACCORDO
100
AcDbCircle
 62
7
  6
CONTINUOUS
 10
-94.0750002002
 20
26.1117741985
 40
0.2
100
AcDbArc
 50
0.0
 51
89.7
  0
ARC
  5
4B6
100
AcDbEntity
  8
RACCORDO
100
AcDbCircle
 62
7
  6
CONTINUOUS
 10
-94.0750002002
 20
25.5809975124
 40
0.2
100
AcDbArc
 50
275.7105931375
 51
360.0
  0
ELLIPSE
  5
4B7
100
AcDbEntity
  8
ASSI
100
AcDbEllipse
 62
7
  6
CONTINUOUS
 10
-59.9993904557
 20
-43.9993904557
 30
0.0
 11
0.7079685446
 21
0.7079685446
 31
0.0
 40
0.998782766
 41
-3.9263818294
 42
-2.3568034778
  0
ELLIPSE
  5
4B8
100
AcDbEntity
  8
ASSI
100
AcDbEllipse
 62
7
  6
CONTINUOUS
 10
59.9993904557
 20
-43.9993904557
 30
0.0
 11
0.7079685446
 21
-0.7079685446
 31
0.0
 40
0.998782766
 41
-0.7847891758
 42
0.7847891758
  0
ELLIPSE
  5
4B9
100
AcDbEntity
  8
ASSI
100
AcDbEllipse
 62
7
  6
CONTINUOUS
 10
59.9993904557
 20
43.9993904557
 30
0.0
 11
0.7079685446
 21
0.7079685446
 31
0.0
 40
0.998782766
 41
-0.7847891758
 42
0.7847891758
  0
ELLIPSE
  5
4BA
100
AcDbEntity
  8
ASSI
100
AcDbEllipse
 62
7
  6
CONTINUOUS
 10
-59.9993904557
 20
43.9993904557
 30
0.0
 11
0.7079685446
 21
-0.7079685446
 31
0.0
 40
0.998782766
 41
2.3568034778
 42
3.9263818294
  0
ENDSEC
  0
SECTION
  2
OBJECTS
  0
DICTIONARY
  5
C
100
AcDbDictionary
280
0
281
1
  3
ACAD_GROUP
350
D
  3
ACAD_MLINESTYLE
350
17
  3
ACAD_LAYOUT
350
1A
  3
ACAD_PLOTSETTINGS
350
19
  3
ACAD_PLOTSTYLENAME
350
E
  0
DICTIONARY
  5
D
102
{ACAD_REACTORS
330
C
102
}
100
AcDbDictionary
280
0
281
1
  0
ACDBDICTIONARYWDFLT
  5
E
102
{ACAD_REACTORS
330
C
102
}
100
AcDbDictionary
281
1
  3
Normal
350
F
100
AcDbDictionaryWithDefault
340
F
  0
DICTIONARY
  5
17
102
{ACAD_REACTORS
330
C
102
}
100
AcDbDictionary
280
0
281
1
  3
Standard
350
18
  0
DICTIONARY
  5
19
102
{ACAD_REACTORS
330
C
102
}
100
AcDbDictionary
281
1
  0
DICTIONARY
  5
1A
102
{ACAD_REACTORS
330
C
102
}
100
AcDbDictionary
281
1
  3
Model
350
4BB
  3
Layout1
350
4BC
  0
ACDBPLACEHOLDER
  5
F
102
{ACAD_REACTORS
330
E
102
}
  0
MLINESTYLE
  5
18
102
{ACAD_REACTORS
330
17
102
}
100
AcDbMlineStyle
  2
STANDARD
 70
0
  3

 62
256
 51
90.0
 52
90.0
 71
2
 49
0.5
 62
256
  6
BYLAYER
 49
-0.5
 62
256
  6
BYLAYER
  0
LAYOUT
  5
4BB
102
{ACAD_REACTORS
330
1A
102
}
100
AcDbPlotSettings
  1

  2
none_device
  4
ISO_A4_(297.00_x_210.00_MM)
  6

 40
0.0
 41
0.0
 42
0.0
 43
0.0
 44
297.0
 45
210.0
 46
0.0
 47
0.0
 48
0.0
 49
0.0
140
0.0
141
0.0
142
1.0
143
1.0
 70
1024
 72
1
 73
0
 74
0
  7

 75
0
147
1.0
148
0.0
149
0.0
100
AcDbLayout
  1
Model
 70
0
 71
0
 10
0.0
 20
0.0
 11
297.0
 21
210.0
 12
0.0
 22
0.0
 32
0.0
 14
0.0
 24
0.0
 34
0.0
 15
0.0
 25
0.0
 35
0.0
146
0.0
 13
0.0
 23
0.0
 33
0.0
 16
1.0
 26
0.0
 36
0.0
 17
0.0
 27
1.0
 37
0.0
 76
0
330
216
345
0
346
0
  0
LAYOUT
  5
4BC
102
{ACAD_REACTORS
330
1A
102
}
100
AcDbPlotSettings
  1

  2
none_device
  4
ISO_A4_(297.00_x_210.00_MM)
  6

 40
0.0
 41
0.0
 42
0.0
 43
0.0
 44
297.0
 45
210.0
 46
0.0
 47
0.0
 48
0.0
 49
0.0
140
0.0
141
0.0
142
1.0
143
1.0
 70
0
 72
1
 73
0
 74
0
  7

 75
0
147
1.0
148
0.0
149
0.0
100
AcDbLayout
  1
Layout1
 70
0
 71
1
 10
0.0
 20
0.0
 11
297.0
 21
210.0
 12
0.0
 22
0.0
 32
0.0
 14
0.0
 24
0.0
 34
0.0
 15
0.0
 25
0.0
 35
0.0
146
0.0
 13
0.0
 23
0.0
 33
0.0
 16
1.0
 26
0.0
 36
0.0
 17
0.0
 27
1.0
 37
0.0
 76
0
330
217
345
0
346
0
  0
ENDSEC
  0
EOF
