  0
SECTION
  2
HEADER
  9
$ACADVER
  1
AC1021
  9
$DWGCODEPAGE
  3
ANSI_1252
  9
$EXTMAX
 10
297.0
 20
210.0
 30
0.0
  9
$EXTMIN
 10
0.0
 20
0.0
 30
0.0
  9
$LIMMIN
 10
0.0
 20
0.0
  9
$LIMMAX
 10
297.0
 20
210.0
  9
$VIEWCTR
 10
148.5
 20
105.0
  9
$VIEWSIZE
 40
210.0
  9
$CLAYER
  8
0
  9
$LTSCALE
 40
16.335
  9
$CELTYPE
  6
BYLAYER
  9
$DIMSCALE
 40
1.0
  9
$DIMASZ
 40
3.0
  9
$DIMEXO
 40
0.5
  9
$DIMDLI
 40
11.286
  9
$DIMEXE
 40
1.5
  9
$DIMCEN
 40
2.673
  9
$DIMLFAC
 40
1.0
  9
$DIMBLK
  1
_FILLED
  9
$DIMALT
 70
0
  9
$DIMALTF
 40
0.0393700787
  9
$DIMTXT
 40
3.0
  9
$DIMTOL
 70
1
  9
$DIMLIM
 70
0
  9
$DIMTFAC
 40
1.0
  9
$DIMTP
 40
0.01
  9
$DIMTM
 40
0.01
  9
$DIMGAP
 40
0.625
  9
$DIMDSEP
 70
44
  9
$AUNITS
 70
0
  9
$PDMODE
 70
3
  9
$PDSIZE
 40
3.0
  9
$HANDSEED
  5
59C
  9
$TILEMODE
 70
1
  9
$MEASUREMENT
 70
1
  9
$INSUNITS
 70
4
  0
ENDSEC
  0
SECTION
  2
CLASSES
  0
CLASS
  1
ACDBDICTIONARYWDFLT
  2
AcDbDictionaryWithDefault
  3
AutoCAD 2000
 90
0
 91
1
280
0
281
0
  0
CLASS
  1
ACDBPLACEHOLDER
  2
AcDbPlaceHolder
  3
AutoCAD 2000
 90
0
 91
1
280
0
281
0
  0
CLASS
  1
LAYOUT
  2
AcDbLayout
  3
AutoCAD 2000
 90
0
 91
0
280
0
281
0
  0
ENDSEC
  0
SECTION
  2
TABLES
  0
TABLE
  2
VPORT
  5
8
100
AcDbSymbolTable
 70
2
  0
VPORT
  5
1F4
100
AcDbSymbolTableRecord
100
AcDbViewportTableRecord
  2
*ACTIVE
 70
0
 10
0.0
 20
0.0
 11
1.0
 21
1.0
 12
148.5
 22
105.0
 13
0.0
 23
0.0
 14
1.0
 24
1.0
 15
0.0
 25
0.0
 16
0.0
 26
0.0
 36
1.0
 17
0.0
 27
0.0
 37
0.0
 40
210.0
 41
1.4142857143
 42
50.0
 43
0.0
 44
0.0
 50
0.0
 51
0.0
 71
0
 72
100
 73
1
 74
1
 75
0
 76
0
 77
0
 78
0
  0
ENDTAB
  0
TABLE
  2
LTYPE
  5
5
100
AcDbSymbolTable
 70
6
  0
LTYPE
  5
14
100
AcDbSymbolTableRecord
100
AcDbLinetypeTableRecord
  2
BYBLOCK
 70
0
  3

 72
65
 73
0
 40
0.0
  0
LTYPE
  5
15
100
AcDbSymbolTableRecord
100
AcDbLinetypeTableRecord
  2
BYLAYER
 70
0
  3

 72
65
 73
0
 40
0.0
  0
LTYPE
  5
16
100
AcDbSymbolTableRecord
100
AcDbLinetypeTableRecord
  2
CONTINUOUS
 70
64
  3
Solid line
 72
65
 73
0
 40
0.0
  0
LTYPE
  5
1F5
100
AcDbSymbolTableRecord
100
AcDbLinetypeTableRecord
  2
CENTER
 70
64
  3
____ _ ____ _ ____ _ ____ _ ____ _ ____ _ ____
 72
65
 73
4
 40
0.6
 49
0.375
 74
0
 49
-0.075
 74
0
 49
0.075
 74
0
 49
-0.075
 74
0
  0
LTYPE
  5
1F6
100
AcDbSymbolTableRecord
100
AcDbLinetypeTableRecord
  2
HIDDEN
 70
64
  3
- - - - - - - - - - - - - - - - - - - -
 72
65
 73
2
 40
0.2
 49
0.1
 74
0
 49
-0.1
 74
0
  0
LTYPE
  5
1F7
100
AcDbSymbolTableRecord
100
AcDbLinetypeTableRecord
  2
PHANTOM
 70
64
  3
_____ _ _ _____ _ _ _____ _ _ _____
 72
65
 73
6
 40
0.8
 49
0.45
 74
0
 49
-0.05
 74
0
 49
0.1
 74
0
 49
-0.05
 74
0
 49
0.1
 74
0
 49
-0.05
 74
0
  0
LTYPE
  5
1F8
100
AcDbSymbolTableRecord
100
AcDbLinetypeTableRecord
  2
DOT
 70
64
  3
. . . . . . . . . . . . . . . . . . . .
 72
65
 73
2
 40
0.2
 49
0.1
 74
0
 49
-0.1
 74
0
  0
LTYPE
  5
1F9
100
AcDbSymbolTableRecord
100
AcDbLinetypeTableRecord
  2
DASHED
 70
64
  3
- - - - - - - - - - - - - - - - - - - -
 72
65
 73
2
 40
0.2
 49
0.1
 74
0
 49
-0.1
 74
0
  0
ENDTAB
  0
TABLE
  2
LAYER
  5
2
100
AcDbSymbolTable
 70
36
  0
LAYER
  5
10
100
AcDbSymbolTableRecord
100
AcDbLayerTableRecord
  2
0
 70
0
 62
7
  6
CONTINUOUS
370
-3
390
F
  0
LAYER
  5
1FA
100
AcDbSymbolTableRecord
100
AcDbLayerTableRecord
  2
DEFAULT_1
 70
0
 62
7
  6
CENTER
370
-3
390
F
  0
LAYER
  5
1FB
100
AcDbSymbolTableRecord
100
AcDbLayerTableRecord
  2
DEFAULT_2
 70
0
 62
7
  6
HIDDEN
370
-3
390
F
  0
LAYER
  5
1FC
100
AcDbSymbolTableRecord
100
AcDbLayerTableRecord
  2
DEFAULT_3
 70
0
 62
7
  6
PHANTOM
370
-3
390
F
  0
LAYER
  5
1FD
100
AcDbSymbolTableRecord
100
AcDbLayerTableRecord
  2
ASSI
 70
0
 62
7
  6
CONTINUOUS
370
-3
390
F
  0
LAYER
  5
1FE
100
AcDbSymbolTableRecord
100
AcDbLayerTableRecord
  2
COORDINATE
 70
0
 62
7
  6
CONTINUOUS
370
-3
390
F
  0
LAYER
  5
1FF
100
AcDbSymbolTableRecord
100
AcDbLayerTableRecord
  2
COORD_ORIGINE
 70
0
 62
7
  6
CONTINUOUS
370
-3
390
F
  0
LAYER
  5
200
100
AcDbSymbolTableRecord
100
AcDbLayerTableRecord
  2
COPY_GEOM
 70
0
 62
7
  6
CONTINUOUS
370
-3
390
F
  0
LAYER
  5
201
100
AcDbSymbolTableRecord
100
AcDbLayerTableRecord
  2
COPY_PUBLISH
 70
0
 62
7
  6
CONTINUOUS
370
-3
390
F
  0
LAYER
  5
202
100
AcDbSymbolTableRecord
100
AcDbLayerTableRecord
  2
COSMETICI
 70
0
 62
7
  6
CONTINUOUS
370
-3
390
F
  0
LAYER
  5
203
100
AcDbSymbolTableRecord
100
AcDbLayerTableRecord
  2
CURVE
 70
0
 62
7
  6
CONTINUOUS
370
-3
390
F
  0
LAYER
  5
204
100
AcDbSymbolTableRecord
100
AcDbLayerTableRecord
  2
DRAFT
 70
0
 62
7
  6
CONTINUOUS
370
-3
390
F
  0
LAYER
  5
205
100
AcDbSymbolTableRecord
100
AcDbLayerTableRecord
  2
IGS
 70
0
 62
7
  6
CONTINUOUS
370
-3
390
F
  0
LAYER
  5
206
100
AcDbSymbolTableRecord
100
AcDbLayerTableRecord
  2
IMPORT_IGES
 70
0
 62
7
  6
CONTINUOUS
370
-3
390
F
  0
LAYER
  5
207
100
AcDbSymbolTableRecord
100
AcDbLayerTableRecord
  2
INTF_MAGENTA
 70
0
 62
7
  6
CONTINUOUS
370
-3
390
F
  0
LAYER
  5
208
100
AcDbSymbolTableRecord
100
AcDbLayerTableRecord
  2
NOTE
 70
0
 62
7
  6
CONTINUOUS
370
-3
390
F
  0
LAYER
  5
209
100
AcDbSymbolTableRecord
100
AcDbLayerTableRecord
  2
PIANI
 70
0
 62
7
  6
CONTINUOUS
370
-3
390
F
  0
LAYER
  5
20A
100
AcDbSymbolTableRecord
100
AcDbLayerTableRecord
  2
PIANI_ORIGINE
 70
0
 62
7
  6
CONTINUOUS
370
-3
390
F
  0
LAYER
  5
20B
100
AcDbSymbolTableRecord
100
AcDbLayerTableRecord
  2
PIANI_RIFERIMENTO
 70
0
 62
7
  6
CONTINUOUS
370
-3
390
F
  0
LAYER
  5
20C
100
AcDbSymbolTableRecord
100
AcDbLayerTableRecord
  2
PUNTI
 70
0
 62
7
  6
CONTINUOUS
370
-3
390
F
  0
LAYER
  5
20D
100
AcDbSymbolTableRecord
100
AcDbLayerTableRecord
  2
RACCORDO
 70
0
 62
7
  6
CONTINUOUS
370
-3
390
F
  0
LAYER
  5
20E
100
AcDbSymbolTableRecord
100
AcDbLayerTableRecord
  2
SIMBOLI
 70
0
 62
7
  6
CONTINUOUS
370
-3
390
F
  0
LAYER
  5
20F
100
AcDbSymbolTableRecord
100
AcDbLayerTableRecord
  2
SMUSSO
 70
0
 62
7
  6
CONTINUOUS
370
-3
390
F
  0
LAYER
  5
210
100
AcDbSymbolTableRecord
100
AcDbLayerTableRecord
  2
SNAPLINE
 70
0
 62
7
  6
CONTINUOUS
370
-3
390
F
  0
LAYER
  5
211
100
AcDbSymbolTableRecord
100
AcDbLayerTableRecord
  2
STANDARD
 70
0
 62
7
  6
CONTINUOUS
370
-3
390
F
  0
LAYER
  5
212
100
AcDbSymbolTableRecord
100
AcDbLayerTableRecord
  2
SUPERFICI
 70
0
 62
7
  6
CONTINUOUS
370
-3
390
F
  0
LAYER
  5
213
100
AcDbSymbolTableRecord
100
AcDbLayerTableRecord
  2
SUP_ARANCIONE
 70
0
 62
7
  6
CONTINUOUS
370
-3
390
F
  0
LAYER
  5
214
100
AcDbSymbolTableRecord
100
AcDbLayerTableRecord
  2
SUP_DIFF
 70
0
 62
7
  6
CONTINUOUS
370
-3
390
F
  0
LAYER
  5
215
100
AcDbSymbolTableRecord
100
AcDbLayerTableRecord
  2
SUP_ROSSA
 70
0
 62
7
  6
CONTINUOUS
370
-3
390
F
  0
LAYER
  5
216
100
AcDbSymbolTableRecord
100
AcDbLayerTableRecord
  2
SUP_VERDE
 70
0
 62
7
  6
CONTINUOUS
370
-3
390
F
  0
LAYER
  5
217
100
AcDbSymbolTableRecord
100
AcDbLayerTableRecord
  2
TRASH
 70
0
 62
7
  6
CONTINUOUS
370
-3
390
F
  0
LAYER
  5
218
100
AcDbSymbolTableRecord
100
AcDbLayerTableRecord
  2
XSEC_DATUMS
 70
0
 62
7
  6
CONTINUOUS
370
-3
390
F
  0
ENDTAB
  0
TABLE
  2
STYLE
  5
3
100
AcDbSymbolTable
 70
1
  0
STYLE
  5
11
100
AcDbSymbolTableRecord
100
AcDbTextStyleTableRecord
  2
STANDARD
 70
0
 40
0.0
 41
0.8
 50
0.0
 71
0
 42
0.2
  3
txt
  4

  0
STYLE
  5
219
100
AcDbSymbolTableRecord
100
AcDbTextStyleTableRecord
  2
TEXTSTYLE_1
 70
0
 40
0.0
 41
0.8
 50
0.0
 71
0
 42
0.2
  3
gdt
  4

  0
ENDTAB
  0
TABLE
  2
VIEW
  5
6
100
AcDbSymbolTable
 70
0
  0
ENDTAB
  0
TABLE
  2
UCS
  5
7
100
AcDbSymbolTable
 70
0
  0
ENDTAB
  0
TABLE
  2
APPID
  5
9
100
AcDbSymbolTable
 70
1
  0
APPID
  5
21A
100
AcDbSymbolTableRecord
100
AcDbRegAppTableRecord
  2
ACAD
 70
0
  0
ENDTAB
  0
TABLE
  2
BLOCK_RECORD
  5
1
100
AcDbSymbolTable
 70
0
  0
BLOCK_RECORD
  5
21B
100
AcDbSymbolTableRecord
100
AcDbBlockTableRecord
  2
*Model_Space
  0
BLOCK_RECORD
  5
21C
100
AcDbSymbolTableRecord
100
AcDbBlockTableRecord
  2
*Paper_Space
  0
BLOCK_RECORD
  5
21D
100
AcDbSymbolTableRecord
100
AcDbBlockTableRecord
  2
_FILLED
  0
BLOCK_RECORD
  5
21E
100
AcDbSymbolTableRecord
100
AcDbBlockTableRecord
  2
*D0
  0
BLOCK_RECORD
  5
21F
100
AcDbSymbolTableRecord
100
AcDbBlockTableRecord
  2
*D1
  0
BLOCK_RECORD
  5
220
100
AcDbSymbolTableRecord
100
AcDbBlockTableRecord
  2
*D2
  0
ENDTAB
  0
TABLE
  2
DIMSTYLE
  5
A
100
AcDbSymbolTable
 70
1
100
AcDbDimStyleTable
 71
0
  0
DIMSTYLE
105
221
100
AcDbSymbolTableRecord
100
AcDbDimStyleTableRecord
  2
STANDARD
 70
0
  3

  4

 40
1.0
 41
3.0
 42
0.5
 43
0.38
 44
1.5
 45
0.0
 46
0.0
 47
0.01
 48
0.01
140
3.0
141
0.09
142
0.0
143
25.4
144
1.0
145
0.0
146
1.0
147
0.625
 71
1.0
 72
0.0
 73
0
 74
0
 75
0
 76
0
 77
1
 78
8
170
0
171
2
172
0
173
0
174
0
175
0
176
0
177
0
178
0
270
2
271
2
272
2
273
2
274
2
275
0
280
0
281
0
282
0
283
1
284
8
285
0
286
0
287
3
288
0
340
11
278
44
341
21D
342
21D
343
21D
344
21D
  0
DIMSTYLE
105
222
100
AcDbSymbolTableRecord
100
AcDbDimStyleTableRecord
  2
DIMSTYLE_1
 70
0
  3

  4

 40
1.0
 41
3.0
 42
0.5
 43
0.38
 44
1.5
 45
0.0
 46
0.0
 47
0.0
 48
0.0
140
3.0
141
0.09
142
0.0
143
25.4
144
1.0
145
0.0
146
1.0
147
0.75
 71
0.0
 72
0.0
 73
0
 74
0
 75
0
 76
0
 77
1
 78
8
170
0
171
2
172
0
173
0
174
0
175
0
176
0
177
0
178
0
270
2
271
2
272
2
273
2
274
2
275
0
280
0
281
0
282
0
283
1
284
8
285
0
286
0
287
3
288
0
340
11
278
44
341
21D
342
21D
343
21D
344
21D
  0
ENDTAB
  0
ENDSEC
  0
SECTION
  2
BLOCKS
  0
BLOCK
  5
20
100
AcDbEntity
  8
0
100
AcDbBlockBegin
  2
*Model_Space
 70
0
 10
0.0
 20
0.0
 30
0.0
  3
*Model_Space
  1

  0
ENDBLK
  5
21
100
AcDbEntity
  8
0
100
AcDbBlockEnd
  0
BLOCK
  5
1C
100
AcDbEntity
  8
0
100
AcDbBlockBegin
  2
*Paper_Space
 70
0
 10
0.0
 20
0.0
 30
0.0
  3
*Paper_Space
  1

  0
ENDBLK
  5
1D
100
AcDbEntity
  8
0
100
AcDbBlockEnd
  0
BLOCK
  5
223
100
AcDbEntity
  8
0
100
AcDbBlockBegin
  2
_FILLED
 70
64
 10
0.0
 20
0.0
  3
_FILLED
  1

  0
SOLID
  5
224
100
AcDbEntity
  8
0
  6
BYBLOCK
 62
0
100
AcDbTrace
 10
0.0
 20
0.0
 11
-1.0
 21
0.3166666667
 12
-1.0
 22
-0.3166666667
 13
-1.0
 23
-0.3166666667
  0
ENDBLK
  5
225
100
AcDbEntity
  8
0
  6
BYBLOCK
 62
0
100
AcDbBlockEnd
  0
BLOCK
  5
226
100
AcDbEntity
  8
0
100
AcDbBlockBegin
 62
7
  6
CONTINUOUS
  2
*D0
 70
65
 10
0.0
 20
0.0
  3
*D0
  1

  0
MTEXT
  5
227
100
AcDbEntity
  8
0
100
AcDbMText
 62
7
  6
CONTINUOUS
  7
STANDARD
 71
2
 72
1
 10
171.3780064
 20
147.6850851387
 30
0.0
 11
1.0
 21
0.0
 31
0.0
 44
0.9
  1
22
 40
3.0
 41
7.0714285714
  0
LINE
  5
228
100
AcDbEntity
  8
0
100
AcDbLine
 62
7
  6
CONTINUOUS
 10
182.3780064
 20
133.9352564762
 11
182.3780064
 21
145.4350851387
  0
LINE
  5
229
100
AcDbEntity
  8
0
100
AcDbLine
 62
7
  6
CONTINUOUS
 10
160.3780064
 20
133.9352564762
 11
160.3780064
 21
145.4350851387
  0
LINE
  5
22A
100
AcDbEntity
  8
0
100
AcDbLine
 62
7
  6
CONTINUOUS
 10
182.3780064
 20
143.9350851387
 11
171.3780064
 21
143.9350851387
  0
LINE
  5
22B
100
AcDbEntity
  8
0
100
AcDbLine
 62
7
  6
CONTINUOUS
 10
160.3780064
 20
143.9350851387
 11
171.3780064
 21
143.9350851387
  0
INSERT
  5
22C
100
AcDbEntity
  8
0
100
AcDbBlockReference
 62
7
  6
CONTINUOUS
  2
_FILLED
 10
182.3780064
 20
143.9350851387
 41
3.0
 42
3.0
 43
3.0
  0
INSERT
  5
22D
100
AcDbEntity
  8
0
100
AcDbBlockReference
 62
7
  6
CONTINUOUS
  2
_FILLED
 10
160.3780064
 20
143.9350851387
 41
3.0
 42
3.0
 43
3.0
 50
180.0
  0
ENDBLK
  5
22E
100
AcDbEntity
  8
0
  6
BYBLOCK
 62
0
100
AcDbBlockEnd
  0
BLOCK
  5
22F
100
AcDbEntity
  8
0
100
AcDbBlockBegin
 62
7
  6
CONTINUOUS
  2
*D1
 70
65
 10
0.0
 20
0.0
  3
*D1
  1

  0
MTEXT
  5
230
100
AcDbEntity
  8
0
100
AcDbMText
 62
7
  6
CONTINUOUS
  7
STANDARD
 71
2
 72
1
 10
188.6280064
 20
111.8350851387
 30
0.0
 11
0.0
 21
1.0
 31
0.0
 44
0.9
  1
44,2
 40
3.0
 41
13.1785714286
  0
LINE
  5
231
100
AcDbEntity
  8
0
100
AcDbLine
 62
7
  6
CONTINUOUS
 10
182.3781777375
 20
133.9350851387
 11
193.8780064
 21
133.9350851387
  0
LINE
  5
232
100
AcDbEntity
  8
0
100
AcDbLine
 62
7
  6
CONTINUOUS
 10
182.3781777375
 20
89.7350851387
 11
193.8780064
 21
89.7350851387
  0
LINE
  5
233
100
AcDbEntity
  8
0
100
AcDbLine
 62
7
  6
CONTINUOUS
 10
192.3780064
 20
133.9350851387
 11
192.3780064
 21
111.8350851387
  0
LINE
  5
234
100
AcDbEntity
  8
0
100
AcDbLine
 62
7
  6
CONTINUOUS
 10
192.3780064
 20
89.7350851387
 11
192.3780064
 21
111.8350851387
  0
INSERT
  5
235
100
AcDbEntity
  8
0
100
AcDbBlockReference
 62
7
  6
CONTINUOUS
  2
_FILLED
 10
192.3780064
 20
133.9350851387
 41
3.0
 42
3.0
 43
3.0
 50
90.0
  0
INSERT
  5
236
100
AcDbEntity
  8
0
100
AcDbBlockReference
 62
7
  6
CONTINUOUS
  2
_FILLED
 10
192.3780064
 20
89.7350851387
 41
3.0
 42
3.0
 43
3.0
 50
270.0
  0
ENDBLK
  5
237
100
AcDbEntity
  8
0
  6
BYBLOCK
 62
0
100
AcDbBlockEnd
  0
BLOCK
  5
238
100
AcDbEntity
  8
0
100
AcDbBlockBegin
 62
7
  6
CONTINUOUS
  2
*D2
 70
65
 10
0.0
 20
0.0
  3
*D2
  1

  0
MTEXT
  5
239
100
AcDbEntity
  8
0
100
AcDbMText
 62
7
  6
CONTINUOUS
  7
STANDARD
 71
2
 72
1
 10
133.7449873851
 20
147.6850851387
 30
0.0
 11
1.0
 21
0.0
 31
0.0
 44
0.9
  1
6
 40
3.0
 41
3.5357142857
  0
LINE
  5
23A
100
AcDbEntity
  8
0
100
AcDbLine
 62
7
  6
CONTINUOUS
 10
136.7449873851
 20
133.9352564762
 11
136.7449873851
 21
145.4350851387
  0
LINE
  5
23B
100
AcDbEntity
  8
0
100
AcDbLine
 62
7
  6
CONTINUOUS
 10
130.7449873851
 20
112.3350851387
 11
130.7449873851
 21
145.4350851387
  0
LINE
  5
23C
100
AcDbEntity
  8
0
100
AcDbLine
 62
7
  6
CONTINUOUS
 10
136.7449873851
 20
143.9350851387
 11
140.7449873851
 21
143.9350851387
  0
LINE
  5
23D
100
AcDbEntity
  8
0
100
AcDbLine
 62
7
  6
CONTINUOUS
 10
140.7449873851
 20
143.9350851387
 11
133.7449873851
 21
143.9350851387
  0
LINE
  5
23E
100
AcDbEntity
  8
0
100
AcDbLine
 62
7
  6
CONTINUOUS
 10
130.7449873851
 20
143.9350851387
 11
126.7449873851
 21
143.9350851387
  0
LINE
  5
23F
100
AcDbEntity
  8
0
100
AcDbLine
 62
7
  6
CONTINUOUS
 10
126.7449873851
 20
143.9350851387
 11
133.7449873851
 21
143.9350851387
  0
INSERT
  5
240
100
AcDbEntity
  8
0
100
AcDbBlockReference
 62
7
  6
CONTINUOUS
  2
_FILLED
 10
136.7449873851
 20
143.9350851387
 41
3.0
 42
3.0
 43
3.0
 50
180.0
  0
INSERT
  5
241
100
AcDbEntity
  8
0
100
AcDbBlockReference
 62
7
  6
CONTINUOUS
  2
_FILLED
 10
130.7449873851
 20
143.9350851387
 41
3.0
 42
3.0
 43
3.0
  0
ENDBLK
  5
242
100
AcDbEntity
  8
0
  6
BYBLOCK
 62
0
100
AcDbBlockEnd
  0
ENDSEC
  0
SECTION
  2
ENTITIES
  0
DIMENSION
  5
243
100
AcDbEntity
  8
0
100
AcDbDimension
 62
7
  6
CONTINUOUS
  2
*D0
 10
160.3780064
 20
143.9350851387
 11
170.9494313049
 21
143.9350851387
 70
160
 71
2
 42
22.0
  3
DIMSTYLE_1
100
AcDbAlignedDimension
 13
182.3780064
 23
133.4352564762
 14
160.3780064
 24
133.4352564762
 50
180.0
100
AcDbRotatedDimension
  0
DIMENSION
  5
244
100
AcDbEntity
  8
0
100
AcDbDimension
 62
7
  6
CONTINUOUS
  2
*D1
 10
192.3780064
 20
89.7350851387
 11
192.3780064
 21
111.4065136796
 70
160
 71
2
 42
44.2
  3
DIMSTYLE_1
100
AcDbAlignedDimension
 13
181.8781777375
 23
133.9350851387
 14
181.8781777375
 24
89.7350851387
 50
270.0
100
AcDbRotatedDimension
  0
DIMENSION
  5
245
100
AcDbEntity
  8
0
100
AcDbDimension
 62
7
  6
CONTINUOUS
  2
*D2
 10
130.7449873851
 20
143.9350851387
 11
133.3164142914
 21
143.9350851387
 70
160
 71
2
 42
6.0
  3
DIMSTYLE_1
100
AcDbAlignedDimension
 13
136.7449873851
 23
133.4352564762
 14
130.7449873851
 24
111.8350851387
 50
180.0
100
AcDbRotatedDimension
  0
LINE
  5
246
100
AcDbEntity
  8
ASSI
100
AcDbLine
 62
7
  6
CONTINUOUS
 10
160.8778350625
 20
89.7350851387
 11
181.8781777375
 21
89.7350851387
  0
LINE
  5
247
100
AcDbEntity
  8
RACCORDO
100
AcDbLine
 62
7
  6
CONTINUOUS
 10
160.8778350625
 20
89.7350851387
 11
181.8781777375
 21
89.7350851387
  0
LINE
  5
248
100
AcDbEntity
  8
ASSI
100
AcDbLine
 62
253
  6
CONTINUOUS
 10
160.9817113575
 20
89.8389614337
 11
181.7743014426
 21
89.8389614337
  0
LINE
  5
249
100
AcDbEntity
  8
RACCORDO
100
AcDbLine
 62
253
  6
CONTINUOUS
 10
160.9817113575
 20
89.8389614337
 11
181.7743014426
 21
89.8389614337
  0
LINE
  5
24A
100
AcDbEntity
  8
ASSI
100
AcDbLine
 62
253
  6
CONTINUOUS
 10
160.9943166367
 20
90.690231496
 11
181.7616961634
 21
90.690231496
  0
LINE
  5
24B
100
AcDbEntity
  8
RACCORDO
100
AcDbLine
 62
253
  6
CONTINUOUS
 10
160.9943166367
 20
90.690231496
 11
181.7616961634
 21
90.690231496
  0
LWPOLYLINE
  5
24C
100
AcDbEntity
  8
ASSI
100
AcDbPolyline
 62
253
  6
CONTINUOUS
 90
16
 70
0
 10
160.4944879744
 20
132.9057451501
 10
160.4984686639
 20
132.9133753826
 10
160.5077043363
 20
132.920924729
 10
160.5220971122
 20
132.9283131816
 10
160.5414944571
 20
132.9354624376
 10
160.5656907985
 20
132.9422967296
 10
160.594429704
 20
132.9487436276
 10
160.6274065993
 20
132.9547348078
 10
160.6642719959
 20
132.9602067756
 10
160.7046351951
 20
132.9651015392
 10
160.7480684285
 20
132.9693672241
 10
160.7941113917
 20
132.9729586225
 10
160.8422761222
 20
132.9758376731
 10
160.8920521712
 20
132.9779738638
 10
160.9429120132
 20
132.9793445552
 10
160.9943166366
 20
132.9799352207
  0
LWPOLYLINE
  5
24D
100
AcDbEntity
  8
RACCORDO
100
AcDbPolyline
 62
253
  6
CONTINUOUS
 90
16
 70
0
 10
160.4944879744
 20
132.9057451501
 10
160.4984686639
 20
132.9133753826
 10
160.5077043363
 20
132.920924729
 10
160.5220971122
 20
132.9283131816
 10
160.5414944571
 20
132.9354624376
 10
160.5656907985
 20
132.9422967296
 10
160.594429704
 20
132.9487436276
 10
160.6274065993
 20
132.9547348078
 10
160.6642719959
 20
132.9602067756
 10
160.7046351951
 20
132.9651015392
 10
160.7480684285
 20
132.9693672241
 10
160.7941113917
 20
132.9729586225
 10
160.8422761222
 20
132.9758376731
 10
160.8920521712
 20
132.9779738638
 10
160.9429120132
 20
132.9793445552
 10
160.9943166366
 20
132.9799352207
  0
LWPOLYLINE
  5
24E
100
AcDbEntity
  8
ASSI
100
AcDbPolyline
 62
253
  6
CONTINUOUS
 90
16
 70
0
 10
160.4944879742
 20
90.7644251273
 10
160.4984673963
 20
90.7567945926
 10
160.5077019964
 20
90.749244929
 10
160.5220939031
 20
90.7418561504
 10
160.5414905861
 20
90.7347065655
 10
160.5656864728
 20
90.7278719481
 10
160.594425127
 20
90.7214247337
 10
160.6274019667
 20
90.7154332522
 10
160.6642674923
 20
90.7099610032
 10
160.7046309903
 20
90.7050659835
 10
160.7480646748
 20
90.7008000722
 10
160.794108221
 20
90.6972084808
 10
160.8422736437
 20
90.694329274
 10
160.8920504694
 20
90.6921929665
 10
160.9429111467
 20
90.6908221997
 10
160.9943166367
 20
90.6902315013
  0
LWPOLYLINE
  5
24F
100
AcDbEntity
  8
RACCORDO
100
AcDbPolyline
 62
253
  6
CONTINUOUS
 90
16
 70
0
 10
160.4944879742
 20
90.7644251273
 10
160.4984673963
 20
90.7567945926
 10
160.5077019964
 20
90.749244929
 10
160.5220939031
 20
90.7418561504
 10
160.5414905861
 20
90.7347065655
 10
160.5656864728
 20
90.7278719481
 10
160.594425127
 20
90.7214247337
 10
160.6274019667
 20
90.7154332522
 10
160.6642674923
 20
90.7099610032
 10
160.7046309903
 20
90.7050659835
 10
160.7480646748
 20
90.7008000722
 10
160.794108221
 20
90.6972084808
 10
160.8422736437
 20
90.694329274
 10
160.8920504694
 20
90.6921929665
 10
160.9429111467
 20
90.6908221997
 10
160.9943166367
 20
90.6902315013
  0
LINE
  5
250
100
AcDbEntity
  8
0
100
AcDbLine
 62
253
  6
CONTINUOUS
 10
170.7982960109
 20
127.2185569116
 11
170.4240893721
 21
127.1010176981
  0
LINE
  5
251
100
AcDbEntity
  8
0
100
AcDbLine
 62
253
  6
CONTINUOUS
 10
171.1729599461
 20
127.3357909271
 11
170.7982960109
 21
127.2185569116
  0
LWPOLYLINE
  5
252
100
AcDbEntity
  8
RACCORDO
100
AcDbPolyline
 62
7
  6
CONTINUOUS
 90
5
 70
0
 10
177.0805485922
 20
97.1035498799
 10
177.0584623008
 20
97.0979252545
 10
177.0360752745
 20
97.0932917084
 10
177.013606096
 20
97.0896871345
 10
176.9911276261
 20
97.0871241637
  0
LWPOLYLINE
  5
253
100
AcDbEntity
  8
ASSI
100
AcDbPolyline
 62
7
  6
CONTINUOUS
 90
12
 70
0
 10
177.0722021405
 20
97.0876711995
 10
177.1169445859
 20
97.0953777773
 10
177.1603415189
 20
97.1080412483
 10
177.2017996419
 20
97.1254094993
 10
177.2408826368
 20
97.1472180746
 10
177.2772817852
 20
97.1732578278
 10
177.3105408263
 20
97.2032019319
 10
177.3402444802
 20
97.236675858
 10
177.366124102
 20
97.2734253939
 10
177.3878276104
 20
97.3130825678
 10
177.4049800764
 20
97.3551216539
 10
177.4172996315
 20
97.3990261285
  0
LINE
  5
254
100
AcDbEntity
  8
ASSI
100
AcDbLine
 62
7
  6
CONTINUOUS
 10
177.0266792485
 20
97.0850851387
 11
177.0722021405
 21
97.0876711995
  0
LWPOLYLINE
  5
255
100
AcDbEntity
  8
RACCORDO
100
AcDbPolyline
 62
7
  6
CONTINUOUS
 90
13
 70
0
 10
177.0266792485
 20
97.0850851387
 10
177.0722021405
 20
97.0876711995
 10
177.1169445859
 20
97.0953777773
 10
177.1603415189
 20
97.1080412483
 10
177.2017996419
 20
97.1254094993
 10
177.2408826368
 20
97.1472180746
 10
177.2772817852
 20
97.1732578278
 10
177.3105408263
 20
97.2032019319
 10
177.3402444802
 20
97.236675858
 10
177.366124102
 20
97.2734253939
 10
177.3878276104
 20
97.3130825678
 10
177.4049800764
 20
97.3551216539
 10
177.4172996315
 20
97.3990261285
  0
LINE
  5
256
100
AcDbEntity
  8
ASSI
100
AcDbLine
 62
253
  6
CONTINUOUS
 10
177.0291265269
 20
96.9741869283
 11
165.7268862731
 21
96.9741869283
  0
LINE
  5
257
100
AcDbEntity
  8
RACCORDO
100
AcDbLine
 62
253
  6
CONTINUOUS
 10
177.0291265269
 20
96.9741869283
 11
165.7268862731
 21
96.9741869283
  0
LINE
  5
258
100
AcDbEntity
  8
ASSI
100
AcDbLine
 62
7
  6
CONTINUOUS
 10
177.0291265269
 20
97.0820396742
 11
165.7268862731
 21
97.0820396742
  0
LINE
  5
259
100
AcDbEntity
  8
RACCORDO
100
AcDbLine
 62
7
  6
CONTINUOUS
 10
177.0291265269
 20
97.0820396742
 11
165.7268862731
 21
97.0820396742
  0
LINE
  5
25A
100
AcDbEntity
  8
DRAFT
100
AcDbLine
 62
7
  6
CONTINUOUS
 10
166.3780064
 20
97.0911939462
 11
166.8780064
 21
97.0911939462
  0
LINE
  5
25B
100
AcDbEntity
  8
DRAFT
100
AcDbLine
 62
7
  6
CONTINUOUS
 10
175.8780064
 20
97.0911939462
 11
176.3780064
 21
97.0911939462
  0
LINE
  5
25C
100
AcDbEntity
  8
RACCORDO
100
AcDbLine
 62
253
  6
CONTINUOUS
 10
176.9386968779
 20
97.0939874202
 11
165.8173159221
 21
97.0939874202
  0
LINE
  5
25D
100
AcDbEntity
  8
RACCORDO
100
AcDbLine
 62
253
  6
CONTINUOUS
 10
176.9386968779
 20
97.2326528301
 11
165.8173159221
 21
97.2326528301
  0
LWPOLYLINE
  5
25E
100
AcDbEntity
  8
RACCORDO
100
AcDbPolyline
 62
253
  6
CONTINUOUS
 90
31
 70
0
 10
165.8173159222
 20
97.093988021
 10
165.7946045231
 20
97.0945053476
 10
165.7719356858
 20
97.0960533049
 10
165.7493626416
 20
97.0986301583
 10
165.72693519
 20
97.1022301545
 10
165.7046969746
 20
97.106844739
 10
165.6826892973
 20
97.1124660687
 10
165.6609559469
 20
97.119083339
 10
165.6395434116
 20
97.1266816567
 10
165.6184972864
 20
97.1352460941
 10
165.5978621588
 20
97.1447593824
 10
165.5776797528
 20
97.1552009162
 10
165.5579911746
 20
97.1665501491
 10
165.538837531
 20
97.1787846763
 10
165.5202580512
 20
97.1918781861
 10
165.5022911644
 20
97.2058041981
 10
165.4849748549
 20
97.2205350847
 10
165.4683443702
 20
97.2360395985
 10
165.452434232
 20
97.2522857802
 10
165.4372784387
 20
97.2692410674
 10
165.4229076761
 20
97.2868701104
 10
165.4093515564
 20
97.3051365712
 10
165.396638984
 20
97.3240042549
 10
165.3847962692
 20
97.343433317
 10
165.3738485855
 20
97.3633813369
 10
165.3638201288
 20
97.3838064622
 10
165.3547307072
 20
97.404668258
 10
165.3465977952
 20
97.425926106
 10
165.3394390925
 20
97.4475385047
 10
165.3332701846
 20
97.4694586635
 10
165.3281041032
 20
97.4916352858
  0
LWPOLYLINE
  5
25F
100
AcDbEntity
  8
RACCORDO
100
AcDbPolyline
 62
253
  6
CONTINUOUS
 90
31
 70
0
 10
165.8173159221
 20
97.2326528301
 10
165.8013898098
 20
97.2330182205
 10
165.7855547847
 20
97.2341004133
 10
165.7698108468
 20
97.2358994106
 10
165.7541239743
 20
97.2384216951
 10
165.7385281891
 20
97.2416607918
 10
165.7231255561
 20
97.245597268
 10
165.7079189074
 20
97.2502355393
 10
165.6929054111
 20
97.2555712052
 10
165.6781786368
 20
97.2615716094
 10
165.663740686
 20
97.268240788
 10
165.6495894573
 20
97.2755747261
 10
165.6358122161
 20
97.2835286911
 10
165.6224111019
 20
97.2921065845
 10
165.6093839753
 20
97.3013045305
 10
165.5968116833
 20
97.3110661299
 10
165.5846969546
 20
97.3213949885
 10
165.5730370604
 20
97.3322875286
 10
165.5619046627
 20
97.343676574
 10
165.5513030996
 20
97.3555651369
 10
165.541229033
 20
97.3679502335
 10
165.5317451088
 20
97.3807556894
 10
165.5228548155
 20
97.3939845252
 10
165.5145546648
 20
97.4076337469
 10
165.5068968375
 20
97.4216181531
 10
165.4998850909
 20
97.4359415542
 10
165.4935156676
 20
97.4506001626
 10
165.4878294771
 20
97.4654973737
 10
165.4828401555
 20
97.4806009902
 10
165.4785340665
 20
97.4959432254
 10
165.4749112101
 20
97.5115240876
  0
LWPOLYLINE
  5
260
100
AcDbEntity
  8
ASSI
100
AcDbPolyline
 62
253
  6
CONTINUOUS
 90
16
 70
0
 10
165.7268862716
 20
97.0820433768
 10
165.6907801566
 20
97.0836700145
 10
165.6550019595
 20
97.0885478941
 10
165.6198350913
 20
97.0966150371
 10
165.5855673017
 20
97.1078066185
 10
165.552466508
 20
97.1220321199
 10
165.5207783389
 20
97.1391630127
 10
165.4907793878
 20
97.1590508907
 10
165.4627055411
 20
97.181556139
 10
165.4367205519
 20
97.2065356158
 10
165.4130041288
 20
97.2338408757
 10
165.3918232422
 20
97.2632279493
 10
165.373415568
 20
97.2943695906
 10
165.357923399
 20
97.3269713046
 10
165.3454511246
 20
97.3608075319
 10
165.3360984443
 20
97.3956015133
  0
LWPOLYLINE
  5
261
100
AcDbEntity
  8
RACCORDO
100
AcDbPolyline
 62
253
  6
CONTINUOUS
 90
16
 70
0
 10
165.7268862716
 20
97.0820433768
 10
165.6907801566
 20
97.0836700145
 10
165.6550019595
 20
97.0885478941
 10
165.6198350913
 20
97.0966150371
 10
165.5855673017
 20
97.1078066185
 10
165.552466508
 20
97.1220321199
 10
165.5207783389
 20
97.1391630127
 10
165.4907793878
 20
97.1590508907
 10
165.4627055411
 20
97.181556139
 10
165.4367205519
 20
97.2065356158
 10
165.4130041288
 20
97.2338408757
 10
165.3918232422
 20
97.2632279493
 10
165.373415568
 20
97.2943695906
 10
165.357923399
 20
97.3269713046
 10
165.3454511246
 20
97.3608075319
 10
165.3360984443
 20
97.3956015133
  0
LWPOLYLINE
  5
262
100
AcDbEntity
  8
ASSI
100
AcDbPolyline
 62
253
  6
CONTINUOUS
 90
16
 70
0
 10
165.7268862731
 20
96.9741869283
 10
165.6810979918
 20
96.9763877202
 10
165.6364289468
 20
96.982487371
 10
165.5928791382
 20
96.9924859432
 10
165.5501230687
 20
97.0065319249
 10
165.5084862356
 20
97.0244770769
 10
165.4689451307
 20
97.0458764099
 10
165.4315600514
 20
97.0707852237
 10
165.3962707004
 20
97.0991486344
 10
165.3638726772
 20
97.1303563565
 10
165.3343852611
 20
97.1645565
 10
165.3077891729
 20
97.2016014335
 10
165.2848221746
 20
97.240437142
 10
165.2657301871
 20
97.2807123575
 10
165.2502672896
 20
97.3227786679
 10
165.238433482
 20
97.3666362533
  0
LWPOLYLINE
  5
263
100
AcDbEntity
  8
RACCORDO
100
AcDbPolyline
 62
253
  6
CONTINUOUS
 90
16
 70
0
 10
165.7268862731
 20
96.9741869283
 10
165.6810979918
 20
96.9763877202
 10
165.6364289468
 20
96.982487371
 10
165.5928791382
 20
96.9924859432
 10
165.5501230687
 20
97.0065319249
 10
165.5084862356
 20
97.0244770769
 10
165.4689451307
 20
97.0458764099
 10
165.4315600514
 20
97.0707852237
 10
165.3962707004
 20
97.0991486344
 10
165.3638726772
 20
97.1303563565
 10
165.3343852611
 20
97.1645565
 10
165.3077891729
 20
97.2016014335
 10
165.2848221746
 20
97.240437142
 10
165.2657301871
 20
97.2807123575
 10
165.2502672896
 20
97.3227786679
 10
165.238433482
 20
97.3666362533
  0
LWPOLYLINE
  5
264
100
AcDbEntity
  8
RACCORDO
100
AcDbPolyline
 62
7
  6
CONTINUOUS
 90
5
 70
0
 10
165.7648887963
 20
97.0871239533
 10
165.742413018
 20
97.0896862719
 10
165.7199473523
 20
97.0932898255
 10
165.6975644258
 20
97.0979219866
 10
165.6754821184
 20
97.1035448729
  0
LWPOLYLINE
  5
265
100
AcDbEntity
  8
RACCORDO
100
AcDbPolyline
 62
7
  6
CONTINUOUS
 90
18
 70
0
 10
165.6754821184
 20
97.1035448729
 10
165.6537265213
 20
97.1101665126
 10
165.6322715433
 20
97.1177788775
 10
165.6112567908
 20
97.1263200006
 10
165.5907158155
 20
97.1357736169
 10
165.5706150655
 20
97.1461559913
 10
165.5509934919
 20
97.1574539512
 10
165.5318052573
 20
97.1696991092
 10
165.5130961991
 20
97.1828598527
 10
165.4950427801
 20
97.1968281719
 10
165.4776566146
 20
97.2116181298
 10
165.4609260884
 20
97.2272156634
 10
165.4449928214
 20
97.2434705737
 10
165.4298972374
 20
97.2603442448
 10
165.4155989127
 20
97.2778752925
 10
165.4021181961
 20
97.2960293649
 10
165.3894318016
 20
97.3148365958
 10
165.3775630153
 20
97.3342668515
  0
LINE
  5
266
100
AcDbEntity
  8
0
100
AcDbLine
 62
253
  6
CONTINUOUS
 10
170.4240893721
 20
127.1010176981
 11
170.0869827894
 21
126.8663975685
  0
LINE
  5
267
100
AcDbEntity
  8
0
100
AcDbLine
 62
253
  6
CONTINUOUS
 10
170.4388379352
 20
126.5957390712
 11
170.6879044321
 21
126.751291933
  0
LINE
  5
268
100
AcDbEntity
  8
0
100
AcDbLine
 62
253
  6
CONTINUOUS
 10
170.9967286763
 20
126.5279230988
 11
170.6176548816
 21
126.3659840961
  0
LINE
  5
269
100
AcDbEntity
  8
0
100
AcDbLine
 62
253
  6
CONTINUOUS
 10
170.8585100542
 20
126.0018119639
 11
171.1176120581
 21
126.1090114729
  0
LINE
  5
26A
100
AcDbEntity
  8
0
100
AcDbLine
 62
253
  6
CONTINUOUS
 10
170.6879044321
 20
126.751291933
 11
171.2311967074
 21
126.9071479914
  0
LWPOLYLINE
  5
26B
100
AcDbEntity
  8
RACCORDO
100
AcDbPolyline
 62
253
  6
CONTINUOUS
 90
25
 70
0
 10
165.3281036592
 20
97.4916351928
 10
165.3286314702
 20
97.4910455962
 10
165.3297670331
 20
97.4905862238
 10
165.3315056299
 20
97.4902589839
 10
165.3338400373
 20
97.4900652363
 10
165.3367605565
 20
97.4900057858
 10
165.3402550535
 20
97.4900808796
 10
165.3443090096
 20
97.4902902055
 10
165.3489055818
 20
97.4906328939
 10
165.3540256726
 20
97.4911075211
 10
165.3596480095
 20
97.491712115
 10
165.3657492332
 20
97.4924441638
 10
165.3723039948
 20
97.493300626
 10
165.3792850611
 20
97.4942779432
 10
165.3866634278
 20
97.495372055
 10
165.3944084397
 20
97.4965784157
 10
165.4024879184
 20
97.497892013
 10
165.4108682961
 20
97.4993073895
 10
165.4195147546
 20
97.5008186645
 10
165.4283913702
 20
97.5024195593
 10
165.437461263
 20
97.5041034224
 10
165.4466867502
 20
97.505863258
 10
165.4560295025
 20
97.5076917544
 10
165.4654507033
 20
97.5095813147
 10
165.4749112101
 20
97.5115240883
  0
LWPOLYLINE
  5
26C
100
AcDbEntity
  8
ASSI
100
AcDbPolyline
 62
253
  6
CONTINUOUS
 90
16
 70
0
 10
160.481882695
 20
90.3387900962
 10
160.4846540667
 20
90.2865678029
 10
160.4928663217
 20
90.2349169336
 10
160.5064296323
 20
90.1844028788
 10
160.5251955963
 20
90.1355785924
 10
160.5489588552
 20
90.0889785509
 10
160.5774593365
 20
90.0451129007
 10
160.6103851145
 20
90.0044618475
 10
160.647375808
 20
89.9674704276
 10
160.6880265077
 20
89.9345436383
 10
160.7318922567
 20
89.9060419589
 10
160.7784928874
 20
89.8822774397
 10
160.8273182434
 20
89.86351029
 10
160.8778338322
 20
89.8499459902
 10
160.9294866838
 20
89.841733057
 10
160.9817113574
 20
89.8389614336
  0
LWPOLYLINE
  5
26D
100
AcDbEntity
  8
RACCORDO
100
AcDbPolyline
 62
253
  6
CONTINUOUS
 90
16
 70
0
 10
160.481882695
 20
90.3387900962
 10
160.4846540667
 20
90.2865678029
 10
160.4928663217
 20
90.2349169336
 10
160.5064296323
 20
90.1844028788
 10
160.5251955963
 20
90.1355785924
 10
160.5489588552
 20
90.0889785509
 10
160.5774593365
 20
90.0451129007
 10
160.6103851145
 20
90.0044618475
 10
160.647375808
 20
89.9674704276
 10
160.6880265077
 20
89.9345436383
 10
160.7318922567
 20
89.9060419589
 10
160.7784928874
 20
89.8822774397
 10
160.8273182434
 20
89.86351029
 10
160.8778338322
 20
89.8499459902
 10
160.9294866838
 20
89.841733057
 10
160.9817113574
 20
89.8389614336
  0
LWPOLYLINE
  5
26E
100
AcDbEntity
  8
ASSI
100
AcDbPolyline
 62
253
  6
CONTINUOUS
 90
16
 70
0
 10
160.481882695
 20
133.3313801813
 10
160.4846542078
 20
133.3836038073
 10
160.4928668368
 20
133.4352557589
 10
160.5064306812
 20
133.4857706198
 10
160.5251972621
 20
133.5345954209
 10
160.548961148
 20
133.5811956936
 10
160.5774622039
 20
133.6250613206
 10
160.6103884383
 20
133.6657121196
 10
160.6473794189
 20
133.7027031002
 10
160.6880302179
 20
133.7356293347
 10
160.7318958448
 20
133.7641303906
 10
160.7784961176
 20
133.7878942766
 10
160.8273209187
 20
133.8066608575
 10
160.8778357797
 20
133.8202247019
 10
160.9294877314
 20
133.8284373309
 10
160.9817113575
 20
133.8312088438
  0
LWPOLYLINE
  5
26F
100
AcDbEntity
  8
RACCORDO
100
AcDbPolyline
 62
253
  6
CONTINUOUS
 90
16
 70
0
 10
160.481882695
 20
133.3313801813
 10
160.4846542078
 20
133.3836038073
 10
160.4928668368
 20
133.4352557589
 10
160.5064306812
 20
133.4857706198
 10
160.5251972621
 20
133.5345954209
 10
160.548961148
 20
133.5811956936
 10
160.5774622039
 20
133.6250613206
 10
160.6103884383
 20
133.6657121196
 10
160.6473794189
 20
133.7027031002
 10
160.6880302179
 20
133.7356293347
 10
160.7318958448
 20
133.7641303906
 10
160.7784961176
 20
133.7878942766
 10
160.8273209187
 20
133.8066608575
 10
160.8778357797
 20
133.8202247019
 10
160.9294877314
 20
133.8284373309
 10
160.9817113575
 20
133.8312088438
  0
LINE
  5
270
100
AcDbEntity
  8
0
100
AcDbLine
 62
253
  6
CONTINUOUS
 10
169.3381122154
 20
123.4313222366
 11
169.6104427968
 21
123.5525098156
  0
LINE
  5
271
100
AcDbEntity
  8
0
100
AcDbLine
 62
253
  6
CONTINUOUS
 10
174.7123449133
 20
125.3811235042
 11
174.4511145293
 21
125.2759012772
  0
LINE
  5
272
100
AcDbEntity
  8
0
100
AcDbLine
 62
253
  6
CONTINUOUS
 10
169.6104427968
 20
123.5525098156
 11
169.8554036315
 21
123.639181014
  0
LWPOLYLINE
  5
273
100
AcDbEntity
  8
ASSI
100
AcDbPolyline
 62
253
  6
CONTINUOUS
 90
7
 70
0
 10
182.2360022269
 20
102.3445851387
 10
182.2320093663
 20
102.343608272
 10
182.222763408
 20
102.3426417547
 10
182.2083623077
 20
102.3416958264
 10
182.1889586368
 20
102.3407805088
 10
182.1647579662
 20
102.339905499
 10
182.1360166882
 20
102.3390800674
  0
LWPOLYLINE
  5
274
100
AcDbEntity
  8
RACCORDO
100
AcDbPolyline
 62
253
  6
CONTINUOUS
 90
7
 70
0
 10
182.2360022269
 20
102.3445851387
 10
182.2320093663
 20
102.343608272
 10
182.222763408
 20
102.3426417547
 10
182.2083623077
 20
102.3416958264
 10
182.1889586368
 20
102.3407805088
 10
182.1647579662
 20
102.339905499
 10
182.1360166882
 20
102.3390800674
  0
LINE
  5
275
100
AcDbEntity
  8
RACCORDO
100
AcDbLine
 62
253
  6
CONTINUOUS
 10
177.3900351451
 20
101.1659706586
 11
177.3764597947
 21
101.1626825436
  0
LINE
  5
276
100
AcDbEntity
  8
RACCORDO
100
AcDbLine
 62
253
  6
CONTINUOUS
 10
177.3764597947
 20
101.1626825436
 11
177.3612344745
 21
101.1591109483
  0
LINE
  5
277
100
AcDbEntity
  8
RACCORDO
100
AcDbLine
 62
253
  6
CONTINUOUS
 10
177.3612344745
 20
101.1591109483
 11
177.3446189901
 21
101.1553168184
  0
LWPOLYLINE
  5
278
100
AcDbEntity
  8
ASSI
100
AcDbPolyline
 62
253
  6
CONTINUOUS
 90
10
 70
0
 10
165.238433482
 20
97.36663628
 10
165.2554683754
 20
97.3704984886
 10
165.2719809148
 20
97.3744698288
 10
165.287464716
 20
97.3784285128
 10
165.3014449425
 20
97.3822531408
 10
165.3134928673
 20
97.3858264246
 10
165.323239021
 20
97.3890387836
 10
165.3303845215
 20
97.3917917057
 10
165.33471024
 20
97.3940007678
 10
165.3360835213
 20
97.3955982255
  0
LWPOLYLINE
  5
279
100
AcDbEntity
  8
RACCORDO
100
AcDbPolyline
 62
253
  6
CONTINUOUS
 90
10
 70
0
 10
165.238433482
 20
97.36663628
 10
165.2554683754
 20
97.3704984886
 10
165.2719809148
 20
97.3744698288
 10
165.287464716
 20
97.3784285128
 10
165.3014449425
 20
97.3822531408
 10
165.3134928673
 20
97.3858264246
 10
165.323239021
 20
97.3890387836
 10
165.3303845215
 20
97.3917917057
 10
165.33471024
 20
97.3940007678
 10
165.3360835213
 20
97.3955982255
  0
LINE
  5
27A
100
AcDbEntity
  8
RACCORDO
100
AcDbLine
 62
253
  6
CONTINUOUS
 10
177.3446189901
 20
101.1553168184
 11
177.3268968686
 21
101.1513648971
  0
LWPOLYLINE
  5
27B
100
AcDbEntity
  8
ASSI
100
AcDbPolyline
 62
253
  6
CONTINUOUS
 90
10
 70
0
 10
177.5190046009
 20
101.2949363334
 10
177.5022102362
 20
101.2912821267
 10
177.4859162453
 20
101.2878278454
 10
177.470608141
 20
101.2846764168
 10
177.4567420593
 20
101.2819217444
 10
177.4447311683
 20
101.2796459089
 10
177.4349333569
 20
101.2779167234
 10
177.4276405709
 20
101.2767857122
 10
177.4230701138
 20
101.2762865763
 10
177.4213581717
 20
101.2764341884
  0
LWPOLYLINE
  5
27C
100
AcDbEntity
  8
RACCORDO
100
AcDbPolyline
 62
253
  6
CONTINUOUS
 90
10
 70
0
 10
177.5190046009
 20
101.2949363334
 10
177.5022102362
 20
101.2912821267
 10
177.4859162453
 20
101.2878278454
 10
177.470608141
 20
101.2846764168
 10
177.4567420593
 20
101.2819217444
 10
177.4447311683
 20
101.2796459089
 10
177.4349333569
 20
101.2779167234
 10
177.4276405709
 20
101.2767857122
 10
177.4230701138
 20
101.2762865763
 10
177.4213581717
 20
101.2764341884
  0
LINE
  5
27D
100
AcDbEntity
  8
RACCORDO
100
AcDbLine
 62
253
  6
CONTINUOUS
 10
177.3268968686
 20
101.1513648971
 11
177.2989041644
 21
101.1452891255
  0
LINE
  5
27E
100
AcDbEntity
  8
RACCORDO
100
AcDbLine
 62
253
  6
CONTINUOUS
 10
177.2989041644
 20
101.1452891255
 11
177.2797670473
 21
101.1412408082
  0
LINE
  5
27F
100
AcDbEntity
  8
RACCORDO
100
AcDbLine
 62
253
  6
CONTINUOUS
 10
165.4476423564
 20
101.147322606
 11
165.4762457528
 21
101.141240808
  0
LWPOLYLINE
  5
280
100
AcDbEntity
  8
ASSI
100
AcDbPolyline
 62
253
  6
CONTINUOUS
 90
10
 70
0
 10
165.2370081993
 20
101.2949363756
 10
165.2538028054
 20
101.2912821019
 10
165.2700970979
 20
101.2878277428
 10
165.2854055345
 20
101.2846762321
 10
165.2992719502
 20
101.2819214796
 10
165.3112831493
 20
101.2796455722
 10
165.3210812186
 20
101.2779163282
 10
165.3283741924
 20
101.276785276
 10
165.3329447526
 20
101.2762861191
 10
165.3346567042
 20
101.2764337316
  0
LWPOLYLINE
  5
281
100
AcDbEntity
  8
RACCORDO
100
AcDbPolyline
 62
253
  6
CONTINUOUS
 90
10
 70
0
 10
165.2370081993
 20
101.2949363756
 10
165.2538028054
 20
101.2912821019
 10
165.2700970979
 20
101.2878277428
 10
165.2854055345
 20
101.2846762321
 10
165.2992719502
 20
101.2819214796
 10
165.3112831493
 20
101.2796455722
 10
165.3210812186
 20
101.2779163282
 10
165.3283741924
 20
101.276785276
 10
165.3329447526
 20
101.2762861191
 10
165.3346567042
 20
101.2764337316
  0
LINE
  5
282
100
AcDbEntity
  8
RACCORDO
100
AcDbLine
 62
253
  6
CONTINUOUS
 10
165.4291160652
 20
101.1513648724
 11
165.4476423564
 21
101.147322606
  0
LINE
  5
283
100
AcDbEntity
  8
RACCORDO
100
AcDbLine
 62
253
  6
CONTINUOUS
 10
165.4113940019
 20
101.1553167823
 11
165.4291160652
 21
101.1513648724
  0
LWPOLYLINE
  5
284
100
AcDbEntity
  8
ASSI
100
AcDbPolyline
 62
253
  6
CONTINUOUS
 90
10
 70
0
 10
177.5175793179
 20
97.3666363851
 10
177.5005441666
 20
97.3704986112
 10
177.4840313051
 20
97.3744699906
 10
177.4685471497
 20
97.3784287289
 10
177.4545665688
 20
97.3822534194
 10
177.4425183189
 20
97.3858267666
 10
177.4327718957
 20
97.3890391829
 10
177.4256262027
 20
97.39179215
 10
177.4213003841
 20
97.3940012397
 10
177.4199271039
 20
97.3955987036
  0
LWPOLYLINE
  5
285
100
AcDbEntity
  8
RACCORDO
100
AcDbPolyline
 62
253
  6
CONTINUOUS
 90
10
 70
0
 10
177.5175793179
 20
97.3666363851
 10
177.5005441666
 20
97.3704986112
 10
177.4840313051
 20
97.3744699906
 10
177.4685471497
 20
97.3784287289
 10
177.4545665688
 20
97.3822534194
 10
177.4425183189
 20
97.3858267666
 10
177.4327718957
 20
97.3890391829
 10
177.4256262027
 20
97.39179215
 10
177.4213003841
 20
97.3940012397
 10
177.4199271039
 20
97.3955987036
  0
LINE
  5
286
100
AcDbEntity
  8
RACCORDO
100
AcDbLine
 62
253
  6
CONTINUOUS
 10
165.3947785753
 20
101.1591109006
 11
165.4113940019
 21
101.1553167823
  0
LINE
  5
287
100
AcDbEntity
  8
RACCORDO
100
AcDbLine
 62
253
  6
CONTINUOUS
 10
165.3795533109
 20
101.1626824845
 11
165.3947785753
 21
101.1591109006
  0
LWPOLYLINE
  5
288
100
AcDbEntity
  8
ASSI
100
AcDbPolyline
 62
253
  6
CONTINUOUS
 90
9
 70
0
 10
160.5200105732
 20
102.3445851387
 10
160.5240034318
 20
102.343608272
 10
160.5332493884
 20
102.3426417547
 10
160.5476504873
 20
102.3416958263
 10
160.5670541572
 20
102.3407805087
 10
160.591254827
 20
102.3399054989
 10
160.6199961047
 20
102.3390800672
 10
160.6529734926
 20
102.3383129586
 10
160.7301979149
 20
102.336985515
  0
LWPOLYLINE
  5
289
100
AcDbEntity
  8
RACCORDO
100
AcDbPolyline
 62
253
  6
CONTINUOUS
 90
9
 70
0
 10
160.5200105732
 20
102.3445851387
 10
160.5240034318
 20
102.343608272
 10
160.5332493884
 20
102.3426417547
 10
160.5476504873
 20
102.3416958263
 10
160.5670541572
 20
102.3407805087
 10
160.591254827
 20
102.3399054989
 10
160.6199961047
 20
102.3390800672
 10
160.6529734926
 20
102.3383129586
 10
160.7301979149
 20
102.336985515
  0
LWPOLYLINE
  5
28A
100
AcDbEntity
  8
RACCORDO
100
AcDbPolyline
 62
253
  6
CONTINUOUS
 90
13
 70
0
 10
165.3294338403
 20
101.1768004553
 10
165.3297677165
 20
101.176415163
 10
165.3307271371
 20
101.1759002788
 10
165.3323080049
 20
101.1752580016
 10
165.3345035685
 20
101.1744910743
 10
165.3373044518
 20
101.1736027721
 10
165.3406986935
 20
101.1725968884
 10
165.3446717982
 20
101.1714777191
 10
165.3492067985
 20
101.1702500435
 10
165.3542843276
 20
101.1689191045
 10
165.3598827015
 20
101.167490586
 10
165.3659780121
 20
101.1659705885
 10
165.3795533109
 20
101.1626824845
  0
LINE
  5
28B
100
AcDbEntity
  8
RACCORDO
100
AcDbLine
 62
7
  6
CONTINUOUS
 10
165.3775630153
 20
97.3342668515
 11
165.3666020436
 21
97.354195379
  0
LWPOLYLINE
  5
28C
100
AcDbEntity
  8
RACCORDO
100
AcDbPolyline
 62
7
  6
CONTINUOUS
 90
5
 70
0
 10
165.3666020436
 20
97.354195379
 10
165.3565516119
 20
97.3746492163
 10
165.347408995
 20
97.3956013255
 10
165.3392562235
 20
97.4168458405
 10
165.3321206412
 20
97.4383141392
  0
LWPOLYLINE
  5
28D
100
AcDbEntity
  8
ASSI
100
AcDbPolyline
 62
253
  6
CONTINUOUS
 90
10
 70
0
 10
160.4902149884
 20
133.2060502132
 10
160.4894283345
 20
133.2305769844
 10
160.4885893305
 20
133.2528573149
 10
160.4877133327
 20
133.272482875
 10
160.4867991078
 20
133.2894023404
 10
160.4858478891
 20
133.3036670352
 10
160.4848787329
 20
133.3150226024
 10
160.4838979911
 20
133.3233842563
 10
160.4828993118
 20
133.3288367826
 10
160.481882695
 20
133.3313801813
  0
LWPOLYLINE
  5
28E
100
AcDbEntity
  8
RACCORDO
100
AcDbPolyline
 62
253
  6
CONTINUOUS
 90
10
 70
0
 10
160.4902149884
 20
133.2060502132
 10
160.4894283345
 20
133.2305769844
 10
160.4885893305
 20
133.2528573149
 10
160.4877133327
 20
133.272482875
 10
160.4867991078
 20
133.2894023404
 10
160.4858478891
 20
133.3036670352
 10
160.4848787329
 20
133.3150226024
 10
160.4838979911
 20
133.3233842563
 10
160.4828993118
 20
133.3288367826
 10
160.481882695
 20
133.3313801813
  0
LWPOLYLINE
  5
28F
100
AcDbEntity
  8
ASSI
100
AcDbPolyline
 62
253
  6
CONTINUOUS
 90
7
 70
0
 10
160.987546494
 20
133.7132006792
 10
160.9866353813
 20
133.7471064446
 10
160.9856874269
 20
133.7755116724
 10
160.984719373
 20
133.7982439235
 10
160.9837368006
 20
133.8151661072
 10
160.9827341287
 20
133.8261765696
 10
160.9817113575
 20
133.8312088438
  0
LWPOLYLINE
  5
290
100
AcDbEntity
  8
RACCORDO
100
AcDbPolyline
 62
253
  6
CONTINUOUS
 90
7
 70
0
 10
160.987546494
 20
133.7132006792
 10
160.9866353813
 20
133.7471064446
 10
160.9856874269
 20
133.7755116724
 10
160.984719373
 20
133.7982439235
 10
160.9837368006
 20
133.8151661072
 10
160.9827341287
 20
133.8261765696
 10
160.9817113575
 20
133.8312088438
  0
LINE
  5
291
100
AcDbEntity
  8
ASSI
100
AcDbLine
 62
253
  6
CONTINUOUS
 10
160.4916290348
 20
133.1501803476
 11
160.4902149884
 21
133.2060502132
  0
LINE
  5
292
100
AcDbEntity
  8
RACCORDO
100
AcDbLine
 62
253
  6
CONTINUOUS
 10
160.4916290348
 20
133.1501803476
 11
160.4902149884
 21
133.2060502132
  0
LINE
  5
293
100
AcDbEntity
  8
ASSI
100
AcDbLine
 62
253
  6
CONTINUOUS
 10
160.9892571572
 20
133.6297406484
 11
160.987546494
 21
133.7132006792
  0
LINE
  5
294
100
AcDbEntity
  8
RACCORDO
100
AcDbLine
 62
253
  6
CONTINUOUS
 10
160.9892571572
 20
133.6297406484
 11
160.987546494
 21
133.7132006792
  0
LINE
  5
295
100
AcDbEntity
  8
ASSI
100
AcDbLine
 62
253
  6
CONTINUOUS
 10
160.4927965117
 20
133.0868427787
 11
160.4916290348
 21
133.1501803476
  0
LINE
  5
296
100
AcDbEntity
  8
RACCORDO
100
AcDbLine
 62
253
  6
CONTINUOUS
 10
160.4927965117
 20
133.0868427787
 11
160.4916290348
 21
133.1501803476
  0
LINE
  5
297
100
AcDbEntity
  8
ASSI
100
AcDbLine
 62
253
  6
CONTINUOUS
 10
160.4936964901
 20
133.0172454781
 11
160.4927965117
 21
133.0868427787
  0
LINE
  5
298
100
AcDbEntity
  8
RACCORDO
100
AcDbLine
 62
253
  6
CONTINUOUS
 10
160.4936964901
 20
133.0172454781
 11
160.4927965117
 21
133.0868427787
  0
LINE
  5
299
100
AcDbEntity
  8
ASSI
100
AcDbLine
 62
253
  6
CONTINUOUS
 10
160.9914536077
 20
133.469398656
 11
160.9892571572
 21
133.6297406484
  0
LINE
  5
29A
100
AcDbEntity
  8
RACCORDO
100
AcDbLine
 62
253
  6
CONTINUOUS
 10
160.9914536077
 20
133.469398656
 11
160.9892571572
 21
133.6297406484
  0
LINE
  5
29B
100
AcDbEntity
  8
ASSI
100
AcDbLine
 62
253
  6
CONTINUOUS
 10
160.9935201778
 20
133.2039179628
 11
160.9914536077
 21
133.469398656
  0
LINE
  5
29C
100
AcDbEntity
  8
RACCORDO
100
AcDbLine
 62
253
  6
CONTINUOUS
 10
160.9935201778
 20
133.2039179628
 11
160.9914536077
 21
133.469398656
  0
LINE
  5
29D
100
AcDbEntity
  8
ASSI
100
AcDbLine
 62
253
  6
CONTINUOUS
 10
160.4944879742
 20
132.9057451501
 11
160.4936964901
 21
133.0172454781
  0
LINE
  5
29E
100
AcDbEntity
  8
RACCORDO
100
AcDbLine
 62
253
  6
CONTINUOUS
 10
160.4944879742
 20
132.9057451501
 11
160.4936964901
 21
133.0172454781
  0
LINE
  5
29F
100
AcDbEntity
  8
ASSI
100
AcDbLine
 62
253
  6
CONTINUOUS
 10
160.9990970739
 20
131.6936127277
 11
160.9935201778
 21
133.2039179628
  0
LINE
  5
2A0
100
AcDbEntity
  8
RACCORDO
100
AcDbLine
 62
253
  6
CONTINUOUS
 10
160.9990970739
 20
131.6936127277
 11
160.9935201778
 21
133.2039179628
  0
LWPOLYLINE
  5
2A1
100
AcDbEntity
  8
ASSI
100
AcDbPolyline
 62
253
  6
CONTINUOUS
 90
9
 70
0
 10
160.5191229095
 20
122.6176932522
 10
160.5177477486
 20
123.9086513989
 10
160.5158850903
 20
125.1984595788
 10
160.5135343317
 20
126.4873923922
 10
160.5106960759
 20
127.7751752387
 10
160.5073721313
 20
129.0609843179
 10
160.5035631009
 20
130.3445450294
 10
160.4992683819
 20
131.6261319735
 10
160.4944879742
 20
132.9057451501
  0
LWPOLYLINE
  5
2A2
100
AcDbEntity
  8
RACCORDO
100
AcDbPolyline
 62
253
  6
CONTINUOUS
 90
9
 70
0
 10
160.5191229095
 20
122.6176932522
 10
160.5177477486
 20
123.9086513989
 10
160.5158850903
 20
125.1984595788
 10
160.5135343317
 20
126.4873923922
 10
160.5106960759
 20
127.7751752387
 10
160.5073721313
 20
129.0609843179
 10
160.5035631009
 20
130.3445450294
 10
160.4992683819
 20
131.6261319735
 10
160.4944879742
 20
132.9057451501
  0
LWPOLYLINE
  5
2A3
100
AcDbEntity
  8
ASSI
100
AcDbPolyline
 62
253
  6
CONTINUOUS
 90
8
 70
0
 10
161.0189515286
 20
122.633986719
 10
161.0175763441
 20
123.9322615663
 10
161.0157136824
 20
125.2296390766
 10
161.0133629525
 20
126.5258487604
 10
161.0105247453
 20
127.8206205157
 10
161.0072008329
 20
129.1136846833
 10
161.003391806
 20
130.4047718144
 10
160.9990970739
 20
131.6936127277
  0
LWPOLYLINE
  5
2A4
100
AcDbEntity
  8
RACCORDO
100
AcDbPolyline
 62
253
  6
CONTINUOUS
 90
8
 70
0
 10
161.0189515286
 20
122.633986719
 10
161.0175763441
 20
123.9322615663
 10
161.0157136824
 20
125.2296390766
 10
161.0133629525
 20
126.5258487604
 10
161.0105247453
 20
127.8206205157
 10
161.0072008329
 20
129.1136846833
 10
161.003391806
 20
130.4047718144
 10
160.9990970739
 20
131.6936127277
  0
LINE
  5
2A5
100
AcDbEntity
  8
ASSI
100
AcDbLine
 62
253
  6
CONTINUOUS
 10
160.5209433714
 20
119.2166127745
 11
160.5191229095
 21
122.6176932522
  0
LINE
  5
2A6
100
AcDbEntity
  8
RACCORDO
100
AcDbLine
 62
253
  6
CONTINUOUS
 10
160.5209433714
 20
119.2166127745
 11
160.5191229095
 21
122.6176932522
  0
LINE
  5
2A7
100
AcDbEntity
  8
ASSI
100
AcDbLine
 62
253
  6
CONTINUOUS
 10
161.0207720339
 20
119.2240633477
 11
161.0189515286
 21
122.633986719
  0
LINE
  5
2A8
100
AcDbEntity
  8
RACCORDO
100
AcDbLine
 62
253
  6
CONTINUOUS
 10
161.0207720339
 20
119.2240633477
 11
161.0189515286
 21
122.633986719
  0
LINE
  5
2A9
100
AcDbEntity
  8
ASSI
100
AcDbLine
 62
253
  6
CONTINUOUS
 10
160.522109369
 20
114.9986258411
 11
160.5209433714
 21
119.2166127745
  0
LINE
  5
2AA
100
AcDbEntity
  8
RACCORDO
100
AcDbLine
 62
253
  6
CONTINUOUS
 10
160.522109369
 20
114.9986258411
 11
160.5209433714
 21
119.2166127745
  0
LINE
  5
2AB
100
AcDbEntity
  8
ASSI
100
AcDbLine
 62
253
  6
CONTINUOUS
 10
161.0219380317
 20
115.001791343
 11
161.0207720339
 21
119.2240633477
  0
LINE
  5
2AC
100
AcDbEntity
  8
RACCORDO
100
AcDbLine
 62
253
  6
CONTINUOUS
 10
161.0219380317
 20
115.001791343
 11
161.0207720339
 21
119.2240633477
  0
LINE
  5
2AD
100
AcDbEntity
  8
ASSI
100
AcDbLine
 62
7
  6
CONTINUOUS
 10
160.3780064
 20
90.2349138012
 11
160.3780064
 21
133.4352564762
  0
LINE
  5
2AE
100
AcDbEntity
  8
RACCORDO
100
AcDbLine
 62
7
  6
CONTINUOUS
 10
160.3780064
 20
90.2349138012
 11
160.3780064
 21
133.4352564762
  0
LINE
  5
2AF
100
AcDbEntity
  8
ASSI
100
AcDbLine
 62
253
  6
CONTINUOUS
 10
160.5221093683
 20
108.6715399282
 11
160.522109369
 21
114.9986258411
  0
LINE
  5
2B0
100
AcDbEntity
  8
RACCORDO
100
AcDbLine
 62
253
  6
CONTINUOUS
 10
160.5221093683
 20
108.6715399282
 11
160.522109369
 21
114.9986258411
  0
LINE
  5
2B1
100
AcDbEntity
  8
ASSI
100
AcDbLine
 62
253
  6
CONTINUOUS
 10
161.0219380314
 20
108.6683769511
 11
161.0219380317
 21
115.001791343
  0
LINE
  5
2B2
100
AcDbEntity
  8
RACCORDO
100
AcDbLine
 62
253
  6
CONTINUOUS
 10
161.0219380314
 20
108.6683769511
 11
161.0219380317
 21
115.001791343
  0
LINE
  5
2B3
100
AcDbEntity
  8
ASSI
100
AcDbLine
 62
253
  6
CONTINUOUS
 10
160.5209433709
 20
104.4535554993
 11
160.5221093683
 21
108.6715399282
  0
LINE
  5
2B4
100
AcDbEntity
  8
RACCORDO
100
AcDbLine
 62
253
  6
CONTINUOUS
 10
160.5209433709
 20
104.4535554993
 11
160.5221093683
 21
108.6715399282
  0
LINE
  5
2B5
100
AcDbEntity
  8
ASSI
100
AcDbLine
 62
253
  6
CONTINUOUS
 10
161.0207720337
 20
104.4461060483
 11
161.0219380314
 21
108.6683769511
  0
LINE
  5
2B6
100
AcDbEntity
  8
RACCORDO
100
AcDbLine
 62
253
  6
CONTINUOUS
 10
161.0207720337
 20
104.4461060483
 11
161.0219380314
 21
108.6683769511
  0
LWPOLYLINE
  5
2B7
100
AcDbEntity
  8
ASSI
100
AcDbPolyline
 62
253
  6
CONTINUOUS
 90
9
 70
0
 10
160.4992683433
 20
92.0440254931
 10
160.5035630359
 20
93.3256028207
 10
160.5073720521
 20
94.6091571102
 10
160.5106959982
 20
95.8949629508
 10
160.5135342678
 20
97.1827457532
 10
160.515885042
 20
98.4716817499
 10
160.5177477145
 20
99.7614963518
 10
160.5191228915
 20
101.0524641481
 10
160.5209433709
 20
104.4535554993
  0
LWPOLYLINE
  5
2B8
100
AcDbEntity
  8
RACCORDO
100
AcDbPolyline
 62
253
  6
CONTINUOUS
 90
9
 70
0
 10
160.4992683433
 20
92.0440254931
 10
160.5035630359
 20
93.3256028207
 10
160.5073720521
 20
94.6091571102
 10
160.5106959982
 20
95.8949629508
 10
160.5135342678
 20
97.1827457532
 10
160.515885042
 20
98.4716817499
 10
160.5177477145
 20
99.7614963518
 10
160.5191228915
 20
101.0524641481
 10
160.5209433709
 20
104.4535554993
  0
LWPOLYLINE
  5
2B9
100
AcDbEntity
  8
ASSI
100
AcDbPolyline
 62
253
  6
CONTINUOUS
 90
9
 70
0
 10
160.9990970746
 20
91.9765575549
 10
161.0033918069
 20
93.2653984721
 10
161.0072008338
 20
94.5564856058
 10
161.0105247457
 20
95.8495497748
 10
161.0133629521
 20
97.1443215301
 10
161.0157136815
 20
98.4405312127
 10
161.0175763432
 20
99.7379087205
 10
161.018951528
 20
101.0361835638
 10
161.0207720337
 20
104.4461060483
  0
LWPOLYLINE
  5
2BA
100
AcDbEntity
  8
RACCORDO
100
AcDbPolyline
 62
253
  6
CONTINUOUS
 90
9
 70
0
 10
160.9990970746
 20
91.9765575549
 10
161.0033918069
 20
93.2653984721
 10
161.0072008338
 20
94.5564856058
 10
161.0105247457
 20
95.8495497748
 10
161.0133629521
 20
97.1443215301
 10
161.0157136815
 20
98.4405312127
 10
161.0175763432
 20
99.7379087205
 10
161.018951528
 20
101.0361835638
 10
161.0207720337
 20
104.4461060483
  0
LINE
  5
2BB
100
AcDbEntity
  8
ASSI
100
AcDbLine
 62
253
  6
CONTINUOUS
 10
160.9931064033
 20
90.3954791866
 11
160.9990970746
 21
91.9765575549
  0
LINE
  5
2BC
100
AcDbEntity
  8
RACCORDO
100
AcDbLine
 62
253
  6
CONTINUOUS
 10
160.9931064033
 20
90.3954791866
 11
160.9990970746
 21
91.9765575549
  0
LINE
  5
2BD
100
AcDbEntity
  8
ASSI
100
AcDbLine
 62
253
  6
CONTINUOUS
 10
160.4940334582
 20
90.6890292862
 11
160.4992683433
 21
92.0440254931
  0
LINE
  5
2BE
100
AcDbEntity
  8
RACCORDO
100
AcDbLine
 62
253
  6
CONTINUOUS
 10
160.4940334582
 20
90.6890292862
 11
160.4992683433
 21
92.0440254931
  0
LINE
  5
2BF
100
AcDbEntity
  8
ASSI
100
AcDbLine
 62
253
  6
CONTINUOUS
 10
160.9914532793
 20
90.2007674398
 11
160.9931064033
 21
90.3954791866
  0
LINE
  5
2C0
100
AcDbEntity
  8
RACCORDO
100
AcDbLine
 62
253
  6
CONTINUOUS
 10
160.9914532793
 20
90.2007674398
 11
160.9931064033
 21
90.3954791866
  0
LINE
  5
2C1
100
AcDbEntity
  8
ASSI
100
AcDbLine
 62
253
  6
CONTINUOUS
 10
160.4932823562
 20
90.6175450883
 11
160.4940334582
 21
90.6890292862
  0
LINE
  5
2C2
100
AcDbEntity
  8
RACCORDO
100
AcDbLine
 62
253
  6
CONTINUOUS
 10
160.4932823562
 20
90.6175450883
 11
160.4940334582
 21
90.6890292862
  0
LINE
  5
2C3
100
AcDbEntity
  8
ASSI
100
AcDbLine
 62
253
  6
CONTINUOUS
 10
160.9892563159
 20
90.0404259111
 11
160.9914532793
 21
90.2007674398
  0
LINE
  5
2C4
100
AcDbEntity
  8
RACCORDO
100
AcDbLine
 62
253
  6
CONTINUOUS
 10
160.9892563159
 20
90.0404259111
 11
160.9914532793
 21
90.2007674398
  0
LINE
  5
2C5
100
AcDbEntity
  8
ASSI
100
AcDbLine
 62
253
  6
CONTINUOUS
 10
160.4922436009
 20
90.5506635732
 11
160.4932823562
 21
90.6175450883
  0
LINE
  5
2C6
100
AcDbEntity
  8
RACCORDO
100
AcDbLine
 62
253
  6
CONTINUOUS
 10
160.4922436009
 20
90.5506635732
 11
160.4932823562
 21
90.6175450883
  0
LINE
  5
2C7
100
AcDbEntity
  8
0
100
AcDbLine
 62
253
  6
CONTINUOUS
 10
170.0869827894
 20
126.8663975685
 11
169.8249919123
 21
126.5289867885
  0
LINE
  5
2C8
100
AcDbEntity
  8
0
100
AcDbLine
 62
253
  6
CONTINUOUS
 10
170.2495301865
 20
126.3860551104
 11
170.4388379352
 21
126.5957390712
  0
LINE
  5
2C9
100
AcDbEntity
  8
0
100
AcDbLine
 62
253
  6
CONTINUOUS
 10
170.6176548816
 20
126.3659840961
 11
170.3546003148
 21
126.0900041484
  0
LINE
  5
2CA
100
AcDbEntity
  8
0
100
AcDbLine
 62
253
  6
CONTINUOUS
 10
170.4900811618
 20
125.6333830714
 11
170.8585100542
 21
126.0018119639
  0
LINE
  5
2CB
100
AcDbEntity
  8
0
100
AcDbLine
 62
253
  6
CONTINUOUS
 10
169.3070931023
 20
123.4053203768
 11
169.3381122154
 21
123.4313222366
  0
LINE
  5
2CC
100
AcDbEntity
  8
0
100
AcDbLine
 62
253
  6
CONTINUOUS
 10
174.9702301282
 20
125.0283557666
 11
175.0071800869
 21
125.0456900063
  0
LINE
  5
2CD
100
AcDbEntity
  8
0
100
AcDbLine
 62
253
  6
CONTINUOUS
 10
175.0071800869
 20
125.0456900063
 11
175.0444332422
 21
125.0625679501
  0
LINE
  5
2CE
100
AcDbEntity
  8
0
100
AcDbLine
 62
253
  6
CONTINUOUS
 10
175.365269275
 20
124.3247975735
 11
175.4025224302
 21
124.3415234187
  0
LINE
  5
2CF
100
AcDbEntity
  8
0
100
AcDbLine
 62
253
  6
CONTINUOUS
 10
171.5765136138
 20
123.6657912683
 11
171.9172695628
 21
123.8068977629
  0
LINE
  5
2D0
100
AcDbEntity
  8
0
100
AcDbLine
 62
253
  6
CONTINUOUS
 10
171.8975017452
 20
124.226113586
 11
171.6384007419
 21
124.1189150776
  0
LINE
  5
2D1
100
AcDbEntity
  8
0
100
AcDbLine
 62
253
  6
CONTINUOUS
 10
171.9172695628
 20
123.8068977629
 11
172.2581766098
 21
123.947701061
  0
LINE
  5
2D2
100
AcDbEntity
  8
0
100
AcDbLine
 62
253
  6
CONTINUOUS
 10
169.7666030524
 20
123.1577748662
 11
169.6633581076
 21
123.1151992598
  0
LINE
  5
2D3
100
AcDbEntity
  8
0
100
AcDbLine
 62
253
  6
CONTINUOUS
 10
174.6402711801
 20
125.0128467104
 11
174.7590261818
 21
125.0615042604
  0
LINE
  5
2D4
100
AcDbEntity
  8
0
100
AcDbLine
 62
253
  6
CONTINUOUS
 10
175.6900588713
 20
125.0861372326
 11
175.6450506876
 21
125.0683466971
  0
LINE
  5
2D5
100
AcDbEntity
  8
0
100
AcDbLine
 62
253
  6
CONTINUOUS
 10
175.4887383333
 20
125.3520806726
 11
175.6108385041
 21
125.3999787301
  0
LINE
  5
2D6
100
AcDbEntity
  8
0
100
AcDbLine
 62
253
  6
CONTINUOUS
 10
169.8716731808
 20
123.1962448104
 11
169.7666030524
 21
123.1577748662
  0
LINE
  5
2D7
100
AcDbEntity
  8
0
100
AcDbLine
 62
253
  6
CONTINUOUS
 10
175.9032400998
 20
123.8592046792
 11
175.9449031144
 21
123.8739542429
  0
LINE
  5
2D8
100
AcDbEntity
  8
0
100
AcDbLine
 62
253
  6
CONTINUOUS
 10
174.4162939513
 20
123.1408969224
 11
174.5202993893
 21
123.1767821907
  0
LINE
  5
2D9
100
AcDbEntity
  8
0
100
AcDbLine
 62
253
  6
CONTINUOUS
 10
169.9781111961
 20
123.2316737828
 11
169.8716731808
 21
123.1962448104
  0
LINE
  5
2DA
100
AcDbEntity
  8
0
100
AcDbLine
 62
253
  6
CONTINUOUS
 10
172.5311155857
 20
123.7028923249
 11
172.56958553
 21
123.715512508
  0
LINE
  5
2DB
100
AcDbEntity
  8
0
100
AcDbLine
 62
253
  6
CONTINUOUS
 10
172.4929498388
 20
123.6907274371
 11
172.5311155857
 21
123.7028923249
  0
LINE
  5
2DC
100
AcDbEntity
  8
0
100
AcDbLine
 62
253
  6
CONTINUOUS
 10
175.306119922
 20
123.4126191093
 11
175.1619714549
 21
123.3666983339
  0
LINE
  5
2DD
100
AcDbEntity
  8
0
100
AcDbLine
 62
253
  6
CONTINUOUS
 10
175.1017584123
 20
123.6838850004
 11
175.1738321455
 21
123.7057811981
  0
LINE
  5
2DE
100
AcDbEntity
  8
0
100
AcDbLine
 62
253
  6
CONTINUOUS
 10
176.0402419329
 20
123.868935989
 11
176.0952856237
 21
123.8855107363
  0
LINE
  5
2DF
100
AcDbEntity
  8
0
100
AcDbLine
 62
253
  6
CONTINUOUS
 10
176.2242282312
 20
123.5900671681
 11
176.0958940182
 21
123.5514451253
  0
LINE
  5
2E0
100
AcDbEntity
  8
RACCORDO
100
AcDbLine
 62
7
  6
CONTINUOUS
 10
165.7648851678
 20
101.5830461177
 11
165.787445805
 21
101.5845801184
  0
LINE
  5
2E1
100
AcDbEntity
  8
ASSI
100
AcDbLine
 62
7
  6
CONTINUOUS
 10
165.7293335516
 20
101.5850851387
 11
165.6838106595
 21
101.5824990779
  0
LINE
  5
2E2
100
AcDbEntity
  8
RACCORDO
100
AcDbLine
 62
7
  6
CONTINUOUS
 10
165.7293335516
 20
101.5850851387
 11
165.6838106595
 21
101.5824990779
  0
LINE
  5
2E3
100
AcDbEntity
  8
RACCORDO
100
AcDbLine
 62
7
  6
CONTINUOUS
 10
165.787445805
 20
101.5845801184
 11
165.8100885705
 21
101.5850851387
  0
LWPOLYLINE
  5
2E4
100
AcDbEntity
  8
ASSI
100
AcDbPolyline
 62
253
  6
CONTINUOUS
 90
3
 70
0
 10
182.1360166882
 20
102.3390800674
 10
182.0661751788
 20
102.3376123005
 10
182.0258148785
 20
102.3369855153
  0
LWPOLYLINE
  5
2E5
100
AcDbEntity
  8
RACCORDO
100
AcDbPolyline
 62
253
  6
CONTINUOUS
 90
3
 70
0
 10
182.1360166882
 20
102.3390800674
 10
182.0661751788
 20
102.3376123005
 10
182.0258148785
 20
102.3369855153
  0
LINE
  5
2E6
100
AcDbEntity
  8
RACCORDO
100
AcDbLine
 62
253
  6
CONTINUOUS
 10
165.8188687048
 20
101.4199113522
 11
176.9371440952
 21
101.4199113522
  0
LINE
  5
2E7
100
AcDbEntity
  8
RACCORDO
100
AcDbLine
 62
253
  6
CONTINUOUS
 10
165.8188687048
 20
101.574271229
 11
176.9371440952
 21
101.574271229
  0
LINE
  5
2E8
100
AcDbEntity
  8
DRAFT
100
AcDbLine
 62
7
  6
CONTINUOUS
 10
166.3780064
 20
101.5789763313
 11
166.8780064
 21
101.5789763313
  0
LINE
  5
2E9
100
AcDbEntity
  8
DRAFT
100
AcDbLine
 62
7
  6
CONTINUOUS
 10
175.8780064
 20
101.5789763313
 11
176.3780064
 21
101.5789763313
  0
LINE
  5
2EA
100
AcDbEntity
  8
ASSI
100
AcDbLine
 62
7
  6
CONTINUOUS
 10
165.7293337182
 20
101.5850851387
 11
166.8780064
 21
101.5850851387
  0
LINE
  5
2EB
100
AcDbEntity
  8
RACCORDO
100
AcDbLine
 62
7
  6
CONTINUOUS
 10
165.7293337182
 20
101.5850851387
 11
166.8780064
 21
101.5850851387
  0
LINE
  5
2EC
100
AcDbEntity
  8
ASSI
100
AcDbLine
 62
7
  6
CONTINUOUS
 10
175.8780064
 20
101.5850851387
 11
177.0266790991
 21
101.5850851387
  0
LINE
  5
2ED
100
AcDbEntity
  8
RACCORDO
100
AcDbLine
 62
7
  6
CONTINUOUS
 10
175.8780064
 20
101.5850851387
 11
177.0266790991
 21
101.5850851387
  0
LINE
  5
2EE
100
AcDbEntity
  8
ASSI
100
AcDbLine
 62
7
  6
CONTINUOUS
 10
165.7251542771
 20
101.5902864857
 11
177.030858523
 21
101.5902864857
  0
LINE
  5
2EF
100
AcDbEntity
  8
RACCORDO
100
AcDbLine
 62
7
  6
CONTINUOUS
 10
165.7251542771
 20
101.5902864857
 11
177.030858523
 21
101.5902864857
  0
LINE
  5
2F0
100
AcDbEntity
  8
ASSI
100
AcDbLine
 62
253
  6
CONTINUOUS
 10
165.7251542771
 20
101.6876633205
 11
177.030858523
 21
101.6876633205
  0
LINE
  5
2F1
100
AcDbEntity
  8
RACCORDO
100
AcDbLine
 62
253
  6
CONTINUOUS
 10
165.7251542771
 20
101.6876633205
 11
177.030858523
 21
101.6876633205
  0
LINE
  5
2F2
100
AcDbEntity
  8
RACCORDO
100
AcDbLine
 62
7
  6
CONTINUOUS
 10
176.9459242296
 20
101.5850851387
 11
176.9685654775
 21
101.5845800413
  0
LWPOLYLINE
  5
2F3
100
AcDbEntity
  8
RACCORDO
100
AcDbPolyline
 62
253
  6
CONTINUOUS
 90
31
 70
0
 10
176.9371440952
 20
101.574270639
 10
176.9598770089
 20
101.5737526836
 10
176.9825667715
 20
101.5722028965
 10
177.005160285
 20
101.5696231688
 10
177.0276082559
 20
101.5660192431
 10
177.0498667489
 20
101.5613997128
 10
177.0718934402
 20
101.5557727845
 10
177.0936445544
 20
101.5491494333
 10
177.1150738316
 20
101.5415445804
 10
177.1361351009
 20
101.5329735577
 10
177.156783912
 20
101.5234537911
 10
177.1769786488
 20
101.5130059679
 10
177.1966777627
 20
101.5016510984
 10
177.2158403015
 20
101.4894117635
 10
177.2344271477
 20
101.4763144045
 10
177.2523995875
 20
101.4623859965
 10
177.2697197559
 20
101.4476544116
 10
177.2863526081
 20
101.432151035
 10
177.3022636708
 20
101.4159081521
 10
177.3174190568
 20
101.3989585979
 10
177.3317883356
 20
101.381337852
 10
177.3453422704
 20
101.3630822355
 10
177.3580520814
 20
101.3442281641
 10
177.3698916894
 20
101.3248156237
 10
177.3808364338
 20
101.3048867057
 10
177.3908622052
 20
101.2844834847
 10
177.399949422
 20
101.2636464823
 10
177.408081183
 20
101.2424155885
 10
177.4152399797
 20
101.2208320795
 10
177.4214102109
 20
101.1989432053
 10
177.4265790204
 20
101.176800468
  0
LWPOLYLINE
  5
2F4
100
AcDbEntity
  8
RACCORDO
100
AcDbPolyline
 62
253
  6
CONTINUOUS
 90
31
 70
0
 10
176.9371440952
 20
101.4199113522
 10
176.9530853033
 20
101.419545529
 10
176.9689353195
 20
101.4184623787
 10
176.9846941439
 20
101.4166619021
 10
177.0003959752
 20
101.4141375158
 10
177.0160066146
 20
101.4108958062
 10
177.031423466
 20
101.4069565294
 10
177.0466435993
 20
101.4023152559
 10
177.0616699445
 20
101.396976421
 10
177.0764086956
 20
101.3909730778
 10
177.0908577179
 20
101.3843011819
 10
177.105019146
 20
101.3769647859
 10
177.1188055777
 20
101.3690090884
 10
177.1322148307
 20
101.360430185
 10
177.1452490872
 20
101.3512319903
 10
177.1578274924
 20
101.3414714314
 10
177.1699472304
 20
101.331144952
 10
177.1816111171
 20
101.32025612
 10
177.1927467446
 20
101.3088725472
 10
177.2033506963
 20
101.2969913212
 10
177.2134263889
 20
101.2846153665
 10
177.2229116646
 20
101.2718210487
 10
177.2318030094
 20
101.2586054462
 10
177.2401039374
 20
101.2449714923
 10
177.2477628328
 20
101.2310043326
 10
177.2547759436
 20
101.2167002703
 10
177.2611470218
 20
101.2020630127
 10
177.2668357072
 20
101.1871888092
 10
177.2718285466
 20
101.1721097452
 10
177.2761389933
 20
101.1567937433
 10
177.2797670473
 20
101.1412408079
  0
LWPOLYLINE
  5
2F5
100
AcDbEntity
  8
ASSI
100
AcDbPolyline
 62
253
  6
CONTINUOUS
 90
16
 70
0
 10
177.0308585245
 20
101.5902827242
 10
177.0670072524
 20
101.5886503451
 10
177.102815844
 20
101.5837565167
 10
177.1380012559
 20
101.5756653187
 10
177.1722777209
 20
101.5644431701
 10
177.2053769452
 20
101.5501824948
 10
177.2370506583
 20
101.5330153684
 10
177.26702146
 20
101.5130941175
 10
177.295057374
 20
101.4905593159
 10
177.3209989289
 20
101.4655535806
 10
177.3446668682
 20
101.4382277594
 10
177.3657962544
 20
101.4088267902
 10
177.3841543405
 20
101.3776739352
 10
177.3996004133
 20
101.3450630708
 10
177.4120296197
 20
101.3112228508
 10
177.4213432641
 20
101.2764309014
  0
LWPOLYLINE
  5
2F6
100
AcDbEntity
  8
RACCORDO
100
AcDbPolyline
 62
253
  6
CONTINUOUS
 90
16
 70
0
 10
177.0308585245
 20
101.5902827242
 10
177.0670072524
 20
101.5886503451
 10
177.102815844
 20
101.5837565167
 10
177.1380012559
 20
101.5756653187
 10
177.1722777209
 20
101.5644431701
 10
177.2053769452
 20
101.5501824948
 10
177.2370506583
 20
101.5330153684
 10
177.26702146
 20
101.5130941175
 10
177.295057374
 20
101.4905593159
 10
177.3209989289
 20
101.4655535806
 10
177.3446668682
 20
101.4382277594
 10
177.3657962544
 20
101.4088267902
 10
177.3841543405
 20
101.3776739352
 10
177.3996004133
 20
101.3450630708
 10
177.4120296197
 20
101.3112228508
 10
177.4213432641
 20
101.2764309014
  0
LWPOLYLINE
  5
2F7
100
AcDbEntity
  8
ASSI
100
AcDbPolyline
 62
253
  6
CONTINUOUS
 90
16
 70
0
 10
177.030858523
 20
101.6876633205
 10
177.0766978928
 20
101.6854521466
 10
177.1214052452
 20
101.679334956
 10
177.1649805803
 20
101.6693117696
 10
177.2077496235
 20
101.6552312917
 10
177.2493866494
 20
101.6372449027
 10
177.2889144817
 20
101.6158066509
 10
177.3262697514
 20
101.5908633705
 10
177.3615158276
 20
101.5624683756
 10
177.3938656409
 20
101.5312354304
 10
177.4232999557
 20
101.4970186797
 10
177.4498380078
 20
101.4599641636
 10
177.4727504345
 20
101.4211234511
 10
177.4917941152
 20
101.3808470994
 10
177.5072121707
 20
101.3387846951
 10
177.5190046009
 20
101.2949363224
  0
LWPOLYLINE
  5
2F8
100
AcDbEntity
  8
RACCORDO
100
AcDbPolyline
 62
253
  6
CONTINUOUS
 90
16
 70
0
 10
177.030858523
 20
101.6876633205
 10
177.0766978928
 20
101.6854521466
 10
177.1214052452
 20
101.679334956
 10
177.1649805803
 20
101.6693117696
 10
177.2077496235
 20
101.6552312917
 10
177.2493866494
 20
101.6372449027
 10
177.2889144817
 20
101.6158066509
 10
177.3262697514
 20
101.5908633705
 10
177.3615158276
 20
101.5624683756
 10
177.3938656409
 20
101.5312354304
 10
177.4232999557
 20
101.4970186797
 10
177.4498380078
 20
101.4599641636
 10
177.4727504345
 20
101.4211234511
 10
177.4917941152
 20
101.3808470994
 10
177.5072121707
 20
101.3387846951
 10
177.5190046009
 20
101.2949363224
  0
LINE
  5
2F9
100
AcDbEntity
  8
RACCORDO
100
AcDbLine
 62
7
  6
CONTINUOUS
 10
176.9685654775
 20
101.5845800413
 11
176.9911240104
 21
101.5830463281
  0
LINE
  5
2FA
100
AcDbEntity
  8
RACCORDO
100
AcDbLine
 62
253
  6
CONTINUOUS
 10
165.8188687048
 20
101.574271229
 11
165.8100885704
 21
101.5850851387
  0
LINE
  5
2FB
100
AcDbEntity
  8
ASSI
100
AcDbLine
 62
253
  6
CONTINUOUS
 10
165.3387130881
 20
101.2711437836
 11
165.334653028
 21
101.2764345416
  0
LINE
  5
2FC
100
AcDbEntity
  8
RACCORDO
100
AcDbLine
 62
253
  6
CONTINUOUS
 10
165.3387130881
 20
101.2711437836
 11
165.334653028
 21
101.2764345416
  0
LINE
  5
2FD
100
AcDbEntity
  8
RACCORDO
100
AcDbLine
 62
253
  6
CONTINUOUS
 10
165.3294332634
 20
101.176800576
 11
165.3208190129
 21
101.1880423233
  0
LINE
  5
2FE
100
AcDbEntity
  8
RACCORDO
100
AcDbLine
 62
7
  6
CONTINUOUS
 10
165.3321206412
 20
97.4383141392
 11
165.3259749043
 21
97.4600748438
  0
LWPOLYLINE
  5
2FF
100
AcDbEntity
  8
ASSI
100
AcDbPolyline
 62
7
  6
CONTINUOUS
 90
13
 70
0
 10
165.3387131687
 20
97.3990261279
 10
165.3510327237
 20
97.3551216536
 10
165.3681851896
 20
97.3130825676
 10
165.389888698
 20
97.2734253939
 10
165.4157683198
 20
97.236675858
 10
165.4454719737
 20
97.2032019319
 10
165.4787310149
 20
97.1732578278
 10
165.5151301632
 20
97.1472180746
 10
165.5542131581
 20
97.1254094993
 10
165.5956712811
 20
97.1080412483
 10
165.6390682141
 20
97.0953777773
 10
165.6838106595
 20
97.0876711995
 10
165.7293335516
 20
97.0850851387
  0
LWPOLYLINE
  5
300
100
AcDbEntity
  8
RACCORDO
100
AcDbPolyline
 62
7
  6
CONTINUOUS
 90
13
 70
0
 10
165.3387131687
 20
97.3990261279
 10
165.3510327237
 20
97.3551216536
 10
165.3681851896
 20
97.3130825676
 10
165.389888698
 20
97.2734253939
 10
165.4157683198
 20
97.236675858
 10
165.4454719737
 20
97.2032019319
 10
165.4787310149
 20
97.1732578278
 10
165.5151301632
 20
97.1472180746
 10
165.5542131581
 20
97.1254094993
 10
165.5956712811
 20
97.1080412483
 10
165.6390682141
 20
97.0953777773
 10
165.6838106595
 20
97.0876711995
 10
165.7293335516
 20
97.0850851387
  0
LINE
  5
301
100
AcDbEntity
  8
0
100
AcDbLine
 62
253
  6
CONTINUOUS
 10
169.2634528056
 20
123.3402411789
 11
169.3070931023
 21
123.4053203768
  0
LINE
  5
302
100
AcDbEntity
  8
0
100
AcDbLine
 62
253
  6
CONTINUOUS
 10
172.0816411427
 20
124.4105561802
 11
171.8975017452
 21
124.226113586
  0
LINE
  5
303
100
AcDbEntity
  8
ASSI
100
AcDbLine
 62
253
  6
CONTINUOUS
 10
181.8781777375
 20
133.9350851387
 11
181.7743014426
 21
133.8312088438
  0
LINE
  5
304
100
AcDbEntity
  8
RACCORDO
100
AcDbLine
 62
253
  6
CONTINUOUS
 10
181.8781777375
 20
133.9350851387
 11
181.7743014426
 21
133.8312088438
  0
LINE
  5
305
100
AcDbEntity
  8
0
100
AcDbLine
 62
253
  6
CONTINUOUS
 10
172.2659316382
 20
124.5945424784
 11
172.0816411427
 21
124.4105561802
  0
LINE
  5
306
100
AcDbEntity
  8
0
100
AcDbLine
 62
253
  6
CONTINUOUS
 10
169.5395848519
 20
121.3943924741
 11
169.4995939215
 21
121.3565309244
  0
LINE
  5
307
100
AcDbEntity
  8
0
100
AcDbLine
 62
253
  6
CONTINUOUS
 10
169.5797268804
 20
121.4317987286
 11
169.5395848519
 21
121.3943924741
  0
LINE
  5
308
100
AcDbEntity
  8
0
100
AcDbLine
 62
253
  6
CONTINUOUS
 10
172.458433458
 20
123.6670070566
 11
172.4929498388
 21
123.6907274371
  0
LINE
  5
309
100
AcDbEntity
  8
0
100
AcDbLine
 62
253
  6
CONTINUOUS
 10
174.9379942262
 20
124.2337165158
 11
174.9754004807
 21
124.2578931922
  0
LINE
  5
30A
100
AcDbEntity
  8
0
100
AcDbLine
 62
253
  6
CONTINUOUS
 10
174.4722502339
 20
124.0421272877
 11
174.5095033891
 21
124.0659997669
  0
LINE
  5
30B
100
AcDbEntity
  8
0
100
AcDbLine
 62
253
  6
CONTINUOUS
 10
176.169336639
 20
124.8002738764
 11
176.1298020044
 21
124.7797455657
  0
LINE
  5
30C
100
AcDbEntity
  8
0
100
AcDbLine
 62
253
  6
CONTINUOUS
 10
175.4025224302
 20
124.3415234187
 11
175.4394723889
 21
124.3593139543
  0
LINE
  5
30D
100
AcDbEntity
  8
0
100
AcDbLine
 62
253
  6
CONTINUOUS
 10
173.4475508101
 20
122.2033259934
 11
173.3938760069
 21
122.178388824
  0
LINE
  5
30E
100
AcDbEntity
  8
0
100
AcDbLine
 62
253
  6
CONTINUOUS
 10
172.5808378261
 20
122.1957230636
 11
172.5297466981
 21
122.1762594433
  0
LINE
  5
30F
100
AcDbEntity
  8
0
100
AcDbLine
 62
253
  6
CONTINUOUS
 10
169.4995939215
 20
121.3565309244
 11
169.4428202764
 21
121.3359002539
  0
LINE
  5
310
100
AcDbEntity
  8
0
100
AcDbLine
 62
253
  6
CONTINUOUS
 10
173.970316776
 20
121.3673269246
 11
173.9186172536
 21
121.3492321918
  0
LINE
  5
311
100
AcDbEntity
  8
0
100
AcDbLine
 62
253
  6
CONTINUOUS
 10
173.9186172536
 20
121.3492321918
 11
173.8761760944
 21
121.3350851387
  0
LWPOLYLINE
  5
312
100
AcDbEntity
  8
RACCORDO
100
AcDbPolyline
 62
7
  6
CONTINUOUS
 90
5
 70
0
 10
165.6754639022
 20
101.5666203121
 10
165.6975502909
 20
101.5722449737
 10
165.7199374108
 20
101.5768785454
 10
165.742406659
 20
101.5804831368
 10
165.7648851678
 20
101.5830461177
  0
LWPOLYLINE
  5
313
100
AcDbEntity
  8
ASSI
100
AcDbPolyline
 62
7
  6
CONTINUOUS
 90
12
 70
0
 10
165.6838106595
 20
101.5824990779
 10
165.6390682141
 20
101.5747925001
 10
165.5956712811
 20
101.5621290291
 10
165.5542131581
 20
101.5447607782
 10
165.5151301632
 20
101.5229522028
 10
165.4787310149
 20
101.4969124496
 10
165.4454719739
 20
101.4669683457
 10
165.4157683201
 20
101.4334944198
 10
165.389888698
 20
101.3967448835
 10
165.3681851891
 20
101.3570877087
 10
165.3510327227
 20
101.3150486209
 10
165.3387131674
 20
101.271144144
  0
LWPOLYLINE
  5
314
100
AcDbEntity
  8
RACCORDO
100
AcDbPolyline
 62
7
  6
CONTINUOUS
 90
12
 70
0
 10
165.6838106595
 20
101.5824990779
 10
165.6390682141
 20
101.5747925001
 10
165.5956712811
 20
101.5621290291
 10
165.5542131581
 20
101.5447607782
 10
165.5151301632
 20
101.5229522028
 10
165.4787310149
 20
101.4969124496
 10
165.4454719739
 20
101.4669683457
 10
165.4157683201
 20
101.4334944198
 10
165.389888698
 20
101.3967448835
 10
165.3681851891
 20
101.3570877087
 10
165.3510327227
 20
101.3150486209
 10
165.3387131674
 20
101.271144144
  0
LINE
  5
315
100
AcDbEntity
  8
ASSI
100
AcDbLine
 62
253
  6
CONTINUOUS
 10
182.0258148785
 20
102.3369855153
 11
181.9363486283
 21
102.3359792736
  0
LINE
  5
316
100
AcDbEntity
  8
RACCORDO
100
AcDbLine
 62
253
  6
CONTINUOUS
 10
182.0258148785
 20
102.3369855153
 11
181.9363486283
 21
102.3359792736
  0
LINE
  5
317
100
AcDbEntity
  8
ASSI
100
AcDbLine
 62
253
  6
CONTINUOUS
 10
181.9363486283
 20
102.3359792736
 11
181.7875699817
 21
102.3351610294
  0
LINE
  5
318
100
AcDbEntity
  8
RACCORDO
100
AcDbLine
 62
253
  6
CONTINUOUS
 10
181.9363486283
 20
102.3359792736
 11
181.7875699817
 21
102.3351610294
  0
LINE
  5
319
100
AcDbEntity
  8
0
100
AcDbLine
 62
253
  6
CONTINUOUS
 10
169.8613398446
 20
103.5850851387
 11
168.9327683939
 21
103.5850851387
  0
LINE
  5
31A
100
AcDbEntity
  8
0
100
AcDbLine
 62
253
  6
CONTINUOUS
 10
167.1375303669
 20
103.5850851387
 11
167.8803875042
 21
103.5850851387
  0
LINE
  5
31B
100
AcDbEntity
  8
0
100
AcDbLine
 62
253
  6
CONTINUOUS
 10
170.6041969432
 20
103.5850851387
 11
171.718482746
 21
103.5850851387
  0
LINE
  5
31C
100
AcDbEntity
  8
ASSI
100
AcDbLine
 62
253
  6
CONTINUOUS
 10
160.9684428169
 20
102.335161029
 11
181.7875699817
 21
102.3351610294
  0
LINE
  5
31D
100
AcDbEntity
  8
RACCORDO
100
AcDbLine
 62
253
  6
CONTINUOUS
 10
160.9684428169
 20
102.335161029
 11
181.7875699817
 21
102.3351610294
  0
LINE
  5
31E
100
AcDbEntity
  8
ASSI
100
AcDbLine
 62
253
  6
CONTINUOUS
 10
160.8196641668
 20
102.3359792732
 11
160.9684428169
 21
102.335161029
  0
LINE
  5
31F
100
AcDbEntity
  8
RACCORDO
100
AcDbLine
 62
253
  6
CONTINUOUS
 10
160.8196641668
 20
102.3359792732
 11
160.9684428169
 21
102.335161029
  0
LINE
  5
320
100
AcDbEntity
  8
ASSI
100
AcDbLine
 62
253
  6
CONTINUOUS
 10
160.7301979149
 20
102.336985515
 11
160.8196641668
 21
102.3359792732
  0
LINE
  5
321
100
AcDbEntity
  8
RACCORDO
100
AcDbLine
 62
253
  6
CONTINUOUS
 10
160.7301979149
 20
102.336985515
 11
160.8196641668
 21
102.3359792732
  0
LWPOLYLINE
  5
322
100
AcDbEntity
  8
RACCORDO
100
AcDbPolyline
 62
7
  6
CONTINUOUS
 90
5
 70
0
 10
176.9911240104
 20
101.5830463281
 10
177.0135998283
 20
101.5804839992
 10
177.0360655645
 20
101.5768804279
 10
177.0584485858
 20
101.5722482409
 10
177.080530992
 20
101.5666253178
  0
LWPOLYLINE
  5
323
100
AcDbEntity
  8
RACCORDO
100
AcDbPolyline
 62
7
  6
CONTINUOUS
 90
18
 70
0
 10
177.080530992
 20
101.5666253178
 10
177.1022867001
 20
101.5600036218
 10
177.1237417932
 20
101.5523911898
 10
177.1447566208
 20
101.5438500118
 10
177.1652975971
 20
101.5343963689
 10
177.1853983079
 20
101.5240139799
 10
177.2050198595
 20
101.5127159921
 10
177.2242081093
 20
101.5004707877
 10
177.2429171999
 20
101.4873099845
 10
177.2609706652
 20
101.473341582
 10
177.2783569027
 20
101.4585515023
 10
177.295087515
 20
101.4429538234
 10
177.311020844
 20
101.4266987789
 10
177.3261164611
 20
101.409824975
 10
177.340414795
 20
101.3922938054
 10
177.3538954739
 20
101.3741396845
 10
177.366581757
 20
101.3553325189
 10
177.3784503851
 20
101.335902402
  0
LINE
  5
324
100
AcDbEntity
  8
0
100
AcDbLine
 62
253
  6
CONTINUOUS
 10
166.7661017789
 20
103.9565137267
 11
167.1375303669
 21
103.5850851387
  0
LINE
  5
325
100
AcDbEntity
  8
ASSI
100
AcDbLine
 62
253
  6
CONTINUOUS
 10
181.7743014426
 20
89.8389614337
 11
181.8781777375
 21
89.7350851387
  0
LINE
  5
326
100
AcDbEntity
  8
RACCORDO
100
AcDbLine
 62
253
  6
CONTINUOUS
 10
181.7743014426
 20
89.8389614337
 11
181.8781777375
 21
89.7350851387
  0
LINE
  5
327
100
AcDbEntity
  8
RACCORDO
100
AcDbLine
 62
7
  6
CONTINUOUS
 10
165.3259749043
 20
97.4600748438
 11
165.3208190129
 21
97.4821279542
  0
LWPOLYLINE
  5
328
100
AcDbEntity
  8
ASSI
100
AcDbPolyline
 62
7
  6
CONTINUOUS
 90
13
 70
0
 10
165.338985847
 20
97.3977886412
 10
165.2746519845
 20
97.7170259329
 10
165.221923617
 20
98.0382854385
 10
165.1808593258
 20
98.3611450828
 10
165.1515046875
 20
98.6851489834
 10
165.133882884
 20
99.0099049131
 10
165.1280064
 20
99.3350854917
 10
165.1338829105
 20
99.660266096
 10
165.1515047423
 20
99.9850220503
 10
165.1808594022
 20
100.3090258966
 10
165.2219236962
 20
100.6318853827
 10
165.2746520411
 20
100.953144654
 10
165.3389858474
 20
101.2723816377
  0
LWPOLYLINE
  5
329
100
AcDbEntity
  8
RACCORDO
100
AcDbPolyline
 62
7
  6
CONTINUOUS
 90
13
 70
0
 10
165.338985847
 20
97.3977886412
 10
165.2746519845
 20
97.7170259329
 10
165.221923617
 20
98.0382854385
 10
165.1808593258
 20
98.3611450828
 10
165.1515046875
 20
98.6851489834
 10
165.133882884
 20
99.0099049131
 10
165.1280064
 20
99.3350854917
 10
165.1338829105
 20
99.660266096
 10
165.1515047423
 20
99.9850220503
 10
165.1808594022
 20
100.3090258966
 10
165.2219236962
 20
100.6318853827
 10
165.2746520411
 20
100.953144654
 10
165.3389858474
 20
101.2723816377
  0
LWPOLYLINE
  5
32A
100
AcDbEntity
  8
RACCORDO
100
AcDbPolyline
 62
253
  6
CONTINUOUS
 90
19
 70
0
 10
165.3281035943
 20
97.4916351792
 10
165.2882805192
 20
97.6938633868
 10
165.2530889366
 20
97.8970200101
 10
165.2225521351
 20
98.1009992811
 10
165.1966880262
 20
98.3057214494
 10
165.175519259
 20
98.5110530534
 10
165.1590670817
 20
98.7168063676
 10
165.1473404334
 20
98.9228525233
 10
165.1403430084
 20
99.1291037262
 10
165.138077686
 20
99.3354330713
 10
165.1405437546
 20
99.5417323414
 10
165.1477380743
 20
99.7478929575
 10
165.1596535738
 20
99.9537876237
 10
165.1762826968
 20
100.1593290552
 10
165.1976126178
 20
100.3643889555
 10
165.2236177989
 20
100.5687796185
 10
165.2542715893
 20
100.7723683335
 10
165.2895524231
 20
100.9750767927
 10
165.3294332634
 20
101.176800576
  0
LWPOLYLINE
  5
32B
100
AcDbEntity
  8
RACCORDO
100
AcDbPolyline
 62
253
  6
CONTINUOUS
 90
19
 70
0
 10
165.4749112101
 20
97.5115240876
 10
165.4357226523
 20
97.710867436
 10
165.4011292546
 20
97.9109226665
 10
165.371131017
 20
98.1116891046
 10
165.3457119386
 20
98.313299213
 10
165.3248880204
 20
98.5156191597
 10
165.3087072647
 20
98.718248631
 10
165.297183135
 20
98.921165329
 10
165.290302168
 20
99.1243897143
 10
165.2880719759
 20
99.3275853027
 10
165.2905015505
 20
99.530750826
 10
165.2975819002
 20
99.7338854466
 10
165.3092936616
 20
99.9366530914
 10
165.3256503582
 20
100.1390733781
 10
165.3466384666
 20
100.3411244058
 10
165.3721980536
 20
100.5424076175
 10
165.4023091414
 20
100.7427893109
 10
165.4369917078
 20
100.9424007625
 10
165.4762457528
 20
101.1412408079
  0
LWPOLYLINE
  5
32C
100
AcDbEntity
  8
ASSI
100
AcDbPolyline
 62
253
  6
CONTINUOUS
 90
10
 70
0
 10
165.3360819257
 20
97.3955978735
 10
165.2524982085
 20
97.821875904
 10
165.189563737
 20
98.2519080932
 10
165.1474560621
 20
98.6846943809
 10
165.1262983068
 20
99.1194528304
 10
165.1261986123
 20
99.5549410472
 10
165.1471399916
 20
99.9894582617
 10
165.1889785464
 20
100.421765308
 10
165.2515539088
 20
100.8510872498
 10
165.334653028
 20
101.2764345416
  0
LWPOLYLINE
  5
32D
100
AcDbEntity
  8
RACCORDO
100
AcDbPolyline
 62
253
  6
CONTINUOUS
 90
10
 70
0
 10
165.3360819257
 20
97.3955978735
 10
165.2524982085
 20
97.821875904
 10
165.189563737
 20
98.2519080932
 10
165.1474560621
 20
98.6846943809
 10
165.1262983068
 20
99.1194528304
 10
165.1261986123
 20
99.5549410472
 10
165.1471399916
 20
99.9894582617
 10
165.1889785464
 20
100.421765308
 10
165.2515539088
 20
100.8510872498
 10
165.334653028
 20
101.2764345416
  0
LWPOLYLINE
  5
32E
100
AcDbEntity
  8
ASSI
100
AcDbPolyline
 62
253
  6
CONTINUOUS
 90
10
 70
0
 10
165.238433482
 20
97.3666362533
 10
165.1537099351
 20
97.7996692025
 10
165.0901429586
 20
98.2345714123
 10
165.0477325527
 20
98.6713343625
 10
165.026499084
 20
99.1112643481
 10
165.0264221859
 20
99.5530379875
 10
165.0474407583
 20
99.9926988356
 10
165.0895344347
 20
100.428918854
 10
165.1527235816
 20
100.8630017925
 10
165.2370081992
 20
101.2949363224
  0
LWPOLYLINE
  5
32F
100
AcDbEntity
  8
RACCORDO
100
AcDbPolyline
 62
253
  6
CONTINUOUS
 90
10
 70
0
 10
165.238433482
 20
97.3666362533
 10
165.1537099351
 20
97.7996692025
 10
165.0901429586
 20
98.2345714123
 10
165.0477325527
 20
98.6713343625
 10
165.026499084
 20
99.1112643481
 10
165.0264221859
 20
99.5530379875
 10
165.0474407583
 20
99.9926988356
 10
165.0895344347
 20
100.428918854
 10
165.1527235816
 20
100.8630017925
 10
165.2370081992
 20
101.2949363224
  0
LINE
  5
330
100
AcDbEntity
  8
0
100
AcDbLine
 62
253
  6
CONTINUOUS
 10
170.0676722683
 20
125.6452427614
 11
169.9288452517
 21
125.3040315171
  0
LINE
  5
331
100
AcDbEntity
  8
0
100
AcDbLine
 62
253
  6
CONTINUOUS
 10
169.8249919123
 20
126.5289867885
 11
169.8110028416
 21
126.4958392954
  0
LINE
  5
332
100
AcDbEntity
  8
0
100
AcDbLine
 62
253
  6
CONTINUOUS
 10
172.4333441899
 20
123.6350753518
 11
172.458433458
 21
123.6670070566
  0
LINE
  5
333
100
AcDbEntity
  8
0
100
AcDbLine
 62
253
  6
CONTINUOUS
 10
172.407798626
 20
123.6045125346
 11
172.4333441899
 21
123.6350753518
  0
LINE
  5
334
100
AcDbEntity
  8
ASSI
100
AcDbLine
 62
253
  6
CONTINUOUS
 10
182.3780064
 20
133.4352564762
 11
182.274130105
 21
133.3313801813
  0
LINE
  5
335
100
AcDbEntity
  8
RACCORDO
100
AcDbLine
 62
253
  6
CONTINUOUS
 10
182.3780064
 20
133.4352564762
 11
182.274130105
 21
133.3313801813
  0
LINE
  5
336
100
AcDbEntity
  8
0
100
AcDbLine
 62
253
  6
CONTINUOUS
 10
172.2581766098
 20
123.947701061
 11
172.53932691
 21
124.2271782764
  0
LINE
  5
337
100
AcDbEntity
  8
0
100
AcDbLine
 62
253
  6
CONTINUOUS
 10
174.4511145293
 20
125.2759012772
 11
174.3414824429
 21
125.1734168254
  0
LINE
  5
338
100
AcDbEntity
  8
0
100
AcDbLine
 62
253
  6
CONTINUOUS
 10
175.6450506876
 20
125.0683466971
 11
175.6117500952
 21
125.037327584
  0
LINE
  5
339
100
AcDbEntity
  8
0
100
AcDbLine
 62
253
  6
CONTINUOUS
 10
175.3982656701
 20
125.2678430522
 11
175.4887383333
 21
125.3520806726
  0
LINE
  5
33A
100
AcDbEntity
  8
0
100
AcDbLine
 62
253
  6
CONTINUOUS
 10
174.5903968411
 20
124.9664696391
 11
174.6402711801
 21
125.0128467104
  0
LINE
  5
33B
100
AcDbEntity
  8
0
100
AcDbLine
 62
253
  6
CONTINUOUS
 10
175.3074888096
 20
125.1842128257
 11
175.3982656701
 21
125.2678430522
  0
LINE
  5
33C
100
AcDbEntity
  8
0
100
AcDbLine
 62
253
  6
CONTINUOUS
 10
172.6186993758
 20
122.230391543
 11
172.5808378261
 21
122.1957230636
  0
LINE
  5
33D
100
AcDbEntity
  8
0
100
AcDbLine
 62
253
  6
CONTINUOUS
 10
175.6117500952
 20
125.037327584
 11
175.5779942076
 21
125.0070679634
  0
LINE
  5
33E
100
AcDbEntity
  8
0
100
AcDbLine
 62
253
  6
CONTINUOUS
 10
172.6568651228
 20
122.2644516278
 11
172.6186993758
 21
122.230391543
  0
LINE
  5
33F
100
AcDbEntity
  8
0
100
AcDbLine
 62
253
  6
CONTINUOUS
 10
174.3720462608
 20
123.1018185836
 11
174.4162939513
 21
123.1408969224
  0
LINE
  5
340
100
AcDbEntity
  8
0
100
AcDbLine
 62
253
  6
CONTINUOUS
 10
175.7814441262
 20
124.6006254227
 11
175.815960507
 21
124.6276909722
  0
LINE
  5
341
100
AcDbEntity
  8
0
100
AcDbLine
 62
253
  6
CONTINUOUS
 10
175.5970015321
 20
124.5948466757
 11
175.5322255308
 21
124.5445170415
  0
LINE
  5
342
100
AcDbEntity
  8
0
100
AcDbLine
 62
253
  6
CONTINUOUS
 10
175.1738321455
 20
123.7057811981
 11
175.2875688934
 21
123.7921481992
  0
LINE
  5
343
100
AcDbEntity
  8
0
100
AcDbLine
 62
253
  6
CONTINUOUS
 10
175.533746517
 20
123.5842894218
 11
175.306119922
 21
123.4126191093
  0
LINE
  5
344
100
AcDbEntity
  8
0
100
AcDbLine
 62
253
  6
CONTINUOUS
 10
176.0952856237
 20
123.8855107363
 11
176.1822610193
 21
123.9501336383
  0
LINE
  5
345
100
AcDbEntity
  8
0
100
AcDbLine
 62
253
  6
CONTINUOUS
 10
176.4279823471
 20
123.7412101705
 11
176.2242282312
 21
123.5900671681
  0
LINE
  5
346
100
AcDbEntity
  8
0
100
AcDbLine
 62
253
  6
CONTINUOUS
 10
173.6994353189
 20
104.3279423148
 11
172.7089591874
 21
104.3279423148
  0
LINE
  5
347
100
AcDbEntity
  8
0
100
AcDbLine
 62
253
  6
CONTINUOUS
 10
170.6041969432
 20
105.0707994908
 11
171.3470540418
 21
105.0707994908
  0
LINE
  5
348
100
AcDbEntity
  8
ASSI
100
AcDbLine
 62
253
  6
CONTINUOUS
 10
182.274130105
 20
90.3387900962
 11
182.3780064
 21
90.2349138012
  0
LINE
  5
349
100
AcDbEntity
  8
RACCORDO
100
AcDbLine
 62
253
  6
CONTINUOUS
 10
182.274130105
 20
90.3387900962
 11
182.3780064
 21
90.2349138012
  0
LINE
  5
34A
100
AcDbEntity
  8
ASSI
100
AcDbLine
 62
253
  6
CONTINUOUS
 10
165.7251542771
 20
101.6876633205
 11
165.7251542771
 21
101.5902864857
  0
LINE
  5
34B
100
AcDbEntity
  8
RACCORDO
100
AcDbLine
 62
253
  6
CONTINUOUS
 10
165.7251542771
 20
101.6876633205
 11
165.7251542771
 21
101.5902864857
  0
LINE
  5
34C
100
AcDbEntity
  8
ASSI
100
AcDbLine
 62
253
  6
CONTINUOUS
 10
165.7268862731
 20
96.9741869283
 11
165.7268862716
 21
97.0820396742
  0
LINE
  5
34D
100
AcDbEntity
  8
RACCORDO
100
AcDbLine
 62
253
  6
CONTINUOUS
 10
165.7268862731
 20
96.9741869283
 11
165.7268862716
 21
97.0820396742
  0
LINE
  5
34E
100
AcDbEntity
  8
RACCORDO
100
AcDbLine
 62
253
  6
CONTINUOUS
 10
165.8173159221
 20
97.0939874202
 11
165.8173159221
 21
97.2326528301
  0
LINE
  5
34F
100
AcDbEntity
  8
RACCORDO
100
AcDbLine
 62
253
  6
CONTINUOUS
 10
165.8188687048
 20
101.574271229
 11
165.8188687048
 21
101.4199113522
  0
LINE
  5
350
100
AcDbEntity
  8
0
100
AcDbLine
 62
253
  6
CONTINUOUS
 10
165.8994349851
 20
109.7850851387
 11
165.8994349851
 21
107.1850851861
  0
LINE
  5
351
100
AcDbEntity
  8
DRAFT
100
AcDbLine
 62
7
  6
CONTINUOUS
 10
166.3780064
 20
101.5850851387
 11
166.3780064
 21
101.5789763313
  0
LINE
  5
352
100
AcDbEntity
  8
DRAFT
100
AcDbLine
 62
7
  6
CONTINUOUS
 10
166.3780064
 20
97.0850851387
 11
166.3780064
 21
97.0911939462
  0
LWPOLYLINE
  5
353
100
AcDbEntity
  8
ASSI
100
AcDbPolyline
 62
253
  6
CONTINUOUS
 90
8
 70
0
 10
160.9817113575
 20
89.8389614337
 10
160.9827340432
 20
89.8439937371
 10
160.9837366355
 20
89.8550041931
 10
160.9847191343
 20
89.8719262338
 10
160.9856871337
 20
89.8946580228
 10
160.9866350396
 20
89.9230624258
 10
160.9875460698
 20
89.9569672879
 10
160.9892563159
 20
90.0404259111
  0
LWPOLYLINE
  5
354
100
AcDbEntity
  8
RACCORDO
100
AcDbPolyline
 62
253
  6
CONTINUOUS
 90
8
 70
0
 10
160.9817113575
 20
89.8389614337
 10
160.9827340432
 20
89.8439937371
 10
160.9837366355
 20
89.8550041931
 10
160.9847191343
 20
89.8719262338
 10
160.9856871337
 20
89.8946580228
 10
160.9866350396
 20
89.9230624258
 10
160.9875460698
 20
89.9569672879
 10
160.9892563159
 20
90.0404259111
  0
LINE
  5
355
100
AcDbEntity
  8
0
100
AcDbLine
 62
253
  6
CONTINUOUS
 10
169.2508326225
 20
123.3022275305
 11
169.2634528056
 21
123.3402411789
  0
LINE
  5
356
100
AcDbEntity
  8
0
100
AcDbLine
 62
253
  6
CONTINUOUS
 10
170.3828816527
 20
125.3747373634
 11
170.4900811618
 21
125.6333830714
  0
LINE
  5
357
100
AcDbEntity
  8
0
100
AcDbLine
 62
253
  6
CONTINUOUS
 10
169.604056656
 20
121.4853214332
 11
169.5797268804
 21
121.4317987286
  0
LINE
  5
358
100
AcDbEntity
  8
0
100
AcDbLine
 62
253
  6
CONTINUOUS
 10
175.0444332422
 20
125.0625679501
 11
175.0743876649
 21
125.0960206411
  0
LINE
  5
359
100
AcDbEntity
  8
0
100
AcDbLine
 62
253
  6
CONTINUOUS
 10
175.3353148523
 20
124.2922574743
 11
175.365269275
 21
124.3247975735
  0
LINE
  5
35A
100
AcDbEntity
  8
0
100
AcDbLine
 62
253
  6
CONTINUOUS
 10
173.5220581213
 20
122.2839142475
 11
173.4475508101
 21
122.2033259934
  0
LINE
  5
35B
100
AcDbEntity
  8
0
100
AcDbLine
 62
253
  6
CONTINUOUS
 10
174.0142602693
 20
121.4070136578
 11
173.970316776
 21
121.3673269246
  0
LINE
  5
35C
100
AcDbEntity
  8
0
100
AcDbLine
 62
253
  6
CONTINUOUS
 10
175.872525184
 20
123.8316828338
 11
175.9032400998
 21
123.8592046792
  0
LINE
  5
35D
100
AcDbEntity
  8
0
100
AcDbLine
 62
253
  6
CONTINUOUS
 10
175.8418102682
 20
123.8044651856
 11
175.872525184
 21
123.8316828338
  0
LINE
  5
35E
100
AcDbEntity
  8
0
100
AcDbLine
 62
253
  6
CONTINUOUS
 10
171.718482746
 20
106.1850851387
 11
170.6041969432
 21
106.1850851387
  0
LINE
  5
35F
100
AcDbEntity
  8
0
100
AcDbLine
 62
253
  6
CONTINUOUS
 10
167.8803875042
 20
106.1850851387
 11
167.1375303669
 21
106.1850851387
  0
LINE
  5
360
100
AcDbEntity
  8
RACCORDO
100
AcDbLine
 62
253
  6
CONTINUOUS
 10
176.9386968779
 20
97.0939874202
 11
176.9459242296
 21
97.0850851387
  0
LINE
  5
361
100
AcDbEntity
  8
0
100
AcDbLine
 62
253
  6
CONTINUOUS
 10
166.7661017789
 20
105.8136565894
 11
166.7661017789
 21
103.956513754
  0
LINE
  5
362
100
AcDbEntity
  8
ASSI
100
AcDbLine
 62
7
  6
CONTINUOUS
 10
166.8780064
 20
97.0863051026
 11
166.8780064
 21
97.0905953896
  0
LINE
  5
363
100
AcDbEntity
  8
RACCORDO
100
AcDbLine
 62
7
  6
CONTINUOUS
 10
166.8780064
 20
97.0863051026
 11
166.8780064
 21
97.0905953896
  0
LINE
  5
364
100
AcDbEntity
  8
ASSI
100
AcDbLine
 62
7
  6
CONTINUOUS
 10
166.8780064
 20
101.5795748878
 11
166.8780064
 21
101.5865387003
  0
LINE
  5
365
100
AcDbEntity
  8
RACCORDO
100
AcDbLine
 62
7
  6
CONTINUOUS
 10
166.8780064
 20
101.5795748878
 11
166.8780064
 21
101.5865387003
  0
LINE
  5
366
100
AcDbEntity
  8
0
100
AcDbLine
 62
253
  6
CONTINUOUS
 10
167.1994349851
 20
108.6707994908
 11
167.1994349851
 21
109.4136565867
  0
LINE
  5
367
100
AcDbEntity
  8
0
100
AcDbLine
 62
253
  6
CONTINUOUS
 10
167.9422920836
 20
107.1850851387
 11
167.9422920836
 21
109.7850850914
  0
LINE
  5
368
100
AcDbEntity
  8
0
100
AcDbLine
 62
253
  6
CONTINUOUS
 10
169.8053771939
 20
126.4616271119
 11
169.7999026442
 21
126.4269586325
  0
LINE
  5
369
100
AcDbEntity
  8
0
100
AcDbLine
 62
253
  6
CONTINUOUS
 10
169.8110028416
 20
126.4958392954
 11
169.8053771939
 21
126.4616271119
  0
LWPOLYLINE
  5
36A
100
AcDbEntity
  8
RACCORDO
100
AcDbPolyline
 62
253
  6
CONTINUOUS
 90
31
 70
0
 10
165.4762457528
 20
101.1412408079
 10
165.479873381
 20
101.1567923781
 10
165.4841834558
 20
101.1721073323
 10
165.489175977
 20
101.1871856663
 10
165.4948644232
 20
101.2020595615
 10
165.5012353159
 20
101.2166968286
 10
165.5082482194
 20
101.2310009054
 10
165.515906858
 20
101.2449679782
 10
165.5242075073
 20
101.2586018503
 10
165.533098559
 20
101.2718173827
 10
165.5425835271
 20
101.2846116404
 10
165.5526588975
 20
101.2969875468
 10
165.5632625196
 20
101.3088687488
 10
165.5743977676
 20
101.3202523
 10
165.5860612673
 20
101.3311411349
 10
165.5981807451
 20
101.3414677204
 10
165.6107590958
 20
101.3512285534
 10
165.6237934245
 20
101.3604271254
 10
165.6372027735
 20
101.3690063949
 10
165.650989296
 20
101.3769624108
 10
165.6651508386
 20
101.3842991139
 10
165.6795999835
 20
101.3909713001
 10
165.6943388626
 20
101.3969749168
 10
165.709365344
 20
101.4023140083
 10
165.7245856136
 20
101.4069555158
 10
165.740002491
 20
101.4108949992
 10
165.7556131567
 20
101.4141368928
 10
165.7713153382
 20
101.4166614507
 10
165.7870749446
 20
101.4184620901
 10
165.8029260668
 20
101.4195453908
 10
165.8188687048
 20
101.4199113522
  0
LWPOLYLINE
  5
36B
100
AcDbEntity
  8
RACCORDO
100
AcDbPolyline
 62
253
  6
CONTINUOUS
 90
31
 70
0
 10
165.3294338403
 20
101.1768004553
 10
165.3346026634
 20
101.1989435167
 10
165.3407728495
 20
101.2208323927
 10
165.3479316413
 20
101.2424156346
 10
165.3560633511
 20
101.2636464033
 10
165.3651505517
 20
101.2844834168
 10
165.3751764026
 20
101.3048866914
 10
165.3861211453
 20
101.32481567
 10
165.3979607233
 20
101.3442282434
 10
165.4106705762
 20
101.3630822734
 10
165.4242245086
 20
101.381337885
 10
165.4385937541
 20
101.3989586512
 10
165.4537491723
 20
101.4159081774
 10
165.4696602491
 20
101.4321510622
 10
165.4862930757
 20
101.447654475
 10
165.5036132634
 20
101.4623860377
 10
165.5215857236
 20
101.4763144246
 10
165.5401725417
 20
101.4894118174
 10
165.5593350789
 20
101.5016511399
 10
165.579034217
 20
101.5130059739
 10
165.5992289432
 20
101.5234538347
 10
165.6198777619
 20
101.5329736024
 10
165.6409390649
 20
101.5415445753
 10
165.6623683153
 20
101.5491494638
 10
165.6841193697
 20
101.5557728278
 10
165.7061459926
 20
101.5613996881
 10
165.7284044771
 20
101.566019236
 10
165.7508525793
 20
101.5696231853
 10
165.7734463529
 20
101.5722028615
 10
165.796136118
 20
101.573752693
 10
165.8188687049
 20
101.5742707014
  0
LINE
  5
36C
100
AcDbEntity
  8
RACCORDO
100
AcDbLine
 62
7
  6
CONTINUOUS
 10
165.3208190129
 20
101.1880423233
 11
165.3259747067
 21
101.2100940128
  0
LWPOLYLINE
  5
36D
100
AcDbEntity
  8
ASSI
100
AcDbPolyline
 62
253
  6
CONTINUOUS
 90
16
 70
0
 10
165.3346567042
 20
101.2764337316
 10
165.3440553072
 20
101.3114594706
 10
165.3565726194
 20
101.3454358211
 10
165.3720822415
 20
101.3781005612
 10
165.3904556711
 20
101.4091906921
 10
165.4115421117
 20
101.4384643865
 10
165.4351550283
 20
101.4657065414
 10
165.4610830918
 20
101.4906804871
 10
165.489137553
 20
101.5131928351
 10
165.519142145
 20
101.533120366
 10
165.5509077058
 20
101.5503223056
 10
165.5841383685
 20
101.5645967531
 10
165.6184716048
 20
101.5757905203
 10
165.6535909947
 20
101.5838319123
 10
165.6892492422
 20
101.5886695629
 10
165.7251542725
 20
101.590269528
  0
LWPOLYLINE
  5
36E
100
AcDbEntity
  8
RACCORDO
100
AcDbPolyline
 62
253
  6
CONTINUOUS
 90
16
 70
0
 10
165.3346567042
 20
101.2764337316
 10
165.3440553072
 20
101.3114594706
 10
165.3565726194
 20
101.3454358211
 10
165.3720822415
 20
101.3781005612
 10
165.3904556711
 20
101.4091906921
 10
165.4115421117
 20
101.4384643865
 10
165.4351550283
 20
101.4657065414
 10
165.4610830918
 20
101.4906804871
 10
165.489137553
 20
101.5131928351
 10
165.519142145
 20
101.533120366
 10
165.5509077058
 20
101.5503223056
 10
165.5841383685
 20
101.5645967531
 10
165.6184716048
 20
101.5757905203
 10
165.6535909947
 20
101.5838319123
 10
165.6892492422
 20
101.5886695629
 10
165.7251542725
 20
101.590269528
  0
LWPOLYLINE
  5
36F
100
AcDbEntity
  8
ASSI
100
AcDbPolyline
 62
253
  6
CONTINUOUS
 90
16
 70
0
 10
165.2370081992
 20
101.2949363224
 10
165.2490693981
 20
101.3393646864
 10
165.2646990449
 20
101.3818285684
 10
165.2838971395
 20
101.4223278758
 10
165.3068851516
 20
101.4611473905
 10
165.3334416115
 20
101.498002171
 10
165.3629021108
 20
101.5320375188
 10
165.3953038514
 20
101.5631779725
 10
165.4306096313
 20
101.5914988121
 10
165.4680434359
 20
101.61637142
 10
165.5077402406
 20
101.6377443522
 10
165.54956507
 20
101.6556689052
 10
165.5923369824
 20
101.6696705664
 10
165.6356623309
 20
101.6795911341
 10
165.6799347624
 20
101.6855887257
 10
165.7251542771
 20
101.6876633205
  0
LWPOLYLINE
  5
370
100
AcDbEntity
  8
RACCORDO
100
AcDbPolyline
 62
253
  6
CONTINUOUS
 90
16
 70
0
 10
165.2370081992
 20
101.2949363224
 10
165.2490693981
 20
101.3393646864
 10
165.2646990449
 20
101.3818285684
 10
165.2838971395
 20
101.4223278758
 10
165.3068851516
 20
101.4611473905
 10
165.3334416115
 20
101.498002171
 10
165.3629021108
 20
101.5320375188
 10
165.3953038514
 20
101.5631779725
 10
165.4306096313
 20
101.5914988121
 10
165.4680434359
 20
101.61637142
 10
165.5077402406
 20
101.6377443522
 10
165.54956507
 20
101.6556689052
 10
165.5923369824
 20
101.6696705664
 10
165.6356623309
 20
101.6795911341
 10
165.6799347624
 20
101.6855887257
 10
165.7251542771
 20
101.6876633205
  0
LINE
  5
371
100
AcDbEntity
  8
0
100
AcDbLine
 62
253
  6
CONTINUOUS
 10
172.5063305149
 20
126.3860551104
 11
172.4015645838
 21
126.0900041484
  0
LINE
  5
372
100
AcDbEntity
  8
0
100
AcDbLine
 62
253
  6
CONTINUOUS
 10
172.688644729
 20
125.6452427614
 11
172.953220282
 21
126.3915296601
  0
LINE
  5
373
100
AcDbEntity
  8
0
100
AcDbLine
 62
253
  6
CONTINUOUS
 10
172.3918332739
 20
123.5654341959
 11
172.407798626
 21
123.6045125346
  0
LINE
  5
374
100
AcDbEntity
  8
0
100
AcDbLine
 62
253
  6
CONTINUOUS
 10
172.372978048
 20
124.8536444824
 11
172.2659316382
 21
124.5945424784
  0
LINE
  5
375
100
AcDbEntity
  8
0
100
AcDbLine
 62
253
  6
CONTINUOUS
 10
172.53932691
 20
124.2271782764
 11
172.8245818718
 21
124.9077765821
  0
LINE
  5
376
100
AcDbEntity
  8
0
100
AcDbLine
 62
253
  6
CONTINUOUS
 10
174.3414824429
 20
125.1734168254
 11
174.2178622866
 21
124.9203967651
  0
LINE
  5
377
100
AcDbEntity
  8
0
100
AcDbLine
 62
253
  6
CONTINUOUS
 10
172.6816501937
 20
122.313413375
 11
172.6568651228
 21
122.2644516278
  0
LINE
  5
378
100
AcDbEntity
  8
0
100
AcDbLine
 62
253
  6
CONTINUOUS
 10
175.2875688934
 20
123.7921481992
 11
175.3293840066
 21
123.8547948198
  0
LINE
  5
379
100
AcDbEntity
  8
0
100
AcDbLine
 62
253
  6
CONTINUOUS
 10
174.9991208612
 20
124.2914969812
 11
175.0226891431
 21
124.325405968
  0
LINE
  5
37A
100
AcDbEntity
  8
0
100
AcDbLine
 62
253
  6
CONTINUOUS
 10
174.4251126695
 20
123.9746145119
 11
174.4722502339
 21
124.0421272877
  0
LINE
  5
37B
100
AcDbEntity
  8
0
100
AcDbLine
 62
253
  6
CONTINUOUS
 10
174.9754004807
 20
124.2578931922
 11
174.9991208612
 21
124.2914969812
  0
LINE
  5
37C
100
AcDbEntity
  8
0
100
AcDbLine
 62
253
  6
CONTINUOUS
 10
176.2220998511
 20
124.8633757922
 11
176.169336639
 21
124.8002738764
  0
LINE
  5
37D
100
AcDbEntity
  8
0
100
AcDbLine
 62
253
  6
CONTINUOUS
 10
174.6280065908
 20
107.1850851387
 11
173.8851491822
 21
107.1850851387
  0
LINE
  5
37E
100
AcDbEntity
  8
0
100
AcDbLine
 62
253
  6
CONTINUOUS
 10
168.8708636893
 20
107.1850851387
 11
167.9422920836
 21
107.1850851387
  0
LINE
  5
37F
100
AcDbEntity
  8
0
100
AcDbLine
 62
253
  6
CONTINUOUS
 10
169.6137207879
 20
107.1850851387
 11
170.7280062808
 21
107.1850851387
  0
LINE
  5
380
100
AcDbEntity
  8
0
100
AcDbLine
 62
253
  6
CONTINUOUS
 10
175.7422923936
 20
107.1850851387
 11
176.8565781964
 21
107.1850851387
  0
LINE
  5
381
100
AcDbEntity
  8
0
100
AcDbLine
 62
253
  6
CONTINUOUS
 10
172.7089588536
 20
107.9279423148
 11
171.7184827222
 21
107.9279423148
  0
LINE
  5
382
100
AcDbEntity
  8
0
100
AcDbLine
 62
253
  6
CONTINUOUS
 10
165.8994349851
 20
108.2993708641
 11
166.8280064358
 21
108.2993708641
  0
LINE
  5
383
100
AcDbEntity
  8
0
100
AcDbLine
 62
253
  6
CONTINUOUS
 10
169.6137207879
 20
108.6707994908
 11
170.3565778865
 21
108.6707994908
  0
LINE
  5
384
100
AcDbEntity
  8
0
100
AcDbLine
 62
253
  6
CONTINUOUS
 10
175.7422923936
 20
108.6707994908
 11
176.4851498021
 21
108.6707994908
  0
LINE
  5
385
100
AcDbEntity
  8
0
100
AcDbLine
 62
253
  6
CONTINUOUS
 10
167.1994349851
 20
109.4136565894
 11
166.8280064358
 21
109.7850851387
  0
LINE
  5
386
100
AcDbEntity
  8
ASSI
100
AcDbLine
 62
253
  6
CONTINUOUS
 10
177.4172996874
 20
97.3990263821
 11
177.4199308743
 21
97.3955978735
  0
LINE
  5
387
100
AcDbEntity
  8
RACCORDO
100
AcDbLine
 62
253
  6
CONTINUOUS
 10
177.4172996874
 20
97.3990263821
 11
177.4199308743
 21
97.3955978735
  0
LINE
  5
388
100
AcDbEntity
  8
RACCORDO
100
AcDbLine
 62
253
  6
CONTINUOUS
 10
177.4279092058
 20
97.4916351792
 11
177.4351937871
 21
97.4821279541
  0
LINE
  5
389
100
AcDbEntity
  8
0
100
AcDbLine
 62
253
  6
CONTINUOUS
 10
168.9327683939
 20
103.5850851387
 11
168.9327683939
 21
106.1850850227
  0
LINE
  5
38A
100
AcDbEntity
  8
0
100
AcDbLine
 62
253
  6
CONTINUOUS
 10
169.6137207879
 20
109.7850851387
 11
169.6137207879
 21
107.1850851861
  0
LINE
  5
38B
100
AcDbEntity
  8
0
100
AcDbLine
 62
253
  6
CONTINUOUS
 10
169.1854482267
 20
121.5005272928
 11
169.2508326225
 21
123.3022275305
  0
LINE
  5
38C
100
AcDbEntity
  8
0
100
AcDbLine
 62
253
  6
CONTINUOUS
 10
169.6633581076
 20
123.1151992598
 11
169.604056656
 21
121.4853214332
  0
LINE
  5
38D
100
AcDbEntity
  8
RACCORDO
100
AcDbLine
 62
7
  6
CONTINUOUS
 10
165.3259747067
 20
101.2100940128
 11
165.3321197319
 21
101.2318527255
  0
LWPOLYLINE
  5
38E
100
AcDbEntity
  8
RACCORDO
100
AcDbPolyline
 62
7
  6
CONTINUOUS
 90
5
 70
0
 10
165.3321197319
 20
101.2318527255
 10
165.3392540887
 20
101.2533184616
 10
165.347405062
 20
101.2745595858
 10
165.3565453668
 20
101.2955077333
 10
165.3665931479
 20
101.3159578093
  0
LINE
  5
38F
100
AcDbEntity
  8
0
100
AcDbLine
 62
253
  6
CONTINUOUS
 10
173.5425854313
 20
122.3394152349
 11
173.5220581213
 21
122.2839142475
  0
LWPOLYLINE
  5
390
100
AcDbEntity
  8
ASSI
100
AcDbPolyline
 62
253
  6
CONTINUOUS
 90
12
 70
0
 10
160.481882695
 20
90.3387900962
 10
160.4828990376
 20
90.3413344437
 10
160.4838973509
 20
90.3467836244
 10
160.4848776349
 20
90.3551376382
 10
160.4858461802
 20
90.3664809979
 10
160.4867966962
 20
90.3807291907
 10
160.4877103115
 20
90.3976286781
 10
160.488585763
 20
90.417225767
 10
160.4894243136
 20
90.4394741505
 10
160.490210881
 20
90.4639813688
 10
160.4909445996
 20
90.4907940347
 10
160.4922436009
 20
90.5506635732
  0
LWPOLYLINE
  5
391
100
AcDbEntity
  8
RACCORDO
100
AcDbPolyline
 62
253
  6
CONTINUOUS
 90
12
 70
0
 10
160.481882695
 20
90.3387900962
 10
160.4828990376
 20
90.3413344437
 10
160.4838973509
 20
90.3467836244
 10
160.4848776349
 20
90.3551376382
 10
160.4858461802
 20
90.3664809979
 10
160.4867966962
 20
90.3807291907
 10
160.4877103115
 20
90.3976286781
 10
160.488585763
 20
90.417225767
 10
160.4894243136
 20
90.4394741505
 10
160.490210881
 20
90.4639813688
 10
160.4909445996
 20
90.4907940347
 10
160.4922436009
 20
90.5506635732
  0
LINE
  5
392
100
AcDbEntity
  8
0
100
AcDbLine
 62
253
  6
CONTINUOUS
 10
174.3483248796
 20
123.0524005406
 11
174.3720462608
 21
123.1018185836
  0
LINE
  5
393
100
AcDbEntity
  8
0
100
AcDbLine
 62
253
  6
CONTINUOUS
 10
175.5779942076
 20
125.0070679634
 11
175.556858503
 21
124.9631244701
  0
LINE
  5
394
100
AcDbEntity
  8
0
100
AcDbLine
 62
253
  6
CONTINUOUS
 10
175.2500115409
 20
125.0654578239
 11
175.3074888096
 21
125.1842128257
  0
LINE
  5
395
100
AcDbEntity
  8
0
100
AcDbLine
 62
253
  6
CONTINUOUS
 10
174.53428846
 20
124.8515161023
 11
174.5622666012
 21
124.9092965676
  0
LINE
  5
396
100
AcDbEntity
  8
0
100
AcDbLine
 62
253
  6
CONTINUOUS
 10
173.6373158553
 20
121.5899352657
 11
174.3483248796
 21
123.0524005406
  0
LINE
  5
397
100
AcDbEntity
  8
0
100
AcDbLine
 62
253
  6
CONTINUOUS
 10
174.7488385761
 20
122.9185927785
 11
174.038284847
 21
121.4561275036
  0
LINE
  5
398
100
AcDbEntity
  8
0
100
AcDbLine
 62
253
  6
CONTINUOUS
 10
174.038284847
 20
121.4561275036
 11
174.0142602693
 21
121.4070136578
  0
LINE
  5
399
100
AcDbEntity
  8
0
100
AcDbLine
 62
253
  6
CONTINUOUS
 10
174.5622666012
 20
124.9092965676
 11
174.5903968411
 21
124.9664696391
  0
LINE
  5
39A
100
AcDbEntity
  8
0
100
AcDbLine
 62
253
  6
CONTINUOUS
 10
175.6185925319
 20
124.6339250144
 11
175.5970015321
 21
124.5948466757
  0
LINE
  5
39B
100
AcDbEntity
  8
0
100
AcDbLine
 62
253
  6
CONTINUOUS
 10
175.7397811116
 20
124.5296153791
 11
175.7814441262
 21
124.6006254227
  0
LINE
  5
39C
100
AcDbEntity
  8
0
100
AcDbLine
 62
253
  6
CONTINUOUS
 10
175.6167683491
 20
123.7101910575
 11
175.533746517
 21
123.5842894218
  0
LINE
  5
39D
100
AcDbEntity
  8
0
100
AcDbLine
 62
253
  6
CONTINUOUS
 10
176.5020323617
 20
123.8526664397
 11
176.4279823471
 21
123.7412101705
  0
LINE
  5
39E
100
AcDbEntity
  8
0
100
AcDbLine
 62
253
  6
CONTINUOUS
 10
176.1822610193
 20
123.9501336383
 11
176.2143448227
 21
123.9981827938
  0
LINE
  5
39F
100
AcDbEntity
  8
0
100
AcDbLine
 62
253
  6
CONTINUOUS
 10
176.8565781964
 20
109.7850851387
 11
175.7422923936
 21
109.7850851387
  0
LINE
  5
3A0
100
AcDbEntity
  8
0
100
AcDbLine
 62
253
  6
CONTINUOUS
 10
174.8137207879
 20
109.7850851387
 11
174.0708633794
 21
109.7850851387
  0
LINE
  5
3A1
100
AcDbEntity
  8
0
100
AcDbLine
 62
253
  6
CONTINUOUS
 10
170.7280062808
 20
109.7850851387
 11
169.6137207879
 21
109.7850851387
  0
LINE
  5
3A2
100
AcDbEntity
  8
0
100
AcDbLine
 62
253
  6
CONTINUOUS
 10
166.8280064358
 20
109.7850851387
 11
165.8994349851
 21
109.7850851387
  0
LINE
  5
3A3
100
AcDbEntity
  8
0
100
AcDbLine
 62
253
  6
CONTINUOUS
 10
173.8851491822
 20
107.1850851387
 11
173.6994349851
 21
107.3707994327
  0
LINE
  5
3A4
100
AcDbEntity
  8
0
100
AcDbLine
 62
253
  6
CONTINUOUS
 10
170.0693443525
 20
122.3635919112
 11
169.9781111961
 21
123.2316737828
  0
LINE
  5
3A5
100
AcDbEntity
  8
0
100
AcDbLine
 62
253
  6
CONTINUOUS
 10
170.3681330896
 20
123.525900562
 11
170.466056584
 21
122.5951710691
  0
LINE
  5
3A6
100
AcDbEntity
  8
0
100
AcDbLine
 62
253
  6
CONTINUOUS
 10
170.0743626063
 20
122.313413375
 11
170.0693443525
 21
122.3635919112
  0
LINE
  5
3A7
100
AcDbEntity
  8
0
100
AcDbLine
 62
253
  6
CONTINUOUS
 10
170.3641795261
 20
123.5654341959
 11
170.3681330896
 21
123.525900562
  0
LINE
  5
3A8
100
AcDbEntity
  8
0
100
AcDbLine
 62
253
  6
CONTINUOUS
 10
169.7999026442
 20
126.4269586325
 11
169.802792518
 21
126.3915296601
  0
LINE
  5
3A9
100
AcDbEntity
  8
0
100
AcDbLine
 62
253
  6
CONTINUOUS
 10
169.9288452517
 20
125.3040315171
 11
169.9314309282
 21
124.9077765821
  0
LINE
  5
3AA
100
AcDbEntity
  8
0
100
AcDbLine
 62
253
  6
CONTINUOUS
 10
170.3828816527
 20
124.8536444824
 11
170.3828816527
 21
125.3747373505
  0
LINE
  5
3AB
100
AcDbEntity
  8
0
100
AcDbLine
 62
253
  6
CONTINUOUS
 10
170.6041969432
 20
106.1850851387
 11
170.6041969432
 21
103.5850852547
  0
LINE
  5
3AC
100
AcDbEntity
  8
0
100
AcDbLine
 62
253
  6
CONTINUOUS
 10
172.3878797104
 20
123.525900562
 11
172.3918332739
 21
123.5654341959
  0
LINE
  5
3AD
100
AcDbEntity
  8
0
100
AcDbLine
 62
253
  6
CONTINUOUS
 10
172.7779006032
 20
123.2316737828
 11
172.6868195455
 21
122.3635919112
  0
LINE
  5
3AE
100
AcDbEntity
  8
0
100
AcDbLine
 62
253
  6
CONTINUOUS
 10
172.289956216
 20
122.5951710691
 11
172.3878797104
 21
123.525900562
  0
LINE
  5
3AF
100
AcDbEntity
  8
0
100
AcDbLine
 62
253
  6
CONTINUOUS
 10
175.0885288341
 20
125.1343384867
 11
175.1023658061
 21
125.1729605296
  0
LINE
  5
3B0
100
AcDbEntity
  8
0
100
AcDbLine
 62
253
  6
CONTINUOUS
 10
175.3071846124
 20
124.2148612899
 11
175.321173683
 21
124.2536354314
  0
LINE
  5
3B1
100
AcDbEntity
  8
0
100
AcDbLine
 62
253
  6
CONTINUOUS
 10
175.321173683
 20
124.2536354314
 11
175.3353148523
 21
124.2922574743
  0
LINE
  5
3B2
100
AcDbEntity
  8
0
100
AcDbLine
 62
253
  6
CONTINUOUS
 10
175.0743876649
 20
125.0960206411
 11
175.0885288341
 21
125.1343384867
  0
LINE
  5
3B3
100
AcDbEntity
  8
0
100
AcDbLine
 62
253
  6
CONTINUOUS
 10
175.8229550423
 20
123.7640179593
 11
175.8418102682
 21
123.8044651856
  0
LINE
  5
3B4
100
AcDbEntity
  8
RACCORDO
100
AcDbLine
 62
7
  6
CONTINUOUS
 10
165.3665931479
 20
101.3159578093
 11
165.377550733
 21
101.3358825387
  0
LINE
  5
3B5
100
AcDbEntity
  8
0
100
AcDbLine
 62
253
  6
CONTINUOUS
 10
166.8280064358
 20
108.2993708641
 11
167.1994349851
 21
108.6707994908
  0
LINE
  5
3B6
100
AcDbEntity
  8
0
100
AcDbLine
 62
253
  6
CONTINUOUS
 10
173.6994349851
 20
109.0422280401
 11
174.9994349851
 21
107.9279423148
  0
LINE
  5
3B7
100
AcDbEntity
  8
RACCORDO
100
AcDbLine
 62
7
  6
CONTINUOUS
 10
177.3784503851
 20
101.335902402
 11
177.3894112097
 21
101.3159740277
  0
LINE
  5
3B8
100
AcDbEntity
  8
0
100
AcDbLine
 62
253
  6
CONTINUOUS
 10
173.9470540418
 20
103.5850851387
 11
173.2041972531
 21
106.1850851387
  0
LINE
  5
3B9
100
AcDbEntity
  8
0
100
AcDbLine
 62
253
  6
CONTINUOUS
 10
172.372978048
 20
125.3747373634
 11
172.372978048
 21
124.8536444954
  0
LINE
  5
3BA
100
AcDbEntity
  8
0
100
AcDbLine
 62
253
  6
CONTINUOUS
 10
172.8245818718
 20
124.9077765821
 11
172.8271665477
 21
125.3040315171
  0
LINE
  5
3BB
100
AcDbEntity
  8
0
100
AcDbLine
 62
253
  6
CONTINUOUS
 10
173.6341227849
 20
121.53109011
 11
173.6373158553
 21
121.5899352657
  0
LINE
  5
3BC
100
AcDbEntity
  8
0
100
AcDbLine
 62
253
  6
CONTINUOUS
 10
174.2178622866
 20
124.9203967651
 11
174.2050890043
 21
124.7706226503
  0
LINE
  5
3BD
100
AcDbEntity
  8
0
100
AcDbLine
 62
253
  6
CONTINUOUS
 10
172.953220282
 20
126.3915296601
 11
172.9562612538
 21
126.4269586325
  0
LINE
  5
3BE
100
AcDbEntity
  8
0
100
AcDbLine
 62
253
  6
CONTINUOUS
 10
172.6868195455
 20
122.3635919112
 11
172.6816501937
 21
122.313413375
  0
LINE
  5
3BF
100
AcDbEntity
  8
0
100
AcDbLine
 62
253
  6
CONTINUOUS
 10
175.0226891431
 20
124.325405968
 11
175.0322683543
 21
124.3687410669
  0
LINE
  5
3C0
100
AcDbEntity
  8
0
100
AcDbLine
 62
253
  6
CONTINUOUS
 10
174.4155334582
 20
123.9321910041
 11
174.4251126695
 21
123.9746145119
  0
LINE
  5
3C1
100
AcDbEntity
  8
0
100
AcDbLine
 62
253
  6
CONTINUOUS
 10
175.3293840066
 20
123.8547948198
 11
175.3464140491
 21
123.9245880743
  0
LINE
  5
3C2
100
AcDbEntity
  8
0
100
AcDbLine
 62
253
  6
CONTINUOUS
 10
176.2143448227
 20
123.9981827938
 11
176.2401935833
 21
124.1034050207
  0
LINE
  5
3C3
100
AcDbEntity
  8
0
100
AcDbLine
 62
253
  6
CONTINUOUS
 10
175.6858011105
 20
123.9869314983
 11
175.6167683491
 21
123.7101910575
  0
LINE
  5
3C4
100
AcDbEntity
  8
0
100
AcDbLine
 62
253
  6
CONTINUOUS
 10
175.3464140491
 20
123.9245880743
 11
175.3637482887
 21
123.9934697378
  0
LINE
  5
3C5
100
AcDbEntity
  8
0
100
AcDbLine
 62
253
  6
CONTINUOUS
 10
172.2137207879
 20
109.7850851387
 11
171.4708633794
 21
107.1850851387
  0
LINE
  5
3C6
100
AcDbEntity
  8
0
100
AcDbLine
 62
253
  6
CONTINUOUS
 10
176.2354805273
 20
124.9053430041
 11
176.2220998511
 21
124.8633757922
  0
LWPOLYLINE
  5
3C7
100
AcDbEntity
  8
RACCORDO
100
AcDbPolyline
 62
7
  6
CONTINUOUS
 90
18
 70
0
 10
165.377550733
 20
101.3358825387
 10
165.3894157944
 20
101.3553091965
 10
165.402099494
 20
101.3741145126
 10
165.4155793151
 20
101.3922694331
 10
165.4298777744
 20
101.4098030119
 10
165.444973583
 20
101.4266791405
 10
165.4609070763
 20
101.4429359837
 10
165.4776379191
 20
101.4585353766
 10
165.4950238168
 20
101.4733267166
 10
165.5130759694
 20
101.4872956087
 10
165.531783177
 20
101.5004564478
 10
165.5509695458
 20
101.5127018161
 10
165.5705888318
 20
101.5240001296
 10
165.590687279
 20
101.5343829724
 10
165.6112277258
 20
101.5438376785
 10
165.6322448745
 20
101.5523810107
 10
165.6537040228
 20
101.5599962063
 10
165.6754639022
 20
101.5666203121
  0
LINE
  5
3C8
100
AcDbEntity
  8
0
100
AcDbLine
 62
253
  6
CONTINUOUS
 10
167.1375303669
 20
106.1850851387
 11
166.7661017789
 21
105.8136565894
  0
LINE
  5
3C9
100
AcDbEntity
  8
0
100
AcDbLine
 62
253
  6
CONTINUOUS
 10
174.9994349851
 20
109.5993707866
 11
174.8137207879
 21
109.7850851387
  0
LINE
  5
3CA
100
AcDbEntity
  8
0
100
AcDbLine
 62
253
  6
CONTINUOUS
 10
175.9899114503
 20
103.5850851387
 11
174.6899114503
 21
106.1850851387
  0
LWPOLYLINE
  5
3CB
100
AcDbEntity
  8
RACCORDO
100
AcDbPolyline
 62
7
  6
CONTINUOUS
 90
5
 70
0
 10
177.3894112097
 20
101.3159740277
 10
177.3994615216
 20
101.2955203477
 10
177.40860403
 20
101.2745684104
 10
177.4167567128
 20
101.2533240553
 10
177.4238922297
 20
101.2318558957
  0
LINE
  5
3CC
100
AcDbEntity
  8
0
100
AcDbLine
 62
253
  6
CONTINUOUS
 10
169.2059765375
 20
121.4451794048
 11
169.1854482267
 21
121.5005272928
  0
LINE
  5
3CD
100
AcDbEntity
  8
0
100
AcDbLine
 62
253
  6
CONTINUOUS
 10
172.9565775765
 20
107.1850851387
 11
172.2137207879
 21
109.7850851387
  0
LINE
  5
3CE
100
AcDbEntity
  8
0
100
AcDbLine
 62
253
  6
CONTINUOUS
 10
173.540152854
 20
122.3940026298
 11
173.5425854313
 21
122.3394152349
  0
LINE
  5
3CF
100
AcDbEntity
  8
0
100
AcDbLine
 62
253
  6
CONTINUOUS
 10
173.1236738055
 20
122.3231446849
 11
173.0925025938
 21
123.1151992598
  0
LINE
  5
3D0
100
AcDbEntity
  8
0
100
AcDbLine
 62
253
  6
CONTINUOUS
 10
173.5051801775
 20
123.3022275305
 11
173.540152854
 21
122.3940026298
  0
LINE
  5
3D1
100
AcDbEntity
  8
0
100
AcDbLine
 62
253
  6
CONTINUOUS
 10
173.6994349851
 20
109.4136565894
 11
173.6994349851
 21
109.0422280275
  0
LINE
  5
3D2
100
AcDbEntity
  8
0
100
AcDbLine
 62
253
  6
CONTINUOUS
 10
174.6899114503
 20
106.1850851387
 11
174.6899114503
 21
103.5850852547
  0
LINE
  5
3D3
100
AcDbEntity
  8
0
100
AcDbLine
 62
253
  6
CONTINUOUS
 10
174.752640041
 20
122.9777421314
 11
174.7488385761
 21
122.9185927785
  0
LINE
  5
3D4
100
AcDbEntity
  8
0
100
AcDbLine
 62
253
  6
CONTINUOUS
 10
175.2303968225
 20
124.820192792
 11
175.2399760338
 21
124.9424450614
  0
LINE
  5
3D5
100
AcDbEntity
  8
0
100
AcDbLine
 62
253
  6
CONTINUOUS
 10
175.2399760338
 20
124.9424450614
 11
175.2500115409
 21
125.0654578239
  0
LINE
  5
3D6
100
AcDbEntity
  8
0
100
AcDbLine
 62
253
  6
CONTINUOUS
 10
175.556858503
 20
124.9631244701
 11
175.5494076718
 21
124.8723476096
  0
LINE
  5
3D7
100
AcDbEntity
  8
0
100
AcDbLine
 62
253
  6
CONTINUOUS
 10
174.5282065164
 20
124.7836991292
 11
174.53428846
 21
124.8515161023
  0
LINE
  5
3D8
100
AcDbEntity
  8
0
100
AcDbLine
 62
253
  6
CONTINUOUS
 10
175.6287811383
 20
124.714970565
 11
175.623914983
 21
124.6743722407
  0
LINE
  5
3D9
100
AcDbEntity
  8
0
100
AcDbLine
 62
253
  6
CONTINUOUS
 10
175.7343065618
 20
124.4855197872
 11
175.7397811116
 21
124.5296153791
  0
LINE
  5
3DA
100
AcDbEntity
  8
0
100
AcDbLine
 62
253
  6
CONTINUOUS
 10
175.623914983
 20
124.6743722407
 11
175.6185925319
 21
124.6339250144
  0
LINE
  5
3DB
100
AcDbEntity
  8
0
100
AcDbLine
 62
253
  6
CONTINUOUS
 10
176.5623985037
 20
124.0988430627
 11
176.5020323617
 21
123.8526664397
  0
LINE
  5
3DC
100
AcDbEntity
  8
0
100
AcDbLine
 62
253
  6
CONTINUOUS
 10
173.2041972531
 20
106.1850851387
 11
172.4613398446
 21
103.5850851387
  0
LWPOLYLINE
  5
3DD
100
AcDbEntity
  8
ASSI
100
AcDbPolyline
 62
253
  6
CONTINUOUS
 90
12
 70
0
 10
182.274130105
 20
133.3313801813
 10
182.2731134882
 20
133.3288367826
 10
182.2721148089
 20
133.3233842563
 10
182.2711340671
 20
133.3150226024
 10
182.2701649109
 20
133.3036670352
 10
182.2692136922
 20
133.2894023403
 10
182.2682994673
 20
133.272482875
 10
182.2674234695
 20
133.2528573149
 10
182.2665844655
 20
133.2305769844
 10
182.2657978116
 20
133.2060502132
 10
182.2650646134
 20
133.1792385007
 10
182.2637673069
 20
133.1193995857
  0
LWPOLYLINE
  5
3DE
100
AcDbEntity
  8
RACCORDO
100
AcDbPolyline
 62
253
  6
CONTINUOUS
 90
12
 70
0
 10
182.274130105
 20
133.3313801813
 10
182.2731134882
 20
133.3288367826
 10
182.2721148089
 20
133.3233842563
 10
182.2711340671
 20
133.3150226024
 10
182.2701649109
 20
133.3036670352
 10
182.2692136922
 20
133.2894023403
 10
182.2682994673
 20
133.272482875
 10
182.2674234695
 20
133.2528573149
 10
182.2665844655
 20
133.2305769844
 10
182.2657978116
 20
133.2060502132
 10
182.2650646134
 20
133.1792385007
 10
182.2637673069
 20
133.1193995857
  0
LINE
  5
3DF
100
AcDbEntity
  8
0
100
AcDbLine
 62
253
  6
CONTINUOUS
 10
174.0708633794
 20
109.7850851387
 11
173.6994349851
 21
109.4136565894
  0
LINE
  5
3E0
100
AcDbEntity
  8
0
100
AcDbLine
 62
253
  6
CONTINUOUS
 10
169.802792518
 20
126.3915296601
 11
170.0676722683
 21
125.6452427614
  0
LINE
  5
3E1
100
AcDbEntity
  8
RACCORDO
100
AcDbLine
 62
7
  6
CONTINUOUS
 10
177.4238922297
 20
101.2318558957
 11
177.4300379211
 21
101.2100953184
  0
LWPOLYLINE
  5
3E2
100
AcDbEntity
  8
ASSI
100
AcDbPolyline
 62
7
  6
CONTINUOUS
 90
13
 70
0
 10
177.4172996322
 20
101.2711441457
 10
177.404980077
 20
101.3150486218
 10
177.3878276108
 20
101.357087709
 10
177.366124102
 20
101.3967448835
 10
177.3402444801
 20
101.4334944197
 10
177.3105408262
 20
101.4669683456
 10
177.2772817852
 20
101.4969124496
 10
177.2408826368
 20
101.5229522028
 10
177.2017996419
 20
101.5447607782
 10
177.1603415189
 20
101.5621290291
 10
177.1169445859
 20
101.5747925001
 10
177.0722021405
 20
101.5824990779
 10
177.0266792485
 20
101.5850851387
  0
LWPOLYLINE
  5
3E3
100
AcDbEntity
  8
RACCORDO
100
AcDbPolyline
 62
7
  6
CONTINUOUS
 90
13
 70
0
 10
177.4172996322
 20
101.2711441457
 10
177.404980077
 20
101.3150486218
 10
177.3878276108
 20
101.357087709
 10
177.366124102
 20
101.3967448835
 10
177.3402444801
 20
101.4334944197
 10
177.3105408262
 20
101.4669683456
 10
177.2772817852
 20
101.4969124496
 10
177.2408826368
 20
101.5229522028
 10
177.2017996419
 20
101.5447607782
 10
177.1603415189
 20
101.5621290291
 10
177.1169445859
 20
101.5747925001
 10
177.0722021405
 20
101.5824990779
 10
177.0266792485
 20
101.5850851387
  0
LINE
  5
3E4
100
AcDbEntity
  8
RACCORDO
100
AcDbLine
 62
7
  6
CONTINUOUS
 10
177.4300379211
 20
101.2100953184
 11
177.4351937872
 21
101.1880423233
  0
LINE
  5
3E5
100
AcDbEntity
  8
0
100
AcDbLine
 62
253
  6
CONTINUOUS
 10
175.3090087952
 20
124.1706135994
 11
175.3071846124
 21
124.2148612899
  0
LINE
  5
3E6
100
AcDbEntity
  8
0
100
AcDbLine
 62
253
  6
CONTINUOUS
 10
175.1023658061
 20
125.1729605296
 11
175.1006937219
 21
125.2175124174
  0
LINE
  5
3E7
100
AcDbEntity
  8
0
100
AcDbLine
 62
253
  6
CONTINUOUS
 10
174.9994349851
 20
107.9279423148
 11
174.9994349851
 21
107.5565137266
  0
LINE
  5
3E8
100
AcDbEntity
  8
0
100
AcDbLine
 62
253
  6
CONTINUOUS
 10
175.7422923936
 20
109.7850851387
 11
175.7422923936
 21
107.1850851861
  0
LINE
  5
3E9
100
AcDbEntity
  8
ASSI
100
AcDbLine
 62
7
  6
CONTINUOUS
 10
175.8780064
 20
101.5875954644
 11
175.8780064
 21
101.5789763313
  0
LINE
  5
3EA
100
AcDbEntity
  8
ASSI
100
AcDbLine
 62
7
  6
CONTINUOUS
 10
175.8780064
 20
97.0911939462
 11
175.8780064
 21
97.082574813
  0
LINE
  5
3EB
100
AcDbEntity
  8
0
100
AcDbLine
 62
253
  6
CONTINUOUS
 10
175.9899114503
 20
106.1850851387
 11
175.9899114503
 21
103.5850852547
  0
LINE
  5
3EC
100
AcDbEntity
  8
DRAFT
100
AcDbLine
 62
7
  6
CONTINUOUS
 10
176.3780064
 20
101.5850851387
 11
176.3780064
 21
101.5789763313
  0
LINE
  5
3ED
100
AcDbEntity
  8
DRAFT
100
AcDbLine
 62
7
  6
CONTINUOUS
 10
176.3780064
 20
97.0850851387
 11
176.3780064
 21
97.0911939462
  0
LINE
  5
3EE
100
AcDbEntity
  8
0
100
AcDbLine
 62
253
  6
CONTINUOUS
 10
175.8208266622
 20
123.7228112405
 11
175.8229550423
 21
123.7640179593
  0
LINE
  5
3EF
100
AcDbEntity
  8
0
100
AcDbLine
 62
253
  6
CONTINUOUS
 10
175.8183930843
 20
123.6825171135
 11
175.8208266622
 21
123.7228112405
  0
LINE
  5
3F0
100
AcDbEntity
  8
RACCORDO
100
AcDbLine
 62
253
  6
CONTINUOUS
 10
165.3281035943
 20
97.4916351792
 11
165.3208190129
 21
97.4821279541
  0
LINE
  5
3F1
100
AcDbEntity
  8
ASSI
100
AcDbLine
 62
253
  6
CONTINUOUS
 10
165.3387131157
 20
97.3990263683
 11
165.3360819257
 21
97.3955978735
  0
LINE
  5
3F2
100
AcDbEntity
  8
RACCORDO
100
AcDbLine
 62
253
  6
CONTINUOUS
 10
165.3387131157
 20
97.3990263683
 11
165.3360819257
 21
97.3955978735
  0
LINE
  5
3F3
100
AcDbEntity
  8
RACCORDO
100
AcDbLine
 62
253
  6
CONTINUOUS
 10
165.8173159221
 20
97.0939874202
 11
165.8100885704
 21
97.0850851387
  0
LINE
  5
3F4
100
AcDbEntity
  8
0
100
AcDbLine
 62
253
  6
CONTINUOUS
 10
169.2807870452
 20
121.3648943473
 11
169.2059765375
 21
121.4451794048
  0
LINE
  5
3F5
100
AcDbEntity
  8
0
100
AcDbLine
 62
253
  6
CONTINUOUS
 10
170.0991476772
 20
122.2644516278
 11
170.0743626063
 21
122.313413375
  0
LINE
  5
3F6
100
AcDbEntity
  8
0
100
AcDbLine
 62
253
  6
CONTINUOUS
 10
169.9314309282
 20
124.9077765821
 11
170.21668589
 21
124.2271782764
  0
LINE
  5
3F7
100
AcDbEntity
  8
0
100
AcDbLine
 62
253
  6
CONTINUOUS
 10
170.4900811618
 20
124.5945424784
 11
170.3828816527
 21
124.8536444824
  0
LINE
  5
3F8
100
AcDbEntity
  8
0
100
AcDbLine
 62
253
  6
CONTINUOUS
 10
170.3482131734
 20
123.6040562388
 11
170.3641795261
 21
123.5654341959
  0
LINE
  5
3F9
100
AcDbEntity
  8
0
100
AcDbLine
 62
253
  6
CONTINUOUS
 10
170.3546003148
 20
126.0900041484
 11
170.2495301865
 21
126.3860551104
  0
LWPOLYLINE
  5
3FA
100
AcDbEntity
  8
ASSI
100
AcDbPolyline
 62
7
  6
CONTINUOUS
 90
13
 70
0
 10
177.417026953
 20
101.2723816363
 10
177.4813608155
 20
100.9531443445
 10
177.534089183
 20
100.631884839
 10
177.5751534742
 20
100.3090251947
 10
177.6045081125
 20
99.9850212942
 10
177.622129916
 20
99.6602653646
 10
177.6280064
 20
99.3350847859
 10
177.6221298896
 20
99.0099041817
 10
177.6045080578
 20
98.6851482275
 10
177.5751533979
 20
98.3611443813
 10
177.5340891039
 20
98.038284895
 10
177.481360759
 20
97.7170256236
 10
177.4170269527
 20
97.3977886398
  0
LWPOLYLINE
  5
3FB
100
AcDbEntity
  8
RACCORDO
100
AcDbPolyline
 62
7
  6
CONTINUOUS
 90
13
 70
0
 10
177.417026953
 20
101.2723816363
 10
177.4813608155
 20
100.9531443445
 10
177.534089183
 20
100.631884839
 10
177.5751534742
 20
100.3090251947
 10
177.6045081125
 20
99.9850212942
 10
177.622129916
 20
99.6602653646
 10
177.6280064
 20
99.3350847859
 10
177.6221298896
 20
99.0099041817
 10
177.6045080578
 20
98.6851482275
 10
177.5751533979
 20
98.3611443813
 10
177.5340891039
 20
98.038284895
 10
177.481360759
 20
97.7170256236
 10
177.4170269527
 20
97.3977886398
  0
LWPOLYLINE
  5
3FC
100
AcDbEntity
  8
RACCORDO
100
AcDbPolyline
 62
253
  6
CONTINUOUS
 90
19
 70
0
 10
177.4265795366
 20
101.176800576
 10
177.4664605245
 20
100.9750759988
 10
177.5017414224
 20
100.772367029
 10
177.5323952132
 20
100.5687780911
 10
177.5584003422
 20
100.3643875721
 10
177.5797301906
 20
100.1593281095
 10
177.5963592569
 20
99.9537871824
 10
177.6082747197
 20
99.7478930881
 10
177.6154690274
 20
99.5417331096
 10
177.6179351135
 20
99.3354343092
 10
177.6156698238
 20
99.1291051582
 10
177.6086724328
 20
98.9228539803
 10
177.5969458142
 20
98.7168077691
 10
177.5804936581
 20
98.5110543329
 10
177.5593248974
 20
98.3057225271
 10
177.5334607813
 20
98.1010001247
 10
177.5029239592
 20
97.8970206032
 10
177.4677323386
 20
97.6938636985
 10
177.4279092058
 20
97.4916351792
  0
LWPOLYLINE
  5
3FD
100
AcDbEntity
  8
RACCORDO
100
AcDbPolyline
 62
253
  6
CONTINUOUS
 90
19
 70
0
 10
177.2797670473
 20
101.1412408079
 10
177.3190213902
 20
100.9423987797
 10
177.3537041505
 20
100.7427859219
 10
177.3838153282
 20
100.5424033988
 10
177.4093748617
 20
100.3411201035
 10
177.4303628126
 20
100.1390695684
 10
177.4467193659
 20
99.9366498407
 10
177.4584310377
 20
99.7338827229
 10
177.4655113119
 20
99.5307486956
 10
177.467940825
 20
99.3275836175
 10
177.4657105916
 20
99.1243882302
 10
177.4588295971
 20
98.9211638978
 10
177.4473054338
 20
98.7182471768
 10
177.4311246142
 20
98.5156175182
 10
177.4103006258
 20
98.3132973083
 10
177.3848815237
 20
98.1116871988
 10
177.3548833262
 20
97.9109211342
 10
177.3202900149
 20
97.7108665391
 10
177.2811015899
 20
97.5115240876
  0
LWPOLYLINE
  5
3FE
100
AcDbEntity
  8
ASSI
100
AcDbPolyline
 62
253
  6
CONTINUOUS
 90
10
 70
0
 10
177.421359772
 20
101.2764345416
 10
177.5044515008
 20
100.8511306153
 10
177.567025026
 20
100.4218414489
 10
177.6088657157
 20
99.9895561272
 10
177.6298115995
 20
99.5550489005
 10
177.6297170917
 20
99.1195591632
 10
177.6085636281
 20
98.6847888315
 10
177.5664579181
 20
98.2519808317
 10
177.5035216245
 20
97.8219170147
 10
177.4199308743
 20
97.3955978735
  0
LWPOLYLINE
  5
3FF
100
AcDbEntity
  8
RACCORDO
100
AcDbPolyline
 62
253
  6
CONTINUOUS
 90
10
 70
0
 10
177.421359772
 20
101.2764345416
 10
177.5044515008
 20
100.8511306153
 10
177.567025026
 20
100.4218414489
 10
177.6088657157
 20
99.9895561272
 10
177.6298115995
 20
99.5550489005
 10
177.6297170917
 20
99.1195591632
 10
177.6085636281
 20
98.6847888315
 10
177.5664579181
 20
98.2519808317
 10
177.5035216245
 20
97.8219170147
 10
177.4199308743
 20
97.3955978735
  0
LWPOLYLINE
  5
400
100
AcDbEntity
  8
ASSI
100
AcDbPolyline
 62
253
  6
CONTINUOUS
 90
10
 70
0
 10
177.5190046009
 20
101.2949363224
 10
177.6032982948
 20
100.8629110593
 10
177.6664919594
 20
100.4287598159
 10
177.7085855947
 20
99.9924939139
 10
177.7295965144
 20
99.5528092147
 10
177.7295074047
 20
99.1110341212
 10
177.7082663243
 20
98.6711261956
 10
177.6658559595
 20
98.2344091757
 10
177.6022936241
 20
97.7995763641
 10
177.517579318
 20
97.3666362533
  0
LWPOLYLINE
  5
401
100
AcDbEntity
  8
RACCORDO
100
AcDbPolyline
 62
253
  6
CONTINUOUS
 90
10
 70
0
 10
177.5190046009
 20
101.2949363224
 10
177.6032982948
 20
100.8629110593
 10
177.6664919594
 20
100.4287598159
 10
177.7085855947
 20
99.9924939139
 10
177.7295965144
 20
99.5528092147
 10
177.7295074047
 20
99.1110341212
 10
177.7082663243
 20
98.6711261956
 10
177.6658559595
 20
98.2344091757
 10
177.6022936241
 20
97.7995763641
 10
177.517579318
 20
97.3666362533
  0
LINE
  5
402
100
AcDbEntity
  8
0
100
AcDbLine
 62
253
  6
CONTINUOUS
 10
174.4473130644
 20
123.7506372832
 11
174.4225279935
 21
123.8909842853
  0
LINE
  5
403
100
AcDbEntity
  8
0
100
AcDbLine
 62
253
  6
CONTINUOUS
 10
174.4225279935
 20
123.8909842853
 11
174.4155334582
 21
123.9321910041
  0
LINE
  5
404
100
AcDbEntity
  8
0
100
AcDbLine
 62
253
  6
CONTINUOUS
 10
172.9562612538
 20
126.4269586325
 11
172.9450089577
 21
126.4958392954
  0
LINE
  5
405
100
AcDbEntity
  8
0
100
AcDbLine
 62
253
  6
CONTINUOUS
 10
176.5487136303
 20
124.2323476282
 11
176.5623985037
 21
124.0988430627
  0
LINE
  5
406
100
AcDbEntity
  8
0
100
AcDbLine
 62
253
  6
CONTINUOUS
 10
175.3637482887
 20
123.9934697378
 11
175.3562984582
 21
124.0685844428
  0
LINE
  5
407
100
AcDbEntity
  8
0
100
AcDbLine
 62
253
  6
CONTINUOUS
 10
175.6715078426
 20
124.1367056131
 11
175.6858011105
 21
123.9869314983
  0
LINE
  5
408
100
AcDbEntity
  8
0
100
AcDbLine
 62
253
  6
CONTINUOUS
 10
176.2316790624
 20
124.9463986249
 11
176.2354805273
 21
124.9053430041
  0
LINE
  5
409
100
AcDbEntity
  8
0
100
AcDbLine
 62
253
  6
CONTINUOUS
 10
175.9225506209
 20
124.8778211587
 11
175.918749156
 21
124.9190288782
  0
LINE
  5
40A
100
AcDbEntity
  8
0
100
AcDbLine
 62
253
  6
CONTINUOUS
 10
175.918749156
 20
124.9190288782
 11
175.9147965931
 21
124.9640370618
  0
LINE
  5
40B
100
AcDbEntity
  8
0
100
AcDbLine
 62
253
  6
CONTINUOUS
 10
176.2210351608
 20
125.0691071902
 11
176.2316790624
 21
124.9463986249
  0
LINE
  5
40C
100
AcDbEntity
  8
RACCORDO
100
AcDbLine
 62
253
  6
CONTINUOUS
 10
176.9371440952
 20
101.574271229
 11
176.9371440952
 21
101.4199113522
  0
LINE
  5
40D
100
AcDbEntity
  8
RACCORDO
100
AcDbLine
 62
253
  6
CONTINUOUS
 10
176.9386968779
 20
97.0939874202
 11
176.9386968779
 21
97.2326528301
  0
LINE
  5
40E
100
AcDbEntity
  8
ASSI
100
AcDbLine
 62
253
  6
CONTINUOUS
 10
177.0291265269
 20
96.9741869283
 11
177.0291265269
 21
97.0820396742
  0
LINE
  5
40F
100
AcDbEntity
  8
RACCORDO
100
AcDbLine
 62
253
  6
CONTINUOUS
 10
177.0291265269
 20
96.9741869283
 11
177.0291265269
 21
97.0820396742
  0
LINE
  5
410
100
AcDbEntity
  8
ASSI
100
AcDbLine
 62
253
  6
CONTINUOUS
 10
177.030858523
 20
101.6876633205
 11
177.0308585245
 21
101.5902864857
  0
LINE
  5
411
100
AcDbEntity
  8
RACCORDO
100
AcDbLine
 62
253
  6
CONTINUOUS
 10
177.030858523
 20
101.6876633205
 11
177.0308585245
 21
101.5902864857
  0
LWPOLYLINE
  5
412
100
AcDbEntity
  8
ASSI
100
AcDbPolyline
 62
253
  6
CONTINUOUS
 90
8
 70
0
 10
181.7743014426
 20
133.8312088438
 10
181.7732786713
 20
133.8261765696
 10
181.7722759995
 20
133.8151661072
 10
181.771293427
 20
133.7982439235
 10
181.7703253732
 20
133.7755116724
 10
181.7693774188
 20
133.7471064446
 10
181.7684663061
 20
133.7132006792
 10
181.7667556428
 20
133.6297406484
  0
LWPOLYLINE
  5
413
100
AcDbEntity
  8
RACCORDO
100
AcDbPolyline
 62
253
  6
CONTINUOUS
 90
8
 70
0
 10
181.7743014426
 20
133.8312088438
 10
181.7732786713
 20
133.8261765696
 10
181.7722759995
 20
133.8151661072
 10
181.771293427
 20
133.7982439235
 10
181.7703253732
 20
133.7755116724
 10
181.7693774188
 20
133.7471064446
 10
181.7684663061
 20
133.7132006792
 10
181.7667556428
 20
133.6297406484
  0
LINE
  5
414
100
AcDbEntity
  8
0
100
AcDbLine
 62
253
  6
CONTINUOUS
 10
174.9994349851
 20
107.5565137267
 11
174.6280065908
 21
107.1850851387
  0
LINE
  5
415
100
AcDbEntity
  8
0
100
AcDbLine
 62
253
  6
CONTINUOUS
 10
170.3226686101
 20
123.6350753518
 11
170.3482131734
 21
123.6040562388
  0
LINE
  5
416
100
AcDbEntity
  8
0
100
AcDbLine
 62
253
  6
CONTINUOUS
 10
170.297579342
 20
123.6665507608
 11
170.3226686101
 21
123.6350753518
  0
LINE
  5
417
100
AcDbEntity
  8
0
100
AcDbLine
 62
253
  6
CONTINUOUS
 10
173.148610975
 20
122.2694698817
 11
173.1236738055
 21
122.3231446849
  0
LINE
  5
418
100
AcDbEntity
  8
0
100
AcDbLine
 62
253
  6
CONTINUOUS
 10
172.2659316382
 20
125.6333830714
 11
172.372978048
 21
125.3747373634
  0
LINE
  5
419
100
AcDbEntity
  8
0
100
AcDbLine
 62
253
  6
CONTINUOUS
 10
172.8271665477
 20
125.3040315171
 11
172.688644729
 21
125.6452427614
  0
LINE
  5
41A
100
AcDbEntity
  8
0
100
AcDbLine
 62
253
  6
CONTINUOUS
 10
173.6698559546
 20
121.4267804748
 11
173.6341227849
 21
121.53109011
  0
LINE
  5
41B
100
AcDbEntity
  8
0
100
AcDbLine
 62
253
  6
CONTINUOUS
 10
173.4927110924
 20
123.3402411789
 11
173.5051801775
 21
123.3022275305
  0
LINE
  5
41C
100
AcDbEntity
  8
0
100
AcDbLine
 62
253
  6
CONTINUOUS
 10
174.5459970519
 20
124.7219651003
 11
174.5282065164
 21
124.7836991292
  0
LINE
  5
41D
100
AcDbEntity
  8
0
100
AcDbLine
 62
253
  6
CONTINUOUS
 10
174.2050890043
 20
124.7706226503
 11
174.2826372872
 21
124.4999651537
  0
LINE
  5
41E
100
AcDbEntity
  8
0
100
AcDbLine
 62
253
  6
CONTINUOUS
 10
174.5633312916
 20
124.6606873673
 11
174.5459970519
 21
124.7219651003
  0
LINE
  5
41F
100
AcDbEntity
  8
0
100
AcDbLine
 62
253
  6
CONTINUOUS
 10
174.7248139983
 20
123.9861710052
 11
174.7322638289
 21
123.9455716803
  0
LINE
  5
420
100
AcDbEntity
  8
0
100
AcDbLine
 62
253
  6
CONTINUOUS
 10
175.0322683543
 20
124.3687410669
 11
175.0178239885
 21
124.4496345189
  0
LINE
  5
421
100
AcDbEntity
  8
0
100
AcDbLine
 62
253
  6
CONTINUOUS
 10
174.7322638289
 20
123.9455716803
 11
174.7445808153
 21
123.8754742285
  0
LINE
  5
422
100
AcDbEntity
  8
0
100
AcDbLine
 62
253
  6
CONTINUOUS
 10
176.2401935833
 20
124.1034050207
 11
176.2338074424
 21
124.1608822895
  0
LINE
  5
423
100
AcDbEntity
  8
ASSI
100
AcDbLine
 62
253
  6
CONTINUOUS
 10
160.3780064
 20
90.2349138012
 11
160.481882695
 21
90.3387900962
  0
LINE
  5
424
100
AcDbEntity
  8
RACCORDO
100
AcDbLine
 62
253
  6
CONTINUOUS
 10
160.3780064
 20
90.2349138012
 11
160.481882695
 21
90.3387900962
  0
LINE
  5
425
100
AcDbEntity
  8
ASSI
100
AcDbLine
 62
253
  6
CONTINUOUS
 10
160.8778350625
 20
89.7350851387
 11
160.9817113575
 21
89.8389614337
  0
LINE
  5
426
100
AcDbEntity
  8
RACCORDO
100
AcDbLine
 62
253
  6
CONTINUOUS
 10
160.8778350625
 20
89.7350851387
 11
160.9817113575
 21
89.8389614337
  0
LINE
  5
427
100
AcDbEntity
  8
0
100
AcDbLine
 62
253
  6
CONTINUOUS
 10
169.3343107505
 20
121.3399571778
 11
169.2807870452
 21
121.3648943473
  0
LINE
  5
428
100
AcDbEntity
  8
0
100
AcDbLine
 62
253
  6
CONTINUOUS
 10
170.1371613256
 20
122.230391543
 11
170.0991476772
 21
122.2644516278
  0
LINE
  5
429
100
AcDbEntity
  8
0
100
AcDbLine
 62
253
  6
CONTINUOUS
 10
170.1753270726
 20
122.1957230636
 11
170.1371613256
 21
122.230391543
  0
LINE
  5
42A
100
AcDbEntity
  8
0
100
AcDbLine
 62
253
  6
CONTINUOUS
 10
170.21668589
 20
124.2271782764
 11
170.4978351895
 21
123.947701061
  0
LINE
  5
42B
100
AcDbEntity
  8
0
100
AcDbLine
 62
253
  6
CONTINUOUS
 10
170.6745237559
 20
124.4105561802
 11
170.4900811618
 21
124.5945424784
  0
LINE
  5
42C
100
AcDbEntity
  8
ASSI
100
AcDbLine
 62
253
  6
CONTINUOUS
 10
160.481882695
 20
133.3313801813
 11
160.3780064
 21
133.4352564762
  0
LINE
  5
42D
100
AcDbEntity
  8
RACCORDO
100
AcDbLine
 62
253
  6
CONTINUOUS
 10
160.481882695
 20
133.3313801813
 11
160.3780064
 21
133.4352564762
  0
LINE
  5
42E
100
AcDbEntity
  8
ASSI
100
AcDbLine
 62
253
  6
CONTINUOUS
 10
160.9817113575
 20
133.8312088438
 11
160.8778350625
 21
133.9350851387
  0
LINE
  5
42F
100
AcDbEntity
  8
RACCORDO
100
AcDbLine
 62
253
  6
CONTINUOUS
 10
160.9817113575
 20
133.8312088438
 11
160.8778350625
 21
133.9350851387
  0
LINE
  5
430
100
AcDbEntity
  8
0
100
AcDbLine
 62
253
  6
CONTINUOUS
 10
170.8585100542
 20
124.226113586
 11
170.6745237559
 21
124.4105561802
  0
LINE
  5
431
100
AcDbEntity
  8
0
100
AcDbLine
 62
253
  6
CONTINUOUS
 10
173.709086392
 20
121.3828369814
 11
173.6698559546
 21
121.4267804748
  0
LINE
  5
432
100
AcDbEntity
  8
0
100
AcDbLine
 62
253
  6
CONTINUOUS
 10
173.4490717963
 20
123.4053203768
 11
173.4927110924
 21
123.3402411789
  0
LINE
  5
433
100
AcDbEntity
  8
0
100
AcDbLine
 62
253
  6
CONTINUOUS
 10
172.9450089577
 20
126.4958392954
 11
172.9308677885
 21
126.5289867885
  0
LINE
  5
434
100
AcDbEntity
  8
0
100
AcDbLine
 62
253
  6
CONTINUOUS
 10
175.8332947466
 20
123.6402457043
 11
175.8183930843
 21
123.6825171135
  0
LINE
  5
435
100
AcDbEntity
  8
0
100
AcDbLine
 62
253
  6
CONTINUOUS
 10
174.7345453082
 20
123.0292885546
 11
174.752640041
 21
122.9777421314
  0
LINE
  5
436
100
AcDbEntity
  8
0
100
AcDbLine
 62
253
  6
CONTINUOUS
 10
174.7167547727
 20
123.0808349777
 11
174.7345453082
 21
123.0292885546
  0
LINE
  5
437
100
AcDbEntity
  8
0
100
AcDbLine
 62
253
  6
CONTINUOUS
 10
175.5494076718
 20
124.8723476096
 11
175.5635488411
 21
124.8259705383
  0
LINE
  5
438
100
AcDbEntity
  8
0
100
AcDbLine
 62
253
  6
CONTINUOUS
 10
175.2681062736
 20
124.6942911563
 11
175.2303968225
 21
124.820192792
  0
LINE
  5
439
100
AcDbEntity
  8
0
100
AcDbLine
 62
253
  6
CONTINUOUS
 10
175.6167683491
 20
124.75769827
 11
175.6287811383
 21
124.714970565
  0
LINE
  5
43A
100
AcDbEntity
  8
0
100
AcDbLine
 62
253
  6
CONTINUOUS
 10
175.7554422664
 20
124.4062984194
 11
175.7343065618
 21
124.4855197872
  0
LWPOLYLINE
  5
43B
100
AcDbEntity
  8
ASSI
100
AcDbPolyline
 62
253
  6
CONTINUOUS
 90
7
 70
0
 10
181.7684667302
 20
89.9569672879
 10
181.7693777604
 20
89.9230624258
 10
181.7703256663
 20
89.8946580228
 10
181.7712936658
 20
89.8719262338
 10
181.7722761646
 20
89.8550041931
 10
181.7732787568
 20
89.8439937371
 10
181.7743014426
 20
89.8389614337
  0
LWPOLYLINE
  5
43C
100
AcDbEntity
  8
RACCORDO
100
AcDbPolyline
 62
253
  6
CONTINUOUS
 90
7
 70
0
 10
181.7684667302
 20
89.9569672879
 10
181.7693777604
 20
89.9230624258
 10
181.7703256663
 20
89.8946580228
 10
181.7712936658
 20
89.8719262338
 10
181.7722761646
 20
89.8550041931
 10
181.7732787568
 20
89.8439937371
 10
181.7743014426
 20
89.8389614337
  0
LINE
  5
43D
100
AcDbEntity
  8
ASSI
100
AcDbLine
 62
253
  6
CONTINUOUS
 10
181.7667564841
 20
90.0404259111
 11
181.7684667302
 21
89.9569672879
  0
LINE
  5
43E
100
AcDbEntity
  8
RACCORDO
100
AcDbLine
 62
253
  6
CONTINUOUS
 10
181.7667564841
 20
90.0404259111
 11
181.7684667302
 21
89.9569672879
  0
LINE
  5
43F
100
AcDbEntity
  8
ASSI
100
AcDbLine
 62
253
  6
CONTINUOUS
 10
181.7652396599
 20
90.1430344134
 11
181.7667564841
 21
90.0404259111
  0
LINE
  5
440
100
AcDbEntity
  8
RACCORDO
100
AcDbLine
 62
253
  6
CONTINUOUS
 10
181.7652396599
 20
90.1430344134
 11
181.7667564841
 21
90.0404259111
  0
LINE
  5
441
100
AcDbEntity
  8
ASSI
100
AcDbLine
 62
253
  6
CONTINUOUS
 10
181.7667556428
 20
133.6297406484
 11
181.7652389621
 21
133.5271315278
  0
LINE
  5
442
100
AcDbEntity
  8
RACCORDO
100
AcDbLine
 62
253
  6
CONTINUOUS
 10
181.7667556428
 20
133.6297406484
 11
181.7652389621
 21
133.5271315278
  0
LWPOLYLINE
  5
443
100
AcDbEntity
  8
RACCORDO
100
AcDbPolyline
 62
253
  6
CONTINUOUS
 90
31
 70
0
 10
177.2811015899
 20
97.5115240876
 10
177.2774791611
 20
97.4959445988
 10
177.2731734452
 20
97.4806034165
 10
177.2681844422
 20
97.4655005325
 10
177.2624984905
 20
97.4506036281
 10
177.2561292518
 20
97.4359450061
 10
177.249117711
 20
97.4216215862
 10
177.2414601387
 20
97.4076372634
 10
177.2331602644
 20
97.3939881199
 10
177.2242702616
 20
97.3807593505
 10
177.2147866421
 20
97.3679539515
 10
177.2047128942
 20
97.3555689
 10
177.1941116558
 20
97.3436803569
 10
177.1829796305
 20
97.3322913279
 10
177.1713201149
 20
97.321398779
 10
177.1592056367
 20
97.3110698086
 10
177.1466333882
 20
97.3013079299
 10
177.1336061771
 20
97.2921096016
 10
177.1202049552
 20
97.2835313387
 10
177.1064276118
 20
97.2755770535
 10
177.0922762576
 20
97.2682428079
 10
177.077838176
 20
97.2615733404
 10
177.0631112676
 20
97.2555726662
 10
177.0480976318
 20
97.2502367487
 10
177.0328908496
 20
97.2455982492
 10
177.0174882024
 20
97.2416615741
 10
177.0018924087
 20
97.2384223018
 10
176.9862052058
 20
97.2358998526
 10
176.9704605058
 20
97.2341006972
 10
176.9546243965
 20
97.233018357
 10
176.9386968779
 20
97.2326528301
  0
LWPOLYLINE
  5
444
100
AcDbEntity
  8
RACCORDO
100
AcDbPolyline
 62
253
  6
CONTINUOUS
 90
31
 70
0
 10
177.4279086372
 20
97.4916352983
 10
177.4227425444
 20
97.4694583642
 10
177.4165736834
 20
97.4475382111
 10
177.4094149882
 20
97.4259260798
 10
177.4012821273
 20
97.4046683553
 10
177.3921927195
 20
97.383806543
 10
177.3821641808
 20
97.3633813555
 10
177.3712164963
 20
97.3434332703
 10
177.3593738079
 20
97.3240041712
 10
177.3466611881
 20
97.3051365209
 10
177.3331050662
 20
97.2868700597
 10
177.318734332
 20
97.2692409927
 10
177.3035784973
 20
97.252285726
 10
177.2876683349
 20
97.2360395344
 10
177.2710378651
 20
97.2205349779
 10
177.2537215213
 20
97.2058041061
 10
177.2357545979
 20
97.1918781076
 10
177.2171751316
 20
97.1787845586
 10
177.1980214727
 20
97.1665500402
 10
177.1783328516
 20
97.1552008402
 10
177.1581504418
 20
97.1447592676
 10
177.1375152943
 20
97.1352459811
 10
177.1164691242
 20
97.1266815992
 10
177.095056612
 20
97.1190832515
 10
177.0733233262
 20
97.1124659778
 10
177.0513157319
 20
97.1068447297
 10
177.0290775506
 20
97.1022301382
 10
177.0066499968
 20
97.0986301273
 10
176.9840767212
 20
97.0960533348
 10
176.9614079136
 20
97.0945053369
 10
176.9386968779
 20
97.0939879574
  0
LINE
  5
445
100
AcDbEntity
  8
RACCORDO
100
AcDbLine
 62
7
  6
CONTINUOUS
 10
177.4351937872
 20
97.4821279542
 11
177.4300380783
 21
97.4600761807
  0
LWPOLYLINE
  5
446
100
AcDbEntity
  8
ASSI
100
AcDbPolyline
 62
253
  6
CONTINUOUS
 90
16
 70
0
 10
177.4199271039
 20
97.3955987036
 10
177.4104900946
 20
97.360572826
 10
177.3979300451
 20
97.3266016835
 10
177.3823743403
 20
97.2939462698
 10
177.3639508342
 20
97.2628658192
 10
177.3428117846
 20
97.233603909
 10
177.3191496044
 20
97.206381534
 10
177.293178654
 20
97.1814345542
 10
177.2650875711
 20
97.1589526834
 10
177.2350560447
 20
97.1390591987
 10
177.2032761561
 20
97.1218934942
 10
177.1700430946
 20
97.1076538089
 10
177.1357178448
 20
97.0964902411
 10
177.1006169862
 20
97.0884726162
 10
177.0649891469
 20
97.0836507681
 10
177.0291265316
 20
97.0820566842
  0
LWPOLYLINE
  5
447
100
AcDbEntity
  8
RACCORDO
100
AcDbPolyline
 62
253
  6
CONTINUOUS
 90
16
 70
0
 10
177.4199271039
 20
97.3955987036
 10
177.4104900946
 20
97.360572826
 10
177.3979300451
 20
97.3266016835
 10
177.3823743403
 20
97.2939462698
 10
177.3639508342
 20
97.2628658192
 10
177.3428117846
 20
97.233603909
 10
177.3191496044
 20
97.206381534
 10
177.293178654
 20
97.1814345542
 10
177.2650875711
 20
97.1589526834
 10
177.2350560447
 20
97.1390591987
 10
177.2032761561
 20
97.1218934942
 10
177.1700430946
 20
97.1076538089
 10
177.1357178448
 20
97.0964902411
 10
177.1006169862
 20
97.0884726162
 10
177.0649891469
 20
97.0836507681
 10
177.0291265316
 20
97.0820566842
  0
LWPOLYLINE
  5
448
100
AcDbEntity
  8
ASSI
100
AcDbPolyline
 62
253
  6
CONTINUOUS
 90
16
 70
0
 10
177.517579318
 20
97.3666362533
 10
177.5054771257
 20
97.3222008455
 10
177.4898026689
 20
97.2797343211
 10
177.4705559475
 20
97.2392364797
 10
177.4475122882
 20
97.2004207105
 10
177.4208963643
 20
97.1635732636
 10
177.3913821962
 20
97.1295531608
 10
177.3589334335
 20
97.0984385576
 10
177.3235864264
 20
97.0701508286
 10
177.2861242456
 20
97.0453137263
 10
177.2464142896
 20
97.0239796299
 10
177.2045891598
 20
97.0060957458
 10
177.1618297311
 20
96.9921280445
 10
177.1185296286
 20
96.9822317585
 10
177.0742952272
 20
96.976251407
 10
177.0291265269
 20
96.9741869283
  0
LWPOLYLINE
  5
449
100
AcDbEntity
  8
RACCORDO
100
AcDbPolyline
 62
253
  6
CONTINUOUS
 90
16
 70
0
 10
177.517579318
 20
97.3666362533
 10
177.5054771257
 20
97.3222008455
 10
177.4898026689
 20
97.2797343211
 10
177.4705559475
 20
97.2392364797
 10
177.4475122882
 20
97.2004207105
 10
177.4208963643
 20
97.1635732636
 10
177.3913821962
 20
97.1295531608
 10
177.3589334335
 20
97.0984385576
 10
177.3235864264
 20
97.0701508286
 10
177.2861242456
 20
97.0453137263
 10
177.2464142896
 20
97.0239796299
 10
177.2045891598
 20
97.0060957458
 10
177.1618297311
 20
96.9921280445
 10
177.1185296286
 20
96.9822317585
 10
177.0742952272
 20
96.976251407
 10
177.0291265269
 20
96.9741869283
  0
LINE
  5
44A
100
AcDbEntity
  8
RACCORDO
100
AcDbLine
 62
7
  6
CONTINUOUS
 10
177.4300380783
 20
97.4600761807
 11
177.4238930155
 21
97.4383173628
  0
LINE
  5
44B
100
AcDbEntity
  8
ASSI
100
AcDbLine
 62
253
  6
CONTINUOUS
 10
160.6199961168
 20
121.3310902099
 11
160.689837626
 21
121.3325579768
  0
LINE
  5
44C
100
AcDbEntity
  8
RACCORDO
100
AcDbLine
 62
253
  6
CONTINUOUS
 10
160.6199961168
 20
121.3310902099
 11
160.689837626
 21
121.3325579768
  0
LINE
  5
44D
100
AcDbEntity
  8
ASSI
100
AcDbLine
 62
253
  6
CONTINUOUS
 10
160.689837626
 20
121.3325579768
 11
160.7736268105
 21
121.3337310333
  0
LINE
  5
44E
100
AcDbEntity
  8
RACCORDO
100
AcDbLine
 62
253
  6
CONTINUOUS
 10
160.689837626
 20
121.3325579768
 11
160.7736268105
 21
121.3337310333
  0
LINE
  5
44F
100
AcDbEntity
  8
ASSI
100
AcDbLine
 62
253
  6
CONTINUOUS
 10
160.7736268105
 20
121.3337310333
 11
160.8678222804
 21
121.3345597997
  0
LINE
  5
450
100
AcDbEntity
  8
RACCORDO
100
AcDbLine
 62
253
  6
CONTINUOUS
 10
160.7736268105
 20
121.3337310333
 11
160.8678222804
 21
121.3345597997
  0
LINE
  5
451
100
AcDbEntity
  8
ASSI
100
AcDbLine
 62
253
  6
CONTINUOUS
 10
160.8678222804
 20
121.3345597997
 11
161.0198392356
 21
121.335085138
  0
LINE
  5
452
100
AcDbEntity
  8
RACCORDO
100
AcDbLine
 62
253
  6
CONTINUOUS
 10
160.8678222804
 20
121.3345597997
 11
161.0198392356
 21
121.335085138
  0
LINE
  5
453
100
AcDbEntity
  8
ASSI
100
AcDbLine
 62
253
  6
CONTINUOUS
 10
181.8384218861
 20
121.334833515
 11
161.0198392356
 21
121.3350851387
  0
LINE
  5
454
100
AcDbEntity
  8
RACCORDO
100
AcDbLine
 62
253
  6
CONTINUOUS
 10
181.8384218861
 20
121.334833515
 11
161.0198392356
 21
121.3350851387
  0
LINE
  5
455
100
AcDbEntity
  8
ASSI
100
AcDbLine
 62
253
  6
CONTINUOUS
 10
181.9363486333
 20
121.3341910042
 11
181.8384218861
 21
121.334833515
  0
LINE
  5
456
100
AcDbEntity
  8
RACCORDO
100
AcDbLine
 62
253
  6
CONTINUOUS
 10
181.9363486333
 20
121.3341910042
 11
181.8384218861
 21
121.334833515
  0
LINE
  5
457
100
AcDbEntity
  8
ASSI
100
AcDbLine
 62
253
  6
CONTINUOUS
 10
182.0258148852
 20
121.3331847624
 11
181.9363486333
 21
121.3341910042
  0
LINE
  5
458
100
AcDbEntity
  8
RACCORDO
100
AcDbLine
 62
253
  6
CONTINUOUS
 10
182.0258148852
 20
121.3331847624
 11
181.9363486333
 21
121.3341910042
  0
LINE
  5
459
100
AcDbEntity
  8
0
100
AcDbLine
 62
253
  6
CONTINUOUS
 10
169.4428350748
 20
121.3363446531
 11
169.3343107505
 21
121.3399571778
  0
LINE
  5
45A
100
AcDbEntity
  8
0
100
AcDbLine
 62
253
  6
CONTINUOUS
 10
170.2262651012
 20
122.1762594433
 11
170.1753270726
 21
122.1957230636
  0
LINE
  5
45B
100
AcDbEntity
  8
0
100
AcDbLine
 62
253
  6
CONTINUOUS
 10
173.7581992372
 20
121.3594197975
 11
173.709086392
 21
121.3828369814
  0
LINE
  5
45C
100
AcDbEntity
  8
0
100
AcDbLine
 62
253
  6
CONTINUOUS
 10
173.8077693789
 20
121.3352431212
 11
173.7581992372
 21
121.3594197975
  0
LINE
  5
45D
100
AcDbEntity
  8
0
100
AcDbLine
 62
253
  6
CONTINUOUS
 10
170.2629108626
 20
123.6904232399
 11
170.297579342
 21
123.6665507608
  0
LINE
  5
45E
100
AcDbEntity
  8
0
100
AcDbLine
 62
253
  6
CONTINUOUS
 10
173.2292002297
 20
122.1946583733
 11
173.148610975
 21
122.2694698817
  0
LINE
  5
45F
100
AcDbEntity
  8
0
100
AcDbLine
 62
253
  6
CONTINUOUS
 10
174.6775243353
 20
123.1252347669
 11
174.7167547727
 21
123.0808349777
  0
LINE
  5
460
100
AcDbEntity
  8
0
100
AcDbLine
 62
253
  6
CONTINUOUS
 10
174.2826372872
 20
124.4999651537
 11
174.3732620491
 21
124.3802975602
  0
LINE
  5
461
100
AcDbEntity
  8
0
100
AcDbLine
 62
253
  6
CONTINUOUS
 10
175.0178239885
 20
124.4496345189
 11
174.994254706
 21
124.4867355755
  0
LINE
  5
462
100
AcDbEntity
  8
0
100
AcDbLine
 62
253
  6
CONTINUOUS
 10
174.7012447158
 20
124.0234241605
 11
174.7248139983
 21
123.9861710052
  0
LINE
  5
463
100
AcDbEntity
  8
0
100
AcDbLine
 62
253
  6
CONTINUOUS
 10
174.5218203756
 20
123.6192620984
 11
174.4473130644
 21
123.7506372832
  0
LINE
  5
464
100
AcDbEntity
  8
0
100
AcDbLine
 62
253
  6
CONTINUOUS
 10
174.7445808153
 20
123.8754742285
 11
174.7815297733
 21
123.8097866361
  0
LINE
  5
465
100
AcDbEntity
  8
0
100
AcDbLine
 62
253
  6
CONTINUOUS
 10
175.9427747344
 20
124.8387438206
 11
175.9225506209
 21
124.8778211587
  0
LINE
  5
466
100
AcDbEntity
  8
0
100
AcDbLine
 62
253
  6
CONTINUOUS
 10
175.9147965931
 20
124.9640370618
 11
175.8932045927
 21
125.0076763579
  0
LINE
  5
467
100
AcDbEntity
  8
0
100
AcDbLine
 62
253
  6
CONTINUOUS
 10
176.2338074424
 20
124.1608822895
 11
176.2100870619
 21
124.2095398395
  0
LINE
  5
468
100
AcDbEntity
  8
0
100
AcDbLine
 62
253
  6
CONTINUOUS
 10
176.4932136436
 20
124.3462374754
 11
176.5487136303
 21
124.2323476282
  0
LINE
  5
469
100
AcDbEntity
  8
0
100
AcDbLine
 62
253
  6
CONTINUOUS
 10
176.4383220514
 20
124.4604305191
 11
176.4932136436
 21
124.3462374754
  0
LINE
  5
46A
100
AcDbEntity
  8
0
100
AcDbLine
 62
253
  6
CONTINUOUS
 10
175.5938084617
 20
124.3030534745
 11
175.6114468986
 21
124.2659524179
  0
LINE
  5
46B
100
AcDbEntity
  8
0
100
AcDbLine
 62
253
  6
CONTINUOUS
 10
176.2100870619
 20
124.2095398395
 11
176.1868229773
 21
124.2586536853
  0
LINE
  5
46C
100
AcDbEntity
  8
0
100
AcDbLine
 62
253
  6
CONTINUOUS
 10
175.1006937219
 20
125.2175124174
 11
175.0660252426
 21
125.2917155313
  0
LINE
  5
46D
100
AcDbEntity
  8
0
100
AcDbLine
 62
253
  6
CONTINUOUS
 10
175.6114468986
 20
124.2659524179
 11
175.6715078426
 21
124.1367056131
  0
LINE
  5
46E
100
AcDbEntity
  8
0
100
AcDbLine
 62
253
  6
CONTINUOUS
 10
175.3562984582
 20
124.0685844428
 11
175.3090087952
 21
124.1706135994
  0
LWPOLYLINE
  5
46F
100
AcDbEntity
  8
ASSI
100
AcDbPolyline
 62
253
  6
CONTINUOUS
 90
10
 70
0
 10
182.265801919
 20
90.4639813688
 10
182.2665884864
 20
90.4394741505
 10
182.2674270371
 20
90.417225767
 10
182.2683024885
 20
90.3976286781
 10
182.2692161038
 20
90.3807291907
 10
182.2701666198
 20
90.3664809978
 10
182.2711351651
 20
90.3551376381
 10
182.2721154492
 20
90.3467836243
 10
182.2731137625
 20
90.3413344437
 10
182.274130105
 20
90.3387900962
  0
LWPOLYLINE
  5
470
100
AcDbEntity
  8
RACCORDO
100
AcDbPolyline
 62
253
  6
CONTINUOUS
 90
10
 70
0
 10
182.265801919
 20
90.4639813688
 10
182.2665884864
 20
90.4394741505
 10
182.2674270371
 20
90.417225767
 10
182.2683024885
 20
90.3976286781
 10
182.2692161038
 20
90.3807291907
 10
182.2701666198
 20
90.3664809978
 10
182.2711351651
 20
90.3551376381
 10
182.2721154492
 20
90.3467836243
 10
182.2731137625
 20
90.3413344437
 10
182.274130105
 20
90.3387900962
  0
LINE
  5
471
100
AcDbEntity
  8
ASSI
100
AcDbLine
 62
253
  6
CONTINUOUS
 10
182.2643864652
 20
90.5198655354
 11
182.265801919
 21
90.4639813688
  0
LINE
  5
472
100
AcDbEntity
  8
RACCORDO
100
AcDbLine
 62
253
  6
CONTINUOUS
 10
182.2643864652
 20
90.5198655354
 11
182.265801919
 21
90.4639813688
  0
LINE
  5
473
100
AcDbEntity
  8
ASSI
100
AcDbLine
 62
253
  6
CONTINUOUS
 10
182.2632175869
 20
90.5832410622
 11
182.2643864652
 21
90.5198655354
  0
LINE
  5
474
100
AcDbEntity
  8
RACCORDO
100
AcDbLine
 62
253
  6
CONTINUOUS
 10
182.2632175869
 20
90.5832410622
 11
182.2643864652
 21
90.5198655354
  0
LINE
  5
475
100
AcDbEntity
  8
ASSI
100
AcDbLine
 62
253
  6
CONTINUOUS
 10
182.262316703
 20
90.6528846119
 11
182.2632175869
 21
90.5832410622
  0
LINE
  5
476
100
AcDbEntity
  8
RACCORDO
100
AcDbLine
 62
253
  6
CONTINUOUS
 10
182.262316703
 20
90.6528846119
 11
182.2632175869
 21
90.5832410622
  0
LINE
  5
477
100
AcDbEntity
  8
ASSI
100
AcDbLine
 62
253
  6
CONTINUOUS
 10
181.7633928891
 20
90.3273696398
 11
181.7652396599
 21
90.1430344134
  0
LINE
  5
478
100
AcDbEntity
  8
RACCORDO
100
AcDbLine
 62
253
  6
CONTINUOUS
 10
181.7633928891
 20
90.3273696398
 11
181.7652396599
 21
90.1430344134
  0
LINE
  5
479
100
AcDbEntity
  8
ASSI
100
AcDbLine
 62
253
  6
CONTINUOUS
 10
182.2615248259
 20
90.7644251273
 11
182.262316703
 21
90.6528846119
  0
LINE
  5
47A
100
AcDbEntity
  8
RACCORDO
100
AcDbLine
 62
253
  6
CONTINUOUS
 10
182.2615248259
 20
90.7644251273
 11
182.262316703
 21
90.6528846119
  0
LWPOLYLINE
  5
47B
100
AcDbEntity
  8
ASSI
100
AcDbPolyline
 62
253
  6
CONTINUOUS
 90
3
 70
0
 10
181.7569157255
 20
91.9765575549
 10
181.761888933
 20
90.6140720158
 10
181.7633928891
 20
90.3273696398
  0
LWPOLYLINE
  5
47C
100
AcDbEntity
  8
RACCORDO
100
AcDbPolyline
 62
253
  6
CONTINUOUS
 90
3
 70
0
 10
181.7569157255
 20
91.9765575549
 10
181.761888933
 20
90.6140720158
 10
181.7633928891
 20
90.3273696398
  0
LWPOLYLINE
  5
47D
100
AcDbEntity
  8
ASSI
100
AcDbPolyline
 62
253
  6
CONTINUOUS
 90
8
 70
0
 10
181.7370612721
 20
101.0361835638
 10
181.7384364568
 20
99.7379087205
 10
181.7402991186
 20
98.4405312127
 10
181.7426498479
 20
97.1443215301
 10
181.7454880543
 20
95.8495497748
 10
181.7488119662
 20
94.5564856058
 10
181.7526209931
 20
93.2653984721
 10
181.7569157255
 20
91.9765575549
  0
LWPOLYLINE
  5
47E
100
AcDbEntity
  8
RACCORDO
100
AcDbPolyline
 62
253
  6
CONTINUOUS
 90
8
 70
0
 10
181.7370612721
 20
101.0361835638
 10
181.7384364568
 20
99.7379087205
 10
181.7402991186
 20
98.4405312127
 10
181.7426498479
 20
97.1443215301
 10
181.7454880543
 20
95.8495497748
 10
181.7488119662
 20
94.5564856058
 10
181.7526209931
 20
93.2653984721
 10
181.7569157255
 20
91.9765575549
  0
LWPOLYLINE
  5
47F
100
AcDbEntity
  8
ASSI
100
AcDbPolyline
 62
253
  6
CONTINUOUS
 90
9
 70
0
 10
182.2368899085
 20
101.0524641481
 10
182.2382650855
 20
99.7614963518
 10
182.240127758
 20
98.4716817499
 10
182.2424785322
 20
97.1827457532
 10
182.2453168018
 20
95.8949629508
 10
182.2486407479
 20
94.6091571102
 10
182.2524497641
 20
93.3256028207
 10
182.2567444568
 20
92.0440254931
 10
182.2615248259
 20
90.7644251273
  0
LWPOLYLINE
  5
480
100
AcDbEntity
  8
RACCORDO
100
AcDbPolyline
 62
253
  6
CONTINUOUS
 90
9
 70
0
 10
182.2368899085
 20
101.0524641481
 10
182.2382650855
 20
99.7614963518
 10
182.240127758
 20
98.4716817499
 10
182.2424785322
 20
97.1827457532
 10
182.2453168018
 20
95.8949629508
 10
182.2486407479
 20
94.6091571102
 10
182.2524497641
 20
93.3256028207
 10
182.2567444568
 20
92.0440254931
 10
182.2615248259
 20
90.7644251273
  0
LINE
  5
481
100
AcDbEntity
  8
ASSI
100
AcDbLine
 62
253
  6
CONTINUOUS
 10
181.7352407663
 20
104.4461060483
 11
181.7370612721
 21
101.0361835638
  0
LINE
  5
482
100
AcDbEntity
  8
RACCORDO
100
AcDbLine
 62
253
  6
CONTINUOUS
 10
181.7352407663
 20
104.4461060483
 11
181.7370612721
 21
101.0361835638
  0
LINE
  5
483
100
AcDbEntity
  8
ASSI
100
AcDbLine
 62
253
  6
CONTINUOUS
 10
182.2350694291
 20
104.4535554993
 11
182.2368899085
 21
101.0524641481
  0
LINE
  5
484
100
AcDbEntity
  8
RACCORDO
100
AcDbLine
 62
253
  6
CONTINUOUS
 10
182.2350694291
 20
104.4535554993
 11
182.2368899085
 21
101.0524641481
  0
LINE
  5
485
100
AcDbEntity
  8
ASSI
100
AcDbLine
 62
253
  6
CONTINUOUS
 10
181.7340747686
 20
108.6683769511
 11
181.7352407663
 21
104.4461060483
  0
LINE
  5
486
100
AcDbEntity
  8
RACCORDO
100
AcDbLine
 62
253
  6
CONTINUOUS
 10
181.7340747686
 20
108.6683769511
 11
181.7352407663
 21
104.4461060483
  0
LINE
  5
487
100
AcDbEntity
  8
ASSI
100
AcDbLine
 62
253
  6
CONTINUOUS
 10
182.2339034317
 20
108.6715399282
 11
182.2350694291
 21
104.4535554993
  0
LINE
  5
488
100
AcDbEntity
  8
RACCORDO
100
AcDbLine
 62
253
  6
CONTINUOUS
 10
182.2339034317
 20
108.6715399282
 11
182.2350694291
 21
104.4535554993
  0
LINE
  5
489
100
AcDbEntity
  8
ASSI
100
AcDbLine
 62
253
  6
CONTINUOUS
 10
181.7338415689
 20
112.8906450574
 11
181.7340747686
 21
108.6683769511
  0
LINE
  5
48A
100
AcDbEntity
  8
RACCORDO
100
AcDbLine
 62
253
  6
CONTINUOUS
 10
181.7338415689
 20
112.8906450574
 11
181.7340747686
 21
108.6683769511
  0
LINE
  5
48B
100
AcDbEntity
  8
ASSI
100
AcDbLine
 62
253
  6
CONTINUOUS
 10
182.2336702317
 20
112.8896017259
 11
182.2339034317
 21
108.6715399282
  0
LINE
  5
48C
100
AcDbEntity
  8
RACCORDO
100
AcDbLine
 62
253
  6
CONTINUOUS
 10
182.2336702317
 20
112.8896017259
 11
182.2339034317
 21
108.6715399282
  0
LINE
  5
48D
100
AcDbEntity
  8
ASSI
100
AcDbLine
 62
7
  6
CONTINUOUS
 10
182.3780064
 20
90.2349138012
 11
182.3780064
 21
133.4352564762
  0
LINE
  5
48E
100
AcDbEntity
  8
RACCORDO
100
AcDbLine
 62
7
  6
CONTINUOUS
 10
182.3780064
 20
90.2349138012
 11
182.3780064
 21
133.4352564762
  0
LINE
  5
48F
100
AcDbEntity
  8
ASSI
100
AcDbLine
 62
253
  6
CONTINUOUS
 10
181.7352407661
 20
119.2240633477
 11
181.7338415689
 21
112.8906450574
  0
LINE
  5
490
100
AcDbEntity
  8
RACCORDO
100
AcDbLine
 62
253
  6
CONTINUOUS
 10
181.7352407661
 20
119.2240633477
 11
181.7338415689
 21
112.8906450574
  0
LINE
  5
491
100
AcDbEntity
  8
ASSI
100
AcDbLine
 62
253
  6
CONTINUOUS
 10
182.2350694286
 20
119.2166127745
 11
182.2336702317
 21
112.8896017259
  0
LINE
  5
492
100
AcDbEntity
  8
RACCORDO
100
AcDbLine
 62
253
  6
CONTINUOUS
 10
182.2350694286
 20
119.2166127745
 11
182.2336702317
 21
112.8896017259
  0
LWPOLYLINE
  5
493
100
AcDbEntity
  8
ASSI
100
AcDbPolyline
 62
253
  6
CONTINUOUS
 90
9
 70
0
 10
181.7569157261
 20
131.6936127277
 10
181.752620994
 20
130.4047718144
 10
181.7488119672
 20
129.1136846833
 10
181.7454880547
 20
127.8206205157
 10
181.7426498475
 20
126.5258487604
 10
181.7402991177
 20
125.2296390766
 10
181.7384364559
 20
123.9322615663
 10
181.7370612715
 20
122.633986719
 10
181.7352407661
 20
119.2240633477
  0
LWPOLYLINE
  5
494
100
AcDbEntity
  8
RACCORDO
100
AcDbPolyline
 62
253
  6
CONTINUOUS
 90
9
 70
0
 10
181.7569157261
 20
131.6936127277
 10
181.752620994
 20
130.4047718144
 10
181.7488119672
 20
129.1136846833
 10
181.7454880547
 20
127.8206205157
 10
181.7426498475
 20
126.5258487604
 10
181.7402991177
 20
125.2296390766
 10
181.7384364559
 20
123.9322615663
 10
181.7370612715
 20
122.633986719
 10
181.7352407661
 20
119.2240633477
  0
LWPOLYLINE
  5
495
100
AcDbEntity
  8
ASSI
100
AcDbPolyline
 62
253
  6
CONTINUOUS
 90
9
 70
0
 10
182.2567444181
 20
131.6261319735
 10
182.2524496991
 20
130.3445450294
 10
182.2486406687
 20
129.0609843179
 10
182.2453167242
 20
127.7751752387
 10
182.2424784683
 20
126.4873923922
 10
182.2401277098
 20
125.1984595788
 10
182.2382650515
 20
123.9086513989
 10
182.2368898905
 20
122.6176932522
 10
182.2350694286
 20
119.2166127745
  0
LWPOLYLINE
  5
496
100
AcDbEntity
  8
RACCORDO
100
AcDbPolyline
 62
253
  6
CONTINUOUS
 90
9
 70
0
 10
182.2567444181
 20
131.6261319735
 10
182.2524496991
 20
130.3445450294
 10
182.2486406687
 20
129.0609843179
 10
182.2453167242
 20
127.7751752387
 10
182.2424784683
 20
126.4873923922
 10
182.2401277098
 20
125.1984595788
 10
182.2382650515
 20
123.9086513989
 10
182.2368898905
 20
122.6176932522
 10
182.2350694286
 20
119.2166127745
  0
LINE
  5
497
100
AcDbEntity
  8
ASSI
100
AcDbLine
 62
253
  6
CONTINUOUS
 10
181.7629064156
 20
133.2746898255
 11
181.7569157261
 21
131.6936127277
  0
LINE
  5
498
100
AcDbEntity
  8
RACCORDO
100
AcDbLine
 62
253
  6
CONTINUOUS
 10
181.7629064156
 20
133.2746898255
 11
181.7569157261
 21
131.6936127277
  0
LINE
  5
499
100
AcDbEntity
  8
ASSI
100
AcDbLine
 62
253
  6
CONTINUOUS
 10
182.2619792027
 20
132.9811171711
 11
182.2567444181
 21
131.6261319735
  0
LINE
  5
49A
100
AcDbEntity
  8
RACCORDO
100
AcDbLine
 62
253
  6
CONTINUOUS
 10
182.2619792027
 20
132.9811171711
 11
182.2567444181
 21
131.6261319735
  0
LINE
  5
49B
100
AcDbEntity
  8
ASSI
100
AcDbLine
 62
253
  6
CONTINUOUS
 10
182.2627296595
 20
133.0525633629
 11
182.2619792027
 21
132.9811171711
  0
LINE
  5
49C
100
AcDbEntity
  8
RACCORDO
100
AcDbLine
 62
253
  6
CONTINUOUS
 10
182.2627296595
 20
133.0525633629
 11
182.2619792027
 21
132.9811171711
  0
LWPOLYLINE
  5
49D
100
AcDbEntity
  8
ASSI
100
AcDbPolyline
 62
253
  6
CONTINUOUS
 90
3
 70
0
 10
181.7652389621
 20
133.5271315278
 10
181.7645591923
 20
133.469398656
 10
181.7629064156
 20
133.2746898255
  0
LWPOLYLINE
  5
49E
100
AcDbEntity
  8
RACCORDO
100
AcDbPolyline
 62
253
  6
CONTINUOUS
 90
3
 70
0
 10
181.7652389621
 20
133.5271315278
 10
181.7645591923
 20
133.469398656
 10
181.7629064156
 20
133.2746898255
  0
LINE
  5
49F
100
AcDbEntity
  8
ASSI
100
AcDbLine
 62
253
  6
CONTINUOUS
 10
182.2637673069
 20
133.1193995857
 11
182.2627296595
 21
133.0525633629
  0
LINE
  5
4A0
100
AcDbEntity
  8
RACCORDO
100
AcDbLine
 62
253
  6
CONTINUOUS
 10
182.2637673069
 20
133.1193995857
 11
182.2627296595
 21
133.0525633629
  0
LWPOLYLINE
  5
4A1
100
AcDbEntity
  8
RACCORDO
100
AcDbPolyline
 62
7
  6
CONTINUOUS
 90
5
 70
0
 10
177.4238930155
 20
97.4383173628
 10
177.4167585986
 20
97.4168515003
 10
177.408607539
 20
97.3956102163
 10
177.3994671255
 20
97.3746618878
 10
177.389419224
 20
97.3542116456
  0
LINE
  5
4A2
100
AcDbEntity
  8
RACCORDO
100
AcDbLine
 62
253
  6
CONTINUOUS
 10
177.4265795366
 20
101.176800576
 11
177.4351937871
 21
101.1880423233
  0
LINE
  5
4A3
100
AcDbEntity
  8
ASSI
100
AcDbLine
 62
253
  6
CONTINUOUS
 10
177.4172997034
 20
101.2711438226
 11
177.421359772
 21
101.2764345416
  0
LINE
  5
4A4
100
AcDbEntity
  8
RACCORDO
100
AcDbLine
 62
253
  6
CONTINUOUS
 10
177.4172997034
 20
101.2711438226
 11
177.421359772
 21
101.2764345416
  0
LINE
  5
4A5
100
AcDbEntity
  8
RACCORDO
100
AcDbLine
 62
253
  6
CONTINUOUS
 10
176.9371440952
 20
101.574271229
 11
176.9459242296
 21
101.5850851387
  0
LWPOLYLINE
  5
4A6
100
AcDbEntity
  8
RACCORDO
100
AcDbPolyline
 62
253
  6
CONTINUOUS
 90
12
 70
0
 10
177.4265794665
 20
101.1768005613
 10
177.4262455884
 20
101.1764152681
 10
177.4252861634
 20
101.1759003824
 10
177.4237052887
 20
101.1752581032
 10
177.4215097157
 20
101.1744911734
 10
177.4187088206
 20
101.1736028682
 10
177.4153145648
 20
101.1725969812
 10
177.4113414438
 20
101.171477808
 10
177.406806425
 20
101.1702501282
 10
177.4017288756
 20
101.1689191846
 10
177.3961304795
 20
101.1674906612
 10
177.3900351451
 20
101.1659706586
  0
LINE
  5
4A7
100
AcDbEntity
  8
0
100
AcDbLine
 62
253
  6
CONTINUOUS
 10
175.5322255308
 20
124.5445170415
 11
175.4894978258
 21
124.5325042523
  0
LINE
  5
4A8
100
AcDbEntity
  8
0
100
AcDbLine
 62
253
  6
CONTINUOUS
 10
175.8557993388
 20
124.6381827752
 11
175.9782027062
 21
124.6711791703
  0
LINE
  5
4A9
100
AcDbEntity
  8
0
100
AcDbLine
 62
253
  6
CONTINUOUS
 10
175.9897591995
 20
124.3488221513
 11
175.937148086
 21
124.334680982
  0
LINE
  5
4AA
100
AcDbEntity
  8
0
100
AcDbLine
 62
253
  6
CONTINUOUS
 10
175.815960507
 20
124.6276909722
 11
175.8557993388
 21
124.6381827752
  0
LINE
  5
4AB
100
AcDbEntity
  8
0
100
AcDbLine
 62
253
  6
CONTINUOUS
 10
175.937148086
 20
124.334680982
 11
175.89776555
 21
124.3243412777
  0
LINE
  5
4AC
100
AcDbEntity
  8
0
100
AcDbLine
 62
253
  6
CONTINUOUS
 10
174.5095033891
 20
124.0659997669
 11
174.5501027141
 21
124.0732984994
  0
LINE
  5
4AD
100
AcDbEntity
  8
0
100
AcDbLine
 62
253
  6
CONTINUOUS
 10
174.7590261818
 20
124.2028495014
 11
174.9379942262
 21
124.2337165158
  0
LINE
  5
4AE
100
AcDbEntity
  8
0
100
AcDbLine
 62
253
  6
CONTINUOUS
 10
174.5501027141
 20
124.0732984994
 11
174.590853137
 21
124.0799888375
  0
LINE
  5
4AF
100
AcDbEntity
  8
0
100
AcDbLine
 62
253
  6
CONTINUOUS
 10
173.3392876113
 20
122.1765636405
 11
173.2845481178
 21
122.1744352604
  0
LINE
  5
4B0
100
AcDbEntity
  8
0
100
AcDbLine
 62
253
  6
CONTINUOUS
 10
173.3938760069
 20
122.178388824
 11
173.3392876113
 21
122.1765636405
  0
LINE
  5
4B1
100
AcDbEntity
  8
0
100
AcDbLine
 62
253
  6
CONTINUOUS
 10
172.5297466981
 20
122.1762594433
 11
170.2262651012
 21
122.1762594433
  0
LINE
  5
4B2
100
AcDbEntity
  8
0
100
AcDbLine
 62
253
  6
CONTINUOUS
 10
170.466056584
 20
122.5951710691
 11
172.289956216
 21
122.5951710691
  0
LINE
  5
4B3
100
AcDbEntity
  8
0
100
AcDbLine
 62
253
  6
CONTINUOUS
 10
175.1619714549
 20
123.3666983339
 11
174.8771727891
 21
123.3771901369
  0
LINE
  5
4B4
100
AcDbEntity
  8
0
100
AcDbLine
 62
253
  6
CONTINUOUS
 10
174.5202993893
 20
123.1767821907
 11
174.5788403478
 21
123.173284923
  0
LINE
  5
4B5
100
AcDbEntity
  8
0
100
AcDbLine
 62
253
  6
CONTINUOUS
 10
170.2248972143
 20
123.7025881277
 11
170.2629108626
 21
123.6904232399
  0
LINE
  5
4B6
100
AcDbEntity
  8
0
100
AcDbLine
 62
253
  6
CONTINUOUS
 10
172.8840354219
 20
123.1962448104
 11
172.7779006032
 21
123.2316737828
  0
LINE
  5
4B7
100
AcDbEntity
  8
0
100
AcDbLine
 62
253
  6
CONTINUOUS
 10
170.18642727
 20
123.715512508
 11
170.2248972143
 21
123.7025881277
  0
LINE
  5
4B8
100
AcDbEntity
  8
0
100
AcDbLine
 62
253
  6
CONTINUOUS
 10
172.9006091685
 20
123.639181014
 11
173.1455700032
 21
123.5525098156
  0
LINE
  5
4B9
100
AcDbEntity
  8
0
100
AcDbLine
 62
253
  6
CONTINUOUS
 10
172.9894097476
 20
123.1577748662
 11
172.8840354219
 21
123.1962448104
  0
LINE
  5
4BA
100
AcDbEntity
  8
0
100
AcDbLine
 62
253
  6
CONTINUOUS
 10
173.2845481178
 20
122.1744352604
 11
173.2292002297
 21
122.1946583733
  0
LINE
  5
4BB
100
AcDbEntity
  8
0
100
AcDbLine
 62
253
  6
CONTINUOUS
 10
173.0925025938
 20
123.1151992598
 11
172.9894097476
 21
123.1577748662
  0
LINE
  5
4BC
100
AcDbEntity
  8
0
100
AcDbLine
 62
253
  6
CONTINUOUS
 10
170.4978351895
 20
123.947701061
 11
171.1801065801
 21
123.6657912683
  0
LINE
  5
4BD
100
AcDbEntity
  8
0
100
AcDbLine
 62
253
  6
CONTINUOUS
 10
171.1176120581
 20
124.1189150776
 11
170.8585100542
 21
124.226113586
  0
LINE
  5
4BE
100
AcDbEntity
  8
0
100
AcDbLine
 62
253
  6
CONTINUOUS
 10
173.1455700032
 20
123.5525098156
 11
173.4180526833
 21
123.4313222366
  0
LINE
  5
4BF
100
AcDbEntity
  8
0
100
AcDbLine
 62
253
  6
CONTINUOUS
 10
174.5788403478
 20
123.173284923
 11
174.6281062922
 21
123.1495635419
  0
LINE
  5
4C0
100
AcDbEntity
  8
0
100
AcDbLine
 62
253
  6
CONTINUOUS
 10
174.6281062922
 20
123.1495635419
 11
174.6775243353
 21
123.1252347669
  0
LINE
  5
4C1
100
AcDbEntity
  8
0
100
AcDbLine
 62
253
  6
CONTINUOUS
 10
173.4180526833
 20
123.4313222366
 11
173.4490717963
 21
123.4053203768
  0
LINE
  5
4C2
100
AcDbEntity
  8
0
100
AcDbLine
 62
253
  6
CONTINUOUS
 10
174.8353576758
 20
123.7629542696
 11
174.8894887749
 21
123.7162730011
  0
LINE
  5
4C3
100
AcDbEntity
  8
0
100
AcDbLine
 62
253
  6
CONTINUOUS
 10
174.7371299841
 20
123.4328422222
 11
174.6293230812
 21
123.525900562
  0
LINE
  5
4C4
100
AcDbEntity
  8
0
100
AcDbLine
 62
253
  6
CONTINUOUS
 10
174.6293230812
 20
123.525900562
 11
174.5218203756
 21
123.6192620984
  0
LINE
  5
4C5
100
AcDbEntity
  8
0
100
AcDbLine
 62
253
  6
CONTINUOUS
 10
174.7815297733
 20
123.8097866361
 11
174.8353576758
 21
123.7629542696
  0
LINE
  5
4C6
100
AcDbEntity
  8
0
100
AcDbLine
 62
253
  6
CONTINUOUS
 10
171.8975017452
 20
126.0018119639
 11
172.2659316382
 21
125.6333830714
  0
LINE
  5
4C7
100
AcDbEntity
  8
0
100
AcDbLine
 62
253
  6
CONTINUOUS
 10
172.4015645838
 20
126.0900041484
 11
172.1383569177
 21
126.3659840961
  0
LINE
  5
4C8
100
AcDbEntity
  8
0
100
AcDbLine
 62
253
  6
CONTINUOUS
 10
175.8611207893
 20
123.6098349858
 11
175.8332947466
 21
123.6402457043
  0
LINE
  5
4C9
100
AcDbEntity
  8
0
100
AcDbLine
 62
253
  6
CONTINUOUS
 10
172.3173259627
 20
126.5957390712
 11
172.5063305149
 21
126.3860551104
  0
LINE
  5
4CA
100
AcDbEntity
  8
0
100
AcDbLine
 62
253
  6
CONTINUOUS
 10
175.888490536
 20
123.5791190693
 11
175.8611207893
 21
123.6098349858
  0
LINE
  5
4CB
100
AcDbEntity
  8
0
100
AcDbLine
 62
253
  6
CONTINUOUS
 10
175.5635488411
 20
124.8259705383
 11
175.591679081
 21
124.7902373686
  0
LINE
  5
4CC
100
AcDbEntity
  8
0
100
AcDbLine
 62
253
  6
CONTINUOUS
 10
172.9095809859
 20
126.5568128311
 11
172.66902901
 21
126.8663975685
  0
LINE
  5
4CD
100
AcDbEntity
  8
0
100
AcDbLine
 62
253
  6
CONTINUOUS
 10
175.3692228385
 20
124.5642838585
 11
175.2681062736
 21
124.6942911563
  0
LINE
  5
4CE
100
AcDbEntity
  8
0
100
AcDbLine
 62
253
  6
CONTINUOUS
 10
175.591679081
 20
124.7902373686
 11
175.6167683491
 21
124.75769827
  0
LINE
  5
4CF
100
AcDbEntity
  8
0
100
AcDbLine
 62
253
  6
CONTINUOUS
 10
172.9308677885
 20
126.5289867885
 11
172.9095809859
 21
126.5568128311
  0
LINE
  5
4D0
100
AcDbEntity
  8
0
100
AcDbLine
 62
253
  6
CONTINUOUS
 10
175.7825088166
 20
124.3708704476
 11
175.7554422664
 21
124.4062984194
  0
LINE
  5
4D1
100
AcDbEntity
  8
0
100
AcDbLine
 62
253
  6
CONTINUOUS
 10
174.6048422076
 20
124.6060989718
 11
174.5633312916
 21
124.6606873673
  0
LINE
  5
4D2
100
AcDbEntity
  8
0
100
AcDbLine
 62
253
  6
CONTINUOUS
 10
176.162646301
 20
125.1867975016
 11
176.2210351608
 21
125.0691071902
  0
LWPOLYLINE
  5
4D3
100
AcDbEntity
  8
ASSI
100
AcDbPolyline
 62
253
  6
CONTINUOUS
 90
16
 70
0
 10
182.274130105
 20
133.3313801813
 10
182.2713586944
 20
133.3836028406
 10
182.2631463363
 20
133.435254008
 10
182.2495828783
 20
133.4857682856
 10
182.2308167434
 20
133.5345927157
 10
182.20705331
 20
133.5811928234
 10
182.1785526681
 20
133.6250584693
 10
182.1456267616
 20
133.6657094542
 10
182.1086359859
 20
133.7027007542
 10
182.0679852562
 20
133.7356273908
 10
182.024119539
 20
133.7641288976
 10
181.977519006
 20
133.7878932409
 10
181.9286938038
 20
133.8066602318
 10
181.8781784187
 20
133.8202244038
 10
181.8265258203
 20
133.8284372515
 10
181.7743014427
 20
133.8312088439
  0
LWPOLYLINE
  5
4D4
100
AcDbEntity
  8
RACCORDO
100
AcDbPolyline
 62
253
  6
CONTINUOUS
 90
16
 70
0
 10
182.274130105
 20
133.3313801813
 10
182.2713586944
 20
133.3836028406
 10
182.2631463363
 20
133.435254008
 10
182.2495828783
 20
133.4857682856
 10
182.2308167434
 20
133.5345927157
 10
182.20705331
 20
133.5811928234
 10
182.1785526681
 20
133.6250584693
 10
182.1456267616
 20
133.6657094542
 10
182.1086359859
 20
133.7027007542
 10
182.0679852562
 20
133.7356273908
 10
182.024119539
 20
133.7641288976
 10
181.977519006
 20
133.7878932409
 10
181.9286938038
 20
133.8066602318
 10
181.8781784187
 20
133.8202244038
 10
181.8265258203
 20
133.8284372515
 10
181.7743014427
 20
133.8312088439
  0
LWPOLYLINE
  5
4D5
100
AcDbEntity
  8
ASSI
100
AcDbPolyline
 62
253
  6
CONTINUOUS
 90
16
 70
0
 10
182.274130105
 20
90.3387900962
 10
182.2713585922
 20
90.2865664702
 10
182.2631459632
 20
90.2349145185
 10
182.2495821189
 20
90.1843996576
 10
182.230815538
 20
90.1355748566
 10
182.207051652
 20
90.0889745839
 10
182.1785505962
 20
90.0451089569
 10
182.1456243618
 20
90.0044581579
 10
182.1086333813
 20
89.9674671773
 10
182.0679825823
 20
89.9345409429
 10
182.0241169553
 20
89.9060398869
 10
181.9775166826
 20
89.8822760009
 10
181.9286918814
 20
89.8635094199
 10
181.8781770204
 20
89.8499455756
 10
181.8265250687
 20
89.8417329465
 10
181.7743014426
 20
89.8389614337
  0
LWPOLYLINE
  5
4D6
100
AcDbEntity
  8
RACCORDO
100
AcDbPolyline
 62
253
  6
CONTINUOUS
 90
16
 70
0
 10
182.274130105
 20
90.3387900962
 10
182.2713585922
 20
90.2865664702
 10
182.2631459632
 20
90.2349145185
 10
182.2495821189
 20
90.1843996576
 10
182.230815538
 20
90.1355748566
 10
182.207051652
 20
90.0889745839
 10
182.1785505962
 20
90.0451089569
 10
182.1456243618
 20
90.0044581579
 10
182.1086333813
 20
89.9674671773
 10
182.0679825823
 20
89.9345409429
 10
182.0241169553
 20
89.9060398869
 10
181.9775166826
 20
89.8822760009
 10
181.9286918814
 20
89.8635094199
 10
181.8781770204
 20
89.8499455756
 10
181.8265250687
 20
89.8417329465
 10
181.7743014426
 20
89.8389614337
  0
LINE
  5
4D7
100
AcDbEntity
  8
RACCORDO
100
AcDbLine
 62
7
  6
CONTINUOUS
 10
177.389419224
 20
97.3542116456
 11
177.3784614901
 21
97.3342867558
  0
LWPOLYLINE
  5
4D8
100
AcDbEntity
  8
RACCORDO
100
AcDbPolyline
 62
7
  6
CONTINUOUS
 90
18
 70
0
 10
177.3784614901
 20
97.3342867558
 10
177.3665962683
 20
97.3148599524
 10
177.3539124584
 20
97.2960545682
 10
177.3404326077
 20
97.2778997018
 10
177.3261341689
 20
97.2603662546
 10
177.3110383998
 20
97.2434902633
 10
177.2951049663
 20
97.2272335489
 10
177.2783742025
 20
97.2116342905
 10
177.2609883679
 20
97.1968430615
 10
177.2429362499
 20
97.1828742426
 10
177.2242290612
 20
97.1697134533
 10
177.2050426994
 20
97.1574681251
 10
177.1854233935
 20
97.1461698397
 10
177.1653249146
 20
97.1357870154
 10
177.1447844739
 20
97.1263323387
 10
177.1237673996
 20
97.117789061
 10
177.1023083634
 20
97.1101739308
 10
177.0805485922
 20
97.1035498799
  0
LINE
  5
4D9
100
AcDbEntity
  8
0
100
AcDbLine
 62
253
  6
CONTINUOUS
 10
170.1058380153
 20
123.7054770009
 11
170.1446121567
 21
123.7162730011
  0
LINE
  5
4DA
100
AcDbEntity
  8
0
100
AcDbLine
 62
253
  6
CONTINUOUS
 10
169.8554036315
 20
123.639181014
 11
170.1058380153
 21
123.7054770009
  0
LWPOLYLINE
  5
4DB
100
AcDbEntity
  8
ASSI
100
AcDbPolyline
 62
253
  6
CONTINUOUS
 90
7
 70
0
 10
160.5200105732
 20
121.3255851387
 10
160.5240034351
 20
121.3265620054
 10
160.5332493946
 20
121.3275285227
 10
160.5476504958
 20
121.3284744509
 10
160.5670541674
 20
121.3293897686
 10
160.5912548385
 20
121.3302647783
 10
160.6199961168
 20
121.3310902099
  0
LWPOLYLINE
  5
4DC
100
AcDbEntity
  8
RACCORDO
100
AcDbPolyline
 62
253
  6
CONTINUOUS
 90
7
 70
0
 10
160.5200105732
 20
121.3255851387
 10
160.5240034351
 20
121.3265620054
 10
160.5332493946
 20
121.3275285227
 10
160.5476504958
 20
121.3284744509
 10
160.5670541674
 20
121.3293897686
 10
160.5912548385
 20
121.3302647783
 10
160.6199961168
 20
121.3310902099
  0
LINE
  5
4DD
100
AcDbEntity
  8
0
100
AcDbLine
 62
253
  6
CONTINUOUS
 10
174.8834068313
 20
124.5434523512
 11
174.7800097878
 21
124.5249013225
  0
LINE
  5
4DE
100
AcDbEntity
  8
0
100
AcDbLine
 62
253
  6
CONTINUOUS
 10
176.1298020044
 20
124.7797455657
 11
176.0890515815
 21
124.7760961994
  0
LINE
  5
4DF
100
AcDbEntity
  8
0
100
AcDbLine
 62
253
  6
CONTINUOUS
 10
176.0890515815
 20
124.7760961994
 11
176.0479959607
 21
124.772903129
  0
LINE
  5
4E0
100
AcDbEntity
  8
0
100
AcDbLine
 62
253
  6
CONTINUOUS
 10
174.925830339
 20
125.0260752879
 11
174.9702301282
 21
125.0283557666
  0
LINE
  5
4E1
100
AcDbEntity
  8
0
100
AcDbLine
 62
253
  6
CONTINUOUS
 10
175.4394723889
 20
124.3593139543
 11
175.4838721781
 21
124.3611381371
  0
LINE
  5
4E2
100
AcDbEntity
  8
0
100
AcDbLine
 62
253
  6
CONTINUOUS
 10
172.56958553
 20
123.715512508
 11
172.6114006433
 21
123.7165771983
  0
LINE
  5
4E3
100
AcDbEntity
  8
0
100
AcDbLine
 62
253
  6
CONTINUOUS
 10
174.7590261818
 20
125.0615042604
 11
174.8269942529
 21
125.0622637529
  0
LINE
  5
4E4
100
AcDbEntity
  8
0
100
AcDbLine
 62
253
  6
CONTINUOUS
 10
175.7355233508
 20
125.0864414299
 11
175.6900588713
 21
125.0861372326
  0
LINE
  5
4E5
100
AcDbEntity
  8
0
100
AcDbLine
 62
253
  6
CONTINUOUS
 10
171.1801065801
 20
123.6657912683
 11
171.5765136138
 21
123.6657912683
  0
LINE
  5
4E6
100
AcDbEntity
  8
0
100
AcDbLine
 62
253
  6
CONTINUOUS
 10
171.6384007419
 20
124.1189150776
 11
171.1176120581
 21
124.1189150776
  0
LINE
  5
4E7
100
AcDbEntity
  8
0
100
AcDbLine
 62
253
  6
CONTINUOUS
 10
175.7809878304
 20
125.0864414299
 11
175.7355233508
 21
125.0864414299
  0
LINE
  5
4E8
100
AcDbEntity
  8
0
100
AcDbLine
 62
253
  6
CONTINUOUS
 10
170.1446121567
 20
123.7162730011
 11
170.18642727
 21
123.715512508
  0
LINE
  5
4E9
100
AcDbEntity
  8
0
100
AcDbLine
 62
253
  6
CONTINUOUS
 10
174.9595862266
 20
123.6882948598
 11
175.1017584123
 21
123.6838850004
  0
LINE
  5
4EA
100
AcDbEntity
  8
0
100
AcDbLine
 62
253
  6
CONTINUOUS
 10
176.0958940182
 20
123.5514451253
 11
175.969383988
 21
123.5579833647
  0
LINE
  5
4EB
100
AcDbEntity
  8
0
100
AcDbLine
 62
253
  6
CONTINUOUS
 10
175.9449031144
 20
123.8739542429
 11
176.0402419329
 21
123.868935989
  0
LINE
  5
4EC
100
AcDbEntity
  8
0
100
AcDbLine
 62
253
  6
CONTINUOUS
 10
175.969383988
 20
123.5579833647
 11
175.9283293679
 21
123.5605690413
  0
LINE
  5
4ED
100
AcDbEntity
  8
0
100
AcDbLine
 62
253
  6
CONTINUOUS
 10
175.9782027062
 20
124.6711791703
 11
176.1120114689
 21
124.6599268742
  0
LINE
  5
4EE
100
AcDbEntity
  8
0
100
AcDbLine
 62
253
  6
CONTINUOUS
 10
176.046932271
 20
124.3433476015
 11
175.9897591995
 21
124.3488221513
  0
LINE
  5
4EF
100
AcDbEntity
  8
0
100
AcDbLine
 62
253
  6
CONTINUOUS
 10
175.4894978258
 20
124.5325042523
 11
175.4485953043
 21
124.5372183089
  0
LINE
  5
4F0
100
AcDbEntity
  8
0
100
AcDbLine
 62
253
  6
CONTINUOUS
 10
175.89776555
 20
124.3243412777
 11
175.8536699581
 21
124.3296627282
  0
LINE
  5
4F1
100
AcDbEntity
  8
0
100
AcDbLine
 62
253
  6
CONTINUOUS
 10
175.4485953043
 20
124.5372183089
 11
175.4076927827
 21
124.5422355622
  0
LINE
  5
4F2
100
AcDbEntity
  8
0
100
AcDbLine
 62
253
  6
CONTINUOUS
 10
174.6118367429
 20
124.2311318399
 11
174.7590261818
 21
124.2028495014
  0
LINE
  5
4F3
100
AcDbEntity
  8
0
100
AcDbLine
 62
253
  6
CONTINUOUS
 10
174.7800097878
 20
124.5249013225
 11
174.7131054064
 21
124.5387382945
  0
LINE
  5
4F4
100
AcDbEntity
  8
0
100
AcDbLine
 62
253
  6
CONTINUOUS
 10
174.590853137
 20
124.0799888375
 11
174.6341882358
 21
124.0705617249
  0
LINE
  5
4F5
100
AcDbEntity
  8
0
100
AcDbLine
 62
253
  6
CONTINUOUS
 10
174.9265908321
 20
124.5340252385
 11
174.8834068313
 21
124.5434523512
  0
LWPOLYLINE
  5
4F6
100
AcDbEntity
  8
ASSI
100
AcDbPolyline
 62
253
  6
CONTINUOUS
 90
9
 70
0
 10
182.2360022269
 20
121.3255851387
 10
182.2320093683
 20
121.3265620054
 10
182.2227634117
 20
121.3275285228
 10
182.2083623128
 20
121.3284744511
 10
182.188958643
 20
121.3293897688
 10
182.1647579731
 20
121.3302647786
 10
182.1360166954
 20
121.3310902103
 10
182.1030393075
 20
121.3318573188
 10
182.0258148852
 20
121.3331847624
  0
LWPOLYLINE
  5
4F7
100
AcDbEntity
  8
RACCORDO
100
AcDbPolyline
 62
253
  6
CONTINUOUS
 90
9
 70
0
 10
182.2360022269
 20
121.3255851387
 10
182.2320093683
 20
121.3265620054
 10
182.2227634117
 20
121.3275285228
 10
182.2083623128
 20
121.3284744511
 10
182.188958643
 20
121.3293897688
 10
182.1647579731
 20
121.3302647786
 10
182.1360166954
 20
121.3310902103
 10
182.1030393075
 20
121.3318573188
 10
182.0258148852
 20
121.3331847624
  0
LINE
  5
4F8
100
AcDbEntity
  8
0
100
AcDbLine
 62
253
  6
CONTINUOUS
 10
172.6501747847
 20
123.7057811981
 11
172.9006091685
 21
123.639181014
  0
LINE
  5
4F9
100
AcDbEntity
  8
0
100
AcDbLine
 62
253
  6
CONTINUOUS
 10
172.6114006433
 20
123.7165771983
 11
172.6501747847
 21
123.7057811981
  0
LINE
  5
4FA
100
AcDbEntity
  8
0
100
AcDbLine
 62
253
  6
CONTINUOUS
 10
175.4838721781
 20
124.3611381371
 11
175.5609641652
 21
124.3330078972
  0
LINE
  5
4FB
100
AcDbEntity
  8
0
100
AcDbLine
 62
253
  6
CONTINUOUS
 10
174.8771727891
 20
123.3771901369
 11
174.7371299841
 21
123.4328422222
  0
LINE
  5
4FC
100
AcDbEntity
  8
0
100
AcDbLine
 62
253
  6
CONTINUOUS
 10
174.8894887749
 20
123.7162730011
 11
174.9595862266
 21
123.6882948598
  0
LINE
  5
4FD
100
AcDbEntity
  8
0
100
AcDbLine
 62
253
  6
CONTINUOUS
 10
171.6384007419
 20
126.1090114729
 11
171.8975017452
 21
126.0018119639
  0
LINE
  5
4FE
100
AcDbEntity
  8
0
100
AcDbLine
 62
253
  6
CONTINUOUS
 10
176.0965024127
 20
124.3214524045
 11
176.046932271
 21
124.3433476015
  0
LINE
  5
4FF
100
AcDbEntity
  8
0
100
AcDbLine
 62
253
  6
CONTINUOUS
 10
175.9283293679
 20
123.5605690413
 11
175.888490536
 21
123.5791190693
  0
LINE
  5
500
100
AcDbEntity
  8
0
100
AcDbLine
 62
253
  6
CONTINUOUS
 10
176.1460715538
 20
124.2983394179
 11
176.0965024127
 21
124.3214524045
  0
LINE
  5
501
100
AcDbEntity
  8
0
100
AcDbLine
 62
253
  6
CONTINUOUS
 10
175.8536699581
 20
124.3296627282
 11
175.8177846898
 21
124.3501900382
  0
LINE
  5
502
100
AcDbEntity
  8
0
100
AcDbLine
 62
253
  6
CONTINUOUS
 10
175.4076927827
 20
124.5422355622
 11
175.3692228385
 21
124.5642838585
  0
LINE
  5
503
100
AcDbEntity
  8
0
100
AcDbLine
 62
253
  6
CONTINUOUS
 10
175.8177846898
 20
124.3501900382
 11
175.7825088166
 21
124.3708704476
  0
LINE
  5
504
100
AcDbEntity
  8
0
100
AcDbLine
 62
253
  6
CONTINUOUS
 10
174.7131054064
 20
124.5387382945
 11
174.6586691094
 21
124.5723430842
  0
LINE
  5
505
100
AcDbEntity
  8
0
100
AcDbLine
 62
253
  6
CONTINUOUS
 10
172.0682604666
 20
126.751291933
 11
172.3173259627
 21
126.5957390712
  0
LINE
  5
506
100
AcDbEntity
  8
0
100
AcDbLine
 62
253
  6
CONTINUOUS
 10
174.3732620491
 20
124.3802975602
 11
174.6118367429
 21
124.2311318399
  0
LINE
  5
507
100
AcDbEntity
  8
0
100
AcDbLine
 62
253
  6
CONTINUOUS
 10
174.6586691094
 20
124.5723430842
 11
174.6048422076
 21
124.6060989718
  0
LINE
  5
508
100
AcDbEntity
  8
0
100
AcDbLine
 62
253
  6
CONTINUOUS
 10
174.6341882358
 20
124.0705617249
 11
174.6676409268
 21
124.0476008368
  0
LINE
  5
509
100
AcDbEntity
  8
0
100
AcDbLine
 62
253
  6
CONTINUOUS
 10
172.66902901
 20
126.8663975685
 11
172.3322276251
 21
127.1010176981
  0
LINE
  5
50A
100
AcDbEntity
  8
0
100
AcDbLine
 62
253
  6
CONTINUOUS
 10
174.994254706
 20
124.4867355755
 11
174.9265908321
 21
124.5340252385
  0
LINE
  5
50B
100
AcDbEntity
  8
0
100
AcDbLine
 62
253
  6
CONTINUOUS
 10
174.6676409268
 20
124.0476008368
 11
174.7012447158
 21
124.0234241605
  0
LINE
  5
50C
100
AcDbEntity
  8
0
100
AcDbLine
 62
253
  6
CONTINUOUS
 10
176.0060287488
 20
124.7855243127
 11
175.9427747344
 21
124.8387438206
  0
LINE
  5
50D
100
AcDbEntity
  8
0
100
AcDbLine
 62
253
  6
CONTINUOUS
 10
175.9803320869
 20
125.3532974616
 11
176.0715652432
 21
125.2704277281
  0
LINE
  5
50E
100
AcDbEntity
  8
0
100
AcDbLine
 62
253
  6
CONTINUOUS
 10
175.5609641652
 20
124.3330078972
 11
175.5938084617
 21
124.3030534745
  0
LINE
  5
50F
100
AcDbEntity
  8
0
100
AcDbLine
 62
253
  6
CONTINUOUS
 10
175.8932045927
 20
125.0076763579
 11
175.8258439154
 21
125.0691071902
  0
LINE
  5
510
100
AcDbEntity
  8
0
100
AcDbLine
 62
253
  6
CONTINUOUS
 10
176.0715652432
 20
125.2704277281
 11
176.162646301
 21
125.1867975016
  0
LINE
  5
511
100
AcDbEntity
  8
0
100
AcDbLine
 62
253
  6
CONTINUOUS
 10
175.0660252426
 20
125.2917155313
 11
175.0334851433
 21
125.321669954
  0
LINE
  5
512
100
AcDbEntity
  8
0
100
AcDbLine
 62
253
  6
CONTINUOUS
 10
176.1868229773
 20
124.2586536853
 11
176.1460715538
 21
124.2983394179
  0
LINE
  5
513
100
AcDbEntity
  8
0
100
AcDbLine
 62
253
  6
CONTINUOUS
 10
176.3423748385
 20
124.5542483514
 11
176.4383220514
 21
124.4604305191
  0
LWPOLYLINE
  5
514
100
AcDbEntity
  8
RACCORDO
100
AcDbPolyline
 62
253
  6
CONTINUOUS
 90
25
 70
0
 10
177.4279086372
 20
97.4916352983
 10
177.4273808291
 20
97.4910457022
 10
177.4262452715
 20
97.4905863295
 10
177.4245066824
 20
97.490259089
 10
177.422172285
 20
97.4900653402
 10
177.4192517783
 20
97.490005888
 10
177.4157572959
 20
97.4900809795
 10
177.4117033564
 20
97.4902903027
 10
177.4071068028
 20
97.4906329878
 10
177.4019867325
 20
97.4911076113
 10
177.3963644177
 20
97.491712201
 10
177.3902632177
 20
97.4924442452
 10
177.3837084811
 20
97.4933007024
 10
177.3767274408
 20
97.4942780143
 10
177.3693491012
 20
97.4953721203
 10
177.361604117
 20
97.496578475
 10
177.3535246664
 20
97.4978920661
 10
177.3451443172
 20
97.4993074361
 10
177.3364978873
 20
97.5008187045
 10
177.3276213
 20
97.5024195925
 10
177.318551435
 20
97.5041034489
 10
177.3093259749
 20
97.5058632776
 10
177.2999832488
 20
97.5076917672
 10
177.2905620731
 20
97.5095813208
 10
177.2811015899
 20
97.5115240879
  0
LINE
  5
515
100
AcDbEntity
  8
0
100
AcDbLine
 62
253
  6
CONTINUOUS
 10
174.8622711267
 20
125.3837081801
 11
174.7123449133
 21
125.3811235042
  0
LINE
  5
516
100
AcDbEntity
  8
0
100
AcDbLine
 62
253
  6
CONTINUOUS
 10
175.6108385041
 20
125.3999787301
 11
175.7343065618
 21
125.4007392232
  0
LINE
  5
517
100
AcDbEntity
  8
0
100
AcDbLine
 62
253
  6
CONTINUOUS
 10
175.7343065618
 20
125.4007392232
 11
175.8577756202
 21
125.4007392232
  0
LINE
  5
518
100
AcDbEntity
  8
0
100
AcDbLine
 62
253
  6
CONTINUOUS
 10
171.1176120581
 20
126.1090114729
 11
171.6384007419
 21
126.1090114729
  0
LINE
  5
519
100
AcDbEntity
  8
0
100
AcDbLine
 62
253
  6
CONTINUOUS
 10
171.7592841237
 20
126.5279230988
 11
170.9967286763
 21
126.5279230988
  0
LINE
  5
51A
100
AcDbEntity
  8
0
100
AcDbLine
 62
253
  6
CONTINUOUS
 10
171.524815092
 20
126.9071479914
 11
172.0682604666
 21
126.751291933
  0
LINE
  5
51B
100
AcDbEntity
  8
0
100
AcDbLine
 62
253
  6
CONTINUOUS
 10
176.0479959607
 20
124.772903129
 11
176.0060287488
 21
124.7855243127
  0
LINE
  5
51C
100
AcDbEntity
  8
0
100
AcDbLine
 62
253
  6
CONTINUOUS
 10
171.9578678871
 20
127.2185569116
 11
171.5830528539
 21
127.3357909271
  0
LINE
  5
51D
100
AcDbEntity
  8
0
100
AcDbLine
 62
253
  6
CONTINUOUS
 10
172.3322276251
 20
127.1010176981
 11
171.9578678871
 21
127.2185569116
  0
LINE
  5
51E
100
AcDbEntity
  8
0
100
AcDbLine
 62
253
  6
CONTINUOUS
 10
174.8269942529
 20
125.0622637529
 11
174.8870561976
 21
125.0405206544
  0
LINE
  5
51F
100
AcDbEntity
  8
0
100
AcDbLine
 62
253
  6
CONTINUOUS
 10
175.0334851433
 20
125.321669954
 11
174.8622711267
 21
125.3837081801
  0
LINE
  5
520
100
AcDbEntity
  8
0
100
AcDbLine
 62
253
  6
CONTINUOUS
 10
174.8870561976
 20
125.0405206544
 11
174.925830339
 21
125.0260752879
  0
LINE
  5
521
100
AcDbEntity
  8
0
100
AcDbLine
 62
253
  6
CONTINUOUS
 10
175.8258439154
 20
125.0691071902
 11
175.7809878304
 21
125.0864414299
  0
LINE
  5
522
100
AcDbEntity
  8
0
100
AcDbLine
 62
253
  6
CONTINUOUS
 10
175.8577756202
 20
125.4007392232
 11
175.9803320869
 21
125.3532974616
  0
LINE
  5
523
100
AcDbEntity
  8
0
100
AcDbLine
 62
253
  6
CONTINUOUS
 10
172.1383569177
 20
126.3659840961
 11
171.7592841237
 21
126.5279230988
  0
LINE
  5
524
100
AcDbEntity
  8
0
100
AcDbLine
 62
253
  6
CONTINUOUS
 10
176.1120114689
 20
124.6599268742
 11
176.227269203
 21
124.6074678594
  0
LINE
  5
525
100
AcDbEntity
  8
0
100
AcDbLine
 62
253
  6
CONTINUOUS
 10
176.227269203
 20
124.6074678594
 11
176.3423748385
 21
124.5542483514
  0
LINE
  5
526
100
AcDbEntity
  8
0
100
AcDbLine
 62
253
  6
CONTINUOUS
 10
171.2311967074
 20
126.9071479914
 11
171.524815092
 21
126.9071479914
  0
LINE
  5
527
100
AcDbEntity
  8
0
100
AcDbLine
 62
253
  6
CONTINUOUS
 10
171.5830528539
 20
127.3357909271
 11
171.1729599461
 21
127.3357909271
  0
LWPOLYLINE
  5
528
100
AcDbEntity
  8
ASSI
100
AcDbPolyline
 62
253
  6
CONTINUOUS
 90
16
 70
0
 10
182.2615248258
 20
90.7644251273
 10
182.257544449
 20
90.7567948032
 10
182.2483090412
 20
90.7492453621
 10
182.2339164798
 20
90.7418568138
 10
182.2145192982
 20
90.7347074624
 10
182.1903230689
 20
90.7278730774
 10
182.1615842254
 20
90.7214260899
 10
182.1286073439
 20
90.7154348257
 10
182.0917419154
 20
90.7099627804
 10
182.0513786425
 20
90.7050679473
 10
182.0079452977
 20
90.7008022021
 10
181.9619021907
 20
90.6972107534
 10
181.9137372894
 20
90.6943316634
 10
181.8639610487
 20
90.6921954448
 10
181.8131010006
 20
90.6908247374
 10
181.7616961634
 20
90.690234068
  0
LWPOLYLINE
  5
529
100
AcDbEntity
  8
RACCORDO
100
AcDbPolyline
 62
253
  6
CONTINUOUS
 90
16
 70
0
 10
182.2615248258
 20
90.7644251273
 10
182.257544449
 20
90.7567948032
 10
182.2483090412
 20
90.7492453621
 10
182.2339164798
 20
90.7418568138
 10
182.2145192982
 20
90.7347074624
 10
182.1903230689
 20
90.7278730774
 10
182.1615842254
 20
90.7214260899
 10
182.1286073439
 20
90.7154348257
 10
182.0917419154
 20
90.7099627804
 10
182.0513786425
 20
90.7050679473
 10
182.0079452977
 20
90.7008022021
 10
181.9619021907
 20
90.6972107534
 10
181.9137372894
 20
90.6943316634
 10
181.8639610487
 20
90.6921954448
 10
181.8131010006
 20
90.6908247374
 10
181.7616961634
 20
90.690234068
  0
LWPOLYLINE
  5
52A
100
AcDbEntity
  8
ASSI
100
AcDbPolyline
 62
253
  6
CONTINUOUS
 90
16
 70
0
 10
182.2615248259
 20
132.9057451501
 10
182.2575454051
 20
132.913375685
 10
182.2483108062
 20
132.9209253488
 10
182.2339189004
 20
132.9283141276
 10
182.2145222181
 20
132.9354637127
 10
182.1903263319
 20
132.9422983303
 10
182.161587678
 20
132.9487455449
 10
182.1286108384
 20
132.9547370267
 10
182.0917453127
 20
132.960209276
 10
182.0513818144
 20
132.9651042959
 10
182.0079481294
 20
132.9693702074
 10
181.9619045826
 20
132.9729617989
 10
181.9137391591
 20
132.9758410058
 10
181.8639623325
 20
132.9779773134
 10
181.8131016543
 20
132.9793480801
 10
181.7616961634
 20
132.9799387782
  0
LWPOLYLINE
  5
52B
100
AcDbEntity
  8
RACCORDO
100
AcDbPolyline
 62
253
  6
CONTINUOUS
 90
16
 70
0
 10
182.2615248259
 20
132.9057451501
 10
182.2575454051
 20
132.913375685
 10
182.2483108062
 20
132.9209253488
 10
182.2339189004
 20
132.9283141276
 10
182.2145222181
 20
132.9354637127
 10
182.1903263319
 20
132.9422983303
 10
182.161587678
 20
132.9487455449
 10
182.1286108384
 20
132.9547370267
 10
182.0917453127
 20
132.960209276
 10
182.0513818144
 20
132.9651042959
 10
182.0079481294
 20
132.9693702074
 10
181.9619045826
 20
132.9729617989
 10
181.9137391591
 20
132.9758410058
 10
181.8639623325
 20
132.9779773134
 10
181.8131016543
 20
132.9793480801
 10
181.7616961634
 20
132.9799387782
  0
LINE
  5
52C
100
AcDbEntity
  8
ASSI
100
AcDbLine
 62
253
  6
CONTINUOUS
 10
160.9943166367
 20
132.9799387815
 11
181.7616961634
 21
132.9799387815
  0
LINE
  5
52D
100
AcDbEntity
  8
RACCORDO
100
AcDbLine
 62
253
  6
CONTINUOUS
 10
160.9943166367
 20
132.9799387815
 11
181.7616961634
 21
132.9799387815
  0
LINE
  5
52E
100
AcDbEntity
  8
ASSI
100
AcDbLine
 62
253
  6
CONTINUOUS
 10
160.9817113575
 20
133.8312088438
 11
181.7743014426
 21
133.8312088438
  0
LINE
  5
52F
100
AcDbEntity
  8
RACCORDO
100
AcDbLine
 62
253
  6
CONTINUOUS
 10
160.9817113575
 20
133.8312088438
 11
181.7743014426
 21
133.8312088438
  0
LINE
  5
530
100
AcDbEntity
  8
ASSI
100
AcDbLine
 62
7
  6
CONTINUOUS
 10
160.8778350625
 20
133.9350851387
 11
181.8781777375
 21
133.9350851387
  0
LINE
  5
531
100
AcDbEntity
  8
RACCORDO
100
AcDbLine
 62
7
  6
CONTINUOUS
 10
160.8778350625
 20
133.9350851387
 11
181.8781777375
 21
133.9350851387
  0
LINE
  5
532
100
AcDbEntity
  8
ASSI
100
AcDbLine
 62
7
  6
CONTINUOUS
 10
132.7781117228
 20
89.8389614337
 11
136.7449873851
 21
89.7350851387
  0
LINE
  5
533
100
AcDbEntity
  8
RACCORDO
100
AcDbLine
 62
7
  6
CONTINUOUS
 10
132.7781117228
 20
89.8389614337
 11
136.7449873851
 21
89.7350851387
  0
LINE
  5
534
100
AcDbEntity
  8
ASSI
100
AcDbLine
 62
253
  6
CONTINUOUS
 10
132.7781117228
 20
90.3387900962
 11
136.7449873851
 21
90.2349138012
  0
LINE
  5
535
100
AcDbEntity
  8
RACCORDO
100
AcDbLine
 62
253
  6
CONTINUOUS
 10
132.7781117228
 20
90.3387900962
 11
136.7449873851
 21
90.2349138012
  0
LWPOLYLINE
  5
536
100
AcDbEntity
  8
ASSI
100
AcDbPolyline
 62
253
  6
CONTINUOUS
 90
4
 70
0
 10
131.8387036201
 20
90.6943316634
 10
131.8257701872
 20
90.6921954448
 10
131.817966898
 20
90.6908247374
 10
131.8153764524
 20
90.690234068
  0
LWPOLYLINE
  5
537
100
AcDbEntity
  8
RACCORDO
100
AcDbPolyline
 62
253
  6
CONTINUOUS
 90
4
 70
0
 10
131.8387036201
 20
90.6943316634
 10
131.8257701872
 20
90.6921954448
 10
131.817966898
 20
90.6908247374
 10
131.8153764524
 20
90.690234068
  0
LINE
  5
538
100
AcDbEntity
  8
ASSI
100
AcDbLine
 62
253
  6
CONTINUOUS
 10
131.9066515157
 20
90.7050679473
 11
131.8387036201
 21
90.6943316634
  0
LINE
  5
539
100
AcDbEntity
  8
RACCORDO
100
AcDbLine
 62
253
  6
CONTINUOUS
 10
131.9066515157
 20
90.7050679473
 11
131.8387036201
 21
90.6943316634
  0
LWPOLYLINE
  5
53A
100
AcDbEntity
  8
ASSI
100
AcDbPolyline
 62
253
  6
CONTINUOUS
 90
3
 70
0
 10
132.2967355319
 20
90.7644251273
 10
132.2459873486
 20
90.7567948032
 10
131.9066515157
 20
90.7050679473
  0
LWPOLYLINE
  5
53B
100
AcDbEntity
  8
RACCORDO
100
AcDbPolyline
 62
253
  6
CONTINUOUS
 90
3
 70
0
 10
132.2967355319
 20
90.7644251273
 10
132.2459873486
 20
90.7567948032
 10
131.9066515157
 20
90.7050679473
  0
LWPOLYLINE
  5
53C
100
AcDbEntity
  8
RACCORDO
100
AcDbPolyline
 62
253
  6
CONTINUOUS
 90
25
 70
0
 10
131.0042337605
 20
97.4916352983
 10
130.9945976447
 20
97.4910457022
 10
130.9850070024
 20
97.4905863295
 10
130.9755016802
 20
97.490259089
 10
130.9661211698
 20
97.4900653402
 10
130.9569044444
 20
97.490005888
 10
130.9478897969
 20
97.4900809795
 10
130.9391146806
 20
97.4902903027
 10
130.9306155534
 20
97.4906329878
 10
130.9224277268
 20
97.4911076113
 10
130.9145852188
 20
97.491712201
 10
130.9071206128
 20
97.4924442452
 10
130.9000649219
 20
97.4933007024
 10
130.8934474605
 20
97.4942780143
 10
130.8872957223
 20
97.4953721203
 10
130.8816352659
 20
97.496578475
 10
130.8764896088
 20
97.4978920661
 10
130.8718801299
 20
97.4993074361
 10
130.86782598
 20
97.5008187045
 10
130.8643440031
 20
97.5024195925
 10
130.8614486657
 20
97.5041034489
 10
130.859151997
 20
97.5058632776
 10
130.8574635392
 20
97.5076917672
 10
130.8563903072
 20
97.5095813208
 10
130.85593676
 20
97.5115240879
  0
LINE
  5
53D
100
AcDbEntity
  8
RACCORDO
100
AcDbLine
 62
7
  6
CONTINUOUS
 10
131.024886965
 20
97.0939874202
 11
131.0882306001
 21
97.0934346287
  0
LINE
  5
53E
100
AcDbEntity
  8
RACCORDO
100
AcDbLine
 62
253
  6
CONTINUOUS
 10
131.0042337555
 20
97.4916351792
 11
131.0581655415
 21
97.4911424945
  0
LINE
  5
53F
100
AcDbEntity
  8
RACCORDO
100
AcDbLine
 62
253
  6
CONTINUOUS
 10
130.8143667564
 20
101.176800576
 11
130.8656102137
 21
101.1772687096
  0
LWPOLYLINE
  5
540
100
AcDbEntity
  8
RACCORDO
100
AcDbPolyline
 62
253
  6
CONTINUOUS
 90
25
 70
0
 10
130.8143667571
 20
101.1768005613
 10
130.8045775863
 20
101.1764152681
 10
130.794835811
 20
101.1759003824
 10
130.7851830341
 20
101.1752581032
 10
130.7756604783
 20
101.1744911734
 10
130.7663088106
 20
101.1736028682
 10
130.7571679677
 20
101.1725969812
 10
130.7482769863
 20
101.171477808
 10
130.7396738359
 20
101.1702501282
 10
130.7313952569
 20
101.1689191846
 10
130.7234766034
 20
101.1674906612
 10
130.7159516928
 20
101.1659706586
 10
130.7088526605
 20
101.164365668
 10
130.7022098235
 20
101.1626825436
 10
130.6960515506
 20
101.1609284735
 10
130.6904041409
 20
101.1591109483
 10
130.6852917122
 20
101.15723773
 10
130.6807360975
 20
101.1553168184
 10
130.6767567518
 20
101.1533564167
 10
130.6733706691
 20
101.1513648971
 10
130.67059231
 20
101.1493507643
 10
130.6684335397
 20
101.1473226201
 10
130.6669035773
 20
101.1452891255
 10
130.6660089566
 20
101.1432589649
 10
130.6657534982
 20
101.1412408082
  0
LINE
  5
541
100
AcDbEntity
  8
ASSI
100
AcDbLine
 62
253
  6
CONTINUOUS
 10
130.8378931968
 20
102.3351610294
 11
130.8352455533
 21
102.3350851391
  0
LINE
  5
542
100
AcDbEntity
  8
RACCORDO
100
AcDbLine
 62
253
  6
CONTINUOUS
 10
130.8378931968
 20
102.3351610294
 11
130.8352455533
 21
102.3350851391
  0
LINE
  5
543
100
AcDbEntity
  8
ASSI
100
AcDbLine
 62
253
  6
CONTINUOUS
 10
131.3220667993
 20
102.3445851387
 11
130.8378931968
 21
102.3351610294
  0
LINE
  5
544
100
AcDbEntity
  8
RACCORDO
100
AcDbLine
 62
253
  6
CONTINUOUS
 10
131.3220667993
 20
102.3445851387
 11
130.8378931968
 21
102.3351610294
  0
LINE
  5
545
100
AcDbEntity
  8
RACCORDO
100
AcDbLine
 62
7
  6
CONTINUOUS
 10
130.8058360634
 20
101.574271229
 11
130.8529115055
 21
101.5746820501
  0
LWPOLYLINE
  5
546
100
AcDbEntity
  8
ASSI
100
AcDbPolyline
 62
253
  6
CONTINUOUS
 90
10
 70
0
 10
132.2967355318
 20
132.9057451501
 10
132.1141791257
 20
131.6261319735
 10
131.9501704222
 20
130.3445450294
 10
131.8047094213
 20
129.0609843179
 10
131.6777730999
 20
127.7751752387
 10
131.5693844812
 20
126.4873923922
 10
131.4796126348
 20
125.1984595788
 10
131.408480584
 20
123.9086513989
 10
131.3559653055
 20
122.6176932522
 10
131.3220667993
 20
121.3255851387
  0
LWPOLYLINE
  5
547
100
AcDbEntity
  8
RACCORDO
100
AcDbPolyline
 62
253
  6
CONTINUOUS
 90
10
 70
0
 10
132.2967355318
 20
132.9057451501
 10
132.1141791257
 20
131.6261319735
 10
131.9501704222
 20
130.3445450294
 10
131.8047094213
 20
129.0609843179
 10
131.6777730999
 20
127.7751752387
 10
131.5693844812
 20
126.4873923922
 10
131.4796126348
 20
125.1984595788
 10
131.408480584
 20
123.9086513989
 10
131.3559653055
 20
122.6176932522
 10
131.3220667993
 20
121.3255851387
  0
LWPOLYLINE
  5
548
100
AcDbEntity
  8
ASSI
100
AcDbPolyline
 62
253
  6
CONTINUOUS
 90
19
 70
0
 10
132.2967355318
 20
90.7644251273
 10
132.3040126069
 20
90.7262094581
 10
132.3140927958
 20
90.6890292862
 10
132.3269760986
 20
90.6528846119
 10
132.3427762256
 20
90.6175450883
 10
132.3613794664
 20
90.5832410622
 10
132.3824446903
 20
90.5506635732
 10
132.4060171276
 20
90.5198655354
 10
132.4320515479
 20
90.4907940347
 10
132.4600711301
 20
90.4639813688
 10
132.4901089263
 20
90.4394741505
 10
132.5221318843
 20
90.417225767
 10
132.5555640266
 20
90.3976286781
 10
132.5904535854
 20
90.3807291907
 10
132.6267523285
 20
90.3664809978
 10
132.6637395812
 20
90.3551376381
 10
132.7011751188
 20
90.3467836243
 10
132.739299166
 20
90.3413344437
 10
132.7781117228
 20
90.3387900962
  0
LWPOLYLINE
  5
549
100
AcDbEntity
  8
RACCORDO
100
AcDbPolyline
 62
253
  6
CONTINUOUS
 90
19
 70
0
 10
132.2967355318
 20
90.7644251273
 10
132.3040126069
 20
90.7262094581
 10
132.3140927958
 20
90.6890292862
 10
132.3269760986
 20
90.6528846119
 10
132.3427762256
 20
90.6175450883
 10
132.3613794664
 20
90.5832410622
 10
132.3824446903
 20
90.5506635732
 10
132.4060171276
 20
90.5198655354
 10
132.4320515479
 20
90.4907940347
 10
132.4600711301
 20
90.4639813688
 10
132.4901089263
 20
90.4394741505
 10
132.5221318843
 20
90.417225767
 10
132.5555640266
 20
90.3976286781
 10
132.5904535854
 20
90.3807291907
 10
132.6267523285
 20
90.3664809978
 10
132.6637395812
 20
90.3551376381
 10
132.7011751188
 20
90.3467836243
 10
132.739299166
 20
90.3413344437
 10
132.7781117228
 20
90.3387900962
  0
LWPOLYLINE
  5
54A
100
AcDbEntity
  8
RACCORDO
100
AcDbPolyline
 62
253
  6
CONTINUOUS
 90
4
 70
0
 10
131.0245085471
 20
97.0986301273
 10
131.0246865164
 20
97.0960533348
 10
131.0248127171
 20
97.0945053369
 10
131.0248869696
 20
97.0939879574
  0
LINE
  5
54B
100
AcDbEntity
  8
RACCORDO
100
AcDbLine
 62
253
  6
CONTINUOUS
 10
131.0240000586
 20
97.1068447297
 11
131.0245085471
 21
97.0986301273
  0
LINE
  5
54C
100
AcDbEntity
  8
RACCORDO
100
AcDbLine
 62
253
  6
CONTINUOUS
 10
131.02186786
 20
97.1447592676
 11
131.0240000586
 21
97.1068447297
  0
LINE
  5
54D
100
AcDbEntity
  8
RACCORDO
100
AcDbLine
 62
253
  6
CONTINUOUS
 10
131.009541967
 20
97.383806543
 11
131.02186786
 21
97.1447592676
  0
LINE
  5
54E
100
AcDbEntity
  8
RACCORDO
100
AcDbLine
 62
253
  6
CONTINUOUS
 10
131.0042337605
 20
97.4916352983
 11
131.009541967
 21
97.383806543
  0
LWPOLYLINE
  5
54F
100
AcDbEntity
  8
RACCORDO
100
AcDbPolyline
 62
253
  6
CONTINUOUS
 90
19
 70
0
 10
130.8143667564
 20
101.176800576
 10
130.8209719928
 20
100.9750759988
 10
130.8280539805
 20
100.772367029
 10
130.8356127195
 20
100.5687780911
 10
130.8436498358
 20
100.3643875721
 10
130.8521637034
 20
100.1593281095
 10
130.8611494445
 20
99.9537871824
 10
130.8706094471
 20
99.7478930881
 10
130.8805413231
 20
99.5417331096
 10
130.8909330312
 20
99.3354343092
 10
130.9017876077
 20
99.1291051582
 10
130.9131020162
 20
98.9228539803
 10
130.924855106
 20
98.7168077691
 10
130.9370513046
 20
98.5110543329
 10
130.9496861845
 20
98.3057225271
 10
130.9627253129
 20
98.1010001247
 10
130.976157212
 20
97.8970206032
 10
130.9899933595
 20
97.6938636985
 10
131.0042337555
 20
97.4916351792
  0
LINE
  5
550
100
AcDbEntity
  8
RACCORDO
100
AcDbLine
 62
253
  6
CONTINUOUS
 10
130.8072145779
 20
101.4894117635
 11
130.814366761
 21
101.176800468
  0
LINE
  5
551
100
AcDbEntity
  8
RACCORDO
100
AcDbLine
 62
253
  6
CONTINUOUS
 10
130.8059758134
 20
101.5557727845
 11
130.8072145779
 21
101.4894117635
  0
LINE
  5
552
100
AcDbEntity
  8
0
100
AcDbLine
 62
253
  6
CONTINUOUS
 10
130.7995632529
 20
104.4477385717
 11
130.7996443937
 21
104.4422493349
  0
LINE
  5
553
100
AcDbEntity
  8
0
100
AcDbLine
 62
253
  6
CONTINUOUS
 10
130.8552250209
 20
122.178388824
 11
130.8551128999
 21
122.1744352604
  0
LINE
  5
554
100
AcDbEntity
  8
0
100
AcDbLine
 62
253
  6
CONTINUOUS
 10
130.9049717305
 20
123.5579833647
 11
130.9050848669
 21
123.5605690413
  0
LINE
  5
555
100
AcDbEntity
  8
0
100
AcDbLine
 62
253
  6
CONTINUOUS
 10
130.9107662566
 20
123.6882948598
 11
130.9105670709
 21
123.6838850004
  0
LINE
  5
556
100
AcDbEntity
  8
0
100
AcDbLine
 62
253
  6
CONTINUOUS
 10
130.9120004281
 20
123.715512508
 11
130.9120488738
 21
123.7165771983
  0
LINE
  5
557
100
AcDbEntity
  8
0
100
AcDbLine
 62
253
  6
CONTINUOUS
 10
130.919348836
 20
123.8739542429
 11
130.9191118019
 21
123.868935989
  0
LINE
  5
558
100
AcDbEntity
  8
0
100
AcDbLine
 62
253
  6
CONTINUOUS
 10
130.9436015555
 20
124.3593139543
 11
130.9436976638
 21
124.3611381371
  0
LINE
  5
559
100
AcDbEntity
  8
0
100
AcDbLine
 62
253
  6
CONTINUOUS
 10
130.9665250589
 20
124.7760961994
 11
130.9663420653
 21
124.772903129
  0
LINE
  5
55A
100
AcDbEntity
  8
0
100
AcDbLine
 62
253
  6
CONTINUOUS
 10
130.9812046499
 20
125.0260752879
 11
130.9813417799
 21
125.0283557666
  0
LINE
  5
55B
100
AcDbEntity
  8
0
100
AcDbLine
 62
253
  6
CONTINUOUS
 10
130.9833416282
 20
125.0615042604
 11
130.9833875923
 21
125.0622637529
  0
LINE
  5
55C
100
AcDbEntity
  8
0
100
AcDbLine
 62
253
  6
CONTINUOUS
 10
130.9848541789
 20
125.0864414299
 11
130.9848356861
 21
125.0861372326
  0
LWPOLYLINE
  5
55D
100
AcDbEntity
  8
ASSI
100
AcDbPolyline
 62
253
  6
CONTINUOUS
 90
10
 70
0
 10
131.3220667993
 20
102.3445851387
 10
131.3559659924
 20
101.0524641481
 10
131.4084818846
 20
99.7614963518
 10
131.479614476
 20
98.4716817499
 10
131.5693869211
 20
97.1827457532
 10
131.6777760653
 20
95.8949629508
 10
131.8047124449
 20
94.6091571102
 10
131.9501729052
 20
93.3256028207
 10
132.1141806008
 20
92.0440254931
 10
132.2967355318
 20
90.7644251273
  0
LWPOLYLINE
  5
55E
100
AcDbEntity
  8
RACCORDO
100
AcDbPolyline
 62
253
  6
CONTINUOUS
 90
10
 70
0
 10
131.3220667993
 20
102.3445851387
 10
131.3559659924
 20
101.0524641481
 10
131.4084818846
 20
99.7614963518
 10
131.479614476
 20
98.4716817499
 10
131.5693869211
 20
97.1827457532
 10
131.6777760653
 20
95.8949629508
 10
131.8047124449
 20
94.6091571102
 10
131.9501729052
 20
93.3256028207
 10
132.1141806008
 20
92.0440254931
 10
132.2967355318
 20
90.7644251273
  0
LWPOLYLINE
  5
55F
100
AcDbEntity
  8
ASSI
100
AcDbPolyline
 62
253
  6
CONTINUOUS
 90
10
 70
0
 10
131.3220667993
 20
121.3255851387
 10
131.2864446715
 20
119.2166127745
 10
131.259728078
 20
117.107626342
 10
131.2419170187
 20
114.9986258411
 10
131.2330114968
 20
112.8896017259
 10
131.2330115091
 20
110.7805635424
 10
131.2419170464
 20
108.6715399282
 10
131.2597281057
 20
106.5625404291
 10
131.28644469
 20
104.4535554993
 10
131.3220667993
 20
102.3445851387
  0
LWPOLYLINE
  5
560
100
AcDbEntity
  8
RACCORDO
100
AcDbPolyline
 62
253
  6
CONTINUOUS
 90
10
 70
0
 10
131.3220667993
 20
121.3255851387
 10
131.2864446715
 20
119.2166127745
 10
131.259728078
 20
117.107626342
 10
131.2419170187
 20
114.9986258411
 10
131.2330114968
 20
112.8896017259
 10
131.2330115091
 20
110.7805635424
 10
131.2419170464
 20
108.6715399282
 10
131.2597281057
 20
106.5625404291
 10
131.28644469
 20
104.4535554993
 10
131.3220667993
 20
102.3445851387
  0
LWPOLYLINE
  5
561
100
AcDbEntity
  8
RACCORDO
100
AcDbPolyline
 62
253
  6
CONTINUOUS
 90
6
 70
0
 10
130.8058360685
 20
101.574270639
 10
130.8057994734
 20
101.5737526836
 10
130.8057869043
 20
101.5722028965
 10
130.8057983474
 20
101.5696231688
 10
130.8058336447
 20
101.5660192431
 10
130.8059758134
 20
101.5557727845
  0
LINE
  5
562
100
AcDbEntity
  8
ASSI
100
AcDbLine
 62
253
  6
CONTINUOUS
 10
132.7781117228
 20
133.3313801813
 11
132.7756793073
 21
133.435254008
  0
LINE
  5
563
100
AcDbEntity
  8
RACCORDO
100
AcDbLine
 62
253
  6
CONTINUOUS
 10
132.7781117228
 20
133.3313801813
 11
132.7756793073
 21
133.435254008
  0
LINE
  5
564
100
AcDbEntity
  8
ASSI
100
AcDbLine
 62
253
  6
CONTINUOUS
 10
132.7756793073
 20
133.435254008
 11
132.7739246096
 21
133.5345927157
  0
LINE
  5
565
100
AcDbEntity
  8
RACCORDO
100
AcDbLine
 62
253
  6
CONTINUOUS
 10
132.7756793073
 20
133.435254008
 11
132.7739246096
 21
133.5345927157
  0
LWPOLYLINE
  5
566
100
AcDbEntity
  8
ASSI
100
AcDbPolyline
 62
253
  6
CONTINUOUS
 90
11
 70
0
 10
132.7739246096
 20
133.5345927157
 10
132.7729242627
 20
133.6250584693
 10
132.7727219746
 20
133.6657094542
 10
132.7727219614
 20
133.7027007542
 10
132.7729242249
 20
133.7356273908
 10
132.7733265522
 20
133.7641288976
 10
132.7739245406
 20
133.7878932409
 10
132.7747116442
 20
133.8066602318
 10
132.7756792474
 20
133.8202244038
 10
132.7768167589
 20
133.8284372515
 10
132.7781117273
 20
133.8312088439
  0
LWPOLYLINE
  5
567
100
AcDbEntity
  8
RACCORDO
100
AcDbPolyline
 62
253
  6
CONTINUOUS
 90
11
 70
0
 10
132.7739246096
 20
133.5345927157
 10
132.7729242627
 20
133.6250584693
 10
132.7727219746
 20
133.6657094542
 10
132.7727219614
 20
133.7027007542
 10
132.7729242249
 20
133.7356273908
 10
132.7733265522
 20
133.7641288976
 10
132.7739245406
 20
133.7878932409
 10
132.7747116442
 20
133.8066602318
 10
132.7756792474
 20
133.8202244038
 10
132.7768167589
 20
133.8284372515
 10
132.7781117273
 20
133.8312088439
  0
LWPOLYLINE
  5
568
100
AcDbEntity
  8
ASSI
100
AcDbPolyline
 62
253
  6
CONTINUOUS
 90
9
 70
0
 10
132.7727219749
 20
90.0044581579
 10
132.7727219751
 20
89.9674671773
 10
132.7729242501
 20
89.9345409429
 10
132.7733265858
 20
89.9060398869
 10
132.7739245778
 20
89.8822760009
 10
132.7747116801
 20
89.8635094199
 10
132.7756792762
 20
89.8499455756
 10
132.7768167744
 20
89.8417329465
 10
132.7781117228
 20
89.8389614337
  0
LWPOLYLINE
  5
569
100
AcDbEntity
  8
RACCORDO
100
AcDbPolyline
 62
253
  6
CONTINUOUS
 90
9
 70
0
 10
132.7727219749
 20
90.0044581579
 10
132.7727219751
 20
89.9674671773
 10
132.7729242501
 20
89.9345409429
 10
132.7733265858
 20
89.9060398869
 10
132.7739245778
 20
89.8822760009
 10
132.7747116801
 20
89.8635094199
 10
132.7756792762
 20
89.8499455756
 10
132.7768167744
 20
89.8417329465
 10
132.7781117228
 20
89.8389614337
  0
LINE
  5
56A
100
AcDbEntity
  8
ASSI
100
AcDbLine
 62
253
  6
CONTINUOUS
 10
132.7733265849
 20
90.0889745839
 11
132.7727219749
 21
90.0044581579
  0
LINE
  5
56B
100
AcDbEntity
  8
RACCORDO
100
AcDbLine
 62
253
  6
CONTINUOUS
 10
132.7733265849
 20
90.0889745839
 11
132.7727219749
 21
90.0044581579
  0
LINE
  5
56C
100
AcDbEntity
  8
ASSI
100
AcDbLine
 62
253
  6
CONTINUOUS
 10
132.7747116787
 20
90.1843996576
 11
132.7733265849
 21
90.0889745839
  0
LINE
  5
56D
100
AcDbEntity
  8
RACCORDO
100
AcDbLine
 62
253
  6
CONTINUOUS
 10
132.7747116787
 20
90.1843996576
 11
132.7733265849
 21
90.0889745839
  0
LWPOLYLINE
  5
56E
100
AcDbEntity
  8
ASSI
100
AcDbPolyline
 62
253
  6
CONTINUOUS
 90
3
 70
0
 10
132.7781117228
 20
90.3387900962
 10
132.7768167737
 20
90.2865664702
 10
132.7747116787
 20
90.1843996576
  0
LWPOLYLINE
  5
56F
100
AcDbEntity
  8
RACCORDO
100
AcDbPolyline
 62
253
  6
CONTINUOUS
 90
3
 70
0
 10
132.7781117228
 20
90.3387900962
 10
132.7768167737
 20
90.2865664702
 10
132.7747116787
 20
90.1843996576
  0
LINE
  5
570
100
AcDbEntity
  8
ASSI
100
AcDbLine
 62
7
  6
CONTINUOUS
 10
136.7449873851
 20
89.7350851387
 11
136.7449873851
 21
133.9350851387
  0
LINE
  5
571
100
AcDbEntity
  8
RACCORDO
100
AcDbLine
 62
7
  6
CONTINUOUS
 10
136.7449873851
 20
89.7350851387
 11
136.7449873851
 21
133.9350851387
  0
LWPOLYLINE
  5
572
100
AcDbEntity
  8
ASSI
100
AcDbPolyline
 62
253
  6
CONTINUOUS
 90
3
 70
0
 10
131.3220667993
 20
121.3255851387
 10
130.8378931757
 20
121.3350092484
 10
130.835245532
 20
121.3350851387
  0
LWPOLYLINE
  5
573
100
AcDbEntity
  8
RACCORDO
100
AcDbPolyline
 62
253
  6
CONTINUOUS
 90
3
 70
0
 10
131.3220667993
 20
121.3255851387
 10
130.8378931757
 20
121.3350092484
 10
130.835245532
 20
121.3350851387
  0
LWPOLYLINE
  5
574
100
AcDbEntity
  8
ASSI
100
AcDbPolyline
 62
253
  6
CONTINUOUS
 90
19
 70
0
 10
132.7781117228
 20
133.3313801813
 10
132.7392886912
 20
133.3288367826
 10
132.7011506674
 20
133.3233842563
 10
132.6636976514
 20
133.3150226024
 10
132.6266870671
 20
133.3036670352
 10
132.5903614906
 20
133.2894023403
 10
132.5554486503
 20
133.272482875
 10
132.5219956443
 20
133.2528573149
 10
132.4899553744
 20
133.2305769844
 10
132.4599142743
 20
133.2060502132
 10
132.4319145633
 20
133.1792385007
 10
132.4059140222
 20
133.1501803476
 10
132.3823724266
 20
133.1193995857
 10
132.3613298768
 20
133.0868427787
 10
132.3427462726
 20
133.0525633629
 10
132.3269610885
 20
133.0172454781
 10
132.3140874828
 20
132.9811171711
 10
132.3040122972
 20
132.9439503951
 10
132.2967355318
 20
132.9057451501
  0
LWPOLYLINE
  5
575
100
AcDbEntity
  8
RACCORDO
100
AcDbPolyline
 62
253
  6
CONTINUOUS
 90
19
 70
0
 10
132.7781117228
 20
133.3313801813
 10
132.7392886912
 20
133.3288367826
 10
132.7011506674
 20
133.3233842563
 10
132.6636976514
 20
133.3150226024
 10
132.6266870671
 20
133.3036670352
 10
132.5903614906
 20
133.2894023403
 10
132.5554486503
 20
133.272482875
 10
132.5219956443
 20
133.2528573149
 10
132.4899553744
 20
133.2305769844
 10
132.4599142743
 20
133.2060502132
 10
132.4319145633
 20
133.1792385007
 10
132.4059140222
 20
133.1501803476
 10
132.3823724266
 20
133.1193995857
 10
132.3613298768
 20
133.0868427787
 10
132.3427462726
 20
133.0525633629
 10
132.3269610885
 20
133.0172454781
 10
132.3140874828
 20
132.9811171711
 10
132.3040122972
 20
132.9439503951
 10
132.2967355318
 20
132.9057451501
  0
LINE
  5
576
100
AcDbEntity
  8
ASSI
100
AcDbLine
 62
253
  6
CONTINUOUS
 10
136.7449873851
 20
133.4352564762
 11
132.7781117228
 21
133.3313801813
  0
LINE
  5
577
100
AcDbEntity
  8
RACCORDO
100
AcDbLine
 62
253
  6
CONTINUOUS
 10
136.7449873851
 20
133.4352564762
 11
132.7781117228
 21
133.3313801813
  0
LINE
  5
578
100
AcDbEntity
  8
ASSI
100
AcDbLine
 62
7
  6
CONTINUOUS
 10
136.7449873851
 20
133.9350851387
 11
132.7781117228
 21
133.8312088438
  0
LINE
  5
579
100
AcDbEntity
  8
RACCORDO
100
AcDbLine
 62
7
  6
CONTINUOUS
 10
136.7449873851
 20
133.9350851387
 11
132.7781117228
 21
133.8312088438
  0
LINE
  5
57A
100
AcDbEntity
  8
ASSI
100
AcDbLine
 62
253
  6
CONTINUOUS
 10
132.2967355318
 20
132.9057451501
 11
132.012775643
 21
132.9487455449
  0
LINE
  5
57B
100
AcDbEntity
  8
RACCORDO
100
AcDbLine
 62
253
  6
CONTINUOUS
 10
132.2967355318
 20
132.9057451501
 11
132.012775643
 21
132.9487455449
  0
LINE
  5
57C
100
AcDbEntity
  8
ASSI
100
AcDbLine
 62
253
  6
CONTINUOUS
 10
132.012775643
 20
132.9487455449
 11
131.879345432
 21
132.9693702074
  0
LINE
  5
57D
100
AcDbEntity
  8
RACCORDO
100
AcDbLine
 62
253
  6
CONTINUOUS
 10
132.012775643
 20
132.9487455449
 11
131.879345432
 21
132.9693702074
  0
LWPOLYLINE
  5
57E
100
AcDbEntity
  8
ASSI
100
AcDbPolyline
 62
253
  6
CONTINUOUS
 90
5
 70
0
 10
131.879345432
 20
132.9693702074
 10
131.8386876373
 20
132.9758410058
 10
131.825753635
 20
132.9779773134
 10
131.8179499748
 20
132.9793480801
 10
131.8153593624
 20
132.9799387782
  0
LWPOLYLINE
  5
57F
100
AcDbEntity
  8
RACCORDO
100
AcDbPolyline
 62
253
  6
CONTINUOUS
 90
5
 70
0
 10
131.879345432
 20
132.9693702074
 10
131.8386876373
 20
132.9758410058
 10
131.825753635
 20
132.9779773134
 10
131.8179499748
 20
132.9793480801
 10
131.8153593624
 20
132.9799387782
  0
ARC
  5
580
100
AcDbEntity
  8
ASSI
100
AcDbCircle
 62
7
  6
CONTINUOUS
 10
132.8042886711
 20
90.8386187587
 40
1.0
100
AcDbArc
 50
188.5334776264
 51
268.5
  0
ARC
  5
581
100
AcDbEntity
  8
RACCORDO
100
AcDbCircle
 62
7
  6
CONTINUOUS
 10
132.8042886711
 20
90.8386187587
 40
1.0
100
AcDbArc
 50
188.5334776264
 51
268.5
  0
ARC
  5
582
100
AcDbEntity
  8
RACCORDO
100
AcDbCircle
 62
7
  6
CONTINUOUS
 10
131.0261959453
 20
97.2439817087
 40
0.15
100
AcDbArc
 50
184.3314373947
 51
269.5
  0
ARC
  5
583
100
AcDbEntity
  8
RACCORDO
100
AcDbCircle
 62
7
  6
CONTINUOUS
 10
130.8071450437
 20
101.4242769405
 40
0.15
100
AcDbArc
 50
90.5
 51
181.6677674123
  0
ARC
  5
584
100
AcDbEntity
  8
RACCORDO
100
AcDbCircle
 62
7
  6
CONTINUOUS
 10
220.8189990652
 20
104.0450851387
 40
90.2
100
AcDbArc
 50
181.6677674123
 51
184.3314373947
  0
ARC
  5
585
100
AcDbEntity
  8
ASSI
100
AcDbCircle
 62
7
  6
CONTINUOUS
 10
220.8189990652
 20
104.0450851387
 40
90.0
100
AcDbArc
 50
181.08868532
 51
188.5334776264
  0
ARC
  5
586
100
AcDbEntity
  8
RACCORDO
100
AcDbCircle
 62
7
  6
CONTINUOUS
 10
220.8189990652
 20
104.0450851387
 40
90.0
100
AcDbArc
 50
181.08868532
 51
188.5334776264
  0
ARC
  5
587
100
AcDbEntity
  8
ASSI
100
AcDbCircle
 62
7
  6
CONTINUOUS
 10
220.8189990652
 20
119.6250851387
 40
90.0
100
AcDbArc
 50
171.4665223736
 51
178.91131468
  0
ARC
  5
588
100
AcDbEntity
  8
0
100
AcDbCircle
 62
253
  6
CONTINUOUS
 10
220.8189990652
 20
119.6250851387
 40
90.0
100
AcDbArc
 50
176.4315915472
 51
176.6695205287
  0
ARC
  5
589
100
AcDbEntity
  8
RACCORDO
100
AcDbCircle
 62
7
  6
CONTINUOUS
 10
220.8189990652
 20
119.6250851387
 40
90.0
100
AcDbArc
 50
171.4665223736
 51
178.91131468
  0
ARC
  5
58A
100
AcDbEntity
  8
ASSI
100
AcDbCircle
 62
7
  6
CONTINUOUS
 10
132.8042886711
 20
132.8315515188
 40
1.0
100
AcDbArc
 50
91.5
 51
171.4665223736
  0
ARC
  5
58B
100
AcDbEntity
  8
RACCORDO
100
AcDbCircle
 62
7
  6
CONTINUOUS
 10
132.8042886711
 20
132.8315515188
 40
1.0
100
AcDbArc
 50
91.5
 51
171.4665223736
  0
ARC
  5
58C
100
AcDbEntity
  8
ASSI
100
AcDbCircle
 62
7
  6
CONTINUOUS
 10
630.7449873851
 20
111.8350851387
 40
500.0
100
AcDbArc
 50
178.91131468
 51
181.08868532
  0
ARC
  5
58D
100
AcDbEntity
  8
0
100
AcDbCircle
 62
253
  6
CONTINUOUS
 10
630.7449873851
 20
111.8350851387
 40
500.0
100
AcDbArc
 50
180.6474560879
 51
180.9454232639
  0
ARC
  5
58E
100
AcDbEntity
  8
RACCORDO
100
AcDbCircle
 62
7
  6
CONTINUOUS
 10
630.7449873851
 20
111.8350851387
 40
500.0
100
AcDbArc
 50
178.91131468
 51
181.08868532
  0
ELLIPSE
  5
58F
100
AcDbEntity
  8
ASSI
100
AcDbEllipse
 62
7
  6
CONTINUOUS
 10
181.8778350038
 20
90.235256535
 30
0.0
 11
-0.35379574
 21
0.35379574
 31
0.0
 40
0.999315002
 41
-3.9266482006
 42
-2.3565371065
  0
ELLIPSE
  5
590
100
AcDbEntity
  8
ASSI
100
AcDbEllipse
 62
7
  6
CONTINUOUS
 10
181.8778350038
 20
133.4349137425
 30
0.0
 11
0.35379574
 21
0.35379574
 31
0.0
 40
0.999315002
 41
-0.7850555471
 42
0.7850555471
  0
ELLIPSE
  5
591
100
AcDbEntity
  8
ASSI
100
AcDbEllipse
 62
7
  6
CONTINUOUS
 10
160.8781777963
 20
133.4349137425
 30
0.0
 11
-0.35379574
 21
0.35379574
 31
0.0
 40
0.999315002
 41
-0.7850555471
 42
0.7850555471
  0
ELLIPSE
  5
592
100
AcDbEntity
  8
ASSI
100
AcDbEllipse
 62
7
  6
CONTINUOUS
 10
160.8781777963
 20
90.235256535
 30
0.0
 11
0.35379574
 21
0.35379574
 31
0.0
 40
0.999315002
 41
-3.9266482006
 42
-2.3565371065
  0
ELLIPSE
  5
593
100
AcDbEntity
  8
RACCORDO
100
AcDbEllipse
 62
7
  6
CONTINUOUS
 10
160.8781777963
 20
90.235256535
 30
0.0
 11
0.35379574
 21
0.35379574
 31
0.0
 40
0.999315002
 41
-3.9266482006
 42
-2.3565371065
  0
ELLIPSE
  5
594
100
AcDbEntity
  8
RACCORDO
100
AcDbEllipse
 62
7
  6
CONTINUOUS
 10
160.8781777963
 20
133.4349137425
 30
0.0
 11
-0.35379574
 21
0.35379574
 31
0.0
 40
0.999315002
 41
-0.7850555471
 42
0.7850555471
  0
ELLIPSE
  5
595
100
AcDbEntity
  8
RACCORDO
100
AcDbEllipse
 62
7
  6
CONTINUOUS
 10
181.8778350038
 20
133.4349137425
 30
0.0
 11
0.35379574
 21
0.35379574
 31
0.0
 40
0.999315002
 41
-0.7850555471
 42
0.7850555471
  0
ELLIPSE
  5
596
100
AcDbEntity
  8
RACCORDO
100
AcDbEllipse
 62
7
  6
CONTINUOUS
 10
181.8778350038
 20
90.235256535
 30
0.0
 11
-0.35379574
 21
0.35379574
 31
0.0
 40
0.999315002
 41
-3.9266482006
 42
-2.3565371065
  0
ELLIPSE
  5
597
100
AcDbEntity
  8
0
100
AcDbEllipse
 62
253
  6
CONTINUOUS
 10
630.7449873851
 20
111.8350851387
 30
0.0
 11
-0.0
 21
500.0
 31
0.0
 40
1.0
 41
-4.7034602903
 42
-4.7030888463
  0
ELLIPSE
  5
598
100
AcDbEntity
  8
0
100
AcDbEllipse
 62
253
  6
CONTINUOUS
 10
630.7449873851
 20
111.8350851387
 30
0.0
 11
500.0
 21
-0.0
 31
0.0
 40
1.0
 41
-3.1302924131
 42
-3.1250919048
  0
ELLIPSE
  5
599
100
AcDbEntity
  8
0
100
AcDbEllipse
 62
253
  6
CONTINUOUS
 10
220.8189990652
 20
119.6250851387
 30
0.0
 11
90.0
 21
-0.0
 31
0.0
 40
1.0
 41
3.0792762408
 42
3.1225915102
  0
ENDSEC
  0
SECTION
  2
OBJECTS
  0
DICTIONARY
  5
C
100
AcDbDictionary
280
0
281
1
  3
ACAD_GROUP
350
D
  3
ACAD_MLINESTYLE
350
17
  3
ACAD_LAYOUT
350
1A
  3
ACAD_PLOTSETTINGS
350
19
  3
ACAD_PLOTSTYLENAME
350
E
  0
DICTIONARY
  5
D
102
{ACAD_REACTORS
330
C
102
}
100
AcDbDictionary
280
0
281
1
  0
ACDBDICTIONARYWDFLT
  5
E
102
{ACAD_REACTORS
330
C
102
}
100
AcDbDictionary
281
1
  3
Normal
350
F
100
AcDbDictionaryWithDefault
340
F
  0
DICTIONARY
  5
17
102
{ACAD_REACTORS
330
C
102
}
100
AcDbDictionary
280
0
281
1
  3
Standard
350
18
  0
DICTIONARY
  5
19
102
{ACAD_REACTORS
330
C
102
}
100
AcDbDictionary
281
1
  0
DICTIONARY
  5
1A
102
{ACAD_REACTORS
330
C
102
}
100
AcDbDictionary
281
1
  3
Model
350
59A
  3
Layout1
350
59B
  0
ACDBPLACEHOLDER
  5
F
102
{ACAD_REACTORS
330
E
102
}
  0
MLINESTYLE
  5
18
102
{ACAD_REACTORS
330
17
102
}
100
AcDbMlineStyle
  2
STANDARD
 70
0
  3

 62
256
 51
90.0
 52
90.0
 71
2
 49
0.5
 62
256
  6
BYLAYER
 49
-0.5
 62
256
  6
BYLAYER
  0
LAYOUT
  5
59A
102
{ACAD_REACTORS
330
1A
102
}
100
AcDbPlotSettings
  1

  2
none_device
  4
ISO_A4_(297.00_x_210.00_MM)
  6

 40
0.0
 41
0.0
 42
0.0
 43
0.0
 44
297.0
 45
210.0
 46
0.0
 47
0.0
 48
0.0
 49
0.0
140
0.0
141
0.0
142
1.0
143
1.0
 70
1024
 72
1
 73
0
 74
0
  7

 75
0
147
1.0
148
0.0
149
0.0
100
AcDbLayout
  1
Model
 70
0
 71
0
 10
0.0
 20
0.0
 11
297.0
 21
210.0
 12
0.0
 22
0.0
 32
0.0
 14
0.0
 24
0.0
 34
0.0
 15
0.0
 25
0.0
 35
0.0
146
0.0
 13
0.0
 23
0.0
 33
0.0
 16
1.0
 26
0.0
 36
0.0
 17
0.0
 27
1.0
 37
0.0
 76
0
330
21B
345
0
346
0
  0
LAYOUT
  5
59B
102
{ACAD_REACTORS
330
1A
102
}
100
AcDbPlotSettings
  1

  2
none_device
  4
ISO_A4_(297.00_x_210.00_MM)
  6

 40
0.0
 41
0.0
 42
0.0
 43
0.0
 44
297.0
 45
210.0
 46
0.0
 47
0.0
 48
0.0
 49
0.0
140
0.0
141
0.0
142
1.0
143
1.0
 70
0
 72
1
 73
0
 74
0
  7

 75
0
147
1.0
148
0.0
149
0.0
100
AcDbLayout
  1
Layout1
 70
0
 71
1
 10
0.0
 20
0.0
 11
297.0
 21
210.0
 12
0.0
 22
0.0
 32
0.0
 14
0.0
 24
0.0
 34
0.0
 15
0.0
 25
0.0
 35
0.0
146
0.0
 13
0.0
 23
0.0
 33
0.0
 16
1.0
 26
0.0
 36
0.0
 17
0.0
 27
1.0
 37
0.0
 76
0
330
21C
345
0
346
0
  0
ENDSEC
  0
EOF
