  0
SECTION
  2
HEADER
  9
$ACADVER
  1
AC1015
  9
$DWGCODEPAGE
  3
ANSI_1252
  9
$EXTMAX
 10
297.0
 20
210.0
 30
0.0
  9
$EXTMIN
 10
0.0
 20
0.0
 30
0.0
  9
$LIMMIN
 10
0.0
 20
0.0
  9
$LIMMAX
 10
297.0
 20
210.0
  9
$VIEWCTR
 10
148.5
 20
105.0
  9
$VIEWSIZE
 40
210.0
  9
$CLAYER
  8
0
  9
$LTSCALE
 40
16.335
  9
$CELTYPE
  6
BYLAYER
  9
$DIMSCALE
 40
1.0
  9
$DIMASZ
 40
3.0
  9
$DIMEXO
 40
1.85625
  9
$DIMDLI
 40
11.286
  9
$DIMEXE
 40
5.346
  9
$DIMCEN
 40
2.673
  9
$DIMLFAC
 40
1.0
  9
$DIMBLK
  1
_FILLED
  9
$DIMTXT
 40
3.0
  9
$DIMTOL
 70
1
  9
$DIMLIM
 70
0
  9
$DIMTFAC
 40
1.0
  9
$DIMTP
 40
0.01
  9
$DIMTM
 40
0.01
  9
$PDMODE
 70
3
  9
$PDSIZE
 40
3.0
  9
$HANDSEED
  5
421
  9
$TILEMODE
 70
1
  9
$MEASUREMENT
 70
1
  9
$INSUNITS
 70
4
  0
ENDSEC
  0
SECTION
  2
CLASSES
  0
CLASS
  1
ACDBDICTIONARYWDFLT
  2
AcDbDictionaryWithDefault
  3
AutoCAD 2000
 90
0
280
0
281
0
  0
CLASS
  1
ACDBPLACEHOLDER
  2
AcDbPlaceHolder
  3
AutoCAD 2000
 90
0
280
0
281
0
  0
CLASS
  1
LAYOUT
  2
AcDbLayout
  3
AutoCAD 2000
 90
0
280
0
281
0
  0
ENDSEC
  0
SECTION
  2
TABLES
  0
TABLE
  2
VPORT
  5
8
100
AcDbSymbolTable
 70
2
  0
VPORT
  5
1F4
100
AcDbSymbolTableRecord
100
AcDbViewportTableRecord
  2
*ACTIVE
 70
0
 10
0.0
 20
0.0
 11
1.0
 21
1.0
 12
148.5
 22
105.0
 13
0.0
 23
0.0
 14
1.0
 24
1.0
 15
0.0
 25
0.0
 16
0.0
 26
0.0
 36
1.0
 17
0.0
 27
0.0
 37
0.0
 40
210.0
 41
1.4142857143
 42
50.0
 43
0.0
 44
0.0
 50
0.0
 51
0.0
 71
0
 72
100
 73
1
 74
1
 75
0
 76
0
 77
0
 78
0
  0
ENDTAB
  0
TABLE
  2
LTYPE
  5
5
100
AcDbSymbolTable
 70
6
  0
LTYPE
  5
14
100
AcDbSymbolTableRecord
100
AcDbLinetypeTableRecord
  2
BYBLOCK
 70
0
  3

 72
65
 73
0
 40
0.0
  0
LTYPE
  5
15
100
AcDbSymbolTableRecord
100
AcDbLinetypeTableRecord
  2
BYLAYER
 70
0
  3

 72
65
 73
0
 40
0.0
  0
LTYPE
  5
16
100
AcDbSymbolTableRecord
100
AcDbLinetypeTableRecord
  2
CONTINUOUS
 70
64
  3
Solid line
 72
65
 73
0
 40
0.0
  0
LTYPE
  5
1F5
100
AcDbSymbolTableRecord
100
AcDbLinetypeTableRecord
  2
CENTER
 70
64
  3
____ _ ____ _ ____ _ ____ _ ____ _ ____ _ ____
 72
65
 73
4
 40
0.6
 49
0.375
 74
0
 49
-0.075
 74
0
 49
0.075
 74
0
 49
-0.075
 74
0
  0
LTYPE
  5
1F6
100
AcDbSymbolTableRecord
100
AcDbLinetypeTableRecord
  2
HIDDEN
 70
64
  3
- - - - - - - - - - - - - - - - - - - -
 72
65
 73
2
 40
0.2
 49
0.1
 74
0
 49
-0.1
 74
0
  0
LTYPE
  5
1F7
100
AcDbSymbolTableRecord
100
AcDbLinetypeTableRecord
  2
PHANTOM
 70
64
  3
_____ _ _ _____ _ _ _____ _ _ _____
 72
65
 73
6
 40
0.8
 49
0.45
 74
0
 49
-0.05
 74
0
 49
0.1
 74
0
 49
-0.05
 74
0
 49
0.1
 74
0
 49
-0.05
 74
0
  0
LTYPE
  5
1F8
100
AcDbSymbolTableRecord
100
AcDbLinetypeTableRecord
  2
DOT
 70
64
  3
. . . . . . . . . . . . . . . . . . . .
 72
65
 73
2
 40
0.2
 49
0.1
 74
0
 49
-0.1
 74
0
  0
LTYPE
  5
1F9
100
AcDbSymbolTableRecord
100
AcDbLinetypeTableRecord
  2
DASHED
 70
64
  3
- - - - - - - - - - - - - - - - - - - -
 72
65
 73
2
 40
0.2
 49
0.1
 74
0
 49
-0.1
 74
0
  0
ENDTAB
  0
TABLE
  2
LAYER
  5
2
100
AcDbSymbolTable
 70
36
  0
LAYER
  5
10
100
AcDbSymbolTableRecord
100
AcDbLayerTableRecord
  2
0
 70
0
 62
7
  6
CONTINUOUS
370
-3
390
F
  0
LAYER
  5
1FA
100
AcDbSymbolTableRecord
100
AcDbLayerTableRecord
  2
DEFAULT_1
 70
0
 62
7
  6
CENTER
370
-3
390
F
  0
LAYER
  5
1FB
100
AcDbSymbolTableRecord
100
AcDbLayerTableRecord
  2
DEFAULT_2
 70
0
 62
7
  6
HIDDEN
370
-3
390
F
  0
LAYER
  5
1FC
100
AcDbSymbolTableRecord
100
AcDbLayerTableRecord
  2
DEFAULT_3
 70
0
 62
7
  6
PHANTOM
370
-3
390
F
  0
LAYER
  5
1FD
100
AcDbSymbolTableRecord
100
AcDbLayerTableRecord
  2
ASSI
 70
0
 62
7
  6
CONTINUOUS
370
-3
390
F
  0
LAYER
  5
1FE
100
AcDbSymbolTableRecord
100
AcDbLayerTableRecord
  2
COORDINATE
 70
0
 62
7
  6
CONTINUOUS
370
-3
390
F
  0
LAYER
  5
1FF
100
AcDbSymbolTableRecord
100
AcDbLayerTableRecord
  2
COORD_ORIGINE
 70
0
 62
7
  6
CONTINUOUS
370
-3
390
F
  0
LAYER
  5
200
100
AcDbSymbolTableRecord
100
AcDbLayerTableRecord
  2
COPY_PUBLISH
 70
0
 62
7
  6
CONTINUOUS
370
-3
390
F
  0
LAYER
  5
201
100
AcDbSymbolTableRecord
100
AcDbLayerTableRecord
  2
COSMETIC
 70
0
 62
7
  6
CONTINUOUS
370
-3
390
F
  0
LAYER
  5
202
100
AcDbSymbolTableRecord
100
AcDbLayerTableRecord
  2
COSMETICI
 70
0
 62
7
  6
CONTINUOUS
370
-3
390
F
  0
LAYER
  5
203
100
AcDbSymbolTableRecord
100
AcDbLayerTableRecord
  2
CURVE
 70
0
 62
7
  6
CONTINUOUS
370
-3
390
F
  0
LAYER
  5
204
100
AcDbSymbolTableRecord
100
AcDbLayerTableRecord
  2
DRAFT
 70
0
 62
7
  6
CONTINUOUS
370
-3
390
F
  0
LAYER
  5
205
100
AcDbSymbolTableRecord
100
AcDbLayerTableRecord
  2
IMPORT_IGES
 70
0
 62
7
  6
CONTINUOUS
370
-3
390
F
  0
LAYER
  5
206
100
AcDbSymbolTableRecord
100
AcDbLayerTableRecord
  2
PIANI
 70
0
 62
7
  6
CONTINUOUS
370
-3
390
F
  0
LAYER
  5
207
100
AcDbSymbolTableRecord
100
AcDbLayerTableRecord
  2
PIANI_ORIGINE
 70
0
 62
7
  6
CONTINUOUS
370
-3
390
F
  0
LAYER
  5
208
100
AcDbSymbolTableRecord
100
AcDbLayerTableRecord
  2
PIANI_RIFERIMENTO
 70
0
 62
7
  6
CONTINUOUS
370
-3
390
F
  0
LAYER
  5
209
100
AcDbSymbolTableRecord
100
AcDbLayerTableRecord
  2
RACCORDO
 70
0
 62
7
  6
CONTINUOUS
370
-3
390
F
  0
LAYER
  5
20A
100
AcDbSymbolTableRecord
100
AcDbLayerTableRecord
  2
SMUSSO
 70
0
 62
7
  6
CONTINUOUS
370
-3
390
F
  0
LAYER
  5
20B
100
AcDbSymbolTableRecord
100
AcDbLayerTableRecord
  2
SNAPLINE
 70
0
 62
7
  6
CONTINUOUS
370
-3
390
F
  0
LAYER
  5
20C
100
AcDbSymbolTableRecord
100
AcDbLayerTableRecord
  2
SUPERFICI
 70
0
 62
7
  6
CONTINUOUS
370
-3
390
F
  0
LAYER
  5
20D
100
AcDbSymbolTableRecord
100
AcDbLayerTableRecord
  2
TRASH
 70
0
 62
7
  6
CONTINUOUS
370
-3
390
F
  0
LAYER
  5
20E
100
AcDbSymbolTableRecord
100
AcDbLayerTableRecord
  2
XSEC_DATUMS
 70
0
 62
7
  6
CONTINUOUS
370
-3
390
F
  0
ENDTAB
  0
TABLE
  2
STYLE
  5
3
100
AcDbSymbolTable
 70
1
  0
STYLE
  5
11
100
AcDbSymbolTableRecord
100
AcDbTextStyleTableRecord
  2
STANDARD
 70
0
 40
0.0
 41
0.8
 50
0.0
 71
0
 42
0.2
  3
txt
  4

  0
STYLE
  5
20F
100
AcDbSymbolTableRecord
100
AcDbTextStyleTableRecord
  2
TEXTSTYLE_1
 70
0
 40
0.0
 41
0.8
 50
0.0
 71
0
 42
0.2
  3
gdt
  4

  0
ENDTAB
  0
TABLE
  2
VIEW
  5
6
100
AcDbSymbolTable
 70
0
  0
ENDTAB
  0
TABLE
  2
UCS
  5
7
100
AcDbSymbolTable
 70
0
  0
ENDTAB
  0
TABLE
  2
APPID
  5
9
100
AcDbSymbolTable
 70
1
  0
APPID
  5
210
100
AcDbSymbolTableRecord
100
AcDbRegAppTableRecord
  2
ACAD
 70
0
  0
ENDTAB
  0
TABLE
  2
BLOCK_RECORD
  5
1
100
AcDbSymbolTable
 70
0
  0
BLOCK_RECORD
  5
211
100
AcDbSymbolTableRecord
100
AcDbBlockTableRecord
  2
*Model_Space
  0
BLOCK_RECORD
  5
212
100
AcDbSymbolTableRecord
100
AcDbBlockTableRecord
  2
*Paper_Space
  0
BLOCK_RECORD
  5
213
100
AcDbSymbolTableRecord
100
AcDbBlockTableRecord
  2
_FILLED
  0
BLOCK_RECORD
  5
214
100
AcDbSymbolTableRecord
100
AcDbBlockTableRecord
  2
*D0
  0
BLOCK_RECORD
  5
215
100
AcDbSymbolTableRecord
100
AcDbBlockTableRecord
  2
*D1
  0
BLOCK_RECORD
  5
216
100
AcDbSymbolTableRecord
100
AcDbBlockTableRecord
  2
*D2
  0
ENDTAB
  0
TABLE
  2
DIMSTYLE
  5
A
100
AcDbSymbolTable
 70
1
100
AcDbDimStyleTable
 71
0
  0
DIMSTYLE
105
217
100
AcDbSymbolTableRecord
100
AcDbDimStyleTableRecord
  2
STANDARD
 70
0
  3

  4

 40
1.0
 41
3.0
 42
0.0625
 43
0.38
 44
0.18
 45
0.0
 46
0.0
 47
0.01
 48
0.01
140
3.0
141
0.09
142
0.0
143
25.4
144
1.0
145
0.0
146
1.0
147
0.09
 71
1.0
 72
0.0
 73
0
 74
0
 75
0
 76
0
 77
1
 78
8
170
0
171
2
172
0
173
0
174
0
175
0
176
0
177
0
178
0
270
2
271
2
272
2
273
2
274
2
275
0
280
0
281
0
282
0
283
1
284
8
285
0
286
0
287
3
288
0
340
11
341
213
342
213
343
213
344
213
  0
DIMSTYLE
105
218
100
AcDbSymbolTableRecord
100
AcDbDimStyleTableRecord
  2
DIMSTYLE_1
 70
0
  3

  4

 40
1.0
 41
3.0
 42
0.0625
 43
0.38
 44
0.18
 45
0.0
 46
0.0
 47
0.0
 48
0.0
140
3.0
141
0.09
142
0.0
143
25.4
144
1.0
145
0.0
146
1.0
147
0.09
 71
0.0
 72
0.0
 73
0
 74
0
 75
0
 76
0
 77
1
 78
8
170
0
171
2
172
0
173
0
174
0
175
0
176
0
177
0
178
0
270
2
271
2
272
2
273
2
274
2
275
0
280
0
281
0
282
0
283
1
284
8
285
0
286
0
287
3
288
0
340
11
341
213
342
213
343
213
344
213
  0
ENDTAB
  0
ENDSEC
  0
SECTION
  2
BLOCKS
  0
BLOCK
  5
20
100
AcDbEntity
  8
0
100
AcDbBlockBegin
  2
*Model_Space
 70
0
 10
0.0
 20
0.0
 30
0.0
  3
*Model_Space
  1

  0
ENDBLK
  5
21
100
AcDbEntity
  8
0
100
AcDbBlockEnd
  0
BLOCK
  5
1C
100
AcDbEntity
  8
0
100
AcDbBlockBegin
  2
*Paper_Space
 70
0
 10
0.0
 20
0.0
 30
0.0
  3
*Paper_Space
  1

  0
ENDBLK
  5
1D
100
AcDbEntity
  8
0
100
AcDbBlockEnd
  0
BLOCK
  5
219
100
AcDbEntity
  8
0
100
AcDbBlockBegin
  2
_FILLED
 70
64
 10
0.0
 20
0.0
  3
_FILLED
  1

  0
SOLID
  5
21A
100
AcDbEntity
  8
0
  6
BYBLOCK
 62
0
100
AcDbTrace
 10
0.0
 20
0.0
 11
-1.0
 21
0.3166666667
 12
-1.0
 22
-0.3166666667
 13
-1.0
 23
-0.3166666667
  0
ENDBLK
  5
21B
100
AcDbEntity
  8
0
  6
BYBLOCK
 62
0
100
AcDbBlockEnd
  0
BLOCK
  5
21C
100
AcDbEntity
  8
0
100
AcDbBlockBegin
 62
7
  6
CONTINUOUS
  2
*D0
 70
65
 10
0.0
 20
0.0
  3
*D0
  1

  0
MTEXT
  5
21D
100
AcDbEntity
  8
0
100
AcDbMText
 62
7
  6
CONTINUOUS
  7
STANDARD
 71
2
 72
1
 10
-0.0
 20
33.85
 30
0.0
 11
1.0
 21
0.0
 31
0.0
 44
0.9
  1
22
 40
3.0
 41
4.7142857143
  0
LINE
  5
21E
100
AcDbEntity
  8
0
100
AcDbLine
 62
7
  6
CONTINUOUS
 10
-11.0
 20
22.1001713375
 11
-11.0
 21
31.6
  0
LINE
  5
21F
100
AcDbEntity
  8
0
100
AcDbLine
 62
7
  6
CONTINUOUS
 10
11.0
 20
22.1001713375
 11
11.0
 21
31.6
  0
LINE
  5
220
100
AcDbEntity
  8
0
100
AcDbLine
 62
7
  6
CONTINUOUS
 10
-11.0
 20
30.1
 11
-0.0
 21
30.1
  0
LINE
  5
221
100
AcDbEntity
  8
0
100
AcDbLine
 62
7
  6
CONTINUOUS
 10
11.0
 20
30.1
 11
-0.0
 21
30.1
  0
INSERT
  5
222
100
AcDbEntity
  8
0
100
AcDbBlockReference
 62
7
  6
CONTINUOUS
  2
_FILLED
 10
-11.0
 20
30.1
 41
3.0
 42
3.0
 43
3.0
 50
180.0
  0
INSERT
  5
223
100
AcDbEntity
  8
0
100
AcDbBlockReference
 62
7
  6
CONTINUOUS
  2
_FILLED
 10
11.0
 20
30.1
 41
3.0
 42
3.0
 43
3.0
 50
360.0
  0
ENDBLK
  5
224
100
AcDbEntity
  8
0
  6
BYBLOCK
 62
0
100
AcDbBlockEnd
  0
BLOCK
  5
225
100
AcDbEntity
  8
0
100
AcDbBlockBegin
 62
7
  6
CONTINUOUS
  2
*D1
 70
65
 10
0.0
 20
0.0
  3
*D1
  1

  0
MTEXT
  5
226
100
AcDbEntity
  8
0
100
AcDbMText
 62
7
  6
CONTINUOUS
  7
STANDARD
 71
2
 72
1
 10
15.25
 20
0.0
 30
0.0
 11
0.0
 21
1.0
 31
0.0
 44
0.9
  1
44,2
 40
3.0
 41
8.7857142857
  0
LINE
  5
227
100
AcDbEntity
  8
0
100
AcDbLine
 62
7
  6
CONTINUOUS
 10
11.0001713375
 20
22.1
 11
20.5
 21
22.1
  0
LINE
  5
228
100
AcDbEntity
  8
0
100
AcDbLine
 62
7
  6
CONTINUOUS
 10
11.0001713375
 20
-22.1
 11
20.5
 21
-22.1
  0
LINE
  5
229
100
AcDbEntity
  8
0
100
AcDbLine
 62
7
  6
CONTINUOUS
 10
19.0
 20
22.1
 11
19.0
 21
0.0
  0
LINE
  5
22A
100
AcDbEntity
  8
0
100
AcDbLine
 62
7
  6
CONTINUOUS
 10
19.0
 20
-22.1
 11
19.0
 21
0.0
  0
INSERT
  5
22B
100
AcDbEntity
  8
0
100
AcDbBlockReference
 62
7
  6
CONTINUOUS
  2
_FILLED
 10
19.0
 20
22.1
 41
3.0
 42
3.0
 43
3.0
 50
90.0
  0
INSERT
  5
22C
100
AcDbEntity
  8
0
100
AcDbBlockReference
 62
7
  6
CONTINUOUS
  2
_FILLED
 10
19.0
 20
-22.1
 41
3.0
 42
3.0
 43
3.0
 50
270.0
  0
ENDBLK
  5
22D
100
AcDbEntity
  8
0
  6
BYBLOCK
 62
0
100
AcDbBlockEnd
  0
BLOCK
  5
22E
100
AcDbEntity
  8
0
100
AcDbBlockBegin
 62
7
  6
CONTINUOUS
  2
*D2
 70
65
 10
0.0
 20
0.0
  3
*D2
  1

  0
MTEXT
  5
22F
100
AcDbEntity
  8
0
100
AcDbMText
 62
7
  6
CONTINUOUS
  7
STANDARD
 71
2
 72
1
 10
-23.6085381707
 20
33.85
 30
0.0
 11
1.0
 21
0.0
 31
0.0
 44
0.9
  1
6
 40
3.0
 41
2.3571428571
  0
LINE
  5
230
100
AcDbEntity
  8
0
100
AcDbLine
 62
7
  6
CONTINUOUS
 10
-20.6085381707
 20
22.1001713375
 11
-20.6085381707
 21
31.6
  0
LINE
  5
231
100
AcDbEntity
  8
0
100
AcDbLine
 62
7
  6
CONTINUOUS
 10
-26.6085381707
 20
0.5
 11
-26.6085381707
 21
31.6
  0
LINE
  5
232
100
AcDbEntity
  8
0
100
AcDbLine
 62
7
  6
CONTINUOUS
 10
-20.6085381707
 20
30.1
 11
-16.6085381707
 21
30.1
  0
LINE
  5
233
100
AcDbEntity
  8
0
100
AcDbLine
 62
7
  6
CONTINUOUS
 10
-16.6085381707
 20
30.1
 11
-23.6085381707
 21
30.1
  0
LINE
  5
234
100
AcDbEntity
  8
0
100
AcDbLine
 62
7
  6
CONTINUOUS
 10
-26.6085381707
 20
30.1
 11
-30.6085381707
 21
30.1
  0
LINE
  5
235
100
AcDbEntity
  8
0
100
AcDbLine
 62
7
  6
CONTINUOUS
 10
-30.6085381707
 20
30.1
 11
-23.6085381707
 21
30.1
  0
INSERT
  5
236
100
AcDbEntity
  8
0
100
AcDbBlockReference
 62
7
  6
CONTINUOUS
  2
_FILLED
 10
-20.6085381707
 20
30.1
 41
3.0
 42
3.0
 43
3.0
 50
180.0
  0
INSERT
  5
237
100
AcDbEntity
  8
0
100
AcDbBlockReference
 62
7
  6
CONTINUOUS
  2
_FILLED
 10
-26.6085381707
 20
30.1
 41
3.0
 42
3.0
 43
3.0
  0
ENDBLK
  5
238
100
AcDbEntity
  8
0
  6
BYBLOCK
 62
0
100
AcDbBlockEnd
  0
ENDSEC
  0
SECTION
  2
ENTITIES
  0
SPLINE
  5
239
100
AcDbEntity
  8
CURVE
100
AcDbSpline
 62
253
  6
CONTINUOUS
 70
0
 71
3
 72
8
 73
4
 74
0
 42
0.0000001
 43
0.0000001
 44
0.0000000001
 40
0.0
 40
0.0
 40
0.0
 40
0.0
 40
1.0
 40
1.0
 40
1.0
 40
1.0
 10
3.9260720506
 20
-12.8486854828
 30
0.0
 10
3.9260720506
 20
-12.7164272989
 30
0.0
 10
3.8929626241
 20
-12.6146902562
 30
0.0
 10
3.8267426078
 20
-12.5434745366
 30
0.0
  0
SPLINE
  5
23A
100
AcDbEntity
  8
CURVE
100
AcDbSpline
 62
253
  6
CONTINUOUS
 70
0
 71
3
 72
8
 73
4
 74
0
 42
0.0000001
 43
0.0000001
 44
0.0000000001
 40
0.0
 40
0.0
 40
0.0
 40
0.0
 40
1.0
 40
1.0
 40
1.0
 40
1.0
 10
3.8955089486
 20
-13.0648766014
 30
0.0
 10
3.9158841863
 20
-12.9936607899
 30
0.0
 10
3.9260720506
 20
-12.919901441
 30
0.0
 10
3.9260720506
 20
-12.8486854828
 30
0.0
  0
SPLINE
  5
23B
100
AcDbEntity
  8
CURVE
100
AcDbSpline
 62
253
  6
CONTINUOUS
 70
0
 71
3
 72
8
 73
4
 74
0
 42
0.0000001
 43
0.0000001
 44
0.0000000001
 40
0.0
 40
0.0
 40
0.0
 40
0.0
 40
1.0
 40
1.0
 40
1.0
 40
1.0
 10
3.7910857931
 20
-13.2581771435
 30
0.0
 10
3.8420242086
 20
-13.20222177
 30
0.0
 10
3.8751336351
 20
-13.1360926781
 30
0.0
 10
3.8955089486
 20
-13.0648766014
 30
0.0
  0
SPLINE
  5
23C
100
AcDbEntity
  8
CURVE
100
AcDbSpline
 62
253
  6
CONTINUOUS
 70
0
 71
3
 72
8
 73
4
 74
0
 42
0.0000001
 43
0.0000001
 44
0.0000000001
 40
0.0
 40
0.0
 40
0.0
 40
0.0
 40
1.0
 40
1.0
 40
1.0
 40
1.0
 10
3.5922258288
 20
-13.395060525
 30
0.0
 10
3.6739276186
 20
-13.3599141933
 30
0.0
 10
3.7401473776
 20
-13.314132517
 30
0.0
 10
3.7910857931
 20
-13.2581771435
 30
0.0
  0
SPLINE
  5
23D
100
AcDbEntity
  8
CURVE
100
AcDbSpline
 62
253
  6
CONTINUOUS
 70
0
 71
3
 72
8
 73
4
 74
0
 42
0.0000001
 43
0.0000001
 44
0.0000000001
 40
0.0
 40
0.0
 40
0.0
 40
0.0
 40
1.0
 40
1.0
 40
1.0
 40
1.0
 10
3.2766086116
 20
-13.4489341199
 30
0.0
 10
3.4039541975
 20
-13.4489341199
 30
0.0
 10
3.5083777681
 20
-13.4311301356
 30
0.0
 10
3.5922258288
 20
-13.395060525
 30
0.0
  0
SPLINE
  5
23E
100
AcDbEntity
  8
CURVE
100
AcDbSpline
 62
253
  6
CONTINUOUS
 70
0
 71
3
 72
8
 73
4
 74
0
 42
0.0000001
 43
0.0000001
 44
0.0000000001
 40
0.0
 40
0.0
 40
0.0
 40
0.0
 40
1.0
 40
1.0
 40
1.0
 40
1.0
 10
3.5307414461
 20
-13.0998499865
 30
0.0
 10
3.472720696
 20
-13.1513532203
 30
0.0
 10
3.3835789219
 20
-13.1742440762
 30
0.0
 10
3.2613268152
 20
-13.1742440762
 30
0.0
  0
SPLINE
  5
23F
100
AcDbEntity
  8
CURVE
100
AcDbSpline
 62
253
  6
CONTINUOUS
 70
0
 71
3
 72
8
 73
4
 74
0
 42
0.0000001
 43
0.0000001
 44
0.0000000001
 40
0.0
 40
0.0
 40
0.0
 40
0.0
 40
1.0
 40
1.0
 40
1.0
 40
1.0
 10
2.9913538471
 20
-11.8872703298
 30
0.0
 10
3.0371983305
 20
-11.8516623507
 30
0.0
 10
3.1085120216
 20
-11.8313148856
 30
0.0
 10
3.2103883997
 20
-11.8313148856
 30
0.0
  0
SPLINE
  5
240
100
AcDbEntity
  8
CURVE
100
AcDbSpline
 62
253
  6
CONTINUOUS
 70
0
 71
3
 72
8
 73
4
 74
0
 42
0.0000001
 43
0.0000001
 44
0.0000000001
 40
0.0
 40
0.0
 40
0.0
 40
0.0
 40
1.0
 40
1.0
 40
1.0
 40
1.0
 10
2.9251336351
 20
-12.0398759222
 30
0.0
 10
2.9251336351
 20
-11.973746802
 30
0.0
 10
2.9455093637
 20
-11.9228783089
 30
0.0
 10
2.9913538471
 20
-11.8872703298
 30
0.0
  0
SPLINE
  5
241
100
AcDbEntity
  8
CURVE
100
AcDbSpline
 62
253
  6
CONTINUOUS
 70
0
 71
3
 72
8
 73
4
 74
0
 42
0.0000001
 43
0.0000001
 44
0.0000000001
 40
0.0
 40
0.0
 40
0.0
 40
0.0
 40
1.0
 40
1.0
 40
1.0
 40
1.0
 10
2.9418799254
 20
-12.1395360373
 30
0.0
 10
2.9302275673
 20
-12.1110917673
 30
0.0
 10
2.9251336351
 20
-12.0780272637
 30
0.0
 10
2.9251336351
 20
-12.0398759222
 30
0.0
  0
SPLINE
  5
242
100
AcDbEntity
  8
CURVE
100
AcDbSpline
 62
253
  6
CONTINUOUS
 70
0
 71
3
 72
8
 73
4
 74
0
 42
0.0000001
 43
0.0000001
 44
0.0000000001
 40
0.0
 40
0.0
 40
0.0
 40
0.0
 40
1.0
 40
1.0
 40
1.0
 40
1.0
 10
3.0034997042
 20
-12.2136843066
 30
0.0
 10
2.9735253111
 20
-12.1924815146
 30
0.0
 10
2.9531500354
 20
-12.1670472115
 30
0.0
 10
2.9418799254
 20
-12.1395360373
 30
0.0
  0
SPLINE
  5
243
100
AcDbEntity
  8
CURVE
100
AcDbSpline
 62
253
  6
CONTINUOUS
 70
0
 71
3
 72
8
 73
4
 74
0
 42
0.0000001
 43
0.0000001
 44
0.0000000001
 40
0.0
 40
0.0
 40
0.0
 40
0.0
 40
1.0
 40
1.0
 40
1.0
 40
1.0
 10
3.1232260045
 20
-12.2754140868
 30
0.0
 10
3.0728549495
 20
-12.2560671592
 30
0.0
 10
3.0346511379
 20
-12.2357196941
 30
0.0
 10
3.0034997042
 20
-12.2136843066
 30
0.0
  0
SPLINE
  5
244
100
AcDbEntity
  8
CURVE
100
AcDbSpline
 62
253
  6
CONTINUOUS
 70
0
 71
3
 72
8
 73
4
 74
0
 42
0.0000001
 43
0.0000001
 44
0.0000000001
 40
0.0
 40
0.0
 40
0.0
 40
0.0
 40
1.0
 40
1.0
 40
1.0
 40
1.0
 10
3.3097184911
 20
-12.3298264799
 30
0.0
 10
3.2333108678
 20
-12.3120224904
 30
0.0
 10
3.172184588
 20
-12.2942185008
 30
0.0
 10
3.1232260045
 20
-12.2754140868
 30
0.0
  0
SPLINE
  5
245
100
AcDbEntity
  8
CURVE
100
AcDbSpline
 62
253
  6
CONTINUOUS
 70
0
 71
3
 72
8
 73
4
 74
0
 42
0.0000001
 43
0.0000001
 44
0.0000000001
 40
0.0
 40
0.0
 40
0.0
 40
0.0
 40
1.0
 40
1.0
 40
1.0
 40
1.0
 10
3.6178948179
 20
-12.8970105569
 30
0.0
 10
3.6178948179
 20
-12.9834870856
 30
0.0
 10
3.587332131
 20
-13.0496161776
 30
0.0
 10
3.5307414461
 20
-13.0998499865
 30
0.0
  0
SPLINE
  5
246
100
AcDbEntity
  8
CURVE
100
AcDbSpline
 62
253
  6
CONTINUOUS
 70
0
 71
3
 72
8
 73
4
 74
0
 42
0.0000001
 43
0.0000001
 44
0.0000000001
 40
0.0
 40
0.0
 40
0.0
 40
0.0
 40
1.0
 40
1.0
 40
1.0
 40
1.0
 10
3.5491285193
 20
-12.7189704933
 30
0.0
 10
3.5949732557
 20
-12.759665535
 30
0.0
 10
3.6178948179
 20
-12.8181643417
 30
0.0
 10
3.6178948179
 20
-12.8970105569
 30
0.0
  0
SPLINE
  5
247
100
AcDbEntity
  8
CURVE
100
AcDbSpline
 62
253
  6
CONTINUOUS
 70
0
 71
3
 72
8
 73
4
 74
0
 42
0.0000001
 43
0.0000001
 44
0.0000000001
 40
0.0
 40
0.0
 40
0.0
 40
0.0
 40
1.0
 40
1.0
 40
1.0
 40
1.0
 10
3.8267426078
 20
-12.5434745366
 30
0.0
 10
3.7605222002
 20
-12.4722583963
 30
0.0
 10
3.6662865205
 20
-12.4188463212
 30
0.0
 10
3.5440348402
 20
-12.3883252866
 30
0.0
  0
SPLINE
  5
248
100
AcDbEntity
  8
CURVE
100
AcDbSpline
 62
253
  6
CONTINUOUS
 70
0
 71
3
 72
8
 73
4
 74
0
 42
0.0000001
 43
0.0000001
 44
0.0000000001
 40
0.0
 40
0.0
 40
0.0
 40
0.0
 40
1.0
 40
1.0
 40
1.0
 40
1.0
 10
3.3504690424
 20
-12.6274074077
 30
0.0
 10
3.43706453
 20
-12.6477548163
 30
0.0
 10
3.5032842889
 20
-12.6782759008
 30
0.0
 10
3.5491285193
 20
-12.7189704933
 30
0.0
  0
SPLINE
  5
249
100
AcDbEntity
  8
CURVE
100
AcDbSpline
 62
253
  6
CONTINUOUS
 70
0
 71
3
 72
8
 73
4
 74
0
 42
0.0000001
 43
0.0000001
 44
0.0000000001
 40
0.0
 40
0.0
 40
0.0
 40
0.0
 40
1.0
 40
1.0
 40
1.0
 40
1.0
 10
-3.1874667153
 20
-12.7367747075
 30
0.0
 10
-3.0932307824
 20
-12.7367747075
 30
0.0
 10
-3.0066355214
 20
-12.7240576125
 30
0.0
 10
-2.9278056823
 20
-12.6982471642
 30
0.0
  0
SPLINE
  5
24A
100
AcDbEntity
  8
CURVE
100
AcDbSpline
 62
253
  6
CONTINUOUS
 70
0
 71
3
 72
8
 73
4
 74
0
 42
0.0000001
 43
0.0000001
 44
0.0000000001
 40
0.0
 40
0.0
 40
0.0
 40
0.0
 40
1.0
 40
1.0
 40
1.0
 40
1.0
 10
-2.9278056823
 20
-12.6982471642
 30
0.0
 10
-2.8512736484
 20
-12.6731890628
 30
0.0
 10
-2.7825069234
 20
-12.6350376647
 30
0.0
 10
-2.7258437512
 20
-12.5823102678
 30
0.0
  0
SPLINE
  5
24B
100
AcDbEntity
  8
CURVE
100
AcDbSpline
 62
253
  6
CONTINUOUS
 70
0
 71
3
 72
8
 73
4
 74
0
 42
0.0000001
 43
0.0000001
 44
0.0000000001
 40
0.0
 40
0.0
 40
0.0
 40
0.0
 40
1.0
 40
1.0
 40
1.0
 40
1.0
 10
-2.7258437512
 20
-12.5823102678
 30
0.0
 10
-2.6704425678
 20
-12.530757203
 30
0.0
 10
-2.6271449372
 20
-12.4620847203
 30
0.0
 10
-2.5965819416
 20
-12.3806949614
 30
0.0
  0
SPLINE
  5
24C
100
AcDbEntity
  8
CURVE
100
AcDbSpline
 62
253
  6
CONTINUOUS
 70
0
 71
3
 72
8
 73
4
 74
0
 42
0.0000001
 43
0.0000001
 44
0.0000000001
 40
0.0
 40
0.0
 40
0.0
 40
0.0
 40
1.0
 40
1.0
 40
1.0
 40
1.0
 10
-2.5965819416
 20
-12.3806949614
 30
0.0
 10
-2.5660189971
 20
-12.2993053388
 30
0.0
 10
-2.5507374272
 20
-12.2026551906
 30
0.0
 10
-2.5507374272
 20
-12.0907444153
 30
0.0
  0
SPLINE
  5
24D
100
AcDbEntity
  8
CURVE
100
AcDbSpline
 62
253
  6
CONTINUOUS
 70
0
 71
3
 72
8
 73
4
 74
0
 42
0.0000001
 43
0.0000001
 44
0.0000000001
 40
0.0
 40
0.0
 40
0.0
 40
0.0
 40
1.0
 40
1.0
 40
1.0
 40
1.0
 10
-2.5507374272
 20
-12.0907444153
 30
0.0
 10
-2.5507374272
 20
-11.968659964
 30
0.0
 10
-2.571112816
 20
-11.8720097027
 30
0.0
 10
-2.6118635049
 20
-11.8007937584
 30
0.0
  0
SPLINE
  5
24E
100
AcDbEntity
  8
CURVE
100
AcDbSpline
 62
253
  6
CONTINUOUS
 70
0
 71
3
 72
8
 73
4
 74
0
 42
0.0000001
 43
0.0000001
 44
0.0000000001
 40
0.0
 40
0.0
 40
0.0
 40
0.0
 40
1.0
 40
1.0
 40
1.0
 40
1.0
 10
-2.6118635049
 20
-11.8007937584
 30
0.0
 10
-2.652614145
 20
-11.7295778994
 30
0.0
 10
-2.7035524473
 20
-11.6761659307
 30
0.0
 10
-2.7697723195
 20
-11.6405579516
 30
0.0
  0
SPLINE
  5
24F
100
AcDbEntity
  8
CURVE
100
AcDbSpline
 62
253
  6
CONTINUOUS
 70
0
 71
3
 72
8
 73
4
 74
0
 42
0.0000001
 43
0.0000001
 44
0.0000000001
 40
0.0
 40
0.0
 40
0.0
 40
0.0
 40
1.0
 40
1.0
 40
1.0
 40
1.0
 10
-2.7697723195
 20
-11.6405579516
 30
0.0
 10
-2.8359921917
 20
-11.6049499725
 30
0.0
 10
-2.9123997018
 20
-11.5795156694
 30
0.0
 10
-2.9964478844
 20
-11.5693420002
 30
0.0
  0
SPLINE
  5
250
100
AcDbEntity
  8
CURVE
100
AcDbSpline
 62
253
  6
CONTINUOUS
 70
0
 71
3
 72
8
 73
4
 74
0
 42
0.0000001
 43
0.0000001
 44
0.0000000001
 40
0.0
 40
0.0
 40
0.0
 40
0.0
 40
1.0
 40
1.0
 40
1.0
 40
1.0
 10
-2.9964478844
 20
-11.5693420002
 30
0.0
 10
-3.0804961786
 20
-11.5591683174
 30
0.0
 10
-3.1670913264
 20
-11.5515380038
 30
0.0
 10
-3.2536865309
 20
-11.5515380038
 30
0.0
  0
SPLINE
  5
251
100
AcDbEntity
  8
CURVE
100
AcDbSpline
 62
253
  6
CONTINUOUS
 70
0
 71
3
 72
8
 73
4
 74
0
 42
0.0000001
 43
0.0000001
 44
0.0000000001
 40
0.0
 40
0.0
 40
0.0
 40
0.0
 40
1.0
 40
1.0
 40
1.0
 40
1.0
 10
-3.2613272592
 20
-11.8058806956
 30
0.0
 10
-3.2002012059
 20
-11.8058806956
 30
0.0
 10
-3.1467160508
 20
-11.8109675336
 30
0.0
 10
-3.0958297073
 20
-11.8213914229
 30
0.0
  0
SPLINE
  5
252
100
AcDbEntity
  8
CURVE
100
AcDbSpline
 62
253
  6
CONTINUOUS
 70
0
 71
3
 72
8
 73
4
 74
0
 42
0.0000001
 43
0.0000001
 44
0.0000000001
 40
0.0
 40
0.0
 40
0.0
 40
0.0
 40
1.0
 40
1.0
 40
1.0
 40
1.0
 10
-3.0958297073
 20
-11.8213914229
 30
0.0
 10
-3.0473862991
 20
-11.8313148856
 30
0.0
 10
-3.0066355214
 20
-11.8465755127
 30
0.0
 10
-2.9720306751
 20
-11.8708936666
 30
0.0
  0
SPLINE
  5
253
100
AcDbEntity
  8
CURVE
100
AcDbSpline
 62
253
  6
CONTINUOUS
 70
0
 71
3
 72
8
 73
4
 74
0
 42
0.0000001
 43
0.0000001
 44
0.0000000001
 40
0.0
 40
0.0
 40
0.0
 40
0.0
 40
1.0
 40
1.0
 40
1.0
 40
1.0
 10
-2.9720306751
 20
-11.8708936666
 30
0.0
 10
-2.9378687963
 20
-11.8949005302
 30
0.0
 10
-2.9123997018
 20
-11.9254216713
 30
0.0
 10
-2.8930747296
 20
-11.9665917104
 30
0.0
  0
SPLINE
  5
254
100
AcDbEntity
  8
CURVE
100
AcDbSpline
 62
253
  6
CONTINUOUS
 70
0
 71
3
 72
8
 73
4
 74
0
 42
0.0000001
 43
0.0000001
 44
0.0000000001
 40
0.0
 40
0.0
 40
0.0
 40
0.0
 40
1.0
 40
1.0
 40
1.0
 40
1.0
 10
-2.8930747296
 20
-11.9665917104
 30
0.0
 10
-2.8741958901
 20
-12.0068113055
 30
0.0
 10
-2.8640082523
 20
-12.0551364362
 30
0.0
 10
-2.8640082523
 20
-12.1161787184
 30
0.0
  0
SPLINE
  5
255
100
AcDbEntity
  8
CURVE
100
AcDbSpline
 62
253
  6
CONTINUOUS
 70
0
 71
3
 72
8
 73
4
 74
0
 42
0.0000001
 43
0.0000001
 44
0.0000000001
 40
0.0
 40
0.0
 40
0.0
 40
0.0
 40
1.0
 40
1.0
 40
1.0
 40
1.0
 10
-2.8640082523
 20
-12.1161787184
 30
0.0
 10
-2.8640082523
 20
-12.2458933701
 30
0.0
 10
-2.8996650979
 20
-12.3374567935
 30
0.0
 10
-2.9658848526
 20
-12.3934121296
 30
0.0
  0
SPLINE
  5
256
100
AcDbEntity
  8
CURVE
100
AcDbSpline
 62
253
  6
CONTINUOUS
 70
0
 71
3
 72
8
 73
4
 74
0
 42
0.0000001
 43
0.0000001
 44
0.0000000001
 40
0.0
 40
0.0
 40
0.0
 40
0.0
 40
1.0
 40
1.0
 40
1.0
 40
1.0
 10
-2.9658848526
 20
-12.3934121296
 30
0.0
 10
-3.0321047291
 20
-12.4493675688
 30
0.0
 10
-3.1441690847
 20
-12.4773452343
 30
0.0
 10
-3.2969841048
 20
-12.4773452343
 30
0.0
  0
SPLINE
  5
257
100
AcDbEntity
  8
CURVE
100
AcDbSpline
 62
253
  6
CONTINUOUS
 70
0
 71
3
 72
8
 73
4
 74
0
 42
0.0000001
 43
0.0000001
 44
0.0000000001
 40
0.0
 40
0.0
 40
0.0
 40
0.0
 40
1.0
 40
1.0
 40
1.0
 40
1.0
 10
-1.52687677
 20
-12.7367747075
 30
0.0
 10
-1.3842496142
 20
-12.7367747075
 30
0.0
 10
-1.279825817
 20
-12.7825564191
 30
0.0
 10
-1.2186999249
 20
-12.8741196858
 30
0.0
  0
SPLINE
  5
258
100
AcDbEntity
  8
CURVE
100
AcDbSpline
 62
253
  6
CONTINUOUS
 70
0
 71
3
 72
8
 73
4
 74
0
 42
0.0000001
 43
0.0000001
 44
0.0000000001
 40
0.0
 40
0.0
 40
0.0
 40
0.0
 40
1.0
 40
1.0
 40
1.0
 40
1.0
 10
-1.2186999249
 20
-12.8741196858
 30
0.0
 10
-1.1575739369
 20
-12.9656830961
 30
0.0
 10
-1.1250999575
 20
-13.10304686
 30
0.0
 10
-1.1193701252
 20
-13.2861548232
 30
0.0
  0
SPLINE
  5
259
100
AcDbEntity
  8
CURVE
100
AcDbSpline
 62
253
  6
CONTINUOUS
 70
0
 71
3
 72
8
 73
4
 74
0
 42
0.0000001
 43
0.0000001
 44
0.0000000001
 40
0.0
 40
0.0
 40
0.0
 40
0.0
 40
1.0
 40
1.0
 40
1.0
 40
1.0
 10
-0.8188340172
 20
-13.2327428687
 30
0.0
 10
-0.8213809833
 20
-13.1589835056
 30
0.0
 10
-0.8264746889
 20
-13.0877675757
 30
0.0
 10
-0.8366623289
 20
-13.0216384841
 30
0.0
  0
SPLINE
  5
25A
100
AcDbEntity
  8
CURVE
100
AcDbSpline
 62
253
  6
CONTINUOUS
 70
0
 71
3
 72
8
 73
4
 74
0
 42
0.0000001
 43
0.0000001
 44
0.0000000001
 40
0.0
 40
0.0
 40
0.0
 40
0.0
 40
1.0
 40
1.0
 40
1.0
 40
1.0
 10
-0.8366623289
 20
-13.0216384841
 30
0.0
 10
-0.8468499646
 20
-12.9555094201
 30
0.0
 10
-0.8621315345
 20
-12.8944671379
 30
0.0
 10
-0.8855065753
 20
-12.8387032836
 30
0.0
  0
SPLINE
  5
25B
100
AcDbEntity
  8
CURVE
100
AcDbSpline
 62
253
  6
CONTINUOUS
 70
0
 71
3
 72
8
 73
4
 74
0
 42
0.0000001
 43
0.0000001
 44
0.0000000001
 40
0.0
 40
0.0
 40
0.0
 40
0.0
 40
1.0
 40
1.0
 40
1.0
 40
1.0
 10
-0.8855065753
 20
-12.8387032836
 30
0.0
 10
-0.9079760179
 20
-12.7850998381
 30
0.0
 10
-0.9410858974
 20
-12.7393181265
 30
0.0
 10
-0.9824490298
 20
-12.6992634148
 30
0.0
  0
SPLINE
  5
25C
100
AcDbEntity
  8
CURVE
100
AcDbSpline
 62
253
  6
CONTINUOUS
 70
0
 71
3
 72
8
 73
4
 74
0
 42
0.0000001
 43
0.0000001
 44
0.0000000001
 40
0.0
 40
0.0
 40
0.0
 40
0.0
 40
1.0
 40
1.0
 40
1.0
 40
1.0
 10
-0.9824490298
 20
-12.6992634148
 30
0.0
 10
-1.0251341924
 20
-12.6579284923
 30
0.0
 10
-1.0811663136
 20
-12.6274074077
 30
0.0
 10
-1.1499332651
 20
-12.6070599992
 30
0.0
  0
SPLINE
  5
25D
100
AcDbEntity
  8
CURVE
100
AcDbSpline
 62
253
  6
CONTINUOUS
 70
0
 71
3
 72
8
 73
4
 74
0
 42
0.0000001
 43
0.0000001
 44
0.0000000001
 40
0.0
 40
0.0
 40
0.0
 40
0.0
 40
1.0
 40
1.0
 40
1.0
 40
1.0
 10
-1.1499332651
 20
-12.6070599992
 30
0.0
 10
-1.0480564341
 20
-12.5612782875
 30
0.0
 10
-0.9691020712
 20
-12.4926057483
 30
0.0
 10
-0.9114116362
 20
-12.4055485508
 30
0.0
  0
SPLINE
  5
25E
100
AcDbEntity
  8
CURVE
100
AcDbSpline
 62
253
  6
CONTINUOUS
 70
0
 71
3
 72
8
 73
4
 74
0
 42
0.0000001
 43
0.0000001
 44
0.0000000001
 40
0.0
 40
0.0
 40
0.0
 40
0.0
 40
1.0
 40
1.0
 40
1.0
 40
1.0
 10
-0.9114116362
 20
-12.4055485508
 30
0.0
 10
-0.8544908628
 20
-12.3196528039
 30
0.0
 10
-0.8239277229
 20
-12.2077420286
 30
0.0
 10
-0.8239277229
 20
-12.0678535877
 30
0.0
  0
SPLINE
  5
25F
100
AcDbEntity
  8
CURVE
100
AcDbSpline
 62
253
  6
CONTINUOUS
 70
0
 71
3
 72
8
 73
4
 74
0
 42
0.0000001
 43
0.0000001
 44
0.0000000001
 40
0.0
 40
0.0
 40
0.0
 40
0.0
 40
1.0
 40
1.0
 40
1.0
 40
1.0
 10
-0.8239277229
 20
-12.0678535877
 30
0.0
 10
-0.8239277229
 20
-11.9533993369
 30
0.0
 10
-0.844303225
 20
-11.8618360267
 30
0.0
 10
-0.8840008718
 20
-11.7940588168
 30
0.0
  0
SPLINE
  5
260
100
AcDbEntity
  8
CURVE
100
AcDbSpline
 62
253
  6
CONTINUOUS
 70
0
 71
3
 72
8
 73
4
 74
0
 42
0.0000001
 43
0.0000001
 44
0.0000000001
 40
0.0
 40
0.0
 40
0.0
 40
0.0
 40
1.0
 40
1.0
 40
1.0
 40
1.0
 10
-0.8840008718
 20
-11.7940588168
 30
0.0
 10
-0.9232575879
 20
-11.7270344238
 30
0.0
 10
-0.9741960034
 20
-11.6736224552
 30
0.0
 10
-1.0404157624
 20
-11.6380144761
 30
0.0
  0
SPLINE
  5
261
100
AcDbEntity
  8
CURVE
100
AcDbSpline
 62
253
  6
CONTINUOUS
 70
0
 71
3
 72
8
 73
4
 74
0
 42
0.0000001
 43
0.0000001
 44
0.0000000001
 40
0.0
 40
0.0
 40
0.0
 40
0.0
 40
1.0
 40
1.0
 40
1.0
 40
1.0
 10
-1.0404157624
 20
-11.6380144761
 30
0.0
 10
-1.1066355214
 20
-11.602406497
 30
0.0
 10
-1.1804961786
 20
-11.5795156694
 30
0.0
 10
-1.2645622431
 20
-11.56949171
 30
0.0
  0
SPLINE
  5
262
100
AcDbEntity
  8
CURVE
100
AcDbSpline
 62
253
  6
CONTINUOUS
 70
0
 71
3
 72
8
 73
4
 74
0
 42
0.0000001
 43
0.0000001
 44
0.0000000001
 40
0.0
 40
0.0
 40
0.0
 40
0.0
 40
1.0
 40
1.0
 40
1.0
 40
1.0
 10
-1.2645622431
 20
-11.56949171
 30
0.0
 10
-1.3511395082
 20
-11.5591683174
 30
0.0
 10
-1.4377347693
 20
-11.5515380038
 30
0.0
 10
-1.52687677
 20
-11.5515380038
 30
0.0
  0
SPLINE
  5
263
100
AcDbEntity
  8
CURVE
100
AcDbSpline
 62
253
  6
CONTINUOUS
 70
0
 71
3
 72
8
 73
4
 74
0
 42
0.0000001
 43
0.0000001
 44
0.0000000001
 40
0.0
 40
0.0
 40
0.0
 40
0.0
 40
1.0
 40
1.0
 40
1.0
 40
1.0
 10
-1.5166891322
 20
-11.8058806956
 30
0.0
 10
-1.4555630788
 20
-11.8058806956
 30
0.0
 10
-1.3995309576
 20
-11.8109675336
 30
0.0
 10
-1.3536864743
 20
-11.8211412096
 30
0.0
  0
SPLINE
  5
264
100
AcDbEntity
  8
CURVE
100
AcDbSpline
 62
253
  6
CONTINUOUS
 70
0
 71
3
 72
8
 73
4
 74
0
 42
0.0000001
 43
0.0000001
 44
0.0000000001
 40
0.0
 40
0.0
 40
0.0
 40
0.0
 40
1.0
 40
1.0
 40
1.0
 40
1.0
 10
-1.3536864743
 20
-11.8211412096
 30
0.0
 10
-1.3078419909
 20
-11.8313148856
 30
0.0
 10
-1.2670914397
 20
-11.8465755127
 30
0.0
 10
-1.2365283405
 20
-11.8694663945
 30
0.0
  0
SPLINE
  5
265
100
AcDbEntity
  8
CURVE
100
AcDbSpline
 62
253
  6
CONTINUOUS
 70
0
 71
3
 72
8
 73
4
 74
0
 42
0.0000001
 43
0.0000001
 44
0.0000000001
 40
0.0
 40
0.0
 40
0.0
 40
0.0
 40
1.0
 40
1.0
 40
1.0
 40
1.0
 10
-1.2365283405
 20
-11.8694663945
 30
0.0
 10
-1.2059653863
 20
-11.8923571678
 30
0.0
 10
-1.1804961786
 20
-11.9228783089
 30
0.0
 10
-1.1652147079
 20
-11.9635731632
 30
0.0
  0
SPLINE
  5
266
100
AcDbEntity
  8
CURVE
100
AcDbSpline
 62
253
  6
CONTINUOUS
 70
0
 71
3
 72
8
 73
4
 74
0
 42
0.0000001
 43
0.0000001
 44
0.0000000001
 40
0.0
 40
0.0
 40
0.0
 40
0.0
 40
1.0
 40
1.0
 40
1.0
 40
1.0
 10
-1.1652147079
 20
-11.9635731632
 30
0.0
 10
-1.1499332651
 20
-12.0042679431
 30
0.0
 10
-1.1397454008
 20
-12.0525929606
 30
0.0
 10
-1.1397454008
 20
-12.1136352428
 30
0.0
  0
SPLINE
  5
267
100
AcDbEntity
  8
CURVE
100
AcDbSpline
 62
253
  6
CONTINUOUS
 70
0
 71
3
 72
8
 73
4
 74
0
 42
0.0000001
 43
0.0000001
 44
0.0000000001
 40
0.0
 40
0.0
 40
0.0
 40
0.0
 40
1.0
 40
1.0
 40
1.0
 40
1.0
 10
-1.1397454008
 20
-12.1136352428
 30
0.0
 10
-1.1397454008
 20
-12.2357196941
 30
0.0
 10
-1.1703085408
 20
-12.3272831174
 30
0.0
 10
-1.2295343943
 20
-12.3876861694
 30
0.0
  0
SPLINE
  5
268
100
AcDbEntity
  8
CURVE
100
AcDbSpline
 62
253
  6
CONTINUOUS
 70
0
 71
3
 72
8
 73
4
 74
0
 42
0.0000001
 43
0.0000001
 44
0.0000000001
 40
0.0
 40
0.0
 40
0.0
 40
0.0
 40
1.0
 40
1.0
 40
1.0
 40
1.0
 10
-1.2295343943
 20
-12.3876861694
 30
0.0
 10
-1.2900136814
 20
-12.4493675688
 30
0.0
 10
-1.3867963538
 20
-12.4773452343
 30
0.0
 10
-1.5243300304
 20
-12.4773452343
 30
0.0
  0
SPLINE
  5
269
100
AcDbEntity
  8
CURVE
100
AcDbSpline
 62
253
  6
CONTINUOUS
 70
0
 71
3
 72
8
 73
4
 74
0
 42
0.0000001
 43
0.0000001
 44
0.0000000001
 40
0.0
 40
0.0
 40
0.0
 40
0.0
 40
1.0
 40
1.0
 40
1.0
 40
1.0
 10
0.2457774177
 20
-11.5515380038
 30
0.0
 10
0.1082439676
 20
-11.5515380038
 30
0.0
 10
-0.0038207278
 20
-11.5718854689
 30
0.0
 10
-0.0955096945
 20
-11.612580286
 30
0.0
  0
SPLINE
  5
26A
100
AcDbEntity
  8
CURVE
100
AcDbSpline
 62
253
  6
CONTINUOUS
 70
0
 71
3
 72
8
 73
4
 74
0
 42
0.0000001
 43
0.0000001
 44
0.0000000001
 40
0.0
 40
0.0
 40
0.0
 40
0.0
 40
1.0
 40
1.0
 40
1.0
 40
1.0
 10
-0.0955096945
 20
-11.612580286
 30
0.0
 10
-0.1871986613
 20
-11.6532751032
 30
0.0
 10
-0.2585123524
 20
-11.7117739098
 30
0.0
 10
-0.3122730632
 20
-11.7904315664
 30
0.0
  0
SPLINE
  5
26B
100
AcDbEntity
  8
CURVE
100
AcDbSpline
 62
253
  6
CONTINUOUS
 70
0
 71
3
 72
8
 73
4
 74
0
 42
0.0000001
 43
0.0000001
 44
0.0000000001
 40
0.0
 40
0.0
 40
0.0
 40
0.0
 40
1.0
 40
1.0
 40
1.0
 40
1.0
 10
-0.3122730632
 20
-11.7904315664
 30
0.0
 10
-0.3680298552
 20
-11.8720097027
 30
0.0
 10
-0.4062334403
 20
-11.9712033264
 30
0.0
 10
-0.4278423669
 20
-12.0930632079
 30
0.0
  0
SPLINE
  5
26C
100
AcDbEntity
  8
CURVE
100
AcDbSpline
 62
253
  6
CONTINUOUS
 70
0
 71
3
 72
8
 73
4
 74
0
 42
0.0000001
 43
0.0000001
 44
0.0000000001
 40
0.0
 40
0.0
 40
0.0
 40
0.0
 40
1.0
 40
1.0
 40
1.0
 40
1.0
 10
-0.4278423669
 20
-12.0930632079
 30
0.0
 10
-0.4495309576
 20
-12.2153723421
 30
0.0
 10
-0.4597185954
 20
-12.355260783
 30
0.0
 10
-0.4597185954
 20
-12.5154966324
 30
0.0
  0
SPLINE
  5
26D
100
AcDbEntity
  8
CURVE
100
AcDbSpline
 62
253
  6
CONTINUOUS
 70
0
 71
3
 72
8
 73
4
 74
0
 42
0.0000001
 43
0.0000001
 44
0.0000000001
 40
0.0
 40
0.0
 40
0.0
 40
0.0
 40
1.0
 40
1.0
 40
1.0
 40
1.0
 10
-0.4597185954
 20
-12.5154966324
 30
0.0
 10
-0.4597185954
 20
-12.6579284923
 30
0.0
 10
-0.4546248898
 20
-12.7876432571
 30
0.0
 10
-0.4407512031
 20
-12.9022588317
 30
0.0
  0
SPLINE
  5
26E
100
AcDbEntity
  8
CURVE
100
AcDbSpline
 62
253
  6
CONTINUOUS
 70
0
 71
3
 72
8
 73
4
 74
0
 42
0.0000001
 43
0.0000001
 44
0.0000000001
 40
0.0
 40
0.0
 40
0.0
 40
0.0
 40
1.0
 40
1.0
 40
1.0
 40
1.0
 10
-0.4407512031
 20
-12.9022588317
 30
0.0
 10
-0.426608716
 20
-13.0190950648
 30
0.0
 10
-0.3960458025
 20
-13.1157452695
 30
0.0
 10
-0.3502013222
 20
-13.1971349054
 30
0.0
  0
SPLINE
  5
26F
100
AcDbEntity
  8
CURVE
100
AcDbSpline
 62
253
  6
CONTINUOUS
 70
0
 71
3
 72
8
 73
4
 74
0
 42
0.0000001
 43
0.0000001
 44
0.0000000001
 40
0.0
 40
0.0
 40
0.0
 40
0.0
 40
1.0
 40
1.0
 40
1.0
 40
1.0
 10
-0.3502013222
 20
-13.1971349054
 30
0.0
 10
-0.3043568358
 20
-13.2785245521
 30
0.0
 10
-0.2381370768
 20
-13.3395667848
 30
0.0
 10
-0.1520656331
 20
-13.3838075041
 30
0.0
  0
SPLINE
  5
270
100
AcDbEntity
  8
CURVE
100
AcDbSpline
 62
253
  6
CONTINUOUS
 70
0
 71
3
 72
8
 73
4
 74
0
 42
0.0000001
 43
0.0000001
 44
0.0000000001
 40
0.0
 40
0.0
 40
0.0
 40
0.0
 40
1.0
 40
1.0
 40
1.0
 40
1.0
 10
-0.1520656331
 20
-13.3838075041
 30
0.0
 10
-0.0649465546
 20
-13.4285867078
 30
0.0
 10
0.0496648803
 20
-13.4489341199
 30
0.0
 10
0.1948390022
 20
-13.4489341199
 30
0.0
  0
SPLINE
  5
271
100
AcDbEntity
  8
CURVE
100
AcDbSpline
 62
253
  6
CONTINUOUS
 70
0
 71
3
 72
8
 73
4
 74
0
 42
0.0000001
 43
0.0000001
 44
0.0000000001
 40
0.0
 40
0.0
 40
0.0
 40
0.0
 40
1.0
 40
1.0
 40
1.0
 40
1.0
 10
0.2534180894
 20
-13.1895046184
 30
0.0
 10
0.1693697944
 20
-13.1895046184
 30
0.0
 10
0.1031500354
 20
-13.1818743332
 30
0.0
 10
0.0522116243
 20
-13.1640703593
 30
0.0
  0
SPLINE
  5
272
100
AcDbEntity
  8
CURVE
100
AcDbSpline
 62
253
  6
CONTINUOUS
 70
0
 71
3
 72
8
 73
4
 74
0
 42
0.0000001
 43
0.0000001
 44
0.0000000001
 40
0.0
 40
0.0
 40
0.0
 40
0.0
 40
1.0
 40
1.0
 40
1.0
 40
1.0
 10
0.0522116243
 20
-13.1640703593
 30
0.0
 10
0.0012732044
 20
-13.1462663823
 30
0.0
 10
-0.0394773468
 20
-13.1157452695
 30
0.0
 10
-0.0680648487
 20
-13.070327613
 30
0.0
  0
SPLINE
  5
273
100
AcDbEntity
  8
CURVE
100
AcDbSpline
 62
253
  6
CONTINUOUS
 70
0
 71
3
 72
8
 73
4
 74
0
 42
0.0000001
 43
0.0000001
 44
0.0000000001
 40
0.0
 40
0.0
 40
0.0
 40
0.0
 40
1.0
 40
1.0
 40
1.0
 40
1.0
 10
-0.0680648487
 20
-13.070327613
 30
0.0
 10
-0.0955096945
 20
-13.0267253218
 30
0.0
 10
-0.1133377776
 20
-12.9682265151
 30
0.0
 10
-0.1237008966
 20
-12.8944919211
 30
0.0
  0
SPLINE
  5
274
100
AcDbEntity
  8
CURVE
100
AcDbSpline
 62
253
  6
CONTINUOUS
 70
0
 71
3
 72
8
 73
4
 74
0
 42
0.0000001
 43
0.0000001
 44
0.0000000001
 40
0.0
 40
0.0
 40
0.0
 40
0.0
 40
1.0
 40
1.0
 40
1.0
 40
1.0
 10
-0.1237008966
 20
-12.8944919211
 30
0.0
 10
-0.1337135062
 20
-12.8232512362
 30
0.0
 10
-0.1362602457
 20
-12.7316878695
 30
0.0
 10
-0.1362602457
 20
-12.6223205132
 30
0.0
  0
SPLINE
  5
275
100
AcDbEntity
  8
CURVE
100
AcDbSpline
 62
253
  6
CONTINUOUS
 70
0
 71
3
 72
8
 73
4
 74
0
 42
0.0000001
 43
0.0000001
 44
0.0000000001
 40
0.0
 40
0.0
 40
0.0
 40
0.0
 40
1.0
 40
1.0
 40
1.0
 40
1.0
 10
-0.1362602457
 20
-12.3578041455
 30
0.0
 10
-0.1362602457
 20
-12.2687843108
 30
0.0
 10
-0.1337135062
 20
-12.189938039
 30
0.0
 10
-0.124613276
 20
-12.1211311772
 30
0.0
  0
SPLINE
  5
276
100
AcDbEntity
  8
CURVE
100
AcDbSpline
 62
253
  6
CONTINUOUS
 70
0
 71
3
 72
8
 73
4
 74
0
 42
0.0000001
 43
0.0000001
 44
0.0000000001
 40
0.0
 40
0.0
 40
0.0
 40
0.0
 40
1.0
 40
1.0
 40
1.0
 40
1.0
 10
-0.124613276
 20
-12.1211311772
 30
0.0
 10
-0.1158849701
 20
-12.0551364362
 30
0.0
 10
-0.0980564341
 20
-11.9991811051
 30
0.0
 10
-0.0694690573
 20
-11.9537632801
 30
0.0
  0
SPLINE
  5
277
100
AcDbEntity
  8
CURVE
100
AcDbSpline
 62
253
  6
CONTINUOUS
 70
0
 71
3
 72
8
 73
4
 74
0
 42
0.0000001
 43
0.0000001
 44
0.0000000001
 40
0.0
 40
0.0
 40
0.0
 40
0.0
 40
1.0
 40
1.0
 40
1.0
 40
1.0
 10
-0.0694690573
 20
-11.9537632801
 30
0.0
 10
-0.0420245394
 20
-11.9101611573
 30
0.0
 10
-0.0012735352
 20
-11.8770965407
 30
0.0
 10
0.0526432315
 20
-11.8553029903
 30
0.0
  0
SPLINE
  5
278
100
AcDbEntity
  8
CURVE
100
AcDbSpline
 62
253
  6
CONTINUOUS
 70
0
 71
3
 72
8
 73
4
 74
0
 42
0.0000001
 43
0.0000001
 44
0.0000000001
 40
0.0
 40
0.0
 40
0.0
 40
0.0
 40
1.0
 40
1.0
 40
1.0
 40
1.0
 10
0.0526432315
 20
-11.8553029903
 30
0.0
 10
0.105696775
 20
-11.8338583611
 30
0.0
 10
0.1770104662
 20
-11.8211412096
 30
0.0
 10
0.2686994329
 20
-11.8211412096
 30
0.0
  0
SPLINE
  5
279
100
AcDbEntity
  8
CURVE
100
AcDbSpline
 62
253
  6
CONTINUOUS
 70
0
 71
3
 72
8
 73
4
 74
0
 42
0.0000001
 43
0.0000001
 44
0.0000000001
 40
0.0
 40
0.0
 40
0.0
 40
0.0
 40
1.0
 40
1.0
 40
1.0
 40
1.0
 10
1.656769444
 20
-11.5515380038
 30
0.0
 10
1.5599865451
 20
-11.5515380038
 30
0.0
 10
1.4759382501
 20
-11.5642551554
 30
0.0
 10
1.4019471476
 20
-11.589302501
 30
0.0
  0
SPLINE
  5
27A
100
AcDbEntity
  8
CURVE
100
AcDbSpline
 62
253
  6
CONTINUOUS
 70
0
 71
3
 72
8
 73
4
 74
0
 42
0.0000001
 43
0.0000001
 44
0.0000000001
 40
0.0
 40
0.0
 40
0.0
 40
0.0
 40
1.0
 40
1.0
 40
1.0
 40
1.0
 10
1.4019471476
 20
-11.589302501
 30
0.0
 10
1.3256701961
 20
-11.6151236485
 30
0.0
 10
1.2619971767
 20
-11.6481881521
 30
0.0
 10
1.2105081522
 20
-11.6933361136
 30
0.0
  0
SPLINE
  5
27B
100
AcDbEntity
  8
CURVE
100
AcDbSpline
 62
253
  6
CONTINUOUS
 70
0
 71
3
 72
8
 73
4
 74
0
 42
0.0000001
 43
0.0000001
 44
0.0000000001
 40
0.0
 40
0.0
 40
0.0
 40
0.0
 40
1.0
 40
1.0
 40
1.0
 40
1.0
 10
1.2105081522
 20
-11.6933361136
 30
0.0
 10
1.1575736061
 20
-11.7397515754
 30
0.0
 10
1.1168230549
 20
-11.793163544
 30
0.0
 10
1.0907402383
 20
-11.8539396016
 30
0.0
  0
SPLINE
  5
27C
100
AcDbEntity
  8
CURVE
100
AcDbSpline
 62
253
  6
CONTINUOUS
 70
0
 71
3
 72
8
 73
4
 74
0
 42
0.0000001
 43
0.0000001
 44
0.0000000001
 40
0.0
 40
0.0
 40
0.0
 40
0.0
 40
1.0
 40
1.0
 40
1.0
 40
1.0
 10
1.0907402383
 20
-11.8539396016
 30
0.0
 10
1.0633374467
 20
-11.9177913578
 30
0.0
 10
1.0506028429
 20
-11.9864639535
 30
0.0
 10
1.0506028429
 20
-12.0602232742
 30
0.0
  0
SPLINE
  5
27D
100
AcDbEntity
  8
CURVE
100
AcDbSpline
 62
253
  6
CONTINUOUS
 70
0
 71
3
 72
8
 73
4
 74
0
 42
0.0000001
 43
0.0000001
 44
0.0000000001
 40
0.0
 40
0.0
 40
0.0
 40
0.0
 40
1.0
 40
1.0
 40
1.0
 40
1.0
 10
1.0506028429
 20
-12.0602232742
 30
0.0
 10
1.0506028429
 20
-12.1365260704
 30
0.0
 10
1.0582439676
 20
-12.2026551906
 30
0.0
 10
1.0782024595
 20
-12.2562202664
 30
0.0
  0
SPLINE
  5
27E
100
AcDbEntity
  8
CURVE
100
AcDbSpline
 62
253
  6
CONTINUOUS
 70
0
 71
3
 72
8
 73
4
 74
0
 42
0.0000001
 43
0.0000001
 44
0.0000000001
 40
0.0
 40
0.0
 40
0.0
 40
0.0
 40
1.0
 40
1.0
 40
1.0
 40
1.0
 10
1.0782024595
 20
-12.2562202664
 30
0.0
 10
1.0989945188
 20
-12.3120224904
 30
0.0
 10
1.1270104662
 20
-12.3578041455
 30
0.0
 10
1.1626674454
 20
-12.3959556866
 30
0.0
  0
SPLINE
  5
27F
100
AcDbEntity
  8
CURVE
100
AcDbSpline
 62
253
  6
CONTINUOUS
 70
0
 71
3
 72
8
 73
4
 74
0
 42
0.0000001
 43
0.0000001
 44
0.0000000001
 40
0.0
 40
0.0
 40
0.0
 40
0.0
 40
1.0
 40
1.0
 40
1.0
 40
1.0
 10
1.1626674454
 20
-12.3959556866
 30
0.0
 10
1.1983241573
 20
-12.4341069417
 30
0.0
 10
1.2441686407
 20
-12.4646280828
 30
0.0
 10
1.2946030142
 20
-12.4885515565
 30
0.0
  0
SPLINE
  5
280
100
AcDbEntity
  8
CURVE
100
AcDbSpline
 62
253
  6
CONTINUOUS
 70
0
 71
3
 72
8
 73
4
 74
0
 42
0.0000001
 43
0.0000001
 44
0.0000000001
 40
0.0
 40
0.0
 40
0.0
 40
0.0
 40
1.0
 40
1.0
 40
1.0
 40
1.0
 10
1.2946030142
 20
-12.4885515565
 30
0.0
 10
1.3460454717
 20
-12.5129532134
 30
0.0
 10
1.4050104445
 20
-12.5317177012
 30
0.0
 10
1.470844318
 20
-12.548561136
 30
0.0
  0
SPLINE
  5
281
100
AcDbEntity
  8
CURVE
100
AcDbSpline
 62
253
  6
CONTINUOUS
 70
0
 71
3
 72
8
 73
4
 74
0
 42
0.0000001
 43
0.0000001
 44
0.0000000001
 40
0.0
 40
0.0
 40
0.0
 40
0.0
 40
1.0
 40
1.0
 40
1.0
 40
1.0
 10
1.7790210977
 20
-12.6274074077
 30
0.0
 10
1.8656165853
 20
-12.6477548163
 30
0.0
 10
1.9318363443
 20
-12.6782759008
 30
0.0
 10
1.9776808277
 20
-12.7189707179
 30
0.0
  0
SPLINE
  5
282
100
AcDbEntity
  8
CURVE
100
AcDbSpline
 62
253
  6
CONTINUOUS
 70
0
 71
3
 72
8
 73
4
 74
0
 42
0.0000001
 43
0.0000001
 44
0.0000000001
 40
0.0
 40
0.0
 40
0.0
 40
0.0
 40
1.0
 40
1.0
 40
1.0
 40
1.0
 10
1.9776808277
 20
-12.7189707179
 30
0.0
 10
2.0235253111
 20
-12.759665535
 30
0.0
 10
2.0464473262
 20
-12.8181643417
 30
0.0
 10
2.0464473262
 20
-12.8970105569
 30
0.0
  0
SPLINE
  5
283
100
AcDbEntity
  8
CURVE
100
AcDbSpline
 62
253
  6
CONTINUOUS
 70
0
 71
3
 72
8
 73
4
 74
0
 42
0.0000001
 43
0.0000001
 44
0.0000000001
 40
0.0
 40
0.0
 40
0.0
 40
0.0
 40
1.0
 40
1.0
 40
1.0
 40
1.0
 10
2.0464473262
 20
-12.8970105569
 30
0.0
 10
2.0464473262
 20
-12.9834870856
 30
0.0
 10
2.0158846393
 20
-13.0496161776
 30
0.0
 10
1.959293699
 20
-13.0998502133
 30
0.0
  0
SPLINE
  5
284
100
AcDbEntity
  8
CURVE
100
AcDbSpline
 62
253
  6
CONTINUOUS
 70
0
 71
3
 72
8
 73
4
 74
0
 42
0.0000001
 43
0.0000001
 44
0.0000000001
 40
0.0
 40
0.0
 40
0.0
 40
0.0
 40
1.0
 40
1.0
 40
1.0
 40
1.0
 10
1.959293699
 20
-13.0998502133
 30
0.0
 10
1.9012732044
 20
-13.1513532203
 30
0.0
 10
1.8121309772
 20
-13.1742440762
 30
0.0
 10
1.6898793235
 20
-13.1742440762
 30
0.0
  0
SPLINE
  5
285
100
AcDbEntity
  8
CURVE
100
AcDbSpline
 62
253
  6
CONTINUOUS
 70
0
 71
3
 72
8
 73
4
 74
0
 42
0.0000001
 43
0.0000001
 44
0.0000000001
 40
0.0
 40
0.0
 40
0.0
 40
0.0
 40
1.0
 40
1.0
 40
1.0
 40
1.0
 10
1.705160667
 20
-13.4489341199
 30
0.0
 10
1.8325067058
 20
-13.4489341199
 30
0.0
 10
1.9369302765
 20
-13.4311301356
 30
0.0
 10
2.0207779191
 20
-13.3950606061
 30
0.0
  0
SPLINE
  5
286
100
AcDbEntity
  8
CURVE
100
AcDbSpline
 62
253
  6
CONTINUOUS
 70
0
 71
3
 72
8
 73
4
 74
0
 42
0.0000001
 43
0.0000001
 44
0.0000000001
 40
0.0
 40
0.0
 40
0.0
 40
0.0
 40
1.0
 40
1.0
 40
1.0
 40
1.0
 10
2.0207779191
 20
-13.3950606061
 30
0.0
 10
2.1024796739
 20
-13.3599141933
 30
0.0
 10
2.1686994329
 20
-13.314132517
 30
0.0
 10
2.2196378484
 20
-13.2581771435
 30
0.0
  0
SPLINE
  5
287
100
AcDbEntity
  8
CURVE
100
AcDbSpline
 62
253
  6
CONTINUOUS
 70
0
 71
3
 72
8
 73
4
 74
0
 42
0.0000001
 43
0.0000001
 44
0.0000000001
 40
0.0
 40
0.0
 40
0.0
 40
0.0
 40
1.0
 40
1.0
 40
1.0
 40
1.0
 10
2.2196378484
 20
-13.2581771435
 30
0.0
 10
2.270576264
 20
-13.20222177
 30
0.0
 10
2.3036861435
 20
-13.1360926781
 30
0.0
 10
2.3240614228
 20
-13.0648767209
 30
0.0
  0
SPLINE
  5
288
100
AcDbEntity
  8
CURVE
100
AcDbSpline
 62
253
  6
CONTINUOUS
 70
0
 71
3
 72
8
 73
4
 74
0
 42
0.0000001
 43
0.0000001
 44
0.0000000001
 40
0.0
 40
0.0
 40
0.0
 40
0.0
 40
1.0
 40
1.0
 40
1.0
 40
1.0
 10
2.3240614228
 20
-13.0648767209
 30
0.0
 10
2.3444366947
 20
-12.9936607899
 30
0.0
 10
2.354624559
 20
-12.919901441
 30
0.0
 10
2.354624559
 20
-12.8486854828
 30
0.0
  0
SPLINE
  5
289
100
AcDbEntity
  8
CURVE
100
AcDbSpline
 62
253
  6
CONTINUOUS
 70
0
 71
3
 72
8
 73
4
 74
0
 42
0.0000001
 43
0.0000001
 44
0.0000000001
 40
0.0
 40
0.0
 40
0.0
 40
0.0
 40
1.0
 40
1.0
 40
1.0
 40
1.0
 10
2.354624559
 20
-12.8486854828
 30
0.0
 10
2.354624559
 20
-12.7164272989
 30
0.0
 10
2.3215146795
 20
-12.6146902562
 30
0.0
 10
2.2552947848
 20
-12.5434744238
 30
0.0
  0
SPLINE
  5
28A
100
AcDbEntity
  8
CURVE
100
AcDbSpline
 62
253
  6
CONTINUOUS
 70
0
 71
3
 72
8
 73
4
 74
0
 42
0.0000001
 43
0.0000001
 44
0.0000000001
 40
0.0
 40
0.0
 40
0.0
 40
0.0
 40
1.0
 40
1.0
 40
1.0
 40
1.0
 10
2.2552947848
 20
-12.5434744238
 30
0.0
 10
2.1890747085
 20
-12.4722583963
 30
0.0
 10
2.0948390022
 20
-12.4188464277
 30
0.0
 10
1.9725868955
 20
-12.3883252866
 30
0.0
  0
SPLINE
  5
28B
100
AcDbEntity
  8
CURVE
100
AcDbSpline
 62
253
  6
CONTINUOUS
 70
0
 71
3
 72
8
 73
4
 74
0
 42
0.0000001
 43
0.0000001
 44
0.0000000001
 40
0.0
 40
0.0
 40
0.0
 40
0.0
 40
1.0
 40
1.0
 40
1.0
 40
1.0
 10
1.7382705465
 20
-12.3298264799
 30
0.0
 10
1.6618629232
 20
-12.3120224904
 30
0.0
 10
1.6007370964
 20
-12.2942185008
 30
0.0
 10
1.5517785128
 20
-12.2754140868
 30
0.0
  0
SPLINE
  5
28C
100
AcDbEntity
  8
CURVE
100
AcDbSpline
 62
253
  6
CONTINUOUS
 70
0
 71
3
 72
8
 73
4
 74
0
 42
0.0000001
 43
0.0000001
 44
0.0000000001
 40
0.0
 40
0.0
 40
0.0
 40
0.0
 40
1.0
 40
1.0
 40
1.0
 40
1.0
 10
1.5517785128
 20
-12.2754140868
 30
0.0
 10
1.5014074579
 20
-12.2560671592
 30
0.0
 10
1.4632036462
 20
-12.2357196941
 30
0.0
 10
1.4320518338
 20
-12.213684202
 30
0.0
  0
SPLINE
  5
28D
100
AcDbEntity
  8
CURVE
100
AcDbSpline
 62
253
  6
CONTINUOUS
 70
0
 71
3
 72
8
 73
4
 74
0
 42
0.0000001
 43
0.0000001
 44
0.0000000001
 40
0.0
 40
0.0
 40
0.0
 40
0.0
 40
1.0
 40
1.0
 40
1.0
 40
1.0
 10
1.4320518338
 20
-12.213684202
 30
0.0
 10
1.4020773664
 20
-12.1924815146
 30
0.0
 10
1.3817020908
 20
-12.1670472115
 30
0.0
 10
1.3704322364
 20
-12.1395361178
 30
0.0
  0
SPLINE
  5
28E
100
AcDbEntity
  8
CURVE
100
AcDbSpline
 62
253
  6
CONTINUOUS
 70
0
 71
3
 72
8
 73
4
 74
0
 42
0.0000001
 43
0.0000001
 44
0.0000000001
 40
0.0
 40
0.0
 40
0.0
 40
0.0
 40
1.0
 40
1.0
 40
1.0
 40
1.0
 10
1.3704322364
 20
-12.1395361178
 30
0.0
 10
1.3587800756
 20
-12.1110917673
 30
0.0
 10
1.3536861435
 20
-12.0780272637
 30
0.0
 10
1.3536861435
 20
-12.0398759222
 30
0.0
  0
SPLINE
  5
28F
100
AcDbEntity
  8
CURVE
100
AcDbSpline
 62
253
  6
CONTINUOUS
 70
0
 71
3
 72
8
 73
4
 74
0
 42
0.0000001
 43
0.0000001
 44
0.0000000001
 40
0.0
 40
0.0
 40
0.0
 40
0.0
 40
1.0
 40
1.0
 40
1.0
 40
1.0
 10
1.3536861435
 20
-12.0398759222
 30
0.0
 10
1.3536861435
 20
-11.973746802
 30
0.0
 10
1.3740614191
 20
-11.9228783089
 30
0.0
 10
1.4199059024
 20
-11.8872703298
 30
0.0
  0
SPLINE
  5
290
100
AcDbEntity
  8
CURVE
100
AcDbSpline
 62
253
  6
CONTINUOUS
 70
0
 71
3
 72
8
 73
4
 74
0
 42
0.0000001
 43
0.0000001
 44
0.0000000001
 40
0.0
 40
0.0
 40
0.0
 40
0.0
 40
1.0
 40
1.0
 40
1.0
 40
1.0
 10
1.4199059024
 20
-11.8872703298
 30
0.0
 10
1.4657503858
 20
-11.8516623507
 30
0.0
 10
1.537064077
 20
-11.8313148856
 30
0.0
 10
1.638940908
 20
-11.8313148856
 30
0.0
  0
SPLINE
  5
291
100
AcDbEntity
  8
CURVE
100
AcDbSpline
 62
253
  6
CONTINUOUS
 70
0
 71
3
 72
8
 73
4
 74
0
 42
0.0000001
 43
0.0000001
 44
0.0000000001
 40
0.0
 40
0.0
 40
0.0
 40
0.0
 40
1.0
 40
1.0
 40
1.0
 40
1.0
 10
3.2282169357
 20
-11.5515380038
 30
0.0
 10
3.1314340368
 20
-11.5515380038
 30
0.0
 10
3.0473857418
 20
-11.5642551554
 30
0.0
 10
2.9733950463
 20
-11.5893023633
 30
0.0
  0
SPLINE
  5
292
100
AcDbEntity
  8
CURVE
100
AcDbSpline
 62
253
  6
CONTINUOUS
 70
0
 71
3
 72
8
 73
4
 74
0
 42
0.0000001
 43
0.0000001
 44
0.0000000001
 40
0.0
 40
0.0
 40
0.0
 40
0.0
 40
1.0
 40
1.0
 40
1.0
 40
1.0
 10
2.9733950463
 20
-11.5893023633
 30
0.0
 10
2.8971176878
 20
-11.6151236485
 30
0.0
 10
2.8334446684
 20
-11.6481881521
 30
0.0
 10
2.7819559023
 20
-11.693335887
 30
0.0
  0
SPLINE
  5
293
100
AcDbEntity
  8
CURVE
100
AcDbSpline
 62
253
  6
CONTINUOUS
 70
0
 71
3
 72
8
 73
4
 74
0
 42
0.0000001
 43
0.0000001
 44
0.0000000001
 40
0.0
 40
0.0
 40
0.0
 40
0.0
 40
1.0
 40
1.0
 40
1.0
 40
1.0
 10
2.7819559023
 20
-11.693335887
 30
0.0
 10
2.7290210977
 20
-11.7397515754
 30
0.0
 10
2.6882705465
 20
-11.793163544
 30
0.0
 10
2.662187915
 20
-11.8539396852
 30
0.0
  0
SPLINE
  5
294
100
AcDbEntity
  8
CURVE
100
AcDbSpline
 62
253
  6
CONTINUOUS
 70
0
 71
3
 72
8
 73
4
 74
0
 42
0.0000001
 43
0.0000001
 44
0.0000000001
 40
0.0
 40
0.0
 40
0.0
 40
0.0
 40
1.0
 40
1.0
 40
1.0
 40
1.0
 10
2.662187915
 20
-11.8539396852
 30
0.0
 10
2.6347853914
 20
-11.9177913578
 30
0.0
 10
2.6220507875
 20
-11.9864639535
 30
0.0
 10
2.6220507875
 20
-12.0602232742
 30
0.0
  0
SPLINE
  5
295
100
AcDbEntity
  8
CURVE
100
AcDbSpline
 62
253
  6
CONTINUOUS
 70
0
 71
3
 72
8
 73
4
 74
0
 42
0.0000001
 43
0.0000001
 44
0.0000000001
 40
0.0
 40
0.0
 40
0.0
 40
0.0
 40
1.0
 40
1.0
 40
1.0
 40
1.0
 10
2.6220507875
 20
-12.0602232742
 30
0.0
 10
2.6220507875
 20
-12.1365260704
 30
0.0
 10
2.6296914592
 20
-12.2026551906
 30
0.0
 10
2.6496499511
 20
-12.2562202664
 30
0.0
  0
SPLINE
  5
296
100
AcDbEntity
  8
CURVE
100
AcDbSpline
 62
253
  6
CONTINUOUS
 70
0
 71
3
 72
8
 73
4
 74
0
 42
0.0000001
 43
0.0000001
 44
0.0000000001
 40
0.0
 40
0.0
 40
0.0
 40
0.0
 40
1.0
 40
1.0
 40
1.0
 40
1.0
 10
2.6496499511
 20
-12.2562202664
 30
0.0
 10
2.6704420105
 20
-12.3120224904
 30
0.0
 10
2.6984584108
 20
-12.3578041455
 30
0.0
 10
2.7341151792
 20
-12.395955461
 30
0.0
  0
SPLINE
  5
297
100
AcDbEntity
  8
CURVE
100
AcDbSpline
 62
253
  6
CONTINUOUS
 70
0
 71
3
 72
8
 73
4
 74
0
 42
0.0000001
 43
0.0000001
 44
0.0000000001
 40
0.0
 40
0.0
 40
0.0
 40
0.0
 40
1.0
 40
1.0
 40
1.0
 40
1.0
 10
2.7341151792
 20
-12.395955461
 30
0.0
 10
2.7697721019
 20
-12.4341069417
 30
0.0
 10
2.8156165853
 20
-12.4646280828
 30
0.0
 10
2.866050548
 20
-12.488551468
 30
0.0
  0
SPLINE
  5
298
100
AcDbEntity
  8
CURVE
100
AcDbSpline
 62
253
  6
CONTINUOUS
 70
0
 71
3
 72
8
 73
4
 74
0
 42
0.0000001
 43
0.0000001
 44
0.0000000001
 40
0.0
 40
0.0
 40
0.0
 40
0.0
 40
1.0
 40
1.0
 40
1.0
 40
1.0
 10
2.866050548
 20
-12.488551468
 30
0.0
 10
2.9174929634
 20
-12.5129532134
 30
0.0
 10
2.9764579615
 20
-12.5317175918
 30
0.0
 10
3.0422922626
 20
-12.548561136
 30
0.0
  0
DIMENSION
  5
299
100
AcDbEntity
  8
0
100
AcDbDimension
 62
7
  6
CONTINUOUS
  2
*D0
 10
11.0
 20
30.1
 11
-2.3571428571
 21
32.35
 70
160
 71
2
 42
22.0
  3
DIMSTYLE_1
100
AcDbAlignedDimension
 13
-11.0
 23
22.1001713375
 14
11.0
 24
22.1001713375
 50
360.0
100
AcDbRotatedDimension
  0
DIMENSION
  5
29A
100
AcDbEntity
  8
0
100
AcDbDimension
 62
7
  6
CONTINUOUS
  2
*D1
 10
19.0
 20
-22.1
 11
18.7183233851
 21
-3.9271996294
 70
160
 71
2
 42
44.2
  3
DIMSTYLE_1
100
AcDbAlignedDimension
 13
11.0001713375
 23
22.1
 14
11.0001713375
 24
-22.1
 50
270.0
100
AcDbRotatedDimension
  0
DIMENSION
  5
29B
100
AcDbEntity
  8
0
100
AcDbDimension
 62
7
  6
CONTINUOUS
  2
*D2
 10
-26.6085381707
 20
30.1
 11
-24.7871095993
 21
32.35
 70
160
 71
2
 42
6.0
  3
DIMSTYLE_1
100
AcDbAlignedDimension
 13
-20.6085381707
 23
22.1001713375
 14
-26.6085381707
 24
0.5
 50
180.0
100
AcDbRotatedDimension
  0
LINE
  5
29C
100
AcDbEntity
  8
RACCORDO
100
AcDbLine
 62
7
  6
CONTINUOUS
 10
10.5001713375
 20
-22.1
 11
-10.5001713375
 21
-22.1
  0
LINE
  5
29D
100
AcDbEntity
  8
RACCORDO
100
AcDbLine
 62
253
  6
CONTINUOUS
 10
-10.3962950425
 20
-21.996123705
 11
10.3962950425
 21
-21.996123705
  0
LINE
  5
29E
100
AcDbEntity
  8
RACCORDO
100
AcDbLine
 62
253
  6
CONTINUOUS
 10
-10.3836897634
 20
-21.1448536428
 11
10.3836897634
 21
-21.1448536428
  0
LINE
  5
29F
100
AcDbEntity
  8
RACCORDO
100
AcDbLine
 62
253
  6
CONTINUOUS
 10
5.794884877
 20
-16.1622399421
 11
-5.794884877
 21
-16.1622399421
  0
LINE
  5
2A0
100
AcDbEntity
  8
RACCORDO
100
AcDbLine
 62
7
  6
CONTINUOUS
 10
5.794884877
 20
-16.052941261
 11
-5.794884877
 21
-16.052941261
  0
LINE
  5
2A1
100
AcDbEntity
  8
ASSI
100
AcDbLine
 62
7
  6
CONTINUOUS
 10
-5.794884877
 20
-15.95
 11
-5.0
 21
-15.95
  0
LINE
  5
2A2
100
AcDbEntity
  8
DRAFT
100
AcDbLine
 62
7
  6
CONTINUOUS
 10
-5.794884877
 20
-15.95
 11
-5.0
 21
-15.95
  0
LINE
  5
2A3
100
AcDbEntity
  8
ASSI
100
AcDbLine
 62
7
  6
CONTINUOUS
 10
5.0
 20
-15.95
 11
5.794884877
 21
-15.95
  0
LINE
  5
2A4
100
AcDbEntity
  8
DRAFT
100
AcDbLine
 62
7
  6
CONTINUOUS
 10
5.0
 20
-15.95
 11
5.794884877
 21
-15.95
  0
LINE
  5
2A5
100
AcDbEntity
  8
ASSI
100
AcDbLine
 62
7
  6
CONTINUOUS
 10
5.794884877
 20
-15.9433202604
 11
-5.794884877
 21
-15.9433202604
  0
LINE
  5
2A6
100
AcDbEntity
  8
RACCORDO
100
AcDbLine
 62
7
  6
CONTINUOUS
 10
5.794884877
 20
-15.9433202604
 11
-5.794884877
 21
-15.9433202604
  0
LINE
  5
2A7
100
AcDbEntity
  8
ASSI
100
AcDbLine
 62
253
  6
CONTINUOUS
 10
5.794884877
 20
-15.8522821594
 11
-5.794884877
 21
-15.8522821595
  0
LINE
  5
2A8
100
AcDbEntity
  8
RACCORDO
100
AcDbLine
 62
253
  6
CONTINUOUS
 10
5.794884877
 20
-15.8522821594
 11
-5.794884877
 21
-15.8522821595
  0
LINE
  5
2A9
100
AcDbEntity
  8
CURVE
100
AcDbLine
 62
253
  6
CONTINUOUS
 10
-3.9260725796
 20
-13.4489341199
 11
-3.633177115
 21
-13.4489341199
  0
LINE
  5
2AA
100
AcDbEntity
  8
CURVE
100
AcDbLine
 62
253
  6
CONTINUOUS
 10
-2.1661530241
 20
-13.4489341199
 11
-1.8783512935
 21
-13.4489341199
  0
LINE
  5
2AB
100
AcDbEntity
  8
CURVE
100
AcDbLine
 62
253
  6
CONTINUOUS
 10
-1.1142764196
 20
-13.4489341199
 11
-0.811193119
 21
-13.4489341199
  0
LINE
  5
2AC
100
AcDbEntity
  8
CURVE
100
AcDbLine
 62
253
  6
CONTINUOUS
 10
0.1948390022
 20
-13.4489341199
 11
0.8086458221
 21
-13.4489341199
  0
LINE
  5
2AD
100
AcDbEntity
  8
CURVE
100
AcDbLine
 62
253
  6
CONTINUOUS
 10
1.0684313789
 20
-13.4489341199
 11
1.705160667
 21
-13.4489341199
  0
LINE
  5
2AE
100
AcDbEntity
  8
CURVE
100
AcDbLine
 62
253
  6
CONTINUOUS
 10
2.6398793235
 20
-13.4489341199
 11
3.2766086116
 21
-13.4489341199
  0
LINE
  5
2AF
100
AcDbEntity
  8
CURVE
100
AcDbLine
 62
253
  6
CONTINUOUS
 10
0.8086458221
 20
-13.1895046184
 11
0.2534180894
 21
-13.1895046184
  0
LINE
  5
2B0
100
AcDbEntity
  8
CURVE
100
AcDbLine
 62
253
  6
CONTINUOUS
 10
3.2613268152
 20
-13.1742440762
 11
2.6398793235
 21
-13.1742440762
  0
LINE
  5
2B1
100
AcDbEntity
  8
CURVE
100
AcDbLine
 62
253
  6
CONTINUOUS
 10
1.6898793235
 20
-13.1742440762
 11
1.0684313789
 21
-13.1742440762
  0
LINE
  5
2B2
100
AcDbEntity
  8
CURVE
100
AcDbLine
 62
253
  6
CONTINUOUS
 10
-3.633177115
 20
-12.7367747075
 11
-3.1874667153
 21
-12.7367747075
  0
LINE
  5
2B3
100
AcDbEntity
  8
CURVE
100
AcDbLine
 62
253
  6
CONTINUOUS
 10
-1.8783512935
 20
-12.7367747075
 11
-1.52687677
 21
-12.7367747075
  0
LINE
  5
2B4
100
AcDbEntity
  8
CURVE
100
AcDbLine
 62
253
  6
CONTINUOUS
 10
-0.1362602457
 20
-12.6223205132
 11
0.7195040479
 21
-12.6223205132
  0
LINE
  5
2B5
100
AcDbEntity
  8
CURVE
100
AcDbLine
 62
253
  6
CONTINUOUS
 10
-1.5243300304
 20
-12.4773452343
 11
-1.8732575879
 21
-12.4773452343
  0
LINE
  5
2B6
100
AcDbEntity
  8
CURVE
100
AcDbLine
 62
253
  6
CONTINUOUS
 10
-3.2969841048
 20
-12.4773452343
 11
-3.6280832961
 21
-12.4773452343
  0
LINE
  5
2B7
100
AcDbEntity
  8
CURVE
100
AcDbLine
 62
253
  6
CONTINUOUS
 10
0.7195040479
 20
-12.3578041455
 11
-0.1362602457
 21
-12.3578041455
  0
LINE
  5
2B8
100
AcDbEntity
  8
CURVE
100
AcDbLine
 62
253
  6
CONTINUOUS
 10
1.638940908
 20
-11.8313148856
 11
2.2119971767
 21
-11.8313148856
  0
LINE
  5
2B9
100
AcDbEntity
  8
CURVE
100
AcDbLine
 62
253
  6
CONTINUOUS
 10
3.2103883997
 20
-11.8313148856
 11
3.7834446684
 21
-11.8313148856
  0
LINE
  5
2BA
100
AcDbEntity
  8
CURVE
100
AcDbLine
 62
253
  6
CONTINUOUS
 10
0.2686994329
 20
-11.8211412096
 11
0.7959112182
 21
-11.8211412096
  0
LINE
  5
2BB
100
AcDbEntity
  8
CURVE
100
AcDbLine
 62
253
  6
CONTINUOUS
 10
-3.6280832961
 20
-11.8058806956
 11
-3.2613272592
 21
-11.8058806956
  0
LINE
  5
2BC
100
AcDbEntity
  8
CURVE
100
AcDbLine
 62
253
  6
CONTINUOUS
 10
-1.8732575879
 20
-11.8058806956
 11
-1.5166891322
 21
-11.8058806956
  0
LINE
  5
2BD
100
AcDbEntity
  8
CURVE
100
AcDbLine
 62
253
  6
CONTINUOUS
 10
3.7834446684
 20
-11.5515380038
 11
3.2282169357
 21
-11.5515380038
  0
LINE
  5
2BE
100
AcDbEntity
  8
CURVE
100
AcDbLine
 62
253
  6
CONTINUOUS
 10
2.2119971767
 20
-11.5515380038
 11
1.656769444
 21
-11.5515380038
  0
LINE
  5
2BF
100
AcDbEntity
  8
CURVE
100
AcDbLine
 62
253
  6
CONTINUOUS
 10
0.7959112182
 20
-11.5515380038
 11
0.2457774177
 21
-11.5515380038
  0
LINE
  5
2C0
100
AcDbEntity
  8
CURVE
100
AcDbLine
 62
253
  6
CONTINUOUS
 10
-1.52687677
 20
-11.5515380038
 11
-2.1661530241
 21
-11.5515380038
  0
LINE
  5
2C1
100
AcDbEntity
  8
CURVE
100
AcDbLine
 62
253
  6
CONTINUOUS
 10
-3.2536865309
 20
-11.5515380038
 11
-3.9260725796
 21
-11.5515380038
  0
LINE
  5
2C2
100
AcDbEntity
  8
CURVE
100
AcDbLine
 62
253
  6
CONTINUOUS
 10
1.9725868955
 20
-12.3883252866
 11
1.7382705465
 21
-12.3298264799
  0
LINE
  5
2C3
100
AcDbEntity
  8
CURVE
100
AcDbLine
 62
253
  6
CONTINUOUS
 10
1.470844318
 20
-12.548561136
 11
1.7790210977
 21
-12.6274074077
  0
LINE
  5
2C4
100
AcDbEntity
  8
CURVE
100
AcDbLine
 62
253
  6
CONTINUOUS
 10
3.0422922626
 20
-12.548561136
 11
3.3504690424
 21
-12.6274074077
  0
LINE
  5
2C5
100
AcDbEntity
  8
ASSI
100
AcDbLine
 62
253
  6
CONTINUOUS
 10
6.5118591876
 20
-15.4201086957
 11
6.5051421588
 21
-15.4180465905
  0
LINE
  5
2C6
100
AcDbEntity
  8
RACCORDO
100
AcDbLine
 62
253
  6
CONTINUOUS
 10
6.5118591876
 20
-15.4201086957
 11
6.5051421588
 21
-15.4180465905
  0
LINE
  5
2C7
100
AcDbEntity
  8
RACCORDO
100
AcDbLine
 62
253
  6
CONTINUOUS
 10
6.6074557624
 20
-15.4494565217
 11
6.6107708824
 21
-15.4504742524
  0
LINE
  5
2C8
100
AcDbEntity
  8
RACCORDO
100
AcDbLine
 62
7
  6
CONTINUOUS
 10
-11.0
 20
21.6001713375
 11
-11.0
 21
-21.6001713375
  0
LINE
  5
2C9
100
AcDbEntity
  8
RACCORDO
100
AcDbLine
 62
253
  6
CONTINUOUS
 10
-10.3581671644
 20
-9.5
 11
-10.3581671644
 21
9.5
  0
LINE
  5
2CA
100
AcDbEntity
  8
CURVE
100
AcDbLine
 62
253
  6
CONTINUOUS
 10
3.5440348402
 20
-12.3883252866
 11
3.3097184911
 21
-12.3298264799
  0
LINE
  5
2CB
100
AcDbEntity
  8
ASSI
100
AcDbLine
 62
253
  6
CONTINUOUS
 10
-6.5118591876
 20
-9.5798913043
 11
-6.502612312
 21
-9.582730064
  0
LINE
  5
2CC
100
AcDbEntity
  8
RACCORDO
100
AcDbLine
 62
253
  6
CONTINUOUS
 10
-6.5118591876
 20
-9.5798913043
 11
-6.502612312
 21
-9.582730064
  0
LINE
  5
2CD
100
AcDbEntity
  8
RACCORDO
100
AcDbLine
 62
253
  6
CONTINUOUS
 10
-6.6074557624
 20
-9.5505434783
 11
-6.6133808818
 21
-9.5487244866
  0
LINE
  5
2CE
100
AcDbEntity
  8
RACCORDO
100
AcDbLine
 62
253
  6
CONTINUOUS
 10
10.5001713375
 20
22.1
 11
10.3962950425
 21
21.996123705
  0
LINE
  5
2CF
100
AcDbEntity
  8
RACCORDO
100
AcDbLine
 62
253
  6
CONTINUOUS
 10
10.3581671644
 20
-9.5
 11
6.7021723734
 21
-9.5
  0
LINE
  5
2D0
100
AcDbEntity
  8
ASSI
100
AcDbLine
 62
253
  6
CONTINUOUS
 10
6.3595574912
 20
-9.5
 11
-6.3595574912
 21
-9.5
  0
LINE
  5
2D1
100
AcDbEntity
  8
RACCORDO
100
AcDbLine
 62
253
  6
CONTINUOUS
 10
6.3595574912
 20
-9.5
 11
-6.3595574912
 21
-9.5
  0
LINE
  5
2D2
100
AcDbEntity
  8
RACCORDO
100
AcDbLine
 62
253
  6
CONTINUOUS
 10
-6.7021723734
 20
-9.5
 11
-10.3581671644
 21
-9.5
  0
LINE
  5
2D3
100
AcDbEntity
  8
ASSI
100
AcDbLine
 62
253
  6
CONTINUOUS
 10
-5.794884877
 20
-9.1615759643
 11
5.794884877
 21
-9.1615759643
  0
LINE
  5
2D4
100
AcDbEntity
  8
RACCORDO
100
AcDbLine
 62
253
  6
CONTINUOUS
 10
-5.794884877
 20
-9.1615759643
 11
5.794884877
 21
-9.1615759643
  0
LINE
  5
2D5
100
AcDbEntity
  8
ASSI
100
AcDbLine
 62
7
  6
CONTINUOUS
 10
-5.794884877
 20
-9.0597474568
 11
5.794884877
 21
-9.0597474568
  0
LINE
  5
2D6
100
AcDbEntity
  8
RACCORDO
100
AcDbLine
 62
7
  6
CONTINUOUS
 10
-5.794884877
 20
-9.0597474568
 11
5.794884877
 21
-9.0597474568
  0
LINE
  5
2D7
100
AcDbEntity
  8
ASSI
100
AcDbLine
 62
7
  6
CONTINUOUS
 10
5.794884877
 20
-9.05
 11
5.0
 21
-9.05
  0
LINE
  5
2D8
100
AcDbEntity
  8
DRAFT
100
AcDbLine
 62
7
  6
CONTINUOUS
 10
5.794884877
 20
-9.05
 11
5.0
 21
-9.05
  0
LINE
  5
2D9
100
AcDbEntity
  8
ASSI
100
AcDbLine
 62
7
  6
CONTINUOUS
 10
-5.0
 20
-9.05
 11
-5.794884877
 21
-9.05
  0
LINE
  5
2DA
100
AcDbEntity
  8
DRAFT
100
AcDbLine
 62
7
  6
CONTINUOUS
 10
-5.0
 20
-9.05
 11
-5.794884877
 21
-9.05
  0
LINE
  5
2DB
100
AcDbEntity
  8
DRAFT
100
AcDbLine
 62
7
  6
CONTINUOUS
 10
-5.794884877
 20
-8.95
 11
-4.5
 21
-8.95
  0
LINE
  5
2DC
100
AcDbEntity
  8
DRAFT
100
AcDbLine
 62
7
  6
CONTINUOUS
 10
4.5
 20
-8.95
 11
5.794884877
 21
-8.95
  0
LINE
  5
2DD
100
AcDbEntity
  8
RACCORDO
100
AcDbLine
 62
7
  6
CONTINUOUS
 10
-5.794884877
 20
-8.9436936171
 11
5.794884877
 21
-8.9436936171
  0
LINE
  5
2DE
100
AcDbEntity
  8
RACCORDO
100
AcDbLine
 62
253
  6
CONTINUOUS
 10
-5.794884877
 20
-8.8454665181
 11
5.794884877
 21
-8.8454665181
  0
LINE
  5
2DF
100
AcDbEntity
  8
RACCORDO
100
AcDbLine
 62
253
  6
CONTINUOUS
 10
10.3962950425
 20
-21.996123705
 11
10.5001713375
 21
-22.1
  0
LINE
  5
2E0
100
AcDbEntity
  8
RACCORDO
100
AcDbLine
 62
253
  6
CONTINUOUS
 10
11.0
 20
21.6001713375
 11
10.896123705
 21
21.4962950425
  0
LINE
  5
2E1
100
AcDbEntity
  8
RACCORDO
100
AcDbLine
 62
253
  6
CONTINUOUS
 10
10.896123705
 20
-21.4962950425
 11
11.0
 21
-21.6001713375
  0
LINE
  5
2E2
100
AcDbEntity
  8
RACCORDO
100
AcDbLine
 62
253
  6
CONTINUOUS
 10
-5.794884877
 20
-8.8454665181
 11
-5.794884877
 21
-8.9436936171
  0
LINE
  5
2E3
100
AcDbEntity
  8
ASSI
100
AcDbLine
 62
253
  6
CONTINUOUS
 10
-5.794884877
 20
-9.05
 11
-5.794884877
 21
-9.1615759643
  0
LINE
  5
2E4
100
AcDbEntity
  8
RACCORDO
100
AcDbLine
 62
253
  6
CONTINUOUS
 10
-5.794884877
 20
-9.05
 11
-5.794884877
 21
-9.1615759643
  0
LINE
  5
2E5
100
AcDbEntity
  8
ASSI
100
AcDbLine
 62
253
  6
CONTINUOUS
 10
-5.794884877
 20
-15.95
 11
-5.794884877
 21
-15.8522821595
  0
LINE
  5
2E6
100
AcDbEntity
  8
RACCORDO
100
AcDbLine
 62
253
  6
CONTINUOUS
 10
-5.794884877
 20
-15.9433202604
 11
-5.794884877
 21
-15.8522821595
  0
LINE
  5
2E7
100
AcDbEntity
  8
RACCORDO
100
AcDbLine
 62
253
  6
CONTINUOUS
 10
-5.794884877
 20
-16.1622399421
 11
-5.7948848764
 21
-16.052941261
  0
LINE
  5
2E8
100
AcDbEntity
  8
ASSI
100
AcDbLine
 62
7
  6
CONTINUOUS
 10
-5.0
 20
-9.05
 11
-5.0
 21
-9.0552361207
  0
LINE
  5
2E9
100
AcDbEntity
  8
DRAFT
100
AcDbLine
 62
7
  6
CONTINUOUS
 10
-5.0
 20
-9.05
 11
-5.0
 21
-9.0552361207
  0
LINE
  5
2EA
100
AcDbEntity
  8
CURVE
100
AcDbLine
 62
253
  6
CONTINUOUS
 10
-3.9260725796
 20
-11.5515380038
 11
-3.9260725796
 21
-13.4489341199
  0
LINE
  5
2EB
100
AcDbEntity
  8
CURVE
100
AcDbLine
 62
253
  6
CONTINUOUS
 10
-3.633177115
 20
-13.4489341199
 11
-3.633177115
 21
-12.7367747075
  0
LINE
  5
2EC
100
AcDbEntity
  8
CURVE
100
AcDbLine
 62
253
  6
CONTINUOUS
 10
-3.6280832961
 20
-12.4773452343
 11
-3.6280832961
 21
-11.8058806956
  0
LINE
  5
2ED
100
AcDbEntity
  8
CURVE
100
AcDbLine
 62
253
  6
CONTINUOUS
 10
-1.1193701252
 20
-13.2861548232
 11
-1.1142764196
 21
-13.4489341199
  0
LINE
  5
2EE
100
AcDbEntity
  8
CURVE
100
AcDbLine
 62
253
  6
CONTINUOUS
 10
-2.1661530241
 20
-11.5515380038
 11
-2.1661530241
 21
-13.4489341199
  0
LINE
  5
2EF
100
AcDbEntity
  8
CURVE
100
AcDbLine
 62
253
  6
CONTINUOUS
 10
-1.8783512935
 20
-13.4489341199
 11
-1.8783512935
 21
-12.7367747075
  0
LINE
  5
2F0
100
AcDbEntity
  8
CURVE
100
AcDbLine
 62
253
  6
CONTINUOUS
 10
-1.8732575879
 20
-12.4773452343
 11
-1.8732575879
 21
-11.8058806956
  0
LINE
  5
2F1
100
AcDbEntity
  8
CURVE
100
AcDbLine
 62
253
  6
CONTINUOUS
 10
-0.811193119
 20
-13.4489341199
 11
-0.8188340172
 21
-13.2327428687
  0
LINE
  5
2F2
100
AcDbEntity
  8
CURVE
100
AcDbLine
 62
253
  6
CONTINUOUS
 10
0.7195040479
 20
-12.6223205132
 11
0.7195040479
 21
-12.3578041455
  0
LINE
  5
2F3
100
AcDbEntity
  8
CURVE
100
AcDbLine
 62
253
  6
CONTINUOUS
 10
0.7959112182
 20
-11.8211412096
 11
0.7959112182
 21
-11.5515380038
  0
LINE
  5
2F4
100
AcDbEntity
  8
CURVE
100
AcDbLine
 62
253
  6
CONTINUOUS
 10
0.8086458221
 20
-13.4489341199
 11
0.8086458221
 21
-13.1895046184
  0
LINE
  5
2F5
100
AcDbEntity
  8
CURVE
100
AcDbLine
 62
253
  6
CONTINUOUS
 10
1.0684313789
 20
-13.1742440762
 11
1.0684313789
 21
-13.4489341199
  0
LINE
  5
2F6
100
AcDbEntity
  8
CURVE
100
AcDbLine
 62
253
  6
CONTINUOUS
 10
2.2119971767
 20
-11.8313148856
 11
2.2119971767
 21
-11.5515380038
  0
LINE
  5
2F7
100
AcDbEntity
  8
CURVE
100
AcDbLine
 62
253
  6
CONTINUOUS
 10
2.6398793235
 20
-13.1742440762
 11
2.6398793235
 21
-13.4489341199
  0
LINE
  5
2F8
100
AcDbEntity
  8
CURVE
100
AcDbLine
 62
253
  6
CONTINUOUS
 10
3.7834446684
 20
-11.8313148856
 11
3.7834446684
 21
-11.5515380038
  0
LINE
  5
2F9
100
AcDbEntity
  8
ASSI
100
AcDbLine
 62
7
  6
CONTINUOUS
 10
5.0
 20
-9.05
 11
5.0
 21
-9.0552361207
  0
LINE
  5
2FA
100
AcDbEntity
  8
DRAFT
100
AcDbLine
 62
7
  6
CONTINUOUS
 10
5.0
 20
-9.05
 11
5.0
 21
-9.0552361207
  0
LINE
  5
2FB
100
AcDbEntity
  8
RACCORDO
100
AcDbLine
 62
253
  6
CONTINUOUS
 10
5.794884877
 20
-8.8454665181
 11
5.794884877
 21
-8.9436936171
  0
LINE
  5
2FC
100
AcDbEntity
  8
ASSI
100
AcDbLine
 62
253
  6
CONTINUOUS
 10
5.794884877
 20
-9.05
 11
5.794884877
 21
-9.1615759643
  0
LINE
  5
2FD
100
AcDbEntity
  8
RACCORDO
100
AcDbLine
 62
253
  6
CONTINUOUS
 10
5.794884877
 20
-9.05
 11
5.794884877
 21
-9.1615759643
  0
LINE
  5
2FE
100
AcDbEntity
  8
ASSI
100
AcDbLine
 62
253
  6
CONTINUOUS
 10
5.794884877
 20
-15.9433202604
 11
5.794884877
 21
-15.8522821594
  0
LINE
  5
2FF
100
AcDbEntity
  8
RACCORDO
100
AcDbLine
 62
253
  6
CONTINUOUS
 10
5.794884877
 20
-15.9433202604
 11
5.794884877
 21
-15.8522821594
  0
LINE
  5
300
100
AcDbEntity
  8
RACCORDO
100
AcDbLine
 62
253
  6
CONTINUOUS
 10
5.794884877
 20
-16.1622399421
 11
5.794884877
 21
-16.052941261
  0
LINE
  5
301
100
AcDbEntity
  8
CURVE
100
AcDbLine
 62
7
  6
CONTINUOUS
 10
-3.9260725796
 20
-11.6223047389
 11
-3.8553058446
 21
-11.5515380038
  0
LINE
  5
302
100
AcDbEntity
  8
CURVE
100
AcDbLine
 62
7
  6
CONTINUOUS
 10
-3.9260725796
 20
-11.8323154529
 11
-3.6452951306
 21
-11.5515380038
  0
LINE
  5
303
100
AcDbEntity
  8
CURVE
100
AcDbLine
 62
7
  6
CONTINUOUS
 10
-3.9260725796
 20
-12.0423261669
 11
-3.4352844166
 21
-11.5515380038
  0
LINE
  5
304
100
AcDbEntity
  8
CURVE
100
AcDbLine
 62
7
  6
CONTINUOUS
 10
-3.9260725796
 20
-12.2523368809
 11
-3.6280832961
 21
-11.9543475974
  0
LINE
  5
305
100
AcDbEntity
  8
CURVE
100
AcDbLine
 62
7
  6
CONTINUOUS
 10
-3.4796163943
 20
-11.8058806956
 11
-3.2255516709
 21
-11.5518159722
  0
LINE
  5
306
100
AcDbEntity
  8
CURVE
100
AcDbLine
 62
7
  6
CONTINUOUS
 10
-3.9260725796
 20
-12.4623475949
 11
-3.6280832961
 21
-12.1643583114
  0
LINE
  5
307
100
AcDbEntity
  8
CURVE
100
AcDbLine
 62
7
  6
CONTINUOUS
 10
-3.2696056803
 20
-11.8058806956
 11
-3.0292702662
 21
-11.5655452815
  0
LINE
  5
308
100
AcDbEntity
  8
CURVE
100
AcDbLine
 62
7
  6
CONTINUOUS
 10
-3.9260725796
 20
-12.6723583089
 11
-3.6280832961
 21
-12.3743690254
  0
LINE
  5
309
100
AcDbEntity
  8
CURVE
100
AcDbLine
 62
7
  6
CONTINUOUS
 10
-3.0789055473
 20
-11.8251912766
 11
-2.8560448897
 21
-11.602330619
  0
LINE
  5
30A
100
AcDbEntity
  8
CURVE
100
AcDbLine
 62
7
  6
CONTINUOUS
 10
-3.9260725796
 20
-12.882369023
 11
-3.521048791
 21
-12.4773452343
  0
LINE
  5
30B
100
AcDbEntity
  8
CURVE
100
AcDbLine
 62
7
  6
CONTINUOUS
 10
-2.9408512969
 20
-11.8971477402
 11
-2.7181231546
 21
-11.6744195979
  0
LINE
  5
30C
100
AcDbEntity
  8
CURVE
100
AcDbLine
 62
7
  6
CONTINUOUS
 10
-3.9260725796
 20
-13.092379737
 11
-3.633177115
 21
-12.7994842724
  0
LINE
  5
30D
100
AcDbEntity
  8
CURVE
100
AcDbLine
 62
7
  6
CONTINUOUS
 10
-3.5704675501
 20
-12.7367747075
 11
-3.311038077
 21
-12.4773452343
  0
LINE
  5
30E
100
AcDbEntity
  8
CURVE
100
AcDbLine
 62
7
  6
CONTINUOUS
 10
-2.8708362649
 20
-12.0371434223
 11
-2.6203630702
 21
-11.7866702276
  0
LINE
  5
30F
100
AcDbEntity
  8
CURVE
100
AcDbLine
 62
7
  6
CONTINUOUS
 10
-3.9260725796
 20
-13.302390451
 11
-3.633177115
 21
-13.0094949864
  0
LINE
  5
310
100
AcDbEntity
  8
CURVE
100
AcDbLine
 62
7
  6
CONTINUOUS
 10
-3.3604568361
 20
-12.7367747075
 11
-3.0723502241
 21
-12.4486680955
  0
LINE
  5
311
100
AcDbEntity
  8
CURVE
100
AcDbLine
 62
7
  6
CONTINUOUS
 10
-2.8825279634
 20
-12.2588458347
 11
-2.5635781936
 21
-11.939896065
  0
LINE
  5
312
100
AcDbEntity
  8
CURVE
100
AcDbLine
 62
7
  6
CONTINUOUS
 10
-3.8626055345
 20
-13.4489341199
 11
-3.633177115
 21
-13.2195057004
  0
LINE
  5
313
100
AcDbEntity
  8
CURVE
100
AcDbLine
 62
7
  6
CONTINUOUS
 10
-3.1496580025
 20
-12.7359865878
 11
-2.5518055693
 21
-12.1381341547
  0
LINE
  5
314
100
AcDbEntity
  8
CURVE
100
AcDbLine
 62
7
  6
CONTINUOUS
 10
-2.1661530241
 20
-11.7524816095
 11
-1.9652094185
 21
-11.5515380038
  0
LINE
  5
315
100
AcDbEntity
  8
CURVE
100
AcDbLine
 62
7
  6
CONTINUOUS
 10
-3.6525948205
 20
-13.4489341199
 11
-3.633177115
 21
-13.4295164144
  0
LINE
  5
316
100
AcDbEntity
  8
CURVE
100
AcDbLine
 62
7
  6
CONTINUOUS
 10
-2.8868587333
 20
-12.6831980327
 11
-2.6046454133
 21
-12.4009847126
  0
LINE
  5
317
100
AcDbEntity
  8
CURVE
100
AcDbLine
 62
7
  6
CONTINUOUS
 10
-2.1661530241
 20
-11.9624923235
 11
-1.7551987045
 21
-11.5515380038
  0
LINE
  5
318
100
AcDbEntity
  8
CURVE
100
AcDbLine
 62
7
  6
CONTINUOUS
 10
-2.1661530241
 20
-12.1725030375
 11
-1.8732575879
 21
-11.8796076012
  0
LINE
  5
319
100
AcDbEntity
  8
CURVE
100
AcDbLine
 62
7
  6
CONTINUOUS
 10
-1.7995306822
 20
-11.8058806956
 11
-1.5451879905
 21
-11.5515380038
  0
LINE
  5
31A
100
AcDbEntity
  8
CURVE
100
AcDbLine
 62
7
  6
CONTINUOUS
 10
-2.1661530241
 20
-12.3825137515
 11
-1.8732575879
 21
-12.0896183153
  0
LINE
  5
31B
100
AcDbEntity
  8
CURVE
100
AcDbLine
 62
7
  6
CONTINUOUS
 10
-1.5895199682
 20
-11.8058806956
 11
-1.3445230493
 21
-11.5608837767
  0
LINE
  5
31C
100
AcDbEntity
  8
CURVE
100
AcDbLine
 62
7
  6
CONTINUOUS
 10
-2.1661530241
 20
-12.5925244656
 11
-1.8732575879
 21
-12.2996290293
  0
LINE
  5
31D
100
AcDbEntity
  8
CURVE
100
AcDbLine
 62
7
  6
CONTINUOUS
 10
-1.388371941
 20
-11.8147433824
 11
-1.1628954478
 21
-11.5892668893
  0
LINE
  5
31E
100
AcDbEntity
  8
RACCORDO
100
AcDbLine
 62
253
  6
CONTINUOUS
 10
-11.0
 20
-21.6001713375
 11
-10.896123705
 21
-21.4962950425
  0
LINE
  5
31F
100
AcDbEntity
  8
CURVE
100
AcDbLine
 62
7
  6
CONTINUOUS
 10
-2.1661530241
 20
-12.8025351796
 11
-1.8409630789
 21
-12.4773452343
  0
LINE
  5
320
100
AcDbEntity
  8
CURVE
100
AcDbLine
 62
7
  6
CONTINUOUS
 10
-1.2346018742
 20
-11.8709840297
 11
-1.0160945811
 21
-11.6524767365
  0
LINE
  5
321
100
AcDbEntity
  8
CURVE
100
AcDbLine
 62
7
  6
CONTINUOUS
 10
-2.1661530241
 20
-13.0125458936
 11
-1.6309523649
 21
-12.4773452343
  0
LINE
  5
322
100
AcDbEntity
  8
CURVE
100
AcDbLine
 62
7
  6
CONTINUOUS
 10
-1.1536309635
 20
-12.0000238329
 11
-0.909042691
 21
-11.7554355605
  0
LINE
  5
323
100
AcDbEntity
  8
CURVE
100
AcDbLine
 62
7
  6
CONTINUOUS
 10
-2.1661530241
 20
-13.2225566076
 11
-1.8783512935
 21
-12.934754877
  0
LINE
  5
324
100
AcDbEntity
  8
CURVE
100
AcDbLine
 62
7
  6
CONTINUOUS
 10
-1.680371124
 20
-12.7367747075
 11
-1.4134837583
 21
-12.4698873417
  0
LINE
  5
325
100
AcDbEntity
  8
CURVE
100
AcDbLine
 62
7
  6
CONTINUOUS
 10
-1.1461509268
 20
-12.2025545102
 11
-0.8426515546
 21
-11.899055138
  0
LINE
  5
326
100
AcDbEntity
  8
CURVE
100
AcDbLine
 62
7
  6
CONTINUOUS
 10
-2.1661530241
 20
-13.4325673216
 11
-1.8783512935
 21
-13.144765591
  0
LINE
  5
327
100
AcDbEntity
  8
CURVE
100
AcDbLine
 62
7
  6
CONTINUOUS
 10
-1.4728253514
 20
-12.7392396489
 11
-0.8244380843
 21
-12.0908523818
  0
LINE
  5
328
100
AcDbEntity
  8
CURVE
100
AcDbLine
 62
7
  6
CONTINUOUS
 10
-1.9725091084
 20
-13.4489341199
 11
-1.8783512935
 21
-13.354776305
  0
LINE
  5
329
100
AcDbEntity
  8
CURVE
100
AcDbLine
 62
7
  6
CONTINUOUS
 10
-1.3110249629
 20
-12.7874499744
 11
-1.1352754589
 21
-12.6117004704
  0
LINE
  5
32A
100
AcDbEntity
  8
CURVE
100
AcDbLine
 62
7
  6
CONTINUOUS
 10
-1.1114727086
 20
-12.5878977201
 11
-0.8870102068
 21
-12.3634352183
  0
LINE
  5
32B
100
AcDbEntity
  8
CURVE
100
AcDbLine
 62
7
  6
CONTINUOUS
 10
-0.3077165439
 20
-11.7841415553
 11
-0.1887393555
 21
-11.665164367
  0
LINE
  5
32C
100
AcDbEntity
  8
RACCORDO
100
AcDbLine
 62
253
  6
CONTINUOUS
 10
-10.5001713375
 20
-22.1
 11
-10.3962950425
 21
-21.996123705
  0
LINE
  5
32D
100
AcDbEntity
  8
CURVE
100
AcDbLine
 62
7
  6
CONTINUOUS
 10
-1.2069959743
 20
-12.8934316998
 11
-0.998460253
 21
-12.6848959785
  0
LINE
  5
32E
100
AcDbEntity
  8
CURVE
100
AcDbLine
 62
7
  6
CONTINUOUS
 10
-0.4320517776
 20
-12.1184875031
 11
0.1294629917
 21
-11.5569727338
  0
LINE
  5
32F
100
AcDbEntity
  8
CURVE
100
AcDbLine
 62
7
  6
CONTINUOUS
 10
-1.1484947307
 20
-13.0449411702
 11
-0.9040888761
 21
-12.8005353156
  0
LINE
  5
330
100
AcDbEntity
  8
CURVE
100
AcDbLine
 62
7
  6
CONTINUOUS
 10
-0.4557089963
 20
-12.3521554358
 11
-0.0848127246
 21
-11.9812591641
  0
LINE
  5
331
100
AcDbEntity
  8
CURVE
100
AcDbLine
 62
7
  6
CONTINUOUS
 10
0.031635854
 20
-11.8648105855
 11
0.3449084357
 21
-11.5515380038
  0
LINE
  5
332
100
AcDbEntity
  8
RACCORDO
100
AcDbLine
 62
253
  6
CONTINUOUS
 10
-10.896123705
 20
21.4962950425
 11
-11.0
 21
21.6001713375
  0
LINE
  5
333
100
AcDbEntity
  8
RACCORDO
100
AcDbLine
 62
253
  6
CONTINUOUS
 10
-10.3962950425
 20
21.996123705
 11
-10.5001713375
 21
22.1
  0
LINE
  5
334
100
AcDbEntity
  8
CURVE
100
AcDbLine
 62
7
  6
CONTINUOUS
 10
-1.1222130014
 20
-13.2286701549
 11
-0.8490847859
 21
-12.9555419394
  0
LINE
  5
335
100
AcDbEntity
  8
CURVE
100
AcDbLine
 62
7
  6
CONTINUOUS
 10
-0.45946794
 20
-12.5659250935
 11
-0.1341899773
 21
-12.2406471308
  0
LINE
  5
336
100
AcDbEntity
  8
CURVE
100
AcDbLine
 62
7
  6
CONTINUOUS
 10
0.2853159439
 20
-11.8211412096
 11
0.5549191497
 21
-11.5515380038
  0
LINE
  5
337
100
AcDbEntity
  8
CURVE
100
AcDbLine
 62
7
  6
CONTINUOUS
 10
-1.1148283466
 20
-13.4312962142
 11
-0.823688015
 21
-13.1401558825
  0
LINE
  5
338
100
AcDbEntity
  8
CURVE
100
AcDbLine
 62
7
  6
CONTINUOUS
 10
-0.4526670745
 20
-12.769134942
 11
-0.0413362779
 21
-12.3578041455
  0
LINE
  5
339
100
AcDbEntity
  8
CURVE
100
AcDbLine
 62
7
  6
CONTINUOUS
 10
0.495326658
 20
-11.8211412096
 11
0.7649298637
 21
-11.5515380038
  0
LINE
  5
33A
100
AcDbEntity
  8
CURVE
100
AcDbLine
 62
7
  6
CONTINUOUS
 10
-0.9224555383
 20
-13.4489341199
 11
-0.8149912544
 21
-13.341469836
  0
LINE
  5
33B
100
AcDbEntity
  8
CURVE
100
AcDbLine
 62
7
  6
CONTINUOUS
 10
-0.432238025
 20
-12.9587166065
 11
-0.1361113383
 21
-12.6625899198
  0
LINE
  5
33C
100
AcDbEntity
  8
CURVE
100
AcDbLine
 62
7
  6
CONTINUOUS
 10
-0.0958419316
 20
-12.6223205132
 11
0.1686744361
 21
-12.3578041455
  0
LINE
  5
33D
100
AcDbEntity
  8
CURVE
100
AcDbLine
 62
7
  6
CONTINUOUS
 10
0.705337372
 20
-11.8211412096
 11
0.7959112182
 21
-11.7305673633
  0
LINE
  5
33E
100
AcDbEntity
  8
CURVE
100
AcDbLine
 62
7
  6
CONTINUOUS
 10
-0.3860591962
 20
-13.1225484918
 11
-0.1273689447
 21
-12.8638582403
  0
LINE
  5
33F
100
AcDbEntity
  8
CURVE
100
AcDbLine
 62
7
  6
CONTINUOUS
 10
0.1141687824
 20
-12.6223205132
 11
0.3786851501
 21
-12.3578041455
  0
LINE
  5
340
100
AcDbEntity
  8
CURVE
100
AcDbLine
 62
7
  6
CONTINUOUS
 10
-0.310060024
 20
-13.2565600336
 11
-0.0872439247
 21
-13.0337439343
  0
LINE
  5
341
100
AcDbEntity
  8
CURVE
100
AcDbLine
 62
7
  6
CONTINUOUS
 10
0.3241794964
 20
-12.6223205132
 11
0.5886958641
 21
-12.3578041455
  0
LINE
  5
342
100
AcDbEntity
  8
CURVE
100
AcDbLine
 62
7
  6
CONTINUOUS
 10
1.0895103149
 20
-11.8569896947
 11
1.3276603498
 21
-11.6188396597
  0
LINE
  5
343
100
AcDbEntity
  8
CURVE
100
AcDbLine
 62
7
  6
CONTINUOUS
 10
-0.1997045936
 20
-13.3562153171
 11
0.0109897654
 21
-13.1455209581
  0
LINE
  5
344
100
AcDbEntity
  8
CURVE
100
AcDbLine
 62
7
  6
CONTINUOUS
 10
0.5341902104
 20
-12.6223205132
 11
0.7195040479
 21
-12.4370066756
  0
LINE
  5
345
100
AcDbEntity
  8
CURVE
100
AcDbLine
 62
7
  6
CONTINUOUS
 10
1.0515675122
 20
-12.1049432114
 11
1.6035881186
 21
-11.5529226049
  0
LINE
  5
346
100
AcDbEntity
  8
CURVE
100
AcDbLine
 62
7
  6
CONTINUOUS
 10
-0.0542447908
 20
-13.4207662284
 11
0.1793917294
 21
-13.1871297082
  0
LINE
  5
347
100
AcDbEntity
  8
CURVE
100
AcDbLine
 62
7
  6
CONTINUOUS
 10
1.0874446962
 20
-12.2790767414
 11
1.3552174426
 21
-12.011303995
  0
LINE
  5
348
100
AcDbEntity
  8
CURVE
100
AcDbLine
 62
7
  6
CONTINUOUS
 10
1.5241995177
 20
-11.8423219198
 11
1.8149834337
 21
-11.5515380038
  0
LINE
  5
349
100
AcDbEntity
  8
CURVE
100
AcDbLine
 62
7
  6
CONTINUOUS
 10
0.1292577882
 20
-13.4472743634
 11
0.3870275332
 21
-13.1895046184
  0
LINE
  5
34A
100
AcDbEntity
  8
CURVE
100
AcDbLine
 62
7
  6
CONTINUOUS
 10
1.1715330909
 20
-12.4049990607
 11
1.3957785833
 21
-12.1807535683
  0
LINE
  5
34B
100
AcDbEntity
  8
CURVE
100
AcDbLine
 62
7
  6
CONTINUOUS
 10
1.745217266
 20
-11.8313148856
 11
2.0249941478
 21
-11.5515380038
  0
LINE
  5
34C
100
AcDbEntity
  8
CURVE
100
AcDbLine
 62
7
  6
CONTINUOUS
 10
0.3376087457
 20
-13.4489341199
 11
0.5970382472
 21
-13.1895046184
  0
LINE
  5
34D
100
AcDbEntity
  8
CURVE
100
AcDbLine
 62
7
  6
CONTINUOUS
 10
1.2969285934
 20
-12.4896142722
 11
1.5228972002
 21
-12.2636456654
  0
LINE
  5
34E
100
AcDbEntity
  8
CURVE
100
AcDbLine
 62
7
  6
CONTINUOUS
 10
1.95522798
 20
-11.8313148856
 11
2.2119971767
 21
-11.5745456889
  0
LINE
  5
34F
100
AcDbEntity
  8
CURVE
100
AcDbLine
 62
7
  6
CONTINUOUS
 10
0.5476194597
 20
-13.4489341199
 11
0.8070489612
 21
-13.1895046184
  0
LINE
  5
350
100
AcDbEntity
  8
CURVE
100
AcDbLine
 62
7
  6
CONTINUOUS
 10
1.4527322434
 20
-12.5438213362
 11
1.680878021
 21
-12.3156755586
  0
LINE
  5
351
100
AcDbEntity
  8
CURVE
100
AcDbLine
 62
7
  6
CONTINUOUS
 10
2.1652386941
 20
-11.8313148856
 11
2.2119971767
 21
-11.7845564029
  0
LINE
  5
352
100
AcDbEntity
  8
CURVE
100
AcDbLine
 62
7
  6
CONTINUOUS
 10
0.7576301738
 20
-13.4489341199
 11
0.8086458221
 21
-13.3979184715
  0
LINE
  5
353
100
AcDbEntity
  8
CURVE
100
AcDbLine
 62
7
  6
CONTINUOUS
 10
1.6198742228
 20
-12.5866900709
 11
1.8490747309
 21
-12.3574895627
  0
LINE
  5
354
100
AcDbEntity
  8
RACCORDO
100
AcDbLine
 62
253
  6
CONTINUOUS
 10
10.3581671644
 20
9.5
 11
-10.3581671644
 21
9.5
  0
LINE
  5
355
100
AcDbEntity
  8
RACCORDO
100
AcDbLine
 62
253
  6
CONTINUOUS
 10
10.3581671644
 20
9.5
 11
10.3581671644
 21
-9.5
  0
LINE
  5
356
100
AcDbEntity
  8
RACCORDO
100
AcDbLine
 62
7
  6
CONTINUOUS
 10
11.0
 20
21.6001713375
 11
11.0
 21
-21.6001713375
  0
LINE
  5
357
100
AcDbEntity
  8
CURVE
100
AcDbLine
 62
7
  6
CONTINUOUS
 10
1.0684313789
 20
-13.3481436288
 11
1.2423309315
 21
-13.1742440762
  0
LINE
  5
358
100
AcDbEntity
  8
CURVE
100
AcDbLine
 62
7
  6
CONTINUOUS
 10
1.7871210342
 20
-12.6294539734
 11
2.0159479973
 21
-12.4006270103
  0
LINE
  5
359
100
AcDbEntity
  8
CURVE
100
AcDbLine
 62
7
  6
CONTINUOUS
 10
1.1776516018
 20
-13.4489341199
 11
1.4523416455
 21
-13.1742440762
  0
LINE
  5
35A
100
AcDbEntity
  8
CURVE
100
AcDbLine
 62
7
  6
CONTINUOUS
 10
1.9373847766
 20
-12.689200945
 11
2.1606974768
 21
-12.4658882449
  0
LINE
  5
35B
100
AcDbEntity
  8
CURVE
100
AcDbLine
 62
7
  6
CONTINUOUS
 10
2.624956111
 20
-12.0016296106
 11
3.0599395898
 21
-11.5666461319
  0
LINE
  5
35C
100
AcDbEntity
  8
CURVE
100
AcDbLine
 62
7
  6
CONTINUOUS
 10
1.3876623158
 20
-13.4489341199
 11
1.6623523595
 21
-13.1742440762
  0
LINE
  5
35D
100
AcDbEntity
  8
CURVE
100
AcDbLine
 62
7
  6
CONTINUOUS
 10
2.032832864
 20
-12.8037635716
 11
2.2726641034
 21
-12.5639323323
  0
LINE
  5
35E
100
AcDbEntity
  8
CURVE
100
AcDbLine
 62
7
  6
CONTINUOUS
 10
2.6344078699
 20
-12.2021885658
 11
3.2850584318
 21
-11.5515380038
  0
LINE
  5
35F
100
AcDbEntity
  8
CURVE
100
AcDbLine
 62
7
  6
CONTINUOUS
 10
1.5976730298
 20
-13.4489341199
 11
1.9178589531
 21
-13.1287481965
  0
LINE
  5
360
100
AcDbEntity
  8
CURVE
100
AcDbLine
 62
7
  6
CONTINUOUS
 10
2.0131983801
 20
-13.0334087696
 11
2.3392390065
 21
-12.7073681432
  0
LINE
  5
361
100
AcDbEntity
  8
CURVE
100
AcDbLine
 62
7
  6
CONTINUOUS
 10
2.6971301309
 20
-12.3494770187
 11
2.9332980963
 21
-12.1133090534
  0
LINE
  5
362
100
AcDbEntity
  8
CURVE
100
AcDbLine
 62
7
  6
CONTINUOUS
 10
3.2152922641
 20
-11.8313148856
 11
3.4950691458
 21
-11.5515380038
  0
LINE
  5
363
100
AcDbEntity
  8
CURVE
100
AcDbLine
 62
7
  6
CONTINUOUS
 10
1.812407958
 20
-13.4442099057
 11
2.3525258705
 21
-12.9040919932
  0
LINE
  5
364
100
AcDbEntity
  8
CURVE
100
AcDbLine
 62
7
  6
CONTINUOUS
 10
2.8032383878
 20
-12.4533794759
 11
3.0273297553
 21
-12.2292881084
  0
LINE
  5
365
100
AcDbEntity
  8
CURVE
100
AcDbLine
 62
7
  6
CONTINUOUS
 10
3.4253029781
 20
-11.8313148856
 11
3.7050798599
 21
-11.5515380038
  0
LINE
  5
366
100
AcDbEntity
  8
CURVE
100
AcDbLine
 62
7
  6
CONTINUOUS
 10
2.1334038339
 20
-13.3332247438
 11
2.2593897814
 21
-13.2072387963
  0
LINE
  5
367
100
AcDbEntity
  8
CURVE
100
AcDbLine
 62
7
  6
CONTINUOUS
 10
2.9461466373
 20
-12.5204819405
 11
3.1736051967
 21
-12.2930233811
  0
LINE
  5
368
100
AcDbEntity
  8
CURVE
100
AcDbLine
 62
7
  6
CONTINUOUS
 10
3.6353136921
 20
-11.8313148856
 11
3.7834446684
 21
-11.6831839094
  0
LINE
  5
369
100
AcDbEntity
  8
CURVE
100
AcDbLine
 62
7
  6
CONTINUOUS
 10
3.1106014245
 20
-12.5660378672
 11
3.3394020838
 21
-12.337237208
  0
LINE
  5
36A
100
AcDbEntity
  8
CURVE
100
AcDbLine
 62
7
  6
CONTINUOUS
 10
2.6398793235
 20
-13.2467706822
 11
2.7124059296
 21
-13.1742440762
  0
LINE
  5
36B
100
AcDbEntity
  8
CURVE
100
AcDbLine
 62
7
  6
CONTINUOUS
 10
3.2778277055
 20
-12.6088223002
 11
3.5074567176
 21
-12.3791932882
  0
LINE
  5
36C
100
AcDbEntity
  8
CURVE
100
AcDbLine
 62
7
  6
CONTINUOUS
 10
2.6477265999
 20
-13.4489341199
 11
2.9224166436
 21
-13.1742440762
  0
LINE
  5
36D
100
AcDbEntity
  8
CURVE
100
AcDbLine
 62
7
  6
CONTINUOUS
 10
3.4412329769
 20
-12.6554277428
 11
3.6660679959
 21
-12.4305927239
  0
LINE
  5
36E
100
AcDbEntity
  8
CURVE
100
AcDbLine
 62
7
  6
CONTINUOUS
 10
2.8577373139
 20
-13.4489341199
 11
3.1324273576
 21
-13.1742440762
  0
LINE
  5
36F
100
AcDbEntity
  8
CURVE
100
AcDbLine
 62
7
  6
CONTINUOUS
 10
3.5680666449
 20
-12.7386047889
 11
3.7943339117
 21
-12.5123375221
  0
LINE
  5
370
100
AcDbEntity
  8
CURVE
100
AcDbLine
 62
7
  6
CONTINUOUS
 10
3.0677480279
 20
-13.4489341199
 11
3.3470531228
 21
-13.169629025
  0
LINE
  5
371
100
AcDbEntity
  8
CURVE
100
AcDbLine
 62
7
  6
CONTINUOUS
 10
3.6178306853
 20
-12.8988514625
 11
3.8848686357
 21
-12.631813512
  0
LINE
  5
372
100
AcDbEntity
  8
ASSI
100
AcDbLine
 62
253
  6
CONTINUOUS
 10
6.5118591876
 20
-9.5798913043
 11
6.5026123119
 21
-9.582730064
  0
LINE
  5
373
100
AcDbEntity
  8
RACCORDO
100
AcDbLine
 62
253
  6
CONTINUOUS
 10
6.5118591876
 20
-9.5798913043
 11
6.5026123119
 21
-9.582730064
  0
LINE
  5
374
100
AcDbEntity
  8
RACCORDO
100
AcDbLine
 62
253
  6
CONTINUOUS
 10
6.6074557624
 20
-9.5505434783
 11
6.6133808818
 21
-9.5487244866
  0
LINE
  5
375
100
AcDbEntity
  8
CURVE
100
AcDbLine
 62
7
  6
CONTINUOUS
 10
3.2777753664
 20
-13.4489174954
 11
3.9245054812
 21
-12.8021873806
  0
LINE
  5
376
100
AcDbEntity
  8
CURVE
100
AcDbLine
 62
7
  6
CONTINUOUS
 10
3.5152836844
 20
-13.4214198914
 11
3.9038730375
 21
-13.0328305383
  0
LINE
  5
377
100
AcDbEntity
  8
ASSI
100
AcDbLine
 62
253
  6
CONTINUOUS
 10
-6.5118591876
 20
-15.4201086957
 11
-6.5051421588
 21
-15.4180465905
  0
LINE
  5
378
100
AcDbEntity
  8
RACCORDO
100
AcDbLine
 62
253
  6
CONTINUOUS
 10
-6.5118591876
 20
-15.4201086957
 11
-6.5051421588
 21
-15.4180465905
  0
LINE
  5
379
100
AcDbEntity
  8
RACCORDO
100
AcDbLine
 62
253
  6
CONTINUOUS
 10
-6.6074557624
 20
-15.4494565217
 11
-6.6107708824
 21
-15.4504742524
  0
LINE
  5
37A
100
AcDbEntity
  8
RACCORDO
100
AcDbLine
 62
253
  6
CONTINUOUS
 10
-10.3836897634
 20
21.1448536428
 11
10.3836897634
 21
21.1448536428
  0
LINE
  5
37B
100
AcDbEntity
  8
RACCORDO
100
AcDbLine
 62
253
  6
CONTINUOUS
 10
-10.3962950425
 20
21.996123705
 11
10.3962950425
 21
21.996123705
  0
LINE
  5
37C
100
AcDbEntity
  8
RACCORDO
100
AcDbLine
 62
7
  6
CONTINUOUS
 10
10.5001713375
 20
22.1
 11
-10.5001713375
 21
22.1
  0
LINE
  5
37D
100
AcDbEntity
  8
RACCORDO
100
AcDbLine
 62
7
  6
CONTINUOUS
 10
-24.5754138329
 20
-21.996123705
 11
-20.6085381707
 21
-22.1
  0
LINE
  5
37E
100
AcDbEntity
  8
RACCORDO
100
AcDbLine
 62
253
  6
CONTINUOUS
 10
-24.5754138329
 20
-21.4962950425
 11
-20.6085381707
 21
-21.6001713375
  0
LINE
  5
37F
100
AcDbEntity
  8
RACCORDO
100
AcDbLine
 62
253
  6
CONTINUOUS
 10
-26.0314587565
 20
-9.4905
 11
-26.5182799796
 21
-9.4999999992
  0
LINE
  5
380
100
AcDbEntity
  8
CURVE
100
AcDbLine
 62
253
  6
CONTINUOUS
 10
-26.4609037769
 20
-11.5515380038
 11
-26.36146546
 21
-13.4489341199
  0
LINE
  5
381
100
AcDbEntity
  8
RACCORDO
100
AcDbLine
 62
253
  6
CONTINUOUS
 10
-26.0314587565
 20
9.4905
 11
-26.5182800233
 21
9.5
  0
LINE
  5
382
100
AcDbEntity
  8
RACCORDO
100
AcDbLine
 62
7
  6
CONTINUOUS
 10
-20.6085381707
 20
22.1
 11
-20.6085381707
 21
-22.1
  0
LINE
  5
383
100
AcDbEntity
  8
RACCORDO
100
AcDbLine
 62
253
  6
CONTINUOUS
 10
-20.6085381707
 20
21.6001713375
 11
-24.5754138329
 21
21.4962950425
  0
LINE
  5
384
100
AcDbEntity
  8
RACCORDO
100
AcDbLine
 62
7
  6
CONTINUOUS
 10
-20.6085381707
 20
22.1
 11
-24.5754138329
 21
21.996123705
  0
ARC
  5
385
100
AcDbEntity
  8
RACCORDO
100
AcDbCircle
 62
253
  6
CONTINUOUS
 10
-3416.3155422894
 20
-7.8574503419
 40
3405.9577711912
100
AcDbArc
 50
359.776475778
 51
359.9723686631
  0
ARC
  5
386
100
AcDbEntity
  8
RACCORDO
100
AcDbCircle
 62
253
  6
CONTINUOUS
 10
-3379.0769306491
 20
-7.8570750293
 40
3368.2193308887
100
AcDbArc
 50
359.7752270505
 51
359.9722142915
  0
ARC
  5
387
100
AcDbEntity
  8
RACCORDO
100
AcDbCircle
 62
253
  6
CONTINUOUS
 10
-5.7944329304
 20
-15.2083062608
 40
0.9539575977
100
AcDbArc
 50
197.0725531903
 51
269.9728548944
  0
ARC
  5
388
100
AcDbEntity
  8
RACCORDO
100
AcDbCircle
 62
253
  6
CONTINUOUS
 10
-5.7948600439
 20
-15.1992187627
 40
0.8537233949
100
AcDbArc
 50
197.1159429377
 51
269.9983333815
  0
ARC
  5
389
100
AcDbEntity
  8
DRAFT
100
AcDbCircle
 62
7
  6
CONTINUOUS
 10
-5.794884877
 20
-15.2
 40
0.85
100
AcDbArc
 50
197.0663096459
 51
270.0
  0
ARC
  5
38A
100
AcDbEntity
  8
ASSI
100
AcDbCircle
 62
7
  6
CONTINUOUS
 10
-5.794884877
 20
-15.2
 40
0.75
100
AcDbArc
 50
197.0663096459
 51
270.0
  0
ARC
  5
38B
100
AcDbEntity
  8
DRAFT
100
AcDbCircle
 62
7
  6
CONTINUOUS
 10
-5.794884877
 20
-15.2
 40
0.75
100
AcDbArc
 50
197.0663096459
 51
270.0
  0
ARC
  5
38C
100
AcDbEntity
  8
RACCORDO
100
AcDbCircle
 62
7
  6
CONTINUOUS
 10
-5.7948806485
 20
-15.2005094676
 40
0.7428113368
100
AcDbArc
 50
197.9850366107
 51
269.9996738396
  0
ARC
  5
38D
100
AcDbEntity
  8
ASSI
100
AcDbCircle
 62
7
  6
CONTINUOUS
 10
-5.7946921171
 20
-15.2011659394
 40
0.7421543461
100
AcDbArc
 50
197.9864004313
 51
269.9851185543
  0
ARC
  5
38E
100
AcDbEntity
  8
RACCORDO
100
AcDbCircle
 62
7
  6
CONTINUOUS
 10
-5.8001700762
 20
-15.2020064359
 40
0.7373323441
100
AcDbArc
 50
197.0377917785
 51
197.9815368688
  0
ARC
  5
38F
100
AcDbEntity
  8
ASSI
100
AcDbCircle
 62
7
  6
CONTINUOUS
 10
-5.8002146674
 20
-15.2020200753
 40
0.7372857135
100
AcDbArc
 50
197.0377936837
 51
197.982870205
  0
ARC
  5
390
100
AcDbEntity
  8
RACCORDO
100
AcDbCircle
 62
253
  6
CONTINUOUS
 10
-5.794589058
 20
-15.2092960011
 40
0.6430064716
100
AcDbArc
 50
196.9867139263
 51
269.973639905
  0
ARC
  5
391
100
AcDbEntity
  8
ASSI
100
AcDbCircle
 62
253
  6
CONTINUOUS
 10
-5.794590721
 20
-15.2092982797
 40
0.6430039089
100
AcDbArc
 50
196.986563037
 51
269.9737879967
  0
ARC
  5
392
100
AcDbEntity
  8
RACCORDO
100
AcDbCircle
 62
253
  6
CONTINUOUS
 10
-10.3958614048
 20
-21.4958614049
 40
0.5002656578
100
AcDbArc
 50
180.0496651513
 51
269.9503348357
  0
ARC
  5
393
100
AcDbEntity
  8
RACCORDO
100
AcDbCircle
 62
253
  6
CONTINUOUS
 10
-5.7947110766
 20
-9.8017869916
 40
0.9563302427
100
AcDbArc
 50
90.0104128598
 51
162.9607327386
  0
ARC
  5
394
100
AcDbEntity
  8
RACCORDO
100
AcDbCircle
 62
253
  6
CONTINUOUS
 10
-5.79186027
 20
-9.8012570488
 40
0.8594684127
100
AcDbArc
 50
148.3104579226
 51
161.5792796685
  0
ARC
  5
395
100
AcDbEntity
  8
RACCORDO
100
AcDbCircle
 62
253
  6
CONTINUOUS
 10
-5.7948765813
 20
-9.7998634331
 40
0.8561707674
100
AcDbArc
 50
90.0005551545
 51
148.2837778209
  0
ARC
  5
396
100
AcDbEntity
  8
RACCORDO
100
AcDbCircle
 62
253
  6
CONTINUOUS
 10
-5.7949392858
 20
-9.7998230463
 40
0.8560941143
100
AcDbArc
 50
161.6052193524
 51
162.9439431564
  0
ARC
  5
397
100
AcDbEntity
  8
DRAFT
100
AcDbCircle
 62
7
  6
CONTINUOUS
 10
-5.794884877
 20
-9.8
 40
0.85
100
AcDbArc
 50
90.0
 51
162.9336903541
  0
ARC
  5
398
100
AcDbEntity
  8
ASSI
100
AcDbCircle
 62
7
  6
CONTINUOUS
 10
-5.794884877
 20
-9.8
 40
0.75
100
AcDbArc
 50
90.0
 51
162.9336903541
  0
ARC
  5
399
100
AcDbEntity
  8
DRAFT
100
AcDbCircle
 62
7
  6
CONTINUOUS
 10
-5.794884877
 20
-9.8
 40
0.75
100
AcDbArc
 50
90.0
 51
162.9336903541
  0
ARC
  5
39A
100
AcDbEntity
  8
ASSI
100
AcDbCircle
 62
253
  6
CONTINUOUS
 10
-5.7933354033
 20
-9.8007549232
 40
0.7420300347
100
AcDbArc
 50
151.8739913527
 51
162.9130783037
  0
ARC
  5
39B
100
AcDbEntity
  8
RACCORDO
100
AcDbCircle
 62
253
  6
CONTINUOUS
 10
-5.7933354033
 20
-9.8007549232
 40
0.7420300347
100
AcDbArc
 50
151.8739913527
 51
162.9130783037
  0
ARC
  5
39C
100
AcDbEntity
  8
RACCORDO
100
AcDbCircle
 62
7
  6
CONTINUOUS
 10
-5.7948834481
 20
-9.8001066643
 40
0.7403592074
100
AcDbArc
 50
90.000110581
 51
151.858403158
  0
ARC
  5
39D
100
AcDbEntity
  8
ASSI
100
AcDbCircle
 62
7
  6
CONTINUOUS
 10
-5.7949584736
 20
-9.7999753065
 40
0.7402103484
100
AcDbArc
 50
94.6651503487
 51
146.8008232566
  0
ARC
  5
39E
100
AcDbEntity
  8
ASSI
100
AcDbCircle
 62
7
  6
CONTINUOUS
 10
-5.7966163096
 20
-9.7992940899
 40
0.7384479513
100
AcDbArc
 50
146.7746192017
 51
151.8539475435
  0
ARC
  5
39F
100
AcDbEntity
  8
ASSI
100
AcDbCircle
 62
7
  6
CONTINUOUS
 10
-5.7948259383
 20
-9.7974454106
 40
0.7376979561
100
AcDbArc
 50
90.0045776705
 51
94.6913912578
  0
ARC
  5
3A0
100
AcDbEntity
  8
ASSI
100
AcDbCircle
 62
253
  6
CONTINUOUS
 10
-5.7924967499
 20
-9.8027942326
 40
0.6428391957
100
AcDbArc
 50
151.8990569283
 51
162.9307675066
  0
ARC
  5
3A1
100
AcDbEntity
  8
RACCORDO
100
AcDbCircle
 62
253
  6
CONTINUOUS
 10
-5.7924967499
 20
-9.8027942326
 40
0.6428391957
100
AcDbArc
 50
151.8990569283
 51
162.9307675066
  0
ARC
  5
3A2
100
AcDbEntity
  8
RACCORDO
100
AcDbCircle
 62
253
  6
CONTINUOUS
 10
-5.7948554306
 20
-9.8019210789
 40
0.6403459821
100
AcDbArc
 50
90.0026347558
 51
151.868565681
  0
ARC
  5
3A3
100
AcDbEntity
  8
ASSI
100
AcDbCircle
 62
253
  6
CONTINUOUS
 10
-5.7948557798
 20
-9.8019204953
 40
0.6403453835
100
AcDbArc
 50
90.0026035176
 51
151.8685970041
  0
ARC
  5
3A4
100
AcDbEntity
  8
RACCORDO
100
AcDbCircle
 62
253
  6
CONTINUOUS
 10
-3.0123876223
 20
-12.5005865233
 40
10.1676494237
100
AcDbArc
 50
342.9112575652
 51
17.0386200613
  0
ARC
  5
3A5
100
AcDbEntity
  8
DRAFT
100
AcDbCircle
 62
7
  6
CONTINUOUS
 10
-3.0
 20
-12.5
 40
10.05
100
AcDbArc
 50
342.9336903541
 51
17.0663096459
  0
ARC
  5
3A6
100
AcDbEntity
  8
RACCORDO
100
AcDbCircle
 62
253
  6
CONTINUOUS
 10
-2.9902958063
 20
-12.4953528012
 40
10.0455574436
100
AcDbArc
 50
342.8921081125
 51
17.057214735
  0
ARC
  5
3A7
100
AcDbEntity
  8
ASSI
100
AcDbCircle
 62
7
  6
CONTINUOUS
 10
-3.0093206138
 20
-12.504512004
 40
9.9505599203
100
AcDbArc
 50
345.2380939964
 51
14.8201177691
  0
ARC
  5
3A8
100
AcDbEntity
  8
RACCORDO
100
AcDbCircle
 62
7
  6
CONTINUOUS
 10
-3.0092592243
 20
-12.5045126585
 40
9.9505031859
100
AcDbArc
 50
342.974177297
 51
17.0755027982
  0
ARC
  5
3A9
100
AcDbEntity
  8
ASSI
100
AcDbCircle
 62
7
  6
CONTINUOUS
 10
-3.0
 20
-12.5
 40
9.95
100
AcDbArc
 50
342.9336903541
 51
17.0663096459
  0
ARC
  5
3AA
100
AcDbEntity
  8
DRAFT
100
AcDbCircle
 62
7
  6
CONTINUOUS
 10
-3.0
 20
-12.5
 40
9.95
100
AcDbArc
 50
342.9336903541
 51
17.0663096459
  0
ARC
  5
3AB
100
AcDbEntity
  8
ASSI
100
AcDbCircle
 62
7
  6
CONTINUOUS
 10
-3.0038580943
 20
-12.506247935
 40
9.9448306785
100
AcDbArc
 50
342.9746252951
 51
345.2397461677
  0
ARC
  5
3AC
100
AcDbEntity
  8
ASSI
100
AcDbCircle
 62
7
  6
CONTINUOUS
 10
-3.0032117308
 20
-12.5025956361
 40
9.9441593758
100
AcDbArc
 50
14.8184465421
 51
17.075175634
  0
ARC
  5
3AD
100
AcDbEntity
  8
ASSI
100
AcDbCircle
 62
253
  6
CONTINUOUS
 10
-3.030926357
 20
-12.5097574128
 40
9.8721704386
100
AcDbArc
 50
343.028513086
 51
17.0565245178
  0
ARC
  5
3AE
100
AcDbEntity
  8
RACCORDO
100
AcDbCircle
 62
253
  6
CONTINUOUS
 10
-3.0307030277
 20
-12.5097572892
 40
9.8719531125
100
AcDbArc
 50
343.0356831093
 51
17.0569040211
  0
ARC
  5
3AF
100
AcDbEntity
  8
RACCORDO
100
AcDbCircle
 62
253
  6
CONTINUOUS
 10
-3434.9996068124
 20
7.8164995579
 40
3424.6418534393
100
AcDbArc
 50
0.0281657114
 51
0.2229898475
  0
ARC
  5
3B0
100
AcDbEntity
  8
RACCORDO
100
AcDbCircle
 62
253
  6
CONTINUOUS
 10
-3397.5538050443
 20
7.8163521157
 40
3386.6962230088
100
AcDbArc
 50
0.0283230634
 51
0.2242355946
  0
ARC
  5
3B1
100
AcDbEntity
  8
RACCORDO
100
AcDbCircle
 62
253
  6
CONTINUOUS
 10
-10.3958614018
 20
21.4958614018
 40
0.5002656609
100
AcDbArc
 50
90.0496655076
 51
179.9503344924
  0
ARC
  5
3B2
100
AcDbEntity
  8
RACCORDO
100
AcDbCircle
 62
253
  6
CONTINUOUS
 10
5.7945235843
 20
-15.208430235
 40
0.9538262106
100
AcDbArc
 50
270.0217030156
 51
342.9329668764
  0
ARC
  5
3B3
100
AcDbEntity
  8
RACCORDO
100
AcDbCircle
 62
253
  6
CONTINUOUS
 10
5.7948808103
 20
-15.1992461153
 40
0.853695261
100
AcDbArc
 50
270.000272939
 51
342.8808730672
  0
ARC
  5
3B4
100
AcDbEntity
  8
DRAFT
100
AcDbCircle
 62
7
  6
CONTINUOUS
 10
5.794884877
 20
-15.2
 40
0.85
100
AcDbArc
 50
270.0
 51
342.9336903541
  0
ARC
  5
3B5
100
AcDbEntity
  8
ASSI
100
AcDbCircle
 62
7
  6
CONTINUOUS
 10
5.794884877
 20
-15.2
 40
0.75
100
AcDbArc
 50
270.0
 51
342.9336903541
  0
ARC
  5
3B6
100
AcDbEntity
  8
DRAFT
100
AcDbCircle
 62
7
  6
CONTINUOUS
 10
5.794884877
 20
-15.2
 40
0.75
100
AcDbArc
 50
270.0
 51
342.9336903541
  0
ARC
  5
3B7
100
AcDbEntity
  8
RACCORDO
100
AcDbCircle
 62
7
  6
CONTINUOUS
 10
5.7948820887
 20
-15.2005125171
 40
0.7428081119
100
AcDbArc
 50
270.0002150737
 51
342.0136477116
  0
ARC
  5
3B8
100
AcDbEntity
  8
ASSI
100
AcDbCircle
 62
7
  6
CONTINUOUS
 10
5.7947147998
 20
-15.2014205595
 40
0.7418997204
100
AcDbArc
 50
270.0131348039
 51
342.0123332335
  0
ARC
  5
3B9
100
AcDbEntity
  8
RACCORDO
100
AcDbCircle
 62
7
  6
CONTINUOUS
 10
5.7998991701
 20
-15.2019001319
 40
0.7376225083
100
AcDbArc
 50
342.0171027902
 51
342.9604789656
  0
ARC
  5
3BA
100
AcDbEntity
  8
ASSI
100
AcDbCircle
 62
7
  6
CONTINUOUS
 10
5.7999437639
 20
-15.2019137736
 40
0.7375758746
100
AcDbArc
 50
342.0158183127
 51
342.9604770577
  0
ARC
  5
3BB
100
AcDbEntity
  8
RACCORDO
100
AcDbCircle
 62
253
  6
CONTINUOUS
 10
5.7945900183
 20
-15.2092955686
 40
0.6430062561
100
AcDbArc
 50
270.0262745104
 51
343.0132242214
  0
ARC
  5
3BC
100
AcDbEntity
  8
ASSI
100
AcDbCircle
 62
253
  6
CONTINUOUS
 10
5.794591775
 20
-15.2092979308
 40
0.6430035875
100
AcDbArc
 50
270.0261180684
 51
343.0133797939
  0
ARC
  5
3BD
100
AcDbEntity
  8
RACCORDO
100
AcDbCircle
 62
253
  6
CONTINUOUS
 10
10.3958614017
 20
-21.4958614017
 40
0.5002656609
100
AcDbArc
 50
270.0496655158
 51
359.9503344842
  0
ARC
  5
3BE
100
AcDbEntity
  8
RACCORDO
100
AcDbCircle
 62
253
  6
CONTINUOUS
 10
3.0123824882
 20
-12.5005904923
 40
10.167643739
100
AcDbArc
 50
162.9613500773
 51
197.0887295583
  0
ARC
  5
3BF
100
AcDbEntity
  8
DRAFT
100
AcDbCircle
 62
7
  6
CONTINUOUS
 10
3.0
 20
-12.5
 40
10.05
100
AcDbArc
 50
162.9336903541
 51
197.0663096459
  0
ARC
  5
3C0
100
AcDbEntity
  8
RACCORDO
100
AcDbCircle
 62
253
  6
CONTINUOUS
 10
2.9902932461
 20
-12.4953528023
 40
10.0455549964
100
AcDbArc
 50
162.9427809757
 51
197.1078961768
  0
ARC
  5
3C1
100
AcDbEntity
  8
ASSI
100
AcDbCircle
 62
7
  6
CONTINUOUS
 10
3.0093222627
 20
-12.5045122734
 40
9.9505615694
100
AcDbArc
 50
165.1809546096
 51
194.7848390826
  0
ARC
  5
3C2
100
AcDbEntity
  8
RACCORDO
100
AcDbCircle
 62
7
  6
CONTINUOUS
 10
3.0092575661
 20
-12.5045126578
 40
9.9505016006
100
AcDbArc
 50
162.9244944023
 51
197.0258255025
  0
ARC
  5
3C3
100
AcDbEntity
  8
ASSI
100
AcDbCircle
 62
7
  6
CONTINUOUS
 10
3.0
 20
-12.5
 40
9.95
100
AcDbArc
 50
162.9336903541
 51
197.0663096459
  0
ARC
  5
3C4
100
AcDbEntity
  8
DRAFT
100
AcDbCircle
 62
7
  6
CONTINUOUS
 10
3.0
 20
-12.5
 40
9.95
100
AcDbArc
 50
162.9336903541
 51
197.0663096459
  0
ARC
  5
3C5
100
AcDbEntity
  8
ASSI
100
AcDbCircle
 62
7
  6
CONTINUOUS
 10
3.0036667778
 20
-12.5063021817
 40
9.9446318632
100
AcDbArc
 50
194.7831830986
 51
197.0253985989
  0
ARC
  5
3C6
100
AcDbEntity
  8
ASSI
100
AcDbCircle
 62
7
  6
CONTINUOUS
 10
3.0032292283
 20
-12.5026004367
 40
9.9441775116
100
AcDbArc
 50
162.9248275276
 51
165.1826246397
  0
ARC
  5
3C7
100
AcDbEntity
  8
ASSI
100
AcDbCircle
 62
253
  6
CONTINUOUS
 10
3.0309250559
 20
-12.5097574161
 40
9.8721691711
100
AcDbArc
 50
162.9434732492
 51
196.9714912377
  0
ARC
  5
3C8
100
AcDbEntity
  8
RACCORDO
100
AcDbCircle
 62
253
  6
CONTINUOUS
 10
3.0307014927
 20
-12.5097572951
 40
9.8719516593
100
AcDbArc
 50
162.9430933335
 51
196.9639579009
  0
ARC
  5
3C9
100
AcDbEntity
  8
RACCORDO
100
AcDbCircle
 62
253
  6
CONTINUOUS
 10
5.7931696721
 20
-9.8019764805
 40
0.9578495214
100
AcDbArc
 50
17.0392191601
 51
18.3768155625
  0
ARC
  5
3CA
100
AcDbEntity
  8
RACCORDO
100
AcDbCircle
 62
253
  6
CONTINUOUS
 10
5.7948222668
 20
-9.8016328643
 40
0.9561669287
100
AcDbArc
 50
18.3884950963
 51
89.9962482449
  0
ARC
  5
3CB
100
AcDbEntity
  8
RACCORDO
100
AcDbCircle
 62
253
  6
CONTINUOUS
 10
5.7914619361
 20
-9.8015252842
 40
0.8599311067
100
AcDbArc
 50
18.429290138
 51
33.8017558579
  0
ARC
  5
3CC
100
AcDbEntity
  8
RACCORDO
100
AcDbCircle
 62
253
  6
CONTINUOUS
 10
5.7948596169
 20
-9.7998884158
 40
0.8561963381
100
AcDbArc
 50
33.8372240249
 51
89.9983096159
  0
ARC
  5
3CD
100
AcDbEntity
  8
RACCORDO
100
AcDbCircle
 62
253
  6
CONTINUOUS
 10
5.7949691274
 20
-9.799813508
 40
0.8560627876
100
AcDbArc
 50
17.0560323479
 51
18.3948051433
  0
ARC
  5
3CE
100
AcDbEntity
  8
DRAFT
100
AcDbCircle
 62
7
  6
CONTINUOUS
 10
5.794884877
 20
-9.8
 40
0.85
100
AcDbArc
 50
17.0663096459
 51
90.0
  0
ARC
  5
3CF
100
AcDbEntity
  8
ASSI
100
AcDbCircle
 62
7
  6
CONTINUOUS
 10
5.794884877
 20
-9.8
 40
0.75
100
AcDbArc
 50
17.0663096459
 51
90.0
  0
ARC
  5
3D0
100
AcDbEntity
  8
DRAFT
100
AcDbCircle
 62
7
  6
CONTINUOUS
 10
5.794884877
 20
-9.8
 40
0.75
100
AcDbArc
 50
17.0663096459
 51
90.0
  0
ARC
  5
3D1
100
AcDbEntity
  8
ASSI
100
AcDbCircle
 62
253
  6
CONTINUOUS
 10
5.7933783884
 20
-9.8007370246
 40
0.741983688
100
AcDbArc
 50
17.0865758574
 51
28.1263544862
  0
ARC
  5
3D2
100
AcDbEntity
  8
RACCORDO
100
AcDbCircle
 62
253
  6
CONTINUOUS
 10
5.7933783884
 20
-9.8007370246
 40
0.741983688
100
AcDbArc
 50
17.0865758574
 51
28.1405381469
  0
ARC
  5
3D3
100
AcDbEntity
  8
RACCORDO
100
AcDbCircle
 62
7
  6
CONTINUOUS
 10
5.7948844144
 20
-9.8001048199
 40
0.7403573631
100
AcDbArc
 50
28.1405381469
 51
89.999964201
  0
ARC
  5
3D4
100
AcDbEntity
  8
ASSI
100
AcDbCircle
 62
7
  6
CONTINUOUS
 10
5.794958877
 20
-9.7999744469
 40
0.7402094392
100
AcDbArc
 50
33.1875404504
 51
85.3952385022
  0
ARC
  5
3D5
100
AcDbEntity
  8
ASSI
100
AcDbCircle
 62
7
  6
CONTINUOUS
 10
5.796641123
 20
-9.7992787025
 40
0.7384188136
100
AcDbArc
 50
28.14590792
 51
33.2138111847
  0
ARC
  5
3D6
100
AcDbEntity
  8
ASSI
100
AcDbCircle
 62
7
  6
CONTINUOUS
 10
5.7948147155
 20
-9.7975194896
 40
0.7377720361
100
AcDbArc
 50
85.3687729887
 51
89.9945512183
  0
ARC
  5
3D7
100
AcDbEntity
  8
ASSI
100
AcDbCircle
 62
253
  6
CONTINUOUS
 10
5.7925722924
 20
-9.8027628103
 40
0.6427577576
100
AcDbArc
 50
17.0685314604
 51
28.1016441047
  0
ARC
  5
3D8
100
AcDbEntity
  8
RACCORDO
100
AcDbCircle
 62
253
  6
CONTINUOUS
 10
5.7925722924
 20
-9.8027628103
 40
0.6427577576
100
AcDbArc
 50
17.0685314604
 51
28.1016441047
  0
ARC
  5
3D9
100
AcDbEntity
  8
RACCORDO
100
AcDbCircle
 62
253
  6
CONTINUOUS
 10
5.7948547126
 20
-9.8019222743
 40
0.6403473773
100
AcDbArc
 50
28.1314983542
 51
89.9973010039
  0
ARC
  5
3DA
100
AcDbEntity
  8
ASSI
100
AcDbCircle
 62
253
  6
CONTINUOUS
 10
5.7948563158
 20
-9.8019188892
 40
0.6403440679
100
AcDbArc
 50
28.1312988794
 51
89.9974444366
  0
ARC
  5
3DB
100
AcDbEntity
  8
RACCORDO
100
AcDbCircle
 62
253
  6
CONTINUOUS
 10
3434.9994467087
 20
-7.8164999088
 40
3424.6416933354
100
AcDbArc
 50
180.0281657068
 51
180.2229898521
  0
ARC
  5
3DC
100
AcDbEntity
  8
RACCORDO
100
AcDbCircle
 62
253
  6
CONTINUOUS
 10
3397.5536432967
 20
-7.8163524722
 40
3386.696061261
100
AcDbArc
 50
180.0283230588
 51
180.2242355993
  0
ARC
  5
3DD
100
AcDbEntity
  8
RACCORDO
100
AcDbCircle
 62
253
  6
CONTINUOUS
 10
3416.3153823279
 20
7.8574506925
 40
3405.9576112296
100
AcDbArc
 50
179.7764757734
 51
179.9723686677
  0
ARC
  5
3DE
100
AcDbEntity
  8
RACCORDO
100
AcDbCircle
 62
253
  6
CONTINUOUS
 10
3379.0767689035
 20
7.8570753858
 40
3368.219169143
100
AcDbArc
 50
179.7752270457
 51
179.9722142962
  0
ARC
  5
3DF
100
AcDbEntity
  8
RACCORDO
100
AcDbCircle
 62
253
  6
CONTINUOUS
 10
10.3958614015
 20
21.4958614016
 40
0.5002656612
100
AcDbArc
 50
0.0496655262
 51
89.9503344432
  0
ARC
  5
3E0
100
AcDbEntity
  8
RACCORDO
100
AcDbCircle
 62
7
  6
CONTINUOUS
 10
-24.5492368846
 20
-20.9964663801
 40
1.0
100
AcDbArc
 50
188.5334776264
 51
268.5
  0
ARC
  5
3E1
100
AcDbEntity
  8
RACCORDO
100
AcDbCircle
 62
253
  6
CONTINUOUS
 10
-24.562323969
 20
-20.9964648083
 40
0.5000016076
100
AcDbArc
 50
188.5336321152
 51
268.4998455112
  0
ARC
  5
3E2
100
AcDbEntity
  8
ASSI
100
AcDbCircle
 62
7
  6
CONTINUOUS
 10
63.4654735095
 20
-7.79
 40
90.0
100
AcDbArc
 50
181.1023183815
 51
184.3905654619
  0
ARC
  5
3E3
100
AcDbEntity
  8
RACCORDO
100
AcDbCircle
 62
7
  6
CONTINUOUS
 10
63.4654735095
 20
-7.79
 40
90.0
100
AcDbArc
 50
181.08868532
 51
188.5334776264
  0
ARC
  5
3E4
100
AcDbEntity
  8
RACCORDO
100
AcDbCircle
 62
253
  6
CONTINUOUS
 10
63.4519013055
 20
-7.7900407141
 40
89.4995155839
100
AcDbArc
 50
181.0886651442
 51
188.5334978022
  0
ARC
  5
3E5
100
AcDbEntity
  8
RACCORDO
100
AcDbCircle
 62
7
  6
CONTINUOUS
 10
63.4654735095
 20
7.79
 40
90.0
100
AcDbArc
 50
171.4665223736
 51
178.91131468
  0
ARC
  5
3E6
100
AcDbEntity
  8
RACCORDO
100
AcDbCircle
 62
253
  6
CONTINUOUS
 10
63.4519013066
 20
7.790040714
 40
89.4995155851
100
AcDbArc
 50
171.4665021978
 51
178.9113348558
  0
ARC
  5
3E7
100
AcDbEntity
  8
RACCORDO
100
AcDbCircle
 62
7
  6
CONTINUOUS
 10
-24.5492368846
 20
20.9964663801
 40
1.0
100
AcDbArc
 50
91.5
 51
171.4665223736
  0
ARC
  5
3E8
100
AcDbEntity
  8
RACCORDO
100
AcDbCircle
 62
253
  6
CONTINUOUS
 10
-24.5623239794
 20
20.99646482
 40
0.5000015956
100
AcDbArc
 50
91.5001533308
 51
171.4663690428
  0
ARC
  5
3E9
100
AcDbEntity
  8
RACCORDO
100
AcDbCircle
 62
7
  6
CONTINUOUS
 10
473.3914618293
 20
0.0
 40
500.0
100
AcDbArc
 50
178.91131468
 51
181.08868532
  0
ARC
  5
3EA
100
AcDbEntity
  8
RACCORDO
100
AcDbCircle
 62
253
  6
CONTINUOUS
 10
473.4237017161
 20
0.0
 40
499.5453201792
100
AcDbArc
 50
178.9114134605
 51
181.0885865395
  0
SPLINE
  5
3EB
100
AcDbEntity
  8
ASSI
100
AcDbSpline
 62
253
  6
CONTINUOUS
 70
0
 71
3
 72
16
 73
12
 74
10
 42
0.0000001
 43
0.0000001
 44
0.0000000001
 12
0.0010970859
 22
-0.100936989
 32
0.0
 13
-0.0890189345
 23
-0.0475931577
 33
0.0
 40
0.0
 40
0.0
 40
0.0
 40
0.0
 40
0.0058763596
 40
0.021094151
 40
0.0455718831
 40
0.0791381688
 40
0.1723284822
 40
0.2968146132
 40
0.4479903144
 40
0.6201719752
 40
1.0
 40
1.0
 40
1.0
 40
1.0
 10
6.4477423701
 20
-9.4509523001
 30
0.0
 10
6.4477445191
 20
-9.4511500141
 30
0.0
 10
6.446931766
 20
-9.451532453
 30
0.0
 10
6.4458719653
 20
-9.4524231619
 30
0.0
 10
6.4436535781
 20
-9.4536901707
 30
0.0
 10
6.4393452274
 20
-9.4562992009
 30
0.0
 10
6.4319552825
 20
-9.4604831817
 30
0.0
 10
6.4211491585
 20
-9.4665518363
 30
0.0
 10
6.4079470182
 20
-9.4738297016
 30
0.0
 10
6.3871827838
 20
-9.4851674204
 30
0.0
 10
6.3708281198
 20
-9.4939742613
 30
0.0
 10
6.3595574912
 20
-9.4999999997
 30
0.0
 11
6.4477423701
 21
-9.4509523001
 31
0.0
 11
6.4473166936
 21
-9.4513654085
 31
0.0
 11
6.4460463291
 21
-9.4522290436
 31
0.0
 11
6.4439472835
 21
-9.4535325503
 31
0.0
 11
6.4410355638
 21
-9.4552652733
 31
0.0
 11
6.4328804695
 21
-9.4599540156
 31
0.0
 11
6.4219208002
 21
-9.4661013678
 31
0.0
 11
6.4085627649
 21
-9.4734793213
 31
0.0
 11
6.3933090363
 21
-9.4818103724
 31
0.0
 11
6.3595574912
 21
-9.4999999997
 31
0.0
  0
LINE
  5
3EC
100
AcDbEntity
  8
ASSI
100
AcDbLine
 62
253
  6
CONTINUOUS
 10
6.4113066701
 20
-15.3914004186
 11
6.4095492241
 21
-15.3971522733
  0
SPLINE
  5
3ED
100
AcDbEntity
  8
ASSI
100
AcDbSpline
 62
253
  6
CONTINUOUS
 70
0
 71
3
 72
16
 73
12
 74
10
 42
0.0000001
 43
0.0000001
 44
0.0000000001
 12
-0.0125745272
 22
-0.0998687443
 32
0.0
 13
-0.0962233069
 23
-0.0295458968
 33
0.0
 40
0.0
 40
0.0
 40
0.0
 40
0.0
 40
0.0059477478
 40
0.0211809265
 40
0.0456539645
 40
0.0792025283
 40
0.1723315107
 40
0.2967431778
 40
0.4478547038
 40
0.6200084287
 40
1.0
 40
1.0
 40
1.0
 40
1.0
 10
6.5026122631
 20
-9.582730079
 30
0.0
 10
6.5025873331
 20
-9.582928077
 30
0.0
 10
6.50171961
 20
-9.5831863736
 30
0.0
 10
6.5005207371
 20
-9.5838574995
 30
0.0
 10
6.4981145715
 20
-9.584705369
 30
0.0
 10
6.4934142447
 20
-9.5864603598
 30
0.0
 10
6.4853979296
 20
-9.5891792076
 30
0.0
 10
6.4736799557
 20
-9.5930825819
 30
0.0
 10
6.4593820674
 20
-9.5977076624
 30
0.0
 10
6.4368995632
 20
-9.6048615805
 30
0.0
 10
6.4192073924
 20
-9.6103611568
 30
0.0
 10
6.4070193772
 20
-9.6141035541
 30
0.0
 11
6.5026122631
 21
-9.582730079
 31
0.0
 11
6.5021245715
 21
-9.5830773245
 31
0.0
 11
6.5007248829
 21
-9.583703402
 31
0.0
 11
6.4984307309
 21
-9.5846007046
 31
0.0
 11
6.4952596487
 21
-9.5857616251
 31
0.0
 11
6.4864022542
 21
-9.5888309042
 31
0.0
 11
6.4745200996
 21
-9.5927854433
 31
0.0
 11
6.4600519112
 21
-9.5974790565
 31
0.0
 11
6.4435400131
 21
-9.6027359501
 31
0.0
 11
6.4070193772
 21
-9.6141035541
 31
0.0
  0
SPLINE
  5
3EE
100
AcDbEntity
  8
ASSI
100
AcDbSpline
 62
253
  6
CONTINUOUS
 70
0
 71
3
 72
14
 73
10
 74
8
 42
0.0000001
 43
0.0000001
 44
0.0000000001
 12
-0.0387768077
 22
-0.0904648459
 32
0.0
 13
-0.0941697113
 23
0.0286285634
 33
0.0
 40
0.0
 40
0.0
 40
0.0
 40
0.0
 40
0.0257361124
 40
0.0846763835
 40
0.1773641693
 40
0.3006240941
 40
0.450280629
 40
0.6210530842
 40
1.0
 40
1.0
 40
1.0
 40
1.0
 10
6.5051128562
 20
-15.4180375857
 30
0.0
 10
6.5047802014
 20
-15.4188136569
 30
0.0
 10
6.5012668073
 20
-15.4190493137
 30
0.0
 10
6.4960402009
 20
-15.4187138476
 30
0.0
 10
6.4868225759
 20
-15.4172536463
 30
0.0
 10
6.4751942728
 20
-15.4148696606
 30
0.0
 10
6.4609795293
 20
-15.4115215064
 30
0.0
 10
6.4387853055
 20
-15.4057695609
 30
0.0
 10
6.4214443312
 20
-15.4007684726
 30
0.0
 10
6.409549224
 20
-15.3971522374
 30
0.0
 11
6.5051128562
 21
-15.4180375857
 31
0.0
 11
6.5027385663
 21
-15.4189203417
 31
0.0
 11
6.4969415679
 21
-15.4186993083
 31
0.0
 11
6.4879164184
 21
-15.4173679601
 31
0.0
 11
6.4760209248
 21
-15.4149846955
 31
0.0
 11
6.4616772338
 21
-15.411633445
 31
0.0
 11
6.4454016186
 21
-15.4074353498
 31
0.0
 11
6.409549224
 21
-15.3971522374
 31
0.0
  0
LINE
  5
3EF
100
AcDbEntity
  8
ASSI
100
AcDbLine
 62
253
  6
CONTINUOUS
 10
-6.4095492241
 20
-15.3971522733
 11
-6.411306565
 21
-15.3914007716
  0
SPLINE
  5
3F0
100
AcDbEntity
  8
ASSI
100
AcDbSpline
 62
253
  6
CONTINUOUS
 70
0
 71
3
 72
14
 73
10
 74
8
 42
0.0000001
 43
0.0000001
 44
0.0000000001
 12
0.038797024
 22
-0.0904891876
 32
0.0
 13
0.0941981078
 23
0.0286394592
 33
0.0
 40
0.0
 40
0.0
 40
0.0
 40
0.0
 40
0.0257374815
 40
0.0846833236
 40
0.1773787695
 40
0.3006460345
 40
0.4503070278
 40
0.6210785966
 40
1.0
 40
1.0
 40
1.0
 40
1.0
 10
-6.5051419626
 20
-15.4180465302
 30
0.0
 10
-6.5048091167
 20
-15.4188228515
 30
0.0
 10
-6.5012942504
 20
-15.4190580325
 30
0.0
 10
-6.4960657102
 20
-15.4187223561
 30
0.0
 10
-6.4868445683
 20
-15.4172611412
 30
0.0
 10
-6.4752121471
 20
-15.414876007
 30
0.0
 10
-6.4609927483
 20
-15.4115263792
 30
0.0
 10
-6.4387925061
 20
-15.4057723706
 30
0.0
 10
-6.4214471172
 20
-15.4007696377
 30
0.0
 10
-6.4095492241
 20
-15.3971522697
 30
0.0
 11
-6.5051419626
 21
-15.4180465302
 31
0.0
 11
-6.5027666935
 21
-15.4189292798
 31
0.0
 11
-6.496967374
 21
-15.4187077958
 31
0.0
 11
-6.4879387494
 21
-15.4173755689
 31
0.0
 11
-6.4760389516
 21
-15.4149910735
 31
0.0
 11
-6.4616904946
 21
-15.4116383363
 31
0.0
 11
-6.4454100394
 21
-15.4074386112
 31
0.0
 11
-6.4095492241
 21
-15.3971522697
 31
0.0
  0
SPLINE
  5
3F1
100
AcDbEntity
  8
ASSI
100
AcDbSpline
 62
253
  6
CONTINUOUS
 70
0
 71
3
 72
16
 73
12
 74
10
 42
0.0000001
 43
0.0000001
 44
0.0000000001
 12
0.0125754254
 22
-0.099864173
 32
0.0
 13
0.0962190556
 23
-0.0295446731
 33
0.0
 40
0.0
 40
0.0
 40
0.0
 40
0.0
 40
0.0059477156
 40
0.0211806963
 40
0.0456533998
 40
0.0792015189
 40
0.1723293818
 40
0.2967399514
 40
0.4478508028
 40
0.6200046516
 40
1.0
 40
1.0
 40
1.0
 40
1.0
 10
-6.5026080346
 20
-9.5827313769
 30
0.0
 10
-6.5025831029
 20
-9.5829293648
 30
0.0
 10
-6.5017154384
 20
-9.5831876547
 30
0.0
 10
-6.5005166261
 20
-9.5838587435
 30
0.0
 10
-6.4981106049
 20
-9.5847065714
 30
0.0
 10
-6.4934105438
 20
-9.5864614697
 30
0.0
 10
-6.4853946712
 20
-9.5891801796
 30
0.0
 10
-6.473677307
 20
-9.5930833627
 30
0.0
 10
-6.4593801037
 20
-9.5977082347
 30
0.0
 10
-6.4368984896
 20
-9.604861888
 30
0.0
 10
-6.4192069751
 20
-9.6103612737
 30
0.0
 10
-6.4070193772
 20
-9.6141035532
 30
0.0
 11
-6.5026080346
 21
-9.5827313769
 31
0.0
 11
-6.5021203693
 21
-9.5830786086
 31
0.0
 11
-6.5007207627
 21
-9.5837046554
 31
0.0
 11
-6.4984267448
 21
-9.5846019114
 31
0.0
 11
-6.495255846
 21
-9.585762771
 31
0.0
 11
-6.4863989511
 21
-9.5888318897
 31
0.0
 11
-6.4745174274
 21
-9.5927862319
 31
0.0
 11
-6.4600499433
 21
-9.59747963
 31
0.0
 11
-6.4435387629
 21
-9.6027363088
 31
0.0
 11
-6.4070193772
 21
-9.6141035532
 31
0.0
  0
SPLINE
  5
3F2
100
AcDbEntity
  8
ASSI
100
AcDbSpline
 62
253
  6
CONTINUOUS
 70
0
 71
3
 72
16
 73
12
 74
10
 42
0.0000001
 43
0.0000001
 44
0.0000000001
 12
-0.0010978551
 22
-0.1009357599
 32
0.0
 13
0.0890178495
 23
-0.0475925978
 33
0.0
 40
0.0
 40
0.0
 40
0.0
 40
0.0
 40
0.0058763295
 40
0.0210940492
 40
0.045571676
 40
0.0791378302
 40
0.1723278281
 40
0.2968136605
 40
0.4479891855
 40
0.620170894
 40
1.0
 40
1.0
 40
1.0
 40
1.0
 10
-6.4477412933
 20
-9.4509528758
 30
0.0
 10
-6.4477434437
 20
-9.4511505864
 30
0.0
 10
-6.4469307036
 20
-9.4515330215
 30
0.0
 10
-6.4458709226
 20
-9.4524237153
 30
0.0
 10
-6.4436525716
 20
-9.4536907054
 30
0.0
 10
-6.4393442903
 20
-9.456299696
 30
0.0
 10
-6.4319544576
 20
-9.4604836163
 30
0.0
 10
-6.421148489
 20
-9.4665521868
 30
0.0
 10
-6.4079465223
 20
-9.4738299598
 30
0.0
 10
-6.3871825128
 20
-9.4851675603
 30
0.0
 10
-6.3708280146
 20
-9.4939743154
 30
0.0
 10
-6.3595574912
 20
-9.5
 30
0.0
 11
-6.4477412933
 21
-9.4509528758
 31
0.0
 11
-6.4473156252
 21
-9.4513659783
 31
0.0
 11
-6.446045283
 21
-9.4522296003
 31
0.0
 11
-6.4439462727
 21
-9.4535330869
 31
0.0
 11
-6.4410346004
 21
-9.4552657836
 31
0.0
 11
-6.4328796338
 21
-9.4599544559
 31
0.0
 11
-6.4219201248
 21
-9.4661017216
 31
0.0
 11
-6.4085622681
 21
-9.4734795799
 31
0.0
 11
-6.3933087212
 21
-9.4818105352
 31
0.0
 11
-6.3595574912
 21
-9.5
 31
0.0
  0
SPLINE
  5
3F3
100
AcDbEntity
  8
RACCORDO
100
AcDbSpline
 62
253
  6
CONTINUOUS
 70
0
 71
3
 72
16
 73
12
 74
10
 42
0.0000001
 43
0.0000001
 44
0.0000000001
 12
0.0010970815
 22
-0.100936562
 32
0.0
 13
-0.0890185578
 23
-0.0475929563
 33
0.0
 40
0.0
 40
0.0
 40
0.0
 40
0.0
 40
0.0059202817
 40
0.0212347536
 40
0.0457796258
 40
0.0793027647
 40
0.172207145
 40
0.2967224538
 40
0.4479491479
 40
0.6206624517
 40
1.0
 40
1.0
 40
1.0
 40
1.0
 10
6.4477423701
 20
-9.4509523001
 30
0.0
 10
6.4477445351
 20
-9.4511514911
 30
0.0
 10
6.4469233604
 20
-9.451533456
 30
0.0
 10
6.4458601375
 20
-9.4524290297
 30
0.0
 10
6.4436370581
 20
-9.4536969953
 30
0.0
 10
6.4393371167
 20
-9.4563028842
 30
0.0
 10
6.4319568348
 20
-9.4604833362
 30
0.0
 10
6.4211564266
 20
-9.4665478578
 30
0.0
 10
6.4079365668
 20
-9.4738361328
 30
0.0
 10
6.3871686022
 20
-9.4851732594
 30
0.0
 10
6.3708135183
 20
-9.4939820679
 30
0.0
 10
6.3595574912
 20
-9.4999999997
 30
0.0
 11
6.4477423701
 21
-9.4509523001
 31
0.0
 11
6.4473121412
 21
-9.4513670755
 31
0.0
 11
6.4460329141
 21
-9.4522350198
 31
0.0
 11
6.4439278569
 21
-9.4535416726
 31
0.0
 11
6.4410201379
 21
-9.4552725739
 31
0.0
 11
6.4328909944
 21
-9.4599484652
 31
0.0
 11
6.4219288155
 21
-9.4660972551
 31
0.0
 11
6.4085663205
 21
-9.4734776471
 31
0.0
 11
6.3932650925
 21
-9.4818335344
 31
0.0
 11
6.3595574912
 21
-9.4999999997
 31
0.0
  0
LINE
  5
3F4
100
AcDbEntity
  8
RACCORDO
100
AcDbLine
 62
253
  6
CONTINUOUS
 10
6.4116862853
 20
-15.39015636
 11
6.4095492241
 21
-15.3971522733
  0
SPLINE
  5
3F5
100
AcDbEntity
  8
RACCORDO
100
AcDbSpline
 62
253
  6
CONTINUOUS
 70
0
 71
3
 72
16
 73
12
 74
10
 42
0.0000001
 43
0.0000001
 44
0.0000000001
 12
-0.012574456
 22
-0.0998681881
 32
0.0
 13
-0.096222771
 23
-0.0295457323
 33
0.0
 40
0.0
 40
0.0
 40
0.0
 40
0.0
 40
0.0059903138
 40
0.021319449
 40
0.0458593003
 40
0.0793650031
 40
0.1722095016
 40
0.2966502008
 40
0.4478127698
 40
0.6204973182
 40
1.0
 40
1.0
 40
1.0
 40
1.0
 10
6.5026122631
 20
-9.582730079
 30
0.0
 10
6.5025871548
 20
-9.5829294929
 30
0.0
 10
6.501710936
 20
-9.5831856087
 30
0.0
 10
6.5005081324
 20
-9.583860792
 30
0.0
 10
6.4980970526
 20
-9.5847086219
 30
0.0
 10
6.4934056538
 20
-9.5864623218
 30
0.0
 10
6.4853994601
 20
-9.5891797827
 30
0.0
 10
6.4736878144
 20
-9.5930800694
 30
0.0
 10
6.4593706751
 20
-9.5977120563
 30
0.0
 10
6.4368845319
 20
-9.6048643476
 30
0.0
 10
6.4191916438
 20
-9.6103659926
 30
0.0
 10
6.4070193772
 20
-9.6141035541
 30
0.0
 11
6.5026122631
 21
-9.582730079
 31
0.0
 11
6.5021197877
 21
-9.5830779799
 31
0.0
 11
6.5007106259
 21
-9.5837065107
 31
0.0
 11
6.4984100148
 21
-9.5846057242
 31
0.0
 11
6.4952431914
 21
-9.5857656736
 31
0.0
 11
6.4864135785
 21
-9.5888275085
 31
0.0
 11
6.4745287271
 21
-9.5927829776
 31
0.0
 11
6.4600557243
 21
-9.5974781259
 31
0.0
 11
6.4434926668
 21
-9.6027501362
 31
0.0
 11
6.4070193772
 21
-9.6141035541
 31
0.0
  0
SPLINE
  5
3F6
100
AcDbEntity
  8
RACCORDO
100
AcDbSpline
 62
253
  6
CONTINUOUS
 70
0
 71
3
 72
14
 73
10
 74
8
 42
0.0000001
 43
0.0000001
 44
0.0000000001
 12
-0.0387749714
 22
-0.0904605984
 32
0.0
 13
-0.0941652842
 23
0.0286272165
 33
0.0
 40
0.0
 40
0.0
 40
0.0
 40
0.0
 40
0.0258170587
 40
0.0847843564
 40
0.1772144601
 40
0.3005057277
 40
0.450217697
 40
0.621511872
 40
1.0
 40
1.0
 40
1.0
 40
1.0
 10
6.5051128562
 20
-15.4180375857
 30
0.0
 10
6.5047791709
 20
-15.4188160612
 30
0.0
 10
6.5012524788
 20
-15.4190288166
 30
0.0
 10
6.4960376345
 20
-15.4187118649
 30
0.0
 10
6.4868221659
 20
-15.41725657
 30
0.0
 10
6.4752021583
 20
-15.4148720577
 30
0.0
 10
6.4609674702
 20
-15.4115212381
 30
0.0
 10
6.4387733894
 20
-15.4057588064
 30
0.0
 10
6.4214293714
 20
-15.4007639246
 30
0.0
 10
6.409549224
 20
-15.3971522374
 30
0.0
 11
6.5051128562
 21
-15.4180375857
 31
0.0
 11
6.5027270641
 21
-15.4189118431
 31
0.0
 11
6.4969276652
 21
-15.4186911122
 31
0.0
 11
6.4879268616
 21
-15.417371471
 31
0.0
 11
6.4760288752
 21
-15.4149878489
 31
0.0
 11
6.4616805727
 21
-15.4116353997
 31
0.0
 11
6.4453570917
 21
-15.4074204547
 31
0.0
 11
6.409549224
 21
-15.3971522374
 31
0.0
  0
LINE
  5
3F7
100
AcDbEntity
  8
RACCORDO
100
AcDbLine
 62
253
  6
CONTINUOUS
 10
-6.4095492241
 20
-15.3971522733
 11
-6.4117044654
 21
-15.3900967763
  0
SPLINE
  5
3F8
100
AcDbEntity
  8
RACCORDO
100
AcDbSpline
 62
253
  6
CONTINUOUS
 70
0
 71
3
 72
14
 73
10
 74
8
 42
0.0000001
 43
0.0000001
 44
0.0000000001
 12
0.038795198
 22
-0.0904849336
 32
0.0
 13
0.0941936791
 23
0.0286381112
 33
0.0
 40
0.0
 40
0.0
 40
0.0
 40
0.0
 40
0.0258184183
 40
0.0847912062
 40
0.1772286509
 40
0.3005270529
 40
0.4502434786
 40
0.6215369662
 40
1.0
 40
1.0
 40
1.0
 40
1.0
 10
-6.5051419626
 20
-15.4180465302
 30
0.0
 10
-6.5048080857
 20
-15.4188252562
 30
0.0
 10
-6.5012799229
 20
-15.4190375232
 30
0.0
 10
-6.4960631591
 20
-15.4187203704
 30
0.0
 10
-6.4868441943
 20
-15.417264072
 30
0.0
 10
-6.4752200876
 20
-15.4148784155
 30
0.0
 10
-6.4609807378
 20
-15.411526124
 30
0.0
 10
-6.4387806195
 20
-15.4057616202
 30
0.0
 10
-6.421432166
 20
-15.4007650918
 30
0.0
 10
-6.4095492241
 20
-15.3971522697
 30
0.0
 11
-6.5051419626
 21
-15.4180465302
 31
0.0
 11
-6.5027551893
 21
-15.4189207752
 31
0.0
 11
-6.4969534766
 21
-15.4186995936
 31
0.0
 11
-6.4879492354
 21
-15.4173790871
 31
0.0
 11
-6.4760469636
 21
-15.4149942402
 31
0.0
 11
-6.4616938934
 21
-15.4116403059
 31
0.0
 11
-6.4453655391
 21
-15.4074237203
 31
0.0
 11
-6.4095492241
 21
-15.3971522697
 31
0.0
  0
SPLINE
  5
3F9
100
AcDbEntity
  8
RACCORDO
100
AcDbSpline
 62
253
  6
CONTINUOUS
 70
0
 71
3
 72
16
 73
12
 74
10
 42
0.0000001
 43
0.0000001
 44
0.0000000001
 12
0.0125753457
 22
-0.099863618
 32
0.0
 13
0.0962185197
 23
-0.0295445085
 33
0.0
 40
0.0
 40
0.0
 40
0.0
 40
0.0
 40
0.0059902808
 40
0.0213192173
 40
0.0458587366
 40
0.0793640035
 40
0.1722074348
 40
0.2966470691
 40
0.4478089601
 40
0.6204936039
 40
1.0
 40
1.0
 40
1.0
 40
1.0
 10
-6.5026080346
 20
-9.5827313769
 30
0.0
 10
-6.5025829246
 20
-9.5829307806
 30
0.0
 10
-6.501706765
 20
-9.58318689
 30
0.0
 10
-6.5005040221
 20
-9.5838620359
 30
0.0
 10
-6.4980930866
 20
-9.5847098244
 30
0.0
 10
-6.4934019511
 20
-9.5864634326
 30
0.0
 10
-6.4853961964
 20
-9.5891807565
 30
0.0
 10
-6.4736851575
 20
-9.5930808529
 30
0.0
 10
-6.459368704
 20
-9.597712631
 30
0.0
 10
-6.436883454
 20
-9.6048646566
 30
0.0
 10
-6.4191912251
 20
-9.6103661098
 30
0.0
 10
-6.4070193772
 20
-9.6141035532
 30
0.0
 11
-6.5026080346
 21
-9.5827313769
 31
0.0
 11
-6.5021155859
 21
-9.5830792641
 31
0.0
 11
-6.5007065065
 21
-9.583707764
 31
0.0
 11
-6.4984060296
 21
-9.5846069311
 31
0.0
 11
-6.4952393886
 21
-9.5857668198
 31
0.0
 11
-6.4864102691
 21
-9.5888284961
 31
0.0
 11
-6.4745260455
 21
-9.5927837693
 31
0.0
 11
-6.4600537475
 21
-9.5974787023
 31
0.0
 11
-6.4434914127
 21
-9.6027504964
 31
0.0
 11
-6.4070193772
 21
-9.6141035532
 31
0.0
  0
SPLINE
  5
3FA
100
AcDbEntity
  8
RACCORDO
100
AcDbSpline
 62
253
  6
CONTINUOUS
 70
0
 71
3
 72
16
 73
12
 74
10
 42
0.0000001
 43
0.0000001
 44
0.0000000001
 12
-0.0010978504
 22
-0.1009353328
 32
0.0
 13
0.0890174729
 23
-0.0475923965
 33
0.0
 40
0.0
 40
0.0
 40
0.0
 40
0.0
 40
0.0059202516
 40
0.0212346514
 40
0.0457794191
 40
0.0793024288
 40
0.1722065072
 40
0.2967215257
 40
0.4479480432
 40
0.620661387
 40
1.0
 40
1.0
 40
1.0
 40
1.0
 10
-6.4477412933
 20
-9.4509528758
 30
0.0
 10
-6.4477434598
 20
-9.4511520634
 30
0.0
 10
-6.4469222981
 20
-9.4515340245
 30
0.0
 10
-6.445859095
 20
-9.452429583
 30
0.0
 10
-6.4436360518
 20
-9.45369753
 30
0.0
 10
-6.4393361792
 20
-9.4563033796
 30
0.0
 10
-6.4319560086
 20
-9.4604837715
 30
0.0
 10
-6.4211557551
 20
-9.4665482095
 30
0.0
 10
-6.4079360691
 20
-9.473836392
 30
0.0
 10
-6.3871683302
 20
-9.4851733999
 30
0.0
 10
-6.3708134127
 20
-9.4939821221
 30
0.0
 10
-6.3595574912
 20
-9.5
 30
0.0
 11
-6.4477412933
 21
-9.4509528758
 31
0.0
 11
-6.447311073
 21
-9.4513676454
 31
0.0
 11
-6.4460318682
 21
-9.4522355764
 31
0.0
 11
-6.4439268462
 21
-9.4535422092
 31
0.0
 11
-6.4410191745
 21
-9.4552730842
 31
0.0
 11
-6.4328901572
 21
-9.4599489063
 31
0.0
 11
-6.4219281378
 21
-9.4660976102
 31
0.0
 11
-6.4085658215
 21
-9.4734779069
 31
0.0
 11
-6.3932647765
 21
-9.4818336977
 31
0.0
 11
-6.3595574912
 21
-9.5
 31
0.0
  0
SPLINE
  5
3FB
100
AcDbEntity
  8
RACCORDO
100
AcDbSpline
 62
253
  6
CONTINUOUS
 70
0
 71
3
 72
14
 73
10
 74
8
 42
0.0000001
 43
0.0000001
 44
0.0000000001
 12
-0.0989464192
 22
0.030230454
 32
0.0
 13
0.0197335147
 23
0.1015621121
 33
0.0
 40
0.0
 40
0.0
 40
0.0
 40
0.0
 40
0.3748706464
 40
0.5462427806
 40
0.6966978889
 40
0.821024786
 40
0.9144239484
 40
0.974046073
 40
1.0
 40
1.0
 40
1.0
 40
1.0
 10
6.7063638171
 20
-15.4883746114
 30
0.0
 10
6.6939997811
 20
-15.4845971081
 30
0.0
 10
6.6760585435
 20
-15.4788096029
 30
0.0
 10
6.6534144987
 20
-15.4708343751
 30
0.0
 10
6.6389739425
 20
-15.4653741564
 30
0.0
 10
6.6273594345
 20
-15.4605947863
 30
0.0
 10
6.6183698565
 20
-15.4564192706
 30
0.0
 10
6.6136073682
 20
-15.4536108306
 30
0.0
 10
6.6105953206
 20
-15.4513514116
 30
0.0
 10
6.6107660414
 20
-15.4504727664
 30
0.0
 11
6.7063638171
 21
-15.4883746114
 31
0.0
 11
6.6694628766
 21
-15.4764343075
 31
0.0
 11
6.6527469934
 21
-15.4705227302
 31
0.0
 11
6.638195901
 21
-15.4649932114
 31
0.0
 11
6.6263222498
 21
-15.4600460637
 31
0.0
 11
6.6176058619
 21
-15.455874459
 31
0.0
 11
6.6123547416
 21
-15.4526375986
 31
0.0
 11
6.6107660414
 21
-15.4504727664
 31
0.0
  0
SPLINE
  5
3FC
100
AcDbEntity
  8
RACCORDO
100
AcDbSpline
 62
253
  6
CONTINUOUS
 70
0
 71
3
 72
16
 73
12
 74
10
 42
0.0000001
 43
0.0000001
 44
0.0000000001
 12
-0.095118248
 22
-0.029173486
 32
0.0
 13
-0.0671503247
 23
0.0734125826
 33
0.0
 40
0.0
 40
0.0
 40
0.0
 40
0.0
 40
0.3803871542
 40
0.5530699104
 40
0.7040714002
 40
0.8282771817
 40
0.9208942914
 40
0.9543066579
 40
0.9787721638
 40
0.9940484621
 40
1.0
 40
1.0
 40
1.0
 40
1.0
 10
6.7089738165
 20
-9.5213014441
 30
0.0
 10
6.6969132299
 20
-9.5250005172
 30
0.0
 10
6.6793583909
 20
-9.5303206494
 30
0.0
 10
6.6569734919
 20
-9.5369540205
 30
0.0
 10
6.6427060903
 20
-9.5411096483
 30
0.0
 10
6.6309834061
 20
-9.5444188007
 30
0.0
 10
6.6229478684
 20
-9.5466431102
 30
0.0
 10
6.6181508453
 20
-9.5478165482
 30
0.0
 10
6.6157194514
 20
-9.5484677167
 30
0.0
 10
6.6143626483
 20
-9.5485845021
 30
0.0
 10
6.6135135863
 20
-9.5488702828
 30
0.0
 10
6.6133803704
 20
-9.5487246436
 30
0.0
 11
6.7089738165
 21
-9.5213014441
 31
0.0
 11
6.6727518938
 21
-9.5322668591
 31
0.0
 11
6.6562785312
 21
-9.5371450958
 31
0.0
 11
6.641851226
 21
-9.5413349276
 31
0.0
 11
6.6299594745
 21
-9.5446953283
 31
0.0
 11
6.621062818
 21
-9.5470950705
 31
0.0
 11
6.6178394009
 21
-9.5479076057
 31
0.0
 11
6.6154673941
 21
-9.5484539421
 31
0.0
 11
6.6139724874
 21
-9.548728236
 31
0.0
 11
6.6133803704
 21
-9.5487246436
 31
0.0
  0
SPLINE
  5
3FD
100
AcDbEntity
  8
RACCORDO
100
AcDbSpline
 62
253
  6
CONTINUOUS
 70
0
 71
3
 72
16
 73
12
 74
10
 42
0.0000001
 43
0.0000001
 44
0.0000000001
 12
-0.0943746317
 22
-0.0313753421
 32
0.0
 13
-0.0693704453
 23
0.0712651704
 33
0.0
 40
0.0
 40
0.0
 40
0.0
 40
0.0
 40
0.3804225351
 40
0.5531086373
 40
0.7041077549
 40
0.828307788
 40
0.9209178275
 40
0.9543264269
 40
0.9787878693
 40
0.9940591144
 40
1.0
 40
1.0
 40
1.0
 40
1.0
 10
6.7021723734
 20
-9.5
 30
0.0
 10
6.6902049612
 20
-9.5039786291
 30
0.0
 10
6.6727850534
 20
-9.5097067602
 30
0.0
 10
6.6505698902
 20
-9.5168629329
 30
0.0
 10
6.6364103848
 20
-9.5213530406
 30
0.0
 10
6.6247744703
 20
-9.5249382753
 30
0.0
 10
6.6167985355
 20
-9.5273538882
 30
0.0
 10
6.6120332649
 20
-9.528642408
 30
0.0
 10
6.6096208483
 20
-9.5293538764
 30
0.0
 10
6.6082671334
 20
-9.5295031762
 30
0.0
 10
6.6074284431
 20
-9.529812889
 30
0.0
 10
6.6072910691
 20
-9.5296717629
 30
0.0
 11
6.7021723734
 21
-9.5
 31
0.0
 11
6.66622777
 21
-9.5118076876
 31
0.0
 11
6.6498798135
 21
-9.5170706034
 31
0.0
 11
6.6355613653
 21
-9.5215987061
 31
0.0
 11
6.6237580134
 21
-9.5252395454
 31
0.0
 11
6.6149256452
 21
-9.5278511486
 31
0.0
 11
6.6117245555
 21
-9.5287414814
 31
0.0
 11
6.6093680888
 21
-9.5293460097
 31
0.0
 11
6.6078817562
 21
-9.5296582611
 31
0.0
 11
6.6072910691
 21
-9.5296717629
 31
0.0
  0
SPLINE
  5
3FE
100
AcDbEntity
  8
RACCORDO
100
AcDbSpline
 62
253
  6
CONTINUOUS
 70
0
 71
3
 72
16
 73
12
 74
10
 42
0.0000001
 43
0.0000001
 44
0.0000000001
 12
0.0943850227
 22
-0.0313790336
 32
0.0
 13
0.0693855675
 23
0.0712658353
 33
0.0
 40
0.0
 40
0.0
 40
0.0
 40
0.0
 40
0.3804113323
 40
0.5530970968
 40
0.7040980817
 40
0.8283011257
 40
0.9209142765
 40
0.9543242122
 40
0.9787867454
 40
0.9940587603
 40
1.0
 40
1.0
 40
1.0
 40
1.0
 10
-6.7021723731
 20
-9.4999999567
 30
0.0
 10
-6.6902039957
 20
-9.5039789367
 30
0.0
 10
-6.6727825318
 20
-9.5097076174
 30
0.0
 10
-6.6505652258
 20
-9.5168645319
 30
0.0
 10
-6.6364040185
 20
-9.5213552149
 30
0.0
 10
-6.6247665681
 20
-9.5249409567
 30
0.0
 10
-6.6167895256
 20
-9.5273569351
 30
0.0
 10
-6.6120235491
 20
-9.5286456694
 30
0.0
 10
-6.6096107785
 20
-9.5293572616
 30
0.0
 10
-6.6082568239
 20
-9.5295066023
 30
0.0
 10
-6.6074180293
 20
-9.5298163771
 30
0.0
 10
-6.6072806172
 20
-9.5296752413
 30
0.0
 11
-6.7021723731
 21
-9.4999999567
 31
0.0
 11
-6.6662248686
 21
-9.5118086812
 31
0.0
 11
-6.6498751431
 21
-9.5170722051
 31
0.0
 11
-6.6355549411
 21
-9.5216008991
 31
0.0
 11
-6.6237500046
 21
-9.5252422629
 31
0.0
 11
-6.61491637
 21
-9.5278542754
 31
0.0
 11
-6.6117148019
 21
-9.5287447587
 31
0.0
 11
-6.6093579731
 21
-9.5293493976
 31
0.0
 11
-6.6078714046
 21
-9.5296617169
 31
0.0
 11
-6.6072806172
 21
-9.5296752413
 31
0.0
  0
SPLINE
  5
3FF
100
AcDbEntity
  8
RACCORDO
100
AcDbSpline
 62
253
  6
CONTINUOUS
 70
0
 71
3
 72
16
 73
12
 74
10
 42
0.0000001
 43
0.0000001
 44
0.0000000001
 12
0.0951177018
 22
-0.0291733068
 32
0.0
 13
0.0671463825
 23
0.0734154094
 33
0.0
 40
0.0
 40
0.0
 40
0.0
 40
0.0
 40
0.3803878433
 40
0.5530706825
 40
0.7040721303
 40
0.8282777809
 40
0.9208947061
 40
0.9543069694
 40
0.978772369
 40
0.994048561
 40
1.0
 40
1.0
 40
1.0
 40
1.0
 10
-6.7089738165
 20
-9.5213014464
 30
0.0
 10
-6.6969132773
 20
-9.5250005035
 30
0.0
 10
-6.6793585146
 20
-9.5303206107
 30
0.0
 10
-6.6569737212
 20
-9.5369539479
 30
0.0
 10
-6.6427064039
 20
-9.5411095495
 30
0.0
 10
-6.6309837998
 20
-9.5444186771
 30
0.0
 10
-6.6229483185
 20
-9.5466429703
 30
0.0
 10
-6.6181513396
 20
-9.5478163946
 30
0.0
 10
-6.6157199626
 20
-9.5484675594
 30
0.0
 10
-6.61436319
 20
-9.5485843347
 30
0.0
 10
-6.6135141257
 20
-9.5488701173
 30
0.0
 10
-6.6133809198
 20
-9.5487244749
 30
0.0
 11
-6.7089738165
 21
-9.5213014464
 31
0.0
 11
-6.6727520363
 21
-9.5322668141
 31
0.0
 11
-6.6562787604
 21
-9.5371450233
 31
0.0
 11
-6.6418515421
 21
-9.541334828
 31
0.0
 11
-6.6299598714
 21
-9.544695204
 31
0.0
 11
-6.6210632835
 21
-9.5470949257
 31
0.0
 11
-6.6178398947
 21
-9.5479074526
 31
0.0
 11
-6.6154679116
 21
-9.5484537822
 31
0.0
 11
-6.6139730235
 21
-9.5487280709
 31
0.0
 11
-6.6133809198
 21
-9.5487244749
 31
0.0
  0
SPLINE
  5
400
100
AcDbEntity
  8
RACCORDO
100
AcDbSpline
 62
253
  6
CONTINUOUS
 70
0
 71
3
 72
14
 73
10
 74
8
 42
0.0000001
 43
0.0000001
 44
0.0000000001
 12
0.0989434948
 22
0.0302298676
 32
0.0
 13
-0.0197294424
 23
0.1015598797
 33
0.0
 40
0.0
 40
0.0
 40
0.0
 40
0.0
 40
0.3748733118
 40
0.5462452892
 40
0.6966996668
 40
0.8210256272
 40
0.9144240113
 40
0.9740457926
 40
1.0
 40
1.0
 40
1.0
 40
1.0
 10
-6.7063638171
 20
-15.4883746775
 30
0.0
 10
-6.6940000586
 20
-15.4845972206
 30
0.0
 10
-6.6760592682
 20
-15.4788098112
 30
0.0
 10
-6.6534158347
 20
-15.4708347314
 30
0.0
 10
-6.638975771
 20
-15.4653746525
 30
0.0
 10
-6.6273616786
 20
-15.4605954079
 30
0.0
 10
-6.6183724666
 20
-15.4564200205
 30
0.0
 10
-6.6136101043
 20
-15.453611624
 30
0.0
 10
-6.6105982135
 20
-15.4513522795
 30
0.0
 10
-6.6107689008
 20
-15.4504736441
 30
0.0
 11
-6.7063638171
 21
-15.4883746775
 31
0.0
 11
-6.6694637045
 21
-15.4764345339
 31
0.0
 11
-6.6527483319
 21
-15.4705230868
 31
0.0
 11
-6.6381977437
 21
-15.4649937114
 31
0.0
 11
-6.6263245391
 21
-15.4600467031
 31
0.0
 11
-6.6176084909
 21
-15.4558752173
 31
0.0
 11
-6.6123575685
 21
-15.4526384406
 31
0.0
 11
-6.6107689008
 21
-15.4504736441
 31
0.0
  0
SPLINE
  5
401
100
AcDbEntity
  8
RACCORDO
100
AcDbSpline
 62
253
  6
CONTINUOUS
 70
0
 71
3
 72
18
 73
14
 74
12
 42
0.0000001
 43
0.0000001
 44
0.0000000001
 12
-0.3798900023
 22
-0.7620980077
 32
0.0
 13
-0.0016796114
 23
-0.8515321287
 33
0.0
 40
0.0
 40
0.0
 40
0.0
 40
0.0
 40
0.0072758036
 40
0.0233394549
 40
0.0481318979
 40
0.0814887721
 40
0.1231351699
 40
0.1727775134
 40
0.2944585936
 40
0.4428567612
 40
0.6134155025
 40
0.8011053282
 40
1.0
 40
1.0
 40
1.0
 40
1.0
 10
10.3962950425
 20
21.996123705
 30
0.0
 10
10.3953737075
 20
21.9942754132
 30
0.0
 10
10.3950902462
 20
21.9874158413
 30
0.0
 10
10.3936473351
 20
21.9740121525
 30
0.0
 10
10.3928307634
 20
21.9528579014
 30
0.0
 10
10.3916959092
 20
21.9245977456
 30
0.0
 10
10.3907126587
 20
21.8892144787
 30
0.0
 10
10.3892924824
 20
21.8287882795
 30
0.0
 10
10.3877636432
 20
21.7380443164
 30
0.0
 10
10.3862457015
 20
21.6129825726
 30
0.0
 10
10.3850264795
 20
21.4691778538
 30
0.0
 10
10.3841411553
 20
21.3110382798
 30
0.0
 10
10.3838011186
 20
21.2013087105
 30
0.0
 10
10.3836897634
 20
21.1448536428
 30
0.0
 11
10.3962950425
 21
21.996123705
 31
0.0
 11
10.3951565278
 21
21.9900336187
 31
0.0
 11
10.3940288536
 21
21.9764014388
 31
0.0
 11
10.3929211014
 21
21.9553189186
 31
0.0
 11
10.3918418524
 21
21.9269349241
 31
0.0
 11
10.3907989115
 21
21.8914869485
 31
0.0
 11
10.3898000065
 21
21.8492266198
 31
0.0
 11
10.3879646906
 21
21.7456273245
 31
0.0
 11
10.3863937383
 21
21.6192710363
 31
0.0
 11
10.3851340796
 21
21.4740399685
 31
0.0
 11
10.3842236089
 21
21.3142183341
 31
0.0
 11
10.3836897634
 21
21.1448536428
 31
0.0
  0
SPLINE
  5
402
100
AcDbEntity
  8
RACCORDO
100
AcDbSpline
 62
253
  6
CONTINUOUS
 70
0
 71
3
 72
18
 73
14
 74
12
 42
0.0000001
 43
0.0000001
 44
0.0000000001
 12
-0.2998877786
 22
-0.3027815226
 32
0.0
 13
-0.0016752103
 23
-0.4261531694
 33
0.0
 40
0.0
 40
0.0
 40
0.0
 40
0.0
 40
0.0076307198
 40
0.023834073
 40
0.0486970139
 40
0.0820904236
 40
0.1237488534
 40
0.173381941
 40
0.2949973012
 40
0.4432957219
 40
0.6137248667
 40
0.8012626674
 40
1.0
 40
1.0
 40
1.0
 40
1.0
 10
10.896123705
 20
21.4962950425
 30
0.0
 10
10.8953609185
 20
21.4955248956
 30
0.0
 10
10.8947772168
 20
21.4919077118
 30
0.0
 10
10.8935636691
 20
21.4853123976
 30
0.0
 10
10.8926229032
 20
21.4746575231
 30
0.0
 10
10.8915385257
 20
21.4605548413
 30
0.0
 10
10.8905362511
 20
21.4428521997
 30
0.0
 10
10.8891254089
 20
21.4126494071
 30
0.0
 10
10.8875920202
 20
21.367276088
 30
0.0
 10
10.8860759456
 20
21.3047445434
 30
0.0
 10
10.8848556243
 20
21.2328375058
 30
0.0
 10
10.8839698382
 20
21.1537613267
 30
0.0
 10
10.8836294015
 20
21.0988908595
 30
0.0
 10
10.8835184259
 20
21.0706600114
 30
0.0
 11
10.896123705
 21
21.4962950425
 31
0.0
 11
10.8949861116
 21
21.4932486335
 31
0.0
 11
10.8938580159
 21
21.4864362414
 31
0.0
 11
10.8927495861
 21
21.4758988762
 31
0.0
 11
10.8916700449
 21
21.4617090646
 31
0.0
 11
10.8906271946
 21
21.4439867116
 31
0.0
 11
10.8896286996
 21
21.4228588317
 31
0.0
 11
10.8877943496
 21
21.3710641324
 31
0.0
 11
10.8862233838
 21
21.3078853304
 31
0.0
 11
10.8849633442
 21
21.23526678
 31
0.0
 11
10.8840522848
 21
21.1553515273
 31
0.0
 11
10.8835184259
 21
21.0706600114
 31
0.0
  0
SPLINE
  5
403
100
AcDbEntity
  8
RACCORDO
100
AcDbSpline
 62
253
  6
CONTINUOUS
 70
0
 71
3
 72
13
 73
9
 74
7
 42
0.0000001
 43
0.0000001
 44
0.0000000001
 12
-0.0881533217
 22
0.5054734887
 32
0.0
 13
-0.5130989851
 23
0.0019716588
 33
0.0
 40
0.0
 40
0.0
 40
0.0
 40
0.0
 40
0.0360019902
 40
0.1001309847
 40
0.1949878149
 40
0.3181445081
 40
0.6327284594
 40
1.0
 40
1.0
 40
1.0
 40
1.0
 10
10.8835184259
 20
21.0706600114
 30
0.0
 10
10.8824605275
 20
21.0767260286
 30
0.0
 10
10.8676643906
 20
21.0892324088
 30
0.0
 10
10.8373561954
 20
21.1008707064
 30
0.0
 10
10.7901350746
 20
21.113142518
 30
0.0
 10
10.7005016609
 20
21.1283833709
 30
0.0
 10
10.563079288
 20
21.1409928193
 30
0.0
 10
10.4465053149
 20
21.1446122581
 30
0.0
 10
10.3836897634
 20
21.1448536361
 30
0.0
 11
10.8835184259
 21
21.0706600114
 31
0.0
 11
10.8717213914
 21
21.0848751934
 31
0.0
 11
10.8418238258
 21
21.098617796
 31
0.0
 11
10.7948331878
 21
21.1112975296
 31
0.0
 11
10.7326342532
 21
21.1224566761
 31
0.0
 11
10.5720361504
 21
21.1386645694
 31
0.0
 11
10.3836897634
 21
21.1448536361
 31
0.0
  0
SPLINE
  5
404
100
AcDbEntity
  8
RACCORDO
100
AcDbSpline
 62
253
  6
CONTINUOUS
 70
0
 71
3
 72
18
 73
14
 74
12
 42
0.0000001
 43
0.0000001
 44
0.0000000001
 12
-0.4046586009
 22
0.2938668405
 32
0.0
 13
-0.5001062301
 23
0.0002487742
 33
0.0
 40
0.0
 40
0.0
 40
0.0
 40
0.0
 40
0.0074247296
 40
0.0239633807
 40
0.0495092305
 40
0.0838839564
 40
0.1268427741
 40
0.1779183967
 40
0.3023242961
 40
0.4526536256
 40
0.6234464806
 40
0.8085434481
 40
1.0
 40
1.0
 40
1.0
 40
1.0
 10
10.8579958269
 20
9.4905
 30
0.0
 10
10.8569943333
 20
9.4912272939
 30
0.0
 10
10.8527407639
 20
9.4914797498
 30
0.0
 10
10.8447711657
 20
9.4926203034
 30
0.0
 10
10.8319258039
 20
9.4932881319
 30
0.0
 10
10.8148481823
 20
9.494196686
 30
0.0
 10
10.7934376129
 20
9.4949805019
 30
0.0
 10
10.7570486287
 20
9.4961007428
 30
0.0
 10
10.7027420834
 20
9.497286676
 30
0.0
 10
10.6284822331
 20
9.4984257884
 30
0.0
 10
10.5440978048
 20
9.4992886969
 30
0.0
 10
10.452855678
 20
9.4998375178
 30
0.0
 10
10.3900833692
 20
9.4999841235
 30
0.0
 10
10.3581671644
 20
9.5
 30
0.0
 11
10.8579958269
 21
9.4905
 31
0.0
 11
10.85439654
 21
9.4914124945
 31
0.0
 11
10.8461753757
 21
9.4923198425
 31
0.0
 11
10.8334309294
 21
9.493212071
 31
0.0
 11
10.8162617964
 21
9.4940792072
 31
0.0
 11
10.7947939609
 21
9.4949118083
 31
0.0
 11
10.7692629631
 21
9.4957025518
 31
0.0
 11
10.7070631973
 21
9.497131297
 31
0.0
 11
10.6318918492
 21
9.4983134977
 31
0.0
 11
10.5464819391
 21
9.4992067816
 31
0.0
 11
10.4539155271
 21
9.4997753344
 31
0.0
 11
10.3581671644
 21
9.5
 31
0.0
  0
SPLINE
  5
405
100
AcDbEntity
  8
RACCORDO
100
AcDbSpline
 62
253
  6
CONTINUOUS
 70
0
 71
3
 72
9
 73
5
 74
3
 42
0.0000001
 43
0.0000001
 44
0.0000000001
 12
-0.0094453637
 22
-18.9809980905
 32
0.0
 13
0.0094453645
 23
-18.9809980905
 33
0.0
 40
0.0
 40
0.0
 40
0.0
 40
0.0
 40
0.2499885537
 40
1.0
 40
1.0
 40
1.0
 40
1.0
 10
10.8579958269
 20
9.4905
 30
0.0
 10
10.8572087493
 20
7.9088225799
 30
0.0
 10
10.8548476941
 20
1.5818228492
 30
0.0
 10
10.8556344497
 20
-4.7451780566
 30
0.0
 10
10.8579958269
 20
-9.4905
 30
0.0
 11
10.8579958269
 21
9.4905
 31
0.0
 11
10.8562249959
 21
4.7454674828
 31
0.0
 11
10.8579958269
 21
-9.4905
 31
0.0
  0
SPLINE
  5
406
100
AcDbEntity
  8
RACCORDO
100
AcDbSpline
 62
253
  6
CONTINUOUS
 70
0
 71
3
 72
18
 73
14
 74
12
 42
0.0000001
 43
0.0000001
 44
0.0000000001
 12
-0.4046590677
 22
-0.2938661973
 32
0.0
 13
-0.5001062299
 23
-0.0002487742
 33
0.0
 40
0.0
 40
0.0
 40
0.0
 40
0.0
 40
0.007424737
 40
0.0239633948
 40
0.0495092501
 40
0.0838839803
 40
0.1268428012
 40
0.1779184257
 40
0.3023243257
 40
0.4526536518
 40
0.6234465
 40
0.8085434583
 40
1.0
 40
1.0
 40
1.0
 40
1.0
 10
10.8579958269
 20
-9.4905
 30
0.0
 10
10.8569943311
 20
-9.4912272931
 30
0.0
 10
10.8527407611
 20
-9.4914797504
 30
0.0
 10
10.8447711581
 20
-9.4926203027
 30
0.0
 10
10.8319257944
 20
-9.4932881319
 30
0.0
 10
10.8148481703
 20
-9.4941966856
 30
0.0
 10
10.7934375995
 20
-9.4949805016
 30
0.0
 10
10.7570486143
 20
-9.4961007424
 30
0.0
 10
10.7027420691
 20
-9.4972866754
 30
0.0
 10
10.6284822205
 20
-9.4984257877
 30
0.0
 10
10.5440977954
 20
-9.4992886961
 30
0.0
 10
10.452855673
 20
-9.499837517
 30
0.0
 10
10.3900833675
 20
-9.4999841227
 30
0.0
 10
10.3581671644
 20
-9.4999999992
 30
0.0
 11
10.8579958269
 21
-9.4905
 31
0.0
 11
10.8543965361
 21
-9.4914124945
 31
0.0
 11
10.8461753685
 21
-9.4923198424
 31
0.0
 11
10.8334309195
 21
-9.4932120709
 31
0.0
 11
10.8162617842
 21
-9.494079207
 31
0.0
 11
10.7947939472
 21
-9.494911808
 31
0.0
 11
10.7692629485
 21
-9.4957025514
 31
0.0
 11
10.7070631824
 21
-9.4971312965
 31
0.0
 11
10.6318918361
 21
-9.498313497
 31
0.0
 11
10.5464819293
 21
-9.4992067809
 31
0.0
 11
10.4539155219
 21
-9.4997753336
 31
0.0
 11
10.3581671644
 21
-9.4999999992
 31
0.0
  0
SPLINE
  5
407
100
AcDbEntity
  8
RACCORDO
100
AcDbSpline
 62
253
  6
CONTINUOUS
 70
0
 71
3
 72
18
 73
14
 74
12
 42
0.0000001
 43
0.0000001
 44
0.0000000001
 12
0.001677308
 22
-0.4261533252
 32
0.0
 13
0.300941089
 23
-0.3017348685
 33
0.0
 40
0.0
 40
0.0
 40
0.0
 40
0.0
 40
0.1987369095
 40
0.3862780259
 40
0.5567076103
 40
0.7050022329
 40
0.8266123619
 40
0.8762433744
 40
0.9179012211
 40
0.951297393
 40
0.9761677795
 40
0.9923767259
 40
1.0
 40
1.0
 40
1.0
 40
1.0
 10
10.8835184259
 20
-21.0706600114
 30
0.0
 10
10.8836295402
 20
-21.0988908097
 30
0.0
 10
10.8839698719
 20
-21.1537617096
 30
0.0
 10
10.8848555
 20
-21.2328383915
 30
0.0
 10
10.8860758615
 20
-21.3047454606
 30
0.0
 10
10.8875920142
 20
-21.3672757762
 30
0.0
 10
10.8891254047
 20
-21.4126476094
 30
0.0
 10
10.8905363453
 20
-21.4428491681
 30
0.0
 10
10.8915384592
 20
-21.4605521016
 30
0.0
 10
10.8926233774
 20
-21.4746554157
 30
0.0
 10
10.8935629111
 20
-21.4853143571
 30
0.0
 10
10.8947784054
 20
-21.4919069712
 30
0.0
 10
10.8953589862
 20
-21.4955283067
 30
0.0
 10
10.896123705
 20
-21.4962950425
 30
0.0
 11
10.8835184259
 21
-21.0706600114
 31
0.0
 11
10.8840523098
 21
-21.1553513795
 31
0.0
 11
10.8849632581
 21
-21.2352680772
 31
0.0
 11
10.8862233282
 21
-21.3078868425
 31
0.0
 11
10.8877943472
 21
-21.3710640484
 31
0.0
 11
10.8896287321
 21
-21.4228565357
 31
0.0
 11
10.8906272285
 21
-21.4439835384
 31
0.0
 11
10.8916700681
 21
-21.4617056499
 31
0.0
 11
10.8927495948
 21
-21.4758966486
 31
0.0
 11
10.8938580151
 21
-21.4864372094
 31
0.0
 11
10.8949861084
 21
-21.4932520206
 31
0.0
 11
10.896123705
 21
-21.4962950425
 31
0.0
  0
SPLINE
  5
408
100
AcDbEntity
  8
RACCORDO
100
AcDbSpline
 62
253
  6
CONTINUOUS
 70
0
 71
3
 72
13
 73
9
 74
7
 42
0.0000001
 43
0.0000001
 44
0.0000000001
 12
-0.088234532
 22
-0.5054575056
 32
0.0
 13
-0.513097199
 23
-0.0019715479
 33
0.0
 40
0.0
 40
0.0
 40
0.0
 40
0.0
 40
0.0360042561
 40
0.1001362863
 40
0.1949955013
 40
0.3181533952
 40
0.6327352765
 40
1.0
 40
1.0
 40
1.0
 40
1.0
 10
10.8835184257
 20
-21.0706600114
 30
0.0
 10
10.8824594861
 20
-21.0767262186
 30
0.0
 10
10.8676618009
 20
-21.0892314884
 30
0.0
 10
10.8373523295
 20
-21.1008698436
 30
0.0
 10
10.7901300553
 20
-21.113140995
 30
0.0
 10
10.7004966
 20
-21.128381197
 30
0.0
 10
10.5630759756
 20
-21.1409899023
 30
0.0
 10
10.4465039304
 20
-21.1446091555
 30
0.0
 10
10.3836897634
 20
-21.1448505155
 30
0.0
 11
10.8835184257
 21
-21.0706600114
 31
0.0
 11
10.8717192165
 21
-21.0848748157
 31
0.0
 11
10.8418198595
 21
-21.0986169762
 31
0.0
 11
10.7948279967
 21
-21.1112962173
 31
0.0
 11
10.7326285682
 21
-21.1224548541
 31
0.0
 11
10.5720320074
 21
-21.1386618505
 31
0.0
 11
10.3836897634
 21
-21.1448505155
 31
0.0
  0
SPLINE
  5
409
100
AcDbEntity
  8
RACCORDO
100
AcDbSpline
 62
253
  6
CONTINUOUS
 70
0
 71
3
 72
18
 73
14
 74
12
 42
0.0000001
 43
0.0000001
 44
0.0000000001
 12
0.0016823596
 22
-0.8515322039
 32
0.0
 13
0.3811324475
 23
-0.7614774994
 33
0.0
 40
0.0
 40
0.0
 40
0.0
 40
0.0
 40
0.1988943665
 40
0.3865846316
 40
0.5571431421
 40
0.7055413725
 40
0.827222677
 40
0.876864522
 40
0.9185102001
 40
0.951867417
 40
0.9766623024
 40
0.9927278139
 40
1.0
 40
1.0
 40
1.0
 40
1.0
 10
10.3836897634
 20
-21.1448536428
 30
0.0
 10
10.3838013006
 20
-21.2013086288
 30
0.0
 10
10.3841412675
 20
-21.3110382468
 30
0.0
 10
10.3850261394
 20
-21.4691778087
 30
0.0
 10
10.3862456946
 20
-21.6129826239
 30
0.0
 10
10.3877649928
 20
-21.7380443583
 30
0.0
 10
10.3892930739
 20
-21.8287883275
 30
0.0
 10
10.3907130003
 20
-21.8892141827
 30
0.0
 10
10.391696045
 20
-21.9245973723
 30
0.0
 10
10.392831643
 20
-21.9528576582
 30
0.0
 10
10.3936461973
 20
-21.9740143497
 30
0.0
 10
10.3950916785
 20
-21.9874161264
 30
0.0
 10
10.3953711539
 20
-21.9942778363
 30
0.0
 10
10.3962950425
 20
-21.996123705
 30
0.0
 11
10.3836897634
 21
-21.1448536428
 31
0.0
 11
10.3842236536
 21
-21.31421809
 31
0.0
 11
10.3851338714
 21
-21.4740401152
 31
0.0
 11
10.3863939659
 21
-21.6192709965
 31
0.0
 11
10.3879656778
 21
-21.7456273406
 31
0.0
 11
10.3898005377
 21
-21.8492268448
 31
0.0
 11
10.3907992329
 21
-21.8914867579
 31
0.0
 11
10.3918421681
 21
-21.9269341239
 31
0.0
 11
10.3929213477
 21
-21.9553184158
 31
0.0
 11
10.3940287214
 21
-21.9764030406
 31
0.0
 11
10.395156065
 21
-21.9900368385
 31
0.0
 11
10.3962950425
 21
-21.996123705
 31
0.0
  0
SPLINE
  5
40A
100
AcDbEntity
  8
RACCORDO
100
AcDbSpline
 62
253
  6
CONTINUOUS
 70
0
 71
3
 72
13
 73
9
 74
7
 42
0.0000001
 43
0.0000001
 44
0.0000000001
 12
0.0882547917
 22
0.5054534557
 32
0.0
 13
0.5130966935
 23
0.0019715909
 33
0.0
 40
0.0
 40
0.0
 40
0.0
 40
0.0
 40
0.0360048012
 40
0.1001376528
 40
0.1949975684
 40
0.3181558583
 40
0.6327372359
 40
1.0
 40
1.0
 40
1.0
 40
1.0
 10
-10.8835184256
 20
21.0706600114
 30
0.0
 10
-10.8824592269
 20
21.0767262618
 30
0.0
 10
-10.8676611126
 20
21.08923123
 30
0.0
 10
-10.8373513015
 20
21.1008695679
 30
0.0
 10
-10.7901286858
 20
21.1131405286
 30
0.0
 10
-10.7004951905
 20
21.1283805289
 30
0.0
 10
-10.563075041
 20
21.1409890224
 30
0.0
 10
-10.4465035334
 20
21.1446082327
 30
0.0
 10
-10.3836897634
 20
21.1448495967
 30
0.0
 11
-10.8835184256
 21
21.0706600114
 31
0.0
 11
-10.8717186593
 21
21.0848746932
 31
0.0
 11
-10.8418188112
 21
21.0986167167
 31
0.0
 11
-10.7948265856
 21
21.1112958088
 31
0.0
 11
-10.7326269867
 21
21.1224542938
 31
0.0
 11
-10.572030819
 21
21.1386610305
 31
0.0
 11
-10.3836897634
 21
21.1448495967
 31
0.0
  0
SPLINE
  5
40B
100
AcDbEntity
  8
RACCORDO
100
AcDbSpline
 62
253
  6
CONTINUOUS
 70
0
 71
3
 72
18
 73
14
 74
12
 42
0.0000001
 43
0.0000001
 44
0.0000000001
 12
-0.0016796114
 22
0.8515321287
 32
0.0
 13
-0.3798899983
 23
0.7620980098
 33
0.0
 40
0.0
 40
0.0
 40
0.0
 40
0.0
 40
0.1988946718
 40
0.3865844975
 40
0.5571432388
 40
0.7055414064
 40
0.8272224866
 40
0.8768648301
 40
0.9185112279
 40
0.9518681021
 40
0.9766605451
 40
0.9927241964
 40
1.0
 40
1.0
 40
1.0
 40
1.0
 10
-10.3836897634
 20
21.1448536428
 30
0.0
 10
-10.3838011186
 20
21.2013087105
 30
0.0
 10
-10.3841411553
 20
21.3110382798
 30
0.0
 10
-10.3850264795
 20
21.4691778538
 30
0.0
 10
-10.3862457015
 20
21.6129825726
 30
0.0
 10
-10.3877636432
 20
21.7380443164
 30
0.0
 10
-10.3892924824
 20
21.8287882795
 30
0.0
 10
-10.3907126587
 20
21.8892144787
 30
0.0
 10
-10.3916959092
 20
21.9245977456
 30
0.0
 10
-10.3928307633
 20
21.9528579014
 30
0.0
 10
-10.3936473351
 20
21.9740121525
 30
0.0
 10
-10.3950902461
 20
21.9874158413
 30
0.0
 10
-10.3953737075
 20
21.9942754132
 30
0.0
 10
-10.3962950425
 20
21.996123705
 30
0.0
 11
-10.3836897634
 21
21.1448536428
 31
0.0
 11
-10.3842236089
 21
21.3142183341
 31
0.0
 11
-10.3851340796
 21
21.4740399685
 31
0.0
 11
-10.3863937383
 21
21.6192710363
 31
0.0
 11
-10.3879646906
 21
21.7456273245
 31
0.0
 11
-10.3898000065
 21
21.8492266198
 31
0.0
 11
-10.3907989115
 21
21.8914869485
 31
0.0
 11
-10.3918418524
 21
21.9269349241
 31
0.0
 11
-10.3929211014
 21
21.9553189186
 31
0.0
 11
-10.3940288536
 21
21.9764014388
 31
0.0
 11
-10.3951565278
 21
21.9900336187
 31
0.0
 11
-10.3962950425
 21
21.996123705
 31
0.0
  0
SPLINE
  5
40C
100
AcDbEntity
  8
RACCORDO
100
AcDbSpline
 62
253
  6
CONTINUOUS
 70
0
 71
3
 72
18
 73
14
 74
12
 42
0.0000001
 43
0.0000001
 44
0.0000000001
 12
-0.0016752103
 22
0.4261531694
 32
0.0
 13
-0.2998877673
 23
0.3027815338
 33
0.0
 40
0.0
 40
0.0
 40
0.0
 40
0.0
 40
0.1987373326
 40
0.3862751333
 40
0.5567042781
 40
0.7050026988
 40
0.8266180589
 40
0.8762511466
 40
0.9179095765
 40
0.9513029862
 40
0.9761659271
 40
0.9923692802
 40
1.0
 40
1.0
 40
1.0
 40
1.0
 10
-10.8835184259
 20
21.0706600114
 30
0.0
 10
-10.8836294015
 20
21.0988908595
 30
0.0
 10
-10.8839698382
 20
21.1537613267
 30
0.0
 10
-10.8848556243
 20
21.2328375058
 30
0.0
 10
-10.8860759456
 20
21.3047445434
 30
0.0
 10
-10.8875920202
 20
21.367276088
 30
0.0
 10
-10.8891254089
 20
21.4126494071
 30
0.0
 10
-10.8905362511
 20
21.4428521997
 30
0.0
 10
-10.8915385257
 20
21.4605548414
 30
0.0
 10
-10.8926229032
 20
21.4746575232
 30
0.0
 10
-10.8935636691
 20
21.4853123976
 30
0.0
 10
-10.8947772167
 20
21.4919077119
 30
0.0
 10
-10.8953609185
 20
21.4955248955
 30
0.0
 10
-10.896123705
 20
21.4962950425
 30
0.0
 11
-10.8835184259
 21
21.0706600114
 31
0.0
 11
-10.8840522848
 21
21.1553515273
 31
0.0
 11
-10.8849633442
 21
21.23526678
 31
0.0
 11
-10.8862233838
 21
21.3078853304
 31
0.0
 11
-10.8877943496
 21
21.3710641324
 31
0.0
 11
-10.8896286996
 21
21.4228588317
 31
0.0
 11
-10.8906271946
 21
21.4439867117
 31
0.0
 11
-10.8916700449
 21
21.4617090647
 31
0.0
 11
-10.8927495861
 21
21.4758988763
 31
0.0
 11
-10.8938580159
 21
21.4864362415
 31
0.0
 11
-10.8949861116
 21
21.4932486335
 31
0.0
 11
-10.896123705
 21
21.4962950425
 31
0.0
  0
SPLINE
  5
40D
100
AcDbEntity
  8
RACCORDO
100
AcDbSpline
 62
253
  6
CONTINUOUS
 70
0
 71
3
 72
18
 73
14
 74
12
 42
0.0000001
 43
0.0000001
 44
0.0000000001
 12
0.4046588755
 22
0.2938664622
 32
0.0
 13
0.5001062299
 23
0.0002487742
 33
0.0
 40
0.0
 40
0.0
 40
0.0
 40
0.0
 40
0.007424734
 40
0.023963389
 40
0.0495092421
 40
0.0838839704
 40
0.12684279
 40
0.1779184138
 40
0.3023243135
 40
0.452653641
 40
0.623446492
 40
0.8085434541
 40
1.0
 40
1.0
 40
1.0
 40
1.0
 10
-10.8579958269
 20
9.4905
 30
0.0
 10
-10.856994332
 20
9.4912272934
 30
0.0
 10
-10.8527407623
 20
9.4914797501
 30
0.0
 10
-10.8447711613
 20
9.492620303
 30
0.0
 10
-10.8319257983
 20
9.4932881319
 30
0.0
 10
-10.8148481753
 20
9.4941966858
 30
0.0
 10
-10.793437605
 20
9.4949805017
 30
0.0
 10
-10.7570486202
 20
9.4961007426
 30
0.0
 10
-10.702742075
 20
9.4972866756
 30
0.0
 10
-10.6284822257
 20
9.498425788
 30
0.0
 10
-10.5440977993
 20
9.4992886965
 30
0.0
 10
-10.4528556751
 20
9.4998375174
 30
0.0
 10
-10.3900833682
 20
9.499984123
 30
0.0
 10
-10.3581671644
 20
9.4999999995
 30
0.0
 11
-10.8579958269
 21
9.4905
 31
0.0
 11
-10.8543965377
 21
9.4914124945
 31
0.0
 11
-10.8461753715
 21
9.4923198424
 31
0.0
 11
-10.8334309235
 21
9.4932120709
 31
0.0
 11
-10.8162617892
 21
9.4940792071
 31
0.0
 11
-10.7947939529
 21
9.4949118081
 31
0.0
 11
-10.7692629545
 21
9.4957025516
 31
0.0
 11
-10.7070631885
 21
9.4971312967
 31
0.0
 11
-10.6318918415
 21
9.4983134973
 31
0.0
 11
-10.5464819333
 21
9.4992067812
 31
0.0
 11
-10.453915524
 21
9.499775334
 31
0.0
 11
-10.3581671644
 21
9.4999999995
 31
0.0
  0
SPLINE
  5
40E
100
AcDbEntity
  8
RACCORDO
100
AcDbSpline
 62
253
  6
CONTINUOUS
 70
0
 71
3
 72
18
 73
14
 74
12
 42
0.0000001
 43
0.0000001
 44
0.0000000001
 12
0.4046585973
 22
-0.2938668455
 32
0.0
 13
0.5001062301
 23
-0.0002487742
 33
0.0
 40
0.0
 40
0.0
 40
0.0
 40
0.0
 40
0.0074247295
 40
0.0239633806
 40
0.0495092304
 40
0.0838839562
 40
0.1268427739
 40
0.1779183965
 40
0.3023242959
 40
0.4526536254
 40
0.6234464804
 40
0.808543448
 40
1.0
 40
1.0
 40
1.0
 40
1.0
 10
-10.8579958269
 20
-9.4905
 30
0.0
 10
-10.8569943333
 20
-9.4912272939
 30
0.0
 10
-10.852740764
 20
-9.4914797498
 30
0.0
 10
-10.8447711658
 20
-9.4926203034
 30
0.0
 10
-10.831925804
 20
-9.4932881319
 30
0.0
 10
-10.8148481824
 20
-9.494196686
 30
0.0
 10
-10.7934376131
 20
-9.4949805019
 30
0.0
 10
-10.7570486288
 20
-9.4961007428
 30
0.0
 10
-10.7027420835
 20
-9.497286676
 30
0.0
 10
-10.6284822332
 20
-9.4984257884
 30
0.0
 10
-10.5440978049
 20
-9.4992886969
 30
0.0
 10
-10.452855678
 20
-9.4998375178
 30
0.0
 10
-10.3900833692
 20
-9.4999841235
 30
0.0
 10
-10.3581671644
 20
-9.5
 30
0.0
 11
-10.8579958269
 21
-9.4905
 31
0.0
 11
-10.85439654
 21
-9.4914124945
 31
0.0
 11
-10.8461753758
 21
-9.4923198425
 31
0.0
 11
-10.8334309295
 21
-9.493212071
 31
0.0
 11
-10.8162617965
 21
-9.4940792072
 31
0.0
 11
-10.794793961
 21
-9.4949118083
 31
0.0
 11
-10.7692629633
 21
-9.4957025518
 31
0.0
 11
-10.7070631974
 21
-9.497131297
 31
0.0
 11
-10.6318918494
 21
-9.4983134977
 31
0.0
 11
-10.5464819392
 21
-9.4992067816
 31
0.0
 11
-10.4539155271
 21
-9.4997753344
 31
0.0
 11
-10.3581671644
 21
-9.5
 31
0.0
  0
SPLINE
  5
40F
100
AcDbEntity
  8
RACCORDO
100
AcDbSpline
 62
253
  6
CONTINUOUS
 70
0
 71
3
 72
9
 73
5
 74
3
 42
0.0000001
 43
0.0000001
 44
0.0000000001
 12
0.0094453645
 22
18.9809980905
 32
0.0
 13
-0.0094453637
 23
18.9809980905
 33
0.0
 40
0.0
 40
0.0
 40
0.0
 40
0.0
 40
0.2499885537
 40
1.0
 40
1.0
 40
1.0
 40
1.0
 10
-10.8579958269
 20
-9.4905
 30
0.0
 10
-10.8572087492
 20
-7.9088225799
 30
0.0
 10
-10.8548476941
 20
-1.5818228491
 30
0.0
 10
-10.8556344499
 20
4.7451780566
 30
0.0
 10
-10.8579958269
 20
9.4905
 30
0.0
 11
-10.8579958269
 21
-9.4905
 31
0.0
 11
-10.8562249959
 21
-4.7454674827
 31
0.0
 11
-10.8579958269
 21
9.4905
 31
0.0
  0
SPLINE
  5
410
100
AcDbEntity
  8
RACCORDO
100
AcDbSpline
 62
253
  6
CONTINUOUS
 70
0
 71
3
 72
13
 73
9
 74
7
 42
0.0000001
 43
0.0000001
 44
0.0000000001
 12
0.088153203
 22
-0.5054735113
 32
0.0
 13
0.5130989869
 23
-0.0019716643
 33
0.0
 40
0.0
 40
0.0
 40
0.0
 40
0.0
 40
0.0360019869
 40
0.1001309778
 40
0.1949878058
 40
0.3181444984
 40
0.6327284528
 40
1.0
 40
1.0
 40
1.0
 40
1.0
 10
-10.8835184259
 20
-21.0706600114
 30
0.0
 10
-10.882460529
 20
-21.0767260283
 30
0.0
 10
-10.8676643939
 20
-21.0892324099
 30
0.0
 10
-10.8373562002
 20
-21.100870707
 30
0.0
 10
-10.7901350803
 20
-21.1131425192
 30
0.0
 10
-10.7005016663
 20
-21.1283833721
 30
0.0
 10
-10.5630792913
 20
-21.1409928203
 30
0.0
 10
-10.4465053163
 20
-21.1446122601
 30
0.0
 10
-10.3836897634
 20
-21.1448536388
 30
0.0
 11
-10.8835184259
 21
-21.0706600114
 31
0.0
 11
-10.8717213943
 21
-21.0848751937
 31
0.0
 11
-10.8418238308
 21
-21.0986177967
 31
0.0
 11
-10.7948331939
 21
-21.1112975305
 31
0.0
 11
-10.7326342593
 21
-21.1224566772
 31
0.0
 11
-10.5720361544
 21
-21.1386645706
 31
0.0
 11
-10.3836897634
 21
-21.1448536388
 31
0.0
  0
SPLINE
  5
411
100
AcDbEntity
  8
RACCORDO
100
AcDbSpline
 62
253
  6
CONTINUOUS
 70
0
 71
3
 72
18
 73
14
 74
12
 42
0.0000001
 43
0.0000001
 44
0.0000000001
 12
0.3811324407
 22
0.7614775028
 32
0.0
 13
0.0016823596
 23
0.8515322039
 33
0.0
 40
0.0
 40
0.0
 40
0.0
 40
0.0
 40
0.0072721861
 40
0.0233376976
 40
0.048132583
 40
0.0814897999
 40
0.123135478
 40
0.172777323
 40
0.2944586275
 40
0.4428568579
 40
0.6134153684
 40
0.8011056335
 40
1.0
 40
1.0
 40
1.0
 40
1.0
 10
-10.3962950425
 20
-21.996123705
 30
0.0
 10
-10.3953711539
 20
-21.9942778363
 30
0.0
 10
-10.3950916785
 20
-21.9874161264
 30
0.0
 10
-10.3936461973
 20
-21.9740143497
 30
0.0
 10
-10.392831643
 20
-21.9528576582
 30
0.0
 10
-10.391696045
 20
-21.9245973723
 30
0.0
 10
-10.3907130003
 20
-21.8892141827
 30
0.0
 10
-10.3892930739
 20
-21.8287883275
 30
0.0
 10
-10.3877649928
 20
-21.7380443583
 30
0.0
 10
-10.3862456946
 20
-21.6129826239
 30
0.0
 10
-10.3850261394
 20
-21.4691778087
 30
0.0
 10
-10.3841412675
 20
-21.3110382468
 30
0.0
 10
-10.3838013006
 20
-21.2013086288
 30
0.0
 10
-10.3836897634
 20
-21.1448536428
 30
0.0
 11
-10.3962950425
 21
-21.996123705
 31
0.0
 11
-10.3951560651
 21
-21.9900368385
 31
0.0
 11
-10.3940287214
 21
-21.9764030406
 31
0.0
 11
-10.3929213477
 21
-21.9553184158
 31
0.0
 11
-10.3918421681
 21
-21.9269341239
 31
0.0
 11
-10.3907992329
 21
-21.8914867579
 31
0.0
 11
-10.3898005377
 21
-21.8492268448
 31
0.0
 11
-10.3879656778
 21
-21.7456273406
 31
0.0
 11
-10.3863939659
 21
-21.6192709965
 31
0.0
 11
-10.3851338714
 21
-21.4740401151
 31
0.0
 11
-10.3842236536
 21
-21.31421809
 31
0.0
 11
-10.3836897634
 21
-21.1448536428
 31
0.0
  0
SPLINE
  5
412
100
AcDbEntity
  8
RACCORDO
100
AcDbSpline
 62
253
  6
CONTINUOUS
 70
0
 71
3
 72
18
 73
14
 74
12
 42
0.0000001
 43
0.0000001
 44
0.0000000001
 12
0.3009410873
 22
0.3017348702
 32
0.0
 13
0.001677308
 23
0.4261533252
 33
0.0
 40
0.0
 40
0.0
 40
0.0
 40
0.0
 40
0.0076232742
 40
0.0238322207
 40
0.0487026071
 40
0.082098779
 40
0.1237566256
 40
0.1733876381
 40
0.2949977671
 40
0.4432923897
 40
0.6137219741
 40
0.8012630905
 40
1.0
 40
1.0
 40
1.0
 40
1.0
 10
-10.896123705
 20
-21.4962950425
 30
0.0
 10
-10.8953589862
 20
-21.4955283067
 30
0.0
 10
-10.8947784054
 20
-21.4919069711
 30
0.0
 10
-10.8935629111
 20
-21.485314357
 30
0.0
 10
-10.8926233774
 20
-21.4746554156
 30
0.0
 10
-10.8915384592
 20
-21.4605521015
 30
0.0
 10
-10.8905363453
 20
-21.442849168
 30
0.0
 10
-10.8891254047
 20
-21.4126476094
 30
0.0
 10
-10.8875920142
 20
-21.3672757762
 30
0.0
 10
-10.8860758615
 20
-21.3047454606
 30
0.0
 10
-10.8848555
 20
-21.2328383915
 30
0.0
 10
-10.8839698719
 20
-21.1537617096
 30
0.0
 10
-10.8836295402
 20
-21.0988908097
 30
0.0
 10
-10.8835184259
 20
-21.0706600114
 30
0.0
 11
-10.896123705
 21
-21.4962950425
 31
0.0
 11
-10.8949861084
 21
-21.4932520206
 31
0.0
 11
-10.8938580151
 21
-21.4864372094
 31
0.0
 11
-10.8927495948
 21
-21.4758966486
 31
0.0
 11
-10.8916700681
 21
-21.4617056499
 31
0.0
 11
-10.8906272285
 21
-21.4439835384
 31
0.0
 11
-10.8896287321
 21
-21.4228565357
 31
0.0
 11
-10.8877943472
 21
-21.3710640484
 31
0.0
 11
-10.8862233282
 21
-21.3078868425
 31
0.0
 11
-10.8849632581
 21
-21.2352680772
 31
0.0
 11
-10.8840523098
 21
-21.1553513795
 31
0.0
 11
-10.8835184259
 21
-21.0706600114
 31
0.0
  0
SPLINE
  5
413
100
AcDbEntity
  8
RACCORDO
100
AcDbSpline
 62
253
  6
CONTINUOUS
 70
0
 71
3
 72
19
 73
15
 74
13
 42
0.0000001
 43
0.0000001
 44
0.0000000001
 12
-0.0130877008
 22
-0.5001418392
 32
0.0
 13
0.5001416045
 23
-0.0130966688
 33
0.0
 40
0.0
 40
0.0
 40
0.0
 40
0.0
 40
0.1947074285
 40
0.3822844652
 40
0.5549293172
 40
0.7062473004
 40
0.772106391
 40
0.8305267082
 40
0.8809371956
 40
0.9229060532
 40
0.9560147946
 40
0.9799328603
 40
0.9945375087
 40
1.0
 40
1.0
 40
1.0
 40
1.0
 10
-24.5754138329
 20
-21.4962950425
 30
0.0
 10
-24.5762632571
 20
-21.5287554864
 30
0.0
 10
-24.5777686039
 20
-21.5924919096
 30
0.0
 10
-24.5794725839
 20
-21.6850232167
 30
0.0
 10
-24.5805386732
 20
-21.7703258042
 30
0.0
 10
-24.5808879494
 20
-21.835340174
 30
0.0
 10
-24.5807781722
 20
-21.8812960698
 30
0.0
 10
-24.5805297702
 20
-21.9104427527
 30
0.0
 10
-24.580101011
 20
-21.9355455408
 30
0.0
 10
-24.5795439457
 20
-21.956587891
 30
0.0
 10
-24.57875619
 20
-21.9727634096
 30
0.0
 10
-24.5780465459
 20
-21.9854156957
 30
0.0
 10
-24.576889293
 20
-21.9913743163
 30
0.0
 10
-24.576324506
 20
-21.9960998582
 30
0.0
 10
-24.5754138329
 20
-21.996123705
 30
0.0
 11
-24.5754138329
 21
-21.4962950425
 31
0.0
 11
-24.5777106877
 21
-21.5936826283
 31
0.0
 11
-24.5794220728
 21
-21.6875142619
 31
0.0
 11
-24.5804738098
 21
-21.7738843309
 31
0.0
 11
-24.5808280593
 21
-21.8495898637
 31
0.0
 11
-24.5807394838
 21
-21.8825399071
 31
0.0
 11
-24.5804738093
 21
-21.9117671467
 31
0.0
 11
-24.5800331073
 21
-21.9369843207
 31
0.0
 11
-24.5794220719
 21
-21.9579729953
 31
0.0
 11
-24.5786455834
 21
-21.9745195213
 31
0.0
 11
-24.577710687
 21
-21.9864494659
 31
0.0
 11
-24.5766292599
 21
-21.993675893
 31
0.0
 11
-24.5754138329
 21
-21.996123705
 31
0.0
  0
SPLINE
  5
414
100
AcDbEntity
  8
RACCORDO
100
AcDbSpline
 62
253
  6
CONTINUOUS
 70
0
 71
3
 72
22
 73
18
 74
16
 42
0.0000001
 43
0.0000001
 44
0.0000000001
 12
-0.481653557
 22
-0.0723209362
 32
0.0
 13
0.0724631308
 23
-0.4816321848
 33
0.0
 40
0.0
 40
0.0
 40
0.0
 40
0.0
 40
0.1960563218
 40
0.3846106525
 40
0.557549325
 40
0.7086399409
 40
0.7742247962
 40
0.8323860879
 40
0.8826027866
 40
0.9243539042
 40
0.95717633
 40
0.9701632404
 40
0.9808383283
 40
0.9891799712
 40
0.9951667557
 40
0.998778035
 40
1.0
 40
1.0
 40
1.0
 40
1.0
 10
-25.0567900239
 20
-21.0706600114
 30
0.0
 10
-25.0882670988
 20
-21.075386337
 30
0.0
 10
-25.1500133171
 20
-21.0846813463
 30
0.0
 10
-25.2395132118
 20
-21.0982236945
 30
0.0
 10
-25.3217840555
 20
-21.1107467928
 30
0.0
 10
-25.3843077345
 20
-21.1203316345
 30
0.0
 10
-25.4284048759
 20
-21.127144256
 30
0.0
 10
-25.4563119667
 20
-21.1314831829
 30
0.0
 10
-25.480393937
 20
-21.1352551943
 30
0.0
 10
-25.5003981008
 20
-21.1384281384
 30
0.0
 10
-25.5144473549
 20
-21.1406795268
 30
0.0
 10
-25.5234740868
 20
-21.1421790808
 30
0.0
 10
-25.5286448361
 20
-21.1430149821
 30
0.0
 10
-25.5325243072
 20
-21.1437664206
 30
0.0
 10
-25.5356654614
 20
-21.1441449042
 30
0.0
 10
-25.5369035149
 20
-21.1447299501
 30
0.0
 10
-25.5381749239
 20
-21.1446543363
 30
0.0
 10
-25.5381454081
 20
-21.1448505155
 30
0.0
 11
-25.0567900239
 21
-21.0706600114
 31
0.0
 11
-25.1512158621
 21
-21.0848748157
 31
0.0
 11
-25.242017787
 21
-21.0986169762
 31
0.0
 11
-25.3252882826
 21
-21.1112962173
 31
0.0
 11
-25.3980264598
 21
-21.1224548541
 31
0.0
 11
-25.4295949796
 21
-21.1273336166
 31
0.0
 11
-25.4575860801
 21
-21.1316870598
 31
0.0
 11
-25.4817489783
 21
-21.1354761491
 31
0.0
 11
-25.5018328908
 21
-21.1386618505
 31
0.0
 11
-25.5176148864
 21
-21.1412091989
 31
0.0
 11
-25.5238560703
 21
-21.1422373963
 31
0.0
 11
-25.5289834302
 21
-21.1430995059
 31
0.0
 11
-25.532986505
 21
-21.1437937001
 31
0.0
 11
-25.5358548336
 21
-21.1443181514
 31
0.0
 11
-25.537577955
 21
-21.1446710324
 31
0.0
 11
-25.5381454081
 21
-21.1448505155
 31
0.0
  0
SPLINE
  5
415
100
AcDbEntity
  8
RACCORDO
100
AcDbSpline
 62
253
  6
CONTINUOUS
 70
0
 71
3
 72
22
 73
18
 74
16
 42
0.0000001
 43
0.0000001
 44
0.0000000001
 12
-0.4816743241
 22
0.0723240201
 32
0.0
 13
0.0722758383
 23
0.4816815562
 33
0.0
 40
0.0
 40
0.0
 40
0.0
 40
0.0
 40
0.1960531793
 40
0.3846055667
 40
0.5575436412
 40
0.7086348066
 40
0.7742202746
 40
0.8323823208
 40
0.8825998448
 40
0.9243517875
 40
0.957174967
 40
0.9701622107
 40
0.9808375964
 40
0.9891794964
 40
0.9951664921
 40
0.9987779319
 40
1.0
 40
1.0
 40
1.0
 40
1.0
 10
-25.0567900239
 20
21.0706600114
 30
0.0
 10
-25.0882679514
 20
21.0753864628
 30
0.0
 10
-25.1500160155
 20
21.0846817452
 30
0.0
 10
-25.239518857
 20
21.0982245309
 30
0.0
 10
-25.3217929288
 20
21.1107481105
 30
0.0
 10
-25.3843193951
 20
21.1203333695
 30
0.0
 10
-25.4284187461
 20
21.1271463232
 30
0.0
 10
-25.456327393
 20
21.131485485
 30
0.0
 10
-25.4804107875
 20
21.135257712
 30
0.0
 10
-25.5004162024
 20
21.1384308467
 30
0.0
 10
-25.5144663648
 20
21.140682373
 30
0.0
 10
-25.5234937164
 20
21.1421820237
 30
0.0
 10
-25.5286648156
 20
21.1430179757
 30
0.0
 10
-25.5325446183
 20
21.1437694751
 30
0.0
 10
-25.5356859179
 20
21.1441479597
 30
0.0
 10
-25.5369242566
 20
21.1447330941
 30
0.0
 10
-25.5381956128
 20
21.1446574203
 30
0.0
 10
-25.5381661708
 20
21.1448536361
 30
0.0
 11
-25.0567900239
 21
21.0706600114
 31
0.0
 11
-25.15121842
 21
21.0848751934
 31
0.0
 11
-25.2420233244
 21
21.098617796
 31
0.0
 11
-25.325297123
 21
21.1112975296
 31
0.0
 11
-25.398038702
 21
21.1224566761
 31
0.0
 11
-25.4296088785
 21
21.127335688
 31
0.0
 11
-25.4576015499
 21
21.1316893683
 31
0.0
 11
-25.4817658879
 21
21.1354786758
 31
0.0
 11
-25.5018510644
 21
21.1386645694
 31
0.0
 11
-25.517634104
 21
21.1412120776
 31
0.0
 11
-25.5238757179
 21
21.1422403411
 31
0.0
 11
-25.5290034426
 21
21.1431025071
 31
0.0
 11
-25.5330068142
 21
21.1437967475
 31
0.0
 11
-25.5358753687
 21
21.1443212345
 31
0.0
 11
-25.5375986422
 21
21.14467414
 31
0.0
 11
-25.5381661708
 21
21.1448536361
 31
0.0
  0
SPLINE
  5
416
100
AcDbEntity
  8
RACCORDO
100
AcDbSpline
 62
253
  6
CONTINUOUS
 70
0
 71
3
 72
19
 73
15
 74
13
 42
0.0000001
 43
0.0000001
 44
0.0000000001
 12
-0.0130876983
 22
0.5001418392
 32
0.0
 13
0.5001416043
 23
0.0130966688
 33
0.0
 40
0.0
 40
0.0
 40
0.0
 40
0.0
 40
0.1947074111
 40
0.3822844117
 40
0.554929257
 40
0.7062472514
 40
0.7721063503
 40
0.8305266715
 40
0.8809371677
 40
0.9229060358
 40
0.9560147831
 40
0.9799328536
 40
0.994537507
 40
1.0
 40
1.0
 40
1.0
 40
1.0
 10
-24.5754138329
 20
21.4962950425
 30
0.0
 10
-24.5762632569
 20
21.5287554834
 30
0.0
 10
-24.5777686032
 20
21.5924918978
 30
0.0
 10
-24.5794725822
 20
21.6850231948
 30
0.0
 10
-24.5805386709
 20
21.770325777
 30
0.0
 10
-24.5808879464
 20
21.835340149
 30
0.0
 10
-24.5807781689
 20
21.8812960486
 30
0.0
 10
-24.5805297663
 20
21.9104427351
 30
0.0
 10
-24.5801010066
 20
21.935545527
 30
0.0
 10
-24.5795439411
 20
21.9565878814
 30
0.0
 10
-24.5787561846
 20
21.9727634034
 30
0.0
 10
-24.5780465407
 20
21.9854156926
 30
0.0
 10
-24.5768892868
 20
21.9913743141
 30
0.0
 10
-24.5763245012
 20
21.9960998583
 30
0.0
 10
-24.5754138278
 20
21.9961237052
 30
0.0
 11
-24.5754138329
 21
21.4962950425
 31
0.0
 11
-24.577710687
 21
21.5936826196
 31
0.0
 11
-24.5794220711
 21
21.6875142351
 31
0.0
 11
-24.5804738073
 21
21.7738843008
 31
0.0
 11
-24.5808280562
 21
21.8495898391
 31
0.0
 11
-24.5807394803
 21
21.8825398867
 31
0.0
 11
-24.5804738054
 21
21.9117671282
 31
0.0
 11
-24.5800331029
 21
21.9369843066
 31
0.0
 11
-24.5794220671
 21
21.9579729865
 31
0.0
 11
-24.5786455781
 21
21.9745195154
 31
0.0
 11
-24.5777106815
 21
21.9864494625
 31
0.0
 11
-24.5766292545
 21
21.993675892
 31
0.0
 11
-24.5754138278
 21
21.9961237052
 31
0.0
  0
ELLIPSE
  5
417
100
AcDbEntity
  8
RACCORDO
100
AcDbEllipse
 62
7
  6
CONTINUOUS
 10
10.4998286038
 20
21.5998286038
 30
0.0
 11
0.35379574
 21
0.35379574
 31
0.0
 40
0.999315002
 41
-0.7850555471
 42
0.7850555471
  0
ELLIPSE
  5
418
100
AcDbEntity
  8
RACCORDO
100
AcDbEllipse
 62
7
  6
CONTINUOUS
 10
10.4998286038
 20
-21.5998286038
 30
0.0
 11
0.35379574
 21
-0.35379574
 31
0.0
 40
0.999315002
 41
-0.7850555471
 42
0.7850555471
  0
ELLIPSE
  5
419
100
AcDbEntity
  8
RACCORDO
100
AcDbEllipse
 62
7
  6
CONTINUOUS
 10
-10.4998286038
 20
21.5998286038
 30
0.0
 11
0.35379574
 21
-0.35379574
 31
0.0
 40
0.999315002
 41
2.3565371065
 42
3.9266482007
  0
ELLIPSE
  5
41A
100
AcDbEntity
  8
RACCORDO
100
AcDbEllipse
 62
7
  6
CONTINUOUS
 10
-10.4998286038
 20
-21.5998286038
 30
0.0
 11
0.35379574
 21
0.35379574
 31
0.0
 40
0.999315002
 41
2.3565371065
 42
3.9266482006
  0
ELLIPSE
  5
41B
100
AcDbEntity
  8
DRAFT
100
AcDbEllipse
 62
7
  6
CONTINUOUS
 10
4.5
 20
-8.95
 30
0.0
 11
-0.0
 21
0.2
 31
0.0
 40
0.0087268678
 41
1.5620696805
 42
2.1252382895
  0
ELLIPSE
  5
41C
100
AcDbEntity
  8
DRAFT
100
AcDbEllipse
 62
7
  6
CONTINUOUS
 10
4.5
 20
-16.05
 30
0.0
 11
0.0
 21
0.2
 31
0.0
 40
0.0087268678
 41
1.016355259
 42
1.5795229731
  0
ELLIPSE
  5
41D
100
AcDbEntity
  8
DRAFT
100
AcDbEllipse
 62
7
  6
CONTINUOUS
 10
-4.5
 20
-16.05
 30
0.0
 11
0.0
 21
0.2
 31
0.0
 40
0.0087268678
 41
-1.5795229731
 42
-1.0163543641
  0
ELLIPSE
  5
41E
100
AcDbEntity
  8
DRAFT
100
AcDbEllipse
 62
7
  6
CONTINUOUS
 10
-4.5
 20
-8.95
 30
0.0
 11
-0.0
 21
0.2
 31
0.0
 40
0.0087268678
 41
-2.1252373946
 42
-1.5620696805
  0
ENDSEC
  0
SECTION
  2
OBJECTS
  0
DICTIONARY
  5
C
100
AcDbDictionary
280
0
281
1
  3
ACAD_GROUP
350
D
  3
ACAD_MLINESTYLE
350
17
  3
ACAD_LAYOUT
350
1A
  3
ACAD_PLOTSETTINGS
350
19
  3
ACAD_PLOTSTYLENAME
350
E
  0
DICTIONARY
  5
D
102
{ACAD_REACTORS
330
C
102
}
100
AcDbDictionary
280
0
281
1
  0
ACDBDICTIONARYWDFLT
  5
E
102
{ACAD_REACTORS
330
C
102
}
100
AcDbDictionary
281
1
  3
Normal
350
F
100
AcDbDictionaryWithDefault
340
F
  0
DICTIONARY
  5
17
102
{ACAD_REACTORS
330
C
102
}
100
AcDbDictionary
280
0
281
1
  3
Standard
350
18
  0
DICTIONARY
  5
19
102
{ACAD_REACTORS
330
C
102
}
100
AcDbDictionary
281
1
  0
DICTIONARY
  5
1A
102
{ACAD_REACTORS
330
C
102
}
100
AcDbDictionary
281
1
  3
Model
350
41F
  3
Layout1
350
420
  0
ACDBPLACEHOLDER
  5
F
102
{ACAD_REACTORS
330
E
102
}
  0
MLINESTYLE
  5
18
102
{ACAD_REACTORS
330
17
102
}
100
AcDbMlineStyle
  2
STANDARD
 70
0
  3

 62
256
 51
90.0
 52
90.0
 71
2
 49
0.5
 62
256
  6
BYLAYER
 49
-0.5
 62
256
  6
BYLAYER
  0
LAYOUT
  5
41F
102
{ACAD_REACTORS
330
1A
102
}
100
AcDbPlotSettings
  1

  2
none_device
  4
ISO_A4_(297.00_x_210.00_MM)
  6

 40
0.0
 41
0.0
 42
0.0
 43
0.0
 44
297.0
 45
210.0
 46
0.0
 47
0.0
 48
0.0
 49
0.0
140
0.0
141
0.0
142
1.0
143
1.0
 70
1024
 72
1
 73
0
 74
0
  7

 75
0
147
1.0
148
0.0
149
0.0
100
AcDbLayout
  1
Model
 70
0
 71
0
 10
0.0
 20
0.0
 11
297.0
 21
210.0
 12
0.0
 22
0.0
 32
0.0
 14
0.0
 24
0.0
 34
0.0
 15
0.0
 25
0.0
 35
0.0
146
0.0
 13
0.0
 23
0.0
 33
0.0
 16
1.0
 26
0.0
 36
0.0
 17
0.0
 27
1.0
 37
0.0
 76
0
330
211
345
0
346
0
  0
LAYOUT
  5
420
102
{ACAD_REACTORS
330
1A
102
}
100
AcDbPlotSettings
  1

  2
none_device
  4
ISO_A4_(297.00_x_210.00_MM)
  6

 40
0.0
 41
0.0
 42
0.0
 43
0.0
 44
297.0
 45
210.0
 46
0.0
 47
0.0
 48
0.0
 49
0.0
140
0.0
141
0.0
142
1.0
143
1.0
 70
0
 72
1
 73
0
 74
0
  7

 75
0
147
1.0
148
0.0
149
0.0
100
AcDbLayout
  1
Layout1
 70
0
 71
1
 10
0.0
 20
0.0
 11
297.0
 21
210.0
 12
0.0
 22
0.0
 32
0.0
 14
0.0
 24
0.0
 34
0.0
 15
0.0
 25
0.0
 35
0.0
146
0.0
 13
0.0
 23
0.0
 33
0.0
 16
1.0
 26
0.0
 36
0.0
 17
0.0
 27
1.0
 37
0.0
 76
0
330
212
345
0
346
0
  0
ENDSEC
  0
EOF
