  0
SECTION
  2
HEADER
  9
$ACADVER
  1
AC1015
  9
$DWGCODEPAGE
  3
ANSI_1252
  9
$EXTMAX
 10
297.0
 20
210.0
 30
0.0
  9
$EXTMIN
 10
0.0
 20
0.0
 30
0.0
  9
$LIMMIN
 10
0.0
 20
0.0
  9
$LIMMAX
 10
297.0
 20
210.0
  9
$VIEWCTR
 10
148.5
 20
105.0
  9
$VIEWSIZE
 40
210.0
  9
$CLAYER
  8
0
  9
$LTSCALE
 40
16.335
  9
$CELTYPE
  6
BYLAYER
  9
$DIMSCALE
 40
1.0
  9
$DIMASZ
 40
3.0
  9
$DIMEXO
 40
1.85625
  9
$DIMDLI
 40
11.286
  9
$DIMEXE
 40
5.346
  9
$DIMCEN
 40
2.673
  9
$DIMLFAC
 40
1.0
  9
$DIMBLK
  1
_FILLED
  9
$DIMTXT
 40
3.0
  9
$DIMTOL
 70
1
  9
$DIMLIM
 70
0
  9
$DIMTFAC
 40
1.0
  9
$DIMTP
 40
0.01
  9
$DIMTM
 40
0.01
  9
$PDMODE
 70
3
  9
$PDSIZE
 40
3.0
  9
$HANDSEED
  5
5BB
  9
$TILEMODE
 70
1
  9
$MEASUREMENT
 70
1
  9
$INSUNITS
 70
4
  0
ENDSEC
  0
SECTION
  2
CLASSES
  0
CLASS
  1
ACDBDICTIONARYWDFLT
  2
AcDbDictionaryWithDefault
  3
AutoCAD 2000
 90
0
280
0
281
0
  0
CLASS
  1
ACDBPLACEHOLDER
  2
AcDbPlaceHolder
  3
AutoCAD 2000
 90
0
280
0
281
0
  0
CLASS
  1
LAYOUT
  2
AcDbLayout
  3
AutoCAD 2000
 90
0
280
0
281
0
  0
ENDSEC
  0
SECTION
  2
TABLES
  0
TABLE
  2
VPORT
  5
8
100
AcDbSymbolTable
 70
2
  0
VPORT
  5
1F4
100
AcDbSymbolTableRecord
100
AcDbViewportTableRecord
  2
*ACTIVE
 70
0
 10
0.0
 20
0.0
 11
1.0
 21
1.0
 12
148.5
 22
105.0
 13
0.0
 23
0.0
 14
1.0
 24
1.0
 15
0.0
 25
0.0
 16
0.0
 26
0.0
 36
1.0
 17
0.0
 27
0.0
 37
0.0
 40
210.0
 41
1.4142857143
 42
50.0
 43
0.0
 44
0.0
 50
0.0
 51
0.0
 71
0
 72
100
 73
1
 74
1
 75
0
 76
0
 77
0
 78
0
  0
ENDTAB
  0
TABLE
  2
LTYPE
  5
5
100
AcDbSymbolTable
 70
6
  0
LTYPE
  5
14
100
AcDbSymbolTableRecord
100
AcDbLinetypeTableRecord
  2
BYBLOCK
 70
0
  3

 72
65
 73
0
 40
0.0
  0
LTYPE
  5
15
100
AcDbSymbolTableRecord
100
AcDbLinetypeTableRecord
  2
BYLAYER
 70
0
  3

 72
65
 73
0
 40
0.0
  0
LTYPE
  5
16
100
AcDbSymbolTableRecord
100
AcDbLinetypeTableRecord
  2
CONTINUOUS
 70
64
  3
Solid line
 72
65
 73
0
 40
0.0
  0
LTYPE
  5
1F5
100
AcDbSymbolTableRecord
100
AcDbLinetypeTableRecord
  2
CENTER
 70
64
  3
____ _ ____ _ ____ _ ____ _ ____ _ ____ _ ____
 72
65
 73
4
 40
0.6
 49
0.375
 74
0
 49
-0.075
 74
0
 49
0.075
 74
0
 49
-0.075
 74
0
  0
LTYPE
  5
1F6
100
AcDbSymbolTableRecord
100
AcDbLinetypeTableRecord
  2
HIDDEN
 70
64
  3
- - - - - - - - - - - - - - - - - - - -
 72
65
 73
2
 40
0.2
 49
0.1
 74
0
 49
-0.1
 74
0
  0
LTYPE
  5
1F7
100
AcDbSymbolTableRecord
100
AcDbLinetypeTableRecord
  2
PHANTOM
 70
64
  3
_____ _ _ _____ _ _ _____ _ _ _____
 72
65
 73
6
 40
0.8
 49
0.45
 74
0
 49
-0.05
 74
0
 49
0.1
 74
0
 49
-0.05
 74
0
 49
0.1
 74
0
 49
-0.05
 74
0
  0
LTYPE
  5
1F8
100
AcDbSymbolTableRecord
100
AcDbLinetypeTableRecord
  2
DOT
 70
64
  3
. . . . . . . . . . . . . . . . . . . .
 72
65
 73
2
 40
0.2
 49
0.1
 74
0
 49
-0.1
 74
0
  0
LTYPE
  5
1F9
100
AcDbSymbolTableRecord
100
AcDbLinetypeTableRecord
  2
DASHED
 70
64
  3
- - - - - - - - - - - - - - - - - - - -
 72
65
 73
2
 40
0.2
 49
0.1
 74
0
 49
-0.1
 74
0
  0
ENDTAB
  0
TABLE
  2
LAYER
  5
2
100
AcDbSymbolTable
 70
36
  0
LAYER
  5
10
100
AcDbSymbolTableRecord
100
AcDbLayerTableRecord
  2
0
 70
0
 62
7
  6
CONTINUOUS
370
-3
390
F
  0
LAYER
  5
1FA
100
AcDbSymbolTableRecord
100
AcDbLayerTableRecord
  2
DEFAULT_1
 70
0
 62
7
  6
CENTER
370
-3
390
F
  0
LAYER
  5
1FB
100
AcDbSymbolTableRecord
100
AcDbLayerTableRecord
  2
DEFAULT_2
 70
0
 62
7
  6
HIDDEN
370
-3
390
F
  0
LAYER
  5
1FC
100
AcDbSymbolTableRecord
100
AcDbLayerTableRecord
  2
DEFAULT_3
 70
0
 62
7
  6
PHANTOM
370
-3
390
F
  0
LAYER
  5
1FD
100
AcDbSymbolTableRecord
100
AcDbLayerTableRecord
  2
ASSI
 70
0
 62
7
  6
CONTINUOUS
370
-3
390
F
  0
LAYER
  5
1FE
100
AcDbSymbolTableRecord
100
AcDbLayerTableRecord
  2
COLOR5
 70
0
 62
7
  6
CONTINUOUS
370
-3
390
F
  0
LAYER
  5
1FF
100
AcDbSymbolTableRecord
100
AcDbLayerTableRecord
  2
COORDINATE
 70
0
 62
7
  6
CONTINUOUS
370
-3
390
F
  0
LAYER
  5
200
100
AcDbSymbolTableRecord
100
AcDbLayerTableRecord
  2
COORD_ORIGINE
 70
0
 62
7
  6
CONTINUOUS
370
-3
390
F
  0
LAYER
  5
201
100
AcDbSymbolTableRecord
100
AcDbLayerTableRecord
  2
COPY_PUBLISH
 70
0
 62
7
  6
CONTINUOUS
370
-3
390
F
  0
LAYER
  5
202
100
AcDbSymbolTableRecord
100
AcDbLayerTableRecord
  2
COSMETIC
 70
0
 62
7
  6
CONTINUOUS
370
-3
390
F
  0
LAYER
  5
203
100
AcDbSymbolTableRecord
100
AcDbLayerTableRecord
  2
COSMETICHE
 70
0
 62
7
  6
CONTINUOUS
370
-3
390
F
  0
LAYER
  5
204
100
AcDbSymbolTableRecord
100
AcDbLayerTableRecord
  2
CURVE
 70
0
 62
7
  6
CONTINUOUS
370
-3
390
F
  0
LAYER
  5
205
100
AcDbSymbolTableRecord
100
AcDbLayerTableRecord
  2
DRAFT
 70
0
 62
7
  6
CONTINUOUS
370
-3
390
F
  0
LAYER
  5
206
100
AcDbSymbolTableRecord
100
AcDbLayerTableRecord
  2
IMPORT_IGES
 70
0
 62
7
  6
CONTINUOUS
370
-3
390
F
  0
LAYER
  5
207
100
AcDbSymbolTableRecord
100
AcDbLayerTableRecord
  2
INTFCLR_17
 70
0
 62
7
  6
CONTINUOUS
370
-3
390
F
  0
LAYER
  5
208
100
AcDbSymbolTableRecord
100
AcDbLayerTableRecord
  2
INTFCLR_3
 70
0
 62
7
  6
CONTINUOUS
370
-3
390
F
  0
LAYER
  5
209
100
AcDbSymbolTableRecord
100
AcDbLayerTableRecord
  2
INTF_1
 70
0
 62
7
  6
CONTINUOUS
370
-3
390
F
  0
LAYER
  5
20A
100
AcDbSymbolTableRecord
100
AcDbLayerTableRecord
  2
INTF_2
 70
0
 62
7
  6
CONTINUOUS
370
-3
390
F
  0
LAYER
  5
20B
100
AcDbSymbolTableRecord
100
AcDbLayerTableRecord
  2
INTF_8
 70
0
 62
7
  6
CONTINUOUS
370
-3
390
F
  0
LAYER
  5
20C
100
AcDbSymbolTableRecord
100
AcDbLayerTableRecord
  2
NOTE
 70
0
 62
7
  6
CONTINUOUS
370
-3
390
F
  0
LAYER
  5
20D
100
AcDbSymbolTableRecord
100
AcDbLayerTableRecord
  2
PIANI
 70
0
 62
7
  6
CONTINUOUS
370
-3
390
F
  0
LAYER
  5
20E
100
AcDbSymbolTableRecord
100
AcDbLayerTableRecord
  2
PIANI_ORIGINE
 70
0
 62
7
  6
CONTINUOUS
370
-3
390
F
  0
LAYER
  5
20F
100
AcDbSymbolTableRecord
100
AcDbLayerTableRecord
  2
PUNTI
 70
0
 62
7
  6
CONTINUOUS
370
-3
390
F
  0
LAYER
  5
210
100
AcDbSymbolTableRecord
100
AcDbLayerTableRecord
  2
RACCORDO
 70
0
 62
7
  6
CONTINUOUS
370
-3
390
F
  0
LAYER
  5
211
100
AcDbSymbolTableRecord
100
AcDbLayerTableRecord
  2
SMUSSO
 70
0
 62
7
  6
CONTINUOUS
370
-3
390
F
  0
LAYER
  5
212
100
AcDbSymbolTableRecord
100
AcDbLayerTableRecord
  2
SNAPLINE
 70
0
 62
7
  6
CONTINUOUS
370
-3
390
F
  0
LAYER
  5
213
100
AcDbSymbolTableRecord
100
AcDbLayerTableRecord
  2
SUPERFICI
 70
0
 62
7
  6
CONTINUOUS
370
-3
390
F
  0
LAYER
  5
214
100
AcDbSymbolTableRecord
100
AcDbLayerTableRecord
  2
TRASH
 70
0
 62
7
  6
CONTINUOUS
370
-3
390
F
  0
LAYER
  5
215
100
AcDbSymbolTableRecord
100
AcDbLayerTableRecord
  2
XSEC_DATUMS
 70
0
 62
7
  6
CONTINUOUS
370
-3
390
F
  0
ENDTAB
  0
TABLE
  2
STYLE
  5
3
100
AcDbSymbolTable
 70
1
  0
STYLE
  5
11
100
AcDbSymbolTableRecord
100
AcDbTextStyleTableRecord
  2
STANDARD
 70
0
 40
0.0
 41
0.8
 50
0.0
 71
0
 42
0.2
  3
txt
  4

  0
STYLE
  5
216
100
AcDbSymbolTableRecord
100
AcDbTextStyleTableRecord
  2
TEXTSTYLE_1
 70
0
 40
0.0
 41
0.8
 50
0.0
 71
0
 42
0.2
  3
gdt
  4

  0
ENDTAB
  0
TABLE
  2
VIEW
  5
6
100
AcDbSymbolTable
 70
0
  0
ENDTAB
  0
TABLE
  2
UCS
  5
7
100
AcDbSymbolTable
 70
0
  0
ENDTAB
  0
TABLE
  2
APPID
  5
9
100
AcDbSymbolTable
 70
1
  0
APPID
  5
217
100
AcDbSymbolTableRecord
100
AcDbRegAppTableRecord
  2
ACAD
 70
0
  0
ENDTAB
  0
TABLE
  2
BLOCK_RECORD
  5
1
100
AcDbSymbolTable
 70
0
  0
BLOCK_RECORD
  5
218
100
AcDbSymbolTableRecord
100
AcDbBlockTableRecord
  2
*Model_Space
  0
BLOCK_RECORD
  5
219
100
AcDbSymbolTableRecord
100
AcDbBlockTableRecord
  2
*Paper_Space
  0
BLOCK_RECORD
  5
21A
100
AcDbSymbolTableRecord
100
AcDbBlockTableRecord
  2
_FILLED
  0
BLOCK_RECORD
  5
21B
100
AcDbSymbolTableRecord
100
AcDbBlockTableRecord
  2
*D0
  0
BLOCK_RECORD
  5
21C
100
AcDbSymbolTableRecord
100
AcDbBlockTableRecord
  2
*D1
  0
BLOCK_RECORD
  5
21D
100
AcDbSymbolTableRecord
100
AcDbBlockTableRecord
  2
*D2
  0
BLOCK_RECORD
  5
21E
100
AcDbSymbolTableRecord
100
AcDbBlockTableRecord
  2
*D3
  0
ENDTAB
  0
TABLE
  2
DIMSTYLE
  5
A
100
AcDbSymbolTable
 70
1
100
AcDbDimStyleTable
 71
0
  0
DIMSTYLE
105
21F
100
AcDbSymbolTableRecord
100
AcDbDimStyleTableRecord
  2
STANDARD
 70
0
  3

  4

 40
1.0
 41
3.0
 42
0.0625
 43
0.38
 44
0.18
 45
0.0
 46
0.0
 47
0.01
 48
0.01
140
3.0
141
0.09
142
0.0
143
25.4
144
1.0
145
0.0
146
1.0
147
0.09
 71
1.0
 72
0.0
 73
0
 74
0
 75
0
 76
0
 77
1
 78
8
170
0
171
2
172
0
173
0
174
0
175
0
176
0
177
0
178
0
270
2
271
2
272
2
273
2
274
2
275
0
280
0
281
0
282
0
283
1
284
8
285
0
286
0
287
3
288
0
340
11
341
21A
342
21A
343
21A
344
21A
  0
DIMSTYLE
105
220
100
AcDbSymbolTableRecord
100
AcDbDimStyleTableRecord
  2
DIMSTYLE_1
 70
0
  3

  4

 40
1.0
 41
3.0
 42
0.0625
 43
0.38
 44
0.18
 45
0.0
 46
0.0
 47
0.0
 48
0.0
140
3.0
141
0.09
142
0.0
143
25.4
144
1.0
145
0.0
146
1.0
147
0.09
 71
0.0
 72
0.0
 73
0
 74
0
 75
0
 76
0
 77
1
 78
8
170
0
171
2
172
0
173
0
174
0
175
0
176
0
177
0
178
0
270
2
271
2
272
2
273
2
274
2
275
0
280
0
281
0
282
0
283
1
284
8
285
0
286
0
287
3
288
0
340
11
341
21A
342
21A
343
21A
344
21A
  0
DIMSTYLE
105
221
100
AcDbSymbolTableRecord
100
AcDbDimStyleTableRecord
  2
DIMSTYLE_2
 70
0
  3

  4

 40
1.0
 41
3.0
 42
0.0625
 43
0.38
 44
0.18
 45
0.0
 46
0.0
 47
0.0
 48
0.0
140
3.0
141
0.09
142
0.0
143
25.4
144
1.0
145
0.0
146
1.0
147
0.09
 71
0.0
 72
0.0
 73
0
 74
0
 75
0
 76
0
 77
1
 78
8
170
0
171
2
172
0
173
0
174
0
175
0
176
0
177
0
178
0
270
2
271
1
272
1
273
2
274
2
275
0
280
0
281
0
282
0
283
1
284
8
285
0
286
0
287
3
288
0
340
11
341
21A
342
21A
343
21A
344
21A
  0
ENDTAB
  0
ENDSEC
  0
SECTION
  2
BLOCKS
  0
BLOCK
  5
20
100
AcDbEntity
  8
0
100
AcDbBlockBegin
  2
*Model_Space
 70
0
 10
0.0
 20
0.0
 30
0.0
  3
*Model_Space
  1

  0
ENDBLK
  5
21
100
AcDbEntity
  8
0
100
AcDbBlockEnd
  0
BLOCK
  5
1C
100
AcDbEntity
  8
0
100
AcDbBlockBegin
  2
*Paper_Space
 70
0
 10
0.0
 20
0.0
 30
0.0
  3
*Paper_Space
  1

  0
ENDBLK
  5
1D
100
AcDbEntity
  8
0
100
AcDbBlockEnd
  0
BLOCK
  5
222
100
AcDbEntity
  8
0
100
AcDbBlockBegin
  2
_FILLED
 70
64
 10
0.0
 20
0.0
  3
_FILLED
  1

  0
SOLID
  5
223
100
AcDbEntity
  8
0
  6
BYBLOCK
 62
0
100
AcDbTrace
 10
0.0
 20
0.0
 11
-1.0
 21
0.3166666667
 12
-1.0
 22
-0.3166666667
 13
-1.0
 23
-0.3166666667
  0
ENDBLK
  5
224
100
AcDbEntity
  8
0
  6
BYBLOCK
 62
0
100
AcDbBlockEnd
  0
BLOCK
  5
225
100
AcDbEntity
  8
0
100
AcDbBlockBegin
 62
7
  6
CONTINUOUS
  2
*D0
 70
65
 10
0.0
 20
0.0
  3
*D0
  1

  0
MTEXT
  5
226
100
AcDbEntity
  8
0
100
AcDbMText
 62
7
  6
CONTINUOUS
  7
STANDARD
 71
2
 72
1
 10
51.75
 20
0.001369526
 30
0.0
 11
0.0
 21
1.0
 31
0.0
 44
0.9
  1
95
 40
3.0
 41
4.5
  0
LINE
  5
227
100
AcDbEntity
  8
0
100
AcDbLine
 62
7
  6
CONTINUOUS
 10
46.0027409305
 20
47.501369526
 11
57.0
 21
47.501369526
  0
LINE
  5
228
100
AcDbEntity
  8
0
100
AcDbLine
 62
7
  6
CONTINUOUS
 10
46.0027409305
 20
-47.498630474
 11
57.0
 21
-47.498630474
  0
LINE
  5
229
100
AcDbEntity
  8
0
100
AcDbLine
 62
7
  6
CONTINUOUS
 10
55.5
 20
47.501369526
 11
55.5
 21
0.001369526
  0
LINE
  5
22A
100
AcDbEntity
  8
0
100
AcDbLine
 62
7
  6
CONTINUOUS
 10
55.5
 20
-47.498630474
 11
55.5
 21
0.001369526
  0
INSERT
  5
22B
100
AcDbEntity
  8
0
100
AcDbBlockReference
 62
7
  6
CONTINUOUS
  2
_FILLED
 10
55.5
 20
47.501369526
 41
3.0
 42
3.0
 43
3.0
 50
90.0
  0
INSERT
  5
22C
100
AcDbEntity
  8
0
100
AcDbBlockReference
 62
7
  6
CONTINUOUS
  2
_FILLED
 10
55.5
 20
-47.498630474
 41
3.0
 42
3.0
 43
3.0
 50
270.0
  0
ENDBLK
  5
22D
100
AcDbEntity
  8
0
  6
BYBLOCK
 62
0
100
AcDbBlockEnd
  0
BLOCK
  5
22E
100
AcDbEntity
  8
0
100
AcDbBlockBegin
 62
7
  6
CONTINUOUS
  2
*D1
 70
65
 10
0.0
 20
0.0
  3
*D1
  1

  0
MTEXT
  5
22F
100
AcDbEntity
  8
0
100
AcDbMText
 62
7
  6
CONTINUOUS
  7
STANDARD
 71
2
 72
1
 10
0.0
 20
59.251369526
 30
0.0
 11
1.0
 21
0.0
 31
0.0
 44
0.9
  1
95
 40
3.0
 41
4.5
  0
LINE
  5
230
100
AcDbEntity
  8
0
100
AcDbLine
 62
7
  6
CONTINUOUS
 10
-47.5
 20
46.0041104565
 11
-47.5
 21
57.001369526
  0
LINE
  5
231
100
AcDbEntity
  8
0
100
AcDbLine
 62
7
  6
CONTINUOUS
 10
47.5
 20
46.0041104565
 11
47.5
 21
57.001369526
  0
LINE
  5
232
100
AcDbEntity
  8
0
100
AcDbLine
 62
7
  6
CONTINUOUS
 10
-47.5
 20
55.501369526
 11
0.0
 21
55.501369526
  0
LINE
  5
233
100
AcDbEntity
  8
0
100
AcDbLine
 62
7
  6
CONTINUOUS
 10
47.5
 20
55.501369526
 11
0.0
 21
55.501369526
  0
INSERT
  5
234
100
AcDbEntity
  8
0
100
AcDbBlockReference
 62
7
  6
CONTINUOUS
  2
_FILLED
 10
-47.5
 20
55.501369526
 41
3.0
 42
3.0
 43
3.0
 50
180.0
  0
INSERT
  5
235
100
AcDbEntity
  8
0
100
AcDbBlockReference
 62
7
  6
CONTINUOUS
  2
_FILLED
 10
47.5
 20
55.501369526
 41
3.0
 42
3.0
 43
3.0
  0
ENDBLK
  5
236
100
AcDbEntity
  8
0
  6
BYBLOCK
 62
0
100
AcDbBlockEnd
  0
BLOCK
  5
237
100
AcDbEntity
  8
0
100
AcDbBlockBegin
 62
7
  6
CONTINUOUS
  2
*D2
 70
65
 10
0.0
 20
0.0
  3
*D2
  1

  0
MTEXT
  5
238
100
AcDbEntity
  8
0
100
AcDbMText
 62
7
  6
CONTINUOUS
  7
STANDARD
 71
2
 72
1
 10
-77.5481481056
 20
59.251369526
 30
0.0
 11
1.0
 21
0.0
 31
0.0
 44
0.9
  1
20
 40
3.0
 41
4.7142857143
  0
LINE
  5
239
100
AcDbEntity
  8
0
100
AcDbLine
 62
7
  6
CONTINUOUS
 10
-87.5481481056
 20
49.7793875185
 11
-87.5481481056
 21
57.001369526
  0
LINE
  5
23A
100
AcDbEntity
  8
0
100
AcDbLine
 62
7
  6
CONTINUOUS
 10
-67.5481481056
 20
9.6442523833
 11
-67.5481481056
 21
57.001369526
  0
LINE
  5
23B
100
AcDbEntity
  8
0
100
AcDbLine
 62
7
  6
CONTINUOUS
 10
-87.5481481056
 20
55.501369526
 11
-77.5481481056
 21
55.501369526
  0
LINE
  5
23C
100
AcDbEntity
  8
0
100
AcDbLine
 62
7
  6
CONTINUOUS
 10
-67.5481481056
 20
55.501369526
 11
-77.5481481056
 21
55.501369526
  0
INSERT
  5
23D
100
AcDbEntity
  8
0
100
AcDbBlockReference
 62
7
  6
CONTINUOUS
  2
_FILLED
 10
-87.5481481056
 20
55.501369526
 41
3.0
 42
3.0
 43
3.0
 50
180.0
  0
INSERT
  5
23E
100
AcDbEntity
  8
0
100
AcDbBlockReference
 62
7
  6
CONTINUOUS
  2
_FILLED
 10
-67.5481481056
 20
55.501369526
 41
3.0
 42
3.0
 43
3.0
  0
ENDBLK
  5
23F
100
AcDbEntity
  8
0
  6
BYBLOCK
 62
0
100
AcDbBlockEnd
  0
BLOCK
  5
240
100
AcDbEntity
  8
0
100
AcDbBlockBegin
 62
7
  6
CONTINUOUS
  2
*D3
 70
65
 10
0.0
 20
0.0
  3
*D3
  1

  0
MTEXT
  5
241
100
AcDbEntity
  8
0
100
AcDbMText
 62
7
  6
CONTINUOUS
  7
STANDARD
 71
2
 72
1
 10
-101.0443831268
 20
59.251369526
 30
0.0
 11
1.0
 21
0.0
 31
0.0
 44
0.9
  1
27
 40
3.0
 41
4.7142857143
  0
LINE
  5
242
100
AcDbEntity
  8
0
100
AcDbLine
 62
7
  6
CONTINUOUS
 10
-87.5481481056
 20
48.7988552939
 11
-87.5481481056
 21
57.001369526
  0
LINE
  5
243
100
AcDbEntity
  8
0
100
AcDbLine
 62
7
  6
CONTINUOUS
 10
-114.5406181481
 20
-23.6987829597
 11
-114.5406181481
 21
57.001369526
  0
LINE
  5
244
100
AcDbEntity
  8
0
100
AcDbLine
 62
7
  6
CONTINUOUS
 10
-87.5481481056
 20
55.501369526
 11
-101.0443831268
 21
55.501369526
  0
LINE
  5
245
100
AcDbEntity
  8
0
100
AcDbLine
 62
7
  6
CONTINUOUS
 10
-114.5406181481
 20
55.501369526
 11
-101.0443831268
 21
55.501369526
  0
INSERT
  5
246
100
AcDbEntity
  8
0
100
AcDbBlockReference
 62
7
  6
CONTINUOUS
  2
_FILLED
 10
-87.5481481056
 20
55.501369526
 41
3.0
 42
3.0
 43
3.0
  0
INSERT
  5
247
100
AcDbEntity
  8
0
100
AcDbBlockReference
 62
7
  6
CONTINUOUS
  2
_FILLED
 10
-114.5406181481
 20
55.501369526
 41
3.0
 42
3.0
 43
3.0
 50
180.0
  0
ENDBLK
  5
248
100
AcDbEntity
  8
0
  6
BYBLOCK
 62
0
100
AcDbBlockEnd
  0
ENDSEC
  0
SECTION
  2
ENTITIES
  0
DIMENSION
  5
249
100
AcDbEntity
  8
0
100
AcDbDimension
 62
7
  6
CONTINUOUS
  2
*D0
 10
55.5
 20
-47.498630474
 11
54.2581656363
 21
-2.0101229671
 70
160
 71
2
 42
95.0
  3
DIMSTYLE_1
100
AcDbAlignedDimension
 13
46.0027409305
 23
47.501369526
 14
46.0027409305
 24
-47.498630474
 50
270.0
100
AcDbRotatedDimension
  0
DIMENSION
  5
24A
100
AcDbEntity
  8
0
100
AcDbDimension
 62
7
  6
CONTINUOUS
  2
*D1
 10
47.5
 20
55.501369526
 11
-2.25
 21
57.751369526
 70
160
 71
2
 42
95.0
  3
DIMSTYLE_1
100
AcDbAlignedDimension
 13
-47.5
 23
46.0041104565
 14
47.5
 24
46.0041104565
100
AcDbRotatedDimension
  0
DIMENSION
  5
24B
100
AcDbEntity
  8
0
100
AcDbDimension
 62
7
  6
CONTINUOUS
  2
*D2
 10
-67.5481481056
 20
55.501369526
 11
-79.9052909627
 21
57.751369526
 70
160
 71
2
 42
20.0
  3
DIMSTYLE_2
100
AcDbAlignedDimension
 13
-87.5481481056
 23
49.7793875185
 14
-67.5481481056
 24
9.6442523833
100
AcDbRotatedDimension
  0
DIMENSION
  5
24C
100
AcDbEntity
  8
0
100
AcDbDimension
 62
7
  6
CONTINUOUS
  2
*D3
 10
-114.5406181481
 20
55.501369526
 11
-103.401525984
 21
57.751369526
 70
160
 71
2
 42
26.9924700425
  3
DIMSTYLE_2
100
AcDbAlignedDimension
 13
-87.5481481056
 23
48.7988552939
 14
-114.5406181481
 24
-23.6987829597
 50
180.0
100
AcDbRotatedDimension
  0
LINE
  5
24D
100
AcDbEntity
  8
RACCORDO
100
AcDbLine
 62
7
  6
CONTINUOUS
 10
-47.5
 20
45.5041104565
 11
-47.5
 21
-45.5013714045
  0
LINE
  5
24E
100
AcDbEntity
  8
RACCORDO
100
AcDbLine
 62
7
  6
CONTINUOUS
 10
-44.2
 20
-5.9985923971
 11
-44.2
 21
-13.9986685509
  0
LINE
  5
24F
100
AcDbEntity
  8
RACCORDO
100
AcDbLine
 62
7
  6
CONTINUOUS
 10
-11.2833720857
 20
-47.501369526
 11
11.2833720857
 21
-47.501369526
  0
LINE
  5
250
100
AcDbEntity
  8
DRAFT
100
AcDbLine
 62
7
  6
CONTINUOUS
 10
-45.5027409305
 20
-47.498630474
 11
-12.0
 21
-47.498630474
  0
LINE
  5
251
100
AcDbEntity
  8
DRAFT
100
AcDbLine
 62
7
  6
CONTINUOUS
 10
12.0
 20
-47.498630474
 11
45.5027409305
 21
-47.498630474
  0
LINE
  5
252
100
AcDbEntity
  8
RACCORDO
100
AcDbLine
 62
253
  6
CONTINUOUS
 10
46.3000772236
 20
-45.1896946481
 11
47.1883265146
 21
-45.1896979191
  0
LINE
  5
253
100
AcDbEntity
  8
RACCORDO
100
AcDbLine
 62
253
  6
CONTINUOUS
 10
-46.3000772157
 20
-45.1896946431
 11
-47.1883237301
 21
-45.1896979198
  0
LINE
  5
254
100
AcDbEntity
  8
RACCORDO
100
AcDbLine
 62
253
  6
CONTINUOUS
 10
-43.6485211662
 20
-6.043466946
 11
-43.6485211662
 21
-13.9537987242
  0
LINE
  5
255
100
AcDbEntity
  8
RACCORDO
100
AcDbLine
 62
253
  6
CONTINUOUS
 10
-43.5522066597
 20
-6.0434622238
 11
-43.5522066597
 21
-13.9537987242
  0
LINE
  5
256
100
AcDbEntity
  8
SMUSSO
100
AcDbLine
 62
7
  6
CONTINUOUS
 10
-41.0192005714
 20
-5.034410632
 11
-41.0192005714
 21
-5.2385517174
  0
LINE
  5
257
100
AcDbEntity
  8
SMUSSO
100
AcDbLine
 62
7
  6
CONTINUOUS
 10
-41.0192005714
 20
-14.7587092306
 11
-41.0192005714
 21
-14.9628503161
  0
LINE
  5
258
100
AcDbEntity
  8
DRAFT
100
AcDbLine
 62
7
  6
CONTINUOUS
 10
-39.9157078043
 20
-14.7825576286
 11
-39.9157068998
 21
-14.9628517885
  0
LINE
  5
259
100
AcDbEntity
  8
DRAFT
100
AcDbLine
 62
7
  6
CONTINUOUS
 10
-39.9157095584
 20
-5.2147045033
 11
-39.9157095584
 21
-5.034410632
  0
LINE
  5
25A
100
AcDbEntity
  8
ASSI
100
AcDbLine
 62
7
  6
CONTINUOUS
 10
-39.75
 20
-5.0025353958
 11
-39.75
 21
-5.2174706036
  0
LINE
  5
25B
100
AcDbEntity
  8
DRAFT
100
AcDbLine
 62
7
  6
CONTINUOUS
 10
-39.75
 20
-5.0025353958
 11
-39.75
 21
-5.2174706036
  0
LINE
  5
25C
100
AcDbEntity
  8
ASSI
100
AcDbLine
 62
7
  6
CONTINUOUS
 10
-39.75
 20
-14.7797903445
 11
-39.75
 21
-14.9950777072
  0
LINE
  5
25D
100
AcDbEntity
  8
DRAFT
100
AcDbLine
 62
7
  6
CONTINUOUS
 10
-39.75
 20
-14.7797903445
 11
-39.75
 21
-14.9950777072
  0
LINE
  5
25E
100
AcDbEntity
  8
DRAFT
100
AcDbLine
 62
7
  6
CONTINUOUS
 10
-38.25
 20
-4.9997731772
 11
-38.25
 21
-5.2174706036
  0
LINE
  5
25F
100
AcDbEntity
  8
ASSI
100
AcDbLine
 62
7
  6
CONTINUOUS
 10
-38.25
 20
-4.9997731772
 11
-38.25
 21
-5.2174706036
  0
LINE
  5
260
100
AcDbEntity
  8
ASSI
100
AcDbLine
 62
7
  6
CONTINUOUS
 10
-38.25
 20
-14.7797903445
 11
-38.25
 21
-14.9980078515
  0
LINE
  5
261
100
AcDbEntity
  8
DRAFT
100
AcDbLine
 62
7
  6
CONTINUOUS
 10
-38.25
 20
-14.7797903445
 11
-38.25
 21
-14.9980078515
  0
LINE
  5
262
100
AcDbEntity
  8
DRAFT
100
AcDbLine
 62
7
  6
CONTINUOUS
 10
-38.096642938
 20
-14.7820289179
 11
-38.096642938
 21
-14.9690260939
  0
LINE
  5
263
100
AcDbEntity
  8
DRAFT
100
AcDbLine
 62
7
  6
CONTINUOUS
 10
-38.096642938
 20
-5.2152320301
 11
-38.096642938
 21
-5.0282348541
  0
LINE
  5
264
100
AcDbEntity
  8
RACCORDO
100
AcDbLine
 62
253
  6
CONTINUOUS
 10
-36.8395081982
 20
-5.0047077932
 11
-36.8395081982
 21
-5.2585833707
  0
LINE
  5
265
100
AcDbEntity
  8
RACCORDO
100
AcDbLine
 62
253
  6
CONTINUOUS
 10
-36.8395081982
 20
-14.7386775773
 11
-36.8395081982
 21
-14.9925531548
  0
LINE
  5
266
100
AcDbEntity
  8
RACCORDO
100
AcDbLine
 62
253
  6
CONTINUOUS
 10
-36.3256661651
 20
-5.0009245007
 11
-36.3256661651
 21
-5.2585833707
  0
LINE
  5
267
100
AcDbEntity
  8
RACCORDO
100
AcDbLine
 62
253
  6
CONTINUOUS
 10
-36.3256661651
 20
-14.7386775773
 11
-36.3256661651
 21
-14.9963364474
  0
LINE
  5
268
100
AcDbEntity
  8
RACCORDO
100
AcDbLine
 62
253
  6
CONTINUOUS
 10
-44.2
 20
-5.9985923971
 11
-44.201870104
 21
-5.9967222931
  0
LINE
  5
269
100
AcDbEntity
  8
DRAFT
100
AcDbLine
 62
7
  6
CONTINUOUS
 10
-39.9166499619
 20
-14.9628503161
 11
-39.8516206186
 21
-14.9948923455
  0
LINE
  5
26A
100
AcDbEntity
  8
RACCORDO
100
AcDbLine
 62
253
  6
CONTINUOUS
 10
-43.1981390797
 20
-5.0005294712
 11
-43.2033564394
 21
-4.9953121116
  0
LINE
  5
26B
100
AcDbEntity
  8
RACCORDO
100
AcDbLine
 62
253
  6
CONTINUOUS
 10
-26.198078263
 20
-14.7005217578
 11
-26.1970237746
 21
-14.7015762379
  0
LINE
  5
26C
100
AcDbEntity
  8
DRAFT
100
AcDbLine
 62
7
  6
CONTINUOUS
 10
-25.1623661626
 20
-12.4621914659
 11
-25.1441480461
 21
-12.498630474
  0
LINE
  5
26D
100
AcDbEntity
  8
RACCORDO
100
AcDbLine
 62
253
  6
CONTINUOUS
 10
-26.2
 20
-15.0553449892
 11
-26.2
 21
-15.0313307144
  0
LINE
  5
26E
100
AcDbEntity
  8
RACCORDO
100
AcDbLine
 62
253
  6
CONTINUOUS
 10
-25.626577064
 20
-13.8973372207
 11
-25.626577064
 21
-6.0999237273
  0
LINE
  5
26F
100
AcDbEntity
  8
RACCORDO
100
AcDbLine
 62
7
  6
CONTINUOUS
 10
-25.4013237148
 20
-13.8973372207
 11
-25.4013237148
 21
-6.0999237273
  0
LINE
  5
270
100
AcDbEntity
  8
DRAFT
100
AcDbLine
 62
7
  6
CONTINUOUS
 10
-25.1623661626
 20
-7.5350694821
 11
-25.1623661626
 21
-8.998630474
  0
LINE
  5
271
100
AcDbEntity
  8
DRAFT
100
AcDbLine
 62
7
  6
CONTINUOUS
 10
-25.1623661626
 20
-10.998630474
 11
-25.1623661626
 21
-12.4621914659
  0
LINE
  5
272
100
AcDbEntity
  8
DRAFT
100
AcDbLine
 62
7
  6
CONTINUOUS
 10
-25.1583396938
 20
-8.998630474
 11
-25.1583396938
 21
-10.998630474
  0
LINE
  5
273
100
AcDbEntity
  8
DRAFT
100
AcDbLine
 62
7
  6
CONTINUOUS
 10
-25.1441480461
 20
-13.998630474
 11
-25.1441480461
 21
-12.498630474
  0
LINE
  5
274
100
AcDbEntity
  8
DRAFT
100
AcDbLine
 62
7
  6
CONTINUOUS
 10
-25.1441480461
 20
-7.498630474
 11
-25.1441480461
 21
-5.998630474
  0
LINE
  5
275
100
AcDbEntity
  8
RACCORDO
100
AcDbLine
 62
253
  6
CONTINUOUS
 10
-26.1999864723
 20
-4.946460079
 11
-26.2
 21
-4.9659302336
  0
LINE
  5
276
100
AcDbEntity
  8
RACCORDO
100
AcDbLine
 62
7
  6
CONTINUOUS
 10
12.0
 20
-47.498630474
 11
11.2039351439
 21
-46.7025656179
  0
LINE
  5
277
100
AcDbEntity
  8
RACCORDO
100
AcDbLine
 62
253
  6
CONTINUOUS
 10
10.4995523085
 20
-46.7036056181
 11
11.2833720857
 21
-47.501369526
  0
LINE
  5
278
100
AcDbEntity
  8
DRAFT
100
AcDbLine
 62
7
  6
CONTINUOUS
 10
-25.1623661626
 20
-7.5350694821
 11
-25.1441480461
 21
-7.498630474
  0
LINE
  5
279
100
AcDbEntity
  8
RACCORDO
100
AcDbLine
 62
253
  6
CONTINUOUS
 10
-44.2019141121
 20
-14.000582663
 11
-44.2
 21
-13.9986685509
  0
LINE
  5
27A
100
AcDbEntity
  8
RACCORDO
100
AcDbLine
 62
253
  6
CONTINUOUS
 10
-43.2034698487
 20
-15.0020622458
 11
-43.1981390797
 21
-14.9967314768
  0
LINE
  5
27B
100
AcDbEntity
  8
DRAFT
100
AcDbLine
 62
7
  6
CONTINUOUS
 10
-38.096642938
 20
-5.0282348541
 11
-38.1539474212
 21
-4.9995847946
  0
LINE
  5
27C
100
AcDbEntity
  8
RACCORDO
100
AcDbLine
 62
253
  6
CONTINUOUS
 10
-26.1980782613
 20
-5.2967391903
 11
-26.1970237746
 21
-5.2956847102
  0
LINE
  5
27D
100
AcDbEntity
  8
DRAFT
100
AcDbLine
 62
7
  6
CONTINUOUS
 10
-39.8523071312
 20
-5.0027118326
 11
-39.9157095584
 21
-5.034410632
  0
LINE
  5
27E
100
AcDbEntity
  8
DRAFT
100
AcDbLine
 62
7
  6
CONTINUOUS
 10
-38.2499723445
 20
-14.7809437681
 11
-36.4871823366
 21
-14.7386775773
  0
LINE
  5
27F
100
AcDbEntity
  8
RACCORDO
100
AcDbLine
 62
7
  6
CONTINUOUS
 10
36.8395081982
 20
-14.9925531548
 11
38.096642938
 21
-14.9690260939
  0
LINE
  5
280
100
AcDbEntity
  8
DRAFT
100
AcDbLine
 62
7
  6
CONTINUOUS
 10
40.960226671
 20
-14.7587092306
 11
39.7500243282
 21
-14.7812328496
  0
LINE
  5
281
100
AcDbEntity
  8
RACCORDO
100
AcDbLine
 62
253
  6
CONTINUOUS
 10
-43.8371702723
 20
-14.7621039074
 11
-42.5820053295
 21
-14.7490490854
  0
LINE
  5
282
100
AcDbEntity
  8
RACCORDO
100
AcDbLine
 62
253
  6
CONTINUOUS
 10
-44.2004069634
 20
-13.9595384888
 11
-43.6485211662
 21
-13.9537987242
  0
LINE
  5
283
100
AcDbEntity
  8
DRAFT
100
AcDbLine
 62
7
  6
CONTINUOUS
 10
-25.2371691907
 20
-14.0357996647
 11
-25.1630095511
 21
-14.0350757751
  0
LINE
  5
284
100
AcDbEntity
  8
RACCORDO
100
AcDbLine
 62
253
  6
CONTINUOUS
 10
44.4286907727
 20
-14.0004802453
 11
44.2019140893
 21
-14.0005826648
  0
LINE
  5
285
100
AcDbEntity
  8
DRAFT
100
AcDbLine
 62
7
  6
CONTINUOUS
 10
41.0192005714
 20
-14.9628503161
 11
39.9157095584
 21
-14.9628503161
  0
LINE
  5
286
100
AcDbEntity
  8
DRAFT
100
AcDbLine
 62
7
  6
CONTINUOUS
 10
-39.9166499619
 20
-14.9628503161
 11
-41.0192005714
 21
-14.9628503161
  0
LINE
  5
287
100
AcDbEntity
  8
RACCORDO
100
AcDbLine
 62
253
  6
CONTINUOUS
 10
25.1363257648
 20
-13.998630474
 11
25.1441480461
 21
-13.998630474
  0
LINE
  5
288
100
AcDbEntity
  8
RACCORDO
100
AcDbLine
 62
253
  6
CONTINUOUS
 10
-25.1363257905
 20
-13.998630474
 11
-25.1441480461
 21
-13.998630474
  0
LINE
  5
289
100
AcDbEntity
  8
RACCORDO
100
AcDbLine
 62
253
  6
CONTINUOUS
 10
-43.5522066597
 20
-13.9537987242
 11
-43.6485211121
 21
-13.9537986084
  0
LINE
  5
28A
100
AcDbEntity
  8
RACCORDO
100
AcDbLine
 62
253
  6
CONTINUOUS
 10
43.5613700032
 20
-13.9537987242
 11
43.6575483143
 21
-13.9537987242
  0
LINE
  5
28B
100
AcDbEntity
  8
RACCORDO
100
AcDbLine
 62
253
  6
CONTINUOUS
 10
-25.626577064
 20
-13.8973372207
 11
-25.4013237148
 21
-13.8973372207
  0
LINE
  5
28C
100
AcDbEntity
  8
RACCORDO
100
AcDbLine
 62
253
  6
CONTINUOUS
 10
25.6514510736
 20
-13.8973372207
 11
25.4258655863
 21
-13.8973372131
  0
LINE
  5
28D
100
AcDbEntity
  8
RACCORDO
100
AcDbLine
 62
7
  6
CONTINUOUS
 10
25.1441480461
 20
-13.748630474
 11
25.4241487557
 21
-13.748630474
  0
LINE
  5
28E
100
AcDbEntity
  8
RACCORDO
100
AcDbLine
 62
7
  6
CONTINUOUS
 10
-25.1441480461
 20
-13.748630474
 11
-25.4
 21
-13.748630474
  0
LINE
  5
28F
100
AcDbEntity
  8
RACCORDO
100
AcDbLine
 62
253
  6
CONTINUOUS
 10
-44.4286907657
 20
-14.0004802427
 11
-44.2019141121
 21
-14.000582663
  0
LINE
  5
290
100
AcDbEntity
  8
DRAFT
100
AcDbLine
 62
7
  6
CONTINUOUS
 10
25.1630095511
 20
-14.0350757751
 11
25.2371691907
 21
-14.0357996647
  0
LINE
  5
291
100
AcDbEntity
  8
RACCORDO
100
AcDbLine
 62
253
  6
CONTINUOUS
 10
42.5910347638
 20
-14.7490489455
 11
43.8430367263
 21
-14.7621104983
  0
LINE
  5
292
100
AcDbEntity
  8
RACCORDO
100
AcDbLine
 62
253
  6
CONTINUOUS
 10
43.6575483143
 20
-13.953794002
 11
44.2004092228
 21
-13.9594598659
  0
LINE
  5
293
100
AcDbEntity
  8
RACCORDO
100
AcDbLine
 62
7
  6
CONTINUOUS
 10
-38.096642938
 20
-14.9690260939
 11
-36.8395081982
 21
-14.9925531548
  0
LINE
  5
294
100
AcDbEntity
  8
DRAFT
100
AcDbLine
 62
7
  6
CONTINUOUS
 10
-40.9539725068
 20
-14.7587092306
 11
-39.7500271462
 21
-14.7812408614
  0
LINE
  5
295
100
AcDbEntity
  8
DRAFT
100
AcDbLine
 62
7
  6
CONTINUOUS
 10
36.4994005577
 20
-14.7386775773
 11
38.2499744654
 21
-14.7809520306
  0
LINE
  5
296
100
AcDbEntity
  8
RACCORDO
100
AcDbLine
 62
7
  6
CONTINUOUS
 10
-42.4673326551
 20
-14.9765450562
 11
-42.9001624846
 21
-14.998638768
  0
LINE
  5
297
100
AcDbEntity
  8
RACCORDO
100
AcDbLine
 62
7
  6
CONTINUOUS
 10
25.1441480461
 20
-12.748630474
 11
25.4241487557
 21
-12.748630474
  0
LINE
  5
298
100
AcDbEntity
  8
RACCORDO
100
AcDbLine
 62
7
  6
CONTINUOUS
 10
-25.1441480461
 20
-12.748630474
 11
-25.4
 21
-12.748630474
  0
LINE
  5
299
100
AcDbEntity
  8
RACCORDO
100
AcDbLine
 62
7
  6
CONTINUOUS
 10
-25.3769935136
 20
-10.998630474
 11
-25.1583396938
 21
-10.998630474
  0
LINE
  5
29A
100
AcDbEntity
  8
RACCORDO
100
AcDbLine
 62
7
  6
CONTINUOUS
 10
25.3768751165
 20
-10.998630474
 11
25.1583396938
 21
-10.998630474
  0
LINE
  5
29B
100
AcDbEntity
  8
RACCORDO
100
AcDbLine
 62
7
  6
CONTINUOUS
 10
-25.3768751165
 20
-8.998630474
 11
-25.1583396938
 21
-8.998630474
  0
LINE
  5
29C
100
AcDbEntity
  8
RACCORDO
100
AcDbLine
 62
7
  6
CONTINUOUS
 10
25.3769935136
 20
-8.998630474
 11
25.1583396938
 21
-8.998630474
  0
LINE
  5
29D
100
AcDbEntity
  8
RACCORDO
100
AcDbLine
 62
7
  6
CONTINUOUS
 10
42.9001624846
 20
-14.998638768
 11
42.4673337066
 21
-14.9765451099
  0
LINE
  5
29E
100
AcDbEntity
  8
RACCORDO
100
AcDbLine
 62
7
  6
CONTINUOUS
 10
42.9001624846
 20
-4.99862218
 11
42.4649941751
 21
-5.020835259
  0
LINE
  5
29F
100
AcDbEntity
  8
DRAFT
100
AcDbLine
 62
7
  6
CONTINUOUS
 10
38.2499744654
 20
-5.2163089174
 11
36.4994005577
 21
-5.2585833707
  0
LINE
  5
2A0
100
AcDbEntity
  8
DRAFT
100
AcDbLine
 62
7
  6
CONTINUOUS
 10
-40.9539725068
 20
-5.2385517174
 11
-39.7500271462
 21
-5.2160200866
  0
LINE
  5
2A1
100
AcDbEntity
  8
RACCORDO
100
AcDbLine
 62
7
  6
CONTINUOUS
 10
-38.096642938
 20
-5.0282348541
 11
-36.8395081982
 21
-5.0047077932
  0
LINE
  5
2A2
100
AcDbEntity
  8
RACCORDO
100
AcDbLine
 62
253
  6
CONTINUOUS
 10
44.2004090222
 20
-6.037798811
 11
43.6575483143
 21
-6.0434622238
  0
LINE
  5
2A3
100
AcDbEntity
  8
RACCORDO
100
AcDbLine
 62
253
  6
CONTINUOUS
 10
43.8372315383
 20
-5.2352110327
 11
42.5911229221
 21
-5.2482118626
  0
LINE
  5
2A4
100
AcDbEntity
  8
DRAFT
100
AcDbLine
 62
7
  6
CONTINUOUS
 10
25.2371691907
 20
-5.9614612833
 11
25.1630095511
 21
-5.9621851729
  0
LINE
  5
2A5
100
AcDbEntity
  8
RACCORDO
100
AcDbLine
 62
253
  6
CONTINUOUS
 10
44.4279893004
 20
-5.9965720606
 11
44.2018701059
 21
-5.9967222911
  0
LINE
  5
2A6
100
AcDbEntity
  8
RACCORDO
100
AcDbLine
 62
7
  6
CONTINUOUS
 10
25.1441480461
 20
-7.248630474
 11
25.4241487557
 21
-7.248630474
  0
LINE
  5
2A7
100
AcDbEntity
  8
RACCORDO
100
AcDbLine
 62
7
  6
CONTINUOUS
 10
-25.1441480461
 20
-7.248630474
 11
-25.4
 21
-7.248630474
  0
LINE
  5
2A8
100
AcDbEntity
  8
RACCORDO
100
AcDbLine
 62
7
  6
CONTINUOUS
 10
25.1441480461
 20
-6.248630474
 11
25.4241487557
 21
-6.248630474
  0
LINE
  5
2A9
100
AcDbEntity
  8
RACCORDO
100
AcDbLine
 62
7
  6
CONTINUOUS
 10
-25.1441480461
 20
-6.248630474
 11
-25.4
 21
-6.248630474
  0
LINE
  5
2AA
100
AcDbEntity
  8
RACCORDO
100
AcDbLine
 62
253
  6
CONTINUOUS
 10
-25.626577064
 20
-6.0999237273
 11
-25.4013237147
 21
-6.099923735
  0
LINE
  5
2AB
100
AcDbEntity
  8
RACCORDO
100
AcDbLine
 62
253
  6
CONTINUOUS
 10
25.6514510736
 20
-6.0999237273
 11
25.4258655865
 21
-6.0999237273
  0
LINE
  5
2AC
100
AcDbEntity
  8
RACCORDO
100
AcDbLine
 62
253
  6
CONTINUOUS
 10
-43.5522066597
 20
-6.0434622238
 11
-43.6485211662
 21
-6.0434622238
  0
LINE
  5
2AD
100
AcDbEntity
  8
RACCORDO
100
AcDbLine
 62
253
  6
CONTINUOUS
 10
43.5613700032
 20
-6.0434622238
 11
43.6575482605
 21
-6.0434623396
  0
LINE
  5
2AE
100
AcDbEntity
  8
RACCORDO
100
AcDbLine
 62
253
  6
CONTINUOUS
 10
25.1404152609
 20
-5.998630474
 11
25.1441480461
 21
-5.998630474
  0
LINE
  5
2AF
100
AcDbEntity
  8
RACCORDO
100
AcDbLine
 62
253
  6
CONTINUOUS
 10
-25.1404152957
 20
-5.998630474
 11
-25.1441480461
 21
-5.998630474
  0
LINE
  5
2B0
100
AcDbEntity
  8
DRAFT
100
AcDbLine
 62
7
  6
CONTINUOUS
 10
41.0192005714
 20
-5.034410632
 11
39.9166499623
 21
-5.034410632
  0
LINE
  5
2B1
100
AcDbEntity
  8
DRAFT
100
AcDbLine
 62
7
  6
CONTINUOUS
 10
-39.9157095584
 20
-5.034410632
 11
-41.0192005714
 21
-5.034410632
  0
LINE
  5
2B2
100
AcDbEntity
  8
RACCORDO
100
AcDbLine
 62
253
  6
CONTINUOUS
 10
-44.4279891409
 20
-5.996572063
 11
-44.2018677276
 21
-5.9967222932
  0
LINE
  5
2B3
100
AcDbEntity
  8
DRAFT
100
AcDbLine
 62
7
  6
CONTINUOUS
 10
-25.1630095511
 20
-5.9621851729
 11
-25.2371691907
 21
-5.9614612833
  0
LINE
  5
2B4
100
AcDbEntity
  8
RACCORDO
100
AcDbLine
 62
253
  6
CONTINUOUS
 10
-43.6485211662
 20
-6.043466946
 11
-44.2004071627
 21
-6.0377246973
  0
LINE
  5
2B5
100
AcDbEntity
  8
RACCORDO
100
AcDbLine
 62
253
  6
CONTINUOUS
 10
-42.5819171293
 20
-5.2482120026
 11
-43.8429703769
 21
-5.235096701
  0
LINE
  5
2B6
100
AcDbEntity
  8
DRAFT
100
AcDbLine
 62
7
  6
CONTINUOUS
 10
40.960226671
 20
-5.2385517174
 11
39.7500243282
 21
-5.2160280984
  0
LINE
  5
2B7
100
AcDbEntity
  8
RACCORDO
100
AcDbLine
 62
7
  6
CONTINUOUS
 10
36.8395081982
 20
-5.0047077932
 11
38.096642938
 21
-5.0282348541
  0
LINE
  5
2B8
100
AcDbEntity
  8
DRAFT
100
AcDbLine
 62
7
  6
CONTINUOUS
 10
-36.4871823366
 20
-5.2585833707
 11
-38.2499723445
 21
-5.21631718
  0
LINE
  5
2B9
100
AcDbEntity
  8
RACCORDO
100
AcDbLine
 62
7
  6
CONTINUOUS
 10
-42.4649933253
 20
-5.0208353024
 11
-42.9001624846
 21
-4.99862218
  0
LINE
  5
2BA
100
AcDbEntity
  8
RACCORDO
100
AcDbLine
 62
253
  6
CONTINUOUS
 10
-47.1883265153
 20
-45.1896979198
 11
-47.5
 21
-45.5013714045
  0
LINE
  5
2BB
100
AcDbEntity
  8
RACCORDO
100
AcDbLine
 62
253
  6
CONTINUOUS
 10
45.1868976767
 20
47.1855262722
 11
45.5027409305
 21
47.501369526
  0
LINE
  5
2BC
100
AcDbEntity
  8
DRAFT
100
AcDbLine
 62
7
  6
CONTINUOUS
 10
-38.1550072198
 20
-14.9982060124
 11
-38.096642938
 21
-14.9690260939
  0
LINE
  5
2BD
100
AcDbEntity
  8
RACCORDO
100
AcDbLine
 62
253
  6
CONTINUOUS
 10
45.184830967
 20
-47.1807205106
 11
45.5027409305
 21
-47.498630474
  0
LINE
  5
2BE
100
AcDbEntity
  8
RACCORDO
100
AcDbLine
 62
253
  6
CONTINUOUS
 10
-47.1889337642
 20
45.1930442207
 11
-47.5
 21
45.5041104565
  0
LINE
  5
2BF
100
AcDbEntity
  8
RACCORDO
100
AcDbLine
 62
253
  6
CONTINUOUS
 10
-45.1848309675
 20
-47.180720511
 11
-45.5027409305
 21
-47.498630474
  0
LINE
  5
2C0
100
AcDbEntity
  8
RACCORDO
100
AcDbLine
 62
253
  6
CONTINUOUS
 10
47.1889337643
 20
45.1930442207
 11
47.5
 21
45.5041104565
  0
LINE
  5
2C1
100
AcDbEntity
  8
DRAFT
100
AcDbLine
 62
7
  6
CONTINUOUS
 10
38.096642938
 20
-14.9690260939
 11
38.1550072258
 21
-14.9982060153
  0
LINE
  5
2C2
100
AcDbEntity
  8
RACCORDO
100
AcDbLine
 62
253
  6
CONTINUOUS
 10
47.1883265146
 20
-45.1896979191
 11
47.5
 21
-45.5013714045
  0
LINE
  5
2C3
100
AcDbEntity
  8
RACCORDO
100
AcDbLine
 62
253
  6
CONTINUOUS
 10
-45.1868976766
 20
47.1855262721
 11
-45.5027409305
 21
47.501369526
  0
LINE
  5
2C4
100
AcDbEntity
  8
DRAFT
100
AcDbLine
 62
7
  6
CONTINUOUS
 10
39.9166499623
 20
-5.034410632
 11
39.8523071279
 21
-5.002711831
  0
LINE
  5
2C5
100
AcDbEntity
  8
RACCORDO
100
AcDbLine
 62
253
  6
CONTINUOUS
 10
26.2216626597
 20
-5.2967391902
 11
26.2202950125
 21
-5.2956847102
  0
LINE
  5
2C6
100
AcDbEntity
  8
DRAFT
100
AcDbLine
 62
7
  6
CONTINUOUS
 10
38.1539474314
 20
-4.9995847895
 11
38.096642938
 21
-5.0282348541
  0
LINE
  5
2C7
100
AcDbEntity
  8
RACCORDO
100
AcDbLine
 62
253
  6
CONTINUOUS
 10
43.1981390797
 20
-14.9967314768
 11
43.2034698508
 21
-15.0020622479
  0
LINE
  5
2C8
100
AcDbEntity
  8
RACCORDO
100
AcDbLine
 62
253
  6
CONTINUOUS
 10
44.2019141138
 20
-14.0005826648
 11
44.2
 21
-13.9986685509
  0
LINE
  5
2C9
100
AcDbEntity
  8
DRAFT
100
AcDbLine
 62
7
  6
CONTINUOUS
 10
25.1623661626
 20
-7.5350694821
 11
25.1441480461
 21
-7.498630474
  0
LINE
  5
2CA
100
AcDbEntity
  8
RACCORDO
100
AcDbLine
 62
253
  6
CONTINUOUS
 10
26.1999688638
 20
-4.9464599728
 11
26.2
 21
-4.9659302336
  0
LINE
  5
2CB
100
AcDbEntity
  8
RACCORDO
100
AcDbLine
 62
253
  6
CONTINUOUS
 10
26.2000059273
 20
-15.0553449814
 11
26.2
 21
-15.0313307144
  0
LINE
  5
2CC
100
AcDbEntity
  8
DRAFT
100
AcDbLine
 62
7
  6
CONTINUOUS
 10
25.1441480461
 20
-13.998630474
 11
25.1441480461
 21
-12.498630474
  0
LINE
  5
2CD
100
AcDbEntity
  8
DRAFT
100
AcDbLine
 62
7
  6
CONTINUOUS
 10
25.1441480461
 20
-7.498630474
 11
25.1441480461
 21
-5.998630474
  0
LINE
  5
2CE
100
AcDbEntity
  8
DRAFT
100
AcDbLine
 62
7
  6
CONTINUOUS
 10
25.1583396938
 20
-10.998630474
 11
25.1583396938
 21
-8.998630474
  0
LINE
  5
2CF
100
AcDbEntity
  8
DRAFT
100
AcDbLine
 62
7
  6
CONTINUOUS
 10
25.1623661626
 20
-12.4621914659
 11
25.1623661626
 21
-10.998630474
  0
LINE
  5
2D0
100
AcDbEntity
  8
DRAFT
100
AcDbLine
 62
7
  6
CONTINUOUS
 10
25.1623661626
 20
-8.998630474
 11
25.1623661626
 21
-7.5350694821
  0
LINE
  5
2D1
100
AcDbEntity
  8
RACCORDO
100
AcDbLine
 62
253
  6
CONTINUOUS
 10
25.4258655865
 20
-6.0999237273
 11
25.4258655865
 21
-13.8973372207
  0
LINE
  5
2D2
100
AcDbEntity
  8
RACCORDO
100
AcDbLine
 62
253
  6
CONTINUOUS
 10
25.6514510736
 20
-6.0999237273
 11
25.6514510736
 21
-13.8973372207
  0
LINE
  5
2D3
100
AcDbEntity
  8
RACCORDO
100
AcDbLine
 62
253
  6
CONTINUOUS
 10
-11.2833720857
 20
-47.501369526
 11
-10.4995523085
 21
-46.7036056181
  0
LINE
  5
2D4
100
AcDbEntity
  8
RACCORDO
100
AcDbLine
 62
7
  6
CONTINUOUS
 10
-12.0
 20
-47.498630474
 11
-11.2039351439
 21
-46.7025656179
  0
LINE
  5
2D5
100
AcDbEntity
  8
DRAFT
100
AcDbLine
 62
7
  6
CONTINUOUS
 10
25.1623661626
 20
-12.4621914659
 11
25.1441480461
 21
-12.498630474
  0
LINE
  5
2D6
100
AcDbEntity
  8
RACCORDO
100
AcDbLine
 62
253
  6
CONTINUOUS
 10
26.221662658
 20
-14.7005217578
 11
26.2202950125
 21
-14.7015762379
  0
LINE
  5
2D7
100
AcDbEntity
  8
DRAFT
100
AcDbLine
 62
7
  6
CONTINUOUS
 10
39.8516206185
 20
-14.9948923456
 11
39.9157095584
 21
-14.9628503161
  0
LINE
  5
2D8
100
AcDbEntity
  8
RACCORDO
100
AcDbLine
 62
253
  6
CONTINUOUS
 10
36.3256661651
 20
-14.9963364474
 11
36.3256661651
 21
-14.7386775773
  0
LINE
  5
2D9
100
AcDbEntity
  8
RACCORDO
100
AcDbLine
 62
253
  6
CONTINUOUS
 10
36.3256661651
 20
-5.2585833707
 11
36.3256661651
 21
-5.0009245007
  0
LINE
  5
2DA
100
AcDbEntity
  8
RACCORDO
100
AcDbLine
 62
253
  6
CONTINUOUS
 10
43.2033564419
 20
-4.995312109
 11
43.1981390797
 21
-5.0005294712
  0
LINE
  5
2DB
100
AcDbEntity
  8
RACCORDO
100
AcDbLine
 62
253
  6
CONTINUOUS
 10
44.2
 20
-5.9985923971
 11
44.2018701059
 21
-5.9967222911
  0
LINE
  5
2DC
100
AcDbEntity
  8
RACCORDO
100
AcDbLine
 62
253
  6
CONTINUOUS
 10
36.8395081982
 20
-14.9925531548
 11
36.8395081982
 21
-14.7386775773
  0
LINE
  5
2DD
100
AcDbEntity
  8
RACCORDO
100
AcDbLine
 62
253
  6
CONTINUOUS
 10
36.8395081982
 20
-5.2585833707
 11
36.8395081982
 21
-5.0047077932
  0
LINE
  5
2DE
100
AcDbEntity
  8
DRAFT
100
AcDbLine
 62
7
  6
CONTINUOUS
 10
38.096642938
 20
-14.7820289179
 11
38.096642938
 21
-14.9690260939
  0
LINE
  5
2DF
100
AcDbEntity
  8
DRAFT
100
AcDbLine
 62
7
  6
CONTINUOUS
 10
38.096642938
 20
-5.2152320301
 11
38.096642938
 21
-5.0282348541
  0
LINE
  5
2E0
100
AcDbEntity
  8
ASSI
100
AcDbLine
 62
7
  6
CONTINUOUS
 10
38.25
 20
-14.9980078542
 11
38.25
 21
-14.7798072695
  0
LINE
  5
2E1
100
AcDbEntity
  8
ASSI
100
AcDbLine
 62
7
  6
CONTINUOUS
 10
38.25
 20
-5.2174536785
 11
38.25
 21
-4.9997731724
  0
LINE
  5
2E2
100
AcDbEntity
  8
DRAFT
100
AcDbLine
 62
7
  6
CONTINUOUS
 10
38.2500025189
 20
-14.9980078489
 11
38.2500025189
 21
-14.7797903445
  0
LINE
  5
2E3
100
AcDbEntity
  8
DRAFT
100
AcDbLine
 62
7
  6
CONTINUOUS
 10
38.2500025189
 20
-5.2174706036
 11
38.2500025189
 21
-4.9997731774
  0
LINE
  5
2E4
100
AcDbEntity
  8
DRAFT
100
AcDbLine
 62
7
  6
CONTINUOUS
 10
39.7499974811
 20
-14.9950777118
 11
39.7499974811
 21
-14.7797903445
  0
LINE
  5
2E5
100
AcDbEntity
  8
ASSI
100
AcDbLine
 62
7
  6
CONTINUOUS
 10
39.75
 20
-14.9950777072
 11
39.75
 21
-14.7797734966
  0
LINE
  5
2E6
100
AcDbEntity
  8
DRAFT
100
AcDbLine
 62
7
  6
CONTINUOUS
 10
39.7499974811
 20
-5.2174706036
 11
39.7499974811
 21
-5.0025353898
  0
LINE
  5
2E7
100
AcDbEntity
  8
ASSI
100
AcDbLine
 62
7
  6
CONTINUOUS
 10
39.75
 20
-5.2174874514
 11
39.75
 21
-5.0025353941
  0
LINE
  5
2E8
100
AcDbEntity
  8
DRAFT
100
AcDbLine
 62
7
  6
CONTINUOUS
 10
39.9157078043
 20
-5.2147033153
 11
39.9157068998
 21
-5.0344091595
  0
LINE
  5
2E9
100
AcDbEntity
  8
DRAFT
100
AcDbLine
 62
7
  6
CONTINUOUS
 10
39.9157095584
 20
-14.7825564447
 11
39.9157095584
 21
-14.9628503161
  0
LINE
  5
2EA
100
AcDbEntity
  8
SMUSSO
100
AcDbLine
 62
7
  6
CONTINUOUS
 10
41.0192005714
 20
-5.034410632
 11
41.0192005714
 21
-5.2385517174
  0
LINE
  5
2EB
100
AcDbEntity
  8
SMUSSO
100
AcDbLine
 62
7
  6
CONTINUOUS
 10
41.0192005714
 20
-14.7587092306
 11
41.0192005714
 21
-14.9628503161
  0
LINE
  5
2EC
100
AcDbEntity
  8
RACCORDO
100
AcDbLine
 62
253
  6
CONTINUOUS
 10
43.5613700032
 20
-13.9537987242
 11
43.5613700032
 21
-6.0434622238
  0
LINE
  5
2ED
100
AcDbEntity
  8
RACCORDO
100
AcDbLine
 62
253
  6
CONTINUOUS
 10
43.6575483143
 20
-13.953794002
 11
43.6575483143
 21
-6.0434622238
  0
LINE
  5
2EE
100
AcDbEntity
  8
RACCORDO
100
AcDbLine
 62
7
  6
CONTINUOUS
 10
44.2
 20
-13.9986685509
 11
44.2
 21
-5.9985923971
  0
LINE
  5
2EF
100
AcDbEntity
  8
RACCORDO
100
AcDbLine
 62
253
  6
CONTINUOUS
 10
46.2818011603
 20
45.1930636643
 11
47.1889309684
 21
45.1930442207
  0
LINE
  5
2F0
100
AcDbEntity
  8
RACCORDO
100
AcDbLine
 62
253
  6
CONTINUOUS
 10
-46.2818011612
 20
45.1930636647
 11
-47.1889337642
 21
45.1930442207
  0
LINE
  5
2F1
100
AcDbEntity
  8
RACCORDO
100
AcDbLine
 62
7
  6
CONTINUOUS
 10
47.5
 20
-45.5013714045
 11
47.5
 21
45.5041104565
  0
LINE
  5
2F2
100
AcDbEntity
  8
RACCORDO
100
AcDbLine
 62
7
  6
CONTINUOUS
 10
45.5027409305
 20
47.501369526
 11
-45.5027409305
 21
47.501369526
  0
LINE
  5
2F3
100
AcDbEntity
  8
RACCORDO
100
AcDbLine
 62
7
  6
CONTINUOUS
 10
-113.5932250641
 20
-46.1336658294
 11
-87.5481481056
 21
-47.498630474
  0
LINE
  5
2F4
100
AcDbEntity
  8
RACCORDO
100
AcDbLine
 62
253
  6
CONTINUOUS
 10
-94.4367859652
 20
-45.1896946481
 11
-93.4952324822
 21
-45.1896979191
  0
LINE
  5
2F5
100
AcDbEntity
  8
RACCORDO
100
AcDbLine
 62
253
  6
CONTINUOUS
 10
-93.4952324822
 20
-45.1896979191
 11
-87.5481481056
 21
-45.5013714045
  0
LINE
  5
2F6
100
AcDbEntity
  8
ASSI
100
AcDbLine
 62
7
  6
CONTINUOUS
 10
-87.5481481056
 20
-26.648630474
 11
-83.7481481056
 21
-26.5823012273
  0
LINE
  5
2F7
100
AcDbEntity
  8
DRAFT
100
AcDbLine
 62
7
  6
CONTINUOUS
 10
-87.5481481056
 20
-26.648630474
 11
-83.7481481056
 21
-26.5823012273
  0
LINE
  5
2F8
100
AcDbEntity
  8
ASSI
100
AcDbLine
 62
7
  6
CONTINUOUS
 10
-83.7481481056
 20
-25.4323012273
 11
-87.5481481056
 21
-25.498630474
  0
LINE
  5
2F9
100
AcDbEntity
  8
DRAFT
100
AcDbLine
 62
7
  6
CONTINUOUS
 10
-83.7481481056
 20
-25.4323012273
 11
-87.5481481056
 21
-25.498630474
  0
LINE
  5
2FA
100
AcDbEntity
  8
ASSI
100
AcDbLine
 62
7
  6
CONTINUOUS
 10
-87.5481481056
 20
-18.5715491752
 11
-79.5394219024
 21
-18.4317563393
  0
LINE
  5
2FB
100
AcDbEntity
  8
RACCORDO
100
AcDbLine
 62
7
  6
CONTINUOUS
 10
-87.5481481056
 20
-18.5715491752
 11
-79.5394219024
 21
-18.4317563393
  0
LINE
  5
2FC
100
AcDbEntity
  8
ASSI
100
AcDbLine
 62
253
  6
CONTINUOUS
 10
-87.5481481056
 20
-17.57170148
 11
-79.5394219024
 21
-17.4319086442
  0
LINE
  5
2FD
100
AcDbEntity
  8
RACCORDO
100
AcDbLine
 62
253
  6
CONTINUOUS
 10
-87.5481481056
 20
-17.57170148
 11
-79.5394219024
 21
-17.4319086442
  0
LINE
  5
2FE
100
AcDbEntity
  8
ASSI
100
AcDbLine
 62
253
  6
CONTINUOUS
 10
-79.0481481056
 20
-17.4319086442
 11
-79.5394219024
 21
-17.4319086429
  0
LINE
  5
2FF
100
AcDbEntity
  8
RACCORDO
100
AcDbLine
 62
253
  6
CONTINUOUS
 10
-79.0481481056
 20
-17.4319086442
 11
-79.5394219024
 21
-17.4319086429
  0
LINE
  5
300
100
AcDbEntity
  8
ASSI
100
AcDbLine
 62
7
  6
CONTINUOUS
 10
-83.7481481056
 20
-20.5649597207
 11
-87.5481481056
 21
-20.498630474
  0
LINE
  5
301
100
AcDbEntity
  8
DRAFT
100
AcDbLine
 62
7
  6
CONTINUOUS
 10
-83.7481481056
 20
-20.5649597207
 11
-87.5481481056
 21
-20.498630474
  0
LINE
  5
302
100
AcDbEntity
  8
ASSI
100
AcDbLine
 62
7
  6
CONTINUOUS
 10
-87.5481481056
 20
-19.348630474
 11
-83.7481481056
 21
-19.4149597207
  0
LINE
  5
303
100
AcDbEntity
  8
DRAFT
100
AcDbLine
 62
7
  6
CONTINUOUS
 10
-87.5481481056
 20
-19.348630474
 11
-83.7481481056
 21
-19.4149597207
  0
LWPOLYLINE
  5
304
100
AcDbEntity
  8
RACCORDO
100
AcDbPolyline
 62
7
  6
CONTINUOUS
 90
4
 70
0
 10
-100.3731483742
 20
-14.6340218521
 10
-100.3220684349
 20
-14.6630923966
 10
-100.2695046695
 20
-14.6838425146
 10
-100.216563799
 20
-14.6962173194
  0
LINE
  5
305
100
AcDbEntity
  8
ASSI
100
AcDbLine
 62
7
  6
CONTINUOUS
 10
-87.5481481056
 20
-14.748630474
 11
-83.7481481056
 21
-14.6823012273
  0
LINE
  5
306
100
AcDbEntity
  8
DRAFT
100
AcDbLine
 62
7
  6
CONTINUOUS
 10
-87.5481481056
 20
-14.748630474
 11
-83.7481481056
 21
-14.6823012273
  0
LINE
  5
307
100
AcDbEntity
  8
ASSI
100
AcDbLine
 62
7
  6
CONTINUOUS
 10
-83.7481481056
 20
-14.0003823891
 11
-87.5481481056
 21
-14.0375040794
  0
LINE
  5
308
100
AcDbEntity
  8
DRAFT
100
AcDbLine
 62
7
  6
CONTINUOUS
 10
-83.7481481056
 20
-14.0003823891
 11
-87.5481481056
 21
-14.0375040794
  0
LINE
  5
309
100
AcDbEntity
  8
RACCORDO
100
AcDbLine
 62
7
  6
CONTINUOUS
 10
-94.7469843618
 20
-15.0029837521
 11
-100.7469869478
 21
-15.0553449814
  0
LINE
  5
30A
100
AcDbEntity
  8
ASSI
100
AcDbLine
 62
7
  6
CONTINUOUS
 10
-79.0481481056
 20
-15.748630474
 11
-78.7481481056
 21
-15.748630474
  0
LINE
  5
30B
100
AcDbEntity
  8
ASSI
100
AcDbLine
 62
7
  6
CONTINUOUS
 10
-79.0481481056
 20
-15.240300474
 11
-78.7481481056
 21
-15.240300474
  0
LINE
  5
30C
100
AcDbEntity
  8
RACCORDO
100
AcDbLine
 62
253
  6
CONTINUOUS
 10
-101.5444927636
 20
-13.998630474
 11
-100.6481481056
 21
-13.998630474
  0
LINE
  5
30D
100
AcDbEntity
  8
RACCORDO
100
AcDbLine
 62
253
  6
CONTINUOUS
 10
-100.6629038295
 20
-13.8973372207
 11
-100.6833452938
 21
-13.8973378672
  0
LINE
  5
30E
100
AcDbEntity
  8
RACCORDO
100
AcDbLine
 62
253
  6
CONTINUOUS
 10
-94.6639368736
 20
-14.0004802453
 11
-94.665738466
 21
-14.0004794356
  0
LINE
  5
30F
100
AcDbEntity
  8
RACCORDO
100
AcDbLine
 62
7
  6
CONTINUOUS
 10
-100.1645852775
 20
-14.7005216862
 11
-94.703521861
 21
-14.7478294908
  0
LINE
  5
310
100
AcDbEntity
  8
RACCORDO
100
AcDbLine
 62
253
  6
CONTINUOUS
 10
-100.1654831927
 20
-14.7005102355
 11
-100.1645770614
 21
-14.7005217569
  0
LINE
  5
311
100
AcDbEntity
  8
RACCORDO
100
AcDbLine
 62
253
  6
CONTINUOUS
 10
-101.7068088395
 20
-13.9907351492
 11
-101.5444927636
 21
-13.998630474
  0
LINE
  5
312
100
AcDbEntity
  8
RACCORDO
100
AcDbLine
 62
7
  6
CONTINUOUS
 10
-100.216563799
 20
-14.6962173194
 11
-100.1654830027
 21
-14.7004976327
  0
LWPOLYLINE
  5
313
100
AcDbEntity
  8
RACCORDO
100
AcDbPolyline
 62
7
  6
CONTINUOUS
 90
12
 70
0
 10
-100.6816672738
 20
-13.9622944906
 10
-100.6757796943
 20
-14.0355550037
 10
-100.6652880935
 20
-14.1096602844
 10
-100.6500563907
 20
-14.1834229146
 10
-100.6301903673
 20
-14.2550591067
 10
-100.6057207859
 20
-14.3238675275
 10
-100.5767333425
 20
-14.3891485018
 10
-100.5436466228
 20
-14.4495926397
 10
-100.506526328
 20
-14.5048661525
 10
-100.4654820194
 20
-14.5545096292
 10
-100.4210700547
 20
-14.5976108401
 10
-100.3731483742
 20
-14.6340218521
  0
LINE
  5
314
100
AcDbEntity
  8
ASSI
100
AcDbLine
 62
7
  6
CONTINUOUS
 10
-79.0481481056
 20
-10.2224478766
 11
-68.0394219024
 21
-10.030289846
  0
LINE
  5
315
100
AcDbEntity
  8
RACCORDO
100
AcDbLine
 62
7
  6
CONTINUOUS
 10
-79.0481481056
 20
-10.2224478766
 11
-68.0394219024
 21
-10.030289846
  0
LINE
  5
316
100
AcDbEntity
  8
ASSI
100
AcDbLine
 62
7
  6
CONTINUOUS
 10
-83.7481481056
 20
-12.6292088767
 11
-87.5481481056
 21
-12.6580477034
  0
LINE
  5
317
100
AcDbEntity
  8
DRAFT
100
AcDbLine
 62
7
  6
CONTINUOUS
 10
-83.7481481056
 20
-12.6292088767
 11
-87.5481481056
 21
-12.6580477034
  0
LINE
  5
318
100
AcDbEntity
  8
ASSI
100
AcDbLine
 62
7
  6
CONTINUOUS
 10
-79.0481481056
 20
-11.756960474
 11
-78.7481481056
 21
-11.756960474
  0
LINE
  5
319
100
AcDbEntity
  8
ASSI
100
AcDbLine
 62
7
  6
CONTINUOUS
 10
-79.0481481056
 20
-11.248630474
 11
-78.7481481056
 21
-11.248630474
  0
LINE
  5
31A
100
AcDbEntity
  8
RACCORDO
100
AcDbLine
 62
7
  6
CONTINUOUS
 10
-94.898535833
 20
-10.998630474
 11
-94.8674541902
 21
-10.998630474
  0
LINE
  5
31B
100
AcDbEntity
  8
RACCORDO
100
AcDbLine
 62
7
  6
CONTINUOUS
 10
-94.9166685826
 20
-12.9293867131
 11
-94.9165110875
 21
-12.9295852485
  0
LWPOLYLINE
  5
31C
100
AcDbEntity
  8
RACCORDO
100
AcDbPolyline
 62
7
  6
CONTINUOUS
 90
5
 70
0
 10
-94.9165360237
 20
-12.9295480711
 10
-94.9036292969
 20
-12.9469351998
 10
-94.8930069964
 20
-12.963258669
 10
-94.8858297867
 20
-12.9759007685
 10
-94.883698882
 20
-12.9800674251
  0
LINE
  5
31D
100
AcDbEntity
  8
RACCORDO
100
AcDbLine
 62
7
  6
CONTINUOUS
 10
-100.6833143115
 20
-13.8973378665
 11
-100.6816672738
 21
-13.9622944906
  0
LINE
  5
31E
100
AcDbEntity
  8
RACCORDO
100
AcDbLine
 62
7
  6
CONTINUOUS
 10
-100.6833454195
 20
-6.0999237273
 11
-100.6833454195
 21
-13.8973378658
  0
LINE
  5
31F
100
AcDbEntity
  8
RACCORDO
100
AcDbLine
 62
253
  6
CONTINUOUS
 10
-100.6629038295
 20
-6.0999237273
 11
-100.6629038295
 21
-13.8973372207
  0
LINE
  5
320
100
AcDbEntity
  8
RACCORDO
100
AcDbLine
 62
7
  6
CONTINUOUS
 10
-100.6813713583
 20
-6.0295731173
 11
-100.683321391
 21
-6.0999237348
  0
LWPOLYLINE
  5
321
100
AcDbEntity
  8
IMPORT_IGES
100
AcDbPolyline
 62
7
  6
CONTINUOUS
 90
16
 70
0
 10
-96.5534834989
 20
46.0919193578
 10
-96.7728666072
 20
41.1932805476
 10
-97.5372169113
 20
35.3711743875
 10
-98.8460570602
 20
29.9464332743
 10
-100.7521512365
 20
24.476882782
 10
-103.1180353897
 20
18.8087556186
 10
-105.5047478548
 20
13.1065099354
 10
-107.6525187179
 20
7.292098985
 10
-109.5489643063
 20
1.009491832
 10
-111.1193883756
 20
-5.6867535112
 10
-112.3288255081
 20
-12.5520051521
 10
-113.2228761509
 20
-19.5144300641
 10
-113.8685085093
 20
-26.7641387356
 10
-114.2915018987
 20
-34.3337937642
 10
-114.5054292296
 20
-41.9620296606
 10
-114.5405044667
 20
-45.1285427576
  0
LINE
  5
322
100
AcDbEntity
  8
0
100
AcDbLine
 62
7
  6
CONTINUOUS
 10
-78.0678715898
 20
10.9859216638
 11
-78.6383430423
 21
10.8161981796
  0
LINE
  5
323
100
AcDbEntity
  8
ASSI
100
AcDbLine
 62
253
  6
CONTINUOUS
 10
-79.5394219024
 20
-9.2311753975
 11
-68.0394219024
 21
-9.0304421508
  0
LINE
  5
324
100
AcDbEntity
  8
RACCORDO
100
AcDbLine
 62
253
  6
CONTINUOUS
 10
-79.5394219024
 20
-9.2311753975
 11
-68.0394219024
 21
-9.0304421508
  0
LINE
  5
325
100
AcDbEntity
  8
ASSI
100
AcDbLine
 62
253
  6
CONTINUOUS
 10
-67.5481481056
 20
-9.0304421508
 11
-68.0394219024
 21
-9.0304421496
  0
LINE
  5
326
100
AcDbEntity
  8
RACCORDO
100
AcDbLine
 62
253
  6
CONTINUOUS
 10
-67.5481481056
 20
-9.0304421508
 11
-68.0394219024
 21
-9.0304421496
  0
LINE
  5
327
100
AcDbEntity
  8
RACCORDO
100
AcDbLine
 62
7
  6
CONTINUOUS
 10
-94.8674541909
 20
-8.998630474
 11
-94.8985452037
 21
-8.998630474
  0
LINE
  5
328
100
AcDbEntity
  8
ASSI
100
AcDbLine
 62
7
  6
CONTINUOUS
 10
-83.7481481056
 20
-7.3680520714
 11
-87.5481481056
 21
-7.3392132446
  0
LINE
  5
329
100
AcDbEntity
  8
DRAFT
100
AcDbLine
 62
7
  6
CONTINUOUS
 10
-83.7481481056
 20
-7.3680520714
 11
-87.5481481056
 21
-7.3392132446
  0
LINE
  5
32A
100
AcDbEntity
  8
RACCORDO
100
AcDbLine
 62
253
  6
CONTINUOUS
 10
-101.2426224692
 20
-5.9869471929
 11
-101.0758829393
 21
-5.9986304742
  0
LINE
  5
32B
100
AcDbEntity
  8
RACCORDO
100
AcDbLine
 62
7
  6
CONTINUOUS
 10
-94.916670805
 20
-8.9293839044
 11
-94.9165139025
 21
-8.9295816989
  0
LWPOLYLINE
  5
32C
100
AcDbEntity
  8
RACCORDO
100
AcDbPolyline
 62
7
  6
CONTINUOUS
 90
5
 70
0
 10
-94.9165376011
 20
-8.9295356223
 10
-94.903708102
 20
-8.9468131853
 10
-94.8930738553
 20
-8.9631440626
 10
-94.8858689062
 20
-8.9758280487
 10
-94.8837258369
 20
-8.9800167111
  0
LINE
  5
32D
100
AcDbEntity
  8
RACCORDO
100
AcDbLine
 62
7
  6
CONTINUOUS
 10
-94.6740814216
 20
-5.5133099068
 11
-94.6675296181
 21
-5.6447989245
  0
LWPOLYLINE
  5
32E
100
AcDbEntity
  8
RACCORDO
100
AcDbPolyline
 62
7
  6
CONTINUOUS
 90
4
 70
0
 10
-94.6675296181
 20
-5.6447989245
 10
-94.6630564906
 20
-5.7853568696
 10
-94.6608695779
 20
-5.9331047753
 10
-94.6606912186
 20
-5.9965709387
  0
LWPOLYLINE
  5
32F
100
AcDbEntity
  8
RACCORDO
100
AcDbPolyline
 62
7
  6
CONTINUOUS
 90
5
 70
0
 10
-94.665738466
 20
-14.0004794356
 10
-94.6658056871
 20
-14.0305288982
 10
-94.6677413921
 20
-14.1820047336
 10
-94.6721593792
 20
-14.326348943
 10
-94.6788022415
 20
-14.4614475156
  0
LINE
  5
330
100
AcDbEntity
  8
0
100
AcDbLine
 62
7
  6
CONTINUOUS
 10
-77.0284246214
 20
9.9464746955
 11
-76.4579531689
 21
10.1161981796
  0
LWPOLYLINE
  5
331
100
AcDbEntity
  8
RACCORDO
100
AcDbPolyline
 62
7
  6
CONTINUOUS
 90
5
 70
0
 10
-100.1655108046
 20
-5.2967675022
 10
-100.2119510312
 20
-5.3003507718
 10
-100.2651140761
 20
-5.3120691322
 10
-100.3179676931
 20
-5.3322224348
 10
-100.3693863445
 20
-5.3607724526
  0
LINE
  5
332
100
AcDbEntity
  8
RACCORDO
100
AcDbLine
 62
253
  6
CONTINUOUS
 10
-100.1655108046
 20
-5.2967675022
 11
-100.1645769185
 21
-5.2967555214
  0
LINE
  5
333
100
AcDbEntity
  8
RACCORDO
100
AcDbLine
 62
7
  6
CONTINUOUS
 10
-94.6962842224
 20
-5.249369324
 11
-100.1645770572
 21
-5.2967391902
  0
LINE
  5
334
100
AcDbEntity
  8
RACCORDO
100
AcDbLine
 62
253
  6
CONTINUOUS
 10
-100.6629038295
 20
-6.0999237273
 11
-100.6833453037
 21
-6.0999237273
  0
LINE
  5
335
100
AcDbEntity
  8
RACCORDO
100
AcDbLine
 62
253
  6
CONTINUOUS
 10
-101.0758829245
 20
-5.998630474
 11
-100.6481481056
 21
-5.998630474
  0
LINE
  5
336
100
AcDbEntity
  8
ASSI
100
AcDbLine
 62
7
  6
CONTINUOUS
 10
-67.5481481056
 20
-5.6441347506
 11
-67.3481481056
 21
-5.6441347506
  0
LINE
  5
337
100
AcDbEntity
  8
0
100
AcDbLine
 62
7
  6
CONTINUOUS
 10
-67.5481481056
 20
-5.6441347506
 11
-67.3481481056
 21
-5.6441347506
  0
LINE
  5
338
100
AcDbEntity
  8
ASSI
100
AcDbLine
 62
7
  6
CONTINUOUS
 10
-67.5481481056
 20
-5.2385485033
 11
-67.3481481056
 21
-5.238548474
  0
LINE
  5
339
100
AcDbEntity
  8
0
100
AcDbLine
 62
7
  6
CONTINUOUS
 10
-67.5481481056
 20
-5.2385485033
 11
-67.3481481056
 21
-5.238548474
  0
LINE
  5
33A
100
AcDbEntity
  8
ASSI
100
AcDbLine
 62
7
  6
CONTINUOUS
 10
-67.5481481056
 20
-5.2251405015
 11
-67.3481481056
 21
-5.225140474
  0
LINE
  5
33B
100
AcDbEntity
  8
0
100
AcDbLine
 62
7
  6
CONTINUOUS
 10
-67.5481481056
 20
-5.2251405015
 11
-67.3481481056
 21
-5.225140474
  0
LINE
  5
33C
100
AcDbEntity
  8
ASSI
100
AcDbLine
 62
7
  6
CONTINUOUS
 10
-67.3481481056
 20
-4.4039112891
 11
-67.5481481056
 21
-4.4039112891
  0
LINE
  5
33D
100
AcDbEntity
  8
0
100
AcDbLine
 62
7
  6
CONTINUOUS
 10
-67.3481481056
 20
-4.4039112891
 11
-67.5481481056
 21
-4.4039112891
  0
LINE
  5
33E
100
AcDbEntity
  8
ASSI
100
AcDbLine
 62
7
  6
CONTINUOUS
 10
-67.5481481056
 20
-3.948630474
 11
-67.3481481056
 21
-3.948630474
  0
LINE
  5
33F
100
AcDbEntity
  8
0
100
AcDbLine
 62
7
  6
CONTINUOUS
 10
-67.5481481056
 20
-3.948630474
 11
-67.3481481056
 21
-3.948630474
  0
LINE
  5
340
100
AcDbEntity
  8
ASSI
100
AcDbLine
 62
7
  6
CONTINUOUS
 10
-67.5481481056
 20
-3.7581996638
 11
-67.3481481056
 21
-3.7581996638
  0
LINE
  5
341
100
AcDbEntity
  8
0
100
AcDbLine
 62
7
  6
CONTINUOUS
 10
-67.5481481056
 20
-3.7581996638
 11
-67.3481481056
 21
-3.7581996638
  0
LINE
  5
342
100
AcDbEntity
  8
ASSI
100
AcDbLine
 62
7
  6
CONTINUOUS
 10
-67.5481481056
 20
-3.198630474
 11
-67.3481481056
 21
-3.198630474
  0
LINE
  5
343
100
AcDbEntity
  8
0
100
AcDbLine
 62
7
  6
CONTINUOUS
 10
-67.5481481056
 20
-3.198630474
 11
-67.3481481056
 21
-3.198630474
  0
LINE
  5
344
100
AcDbEntity
  8
RACCORDO
100
AcDbLine
 62
253
  6
CONTINUOUS
 10
-94.6589817923
 20
-5.9965720606
 11
-94.6606956504
 21
-5.9965709357
  0
LINE
  5
345
100
AcDbEntity
  8
RACCORDO
100
AcDbLine
 62
7
  6
CONTINUOUS
 10
-100.2262954124
 20
-4.9464599728
 11
-94.7561404344
 21
-4.9941972921
  0
LINE
  5
346
100
AcDbEntity
  8
ASSI
100
AcDbLine
 62
7
  6
CONTINUOUS
 10
-83.7481481056
 20
-5.9968785589
 11
-87.5481481056
 21
-5.9597568687
  0
LINE
  5
347
100
AcDbEntity
  8
DRAFT
100
AcDbLine
 62
7
  6
CONTINUOUS
 10
-83.7481481056
 20
-5.9968785589
 11
-87.5481481056
 21
-5.9597568687
  0
LINE
  5
348
100
AcDbEntity
  8
ASSI
100
AcDbLine
 62
7
  6
CONTINUOUS
 10
-87.5481481056
 20
-5.248630474
 11
-83.7481481056
 21
-5.3149597207
  0
LINE
  5
349
100
AcDbEntity
  8
DRAFT
100
AcDbLine
 62
7
  6
CONTINUOUS
 10
-87.5481481056
 20
-5.248630474
 11
-83.7481481056
 21
-5.3149597207
  0
LWPOLYLINE
  5
34A
100
AcDbEntity
  8
RACCORDO
100
AcDbPolyline
 62
7
  6
CONTINUOUS
 90
4
 70
0
 10
-94.7556219737
 20
-4.934787582
 10
-94.7571105295
 20
-4.932795264
 10
-94.7506557648
 20
-4.9494030416
 10
-94.7393780627
 20
-4.9875733077
  0
LWPOLYLINE
  5
34B
100
AcDbEntity
  8
RACCORDO
100
AcDbPolyline
 62
7
  6
CONTINUOUS
 90
7
 70
0
 10
-94.7393780627
 20
-4.9875733077
 10
-94.7271923332
 20
-5.0408054259
 10
-94.7151208385
 20
-5.1072693151
 10
-94.7032596388
 20
-5.1889977249
 10
-94.6922393346
 20
-5.284377463
 10
-94.6824238728
 20
-5.3926535525
 10
-94.6740814216
 20
-5.5133099068
  0
LWPOLYLINE
  5
34C
100
AcDbEntity
  8
RACCORDO
100
AcDbPolyline
 62
7
  6
CONTINUOUS
 90
8
 70
0
 10
-94.6788022415
 20
-14.4614475156
 10
-94.6873847011
 20
-14.5855151416
 10
-94.6975635248
 20
-14.6968829919
 10
-94.70902633
 20
-14.7948952182
 10
-94.7213979264
 20
-14.8788945963
 10
-94.734048948
 20
-14.9474528637
 10
-94.7468645624
 20
-15.0025370348
 10
-94.7484608622
 20
-15.0084894428
  0
LWPOLYLINE
  5
34D
100
AcDbEntity
  8
RACCORDO
100
AcDbPolyline
 62
7
  6
CONTINUOUS
 90
8
 70
0
 10
-94.8835938849
 20
-11.0182208335
 10
-94.8830933624
 20
-11.0168037862
 10
-94.8813788367
 20
-11.012232743
 10
-94.8820758882
 20
-11.0137935066
 10
-94.8859208374
 20
-11.0215310876
 10
-94.8931410902
 20
-11.0342276701
 10
-94.9037784329
 20
-11.0505488345
 10
-94.9165397802
 20
-11.0677281532
  0
LWPOLYLINE
  5
34E
100
AcDbEntity
  8
RACCORDO
100
AcDbPolyline
 62
7
  6
CONTINUOUS
 90
8
 70
0
 10
-94.883600633
 20
-7.0182394253
 10
-94.8830993121
 20
-7.0168209118
 10
-94.8813768465
 20
-7.0122333396
 10
-94.8820607336
 20
-7.0137662196
 10
-94.8858829467
 20
-7.0214609886
 10
-94.8930759569
 20
-7.034116309
 10
-94.9037014867
 20
-7.0504298713
 10
-94.9165370133
 20
-7.0677144162
  0
LWPOLYLINE
  5
34F
100
AcDbEntity
  8
RACCORDO
100
AcDbPolyline
 62
7
  6
CONTINUOUS
 90
12
 70
0
 10
-100.3693863445
 20
-5.3607724526
 10
-100.4176650093
 20
-5.3967452106
 10
-100.4624485362
 20
-5.4394868394
 10
-100.5038560093
 20
-5.4888278111
 10
-100.5413166372
 20
-5.5438493165
 10
-100.5747389525
 20
-5.6041077653
 10
-100.604048449
 20
-5.6692144782
 10
-100.6288082165
 20
-5.7378398223
 10
-100.6489469198
 20
-5.8092968345
 10
-100.6644552257
 20
-5.8828290413
 10
-100.6752120842
 20
-5.9566531705
 10
-100.6813713583
 20
-6.0295731173
  0
LINE
  5
350
100
AcDbEntity
  8
DRAFT
100
AcDbLine
 62
7
  6
CONTINUOUS
 10
-79.5861845279
 20
-1.9504202204
 11
-82.3481481056
 21
-1.998630474
  0
LINE
  5
351
100
AcDbEntity
  8
ASSI
100
AcDbLine
 62
7
  6
CONTINUOUS
 10
-67.5481481056
 20
-2.6390612842
 11
-67.3481481056
 21
-2.6390612842
  0
LINE
  5
352
100
AcDbEntity
  8
0
100
AcDbLine
 62
7
  6
CONTINUOUS
 10
-67.5481481056
 20
-2.6390612842
 11
-67.3481481056
 21
-2.6390612842
  0
LINE
  5
353
100
AcDbEntity
  8
ASSI
100
AcDbLine
 62
7
  6
CONTINUOUS
 10
-67.5481481056
 20
-2.448630474
 11
-67.3481481056
 21
-2.448630474
  0
LINE
  5
354
100
AcDbEntity
  8
0
100
AcDbLine
 62
7
  6
CONTINUOUS
 10
-67.5481481056
 20
-2.448630474
 11
-67.3481481056
 21
-2.448630474
  0
LINE
  5
355
100
AcDbEntity
  8
ASSI
100
AcDbLine
 62
7
  6
CONTINUOUS
 10
-67.5481481056
 20
-2.5248130714
 11
-82.5481481056
 21
-2.2629870975
  0
LINE
  5
356
100
AcDbEntity
  8
RACCORDO
100
AcDbLine
 62
7
  6
CONTINUOUS
 10
-67.5481481056
 20
-2.5248130714
 11
-82.5481481056
 21
-2.2629870975
  0
LINE
  5
357
100
AcDbEntity
  8
RACCORDO
100
AcDbLine
 62
7
  6
CONTINUOUS
 10
-87.5481481056
 20
-47.498630474
 11
-87.5481481056
 21
47.501369526
  0
LINE
  5
358
100
AcDbEntity
  8
ASSI
100
AcDbLine
 62
253
  6
CONTINUOUS
 10
-80.2636502804
 20
13.833755075
 11
-78.5714734836
 21
17.4626399265
  0
LINE
  5
359
100
AcDbEntity
  8
RACCORDO
100
AcDbLine
 62
253
  6
CONTINUOUS
 10
-80.2636502804
 20
13.833755075
 11
-78.5714734836
 21
17.4626399265
  0
LINE
  5
35A
100
AcDbEntity
  8
RACCORDO
100
AcDbLine
 62
7
  6
CONTINUOUS
 10
-94.9165159611
 20
-11.0676818385
 11
-94.9166709908
 21
-11.0678772785
  0
LINE
  5
35B
100
AcDbEntity
  8
RACCORDO
100
AcDbLine
 62
7
  6
CONTINUOUS
 10
-94.9165127176
 20
-7.0676777509
 11
-94.9166689377
 21
-7.0678746837
  0
LINE
  5
35C
100
AcDbEntity
  8
ASSI
100
AcDbLine
 62
7
  6
CONTINUOUS
 10
-67.5481481056
 20
2.5275521234
 11
-82.5481481056
 21
2.2657261495
  0
LINE
  5
35D
100
AcDbEntity
  8
RACCORDO
100
AcDbLine
 62
7
  6
CONTINUOUS
 10
-67.5481481056
 20
2.5275521234
 11
-82.5481481056
 21
2.2657261495
  0
LINE
  5
35E
100
AcDbEntity
  8
DRAFT
100
AcDbLine
 62
7
  6
CONTINUOUS
 10
-79.5861845279
 20
1.9531592724
 11
-82.3481481056
 21
2.001369526
  0
LINE
  5
35F
100
AcDbEntity
  8
ASSI
100
AcDbLine
 62
7
  6
CONTINUOUS
 10
-83.7481481056
 20
-5.3151219963
 11
-83.7481481056
 21
-14.6821389517
  0
LINE
  5
360
100
AcDbEntity
  8
DRAFT
100
AcDbLine
 62
7
  6
CONTINUOUS
 10
-83.7481481056
 20
-5.3151219963
 11
-83.7481481056
 21
-14.6821389517
  0
LINE
  5
361
100
AcDbEntity
  8
ASSI
100
AcDbLine
 62
7
  6
CONTINUOUS
 10
-83.7481481056
 20
-19.4149597207
 11
-83.7481481056
 21
-26.5823012273
  0
LINE
  5
362
100
AcDbEntity
  8
DRAFT
100
AcDbLine
 62
7
  6
CONTINUOUS
 10
-83.7481481056
 20
-19.4149597207
 11
-83.7481481056
 21
-26.5823012273
  0
LINE
  5
363
100
AcDbEntity
  8
ASSI
100
AcDbLine
 62
7
  6
CONTINUOUS
 10
-78.9552560332
 20
14.3108408161
 11
-77.5022974743
 21
17.426720501
  0
LINE
  5
364
100
AcDbEntity
  8
RACCORDO
100
AcDbLine
 62
7
  6
CONTINUOUS
 10
-78.9552560332
 20
14.3108408161
 11
-77.5022974743
 21
17.426720501
  0
LINE
  5
365
100
AcDbEntity
  8
DRAFT
100
AcDbLine
 62
7
  6
CONTINUOUS
 10
-78.9552560332
 20
14.3108408161
 11
-77.5022974743
 21
17.426720501
  0
LINE
  5
366
100
AcDbEntity
  8
ASSI
100
AcDbLine
 62
253
  6
CONTINUOUS
 10
-67.5481481056
 20
7.2339144495
 11
-68.0394219024
 21
7.2339144495
  0
LINE
  5
367
100
AcDbEntity
  8
RACCORDO
100
AcDbLine
 62
253
  6
CONTINUOUS
 10
-67.5481481056
 20
7.2339144495
 11
-68.0394219024
 21
7.2339144495
  0
LINE
  5
368
100
AcDbEntity
  8
ASSI
100
AcDbLine
 62
7
  6
CONTINUOUS
 10
-82.5481481056
 20
2.2657261495
 11
-82.5481481056
 21
-2.2629870975
  0
LINE
  5
369
100
AcDbEntity
  8
DRAFT
100
AcDbLine
 62
7
  6
CONTINUOUS
 10
-82.5481481056
 20
2.2657261495
 11
-82.5481481056
 21
-2.2629870975
  0
LINE
  5
36A
100
AcDbEntity
  8
DRAFT
100
AcDbLine
 62
7
  6
CONTINUOUS
 10
-82.3481481056
 20
-2.2664781105
 11
-82.3481481056
 21
2.2692171624
  0
LINE
  5
36B
100
AcDbEntity
  8
DRAFT
100
AcDbLine
 62
7
  6
CONTINUOUS
 10
-81.7294427499
 20
-1.9878309319
 11
-81.7294427499
 21
1.9905699838
  0
LINE
  5
36C
100
AcDbEntity
  8
0
100
AcDbLine
 62
7
  6
CONTINUOUS
 10
-78.0678715898
 20
10.9859216638
 11
-77.8981481056
 21
11.5563931163
  0
LINE
  5
36D
100
AcDbEntity
  8
0
100
AcDbLine
 62
7
  6
CONTINUOUS
 10
-77.0284246214
 20
9.9464746955
 11
-77.1981481056
 21
9.3760032429
  0
LINE
  5
36E
100
AcDbEntity
  8
0
100
AcDbLine
 62
7
  6
CONTINUOUS
 10
-77.1981481056
 20
9.3235032349
 11
-77.4755308669
 21
9.3235032349
  0
LINE
  5
36F
100
AcDbEntity
  8
0
100
AcDbLine
 62
7
  6
CONTINUOUS
 10
-77.6207653443
 20
9.3235032349
 11
-77.8981481056
 21
9.3235032349
  0
LINE
  5
370
100
AcDbEntity
  8
0
100
AcDbLine
 62
7
  6
CONTINUOUS
 10
-74.4252555874
 20
9.8661981796
 11
-77.0523080426
 21
9.8661981796
  0
LINE
  5
371
100
AcDbEntity
  8
0
100
AcDbLine
 62
7
  6
CONTINUOUS
 10
-78.0439881686
 20
9.8661981796
 11
-80.6710406238
 21
9.8661981796
  0
LINE
  5
372
100
AcDbEntity
  8
0
100
AcDbLine
 62
7
  6
CONTINUOUS
 10
-76.0564460352
 20
10.1161981796
 11
-76.4579531689
 21
10.1161981796
  0
LINE
  5
373
100
AcDbEntity
  8
0
100
AcDbLine
 62
7
  6
CONTINUOUS
 10
-78.6383430423
 20
10.1161981796
 11
-79.0398501759
 21
10.1161981796
  0
LINE
  5
374
100
AcDbEntity
  8
0
100
AcDbLine
 62
7
  6
CONTINUOUS
 10
-76.0564460352
 20
10.8161981796
 11
-76.4579531689
 21
10.8161981796
  0
LINE
  5
375
100
AcDbEntity
  8
0
100
AcDbLine
 62
7
  6
CONTINUOUS
 10
-78.6383430423
 20
10.8161981796
 11
-79.0398501759
 21
10.8161981796
  0
LINE
  5
376
100
AcDbEntity
  8
0
100
AcDbLine
 62
7
  6
CONTINUOUS
 10
-80.6710406238
 20
11.0661981796
 11
-78.0439881686
 21
11.0661981796
  0
LINE
  5
377
100
AcDbEntity
  8
0
100
AcDbLine
 62
7
  6
CONTINUOUS
 10
-77.0523080426
 20
11.0661981796
 11
-74.4252555874
 21
11.0661981796
  0
LINE
  5
378
100
AcDbEntity
  8
ASSI
100
AcDbLine
 62
253
  6
CONTINUOUS
 10
-75.5481481056
 20
7.3649797529
 11
-68.0394219024
 21
7.2339144495
  0
LINE
  5
379
100
AcDbEntity
  8
RACCORDO
100
AcDbLine
 62
253
  6
CONTINUOUS
 10
-75.5481481056
 20
7.3649797529
 11
-68.0394219024
 21
7.2339144495
  0
LINE
  5
37A
100
AcDbEntity
  8
ASSI
100
AcDbLine
 62
7
  6
CONTINUOUS
 10
-75.0764454465
 20
8.3565938475
 11
-68.0394219024
 21
8.2337621446
  0
LINE
  5
37B
100
AcDbEntity
  8
RACCORDO
100
AcDbLine
 62
7
  6
CONTINUOUS
 10
-75.0764454465
 20
8.3565938475
 11
-68.0394219024
 21
8.2337621446
  0
LINE
  5
37C
100
AcDbEntity
  8
DRAFT
100
AcDbLine
 62
7
  6
CONTINUOUS
 10
-79.5861845279
 20
1.9531592724
 11
-79.5861845279
 21
-1.9504202204
  0
LINE
  5
37D
100
AcDbEntity
  8
ASSI
100
AcDbLine
 62
253
  6
CONTINUOUS
 10
-79.5394219024
 20
-9.2311753975
 11
-79.5394219024
 21
-17.4319086442
  0
LINE
  5
37E
100
AcDbEntity
  8
RACCORDO
100
AcDbLine
 62
253
  6
CONTINUOUS
 10
-79.5394219024
 20
-9.2311753975
 11
-79.5394219024
 21
-17.4319086442
  0
LINE
  5
37F
100
AcDbEntity
  8
ASSI
100
AcDbLine
 62
7
  6
CONTINUOUS
 10
-79.0481481056
 20
-10.0835099922
 11
-79.0481481056
 21
-17.9318324917
  0
LINE
  5
380
100
AcDbEntity
  8
RACCORDO
100
AcDbLine
 62
7
  6
CONTINUOUS
 10
-79.0481481056
 20
-10.0835099922
 11
-79.0481481056
 21
-17.9318324917
  0
LINE
  5
381
100
AcDbEntity
  8
0
100
AcDbLine
 62
7
  6
CONTINUOUS
 10
-79.0398501759
 20
10.1161981796
 11
-79.0398501759
 21
10.8161981796
  0
LINE
  5
382
100
AcDbEntity
  8
ASSI
100
AcDbLine
 62
7
  6
CONTINUOUS
 10
-78.7481481056
 20
-11.248630474
 11
-78.7481481056
 21
-15.748630474
  0
LINE
  5
383
100
AcDbEntity
  8
0
100
AcDbLine
 62
7
  6
CONTINUOUS
 10
-78.6908430503
 20
10.8161981796
 11
-78.6908430503
 21
10.5388154184
  0
LINE
  5
384
100
AcDbEntity
  8
0
100
AcDbLine
 62
7
  6
CONTINUOUS
 10
-78.6908430503
 20
10.3935809409
 11
-78.6908430503
 21
10.1161981796
  0
LINE
  5
385
100
AcDbEntity
  8
0
100
AcDbLine
 62
7
  6
CONTINUOUS
 10
-77.8981481056
 20
12.4039181613
 11
-77.8981481056
 21
11.5563931163
  0
LINE
  5
386
100
AcDbEntity
  8
0
100
AcDbLine
 62
7
  6
CONTINUOUS
 10
-77.8981481056
 20
9.3760032429
 11
-77.8981481056
 21
8.528478198
  0
LINE
  5
387
100
AcDbEntity
  8
0
100
AcDbLine
 62
7
  6
CONTINUOUS
 10
-77.1981481056
 20
12.4039181613
 11
-77.1981481056
 21
11.5563931163
  0
LINE
  5
388
100
AcDbEntity
  8
0
100
AcDbLine
 62
7
  6
CONTINUOUS
 10
-77.1981481056
 20
9.3760032429
 11
-77.1981481056
 21
8.528478198
  0
LINE
  5
389
100
AcDbEntity
  8
ASSI
100
AcDbLine
 62
253
  6
CONTINUOUS
 10
-77.0394219024
 20
17.4348000246
 11
-77.0394219024
 21
25.5679390278
  0
LINE
  5
38A
100
AcDbEntity
  8
RACCORDO
100
AcDbLine
 62
253
  6
CONTINUOUS
 10
-77.0394219024
 20
17.4348000246
 11
-77.0394219024
 21
25.5679390278
  0
LINE
  5
38B
100
AcDbEntity
  8
ASSI
100
AcDbLine
 62
7
  6
CONTINUOUS
 10
-76.5481481056
 20
17.9347238945
 11
-76.5481481056
 21
25.0679722268
  0
LINE
  5
38C
100
AcDbEntity
  8
RACCORDO
100
AcDbLine
 62
7
  6
CONTINUOUS
 10
-76.5481481056
 20
17.9347238945
 11
-76.5481481056
 21
25.0679722268
  0
LINE
  5
38D
100
AcDbEntity
  8
0
100
AcDbLine
 62
7
  6
CONTINUOUS
 10
-76.4054531609
 20
10.8161981796
 11
-76.4054531609
 21
10.5388154184
  0
LINE
  5
38E
100
AcDbEntity
  8
0
100
AcDbLine
 62
7
  6
CONTINUOUS
 10
-76.4054531609
 20
10.3935809409
 11
-76.4054531609
 21
10.1161981796
  0
LINE
  5
38F
100
AcDbEntity
  8
0
100
AcDbLine
 62
7
  6
CONTINUOUS
 10
-77.1981481056
 20
11.6088931243
 11
-77.4755308669
 21
11.6088931243
  0
LINE
  5
390
100
AcDbEntity
  8
0
100
AcDbLine
 62
7
  6
CONTINUOUS
 10
-77.6207653443
 20
11.6088931243
 11
-77.8981481056
 21
11.6088931243
  0
LINE
  5
391
100
AcDbEntity
  8
ASSI
100
AcDbLine
 62
253
  6
CONTINUOUS
 10
-80.2636502804
 20
13.833755075
 11
-75.5481481056
 21
13.7514456784
  0
LINE
  5
392
100
AcDbEntity
  8
RACCORDO
100
AcDbLine
 62
253
  6
CONTINUOUS
 10
-80.2636502804
 20
13.833755075
 11
-75.5481481056
 21
13.7514456784
  0
LINE
  5
393
100
AcDbEntity
  8
ASSI
100
AcDbLine
 62
7
  6
CONTINUOUS
 10
-79.0934435794
 20
14.3132528887
 11
-75.5481481056
 21
14.251369526
  0
LINE
  5
394
100
AcDbEntity
  8
RACCORDO
100
AcDbLine
 62
7
  6
CONTINUOUS
 10
-79.0934435794
 20
14.3132528887
 11
-75.5481481056
 21
14.251369526
  0
LINE
  5
395
100
AcDbEntity
  8
0
100
AcDbLine
 62
7
  6
CONTINUOUS
 10
-78.6383430423
 20
10.1161981796
 11
-78.0678715898
 21
9.9464746955
  0
LINE
  5
396
100
AcDbEntity
  8
0
100
AcDbLine
 62
7
  6
CONTINUOUS
 10
-76.4579531689
 20
10.8161981796
 11
-77.0284246214
 21
10.9859216638
  0
LINE
  5
397
100
AcDbEntity
  8
0
100
AcDbLine
 62
7
  6
CONTINUOUS
 10
-76.0564460352
 20
10.1161981796
 11
-76.0564460352
 21
10.8161981796
  0
LINE
  5
398
100
AcDbEntity
  8
ASSI
100
AcDbLine
 62
7
  6
CONTINUOUS
 10
-75.5481481056
 20
14.251369526
 11
-75.5481481056
 21
13.0275080972
  0
LINE
  5
399
100
AcDbEntity
  8
RACCORDO
100
AcDbLine
 62
7
  6
CONTINUOUS
 10
-75.5481481056
 20
14.251369526
 11
-75.5481481056
 21
13.0275080972
  0
LINE
  5
39A
100
AcDbEntity
  8
ASSI
100
AcDbLine
 62
7
  6
CONTINUOUS
 10
-75.5481481056
 20
7.3649797529
 11
-75.5481481056
 21
7.904888262
  0
LINE
  5
39B
100
AcDbEntity
  8
RACCORDO
100
AcDbLine
 62
7
  6
CONTINUOUS
 10
-75.5481481056
 20
7.3649797529
 11
-75.5481481056
 21
7.904888262
  0
LINE
  5
39C
100
AcDbEntity
  8
ASSI
100
AcDbLine
 62
7
  6
CONTINUOUS
 10
-77.5735714636
 20
17.4254764089
 11
-77.0394219024
 21
17.4348000242
  0
LINE
  5
39D
100
AcDbEntity
  8
DRAFT
100
AcDbLine
 62
7
  6
CONTINUOUS
 10
-77.5735714636
 20
17.4254764089
 11
-77.0394219024
 21
17.4348000242
  0
LINE
  5
39E
100
AcDbEntity
  8
0
100
AcDbLine
 62
7
  6
CONTINUOUS
 10
-77.8981481056
 20
9.3760032429
 11
-78.0678715898
 21
9.9464746955
  0
LINE
  5
39F
100
AcDbEntity
  8
0
100
AcDbLine
 62
7
  6
CONTINUOUS
 10
-77.0284246214
 20
10.9859216638
 11
-77.1981481056
 21
11.5563931163
  0
LINE
  5
3A0
100
AcDbEntity
  8
RACCORDO
100
AcDbLine
 62
7
  6
CONTINUOUS
 10
-70.0481481056
 20
0.7663064739
 11
-70.0481481056
 21
-2.4811754091
  0
LINE
  5
3A1
100
AcDbEntity
  8
ASSI
100
AcDbLine
 62
7
  6
CONTINUOUS
 10
-69.0481481056
 20
-2.498630474
 11
-69.0481481056
 21
2.501369526
  0
LINE
  5
3A2
100
AcDbEntity
  8
DRAFT
100
AcDbLine
 62
7
  6
CONTINUOUS
 10
-69.0481481056
 20
-2.498630474
 11
-69.0481481056
 21
2.501369526
  0
LINE
  5
3A3
100
AcDbEntity
  8
ASSI
100
AcDbLine
 62
253
  6
CONTINUOUS
 10
-68.0394219024
 20
7.2339144495
 11
-68.0394219024
 21
2.5189769074
  0
LINE
  5
3A4
100
AcDbEntity
  8
RACCORDO
100
AcDbLine
 62
253
  6
CONTINUOUS
 10
-68.0394219024
 20
7.2339144495
 11
-68.0394219024
 21
2.5189769074
  0
LINE
  5
3A5
100
AcDbEntity
  8
ASSI
100
AcDbLine
 62
253
  6
CONTINUOUS
 10
-68.0394219024
 20
-2.5162378554
 11
-68.0394219024
 21
-9.0304421508
  0
LINE
  5
3A6
100
AcDbEntity
  8
RACCORDO
100
AcDbLine
 62
253
  6
CONTINUOUS
 10
-68.0394219024
 20
-2.5162378554
 11
-68.0394219024
 21
-9.0304421508
  0
LINE
  5
3A7
100
AcDbEntity
  8
RACCORDO
100
AcDbLine
 62
7
  6
CONTINUOUS
 10
-67.5481481056
 20
7.733838297
 11
-67.5481481056
 21
2.5275521234
  0
LINE
  5
3A8
100
AcDbEntity
  8
RACCORDO
100
AcDbLine
 62
7
  6
CONTINUOUS
 10
-67.5481481056
 20
-2.5248130714
 11
-67.5481481056
 21
-6.1862266335
  0
LINE
  5
3A9
100
AcDbEntity
  8
RACCORDO
100
AcDbLine
 62
7
  6
CONTINUOUS
 10
-67.5481481056
 20
-7.8110343145
 11
-67.5481481056
 21
-9.5303659984
  0
LINE
  5
3AA
100
AcDbEntity
  8
ASSI
100
AcDbLine
 62
7
  6
CONTINUOUS
 10
-67.5481481056
 20
-9.5303659984
 11
-67.5481481056
 21
7.733838297
  0
LINE
  5
3AB
100
AcDbEntity
  8
DRAFT
100
AcDbLine
 62
7
  6
CONTINUOUS
 10
-67.5481481056
 20
-2.5248130714
 11
-67.5481481056
 21
2.5275521234
  0
LINE
  5
3AC
100
AcDbEntity
  8
ASSI
100
AcDbLine
 62
7
  6
CONTINUOUS
 10
-67.3481481056
 20
-2.448630474
 11
-67.3481481056
 21
-3.948630474
  0
LINE
  5
3AD
100
AcDbEntity
  8
0
100
AcDbLine
 62
7
  6
CONTINUOUS
 10
-67.3481481056
 20
-2.448630474
 11
-67.3481481056
 21
-3.948630474
  0
LINE
  5
3AE
100
AcDbEntity
  8
ASSI
100
AcDbLine
 62
7
  6
CONTINUOUS
 10
-67.3481481056
 20
-4.4039384718
 11
-67.3481481056
 21
-5.6440978159
  0
LINE
  5
3AF
100
AcDbEntity
  8
0
100
AcDbLine
 62
7
  6
CONTINUOUS
 10
-67.3481481056
 20
-4.4039589474
 11
-67.3481481056
 21
-5.6442980576
  0
LINE
  5
3B0
100
AcDbEntity
  8
ASSI
100
AcDbLine
 62
7
  6
CONTINUOUS
 10
-85.4117215421
 20
25.7140780616
 11
-77.0394219024
 21
25.5679390278
  0
LINE
  5
3B1
100
AcDbEntity
  8
DRAFT
100
AcDbLine
 62
7
  6
CONTINUOUS
 10
-85.4117215421
 20
25.7140780616
 11
-77.0394219024
 21
25.5679390278
  0
LINE
  5
3B2
100
AcDbEntity
  8
ASSI
100
AcDbLine
 62
253
  6
CONTINUOUS
 10
-87.5481481056
 20
25.800516516
 11
-86.409440059
 21
25.7806402931
  0
LINE
  5
3B3
100
AcDbEntity
  8
RACCORDO
100
AcDbLine
 62
253
  6
CONTINUOUS
 10
-87.5481481056
 20
25.800516516
 11
-86.409440059
 21
25.7806402931
  0
LINE
  5
3B4
100
AcDbEntity
  8
ASSI
100
AcDbLine
 62
7
  6
CONTINUOUS
 10
-87.5481481056
 20
26.1004708246
 11
-86.409440059
 21
26.0805946017
  0
LINE
  5
3B5
100
AcDbEntity
  8
RACCORDO
100
AcDbLine
 62
7
  6
CONTINUOUS
 10
-87.5481481056
 20
26.1004708246
 11
-86.409440059
 21
26.0805946017
  0
LINE
  5
3B6
100
AcDbEntity
  8
ASSI
100
AcDbLine
 62
253
  6
CONTINUOUS
 10
-86.1258239603
 20
25.7151623574
 11
-85.9826909214
 21
25.6484183253
  0
LINE
  5
3B7
100
AcDbEntity
  8
RACCORDO
100
AcDbLine
 62
253
  6
CONTINUOUS
 10
-86.1258239603
 20
25.7151623574
 11
-85.9826909214
 21
25.6484183253
  0
LINE
  5
3B8
100
AcDbEntity
  8
ASSI
100
AcDbLine
 62
7
  6
CONTINUOUS
 10
-86.0042742037
 20
25.9870546935
 11
-85.3562578189
 21
25.6848796907
  0
LINE
  5
3B9
100
AcDbEntity
  8
RACCORDO
100
AcDbLine
 62
7
  6
CONTINUOUS
 10
-86.0042742037
 20
25.9870546935
 11
-85.3562578189
 21
25.6848796907
  0
LINE
  5
3BA
100
AcDbEntity
  8
RACCORDO
100
AcDbLine
 62
253
  6
CONTINUOUS
 10
-93.4836454685
 20
45.1930442207
 11
-87.5481481056
 21
45.5041104565
  0
LINE
  5
3BB
100
AcDbEntity
  8
RACCORDO
100
AcDbLine
 62
253
  6
CONTINUOUS
 10
-94.4271148781
 20
45.1930636643
 11
-93.483645322
 21
45.1930442207
  0
LINE
  5
3BC
100
AcDbEntity
  8
RACCORDO
100
AcDbLine
 62
7
  6
CONTINUOUS
 10
-95.6052866009
 20
47.0791127901
 11
-87.5481481056
 21
47.501369526
  0
ARC
  5
3BD
100
AcDbEntity
  8
RACCORDO
100
AcDbCircle
 62
7
  6
CONTINUOUS
 10
-42.5464298243
 20
62.9911187154
 40
77.9905794495
100
AcDbArc
 50
269.5212161821
 51
269.7401293428
  0
ARC
  5
3BE
100
AcDbEntity
  8
RACCORDO
100
AcDbCircle
 62
7
  6
CONTINUOUS
 10
-42.6862754492
 20
-61.2506853525
 40
56.2524657729
100
AcDbArc
 50
90.2178545047
 51
90.5213641775
  0
ARC
  5
3BF
100
AcDbEntity
  8
RACCORDO
100
AcDbCircle
 62
7
  6
CONTINUOUS
 10
-45.1899211546
 20
45.182847215
 40
2.0026440461
100
AcDbArc
 50
89.9134996716
 51
134.0058830174
  0
ARC
  5
3C0
100
AcDbEntity
  8
RACCORDO
100
AcDbCircle
 62
7
  6
CONTINUOUS
 10
-45.1901697748
 20
-45.1783213212
 40
2.0023790309
100
AcDbArc
 50
224.5277674483
 51
270.1527619489
  0
ARC
  5
3C1
100
AcDbEntity
  8
RACCORDO
100
AcDbCircle
 62
7
  6
CONTINUOUS
 10
-45.1937077176
 20
-45.1839678761
 40
1.9958507524
100
AcDbArc
 50
220.5023594808
 51
224.4834290871
  0
ARC
  5
3C2
100
AcDbEntity
  8
RACCORDO
100
AcDbCircle
 62
7
  6
CONTINUOUS
 10
-45.195555885
 20
45.1904091571
 40
1.9933796208
100
AcDbArc
 50
160.5890836246
 51
179.9242602552
  0
ARC
  5
3C3
100
AcDbEntity
  8
RACCORDO
100
AcDbCircle
 62
7
  6
CONTINUOUS
 10
-45.1961450654
 20
45.1904410579
 40
1.9928133348
100
AcDbArc
 50
138.1506437891
 51
160.5843189412
  0
ARC
  5
3C4
100
AcDbEntity
  8
RACCORDO
100
AcDbCircle
 62
7
  6
CONTINUOUS
 10
-45.1964873708
 20
45.1908948382
 40
1.9922556034
100
AcDbArc
 50
134.03084809
 51
138.1537970766
  0
ARC
  5
3C5
100
AcDbEntity
  8
RACCORDO
100
AcDbCircle
 62
7
  6
CONTINUOUS
 10
-45.1973527345
 20
-45.1872359037
 40
1.9909706075
100
AcDbArc
 50
180.0708512911
 51
199.6085461728
  0
ARC
  5
3C6
100
AcDbEntity
  8
RACCORDO
100
AcDbCircle
 62
7
  6
CONTINUOUS
 10
-45.1980064935
 20
-45.187564613
 40
1.990246047
100
AcDbArc
 50
199.6059480225
 51
220.5040027813
  0
ARC
  5
3C7
100
AcDbEntity
  8
RACCORDO
100
AcDbCircle
 62
253
  6
CONTINUOUS
 10
-43.2239062785
 20
-13.9999267427
 40
1.2047846143
100
AcDbArc
 50
180.0263227265
 51
185.9620749075
  0
ARC
  5
3C8
100
AcDbEntity
  8
RACCORDO
100
AcDbCircle
 62
253
  6
CONTINUOUS
 10
-43.2236082282
 20
-5.996609669
 40
1.2043763304
100
AcDbArc
 50
144.5861924093
 51
179.9982109377
  0
ARC
  5
3C9
100
AcDbEntity
  8
RACCORDO
100
AcDbCircle
 62
253
  6
CONTINUOUS
 10
-43.2264849461
 20
-14.0016752358
 40
1.2020255284
100
AcDbArc
 50
185.891949973
 51
235.4653047903
  0
ARC
  5
3CA
100
AcDbEntity
  8
RACCORDO
100
AcDbCircle
 62
253
  6
CONTINUOUS
 10
-43.2294731383
 20
-5.9915545791
 40
1.1966356199
100
AcDbArc
 50
95.7123573599
 51
144.6207258089
  0
ARC
  5
3CB
100
AcDbEntity
  8
RACCORDO
100
AcDbCircle
 62
253
  6
CONTINUOUS
 10
-43.2310800789
 20
-14.0073455261
 40
1.1947290681
100
AcDbArc
 50
235.4926823416
 51
250.665213414
  0
ARC
  5
3CC
100
AcDbEntity
  8
RACCORDO
100
AcDbCircle
 62
253
  6
CONTINUOUS
 10
-43.2323193119
 20
-14.0109152027
 40
1.1909504267
100
AcDbArc
 50
250.664610398
 51
269.9243634098
  0
ARC
  5
3CD
100
AcDbEntity
  8
RACCORDO
100
AcDbCircle
 62
253
  6
CONTINUOUS
 10
-43.2305409646
 20
-5.9813147457
 40
1.1863098036
100
AcDbArc
 50
90.097156261
 51
95.7102656772
  0
ARC
  5
3CE
100
AcDbEntity
  8
RACCORDO
100
AcDbCircle
 62
7
  6
CONTINUOUS
 10
-43.193769014
 20
-6.0220605389
 40
1.0215404151
100
AcDbArc
 50
90.2451073703
 51
93.2597786786
  0
ARC
  5
3CF
100
AcDbEntity
  8
RACCORDO
100
AcDbCircle
 62
253
  6
CONTINUOUS
 10
-43.2004704451
 20
-14.0009233816
 40
1.0013634678
100
AcDbArc
 50
185.8579521846
 51
222.5867893588
  0
ARC
  5
3D0
100
AcDbEntity
  8
RACCORDO
100
AcDbCircle
 62
253
  6
CONTINUOUS
 10
-43.2006479252
 20
-5.9963509535
 40
1.0011756406
100
AcDbArc
 50
95.644642506
 51
180.0212502172
  0
ARC
  5
3D1
100
AcDbEntity
  8
RACCORDO
100
AcDbCircle
 62
253
  6
CONTINUOUS
 10
-43.2011685309
 20
-14.0021089585
 40
1.0000519406
100
AcDbArc
 50
222.5638444107
 51
243.4111891645
  0
ARC
  5
3D2
100
AcDbEntity
  8
RACCORDO
100
AcDbCircle
 62
253
  6
CONTINUOUS
 10
-43.2020693547
 20
-14.0002283965
 40
0.9998448201
100
AcDbArc
 50
180.0203011266
 51
185.9069215908
  0
ARC
  5
3D3
100
AcDbEntity
  8
RACCORDO
100
AcDbCircle
 62
253
  6
CONTINUOUS
 10
-43.2017380528
 20
-14.0036185202
 40
0.9984479285
100
AcDbArc
 50
243.4016422587
 51
269.9006208383
  0
ARC
  5
3D4
100
AcDbEntity
  8
RACCORDO
100
AcDbCircle
 62
7
  6
CONTINUOUS
 10
-43.2032618468
 20
-5.9987073365
 40
0.9967464181
100
AcDbArc
 50
139.5420952201
 51
179.9933929029
  0
ARC
  5
3D5
100
AcDbEntity
  8
RACCORDO
100
AcDbCircle
 62
7
  6
CONTINUOUS
 10
-43.2050693625
 20
-5.9992572764
 40
0.9959391246
100
AcDbArc
 50
127.033460614
 51
130.9505700961
  0
ARC
  5
3D6
100
AcDbEntity
  8
RACCORDO
100
AcDbCircle
 62
253
  6
CONTINUOUS
 10
-43.201634829
 20
-5.9899171463
 40
0.9946065247
100
AcDbArc
 50
90.0991759592
 51
95.6245205615
  0
ARC
  5
3D7
100
AcDbEntity
  8
RACCORDO
100
AcDbCircle
 62
7
  6
CONTINUOUS
 10
-43.21100618
 20
-5.9911965756
 40
0.9859970195
100
AcDbArc
 50
134.8532161758
 51
139.5821672572
  0
ARC
  5
3D8
100
AcDbEntity
  8
RACCORDO
100
AcDbCircle
 62
7
  6
CONTINUOUS
 10
-43.2170011613
 20
-5.9855440502
 40
0.9777616713
100
AcDbArc
 50
130.9491614363
 51
134.8377899147
  0
ARC
  5
3D9
100
AcDbEntity
  8
RACCORDO
100
AcDbCircle
 62
7
  6
CONTINUOUS
 10
-43.2800581833
 20
-14.0035759473
 40
0.9199420296
100
AcDbArc
 50
180.0389866848
 51
185.7175823533
  0
ARC
  5
3DA
100
AcDbEntity
  8
RACCORDO
100
AcDbCircle
 62
253
  6
CONTINUOUS
 10
-44.5919546235
 20
2955.5795167904
 40
2960.3717492548
100
AcDbArc
 50
270.1257012051
 51
270.3540208377
  0
ARC
  5
3DB
100
AcDbEntity
  8
RACCORDO
100
AcDbCircle
 62
253
  6
CONTINUOUS
 10
-26.3126667822
 20
-13.9904697386
 40
1.2622168949
100
AcDbArc
 50
325.1514752555
 51
359.9879531357
  0
ARC
  5
3DC
100
AcDbEntity
  8
RACCORDO
100
AcDbCircle
 62
253
  6
CONTINUOUS
 10
-26.3096827439
 20
-13.992383681
 40
1.2586693562
100
AcDbArc
 50
321.4952773651
 51
325.145357282
  0
ARC
  5
3DD
100
AcDbEntity
  8
RACCORDO
100
AcDbCircle
 62
253
  6
CONTINUOUS
 10
-26.3043932795
 20
-13.9981669415
 40
1.2508881076
100
AcDbArc
 50
274.6347483991
 51
321.5517344997
  0
ARC
  5
3DE
100
AcDbEntity
  8
RACCORDO
100
AcDbCircle
 62
253
  6
CONTINUOUS
 10
-26.2927609989
 20
-5.9776562202
 40
1.2419792498
100
AcDbArc
 50
49.0508785712
 51
90.3542375758
  0
ARC
  5
3DF
100
AcDbEntity
  8
RACCORDO
100
AcDbCircle
 62
253
  6
CONTINUOUS
 10
-26.3029978315
 20
-14.0075155296
 40
1.2414177463
100
AcDbArc
 50
269.7198805553
 51
274.6054184455
  0
ARC
  5
3E0
100
AcDbEntity
  8
RACCORDO
100
AcDbCircle
 62
253
  6
CONTINUOUS
 10
-26.1928019248
 20
-13.9987095013
 40
1.0566576651
100
AcDbArc
 50
269.6096923183
 51
313.6612325142
  0
ARC
  5
3E1
100
AcDbEntity
  8
RACCORDO
100
AcDbCircle
 62
253
  6
CONTINUOUS
 10
-26.1920700705
 20
-13.9994233677
 40
1.0556347493
100
AcDbArc
 50
313.6592459948
 51
0.0287133353
  0
ARC
  5
3E2
100
AcDbEntity
  8
RACCORDO
100
AcDbCircle
 62
253
  6
CONTINUOUS
 10
-26.1936285718
 20
-5.9998012467
 40
1.0533603802
100
AcDbArc
 50
49.2523874312
 51
90.345829524
  0
ARC
  5
3E3
100
AcDbEntity
  8
RACCORDO
100
AcDbCircle
 62
253
  6
CONTINUOUS
 10
-26.1930576281
 20
-5.9993915854
 40
1.0526424243
100
AcDbArc
 50
0.0414276149
 51
36.9112650839
  0
ARC
  5
3E4
100
AcDbEntity
  8
RACCORDO
100
AcDbCircle
 62
253
  6
CONTINUOUS
 10
-26.1928549035
 20
-5.9989608909
 40
1.0522187388
100
AcDbArc
 50
36.8991430596
 51
49.2544348977
  0
ARC
  5
3E5
100
AcDbEntity
  8
DRAFT
100
AcDbCircle
 62
7
  6
CONTINUOUS
 10
-26.195883245
 20
-6.0013348402
 40
1.0354127906
100
AcDbArc
 50
49.7789285951
 51
90.2278060618
  0
ARC
  5
3E6
100
AcDbEntity
  8
DRAFT
100
AcDbCircle
 62
7
  6
CONTINUOUS
 10
-26.1958832358
 20
-13.9959261433
 40
1.0354127551
100
AcDbArc
 50
269.7721934226
 51
310.2211008281
  0
ARC
  5
3E7
100
AcDbEntity
  8
DRAFT
100
AcDbCircle
 62
7
  6
CONTINUOUS
 10
-26.1946925745
 20
-5.9981326265
 40
1.0321995013
100
AcDbArc
 50
39.7828374831
 51
49.7146139472
  0
ARC
  5
3E8
100
AcDbEntity
  8
DRAFT
100
AcDbCircle
 62
7
  6
CONTINUOUS
 10
-26.1924985393
 20
-14.0013100884
 40
1.0291165558
100
AcDbArc
 50
310.2707743765
 51
329.8198584994
  0
ARC
  5
3E9
100
AcDbEntity
  8
DRAFT
100
AcDbCircle
 62
7
  6
CONTINUOUS
 10
-26.1876377722
 20
-5.9925444191
 40
1.0232023045
100
AcDbArc
 50
30.152129087
 51
39.7951469007
  0
ARC
  5
3EA
100
AcDbEntity
  8
RACCORDO
100
AcDbCircle
 62
7
  6
CONTINUOUS
 10
-26.2061440702
 20
-13.8972275013
 40
0.8048203154
100
AcDbArc
 50
326.7412743628
 51
359.9921889922
  0
ARC
  5
3EB
100
AcDbEntity
  8
RACCORDO
100
AcDbCircle
 62
7
  6
CONTINUOUS
 10
-26.205984308
 20
-6.0999854817
 40
0.8046579379
100
AcDbArc
 50
0.0043972155
 51
33.2878065367
  0
ARC
  5
3EC
100
AcDbEntity
  8
RACCORDO
100
AcDbCircle
 62
7
  6
CONTINUOUS
 10
-26.2042093145
 20
-6.0984031291
 40
0.8023068749
100
AcDbArc
 50
33.2629166432
 51
48.1576503169
  0
ARC
  5
3ED
100
AcDbEntity
  8
RACCORDO
100
AcDbCircle
 62
7
  6
CONTINUOUS
 10
-26.204202106
 20
-13.8988646476
 40
0.8022969719
100
AcDbArc
 50
311.8577835724
 51
326.7629824926
  0
ARC
  5
3EE
100
AcDbEntity
  8
RACCORDO
100
AcDbCircle
 62
7
  6
CONTINUOUS
 10
-26.2018847427
 20
-6.093994618
 40
0.798342714
100
AcDbArc
 50
41.2741971293
 51
89.6511260741
  0
ARC
  5
3EF
100
AcDbEntity
  8
RACCORDO
100
AcDbCircle
 62
7
  6
CONTINUOUS
 10
-26.2018846099
 20
-13.9032668357
 40
0.7983423059
100
AcDbArc
 50
270.348864616
 51
318.7258238567
  0
ARC
  5
3F0
100
AcDbEntity
  8
RACCORDO
100
AcDbCircle
 62
7
  6
CONTINUOUS
 10
-26.2018108304
 20
-13.9027228785
 40
0.7978148108
100
AcDbArc
 50
270.2680610456
 51
311.9147689223
  0
ARC
  5
3F1
100
AcDbEntity
  8
RACCORDO
100
AcDbCircle
 62
7
  6
CONTINUOUS
 10
-26.2018100072
 20
-6.0945357812
 40
0.7978124023
100
AcDbArc
 50
48.1007441882
 51
89.7319971819
  0
ARC
  5
3F2
100
AcDbEntity
  8
RACCORDO
100
AcDbCircle
 62
7
  6
CONTINUOUS
 10
-44.3453688034
 20
3628.7248736742
 40
3633.7166458347
100
AcDbArc
 50
270.1436805644
 51
270.2845463223
  0
ARC
  5
3F3
100
AcDbEntity
  8
RACCORDO
100
AcDbCircle
 62
253
  6
CONTINUOUS
 10
0.0
 20
-595.6568843001
 40
549.1684914111
100
AcDbArc
 50
89.1486537492
 51
90.8513462508
  0
ARC
  5
3F4
100
AcDbEntity
  8
RACCORDO
100
AcDbCircle
 62
7
  6
CONTINUOUS
 10
43.559261607
 20
-3138.481172926
 40
3123.4741871151
100
AcDbArc
 50
90.1523461028
 51
90.2957996733
  0
ARC
  5
3F5
100
AcDbEntity
  8
RACCORDO
100
AcDbCircle
 62
253
  6
CONTINUOUS
 10
26.3024371124
 20
-5.9858745406
 40
1.254875703
100
AcDbArc
 50
145.3806997471
 51
180.0489723073
  0
ARC
  5
3F6
100
AcDbEntity
  8
RACCORDO
100
AcDbCircle
 62
253
  6
CONTINUOUS
 10
26.3035962701
 20
-14.0001799344
 40
1.248774417
100
AcDbArc
 50
228.8620682505
 51
270.2510176121
  0
ARC
  5
3F7
100
AcDbEntity
  8
RACCORDO
100
AcDbCircle
 62
253
  6
CONTINUOUS
 10
26.2932276001
 20
-5.9789531403
 40
1.2433204969
100
AcDbArc
 50
94.689223268
 51
145.4020731206
  0
ARC
  5
3F8
100
AcDbEntity
  8
RACCORDO
100
AcDbCircle
 62
253
  6
CONTINUOUS
 10
26.2927626522
 20
-5.9746725737
 40
1.2389831867
100
AcDbArc
 50
89.6449838252
 51
94.683976823
  0
ARC
  5
3F9
100
AcDbEntity
  8
RACCORDO
100
AcDbCircle
 62
253
  6
CONTINUOUS
 10
26.1943311833
 20
-13.9974172913
 40
1.0586381645
100
AcDbArc
 50
214.6444103515
 51
229.0850122908
  0
ARC
  5
3FA
100
AcDbEntity
  8
RACCORDO
100
AcDbCircle
 62
253
  6
CONTINUOUS
 10
26.192829326
 20
-13.9986272568
 40
1.056741462
100
AcDbArc
 50
229.1035810002
 51
270.3891130394
  0
ARC
  5
3FB
100
AcDbEntity
  8
RACCORDO
100
AcDbCircle
 62
253
  6
CONTINUOUS
 10
26.1923270696
 20
-13.9991552421
 40
1.0560014351
100
AcDbArc
 50
179.9715275032
 51
214.6286484265
  0
ARC
  5
3FC
100
AcDbEntity
  8
RACCORDO
100
AcDbCircle
 62
253
  6
CONTINUOUS
 10
26.1935088107
 20
-5.9995650468
 40
1.0531106475
100
AcDbArc
 50
89.6485353157
 51
179.9491526083
  0
ARC
  5
3FD
100
AcDbEntity
  8
DRAFT
100
AcDbCircle
 62
7
  6
CONTINUOUS
 10
26.195883245
 20
-13.9959261078
 40
1.0354127906
100
AcDbArc
 50
229.7789285951
 51
270.2278060618
  0
ARC
  5
3FE
100
AcDbEntity
  8
DRAFT
100
AcDbCircle
 62
7
  6
CONTINUOUS
 10
26.1958832358
 20
-6.0013348047
 40
1.0354127551
100
AcDbArc
 50
89.7721934226
 51
130.2211008281
  0
ARC
  5
3FF
100
AcDbEntity
  8
DRAFT
100
AcDbCircle
 62
7
  6
CONTINUOUS
 10
26.1946925745
 20
-13.9991283215
 40
1.0321995013
100
AcDbArc
 50
219.7828374831
 51
229.7146139472
  0
ARC
  5
400
100
AcDbEntity
  8
DRAFT
100
AcDbCircle
 62
7
  6
CONTINUOUS
 10
26.1924985393
 20
-5.9959508596
 40
1.0291165558
100
AcDbArc
 50
130.2707743765
 51
149.8198584994
  0
ARC
  5
401
100
AcDbEntity
  8
DRAFT
100
AcDbCircle
 62
7
  6
CONTINUOUS
 10
26.1876377722
 20
-14.004716529
 40
1.0232023045
100
AcDbArc
 50
210.152129087
 51
219.7951469007
  0
ARC
  5
402
100
AcDbEntity
  8
RACCORDO
100
AcDbCircle
 62
7
  6
CONTINUOUS
 10
26.2314195741
 20
-6.1000064197
 40
0.8055538927
100
AcDbArc
 50
146.7777196748
 51
179.9941184234
  0
ARC
  5
403
100
AcDbEntity
  8
RACCORDO
100
AcDbCircle
 62
7
  6
CONTINUOUS
 10
26.2311158042
 20
-13.8973458284
 40
0.8052450613
100
AcDbArc
 50
179.9993875431
 51
213.2543576826
  0
ARC
  5
404
100
AcDbEntity
  8
RACCORDO
100
AcDbCircle
 62
7
  6
CONTINUOUS
 10
26.2285806437
 20
-13.8994249274
 40
0.8019869614
100
AcDbArc
 50
213.2294627258
 51
228.1224496404
  0
ARC
  5
405
100
AcDbEntity
  8
RACCORDO
100
AcDbCircle
 62
7
  6
CONTINUOUS
 10
26.2285739333
 20
-6.0978296672
 40
0.8019777526
100
AcDbArc
 50
131.8929847867
 51
146.7964285557
  0
ARC
  5
406
100
AcDbEntity
  8
RACCORDO
100
AcDbCircle
 62
7
  6
CONTINUOUS
 10
26.2254598053
 20
-6.0930399124
 40
0.7963181552
100
AcDbArc
 50
90.273211819
 51
131.9563134251
  0
ARC
  5
407
100
AcDbEntity
  8
RACCORDO
100
AcDbCircle
 62
7
  6
CONTINUOUS
 10
26.225459119
 20
-13.9042237019
 40
0.7963153307
100
AcDbArc
 50
228.0591932567
 51
269.7268365287
  0
ARC
  5
408
100
AcDbEntity
  8
RACCORDO
100
AcDbCircle
 62
7
  6
CONTINUOUS
 10
42.5464297657
 20
-82.9883796642
 40
77.9905794505
100
AcDbArc
 50
89.521216139
 51
89.7401292997
  0
ARC
  5
409
100
AcDbEntity
  8
RACCORDO
100
AcDbCircle
 62
7
  6
CONTINUOUS
 10
42.6862753842
 20
41.2534244038
 40
56.2524657727
100
AcDbArc
 50
270.2178545709
 51
270.5213642437
  0
ARC
  5
40A
100
AcDbEntity
  8
RACCORDO
100
AcDbCircle
 62
7
  6
CONTINUOUS
 10
45.1899406398
 20
45.1830577822
 40
2.0024499942
100
AcDbArc
 50
44.4944247263
 51
90.0870669421
  0
ARC
  5
40B
100
AcDbEntity
  8
RACCORDO
100
AcDbCircle
 62
7
  6
CONTINUOUS
 10
45.1904197022
 20
-45.1789471043
 40
2.0017128967
100
AcDbArc
 50
269.8400367862
 51
318.0900671874
  0
ARC
  5
40C
100
AcDbEntity
  8
RACCORDO
100
AcDbCircle
 62
7
  6
CONTINUOUS
 10
45.192382303
 20
45.1871741143
 40
1.9977874259
100
AcDbArc
 50
40.4831778282
 51
44.4592910011
  0
ARC
  5
40D
100
AcDbEntity
  8
RACCORDO
100
AcDbCircle
 62
7
  6
CONTINUOUS
 10
45.1966027216
 20
45.1907014812
 40
1.9922875899
100
AcDbArc
 50
0.0720122146
 51
40.484819868
  0
ARC
  5
40E
100
AcDbEntity
  8
RACCORDO
100
AcDbCircle
 62
7
  6
CONTINUOUS
 10
45.1964846384
 20
-45.1870999076
 40
1.9918435706
100
AcDbArc
 50
340.585130459
 51
359.9252676562
  0
ARC
  5
40F
100
AcDbEntity
  8
RACCORDO
100
AcDbCircle
 62
7
  6
CONTINUOUS
 10
45.1975309493
 20
-45.1872942575
 40
1.9907921603
100
AcDbArc
 50
318.1321405625
 51
340.5803960439
  0
ARC
  5
410
100
AcDbEntity
  8
RACCORDO
100
AcDbCircle
 62
253
  6
CONTINUOUS
 10
43.2242930658
 20
-14.0006910363
 40
1.2043931587
100
AcDbArc
 50
325.5518948211
 51
0.0100277803
  0
ARC
  5
411
100
AcDbEntity
  8
RACCORDO
100
AcDbCircle
 62
253
  6
CONTINUOUS
 10
43.2251740202
 20
-5.9959030926
 40
1.2026704862
100
AcDbArc
 50
5.570441659
 51
54.5027621007
  0
ARC
  5
412
100
AcDbEntity
  8
RACCORDO
100
AcDbCircle
 62
253
  6
CONTINUOUS
 10
43.2277641478
 20
-5.9970077175
 40
1.2002252313
100
AcDbArc
 50
0.020797181
 51
5.6349269841
  0
ARC
  5
413
100
AcDbEntity
  8
RACCORDO
100
AcDbCircle
 62
253
  6
CONTINUOUS
 10
43.2295341023
 20
-5.9906328919
 40
1.1958286899
100
AcDbArc
 50
54.5262164074
 51
70.1093022024
  0
ARC
  5
414
100
AcDbEntity
  8
RACCORDO
100
AcDbCircle
 62
253
  6
CONTINUOUS
 10
43.2311075266
 20
-14.0065064742
 40
1.1954384093
100
AcDbArc
 50
276.0471625635
 51
325.5969927481
  0
ARC
  5
415
100
AcDbEntity
  8
RACCORDO
100
AcDbCircle
 62
253
  6
CONTINUOUS
 10
43.2307149768
 20
-5.9872680156
 40
1.192262786
100
AcDbArc
 50
70.1076493577
 51
89.9116905741
  0
ARC
  5
416
100
AcDbEntity
  8
RACCORDO
100
AcDbCircle
 62
253
  6
CONTINUOUS
 10
43.2317882649
 20
-14.0126050917
 40
1.1892613629
100
AcDbArc
 50
270.1013291141
 51
276.0455014487
  0
ARC
  5
417
100
AcDbEntity
  8
RACCORDO
100
AcDbCircle
 62
7
  6
CONTINUOUS
 10
43.193769014
 20
-13.9752004092
 40
1.0215404151
100
AcDbArc
 50
270.2451073703
 51
273.2597786786
  0
ARC
  5
418
100
AcDbEntity
  8
RACCORDO
100
AcDbCircle
 62
253
  6
CONTINUOUS
 10
43.2002066153
 20
-5.9965288487
 40
1.0016108422
100
AcDbArc
 50
5.5243185053
 51
45.9015477733
  0
ARC
  5
419
100
AcDbEntity
  8
RACCORDO
100
AcDbCircle
 62
253
  6
CONTINUOUS
 10
43.2006526424
 20
-14.0009852912
 40
1.0012126952
100
AcDbArc
 50
275.9874513396
 51
0.0230397307
  0
ARC
  5
41A
100
AcDbEntity
  8
RACCORDO
100
AcDbCircle
 62
253
  6
CONTINUOUS
 10
43.2010431269
 20
-5.995435627
 40
1.0002497599
100
AcDbArc
 50
45.892381072
 51
66.4710492381
  0
ARC
  5
41B
100
AcDbEntity
  8
RACCORDO
100
AcDbCircle
 62
253
  6
CONTINUOUS
 10
43.2030266781
 20
-5.9969222305
 40
0.9988434478
100
AcDbArc
 50
0.0114689446
 51
5.5623517234
  0
ARC
  5
41C
100
AcDbEntity
  8
RACCORDO
100
AcDbCircle
 62
253
  6
CONTINUOUS
 10
43.2017533007
 20
-5.9935286449
 40
0.9982183191
100
AcDbArc
 50
66.4647261527
 51
89.9079827457
  0
ARC
  5
41D
100
AcDbEntity
  8
RACCORDO
100
AcDbCircle
 62
7
  6
CONTINUOUS
 10
43.2032617382
 20
-13.998553905
 40
0.9967463917
100
AcDbArc
 50
319.5421121079
 51
359.9934097771
  0
ARC
  5
41E
100
AcDbEntity
  8
RACCORDO
100
AcDbCircle
 62
7
  6
CONTINUOUS
 10
43.2050693625
 20
-13.9980036716
 40
0.9959391246
100
AcDbArc
 50
307.0334606141
 51
310.9505700961
  0
ARC
  5
41F
100
AcDbEntity
  8
RACCORDO
100
AcDbCircle
 62
253
  6
CONTINUOUS
 10
43.2015270954
 20
-14.0067671212
 40
0.9952970228
100
AcDbArc
 50
270.1118377261
 51
275.9721054691
  0
ARC
  5
420
100
AcDbEntity
  8
RACCORDO
100
AcDbCircle
 62
7
  6
CONTINUOUS
 10
43.21100618
 20
-14.0060643724
 40
0.9859970195
100
AcDbArc
 50
314.8532161758
 51
319.5821672572
  0
ARC
  5
421
100
AcDbEntity
  8
RACCORDO
100
AcDbCircle
 62
7
  6
CONTINUOUS
 10
43.2170011613
 20
-14.0117168978
 40
0.9777616713
100
AcDbArc
 50
310.9491614364
 51
314.8377899146
  0
ARC
  5
422
100
AcDbEntity
  8
RACCORDO
100
AcDbCircle
 62
7
  6
CONTINUOUS
 10
43.2800581833
 20
-5.9936850007
 40
0.9199420296
100
AcDbArc
 50
0.0389866848
 51
5.7175823533
  0
ARC
  5
423
100
AcDbEntity
  8
RACCORDO
100
AcDbCircle
 62
253
  6
CONTINUOUS
 10
44.5293444796
 20
2945.1025024437
 40
2949.8945390089
100
AcDbArc
 50
269.6459378636
 51
269.8607872616
  0
ARC
  5
424
100
AcDbEntity
  8
RACCORDO
100
AcDbCircle
 62
253
  6
CONTINUOUS
 10
-0.0000355986
 20
9638.2131770514
 40
9591.134077686
100
AcDbArc
 50
269.7300604873
 51
270.269939938
  0
ARC
  5
425
100
AcDbEntity
  8
RACCORDO
100
AcDbCircle
 62
7
  6
CONTINUOUS
 10
44.455540987
 20
3655.265415307
 40
3660.2574047507
100
AcDbArc
 50
269.7157927172
 51
269.8591357031
  0
ARC
  5
426
100
AcDbEntity
  8
0
100
AcDbCircle
 62
7
  6
CONTINUOUS
 10
-77.5481481056
 20
-1.9658107609
 40
14.3739907227
100
AcDbArc
 50
88.6047364739
 51
91.3952635261
  0
ARC
  5
427
100
AcDbEntity
  8
RACCORDO
100
AcDbCircle
 62
253
  6
CONTINUOUS
 10
-103.7439611546
 20
-5.9894668272
 40
9.0849821438
100
AcDbArc
 50
359.9551897934
 51
0.6949977445
  0
ARC
  5
428
100
AcDbEntity
  8
RACCORDO
100
AcDbCircle
 62
253
  6
CONTINUOUS
 10
-103.4551263147
 20
-5.9859869713
 40
8.7961263432
100
AcDbArc
 50
0.6951532958
 51
1.4276208918
  0
ARC
  5
429
100
AcDbEntity
  8
RACCORDO
100
AcDbCircle
 62
253
  6
CONTINUOUS
 10
-103.193365513
 20
-5.9794859553
 40
8.5342848263
100
AcDbArc
 50
1.4277722066
 51
2.1504194611
  0
ARC
  5
42A
100
AcDbEntity
  8
ASSI
100
AcDbCircle
 62
7
  6
CONTINUOUS
 10
-93.7403629816
 20
-7.9986304158
 40
1.500000869
100
AcDbArc
 50
143.6903763772
 51
218.3487595292
  0
ARC
  5
42B
100
AcDbEntity
  8
ASSI
100
AcDbCircle
 62
7
  6
CONTINUOUS
 10
-93.7403893315
 20
-11.9986027439
 40
1.4999629629
100
AcDbArc
 50
141.6514453524
 51
218.3490865569
  0
ARC
  5
42C
100
AcDbEntity
  8
ASSI
100
AcDbCircle
 62
7
  6
CONTINUOUS
 10
-93.7406557534
 20
-7.9983977905
 40
1.4996273566
100
AcDbArc
 50
141.6509012594
 51
143.6908867916
  0
ARC
  5
42D
100
AcDbEntity
  8
RACCORDO
100
AcDbCircle
 62
253
  6
CONTINUOUS
 10
-93.5726257547
 20
-11.3437323902
 40
1.3726544807
100
AcDbArc
 50
167.2511410237
 51
168.3759372312
  0
ARC
  5
42E
100
AcDbEntity
  8
RACCORDO
100
AcDbCircle
 62
253
  6
CONTINUOUS
 10
-93.5741863913
 20
-8.6534206597
 40
1.3711348855
100
AcDbArc
 50
191.6411096515
 51
192.7336345907
  0
ARC
  5
42F
100
AcDbEntity
  8
RACCORDO
100
AcDbCircle
 62
253
  6
CONTINUOUS
 10
-93.5748491492
 20
-7.3435309055
 40
1.3704255218
100
AcDbArc
 50
167.2589238629
 51
168.3649598284
  0
ARC
  5
430
100
AcDbEntity
  8
RACCORDO
100
AcDbCircle
 62
253
  6
CONTINUOUS
 10
-93.5772016317
 20
-12.6538377009
 40
1.3680927801
100
AcDbArc
 50
191.6502592047
 51
192.7352218934
  0
ARC
  5
431
100
AcDbEntity
  8
ASSI
100
AcDbCircle
 62
7
  6
CONTINUOUS
 10
-66.5981481056
 20
-6.998630474
 40
1.25
100
AcDbArc
 50
139.4641978887
 51
220.5358021113
  0
ARC
  5
432
100
AcDbEntity
  8
RACCORDO
100
AcDbCircle
 62
253
  6
CONTINUOUS
 10
-99.9026422568
 20
-5.9735819497
 40
1.1384013213
100
AcDbArc
 50
139.9919406019
 51
143.2367480901
  0
ARC
  5
433
100
AcDbEntity
  8
RACCORDO
100
AcDbCircle
 62
253
  6
CONTINUOUS
 10
-99.5321980028
 20
-6.100166832
 40
1.1307058528
100
AcDbArc
 50
177.2949907666
 51
179.9876812589
  0
ARC
  5
434
100
AcDbEntity
  8
RACCORDO
100
AcDbCircle
 62
253
  6
CONTINUOUS
 10
-99.5376813851
 20
-13.8973339023
 40
1.1252224445
100
AcDbArc
 50
180.0001689717
 51
182.7290080795
  0
ARC
  5
435
100
AcDbEntity
  8
RACCORDO
100
AcDbCircle
 62
7
  6
CONTINUOUS
 10
-113.5406393477
 20
-45.135049384
 40
1.0
100
AcDbArc
 50
179.6271515957
 51
266.9999999765
  0
ARC
  5
436
100
AcDbEntity
  8
ASSI
100
AcDbCircle
 62
7
  6
CONTINUOUS
 10
-79.5481481056
 20
-17.9318254639
 40
0.5
100
AcDbArc
 50
270.9999859461
 51
359.9991946667
  0
ARC
  5
437
100
AcDbEntity
  8
ASSI
100
AcDbCircle
 62
7
  6
CONTINUOUS
 10
-68.0481481056
 20
-9.5303659984
 40
0.5
100
AcDbArc
 50
271.0
 51
360.0
  0
ARC
  5
438
100
AcDbEntity
  8
RACCORDO
100
AcDbCircle
 62
7
  6
CONTINUOUS
 10
-79.5481481056
 20
-17.9318254639
 40
0.5
100
AcDbArc
 50
270.9999859461
 51
359.9991946667
  0
ARC
  5
439
100
AcDbEntity
  8
RACCORDO
100
AcDbCircle
 62
7
  6
CONTINUOUS
 10
-68.0481481056
 20
-9.5303659984
 40
0.5
100
AcDbArc
 50
271.0
 51
360.0
  0
ARC
  5
43A
100
AcDbEntity
  8
ASSI
100
AcDbCircle
 62
7
  6
CONTINUOUS
 10
-86.4268924655
 20
25.0807469065
 40
1.0
100
AcDbArc
 50
65.0
 51
89.0
  0
ARC
  5
43B
100
AcDbEntity
  8
RACCORDO
100
AcDbCircle
 62
7
  6
CONTINUOUS
 10
-86.4268924655
 20
25.0807469065
 40
1.0
100
AcDbArc
 50
65.0
 51
89.0
  0
ARC
  5
43C
100
AcDbEntity
  8
RACCORDO
100
AcDbCircle
 62
7
  6
CONTINUOUS
 10
-95.5535598982
 20
46.0804513257
 40
1.0
100
AcDbArc
 50
93.0
 51
179.3429087652
  0
ARC
  5
43D
100
AcDbEntity
  8
ASSI
100
AcDbCircle
 62
253
  6
CONTINUOUS
 10
-86.4216436454
 20
25.0808036407
 40
0.699943046
100
AcDbArc
 50
64.9990090323
 51
89.0009909677
  0
ARC
  5
43E
100
AcDbEntity
  8
RACCORDO
100
AcDbCircle
 62
253
  6
CONTINUOUS
 10
-86.4216436454
 20
25.0808036407
 40
0.699943046
100
AcDbArc
 50
64.9990090323
 51
89.0009909677
  0
ARC
  5
43F
100
AcDbEntity
  8
0
100
AcDbCircle
 62
7
  6
CONTINUOUS
 10
-77.5481481056
 20
22.8982071201
 40
14.3739907227
100
AcDbArc
 50
268.6047364739
 51
271.3952635261
  0
CIRCLE
  5
440
100
AcDbEntity
  8
0
100
AcDbCircle
 62
7
  6
CONTINUOUS
 10
-77.5481481056
 20
10.4661981796
 40
3.25
  0
ARC
  5
441
100
AcDbEntity
  8
0
100
AcDbCircle
 62
7
  6
CONTINUOUS
 10
-77.5481481056
 20
10.4661981796
 40
3.1800090692
100
AcDbArc
 50
169.1243149002
 51
190.8756850998
  0
ARC
  5
442
100
AcDbEntity
  8
0
100
AcDbCircle
 62
7
  6
CONTINUOUS
 10
-77.5481481056
 20
10.4661981796
 40
3.1800090692
100
AcDbArc
 50
349.1243149002
 51
10.8756850998
  0
ARC
  5
443
100
AcDbEntity
  8
0
100
AcDbCircle
 62
253
  6
CONTINUOUS
 10
-77.5481481056
 20
10.4661981796
 40
3.1554439925
100
AcDbArc
 50
10.9613962005
 51
169.0386037995
  0
ARC
  5
444
100
AcDbEntity
  8
0
100
AcDbCircle
 62
253
  6
CONTINUOUS
 10
-77.5481481056
 20
10.4661981796
 40
3.1554439925
100
AcDbArc
 50
190.9613962005
 51
349.0386037995
  0
ARC
  5
445
100
AcDbEntity
  8
0
100
AcDbCircle
 62
253
  6
CONTINUOUS
 10
-77.5481481056
 20
10.4661981796
 40
3.0500528323
100
AcDbArc
 50
11.3450962605
 51
168.6549037395
  0
ARC
  5
446
100
AcDbEntity
  8
0
100
AcDbCircle
 62
253
  6
CONTINUOUS
 10
-77.5481481056
 20
10.4661981796
 40
3.0500528323
100
AcDbArc
 50
191.3450962605
 51
348.6549037395
  0
ARC
  5
447
100
AcDbEntity
  8
RACCORDO
100
AcDbCircle
 62
7
  6
CONTINUOUS
 10
-72.0481481056
 20
0.7663064739
 40
2.0
100
AcDbArc
 50
0.0
 51
58.2922840303
  0
ARC
  5
448
100
AcDbEntity
  8
0
100
AcDbCircle
 62
7
  6
CONTINUOUS
 10
-77.5481481056
 20
10.4661981796
 40
1.145
100
AcDbArc
 50
266.3637942714
 51
273.6362057286
  0
ARC
  5
449
100
AcDbEntity
  8
0
100
AcDbCircle
 62
7
  6
CONTINUOUS
 10
-77.5481481056
 20
10.4661981796
 40
1.145
100
AcDbArc
 50
86.3637942714
 51
93.6362057286
  0
ARC
  5
44A
100
AcDbEntity
  8
0
100
AcDbCircle
 62
7
  6
CONTINUOUS
 10
-77.5481481056
 20
10.4661981796
 40
1.145
100
AcDbArc
 50
356.3637942714
 51
3.6362057286
  0
ARC
  5
44B
100
AcDbEntity
  8
0
100
AcDbCircle
 62
7
  6
CONTINUOUS
 10
-77.5481481056
 20
10.4661981796
 40
1.145
100
AcDbArc
 50
176.3637942714
 51
183.6362057286
  0
ARC
  5
44C
100
AcDbEntity
  8
ASSI
100
AcDbCircle
 62
7
  6
CONTINUOUS
 10
-77.5895127405
 20
18.2271300097
 40
0.8014295819
100
AcDbArc
 50
271.1392449936
 51
271.5388863721
  0
ARC
  5
44D
100
AcDbEntity
  8
DRAFT
100
AcDbCircle
 62
7
  6
CONTINUOUS
 10
-77.5895127405
 20
18.2271300097
 40
0.8014295819
100
AcDbArc
 50
271.1392449936
 51
271.5388863721
  0
ARC
  5
44E
100
AcDbEntity
  8
ASSI
100
AcDbCircle
 62
7
  6
CONTINUOUS
 10
-77.0481481056
 20
17.9347238718
 40
0.5
100
AcDbArc
 50
271.0
 51
360.0
  0
ARC
  5
44F
100
AcDbEntity
  8
ASSI
100
AcDbCircle
 62
7
  6
CONTINUOUS
 10
-68.0481481056
 20
7.733838297
 40
0.5
100
AcDbArc
 50
0.0
 51
89.0
  0
ARC
  5
450
100
AcDbEntity
  8
RACCORDO
100
AcDbCircle
 62
7
  6
CONTINUOUS
 10
-77.0481481056
 20
17.9347238718
 40
0.5
100
AcDbArc
 50
271.0
 51
360.0
  0
ARC
  5
451
100
AcDbEntity
  8
RACCORDO
100
AcDbCircle
 62
7
  6
CONTINUOUS
 10
-68.0481481056
 20
7.733838297
 40
0.5
100
AcDbArc
 50
0.0
 51
89.0
  0
ARC
  5
452
100
AcDbEntity
  8
ASSI
100
AcDbCircle
 62
7
  6
CONTINUOUS
 10
-77.0481481056
 20
25.0680151802
 40
0.5
100
AcDbArc
 50
0.0
 51
89.0
  0
ARC
  5
453
100
AcDbEntity
  8
RACCORDO
100
AcDbCircle
 62
7
  6
CONTINUOUS
 10
-77.0481481056
 20
25.0680151802
 40
0.5
100
AcDbArc
 50
0.0
 51
89.0
  0
ARC
  5
454
100
AcDbEntity
  8
RACCORDO
100
AcDbCircle
 62
253
  6
CONTINUOUS
 10
243.1267805525
 20
-29.7461009143
 40
345.1880597485
100
AcDbArc
 50
176.1728998812
 51
176.2914487526
  0
ARC
  5
455
100
AcDbEntity
  8
RACCORDO
100
AcDbCircle
 62
253
  6
CONTINUOUS
 10
234.8040942418
 20
-29.1893272011
 40
336.8467706159
100
AcDbArc
 50
176.0502754802
 51
176.1729045468
  0
ARC
  5
456
100
AcDbEntity
  8
RACCORDO
100
AcDbCircle
 62
253
  6
CONTINUOUS
 10
231.9407524426
 20
-29.218397792
 40
333.8251593656
100
AcDbArc
 50
176.0114756359
 51
176.1353247856
  0
SPLINE
  5
457
100
AcDbEntity
  8
RACCORDO
100
AcDbSpline
 62
7
  6
CONTINUOUS
 70
0
 71
3
 72
10
 73
6
 74
4
 42
0.0000001
 43
0.0000001
 44
0.0000000001
 12
-0.6710521009
 22
0.0032708668
 32
0.0
 13
-0.4429090588
 23
0.5041360792
 33
0.0
 40
0.0
 40
0.0
 40
0.0
 40
0.0
 40
0.3398652436
 40
0.675236272
 40
1.0
 40
1.0
 40
1.0
 40
1.0
 10
26.2202950125
 20
-14.7015762379
 30
0.0
 10
26.1442725839
 20
-14.7012056865
 30
0.0
 10
25.9924191002
 20
-14.6783226327
 30
0.0
 10
25.7871801181
 20
-14.5826462887
 30
0.0
 10
25.6739616808
 20
-14.4844915459
 30
0.0
 10
25.6260147484
 20
-14.4299165084
 30
0.0
 11
26.2202950125
 21
-14.7015762379
 31
0.0
 11
25.994769872
 21
-14.6676007524
 31
0.0
 11
25.7907501579
 21
-14.5725991361
 31
0.0
 11
25.6260147484
 21
-14.4299165084
 31
0.0
  0
SPLINE
  5
458
100
AcDbEntity
  8
RACCORDO
100
AcDbSpline
 62
7
  6
CONTINUOUS
 70
0
 71
3
 72
10
 73
6
 74
4
 42
0.0000001
 43
0.0000001
 44
0.0000000001
 12
0.4429092707
 22
0.5041363205
 32
0.0
 13
0.671052422
 23
0.0032708683
 33
0.0
 40
0.0
 40
0.0
 40
0.0
 40
0.0
 40
0.325090235
 40
0.6608799767
 40
1.0
 40
1.0
 40
1.0
 40
1.0
 10
25.6260147484
 20
-5.5673444396
 30
0.0
 10
25.674009908
 20
-5.512714508
 30
0.0
 10
25.7873722535
 20
-5.4144615301
 30
0.0
 10
25.9926644084
 20
-5.3188755633
 30
0.0
 10
26.1444392415
 20
-5.2960544491
 30
0.0
 10
26.2202950125
 20
-5.2956847102
 30
0.0
 11
25.6260147484
 21
-5.5673444396
 31
0.0
 11
25.7909355792
 21
-5.4245410693
 31
0.0
 11
25.9952534772
 21
-5.3295139826
 31
0.0
 11
26.2202950125
 21
-5.2956847102
 31
0.0
  0
SPLINE
  5
459
100
AcDbEntity
  8
RACCORDO
100
AcDbSpline
 62
253
  6
CONTINUOUS
 70
0
 71
3
 72
18
 73
14
 74
12
 42
0.0000001
 43
0.0000001
 44
0.0000000001
 12
0.0004881631
 22
-2.9300189653
 32
0.0
 13
0.0004127703
 23
2.9300189769
 33
0.0
 40
0.0
 40
0.0
 40
0.0
 40
0.0
 40
0.0920068286
 40
0.1840359808
 40
0.2751421625
 40
0.3651904669
 40
0.4545495921
 40
0.5437579636
 40
0.6333557768
 40
0.7238327193
 40
0.8152333417
 40
0.9074153612
 40
1.0
 40
1.0
 40
1.0
 40
1.0
 10
41.2675266812
 20
-11.998630474
 30
0.0
 10
41.2675416527
 20
-12.0884910582
 30
0.0
 10
41.2924874948
 20
-12.2692231352
 30
0.0
 10
41.4023649434
 20
-12.5181734714
 30
0.0
 10
41.5761102524
 20
-12.7254669764
 30
0.0
 10
41.7993725592
 20
-12.8735575304
 30
0.0
 10
42.0540338738
 20
-12.9507902233
 30
0.0
 10
42.3197198446
 20
-12.9511160401
 30
0.0
 10
42.5752255638
 20
-12.8745011156
 30
0.0
 10
42.7999202312
 20
-12.7269032777
 30
0.0
 10
42.9753324943
 20
-12.5198903513
 30
0.0
 10
43.0868547276
 20
-12.2705332112
 30
0.0
 10
43.1122982008
 20
-12.0890553902
 30
0.0
 10
43.1123109395
 20
-11.998630474
 30
0.0
 11
41.2675266812
 21
-11.998630474
 31
0.0
 11
41.3046186603
 21
-12.2656482796
 31
0.0
 11
41.4136779434
 21
-12.5122566056
 31
0.0
 11
41.5854577918
 21
-12.716585178
 31
0.0
 11
41.80548808
 21
-12.862187133
 31
0.0
 11
42.0560864049
 21
-12.9380307396
 31
0.0
 11
42.3174683702
 21
-12.938398599
 31
0.0
 11
42.568990211
 21
-12.863197241
 31
0.0
 11
42.7907108154
 21
-12.7178784917
 31
0.0
 11
42.9640825152
 21
-12.5137656012
 31
0.0
 11
43.0744533443
 21
-12.2672506393
 31
0.0
 11
43.1123109395
 21
-11.998630474
 31
0.0
  0
SPLINE
  5
45A
100
AcDbEntity
  8
RACCORDO
100
AcDbSpline
 62
253
  6
CONTINUOUS
 70
0
 71
3
 72
18
 73
14
 74
12
 42
0.0000001
 43
0.0000001
 44
0.0000000001
 12
0.0004451191
 22
2.9300160757
 32
0.0
 13
-0.0009558106
 23
-2.9300159536
 33
0.0
 40
0.0
 40
0.0
 40
0.0
 40
0.0
 40
0.0925037577
 40
0.1846356663
 40
0.2760750329
 40
0.366556077
 40
0.4561194207
 40
0.5452132701
 40
0.634491619
 40
0.7245509163
 40
0.8156860078
 40
0.9078025523
 40
1.0
 40
1.0
 40
1.0
 40
1.0
 10
43.1123109395
 20
-11.998630474
 30
0.0
 10
43.1123246646
 20
-11.9082846416
 30
0.0
 10
43.0868824164
 20
-11.7269373737
 30
0.0
 10
42.9754927767
 20
-11.4776330054
 30
0.0
 10
42.8001510995
 20
-11.2705617995
 30
0.0
 10
42.5754914697
 20
-11.1228977329
 30
0.0
 10
42.3201524113
 20
-11.0462368258
 30
0.0
 10
42.0547051471
 20
-11.0464035666
 30
0.0
 10
41.8001528409
 20
-11.1233422737
 30
0.0
 10
41.5767736402
 20
-11.2711870095
 30
0.0
 10
41.4027528141
 20
-11.4784159462
 30
0.0
 10
41.2925708557
 20
-11.7275747618
 30
0.0
 10
41.2675560556
 20
-11.9085838098
 30
0.0
 10
41.2675266812
 20
-11.998630474
 30
0.0
 11
43.1123109395
 21
-11.998630474
 31
0.0
 11
43.0745182794
 21
-11.7302407548
 31
0.0
 11
42.9642852832
 21
-11.4838252592
 31
0.0
 11
42.7909105121
 21
-11.2795664006
 31
0.0
 11
42.5692208069
 21
-11.1341790805
 31
0.0
 11
42.3178218956
 21
-11.0589200979
 31
0.0
 11
42.0567755665
 21
-11.0591307356
 31
0.0
 11
41.8063339361
 21
-11.1346737599
 31
0.0
 11
41.5861298328
 21
-11.2800706986
 31
0.0
 11
41.4141060305
 21
-11.4843043467
 31
0.0
 11
41.3047706172
 21
-11.7310701769
 31
0.0
 11
41.2675266812
 21
-11.998630474
 31
0.0
  0
SPLINE
  5
45B
100
AcDbEntity
  8
RACCORDO
100
AcDbSpline
 62
253
  6
CONTINUOUS
 70
0
 71
3
 72
18
 73
14
 74
12
 42
0.0000001
 43
0.0000001
 44
0.0000000001
 12
-0.0004115952
 22
2.9300191339
 32
0.0
 13
-0.0004951468
 23
-2.930019121
 33
0.0
 40
0.0
 40
0.0
 40
0.0
 40
0.0
 40
0.09247359
 40
0.1845495906
 40
0.2759767102
 40
0.3664720244
 40
0.4560247059
 40
0.5451382291
 40
0.6345113989
 40
0.7246505963
 40
0.8157708876
 40
0.9078516047
 40
1.0
 40
1.0
 40
1.0
 40
1.0
 10
43.1123109395
 20
-7.998630474
 30
0.0
 10
43.1122982523
 20
-7.9083140114
 30
0.0
 10
43.0869159081
 20
-7.7270516692
 30
0.0
 10
42.9756000286
 20
-7.477818711
 30
0.0
 10
42.8003580428
 20
-7.2707375942
 30
0.0
 10
42.5757482183
 20
-7.1230087036
 30
0.0
 10
42.3204103854
 20
-7.0462673161
 30
0.0
 10
42.0548581161
 20
-7.0463602815
 30
0.0
 10
41.8001077556
 20
-7.123339332
 30
0.0
 10
41.5766190248
 20
-7.2713179989
 30
0.0
 10
41.4026431284
 20
-7.478621604
 30
0.0
 10
41.2925530824
 20
-7.7277063017
 30
0.0
 10
41.2675418902
 20
-7.9086316206
 30
0.0
 10
41.2675266812
 20
-7.998630474
 30
0.0
 11
43.1123109395
 21
-7.998630474
 31
0.0
 11
43.0745442794
 21
-7.7303260729
 31
0.0
 11
42.9644247258
 21
-7.4840389814
 31
0.0
 11
42.7911333335
 21
-7.2797560679
 31
0.0
 11
42.5694522361
 21
-7.1342788977
 31
0.0
 11
42.3181049864
 21
-7.0589553607
 31
0.0
 11
42.0570006931
 21
-7.0590946392
 31
0.0
 11
41.8062869745
 21
-7.134698621
 31
0.0
 11
41.5859155996
 21
-7.2802675909
 31
0.0
 11
41.4139802382
 21
-7.4845193827
 31
0.0
 11
41.304733005
 21
-7.7312097678
 31
0.0
 11
41.2675266812
 21
-7.998630474
 31
0.0
  0
SPLINE
  5
45C
100
AcDbEntity
  8
RACCORDO
100
AcDbSpline
 62
253
  6
CONTINUOUS
 70
0
 71
3
 72
18
 73
14
 74
12
 42
0.0000001
 43
0.0000001
 44
0.0000000001
 12
0.0009425271
 22
-2.9300156907
 32
0.0
 13
-0.0004446203
 23
2.9300158085
 33
0.0
 40
0.0
 40
0.0
 40
0.0
 40
0.0
 40
0.0919800856
 40
0.184042489
 40
0.2751456722
 40
0.3652579593
 40
0.454623727
 40
0.5437507799
 40
0.6332822208
 40
0.7237403051
 40
0.8151677446
 40
0.90737396
 40
1.0
 40
1.0
 40
1.0
 40
1.0
 10
41.2675266812
 20
-7.998630474
 30
0.0
 10
41.2675555791
 20
-8.0884648387
 30
0.0
 10
41.2924735094
 20
-8.2692014685
 30
0.0
 10
41.4023453573
 20
-8.5181657691
 30
0.0
 10
41.5761552943
 20
-8.7255237076
 30
0.0
 10
41.7994943748
 20
-8.8736309549
 30
0.0
 10
42.0541661367
 20
-8.9507952445
 30
0.0
 10
42.3197040917
 20
-8.9510900675
 30
0.0
 10
42.5750563625
 20
-8.8745581193
 30
0.0
 10
42.7997414249
 20
-8.7270558642
 30
0.0
 10
42.9752317641
 20
-8.5200607917
 30
0.0
 10
43.0868206026
 20
-8.2706389128
 30
0.0
 10
43.1123246673
 20
-8.0890957278
 30
0.0
 10
43.1123109395
 20
-7.998630474
 30
0.0
 11
41.2675266812
 21
-7.998630474
 31
0.0
 11
41.3045950961
 21
-8.265572149
 31
0.0
 11
41.4136808826
 21
-8.5122749638
 31
0.0
 11
41.5854595216
 21
-8.7165926987
 31
0.0
 11
41.8056629399
 21
-8.862272216
 31
0.0
 11
42.056298351
 21
-8.9380594695
 31
0.0
 11
42.3174418107
 21
-8.9383963285
 31
0.0
 11
42.5687869555
 21
-8.8632838718
 31
0.0
 11
42.7905009709
 21
-8.7180564092
 31
0.0
 11
42.9639752553
 21
-8.5139279507
 31
0.0
 11
43.0744181019
 21
-8.2673678809
 31
0.0
 11
43.1123109395
 21
-7.998630474
 31
0.0
  0
SPLINE
  5
45D
100
AcDbEntity
  8
RACCORDO
100
AcDbSpline
 62
253
  6
CONTINUOUS
 70
0
 71
3
 72
10
 73
6
 74
4
 42
0.0000001
 43
0.0000001
 44
0.0000000001
 12
-0.0006622599
 22
-0.1783852342
 32
0.0
 13
-0.1783649673
 23
-0.0027692583
 33
0.0
 40
0.0
 40
0.0
 40
0.0
 40
0.0
 40
0.4223483917
 40
0.764814956
 40
1.0
 40
1.0
 40
1.0
 40
1.0
 10
26.2952194121
 20
-14.5505274693
 30
0.0
 10
26.2951261773
 20
-14.5756410415
 30
0.0
 10
26.289000867
 20
-14.6212630364
 30
0.0
 10
26.267353423
 20
-14.6773500958
 30
0.0
 10
26.2356455757
 20
-14.7003046608
 30
0.0
 10
26.2216626515
 20
-14.7005217569
 30
0.0
 11
26.2952194121
 21
-14.5505274693
 31
0.0
 11
26.2851801739
 21
-14.6251968441
 31
0.0
 11
26.2582814649
 21
-14.6800477193
 31
0.0
 11
26.2216626515
 21
-14.7005217569
 31
0.0
  0
SPLINE
  5
45E
100
AcDbEntity
  8
RACCORDO
100
AcDbSpline
 62
253
  6
CONTINUOUS
 70
0
 71
3
 72
10
 73
6
 74
4
 42
0.0000001
 43
0.0000001
 44
0.0000000001
 12
-0.000673255
 22
0.1783694858
 32
0.0
 13
-0.1783493013
 23
0.00276649
 33
0.0
 40
0.0
 40
0.0
 40
0.0
 40
0.0
 40
0.4223529115
 40
0.7648146265
 40
1.0
 40
1.0
 40
1.0
 40
1.0
 10
26.2952198659
 20
-5.4467334786
 30
0.0
 10
26.2951250822
 20
-5.4216218547
 30
0.0
 10
26.2889982204
 20
-5.3760043119
 30
0.0
 10
26.2673500725
 20
-5.3199229361
 30
0.0
 10
26.2356443678
 20
-5.2969724007
 30
0.0
 10
26.2216626522
 20
-5.2967555214
 30
0.0
 11
26.2952198659
 21
-5.4467334786
 31
0.0
 11
26.2851775302
 21
-5.3720704004
 31
0.0
 11
26.2582790981
 21
-5.317226344
 31
0.0
 11
26.2216626522
 21
-5.2967555214
 31
0.0
  0
SPLINE
  5
45F
100
AcDbEntity
  8
RACCORDO
100
AcDbSpline
 62
253
  6
CONTINUOUS
 70
0
 71
3
 72
10
 73
6
 74
4
 42
0.0000001
 43
0.0000001
 44
0.0000000001
 12
-0.0001905875
 22
0.1533707633
 32
0.0
 13
-0.1531078198
 23
0.0089790241
 33
0.0
 40
0.0
 40
0.0
 40
0.0
 40
0.0
 40
0.4869766315
 40
0.8483863671
 40
1.0
 40
1.0
 40
1.0
 40
1.0
 10
42.6130082013
 20
-5.398206291
 30
0.0
 10
42.6129772641
 20
-5.3733102984
 30
0.0
 10
42.6118773236
 20
-5.3269710556
 30
0.0
 10
42.6044566269
 20
-5.2847509409
 30
0.0
 10
42.5987725404
 20
-5.2486658182
 30
0.0
 10
42.5910347961
 20
-5.2482120374
 30
0.0
 11
42.6130082013
 21
-5.398206291
 31
0.0
 11
42.6100026539
 21
-5.3235787538
 31
0.0
 11
42.6019682316
 21
-5.2687344012
 31
0.0
 11
42.5910347961
 21
-5.2482120374
 31
0.0
  0
SPLINE
  5
460
100
AcDbEntity
  8
RACCORDO
100
AcDbSpline
 62
253
  6
CONTINUOUS
 70
0
 71
3
 72
10
 73
6
 74
4
 42
0.0000001
 43
0.0000001
 44
0.0000000001
 12
-0.0001905494
 22
-0.1533705856
 32
0.0
 13
-0.1531049927
 23
-0.0090240822
 33
0.0
 40
0.0
 40
0.0
 40
0.0
 40
0.0
 40
0.4869660844
 40
0.8483748014
 40
1.0
 40
1.0
 40
1.0
 40
1.0
 10
42.6130072536
 20
-14.5990546571
 30
0.0
 10
42.6129763233
 20
-14.6239500816
 30
0.0
 10
42.6118769474
 20
-14.6702875632
 30
0.0
 10
42.6044549582
 20
-14.7125106946
 30
0.0
 10
42.5987729878
 20
-14.7485931379
 30
0.0
 10
42.5910347961
 20
-14.7490492307
 30
0.0
 11
42.6130072536
 21
-14.5990546571
 31
0.0
 11
42.6100018799
 21
-14.6736804957
 31
0.0
 11
42.6019678467
 21
-14.7285246824
 31
0.0
 11
42.5910347961
 21
-14.7490492307
 31
0.0
  0
SPLINE
  5
461
100
AcDbEntity
  8
RACCORDO
100
AcDbSpline
 62
253
  6
CONTINUOUS
 70
0
 71
3
 72
13
 73
9
 74
7
 42
0.0000001
 43
0.0000001
 44
0.0000000001
 12
-0.0034904109
 22
1.4670249053
 32
0.0
 13
-1.4670289501
 23
-0.0005614699
 33
0.0
 40
0.0
 40
0.0
 40
0.0
 40
0.0
 40
0.1306574723
 40
0.2712926833
 40
0.42714882
 40
0.5988764941
 40
0.7885955181
 40
1.0
 40
1.0
 40
1.0
 40
1.0
 10
43.6575483143
 20
-6.0434622238
 30
0.0
 10
43.6573962983
 20
-5.9795696352
 30
0.0
 10
43.6357506395
 20
-5.8460511727
 30
0.0
 10
43.5381772564
 20
-5.6578272111
 30
0.0
 10
43.3772604176
 20
-5.4909301224
 30
0.0
 10
43.15926935
 20
-5.3578476417
 30
0.0
 10
42.8913976841
 20
-5.2689042047
 30
0.0
 10
42.694490276
 20
-5.2481724187
 30
0.0
 10
42.5911114443
 20
-5.2482119844
 30
0.0
 11
43.6575483143
 21
-6.0434622238
 31
0.0
 11
43.6271932581
 21
-5.8542027604
 31
0.0
 11
43.533966161
 21
-5.6701512027
 31
0.0
 11
43.3769519408
 21
-5.5039426264
 31
0.0
 11
43.1630804662
 21
-5.3707981215
 31
0.0
 11
42.8994492436
 21
-5.2815655633
 31
0.0
 11
42.5911114443
 21
-5.2482119844
 31
0.0
  0
SPLINE
  5
462
100
AcDbEntity
  8
RACCORDO
100
AcDbSpline
 62
253
  6
CONTINUOUS
 70
0
 71
3
 72
23
 73
19
 74
17
 42
0.0000001
 43
0.0000001
 44
0.0000000001
 12
1.4705927774
 22
-0.0005084769
 32
0.0
 13
0.0012043921
 23
1.4705923721
 33
0.0
 40
0.0
 40
0.0
 40
0.0
 40
0.0
 40
0.1039878182
 40
0.1989940062
 40
0.2868569899
 40
0.3682376258
 40
0.4431724267
 40
0.5120499998
 40
0.5755450749
 40
0.6344194677
 40
0.6892174322
 40
0.7399005276
 40
0.7867013504
 40
0.8308462602
 40
0.8733918136
 40
0.9151661734
 40
0.9570559038
 40
1.0
 40
1.0
 40
1.0
 40
1.0
 10
42.5910347679
 20
-14.7490489455
 30
0.0
 10
42.642009346
 20
-14.7490665706
 30
0.0
 10
42.7396413598
 20
-14.7439989261
 30
0.0
 10
42.8788054483
 20
-14.7223632793
 30
0.0
 10
43.0044318357
 20
-14.6899443032
 30
0.0
 10
43.1170743817
 20
-14.6489203888
 30
0.0
 10
43.2168509842
 20
-14.6012993285
 30
0.0
 10
43.3040914293
 20
-14.5488819404
 30
0.0
 10
43.3795782005
 20
-14.4930465069
 30
0.0
 10
43.4442065836
 20
-14.4348301791
 30
0.0
 10
43.4986361744
 20
-14.3752560555
 30
0.0
 10
43.5434505345
 20
-14.3154090963
 30
0.0
 10
43.5795565939
 20
-14.2559858814
 30
0.0
 10
43.6080665833
 20
-14.196974995
 30
0.0
 10
43.629919145
 20
-14.1378110247
 30
0.0
 10
43.6456249007
 20
-14.077865624
 30
0.0
 10
43.6553116156
 20
-14.0164619514
 30
0.0
 10
43.6575311821
 20
-13.9748450899
 30
0.0
 10
43.6575484226
 20
-13.9537940031
 30
0.0
 11
42.5910347679
 21
-14.7490489455
 31
0.0
 11
42.7437494572
 21
-14.7410555117
 31
0.0
 11
42.8817907801
 21
-14.7194918291
 31
0.0
 11
43.0068706519
 21
-14.687081573
 31
0.0
 11
43.1192750884
 21
-14.6459961222
 31
0.0
 11
43.2186661984
 21
-14.5984026867
 31
0.0
 11
43.3054204727
 21
-14.5461194607
 31
0.0
 11
43.3804162299
 21
-14.4904903088
 31
0.0
 11
43.4446685316
 21
-14.4324577015
 31
0.0
 11
43.4989488765
 21
-14.3728954126
 31
0.0
 11
43.5435560976
 21
-14.3131832483
 31
0.0
 11
43.5792375126
 21
-14.2543299458
 31
0.0
 11
43.6074310483
 21
-14.1958523801
 31
0.0
 11
43.6290700531
 21
-14.1371462782
 31
0.0
 11
43.6446107514
 21
-14.0777113604
 31
0.0
 11
43.6541895687
 21
-14.0168578998
 31
0.0
 11
43.6575484226
 21
-13.9537940031
 31
0.0
  0
SPLINE
  5
463
100
AcDbEntity
  8
RACCORDO
100
AcDbSpline
 62
253
  6
CONTINUOUS
 70
0
 71
3
 72
23
 73
19
 74
17
 42
0.0000001
 43
0.0000001
 44
0.0000000001
 12
1.2639631649
 22
-0.0015968815
 32
0.0
 13
0.000008113
 23
1.2639641737
 33
0.0
 40
0.0
 40
0.0
 40
0.0
 40
0.0
 40
0.1076870176
 40
0.2058774777
 40
0.2963499189
 40
0.3797294635
 40
0.4560354406
 40
0.5256757728
 40
0.5893687325
 40
0.6479267007
 40
0.7019535065
 40
0.7514895535
 40
0.7968530828
 40
0.8393227933
 40
0.879989662
 40
0.9197116314
 40
0.9593966264
 40
1.0
 40
1.0
 40
1.0
 40
1.0
 10
42.6130072482
 20
-14.5990546571
 30
0.0
 10
42.6583780561
 20
-14.5991119782
 30
0.0
 10
42.7451862906
 20
-14.5950908764
 30
0.0
 10
42.8689873251
 20
-14.5776592979
 30
0.0
 10
42.9807310439
 20
-14.5514614642
 30
0.0
 10
43.0809116739
 20
-14.5182623651
 30
0.0
 10
43.1696418561
 20
-14.4796894853
 30
0.0
 10
43.247218383
 20
-14.4372030534
 30
0.0
 10
43.3143382555
 20
-14.3919229605
 30
0.0
 10
43.3718007299
 20
-14.3446908142
 30
0.0
 10
43.4201970622
 20
-14.2963337256
 30
0.0
 10
43.4600455609
 20
-14.2477311706
 30
0.0
 10
43.4921456566
 20
-14.1994566946
 30
0.0
 10
43.5174841004
 20
-14.1515078088
 30
0.0
 10
43.5368972717
 20
-14.1034240172
 30
0.0
 10
43.5508392927
 20
-14.0546927501
 30
0.0
 10
43.5594217402
 20
-14.0047652968
 30
0.0
 10
43.5613698934
 20
-13.970905794
 30
0.0
 10
43.5613700032
 20
-13.9537987242
 30
0.0
 11
42.6130072482
 21
-14.5990546571
 31
0.0
 11
42.7489710017
 21
-14.5926923336
 31
0.0
 11
42.8718541056
 21
-14.5752899715
 31
0.0
 11
42.9831600902
 21
-14.5490640721
 31
0.0
 11
43.0831544152
 21
-14.5157785628
 31
0.0
 11
43.1715478816
 21
-14.4771933855
 31
0.0
 11
43.2486820191
 21
-14.4347863918
 31
0.0
 11
43.3153444666
 21
-14.3896502333
 31
0.0
 11
43.3724415232
 21
-14.342552759
 31
0.0
 11
43.4206653716
 21
-14.2942029487
 31
0.0
 11
43.4602856007
 21
-14.2457212663
 31
0.0
 11
43.4919669218
 21
-14.1979308291
 31
0.0
 11
43.5169897072
 21
-14.1504395321
 31
0.0
 11
43.5361845861
 21
-14.1027565452
 31
0.0
 11
43.5499574166
 21
-14.0544754239
 31
0.0
 11
43.5584292336
 21
-14.0050356096
 31
0.0
 11
43.5613700032
 21
-13.9537987242
 31
0.0
  0
SPLINE
  5
464
100
AcDbEntity
  8
RACCORDO
100
AcDbSpline
 62
253
  6
CONTINUOUS
 70
0
 71
3
 72
12
 73
8
 74
6
 42
0.0000001
 43
0.0000001
 44
0.0000000001
 12
16.3176724042
 22
-0.08001319
 32
0.0
 13
16.3178553331
 23
-0.0207877244
 33
0.0
 40
0.0
 40
0.0
 40
0.0
 40
0.0
 40
0.1897466183
 40
0.3882969919
 40
0.5921275151
 40
0.7974264542
 40
1.0
 40
1.0
 40
1.0
 40
1.0
 10
26.2952192595
 20
-14.5505274693
 30
0.0
 10
27.3272936453
 20
-14.5555882134
 30
0.0
 10
29.4393325507
 20
-14.5650362097
 30
0.0
 10
32.6600639385
 20
-14.576912467
 30
0.0
 10
35.9653964546
 20
-14.5866504333
 30
0.0
 10
39.2926180631
 20
-14.5941270404
 30
0.0
 10
41.5111519769
 20
-14.597650976
 30
0.0
 10
42.6130072482
 20
-14.5990546571
 30
0.0
 11
26.2952192595
 21
-14.5505274693
 31
0.0
 11
29.391448447
 21
-14.5644256141
 31
0.0
 11
32.6313451773
 21
-14.5764115291
 31
0.0
 11
35.9574103434
 21
-14.5862407887
 31
0.0
 11
39.3074429442
 21
-14.5937901206
 31
0.0
 11
42.6130072482
 21
-14.5990546571
 31
0.0
  0
SPLINE
  5
465
100
AcDbEntity
  8
RACCORDO
100
AcDbSpline
 62
253
  6
CONTINUOUS
 70
0
 71
3
 72
13
 73
9
 74
7
 42
0.0000001
 43
0.0000001
 44
0.0000000001
 12
0.0000965089
 22
-1.0148478903
 32
0.0
 13
1.014834545
 23
-0.0052053818
 33
0.0
 40
0.0
 40
0.0
 40
0.0
 40
0.0
 40
0.1574390072
 40
0.3181876479
 40
0.4831630077
 40
0.6531167171
 40
0.8267269401
 40
1.0
 40
1.0
 40
1.0
 40
1.0
 10
25.6514510736
 20
-13.8973372207
 30
0.0
 10
25.6514561384
 20
-13.9505961022
 30
0.0
 10
25.6646832043
 20
-14.0586848877
 30
0.0
 10
25.7241002559
 20
-14.2126858682
 30
0.0
 10
25.8226564318
 20
-14.350637895
 30
0.0
 10
25.957057354
 20
-14.4612912754
 30
0.0
 10
26.118705534
 20
-14.5332899089
 30
0.0
 10
26.2366047639
 20
-14.5502268185
 30
0.0
 10
26.2952192595
 20
-14.5505274693
 30
0.0
 11
25.6514510736
 21
-13.8973372207
 31
0.0
 11
25.6708871411
 21
-14.0559273074
 31
0.0
 11
25.7295982332
 21
-14.2081316857
 31
0.0
 11
25.8269857218
 21
-14.3443182235
 31
0.0
 11
25.9601664906
 21
-14.4539140947
 31
0.0
 11
26.1211671876
 21
-14.5254750904
 31
0.0
 11
26.2952192595
 21
-14.5505274693
 31
0.0
  0
SPLINE
  5
466
100
AcDbEntity
  8
RACCORDO
100
AcDbSpline
 62
253
  6
CONTINUOUS
 70
0
 71
3
 72
13
 73
9
 74
7
 42
0.0000001
 43
0.0000001
 44
0.0000000001
 12
-1.0148367591
 22
-0.0050801742
 32
0.0
 13
-0.0004754368
 23
-1.0148493631
 33
0.0
 40
0.0
 40
0.0
 40
0.0
 40
0.0
 40
0.1732472614
 40
0.3467172744
 40
0.5167489718
 40
0.6820785768
 40
0.8434257041
 40
1.0
 40
1.0
 40
1.0
 40
1.0
 10
26.2952192595
 20
-5.4467334787
 30
0.0
 10
26.2366133631
 20
-5.4470268542
 30
0.0
 10
26.1187686989
 20
-5.463957624
 30
0.0
 10
25.9571455011
 20
-5.5359257508
 30
0.0
 10
25.8226425979
 20
-5.646615795
 30
0.0
 10
25.7238897015
 20
-5.784866975
 30
0.0
 10
25.6645781661
 20
-5.9389652474
 30
0.0
 10
25.6514758874
 20
-6.0469572858
 30
0.0
 10
25.6514510736
 20
-6.0999237273
 30
0.0
 11
26.2952192595
 21
-5.4467334787
 31
0.0
 11
26.1211919289
 21
-5.4717758968
 31
0.0
 11
25.9603129297
 21
-5.5432610328
 31
0.0
 11
25.8270481984
 21
-5.6528798462
 31
0.0
 11
25.7294637514
 21
-5.7893678264
 31
0.0
 11
25.6706677872
 21
-5.9421906655
 31
0.0
 11
25.6514510736
 21
-6.0999237273
 31
0.0
  0
SPLINE
  5
467
100
AcDbEntity
  8
RACCORDO
100
AcDbSpline
 62
253
  6
CONTINUOUS
 70
0
 71
3
 72
12
 73
8
 74
6
 42
0.0000001
 43
0.0000001
 44
0.0000000001
 12
16.3692568866
 22
-0.0800129663
 32
0.0
 13
16.3694392376
 23
-0.0207880201
 33
0.0
 40
0.0
 40
0.0
 40
0.0
 40
0.0
 40
0.1897633206
 40
0.3883402933
 40
0.5921931533
 40
0.7975077729
 40
1.0
 40
1.0
 40
1.0
 40
1.0
 10
26.221662658
 20
-14.7005217578
 30
0.0
 10
27.2570908389
 20
-14.7055829332
 30
0.0
 10
29.3760427014
 20
-14.7150319214
 30
0.0
 10
32.6073137185
 20
-14.7269091143
 30
0.0
 10
35.9234476819
 20
-14.7366474657
 30
0.0
 10
39.2609510462
 20
-14.7441227494
 30
0.0
 10
41.486140028
 20
-14.747645808
 30
0.0
 10
42.5910347638
 20
-14.7490489455
 30
0.0
 11
26.221662658
 21
-14.7005217578
 31
0.0
 11
29.3279532126
 21
-14.7144210159
 31
0.0
 11
32.5785274206
 21
-14.7264081657
 31
0.0
 11
35.9154726384
 21
-14.7362378574
 31
0.0
 11
39.2763520601
 21
-14.743786951
 31
0.0
 11
42.5910347638
 21
-14.7490489455
 31
0.0
  0
SPLINE
  5
468
100
AcDbEntity
  8
RACCORDO
100
AcDbSpline
 62
253
  6
CONTINUOUS
 70
0
 71
3
 72
12
 73
8
 74
6
 42
0.0000001
 43
0.0000001
 44
0.0000000001
 12
-16.3178553331
 22
-0.0207877325
 32
0.0
 13
-16.3176724046
 23
-0.0800130966
 33
0.0
 40
0.0
 40
0.0
 40
0.0
 40
0.0
 40
0.202515162
 40
0.4078037785
 40
0.6116533732
 40
0.8102373675
 40
1.0
 40
1.0
 40
1.0
 40
1.0
 10
42.6130072482
 20
-5.398206291
 30
0.0
 10
41.511469543
 20
-5.399609568
 30
0.0
 10
39.2933093424
 20
-5.4031327088
 30
0.0
 10
35.9663577104
 20
-5.41060801
 30
0.0
 10
32.6607947328
 20
-5.4203459627
 30
0.0
 10
29.4396896319
 20
-5.4322231742
 30
0.0
 10
27.3273807501
 20
-5.4416723135
 30
0.0
 10
26.2952192595
 20
-5.4467334787
 30
0.0
 11
42.6130072482
 21
-5.398206291
 31
0.0
 11
39.3083956416
 21
-5.4034690023
 31
0.0
 11
35.9585314811
 21
-5.4110172463
 31
0.0
 11
32.6321551092
 21
-5.4208467286
 31
0.0
 11
29.3917097625
 21
-5.4328342638
 31
0.0
 11
26.2952192595
 21
-5.4467334787
 31
0.0
  0
SPLINE
  5
469
100
AcDbEntity
  8
RACCORDO
100
AcDbSpline
 62
253
  6
CONTINUOUS
 70
0
 71
3
 72
13
 73
9
 74
7
 42
0.0000001
 43
0.0000001
 44
0.0000000001
 12
-0.0016382971
 22
1.260986762
 32
0.0
 13
-1.2609866947
 23
-0.0016892904
 33
0.0
 40
0.0
 40
0.0
 40
0.0
 40
0.0
 40
0.1231102949
 40
0.2587537911
 40
0.4130069731
 40
0.5868442306
 40
0.7819069601
 40
1.0
 40
1.0
 40
1.0
 40
1.0
 10
43.5613700032
 20
-6.0434622238
 30
0.0
 10
43.5613027728
 20
-5.9917154064
 30
0.0
 10
43.5418388386
 20
-5.8821555756
 30
0.0
 10
43.4544721307
 20
-5.7287923608
 30
0.0
 10
43.3107945448
 20
-5.593463902
 30
0.0
 10
43.1167558494
 20
-5.4859726698
 30
0.0
 10
42.8789190572
 20
-5.4144909962
 30
0.0
 10
42.7046780554
 20
-5.3980834835
 30
0.0
 10
42.6130072482
 20
-5.398206291
 30
0.0
 11
43.5613700032
 21
-6.0434622238
 31
0.0
 11
43.5347970729
 21
-5.8905128269
 31
0.0
 11
43.4521705494
 21
-5.7407490784
 31
0.0
 11
43.3124329276
 21
-5.60544174
 31
0.0
 11
43.1218206217
 21
-5.4971896686
 31
0.0
 11
42.8867259235
 21
-5.4248531388
 31
0.0
 11
42.6130072482
 21
-5.398206291
 31
0.0
  0
SPLINE
  5
46A
100
AcDbEntity
  8
RACCORDO
100
AcDbSpline
 62
253
  6
CONTINUOUS
 70
0
 71
3
 72
18
 73
14
 74
12
 42
0.0000001
 43
0.0000001
 44
0.0000000001
 12
0.0020483708
 22
-3.9270414167
 32
0.0
 13
-0.0008802405
 23
3.9270418523
 33
0.0
 40
0.0
 40
0.0
 40
0.0
 40
0.0
 40
0.0912603481
 40
0.1830534287
 40
0.2741966504
 40
0.3646973218
 40
0.4546238841
 40
0.5443327665
 40
0.6343322459
 40
0.7250282604
 40
0.8164049551
 40
0.9083082932
 40
1.0
 40
1.0
 40
1.0
 40
1.0
 10
40.9300529192
 20
-7.998630474
 30
0.0
 10
40.9301152309
 20
-8.1180915296
 30
0.0
 10
40.9635735819
 20
-8.3590444273
 30
0.0
 10
41.1115590671
 20
-8.6911185611
 30
0.0
 10
41.346081172
 20
-8.9680252314
 30
0.0
 10
41.6475425518
 20
-9.1656591811
 30
0.0
 10
41.9911312742
 20
-9.2683645878
 30
0.0
 10
42.3490638257
 20
-9.2684066769
 30
0.0
 10
42.6930541548
 20
-9.1660214215
 30
0.0
 10
42.995666861
 20
-8.9690606887
 30
0.0
 10
43.231937571
 20
-8.6927163448
 30
0.0
 10
43.3818184786
 20
-8.3603577918
 30
0.0
 10
43.4159871869
 20
-8.1186561973
 30
0.0
 10
43.4159602833
 20
-7.998630474
 30
0.0
 11
40.9300529192
 21
-7.998630474
 31
0.0
 11
40.97971543
 21
-8.3535560495
 31
0.0
 11
41.1265556795
 21
-8.6827677859
 31
0.0
 11
41.358174527
 21
-8.9556446189
 31
0.0
 11
41.65552659
 21
-9.1503003744
 31
0.0
 11
41.9939093946
 21
-9.251338679
 31
0.0
 11
42.3461999236
 21
-9.251443528
 31
0.0
 11
42.6850011782
 21
-9.1508070619
 31
0.0
 11
42.9836208352
 21
-8.9566904197
 31
0.0
 11
43.2170281603
 21
-8.6841335494
 31
0.0
 11
43.3654196229
 21
-8.3551430495
 31
0.0
 11
43.4159602833
 21
-7.998630474
 31
0.0
  0
SPLINE
  5
46B
100
AcDbEntity
  8
RACCORDO
100
AcDbSpline
 62
253
  6
CONTINUOUS
 70
0
 71
3
 72
18
 73
14
 74
12
 42
0.0000001
 43
0.0000001
 44
0.0000000001
 12
-0.0009309781
 22
3.9270542364
 32
0.0
 13
-0.0011260183
 23
-3.9270541854
 33
0.0
 40
0.0
 40
0.0
 40
0.0
 40
0.0
 40
0.0913585288
 40
0.1831690857
 40
0.2746010671
 40
0.3654069836
 40
0.4555171268
 40
0.5453088278
 40
0.6352472776
 40
0.7256782897
 40
0.816760345
 40
0.9085492495
 40
1.0
 40
1.0
 40
1.0
 40
1.0
 10
43.4159602833
 20
-7.998630474
 30
0.0
 10
43.4159319323
 20
-7.8790405082
 30
0.0
 10
43.3820554919
 20
-7.6379108374
 30
0.0
 10
43.2327506882
 20
-7.3058241289
 30
0.0
 10
42.9967705666
 20
-7.0291041333
 30
0.0
 10
42.694042242
 20
-6.8316224707
 30
0.0
 10
42.3497204473
 20
-6.7288919154
 30
0.0
 10
41.9915033629
 20
-6.7288134336
 30
0.0
 10
41.6478657888
 20
-6.8314773497
 30
0.0
 10
41.346482356
 20
-7.0289277942
 30
0.0
 10
41.1119496131
 20
-7.3055865511
 30
0.0
 10
40.9636950938
 20
-7.6377121396
 30
0.0
 10
40.9300872443
 20
-7.8789197899
 30
0.0
 10
40.9300529192
 20
-7.998630474
 30
0.0
 11
43.4159602833
 21
-7.998630474
 31
0.0
 11
43.3657912308
 21
-7.643385611
 31
0.0
 11
43.2179456216
 21
-7.3145476469
 31
0.0
 11
42.9847420861
 21
-7.0415293019
 31
0.0
 11
42.6859590216
 21
-6.8468704314
 31
0.0
 11
42.3468066623
 21
-6.7458861014
 31
0.0
 11
41.9941897731
 21
-6.7458734608
 31
0.0
 11
41.6557442659
 21
-6.8468688139
 31
0.0
 11
41.3585640809
 21
-7.0412896935
 31
0.0
 11
41.1269688673
 21
-7.3138729475
 31
0.0
 11
40.9799283263
 21
-7.642978558
 31
0.0
 11
40.9300529192
 21
-7.998630474
 31
0.0
  0
SPLINE
  5
46C
100
AcDbEntity
  8
RACCORDO
100
AcDbSpline
 62
253
  6
CONTINUOUS
 70
0
 71
3
 72
18
 73
14
 74
12
 42
0.0000001
 43
0.0000001
 44
0.0000000001
 12
0.0011107608
 22
-3.9270539769
 32
0.0
 13
0.0009333539
 23
3.9270540231
 33
0.0
 40
0.0
 40
0.0
 40
0.0
 40
0.0
 40
0.091311711
 40
0.1830485692
 40
0.2741148439
 40
0.3644545159
 40
0.4543776359
 40
0.5442653922
 40
0.6344214691
 40
0.7252094582
 40
0.8166171067
 40
0.9085352317
 40
1.0
 40
1.0
 40
1.0
 40
1.0
 10
40.9300529192
 20
-11.998630474
 30
0.0
 10
40.9300867277
 20
-12.1181591466
 30
0.0
 10
40.9636077071
 20
-12.3591105228
 30
0.0
 10
41.111577775
 20
-12.6910569473
 30
0.0
 10
41.3457994761
 20
-12.9677008105
 30
0.0
 10
41.6468773816
 20
-13.1652993099
 30
0.0
 10
41.990396669
 20
-13.2683013216
 30
0.0
 10
42.3487939865
 20
-13.268532502
 30
0.0
 10
42.6933428658
 20
-13.1659690203
 30
0.0
 10
42.9961868372
 20
-12.9686594004
 30
0.0
 10
43.2323973486
 20
-12.6920264961
 30
0.0
 10
43.3819749665
 20
-12.3597734101
 30
0.0
 10
43.4159318269
 20
-12.1183595028
 30
0.0
 10
43.4159602833
 20
-11.998630474
 30
0.0
 11
40.9300529192
 21
-11.998630474
 31
0.0
 11
40.9797767574
 21
-12.3537522592
 31
0.0
 11
41.1265654308
 21
-12.682746467
 31
0.0
 11
41.3579490144
 21
-12.9554280916
 31
0.0
 11
41.6546714677
 21
-13.1498931902
 31
0.0
 11
41.9929588697
 21
-13.251207164
 31
0.0
 11
42.3459528339
 21
-13.2514990493
 31
0.0
 11
42.6853413945
 21
-13.1506762056
 31
0.0
 11
42.9841772802
 21
-12.9562275254
 31
0.0
 11
43.2174918608
 21
-12.6834298227
 31
0.0
 11
43.3656740936
 21
-12.3542801182
 31
0.0
 11
43.4159602833
 21
-11.998630474
 31
0.0
  0
SPLINE
  5
46D
100
AcDbEntity
  8
RACCORDO
100
AcDbSpline
 62
253
  6
CONTINUOUS
 70
0
 71
3
 72
18
 73
14
 74
12
 42
0.0000001
 43
0.0000001
 44
0.0000000001
 12
0.0008815645
 22
3.9270421994
 32
0.0
 13
-0.0020770677
 23
-3.927041749
 33
0.0
 40
0.0
 40
0.0
 40
0.0
 40
0.0
 40
0.0915738146
 40
0.1834019537
 40
0.2747890496
 40
0.3655063031
 40
0.4555374681
 40
0.5452130419
 40
0.6350508777
 40
0.7254991256
 40
0.8166759344
 40
0.9085246845
 40
1.0
 40
1.0
 40
1.0
 40
1.0
 10
43.4159602833
 20
-11.998630474
 30
0.0
 10
43.4159871927
 20
-11.8787590626
 30
0.0
 10
43.3819002108
 20
-11.637315184
 30
0.0
 10
43.2322820014
 20
-11.3051128108
 30
0.0
 10
42.9962121705
 20
-11.0286710217
 30
0.0
 10
42.6936350161
 20
-10.8314981775
 30
0.0
 10
42.3496643186
 20
-10.7289422305
 30
0.0
 10
41.9918554844
 20
-10.7288147088
 30
0.0
 10
41.6484295623
 20
-10.8312193117
 30
0.0
 10
41.3469151807
 20
-11.028501492
 30
0.0
 10
41.1121074975
 20
-11.3052369374
 30
0.0
 10
40.9637038935
 20
-11.6375710719
 30
0.0
 10
40.9301162527
 20
-11.8788880131
 30
0.0
 10
40.9300529192
 20
-11.998630474
 30
0.0
 11
43.4159602833
 21
-11.998630474
 31
0.0
 11
43.3655499447
 21
-11.642566994
 31
0.0
 11
43.2174383863
 21
-11.3137742141
 31
0.0
 11
42.984165792
 21
-11.0410482294
 31
0.0
 11
42.6855824234
 21
-10.8467227684
 31
0.0
 11
42.3467092108
 21
-10.7458915852
 31
0.0
 11
41.9945494449
 21
-10.745828931
 31
0.0
 11
41.6564326379
 21
-10.8465400753
 31
0.0
 11
41.3590792476
 21
-11.0408177291
 31
0.0
 11
41.1271274385
 21
-11.3135847972
 31
0.0
 11
40.979949552
 21
-11.6428852355
 31
0.0
 11
40.9300529192
 21
-11.998630474
 31
0.0
  0
SPLINE
  5
46E
100
AcDbEntity
  8
RACCORDO
100
AcDbSpline
 62
253
  6
CONTINUOUS
 70
0
 71
3
 72
12
 73
8
 74
6
 42
0.0000001
 43
0.0000001
 44
0.0000000001
 12
-16.3695273942
 22
-0.0207881435
 32
0.0
 13
-16.3693450429
 23
-0.0800132562
 33
0.0
 40
0.0
 40
0.0
 40
0.0
 40
0.0
 40
0.2024384773
 40
0.4077427682
 40
0.6116150282
 40
0.8102265715
 40
1.0
 40
1.0
 40
1.0
 40
1.0
 10
42.5911229221
 20
-5.2482118626
 30
0.0
 10
41.4865155224
 20
-5.249614636
 30
0.0
 10
39.2616642012
 20
-5.2531369544
 30
0.0
 10
35.9243866493
 20
-5.260611037
 30
0.0
 10
32.6079966931
 20
-5.2703494747
 30
0.0
 10
29.3763586302
 20
-5.2822276371
 30
0.0
 10
27.2571515699
 20
-5.2916777269
 30
0.0
 10
26.2216626597
 20
-5.2967391902
 30
0.0
 11
42.5911229221
 21
-5.2482118626
 31
0.0
 11
39.2773022258
 21
-5.2534721827
 31
0.0
 11
35.9165737768
 21
-5.2610202388
 31
0.0
 11
32.5792930182
 21
-5.2708502475
 31
0.0
 11
29.3281354029
 21
-5.2828391876
 31
0.0
 11
26.2216626597
 21
-5.2967391902
 31
0.0
  0
SPLINE
  5
46F
100
AcDbEntity
  8
RACCORDO
100
AcDbSpline
 62
253
  6
CONTINUOUS
 70
0
 71
3
 72
18
 73
14
 74
12
 42
0.0000001
 43
0.0000001
 44
0.0000000001
 12
-0.0020492296
 22
3.9278268576
 32
0.0
 13
0.0008809143
 23
-3.9278272934
 33
0.0
 40
0.0
 40
0.0
 40
0.0
 40
0.0
 40
0.0912429311
 40
0.1830248028
 40
0.2741672923
 40
0.3646779435
 40
0.454621619
 40
0.5443489355
 40
0.634362334
 40
0.7250636717
 40
0.8164357416
 40
0.9083260204
 40
1.0
 40
1.0
 40
1.0
 40
1.0
 10
-40.9198333345
 20
-11.998630474
 30
0.0
 10
-40.9198956605
 20
-11.8791683289
 30
0.0
 10
-40.9533728477
 20
-11.6382038446
 30
0.0
 10
-41.101436383
 20
-11.3061242416
 30
0.0
 10
-41.3360720434
 20
-11.0292213231
 30
0.0
 10
-41.6376645931
 20
-10.8315961603
 30
0.0
 10
-41.9813888668
 20
-10.7288967845
 30
0.0
 10
-42.3394543701
 20
-10.7288536
 30
0.0
 10
-42.6835703621
 20
-10.8312324267
 30
0.0
 10
-42.986294979
 20
-11.0281868836
 30
0.0
 10
-43.2226549621
 20
-11.3045301132
 30
0.0
 10
-43.372593455
 20
-11.6368937535
 30
0.0
 10
-43.4067756888
 20
-11.8786039543
 30
0.0
 10
-43.4067487698
 20
-11.998630474
 30
0.0
 11
-40.9198333345
 21
-11.998630474
 31
0.0
 11
-40.9695194276
 21
-11.6437048985
 31
0.0
 11
-41.116428576
 21
-11.3144931622
 31
0.0
 11
-41.3481535902
 21
-11.0416163292
 31
0.0
 11
-41.645637455
 21
-10.8469605736
 31
0.0
 11
-41.9841641208
 21
-10.7459222691
 31
0.0
 11
-42.3365975167
 21
-10.74581742
 31
0.0
 11
-42.6755295443
 21
-10.8464538862
 31
0.0
 11
-42.9742590974
 21
-11.0405705284
 31
0.0
 11
-43.2077488272
 21
-11.3131273986
 31
0.0
 11
-43.3561910894
 21
-11.6421178985
 31
0.0
 11
-43.4067487698
 21
-11.998630474
 31
0.0
  0
SPLINE
  5
470
100
AcDbEntity
  8
RACCORDO
100
AcDbSpline
 62
253
  6
CONTINUOUS
 70
0
 71
3
 72
18
 73
14
 74
12
 42
0.0000001
 43
0.0000001
 44
0.0000000001
 12
0.000931738
 22
-3.9278396772
 32
0.0
 13
0.0011264741
 23
3.9278396262
 33
0.0
 40
0.0
 40
0.0
 40
0.0
 40
0.0
 40
0.0913408616
 40
0.1831383435
 40
0.2745656547
 40
0.3653768658
 40
0.4555009293
 40
0.5453110791
 40
0.6352666468
 40
0.7257076406
 40
0.8167889831
 40
0.9085666992
 40
1.0
 40
1.0
 40
1.0
 40
1.0
 10
-43.4067487698
 20
-11.998630474
 30
0.0
 10
-43.4067204012
 20
-12.1182212274
 30
0.0
 10
-43.3728305817
 20
-12.3593594433
 30
0.0
 10
-43.2234683942
 20
-12.6914512958
 30
0.0
 10
-42.9873990735
 20
-12.9681702328
 30
0.0
 10
-42.6845587722
 20
-13.1656456164
 30
0.0
 10
-42.3401112148
 20
-13.2683697107
 30
0.0
 10
-41.9817611044
 20
-13.2684470872
 30
0.0
 10
-41.6379879524
 20
-13.1657891951
 30
0.0
 10
-41.3364733873
 20
-12.9683475176
 30
0.0
 10
-41.1018271186
 20
-12.6916925248
 30
0.0
 10
-40.9534944362
 20
-12.35956153
 30
0.0
 10
-40.919867667
 20
-12.1183422547
 30
0.0
 10
-40.9198333345
 20
-11.998630474
 30
0.0
 11
-43.4067487698
 21
-11.998630474
 31
0.0
 11
-43.356562823
 21
-12.353875337
 31
0.0
 11
-43.2086666064
 21
-12.6827133011
 31
0.0
 11
-42.9753807514
 21
-12.9557316462
 31
0.0
 11
-42.6764877483
 21
-13.1503905166
 31
0.0
 11
-42.3372044953
 21
-13.2513748466
 31
0.0
 11
-41.9844446157
 21
-13.2513874872
 31
0.0
 11
-41.6458552256
 21
-13.1503921342
 31
0.0
 11
-41.3485433201
 21
-12.9559712546
 31
0.0
 11
-41.1168419559
 21
-12.6833880006
 31
0.0
 11
-40.9697324246
 21
-12.35428239
 31
0.0
 11
-40.9198333345
 21
-11.998630474
 31
0.0
  0
SPLINE
  5
471
100
AcDbEntity
  8
RACCORDO
100
AcDbSpline
 62
253
  6
CONTINUOUS
 70
0
 71
3
 72
18
 73
14
 74
12
 42
0.0000001
 43
0.0000001
 44
0.0000000001
 12
-0.0011112103
 22
3.9278394199
 32
0.0
 13
-0.0009341156
 23
-3.927839466
 33
0.0
 40
0.0
 40
0.0
 40
0.0
 40
0.0
 40
0.0912942853
 40
0.1830199452
 40
0.2740854825
 40
0.3644350992
 40
0.4543753187
 40
0.5442815489
 40
0.6344515684
 40
0.7252448707
 40
0.8166478715
 40
0.9085529181
 40
1.0
 40
1.0
 40
1.0
 40
1.0
 10
-40.9198333345
 20
-7.998630474
 30
0.0
 10
-40.9198671503
 20
-7.8791007098
 30
0.0
 10
-40.9534069925
 20
-7.6381377442
 30
0.0
 10
-41.1014550808
 20
-7.3061858877
 30
0.0
 10
-41.3357901729
 20
-7.0295457742
 30
0.0
 10
-41.6369991181
 20
-6.8319560195
 30
0.0
 10
-41.9806539953
 20
-6.7289600457
 30
0.0
 10
-42.339184401
 20
-6.7287277792
 30
0.0
 10
-42.6838591348
 20
-6.8312848001
 30
0.0
 10
-42.9868151326
 20
-7.0285881448
 30
0.0
 10
-43.2231149084
 20
-7.3052199582
 30
0.0
 10
-43.3727500198
 20
-7.6374781731
 30
0.0
 10
-43.4067202957
 20
-7.8789006549
 30
0.0
 10
-43.4067487698
 20
-7.998630474
 30
0.0
 11
-40.9198333345
 21
-7.998630474
 31
0.0
 11
-40.969580784
 21
-7.6435086889
 31
0.0
 11
-41.1164383319
 21
-7.3145144811
 31
0.0
 11
-41.3479279757
 21
-7.0418328564
 31
0.0
 11
-41.644781961
 21
-6.8473677578
 31
0.0
 11
-41.9832132008
 21
-6.746053784
 31
0.0
 11
-42.3363503292
 21
-6.7457618987
 31
0.0
 11
-42.6758698887
 21
-6.8465847424
 31
0.0
 11
-42.9748157424
 21
-7.0410334226
 31
0.0
 11
-43.2082126883
 21
-7.3138311254
 31
0.0
 11
-43.3564456461
 21
-7.6429808298
 31
0.0
 11
-43.4067487698
 21
-7.998630474
 31
0.0
  0
SPLINE
  5
472
100
AcDbEntity
  8
RACCORDO
100
AcDbSpline
 62
253
  6
CONTINUOUS
 70
0
 71
3
 72
18
 73
14
 74
12
 42
0.0000001
 43
0.0000001
 44
0.0000000001
 12
-0.0008822394
 22
-3.9278276361
 32
0.0
 13
0.0020779383
 23
3.9278271855
 33
0.0
 40
0.0
 40
0.0
 40
0.0
 40
0.0
 40
0.0915561088
 40
0.1833711877
 40
0.2747536385
 40
0.3654761978
 40
0.4555212756
 40
0.5452152738
 40
0.6350702163
 40
0.7255284679
 40
0.8167045801
 40
0.9085421385
 40
1.0
 40
1.0
 40
1.0
 40
1.0
 10
-43.4067487698
 20
-7.998630474
 30
0.0
 10
-43.4067756946
 20
-8.1185026788
 30
0.0
 10
-43.3726752244
 20
-8.3599551368
 30
0.0
 10
-43.2229995326
 20
-8.6921626131
 30
0.0
 10
-42.9868404878
 20
-8.9686033155
 30
0.0
 10
-42.6841514274
 20
-9.1657698873
 30
0.0
 10
-42.3400550836
 20
-9.2683193951
 30
0.0
 10
-41.9821133471
 20
-9.2684458116
 30
0.0
 10
-41.6385519463
 20
-9.1660472109
 30
0.0
 10
-41.3369064352
 20
-8.9687738219
 30
0.0
 10
-41.101985106
 20
-8.6920421761
 30
0.0
 10
-40.9535032443
 20
-8.3597026109
 30
0.0
 10
-40.9198966825
 20
-8.1183740322
 30
0.0
 10
-40.9198333345
 20
-7.998630474
 30
0.0
 11
-43.4067487698
 21
-7.998630474
 31
0.0
 11
-43.3563214552
 21
-8.354693954
 31
0.0
 11
-43.2081591953
 21
-8.6834867339
 31
0.0
 11
-42.9748042501
 21
-8.9562127186
 31
0.0
 11
-42.6761110083
 21
-9.1505381796
 31
0.0
 11
-42.3371070053
 21
-9.2513693629
 31
0.0
 11
-41.984804437
 21
-9.2514320171
 31
0.0
 11
-41.6465438969
 21
-9.1507208727
 31
0.0
 11
-41.3490587195
 21
-8.956443219
 31
0.0
 11
-41.1170006009
 21
-8.6836761508
 31
0.0
 11
-40.9697536604
 21
-8.3543757126
 31
0.0
 11
-40.9198333345
 21
-7.998630474
 31
0.0
  0
SPLINE
  5
473
100
AcDbEntity
  8
RACCORDO
100
AcDbSpline
 62
253
  6
CONTINUOUS
 70
0
 71
3
 72
10
 73
6
 74
4
 42
0.0000001
 43
0.0000001
 44
0.0000000001
 12
0.0006624549
 22
0.1781785215
 32
0.0
 13
0.1781580824
 23
0.0027788534
 33
0.0
 40
0.0
 40
0.0
 40
0.0
 40
0.0
 40
0.4228050935
 40
0.7653662013
 40
1.0
 40
1.0
 40
1.0
 40
1.0
 10
-26.2712993573
 20
-5.4467334787
 30
0.0
 10
-26.2712059942
 20
-5.4216218833
 30
0.0
 10
-26.2651025967
 20
-5.3760178817
 30
0.0
 10
-26.2436074369
 20
-5.3199763173
 30
0.0
 10
-26.2120122239
 20
-5.2969565288
 30
0.0
 10
-26.1980782547
 20
-5.2967391912
 30
0.0
 11
-26.2712993573
 21
-5.4467334787
 31
0.0
 11
-26.2613047105
 21
-5.3720641039
 31
0.0
 11
-26.2345287471
 21
-5.3172132287
 31
0.0
 11
-26.1980782547
 21
-5.2967391912
 31
0.0
  0
SPLINE
  5
474
100
AcDbEntity
  8
RACCORDO
100
AcDbSpline
 62
253
  6
CONTINUOUS
 70
0
 71
3
 72
18
 73
14
 74
12
 42
0.0000001
 43
0.0000001
 44
0.0000000001
 12
-0.0004881813
 22
2.9306002592
 32
0.0
 13
-0.0004133173
 23
-2.9306002707
 33
0.0
 40
0.0
 40
0.0
 40
0.0
 40
0.0
 40
0.0919894059
 40
0.1840073635
 40
0.2751127684
 40
0.365170968
 40
0.4545471708
 40
0.5437740238
 40
0.6333858087
 40
0.7238680959
 40
0.8152641099
 40
0.9074331185
 40
1.0
 40
1.0
 40
1.0
 40
1.0
 10
-41.2571591943
 20
-7.998630474
 30
0.0
 10
-41.2571741635
 20
-7.9087690817
 30
0.0
 10
-41.282134021
 20
-7.7280284583
 30
0.0
 10
-41.3920693012
 20
-7.4790740053
 30
0.0
 10
-41.5658988504
 20
-7.2717831761
 30
0.0
 10
-41.7892584557
 20
-7.1236991285
 30
0.0
 10
-42.0440202449
 20
-7.0464710318
 30
0.0
 10
-42.309804727
 20
-7.0461444127
 30
0.0
 10
-42.5654037335
 20
-7.1227544548
 30
0.0
 10
-42.7901816254
 20
-7.2703476224
 30
0.0
 10
-42.96566021
 20
-7.4773598418
 30
0.0
 10
-43.0772252948
 20
-7.7267207629
 30
0.0
 10
-43.102678786
 20
-7.9082049647
 30
0.0
 10
-43.1026915392
 20
-7.998630474
 30
0.0
 11
-41.2571591943
 21
-7.998630474
 31
0.0
 11
-41.2942687879
 21
-7.7316126684
 31
0.0
 11
-41.4033792135
 21
-7.4850043424
 31
0.0
 11
-41.5752378124
 21
-7.28067577
 31
0.0
 11
-41.7953656349
 21
-7.135073815
 31
0.0
 11
-42.0460705179
 21
-7.0592302085
 31
0.0
 11
-42.3075585014
 21
-7.058862349
 31
0.0
 11
-42.559177438
 21
-7.134063707
 31
0.0
 11
-42.7809796485
 21
-7.2793824563
 31
0.0
 11
-42.9544125508
 21
-7.4834953468
 31
0.0
 11
-43.0648211958
 21
-7.7300103088
 31
0.0
 11
-43.1026915392
 21
-7.998630474
 31
0.0
  0
SPLINE
  5
475
100
AcDbEntity
  8
RACCORDO
100
AcDbSpline
 62
253
  6
CONTINUOUS
 70
0
 71
3
 72
18
 73
14
 74
12
 42
0.0000001
 43
0.0000001
 44
0.0000000001
 12
-0.0004457061
 22
-2.9305973513
 32
0.0
 13
0.0009558461
 23
2.9305972293
 33
0.0
 40
0.0
 40
0.0
 40
0.0
 40
0.0
 40
0.0924860156
 40
0.1846049143
 40
0.2760396602
 40
0.3665260411
 40
0.4561033423
 40
0.545215644
 40
0.6345110665
 40
0.7245802932
 40
0.8157146438
 40
0.907820007
 40
1.0
 40
1.0
 40
1.0
 40
1.0
 10
-43.1026915392
 20
-7.998630474
 30
0.0
 10
-43.1027052797
 20
-8.0889768981
 30
0.0
 10
-43.0772529846
 20
-8.270330535
 30
0.0
 10
-42.9658205479
 20
-8.5196386937
 30
0.0
 10
-42.7904125606
 20
-8.726709205
 30
0.0
 10
-42.5656697264
 20
-8.8743685941
 30
0.0
 10
-42.3102374513
 20
-8.9510246221
 30
0.0
 10
-42.0446917597
 20
-8.9508570715
 30
0.0
 10
-41.7900390557
 20
-8.8739229359
 30
0.0
 10
-41.5665625589
 20
-8.7260847212
 30
0.0
 10
-41.3924573998
 20
-8.5188584899
 30
0.0
 10
-41.2822174426
 20
-8.2696955854
 30
0.0
 10
-41.2571885643
 20
-8.0886779514
 30
0.0
 10
-41.2571591943
 20
-7.998630474
 30
0.0
 11
-43.1026915392
 21
-7.998630474
 31
0.0
 11
-43.0648861497
 21
-8.2670201932
 31
0.0
 11
-42.9546153787
 21
-8.5134356888
 31
0.0
 11
-42.781179404
 21
-8.7176945475
 31
0.0
 11
-42.5594081042
 21
-8.8630818675
 31
0.0
 11
-42.3079121534
 21
-8.9383408501
 31
0.0
 11
-42.0467599601
 21
-8.9381302124
 31
0.0
 11
-41.796211864
 21
-8.8625871881
 31
0.0
 11
-41.5759101659
 21
-8.7171902494
 31
0.0
 11
-41.4038075139
 21
-8.5129566013
 31
0.0
 11
-41.2944208207
 21
-8.2661907711
 31
0.0
 11
-41.2571591943
 21
-7.998630474
 31
0.0
  0
SPLINE
  5
476
100
AcDbEntity
  8
RACCORDO
100
AcDbSpline
 62
253
  6
CONTINUOUS
 70
0
 71
3
 72
18
 73
14
 74
12
 42
0.0000001
 43
0.0000001
 44
0.0000000001
 12
0.0004121407
 22
-2.930600426
 32
0.0
 13
0.0004951653
 23
2.9306004132
 33
0.0
 40
0.0
 40
0.0
 40
0.0
 40
0.0
 40
0.0924558525
 40
0.1845188453
 40
0.2759413337
 40
0.3664419738
 40
0.4560086045
 40
0.5451405843
 40
0.6345308501
 40
0.7246799798
 40
0.8157995192
 40
0.9078690515
 40
1.0
 40
1.0
 40
1.0
 40
1.0
 10
-43.1026915392
 20
-11.998630474
 30
0.0
 10
-43.1026788376
 20
-12.0889475276
 30
0.0
 10
-43.0772865035
 20
-12.2702162286
 30
0.0
 10
-42.9659278543
 20
-12.5194529794
 30
0.0
 10
-42.7906195958
 20
-12.7265334133
 30
0.0
 10
-42.5659265834
 20
-12.8742576307
 30
0.0
 10
-42.3104955306
 20
-12.9509941358
 30
0.0
 10
-42.0448447959
 20
-12.9509003533
 30
0.0
 10
-41.7899939702
 20
-12.8739258887
 30
0.0
 10
-41.5664078723
 20
-12.7259537454
 30
0.0
 10
-41.3923476356
 20
-12.5186528265
 30
0.0
 10
-41.2821996514
 20
-12.2695640312
 30
0.0
 10
-41.257174401
 20
-12.0886301392
 30
0.0
 10
-41.2571591943
 20
-11.998630474
 30
0.0
 11
-43.1026915392
 21
-11.998630474
 31
0.0
 11
-43.0649121619
 21
-12.2669348751
 31
0.0
 11
-42.9547548799
 21
-12.5132219667
 31
0.0
 11
-42.7814023185
 21
-12.7175048801
 31
0.0
 11
-42.5596396371
 21
-12.8629820504
 31
0.0
 11
-42.3081953695
 21
-12.9383055873
 31
0.0
 11
-42.046985186
 21
-12.9381663088
 31
0.0
 11
-41.7961648768
 21
-12.8625623271
 31
0.0
 11
-41.5756958269
 21
-12.7169933571
 31
0.0
 11
-41.4036816491
 21
-12.5127415653
 31
0.0
 11
-41.2943831868
 21
-12.2660511802
 31
0.0
 11
-41.2571591943
 21
-11.998630474
 31
0.0
  0
SPLINE
  5
477
100
AcDbEntity
  8
RACCORDO
100
AcDbSpline
 62
253
  6
CONTINUOUS
 70
0
 71
3
 72
18
 73
14
 74
12
 42
0.0000001
 43
0.0000001
 44
0.0000000001
 12
-0.0009425622
 22
2.9305969697
 32
0.0
 13
0.0004452067
 23
-2.9305970874
 33
0.0
 40
0.0
 40
0.0
 40
0.0
 40
0.0
 40
0.0919626681
 40
0.184013873
 40
0.2751162797
 40
0.3652384723
 40
0.4546213197
 40
0.5437668345
 40
0.6333122394
 40
0.7237756779
 40
0.8151985173
 40
0.9073917241
 40
1.0
 40
1.0
 40
1.0
 40
1.0
 10
-41.2571591943
 20
-11.998630474
 30
0.0
 10
-41.2571880879
 20
-11.9087953019
 30
0.0
 10
-41.2821200326
 20
-11.7280501236
 30
0.0
 10
-41.3920497259
 20
-11.479081706
 30
0.0
 10
-41.5659439285
 20
-11.2717264374
 30
0.0
 10
-41.7893803349
 20
-11.1236257074
 30
0.0
 10
-42.0441525486
 20
-11.0464660108
 30
0.0
 10
-42.3097889672
 20
-11.0461703857
 30
0.0
 10
-42.5652344666
 20
-11.1226974626
 30
0.0
 10
-42.7900027361
 20
-11.2701950376
 30
0.0
 10
-42.9655594299
 20
-11.4771893945
 30
0.0
 10
-43.0771911422
 20
-11.7266150521
 30
0.0
 10
-43.1027052825
 20
-11.9081646261
 30
0.0
 10
-43.1026915392
 20
-11.998630474
 30
0.0
 11
-41.2571591943
 21
-11.998630474
 31
0.0
 11
-41.2942452162
 21
-11.7316887991
 31
0.0
 11
-41.4033821684
 21
-11.4849859842
 31
0.0
 11
-41.5752395519
 21
-11.2806682494
 31
0.0
 11
-41.7955405761
 21
-11.134988732
 31
0.0
 11
-42.0462825462
 21
-11.0592014785
 31
0.0
 11
-42.3075319181
 21
-11.0588646196
 31
0.0
 11
-42.5589740897
 21
-11.1339770762
 31
0.0
 11
-42.7807697154
 21
-11.2792045389
 31
0.0
 11
-42.9543052437
 21
-11.4833329973
 31
0.0
 11
-43.064785938
 21
-11.7298930671
 31
0.0
 11
-43.1026915392
 21
-11.998630474
 31
0.0
  0
SPLINE
  5
478
100
AcDbEntity
  8
RACCORDO
100
AcDbSpline
 62
253
  6
CONTINUOUS
 70
0
 71
3
 72
10
 73
6
 74
4
 42
0.0000001
 43
0.0000001
 44
0.0000000001
 12
0.000673382
 22
-0.178162772
 32
0.0
 13
0.1781424155
 23
-0.0027760751
 33
0.0
 40
0.0
 40
0.0
 40
0.0
 40
0.0
 40
0.4228096372
 40
0.7653658754
 40
1.0
 40
1.0
 40
1.0
 40
1.0
 10
-26.271299809
 20
-14.5505274694
 30
0.0
 10
-26.2712049049
 20
-14.5756371151
 30
0.0
 10
-26.2650999662
 20
-14.6212366634
 30
0.0
 10
-26.243604103
 20
-14.6772725573
 30
0.0
 10
-26.212011019
 20
-14.700288306
 30
0.0
 10
-26.1980782558
 20
-14.7005054266
 30
0.0
 11
-26.271299809
 21
-14.5505274694
 31
0.0
 11
-26.2613020807
 21
-14.6251905476
 31
0.0
 11
-26.2345263931
 21
-14.680034604
 31
0.0
 11
-26.1980782558
 21
-14.7005054266
 31
0.0
  0
SPLINE
  5
479
100
AcDbEntity
  8
RACCORDO
100
AcDbSpline
 62
253
  6
CONTINUOUS
 70
0
 71
3
 72
10
 73
6
 74
4
 42
0.0000001
 43
0.0000001
 44
0.0000000001
 12
0.0001905216
 22
-0.1532595442
 32
0.0
 13
0.152987368
 23
-0.0091317798
 33
0.0
 40
0.0
 40
0.0
 40
0.0
 40
0.0
 40
0.487316762
 40
0.8488580439
 40
1.0
 40
1.0
 40
1.0
 40
1.0
 10
-42.6035093043
 20
-14.5990546571
 30
0.0
 10
-42.6034783561
 20
-14.623949972
 30
0.0
 10
-42.6024536542
 20
-14.6703171882
 30
0.0
 10
-42.5950014626
 20
-14.7124108635
 30
0.0
 10
-42.589624765
 20
-14.7485888456
 30
0.0
 10
-42.5819171616
 20
-14.7490489107
 30
0.0
 11
-42.6035093043
 21
-14.5990546571
 31
0.0
 11
-42.6005547039
 21
-14.6736821943
 31
0.0
 11
-42.5926596876
 21
-14.7285265468
 31
0.0
 11
-42.5819171616
 21
-14.7490489107
 31
0.0
  0
SPLINE
  5
47A
100
AcDbEntity
  8
RACCORDO
100
AcDbSpline
 62
253
  6
CONTINUOUS
 70
0
 71
3
 72
10
 73
6
 74
4
 42
0.0000001
 43
0.0000001
 44
0.0000000001
 12
0.0001904838
 22
0.1532593817
 32
0.0
 13
0.1529844633
 23
0.0091775994
 33
0.0
 40
0.0
 40
0.0
 40
0.0
 40
0.0
 40
0.4873061606
 40
0.8488463997
 40
1.0
 40
1.0
 40
1.0
 40
1.0
 10
-42.6035083732
 20
-5.398206291
 30
0.0
 10
-42.6034774319
 20
-5.373311544
 30
0.0
 10
-42.6024532865
 20
-5.3269461231
 30
0.0
 10
-42.5949998161
 20
-5.2848493305
 30
0.0
 10
-42.5896252124
 20
-5.2486741264
 30
0.0
 10
-42.5819171616
 20
-5.2482117174
 30
0.0
 11
-42.6035083732
 21
-5.398206291
 31
0.0
 11
-42.6005539437
 21
-5.3235804523
 31
0.0
 11
-42.5926593097
 21
-5.2687362656
 31
0.0
 11
-42.5819171616
 21
-5.2482117174
 31
0.0
  0
SPLINE
  5
47B
100
AcDbEntity
  8
RACCORDO
100
AcDbSpline
 62
253
  6
CONTINUOUS
 70
0
 71
3
 72
13
 73
9
 74
7
 42
0.0000001
 43
0.0000001
 44
0.0000000001
 12
0.0034977622
 22
-1.4671028597
 32
0.0
 13
1.4671069218
 23
0.0005614385
 33
0.0
 40
0.0
 40
0.0
 40
0.0
 40
0.0
 40
0.130650763
 40
0.2712803795
 40
0.4271333524
 40
0.5988614579
 40
0.788585438
 40
1.0
 40
1.0
 40
1.0
 40
1.0
 10
-43.6485211662
 20
-13.9537987242
 30
0.0
 10
-43.6483688377
 20
-14.0176914269
 30
0.0
 10
-43.6267215968
 20
-14.1512109568
 30
0.0
 10
-43.5291409261
 20
-14.3394355384
 30
0.0
 10
-43.3682121364
 20
-14.5063325716
 30
0.0
 10
-43.1502037321
 20
-14.6394146361
 30
0.0
 10
-42.8823082392
 20
-14.7283573981
 30
0.0
 10
-42.6853830718
 20
-14.749088529
 30
0.0
 10
-42.581993816
 20
-14.7490489636
 30
0.0
 11
-43.6485211662
 21
-13.9537987242
 31
0.0
 11
-43.6181639357
 21
-14.1430581876
 31
0.0
 11
-43.5249307357
 21
-14.3271097454
 31
0.0
 11
-43.3679055785
 21
-14.4933183216
 31
0.0
 11
-43.1540175859
 21
-14.6264628265
 31
0.0
 11
-42.8903630699
 21
-14.7156953847
 31
0.0
 11
-42.581993816
 21
-14.7490489636
 31
0.0
  0
SPLINE
  5
47C
100
AcDbEntity
  8
RACCORDO
100
AcDbSpline
 62
253
  6
CONTINUOUS
 70
0
 71
3
 72
23
 73
19
 74
17
 42
0.0000001
 43
0.0000001
 44
0.0000000001
 12
-1.4706708692
 22
0.0005084484
 32
0.0
 13
-0.0012081742
 23
-1.4706704608
 33
0.0
 40
0.0
 40
0.0
 40
0.0
 40
0.0
 40
0.1039932442
 40
0.1990035383
 40
0.2868694682
 40
0.3682520199
 40
0.4431878384
 40
0.5120656806
 40
0.5755604191
 40
0.6344339908
 40
0.6892307528
 40
0.7399123705
 40
0.7867115342
 40
0.8308546423
 40
0.87339827
 40
0.9151705916
 40
0.9570581716
 40
1.0
 40
1.0
 40
1.0
 40
1.0
 10
-42.5819171334
 20
-5.2482120025
 30
0.0
 10
-42.6328970783
 20
-5.2481943775
 30
0.0
 10
-42.730538939
 20
-5.253261955
 30
0.0
 10
-42.8697167699
 20
-5.2748975369
 30
0.0
 10
-42.9953548052
 20
-5.30731646
 30
0.0
 10
-43.108007193
 20
-5.3483403366
 30
0.0
 10
-43.2077920406
 20
-5.3959613762
 30
0.0
 10
-43.2950393325
 20
-5.4483787573
 30
0.0
 10
-43.3705317587
 20
-5.5042141937
 30
0.0
 10
-43.4351647915
 20
-5.5624305321
 30
0.0
 10
-43.489598171
 20
-5.6220046757
 30
0.0
 10
-43.5344155725
 20
-5.6818516635
 30
0.0
 10
-43.5705240384
 20
-5.7412749082
 30
0.0
 10
-43.5990359113
 20
-5.8002858217
 30
0.0
 10
-43.6208899243
 20
-5.8594498183
 30
0.0
 10
-43.6365967519
 20
-5.919395247
 30
0.0
 10
-43.6462841831
 20
-5.9807989502
 30
0.0
 10
-43.648503981
 20
-6.0224158521
 30
0.0
 10
-43.6485212747
 20
-6.0434669449
 30
0.0
 11
-42.5819171334
 21
-5.2482120025
 31
0.0
 11
-42.7346479452
 21
-5.2562054363
 31
0.0
 11
-42.8727028892
 21
-5.2777691189
 31
0.0
 11
-42.997794325
 21
-5.310179375
 31
0.0
 11
-43.1102085276
 21
-5.3512648258
 31
0.0
 11
-43.2096077848
 21
-5.3988582613
 31
0.0
 11
-43.2963688013
 21
-5.4511414873
 31
0.0
 11
-43.3713701158
 21
-5.5067706393
 31
0.0
 11
-43.4356269854
 21
-5.5648032465
 31
0.0
 11
-43.4899110577
 21
-5.6243655355
 31
0.0
 11
-43.534521261
 21
-5.6840776997
 31
0.0
 11
-43.5702050189
 21
-5.7429310022
 31
0.0
 11
-43.5984003915
 21
-5.8014085679
 31
0.0
 11
-43.6200408141
 21
-5.8601146698
 31
0.0
 11
-43.6355825589
 21
-5.9195495876
 31
0.0
 11
-43.6451620747
 21
-5.9804030482
 31
0.0
 11
-43.6485212747
 21
-6.0434669449
 31
0.0
  0
SPLINE
  5
47D
100
AcDbEntity
  8
RACCORDO
100
AcDbSpline
 62
253
  6
CONTINUOUS
 70
0
 71
3
 72
12
 73
8
 74
6
 42
0.0000001
 43
0.0000001
 44
0.0000000001
 12
-16.3837239583
 22
0.0799673274
 32
0.0
 13
-16.3839059122
 23
0.0207984779
 33
0.0
 40
0.0
 40
0.0
 40
0.0
 40
0.0
 40
0.189848343
 40
0.3884679266
 40
0.5923196501
 40
0.7975905084
 40
1.0
 40
1.0
 40
1.0
 40
1.0
 10
-26.1980782613
 20
-5.2967391903
 30
0.0
 10
-27.2348858765
 20
-5.2916786354
 30
0.0
 10
-29.356407476
 20
-5.2822305262
 30
0.0
 10
-32.5912250413
 20
-5.2703530248
 30
0.0
 10
-35.9102772071
 20
-5.2606143753
 30
0.0
 10
-39.2500330926
 20
-5.2531388165
 30
0.0
 10
-41.4764977741
 20
-5.2496152723
 30
0.0
 10
-42.5819171293
 20
-5.2482120026
 30
0.0
 11
-26.1980782613
 21
-5.2967391903
 31
0.0
 11
-29.3085071019
 21
-5.2828399321
 31
0.0
 11
-32.5626522155
 21
-5.2708527824
 31
0.0
 11
-35.902527899
 21
-5.2610230906
 31
0.0
 11
-39.2656605663
 21
-5.253473997
 31
0.0
 11
-42.5819171293
 21
-5.2482120026
 31
0.0
  0
SPLINE
  5
47E
100
AcDbEntity
  8
RACCORDO
100
AcDbSpline
 62
253
  6
CONTINUOUS
 70
0
 71
3
 72
23
 73
19
 74
17
 42
0.0000001
 43
0.0000001
 44
0.0000000001
 12
-1.2642518414
 22
0.0015966387
 32
0.0
 13
-0.000008117
 23
-1.2642528495
 33
0.0
 40
0.0
 40
0.0
 40
0.0
 40
0.0
 40
0.1077028913
 40
0.2059064772
 40
0.2963893475
 40
0.3797766318
 40
0.4560877118
 40
0.5257306892
 40
0.5894240758
 40
0.6479804978
 40
0.7020040304
 40
0.7515353901
 40
0.7968931582
 40
0.83935622
 40
0.8800156694
 40
0.9197295498
 40
0.9594058541
 40
1.0
 40
1.0
 40
1.0
 40
1.0
 10
-42.6035083679
 20
-5.398206291
 30
0.0
 10
-42.6488962274
 20
-5.3981489701
 30
0.0
 10
-42.7357364707
 20
-5.4021699945
 30
0.0
 10
-42.8595830453
 20
-5.4196014527
 30
0.0
 10
-42.9713671829
 20
-5.4457991526
 30
0.0
 10
-43.0715835148
 20
-5.4789981181
 30
0.0
 10
-43.1603449058
 20
-5.5175708781
 30
0.0
 10
-43.2379484048
 20
-5.5600572092
 30
0.0
 10
-43.3050913813
 20
-5.6053372222
 30
0.0
 10
-43.3625734744
 20
-5.6525693148
 30
0.0
 10
-43.4109862357
 20
-5.7009263927
 30
0.0
 10
-43.4508482092
 20
-5.7495289915
 30
0.0
 10
-43.4829591159
 20
-5.797803543
 30
0.0
 10
-43.5083060615
 20
-5.8457525174
 30
0.0
 10
-43.5277257327
 20
-5.8938364165
 30
0.0
 10
-43.5416724186
 20
-5.9425678191
 30
0.0
 10
-43.5502577401
 20
-5.9924954374
 30
0.0
 10
-43.5522065499
 20
-6.0263551356
 30
0.0
 10
-43.5522066597
 20
-6.0434622238
 30
0.0
 11
-42.6035083679
 21
-5.398206291
 31
0.0
 11
-42.7395233324
 21
-5.4045686145
 31
0.0
 11
-42.8624518241
 21
-5.4219709765
 31
0.0
 11
-42.9737981867
 21
-5.4481968759
 31
0.0
 11
-43.0738281921
 21
-5.4814823852
 31
0.0
 11
-43.1622527317
 21
-5.5200675626
 31
0.0
 11
-43.2394136258
 21
-5.5624745562
 31
0.0
 11
-43.3060989287
 21
-5.6076107147
 31
0.0
 11
-43.363215363
 21
-5.6547081891
 31
0.0
 11
-43.4114554353
 21
-5.7030579993
 31
0.0
 11
-43.4510888964
 21
-5.7515396818
 31
0.0
 11
-43.4827807348
 21
-5.799330119
 31
0.0
 11
-43.5078117873
 21
-5.846821416
 31
0.0
 11
-43.5270129841
 21
-5.8945044029
 31
0.0
 11
-43.5407903352
 21
-5.9427855241
 31
0.0
 11
-43.5492649276
 21
-5.9922253385
 31
0.0
 11
-43.5522066597
 21
-6.0434622238
 31
0.0
  0
SPLINE
  5
47F
100
AcDbEntity
  8
RACCORDO
100
AcDbSpline
 62
253
  6
CONTINUOUS
 70
0
 71
3
 72
12
 73
8
 74
6
 42
0.0000001
 43
0.0000001
 44
0.0000000001
 12
-16.3320938884
 22
0.0799675505
 32
0.0
 13
-16.3322764189
 23
0.0207981822
 33
0.0
 40
0.0
 40
0.0
 40
0.0
 40
0.0
 40
0.1898316353
 40
0.3884246205
 40
0.5922540197
 40
0.7975092152
 40
1.0
 40
1.0
 40
1.0
 40
1.0
 10
-26.2712992054
 20
-5.4467334787
 30
0.0
 10
-27.3047485692
 20
-5.4416733551
 30
0.0
 10
-29.4193488808
 20
-5.4322262376
 30
0.0
 10
-32.643615368
 20
-5.4203496718
 30
0.0
 10
-35.9518567472
 20
-5.4106114077
 30
0.0
 10
-39.2813240117
 20
-5.4031345259
 30
0.0
 10
-41.5011298778
 20
-5.3996101044
 30
0.0
 10
-42.6035083679
 20
-5.398206291
 30
0.0
 11
-26.2712992054
 21
-5.4467334787
 31
0.0
 11
-29.3716533099
 21
-5.4328353339
 31
0.0
 11
-32.6151093225
 21
-5.4208494189
 31
0.0
 11
-35.9440956001
 21
-5.4110201593
 31
0.0
 11
-39.2963744063
 21
-5.4034708274
 31
0.0
 11
-42.6035083679
 21
-5.398206291
 31
0.0
  0
SPLINE
  5
480
100
AcDbEntity
  8
RACCORDO
100
AcDbSpline
 62
253
  6
CONTINUOUS
 70
0
 71
3
 72
13
 73
9
 74
7
 42
0.0000001
 43
0.0000001
 44
0.0000000001
 12
-0.0000967277
 22
1.0155904117
 32
0.0
 13
-1.0155770955
 23
0.0052016219
 33
0.0
 40
0.0
 40
0.0
 40
0.0
 40
0.0
 40
0.1573274133
 40
0.317989854
 40
0.4829282026
 40
0.6529084192
 40
0.8266055792
 40
1.0
 40
1.0
 40
1.0
 40
1.0
 10
-25.626577064
 20
-6.0999237273
 30
0.0
 10
-25.6265821367
 20
-6.0466636565
 30
0.0
 10
-25.6398319216
 20
-5.9385618115
 30
0.0
 10
-25.6993478143
 20
-5.7845515236
 30
0.0
 10
-25.798062364
 20
-5.6465985654
 30
0.0
 10
-25.9326674531
 20
-5.5359537354
 30
0.0
 10
-26.0945457794
 20
-5.4639670116
 30
0.0
 10
-26.212600738
 20
-5.4470341228
 30
0.0
 10
-26.2712992054
 20
-5.4467334787
 30
0.0
 11
-25.626577064
 21
-6.0999237273
 31
0.0
 11
-25.646042442
 21
-5.9413336406
 31
0.0
 11
-25.704841879
 21
-5.7891292623
 31
0.0
 11
-25.8023752686
 21
-5.6529427245
 31
0.0
 11
-25.9357542708
 21
-5.5433468533
 31
0.0
 11
-26.0969926293
 21
-5.4717858576
 31
0.0
 11
-26.2712992054
 21
-5.4467334787
 31
0.0
  0
SPLINE
  5
481
100
AcDbEntity
  8
RACCORDO
100
AcDbSpline
 62
253
  6
CONTINUOUS
 70
0
 71
3
 72
13
 73
9
 74
7
 42
0.0000001
 43
0.0000001
 44
0.0000000001
 12
1.0155793151
 22
0.0050765048
 32
0.0
 13
0.0004765144
 23
1.015591891
 33
0.0
 40
0.0
 40
0.0
 40
0.0
 40
0.0
 40
0.1733686056
 40
0.3469255048
 40
0.516983771
 40
0.6822762634
 40
0.8435367266
 40
1.0
 40
1.0
 40
1.0
 40
1.0
 10
-26.2712992054
 20
-14.5505274693
 30
0.0
 10
-26.2126093488
 20
-14.5502341004
 30
0.0
 10
-26.0946090193
 20
-14.5333073496
 30
0.0
 10
-25.9327557149
 20
-14.4613511155
 30
0.0
 10
-25.7980485719
 20
-14.3506696927
 30
0.0
 10
-25.699137002
 20
-14.2124176697
 30
0.0
 10
-25.6397266831
 20
-14.0583098892
 30
0.0
 10
-25.6266019164
 20
-13.9503048313
 30
0.0
 10
-25.626577064
 20
-13.8973372207
 30
0.0
 11
-26.2712992054
 21
-14.5505274693
 31
0.0
 11
-26.0970174069
 21
-14.5254850512
 31
0.0
 11
-25.9359009271
 21
-14.4539999153
 31
0.0
 11
-25.8024378385
 21
-14.3443811018
 31
0.0
 11
-25.7047071952
 21
-14.2078931216
 31
0.0
 11
-25.6458227574
 21
-14.0550702825
 31
0.0
 11
-25.626577064
 21
-13.8973372207
 31
0.0
  0
SPLINE
  5
482
100
AcDbEntity
  8
RACCORDO
100
AcDbSpline
 62
253
  6
CONTINUOUS
 70
0
 71
3
 72
12
 73
8
 74
6
 42
0.0000001
 43
0.0000001
 44
0.0000000001
 12
16.3322764189
 22
0.0207981903
 32
0.0
 13
16.3320938888
 23
0.0799674573
 33
0.0
 40
0.0
 40
0.0
 40
0.0
 40
0.0
 40
0.2024324193
 40
0.4076772816
 40
0.6115257394
 40
0.8101523452
 40
1.0
 40
1.0
 40
1.0
 40
1.0
 10
-42.6035083679
 20
-14.5990546571
 30
0.0
 10
-41.501447625
 20
-14.5976512477
 30
0.0
 10
-39.2820157607
 20
-14.5941276213
 30
0.0
 10
-35.9528187392
 20
-14.5866520451
 30
0.0
 10
-32.644346823
 20
-14.5769137943
 30
0.0
 10
-29.4197063342
 20
-14.5650362743
 30
0.0
 10
-27.3048357798
 20
-14.555588014
 30
0.0
 10
-26.2712992054
 20
-14.5505274693
 30
0.0
 11
-42.6035083679
 21
-14.5990546571
 31
0.0
 11
-39.2973276472
 21
-14.5937919457
 31
0.0
 11
-35.9452176038
 21
-14.5862437017
 31
0.0
 11
-32.6159200535
 21
-14.5764142194
 31
0.0
 11
-29.3719149425
 21
-14.5644266842
 31
0.0
 11
-26.2712992054
 21
-14.5505274693
 31
0.0
  0
SPLINE
  5
483
100
AcDbEntity
  8
RACCORDO
100
AcDbSpline
 62
253
  6
CONTINUOUS
 70
0
 71
3
 72
13
 73
9
 74
7
 42
0.0000001
 43
0.0000001
 44
0.0000000001
 12
0.001639188
 22
-1.2612748542
 32
0.0
 13
1.2612747884
 23
0.0016890337
 33
0.0
 40
0.0
 40
0.0
 40
0.0
 40
0.0
 40
0.1230833576
 40
0.2587063472
 40
0.4129511386
 40
0.5867942247
 40
0.7818762586
 40
1.0
 40
1.0
 40
1.0
 40
1.0
 10
-43.5522066597
 20
-13.9537987242
 30
0.0
 10
-43.5521394075
 20
-14.0055460389
 30
0.0
 10
-43.5326673967
 20
-14.1151111415
 30
0.0
 10
-43.4452678596
 20
-14.2684758202
 30
0.0
 10
-43.3015401566
 20
-14.4038023349
 30
0.0
 10
-43.1074348596
 20
-14.5112910861
 30
0.0
 10
-42.8695145601
 20
-14.58277086
 30
0.0
 10
-42.6952130265
 20
-14.5991774632
 30
0.0
 10
-42.6035083679
 20
-14.5990546571
 30
0.0
 11
-43.5522066597
 21
-13.9537987242
 31
0.0
 11
-43.5256250149
 21
-14.1067481212
 31
0.0
 11
-43.4429711421
 21
-14.2565118696
 31
0.0
 11
-43.3031863966
 21
-14.391819208
 31
0.0
 11
-43.112508045
 21
-14.5000712794
 31
0.0
 11
-42.8773290773
 21
-14.5724078092
 31
0.0
 11
-42.6035083679
 21
-14.5990546571
 31
0.0
  0
SPLINE
  5
484
100
AcDbEntity
  8
RACCORDO
100
AcDbSpline
 62
253
  6
CONTINUOUS
 70
0
 71
3
 72
12
 73
8
 74
6
 42
0.0000001
 43
0.0000001
 44
0.0000000001
 12
16.3839941106
 22
0.0207986014
 32
0.0
 13
16.3838121565
 23
0.0799676172
 33
0.0
 40
0.0
 40
0.0
 40
0.0
 40
0.0
 40
0.2023557586
 40
0.4076162784
 40
0.61148739
 40
0.8101415455
 40
1.0
 40
1.0
 40
1.0
 40
1.0
 10
-42.5820053295
 20
-14.7490490854
 30
0.0
 10
-41.4768734771
 20
-14.7476461798
 30
0.0
 10
-39.2507467258
 20
-14.7441233759
 30
0.0
 10
-35.9112168905
 20
-14.7366490181
 30
0.0
 10
-32.5919086252
 20
-14.7269102821
 30
0.0
 10
-29.3567237305
 20
-14.715031811
 30
0.0
 10
-27.2349466815
 20
-14.7055826005
 30
0.0
 10
-26.198078263
 20
-14.7005217578
 30
0.0
 11
-42.5820053295
 21
-14.7490490854
 31
0.0
 11
-39.2666112741
 21
-14.7437887653
 31
0.0
 11
-35.9036298881
 21
-14.7362407092
 31
0.0
 11
-32.5634185685
 21
-14.7264107006
 31
0.0
 11
-29.3086895139
 21
-14.7144217604
 31
0.0
 11
-26.198078263
 21
-14.7005217578
 31
0.0
  0
SPLINE
  5
485
100
AcDbEntity
  8
RACCORDO
100
AcDbSpline
 62
253
  6
CONTINUOUS
 70
0
 71
3
 72
10
 73
6
 74
4
 42
0.0000001
 43
0.0000001
 44
0.0000000001
 12
1.0214415981
 22
1.0252517792
 32
0.0
 13
1.4566968396
 23
0.0382001028
 33
0.0
 40
0.0
 40
0.0
 40
0.0
 40
0.0
 40
0.1449153566
 40
0.4887746412
 40
1.0
 40
1.0
 40
1.0
 40
1.0
 10
-10.4995523085
 20
-46.7036056181
 30
0.0
 10
-10.4502114507
 20
-46.6540807091
 30
0.0
 10
-10.1838081204
 20
-46.6569115386
 30
0.0
 10
-9.7297384732
 20
-46.5866603953
 30
0.0
 10
-9.3098529867
 20
-46.5774851807
 30
0.0
 10
-9.0616195319
 20
-46.5709755603
 30
0.0
 11
-10.4995523085
 21
-46.7036056181
 31
0.0
 11
-10.2961499
 21
-46.6524920974
 31
0.0
 11
-9.8006213853
 21
-46.6066484797
 31
0.0
 11
-9.0616195319
 21
-46.5709755603
 31
0.0
  0
SPLINE
  5
486
100
AcDbEntity
  8
RACCORDO
100
AcDbSpline
 62
253
  6
CONTINUOUS
 70
0
 71
3
 72
8
 73
4
 74
2
 42
0.0000001
 43
0.0000001
 44
0.0000000001
 12
0.9081045592
 22
0.0238139375
 32
0.0
 13
0.9021011959
 23
0.0136838404
 33
0.0
 40
0.0
 40
0.0
 40
0.0
 40
0.0
 40
1.0
 40
1.0
 40
1.0
 40
1.0
 10
-9.0616195319
 20
-46.5709755603
 30
0.0
 10
-8.7589180121
 20
-46.5630375811
 30
0.0
 10
-8.4603822542
 20
-46.553576805
 30
0.0
 10
-8.1596818556
 20
-46.5490155249
 30
0.0
 11
-9.0616195319
 21
-46.5709755603
 31
0.0
 11
-8.1596818556
 21
-46.5490155249
 31
0.0
  0
SPLINE
  5
487
100
AcDbEntity
  8
RACCORDO
100
AcDbSpline
 62
253
  6
CONTINUOUS
 70
0
 71
3
 72
8
 73
4
 74
2
 42
0.0000001
 43
0.0000001
 44
0.0000000001
 12
0.9029393901
 22
-0.013697302
 32
0.0
 13
0.9089540008
 23
-0.0238543259
 33
0.0
 40
0.0
 40
0.0
 40
0.0
 40
0.0
 40
1.0
 40
1.0
 40
1.0
 40
1.0
 10
8.1596818556
 20
-46.5490155249
 30
0.0
 10
8.4606616523
 20
-46.5535812922
 30
0.0
 10
8.7594727017
 20
-46.5630534277
 30
0.0
 10
9.0624573686
 20
-46.5710048697
 30
0.0
 11
8.1596818556
 21
-46.5490155249
 31
0.0
 11
9.0624573686
 21
-46.5710048697
 31
0.0
  0
SPLINE
  5
488
100
AcDbEntity
  8
RACCORDO
100
AcDbSpline
 62
253
  6
CONTINUOUS
 70
0
 71
3
 72
10
 73
6
 74
4
 42
0.0000001
 43
0.0000001
 44
0.0000000001
 12
1.4558638957
 22
-0.0382072711
 32
0.0
 13
1.0207099279
 23
-1.0247998667
 33
0.0
 40
0.0
 40
0.0
 40
0.0
 40
0.0
 40
0.5114911735
 40
0.8552325225
 40
1.0
 40
1.0
 40
1.0
 40
1.0
 10
9.0624573686
 20
-46.5710048697
 30
0.0
 10
9.3106778795
 20
-46.577519097
 30
0.0
 10
9.7303956697
 20
-46.5867045697
 30
0.0
 10
10.184199973
 20
-46.65692218
 30
0.0
 10
10.450297108
 20
-46.6541530542
 30
0.0
 10
10.4995523085
 20
-46.7036056181
 30
0.0
 11
9.0624573686
 21
-46.5710048697
 31
0.0
 11
9.8014148714
 21
-46.6067008873
 31
0.0
 11
10.2964837343
 21
-46.6525386835
 31
0.0
 11
10.4995523085
 21
-46.7036056181
 31
0.0
  0
SPLINE
  5
489
100
AcDbEntity
  8
RACCORDO
100
AcDbSpline
 62
253
  6
CONTINUOUS
 70
0
 71
3
 72
9
 73
5
 74
3
 42
0.0000001
 43
0.0000001
 44
0.0000000001
 12
0.2434397321
 22
-0.1613111709
 32
0.0
 13
0.2886506968
 23
-0.000776809
 33
0.0
 40
0.0
 40
0.0
 40
0.0
 40
0.0
 40
0.1152965573
 40
1.0
 40
1.0
 40
1.0
 40
1.0
 10
-10.7749775225
 20
-46.6200955811
 30
0.0
 10
-10.7656216015
 20
-46.626295122
 30
0.0
 10
-10.6826078243
 20
-46.6773292096
 30
0.0
 10
-10.5846757303
 20
-46.7033765362
 30
0.0
 10
-10.4995523085
 20
-46.7036056181
 30
0.0
 11
-10.7749775225
 21
-46.6200955811
 31
0.0
 11
-10.7462808825
 21
-46.6377310748
 31
0.0
 11
-10.4995523085
 21
-46.7036056181
 31
0.0
  0
SPLINE
  5
48A
100
AcDbEntity
  8
RACCORDO
100
AcDbSpline
 62
253
  6
CONTINUOUS
 70
0
 71
3
 72
8
 73
4
 74
2
 42
0.0000001
 43
0.0000001
 44
0.0000000001
 12
0.0209398473
 22
-0.0325237569
 32
0.0
 13
0.0281842608
 23
-0.020723651
 33
0.0
 40
0.0
 40
0.0
 40
0.0
 40
0.0
 40
1.0
 40
1.0
 40
1.0
 40
1.0
 10
-8.2076342966
 20
-46.5112681851
 30
0.0
 10
-8.2006543475
 20
-46.5221094374
 30
0.0
 10
-8.1926783004
 20
-46.5316897823
 30
0.0
 10
-8.1832835468
 20
-46.5385976659
 30
0.0
 11
-8.2076342966
 21
-46.5112681851
 31
0.0
 11
-8.1832835468
 21
-46.5385976659
 31
0.0
  0
SPLINE
  5
48B
100
AcDbEntity
  8
RACCORDO
100
AcDbSpline
 62
253
  6
CONTINUOUS
 70
0
 71
3
 72
8
 73
4
 74
2
 42
0.0000001
 43
0.0000001
 44
0.0000000001
 12
0.0210511949
 22
-0.0154787674
 32
0.0
 13
0.026328283
 23
-0.0047687736
 33
0.0
 40
0.0
 40
0.0
 40
0.0
 40
0.0
 40
1.0
 40
1.0
 40
1.0
 40
1.0
 10
-8.1832835468
 20
-46.5385976659
 30
0.0
 10
-8.1762664818
 20
-46.5437572551
 30
0.0
 10
-8.1684579499
 20
-46.5474259336
 30
0.0
 10
-8.1596818556
 20
-46.5490155248
 30
0.0
 11
-8.1832835468
 21
-46.5385976659
 31
0.0
 11
-8.1596818556
 21
-46.5490155248
 31
0.0
  0
SPLINE
  5
48C
100
AcDbEntity
  8
RACCORDO
100
AcDbSpline
 62
253
  6
CONTINUOUS
 70
0
 71
3
 72
8
 73
4
 74
2
 42
0.0000001
 43
0.0000001
 44
0.0000000001
 12
-0.0209180964
 22
-0.0324943073
 32
0.0
 13
-0.0281537154
 23
-0.0207230084
 33
0.0
 40
0.0
 40
0.0
 40
0.0
 40
0.0
 40
1.0
 40
1.0
 40
1.0
 40
1.0
 10
8.2076045417
 20
-46.5112676322
 30
0.0
 10
8.2006318429
 20
-46.522099068
 30
0.0
 10
8.1926642828
 20
-46.5316717356
 30
0.0
 10
8.183279711
 20
-46.5385794051
 30
0.0
 11
8.2076045417
 21
-46.5112676322
 31
0.0
 11
8.183279711
 21
-46.5385794051
 31
0.0
  0
SPLINE
  5
48D
100
AcDbEntity
  8
RACCORDO
100
AcDbSpline
 62
253
  6
CONTINUOUS
 70
0
 71
3
 72
8
 73
4
 74
2
 42
0.0000001
 43
0.0000001
 44
0.0000000001
 12
-0.0210459744
 22
-0.0154912379
 32
0.0
 13
-0.0263260831
 23
-0.0047935304
 33
0.0
 40
0.0
 40
0.0
 40
0.0
 40
0.0
 40
1.0
 40
1.0
 40
1.0
 40
1.0
 10
8.183279711
 20
-46.5385794051
 30
0.0
 10
8.1762643862
 20
-46.5437431511
 30
0.0
 10
8.1684572166
 20
-46.5474176609
 30
0.0
 10
8.1596818556
 20
-46.5490155044
 30
0.0
 11
8.183279711
 21
-46.5385794051
 31
0.0
 11
8.1596818556
 21
-46.5490155044
 31
0.0
  0
SPLINE
  5
48E
100
AcDbEntity
  8
RACCORDO
100
AcDbSpline
 62
253
  6
CONTINUOUS
 70
0
 71
3
 72
9
 73
5
 74
3
 42
0.0000001
 43
0.0000001
 44
0.0000000001
 12
-0.2434401069
 22
-0.1613114094
 32
0.0
 13
-0.2886505985
 23
-0.0007768086
 33
0.0
 40
0.0
 40
0.0
 40
0.0
 40
0.0
 40
0.1151856103
 40
1.0
 40
1.0
 40
1.0
 40
1.0
 10
10.7749780767
 20
-46.6200952115
 30
0.0
 10
10.7656311443
 20
-46.6262887959
 30
0.0
 10
10.6826189595
 20
-46.6773255772
 30
0.0
 10
10.5846863763
 20
-46.7033765077
 30
0.0
 10
10.4995523085
 20
-46.7036056181
 30
0.0
 11
10.7749780767
 21
-46.6200952115
 31
0.0
 11
10.7463095662
 21
-46.6377146961
 31
0.0
 11
10.4995523085
 21
-46.7036056181
 31
0.0
  0
LINE
  5
48F
100
AcDbEntity
  8
DRAFT
100
AcDbLine
 62
7
  6
CONTINUOUS
 10
39.8516206185
 20
-14.9948923456
 11
38.1550072258
 21
-14.9982060153
  0
LINE
  5
490
100
AcDbEntity
  8
DRAFT
100
AcDbLine
 62
7
  6
CONTINUOUS
 10
41.050784578
 20
-14.9786411167
 11
41.845378606
 21
-14.9774311177
  0
LINE
  5
491
100
AcDbEntity
  8
DRAFT
100
AcDbLine
 62
7
  6
CONTINUOUS
 10
41.845378606
 20
-14.9774311177
 11
42.4673337066
 21
-14.9765451099
  0
LINE
  5
492
100
AcDbEntity
  8
RACCORDO
100
AcDbLine
 62
7
  6
CONTINUOUS
 10
43.2034698508
 20
-15.0020622479
 11
42.9001681211
 21
-15.0024752225
  0
LINE
  5
493
100
AcDbEntity
  8
RACCORDO
100
AcDbLine
 62
7
  6
CONTINUOUS
 10
42.9001681211
 20
-15.0024752225
 11
42.4673726843
 21
-15.0030870371
  0
SPLINE
  5
494
100
AcDbEntity
  8
RACCORDO
100
AcDbSpline
 62
7
  6
CONTINUOUS
 70
0
 71
3
 72
8
 73
4
 74
2
 42
0.0000001
 43
0.0000001
 44
0.0000000001
 12
-2.6157313069
 22
-0.0037791758
 32
0.0
 13
-2.6157295538
 23
-0.0048682694
 33
0.0
 40
0.0
 40
0.0
 40
0.0
 40
0.0
 40
1.0
 40
1.0
 40
1.0
 40
1.0
 10
42.4673726843
 20
-15.0030870371
 30
0.0
 10
41.5954622486
 20
-15.0043467624
 30
0.0
 10
40.7235520346
 20
-15.0057723757
 30
0.0
 10
39.8516421833
 20
-15.0073951322
 30
0.0
 11
42.4673726843
 21
-15.0030870371
 31
0.0
 11
39.8516421833
 21
-15.0073951322
 31
0.0
  0
LINE
  5
495
100
AcDbEntity
  8
RACCORDO
100
AcDbLine
 62
7
  6
CONTINUOUS
 10
39.8516421833
 20
-15.0073951322
 11
38.2464276928
 21
-15.0106126365
  0
LINE
  5
496
100
AcDbEntity
  8
RACCORDO
100
AcDbLine
 62
7
  6
CONTINUOUS
 10
38.2464276928
 20
-15.0106126365
 11
38.0967395339
 21
-15.0109369245
  0
LINE
  5
497
100
AcDbEntity
  8
RACCORDO
100
AcDbLine
 62
7
  6
CONTINUOUS
 10
38.0967395339
 20
-15.0109369245
 11
36.8395572469
 21
-15.0138359521
  0
LINE
  5
498
100
AcDbEntity
  8
RACCORDO
100
AcDbLine
 62
7
  6
CONTINUOUS
 10
36.8395572469
 20
-15.0138359521
 11
36.7194092814
 21
-15.0141301289
  0
LINE
  5
499
100
AcDbEntity
  8
RACCORDO
100
AcDbLine
 62
7
  6
CONTINUOUS
 10
36.7194092814
 20
-15.0141301289
 11
35.2541373764
 21
-15.0179765045
  0
LINE
  5
49A
100
AcDbEntity
  8
RACCORDO
100
AcDbLine
 62
7
  6
CONTINUOUS
 10
27.4338410597
 20
-15.048610209
 11
26.3080100058
 21
-15.054731977
  0
LINE
  5
49B
100
AcDbEntity
  8
RACCORDO
100
AcDbLine
 62
7
  6
CONTINUOUS
 10
26.3080100058
 20
-15.054731977
 11
26.2000059273
 21
-15.0553449814
  0
LINE
  5
49C
100
AcDbEntity
  8
RACCORDO
100
AcDbLine
 62
7
  6
CONTINUOUS
 10
-26.2
 20
-15.0553449892
 11
-26.3080003571
 21
-15.0547326701
  0
LINE
  5
49D
100
AcDbEntity
  8
RACCORDO
100
AcDbLine
 62
7
  6
CONTINUOUS
 10
-26.3080003571
 20
-15.0547326701
 11
-27.3661634379
 21
-15.0489682541
  0
SPLINE
  5
49E
100
AcDbEntity
  8
RACCORDO
100
AcDbSpline
 62
7
  6
CONTINUOUS
 70
0
 71
3
 72
10
 73
6
 74
4
 42
0.0000001
 43
0.0000001
 44
0.0000000001
 12
-7.7753337699
 22
0.0408085423
 32
0.0
 13
-7.7754096896
 23
0.0219402
 33
0.0
 40
0.0
 40
0.0
 40
0.0
 40
0.0
 40
0.3133903737
 40
0.8170393305
 40
1.0
 40
1.0
 40
1.0
 40
1.0
 10
-27.3661634379
 20
-15.0489682541
 30
0.0
 10
-28.1784016897
 20
-15.0447052527
 30
0.0
 10
-30.2959913465
 20
-15.0345516101
 30
0.0
 10
-32.8877876406
 20
-15.0249582663
 30
0.0
 10
-34.6673438201
 20
-15.0196312154
 30
0.0
 10
-35.1415418744
 20
-15.0182931508
 30
0.0
 11
-27.3661634379
 21
-15.0489682541
 31
0.0
 11
-29.8028835995
 21
-15.0372566898
 31
0.0
 11
-33.7189484505
 21
-15.0225596666
 31
0.0
 11
-35.1415418744
 21
-15.0182931508
 31
0.0
  0
LINE
  5
49F
100
AcDbEntity
  8
RACCORDO
100
AcDbLine
 62
7
  6
CONTINUOUS
 10
-35.1415418744
 20
-15.0182931508
 11
-36.6236147436
 21
-15.0143672088
  0
LINE
  5
4A0
100
AcDbEntity
  8
RACCORDO
100
AcDbLine
 62
7
  6
CONTINUOUS
 10
-36.6236147436
 20
-15.0143672088
 11
-38.1550364941
 21
-15.0108098247
  0
LINE
  5
4A1
100
AcDbEntity
  8
RACCORDO
100
AcDbLine
 62
7
  6
CONTINUOUS
 10
-38.1550364941
 20
-15.0108098247
 11
-39.7834015688
 21
-15.0075216987
  0
LINE
  5
4A2
100
AcDbEntity
  8
RACCORDO
100
AcDbLine
 62
7
  6
CONTINUOUS
 10
-39.7834015688
 20
-15.0075216987
 11
-39.9167268733
 21
-15.0072735084
  0
SPLINE
  5
4A3
100
AcDbEntity
  8
RACCORDO
100
AcDbSpline
 62
7
  6
CONTINUOUS
 70
0
 71
3
 72
8
 73
4
 74
2
 42
0.0000001
 43
0.0000001
 44
0.0000000001
 12
-2.5506439438
 22
0.004718724
 32
0.0
 13
-2.5506456018
 23
0.0036840153
 33
0.0
 40
0.0
 40
0.0
 40
0.0
 40
0.0
 40
1.0
 40
1.0
 40
1.0
 40
1.0
 10
-39.9167268733
 20
-15.0072735084
 30
0.0
 10
-40.7669415213
 20
-15.0057006004
 30
0.0
 10
-41.6171565118
 20
-15.0043146713
 30
0.0
 10
-42.4673717124
 20
-15.0030866662
 30
0.0
 11
-39.9167268733
 21
-15.0072735084
 31
0.0
 11
-42.4673717124
 21
-15.0030866662
 31
0.0
  0
LINE
  5
4A4
100
AcDbEntity
  8
RACCORDO
100
AcDbLine
 62
7
  6
CONTINUOUS
 10
-42.4673717124
 20
-15.0030866662
 11
-42.9001681326
 21
-15.0024750571
  0
LINE
  5
4A5
100
AcDbEntity
  8
RACCORDO
100
AcDbLine
 62
7
  6
CONTINUOUS
 10
-42.9001681326
 20
-15.0024750571
 11
-43.2034698487
 21
-15.0020622458
  0
LINE
  5
4A6
100
AcDbEntity
  8
DRAFT
100
AcDbLine
 62
7
  6
CONTINUOUS
 10
-42.4673326551
 20
-14.9765450562
 11
-41.845365589
 21
-14.9774311025
  0
LINE
  5
4A7
100
AcDbEntity
  8
DRAFT
100
AcDbLine
 62
7
  6
CONTINUOUS
 10
-41.845365589
 20
-14.9774311025
 11
-41.0507845503
 21
-14.9786411028
  0
LINE
  5
4A8
100
AcDbEntity
  8
DRAFT
100
AcDbLine
 62
7
  6
CONTINUOUS
 10
-38.1550072198
 20
-14.9982060124
 11
-39.8516206186
 21
-14.9948923455
  0
LINE
  5
4A9
100
AcDbEntity
  8
RACCORDO
100
AcDbLine
 62
7
  6
CONTINUOUS
 10
26.1999688638
 20
-4.9464599728
 11
26.2994472162
 21
-4.9469590357
  0
LINE
  5
4AA
100
AcDbEntity
  8
RACCORDO
100
AcDbLine
 62
7
  6
CONTINUOUS
 10
35.4566396593
 20
-4.9809273327
 11
36.3257079743
 21
-4.9830491692
  0
LINE
  5
4AB
100
AcDbEntity
  8
RACCORDO
100
AcDbLine
 62
7
  6
CONTINUOUS
 10
36.3257079743
 20
-4.9830491692
 11
36.8395560912
 21
-4.9842340051
  0
LINE
  5
4AC
100
AcDbEntity
  8
RACCORDO
100
AcDbLine
 62
7
  6
CONTINUOUS
 10
36.8395560912
 20
-4.9842340051
 11
37.3136739041
 21
-4.9852840268
  0
LINE
  5
4AD
100
AcDbEntity
  8
RACCORDO
100
AcDbLine
 62
7
  6
CONTINUOUS
 10
37.3136739041
 20
-4.9852840268
 11
38.1539729538
 21
-4.9870484634
  0
LINE
  5
4AE
100
AcDbEntity
  8
RACCORDO
100
AcDbLine
 62
7
  6
CONTINUOUS
 10
38.1539729538
 20
-4.9870484634
 11
39.2332857414
 21
-4.9891408898
  0
SPLINE
  5
4AF
100
AcDbEntity
  8
RACCORDO
100
AcDbSpline
 62
7
  6
CONTINUOUS
 70
0
 71
3
 72
8
 73
4
 74
2
 42
0.0000001
 43
0.0000001
 44
0.0000000001
 12
3.2317438134
 22
-0.0059814324
 32
0.0
 13
3.2317462041
 23
-0.0044463078
 33
0.0
 40
0.0
 40
0.0
 40
0.0
 40
0.0
 40
1.0
 40
1.0
 40
1.0
 40
1.0
 10
39.2332857414
 20
-4.9891408898
 30
0.0
 10
40.3105336792
 20
-4.9911347006
 30
0.0
 10
41.3877821192
 20
-4.9928502147
 30
0.0
 10
42.4650308539
 20
-4.9943323173
 30
0.0
 11
39.2332857414
 21
-4.9891408898
 31
0.0
 11
42.4650308539
 21
-4.9943323173
 31
0.0
  0
LINE
  5
4B0
100
AcDbEntity
  8
RACCORDO
100
AcDbLine
 62
7
  6
CONTINUOUS
 10
42.4650308539
 20
-4.9943323173
 11
42.9001676121
 21
-4.994918403
  0
LINE
  5
4B1
100
AcDbEntity
  8
RACCORDO
100
AcDbLine
 62
7
  6
CONTINUOUS
 10
42.9001676121
 20
-4.994918403
 11
43.2033564419
 21
-4.995312109
  0
LINE
  5
4B2
100
AcDbEntity
  8
DRAFT
100
AcDbLine
 62
7
  6
CONTINUOUS
 10
42.4649941751
 20
-5.020835259
 11
41.8439177434
 21
-5.0199868615
  0
LINE
  5
4B3
100
AcDbEntity
  8
DRAFT
100
AcDbLine
 62
7
  6
CONTINUOUS
 10
41.8439177434
 20
-5.0199868615
 11
41.0503593227
 21
-5.0188324428
  0
LINE
  5
4B4
100
AcDbEntity
  8
DRAFT
100
AcDbLine
 62
7
  6
CONTINUOUS
 10
38.1539474314
 20
-4.9995847895
 11
39.8523071279
 21
-5.002711831
  0
LINE
  5
4B5
100
AcDbEntity
  8
DRAFT
100
AcDbLine
 62
7
  6
CONTINUOUS
 10
-39.8523071312
 20
-5.0027118326
 11
-38.1539474212
 21
-4.9995847946
  0
LINE
  5
4B6
100
AcDbEntity
  8
DRAFT
100
AcDbLine
 62
7
  6
CONTINUOUS
 10
-41.0503593003
 20
-5.018832454
 11
-41.8439281208
 21
-5.0199869036
  0
LINE
  5
4B7
100
AcDbEntity
  8
DRAFT
100
AcDbLine
 62
7
  6
CONTINUOUS
 10
-41.8439281208
 20
-5.0199869036
 11
-42.4649933253
 21
-5.0208353024
  0
LINE
  5
4B8
100
AcDbEntity
  8
RACCORDO
100
AcDbLine
 62
7
  6
CONTINUOUS
 10
-43.2033564394
 20
-4.9953121116
 11
-42.9001675862
 21
-4.9949185241
  0
LINE
  5
4B9
100
AcDbEntity
  8
RACCORDO
100
AcDbLine
 62
7
  6
CONTINUOUS
 10
-42.9001675862
 20
-4.9949185241
 11
-42.4650298211
 21
-4.994332829
  0
SPLINE
  5
4BA
100
AcDbEntity
  8
RACCORDO
100
AcDbSpline
 62
7
  6
CONTINUOUS
 70
0
 71
3
 72
8
 73
4
 74
2
 42
0.0000001
 43
0.0000001
 44
0.0000000001
 12
3.3228068363
 22
0.0045677491
 32
0.0
 13
3.3228042854
 23
0.0061981956
 33
0.0
 40
0.0
 40
0.0
 40
0.0
 40
0.0
 40
1.0
 40
1.0
 40
1.0
 40
1.0
 10
-42.4650298211
 20
-4.994332829
 30
0.0
 10
-41.3574275424
 20
-4.9928102459
 30
0.0
 10
-40.2498255693
 20
-4.9910428538
 30
0.0
 10
-39.1422241408
 20
-4.9889767886
 30
0.0
 11
-42.4650298211
 21
-4.994332829
 31
0.0
 11
-39.1422241408
 21
-4.9889767886
 31
0.0
  0
LINE
  5
4BB
100
AcDbEntity
  8
RACCORDO
100
AcDbLine
 62
7
  6
CONTINUOUS
 10
-39.1422241408
 20
-4.9889767886
 11
-38.0967281868
 21
-4.9869361878
  0
LINE
  5
4BC
100
AcDbEntity
  8
RACCORDO
100
AcDbLine
 62
7
  6
CONTINUOUS
 10
-38.0967281868
 20
-4.9869361878
 11
-37.1694669891
 21
-4.9849697998
  0
LINE
  5
4BD
100
AcDbEntity
  8
RACCORDO
100
AcDbLine
 62
7
  6
CONTINUOUS
 10
-37.1694669891
 20
-4.9849697998
 11
-36.8395574936
 21
-4.9842332301
  0
LINE
  5
4BE
100
AcDbEntity
  8
RACCORDO
100
AcDbLine
 62
7
  6
CONTINUOUS
 10
-36.8395574936
 20
-4.9842332301
 11
-36.3257092089
 21
-4.9830455669
  0
LINE
  5
4BF
100
AcDbEntity
  8
RACCORDO
100
AcDbLine
 62
7
  6
CONTINUOUS
 10
-36.3257092089
 20
-4.9830455669
 11
-35.2331110487
 21
-4.9803467551
  0
LINE
  5
4C0
100
AcDbEntity
  8
RACCORDO
100
AcDbLine
 62
7
  6
CONTINUOUS
 10
-26.2994242946
 20
-4.9469615502
 11
-26.1999864723
 21
-4.946460079
  0
SPLINE
  5
4C1
100
AcDbEntity
  8
RACCORDO
100
AcDbSpline
 62
7
  6
CONTINUOUS
 70
0
 71
3
 72
8
 73
4
 74
2
 42
0.0000001
 43
0.0000001
 44
0.0000000001
 12
0.0574850431
 22
-0.0571748406
 32
0.0
 13
0.0551166615
 23
-0.0599085457
 33
0.0
 40
0.0
 40
0.0
 40
0.0
 40
0.0
 40
1.0
 40
1.0
 40
1.0
 40
1.0
 10
43.9
 20
-5.298630474
 30
0.0
 10
43.919161681
 20
-5.3176887542
 30
0.0
 10
43.9381077351
 20
-5.3371278156
 30
0.0
 10
43.9564799556
 20
-5.3570973308
 30
0.0
 11
43.9
 21
-5.298630474
 31
0.0
 11
43.9564799556
 21
-5.3570973308
 31
0.0
  0
SPLINE
  5
4C2
100
AcDbEntity
  8
RACCORDO
100
AcDbSpline
 62
7
  6
CONTINUOUS
 70
0
 71
3
 72
10
 73
6
 74
4
 42
0.0000001
 43
0.0000001
 44
0.0000000001
 12
0.4107362759
 22
-0.4464459982
 32
0.0
 13
0.0598729199
 23
-0.6021276619
 33
0.0
 40
0.0
 40
0.0
 40
0.0
 40
0.0
 40
0.2737910594
 40
0.7047561531
 40
1.0
 40
1.0
 40
1.0
 40
1.0
 10
43.9564799556
 20
-5.3570973308
 30
0.0
 10
43.9939652623
 20
-5.3978416385
 30
0.0
 10
44.0843059027
 20
-5.5084043162
 30
0.0
 10
44.161429907
 20
-5.6979980062
 30
0.0
 10
44.1895311722
 20
-5.8427775237
 30
0.0
 10
44.1954235426
 20
-5.9020356861
 30
0.0
 11
43.9564799556
 21
-5.3570973308
 31
0.0
 11
44.0587268842
 21
-5.4872262535
 31
0.0
 11
44.1620691126
 21
-5.7262285535
 31
0.0
 11
44.1954235426
 21
-5.9020356861
 31
0.0
  0
SPLINE
  5
4C3
100
AcDbEntity
  8
RACCORDO
100
AcDbSpline
 62
7
  6
CONTINUOUS
 70
0
 71
3
 72
10
 73
6
 74
4
 42
0.0000001
 43
0.0000001
 44
0.0000000001
 12
0.4311453298
 22
-0.015311719
 32
0.0
 13
0.3964041041
 23
-0.175852074
 33
0.0
 40
0.0
 40
0.0
 40
0.0
 40
0.0
 40
0.3937185451
 40
0.8358540982
 40
1.0
 40
1.0
 40
1.0
 40
1.0
 10
43.1981390797
 20
-5.0005294712
 30
0.0
 10
43.2547223837
 20
-5.0025389738
 30
0.0
 10
43.375304764
 20
-5.0102025677
 30
0.0
 10
43.514341555
 20
-5.0493558663
 30
0.0
 10
43.5958735168
 20
-5.0819719603
 30
0.0
 10
43.6175628865
 20
-5.0915937594
 30
0.0
 11
43.1981390797
 21
-5.0005294712
 31
0.0
 11
43.3673508714
 21
-5.0153195037
 31
0.0
 11
43.5515226855
 21
-5.0649616436
 31
0.0
 11
43.6175628865
 21
-5.0915937594
 31
0.0
  0
SPLINE
  5
4C4
100
AcDbEntity
  8
RACCORDO
100
AcDbSpline
 62
7
  6
CONTINUOUS
 70
0
 71
3
 72
9
 73
5
 74
3
 42
0.0000001
 43
0.0000001
 44
0.0000000001
 12
0.2617961813
 22
-0.1161375499
 32
0.0
 13
0.2072551964
 23
-0.1968833484
 33
0.0
 40
0.0
 40
0.0
 40
0.0
 40
0.0
 40
0.5161756778
 40
1.0
 40
1.0
 40
1.0
 40
1.0
 10
43.6175628865
 20
-5.0915937594
 30
0.0
 10
43.6626071603
 20
-5.1115762189
 30
0.0
 10
43.746657552
 20
-5.1569002583
 30
0.0
 10
43.8183541671
 20
-5.2197553537
 30
0.0
 10
43.851779202
 20
-5.2515076713
 30
0.0
 11
43.6175628865
 21
-5.0915937594
 31
0.0
 11
43.7460851888
 21
-5.1630374802
 31
0.0
 11
43.851779202
 21
-5.2515076713
 31
0.0
  0
SPLINE
  5
4C5
100
AcDbEntity
  8
RACCORDO
100
AcDbSpline
 62
7
  6
CONTINUOUS
 70
0
 71
3
 72
8
 73
4
 74
2
 42
0.0000001
 43
0.0000001
 44
0.0000000001
 12
0.0489342722
 22
-0.0464854128
 32
0.0
 13
0.0476965573
 23
-0.0474391758
 33
0.0
 40
0.0
 40
0.0
 40
0.0
 40
0.0
 40
1.0
 40
1.0
 40
1.0
 40
1.0
 10
43.851779202
 20
-5.2515076713
 30
0.0
 10
43.8680906261
 20
-5.2670028089
 30
0.0
 10
43.8841011476
 20
-5.2828174154
 30
0.0
 10
43.9
 20
-5.298630474
 30
0.0
 11
43.851779202
 21
-5.2515076713
 31
0.0
 11
43.9
 21
-5.298630474
 31
0.0
  0
SPLINE
  5
4C6
100
AcDbEntity
  8
RACCORDO
100
AcDbSpline
 62
7
  6
CONTINUOUS
 70
0
 71
3
 72
11
 73
7
 74
5
 42
0.0000001
 43
0.0000001
 44
0.0000000001
 12
-0.4771859194
 22
-0.3600834014
 32
0.0
 13
-0.5959718059
 23
-0.0339211416
 33
0.0
 40
0.0
 40
0.0
 40
0.0
 40
0.0
 40
0.1167667236
 40
0.484556914
 40
0.8068634146
 40
1.0
 40
1.0
 40
1.0
 40
1.0
 10
43.804904895
 20
-14.7930458553
 30
0.0
 10
43.7863317496
 20
-14.8070611083
 30
0.0
 10
43.7072109398
 20
-14.8625554089
 30
0.0
 10
43.5629691211
 20
-14.935590987
 30
0.0
 10
43.3923758277
 20
-14.9813170973
 30
0.0
 10
43.2902250395
 20
-14.9929041472
 30
0.0
 10
43.251857053
 20
-14.9950879517
 30
0.0
 11
43.804904895
 21
-14.7930458553
 31
0.0
 11
43.7477635917
 21
-14.8331311922
 31
0.0
 11
43.5520197975
 21
-14.9321131375
 31
0.0
 11
43.3664125496
 21
-14.9821010341
 31
0.0
 11
43.251857053
 21
-14.9950879517
 31
0.0
  0
SPLINE
  5
4C7
100
AcDbEntity
  8
RACCORDO
100
AcDbSpline
 62
7
  6
CONTINUOUS
 70
0
 71
3
 72
8
 73
4
 74
2
 42
0.0000001
 43
0.0000001
 44
0.0000000001
 12
-0.0574850431
 22
0.0571748406
 32
0.0
 13
-0.0551166615
 23
0.0599085457
 33
0.0
 40
0.0
 40
0.0
 40
0.0
 40
0.0
 40
1.0
 40
1.0
 40
1.0
 40
1.0
 10
-43.9
 20
-14.698630474
 30
0.0
 10
-43.919161681
 20
-14.6795721938
 30
0.0
 10
-43.9381077351
 20
-14.6601331324
 30
0.0
 10
-43.9564799556
 20
-14.6401636172
 30
0.0
 11
-43.9
 21
-14.698630474
 31
0.0
 11
-43.9564799556
 21
-14.6401636172
 31
0.0
  0
SPLINE
  5
4C8
100
AcDbEntity
  8
RACCORDO
100
AcDbSpline
 62
7
  6
CONTINUOUS
 70
0
 71
3
 72
10
 73
6
 74
4
 42
0.0000001
 43
0.0000001
 44
0.0000000001
 12
-0.4107362759
 22
0.4464459982
 32
0.0
 13
-0.0598729199
 23
0.6021276619
 33
0.0
 40
0.0
 40
0.0
 40
0.0
 40
0.0
 40
0.2737910594
 40
0.7047561531
 40
1.0
 40
1.0
 40
1.0
 40
1.0
 10
-43.9564799556
 20
-14.6401636172
 30
0.0
 10
-43.9939652623
 20
-14.5994193096
 30
0.0
 10
-44.0843059027
 20
-14.4888566318
 30
0.0
 10
-44.161429907
 20
-14.2992629418
 30
0.0
 10
-44.1895311722
 20
-14.1544834243
 30
0.0
 10
-44.1954235426
 20
-14.0952252619
 30
0.0
 11
-43.9564799556
 21
-14.6401636172
 31
0.0
 11
-44.0587268842
 21
-14.5100346945
 31
0.0
 11
-44.1620691126
 21
-14.2710323945
 31
0.0
 11
-44.1954235426
 21
-14.0952252619
 31
0.0
  0
SPLINE
  5
4C9
100
AcDbEntity
  8
RACCORDO
100
AcDbSpline
 62
7
  6
CONTINUOUS
 70
0
 71
3
 72
10
 73
6
 74
4
 42
0.0000001
 43
0.0000001
 44
0.0000000001
 12
-0.4311453298
 22
0.015311719
 32
0.0
 13
-0.3964041041
 23
0.175852074
 33
0.0
 40
0.0
 40
0.0
 40
0.0
 40
0.0
 40
0.3937185451
 40
0.8358540982
 40
1.0
 40
1.0
 40
1.0
 40
1.0
 10
-43.1981390797
 20
-14.9967314768
 30
0.0
 10
-43.2547223837
 20
-14.9947219742
 30
0.0
 10
-43.375304764
 20
-14.9870583803
 30
0.0
 10
-43.514341555
 20
-14.9479050817
 30
0.0
 10
-43.5958735168
 20
-14.9152889877
 30
0.0
 10
-43.6175628865
 20
-14.9056671887
 30
0.0
 11
-43.1981390797
 21
-14.9967314768
 31
0.0
 11
-43.3673508714
 21
-14.9819414444
 31
0.0
 11
-43.5515226855
 21
-14.9322993044
 31
0.0
 11
-43.6175628865
 21
-14.9056671887
 31
0.0
  0
SPLINE
  5
4CA
100
AcDbEntity
  8
RACCORDO
100
AcDbSpline
 62
7
  6
CONTINUOUS
 70
0
 71
3
 72
9
 73
5
 74
3
 42
0.0000001
 43
0.0000001
 44
0.0000000001
 12
-0.2617961813
 22
0.1161375499
 32
0.0
 13
-0.2072551964
 23
0.1968833484
 33
0.0
 40
0.0
 40
0.0
 40
0.0
 40
0.0
 40
0.5161756778
 40
1.0
 40
1.0
 40
1.0
 40
1.0
 10
-43.6175628865
 20
-14.9056671887
 30
0.0
 10
-43.6626071603
 20
-14.8856847291
 30
0.0
 10
-43.746657552
 20
-14.8403606897
 30
0.0
 10
-43.8183541671
 20
-14.7775055943
 30
0.0
 10
-43.851779202
 20
-14.7457532767
 30
0.0
 11
-43.6175628865
 21
-14.9056671887
 31
0.0
 11
-43.7460851888
 21
-14.8342234678
 31
0.0
 11
-43.851779202
 21
-14.7457532767
 31
0.0
  0
SPLINE
  5
4CB
100
AcDbEntity
  8
RACCORDO
100
AcDbSpline
 62
7
  6
CONTINUOUS
 70
0
 71
3
 72
8
 73
4
 74
2
 42
0.0000001
 43
0.0000001
 44
0.0000000001
 12
-0.0489342722
 22
0.0464854128
 32
0.0
 13
-0.0476965573
 23
0.0474391758
 33
0.0
 40
0.0
 40
0.0
 40
0.0
 40
0.0
 40
1.0
 40
1.0
 40
1.0
 40
1.0
 10
-43.851779202
 20
-14.7457532767
 30
0.0
 10
-43.8680906261
 20
-14.7302581391
 30
0.0
 10
-43.8841011476
 20
-14.7144435326
 30
0.0
 10
-43.9
 20
-14.698630474
 30
0.0
 11
-43.851779202
 21
-14.7457532767
 31
0.0
 11
-43.9
 21
-14.698630474
 31
0.0
  0
SPLINE
  5
4CC
100
AcDbEntity
  8
RACCORDO
100
AcDbSpline
 62
7
  6
CONTINUOUS
 70
0
 71
3
 72
11
 73
7
 74
5
 42
0.0000001
 43
0.0000001
 44
0.0000000001
 12
0.4771859194
 22
0.3600834014
 32
0.0
 13
0.5959718059
 23
0.0339211416
 33
0.0
 40
0.0
 40
0.0
 40
0.0
 40
0.0
 40
0.1167667236
 40
0.484556914
 40
0.8068634146
 40
1.0
 40
1.0
 40
1.0
 40
1.0
 10
-43.804904895
 20
-5.2042150927
 30
0.0
 10
-43.7863317496
 20
-5.1901998397
 30
0.0
 10
-43.7072109398
 20
-5.1347055392
 30
0.0
 10
-43.5629691211
 20
-5.061669961
 30
0.0
 10
-43.3923758277
 20
-5.0159438508
 30
0.0
 10
-43.2902250395
 20
-5.0043568008
 30
0.0
 10
-43.251857053
 20
-5.0021729964
 30
0.0
 11
-43.804904895
 21
-5.2042150927
 31
0.0
 11
-43.7477635917
 21
-5.1641297558
 31
0.0
 11
-43.5520197975
 21
-5.0651478105
 31
0.0
 11
-43.3664125496
 21
-5.0151599139
 31
0.0
 11
-43.251857053
 21
-5.0021729964
 31
0.0
  0
LINE
  5
4CD
100
AcDbEntity
  8
DRAFT
100
AcDbLine
 62
7
  6
CONTINUOUS
 10
-25.2371691907
 20
-12.4614612833
 11
-25.2371691907
 21
-12.6334694014
  0
LINE
  5
4CE
100
AcDbEntity
  8
DRAFT
100
AcDbLine
 62
7
  6
CONTINUOUS
 10
-25.2371691907
 20
-12.6334694014
 11
-25.2371691907
 21
-12.748630474
  0
LINE
  5
4CF
100
AcDbEntity
  8
DRAFT
100
AcDbLine
 62
7
  6
CONTINUOUS
 10
-25.2371691907
 20
-13.748630474
 11
-25.2371691907
 21
-13.8579363703
  0
LINE
  5
4D0
100
AcDbEntity
  8
DRAFT
100
AcDbLine
 62
7
  6
CONTINUOUS
 10
-25.2371691907
 20
-13.8579363703
 11
-25.2371691907
 21
-14.0357996647
  0
LINE
  5
4D1
100
AcDbEntity
  8
DRAFT
100
AcDbLine
 62
7
  6
CONTINUOUS
 10
-25.2371691907
 20
-5.9614612833
 11
-25.2371691907
 21
-6.1393245778
  0
LINE
  5
4D2
100
AcDbEntity
  8
DRAFT
100
AcDbLine
 62
7
  6
CONTINUOUS
 10
-25.2371691907
 20
-6.1393245778
 11
-25.2371691907
 21
-6.248630474
  0
LINE
  5
4D3
100
AcDbEntity
  8
DRAFT
100
AcDbLine
 62
7
  6
CONTINUOUS
 10
-25.2371691907
 20
-7.248630474
 11
-25.2371691907
 21
-7.3637915466
  0
LINE
  5
4D4
100
AcDbEntity
  8
DRAFT
100
AcDbLine
 62
7
  6
CONTINUOUS
 10
-25.2371691907
 20
-7.3637915466
 11
-25.2371691907
 21
-7.5357996647
  0
LINE
  5
4D5
100
AcDbEntity
  8
DRAFT
100
AcDbLine
 62
7
  6
CONTINUOUS
 10
25.2371691907
 20
-14.0357996647
 11
25.2371691907
 21
-13.8579363703
  0
LINE
  5
4D6
100
AcDbEntity
  8
DRAFT
100
AcDbLine
 62
7
  6
CONTINUOUS
 10
25.2371691907
 20
-13.8579363703
 11
25.2371691907
 21
-13.748630474
  0
LINE
  5
4D7
100
AcDbEntity
  8
DRAFT
100
AcDbLine
 62
7
  6
CONTINUOUS
 10
25.2371691907
 20
-12.748630474
 11
25.2371691907
 21
-12.6334694014
  0
LINE
  5
4D8
100
AcDbEntity
  8
DRAFT
100
AcDbLine
 62
7
  6
CONTINUOUS
 10
25.2371691907
 20
-12.6334694014
 11
25.2371691907
 21
-12.4614612833
  0
LINE
  5
4D9
100
AcDbEntity
  8
DRAFT
100
AcDbLine
 62
7
  6
CONTINUOUS
 10
25.2371691907
 20
-7.5357996647
 11
25.2371691907
 21
-7.3637915466
  0
LINE
  5
4DA
100
AcDbEntity
  8
DRAFT
100
AcDbLine
 62
7
  6
CONTINUOUS
 10
25.2371691907
 20
-7.3637915466
 11
25.2371691907
 21
-7.248630474
  0
LINE
  5
4DB
100
AcDbEntity
  8
DRAFT
100
AcDbLine
 62
7
  6
CONTINUOUS
 10
25.2371691907
 20
-6.248630474
 11
25.2371691907
 21
-6.1393245778
  0
LINE
  5
4DC
100
AcDbEntity
  8
DRAFT
100
AcDbLine
 62
7
  6
CONTINUOUS
 10
25.2371691907
 20
-6.1393245778
 11
25.2371691907
 21
-5.9614612833
  0
SPLINE
  5
4DD
100
AcDbEntity
  8
RACCORDO
100
AcDbSpline
 62
253
  6
CONTINUOUS
 70
0
 71
3
 72
23
 73
19
 74
17
 42
0.0000001
 43
0.0000001
 44
0.0000000001
 12
-0.000469809
 22
90.3827611278
 32
0.0
 13
-0.0028611768
 23
90.3827610837
 33
0.0
 40
0.0
 40
0.0
 40
0.0
 40
0.0
 40
0.0939038168
 40
0.1807450456
 40
0.2599836538
 40
0.331790196
 40
0.3969842353
 40
0.4564119021
 40
0.5106854703
 40
0.5600764814
 40
0.6066456371
 40
0.655945199
 40
0.7109354678
 40
0.7706263879
 40
0.8335168734
 40
0.891797877
 40
0.9452222052
 40
1.0
 40
1.0
 40
1.0
 40
1.0
 10
46.3000772228
 20
-45.1896946481
 30
0.0
 10
46.3000625171
 20
-42.3605992349
 30
0.0
 10
46.2999812145
 20
-36.9151871405
 30
0.0
 10
46.2996835379
 20
-29.0825069872
 30
0.0
 10
46.2992208336
 20
-21.9155644047
 30
0.0
 10
46.2986010769
 20
-15.4007994249
 30
0.0
 10
46.2978297866
 20
-9.4828903251
 30
0.0
 10
46.2969090343
 20
-4.093207453
 30
0.0
 10
46.2958426729
 20
0.820368275
 30
0.0
 10
46.2946281711
 20
5.3465480443
 30
0.0
 10
46.2932124312
 20
9.7228729382
 30
0.0
 10
46.2914729638
 20
14.267889853
 30
0.0
 10
46.2892941799
 20
19.2082337152
 30
0.0
 10
46.2867930237
 20
24.5580392048
 30
0.0
 10
46.2845358266
 20
30.0069867187
 30
0.0
 10
46.2829807985
 20
35.2671371886
 30
0.0
 10
46.2820949119
 20
40.2828720086
 30
0.0
 10
46.2818534026
 20
43.5427408854
 30
0.0
 10
46.2818011596
 20
45.1930636643
 30
0.0
 11
46.3000772228
 21
-45.1896946481
 31
0.0
 11
46.299944123
 21
-36.7024084094
 31
0.0
 11
46.2996385026
 21
-28.8534583716
 31
0.0
 11
46.2991680927
 21
-21.6916541959
 31
0.0
 11
46.2985422116
 21
-15.2015806717
 31
0.0
 11
46.2977655257
 21
-9.3091634438
 31
0.0
 11
46.2968392853
 21
-3.9379269112
 31
0.0
 11
46.2957668283
 21
0.967467927
 31
0.0
 11
46.2945631034
 21
5.4315637222
 31
0.0
 11
46.2931986823
 21
9.6406123783
 31
0.0
 11
46.2914976474
 21
14.0964425807
 31
0.0
 11
46.2893355815
 21
19.0666144408
 31
0.0
 11
46.2868847465
 21
24.461644049
 31
0.0
 11
46.2845949516
 21
30.1458593177
 31
0.0
 11
46.2830465616
 21
35.4134571159
 31
0.0
 11
46.2821835999
 21
40.2420953398
 31
0.0
 11
46.2818011596
 21
45.1930636643
 31
0.0
  0
SPLINE
  5
4DE
100
AcDbEntity
  8
DRAFT
100
AcDbSpline
 62
7
  6
CONTINUOUS
 70
0
 71
3
 72
8
 73
4
 74
2
 42
0.0000001
 43
0.0000001
 44
0.0000000001
 12
0.2557841898
 22
0.4406231741
 32
0.0
 13
0.0177685134
 23
0.5030996984
 33
0.0
 40
0.0
 40
0.0
 40
0.0
 40
0.0
 40
1.0
 40
1.0
 40
1.0
 40
1.0
 10
-25.3028796641
 20
-14.5186679359
 30
0.0
 10
-25.2176182675
 20
-14.3717935446
 30
0.0
 10
-25.1689323889
 20
-14.2027756746
 30
0.0
 10
-25.1630095511
 20
-14.0350757751
 30
0.0
 11
-25.3028796641
 21
-14.5186679359
 31
0.0
 11
-25.1630095511
 21
-14.0350757751
 31
0.0
  0
SPLINE
  5
4DF
100
AcDbEntity
  8
DRAFT
100
AcDbSpline
 62
7
  6
CONTINUOUS
 70
0
 71
3
 72
8
 73
4
 74
2
 42
0.0000001
 43
0.0000001
 44
0.0000000001
 12
-0.017768542
 22
0.5031005079
 32
0.0
 13
-0.2557849519
 23
0.4406236861
 33
0.0
 40
0.0
 40
0.0
 40
0.0
 40
0.0
 40
1.0
 40
1.0
 40
1.0
 40
1.0
 10
-25.1630095511
 20
-5.9621851729
 30
0.0
 10
-25.1689323984
 20
-5.7944850036
 30
0.0
 10
-25.2176184341
 20
-5.6254668525
 30
0.0
 10
-25.3028800848
 20
-5.4785922905
 30
0.0
 11
-25.1630095511
 21
-5.9621851729
 31
0.0
 11
-25.3028800848
 21
-5.4785922905
 31
0.0
  0
SPLINE
  5
4E0
100
AcDbEntity
  8
RACCORDO
100
AcDbSpline
 62
253
  6
CONTINUOUS
 70
0
 71
3
 72
15
 73
11
 74
9
 42
0.0000001
 43
0.0000001
 44
0.0000000001
 12
1.5563490655
 22
-0.0104408624
 32
0.0
 13
0.0000596989
 23
1.5563840855
 33
0.0
 40
0.0
 40
0.0
 40
0.0
 40
0.0
 40
0.0866213928
 40
0.1815748238
 40
0.2862726969
 40
0.4033576663
 40
0.5355923411
 40
0.681462604
 40
0.8374400238
 40
1.0
 40
1.0
 40
1.0
 40
1.0
 10
45.3097771952
 20
-46.1820847275
 30
0.0
 10
45.3547149031
 20
-46.1823861949
 30
0.0
 10
45.4490789512
 20
-46.1765431138
 30
0.0
 10
45.5949856498
 20
-46.1460409356
 30
0.0
 10
45.7492006794
 20
-46.0871157135
 30
0.0
 10
45.9074851865
 20
-45.9918808595
 30
0.0
 10
46.0600206058
 20
-45.8526397659
 30
0.0
 10
46.1903289259
 20
-45.666487735
 30
0.0
 10
46.2791196268
 20
-45.4400538979
 30
0.0
 10
46.3000739879
 20
-45.2740299014
 30
0.0
 10
46.3000772228
 20
-45.1896946481
 30
0.0
 11
45.3097771952
 21
-46.1820847275
 31
0.0
 11
45.4443347267
 21
-46.1737380537
 31
0.0
 11
45.588989966
 21
-46.143489499
 31
0.0
 11
45.7412034932
 21
-46.0853192454
 31
0.0
 11
45.8973504117
 21
-45.9913745008
 31
0.0
 11
46.0493636066
 21
-45.8526341021
 31
0.0
 11
46.1796110069
 21
-45.6666816717
 31
0.0
 11
46.2682827841
 21
-45.4406947045
 31
0.0
 11
46.3000772228
 21
-45.1896946481
 31
0.0
  0
SPLINE
  5
4E1
100
AcDbEntity
  8
DRAFT
100
AcDbSpline
 62
7
  6
CONTINUOUS
 70
0
 71
3
 72
8
 73
4
 74
2
 42
0.0000001
 43
0.0000001
 44
0.0000000001
 12
0.017768542
 22
-0.5031005079
 32
0.0
 13
0.2557849519
 23
-0.4406236861
 33
0.0
 40
0.0
 40
0.0
 40
0.0
 40
0.0
 40
1.0
 40
1.0
 40
1.0
 40
1.0
 10
25.1630095511
 20
-14.0350757751
 30
0.0
 10
25.1689323984
 20
-14.2027759444
 30
0.0
 10
25.2176184341
 20
-14.3717940955
 30
0.0
 10
25.3028800848
 20
-14.5186686575
 30
0.0
 11
25.1630095511
 21
-14.0350757751
 31
0.0
 11
25.3028800848
 21
-14.5186686575
 31
0.0
  0
SPLINE
  5
4E2
100
AcDbEntity
  8
RACCORDO
100
AcDbSpline
 62
253
  6
CONTINUOUS
 70
0
 71
3
 72
40
 73
36
 74
34
 42
0.0000001
 43
0.0000001
 44
0.0000000001
 12
90.6513009152
 22
0.6078685775
 32
0.0
 13
90.6513001701
 23
-0.6079796836
 33
0.0
 40
0.0
 40
0.0
 40
0.0
 40
0.0
 40
0.0652134044
 40
0.1221423791
 40
0.1707017657
 40
0.2111639296
 40
0.2449871083
 40
0.2745458634
 40
0.3018717933
 40
0.3281530855
 40
0.3536893039
 40
0.3782184129
 40
0.4013415356
 40
0.4226137323
 40
0.44214828
 40
0.4602507857
 40
0.4773049668
 40
0.4937396575
 40
0.5099990182
 40
0.526555993
 40
0.5438435836
 40
0.5622609862
 40
0.5821409962
 40
0.6037381436
 40
0.6270005148
 40
0.6514538704
 40
0.6767572105
 40
0.7027350654
 40
0.7298144771
 40
0.7591996759
 40
0.7928341128
 40
0.8328748135
 40
0.8806293795
 40
0.936358604
 40
1.0
 40
1.0
 40
1.0
 40
1.0
 10
-45.3097771947
 20
-46.1820847215
 30
0.0
 10
-43.339217214
 20
-46.168870995
 30
0.0
 10
-39.6484749842
 20
-46.1352094602
 30
0.0
 10
-34.4908427104
 20
-46.0536770569
 30
0.0
 10
-30.0817868372
 20
-45.9461201504
 30
0.0
 10
-26.3718232796
 20
-45.8184791712
 30
0.0
 10
-23.2368444396
 20
-45.6816053624
 30
0.0
 10
-20.4990608211
 20
-45.5491012312
 30
0.0
 10
-17.9886409182
 20
-45.4330509963
 30
0.0
 10
-15.5988868825
 20
-45.3399428332
 30
0.0
 10
-13.2929026494
 20
-45.2697715951
 30
0.0
 10
-11.0818709175
 20
-45.2192289606
 30
0.0
 10
-8.9994140083
 20
-45.1841187099
 30
0.0
 10
-7.0677331963
 20
-45.1606019594
 30
0.0
 10
-5.2876890419
 20
-45.1453267359
 30
0.0
 10
-3.6350666715
 20
-45.1358680319
 30
0.0
 10
-2.0760977896
 20
-45.1305290999
 30
0.0
 10
-0.5728174987
 20
-45.1283234379
 30
0.0
 10
0.9154397773
 20
-45.128588238
 30
0.0
 10
2.4294673151
 20
-45.1314562217
 30
0.0
 10
4.0086970843
 20
-45.1376421378
 30
0.0
 10
5.6883207771
 20
-45.1482780858
 30
0.0
 10
7.4981257883
 20
-45.1651835682
 30
0.0
 10
9.4542478228
 20
-45.1908798907
 30
0.0
 10
11.5483980838
 20
-45.2287120338
 30
0.0
 10
13.7542366506
 20
-45.282410517
 30
0.0
 10
16.041618272
 20
-45.3557312035
 30
0.0
 10
18.4075908449
 20
-45.4514629015
 30
0.0
 10
20.8960777058
 20
-45.5684206166
 30
0.0
 10
23.6155274542
 20
-45.6992079252
 30
0.0
 10
26.7269772871
 20
-45.8320554804
 30
0.0
 10
30.394319105
 20
-45.9548169904
 30
0.0
 10
34.7301429616
 20
-46.0580267811
 30
0.0
 10
39.7797294097
 20
-46.13649622
 30
0.0
 10
43.3867187636
 20
-46.1691871689
 30
0.0
 10
45.3097771952
 20
-46.1820847275
 30
0.0
 11
-45.3097771947
 21
-46.1820847215
 31
0.0
 11
-39.398231415
 21
-46.1258917125
 31
0.0
 11
-34.2381163484
 21
-46.0417127248
 31
0.0
 11
-29.8374094518
 21
-45.9321508517
 31
0.0
 11
-26.1715687326
 21
-45.8054314576
 31
0.0
 11
-23.1082282665
 21
-45.6734087431
 31
0.0
 11
-20.4316191023
 21
-45.5468436743
 31
0.0
 11
-17.956974599
 21
-45.434643201
 31
0.0
 11
-15.5762703398
 21
-45.3424964548
 31
0.0
 11
-13.2624059499
 21
-45.2718225621
 31
0.0
 11
-11.0393516142
 21
-45.2205456665
 31
0.0
 11
-8.9434667607
 21
-45.1848806113
 31
0.0
 11
-7.015216923
 21
-45.1611664886
 31
0.0
 11
-5.2444113532
 21
-45.145830937
 31
0.0
 11
-3.6033862477
 21
-45.1363341962
 31
0.0
 11
-2.0573770633
 21
-45.1309786863
 31
0.0
 11
-0.5675191727
 21
-45.1287263643
 31
0.0
 11
0.9064461356
 21
-45.129004453
 31
0.0
 11
2.4073883731
 21
-45.1319094828
 31
0.0
 11
3.9745538774
 21
-45.138119289
 31
0.0
 11
5.6441187301
 21
-45.1488033993
 31
0.0
 11
7.4462279454
 21
-45.1657914794
 31
0.0
 11
9.4039091493
 21
-45.1917671363
 31
0.0
 11
11.5123703051
 21
-45.2302120516
 31
0.0
 11
13.728481774
 21
-45.2845822652
 31
0.0
 11
16.0211309941
 21
-45.3582438763
 31
0.0
 11
18.3742183482
 21
-45.4526225534
 31
0.0
 11
20.8264573629
 21
-45.5655772272
 31
0.0
 11
23.4873783128
 21
-45.6908122623
 31
0.0
 11
26.5337342613
 21
-45.8195280574
 31
0.0
 11
30.1615012528
 21
-45.9416888003
 31
0.0
 11
34.4893360548
 21
-46.0467919766
 31
0.0
 11
39.5407285756
 21
-46.1276905356
 31
0.0
 11
45.3097771952
 21
-46.1820847275
 31
0.0
  0
SPLINE
  5
4E3
100
AcDbEntity
  8
DRAFT
100
AcDbSpline
 62
7
  6
CONTINUOUS
 70
0
 71
3
 72
8
 73
4
 74
2
 42
0.0000001
 43
0.0000001
 44
0.0000000001
 12
-0.2557841898
 22
-0.4406231741
 32
0.0
 13
-0.0177685134
 23
-0.5030996984
 33
0.0
 40
0.0
 40
0.0
 40
0.0
 40
0.0
 40
1.0
 40
1.0
 40
1.0
 40
1.0
 10
25.3028796641
 20
-5.4785930121
 30
0.0
 10
25.2176182675
 20
-5.6254674035
 30
0.0
 10
25.1689323889
 20
-5.7944852735
 30
0.0
 10
25.1630095511
 20
-5.9621851729
 30
0.0
 11
25.3028796641
 21
-5.4785930121
 31
0.0
 11
25.1630095511
 21
-5.9621851729
 31
0.0
  0
SPLINE
  5
4E4
100
AcDbEntity
  8
RACCORDO
100
AcDbSpline
 62
253
  6
CONTINUOUS
 70
0
 71
3
 72
15
 73
11
 74
9
 42
0.0000001
 43
0.0000001
 44
0.0000000001
 12
-0.0000087472
 22
-1.5563734206
 32
0.0
 13
1.556338833
 23
0.0103759934
 33
0.0
 40
0.0
 40
0.0
 40
0.0
 40
0.0
 40
0.087752892
 40
0.1838459118
 40
0.289548698
 40
0.4073335109
 40
0.5396634946
 40
0.6847950044
 40
0.8393080667
 40
1.0
 40
1.0
 40
1.0
 40
1.0
 10
-46.3000772217
 20
-45.1896946431
 30
0.0
 10
-46.3000774776
 20
-45.235220066
 30
0.0
 10
-46.2936070912
 20
-45.3307188224
 30
0.0
 10
-46.2621770216
 20
-45.4781581239
 30
0.0
 10
-46.202404615
 20
-45.6336174087
 30
0.0
 10
-46.1066161413
 20
-45.7926460642
 30
0.0
 10
-45.9674320166
 20
-45.9452622395
 30
0.0
 10
-45.7822077017
 20
-46.0749970883
 30
0.0
 10
-45.557583865
 20
-46.1626885876
 30
0.0
 10
-45.3931408933
 20
-46.1826405009
 30
0.0
 10
-45.3097771947
 20
-46.1820847215
 30
0.0
 11
-46.3000772217
 21
-45.1896946431
 31
0.0
 11
-46.290828119
 21
-45.325957372
 31
0.0
 11
-46.2596287741
 21
-45.472223513
 31
0.0
 11
-46.2005562018
 21
-45.6257649103
 31
0.0
 11
-46.1059313954
 21
-45.7827723122
 31
0.0
 11
-45.9671030922
 21
-45.9349041974
 31
0.0
 11
-45.7820710545
 21
-46.0644587738
 31
0.0
 11
-45.5580428928
 21
-46.1518774466
 31
0.0
 11
-45.3097771947
 21
-46.1820847215
 31
0.0
  0
LINE
  5
4E5
100
AcDbEntity
  8
RACCORDO
100
AcDbLine
 62
253
  6
CONTINUOUS
 10
25.1363257648
 20
-13.998630474
 11
25.1364319375
 21
-13.7488489449
  0
LINE
  5
4E6
100
AcDbEntity
  8
RACCORDO
100
AcDbLine
 62
253
  6
CONTINUOUS
 10
25.1364319375
 20
-13.7488489449
 11
25.1368698038
 21
-12.748864112
  0
LINE
  5
4E7
100
AcDbEntity
  8
RACCORDO
100
AcDbLine
 62
253
  6
CONTINUOUS
 10
25.1368698038
 20
-12.748864112
 11
25.1396749617
 21
-7.2489298774
  0
LINE
  5
4E8
100
AcDbEntity
  8
RACCORDO
100
AcDbLine
 62
253
  6
CONTINUOUS
 10
25.1396749617
 20
-7.2489298774
 11
25.1402637749
 21
-6.2489387853
  0
LINE
  5
4E9
100
AcDbEntity
  8
RACCORDO
100
AcDbLine
 62
253
  6
CONTINUOUS
 10
25.1402637749
 20
-6.2489387853
 11
25.1404152609
 21
-5.998630474
  0
SPLINE
  5
4EA
100
AcDbEntity
  8
RACCORDO
100
AcDbSpline
 62
253
  6
CONTINUOUS
 70
0
 71
3
 72
22
 73
18
 74
16
 42
0.0000001
 43
0.0000001
 44
0.0000000001
 12
-0.0028613163
 22
-90.3827610706
 32
0.0
 13
-0.0004698475
 23
-90.3827611146
 33
0.0
 40
0.0
 40
0.0
 40
0.0
 40
0.0
 40
0.0848255464
 40
0.1630042245
 40
0.2330564178
 40
0.2951781553
 40
0.3504777906
 40
0.3995258591
 40
0.4464293169
 40
0.4967258247
 40
0.5508730391
 40
0.609041115
 40
0.6721537744
 40
0.7418980349
 40
0.8198368336
 40
0.9064329793
 40
1.0
 40
1.0
 40
1.0
 40
1.0
 10
-46.2818011593
 20
45.1930636647
 30
0.0
 10
-46.2818820635
 20
42.6374746349
 30
0.0
 10
-46.2823596659
 20
37.7265506744
 30
0.0
 10
-46.2842337789
 20
30.705123379
 30
0.0
 10
-46.2868745459
 20
24.3677073827
 30
0.0
 10
-46.2895225284
 20
18.7195818244
 30
0.0
 10
-46.2917048876
 20
13.7042597136
 30
0.0
 10
-46.2934134387
 20
9.1474274944
 30
0.0
 10
-46.2948051375
 20
4.7413273359
 30
0.0
 10
-46.2959947595
 20
0.1816021522
 30
0.0
 10
-46.2970261264
 20
-4.7174988405
 30
0.0
 10
-46.2979041213
 20
-10.0027195953
 30
0.0
 10
-46.298638237
 20
-15.7578417388
 30
0.0
 10
-46.2992343932
 20
-22.1086080703
 30
0.0
 10
-46.2996871688
 20
-29.1668751909
 30
0.0
 10
-46.2999817087
 20
-36.942864604
 30
0.0
 10
-46.3000625676
 20
-42.3707460818
 30
0.0
 10
-46.3000772217
 20
-45.1896946431
 30
0.0
 11
-46.2818011593
 21
45.1930636647
 31
0.0
 11
-46.2826047724
 21
37.5262966136
 31
0.0
 11
-46.2844851905
 21
30.4602920759
 31
0.0
 11
-46.2870324162
 21
24.1287819343
 31
0.0
 11
-46.2895855326
 21
18.5140483512
 31
0.0
 11
-46.291733695
 21
13.5159150894
 31
0.0
 11
-46.2933930335
 21
9.0828155374
 31
0.0
 11
-46.2947353733
 21
4.8435517258
 31
0.0
 11
-46.2959277315
 21
0.2976146408
 31
0.0
 11
-46.2969657059
 21
-4.5963599939
 31
0.0
 11
-46.2978469609
 21
-9.8537512319
 31
0.0
 11
-46.2985823233
 21
-15.5580476068
 31
0.0
 11
-46.2991817231
 21
-21.8617264112
 31
0.0
 11
-46.2996412176
 21
-28.9060502163
 31
0.0
 11
-46.2999449355
 21
-36.7328489601
 31
0.0
 11
-46.3000772217
 21
-45.1896946431
 31
0.0
  0
SPLINE
  5
4EB
100
AcDbEntity
  8
RACCORDO
100
AcDbSpline
 62
253
  6
CONTINUOUS
 70
0
 71
3
 72
15
 73
11
 74
9
 42
0.0000001
 43
0.0000001
 44
0.0000000001
 12
-1.5688633143
 22
0.0073301491
 32
0.0
 13
-0.0001206476
 23
-1.5688804338
 33
0.0
 40
0.0
 40
0.0
 40
0.0
 40
0.0
 40
0.0872424487
 40
0.1828180829
 40
0.2880631831
 40
0.4055340766
 40
0.5378806909
 40
0.6834317707
 40
0.8386010614
 40
1.0
 40
1.0
 40
1.0
 40
1.0
 10
-45.276390352
 20
46.1869283925
 30
0.0
 10
-45.3220141778
 20
46.1871415592
 30
0.0
 10
-45.4177703785
 20
46.1811221675
 30
0.0
 10
-45.565795027
 20
46.1503962873
 30
0.0
 10
-45.7222189873
 20
46.0913134593
 30
0.0
 10
-45.8828015188
 20
45.9960033972
 30
0.0
 10
-46.0376579982
 20
45.8567317912
 30
0.0
 10
-46.1700953527
 20
45.670484838
 30
0.0
 10
-46.2604408499
 20
45.4438104485
 30
0.0
 10
-46.2817946685
 20
45.277468877
 30
0.0
 10
-46.2818011593
 20
45.1930636647
 30
0.0
 11
-45.276390352
 21
46.1869283925
 31
0.0
 11
-45.4129927664
 21
46.1783266123
 31
0.0
 11
-45.5598067532
 21
46.1478359748
 31
0.0
 11
-45.7142619083
 21
46.0894645623
 31
0.0
 11
-45.8727269229
 21
45.9953661384
 31
0.0
 11
-46.0270742221
 21
45.8564790414
 31
0.0
 11
-46.1593828684
 21
45.6703630333
 31
0.0
 11
-46.2494838436
 21
45.4442085437
 31
0.0
 11
-46.2818011593
 21
45.1930636647
 31
0.0
  0
SPLINE
  5
4EC
100
AcDbEntity
  8
RACCORDO
100
AcDbSpline
 62
253
  6
CONTINUOUS
 70
0
 71
3
 72
37
 73
33
 74
31
 42
0.0000001
 43
0.0000001
 44
0.0000000001
 12
-90.5520873096
 22
-0.4221846129
 32
0.0
 13
-90.5520873096
 23
0.4221846093
 33
0.0
 40
0.0
 40
0.0
 40
0.0
 40
0.0
 40
0.0408616788
 40
0.0735941567
 40
0.1063406459
 40
0.1390999429
 40
0.1718708255
 40
0.2046521056
 40
0.2374427073
 40
0.2702417376
 40
0.303048475
 40
0.3358622529
 40
0.3686822514
 40
0.4015073494
 40
0.4343362161
 40
0.4671675163
 40
0.5
 40
0.5328324367
 40
0.565663699
 40
0.5984925363
 40
0.6313176128
 40
0.6641375971
 40
0.6969513674
 40
0.7297581034
 40
0.7625571376
 40
0.7953477482
 40
0.8281290414
 40
0.8608999407
 40
0.8936592574
 40
0.9264057687
 40
0.9591382706
 40
1.0
 40
1.0
 40
1.0
 40
1.0
 10
45.2763533334
 20
46.19486837
 30
0.0
 10
44.0429832317
 20
46.1891179793
 30
0.0
 10
41.8216130576
 20
46.1791860958
 30
0.0
 10
38.6118164178
 20
46.1659143663
 30
0.0
 10
35.6465794008
 20
46.1545240967
 30
0.0
 10
32.6801801014
 20
46.1439606375
 30
0.0
 10
29.7127280215
 20
46.1341663527
 30
0.0
 10
26.7443288243
 20
46.1250648966
 30
0.0
 10
23.775078184
 20
46.1165795832
 30
0.0
 10
20.8050575413
 20
46.1086687105
 30
0.0
 10
17.8343357736
 20
46.1013676381
 30
0.0
 10
14.8629793149
 20
46.0948213087
 30
0.0
 10
11.8910666025
 20
46.0892683638
 30
0.0
 10
8.9186963984
 20
46.0849301653
 30
0.0
 10
5.9459834457
 20
46.0818932218
 30
0.0
 10
2.9730465403
 20
46.080128194
 30
0.0
 10
0.0000014187
 20
46.079563541
 30
0.0
 10
-2.9730425592
 20
46.0801281936
 30
0.0
 10
-5.945976015
 20
46.0818932188
 30
0.0
 10
-8.9186862878
 20
46.0849301593
 30
0.0
 10
-11.8910545266
 20
46.0892683544
 30
0.0
 10
-14.8629659333
 20
46.0948212949
 30
0.0
 10
-17.8343216909
 20
46.1013676193
 30
0.0
 10
-20.8050433071
 20
46.1086686872
 30
0.0
 10
-23.7750642926
 20
46.1165795555
 30
0.0
 10
-26.7443157149
 20
46.1250648659
 30
0.0
 10
-29.7127160776
 20
46.1341663199
 30
0.0
 10
-32.6801696512
 20
46.1439606045
 30
0.0
 10
-35.6465707174
 20
46.1545240661
 30
0.0
 10
-38.611809719
 20
46.1659143399
 30
0.0
 10
-41.8216092774
 20
46.1791860791
 30
0.0
 10
-44.0429817024
 20
46.189117972
 30
0.0
 10
-45.2763533332
 20
46.1948683698
 30
0.0
 11
45.2763533334
 21
46.19486837
 31
0.0
 11
41.5762398213
 21
46.1783193203
 31
0.0
 11
38.6122387551
 21
46.1660610655
 31
0.0
 11
35.6469654837
 21
46.1546640461
 31
0.0
 11
32.6805293624
 21
46.1440906351
 31
0.0
 11
29.7130414915
 21
46.1342833258
 31
0.0
 11
26.7446098884
 21
46.1251688409
 31
0.0
 11
23.7753323272
 21
46.11667638
 31
0.0
 11
20.8052899136
 21
46.1087712388
 31
0.0
 11
17.8345479877
 21
46.1014941706
 31
0.0
 11
14.8631667395
 21
46.0949874447
 31
0.0
 11
11.8912201851
 21
46.0894712065
 31
0.0
 11
8.9188098854
 21
46.0851472557
 31
0.0
 11
5.9460567272
 21
46.0821052999
 31
0.0
 11
2.9730821894
 21
46.08032828
 31
0.0
 11
0.0
 21
46.0797517608
 31
0.0
 11
-2.9730779335
 21
46.0803282792
 31
0.0
 11
-5.9460490399
 21
46.0821052965
 31
0.0
 11
-8.9187995367
 21
46.0851472492
 31
0.0
 11
-11.8912078894
 21
46.0894711964
 31
0.0
 11
-14.8631531564
 21
46.0949874302
 31
0.0
 11
-17.8345337217
 21
46.1014941513
 31
0.0
 11
-20.8052755146
 21
46.108771215
 31
0.0
 11
-23.7753182894
 21
46.1166763519
 31
0.0
 11
-26.7445966511
 21
46.1251688098
 31
0.0
 11
-29.7130294383
 21
46.1342832928
 31
0.0
 11
-32.6805188211
 21
46.144090602
 31
0.0
 11
-35.6469567276
 21
46.1546640154
 31
0.0
 11
-38.6122320022
 21
46.1660610391
 31
0.0
 11
-41.5762352339
 21
46.1783193007
 31
0.0
 11
-45.2763533332
 21
46.1948683698
 31
0.0
  0
SPLINE
  5
4ED
100
AcDbEntity
  8
RACCORDO
100
AcDbSpline
 62
253
  6
CONTINUOUS
 70
0
 71
3
 72
15
 73
11
 74
9
 42
0.0000001
 43
0.0000001
 44
0.0000000001
 12
-0.0000493413
 22
1.5689074334
 32
0.0
 13
-1.5688906205
 23
-0.0072634643
 33
0.0
 40
0.0
 40
0.0
 40
0.0
 40
0.0
 40
0.0871243421
 40
0.1825865559
 40
0.2877236875
 40
0.4051121188
 40
0.5373435278
 40
0.6828104548
 40
0.8381391241
 40
1.0
 40
1.0
 40
1.0
 40
1.0
 10
46.2818011596
 20
45.1930636643
 30
0.0
 10
46.2817997267
 20
45.238627007
 30
0.0
 10
46.2752127091
 20
45.3342388589
 30
0.0
 10
46.2432370234
 20
45.4818388519
 30
0.0
 10
46.182445476
 20
45.6374626903
 30
0.0
 10
46.0850650331
 20
45.796637338
 30
0.0
 10
45.9436620625
 20
45.9493590593
 30
0.0
 10
45.7556496187
 20
46.07919179
 30
0.0
 10
45.5277814339
 20
46.1670977245
 30
0.0
 10
45.361037689
 20
46.187320282
 30
0.0
 10
45.2763903523
 20
46.1869283918
 30
0.0
 11
46.2818011596
 21
45.1930636643
 31
0.0
 11
46.2723931636
 21
45.3294295449
 31
0.0
 11
46.240675979
 21
45.4758040151
 31
0.0
 11
46.1806485956
 21
45.6294443638
 31
0.0
 11
46.0845351406
 21
45.7865474368
 31
0.0
 11
45.94359628
 21
45.9387821507
 31
0.0
 11
45.7558272876
 21
46.0685090372
 31
0.0
 11
45.5284756242
 21
46.1562536082
 31
0.0
 11
45.2763903523
 21
46.1869283918
 31
0.0
  0
LINE
  5
4EE
100
AcDbEntity
  8
RACCORDO
100
AcDbLine
 62
253
  6
CONTINUOUS
 10
-25.1404152957
 20
-5.998630474
 11
-25.1402638007
 21
-6.2489532172
  0
LINE
  5
4EF
100
AcDbEntity
  8
RACCORDO
100
AcDbLine
 62
253
  6
CONTINUOUS
 10
-25.1402638007
 20
-6.2489532172
 11
-25.139674987
 21
-7.2489439117
  0
LINE
  5
4F0
100
AcDbEntity
  8
RACCORDO
100
AcDbLine
 62
253
  6
CONTINUOUS
 10
-25.139674987
 20
-7.2489439117
 11
-25.1368514839
 21
-12.7898314396
  0
LINE
  5
4F1
100
AcDbEntity
  8
RACCORDO
100
AcDbLine
 62
253
  6
CONTINUOUS
 10
-25.1368514839
 20
-12.7898314396
 11
-25.136431959
 21
-13.7488592629
  0
LINE
  5
4F2
100
AcDbEntity
  8
RACCORDO
100
AcDbLine
 62
253
  6
CONTINUOUS
 10
-25.136431959
 20
-13.7488592629
 11
-25.1363257905
 21
-13.998630474
  0
SPLINE
  5
4F3
100
AcDbEntity
  8
RACCORDO
100
AcDbSpline
 62
253
  6
CONTINUOUS
 70
0
 71
3
 72
8
 73
4
 74
2
 42
0.0000001
 43
0.0000001
 44
0.0000000001
 12
1.9173586764
 22
-0.0050114028
 32
0.0
 13
1.9173606536
 23
-0.0041802302
 33
0.0
 40
0.0
 40
0.0
 40
0.0
 40
0.0
 40
1.0
 40
1.0
 40
1.0
 40
1.0
 10
37.3619318683
 20
-4.7833291557
 30
0.0
 10
38.0010514271
 20
-4.7849996233
 30
0.0
 10
38.6401713587
 20
-4.7865237255
 30
0.0
 10
39.2792915766
 20
-4.7879171355
 30
0.0
 11
37.3619318683
 21
-4.7833291557
 31
0.0
 11
39.2792915766
 21
-4.7879171355
 31
0.0
  0
LINE
  5
4F4
100
AcDbEntity
  8
RACCORDO
100
AcDbLine
 62
253
  6
CONTINUOUS
 10
39.2792915766
 20
-4.7879171355
 11
39.8527272397
 21
-4.7891326895
  0
SPLINE
  5
4F5
100
AcDbEntity
  8
RACCORDO
100
AcDbSpline
 62
253
  6
CONTINUOUS
 70
0
 71
3
 72
8
 73
4
 74
2
 42
0.0000001
 43
0.0000001
 44
0.0000000001
 12
2.612658641
 22
-0.0053822827
 32
0.0
 13
2.6126608851
 23
-0.0040974796
 33
0.0
 40
0.0
 40
0.0
 40
0.0
 40
0.0
 40
1.0
 40
1.0
 40
1.0
 40
1.0
 10
39.8527272397
 20
-4.7891326895
 30
0.0
 10
40.7236134533
 20
-4.7909267837
 30
0.0
 10
41.5945001505
 20
-4.7924869167
 30
0.0
 10
42.4653871122
 20
-4.7938527432
 30
0.0
 11
39.8527272397
 21
-4.7891326895
 31
0.0
 11
42.4653871122
 21
-4.7938527432
 31
0.0
  0
LINE
  5
4F6
100
AcDbEntity
  8
RACCORDO
100
AcDbLine
 62
253
  6
CONTINUOUS
 10
42.4653871122
 20
-4.7938527432
 11
42.9005158093
 21
-4.7945191772
  0
LINE
  5
4F7
100
AcDbEntity
  8
RACCORDO
100
AcDbLine
 62
253
  6
CONTINUOUS
 10
42.9005158093
 20
-4.7945191772
 11
43.2325525991
 21
-4.7950066457
  0
LINE
  5
4F8
100
AcDbEntity
  8
RACCORDO
100
AcDbLine
 62
253
  6
CONTINUOUS
 10
25.0504453658
 20
-13.9907351519
 11
25.0502770985
 21
-13.3953936353
  0
LINE
  5
4F9
100
AcDbEntity
  8
RACCORDO
100
AcDbLine
 62
253
  6
CONTINUOUS
 10
25.0502770985
 20
-13.3953936353
 11
25.0500974503
 21
-12.7839608606
  0
LINE
  5
4FA
100
AcDbEntity
  8
RACCORDO
100
AcDbLine
 62
253
  6
CONTINUOUS
 10
25.0500974503
 20
-12.7839608606
 11
25.049905841
 21
-12.1571307106
  0
LINE
  5
4FB
100
AcDbEntity
  8
RACCORDO
100
AcDbLine
 62
253
  6
CONTINUOUS
 10
25.049905841
 20
-12.1571307106
 11
25.0481812252
 21
-7.4189076403
  0
LINE
  5
4FC
100
AcDbEntity
  8
RACCORDO
100
AcDbLine
 62
253
  6
CONTINUOUS
 10
25.0481812252
 20
-7.4189076403
 11
25.047873871
 21
-6.7062338619
  0
LINE
  5
4FD
100
AcDbEntity
  8
RACCORDO
100
AcDbLine
 62
253
  6
CONTINUOUS
 10
25.047873871
 20
-6.7062338619
 11
25.0475491698
 21
-5.9869471287
  0
LINE
  5
4FE
100
AcDbEntity
  8
RACCORDO
100
AcDbLine
 62
253
  6
CONTINUOUS
 10
44.2018701059
 20
-5.9967222911
 11
44.2019113785
 21
-13.4022422811
  0
LINE
  5
4FF
100
AcDbEntity
  8
RACCORDO
100
AcDbLine
 62
253
  6
CONTINUOUS
 10
44.2019113785
 20
-13.4022422811
 11
44.2019141138
 21
-14.0005826648
  0
SPLINE
  5
500
100
AcDbEntity
  8
RACCORDO
100
AcDbSpline
 62
253
  6
CONTINUOUS
 70
0
 71
3
 72
10
 73
6
 74
4
 42
0.0000001
 43
0.0000001
 44
0.0000000001
 12
-0.8095180251
 22
0.7063934347
 32
0.0
 13
-0.0027563693
 23
1.0719926645
 33
0.0
 40
0.0
 40
0.0
 40
0.0
 40
0.0
 40
0.294927459
 40
0.6360054974
 40
1.0
 40
1.0
 40
1.0
 40
1.0
 10
25.4820480144
 20
-14.9406807388
 30
0.0
 10
25.402464983
 20
-14.8712357985
 30
0.0
 10
25.2498130041
 20
-14.6996082613
 30
0.0
 10
25.0899919816
 20
-14.3745158182
 30
0.0
 10
25.0507798002
 20
-14.1208016308
 30
0.0
 10
25.0504453658
 20
-13.9907351519
 30
0.0
 11
25.4820480144
 21
-14.9406807388
 31
0.0
 11
25.2718577498
 21
-14.7045072748
 31
0.0
 11
25.1108482031
 21
-14.3762323688
 31
0.0
 11
25.0504453658
 21
-13.9907351519
 31
0.0
  0
LINE
  5
501
100
AcDbEntity
  8
RACCORDO
100
AcDbLine
 62
253
  6
CONTINUOUS
 10
-44.2019141121
 20
-14.000582663
 11
-44.2019113374
 21
-13.393772946
  0
LINE
  5
502
100
AcDbEntity
  8
RACCORDO
100
AcDbLine
 62
253
  6
CONTINUOUS
 10
-44.2019113374
 20
-13.393772946
 11
-44.201870104
 21
-5.9967222931
  0
LINE
  5
503
100
AcDbEntity
  8
RACCORDO
100
AcDbLine
 62
253
  6
CONTINUOUS
 10
43.2338915043
 20
-15.2018645949
 11
42.9004285635
 21
-15.202289121
  0
LINE
  5
504
100
AcDbEntity
  8
RACCORDO
100
AcDbLine
 62
253
  6
CONTINUOUS
 10
42.9004285635
 20
-15.202289121
 11
42.4676293969
 21
-15.2028596353
  0
SPLINE
  5
505
100
AcDbEntity
  8
RACCORDO
100
AcDbSpline
 62
253
  6
CONTINUOUS
 70
0
 71
3
 72
8
 73
4
 74
2
 42
0.0000001
 43
0.0000001
 44
0.0000000001
 12
-2.5879627473
 22
-0.0034787414
 32
0.0
 13
-2.5879614194
 23
-0.0043748769
 33
0.0
 40
0.0
 40
0.0
 40
0.0
 40
0.0
 40
1.0
 40
1.0
 40
1.0
 40
1.0
 10
42.4676293969
 20
-15.2028596353
 30
0.0
 10
41.6049751478
 20
-15.2040192157
 30
0.0
 10
40.7423210691
 20
-15.2053144616
 30
0.0
 10
39.8796672627
 20
-15.2067727539
 30
0.0
 11
42.4676293969
 21
-15.2028596353
 31
0.0
 11
39.8796672627
 21
-15.2067727539
 31
0.0
  0
LINE
  5
506
100
AcDbEntity
  8
RACCORDO
100
AcDbLine
 62
253
  6
CONTINUOUS
 10
39.8796672627
 20
-15.2067727539
 11
38.2925552769
 21
-15.2096460024
  0
LINE
  5
507
100
AcDbEntity
  8
RACCORDO
100
AcDbLine
 62
253
  6
CONTINUOUS
 10
38.2925552769
 20
-15.2096460024
 11
38.1554448146
 21
-15.209912727
  0
SPLINE
  5
508
100
AcDbEntity
  8
RACCORDO
100
AcDbSpline
 62
253
  6
CONTINUOUS
 70
0
 71
3
 72
10
 73
6
 74
4
 42
0.0000001
 43
0.0000001
 44
0.0000000001
 12
-10.6230655005
 22
-0.0207837029
 32
0.0
 13
-10.622974531
 23
-0.0486657742
 33
0.0
 40
0.0
 40
0.0
 40
0.0
 40
0.0
 40
0.3994193856
 40
0.7640482612
 40
1.0
 40
1.0
 40
1.0
 40
1.0
 10
38.1554448146
 20
-15.209912727
 30
0.0
 10
36.7410920495
 20
-15.2126798649
 30
0.0
 10
34.0355822544
 20
-15.2189101663
 30
0.0
 10
30.4945717252
 20
-15.2303648047
 30
0.0
 10
28.3679167918
 20
-15.2392387525
 30
0.0
 10
27.5324136878
 20
-15.2430663438
 30
0.0
 11
38.1554448146
 21
-15.209912727
 31
0.0
 11
33.9123902539
 21
-15.2198829751
 31
0.0
 11
30.0389273369
 21
-15.2325739397
 31
0.0
 11
27.5324136878
 21
-15.2430663438
 31
0.0
  0
LINE
  5
509
100
AcDbEntity
  8
RACCORDO
100
AcDbLine
 62
253
  6
CONTINUOUS
 10
27.5324136878
 20
-15.2430663438
 11
26.3090671333
 21
-15.2489184809
  0
SPLINE
  5
50A
100
AcDbEntity
  8
RACCORDO
100
AcDbSpline
 62
253
  6
CONTINUOUS
 70
0
 71
3
 72
10
 73
6
 74
4
 42
0.0000001
 43
0.0000001
 44
0.0000000001
 12
0.0002097049
 22
-0.2047678947
 32
0.0
 13
0.2043355196
 23
-0.0133015083
 33
0.0
 40
0.0
 40
0.0
 40
0.0
 40
0.0
 40
0.4867247229
 40
0.8482116815
 40
1.0
 40
1.0
 40
1.0
 40
1.0
 10
-43.2325276012
 20
-4.7950069172
 30
0.0
 10
-43.2324935784
 20
-4.8282287828
 30
0.0
 10
-43.2310737664
 20
-4.8900661584
 30
0.0
 10
-43.2211225145
 20
-4.9464880817
 30
0.0
 10
-43.2136950219
 20
-4.9946452686
 30
0.0
 10
-43.2033564402
 20
-4.9953182731
 30
0.0
 11
-43.2325276012
 21
-4.7950069172
 31
0.0
 11
-43.2285523093
 21
-4.8945932549
 31
0.0
 11
-43.2178851413
 21
-4.9678415613
 31
0.0
 11
-43.2033564402
 21
-4.9953182731
 31
0.0
  0
SPLINE
  5
50B
100
AcDbEntity
  8
RACCORDO
100
AcDbSpline
 62
253
  6
CONTINUOUS
 70
0
 71
3
 72
10
 73
6
 74
4
 42
0.0000001
 43
0.0000001
 44
0.0000000001
 12
0.0002980449
 22
0.2046384124
 32
0.0
 13
0.2043104738
 23
0.0115844277
 33
0.0
 40
0.0
 40
0.0
 40
0.0
 40
0.0
 40
0.4862664976
 40
0.8473397518
 40
1.0
 40
1.0
 40
1.0
 40
1.0
 10
-43.2338914905
 20
-15.2018645916
 30
0.0
 10
-43.2338431808
 20
-15.1686949902
 30
0.0
 10
-43.2321513
 20
-15.1070506654
 30
0.0
 10
-43.2223354156
 20
-15.0504274103
 30
0.0
 10
-43.2138665446
 20
-15.002651656
 30
0.0
 10
-43.2034698487
 20
-15.0020621622
 30
0.0
 11
-43.2338914905
 21
-15.2018645916
 31
0.0
 11
-43.2297193371
 21
-15.1024431843
 31
0.0
 11
-43.2185972003
 21
-15.0293955178
 31
0.0
 11
-43.2034698487
 21
-15.0020621622
 31
0.0
  0
SPLINE
  5
50C
100
AcDbEntity
  8
RACCORDO
100
AcDbSpline
 62
253
  6
CONTINUOUS
 70
0
 71
3
 72
10
 73
6
 74
4
 42
0.0000001
 43
0.0000001
 44
0.0000000001
 12
0.0051458583
 22
0.2385557394
 32
0.0
 13
0.2385950082
 23
0.0027825727
 33
0.0
 40
0.0
 40
0.0
 40
0.0
 40
0.0
 40
0.4116073302
 40
0.7509300542
 40
1.0
 40
1.0
 40
1.0
 40
1.0
 10
-26.3091708243
 20
-15.2489123319
 30
0.0
 10
-26.3084648
 20
-15.2161819016
 30
0.0
 10
-26.2989181476
 20
-15.1564357821
 30
0.0
 10
-26.2646855401
 20
-15.0827681612
 30
0.0
 10
-26.219808948
 20
-15.0555749511
 30
0.0
 10
-26.1999999995
 20
-15.0553439327
 30
0.0
 11
-26.3091708243
 21
-15.2489123319
 31
0.0
 11
-26.2931440773
 21
-15.1520146578
 31
0.0
 11
-26.2533698831
 21
-15.0814913197
 31
0.0
 11
-26.1999999995
 21
-15.0553439327
 31
0.0
  0
SPLINE
  5
50D
100
AcDbEntity
  8
RACCORDO
100
AcDbSpline
 62
253
  6
CONTINUOUS
 70
0
 71
3
 72
9
 73
5
 74
3
 42
0.0000001
 43
0.0000001
 44
0.0000000001
 12
-0.0862944227
 22
-0.0029355608
 32
0.0
 13
-0.0153392308
 23
-0.0849708945
 33
0.0
 40
0.0
 40
0.0
 40
0.0
 40
0.0
 40
0.5295383715
 40
1.0
 40
1.0
 40
1.0
 40
1.0
 10
-25.0504440086
 20
-13.9907352239
 30
0.0
 10
-25.065676078
 20
-13.9912533879
 30
0.0
 10
-25.0883610588
 20
-13.9978664813
 30
0.0
 10
-25.133923473
 20
-13.9853052919
 30
0.0
 10
-25.1363289795
 20
-13.9986304737
 30
0.0
 11
-25.0504440086
 21
-13.9907352239
 31
0.0
 11
-25.0961162949
 21
-13.9928804836
 31
0.0
 11
-25.1363289795
 21
-13.9986304737
 31
0.0
  0
SPLINE
  5
50E
100
AcDbEntity
  8
RACCORDO
100
AcDbSpline
 62
253
  6
CONTINUOUS
 70
0
 71
3
 72
10
 73
6
 74
4
 42
0.0000001
 43
0.0000001
 44
0.0000000001
 12
0.0047039303
 22
1.0063745166
 32
0.0
 13
0.8699277903
 23
0.5060014172
 33
0.0
 40
0.0
 40
0.0
 40
0.0
 40
0.0
 40
0.4819615307
 40
0.8443370967
 40
1.0
 40
1.0
 40
1.0
 40
1.0
 10
-45.2763903511
 20
46.1869283925
 30
0.0
 10
-45.2756346466
 20
46.3486063266
 30
0.0
 10
-45.2785022704
 20
46.6436670847
 30
0.0
 10
-45.2237129143
 20
46.9434092435
 30
0.0
 10
-45.2320361718
 20
47.1592689636
 30
0.0
 10
-45.1868976767
 20
47.1855241801
 30
0.0
 11
-45.2763903511
 21
46.1869283925
 31
0.0
 11
-45.2629008718
 21
46.6717798783
 31
0.0
 11
-45.2303483978
 21
47.0350136618
 31
0.0
 11
-45.1868976767
 21
47.1855241801
 31
0.0
  0
SPLINE
  5
50F
100
AcDbEntity
  8
RACCORDO
100
AcDbSpline
 62
253
  6
CONTINUOUS
 70
0
 71
3
 72
10
 73
6
 74
4
 42
0.0000001
 43
0.0000001
 44
0.0000000001
 12
-0.0065842232
 22
-1.0135825493
 32
0.0
 13
-0.9361829307
 23
-0.3885285788
 33
0.0
 40
0.0
 40
0.0
 40
0.0
 40
0.0
 40
0.478772765
 40
0.839949369
 40
1.0
 40
1.0
 40
1.0
 40
1.0
 10
45.3097772046
 20
-46.1820847275
 30
0.0
 10
45.3087264223
 20
-46.3438433007
 30
0.0
 10
45.3054084893
 20
-46.6404970191
 30
0.0
 10
45.2501906621
 20
-46.9386237821
 30
0.0
 10
45.2347765233
 20
-47.1599904488
 30
0.0
 10
45.184830967
 20
-47.1807185302
 30
0.0
 11
45.3097772046
 21
-46.1820847275
 31
0.0
 11
45.2909529471
 21
-46.6670054517
 31
0.0
 11
45.2455031578
 21
-47.0302632451
 31
0.0
 11
45.184830967
 21
-47.1807185302
 31
0.0
  0
SPLINE
  5
510
100
AcDbEntity
  8
RACCORDO
100
AcDbSpline
 62
253
  6
CONTINUOUS
 70
0
 71
3
 72
9
 73
5
 74
3
 42
0.0000001
 43
0.0000001
 44
0.0000000001
 12
-0.0937056939
 22
-0.0041912684
 32
0.0
 13
-0.0116466899
 23
-0.0930735109
 33
0.0
 40
0.0
 40
0.0
 40
0.0
 40
0.0
 40
0.5259066231
 40
1.0
 40
1.0
 40
1.0
 40
1.0
 10
-25.0475492175
 20
-5.9869471001
 30
0.0
 10
-25.0639760325
 20
-5.9876818387
 30
0.0
 10
-25.0883872621
 20
-5.9945169123
 30
0.0
 10
-25.1385747562
 20
-5.9839219623
 30
0.0
 10
-25.1404152957
 20
-5.998630474
 30
0.0
 11
-25.0475492175
 21
-5.9869471001
 31
0.0
 11
-25.0967812291
 21
-5.9900503025
 31
0.0
 11
-25.1404152957
 21
-5.998630474
 31
0.0
  0
SPLINE
  5
511
100
AcDbEntity
  8
RACCORDO
100
AcDbSpline
 62
253
  6
CONTINUOUS
 70
0
 71
3
 72
10
 73
6
 74
4
 42
0.0000001
 43
0.0000001
 44
0.0000000001
 12
-0.0058138394
 22
-0.2498469065
 32
0.0
 13
0.2498864146
 23
-0.0037492954
 33
0.0
 40
0.0
 40
0.0
 40
0.0
 40
0.0
 40
0.4190861991
 40
0.7629428568
 40
1.0
 40
1.0
 40
1.0
 40
1.0
 10
-26.300439711
 20
-4.7357131648
 30
0.0
 10
-26.3012518777
 20
-4.7706156283
 30
0.0
 10
-26.2938611332
 20
-4.834590043
 30
0.0
 10
-26.2643859599
 20
-4.9135627853
 30
0.0
 10
-26.2197457865
 20
-4.9461638742
 30
0.0
 10
-26.2
 20
-4.94646014
 30
0.0
 11
-26.300439711
 21
-4.7357131648
 31
0.0
 11
-26.2885770724
 21
-4.8397749346
 31
0.0
 11
-26.2515965692
 21
-4.9173457316
 31
0.0
 11
-26.2
 21
-4.94646014
 31
0.0
  0
SPLINE
  5
512
100
AcDbEntity
  8
RACCORDO
100
AcDbSpline
 62
7
  6
CONTINUOUS
 70
0
 71
3
 72
10
 73
6
 74
4
 42
0.0000001
 43
0.0000001
 44
0.0000000001
 12
0.006169584
 22
-0.2535939673
 32
0.0
 13
-0.253157259
 23
0.0161048515
 33
0.0
 40
0.0
 40
0.0
 40
0.0
 40
0.0
 40
0.422521462
 40
0.7656193219
 40
1.0
 40
1.0
 40
1.0
 40
1.0
 10
26.3043514903
 20
-4.7352784733
 30
0.0
 10
26.3052204175
 20
-4.7709947712
 30
0.0
 10
26.2974298379
 20
-4.83604036
 30
0.0
 10
26.2671314375
 20
-4.9164901258
 30
0.0
 10
26.2197858061
 20
-4.9473434317
 30
0.0
 10
26.2000074161
 20
-4.9460852097
 30
0.0
 11
26.3043514903
 21
-4.7352784733
 31
0.0
 11
26.2919294808
 21
-4.8417367958
 31
0.0
 11
26.2533010514
 21
-4.9197280676
 31
0.0
 11
26.2000074161
 21
-4.9460852097
 31
0.0
  0
SPLINE
  5
513
100
AcDbEntity
  8
RACCORDO
100
AcDbSpline
 62
253
  6
CONTINUOUS
 70
0
 71
3
 72
9
 73
5
 74
3
 42
0.0000001
 43
0.0000001
 44
0.0000000001
 12
0.0937079418
 22
-0.0041913215
 32
0.0
 13
0.0116569418
 23
-0.093074493
 33
0.0
 40
0.0
 40
0.0
 40
0.0
 40
0.0
 40
0.5259031511
 40
1.0
 40
1.0
 40
1.0
 40
1.0
 10
25.0475485822
 20
-5.9869471929
 30
0.0
 10
25.0639756828
 20
-5.9876819359
 30
0.0
 10
25.0883883832
 20
-5.9945171499
 30
0.0
 10
25.1385747807
 20
-5.9839216995
 30
0.0
 10
25.1404169538
 20
-5.9986304742
 30
0.0
 11
25.0475485822
 21
-5.9869471929
 31
0.0
 11
25.0967814526
 21
-5.9900503863
 31
0.0
 11
25.1404169538
 21
-5.9986304742
 31
0.0
  0
SPLINE
  5
514
100
AcDbEntity
  8
RACCORDO
100
AcDbSpline
 62
253
  6
CONTINUOUS
 70
0
 71
3
 72
9
 73
5
 74
3
 42
0.0000001
 43
0.0000001
 44
0.0000000001
 12
0.0862898437
 22
-0.0029356016
 32
0.0
 13
0.0153132259
 23
-0.0849709362
 33
0.0
 40
0.0
 40
0.0
 40
0.0
 40
0.0
 40
0.5295458832
 40
1.0
 40
1.0
 40
1.0
 40
1.0
 10
25.0504454055
 20
-13.9907351492
 30
0.0
 10
25.0656768827
 20
-13.9912533277
 30
0.0
 10
25.0883583791
 20
-13.9978664443
 30
0.0
 10
25.1339243748
 20
-13.9853054984
 30
0.0
 10
25.1363257648
 20
-13.998630474
 30
0.0
 11
25.0504454055
 21
-13.9907351492
 31
0.0
 11
25.0961159136
 21
-13.9928804566
 31
0.0
 11
25.1363257648
 21
-13.998630474
 31
0.0
  0
SPLINE
  5
515
100
AcDbEntity
  8
RACCORDO
100
AcDbSpline
 62
253
  6
CONTINUOUS
 70
0
 71
3
 72
10
 73
6
 74
4
 42
0.0000001
 43
0.0000001
 44
0.0000000001
 12
-0.0051304978
 22
0.238467318
 32
0.0
 13
-0.2385010999
 23
0.0031951648
 33
0.0
 40
0.0
 40
0.0
 40
0.0
 40
0.0
 40
0.4115344299
 40
0.7508757877
 40
1.0
 40
1.0
 40
1.0
 40
1.0
 10
26.3090674391
 20
-15.2489184629
 30
0.0
 10
26.3083636469
 20
-15.216205959
 30
0.0
 10
26.2988291833
 20
-15.1564838241
 30
0.0
 10
26.2646263844
 20
-15.0828441996
 30
0.0
 10
26.2198054662
 20
-15.0556106447
 30
0.0
 10
26.2
 20
-15.0553453137
 30
0.0
 11
26.3090674391
 21
-15.2489184629
 31
0.0
 11
26.2930620204
 21
-15.1520719054
 31
0.0
 11
26.2533292812
 21
-15.0815546593
 31
0.0
 11
26.2
 21
-15.0553453137
 31
0.0
  0
LINE
  5
516
100
AcDbEntity
  8
RACCORDO
100
AcDbLine
 62
253
  6
CONTINUOUS
 10
44.4279893
 20
-5.9965720606
 11
44.4280635447
 21
-6.7132480912
  0
LINE
  5
517
100
AcDbEntity
  8
RACCORDO
100
AcDbLine
 62
253
  6
CONTINUOUS
 10
44.4280635447
 20
-6.7132480912
 11
44.4286012936
 21
-12.7902725815
  0
LINE
  5
518
100
AcDbEntity
  8
RACCORDO
100
AcDbLine
 62
253
  6
CONTINUOUS
 10
44.4286012936
 20
-12.7902725815
 11
44.428647287
 21
-13.4032943039
  0
LINE
  5
519
100
AcDbEntity
  8
RACCORDO
100
AcDbLine
 62
253
  6
CONTINUOUS
 10
44.428647287
 20
-13.4032943039
 11
44.4286907743
 21
-14.0004802453
  0
SPLINE
  5
51A
100
AcDbEntity
  8
RACCORDO
100
AcDbSpline
 62
253
  6
CONTINUOUS
 70
0
 71
3
 72
40
 73
36
 74
34
 42
0.0000001
 43
0.0000001
 44
0.0000000001
 12
90.4010486233
 22
0.5965356985
 32
0.0
 13
90.4010476179
 23
-0.5966880429
 33
0.0
 40
0.0
 40
0.0
 40
0.0
 40
0.0
 40
0.0665082524
 40
0.1249657889
 40
0.1750829074
 40
0.2168538928
 40
0.2515003554
 40
0.2813128902
 40
0.3083442903
 40
0.3338834145
 40
0.358418289
 40
0.3818948717
 40
0.4040791085
 40
0.4245831695
 40
0.443501895
 40
0.4611106925
 40
0.4777618584
 40
0.4938570961
 40
0.5098093535
 40
0.5260134232
 40
0.542879583
 40
0.5607773961
 40
0.5800109971
 40
0.6008029637
 40
0.6231077149
 40
0.6465140163
 40
0.6708569649
 40
0.6961752755
 40
0.7230521691
 40
0.7527671009
 40
0.7872676335
 40
0.8286153393
 40
0.8778881368
 40
0.9350983464
 40
1.0
 40
1.0
 40
1.0
 40
1.0
 10
-45.1848309675
 20
-47.180720511
 30
0.0
 10
-43.1806923801
 20
-47.1674956621
 30
0.0
 10
-39.4150589487
 20
-47.133734849
 30
0.0
 10
-34.139632806
 20
-47.0523911126
 30
0.0
 10
-29.6102680747
 20
-46.9453688853
 30
0.0
 10
-25.7992750618
 20
-46.8187001898
 30
0.0
 10
-22.6009548105
 20
-46.6829216036
 30
0.0
 10
-19.8470978413
 20
-46.5512672464
 30
0.0
 10
-17.3672210241
 20
-46.4357677996
 30
0.0
 10
-15.0455267484
 20
-46.3430426216
 30
0.0
 10
-12.8301990622
 20
-46.2733327207
 30
0.0
 10
-10.7154738722
 20
-46.2232440219
 30
0.0
 10
-8.7219305935
 20
-46.188550585
 30
0.0
 10
-6.8655832666
 20
-46.1653376247
 30
0.0
 10
-5.1470373118
 20
-46.1502553951
 30
0.0
 10
-3.5445580944
 20
-46.1409141418
 30
0.0
 10
-2.0271454043
 20
-46.1356395483
 30
0.0
 10
-0.5596442809
 20
-46.1334619285
 30
0.0
 10
0.8943853425
 20
-46.1337228821
 30
0.0
 10
2.3716437248
 20
-46.1365558946
 30
0.0
 10
3.907521111
 20
-46.142666887
 30
0.0
 10
5.5346704378
 20
-46.1531710628
 30
0.0
 10
7.2800769025
 20
-46.1698610975
 30
0.0
 10
9.1581946895
 20
-46.195235687
 30
0.0
 10
11.1618817546
 20
-46.232625942
 30
0.0
 10
13.2722595845
 20
-46.2858791214
 30
0.0
 10
15.4729212253
 20
-46.3587657283
 30
0.0
 10
17.7773997611
 20
-46.4540634559
 30
0.0
 10
20.2429657342
 20
-46.5704306373
 30
0.0
 10
22.9848994267
 20
-46.7003489938
 30
0.0
 10
26.1632770473
 20
-46.8321503266
 30
0.0
 10
29.9318047
 20
-46.9540181911
 30
0.0
 10
34.3854577457
 20
-47.0567414129
 30
0.0
 10
39.5494693162
 20
-47.1350327742
 30
0.0
 10
43.2291051404
 20
-47.1678118303
 30
0.0
 10
45.184830967
 20
-47.1807205106
 30
0.0
 11
-45.1848309675
 21
-47.180720511
 31
0.0
 11
-39.1725455011
 21
-47.1246773463
 31
0.0
 11
-33.8884745692
 21
-47.0407345012
 31
0.0
 11
-29.3590523227
 21
-46.9315220808
 31
0.0
 11
-25.5849412947
 21
-46.8052412498
 31
0.0
 11
-22.4555579505
 21
-46.6737478769
 31
0.0
 11
-19.7633572719
 21
-46.5478439678
 31
0.0
 11
-17.3221774846
 21
-46.4364472397
 31
0.0
 11
-15.0151692437
 21
-46.3451538097
 31
0.0
 11
-12.7982438798
 21
-46.2752663518
 31
0.0
 11
-10.6764947028
 21
-46.224605719
 31
0.0
 11
-8.6712823175
 21
-46.1893707321
 31
0.0
 11
-6.8178014607
 21
-46.1659382788
 31
0.0
 11
-5.1075587864
 21
-46.1507790564
 31
0.0
 11
-3.5156980712
 21
-46.141387698
 31
0.0
 11
-2.0103917594
 21
-46.1360895985
 31
0.0
 11
-0.5553354262
 21
-46.1338607168
 31
0.0
 11
0.886796741
 21
-46.134136053
 31
0.0
 11
2.3516907076
 21
-46.1370107627
 31
0.0
 11
3.8764300606
 21
-46.1431538936
 31
0.0
 11
5.494411864
 21
-46.1537187766
 31
0.0
 11
7.2331063257
 21
-46.1705115324
 31
0.0
 11
9.1125876143
 21
-46.1961760062
 31
0.0
 11
11.1286466036
 21
-46.2341609104
 31
0.0
 11
13.2439646058
 21
-46.2878903643
 31
0.0
 11
15.4434342563
 21
-46.3607469812
 31
0.0
 11
17.7303740541
 21
-46.4542790376
 31
0.0
 11
20.1575348098
 21
-46.566469668
 31
0.0
 11
22.8409625554
 21
-46.6910806036
 31
0.0
 11
25.9572784363
 21
-46.8192926778
 31
0.0
 11
29.6932527879
 21
-46.9410331445
 31
0.0
 11
34.1464301464
 21
-47.0457983155
 31
0.0
 11
39.3177764966
 21
-47.1264699254
 31
0.0
 11
45.184830967
 21
-47.1807205106
 31
0.0
  0
SPLINE
  5
51B
100
AcDbEntity
  8
RACCORDO
100
AcDbSpline
 62
253
  6
CONTINUOUS
 70
0
 71
3
 72
10
 73
6
 74
4
 42
0.0000001
 43
0.0000001
 44
0.0000000001
 12
0.0066016533
 22
-1.0135832727
 32
0.0
 13
0.9361755943
 23
-0.3885484387
 33
0.0
 40
0.0
 40
0.0
 40
0.0
 40
0.0
 40
0.4787735185
 40
0.8399505654
 40
1.0
 40
1.0
 40
1.0
 40
1.0
 10
-45.309778824
 20
-46.1820847214
 30
0.0
 10
-45.3087252585
 20
-46.3438436646
 30
0.0
 10
-45.3054050598
 20
-46.640497903
 30
0.0
 10
-45.2501845822
 20
-46.9386246682
 30
0.0
 10
-45.234775759
 20
-47.159991525
 30
0.0
 10
-45.1848309675
 20
-47.180720511
 30
0.0
 11
-45.309778824
 21
-46.1820847214
 31
0.0
 11
-45.2909491871
 21
-46.667006402
 31
0.0
 11
-45.2454996843
 21
-47.0302649882
 31
0.0
 11
-45.1848309675
 21
-47.180720511
 31
0.0
  0
SPLINE
  5
51C
100
AcDbEntity
  8
RACCORDO
100
AcDbSpline
 62
253
  6
CONTINUOUS
 70
0
 71
3
 72
10
 73
6
 74
4
 42
0.0000001
 43
0.0000001
 44
0.0000000001
 12
-0.0047039499
 22
1.0063765888
 32
0.0
 13
-0.8699287806
 23
0.5060038363
 33
0.0
 40
0.0
 40
0.0
 40
0.0
 40
0.0
 40
0.4819614466
 40
0.8443370661
 40
1.0
 40
1.0
 40
1.0
 40
1.0
 10
45.2763903539
 20
46.1869283918
 30
0.0
 10
45.2756346464
 20
46.3486066306
 30
0.0
 10
45.2785022957
 20
46.643667958
 30
0.0
 10
45.2237128248
 20
46.9434108106
 30
0.0
 10
45.2320362321
 20
47.1592709249
 30
0.0
 10
45.1868976767
 20
47.1855262722
 30
0.0
 11
45.2763903539
 21
46.1869283918
 31
0.0
 11
45.2629008654
 21
46.6717807918
 31
0.0
 11
45.2303483874
 21
47.0350153831
 31
0.0
 11
45.1868976767
 21
47.1855262722
 31
0.0
  0
SPLINE
  5
51D
100
AcDbEntity
  8
RACCORDO
100
AcDbSpline
 62
253
  6
CONTINUOUS
 70
0
 71
3
 72
10
 73
6
 74
4
 42
0.0000001
 43
0.0000001
 44
0.0000000001
 12
-0.0003081374
 22
0.2046349512
 32
0.0
 13
-0.2042763705
 23
0.0121129115
 33
0.0
 40
0.0
 40
0.0
 40
0.0
 40
0.0
 40
0.4861754867
 40
0.8472416256
 40
1.0
 40
1.0
 40
1.0
 40
1.0
 10
43.2338798741
 20
-15.2018646673
 30
0.0
 10
43.2338299378
 20
-15.1687018349
 30
0.0
 10
43.2321438766
 20
-15.1070774322
 30
0.0
 10
43.2223100708
 20
-15.0504221118
 30
0.0
 10
43.2138714932
 20
-15.0026748556
 30
0.0
 10
43.2034698511
 20
-15.0020580727
 30
0.0
 11
43.2338798741
 21
-15.2018646673
 31
0.0
 11
43.2297066242
 21
-15.1024636237
 31
0.0
 11
43.2185897684
 21
-15.0294178848
 31
0.0
 11
43.2034698511
 21
-15.0020580727
 31
0.0
  0
SPLINE
  5
51E
100
AcDbEntity
  8
RACCORDO
100
AcDbSpline
 62
253
  6
CONTINUOUS
 70
0
 71
3
 72
10
 73
6
 74
4
 42
0.0000001
 43
0.0000001
 44
0.0000000001
 12
-0.0002107302
 22
-0.2047772031
 32
0.0
 13
-0.2044202477
 23
-0.0120875823
 33
0.0
 40
0.0
 40
0.0
 40
0.0
 40
0.0
 40
0.4869365514
 40
0.8484451444
 40
1.0
 40
1.0
 40
1.0
 40
1.0
 10
43.2325525124
 20
-4.7950066467
 30
0.0
 10
43.2325183083
 20
-4.8282444817
 30
0.0
 10
43.2310837311
 20
-4.8901308819
 30
0.0
 10
43.2211665144
 20
-4.9464721387
 30
0.0
 10
43.2136834022
 20
-4.9947036245
 30
0.0
 10
43.2033564418
 20
-4.9953142685
 30
0.0
 11
43.2325525124
 21
-4.7950066467
 31
0.0
 11
43.2285727008
 21
-4.8946407509
 31
0.0
 11
43.2178953308
 21
-4.9678954487
 31
0.0
 11
43.2033564418
 21
-4.9953142685
 31
0.0
  0
SPLINE
  5
51F
100
AcDbEntity
  8
RACCORDO
100
AcDbSpline
 62
253
  6
CONTINUOUS
 70
0
 71
3
 72
11
 73
7
 74
5
 42
0.0000001
 43
0.0000001
 44
0.0000000001
 12
0.8099743923
 22
-0.702371839
 32
0.0
 13
0.0003485974
 23
-1.0703182882
 33
0.0
 40
0.0
 40
0.0
 40
0.0
 40
0.0
 40
0.0791409254
 40
0.3433659963
 40
0.6506891001
 40
1.0
 40
1.0
 40
1.0
 40
1.0
 10
-25.4787778412
 20
-5.0395946415
 30
0.0
 10
-25.4574104669
 20
-5.0581234273
 30
0.0
 10
-25.3674334045
 20
-5.1416768275
 30
0.0
 10
-25.2211735992
 20
-5.324557512
 30
0.0
 10
-25.0826603269
 20
-5.6264494395
 30
0.0
 10
-25.047589757
 20
-5.8623224908
 30
0.0
 10
-25.0475491674
 20
-5.9869471056
 30
0.0
 11
-25.4787778412
 21
-5.0395946415
 31
0.0
 11
-25.4166134172
 21
-5.0973271991
 31
0.0
 11
-25.239944066
 21
-5.3181587519
 31
0.0
 11
-25.1029292252
 21
-5.6171975747
 31
0.0
 11
-25.0475491674
 21
-5.9869471056
 31
0.0
  0
LINE
  5
520
100
AcDbEntity
  8
RACCORDO
100
AcDbLine
 62
253
  6
CONTINUOUS
 10
-43.2325525852
 20
-4.7950066476
 11
-42.9005192319
 21
-4.7945191016
  0
LINE
  5
521
100
AcDbEntity
  8
RACCORDO
100
AcDbLine
 62
253
  6
CONTINUOUS
 10
-42.9005192319
 20
-4.7945191016
 11
-42.4653900712
 21
-4.7938523933
  0
SPLINE
  5
522
100
AcDbEntity
  8
RACCORDO
100
AcDbSpline
 62
253
  6
CONTINUOUS
 70
0
 71
3
 72
8
 73
4
 74
2
 42
0.0000001
 43
0.0000001
 44
0.0000000001
 12
3.2730845273
 22
0.0051358838
 32
0.0
 13
3.2730807751
 23
0.0071964389
 33
0.0
 40
0.0
 40
0.0
 40
0.0
 40
0.0
 40
1.0
 40
1.0
 40
1.0
 40
1.0
 10
-42.4653900712
 20
-4.7938523933
 30
0.0
 10
-41.3743618954
 20
-4.7921404321
 30
0.0
 10
-40.2833341429
 20
-4.7901221934
 30
0.0
 10
-39.1923072178
 20
-4.7877233805
 30
0.0
 11
-42.4653900712
 21
-4.7938523933
 31
0.0
 11
-39.1923072178
 21
-4.7877233805
 31
0.0
  0
LINE
  5
523
100
AcDbEntity
  8
RACCORDO
100
AcDbLine
 62
253
  6
CONTINUOUS
 10
-39.1923072178
 20
-4.7877233805
 11
-38.097200371
 21
-4.785185005
  0
LINE
  5
524
100
AcDbEntity
  8
RACCORDO
100
AcDbLine
 62
253
  6
CONTINUOUS
 10
-44.4286907657
 20
-14.0004802427
 11
-44.4286466466
 21
-13.394747156
  0
LINE
  5
525
100
AcDbEntity
  8
RACCORDO
100
AcDbLine
 62
253
  6
CONTINUOUS
 10
-44.4286466466
 20
-13.394747156
 11
-44.4286001073
 21
-12.7748189065
  0
LINE
  5
526
100
AcDbEntity
  8
RACCORDO
100
AcDbLine
 62
253
  6
CONTINUOUS
 10
-44.4286001073
 20
-12.7748189065
 11
-44.4280626518
 21
-6.7045881142
  0
LINE
  5
527
100
AcDbEntity
  8
RACCORDO
100
AcDbLine
 62
253
  6
CONTINUOUS
 10
-44.4280626518
 20
-6.7045881142
 11
-44.4279892894
 21
-5.9965720621
  0
LINE
  5
528
100
AcDbEntity
  8
RACCORDO
100
AcDbLine
 62
253
  6
CONTINUOUS
 10
-26.3090671068
 20
-15.2489184395
 11
-27.4670822223
 21
-15.2433694063
  0
SPLINE
  5
529
100
AcDbEntity
  8
RACCORDO
100
AcDbSpline
 62
253
  6
CONTINUOUS
 70
0
 71
3
 72
10
 73
6
 74
4
 42
0.0000001
 43
0.0000001
 44
0.0000000001
 12
-10.6883084309
 22
0.049191393
 32
0.0
 13
-10.6884010298
 23
0.0209172724
 33
0.0
 40
0.0
 40
0.0
 40
0.0
 40
0.0
 40
0.2268549882
 40
0.5912169299
 40
1.0
 40
1.0
 40
1.0
 40
1.0
 10
-27.4670822223
 20
-15.2433694063
 30
0.0
 10
-28.2753142499
 20
-15.2396496353
 30
0.0
 10
-30.3816877682
 20
-15.2307808653
 30
0.0
 10
-33.944476388
 20
-15.2191355922
 30
0.0
 10
-36.6990358427
 20
-15.2127626328
 30
0.0
 10
-38.1554483052
 20
-15.2099124238
 30
0.0
 11
-27.4670822223
 21
-15.2433694063
 31
0.0
 11
-29.8917823816
 21
-15.2331356818
 31
0.0
 11
-33.7862148976
 21
-15.220237122
 31
0.0
 11
-38.1554483052
 21
-15.2099124238
 31
0.0
  0
LINE
  5
52A
100
AcDbEntity
  8
RACCORDO
100
AcDbLine
 62
253
  6
CONTINUOUS
 10
-38.1554483052
 20
-15.2099124238
 11
-39.8261092633
 21
-15.2068627777
  0
LINE
  5
52B
100
AcDbEntity
  8
RACCORDO
100
AcDbLine
 62
253
  6
CONTINUOUS
 10
-39.8261092633
 20
-15.2068627777
 11
-39.9170375764
 21
-15.2067089603
  0
SPLINE
  5
52C
100
AcDbEntity
  8
RACCORDO
100
AcDbSpline
 62
253
  6
CONTINUOUS
 70
0
 71
3
 72
8
 73
4
 74
2
 42
0.0000001
 43
0.0000001
 44
0.0000000001
 12
-2.5505902621
 22
0.0042977058
 32
0.0
 13
-2.5505915481
 23
0.003427841
 33
0.0
 40
0.0
 40
0.0
 40
0.0
 40
0.0
 40
1.0
 40
1.0
 40
1.0
 40
1.0
 10
-39.9170375764
 20
-15.2067089603
 30
0.0
 10
-40.7672343304
 20
-15.2052763917
 30
0.0
 10
-41.6174313484
 20
-15.2040020756
 30
0.0
 10
-42.4676285311
 20
-15.202859462
 30
0.0
 11
-39.9170375764
 21
-15.2067089603
 31
0.0
 11
-42.4676285311
 21
-15.202859462
 31
0.0
  0
LINE
  5
52D
100
AcDbEntity
  8
RACCORDO
100
AcDbLine
 62
253
  6
CONTINUOUS
 10
-42.4676285311
 20
-15.202859462
 11
-42.9004287306
 21
-15.2022890514
  0
LINE
  5
52E
100
AcDbEntity
  8
RACCORDO
100
AcDbLine
 62
253
  6
CONTINUOUS
 10
-42.9004287306
 20
-15.2022890514
 11
-43.2338914941
 21
-15.2018645916
  0
LINE
  5
52F
100
AcDbEntity
  8
RACCORDO
100
AcDbLine
 62
253
  6
CONTINUOUS
 10
-25.0475491674
 20
-5.9869471056
 11
-25.0478736889
 21
-6.7058256963
  0
LINE
  5
530
100
AcDbEntity
  8
RACCORDO
100
AcDbLine
 62
253
  6
CONTINUOUS
 10
-25.0478736889
 20
-6.7058256963
 11
-25.0484715749
 21
-8.1231989905
  0
LINE
  5
531
100
AcDbEntity
  8
RACCORDO
100
AcDbLine
 62
253
  6
CONTINUOUS
 10
-25.0484715749
 20
-8.1231989905
 11
-25.0500969747
 21
-12.7823744693
  0
LINE
  5
532
100
AcDbEntity
  8
RACCORDO
100
AcDbLine
 62
253
  6
CONTINUOUS
 10
-25.0500969747
 20
-12.7823744693
 11
-25.0502768368
 21
-13.3944855239
  0
LINE
  5
533
100
AcDbEntity
  8
RACCORDO
100
AcDbLine
 62
253
  6
CONTINUOUS
 10
-25.0502768368
 20
-13.3944855239
 11
-25.0504453658
 21
-13.9907351301
  0
SPLINE
  5
534
100
AcDbEntity
  8
RACCORDO
100
AcDbSpline
 62
253
  6
CONTINUOUS
 70
0
 71
3
 72
23
 73
19
 74
17
 42
0.0000001
 43
0.0000001
 44
0.0000000001
 12
0.0000156409
 22
90.382742143
 32
0.0
 13
0.0000928866
 23
90.3827421429
 33
0.0
 40
0.0
 40
0.0
 40
0.0
 40
0.0
 40
0.0939036851
 40
0.1807447582
 40
0.259983183
 40
0.3317895105
 40
0.3969832991
 40
0.4564106755
 40
0.5106839143
 40
0.5600745673
 40
0.6066433454
 40
0.6559425121
 40
0.7109324866
 40
0.7706235026
 40
0.8335146201
 40
0.8917964563
 40
0.945221541
 40
1.0
 40
1.0
 40
1.0
 40
1.0
 10
47.1883265146
 20
-45.1896979191
 30
0.0
 10
47.1883270042
 20
-42.3606070674
 30
0.0
 10
47.188329721
 20
-36.9152047749
 30
0.0
 10
47.1883396637
 20
-29.0825404444
 30
0.0
 10
47.188355116
 20
-21.915616038
 30
0.0
 10
47.1883758064
 20
-15.4008719449
 30
0.0
 10
47.1884015452
 20
-9.4829868101
 30
0.0
 10
47.1884322564
 20
-4.0933312218
 30
0.0
 10
47.1884678042
 20
0.8202141253
 30
0.0
 10
47.1885082639
 20
5.3463610118
 30
0.0
 10
47.1885553957
 20
9.7226511438
 30
0.0
 10
47.1886132495
 20
14.2676352829
 30
0.0
 10
47.1886856679
 20
19.2079607042
 30
0.0
 10
47.1887686781
 20
24.5577787185
 30
0.0
 10
47.188843375
 20
30.0067725637
 30
0.0
 10
47.1888948857
 20
35.2669890589
 30
0.0
 10
47.1889241281
 20
40.2827907795
 30
0.0
 10
47.1889320682
 20
43.5427017758
 30
0.0
 10
47.1889337643
 20
45.1930442207
 30
0.0
 11
47.1883265146
 21
-45.1896979191
 31
0.0
 11
47.1883309596
 21
-36.7024253641
 31
0.0
 11
47.1883411674
 21
-28.8534910417
 31
0.0
 11
47.188356876
 21
-21.6917049273
 31
0.0
 11
47.1883777696
 21
-15.201652145
 31
0.0
 11
47.1884036867
 21
-9.3092587624
 31
0.0
 11
47.1884345791
 21
-3.9380495231
 31
0.0
 11
47.1884703275
 21
0.9673146201
 31
0.0
 11
47.188510426
 21
5.4313772789
 31
0.0
 11
47.1885558451
 21
9.6403911363
 31
0.0
 11
47.1886124218
 21
14.0961850159
 31
0.0
 11
47.1886842733
 21
19.0663296963
 31
0.0
 11
47.1887655988
 21
24.4613674003
 31
0.0
 11
47.1888414277
 21
30.1456390592
 31
0.0
 11
47.1888926885
 21
35.4133112321
 31
0.0
 11
47.1889211928
 21
40.2420168858
 31
0.0
 11
47.1889337643
 21
45.1930442207
 31
0.0
  0
SPLINE
  5
535
100
AcDbEntity
  8
RACCORDO
100
AcDbSpline
 62
253
  6
CONTINUOUS
 70
0
 71
3
 72
22
 73
18
 74
16
 42
0.0000001
 43
0.0000001
 44
0.0000000001
 12
0.0000928076
 22
-90.3827421435
 32
0.0
 13
0.0000156689
 23
-90.3827421436
 33
0.0
 40
0.0
 40
0.0
 40
0.0
 40
0.0
 40
0.0848266228
 40
0.1630064286
 40
0.2330593256
 40
0.2951811162
 40
0.3504804273
 40
0.3995280984
 40
0.4464311799
 40
0.496727331
 40
0.5508742256
 40
0.6090420247
 40
0.6721544461
 40
0.7418985003
 40
0.8198371195
 40
0.9064331103
 40
1.0
 40
1.0
 40
1.0
 40
1.0
 10
-47.1889337642
 20
45.1930442207
 30
0.0
 10
-47.18893114
 20
42.6374232969
 30
0.0
 10
-47.1889153788
 20
37.7264339613
 30
0.0
 10
-47.1888534172
 20
30.7049203185
 30
0.0
 10
-47.1887659844
 20
24.3674483406
 30
0.0
 10
-47.1886780684
 20
18.7193103139
 30
0.0
 10
-47.1886055485
 20
13.7040089245
 30
0.0
 10
-47.1885487124
 20
9.1472104198
 30
0.0
 10
-47.1885023784
 20
4.7411450265
 30
0.0
 10
-47.1884627438
 20
0.1814523631
 30
0.0
 10
-47.1884283598
 20
-4.7176189879
 30
0.0
 10
-47.1883990725
 20
-10.0028135597
 30
0.0
 10
-47.1883745729
 20
-15.7579128129
 30
0.0
 10
-47.1883546691
 20
-22.1086590436
 30
0.0
 10
-47.1883395469
 20
-29.1669084068
 30
0.0
 10
-47.188329707
 20
-36.9428821716
 30
0.0
 10
-47.188327004
 20
-42.3707538969
 30
0.0
 10
-47.1883265153
 20
-45.1896979198
 30
0.0
 11
-47.1889337642
 21
45.1930442207
 31
0.0
 11
-47.1889072684
 21
37.5261814493
 31
0.0
 11
-47.1888450805
 21
30.4600762143
 31
0.0
 11
-47.1887607087
 21
24.1285032925
 31
0.0
 11
-47.1886759638
 21
18.5137655153
 31
0.0
 11
-47.1886045793
 21
13.515662134
 31
0.0
 11
-47.1885493846
 21
9.0825991242
 31
0.0
 11
-47.1885046968
 21
4.8433700012
 31
0.0
 11
-47.1884649737
 21
0.2974659539
 31
0.0
 11
-47.1884303717
 21
-4.5964788659
 31
0.0
 11
-47.1884009775
 21
-9.8538440517
 31
0.0
 11
-47.1883764377
 21
-15.5581177616
 31
0.0
 11
-47.1883564268
 21
-21.8617766253
 31
0.0
 11
-47.1883410813
 21
-28.9060827439
 31
0.0
 11
-47.1883309351
 21
-36.7328658512
 31
0.0
 11
-47.1883265153
 21
-45.1896979198
 31
0.0
  0
SPLINE
  5
536
100
AcDbEntity
  8
RACCORDO
100
AcDbSpline
 62
253
  6
CONTINUOUS
 70
0
 71
3
 72
13
 73
9
 74
7
 42
0.0000001
 43
0.0000001
 44
0.0000000001
 12
-0.7610424658
 22
-0.0067702379
 32
0.0
 13
-0.0359962416
 23
-0.7608038803
 33
0.0
 40
0.0
 40
0.0
 40
0.0
 40
0.0
 40
0.1334254229
 40
0.2863421167
 40
0.4621361853
 40
0.6562484989
 40
0.8620182623
 40
1.0
 40
1.0
 40
1.0
 40
1.0
 10
-100.2939927057
 20
-5.4467334787
 30
0.0
 10
-100.3278401766
 20
-5.447034586
 30
0.0
 10
-100.4008678646
 20
-5.4672597834
 30
0.0
 10
-100.4927574426
 20
-5.5437047211
 30
0.0
 10
-100.5675578057
 20
-5.6547401172
 30
0.0
 10
-100.6224393289
 20
-5.7909889959
 30
0.0
 10
-100.6517750328
 20
-5.9247837792
 30
0.0
 10
-100.6599883618
 20
-6.0118122003
 30
0.0
 10
-100.6616439698
 20
-6.0468045475
 30
0.0
 11
-100.2939927057
 21
-5.4467334787
 31
0.0
 11
-100.3924028418
 21
-5.4717758968
 31
0.0
 11
-100.4842415225
 21
-5.5432610328
 31
0.0
 11
-100.5609489348
 21
-5.6528798462
 31
0.0
 11
-100.617484196
 21
-5.7893678264
 31
0.0
 11
-100.6516972465
 21
-5.9421906655
 31
0.0
 11
-100.6616439698
 21
-6.0468045475
 31
0.0
  0
LINE
  5
537
100
AcDbEntity
  8
RACCORDO
100
AcDbLine
 62
253
  6
CONTINUOUS
 10
-94.7085408244
 20
-5.398206291
 11
-100.2939927057
 21
-5.4467334787
  0
SPLINE
  5
538
100
AcDbEntity
  8
RACCORDO
100
AcDbSpline
 62
253
  6
CONTINUOUS
 70
0
 71
3
 72
8
 73
4
 74
2
 42
0.0000001
 43
0.0000001
 44
0.0000000001
 12
-0.0134826655
 22
0.0065064159
 32
0.0
 13
-0.0150024222
 23
-0.0001357068
 33
0.0
 40
0.0
 40
0.0
 40
0.0
 40
0.0
 40
1.0
 40
1.0
 40
1.0
 40
1.0
 10
-94.6942871063
 20
-5.4015862407
 30
0.0
 10
-94.6987813281
 20
-5.3994174354
 30
0.0
 10
-94.703540017
 20
-5.3981610554
 30
0.0
 10
-94.7085408244
 20
-5.398206291
 30
0.0
 11
-94.6942871063
 21
-5.4015862407
 31
0.0
 11
-94.7085408244
 21
-5.398206291
 31
0.0
  0
SPLINE
  5
539
100
AcDbEntity
  8
RACCORDO
100
AcDbSpline
 62
253
  6
CONTINUOUS
 70
0
 71
3
 72
8
 73
4
 74
2
 42
0.0000001
 43
0.0000001
 44
0.0000000001
 12
0.0167967235
 22
-0.0742662639
 32
0.0
 13
0.0198671882
 23
-0.0737349575
 33
0.0
 40
0.0
 40
0.0
 40
0.0
 40
0.0
 40
1.0
 40
1.0
 40
1.0
 40
1.0
 10
-94.9115986511
 20
-8.9556446189
 30
0.0
 10
-94.9059997433
 20
-8.9804000402
 30
0.0
 10
-94.8997617348
 20
-9.0046008837
 30
0.0
 10
-94.8931393387
 20
-9.0291792029
 30
0.0
 11
-94.9115986511
 21
-8.9556446189
 31
0.0
 11
-94.8931393387
 21
-9.0291792029
 31
0.0
  0
SPLINE
  5
53A
100
AcDbEntity
  8
RACCORDO
100
AcDbSpline
 62
253
  6
CONTINUOUS
 70
0
 71
3
 72
12
 73
8
 74
6
 42
0.0000001
 43
0.0000001
 44
0.0000000001
 12
0.1438911083
 22
-0.5340365554
 32
0.0
 13
0.1113688441
 23
0.5337711645
 33
0.0
 40
0.0
 40
0.0
 40
0.0
 40
0.0
 40
0.2150627371
 40
0.4176820312
 40
0.5151918814
 40
0.7130420369
 40
1.0
 40
1.0
 40
1.0
 40
1.0
 10
-94.8931393387
 20
-9.0291792029
 30
0.0
 10
-94.8828241335
 20
-9.0674629906
 30
0.0
 10
-94.8609793194
 20
-9.1435941502
 30
0.0
 10
-94.8341742465
 20
-9.258146893
 30
0.0
 10
-94.7198259543
 20
-9.2590056164
 30
0.0
 10
-94.6940126011
 20
-9.1263489636
 30
0.0
 10
-94.6723538476
 20
-9.0408757713
 30
0.0
 10
-94.661701122
 20
-8.9898191426
 30
0.0
 11
-94.8931393387
 21
-9.0291792029
 31
0.0
 11
-94.8603585136
 21
-9.1503003744
 31
0.0
 11
-94.8044122677
 21
-9.251338679
 31
0.0
 11
-94.7488315668
 21
-9.251443528
 31
0.0
 11
-94.6979346682
 21
-9.1508070619
 31
0.0
 11
-94.661701122
 21
-8.9898191426
 31
0.0
  0
SPLINE
  5
53B
100
AcDbEntity
  8
RACCORDO
100
AcDbSpline
 62
253
  6
CONTINUOUS
 70
0
 71
3
 72
12
 73
8
 74
6
 42
0.0000001
 43
0.0000001
 44
0.0000000001
 12
-0.1107031857
 22
0.5416904525
 32
0.0
 13
-0.1458980917
 23
-0.5411727878
 33
0.0
 40
0.0
 40
0.0
 40
0.0
 40
0.0
 40
0.2961426185
 40
0.4919261894
 40
0.5882176163
 40
0.7880746591
 40
1.0
 40
1.0
 40
1.0
 40
1.0
 10
-94.6601834189
 20
-7.0149407837
 30
0.0
 10
-94.671111396
 20
-6.9614682407
 30
0.0
 10
-94.6933649627
 20
-6.8742063473
 30
0.0
 10
-94.7196094519
 20
-6.7384088852
 30
0.0
 10
-94.8341050379
 20
-6.7389651076
 30
0.0
 10
-94.8609375698
 20
-6.8535476108
 30
0.0
 10
-94.8827760068
 20
-6.9296154691
 30
0.0
 10
-94.8930825077
 20
-6.9678448783
 30
0.0
 11
-94.6601834189
 21
-7.0149407837
 31
0.0
 11
-94.6977943189
 21
-6.8468704314
 31
0.0
 11
-94.7487381816
 21
-6.7458861014
 31
0.0
 11
-94.8043669528
 21
-6.7458734608
 31
0.0
 11
-94.8603217162
 21
-6.8468688139
 31
0.0
 11
-94.8930825077
 21
-6.9678448783
 31
0.0
  0
SPLINE
  5
53C
100
AcDbEntity
  8
RACCORDO
100
AcDbSpline
 62
253
  6
CONTINUOUS
 70
0
 71
3
 72
8
 73
4
 74
2
 42
0.0000001
 43
0.0000001
 44
0.0000000001
 12
-0.0198549834
 22
-0.0736471368
 32
0.0
 13
-0.0167871126
 23
-0.074177287
 33
0.0
 40
0.0
 40
0.0
 40
0.0
 40
0.0
 40
1.0
 40
1.0
 40
1.0
 40
1.0
 10
-94.8930825077
 20
-6.9678448783
 30
0.0
 10
-94.8997008355
 20
-6.9923939239
 30
0.0
 10
-94.9059345441
 20
-7.0165639311
 30
0.0
 10
-94.9115302483
 20
-7.0412896935
 30
0.0
 11
-94.8930825077
 21
-6.9678448783
 31
0.0
 11
-94.9115302483
 21
-7.0412896935
 31
0.0
  0
SPLINE
  5
53D
100
AcDbEntity
  8
RACCORDO
100
AcDbSpline
 62
253
  6
CONTINUOUS
 70
0
 71
3
 72
8
 73
4
 74
2
 42
0.0000001
 43
0.0000001
 44
0.0000000001
 12
0.0167786591
 22
-0.0741778879
 32
0.0
 13
0.0198357791
 23
-0.0736482519
 33
0.0
 40
0.0
 40
0.0
 40
0.0
 40
0.0
 40
1.0
 40
1.0
 40
1.0
 40
1.0
 10
-94.9116382511
 20
-12.9554280916
 30
0.0
 10
-94.9060453647
 20
-12.9801540543
 30
0.0
 10
-94.8998130912
 20
-13.0043290902
 30
0.0
 10
-94.8932011649
 20
-13.0288785075
 30
0.0
 11
-94.9116382511
 21
-12.9554280916
 31
0.0
 11
-94.8932011649
 21
-13.0288785075
 31
0.0
  0
SPLINE
  5
53E
100
AcDbEntity
  8
RACCORDO
100
AcDbSpline
 62
253
  6
CONTINUOUS
 70
0
 71
3
 72
12
 73
8
 74
6
 42
0.0000001
 43
0.0000001
 44
0.0000000001
 12
0.1403779597
 22
-0.5212092403
 32
0.0
 13
0.1122823401
 23
0.5205863745
 33
0.0
 40
0.0
 40
0.0
 40
0.0
 40
0.0
 40
0.2202254524
 40
0.4283048642
 40
0.5284464817
 40
0.7315827438
 40
1.0
 40
1.0
 40
1.0
 40
1.0
 10
-94.8932011649
 20
-13.0288785075
 30
0.0
 10
-94.8828962316
 20
-13.0671396877
 30
0.0
 10
-94.8610611894
 20
-13.1433204569
 30
0.0
 10
-94.8344060404
 20
-13.2579046231
 30
0.0
 10
-94.7198070237
 20
-13.2592057697
 30
0.0
 10
-94.6950876468
 20
-13.1319480515
 30
0.0
 10
-94.6745608573
 20
-13.0495969739
 30
0.0
 10
-94.6645146848
 20
-13.0030188518
 30
0.0
 11
-94.8932011649
 21
-13.0288785075
 31
0.0
 11
-94.8605030795
 21
-13.1498931902
 31
0.0
 11
-94.8045659048
 21
-13.251207164
 31
0.0
 11
-94.7488695995
 21
-13.2514990493
 31
0.0
 11
-94.6978848152
 21
-13.1506762056
 31
0.0
 11
-94.6645146848
 21
-13.0030188518
 31
0.0
  0
SPLINE
  5
53F
100
AcDbEntity
  8
RACCORDO
100
AcDbSpline
 62
253
  6
CONTINUOUS
 70
0
 71
3
 72
12
 73
8
 74
6
 42
0.0000001
 43
0.0000001
 44
0.0000000001
 12
-0.1118329312
 22
0.5260569577
 32
0.0
 13
-0.142003162
 23
-0.526308665
 33
0.0
 40
0.0
 40
0.0
 40
0.0
 40
0.0
 40
0.2774204627
 40
0.4784453221
 40
0.5773199871
 40
0.7823160339
 40
1.0
 40
1.0
 40
1.0
 40
1.0
 10
-94.6631781963
 20
-11.0005217777
 30
0.0
 10
-94.6735197775
 20
-10.9518754562
 30
0.0
 10
-94.694573415
 20
-10.8680165799
 30
0.0
 10
-94.7196705641
 20
-10.7384613965
 30
0.0
 10
-94.8339514697
 20
-10.7388918574
 30
0.0
 10
-94.8608543421
 20
-10.8532624493
 30
0.0
 10
-94.8826803644
 20
-10.9292002082
 30
0.0
 10
-94.8929843015
 20
-10.9673898607
 30
0.0
 11
-94.6631781963
 21
-11.0005217777
 31
0.0
 11
-94.697849498
 21
-10.8467227684
 31
0.0
 11
-94.7487531801
 21
-10.7458915852
 31
0.0
 11
-94.804308825
 21
-10.745828931
 31
0.0
 11
-94.8602053558
 21
-10.8465400753
 31
0.0
 11
-94.8929843015
 21
-10.9673898607
 31
0.0
  0
SPLINE
  5
540
100
AcDbEntity
  8
RACCORDO
100
AcDbSpline
 62
253
  6
CONTINUOUS
 70
0
 71
3
 72
8
 73
4
 74
2
 42
0.0000001
 43
0.0000001
 44
0.0000000001
 12
-0.0198663945
 22
-0.0736311459
 32
0.0
 13
-0.0167943122
 23
-0.074160018
 33
0.0
 40
0.0
 40
0.0
 40
0.0
 40
0.0
 40
1.0
 40
1.0
 40
1.0
 40
1.0
 10
-94.8929843015
 20
-10.9673898607
 30
0.0
 10
-94.899606433
 20
-10.9919335761
 30
0.0
 10
-94.9058416897
 20
-11.0160977231
 30
0.0
 10
-94.9114397938
 20
-11.0408177291
 30
0.0
 11
-94.8929843015
 21
-10.9673898607
 31
0.0
 11
-94.9114397938
 21
-11.0408177291
 31
0.0
  0
SPLINE
  5
541
100
AcDbEntity
  8
RACCORDO
100
AcDbSpline
 62
253
  6
CONTINUOUS
 70
0
 71
3
 72
14
 73
10
 74
8
 42
0.0000001
 43
0.0000001
 44
0.0000000001
 12
0.0000663368
 22
1.0072812533
 32
0.0
 13
-0.7429174065
 23
-0.5961249664
 33
0.0
 40
0.0
 40
0.0
 40
0.0
 40
0.0
 40
0.2664951379
 40
0.5115653603
 40
0.7157241832
 40
0.8634664468
 40
0.9470618151
 40
0.9879498705
 40
1.0
 40
1.0
 40
1.0
 40
1.0
 10
-94.7543955556
 20
-11.998630474
 30
0.0
 10
-94.7543896628
 20
-11.9091519552
 30
0.0
 10
-94.757159147
 20
-11.7368390934
 30
0.0
 10
-94.7717622089
 20
-11.498946186
 30
0.0
 10
-94.7905378314
 20
-11.2937249946
 30
0.0
 10
-94.8248303754
 20
-11.1632649105
 30
0.0
 10
-94.8456954524
 20
-11.0532402041
 30
0.0
 10
-94.9011123821
 20
-11.0538527611
 30
0.0
 10
-94.9155913876
 20
-11.0627207245
 30
0.0
 10
-94.9185754713
 20
-11.0651151855
 30
0.0
 11
-94.7543955556
 21
-11.998630474
 31
0.0
 11
-94.7593560936
 21
-11.7302407548
 31
0.0
 11
-94.774074024
 21
-11.4838252592
 31
0.0
 11
-94.7979137145
 21
-11.2795664006
 31
0.0
 11
-94.8296836388
 21
-11.1341790805
 31
0.0
 11
-94.8674514448
 21
-11.0589200979
 31
0.0
 11
-94.9086366779
 21
-11.0591307356
 31
0.0
 11
-94.9185754713
 21
-11.0651151855
 31
0.0
  0
SPLINE
  5
542
100
AcDbEntity
  8
RACCORDO
100
AcDbSpline
 62
253
  6
CONTINUOUS
 70
0
 71
3
 72
14
 73
10
 74
8
 42
0.0000001
 43
0.0000001
 44
0.0000000001
 12
-0.0000616998
 22
1.0072982711
 32
0.0
 13
-0.7424941825
 23
-0.5959702316
 33
0.0
 40
0.0
 40
0.0
 40
0.0
 40
0.0
 40
0.2664058627
 40
0.5113436351
 40
0.7155211731
 40
0.863347234
 40
0.9469947171
 40
0.9878917719
 40
1.0
 40
1.0
 40
1.0
 40
1.0
 10
-94.7543955556
 20
-7.998630474
 30
0.0
 10
-94.7544010347
 20
-7.909180419
 30
0.0
 10
-94.7571505024
 20
-7.7369407616
 30
0.0
 10
-94.7717484693
 20
-7.4991050165
 30
0.0
 10
-94.7905016705
 20
-7.2939032726
 30
0.0
 10
-94.8248076023
 20
-7.1633620441
 30
0.0
 10
-94.8456266743
 20
-7.0533224948
 30
0.0
 10
-94.9010919355
 20
-7.0538266455
 30
0.0
 10
-94.9155863956
 20
-7.0626928946
 30
0.0
 10
-94.9185831586
 20
-7.0650982758
 30
0.0
 11
-94.7543955556
 21
-7.998630474
 31
0.0
 11
-94.759351323
 21
-7.7303260729
 31
0.0
 11
-94.7740512945
 21
-7.4840389814
 31
0.0
 11
-94.7978774653
 21
-7.2797560679
 31
0.0
 11
-94.8296433727
 21
-7.1342788977
 31
0.0
 11
-94.8674027358
 21
-7.0589553607
 31
0.0
 11
-94.908598033
 21
-7.0590946392
 31
0.0
 11
-94.9185831586
 21
-7.0650982758
 31
0.0
  0
SPLINE
  5
543
100
AcDbEntity
  8
RACCORDO
100
AcDbSpline
 62
253
  6
CONTINUOUS
 70
0
 71
3
 72
14
 73
10
 74
8
 42
0.0000001
 43
0.0000001
 44
0.0000000001
 12
0.7451611474
 22
-0.5946785445
 32
0.0
 13
0.0000618561
 23
1.0072309118
 33
0.0
 40
0.0
 40
0.0
 40
0.0
 40
0.0
 40
0.0118627476
 40
0.0528133709
 40
0.1363715309
 40
0.2840556261
 40
0.488080655
 40
0.733262656
 40
1.0
 40
1.0
 40
1.0
 40
1.0
 10
-94.9185428471
 20
-12.9321311421
 30
0.0
 10
-94.9155962942
 20
-12.9344826493
 30
0.0
 10
-94.9011299553
 20
-12.9433375266
 30
0.0
 10
-94.8457753502
 20
-12.9442045249
 30
0.0
 10
-94.8248286719
 20
-12.834074526
 30
0.0
 10
-94.7905766977
 20
-12.7037665054
 30
0.0
 10
-94.7717732369
 20
-12.4985542492
 30
0.0
 10
-94.7571590308
 20
-12.2606125752
 30
0.0
 10
-94.7544010554
 20
-12.0881858401
 30
0.0
 10
-94.7543955556
 20
-11.998630474
 30
0.0
 11
-94.9185428471
 21
-12.9321311421
 31
0.0
 11
-94.9087458291
 21
-12.9380307396
 31
0.0
 11
-94.8675007358
 21
-12.938398599
 31
0.0
 11
-94.8297110691
 21
-12.863197241
 31
0.0
 11
-94.7979366373
 21
-12.7178784917
 31
0.0
 11
-94.7740974285
 21
-12.5137656012
 31
0.0
 11
-94.7593633971
 21
-12.2672506393
 31
0.0
 11
-94.7543955556
 21
-11.998630474
 31
0.0
  0
SPLINE
  5
544
100
AcDbEntity
  8
RACCORDO
100
AcDbSpline
 62
253
  6
CONTINUOUS
 70
0
 71
3
 72
14
 73
10
 74
8
 42
0.0000001
 43
0.0000001
 44
0.0000000001
 12
0.7445900932
 22
-0.5951398057
 32
0.0
 13
-0.0000662649
 23
1.0072451905
 33
0.0
 40
0.0
 40
0.0
 40
0.0
 40
0.0
 40
0.0119178626
 40
0.0528267056
 40
0.1362928382
 40
0.2838866452
 40
0.4879259862
 40
0.7331499486
 40
1.0
 40
1.0
 40
1.0
 40
1.0
 10
-94.9185536551
 20
-8.9321336701
 30
0.0
 10
-94.915595681
 20
-8.9344979349
 30
0.0
 10
-94.901130363
 20
-8.9433544158
 30
0.0
 10
-94.8458125687
 20
-8.9441757731
 30
0.0
 10
-94.8248561752
 20
-8.8341822093
 30
0.0
 10
-94.7906033633
 20
-8.7039043045
 30
0.0
 10
-94.7717883867
 20
-8.4987089373
 30
0.0
 10
-94.7571670793
 20
-8.2607057284
 30
0.0
 10
-94.7543896614
 20
-8.088224951
 30
0.0
 10
-94.7543955556
 20
-7.998630474
 30
0.0
 11
-94.9185536551
 21
-8.9321336701
 31
0.0
 11
-94.908713803
 21
-8.9380594695
 31
0.0
 11
-94.8675099446
 21
-8.9383963285
 31
0.0
 11
-94.8297471521
 21
-8.8632838718
 31
0.0
 11
-94.7979711075
 21
-8.7180564092
 31
0.0
 11
-94.774115815
 21
-8.5139279507
 31
0.0
 11
-94.7593694021
 21
-8.2673678809
 31
0.0
 11
-94.7543955556
 21
-7.998630474
 31
0.0
  0
LINE
  5
545
100
AcDbEntity
  8
RACCORDO
100
AcDbLine
 62
253
  6
CONTINUOUS
 10
-100.2939927057
 20
-14.5505274693
 11
-94.7085408244
 21
-14.5990546571
  0
SPLINE
  5
546
100
AcDbEntity
  8
RACCORDO
100
AcDbSpline
 62
253
  6
CONTINUOUS
 70
0
 71
3
 72
10
 73
6
 74
4
 42
0.0000001
 43
0.0000001
 44
0.0000000001
 12
-0.000451681
 22
-0.2162129719
 32
0.0
 13
0.2162887096
 23
-0.0037519587
 33
0.0
 40
0.0
 40
0.0
 40
0.0
 40
0.0
 40
0.3543860764
 40
0.6894503193
 40
1.0
 40
1.0
 40
1.0
 40
1.0
 10
-100.2939929769
 20
-14.5505274693
 30
0.0
 10
-100.2940463334
 20
-14.5760684249
 30
0.0
 10
-100.2828800861
 20
-14.6265775362
 30
0.0
 10
-100.2350281399
 20
-14.6844871219
 30
0.0
 10
-100.1878726507
 20
-14.700121546
 30
0.0
 10
-100.1654831875
 20
-14.7005099358
 30
0.0
 11
-100.2939929769
 21
-14.5505274693
 31
0.0
 11
-100.276800717
 21
-14.6251968441
 31
0.0
 11
-100.2294750731
 21
-14.6800477193
 31
0.0
 11
-100.1654831875
 21
-14.7005099358
 31
0.0
  0
SPLINE
  5
547
100
AcDbEntity
  8
RACCORDO
100
AcDbSpline
 62
253
  6
CONTINUOUS
 70
0
 71
3
 72
10
 73
6
 74
4
 42
0.0000001
 43
0.0000001
 44
0.0000000001
 12
-0.0004258077
 22
0.2161695602
 32
0.0
 13
0.2162475867
 23
0.0038064826
 33
0.0
 40
0.0
 40
0.0
 40
0.0
 40
0.0
 40
0.3544353089
 40
0.6895419242
 40
1.0
 40
1.0
 40
1.0
 40
1.0
 10
-100.2939937833
 20
-5.4467334786
 30
0.0
 10
-100.2940440904
 20
-5.4211941036
 30
0.0
 10
-100.2828739286
 20
-5.3706898681
 30
0.0
 10
-100.2350286104
 20
-5.3127949597
 30
0.0
 10
-100.1878894022
 20
-5.2971617381
 30
0.0
 10
-100.165510799
 20
-5.2967678203
 30
0.0
 11
-100.2939937833
 21
-5.4467334786
 31
0.0
 11
-100.2767953941
 21
-5.3720704004
 31
0.0
 11
-100.2294701191
 21
-5.317226344
 31
0.0
 11
-100.165510799
 21
-5.2967678203
 31
0.0
  0
SPLINE
  5
548
100
AcDbEntity
  8
RACCORDO
100
AcDbSpline
 62
253
  6
CONTINUOUS
 70
0
 71
3
 72
13
 73
9
 74
7
 42
0.0000001
 43
0.0000001
 44
0.0000000001
 12
0.0346838825
 22
-0.7267609736
 32
0.0
 13
0.7209142232
 23
-0.1285788865
 33
0.0
 40
0.0
 40
0.0
 40
0.0
 40
0.0
 40
0.1450112412
 40
0.3595732929
 40
0.5623337629
 40
0.7462976224
 40
0.9065162236
 40
1.0
 40
1.0
 40
1.0
 40
1.0
 10
-100.6616277121
 20
-13.9509081836
 30
0.0
 10
-100.6599511944
 20
-13.9860376872
 30
0.0
 10
-100.6516776104
 20
-14.0729960989
 30
0.0
 10
-100.6223099064
 20
-14.2065975055
 30
0.0
 10
-100.5675382947
 20
-14.3425328319
 30
0.0
 10
-100.4928100652
 20
-14.453505285
 30
0.0
 10
-100.4096872243
 20
-14.5226810558
 30
0.0
 10
-100.3499797066
 20
-14.5433383665
 30
0.0
 10
-100.327515112
 20
-14.5473450464
 30
0.0
 11
-100.6616277121
 21
-13.9509081836
 31
0.0
 11
-100.6515693958
 21
-14.0559273074
 31
0.0
 11
-100.6174060711
 21
-14.2081316857
 31
0.0
 11
-100.5609850314
 21
-14.3443182235
 31
0.0
 11
-100.4843254978
 21
-14.4539140947
 31
0.0
 11
-100.3924169016
 21
-14.5254750904
 31
0.0
 11
-100.327515112
 21
-14.5473450464
 31
0.0
  0
SPLINE
  5
549
100
AcDbEntity
  8
RACCORDO
100
AcDbSpline
 62
253
  6
CONTINUOUS
 70
0
 71
3
 72
8
 73
4
 74
2
 42
0.0000001
 43
0.0000001
 44
0.0000000001
 12
0.0333154726
 22
-0.0059419918
 32
0.0
 13
0.0335963413
 23
-0.0003062371
 33
0.0
 40
0.0
 40
0.0
 40
0.0
 40
0.0
 40
1.0
 40
1.0
 40
1.0
 40
1.0
 10
-100.327515112
 20
-14.5473450464
 30
0.0
 10
-100.3164099544
 20
-14.5493257104
 30
0.0
 10
-100.3051914861
 20
-14.5504253902
 30
0.0
 10
-100.2939927057
 20
-14.5505274693
 30
0.0
 11
-100.327515112
 21
-14.5473450464
 31
0.0
 11
-100.2939927057
 21
-14.5505274693
 31
0.0
  0
SPLINE
  5
54A
100
AcDbEntity
  8
RACCORDO
100
AcDbSpline
 62
253
  6
CONTINUOUS
 70
0
 71
3
 72
8
 73
4
 74
2
 42
0.0000001
 43
0.0000001
 44
0.0000000001
 12
-0.0000118409
 22
-0.0642139352
 32
0.0
 13
0.0269202309
 23
-0.0593142367
 33
0.0
 40
0.0
 40
0.0
 40
0.0
 40
0.0
 40
1.0
 40
1.0
 40
1.0
 40
1.0
 10
-94.7085408609
 20
-14.5990546571
 30
0.0
 10
-94.7085448078
 20
-14.6204593021
 30
0.0
 10
-94.7038063665
 20
-14.6422010046
 30
0.0
 10
-94.6948329562
 20
-14.6619724169
 30
0.0
 11
-94.7085408609
 21
-14.5990546571
 31
0.0
 11
-94.6948329562
 21
-14.6619724169
 31
0.0
  0
SPLINE
  5
54B
100
AcDbEntity
  8
RACCORDO
100
AcDbSpline
 62
253
  6
CONTINUOUS
 70
0
 71
3
 72
8
 73
4
 74
2
 42
0.0000001
 43
0.0000001
 44
0.0000000001
 12
-0.0000142322
 22
0.0774910191
 32
0.0
 13
0.0387480371
 23
0.0682714972
 33
0.0
 40
0.0
 40
0.0
 40
0.0
 40
0.0
 40
1.0
 40
1.0
 40
1.0
 40
1.0
 10
-94.7085472592
 20
-5.398206291
 30
0.0
 10
-94.7085520033
 20
-5.3723759513
 30
0.0
 10
-94.7016504474
 20
-5.3460547792
 30
0.0
 10
-94.688734435
 20
-5.3232976135
 30
0.0
 11
-94.7085472592
 21
-5.398206291
 31
0.0
 11
-94.688734435
 21
-5.3232976135
 31
0.0
  0
SPLINE
  5
54C
100
AcDbEntity
  8
ASSI
100
AcDbSpline
 62
7
  6
CONTINUOUS
 70
0
 71
3
 72
15
 73
11
 74
9
 42
0.0000001
 43
0.0000001
 44
0.0000000001
 12
0.5772941331
 22
-0.8065891934
 32
0.0
 13
0.0
 23
-0.9918944717
 33
0.0
 40
0.0
 40
0.0
 40
0.0
 40
0.0
 40
0.1848776735
 40
0.3406926393
 40
0.4762743114
 40
0.6001682999
 40
0.7182182445
 40
0.8277779815
 40
0.9231552547
 40
1.0
 40
1.0
 40
1.0
 40
1.0
 10
-79.5394219024
 20
-9.2311753975
 30
0.0
 10
-79.5038456369
 20
-9.2808821753
 30
0.0
 10
-79.4383622781
 20
-9.3725372213
 30
0.0
 10
-79.3480394491
 20
-9.5015348898
 30
0.0
 10
-79.2710624673
 20
-9.6152444434
 30
0.0
 10
-79.2035020298
 20
-9.7202266335
 30
0.0
 10
-79.1440640767
 20
-9.820116552
 30
0.0
 10
-79.0947023073
 20
-9.9149816527
 30
0.0
 10
-79.059826519
 20
-10.001432566
 30
0.0
 10
-79.0481481056
 20
-10.0581026995
 30
0.0
 10
-79.0481481056
 20
-10.0835099922
 30
0.0
 11
-79.5394219024
 21
-9.2311753975
 31
0.0
 11
-79.4330332663
 21
-9.3805386056
 31
0.0
 11
-79.34455955
 21
-9.5072616233
 31
0.0
 11
-79.2693495486
 21
-9.6187472961
 31
0.0
 11
-79.2030817327
 21
-9.722238698
 31
0.0
 11
-79.1436244053
 21
-9.823112963
 31
0.0
 11
-79.0942368961
 21
-9.9199138501
 31
0.0
 11
-79.0604885207
 21
-10.0082937117
 31
0.0
 11
-79.0481481056
 21
-10.0835099922
 31
0.0
  0
SPLINE
  5
54D
100
AcDbEntity
  8
ASSI
100
AcDbSpline
 62
253
  6
CONTINUOUS
 70
0
 71
3
 72
15
 73
11
 74
9
 42
0.0000001
 43
0.0000001
 44
0.0000000001
 12
0.9996347695
 22
-0.0244681355
 32
0.0
 13
-0.0087073534
 23
-0.9998962666
 33
0.0
 40
0.0
 40
0.0
 40
0.0
 40
0.0
 40
0.0193001219
 40
0.076228989
 40
0.1686397186
 40
0.2929883219
 40
0.4445008401
 40
0.6173609054
 40
0.8049283512
 40
1.0
 40
1.0
 40
1.0
 40
1.0
 10
-68.0394219024
 20
8.2337621446
 30
0.0
 10
-68.0329908781
 20
8.233604732
 30
0.0
 10
-68.0449218325
 20
8.1932134257
 30
0.0
 10
-68.0318153882
 20
8.1512290507
 30
0.0
 10
-68.0379721527
 20
8.0521695917
 30
0.0
 10
-68.0349698258
 20
7.9327051819
 30
0.0
 10
-68.0362587962
 20
7.7819525139
 30
0.0
 10
-68.0366343755
 20
7.6117090204
 30
0.0
 10
-68.037873672
 20
7.4264371255
 30
0.0
 10
-68.0388557164
 20
7.2989315872
 30
0.0
 10
-68.0394219024
 20
7.2339144495
 30
0.0
 11
-68.0394219024
 21
8.2337621446
 31
0.0
 11
-68.0378877959
 21
8.2145243644
 31
0.0
 11
-68.0367477884
 21
8.1576106607
 31
0.0
 11
-68.0360462423
 21
8.0652086768
 31
0.0
 11
-68.0358092534
 21
7.9408684842
 31
0.0
 11
-68.0360461031
 21
7.7893661239
 31
0.0
 11
-68.0367477183
 21
7.6165188603
 31
0.0
 11
-68.0378877817
 21
7.4289672254
 31
0.0
 11
-68.0394219024
 21
7.2339144495
 31
0.0
  0
SPLINE
  5
54E
100
AcDbEntity
  8
ASSI
100
AcDbSpline
 62
253
  6
CONTINUOUS
 70
0
 71
3
 72
15
 73
11
 74
9
 42
0.0000001
 43
0.0000001
 44
0.0000000001
 12
0.0087133939
 22
-0.9998962168
 32
0.0
 13
-0.9997623996
 23
-0.0185340725
 33
0.0
 40
0.0
 40
0.0
 40
0.0
 40
0.0
 40
0.1950728679
 40
0.3826407254
 40
0.5555000025
 40
0.7070126007
 40
0.8313608387
 40
0.9237716824
 40
0.9807001185
 40
1.0
 40
1.0
 40
1.0
 40
1.0
 10
-68.0394219024
 20
-9.0304421508
 30
0.0
 10
-68.0388553201
 20
-9.0954596917
 30
0.0
 10
-68.0378738657
 20
-9.2229656035
 30
0.0
 10
-68.0366343722
 20
-9.4082385219
 30
0.0
 10
-68.0362590351
 20
-9.5784795211
 30
0.0
 10
-68.0349697354
 20
-9.7292391289
 30
0.0
 10
-68.0379722742
 20
-9.8486833196
 30
0.0
 10
-68.0318145877
 20
-9.9477906625
 30
0.0
 10
-68.0449228823
 20
-9.9896876431
 30
0.0
 10
-68.0329901371
 20
-10.0301706108
 30
0.0
 10
-68.0394219024
 20
-10.030289846
 30
0.0
 11
-68.0394219024
 21
-9.0304421508
 31
0.0
 11
-68.0378877959
 21
-9.2254961465
 31
0.0
 11
-68.0367477884
 21
-9.4130481939
 31
0.0
 11
-68.0360462423
 21
-9.58589467
 31
0.0
 11
-68.0358092534
 21
-9.7373971106
 31
0.0
 11
-68.0360461031
 21
-9.8617369385
 31
0.0
 11
-68.0367477183
 21
-9.9541390363
 31
0.0
 11
-68.0378877817
 21
-10.011052308
 31
0.0
 11
-68.0394219024
 21
-10.030289846
 31
0.0
  0
SPLINE
  5
54F
100
AcDbEntity
  8
ASSI
100
AcDbSpline
 62
7
  6
CONTINUOUS
 70
0
 71
3
 72
16
 73
12
 74
10
 42
0.0000001
 43
0.0000001
 44
0.0000000001
 12
1.1442789713
 22
0.5493401631
 32
0.0
 13
1.2691171123
 23
-0.0221525216
 33
0.0
 40
0.0
 40
0.0
 40
0.0
 40
0.0
 40
0.173715736
 40
0.3305632863
 40
0.4717690084
 40
0.597549877
 40
0.7084649049
 40
0.8044492392
 40
0.88502403
 40
0.9501864425
 40
1.0
 40
1.0
 40
1.0
 40
1.0
 10
-80.2636502804
 20
13.833755075
 30
0.0
 10
-80.1973905258
 20
13.865564752
 30
0.0
 10
-80.0713260195
 20
13.9261392365
 30
0.0
 10
-79.8910819788
 20
14.0119031109
 30
0.0
 10
-79.7285319468
 20
14.0876426043
 30
0.0
 10
-79.5827287662
 20
14.1532807375
 30
0.0
 10
-79.4532554027
 20
14.2085470428
 30
0.0
 10
-79.3400289938
 20
14.253008896
 30
0.0
 10
-79.2431718764
 20
14.2861248406
 30
0.0
 10
-79.1631373475
 20
14.3071478474
 30
0.0
 10
-79.1145166588
 20
14.3136207206
 30
0.0
 10
-79.0934435794
 20
14.3132528887
 30
0.0
 11
-80.2636502804
 21
13.833755075
 31
0.0
 11
-80.064829471
 21
13.9290975175
 31
0.0
 11
-79.8849851242
 21
14.0144915168
 31
0.0
 11
-79.7224443684
 21
14.0900249023
 31
0.0
 11
-79.576768631
 21
14.1553570435
 31
0.0
 11
-79.4471661409
 21
14.2103459547
 31
0.0
 11
-79.3336032614
 21
14.254470503
 31
0.0
 11
-79.2366139409
 21
14.2869224561
 31
0.0
 11
-79.1563531695
 21
14.3069067674
 31
0.0
 11
-79.0934435794
 21
14.3132528887
 31
0.0
  0
SPLINE
  5
550
100
AcDbEntity
  8
ASSI
100
AcDbSpline
 62
253
  6
CONTINUOUS
 70
0
 71
3
 72
15
 73
11
 74
9
 42
0.0000001
 43
0.0000001
 44
0.0000000001
 12
0.0087133939
 22
-0.9998962168
 32
0.0
 13
-0.9997623996
 23
-0.0185340725
 33
0.0
 40
0.0
 40
0.0
 40
0.0
 40
0.0
 40
0.1950728679
 40
0.3826407254
 40
0.5555000025
 40
0.7070126007
 40
0.8313608387
 40
0.9237716824
 40
0.9807001185
 40
1.0
 40
1.0
 40
1.0
 40
1.0
 10
-79.5394219024
 20
-17.4319086442
 30
0.0
 10
-79.5388553201
 20
-17.496926185
 30
0.0
 10
-79.5378738657
 20
-17.6244320969
 30
0.0
 10
-79.5366343722
 20
-17.8097050153
 30
0.0
 10
-79.5362590351
 20
-17.9799460145
 30
0.0
 10
-79.5349697354
 20
-18.1307056223
 30
0.0
 10
-79.5379722742
 20
-18.2501498129
 30
0.0
 10
-79.5318145877
 20
-18.3492571558
 30
0.0
 10
-79.5449228823
 20
-18.3911541365
 30
0.0
 10
-79.5329901371
 20
-18.4316371042
 30
0.0
 10
-79.5394219024
 20
-18.4317563393
 30
0.0
 11
-79.5394219024
 21
-17.4319086442
 31
0.0
 11
-79.5378877959
 21
-17.6269626398
 31
0.0
 11
-79.5367477884
 21
-17.8145146873
 31
0.0
 11
-79.5360462423
 21
-17.9873611634
 31
0.0
 11
-79.5358092534
 21
-18.138863604
 31
0.0
 11
-79.5360461031
 21
-18.2632034319
 31
0.0
 11
-79.5367477183
 21
-18.3556055297
 31
0.0
 11
-79.5378877817
 21
-18.4125188014
 31
0.0
 11
-79.5394219024
 21
-18.4317563393
 31
0.0
  0
SPLINE
  5
551
100
AcDbEntity
  8
ASSI
100
AcDbSpline
 62
7
  6
CONTINUOUS
 70
0
 71
3
 72
13
 73
9
 74
7
 42
0.0000001
 43
0.0000001
 44
0.0000000001
 12
1.0004433657
 22
0.014818137
 32
0.0
 13
0.9688963581
 23
0.0192709993
 33
0.0
 40
0.0
 40
0.0
 40
0.0
 40
0.0
 40
0.2484529907
 40
0.4773626549
 40
0.6763953328
 40
0.8415568771
 40
0.9644281885
 40
1.0
 40
1.0
 40
1.0
 40
1.0
 10
-78.5714734836
 20
17.4626399265
 30
0.0
 10
-78.4886191015
 20
17.46386713
 30
0.0
 10
-78.3293277184
 20
17.4635515586
 30
0.0
 10
-78.1040249822
 20
17.4559264415
 30
0.0
 10
-77.9059876016
 20
17.4441379166
 30
0.0
 10
-77.7455069854
 20
17.4329776989
 30
0.0
 10
-77.634454982
 20
17.4257451488
 30
0.0
 10
-77.5850669706
 20
17.4256303465
 30
0.0
 10
-77.5735785044
 20
17.4258588479
 30
0.0
 11
-78.5714734836
 21
17.4626399265
 31
0.0
 11
-78.3228835247
 21
17.4621663643
 31
0.0
 11
-78.0939743805
 21
17.4545362563
 31
0.0
 11
-77.8951582943
 21
17.4431343345
 31
0.0
 11
-77.7302767504
 21
17.4320620354
 31
0.0
 11
-77.6074942915
 21
17.4258545987
 31
0.0
 11
-77.5735785044
 21
17.4258588479
 31
0.0
  0
SPLINE
  5
552
100
AcDbEntity
  8
ASSI
100
AcDbSpline
 62
253
  6
CONTINUOUS
 70
0
 71
3
 72
12
 73
8
 74
6
 42
0.0000001
 43
0.0000001
 44
0.0000000001
 12
0.2999905251
 22
-0.0052363541
 32
0.0
 13
-0.0052347787
 23
-0.2999905526
 33
0.0
 40
0.0
 40
0.0
 40
0.0
 40
0.0
 40
0.0492159435
 40
0.191271151
 40
0.4124352143
 40
0.6910959386
 40
1.0
 40
1.0
 40
1.0
 40
1.0
 10
-86.409440059
 20
26.0805946017
 30
0.0
 10
-86.4045186201
 20
26.0805086976
 30
0.0
 10
-86.4130804981
 20
26.0500150006
 30
0.0
 10
-86.4040006386
 20
26.0192676726
 30
0.0
 10
-86.4086014011
 20
25.9495780111
 30
0.0
 10
-86.4075745086
 20
25.8708428632
 30
0.0
 10
-86.4089010442
 20
25.8115297265
 30
0.0
 10
-86.409440059
 20
25.7806402931
 30
0.0
 11
-86.409440059
 21
26.0805946017
 31
0.0
 11
-86.4080790674
 21
26.065890889
 31
0.0
 11
-86.4073635767
 21
26.0232751871
 31
0.0
 11
-86.4073635906
 21
25.9569179571
 31
0.0
 11
-86.408079093
 21
25.8733127078
 31
0.0
 11
-86.409440059
 21
25.7806402931
 31
0.0
  0
SPLINE
  5
553
100
AcDbEntity
  8
ASSI
100
AcDbSpline
 62
7
  6
CONTINUOUS
 70
0
 71
3
 72
18
 73
14
 74
12
 42
0.0000001
 43
0.0000001
 44
0.0000000001
 12
0.5795573358
 22
-0.270252024
 32
0.0
 13
-0.6394042495
 23
0.0092232132
 33
0.0
 40
0.0
 40
0.0
 40
0.0
 40
0.0
 40
0.0106776686
 40
0.0325177762
 40
0.077443661
 40
0.1441980263
 40
0.2279065912
 40
0.3226448369
 40
0.4310385909
 40
0.5528293351
 40
0.6873485904
 40
0.8359912194
 40
1.0
 40
1.0
 40
1.0
 40
1.0
 10
-85.3562578189
 20
25.6848796907
 30
0.0
 10
-85.3541950451
 20
25.6839178035
 30
0.0
 10
-85.3492187329
 20
25.6754334013
 30
0.0
 10
-85.3736193692
 20
25.6726425562
 30
0.0
 10
-85.3961367281
 20
25.6662988082
 30
0.0
 10
-85.4401733176
 20
25.6621529225
 30
0.0
 10
-85.491261909
 20
25.657600315
 30
0.0
 10
-85.5526329399
 20
25.6540310703
 30
0.0
 10
-85.6217241052
 20
25.6510598479
 30
0.0
 10
-85.6994699289
 20
25.648896328
 30
0.0
 10
-85.7857701121
 20
25.6476009473
 30
0.0
 10
-85.8810927808
 20
25.6473260703
 30
0.0
 10
-85.947734951
 20
25.647914096
 30
0.0
 10
-85.9826909214
 20
25.6484183253
 30
0.0
 11
-85.3562578189
 21
25.6848796907
 31
0.0
 11
-85.3525682292
 21
25.6791343195
 31
0.0
 11
-85.3652994523
 21
25.6733925254
 31
0.0
 11
-85.3934808454
 21
25.6678110869
 31
0.0
 11
-85.4358479614
 21
25.6625912045
 31
0.0
 11
-85.4891837861
 21
25.6580455553
 31
0.0
 11
-85.5496531057
 21
25.6543467514
 31
0.0
 11
-85.6189027718
 21
25.6513463106
 31
0.0
 11
-85.6967528514
 21
25.6491300235
 31
0.0
 11
-85.7827638735
 21
25.6478112652
 31
0.0
 11
-85.877816018
 21
25.6475118675
 31
0.0
 11
-85.9826909214
 21
25.6484183253
 31
0.0
  0
SPLINE
  5
554
100
AcDbEntity
  8
ASSI
100
AcDbSpline
 62
253
  6
CONTINUOUS
 70
0
 71
3
 72
12
 73
8
 74
6
 42
0.0000001
 43
0.0000001
 44
0.0000000001
 12
0.2699821552
 22
-0.1258947465
 32
0.0
 13
-0.1258632469
 23
-0.2699968414
 33
0.0
 40
0.0
 40
0.0
 40
0.0
 40
0.0
 40
0.0490769833
 40
0.1909056712
 40
0.4118737943
 40
0.6905774034
 40
1.0
 40
1.0
 40
1.0
 40
1.0
 10
-86.0042742037
 20
25.9870546935
 30
0.0
 10
-85.9998575672
 20
25.9849951821
 30
0.0
 10
-86.0202046041
 20
25.9609466942
 30
0.0
 10
-86.0242726218
 20
25.9294146305
 30
0.0
 10
-86.0567575518
 20
25.8681669711
 30
0.0
 10
-86.0876430591
 20
25.7963168998
 30
0.0
 10
-86.1128423161
 20
25.7430100654
 30
0.0
 10
-86.1258239603
 20
25.7151623574
 30
0.0
 11
-86.0042742037
 21
25.9870546935
 31
0.0
 11
-86.0090989065
 21
25.9732540907
 31
0.0
 11
-86.0257510414
 21
25.9344244379
 31
0.0
 11
-86.0526157285
 21
25.8743313314
 31
0.0
 11
-86.0870877015
 21
25.7988024409
 31
0.0
 11
-86.1258239603
 21
25.7151623574
 31
0.0
  0
SPLINE
  5
555
100
AcDbEntity
  8
ASSI
100
AcDbSpline
 62
7
  6
CONTINUOUS
 70
0
 71
3
 72
10
 73
6
 74
4
 42
0.0000001
 43
0.0000001
 44
0.0000000001
 12
8.976704374
 22
0.1287868865
 32
0.0
 13
8.9766435599
 23
0.1329581854
 33
0.0
 40
0.0
 40
0.0
 40
0.0
 40
0.0
 40
0.3358446414
 40
0.6691766453
 40
1.0
 40
1.0
 40
1.0
 40
1.0
 10
-87.5481481056
 20
17.3318006261
 30
0.0
 10
-86.543222085
 20
17.346218088
 30
0.0
 10
-84.5408905787
 20
17.3750940937
 30
0.0
 10
-81.5486656133
 20
17.418703301
 30
0.0
 10
-79.561367929
 20
17.4479780356
 30
0.0
 10
-78.5714734836
 20
17.4626399265
 30
0.0
 11
-87.5481481056
 21
17.3318006261
 31
0.0
 11
-84.5333733041
 21
17.3752796582
 31
0.0
 11
-81.5411603192
 21
17.4188911519
 31
0.0
 11
-78.5714734836
 21
17.4626399265
 31
0.0
  0
LINE
  5
556
100
AcDbEntity
  8
ASSI
100
AcDbLine
 62
7
  6
CONTINUOUS
 10
-85.9826909214
 20
25.6484183253
 11
-87.5481481056
 21
25.6709384259
  0
SPLINE
  5
557
100
AcDbEntity
  8
RACCORDO
100
AcDbSpline
 62
7
  6
CONTINUOUS
 70
0
 71
3
 72
15
 73
11
 74
9
 42
0.0000001
 43
0.0000001
 44
0.0000000001
 12
0.5772941331
 22
-0.8065891934
 32
0.0
 13
0.0
 23
-0.9918944717
 33
0.0
 40
0.0
 40
0.0
 40
0.0
 40
0.0
 40
0.1848776735
 40
0.3406926393
 40
0.4762743114
 40
0.6001682999
 40
0.7182182445
 40
0.8277779815
 40
0.9231552547
 40
1.0
 40
1.0
 40
1.0
 40
1.0
 10
-79.5394219024
 20
-9.2311753975
 30
0.0
 10
-79.5038456369
 20
-9.2808821753
 30
0.0
 10
-79.4383622781
 20
-9.3725372213
 30
0.0
 10
-79.3480394491
 20
-9.5015348898
 30
0.0
 10
-79.2710624673
 20
-9.6152444434
 30
0.0
 10
-79.2035020298
 20
-9.7202266335
 30
0.0
 10
-79.1440640767
 20
-9.820116552
 30
0.0
 10
-79.0947023073
 20
-9.9149816527
 30
0.0
 10
-79.059826519
 20
-10.001432566
 30
0.0
 10
-79.0481481056
 20
-10.0581026995
 30
0.0
 10
-79.0481481056
 20
-10.0835099922
 30
0.0
 11
-79.5394219024
 21
-9.2311753975
 31
0.0
 11
-79.4330332663
 21
-9.3805386056
 31
0.0
 11
-79.34455955
 21
-9.5072616233
 31
0.0
 11
-79.2693495486
 21
-9.6187472961
 31
0.0
 11
-79.2030817327
 21
-9.722238698
 31
0.0
 11
-79.1436244053
 21
-9.823112963
 31
0.0
 11
-79.0942368961
 21
-9.9199138501
 31
0.0
 11
-79.0604885207
 21
-10.0082937117
 31
0.0
 11
-79.0481481056
 21
-10.0835099922
 31
0.0
  0
SPLINE
  5
558
100
AcDbEntity
  8
RACCORDO
100
AcDbSpline
 62
253
  6
CONTINUOUS
 70
0
 71
3
 72
15
 73
11
 74
9
 42
0.0000001
 43
0.0000001
 44
0.0000000001
 12
0.9996347695
 22
-0.0244681355
 32
0.0
 13
-0.0087073534
 23
-0.9998962666
 33
0.0
 40
0.0
 40
0.0
 40
0.0
 40
0.0
 40
0.0193001219
 40
0.076228989
 40
0.1686397186
 40
0.2929883219
 40
0.4445008401
 40
0.6173609054
 40
0.8049283512
 40
1.0
 40
1.0
 40
1.0
 40
1.0
 10
-68.0394219024
 20
8.2337621446
 30
0.0
 10
-68.0329908781
 20
8.233604732
 30
0.0
 10
-68.0449218325
 20
8.1932134257
 30
0.0
 10
-68.0318153882
 20
8.1512290507
 30
0.0
 10
-68.0379721527
 20
8.0521695917
 30
0.0
 10
-68.0349698258
 20
7.9327051819
 30
0.0
 10
-68.0362587962
 20
7.7819525139
 30
0.0
 10
-68.0366343755
 20
7.6117090204
 30
0.0
 10
-68.037873672
 20
7.4264371255
 30
0.0
 10
-68.0388557164
 20
7.2989315872
 30
0.0
 10
-68.0394219024
 20
7.2339144495
 30
0.0
 11
-68.0394219024
 21
8.2337621446
 31
0.0
 11
-68.0378877959
 21
8.2145243644
 31
0.0
 11
-68.0367477884
 21
8.1576106607
 31
0.0
 11
-68.0360462423
 21
8.0652086768
 31
0.0
 11
-68.0358092534
 21
7.9408684842
 31
0.0
 11
-68.0360461031
 21
7.7893661239
 31
0.0
 11
-68.0367477183
 21
7.6165188603
 31
0.0
 11
-68.0378877817
 21
7.4289672254
 31
0.0
 11
-68.0394219024
 21
7.2339144495
 31
0.0
  0
SPLINE
  5
559
100
AcDbEntity
  8
RACCORDO
100
AcDbSpline
 62
253
  6
CONTINUOUS
 70
0
 71
3
 72
15
 73
11
 74
9
 42
0.0000001
 43
0.0000001
 44
0.0000000001
 12
0.0087133939
 22
-0.9998962168
 32
0.0
 13
-0.9997623996
 23
-0.0185340725
 33
0.0
 40
0.0
 40
0.0
 40
0.0
 40
0.0
 40
0.1950728679
 40
0.3826407254
 40
0.5555000025
 40
0.7070126007
 40
0.8313608387
 40
0.9237716824
 40
0.9807001185
 40
1.0
 40
1.0
 40
1.0
 40
1.0
 10
-68.0394219024
 20
-9.0304421508
 30
0.0
 10
-68.0388553201
 20
-9.0954596917
 30
0.0
 10
-68.0378738657
 20
-9.2229656035
 30
0.0
 10
-68.0366343722
 20
-9.4082385219
 30
0.0
 10
-68.0362590351
 20
-9.5784795211
 30
0.0
 10
-68.0349697354
 20
-9.7292391289
 30
0.0
 10
-68.0379722742
 20
-9.8486833196
 30
0.0
 10
-68.0318145877
 20
-9.9477906625
 30
0.0
 10
-68.0449228823
 20
-9.9896876431
 30
0.0
 10
-68.0329901371
 20
-10.0301706108
 30
0.0
 10
-68.0394219024
 20
-10.030289846
 30
0.0
 11
-68.0394219024
 21
-9.0304421508
 31
0.0
 11
-68.0378877959
 21
-9.2254961465
 31
0.0
 11
-68.0367477884
 21
-9.4130481939
 31
0.0
 11
-68.0360462423
 21
-9.58589467
 31
0.0
 11
-68.0358092534
 21
-9.7373971106
 31
0.0
 11
-68.0360461031
 21
-9.8617369385
 31
0.0
 11
-68.0367477183
 21
-9.9541390363
 31
0.0
 11
-68.0378877817
 21
-10.011052308
 31
0.0
 11
-68.0394219024
 21
-10.030289846
 31
0.0
  0
SPLINE
  5
55A
100
AcDbEntity
  8
RACCORDO
100
AcDbSpline
 62
253
  6
CONTINUOUS
 70
0
 71
3
 72
15
 73
11
 74
9
 42
0.0000001
 43
0.0000001
 44
0.0000000001
 12
0.0087133939
 22
-0.9998962168
 32
0.0
 13
-0.9997623996
 23
-0.0185340725
 33
0.0
 40
0.0
 40
0.0
 40
0.0
 40
0.0
 40
0.1950728679
 40
0.3826407254
 40
0.5555000025
 40
0.7070126007
 40
0.8313608387
 40
0.9237716824
 40
0.9807001185
 40
1.0
 40
1.0
 40
1.0
 40
1.0
 10
-79.5394219024
 20
-17.4319086442
 30
0.0
 10
-79.5388553201
 20
-17.496926185
 30
0.0
 10
-79.5378738657
 20
-17.6244320969
 30
0.0
 10
-79.5366343722
 20
-17.8097050153
 30
0.0
 10
-79.5362590351
 20
-17.9799460145
 30
0.0
 10
-79.5349697354
 20
-18.1307056223
 30
0.0
 10
-79.5379722742
 20
-18.2501498129
 30
0.0
 10
-79.5318145877
 20
-18.3492571558
 30
0.0
 10
-79.5449228823
 20
-18.3911541365
 30
0.0
 10
-79.5329901371
 20
-18.4316371042
 30
0.0
 10
-79.5394219024
 20
-18.4317563393
 30
0.0
 11
-79.5394219024
 21
-17.4319086442
 31
0.0
 11
-79.5378877959
 21
-17.6269626398
 31
0.0
 11
-79.5367477884
 21
-17.8145146873
 31
0.0
 11
-79.5360462423
 21
-17.9873611634
 31
0.0
 11
-79.5358092534
 21
-18.138863604
 31
0.0
 11
-79.5360461031
 21
-18.2632034319
 31
0.0
 11
-79.5367477183
 21
-18.3556055297
 31
0.0
 11
-79.5378877817
 21
-18.4125188014
 31
0.0
 11
-79.5394219024
 21
-18.4317563393
 31
0.0
  0
SPLINE
  5
55B
100
AcDbEntity
  8
DRAFT
100
AcDbSpline
 62
7
  6
CONTINUOUS
 70
0
 71
3
 72
13
 73
9
 74
7
 42
0.0000001
 43
0.0000001
 44
0.0000000001
 12
1.0004433657
 22
0.014818137
 32
0.0
 13
0.9688963581
 23
0.0192709993
 33
0.0
 40
0.0
 40
0.0
 40
0.0
 40
0.0
 40
0.2484529907
 40
0.4773626549
 40
0.6763953328
 40
0.8415568771
 40
0.9644281885
 40
1.0
 40
1.0
 40
1.0
 40
1.0
 10
-78.5714734836
 20
17.4626399265
 30
0.0
 10
-78.4886191015
 20
17.46386713
 30
0.0
 10
-78.3293277184
 20
17.4635515586
 30
0.0
 10
-78.1040249822
 20
17.4559264415
 30
0.0
 10
-77.9059876016
 20
17.4441379166
 30
0.0
 10
-77.7455069854
 20
17.4329776989
 30
0.0
 10
-77.634454982
 20
17.4257451488
 30
0.0
 10
-77.5850669706
 20
17.4256303465
 30
0.0
 10
-77.5735785044
 20
17.4258588479
 30
0.0
 11
-78.5714734836
 21
17.4626399265
 31
0.0
 11
-78.3228835247
 21
17.4621663643
 31
0.0
 11
-78.0939743805
 21
17.4545362563
 31
0.0
 11
-77.8951582943
 21
17.4431343345
 31
0.0
 11
-77.7302767504
 21
17.4320620354
 31
0.0
 11
-77.6074942915
 21
17.4258545987
 31
0.0
 11
-77.5735785044
 21
17.4258588479
 31
0.0
  0
SPLINE
  5
55C
100
AcDbEntity
  8
RACCORDO
100
AcDbSpline
 62
253
  6
CONTINUOUS
 70
0
 71
3
 72
12
 73
8
 74
6
 42
0.0000001
 43
0.0000001
 44
0.0000000001
 12
0.2699821552
 22
-0.1258947465
 32
0.0
 13
-0.1258632469
 23
-0.2699968414
 33
0.0
 40
0.0
 40
0.0
 40
0.0
 40
0.0
 40
0.0490769833
 40
0.1909056712
 40
0.4118737943
 40
0.6905774034
 40
1.0
 40
1.0
 40
1.0
 40
1.0
 10
-86.0042742037
 20
25.9870546935
 30
0.0
 10
-85.9998575672
 20
25.9849951821
 30
0.0
 10
-86.0202046041
 20
25.9609466942
 30
0.0
 10
-86.0242726218
 20
25.9294146305
 30
0.0
 10
-86.0567575518
 20
25.8681669711
 30
0.0
 10
-86.0876430591
 20
25.7963168998
 30
0.0
 10
-86.1128423161
 20
25.7430100654
 30
0.0
 10
-86.1258239603
 20
25.7151623574
 30
0.0
 11
-86.0042742037
 21
25.9870546935
 31
0.0
 11
-86.0090989065
 21
25.9732540907
 31
0.0
 11
-86.0257510414
 21
25.9344244379
 31
0.0
 11
-86.0526157285
 21
25.8743313314
 31
0.0
 11
-86.0870877015
 21
25.7988024409
 31
0.0
 11
-86.1258239603
 21
25.7151623574
 31
0.0
  0
SPLINE
  5
55D
100
AcDbEntity
  8
RACCORDO
100
AcDbSpline
 62
253
  6
CONTINUOUS
 70
0
 71
3
 72
12
 73
8
 74
6
 42
0.0000001
 43
0.0000001
 44
0.0000000001
 12
0.2999905251
 22
-0.0052363541
 32
0.0
 13
-0.0052347787
 23
-0.2999905526
 33
0.0
 40
0.0
 40
0.0
 40
0.0
 40
0.0
 40
0.0492159435
 40
0.191271151
 40
0.4124352143
 40
0.6910959386
 40
1.0
 40
1.0
 40
1.0
 40
1.0
 10
-86.409440059
 20
26.0805946017
 30
0.0
 10
-86.4045186201
 20
26.0805086976
 30
0.0
 10
-86.4130804981
 20
26.0500150006
 30
0.0
 10
-86.4040006386
 20
26.0192676726
 30
0.0
 10
-86.4086014011
 20
25.9495780111
 30
0.0
 10
-86.4075745086
 20
25.8708428632
 30
0.0
 10
-86.4089010442
 20
25.8115297265
 30
0.0
 10
-86.409440059
 20
25.7806402931
 30
0.0
 11
-86.409440059
 21
26.0805946017
 31
0.0
 11
-86.4080790674
 21
26.065890889
 31
0.0
 11
-86.4073635767
 21
26.0232751871
 31
0.0
 11
-86.4073635906
 21
25.9569179571
 31
0.0
 11
-86.408079093
 21
25.8733127078
 31
0.0
 11
-86.409440059
 21
25.7806402931
 31
0.0
  0
SPLINE
  5
55E
100
AcDbEntity
  8
DRAFT
100
AcDbSpline
 62
7
  6
CONTINUOUS
 70
0
 71
3
 72
10
 73
6
 74
4
 42
0.0000001
 43
0.0000001
 44
0.0000000001
 12
8.976704374
 22
0.1287868865
 32
0.0
 13
8.9766435599
 23
0.1329581854
 33
0.0
 40
0.0
 40
0.0
 40
0.0
 40
0.0
 40
0.3358446414
 40
0.6691766453
 40
1.0
 40
1.0
 40
1.0
 40
1.0
 10
-87.5481481056
 20
17.3318006261
 30
0.0
 10
-86.543222085
 20
17.346218088
 30
0.0
 10
-84.5408905787
 20
17.3750940937
 30
0.0
 10
-81.5486656133
 20
17.418703301
 30
0.0
 10
-79.561367929
 20
17.4479780356
 30
0.0
 10
-78.5714734836
 20
17.4626399265
 30
0.0
 11
-87.5481481056
 21
17.3318006261
 31
0.0
 11
-84.5333733041
 21
17.3752796582
 31
0.0
 11
-81.5411603192
 21
17.4188911519
 31
0.0
 11
-78.5714734836
 21
17.4626399265
 31
0.0
  0
LINE
  5
55F
100
AcDbEntity
  8
RACCORDO
100
AcDbLine
 62
7
  6
CONTINUOUS
 10
-85.9826909214
 20
25.6484183253
 11
-87.5481481056
 21
25.6709384259
  0
SPLINE
  5
560
100
AcDbEntity
  8
RACCORDO
100
AcDbSpline
 62
7
  6
CONTINUOUS
 70
0
 71
3
 72
16
 73
12
 74
10
 42
0.0000001
 43
0.0000001
 44
0.0000000001
 12
1.1442789713
 22
0.5493401631
 32
0.0
 13
1.2691171123
 23
-0.0221525216
 33
0.0
 40
0.0
 40
0.0
 40
0.0
 40
0.0
 40
0.173715736
 40
0.3305632863
 40
0.4717690084
 40
0.597549877
 40
0.7084649049
 40
0.8044492392
 40
0.88502403
 40
0.9501864425
 40
1.0
 40
1.0
 40
1.0
 40
1.0
 10
-80.2636502804
 20
13.833755075
 30
0.0
 10
-80.1973905258
 20
13.865564752
 30
0.0
 10
-80.0713260195
 20
13.9261392365
 30
0.0
 10
-79.8910819788
 20
14.0119031109
 30
0.0
 10
-79.7285319468
 20
14.0876426043
 30
0.0
 10
-79.5827287662
 20
14.1532807375
 30
0.0
 10
-79.4532554027
 20
14.2085470428
 30
0.0
 10
-79.3400289938
 20
14.253008896
 30
0.0
 10
-79.2431718764
 20
14.2861248406
 30
0.0
 10
-79.1631373475
 20
14.3071478474
 30
0.0
 10
-79.1145166588
 20
14.3136207206
 30
0.0
 10
-79.0934435794
 20
14.3132528887
 30
0.0
 11
-80.2636502804
 21
13.833755075
 31
0.0
 11
-80.064829471
 21
13.9290975175
 31
0.0
 11
-79.8849851242
 21
14.0144915168
 31
0.0
 11
-79.7224443684
 21
14.0900249023
 31
0.0
 11
-79.576768631
 21
14.1553570435
 31
0.0
 11
-79.4471661409
 21
14.2103459547
 31
0.0
 11
-79.3336032614
 21
14.254470503
 31
0.0
 11
-79.2366139409
 21
14.2869224561
 31
0.0
 11
-79.1563531695
 21
14.3069067674
 31
0.0
 11
-79.0934435794
 21
14.3132528887
 31
0.0
  0
SPLINE
  5
561
100
AcDbEntity
  8
RACCORDO
100
AcDbSpline
 62
7
  6
CONTINUOUS
 70
0
 71
3
 72
18
 73
14
 74
12
 42
0.0000001
 43
0.0000001
 44
0.0000000001
 12
0.5795573358
 22
-0.270252024
 32
0.0
 13
-0.6394042495
 23
0.0092232132
 33
0.0
 40
0.0
 40
0.0
 40
0.0
 40
0.0
 40
0.0106776686
 40
0.0325177762
 40
0.077443661
 40
0.1441980263
 40
0.2279065912
 40
0.3226448369
 40
0.4310385909
 40
0.5528293351
 40
0.6873485904
 40
0.8359912194
 40
1.0
 40
1.0
 40
1.0
 40
1.0
 10
-85.3562578189
 20
25.6848796907
 30
0.0
 10
-85.3541950451
 20
25.6839178035
 30
0.0
 10
-85.3492187329
 20
25.6754334013
 30
0.0
 10
-85.3736193692
 20
25.6726425562
 30
0.0
 10
-85.3961367281
 20
25.6662988082
 30
0.0
 10
-85.4401733176
 20
25.6621529225
 30
0.0
 10
-85.491261909
 20
25.657600315
 30
0.0
 10
-85.5526329399
 20
25.6540310703
 30
0.0
 10
-85.6217241052
 20
25.6510598479
 30
0.0
 10
-85.6994699289
 20
25.648896328
 30
0.0
 10
-85.7857701121
 20
25.6476009473
 30
0.0
 10
-85.8810927808
 20
25.6473260703
 30
0.0
 10
-85.947734951
 20
25.647914096
 30
0.0
 10
-85.9826909214
 20
25.6484183253
 30
0.0
 11
-85.3562578189
 21
25.6848796907
 31
0.0
 11
-85.3525682292
 21
25.6791343195
 31
0.0
 11
-85.3652994523
 21
25.6733925254
 31
0.0
 11
-85.3934808454
 21
25.6678110869
 31
0.0
 11
-85.4358479614
 21
25.6625912045
 31
0.0
 11
-85.4891837861
 21
25.6580455553
 31
0.0
 11
-85.5496531057
 21
25.6543467514
 31
0.0
 11
-85.6189027718
 21
25.6513463106
 31
0.0
 11
-85.6967528514
 21
25.6491300235
 31
0.0
 11
-85.7827638735
 21
25.6478112652
 31
0.0
 11
-85.877816018
 21
25.6475118675
 31
0.0
 11
-85.9826909214
 21
25.6484183253
 31
0.0
  0
SPLINE
  5
562
100
AcDbEntity
  8
RACCORDO
100
AcDbSpline
 62
7
  6
CONTINUOUS
 70
0
 71
3
 72
11
 73
7
 74
5
 42
0.0000001
 43
0.0000001
 44
0.0000000001
 12
-0.0059530096
 22
-8.0039075222
 32
0.0
 13
-0.0040584398
 23
-8.003908707
 33
0.0
 40
0.0
 40
0.0
 40
0.0
 40
0.0
 40
0.2662657284
 40
0.5243810724
 40
0.7703146847
 40
1.0
 40
1.0
 40
1.0
 40
1.0
 10
-94.6589817892
 20
-5.9965720606
 30
0.0
 10
-94.65951015
 20
-6.706960816
 30
0.0
 10
-94.6604991279
 20
-8.1059933914
 30
0.0
 10
-94.6618151409
 20
-10.1611693729
 30
0.0
 10
-94.6629534531
 20
-12.118750003
 30
0.0
 10
-94.6636261636
 20
-13.3876868137
 30
0.0
 10
-94.6639368849
 20
-14.0004802453
 30
0.0
 11
-94.6589817892
 21
-5.9965720606
 31
0.0
 11
-94.6604904901
 21
-8.1277383822
 31
0.0
 11
-94.6618151987
 21
-10.1936698726
 31
0.0
 11
-94.6629612379
 21
-12.162099973
 31
0.0
 11
-94.6639368849
 21
-14.0004802453
 31
0.0
  0
LINE
  5
563
100
AcDbEntity
  8
RACCORDO
100
AcDbLine
 62
253
  6
CONTINUOUS
 10
-100.3971508846
 20
-4.735713171
 11
-99.3744928156
 21
-4.7468654034
  0
LINE
  5
564
100
AcDbEntity
  8
RACCORDO
100
AcDbLine
 62
253
  6
CONTINUOUS
 10
-99.3744928156
 20
-4.7468654034
 11
-98.4731248794
 21
-4.7566008333
  0
LINE
  5
565
100
AcDbEntity
  8
RACCORDO
100
AcDbLine
 62
253
  6
CONTINUOUS
 10
-98.4731248794
 20
-4.7566008333
 11
-95.9698366057
 21
-4.7833291557
  0
LINE
  5
566
100
AcDbEntity
  8
RACCORDO
100
AcDbLine
 62
253
  6
CONTINUOUS
 10
-95.9698366057
 20
-4.7833291557
 11
-95.0299475714
 21
-4.7929786373
  0
LINE
  5
567
100
AcDbEntity
  8
RACCORDO
100
AcDbLine
 62
253
  6
CONTINUOUS
 10
-95.0299475714
 20
-4.7929786373
 11
-94.8245069984
 21
-4.7950066457
  0
SPLINE
  5
568
100
AcDbEntity
  8
DRAFT
100
AcDbSpline
 62
7
  6
CONTINUOUS
 70
0
 71
3
 72
9
 73
5
 74
3
 42
0.0000001
 43
0.0000001
 44
0.0000000001
 12
0.2463174517
 22
-0.4651169196
 32
0.0
 13
0.5245785121
 23
0.0045779273
 33
0.0
 40
0.0
 40
0.0
 40
0.0
 40
0.0
 40
0.3931109523
 40
1.0
 40
1.0
 40
1.0
 40
1.0
 10
-98.4012016422
 20
-14.7187086087
 30
0.0
 10
-98.3689249462
 20
-14.7796561271
 30
0.0
 10
-98.2684377291
 20
-14.925399633
 30
0.0
 10
-98.1013448279
 20
-15.0322568124
 30
0.0
 10
-97.99522451
 20
-15.0313307144
 30
0.0
 11
-98.4012016422
 21
-14.7187086087
 31
0.0
 11
-98.2796267043
 21
-14.8882335179
 31
0.0
 11
-97.99522451
 21
-15.0313307144
 31
0.0
  0
SPLINE
  5
569
100
AcDbEntity
  8
RACCORDO
100
AcDbSpline
 62
253
  6
CONTINUOUS
 70
0
 71
3
 72
11
 73
7
 74
5
 42
0.0000001
 43
0.0000001
 44
0.0000000001
 12
0.0512539681
 22
0.7412679102
 32
0.0
 13
0.3323103401
 23
0.6651638377
 33
0.0
 40
0.0
 40
0.0
 40
0.0
 40
0.0
 40
0.2504878144
 40
0.5217432125
 40
0.8064062038
 40
1.0
 40
1.0
 40
1.0
 40
1.0
 10
-101.2426233933
 20
-5.9869471287
 30
0.0
 10
-101.2383438952
 20
-5.9250542692
 30
0.0
 10
-101.2234009566
 20
-5.7964781869
 30
0.0
 10
-101.181214512
 20
-5.6009173017
 30
0.0
 10
-101.1229161306
 20
-5.4242539499
 30
0.0
 10
-101.0746969605
 20
-5.3158448429
 30
0.0
 10
-101.0532525538
 20
-5.2729209787
 30
0.0
 11
-101.2426233933
 21
-5.9869471287
 31
0.0
 11
-101.2211487775
 21
-5.802068243
 31
0.0
 11
-101.1785451088
 21
-5.6050694144
 31
0.0
 11
-101.1119286769
 21
-5.4043183432
 31
0.0
 11
-101.0532525538
 21
-5.2729209787
 31
0.0
  0
SPLINE
  5
56A
100
AcDbEntity
  8
RACCORDO
100
AcDbSpline
 62
253
  6
CONTINUOUS
 70
0
 71
3
 72
12
 73
8
 74
6
 42
0.0000001
 43
0.0000001
 44
0.0000000001
 12
0.3972225408
 22
0.7950943374
 32
0.0
 13
0.8881274751
 23
-0.0096429749
 33
0.0
 40
0.0
 40
0.0
 40
0.0
 40
0.0
 40
0.0811145682
 40
0.3242608193
 40
0.561175063
 40
0.7860211474
 40
1.0
 40
1.0
 40
1.0
 40
1.0
 10
-101.0532525538
 20
-5.2729209787
 30
0.0
 10
-101.0425123755
 20
-5.2514230675
 30
0.0
 10
-100.9976467748
 20
-5.1664454972
 30
0.0
 10
-100.9062241993
 20
-5.0269085471
 30
0.0
 10
-100.7616410485
 20
-4.8743952463
 30
0.0
 10
-100.591473922
 20
-4.7644834758
 30
0.0
 10
-100.4604977173
 20
-4.7350253735
 30
0.0
 10
-100.3971508846
 20
-4.735713171
 30
0.0
 11
-101.0532525538
 21
-5.2729209787
 31
0.0
 11
-101.01956777
 21
-5.2091805952
 31
0.0
 11
-100.9000123195
 21
-5.0293357263
 31
0.0
 11
-100.7534875231
 21
-4.8783122448
 31
0.0
 11
-100.5833632739
 21
-4.7737209935
 31
0.0
 11
-100.3971508846
 21
-4.735713171
 31
0.0
  0
SPLINE
  5
56B
100
AcDbEntity
  8
DRAFT
100
AcDbSpline
 62
7
  6
CONTINUOUS
 70
0
 71
3
 72
9
 73
5
 74
3
 42
0.0000001
 43
0.0000001
 44
0.0000000001
 12
-0.5245784639
 22
0.0045779269
 32
0.0
 13
-0.246317482
 23
-0.4651168565
 33
0.0
 40
0.0
 40
0.0
 40
0.0
 40
0.0
 40
0.606889511
 40
1.0
 40
1.0
 40
1.0
 40
1.0
 10
-97.99522451
 20
-4.9659302336
 30
0.0
 10
-98.1013448992
 20
-4.965004135
 30
0.0
 10
-98.2684377625
 20
-5.0718613733
 30
0.0
 10
-98.3689249752
 20
-5.2176048726
 30
0.0
 10
-98.4012016371
 20
-5.2785523109
 30
0.0
 11
-97.99522451
 21
-4.9659302336
 31
0.0
 11
-98.2796268593
 21
-5.1090275977
 31
0.0
 11
-98.4012016371
 21
-5.2785523109
 31
0.0
  0
SPLINE
  5
56C
100
AcDbEntity
  8
RACCORDO
100
AcDbSpline
 62
253
  6
CONTINUOUS
 70
0
 71
3
 72
11
 73
7
 74
5
 42
0.0000001
 43
0.0000001
 44
0.0000000001
 12
0.3151330321
 22
6.5746648197
 32
0.0
 13
0.4257745594
 23
6.5684421792
 33
0.0
 40
0.0
 40
0.0
 40
0.0
 40
0.0
 40
0.2789186069
 40
0.5780161706
 40
0.8926057889
 40
1.0
 40
1.0
 40
1.0
 40
1.0
 10
-101.7068087823
 20
-13.9907351519
 30
0.0
 10
-101.6775099602
 20
-13.3794697012
 30
0.0
 10
-101.6141445125
 20
-12.1128407053
 30
0.0
 10
-101.5072675667
 20
-10.1573108436
 30
0.0
 10
-101.4126446069
 20
-8.5780315576
 30
0.0
 10
-101.3536889797
 20
-7.6540453968
 30
0.0
 10
-101.338447072
 20
-7.4189078414
 30
0.0
 11
-101.7068087823
 21
-13.9907351519
 31
0.0
 11
-101.6149959133
 21
-12.1571307106
 31
0.0
 11
-101.5074479041
 21
-10.1913466528
 31
0.0
 11
-101.3834652435
 21
-8.1243658732
 31
0.0
 11
-101.338447072
 21
-7.4189078414
 31
0.0
  0
SPLINE
  5
56D
100
AcDbEntity
  8
RACCORDO
100
AcDbSpline
 62
253
  6
CONTINUOUS
 70
0
 71
3
 72
11
 73
7
 74
5
 42
0.0000001
 43
0.0000001
 44
0.0000000001
 12
-0.643792779
 22
-0.0049032463
 32
0.0
 13
-0.3841664021
 23
0.5184953533
 33
0.0
 40
0.0
 40
0.0
 40
0.0
 40
0.0
 40
0.1891043457
 40
0.4074824503
 40
0.6706310997
 40
1.0
 40
1.0
 40
1.0
 40
1.0
 10
-100.9127656521
 20
-15.2489184809
 30
0.0
 10
-100.9533469896
 20
-15.249227556
 30
0.0
 10
-101.0411646381
 20
-15.2396509885
 30
0.0
 10
-101.1777699348
 20
-15.1902274675
 30
0.0
 10
-101.3237249737
 20
-15.0923573208
 30
0.0
 10
-101.4102836051
 20
-14.9976061535
 30
0.0
 10
-101.4524610936
 20
-14.9406807388
 30
0.0
 11
-100.9127656521
 21
-15.2489184809
 31
0.0
 11
-101.0338187976
 21
-15.2359338654
 31
0.0
 11
-101.1663027259
 21
-15.1888724932
 31
0.0
 11
-101.3078432347
 21
-15.095766201
 31
0.0
 11
-101.4524610936
 21
-14.9406807388
 31
0.0
  0
SPLINE
  5
56E
100
AcDbEntity
  8
RACCORDO
100
AcDbSpline
 62
253
  6
CONTINUOUS
 70
0
 71
3
 72
10
 73
6
 74
4
 42
0.0000001
 43
0.0000001
 44
0.0000000001
 12
-0.5967008617
 22
0.8053453463
 32
0.0
 13
0.0455913979
 23
0.9989509089
 33
0.0
 40
0.0
 40
0.0
 40
0.0
 40
0.0
 40
0.2715904465
 40
0.6137710597
 40
1.0
 40
1.0
 40
1.0
 40
1.0
 10
-101.4524610936
 20
-14.9406807388
 30
0.0
 10
-101.5064805114
 20
-14.8677727047
 30
0.0
 10
-101.6065443804
 20
-14.6872328925
 30
0.0
 10
-101.6990338172
 20
-14.364047289
 30
0.0
 10
-101.7126783547
 20
-14.1193430689
 30
0.0
 10
-101.7068087823
 20
-13.9907351519
 30
0.0
 11
-101.4524610936
 21
-14.9406807388
 31
0.0
 11
-101.5865584483
 21
-14.7045072748
 31
0.0
 11
-101.6831037293
 21
-14.3762323688
 31
0.0
 11
-101.7068087823
 21
-13.9907351519
 31
0.0
  0
SPLINE
  5
56F
100
AcDbEntity
  8
RACCORDO
100
AcDbSpline
 62
253
  6
CONTINUOUS
 70
0
 71
3
 72
12
 73
8
 74
6
 42
0.0000001
 43
0.0000001
 44
0.0000000001
 12
0.0630231229
 22
0.7596417914
 32
0.0
 13
0.456906867
 23
0.6112449945
 33
0.0
 40
0.0
 40
0.0
 40
0.0
 40
0.0
 40
0.2058900517
 40
0.4303677234
 40
0.6686382576
 40
0.9159704081
 40
1.0
 40
1.0
 40
1.0
 40
1.0
 10
-101.0758829245
 20
-5.998630474
 30
0.0
 10
-101.0715576465
 20
-5.9464962448
 30
0.0
 10
-101.0564155844
 20
-5.8379385467
 30
0.0
 10
-101.0137904572
 20
-5.6730838164
 30
0.0
 10
-100.9472518222
 20
-5.504835936
 30
0.0
 10
-100.876049312
 20
-5.378255698
 30
0.0
 10
-100.8274309917
 20
-5.3093583709
 30
0.0
 10
-100.8146330925
 20
-5.2922374817
 30
0.0
 11
-101.0758829245
 21
-5.998630474
 31
0.0
 11
-101.0542559377
 21
-5.8431877307
 31
0.0
 11
-101.0114076622
 21
-5.6775310524
 31
0.0
 11
-100.944442587
 21
-5.508704905
 31
0.0
 11
-100.8516261575
 21
-5.3446060884
 31
0.0
 11
-100.8146330925
 21
-5.2922374817
 31
0.0
  0
SPLINE
  5
570
100
AcDbEntity
  8
RACCORDO
100
AcDbSpline
 62
253
  6
CONTINUOUS
 70
0
 71
3
 72
11
 73
7
 74
5
 42
0.0000001
 43
0.0000001
 44
0.0000000001
 12
0.4127676624
 22
0.4915134273
 32
0.0
 13
0.641067605
 23
-0.0055698391
 33
0.0
 40
0.0
 40
0.0
 40
0.0
 40
0.0
 40
0.100888852
 40
0.4041334164
 40
0.7039675679
 40
1.0
 40
1.0
 40
1.0
 40
1.0
 10
-100.7746053242
 20
-5.2417090253
 30
0.0
 10
-100.7607241057
 20
-5.2251796168
 30
0.0
 10
-100.703180468
 20
-5.1605892094
 30
0.0
 10
-100.589243131
 20
-5.060723207
 30
0.0
 10
-100.4177908006
 20
-4.9695252021
 30
0.0
 10
-100.2895611384
 20
-4.9459102964
 30
0.0
 10
-100.2263022043
 20
-4.946459914
 30
0.0
 11
-100.7746053242
 21
-5.2417090253
 31
0.0
 11
-100.7315032512
 21
-5.193383017
 31
0.0
 11
-100.5842935403
 21
-5.0664042098
 31
0.0
 11
-100.4133682839
 21
-4.9784635897
 31
0.0
 11
-100.2263022043
 21
-4.946459914
 31
0.0
  0
SPLINE
  5
571
100
AcDbEntity
  8
RACCORDO
100
AcDbSpline
 62
253
  6
CONTINUOUS
 70
0
 71
3
 72
14
 73
10
 74
8
 42
0.0000001
 43
0.0000001
 44
0.0000000001
 12
1.9943377569
 22
-0.104601417
 32
0.0
 13
0.0520454907
 23
1.9964007142
 33
0.0
 40
0.0
 40
0.0
 40
0.0
 40
0.0
 40
0.0414621035
 40
0.1007324235
 40
0.1957054531
 40
0.3353971924
 40
0.5221518486
 40
0.748692955
 40
1.0
 40
1.0
 40
1.0
 40
1.0
 10
-93.6142315728
 20
-47.1807205106
 30
0.0
 10
-93.5866684266
 20
-47.1821661755
 30
0.0
 10
-93.5980922026
 20
-47.0718068412
 30
0.0
 10
-93.5704090522
 20
-46.9688437179
 30
0.0
 10
-93.5620042124
 20
-46.7604509957
 30
0.0
 10
-93.5420806851
 20
-46.4865629885
 30
0.0
 10
-93.5260500263
 20
-46.1163303106
 30
0.0
 10
-93.5089672969
 20
-45.6751313137
 30
0.0
 10
-93.4995922817
 20
-45.3569344405
 30
0.0
 10
-93.4952324822
 20
-45.1896979191
 30
0.0
 11
-93.6142315728
 21
-47.1807205106
 31
0.0
 11
-93.5917231618
 21
-47.1010353539
 31
0.0
 11
-93.5780297322
 21
-46.9834625774
 31
0.0
 11
-93.5625647849
 21
-46.7944254655
 31
0.0
 11
-93.5453988783
 21
-46.5159786528
 31
0.0
 11
-93.5274806625
 21
-46.1434455193
 31
0.0
 11
-93.5102573401
 21
-45.6913529908
 31
0.0
 11
-93.4952324822
 21
-45.1896979191
 31
0.0
  0
LINE
  5
572
100
AcDbEntity
  8
RACCORDO
100
AcDbLine
 62
253
  6
CONTINUOUS
 10
-94.837317815
 20
-15.2018645949
 11
-95.1239671742
 21
-15.2041821431
  0
LINE
  5
573
100
AcDbEntity
  8
RACCORDO
100
AcDbLine
 62
253
  6
CONTINUOUS
 10
-95.1239671742
 20
-15.2041821431
 11
-95.4495400365
 21
-15.2067763612
  0
LINE
  5
574
100
AcDbEntity
  8
RACCORDO
100
AcDbLine
 62
253
  6
CONTINUOUS
 10
-95.4495400365
 20
-15.2067763612
 11
-95.8138974992
 21
-15.2096460024
  0
LINE
  5
575
100
AcDbEntity
  8
RACCORDO
100
AcDbLine
 62
253
  6
CONTINUOUS
 10
-95.8138974992
 20
-15.2096460024
 11
-99.4356143515
 21
-15.2376148069
  0
LINE
  5
576
100
AcDbEntity
  8
RACCORDO
100
AcDbLine
 62
253
  6
CONTINUOUS
 10
-99.4356143515
 20
-15.2376148069
 11
-100.7456128792
 21
-15.2476389739
  0
LINE
  5
577
100
AcDbEntity
  8
RACCORDO
100
AcDbLine
 62
253
  6
CONTINUOUS
 10
-100.7456128792
 20
-15.2476389739
 11
-100.9127656521
 21
-15.2489184809
  0
SPLINE
  5
578
100
AcDbEntity
  8
RACCORDO
100
AcDbSpline
 62
253
  6
CONTINUOUS
 70
0
 71
3
 72
10
 73
6
 74
4
 42
0.0000001
 43
0.0000001
 44
0.0000000001
 12
-0.0002733277
 22
-0.5399720595
 32
0.0
 13
-0.0372746769
 23
-0.5385892138
 33
0.0
 40
0.0
 40
0.0
 40
0.0
 40
0.0
 40
0.3553786114
 40
0.7371236756
 40
1.0
 40
1.0
 40
1.0
 40
1.0
 10
-94.6639368849
 20
-14.0004802453
 30
0.0
 10
-94.6639692632
 20
-14.0644450855
 30
0.0
 10
-94.6654674036
 20
-14.1971446689
 30
0.0
 10
-94.6715876849
 20
-14.3769600942
 30
0.0
 10
-94.6783764146
 20
-14.4929695848
 30
0.0
 10
-94.6816426246
 20
-14.5401637024
 30
0.0
 11
-94.6639368849
 21
-14.0004802453
 31
0.0
 11
-94.6661142046
 21
-14.1923624378
 31
0.0
 11
-94.6733124022
 21
-14.3983684124
 31
0.0
 11
-94.6816426246
 21
-14.5401637024
 31
0.0
  0
SPLINE
  5
579
100
AcDbEntity
  8
RACCORDO
100
AcDbSpline
 62
253
  6
CONTINUOUS
 70
0
 71
3
 72
9
 73
5
 74
3
 42
0.0000001
 43
0.0000001
 44
0.0000000001
 12
-0.0147326731
 22
-0.2128753215
 32
0.0
 13
-0.0239294981
 23
-0.2123185275
 33
0.0
 40
0.0
 40
0.0
 40
0.0
 40
0.0
 40
0.333630399
 40
1.0
 40
1.0
 40
1.0
 40
1.0
 10
-94.6816426246
 20
-14.5401637024
 30
0.0
 10
-94.6832810472
 20
-14.5638375952
 30
0.0
 10
-94.6885673655
 20
-14.6347096756
 30
0.0
 10
-94.6950071988
 20
-14.7051748384
 30
0.0
 10
-94.7003224954
 20
-14.7523357092
 30
0.0
 11
-94.6816426246
 21
-14.5401637024
 31
0.0
 11
-94.686936797
 21
-14.6110824624
 31
0.0
 11
-94.7003224954
 21
-14.7523357092
 31
0.0
  0
SPLINE
  5
57A
100
AcDbEntity
  8
RACCORDO
100
AcDbSpline
 62
253
  6
CONTINUOUS
 70
0
 71
3
 72
9
 73
5
 74
3
 42
0.0000001
 43
0.0000001
 44
0.0000000001
 12
-0.0283765542
 22
-0.2517757869
 32
0.0
 13
-0.0489128724
 23
-0.2403588283
 33
0.0
 40
0.0
 40
0.0
 40
0.0
 40
0.0
 40
0.2700533842
 40
1.0
 40
1.0
 40
1.0
 40
1.0
 10
-94.7003224954
 20
-14.7523357092
 30
0.0
 10
-94.7028768903
 20
-14.7750000103
 30
0.0
 10
-94.7132114634
 20
-14.8591006144
 30
0.0
 10
-94.7275676664
 20
-14.9444375251
 30
0.0
 10
-94.7394689283
 20
-15.0029205629
 30
0.0
 11
-94.7003224954
 21
-14.7523357092
 31
0.0
 11
-94.7087519559
 21
-14.8205134782
 31
0.0
 11
-94.7394689283
 21
-15.0029205629
 31
0.0
  0
SPLINE
  5
57B
100
AcDbEntity
  8
RACCORDO
100
AcDbSpline
 62
253
  6
CONTINUOUS
 70
0
 71
3
 72
10
 73
6
 74
4
 42
0.0000001
 43
0.0000001
 44
0.0000000001
 12
-0.0397353346
 22
-0.195260225
 32
0.0
 13
-0.1645918494
 23
-0.1129561398
 33
0.0
 40
0.0
 40
0.0
 40
0.0
 40
0.0
 40
0.0343862633
 40
0.7422015308
 40
1.0
 40
1.0
 40
1.0
 40
1.0
 10
-94.7394689283
 20
-15.0029205629
 30
0.0
 10
-94.7399243782
 20
-15.0051586527
 30
0.0
 10
-94.7497998704
 20
-15.0533457479
 30
0.0
 10
-94.7643874011
 20
-15.1146122041
 30
0.0
 10
-94.8032239921
 20
-15.1855616053
 30
0.0
 10
-94.8173678344
 20
-15.1952682453
 30
0.0
 11
-94.7394689283
 21
-15.0029205629
 31
0.0
 11
-94.7408414852
 21
-15.0096178498
 31
0.0
 11
-94.7842510647
 21
-15.1485179634
 31
0.0
 11
-94.8173678344
 21
-15.1952682453
 31
0.0
  0
SPLINE
  5
57C
100
AcDbEntity
  8
RACCORDO
100
AcDbSpline
 62
253
  6
CONTINUOUS
 70
0
 71
3
 72
8
 73
4
 74
2
 42
0.0000001
 43
0.0000001
 44
0.0000000001
 12
-0.0178067153
 22
-0.0122203975
 32
0.0
 13
-0.0222418819
 23
-0.0002276377
 33
0.0
 40
0.0
 40
0.0
 40
0.0
 40
0.0
 40
1.0
 40
1.0
 40
1.0
 40
1.0
 10
-94.8173678344
 20
-15.1952682453
 30
0.0
 10
-94.8233034061
 20
-15.1993417111
 30
0.0
 10
-94.8299038544
 20
-15.2017887156
 30
0.0
 10
-94.837317815
 20
-15.2018645949
 30
0.0
 11
-94.8173678344
 21
-15.1952682453
 31
0.0
 11
-94.837317815
 21
-15.2018645949
 31
0.0
  0
SPLINE
  5
57D
100
AcDbEntity
  8
RACCORDO
100
AcDbSpline
 62
253
  6
CONTINUOUS
 70
0
 71
3
 72
23
 73
19
 74
17
 42
0.0000001
 43
0.0000001
 44
0.0000000001
 12
0.0002449103
 22
90.3827591032
 32
0.0
 13
0.0015014136
 23
90.3827590911
 33
0.0
 40
0.0
 40
0.0
 40
0.0
 40
0.0
 40
0.0939038189
 40
0.1807450496
 40
0.2599836594
 40
0.331790203
 40
0.3969842433
 40
0.4564119108
 40
0.5106854794
 40
0.5600764903
 40
0.6066456452
 40
0.6559452057
 40
0.710935472
 40
0.7706263889
 40
0.8335168722
 40
0.8917978753
 40
0.9452222041
 40
1.0
 40
1.0
 40
1.0
 40
1.0
 10
-94.4367859574
 20
-45.1896946481
 30
0.0
 10
-94.4367782914
 20
-42.3605992351
 30
0.0
 10
-94.43673579
 20
-36.9151871424
 30
0.0
 10
-94.4365801763
 20
-29.0825069909
 30
0.0
 10
-94.436338147
 20
-21.9155644108
 30
0.0
 10
-94.4360137267
 20
-15.4007994338
 30
0.0
 10
-94.4356095978
 20
-9.4828903375
 30
0.0
 10
-94.435126595
 20
-4.0932074697
 30
0.0
 10
-94.43456644
 20
0.8203682541
 30
0.0
 10
-94.433927459
 20
5.346548019
 30
0.0
 10
-94.4331812634
 20
9.7228729063
 30
0.0
 10
-94.4322625035
 20
14.2678898151
 30
0.0
 10
-94.4311085088
 20
19.2082336977
 30
0.0
 10
-94.4297792299
 20
24.5580392514
 30
0.0
 10
-94.4285755401
 20
30.0069867968
 30
0.0
 10
-94.4277442663
 20
35.267137238
 30
0.0
 10
-94.4272707752
 20
40.282872031
 30
0.0
 10
-94.4271422852
 20
43.5427408883
 30
0.0
 10
-94.4271148704
 20
45.1930636643
 30
0.0
 11
-94.4367859574
 21
-45.1896946481
 31
0.0
 11
-94.4367163999
 21
-36.7024084094
 31
0.0
 11
-94.4365566059
 21
-28.8534583716
 31
0.0
 11
-94.4363105133
 21
-21.6916541959
 31
0.0
 11
-94.4359828389
 21
-15.2015806717
 31
0.0
 11
-94.4355758204
 21
-9.3091634438
 31
0.0
 11
-94.4350898599
 21
-3.9379269112
 31
0.0
 11
-94.4345264084
 21
0.967467927
 31
0.0
 11
-94.433892991
 21
5.4315637222
 31
0.0
 11
-94.4331737264
 21
9.6406123783
 31
0.0
 11
-94.432275087
 21
14.0964425807
 31
0.0
 11
-94.4311297631
 21
19.0666144408
 31
0.0
 11
-94.4298273238
 21
24.461644049
 31
0.0
 11
-94.4286066904
 21
30.1458593177
 31
0.0
 11
-94.4277794358
 21
35.4134571159
 31
0.0
 11
-94.4273183219
 21
40.2420953398
 31
0.0
 11
-94.4271148704
 21
45.1930636643
 31
0.0
  0
SPLINE
  5
57E
100
AcDbEntity
  8
RACCORDO
100
AcDbSpline
 62
253
  6
CONTINUOUS
 70
0
 71
3
 72
14
 73
10
 74
8
 42
0.0000001
 43
0.0000001
 44
0.0000000001
 12
1.0107347145
 22
-0.0538426613
 32
0.0
 13
0.0000073604
 23
1.0121678197
 33
0.0
 40
0.0
 40
0.0
 40
0.0
 40
0.0
 40
0.0511855996
 40
0.1114453844
 40
0.2060340479
 40
0.344206751
 40
0.5285062659
 40
0.7519927004
 40
1.0
 40
1.0
 40
1.0
 40
1.0
 10
-94.5540591313
 20
-46.1820847275
 30
0.0
 10
-94.5368141105
 20
-46.1830033838
 30
0.0
 10
-94.5151370861
 20
-46.136930105
 30
0.0
 10
-94.4978063802
 20
-46.0763617195
 30
0.0
 10
-94.4789433142
 20
-45.9760488595
 30
0.0
 10
-94.4624728209
 20
-45.837667396
 30
0.0
 10
-94.448266911
 20
-45.6533982928
 30
0.0
 10
-94.4389637047
 20
-45.4325088586
 30
0.0
 10
-94.4367865659
 20
-45.2733696506
 30
0.0
 10
-94.4367859574
 20
-45.1896946481
 30
0.0
 11
-94.5540591313
 21
-46.1820847275
 31
0.0
 11
-94.5194972971
 21
-46.143489499
 31
0.0
 11
-94.5011569189
 21
-46.0853192454
 31
0.0
 11
-94.482705463
 21
-45.9913745008
 31
0.0
 11
-94.4650920332
 21
-45.8526341021
 31
0.0
 11
-94.4502722604
 21
-45.6666816717
 31
0.0
 11
-94.4403251871
 21
-45.4406947045
 31
0.0
 11
-94.4367859574
 21
-45.1896946481
 31
0.0
  0
SPLINE
  5
57F
100
AcDbEntity
  8
RACCORDO
100
AcDbSpline
 62
253
  6
CONTINUOUS
 70
0
 71
3
 72
23
 73
19
 74
17
 42
0.0000001
 43
0.0000001
 44
0.0000000001
 12
3.0554407083
 22
0.1987620852
 32
0.0
 13
2.0338757625
 23
0.1055347505
 33
0.0
 40
0.0
 40
0.0
 40
0.0
 40
0.0
 40
0.0003695952
 40
0.0060345391
 40
0.0165608759
 40
0.0381680979
 40
0.0684374863
 40
0.1073643226
 40
0.1549247874
 40
0.2110864471
 40
0.2758202246
 40
0.3491039969
 40
0.4309219747
 40
0.521265343
 40
0.6201316065
 40
0.7275222512
 40
0.8434395001
 40
1.0
 40
1.0
 40
1.0
 40
1.0
 10
-96.5526905074
 20
46.0798125096
 30
0.0
 10
-96.552314082
 20
46.0798369968
 30
0.0
 10
-96.5449533165
 20
46.0803158679
 30
0.0
 10
-96.5390330758
 20
46.0807184936
 30
0.0
 10
-96.5092909639
 20
46.0827224585
 30
0.0
 10
-96.4696125923
 20
46.0854936431
 30
0.0
 10
-96.406934028
 20
46.0899122143
 30
0.0
 10
-96.3283283853
 20
46.0954196358
 30
0.0
 10
-96.23153983
 20
46.1019452038
 30
0.0
 10
-96.1174683588
 20
46.1092065137
 30
0.0
 10
-95.9858621169
 20
46.1170869221
 30
0.0
 10
-95.8368682948
 20
46.1255481616
 30
0.0
 10
-95.6704887006
 20
46.1346344291
 30
0.0
 10
-95.486757
 20
46.1444200929
 30
0.0
 10
-95.2856806496
 20
46.1549794257
 30
0.0
 10
-95.0672628365
 20
46.1663681023
 30
0.0
 10
-94.8097289962
 20
46.1797546618
 30
0.0
 10
-94.6250003578
 20
46.1893396842
 30
0.0
 10
-94.5188588224
 20
46.1948472086
 30
0.0
 11
-96.5526905074
 21
46.0798125096
 31
0.0
 11
-96.551431957
 21
46.0798944093
 31
0.0
 11
-96.5399199081
 21
46.0806571986
 31
0.0
 11
-96.518530809
 21
46.0821052965
 31
0.0
 11
-96.4746305484
 21
46.0851472492
 31
0.0
 11
-96.4131353793
 21
46.0894711964
 31
0.0
 11
-96.3340486626
 21
46.0949874302
 31
0.0
 11
-96.2374052436
 21
46.1014941513
 31
0.0
 11
-96.1232574627
 21
46.108771215
 31
0.0
 11
-95.9916570924
 21
46.1166763519
 31
0.0
 11
-95.8426482958
 21
46.1251688098
 31
0.0
 11
-95.6762662859
 21
46.1342832928
 31
0.0
 11
-95.4925334647
 21
46.144090602
 31
0.0
 11
-95.2914590592
 21
46.1546640154
 31
0.0
 11
-95.0730431381
 21
46.1660610391
 31
0.0
 11
-94.8372831517
 21
46.1783193007
 31
0.0
 11
-94.5188588224
 21
46.1948472086
 31
0.0
  0
SPLINE
  5
580
100
AcDbEntity
  8
RACCORDO
100
AcDbSpline
 62
253
  6
CONTINUOUS
 70
0
 71
3
 72
10
 73
6
 74
4
 42
0.0000001
 43
0.0000001
 44
0.0000000001
 12
-0.0005820436
 22
1.4993236717
 32
0.0
 13
1.497269015
 23
0.0784685163
 33
0.0
 40
0.0
 40
0.0
 40
0.0
 40
0.0
 40
0.3339078349
 40
0.6672305051
 40
1.0
 40
1.0
 40
1.0
 40
1.0
 10
-94.518447945
 20
46.1869283918
 30
0.0
 10
-94.518512728
 20
46.3538070321
 30
0.0
 10
-94.4317231646
 20
46.693306422
 30
0.0
 10
-94.0747382201
 20
47.0715247567
 30
0.0
 10
-93.7408782213
 20
47.176822296
 30
0.0
 10
-93.5747964033
 20
47.1855262722
 30
0.0
 11
-94.518447945
 21
46.1869283918
 31
0.0
 11
-94.3937302102
 21
46.6717807918
 31
0.0
 11
-94.0504820531
 21
47.0350153831
 31
0.0
 11
-93.5747964033
 21
47.1855262722
 31
0.0
  0
SPLINE
  5
581
100
AcDbEntity
  8
RACCORDO
100
AcDbSpline
 62
253
  6
CONTINUOUS
 70
0
 71
3
 72
11
 73
7
 74
5
 42
0.0000001
 43
0.0000001
 44
0.0000000001
 12
0.3526653201
 22
7.2837332139
 32
0.0
 13
0.4915323866
 23
7.2756921174
 33
0.0
 40
0.0
 40
0.0
 40
0.0
 40
0.0
 40
0.2516621269
 40
0.5215237221
 40
0.8053535267
 40
1.0
 40
1.0
 40
1.0
 40
1.0
 10
-101.5444927636
 20
-13.998630474
 30
0.0
 10
-101.5149085954
 20
-13.3876172098
 30
0.0
 10
-101.4509287389
 20
-12.1215316056
 30
0.0
 10
-101.3430234636
 20
-10.1668824037
 30
0.0
 10
-101.2331462622
 20
-8.3511686983
 30
0.0
 10
-101.1571878514
 20
-7.1905873431
 30
0.0
 10
-101.1252961696
 20
-6.7185247393
 30
0.0
 11
-101.5444927636
 21
-13.998630474
 31
0.0
 11
-101.4517883929
 21
-12.1657862939
 31
0.0
 11
-101.3432057483
 21
-10.2008816854
 31
0.0
 11
-101.2180443072
 21
-8.1349070822
 31
0.0
 11
-101.1252961696
 21
-6.7185247393
 31
0.0
  0
SPLINE
  5
582
100
AcDbEntity
  8
RACCORDO
100
AcDbSpline
 62
253
  6
CONTINUOUS
 70
0
 71
3
 72
23
 73
19
 74
17
 42
0.0000001
 43
0.0000001
 44
0.0000000001
 12
0.0002984464
 22
90.3827432705
 32
0.0
 13
0.0017723812
 23
90.3827432536
 33
0.0
 40
0.0
 40
0.0
 40
0.0
 40
0.0
 40
0.0939036839
 40
0.180744756
 40
0.2599831799
 40
0.3317895066
 40
0.3969832946
 40
0.4564106706
 40
0.5106839092
 40
0.5600745624
 40
0.6066433408
 40
0.6559425085
 40
0.7109324843
 40
0.770623502
 40
0.8335146208
 40
0.8917964573
 40
0.9452215416
 40
1.0
 40
1.0
 40
1.0
 40
1.0
 10
-93.4952324822
 20
-45.1896979191
 30
0.0
 10
-93.4952231404
 20
-42.3606070673
 30
0.0
 10
-93.4951713008
 20
-36.9152047739
 30
0.0
 10
-93.4949815829
 20
-29.0825404423
 30
0.0
 10
-93.4946867355
 20
-21.9156160346
 30
0.0
 10
-93.494291939
 20
-15.4008719399
 30
0.0
 10
-93.4938008137
 20
-9.4829868032
 30
0.0
 10
-93.493214808
 20
-4.0933312125
 30
0.0
 10
-93.4925365165
 20
0.820214137
 30
0.0
 10
-93.4917644995
 20
5.3463610259
 30
0.0
 10
-93.490865171
 20
9.7226511615
 30
0.0
 10
-93.4897612553
 20
14.2676353041
 30
0.0
 10
-93.4883794288
 20
19.2079607139
 30
0.0
 10
-93.4867954994
 20
24.5577786924
 30
0.0
 10
-93.4853701991
 20
30.0067725204
 30
0.0
 10
-93.4843873161
 20
35.2669890313
 30
0.0
 10
-93.4838293377
 20
40.282790767
 30
0.0
 10
-93.4836778313
 20
43.5427017742
 30
0.0
 10
-93.4836454685
 20
45.1930442207
 30
0.0
 11
-93.4952324822
 21
-45.1896979191
 31
0.0
 11
-93.4951476666
 21
-36.7024253641
 31
0.0
 11
-93.4949528897
 21
-28.8534910417
 31
0.0
 11
-93.4946531522
 21
-21.6917049273
 31
0.0
 11
-93.494254479
 21
-15.201652145
 31
0.0
 11
-93.4937599502
 21
-9.3092587624
 31
0.0
 11
-93.4931704899
 21
-3.9380495231
 31
0.0
 11
-93.492488368
 21
0.9673146201
 31
0.0
 11
-93.4917232444
 21
5.4313772789
 31
0.0
 11
-93.4908565957
 21
9.6403911363
 31
0.0
 11
-93.4897770487
 21
14.0961850159
 31
0.0
 11
-93.4884060406
 21
19.0663296963
 31
0.0
 11
-93.486854256
 21
24.4613674003
 31
0.0
 11
-93.4854073555
 21
30.1456390592
 31
0.0
 11
-93.4844292413
 21
35.4133112321
 31
0.0
 11
-93.4838853463
 21
40.2420168858
 31
0.0
 11
-93.4836454685
 21
45.1930442207
 31
0.0
  0
SPLINE
  5
583
100
AcDbEntity
  8
RACCORDO
100
AcDbSpline
 62
253
  6
CONTINUOUS
 70
0
 71
3
 72
15
 73
11
 74
9
 42
0.0000001
 43
0.0000001
 44
0.0000000001
 12
-0.0520062585
 22
1.9946365557
 32
0.0
 13
-1.9926602963
 23
-0.1028814063
 33
0.0
 40
0.0
 40
0.0
 40
0.0
 40
0.0
 40
0.1365856443
 40
0.2832889253
 40
0.4373913015
 40
0.595121245
 40
0.7481828201
 40
0.8789324735
 40
0.967876327
 40
1.0
 40
1.0
 40
1.0
 40
1.0
 10
-93.4836454685
 20
45.1930442207
 30
0.0
 10
-93.4860132379
 20
45.2838571271
 30
0.0
 10
-93.4912078216
 20
45.4721732026
 30
0.0
 10
-93.4999397591
 20
45.7630963214
 30
0.0
 10
-93.5106083341
 20
46.0673248949
 30
0.0
 10
-93.52088218
 20
46.3784890784
 30
0.0
 10
-93.538728933
 20
46.6643190871
 30
0.0
 10
-93.5372838152
 20
46.9336101717
 30
0.0
 10
-93.5783606358
 20
47.0561552977
 30
0.0
 10
-93.553459214
 20
47.1866279151
 30
0.0
 10
-93.5747964033
 20
47.1855262722
 30
0.0
 11
-93.4836454685
 21
45.1930442207
 31
0.0
 11
-93.49112944
 21
45.4654727487
 31
0.0
 11
-93.5000283632
 21
45.758056622
 31
0.0
 11
-93.5104350382
 21
46.0653631596
 31
0.0
 11
-93.5224518478
 21
46.3798544913
 31
0.0
 11
-93.5359742423
 21
46.6849609484
 31
0.0
 11
-93.5501167412
 21
46.9454640075
 31
0.0
 11
-93.5635302097
 21
47.1224273321
 31
0.0
 11
-93.5747964033
 21
47.1855262722
 31
0.0
  0
SPLINE
  5
584
100
AcDbEntity
  8
RACCORDO
100
AcDbSpline
 62
7
  6
CONTINUOUS
 70
0
 71
3
 72
10
 73
6
 74
4
 42
0.0000001
 43
0.0000001
 44
0.0000000001
 12
-0.0153687174
 22
-0.3051549596
 32
0.0
 13
0.3053329385
 23
0.0112935159
 33
0.0
 40
0.0
 40
0.0
 40
0.0
 40
0.0
 40
0.3547933587
 40
0.6886555028
 40
1.0
 40
1.0
 40
1.0
 40
1.0
 10
-100.4038923892
 20
-4.7352784733
 30
0.0
 10
-100.4057099622
 20
-4.7713674576
 30
0.0
 10
-100.39254099
 20
-4.8434531561
 30
0.0
 10
-100.3258463045
 20
-4.9267527752
 30
0.0
 10
-100.2579778169
 20
-4.9472572677
 30
0.0
 10
-100.2262899068
 20
-4.9460852097
 30
0.0
 11
-100.4038923892
 21
-4.7352784733
 31
0.0
 11
-100.3834451199
 21
-4.8417367958
 31
0.0
 11
-100.317694378
 21
-4.9197280676
 31
0.0
 11
-100.2262899068
 21
-4.9460852097
 31
0.0
  0
SPLINE
  5
585
100
AcDbEntity
  8
RACCORDO
100
AcDbSpline
 62
253
  6
CONTINUOUS
 70
0
 71
3
 72
10
 73
6
 74
4
 42
0.0000001
 43
0.0000001
 44
0.0000000001
 12
0.0067643604
 22
0.2782296253
 32
0.0
 13
0.2783012465
 23
0.0024284104
 33
0.0
 40
0.0
 40
0.0
 40
0.0
 40
0.0
 40
0.3582725232
 40
0.6918649313
 40
1.0
 40
1.0
 40
1.0
 40
1.0
 10
-100.9127661218
 20
-15.2489184629
 30
0.0
 10
-100.9119582936
 20
-15.2156911196
 30
0.0
 10
-100.8967981305
 20
-15.1509172778
 30
0.0
 10
-100.8359619084
 20
-15.0759730234
 30
0.0
 10
-100.7755751283
 20
-15.0555947398
 30
0.0
 10
-100.7469903371
 20
-15.0553453137
 30
0.0
 11
-100.9127661218
 21
-15.2489184629
 31
0.0
 11
-100.8890358739
 21
-15.1520719054
 31
0.0
 11
-100.8286447474
 21
-15.0815546593
 31
0.0
 11
-100.7469903371
 21
-15.0553453137
 31
0.0
  0
SPLINE
  5
586
100
AcDbEntity
  8
RACCORDO
100
AcDbSpline
 62
253
  6
CONTINUOUS
 70
0
 71
3
 72
9
 73
5
 74
3
 42
0.0000001
 43
0.0000001
 44
0.0000000001
 12
-0.0003091196
 22
-0.1769113451
 32
0.0
 13
0.1389857309
 23
-0.1125976757
 33
0.0
 40
0.0
 40
0.0
 40
0.0
 40
0.0
 40
0.5821910837
 40
1.0
 40
1.0
 40
1.0
 40
1.0
 10
-94.8245064107
 20
-4.7950066467
 30
0.0
 10
-94.8245663996
 20
-4.8293387159
 30
0.0
 10
-94.8089509962
 20
-4.8894517963
 30
0.0
 10
-94.7697939748
 20
-4.9357203189
 30
0.0
 10
-94.7504374823
 20
-4.9514017565
 30
0.0
 11
-94.8245064107
 21
-4.7950066467
 31
0.0
 11
-94.7984047543
 21
-4.8946407509
 31
0.0
 11
-94.7504374823
 21
-4.9514017565
 31
0.0
  0
SPLINE
  5
587
100
AcDbEntity
  8
RACCORDO
100
AcDbSpline
 62
253
  6
CONTINUOUS
 70
0
 71
3
 72
14
 73
10
 74
8
 42
0.0000001
 43
0.0000001
 44
0.0000000001
 12
0.0000000923
 22
0.0000016006
 32
0.0
 13
3.0626988618
 23
-0.1552406036
 33
0.0
 40
0.0
 40
0.0
 40
0.0
 40
0.0
 40
0.0192299783
 40
0.058594525
 40
0.1265500774
 40
0.235044471
 40
0.401671478
 40
0.6493105928
 40
1.0
 40
1.0
 40
1.0
 40
1.0
 10
-114.5373077407
 20
-45.1287148303
 30
0.0
 10
-114.5373077401
 20
-45.12871482
 30
0.0
 10
-114.4332064129
 20
-45.1340974298
 30
0.0
 10
-114.3390905017
 20
-45.1389380038
 30
0.0
 10
-114.0984825029
 20
-45.1513018501
 30
0.0
 10
-113.7590995971
 20
-45.1686491608
 30
0.0
 10
-113.2203566635
 20
-45.1960805873
 30
0.0
 10
-112.4422582402
 20
-45.2355086996
 30
0.0
 10
-111.8310783589
 20
-45.2664351868
 30
0.0
 10
-111.4730596761
 20
-45.2845822652
 30
0.0
 11
-114.5373077407
 21
-45.1287148303
 31
0.0
 11
-114.4754971592
 21
-45.1319094828
 31
0.0
 11
-114.3549944203
 21
-45.138119289
 31
0.0
 11
-114.1469670532
 21
-45.1488033993
 31
0.0
 11
-113.8148375245
 21
-45.1657914794
 31
0.0
 11
-113.304743101
 21
-45.1917671363
 31
0.0
 11
-112.5466385958
 21
-45.2302120516
 31
0.0
 11
-111.4730596761
 21
-45.2845822652
 31
0.0
  0
SPLINE
  5
588
100
AcDbEntity
  8
RACCORDO
100
AcDbSpline
 62
253
  6
CONTINUOUS
 70
0
 71
3
 72
22
 73
18
 74
16
 42
0.0000001
 43
0.0000001
 44
0.0000000001
 12
-6.5673154191
 22
0.3334324976
 32
0.0
 13
6.5706713548
 23
-0.3330510224
 33
0.0
 40
0.0
 40
0.0
 40
0.0
 40
0.0
 40
0.1052756337
 40
0.259456297
 40
0.3664520344
 40
0.4372855308
 40
0.4828918341
 40
0.5110233992
 40
0.5268346549
 40
0.5334690706
 40
0.5428468315
 40
0.5611952994
 40
0.5928705091
 40
0.6434415448
 40
0.7211091555
 40
0.8365378528
 40
1.0
 40
1.0
 40
1.0
 40
1.0
 10
-111.0333483633
 20
-45.3068865715
 30
0.0
 10
-111.2638077942
 20
-45.295185799
 30
0.0
 10
-111.8318523907
 20
-45.266388252
 30
0.0
 10
-112.6347417739
 20
-45.2257686456
 30
0.0
 10
-113.3597912394
 20
-45.1889932958
 30
0.0
 10
-113.8526825236
 20
-45.1638724047
 30
0.0
 10
-114.1617548827
 20
-45.1480556665
 30
0.0
 10
-114.3716332723
 20
-45.1372651854
 30
0.0
 10
-114.4597454828
 20
-45.1327254016
 30
0.0
 10
-114.5659909495
 20
-45.127231694
 30
0.0
 10
-114.4338675212
 20
-45.1340634277
 30
0.0
 10
-114.3390905017
 20
-45.1389380038
 30
0.0
 10
-114.0984825029
 20
-45.1513018501
 30
0.0
 10
-113.7590995971
 20
-45.1686491608
 30
0.0
 10
-113.2203566635
 20
-45.1960805873
 30
0.0
 10
-112.4422582402
 20
-45.2355086996
 30
0.0
 10
-111.8310783589
 20
-45.2664351868
 30
0.0
 10
-111.4730596761
 20
-45.2845822652
 30
0.0
 11
-111.0333483633
 21
-45.3068865715
 31
0.0
 11
-111.7248504312
 21
-45.2718225621
 31
0.0
 11
-112.7374711733
 21
-45.2205456665
 31
0.0
 11
-113.4401888125
 21
-45.1848806113
 31
0.0
 11
-113.9053978714
 21
-45.1611664886
 31
0.0
 11
-114.2049203221
 21
-45.145830937
 31
0.0
 11
-114.3896743494
 21
-45.1363341962
 31
0.0
 11
-114.4935138348
 21
-45.1309786863
 31
0.0
 11
-114.5370847011
 21
-45.1287263643
 31
0.0
 11
-114.4754971592
 21
-45.1319094828
 31
0.0
 11
-114.3549944203
 21
-45.138119289
 31
0.0
 11
-114.1469670532
 21
-45.1488033993
 31
0.0
 11
-113.8148375245
 21
-45.1657914794
 31
0.0
 11
-113.304743101
 21
-45.1917671363
 31
0.0
 11
-112.5466385958
 21
-45.2302120516
 31
0.0
 11
-111.4730596761
 21
-45.2845822652
 31
0.0
  0
SPLINE
  5
589
100
AcDbEntity
  8
RACCORDO
100
AcDbSpline
 62
253
  6
CONTINUOUS
 70
0
 71
3
 72
27
 73
23
 74
21
 42
0.0000001
 43
0.0000001
 44
0.0000000001
 12
-14.79845391
 22
0.7749724523
 32
0.0
 13
14.7989237911
 23
-0.7705461205
 33
0.0
 40
0.0
 40
0.0
 40
0.0
 40
0.0
 40
0.1189336361
 40
0.2403608778
 40
0.3343933704
 40
0.4028139796
 40
0.4502953782
 40
0.4817290928
 40
0.5019677595
 40
0.5144516779
 40
0.5214682241
 40
0.5244123726
 40
0.5285739328
 40
0.5367164153
 40
0.5507728935
 40
0.5732147549
 40
0.6076812381
 40
0.6589049234
 40
0.731444368
 40
0.8293254404
 40
0.9533884223
 40
1.0
 40
1.0
 40
1.0
 40
1.0
 10
-106.7760366849
 20
-45.5261688135
 30
0.0
 10
-107.3627146622
 20
-45.4954453829
 30
0.0
 10
-108.5483923282
 20
-45.4337840685
 30
0.0
 10
-110.1981326651
 20
-45.3492468403
 30
0.0
 10
-111.5982511752
 20
-45.2782065543
 30
0.0
 10
-112.6347417739
 20
-45.2257686456
 30
0.0
 10
-113.3597912394
 20
-45.1889932958
 30
0.0
 10
-113.8526825236
 20
-45.1638724047
 30
0.0
 10
-114.1617548827
 20
-45.1480556665
 30
0.0
 10
-114.3716332723
 20
-45.1372651854
 30
0.0
 10
-114.4597454828
 20
-45.1327254016
 30
0.0
 10
-114.5659909495
 20
-45.127231694
 30
0.0
 10
-114.4338675212
 20
-45.1340634277
 30
0.0
 10
-114.3390905017
 20
-45.1389380038
 30
0.0
 10
-114.0984825029
 20
-45.1513018501
 30
0.0
 10
-113.7590995971
 20
-45.1686491608
 30
0.0
 10
-113.2203566635
 20
-45.1960805873
 30
0.0
 10
-112.4422582402
 20
-45.2355086996
 30
0.0
 10
-111.3477119298
 20
-45.2908941491
 30
0.0
 10
-109.8954001492
 20
-45.3646774432
 30
0.0
 10
-108.5704554643
 20
-45.4327505352
 30
0.0
 10
-107.728505182
 20
-45.4764666173
 30
0.0
 10
-107.4985714532
 20
-45.4884387408
 30
0.0
 11
-106.7760366849
 21
-45.5261688135
 31
0.0
 11
-108.5361284234
 21
-45.434643201
 31
0.0
 11
-110.3331856828
 21
-45.3424964548
 31
0.0
 11
-111.7248504312
 21
-45.2718225621
 31
0.0
 11
-112.7374711733
 21
-45.2205456665
 31
0.0
 11
-113.4401888125
 21
-45.1848806113
 31
0.0
 11
-113.9053978714
 21
-45.1611664886
 31
0.0
 11
-114.2049203221
 21
-45.145830937
 31
0.0
 11
-114.3896743494
 21
-45.1363341962
 31
0.0
 11
-114.4935138348
 21
-45.1309786863
 31
0.0
 11
-114.5370847011
 21
-45.1287263643
 31
0.0
 11
-114.4754971592
 21
-45.1319094828
 31
0.0
 11
-114.3549944203
 21
-45.138119289
 31
0.0
 11
-114.1469670532
 21
-45.1488033993
 31
0.0
 11
-113.8148375245
 21
-45.1657914794
 31
0.0
 11
-113.304743101
 21
-45.1917671363
 31
0.0
 11
-112.5466385958
 21
-45.2302120516
 31
0.0
 11
-111.4730596761
 21
-45.2845822652
 31
0.0
 11
-110.024441445
 21
-45.3582438763
 31
0.0
 11
-108.1883885603
 21
-45.4526225534
 31
0.0
 11
-107.4985714532
 21
-45.4884387408
 31
0.0
  0
SPLINE
  5
58A
100
AcDbEntity
  8
RACCORDO
100
AcDbSpline
 62
253
  6
CONTINUOUS
 70
0
 71
3
 72
14
 73
10
 74
8
 42
0.0000001
 43
0.0000001
 44
0.0000000001
 12
-12.2222549811
 22
0.650827824
 32
0.0
 13
-12.2226832543
 23
0.6400832731
 33
0.0
 40
0.0
 40
0.0
 40
0.0
 40
0.0
 40
0.086018928
 40
0.214013414
 40
0.3797035925
 40
0.571272757
 40
0.772309825
 40
0.9677496003
 40
1.0
 40
1.0
 40
1.0
 40
1.0
 10
-94.554059131
 20
-46.182084721
 30
0.0
 10
-94.9045075545
 20
-46.1634235505
 30
0.0
 10
-95.7764058483
 20
-46.1167970059
 30
0.0
 10
-97.3233021955
 20
-46.0335184737
 30
0.0
 10
-99.3001709604
 20
-45.9264519609
 30
0.0
 10
-101.5746038225
 20
-45.8031890026
 30
0.0
 10
-103.9702795154
 20
-45.6743146165
 30
0.0
 10
-105.7169832981
 20
-45.5817053158
 30
0.0
 10
-106.6446412113
 20
-45.533049794
 30
0.0
 10
-106.7760366849
 20
-45.5261688135
 30
0.0
 11
-94.554059131
 21
-46.182084721
 31
0.0
 11
-95.6053932251
 21
-46.1258917125
 31
0.0
 11
-97.1697275444
 21
-46.0417127248
 31
0.0
 11
-99.1947425023
 21
-45.9321508517
 31
0.0
 11
-101.5360401108
 21
-45.8054314576
 31
0.0
 11
-103.9931031807
 21
-45.6734087431
 31
0.0
 11
-106.3818515478
 21
-45.5468436743
 31
0.0
 11
-106.7760366849
 21
-45.5261688135
 31
0.0
  0
SPLINE
  5
58B
100
AcDbEntity
  8
RACCORDO
100
AcDbSpline
 62
253
  6
CONTINUOUS
 70
0
 71
3
 72
12
 73
8
 74
6
 42
0.0000001
 43
0.0000001
 44
0.0000000001
 12
-0.8575576012
 22
-0.0074746072
 32
0.0
 13
-0.3926728837
 23
0.7650419383
 33
0.0
 40
0.0
 40
0.0
 40
0.0
 40
0.0
 40
0.1423914936
 40
0.304231892
 40
0.4933275279
 40
0.7206759472
 40
1.0
 40
1.0
 40
1.0
 40
1.0
 10
-100.7469901236
 20
-15.055345009
 30
0.0
 10
-100.7876930928
 20
-15.0556997825
 30
0.0
 10
-100.8749431798
 20
-15.0480103984
 30
0.0
 10
-101.0110544727
 20
-15.0075107246
 30
0.0
 10
-101.1568975407
 20
-14.9267999333
 30
0.0
 10
-101.3057293344
 20
-14.7920811568
 30
0.0
 10
-101.3871957028
 20
-14.6704651398
 30
0.0
 10
-101.4237566966
 20
-14.5992336016
 30
0.0
 11
-100.7469901236
 21
-15.055345009
 31
0.0
 11
-100.8686401358
 21
-15.0447152223
 31
0.0
 11
-101.0017653943
 21
-15.0054586008
 31
0.0
 11
-101.1439625551
 21
-14.9274973839
 31
0.0
 11
-101.289191973
 21
-14.7974112799
 31
0.0
 11
-101.4237566966
 21
-14.5992336016
 31
0.0
  0
SPLINE
  5
58C
100
AcDbEntity
  8
RACCORDO
100
AcDbSpline
 62
253
  6
CONTINUOUS
 70
0
 71
3
 72
9
 73
5
 74
3
 42
0.0000001
 43
0.0000001
 44
0.0000000001
 12
-0.2829738042
 22
0.5513159594
 32
0.0
 13
0.0344460186
 23
0.61704864
 33
0.0
 40
0.0
 40
0.0
 40
0.0
 40
0.0
 40
0.4734564863
 40
1.0
 40
1.0
 40
1.0
 40
1.0
 10
-101.4237566966
 20
-14.5992336016
 30
0.0
 10
-101.4684152909
 20
-14.5122255626
 30
0.0
 10
-101.5364240881
 20
-14.3152630377
 30
0.0
 10
-101.5505385394
 20
-14.1069314604
 30
0.0
 10
-101.5444927636
 20
-13.998630474
 30
0.0
 11
-101.4237566966
 21
-14.5992336016
 31
0.0
 11
-101.5207326903
 21
-14.323170694
 31
0.0
 11
-101.5444927636
 21
-13.998630474
 31
0.0
  0
SPLINE
  5
58D
100
AcDbEntity
  8
RACCORDO
100
AcDbSpline
 62
253
  6
CONTINUOUS
 70
0
 71
3
 72
10
 73
6
 74
4
 42
0.0000001
 43
0.0000001
 44
0.0000000001
 12
-0.0012319417
 22
-1.4965733458
 32
0.0
 13
1.4945228679
 23
-0.0783242897
 33
0.0
 40
0.0
 40
0.0
 40
0.0
 40
0.0
 40
0.3344572727
 40
0.6677704355
 40
1.0
 40
1.0
 40
1.0
 40
1.0
 10
-94.5540592058
 20
-46.1820847275
 30
0.0
 10
-94.5541965497
 20
-46.3489313407
 30
0.0
 10
-94.4680610222
 20
-46.6881115736
 30
0.0
 10
-94.1127066279
 20
-47.0665765672
 30
0.0
 10
-93.7797396962
 20
-47.1720446486
 30
0.0
 10
-93.614231469
 20
-47.1807185302
 30
0.0
 11
-94.5540592058
 21
-46.1820847275
 31
0.0
 11
-94.429993932
 21
-46.6670054517
 31
0.0
 11
-94.0881271247
 21
-47.0302632451
 31
0.0
 11
-93.614231469
 21
-47.1807185302
 31
0.0
  0
SPLINE
  5
58E
100
AcDbEntity
  8
RACCORDO
100
AcDbSpline
 62
253
  6
CONTINUOUS
 70
0
 71
3
 72
15
 73
11
 74
9
 42
0.0000001
 43
0.0000001
 44
0.0000000001
 12
0.000016732
 22
1.0057819242
 32
0.0
 13
-1.0044494981
 23
-0.0517540829
 33
0.0
 40
0.0
 40
0.0
 40
0.0
 40
0.0
 40
0.1355846631
 40
0.2811464259
 40
0.4340015208
 40
0.5904462241
 40
0.7423456584
 40
0.8724404828
 40
0.9620509248
 40
1.0
 40
1.0
 40
1.0
 40
1.0
 10
-94.4271148704
 20
45.1930636643
 30
0.0
 10
-94.4271141142
 20
45.2385198654
 30
0.0
 10
-94.4277028046
 20
45.3327702004
 30
0.0
 10
-94.4305675845
 20
45.478289745
 30
0.0
 10
-94.4359210737
 20
45.6305454612
 30
0.0
 10
-94.4444704207
 20
45.7855358733
 30
0.0
 10
-94.45609882
 20
45.9300277508
 30
0.0
 10
-94.4722251145
 20
46.0596171339
 30
0.0
 10
-94.4872871124
 20
46.1319886741
 30
0.0
 10
-94.5057419504
 20
46.187583065
 30
0.0
 10
-94.5184479269
 20
46.1869283918
 30
0.0
 11
-94.4271148704
 21
45.1930636643
 31
0.0
 11
-94.4279766083
 21
45.3294295449
 31
0.0
 11
-94.4308864266
 21
45.4758040151
 31
0.0
 11
-94.4363900631
 21
45.6294443638
 31
0.0
 11
-94.4451884953
 21
45.7865474368
 31
0.0
 11
-94.4580578061
 21
45.9387821507
 31
0.0
 11
-94.4751422518
 21
46.0685090372
 31
0.0
 11
-94.4957346803
 21
46.1562536082
 31
0.0
 11
-94.5184479269
 21
46.1869283918
 31
0.0
  0
SPLINE
  5
58F
100
AcDbEntity
  8
RACCORDO
100
AcDbSpline
 62
253
  6
CONTINUOUS
 70
0
 71
3
 72
11
 73
7
 74
5
 42
0.0000001
 43
0.0000001
 44
0.0000000001
 12
0.2282988893
 22
-0.002278278
 32
0.0
 13
0.0473459468
 23
-0.2235574091
 33
0.0
 40
0.0
 40
0.0
 40
0.0
 40
0.0
 40
0.1443374566
 40
0.4171126305
 40
0.8880310525
 40
1.0
 40
1.0
 40
1.0
 40
1.0
 10
-94.8245069984
 20
-4.7950066457
 30
0.0
 10
-94.8135229714
 20
-4.7951162594
 30
0.0
 10
-94.7853540137
 20
-4.8175633376
 30
0.0
 10
-94.759570795
 20
-4.8796072511
 30
0.0
 10
-94.741884166
 20
-4.9426369584
 30
0.0
 10
-94.7322656038
 20
-4.9860005315
 30
0.0
 10
-94.7304985118
 20
-4.9943443607
 30
0.0
 11
-94.8245069984
 21
-4.7950066457
 31
0.0
 11
-94.7959507186
 21
-4.8114531246
 31
0.0
 11
-94.7661605336
 21
-4.8661433038
 31
0.0
 11
-94.7360505914
 21
-4.9693565558
 31
0.0
 11
-94.7304985118
 21
-4.9943443607
 31
0.0
  0
SPLINE
  5
590
100
AcDbEntity
  8
RACCORDO
100
AcDbSpline
 62
253
  6
CONTINUOUS
 70
0
 71
3
 72
9
 73
5
 74
3
 42
0.0000001
 43
0.0000001
 44
0.0000000001
 12
0.0600156255
 22
-0.2833809152
 32
0.0
 13
0.0285402755
 23
-0.2880403318
 33
0.0
 40
0.0
 40
0.0
 40
0.0
 40
0.0
 40
0.4866939588
 40
1.0
 40
1.0
 40
1.0
 40
1.0
 10
-94.7304985118
 20
-4.9943443607
 30
0.0
 10
-94.7207620977
 20
-5.0403176206
 30
0.0
 10
-94.705782755
 20
-5.1356489157
 30
0.0
 10
-94.6947136204
 20
-5.2315037909
 30
0.0
 10
-94.6898303218
 20
-5.2807880717
 30
0.0
 11
-94.7304985118
 21
-4.9943443607
 31
0.0
 11
-94.7071076014
 21
-5.1332359724
 31
0.0
 11
-94.6898303218
 21
-5.2807880717
 31
0.0
  0
SPLINE
  5
591
100
AcDbEntity
  8
RACCORDO
100
AcDbSpline
 62
253
  6
CONTINUOUS
 70
0
 71
3
 72
9
 73
5
 74
3
 42
0.0000001
 43
0.0000001
 44
0.0000000001
 12
0.0374047727
 22
-0.3775045251
 32
0.0
 13
0.0142452768
 23
-0.3790623736
 33
0.0
 40
0.0
 40
0.0
 40
0.0
 40
0.0
 40
0.2234576124
 40
1.0
 40
1.0
 40
1.0
 40
1.0
 10
-94.6898303218
 20
-5.2807880717
 30
0.0
 10
-94.6870441947
 20
-5.308906825
 30
0.0
 10
-94.6757392191
 20
-5.4348602365
 30
0.0
 10
-94.6687782173
 20
-5.5611338926
 30
0.0
 10
-94.6650908636
 20
-5.6592532261
 30
0.0
 11
-94.6898303218
 21
-5.2807880717
 31
0.0
 11
-94.682208738
 21
-5.3652133131
 31
0.0
 11
-94.6650908636
 21
-5.6592532261
 31
0.0
  0
ELLIPSE
  5
592
100
AcDbEntity
  8
RACCORDO
100
AcDbEllipse
 62
7
  6
CONTINUOUS
 10
49.5646994317
 20
-5.6592736119
 30
0.0
 11
48.95
 21
-0.0011072196
 31
0.0
 40
0.0087268385
 41
1.6880791407
 42
1.7474954401
  0
ELLIPSE
  5
593
100
AcDbEntity
  8
RACCORDO
100
AcDbEllipse
 62
7
  6
CONTINUOUS
 10
49.5646994317
 20
-14.3379873361
 30
0.0
 11
48.95
 21
0.0011072196
 31
0.0
 40
0.0087268385
 41
-1.7474954401
 42
-1.687958939
  0
ELLIPSE
  5
594
100
AcDbEntity
  8
RACCORDO
100
AcDbEllipse
 62
7
  6
CONTINUOUS
 10
26.2241765315
 20
-13.8986000113
 30
0.0
 11
0.5531241936
 21
0.5780562313
 31
0.0
 40
0.9999237765
 41
-3.9489898986
 42
-3.2227494634
  0
ELLIPSE
  5
595
100
AcDbEntity
  8
RACCORDO
100
AcDbEllipse
 62
7
  6
CONTINUOUS
 10
26.2241765315
 20
-6.0986609367
 30
0.0
 11
-0.5531241936
 21
0.5780562313
 31
0.0
 40
0.9999237765
 41
0.0811568098
 42
0.807397245
  0
ELLIPSE
  5
596
100
AcDbEntity
  8
RACCORDO
100
AcDbEllipse
 62
7
  6
CONTINUOUS
 10
49.5646994317
 20
-14.3379873361
 30
0.0
 11
47.7048643884
 21
0.0010790554
 31
0.0
 40
0.0087268385
 41
-2.0821414809
 42
-1.8482191221
  0
ELLIPSE
  5
597
100
AcDbEntity
  8
RACCORDO
100
AcDbEllipse
 62
7
  6
CONTINUOUS
 10
49.5646994317
 20
-5.6592736119
 30
0.0
 11
47.7048643884
 21
-0.0010790554
 31
0.0
 40
0.0087268385
 41
1.8482191221
 42
2.0821414809
  0
ELLIPSE
  5
598
100
AcDbEntity
  8
DRAFT
100
AcDbEllipse
 62
7
  6
CONTINUOUS
 10
39.0
 20
-5.2174706036
 30
0.0
 11
0.75
 21
-0.0000169645
 31
0.0
 40
0.0087268385
 41
-3.1390007243
 42
-0.0000575146
  0
ELLIPSE
  5
599
100
AcDbEntity
  8
DRAFT
100
AcDbEllipse
 62
7
  6
CONTINUOUS
 10
39.0
 20
-14.7797903445
 30
0.0
 11
0.75
 21
0.0000169645
 31
0.0
 40
0.0087268385
 41
0.0000575146
 42
3.1390007243
  0
ELLIPSE
  5
59A
100
AcDbEntity
  8
RACCORDO
100
AcDbEllipse
 62
7
  6
CONTINUOUS
 10
-49.4335266109
 20
-14.3379873361
 30
0.0
 11
48.95
 21
-0.0
 31
0.0
 40
0.0087268678
 41
-1.4562114667
 42
-1.3966891428
  0
ELLIPSE
  5
59B
100
AcDbEntity
  8
RACCORDO
100
AcDbEllipse
 62
7
  6
CONTINUOUS
 10
-49.4335266109
 20
-5.6592736119
 30
0.0
 11
48.95
 21
0.0
 31
0.0
 40
0.0087268678
 41
1.3966891428
 42
1.4563316204
  0
ELLIPSE
  5
59C
100
AcDbEntity
  8
RACCORDO
100
AcDbEllipse
 62
7
  6
CONTINUOUS
 10
-26.2000304627
 20
-6.0986609367
 30
0.0
 11
0.5657285049
 21
0.5657285049
 31
0.0
 40
0.9999238505
 41
-0.7853600872
 42
-0.059119652
  0
ELLIPSE
  5
59D
100
AcDbEntity
  8
RACCORDO
100
AcDbEllipse
 62
7
  6
CONTINUOUS
 10
-26.2000304627
 20
-13.8986000113
 30
0.0
 11
0.5657285049
 21
-0.5657285049
 31
0.0
 40
0.9999238505
 41
0.059119652
 42
0.7853600872
  0
ELLIPSE
  5
59E
100
AcDbEntity
  8
RACCORDO
100
AcDbEllipse
 62
7
  6
CONTINUOUS
 10
-49.4335266109
 20
-5.6592736119
 30
0.0
 11
47.7048643884
 21
0.0
 31
0.0
 40
0.0087268678
 41
1.062043102
 42
1.2959654608
  0
ELLIPSE
  5
59F
100
AcDbEntity
  8
RACCORDO
100
AcDbEllipse
 62
7
  6
CONTINUOUS
 10
-49.4335266109
 20
-14.3379873361
 30
0.0
 11
47.7048643884
 21
0.0
 31
0.0
 40
0.0087268678
 41
-1.2959654608
 42
-1.062043102
  0
ELLIPSE
  5
5A0
100
AcDbEntity
  8
DRAFT
100
AcDbEllipse
 62
7
  6
CONTINUOUS
 10
-39.0
 20
-5.2174706036
 30
0.0
 11
0.75
 21
0.0
 31
0.0
 40
0.0087268678
 41
3.1415926536
 42
6.2831853072
  0
ELLIPSE
  5
5A1
100
AcDbEntity
  8
DRAFT
100
AcDbEllipse
 62
7
  6
CONTINUOUS
 10
-39.0
 20
-14.7797903445
 30
0.0
 11
0.75
 21
0.0
 31
0.0
 40
0.0087268678
 41
0.0
 42
3.1415926536
  0
ELLIPSE
  5
5A2
100
AcDbEntity
  8
RACCORDO
100
AcDbEllipse
 62
7
  6
CONTINUOUS
 10
-11.2829233057
 20
-47.0015979949
 30
0.0
 11
0.4871252033
 21
0.1158603371
 31
0.0
 40
0.998011014
 41
-2.9055826569
 42
-1.8047513509
  0
ELLIPSE
  5
5A3
100
AcDbEntity
  8
RACCORDO
100
AcDbEllipse
 62
7
  6
CONTINUOUS
 10
11.2829233057
 20
-47.0015979949
 30
0.0
 11
0.4871252033
 21
-0.1158603371
 31
0.0
 40
0.998011014
 41
-1.3368413027
 42
-0.2360099967
  0
ELLIPSE
  5
5A4
100
AcDbEntity
  8
DRAFT
100
AcDbEllipse
 62
7
  6
CONTINUOUS
 10
26.2
 20
-13.294818512
 30
0.0
 11
-0.0
 21
1.4077311343
 31
0.0
 40
0.8660473877
 41
-4.1888341742
 42
-4.1586733126
  0
ELLIPSE
  5
5A5
100
AcDbEntity
  8
DRAFT
100
AcDbEllipse
 62
7
  6
CONTINUOUS
 10
26.2
 20
-6.702442436
 30
0.0
 11
-0.0
 21
1.4077311343
 31
0.0
 40
0.8660473877
 41
7.3002659662
 42
7.3304268278
  0
ELLIPSE
  5
5A6
100
AcDbEntity
  8
DRAFT
100
AcDbEllipse
 62
7
  6
CONTINUOUS
 10
-26.2
 20
-13.294818512
 30
0.0
 11
0.0
 21
1.4077311343
 31
0.0
 40
0.8660473877
 41
4.1586733126
 42
4.1888341742
  0
ELLIPSE
  5
5A7
100
AcDbEntity
  8
DRAFT
100
AcDbEllipse
 62
7
  6
CONTINUOUS
 10
-26.2
 20
-6.702442436
 30
0.0
 11
0.0
 21
1.4077311343
 31
0.0
 40
0.8660473877
 41
-1.0472415206
 42
-1.017080659
  0
ELLIPSE
  5
5A8
100
AcDbEntity
  8
RACCORDO
100
AcDbEllipse
 62
7
  6
CONTINUOUS
 10
-0.0
 20
-48.0227082668
 30
0.0
 11
30.0
 21
0.0
 31
0.0
 40
0.0524077793
 41
1.2898289005
 42
1.8517637531
  0
ELLIPSE
  5
5A9
100
AcDbEntity
  8
RACCORDO
100
AcDbEllipse
 62
7
  6
CONTINUOUS
 10
-7.2094170048
 20
-46.7135368629
 30
0.0
 11
4.0
 21
-0.0
 31
0.0
 40
0.0524077793
 41
1.8517637531
 42
3.089232776
  0
ELLIPSE
  5
5AA
100
AcDbEntity
  8
RACCORDO
100
AcDbEllipse
 62
7
  6
CONTINUOUS
 10
7.2094170048
 20
-46.7135368629
 30
0.0
 11
4.0
 21
0.0
 31
0.0
 40
0.0524077793
 41
0.0523598776
 42
1.2898289005
  0
ELLIPSE
  5
5AB
100
AcDbEntity
  8
RACCORDO
100
AcDbEllipse
 62
7
  6
CONTINUOUS
 10
45.497255308
 20
-45.495885782
 30
0.0
 11
1.4180924869
 21
-1.4180924869
 31
0.0
 40
0.9972646886
 41
-0.7840286355
 42
0.7840286355
  0
ELLIPSE
  5
5AC
100
AcDbEntity
  8
RACCORDO
100
AcDbEllipse
 62
7
  6
CONTINUOUS
 10
45.497255308
 20
45.498624834
 30
0.0
 11
1.4180924869
 21
1.4180924869
 31
0.0
 40
0.9972646886
 41
-0.2612309992
 42
0.7840286355
  0
ELLIPSE
  5
5AD
100
AcDbEntity
  8
RACCORDO
100
AcDbEllipse
 62
7
  6
CONTINUOUS
 10
-45.497255308
 20
45.498624834
 30
0.0
 11
1.4180924869
 21
-1.4180924869
 31
0.0
 40
0.9972646886
 41
-2.8803690599
 42
-2.3575640181
  0
ELLIPSE
  5
5AE
100
AcDbEntity
  8
RACCORDO
100
AcDbEllipse
 62
7
  6
CONTINUOUS
 10
-45.497255308
 20
45.498624834
 30
0.0
 11
-1.4180924869
 21
1.4180924869
 31
0.0
 40
0.9972646886
 41
-0.2612309992
 42
0.2612235937
  0
ELLIPSE
  5
5AF
100
AcDbEntity
  8
RACCORDO
100
AcDbEllipse
 62
7
  6
CONTINUOUS
 10
-45.497255308
 20
45.498624834
 30
0.0
 11
1.4180924869
 21
-1.4180924869
 31
0.0
 40
0.9972646886
 41
2.3575640181
 42
2.8803616544
  0
ELLIPSE
  5
5B0
100
AcDbEntity
  8
RACCORDO
100
AcDbEllipse
 62
7
  6
CONTINUOUS
 10
-45.497255308
 20
-45.495885782
 30
0.0
 11
1.4180924869
 21
1.4180924869
 31
0.0
 40
0.9972646886
 41
-3.9256212891
 42
-2.3575640181
  0
ELLIPSE
  5
5B1
100
AcDbEntity
  8
RACCORDO
100
AcDbEllipse
 62
7
  6
CONTINUOUS
 10
49.4335266109
 20
-4.583008069
 30
0.0
 11
49.65
 21
-0.0
 31
0.0
 40
0.0087268678
 41
-2.0577616784
 42
-1.8379687581
  0
ELLIPSE
  5
5B2
100
AcDbEntity
  8
RACCORDO
100
AcDbEllipse
 62
7
  6
CONTINUOUS
 10
-49.4335266109
 20
-4.583008069
 30
0.0
 11
49.65
 21
-0.0
 31
0.0
 40
0.0087268678
 41
-1.3036238955
 42
-1.0838309752
  0
ELLIPSE
  5
5B3
100
AcDbEntity
  8
RACCORDO
100
AcDbEllipse
 62
7
  6
CONTINUOUS
 10
-36.1144619686
 20
-14.9896026478
 30
0.0
 11
0.8
 21
0.0
 31
0.0
 40
0.0087268678
 41
-2.7052603406
 42
-1.8379687581
  0
ELLIPSE
  5
5B4
100
AcDbEntity
  8
RACCORDO
100
AcDbEllipse
 62
7
  6
CONTINUOUS
 10
-36.1144619686
 20
-5.0076583002
 30
0.0
 11
0.8
 21
0.0
 31
0.0
 40
0.0087268678
 41
1.8379687581
 42
2.7052603406
  0
ELLIPSE
  5
5B5
100
AcDbEntity
  8
RACCORDO
100
AcDbEllipse
 62
7
  6
CONTINUOUS
 10
36.1144619686
 20
-14.9896026478
 30
0.0
 11
0.8
 21
0.0
 31
0.0
 40
0.0087268678
 41
-1.3036238955
 42
-0.436332313
  0
ELLIPSE
  5
5B6
100
AcDbEntity
  8
RACCORDO
100
AcDbEllipse
 62
7
  6
CONTINUOUS
 10
36.1144619686
 20
-5.0076583002
 30
0.0
 11
0.8
 21
0.0
 31
0.0
 40
0.0087268678
 41
0.436332313
 42
1.3036238955
  0
ELLIPSE
  5
5B7
100
AcDbEntity
  8
RACCORDO
100
AcDbEllipse
 62
7
  6
CONTINUOUS
 10
49.4335266109
 20
-15.414252879
 30
0.0
 11
49.65
 21
0.0
 31
0.0
 40
0.0087268678
 41
1.8379687581
 42
2.0577616784
  0
ELLIPSE
  5
5B8
100
AcDbEntity
  8
RACCORDO
100
AcDbEllipse
 62
7
  6
CONTINUOUS
 10
-49.4335266109
 20
-15.414252879
 30
0.0
 11
49.65
 21
0.0
 31
0.0
 40
0.0087268678
 41
1.0838309752
 42
1.3036238955
  0
ENDSEC
  0
SECTION
  2
OBJECTS
  0
DICTIONARY
  5
C
100
AcDbDictionary
280
0
281
1
  3
ACAD_GROUP
350
D
  3
ACAD_MLINESTYLE
350
17
  3
ACAD_LAYOUT
350
1A
  3
ACAD_PLOTSETTINGS
350
19
  3
ACAD_PLOTSTYLENAME
350
E
  0
DICTIONARY
  5
D
102
{ACAD_REACTORS
330
C
102
}
100
AcDbDictionary
280
0
281
1
  0
ACDBDICTIONARYWDFLT
  5
E
102
{ACAD_REACTORS
330
C
102
}
100
AcDbDictionary
281
1
  3
Normal
350
F
100
AcDbDictionaryWithDefault
340
F
  0
DICTIONARY
  5
17
102
{ACAD_REACTORS
330
C
102
}
100
AcDbDictionary
280
0
281
1
  3
Standard
350
18
  0
DICTIONARY
  5
19
102
{ACAD_REACTORS
330
C
102
}
100
AcDbDictionary
281
1
  0
DICTIONARY
  5
1A
102
{ACAD_REACTORS
330
C
102
}
100
AcDbDictionary
281
1
  3
Model
350
5B9
  3
Layout1
350
5BA
  0
ACDBPLACEHOLDER
  5
F
102
{ACAD_REACTORS
330
E
102
}
  0
MLINESTYLE
  5
18
102
{ACAD_REACTORS
330
17
102
}
100
AcDbMlineStyle
  2
STANDARD
 70
0
  3

 62
256
 51
90.0
 52
90.0
 71
2
 49
0.5
 62
256
  6
BYLAYER
 49
-0.5
 62
256
  6
BYLAYER
  0
LAYOUT
  5
5B9
102
{ACAD_REACTORS
330
1A
102
}
100
AcDbPlotSettings
  1

  2
none_device
  4
ISO_A4_(297.00_x_210.00_MM)
  6

 40
0.0
 41
0.0
 42
0.0
 43
0.0
 44
297.0
 45
210.0
 46
0.0
 47
0.0
 48
0.0
 49
0.0
140
0.0
141
0.0
142
1.0
143
1.0
 70
1024
 72
1
 73
0
 74
0
  7

 75
0
147
1.0
148
0.0
149
0.0
100
AcDbLayout
  1
Model
 70
0
 71
0
 10
0.0
 20
0.0
 11
297.0
 21
210.0
 12
0.0
 22
0.0
 32
0.0
 14
0.0
 24
0.0
 34
0.0
 15
0.0
 25
0.0
 35
0.0
146
0.0
 13
0.0
 23
0.0
 33
0.0
 16
1.0
 26
0.0
 36
0.0
 17
0.0
 27
1.0
 37
0.0
 76
0
330
218
345
0
346
0
  0
LAYOUT
  5
5BA
102
{ACAD_REACTORS
330
1A
102
}
100
AcDbPlotSettings
  1

  2
none_device
  4
ISO_A4_(297.00_x_210.00_MM)
  6

 40
0.0
 41
0.0
 42
0.0
 43
0.0
 44
297.0
 45
210.0
 46
0.0
 47
0.0
 48
0.0
 49
0.0
140
0.0
141
0.0
142
1.0
143
1.0
 70
0
 72
1
 73
0
 74
0
  7

 75
0
147
1.0
148
0.0
149
0.0
100
AcDbLayout
  1
Layout1
 70
0
 71
1
 10
0.0
 20
0.0
 11
297.0
 21
210.0
 12
0.0
 22
0.0
 32
0.0
 14
0.0
 24
0.0
 34
0.0
 15
0.0
 25
0.0
 35
0.0
146
0.0
 13
0.0
 23
0.0
 33
0.0
 16
1.0
 26
0.0
 36
0.0
 17
0.0
 27
1.0
 37
0.0
 76
0
330
219
345
0
346
0
  0
ENDSEC
  0
EOF
