  0
SECTION
  2
HEADER
  9
$ACADVER
  1
AC1024
  9
$DWGCODEPAGE
  3
ANSI_1252
  9
$EXTMAX
 10
558.8
 20
431.8
 30
0.0
  9
$EXTMIN
 10
0.0
 20
0.0
 30
0.0
  9
$LIMMIN
 10
0.0
 20
0.0
  9
$LIMMAX
 10
558.8
 20
431.8
  9
$VIEWCTR
 10
279.4
 20
215.9
  9
$VIEWSIZE
 40
431.8
  9
$CLAYER
  8
0
  9
$LTSCALE
 40
30.734
  9
$CELTYPE
  6
BYLAYER
  9
$DIMSCALE
 40
1.0
  9
$DIMASZ
 40
3.0
  9
$DIMEXO
 40
0.5
  9
$DIMDLI
 40
21.2344
  9
$DIMEXE
 40
1.5
  9
$DIMCEN
 40
5.0292
  9
$DIMLFAC
 40
1.0
  9
$DIMBLK
  1
_FILLED
  9
$DIMALT
 70
0
  9
$DIMALTF
 40
0.0393700787
  9
$DIMTXT
 40
3.0
  9
$DIMTOL
 70
1
  9
$DIMLIM
 70
0
  9
$DIMTFAC
 40
1.0
  9
$DIMTP
 40
0.01
  9
$DIMTM
 40
0.01
  9
$DIMGAP
 40
0.625
  9
$DIMDSEP
 70
44
  9
$AUNITS
 70
0
  9
$PDMODE
 70
3
  9
$PDSIZE
 40
3.0
  9
$HANDSEED
  5
77A
  9
$TILEMODE
 70
1
  9
$MEASUREMENT
 70
1
  9
$INSUNITS
 70
4
  0
ENDSEC
  0
SECTION
  2
CLASSES
  0
CLASS
  1
ACDBDICTIONARYWDFLT
  2
AcDbDictionaryWithDefault
  3
AutoCAD 2000
 90
0
 91
1
280
0
281
0
  0
CLASS
  1
ACDBPLACEHOLDER
  2
AcDbPlaceHolder
  3
AutoCAD 2000
 90
0
 91
1
280
0
281
0
  0
CLASS
  1
LAYOUT
  2
AcDbLayout
  3
AutoCAD 2000
 90
0
 91
0
280
0
281
0
  0
ENDSEC
  0
SECTION
  2
TABLES
  0
TABLE
  2
VPORT
  5
8
100
AcDbSymbolTable
 70
2
  0
VPORT
  5
1F4
100
AcDbSymbolTableRecord
100
AcDbViewportTableRecord
  2
*ACTIVE
 70
0
 10
0.0
 20
0.0
 11
1.0
 21
1.0
 12
279.4
 22
215.9
 13
0.0
 23
0.0
 14
1.0
 24
1.0
 15
0.0
 25
0.0
 16
0.0
 26
0.0
 36
1.0
 17
0.0
 27
0.0
 37
0.0
 40
431.8
 41
1.2941176471
 42
50.0
 43
0.0
 44
0.0
 50
0.0
 51
0.0
 71
0
 72
100
 73
1
 74
1
 75
0
 76
0
 77
0
 78
0
  0
ENDTAB
  0
TABLE
  2
LTYPE
  5
5
100
AcDbSymbolTable
 70
6
  0
LTYPE
  5
14
100
AcDbSymbolTableRecord
100
AcDbLinetypeTableRecord
  2
BYBLOCK
 70
0
  3

 72
65
 73
0
 40
0.0
  0
LTYPE
  5
15
100
AcDbSymbolTableRecord
100
AcDbLinetypeTableRecord
  2
BYLAYER
 70
0
  3

 72
65
 73
0
 40
0.0
  0
LTYPE
  5
16
100
AcDbSymbolTableRecord
100
AcDbLinetypeTableRecord
  2
CONTINUOUS
 70
64
  3
Solid line
 72
65
 73
0
 40
0.0
  0
LTYPE
  5
1F5
100
AcDbSymbolTableRecord
100
AcDbLinetypeTableRecord
  2
CENTER
 70
64
  3
____ _ ____ _ ____ _ ____ _ ____ _ ____ _ ____
 72
65
 73
4
 40
0.6
 49
0.375
 74
0
 49
-0.075
 74
0
 49
0.075
 74
0
 49
-0.075
 74
0
  0
LTYPE
  5
1F6
100
AcDbSymbolTableRecord
100
AcDbLinetypeTableRecord
  2
HIDDEN
 70
64
  3
- - - - - - - - - - - - - - - - - - - -
 72
65
 73
2
 40
0.2
 49
0.1
 74
0
 49
-0.1
 74
0
  0
LTYPE
  5
1F7
100
AcDbSymbolTableRecord
100
AcDbLinetypeTableRecord
  2
PHANTOM
 70
64
  3
_____ _ _ _____ _ _ _____ _ _ _____
 72
65
 73
6
 40
0.8
 49
0.45
 74
0
 49
-0.05
 74
0
 49
0.1
 74
0
 49
-0.05
 74
0
 49
0.1
 74
0
 49
-0.05
 74
0
  0
LTYPE
  5
1F8
100
AcDbSymbolTableRecord
100
AcDbLinetypeTableRecord
  2
DOT
 70
64
  3
. . . . . . . . . . . . . . . . . . . .
 72
65
 73
2
 40
0.2
 49
0.1
 74
0
 49
-0.1
 74
0
  0
LTYPE
  5
1F9
100
AcDbSymbolTableRecord
100
AcDbLinetypeTableRecord
  2
DASHED
 70
64
  3
- - - - - - - - - - - - - - - - - - - -
 72
65
 73
2
 40
0.2
 49
0.1
 74
0
 49
-0.1
 74
0
  0
ENDTAB
  0
TABLE
  2
LAYER
  5
2
100
AcDbSymbolTable
 70
36
  0
LAYER
  5
10
100
AcDbSymbolTableRecord
100
AcDbLayerTableRecord
  2
0
 70
0
 62
7
  6
CONTINUOUS
370
-3
390
F
  0
LAYER
  5
1FA
100
AcDbSymbolTableRecord
100
AcDbLayerTableRecord
  2
DEFAULT_1
 70
0
 62
7
  6
CENTER
370
-3
390
F
  0
LAYER
  5
1FB
100
AcDbSymbolTableRecord
100
AcDbLayerTableRecord
  2
DEFAULT_2
 70
0
 62
7
  6
HIDDEN
370
-3
390
F
  0
LAYER
  5
1FC
100
AcDbSymbolTableRecord
100
AcDbLayerTableRecord
  2
DEFAULT_3
 70
0
 62
7
  6
PHANTOM
370
-3
390
F
  0
LAYER
  5
1FD
100
AcDbSymbolTableRecord
100
AcDbLayerTableRecord
  2
ASSI
 70
0
 62
7
  6
CONTINUOUS
370
-3
390
F
  0
LAYER
  5
1FE
100
AcDbSymbolTableRecord
100
AcDbLayerTableRecord
  2
COORDINATE
 70
0
 62
7
  6
CONTINUOUS
370
-3
390
F
  0
LAYER
  5
1FF
100
AcDbSymbolTableRecord
100
AcDbLayerTableRecord
  2
COORD_ORIGINE
 70
0
 62
7
  6
CONTINUOUS
370
-3
390
F
  0
LAYER
  5
200
100
AcDbSymbolTableRecord
100
AcDbLayerTableRecord
  2
COPY
 70
0
 62
7
  6
CONTINUOUS
370
-3
390
F
  0
LAYER
  5
201
100
AcDbSymbolTableRecord
100
AcDbLayerTableRecord
  2
COPY-PUBBLISH
 70
0
 62
7
  6
CONTINUOUS
370
-3
390
F
  0
LAYER
  5
202
100
AcDbSymbolTableRecord
100
AcDbLayerTableRecord
  2
COSMETICHE
 70
0
 62
7
  6
CONTINUOUS
370
-3
390
F
  0
LAYER
  5
203
100
AcDbSymbolTableRecord
100
AcDbLayerTableRecord
  2
CURVA_CENTRALE
 70
0
 62
7
  6
CONTINUOUS
370
-3
390
F
  0
LAYER
  5
204
100
AcDbSymbolTableRecord
100
AcDbLayerTableRecord
  2
CURVE
 70
0
 62
7
  6
CONTINUOUS
370
-3
390
F
  0
LAYER
  5
205
100
AcDbSymbolTableRecord
100
AcDbLayerTableRecord
  2
DRAFT
 70
0
 62
7
  6
CONTINUOUS
370
-3
390
F
  0
LAYER
  5
206
100
AcDbSymbolTableRecord
100
AcDbLayerTableRecord
  2
IMPORT
 70
0
 62
7
  6
CONTINUOUS
370
-3
390
F
  0
LAYER
  5
207
100
AcDbSymbolTableRecord
100
AcDbLayerTableRecord
  2
INTF_1
 70
0
 62
7
  6
CONTINUOUS
370
-3
390
F
  0
LAYER
  5
208
100
AcDbSymbolTableRecord
100
AcDbLayerTableRecord
  2
INTF_2
 70
0
 62
7
  6
CONTINUOUS
370
-3
390
F
  0
LAYER
  5
209
100
AcDbSymbolTableRecord
100
AcDbLayerTableRecord
  2
NOTE
 70
0
 62
7
  6
CONTINUOUS
370
-3
390
F
  0
LAYER
  5
20A
100
AcDbSymbolTableRecord
100
AcDbLayerTableRecord
  2
PIANI
 70
0
 62
7
  6
CONTINUOUS
370
-3
390
F
  0
LAYER
  5
20B
100
AcDbSymbolTableRecord
100
AcDbLayerTableRecord
  2
PIANI_ORIGINE
 70
0
 62
7
  6
CONTINUOUS
370
-3
390
F
  0
LAYER
  5
20C
100
AcDbSymbolTableRecord
100
AcDbLayerTableRecord
  2
PIANI_RIFERIMENTO
 70
0
 62
7
  6
CONTINUOUS
370
-3
390
F
  0
LAYER
  5
20D
100
AcDbSymbolTableRecord
100
AcDbLayerTableRecord
  2
PIPPO
 70
0
 62
7
  6
CONTINUOUS
370
-3
390
F
  0
LAYER
  5
20E
100
AcDbSymbolTableRecord
100
AcDbLayerTableRecord
  2
PUBBLISH
 70
0
 62
7
  6
CONTINUOUS
370
-3
390
F
  0
LAYER
  5
20F
100
AcDbSymbolTableRecord
100
AcDbLayerTableRecord
  2
PUBLISH
 70
0
 62
7
  6
CONTINUOUS
370
-3
390
F
  0
LAYER
  5
210
100
AcDbSymbolTableRecord
100
AcDbLayerTableRecord
  2
PUNTI
 70
0
 62
7
  6
CONTINUOUS
370
-3
390
F
  0
LAYER
  5
211
100
AcDbSymbolTableRecord
100
AcDbLayerTableRecord
  2
RACCORDO
 70
0
 62
7
  6
CONTINUOUS
370
-3
390
F
  0
LAYER
  5
212
100
AcDbSymbolTableRecord
100
AcDbLayerTableRecord
  2
RGB__255__255__255__
 70
0
 62
7
  6
CONTINUOUS
370
-3
390
F
  0
LAYER
  5
213
100
AcDbSymbolTableRecord
100
AcDbLayerTableRecord
  2
RGB____0____0____0__
 70
0
 62
7
  6
CONTINUOUS
370
-3
390
F
  0
LAYER
  5
214
100
AcDbSymbolTableRecord
100
AcDbLayerTableRecord
  2
SMUSSO
 70
0
 62
7
  6
CONTINUOUS
370
-3
390
F
  0
LAYER
  5
215
100
AcDbSymbolTableRecord
100
AcDbLayerTableRecord
  2
SNAPLINE
 70
0
 62
7
  6
CONTINUOUS
370
-3
390
F
  0
LAYER
  5
216
100
AcDbSymbolTableRecord
100
AcDbLayerTableRecord
  2
SUPERFICI
 70
0
 62
7
  6
CONTINUOUS
370
-3
390
F
  0
LAYER
  5
217
100
AcDbSymbolTableRecord
100
AcDbLayerTableRecord
  2
TRACCIABILITA
 70
0
 62
7
  6
CONTINUOUS
370
-3
390
F
  0
LAYER
  5
218
100
AcDbSymbolTableRecord
100
AcDbLayerTableRecord
  2
TRASH
 70
0
 62
7
  6
CONTINUOUS
370
-3
390
F
  0
LAYER
  5
219
100
AcDbSymbolTableRecord
100
AcDbLayerTableRecord
  2
XSEC_DATUMS
 70
0
 62
7
  6
CONTINUOUS
370
-3
390
F
  0
ENDTAB
  0
TABLE
  2
STYLE
  5
3
100
AcDbSymbolTable
 70
1
  0
STYLE
  5
11
100
AcDbSymbolTableRecord
100
AcDbTextStyleTableRecord
  2
STANDARD
 70
0
 40
0.0
 41
0.8
 50
0.0
 71
0
 42
0.2
  3
txt
  4

  0
STYLE
  5
21A
100
AcDbSymbolTableRecord
100
AcDbTextStyleTableRecord
  2
TEXTSTYLE_1
 70
0
 40
0.0
 41
0.8
 50
0.0
 71
0
 42
0.2
  3
gdt
  4

  0
ENDTAB
  0
TABLE
  2
VIEW
  5
6
100
AcDbSymbolTable
 70
0
  0
ENDTAB
  0
TABLE
  2
UCS
  5
7
100
AcDbSymbolTable
 70
0
  0
ENDTAB
  0
TABLE
  2
APPID
  5
9
100
AcDbSymbolTable
 70
1
  0
APPID
  5
21B
100
AcDbSymbolTableRecord
100
AcDbRegAppTableRecord
  2
ACAD
 70
0
  0
ENDTAB
  0
TABLE
  2
BLOCK_RECORD
  5
1
100
AcDbSymbolTable
 70
0
  0
BLOCK_RECORD
  5
21C
100
AcDbSymbolTableRecord
100
AcDbBlockTableRecord
  2
*Model_Space
  0
BLOCK_RECORD
  5
21D
100
AcDbSymbolTableRecord
100
AcDbBlockTableRecord
  2
*Paper_Space
  0
BLOCK_RECORD
  5
21E
100
AcDbSymbolTableRecord
100
AcDbBlockTableRecord
  2
_FILLED
  0
BLOCK_RECORD
  5
21F
100
AcDbSymbolTableRecord
100
AcDbBlockTableRecord
  2
*D0
  0
BLOCK_RECORD
  5
220
100
AcDbSymbolTableRecord
100
AcDbBlockTableRecord
  2
*D1
  0
BLOCK_RECORD
  5
221
100
AcDbSymbolTableRecord
100
AcDbBlockTableRecord
  2
*D2
  0
BLOCK_RECORD
  5
222
100
AcDbSymbolTableRecord
100
AcDbBlockTableRecord
  2
*D3
  0
ENDTAB
  0
TABLE
  2
DIMSTYLE
  5
A
100
AcDbSymbolTable
 70
1
100
AcDbDimStyleTable
 71
0
  0
DIMSTYLE
105
223
100
AcDbSymbolTableRecord
100
AcDbDimStyleTableRecord
  2
STANDARD
 70
0
  3

  4

 40
1.0
 41
3.0
 42
0.5
 43
0.38
 44
1.5
 45
0.0
 46
0.0
 47
0.01
 48
0.01
140
3.0
141
0.0
142
0.0
143
25.4
144
1.0
145
0.0
146
1.0
147
0.625
 71
1
 72
0
 73
0
 74
0
 75
0
 76
0
 77
1
 78
8
 79
2
170
0
171
1
172
0
173
0
174
0
175
0
176
0
177
0
178
0
270
2
179
2
271
2
272
2
273
2
274
2
275
0
280
0
281
0
282
0
283
1
284
8
285
0
286
0
287
3
288
0
340
11
278
44
341
21E
342
21E
343
21E
344
21E
  0
DIMSTYLE
105
224
100
AcDbSymbolTableRecord
100
AcDbDimStyleTableRecord
  2
DIMSTYLE_1
 70
0
  3

  4

 40
1.0
 41
3.0
 42
0.5
 43
0.38
 44
1.5
 45
0.0
 46
0.0
 47
0.0
 48
0.0
140
3.0
141
0.0
142
0.0
143
25.4
144
1.0
145
0.0
146
1.0
147
0.75
 71
0
 72
0
 73
0
 74
0
 75
0
 76
0
 77
1
 78
8
 79
2
170
0
171
1
172
0
173
0
174
0
175
0
176
0
177
0
178
0
270
2
179
2
271
2
272
2
273
2
274
2
275
0
280
0
281
0
282
0
283
1
284
8
285
0
286
0
287
3
288
0
340
11
278
44
341
21E
342
21E
343
21E
344
21E
  0
ENDTAB
  0
ENDSEC
  0
SECTION
  2
BLOCKS
  0
BLOCK
  5
20
100
AcDbEntity
  8
0
100
AcDbBlockBegin
  2
*Model_Space
 70
0
 10
0.0
 20
0.0
 30
0.0
  3
*Model_Space
  1

  0
ENDBLK
  5
21
100
AcDbEntity
  8
0
100
AcDbBlockEnd
  0
BLOCK
  5
1C
100
AcDbEntity
  8
0
100
AcDbBlockBegin
  2
*Paper_Space
 70
0
 10
0.0
 20
0.0
 30
0.0
  3
*Paper_Space
  1

  0
ENDBLK
  5
1D
100
AcDbEntity
  8
0
100
AcDbBlockEnd
  0
BLOCK
  5
225
100
AcDbEntity
  8
0
100
AcDbBlockBegin
  2
_FILLED
 70
64
 10
0.0
 20
0.0
 30
0.0
  3
_FILLED
  1

  0
SOLID
  5
226
100
AcDbEntity
  8
0
  6
BYBLOCK
 62
0
100
AcDbTrace
 10
0.0
 20
0.0
 30
0.0
 11
-1.0
 21
0.3166666667
 31
0.0
 12
-1.0
 22
-0.3166666667
 32
0.0
 13
-1.0
 23
-0.3166666667
 33
0.0
  0
ENDBLK
  5
227
100
AcDbEntity
  8
0
  6
BYBLOCK
 62
0
100
AcDbBlockEnd
  0
BLOCK
  5
228
100
AcDbEntity
  8
0
100
AcDbBlockBegin
 62
7
  6
CONTINUOUS
  2
*D0
 70
65
 10
0.0
 20
0.0
 30
0.0
  3
*D0
  1

  0
MTEXT
  5
229
100
AcDbEntity
  8
0
100
AcDbMText
 62
7
  6
CONTINUOUS
  7
STANDARD
 71
2
 72
1
 10
-46.6178750731
 20
38.75
 30
0.0
 11
1.0
 21
0.0
 31
0.0
 73
2
 44
0.9
  1
{\ftxt;\W0.0001;\H0.0001;\~}{\ftxt;\W2.8571428571;\H3.0; }{\ftxt;\W0.0001;\H0.0001;\~}
 40
3.0
 41
12.8571428571
  0
LINE
  5
22A
100
AcDbEntity
  8
0
100
AcDbLine
 62
7
  6
CONTINUOUS
 10
-33.3678750731
 20
11.5001232849
 30
0.0
 11
-33.3678750731
 21
36.5
 31
0.0
  0
LINE
  5
22B
100
AcDbEntity
  8
0
100
AcDbLine
 62
7
  6
CONTINUOUS
 10
-59.8678750731
 20
24.7456323968
 30
0.0
 11
-59.8678750731
 21
36.5
 31
0.0
  0
LINE
  5
22C
100
AcDbEntity
  8
0
100
AcDbLine
 62
7
  6
CONTINUOUS
 10
-33.3678750731
 20
35.0
 30
0.0
 11
-46.6178750731
 21
35.0
 31
0.0
  0
LINE
  5
22D
100
AcDbEntity
  8
0
100
AcDbLine
 62
7
  6
CONTINUOUS
 10
-59.8678750731
 20
35.0
 30
0.0
 11
-46.6178750731
 21
35.0
 31
0.0
  0
INSERT
  5
22E
100
AcDbEntity
  8
0
100
AcDbBlockReference
 62
7
  6
CONTINUOUS
  2
_FILLED
 10
-33.3678750731
 20
35.0
 30
0.0
 41
3.0
 42
3.0
 43
3.0
  0
INSERT
  5
22F
100
AcDbEntity
  8
0
100
AcDbBlockReference
 62
7
  6
CONTINUOUS
  2
_FILLED
 10
-59.8678750731
 20
35.0
 30
0.0
 41
3.0
 42
3.0
 43
3.0
 50
180.0
  0
ENDBLK
  5
230
100
AcDbEntity
  8
0
  6
BYBLOCK
 62
0
100
AcDbBlockEnd
  0
BLOCK
  5
231
100
AcDbEntity
  8
0
100
AcDbBlockBegin
 62
7
  6
CONTINUOUS
  2
*D1
 70
65
 10
0.0
 20
0.0
 30
0.0
  3
*D1
  1

  0
MTEXT
  5
232
100
AcDbEntity
  8
0
100
AcDbMText
 62
7
  6
CONTINUOUS
  7
STANDARD
 71
2
 72
1
 10
-51.9678750731
 20
48.7362971963
 30
0.0
 11
1.0
 21
0.0
 31
0.0
 73
2
 44
0.9
  1
{\ftxt;\W0.0001;\H0.0001;\~}{\ftxt;\W2.8571428571;\H3.0; }{\ftxt;\W0.0001;\H0.0001;\~}
 40
3.0
 41
12.8571428571
  0
LINE
  5
233
100
AcDbEntity
  8
0
100
AcDbLine
 62
7
  6
CONTINUOUS
 10
-70.5678750731
 20
0.5
 30
0.0
 11
-70.5678750731
 21
46.4862971963
 31
0.0
  0
LINE
  5
234
100
AcDbEntity
  8
0
100
AcDbLine
 62
7
  6
CONTINUOUS
 10
-33.3678750731
 20
11.5001232849
 30
0.0
 11
-33.3678750731
 21
46.4862971963
 31
0.0
  0
LINE
  5
235
100
AcDbEntity
  8
0
100
AcDbLine
 62
7
  6
CONTINUOUS
 10
-70.5678750731
 20
44.9862971963
 30
0.0
 11
-51.9678750731
 21
44.9862971963
 31
0.0
  0
LINE
  5
236
100
AcDbEntity
  8
0
100
AcDbLine
 62
7
  6
CONTINUOUS
 10
-33.3678750731
 20
44.9862971963
 30
0.0
 11
-51.9678750731
 21
44.9862971963
 31
0.0
  0
INSERT
  5
237
100
AcDbEntity
  8
0
100
AcDbBlockReference
 62
7
  6
CONTINUOUS
  2
_FILLED
 10
-70.5678750731
 20
44.9862971963
 30
0.0
 41
3.0
 42
3.0
 43
3.0
 50
180.0
  0
INSERT
  5
238
100
AcDbEntity
  8
0
100
AcDbBlockReference
 62
7
  6
CONTINUOUS
  2
_FILLED
 10
-33.3678750731
 20
44.9862971963
 30
0.0
 41
3.0
 42
3.0
 43
3.0
  0
ENDBLK
  5
239
100
AcDbEntity
  8
0
  6
BYBLOCK
 62
0
100
AcDbBlockEnd
  0
BLOCK
  5
23A
100
AcDbEntity
  8
0
100
AcDbBlockBegin
 62
7
  6
CONTINUOUS
  2
*D2
 70
65
 10
0.0
 20
0.0
 30
0.0
  3
*D2
  1

  0
MTEXT
  5
23B
100
AcDbEntity
  8
0
100
AcDbMText
 62
7
  6
CONTINUOUS
  7
STANDARD
 71
2
 72
1
 10
0.0
 20
38.7181708848
 30
0.0
 11
1.0
 21
0.0
 31
0.0
 73
2
 44
0.9
  1
{\ftxt;\W0.0001;\H0.0001;\~}{\ftxt;\W2.9285714286;\H3.0; }{\ftxt;\W0.0001;\H0.0001;\~}
 40
3.0
 41
13.1785714286
  0
LINE
  5
23C
100
AcDbEntity
  8
0
100
AcDbLine
 62
7
  6
CONTINUOUS
 10
-22.4004363434
 20
22.400016923
 30
0.0
 11
-22.4004363434
 21
36.4681708848
 31
0.0
  0
LINE
  5
23D
100
AcDbEntity
  8
0
100
AcDbLine
 62
7
  6
CONTINUOUS
 10
22.4004363434
 20
22.400016923
 30
0.0
 11
22.4004363434
 21
36.4681708848
 31
0.0
  0
LINE
  5
23E
100
AcDbEntity
  8
0
100
AcDbLine
 62
7
  6
CONTINUOUS
 10
-22.4004363434
 20
34.9681708848
 30
0.0
 11
0.0
 21
34.9681708848
 31
0.0
  0
LINE
  5
23F
100
AcDbEntity
  8
0
100
AcDbLine
 62
7
  6
CONTINUOUS
 10
22.4004363434
 20
34.9681708848
 30
0.0
 11
0.0
 21
34.9681708848
 31
0.0
  0
INSERT
  5
240
100
AcDbEntity
  8
0
100
AcDbBlockReference
 62
7
  6
CONTINUOUS
  2
_FILLED
 10
-22.4004363434
 20
34.9681708848
 30
0.0
 41
3.0
 42
3.0
 43
3.0
 50
180.0
  0
INSERT
  5
241
100
AcDbEntity
  8
0
100
AcDbBlockReference
 62
7
  6
CONTINUOUS
  2
_FILLED
 10
22.4004363434
 20
34.9681708848
 30
0.0
 41
3.0
 42
3.0
 43
3.0
  0
ENDBLK
  5
242
100
AcDbEntity
  8
0
  6
BYBLOCK
 62
0
100
AcDbBlockEnd
  0
BLOCK
  5
243
100
AcDbEntity
  8
0
100
AcDbBlockBegin
 62
7
  6
CONTINUOUS
  2
*D3
 70
65
 10
0.0
 20
0.0
 30
0.0
  3
*D3
  1

  0
MTEXT
  5
244
100
AcDbEntity
  8
0
100
AcDbMText
 62
7
  6
CONTINUOUS
  7
STANDARD
 71
2
 72
1
 10
29.0469853293
 20
0.0
 30
0.0
 11
0.0
 21
1.0
 31
0.0
 73
2
 44
0.9
  1
{\ftxt;\W0.0001;\H0.0001;\~}{\ftxt;\W1.5714285714;\H3.0; }{\ftxt;\W0.0001;\H0.0001;\~}
 40
3.0
 41
7.0714285714
  0
LINE
  5
245
100
AcDbEntity
  8
0
100
AcDbLine
 62
7
  6
CONTINUOUS
 10
21.6500042308
 20
24.5
 30
0.0
 11
34.2969853293
 21
24.5
 31
0.0
  0
LINE
  5
246
100
AcDbEntity
  8
0
100
AcDbLine
 62
7
  6
CONTINUOUS
 10
21.6500042308
 20
-24.5
 30
0.0
 11
34.2969853293
 21
-24.5
 31
0.0
  0
LINE
  5
247
100
AcDbEntity
  8
0
100
AcDbLine
 62
7
  6
CONTINUOUS
 10
32.7969853293
 20
24.5
 30
0.0
 11
32.7969853293
 21
0.0
 31
0.0
  0
LINE
  5
248
100
AcDbEntity
  8
0
100
AcDbLine
 62
7
  6
CONTINUOUS
 10
32.7969853293
 20
-24.5
 30
0.0
 11
32.7969853293
 21
0.0
 31
0.0
  0
INSERT
  5
249
100
AcDbEntity
  8
0
100
AcDbBlockReference
 62
7
  6
CONTINUOUS
  2
_FILLED
 10
32.7969853293
 20
24.5
 30
0.0
 41
3.0
 42
3.0
 43
3.0
 50
90.0
  0
INSERT
  5
24A
100
AcDbEntity
  8
0
100
AcDbBlockReference
 62
7
  6
CONTINUOUS
  2
_FILLED
 10
32.7969853293
 20
-24.5
 30
0.0
 41
3.0
 42
3.0
 43
3.0
 50
270.0
  0
ENDBLK
  5
24B
100
AcDbEntity
  8
0
  6
BYBLOCK
 62
0
100
AcDbBlockEnd
  0
ENDSEC
  0
SECTION
  2
ENTITIES
  0
DIMENSION
  5
24C
100
AcDbEntity
  8
0
100
AcDbDimension
 62
7
  6
CONTINUOUS
  2
*D0
 10
-59.8678750731
 20
35.0
 30
0.0
 11
-47.0464455856
 21
35.0
 31
0.0
 70
160
 71
2
 72
2
 41
0.9
 42
26.5
  1
{\ftxt;\W0.0001;\H0.0001;\~}{\ftxt;\W2.8571428571;\H3.0; }{\ftxt;\W0.0001;\H0.0001;\~}
  3
DIMSTYLE_1
100
AcDbAlignedDimension
 13
-33.3678750731
 23
11.0001232849
 33
0.0
 14
-59.8678750731
 24
24.2456323968
 34
0.0
 50
180.0
100
AcDbRotatedDimension
  0
DIMENSION
  5
24D
100
AcDbEntity
  8
0
100
AcDbDimension
 62
7
  6
CONTINUOUS
  2
*D1
 10
-33.3678750731
 20
44.9862971963
 30
0.0
 11
-52.3964465469
 21
44.9862971963
 31
0.0
 70
160
 71
2
 72
2
 41
0.9
 42
37.2
  1
{\ftxt;\W0.0001;\H0.0001;\~}{\ftxt;\W2.8571428571;\H3.0; }{\ftxt;\W0.0001;\H0.0001;\~}
  3
DIMSTYLE_1
100
AcDbAlignedDimension
 13
-70.5678750731
 23
0.0
 33
0.0
 14
-33.3678750731
 24
11.0001232849
 34
0.0
100
AcDbRotatedDimension
  0
DIMENSION
  5
24E
100
AcDbEntity
  8
0
100
AcDbDimension
 62
7
  6
CONTINUOUS
  2
*D2
 10
22.4004363434
 20
34.9681708848
 30
0.0
 11
-0.4285714664
 21
34.9681708848
 31
0.0
 70
160
 71
2
 72
2
 41
0.9
 42
44.8008726868
  1
{\ftxt;\W0.0001;\H0.0001;\~}{\ftxt;\W2.9285714286;\H3.0; }{\ftxt;\W0.0001;\H0.0001;\~}
  3
DIMSTYLE_1
100
AcDbAlignedDimension
 13
-22.4004363434
 23
21.900016923
 33
0.0
 14
22.4004363434
 24
21.900016923
 34
0.0
100
AcDbRotatedDimension
  0
DIMENSION
  5
24F
100
AcDbEntity
  8
0
100
AcDbDimension
 62
7
  6
CONTINUOUS
  2
*D3
 10
32.7969853293
 20
-24.5
 30
0.0
 11
32.7969853293
 21
-0.428571687
 31
0.0
 70
160
 71
2
 72
2
 41
0.9
 42
49.0
  1
{\ftxt;\W0.0001;\H0.0001;\~}{\ftxt;\W1.5714285714;\H3.0; }{\ftxt;\W0.0001;\H0.0001;\~}
  3
DIMSTYLE_1
100
AcDbAlignedDimension
 13
21.1500042308
 23
24.5
 33
0.0
 14
21.1500042308
 24
-24.5
 34
0.0
 50
270.0
100
AcDbRotatedDimension
  0
LINE
  5
250
100
AcDbEntity
  8
0
100
AcDbLine
 62
250
  6
CONTINUOUS
 10
-18.7617845071
 20
24.488212066
 30
0.0
 11
-18.7499965731
 21
24.5
 31
0.0
  0
LINE
  5
251
100
AcDbEntity
  8
0
100
AcDbLine
 62
250
  6
CONTINUOUS
 10
-18.511787934
 20
24.2382154929
 30
0.0
 11
-18.5
 21
24.2500034269
 31
0.0
  0
LINE
  5
252
100
AcDbEntity
  8
0
100
AcDbLine
 62
250
  6
CONTINUOUS
 10
-18.7617845071
 20
-24.488212066
 30
0.0
 11
-18.7499965731
 21
-24.5
 31
0.0
  0
LINE
  5
253
100
AcDbEntity
  8
0
100
AcDbLine
 62
250
  6
CONTINUOUS
 10
-18.511787934
 20
-24.2382154929
 30
0.0
 11
-18.5
 21
-24.2500034269
 31
0.0
  0
LINE
  5
254
100
AcDbEntity
  8
RACCORDO
100
AcDbLine
 62
7
  6
CONTINUOUS
 10
-11.6887579355
 20
22.1183301451
 30
0.0
 11
-11.7260409428
 21
22.1071711004
 31
0.0
  0
LINE
  5
255
100
AcDbEntity
  8
0
100
AcDbLine
 62
7
  6
CONTINUOUS
 10
-21.1500042308
 20
-24.5
 30
0.0
 11
-18.7499957692
 21
-24.5
 31
0.0
  0
LINE
  5
256
100
AcDbEntity
  8
0
100
AcDbLine
 62
7
  6
CONTINUOUS
 10
-3.7500042308
 20
-24.5
 30
0.0
 11
-1.3499957692
 21
-24.5
 31
0.0
  0
LINE
  5
257
100
AcDbEntity
  8
0
100
AcDbLine
 62
7
  6
CONTINUOUS
 10
1.3499957692
 20
-24.5
 30
0.0
 11
3.7500042308
 21
-24.5
 31
0.0
  0
LINE
  5
258
100
AcDbEntity
  8
0
100
AcDbLine
 62
7
  6
CONTINUOUS
 10
18.7499957692
 20
-24.5
 30
0.0
 11
21.1500042308
 21
-24.5
 31
0.0
  0
LINE
  5
259
100
AcDbEntity
  8
0
100
AcDbLine
 62
7
  6
CONTINUOUS
 10
-21.1382154929
 20
-24.488212066
 30
0.0
 11
-18.7617845071
 21
-24.488212066
 31
0.0
  0
LINE
  5
25A
100
AcDbEntity
  8
0
100
AcDbLine
 62
7
  6
CONTINUOUS
 10
-3.7382154929
 20
-24.488212066
 30
0.0
 11
-1.3617845071
 21
-24.488212066
 31
0.0
  0
LINE
  5
25B
100
AcDbEntity
  8
0
100
AcDbLine
 62
7
  6
CONTINUOUS
 10
1.3630943479
 20
-24.4869014213
 30
0.0
 11
3.7369056521
 21
-24.4869014213
 31
0.0
  0
LINE
  5
25C
100
AcDbEntity
  8
0
100
AcDbLine
 62
7
  6
CONTINUOUS
 10
18.7630943479
 20
-24.4869014213
 30
0.0
 11
21.1369056521
 21
-24.4869014213
 31
0.0
  0
LINE
  5
25D
100
AcDbEntity
  8
0
100
AcDbLine
 62
250
  6
CONTINUOUS
 10
-1.111787934
 20
-24.2382154929
 30
0.0
 11
-3.988212066
 21
-24.2382154929
 31
0.0
  0
LINE
  5
25E
100
AcDbEntity
  8
0
100
AcDbLine
 62
250
  6
CONTINUOUS
 10
-18.511787934
 20
-24.2382154929
 30
0.0
 11
-21.388212066
 21
-24.2382154929
 31
0.0
  0
LINE
  5
25F
100
AcDbEntity
  8
0
100
AcDbLine
 62
250
  6
CONTINUOUS
 10
1.1130985787
 20
-24.2369056521
 30
0.0
 11
3.9869014213
 21
-24.2369056521
 31
0.0
  0
LINE
  5
260
100
AcDbEntity
  8
0
100
AcDbLine
 62
250
  6
CONTINUOUS
 10
18.5130985787
 20
-24.2369056521
 30
0.0
 11
21.3869014213
 21
-24.2369056521
 31
0.0
  0
LINE
  5
261
100
AcDbEntity
  8
0
100
AcDbLine
 62
7
  6
CONTINUOUS
 10
15.7
 20
-24.0
 30
0.0
 11
14.75
 21
-24.0
 31
0.0
  0
LINE
  5
262
100
AcDbEntity
  8
0
100
AcDbLine
 62
7
  6
CONTINUOUS
 10
7.75
 20
-24.0
 30
0.0
 11
6.8
 21
-24.0
 31
0.0
  0
LINE
  5
263
100
AcDbEntity
  8
0
100
AcDbLine
 62
7
  6
CONTINUOUS
 10
-6.8
 20
-24.0
 30
0.0
 11
-7.75
 21
-24.0
 31
0.0
  0
LINE
  5
264
100
AcDbEntity
  8
0
100
AcDbLine
 62
7
  6
CONTINUOUS
 10
-14.75
 20
-24.0
 30
0.0
 11
-15.7
 21
-24.0
 31
0.0
  0
LINE
  5
265
100
AcDbEntity
  8
0
100
AcDbLine
 62
7
  6
CONTINUOUS
 10
-14.75
 20
-23.9984237062
 30
0.0
 11
-12.45
 21
-23.9984237062
 31
0.0
  0
LINE
  5
266
100
AcDbEntity
  8
0
100
AcDbLine
 62
7
  6
CONTINUOUS
 10
-10.05
 20
-23.9984237062
 30
0.0
 11
-7.75
 21
-23.9984237062
 31
0.0
  0
LINE
  5
267
100
AcDbEntity
  8
0
100
AcDbLine
 62
7
  6
CONTINUOUS
 10
7.75
 20
-23.9982478817
 30
0.0
 11
10.05
 21
-23.9982478817
 31
0.0
  0
LINE
  5
268
100
AcDbEntity
  8
0
100
AcDbLine
 62
7
  6
CONTINUOUS
 10
12.45
 20
-23.9982478817
 30
0.0
 11
14.75
 21
-23.9982478817
 31
0.0
  0
LINE
  5
269
100
AcDbEntity
  8
0
100
AcDbLine
 62
7
  6
CONTINUOUS
 10
-15.6921459466
 20
-23.9921459466
 30
0.0
 11
-14.75
 21
-23.9921459466
 31
0.0
  0
LINE
  5
26A
100
AcDbEntity
  8
0
100
AcDbLine
 62
7
  6
CONTINUOUS
 10
-7.75
 20
-23.9921459466
 30
0.0
 11
-6.8078540534
 21
-23.9921459466
 31
0.0
  0
LINE
  5
26B
100
AcDbEntity
  8
0
100
AcDbLine
 62
7
  6
CONTINUOUS
 10
15.6912732553
 20
-23.9912732553
 30
0.0
 11
14.75
 21
-23.9912732553
 31
0.0
  0
LINE
  5
26C
100
AcDbEntity
  8
0
100
AcDbLine
 62
7
  6
CONTINUOUS
 10
7.75
 20
-23.9912732553
 30
0.0
 11
6.8087267447
 21
-23.9912732553
 31
0.0
  0
LINE
  5
26D
100
AcDbEntity
  8
0
100
AcDbLine
 62
250
  6
CONTINUOUS
 10
1.1130985787
 20
-23.8443375673
 30
0.0
 11
3.9869014213
 21
-23.8443375673
 31
0.0
  0
LINE
  5
26E
100
AcDbEntity
  8
0
100
AcDbLine
 62
250
  6
CONTINUOUS
 10
-1.111787934
 20
-23.8443375673
 30
0.0
 11
-3.988212066
 21
-23.8443375673
 31
0.0
  0
LINE
  5
26F
100
AcDbEntity
  8
0
100
AcDbLine
 62
250
  6
CONTINUOUS
 10
18.5130985787
 20
-23.8443375673
 30
0.0
 11
21.3869014213
 21
-23.8443375673
 31
0.0
  0
LINE
  5
270
100
AcDbEntity
  8
0
100
AcDbLine
 62
250
  6
CONTINUOUS
 10
-18.511787934
 20
-23.8443375673
 30
0.0
 11
-21.388212066
 21
-23.8443375673
 31
0.0
  0
LINE
  5
271
100
AcDbEntity
  8
0
100
AcDbLine
 62
250
  6
CONTINUOUS
 10
-14.75
 20
-23.7984264477
 30
0.0
 11
-12.25
 21
-23.7984264477
 31
0.0
  0
LINE
  5
272
100
AcDbEntity
  8
0
100
AcDbLine
 62
250
  6
CONTINUOUS
 10
-7.75
 20
-23.7984264477
 30
0.0
 11
-10.25
 21
-23.7984264477
 31
0.0
  0
LINE
  5
273
100
AcDbEntity
  8
0
100
AcDbLine
 62
250
  6
CONTINUOUS
 10
7.75
 20
-23.7982512664
 30
0.0
 11
10.25
 21
-23.7982512664
 31
0.0
  0
LINE
  5
274
100
AcDbEntity
  8
0
100
AcDbLine
 62
250
  6
CONTINUOUS
 10
12.25
 20
-23.7982512664
 30
0.0
 11
14.75
 21
-23.7982512664
 31
0.0
  0
LINE
  5
275
100
AcDbEntity
  8
0
100
AcDbLine
 62
250
  6
CONTINUOUS
 10
21.1369056521
 20
-23.6278312164
 30
0.0
 11
18.7630943479
 21
-23.6278312164
 31
0.0
  0
LINE
  5
276
100
AcDbEntity
  8
0
100
AcDbLine
 62
250
  6
CONTINUOUS
 10
3.7369056521
 20
-23.6278312164
 30
0.0
 11
1.3630943479
 21
-23.6278312164
 31
0.0
  0
LINE
  5
277
100
AcDbEntity
  8
0
100
AcDbLine
 62
250
  6
CONTINUOUS
 10
-1.3617845071
 20
-23.6278312164
 30
0.0
 11
-3.7382154929
 21
-23.6278312164
 31
0.0
  0
LINE
  5
278
100
AcDbEntity
  8
0
100
AcDbLine
 62
250
  6
CONTINUOUS
 10
-18.7617845071
 20
-23.6278312164
 30
0.0
 11
-21.1382154929
 21
-23.6278312164
 31
0.0
  0
LINE
  5
279
100
AcDbEntity
  8
RACCORDO
100
AcDbLine
 62
7
  6
CONTINUOUS
 10
-11.6887579355
 20
-22.1183301451
 30
0.0
 11
-11.7260409428
 21
-22.1071711004
 31
0.0
  0
LINE
  5
27A
100
AcDbEntity
  8
0
100
AcDbLine
 62
250
  6
CONTINUOUS
 10
-21.388212066
 20
-23.8443375673
 30
0.0
 11
-21.3934481016
 21
-23.2669872981
 31
0.0
  0
LINE
  5
27B
100
AcDbEntity
  8
0
100
AcDbLine
 62
250
  6
CONTINUOUS
 10
-21.1382154929
 20
-23.6278312164
 30
0.0
 11
-21.1427970241
 21
-23.1226497308
 31
0.0
  0
LINE
  5
27C
100
AcDbEntity
  8
0
100
AcDbLine
 62
7
  6
CONTINUOUS
 10
-22.345044505
 20
0.0
 30
0.0
 11
-22.3729446494
 21
16.6
 31
0.0
  0
LINE
  5
27D
100
AcDbEntity
  8
0
100
AcDbLine
 62
7
  6
CONTINUOUS
 10
-22.4004363434
 20
-21.900016923
 30
0.0
 11
-22.4004363434
 21
21.900016923
 31
0.0
  0
LINE
  5
27E
100
AcDbEntity
  8
RACCORDO
100
AcDbLine
 62
7
  6
CONTINUOUS
 10
-22.4
 20
-17.6716990487
 30
0.0
 11
-22.4
 21
17.6716990487
 31
0.0
  0
LINE
  5
27F
100
AcDbEntity
  8
ASSI
100
AcDbLine
 62
7
  6
CONTINUOUS
 10
-22.4
 20
-17.6716990487
 30
0.0
 11
-22.4
 21
17.6716990487
 31
0.0
  0
LINE
  5
280
100
AcDbEntity
  8
SUPERFICI
100
AcDbLine
 62
7
  6
CONTINUOUS
 10
-22.4
 20
-17.6716990487
 30
0.0
 11
-22.4
 21
17.6716990487
 31
0.0
  0
LINE
  5
281
100
AcDbEntity
  8
0
100
AcDbLine
 62
7
  6
CONTINUOUS
 10
-22.3729446494
 20
-21.821159479
 30
0.0
 11
-22.3729446494
 21
-16.6
 31
0.0
  0
LINE
  5
282
100
AcDbEntity
  8
0
100
AcDbLine
 62
7
  6
CONTINUOUS
 10
-22.3729446494
 20
16.6
 30
0.0
 11
-22.3729446494
 21
21.821159479
 31
0.0
  0
LINE
  5
283
100
AcDbEntity
  8
0
100
AcDbLine
 62
7
  6
CONTINUOUS
 10
-22.15
 20
-21.6001713375
 30
0.0
 11
-22.15
 21
21.6001713375
 31
0.0
  0
LINE
  5
284
100
AcDbEntity
  8
RACCORDO
100
AcDbLine
 62
250
  6
CONTINUOUS
 10
-21.5081671644
 20
-9.5
 30
0.0
 11
-21.5081671644
 21
9.5
 31
0.0
  0
LINE
  5
285
100
AcDbEntity
  8
0
100
AcDbLine
 62
7
  6
CONTINUOUS
 10
-21.4
 20
-23.2669872981
 30
0.0
 11
-21.4
 21
-24.2500042308
 31
0.0
  0
LINE
  5
286
100
AcDbEntity
  8
0
100
AcDbLine
 62
7
  6
CONTINUOUS
 10
-21.4
 20
23.2669872981
 30
0.0
 11
-21.4
 21
24.2500042308
 31
0.0
  0
LINE
  5
287
100
AcDbEntity
  8
0
100
AcDbLine
 62
7
  6
CONTINUOUS
 10
-21.3934481016
 20
23.2669872981
 30
0.0
 11
-21.3934481016
 21
22.3344216746
 31
0.0
  0
LINE
  5
288
100
AcDbEntity
  8
0
100
AcDbLine
 62
7
  6
CONTINUOUS
 10
-21.3934481016
 20
-22.3344216746
 30
0.0
 11
-21.3934481016
 21
-23.2669872981
 31
0.0
  0
LINE
  5
289
100
AcDbEntity
  8
0
100
AcDbLine
 62
7
  6
CONTINUOUS
 10
-21.388212066
 20
24.2382154929
 30
0.0
 11
-21.388212066
 21
23.8443375673
 31
0.0
  0
LINE
  5
28A
100
AcDbEntity
  8
0
100
AcDbLine
 62
7
  6
CONTINUOUS
 10
-21.388212066
 20
-23.8443375673
 30
0.0
 11
-21.388212066
 21
-24.2382154929
 31
0.0
  0
LINE
  5
28B
100
AcDbEntity
  8
0
100
AcDbLine
 62
250
  6
CONTINUOUS
 10
-21.1434515285
 20
23.1226497308
 30
0.0
 11
-21.1434515285
 21
22.3213883311
 31
0.0
  0
LINE
  5
28C
100
AcDbEntity
  8
0
100
AcDbLine
 62
250
  6
CONTINUOUS
 10
-21.1434515285
 20
-22.3213883311
 30
0.0
 11
-21.1434515285
 21
-23.1226497308
 31
0.0
  0
LINE
  5
28D
100
AcDbEntity
  8
0
100
AcDbLine
 62
250
  6
CONTINUOUS
 10
-21.1382154929
 20
-23.6278312164
 30
0.0
 11
-21.1382154929
 21
-24.488212066
 31
0.0
  0
LINE
  5
28E
100
AcDbEntity
  8
0
100
AcDbLine
 62
250
  6
CONTINUOUS
 10
-21.1382154929
 20
23.6278312164
 30
0.0
 11
-21.1382154929
 21
24.488212066
 31
0.0
  0
LINE
  5
28F
100
AcDbEntity
  8
0
100
AcDbLine
 62
7
  6
CONTINUOUS
 10
-22.3729446494
 20
-16.6
 30
0.0
 11
-22.345044505
 21
0.0
 31
0.0
  0
LINE
  5
290
100
AcDbEntity
  8
0
100
AcDbLine
 62
250
  6
CONTINUOUS
 10
-21.3934481016
 20
23.2669872981
 30
0.0
 11
-21.388212066
 21
23.8443375673
 31
0.0
  0
LINE
  5
291
100
AcDbEntity
  8
0
100
AcDbLine
 62
250
  6
CONTINUOUS
 10
-21.1427970241
 20
23.1226497308
 30
0.0
 11
-21.1382154929
 21
23.6278312164
 31
0.0
  0
LINE
  5
292
100
AcDbEntity
  8
RACCORDO
100
AcDbLine
 62
7
  6
CONTINUOUS
 10
3.3112420645
 20
22.1183301451
 30
0.0
 11
3.2739590572
 21
22.1071711004
 31
0.0
  0
LINE
  5
293
100
AcDbEntity
  8
0
100
AcDbLine
 62
7
  6
CONTINUOUS
 10
-21.1434515285
 20
-23.1226497308
 30
0.0
 11
-18.7565484715
 21
-23.1226497308
 31
0.0
  0
LINE
  5
294
100
AcDbEntity
  8
0
100
AcDbLine
 62
7
  6
CONTINUOUS
 10
21.1427234819
 20
-23.1226497308
 30
0.0
 11
18.7572765181
 21
-23.1226497308
 31
0.0
  0
LINE
  5
295
100
AcDbEntity
  8
0
100
AcDbLine
 62
7
  6
CONTINUOUS
 10
1.3572765181
 20
-23.1226497308
 30
0.0
 11
3.7427234819
 21
-23.1226497308
 31
0.0
  0
LINE
  5
296
100
AcDbEntity
  8
0
100
AcDbLine
 62
7
  6
CONTINUOUS
 10
-1.3565484715
 20
-23.1226497308
 30
0.0
 11
-3.7434515285
 21
-23.1226497308
 31
0.0
  0
LINE
  5
297
100
AcDbEntity
  8
0
100
AcDbLine
 62
7
  6
CONTINUOUS
 10
-21.9004426895
 20
-22.4
 30
0.0
 11
-21.4
 21
-22.4
 31
0.0
  0
LINE
  5
298
100
AcDbEntity
  8
0
100
AcDbLine
 62
7
  6
CONTINUOUS
 10
-18.5
 20
-22.4
 30
0.0
 11
-15.7
 21
-22.4
 31
0.0
  0
LINE
  5
299
100
AcDbEntity
  8
0
100
AcDbLine
 62
7
  6
CONTINUOUS
 10
12.25
 20
-22.4
 30
0.0
 11
10.25
 21
-22.4
 31
0.0
  0
LINE
  5
29A
100
AcDbEntity
  8
0
100
AcDbLine
 62
7
  6
CONTINUOUS
 10
-6.8
 20
-22.4
 30
0.0
 11
-4.0
 21
-22.4
 31
0.0
  0
LINE
  5
29B
100
AcDbEntity
  8
0
100
AcDbLine
 62
7
  6
CONTINUOUS
 10
-1.1
 20
-22.4
 30
0.0
 11
1.1
 21
-22.4
 31
0.0
  0
LINE
  5
29C
100
AcDbEntity
  8
0
100
AcDbLine
 62
7
  6
CONTINUOUS
 10
4.0
 20
-22.4
 30
0.0
 11
6.8
 21
-22.4
 31
0.0
  0
LINE
  5
29D
100
AcDbEntity
  8
0
100
AcDbLine
 62
7
  6
CONTINUOUS
 10
-10.25
 20
-22.4
 30
0.0
 11
-12.25
 21
-22.4
 31
0.0
  0
LINE
  5
29E
100
AcDbEntity
  8
0
100
AcDbLine
 62
7
  6
CONTINUOUS
 10
15.7
 20
-22.4
 30
0.0
 11
18.5
 21
-22.4
 31
0.0
  0
LINE
  5
29F
100
AcDbEntity
  8
0
100
AcDbLine
 62
7
  6
CONTINUOUS
 10
21.4
 20
-22.4
 30
0.0
 11
21.9004426895
 21
-22.4
 31
0.0
  0
LINE
  5
2A0
100
AcDbEntity
  8
0
100
AcDbLine
 62
7
  6
CONTINUOUS
 10
-14.75
 20
-22.3737961104
 30
0.0
 11
-12.45
 21
-22.3737961104
 31
0.0
  0
LINE
  5
2A1
100
AcDbEntity
  8
0
100
AcDbLine
 62
7
  6
CONTINUOUS
 10
-10.05
 20
-22.3737961104
 30
0.0
 11
-7.75
 21
-22.3737961104
 31
0.0
  0
LINE
  5
2A2
100
AcDbEntity
  8
0
100
AcDbLine
 62
7
  6
CONTINUOUS
 10
7.75
 20
-22.3737961104
 30
0.0
 11
10.05
 21
-22.3737961104
 31
0.0
  0
LINE
  5
2A3
100
AcDbEntity
  8
0
100
AcDbLine
 62
7
  6
CONTINUOUS
 10
12.45
 20
-22.3737961104
 30
0.0
 11
14.75
 21
-22.3737961104
 31
0.0
  0
LINE
  5
2A4
100
AcDbEntity
  8
0
100
AcDbLine
 62
7
  6
CONTINUOUS
 10
-21.8733252491
 20
-22.3213883311
 30
0.0
 11
-21.1434515285
 21
-22.3213883311
 31
0.0
  0
LINE
  5
2A5
100
AcDbEntity
  8
0
100
AcDbLine
 62
7
  6
CONTINUOUS
 10
-18.7565484715
 20
-22.3213883311
 30
0.0
 11
-15.6921459466
 21
-22.3213883311
 31
0.0
  0
LINE
  5
2A6
100
AcDbEntity
  8
0
100
AcDbLine
 62
7
  6
CONTINUOUS
 10
-14.75
 20
-22.3213883311
 30
0.0
 11
-7.75
 21
-22.3213883311
 31
0.0
  0
LINE
  5
2A7
100
AcDbEntity
  8
0
100
AcDbLine
 62
7
  6
CONTINUOUS
 10
-6.8078540534
 20
-22.3213883311
 30
0.0
 11
-3.7434515285
 21
-22.3213883311
 31
0.0
  0
LINE
  5
2A8
100
AcDbEntity
  8
0
100
AcDbLine
 62
7
  6
CONTINUOUS
 10
-1.3565484715
 20
-22.3213883311
 30
0.0
 11
1.3572765181
 21
-22.3213883311
 31
0.0
  0
LINE
  5
2A9
100
AcDbEntity
  8
0
100
AcDbLine
 62
7
  6
CONTINUOUS
 10
3.7427234819
 20
-22.3213883311
 30
0.0
 11
6.8087267447
 21
-22.3213883311
 31
0.0
  0
LINE
  5
2AA
100
AcDbEntity
  8
0
100
AcDbLine
 62
7
  6
CONTINUOUS
 10
7.75
 20
-22.3213883311
 30
0.0
 11
14.75
 21
-22.3213883311
 31
0.0
  0
LINE
  5
2AB
100
AcDbEntity
  8
0
100
AcDbLine
 62
7
  6
CONTINUOUS
 10
15.6912732553
 20
-22.3213883311
 30
0.0
 11
18.7572765181
 21
-22.3213883311
 31
0.0
  0
LINE
  5
2AC
100
AcDbEntity
  8
0
100
AcDbLine
 62
7
  6
CONTINUOUS
 10
21.1427234819
 20
-22.3213883311
 30
0.0
 11
21.8733252491
 21
-22.3213883311
 31
0.0
  0
LINE
  5
2AD
100
AcDbEntity
  8
DRAFT
100
AcDbLine
 62
7
  6
CONTINUOUS
 10
-11.6887579355
 20
-22.1183301451
 30
0.0
 11
-3.3112420645
 21
-22.1183301451
 31
0.0
  0
LINE
  5
2AE
100
AcDbEntity
  8
DRAFT
100
AcDbLine
 62
7
  6
CONTINUOUS
 10
3.3112420645
 20
-22.1183301451
 30
0.0
 11
11.6887579355
 21
-22.1183301451
 31
0.0
  0
LINE
  5
2AF
100
AcDbEntity
  8
RACCORDO
100
AcDbLine
 62
7
  6
CONTINUOUS
 10
-21.6501713375
 20
-22.1
 30
0.0
 11
-12.0248993522
 21
-22.1
 31
0.0
  0
LINE
  5
2B0
100
AcDbEntity
  8
RACCORDO
100
AcDbLine
 62
7
  6
CONTINUOUS
 10
-2.9751006478
 20
-22.1
 30
0.0
 11
2.9751006478
 21
-22.1
 31
0.0
  0
LINE
  5
2B1
100
AcDbEntity
  8
RACCORDO
100
AcDbLine
 62
7
  6
CONTINUOUS
 10
12.0248993522
 20
-22.1
 30
0.0
 11
21.6501713375
 21
-22.1
 31
0.0
  0
LINE
  5
2B2
100
AcDbEntity
  8
RACCORDO
100
AcDbLine
 62
250
  6
CONTINUOUS
 10
21.5462950425
 20
-21.996123705
 30
0.0
 11
-21.5462950425
 21
-21.996123705
 31
0.0
  0
LINE
  5
2B3
100
AcDbEntity
  8
RACCORDO
100
AcDbLine
 62
250
  6
CONTINUOUS
 10
21.5336897634
 20
-21.1448536428
 30
0.0
 11
-21.5336897634
 21
-21.1448536428
 31
0.0
  0
LINE
  5
2B4
100
AcDbEntity
  8
RACCORDO
100
AcDbLine
 62
7
  6
CONTINUOUS
 10
3.3112420645
 20
-22.1183301451
 30
0.0
 11
3.2739590572
 21
-22.1071711004
 31
0.0
  0
LINE
  5
2B5
100
AcDbEntity
  8
0
100
AcDbLine
 62
250
  6
CONTINUOUS
 10
-18.7617845071
 20
23.6278312164
 30
0.0
 11
-18.7572029759
 21
23.1226497308
 31
0.0
  0
LINE
  5
2B6
100
AcDbEntity
  8
0
100
AcDbLine
 62
250
  6
CONTINUOUS
 10
-18.511787934
 20
23.8443375673
 30
0.0
 11
-18.5065518984
 21
23.2669872981
 31
0.0
  0
LINE
  5
2B7
100
AcDbEntity
  8
0
100
AcDbLine
 62
250
  6
CONTINUOUS
 10
-18.7617845071
 20
-23.6278312164
 30
0.0
 11
-18.7617845071
 21
-24.488212066
 31
0.0
  0
LINE
  5
2B8
100
AcDbEntity
  8
0
100
AcDbLine
 62
250
  6
CONTINUOUS
 10
-18.7617845071
 20
23.6278312164
 30
0.0
 11
-18.7617845071
 21
24.488212066
 31
0.0
  0
LINE
  5
2B9
100
AcDbEntity
  8
0
100
AcDbLine
 62
250
  6
CONTINUOUS
 10
-18.7565484715
 20
-23.1226497308
 30
0.0
 11
-18.7565484715
 21
-22.3213883311
 31
0.0
  0
LINE
  5
2BA
100
AcDbEntity
  8
0
100
AcDbLine
 62
250
  6
CONTINUOUS
 10
-18.7565484715
 20
22.3213883311
 30
0.0
 11
-18.7565484715
 21
23.1226497308
 31
0.0
  0
LINE
  5
2BB
100
AcDbEntity
  8
0
100
AcDbLine
 62
7
  6
CONTINUOUS
 10
-18.511787934
 20
-24.2382154929
 30
0.0
 11
-18.511787934
 21
-23.8443375673
 31
0.0
  0
LINE
  5
2BC
100
AcDbEntity
  8
0
100
AcDbLine
 62
7
  6
CONTINUOUS
 10
-18.511787934
 20
23.8443375673
 30
0.0
 11
-18.511787934
 21
24.2382154929
 31
0.0
  0
LINE
  5
2BD
100
AcDbEntity
  8
0
100
AcDbLine
 62
7
  6
CONTINUOUS
 10
-18.5065518984
 20
-23.2669872981
 30
0.0
 11
-18.5065518984
 21
-22.3344216746
 31
0.0
  0
LINE
  5
2BE
100
AcDbEntity
  8
0
100
AcDbLine
 62
7
  6
CONTINUOUS
 10
-18.5065518984
 20
22.3344216746
 30
0.0
 11
-18.5065518984
 21
23.2669872981
 31
0.0
  0
LINE
  5
2BF
100
AcDbEntity
  8
0
100
AcDbLine
 62
7
  6
CONTINUOUS
 10
-18.5
 20
-23.2669872981
 30
0.0
 11
-18.5
 21
-24.2500042308
 31
0.0
  0
LINE
  5
2C0
100
AcDbEntity
  8
0
100
AcDbLine
 62
7
  6
CONTINUOUS
 10
-18.5
 20
23.2669872981
 30
0.0
 11
-18.5
 21
24.2500042308
 31
0.0
  0
LINE
  5
2C1
100
AcDbEntity
  8
0
100
AcDbLine
 62
7
  6
CONTINUOUS
 10
-15.7
 20
24.0
 30
0.0
 11
-15.7
 21
22.4
 31
0.0
  0
LINE
  5
2C2
100
AcDbEntity
  8
0
100
AcDbLine
 62
7
  6
CONTINUOUS
 10
-15.7
 20
-22.4
 30
0.0
 11
-15.7
 21
-24.0
 31
0.0
  0
LINE
  5
2C3
100
AcDbEntity
  8
0
100
AcDbLine
 62
7
  6
CONTINUOUS
 10
-15.6921459466
 20
23.9921459466
 30
0.0
 11
-15.6921459466
 21
22.3213883311
 31
0.0
  0
LINE
  5
2C4
100
AcDbEntity
  8
0
100
AcDbLine
 62
7
  6
CONTINUOUS
 10
-15.6921459466
 20
-22.3213883311
 30
0.0
 11
-15.6921459466
 21
-23.9921459466
 31
0.0
  0
LINE
  5
2C5
100
AcDbEntity
  8
0
100
AcDbLine
 62
250
  6
CONTINUOUS
 10
-18.7572029759
 20
-23.1226497308
 30
0.0
 11
-18.7617845071
 21
-23.6278312164
 31
0.0
  0
LINE
  5
2C6
100
AcDbEntity
  8
0
100
AcDbLine
 62
250
  6
CONTINUOUS
 10
-18.5065518984
 20
-23.2669872981
 30
0.0
 11
-18.511787934
 21
-23.8443375673
 31
0.0
  0
LINE
  5
2C7
100
AcDbEntity
  8
0
100
AcDbLine
 62
250
  6
CONTINUOUS
 10
-1.3617845071
 20
24.488212066
 30
0.0
 11
-1.3499965731
 21
24.5
 31
0.0
  0
LINE
  5
2C8
100
AcDbEntity
  8
0
100
AcDbLine
 62
250
  6
CONTINUOUS
 10
-1.111787934
 20
24.2382154929
 30
0.0
 11
-1.1
 21
24.2500034269
 31
0.0
  0
LINE
  5
2C9
100
AcDbEntity
  8
DRAFT
100
AcDbLine
 62
7
  6
CONTINUOUS
 10
-22.3729446494
 20
-16.6
 30
0.0
 11
-22.15
 21
-16.6
 31
0.0
  0
LINE
  5
2CA
100
AcDbEntity
  8
DRAFT
100
AcDbLine
 62
7
  6
CONTINUOUS
 10
22.3729446494
 20
-16.6
 30
0.0
 11
22.15
 21
-16.6
 31
0.0
  0
LINE
  5
2CB
100
AcDbEntity
  8
0
100
AcDbLine
 62
250
  6
CONTINUOUS
 10
-1.3617845071
 20
-24.488212066
 30
0.0
 11
-1.3499965731
 21
-24.5
 31
0.0
  0
LINE
  5
2CC
100
AcDbEntity
  8
0
100
AcDbLine
 62
250
  6
CONTINUOUS
 10
-1.111787934
 20
-24.2382154929
 30
0.0
 11
-1.1
 21
-24.2500034269
 31
0.0
  0
LINE
  5
2CD
100
AcDbEntity
  8
0
100
AcDbLine
 62
7
  6
CONTINUOUS
 10
-14.75
 20
-23.9921459466
 30
0.0
 11
-14.75
 21
-22.3213883311
 31
0.0
  0
LINE
  5
2CE
100
AcDbEntity
  8
0
100
AcDbLine
 62
7
  6
CONTINUOUS
 10
-14.75
 20
22.3213883311
 30
0.0
 11
-14.75
 21
23.9921459466
 31
0.0
  0
LINE
  5
2CF
100
AcDbEntity
  8
0
100
AcDbLine
 62
250
  6
CONTINUOUS
 10
-12.45
 20
-22.3737961104
 30
0.0
 11
-12.45
 21
-23.9984237062
 31
0.0
  0
LINE
  5
2D0
100
AcDbEntity
  8
0
100
AcDbLine
 62
250
  6
CONTINUOUS
 10
-12.45
 20
22.3737961104
 30
0.0
 11
-12.45
 21
23.9984237062
 31
0.0
  0
LINE
  5
2D1
100
AcDbEntity
  8
0
100
AcDbLine
 62
7
  6
CONTINUOUS
 10
-12.25
 20
-23.7984264477
 30
0.0
 11
-12.25
 21
-22.3842776662
 31
0.0
  0
LINE
  5
2D2
100
AcDbEntity
  8
0
100
AcDbLine
 62
7
  6
CONTINUOUS
 10
-12.25
 20
22.3842776662
 30
0.0
 11
-12.25
 21
23.7984264477
 31
0.0
  0
LINE
  5
2D3
100
AcDbEntity
  8
0
100
AcDbLine
 62
250
  6
CONTINUOUS
 10
-22.3991276455
 20
-21.8997723451
 30
0.0
 11
-22.3729446494
 21
-21.821159479
 31
0.0
  0
LINE
  5
2D4
100
AcDbEntity
  8
0
100
AcDbLine
 62
250
  6
CONTINUOUS
 10
-21.8995078465
 20
-22.4
 30
0.0
 11
-21.8733252491
 21
-22.3213883311
 31
0.0
  0
LINE
  5
2D5
100
AcDbEntity
  8
0
100
AcDbLine
 62
250
  6
CONTINUOUS
 10
3.7369056521
 20
24.4869014213
 30
0.0
 11
3.7500042308
 21
24.5
 31
0.0
  0
LINE
  5
2D6
100
AcDbEntity
  8
0
100
AcDbLine
 62
250
  6
CONTINUOUS
 10
3.9869014213
 20
24.2369056521
 30
0.0
 11
4.0
 21
24.2500042308
 31
0.0
  0
LINE
  5
2D7
100
AcDbEntity
  8
0
100
AcDbLine
 62
250
  6
CONTINUOUS
 10
3.7369056521
 20
-24.4869014213
 30
0.0
 11
3.7500042308
 21
-24.5
 31
0.0
  0
LINE
  5
2D8
100
AcDbEntity
  8
0
100
AcDbLine
 62
250
  6
CONTINUOUS
 10
3.9869014213
 20
-24.2369056521
 30
0.0
 11
4.0
 21
-24.2500042308
 31
0.0
  0
LINE
  5
2D9
100
AcDbEntity
  8
0
100
AcDbLine
 62
250
  6
CONTINUOUS
 10
-22.3729446494
 20
21.821159479
 30
0.0
 11
-22.3991276455
 21
21.8997723451
 31
0.0
  0
LINE
  5
2DA
100
AcDbEntity
  8
0
100
AcDbLine
 62
250
  6
CONTINUOUS
 10
-21.8733252491
 20
22.3213883311
 30
0.0
 11
-21.8995078465
 21
22.4
 31
0.0
  0
LINE
  5
2DB
100
AcDbEntity
  8
0
100
AcDbLine
 62
7
  6
CONTINUOUS
 10
-10.25
 20
23.7984264477
 30
0.0
 11
-10.25
 21
22.3842776662
 31
0.0
  0
LINE
  5
2DC
100
AcDbEntity
  8
0
100
AcDbLine
 62
7
  6
CONTINUOUS
 10
-10.25
 20
-22.3842776662
 30
0.0
 11
-10.25
 21
-23.7984264477
 31
0.0
  0
LINE
  5
2DD
100
AcDbEntity
  8
0
100
AcDbLine
 62
250
  6
CONTINUOUS
 10
-10.05
 20
-22.3737961104
 30
0.0
 11
-10.05
 21
-23.9984237062
 31
0.0
  0
LINE
  5
2DE
100
AcDbEntity
  8
0
100
AcDbLine
 62
250
  6
CONTINUOUS
 10
-10.05
 20
22.3737961104
 30
0.0
 11
-10.05
 21
23.9984237062
 31
0.0
  0
LINE
  5
2DF
100
AcDbEntity
  8
0
100
AcDbLine
 62
7
  6
CONTINUOUS
 10
-7.75
 20
23.9921459466
 30
0.0
 11
-7.75
 21
22.3213883311
 31
0.0
  0
LINE
  5
2E0
100
AcDbEntity
  8
0
100
AcDbLine
 62
7
  6
CONTINUOUS
 10
-7.75
 20
-22.3213883311
 30
0.0
 11
-7.75
 21
-23.9921459466
 31
0.0
  0
LWPOLYLINE
  5
2E1
100
AcDbEntity
  8
0
100
AcDbPolyline
 62
7
  6
CONTINUOUS
 90
3
 70
0
 43
0.3500000087
 10
1.0357142884
 20
36.0038872467
 10
0.9642857329
 20
35.7896007141
 10
0.8214285552
 20
35.5038867584
  0
LINE
  5
2E2
100
AcDbEntity
  8
RACCORDO
100
AcDbLine
 62
250
  6
CONTINUOUS
 10
-21.5081671644
 20
-9.5
 30
0.0
 11
21.5081671644
 21
-9.5
 31
0.0
  0
LINE
  5
2E3
100
AcDbEntity
  8
0
100
AcDbLine
 62
250
  6
CONTINUOUS
 10
-3.988212066
 20
-23.8443375673
 30
0.0
 11
-3.9934481016
 21
-23.2669872981
 31
0.0
  0
LINE
  5
2E4
100
AcDbEntity
  8
0
100
AcDbLine
 62
250
  6
CONTINUOUS
 10
-3.7382154929
 20
-23.6278312164
 30
0.0
 11
-3.7427970241
 21
-23.1226497308
 31
0.0
  0
LINE
  5
2E5
100
AcDbEntity
  8
0
100
AcDbLine
 62
7
  6
CONTINUOUS
 10
-6.8078540534
 20
-23.9921459466
 30
0.0
 11
-6.8078540534
 21
-22.3213883311
 31
0.0
  0
LINE
  5
2E6
100
AcDbEntity
  8
0
100
AcDbLine
 62
7
  6
CONTINUOUS
 10
-6.8078540534
 20
22.3213883311
 30
0.0
 11
-6.8078540534
 21
23.9921459466
 31
0.0
  0
LINE
  5
2E7
100
AcDbEntity
  8
0
100
AcDbLine
 62
7
  6
CONTINUOUS
 10
-6.8
 20
-24.0
 30
0.0
 11
-6.8
 21
-22.4
 31
0.0
  0
LINE
  5
2E8
100
AcDbEntity
  8
0
100
AcDbLine
 62
7
  6
CONTINUOUS
 10
-6.8
 20
22.4
 30
0.0
 11
-6.8
 21
24.0
 31
0.0
  0
LINE
  5
2E9
100
AcDbEntity
  8
0
100
AcDbLine
 62
7
  6
CONTINUOUS
 10
-4.0
 20
-23.2669872981
 30
0.0
 11
-4.0
 21
-24.2500042308
 31
0.0
  0
LINE
  5
2EA
100
AcDbEntity
  8
0
100
AcDbLine
 62
7
  6
CONTINUOUS
 10
-4.0
 20
23.2669872981
 30
0.0
 11
-4.0
 21
24.2500042308
 31
0.0
  0
LINE
  5
2EB
100
AcDbEntity
  8
0
100
AcDbLine
 62
7
  6
CONTINUOUS
 10
-3.9934481016
 20
23.2669872981
 30
0.0
 11
-3.9934481016
 21
22.3344216746
 31
0.0
  0
LINE
  5
2EC
100
AcDbEntity
  8
0
100
AcDbLine
 62
7
  6
CONTINUOUS
 10
-3.9934481016
 20
-22.3344216746
 30
0.0
 11
-3.9934481016
 21
-23.2669872981
 31
0.0
  0
LINE
  5
2ED
100
AcDbEntity
  8
0
100
AcDbLine
 62
7
  6
CONTINUOUS
 10
-3.988212066
 20
24.2382154929
 30
0.0
 11
-3.988212066
 21
23.8443375673
 31
0.0
  0
LINE
  5
2EE
100
AcDbEntity
  8
0
100
AcDbLine
 62
7
  6
CONTINUOUS
 10
-3.988212066
 20
-23.8443375673
 30
0.0
 11
-3.988212066
 21
-24.2382154929
 31
0.0
  0
LINE
  5
2EF
100
AcDbEntity
  8
0
100
AcDbLine
 62
250
  6
CONTINUOUS
 10
-3.7434515285
 20
23.1226497308
 30
0.0
 11
-3.7434515285
 21
22.3213883311
 31
0.0
  0
LINE
  5
2F0
100
AcDbEntity
  8
0
100
AcDbLine
 62
250
  6
CONTINUOUS
 10
-3.7434515285
 20
-22.3213883311
 30
0.0
 11
-3.7434515285
 21
-23.1226497308
 31
0.0
  0
LINE
  5
2F1
100
AcDbEntity
  8
0
100
AcDbLine
 62
250
  6
CONTINUOUS
 10
-3.7382154929
 20
-23.6278312164
 30
0.0
 11
-3.7382154929
 21
-24.488212066
 31
0.0
  0
LINE
  5
2F2
100
AcDbEntity
  8
0
100
AcDbLine
 62
250
  6
CONTINUOUS
 10
-3.7382154929
 20
23.6278312164
 30
0.0
 11
-3.7382154929
 21
24.488212066
 31
0.0
  0
LINE
  5
2F3
100
AcDbEntity
  8
0
100
AcDbLine
 62
250
  6
CONTINUOUS
 10
-3.9934481016
 20
23.2669872981
 30
0.0
 11
-3.988212066
 21
23.8443375673
 31
0.0
  0
LINE
  5
2F4
100
AcDbEntity
  8
0
100
AcDbLine
 62
250
  6
CONTINUOUS
 10
-3.7427970241
 20
23.1226497308
 30
0.0
 11
-3.7382154929
 21
23.6278312164
 31
0.0
  0
LINE
  5
2F5
100
AcDbEntity
  8
0
100
AcDbLine
 62
7
  6
CONTINUOUS
 10
15.6912732553
 20
23.9912732553
 30
0.0
 11
15.7
 21
24.0
 31
0.0
  0
LINE
  5
2F6
100
AcDbEntity
  8
0
100
AcDbLine
 62
7
  6
CONTINUOUS
 10
15.7
 20
-24.0
 30
0.0
 11
15.6912732553
 21
-23.9912732553
 31
0.0
  0
LINE
  5
2F7
100
AcDbEntity
  8
0
100
AcDbLine
 62
250
  6
CONTINUOUS
 10
-1.3617845071
 20
23.6278312164
 30
0.0
 11
-1.3572029759
 21
23.1226497308
 31
0.0
  0
LINE
  5
2F8
100
AcDbEntity
  8
0
100
AcDbLine
 62
250
  6
CONTINUOUS
 10
-1.111787934
 20
23.8443375673
 30
0.0
 11
-1.1065518984
 21
23.2669872981
 31
0.0
  0
LINE
  5
2F9
100
AcDbEntity
  8
0
100
AcDbLine
 62
250
  6
CONTINUOUS
 10
-1.1117913969
 20
24.239524484
 30
0.0
 11
-1.111787934
 21
24.2382154929
 31
0.0
  0
LWPOLYLINE
  5
2FA
100
AcDbEntity
  8
0
100
AcDbPolyline
 62
7
  6
CONTINUOUS
 90
2
 70
0
 43
0.3500000087
 10
-3.3928572206
 20
35.7181690277
 10
-3.3928572206
 20
37.2181704926
  0
LINE
  5
2FB
100
AcDbEntity
  8
0
100
AcDbLine
 62
250
  6
CONTINUOUS
 10
-1.3617845071
 20
-23.6278312164
 30
0.0
 11
-1.3617845071
 21
-24.488212066
 31
0.0
  0
LINE
  5
2FC
100
AcDbEntity
  8
0
100
AcDbLine
 62
250
  6
CONTINUOUS
 10
-1.3617845071
 20
23.6278312164
 30
0.0
 11
-1.3617845071
 21
24.488212066
 31
0.0
  0
LINE
  5
2FD
100
AcDbEntity
  8
0
100
AcDbLine
 62
250
  6
CONTINUOUS
 10
-1.3565484715
 20
-23.1226497308
 30
0.0
 11
-1.3565484715
 21
-22.3213883311
 31
0.0
  0
LINE
  5
2FE
100
AcDbEntity
  8
0
100
AcDbLine
 62
250
  6
CONTINUOUS
 10
-1.3565484715
 20
22.3213883311
 30
0.0
 11
-1.3565484715
 21
23.1226497308
 31
0.0
  0
LINE
  5
2FF
100
AcDbEntity
  8
0
100
AcDbLine
 62
7
  6
CONTINUOUS
 10
-1.111787934
 20
-24.2382154929
 30
0.0
 11
-1.111787934
 21
-23.8443375673
 31
0.0
  0
LINE
  5
300
100
AcDbEntity
  8
0
100
AcDbLine
 62
7
  6
CONTINUOUS
 10
-1.111787934
 20
23.8443375673
 30
0.0
 11
-1.111787934
 21
24.2382154929
 31
0.0
  0
LINE
  5
301
100
AcDbEntity
  8
0
100
AcDbLine
 62
7
  6
CONTINUOUS
 10
-1.1065518984
 20
-23.2669872981
 30
0.0
 11
-1.1065518984
 21
-22.3344216746
 31
0.0
  0
LINE
  5
302
100
AcDbEntity
  8
0
100
AcDbLine
 62
7
  6
CONTINUOUS
 10
-1.1065518984
 20
22.3344216746
 30
0.0
 11
-1.1065518984
 21
23.2669872981
 31
0.0
  0
LINE
  5
303
100
AcDbEntity
  8
0
100
AcDbLine
 62
7
  6
CONTINUOUS
 10
-1.1
 20
-23.2669872981
 30
0.0
 11
-1.1
 21
-24.2500042308
 31
0.0
  0
LINE
  5
304
100
AcDbEntity
  8
0
100
AcDbLine
 62
7
  6
CONTINUOUS
 10
-1.1
 20
23.2669872981
 30
0.0
 11
-1.1
 21
24.2500042308
 31
0.0
  0
LWPOLYLINE
  5
305
100
AcDbEntity
  8
0
100
AcDbPolyline
 62
7
  6
CONTINUOUS
 90
2
 70
0
 43
0.3500000087
 10
-1.0357142884
 20
35.7181690277
 10
-1.0357142884
 20
37.2181704926
  0
LINE
  5
306
100
AcDbEntity
  8
0
100
AcDbLine
 62
250
  6
CONTINUOUS
 10
-1.3572029759
 20
-23.1226497308
 30
0.0
 11
-1.3617845071
 21
-23.6278312164
 31
0.0
  0
LINE
  5
307
100
AcDbEntity
  8
0
100
AcDbLine
 62
250
  6
CONTINUOUS
 10
-1.1065518984
 20
-23.2669872981
 30
0.0
 11
-1.111787934
 21
-23.8443375673
 31
0.0
  0
LINE
  5
308
100
AcDbEntity
  8
0
100
AcDbLine
 62
250
  6
CONTINUOUS
 10
21.1369056521
 20
24.4869014213
 30
0.0
 11
21.1500042308
 21
24.5
 31
0.0
  0
LINE
  5
309
100
AcDbEntity
  8
0
100
AcDbLine
 62
250
  6
CONTINUOUS
 10
21.3869014213
 20
24.2369056521
 30
0.0
 11
21.4
 21
24.2500042308
 31
0.0
  0
LINE
  5
30A
100
AcDbEntity
  8
0
100
AcDbLine
 62
250
  6
CONTINUOUS
 10
-22.15
 20
-21.6001713375
 30
0.0
 11
-22.046123705
 21
-21.4962950425
 31
0.0
  0
LINE
  5
30B
100
AcDbEntity
  8
0
100
AcDbLine
 62
250
  6
CONTINUOUS
 10
21.6501713375
 20
22.1
 30
0.0
 11
21.5462950425
 21
21.996123705
 31
0.0
  0
LINE
  5
30C
100
AcDbEntity
  8
0
100
AcDbLine
 62
250
  6
CONTINUOUS
 10
-21.6501713375
 20
-22.1
 30
0.0
 11
-21.5462950425
 21
-21.996123705
 31
0.0
  0
LINE
  5
30D
100
AcDbEntity
  8
0
100
AcDbLine
 62
250
  6
CONTINUOUS
 10
22.15
 20
21.6001713375
 30
0.0
 11
22.046123705
 21
21.4962950425
 31
0.0
  0
LWPOLYLINE
  5
30E
100
AcDbEntity
  8
0
100
AcDbPolyline
 62
7
  6
CONTINUOUS
 90
2
 70
0
 43
0.3500000087
 10
32.0469851669
 20
-1.3571421616
 10
30.5469858337
 20
-1.3571421616
  0
LINE
  5
30F
100
AcDbEntity
  8
DRAFT
100
AcDbLine
 62
7
  6
CONTINUOUS
 10
22.15
 20
-0.0
 30
0.0
 11
22.345044505
 21
-0.0
 31
0.0
  0
LINE
  5
310
100
AcDbEntity
  8
DRAFT
100
AcDbLine
 62
7
  6
CONTINUOUS
 10
-22.15
 20
0.0
 30
0.0
 11
-22.345044505
 21
0.0
 31
0.0
  0
LINE
  5
311
100
AcDbEntity
  8
0
100
AcDbLine
 62
250
  6
CONTINUOUS
 10
21.1369056521
 20
-24.4869014213
 30
0.0
 11
21.1500042308
 21
-24.5
 31
0.0
  0
LINE
  5
312
100
AcDbEntity
  8
0
100
AcDbLine
 62
250
  6
CONTINUOUS
 10
21.3869014213
 20
-24.2369056521
 30
0.0
 11
21.4
 21
-24.2500042308
 31
0.0
  0
LINE
  5
313
100
AcDbEntity
  8
0
100
AcDbLine
 62
250
  6
CONTINUOUS
 10
-22.046123705
 20
21.4962950425
 30
0.0
 11
-22.15
 21
21.6001713375
 31
0.0
  0
LINE
  5
314
100
AcDbEntity
  8
0
100
AcDbLine
 62
250
  6
CONTINUOUS
 10
21.5462950425
 20
-21.996123705
 30
0.0
 11
21.6501713375
 21
-22.1
 31
0.0
  0
LINE
  5
315
100
AcDbEntity
  8
0
100
AcDbLine
 62
250
  6
CONTINUOUS
 10
-21.5462950425
 20
21.996123705
 30
0.0
 11
-21.6501713375
 21
22.1
 31
0.0
  0
LINE
  5
316
100
AcDbEntity
  8
0
100
AcDbLine
 62
250
  6
CONTINUOUS
 10
22.046123705
 20
-21.4962950425
 30
0.0
 11
22.15
 21
-21.6001713375
 31
0.0
  0
LINE
  5
317
100
AcDbEntity
  8
0
100
AcDbLine
 62
250
  6
CONTINUOUS
 10
1.1130985787
 20
-23.8443375673
 30
0.0
 11
1.1072807489
 21
-23.2669872981
 31
0.0
  0
LINE
  5
318
100
AcDbEntity
  8
0
100
AcDbLine
 62
250
  6
CONTINUOUS
 10
1.3630943479
 20
-23.6278312164
 30
0.0
 11
1.3580037468
 21
-23.1226497308
 31
0.0
  0
LINE
  5
319
100
AcDbEntity
  8
0
100
AcDbLine
 62
250
  6
CONTINUOUS
 10
3.7369056521
 20
23.6278312164
 30
0.0
 11
3.7419962532
 21
23.1226497308
 31
0.0
  0
LINE
  5
31A
100
AcDbEntity
  8
0
100
AcDbLine
 62
250
  6
CONTINUOUS
 10
3.9869014213
 20
23.8443375673
 30
0.0
 11
3.9927192511
 21
23.2669872981
 31
0.0
  0
LINE
  5
31B
100
AcDbEntity
  8
0
100
AcDbLine
 62
250
  6
CONTINUOUS
 10
1.1131028588
 20
-24.2383600852
 30
0.0
 11
1.1130985787
 21
-24.2369056521
 31
0.0
  0
LINE
  5
31C
100
AcDbEntity
  8
0
100
AcDbLine
 62
250
  6
CONTINUOUS
 10
3.9868971412
 20
24.2383600852
 30
0.0
 11
3.9869014213
 21
24.2369056521
 31
0.0
  0
LINE
  5
31D
100
AcDbEntity
  8
0
100
AcDbLine
 62
7
  6
CONTINUOUS
 10
1.1
 20
-22.4
 30
0.0
 11
1.1
 21
-24.2500042308
 31
0.0
  0
LINE
  5
31E
100
AcDbEntity
  8
0
100
AcDbLine
 62
7
  6
CONTINUOUS
 10
1.1
 20
22.4
 30
0.0
 11
1.1
 21
24.2500042308
 31
0.0
  0
LINE
  5
31F
100
AcDbEntity
  8
0
100
AcDbLine
 62
7
  6
CONTINUOUS
 10
1.1072807489
 20
23.2669872981
 30
0.0
 11
1.1072807489
 21
22.3344140523
 31
0.0
  0
LINE
  5
320
100
AcDbEntity
  8
0
100
AcDbLine
 62
7
  6
CONTINUOUS
 10
1.1072807489
 20
-22.3344140523
 30
0.0
 11
1.1072807489
 21
-23.2669872981
 31
0.0
  0
LINE
  5
321
100
AcDbEntity
  8
0
100
AcDbLine
 62
7
  6
CONTINUOUS
 10
1.1130985787
 20
24.2369056521
 30
0.0
 11
1.1130985787
 21
23.8443375673
 31
0.0
  0
LINE
  5
322
100
AcDbEntity
  8
0
100
AcDbLine
 62
7
  6
CONTINUOUS
 10
1.1130985787
 20
-23.8443375673
 30
0.0
 11
1.1130985787
 21
-24.2369056521
 31
0.0
  0
LINE
  5
323
100
AcDbEntity
  8
0
100
AcDbLine
 62
250
  6
CONTINUOUS
 10
1.3572765181
 20
23.1226497308
 30
0.0
 11
1.3572765181
 21
22.3213883311
 31
0.0
  0
LINE
  5
324
100
AcDbEntity
  8
0
100
AcDbLine
 62
250
  6
CONTINUOUS
 10
1.3572765181
 20
-22.3213883311
 30
0.0
 11
1.3572765181
 21
-23.1226497308
 31
0.0
  0
LINE
  5
325
100
AcDbEntity
  8
0
100
AcDbLine
 62
250
  6
CONTINUOUS
 10
1.3630943479
 20
-23.6278312164
 30
0.0
 11
1.3630943479
 21
-24.4869014213
 31
0.0
  0
LINE
  5
326
100
AcDbEntity
  8
0
100
AcDbLine
 62
250
  6
CONTINUOUS
 10
1.3630943479
 20
23.6278312164
 30
0.0
 11
1.3630943479
 21
24.4869014213
 31
0.0
  0
LWPOLYLINE
  5
327
100
AcDbEntity
  8
0
100
AcDbPolyline
 62
7
  6
CONTINUOUS
 90
4
 70
0
 43
0.3500000087
 10
2.0357143324
 20
36.1467420929
 10
2.0357143324
 20
37.00388396
 10
2.4642857988
 20
37.4324570251
 10
3.107142732
 20
37.4324570251
  0
LINE
  5
328
100
AcDbEntity
  8
0
100
AcDbLine
 62
250
  6
CONTINUOUS
 10
3.7369056521
 20
-23.6278312164
 30
0.0
 11
3.7369056521
 21
-24.4869014213
 31
0.0
  0
LINE
  5
329
100
AcDbEntity
  8
0
100
AcDbLine
 62
250
  6
CONTINUOUS
 10
3.7369056521
 20
23.6278312164
 30
0.0
 11
3.7369056521
 21
24.4869014213
 31
0.0
  0
LINE
  5
32A
100
AcDbEntity
  8
0
100
AcDbLine
 62
250
  6
CONTINUOUS
 10
3.7427234819
 20
-23.1226497308
 30
0.0
 11
3.7427234819
 21
-22.3213883311
 31
0.0
  0
LINE
  5
32B
100
AcDbEntity
  8
0
100
AcDbLine
 62
250
  6
CONTINUOUS
 10
3.7427234819
 20
22.3213883311
 30
0.0
 11
3.7427234819
 21
23.1226497308
 31
0.0
  0
LINE
  5
32C
100
AcDbEntity
  8
0
100
AcDbLine
 62
7
  6
CONTINUOUS
 10
3.9869014213
 20
-24.2369056521
 30
0.0
 11
3.9869014213
 21
-23.8443375673
 31
0.0
  0
LINE
  5
32D
100
AcDbEntity
  8
0
100
AcDbLine
 62
7
  6
CONTINUOUS
 10
3.9869014213
 20
23.8443375673
 30
0.0
 11
3.9869014213
 21
24.2369056521
 31
0.0
  0
LINE
  5
32E
100
AcDbEntity
  8
0
100
AcDbLine
 62
7
  6
CONTINUOUS
 10
3.9927192511
 20
-23.2669872981
 30
0.0
 11
3.9927192511
 21
-22.3344140523
 31
0.0
  0
LINE
  5
32F
100
AcDbEntity
  8
0
100
AcDbLine
 62
7
  6
CONTINUOUS
 10
3.9927192511
 20
22.3344140523
 30
0.0
 11
3.9927192511
 21
23.2669872981
 31
0.0
  0
LINE
  5
330
100
AcDbEntity
  8
0
100
AcDbLine
 62
7
  6
CONTINUOUS
 10
4.0
 20
-22.4
 30
0.0
 11
4.0
 21
-24.2500042308
 31
0.0
  0
LINE
  5
331
100
AcDbEntity
  8
0
100
AcDbLine
 62
7
  6
CONTINUOUS
 10
4.0
 20
22.4
 30
0.0
 11
4.0
 21
24.2500042308
 31
0.0
  0
LINE
  5
332
100
AcDbEntity
  8
0
100
AcDbLine
 62
250
  6
CONTINUOUS
 10
1.1072807489
 20
23.2669872981
 30
0.0
 11
1.1130985787
 21
23.8443375673
 31
0.0
  0
LINE
  5
333
100
AcDbEntity
  8
0
100
AcDbLine
 62
250
  6
CONTINUOUS
 10
1.3580037468
 20
23.1226497308
 30
0.0
 11
1.3630943479
 21
23.6278312164
 31
0.0
  0
LINE
  5
334
100
AcDbEntity
  8
0
100
AcDbLine
 62
250
  6
CONTINUOUS
 10
3.7419962532
 20
-23.1226497308
 30
0.0
 11
3.7369056521
 21
-23.6278312164
 31
0.0
  0
LINE
  5
335
100
AcDbEntity
  8
0
100
AcDbLine
 62
250
  6
CONTINUOUS
 10
3.9927192511
 20
-23.2669872981
 30
0.0
 11
3.9869014213
 21
-23.8443375673
 31
0.0
  0
LINE
  5
336
100
AcDbEntity
  8
0
100
AcDbLine
 62
250
  6
CONTINUOUS
 10
-21.388212066
 20
-24.2382154929
 30
0.0
 11
-21.4
 21
-24.2500034269
 31
0.0
  0
LINE
  5
337
100
AcDbEntity
  8
0
100
AcDbLine
 62
250
  6
CONTINUOUS
 10
-21.1382154929
 20
-24.488212066
 30
0.0
 11
-21.1500034269
 21
-24.5
 31
0.0
  0
LINE
  5
338
100
AcDbEntity
  8
0
100
AcDbLine
 62
250
  6
CONTINUOUS
 10
-21.388212066
 20
24.2382154929
 30
0.0
 11
-21.4
 21
24.2500034269
 31
0.0
  0
LINE
  5
339
100
AcDbEntity
  8
0
100
AcDbLine
 62
250
  6
CONTINUOUS
 10
-21.1382154929
 20
24.488212066
 30
0.0
 11
-21.1500034269
 21
24.5
 31
0.0
  0
LINE
  5
33A
100
AcDbEntity
  8
0
100
AcDbLine
 62
7
  6
CONTINUOUS
 10
6.8
 20
24.0
 30
0.0
 11
6.8
 21
22.4
 31
0.0
  0
LINE
  5
33B
100
AcDbEntity
  8
0
100
AcDbLine
 62
7
  6
CONTINUOUS
 10
6.8
 20
-22.4
 30
0.0
 11
6.8
 21
-24.0
 31
0.0
  0
LINE
  5
33C
100
AcDbEntity
  8
0
100
AcDbLine
 62
7
  6
CONTINUOUS
 10
6.8087267447
 20
23.9912732553
 30
0.0
 11
6.8087267447
 21
22.3213883311
 31
0.0
  0
LINE
  5
33D
100
AcDbEntity
  8
0
100
AcDbLine
 62
7
  6
CONTINUOUS
 10
6.8087267447
 20
-22.3213883311
 30
0.0
 11
6.8087267447
 21
-23.9912732553
 31
0.0
  0
LINE
  5
33E
100
AcDbEntity
  8
0
100
AcDbLine
 62
7
  6
CONTINUOUS
 10
7.75
 20
-23.9912732553
 30
0.0
 11
7.75
 21
-22.3213883311
 31
0.0
  0
LINE
  5
33F
100
AcDbEntity
  8
0
100
AcDbLine
 62
7
  6
CONTINUOUS
 10
7.75
 20
22.3213883311
 30
0.0
 11
7.75
 21
23.9912732553
 31
0.0
  0
LINE
  5
340
100
AcDbEntity
  8
0
100
AcDbLine
 62
250
  6
CONTINUOUS
 10
10.05
 20
-22.3737961104
 30
0.0
 11
10.05
 21
-23.9982478817
 31
0.0
  0
LINE
  5
341
100
AcDbEntity
  8
0
100
AcDbLine
 62
250
  6
CONTINUOUS
 10
10.05
 20
22.3737961104
 30
0.0
 11
10.05
 21
23.9982478817
 31
0.0
  0
LINE
  5
342
100
AcDbEntity
  8
0
100
AcDbLine
 62
7
  6
CONTINUOUS
 10
10.25
 20
-23.7982512664
 30
0.0
 11
10.25
 21
-22.3842776662
 31
0.0
  0
LINE
  5
343
100
AcDbEntity
  8
0
100
AcDbLine
 62
7
  6
CONTINUOUS
 10
10.25
 20
22.3842776662
 30
0.0
 11
10.25
 21
23.7982512664
 31
0.0
  0
LINE
  5
344
100
AcDbEntity
  8
0
100
AcDbLine
 62
7
  6
CONTINUOUS
 10
12.25
 20
23.7982512664
 30
0.0
 11
12.25
 21
22.3842776662
 31
0.0
  0
LINE
  5
345
100
AcDbEntity
  8
0
100
AcDbLine
 62
7
  6
CONTINUOUS
 10
12.25
 20
-22.3842776662
 30
0.0
 11
12.25
 21
-23.7982512664
 31
0.0
  0
LINE
  5
346
100
AcDbEntity
  8
0
100
AcDbLine
 62
250
  6
CONTINUOUS
 10
12.45
 20
-22.3737961104
 30
0.0
 11
12.45
 21
-23.9982478817
 31
0.0
  0
LINE
  5
347
100
AcDbEntity
  8
0
100
AcDbLine
 62
250
  6
CONTINUOUS
 10
12.45
 20
22.3737961104
 30
0.0
 11
12.45
 21
23.9982478817
 31
0.0
  0
LINE
  5
348
100
AcDbEntity
  8
RACCORDO
100
AcDbLine
 62
250
  6
CONTINUOUS
 10
-21.5081671644
 20
9.5
 30
0.0
 11
21.5081671644
 21
9.5
 31
0.0
  0
LINE
  5
349
100
AcDbEntity
  8
0
100
AcDbLine
 62
7
  6
CONTINUOUS
 10
14.75
 20
23.9912732553
 30
0.0
 11
14.75
 21
22.3213883311
 31
0.0
  0
LINE
  5
34A
100
AcDbEntity
  8
0
100
AcDbLine
 62
7
  6
CONTINUOUS
 10
14.75
 20
-22.3213883311
 30
0.0
 11
14.75
 21
-23.9912732553
 31
0.0
  0
LINE
  5
34B
100
AcDbEntity
  8
0
100
AcDbLine
 62
7
  6
CONTINUOUS
 10
15.6912732553
 20
-23.9912732553
 30
0.0
 11
15.6912732553
 21
-22.3213883311
 31
0.0
  0
LINE
  5
34C
100
AcDbEntity
  8
0
100
AcDbLine
 62
7
  6
CONTINUOUS
 10
15.6912732553
 20
22.3213883311
 30
0.0
 11
15.6912732553
 21
23.9912732553
 31
0.0
  0
LINE
  5
34D
100
AcDbEntity
  8
0
100
AcDbLine
 62
7
  6
CONTINUOUS
 10
15.7
 20
-24.0
 30
0.0
 11
15.7
 21
-22.4
 31
0.0
  0
LINE
  5
34E
100
AcDbEntity
  8
0
100
AcDbLine
 62
7
  6
CONTINUOUS
 10
15.7
 20
22.4
 30
0.0
 11
15.7
 21
24.0
 31
0.0
  0
LINE
  5
34F
100
AcDbEntity
  8
0
100
AcDbLine
 62
250
  6
CONTINUOUS
 10
21.8995078465
 20
22.4
 30
0.0
 11
21.8733252491
 21
22.3213883311
 31
0.0
  0
LINE
  5
350
100
AcDbEntity
  8
0
100
AcDbLine
 62
250
  6
CONTINUOUS
 10
22.3991276455
 20
21.8997723451
 30
0.0
 11
22.3729446494
 21
21.821159479
 31
0.0
  0
LINE
  5
351
100
AcDbEntity
  8
0
100
AcDbLine
 62
250
  6
CONTINUOUS
 10
-3.988212066
 20
-24.2382154929
 30
0.0
 11
-4.0
 21
-24.2500034269
 31
0.0
  0
LINE
  5
352
100
AcDbEntity
  8
0
100
AcDbLine
 62
250
  6
CONTINUOUS
 10
-3.7382154929
 20
-24.488212066
 30
0.0
 11
-3.7500034269
 21
-24.5
 31
0.0
  0
LINE
  5
353
100
AcDbEntity
  8
0
100
AcDbLine
 62
250
  6
CONTINUOUS
 10
-3.988212066
 20
24.2382154929
 30
0.0
 11
-4.0
 21
24.2500034269
 31
0.0
  0
LINE
  5
354
100
AcDbEntity
  8
0
100
AcDbLine
 62
250
  6
CONTINUOUS
 10
-3.7382154929
 20
24.488212066
 30
0.0
 11
-3.7500034269
 21
24.5
 31
0.0
  0
LINE
  5
355
100
AcDbEntity
  8
0
100
AcDbLine
 62
250
  6
CONTINUOUS
 10
21.8733252491
 20
-22.3213883311
 30
0.0
 11
21.8995078465
 21
-22.4
 31
0.0
  0
LINE
  5
356
100
AcDbEntity
  8
0
100
AcDbLine
 62
250
  6
CONTINUOUS
 10
22.3729446494
 20
-21.821159479
 30
0.0
 11
22.3991276455
 21
-21.8997723451
 31
0.0
  0
LINE
  5
357
100
AcDbEntity
  8
0
100
AcDbLine
 62
250
  6
CONTINUOUS
 10
18.5130985787
 20
-23.8443375673
 30
0.0
 11
18.5072807489
 21
-23.2669872981
 31
0.0
  0
LINE
  5
358
100
AcDbEntity
  8
0
100
AcDbLine
 62
250
  6
CONTINUOUS
 10
18.7630943479
 20
-23.6278312164
 30
0.0
 11
18.7580037468
 21
-23.1226497308
 31
0.0
  0
LINE
  5
359
100
AcDbEntity
  8
0
100
AcDbLine
 62
7
  6
CONTINUOUS
 10
18.5
 20
-22.4
 30
0.0
 11
18.5
 21
-24.2500042308
 31
0.0
  0
LINE
  5
35A
100
AcDbEntity
  8
0
100
AcDbLine
 62
7
  6
CONTINUOUS
 10
18.5
 20
22.4
 30
0.0
 11
18.5
 21
24.2500042308
 31
0.0
  0
LINE
  5
35B
100
AcDbEntity
  8
0
100
AcDbLine
 62
7
  6
CONTINUOUS
 10
18.5072807489
 20
23.2669872981
 30
0.0
 11
18.5072807489
 21
22.3344140523
 31
0.0
  0
LINE
  5
35C
100
AcDbEntity
  8
0
100
AcDbLine
 62
7
  6
CONTINUOUS
 10
18.5072807489
 20
-22.3344140523
 30
0.0
 11
18.5072807489
 21
-23.2669872981
 31
0.0
  0
LINE
  5
35D
100
AcDbEntity
  8
0
100
AcDbLine
 62
7
  6
CONTINUOUS
 10
18.5130985787
 20
24.2369056521
 30
0.0
 11
18.5130985787
 21
23.8443375673
 31
0.0
  0
LINE
  5
35E
100
AcDbEntity
  8
0
100
AcDbLine
 62
7
  6
CONTINUOUS
 10
18.5130985787
 20
-23.8443375673
 30
0.0
 11
18.5130985787
 21
-24.2369056521
 31
0.0
  0
LINE
  5
35F
100
AcDbEntity
  8
0
100
AcDbLine
 62
250
  6
CONTINUOUS
 10
18.7572765181
 20
23.1226497308
 30
0.0
 11
18.7572765181
 21
22.3213883311
 31
0.0
  0
LINE
  5
360
100
AcDbEntity
  8
0
100
AcDbLine
 62
250
  6
CONTINUOUS
 10
18.7572765181
 20
-22.3213883311
 30
0.0
 11
18.7572765181
 21
-23.1226497308
 31
0.0
  0
LINE
  5
361
100
AcDbEntity
  8
0
100
AcDbLine
 62
250
  6
CONTINUOUS
 10
18.7630943479
 20
-23.6278312164
 30
0.0
 11
18.7630943479
 21
-24.4869014213
 31
0.0
  0
LINE
  5
362
100
AcDbEntity
  8
0
100
AcDbLine
 62
250
  6
CONTINUOUS
 10
18.7630943479
 20
23.6278312164
 30
0.0
 11
18.7630943479
 21
24.4869014213
 31
0.0
  0
LINE
  5
363
100
AcDbEntity
  8
0
100
AcDbLine
 62
250
  6
CONTINUOUS
 10
18.5072807489
 20
23.2669872981
 30
0.0
 11
18.5130985787
 21
23.8443375673
 31
0.0
  0
LINE
  5
364
100
AcDbEntity
  8
0
100
AcDbLine
 62
250
  6
CONTINUOUS
 10
18.7580037468
 20
23.1226497308
 30
0.0
 11
18.7630943479
 21
23.6278312164
 31
0.0
  0
LINE
  5
365
100
AcDbEntity
  8
0
100
AcDbLine
 62
250
  6
CONTINUOUS
 10
1.1130985787
 20
-24.2369056521
 30
0.0
 11
1.1
 21
-24.2500042308
 31
0.0
  0
LINE
  5
366
100
AcDbEntity
  8
0
100
AcDbLine
 62
250
  6
CONTINUOUS
 10
1.3630943479
 20
-24.4869014213
 30
0.0
 11
1.3499957692
 21
-24.5
 31
0.0
  0
LINE
  5
367
100
AcDbEntity
  8
RACCORDO
100
AcDbLine
 62
7
  6
CONTINUOUS
 10
-3.3112420645
 20
-22.1183301451
 30
0.0
 11
-3.2739590572
 21
-22.1071711004
 31
0.0
  0
LINE
  5
368
100
AcDbEntity
  8
DRAFT
100
AcDbLine
 62
7
  6
CONTINUOUS
 10
-22.3729446494
 20
16.6
 30
0.0
 11
-22.15
 21
16.6
 31
0.0
  0
LINE
  5
369
100
AcDbEntity
  8
DRAFT
100
AcDbLine
 62
7
  6
CONTINUOUS
 10
22.3729446494
 20
16.6
 30
0.0
 11
22.15
 21
16.6
 31
0.0
  0
LINE
  5
36A
100
AcDbEntity
  8
RACCORDO
100
AcDbLine
 62
7
  6
CONTINUOUS
 10
-3.3112420645
 20
22.1183301451
 30
0.0
 11
-3.2739590572
 21
22.1071711004
 31
0.0
  0
LINE
  5
36B
100
AcDbEntity
  8
0
100
AcDbLine
 62
250
  6
CONTINUOUS
 10
1.1130985787
 20
24.2369056521
 30
0.0
 11
1.1
 21
24.2500042308
 31
0.0
  0
LINE
  5
36C
100
AcDbEntity
  8
0
100
AcDbLine
 62
250
  6
CONTINUOUS
 10
1.3630943479
 20
24.4869014213
 30
0.0
 11
1.3499957692
 21
24.5
 31
0.0
  0
LWPOLYLINE
  5
36D
100
AcDbEntity
  8
0
100
AcDbPolyline
 62
7
  6
CONTINUOUS
 90
10
 70
0
 43
0.3500000087
 10
0.9642857329
 20
36.218169516
 10
1.0357142884
 20
36.0753146698
 10
1.0357142884
 20
36.0038872467
 10
0.8928571107
 20
35.8610281372
 10
0.8214285552
 20
35.8610281372
 10
0.7499999997
 20
35.9324555603
 10
0.7499999997
 20
36.0038872467
 10
0.8214285552
 20
36.1467420929
 10
0.8928571107
 20
36.218169516
 10
0.9642857329
 20
36.218169516
  0
LINE
  5
36E
100
AcDbEntity
  8
0
100
AcDbLine
 62
250
  6
CONTINUOUS
 10
21.1369056521
 20
23.6278312164
 30
0.0
 11
21.1419962532
 21
23.1226497308
 31
0.0
  0
LINE
  5
36F
100
AcDbEntity
  8
0
100
AcDbLine
 62
250
  6
CONTINUOUS
 10
21.3869014213
 20
23.8443375673
 30
0.0
 11
21.3927192511
 21
23.2669872981
 31
0.0
  0
LINE
  5
370
100
AcDbEntity
  8
0
100
AcDbLine
 62
7
  6
CONTINUOUS
 10
22.345044505
 20
-0.0
 30
0.0
 11
22.3729446494
 21
-16.6
 31
0.0
  0
LINE
  5
371
100
AcDbEntity
  8
0
100
AcDbLine
 62
250
  6
CONTINUOUS
 10
21.1369056521
 20
-23.6278312164
 30
0.0
 11
21.1369056521
 21
-24.4869014213
 31
0.0
  0
LINE
  5
372
100
AcDbEntity
  8
0
100
AcDbLine
 62
250
  6
CONTINUOUS
 10
21.1369056521
 20
23.6278312164
 30
0.0
 11
21.1369056521
 21
24.4869014213
 31
0.0
  0
LINE
  5
373
100
AcDbEntity
  8
0
100
AcDbLine
 62
250
  6
CONTINUOUS
 10
21.1427234819
 20
-23.1226497308
 30
0.0
 11
21.1427234819
 21
-22.3213883311
 31
0.0
  0
LINE
  5
374
100
AcDbEntity
  8
0
100
AcDbLine
 62
250
  6
CONTINUOUS
 10
21.1427234819
 20
22.3213883311
 30
0.0
 11
21.1427234819
 21
23.1226497308
 31
0.0
  0
LINE
  5
375
100
AcDbEntity
  8
0
100
AcDbLine
 62
7
  6
CONTINUOUS
 10
21.3869014213
 20
-24.2369056521
 30
0.0
 11
21.3869014213
 21
-23.8443375673
 31
0.0
  0
LINE
  5
376
100
AcDbEntity
  8
0
100
AcDbLine
 62
7
  6
CONTINUOUS
 10
21.3869014213
 20
23.8443375673
 30
0.0
 11
21.3869014213
 21
24.2369056521
 31
0.0
  0
LINE
  5
377
100
AcDbEntity
  8
0
100
AcDbLine
 62
7
  6
CONTINUOUS
 10
21.3927192511
 20
-23.2669872981
 30
0.0
 11
21.3927192511
 21
-22.3344140523
 31
0.0
  0
LINE
  5
378
100
AcDbEntity
  8
0
100
AcDbLine
 62
7
  6
CONTINUOUS
 10
21.3927192511
 20
22.3344140523
 30
0.0
 11
21.3927192511
 21
23.2669872981
 31
0.0
  0
LINE
  5
379
100
AcDbEntity
  8
0
100
AcDbLine
 62
7
  6
CONTINUOUS
 10
21.4
 20
-22.4
 30
0.0
 11
21.4
 21
-24.2500042308
 31
0.0
  0
LINE
  5
37A
100
AcDbEntity
  8
0
100
AcDbLine
 62
7
  6
CONTINUOUS
 10
21.4
 20
22.4
 30
0.0
 11
21.4
 21
24.2500042308
 31
0.0
  0
LINE
  5
37B
100
AcDbEntity
  8
RACCORDO
100
AcDbLine
 62
250
  6
CONTINUOUS
 10
21.5081671644
 20
9.5
 30
0.0
 11
21.5081671644
 21
-9.5
 31
0.0
  0
LINE
  5
37C
100
AcDbEntity
  8
0
100
AcDbLine
 62
7
  6
CONTINUOUS
 10
22.15
 20
-21.6001713375
 30
0.0
 11
22.15
 21
21.6001713375
 31
0.0
  0
LINE
  5
37D
100
AcDbEntity
  8
0
100
AcDbLine
 62
7
  6
CONTINUOUS
 10
22.3729446494
 20
-21.821159479
 30
0.0
 11
22.3729446494
 21
-16.6
 31
0.0
  0
LINE
  5
37E
100
AcDbEntity
  8
0
100
AcDbLine
 62
7
  6
CONTINUOUS
 10
22.3729446494
 20
16.6
 30
0.0
 11
22.3729446494
 21
21.821159479
 31
0.0
  0
LINE
  5
37F
100
AcDbEntity
  8
RACCORDO
100
AcDbLine
 62
7
  6
CONTINUOUS
 10
22.4
 20
17.6716990487
 30
0.0
 11
22.4
 21
-17.6716990487
 31
0.0
  0
LINE
  5
380
100
AcDbEntity
  8
ASSI
100
AcDbLine
 62
7
  6
CONTINUOUS
 10
22.4
 20
17.6716990487
 30
0.0
 11
22.4
 21
-17.6716990487
 31
0.0
  0
LINE
  5
381
100
AcDbEntity
  8
SUPERFICI
100
AcDbLine
 62
7
  6
CONTINUOUS
 10
22.4
 20
17.6716990487
 30
0.0
 11
22.4
 21
-17.6716990487
 31
0.0
  0
LINE
  5
382
100
AcDbEntity
  8
0
100
AcDbLine
 62
7
  6
CONTINUOUS
 10
22.4004363434
 20
-21.900016923
 30
0.0
 11
22.4004363434
 21
21.900016923
 31
0.0
  0
LINE
  5
383
100
AcDbEntity
  8
0
100
AcDbLine
 62
7
  6
CONTINUOUS
 10
22.3729446494
 20
16.6
 30
0.0
 11
22.345044505
 21
-0.0
 31
0.0
  0
LINE
  5
384
100
AcDbEntity
  8
0
100
AcDbLine
 62
250
  6
CONTINUOUS
 10
21.1419962532
 20
-23.1226497308
 30
0.0
 11
21.1369056521
 21
-23.6278312164
 31
0.0
  0
LINE
  5
385
100
AcDbEntity
  8
0
100
AcDbLine
 62
250
  6
CONTINUOUS
 10
21.3927192511
 20
-23.2669872981
 30
0.0
 11
21.3869014213
 21
-23.8443375673
 31
0.0
  0
LINE
  5
386
100
AcDbEntity
  8
0
100
AcDbLine
 62
7
  6
CONTINUOUS
 10
6.8
 20
-24.0
 30
0.0
 11
6.8087267447
 21
-23.9912732553
 31
0.0
  0
LINE
  5
387
100
AcDbEntity
  8
RACCORDO
100
AcDbLine
 62
250
  6
CONTINUOUS
 10
21.5336897634
 20
21.1448536428
 30
0.0
 11
-21.5336897634
 21
21.1448536428
 31
0.0
  0
LINE
  5
388
100
AcDbEntity
  8
RACCORDO
100
AcDbLine
 62
250
  6
CONTINUOUS
 10
21.5462950425
 20
21.996123705
 30
0.0
 11
-21.5462950425
 21
21.996123705
 31
0.0
  0
LINE
  5
389
100
AcDbEntity
  8
RACCORDO
100
AcDbLine
 62
7
  6
CONTINUOUS
 10
21.6501713375
 20
22.1
 30
0.0
 11
12.0248993522
 21
22.1
 31
0.0
  0
LINE
  5
38A
100
AcDbEntity
  8
RACCORDO
100
AcDbLine
 62
7
  6
CONTINUOUS
 10
2.9751006478
 20
22.1
 30
0.0
 11
-2.9751006478
 21
22.1
 31
0.0
  0
LINE
  5
38B
100
AcDbEntity
  8
RACCORDO
100
AcDbLine
 62
7
  6
CONTINUOUS
 10
-12.0248993522
 20
22.1
 30
0.0
 11
-21.6501713375
 21
22.1
 31
0.0
  0
LINE
  5
38C
100
AcDbEntity
  8
DRAFT
100
AcDbLine
 62
7
  6
CONTINUOUS
 10
-11.6887579355
 20
22.1183301451
 30
0.0
 11
-3.3112420645
 21
22.1183301451
 31
0.0
  0
LINE
  5
38D
100
AcDbEntity
  8
DRAFT
100
AcDbLine
 62
7
  6
CONTINUOUS
 10
3.3112420645
 20
22.1183301451
 30
0.0
 11
11.6887579355
 21
22.1183301451
 31
0.0
  0
LINE
  5
38E
100
AcDbEntity
  8
0
100
AcDbLine
 62
7
  6
CONTINUOUS
 10
-21.8733252491
 20
22.3213883311
 30
0.0
 11
-21.1434515285
 21
22.3213883311
 31
0.0
  0
LINE
  5
38F
100
AcDbEntity
  8
0
100
AcDbLine
 62
7
  6
CONTINUOUS
 10
-18.7565484715
 20
22.3213883311
 30
0.0
 11
-15.6921459466
 21
22.3213883311
 31
0.0
  0
LINE
  5
390
100
AcDbEntity
  8
0
100
AcDbLine
 62
7
  6
CONTINUOUS
 10
-14.75
 20
22.3213883311
 30
0.0
 11
-7.75
 21
22.3213883311
 31
0.0
  0
LINE
  5
391
100
AcDbEntity
  8
0
100
AcDbLine
 62
7
  6
CONTINUOUS
 10
-6.8078540534
 20
22.3213883311
 30
0.0
 11
-3.7434515285
 21
22.3213883311
 31
0.0
  0
LINE
  5
392
100
AcDbEntity
  8
0
100
AcDbLine
 62
7
  6
CONTINUOUS
 10
-1.3565484715
 20
22.3213883311
 30
0.0
 11
1.3572765181
 21
22.3213883311
 31
0.0
  0
LINE
  5
393
100
AcDbEntity
  8
0
100
AcDbLine
 62
7
  6
CONTINUOUS
 10
3.7427234819
 20
22.3213883311
 30
0.0
 11
6.8087267447
 21
22.3213883311
 31
0.0
  0
LINE
  5
394
100
AcDbEntity
  8
0
100
AcDbLine
 62
7
  6
CONTINUOUS
 10
7.75
 20
22.3213883311
 30
0.0
 11
14.75
 21
22.3213883311
 31
0.0
  0
LINE
  5
395
100
AcDbEntity
  8
0
100
AcDbLine
 62
7
  6
CONTINUOUS
 10
15.6912732553
 20
22.3213883311
 30
0.0
 11
18.7572765181
 21
22.3213883311
 31
0.0
  0
LINE
  5
396
100
AcDbEntity
  8
0
100
AcDbLine
 62
7
  6
CONTINUOUS
 10
21.1427234819
 20
22.3213883311
 30
0.0
 11
21.8733252491
 21
22.3213883311
 31
0.0
  0
LINE
  5
397
100
AcDbEntity
  8
0
100
AcDbLine
 62
7
  6
CONTINUOUS
 10
-14.75
 20
22.3737961104
 30
0.0
 11
-12.45
 21
22.3737961104
 31
0.0
  0
LINE
  5
398
100
AcDbEntity
  8
0
100
AcDbLine
 62
7
  6
CONTINUOUS
 10
-10.05
 20
22.3737961104
 30
0.0
 11
-7.75
 21
22.3737961104
 31
0.0
  0
LINE
  5
399
100
AcDbEntity
  8
0
100
AcDbLine
 62
7
  6
CONTINUOUS
 10
7.75
 20
22.3737961104
 30
0.0
 11
10.05
 21
22.3737961104
 31
0.0
  0
LINE
  5
39A
100
AcDbEntity
  8
0
100
AcDbLine
 62
7
  6
CONTINUOUS
 10
12.45
 20
22.3737961104
 30
0.0
 11
14.75
 21
22.3737961104
 31
0.0
  0
LINE
  5
39B
100
AcDbEntity
  8
0
100
AcDbLine
 62
7
  6
CONTINUOUS
 10
-21.8995078465
 20
22.4
 30
0.0
 11
-21.4
 21
22.4
 31
0.0
  0
LINE
  5
39C
100
AcDbEntity
  8
0
100
AcDbLine
 62
7
  6
CONTINUOUS
 10
-18.5
 20
22.4
 30
0.0
 11
-15.7
 21
22.4
 31
0.0
  0
LINE
  5
39D
100
AcDbEntity
  8
0
100
AcDbLine
 62
7
  6
CONTINUOUS
 10
12.25
 20
22.4
 30
0.0
 11
10.25
 21
22.4
 31
0.0
  0
LINE
  5
39E
100
AcDbEntity
  8
0
100
AcDbLine
 62
7
  6
CONTINUOUS
 10
-6.8
 20
22.4
 30
0.0
 11
-4.0
 21
22.4
 31
0.0
  0
LINE
  5
39F
100
AcDbEntity
  8
0
100
AcDbLine
 62
7
  6
CONTINUOUS
 10
-1.1
 20
22.4
 30
0.0
 11
1.1
 21
22.4
 31
0.0
  0
LINE
  5
3A0
100
AcDbEntity
  8
0
100
AcDbLine
 62
7
  6
CONTINUOUS
 10
4.0
 20
22.4
 30
0.0
 11
6.8
 21
22.4
 31
0.0
  0
LINE
  5
3A1
100
AcDbEntity
  8
0
100
AcDbLine
 62
7
  6
CONTINUOUS
 10
-10.25
 20
22.4
 30
0.0
 11
-12.25
 21
22.4
 31
0.0
  0
LINE
  5
3A2
100
AcDbEntity
  8
0
100
AcDbLine
 62
7
  6
CONTINUOUS
 10
15.7
 20
22.4
 30
0.0
 11
18.5
 21
22.4
 31
0.0
  0
LINE
  5
3A3
100
AcDbEntity
  8
0
100
AcDbLine
 62
7
  6
CONTINUOUS
 10
21.4
 20
22.4
 30
0.0
 11
21.8995078465
 21
22.4
 31
0.0
  0
LINE
  5
3A4
100
AcDbEntity
  8
0
100
AcDbLine
 62
7
  6
CONTINUOUS
 10
-21.1434515285
 20
23.1226497308
 30
0.0
 11
-18.7565484715
 21
23.1226497308
 31
0.0
  0
LINE
  5
3A5
100
AcDbEntity
  8
0
100
AcDbLine
 62
7
  6
CONTINUOUS
 10
21.1427234819
 20
23.1226497308
 30
0.0
 11
18.7572765181
 21
23.1226497308
 31
0.0
  0
LINE
  5
3A6
100
AcDbEntity
  8
0
100
AcDbLine
 62
7
  6
CONTINUOUS
 10
1.3572765181
 20
23.1226497308
 30
0.0
 11
3.7427234819
 21
23.1226497308
 31
0.0
  0
LINE
  5
3A7
100
AcDbEntity
  8
0
100
AcDbLine
 62
7
  6
CONTINUOUS
 10
-1.3565484715
 20
23.1226497308
 30
0.0
 11
-3.7434515285
 21
23.1226497308
 31
0.0
  0
LINE
  5
3A8
100
AcDbEntity
  8
0
100
AcDbLine
 62
250
  6
CONTINUOUS
 10
-21.1382154929
 20
23.6278312164
 30
0.0
 11
-18.7617845071
 21
23.6278312164
 31
0.0
  0
LINE
  5
3A9
100
AcDbEntity
  8
0
100
AcDbLine
 62
250
  6
CONTINUOUS
 10
-3.7382154929
 20
23.6278312164
 30
0.0
 11
-1.3617845071
 21
23.6278312164
 31
0.0
  0
LINE
  5
3AA
100
AcDbEntity
  8
0
100
AcDbLine
 62
250
  6
CONTINUOUS
 10
1.3630943479
 20
23.6278312164
 30
0.0
 11
3.7369056521
 21
23.6278312164
 31
0.0
  0
LINE
  5
3AB
100
AcDbEntity
  8
0
100
AcDbLine
 62
250
  6
CONTINUOUS
 10
18.7630943479
 20
23.6278312164
 30
0.0
 11
21.1369056521
 21
23.6278312164
 31
0.0
  0
LINE
  5
3AC
100
AcDbEntity
  8
0
100
AcDbLine
 62
250
  6
CONTINUOUS
 10
14.75
 20
23.7982512664
 30
0.0
 11
12.25
 21
23.7982512664
 31
0.0
  0
LINE
  5
3AD
100
AcDbEntity
  8
0
100
AcDbLine
 62
250
  6
CONTINUOUS
 10
7.75
 20
23.7982512664
 30
0.0
 11
10.25
 21
23.7982512664
 31
0.0
  0
LINE
  5
3AE
100
AcDbEntity
  8
0
100
AcDbLine
 62
250
  6
CONTINUOUS
 10
-7.75
 20
23.7984264477
 30
0.0
 11
-10.25
 21
23.7984264477
 31
0.0
  0
LINE
  5
3AF
100
AcDbEntity
  8
0
100
AcDbLine
 62
250
  6
CONTINUOUS
 10
-12.25
 20
23.7984264477
 30
0.0
 11
-14.75
 21
23.7984264477
 31
0.0
  0
LINE
  5
3B0
100
AcDbEntity
  8
0
100
AcDbLine
 62
250
  6
CONTINUOUS
 10
1.1130985787
 20
23.8443375673
 30
0.0
 11
3.9869014213
 21
23.8443375673
 31
0.0
  0
LINE
  5
3B1
100
AcDbEntity
  8
0
100
AcDbLine
 62
250
  6
CONTINUOUS
 10
-1.111787934
 20
23.8443375673
 30
0.0
 11
-3.988212066
 21
23.8443375673
 31
0.0
  0
LINE
  5
3B2
100
AcDbEntity
  8
0
100
AcDbLine
 62
250
  6
CONTINUOUS
 10
18.5130985787
 20
23.8443375673
 30
0.0
 11
21.3869014213
 21
23.8443375673
 31
0.0
  0
LINE
  5
3B3
100
AcDbEntity
  8
0
100
AcDbLine
 62
250
  6
CONTINUOUS
 10
-18.511787934
 20
23.8443375673
 30
0.0
 11
-21.388212066
 21
23.8443375673
 31
0.0
  0
LINE
  5
3B4
100
AcDbEntity
  8
0
100
AcDbLine
 62
7
  6
CONTINUOUS
 10
6.8087267447
 20
23.9912732553
 30
0.0
 11
7.75
 21
23.9912732553
 31
0.0
  0
LINE
  5
3B5
100
AcDbEntity
  8
0
100
AcDbLine
 62
7
  6
CONTINUOUS
 10
14.75
 20
23.9912732553
 30
0.0
 11
15.6912732553
 21
23.9912732553
 31
0.0
  0
LINE
  5
3B6
100
AcDbEntity
  8
0
100
AcDbLine
 62
7
  6
CONTINUOUS
 10
-6.8078540534
 20
23.9921459466
 30
0.0
 11
-7.75
 21
23.9921459466
 31
0.0
  0
LINE
  5
3B7
100
AcDbEntity
  8
0
100
AcDbLine
 62
7
  6
CONTINUOUS
 10
-14.75
 20
23.9921459466
 30
0.0
 11
-15.6921459466
 21
23.9921459466
 31
0.0
  0
LINE
  5
3B8
100
AcDbEntity
  8
0
100
AcDbLine
 62
7
  6
CONTINUOUS
 10
14.75
 20
23.9982478817
 30
0.0
 11
12.45
 21
23.9982478817
 31
0.0
  0
LINE
  5
3B9
100
AcDbEntity
  8
0
100
AcDbLine
 62
7
  6
CONTINUOUS
 10
10.05
 20
23.9982478817
 30
0.0
 11
7.75
 21
23.9982478817
 31
0.0
  0
LINE
  5
3BA
100
AcDbEntity
  8
0
100
AcDbLine
 62
7
  6
CONTINUOUS
 10
-7.75
 20
23.9984237062
 30
0.0
 11
-10.05
 21
23.9984237062
 31
0.0
  0
LINE
  5
3BB
100
AcDbEntity
  8
0
100
AcDbLine
 62
7
  6
CONTINUOUS
 10
-12.45
 20
23.9984237062
 30
0.0
 11
-14.75
 21
23.9984237062
 31
0.0
  0
LINE
  5
3BC
100
AcDbEntity
  8
0
100
AcDbLine
 62
7
  6
CONTINUOUS
 10
-15.7
 20
24.0
 30
0.0
 11
-14.75
 21
24.0
 31
0.0
  0
LINE
  5
3BD
100
AcDbEntity
  8
0
100
AcDbLine
 62
7
  6
CONTINUOUS
 10
-7.75
 20
24.0
 30
0.0
 11
-6.8
 21
24.0
 31
0.0
  0
LINE
  5
3BE
100
AcDbEntity
  8
0
100
AcDbLine
 62
7
  6
CONTINUOUS
 10
6.8
 20
24.0
 30
0.0
 11
7.75
 21
24.0
 31
0.0
  0
LINE
  5
3BF
100
AcDbEntity
  8
0
100
AcDbLine
 62
7
  6
CONTINUOUS
 10
14.75
 20
24.0
 30
0.0
 11
15.7
 21
24.0
 31
0.0
  0
LINE
  5
3C0
100
AcDbEntity
  8
0
100
AcDbLine
 62
250
  6
CONTINUOUS
 10
1.1130985787
 20
24.2369056521
 30
0.0
 11
3.9869014213
 21
24.2369056521
 31
0.0
  0
LINE
  5
3C1
100
AcDbEntity
  8
0
100
AcDbLine
 62
250
  6
CONTINUOUS
 10
18.5130985787
 20
24.2369056521
 30
0.0
 11
21.3869014213
 21
24.2369056521
 31
0.0
  0
LINE
  5
3C2
100
AcDbEntity
  8
0
100
AcDbLine
 62
250
  6
CONTINUOUS
 10
-1.111787934
 20
24.2382154929
 30
0.0
 11
-3.988212066
 21
24.2382154929
 31
0.0
  0
LINE
  5
3C3
100
AcDbEntity
  8
0
100
AcDbLine
 62
250
  6
CONTINUOUS
 10
-18.511787934
 20
24.2382154929
 30
0.0
 11
-21.388212066
 21
24.2382154929
 31
0.0
  0
LINE
  5
3C4
100
AcDbEntity
  8
0
100
AcDbLine
 62
7
  6
CONTINUOUS
 10
6.8
 20
24.0
 30
0.0
 11
6.8087267447
 21
23.9912732553
 31
0.0
  0
LWPOLYLINE
  5
3C5
100
AcDbEntity
  8
0
100
AcDbPolyline
 62
7
  6
CONTINUOUS
 90
10
 70
0
 43
0.3500000087
 10
32.0469851669
 20
0.4285711273
 10
31.1898432999
 20
1.285715126
 10
30.3326993011
 20
1.499999527
 10
29.4755574341
 20
1.499999527
 10
29.0469843689
 20
1.0714285934
 10
29.0469843689
 20
0.4285711273
 10
29.4755574341
 20
0.0000001938
 10
30.3326993011
 20
0.0000001938
 10
30.7612702347
 20
0.4285711273
 10
30.7612702347
 20
1.3571425491
  0
LINE
  5
3C6
100
AcDbEntity
  8
RACCORDO
100
AcDbLine
 62
7
  6
CONTINUOUS
 10
11.6887579355
 20
-22.1183301451
 30
0.0
 11
11.7260409428
 21
-22.1071711004
 31
0.0
  0
LINE
  5
3C7
100
AcDbEntity
  8
0
100
AcDbLine
 62
7
  6
CONTINUOUS
 10
21.1369056521
 20
24.4869014213
 30
0.0
 11
18.7630943479
 21
24.4869014213
 31
0.0
  0
LINE
  5
3C8
100
AcDbEntity
  8
0
100
AcDbLine
 62
7
  6
CONTINUOUS
 10
3.7369056521
 20
24.4869014213
 30
0.0
 11
1.3630943479
 21
24.4869014213
 31
0.0
  0
LINE
  5
3C9
100
AcDbEntity
  8
0
100
AcDbLine
 62
7
  6
CONTINUOUS
 10
-1.3617845071
 20
24.488212066
 30
0.0
 11
-3.7382154929
 21
24.488212066
 31
0.0
  0
LINE
  5
3CA
100
AcDbEntity
  8
0
100
AcDbLine
 62
7
  6
CONTINUOUS
 10
-18.7617845071
 20
24.488212066
 30
0.0
 11
-21.1382154929
 21
24.488212066
 31
0.0
  0
LINE
  5
3CB
100
AcDbEntity
  8
0
100
AcDbLine
 62
7
  6
CONTINUOUS
 10
21.1500042308
 20
24.5
 30
0.0
 11
18.7499957692
 21
24.5
 31
0.0
  0
LINE
  5
3CC
100
AcDbEntity
  8
0
100
AcDbLine
 62
7
  6
CONTINUOUS
 10
3.7500042308
 20
24.5
 30
0.0
 11
1.3499957692
 21
24.5
 31
0.0
  0
LINE
  5
3CD
100
AcDbEntity
  8
0
100
AcDbLine
 62
7
  6
CONTINUOUS
 10
-1.3499957692
 20
24.5
 30
0.0
 11
-3.7500042308
 21
24.5
 31
0.0
  0
LINE
  5
3CE
100
AcDbEntity
  8
0
100
AcDbLine
 62
7
  6
CONTINUOUS
 10
-18.7499957692
 20
24.5
 30
0.0
 11
-21.1500042308
 21
24.5
 31
0.0
  0
LINE
  5
3CF
100
AcDbEntity
  8
RACCORDO
100
AcDbLine
 62
7
  6
CONTINUOUS
 10
11.6887579355
 20
22.1183301451
 30
0.0
 11
11.7260409428
 21
22.1071711004
 31
0.0
  0
LWPOLYLINE
  5
3D0
100
AcDbEntity
  8
0
100
AcDbPolyline
 62
7
  6
CONTINUOUS
 90
3
 70
0
 43
0.3500000087
 10
31.4041277008
 20
-0.8571438049
 10
31.4041277008
 20
-2.3571431381
 10
29.0469843689
 20
-1.714285672
  0
LINE
  5
3D1
100
AcDbEntity
  8
0
100
AcDbLine
 62
250
  6
CONTINUOUS
 10
18.5130985787
 20
-24.2369056521
 30
0.0
 11
18.5
 21
-24.2500042308
 31
0.0
  0
LINE
  5
3D2
100
AcDbEntity
  8
0
100
AcDbLine
 62
250
  6
CONTINUOUS
 10
18.7630943479
 20
-24.4869014213
 30
0.0
 11
18.7499957692
 21
-24.5
 31
0.0
  0
LWPOLYLINE
  5
3D3
100
AcDbEntity
  8
0
100
AcDbPolyline
 62
7
  6
CONTINUOUS
 90
13
 70
0
 43
0.3500000087
 10
2.4642857988
 20
37.4324570251
 10
2.1785714435
 20
37.6467435577
 10
2.1785714435
 20
38.2895988922
 10
2.4642857988
 20
38.7181719574
 10
3.107142732
 20
38.7181719574
 10
3.3928572206
 20
38.2895988922
 10
3.3928572206
 20
37.6467435577
 10
3.107142732
 20
37.4324570251
 10
3.5357141985
 20
37.00388396
 10
3.5357141985
 20
36.1467420929
 10
3.107142732
 20
35.7181690277
 10
2.4642857988
 20
35.7181690277
 10
2.0357143324
 20
36.1467420929
  0
LINE
  5
3D4
100
AcDbEntity
  8
0
100
AcDbLine
 62
250
  6
CONTINUOUS
 10
18.5130985787
 20
24.2369056521
 30
0.0
 11
18.5
 21
24.2500042308
 31
0.0
  0
LINE
  5
3D5
100
AcDbEntity
  8
0
100
AcDbLine
 62
250
  6
CONTINUOUS
 10
18.7630943479
 20
24.4869014213
 30
0.0
 11
18.7499957692
 21
24.5
 31
0.0
  0
LWPOLYLINE
  5
3D6
100
AcDbEntity
  8
0
100
AcDbPolyline
 62
7
  6
CONTINUOUS
 90
3
 70
0
 43
0.3500000087
 10
-0.5357142998
 20
36.3610286255
 10
-2.0357143324
 20
36.3610286255
 10
-1.3928571327
 20
38.7181719574
  0
LWPOLYLINE
  5
3D7
100
AcDbEntity
  8
0
100
AcDbPolyline
 62
7
  6
CONTINUOUS
 90
3
 70
0
 43
0.3500000087
 10
-2.8928572653
 20
36.3610286255
 10
-4.3928571314
 20
36.3610286255
 10
-3.7499999317
 20
38.7181719574
  0
LWPOLYLINE
  5
3D8
100
AcDbEntity
  8
0
100
AcDbPolyline
 62
7
  6
CONTINUOUS
 90
5
 70
0
 43
0.3500000087
 10
-55.396447345
 20
47.4505815765
 10
-55.0393017029
 20
47.6648681091
 10
-55.0393017029
 20
48.3077277069
 10
-55.396447345
 20
48.7362965088
 10
-56.253589212
 20
48.7362965088
  0
LWPOLYLINE
  5
3D9
100
AcDbEntity
  8
0
100
AcDbPolyline
 62
7
  6
CONTINUOUS
 90
10
 70
0
 43
0.3500000087
 10
-47.4750165192
 20
38.7500017975
 10
-48.1178761169
 20
38.1071421997
 10
-48.5464449188
 20
37.2500003326
 10
-48.5464449188
 20
36.178571933
 10
-48.1178761169
 20
35.7499988678
 10
-47.4750165192
 20
35.7499988678
 10
-47.0464477173
 20
36.178571933
 10
-47.0464477173
 20
37.0357138
 10
-47.4750165192
 20
37.4642868652
 10
-48.4035900726
 20
37.4642868652
  0
LINE
  5
3DA
100
AcDbEntity
  8
0
100
AcDbLine
 62
250
  6
CONTINUOUS
 10
-60.8678750731
 20
23.4104851482
 30
0.0
 11
-60.1164206403
 21
23.8443375673
 31
0.0
  0
LINE
  5
3DB
100
AcDbEntity
  8
0
100
AcDbLine
 62
7
  6
CONTINUOUS
 10
-60.8678750731
 20
23.1226497308
 30
0.0
 11
-59.9928750731
 21
23.6278312164
 31
0.0
  0
LINE
  5
3DC
100
AcDbEntity
  8
0
100
AcDbLine
 62
7
  6
CONTINUOUS
 10
-60.8678750731
 20
-24.5
 30
0.0
 11
-60.1164206403
 21
-24.495628166
 31
0.0
  0
LINE
  5
3DD
100
AcDbEntity
  8
0
100
AcDbLine
 62
250
  6
CONTINUOUS
 10
-60.8678750731
 20
-24.2500042308
 30
0.0
 11
-60.1164206403
 21
-24.2456323968
 31
0.0
  0
LINE
  5
3DE
100
AcDbEntity
  8
0
100
AcDbLine
 62
7
  6
CONTINUOUS
 10
-53.3649662075
 20
-23.9563493531
 30
0.0
 11
-59.8678750731
 21
-23.9941821702
 31
0.0
  0
LINE
  5
3DF
100
AcDbEntity
  8
0
100
AcDbLine
 62
7
  6
CONTINUOUS
 10
-48.3620573418
 20
-22.3272432808
 30
0.0
 11
-60.8678750731
 21
-22.4
 31
0.0
  0
LINE
  5
3E0
100
AcDbEntity
  8
0
100
AcDbLine
 62
250
  6
CONTINUOUS
 10
-60.8678750731
 20
-21.900016923
 30
0.0
 11
-59.8678750731
 21
-21.8941990932
 31
0.0
  0
LINE
  5
3E1
100
AcDbEntity
  8
0
100
AcDbLine
 62
250
  6
CONTINUOUS
 10
-59.8678750731
 20
-24.2456323968
 30
0.0
 11
-60.1164206403
 21
-24.2456323968
 31
0.0
  0
LINE
  5
3E2
100
AcDbEntity
  8
0
100
AcDbLine
 62
250
  6
CONTINUOUS
 10
-63.3678750731
 20
-24.2369056521
 30
0.0
 11
-63.119329506
 21
-24.2369056521
 31
0.0
  0
LINE
  5
3E3
100
AcDbEntity
  8
0
100
AcDbLine
 62
250
  6
CONTINUOUS
 10
-63.3678750731
 20
-23.8443375673
 30
0.0
 11
-63.119329506
 21
-23.8443375673
 31
0.0
  0
LINE
  5
3E4
100
AcDbEntity
  8
0
100
AcDbLine
 62
250
  6
CONTINUOUS
 10
-59.8678750731
 20
-23.8443375673
 30
0.0
 11
-60.1164206403
 21
-23.8443375673
 31
0.0
  0
LINE
  5
3E5
100
AcDbEntity
  8
0
100
AcDbLine
 62
7
  6
CONTINUOUS
 10
-63.119329506
 20
-24.4869014213
 30
0.0
 11
-60.8678750731
 21
-24.5
 31
0.0
  0
LINE
  5
3E6
100
AcDbEntity
  8
0
100
AcDbLine
 62
250
  6
CONTINUOUS
 10
-63.119329506
 20
-24.2369056521
 30
0.0
 11
-60.8678750731
 21
-24.2500042308
 31
0.0
  0
LINE
  5
3E7
100
AcDbEntity
  8
0
100
AcDbLine
 62
7
  6
CONTINUOUS
 10
-68.5347507354
 20
-21.996123705
 30
0.0
 11
-64.5678750731
 21
-22.1
 31
0.0
  0
LINE
  5
3E8
100
AcDbEntity
  8
RACCORDO
100
AcDbLine
 62
7
  6
CONTINUOUS
 10
-63.8678750731
 20
-22.1183301451
 30
0.0
 11
-64.5678750731
 21
-22.1
 31
0.0
  0
LINE
  5
3E9
100
AcDbEntity
  8
0
100
AcDbLine
 62
250
  6
CONTINUOUS
 10
-68.5347507354
 20
-21.4962950425
 30
0.0
 11
-64.5678750731
 21
-21.6001713375
 31
0.0
  0
LINE
  5
3EA
100
AcDbEntity
  8
0
100
AcDbLine
 62
7
  6
CONTINUOUS
 10
-62.3678750731
 20
-22.3213883311
 30
0.0
 11
-60.8678750731
 21
-22.4
 31
0.0
  0
LINE
  5
3EB
100
AcDbEntity
  8
0
100
AcDbLine
 62
250
  6
CONTINUOUS
 10
-62.3678750731
 20
-21.821159479
 30
0.0
 11
-60.8678522297
 21
-21.8997723451
 31
0.0
  0
LINE
  5
3EC
100
AcDbEntity
  8
0
100
AcDbLine
 62
250
  6
CONTINUOUS
 10
-60.1164206403
 20
-23.8443375673
 30
0.0
 11
-60.8678750731
 21
-23.4104851482
 31
0.0
  0
LINE
  5
3ED
100
AcDbEntity
  8
0
100
AcDbLine
 62
7
  6
CONTINUOUS
 10
-59.9928750731
 20
-23.6278312164
 30
0.0
 11
-60.8678750731
 21
-23.1226497308
 31
0.0
  0
LWPOLYLINE
  5
3EE
100
AcDbEntity
  8
0
100
AcDbPolyline
 62
7
  6
CONTINUOUS
 90
6
 70
0
 10
-64.1386775505
 20
16.8529707516
 10
-64.1649328217
 20
16.8294291598
 10
-64.2046054364
 20
16.7866920007
 10
-64.2433867419
 20
16.7377568202
 10
-64.2817186794
 20
16.6821757199
 10
-64.3008107844
 20
16.6508558538
  0
LINE
  5
3EF
100
AcDbEntity
  8
ASSI
100
AcDbLine
 62
7
  6
CONTINUOUS
 10
-64.5678750731
 20
-20.5982544935
 30
0.0
 11
-63.7086666725
 21
-20.5832569551
 31
0.0
  0
LINE
  5
3F0
100
AcDbEntity
  8
RACCORDO
100
AcDbLine
 62
7
  6
CONTINUOUS
 10
-35.8591488699
 20
-19.4100936057
 30
0.0
 11
-47.3678750731
 21
-19.6109791689
 31
0.0
  0
LINE
  5
3F1
100
AcDbEntity
  8
ASSI
100
AcDbLine
 62
7
  6
CONTINUOUS
 10
-35.8591488699
 20
-19.4100936057
 30
0.0
 11
-47.3678750731
 21
-19.6109791689
 31
0.0
  0
LINE
  5
3F2
100
AcDbEntity
  8
SUPERFICI
100
AcDbLine
 62
7
  6
CONTINUOUS
 10
-35.8591488699
 20
-19.4100936057
 30
0.0
 11
-47.3678750731
 21
-19.6109791689
 31
0.0
  0
LINE
  5
3F3
100
AcDbEntity
  8
RACCORDO
100
AcDbLine
 62
250
  6
CONTINUOUS
 10
-35.8591488699
 20
-19.117244996
 30
0.0
 11
-47.3678750731
 21
-19.3181305591
 31
0.0
  0
LINE
  5
3F4
100
AcDbEntity
  8
ASSI
100
AcDbLine
 62
250
  6
CONTINUOUS
 10
-35.8591488699
 20
-19.117244996
 30
0.0
 11
-47.3678750731
 21
-19.3181305591
 31
0.0
  0
LINE
  5
3F5
100
AcDbEntity
  8
SUPERFICI
100
AcDbLine
 62
250
  6
CONTINUOUS
 10
-35.8591488699
 20
-19.117244996
 30
0.0
 11
-47.3678750731
 21
-19.3181305591
 31
0.0
  0
LINE
  5
3F6
100
AcDbEntity
  8
RACCORDO
100
AcDbLine
 62
250
  6
CONTINUOUS
 10
-64.5678750731
 20
-19.599015693
 30
0.0
 11
-63.9493820019
 21
-19.5882198563
 31
0.0
  0
LINE
  5
3F7
100
AcDbEntity
  8
RACCORDO
100
AcDbLine
 62
250
  6
CONTINUOUS
 10
-57.3678750731
 20
-19.0856972195
 30
0.0
 11
-35.8591488699
 21
-18.9301864485
 31
0.0
  0
LINE
  5
3F8
100
AcDbEntity
  8
ASSI
100
AcDbLine
 62
250
  6
CONTINUOUS
 10
-57.3678750731
 20
-19.0856972195
 30
0.0
 11
-35.8591488699
 21
-18.9301864485
 31
0.0
  0
LINE
  5
3F9
100
AcDbEntity
  8
SUPERFICI
100
AcDbLine
 62
250
  6
CONTINUOUS
 10
-57.3678750731
 20
-19.0856972195
 30
0.0
 11
-35.8591488699
 21
-18.9301864485
 31
0.0
  0
LINE
  5
3FA
100
AcDbEntity
  8
ASSI
100
AcDbLine
 62
7
  6
CONTINUOUS
 10
-62.3678750731
 20
-21.0
 30
0.0
 11
-62.8678750731
 21
-21.0
 31
0.0
  0
LINE
  5
3FB
100
AcDbEntity
  8
DRAFT
100
AcDbLine
 62
7
  6
CONTINUOUS
 10
-57.3678750731
 20
-20.85
 30
0.0
 11
-47.3678750731
 21
-20.85
 31
0.0
  0
LINE
  5
3FC
100
AcDbEntity
  8
ASSI
100
AcDbLine
 62
7
  6
CONTINUOUS
 10
-57.3678750731
 20
-20.85
 30
0.0
 11
-47.3678750731
 21
-20.85
 31
0.0
  0
LINE
  5
3FD
100
AcDbEntity
  8
SUPERFICI
100
AcDbLine
 62
7
  6
CONTINUOUS
 10
-57.3678750731
 20
-20.85
 30
0.0
 11
-47.3678750731
 21
-20.85
 31
0.0
  0
LINE
  5
3FE
100
AcDbEntity
  8
ASSI
100
AcDbLine
 62
7
  6
CONTINUOUS
 10
-62.8678750731
 20
-18.8
 30
0.0
 11
-62.3678750731
 21
-18.8
 31
0.0
  0
LINE
  5
3FF
100
AcDbEntity
  8
DRAFT
100
AcDbLine
 62
7
  6
CONTINUOUS
 10
-47.3678750731
 20
-20.9872686779
 30
0.0
 11
-57.3678750731
 21
-20.9
 31
0.0
  0
LINE
  5
400
100
AcDbEntity
  8
0
100
AcDbLine
 62
7
  6
CONTINUOUS
 10
-59.8678750731
 20
-18.5082905244
 30
0.0
 11
-57.3678750731
 21
-18.5301076939
 31
0.0
  0
LINE
  5
401
100
AcDbEntity
  8
RACCORDO
100
AcDbLine
 62
7
  6
CONTINUOUS
 10
-62.3678750731
 20
-18.2
 30
0.0
 11
-64.0678750731
 21
-18.1851643248
 31
0.0
  0
LINE
  5
402
100
AcDbEntity
  8
0
100
AcDbLine
 62
7
  6
CONTINUOUS
 10
-47.8591488699
 20
-21.6096130956
 30
0.0
 11
-57.3678750731
 21
-21.4436376623
 31
0.0
  0
LINE
  5
403
100
AcDbEntity
  8
RACCORDO
100
AcDbLine
 62
7
  6
CONTINUOUS
 10
-63.8678750731
 20
-20.6183301451
 30
0.0
 11
-64.5678750731
 21
-20.6
 31
0.0
  0
LINE
  5
404
100
AcDbEntity
  8
RACCORDO
100
AcDbLine
 62
7
  6
CONTINUOUS
 10
-64.5678750731
 20
-19.5122784561
 30
0.0
 11
-63.9493820019
 21
-19.5882198563
 31
0.0
  0
LINE
  5
405
100
AcDbEntity
  8
ASSI
100
AcDbLine
 62
7
  6
CONTINUOUS
 10
-63.6022492592
 20
-19.6308423977
 30
0.0
 11
-63.9493820019
 21
-19.5882198563
 31
0.0
  0
LINE
  5
406
100
AcDbEntity
  8
DRAFT
100
AcDbLine
 62
7
  6
CONTINUOUS
 10
-33.6417283503
 20
-15.0489817302
 30
0.0
 11
-35.094021796
 21
-15.1760409428
 31
0.0
  0
LINE
  5
407
100
AcDbEntity
  8
ASSI
100
AcDbLine
 62
7
  6
CONTINUOUS
 10
-33.6417283503
 20
-15.0489817302
 30
0.0
 11
-35.094021796
 21
-15.1760409428
 31
0.0
  0
LINE
  5
408
100
AcDbEntity
  8
SUPERFICI
100
AcDbLine
 62
7
  6
CONTINUOUS
 10
-33.6417283503
 20
-15.0489817302
 30
0.0
 11
-35.094021796
 21
-15.1760409428
 31
0.0
  0
LINE
  5
409
100
AcDbEntity
  8
RACCORDO
100
AcDbLine
 62
250
  6
CONTINUOUS
 10
-57.3678750731
 20
-17.6716990487
 30
0.0
 11
-35.8591488699
 21
-17.5161882777
 31
0.0
  0
LINE
  5
40A
100
AcDbEntity
  8
ASSI
100
AcDbLine
 62
250
  6
CONTINUOUS
 10
-57.3678750731
 20
-17.6716990487
 30
0.0
 11
-35.8591488699
 21
-17.5161882777
 31
0.0
  0
LINE
  5
40B
100
AcDbEntity
  8
SUPERFICI
100
AcDbLine
 62
250
  6
CONTINUOUS
 10
-57.3678750731
 20
-17.6716990487
 30
0.0
 11
-35.8591488699
 21
-17.5161882777
 31
0.0
  0
LINE
  5
40C
100
AcDbEntity
  8
RACCORDO
100
AcDbLine
 62
250
  6
CONTINUOUS
 10
-35.3678750731
 20
-17.5161882777
 30
0.0
 11
-35.8591488699
 21
-17.5161882777
 31
0.0
  0
LINE
  5
40D
100
AcDbEntity
  8
ASSI
100
AcDbLine
 62
250
  6
CONTINUOUS
 10
-35.3678750731
 20
-17.5161882777
 30
0.0
 11
-35.8591488699
 21
-17.5161882777
 31
0.0
  0
LINE
  5
40E
100
AcDbEntity
  8
SUPERFICI
100
AcDbLine
 62
250
  6
CONTINUOUS
 10
-35.3678750731
 20
-17.5161882777
 30
0.0
 11
-35.8591488699
 21
-17.5161882777
 31
0.0
  0
LINE
  5
40F
100
AcDbEntity
  8
0
100
AcDbLine
 62
250
  6
CONTINUOUS
 10
-38.4240880731
 20
-15.963018
 30
0.0
 11
-39.3116620731
 21
-15.963018
 31
0.0
  0
LINE
  5
410
100
AcDbEntity
  8
0
100
AcDbLine
 62
250
  6
CONTINUOUS
 10
-53.7678750731
 20
-15.4028571162
 30
0.0
 11
-51.8678750731
 21
-15.4028571162
 31
0.0
  0
LINE
  5
411
100
AcDbEntity
  8
0
100
AcDbLine
 62
250
  6
CONTINUOUS
 10
-52.4107322403
 20
-14.8057142323
 30
0.0
 11
-53.2250179626
 21
-14.8057142323
 31
0.0
  0
LINE
  5
412
100
AcDbEntity
  8
0
100
AcDbLine
 62
250
  6
CONTINUOUS
 10
-38.4240880731
 20
-14.201183
 30
0.0
 11
-39.3116620731
 21
-14.201183
 31
0.0
  0
LINE
  5
413
100
AcDbEntity
  8
RACCORDO
100
AcDbLine
 62
250
  6
CONTINUOUS
 10
-62.3678750731
 20
-17.7000190385
 30
0.0
 11
-64.0678750731
 21
-17.6851833632
 31
0.0
  0
LINE
  5
414
100
AcDbEntity
  8
0
100
AcDbLine
 62
7
  6
CONTINUOUS
 10
-64.5678750731
 20
-22.1
 30
0.0
 11
-64.5678750731
 21
22.1
 31
0.0
  0
LINE
  5
415
100
AcDbEntity
  8
DRAFT
100
AcDbLine
 62
7
  6
CONTINUOUS
 10
-64.5678750731
 20
14.1431242427
 30
0.0
 11
-64.0678750731
 21
17.3
 31
0.0
  0
LINE
  5
416
100
AcDbEntity
  8
DRAFT
100
AcDbLine
 62
7
  6
CONTINUOUS
 10
-63.7033846021
 20
21.1
 30
0.0
 11
-63.7888426073
 21
20.6153435688
 31
0.0
  0
LWPOLYLINE
  5
417
100
AcDbEntity
  8
0
100
AcDbPolyline
 62
7
  6
CONTINUOUS
 90
3
 70
0
 43
0.3500000087
 10
-51.0393020599
 20
46.0220117981
 10
-51.1107337463
 20
45.8077252655
 10
-51.2535885925
 20
45.5220113098
  0
LINE
  5
418
100
AcDbEntity
  8
0
100
AcDbLine
 62
250
  6
CONTINUOUS
 10
-40.3678750731
 20
16.1347338267
 30
0.0
 11
-41.4393036701
 21
15.7811621733
 31
0.0
  0
LINE
  5
419
100
AcDbEntity
  8
DRAFT
100
AcDbLine
 62
7
  6
CONTINUOUS
 10
-33.6417283503
 20
-11.2989817302
 30
0.0
 11
-35.094021796
 21
-11.4260409428
 31
0.0
  0
LINE
  5
41A
100
AcDbEntity
  8
ASSI
100
AcDbLine
 62
7
  6
CONTINUOUS
 10
-33.6417283503
 20
-11.2989817302
 30
0.0
 11
-35.094021796
 21
-11.4260409428
 31
0.0
  0
LINE
  5
41B
100
AcDbEntity
  8
SUPERFICI
100
AcDbLine
 62
7
  6
CONTINUOUS
 10
-33.6417283503
 20
-11.2989817302
 30
0.0
 11
-35.094021796
 21
-11.4260409428
 31
0.0
  0
LINE
  5
41C
100
AcDbEntity
  8
0
100
AcDbLine
 62
250
  6
CONTINUOUS
 10
-53.2250179626
 20
-13.7607143569
 30
0.0
 11
-52.4107322403
 21
-13.7607143569
 31
0.0
  0
LINE
  5
41D
100
AcDbEntity
  8
0
100
AcDbLine
 62
250
  6
CONTINUOUS
 10
-40.8868325445
 20
-10.998558
 30
0.0
 11
-35.8883154891
 21
-10.998558
 31
0.0
  0
LINE
  5
41E
100
AcDbEntity
  8
0
100
AcDbLine
 62
250
  6
CONTINUOUS
 10
-51.8678750731
 20
-13.1635715353
 30
0.0
 11
-53.7678750731
 21
-12.5664284647
 31
0.0
  0
LINE
  5
41F
100
AcDbEntity
  8
0
100
AcDbLine
 62
250
  6
CONTINUOUS
 10
-53.2250179626
 20
-14.8057142323
 30
0.0
 11
-53.4964465179
 21
-14.6564285892
 31
0.0
  0
LINE
  5
420
100
AcDbEntity
  8
0
100
AcDbLine
 62
250
  6
CONTINUOUS
 10
-52.4107322403
 20
-13.7607143569
 30
0.0
 11
-52.1393036567
 21
-13.91
 31
0.0
  0
LINE
  5
421
100
AcDbEntity
  8
DRAFT
100
AcDbLine
 62
7
  6
CONTINUOUS
 10
-64.0678750731
 20
-17.3
 30
0.0
 11
-64.5678750731
 21
-14.1431242427
 31
0.0
  0
LINE
  5
422
100
AcDbEntity
  8
0
100
AcDbLine
 62
7
  6
CONTINUOUS
 10
-63.9662732732
 20
-0.0
 30
0.0
 11
-62.3678750731
 21
-16.6
 31
0.0
  0
LINE
  5
423
100
AcDbEntity
  8
RACCORDO
100
AcDbLine
 62
250
  6
CONTINUOUS
 10
-64.294021796
 20
22.1071711004
 30
0.0
 11
-64.294021796
 21
20.6071711004
 31
0.0
  0
LINE
  5
424
100
AcDbEntity
  8
RACCORDO
100
AcDbLine
 62
250
  6
CONTINUOUS
 10
-64.294021796
 20
-20.6071711004
 30
0.0
 11
-64.294021796
 21
-22.1071711004
 31
0.0
  0
LINE
  5
425
100
AcDbEntity
  8
RACCORDO
100
AcDbLine
 62
7
  6
CONTINUOUS
 10
-64.0678750731
 20
-18.1851643248
 30
0.0
 11
-64.0678750731
 21
-17.3
 31
0.0
  0
LINE
  5
426
100
AcDbEntity
  8
RACCORDO
100
AcDbLine
 62
7
  6
CONTINUOUS
 10
-64.0678750731
 20
17.3
 30
0.0
 11
-64.0678750731
 21
18.1851643248
 31
0.0
  0
LINE
  5
427
100
AcDbEntity
  8
DRAFT
100
AcDbLine
 62
7
  6
CONTINUOUS
 10
-64.0678750731
 20
18.1851643248
 30
0.0
 11
-64.0678750731
 21
18.3350484589
 31
0.0
  0
LINE
  5
428
100
AcDbEntity
  8
DRAFT
100
AcDbLine
 62
7
  6
CONTINUOUS
 10
-63.8678750731
 20
-22.1183301451
 30
0.0
 11
-63.8678750731
 21
-20.6183301451
 31
0.0
  0
LINE
  5
429
100
AcDbEntity
  8
DRAFT
100
AcDbLine
 62
7
  6
CONTINUOUS
 10
-63.8678750731
 20
20.6183301451
 30
0.0
 11
-63.8678750731
 21
22.1183301451
 31
0.0
  0
LINE
  5
42A
100
AcDbEntity
  8
0
100
AcDbLine
 62
7
  6
CONTINUOUS
 10
-63.3678750731
 20
-24.2369056521
 30
0.0
 11
-63.3678750731
 21
-23.8443375673
 31
0.0
  0
LINE
  5
42B
100
AcDbEntity
  8
0
100
AcDbLine
 62
7
  6
CONTINUOUS
 10
-63.3678750731
 20
23.8443375673
 30
0.0
 11
-63.3678750731
 21
24.2369056521
 31
0.0
  0
LINE
  5
42C
100
AcDbEntity
  8
0
100
AcDbLine
 62
250
  6
CONTINUOUS
 10
-63.119329506
 20
-24.2369056521
 30
0.0
 11
-63.119329506
 21
-23.8443375673
 31
0.0
  0
LINE
  5
42D
100
AcDbEntity
  8
0
100
AcDbLine
 62
250
  6
CONTINUOUS
 10
-63.119329506
 20
23.8443375673
 30
0.0
 11
-63.119329506
 21
24.2369056521
 31
0.0
  0
LINE
  5
42E
100
AcDbEntity
  8
RACCORDO
100
AcDbLine
 62
250
  6
CONTINUOUS
 10
-63.0574078819
 20
19.2423626323
 30
0.0
 11
-63.0574078819
 21
21.1
 31
0.0
  0
LINE
  5
42F
100
AcDbEntity
  8
ASSI
100
AcDbLine
 62
7
  6
CONTINUOUS
 10
-62.8678750731
 20
-21.0
 30
0.0
 11
-62.8678750731
 21
-18.8
 31
0.0
  0
LINE
  5
430
100
AcDbEntity
  8
ASSI
100
AcDbLine
 62
7
  6
CONTINUOUS
 10
-62.8678750731
 20
18.8
 30
0.0
 11
-62.8678750731
 21
21.0
 31
0.0
  0
LINE
  5
431
100
AcDbEntity
  8
RACCORDO
100
AcDbLine
 62
7
  6
CONTINUOUS
 10
-62.8678750731
 20
21.0
 30
0.0
 11
-62.8678750731
 21
21.1
 31
0.0
  0
LINE
  5
432
100
AcDbEntity
  8
0
100
AcDbLine
 62
7
  6
CONTINUOUS
 10
-62.3678750731
 20
-23.1226497308
 30
0.0
 11
-62.3678750731
 21
-16.6
 31
0.0
  0
LINE
  5
433
100
AcDbEntity
  8
0
100
AcDbLine
 62
7
  6
CONTINUOUS
 10
-62.3678750731
 20
16.6
 30
0.0
 11
-62.3678750731
 21
23.1226497308
 31
0.0
  0
LINE
  5
434
100
AcDbEntity
  8
0
100
AcDbLine
 62
250
  6
CONTINUOUS
 10
-62.119329506
 20
-23.2669872981
 30
0.0
 11
-62.119329506
 21
-22.3344140523
 31
0.0
  0
LINE
  5
435
100
AcDbEntity
  8
0
100
AcDbLine
 62
250
  6
CONTINUOUS
 10
-62.119329506
 20
22.3344140523
 30
0.0
 11
-62.119329506
 21
23.2669872981
 31
0.0
  0
LINE
  5
436
100
AcDbEntity
  8
0
100
AcDbLine
 62
7
  6
CONTINUOUS
 10
-60.8678750731
 20
-24.5
 30
0.0
 11
-60.8678750731
 21
24.5
 31
0.0
  0
LINE
  5
437
100
AcDbEntity
  8
0
100
AcDbLine
 62
7
  6
CONTINUOUS
 10
-62.3678750731
 20
16.6
 30
0.0
 11
-63.9662732732
 21
-0.0
 31
0.0
  0
LINE
  5
438
100
AcDbEntity
  8
DRAFT
100
AcDbLine
 62
7
  6
CONTINUOUS
 10
-63.9618560175
 20
1.7528763784
 30
0.0
 11
-64.5678750731
 21
1.1030005055
 31
0.0
  0
LINE
  5
439
100
AcDbEntity
  8
0
100
AcDbLine
 62
250
  6
CONTINUOUS
 10
-43.3678750731
 20
13.4043764778
 30
0.0
 11
-44.8678750731
 21
12.71687674
 31
0.0
  0
LINE
  5
43A
100
AcDbEntity
  8
RACCORDO
100
AcDbLine
 62
250
  6
CONTINUOUS
 10
-69.9907956589
 20
-9.4905
 30
0.0
 11
-70.4776168957
 21
-9.4999999994
 31
0.0
  0
LINE
  5
43B
100
AcDbEntity
  8
0
100
AcDbLine
 62
250
  6
CONTINUOUS
 10
-36.4438402322
 20
-10.443209
 30
0.0
 11
-38.109897619
 21
-10.443209
 31
0.0
  0
LINE
  5
43C
100
AcDbEntity
  8
0
100
AcDbLine
 62
250
  6
CONTINUOUS
 10
-38.6654223621
 20
-10.443209
 30
0.0
 11
-40.331479749
 21
-10.443209
 31
0.0
  0
LINE
  5
43D
100
AcDbEntity
  8
0
100
AcDbLine
 62
250
  6
CONTINUOUS
 10
-35.8883154891
 20
-9.887515
 30
0.0
 11
-36.4438402322
 21
-9.887515
 31
0.0
  0
LINE
  5
43E
100
AcDbEntity
  8
0
100
AcDbLine
 62
250
  6
CONTINUOUS
 10
-38.109897619
 20
-9.887515
 30
0.0
 11
-38.6654223621
 21
-9.887515
 31
0.0
  0
LINE
  5
43F
100
AcDbEntity
  8
0
100
AcDbLine
 62
250
  6
CONTINUOUS
 10
-40.331479749
 20
-9.887515
 30
0.0
 11
-40.8868325445
 21
-9.887515
 31
0.0
  0
LINE
  5
440
100
AcDbEntity
  8
0
100
AcDbLine
 62
250
  6
CONTINUOUS
 10
-35.8883154891
 20
-9.332166
 30
0.0
 11
-40.8868325445
 21
-9.332166
 31
0.0
  0
LINE
  5
441
100
AcDbEntity
  8
0
100
AcDbLine
 62
250
  6
CONTINUOUS
 10
-38.109897619
 20
-8.776472
 30
0.0
 11
-35.8883154891
 21
-8.776472
 31
0.0
  0
LINE
  5
442
100
AcDbEntity
  8
0
100
AcDbLine
 62
250
  6
CONTINUOUS
 10
-38.6654223621
 20
-8.776472
 30
0.0
 11
-40.331479749
 21
-8.776472
 31
0.0
  0
LINE
  5
443
100
AcDbEntity
  8
0
100
AcDbLine
 62
250
  6
CONTINUOUS
 10
-53.2250179626
 20
-8.685
 30
0.0
 11
-53.4964465179
 21
-8.685
 31
0.0
  0
LINE
  5
444
100
AcDbEntity
  8
0
100
AcDbLine
 62
250
  6
CONTINUOUS
 10
-40.331479749
 20
-8.220778
 30
0.0
 11
-38.6654223621
 21
-8.220778
 31
0.0
  0
LINE
  5
445
100
AcDbEntity
  8
0
100
AcDbLine
 62
250
  6
CONTINUOUS
 10
-35.8883154891
 20
-8.220778
 30
0.0
 11
-38.109897619
 21
-8.220778
 31
0.0
  0
LINE
  5
446
100
AcDbEntity
  8
0
100
AcDbLine
 62
250
  6
CONTINUOUS
 10
-53.7678750731
 20
-8.0878569293
 30
0.0
 11
-52.9535894074
 21
-8.0878569293
 31
0.0
  0
LINE
  5
447
100
AcDbEntity
  8
0
100
AcDbLine
 62
250
  6
CONTINUOUS
 10
-40.8868325445
 20
-7.665429
 30
0.0
 11
-35.8883154891
 21
-7.665429
 31
0.0
  0
LINE
  5
448
100
AcDbEntity
  8
0
100
AcDbLine
 62
250
  6
CONTINUOUS
 10
-52.6821607955
 20
-7.1921425724
 30
0.0
 11
-52.1393036567
 21
-7.1921425724
 31
0.0
  0
LINE
  5
449
100
AcDbEntity
  8
0
100
AcDbLine
 62
250
  6
CONTINUOUS
 10
-40.8868325445
 20
-7.109735
 30
0.0
 11
-35.8883154891
 21
-7.109735
 31
0.0
  0
LINE
  5
44A
100
AcDbEntity
  8
0
100
AcDbLine
 62
250
  6
CONTINUOUS
 10
-53.7678750731
 20
-9.4314287138
 30
0.0
 11
-53.3607321836
 21
-9.73
 31
0.0
  0
LINE
  5
44B
100
AcDbEntity
  8
DRAFT
100
AcDbLine
 62
7
  6
CONTINUOUS
 10
-64.5678750731
 20
-1.1030005055
 30
0.0
 11
-63.9618560175
 21
-1.7528763784
 31
0.0
  0
LINE
  5
44C
100
AcDbEntity
  8
0
100
AcDbLine
 62
250
  6
CONTINUOUS
 10
-53.2250179626
 20
-16.0
 30
0.0
 11
-53.7678750731
 21
-15.4028571162
 31
0.0
  0
LINE
  5
44D
100
AcDbEntity
  8
0
100
AcDbLine
 62
250
  6
CONTINUOUS
 10
-53.4964465179
 20
-14.6564285892
 30
0.0
 11
-53.7678750731
 21
-14.3578571784
 31
0.0
  0
LINE
  5
44E
100
AcDbEntity
  8
0
100
AcDbLine
 62
250
  6
CONTINUOUS
 10
-52.1393036567
 20
-13.91
 30
0.0
 11
-51.8678750731
 21
-14.2085714108
 31
0.0
  0
LINE
  5
44F
100
AcDbEntity
  8
0
100
AcDbLine
 62
250
  6
CONTINUOUS
 10
-60.1164206403
 20
24.2456323968
 30
0.0
 11
-60.1164206403
 21
23.8443375673
 31
0.0
  0
LINE
  5
450
100
AcDbEntity
  8
0
100
AcDbLine
 62
250
  6
CONTINUOUS
 10
-60.1164206403
 20
-23.8443375673
 30
0.0
 11
-60.1164206403
 21
-24.2456323968
 31
0.0
  0
LINE
  5
451
100
AcDbEntity
  8
0
100
AcDbLine
 62
7
  6
CONTINUOUS
 10
-59.8678750731
 20
24.2456323968
 30
0.0
 11
-59.8678750731
 21
23.8443375673
 31
0.0
  0
LINE
  5
452
100
AcDbEntity
  8
0
100
AcDbLine
 62
7
  6
CONTINUOUS
 10
-59.8678750731
 20
-18.5082905244
 30
0.0
 11
-59.8678750731
 21
-22.3941821702
 31
0.0
  0
LINE
  5
453
100
AcDbEntity
  8
0
100
AcDbLine
 62
7
  6
CONTINUOUS
 10
-59.8678750731
 20
-23.8443375673
 30
0.0
 11
-59.8678750731
 21
-24.2456323968
 31
0.0
  0
LINE
  5
454
100
AcDbEntity
  8
0
100
AcDbLine
 62
7
  6
CONTINUOUS
 10
-59.8678750731
 20
18.5082905244
 30
0.0
 11
-59.8678750731
 21
22.3941821702
 31
0.0
  0
LINE
  5
455
100
AcDbEntity
  8
RACCORDO
100
AcDbLine
 62
7
  6
CONTINUOUS
 10
-57.3678750731
 20
20.85
 30
0.0
 11
-57.3678750731
 21
19.0856972195
 31
0.0
  0
LINE
  5
456
100
AcDbEntity
  8
ASSI
100
AcDbLine
 62
7
  6
CONTINUOUS
 10
-57.3678750731
 20
20.85
 30
0.0
 11
-57.3678750731
 21
19.0856972195
 31
0.0
  0
LINE
  5
457
100
AcDbEntity
  8
SUPERFICI
100
AcDbLine
 62
7
  6
CONTINUOUS
 10
-57.3678750731
 20
20.85
 30
0.0
 11
-57.3678750731
 21
19.0856972195
 31
0.0
  0
LINE
  5
458
100
AcDbEntity
  8
0
100
AcDbLine
 62
7
  6
CONTINUOUS
 10
-57.3678750731
 20
21.4436376623
 30
0.0
 11
-57.3678750731
 21
17.6716990487
 31
0.0
  0
LINE
  5
459
100
AcDbEntity
  8
RACCORDO
100
AcDbLine
 62
7
  6
CONTINUOUS
 10
-57.3678750731
 20
-19.0856972195
 30
0.0
 11
-57.3678750731
 21
-20.85
 31
0.0
  0
LINE
  5
45A
100
AcDbEntity
  8
SUPERFICI
100
AcDbLine
 62
7
  6
CONTINUOUS
 10
-57.3678750731
 20
-19.0856972195
 30
0.0
 11
-57.3678750731
 21
-20.85
 31
0.0
  0
LINE
  5
45B
100
AcDbEntity
  8
0
100
AcDbLine
 62
7
  6
CONTINUOUS
 10
-57.3678750731
 20
-17.6716990487
 30
0.0
 11
-57.3678750731
 21
-21.4436376623
 31
0.0
  0
LINE
  5
45C
100
AcDbEntity
  8
ASSI
100
AcDbLine
 62
7
  6
CONTINUOUS
 10
-57.3678750731
 20
-20.85
 30
0.0
 11
-57.3678750731
 21
-18.6715216413
 31
0.0
  0
LINE
  5
45D
100
AcDbEntity
  8
RACCORDO
100
AcDbLine
 62
7
  6
CONTINUOUS
 10
-57.3678750731
 20
-18.0161110799
 30
0.0
 11
-57.3678750731
 21
18.0161110799
 31
0.0
  0
LINE
  5
45E
100
AcDbEntity
  8
ASSI
100
AcDbLine
 62
7
  6
CONTINUOUS
 10
-57.3678750731
 20
-18.0161110799
 30
0.0
 11
-57.3678750731
 21
18.0161110799
 31
0.0
  0
LINE
  5
45F
100
AcDbEntity
  8
SUPERFICI
100
AcDbLine
 62
7
  6
CONTINUOUS
 10
-57.3678750731
 20
-18.0161110799
 30
0.0
 11
-57.3678750731
 21
18.0161110799
 31
0.0
  0
LWPOLYLINE
  5
460
100
AcDbEntity
  8
0
100
AcDbPolyline
 62
7
  6
CONTINUOUS
 90
3
 70
0
 43
0.3500000087
 10
-45.4750188293
 20
36.0357128235
 10
-45.5464462524
 20
35.8214305542
 10
-45.6893053619
 20
35.5357123352
  0
LINE
  5
461
100
AcDbEntity
  8
0
100
AcDbLine
 62
250
  6
CONTINUOUS
 10
-47.4072150731
 20
11.506108
 30
0.0
 11
-49.5285350731
 21
9.384788
 31
0.0
  0
LINE
  5
462
100
AcDbEntity
  8
DRAFT
100
AcDbLine
 62
7
  6
CONTINUOUS
 10
-64.5678750731
 20
0.7863568996
 30
0.0
 11
-63.8415877408
 21
1.2949087646
 31
0.0
  0
LINE
  5
463
100
AcDbEntity
  8
0
100
AcDbLine
 62
250
  6
CONTINUOUS
 10
-44.6535893716
 20
12.1275909133
 30
0.0
 11
-44.4393036701
 21
12.245448
 31
0.0
  0
LINE
  5
464
100
AcDbEntity
  8
0
100
AcDbLine
 62
250
  6
CONTINUOUS
 10
-43.582160797
 20
11.5383050867
 30
0.0
 11
-43.7964465209
 21
11.420448
 31
0.0
  0
LINE
  5
465
100
AcDbEntity
  8
0
100
AcDbLine
 62
250
  6
CONTINUOUS
 10
-41.4393036701
 20
11.0668765433
 30
0.0
 11
-41.2250179686
 21
11.18473363
 31
0.0
  0
LINE
  5
466
100
AcDbEntity
  8
DRAFT
100
AcDbLine
 62
7
  6
CONTINUOUS
 10
-36.8678750731
 20
-3.7630903017
 30
0.0
 11
-35.3678750731
 21
-3.75
 31
0.0
  0
LINE
  5
467
100
AcDbEntity
  8
ASSI
100
AcDbLine
 62
7
  6
CONTINUOUS
 10
-36.8678750731
 20
-3.7630903017
 30
0.0
 11
-35.3678750731
 21
-3.75
 31
0.0
  0
LINE
  5
468
100
AcDbEntity
  8
SUPERFICI
100
AcDbLine
 62
7
  6
CONTINUOUS
 10
-36.8678750731
 20
-3.7630903017
 30
0.0
 11
-35.3678750731
 21
-3.75
 31
0.0
  0
LINE
  5
469
100
AcDbEntity
  8
DRAFT
100
AcDbLine
 62
7
  6
CONTINUOUS
 10
-36.8678750731
 20
-3.7630903017
 30
0.0
 11
-46.2184495946
 21
-3.8228257137
 31
0.0
  0
LINE
  5
46A
100
AcDbEntity
  8
ASSI
100
AcDbLine
 62
7
  6
CONTINUOUS
 10
-36.8678750731
 20
-3.7630903017
 30
0.0
 11
-46.2184495946
 21
-3.8228257137
 31
0.0
  0
LINE
  5
46B
100
AcDbEntity
  8
SUPERFICI
100
AcDbLine
 62
7
  6
CONTINUOUS
 10
-36.8678750731
 20
-3.7630903017
 30
0.0
 11
-46.2184495946
 21
-3.8228257137
 31
0.0
  0
LINE
  5
46C
100
AcDbEntity
  8
RACCORDO
100
AcDbLine
 62
7
  6
CONTINUOUS
 10
-46.221662003
 20
-3.454720171
 30
0.0
 11
-35.8591488699
 21
-3.4127559394
 31
0.0
  0
LINE
  5
46D
100
AcDbEntity
  8
ASSI
100
AcDbLine
 62
7
  6
CONTINUOUS
 10
-46.221662003
 20
-3.454720171
 30
0.0
 11
-35.8591488699
 21
-3.4127559394
 31
0.0
  0
LINE
  5
46E
100
AcDbEntity
  8
SUPERFICI
100
AcDbLine
 62
7
  6
CONTINUOUS
 10
-46.221662003
 20
-3.454720171
 30
0.0
 11
-35.8591488699
 21
-3.4127559394
 31
0.0
  0
LINE
  5
46F
100
AcDbEntity
  8
0
100
AcDbLine
 62
250
  6
CONTINUOUS
 10
-52.4107322403
 20
-6.595
 30
0.0
 11
-53.2250179626
 21
-6.595
 31
0.0
  0
LINE
  5
470
100
AcDbEntity
  8
0
100
AcDbLine
 62
250
  6
CONTINUOUS
 10
-36.4438402322
 20
-6.554385
 30
0.0
 11
-40.331479749
 21
-6.554385
 31
0.0
  0
LINE
  5
471
100
AcDbEntity
  8
0
100
AcDbLine
 62
250
  6
CONTINUOUS
 10
-35.8883154891
 20
-5.998691
 30
0.0
 11
-36.4438402322
 21
-5.998691
 31
0.0
  0
LINE
  5
472
100
AcDbEntity
  8
0
100
AcDbLine
 62
250
  6
CONTINUOUS
 10
-40.331479749
 20
-5.998691
 30
0.0
 11
-40.8868325445
 21
-5.998691
 31
0.0
  0
LINE
  5
473
100
AcDbEntity
  8
0
100
AcDbLine
 62
250
  6
CONTINUOUS
 10
-53.2250179626
 20
-5.55
 30
0.0
 11
-52.4107322403
 21
-5.55
 31
0.0
  0
LINE
  5
474
100
AcDbEntity
  8
RACCORDO
100
AcDbLine
 62
7
  6
CONTINUOUS
 10
-35.8591488699
 20
-5.5872440606
 30
0.0
 11
-46.221662003
 21
-5.545279829
 31
0.0
  0
LINE
  5
475
100
AcDbEntity
  8
ASSI
100
AcDbLine
 62
7
  6
CONTINUOUS
 10
-35.8591488699
 20
-5.5872440606
 30
0.0
 11
-46.221662003
 21
-5.545279829
 31
0.0
  0
LINE
  5
476
100
AcDbEntity
  8
SUPERFICI
100
AcDbLine
 62
7
  6
CONTINUOUS
 10
-35.8591488699
 20
-5.5872440606
 30
0.0
 11
-46.221662003
 21
-5.545279829
 31
0.0
  0
LINE
  5
477
100
AcDbEntity
  8
DRAFT
100
AcDbLine
 62
7
  6
CONTINUOUS
 10
-36.8678750731
 20
-5.2369096983
 30
0.0
 11
-46.2184495946
 21
-5.1771742863
 31
0.0
  0
LINE
  5
478
100
AcDbEntity
  8
ASSI
100
AcDbLine
 62
7
  6
CONTINUOUS
 10
-36.8678750731
 20
-5.2369096983
 30
0.0
 11
-46.2184495946
 21
-5.1771742863
 31
0.0
  0
LINE
  5
479
100
AcDbEntity
  8
SUPERFICI
100
AcDbLine
 62
7
  6
CONTINUOUS
 10
-36.8678750731
 20
-5.2369096983
 30
0.0
 11
-46.2184495946
 21
-5.1771742863
 31
0.0
  0
LINE
  5
47A
100
AcDbEntity
  8
DRAFT
100
AcDbLine
 62
7
  6
CONTINUOUS
 10
-35.3678750731
 20
-5.25
 30
0.0
 11
-36.8678750731
 21
-5.2369096983
 31
0.0
  0
LINE
  5
47B
100
AcDbEntity
  8
ASSI
100
AcDbLine
 62
7
  6
CONTINUOUS
 10
-35.3678750731
 20
-5.25
 30
0.0
 11
-36.8678750731
 21
-5.2369096983
 31
0.0
  0
LINE
  5
47C
100
AcDbEntity
  8
SUPERFICI
100
AcDbLine
 62
7
  6
CONTINUOUS
 10
-35.3678750731
 20
-5.25
 30
0.0
 11
-36.8678750731
 21
-5.2369096983
 31
0.0
  0
LINE
  5
47D
100
AcDbEntity
  8
DRAFT
100
AcDbLine
 62
7
  6
CONTINUOUS
 10
-33.6417283503
 20
-5.4010182698
 30
0.0
 11
-35.094021796
 21
-5.2739590572
 31
0.0
  0
LINE
  5
47E
100
AcDbEntity
  8
ASSI
100
AcDbLine
 62
7
  6
CONTINUOUS
 10
-33.6417283503
 20
-5.4010182698
 30
0.0
 11
-35.094021796
 21
-5.2739590572
 31
0.0
  0
LINE
  5
47F
100
AcDbEntity
  8
SUPERFICI
100
AcDbLine
 62
7
  6
CONTINUOUS
 10
-33.6417283503
 20
-5.4010182698
 30
0.0
 11
-35.094021796
 21
-5.2739590572
 31
0.0
  0
LINE
  5
480
100
AcDbEntity
  8
0
100
AcDbLine
 62
250
  6
CONTINUOUS
 10
-53.7678750731
 20
-3.7585712862
 30
0.0
 11
-51.8678750731
 21
-4.3557138586
 31
0.0
  0
LINE
  5
481
100
AcDbEntity
  8
0
100
AcDbLine
 62
250
  6
CONTINUOUS
 10
-53.2250179626
 20
-6.595
 30
0.0
 11
-53.4964465179
 21
-6.4457138586
 31
0.0
  0
LINE
  5
482
100
AcDbEntity
  8
0
100
AcDbLine
 62
250
  6
CONTINUOUS
 10
-52.4107322403
 20
-5.55
 30
0.0
 11
-52.1393036567
 21
-5.6992861414
 31
0.0
  0
LINE
  5
483
100
AcDbEntity
  8
DRAFT
100
AcDbLine
 62
7
  6
CONTINUOUS
 10
-63.8415877408
 20
-1.2949087646
 30
0.0
 11
-64.5678750731
 21
-0.7863568996
 31
0.0
  0
LINE
  5
484
100
AcDbEntity
  8
0
100
AcDbLine
 62
250
  6
CONTINUOUS
 10
-51.8678750731
 20
-9.73
 30
0.0
 11
-53.2250179626
 21
-8.685
 31
0.0
  0
LINE
  5
485
100
AcDbEntity
  8
0
100
AcDbLine
 62
250
  6
CONTINUOUS
 10
-53.4964465179
 20
-6.4457138586
 30
0.0
 11
-53.7678750731
 21
-6.1471425724
 31
0.0
  0
LINE
  5
486
100
AcDbEntity
  8
0
100
AcDbLine
 62
250
  6
CONTINUOUS
 10
-52.1393036567
 20
-7.1921425724
 30
0.0
 11
-51.8678750731
 21
-7.4907138586
 31
0.0
  0
LINE
  5
487
100
AcDbEntity
  8
0
100
AcDbLine
 62
250
  6
CONTINUOUS
 10
-54.8178750731
 20
9.445448
 30
0.0
 11
-54.8178750731
 21
11.445448
 31
0.0
  0
LWPOLYLINE
  5
488
100
AcDbEntity
  8
0
100
AcDbPolyline
 62
7
  6
CONTINUOUS
 90
4
 70
0
 43
0.3500000087
 10
-54.1107324127
 20
48.0934411743
 10
-54.1107324127
 20
48.7362965088
 10
-52.6107309479
 20
48.7362965088
 10
-53.4678770782
 20
45.7362978424
  0
LINE
  5
489
100
AcDbEntity
  8
0
100
AcDbLine
 62
250
  6
CONTINUOUS
 10
-53.7678750731
 20
-7.1921425724
 30
0.0
 11
-53.7678750731
 21
-8.0878569293
 31
0.0
  0
LINE
  5
48A
100
AcDbEntity
  8
0
100
AcDbLine
 62
250
  6
CONTINUOUS
 10
-53.7678750731
 20
-8.9835712862
 30
0.0
 11
-53.7678750731
 21
-9.4314287138
 31
0.0
  0
LINE
  5
48B
100
AcDbEntity
  8
0
100
AcDbLine
 62
250
  6
CONTINUOUS
 10
-53.7678750731
 20
-14.3578571784
 30
0.0
 11
-53.7678750731
 21
-14.2085714108
 31
0.0
  0
LINE
  5
48C
100
AcDbEntity
  8
0
100
AcDbLine
 62
250
  6
CONTINUOUS
 10
-53.7678750731
 20
-6.1471425724
 30
0.0
 11
-53.7678750731
 21
-5.9978574276
 31
0.0
  0
LINE
  5
48D
100
AcDbEntity
  8
0
100
AcDbLine
 62
250
  6
CONTINUOUS
 10
-43.9393036552
 20
14.9561621733
 30
0.0
 11
-43.7250179314
 21
15.2704478689
 31
0.0
  0
LINE
  5
48E
100
AcDbEntity
  8
0
100
AcDbLine
 62
250
  6
CONTINUOUS
 10
-49.5535890731
 20
4.408
 30
0.0
 11
-49.2821610731
 21
4.712
 31
0.0
  0
LINE
  5
48F
100
AcDbEntity
  8
0
100
AcDbLine
 62
250
  6
CONTINUOUS
 10
-44.8678750731
 20
11.8918765433
 30
0.0
 11
-44.6535893716
 21
12.1275909133
 31
0.0
  0
LINE
  5
490
100
AcDbEntity
  8
0
100
AcDbLine
 62
250
  6
CONTINUOUS
 10
-43.3678750731
 20
11.7740194567
 30
0.0
 11
-43.582160797
 21
11.5383050867
 31
0.0
  0
LINE
  5
491
100
AcDbEntity
  8
0
100
AcDbLine
 62
250
  6
CONTINUOUS
 10
-44.2250179686
 20
10.7133050867
 30
0.0
 11
-44.0107322224
 21
10.9490194567
 31
0.0
  0
LINE
  5
492
100
AcDbEntity
  8
0
100
AcDbLine
 62
250
  6
CONTINUOUS
 10
-44.6535893716
 20
9.770448
 30
0.0
 11
-44.8678750731
 21
9.5347337283
 31
0.0
  0
LINE
  5
493
100
AcDbEntity
  8
0
100
AcDbLine
 62
250
  6
CONTINUOUS
 10
-50.3678750731
 20
4.408
 30
0.0
 11
-50.0964460731
 21
4.661333
 31
0.0
  0
LINE
  5
494
100
AcDbEntity
  8
0
100
AcDbLine
 62
250
  6
CONTINUOUS
 10
-40.3678750731
 20
12.3633050867
 30
0.0
 11
-41.4393036701
 21
11.65616237
 31
0.0
  0
LINE
  5
495
100
AcDbEntity
  8
0
100
AcDbLine
 62
250
  6
CONTINUOUS
 10
-38.6535893716
 20
11.7740194567
 30
0.0
 11
-38.4393036701
 21
11.8918765433
 31
0.0
  0
LINE
  5
496
100
AcDbEntity
  8
0
100
AcDbLine
 62
250
  6
CONTINUOUS
 10
-37.582160797
 20
11.18473363
 30
0.0
 11
-37.7964465209
 21
11.0668765433
 31
0.0
  0
LINE
  5
497
100
AcDbEntity
  8
DRAFT
100
AcDbLine
 62
7
  6
CONTINUOUS
 10
-33.6417283503
 20
-1.2489817302
 30
0.0
 11
-34.6678750731
 21
-1.3387579355
 31
0.0
  0
LINE
  5
498
100
AcDbEntity
  8
ASSI
100
AcDbLine
 62
7
  6
CONTINUOUS
 10
-33.6417283503
 20
-1.2489817302
 30
0.0
 11
-34.6678750731
 21
-1.3387579355
 31
0.0
  0
LINE
  5
499
100
AcDbEntity
  8
SUPERFICI
100
AcDbLine
 62
7
  6
CONTINUOUS
 10
-33.6417283503
 20
-1.2489817302
 30
0.0
 11
-34.6678750731
 21
-1.3387579355
 31
0.0
  0
LINE
  5
49A
100
AcDbEntity
  8
RACCORDO
100
AcDbLine
 62
7
  6
CONTINUOUS
 10
-42.166129766
 20
-0.6086095107
 30
0.0
 11
-46.4179548567
 21
-0.6457146262
 31
0.0
  0
LINE
  5
49B
100
AcDbEntity
  8
DRAFT
100
AcDbLine
 62
7
  6
CONTINUOUS
 10
-64.3375443182
 20
-1.35
 30
0.0
 11
-63.8362830582
 21
-1.35
 31
0.0
  0
LINE
  5
49C
100
AcDbEntity
  8
RACCORDO
100
AcDbLine
 62
7
  6
CONTINUOUS
 10
-35.8591488699
 20
-1.0872440606
 30
0.0
 11
-46.221662003
 21
-1.045279829
 31
0.0
  0
LINE
  5
49D
100
AcDbEntity
  8
ASSI
100
AcDbLine
 62
7
  6
CONTINUOUS
 10
-35.8591488699
 20
-1.0872440606
 30
0.0
 11
-46.221662003
 21
-1.045279829
 31
0.0
  0
LINE
  5
49E
100
AcDbEntity
  8
SUPERFICI
100
AcDbLine
 62
7
  6
CONTINUOUS
 10
-35.8591488699
 20
-1.0872440606
 30
0.0
 11
-46.221662003
 21
-1.045279829
 31
0.0
  0
LINE
  5
49F
100
AcDbEntity
  8
DRAFT
100
AcDbLine
 62
7
  6
CONTINUOUS
 10
-36.8678750731
 20
-0.7369096983
 30
0.0
 11
-46.2184495946
 21
-0.6771742863
 31
0.0
  0
LINE
  5
4A0
100
AcDbEntity
  8
ASSI
100
AcDbLine
 62
7
  6
CONTINUOUS
 10
-36.8678750731
 20
-0.7369096983
 30
0.0
 11
-46.2184495946
 21
-0.6771742863
 31
0.0
  0
LINE
  5
4A1
100
AcDbEntity
  8
SUPERFICI
100
AcDbLine
 62
7
  6
CONTINUOUS
 10
-36.8678750731
 20
-0.7369096983
 30
0.0
 11
-46.2184495946
 21
-0.6771742863
 31
0.0
  0
LINE
  5
4A2
100
AcDbEntity
  8
DRAFT
100
AcDbLine
 62
7
  6
CONTINUOUS
 10
-63.7973522423
 20
-1.7543119811
 30
0.0
 11
-63.9618560175
 21
-1.7528763784
 31
0.0
  0
LINE
  5
4A3
100
AcDbEntity
  8
DRAFT
100
AcDbLine
 62
7
  6
CONTINUOUS
 10
-35.3678750731
 20
-0.75
 30
0.0
 11
-36.8678750731
 21
-0.7369096983
 31
0.0
  0
LINE
  5
4A4
100
AcDbEntity
  8
ASSI
100
AcDbLine
 62
7
  6
CONTINUOUS
 10
-35.3678750731
 20
-0.75
 30
0.0
 11
-36.8678750731
 21
-0.7369096983
 31
0.0
  0
LINE
  5
4A5
100
AcDbEntity
  8
SUPERFICI
100
AcDbLine
 62
7
  6
CONTINUOUS
 10
-35.3678750731
 20
-0.75
 30
0.0
 11
-36.8678750731
 21
-0.7369096983
 31
0.0
  0
LINE
  5
4A6
100
AcDbEntity
  8
DRAFT
100
AcDbLine
 62
7
  6
CONTINUOUS
 10
-41.6678750731
 20
0.0837843117
 30
0.0
 11
-36.8678750731
 21
0.0
 31
0.0
  0
LINE
  5
4A7
100
AcDbEntity
  8
ASSI
100
AcDbLine
 62
7
  6
CONTINUOUS
 10
-41.6678750731
 20
0.0837843117
 30
0.0
 11
-36.8678750731
 21
0.0
 31
0.0
  0
LINE
  5
4A8
100
AcDbEntity
  8
SUPERFICI
100
AcDbLine
 62
7
  6
CONTINUOUS
 10
-41.6678750731
 20
0.0837843117
 30
0.0
 11
-36.8678750731
 21
0.0
 31
0.0
  0
LINE
  5
4A9
100
AcDbEntity
  8
0
100
AcDbLine
 62
250
  6
CONTINUOUS
 10
-52.1393036567
 20
-5.6992861414
 30
0.0
 11
-51.8678750731
 21
-5.9978574276
 31
0.0
  0
LINE
  5
4AA
100
AcDbEntity
  8
0
100
AcDbLine
 62
250
  6
CONTINUOUS
 10
-52.4559703328
 20
-3.1614287138
 30
0.0
 11
-52.5916846104
 21
-2.8130957127
 31
0.0
  0
LINE
  5
4AB
100
AcDbEntity
  8
0
100
AcDbLine
 62
250
  6
CONTINUOUS
 10
-53.3182821023
 20
23.9538922731
 30
0.0
 11
-53.3182821023
 21
22.356077753
 31
0.0
  0
LINE
  5
4AC
100
AcDbEntity
  8
0
100
AcDbLine
 62
250
  6
CONTINUOUS
 10
-53.3182821023
 20
-22.356077753
 30
0.0
 11
-53.3182821023
 21
-23.9538922731
 31
0.0
  0
LINE
  5
4AD
100
AcDbEntity
  8
0
100
AcDbLine
 62
250
  6
CONTINUOUS
 10
-52.9535894074
 20
-8.0878569293
 30
0.0
 11
-52.9535894074
 21
-7.4907138586
 31
0.0
  0
LINE
  5
4AE
100
AcDbEntity
  8
0
100
AcDbLine
 62
7
  6
CONTINUOUS
 10
-52.8678750731
 20
23.4563578147
 30
0.0
 11
-52.8678750731
 21
22.3534573615
 31
0.0
  0
LINE
  5
4AF
100
AcDbEntity
  8
0
100
AcDbLine
 62
7
  6
CONTINUOUS
 10
-52.8678750731
 20
-22.3534573615
 30
0.0
 11
-52.8678750731
 21
-23.4563578147
 31
0.0
  0
LINE
  5
4B0
100
AcDbEntity
  8
0
100
AcDbLine
 62
250
  6
CONTINUOUS
 10
-52.4107322403
 20
-12.1683332503
 30
0.0
 11
-52.4107322403
 21
-12.9645239282
 31
0.0
  0
LINE
  5
4B1
100
AcDbEntity
  8
0
100
AcDbLine
 62
250
  6
CONTINUOUS
 10
-51.8678750731
 20
14.8
 30
0.0
 11
-51.8678750731
 21
11.8
 31
0.0
  0
LINE
  5
4B2
100
AcDbEntity
  8
0
100
AcDbLine
 62
250
  6
CONTINUOUS
 10
-51.8678750731
 20
8.8
 30
0.0
 11
-51.8678750731
 21
5.8
 31
0.0
  0
LINE
  5
4B3
100
AcDbEntity
  8
0
100
AcDbLine
 62
250
  6
CONTINUOUS
 10
-51.8678750731
 20
4.8
 30
0.0
 11
-51.8678750731
 21
3.8
 31
0.0
  0
LINE
  5
4B4
100
AcDbEntity
  8
0
100
AcDbLine
 62
250
  6
CONTINUOUS
 10
-51.8678750731
 20
-5.9978574276
 30
0.0
 11
-51.8678750731
 21
-6.1471425724
 31
0.0
  0
LINE
  5
4B5
100
AcDbEntity
  8
0
100
AcDbLine
 62
250
  6
CONTINUOUS
 10
-51.8678750731
 20
-7.4907138586
 30
0.0
 11
-51.8678750731
 21
-8.0878569293
 31
0.0
  0
LINE
  5
4B6
100
AcDbEntity
  8
0
100
AcDbLine
 62
250
  6
CONTINUOUS
 10
-51.8678750731
 20
-8.685
 30
0.0
 11
-51.8678750731
 21
-9.73
 31
0.0
  0
LINE
  5
4B7
100
AcDbEntity
  8
0
100
AcDbLine
 62
250
  6
CONTINUOUS
 10
-51.8678750731
 20
-14.2085714108
 30
0.0
 11
-51.8678750731
 21
-14.3578571784
 31
0.0
  0
LINE
  5
4B8
100
AcDbEntity
  8
0
100
AcDbLine
 62
250
  6
CONTINUOUS
 10
-50.3678750731
 20
3.8
 30
0.0
 11
-50.3678750731
 21
4.408
 31
0.0
  0
LINE
  5
4B9
100
AcDbEntity
  8
0
100
AcDbLine
 62
250
  6
CONTINUOUS
 10
-52.5916846104
 20
-2.8130957127
 30
0.0
 11
-52.3202560269
 21
-2.415
 31
0.0
  0
LINE
  5
4BA
100
AcDbEntity
  8
0
100
AcDbLine
 62
250
  6
CONTINUOUS
 10
-41.4393036701
 20
9.888305185
 30
0.0
 11
-41.3321607747
 21
10.0061622717
 31
0.0
  0
LINE
  5
4BB
100
AcDbEntity
  8
0
100
AcDbLine
 62
250
  6
CONTINUOUS
 10
-38.8678750731
 20
11.5383050867
 30
0.0
 11
-38.6535893716
 21
11.7740194567
 31
0.0
  0
LINE
  5
4BC
100
AcDbEntity
  8
0
100
AcDbLine
 62
250
  6
CONTINUOUS
 10
-53.7678750731
 20
-5.9978574276
 30
0.0
 11
-53.4964465179
 21
-5.6992861414
 31
0.0
  0
LINE
  5
4BD
100
AcDbEntity
  8
DRAFT
100
AcDbLine
 62
7
  6
CONTINUOUS
 10
-33.6417283503
 20
5.4010182698
 30
0.0
 11
-35.094021796
 21
5.2739590572
 31
0.0
  0
LINE
  5
4BE
100
AcDbEntity
  8
ASSI
100
AcDbLine
 62
7
  6
CONTINUOUS
 10
-33.6417283503
 20
5.4010182698
 30
0.0
 11
-35.094021796
 21
5.2739590572
 31
0.0
  0
LINE
  5
4BF
100
AcDbEntity
  8
SUPERFICI
100
AcDbLine
 62
7
  6
CONTINUOUS
 10
-33.6417283503
 20
5.4010182698
 30
0.0
 11
-35.094021796
 21
5.2739590572
 31
0.0
  0
LINE
  5
4C0
100
AcDbEntity
  8
DRAFT
100
AcDbLine
 62
7
  6
CONTINUOUS
 10
-36.8678750731
 20
0.7369096983
 30
0.0
 11
-35.3678750731
 21
0.75
 31
0.0
  0
LINE
  5
4C1
100
AcDbEntity
  8
ASSI
100
AcDbLine
 62
7
  6
CONTINUOUS
 10
-36.8678750731
 20
0.7369096983
 30
0.0
 11
-35.3678750731
 21
0.75
 31
0.0
  0
LINE
  5
4C2
100
AcDbEntity
  8
SUPERFICI
100
AcDbLine
 62
7
  6
CONTINUOUS
 10
-36.8678750731
 20
0.7369096983
 30
0.0
 11
-35.3678750731
 21
0.75
 31
0.0
  0
LINE
  5
4C3
100
AcDbEntity
  8
DRAFT
100
AcDbLine
 62
7
  6
CONTINUOUS
 10
-63.7973522423
 20
1.7543119811
 30
0.0
 11
-63.9618560175
 21
1.7528763784
 31
0.0
  0
LINE
  5
4C4
100
AcDbEntity
  8
DRAFT
100
AcDbLine
 62
7
  6
CONTINUOUS
 10
-36.8678750731
 20
0.7369096983
 30
0.0
 11
-46.2184495946
 21
0.6771742863
 31
0.0
  0
LINE
  5
4C5
100
AcDbEntity
  8
ASSI
100
AcDbLine
 62
7
  6
CONTINUOUS
 10
-36.8678750731
 20
0.7369096983
 30
0.0
 11
-46.2184495946
 21
0.6771742863
 31
0.0
  0
LINE
  5
4C6
100
AcDbEntity
  8
SUPERFICI
100
AcDbLine
 62
7
  6
CONTINUOUS
 10
-36.8678750731
 20
0.7369096983
 30
0.0
 11
-46.2184495946
 21
0.6771742863
 31
0.0
  0
LINE
  5
4C7
100
AcDbEntity
  8
RACCORDO
100
AcDbLine
 62
7
  6
CONTINUOUS
 10
-46.221662003
 20
1.045279829
 30
0.0
 11
-35.8591488699
 21
1.0872440606
 31
0.0
  0
LINE
  5
4C8
100
AcDbEntity
  8
ASSI
100
AcDbLine
 62
7
  6
CONTINUOUS
 10
-46.221662003
 20
1.045279829
 30
0.0
 11
-35.8591488699
 21
1.0872440606
 31
0.0
  0
LINE
  5
4C9
100
AcDbEntity
  8
SUPERFICI
100
AcDbLine
 62
7
  6
CONTINUOUS
 10
-46.221662003
 20
1.045279829
 30
0.0
 11
-35.8591488699
 21
1.0872440606
 31
0.0
  0
LINE
  5
4CA
100
AcDbEntity
  8
DRAFT
100
AcDbLine
 62
7
  6
CONTINUOUS
 10
-64.3375443182
 20
1.35
 30
0.0
 11
-63.8362830582
 21
1.35
 31
0.0
  0
LINE
  5
4CB
100
AcDbEntity
  8
0
100
AcDbLine
 62
250
  6
CONTINUOUS
 10
-51.8678750731
 20
3.8
 30
0.0
 11
-53.7678750731
 21
3.8
 31
0.0
  0
LINE
  5
4CC
100
AcDbEntity
  8
RACCORDO
100
AcDbLine
 62
7
  6
CONTINUOUS
 10
-35.8591488699
 20
3.4127559394
 30
0.0
 11
-46.221662003
 21
3.454720171
 31
0.0
  0
LINE
  5
4CD
100
AcDbEntity
  8
ASSI
100
AcDbLine
 62
7
  6
CONTINUOUS
 10
-35.8591488699
 20
3.4127559394
 30
0.0
 11
-46.221662003
 21
3.454720171
 31
0.0
  0
LINE
  5
4CE
100
AcDbEntity
  8
SUPERFICI
100
AcDbLine
 62
7
  6
CONTINUOUS
 10
-35.8591488699
 20
3.4127559394
 30
0.0
 11
-46.221662003
 21
3.454720171
 31
0.0
  0
LINE
  5
4CF
100
AcDbEntity
  8
DRAFT
100
AcDbLine
 62
7
  6
CONTINUOUS
 10
-36.8678750731
 20
3.7630903017
 30
0.0
 11
-46.2184495946
 21
3.8228257137
 31
0.0
  0
LINE
  5
4D0
100
AcDbEntity
  8
ASSI
100
AcDbLine
 62
7
  6
CONTINUOUS
 10
-36.8678750731
 20
3.7630903017
 30
0.0
 11
-46.2184495946
 21
3.8228257137
 31
0.0
  0
LINE
  5
4D1
100
AcDbEntity
  8
SUPERFICI
100
AcDbLine
 62
7
  6
CONTINUOUS
 10
-36.8678750731
 20
3.7630903017
 30
0.0
 11
-46.2184495946
 21
3.8228257137
 31
0.0
  0
LINE
  5
4D2
100
AcDbEntity
  8
RACCORDO
100
AcDbLine
 62
7
  6
CONTINUOUS
 10
-42.166129766
 20
0.6086095107
 30
0.0
 11
-46.4179548567
 21
0.6457146262
 31
0.0
  0
LINE
  5
4D3
100
AcDbEntity
  8
DRAFT
100
AcDbLine
 62
7
  6
CONTINUOUS
 10
-35.3678750731
 20
3.75
 30
0.0
 11
-36.8678750731
 21
3.7630903017
 31
0.0
  0
LINE
  5
4D4
100
AcDbEntity
  8
ASSI
100
AcDbLine
 62
7
  6
CONTINUOUS
 10
-35.3678750731
 20
3.75
 30
0.0
 11
-36.8678750731
 21
3.7630903017
 31
0.0
  0
LINE
  5
4D5
100
AcDbEntity
  8
SUPERFICI
100
AcDbLine
 62
7
  6
CONTINUOUS
 10
-35.3678750731
 20
3.75
 30
0.0
 11
-36.8678750731
 21
3.7630903017
 31
0.0
  0
LINE
  5
4D6
100
AcDbEntity
  8
0
100
AcDbLine
 62
250
  6
CONTINUOUS
 10
-40.3678760731
 20
-15.0
 30
0.0
 11
-38.8678750731
 21
-17.529587
 31
0.0
  0
LINE
  5
4D7
100
AcDbEntity
  8
0
100
AcDbLine
 62
250
  6
CONTINUOUS
 10
-52.3202560269
 20
-2.415
 30
0.0
 11
-52.4559703328
 21
-2.0169042873
 31
0.0
  0
LINE
  5
4D8
100
AcDbEntity
  8
DRAFT
100
AcDbLine
 62
250
  6
CONTINUOUS
 10
-46.2184495946
 20
-3.8228257137
 30
0.0
 11
-46.221662003
 21
-3.454720171
 31
0.0
  0
LINE
  5
4D9
100
AcDbEntity
  8
ASSI
100
AcDbLine
 62
250
  6
CONTINUOUS
 10
-46.2184495946
 20
-3.8228257137
 30
0.0
 11
-46.221662003
 21
-3.454720171
 31
0.0
  0
LINE
  5
4DA
100
AcDbEntity
  8
SUPERFICI
100
AcDbLine
 62
250
  6
CONTINUOUS
 10
-46.2184495946
 20
-3.8228257137
 30
0.0
 11
-46.221662003
 21
-3.454720171
 31
0.0
  0
LINE
  5
4DB
100
AcDbEntity
  8
DRAFT
100
AcDbLine
 62
250
  6
CONTINUOUS
 10
-46.2184495946
 20
0.6771742863
 30
0.0
 11
-46.221662003
 21
1.045279829
 31
0.0
  0
LINE
  5
4DC
100
AcDbEntity
  8
ASSI
100
AcDbLine
 62
250
  6
CONTINUOUS
 10
-46.2184495946
 20
0.6771742863
 30
0.0
 11
-46.221662003
 21
1.045279829
 31
0.0
  0
LINE
  5
4DD
100
AcDbEntity
  8
SUPERFICI
100
AcDbLine
 62
250
  6
CONTINUOUS
 10
-46.2184495946
 20
0.6771742863
 30
0.0
 11
-46.221662003
 21
1.045279829
 31
0.0
  0
LINE
  5
4DE
100
AcDbEntity
  8
DRAFT
100
AcDbLine
 62
250
  6
CONTINUOUS
 10
-46.2184495946
 20
5.1771742863
 30
0.0
 11
-46.221662003
 21
5.545279829
 31
0.0
  0
LINE
  5
4DF
100
AcDbEntity
  8
ASSI
100
AcDbLine
 62
250
  6
CONTINUOUS
 10
-46.2184495946
 20
5.1771742863
 30
0.0
 11
-46.221662003
 21
5.545279829
 31
0.0
  0
LINE
  5
4E0
100
AcDbEntity
  8
SUPERFICI
100
AcDbLine
 62
250
  6
CONTINUOUS
 10
-46.2184495946
 20
5.1771742863
 30
0.0
 11
-46.221662003
 21
5.545279829
 31
0.0
  0
LINE
  5
4E1
100
AcDbEntity
  8
0
100
AcDbLine
 62
250
  6
CONTINUOUS
 10
-49.5535890731
 20
4.104
 30
0.0
 11
-49.5535890731
 21
4.408
 31
0.0
  0
LINE
  5
4E2
100
AcDbEntity
  8
0
100
AcDbLine
 62
250
  6
CONTINUOUS
 10
-48.8750180731
 20
16.564
 30
0.0
 11
-48.8750180731
 21
15.5
 31
0.0
  0
LINE
  5
4E3
100
AcDbEntity
  8
0
100
AcDbLine
 62
250
  6
CONTINUOUS
 10
-48.4678750731
 20
14.8
 30
0.0
 11
-48.4678750731
 21
11.945448
 31
0.0
  0
LINE
  5
4E4
100
AcDbEntity
  8
0
100
AcDbLine
 62
250
  6
CONTINUOUS
 10
-48.4678750731
 20
4.56
 30
0.0
 11
-48.4678750731
 21
3.8
 31
0.0
  0
LINE
  5
4E5
100
AcDbEntity
  8
0
100
AcDbLine
 62
250
  6
CONTINUOUS
 10
-48.4678750731
 20
5.8
 30
0.0
 11
-48.4678750731
 21
8.945448
 31
0.0
  0
LINE
  5
4E6
100
AcDbEntity
  8
DRAFT
100
AcDbLine
 62
250
  6
CONTINUOUS
 10
-47.8591488699
 20
-21.6096130956
 30
0.0
 11
-47.8591488699
 21
-20.9829813964
 31
0.0
  0
LINE
  5
4E7
100
AcDbEntity
  8
DRAFT
100
AcDbLine
 62
250
  6
CONTINUOUS
 10
-47.8591488699
 20
20.9829813964
 30
0.0
 11
-47.8591488699
 21
21.6096130956
 31
0.0
  0
LINE
  5
4E8
100
AcDbEntity
  8
DRAFT
100
AcDbLine
 62
7
  6
CONTINUOUS
 10
-47.3678750731
 20
-21.3272602039
 30
0.0
 11
-47.3678750731
 21
-20.85
 31
0.0
  0
LINE
  5
4E9
100
AcDbEntity
  8
RACCORDO
100
AcDbLine
 62
7
  6
CONTINUOUS
 10
-47.3678750731
 20
-20.85
 30
0.0
 11
-47.3678750731
 21
-19.3181305591
 31
0.0
  0
LINE
  5
4EA
100
AcDbEntity
  8
ASSI
100
AcDbLine
 62
7
  6
CONTINUOUS
 10
-47.3678750731
 20
-20.85
 30
0.0
 11
-47.3678750731
 21
-19.3181305591
 31
0.0
  0
LINE
  5
4EB
100
AcDbEntity
  8
SUPERFICI
100
AcDbLine
 62
7
  6
CONTINUOUS
 10
-47.3678750731
 20
-20.85
 30
0.0
 11
-47.3678750731
 21
-19.3181305591
 31
0.0
  0
LINE
  5
4EC
100
AcDbEntity
  8
RACCORDO
100
AcDbLine
 62
7
  6
CONTINUOUS
 10
-47.3678750731
 20
19.3181305591
 30
0.0
 11
-47.3678750731
 21
20.85
 31
0.0
  0
LINE
  5
4ED
100
AcDbEntity
  8
ASSI
100
AcDbLine
 62
7
  6
CONTINUOUS
 10
-47.3678750731
 20
19.3181305591
 30
0.0
 11
-47.3678750731
 21
20.85
 31
0.0
  0
LINE
  5
4EE
100
AcDbEntity
  8
SUPERFICI
100
AcDbLine
 62
7
  6
CONTINUOUS
 10
-47.3678750731
 20
19.3181305591
 30
0.0
 11
-47.3678750731
 21
20.85
 31
0.0
  0
LINE
  5
4EF
100
AcDbEntity
  8
DRAFT
100
AcDbLine
 62
7
  6
CONTINUOUS
 10
-47.3678750731
 20
20.85
 30
0.0
 11
-47.3678750731
 21
21.3272602039
 31
0.0
  0
LINE
  5
4F0
100
AcDbEntity
  8
RACCORDO
100
AcDbLine
 62
250
  6
CONTINUOUS
 10
-46.666129766
 20
5.004064288
 30
0.0
 11
-46.666129766
 21
3.995935712
 31
0.0
  0
LINE
  5
4F1
100
AcDbEntity
  8
RACCORDO
100
AcDbLine
 62
250
  6
CONTINUOUS
 10
-46.666129766
 20
-3.995935712
 30
0.0
 11
-46.666129766
 21
-5.004064288
 31
0.0
  0
LINE
  5
4F2
100
AcDbEntity
  8
RACCORDO
100
AcDbLine
 62
7
  6
CONTINUOUS
 10
-46.5678750731
 20
5.0772565934
 30
0.0
 11
-46.5678750731
 21
3.9227434066
 31
0.0
  0
LINE
  5
4F3
100
AcDbEntity
  8
ASSI
100
AcDbLine
 62
7
  6
CONTINUOUS
 10
-46.5678750731
 20
5.0772565934
 30
0.0
 11
-46.5678750731
 21
3.9227434066
 31
0.0
  0
LINE
  5
4F4
100
AcDbEntity
  8
SUPERFICI
100
AcDbLine
 62
7
  6
CONTINUOUS
 10
-46.5678750731
 20
5.0772565934
 30
0.0
 11
-46.5678750731
 21
3.9227434066
 31
0.0
  0
LINE
  5
4F5
100
AcDbEntity
  8
RACCORDO
100
AcDbLine
 62
7
  6
CONTINUOUS
 10
-46.5678750731
 20
-3.9227434066
 30
0.0
 11
-46.5678750731
 21
-5.0772565934
 31
0.0
  0
LINE
  5
4F6
100
AcDbEntity
  8
ASSI
100
AcDbLine
 62
7
  6
CONTINUOUS
 10
-46.5678750731
 20
-3.9227434066
 30
0.0
 11
-46.5678750731
 21
-5.0772565934
 31
0.0
  0
LINE
  5
4F7
100
AcDbEntity
  8
SUPERFICI
100
AcDbLine
 62
7
  6
CONTINUOUS
 10
-46.5678750731
 20
-3.9227434066
 30
0.0
 11
-46.5678750731
 21
-5.0772565934
 31
0.0
  0
LINE
  5
4F8
100
AcDbEntity
  8
DRAFT
100
AcDbLine
 62
250
  6
CONTINUOUS
 10
-46.2184495946
 20
3.8228257137
 30
0.0
 11
-46.221662003
 21
3.454720171
 31
0.0
  0
LINE
  5
4F9
100
AcDbEntity
  8
ASSI
100
AcDbLine
 62
250
  6
CONTINUOUS
 10
-46.2184495946
 20
3.8228257137
 30
0.0
 11
-46.221662003
 21
3.454720171
 31
0.0
  0
LINE
  5
4FA
100
AcDbEntity
  8
SUPERFICI
100
AcDbLine
 62
250
  6
CONTINUOUS
 10
-46.2184495946
 20
3.8228257137
 30
0.0
 11
-46.221662003
 21
3.454720171
 31
0.0
  0
LINE
  5
4FB
100
AcDbEntity
  8
DRAFT
100
AcDbLine
 62
250
  6
CONTINUOUS
 10
-46.2184495946
 20
-0.6771742863
 30
0.0
 11
-46.221662003
 21
-1.045279829
 31
0.0
  0
LINE
  5
4FC
100
AcDbEntity
  8
ASSI
100
AcDbLine
 62
250
  6
CONTINUOUS
 10
-46.2184495946
 20
-0.6771742863
 30
0.0
 11
-46.221662003
 21
-1.045279829
 31
0.0
  0
LINE
  5
4FD
100
AcDbEntity
  8
SUPERFICI
100
AcDbLine
 62
250
  6
CONTINUOUS
 10
-46.2184495946
 20
-0.6771742863
 30
0.0
 11
-46.221662003
 21
-1.045279829
 31
0.0
  0
LINE
  5
4FE
100
AcDbEntity
  8
DRAFT
100
AcDbLine
 62
250
  6
CONTINUOUS
 10
-46.2184495946
 20
-5.1771742863
 30
0.0
 11
-46.221662003
 21
-5.545279829
 31
0.0
  0
LINE
  5
4FF
100
AcDbEntity
  8
ASSI
100
AcDbLine
 62
250
  6
CONTINUOUS
 10
-46.2184495946
 20
-5.1771742863
 30
0.0
 11
-46.221662003
 21
-5.545279829
 31
0.0
  0
LINE
  5
500
100
AcDbEntity
  8
SUPERFICI
100
AcDbLine
 62
250
  6
CONTINUOUS
 10
-46.2184495946
 20
-5.1771742863
 30
0.0
 11
-46.221662003
 21
-5.545279829
 31
0.0
  0
LINE
  5
501
100
AcDbEntity
  8
0
100
AcDbLine
 62
250
  6
CONTINUOUS
 10
-37.3678750731
 20
11.420448
 30
0.0
 11
-37.582160797
 21
11.18473363
 31
0.0
  0
LINE
  5
502
100
AcDbEntity
  8
0
100
AcDbLine
 62
250
  6
CONTINUOUS
 10
-51.8678750731
 20
-6.1471425724
 30
0.0
 11
-52.1393036567
 21
-6.4457138586
 31
0.0
  0
LINE
  5
503
100
AcDbEntity
  8
0
100
AcDbLine
 62
250
  6
CONTINUOUS
 10
-52.9535894074
 20
-7.4907138586
 30
0.0
 11
-52.6821607955
 21
-7.1921425724
 31
0.0
  0
LINE
  5
504
100
AcDbEntity
  8
0
100
AcDbLine
 62
250
  6
CONTINUOUS
 10
-53.4964465179
 20
-8.685
 30
0.0
 11
-53.7678750731
 21
-8.9835712862
 31
0.0
  0
LINE
  5
505
100
AcDbEntity
  8
0
100
AcDbLine
 62
250
  6
CONTINUOUS
 10
-53.4964465179
 20
-5.6992861414
 30
0.0
 11
-53.2250179626
 21
-5.55
 31
0.0
  0
LINE
  5
506
100
AcDbEntity
  8
0
100
AcDbLine
 62
250
  6
CONTINUOUS
 10
-52.1393036567
 20
-6.4457138586
 30
0.0
 11
-52.4107322403
 21
-6.595
 31
0.0
  0
LINE
  5
507
100
AcDbEntity
  8
0
100
AcDbLine
 62
250
  6
CONTINUOUS
 10
-51.8678750731
 20
-4.3557138586
 30
0.0
 11
-53.7678750731
 21
-4.9528574276
 31
0.0
  0
LINE
  5
508
100
AcDbEntity
  8
DRAFT
100
AcDbLine
 62
7
  6
CONTINUOUS
 10
-36.8678750731
 20
5.2369096983
 30
0.0
 11
-35.3678750731
 21
5.25
 31
0.0
  0
LINE
  5
509
100
AcDbEntity
  8
ASSI
100
AcDbLine
 62
7
  6
CONTINUOUS
 10
-36.8678750731
 20
5.2369096983
 30
0.0
 11
-35.3678750731
 21
5.25
 31
0.0
  0
LINE
  5
50A
100
AcDbEntity
  8
SUPERFICI
100
AcDbLine
 62
7
  6
CONTINUOUS
 10
-36.8678750731
 20
5.2369096983
 30
0.0
 11
-35.3678750731
 21
5.25
 31
0.0
  0
LINE
  5
50B
100
AcDbEntity
  8
DRAFT
100
AcDbLine
 62
7
  6
CONTINUOUS
 10
-36.8678750731
 20
5.2369096983
 30
0.0
 11
-46.2184495946
 21
5.1771742863
 31
0.0
  0
LINE
  5
50C
100
AcDbEntity
  8
ASSI
100
AcDbLine
 62
7
  6
CONTINUOUS
 10
-36.8678750731
 20
5.2369096983
 30
0.0
 11
-46.2184495946
 21
5.1771742863
 31
0.0
  0
LINE
  5
50D
100
AcDbEntity
  8
SUPERFICI
100
AcDbLine
 62
7
  6
CONTINUOUS
 10
-36.8678750731
 20
5.2369096983
 30
0.0
 11
-46.2184495946
 21
5.1771742863
 31
0.0
  0
LINE
  5
50E
100
AcDbEntity
  8
RACCORDO
100
AcDbLine
 62
7
  6
CONTINUOUS
 10
-46.221662003
 20
5.545279829
 30
0.0
 11
-35.8591488699
 21
5.5872440606
 31
0.0
  0
LINE
  5
50F
100
AcDbEntity
  8
ASSI
100
AcDbLine
 62
7
  6
CONTINUOUS
 10
-46.221662003
 20
5.545279829
 30
0.0
 11
-35.8591488699
 21
5.5872440606
 31
0.0
  0
LINE
  5
510
100
AcDbEntity
  8
SUPERFICI
100
AcDbLine
 62
7
  6
CONTINUOUS
 10
-46.221662003
 20
5.545279829
 30
0.0
 11
-35.8591488699
 21
5.5872440606
 31
0.0
  0
LINE
  5
511
100
AcDbEntity
  8
0
100
AcDbLine
 62
250
  6
CONTINUOUS
 10
-50.0964460731
 20
4.661333
 30
0.0
 11
-49.6893040731
 21
4.661333
 31
0.0
  0
LINE
  5
512
100
AcDbEntity
  8
0
100
AcDbLine
 62
250
  6
CONTINUOUS
 10
-49.2821610731
 20
4.712
 30
0.0
 11
-48.6035890731
 21
4.712
 31
0.0
  0
LINE
  5
513
100
AcDbEntity
  8
DRAFT
100
AcDbLine
 62
7
  6
CONTINUOUS
 10
-33.6417283503
 20
4.6489817302
 30
0.0
 11
-34.6678750731
 21
4.7387579355
 31
0.0
  0
LINE
  5
514
100
AcDbEntity
  8
ASSI
100
AcDbLine
 62
7
  6
CONTINUOUS
 10
-33.6417283503
 20
4.6489817302
 30
0.0
 11
-34.6678750731
 21
4.7387579355
 31
0.0
  0
LINE
  5
515
100
AcDbEntity
  8
SUPERFICI
100
AcDbLine
 62
7
  6
CONTINUOUS
 10
-33.6417283503
 20
4.6489817302
 30
0.0
 11
-34.6678750731
 21
4.7387579355
 31
0.0
  0
LINE
  5
516
100
AcDbEntity
  8
0
100
AcDbLine
 62
250
  6
CONTINUOUS
 10
-48.6035890731
 20
4.712
 30
0.0
 11
-48.4678750731
 21
4.56
 31
0.0
  0
LINE
  5
517
100
AcDbEntity
  8
0
100
AcDbLine
 62
250
  6
CONTINUOUS
 10
-37.3678740731
 20
-15.0
 30
0.0
 11
-38.8678750731
 21
-12.470413
 31
0.0
  0
LINE
  5
518
100
AcDbEntity
  8
0
100
AcDbLine
 62
250
  6
CONTINUOUS
 10
-53.7678750731
 20
12.090897
 30
0.0
 11
-51.8678750731
 21
8.8
 31
0.0
  0
LINE
  5
519
100
AcDbEntity
  8
0
100
AcDbLine
 62
250
  6
CONTINUOUS
 10
-49.6893040731
 20
4.661333
 30
0.0
 11
-49.5535890731
 21
4.408
 31
0.0
  0
LINE
  5
51A
100
AcDbEntity
  8
RACCORDO
100
AcDbLine
 62
250
  6
CONTINUOUS
 10
-45.166129766
 20
-0.683896949
 30
0.0
 11
-45.166129766
 21
-0.6347901141
 31
0.0
  0
LINE
  5
51B
100
AcDbEntity
  8
RACCORDO
100
AcDbLine
 62
7
  6
CONTINUOUS
 10
-44.9678750731
 20
-0.6851634836
 30
0.0
 11
-44.9678750731
 21
-0.6330599716
 31
0.0
  0
LINE
  5
51C
100
AcDbEntity
  8
0
100
AcDbLine
 62
250
  6
CONTINUOUS
 10
-44.8678750731
 20
10.9490194567
 30
0.0
 11
-44.8678750731
 21
10.2418765433
 31
0.0
  0
LINE
  5
51D
100
AcDbEntity
  8
0
100
AcDbLine
 62
250
  6
CONTINUOUS
 10
-44.8678750731
 20
9.5347337283
 30
0.0
 11
-44.8678750731
 21
9.1811622963
 31
0.0
  0
LINE
  5
51E
100
AcDbEntity
  8
0
100
AcDbLine
 62
7
  6
CONTINUOUS
 10
-44.8678750731
 20
-0.6858023257
 30
0.0
 11
-44.8678750731
 21
-0.6321872848
 31
0.0
  0
LINE
  5
51F
100
AcDbEntity
  8
0
100
AcDbLine
 62
250
  6
CONTINUOUS
 10
-44.8678750731
 20
11.7740194567
 30
0.0
 11
-44.8678750731
 21
11.8918765433
 31
0.0
  0
LINE
  5
520
100
AcDbEntity
  8
0
100
AcDbLine
 62
7
  6
CONTINUOUS
 10
-44.3678750731
 20
-0.6889965365
 30
0.0
 11
-44.3678750731
 21
-0.6278238509
 31
0.0
  0
LINE
  5
521
100
AcDbEntity
  8
0
100
AcDbLine
 62
250
  6
CONTINUOUS
 10
-44.2250179686
 20
10.2418765433
 30
0.0
 11
-44.2250179686
 21
10.7133050867
 31
0.0
  0
LINE
  5
522
100
AcDbEntity
  8
0
100
AcDbLine
 62
250
  6
CONTINUOUS
 10
-43.3678750731
 20
11.8918765433
 30
0.0
 11
-43.3678750731
 21
11.7740194567
 31
0.0
  0
LINE
  5
523
100
AcDbEntity
  8
0
100
AcDbLine
 62
250
  6
CONTINUOUS
 10
-43.3678750731
 20
10.7133050867
 30
0.0
 11
-43.3678750731
 21
10.2418765433
 31
0.0
  0
LINE
  5
524
100
AcDbEntity
  8
0
100
AcDbLine
 62
250
  6
CONTINUOUS
 10
-43.3678750731
 20
9.770448
 30
0.0
 11
-43.3678750731
 21
8.945448
 31
0.0
  0
LINE
  5
525
100
AcDbEntity
  8
0
100
AcDbLine
 62
250
  6
CONTINUOUS
 10
-40.3678750731
 20
10.7133050867
 30
0.0
 11
-40.4750179351
 21
10.477590815
 31
0.0
  0
LINE
  5
526
100
AcDbEntity
  8
0
100
AcDbLine
 62
250
  6
CONTINUOUS
 10
-53.7678750731
 20
-14.2085714108
 30
0.0
 11
-53.4964465179
 21
-13.91
 31
0.0
  0
LINE
  5
527
100
AcDbEntity
  8
0
100
AcDbLine
 62
250
  6
CONTINUOUS
 10
-51.8678750731
 20
-14.3578571784
 30
0.0
 11
-52.1393036567
 21
-14.6564285892
 31
0.0
  0
LINE
  5
528
100
AcDbEntity
  8
0
100
AcDbLine
 62
250
  6
CONTINUOUS
 10
-37.3678750731
 20
8.945448
 30
0.0
 11
-38.8678750731
 21
8.945448
 31
0.0
  0
LINE
  5
529
100
AcDbEntity
  8
0
100
AcDbLine
 62
250
  6
CONTINUOUS
 10
-40.3678750731
 20
8.945448
 30
0.0
 11
-41.4393036701
 21
8.945448
 31
0.0
  0
LINE
  5
52A
100
AcDbEntity
  8
0
100
AcDbLine
 62
250
  6
CONTINUOUS
 10
-53.8178750731
 20
9.445448
 30
0.0
 11
-54.8178750731
 21
9.445448
 31
0.0
  0
LINE
  5
52B
100
AcDbEntity
  8
0
100
AcDbLine
 62
250
  6
CONTINUOUS
 10
-40.3678750731
 20
9.4561623044
 30
0.0
 11
-41.4393036701
 21
9.4561623044
 31
0.0
  0
LINE
  5
52C
100
AcDbEntity
  8
0
100
AcDbLine
 62
250
  6
CONTINUOUS
 10
-44.4393036701
 20
9.770448
 30
0.0
 11
-44.6535893716
 21
9.770448
 31
0.0
  0
LINE
  5
52D
100
AcDbEntity
  8
0
100
AcDbLine
 62
250
  6
CONTINUOUS
 10
-41.3321607747
 20
10.0061622717
 30
0.0
 11
-40.3678750731
 21
10.0061622717
 31
0.0
  0
LINE
  5
52E
100
AcDbEntity
  8
0
100
AcDbLine
 62
250
  6
CONTINUOUS
 10
-44.8678750731
 20
10.2418765433
 30
0.0
 11
-44.2250179686
 21
10.2418765433
 31
0.0
  0
LINE
  5
52F
100
AcDbEntity
  8
0
100
AcDbLine
 62
250
  6
CONTINUOUS
 10
-54.8178750731
 20
10.445448
 30
0.0
 11
-54.3178750731
 21
10.445448
 31
0.0
  0
LINE
  5
530
100
AcDbEntity
  8
0
100
AcDbLine
 62
250
  6
CONTINUOUS
 10
-53.7678750731
 20
10.445448
 30
0.0
 11
-52.8178750731
 21
10.445448
 31
0.0
  0
LINE
  5
531
100
AcDbEntity
  8
0
100
AcDbLine
 62
250
  6
CONTINUOUS
 10
-40.4750179351
 20
10.477590815
 30
0.0
 11
-40.7964465209
 21
10.477590815
 31
0.0
  0
LINE
  5
532
100
AcDbEntity
  8
0
100
AcDbLine
 62
250
  6
CONTINUOUS
 10
-38.8678750731
 20
10.595448
 30
0.0
 11
-37.3678750731
 21
10.595448
 31
0.0
  0
LINE
  5
533
100
AcDbEntity
  8
0
100
AcDbLine
 62
250
  6
CONTINUOUS
 10
-44.0107322224
 20
10.9490194567
 30
0.0
 11
-43.582160797
 21
10.9490194567
 31
0.0
  0
LINE
  5
534
100
AcDbEntity
  8
0
100
AcDbLine
 62
250
  6
CONTINUOUS
 10
-37.7964465209
 20
11.0668765433
 30
0.0
 11
-38.4393036701
 21
11.0668765433
 31
0.0
  0
LINE
  5
535
100
AcDbEntity
  8
0
100
AcDbLine
 62
250
  6
CONTINUOUS
 10
-41.2250179686
 20
11.18473363
 30
0.0
 11
-40.3678750731
 21
11.18473363
 31
0.0
  0
LINE
  5
536
100
AcDbEntity
  8
0
100
AcDbLine
 62
250
  6
CONTINUOUS
 10
-43.7964465209
 20
11.420448
 30
0.0
 11
-44.4393036701
 21
11.420448
 31
0.0
  0
LINE
  5
537
100
AcDbEntity
  8
0
100
AcDbLine
 62
250
  6
CONTINUOUS
 10
-54.8178750731
 20
11.445448
 30
0.0
 11
-53.8178750731
 21
11.445448
 31
0.0
  0
LINE
  5
538
100
AcDbEntity
  8
RACCORDO
100
AcDbLine
 62
250
  6
CONTINUOUS
 10
-69.9907956589
 20
9.4905
 30
0.0
 11
-70.477616926
 21
9.5
 31
0.0
  0
LINE
  5
539
100
AcDbEntity
  8
0
100
AcDbLine
 62
250
  6
CONTINUOUS
 10
-47.4072150731
 20
9.384788
 30
0.0
 11
-49.5285350731
 21
11.506108
 31
0.0
  0
LINE
  5
53A
100
AcDbEntity
  8
0
100
AcDbLine
 62
250
  6
CONTINUOUS
 10
-53.2278750731
 20
15.495194
 30
0.0
 11
-53.7678750731
 21
16.1
 31
0.0
  0
LINE
  5
53B
100
AcDbEntity
  8
RACCORDO
100
AcDbLine
 62
250
  6
CONTINUOUS
 10
-42.166129766
 20
0.7030622137
 30
0.0
 11
-42.166129766
 21
0.6086095107
 31
0.0
  0
LINE
  5
53C
100
AcDbEntity
  8
RACCORDO
100
AcDbLine
 62
7
  6
CONTINUOUS
 10
-41.9678750731
 20
-0.4086171261
 30
0.0
 11
-41.9678750731
 21
0.7043287483
 31
0.0
  0
LINE
  5
53D
100
AcDbEntity
  8
DRAFT
100
AcDbLine
 62
7
  6
CONTINUOUS
 10
-41.6678750731
 20
0.0837843117
 30
0.0
 11
-41.6678750731
 21
0.7062452748
 31
0.0
  0
LINE
  5
53E
100
AcDbEntity
  8
ASSI
100
AcDbLine
 62
7
  6
CONTINUOUS
 10
-41.6678750731
 20
0.0837843117
 30
0.0
 11
-41.6678750731
 21
0.7062452748
 31
0.0
  0
LINE
  5
53F
100
AcDbEntity
  8
SUPERFICI
100
AcDbLine
 62
7
  6
CONTINUOUS
 10
-41.6678750731
 20
0.0837843117
 30
0.0
 11
-41.6678750731
 21
0.7062452748
 31
0.0
  0
LINE
  5
540
100
AcDbEntity
  8
0
100
AcDbLine
 62
250
  6
CONTINUOUS
 10
-41.4393036701
 20
8.945448
 30
0.0
 11
-41.4393036701
 21
9.888305185
 31
0.0
  0
LINE
  5
541
100
AcDbEntity
  8
0
100
AcDbLine
 62
250
  6
CONTINUOUS
 10
-41.4393036701
 20
10.477590815
 30
0.0
 11
-41.4393036701
 21
11.0668765433
 31
0.0
  0
LINE
  5
542
100
AcDbEntity
  8
RACCORDO
100
AcDbLine
 62
7
  6
CONTINUOUS
 10
-41.1678750731
 20
0.0750567792
 30
0.0
 11
-41.1678750731
 21
-0.7094394856
 31
0.0
  0
LINE
  5
543
100
AcDbEntity
  8
0
100
AcDbLine
 62
250
  6
CONTINUOUS
 10
-40.9035893716
 20
10.7133050867
 30
0.0
 11
-40.9035893716
 21
11.18473363
 31
0.0
  0
LINE
  5
544
100
AcDbEntity
  8
0
100
AcDbLine
 62
250
  6
CONTINUOUS
 10
-40.8868325445
 20
-5.998691
 30
0.0
 11
-40.8868325445
 21
-7.109735
 31
0.0
  0
LINE
  5
545
100
AcDbEntity
  8
0
100
AcDbLine
 62
250
  6
CONTINUOUS
 10
-40.8868325445
 20
-9.887515
 30
0.0
 11
-40.8868325445
 21
-10.998558
 31
0.0
  0
LINE
  5
546
100
AcDbEntity
  8
0
100
AcDbLine
 62
250
  6
CONTINUOUS
 10
-40.8868325445
 20
-9.332166
 30
0.0
 11
-40.8868325445
 21
-7.665429
 31
0.0
  0
LINE
  5
547
100
AcDbEntity
  8
0
100
AcDbLine
 62
250
  6
CONTINUOUS
 10
-40.3678750731
 20
11.18473363
 30
0.0
 11
-40.3678750731
 21
10.7133050867
 31
0.0
  0
LINE
  5
548
100
AcDbEntity
  8
0
100
AcDbLine
 62
250
  6
CONTINUOUS
 10
-40.331479749
 20
-10.443209
 30
0.0
 11
-40.331479749
 21
-9.887515
 31
0.0
  0
LINE
  5
549
100
AcDbEntity
  8
0
100
AcDbLine
 62
250
  6
CONTINUOUS
 10
-40.331479749
 20
-8.776472
 30
0.0
 11
-40.331479749
 21
-8.220778
 31
0.0
  0
LINE
  5
54A
100
AcDbEntity
  8
0
100
AcDbLine
 62
250
  6
CONTINUOUS
 10
-40.331479749
 20
-6.554385
 30
0.0
 11
-40.331479749
 21
-5.998691
 31
0.0
  0
LINE
  5
54B
100
AcDbEntity
  8
0
100
AcDbLine
 62
250
  6
CONTINUOUS
 10
-39.3116620731
 20
-16.273669
 30
0.0
 11
-39.3116620731
 21
-15.652367
 31
0.0
  0
LINE
  5
54C
100
AcDbEntity
  8
0
100
AcDbLine
 62
250
  6
CONTINUOUS
 10
-39.3116620731
 20
-14.201183
 30
0.0
 11
-39.3116620731
 21
-13.668638
 31
0.0
  0
LINE
  5
54D
100
AcDbEntity
  8
0
100
AcDbLine
 62
250
  6
CONTINUOUS
 10
-38.8678750731
 20
-14.201183
 30
0.0
 11
-38.8678750731
 21
-13.87278
 31
0.0
  0
LINE
  5
54E
100
AcDbEntity
  8
0
100
AcDbLine
 62
250
  6
CONTINUOUS
 10
-38.8678750731
 20
8.945448
 30
0.0
 11
-38.8678750731
 21
9.6525908642
 31
0.0
  0
LINE
  5
54F
100
AcDbEntity
  8
0
100
AcDbLine
 62
250
  6
CONTINUOUS
 10
-38.8678750731
 20
11.420448
 30
0.0
 11
-38.8678750731
 21
11.5383050867
 31
0.0
  0
LINE
  5
550
100
AcDbEntity
  8
0
100
AcDbLine
 62
250
  6
CONTINUOUS
 10
-53.4964465179
 20
-13.91
 30
0.0
 11
-53.2250179626
 21
-13.7607143569
 31
0.0
  0
LINE
  5
551
100
AcDbEntity
  8
0
100
AcDbLine
 62
250
  6
CONTINUOUS
 10
-52.1393036567
 20
-14.6564285892
 30
0.0
 11
-52.4107322403
 21
-14.8057142323
 31
0.0
  0
LINE
  5
552
100
AcDbEntity
  8
0
100
AcDbLine
 62
250
  6
CONTINUOUS
 10
-53.7678750731
 20
-12.5664284647
 30
0.0
 11
-51.8678750731
 21
-11.9692856431
 31
0.0
  0
LINE
  5
553
100
AcDbEntity
  8
0
100
AcDbLine
 62
250
  6
CONTINUOUS
 10
-40.3678750731
 20
15.4275909133
 30
0.0
 11
-41.8678750731
 21
15.07401926
 31
0.0
  0
LINE
  5
554
100
AcDbEntity
  8
0
100
AcDbLine
 62
250
  6
CONTINUOUS
 10
-38.4393036701
 20
11.8918765433
 30
0.0
 11
-37.7964465209
 21
11.8918765433
 31
0.0
  0
LINE
  5
555
100
AcDbEntity
  8
0
100
AcDbLine
 62
250
  6
CONTINUOUS
 10
-44.4393036701
 20
12.245448
 30
0.0
 11
-43.7964465209
 21
12.245448
 31
0.0
  0
LINE
  5
556
100
AcDbEntity
  8
0
100
AcDbLine
 62
250
  6
CONTINUOUS
 10
-41.8678750731
 20
14.6025909133
 30
0.0
 11
-40.3678750731
 21
14.6025909133
 31
0.0
  0
LINE
  5
557
100
AcDbEntity
  8
DRAFT
100
AcDbLine
 62
7
  6
CONTINUOUS
 10
-33.6417283503
 20
11.2989817302
 30
0.0
 11
-35.094021796
 21
11.4260409428
 31
0.0
  0
LINE
  5
558
100
AcDbEntity
  8
ASSI
100
AcDbLine
 62
7
  6
CONTINUOUS
 10
-33.6417283503
 20
11.2989817302
 30
0.0
 11
-35.094021796
 21
11.4260409428
 31
0.0
  0
LINE
  5
559
100
AcDbEntity
  8
SUPERFICI
100
AcDbLine
 62
7
  6
CONTINUOUS
 10
-33.6417283503
 20
11.2989817302
 30
0.0
 11
-35.094021796
 21
11.4260409428
 31
0.0
  0
LINE
  5
55A
100
AcDbEntity
  8
0
100
AcDbLine
 62
250
  6
CONTINUOUS
 10
-44.4393036701
 20
11.420448
 30
0.0
 11
-44.6535893716
 21
11.5383050867
 31
0.0
  0
LINE
  5
55B
100
AcDbEntity
  8
0
100
AcDbLine
 62
250
  6
CONTINUOUS
 10
-44.8678750731
 20
9.1811622963
 30
0.0
 11
-44.5464464762
 21
8.945448
 31
0.0
  0
LINE
  5
55C
100
AcDbEntity
  8
0
100
AcDbLine
 62
250
  6
CONTINUOUS
 10
-43.3678750731
 20
8.945448
 30
0.0
 11
-44.4393036701
 21
9.770448
 31
0.0
  0
LINE
  5
55D
100
AcDbEntity
  8
0
100
AcDbLine
 62
250
  6
CONTINUOUS
 10
-44.6535893716
 20
11.5383050867
 30
0.0
 11
-44.8678750731
 21
11.7740194567
 31
0.0
  0
LINE
  5
55E
100
AcDbEntity
  8
0
100
AcDbLine
 62
250
  6
CONTINUOUS
 10
-43.582160797
 20
10.9490194567
 30
0.0
 11
-43.3678750731
 21
10.7133050867
 31
0.0
  0
LINE
  5
55F
100
AcDbEntity
  8
0
100
AcDbLine
 62
250
  6
CONTINUOUS
 10
-43.8321608045
 20
14.6811624356
 30
0.0
 11
-43.9393036552
 21
14.9561621733
 31
0.0
  0
LINE
  5
560
100
AcDbEntity
  8
0
100
AcDbLine
 62
250
  6
CONTINUOUS
 10
-43.7250179314
 20
15.2704478689
 30
0.0
 11
-43.8321608045
 21
15.5847335644
 31
0.0
  0
LINE
  5
561
100
AcDbEntity
  8
0
100
AcDbLine
 62
250
  6
CONTINUOUS
 10
-38.6654223621
 20
-8.220778
 30
0.0
 11
-38.6654223621
 21
-8.776472
 31
0.0
  0
LINE
  5
562
100
AcDbEntity
  8
0
100
AcDbLine
 62
250
  6
CONTINUOUS
 10
-38.6654223621
 20
-9.887515
 30
0.0
 11
-38.6654223621
 21
-10.443209
 31
0.0
  0
LINE
  5
563
100
AcDbEntity
  8
0
100
AcDbLine
 62
250
  6
CONTINUOUS
 10
-38.4240880731
 20
-13.668638
 30
0.0
 11
-38.4240880731
 21
-14.201183
 31
0.0
  0
LINE
  5
564
100
AcDbEntity
  8
0
100
AcDbLine
 62
250
  6
CONTINUOUS
 10
-38.2250179686
 20
8.945448
 30
0.0
 11
-38.2250179686
 21
9.4168765925
 31
0.0
  0
LINE
  5
565
100
AcDbEntity
  8
0
100
AcDbLine
 62
250
  6
CONTINUOUS
 10
-38.109897619
 20
-8.220778
 30
0.0
 11
-38.109897619
 21
-8.776472
 31
0.0
  0
LINE
  5
566
100
AcDbEntity
  8
0
100
AcDbLine
 62
250
  6
CONTINUOUS
 10
-38.109897619
 20
-10.443209
 30
0.0
 11
-38.109897619
 21
-9.887515
 31
0.0
  0
LINE
  5
567
100
AcDbEntity
  8
0
100
AcDbLine
 62
250
  6
CONTINUOUS
 10
-37.3678750731
 20
11.5383050867
 30
0.0
 11
-37.3678750731
 21
11.420448
 31
0.0
  0
LINE
  5
568
100
AcDbEntity
  8
0
100
AcDbLine
 62
250
  6
CONTINUOUS
 10
-37.3678750731
 20
9.6525908642
 30
0.0
 11
-37.3678750731
 21
8.945448
 31
0.0
  0
LINE
  5
569
100
AcDbEntity
  8
0
100
AcDbLine
 62
250
  6
CONTINUOUS
 10
-37.3678750731
 20
-0.7337154875
 30
0.0
 11
-37.3678750731
 21
0.0087275325
 31
0.0
  0
LINE
  5
56A
100
AcDbEntity
  8
DRAFT
100
AcDbLine
 62
7
  6
CONTINUOUS
 10
-36.8678750731
 20
5.2369096983
 30
0.0
 11
-36.8678750731
 21
3.7630903017
 31
0.0
  0
LINE
  5
56B
100
AcDbEntity
  8
ASSI
100
AcDbLine
 62
7
  6
CONTINUOUS
 10
-36.8678750731
 20
5.2369096983
 30
0.0
 11
-36.8678750731
 21
3.7630903017
 31
0.0
  0
LINE
  5
56C
100
AcDbEntity
  8
SUPERFICI
100
AcDbLine
 62
7
  6
CONTINUOUS
 10
-36.8678750731
 20
5.2369096983
 30
0.0
 11
-36.8678750731
 21
3.7630903017
 31
0.0
  0
LINE
  5
56D
100
AcDbEntity
  8
DRAFT
100
AcDbLine
 62
7
  6
CONTINUOUS
 10
-36.8678750731
 20
0.7369096983
 30
0.0
 11
-36.8678750731
 21
-0.7369096983
 31
0.0
  0
LINE
  5
56E
100
AcDbEntity
  8
ASSI
100
AcDbLine
 62
7
  6
CONTINUOUS
 10
-36.8678750731
 20
0.7369096983
 30
0.0
 11
-36.8678750731
 21
-0.7369096983
 31
0.0
  0
LINE
  5
56F
100
AcDbEntity
  8
SUPERFICI
100
AcDbLine
 62
7
  6
CONTINUOUS
 10
-36.8678750731
 20
0.7369096983
 30
0.0
 11
-36.8678750731
 21
-0.7369096983
 31
0.0
  0
LINE
  5
570
100
AcDbEntity
  8
DRAFT
100
AcDbLine
 62
7
  6
CONTINUOUS
 10
-36.8678750731
 20
-3.7630903017
 30
0.0
 11
-36.8678750731
 21
-5.2369096983
 31
0.0
  0
LINE
  5
571
100
AcDbEntity
  8
ASSI
100
AcDbLine
 62
7
  6
CONTINUOUS
 10
-36.8678750731
 20
-3.7630903017
 30
0.0
 11
-36.8678750731
 21
-5.2369096983
 31
0.0
  0
LINE
  5
572
100
AcDbEntity
  8
SUPERFICI
100
AcDbLine
 62
7
  6
CONTINUOUS
 10
-36.8678750731
 20
-3.7630903017
 30
0.0
 11
-36.8678750731
 21
-5.2369096983
 31
0.0
  0
LINE
  5
573
100
AcDbEntity
  8
0
100
AcDbLine
 62
250
  6
CONTINUOUS
 10
-36.4438402322
 20
-5.998691
 30
0.0
 11
-36.4438402322
 21
-6.554385
 31
0.0
  0
LINE
  5
574
100
AcDbEntity
  8
0
100
AcDbLine
 62
250
  6
CONTINUOUS
 10
-36.4438402322
 20
-9.887515
 30
0.0
 11
-36.4438402322
 21
-10.443209
 31
0.0
  0
LINE
  5
575
100
AcDbEntity
  8
0
100
AcDbLine
 62
250
  6
CONTINUOUS
 10
-35.8883154891
 20
-7.665429
 30
0.0
 11
-35.8883154891
 21
-8.220778
 31
0.0
  0
LINE
  5
576
100
AcDbEntity
  8
0
100
AcDbLine
 62
250
  6
CONTINUOUS
 10
-35.8883154891
 20
-8.776472
 30
0.0
 11
-35.8883154891
 21
-9.332166
 31
0.0
  0
LINE
  5
577
100
AcDbEntity
  8
0
100
AcDbLine
 62
250
  6
CONTINUOUS
 10
-35.8883154891
 20
-10.998558
 30
0.0
 11
-35.8883154891
 21
-9.887515
 31
0.0
  0
LINE
  5
578
100
AcDbEntity
  8
0
100
AcDbLine
 62
250
  6
CONTINUOUS
 10
-35.8883154891
 20
-7.109735
 30
0.0
 11
-35.8883154891
 21
-5.998691
 31
0.0
  0
LINE
  5
579
100
AcDbEntity
  8
RACCORDO
100
AcDbLine
 62
250
  6
CONTINUOUS
 10
-35.8591488699
 20
19.117244996
 30
0.0
 11
-35.8591488699
 21
18.9301864485
 31
0.0
  0
LINE
  5
57A
100
AcDbEntity
  8
ASSI
100
AcDbLine
 62
250
  6
CONTINUOUS
 10
-35.8591488699
 20
19.117244996
 30
0.0
 11
-35.8591488699
 21
18.9301864485
 31
0.0
  0
LINE
  5
57B
100
AcDbEntity
  8
SUPERFICI
100
AcDbLine
 62
250
  6
CONTINUOUS
 10
-35.8591488699
 20
19.117244996
 30
0.0
 11
-35.8591488699
 21
18.9301864485
 31
0.0
  0
LINE
  5
57C
100
AcDbEntity
  8
RACCORDO
100
AcDbLine
 62
250
  6
CONTINUOUS
 10
-35.8591488699
 20
17.5161882777
 30
0.0
 11
-35.8591488699
 21
5.5872440606
 31
0.0
  0
LINE
  5
57D
100
AcDbEntity
  8
ASSI
100
AcDbLine
 62
250
  6
CONTINUOUS
 10
-35.8591488699
 20
17.5161882777
 30
0.0
 11
-35.8591488699
 21
5.5872440606
 31
0.0
  0
LINE
  5
57E
100
AcDbEntity
  8
SUPERFICI
100
AcDbLine
 62
250
  6
CONTINUOUS
 10
-35.8591488699
 20
17.5161882777
 30
0.0
 11
-35.8591488699
 21
5.5872440606
 31
0.0
  0
LINE
  5
57F
100
AcDbEntity
  8
RACCORDO
100
AcDbLine
 62
250
  6
CONTINUOUS
 10
-35.8591488699
 20
3.4127559394
 30
0.0
 11
-35.8591488699
 21
1.0872440606
 31
0.0
  0
LINE
  5
580
100
AcDbEntity
  8
ASSI
100
AcDbLine
 62
250
  6
CONTINUOUS
 10
-35.8591488699
 20
3.4127559394
 30
0.0
 11
-35.8591488699
 21
1.0872440606
 31
0.0
  0
LINE
  5
581
100
AcDbEntity
  8
SUPERFICI
100
AcDbLine
 62
250
  6
CONTINUOUS
 10
-35.8591488699
 20
3.4127559394
 30
0.0
 11
-35.8591488699
 21
1.0872440606
 31
0.0
  0
LINE
  5
582
100
AcDbEntity
  8
RACCORDO
100
AcDbLine
 62
250
  6
CONTINUOUS
 10
-35.8591488699
 20
-1.0872440606
 30
0.0
 11
-35.8591488699
 21
-3.4127559394
 31
0.0
  0
LINE
  5
583
100
AcDbEntity
  8
ASSI
100
AcDbLine
 62
250
  6
CONTINUOUS
 10
-35.8591488699
 20
-1.0872440606
 30
0.0
 11
-35.8591488699
 21
-3.4127559394
 31
0.0
  0
LINE
  5
584
100
AcDbEntity
  8
SUPERFICI
100
AcDbLine
 62
250
  6
CONTINUOUS
 10
-35.8591488699
 20
-1.0872440606
 30
0.0
 11
-35.8591488699
 21
-3.4127559394
 31
0.0
  0
LINE
  5
585
100
AcDbEntity
  8
RACCORDO
100
AcDbLine
 62
250
  6
CONTINUOUS
 10
-35.8591488699
 20
-5.5872440606
 30
0.0
 11
-35.8591488699
 21
-17.5161882777
 31
0.0
  0
LINE
  5
586
100
AcDbEntity
  8
ASSI
100
AcDbLine
 62
250
  6
CONTINUOUS
 10
-35.8591488699
 20
-5.5872440606
 30
0.0
 11
-35.8591488699
 21
-17.5161882777
 31
0.0
  0
LINE
  5
587
100
AcDbEntity
  8
SUPERFICI
100
AcDbLine
 62
250
  6
CONTINUOUS
 10
-35.8591488699
 20
-5.5872440606
 30
0.0
 11
-35.8591488699
 21
-17.5161882777
 31
0.0
  0
LINE
  5
588
100
AcDbEntity
  8
RACCORDO
100
AcDbLine
 62
250
  6
CONTINUOUS
 10
-35.8591488699
 20
-18.9301864485
 30
0.0
 11
-35.8591488699
 21
-19.117244996
 31
0.0
  0
LINE
  5
589
100
AcDbEntity
  8
ASSI
100
AcDbLine
 62
250
  6
CONTINUOUS
 10
-35.8591488699
 20
-18.9301864485
 30
0.0
 11
-35.8591488699
 21
-19.117244996
 31
0.0
  0
LINE
  5
58A
100
AcDbEntity
  8
SUPERFICI
100
AcDbLine
 62
250
  6
CONTINUOUS
 10
-35.8591488699
 20
-18.9301864485
 30
0.0
 11
-35.8591488699
 21
-19.117244996
 31
0.0
  0
LINE
  5
58B
100
AcDbEntity
  8
RACCORDO
100
AcDbLine
 62
7
  6
CONTINUOUS
 10
-35.3678750731
 20
18.9101697582
 30
0.0
 11
-35.3678750731
 21
5.25
 31
0.0
  0
LINE
  5
58C
100
AcDbEntity
  8
DRAFT
100
AcDbLine
 62
7
  6
CONTINUOUS
 10
-35.3678750731
 20
5.25
 30
0.0
 11
-35.3678750731
 21
3.75
 31
0.0
  0
LINE
  5
58D
100
AcDbEntity
  8
DRAFT
100
AcDbLine
 62
7
  6
CONTINUOUS
 10
-35.3678750731
 20
0.75
 30
0.0
 11
-35.3678750731
 21
-0.75
 31
0.0
  0
LINE
  5
58E
100
AcDbEntity
  8
DRAFT
100
AcDbLine
 62
7
  6
CONTINUOUS
 10
-35.3678750731
 20
-3.75
 30
0.0
 11
-35.3678750731
 21
-5.25
 31
0.0
  0
LINE
  5
58F
100
AcDbEntity
  8
RACCORDO
100
AcDbLine
 62
7
  6
CONTINUOUS
 10
-35.3678750731
 20
-18.9101697582
 30
0.0
 11
-35.3678750731
 21
-5.25
 31
0.0
  0
LINE
  5
590
100
AcDbEntity
  8
RACCORDO
100
AcDbLine
 62
7
  6
CONTINUOUS
 10
-35.3678750731
 20
-3.75
 30
0.0
 11
-35.3678750731
 21
-0.75
 31
0.0
  0
LINE
  5
591
100
AcDbEntity
  8
RACCORDO
100
AcDbLine
 62
7
  6
CONTINUOUS
 10
-35.3678750731
 20
0.75
 30
0.0
 11
-35.3678750731
 21
3.75
 31
0.0
  0
LINE
  5
592
100
AcDbEntity
  8
ASSI
100
AcDbLine
 62
7
  6
CONTINUOUS
 10
-35.3678750731
 20
-18.9101697582
 30
0.0
 11
-35.3678750731
 21
18.9101697582
 31
0.0
  0
LINE
  5
593
100
AcDbEntity
  8
SUPERFICI
100
AcDbLine
 62
7
  6
CONTINUOUS
 10
-35.3678750731
 20
-18.9101697582
 30
0.0
 11
-35.3678750731
 21
18.9101697582
 31
0.0
  0
LINE
  5
594
100
AcDbEntity
  8
RACCORDO
100
AcDbLine
 62
250
  6
CONTINUOUS
 10
-35.1678750731
 20
5.2578411578
 30
0.0
 11
-35.1678750731
 21
-5.2578411578
 31
0.0
  0
LINE
  5
595
100
AcDbEntity
  8
ASSI
100
AcDbLine
 62
250
  6
CONTINUOUS
 10
-35.1678750731
 20
5.2578411578
 30
0.0
 11
-35.1678750731
 21
-5.2578411578
 31
0.0
  0
LINE
  5
596
100
AcDbEntity
  8
SUPERFICI
100
AcDbLine
 62
250
  6
CONTINUOUS
 10
-35.1678750731
 20
5.2578411578
 30
0.0
 11
-35.1678750731
 21
-5.2578411578
 31
0.0
  0
LINE
  5
597
100
AcDbEntity
  8
RACCORDO
100
AcDbLine
 62
250
  6
CONTINUOUS
 10
-35.0940217568
 20
11.4260409394
 30
0.0
 11
-35.0940217558
 21
5.2739590607
 31
0.0
  0
LINE
  5
598
100
AcDbEntity
  8
ASSI
100
AcDbLine
 62
250
  6
CONTINUOUS
 10
-35.0940217568
 20
11.4260409394
 30
0.0
 11
-35.0940217558
 21
5.2739590607
 31
0.0
  0
LINE
  5
599
100
AcDbEntity
  8
SUPERFICI
100
AcDbLine
 62
250
  6
CONTINUOUS
 10
-35.0940217568
 20
11.4260409394
 30
0.0
 11
-35.0940217558
 21
5.2739590607
 31
0.0
  0
LINE
  5
59A
100
AcDbEntity
  8
RACCORDO
100
AcDbLine
 62
250
  6
CONTINUOUS
 10
-35.0940217568
 20
-5.2739590606
 30
0.0
 11
-35.0940217558
 21
-15.1760409393
 31
0.0
  0
LINE
  5
59B
100
AcDbEntity
  8
SUPERFICI
100
AcDbLine
 62
250
  6
CONTINUOUS
 10
-35.0940217568
 20
-5.2739590606
 30
0.0
 11
-35.0940217558
 21
-15.1760409393
 31
0.0
  0
LINE
  5
59C
100
AcDbEntity
  8
ASSI
100
AcDbLine
 62
250
  6
CONTINUOUS
 10
-35.0940217568
 20
-5.2739590606
 30
0.0
 11
-35.0940217558
 21
-15.1760409393
 31
0.0
  0
LINE
  5
59D
100
AcDbEntity
  8
0
100
AcDbLine
 62
7
  6
CONTINUOUS
 10
-62.3678750731
 20
-23.1226497308
 30
0.0
 11
-63.2428750731
 21
-23.6278312164
 31
0.0
  0
LINE
  5
59E
100
AcDbEntity
  8
0
100
AcDbLine
 62
250
  6
CONTINUOUS
 10
-62.119329506
 20
-23.2669872981
 30
0.0
 11
-63.119329506
 21
-23.8443375673
 31
0.0
  0
LINE
  5
59F
100
AcDbEntity
  8
RACCORDO
100
AcDbLine
 62
250
  6
CONTINUOUS
 10
-62.3678750731
 20
17.7000190385
 30
0.0
 11
-64.0678750731
 21
17.6851833632
 31
0.0
  0
LINE
  5
5A0
100
AcDbEntity
  8
RACCORDO
100
AcDbLine
 62
7
  6
CONTINUOUS
 10
-62.3678750731
 20
18.2
 30
0.0
 11
-64.0678750731
 21
18.1851643248
 31
0.0
  0
LINE
  5
5A1
100
AcDbEntity
  8
DRAFT
100
AcDbLine
 62
7
  6
CONTINUOUS
 10
-62.3678750731
 20
18.35
 30
0.0
 11
-64.0678750731
 21
18.3351643248
 31
0.0
  0
LINE
  5
5A2
100
AcDbEntity
  8
0
100
AcDbLine
 62
7
  6
CONTINUOUS
 10
-59.8678750731
 20
18.5082905244
 30
0.0
 11
-57.3678750731
 21
18.5301076939
 31
0.0
  0
LINE
  5
5A3
100
AcDbEntity
  8
0
100
AcDbLine
 62
250
  6
CONTINUOUS
 10
-53.7678750731
 20
16.1
 30
0.0
 11
-51.8678750731
 21
16.1
 31
0.0
  0
LINE
  5
5A4
100
AcDbEntity
  8
0
100
AcDbLine
 62
250
  6
CONTINUOUS
 10
-49.4178750731
 20
16.209333
 30
0.0
 11
-48.4678750731
 21
16.209333
 31
0.0
  0
LINE
  5
5A5
100
AcDbEntity
  8
RACCORDO
100
AcDbLine
 62
250
  6
CONTINUOUS
 10
-35.3678750731
 20
17.5161882777
 30
0.0
 11
-35.8591488699
 21
17.5161882777
 31
0.0
  0
LINE
  5
5A6
100
AcDbEntity
  8
ASSI
100
AcDbLine
 62
250
  6
CONTINUOUS
 10
-35.3678750731
 20
17.5161882777
 30
0.0
 11
-35.8591488699
 21
17.5161882777
 31
0.0
  0
LINE
  5
5A7
100
AcDbEntity
  8
SUPERFICI
100
AcDbLine
 62
250
  6
CONTINUOUS
 10
-35.3678750731
 20
17.5161882777
 30
0.0
 11
-35.8591488699
 21
17.5161882777
 31
0.0
  0
LINE
  5
5A8
100
AcDbEntity
  8
ASSI
100
AcDbLine
 62
7
  6
CONTINUOUS
 10
-62.8678750731
 20
18.8
 30
0.0
 11
-62.3678750731
 21
18.8
 31
0.0
  0
LINE
  5
5A9
100
AcDbEntity
  8
RACCORDO
100
AcDbLine
 62
250
  6
CONTINUOUS
 10
-35.8591488699
 20
17.5161882777
 30
0.0
 11
-57.3678750731
 21
17.6716990487
 31
0.0
  0
LINE
  5
5AA
100
AcDbEntity
  8
ASSI
100
AcDbLine
 62
250
  6
CONTINUOUS
 10
-35.8591488699
 20
17.5161882777
 30
0.0
 11
-57.3678750731
 21
17.6716990487
 31
0.0
  0
LINE
  5
5AB
100
AcDbEntity
  8
SUPERFICI
100
AcDbLine
 62
250
  6
CONTINUOUS
 10
-35.8591488699
 20
17.5161882777
 30
0.0
 11
-57.3678750731
 21
17.6716990487
 31
0.0
  0
LINE
  5
5AC
100
AcDbEntity
  8
0
100
AcDbLine
 62
250
  6
CONTINUOUS
 10
-41.8678750731
 20
16.48830548
 30
0.0
 11
-40.3678750731
 21
16.1347338267
 31
0.0
  0
LINE
  5
5AD
100
AcDbEntity
  8
0
100
AcDbLine
 62
250
  6
CONTINUOUS
 10
-48.8750180731
 20
15.5
 30
0.0
 11
-50.3678750731
 21
15.956
 31
0.0
  0
LINE
  5
5AE
100
AcDbEntity
  8
0
100
AcDbLine
 62
250
  6
CONTINUOUS
 10
-44.8678750731
 20
14.0918766089
 30
0.0
 11
-43.3678750731
 21
13.4043764778
 31
0.0
  0
LINE
  5
5AF
100
AcDbEntity
  8
0
100
AcDbLine
 62
250
  6
CONTINUOUS
 10
-43.7964465209
 20
12.245448
 30
0.0
 11
-43.582160797
 21
12.1275909133
 31
0.0
  0
LINE
  5
5B0
100
AcDbEntity
  8
0
100
AcDbLine
 62
250
  6
CONTINUOUS
 10
-38.4393036701
 20
11.0668765433
 30
0.0
 11
-38.6535893716
 21
11.18473363
 31
0.0
  0
LINE
  5
5B1
100
AcDbEntity
  8
0
100
AcDbLine
 62
250
  6
CONTINUOUS
 10
-37.7964465209
 20
11.8918765433
 30
0.0
 11
-37.582160797
 21
11.7740194567
 31
0.0
  0
LINE
  5
5B2
100
AcDbEntity
  8
0
100
AcDbLine
 62
7
  6
CONTINUOUS
 10
-63.2428750731
 20
23.6278312164
 30
0.0
 11
-62.3678750731
 21
23.1226497308
 31
0.0
  0
LINE
  5
5B3
100
AcDbEntity
  8
0
100
AcDbLine
 62
250
  6
CONTINUOUS
 10
-63.119329506
 20
23.8443375673
 30
0.0
 11
-62.119329506
 21
23.2669872981
 31
0.0
  0
LINE
  5
5B4
100
AcDbEntity
  8
0
100
AcDbLine
 62
250
  6
CONTINUOUS
 10
-41.4393036701
 20
12.3633050867
 30
0.0
 11
-40.3678750731
 21
11.65616237
 31
0.0
  0
LINE
  5
5B5
100
AcDbEntity
  8
0
100
AcDbLine
 62
250
  6
CONTINUOUS
 10
-43.582160797
 20
12.1275909133
 30
0.0
 11
-43.3678750731
 21
11.8918765433
 31
0.0
  0
LINE
  5
5B6
100
AcDbEntity
  8
0
100
AcDbLine
 62
250
  6
CONTINUOUS
 10
-38.4393036701
 20
10.1240194567
 30
0.0
 11
-38.8678750731
 21
10.595448
 31
0.0
  0
LINE
  5
5B7
100
AcDbEntity
  8
0
100
AcDbLine
 62
250
  6
CONTINUOUS
 10
-41.4393036701
 20
14.1311621733
 30
0.0
 11
-41.8678750731
 21
14.6025909133
 31
0.0
  0
LINE
  5
5B8
100
AcDbEntity
  8
0
100
AcDbLine
 62
250
  6
CONTINUOUS
 10
-38.6535893716
 20
11.18473363
 30
0.0
 11
-38.8678750731
 21
11.420448
 31
0.0
  0
LINE
  5
5B9
100
AcDbEntity
  8
0
100
AcDbLine
 62
250
  6
CONTINUOUS
 10
-40.7964465209
 20
10.477590815
 30
0.0
 11
-40.9035893716
 21
10.7133050867
 31
0.0
  0
LINE
  5
5BA
100
AcDbEntity
  8
ASSI
100
AcDbLine
 62
7
  6
CONTINUOUS
 10
-34.6678750731
 20
5.3112420645
 30
0.0
 11
-34.6678750731
 21
-5.3112420645
 31
0.0
  0
LINE
  5
5BB
100
AcDbEntity
  8
RACCORDO
100
AcDbLine
 62
7
  6
CONTINUOUS
 10
-34.6678750731
 20
5.3112420645
 30
0.0
 11
-34.6678750731
 21
-5.3112420645
 31
0.0
  0
LINE
  5
5BC
100
AcDbEntity
  8
SUPERFICI
100
AcDbLine
 62
250
  6
CONTINUOUS
 10
-34.6678750731
 20
5.3112420645
 30
0.0
 11
-34.6678750731
 21
-5.3112420645
 31
0.0
  0
LINE
  5
5BD
100
AcDbEntity
  8
RACCORDO
100
AcDbLine
 62
250
  6
CONTINUOUS
 10
-33.641728343
 20
11.2989817295
 30
0.0
 11
-33.6417283455
 21
5.4010182702
 31
0.0
  0
LINE
  5
5BE
100
AcDbEntity
  8
SUPERFICI
100
AcDbLine
 62
250
  6
CONTINUOUS
 10
-33.641728343
 20
11.2989817295
 30
0.0
 11
-33.6417283455
 21
5.4010182702
 31
0.0
  0
LINE
  5
5BF
100
AcDbEntity
  8
ASSI
100
AcDbLine
 62
250
  6
CONTINUOUS
 10
-33.641728343
 20
11.2989817295
 30
0.0
 11
-33.6417283455
 21
5.4010182702
 31
0.0
  0
LINE
  5
5C0
100
AcDbEntity
  8
RACCORDO
100
AcDbLine
 62
250
  6
CONTINUOUS
 10
-33.641728343
 20
4.6489817295
 30
0.0
 11
-33.6417283455
 21
-1.2489817298
 31
0.0
  0
LINE
  5
5C1
100
AcDbEntity
  8
SUPERFICI
100
AcDbLine
 62
250
  6
CONTINUOUS
 10
-33.641728343
 20
4.6489817295
 30
0.0
 11
-33.6417283455
 21
-1.2489817298
 31
0.0
  0
LINE
  5
5C2
100
AcDbEntity
  8
ASSI
100
AcDbLine
 62
250
  6
CONTINUOUS
 10
-33.641728343
 20
4.6489817295
 30
0.0
 11
-33.6417283455
 21
-1.2489817298
 31
0.0
  0
LINE
  5
5C3
100
AcDbEntity
  8
RACCORDO
100
AcDbLine
 62
250
  6
CONTINUOUS
 10
-33.641728343
 20
-5.4010182705
 30
0.0
 11
-33.6417283455
 21
-15.0489817298
 31
0.0
  0
LINE
  5
5C4
100
AcDbEntity
  8
SUPERFICI
100
AcDbLine
 62
250
  6
CONTINUOUS
 10
-33.641728343
 20
-5.4010182705
 30
0.0
 11
-33.6417283455
 21
-15.0489817298
 31
0.0
  0
LINE
  5
5C5
100
AcDbEntity
  8
ASSI
100
AcDbLine
 62
250
  6
CONTINUOUS
 10
-33.641728343
 20
-5.4010182705
 30
0.0
 11
-33.6417283455
 21
-15.0489817298
 31
0.0
  0
LINE
  5
5C6
100
AcDbEntity
  8
RACCORDO
100
AcDbLine
 62
7
  6
CONTINUOUS
 10
-33.3678750731
 20
11.0001217338
 30
0.0
 11
-33.3678750731
 21
5.699878242
 31
0.0
  0
LINE
  5
5C7
100
AcDbEntity
  8
ASSI
100
AcDbLine
 62
7
  6
CONTINUOUS
 10
-33.3678750731
 20
11.0001217338
 30
0.0
 11
-33.3678750731
 21
5.699878242
 31
0.0
  0
LINE
  5
5C8
100
AcDbEntity
  8
SUPERFICI
100
AcDbLine
 62
250
  6
CONTINUOUS
 10
-33.3678750731
 20
11.0001217338
 30
0.0
 11
-33.3678750731
 21
5.699878242
 31
0.0
  0
LINE
  5
5C9
100
AcDbEntity
  8
RACCORDO
100
AcDbLine
 62
7
  6
CONTINUOUS
 10
-33.3678750731
 20
4.3501217338
 30
0.0
 11
-33.3678750731
 21
-0.950121758
 31
0.0
  0
LINE
  5
5CA
100
AcDbEntity
  8
ASSI
100
AcDbLine
 62
7
  6
CONTINUOUS
 10
-33.3678750731
 20
4.3501217338
 30
0.0
 11
-33.3678750731
 21
-0.950121758
 31
0.0
  0
LINE
  5
5CB
100
AcDbEntity
  8
SUPERFICI
100
AcDbLine
 62
250
  6
CONTINUOUS
 10
-33.3678750731
 20
4.3501217338
 30
0.0
 11
-33.3678750731
 21
-0.950121758
 31
0.0
  0
LINE
  5
5CC
100
AcDbEntity
  8
RACCORDO
100
AcDbLine
 62
7
  6
CONTINUOUS
 10
-33.3678750731
 20
-5.6998782662
 30
0.0
 11
-33.3678750731
 21
-14.750121758
 31
0.0
  0
LINE
  5
5CD
100
AcDbEntity
  8
ASSI
100
AcDbLine
 62
7
  6
CONTINUOUS
 10
-33.3678750731
 20
-5.6998782662
 30
0.0
 11
-33.3678750731
 21
-14.750121758
 31
0.0
  0
LINE
  5
5CE
100
AcDbEntity
  8
SUPERFICI
100
AcDbLine
 62
250
  6
CONTINUOUS
 10
-33.3678750731
 20
-5.6998782662
 30
0.0
 11
-33.3678750731
 21
-14.750121758
 31
0.0
  0
LINE
  5
5CF
100
AcDbEntity
  8
0
100
AcDbLine
 62
250
  6
CONTINUOUS
 10
-38.8678750731
 20
-12.470413
 30
0.0
 11
-40.3678760731
 21
-15.0
 31
0.0
  0
LINE
  5
5D0
100
AcDbEntity
  8
0
100
AcDbLine
 62
250
  6
CONTINUOUS
 10
-38.8678750731
 20
-17.529587
 30
0.0
 11
-37.3678740731
 21
-15.0
 31
0.0
  0
LINE
  5
5D1
100
AcDbEntity
  8
0
100
AcDbLine
 62
250
  6
CONTINUOUS
 10
-38.6804191815
 20
-14.7807951267
 30
0.0
 11
-39.0553309648
 21
-15.2192048733
 31
0.0
  0
LINE
  5
5D2
100
AcDbEntity
  8
0
100
AcDbLine
 62
7
  6
CONTINUOUS
 10
-64.5678750731
 20
18.5912662465
 30
0.0
 11
-63.3069404014
 21
18.7460895565
 31
0.0
  0
LINE
  5
5D3
100
AcDbEntity
  8
0
100
AcDbLine
 62
250
  6
CONTINUOUS
 10
-64.5678750731
 20
18.79141996
 30
0.0
 11
-63.3208470789
 21
18.9445987868
 31
0.0
  0
LINE
  5
5D4
100
AcDbEntity
  8
RACCORDO
100
AcDbLine
 62
7
  6
CONTINUOUS
 10
-64.5678750731
 20
19.5122784561
 30
0.0
 11
-63.9493820019
 21
19.5882198563
 31
0.0
  0
LINE
  5
5D5
100
AcDbEntity
  8
ASSI
100
AcDbLine
 62
7
  6
CONTINUOUS
 10
-63.6022492602
 20
19.6308423975
 30
0.0
 11
-63.9493820019
 21
19.5882198563
 31
0.0
  0
LINE
  5
5D6
100
AcDbEntity
  8
0
100
AcDbLine
 62
250
  6
CONTINUOUS
 10
-60.8678522297
 20
21.8997723451
 30
0.0
 11
-62.3678750731
 21
21.821159479
 31
0.0
  0
LINE
  5
5D7
100
AcDbEntity
  8
RACCORDO
100
AcDbLine
 62
7
  6
CONTINUOUS
 10
-63.8678750731
 20
20.6183301451
 30
0.0
 11
-64.5678750731
 21
20.6
 31
0.0
  0
LINE
  5
5D8
100
AcDbEntity
  8
0
100
AcDbLine
 62
250
  6
CONTINUOUS
 10
-64.5678750731
 20
21.6001713375
 30
0.0
 11
-68.5347507354
 21
21.4962950425
 31
0.0
  0
LINE
  5
5D9
100
AcDbEntity
  8
RACCORDO
100
AcDbLine
 62
7
  6
CONTINUOUS
 10
-63.8678750731
 20
22.1183301451
 30
0.0
 11
-64.5678750731
 21
22.1
 31
0.0
  0
LINE
  5
5DA
100
AcDbEntity
  8
0
100
AcDbLine
 62
7
  6
CONTINUOUS
 10
-64.5678750731
 20
22.1
 30
0.0
 11
-68.5347507354
 21
21.996123705
 31
0.0
  0
LINE
  5
5DB
100
AcDbEntity
  8
DRAFT
100
AcDbLine
 62
7
  6
CONTINUOUS
 10
-63.7888426073
 20
20.6153435688
 30
0.0
 11
-63.8677988859
 21
20.6139653818
 31
0.0
  0
LINE
  5
5DC
100
AcDbEntity
  8
0
100
AcDbLine
 62
7
  6
CONTINUOUS
 10
-47.8591488699
 20
21.6096130956
 30
0.0
 11
-57.3678750731
 21
21.4436376623
 31
0.0
  0
LINE
  5
5DD
100
AcDbEntity
  8
DRAFT
100
AcDbLine
 62
7
  6
CONTINUOUS
 10
-47.3678750731
 20
20.9872686779
 30
0.0
 11
-57.3678750731
 21
20.9
 31
0.0
  0
LINE
  5
5DE
100
AcDbEntity
  8
RACCORDO
100
AcDbLine
 62
250
  6
CONTINUOUS
 10
-63.0574078819
 20
19.2423626323
 30
0.0
 11
-62.8678750731
 21
19.2423626323
 31
0.0
  0
LINE
  5
5DF
100
AcDbEntity
  8
DRAFT
100
AcDbLine
 62
7
  6
CONTINUOUS
 10
-57.3678750731
 20
20.85
 30
0.0
 11
-47.3678750731
 21
20.85
 31
0.0
  0
LINE
  5
5E0
100
AcDbEntity
  8
ASSI
100
AcDbLine
 62
7
  6
CONTINUOUS
 10
-57.3678750731
 20
20.85
 30
0.0
 11
-47.3678750731
 21
20.85
 31
0.0
  0
LINE
  5
5E1
100
AcDbEntity
  8
SUPERFICI
100
AcDbLine
 62
7
  6
CONTINUOUS
 10
-57.3678750731
 20
20.85
 30
0.0
 11
-47.3678750731
 21
20.85
 31
0.0
  0
LINE
  5
5E2
100
AcDbEntity
  8
ASSI
100
AcDbLine
 62
7
  6
CONTINUOUS
 10
-62.3678750731
 20
21.0
 30
0.0
 11
-62.8678750731
 21
21.0
 31
0.0
  0
LINE
  5
5E3
100
AcDbEntity
  8
RACCORDO
100
AcDbLine
 62
7
  6
CONTINUOUS
 10
-62.8678750731
 20
21.1
 30
0.0
 11
-63.7033846021
 21
21.1
 31
0.0
  0
LINE
  5
5E4
100
AcDbEntity
  8
0
100
AcDbLine
 62
250
  6
CONTINUOUS
 10
-59.8678750731
 20
21.8941990932
 30
0.0
 11
-60.8678750731
 21
21.900016923
 31
0.0
  0
LINE
  5
5E5
100
AcDbEntity
  8
0
100
AcDbLine
 62
7
  6
CONTINUOUS
 10
-48.3620573418
 20
22.3272432808
 30
0.0
 11
-60.8678750731
 21
22.4
 31
0.0
  0
LINE
  5
5E6
100
AcDbEntity
  8
RACCORDO
100
AcDbLine
 62
250
  6
CONTINUOUS
 10
-35.8591488699
 20
18.9301864485
 30
0.0
 11
-57.3678750731
 21
19.0856972195
 31
0.0
  0
LINE
  5
5E7
100
AcDbEntity
  8
ASSI
100
AcDbLine
 62
250
  6
CONTINUOUS
 10
-35.8591488699
 20
18.9301864485
 30
0.0
 11
-57.3678750731
 21
19.0856972195
 31
0.0
  0
LINE
  5
5E8
100
AcDbEntity
  8
SUPERFICI
100
AcDbLine
 62
250
  6
CONTINUOUS
 10
-35.8591488699
 20
18.9301864485
 30
0.0
 11
-57.3678750731
 21
19.0856972195
 31
0.0
  0
LINE
  5
5E9
100
AcDbEntity
  8
RACCORDO
100
AcDbLine
 62
250
  6
CONTINUOUS
 10
-63.9493820019
 20
19.5882198563
 30
0.0
 11
-64.5678750731
 21
19.599015693
 31
0.0
  0
LINE
  5
5EA
100
AcDbEntity
  8
RACCORDO
100
AcDbLine
 62
250
  6
CONTINUOUS
 10
-47.3678750731
 20
19.3181305591
 30
0.0
 11
-35.8591488699
 21
19.117244996
 31
0.0
  0
LINE
  5
5EB
100
AcDbEntity
  8
ASSI
100
AcDbLine
 62
250
  6
CONTINUOUS
 10
-47.3678750731
 20
19.3181305591
 30
0.0
 11
-35.8591488699
 21
19.117244996
 31
0.0
  0
LINE
  5
5EC
100
AcDbEntity
  8
SUPERFICI
100
AcDbLine
 62
250
  6
CONTINUOUS
 10
-47.3678750731
 20
19.3181305591
 30
0.0
 11
-35.8591488699
 21
19.117244996
 31
0.0
  0
LINE
  5
5ED
100
AcDbEntity
  8
RACCORDO
100
AcDbLine
 62
7
  6
CONTINUOUS
 10
-47.3678750731
 20
19.6109791689
 30
0.0
 11
-35.8591488699
 21
19.4100936057
 31
0.0
  0
LINE
  5
5EE
100
AcDbEntity
  8
ASSI
100
AcDbLine
 62
7
  6
CONTINUOUS
 10
-47.3678750731
 20
19.6109791689
 30
0.0
 11
-35.8591488699
 21
19.4100936057
 31
0.0
  0
LINE
  5
5EF
100
AcDbEntity
  8
SUPERFICI
100
AcDbLine
 62
7
  6
CONTINUOUS
 10
-47.3678750731
 20
19.6109791689
 30
0.0
 11
-35.8591488699
 21
19.4100936057
 31
0.0
  0
LINE
  5
5F0
100
AcDbEntity
  8
ASSI
100
AcDbLine
 62
7
  6
CONTINUOUS
 10
-63.7086666725
 20
20.5832569551
 30
0.0
 11
-64.5678750731
 21
20.5982544935
 31
0.0
  0
LINE
  5
5F1
100
AcDbEntity
  8
0
100
AcDbLine
 62
250
  6
CONTINUOUS
 10
-41.4393036701
 20
15.7811621733
 30
0.0
 11
-40.3678750731
 21
15.4275909133
 31
0.0
  0
LINE
  5
5F2
100
AcDbEntity
  8
0
100
AcDbLine
 62
250
  6
CONTINUOUS
 10
-37.582160797
 20
11.7740194567
 30
0.0
 11
-37.3678750731
 21
11.5383050867
 31
0.0
  0
LINE
  5
5F3
100
AcDbEntity
  8
0
100
AcDbLine
 62
7
  6
CONTINUOUS
 10
-60.8678750731
 20
22.4
 30
0.0
 11
-62.3678750731
 21
22.3213883311
 31
0.0
  0
LINE
  5
5F4
100
AcDbEntity
  8
0
100
AcDbLine
 62
250
  6
CONTINUOUS
 10
-63.119329506
 20
24.2369056521
 30
0.0
 11
-60.8678750731
 21
24.2500042308
 31
0.0
  0
LINE
  5
5F5
100
AcDbEntity
  8
0
100
AcDbLine
 62
7
  6
CONTINUOUS
 10
-63.119329506
 20
24.4869014213
 30
0.0
 11
-60.8678750731
 21
24.5
 31
0.0
  0
LINE
  5
5F6
100
AcDbEntity
  8
0
100
AcDbLine
 62
250
  6
CONTINUOUS
 10
-63.3678750731
 20
23.8443375673
 30
0.0
 11
-63.119329506
 21
23.8443375673
 31
0.0
  0
LINE
  5
5F7
100
AcDbEntity
  8
0
100
AcDbLine
 62
250
  6
CONTINUOUS
 10
-59.8678750731
 20
23.8443375673
 30
0.0
 11
-60.1164206403
 21
23.8443375673
 31
0.0
  0
LINE
  5
5F8
100
AcDbEntity
  8
0
100
AcDbLine
 62
250
  6
CONTINUOUS
 10
-63.3678750731
 20
24.2369056521
 30
0.0
 11
-63.119329506
 21
24.2369056521
 31
0.0
  0
LINE
  5
5F9
100
AcDbEntity
  8
0
100
AcDbLine
 62
250
  6
CONTINUOUS
 10
-59.8678750731
 20
24.2456323968
 30
0.0
 11
-60.1164206403
 21
24.2456323968
 31
0.0
  0
LINE
  5
5FA
100
AcDbEntity
  8
0
100
AcDbLine
 62
7
  6
CONTINUOUS
 10
-59.8678750731
 20
23.9941821702
 30
0.0
 11
-53.3649662075
 21
23.9563493531
 31
0.0
  0
LINE
  5
5FB
100
AcDbEntity
  8
0
100
AcDbLine
 62
250
  6
CONTINUOUS
 10
-60.8678750731
 20
24.2500042308
 30
0.0
 11
-60.1164206403
 21
24.2456323968
 31
0.0
  0
LINE
  5
5FC
100
AcDbEntity
  8
0
100
AcDbLine
 62
7
  6
CONTINUOUS
 10
-60.8678750731
 20
24.5
 30
0.0
 11
-60.1164206403
 21
24.495628166
 31
0.0
  0
LWPOLYLINE
  5
5FD
100
AcDbEntity
  8
0
100
AcDbPolyline
 62
7
  6
CONTINUOUS
 90
10
 70
0
 43
0.3500000087
 10
-51.1107337463
 20
46.2362983307
 10
-51.0393020599
 20
46.0934392212
 10
-51.0393020599
 20
46.0220117981
 10
-51.1821611694
 20
45.8791526886
 10
-51.2535885925
 20
45.8791526886
 10
-51.3250160156
 20
45.950584375
 10
-51.3250160156
 20
46.0220117981
 10
-51.2535885925
 20
46.1648666443
 10
-51.1821611694
 20
46.2362983307
 10
-51.1107337463
 20
46.2362983307
  0
LWPOLYLINE
  5
5FE
100
AcDbEntity
  8
0
100
AcDbPolyline
 62
7
  6
CONTINUOUS
 90
10
 70
0
 43
0.3500000087
 10
-45.5464462524
 20
36.2499993561
 10
-45.4750188293
 20
36.1071445099
 10
-45.4750188293
 20
36.0357128235
 10
-45.6178736755
 20
35.8928579773
 10
-45.6893053619
 20
35.8928579773
 10
-45.760732785
 20
35.9642854004
 10
-45.760732785
 20
36.0357128235
 10
-45.6893053619
 20
36.178571933
 10
-45.6178736755
 20
36.2499993561
 10
-45.5464462524
 20
36.2499993561
  0
LWPOLYLINE
  5
5FF
100
AcDbEntity
  8
0
100
AcDbPolyline
 62
7
  6
CONTINUOUS
 90
8
 70
0
 43
0.3500000087
 10
-44.4750178528
 20
35.7499988678
 10
-43.6178759857
 20
35.7499988678
 10
-43.1893029205
 20
36.178571933
 10
-43.1893029205
 20
37.0357138
 10
-43.6178759857
 20
37.4642868652
 10
-44.4750178528
 20
37.4642868652
 10
-44.4750178528
 20
38.7500017975
 10
-43.1893029205
 20
38.7500017975
  0
LWPOLYLINE
  5
600
100
AcDbEntity
  8
0
100
AcDbPolyline
 62
7
  6
CONTINUOUS
 90
7
 70
0
 43
0.3500000087
 10
-49.4035910492
 20
35.7499988678
 10
-50.9035882507
 20
35.7499988678
 10
-49.4035910492
 20
37.8928556671
 10
-49.4035910492
 20
38.3214287323
 10
-49.8321598511
 20
38.7500017975
 10
-50.4750194489
 20
38.7500017975
 10
-50.9035882507
 20
38.1071421997
  0
LWPOLYLINE
  5
601
100
AcDbEntity
  8
0
100
AcDbPolyline
 62
7
  6
CONTINUOUS
 90
6
 70
0
 43
0.3500000087
 10
-56.253589212
 20
45.7362978424
 10
-55.1821608124
 20
45.7362978424
 10
-54.9678742798
 20
45.950584375
 10
-54.9678742798
 20
47.0220127747
 10
-55.396447345
 20
47.4505815765
 10
-55.8250161469
 20
47.4505815765
  0
LWPOLYLINE
  5
602
100
AcDbEntity
  8
0
100
AcDbPolyline
 62
7
  6
CONTINUOUS
 90
7
 70
0
 43
0.3500000087
 10
-48.5393038818
 20
45.7362978424
 10
-50.0393053467
 20
45.7362978424
 10
-48.5393038818
 20
47.8791546417
 10
-48.5393038818
 20
48.3077277069
 10
-48.967876947
 20
48.7362965088
 10
-49.6107322815
 20
48.7362965088
 10
-50.0393053467
 20
48.0934411743
  0
ARC
  5
603
100
AcDbEntity
  8
RACCORDO
100
AcDbCircle
 62
250
  6
CONTINUOUS
 10
-3427.465593642
 20
-7.8574502294
 30
0.0
 40
3405.9578225439
100
AcDbArc
 50
359.7764757795
 51
359.9723686616
  0
ARC
  5
604
100
AcDbEntity
  8
RACCORDO
100
AcDbCircle
 62
250
  6
CONTINUOUS
 10
-3390.2269768368
 20
-7.8570749275
 30
0.0
 40
3368.2193770765
100
AcDbArc
 50
359.7752270518
 51
359.9722142901
  0
ARC
  5
605
100
AcDbEntity
  8
RACCORDO
100
AcDbCircle
 62
250
  6
CONTINUOUS
 10
-21.5458891298
 20
-21.4958891298
 30
0.0
 40
0.5002354914
100
AcDbArc
 50
180.0464923552
 51
269.9535076448
  0
ARC
  5
606
100
AcDbEntity
  8
0
100
AcDbCircle
 62
7
  6
CONTINUOUS
 10
-21.9004532348
 20
-21.9000168915
 30
0.0
 40
0.4999831086
100
AcDbArc
 50
180.0000036164
 51
270.0012084401
  0
ARC
  5
607
100
AcDbEntity
  8
0
100
AcDbCircle
 62
7
  6
CONTINUOUS
 10
-1.3508843464
 20
-24.2498983156
 30
0.0
 40
0.2508843687
100
AcDbArc
 50
346.3880013931
 51
359.975811601
  0
ARC
  5
608
100
AcDbEntity
  8
0
100
AcDbCircle
 62
7
  6
CONTINUOUS
 10
-3.7498983156
 20
-24.2491156536
 30
0.0
 40
0.2508843687
100
AcDbArc
 50
256.3880013931
 51
269.975811601
  0
ARC
  5
609
100
AcDbEntity
  8
0
100
AcDbCircle
 62
7
  6
CONTINUOUS
 10
-18.7508843464
 20
-24.2498983156
 30
0.0
 40
0.2508843687
100
AcDbArc
 50
346.3880013931
 51
359.975811601
  0
ARC
  5
60A
100
AcDbEntity
  8
0
100
AcDbCircle
 62
7
  6
CONTINUOUS
 10
-21.1498983156
 20
-24.2491156536
 30
0.0
 40
0.2508843687
100
AcDbArc
 50
256.3880013931
 51
269.975811601
  0
ARC
  5
60B
100
AcDbEntity
  8
0
100
AcDbCircle
 62
7
  6
CONTINUOUS
 10
-3.7494076935
 20
-24.2494076935
 30
0.0
 40
0.2508336777
100
AcDbArc
 50
218.2046988403
 51
231.7953011597
  0
ARC
  5
60C
100
AcDbEntity
  8
0
100
AcDbCircle
 62
7
  6
CONTINUOUS
 10
-21.1494076935
 20
-24.2494076935
 30
0.0
 40
0.2508336777
100
AcDbArc
 50
218.2046988403
 51
231.7953011597
  0
ARC
  5
60D
100
AcDbEntity
  8
0
100
AcDbCircle
 62
250
  6
CONTINUOUS
 10
-18.7618094113
 20
-24.2379529956
 30
0.0
 40
0.2502590716
100
AcDbArc
 50
270.0057017034
 51
275.8561297957
  0
ARC
  5
60E
100
AcDbEntity
  8
0
100
AcDbCircle
 62
250
  6
CONTINUOUS
 10
-1.3618094113
 20
-24.2379529956
 30
0.0
 40
0.2502590716
100
AcDbArc
 50
270.0057017034
 51
275.8561297957
  0
ARC
  5
60F
100
AcDbEntity
  8
0
100
AcDbCircle
 62
7
  6
CONTINUOUS
 10
-1.3500276089
 20
-24.2499772883
 30
0.0
 40
0.2500376753
100
AcDbArc
 50
316.3642023986
 51
321.8178358632
  0
ARC
  5
610
100
AcDbEntity
  8
0
100
AcDbCircle
 62
7
  6
CONTINUOUS
 10
-18.7500276089
 20
-24.2499772883
 30
0.0
 40
0.2500376753
100
AcDbArc
 50
316.3642023986
 51
321.8178358632
  0
ARC
  5
611
100
AcDbEntity
  8
0
100
AcDbCircle
 62
7
  6
CONTINUOUS
 10
-3.7382065853
 20
-24.2382065853
 30
0.0
 40
0.2500054809
100
AcDbArc
 50
180.0020414376
 51
269.9979585624
  0
ARC
  5
612
100
AcDbEntity
  8
0
100
AcDbCircle
 62
7
  6
CONTINUOUS
 10
-21.1382065853
 20
-24.2382065853
 30
0.0
 40
0.2500054809
100
AcDbArc
 50
180.0020414376
 51
269.9979585624
  0
ARC
  5
613
100
AcDbEntity
  8
0
100
AcDbCircle
 62
7
  6
CONTINUOUS
 10
-12.4511521355
 20
-23.7998199116
 30
0.0
 40
0.2011522134
100
AcDbArc
 50
342.5504883043
 51
359.9495716531
  0
ARC
  5
614
100
AcDbEntity
  8
0
100
AcDbCircle
 62
7
  6
CONTINUOUS
 10
-12.4501320337
 20
-23.7978218037
 30
0.0
 40
0.2006118828
100
AcDbArc
 50
275.8781741469
 51
289.0608626422
  0
ARC
  5
615
100
AcDbEntity
  8
0
100
AcDbCircle
 62
250
  6
CONTINUOUS
 10
-12.4500144241
 20
-23.7982117194
 30
0.0
 40
0.2002119873
100
AcDbArc
 50
270.0041278162
 51
275.8561218633
  0
ARC
  5
616
100
AcDbEntity
  8
RACCORDO
100
AcDbCircle
 62
250
  6
CONTINUOUS
 10
-21.5458891297
 20
21.4958891297
 30
0.0
 40
0.5002354914
100
AcDbArc
 50
90.046492359
 51
179.953507641
  0
ARC
  5
617
100
AcDbEntity
  8
0
100
AcDbCircle
 62
7
  6
CONTINUOUS
 10
-21.9004532348
 20
21.9000168915
 30
0.0
 40
0.4999831086
100
AcDbArc
 50
89.9987915599
 51
179.9999963836
  0
ARC
  5
618
100
AcDbEntity
  8
0
100
AcDbCircle
 62
7
  6
CONTINUOUS
 10
-21.1491156536
 20
24.2498983156
 30
0.0
 40
0.2508843687
100
AcDbArc
 50
166.3880013931
 51
179.975811601
  0
ARC
  5
619
100
AcDbEntity
  8
0
100
AcDbCircle
 62
7
  6
CONTINUOUS
 10
-18.7501016844
 20
24.2491156536
 30
0.0
 40
0.2508843687
100
AcDbArc
 50
76.3880013931
 51
89.975811601
  0
ARC
  5
61A
100
AcDbEntity
  8
0
100
AcDbCircle
 62
7
  6
CONTINUOUS
 10
-3.7491156536
 20
24.2498983156
 30
0.0
 40
0.2508843687
100
AcDbArc
 50
166.3880013931
 51
179.975811601
  0
ARC
  5
61B
100
AcDbEntity
  8
0
100
AcDbCircle
 62
7
  6
CONTINUOUS
 10
-1.3501016844
 20
24.2491156536
 30
0.0
 40
0.2508843687
100
AcDbArc
 50
76.3880013931
 51
89.975811601
  0
ARC
  5
61C
100
AcDbEntity
  8
0
100
AcDbCircle
 62
7
  6
CONTINUOUS
 10
-18.7505923065
 20
24.2494076935
 30
0.0
 40
0.2508336777
100
AcDbArc
 50
38.2046988403
 51
51.7953011597
  0
ARC
  5
61D
100
AcDbEntity
  8
0
100
AcDbCircle
 62
7
  6
CONTINUOUS
 10
-1.3618752683
 20
24.2377724922
 30
0.0
 40
0.2504453568
100
AcDbArc
 50
73.6545029877
 51
84.133095691
  0
ARC
  5
61E
100
AcDbEntity
  8
0
100
AcDbCircle
 62
250
  6
CONTINUOUS
 10
-1.3618094113
 20
24.2379529956
 30
0.0
 40
0.2502590716
100
AcDbArc
 50
84.1438702043
 51
89.9942982967
  0
ARC
  5
61F
100
AcDbEntity
  8
0
100
AcDbCircle
 62
250
  6
CONTINUOUS
 10
-21.1381905887
 20
24.2379529956
 30
0.0
 40
0.2502590716
100
AcDbArc
 50
90.0057017033
 51
95.8561297957
  0
ARC
  5
620
100
AcDbEntity
  8
0
100
AcDbCircle
 62
250
  6
CONTINUOUS
 10
-3.7381905887
 20
24.2379529956
 30
0.0
 40
0.2502590716
100
AcDbArc
 50
90.0057017034
 51
95.8561297957
  0
ARC
  5
621
100
AcDbEntity
  8
0
100
AcDbCircle
 62
7
  6
CONTINUOUS
 10
-21.1499723911
 20
24.2499772883
 30
0.0
 40
0.2500376753
100
AcDbArc
 50
136.3642023986
 51
141.8178358632
  0
ARC
  5
622
100
AcDbEntity
  8
0
100
AcDbCircle
 62
7
  6
CONTINUOUS
 10
-3.7499723911
 20
24.2499772883
 30
0.0
 40
0.2500376753
100
AcDbArc
 50
136.3642023986
 51
141.8178358632
  0
ARC
  5
623
100
AcDbEntity
  8
0
100
AcDbCircle
 62
7
  6
CONTINUOUS
 10
-1.3500276089
 20
24.2499772883
 30
0.0
 40
0.2500376753
100
AcDbArc
 50
38.1821641369
 51
43.6357976014
  0
ARC
  5
624
100
AcDbEntity
  8
0
100
AcDbCircle
 62
7
  6
CONTINUOUS
 10
-18.7617934147
 20
24.2382065853
 30
0.0
 40
0.2500054809
100
AcDbArc
 50
0.0020414376
 51
89.9979585624
  0
ARC
  5
625
100
AcDbEntity
  8
RACCORDO
100
AcDbCircle
 62
250
  6
CONTINUOUS
 10
21.5458833953
 20
-21.4958833953
 30
0.0
 40
0.5002424668
100
AcDbArc
 50
270.0471486253
 51
359.9528513747
  0
ARC
  5
626
100
AcDbEntity
  8
0
100
AcDbCircle
 62
7
  6
CONTINUOUS
 10
21.9004532348
 20
-21.9000168915
 30
0.0
 40
0.4999831086
100
AcDbArc
 50
269.9987915599
 51
359.9999963836
  0
ARC
  5
627
100
AcDbEntity
  8
0
100
AcDbCircle
 62
7
  6
CONTINUOUS
 10
3.7494084598
 20
-24.2494084598
 30
0.0
 40
0.2508328417
100
AcDbArc
 50
308.2046706638
 51
321.7953293362
  0
ARC
  5
628
100
AcDbEntity
  8
0
100
AcDbCircle
 62
7
  6
CONTINUOUS
 10
18.7505915402
 20
-24.2494084598
 30
0.0
 40
0.2508328417
100
AcDbArc
 50
218.2046706638
 51
231.7953293362
  0
ARC
  5
629
100
AcDbEntity
  8
0
100
AcDbCircle
 62
7
  6
CONTINUOUS
 10
21.1494084598
 20
-24.2494084598
 30
0.0
 40
0.2508328417
100
AcDbArc
 50
308.2046706638
 51
321.7953293362
  0
ARC
  5
62A
100
AcDbEntity
  8
0
100
AcDbCircle
 62
7
  6
CONTINUOUS
 10
1.3500482821
 20
-24.2494450489
 30
0.0
 40
0.2505549566
100
AcDbArc
 50
259.1033121297
 51
269.9879915818
  0
ARC
  5
62B
100
AcDbEntity
  8
0
100
AcDbCircle
 62
7
  6
CONTINUOUS
 10
3.7494450489
 20
-24.2499517179
 30
0.0
 40
0.2505549566
100
AcDbArc
 50
349.1033121297
 51
359.9879915818
  0
ARC
  5
62C
100
AcDbEntity
  8
0
100
AcDbCircle
 62
7
  6
CONTINUOUS
 10
18.7500482821
 20
-24.2494450489
 30
0.0
 40
0.2505549566
100
AcDbArc
 50
259.1033121297
 51
269.9879915818
  0
ARC
  5
62D
100
AcDbEntity
  8
0
100
AcDbCircle
 62
7
  6
CONTINUOUS
 10
21.1494450489
 20
-24.2499517179
 30
0.0
 40
0.2505549566
100
AcDbArc
 50
349.1033121297
 51
359.9879915818
  0
ARC
  5
62E
100
AcDbEntity
  8
0
100
AcDbCircle
 62
7
  6
CONTINUOUS
 10
1.3631801581
 20
-24.2365027245
 30
0.0
 40
0.2504042719
100
AcDbArc
 50
253.6530418438
 51
263.8178730809
  0
ARC
  5
62F
100
AcDbEntity
  8
0
100
AcDbCircle
 62
250
  6
CONTINUOUS
 10
1.3631222077
 20
-24.2366167132
 30
0.0
 40
0.2502847096
100
AcDbArc
 50
263.8282519659
 51
269.9936222728
  0
ARC
  5
630
100
AcDbEntity
  8
0
100
AcDbCircle
 62
7
  6
CONTINUOUS
 10
1.3500268418
 20
-24.2499780564
 30
0.0
 40
0.2500368376
100
AcDbArc
 50
218.1821355915
 51
223.6357916236
  0
ARC
  5
631
100
AcDbEntity
  8
0
100
AcDbCircle
 62
7
  6
CONTINUOUS
 10
3.7368948038
 20
-24.2368948038
 30
0.0
 40
0.2500066177
100
AcDbArc
 50
270.0024861811
 51
359.9975138189
  0
ARC
  5
632
100
AcDbEntity
  8
0
100
AcDbCircle
 62
7
  6
CONTINUOUS
 10
18.7631051962
 20
-24.2368948038
 30
0.0
 40
0.2500066177
100
AcDbArc
 50
180.0024861811
 51
269.9975138189
  0
ARC
  5
633
100
AcDbEntity
  8
0
100
AcDbCircle
 62
7
  6
CONTINUOUS
 10
21.1368948038
 20
-24.2368948038
 30
0.0
 40
0.2500066177
100
AcDbArc
 50
270.0024861811
 51
359.9975138189
  0
ARC
  5
634
100
AcDbEntity
  8
RACCORDO
100
AcDbCircle
 62
250
  6
CONTINUOUS
 10
3427.4657816543
 20
7.8574498173
 30
0.0
 40
3405.9580105564
100
AcDbArc
 50
179.7764757849
 51
179.9723686562
  0
ARC
  5
635
100
AcDbEntity
  8
RACCORDO
100
AcDbCircle
 62
250
  6
CONTINUOUS
 10
3390.2271667451
 20
7.857074509
 30
0.0
 40
3368.2195669849
100
AcDbArc
 50
179.7752270574
 51
179.9722142846
  0
ARC
  5
636
100
AcDbEntity
  8
RACCORDO
100
AcDbCircle
 62
250
  6
CONTINUOUS
 10
21.5458833953
 20
21.4958833953
 30
0.0
 40
0.5002424668
100
AcDbArc
 50
0.0471486334
 51
89.9528513666
  0
ARC
  5
637
100
AcDbEntity
  8
0
100
AcDbCircle
 62
7
  6
CONTINUOUS
 10
21.9004532348
 20
21.9000168915
 30
0.0
 40
0.4999831086
100
AcDbArc
 50
0.0000036163
 51
90.0012084401
  0
ARC
  5
638
100
AcDbEntity
  8
0
100
AcDbCircle
 62
7
  6
CONTINUOUS
 10
21.1494084598
 20
24.2494084598
 30
0.0
 40
0.2508328417
100
AcDbArc
 50
38.2046706638
 51
51.7953293362
  0
ARC
  5
639
100
AcDbEntity
  8
0
100
AcDbCircle
 62
7
  6
CONTINUOUS
 10
18.7505915402
 20
24.2494084598
 30
0.0
 40
0.2508328417
100
AcDbArc
 50
128.2046706638
 51
141.7953293361
  0
ARC
  5
63A
100
AcDbEntity
  8
0
100
AcDbCircle
 62
7
  6
CONTINUOUS
 10
1.3505549511
 20
24.2499517179
 30
0.0
 40
0.2505549566
100
AcDbArc
 50
169.1033121297
 51
179.9879915818
  0
ARC
  5
63B
100
AcDbEntity
  8
0
100
AcDbCircle
 62
7
  6
CONTINUOUS
 10
3.7499517179
 20
24.2494450489
 30
0.0
 40
0.2505549566
100
AcDbArc
 50
79.1033121297
 51
89.9879915818
  0
ARC
  5
63C
100
AcDbEntity
  8
0
100
AcDbCircle
 62
7
  6
CONTINUOUS
 10
21.1499517179
 20
24.2494450489
 30
0.0
 40
0.2505549566
100
AcDbArc
 50
79.1033121297
 51
89.9879915818
  0
ARC
  5
63D
100
AcDbEntity
  8
0
100
AcDbCircle
 62
7
  6
CONTINUOUS
 10
18.7505549511
 20
24.2499517179
 30
0.0
 40
0.2505549566
100
AcDbArc
 50
169.1033121297
 51
179.9879915818
  0
ARC
  5
63E
100
AcDbEntity
  8
0
100
AcDbCircle
 62
7
  6
CONTINUOUS
 10
3.7368198419
 20
24.2365027245
 30
0.0
 40
0.2504042719
100
AcDbArc
 50
73.6530418439
 51
83.8178730809
  0
ARC
  5
63F
100
AcDbEntity
  8
0
100
AcDbCircle
 62
250
  6
CONTINUOUS
 10
1.3631222077
 20
24.2366167132
 30
0.0
 40
0.2502847096
100
AcDbArc
 50
90.0063777272
 51
96.171748034
  0
ARC
  5
640
100
AcDbEntity
  8
0
100
AcDbCircle
 62
250
  6
CONTINUOUS
 10
3.7368777923
 20
24.2366167132
 30
0.0
 40
0.2502847096
100
AcDbArc
 50
83.828251966
 51
89.9936222728
  0
ARC
  5
641
100
AcDbEntity
  8
0
100
AcDbCircle
 62
7
  6
CONTINUOUS
 10
1.3500268418
 20
24.2499780564
 30
0.0
 40
0.2500368376
100
AcDbArc
 50
136.3642083764
 51
141.8178644085
  0
ARC
  5
642
100
AcDbEntity
  8
0
100
AcDbCircle
 62
7
  6
CONTINUOUS
 10
3.7499731582
 20
24.2499780564
 30
0.0
 40
0.2500368376
100
AcDbArc
 50
38.1821355915
 51
43.6357916236
  0
ARC
  5
643
100
AcDbEntity
  8
0
100
AcDbCircle
 62
7
  6
CONTINUOUS
 10
21.1368948038
 20
24.2368948038
 30
0.0
 40
0.2500066177
100
AcDbArc
 50
0.0024861811
 51
89.9975138189
  0
ARC
  5
644
100
AcDbEntity
  8
0
100
AcDbCircle
 62
7
  6
CONTINUOUS
 10
18.7631051962
 20
24.2368948038
 30
0.0
 40
0.2500066177
100
AcDbArc
 50
90.0024861811
 51
179.9975138189
  0
ARC
  5
645
100
AcDbEntity
  8
ASSI
100
AcDbCircle
 62
7
  6
CONTINUOUS
 10
-65.5678750731
 20
-20.0
 30
0.0
 40
2.0
100
AcDbArc
 50
346.3359098419
 51
10.6365413379
  0
ARC
  5
646
100
AcDbEntity
  8
RACCORDO
100
AcDbCircle
 62
7
  6
CONTINUOUS
 10
-68.5085737871
 20
-20.9964663801
 30
0.0
 40
1.0
100
AcDbArc
 50
188.5334776264
 51
268.5
  0
ARC
  5
647
100
AcDbEntity
  8
RACCORDO
100
AcDbCircle
 62
250
  6
CONTINUOUS
 10
-68.521657539
 20
-20.9964610394
 30
0.0
 40
0.5000054625
100
AcDbArc
 50
188.5340025442
 51
268.4994750822
  0
ARC
  5
648
100
AcDbEntity
  8
0
100
AcDbCircle
 62
7
  6
CONTINUOUS
 10
-53.3678750731
 20
-23.4563578147
 30
0.0
 40
0.5
100
AcDbArc
 50
270.3333333333
 51
360.0
  0
ARC
  5
649
100
AcDbEntity
  8
0
100
AcDbCircle
 62
7
  6
CONTINUOUS
 10
-63.1178750731
 20
-24.2369056521
 30
0.0
 40
0.25
100
AcDbArc
 50
180.0
 51
269.6666666667
  0
ARC
  5
64A
100
AcDbEntity
  8
0
100
AcDbCircle
 62
7
  6
CONTINUOUS
 10
-63.1178750731
 20
-24.2382154929
 30
0.0
 40
0.25
100
AcDbArc
 50
180.0
 51
269.7
  0
ARC
  5
64B
100
AcDbEntity
  8
0
100
AcDbCircle
 62
7
  6
CONTINUOUS
 10
-60.1178750731
 20
-24.2456323968
 30
0.0
 40
0.25
100
AcDbArc
 50
270.3333333333
 51
360.0
  0
ARC
  5
64C
100
AcDbEntity
  8
0
100
AcDbCircle
 62
7
  6
CONTINUOUS
 10
-60.1178750731
 20
-23.8443375673
 30
0.0
 40
0.25
100
AcDbArc
 50
0.0
 51
60.0
  0
ARC
  5
64D
100
AcDbEntity
  8
0
100
AcDbCircle
 62
7
  6
CONTINUOUS
 10
-63.1178750731
 20
-23.8443375673
 30
0.0
 40
0.25
100
AcDbArc
 50
120.0
 51
180.0
  0
ARC
  5
64E
100
AcDbEntity
  8
ASSI
100
AcDbCircle
 62
7
  6
CONTINUOUS
 10
-63.2806021249
 20
-18.6
 30
0.0
 40
2.2
100
AcDbArc
 50
114.1291428442
 51
125.8065937531
  0
ARC
  5
64F
100
AcDbEntity
  8
0
100
AcDbCircle
 62
7
  6
CONTINUOUS
 10
-48.3678750731
 20
-21.3272602039
 30
0.0
 40
1.0
100
AcDbArc
 50
270.3333333333
 51
360.0
  0
ARC
  5
650
100
AcDbEntity
  8
RACCORDO
100
AcDbCircle
 62
7
  6
CONTINUOUS
 10
-35.8678750731
 20
-18.9101697582
 30
0.0
 40
0.5
100
AcDbArc
 50
271.0
 51
360.0
  0
ARC
  5
651
100
AcDbEntity
  8
ASSI
100
AcDbCircle
 62
7
  6
CONTINUOUS
 10
-35.8678750731
 20
-18.9101697582
 30
0.0
 40
0.5
100
AcDbArc
 50
271.0
 51
360.0
  0
ARC
  5
652
100
AcDbEntity
  8
SUPERFICI
100
AcDbCircle
 62
7
  6
CONTINUOUS
 10
-35.8678750731
 20
-18.9101697582
 30
0.0
 40
0.5
100
AcDbArc
 50
271.0
 51
360.0
  0
ARC
  5
653
100
AcDbEntity
  8
RACCORDO
100
AcDbCircle
 62
7
  6
CONTINUOUS
 10
-35.0678750731
 20
-15.4748993522
 30
0.0
 40
0.3
100
AcDbArc
 50
95.0
 51
163.0000024719
  0
ARC
  5
654
100
AcDbEntity
  8
RACCORDO
100
AcDbCircle
 62
7
  6
CONTINUOUS
 10
-33.6678750731
 20
-14.7501233207
 30
0.0
 40
0.3
100
AcDbArc
 50
275.0
 51
360.0
  0
ARC
  5
655
100
AcDbEntity
  8
ASSI
100
AcDbCircle
 62
7
  6
CONTINUOUS
 10
-33.6678750731
 20
-14.7501233207
 30
0.0
 40
0.3
100
AcDbArc
 50
275.0
 51
360.0
  0
ARC
  5
656
100
AcDbEntity
  8
ASSI
100
AcDbCircle
 62
7
  6
CONTINUOUS
 10
-35.0678750731
 20
-15.4748993522
 30
0.0
 40
0.3
100
AcDbArc
 50
95.0
 51
172.9166709078
  0
ARC
  5
657
100
AcDbEntity
  8
SUPERFICI
100
AcDbCircle
 62
7
  6
CONTINUOUS
 10
-33.6678750731
 20
-14.7501233207
 30
0.0
 40
0.3
100
AcDbArc
 50
275.0
 51
360.0
  0
ARC
  5
658
100
AcDbEntity
  8
SUPERFICI
100
AcDbCircle
 62
7
  6
CONTINUOUS
 10
-35.0678750731
 20
-15.4748993522
 30
0.0
 40
0.3
100
AcDbArc
 50
95.0
 51
163.0000022719
  0
ARC
  5
659
100
AcDbEntity
  8
RACCORDO
100
AcDbCircle
 62
7
  6
CONTINUOUS
 10
-42.1678750731
 20
-0.4086171261
 30
0.0
 40
0.2
100
AcDbArc
 50
270.5
 51
360.0
  0
ARC
  5
65A
100
AcDbEntity
  8
RACCORDO
100
AcDbCircle
 62
7
  6
CONTINUOUS
 10
-35.0678750731
 20
-11.7248993522
 30
0.0
 40
0.3
100
AcDbArc
 50
95.0
 51
180.0
  0
ARC
  5
65B
100
AcDbEntity
  8
RACCORDO
100
AcDbCircle
 62
7
  6
CONTINUOUS
 10
-33.6678750731
 20
-11.0001233207
 30
0.0
 40
0.3
100
AcDbArc
 50
275.0
 51
360.0
  0
ARC
  5
65C
100
AcDbEntity
  8
ASSI
100
AcDbCircle
 62
7
  6
CONTINUOUS
 10
-33.6678750731
 20
-11.0001233207
 30
0.0
 40
0.3
100
AcDbArc
 50
275.0
 51
360.0
  0
ARC
  5
65D
100
AcDbEntity
  8
ASSI
100
AcDbCircle
 62
7
  6
CONTINUOUS
 10
-35.0678750731
 20
-11.7248993522
 30
0.0
 40
0.3
100
AcDbArc
 50
95.0
 51
173.2003512128
  0
ARC
  5
65E
100
AcDbEntity
  8
SUPERFICI
100
AcDbCircle
 62
7
  6
CONTINUOUS
 10
-33.6678750731
 20
-11.0001233207
 30
0.0
 40
0.3
100
AcDbArc
 50
275.0
 51
360.0
  0
ARC
  5
65F
100
AcDbEntity
  8
SUPERFICI
100
AcDbCircle
 62
7
  6
CONTINUOUS
 10
-35.0678750731
 20
-11.7248993522
 30
0.0
 40
0.3
100
AcDbArc
 50
95.0
 51
180.0
  0
ARC
  5
660
100
AcDbEntity
  8
RACCORDO
100
AcDbCircle
 62
7
  6
CONTINUOUS
 10
-35.0678750731
 20
-4.9751006478
 30
0.0
 40
0.3
100
AcDbArc
 50
187.366315927
 51
265.0
  0
ARC
  5
661
100
AcDbEntity
  8
ASSI
100
AcDbCircle
 62
7
  6
CONTINUOUS
 10
-35.0678750731
 20
-4.9751006478
 30
0.0
 40
0.3
100
AcDbArc
 50
180.0
 51
265.0
  0
ARC
  5
662
100
AcDbEntity
  8
SUPERFICI
100
AcDbCircle
 62
7
  6
CONTINUOUS
 10
-35.0678750731
 20
-4.9751006478
 30
0.0
 40
0.3
100
AcDbArc
 50
187.3663159403
 51
265.0
  0
ARC
  5
663
100
AcDbEntity
  8
RACCORDO
100
AcDbCircle
 62
7
  6
CONTINUOUS
 10
-33.6678750731
 20
-5.6998766793
 30
0.0
 40
0.3
100
AcDbArc
 50
0.0
 51
85.0
  0
ARC
  5
664
100
AcDbEntity
  8
ASSI
100
AcDbCircle
 62
7
  6
CONTINUOUS
 10
-33.6678750731
 20
-5.6998766793
 30
0.0
 40
0.3
100
AcDbArc
 50
0.0
 51
85.0
  0
ARC
  5
665
100
AcDbEntity
  8
SUPERFICI
100
AcDbCircle
 62
7
  6
CONTINUOUS
 10
-33.6678750731
 20
-5.6998766793
 30
0.0
 40
0.3
100
AcDbArc
 50
0.0
 51
85.0
  0
ARC
  5
666
100
AcDbEntity
  8
RACCORDO
100
AcDbCircle
 62
7
  6
CONTINUOUS
 10
-33.6678750731
 20
-0.9501233207
 30
0.0
 40
0.3
100
AcDbArc
 50
275.0
 51
360.0
  0
ARC
  5
667
100
AcDbEntity
  8
ASSI
100
AcDbCircle
 62
7
  6
CONTINUOUS
 10
-33.6678750731
 20
-0.9501233207
 30
0.0
 40
0.3
100
AcDbArc
 50
275.0
 51
360.0
  0
ARC
  5
668
100
AcDbEntity
  8
SUPERFICI
100
AcDbCircle
 62
7
  6
CONTINUOUS
 10
-33.6678750731
 20
-0.9501233207
 30
0.0
 40
0.3
100
AcDbArc
 50
275.0
 51
360.0
  0
ARC
  5
669
100
AcDbEntity
  8
RACCORDO
100
AcDbCircle
 62
7
  6
CONTINUOUS
 10
19.506136607
 20
-7.79
 30
0.0
 40
90.0
100
AcDbArc
 50
181.08868532
 51
188.5334776264
  0
ARC
  5
66A
100
AcDbEntity
  8
RACCORDO
100
AcDbCircle
 62
7
  6
CONTINUOUS
 10
-42.1678750731
 20
0.4086171261
 30
0.0
 40
0.2
100
AcDbArc
 50
0.0
 51
89.5
  0
ARC
  5
66B
100
AcDbEntity
  8
RACCORDO
100
AcDbCircle
 62
7
  6
CONTINUOUS
 10
-35.0678750731
 20
4.9751006478
 30
0.0
 40
0.3
100
AcDbArc
 50
95.0
 51
180.0
  0
ARC
  5
66C
100
AcDbEntity
  8
ASSI
100
AcDbCircle
 62
7
  6
CONTINUOUS
 10
-35.0678750731
 20
4.9751006478
 30
0.0
 40
0.3
100
AcDbArc
 50
95.0
 51
173.2003512128
  0
ARC
  5
66D
100
AcDbEntity
  8
SUPERFICI
100
AcDbCircle
 62
7
  6
CONTINUOUS
 10
-35.0678750731
 20
4.9751006478
 30
0.0
 40
0.3
100
AcDbArc
 50
95.0
 51
180.0
  0
ARC
  5
66E
100
AcDbEntity
  8
RACCORDO
100
AcDbCircle
 62
7
  6
CONTINUOUS
 10
-33.6678750731
 20
4.3501233207
 30
0.0
 40
0.3
100
AcDbArc
 50
0.0
 51
85.0
  0
ARC
  5
66F
100
AcDbEntity
  8
ASSI
100
AcDbCircle
 62
7
  6
CONTINUOUS
 10
-33.6678750731
 20
4.3501233207
 30
0.0
 40
0.3
100
AcDbArc
 50
0.0
 51
85.0
  0
ARC
  5
670
100
AcDbEntity
  8
SUPERFICI
100
AcDbCircle
 62
7
  6
CONTINUOUS
 10
-33.6678750731
 20
4.3501233207
 30
0.0
 40
0.3
100
AcDbArc
 50
0.0
 51
85.0
  0
ARC
  5
671
100
AcDbEntity
  8
RACCORDO
100
AcDbCircle
 62
7
  6
CONTINUOUS
 10
-33.6678750731
 20
5.6998766793
 30
0.0
 40
0.3
100
AcDbArc
 50
275.0
 51
360.0
  0
ARC
  5
672
100
AcDbEntity
  8
ASSI
100
AcDbCircle
 62
7
  6
CONTINUOUS
 10
-33.6678750731
 20
5.6998766793
 30
0.0
 40
0.3
100
AcDbArc
 50
275.0
 51
360.0
  0
ARC
  5
673
100
AcDbEntity
  8
SUPERFICI
100
AcDbCircle
 62
7
  6
CONTINUOUS
 10
-33.6678750731
 20
5.6998766793
 30
0.0
 40
0.3
100
AcDbArc
 50
275.0
 51
360.0
  0
ARC
  5
674
100
AcDbEntity
  8
RACCORDO
100
AcDbCircle
 62
7
  6
CONTINUOUS
 10
-35.0678750731
 20
11.7248993522
 30
0.0
 40
0.3
100
AcDbArc
 50
187.366315927
 51
265.0
  0
ARC
  5
675
100
AcDbEntity
  8
ASSI
100
AcDbCircle
 62
7
  6
CONTINUOUS
 10
-35.0678750731
 20
11.7248993522
 30
0.0
 40
0.3
100
AcDbArc
 50
180.0
 51
265.0
  0
ARC
  5
676
100
AcDbEntity
  8
SUPERFICI
100
AcDbCircle
 62
7
  6
CONTINUOUS
 10
-35.0678750731
 20
11.7248993522
 30
0.0
 40
0.3
100
AcDbArc
 50
187.3663159403
 51
265.0
  0
ARC
  5
677
100
AcDbEntity
  8
RACCORDO
100
AcDbCircle
 62
7
  6
CONTINUOUS
 10
-33.6678750731
 20
11.0001233207
 30
0.0
 40
0.3
100
AcDbArc
 50
0.0
 51
85.0
  0
ARC
  5
678
100
AcDbEntity
  8
ASSI
100
AcDbCircle
 62
7
  6
CONTINUOUS
 10
-33.6678750731
 20
11.0001233207
 30
0.0
 40
0.3
100
AcDbArc
 50
0.0
 51
85.0
  0
ARC
  5
679
100
AcDbEntity
  8
SUPERFICI
100
AcDbCircle
 62
7
  6
CONTINUOUS
 10
-33.6678750731
 20
11.0001233207
 30
0.0
 40
0.3
100
AcDbArc
 50
0.0
 51
85.0
  0
ARC
  5
67A
100
AcDbEntity
  8
ASSI
100
AcDbCircle
 62
7
  6
CONTINUOUS
 10
-66.5846674799
 20
20.3229244522
 30
0.0
 40
2.9822076689
100
AcDbArc
 50
353.7836127135
 51
355.0908574539
  0
ARC
  5
67B
100
AcDbEntity
  8
0
100
AcDbCircle
 62
7
  6
CONTINUOUS
 10
-63.2806021249
 20
18.6
 30
0.0
 40
2.2
100
AcDbArc
 50
234.1867273444
 51
245.8744219724
  0
ARC
  5
67C
100
AcDbEntity
  8
ASSI
100
AcDbCircle
 62
7
  6
CONTINUOUS
 10
-65.5678750731
 20
20.0
 30
0.0
 40
2.0
100
AcDbArc
 50
349.3634586621
 51
13.6640901581
  0
ARC
  5
67D
100
AcDbEntity
  8
RACCORDO
100
AcDbCircle
 62
7
  6
CONTINUOUS
 10
-68.5085737871
 20
20.9964663801
 30
0.0
 40
1.0
100
AcDbArc
 50
91.5
 51
171.4665223736
  0
ARC
  5
67E
100
AcDbEntity
  8
RACCORDO
100
AcDbCircle
 62
250
  6
CONTINUOUS
 10
-68.521657599
 20
20.9964611073
 30
0.0
 40
0.500005393
100
AcDbArc
 50
91.5005182441
 51
171.4660041296
  0
ARC
  5
67F
100
AcDbEntity
  8
RACCORDO
100
AcDbCircle
 62
7
  6
CONTINUOUS
 10
-63.3678750731
 20
19.2423626323
 30
0.0
 40
0.5
100
AcDbArc
 50
277.0
 51
360.0
  0
ARC
  5
680
100
AcDbEntity
  8
0
100
AcDbCircle
 62
7
  6
CONTINUOUS
 10
-53.3678750731
 20
23.4563578147
 30
0.0
 40
0.5
100
AcDbArc
 50
0.0
 51
89.6666666667
  0
ARC
  5
681
100
AcDbEntity
  8
0
100
AcDbCircle
 62
7
  6
CONTINUOUS
 10
-63.1178750731
 20
24.2369056521
 30
0.0
 40
0.25
100
AcDbArc
 50
90.3333333333
 51
180.0
  0
ARC
  5
682
100
AcDbEntity
  8
0
100
AcDbCircle
 62
7
  6
CONTINUOUS
 10
-60.1178750731
 20
24.2456323968
 30
0.0
 40
0.25
100
AcDbArc
 50
0.0
 51
89.6666666667
  0
ARC
  5
683
100
AcDbEntity
  8
0
100
AcDbCircle
 62
7
  6
CONTINUOUS
 10
-63.1178750731
 20
24.2382154929
 30
0.0
 40
0.25
100
AcDbArc
 50
90.3
 51
180.0
  0
ARC
  5
684
100
AcDbEntity
  8
0
100
AcDbCircle
 62
7
  6
CONTINUOUS
 10
-60.1178750731
 20
23.8443375673
 30
0.0
 40
0.25
100
AcDbArc
 50
300.0
 51
360.0
  0
ARC
  5
685
100
AcDbEntity
  8
0
100
AcDbCircle
 62
7
  6
CONTINUOUS
 10
-63.1178750731
 20
23.8443375673
 30
0.0
 40
0.25
100
AcDbArc
 50
180.0
 51
240.0
  0
ARC
  5
686
100
AcDbEntity
  8
0
100
AcDbCircle
 62
7
  6
CONTINUOUS
 10
-48.3678750731
 20
21.3272602039
 30
0.0
 40
1.0
100
AcDbArc
 50
0.0
 51
89.6666666667
  0
ARC
  5
687
100
AcDbEntity
  8
RACCORDO
100
AcDbCircle
 62
7
  6
CONTINUOUS
 10
-35.8678750731
 20
18.9101697582
 30
0.0
 40
0.5
100
AcDbArc
 50
0.0
 51
89.0
  0
ARC
  5
688
100
AcDbEntity
  8
ASSI
100
AcDbCircle
 62
7
  6
CONTINUOUS
 10
-35.8678750731
 20
18.9101696055
 30
0.0
 40
0.5
100
AcDbArc
 50
0.0000174999
 51
89.0000003054
  0
ARC
  5
689
100
AcDbEntity
  8
SUPERFICI
100
AcDbCircle
 62
7
  6
CONTINUOUS
 10
-35.8678750731
 20
18.9101697582
 30
0.0
 40
0.5
100
AcDbArc
 50
0.0
 51
89.0
  0
ARC
  5
68A
100
AcDbEntity
  8
RACCORDO
100
AcDbCircle
 62
7
  6
CONTINUOUS
 10
19.506136607
 20
7.79
 30
0.0
 40
90.0
100
AcDbArc
 50
171.4665223736
 51
178.91131468
  0
ARC
  5
68B
100
AcDbEntity
  8
RACCORDO
100
AcDbCircle
 62
7
  6
CONTINUOUS
 10
429.4321249269
 20
0.0
 30
0.0
 40
500.0
100
AcDbArc
 50
178.91131468
 51
181.08868532
  0
ARC
  5
68C
100
AcDbEntity
  8
RACCORDO
100
AcDbCircle
 62
250
  6
CONTINUOUS
 10
429.4643790472
 20
-0.0
 30
0.0
 40
499.5453344101
100
AcDbArc
 50
178.9114134915
 51
181.0885865085
  0
SPLINE
  5
68D
100
AcDbEntity
  8
RACCORDO
100
AcDbSpline
 62
250
  6
CONTINUOUS
 70
0
 71
3
 72
18
 73
14
 74
0
 42
0.0000001
 43
0.0000001
 44
0.0000000001
 40
0.0
 40
0.0
 40
0.0
 40
0.0
 40
0.0072609829
 40
0.0233217761
 40
0.0481094569
 40
0.0814542005
 40
0.1231020112
 40
0.1727470032
 40
0.2944495357
 40
0.4428669224
 40
0.6134851702
 40
0.8010947364
 40
1.0
 40
1.0
 40
1.0
 40
1.0
 10
-21.5462950425
 20
-21.996123705
 30
0.0
 10
-21.5453733451
 20
-21.9942802955
 30
0.0
 10
-21.5450902112
 20
-21.9874245283
 30
0.0
 10
-21.543647369
 20
-21.9740283823
 30
0.0
 10
-21.5428312439
 20
-21.9528790997
 30
0.0
 10
-21.5416954571
 20
-21.9246236269
 30
0.0
 10
-21.5407123044
 20
-21.8892425353
 30
0.0
 10
-21.5392920115
 20
-21.8288091279
 30
0.0
 10
-21.5377645986
 20
-21.7380527888
 30
0.0
 10
-21.5362455198
 20
-21.6129626065
 30
0.0
 10
-21.5350268546
 20
-21.4691582767
 30
0.0
 10
-21.5341406421
 20
-21.3110215556
 30
0.0
 10
-21.5338007062
 20
-21.2013117318
 30
0.0
 10
-21.5336897634
 20
-21.1448536428
 30
0.0
  0
SPLINE
  5
68E
100
AcDbEntity
  8
RACCORDO
100
AcDbSpline
 62
250
  6
CONTINUOUS
 70
0
 71
3
 72
16
 73
12
 74
0
 42
0.0000001
 43
0.0000001
 44
0.0000000001
 40
0.0
 40
0.0
 40
0.0
 40
0.0
 40
0.0076127746
 40
0.0238186654
 40
0.0486809914
 40
0.0820613338
 40
0.1733511714
 40
0.2949884089
 40
0.4433001649
 40
0.6137872084
 40
1.0
 40
1.0
 40
1.0
 40
1.0
 10
-22.046123705
 20
-21.4962950425
 30
0.0
 10
-22.0453588169
 20
-21.4955305867
 30
0.0
 10
-22.0447765028
 20
-21.491910603
 30
0.0
 10
-22.0435639455
 20
-21.4853213558
 30
0.0
 10
-22.0426232909
 20
-21.4746669021
 30
0.0
 10
-22.0410098927
 20
-21.4535537128
 30
0.0
 10
-22.0393539354
 20
-21.4185514375
 30
0.0
 10
-22.0375818572
 20
-21.3672897261
 30
0.0
 10
-22.0360785874
 20
-21.3047336954
 30
0.0
 10
-22.034376162
 20
-21.2046030314
 30
0.0
 10
-22.0337340072
 20
-21.1255218711
 30
0.0
 10
-22.0335184259
 20
-21.0706600114
 30
0.0
  0
SPLINE
  5
68F
100
AcDbEntity
  8
RACCORDO
100
AcDbSpline
 62
250
  6
CONTINUOUS
 70
0
 71
3
 72
13
 73
9
 74
0
 42
0.0000001
 43
0.0000001
 44
0.0000000001
 40
0.0
 40
0.0
 40
0.0
 40
0.0
 40
0.0360019916
 40
0.1001309876
 40
0.1949878188
 40
0.3181445122
 40
0.6327284623
 40
1.0
 40
1.0
 40
1.0
 40
1.0
 10
-22.0335184259
 20
-21.0706600114
 30
0.0
 10
-22.0324605269
 20
-21.0767260287
 30
0.0
 10
-22.0176643893
 20
-21.0892324083
 30
0.0
 10
-21.9873561934
 20
-21.1008707061
 30
0.0
 10
-21.9401350721
 20
-21.1131425176
 30
0.0
 10
-21.8505016586
 20
-21.1283833706
 30
0.0
 10
-21.7130792866
 20
-21.1409928194
 30
0.0
 10
-21.5965053144
 20
-21.1446122575
 30
0.0
 10
-21.5336897634
 20
-21.144853635
 30
0.0
  0
SPLINE
  5
690
100
AcDbEntity
  8
RACCORDO
100
AcDbSpline
 62
250
  6
CONTINUOUS
 70
0
 71
3
 72
16
 73
12
 74
0
 42
0.0000001
 43
0.0000001
 44
0.0000000001
 40
0.0
 40
0.0
 40
0.0
 40
0.0
 40
0.0074247399
 40
0.023963414
 40
0.0495092993
 40
0.0838840729
 40
0.1779179336
 40
0.3023240056
 40
0.4526535438
 40
0.6234466358
 40
1.0
 40
1.0
 40
1.0
 40
1.0
 10
-22.0079958269
 20
-9.4905
 30
0.0
 10
-22.0069943333
 20
-9.4912272939
 30
0.0
 10
-22.0027407759
 20
-9.4914797713
 30
0.0
 10
-21.9947710432
 20
-9.4926200826
 30
0.0
 10
-21.9819266272
 20
-9.4932896158
 30
0.0
 10
-21.956362558
 20
-9.4946344646
 30
0.0
 10
-21.9141871232
 20
-9.4959056692
 30
0.0
 10
-21.852750074
 20
-9.4973007772
 30
0.0
 10
-21.7784796076
 20
-9.498421529
 30
0.0
 10
-21.6621849267
 20
-9.4996159097
 30
0.0
 10
-21.570939305
 20
-9.4999687744
 30
0.0
 10
-21.5081671644
 20
-9.5
 30
0.0
  0
SPLINE
  5
691
100
AcDbEntity
  8
RACCORDO
100
AcDbSpline
 62
250
  6
CONTINUOUS
 70
0
 71
3
 72
8
 73
4
 74
0
 42
0.0000001
 43
0.0000001
 44
0.0000000001
 40
0.0
 40
0.0
 40
0.0
 40
0.0
 40
1.0
 40
1.0
 40
1.0
 40
1.0
 10
-22.0079958269
 20
-9.4905
 30
0.0
 10
-22.0048473725
 20
-3.1635007834
 30
0.0
 10
-22.0048473722
 20
3.1635007834
 30
0.0
 10
-22.0079958269
 20
9.4905
 30
0.0
  0
SPLINE
  5
692
100
AcDbEntity
  8
RACCORDO
100
AcDbSpline
 62
250
  6
CONTINUOUS
 70
0
 71
3
 72
16
 73
12
 74
0
 42
0.0000001
 43
0.0000001
 44
0.0000000001
 40
0.0
 40
0.0
 40
0.0
 40
0.0
 40
0.0074247486
 40
0.0239634305
 40
0.0495093223
 40
0.0838841009
 40
0.1779179676
 40
0.3023240403
 40
0.4526535745
 40
0.6234466586
 40
1.0
 40
1.0
 40
1.0
 40
1.0
 10
-22.0079958269
 20
9.4905
 30
0.0
 10
-22.0069943308
 20
9.4912272929
 30
0.0
 10
-22.0027407726
 20
9.491479772
 30
0.0
 10
-21.9947710343
 20
9.4926200818
 30
0.0
 10
-21.981926616
 20
9.4932896158
 30
0.0
 10
-21.9563625434
 20
9.494634464
 30
0.0
 10
-21.9141871071
 20
9.4959056689
 30
0.0
 10
-21.8527500572
 20
9.4973007765
 30
0.0
 10
-21.7784795928
 20
9.4984215283
 30
0.0
 10
-21.6621849177
 20
9.4996159088
 30
0.0
 10
-21.5709393012
 20
9.4999687735
 30
0.0
 10
-21.5081671644
 20
9.499999999
 30
0.0
  0
SPLINE
  5
693
100
AcDbEntity
  8
RACCORDO
100
AcDbSpline
 62
250
  6
CONTINUOUS
 70
0
 71
3
 72
9
 73
5
 74
0
 42
0.0000001
 43
0.0000001
 44
0.0000000001
 40
0.0
 40
0.0
 40
0.0
 40
0.0
 40
0.250891665
 40
1.0
 40
1.0
 40
1.0
 40
1.0
 10
-21.5081671644
 20
9.5
 30
0.0
 10
-21.5086491053
 20
10.4738680573
 30
0.0
 10
-21.5122124937
 20
14.3554948335
 30
0.0
 10
-21.5223283166
 20
18.2371157571
 30
0.0
 10
-21.5336897634
 20
21.1448536428
 30
0.0
  0
SPLINE
  5
694
100
AcDbEntity
  8
RACCORDO
100
AcDbSpline
 62
250
  6
CONTINUOUS
 70
0
 71
3
 72
9
 73
5
 74
0
 42
0.0000001
 43
0.0000001
 44
0.0000000001
 40
0.0
 40
0.0
 40
0.0
 40
0.0
 40
0.2508916649
 40
1.0
 40
1.0
 40
1.0
 40
1.0
 10
-22.0079958269
 20
9.4905
 30
0.0
 10
-22.0084777678
 20
10.4589577065
 30
0.0
 10
-22.0120411563
 20
14.3190199886
 30
0.0
 10
-22.0221569801
 20
18.1790763854
 30
0.0
 10
-22.0335184259
 20
21.0706600114
 30
0.0
  0
SPLINE
  5
695
100
AcDbEntity
  8
RACCORDO
100
AcDbSpline
 62
250
  6
CONTINUOUS
 70
0
 71
3
 72
16
 73
12
 74
0
 42
0.0000001
 43
0.0000001
 44
0.0000000001
 40
0.0
 40
0.0
 40
0.0
 40
0.0
 40
0.38618976
 40
0.5566737868
 40
0.7049879645
 40
0.8266309851
 40
0.9179284137
 40
0.9513119278
 40
0.9761777012
 40
0.9923851607
 40
1.0
 40
1.0
 40
1.0
 40
1.0
 10
-22.0335184259
 20
21.0706600114
 30
0.0
 10
-22.0337339528
 20
21.1255185945
 30
0.0
 10
-22.0343760997
 20
21.204596044
 30
0.0
 10
-22.0360783712
 20
21.3047233518
 30
0.0
 10
-22.0375815841
 20
21.367280099
 30
0.0
 10
-22.03935363
 20
21.418544096
 30
0.0
 10
-22.0410096271
 20
21.4535486241
 30
0.0
 10
-22.04262304
 20
21.4746639659
 30
0.0
 10
-22.043563783
 20
21.4853193505
 30
0.0
 10
-22.0447762967
 20
21.491910068
 30
0.0
 10
-22.0453590303
 20
21.4955299586
 30
0.0
 10
-22.046123705
 20
21.4962950425
 30
0.0
  0
SPLINE
  5
696
100
AcDbEntity
  8
RACCORDO
100
AcDbSpline
 62
250
  6
CONTINUOUS
 70
0
 71
3
 72
13
 73
9
 74
0
 42
0.0000001
 43
0.0000001
 44
0.0000000001
 40
0.0
 40
0.0
 40
0.0
 40
0.0
 40
0.036001992
 40
0.1001309914
 40
0.1949878269
 40
0.3181445241
 40
0.6327284738
 40
1.0
 40
1.0
 40
1.0
 40
1.0
 10
-22.0335184259
 20
21.0706600114
 30
0.0
 10
-22.0324605266
 20
21.0767260287
 30
0.0
 10
-22.0176643872
 20
21.0892324075
 30
0.0
 10
-21.9873561901
 20
21.1008707045
 30
0.0
 10
-21.9401350666
 20
21.113142515
 30
0.0
 10
-21.8505016519
 20
21.1283833665
 30
0.0
 10
-21.7130792818
 20
21.1409928137
 30
0.0
 10
-21.5965053121
 20
21.1446122514
 30
0.0
 10
-21.5336897634
 20
21.144853629
 30
0.0
  0
SPLINE
  5
697
100
AcDbEntity
  8
RACCORDO
100
AcDbSpline
 62
250
  6
CONTINUOUS
 70
0
 71
3
 72
18
 73
14
 74
0
 42
0.0000001
 43
0.0000001
 44
0.0000000001
 40
0.0
 40
0.0
 40
0.0
 40
0.0
 40
0.1988897235
 40
0.3864915487
 40
0.5571067944
 40
0.7055268279
 40
0.8272354847
 40
0.8768840757
 40
0.918536002
 40
0.9518839857
 40
0.9766753158
 40
0.9927376655
 40
1.0
 40
1.0
 40
1.0
 40
1.0
 10
-21.5336897634
 20
21.1448536428
 30
0.0
 10
-21.5338006183
 20
21.2013073177
 30
0.0
 10
-21.5341407279
 20
21.3110105265
 30
0.0
 10
-21.5350268936
 20
21.4691397782
 30
0.0
 10
-21.5362456159
 20
21.6129418006
 30
0.0
 10
-21.5377647327
 20
21.7380336139
 30
0.0
 10
-21.539292149
 20
21.8287934566
 30
0.0
 10
-21.5407124473
 20
21.8892307933
 30
0.0
 10
-21.5416955713
 20
21.9246149863
 30
0.0
 10
-21.5428313822
 20
21.9528736033
 30
0.0
 10
-21.5436475675
 20
21.9740252357
 30
0.0
 10
-21.5450902747
 20
21.9874233455
 30
0.0
 10
-21.5453733927
 20
21.9942798429
 30
0.0
 10
-21.5462950425
 20
21.996123705
 30
0.0
  0
SPLINE
  5
698
100
AcDbEntity
  8
RACCORDO
100
AcDbSpline
 62
250
  6
CONTINUOUS
 70
0
 71
3
 72
13
 73
9
 74
0
 42
0.0000001
 43
0.0000001
 44
0.0000000001
 40
0.0
 40
0.0
 40
0.0
 40
0.0
 40
0.0360020046
 40
0.1001310248
 40
0.1949878797
 40
0.3181445891
 40
0.6327285275
 40
1.0
 40
1.0
 40
1.0
 40
1.0
 10
22.0335184259
 20
-21.0706600114
 30
0.0
 10
22.0324605212
 20
-21.0767260298
 30
0.0
 10
22.0176643713
 20
-21.0892324023
 30
0.0
 10
21.9873561656
 20
-21.1008706984
 30
0.0
 10
21.9401350326
 20
-21.1131425043
 30
0.0
 10
21.8505016157
 20
-21.1283833499
 30
0.0
 10
21.7130792573
 20
-21.1409927906
 30
0.0
 10
21.5965053015
 20
-21.1446122261
 30
0.0
 10
21.5336897634
 20
-21.1448536032
 30
0.0
  0
SPLINE
  5
699
100
AcDbEntity
  8
RACCORDO
100
AcDbSpline
 62
250
  6
CONTINUOUS
 70
0
 71
3
 72
18
 73
14
 74
0
 42
0.0000001
 43
0.0000001
 44
0.0000000001
 40
0.0
 40
0.0
 40
0.0
 40
0.0
 40
0.1989028367
 40
0.3865111572
 40
0.5571289329
 40
0.705546703
 40
0.8272501652
 40
0.8768957925
 40
0.9185441898
 40
0.9518894702
 40
0.9766777024
 40
0.9927388453
 40
1.0
 40
1.0
 40
1.0
 40
1.0
 10
21.5336897634
 20
-21.1448536428
 30
0.0
 10
21.5338007076
 20
-21.201311043
 30
0.0
 10
21.5341406426
 20
-21.3110198246
 30
0.0
 10
21.535026839
 20
-21.4691553695
 30
0.0
 10
21.5362454902
 20
-21.6129593209
 30
0.0
 10
21.5377645524
 20
-21.7380497419
 30
0.0
 10
21.5392919561
 20
-21.8288066353
 30
0.0
 10
21.5407122449
 20
-21.8892406524
 30
0.0
 10
21.541695395
 20
-21.9246222468
 30
0.0
 10
21.5428312061
 20
-21.9528781856
 30
0.0
 10
21.5436472909
 20
-21.9740279
 30
0.0
 10
21.5450902397
 20
-21.987424304
 30
0.0
 10
21.5453732726
 20
-21.9942802772
 30
0.0
 10
21.5462950425
 20
-21.996123705
 30
0.0
  0
SPLINE
  5
69A
100
AcDbEntity
  8
RACCORDO
100
AcDbSpline
 62
250
  6
CONTINUOUS
 70
0
 71
3
 72
16
 73
12
 74
0
 42
0.0000001
 43
0.0000001
 44
0.0000000001
 40
0.0
 40
0.0
 40
0.0
 40
0.0
 40
0.3862090569
 40
0.5566955964
 40
0.7050077196
 40
0.8266458931
 40
0.9179369713
 40
0.9513178607
 40
0.9761807613
 40
0.9923870685
 40
1.0
 40
1.0
 40
1.0
 40
1.0
 10
22.0335184259
 20
-21.0706600114
 30
0.0
 10
22.0337340041
 20
-21.1255213403
 30
0.0
 10
22.0343761533
 20
-21.2046018983
 30
0.0
 10
22.0360785569
 20
-21.3047320115
 30
0.0
 10
22.0375818143
 20
-21.3672881573
 30
0.0
 10
22.0393538934
 20
-21.4185502254
 30
0.0
 10
22.0410098396
 20
-21.4535528987
 30
0.0
 10
22.0426232634
 20
-21.4746664079
 30
0.0
 10
22.0435638894
 20
-21.4853211097
 30
0.0
 10
22.0447765289
 20
-21.4919104608
 30
0.0
 10
22.0453587721
 20
-21.4955306001
 30
0.0
 10
22.046123705
 20
-21.4962950425
 30
0.0
  0
SPLINE
  5
69B
100
AcDbEntity
  8
RACCORDO
100
AcDbSpline
 62
250
  6
CONTINUOUS
 70
0
 71
3
 72
9
 73
5
 74
0
 42
0.0000001
 43
0.0000001
 44
0.0000000001
 40
0.0
 40
0.0
 40
0.0
 40
0.0
 40
0.250891665
 40
1.0
 40
1.0
 40
1.0
 40
1.0
 10
21.5081671644
 20
-9.5
 30
0.0
 10
21.5086491024
 20
-10.4738680573
 30
0.0
 10
21.5122124972
 20
-14.3554948335
 30
0.0
 10
21.5223283254
 20
-18.2371157571
 30
0.0
 10
21.5336897634
 20
-21.1448536428
 30
0.0
  0
SPLINE
  5
69C
100
AcDbEntity
  8
RACCORDO
100
AcDbSpline
 62
250
  6
CONTINUOUS
 70
0
 71
3
 72
9
 73
5
 74
0
 42
0.0000001
 43
0.0000001
 44
0.0000000001
 40
0.0
 40
0.0
 40
0.0
 40
0.0
 40
0.250891665
 40
1.0
 40
1.0
 40
1.0
 40
1.0
 10
22.0079958269
 20
-9.4905
 30
0.0
 10
22.0084777649
 20
-10.4589577068
 30
0.0
 10
22.0120411597
 20
-14.3190199889
 30
0.0
 10
22.0221569889
 20
-18.1790763857
 30
0.0
 10
22.0335184259
 20
-21.0706600114
 30
0.0
  0
SPLINE
  5
69D
100
AcDbEntity
  8
RACCORDO
100
AcDbSpline
 62
250
  6
CONTINUOUS
 70
0
 71
3
 72
16
 73
12
 74
0
 42
0.0000001
 43
0.0000001
 44
0.0000000001
 40
0.0
 40
0.0
 40
0.0
 40
0.0
 40
0.007424745
 40
0.0239634236
 40
0.0495093127
 40
0.0838840893
 40
0.1779179534
 40
0.3023240259
 40
0.4526535617
 40
0.6234466491
 40
1.0
 40
1.0
 40
1.0
 40
1.0
 10
22.0079958269
 20
-9.4905
 30
0.0
 10
22.0069943318
 20
-9.4912272933
 30
0.0
 10
22.0027407739
 20
-9.4914797717
 30
0.0
 10
21.994771038
 20
-9.4926200821
 30
0.0
 10
21.9819266207
 20
-9.4932896158
 30
0.0
 10
21.9563625494
 20
-9.4946344642
 30
0.0
 10
21.9141871138
 20
-9.495905669
 30
0.0
 10
21.8527500642
 20
-9.4973007768
 30
0.0
 10
21.778479599
 20
-9.4984215286
 30
0.0
 10
21.6621849215
 20
-9.4996159092
 30
0.0
 10
21.5709393028
 20
-9.4999687739
 30
0.0
 10
21.5081671644
 20
-9.4999999994
 30
0.0
  0
SPLINE
  5
69E
100
AcDbEntity
  8
RACCORDO
100
AcDbSpline
 62
250
  6
CONTINUOUS
 70
0
 71
3
 72
16
 73
12
 74
0
 42
0.0000001
 43
0.0000001
 44
0.0000000001
 40
0.0
 40
0.0
 40
0.0
 40
0.0
 40
0.0074247398
 40
0.0239634139
 40
0.0495092992
 40
0.0838840727
 40
0.1779179333
 40
0.3023240054
 40
0.4526535436
 40
0.6234466357
 40
1.0
 40
1.0
 40
1.0
 40
1.0
 10
22.0079958269
 20
9.4905
 30
0.0
 10
22.0069943333
 20
9.4912272939
 30
0.0
 10
22.0027407759
 20
9.4914797713
 30
0.0
 10
21.9947710432
 20
9.4926200826
 30
0.0
 10
21.9819266273
 20
9.4932896158
 30
0.0
 10
21.9563625581
 20
9.4946344646
 30
0.0
 10
21.9141871234
 20
9.4959056692
 30
0.0
 10
21.8527500741
 20
9.4973007772
 30
0.0
 10
21.7784796077
 20
9.498421529
 30
0.0
 10
21.6621849268
 20
9.4996159097
 30
0.0
 10
21.5709393051
 20
9.4999687744
 30
0.0
 10
21.5081671644
 20
9.5
 30
0.0
  0
SPLINE
  5
69F
100
AcDbEntity
  8
RACCORDO
100
AcDbSpline
 62
250
  6
CONTINUOUS
 70
0
 71
3
 72
8
 73
4
 74
0
 42
0.0000001
 43
0.0000001
 44
0.0000000001
 40
0.0
 40
0.0
 40
0.0
 40
0.0
 40
1.0
 40
1.0
 40
1.0
 40
1.0
 10
22.0079958269
 20
9.4905
 30
0.0
 10
22.0048473722
 20
3.1635007834
 30
0.0
 10
22.0048473725
 20
-3.1635007834
 30
0.0
 10
22.0079958269
 20
-9.4905
 30
0.0
  0
SPLINE
  5
6A0
100
AcDbEntity
  8
RACCORDO
100
AcDbSpline
 62
250
  6
CONTINUOUS
 70
0
 71
3
 72
13
 73
9
 74
0
 42
0.0000001
 43
0.0000001
 44
0.0000000001
 40
0.0
 40
0.0
 40
0.0
 40
0.0
 40
0.0360019877
 40
0.1001309796
 40
0.1949878083
 40
0.3181445011
 40
0.6327284547
 40
1.0
 40
1.0
 40
1.0
 40
1.0
 10
22.0335184259
 20
21.0706600114
 30
0.0
 10
22.0324605287
 20
21.0767260284
 30
0.0
 10
22.0176643931
 20
21.0892324097
 30
0.0
 10
21.9873561991
 20
21.1008707071
 30
0.0
 10
21.940135079
 20
21.1131425194
 30
0.0
 10
21.850501665
 20
21.128383373
 30
0.0
 10
21.7130792906
 20
21.1409928224
 30
0.0
 10
21.596505316
 20
21.1446122606
 30
0.0
 10
21.5336897634
 20
21.1448536382
 30
0.0
  0
SPLINE
  5
6A1
100
AcDbEntity
  8
RACCORDO
100
AcDbSpline
 62
250
  6
CONTINUOUS
 70
0
 71
3
 72
16
 73
12
 74
0
 42
0.0000001
 43
0.0000001
 44
0.0000000001
 40
0.0
 40
0.0
 40
0.0
 40
0.0
 40
0.0076146936
 40
0.0238219199
 40
0.0486871128
 40
0.0820701775
 40
0.1733664277
 40
0.2950084599
 40
0.4433221329
 40
0.6138065403
 40
1.0
 40
1.0
 40
1.0
 40
1.0
 10
22.046123705
 20
21.4962950425
 30
0.0
 10
22.0453590357
 20
21.4955299826
 30
0.0
 10
22.0447763023
 20
21.4919101413
 30
0.0
 10
22.0435638277
 20
21.4853195595
 30
0.0
 10
22.0426230707
 20
21.4746643558
 30
0.0
 10
22.0410096791
 20
21.4535493276
 30
0.0
 10
22.0393536757
 20
21.4185451713
 30
0.0
 10
22.0375816302
 20
21.3672815541
 30
0.0
 10
22.0360784054
 20
21.3047249651
 30
0.0
 10
22.0343761118
 20
21.2045971495
 30
0.0
 10
22.0337339519
 20
21.1255191202
 30
0.0
 10
22.0335184259
 20
21.0706600114
 30
0.0
  0
SPLINE
  5
6A2
100
AcDbEntity
  8
RACCORDO
100
AcDbSpline
 62
250
  6
CONTINUOUS
 70
0
 71
3
 72
18
 73
14
 74
0
 42
0.0000001
 43
0.0000001
 44
0.0000000001
 40
0.0
 40
0.0
 40
0.0
 40
0.0
 40
0.0072621462
 40
0.0233242138
 40
0.0481149605
 40
0.0814624803
 40
0.1231136962
 40
0.1727617934
 40
0.2944694727
 40
0.4428890294
 40
0.6135046873
 40
0.8011076983
 40
1.0
 40
1.0
 40
1.0
 40
1.0
 10
21.5462950425
 20
21.996123705
 30
0.0
 10
21.5453733737
 20
21.9942799121
 30
0.0
 10
21.5450902806
 20
21.9874235221
 30
0.0
 10
21.5436476077
 20
21.9740257296
 30
0.0
 10
21.542831412
 20
21.9528744655
 30
0.0
 10
21.5416956205
 20
21.9246163514
 30
0.0
 10
21.5407124947
 20
21.8892326304
 30
0.0
 10
21.5392922106
 20
21.8287959133
 30
0.0
 10
21.5377647867
 20
21.7380366231
 30
0.0
 10
21.5362456627
 20
21.6129451056
 30
0.0
 10
21.535026925
 20
21.4691427645
 30
0.0
 10
21.5341407402
 20
21.3110123272
 30
0.0
 10
21.5338006218
 20
21.2013080496
 30
0.0
 10
21.5336897634
 20
21.1448536428
 30
0.0
  0
SPLINE
  5
6A3
100
AcDbEntity
  8
0
100
AcDbSpline
 62
7
  6
CONTINUOUS
 70
0
 71
3
 72
9
 73
5
 74
0
 42
0.0000001
 43
0.0000001
 44
0.0000000001
 40
0.0
 40
0.0
 40
0.0
 40
0.0
 40
0.4999997029
 40
1.0
 40
1.0
 40
1.0
 40
1.0
 10
1.2927030628
 20
-24.4767843893
 30
0.0
 10
1.2424158717
 20
-24.4620253658
 30
0.0
 10
1.1489166299
 20
-24.3982392228
 30
0.0
 10
1.1134104716
 20
-24.290767549
 30
0.0
 10
1.1131028721
 20
-24.2383600851
 30
0.0
  0
SPLINE
  5
6A4
100
AcDbEntity
  8
0
100
AcDbSpline
 62
7
  6
CONTINUOUS
 70
0
 71
3
 72
9
 73
5
 74
0
 42
0.0000001
 43
0.0000001
 44
0.0000000001
 40
0.0
 40
0.0
 40
0.0
 40
0.0
 40
0.5000023509
 40
1.0
 40
1.0
 40
1.0
 40
1.0
 10
-12.3846177395
 20
-23.9874345796
 30
0.0
 10
-12.3462456619
 20
-23.9741602477
 30
0.0
 10
-12.2760665318
 20
-23.9223047804
 30
0.0
 10
-12.25
 20
-23.8390293198
 30
0.0
 10
-12.25
 20
-23.7984264477
 30
0.0
  0
SPLINE
  5
6A5
100
AcDbEntity
  8
0
100
AcDbSpline
 62
7
  6
CONTINUOUS
 70
0
 71
3
 72
9
 73
5
 74
0
 42
0.0000001
 43
0.0000001
 44
0.0000000001
 40
0.0
 40
0.0
 40
0.0
 40
0.0
 40
0.4999996032
 40
1.0
 40
1.0
 40
1.0
 40
1.0
 10
-1.2913927382
 20
24.4780953786
 30
0.0
 10
-1.2410831652
 20
24.4633300509
 30
0.0
 10
-1.1475444269
 20
24.3994983666
 30
0.0
 10
-1.1120682202
 20
24.2919553922
 30
0.0
 10
-1.1117914078
 20
24.239524484
 30
0.0
  0
SPLINE
  5
6A6
100
AcDbEntity
  8
0
100
AcDbSpline
 62
7
  6
CONTINUOUS
 70
0
 71
3
 72
9
 73
5
 74
0
 42
0.0000001
 43
0.0000001
 44
0.0000000001
 40
0.0
 40
0.0
 40
0.0
 40
0.0
 40
0.4999997029
 40
1.0
 40
1.0
 40
1.0
 40
1.0
 10
3.8072969372
 20
24.4767843893
 30
0.0
 10
3.8575841283
 20
24.4620253658
 30
0.0
 10
3.9510833701
 20
24.3982392228
 30
0.0
 10
3.9865895284
 20
24.290767549
 30
0.0
 10
3.9868971279
 20
24.2383600851
 30
0.0
  0
SPLINE
  5
6A7
100
AcDbEntity
  8
0
100
AcDbSpline
 62
7
  6
CONTINUOUS
 70
0
 71
3
 72
9
 73
5
 74
0
 42
0.0000001
 43
0.0000001
 44
0.0000000001
 40
0.0
 40
0.0
 40
0.0
 40
0.0
 40
0.5000031104
 40
1.0
 40
1.0
 40
1.0
 40
1.0
 10
10.05
 20
-23.9982478817
 30
0.0
 10
10.1010243165
 20
-23.9982478817
 30
0.0
 10
10.2073293857
 20
-23.9555796173
 30
0.0
 10
10.25
 20
-23.849274948
 30
0.0
 10
10.25
 20
-23.7982512664
 30
0.0
  0
SPLINE
  5
6A8
100
AcDbEntity
  8
0
100
AcDbSpline
 62
7
  6
CONTINUOUS
 70
0
 71
3
 72
9
 73
5
 74
0
 42
0.0000001
 43
0.0000001
 44
0.0000000001
 40
0.0
 40
0.0
 40
0.0
 40
0.0
 40
0.4999995732
 40
1.0
 40
1.0
 40
1.0
 40
1.0
 10
10.05
 20
-24.0
 30
0.0
 10
10.1010248459
 20
-24.0
 30
0.0
 10
10.2073316187
 20
-23.9573286265
 30
0.0
 10
10.25
 20
-23.8510215483
 30
0.0
 10
10.25
 20
-23.7999966153
 30
0.0
  0
SPLINE
  5
6A9
100
AcDbEntity
  8
0
100
AcDbSpline
 62
7
  6
CONTINUOUS
 70
0
 71
3
 72
9
 73
5
 74
0
 42
0.0000001
 43
0.0000001
 44
0.0000000001
 40
0.0
 40
0.0
 40
0.0
 40
0.0
 40
0.4999995732
 40
1.0
 40
1.0
 40
1.0
 40
1.0
 10
12.45
 20
-24.0
 30
0.0
 10
12.3989751541
 20
-24.0
 30
0.0
 10
12.2926683813
 20
-23.9573286265
 30
0.0
 10
12.25
 20
-23.8510215483
 30
0.0
 10
12.25
 20
-23.7999966153
 30
0.0
  0
SPLINE
  5
6AA
100
AcDbEntity
  8
0
100
AcDbSpline
 62
7
  6
CONTINUOUS
 70
0
 71
3
 72
9
 73
5
 74
0
 42
0.0000001
 43
0.0000001
 44
0.0000000001
 40
0.0
 40
0.0
 40
0.0
 40
0.0
 40
0.4999995732
 40
1.0
 40
1.0
 40
1.0
 40
1.0
 10
10.05
 20
24.0
 30
0.0
 10
10.1010248459
 20
24.0
 30
0.0
 10
10.2073316187
 20
23.9573286265
 30
0.0
 10
10.25
 20
23.8510215483
 30
0.0
 10
10.25
 20
23.7999966153
 30
0.0
  0
SPLINE
  5
6AB
100
AcDbEntity
  8
0
100
AcDbSpline
 62
7
  6
CONTINUOUS
 70
0
 71
3
 72
9
 73
5
 74
0
 42
0.0000001
 43
0.0000001
 44
0.0000000001
 40
0.0
 40
0.0
 40
0.0
 40
0.0
 40
0.5000031104
 40
1.0
 40
1.0
 40
1.0
 40
1.0
 10
12.45
 20
23.9982478817
 30
0.0
 10
12.3989756835
 20
23.9982478817
 30
0.0
 10
12.2926706143
 20
23.9555796173
 30
0.0
 10
12.25
 20
23.849274948
 30
0.0
 10
12.25
 20
23.7982512664
 30
0.0
  0
SPLINE
  5
6AC
100
AcDbEntity
  8
0
100
AcDbSpline
 62
7
  6
CONTINUOUS
 70
0
 71
3
 72
9
 73
5
 74
0
 42
0.0000001
 43
0.0000001
 44
0.0000000001
 40
0.0
 40
0.0
 40
0.0
 40
0.0
 40
0.4999995732
 40
1.0
 40
1.0
 40
1.0
 40
1.0
 10
12.45
 20
24.0
 30
0.0
 10
12.3989751541
 20
24.0
 30
0.0
 10
12.2926683813
 20
23.9573286265
 30
0.0
 10
12.25
 20
23.8510215483
 30
0.0
 10
12.25
 20
23.7999966153
 30
0.0
  0
SPLINE
  5
6AD
100
AcDbEntity
  8
0
100
AcDbSpline
 62
7
  6
CONTINUOUS
 70
0
 71
3
 72
8
 73
4
 74
0
 42
0.0000001
 43
0.0000001
 44
0.0000000001
 40
0.0
 40
0.0
 40
0.0
 40
0.0
 40
1.0
 40
1.0
 40
1.0
 40
1.0
 10
1.10451759
 20
24.2973162956
 30
0.0
 10
1.1119539214
 20
24.3358987345
 30
0.0
 10
1.129197086
 20
24.3736551271
 30
0.0
 10
1.153485468
 20
24.4045416633
 30
0.0
  0
SPLINE
  5
6AE
100
AcDbEntity
  8
0
100
AcDbSpline
 62
7
  6
CONTINUOUS
 70
0
 71
3
 72
9
 73
5
 74
0
 42
0.0000001
 43
0.0000001
 44
0.0000000001
 40
0.0
 40
0.0
 40
0.0
 40
0.0
 40
0.5000003099
 40
1.0
 40
1.0
 40
1.0
 40
1.0
 10
1.169064949
 20
24.4225214235
 30
0.0
 10
1.1921737479
 20
24.4467563967
 30
0.0
 10
1.2488279884
 20
24.4862531351
 30
0.0
 10
1.3165092386
 20
24.5
 30
0.0
 10
1.3499957692
 20
24.5
 30
0.0
  0
SPLINE
  5
6AF
100
AcDbEntity
  8
0
100
AcDbSpline
 62
7
  6
CONTINUOUS
 70
0
 71
3
 72
9
 73
5
 74
0
 42
0.0000001
 43
0.0000001
 44
0.0000000001
 40
0.0
 40
0.0
 40
0.0
 40
0.0
 40
0.4999964004
 40
1.0
 40
1.0
 40
1.0
 40
1.0
 10
1.1130985787
 20
24.2369056521
 30
0.0
 10
1.1131005962
 20
24.2965144766
 30
0.0
 10
1.1590992751
 20
24.420026045
 30
0.0
 10
1.2769501271
 20
24.4790421804
 30
0.0
 10
1.3362143146
 20
24.4854507968
 30
0.0
  0
SPLINE
  5
6B0
100
AcDbEntity
  8
0
100
AcDbSpline
 62
7
  6
CONTINUOUS
 70
0
 71
3
 72
8
 73
4
 74
0
 42
0.0000001
 43
0.0000001
 44
0.0000000001
 40
0.0
 40
0.0
 40
0.0
 40
0.0
 40
1.0
 40
1.0
 40
1.0
 40
1.0
 10
3.7973162956
 20
24.49548241
 30
0.0
 10
3.8471461409
 20
24.4858782675
 30
0.0
 10
3.8959150113
 20
24.4592481148
 30
0.0
 10
3.930935051
 20
24.4225214235
 30
0.0
  0
SPLINE
  5
6B1
100
AcDbEntity
  8
0
100
AcDbSpline
 62
7
  6
CONTINUOUS
 70
0
 71
3
 72
8
 73
4
 74
0
 42
0.0000001
 43
0.0000001
 44
0.0000000001
 40
0.0
 40
0.0
 40
0.0
 40
0.0
 40
1.0
 40
1.0
 40
1.0
 40
1.0
 10
3.946514532
 20
24.4045416633
 30
0.0
 10
3.980209756
 20
24.3616928331
 30
0.0
 10
4.0
 20
24.3045146919
 30
0.0
 10
4.0
 20
24.2500042308
 30
0.0
  0
SPLINE
  5
6B2
100
AcDbEntity
  8
0
100
AcDbSpline
 62
7
  6
CONTINUOUS
 70
0
 71
3
 72
8
 73
4
 74
0
 42
0.0000001
 43
0.0000001
 44
0.0000000001
 40
0.0
 40
0.0
 40
0.0
 40
0.0
 40
1.0
 40
1.0
 40
1.0
 40
1.0
 10
21.1973162956
 20
24.49548241
 30
0.0
 10
21.2358987345
 20
24.4880460786
 30
0.0
 10
21.2736551271
 20
24.470802914
 30
0.0
 10
21.3045416633
 20
24.446514532
 30
0.0
  0
SPLINE
  5
6B3
100
AcDbEntity
  8
0
100
AcDbSpline
 62
7
  6
CONTINUOUS
 70
0
 71
3
 72
8
 73
4
 74
0
 42
0.0000001
 43
0.0000001
 44
0.0000000001
 40
0.0
 40
0.0
 40
0.0
 40
0.0
 40
1.0
 40
1.0
 40
1.0
 40
1.0
 10
21.346514532
 20
24.4045416633
 30
0.0
 10
21.380209756
 20
24.3616928331
 30
0.0
 10
21.4
 20
24.3045146919
 30
0.0
 10
21.4
 20
24.2500042308
 30
0.0
  0
SPLINE
  5
6B4
100
AcDbEntity
  8
0
100
AcDbSpline
 62
7
  6
CONTINUOUS
 70
0
 71
3
 72
8
 73
4
 74
0
 42
0.0000001
 43
0.0000001
 44
0.0000000001
 40
0.0
 40
0.0
 40
0.0
 40
0.0
 40
1.0
 40
1.0
 40
1.0
 40
1.0
 10
18.50451759
 20
24.2973162956
 30
0.0
 10
18.5119539214
 20
24.3358987345
 30
0.0
 10
18.529197086
 20
24.3736551271
 30
0.0
 10
18.553485468
 20
24.4045416633
 30
0.0
  0
SPLINE
  5
6B5
100
AcDbEntity
  8
0
100
AcDbSpline
 62
7
  6
CONTINUOUS
 70
0
 71
3
 72
8
 73
4
 74
0
 42
0.0000001
 43
0.0000001
 44
0.0000000001
 40
0.0
 40
0.0
 40
0.0
 40
0.0
 40
1.0
 40
1.0
 40
1.0
 40
1.0
 10
18.5954583367
 20
24.446514532
 30
0.0
 10
18.6383071669
 20
24.480209756
 30
0.0
 10
18.6954853081
 20
24.5
 30
0.0
 10
18.7499957692
 20
24.5
 30
0.0
  0
SPLINE
  5
6B6
100
AcDbEntity
  8
0
100
AcDbSpline
 62
7
  6
CONTINUOUS
 70
0
 71
3
 72
8
 73
4
 74
0
 42
0.0000001
 43
0.0000001
 44
0.0000000001
 40
0.0
 40
0.0
 40
0.0
 40
0.0
 40
1.0
 40
1.0
 40
1.0
 40
1.0
 10
-21.3929531162
 20
24.3089428608
 30
0.0
 10
-21.3846011524
 20
24.3433713109
 30
0.0
 10
-21.3684132989
 20
24.3766935424
 30
0.0
 10
-21.3465143463
 20
24.404541511
 30
0.0
  0
SPLINE
  5
6B7
100
AcDbEntity
  8
0
100
AcDbSpline
 62
7
  6
CONTINUOUS
 70
0
 71
3
 72
9
 73
5
 74
0
 42
0.0000001
 43
0.0000001
 44
0.0000000001
 40
0.0
 40
0.0
 40
0.0
 40
0.0
 40
0.5000003242
 40
1.0
 40
1.0
 40
1.0
 40
1.0
 10
-21.3309348721
 20
24.4225212524
 30
0.0
 10
-21.3078260838
 20
24.4467562095
 30
0.0
 10
-21.2511719214
 20
24.4862529301
 30
0.0
 10
-21.1834907406
 20
24.5
 30
0.0
 10
-21.1500042308
 20
24.5
 30
0.0
  0
SPLINE
  5
6B8
100
AcDbEntity
  8
0
100
AcDbSpline
 62
7
  6
CONTINUOUS
 70
0
 71
3
 72
9
 73
5
 74
0
 42
0.0000001
 43
0.0000001
 44
0.0000000001
 40
0.0
 40
0.0
 40
0.0
 40
0.0
 40
0.4999960401
 40
1.0
 40
1.0
 40
1.0
 40
1.0
 10
-21.388212066
 20
24.2382154929
 30
0.0
 10
-21.3882104259
 20
24.2980390576
 30
0.0
 10
-21.34185145
 20
24.4220299274
 30
0.0
 10
-21.2232370782
 20
24.4808024009
 30
0.0
 10
-21.1637247428
 20
24.4869060231
 30
0.0
  0
SPLINE
  5
6B9
100
AcDbEntity
  8
0
100
AcDbSpline
 62
7
  6
CONTINUOUS
 70
0
 71
3
 72
8
 73
4
 74
0
 42
0.0000001
 43
0.0000001
 44
0.0000000001
 40
0.0
 40
0.0
 40
0.0
 40
0.0
 40
1.0
 40
1.0
 40
1.0
 40
1.0
 10
-18.6910571392
 20
24.4929531162
 30
0.0
 10
-18.6566286891
 20
24.4846011524
 30
0.0
 10
-18.6233064576
 20
24.4684132989
 30
0.0
 10
-18.595458489
 20
24.4465143463
 30
0.0
  0
SPLINE
  5
6BA
100
AcDbEntity
  8
0
100
AcDbSpline
 62
7
  6
CONTINUOUS
 70
0
 71
3
 72
8
 73
4
 74
0
 42
0.0000001
 43
0.0000001
 44
0.0000000001
 40
0.0
 40
0.0
 40
0.0
 40
0.0
 40
1.0
 40
1.0
 40
1.0
 40
1.0
 10
-18.5534856537
 20
24.404541511
 30
0.0
 10
-18.5197904255
 20
24.3616927193
 30
0.0
 10
-18.5
 20
24.3045146642
 30
0.0
 10
-18.5
 20
24.2500042308
 30
0.0
  0
SPLINE
  5
6BB
100
AcDbEntity
  8
0
100
AcDbSpline
 62
7
  6
CONTINUOUS
 70
0
 71
3
 72
8
 73
4
 74
0
 42
0.0000001
 43
0.0000001
 44
0.0000000001
 40
0.0
 40
0.0
 40
0.0
 40
0.0
 40
1.0
 40
1.0
 40
1.0
 40
1.0
 10
-3.9929531162
 20
24.3089428608
 30
0.0
 10
-3.9846011524
 20
24.3433713109
 30
0.0
 10
-3.9684132989
 20
24.3766935424
 30
0.0
 10
-3.9465143463
 20
24.404541511
 30
0.0
  0
SPLINE
  5
6BC
100
AcDbEntity
  8
0
100
AcDbSpline
 62
7
  6
CONTINUOUS
 70
0
 71
3
 72
9
 73
5
 74
0
 42
0.0000001
 43
0.0000001
 44
0.0000000001
 40
0.0
 40
0.0
 40
0.0
 40
0.0
 40
0.5000003242
 40
1.0
 40
1.0
 40
1.0
 40
1.0
 10
-3.9309348721
 20
24.4225212524
 30
0.0
 10
-3.9078260838
 20
24.4467562095
 30
0.0
 10
-3.8511719214
 20
24.4862529301
 30
0.0
 10
-3.7834907406
 20
24.5
 30
0.0
 10
-3.7500042308
 20
24.5
 30
0.0
  0
SPLINE
  5
6BD
100
AcDbEntity
  8
0
100
AcDbSpline
 62
7
  6
CONTINUOUS
 70
0
 71
3
 72
9
 73
5
 74
0
 42
0.0000001
 43
0.0000001
 44
0.0000000001
 40
0.0
 40
0.0
 40
0.0
 40
0.0
 40
0.4999960401
 40
1.0
 40
1.0
 40
1.0
 40
1.0
 10
-3.988212066
 20
24.2382154929
 30
0.0
 10
-3.9882104259
 20
24.2980390576
 30
0.0
 10
-3.94185145
 20
24.4220299274
 30
0.0
 10
-3.8232370782
 20
24.4808024009
 30
0.0
 10
-3.7637247428
 20
24.4869060231
 30
0.0
  0
SPLINE
  5
6BE
100
AcDbEntity
  8
0
100
AcDbSpline
 62
7
  6
CONTINUOUS
 70
0
 71
3
 72
8
 73
4
 74
0
 42
0.0000001
 43
0.0000001
 44
0.0000000001
 40
0.0
 40
0.0
 40
0.0
 40
0.0
 40
1.0
 40
1.0
 40
1.0
 40
1.0
 10
-1.2910571392
 20
24.4929531162
 30
0.0
 10
-1.245425927
 20
24.4818834854
 30
0.0
 10
-1.2014681738
 20
24.4565034075
 30
0.0
 10
-1.1690651279
 20
24.4225212524
 30
0.0
  0
SPLINE
  5
6BF
100
AcDbEntity
  8
0
100
AcDbSpline
 62
7
  6
CONTINUOUS
 70
0
 71
3
 72
8
 73
4
 74
0
 42
0.0000001
 43
0.0000001
 44
0.0000000001
 40
0.0
 40
0.0
 40
0.0
 40
0.0
 40
1.0
 40
1.0
 40
1.0
 40
1.0
 10
-1.1534856537
 20
24.404541511
 30
0.0
 10
-1.1197904255
 20
24.3616927193
 30
0.0
 10
-1.1
 20
24.3045146642
 30
0.0
 10
-1.1
 20
24.2500042308
 30
0.0
  0
SPLINE
  5
6C0
100
AcDbEntity
  8
0
100
AcDbSpline
 62
7
  6
CONTINUOUS
 70
0
 71
3
 72
9
 73
5
 74
0
 42
0.0000001
 43
0.0000001
 44
0.0000000001
 40
0.0
 40
0.0
 40
0.0
 40
0.0
 40
0.4999996223
 40
1.0
 40
1.0
 40
1.0
 40
1.0
 10
-12.45
 20
24.0
 30
0.0
 10
-12.3989751923
 20
24.0
 30
0.0
 10
-12.2926684941
 20
23.9573288114
 30
0.0
 10
-12.25
 20
23.8510218386
 30
0.0
 10
-12.25
 20
23.7999969538
 30
0.0
  0
SPLINE
  5
6C1
100
AcDbEntity
  8
0
100
AcDbSpline
 62
7
  6
CONTINUOUS
 70
0
 71
3
 72
9
 73
5
 74
0
 42
0.0000001
 43
0.0000001
 44
0.0000000001
 40
0.0
 40
0.0
 40
0.0
 40
0.0
 40
0.5000025418
 40
1.0
 40
1.0
 40
1.0
 40
1.0
 10
-12.45
 20
23.9984237062
 30
0.0
 10
-12.3989756595
 20
23.9984237062
 30
0.0
 10
-12.292670457
 20
23.9557551473
 30
0.0
 10
-12.25
 20
23.8494502694
 30
0.0
 10
-12.25
 20
23.7984264477
 30
0.0
  0
SPLINE
  5
6C2
100
AcDbEntity
  8
0
100
AcDbSpline
 62
7
  6
CONTINUOUS
 70
0
 71
3
 72
9
 73
5
 74
0
 42
0.0000001
 43
0.0000001
 44
0.0000000001
 40
0.0
 40
0.0
 40
0.0
 40
0.0
 40
0.5000025418
 40
1.0
 40
1.0
 40
1.0
 40
1.0
 10
-10.05
 20
23.9984237062
 30
0.0
 10
-10.1010243405
 20
23.9984237062
 30
0.0
 10
-10.207329543
 20
23.9557551473
 30
0.0
 10
-10.25
 20
23.8494502694
 30
0.0
 10
-10.25
 20
23.7984264477
 30
0.0
  0
SPLINE
  5
6C3
100
AcDbEntity
  8
0
100
AcDbSpline
 62
7
  6
CONTINUOUS
 70
0
 71
3
 72
9
 73
5
 74
0
 42
0.0000001
 43
0.0000001
 44
0.0000000001
 40
0.0
 40
0.0
 40
0.0
 40
0.0
 40
0.4999996223
 40
1.0
 40
1.0
 40
1.0
 40
1.0
 10
-10.05
 20
24.0
 30
0.0
 10
-10.1010248077
 20
24.0
 30
0.0
 10
-10.2073315059
 20
23.9573288114
 30
0.0
 10
-10.25
 20
23.8510218386
 30
0.0
 10
-10.25
 20
23.7999969538
 30
0.0
  0
SPLINE
  5
6C4
100
AcDbEntity
  8
0
100
AcDbSpline
 62
7
  6
CONTINUOUS
 70
0
 71
3
 72
9
 73
5
 74
0
 42
0.0000001
 43
0.0000001
 44
0.0000000001
 40
0.0
 40
0.0
 40
0.0
 40
0.0
 40
0.4999995095
 40
1.0
 40
1.0
 40
1.0
 40
1.0
 10
-12.45
 20
-24.0
 30
0.0
 10
-12.4085209152
 20
-24.0
 30
0.0
 10
-12.3233495233
 20
-23.972726827
 30
0.0
 10
-12.2717300304
 20
-23.8996977432
 30
0.0
 10
-12.2592566334
 20
-23.8601384763
 30
0.0
  0
SPLINE
  5
6C5
100
AcDbEntity
  8
0
100
AcDbSpline
 62
7
  6
CONTINUOUS
 70
0
 71
3
 72
9
 73
5
 74
0
 42
0.0000001
 43
0.0000001
 44
0.0000000001
 40
0.0
 40
0.0
 40
0.0
 40
0.0
 40
0.4999996223
 40
1.0
 40
1.0
 40
1.0
 40
1.0
 10
-10.05
 20
-24.0
 30
0.0
 10
-10.1010248077
 20
-24.0
 30
0.0
 10
-10.2073315059
 20
-23.9573288114
 30
0.0
 10
-10.25
 20
-23.8510218386
 30
0.0
 10
-10.25
 20
-23.7999969538
 30
0.0
  0
SPLINE
  5
6C6
100
AcDbEntity
  8
0
100
AcDbSpline
 62
7
  6
CONTINUOUS
 70
0
 71
3
 72
8
 73
4
 74
0
 42
0.0000001
 43
0.0000001
 44
0.0000000001
 40
0.0
 40
0.0
 40
0.0
 40
0.0
 40
1.0
 40
1.0
 40
1.0
 40
1.0
 10
1.3026837044
 20
-24.49548241
 30
0.0
 10
1.2528538591
 20
-24.4858782675
 30
0.0
 10
1.2040849887
 20
-24.4592481148
 30
0.0
 10
1.169064949
 20
-24.4225214235
 30
0.0
  0
SPLINE
  5
6C7
100
AcDbEntity
  8
0
100
AcDbSpline
 62
7
  6
CONTINUOUS
 70
0
 71
3
 72
8
 73
4
 74
0
 42
0.0000001
 43
0.0000001
 44
0.0000000001
 40
0.0
 40
0.0
 40
0.0
 40
0.0
 40
1.0
 40
1.0
 40
1.0
 40
1.0
 10
1.153485468
 20
-24.4045416633
 30
0.0
 10
1.119790244
 20
-24.3616928331
 30
0.0
 10
1.1
 20
-24.3045146919
 30
0.0
 10
1.1
 20
-24.2500042308
 30
0.0
  0
SPLINE
  5
6C8
100
AcDbEntity
  8
0
100
AcDbSpline
 62
7
  6
CONTINUOUS
 70
0
 71
3
 72
8
 73
4
 74
0
 42
0.0000001
 43
0.0000001
 44
0.0000000001
 40
0.0
 40
0.0
 40
0.0
 40
0.0
 40
1.0
 40
1.0
 40
1.0
 40
1.0
 10
3.99548241
 20
-24.2973162956
 30
0.0
 10
3.9880460786
 20
-24.3358987345
 30
0.0
 10
3.970802914
 20
-24.3736551271
 30
0.0
 10
3.946514532
 20
-24.4045416633
 30
0.0
  0
SPLINE
  5
6C9
100
AcDbEntity
  8
0
100
AcDbSpline
 62
7
  6
CONTINUOUS
 70
0
 71
3
 72
8
 73
4
 74
0
 42
0.0000001
 43
0.0000001
 44
0.0000000001
 40
0.0
 40
0.0
 40
0.0
 40
0.0
 40
1.0
 40
1.0
 40
1.0
 40
1.0
 10
3.9045416633
 20
-24.446514532
 30
0.0
 10
3.8616928331
 20
-24.480209756
 30
0.0
 10
3.8045146919
 20
-24.5
 30
0.0
 10
3.7500042308
 20
-24.5
 30
0.0
  0
SPLINE
  5
6CA
100
AcDbEntity
  8
0
100
AcDbSpline
 62
7
  6
CONTINUOUS
 70
0
 71
3
 72
8
 73
4
 74
0
 42
0.0000001
 43
0.0000001
 44
0.0000000001
 40
0.0
 40
0.0
 40
0.0
 40
0.0
 40
1.0
 40
1.0
 40
1.0
 40
1.0
 10
18.7026837044
 20
-24.49548241
 30
0.0
 10
18.6641012655
 20
-24.4880460786
 30
0.0
 10
18.6263448729
 20
-24.470802914
 30
0.0
 10
18.5954583367
 20
-24.446514532
 30
0.0
  0
SPLINE
  5
6CB
100
AcDbEntity
  8
0
100
AcDbSpline
 62
7
  6
CONTINUOUS
 70
0
 71
3
 72
8
 73
4
 74
0
 42
0.0000001
 43
0.0000001
 44
0.0000000001
 40
0.0
 40
0.0
 40
0.0
 40
0.0
 40
1.0
 40
1.0
 40
1.0
 40
1.0
 10
18.553485468
 20
-24.4045416633
 30
0.0
 10
18.519790244
 20
-24.3616928331
 30
0.0
 10
18.5
 20
-24.3045146919
 30
0.0
 10
18.5
 20
-24.2500042308
 30
0.0
  0
SPLINE
  5
6CC
100
AcDbEntity
  8
0
100
AcDbSpline
 62
7
  6
CONTINUOUS
 70
0
 71
3
 72
8
 73
4
 74
0
 42
0.0000001
 43
0.0000001
 44
0.0000000001
 40
0.0
 40
0.0
 40
0.0
 40
0.0
 40
1.0
 40
1.0
 40
1.0
 40
1.0
 10
21.39548241
 20
-24.2973162956
 30
0.0
 10
21.3880460786
 20
-24.3358987345
 30
0.0
 10
21.370802914
 20
-24.3736551271
 30
0.0
 10
21.346514532
 20
-24.4045416633
 30
0.0
  0
SPLINE
  5
6CD
100
AcDbEntity
  8
0
100
AcDbSpline
 62
7
  6
CONTINUOUS
 70
0
 71
3
 72
8
 73
4
 74
0
 42
0.0000001
 43
0.0000001
 44
0.0000000001
 40
0.0
 40
0.0
 40
0.0
 40
0.0
 40
1.0
 40
1.0
 40
1.0
 40
1.0
 10
21.3045416633
 20
-24.446514532
 30
0.0
 10
21.2616928331
 20
-24.480209756
 30
0.0
 10
21.2045146919
 20
-24.5
 30
0.0
 10
21.1500042308
 20
-24.5
 30
0.0
  0
SPLINE
  5
6CE
100
AcDbEntity
  8
0
100
AcDbSpline
 62
7
  6
CONTINUOUS
 70
0
 71
3
 72
8
 73
4
 74
0
 42
0.0000001
 43
0.0000001
 44
0.0000000001
 40
0.0
 40
0.0
 40
0.0
 40
0.0
 40
1.0
 40
1.0
 40
1.0
 40
1.0
 10
-1.1070468838
 20
-24.3089428608
 30
0.0
 10
-1.1153988476
 20
-24.3433713109
 30
0.0
 10
-1.1315867011
 20
-24.3766935424
 30
0.0
 10
-1.1534856537
 20
-24.404541511
 30
0.0
  0
SPLINE
  5
6CF
100
AcDbEntity
  8
0
100
AcDbSpline
 62
7
  6
CONTINUOUS
 70
0
 71
3
 72
9
 73
5
 74
0
 42
0.0000001
 43
0.0000001
 44
0.0000000001
 40
0.0
 40
0.0
 40
0.0
 40
0.0
 40
0.5000003242
 40
1.0
 40
1.0
 40
1.0
 40
1.0
 10
-1.1690651279
 20
-24.4225212524
 30
0.0
 10
-1.1921739162
 20
-24.4467562095
 30
0.0
 10
-1.2488280786
 20
-24.4862529301
 30
0.0
 10
-1.3165092594
 20
-24.5
 30
0.0
 10
-1.3499957692
 20
-24.5
 30
0.0
  0
SPLINE
  5
6D0
100
AcDbEntity
  8
0
100
AcDbSpline
 62
7
  6
CONTINUOUS
 70
0
 71
3
 72
9
 73
5
 74
0
 42
0.0000001
 43
0.0000001
 44
0.0000000001
 40
0.0
 40
0.0
 40
0.0
 40
0.0
 40
0.4999960401
 40
1.0
 40
1.0
 40
1.0
 40
1.0
 10
-1.111787934
 20
-24.2382154929
 30
0.0
 10
-1.1117895741
 20
-24.2980390576
 30
0.0
 10
-1.15814855
 20
-24.4220299274
 30
0.0
 10
-1.2767629218
 20
-24.4808024009
 30
0.0
 10
-1.3362752572
 20
-24.4869060231
 30
0.0
  0
SPLINE
  5
6D1
100
AcDbEntity
  8
0
100
AcDbSpline
 62
7
  6
CONTINUOUS
 70
0
 71
3
 72
8
 73
4
 74
0
 42
0.0000001
 43
0.0000001
 44
0.0000000001
 40
0.0
 40
0.0
 40
0.0
 40
0.0
 40
1.0
 40
1.0
 40
1.0
 40
1.0
 10
-3.8089428608
 20
-24.4929531162
 30
0.0
 10
-3.8433713109
 20
-24.4846011524
 30
0.0
 10
-3.8766935424
 20
-24.4684132989
 30
0.0
 10
-3.904541511
 20
-24.4465143463
 30
0.0
  0
SPLINE
  5
6D2
100
AcDbEntity
  8
0
100
AcDbSpline
 62
7
  6
CONTINUOUS
 70
0
 71
3
 72
8
 73
4
 74
0
 42
0.0000001
 43
0.0000001
 44
0.0000000001
 40
0.0
 40
0.0
 40
0.0
 40
0.0
 40
1.0
 40
1.0
 40
1.0
 40
1.0
 10
-3.9465143463
 20
-24.404541511
 30
0.0
 10
-3.9802095745
 20
-24.3616927193
 30
0.0
 10
-4.0
 20
-24.3045146642
 30
0.0
 10
-4.0
 20
-24.2500042308
 30
0.0
  0
SPLINE
  5
6D3
100
AcDbEntity
  8
0
100
AcDbSpline
 62
7
  6
CONTINUOUS
 70
0
 71
3
 72
8
 73
4
 74
0
 42
0.0000001
 43
0.0000001
 44
0.0000000001
 40
0.0
 40
0.0
 40
0.0
 40
0.0
 40
1.0
 40
1.0
 40
1.0
 40
1.0
 10
-18.5070468838
 20
-24.3089428608
 30
0.0
 10
-18.5153988476
 20
-24.3433713109
 30
0.0
 10
-18.5315867011
 20
-24.3766935424
 30
0.0
 10
-18.5534856537
 20
-24.404541511
 30
0.0
  0
SPLINE
  5
6D4
100
AcDbEntity
  8
0
100
AcDbSpline
 62
7
  6
CONTINUOUS
 70
0
 71
3
 72
9
 73
5
 74
0
 42
0.0000001
 43
0.0000001
 44
0.0000000001
 40
0.0
 40
0.0
 40
0.0
 40
0.0
 40
0.5000003242
 40
1.0
 40
1.0
 40
1.0
 40
1.0
 10
-18.5690651279
 20
-24.4225212524
 30
0.0
 10
-18.5921739162
 20
-24.4467562095
 30
0.0
 10
-18.6488280786
 20
-24.4862529301
 30
0.0
 10
-18.7165092594
 20
-24.5
 30
0.0
 10
-18.7499957692
 20
-24.5
 30
0.0
  0
SPLINE
  5
6D5
100
AcDbEntity
  8
0
100
AcDbSpline
 62
7
  6
CONTINUOUS
 70
0
 71
3
 72
9
 73
5
 74
0
 42
0.0000001
 43
0.0000001
 44
0.0000000001
 40
0.0
 40
0.0
 40
0.0
 40
0.0
 40
0.4999960401
 40
1.0
 40
1.0
 40
1.0
 40
1.0
 10
-18.511787934
 20
-24.2382154929
 30
0.0
 10
-18.5117895741
 20
-24.2980390576
 30
0.0
 10
-18.55814855
 20
-24.4220299274
 30
0.0
 10
-18.6767629218
 20
-24.4808024009
 30
0.0
 10
-18.7362752572
 20
-24.4869060231
 30
0.0
  0
SPLINE
  5
6D6
100
AcDbEntity
  8
0
100
AcDbSpline
 62
7
  6
CONTINUOUS
 70
0
 71
3
 72
8
 73
4
 74
0
 42
0.0000001
 43
0.0000001
 44
0.0000000001
 40
0.0
 40
0.0
 40
0.0
 40
0.0
 40
1.0
 40
1.0
 40
1.0
 40
1.0
 10
-21.2089428608
 20
-24.4929531162
 30
0.0
 10
-21.2433713109
 20
-24.4846011524
 30
0.0
 10
-21.2766935424
 20
-24.4684132989
 30
0.0
 10
-21.304541511
 20
-24.4465143463
 30
0.0
  0
SPLINE
  5
6D7
100
AcDbEntity
  8
0
100
AcDbSpline
 62
7
  6
CONTINUOUS
 70
0
 71
3
 72
8
 73
4
 74
0
 42
0.0000001
 43
0.0000001
 44
0.0000000001
 40
0.0
 40
0.0
 40
0.0
 40
0.0
 40
1.0
 40
1.0
 40
1.0
 40
1.0
 10
-21.3465143463
 20
-24.404541511
 30
0.0
 10
-21.3802095745
 20
-24.3616927193
 30
0.0
 10
-21.4
 20
-24.3045146642
 30
0.0
 10
-21.4
 20
-24.2500042308
 30
0.0
  0
SPLINE
  5
6D8
100
AcDbEntity
  8
0
100
AcDbSpline
 62
250
  6
CONTINUOUS
 70
0
 71
3
 72
9
 73
5
 74
0
 42
0.0000001
 43
0.0000001
 44
0.0000000001
 40
0.0
 40
0.0
 40
0.0
 40
0.0
 40
0.5000029916
 40
1.0
 40
1.0
 40
1.0
 40
1.0
 10
12.45
 20
-23.9982478817
 30
0.0
 10
12.3989756956
 20
-23.9982478817
 30
0.0
 10
12.2926706283
 20
-23.9555796318
 30
0.0
 10
12.25
 20
-23.8492749602
 30
0.0
 10
12.25
 20
-23.7982512664
 30
0.0
  0
SPLINE
  5
6D9
100
AcDbEntity
  8
0
100
AcDbSpline
 62
7
  6
CONTINUOUS
 70
0
 71
3
 72
11
 73
7
 74
0
 42
0.0000001
 43
0.0000001
 44
0.0000000001
 40
0.0
 40
0.0
 40
0.0
 40
0.0
 40
0.3271434045
 40
0.6070676895
 40
0.8253479857
 40
1.0
 40
1.0
 40
1.0
 40
1.0
 10
-1.3565484715
 20
23.1226497308
 30
0.0
 10
-1.3224248967
 20
23.1226497308
 30
0.0
 10
-1.2587780095
 20
23.1303048589
 30
0.0
 10
-1.177622636
 20
23.1618158644
 30
0.0
 10
-1.1220519925
 20
23.20774234
 30
0.0
 10
-1.1067171046
 20
23.248770498
 30
0.0
 10
-1.1065518984
 20
23.2669872981
 30
0.0
  0
SPLINE
  5
6DA
100
AcDbEntity
  8
0
100
AcDbSpline
 62
250
  6
CONTINUOUS
 70
0
 71
3
 72
9
 73
5
 74
0
 42
0.0000001
 43
0.0000001
 44
0.0000000001
 40
0.0
 40
0.0
 40
0.0
 40
0.0
 40
0.5000029916
 40
1.0
 40
1.0
 40
1.0
 40
1.0
 10
10.05
 20
23.9982478817
 30
0.0
 10
10.1010243044
 20
23.9982478817
 30
0.0
 10
10.2073293717
 20
23.9555796318
 30
0.0
 10
10.25
 20
23.8492749602
 30
0.0
 10
10.25
 20
23.7982512664
 30
0.0
  0
SPLINE
  5
6DB
100
AcDbEntity
  8
0
100
AcDbSpline
 62
250
  6
CONTINUOUS
 70
0
 71
3
 72
9
 73
5
 74
0
 42
0.0000001
 43
0.0000001
 44
0.0000000001
 40
0.0
 40
0.0
 40
0.0
 40
0.0
 40
0.5000024232
 40
1.0
 40
1.0
 40
1.0
 40
1.0
 10
-10.05
 20
-23.9984237062
 30
0.0
 10
-10.1010243284
 20
-23.9984237062
 30
0.0
 10
-10.207329529
 20
-23.9557551617
 30
0.0
 10
-10.25
 20
-23.8494502816
 30
0.0
 10
-10.25
 20
-23.7984264477
 30
0.0
  0
SPLINE
  5
6DC
100
AcDbEntity
  8
0
100
AcDbSpline
 62
250
  6
CONTINUOUS
 70
0
 71
3
 72
10
 73
6
 74
0
 42
0.0000001
 43
0.0000001
 44
0.0000000001
 40
0.0
 40
0.0
 40
0.0
 40
0.0
 40
0.2350700073
 40
0.4805706337
 40
1.0
 40
1.0
 40
1.0
 40
1.0
 10
21.3869014213
 20
-23.8443375673
 30
0.0
 10
21.3868063495
 20
-23.8160323815
 30
0.0
 10
21.3727633003
 20
-23.7574749967
 30
0.0
 10
21.296535914
 20
-23.6607030612
 30
0.0
 10
21.199451194
 20
-23.6279887807
 30
0.0
 10
21.1369056521
 20
-23.6278312164
 30
0.0
  0
SPLINE
  5
6DD
100
AcDbEntity
  8
0
100
AcDbSpline
 62
7
  6
CONTINUOUS
 70
0
 71
3
 72
11
 73
7
 74
0
 42
0.0000001
 43
0.0000001
 44
0.0000000001
 40
0.0
 40
0.0
 40
0.0
 40
0.0
 40
0.1745868744
 40
0.3929263959
 40
0.6729399007
 40
1.0
 40
1.0
 40
1.0
 40
1.0
 10
21.3927192511
 20
-23.2669872981
 30
0.0
 10
21.392535367
 20
-23.2487385288
 30
0.0
 10
21.3771037075
 20
-23.207643442
 30
0.0
 10
21.3213471452
 20
-23.1616964161
 30
0.0
 10
21.2399779297
 20
-23.1301824981
 30
0.0
 10
21.1761840884
 20
-23.1226497308
 30
0.0
 10
21.1419962532
 20
-23.1226497308
 30
0.0
  0
SPLINE
  5
6DE
100
AcDbEntity
  8
0
100
AcDbSpline
 62
250
  6
CONTINUOUS
 70
0
 71
3
 72
10
 73
6
 74
0
 42
0.0000001
 43
0.0000001
 44
0.0000000001
 40
0.0
 40
0.0
 40
0.0
 40
0.0
 40
0.2350699996
 40
0.4805706163
 40
1.0
 40
1.0
 40
1.0
 40
1.0
 10
18.5130985787
 20
-23.8443375673
 30
0.0
 10
18.5131936505
 20
-23.8160323825
 30
0.0
 10
18.5272366985
 20
-23.7574749998
 30
0.0
 10
18.6034640826
 20
-23.6607030629
 30
0.0
 10
18.7005488039
 20
-23.6279887807
 30
0.0
 10
18.7630943479
 20
-23.6278312164
 30
0.0
  0
SPLINE
  5
6DF
100
AcDbEntity
  8
0
100
AcDbSpline
 62
250
  6
CONTINUOUS
 70
0
 71
3
 72
10
 73
6
 74
0
 42
0.0000001
 43
0.0000001
 44
0.0000000001
 40
0.0
 40
0.0
 40
0.0
 40
0.0
 40
0.2350699996
 40
0.4805706163
 40
1.0
 40
1.0
 40
1.0
 40
1.0
 10
3.9869014213
 20
-23.8443375673
 30
0.0
 10
3.9868063495
 20
-23.8160323825
 30
0.0
 10
3.9727633015
 20
-23.7574749998
 30
0.0
 10
3.8965359174
 20
-23.6607030629
 30
0.0
 10
3.7994511961
 20
-23.6279887807
 30
0.0
 10
3.7369056521
 20
-23.6278312164
 30
0.0
  0
SPLINE
  5
6E0
100
AcDbEntity
  8
0
100
AcDbSpline
 62
7
  6
CONTINUOUS
 70
0
 71
3
 72
11
 73
7
 74
0
 42
0.0000001
 43
0.0000001
 44
0.0000000001
 40
0.0
 40
0.0
 40
0.0
 40
0.0
 40
0.1745868744
 40
0.3929263959
 40
0.6729399007
 40
1.0
 40
1.0
 40
1.0
 40
1.0
 10
3.9927192511
 20
-23.2669872981
 30
0.0
 10
3.992535367
 20
-23.2487385288
 30
0.0
 10
3.9771037075
 20
-23.207643442
 30
0.0
 10
3.9213471452
 20
-23.1616964161
 30
0.0
 10
3.8399779297
 20
-23.1301824981
 30
0.0
 10
3.7761840884
 20
-23.1226497308
 30
0.0
 10
3.7419962532
 20
-23.1226497308
 30
0.0
  0
SPLINE
  5
6E1
100
AcDbEntity
  8
0
100
AcDbSpline
 62
7
  6
CONTINUOUS
 70
0
 71
3
 72
11
 73
7
 74
0
 42
0.0000001
 43
0.0000001
 44
0.0000000001
 40
0.0
 40
0.0
 40
0.0
 40
0.0
 40
0.1745868744
 40
0.3929263959
 40
0.6729399007
 40
1.0
 40
1.0
 40
1.0
 40
1.0
 10
1.1072807489
 20
-23.2669872981
 30
0.0
 10
1.107464633
 20
-23.2487385288
 30
0.0
 10
1.1228962925
 20
-23.207643442
 30
0.0
 10
1.1786528548
 20
-23.1616964161
 30
0.0
 10
1.2600220703
 20
-23.1301824981
 30
0.0
 10
1.3238159116
 20
-23.1226497308
 30
0.0
 10
1.3580037468
 20
-23.1226497308
 30
0.0
  0
SPLINE
  5
6E2
100
AcDbEntity
  8
0
100
AcDbSpline
 62
250
  6
CONTINUOUS
 70
0
 71
3
 72
10
 73
6
 74
0
 42
0.0000001
 43
0.0000001
 44
0.0000000001
 40
0.0
 40
0.0
 40
0.0
 40
0.0
 40
0.2350699118
 40
0.4805705526
 40
1.0
 40
1.0
 40
1.0
 40
1.0
 10
1.1130985787
 20
-23.8443375673
 30
0.0
 10
1.1131936505
 20
-23.8160323931
 30
0.0
 10
1.1272366891
 20
-23.7574750183
 30
0.0
 10
1.2034640635
 20
-23.6607030719
 30
0.0
 10
1.3005487964
 20
-23.6279887807
 30
0.0
 10
1.3630943479
 20
-23.6278312164
 30
0.0
  0
SPLINE
  5
6E3
100
AcDbEntity
  8
0
100
AcDbSpline
 62
250
  6
CONTINUOUS
 70
0
 71
3
 72
10
 73
6
 74
0
 42
0.0000001
 43
0.0000001
 44
0.0000000001
 40
0.0
 40
0.0
 40
0.0
 40
0.0
 40
0.2350699996
 40
0.4805706163
 40
1.0
 40
1.0
 40
1.0
 40
1.0
 10
1.1130985787
 20
23.8443375673
 30
0.0
 10
1.1131936505
 20
23.8160323825
 30
0.0
 10
1.1272366985
 20
23.7574749998
 30
0.0
 10
1.2034640826
 20
23.6607030629
 30
0.0
 10
1.3005488039
 20
23.6279887807
 30
0.0
 10
1.3630943479
 20
23.6278312164
 30
0.0
  0
SPLINE
  5
6E4
100
AcDbEntity
  8
0
100
AcDbSpline
 62
7
  6
CONTINUOUS
 70
0
 71
3
 72
11
 73
7
 74
0
 42
0.0000001
 43
0.0000001
 44
0.0000000001
 40
0.0
 40
0.0
 40
0.0
 40
0.0
 40
0.1745868744
 40
0.3929263959
 40
0.6729399007
 40
1.0
 40
1.0
 40
1.0
 40
1.0
 10
1.1072807489
 20
23.2669872981
 30
0.0
 10
1.107464633
 20
23.2487385288
 30
0.0
 10
1.1228962925
 20
23.207643442
 30
0.0
 10
1.1786528548
 20
23.1616964161
 30
0.0
 10
1.2600220703
 20
23.1301824981
 30
0.0
 10
1.3238159116
 20
23.1226497308
 30
0.0
 10
1.3580037468
 20
23.1226497308
 30
0.0
  0
SPLINE
  5
6E5
100
AcDbEntity
  8
0
100
AcDbSpline
 62
7
  6
CONTINUOUS
 70
0
 71
3
 72
11
 73
7
 74
0
 42
0.0000001
 43
0.0000001
 44
0.0000000001
 40
0.0
 40
0.0
 40
0.0
 40
0.0
 40
0.1745868744
 40
0.3929263959
 40
0.6729399007
 40
1.0
 40
1.0
 40
1.0
 40
1.0
 10
3.9927192511
 20
23.2669872981
 30
0.0
 10
3.992535367
 20
23.2487385288
 30
0.0
 10
3.9771037075
 20
23.207643442
 30
0.0
 10
3.9213471452
 20
23.1616964161
 30
0.0
 10
3.8399779297
 20
23.1301824981
 30
0.0
 10
3.7761840884
 20
23.1226497308
 30
0.0
 10
3.7419962532
 20
23.1226497308
 30
0.0
  0
SPLINE
  5
6E6
100
AcDbEntity
  8
0
100
AcDbSpline
 62
250
  6
CONTINUOUS
 70
0
 71
3
 72
10
 73
6
 74
0
 42
0.0000001
 43
0.0000001
 44
0.0000000001
 40
0.0
 40
0.0
 40
0.0
 40
0.0
 40
0.2350699118
 40
0.4805705526
 40
1.0
 40
1.0
 40
1.0
 40
1.0
 10
3.9869014213
 20
23.8443375673
 30
0.0
 10
3.9868063495
 20
23.8160323931
 30
0.0
 10
3.9727633109
 20
23.7574750183
 30
0.0
 10
3.8965359365
 20
23.6607030719
 30
0.0
 10
3.7994512036
 20
23.6279887807
 30
0.0
 10
3.7369056521
 20
23.6278312164
 30
0.0
  0
SPLINE
  5
6E7
100
AcDbEntity
  8
0
100
AcDbSpline
 62
250
  6
CONTINUOUS
 70
0
 71
3
 72
10
 73
6
 74
0
 42
0.0000001
 43
0.0000001
 44
0.0000000001
 40
0.0
 40
0.0
 40
0.0
 40
0.0
 40
0.2350699996
 40
0.4805706163
 40
1.0
 40
1.0
 40
1.0
 40
1.0
 10
18.5130985787
 20
23.8443375673
 30
0.0
 10
18.5131936505
 20
23.8160323825
 30
0.0
 10
18.5272366985
 20
23.7574749998
 30
0.0
 10
18.6034640826
 20
23.6607030629
 30
0.0
 10
18.7005488039
 20
23.6279887807
 30
0.0
 10
18.7630943479
 20
23.6278312164
 30
0.0
  0
SPLINE
  5
6E8
100
AcDbEntity
  8
0
100
AcDbSpline
 62
7
  6
CONTINUOUS
 70
0
 71
3
 72
11
 73
7
 74
0
 42
0.0000001
 43
0.0000001
 44
0.0000000001
 40
0.0
 40
0.0
 40
0.0
 40
0.0
 40
0.1745868744
 40
0.3929263959
 40
0.6729399007
 40
1.0
 40
1.0
 40
1.0
 40
1.0
 10
18.5072807489
 20
23.2669872981
 30
0.0
 10
18.507464633
 20
23.2487385288
 30
0.0
 10
18.5228962925
 20
23.207643442
 30
0.0
 10
18.5786528548
 20
23.1616964161
 30
0.0
 10
18.6600220703
 20
23.1301824981
 30
0.0
 10
18.7238159116
 20
23.1226497308
 30
0.0
 10
18.7580037468
 20
23.1226497308
 30
0.0
  0
SPLINE
  5
6E9
100
AcDbEntity
  8
0
100
AcDbSpline
 62
7
  6
CONTINUOUS
 70
0
 71
3
 72
11
 73
7
 74
0
 42
0.0000001
 43
0.0000001
 44
0.0000000001
 40
0.0
 40
0.0
 40
0.0
 40
0.0
 40
0.3270911735
 40
0.6070114575
 40
0.8253315004
 40
1.0
 40
1.0
 40
1.0
 40
1.0
 10
21.1427234819
 20
23.1226497308
 30
0.0
 10
21.1768361982
 20
23.1226497308
 30
0.0
 10
21.2404639119
 20
23.1303383394
 30
0.0
 10
21.3215990651
 20
23.1618507177
 30
0.0
 10
21.3771674771
 20
23.2077623959
 30
0.0
 10
21.3925357027
 20
23.2487718432
 30
0.0
 10
21.3927192511
 20
23.2669872981
 30
0.0
  0
SPLINE
  5
6EA
100
AcDbEntity
  8
0
100
AcDbSpline
 62
250
  6
CONTINUOUS
 70
0
 71
3
 72
10
 73
6
 74
0
 42
0.0000001
 43
0.0000001
 44
0.0000000001
 40
0.0
 40
0.0
 40
0.0
 40
0.0
 40
0.2350699996
 40
0.4805706163
 40
1.0
 40
1.0
 40
1.0
 40
1.0
 10
21.3869014213
 20
23.8443375673
 30
0.0
 10
21.3868063495
 20
23.8160323825
 30
0.0
 10
21.3727633015
 20
23.7574749998
 30
0.0
 10
21.2965359174
 20
23.6607030629
 30
0.0
 10
21.1994511961
 20
23.6279887807
 30
0.0
 10
21.1369056521
 20
23.6278312164
 30
0.0
  0
SPLINE
  5
6EB
100
AcDbEntity
  8
0
100
AcDbSpline
 62
250
  6
CONTINUOUS
 70
0
 71
3
 72
10
 73
6
 74
0
 42
0.0000001
 43
0.0000001
 44
0.0000000001
 40
0.0
 40
0.0
 40
0.0
 40
0.0
 40
0.2350766914
 40
0.4805660701
 40
1.0
 40
1.0
 40
1.0
 40
1.0
 10
-21.388212066
 20
23.8443375673
 30
0.0
 10
-21.3881264914
 20
23.8160292141
 30
0.0
 10
-21.3740996985
 20
23.7574618543
 30
0.0
 10
-21.2978728898
 20
23.6606717159
 30
0.0
 10
-21.2007667755
 20
23.627973037
 30
0.0
 10
-21.1382154929
 20
23.6278312164
 30
0.0
  0
SPLINE
  5
6EC
100
AcDbEntity
  8
0
100
AcDbSpline
 62
7
  6
CONTINUOUS
 70
0
 71
3
 72
11
 73
7
 74
0
 42
0.0000001
 43
0.0000001
 44
0.0000000001
 40
0.0
 40
0.0
 40
0.0
 40
0.0
 40
0.1745784356
 40
0.3928762058
 40
0.6728844503
 40
1.0
 40
1.0
 40
1.0
 40
1.0
 10
-21.3934481016
 20
23.2669872981
 30
0.0
 10
-21.3932826236
 20
23.2487405293
 30
0.0
 10
-21.3778907046
 20
23.2076352623
 30
0.0
 10
-21.3221506824
 20
23.1616769892
 30
0.0
 10
-21.2407846053
 20
23.1301647413
 30
0.0
 10
-21.17698823
 20
23.1226497308
 30
0.0
 10
-21.1427970241
 20
23.1226497308
 30
0.0
  0
SPLINE
  5
6ED
100
AcDbEntity
  8
0
100
AcDbSpline
 62
7
  6
CONTINUOUS
 70
0
 71
3
 72
11
 73
7
 74
0
 42
0.0000001
 43
0.0000001
 44
0.0000000001
 40
0.0
 40
0.0
 40
0.0
 40
0.0
 40
0.1745784356
 40
0.3928762058
 40
0.6728844503
 40
1.0
 40
1.0
 40
1.0
 40
1.0
 10
-18.5065518984
 20
23.2669872981
 30
0.0
 10
-18.5067173764
 20
23.2487405293
 30
0.0
 10
-18.5221092954
 20
23.2076352623
 30
0.0
 10
-18.5778493176
 20
23.1616769892
 30
0.0
 10
-18.6592153947
 20
23.1301647413
 30
0.0
 10
-18.72301177
 20
23.1226497308
 30
0.0
 10
-18.7572029759
 20
23.1226497308
 30
0.0
  0
SPLINE
  5
6EE
100
AcDbEntity
  8
0
100
AcDbSpline
 62
250
  6
CONTINUOUS
 70
0
 71
3
 72
10
 73
6
 74
0
 42
0.0000001
 43
0.0000001
 44
0.0000000001
 40
0.0
 40
0.0
 40
0.0
 40
0.0
 40
0.2350766034
 40
0.4805660063
 40
1.0
 40
1.0
 40
1.0
 40
1.0
 10
-18.511787934
 20
23.8443375673
 30
0.0
 10
-18.5118735086
 20
23.8160292247
 30
0.0
 10
-18.5259002922
 20
23.7574618728
 30
0.0
 10
-18.6021270911
 20
23.6606717249
 30
0.0
 10
-18.6992332169
 20
23.627973037
 30
0.0
 10
-18.7617845071
 20
23.6278312164
 30
0.0
  0
SPLINE
  5
6EF
100
AcDbEntity
  8
0
100
AcDbSpline
 62
250
  6
CONTINUOUS
 70
0
 71
3
 72
10
 73
6
 74
0
 42
0.0000001
 43
0.0000001
 44
0.0000000001
 40
0.0
 40
0.0
 40
0.0
 40
0.0
 40
0.2350766914
 40
0.4805660701
 40
1.0
 40
1.0
 40
1.0
 40
1.0
 10
-3.988212066
 20
23.8443375673
 30
0.0
 10
-3.9881264914
 20
23.8160292141
 30
0.0
 10
-3.9740996985
 20
23.7574618543
 30
0.0
 10
-3.8978728898
 20
23.6606717159
 30
0.0
 10
-3.8007667755
 20
23.627973037
 30
0.0
 10
-3.7382154929
 20
23.6278312164
 30
0.0
  0
SPLINE
  5
6F0
100
AcDbEntity
  8
0
100
AcDbSpline
 62
7
  6
CONTINUOUS
 70
0
 71
3
 72
11
 73
7
 74
0
 42
0.0000001
 43
0.0000001
 44
0.0000000001
 40
0.0
 40
0.0
 40
0.0
 40
0.0
 40
0.1745784356
 40
0.3928762058
 40
0.6728844503
 40
1.0
 40
1.0
 40
1.0
 40
1.0
 10
-3.9934481016
 20
23.2669872981
 30
0.0
 10
-3.9932826236
 20
23.2487405293
 30
0.0
 10
-3.9778907046
 20
23.2076352623
 30
0.0
 10
-3.9221506824
 20
23.1616769892
 30
0.0
 10
-3.8407846053
 20
23.1301647413
 30
0.0
 10
-3.77698823
 20
23.1226497308
 30
0.0
 10
-3.7427970241
 20
23.1226497308
 30
0.0
  0
SPLINE
  5
6F1
100
AcDbEntity
  8
0
100
AcDbSpline
 62
250
  6
CONTINUOUS
 70
0
 71
3
 72
10
 73
6
 74
0
 42
0.0000001
 43
0.0000001
 44
0.0000000001
 40
0.0
 40
0.0
 40
0.0
 40
0.0
 40
0.2350766914
 40
0.4805660701
 40
1.0
 40
1.0
 40
1.0
 40
1.0
 10
-1.111787934
 20
23.8443375673
 30
0.0
 10
-1.1118735086
 20
23.8160292141
 30
0.0
 10
-1.1259003015
 20
23.7574618543
 30
0.0
 10
-1.2021271102
 20
23.6606717159
 30
0.0
 10
-1.2992332245
 20
23.627973037
 30
0.0
 10
-1.3617845071
 20
23.6278312164
 30
0.0
  0
SPLINE
  5
6F2
100
AcDbEntity
  8
0
100
AcDbSpline
 62
7
  6
CONTINUOUS
 70
0
 71
3
 72
11
 73
7
 74
0
 42
0.0000001
 43
0.0000001
 44
0.0000000001
 40
0.0
 40
0.0
 40
0.0
 40
0.0
 40
0.3271434045
 40
0.6070676895
 40
0.8253479857
 40
1.0
 40
1.0
 40
1.0
 40
1.0
 10
-21.1434515285
 20
-23.1226497308
 30
0.0
 10
-21.1775751033
 20
-23.1226497308
 30
0.0
 10
-21.2412219905
 20
-23.1303048589
 30
0.0
 10
-21.322377364
 20
-23.1618158644
 30
0.0
 10
-21.3779480075
 20
-23.20774234
 30
0.0
 10
-21.3932828954
 20
-23.248770498
 30
0.0
 10
-21.3934481016
 20
-23.2669872981
 30
0.0
  0
SPLINE
  5
6F3
100
AcDbEntity
  8
0
100
AcDbSpline
 62
250
  6
CONTINUOUS
 70
0
 71
3
 72
10
 73
6
 74
0
 42
0.0000001
 43
0.0000001
 44
0.0000000001
 40
0.0
 40
0.0
 40
0.0
 40
0.0
 40
0.2350766034
 40
0.4805660063
 40
1.0
 40
1.0
 40
1.0
 40
1.0
 10
-21.388212066
 20
-23.8443375673
 30
0.0
 10
-21.3881264914
 20
-23.8160292247
 30
0.0
 10
-21.3740997078
 20
-23.7574618728
 30
0.0
 10
-21.2978729089
 20
-23.6606717249
 30
0.0
 10
-21.2007667831
 20
-23.627973037
 30
0.0
 10
-21.1382154929
 20
-23.6278312164
 30
0.0
  0
SPLINE
  5
6F4
100
AcDbEntity
  8
0
100
AcDbSpline
 62
250
  6
CONTINUOUS
 70
0
 71
3
 72
10
 73
6
 74
0
 42
0.0000001
 43
0.0000001
 44
0.0000000001
 40
0.0
 40
0.0
 40
0.0
 40
0.0
 40
0.2350766034
 40
0.4805660063
 40
1.0
 40
1.0
 40
1.0
 40
1.0
 10
-18.511787934
 20
-23.8443375673
 30
0.0
 10
-18.5118735086
 20
-23.8160292247
 30
0.0
 10
-18.5259002922
 20
-23.7574618728
 30
0.0
 10
-18.6021270911
 20
-23.6606717249
 30
0.0
 10
-18.6992332169
 20
-23.627973037
 30
0.0
 10
-18.7617845071
 20
-23.6278312164
 30
0.0
  0
SPLINE
  5
6F5
100
AcDbEntity
  8
0
100
AcDbSpline
 62
7
  6
CONTINUOUS
 70
0
 71
3
 72
11
 73
7
 74
0
 42
0.0000001
 43
0.0000001
 44
0.0000000001
 40
0.0
 40
0.0
 40
0.0
 40
0.0
 40
0.1745784356
 40
0.3928762058
 40
0.6728844503
 40
1.0
 40
1.0
 40
1.0
 40
1.0
 10
-18.5065518984
 20
-23.2669872981
 30
0.0
 10
-18.5067173764
 20
-23.2487405293
 30
0.0
 10
-18.5221092954
 20
-23.2076352623
 30
0.0
 10
-18.5778493176
 20
-23.1616769892
 30
0.0
 10
-18.6592153947
 20
-23.1301647413
 30
0.0
 10
-18.72301177
 20
-23.1226497308
 30
0.0
 10
-18.7572029759
 20
-23.1226497308
 30
0.0
  0
SPLINE
  5
6F6
100
AcDbEntity
  8
0
100
AcDbSpline
 62
7
  6
CONTINUOUS
 70
0
 71
3
 72
11
 73
7
 74
0
 42
0.0000001
 43
0.0000001
 44
0.0000000001
 40
0.0
 40
0.0
 40
0.0
 40
0.0
 40
0.3271434045
 40
0.6070676895
 40
0.8253479857
 40
1.0
 40
1.0
 40
1.0
 40
1.0
 10
-3.7434515285
 20
-23.1226497308
 30
0.0
 10
-3.7775751033
 20
-23.1226497308
 30
0.0
 10
-3.8412219905
 20
-23.1303048589
 30
0.0
 10
-3.922377364
 20
-23.1618158644
 30
0.0
 10
-3.9779480075
 20
-23.20774234
 30
0.0
 10
-3.9932828954
 20
-23.248770498
 30
0.0
 10
-3.9934481016
 20
-23.2669872981
 30
0.0
  0
SPLINE
  5
6F7
100
AcDbEntity
  8
0
100
AcDbSpline
 62
250
  6
CONTINUOUS
 70
0
 71
3
 72
10
 73
6
 74
0
 42
0.0000001
 43
0.0000001
 44
0.0000000001
 40
0.0
 40
0.0
 40
0.0
 40
0.0
 40
0.2350766034
 40
0.4805660063
 40
1.0
 40
1.0
 40
1.0
 40
1.0
 10
-3.988212066
 20
-23.8443375673
 30
0.0
 10
-3.9881264914
 20
-23.8160292247
 30
0.0
 10
-3.9740997078
 20
-23.7574618728
 30
0.0
 10
-3.8978729089
 20
-23.6606717249
 30
0.0
 10
-3.8007667831
 20
-23.627973037
 30
0.0
 10
-3.7382154929
 20
-23.6278312164
 30
0.0
  0
SPLINE
  5
6F8
100
AcDbEntity
  8
0
100
AcDbSpline
 62
250
  6
CONTINUOUS
 70
0
 71
3
 72
10
 73
6
 74
0
 42
0.0000001
 43
0.0000001
 44
0.0000000001
 40
0.0
 40
0.0
 40
0.0
 40
0.0
 40
0.2350766914
 40
0.4805660701
 40
1.0
 40
1.0
 40
1.0
 40
1.0
 10
-1.111787934
 20
-23.8443375673
 30
0.0
 10
-1.1118735086
 20
-23.8160292141
 30
0.0
 10
-1.1259003015
 20
-23.7574618543
 30
0.0
 10
-1.2021271102
 20
-23.6606717159
 30
0.0
 10
-1.2992332245
 20
-23.627973037
 30
0.0
 10
-1.3617845071
 20
-23.6278312164
 30
0.0
  0
SPLINE
  5
6F9
100
AcDbEntity
  8
0
100
AcDbSpline
 62
7
  6
CONTINUOUS
 70
0
 71
3
 72
11
 73
7
 74
0
 42
0.0000001
 43
0.0000001
 44
0.0000000001
 40
0.0
 40
0.0
 40
0.0
 40
0.0
 40
0.1745784356
 40
0.3928762058
 40
0.6728844503
 40
1.0
 40
1.0
 40
1.0
 40
1.0
 10
-1.1065518984
 20
-23.2669872981
 30
0.0
 10
-1.1067173764
 20
-23.2487405293
 30
0.0
 10
-1.1221092954
 20
-23.2076352623
 30
0.0
 10
-1.1778493176
 20
-23.1616769892
 30
0.0
 10
-1.2592153947
 20
-23.1301647413
 30
0.0
 10
-1.32301177
 20
-23.1226497308
 30
0.0
 10
-1.3572029759
 20
-23.1226497308
 30
0.0
  0
SPLINE
  5
6FA
100
AcDbEntity
  8
0
100
AcDbSpline
 62
7
  6
CONTINUOUS
 70
0
 71
3
 72
11
 73
7
 74
0
 42
0.0000001
 43
0.0000001
 44
0.0000000001
 40
0.0
 40
0.0
 40
0.0
 40
0.0
 40
0.3270911735
 40
0.6070114575
 40
0.8253315004
 40
1.0
 40
1.0
 40
1.0
 40
1.0
 10
18.7572765181
 20
-23.1226497308
 30
0.0
 10
18.7231638018
 20
-23.1226497308
 30
0.0
 10
18.6595360881
 20
-23.1303383394
 30
0.0
 10
18.5784009349
 20
-23.1618507177
 30
0.0
 10
18.5228325229
 20
-23.2077623959
 30
0.0
 10
18.5074642973
 20
-23.2487718432
 30
0.0
 10
18.5072807489
 20
-23.2669872981
 30
0.0
  0
LINE
  5
6FB
100
AcDbEntity
  8
0
100
AcDbLine
 62
7
  6
CONTINUOUS
 10
-43.6055920684
 20
-0.6941529788
 30
0.0
 11
-43.6116613664
 21
-0.6212809084
 31
0.0
  0
LINE
  5
6FC
100
AcDbEntity
  8
0
100
AcDbLine
 62
250
  6
CONTINUOUS
 10
-44.3179939748
 20
-0.6894579474
 30
0.0
 11
-44.3183410733
 21
-0.6274577101
 31
0.0
  0
SPLINE
  5
6FD
100
AcDbEntity
  8
RACCORDO
100
AcDbSpline
 62
250
  6
CONTINUOUS
 70
0
 71
3
 72
18
 73
14
 74
0
 42
0.0000001
 43
0.0000001
 44
0.0000000001
 40
0.0
 40
0.0
 40
0.0
 40
0.0
 40
0.1944700496
 40
0.3822418746
 40
0.5549882485
 40
0.7062831322
 40
0.8304515874
 40
0.8809164263
 40
0.9229199819
 40
0.9559902316
 40
0.9799031904
 40
0.9945274214
 40
1.0
 40
1.0
 40
1.0
 40
1.0
 10
-68.5347507354
 20
-21.4962950425
 30
0.0
 10
-68.5355991203
 20
-21.52871577
 30
0.0
 10
-68.5371026468
 20
-21.5924453008
 30
0.0
 10
-68.5388090568
 20
-21.6849840654
 30
0.0
 10
-68.539876541
 20
-21.7703380152
 30
0.0
 10
-68.5402718452
 20
-21.8450712332
 30
0.0
 10
-68.5400496055
 20
-21.89946277
 30
0.0
 10
-68.5394383187
 20
-21.9355308617
 30
0.0
 10
-68.538882443
 20
-21.9565811499
 30
0.0
 10
-68.5380888361
 20
-21.9727545462
 30
0.0
 10
-68.537381275
 20
-21.9854042596
 30
0.0
 10
-68.5362183795
 20
-21.9913619473
 30
0.0
 10
-68.5356630861
 20
-21.9960998143
 30
0.0
 10
-68.5347507354
 20
-21.996123705
 30
0.0
  0
SPLINE
  5
6FE
100
AcDbEntity
  8
RACCORDO
100
AcDbSpline
 62
250
  6
CONTINUOUS
 70
0
 71
3
 72
21
 73
17
 74
0
 42
0.0000001
 43
0.0000001
 44
0.0000000001
 40
0.0
 40
0.0
 40
0.0
 40
0.0
 40
0.1960532239
 40
0.3846056438
 40
0.5575437334
 40
0.708634898
 40
0.7742203603
 40
0.8323823984
 40
0.8825999131
 40
0.9243518459
 40
0.9571750162
 40
0.9808376058
 40
0.9891795025
 40
0.9951664956
 40
0.9987779332
 40
1.0
 40
1.0
 40
1.0
 40
1.0
 10
-69.0161269264
 20
-21.0706600114
 30
0.0
 10
-69.0476048457
 20
-21.0753864616
 30
0.0
 10
-69.1093528698
 20
-21.0846817533
 30
0.0
 10
-69.1988557766
 20
-21.0982244854
 30
0.0
 10
-69.2811295135
 20
-21.1107482197
 30
0.0
 10
-69.3436567475
 20
-21.1203330547
 30
0.0
 10
-69.3877547028
 20
-21.1271467278
 30
0.0
 10
-69.41566668
 20
-21.1314841234
 30
0.0
 10
-69.4397399833
 20
-21.135261656
 30
0.0
 10
-69.4597738773
 20
-21.1384197769
 30
0.0
 10
-69.4754627566
 20
-21.1409849072
 30
0.0
 10
-69.4859691471
 20
-21.1426366796
 30
0.0
 10
-69.4918831138
 20
-21.1437684913
 30
0.0
 10
-69.4950223582
 20
-21.1441480579
 30
0.0
 10
-69.4962609569
 20
-21.1447330525
 30
0.0
 10
-69.4975322969
 20
-21.1446573878
 30
0.0
 10
-69.497502854
 20
-21.1448536032
 30
0.0
  0
SPLINE
  5
6FF
100
AcDbEntity
  8
RACCORDO
100
AcDbSpline
 62
250
  6
CONTINUOUS
 70
0
 71
3
 72
18
 73
14
 74
0
 42
0.0000001
 43
0.0000001
 44
0.0000000001
 40
0.0
 40
0.0
 40
0.0
 40
0.0
 40
0.1944700493
 40
0.3822418736
 40
0.5549882472
 40
0.706283131
 40
0.8304515865
 40
0.8809164256
 40
0.9229199813
 40
0.9559902311
 40
0.97990319
 40
0.9945274212
 40
1.0
 40
1.0
 40
1.0
 40
1.0
 10
-68.5347507354
 20
21.4962950425
 30
0.0
 10
-68.5355991204
 20
21.5287157699
 30
0.0
 10
-68.5371026472
 20
21.5924453006
 30
0.0
 10
-68.5388090574
 20
21.684984065
 30
0.0
 10
-68.5398765417
 20
21.7703380147
 30
0.0
 10
-68.540271846
 20
21.8450712327
 30
0.0
 10
-68.5400496063
 20
21.8994627696
 30
0.0
 10
-68.5394383194
 20
21.9355308614
 30
0.0
 10
-68.5388824436
 20
21.9565811497
 30
0.0
 10
-68.5380888366
 20
21.9727545461
 30
0.0
 10
-68.5373812753
 20
21.9854042594
 30
0.0
 10
-68.5362183798
 20
21.9913619474
 30
0.0
 10
-68.5356630861
 20
21.9960998143
 30
0.0
 10
-68.5347507354
 20
21.996123705
 30
0.0
  0
SPLINE
  5
700
100
AcDbEntity
  8
RACCORDO
100
AcDbSpline
 62
250
  6
CONTINUOUS
 70
0
 71
3
 72
9
 73
5
 74
0
 42
0.0000001
 43
0.0000001
 44
0.0000000001
 40
0.0
 40
0.0
 40
0.0
 40
0.0
 40
0.2500632227
 40
1.0
 40
1.0
 40
1.0
 40
1.0
 10
-69.0161269264
 20
21.0706600114
 30
0.0
 10
-69.1599217168
 20
20.1123342277
 30
0.0
 10
-69.6727326039
 20
16.2709190041
 30
0.0
 10
-69.9355765209
 20
12.3961567161
 30
0.0
 10
-69.9907956589
 20
9.4905
 30
0.0
  0
SPLINE
  5
701
100
AcDbEntity
  8
RACCORDO
100
AcDbSpline
 62
250
  6
CONTINUOUS
 70
0
 71
3
 72
21
 73
17
 74
0
 42
0.0000001
 43
0.0000001
 44
0.0000000001
 40
0.0
 40
0.0
 40
0.0
 40
0.0
 40
0.1960531841
 40
0.3846055769
 40
0.5575436568
 40
0.7086348275
 40
0.7742202978
 40
0.8323823462
 40
0.8825998721
 40
0.9243518164
 40
0.9571749972
 40
0.9808375957
 40
0.9891794959
 40
0.995166492
 40
0.9987779318
 40
1.0
 40
1.0
 40
1.0
 40
1.0
 10
-69.0161269264
 20
21.0706600114
 30
0.0
 10
-69.0476048545
 20
21.0753864629
 30
0.0
 10
-69.1093528977
 20
21.0846817572
 30
0.0
 10
-69.1988558356
 20
21.0982244937
 30
0.0
 10
-69.2811296074
 20
21.110748233
 30
0.0
 10
-69.3436568722
 20
21.1203330726
 30
0.0
 10
-69.3877548528
 20
21.1271467495
 30
0.0
 10
-69.4156668483
 20
21.1314841479
 30
0.0
 10
-69.4397401685
 20
21.1352616831
 30
0.0
 10
-69.4597740774
 20
21.1384198063
 30
0.0
 10
-69.4754629695
 20
21.1409849387
 30
0.0
 10
-69.4859693682
 20
21.1426367124
 30
0.0
 10
-69.491883341
 20
21.1437685252
 30
0.0
 10
-69.4950225872
 20
21.1441480919
 30
0.0
 10
-69.4962611895
 20
21.1447330876
 30
0.0
 10
-69.4975325288
 20
21.1446574223
 30
0.0
 10
-69.4975030868
 20
21.1448536382
 30
0.0
  0
SPLINE
  5
702
100
AcDbEntity
  8
RACCORDO
100
AcDbSpline
 62
250
  6
CONTINUOUS
 70
0
 71
3
 72
9
 73
5
 74
0
 42
0.0000001
 43
0.0000001
 44
0.0000000001
 40
0.0
 40
0.0
 40
0.0
 40
0.0
 40
0.2500646165
 40
1.0
 40
1.0
 40
1.0
 40
1.0
 10
-69.9907956589
 20
-9.4905
 30
0.0
 10
-69.9723830803
 20
-10.4593842542
 30
0.0
 10
-69.8358860447
 20
-14.3324727628
 30
0.0
 10
-69.447364749
 20
-18.1966571105
 30
0.0
 10
-69.0161269264
 20
-21.0706600114
 30
0.0
  0
SPLINE
  5
703
100
AcDbEntity
  8
ASSI
100
AcDbSpline
 62
7
  6
CONTINUOUS
 70
0
 71
3
 72
11
 73
7
 74
0
 42
0.0000001
 43
0.0000001
 44
0.0000000001
 40
0.0
 40
0.0
 40
0.0
 40
0.0
 40
0.3377464411
 40
0.604405131
 40
0.8145704252
 40
1.0
 40
1.0
 40
1.0
 40
1.0
 10
-63.624480376
 20
20.4724581613
 30
0.0
 10
-63.6284318881
 20
20.4887133667
 30
0.0
 10
-63.6371055823
 20
20.517502473
 30
0.0
 10
-63.6557896512
 20
20.5536143215
 30
0.0
 10
-63.6796364547
 20
20.5774582887
 30
0.0
 10
-63.6994837326
 20
20.5830966663
 30
0.0
 10
-63.7086666725
 20
20.5832569551
 30
0.0
  0
SPLINE
  5
704
100
AcDbEntity
  8
ASSI
100
AcDbSpline
 62
7
  6
CONTINUOUS
 70
0
 71
3
 72
11
 73
7
 74
0
 42
0.0000001
 43
0.0000001
 44
0.0000000001
 40
0.0
 40
0.0
 40
0.0
 40
0.0
 40
0.1854231731
 40
0.3955662005
 40
0.6622311467
 40
1.0
 40
1.0
 40
1.0
 40
1.0
 10
-63.7086666725
 20
-20.5832569551
 30
0.0
 10
-63.699483986
 20
-20.5830966707
 30
0.0
 10
-63.6796371352
 20
-20.5774612706
 30
0.0
 10
-63.655792093
 20
-20.5536161844
 30
0.0
 10
-63.6371060096
 20
-20.5175051879
 30
0.0
 10
-63.6284323553
 20
-20.4887141187
 30
0.0
 10
-63.6244804778
 20
-20.4724577404
 30
0.0
  0
SPLINE
  5
705
100
AcDbEntity
  8
RACCORDO
100
AcDbSpline
 62
250
  6
CONTINUOUS
 70
0
 71
3
 72
9
 73
5
 74
0
 42
0.0000001
 43
0.0000001
 44
0.0000000001
 40
0.0
 40
0.0
 40
0.0
 40
0.0
 40
0.4998050173
 40
1.0
 40
1.0
 40
1.0
 40
1.0
 10
-63.3208470789
 20
18.9445987868
 30
0.0
 10
-63.2505419979
 20
18.9531910975
 30
0.0
 10
-63.1115499626
 20
19.0247972501
 30
0.0
 10
-63.0573876324
 20
19.1714791846
 30
0.0
 10
-63.0574078819
 20
19.2423626323
 30
0.0
  0
SPLINE
  5
706
100
AcDbEntity
  8
ASSI
100
AcDbSpline
 62
7
  6
CONTINUOUS
 70
0
 71
3
 72
10
 73
6
 74
0
 42
0.0000001
 43
0.0000001
 44
0.0000000001
 40
0.0
 40
0.0
 40
0.0
 40
0.0
 40
0.1882612035
 40
0.4213795174
 40
1.0
 40
1.0
 40
1.0
 40
1.0
 10
-63.6244804778
 20
-20.4724577404
 30
0.0
 10
-63.617451546
 20
-20.4435436422
 30
0.0
 10
-63.6078405888
 20
-20.3773754032
 30
0.0
 10
-63.601153255
 20
-20.2193539891
 30
0.0
 10
-63.6101105015
 20
-20.0909198683
 30
0.0
 10
-63.6199950901
 20
-20.0
 30
0.0
  0
SPLINE
  5
707
100
AcDbEntity
  8
ASSI
100
AcDbSpline
 62
7
  6
CONTINUOUS
 70
0
 71
3
 72
9
 73
5
 74
0
 42
0.0000001
 43
0.0000001
 44
0.0000000001
 40
0.0
 40
0.0
 40
0.0
 40
0.0
 40
0.2577550571
 40
1.0
 40
1.0
 40
1.0
 40
1.0
 10
-63.6820068043
 20
19.6210494025
 30
0.0
 10
-63.6750652214
 20
19.6533109205
 30
0.0
 10
-63.6496916199
 20
19.7787995475
 30
0.0
 10
-63.6302658008
 20
19.905528525
 30
0.0
 10
-63.6199950901
 20
20.0
 30
0.0
  0
SPLINE
  5
708
100
AcDbEntity
  8
ASSI
100
AcDbSpline
 62
7
  6
CONTINUOUS
 70
0
 71
3
 72
9
 73
5
 74
0
 42
0.0000001
 43
0.0000001
 44
0.0000000001
 40
0.0
 40
0.0
 40
0.0
 40
0.0
 40
0.5749847331
 40
1.0
 40
1.0
 40
1.0
 40
1.0
 10
-63.6133995813
 20
20.0677193278
 30
0.0
 10
-63.6067568783
 20
20.1452444013
 30
0.0
 10
-63.6006614307
 20
20.2803915088
 30
0.0
 10
-63.6108946614
 20
20.4165710536
 30
0.0
 10
-63.624480376
 20
20.4724581613
 30
0.0
  0
SPLINE
  5
709
100
AcDbEntity
  8
ASSI
100
AcDbSpline
 62
7
  6
CONTINUOUS
 70
0
 71
3
 72
9
 73
5
 74
0
 42
0.0000001
 43
0.0000001
 44
0.0000000001
 40
0.0
 40
0.0
 40
0.0
 40
0.0
 40
0.2397580588
 40
1.0
 40
1.0
 40
1.0
 40
1.0
 10
-63.6199950901
 20
-20.0
 30
0.0
 10
-63.6233127343
 20
-19.9694838311
 30
0.0
 10
-63.6390198567
 20
-19.8424123786
 30
0.0
 10
-63.6615326254
 20
-19.7162046574
 30
0.0
 10
-63.6820068043
 20
-19.6210494025
 30
0.0
  0
SPLINE
  5
70A
100
AcDbEntity
  8
RACCORDO
100
AcDbSpline
 62
250
  6
CONTINUOUS
 70
0
 71
3
 72
14
 73
10
 74
0
 42
0.0000001
 43
0.0000001
 44
0.0000000001
 40
0.0
 40
0.0
 40
0.0
 40
0.0
 40
0.3810750228
 40
0.5538992144
 40
0.7048247878
 40
0.828728863
 40
0.9208514892
 40
0.9782276132
 40
1.0
 40
1.0
 40
1.0
 40
1.0
 10
-63.3208470789
 20
18.9445987868
 30
0.0
 10
-63.3177660477
 20
18.919436777
 30
0.0
 10
-63.3136305778
 20
18.8827896029
 30
0.0
 10
-63.3091995429
 20
18.8361836099
 30
0.0
 10
-63.3067549434
 20
18.8063348534
 30
0.0
 10
-63.3053959226
 20
18.7824260769
 30
0.0
 10
-63.3044876607
 20
18.763147935
 30
0.0
 10
-63.305387876
 20
18.7537794057
 30
0.0
 10
-63.3055028463
 20
18.746266066
 30
0.0
 10
-63.3069403972
 20
18.746089557
 30
0.0
  0
SPLINE
  5
70B
100
AcDbEntity
  8
RACCORDO
100
AcDbSpline
 62
250
  6
CONTINUOUS
 70
0
 71
3
 72
23
 73
19
 74
0
 42
0.0000001
 43
0.0000001
 44
0.0000000001
 40
0.0
 40
0.0
 40
0.0
 40
0.0
 40
0.0010754895
 40
0.0041773521
 40
0.0093257397
 40
0.0165213806
 40
0.0257626882
 40
0.0370449231
 40
0.0656996965
 40
0.1024185461
 40
0.1471143626
 40
0.1996768006
 40
0.2599837687
 40
0.3278861748
 40
0.4032257347
 40
0.5754529281
 40
0.775027504
 40
1.0
 40
1.0
 40
1.0
 40
1.0
 10
-35.8591488699
 20
19.4100936057
 30
0.0
 10
-35.8590438988
 20
19.4100914516
 30
0.0
 10
-35.8590977124
 20
19.4094671831
 30
0.0
 10
-35.858922337
 20
19.4087672507
 30
0.0
 10
-35.8589136598
 20
19.4071431351
 30
0.0
 10
-35.8588201337
 20
19.4050888329
 30
0.0
 10
-35.8587680021
 20
19.4023634048
 30
0.0
 10
-35.8586794565
 20
19.3975727054
 30
0.0
 10
-35.8585985532
 20
19.3900834527
 30
0.0
 10
-35.8585218115
 20
19.3793410406
 30
0.0
 10
-35.8584685175
 20
19.3662608228
 30
0.0
 10
-35.8584362449
 20
19.3508790898
 30
0.0
 10
-35.8584264681
 20
19.3332313708
 30
0.0
 10
-35.8584389524
 20
19.3133602138
 30
0.0
 10
-35.8584879296
 20
19.2825629806
 30
0.0
 10
-35.8586104014
 20
19.2389115715
 30
0.0
 10
-35.8588385176
 20
19.1806527185
 30
0.0
 10
-35.8590365967
 20
19.1392073478
 30
0.0
 10
-35.8591488699
 20
19.117244996
 30
0.0
  0
SPLINE
  5
70C
100
AcDbEntity
  8
RACCORDO
100
AcDbSpline
 62
250
  6
CONTINUOUS
 70
0
 71
3
 72
9
 73
5
 74
0
 42
0.0000001
 43
0.0000001
 44
0.0000000001
 40
0.0
 40
0.0
 40
0.0
 40
0.0
 40
0.2487982765
 40
1.0
 40
1.0
 40
1.0
 40
1.0
 10
-35.3678750731
 20
18.7637454533
 30
0.0
 10
-35.3678750731
 20
18.7692913768
 30
0.0
 10
-35.3686158853
 20
18.7915773809
 30
0.0
 10
-35.3723545926
 20
18.8137531365
 30
0.0
 10
-35.3767115576
 20
18.8299212906
 30
0.0
  0
SPLINE
  5
70D
100
AcDbEntity
  8
RACCORDO
100
AcDbSpline
 62
250
  6
CONTINUOUS
 70
0
 71
3
 72
13
 73
9
 74
0
 42
0.0000001
 43
0.0000001
 44
0.0000000001
 40
0.0
 40
0.0
 40
0.0
 40
0.0
 40
0.1043204161
 40
0.2139401838
 40
0.3302072931
 40
0.4535584242
 40
0.7186711171
 40
1.0
 40
1.0
 40
1.0
 40
1.0
 10
-35.3767115576
 20
18.8299212906
 30
0.0
 10
-35.3821247902
 20
18.8500091218
 30
0.0
 10
-35.3982056503
 20
18.8899938084
 30
0.0
 10
-35.4355440942
 20
18.9447569976
 30
0.0
 10
-35.4853045631
 20
18.9940436476
 30
0.0
 10
-35.5681003172
 20
19.0519884919
 30
0.0
 10
-35.693809147
 20
19.1023339892
 30
0.0
 10
-35.8030482546
 20
19.1165525688
 30
0.0
 10
-35.8591488699
 20
19.117244996
 30
0.0
  0
SPLINE
  5
70E
100
AcDbEntity
  8
RACCORDO
100
AcDbSpline
 62
250
  6
CONTINUOUS
 70
0
 71
3
 72
9
 73
5
 74
0
 42
0.0000001
 43
0.0000001
 44
0.0000000001
 40
0.0
 40
0.0
 40
0.0
 40
0.0
 40
0.4588071499
 40
1.0
 40
1.0
 40
1.0
 40
1.0
 10
-35.8591488699
 20
18.9301864485
 30
0.0
 10
-35.8585962148
 20
18.7139362187
 30
0.0
 10
-35.8582229541
 20
18.2426027936
 30
0.0
 10
-35.8586878778
 20
17.7712698939
 30
0.0
 10
-35.8591488699
 20
17.5161882777
 30
0.0
  0
SPLINE
  5
70F
100
AcDbEntity
  8
RACCORDO
100
AcDbSpline
 62
250
  6
CONTINUOUS
 70
0
 71
3
 72
9
 73
5
 74
0
 42
0.0000001
 43
0.0000001
 44
0.0000000001
 40
0.0
 40
0.0
 40
0.0
 40
0.0
 40
0.4952142925
 40
1.0
 40
1.0
 40
1.0
 40
1.0
 10
-35.3678750731
 20
18.5766869058
 30
0.0
 10
-35.3678750731
 20
18.5933565192
 30
0.0
 10
-35.3712778425
 20
18.627100835
 30
0.0
 10
-35.3812326263
 20
18.659497942
 30
0.0
 10
-35.3876839819
 20
18.6752173982
 30
0.0
  0
SPLINE
  5
710
100
AcDbEntity
  8
RACCORDO
100
AcDbSpline
 62
250
  6
CONTINUOUS
 70
0
 71
3
 72
12
 73
8
 74
0
 42
0.0000001
 43
0.0000001
 44
0.0000000001
 40
0.0
 40
0.0
 40
0.0
 40
0.0
 40
0.1055330647
 40
0.2166476917
 40
0.4574177013
 40
0.7216738596
 40
1.0
 40
1.0
 40
1.0
 40
1.0
 10
-35.3876839819
 20
18.6752173982
 30
0.0
 10
-35.3952167618
 20
18.693571867
 30
0.0
 10
-35.4147595371
 20
18.7296798671
 30
0.0
 10
-35.4695326583
 20
18.7965056849
 30
0.0
 10
-35.5651598745
 20
18.8654374553
 30
0.0
 10
-35.7045489357
 20
18.9169792347
 30
0.0
 10
-35.806827865
 20
18.9295406715
 30
0.0
 10
-35.8591488699
 20
18.9301864485
 30
0.0
  0
SPLINE
  5
711
100
AcDbEntity
  8
RACCORDO
100
AcDbSpline
 62
250
  6
CONTINUOUS
 70
0
 71
3
 72
9
 73
5
 74
0
 42
0.0000001
 43
0.0000001
 44
0.0000000001
 40
0.0
 40
0.0
 40
0.0
 40
0.0
 40
0.5411928501
 40
1.0
 40
1.0
 40
1.0
 40
1.0
 10
-35.8591488699
 20
-17.5161882777
 30
0.0
 10
-35.8586878778
 20
-17.7712698939
 30
0.0
 10
-35.8582229541
 20
-18.2426027936
 30
0.0
 10
-35.8585962148
 20
-18.7139362187
 30
0.0
 10
-35.8591488699
 20
-18.9301864485
 30
0.0
  0
SPLINE
  5
712
100
AcDbEntity
  8
RACCORDO
100
AcDbSpline
 62
250
  6
CONTINUOUS
 70
0
 71
3
 72
9
 73
5
 74
0
 42
0.0000001
 43
0.0000001
 44
0.0000000001
 40
0.0
 40
0.0
 40
0.0
 40
0.0
 40
0.4952142911
 40
1.0
 40
1.0
 40
1.0
 40
1.0
 10
-35.3678750731
 20
-18.5766869058
 30
0.0
 10
-35.3678750731
 20
-18.5933565218
 30
0.0
 10
-35.3712778436
 20
-18.627100843
 30
0.0
 10
-35.3812326305
 20
-18.6594979547
 30
0.0
 10
-35.387683988
 20
-18.6752174132
 30
0.0
  0
SPLINE
  5
713
100
AcDbEntity
  8
RACCORDO
100
AcDbSpline
 62
250
  6
CONTINUOUS
 70
0
 71
3
 72
12
 73
8
 74
0
 42
0.0000001
 43
0.0000001
 44
0.0000000001
 40
0.0
 40
0.0
 40
0.0
 40
0.0
 40
0.1055330654
 40
0.2166476931
 40
0.4574177035
 40
0.7216738612
 40
1.0
 40
1.0
 40
1.0
 40
1.0
 10
-35.387683988
 20
-18.6752174132
 30
0.0
 10
-35.3952167688
 20
-18.6935718811
 30
0.0
 10
-35.4147595455
 20
-18.7296798794
 30
0.0
 10
-35.469532668
 20
-18.7965056934
 30
0.0
 10
-35.5651598832
 20
-18.8654374594
 30
0.0
 10
-35.7045489408
 20
-18.9169792356
 30
0.0
 10
-35.8068278667
 20
-18.9295406716
 30
0.0
 10
-35.8591488699
 20
-18.9301864485
 30
0.0
  0
SPLINE
  5
714
100
AcDbEntity
  8
RACCORDO
100
AcDbSpline
 62
250
  6
CONTINUOUS
 70
0
 71
3
 72
23
 73
19
 74
0
 42
0.0000001
 43
0.0000001
 44
0.0000000001
 40
0.0
 40
0.0
 40
0.0
 40
0.0
 40
0.224972496
 40
0.4245470719
 40
0.5967742653
 40
0.6721138252
 40
0.7400162313
 40
0.8003231994
 40
0.8528856374
 40
0.8975814539
 40
0.9343003035
 40
0.9629550769
 40
0.9742373118
 40
0.9834786194
 40
0.9906742603
 40
0.9958226479
 40
0.9989245105
 40
1.0
 40
1.0
 40
1.0
 40
1.0
 10
-35.8591488699
 20
-19.117244996
 30
0.0
 10
-35.8590365967
 20
-19.1392073478
 30
0.0
 10
-35.8588385176
 20
-19.1806527185
 30
0.0
 10
-35.8586104014
 20
-19.2389115715
 30
0.0
 10
-35.8584879296
 20
-19.2825629806
 30
0.0
 10
-35.8584389524
 20
-19.3133602138
 30
0.0
 10
-35.8584264681
 20
-19.3332313708
 30
0.0
 10
-35.8584362449
 20
-19.3508790898
 30
0.0
 10
-35.8584685175
 20
-19.3662608228
 30
0.0
 10
-35.8585218115
 20
-19.3793410406
 30
0.0
 10
-35.8585985532
 20
-19.3900834527
 30
0.0
 10
-35.8586794565
 20
-19.3975727054
 30
0.0
 10
-35.8587680021
 20
-19.4023634048
 30
0.0
 10
-35.8588201337
 20
-19.4050888329
 30
0.0
 10
-35.8589136598
 20
-19.4071431351
 30
0.0
 10
-35.858922337
 20
-19.4087672507
 30
0.0
 10
-35.8590977124
 20
-19.4094671831
 30
0.0
 10
-35.8590438988
 20
-19.4100914516
 30
0.0
 10
-35.8591488699
 20
-19.4100936057
 30
0.0
  0
SPLINE
  5
715
100
AcDbEntity
  8
RACCORDO
100
AcDbSpline
 62
250
  6
CONTINUOUS
 70
0
 71
3
 72
9
 73
5
 74
0
 42
0.0000001
 43
0.0000001
 44
0.0000000001
 40
0.0
 40
0.0
 40
0.0
 40
0.0
 40
0.2487982775
 40
1.0
 40
1.0
 40
1.0
 40
1.0
 10
-35.3678750731
 20
-18.7637454533
 30
0.0
 10
-35.3678750731
 20
-18.7692913747
 30
0.0
 10
-35.3686158847
 20
-18.7915773704
 30
0.0
 10
-35.3723545892
 20
-18.8137531177
 30
0.0
 10
-35.376711551
 20
-18.8299212661
 30
0.0
  0
SPLINE
  5
716
100
AcDbEntity
  8
RACCORDO
100
AcDbSpline
 62
250
  6
CONTINUOUS
 70
0
 71
3
 72
13
 73
9
 74
0
 42
0.0000001
 43
0.0000001
 44
0.0000000001
 40
0.0
 40
0.0
 40
0.0
 40
0.0
 40
0.1043204156
 40
0.2139401824
 40
0.3302072908
 40
0.4535584213
 40
0.7186711148
 40
1.0
 40
1.0
 40
1.0
 40
1.0
 10
-35.376711551
 20
-18.8299212661
 30
0.0
 10
-35.3821247818
 20
-18.8500090986
 30
0.0
 10
-35.398205639
 20
-18.8899937882
 30
0.0
 10
-35.4355440804
 20
-18.944756982
 30
0.0
 10
-35.4853045485
 20
-18.9940436364
 30
0.0
 10
-35.568100304
 20
-19.0519884861
 30
0.0
 10
-35.6938091388
 20
-19.1023339882
 30
0.0
 10
-35.8030482517
 20
-19.1165525689
 30
0.0
 10
-35.8591488699
 20
-19.117244996
 30
0.0
  0
SPLINE
  5
717
100
AcDbEntity
  8
ASSI
100
AcDbSpline
 62
250
  6
CONTINUOUS
 70
0
 71
3
 72
8
 73
4
 74
0
 42
0.0000001
 43
0.0000001
 44
0.0000000001
 40
0.0
 40
0.0
 40
0.0
 40
0.0
 40
1.0
 40
1.0
 40
1.0
 40
1.0
 10
-35.3678750731
 20
-18.7637454533
 30
0.0
 10
-35.3678750731
 20
-18.785999845
 30
0.0
 10
-35.3709210443
 20
-18.8084334095
 30
0.0
 10
-35.376711551
 20
-18.8299212661
 30
0.0
  0
SPLINE
  5
718
100
AcDbEntity
  8
ASSI
100
AcDbSpline
 62
250
  6
CONTINUOUS
 70
0
 71
3
 72
11
 73
7
 74
0
 42
0.0000001
 43
0.0000001
 44
0.0000000001
 40
0.0
 40
0.0
 40
0.0
 40
0.0
 40
0.2131582181
 40
0.452407951
 40
0.718078809
 40
1.0
 40
1.0
 40
1.0
 40
1.0
 10
-35.376711551
 20
-18.8299212661
 30
0.0
 10
-35.3877491833
 20
-18.8708805593
 30
0.0
 10
-35.4331949045
 20
-18.9524242243
 30
0.0
 10
-35.5466747986
 20
-19.0433742339
 30
0.0
 10
-35.6937352538
 20
-19.1023150456
 30
0.0
 10
-35.8030482517
 20
-19.1165525689
 30
0.0
 10
-35.8591488699
 20
-19.117244996
 30
0.0
  0
SPLINE
  5
719
100
AcDbEntity
  8
ASSI
100
AcDbSpline
 62
250
  6
CONTINUOUS
 70
0
 71
3
 72
18
 73
14
 74
0
 42
0.0000001
 43
0.0000001
 44
0.0000000001
 40
0.0
 40
0.0
 40
0.0
 40
0.0
 40
0.2249757833
 40
0.4245532755
 40
0.5967829855
 40
0.7400270277
 40
0.8528980485
 40
0.897594518
 40
0.9343139042
 40
0.9629690963
 40
0.9834928481
 40
0.9958366334
 40
1.0
 40
1.0
 40
1.0
 40
1.0
 10
-35.8591488699
 20
-19.117244996
 30
0.0
 10
-35.8590365967
 20
-19.1392073478
 30
0.0
 10
-35.8588382563
 20
-19.1806530739
 30
0.0
 10
-35.8586111591
 20
-19.2389105411
 30
0.0
 10
-35.8584671011
 20
-19.2891948685
 30
0.0
 10
-35.8584229804
 20
-19.3309993695
 30
0.0
 10
-35.8584306735
 20
-19.3603919539
 30
0.0
 10
-35.8585394335
 20
-19.3793174487
 30
0.0
 10
-35.8585491629
 20
-19.3901494363
 30
0.0
 10
-35.8588136765
 20
-19.3983093101
 30
0.0
 10
-35.8585403027
 20
-19.4048256912
 30
0.0
 10
-35.8593372752
 20
-19.4075386822
 30
0.0
 10
-35.8587425183
 20
-19.410085267
 30
0.0
 10
-35.8591488699
 20
-19.4100936057
 30
0.0
  0
SPLINE
  5
71A
100
AcDbEntity
  8
ASSI
100
AcDbSpline
 62
250
  6
CONTINUOUS
 70
0
 71
3
 72
11
 73
7
 74
0
 42
0.0000001
 43
0.0000001
 44
0.0000000001
 40
0.0
 40
0.0
 40
0.0
 40
0.0
 40
0.2097756645
 40
0.4448627845
 40
0.7119362522
 40
1.0
 40
1.0
 40
1.0
 40
1.0
 10
-35.3678750731
 20
-18.5766869058
 30
0.0
 10
-35.3678750731
 20
-18.6230044543
 30
0.0
 10
-35.397538883
 20
-18.7223912774
 30
0.0
 10
-35.5116132888
 20
-18.8369860559
 30
0.0
 10
-35.6724248357
 20
-18.9114656446
 30
0.0
 10
-35.7955504994
 20
-18.9294014796
 30
0.0
 10
-35.8591488699
 20
-18.9301864485
 30
0.0
  0
SPLINE
  5
71B
100
AcDbEntity
  8
ASSI
100
AcDbSpline
 62
250
  6
CONTINUOUS
 70
0
 71
3
 72
9
 73
5
 74
0
 42
0.0000001
 43
0.0000001
 44
0.0000000001
 40
0.0
 40
0.0
 40
0.0
 40
0.0
 40
0.2758973707
 40
1.0
 40
1.0
 40
1.0
 40
1.0
 10
-35.8591488699
 20
-17.5161882777
 30
0.0
 10
-35.8589138585
 20
-17.6462275715
 30
0.0
 10
-35.8582786875
 20
-18.1175599155
 30
0.0
 10
-35.8582766539
 20
-18.5888941753
 30
0.0
 10
-35.8591488699
 20
-18.9301864485
 30
0.0
  0
SPLINE
  5
71C
100
AcDbEntity
  8
ASSI
100
AcDbSpline
 62
250
  6
CONTINUOUS
 70
0
 71
3
 72
11
 73
7
 74
0
 42
0.0000001
 43
0.0000001
 44
0.0000000001
 40
0.0
 40
0.0
 40
0.0
 40
0.0
 40
0.2097756643
 40
0.4448627843
 40
0.7119362521
 40
1.0
 40
1.0
 40
1.0
 40
1.0
 10
-35.3678750731
 20
18.5766869058
 30
0.0
 10
-35.3678750731
 20
18.6230044543
 30
0.0
 10
-35.397538883
 20
18.7223912773
 30
0.0
 10
-35.5116132888
 20
18.8369860558
 30
0.0
 10
-35.6724248357
 20
18.9114656445
 30
0.0
 10
-35.7955504994
 20
18.9294014796
 30
0.0
 10
-35.8591488699
 20
18.9301864485
 30
0.0
  0
SPLINE
  5
71D
100
AcDbEntity
  8
ASSI
100
AcDbSpline
 62
250
  6
CONTINUOUS
 70
0
 71
3
 72
9
 73
5
 74
0
 42
0.0000001
 43
0.0000001
 44
0.0000000001
 40
0.0
 40
0.0
 40
0.0
 40
0.0
 40
0.2143080866
 40
1.0
 40
1.0
 40
1.0
 40
1.0
 10
-35.8591488699
 20
18.9301864485
 30
0.0
 10
-35.8588907256
 20
18.8291763209
 30
0.0
 10
-35.8581178415
 20
18.357843875
 30
0.0
 10
-35.8584796117
 20
17.8865101412
 30
0.0
 10
-35.8591488699
 20
17.5161882777
 30
0.0
  0
SPLINE
  5
71E
100
AcDbEntity
  8
ASSI
100
AcDbSpline
 62
250
  6
CONTINUOUS
 70
0
 71
3
 72
18
 73
14
 74
0
 42
0.0000001
 43
0.0000001
 44
0.0000000001
 40
0.0
 40
0.0
 40
0.0
 40
0.0
 40
0.0041633666
 40
0.016507152
 40
0.0370309037
 40
0.0656860958
 40
0.102405482
 40
0.1471019515
 40
0.2599729723
 40
0.4032170145
 40
0.5754467245
 40
0.7750242167
 40
1.0
 40
1.0
 40
1.0
 40
1.0
 10
-35.8591488699
 20
19.4100936057
 30
0.0
 10
-35.8587425183
 20
19.410085267
 30
0.0
 10
-35.8593372752
 20
19.4075386822
 30
0.0
 10
-35.8585403027
 20
19.4048256912
 30
0.0
 10
-35.8588136765
 20
19.3983093101
 30
0.0
 10
-35.8585491629
 20
19.3901494363
 30
0.0
 10
-35.8585394335
 20
19.3793174487
 30
0.0
 10
-35.8584306735
 20
19.3603919539
 30
0.0
 10
-35.8584229804
 20
19.3309993695
 30
0.0
 10
-35.8584671011
 20
19.2891948685
 30
0.0
 10
-35.8586111591
 20
19.2389105411
 30
0.0
 10
-35.8588382563
 20
19.1806530739
 30
0.0
 10
-35.8590365967
 20
19.1392073478
 30
0.0
 10
-35.8591488699
 20
19.117244996
 30
0.0
  0
SPLINE
  5
71F
100
AcDbEntity
  8
ASSI
100
AcDbSpline
 62
250
  6
CONTINUOUS
 70
0
 71
3
 72
8
 73
4
 74
0
 42
0.0000001
 43
0.0000001
 44
0.0000000001
 40
0.0
 40
0.0
 40
0.0
 40
0.0
 40
1.0
 40
1.0
 40
1.0
 40
1.0
 10
-35.3678750731
 20
18.7637454533
 30
0.0
 10
-35.3678750731
 20
18.7859998534
 30
0.0
 10
-35.3709210467
 20
18.8084334264
 30
0.0
 10
-35.3767115576
 20
18.8299212906
 30
0.0
  0
SPLINE
  5
720
100
AcDbEntity
  8
ASSI
100
AcDbSpline
 62
250
  6
CONTINUOUS
 70
0
 71
3
 72
11
 73
7
 74
0
 42
0.0000001
 43
0.0000001
 44
0.0000000001
 40
0.0
 40
0.0
 40
0.0
 40
0.0
 40
0.2131582197
 40
0.4524079541
 40
0.7180788114
 40
1.0
 40
1.0
 40
1.0
 40
1.0
 10
-35.3767115576
 20
18.8299212906
 30
0.0
 10
-35.3877491935
 20
18.8708805813
 30
0.0
 10
-35.4331949194
 20
18.9524242393
 30
0.0
 10
-35.5466748124
 20
19.0433742403
 30
0.0
 10
-35.693735262
 20
19.1023150466
 30
0.0
 10
-35.8030482546
 20
19.1165525688
 30
0.0
 10
-35.8591488699
 20
19.117244996
 30
0.0
  0
SPLINE
  5
721
100
AcDbEntity
  8
0
100
AcDbSpline
 62
250
  6
CONTINUOUS
 70
0
 71
3
 72
17
 73
13
 74
0
 42
0.0000001
 43
0.0000001
 44
0.0000000001
 40
0.0
 40
0.0
 40
0.0
 40
0.0
 40
0.3826597693
 40
0.5555365602
 40
0.7070636664
 40
0.8314211655
 40
0.8818706825
 40
0.9238293114
 40
0.9568924987
 40
0.9807411606
 40
0.9951506919
 40
1.0
 40
1.0
 40
1.0
 40
1.0
 10
-60.1164206403
 20
-24.2456323968
 30
0.0
 10
-60.1162351228
 20
-24.2775212285
 30
0.0
 10
-60.1160161238
 20
-24.3238152493
 30
0.0
 10
-60.1158483616
 20
-24.382743232
 30
0.0
 10
-60.1158122913
 20
-24.4201311165
 30
0.0
 10
-60.1158179166
 20
-24.4473514819
 30
0.0
 10
-60.115916132
 20
-24.465376105
 30
0.0
 10
-60.1159129175
 20
-24.4759182206
 30
0.0
 10
-60.1161720381
 20
-24.4839312745
 30
0.0
 10
-60.1158573298
 20
-24.4903924451
 30
0.0
 10
-60.1166795964
 20
-24.4930662944
 30
0.0
 10
-60.1160165247
 20
-24.4956258149
 30
0.0
 10
-60.1164206403
 20
-24.495628166
 30
0.0
  0
SPLINE
  5
722
100
AcDbEntity
  8
0
100
AcDbSpline
 62
250
  6
CONTINUOUS
 70
0
 71
3
 72
17
 73
13
 74
0
 42
0.0000001
 43
0.0000001
 44
0.0000000001
 40
0.0
 40
0.0
 40
0.0
 40
0.0
 40
0.3826596845
 40
0.5555364423
 40
0.7070635362
 40
0.8314210425
 40
0.8818705678
 40
0.9238292067
 40
0.9568924204
 40
0.9807411073
 40
0.9951506594
 40
1.0
 40
1.0
 40
1.0
 40
1.0
 10
-63.119329506
 20
-24.2369056521
 30
0.0
 10
-63.1195150235
 20
-24.2687944767
 30
0.0
 10
-63.1197340224
 20
-24.3150884877
 30
0.0
 10
-63.1199017846
 20
-24.3740164595
 30
0.0
 10
-63.119937855
 20
-24.4114043409
 30
0.0
 10
-63.1199322298
 20
-24.4386247065
 30
0.0
 10
-63.1198340144
 20
-24.4566493317
 30
0.0
 10
-63.1198372291
 20
-24.467191451
 30
0.0
 10
-63.1195781081
 20
-24.4752045101
 30
0.0
 10
-63.1198928176
 20
-24.4816656867
 30
0.0
 10
-63.1190705484
 20
-24.4843395417
 30
0.0
 10
-63.1197336243
 20
-24.4868990702
 30
0.0
 10
-63.119329506
 20
-24.4869014213
 30
0.0
  0
SPLINE
  5
723
100
AcDbEntity
  8
0
100
AcDbSpline
 62
250
  6
CONTINUOUS
 70
0
 71
3
 72
17
 73
13
 74
0
 42
0.0000001
 43
0.0000001
 44
0.0000000001
 40
0.0
 40
0.0
 40
0.0
 40
0.0
 40
0.3828830245
 40
0.555761417
 40
0.7072487352
 40
0.8315476585
 40
0.8819670709
 40
0.9238978196
 40
0.9569370043
 40
0.9807667027
 40
0.9951626631
 40
1.0
 40
1.0
 40
1.0
 40
1.0
 10
-63.119329506
 20
-23.8443375673
 30
0.0
 10
-63.1352369575
 20
-23.8167841205
 30
0.0
 10
-63.1582882564
 20
-23.7767695193
 30
0.0
 10
-63.1875436729
 20
-23.7257948974
 30
0.0
 10
-63.2060420629
 20
-23.6934376918
 30
0.0
 10
-63.2194874244
 20
-23.6698724935
 30
0.0
 10
-63.2283116576
 20
-23.6542264714
 30
0.0
 10
-63.2335307549
 20
-23.6451093544
 30
0.0
 10
-63.2372663028
 20
-23.6380496369
 30
0.0
 10
-63.2407551394
 20
-23.6326254364
 30
0.0
 10
-63.2413484825
 20
-23.629902665
 30
0.0
 10
-63.2432231799
 20
-23.6280321959
 30
0.0
 10
-63.2428750731
 20
-23.6278312164
 30
0.0
  0
SPLINE
  5
724
100
AcDbEntity
  8
0
100
AcDbSpline
 62
7
  6
CONTINUOUS
 70
0
 71
3
 72
9
 73
5
 74
0
 42
0.0000001
 43
0.0000001
 44
0.0000000001
 40
0.0
 40
0.0
 40
0.0
 40
0.0
 40
0.3612041578
 40
1.0
 40
1.0
 40
1.0
 40
1.0
 10
-62.119329506
 20
-23.2669872981
 30
0.0
 10
-62.149298457
 20
-23.2496842769
 30
0.0
 10
-62.2322575212
 20
-23.2017622404
 30
0.0
 10
-62.3150878548
 20
-23.153618179
 30
0.0
 10
-62.3678750731
 20
-23.1226497308
 30
0.0
  0
SPLINE
  5
725
100
AcDbEntity
  8
0
100
AcDbSpline
 62
250
  6
CONTINUOUS
 70
0
 71
3
 72
17
 73
13
 74
0
 42
0.0000001
 43
0.0000001
 44
0.0000000001
 40
0.0
 40
0.0
 40
0.0
 40
0.0
 40
0.3828830124
 40
0.5557613995
 40
0.7072487154
 40
0.8315476393
 40
0.8819670528
 40
0.9238978028
 40
0.9569369915
 40
0.9807666938
 40
0.9951626576
 40
1.0
 40
1.0
 40
1.0
 40
1.0
 10
-60.1164206403
 20
-23.8443375673
 30
0.0
 10
-60.1005131893
 20
-23.8167841214
 30
0.0
 10
-60.0774618911
 20
-23.7767695214
 30
0.0
 10
-60.0482064755
 20
-23.725794901
 30
0.0
 10
-60.0297080858
 20
-23.6934376959
 30
0.0
 10
-60.0162627242
 20
-23.6698724977
 30
0.0
 10
-60.0074384909
 20
-23.6542264753
 30
0.0
 10
-60.0022193933
 20
-23.6451093579
 30
0.0
 10
-59.9984838451
 20
-23.6380496396
 30
0.0
 10
-59.9949950079
 20
-23.6326254384
 30
0.0
 10
-59.9944016647
 20
-23.629902666
 30
0.0
 10
-59.992526966
 20
-23.6280321961
 30
0.0
 10
-59.9928750731
 20
-23.6278312164
 30
0.0
  0
SPLINE
  5
726
100
AcDbEntity
  8
0
100
AcDbSpline
 62
250
  6
CONTINUOUS
 70
0
 71
3
 72
17
 73
13
 74
0
 42
0.0000001
 43
0.0000001
 44
0.0000000001
 40
0.0
 40
0.0
 40
0.0
 40
0.0
 40
0.3828830245
 40
0.555761417
 40
0.7072487352
 40
0.8315476585
 40
0.8819670709
 40
0.9238978196
 40
0.9569370043
 40
0.9807667027
 40
0.9951626631
 40
1.0
 40
1.0
 40
1.0
 40
1.0
 10
-60.1164206403
 20
23.8443375673
 30
0.0
 10
-60.1005131888
 20
23.8167841205
 30
0.0
 10
-60.0774618899
 20
23.7767695193
 30
0.0
 10
-60.0482064734
 20
23.7257948974
 30
0.0
 10
-60.0297080834
 20
23.6934376918
 30
0.0
 10
-60.0162627219
 20
23.6698724935
 30
0.0
 10
-60.0074384887
 20
23.6542264714
 30
0.0
 10
-60.0022193914
 20
23.6451093544
 30
0.0
 10
-59.9984838435
 20
23.6380496369
 30
0.0
 10
-59.9949950069
 20
23.6326254364
 30
0.0
 10
-59.9944016638
 20
23.629902665
 30
0.0
 10
-59.9925269664
 20
23.6280321959
 30
0.0
 10
-59.9928750731
 20
23.6278312164
 30
0.0
  0
SPLINE
  5
727
100
AcDbEntity
  8
0
100
AcDbSpline
 62
7
  6
CONTINUOUS
 70
0
 71
3
 72
9
 73
5
 74
0
 42
0.0000001
 43
0.0000001
 44
0.0000000001
 40
0.0
 40
0.0
 40
0.0
 40
0.0
 40
0.0871712345
 40
1.0
 40
1.0
 40
1.0
 40
1.0
 10
-62.3678750731
 20
23.1226497308
 30
0.0
 10
-62.3606992446
 20
23.126922498
 30
0.0
 10
-62.278298691
 20
23.1757990028
 30
0.0
 10
-62.1950667328
 20
23.2232592798
 30
0.0
 10
-62.119329506
 20
23.2669872981
 30
0.0
  0
SPLINE
  5
728
100
AcDbEntity
  8
0
100
AcDbSpline
 62
250
  6
CONTINUOUS
 70
0
 71
3
 72
17
 73
13
 74
0
 42
0.0000001
 43
0.0000001
 44
0.0000000001
 40
0.0
 40
0.0
 40
0.0
 40
0.0
 40
0.3828830124
 40
0.5557613995
 40
0.7072487154
 40
0.8315476393
 40
0.8819670528
 40
0.9238978028
 40
0.9569369915
 40
0.9807666938
 40
0.9951626576
 40
1.0
 40
1.0
 40
1.0
 40
1.0
 10
-63.119329506
 20
23.8443375673
 30
0.0
 10
-63.135236957
 20
23.8167841214
 30
0.0
 10
-63.1582882552
 20
23.7767695214
 30
0.0
 10
-63.1875436708
 20
23.725794901
 30
0.0
 10
-63.2060420605
 20
23.6934376959
 30
0.0
 10
-63.219487422
 20
23.6698724977
 30
0.0
 10
-63.2283116554
 20
23.6542264753
 30
0.0
 10
-63.233530753
 20
23.6451093579
 30
0.0
 10
-63.2372663012
 20
23.6380496396
 30
0.0
 10
-63.2407551384
 20
23.6326254384
 30
0.0
 10
-63.2413484816
 20
23.629902666
 30
0.0
 10
-63.2432231803
 20
23.6280321961
 30
0.0
 10
-63.2428750731
 20
23.6278312164
 30
0.0
  0
SPLINE
  5
729
100
AcDbEntity
  8
0
100
AcDbSpline
 62
250
  6
CONTINUOUS
 70
0
 71
3
 72
17
 73
13
 74
0
 42
0.0000001
 43
0.0000001
 44
0.0000000001
 40
0.0
 40
0.0
 40
0.0
 40
0.0
 40
0.0048493081
 40
0.0192588394
 40
0.0431075013
 40
0.0761706886
 40
0.1181293175
 40
0.1685788345
 40
0.2929363336
 40
0.4444634398
 40
0.6173402307
 40
1.0
 40
1.0
 40
1.0
 40
1.0
 10
-60.1164206403
 20
24.495628166
 30
0.0
 10
-60.1160165247
 20
24.4956258149
 30
0.0
 10
-60.1166795964
 20
24.4930662944
 30
0.0
 10
-60.1158573298
 20
24.4903924451
 30
0.0
 10
-60.1161720381
 20
24.4839312745
 30
0.0
 10
-60.1159129175
 20
24.4759182206
 30
0.0
 10
-60.115916132
 20
24.465376105
 30
0.0
 10
-60.1158179166
 20
24.4473514819
 30
0.0
 10
-60.1158122913
 20
24.4201311165
 30
0.0
 10
-60.1158483616
 20
24.382743232
 30
0.0
 10
-60.1160161238
 20
24.3238152493
 30
0.0
 10
-60.1162351228
 20
24.2775212285
 30
0.0
 10
-60.1164206403
 20
24.2456323968
 30
0.0
  0
SPLINE
  5
72A
100
AcDbEntity
  8
0
100
AcDbSpline
 62
250
  6
CONTINUOUS
 70
0
 71
3
 72
17
 73
13
 74
0
 42
0.0000001
 43
0.0000001
 44
0.0000000001
 40
0.0
 40
0.0
 40
0.0
 40
0.0
 40
0.0048493406
 40
0.0192588927
 40
0.0431075796
 40
0.0761707933
 40
0.1181294322
 40
0.1685789575
 40
0.2929364638
 40
0.4444635577
 40
0.6173403155
 40
1.0
 40
1.0
 40
1.0
 40
1.0
 10
-63.119329506
 20
24.4869014213
 30
0.0
 10
-63.1197336243
 20
24.4868990702
 30
0.0
 10
-63.1190705484
 20
24.4843395417
 30
0.0
 10
-63.1198928176
 20
24.4816656867
 30
0.0
 10
-63.1195781081
 20
24.4752045101
 30
0.0
 10
-63.1198372291
 20
24.467191451
 30
0.0
 10
-63.1198340144
 20
24.4566493317
 30
0.0
 10
-63.1199322298
 20
24.4386247065
 30
0.0
 10
-63.119937855
 20
24.4114043409
 30
0.0
 10
-63.1199017846
 20
24.3740164595
 30
0.0
 10
-63.1197340224
 20
24.3150884877
 30
0.0
 10
-63.1195150235
 20
24.2687944767
 30
0.0
 10
-63.119329506
 20
24.2369056521
 30
0.0
  0
SPLINE
  5
72B
100
AcDbEntity
  8
SUPERFICI
100
AcDbSpline
 62
250
  6
CONTINUOUS
 70
0
 71
3
 72
9
 73
5
 74
0
 42
0.0000001
 43
0.0000001
 44
0.0000000001
 40
0.0
 40
0.0
 40
0.0
 40
0.0
 40
0.2487982775
 40
1.0
 40
1.0
 40
1.0
 40
1.0
 10
-35.3678750731
 20
-18.7637454533
 30
0.0
 10
-35.3678750731
 20
-18.7692913747
 30
0.0
 10
-35.3686158847
 20
-18.7915773704
 30
0.0
 10
-35.3723545892
 20
-18.8137531177
 30
0.0
 10
-35.376711551
 20
-18.8299212661
 30
0.0
  0
SPLINE
  5
72C
100
AcDbEntity
  8
SUPERFICI
100
AcDbSpline
 62
250
  6
CONTINUOUS
 70
0
 71
3
 72
13
 73
9
 74
0
 42
0.0000001
 43
0.0000001
 44
0.0000000001
 40
0.0
 40
0.0
 40
0.0
 40
0.0
 40
0.1043204156
 40
0.2139401824
 40
0.3302072908
 40
0.4535584213
 40
0.7186711148
 40
1.0
 40
1.0
 40
1.0
 40
1.0
 10
-35.376711551
 20
-18.8299212661
 30
0.0
 10
-35.3821247818
 20
-18.8500090986
 30
0.0
 10
-35.398205639
 20
-18.8899937882
 30
0.0
 10
-35.4355440804
 20
-18.944756982
 30
0.0
 10
-35.4853045485
 20
-18.9940436364
 30
0.0
 10
-35.568100304
 20
-19.0519884861
 30
0.0
 10
-35.6938091388
 20
-19.1023339882
 30
0.0
 10
-35.8030482517
 20
-19.1165525689
 30
0.0
 10
-35.8591488699
 20
-19.117244996
 30
0.0
  0
SPLINE
  5
72D
100
AcDbEntity
  8
SUPERFICI
100
AcDbSpline
 62
250
  6
CONTINUOUS
 70
0
 71
3
 72
23
 73
19
 74
0
 42
0.0000001
 43
0.0000001
 44
0.0000000001
 40
0.0
 40
0.0
 40
0.0
 40
0.0
 40
0.224972496
 40
0.4245470719
 40
0.5967742653
 40
0.6721138252
 40
0.7400162313
 40
0.8003231994
 40
0.8528856374
 40
0.8975814539
 40
0.9343003035
 40
0.9629550769
 40
0.9742373118
 40
0.9834786194
 40
0.9906742603
 40
0.9958226479
 40
0.9989245105
 40
1.0
 40
1.0
 40
1.0
 40
1.0
 10
-35.8591488699
 20
-19.117244996
 30
0.0
 10
-35.8590365967
 20
-19.1392073478
 30
0.0
 10
-35.8588385176
 20
-19.1806527185
 30
0.0
 10
-35.8586104014
 20
-19.2389115715
 30
0.0
 10
-35.8584879296
 20
-19.2825629806
 30
0.0
 10
-35.8584389524
 20
-19.3133602138
 30
0.0
 10
-35.8584264681
 20
-19.3332313708
 30
0.0
 10
-35.8584362449
 20
-19.3508790898
 30
0.0
 10
-35.8584685175
 20
-19.3662608228
 30
0.0
 10
-35.8585218115
 20
-19.3793410406
 30
0.0
 10
-35.8585985532
 20
-19.3900834527
 30
0.0
 10
-35.8586794565
 20
-19.3975727054
 30
0.0
 10
-35.8587680021
 20
-19.4023634048
 30
0.0
 10
-35.8588201337
 20
-19.4050888329
 30
0.0
 10
-35.8589136598
 20
-19.4071431351
 30
0.0
 10
-35.858922337
 20
-19.4087672507
 30
0.0
 10
-35.8590977124
 20
-19.4094671831
 30
0.0
 10
-35.8590438988
 20
-19.4100914516
 30
0.0
 10
-35.8591488699
 20
-19.4100936057
 30
0.0
  0
SPLINE
  5
72E
100
AcDbEntity
  8
SUPERFICI
100
AcDbSpline
 62
250
  6
CONTINUOUS
 70
0
 71
3
 72
9
 73
5
 74
0
 42
0.0000001
 43
0.0000001
 44
0.0000000001
 40
0.0
 40
0.0
 40
0.0
 40
0.0
 40
0.4952142911
 40
1.0
 40
1.0
 40
1.0
 40
1.0
 10
-35.3678750731
 20
-18.5766869058
 30
0.0
 10
-35.3678750731
 20
-18.5933565218
 30
0.0
 10
-35.3712778436
 20
-18.627100843
 30
0.0
 10
-35.3812326305
 20
-18.6594979547
 30
0.0
 10
-35.387683988
 20
-18.6752174132
 30
0.0
  0
SPLINE
  5
72F
100
AcDbEntity
  8
SUPERFICI
100
AcDbSpline
 62
250
  6
CONTINUOUS
 70
0
 71
3
 72
12
 73
8
 74
0
 42
0.0000001
 43
0.0000001
 44
0.0000000001
 40
0.0
 40
0.0
 40
0.0
 40
0.0
 40
0.1055330654
 40
0.2166476931
 40
0.4574177035
 40
0.7216738612
 40
1.0
 40
1.0
 40
1.0
 40
1.0
 10
-35.387683988
 20
-18.6752174132
 30
0.0
 10
-35.3952167688
 20
-18.6935718811
 30
0.0
 10
-35.4147595455
 20
-18.7296798794
 30
0.0
 10
-35.469532668
 20
-18.7965056934
 30
0.0
 10
-35.5651598832
 20
-18.8654374594
 30
0.0
 10
-35.7045489408
 20
-18.9169792356
 30
0.0
 10
-35.8068278667
 20
-18.9295406716
 30
0.0
 10
-35.8591488699
 20
-18.9301864485
 30
0.0
  0
SPLINE
  5
730
100
AcDbEntity
  8
SUPERFICI
100
AcDbSpline
 62
250
  6
CONTINUOUS
 70
0
 71
3
 72
9
 73
5
 74
0
 42
0.0000001
 43
0.0000001
 44
0.0000000001
 40
0.0
 40
0.0
 40
0.0
 40
0.0
 40
0.5411928501
 40
1.0
 40
1.0
 40
1.0
 40
1.0
 10
-35.8591488699
 20
-17.5161882777
 30
0.0
 10
-35.8586878778
 20
-17.7712698939
 30
0.0
 10
-35.8582229541
 20
-18.2426027936
 30
0.0
 10
-35.8585962148
 20
-18.7139362187
 30
0.0
 10
-35.8591488699
 20
-18.9301864485
 30
0.0
  0
SPLINE
  5
731
100
AcDbEntity
  8
SUPERFICI
100
AcDbSpline
 62
250
  6
CONTINUOUS
 70
0
 71
3
 72
9
 73
5
 74
0
 42
0.0000001
 43
0.0000001
 44
0.0000000001
 40
0.0
 40
0.0
 40
0.0
 40
0.0
 40
0.4952142925
 40
1.0
 40
1.0
 40
1.0
 40
1.0
 10
-35.3678750731
 20
18.5766869058
 30
0.0
 10
-35.3678750731
 20
18.5933565192
 30
0.0
 10
-35.3712778425
 20
18.627100835
 30
0.0
 10
-35.3812326263
 20
18.659497942
 30
0.0
 10
-35.3876839819
 20
18.6752173982
 30
0.0
  0
SPLINE
  5
732
100
AcDbEntity
  8
SUPERFICI
100
AcDbSpline
 62
250
  6
CONTINUOUS
 70
0
 71
3
 72
12
 73
8
 74
0
 42
0.0000001
 43
0.0000001
 44
0.0000000001
 40
0.0
 40
0.0
 40
0.0
 40
0.0
 40
0.1055330647
 40
0.2166476917
 40
0.4574177013
 40
0.7216738596
 40
1.0
 40
1.0
 40
1.0
 40
1.0
 10
-35.3876839819
 20
18.6752173982
 30
0.0
 10
-35.3952167618
 20
18.693571867
 30
0.0
 10
-35.4147595371
 20
18.7296798671
 30
0.0
 10
-35.4695326583
 20
18.7965056849
 30
0.0
 10
-35.5651598745
 20
18.8654374553
 30
0.0
 10
-35.7045489357
 20
18.9169792347
 30
0.0
 10
-35.806827865
 20
18.9295406715
 30
0.0
 10
-35.8591488699
 20
18.9301864485
 30
0.0
  0
SPLINE
  5
733
100
AcDbEntity
  8
SUPERFICI
100
AcDbSpline
 62
250
  6
CONTINUOUS
 70
0
 71
3
 72
9
 73
5
 74
0
 42
0.0000001
 43
0.0000001
 44
0.0000000001
 40
0.0
 40
0.0
 40
0.0
 40
0.0
 40
0.4588071499
 40
1.0
 40
1.0
 40
1.0
 40
1.0
 10
-35.8591488699
 20
18.9301864485
 30
0.0
 10
-35.8585962148
 20
18.7139362187
 30
0.0
 10
-35.8582229541
 20
18.2426027936
 30
0.0
 10
-35.8586878778
 20
17.7712698939
 30
0.0
 10
-35.8591488699
 20
17.5161882777
 30
0.0
  0
SPLINE
  5
734
100
AcDbEntity
  8
SUPERFICI
100
AcDbSpline
 62
250
  6
CONTINUOUS
 70
0
 71
3
 72
9
 73
5
 74
0
 42
0.0000001
 43
0.0000001
 44
0.0000000001
 40
0.0
 40
0.0
 40
0.0
 40
0.0
 40
0.2487982765
 40
1.0
 40
1.0
 40
1.0
 40
1.0
 10
-35.3678750731
 20
18.7637454533
 30
0.0
 10
-35.3678750731
 20
18.7692913768
 30
0.0
 10
-35.3686158853
 20
18.7915773809
 30
0.0
 10
-35.3723545926
 20
18.8137531365
 30
0.0
 10
-35.3767115576
 20
18.8299212906
 30
0.0
  0
SPLINE
  5
735
100
AcDbEntity
  8
SUPERFICI
100
AcDbSpline
 62
250
  6
CONTINUOUS
 70
0
 71
3
 72
13
 73
9
 74
0
 42
0.0000001
 43
0.0000001
 44
0.0000000001
 40
0.0
 40
0.0
 40
0.0
 40
0.0
 40
0.1043204161
 40
0.2139401838
 40
0.3302072931
 40
0.4535584242
 40
0.7186711171
 40
1.0
 40
1.0
 40
1.0
 40
1.0
 10
-35.3767115576
 20
18.8299212906
 30
0.0
 10
-35.3821247902
 20
18.8500091218
 30
0.0
 10
-35.3982056503
 20
18.8899938084
 30
0.0
 10
-35.4355440942
 20
18.9447569976
 30
0.0
 10
-35.4853045631
 20
18.9940436476
 30
0.0
 10
-35.5681003172
 20
19.0519884919
 30
0.0
 10
-35.693809147
 20
19.1023339892
 30
0.0
 10
-35.8030482546
 20
19.1165525688
 30
0.0
 10
-35.8591488699
 20
19.117244996
 30
0.0
  0
SPLINE
  5
736
100
AcDbEntity
  8
SUPERFICI
100
AcDbSpline
 62
250
  6
CONTINUOUS
 70
0
 71
3
 72
23
 73
19
 74
0
 42
0.0000001
 43
0.0000001
 44
0.0000000001
 40
0.0
 40
0.0
 40
0.0
 40
0.0
 40
0.0010754895
 40
0.0041773521
 40
0.0093257397
 40
0.0165213806
 40
0.0257626882
 40
0.0370449231
 40
0.0656996965
 40
0.1024185461
 40
0.1471143626
 40
0.1996768006
 40
0.2599837687
 40
0.3278861748
 40
0.4032257347
 40
0.5754529281
 40
0.775027504
 40
1.0
 40
1.0
 40
1.0
 40
1.0
 10
-35.8591488699
 20
19.4100936057
 30
0.0
 10
-35.8590438988
 20
19.4100914516
 30
0.0
 10
-35.8590977124
 20
19.4094671831
 30
0.0
 10
-35.858922337
 20
19.4087672507
 30
0.0
 10
-35.8589136598
 20
19.4071431351
 30
0.0
 10
-35.8588201337
 20
19.4050888329
 30
0.0
 10
-35.8587680021
 20
19.4023634048
 30
0.0
 10
-35.8586794565
 20
19.3975727054
 30
0.0
 10
-35.8585985532
 20
19.3900834527
 30
0.0
 10
-35.8585218115
 20
19.3793410406
 30
0.0
 10
-35.8584685175
 20
19.3662608228
 30
0.0
 10
-35.8584362449
 20
19.3508790898
 30
0.0
 10
-35.8584264681
 20
19.3332313708
 30
0.0
 10
-35.8584389524
 20
19.3133602138
 30
0.0
 10
-35.8584879296
 20
19.2825629806
 30
0.0
 10
-35.8586104014
 20
19.2389115715
 30
0.0
 10
-35.8588385176
 20
19.1806527185
 30
0.0
 10
-35.8590365967
 20
19.1392073478
 30
0.0
 10
-35.8591488699
 20
19.117244996
 30
0.0
  0
ELLIPSE
  5
737
100
AcDbEntity
  8
RACCORDO
100
AcDbEllipse
 62
7
  6
CONTINUOUS
 10
-2.9751006478
 20
22.1078557765
 30
0.0
 11
0.3
 21
0.0
 31
0.0
 40
0.0261859216
 41
-3.054326191
 42
-1.5707963268
  0
ELLIPSE
  5
738
100
AcDbEntity
  8
RACCORDO
100
AcDbEllipse
 62
7
  6
CONTINUOUS
 10
12.0248993522
 20
22.1078557765
 30
0.0
 11
0.3
 21
-0.0
 31
0.0
 40
0.0261859216
 41
-3.054326191
 42
-1.5707963268
  0
ELLIPSE
  5
739
100
AcDbEntity
  8
RACCORDO
100
AcDbEllipse
 62
7
  6
CONTINUOUS
 10
-2.9751006478
 20
-22.1078557765
 30
0.0
 11
0.3
 21
-0.0
 31
0.0
 40
0.0261859216
 41
1.5707963268
 42
3.054326191
  0
ELLIPSE
  5
73A
100
AcDbEntity
  8
RACCORDO
100
AcDbEllipse
 62
7
  6
CONTINUOUS
 10
12.0248993522
 20
-22.1078557765
 30
0.0
 11
0.3
 21
0.0
 31
0.0
 40
0.0261859216
 41
1.5707963268
 42
3.054326191
  0
ELLIPSE
  5
73B
100
AcDbEntity
  8
RACCORDO
100
AcDbEllipse
 62
7
  6
CONTINUOUS
 10
-12.0248993522
 20
22.1078557765
 30
0.0
 11
0.3
 21
-0.0
 31
0.0
 40
0.0261859216
 41
-1.5707963268
 42
-0.0872664626
  0
ELLIPSE
  5
73C
100
AcDbEntity
  8
RACCORDO
100
AcDbEllipse
 62
7
  6
CONTINUOUS
 10
2.9751006478
 20
22.1078557765
 30
0.0
 11
0.3
 21
0.0
 31
0.0
 40
0.0261859216
 41
-1.5707963268
 42
-0.0872664626
  0
ELLIPSE
  5
73D
100
AcDbEntity
  8
RACCORDO
100
AcDbEllipse
 62
7
  6
CONTINUOUS
 10
2.9751006478
 20
-22.1078557765
 30
0.0
 11
0.3
 21
0.0
 31
0.0
 40
0.0261859216
 41
0.0872664626
 42
1.5707963268
  0
ELLIPSE
  5
73E
100
AcDbEntity
  8
RACCORDO
100
AcDbEllipse
 62
7
  6
CONTINUOUS
 10
-12.0248993522
 20
-22.1078557765
 30
0.0
 11
0.3
 21
0.0
 31
0.0
 40
0.0261859216
 41
0.0872664626
 42
1.5707963268
  0
ELLIPSE
  5
73F
100
AcDbEntity
  8
0
100
AcDbEllipse
 62
7
  6
CONTINUOUS
 10
-21.6498286038
 20
-21.5998286038
 30
0.0
 11
-0.35379574
 21
-0.35379574
 31
0.0
 40
0.999315002
 41
-0.7850555471
 42
0.7850555471
  0
ELLIPSE
  5
740
100
AcDbEntity
  8
0
100
AcDbEllipse
 62
7
  6
CONTINUOUS
 10
-21.6498286038
 20
21.5998286038
 30
0.0
 11
-0.35379574
 21
0.35379574
 31
0.0
 40
0.999315002
 41
-0.7850555471
 42
0.7850555471
  0
ELLIPSE
  5
741
100
AcDbEntity
  8
0
100
AcDbEllipse
 62
7
  6
CONTINUOUS
 10
21.6498286038
 20
-21.5998286038
 30
0.0
 11
-0.35379574
 21
0.35379574
 31
0.0
 40
0.999315002
 41
-3.9266482006
 42
-2.3565371065
  0
ELLIPSE
  5
742
100
AcDbEntity
  8
0
100
AcDbEllipse
 62
7
  6
CONTINUOUS
 10
21.6498286038
 20
21.5998286038
 30
0.0
 11
0.35379574
 21
0.35379574
 31
0.0
 40
0.999315002
 41
-0.7850555471
 42
0.7850555471
  0
ELLIPSE
  5
743
100
AcDbEntity
  8
0
100
AcDbEllipse
 62
7
  6
CONTINUOUS
 10
10.05
 20
-22.3842776662
 30
0.0
 11
0.2
 21
-0.0
 31
0.0
 40
0.0524077793
 41
-0.0
 42
1.5707963268
  0
ELLIPSE
  5
744
100
AcDbEntity
  8
0
100
AcDbEllipse
 62
7
  6
CONTINUOUS
 10
-21.8728684853
 20
21.8207021581
 30
0.0
 11
-0.1582391023
 21
0.4751033573
 31
0.0
 40
0.9984778551
 41
-0.3210503496
 42
1.2488325878
  0
ELLIPSE
  5
745
100
AcDbEntity
  8
0
100
AcDbEllipse
 62
7
  6
CONTINUOUS
 10
12.45
 20
-22.3842776662
 30
0.0
 11
0.2
 21
0.0
 31
0.0
 40
0.0524077793
 41
1.5707963268
 42
3.1415926536
  0
ELLIPSE
  5
746
100
AcDbEntity
  8
0
100
AcDbEllipse
 62
7
  6
CONTINUOUS
 10
10.05
 20
22.3842776662
 30
0.0
 11
0.2
 21
0.0
 31
0.0
 40
0.0524077793
 41
-1.5707963268
 42
0.0
  0
ELLIPSE
  5
747
100
AcDbEntity
  8
0
100
AcDbEllipse
 62
7
  6
CONTINUOUS
 10
-12.45
 20
22.3842776662
 30
0.0
 11
0.2
 21
-0.0
 31
0.0
 40
0.0524077793
 41
-1.5707963268
 42
0.0
  0
ELLIPSE
  5
748
100
AcDbEntity
  8
0
100
AcDbEllipse
 62
7
  6
CONTINUOUS
 10
12.45
 20
22.3842776662
 30
0.0
 11
0.2
 21
0.0
 31
0.0
 40
0.0524077793
 41
-3.1415926536
 42
-1.5707963268
  0
ELLIPSE
  5
749
100
AcDbEntity
  8
0
100
AcDbEllipse
 62
7
  6
CONTINUOUS
 10
-10.05
 20
22.3842776662
 30
0.0
 11
0.2
 21
0.0
 31
0.0
 40
0.0524077793
 41
-3.1415926536
 42
-1.5707963268
  0
ELLIPSE
  5
74A
100
AcDbEntity
  8
0
100
AcDbEllipse
 62
7
  6
CONTINUOUS
 10
-12.45
 20
-22.3842776662
 30
0.0
 11
0.2
 21
-0.0
 31
0.0
 40
0.0524077793
 41
-0.0
 42
1.5707963268
  0
ELLIPSE
  5
74B
100
AcDbEntity
  8
0
100
AcDbEllipse
 62
7
  6
CONTINUOUS
 10
-10.05
 20
-22.3842776662
 30
0.0
 11
0.2
 21
0.0
 31
0.0
 40
0.0524077793
 41
1.5707963268
 42
3.1415926536
  0
ELLIPSE
  5
74C
100
AcDbEntity
  8
0
100
AcDbEllipse
 62
7
  6
CONTINUOUS
 10
21.8728684853
 20
21.8207021581
 30
0.0
 11
0.1582391023
 21
0.4751033573
 31
0.0
 40
0.9984778551
 41
-1.2488325878
 42
0.3210503496
  0
ELLIPSE
  5
74D
100
AcDbEntity
  8
0
100
AcDbEllipse
 62
7
  6
CONTINUOUS
 10
21.8728684853
 20
-21.8207021581
 30
0.0
 11
-0.1582391023
 21
0.4751033573
 31
0.0
 40
0.9984778551
 41
-3.4626430032
 42
-1.8927600658
  0
ELLIPSE
  5
74E
100
AcDbEntity
  8
0
100
AcDbEllipse
 62
7
  6
CONTINUOUS
 10
-21.8728684853
 20
-21.8207021581
 30
0.0
 11
-0.1582391023
 21
-0.4751033573
 31
0.0
 40
0.9984778551
 41
-1.2488325878
 42
0.3210503496
  0
ELLIPSE
  5
74F
100
AcDbEntity
  8
DRAFT
100
AcDbEllipse
 62
7
  6
CONTINUOUS
 10
-46.2141234962
 20
-4.5
 30
0.0
 11
0.6771899561
 21
-0.0
 31
0.0
 40
0.999997266
 41
1.5771846789
 42
4.7060006283
  0
ELLIPSE
  5
750
100
AcDbEntity
  8
DRAFT
100
AcDbEllipse
 62
7
  6
CONTINUOUS
 10
-46.2141234962
 20
0.0
 30
0.0
 11
0.6771899561
 21
0.0
 31
0.0
 40
0.999997266
 41
1.5771846789
 42
4.7060006283
  0
ELLIPSE
  5
751
100
AcDbEntity
  8
DRAFT
100
AcDbEllipse
 62
7
  6
CONTINUOUS
 10
-46.2141234962
 20
4.5
 30
0.0
 11
0.6771899561
 21
0.0
 31
0.0
 40
0.999997266
 41
1.5771846789
 42
4.7060006283
  0
ELLIPSE
  5
752
100
AcDbEntity
  8
RACCORDO
100
AcDbEllipse
 62
7
  6
CONTINUOUS
 10
-35.8678750731
 20
5.4532086162
 30
0.0
 11
0.4999984135
 21
0.0047009296
 31
0.0
 40
0.2679374115
 41
-0.0025191125
 42
1.5508239218
  0
ELLIPSE
  5
753
100
AcDbEntity
  8
RACCORDO
100
AcDbEllipse
 62
7
  6
CONTINUOUS
 10
-35.8678750731
 20
0.9532086162
 30
0.0
 11
0.4999984135
 21
0.0047009296
 31
0.0
 40
0.2679374115
 41
-0.0025191125
 42
1.5508239218
  0
ELLIPSE
  5
754
100
AcDbEntity
  8
RACCORDO
100
AcDbEllipse
 62
7
  6
CONTINUOUS
 10
-35.8678750731
 20
3.5467913838
 30
0.0
 11
0.4999984135
 21
-0.0047009296
 31
0.0
 40
0.2679374115
 41
-1.5508239218
 42
0.0025191125
  0
ELLIPSE
  5
755
100
AcDbEntity
  8
RACCORDO
100
AcDbEllipse
 62
7
  6
CONTINUOUS
 10
-35.8678750731
 20
-3.5467913838
 30
0.0
 11
0.4999984135
 21
0.0047009296
 31
0.0
 40
0.2679374115
 41
-0.0025191125
 42
1.5508239218
  0
ELLIPSE
  5
756
100
AcDbEntity
  8
RACCORDO
100
AcDbEllipse
 62
7
  6
CONTINUOUS
 10
-35.8678750731
 20
-0.9532086162
 30
0.0
 11
0.4999984135
 21
-0.0047009296
 31
0.0
 40
0.2679374115
 41
-1.5508239218
 42
0.0025191125
  0
ELLIPSE
  5
757
100
AcDbEntity
  8
RACCORDO
100
AcDbEllipse
 62
7
  6
CONTINUOUS
 10
-35.8678750731
 20
-5.4532086162
 30
0.0
 11
0.4999984135
 21
-0.0047009296
 31
0.0
 40
0.2679374115
 41
-1.5508239218
 42
0.0025191125
  0
ELLIPSE
  5
758
100
AcDbEntity
  8
DRAFT
100
AcDbEllipse
 62
7
  6
CONTINUOUS
 10
-46.2174289252
 20
4.5
 30
0.0
 11
1.0452998332
 21
0.0
 31
0.0
 40
0.9999890624
 41
1.5748459681
 42
4.7083393391
  0
ELLIPSE
  5
759
100
AcDbEntity
  8
DRAFT
100
AcDbEllipse
 62
7
  6
CONTINUOUS
 10
-46.2174289252
 20
0.0
 30
0.0
 11
1.0452998332
 21
-0.0
 31
0.0
 40
0.9999890624
 41
1.5748459681
 42
4.7083393391
  0
ELLIPSE
  5
75A
100
AcDbEntity
  8
DRAFT
100
AcDbEllipse
 62
7
  6
CONTINUOUS
 10
-46.2174289252
 20
-4.5
 30
0.0
 11
1.0452998332
 21
-0.0
 31
0.0
 40
0.9999890624
 41
1.5748459681
 42
4.7083393391
  0
ELLIPSE
  5
75B
100
AcDbEntity
  8
ASSI
100
AcDbEllipse
 62
7
  6
CONTINUOUS
 10
-46.2141234962
 20
-4.5
 30
0.0
 11
0.6771899561
 21
-0.0
 31
0.0
 40
0.999997266
 41
1.5771846789
 42
4.7060006283
  0
ELLIPSE
  5
75C
100
AcDbEntity
  8
ASSI
100
AcDbEllipse
 62
7
  6
CONTINUOUS
 10
-46.2141234962
 20
0.0
 30
0.0
 11
0.6771899561
 21
0.0
 31
0.0
 40
0.999997266
 41
1.5771846789
 42
4.7060006283
  0
ELLIPSE
  5
75D
100
AcDbEntity
  8
ASSI
100
AcDbEllipse
 62
7
  6
CONTINUOUS
 10
-46.2141234962
 20
4.5
 30
0.0
 11
0.6771899561
 21
0.0
 31
0.0
 40
0.999997266
 41
1.5771846789
 42
4.7060006283
  0
ELLIPSE
  5
75E
100
AcDbEntity
  8
ASSI
100
AcDbEllipse
 62
7
  6
CONTINUOUS
 10
-46.2174289252
 20
4.5
 30
0.0
 11
1.0452998332
 21
0.0
 31
0.0
 40
0.9999890624
 41
1.5748459681
 42
4.7083393391
  0
ELLIPSE
  5
75F
100
AcDbEntity
  8
ASSI
100
AcDbEllipse
 62
7
  6
CONTINUOUS
 10
-46.2174289252
 20
0.0
 30
0.0
 11
1.0452998332
 21
-0.0
 31
0.0
 40
0.9999890624
 41
1.5748459681
 42
4.7083393391
  0
ELLIPSE
  5
760
100
AcDbEntity
  8
ASSI
100
AcDbEllipse
 62
7
  6
CONTINUOUS
 10
-35.8678750731
 20
-5.4532086162
 30
0.0
 11
0.4999984135
 21
-0.0047009296
 31
0.0
 40
0.2679374115
 41
-1.5508239218
 42
0.0025191125
  0
ELLIPSE
  5
761
100
AcDbEntity
  8
ASSI
100
AcDbEllipse
 62
7
  6
CONTINUOUS
 10
-46.2174289252
 20
-4.5
 30
0.0
 11
1.0452998332
 21
-0.0
 31
0.0
 40
0.9999890624
 41
1.5748459681
 42
4.7083393391
  0
ELLIPSE
  5
762
100
AcDbEntity
  8
ASSI
100
AcDbEllipse
 62
7
  6
CONTINUOUS
 10
-35.8678750731
 20
-0.9532086162
 30
0.0
 11
0.4999984135
 21
-0.0047009296
 31
0.0
 40
0.2679374115
 41
-1.5508239218
 42
0.0025191125
  0
ELLIPSE
  5
763
100
AcDbEntity
  8
ASSI
100
AcDbEllipse
 62
7
  6
CONTINUOUS
 10
-35.8678750731
 20
-3.5467913838
 30
0.0
 11
0.4999984135
 21
0.0047009296
 31
0.0
 40
0.2679374115
 41
-0.0025191125
 42
1.5508239218
  0
ELLIPSE
  5
764
100
AcDbEntity
  8
ASSI
100
AcDbEllipse
 62
7
  6
CONTINUOUS
 10
-35.8678750731
 20
3.5467913838
 30
0.0
 11
0.4999984135
 21
-0.0047009296
 31
0.0
 40
0.2679374115
 41
-1.5508239218
 42
0.0025191125
  0
ELLIPSE
  5
765
100
AcDbEntity
  8
ASSI
100
AcDbEllipse
 62
7
  6
CONTINUOUS
 10
-35.8678750731
 20
0.9532086162
 30
0.0
 11
0.4999984135
 21
0.0047009296
 31
0.0
 40
0.2679374115
 41
-0.0025191125
 42
1.5508239218
  0
ELLIPSE
  5
766
100
AcDbEntity
  8
ASSI
100
AcDbEllipse
 62
7
  6
CONTINUOUS
 10
-35.8678750731
 20
5.4532086162
 30
0.0
 11
0.4999984135
 21
0.0047009296
 31
0.0
 40
0.2679374115
 41
-0.0025191125
 42
1.5508239218
  0
ELLIPSE
  5
767
100
AcDbEntity
  8
0
100
AcDbEllipse
 62
250
  6
CONTINUOUS
 10
-48.4678750731
 20
10.445448
 30
0.0
 11
1.5
 21
0.0
 31
0.0
 40
1.0
 41
0.0
 42
6.2831853072
  0
ELLIPSE
  5
768
100
AcDbEntity
  8
0
100
AcDbEllipse
 62
250
  6
CONTINUOUS
 10
-39.3116620731
 20
-15.0
 30
0.0
 11
-0.0
 21
0.337278
 31
0.0
 40
1.0
 41
-0.0
 42
4.0049051691
  0
ELLIPSE
  5
769
100
AcDbEntity
  8
0
100
AcDbEllipse
 62
250
  6
CONTINUOUS
 10
-38.4240880731
 20
-15.0
 30
0.0
 11
0.337278
 21
0.0
 31
0.0
 40
1.0
 41
4.7123889804
 42
8.7172941494
  0
ELLIPSE
  5
76A
100
AcDbEntity
  8
0
100
AcDbEllipse
 62
7
  6
CONTINUOUS
 10
-47.8678750731
 20
-22.1095369432
 30
0.0
 11
-0.0
 21
0.5
 31
0.0
 40
1.0
 41
-0.8811959791
 42
-0.0174532925
  0
ELLIPSE
  5
76B
100
AcDbEntity
  8
0
100
AcDbEllipse
 62
7
  6
CONTINUOUS
 10
-47.8678750731
 20
22.1095369432
 30
0.0
 11
0.5
 21
0.0
 31
0.0
 40
1.0
 41
-1.5533430343
 42
-0.6896003477
  0
ELLIPSE
  5
76C
100
AcDbEntity
  8
SUPERFICI
100
AcDbEllipse
 62
7
  6
CONTINUOUS
 10
-46.2141234962
 20
4.5
 30
0.0
 11
0.6771899561
 21
0.0
 31
0.0
 40
0.999997266
 41
1.5771846789
 42
4.7060006283
  0
ELLIPSE
  5
76D
100
AcDbEntity
  8
SUPERFICI
100
AcDbEllipse
 62
7
  6
CONTINUOUS
 10
-46.2141234962
 20
0.0
 30
0.0
 11
0.6771899561
 21
0.0
 31
0.0
 40
0.999997266
 41
1.5771846789
 42
4.7060006283
  0
ELLIPSE
  5
76E
100
AcDbEntity
  8
SUPERFICI
100
AcDbEllipse
 62
7
  6
CONTINUOUS
 10
-46.2141234962
 20
-4.5
 30
0.0
 11
0.6771899561
 21
-0.0
 31
0.0
 40
0.999997266
 41
1.5771846789
 42
4.7060006283
  0
ELLIPSE
  5
76F
100
AcDbEntity
  8
SUPERFICI
100
AcDbEllipse
 62
7
  6
CONTINUOUS
 10
-35.8678750731
 20
-5.4532086162
 30
0.0
 11
0.4999984135
 21
-0.0047009296
 31
0.0
 40
0.2679374115
 41
-1.5508239218
 42
0.0025191125
  0
ELLIPSE
  5
770
100
AcDbEntity
  8
SUPERFICI
100
AcDbEllipse
 62
7
  6
CONTINUOUS
 10
-35.8678750731
 20
-0.9532086162
 30
0.0
 11
0.4999984135
 21
-0.0047009296
 31
0.0
 40
0.2679374115
 41
-1.5508239218
 42
0.0025191125
  0
ELLIPSE
  5
771
100
AcDbEntity
  8
SUPERFICI
100
AcDbEllipse
 62
7
  6
CONTINUOUS
 10
-35.8678750731
 20
-3.5467913838
 30
0.0
 11
0.4999984135
 21
0.0047009296
 31
0.0
 40
0.2679374115
 41
-0.0025191125
 42
1.5508239218
  0
ELLIPSE
  5
772
100
AcDbEntity
  8
SUPERFICI
100
AcDbEllipse
 62
7
  6
CONTINUOUS
 10
-35.8678750731
 20
3.5467913838
 30
0.0
 11
0.4999984135
 21
-0.0047009296
 31
0.0
 40
0.2679374115
 41
-1.5508239218
 42
0.0025191125
  0
ELLIPSE
  5
773
100
AcDbEntity
  8
SUPERFICI
100
AcDbEllipse
 62
7
  6
CONTINUOUS
 10
-35.8678750731
 20
0.9532086162
 30
0.0
 11
0.4999984135
 21
0.0047009296
 31
0.0
 40
0.2679374115
 41
-0.0025191125
 42
1.5508239218
  0
ELLIPSE
  5
774
100
AcDbEntity
  8
SUPERFICI
100
AcDbEllipse
 62
7
  6
CONTINUOUS
 10
-35.8678750731
 20
5.4532086162
 30
0.0
 11
0.4999984135
 21
0.0047009296
 31
0.0
 40
0.2679374115
 41
-0.0025191125
 42
1.5508239218
  0
ELLIPSE
  5
775
100
AcDbEntity
  8
SUPERFICI
100
AcDbEllipse
 62
7
  6
CONTINUOUS
 10
-46.2174289252
 20
-4.5
 30
0.0
 11
1.0452998332
 21
-0.0
 31
0.0
 40
0.9999890624
 41
1.5748459681
 42
4.7083393391
  0
ELLIPSE
  5
776
100
AcDbEntity
  8
SUPERFICI
100
AcDbEllipse
 62
7
  6
CONTINUOUS
 10
-46.2174289252
 20
0.0
 30
0.0
 11
1.0452998332
 21
-0.0
 31
0.0
 40
0.9999890624
 41
1.5748459681
 42
4.7083393391
  0
ELLIPSE
  5
777
100
AcDbEntity
  8
SUPERFICI
100
AcDbEllipse
 62
7
  6
CONTINUOUS
 10
-46.2174289252
 20
4.5
 30
0.0
 11
1.0452998332
 21
0.0
 31
0.0
 40
0.9999890624
 41
1.5748459681
 42
4.7083393391
  0
ENDSEC
  0
SECTION
  2
OBJECTS
  0
DICTIONARY
  5
C
100
AcDbDictionary
280
0
281
1
  3
ACAD_GROUP
350
D
  3
ACAD_MLINESTYLE
350
17
  3
ACAD_LAYOUT
350
1A
  3
ACAD_PLOTSETTINGS
350
19
  3
ACAD_PLOTSTYLENAME
350
E
  0
DICTIONARY
  5
D
102
{ACAD_REACTORS
330
C
102
}
100
AcDbDictionary
280
0
281
1
  0
ACDBDICTIONARYWDFLT
  5
E
102
{ACAD_REACTORS
330
C
102
}
100
AcDbDictionary
281
1
  3
Normal
350
F
100
AcDbDictionaryWithDefault
340
F
  0
DICTIONARY
  5
17
102
{ACAD_REACTORS
330
C
102
}
100
AcDbDictionary
280
0
281
1
  3
Standard
350
18
  0
DICTIONARY
  5
19
102
{ACAD_REACTORS
330
C
102
}
100
AcDbDictionary
281
1
  0
DICTIONARY
  5
1A
102
{ACAD_REACTORS
330
C
102
}
100
AcDbDictionary
281
1
  3
Model
350
778
  3
Layout1
350
779
  0
ACDBPLACEHOLDER
  5
F
102
{ACAD_REACTORS
330
E
102
}
  0
MLINESTYLE
  5
18
102
{ACAD_REACTORS
330
17
102
}
100
AcDbMlineStyle
  2
STANDARD
 70
0
  3

 62
256
 51
90.0
 52
90.0
 71
2
 49
0.5
 62
256
  6
BYLAYER
 49
-0.5
 62
256
  6
BYLAYER
  0
LAYOUT
  5
778
102
{ACAD_REACTORS
330
1A
102
}
100
AcDbPlotSettings
  1

  2
none_device
  4
ANSI_C_(22.00_x_17.00_Inches)
  6

 40
0.0
 41
0.0
 42
0.0
 43
0.0
 44
558.8
 45
431.8
 46
0.0
 47
0.0
 48
0.0
 49
0.0
140
0.0
141
0.0
142
1.0
143
1.0
 70
1024
 72
1
 73
0
 74
0
  7

 75
0
147
1.0
148
0.0
149
0.0
100
AcDbLayout
  1
Model
 70
0
 71
0
 10
0.0
 20
0.0
 11
558.8
 21
431.8
 12
0.0
 22
0.0
 32
0.0
 14
0.0
 24
0.0
 34
0.0
 15
0.0
 25
0.0
 35
0.0
146
0.0
 13
0.0
 23
0.0
 33
0.0
 16
1.0
 26
0.0
 36
0.0
 17
0.0
 27
1.0
 37
0.0
 76
0
330
21C
345
0
346
0
  0
LAYOUT
  5
779
102
{ACAD_REACTORS
330
1A
102
}
100
AcDbPlotSettings
  1

  2
none_device
  4
ANSI_C_(22.00_x_17.00_Inches)
  6

 40
0.0
 41
0.0
 42
0.0
 43
0.0
 44
558.8
 45
431.8
 46
0.0
 47
0.0
 48
0.0
 49
0.0
140
0.0
141
0.0
142
1.0
143
1.0
 70
0
 72
1
 73
0
 74
0
  7

 75
0
147
1.0
148
0.0
149
0.0
100
AcDbLayout
  1
Layout1
 70
0
 71
1
 10
0.0
 20
0.0
 11
558.8
 21
431.8
 12
0.0
 22
0.0
 32
0.0
 14
0.0
 24
0.0
 34
0.0
 15
0.0
 25
0.0
 35
0.0
146
0.0
 13
0.0
 23
0.0
 33
0.0
 16
1.0
 26
0.0
 36
0.0
 17
0.0
 27
1.0
 37
0.0
 76
0
330
21D
345
0
346
0
  0
ENDSEC
  0
EOF
