  0
SECTION
  2
HEADER
  9
$ACADVER
  1
AC1024
  9
$DWGCODEPAGE
  3
ANSI_1252
  9
$EXTMAX
 10
558.8
 20
431.8
 30
0.0
  9
$EXTMIN
 10
0.0
 20
0.0
 30
0.0
  9
$LIMMIN
 10
0.0
 20
0.0
  9
$LIMMAX
 10
558.8
 20
431.8
  9
$VIEWCTR
 10
279.4
 20
215.9
  9
$VIEWSIZE
 40
431.8
  9
$CLAYER
  8
0
  9
$LTSCALE
 40
30.734
  9
$CELTYPE
  6
BYLAYER
  9
$DIMSCALE
 40
1.0
  9
$DIMASZ
 40
3.0
  9
$DIMEXO
 40
0.5
  9
$DIMDLI
 40
21.2344
  9
$DIMEXE
 40
1.5
  9
$DIMCEN
 40
5.0292
  9
$DIMLFAC
 40
1.0
  9
$DIMBLK
  1
_FILLED
  9
$DIMALT
 70
0
  9
$DIMALTF
 40
0.0393700787
  9
$DIMTXT
 40
3.0
  9
$DIMTOL
 70
1
  9
$DIMLIM
 70
0
  9
$DIMTFAC
 40
1.0
  9
$DIMTP
 40
0.01
  9
$DIMTM
 40
0.01
  9
$DIMGAP
 40
0.625
  9
$DIMDSEP
 70
44
  9
$AUNITS
 70
0
  9
$PDMODE
 70
3
  9
$PDSIZE
 40
3.0
  9
$HANDSEED
  5
699
  9
$TILEMODE
 70
1
  9
$MEASUREMENT
 70
1
  9
$INSUNITS
 70
4
  0
ENDSEC
  0
SECTION
  2
CLASSES
  0
CLASS
  1
ACDBDICTIONARYWDFLT
  2
AcDbDictionaryWithDefault
  3
AutoCAD 2000
 90
0
 91
1
280
0
281
0
  0
CLASS
  1
ACDBPLACEHOLDER
  2
AcDbPlaceHolder
  3
AutoCAD 2000
 90
0
 91
1
280
0
281
0
  0
CLASS
  1
LAYOUT
  2
AcDbLayout
  3
AutoCAD 2000
 90
0
 91
0
280
0
281
0
  0
ENDSEC
  0
SECTION
  2
TABLES
  0
TABLE
  2
VPORT
  5
8
100
AcDbSymbolTable
 70
2
  0
VPORT
  5
1F4
100
AcDbSymbolTableRecord
100
AcDbViewportTableRecord
  2
*ACTIVE
 70
0
 10
0.0
 20
0.0
 11
1.0
 21
1.0
 12
279.4
 22
215.9
 13
0.0
 23
0.0
 14
1.0
 24
1.0
 15
0.0
 25
0.0
 16
0.0
 26
0.0
 36
1.0
 17
0.0
 27
0.0
 37
0.0
 40
431.8
 41
1.2941176471
 42
50.0
 43
0.0
 44
0.0
 50
0.0
 51
0.0
 71
0
 72
100
 73
1
 74
1
 75
0
 76
0
 77
0
 78
0
  0
ENDTAB
  0
TABLE
  2
LTYPE
  5
5
100
AcDbSymbolTable
 70
6
  0
LTYPE
  5
14
100
AcDbSymbolTableRecord
100
AcDbLinetypeTableRecord
  2
BYBLOCK
 70
0
  3

 72
65
 73
0
 40
0.0
  0
LTYPE
  5
15
100
AcDbSymbolTableRecord
100
AcDbLinetypeTableRecord
  2
BYLAYER
 70
0
  3

 72
65
 73
0
 40
0.0
  0
LTYPE
  5
16
100
AcDbSymbolTableRecord
100
AcDbLinetypeTableRecord
  2
CONTINUOUS
 70
64
  3
Solid line
 72
65
 73
0
 40
0.0
  0
LTYPE
  5
1F5
100
AcDbSymbolTableRecord
100
AcDbLinetypeTableRecord
  2
CENTER
 70
64
  3
____ _ ____ _ ____ _ ____ _ ____ _ ____ _ ____
 72
65
 73
4
 40
0.6
 49
0.375
 74
0
 49
-0.075
 74
0
 49
0.075
 74
0
 49
-0.075
 74
0
  0
LTYPE
  5
1F6
100
AcDbSymbolTableRecord
100
AcDbLinetypeTableRecord
  2
HIDDEN
 70
64
  3
- - - - - - - - - - - - - - - - - - - -
 72
65
 73
2
 40
0.2
 49
0.1
 74
0
 49
-0.1
 74
0
  0
LTYPE
  5
1F7
100
AcDbSymbolTableRecord
100
AcDbLinetypeTableRecord
  2
PHANTOM
 70
64
  3
_____ _ _ _____ _ _ _____ _ _ _____
 72
65
 73
6
 40
0.8
 49
0.45
 74
0
 49
-0.05
 74
0
 49
0.1
 74
0
 49
-0.05
 74
0
 49
0.1
 74
0
 49
-0.05
 74
0
  0
LTYPE
  5
1F8
100
AcDbSymbolTableRecord
100
AcDbLinetypeTableRecord
  2
DOT
 70
64
  3
. . . . . . . . . . . . . . . . . . . .
 72
65
 73
2
 40
0.2
 49
0.1
 74
0
 49
-0.1
 74
0
  0
LTYPE
  5
1F9
100
AcDbSymbolTableRecord
100
AcDbLinetypeTableRecord
  2
DASHED
 70
64
  3
- - - - - - - - - - - - - - - - - - - -
 72
65
 73
2
 40
0.2
 49
0.1
 74
0
 49
-0.1
 74
0
  0
ENDTAB
  0
TABLE
  2
LAYER
  5
2
100
AcDbSymbolTable
 70
36
  0
LAYER
  5
10
100
AcDbSymbolTableRecord
100
AcDbLayerTableRecord
  2
0
 70
0
 62
7
  6
CONTINUOUS
370
-3
390
F
  0
LAYER
  5
1FA
100
AcDbSymbolTableRecord
100
AcDbLayerTableRecord
  2
DEFAULT_1
 70
0
 62
7
  6
CENTER
370
-3
390
F
  0
LAYER
  5
1FB
100
AcDbSymbolTableRecord
100
AcDbLayerTableRecord
  2
DEFAULT_2
 70
0
 62
7
  6
HIDDEN
370
-3
390
F
  0
LAYER
  5
1FC
100
AcDbSymbolTableRecord
100
AcDbLayerTableRecord
  2
DEFAULT_3
 70
0
 62
7
  6
PHANTOM
370
-3
390
F
  0
LAYER
  5
1FD
100
AcDbSymbolTableRecord
100
AcDbLayerTableRecord
  2
ASSI
 70
0
 62
7
  6
CONTINUOUS
370
-3
390
F
  0
LAYER
  5
1FE
100
AcDbSymbolTableRecord
100
AcDbLayerTableRecord
  2
COLOR5
 70
0
 62
7
  6
CONTINUOUS
370
-3
390
F
  0
LAYER
  5
1FF
100
AcDbSymbolTableRecord
100
AcDbLayerTableRecord
  2
COORDINATE
 70
0
 62
7
  6
CONTINUOUS
370
-3
390
F
  0
LAYER
  5
200
100
AcDbSymbolTableRecord
100
AcDbLayerTableRecord
  2
COORD_ORIGINE
 70
0
 62
7
  6
CONTINUOUS
370
-3
390
F
  0
LAYER
  5
201
100
AcDbSymbolTableRecord
100
AcDbLayerTableRecord
  2
COPY-PUBBLISH
 70
0
 62
7
  6
CONTINUOUS
370
-3
390
F
  0
LAYER
  5
202
100
AcDbSymbolTableRecord
100
AcDbLayerTableRecord
  2
COSMETICHE
 70
0
 62
7
  6
CONTINUOUS
370
-3
390
F
  0
LAYER
  5
203
100
AcDbSymbolTableRecord
100
AcDbLayerTableRecord
  2
CURVA_CENTRALE
 70
0
 62
7
  6
CONTINUOUS
370
-3
390
F
  0
LAYER
  5
204
100
AcDbSymbolTableRecord
100
AcDbLayerTableRecord
  2
CURVE
 70
0
 62
7
  6
CONTINUOUS
370
-3
390
F
  0
LAYER
  5
205
100
AcDbSymbolTableRecord
100
AcDbLayerTableRecord
  2
DRAFT
 70
0
 62
7
  6
CONTINUOUS
370
-3
390
F
  0
LAYER
  5
206
100
AcDbSymbolTableRecord
100
AcDbLayerTableRecord
  2
IGES_INCISIONI
 70
0
 62
7
  6
CONTINUOUS
370
-3
390
F
  0
LAYER
  5
207
100
AcDbSymbolTableRecord
100
AcDbLayerTableRecord
  2
IGS_SIMBOLO
 70
0
 62
7
  6
CONTINUOUS
370
-3
390
F
  0
LAYER
  5
208
100
AcDbSymbolTableRecord
100
AcDbLayerTableRecord
  2
IMPIANTO
 70
0
 62
7
  6
CONTINUOUS
370
-3
390
F
  0
LAYER
  5
209
100
AcDbSymbolTableRecord
100
AcDbLayerTableRecord
  2
IMPORT
 70
0
 62
7
  6
CONTINUOUS
370
-3
390
F
  0
LAYER
  5
20A
100
AcDbSymbolTableRecord
100
AcDbLayerTableRecord
  2
INCISIONI_LASER
 70
0
 62
7
  6
CONTINUOUS
370
-3
390
F
  0
LAYER
  5
20B
100
AcDbSymbolTableRecord
100
AcDbLayerTableRecord
  2
INTFCLR_3
 70
0
 62
7
  6
CONTINUOUS
370
-3
390
F
  0
LAYER
  5
20C
100
AcDbSymbolTableRecord
100
AcDbLayerTableRecord
  2
INTF_1
 70
0
 62
7
  6
CONTINUOUS
370
-3
390
F
  0
LAYER
  5
20D
100
AcDbSymbolTableRecord
100
AcDbLayerTableRecord
  2
INTF_12
 70
0
 62
7
  6
CONTINUOUS
370
-3
390
F
  0
LAYER
  5
20E
100
AcDbSymbolTableRecord
100
AcDbLayerTableRecord
  2
INTF_2
 70
0
 62
7
  6
CONTINUOUS
370
-3
390
F
  0
LAYER
  5
20F
100
AcDbSymbolTableRecord
100
AcDbLayerTableRecord
  2
INTF_RED
 70
0
 62
7
  6
CONTINUOUS
370
-3
390
F
  0
LAYER
  5
210
100
AcDbSymbolTableRecord
100
AcDbLayerTableRecord
  2
INTF_YELLOW
 70
0
 62
7
  6
CONTINUOUS
370
-3
390
F
  0
LAYER
  5
211
100
AcDbSymbolTableRecord
100
AcDbLayerTableRecord
  2
NOTE
 70
0
 62
7
  6
CONTINUOUS
370
-3
390
F
  0
LAYER
  5
212
100
AcDbSymbolTableRecord
100
AcDbLayerTableRecord
  2
PIANI
 70
0
 62
7
  6
CONTINUOUS
370
-3
390
F
  0
LAYER
  5
213
100
AcDbSymbolTableRecord
100
AcDbLayerTableRecord
  2
PIANI_CONTATTI
 70
0
 62
7
  6
CONTINUOUS
370
-3
390
F
  0
LAYER
  5
214
100
AcDbSymbolTableRecord
100
AcDbLayerTableRecord
  2
PIANI_ORIGINE
 70
0
 62
7
  6
CONTINUOUS
370
-3
390
F
  0
LAYER
  5
215
100
AcDbSymbolTableRecord
100
AcDbLayerTableRecord
  2
PIANI_RIFERIMENTO
 70
0
 62
7
  6
CONTINUOUS
370
-3
390
F
  0
LAYER
  5
216
100
AcDbSymbolTableRecord
100
AcDbLayerTableRecord
  2
PUNTI
 70
0
 62
7
  6
CONTINUOUS
370
-3
390
F
  0
LAYER
  5
217
100
AcDbSymbolTableRecord
100
AcDbLayerTableRecord
  2
RACCORDO
 70
0
 62
7
  6
CONTINUOUS
370
-3
390
F
  0
LAYER
  5
218
100
AcDbSymbolTableRecord
100
AcDbLayerTableRecord
  2
RGB__255__255__255__
 70
0
 62
7
  6
CONTINUOUS
370
-3
390
F
  0
LAYER
  5
219
100
AcDbSymbolTableRecord
100
AcDbLayerTableRecord
  2
SMUSSO
 70
0
 62
7
  6
CONTINUOUS
370
-3
390
F
  0
LAYER
  5
21A
100
AcDbSymbolTableRecord
100
AcDbLayerTableRecord
  2
SNAPLINE
 70
0
 62
7
  6
CONTINUOUS
370
-3
390
F
  0
LAYER
  5
21B
100
AcDbSymbolTableRecord
100
AcDbLayerTableRecord
  2
SUPERFICI
 70
0
 62
7
  6
CONTINUOUS
370
-3
390
F
  0
LAYER
  5
21C
100
AcDbSymbolTableRecord
100
AcDbLayerTableRecord
  2
TRACCIABILITA
 70
0
 62
7
  6
CONTINUOUS
370
-3
390
F
  0
LAYER
  5
21D
100
AcDbSymbolTableRecord
100
AcDbLayerTableRecord
  2
TRASH
 70
0
 62
7
  6
CONTINUOUS
370
-3
390
F
  0
LAYER
  5
21E
100
AcDbSymbolTableRecord
100
AcDbLayerTableRecord
  2
WHITE
 70
0
 62
7
  6
CONTINUOUS
370
-3
390
F
  0
LAYER
  5
21F
100
AcDbSymbolTableRecord
100
AcDbLayerTableRecord
  2
XSEC_DATUMS
 70
0
 62
7
  6
CONTINUOUS
370
-3
390
F
  0
ENDTAB
  0
TABLE
  2
STYLE
  5
3
100
AcDbSymbolTable
 70
1
  0
STYLE
  5
11
100
AcDbSymbolTableRecord
100
AcDbTextStyleTableRecord
  2
STANDARD
 70
0
 40
0.0
 41
0.8
 50
0.0
 71
0
 42
0.2
  3
txt
  4

  0
STYLE
  5
220
100
AcDbSymbolTableRecord
100
AcDbTextStyleTableRecord
  2
TEXTSTYLE_1
 70
0
 40
0.0
 41
0.8
 50
0.0
 71
0
 42
0.2
  3
gdt
  4

  0
ENDTAB
  0
TABLE
  2
VIEW
  5
6
100
AcDbSymbolTable
 70
0
  0
ENDTAB
  0
TABLE
  2
UCS
  5
7
100
AcDbSymbolTable
 70
0
  0
ENDTAB
  0
TABLE
  2
APPID
  5
9
100
AcDbSymbolTable
 70
1
  0
APPID
  5
221
100
AcDbSymbolTableRecord
100
AcDbRegAppTableRecord
  2
ACAD
 70
0
  0
ENDTAB
  0
TABLE
  2
BLOCK_RECORD
  5
1
100
AcDbSymbolTable
 70
0
  0
BLOCK_RECORD
  5
222
100
AcDbSymbolTableRecord
100
AcDbBlockTableRecord
  2
*Model_Space
  0
BLOCK_RECORD
  5
223
100
AcDbSymbolTableRecord
100
AcDbBlockTableRecord
  2
*Paper_Space
  0
BLOCK_RECORD
  5
224
100
AcDbSymbolTableRecord
100
AcDbBlockTableRecord
  2
_FILLED
  0
BLOCK_RECORD
  5
225
100
AcDbSymbolTableRecord
100
AcDbBlockTableRecord
  2
*D0
  0
BLOCK_RECORD
  5
226
100
AcDbSymbolTableRecord
100
AcDbBlockTableRecord
  2
*D1
  0
BLOCK_RECORD
  5
227
100
AcDbSymbolTableRecord
100
AcDbBlockTableRecord
  2
*D2
  0
BLOCK_RECORD
  5
228
100
AcDbSymbolTableRecord
100
AcDbBlockTableRecord
  2
*D3
  0
ENDTAB
  0
TABLE
  2
DIMSTYLE
  5
A
100
AcDbSymbolTable
 70
1
100
AcDbDimStyleTable
 71
0
  0
DIMSTYLE
105
229
100
AcDbSymbolTableRecord
100
AcDbDimStyleTableRecord
  2
STANDARD
 70
0
  3

  4

 40
1.0
 41
3.0
 42
0.5
 43
0.38
 44
1.5
 45
0.0
 46
0.0
 47
0.01
 48
0.01
140
3.0
141
0.0
142
0.0
143
25.4
144
1.0
145
0.0
146
1.0
147
0.625
 71
1
 72
0
 73
0
 74
0
 75
0
 76
0
 77
1
 78
8
 79
2
170
0
171
1
172
0
173
0
174
0
175
0
176
0
177
0
178
0
270
2
179
2
271
2
272
2
273
2
274
2
275
0
280
0
281
0
282
0
283
1
284
8
285
0
286
0
287
3
288
0
340
11
278
44
341
224
342
224
343
224
344
224
  0
DIMSTYLE
105
22A
100
AcDbSymbolTableRecord
100
AcDbDimStyleTableRecord
  2
DIMSTYLE_1
 70
0
  3

  4

 40
1.0
 41
3.0
 42
0.5
 43
0.38
 44
1.5
 45
0.0
 46
0.0
 47
0.0
 48
0.0
140
3.0
141
0.0
142
0.0
143
25.4
144
1.0
145
0.0
146
1.0
147
0.75
 71
0
 72
0
 73
0
 74
0
 75
0
 76
0
 77
1
 78
8
 79
2
170
0
171
1
172
0
173
0
174
0
175
0
176
0
177
0
178
0
270
2
179
2
271
2
272
2
273
2
274
2
275
0
280
0
281
0
282
0
283
1
284
8
285
0
286
0
287
3
288
0
340
11
278
44
341
224
342
224
343
224
344
224
  0
ENDTAB
  0
ENDSEC
  0
SECTION
  2
BLOCKS
  0
BLOCK
  5
20
100
AcDbEntity
  8
0
100
AcDbBlockBegin
  2
*Model_Space
 70
0
 10
0.0
 20
0.0
 30
0.0
  3
*Model_Space
  1

  0
ENDBLK
  5
21
100
AcDbEntity
  8
0
100
AcDbBlockEnd
  0
BLOCK
  5
1C
100
AcDbEntity
  8
0
100
AcDbBlockBegin
  2
*Paper_Space
 70
0
 10
0.0
 20
0.0
 30
0.0
  3
*Paper_Space
  1

  0
ENDBLK
  5
1D
100
AcDbEntity
  8
0
100
AcDbBlockEnd
  0
BLOCK
  5
22B
100
AcDbEntity
  8
0
100
AcDbBlockBegin
  2
_FILLED
 70
64
 10
0.0
 20
0.0
 30
0.0
  3
_FILLED
  1

  0
SOLID
  5
22C
100
AcDbEntity
  8
0
  6
BYBLOCK
 62
0
100
AcDbTrace
 10
0.0
 20
0.0
 30
0.0
 11
-1.0
 21
0.3166666667
 31
0.0
 12
-1.0
 22
-0.3166666667
 32
0.0
 13
-1.0
 23
-0.3166666667
 33
0.0
  0
ENDBLK
  5
22D
100
AcDbEntity
  8
0
  6
BYBLOCK
 62
0
100
AcDbBlockEnd
  0
BLOCK
  5
22E
100
AcDbEntity
  8
0
100
AcDbBlockBegin
 62
7
  6
CONTINUOUS
  2
*D0
 70
65
 10
0.0
 20
0.0
 30
0.0
  3
*D0
  1

  0
MTEXT
  5
22F
100
AcDbEntity
  8
0
100
AcDbMText
 62
7
  6
CONTINUOUS
  7
STANDARD
 71
2
 72
1
 10
-34.787456716
 20
36.25
 30
0.0
 11
1.0
 21
0.0
 31
0.0
 73
2
 44
0.9
  1
{\ftxt;\W0.0001;\H0.0001;\~}{\ftxt;\W2.8571428571;\H3.0; }{\ftxt;\W0.0001;\H0.0001;\~}
 40
3.0
 41
12.8571428571
  0
LINE
  5
230
100
AcDbEntity
  8
0
100
AcDbLine
 62
7
  6
CONTINUOUS
 10
-49.537456716
 20
24.7456323968
 30
0.0
 11
-49.537456716
 21
34.0
 31
0.0
  0
LINE
  5
231
100
AcDbEntity
  8
0
100
AcDbLine
 62
7
  6
CONTINUOUS
 10
-20.037456716
 20
15.2501233207
 30
0.0
 11
-20.037456716
 21
34.0
 31
0.0
  0
LINE
  5
232
100
AcDbEntity
  8
0
100
AcDbLine
 62
7
  6
CONTINUOUS
 10
-49.537456716
 20
32.5
 30
0.0
 11
-34.787456716
 21
32.5
 31
0.0
  0
LINE
  5
233
100
AcDbEntity
  8
0
100
AcDbLine
 62
7
  6
CONTINUOUS
 10
-20.037456716
 20
32.5
 30
0.0
 11
-34.787456716
 21
32.5
 31
0.0
  0
INSERT
  5
234
100
AcDbEntity
  8
0
100
AcDbBlockReference
 62
7
  6
CONTINUOUS
  2
_FILLED
 10
-49.537456716
 20
32.5
 30
0.0
 41
3.0
 42
3.0
 43
3.0
 50
180.0
  0
INSERT
  5
235
100
AcDbEntity
  8
0
100
AcDbBlockReference
 62
7
  6
CONTINUOUS
  2
_FILLED
 10
-20.037456716
 20
32.5
 30
0.0
 41
3.0
 42
3.0
 43
3.0
  0
ENDBLK
  5
236
100
AcDbEntity
  8
0
  6
BYBLOCK
 62
0
100
AcDbBlockEnd
  0
BLOCK
  5
237
100
AcDbEntity
  8
0
100
AcDbBlockBegin
 62
7
  6
CONTINUOUS
  2
*D1
 70
65
 10
0.0
 20
0.0
 30
0.0
  3
*D1
  1

  0
MTEXT
  5
238
100
AcDbEntity
  8
0
100
AcDbMText
 62
7
  6
CONTINUOUS
  7
STANDARD
 71
2
 72
1
 10
-39.537456716
 20
46.3256972194
 30
0.0
 11
1.0
 21
0.0
 31
0.0
 73
2
 44
0.9
  1
{\ftxt;\W0.0001;\H0.0001;\~}{\ftxt;\W1.5;\H3.0; }{\ftxt;\W0.0001;\H0.0001;\~}
 40
3.0
 41
6.75
  0
LINE
  5
239
100
AcDbEntity
  8
0
100
AcDbLine
 62
7
  6
CONTINUOUS
 10
-20.037456716
 20
15.2501233207
 30
0.0
 11
-20.037456716
 21
44.0756972194
 31
0.0
  0
LINE
  5
23A
100
AcDbEntity
  8
0
100
AcDbLine
 62
7
  6
CONTINUOUS
 10
-59.037456716
 20
0.5
 30
0.0
 11
-59.037456716
 21
44.0756972194
 31
0.0
  0
LINE
  5
23B
100
AcDbEntity
  8
0
100
AcDbLine
 62
7
  6
CONTINUOUS
 10
-20.037456716
 20
42.5756972194
 30
0.0
 11
-39.537456716
 21
42.5756972194
 31
0.0
  0
LINE
  5
23C
100
AcDbEntity
  8
0
100
AcDbLine
 62
7
  6
CONTINUOUS
 10
-59.037456716
 20
42.5756972194
 30
0.0
 11
-39.537456716
 21
42.5756972194
 31
0.0
  0
INSERT
  5
23D
100
AcDbEntity
  8
0
100
AcDbBlockReference
 62
7
  6
CONTINUOUS
  2
_FILLED
 10
-20.037456716
 20
42.5756972194
 30
0.0
 41
3.0
 42
3.0
 43
3.0
  0
INSERT
  5
23E
100
AcDbEntity
  8
0
100
AcDbBlockReference
 62
7
  6
CONTINUOUS
  2
_FILLED
 10
-59.037456716
 20
42.5756972194
 30
0.0
 41
3.0
 42
3.0
 43
3.0
 50
180.0
  0
ENDBLK
  5
23F
100
AcDbEntity
  8
0
  6
BYBLOCK
 62
0
100
AcDbBlockEnd
  0
BLOCK
  5
240
100
AcDbEntity
  8
0
100
AcDbBlockBegin
 62
7
  6
CONTINUOUS
  2
*D2
 70
65
 10
0.0
 20
0.0
 30
0.0
  3
*D2
  1

  0
MTEXT
  5
241
100
AcDbEntity
  8
0
100
AcDbMText
 62
7
  6
CONTINUOUS
  7
STANDARD
 71
2
 72
1
 10
0.0
 20
36.25
 30
0.0
 11
1.0
 21
0.0
 31
0.0
 73
2
 44
0.9
  1
{\ftxt;\W0.0001;\H0.0001;\~}{\ftxt;\W2.8571428571;\H3.0; }{\ftxt;\W0.0001;\H0.0001;\~}
 40
3.0
 41
12.8571428571
  0
LINE
  5
242
100
AcDbEntity
  8
0
100
AcDbLine
 62
7
  6
CONTINUOUS
 10
-11.15
 20
17.5
 30
0.0
 11
-11.15
 21
34.0
 31
0.0
  0
LINE
  5
243
100
AcDbEntity
  8
0
100
AcDbLine
 62
7
  6
CONTINUOUS
 10
11.15
 20
17.5
 30
0.0
 11
11.15
 21
34.0
 31
0.0
  0
LINE
  5
244
100
AcDbEntity
  8
0
100
AcDbLine
 62
7
  6
CONTINUOUS
 10
-11.15
 20
32.5
 30
0.0
 11
0.0
 21
32.5
 31
0.0
  0
LINE
  5
245
100
AcDbEntity
  8
0
100
AcDbLine
 62
7
  6
CONTINUOUS
 10
11.15
 20
32.5
 30
0.0
 11
0.0
 21
32.5
 31
0.0
  0
INSERT
  5
246
100
AcDbEntity
  8
0
100
AcDbBlockReference
 62
7
  6
CONTINUOUS
  2
_FILLED
 10
-11.15
 20
32.5
 30
0.0
 41
3.0
 42
3.0
 43
3.0
 50
180.0
  0
INSERT
  5
247
100
AcDbEntity
  8
0
100
AcDbBlockReference
 62
7
  6
CONTINUOUS
  2
_FILLED
 10
11.15
 20
32.5
 30
0.0
 41
3.0
 42
3.0
 43
3.0
  0
ENDBLK
  5
248
100
AcDbEntity
  8
0
  6
BYBLOCK
 62
0
100
AcDbBlockEnd
  0
BLOCK
  5
249
100
AcDbEntity
  8
0
100
AcDbBlockBegin
 62
7
  6
CONTINUOUS
  2
*D3
 70
65
 10
0.0
 20
0.0
 30
0.0
  3
*D3
  1

  0
MTEXT
  5
24A
100
AcDbEntity
  8
0
100
AcDbMText
 62
7
  6
CONTINUOUS
  7
STANDARD
 71
2
 72
1
 10
16.25
 20
0.0
 30
0.0
 11
0.0
 21
1.0
 31
0.0
 73
2
 44
0.9
  1
{\ftxt;\W0.0001;\H0.0001;\~}{\ftxt;\W1.5714285714;\H3.0; }{\ftxt;\W0.0001;\H0.0001;\~}
 40
3.0
 41
7.0714285714
  0
LINE
  5
24B
100
AcDbEntity
  8
0
100
AcDbLine
 62
7
  6
CONTINUOUS
 10
10.4000042308
 20
24.5
 30
0.0
 11
21.5
 21
24.5
 31
0.0
  0
LINE
  5
24C
100
AcDbEntity
  8
0
100
AcDbLine
 62
7
  6
CONTINUOUS
 10
10.4000042308
 20
-24.5
 30
0.0
 11
21.5
 21
-24.5
 31
0.0
  0
LINE
  5
24D
100
AcDbEntity
  8
0
100
AcDbLine
 62
7
  6
CONTINUOUS
 10
20.0
 20
24.5
 30
0.0
 11
20.0
 21
0.0
 31
0.0
  0
LINE
  5
24E
100
AcDbEntity
  8
0
100
AcDbLine
 62
7
  6
CONTINUOUS
 10
20.0
 20
-24.5
 30
0.0
 11
20.0
 21
0.0
 31
0.0
  0
INSERT
  5
24F
100
AcDbEntity
  8
0
100
AcDbBlockReference
 62
7
  6
CONTINUOUS
  2
_FILLED
 10
20.0
 20
24.5
 30
0.0
 41
3.0
 42
3.0
 43
3.0
 50
90.0
  0
INSERT
  5
250
100
AcDbEntity
  8
0
100
AcDbBlockReference
 62
7
  6
CONTINUOUS
  2
_FILLED
 10
20.0
 20
-24.5
 30
0.0
 41
3.0
 42
3.0
 43
3.0
 50
270.0
  0
ENDBLK
  5
251
100
AcDbEntity
  8
0
  6
BYBLOCK
 62
0
100
AcDbBlockEnd
  0
ENDSEC
  0
SECTION
  2
ENTITIES
  0
DIMENSION
  5
252
100
AcDbEntity
  8
0
100
AcDbDimension
 62
7
  6
CONTINUOUS
  2
*D0
 10
-20.037456716
 20
32.5
 30
0.0
 11
-35.2160281662
 21
32.5
 31
0.0
 70
160
 71
2
 72
2
 41
0.9
 42
29.5
  1
{\ftxt;\W0.0001;\H0.0001;\~}{\ftxt;\W2.8571428571;\H3.0; }{\ftxt;\W0.0001;\H0.0001;\~}
  3
DIMSTYLE_1
100
AcDbAlignedDimension
 13
-49.537456716
 23
24.2456323968
 33
0.0
 14
-20.037456716
 24
14.7501233207
 34
0.0
100
AcDbRotatedDimension
  0
DIMENSION
  5
253
100
AcDbEntity
  8
0
100
AcDbDimension
 62
7
  6
CONTINUOUS
  2
*D1
 10
-59.037456716
 20
42.5756972194
 30
0.0
 11
-39.9660285416
 21
42.5756972194
 31
0.0
 70
160
 71
2
 72
2
 41
0.9
 42
39.0
  1
{\ftxt;\W0.0001;\H0.0001;\~}{\ftxt;\W1.5;\H3.0; }{\ftxt;\W0.0001;\H0.0001;\~}
  3
DIMSTYLE_1
100
AcDbAlignedDimension
 13
-20.037456716
 23
14.7501233207
 33
0.0
 14
-59.037456716
 24
0.0
 34
0.0
 50
180.0
100
AcDbRotatedDimension
  0
DIMENSION
  5
254
100
AcDbEntity
  8
0
100
AcDbDimension
 62
7
  6
CONTINUOUS
  2
*D2
 10
11.15
 20
32.5
 30
0.0
 11
-0.4285714664
 21
32.5
 31
0.0
 70
160
 71
2
 72
2
 41
0.9
 42
22.3
  1
{\ftxt;\W0.0001;\H0.0001;\~}{\ftxt;\W2.8571428571;\H3.0; }{\ftxt;\W0.0001;\H0.0001;\~}
  3
DIMSTYLE_1
100
AcDbAlignedDimension
 13
-11.15
 23
17.0
 33
0.0
 14
11.15
 24
17.0
 34
0.0
100
AcDbRotatedDimension
  0
DIMENSION
  5
255
100
AcDbEntity
  8
0
100
AcDbDimension
 62
7
  6
CONTINUOUS
  2
*D3
 10
20.0
 20
-24.5
 30
0.0
 11
20.0
 21
-0.4285719106
 31
0.0
 70
160
 71
2
 72
2
 41
0.9
 42
49.0
  1
{\ftxt;\W0.0001;\H0.0001;\~}{\ftxt;\W1.5714285714;\H3.0; }{\ftxt;\W0.0001;\H0.0001;\~}
  3
DIMSTYLE_1
100
AcDbAlignedDimension
 13
9.9000042308
 23
24.5
 33
0.0
 14
9.9000042308
 24
-24.5
 34
0.0
 50
270.0
100
AcDbRotatedDimension
  0
LWPOLYLINE
  5
256
100
AcDbEntity
  8
0
100
AcDbPolyline
 62
7
  6
CONTINUOUS
 90
5
 70
0
 43
0.3500000087
 10
2.9999999987
 20
34.9642844238
 10
3.3571429762
 20
35.1785709564
 10
3.3571429762
 20
35.8214305542
 10
2.9999999987
 20
36.2499993561
 10
2.142857199
 20
36.2499993561
  0
LINE
  5
257
100
AcDbEntity
  8
0
100
AcDbLine
 62
7
  6
CONTINUOUS
 10
-9.9000042308
 20
-24.5
 30
0.0
 11
-7.4999957692
 21
-24.5
 31
0.0
  0
LINE
  5
258
100
AcDbEntity
  8
0
100
AcDbLine
 62
7
  6
CONTINUOUS
 10
7.4999957692
 20
-24.5
 30
0.0
 11
9.9000042308
 21
-24.5
 31
0.0
  0
LINE
  5
259
100
AcDbEntity
  8
0
100
AcDbLine
 62
7
  6
CONTINUOUS
 10
-9.8869056521
 20
-24.4869014213
 30
0.0
 11
-7.5130943479
 21
-24.4869014213
 31
0.0
  0
LINE
  5
25A
100
AcDbEntity
  8
0
100
AcDbLine
 62
7
  6
CONTINUOUS
 10
7.5130943479
 20
-24.4869014213
 30
0.0
 11
9.8869056521
 21
-24.4869014213
 31
0.0
  0
LINE
  5
25B
100
AcDbEntity
  8
0
100
AcDbLine
 62
250
  6
CONTINUOUS
 10
7.2630985787
 20
-24.2369056521
 30
0.0
 11
10.1369014213
 21
-24.2369056521
 31
0.0
  0
LINE
  5
25C
100
AcDbEntity
  8
0
100
AcDbLine
 62
250
  6
CONTINUOUS
 10
-7.2630985787
 20
-24.2369056521
 30
0.0
 11
-10.1369014213
 21
-24.2369056521
 31
0.0
  0
LINE
  5
25D
100
AcDbEntity
  8
0
100
AcDbLine
 62
7
  6
CONTINUOUS
 10
4.45
 20
-24.0
 30
0.0
 11
3.5
 21
-24.0
 31
0.0
  0
LINE
  5
25E
100
AcDbEntity
  8
0
100
AcDbLine
 62
7
  6
CONTINUOUS
 10
-3.5
 20
-24.0
 30
0.0
 11
-4.45
 21
-24.0
 31
0.0
  0
LINE
  5
25F
100
AcDbEntity
  8
0
100
AcDbLine
 62
7
  6
CONTINUOUS
 10
-3.5
 20
-23.9982478817
 30
0.0
 11
-1.2
 21
-23.9982478817
 31
0.0
  0
LINE
  5
260
100
AcDbEntity
  8
0
100
AcDbLine
 62
7
  6
CONTINUOUS
 10
1.2
 20
-23.9982478817
 30
0.0
 11
3.5
 21
-23.9982478817
 31
0.0
  0
LINE
  5
261
100
AcDbEntity
  8
0
100
AcDbLine
 62
7
  6
CONTINUOUS
 10
4.4412732553
 20
-23.9912732553
 30
0.0
 11
3.5
 21
-23.9912732553
 31
0.0
  0
LINE
  5
262
100
AcDbEntity
  8
0
100
AcDbLine
 62
7
  6
CONTINUOUS
 10
-3.5
 20
-23.9912732553
 30
0.0
 11
-4.4412732553
 21
-23.9912732553
 31
0.0
  0
LINE
  5
263
100
AcDbEntity
  8
0
100
AcDbLine
 62
250
  6
CONTINUOUS
 10
7.2630985787
 20
-23.8443375673
 30
0.0
 11
10.1369014213
 21
-23.8443375673
 31
0.0
  0
LINE
  5
264
100
AcDbEntity
  8
0
100
AcDbLine
 62
250
  6
CONTINUOUS
 10
-7.2630985787
 20
-23.8443375673
 30
0.0
 11
-10.1369014213
 21
-23.8443375673
 31
0.0
  0
LINE
  5
265
100
AcDbEntity
  8
0
100
AcDbLine
 62
250
  6
CONTINUOUS
 10
-3.5
 20
-23.7982512664
 30
0.0
 11
-1.0
 21
-23.7982512664
 31
0.0
  0
LINE
  5
266
100
AcDbEntity
  8
0
100
AcDbLine
 62
250
  6
CONTINUOUS
 10
1.0
 20
-23.7982512664
 30
0.0
 11
3.5
 21
-23.7982512664
 31
0.0
  0
LINE
  5
267
100
AcDbEntity
  8
0
100
AcDbLine
 62
250
  6
CONTINUOUS
 10
9.8869056521
 20
-23.6278312164
 30
0.0
 11
7.5130943479
 21
-23.6278312164
 31
0.0
  0
LINE
  5
268
100
AcDbEntity
  8
0
100
AcDbLine
 62
250
  6
CONTINUOUS
 10
-7.5130943479
 20
-23.6278312164
 30
0.0
 11
-9.8869056521
 21
-23.6278312164
 31
0.0
  0
LINE
  5
269
100
AcDbEntity
  8
0
100
AcDbLine
 62
250
  6
CONTINUOUS
 10
-7.5130943479
 20
24.4869014213
 30
0.0
 11
-7.4999957692
 21
24.5
 31
0.0
  0
LINE
  5
26A
100
AcDbEntity
  8
0
100
AcDbLine
 62
250
  6
CONTINUOUS
 10
-7.2630985787
 20
24.2369056521
 30
0.0
 11
-7.25
 21
24.2500042308
 31
0.0
  0
LINE
  5
26B
100
AcDbEntity
  8
0
100
AcDbLine
 62
7
  6
CONTINUOUS
 10
-9.8927234819
 20
-23.1226497308
 30
0.0
 11
-7.5072765181
 21
-23.1226497308
 31
0.0
  0
LINE
  5
26C
100
AcDbEntity
  8
0
100
AcDbLine
 62
7
  6
CONTINUOUS
 10
9.8927234819
 20
-23.1226497308
 30
0.0
 11
7.5072765181
 21
-23.1226497308
 31
0.0
  0
LINE
  5
26D
100
AcDbEntity
  8
0
100
AcDbLine
 62
7
  6
CONTINUOUS
 10
10.6495078465
 20
-22.4
 30
0.0
 11
10.15
 21
-22.4
 31
0.0
  0
LINE
  5
26E
100
AcDbEntity
  8
0
100
AcDbLine
 62
7
  6
CONTINUOUS
 10
7.25
 20
-22.4
 30
0.0
 11
4.45
 21
-22.4
 31
0.0
  0
LINE
  5
26F
100
AcDbEntity
  8
0
100
AcDbLine
 62
7
  6
CONTINUOUS
 10
-1.0
 20
-22.4
 30
0.0
 11
1.0
 21
-22.4
 31
0.0
  0
LINE
  5
270
100
AcDbEntity
  8
0
100
AcDbLine
 62
7
  6
CONTINUOUS
 10
-4.45
 20
-22.4
 30
0.0
 11
-7.25
 21
-22.4
 31
0.0
  0
LINE
  5
271
100
AcDbEntity
  8
0
100
AcDbLine
 62
7
  6
CONTINUOUS
 10
-10.15
 20
-22.4
 30
0.0
 11
-10.6495078465
 21
-22.4
 31
0.0
  0
LINE
  5
272
100
AcDbEntity
  8
0
100
AcDbLine
 62
7
  6
CONTINUOUS
 10
3.5
 20
-22.3737961104
 30
0.0
 11
1.2
 21
-22.3737961104
 31
0.0
  0
LINE
  5
273
100
AcDbEntity
  8
0
100
AcDbLine
 62
7
  6
CONTINUOUS
 10
-1.2
 20
-22.3737961104
 30
0.0
 11
-3.5
 21
-22.3737961104
 31
0.0
  0
LINE
  5
274
100
AcDbEntity
  8
0
100
AcDbLine
 62
7
  6
CONTINUOUS
 10
10.6233252491
 20
-22.3213883311
 30
0.0
 11
9.8927234819
 21
-22.3213883311
 31
0.0
  0
LINE
  5
275
100
AcDbEntity
  8
0
100
AcDbLine
 62
7
  6
CONTINUOUS
 10
7.5072765181
 20
-22.3213883311
 30
0.0
 11
4.4412732553
 21
-22.3213883311
 31
0.0
  0
LINE
  5
276
100
AcDbEntity
  8
0
100
AcDbLine
 62
7
  6
CONTINUOUS
 10
3.5
 20
-22.3213883311
 30
0.0
 11
-3.5
 21
-22.3213883311
 31
0.0
  0
LINE
  5
277
100
AcDbEntity
  8
0
100
AcDbLine
 62
7
  6
CONTINUOUS
 10
-4.4412732553
 20
-22.3213883311
 30
0.0
 11
-7.5072765181
 21
-22.3213883311
 31
0.0
  0
LINE
  5
278
100
AcDbEntity
  8
0
100
AcDbLine
 62
7
  6
CONTINUOUS
 10
-9.8927234819
 20
-22.3213883311
 30
0.0
 11
-10.6233252491
 21
-22.3213883311
 31
0.0
  0
LINE
  5
279
100
AcDbEntity
  8
RACCORDO
100
AcDbLine
 62
7
  6
CONTINUOUS
 10
10.5902862168
 20
-22.1294621076
 30
0.0
 11
-10.5902862168
 21
-22.1294621076
 31
0.0
  0
LINE
  5
27A
100
AcDbEntity
  8
RACCORDO
100
AcDbLine
 62
250
  6
CONTINUOUS
 10
-10.5461336082
 20
-22.0410962979
 30
0.0
 11
10.5461336082
 21
-22.0410962979
 31
0.0
  0
LINE
  5
27B
100
AcDbEntity
  8
0
100
AcDbLine
 62
250
  6
CONTINUOUS
 10
-7.5130943479
 20
-24.4869014213
 30
0.0
 11
-7.4999957692
 21
-24.5
 31
0.0
  0
LINE
  5
27C
100
AcDbEntity
  8
0
100
AcDbLine
 62
250
  6
CONTINUOUS
 10
-7.2630985787
 20
-24.2369056521
 30
0.0
 11
-7.25
 21
-24.2500042308
 31
0.0
  0
LINE
  5
27D
100
AcDbEntity
  8
RACCORDO
100
AcDbLine
 62
250
  6
CONTINUOUS
 10
-10.5338718451
 20
-21.1913708841
 30
0.0
 11
10.5338718451
 21
-21.1913708841
 31
0.0
  0
LINE
  5
27E
100
AcDbEntity
  8
RACCORDO
100
AcDbLine
 62
250
  6
CONTINUOUS
 10
11.1229446494
 20
-18.4150826109
 30
0.0
 11
11.0897723804
 21
-18.4150826109
 31
0.0
  0
LINE
  5
27F
100
AcDbEntity
  8
RACCORDO
100
AcDbLine
 62
250
  6
CONTINUOUS
 10
-11.0897723804
 20
-18.4150826109
 30
0.0
 11
-11.1229446494
 21
-18.4150826109
 31
0.0
  0
LINE
  5
280
100
AcDbEntity
  8
RACCORDO
100
AcDbLine
 62
250
  6
CONTINUOUS
 10
11.1294133302
 20
-17.9321196977
 30
0.0
 11
11.0897723804
 21
-17.9321196977
 31
0.0
  0
LINE
  5
281
100
AcDbEntity
  8
RACCORDO
100
AcDbLine
 62
250
  6
CONTINUOUS
 10
-11.0897723804
 20
-17.9321196977
 30
0.0
 11
-11.1294133302
 21
-17.9321196977
 31
0.0
  0
LINE
  5
282
100
AcDbEntity
  8
DRAFT
100
AcDbLine
 62
7
  6
CONTINUOUS
 10
11.1478182831
 20
-17.5491105705
 30
0.0
 11
11.0963369671
 21
-17.5491105705
 31
0.0
  0
LINE
  5
283
100
AcDbEntity
  8
DRAFT
100
AcDbLine
 62
7
  6
CONTINUOUS
 10
-11.0963369671
 20
-17.5491105705
 30
0.0
 11
-11.1478182831
 21
-17.5491105705
 31
0.0
  0
LINE
  5
284
100
AcDbEntity
  8
DRAFT
100
AcDbLine
 62
7
  6
CONTINUOUS
 10
-11.15
 20
-17.0
 30
0.0
 11
-11.0897723804
 21
-17.6162831426
 31
0.0
  0
LINE
  5
285
100
AcDbEntity
  8
DRAFT
100
AcDbLine
 62
7
  6
CONTINUOUS
 10
-11.15
 20
17.0
 30
0.0
 11
-11.0897723804
 21
17.6162831426
 31
0.0
  0
LINE
  5
286
100
AcDbEntity
  8
0
100
AcDbLine
 62
7
  6
CONTINUOUS
 10
4.45
 20
24.0
 30
0.0
 11
4.4412732553
 21
23.9912732553
 31
0.0
  0
LINE
  5
287
100
AcDbEntity
  8
0
100
AcDbLine
 62
7
  6
CONTINUOUS
 10
4.45
 20
-24.0
 30
0.0
 11
4.4412732553
 21
-23.9912732553
 31
0.0
  0
LINE
  5
288
100
AcDbEntity
  8
RACCORDO
100
AcDbLine
 62
7
  6
CONTINUOUS
 10
-11.15
 20
-17.6160978686
 30
0.0
 11
-11.1294133302
 21
-17.9321196977
 31
0.0
  0
LINE
  5
289
100
AcDbEntity
  8
DRAFT
100
AcDbLine
 62
7
  6
CONTINUOUS
 10
-11.15
 20
17.0
 30
0.0
 11
-11.15
 21
-17.0
 31
0.0
  0
LINE
  5
28A
100
AcDbEntity
  8
DRAFT
100
AcDbLine
 62
7
  6
CONTINUOUS
 10
-11.1478182831
 20
17.5491105705
 30
0.0
 11
-11.1478182831
 21
17.0223245645
 31
0.0
  0
LINE
  5
28B
100
AcDbEntity
  8
DRAFT
100
AcDbLine
 62
7
  6
CONTINUOUS
 10
-11.1478182831
 20
-17.0223245645
 30
0.0
 11
-11.1478182831
 21
-17.5491105705
 31
0.0
  0
LINE
  5
28C
100
AcDbEntity
  8
RACCORDO
100
AcDbLine
 62
7
  6
CONTINUOUS
 10
-11.1229446494
 20
21.821159479
 30
0.0
 11
-11.1229446494
 21
18.4150826109
 31
0.0
  0
LINE
  5
28D
100
AcDbEntity
  8
RACCORDO
100
AcDbLine
 62
7
  6
CONTINUOUS
 10
-11.1229446494
 20
-18.4150826109
 30
0.0
 11
-11.1229446494
 21
-21.821159479
 31
0.0
  0
LINE
  5
28E
100
AcDbEntity
  8
RACCORDO
100
AcDbLine
 62
7
  6
CONTINUOUS
 10
-11.0897723804
 20
21.6294618725
 30
0.0
 11
-11.0897723804
 21
17.6162831426
 31
0.0
  0
LINE
  5
28F
100
AcDbEntity
  8
RACCORDO
100
AcDbLine
 62
7
  6
CONTINUOUS
 10
-11.0897723804
 20
-21.6294618725
 30
0.0
 11
-11.0897723804
 21
-17.6162831426
 31
0.0
  0
LINE
  5
290
100
AcDbEntity
  8
RACCORDO
100
AcDbLine
 62
7
  6
CONTINUOUS
 10
-11.15
 20
17.6160978686
 30
0.0
 11
-11.1294133302
 21
17.9321196977
 31
0.0
  0
LINE
  5
291
100
AcDbEntity
  8
DRAFT
100
AcDbLine
 62
7
  6
CONTINUOUS
 10
-11.15
 20
17.6160978686
 30
0.0
 11
-11.1478182831
 21
17.5491105705
 31
0.0
  0
LINE
  5
292
100
AcDbEntity
  8
0
100
AcDbLine
 62
250
  6
CONTINUOUS
 10
-10.1369014213
 20
-23.8443375673
 30
0.0
 11
-10.1427192511
 21
-23.2669872981
 31
0.0
  0
LINE
  5
293
100
AcDbEntity
  8
0
100
AcDbLine
 62
250
  6
CONTINUOUS
 10
-9.8869056521
 20
-23.6278312164
 30
0.0
 11
-9.8919962532
 21
-23.1226497308
 31
0.0
  0
LINE
  5
294
100
AcDbEntity
  8
RACCORDO
100
AcDbLine
 62
250
  6
CONTINUOUS
 10
-10.5081671644
 20
-9.5
 30
0.0
 11
-10.5081671644
 21
9.5
 31
0.0
  0
LINE
  5
295
100
AcDbEntity
  8
0
100
AcDbLine
 62
7
  6
CONTINUOUS
 10
-10.15
 20
-22.4
 30
0.0
 11
-10.15
 21
-24.2500042308
 31
0.0
  0
LINE
  5
296
100
AcDbEntity
  8
0
100
AcDbLine
 62
7
  6
CONTINUOUS
 10
-10.15
 20
22.4
 30
0.0
 11
-10.15
 21
24.2500042308
 31
0.0
  0
LINE
  5
297
100
AcDbEntity
  8
0
100
AcDbLine
 62
7
  6
CONTINUOUS
 10
-10.1427192511
 20
23.2669872981
 30
0.0
 11
-10.1427192511
 21
22.3344140523
 31
0.0
  0
LINE
  5
298
100
AcDbEntity
  8
0
100
AcDbLine
 62
7
  6
CONTINUOUS
 10
-10.1427192511
 20
-22.3344140523
 30
0.0
 11
-10.1427192511
 21
-23.2669872981
 31
0.0
  0
LINE
  5
299
100
AcDbEntity
  8
0
100
AcDbLine
 62
7
  6
CONTINUOUS
 10
-10.1369014213
 20
24.2369056521
 30
0.0
 11
-10.1369014213
 21
23.8443375673
 31
0.0
  0
LINE
  5
29A
100
AcDbEntity
  8
0
100
AcDbLine
 62
7
  6
CONTINUOUS
 10
-10.1369014213
 20
-23.8443375673
 30
0.0
 11
-10.1369014213
 21
-24.2369056521
 31
0.0
  0
LINE
  5
29B
100
AcDbEntity
  8
0
100
AcDbLine
 62
250
  6
CONTINUOUS
 10
-9.8927234819
 20
23.1226497308
 30
0.0
 11
-9.8927234819
 21
22.3213883311
 31
0.0
  0
LINE
  5
29C
100
AcDbEntity
  8
0
100
AcDbLine
 62
250
  6
CONTINUOUS
 10
-9.8927234819
 20
-22.3213883311
 30
0.0
 11
-9.8927234819
 21
-23.1226497308
 31
0.0
  0
LINE
  5
29D
100
AcDbEntity
  8
0
100
AcDbLine
 62
250
  6
CONTINUOUS
 10
-9.8869056521
 20
-23.6278312164
 30
0.0
 11
-9.8869056521
 21
-24.4869014213
 31
0.0
  0
LINE
  5
29E
100
AcDbEntity
  8
0
100
AcDbLine
 62
250
  6
CONTINUOUS
 10
-9.8869056521
 20
23.6278312164
 30
0.0
 11
-9.8869056521
 21
24.4869014213
 31
0.0
  0
LINE
  5
29F
100
AcDbEntity
  8
0
100
AcDbLine
 62
250
  6
CONTINUOUS
 10
-10.1427192511
 20
23.2669872981
 30
0.0
 11
-10.1369014213
 21
23.8443375673
 31
0.0
  0
LINE
  5
2A0
100
AcDbEntity
  8
0
100
AcDbLine
 62
250
  6
CONTINUOUS
 10
-9.8919962532
 20
23.1226497308
 30
0.0
 11
-9.8869056521
 21
23.6278312164
 31
0.0
  0
LINE
  5
2A1
100
AcDbEntity
  8
DRAFT
100
AcDbLine
 62
7
  6
CONTINUOUS
 10
-11.15
 20
-17.6160978686
 30
0.0
 11
-11.1478182831
 21
-17.5491105705
 31
0.0
  0
LWPOLYLINE
  5
2A2
100
AcDbEntity
  8
0
100
AcDbPolyline
 62
7
  6
CONTINUOUS
 90
3
 70
0
 43
0.3500000087
 10
1.142857155
 20
33.5357146454
 10
1.0714285995
 20
33.3214281128
 10
0.9285714218
 20
33.0357141571
  0
LINE
  5
2A3
100
AcDbEntity
  8
0
100
AcDbLine
 62
250
  6
CONTINUOUS
 10
9.8869056521
 20
24.4869014213
 30
0.0
 11
9.9000042308
 21
24.5
 31
0.0
  0
LINE
  5
2A4
100
AcDbEntity
  8
0
100
AcDbLine
 62
250
  6
CONTINUOUS
 10
10.1369014213
 20
24.2369056521
 30
0.0
 11
10.15
 21
24.2500042308
 31
0.0
  0
LINE
  5
2A5
100
AcDbEntity
  8
RACCORDO
100
AcDbLine
 62
250
  6
CONTINUOUS
 10
10.5081671644
 20
-9.5
 30
0.0
 11
-10.5081671644
 21
-9.5
 31
0.0
  0
LINE
  5
2A6
100
AcDbEntity
  8
0
100
AcDbLine
 62
250
  6
CONTINUOUS
 10
9.8869056521
 20
-24.4869014213
 30
0.0
 11
9.9000042308
 21
-24.5
 31
0.0
  0
LINE
  5
2A7
100
AcDbEntity
  8
0
100
AcDbLine
 62
250
  6
CONTINUOUS
 10
10.1369014213
 20
-24.2369056521
 30
0.0
 11
10.15
 21
-24.2500042308
 31
0.0
  0
LINE
  5
2A8
100
AcDbEntity
  8
0
100
AcDbLine
 62
250
  6
CONTINUOUS
 10
-7.5130943479
 20
23.6278312164
 30
0.0
 11
-7.5080037468
 21
23.1226497308
 31
0.0
  0
LINE
  5
2A9
100
AcDbEntity
  8
0
100
AcDbLine
 62
250
  6
CONTINUOUS
 10
-7.5130943479
 20
-23.6278312164
 30
0.0
 11
-7.5130943479
 21
-24.4869014213
 31
0.0
  0
LINE
  5
2AA
100
AcDbEntity
  8
0
100
AcDbLine
 62
250
  6
CONTINUOUS
 10
-7.5130943479
 20
23.6278312164
 30
0.0
 11
-7.5130943479
 21
24.4869014213
 31
0.0
  0
LINE
  5
2AB
100
AcDbEntity
  8
0
100
AcDbLine
 62
250
  6
CONTINUOUS
 10
-7.5072765181
 20
-23.1226497308
 30
0.0
 11
-7.5072765181
 21
-22.3213883311
 31
0.0
  0
LINE
  5
2AC
100
AcDbEntity
  8
0
100
AcDbLine
 62
250
  6
CONTINUOUS
 10
-7.5072765181
 20
22.3213883311
 30
0.0
 11
-7.5072765181
 21
23.1226497308
 31
0.0
  0
LINE
  5
2AD
100
AcDbEntity
  8
0
100
AcDbLine
 62
7
  6
CONTINUOUS
 10
-7.2630985787
 20
-24.2369056521
 30
0.0
 11
-7.2630985787
 21
-23.8443375673
 31
0.0
  0
LINE
  5
2AE
100
AcDbEntity
  8
0
100
AcDbLine
 62
7
  6
CONTINUOUS
 10
-7.2630985787
 20
23.8443375673
 30
0.0
 11
-7.2630985787
 21
24.2369056521
 31
0.0
  0
LINE
  5
2AF
100
AcDbEntity
  8
0
100
AcDbLine
 62
7
  6
CONTINUOUS
 10
-7.2572807489
 20
-23.2669872981
 30
0.0
 11
-7.2572807489
 21
-22.3344140523
 31
0.0
  0
LINE
  5
2B0
100
AcDbEntity
  8
0
100
AcDbLine
 62
7
  6
CONTINUOUS
 10
-7.2572807489
 20
22.3344140523
 30
0.0
 11
-7.2572807489
 21
23.2669872981
 31
0.0
  0
LINE
  5
2B1
100
AcDbEntity
  8
0
100
AcDbLine
 62
7
  6
CONTINUOUS
 10
-7.25
 20
-22.4
 30
0.0
 11
-7.25
 21
-24.2500042308
 31
0.0
  0
LINE
  5
2B2
100
AcDbEntity
  8
0
100
AcDbLine
 62
7
  6
CONTINUOUS
 10
-7.25
 20
22.4
 30
0.0
 11
-7.25
 21
24.2500042308
 31
0.0
  0
LINE
  5
2B3
100
AcDbEntity
  8
0
100
AcDbLine
 62
250
  6
CONTINUOUS
 10
-7.5080037468
 20
-23.1226497308
 30
0.0
 11
-7.5130943479
 21
-23.6278312164
 31
0.0
  0
LINE
  5
2B4
100
AcDbEntity
  8
0
100
AcDbLine
 62
250
  6
CONTINUOUS
 10
-7.2630985787
 20
23.8443375673
 30
0.0
 11
-7.2572807489
 21
23.2669872981
 31
0.0
  0
LINE
  5
2B5
100
AcDbEntity
  8
0
100
AcDbLine
 62
250
  6
CONTINUOUS
 10
-7.2572807489
 20
-23.2669872981
 30
0.0
 11
-7.2630985787
 21
-23.8443375673
 31
0.0
  0
LINE
  5
2B6
100
AcDbEntity
  8
0
100
AcDbLine
 62
7
  6
CONTINUOUS
 10
-4.45
 20
-22.4
 30
0.0
 11
-4.45
 21
-24.0
 31
0.0
  0
LINE
  5
2B7
100
AcDbEntity
  8
0
100
AcDbLine
 62
7
  6
CONTINUOUS
 10
-4.45
 20
22.4
 30
0.0
 11
-4.45
 21
24.0
 31
0.0
  0
LINE
  5
2B8
100
AcDbEntity
  8
0
100
AcDbLine
 62
7
  6
CONTINUOUS
 10
-4.4412732553
 20
23.9912732553
 30
0.0
 11
-4.4412732553
 21
22.3213883311
 31
0.0
  0
LINE
  5
2B9
100
AcDbEntity
  8
0
100
AcDbLine
 62
7
  6
CONTINUOUS
 10
-4.4412732553
 20
-22.3213883311
 30
0.0
 11
-4.4412732553
 21
-23.9912732553
 31
0.0
  0
LINE
  5
2BA
100
AcDbEntity
  8
0
100
AcDbLine
 62
7
  6
CONTINUOUS
 10
-3.5
 20
-23.9912732553
 30
0.0
 11
-3.5
 21
-22.3213883311
 31
0.0
  0
LINE
  5
2BB
100
AcDbEntity
  8
0
100
AcDbLine
 62
7
  6
CONTINUOUS
 10
-3.5
 20
22.3213883311
 30
0.0
 11
-3.5
 21
23.9912732553
 31
0.0
  0
LINE
  5
2BC
100
AcDbEntity
  8
0
100
AcDbLine
 62
250
  6
CONTINUOUS
 10
-11.1491276455
 20
-21.8997723451
 30
0.0
 11
-11.1229446494
 21
-21.821159479
 31
0.0
  0
LINE
  5
2BD
100
AcDbEntity
  8
0
100
AcDbLine
 62
250
  6
CONTINUOUS
 10
-11.1229446494
 20
21.821159479
 30
0.0
 11
-11.1491276455
 21
21.8997723451
 31
0.0
  0
LINE
  5
2BE
100
AcDbEntity
  8
0
100
AcDbLine
 62
7
  6
CONTINUOUS
 10
-3.3143266374
 20
-0.6296284134
 30
0.0
 11
-3.3139692054
 21
-0.6330016439
 31
0.0
  0
LINE
  5
2BF
100
AcDbEntity
  8
0
100
AcDbLine
 62
7
  6
CONTINUOUS
 10
-3.3141484417
 20
-0.6296095802
 30
0.0
 11
-3.3137987226
 21
-0.6329835267
 31
0.0
  0
LINE
  5
2C0
100
AcDbEntity
  8
0
100
AcDbLine
 62
7
  6
CONTINUOUS
 10
-3.3137982635
 20
0.6239600592
 30
0.0
 11
-3.3141486885
 21
0.6205798689
 31
0.0
  0
LINE
  5
2C1
100
AcDbEntity
  8
0
100
AcDbLine
 62
7
  6
CONTINUOUS
 10
-3.3139689382
 20
0.6239781968
 30
0.0
 11
-3.3143270311
 21
0.6205987174
 31
0.0
  0
LINE
  5
2C2
100
AcDbEntity
  8
0
100
AcDbLine
 62
250
  6
CONTINUOUS
 10
-10.6495078465
 20
-22.4
 30
0.0
 11
-10.6233252491
 21
-22.3213883311
 31
0.0
  0
LINE
  5
2C3
100
AcDbEntity
  8
0
100
AcDbLine
 62
250
  6
CONTINUOUS
 10
-10.6233252491
 20
22.3213883311
 30
0.0
 11
-10.6495078465
 21
22.4
 31
0.0
  0
LINE
  5
2C4
100
AcDbEntity
  8
0
100
AcDbLine
 62
250
  6
CONTINUOUS
 10
-1.2
 20
-22.3737961104
 30
0.0
 11
-1.2
 21
-23.9982478817
 31
0.0
  0
LINE
  5
2C5
100
AcDbEntity
  8
0
100
AcDbLine
 62
250
  6
CONTINUOUS
 10
-1.2
 20
22.3737961104
 30
0.0
 11
-1.2
 21
23.9982478817
 31
0.0
  0
LINE
  5
2C6
100
AcDbEntity
  8
0
100
AcDbLine
 62
7
  6
CONTINUOUS
 10
-1.0
 20
-23.7982512664
 30
0.0
 11
-1.0
 21
-22.3842776662
 31
0.0
  0
LINE
  5
2C7
100
AcDbEntity
  8
0
100
AcDbLine
 62
7
  6
CONTINUOUS
 10
-1.0
 20
22.3842776662
 30
0.0
 11
-1.0
 21
23.7982512664
 31
0.0
  0
LINE
  5
2C8
100
AcDbEntity
  8
RACCORDO
100
AcDbLine
 62
250
  6
CONTINUOUS
 10
10.5902862168
 20
22.1294621076
 30
0.0
 11
10.5461336082
 21
22.0410962979
 31
0.0
  0
LINE
  5
2C9
100
AcDbEntity
  8
RACCORDO
100
AcDbLine
 62
250
  6
CONTINUOUS
 10
-11.0897723804
 20
-21.6294618725
 30
0.0
 11
-11.0459622707
 21
-21.5417815306
 31
0.0
  0
LWPOLYLINE
  5
2CA
100
AcDbEntity
  8
0
100
AcDbPolyline
 62
7
  6
CONTINUOUS
 90
2
 70
0
 43
0.3500000087
 10
19.249999614
 20
-1.3571421616
 10
17.7500002808
 20
-1.3571421616
  0
LINE
  5
2CB
100
AcDbEntity
  8
RACCORDO
100
AcDbLine
 62
250
  6
CONTINUOUS
 10
10.5461336082
 20
-22.0410962979
 30
0.0
 11
10.5902862168
 21
-22.1294621076
 31
0.0
  0
LINE
  5
2CC
100
AcDbEntity
  8
RACCORDO
100
AcDbLine
 62
250
  6
CONTINUOUS
 10
-11.0459622707
 20
21.5417815306
 30
0.0
 11
-11.0897723804
 21
21.6294618725
 31
0.0
  0
LINE
  5
2CD
100
AcDbEntity
  8
0
100
AcDbLine
 62
7
  6
CONTINUOUS
 10
0.428946
 20
1.8625475598
 30
0.0
 11
0.428946
 21
-1.8821090336
 31
0.0
  0
LINE
  5
2CE
100
AcDbEntity
  8
DRAFT
100
AcDbLine
 62
7
  6
CONTINUOUS
 10
0.428946
 20
-1.882109
 30
0.0
 11
0.428946
 21
1.8625409058
 31
0.0
  0
LINE
  5
2CF
100
AcDbEntity
  8
0
100
AcDbLine
 62
7
  6
CONTINUOUS
 10
1.0
 20
23.7982512664
 30
0.0
 11
1.0
 21
22.3842776662
 31
0.0
  0
LINE
  5
2D0
100
AcDbEntity
  8
0
100
AcDbLine
 62
7
  6
CONTINUOUS
 10
1.0
 20
-22.3842776662
 30
0.0
 11
1.0
 21
-23.7982512664
 31
0.0
  0
LINE
  5
2D1
100
AcDbEntity
  8
0
100
AcDbLine
 62
7
  6
CONTINUOUS
 10
1.028978
 20
-1.8821129187
 30
0.0
 11
1.028978
 21
0.881242
 31
0.0
  0
LINE
  5
2D2
100
AcDbEntity
  8
DRAFT
100
AcDbLine
 62
7
  6
CONTINUOUS
 10
1.028978
 20
-1.8821089481
 30
0.0
 11
1.028978
 21
0.881242
 31
0.0
  0
LINE
  5
2D3
100
AcDbEntity
  8
0
100
AcDbLine
 62
250
  6
CONTINUOUS
 10
1.2
 20
-22.3737961104
 30
0.0
 11
1.2
 21
-23.9982478817
 31
0.0
  0
LINE
  5
2D4
100
AcDbEntity
  8
0
100
AcDbLine
 62
250
  6
CONTINUOUS
 10
1.2
 20
22.3737961104
 30
0.0
 11
1.2
 21
23.9982478817
 31
0.0
  0
LINE
  5
2D5
100
AcDbEntity
  8
RACCORDO
100
AcDbLine
 62
250
  6
CONTINUOUS
 10
11.0897723804
 20
21.6294618725
 30
0.0
 11
11.0459622707
 21
21.5417815306
 31
0.0
  0
LINE
  5
2D6
100
AcDbEntity
  8
RACCORDO
100
AcDbLine
 62
250
  6
CONTINUOUS
 10
-10.5902862168
 20
-22.1294621076
 30
0.0
 11
-10.5461336082
 21
-22.0410962979
 31
0.0
  0
LINE
  5
2D7
100
AcDbEntity
  8
0
100
AcDbLine
 62
7
  6
CONTINUOUS
 10
1.028978
 20
0.881242
 30
0.0
 11
2.645160001
 21
-1.9120220017
 31
0.0
  0
LINE
  5
2D8
100
AcDbEntity
  8
DRAFT
100
AcDbLine
 62
7
  6
CONTINUOUS
 10
2.6451600038
 20
-1.9120220065
 30
0.0
 11
1.028978
 21
0.881242
 31
0.0
  0
LINE
  5
2D9
100
AcDbEntity
  8
0
100
AcDbLine
 62
7
  6
CONTINUOUS
 10
2.747206
 20
-0.890268
 30
0.0
 11
1.1310239329
 21
1.9029971159
 31
0.0
  0
LINE
  5
2DA
100
AcDbEntity
  8
DRAFT
100
AcDbLine
 62
7
  6
CONTINUOUS
 10
2.747206
 20
-0.890268
 30
0.0
 11
1.1310239302
 21
1.9029971206
 31
0.0
  0
LINE
  5
2DB
100
AcDbEntity
  8
RACCORDO
100
AcDbLine
 62
250
  6
CONTINUOUS
 10
11.0459622707
 20
-21.5417815306
 30
0.0
 11
11.0897723804
 21
-21.6294618725
 31
0.0
  0
LINE
  5
2DC
100
AcDbEntity
  8
RACCORDO
100
AcDbLine
 62
250
  6
CONTINUOUS
 10
-10.5461336082
 20
22.0410962979
 30
0.0
 11
-10.5902862168
 21
22.1294621076
 31
0.0
  0
LINE
  5
2DD
100
AcDbEntity
  8
DRAFT
100
AcDbLine
 62
7
  6
CONTINUOUS
 10
2.747206
 20
-0.890268
 30
0.0
 11
2.7472053442
 21
1.8730839219
 31
0.0
  0
LINE
  5
2DE
100
AcDbEntity
  8
0
100
AcDbLine
 62
7
  6
CONTINUOUS
 10
2.747206
 20
1.873089862
 30
0.0
 11
2.747206
 21
-0.890268
 31
0.0
  0
LINE
  5
2DF
100
AcDbEntity
  8
0
100
AcDbLine
 62
7
  6
CONTINUOUS
 10
3.347237
 20
-1.8715654165
 30
0.0
 11
3.347237
 21
1.8730840336
 31
0.0
  0
LINE
  5
2E0
100
AcDbEntity
  8
DRAFT
100
AcDbLine
 62
7
  6
CONTINUOUS
 10
3.347237
 20
-1.8715670179
 30
0.0
 11
3.347237
 21
1.873084
 31
0.0
  0
LINE
  5
2E1
100
AcDbEntity
  8
0
100
AcDbLine
 62
7
  6
CONTINUOUS
 10
3.5
 20
23.9912732553
 30
0.0
 11
3.5
 21
22.3213883311
 31
0.0
  0
LINE
  5
2E2
100
AcDbEntity
  8
0
100
AcDbLine
 62
7
  6
CONTINUOUS
 10
3.5
 20
-22.3213883311
 30
0.0
 11
3.5
 21
-23.9912732553
 31
0.0
  0
LINE
  5
2E3
100
AcDbEntity
  8
0
100
AcDbLine
 62
250
  6
CONTINUOUS
 10
10.6495078465
 20
22.4
 30
0.0
 11
10.6233252491
 21
22.3213883311
 31
0.0
  0
LINE
  5
2E4
100
AcDbEntity
  8
0
100
AcDbLine
 62
250
  6
CONTINUOUS
 10
11.1491276455
 20
21.8997723451
 30
0.0
 11
11.1229446494
 21
21.821159479
 31
0.0
  0
LINE
  5
2E5
100
AcDbEntity
  8
0
100
AcDbLine
 62
250
  6
CONTINUOUS
 10
10.6233252491
 20
-22.3213883311
 30
0.0
 11
10.6495078465
 21
-22.4
 31
0.0
  0
LINE
  5
2E6
100
AcDbEntity
  8
0
100
AcDbLine
 62
250
  6
CONTINUOUS
 10
11.1229446494
 20
-21.821159479
 30
0.0
 11
11.1491276455
 21
-21.8997723451
 31
0.0
  0
LINE
  5
2E7
100
AcDbEntity
  8
0
100
AcDbLine
 62
7
  6
CONTINUOUS
 10
4.4412732553
 20
-23.9912732553
 30
0.0
 11
4.4412732553
 21
-22.3213883311
 31
0.0
  0
LINE
  5
2E8
100
AcDbEntity
  8
0
100
AcDbLine
 62
7
  6
CONTINUOUS
 10
4.4412732553
 20
22.3213883311
 30
0.0
 11
4.4412732553
 21
23.9912732553
 31
0.0
  0
LINE
  5
2E9
100
AcDbEntity
  8
0
100
AcDbLine
 62
7
  6
CONTINUOUS
 10
4.45
 20
-22.4
 30
0.0
 11
4.45
 21
-24.0
 31
0.0
  0
LINE
  5
2EA
100
AcDbEntity
  8
0
100
AcDbLine
 62
7
  6
CONTINUOUS
 10
4.45
 20
22.4
 30
0.0
 11
4.45
 21
24.0
 31
0.0
  0
LINE
  5
2EB
100
AcDbEntity
  8
0
100
AcDbLine
 62
250
  6
CONTINUOUS
 10
7.2630985787
 20
-23.8443375673
 30
0.0
 11
7.2572807489
 21
-23.2669872981
 31
0.0
  0
LINE
  5
2EC
100
AcDbEntity
  8
0
100
AcDbLine
 62
250
  6
CONTINUOUS
 10
7.5130943479
 20
-23.6278312164
 30
0.0
 11
7.5080037468
 21
-23.1226497308
 31
0.0
  0
LINE
  5
2ED
100
AcDbEntity
  8
0
100
AcDbLine
 62
250
  6
CONTINUOUS
 10
7.2631028588
 20
-24.2383600852
 30
0.0
 11
7.2630985787
 21
-24.2369056521
 31
0.0
  0
LINE
  5
2EE
100
AcDbEntity
  8
0
100
AcDbLine
 62
7
  6
CONTINUOUS
 10
7.25
 20
-22.4
 30
0.0
 11
7.25
 21
-24.2500042308
 31
0.0
  0
LINE
  5
2EF
100
AcDbEntity
  8
0
100
AcDbLine
 62
7
  6
CONTINUOUS
 10
7.25
 20
22.4
 30
0.0
 11
7.25
 21
24.2500042308
 31
0.0
  0
LINE
  5
2F0
100
AcDbEntity
  8
0
100
AcDbLine
 62
7
  6
CONTINUOUS
 10
7.2572807489
 20
23.2669872981
 30
0.0
 11
7.2572807489
 21
22.3344140523
 31
0.0
  0
LINE
  5
2F1
100
AcDbEntity
  8
0
100
AcDbLine
 62
7
  6
CONTINUOUS
 10
7.2572807489
 20
-22.3344140523
 30
0.0
 11
7.2572807489
 21
-23.2669872981
 31
0.0
  0
LINE
  5
2F2
100
AcDbEntity
  8
0
100
AcDbLine
 62
7
  6
CONTINUOUS
 10
7.2630985787
 20
24.2369056521
 30
0.0
 11
7.2630985787
 21
23.8443375673
 31
0.0
  0
LINE
  5
2F3
100
AcDbEntity
  8
0
100
AcDbLine
 62
7
  6
CONTINUOUS
 10
7.2630985787
 20
-23.8443375673
 30
0.0
 11
7.2630985787
 21
-24.2369056521
 31
0.0
  0
LINE
  5
2F4
100
AcDbEntity
  8
0
100
AcDbLine
 62
250
  6
CONTINUOUS
 10
7.5072765181
 20
23.1226497308
 30
0.0
 11
7.5072765181
 21
22.3213883311
 31
0.0
  0
LINE
  5
2F5
100
AcDbEntity
  8
0
100
AcDbLine
 62
250
  6
CONTINUOUS
 10
7.5072765181
 20
-22.3213883311
 30
0.0
 11
7.5072765181
 21
-23.1226497308
 31
0.0
  0
LINE
  5
2F6
100
AcDbEntity
  8
0
100
AcDbLine
 62
250
  6
CONTINUOUS
 10
7.5130943479
 20
-23.6278312164
 30
0.0
 11
7.5130943479
 21
-24.4869014213
 31
0.0
  0
LINE
  5
2F7
100
AcDbEntity
  8
0
100
AcDbLine
 62
250
  6
CONTINUOUS
 10
7.5130943479
 20
23.6278312164
 30
0.0
 11
7.5130943479
 21
24.4869014213
 31
0.0
  0
LINE
  5
2F8
100
AcDbEntity
  8
0
100
AcDbLine
 62
250
  6
CONTINUOUS
 10
7.2572807489
 20
23.2669872981
 30
0.0
 11
7.2630985787
 21
23.8443375673
 31
0.0
  0
LINE
  5
2F9
100
AcDbEntity
  8
0
100
AcDbLine
 62
250
  6
CONTINUOUS
 10
7.5080037468
 20
23.1226497308
 30
0.0
 11
7.5130943479
 21
23.6278312164
 31
0.0
  0
LINE
  5
2FA
100
AcDbEntity
  8
DRAFT
100
AcDbLine
 62
7
  6
CONTINUOUS
 10
11.15
 20
-17.6160978686
 30
0.0
 11
11.1478182831
 21
-17.5491105705
 31
0.0
  0
LINE
  5
2FB
100
AcDbEntity
  8
0
100
AcDbLine
 62
250
  6
CONTINUOUS
 10
9.8869056521
 20
23.6278312164
 30
0.0
 11
9.8919962532
 21
23.1226497308
 31
0.0
  0
LINE
  5
2FC
100
AcDbEntity
  8
0
100
AcDbLine
 62
250
  6
CONTINUOUS
 10
10.1369014213
 20
23.8443375673
 30
0.0
 11
10.1427192511
 21
23.2669872981
 31
0.0
  0
LINE
  5
2FD
100
AcDbEntity
  8
0
100
AcDbLine
 62
250
  6
CONTINUOUS
 10
10.1368971412
 20
24.2383600852
 30
0.0
 11
10.1369014213
 21
24.2369056521
 31
0.0
  0
LINE
  5
2FE
100
AcDbEntity
  8
0
100
AcDbLine
 62
250
  6
CONTINUOUS
 10
9.8869056521
 20
-23.6278312164
 30
0.0
 11
9.8869056521
 21
-24.4869014213
 31
0.0
  0
LINE
  5
2FF
100
AcDbEntity
  8
0
100
AcDbLine
 62
250
  6
CONTINUOUS
 10
9.8869056521
 20
23.6278312164
 30
0.0
 11
9.8869056521
 21
24.4869014213
 31
0.0
  0
LINE
  5
300
100
AcDbEntity
  8
0
100
AcDbLine
 62
250
  6
CONTINUOUS
 10
9.8927234819
 20
-23.1226497308
 30
0.0
 11
9.8927234819
 21
-22.3213883311
 31
0.0
  0
LINE
  5
301
100
AcDbEntity
  8
0
100
AcDbLine
 62
250
  6
CONTINUOUS
 10
9.8927234819
 20
22.3213883311
 30
0.0
 11
9.8927234819
 21
23.1226497308
 31
0.0
  0
LINE
  5
302
100
AcDbEntity
  8
0
100
AcDbLine
 62
7
  6
CONTINUOUS
 10
10.1369014213
 20
-24.2369056521
 30
0.0
 11
10.1369014213
 21
-23.8443375673
 31
0.0
  0
LINE
  5
303
100
AcDbEntity
  8
0
100
AcDbLine
 62
7
  6
CONTINUOUS
 10
10.1369014213
 20
23.8443375673
 30
0.0
 11
10.1369014213
 21
24.2369056521
 31
0.0
  0
LINE
  5
304
100
AcDbEntity
  8
0
100
AcDbLine
 62
7
  6
CONTINUOUS
 10
10.1427192511
 20
-23.2669872981
 30
0.0
 11
10.1427192511
 21
-22.3344140523
 31
0.0
  0
LINE
  5
305
100
AcDbEntity
  8
0
100
AcDbLine
 62
7
  6
CONTINUOUS
 10
10.1427192511
 20
22.3344140523
 30
0.0
 11
10.1427192511
 21
23.2669872981
 31
0.0
  0
LINE
  5
306
100
AcDbEntity
  8
0
100
AcDbLine
 62
7
  6
CONTINUOUS
 10
10.15
 20
-22.4
 30
0.0
 11
10.15
 21
-24.2500042308
 31
0.0
  0
LINE
  5
307
100
AcDbEntity
  8
0
100
AcDbLine
 62
7
  6
CONTINUOUS
 10
10.15
 20
22.4
 30
0.0
 11
10.15
 21
24.2500042308
 31
0.0
  0
LINE
  5
308
100
AcDbEntity
  8
RACCORDO
100
AcDbLine
 62
250
  6
CONTINUOUS
 10
10.5081671644
 20
9.5
 30
0.0
 11
10.5081671644
 21
-9.5
 31
0.0
  0
LINE
  5
309
100
AcDbEntity
  8
RACCORDO
100
AcDbLine
 62
7
  6
CONTINUOUS
 10
11.0897723804
 20
21.6294618725
 30
0.0
 11
11.0897723804
 21
17.6162831426
 31
0.0
  0
LINE
  5
30A
100
AcDbEntity
  8
RACCORDO
100
AcDbLine
 62
7
  6
CONTINUOUS
 10
11.0897723804
 20
-21.6294618725
 30
0.0
 11
11.0897723804
 21
-17.6162831426
 31
0.0
  0
LINE
  5
30B
100
AcDbEntity
  8
RACCORDO
100
AcDbLine
 62
7
  6
CONTINUOUS
 10
11.1229446494
 20
21.821159479
 30
0.0
 11
11.1229446494
 21
18.4150826109
 31
0.0
  0
LINE
  5
30C
100
AcDbEntity
  8
RACCORDO
100
AcDbLine
 62
7
  6
CONTINUOUS
 10
11.1229446494
 20
-18.4150826109
 30
0.0
 11
11.1229446494
 21
-21.821159479
 31
0.0
  0
LINE
  5
30D
100
AcDbEntity
  8
DRAFT
100
AcDbLine
 62
7
  6
CONTINUOUS
 10
11.1478182831
 20
17.5491105705
 30
0.0
 11
11.1478182831
 21
17.0223245645
 31
0.0
  0
LINE
  5
30E
100
AcDbEntity
  8
DRAFT
100
AcDbLine
 62
7
  6
CONTINUOUS
 10
11.1478182831
 20
-17.0223245645
 30
0.0
 11
11.1478182831
 21
-17.5491105705
 31
0.0
  0
LINE
  5
30F
100
AcDbEntity
  8
DRAFT
100
AcDbLine
 62
7
  6
CONTINUOUS
 10
11.15
 20
17.0
 30
0.0
 11
11.15
 21
-17.0
 31
0.0
  0
LINE
  5
310
100
AcDbEntity
  8
0
100
AcDbLine
 62
250
  6
CONTINUOUS
 10
9.8919962532
 20
-23.1226497308
 30
0.0
 11
9.8869056521
 21
-23.6278312164
 31
0.0
  0
LINE
  5
311
100
AcDbEntity
  8
0
100
AcDbLine
 62
250
  6
CONTINUOUS
 10
10.1427192511
 20
-23.2669872981
 30
0.0
 11
10.1369014213
 21
-23.8443375673
 31
0.0
  0
LINE
  5
312
100
AcDbEntity
  8
DRAFT
100
AcDbLine
 62
7
  6
CONTINUOUS
 10
11.15
 20
17.6160978686
 30
0.0
 11
11.1478182831
 21
17.5491105705
 31
0.0
  0
LINE
  5
313
100
AcDbEntity
  8
0
100
AcDbLine
 62
250
  6
CONTINUOUS
 10
-10.1369014213
 20
-24.2369056521
 30
0.0
 11
-10.15
 21
-24.2500042308
 31
0.0
  0
LINE
  5
314
100
AcDbEntity
  8
0
100
AcDbLine
 62
250
  6
CONTINUOUS
 10
-9.8869056521
 20
-24.4869014213
 30
0.0
 11
-9.9000042308
 21
-24.5
 31
0.0
  0
LINE
  5
315
100
AcDbEntity
  8
RACCORDO
100
AcDbLine
 62
250
  6
CONTINUOUS
 10
10.5081671644
 20
9.5
 30
0.0
 11
-10.5081671644
 21
9.5
 31
0.0
  0
LINE
  5
316
100
AcDbEntity
  8
0
100
AcDbLine
 62
250
  6
CONTINUOUS
 10
-10.1369014213
 20
24.2369056521
 30
0.0
 11
-10.15
 21
24.2500042308
 31
0.0
  0
LINE
  5
317
100
AcDbEntity
  8
0
100
AcDbLine
 62
250
  6
CONTINUOUS
 10
-9.8869056521
 20
24.4869014213
 30
0.0
 11
-9.9000042308
 21
24.5
 31
0.0
  0
LINE
  5
318
100
AcDbEntity
  8
DRAFT
100
AcDbLine
 62
7
  6
CONTINUOUS
 10
11.15
 20
17.0
 30
0.0
 11
11.0897723804
 21
17.6162831426
 31
0.0
  0
LINE
  5
319
100
AcDbEntity
  8
RACCORDO
100
AcDbLine
 62
7
  6
CONTINUOUS
 10
11.15
 20
17.6160978686
 30
0.0
 11
11.1294133302
 21
17.9321196977
 31
0.0
  0
LINE
  5
31A
100
AcDbEntity
  8
RACCORDO
100
AcDbLine
 62
7
  6
CONTINUOUS
 10
11.15
 20
-17.6160978686
 30
0.0
 11
11.1294133302
 21
-17.9321196977
 31
0.0
  0
LINE
  5
31B
100
AcDbEntity
  8
DRAFT
100
AcDbLine
 62
7
  6
CONTINUOUS
 10
11.15
 20
-17.0
 30
0.0
 11
11.0897723804
 21
-17.6162831426
 31
0.0
  0
LINE
  5
31C
100
AcDbEntity
  8
0
100
AcDbLine
 62
7
  6
CONTINUOUS
 10
-4.4412732553
 20
-23.9912732553
 30
0.0
 11
-4.45
 21
-24.0
 31
0.0
  0
LINE
  5
31D
100
AcDbEntity
  8
0
100
AcDbLine
 62
7
  6
CONTINUOUS
 10
-4.45
 20
24.0
 30
0.0
 11
-4.4412732553
 21
23.9912732553
 31
0.0
  0
LWPOLYLINE
  5
31E
100
AcDbEntity
  8
0
100
AcDbPolyline
 62
7
  6
CONTINUOUS
 90
10
 70
0
 43
0.3500000087
 10
19.249999614
 20
0.4285711273
 10
18.3928577469
 20
1.285715126
 10
17.535714814
 20
1.499999527
 10
16.6785718811
 20
1.499999527
 10
16.2499998817
 20
1.0714285934
 10
16.2499998817
 20
0.4285711273
 10
16.6785718811
 20
0.0000001938
 10
17.535714814
 20
0.0000001938
 10
17.9642846817
 20
0.4285711273
 10
17.9642846817
 20
1.3571425491
  0
LWPOLYLINE
  5
31F
100
AcDbEntity
  8
0
100
AcDbPolyline
 62
7
  6
CONTINUOUS
 90
10
 70
0
 43
0.3500000087
 10
1.0714285995
 20
33.750001178
 10
1.142857155
 20
33.6071420685
 10
1.142857155
 20
33.5357146454
 10
0.9999999774
 20
33.3928555359
 10
0.9285714218
 20
33.3928555359
 10
0.8571428663
 20
33.4642872223
 10
0.8571428663
 20
33.5357146454
 10
0.9285714218
 20
33.6785694916
 10
0.9999999774
 20
33.750001178
 10
1.0714285995
 20
33.750001178
  0
LINE
  5
320
100
AcDbEntity
  8
DRAFT
100
AcDbLine
 62
7
  6
CONTINUOUS
 10
-11.1478182831
 20
17.5491105705
 30
0.0
 11
-11.0963369671
 21
17.5491105705
 31
0.0
  0
LINE
  5
321
100
AcDbEntity
  8
DRAFT
100
AcDbLine
 62
7
  6
CONTINUOUS
 10
11.0963369671
 20
17.5491105705
 30
0.0
 11
11.1478182831
 21
17.5491105705
 31
0.0
  0
LINE
  5
322
100
AcDbEntity
  8
RACCORDO
100
AcDbLine
 62
250
  6
CONTINUOUS
 10
-11.1294133302
 20
17.9321196977
 30
0.0
 11
-11.0897723804
 21
17.9321196977
 31
0.0
  0
LINE
  5
323
100
AcDbEntity
  8
RACCORDO
100
AcDbLine
 62
250
  6
CONTINUOUS
 10
11.0897723804
 20
17.9321196977
 30
0.0
 11
11.1294133302
 21
17.9321196977
 31
0.0
  0
LINE
  5
324
100
AcDbEntity
  8
RACCORDO
100
AcDbLine
 62
250
  6
CONTINUOUS
 10
-11.1229446494
 20
18.4150826109
 30
0.0
 11
-11.0897723804
 21
18.4150826109
 31
0.0
  0
LINE
  5
325
100
AcDbEntity
  8
RACCORDO
100
AcDbLine
 62
250
  6
CONTINUOUS
 10
11.0897723804
 20
18.4150826109
 30
0.0
 11
11.1229446494
 21
18.4150826109
 31
0.0
  0
LWPOLYLINE
  5
326
100
AcDbEntity
  8
0
100
AcDbPolyline
 62
7
  6
CONTINUOUS
 90
3
 70
0
 43
0.3500000087
 10
18.6071421478
 20
-0.8571438049
 10
18.6071421478
 20
-2.3571431381
 10
16.2499998817
 20
-1.714285672
  0
LINE
  5
327
100
AcDbEntity
  8
RACCORDO
100
AcDbLine
 62
250
  6
CONTINUOUS
 10
-10.5338718451
 20
21.1913708841
 30
0.0
 11
10.5338718451
 21
21.1913708841
 31
0.0
  0
LINE
  5
328
100
AcDbEntity
  8
RACCORDO
100
AcDbLine
 62
250
  6
CONTINUOUS
 10
-10.5461336082
 20
22.0410962979
 30
0.0
 11
10.5461336082
 21
22.0410962979
 31
0.0
  0
LINE
  5
329
100
AcDbEntity
  8
0
100
AcDbLine
 62
250
  6
CONTINUOUS
 10
7.2630985787
 20
-24.2369056521
 30
0.0
 11
7.25
 21
-24.2500042308
 31
0.0
  0
LINE
  5
32A
100
AcDbEntity
  8
0
100
AcDbLine
 62
250
  6
CONTINUOUS
 10
7.5130943479
 20
-24.4869014213
 30
0.0
 11
7.4999957692
 21
-24.5
 31
0.0
  0
LINE
  5
32B
100
AcDbEntity
  8
RACCORDO
100
AcDbLine
 62
7
  6
CONTINUOUS
 10
10.5902862168
 20
22.1294621076
 30
0.0
 11
-10.5902862168
 21
22.1294621076
 31
0.0
  0
LINE
  5
32C
100
AcDbEntity
  8
0
100
AcDbLine
 62
7
  6
CONTINUOUS
 10
10.6233252491
 20
22.3213883311
 30
0.0
 11
9.8927234819
 21
22.3213883311
 31
0.0
  0
LINE
  5
32D
100
AcDbEntity
  8
0
100
AcDbLine
 62
7
  6
CONTINUOUS
 10
7.5072765181
 20
22.3213883311
 30
0.0
 11
4.4412732553
 21
22.3213883311
 31
0.0
  0
LINE
  5
32E
100
AcDbEntity
  8
0
100
AcDbLine
 62
7
  6
CONTINUOUS
 10
3.5
 20
22.3213883311
 30
0.0
 11
-3.5
 21
22.3213883311
 31
0.0
  0
LINE
  5
32F
100
AcDbEntity
  8
0
100
AcDbLine
 62
7
  6
CONTINUOUS
 10
-4.4412732553
 20
22.3213883311
 30
0.0
 11
-7.5072765181
 21
22.3213883311
 31
0.0
  0
LINE
  5
330
100
AcDbEntity
  8
0
100
AcDbLine
 62
7
  6
CONTINUOUS
 10
-9.8927234819
 20
22.3213883311
 30
0.0
 11
-10.6233252491
 21
22.3213883311
 31
0.0
  0
LINE
  5
331
100
AcDbEntity
  8
0
100
AcDbLine
 62
7
  6
CONTINUOUS
 10
3.5
 20
22.3737961104
 30
0.0
 11
1.2
 21
22.3737961104
 31
0.0
  0
LINE
  5
332
100
AcDbEntity
  8
0
100
AcDbLine
 62
7
  6
CONTINUOUS
 10
-1.2
 20
22.3737961104
 30
0.0
 11
-3.5
 21
22.3737961104
 31
0.0
  0
LINE
  5
333
100
AcDbEntity
  8
0
100
AcDbLine
 62
7
  6
CONTINUOUS
 10
10.6504426895
 20
22.4
 30
0.0
 11
10.15
 21
22.4
 31
0.0
  0
LINE
  5
334
100
AcDbEntity
  8
0
100
AcDbLine
 62
7
  6
CONTINUOUS
 10
7.25
 20
22.4
 30
0.0
 11
4.45
 21
22.4
 31
0.0
  0
LINE
  5
335
100
AcDbEntity
  8
0
100
AcDbLine
 62
7
  6
CONTINUOUS
 10
-1.0
 20
22.4
 30
0.0
 11
1.0
 21
22.4
 31
0.0
  0
LINE
  5
336
100
AcDbEntity
  8
0
100
AcDbLine
 62
7
  6
CONTINUOUS
 10
-4.45
 20
22.4
 30
0.0
 11
-7.25
 21
22.4
 31
0.0
  0
LINE
  5
337
100
AcDbEntity
  8
0
100
AcDbLine
 62
7
  6
CONTINUOUS
 10
-10.15
 20
22.4
 30
0.0
 11
-10.6504426895
 21
22.4
 31
0.0
  0
LINE
  5
338
100
AcDbEntity
  8
0
100
AcDbLine
 62
7
  6
CONTINUOUS
 10
-9.8927234819
 20
23.1226497308
 30
0.0
 11
-7.5072765181
 21
23.1226497308
 31
0.0
  0
LINE
  5
339
100
AcDbEntity
  8
0
100
AcDbLine
 62
7
  6
CONTINUOUS
 10
9.8927234819
 20
23.1226497308
 30
0.0
 11
7.5072765181
 21
23.1226497308
 31
0.0
  0
LINE
  5
33A
100
AcDbEntity
  8
0
100
AcDbLine
 62
250
  6
CONTINUOUS
 10
-9.8869056521
 20
23.6278312164
 30
0.0
 11
-7.5130943479
 21
23.6278312164
 31
0.0
  0
LINE
  5
33B
100
AcDbEntity
  8
0
100
AcDbLine
 62
250
  6
CONTINUOUS
 10
7.5130943479
 20
23.6278312164
 30
0.0
 11
9.8869056521
 21
23.6278312164
 31
0.0
  0
LINE
  5
33C
100
AcDbEntity
  8
0
100
AcDbLine
 62
250
  6
CONTINUOUS
 10
3.5
 20
23.7982512664
 30
0.0
 11
1.0
 21
23.7982512664
 31
0.0
  0
LINE
  5
33D
100
AcDbEntity
  8
0
100
AcDbLine
 62
250
  6
CONTINUOUS
 10
-1.0
 20
23.7982512664
 30
0.0
 11
-3.5
 21
23.7982512664
 31
0.0
  0
LINE
  5
33E
100
AcDbEntity
  8
0
100
AcDbLine
 62
250
  6
CONTINUOUS
 10
7.2630985787
 20
23.8443375673
 30
0.0
 11
10.1369014213
 21
23.8443375673
 31
0.0
  0
LINE
  5
33F
100
AcDbEntity
  8
0
100
AcDbLine
 62
250
  6
CONTINUOUS
 10
-7.2630985787
 20
23.8443375673
 30
0.0
 11
-10.1369014213
 21
23.8443375673
 31
0.0
  0
LINE
  5
340
100
AcDbEntity
  8
0
100
AcDbLine
 62
250
  6
CONTINUOUS
 10
7.2630985787
 20
24.2369056521
 30
0.0
 11
7.25
 21
24.2500042308
 31
0.0
  0
LINE
  5
341
100
AcDbEntity
  8
0
100
AcDbLine
 62
250
  6
CONTINUOUS
 10
7.5130943479
 20
24.4869014213
 30
0.0
 11
7.4999957692
 21
24.5
 31
0.0
  0
LINE
  5
342
100
AcDbEntity
  8
0
100
AcDbLine
 62
7
  6
CONTINUOUS
 10
-4.4412732553
 20
23.9912732553
 30
0.0
 11
-3.5
 21
23.9912732553
 31
0.0
  0
LINE
  5
343
100
AcDbEntity
  8
0
100
AcDbLine
 62
7
  6
CONTINUOUS
 10
3.5
 20
23.9912732553
 30
0.0
 11
4.4412732553
 21
23.9912732553
 31
0.0
  0
LINE
  5
344
100
AcDbEntity
  8
0
100
AcDbLine
 62
7
  6
CONTINUOUS
 10
3.5
 20
23.9982478817
 30
0.0
 11
1.2
 21
23.9982478817
 31
0.0
  0
LINE
  5
345
100
AcDbEntity
  8
0
100
AcDbLine
 62
7
  6
CONTINUOUS
 10
-1.2
 20
23.9982478817
 30
0.0
 11
-3.5
 21
23.9982478817
 31
0.0
  0
LINE
  5
346
100
AcDbEntity
  8
0
100
AcDbLine
 62
7
  6
CONTINUOUS
 10
-4.45
 20
24.0
 30
0.0
 11
-3.5
 21
24.0
 31
0.0
  0
LINE
  5
347
100
AcDbEntity
  8
0
100
AcDbLine
 62
7
  6
CONTINUOUS
 10
3.5
 20
24.0
 30
0.0
 11
4.45
 21
24.0
 31
0.0
  0
LINE
  5
348
100
AcDbEntity
  8
0
100
AcDbLine
 62
250
  6
CONTINUOUS
 10
7.2630985787
 20
24.2369056521
 30
0.0
 11
10.1369014213
 21
24.2369056521
 31
0.0
  0
LINE
  5
349
100
AcDbEntity
  8
0
100
AcDbLine
 62
250
  6
CONTINUOUS
 10
-7.2630985787
 20
24.2369056521
 30
0.0
 11
-10.1369014213
 21
24.2369056521
 31
0.0
  0
LINE
  5
34A
100
AcDbEntity
  8
0
100
AcDbLine
 62
7
  6
CONTINUOUS
 10
9.8869056521
 20
24.4869014213
 30
0.0
 11
7.5130943479
 21
24.4869014213
 31
0.0
  0
LINE
  5
34B
100
AcDbEntity
  8
0
100
AcDbLine
 62
7
  6
CONTINUOUS
 10
-7.5130943479
 20
24.4869014213
 30
0.0
 11
-9.8869056521
 21
24.4869014213
 31
0.0
  0
LINE
  5
34C
100
AcDbEntity
  8
0
100
AcDbLine
 62
7
  6
CONTINUOUS
 10
9.9000042308
 20
24.5
 30
0.0
 11
7.4999957692
 21
24.5
 31
0.0
  0
LINE
  5
34D
100
AcDbEntity
  8
0
100
AcDbLine
 62
7
  6
CONTINUOUS
 10
-7.4999957692
 20
24.5
 30
0.0
 11
-9.9000042308
 21
24.5
 31
0.0
  0
LWPOLYLINE
  5
34E
100
AcDbEntity
  8
0
100
AcDbPolyline
 62
7
  6
CONTINUOUS
 90
7
 70
0
 43
0.3500000087
 10
-0.4285714331
 20
33.2500006897
 10
-1.9285714658
 20
33.2500006897
 10
-0.4285714331
 20
35.392857489
 10
-0.4285714331
 20
35.8214305542
 10
-0.8571428663
 20
36.2499993561
 10
-1.4999999993
 20
36.2499993561
 10
-1.9285714658
 20
35.6071440216
  0
LWPOLYLINE
  5
34F
100
AcDbEntity
  8
0
100
AcDbPolyline
 62
7
  6
CONTINUOUS
 90
6
 70
0
 43
0.3500000087
 10
2.142857199
 20
33.2500006897
 10
3.2142857319
 20
33.2500006897
 10
3.4285714651
 20
33.4642872223
 10
3.4285714651
 20
34.5357156219
 10
2.9999999987
 20
34.9642844238
 10
2.5714285322
 20
34.9642844238
  0
LWPOLYLINE
  5
350
100
AcDbEntity
  8
0
100
AcDbPolyline
 62
7
  6
CONTINUOUS
 90
7
 70
0
 43
0.3500000087
 10
-2.7857142654
 20
33.2500006897
 10
-4.285714398
 20
33.2500006897
 10
-2.7857142654
 20
35.392857489
 10
-2.7857142654
 20
35.8214305542
 10
-3.2142857319
 20
36.2499993561
 10
-3.8571429316
 20
36.2499993561
 10
-4.285714398
 20
35.6071440216
  0
LWPOLYLINE
  5
351
100
AcDbEntity
  8
0
100
AcDbPolyline
 62
7
  6
CONTINUOUS
 90
5
 70
0
 43
0.3500000087
 10
-40.9303136749
 20
45.0399849182
 10
-40.5731722961
 20
45.2542671875
 10
-40.5731722961
 20
45.8971267853
 10
-40.9303136749
 20
46.3256955872
 10
-41.787455542
 20
46.3256955872
  0
LWPOLYLINE
  5
352
100
AcDbEntity
  8
0
100
AcDbPolyline
 62
7
  6
CONTINUOUS
 90
10
 70
0
 43
0.3500000087
 10
-39.2160299408
 20
43.3256969208
 10
-38.3588838104
 20
44.1828387878
 10
-38.1446015411
 20
45.0399849182
 10
-38.1446015411
 20
45.8971267853
 10
-38.573170343
 20
46.3256955872
 10
-39.2160299408
 20
46.3256955872
 10
-39.6445987427
 20
45.8971267853
 10
-39.6445987427
 20
45.0399849182
 10
-39.2160299408
 20
44.611411853
 10
-38.2874563873
 20
44.611411853
  0
LINE
  5
353
100
AcDbEntity
  8
0
100
AcDbLine
 62
250
  6
CONTINUOUS
 10
-50.537456716
 20
23.4104851482
 30
0.0
 11
-49.7860022832
 21
23.8443375673
 31
0.0
  0
LINE
  5
354
100
AcDbEntity
  8
0
100
AcDbLine
 62
7
  6
CONTINUOUS
 10
-50.537456716
 20
23.1226497308
 30
0.0
 11
-49.662456716
 21
23.6278312164
 31
0.0
  0
LINE
  5
355
100
AcDbEntity
  8
0
100
AcDbLine
 62
250
  6
CONTINUOUS
 10
-49.7860022832
 20
-23.8443375673
 30
0.0
 11
-50.537456716
 21
-23.4104851482
 31
0.0
  0
LINE
  5
356
100
AcDbEntity
  8
0
100
AcDbLine
 62
7
  6
CONTINUOUS
 10
-49.662456716
 20
-23.6278312164
 30
0.0
 11
-50.537456716
 21
-23.1226497308
 31
0.0
  0
LINE
  5
357
100
AcDbEntity
  8
0
100
AcDbLine
 62
7
  6
CONTINUOUS
 10
-50.537456716
 20
-24.5
 30
0.0
 11
-49.7860022832
 21
-24.495628166
 31
0.0
  0
LINE
  5
358
100
AcDbEntity
  8
0
100
AcDbLine
 62
250
  6
CONTINUOUS
 10
-50.537456716
 20
-24.2500042308
 30
0.0
 11
-49.7860022832
 21
-24.2456323968
 31
0.0
  0
LINE
  5
359
100
AcDbEntity
  8
0
100
AcDbLine
 62
7
  6
CONTINUOUS
 10
-43.0345478503
 20
-23.9563493531
 30
0.0
 11
-49.537456716
 21
-23.9941821702
 31
0.0
  0
LINE
  5
35A
100
AcDbEntity
  8
0
100
AcDbLine
 62
250
  6
CONTINUOUS
 10
-49.537456716
 20
-24.2456323968
 30
0.0
 11
-49.7860022832
 21
-24.2456323968
 31
0.0
  0
LINE
  5
35B
100
AcDbEntity
  8
0
100
AcDbLine
 62
250
  6
CONTINUOUS
 10
-53.037456716
 20
-24.2369056521
 30
0.0
 11
-52.7889111489
 21
-24.2369056521
 31
0.0
  0
LINE
  5
35C
100
AcDbEntity
  8
0
100
AcDbLine
 62
250
  6
CONTINUOUS
 10
-53.037456716
 20
-23.8443375673
 30
0.0
 11
-52.7889111489
 21
-23.8443375673
 31
0.0
  0
LINE
  5
35D
100
AcDbEntity
  8
0
100
AcDbLine
 62
250
  6
CONTINUOUS
 10
-49.537456716
 20
-23.8443375673
 30
0.0
 11
-49.7860022832
 21
-23.8443375673
 31
0.0
  0
LINE
  5
35E
100
AcDbEntity
  8
0
100
AcDbLine
 62
7
  6
CONTINUOUS
 10
-52.7889111489
 20
-24.4869014213
 30
0.0
 11
-50.537456716
 21
-24.5
 31
0.0
  0
LINE
  5
35F
100
AcDbEntity
  8
0
100
AcDbLine
 62
250
  6
CONTINUOUS
 10
-52.7889111489
 20
-24.2369056521
 30
0.0
 11
-50.537456716
 21
-24.2500042308
 31
0.0
  0
LINE
  5
360
100
AcDbEntity
  8
0
100
AcDbLine
 62
7
  6
CONTINUOUS
 10
-52.037456716
 20
-22.3213883311
 30
0.0
 11
-50.537456716
 21
-22.4
 31
0.0
  0
LINE
  5
361
100
AcDbEntity
  8
RACCORDO
100
AcDbLine
 62
7
  6
CONTINUOUS
 10
-57.0235768098
 20
-22.0410962979
 30
0.0
 11
-55.337456716
 21
-22.1294621076
 31
0.0
  0
LWPOLYLINE
  5
362
100
AcDbEntity
  8
0
100
AcDbPolyline
 62
7
  6
CONTINUOUS
 90
10
 70
0
 43
0.3500000087
 10
-36.2874586975
 20
33.2500006897
 10
-35.4303146988
 20
34.1071425568
 10
-35.2160281662
 20
34.9642844238
 10
-35.2160281662
 20
35.8214305542
 10
-35.6445990997
 20
36.2499993561
 10
-36.2874586975
 20
36.2499993561
 10
-36.7160274994
 20
35.8214305542
 10
-36.7160274994
 20
34.9642844238
 10
-36.2874586975
 20
34.5357156219
 10
-35.358885144
 20
34.5357156219
  0
LINE
  5
363
100
AcDbEntity
  8
RACCORDO
100
AcDbLine
 62
7
  6
CONTINUOUS
 10
-52.8444324568
 20
16.8155877964
 30
0.0
 11
-53.037456716
 21
16.7041451884
 31
0.0
  0
LINE
  5
364
100
AcDbEntity
  8
0
100
AcDbLine
 62
7
  6
CONTINUOUS
 10
-50.537456716
 20
-22.4
 30
0.0
 11
-49.537456716
 21
-22.3941821702
 31
0.0
  0
LINE
  5
365
100
AcDbEntity
  8
DRAFT
100
AcDbLine
 62
7
  6
CONTINUOUS
 10
-39.0316389847
 20
-22.3330611106
 30
0.0
 11
-49.537456716
 21
-22.3941821702
 31
0.0
  0
LINE
  5
366
100
AcDbEntity
  8
0
100
AcDbLine
 62
250
  6
CONTINUOUS
 10
-50.537456716
 20
-21.900016923
 30
0.0
 11
-49.537456716
 21
-21.8941990932
 31
0.0
  0
LINE
  5
367
100
AcDbEntity
  8
DRAFT
100
AcDbLine
 62
7
  6
CONTINUOUS
 10
-48.037456716
 20
-20.85
 30
0.0
 11
-38.037456716
 21
-20.85
 31
0.0
  0
LINE
  5
368
100
AcDbEntity
  8
ASSI
100
AcDbLine
 62
7
  6
CONTINUOUS
 10
-48.037456716
 20
-20.85
 30
0.0
 11
-38.037456716
 21
-20.85
 31
0.0
  0
LINE
  5
369
100
AcDbEntity
  8
DRAFT
100
AcDbLine
 62
7
  6
CONTINUOUS
 10
-38.5287305128
 20
-21.4748046144
 30
0.0
 11
-48.037456716
 21
-21.4261825974
 31
0.0
  0
LINE
  5
36A
100
AcDbEntity
  8
DRAFT
100
AcDbLine
 62
7
  6
CONTINUOUS
 10
-38.037456716
 20
-20.9872686779
 30
0.0
 11
-48.037456716
 21
-20.9
 31
0.0
  0
LINE
  5
36B
100
AcDbEntity
  8
0
100
AcDbLine
 62
250
  6
CONTINUOUS
 10
-52.037456716
 20
-21.821159479
 30
0.0
 11
-50.5374338726
 21
-21.8997723451
 31
0.0
  0
LINE
  5
36C
100
AcDbEntity
  8
RACCORDO
100
AcDbLine
 62
250
  6
CONTINUOUS
 10
-57.0104973058
 20
-21.5417815306
 30
0.0
 11
-55.337456716
 21
-21.6294618725
 31
0.0
  0
LINE
  5
36D
100
AcDbEntity
  8
RACCORDO
100
AcDbLine
 62
7
  6
CONTINUOUS
 10
-52.8444324568
 20
-16.8155877964
 30
0.0
 11
-53.037456716
 21
-16.7041451884
 31
0.0
  0
LINE
  5
36E
100
AcDbEntity
  8
RACCORDO
100
AcDbLine
 62
250
  6
CONTINUOUS
 10
-31.5461829192
 20
-18.4978258681
 30
0.0
 11
-32.037456716
 21
-18.5235515162
 31
0.0
  0
LINE
  5
36F
100
AcDbEntity
  8
ASSI
100
AcDbLine
 62
250
  6
CONTINUOUS
 10
-31.5461829192
 20
-18.4978258681
 30
0.0
 11
-32.037456716
 21
-18.5235515162
 31
0.0
  0
LINE
  5
370
100
AcDbEntity
  8
RACCORDO
100
AcDbLine
 62
7
  6
CONTINUOUS
 10
-23.0200043096
 20
-19.3488485621
 30
0.0
 11
-38.037456716
 21
-19.6109791689
 31
0.0
  0
LINE
  5
371
100
AcDbEntity
  8
ASSI
100
AcDbLine
 62
7
  6
CONTINUOUS
 10
-23.0200043096
 20
-19.3488485621
 30
0.0
 11
-38.037456716
 21
-19.6109791689
 31
0.0
  0
LINE
  5
372
100
AcDbEntity
  8
RACCORDO
100
AcDbLine
 62
250
  6
CONTINUOUS
 10
-33.0200043096
 20
-19.2305506016
 30
0.0
 11
-38.037456716
 21
-19.3181305591
 31
0.0
  0
LINE
  5
373
100
AcDbEntity
  8
ASSI
100
AcDbLine
 62
250
  6
CONTINUOUS
 10
-33.0200043096
 20
-19.2305506016
 30
0.0
 11
-38.037456716
 21
-19.3181305591
 31
0.0
  0
LINE
  5
374
100
AcDbEntity
  8
RACCORDO
100
AcDbLine
 62
250
  6
CONTINUOUS
 10
-23.0200043096
 20
-18.3490008669
 30
0.0
 11
-31.5461829192
 21
-18.4978258681
 31
0.0
  0
LINE
  5
375
100
AcDbEntity
  8
ASSI
100
AcDbLine
 62
250
  6
CONTINUOUS
 10
-23.0200043096
 20
-18.3490008669
 30
0.0
 11
-31.5461829192
 21
-18.4978258681
 31
0.0
  0
LINE
  5
376
100
AcDbEntity
  8
RACCORDO
100
AcDbLine
 62
250
  6
CONTINUOUS
 10
-48.037456716
 20
-19.0856972195
 30
0.0
 11
-33.0200043096
 21
-18.9771191671
 31
0.0
  0
LINE
  5
377
100
AcDbEntity
  8
ASSI
100
AcDbLine
 62
250
  6
CONTINUOUS
 10
-48.037456716
 20
-19.0856972195
 30
0.0
 11
-33.0200043096
 21
-18.9771191671
 31
0.0
  0
LINE
  5
378
100
AcDbEntity
  8
DRAFT
100
AcDbLine
 62
7
  6
CONTINUOUS
 10
-53.637456716
 20
-20.45
 30
0.0
 11
-55.337456716
 21
-20.45
 31
0.0
  0
LINE
  5
379
100
AcDbEntity
  8
0
100
AcDbLine
 62
7
  6
CONTINUOUS
 10
-54.637456716
 20
-20.0
 30
0.0
 11
-53.637456716
 21
-20.0
 31
0.0
  0
LINE
  5
37A
100
AcDbEntity
  8
RACCORDO
100
AcDbLine
 62
250
  6
CONTINUOUS
 10
-52.037456716
 20
-19.4538008571
 30
0.0
 11
-52.437456716
 21
-19.4538008571
 31
0.0
  0
LINE
  5
37B
100
AcDbEntity
  8
RACCORDO
100
AcDbLine
 62
7
  6
CONTINUOUS
 10
-52.1426929778
 20
-19.9981630942
 30
0.0
 11
-52.037456716
 21
-20.0
 31
0.0
  0
LINE
  5
37C
100
AcDbEntity
  8
DRAFT
100
AcDbLine
 62
7
  6
CONTINUOUS
 10
-20.3113099932
 20
-15.0489817302
 30
0.0
 11
-22.037456716
 21
-15.2
 31
0.0
  0
LINE
  5
37D
100
AcDbEntity
  8
ASSI
100
AcDbLine
 62
7
  6
CONTINUOUS
 10
-20.3113099932
 20
-15.0489817302
 30
0.0
 11
-22.037456716
 21
-15.2
 31
0.0
  0
LINE
  5
37E
100
AcDbEntity
  8
DRAFT
100
AcDbLine
 62
7
  6
CONTINUOUS
 10
-52.9949532172
 20
-16.7286845949
 30
0.0
 11
-53.037456716
 21
-16.7290555173
 31
0.0
  0
LINE
  5
37F
100
AcDbEntity
  8
RACCORDO
100
AcDbLine
 62
250
  6
CONTINUOUS
 10
-48.037456716
 20
-17.6716990487
 30
0.0
 11
-33.0200043096
 21
-17.5631209963
 31
0.0
  0
LINE
  5
380
100
AcDbEntity
  8
ASSI
100
AcDbLine
 62
250
  6
CONTINUOUS
 10
-48.037456716
 20
-17.6716990487
 30
0.0
 11
-33.0200043096
 21
-17.5631209963
 31
0.0
  0
LINE
  5
381
100
AcDbEntity
  8
DRAFT
100
AcDbLine
 62
7
  6
CONTINUOUS
 10
-49.537456716
 20
-18.5268030066
 30
0.0
 11
-48.037456716
 21
-18.5213808261
 31
0.0
  0
LINE
  5
382
100
AcDbEntity
  8
RACCORDO
100
AcDbLine
 62
250
  6
CONTINUOUS
 10
-22.037456716
 20
-18.3490008669
 30
0.0
 11
-23.0200043096
 21
-18.3490008669
 31
0.0
  0
LINE
  5
383
100
AcDbEntity
  8
ASSI
100
AcDbLine
 62
250
  6
CONTINUOUS
 10
-22.037456716
 20
-18.3490008669
 30
0.0
 11
-23.0200043096
 21
-18.3490008669
 31
0.0
  0
LINE
  5
384
100
AcDbEntity
  8
RACCORDO
100
AcDbLine
 62
250
  6
CONTINUOUS
 10
-33.0200043096
 20
-17.5631209963
 30
0.0
 11
-32.037456716
 21
-17.5631209963
 31
0.0
  0
LINE
  5
385
100
AcDbEntity
  8
ASSI
100
AcDbLine
 62
250
  6
CONTINUOUS
 10
-33.0200043096
 20
-17.5631209963
 30
0.0
 11
-32.037456716
 21
-17.5631209963
 31
0.0
  0
LINE
  5
386
100
AcDbEntity
  8
RACCORDO
100
AcDbLine
 62
7
  6
CONTINUOUS
 10
-52.8444324568
 20
-16.8155877964
 30
0.0
 11
-52.1426924379
 21
-16.827836714
 31
0.0
  0
LINE
  5
387
100
AcDbEntity
  8
RACCORDO
100
AcDbLine
 62
7
  6
CONTINUOUS
 10
-55.337456716
 20
22.1294621076
 30
0.0
 11
-55.337456716
 21
17.6162831426
 31
0.0
  0
LINE
  5
388
100
AcDbEntity
  8
RACCORDO
100
AcDbLine
 62
7
  6
CONTINUOUS
 10
-55.337456716
 20
-17.6162831426
 30
0.0
 11
-55.337456716
 21
-22.1294621076
 31
0.0
  0
LINE
  5
389
100
AcDbEntity
  8
DRAFT
100
AcDbLine
 62
7
  6
CONTINUOUS
 10
-54.637456716
 20
20.45
 30
0.0
 11
-54.637456716
 21
20.0
 31
0.0
  0
LINE
  5
38A
100
AcDbEntity
  8
DRAFT
100
AcDbLine
 62
7
  6
CONTINUOUS
 10
-54.637456716
 20
-20.45
 30
0.0
 11
-54.637456716
 21
-20.0
 31
0.0
  0
LINE
  5
38B
100
AcDbEntity
  8
0
100
AcDbLine
 62
250
  6
CONTINUOUS
 10
-45.937456716
 20
-15.3974285445
 30
0.0
 11
-44.037456716
 21
-15.3974285445
 31
0.0
  0
LINE
  5
38C
100
AcDbEntity
  8
0
100
AcDbLine
 62
250
  6
CONTINUOUS
 10
-44.5803138831
 20
-14.794857089
 30
0.0
 11
-45.3945996055
 21
-14.794857089
 31
0.0
  0
LINE
  5
38D
100
AcDbEntity
  8
0
100
AcDbLine
 62
250
  6
CONTINUOUS
 10
-45.3945996055
 20
-14.794857089
 30
0.0
 11
-45.6660281608
 21
-14.6442143037
 31
0.0
  0
LINE
  5
38E
100
AcDbEntity
  8
0
100
AcDbLine
 62
250
  6
CONTINUOUS
 10
-44.5803138831
 20
-13.7403572147
 30
0.0
 11
-44.3088852996
 21
-13.891
 31
0.0
  0
LINE
  5
38F
100
AcDbEntity
  8
0
100
AcDbLine
 62
250
  6
CONTINUOUS
 10
-45.3945996055
 20
-16.0
 30
0.0
 11
-45.937456716
 21
-15.3974285445
 31
0.0
  0
LINE
  5
390
100
AcDbEntity
  8
0
100
AcDbLine
 62
250
  6
CONTINUOUS
 10
-45.6660281608
 20
-14.6442143037
 30
0.0
 11
-45.937456716
 21
-14.3429286073
 31
0.0
  0
LINE
  5
391
100
AcDbEntity
  8
DRAFT
100
AcDbLine
 62
7
  6
CONTINUOUS
 10
-53.637456716
 20
-20.45
 30
0.0
 11
-53.637456716
 21
-20.0
 31
0.0
  0
LINE
  5
392
100
AcDbEntity
  8
0
100
AcDbLine
 62
7
  6
CONTINUOUS
 10
-53.637456716
 20
-20.0
 30
0.0
 11
-53.637456716
 21
-17.1607695155
 31
0.0
  0
LINE
  5
393
100
AcDbEntity
  8
0
100
AcDbLine
 62
7
  6
CONTINUOUS
 10
-53.637456716
 20
17.1607695155
 30
0.0
 11
-53.637456716
 21
20.0
 31
0.0
  0
LINE
  5
394
100
AcDbEntity
  8
DRAFT
100
AcDbLine
 62
7
  6
CONTINUOUS
 10
-53.637456716
 20
20.0
 30
0.0
 11
-53.637456716
 21
20.45
 31
0.0
  0
LINE
  5
395
100
AcDbEntity
  8
DRAFT
100
AcDbLine
 62
7
  6
CONTINUOUS
 10
-53.037456716
 20
17.0
 30
0.0
 11
-53.037456716
 21
-17.0
 31
0.0
  0
LINE
  5
396
100
AcDbEntity
  8
0
100
AcDbLine
 62
7
  6
CONTINUOUS
 10
-53.037456716
 20
-24.2369056521
 30
0.0
 11
-53.037456716
 21
-23.8443375673
 31
0.0
  0
LINE
  5
397
100
AcDbEntity
  8
0
100
AcDbLine
 62
7
  6
CONTINUOUS
 10
-53.037456716
 20
23.8443375673
 30
0.0
 11
-53.037456716
 21
24.2369056521
 31
0.0
  0
LINE
  5
398
100
AcDbEntity
  8
DRAFT
100
AcDbLine
 62
7
  6
CONTINUOUS
 10
-52.9022419301
 20
0.6
 30
0.0
 11
-52.9022419301
 21
-0.6
 31
0.0
  0
LINE
  5
399
100
AcDbEntity
  8
0
100
AcDbLine
 62
250
  6
CONTINUOUS
 10
-52.7889111489
 20
-24.2369056521
 30
0.0
 11
-52.7889111489
 21
-23.8443375673
 31
0.0
  0
LINE
  5
39A
100
AcDbEntity
  8
0
100
AcDbLine
 62
250
  6
CONTINUOUS
 10
-52.7889111489
 20
23.8443375673
 30
0.0
 11
-52.7889111489
 21
24.2369056521
 31
0.0
  0
LINE
  5
39B
100
AcDbEntity
  8
RACCORDO
100
AcDbLine
 62
7
  6
CONTINUOUS
 10
-52.437456716
 20
19.6981990455
 30
0.0
 11
-52.437456716
 21
16.8226915844
 31
0.0
  0
LINE
  5
39C
100
AcDbEntity
  8
RACCORDO
100
AcDbLine
 62
7
  6
CONTINUOUS
 10
-52.437456716
 20
3.4
 30
0.0
 11
-52.437456716
 21
2.7500073664
 31
0.0
  0
LINE
  5
39D
100
AcDbEntity
  8
RACCORDO
100
AcDbLine
 62
7
  6
CONTINUOUS
 10
-52.437456716
 20
-2.7500073664
 30
0.0
 11
-52.437456716
 21
-3.4
 31
0.0
  0
LINE
  5
39E
100
AcDbEntity
  8
RACCORDO
100
AcDbLine
 62
7
  6
CONTINUOUS
 10
-52.437456716
 20
-19.6981990456
 30
0.0
 11
-52.437456716
 21
-16.8226915844
 31
0.0
  0
LINE
  5
39F
100
AcDbEntity
  8
RACCORDO
100
AcDbLine
 62
250
  6
CONTINUOUS
 10
-52.1426924379
 20
3.4
 30
0.0
 11
-52.1426924379
 21
2.4066200504
 31
0.0
  0
LINE
  5
3A0
100
AcDbEntity
  8
RACCORDO
100
AcDbLine
 62
250
  6
CONTINUOUS
 10
-52.1426924379
 20
-2.4066200504
 30
0.0
 11
-52.1426924379
 21
-3.4
 31
0.0
  0
LINE
  5
3A1
100
AcDbEntity
  8
RACCORDO
100
AcDbLine
 62
250
  6
CONTINUOUS
 10
-52.1426926284
 20
19.9981431542
 30
0.0
 11
-52.1426924379
 21
16.827836714
 31
0.0
  0
LINE
  5
3A2
100
AcDbEntity
  8
RACCORDO
100
AcDbLine
 62
250
  6
CONTINUOUS
 10
-52.1426924379
 20
-16.827836714
 30
0.0
 11
-52.1426926284
 21
-19.9981431543
 31
0.0
  0
LINE
  5
3A3
100
AcDbEntity
  8
RACCORDO
100
AcDbLine
 62
7
  6
CONTINUOUS
 10
-52.037456716
 20
21.821159479
 30
0.0
 11
-52.037456716
 21
18.4150826109
 31
0.0
  0
LINE
  5
3A4
100
AcDbEntity
  8
RACCORDO
100
AcDbLine
 62
7
  6
CONTINUOUS
 10
-52.037456716
 20
-18.4150826109
 30
0.0
 11
-52.037456716
 21
-21.821159479
 31
0.0
  0
LINE
  5
3A5
100
AcDbEntity
  8
0
100
AcDbLine
 62
7
  6
CONTINUOUS
 10
-52.037456716
 20
-21.821159479
 30
0.0
 11
-52.037456716
 21
-23.1226497308
 31
0.0
  0
LINE
  5
3A6
100
AcDbEntity
  8
0
100
AcDbLine
 62
7
  6
CONTINUOUS
 10
-52.037456716
 20
21.821159479
 30
0.0
 11
-52.037456716
 21
23.1226497308
 31
0.0
  0
LINE
  5
3A7
100
AcDbEntity
  8
0
100
AcDbLine
 62
250
  6
CONTINUOUS
 10
-51.7889111489
 20
-23.2669872981
 30
0.0
 11
-51.7889111489
 21
-22.3344140523
 31
0.0
  0
LINE
  5
3A8
100
AcDbEntity
  8
0
100
AcDbLine
 62
250
  6
CONTINUOUS
 10
-51.7889111489
 20
22.3344140523
 30
0.0
 11
-51.7889111489
 21
23.2669872981
 31
0.0
  0
LINE
  5
3A9
100
AcDbEntity
  8
0
100
AcDbLine
 62
250
  6
CONTINUOUS
 10
-41.437456716
 20
16.135714
 30
0.0
 11
-41.166027716
 21
16.407143
 31
0.0
  0
LINE
  5
3AA
100
AcDbEntity
  8
RACCORDO
100
AcDbLine
 62
7
  6
CONTINUOUS
 10
-53.037456716
 20
8.3430524612
 30
0.0
 11
-52.8444324568
 21
8.4544950692
 31
0.0
  0
LINE
  5
3AB
100
AcDbEntity
  8
DRAFT
100
AcDbLine
 62
7
  6
CONTINUOUS
 10
-50.487456716
 20
-17.6160978686
 30
0.0
 11
-50.237456716
 21
-17.5491105705
 31
0.0
  0
LINE
  5
3AC
100
AcDbEntity
  8
RACCORDO
100
AcDbLine
 62
7
  6
CONTINUOUS
 10
-50.487456716
 20
-17.6160978686
 30
0.0
 11
-51.6668662386
 21
-17.9321196977
 31
0.0
  0
LINE
  5
3AD
100
AcDbEntity
  8
DRAFT
100
AcDbLine
 62
7
  6
CONTINUOUS
 10
-53.037456716
 20
-17.0
 30
0.0
 11
-55.337456716
 21
-17.6162831426
 31
0.0
  0
LINE
  5
3AE
100
AcDbEntity
  8
SMUSSO
100
AcDbLine
 62
7
  6
CONTINUOUS
 10
-50.237456716
 20
-13.5
 30
0.0
 11
-52.8444324568
 21
-13.5455049308
 31
0.0
  0
LINE
  5
3AF
100
AcDbEntity
  8
0
100
AcDbLine
 62
250
  6
CONTINUOUS
 10
-45.3945996055
 20
-13.7403572147
 30
0.0
 11
-44.5803138831
 21
-13.7403572147
 31
0.0
  0
LINE
  5
3B0
100
AcDbEntity
  8
RACCORDO
100
AcDbLine
 62
7
  6
CONTINUOUS
 10
-50.237456716
 20
-12.55
 30
0.0
 11
-53.037456716
 21
-12.55
 31
0.0
  0
LINE
  5
3B1
100
AcDbEntity
  8
0
100
AcDbLine
 62
250
  6
CONTINUOUS
 10
-44.037456716
 20
-13.137785822
 30
0.0
 11
-45.937456716
 21
-12.535214178
 31
0.0
  0
LINE
  5
3B2
100
AcDbEntity
  8
RACCORDO
100
AcDbLine
 62
7
  6
CONTINUOUS
 10
-53.037456716
 20
-8.3430524612
 30
0.0
 11
-52.8444324568
 21
-8.4544950692
 31
0.0
  0
LINE
  5
3B3
100
AcDbEntity
  8
0
100
AcDbLine
 62
250
  6
CONTINUOUS
 10
-44.3088852996
 20
-13.891
 30
0.0
 11
-44.037456716
 21
-14.1922856963
 31
0.0
  0
LINE
  5
3B4
100
AcDbEntity
  8
DRAFT
100
AcDbLine
 62
7
  6
CONTINUOUS
 10
-51.037456716
 20
2.0523651948
 30
0.0
 11
-51.037456716
 21
-2.0523651948
 31
0.0
  0
LINE
  5
3B5
100
AcDbEntity
  8
0
100
AcDbLine
 62
7
  6
CONTINUOUS
 10
-50.537456716
 20
-21.900016923
 30
0.0
 11
-50.537456716
 21
-24.5
 31
0.0
  0
LINE
  5
3B6
100
AcDbEntity
  8
0
100
AcDbLine
 62
7
  6
CONTINUOUS
 10
-50.537456716
 20
21.900016923
 30
0.0
 11
-50.537456716
 21
24.5
 31
0.0
  0
LINE
  5
3B7
100
AcDbEntity
  8
DRAFT
100
AcDbLine
 62
7
  6
CONTINUOUS
 10
-50.237456716
 20
17.5491105705
 30
0.0
 11
-50.237456716
 21
-17.5491105705
 31
0.0
  0
LINE
  5
3B8
100
AcDbEntity
  8
0
100
AcDbLine
 62
250
  6
CONTINUOUS
 10
-49.7860022832
 20
24.2456323968
 30
0.0
 11
-49.7860022832
 21
23.8443375673
 31
0.0
  0
LINE
  5
3B9
100
AcDbEntity
  8
0
100
AcDbLine
 62
250
  6
CONTINUOUS
 10
-49.7860022832
 20
-23.8443375673
 30
0.0
 11
-49.7860022832
 21
-24.2456323968
 31
0.0
  0
LINE
  5
3BA
100
AcDbEntity
  8
0
100
AcDbLine
 62
250
  6
CONTINUOUS
 10
-45.937456716
 20
-9.3717144294
 30
0.0
 11
-45.5303138265
 21
-9.673
 31
0.0
  0
LINE
  5
3BB
100
AcDbEntity
  8
0
100
AcDbLine
 62
250
  6
CONTINUOUS
 10
-44.037456716
 20
-9.673
 30
0.0
 11
-45.3945996055
 21
-8.6185
 31
0.0
  0
LINE
  5
3BC
100
AcDbEntity
  8
0
100
AcDbLine
 62
7
  6
CONTINUOUS
 10
-49.537456716
 20
24.2456323968
 30
0.0
 11
-49.537456716
 21
23.8443375673
 31
0.0
  0
LINE
  5
3BD
100
AcDbEntity
  8
0
100
AcDbLine
 62
7
  6
CONTINUOUS
 10
-49.537456716
 20
22.3941821702
 30
0.0
 11
-49.537456716
 21
21.8941990932
 31
0.0
  0
LINE
  5
3BE
100
AcDbEntity
  8
DRAFT
100
AcDbLine
 62
7
  6
CONTINUOUS
 10
-49.537456716
 20
21.8941990932
 30
0.0
 11
-49.537456716
 21
18.5268030066
 31
0.0
  0
LINE
  5
3BF
100
AcDbEntity
  8
DRAFT
100
AcDbLine
 62
7
  6
CONTINUOUS
 10
-49.537456716
 20
-18.5268030066
 30
0.0
 11
-49.537456716
 21
-21.8941990932
 31
0.0
  0
LINE
  5
3C0
100
AcDbEntity
  8
0
100
AcDbLine
 62
7
  6
CONTINUOUS
 10
-49.537456716
 20
-21.8941990932
 30
0.0
 11
-49.537456716
 21
-22.3941821702
 31
0.0
  0
LINE
  5
3C1
100
AcDbEntity
  8
0
100
AcDbLine
 62
7
  6
CONTINUOUS
 10
-49.537456716
 20
-23.8443375673
 30
0.0
 11
-49.537456716
 21
-24.2456323968
 31
0.0
  0
LINE
  5
3C2
100
AcDbEntity
  8
RACCORDO
100
AcDbLine
 62
7
  6
CONTINUOUS
 10
-48.037456716
 20
20.85
 30
0.0
 11
-48.037456716
 21
19.0856972195
 31
0.0
  0
LINE
  5
3C3
100
AcDbEntity
  8
ASSI
100
AcDbLine
 62
7
  6
CONTINUOUS
 10
-48.037456716
 20
20.85
 30
0.0
 11
-48.037456716
 21
19.0856972195
 31
0.0
  0
LINE
  5
3C4
100
AcDbEntity
  8
DRAFT
100
AcDbLine
 62
7
  6
CONTINUOUS
 10
-48.037456716
 20
21.4261825974
 30
0.0
 11
-48.037456716
 21
17.6716990487
 31
0.0
  0
LINE
  5
3C5
100
AcDbEntity
  8
RACCORDO
100
AcDbLine
 62
7
  6
CONTINUOUS
 10
-48.037456716
 20
-19.0856972195
 30
0.0
 11
-48.037456716
 21
-20.85
 31
0.0
  0
LINE
  5
3C6
100
AcDbEntity
  8
DRAFT
100
AcDbLine
 62
7
  6
CONTINUOUS
 10
-48.037456716
 20
-17.6716990487
 30
0.0
 11
-48.037456716
 21
-21.4261825974
 31
0.0
  0
LINE
  5
3C7
100
AcDbEntity
  8
ASSI
100
AcDbLine
 62
7
  6
CONTINUOUS
 10
-48.037456716
 20
-20.85
 30
0.0
 11
-48.037456716
 21
-18.6335212724
 31
0.0
  0
LINE
  5
3C8
100
AcDbEntity
  8
RACCORDO
100
AcDbLine
 62
7
  6
CONTINUOUS
 10
-48.037456716
 20
-17.9626505188
 30
0.0
 11
-48.037456716
 21
17.9626505188
 31
0.0
  0
LINE
  5
3C9
100
AcDbEntity
  8
ASSI
100
AcDbLine
 62
7
  6
CONTINUOUS
 10
-48.037456716
 20
-17.9626505188
 30
0.0
 11
-48.037456716
 21
17.9626505188
 31
0.0
  0
LINE
  5
3CA
100
AcDbEntity
  8
RACCORDO
100
AcDbLine
 62
250
  6
CONTINUOUS
 10
-58.4603773018
 20
-9.4905
 30
0.0
 11
-58.9471985319
 21
-9.4999999993
 31
0.0
  0
LINE
  5
3CB
100
AcDbEntity
  8
RACCORDO
100
AcDbLine
 62
250
  6
CONTINUOUS
 10
-31.5461829192
 20
-9.4913486316
 30
0.0
 11
-23.0200043096
 21
-9.3425236303
 31
0.0
  0
LINE
  5
3CC
100
AcDbEntity
  8
ASSI
100
AcDbLine
 62
250
  6
CONTINUOUS
 10
-31.5461829192
 20
-9.4913486316
 30
0.0
 11
-23.0200043096
 21
-9.3425236303
 31
0.0
  0
LINE
  5
3CD
100
AcDbEntity
  8
RACCORDO
100
AcDbLine
 62
7
  6
CONTINUOUS
 10
-31.5461829192
 20
-8.991424784
 30
0.0
 11
-23.0200043096
 21
-8.8425997828
 31
0.0
  0
LINE
  5
3CE
100
AcDbEntity
  8
ASSI
100
AcDbLine
 62
7
  6
CONTINUOUS
 10
-31.5461829192
 20
-8.991424784
 30
0.0
 11
-23.0200043096
 21
-8.8425997828
 31
0.0
  0
LINE
  5
3CF
100
AcDbEntity
  8
RACCORDO
100
AcDbLine
 62
250
  6
CONTINUOUS
 10
-31.5461829192
 20
-7.9915770888
 30
0.0
 11
-23.0200043096
 21
-7.8427520876
 31
0.0
  0
LINE
  5
3D0
100
AcDbEntity
  8
ASSI
100
AcDbLine
 62
250
  6
CONTINUOUS
 10
-31.5461829192
 20
-7.9915770888
 30
0.0
 11
-23.0200043096
 21
-7.8427520876
 31
0.0
  0
LINE
  5
3D1
100
AcDbEntity
  8
RACCORDO
100
AcDbLine
 62
250
  6
CONTINUOUS
 10
-33.0200043096
 20
-9.4913486316
 30
0.0
 11
-31.5461829192
 21
-9.4913486316
 31
0.0
  0
LINE
  5
3D2
100
AcDbEntity
  8
ASSI
100
AcDbLine
 62
250
  6
CONTINUOUS
 10
-33.0200043096
 20
-9.4913486316
 30
0.0
 11
-31.5461829192
 21
-9.4913486316
 31
0.0
  0
LINE
  5
3D3
100
AcDbEntity
  8
RACCORDO
100
AcDbLine
 62
250
  6
CONTINUOUS
 10
-22.037456716
 20
-9.3425236303
 30
0.0
 11
-23.0200043096
 21
-9.3425236303
 31
0.0
  0
LINE
  5
3D4
100
AcDbEntity
  8
ASSI
100
AcDbLine
 62
250
  6
CONTINUOUS
 10
-22.037456716
 20
-9.3425236303
 30
0.0
 11
-23.0200043096
 21
-9.3425236303
 31
0.0
  0
LINE
  5
3D5
100
AcDbEntity
  8
RACCORDO
100
AcDbLine
 62
7
  6
CONTINUOUS
 10
-50.237456716
 20
-8.65
 30
0.0
 11
-53.037456716
 21
-8.65
 31
0.0
  0
LINE
  5
3D6
100
AcDbEntity
  8
0
100
AcDbLine
 62
250
  6
CONTINUOUS
 10
-45.3945996055
 20
-8.6185
 30
0.0
 11
-45.6660281608
 21
-8.6185
 31
0.0
  0
LINE
  5
3D7
100
AcDbEntity
  8
SMUSSO
100
AcDbLine
 62
7
  6
CONTINUOUS
 10
-52.8444324568
 20
-8.4544950692
 30
0.0
 11
-50.237456716
 21
-8.5
 31
0.0
  0
LINE
  5
3D8
100
AcDbEntity
  8
0
100
AcDbLine
 62
250
  6
CONTINUOUS
 10
-45.3945996055
 20
-6.5095
 30
0.0
 11
-45.6660281608
 21
-6.3588567119
 31
0.0
  0
LINE
  5
3D9
100
AcDbEntity
  8
0
100
AcDbLine
 62
250
  6
CONTINUOUS
 10
-45.6660281608
 20
-6.3588567119
 30
0.0
 11
-45.937456716
 21
-6.0575711412
 31
0.0
  0
LINE
  5
3DA
100
AcDbEntity
  8
0
100
AcDbLine
 62
250
  6
CONTINUOUS
 10
-44.3088852996
 20
-7.1120711412
 30
0.0
 11
-44.037456716
 21
-7.4133567119
 31
0.0
  0
LINE
  5
3DB
100
AcDbEntity
  8
0
100
AcDbLine
 62
250
  6
CONTINUOUS
 10
-47.037456716
 20
10.057143
 30
0.0
 11
-47.037456716
 21
12.057143
 31
0.0
  0
LINE
  5
3DC
100
AcDbEntity
  8
0
100
AcDbLine
 62
250
  6
CONTINUOUS
 10
-45.937456716
 20
-7.1120711412
 30
0.0
 11
-45.937456716
 21
-8.0159283559
 31
0.0
  0
LINE
  5
3DD
100
AcDbEntity
  8
0
100
AcDbLine
 62
250
  6
CONTINUOUS
 10
-45.937456716
 20
-8.9197855706
 30
0.0
 11
-45.937456716
 21
-9.3717144294
 31
0.0
  0
LINE
  5
3DE
100
AcDbEntity
  8
0
100
AcDbLine
 62
250
  6
CONTINUOUS
 10
-45.937456716
 20
-14.3429286073
 30
0.0
 11
-45.937456716
 21
-14.1922856963
 31
0.0
  0
LINE
  5
3DF
100
AcDbEntity
  8
0
100
AcDbLine
 62
250
  6
CONTINUOUS
 10
-45.937456716
 20
-6.0575711412
 30
0.0
 11
-45.937456716
 21
-5.9069288588
 31
0.0
  0
LINE
  5
3E0
100
AcDbEntity
  8
DRAFT
100
AcDbLine
 62
7
  6
CONTINUOUS
 10
-20.3113099932
 20
-4.6489817302
 30
0.0
 11
-22.037456716
 21
-4.8
 31
0.0
  0
LINE
  5
3E1
100
AcDbEntity
  8
ASSI
100
AcDbLine
 62
7
  6
CONTINUOUS
 10
-20.3113099932
 20
-4.6489817302
 30
0.0
 11
-22.037456716
 21
-4.8
 31
0.0
  0
LINE
  5
3E2
100
AcDbEntity
  8
0
100
AcDbLine
 62
250
  6
CONTINUOUS
 10
-45.937456716
 20
-8.0159283559
 30
0.0
 11
-45.1231710503
 21
-8.0159283559
 31
0.0
  0
LINE
  5
3E3
100
AcDbEntity
  8
RACCORDO
100
AcDbLine
 62
250
  6
CONTINUOUS
 10
-23.0200043096
 20
-7.8427520876
 30
0.0
 11
-22.037456716
 21
-7.8427520876
 31
0.0
  0
LINE
  5
3E4
100
AcDbEntity
  8
ASSI
100
AcDbLine
 62
250
  6
CONTINUOUS
 10
-23.0200043096
 20
-7.8427520876
 30
0.0
 11
-22.037456716
 21
-7.8427520876
 31
0.0
  0
LINE
  5
3E5
100
AcDbEntity
  8
0
100
AcDbLine
 62
250
  6
CONTINUOUS
 10
-44.8517424384
 20
-7.1120711412
 30
0.0
 11
-44.3088852996
 21
-7.1120711412
 31
0.0
  0
LINE
  5
3E6
100
AcDbEntity
  8
0
100
AcDbLine
 62
250
  6
CONTINUOUS
 10
-44.5803138831
 20
-6.5095
 30
0.0
 11
-45.3945996055
 21
-6.5095
 31
0.0
  0
LINE
  5
3E7
100
AcDbEntity
  8
DRAFT
100
AcDbLine
 62
7
  6
CONTINUOUS
 10
-20.3113099932
 20
-9.1510182698
 30
0.0
 11
-22.037456716
 21
-9.0
 31
0.0
  0
LINE
  5
3E8
100
AcDbEntity
  8
ASSI
100
AcDbLine
 62
7
  6
CONTINUOUS
 10
-20.3113099932
 20
-9.1510182698
 30
0.0
 11
-22.037456716
 21
-9.0
 31
0.0
  0
LINE
  5
3E9
100
AcDbEntity
  8
0
100
AcDbLine
 62
250
  6
CONTINUOUS
 10
-44.5803138831
 20
-5.455
 30
0.0
 11
-44.3088852996
 21
-5.6056432881
 31
0.0
  0
LINE
  5
3EA
100
AcDbEntity
  8
0
100
AcDbLine
 62
250
  6
CONTINUOUS
 10
-44.3088852996
 20
-5.6056432881
 30
0.0
 11
-44.037456716
 21
-5.9069288588
 31
0.0
  0
LINE
  5
3EB
100
AcDbEntity
  8
0
100
AcDbLine
 62
250
  6
CONTINUOUS
 10
-45.1231710503
 20
-8.0159283559
 30
0.0
 11
-45.1231710503
 21
-7.4133567119
 31
0.0
  0
LINE
  5
3EC
100
AcDbEntity
  8
0
100
AcDbLine
 62
250
  6
CONTINUOUS
 10
-44.5803138831
 20
-12.1334999162
 30
0.0
 11
-44.5803138831
 21
-12.9369286911
 31
0.0
  0
LINE
  5
3ED
100
AcDbEntity
  8
0
100
AcDbLine
 62
250
  6
CONTINUOUS
 10
-44.037456716
 20
14.957143
 30
0.0
 11
-44.037456716
 21
12.457143
 31
0.0
  0
LINE
  5
3EE
100
AcDbEntity
  8
0
100
AcDbLine
 62
250
  6
CONTINUOUS
 10
-44.037456716
 20
8.447635
 30
0.0
 11
-44.037456716
 21
5.957143
 31
0.0
  0
LINE
  5
3EF
100
AcDbEntity
  8
0
100
AcDbLine
 62
250
  6
CONTINUOUS
 10
-44.037456716
 20
4.135714
 30
0.0
 11
-44.037456716
 21
3.457143
 31
0.0
  0
LINE
  5
3F0
100
AcDbEntity
  8
0
100
AcDbLine
 62
250
  6
CONTINUOUS
 10
-44.037456716
 20
-5.9069288588
 30
0.0
 11
-44.037456716
 21
-6.0575711412
 31
0.0
  0
LINE
  5
3F1
100
AcDbEntity
  8
0
100
AcDbLine
 62
250
  6
CONTINUOUS
 10
-44.037456716
 20
-7.4133567119
 30
0.0
 11
-44.037456716
 21
-8.0159283559
 31
0.0
  0
LINE
  5
3F2
100
AcDbEntity
  8
0
100
AcDbLine
 62
250
  6
CONTINUOUS
 10
-44.037456716
 20
-8.6185
 30
0.0
 11
-44.037456716
 21
-9.673
 31
0.0
  0
LINE
  5
3F3
100
AcDbEntity
  8
0
100
AcDbLine
 62
250
  6
CONTINUOUS
 10
-44.037456716
 20
-14.1922856963
 30
0.0
 11
-44.037456716
 21
-14.3429286073
 31
0.0
  0
LWPOLYLINE
  5
3F4
100
AcDbEntity
  8
0
100
AcDbPolyline
 62
7
  6
CONTINUOUS
 90
3
 70
0
 43
0.3500000087
 10
-33.6445992783
 20
33.5357146454
 10
-33.716028833
 20
33.3214281128
 10
-33.8588858109
 20
33.0357141571
  0
LINE
  5
3F5
100
AcDbEntity
  8
0
100
AcDbLine
 62
250
  6
CONTINUOUS
 10
-41.437456716
 20
5.357143
 30
0.0
 11
-41.166027716
 21
5.628571
 31
0.0
  0
LINE
  5
3F6
100
AcDbEntity
  8
RACCORDO
100
AcDbLine
 62
7
  6
CONTINUOUS
 10
-52.287456716
 20
-2.4901997453
 30
0.0
 11
-51.5444324568
 21
-2.0612144893
 31
0.0
  0
LINE
  5
3F7
100
AcDbEntity
  8
0
100
AcDbLine
 62
250
  6
CONTINUOUS
 10
-45.3945996055
 20
-5.455
 30
0.0
 11
-44.5803138831
 21
-5.455
 31
0.0
  0
LINE
  5
3F8
100
AcDbEntity
  8
0
100
AcDbLine
 62
250
  6
CONTINUOUS
 10
-34.504911716
 20
-4.455622
 30
0.0
 11
-35.570001716
 21
-4.455622
 31
0.0
  0
LINE
  5
3F9
100
AcDbEntity
  8
0
100
AcDbLine
 62
250
  6
CONTINUOUS
 10
-45.937456716
 20
-3.6472855706
 30
0.0
 11
-44.037456716
 21
-4.2498567119
 31
0.0
  0
LINE
  5
3FA
100
AcDbEntity
  8
RACCORDO
100
AcDbLine
 62
7
  6
CONTINUOUS
 10
-51.5444324568
 20
2.0612144893
 30
0.0
 11
-52.287456716
 21
2.4901997453
 31
0.0
  0
LINE
  5
3FB
100
AcDbEntity
  8
0
100
AcDbLine
 62
250
  6
CONTINUOUS
 10
-44.6255519757
 20
-3.0447144294
 30
0.0
 11
-44.7612662533
 21
-2.6932147646
 31
0.0
  0
LINE
  5
3FC
100
AcDbEntity
  8
0
100
AcDbLine
 62
250
  6
CONTINUOUS
 10
-44.4898376697
 20
-2.2915
 30
0.0
 11
-44.6255519757
 21
-1.8897852354
 31
0.0
  0
LINE
  5
3FD
100
AcDbEntity
  8
0
100
AcDbLine
 62
7
  6
CONTINUOUS
 10
-43.037456716
 20
-23.4413184673
 30
0.0
 11
-43.037456716
 21
-22.8586815327
 31
0.0
  0
LINE
  5
3FE
100
AcDbEntity
  8
0
100
AcDbLine
 62
7
  6
CONTINUOUS
 10
-43.037456716
 20
22.8586815327
 30
0.0
 11
-43.037456716
 21
23.4413184673
 31
0.0
  0
LINE
  5
3FF
100
AcDbEntity
  8
0
100
AcDbLine
 62
250
  6
CONTINUOUS
 10
-42.9878637452
 20
-23.9538922731
 30
0.0
 11
-42.9878637452
 21
-22.356077753
 31
0.0
  0
LINE
  5
400
100
AcDbEntity
  8
0
100
AcDbLine
 62
250
  6
CONTINUOUS
 10
-42.9878637452
 20
22.356077753
 30
0.0
 11
-42.9878637452
 21
23.9538922731
 31
0.0
  0
LINE
  5
401
100
AcDbEntity
  8
0
100
AcDbLine
 62
7
  6
CONTINUOUS
 10
-42.537456716
 20
-23.4563578147
 30
0.0
 11
-42.537456716
 21
-22.3534573615
 31
0.0
  0
LINE
  5
402
100
AcDbEntity
  8
0
100
AcDbLine
 62
7
  6
CONTINUOUS
 10
-42.537456716
 20
22.3534573615
 30
0.0
 11
-42.537456716
 21
23.4563578147
 31
0.0
  0
LINE
  5
403
100
AcDbEntity
  8
0
100
AcDbLine
 62
250
  6
CONTINUOUS
 10
-41.437456716
 20
4.95
 30
0.0
 11
-41.437456716
 21
5.357143
 31
0.0
  0
LINE
  5
404
100
AcDbEntity
  8
0
100
AcDbLine
 62
250
  6
CONTINUOUS
 10
-41.437456716
 20
15.728571
 30
0.0
 11
-41.437456716
 21
16.135714
 31
0.0
  0
LINE
  5
405
100
AcDbEntity
  8
0
100
AcDbLine
 62
7
  6
CONTINUOUS
 10
-38.265829716
 20
12.757143
 30
0.0
 11
-39.537456716
 21
8.447635
 31
0.0
  0
LINE
  5
406
100
AcDbEntity
  8
0
100
AcDbLine
 62
250
  6
CONTINUOUS
 10
-44.7612662533
 20
-2.6932147646
 30
0.0
 11
-44.4898376697
 21
-2.2915
 31
0.0
  0
LINE
  5
407
100
AcDbEntity
  8
RACCORDO
100
AcDbLine
 62
7
  6
CONTINUOUS
 10
-53.037456716
 20
-3.4958548116
 30
0.0
 11
-52.8714313122
 21
-3.4
 31
0.0
  0
LINE
  5
408
100
AcDbEntity
  8
SMUSSO
100
AcDbLine
 62
7
  6
CONTINUOUS
 10
-51.037456716
 20
-2.0523651948
 30
0.0
 11
-51.5444324568
 21
-2.0612144893
 31
0.0
  0
LINE
  5
409
100
AcDbEntity
  8
RACCORDO
100
AcDbLine
 62
7
  6
CONTINUOUS
 10
-52.1426924379
 20
-3.4
 30
0.0
 11
-52.8714313122
 21
-3.4
 31
0.0
  0
LINE
  5
40A
100
AcDbEntity
  8
0
100
AcDbLine
 62
250
  6
CONTINUOUS
 10
-34.504911716
 20
-2.34142
 30
0.0
 11
-35.570001716
 21
-2.34142
 31
0.0
  0
LINE
  5
40B
100
AcDbEntity
  8
DRAFT
100
AcDbLine
 62
7
  6
CONTINUOUS
 10
-53.0172886759
 20
-3.4842107882
 30
0.0
 11
-53.037456716
 21
-3.4840347844
 31
0.0
  0
LINE
  5
40C
100
AcDbEntity
  8
RACCORDO
100
AcDbLine
 62
7
  6
CONTINUOUS
 10
-53.037456716
 20
3.4958548116
 30
0.0
 11
-52.8714313122
 21
3.4
 31
0.0
  0
LINE
  5
40D
100
AcDbEntity
  8
0
100
AcDbLine
 62
7
  6
CONTINUOUS
 10
-45.309083716
 20
12.757143
 30
0.0
 11
-44.037456716
 21
8.447635
 31
0.0
  0
LINE
  5
40E
100
AcDbEntity
  8
0
100
AcDbLine
 62
250
  6
CONTINUOUS
 10
-39.537456716
 20
8.447635
 30
0.0
 11
-39.537456716
 21
5.957143
 31
0.0
  0
LINE
  5
40F
100
AcDbEntity
  8
0
100
AcDbLine
 62
250
  6
CONTINUOUS
 10
-39.537456716
 20
4.135714
 30
0.0
 11
-39.537456716
 21
3.457143
 31
0.0
  0
LINE
  5
410
100
AcDbEntity
  8
0
100
AcDbLine
 62
250
  6
CONTINUOUS
 10
-39.537456716
 20
4.678571
 30
0.0
 11
-39.537456716
 21
5.628571
 31
0.0
  0
LINE
  5
411
100
AcDbEntity
  8
0
100
AcDbLine
 62
250
  6
CONTINUOUS
 10
-39.537456716
 20
12.457143
 30
0.0
 11
-39.537456716
 21
14.957143
 31
0.0
  0
LINE
  5
412
100
AcDbEntity
  8
0
100
AcDbLine
 62
250
  6
CONTINUOUS
 10
-39.537456716
 20
15.457143
 30
0.0
 11
-39.537456716
 21
16.407143
 31
0.0
  0
LINE
  5
413
100
AcDbEntity
  8
0
100
AcDbLine
 62
250
  6
CONTINUOUS
 10
-45.937456716
 20
-5.9069288588
 30
0.0
 11
-45.6660281608
 21
-5.6056432881
 31
0.0
  0
LINE
  5
414
100
AcDbEntity
  8
DRAFT
100
AcDbLine
 62
7
  6
CONTINUOUS
 10
-53.037456716
 20
-0.6
 30
0.0
 11
-52.9022419301
 21
-0.6
 31
0.0
  0
LINE
  5
415
100
AcDbEntity
  8
0
100
AcDbLine
 62
250
  6
CONTINUOUS
 10
-45.394599716
 20
4.678571
 30
0.0
 11
-45.937456716
 21
5.221428
 31
0.0
  0
LINE
  5
416
100
AcDbEntity
  8
DRAFT
100
AcDbLine
 62
250
  6
CONTINUOUS
 10
-38.5287305128
 20
21.4748046144
 30
0.0
 11
-38.5287305128
 21
20.9829813964
 31
0.0
  0
LINE
  5
417
100
AcDbEntity
  8
DRAFT
100
AcDbLine
 62
250
  6
CONTINUOUS
 10
-38.5287305128
 20
-20.9829813964
 30
0.0
 11
-38.5287305128
 21
-21.4748046144
 31
0.0
  0
LINE
  5
418
100
AcDbEntity
  8
RACCORDO
100
AcDbLine
 62
250
  6
CONTINUOUS
 10
-38.3348387554
 20
20.9846734642
 30
0.0
 11
-38.3348387554
 21
20.85
 31
0.0
  0
LINE
  5
419
100
AcDbEntity
  8
RACCORDO
100
AcDbLine
 62
250
  6
CONTINUOUS
 10
-38.3348387554
 20
-20.85
 30
0.0
 11
-38.3348387554
 21
-20.9846734642
 31
0.0
  0
LINE
  5
41A
100
AcDbEntity
  8
DRAFT
100
AcDbLine
 62
7
  6
CONTINUOUS
 10
-38.037456716
 20
21.3330780337
 30
0.0
 11
-38.037456716
 21
20.9872686779
 31
0.0
  0
LINE
  5
41B
100
AcDbEntity
  8
ASSI
100
AcDbLine
 62
7
  6
CONTINUOUS
 10
-38.037456716
 20
-20.85
 30
0.0
 11
-38.037456716
 21
-19.3181305591
 31
0.0
  0
LINE
  5
41C
100
AcDbEntity
  8
RACCORDO
100
AcDbLine
 62
7
  6
CONTINUOUS
 10
-38.037456716
 20
-19.3181305591
 30
0.0
 11
-38.037456716
 21
-20.9872686779
 31
0.0
  0
LINE
  5
41D
100
AcDbEntity
  8
DRAFT
100
AcDbLine
 62
7
  6
CONTINUOUS
 10
-38.037456716
 20
-20.9872686779
 30
0.0
 11
-38.037456716
 21
-21.3330780337
 31
0.0
  0
LINE
  5
41E
100
AcDbEntity
  8
RACCORDO
100
AcDbLine
 62
7
  6
CONTINUOUS
 10
-38.037456716
 20
19.3181305591
 30
0.0
 11
-38.037456716
 21
20.9872686779
 31
0.0
  0
LINE
  5
41F
100
AcDbEntity
  8
ASSI
100
AcDbLine
 62
7
  6
CONTINUOUS
 10
-38.037456716
 20
19.3181305591
 30
0.0
 11
-38.037456716
 21
20.85
 31
0.0
  0
LINE
  5
420
100
AcDbEntity
  8
0
100
AcDbLine
 62
250
  6
CONTINUOUS
 10
-44.037456716
 20
-6.0575711412
 30
0.0
 11
-44.3088852996
 21
-6.3588567119
 31
0.0
  0
LINE
  5
421
100
AcDbEntity
  8
0
100
AcDbLine
 62
250
  6
CONTINUOUS
 10
-45.1231710503
 20
-7.4133567119
 30
0.0
 11
-44.8517424384
 21
-7.1120711412
 31
0.0
  0
LINE
  5
422
100
AcDbEntity
  8
0
100
AcDbLine
 62
250
  6
CONTINUOUS
 10
-45.6660281608
 20
-8.6185
 30
0.0
 11
-45.937456716
 21
-8.9197855706
 31
0.0
  0
LINE
  5
423
100
AcDbEntity
  8
0
100
AcDbLine
 62
250
  6
CONTINUOUS
 10
-45.6660281608
 20
-5.6056432881
 30
0.0
 11
-45.3945996055
 21
-5.455
 31
0.0
  0
LINE
  5
424
100
AcDbEntity
  8
0
100
AcDbLine
 62
250
  6
CONTINUOUS
 10
-31.5607766244
 20
0.501442
 30
0.0
 11
-26.5622595691
 21
0.501442
 31
0.0
  0
LINE
  5
425
100
AcDbEntity
  8
DRAFT
100
AcDbLine
 62
7
  6
CONTINUOUS
 10
-53.037456716
 20
0.6
 30
0.0
 11
-52.9022419301
 21
0.6
 31
0.0
  0
LINE
  5
426
100
AcDbEntity
  8
0
100
AcDbLine
 62
250
  6
CONTINUOUS
 10
-27.1177843122
 20
1.056791
 30
0.0
 11
-28.783841699
 21
1.056791
 31
0.0
  0
LINE
  5
427
100
AcDbEntity
  8
0
100
AcDbLine
 62
250
  6
CONTINUOUS
 10
-29.3393664421
 20
1.056791
 30
0.0
 11
-31.0054238289
 21
1.056791
 31
0.0
  0
LINE
  5
428
100
AcDbEntity
  8
0
100
AcDbLine
 62
250
  6
CONTINUOUS
 10
-26.5622595691
 20
1.612485
 30
0.0
 11
-27.1177843122
 21
1.612485
 31
0.0
  0
LINE
  5
429
100
AcDbEntity
  8
0
100
AcDbLine
 62
250
  6
CONTINUOUS
 10
-28.783841699
 20
1.612485
 30
0.0
 11
-29.3393664421
 21
1.612485
 31
0.0
  0
LINE
  5
42A
100
AcDbEntity
  8
0
100
AcDbLine
 62
250
  6
CONTINUOUS
 10
-31.0054238289
 20
1.612485
 30
0.0
 11
-31.5607766244
 21
1.612485
 31
0.0
  0
LINE
  5
42B
100
AcDbEntity
  8
0
100
AcDbLine
 62
250
  6
CONTINUOUS
 10
-26.5622595691
 20
2.167834
 30
0.0
 11
-31.5607766244
 21
2.167834
 31
0.0
  0
LINE
  5
42C
100
AcDbEntity
  8
SMUSSO
100
AcDbLine
 62
7
  6
CONTINUOUS
 10
-51.5444324568
 20
2.0612144893
 30
0.0
 11
-51.037456716
 21
2.0523651948
 31
0.0
  0
LINE
  5
42D
100
AcDbEntity
  8
0
100
AcDbLine
 62
250
  6
CONTINUOUS
 10
-36.837457716
 20
-3.3
 30
0.0
 11
-35.037456716
 21
-6.335505
 31
0.0
  0
LINE
  5
42E
100
AcDbEntity
  8
0
100
AcDbLine
 62
250
  6
CONTINUOUS
 10
-35.570001716
 20
-4.828403
 30
0.0
 11
-35.570001716
 21
-4.082841
 31
0.0
  0
LINE
  5
42F
100
AcDbEntity
  8
0
100
AcDbLine
 62
250
  6
CONTINUOUS
 10
-35.570001716
 20
-2.34142
 30
0.0
 11
-35.570001716
 21
-1.702366
 31
0.0
  0
LINE
  5
430
100
AcDbEntity
  8
0
100
AcDbLine
 62
250
  6
CONTINUOUS
 10
-35.037456716
 20
-0.264495
 30
0.0
 11
-36.837457716
 21
-3.3
 31
0.0
  0
LINE
  5
431
100
AcDbEntity
  8
0
100
AcDbLine
 62
250
  6
CONTINUOUS
 10
-44.3088852996
 20
-6.3588567119
 30
0.0
 11
-44.5803138831
 21
-6.5095
 31
0.0
  0
LINE
  5
432
100
AcDbEntity
  8
0
100
AcDbLine
 62
250
  6
CONTINUOUS
 10
-44.037456716
 20
-4.2498567119
 30
0.0
 11
-45.937456716
 21
-4.8524288588
 31
0.0
  0
LINE
  5
433
100
AcDbEntity
  8
DRAFT
100
AcDbLine
 62
7
  6
CONTINUOUS
 10
-53.0172886759
 20
3.4842107882
 30
0.0
 11
-53.037456716
 21
3.4840347844
 31
0.0
  0
LINE
  5
434
100
AcDbEntity
  8
0
100
AcDbLine
 62
250
  6
CONTINUOUS
 10
-28.783841699
 20
2.723528
 30
0.0
 11
-26.5622595691
 21
2.723528
 31
0.0
  0
LINE
  5
435
100
AcDbEntity
  8
0
100
AcDbLine
 62
250
  6
CONTINUOUS
 10
-29.3393664421
 20
2.723528
 30
0.0
 11
-31.0054238289
 21
2.723528
 31
0.0
  0
LINE
  5
436
100
AcDbEntity
  8
0
100
AcDbLine
 62
250
  6
CONTINUOUS
 10
-31.0054238289
 20
3.279222
 30
0.0
 11
-29.3393664421
 21
3.279222
 31
0.0
  0
LINE
  5
437
100
AcDbEntity
  8
0
100
AcDbLine
 62
250
  6
CONTINUOUS
 10
-26.5622595691
 20
3.279222
 30
0.0
 11
-28.783841699
 21
3.279222
 31
0.0
  0
LINE
  5
438
100
AcDbEntity
  8
RACCORDO
100
AcDbLine
 62
7
  6
CONTINUOUS
 10
-52.8714313122
 20
3.4
 30
0.0
 11
-52.1426924379
 21
3.4
 31
0.0
  0
LINE
  5
439
100
AcDbEntity
  8
0
100
AcDbLine
 62
250
  6
CONTINUOUS
 10
-39.537456716
 20
3.457143
 30
0.0
 11
-41.437456716
 21
3.457143
 31
0.0
  0
LINE
  5
43A
100
AcDbEntity
  8
0
100
AcDbLine
 62
250
  6
CONTINUOUS
 10
-44.037456716
 20
3.457143
 30
0.0
 11
-45.937456716
 21
3.457143
 31
0.0
  0
LINE
  5
43B
100
AcDbEntity
  8
0
100
AcDbLine
 62
250
  6
CONTINUOUS
 10
-31.5607766244
 20
3.834571
 30
0.0
 11
-26.5622595691
 21
3.834571
 31
0.0
  0
LINE
  5
43C
100
AcDbEntity
  8
0
100
AcDbLine
 62
250
  6
CONTINUOUS
 10
-31.5607766244
 20
4.390265
 30
0.0
 11
-26.5622595691
 21
4.390265
 31
0.0
  0
LINE
  5
43D
100
AcDbEntity
  8
DRAFT
100
AcDbLine
 62
7
  6
CONTINUOUS
 10
-20.3113099932
 20
1.2489817302
 30
0.0
 11
-22.037456716
 21
1.4
 31
0.0
  0
LINE
  5
43E
100
AcDbEntity
  8
ASSI
100
AcDbLine
 62
7
  6
CONTINUOUS
 10
-20.3113099932
 20
1.2489817302
 30
0.0
 11
-22.037456716
 21
1.4
 31
0.0
  0
LINE
  5
43F
100
AcDbEntity
  8
0
100
AcDbLine
 62
250
  6
CONTINUOUS
 10
-41.030313716
 20
4.678571
 30
0.0
 11
-41.437456716
 21
4.95
 31
0.0
  0
LINE
  5
440
100
AcDbEntity
  8
0
100
AcDbLine
 62
250
  6
CONTINUOUS
 10
-40.894599716
 20
5.628571
 30
0.0
 11
-39.537456716
 21
4.678571
 31
0.0
  0
LINE
  5
441
100
AcDbEntity
  8
0
100
AcDbLine
 62
250
  6
CONTINUOUS
 10
-33.237455716
 20
-3.3
 30
0.0
 11
-35.037456716
 21
-0.264495
 31
0.0
  0
LINE
  5
442
100
AcDbEntity
  8
0
100
AcDbLine
 62
250
  6
CONTINUOUS
 10
-35.037456716
 20
-2.34142
 30
0.0
 11
-35.037456716
 21
-1.947337
 31
0.0
  0
LINE
  5
443
100
AcDbEntity
  8
0
100
AcDbLine
 62
250
  6
CONTINUOUS
 10
-34.504911716
 20
-1.702366
 30
0.0
 11
-34.504911716
 21
-2.34142
 31
0.0
  0
LINE
  5
444
100
AcDbEntity
  8
RACCORDO
100
AcDbLine
 62
250
  6
CONTINUOUS
 10
-33.0200043096
 20
-19.2305506016
 30
0.0
 11
-33.0200043096
 21
-18.9771191671
 31
0.0
  0
LINE
  5
445
100
AcDbEntity
  8
ASSI
100
AcDbLine
 62
250
  6
CONTINUOUS
 10
-33.0200043096
 20
-19.2305506016
 30
0.0
 11
-33.0200043096
 21
-18.9771191671
 31
0.0
  0
LINE
  5
446
100
AcDbEntity
  8
RACCORDO
100
AcDbLine
 62
250
  6
CONTINUOUS
 10
-33.0200043096
 20
-17.5631209963
 30
0.0
 11
-33.0200043096
 21
-9.4913486316
 31
0.0
  0
LINE
  5
447
100
AcDbEntity
  8
ASSI
100
AcDbLine
 62
250
  6
CONTINUOUS
 10
-33.0200043096
 20
-17.5631209963
 30
0.0
 11
-33.0200043096
 21
-9.4913486316
 31
0.0
  0
LINE
  5
448
100
AcDbEntity
  8
0
100
AcDbLine
 62
250
  6
CONTINUOUS
 10
-34.8125096236
 20
-3.036953892
 30
0.0
 11
-35.2624038084
 21
-3.563046108
 31
0.0
  0
LINE
  5
449
100
AcDbEntity
  8
0
100
AcDbLine
 62
250
  6
CONTINUOUS
 10
-45.937456716
 20
-14.1922856963
 30
0.0
 11
-45.6660281608
 21
-13.891
 31
0.0
  0
LINE
  5
44A
100
AcDbEntity
  8
0
100
AcDbLine
 62
250
  6
CONTINUOUS
 10
-44.037456716
 20
-14.3429286073
 30
0.0
 11
-44.3088852996
 21
-14.6442143037
 31
0.0
  0
LINE
  5
44B
100
AcDbEntity
  8
RACCORDO
100
AcDbLine
 62
7
  6
CONTINUOUS
 10
-53.037456716
 20
-13.6569475388
 30
0.0
 11
-52.8444324568
 21
-13.5455049308
 31
0.0
  0
LINE
  5
44C
100
AcDbEntity
  8
0
100
AcDbLine
 62
250
  6
CONTINUOUS
 10
-27.1177843122
 20
4.945615
 30
0.0
 11
-31.0054238289
 21
4.945615
 31
0.0
  0
LINE
  5
44D
100
AcDbEntity
  8
0
100
AcDbLine
 62
250
  6
CONTINUOUS
 10
-45.937456716
 20
5.221428
 30
0.0
 11
-44.037456716
 21
5.221428
 31
0.0
  0
LINE
  5
44E
100
AcDbEntity
  8
0
100
AcDbLine
 62
250
  6
CONTINUOUS
 10
-26.5622595691
 20
5.501309
 30
0.0
 11
-27.1177843122
 21
5.501309
 31
0.0
  0
LINE
  5
44F
100
AcDbEntity
  8
0
100
AcDbLine
 62
250
  6
CONTINUOUS
 10
-31.0054238289
 20
5.501309
 30
0.0
 11
-31.5607766244
 21
5.501309
 31
0.0
  0
LINE
  5
450
100
AcDbEntity
  8
0
100
AcDbLine
 62
250
  6
CONTINUOUS
 10
-41.166027716
 20
5.628571
 30
0.0
 11
-40.894599716
 21
5.628571
 31
0.0
  0
LINE
  5
451
100
AcDbEntity
  8
DRAFT
100
AcDbLine
 62
7
  6
CONTINUOUS
 10
-20.3113099932
 20
4.6489817302
 30
0.0
 11
-22.037456716
 21
4.8
 31
0.0
  0
LINE
  5
452
100
AcDbEntity
  8
ASSI
100
AcDbLine
 62
7
  6
CONTINUOUS
 10
-20.3113099932
 20
4.6489817302
 30
0.0
 11
-22.037456716
 21
4.8
 31
0.0
  0
LINE
  5
453
100
AcDbEntity
  8
RACCORDO
100
AcDbLine
 62
7
  6
CONTINUOUS
 10
-53.037456716
 20
13.6569475388
 30
0.0
 11
-52.8444324568
 21
13.5455049308
 31
0.0
  0
LINE
  5
454
100
AcDbEntity
  8
RACCORDO
100
AcDbLine
 62
7
  6
CONTINUOUS
 10
-32.037456716
 20
-18.5235515162
 30
0.0
 11
-32.037456716
 21
-9.4913486316
 31
0.0
  0
LINE
  5
455
100
AcDbEntity
  8
ASSI
100
AcDbLine
 62
7
  6
CONTINUOUS
 10
-32.037456716
 20
-18.5235515162
 30
0.0
 11
-32.037456716
 21
-9.4913486316
 31
0.0
  0
LINE
  5
456
100
AcDbEntity
  8
0
100
AcDbLine
 62
250
  6
CONTINUOUS
 10
-31.5607766244
 20
5.501309
 30
0.0
 11
-31.5607766244
 21
4.390265
 31
0.0
  0
LINE
  5
457
100
AcDbEntity
  8
0
100
AcDbLine
 62
250
  6
CONTINUOUS
 10
-31.5607766244
 20
1.612485
 30
0.0
 11
-31.5607766244
 21
0.501442
 31
0.0
  0
LINE
  5
458
100
AcDbEntity
  8
0
100
AcDbLine
 62
250
  6
CONTINUOUS
 10
-31.5607766244
 20
2.167834
 30
0.0
 11
-31.5607766244
 21
3.834571
 31
0.0
  0
LINE
  5
459
100
AcDbEntity
  8
RACCORDO
100
AcDbLine
 62
250
  6
CONTINUOUS
 10
-31.5461829192
 20
-9.4913486316
 30
0.0
 11
-31.5461829192
 21
-18.4978258681
 31
0.0
  0
LINE
  5
45A
100
AcDbEntity
  8
ASSI
100
AcDbLine
 62
250
  6
CONTINUOUS
 10
-31.5461829192
 20
-9.4913486316
 30
0.0
 11
-31.5461829192
 21
-18.4978258681
 31
0.0
  0
LINE
  5
45B
100
AcDbEntity
  8
0
100
AcDbLine
 62
250
  6
CONTINUOUS
 10
-31.0054238289
 20
1.056791
 30
0.0
 11
-31.0054238289
 21
1.612485
 31
0.0
  0
LINE
  5
45C
100
AcDbEntity
  8
0
100
AcDbLine
 62
250
  6
CONTINUOUS
 10
-31.0054238289
 20
2.723528
 30
0.0
 11
-31.0054238289
 21
3.279222
 31
0.0
  0
LINE
  5
45D
100
AcDbEntity
  8
0
100
AcDbLine
 62
250
  6
CONTINUOUS
 10
-31.0054238289
 20
4.945615
 30
0.0
 11
-31.0054238289
 21
5.501309
 31
0.0
  0
LINE
  5
45E
100
AcDbEntity
  8
0
100
AcDbLine
 62
250
  6
CONTINUOUS
 10
-35.037456716
 20
-6.335505
 30
0.0
 11
-33.237455716
 21
-3.3
 31
0.0
  0
LINE
  5
45F
100
AcDbEntity
  8
DRAFT
100
AcDbLine
 62
7
  6
CONTINUOUS
 10
-20.3113099932
 20
9.1510182698
 30
0.0
 11
-22.037456716
 21
9.0
 31
0.0
  0
LINE
  5
460
100
AcDbEntity
  8
ASSI
100
AcDbLine
 62
7
  6
CONTINUOUS
 10
-20.3113099932
 20
9.1510182698
 30
0.0
 11
-22.037456716
 21
9.0
 31
0.0
  0
LINE
  5
461
100
AcDbEntity
  8
0
100
AcDbLine
 62
250
  6
CONTINUOUS
 10
-45.394599716
 20
15.457143
 30
0.0
 11
-45.937456716
 21
16.0
 31
0.0
  0
LINE
  5
462
100
AcDbEntity
  8
0
100
AcDbLine
 62
250
  6
CONTINUOUS
 10
-29.3393664421
 20
3.279222
 30
0.0
 11
-29.3393664421
 21
2.723528
 31
0.0
  0
LINE
  5
463
100
AcDbEntity
  8
0
100
AcDbLine
 62
250
  6
CONTINUOUS
 10
-29.3393664421
 20
1.612485
 30
0.0
 11
-29.3393664421
 21
1.056791
 31
0.0
  0
LINE
  5
464
100
AcDbEntity
  8
0
100
AcDbLine
 62
250
  6
CONTINUOUS
 10
-45.6660281608
 20
-13.891
 30
0.0
 11
-45.3945996055
 21
-13.7403572147
 31
0.0
  0
LINE
  5
465
100
AcDbEntity
  8
0
100
AcDbLine
 62
250
  6
CONTINUOUS
 10
-44.3088852996
 20
-14.6442143037
 30
0.0
 11
-44.5803138831
 21
-14.794857089
 31
0.0
  0
LINE
  5
466
100
AcDbEntity
  8
0
100
AcDbLine
 62
250
  6
CONTINUOUS
 10
-45.937456716
 20
-12.535214178
 30
0.0
 11
-44.037456716
 21
-11.9326427853
 31
0.0
  0
LINE
  5
467
100
AcDbEntity
  8
SMUSSO
100
AcDbLine
 62
7
  6
CONTINUOUS
 10
-50.237456716
 20
8.5
 30
0.0
 11
-52.8444324568
 21
8.4544950692
 31
0.0
  0
LINE
  5
468
100
AcDbEntity
  8
RACCORDO
100
AcDbLine
 62
7
  6
CONTINUOUS
 10
-50.237456716
 20
8.65
 30
0.0
 11
-53.037456716
 21
8.65
 31
0.0
  0
LINE
  5
469
100
AcDbEntity
  8
0
100
AcDbLine
 62
250
  6
CONTINUOUS
 10
-46.037456716
 20
10.057143
 30
0.0
 11
-47.037456716
 21
10.057143
 31
0.0
  0
LINE
  5
46A
100
AcDbEntity
  8
RACCORDO
100
AcDbLine
 62
250
  6
CONTINUOUS
 10
-58.4603773018
 20
9.4905
 30
0.0
 11
-58.9471985687
 21
9.5
 31
0.0
  0
LINE
  5
46B
100
AcDbEntity
  8
0
100
AcDbLine
 62
250
  6
CONTINUOUS
 10
-28.783841699
 20
3.279222
 30
0.0
 11
-28.783841699
 21
2.723528
 31
0.0
  0
LINE
  5
46C
100
AcDbEntity
  8
0
100
AcDbLine
 62
250
  6
CONTINUOUS
 10
-28.783841699
 20
1.056791
 30
0.0
 11
-28.783841699
 21
1.612485
 31
0.0
  0
LINE
  5
46D
100
AcDbEntity
  8
0
100
AcDbLine
 62
250
  6
CONTINUOUS
 10
-27.1177843122
 20
5.501309
 30
0.0
 11
-27.1177843122
 21
4.945615
 31
0.0
  0
LINE
  5
46E
100
AcDbEntity
  8
0
100
AcDbLine
 62
250
  6
CONTINUOUS
 10
-27.1177843122
 20
1.612485
 30
0.0
 11
-27.1177843122
 21
1.056791
 31
0.0
  0
LINE
  5
46F
100
AcDbEntity
  8
0
100
AcDbLine
 62
250
  6
CONTINUOUS
 10
-38.767456716
 20
11.057143
 30
0.0
 11
-39.267456716
 21
11.057143
 31
0.0
  0
LINE
  5
470
100
AcDbEntity
  8
0
100
AcDbLine
 62
250
  6
CONTINUOUS
 10
-39.767456716
 20
11.057143
 30
0.0
 11
-41.557456716
 21
11.057143
 31
0.0
  0
LINE
  5
471
100
AcDbEntity
  8
0
100
AcDbLine
 62
250
  6
CONTINUOUS
 10
-42.057456716
 20
11.057143
 30
0.0
 11
-43.807456716
 21
11.057143
 31
0.0
  0
LINE
  5
472
100
AcDbEntity
  8
0
100
AcDbLine
 62
250
  6
CONTINUOUS
 10
-44.807456716
 20
11.057143
 30
0.0
 11
-46.037456716
 21
11.057143
 31
0.0
  0
LINE
  5
473
100
AcDbEntity
  8
0
100
AcDbLine
 62
250
  6
CONTINUOUS
 10
-46.537456716
 20
11.057143
 30
0.0
 11
-47.037456716
 21
11.057143
 31
0.0
  0
LINE
  5
474
100
AcDbEntity
  8
0
100
AcDbLine
 62
250
  6
CONTINUOUS
 10
-47.037456716
 20
12.057143
 30
0.0
 11
-46.037456716
 21
12.057143
 31
0.0
  0
LINE
  5
475
100
AcDbEntity
  8
0
100
AcDbLine
 62
250
  6
CONTINUOUS
 10
-38.054351716
 20
12.457143
 30
0.0
 11
-39.537456716
 21
12.457143
 31
0.0
  0
LINE
  5
476
100
AcDbEntity
  8
RACCORDO
100
AcDbLine
 62
7
  6
CONTINUOUS
 10
-50.237456716
 20
12.55
 30
0.0
 11
-53.037456716
 21
12.55
 31
0.0
  0
LINE
  5
477
100
AcDbEntity
  8
0
100
AcDbLine
 62
250
  6
CONTINUOUS
 10
-41.030313716
 20
15.457143
 30
0.0
 11
-41.437456716
 21
15.728571
 31
0.0
  0
LINE
  5
478
100
AcDbEntity
  8
0
100
AcDbLine
 62
250
  6
CONTINUOUS
 10
-40.894599716
 20
16.407143
 30
0.0
 11
-39.537456716
 21
15.457143
 31
0.0
  0
LINE
  5
479
100
AcDbEntity
  8
0
100
AcDbLine
 62
250
  6
CONTINUOUS
 10
-26.5622595691
 20
3.834571
 30
0.0
 11
-26.5622595691
 21
3.279222
 31
0.0
  0
LINE
  5
47A
100
AcDbEntity
  8
0
100
AcDbLine
 62
250
  6
CONTINUOUS
 10
-26.5622595691
 20
2.723528
 30
0.0
 11
-26.5622595691
 21
2.167834
 31
0.0
  0
LINE
  5
47B
100
AcDbEntity
  8
0
100
AcDbLine
 62
250
  6
CONTINUOUS
 10
-26.5622595691
 20
0.501442
 30
0.0
 11
-26.5622595691
 21
1.612485
 31
0.0
  0
LINE
  5
47C
100
AcDbEntity
  8
0
100
AcDbLine
 62
250
  6
CONTINUOUS
 10
-26.5622595691
 20
4.390265
 30
0.0
 11
-26.5622595691
 21
5.501309
 31
0.0
  0
LINE
  5
47D
100
AcDbEntity
  8
0
100
AcDbLine
 62
7
  6
CONTINUOUS
 10
-52.037456716
 20
-23.1226497308
 30
0.0
 11
-52.912456716
 21
-23.6278312164
 31
0.0
  0
LINE
  5
47E
100
AcDbEntity
  8
0
100
AcDbLine
 62
250
  6
CONTINUOUS
 10
-51.7889111489
 20
-23.2669872981
 30
0.0
 11
-52.7889111489
 21
-23.8443375673
 31
0.0
  0
LINE
  5
47F
100
AcDbEntity
  8
SMUSSO
100
AcDbLine
 62
7
  6
CONTINUOUS
 10
-52.8444324568
 20
13.5455049308
 30
0.0
 11
-50.237456716
 21
13.5
 31
0.0
  0
LINE
  5
480
100
AcDbEntity
  8
DRAFT
100
AcDbLine
 62
7
  6
CONTINUOUS
 10
-53.037456716
 20
17.0
 30
0.0
 11
-55.337456716
 21
17.6162831426
 31
0.0
  0
LINE
  5
481
100
AcDbEntity
  8
DRAFT
100
AcDbLine
 62
7
  6
CONTINUOUS
 10
-50.487456716
 20
17.6160978686
 30
0.0
 11
-50.237456716
 21
17.5491105705
 31
0.0
  0
LINE
  5
482
100
AcDbEntity
  8
RACCORDO
100
AcDbLine
 62
7
  6
CONTINUOUS
 10
-50.487456716
 20
17.6160978686
 30
0.0
 11
-51.6668662386
 21
17.9321196977
 31
0.0
  0
LINE
  5
483
100
AcDbEntity
  8
0
100
AcDbLine
 62
7
  6
CONTINUOUS
 10
-52.912456716
 20
23.6278312164
 30
0.0
 11
-52.037456716
 21
23.1226497308
 31
0.0
  0
LINE
  5
484
100
AcDbEntity
  8
0
100
AcDbLine
 62
250
  6
CONTINUOUS
 10
-52.7889111489
 20
23.8443375673
 30
0.0
 11
-51.7889111489
 21
23.2669872981
 31
0.0
  0
LINE
  5
485
100
AcDbEntity
  8
DRAFT
100
AcDbLine
 62
250
  6
CONTINUOUS
 10
-23.0200043096
 20
-9.3425236303
 30
0.0
 11
-23.0200043096
 21
-11.334376711
 31
0.0
  0
LINE
  5
486
100
AcDbEntity
  8
ASSI
100
AcDbLine
 62
250
  6
CONTINUOUS
 10
-23.0200043096
 20
-9.3425236303
 30
0.0
 11
-23.0200043096
 21
-11.334376711
 31
0.0
  0
LINE
  5
487
100
AcDbEntity
  8
DRAFT
100
AcDbLine
 62
250
  6
CONTINUOUS
 10
-23.0200043096
 20
-12.865623289
 30
0.0
 11
-23.0200043096
 21
-18.3490008669
 31
0.0
  0
LINE
  5
488
100
AcDbEntity
  8
ASSI
100
AcDbLine
 62
250
  6
CONTINUOUS
 10
-23.0200043096
 20
-12.865623289
 30
0.0
 11
-23.0200043096
 21
-18.3490008669
 31
0.0
  0
LINE
  5
489
100
AcDbEntity
  8
DRAFT
100
AcDbLine
 62
250
  6
CONTINUOUS
 10
-23.0200043096
 20
-7.8427520876
 30
0.0
 11
-23.0200043096
 21
-2.8700830992
 31
0.0
  0
LINE
  5
48A
100
AcDbEntity
  8
ASSI
100
AcDbLine
 62
250
  6
CONTINUOUS
 10
-23.0200043096
 20
-7.8427520876
 30
0.0
 11
-23.0200043096
 21
-2.8700830992
 31
0.0
  0
LINE
  5
48B
100
AcDbEntity
  8
DRAFT
100
AcDbLine
 62
250
  6
CONTINUOUS
 10
-23.0200043096
 20
-0.5299169008
 30
0.0
 11
-23.0200043096
 21
10.9299169008
 31
0.0
  0
LINE
  5
48C
100
AcDbEntity
  8
ASSI
100
AcDbLine
 62
250
  6
CONTINUOUS
 10
-23.0200043096
 20
-0.5299169008
 30
0.0
 11
-23.0200043096
 21
10.9299169008
 31
0.0
  0
LINE
  5
48D
100
AcDbEntity
  8
DRAFT
100
AcDbLine
 62
250
  6
CONTINUOUS
 10
-23.0200043096
 20
13.2700830992
 30
0.0
 11
-23.0200043096
 21
17.49081975
 31
0.0
  0
LINE
  5
48E
100
AcDbEntity
  8
ASSI
100
AcDbLine
 62
250
  6
CONTINUOUS
 10
-23.0200043096
 20
13.2700830992
 30
0.0
 11
-23.0200043096
 21
17.49081975
 31
0.0
  0
LINE
  5
48F
100
AcDbEntity
  8
RACCORDO
100
AcDbLine
 62
250
  6
CONTINUOUS
 10
-23.0200043096
 20
18.9048179208
 30
0.0
 11
-23.0200043096
 21
19.0559999523
 31
0.0
  0
LINE
  5
490
100
AcDbEntity
  8
ASSI
100
AcDbLine
 62
250
  6
CONTINUOUS
 10
-23.0200043096
 20
18.9048179208
 30
0.0
 11
-23.0200043096
 21
19.0559999523
 31
0.0
  0
LINE
  5
491
100
AcDbEntity
  8
0
100
AcDbLine
 62
250
  6
CONTINUOUS
 10
-45.937456716
 20
16.0
 30
0.0
 11
-44.037456716
 21
16.0
 31
0.0
  0
LINE
  5
492
100
AcDbEntity
  8
0
100
AcDbLine
 62
250
  6
CONTINUOUS
 10
-41.166027716
 20
16.407143
 30
0.0
 11
-40.894599716
 21
16.407143
 31
0.0
  0
LINE
  5
493
100
AcDbEntity
  8
DRAFT
100
AcDbLine
 62
7
  6
CONTINUOUS
 10
-52.9949532172
 20
16.7286845949
 30
0.0
 11
-53.037456716
 21
16.7290555173
 31
0.0
  0
LINE
  5
494
100
AcDbEntity
  8
DRAFT
100
AcDbLine
 62
7
  6
CONTINUOUS
 10
-20.3113099932
 20
15.0489817302
 30
0.0
 11
-22.037456716
 21
15.2
 31
0.0
  0
LINE
  5
495
100
AcDbEntity
  8
ASSI
100
AcDbLine
 62
7
  6
CONTINUOUS
 10
-20.3113099932
 20
15.0489817302
 30
0.0
 11
-22.037456716
 21
15.2
 31
0.0
  0
LINE
  5
496
100
AcDbEntity
  8
RACCORDO
100
AcDbLine
 62
7
  6
CONTINUOUS
 10
-22.037456716
 20
-7.8427520876
 30
0.0
 11
-22.037456716
 21
-9.3425236303
 31
0.0
  0
LINE
  5
497
100
AcDbEntity
  8
DRAFT
100
AcDbLine
 62
7
  6
CONTINUOUS
 10
-22.037456716
 20
-9.3425236303
 30
0.0
 11
-22.037456716
 21
-9.8129956931
 31
0.0
  0
LINE
  5
498
100
AcDbEntity
  8
ASSI
100
AcDbLine
 62
7
  6
CONTINUOUS
 10
-22.037456716
 20
-7.9594112099
 30
0.0
 11
-22.037456716
 21
-9.8129956931
 31
0.0
  0
LINE
  5
499
100
AcDbEntity
  8
DRAFT
100
AcDbLine
 62
7
  6
CONTINUOUS
 10
-22.037456716
 20
-14.3870043069
 30
0.0
 11
-22.037456716
 21
-18.3490008669
 31
0.0
  0
LINE
  5
49A
100
AcDbEntity
  8
ASSI
100
AcDbLine
 62
7
  6
CONTINUOUS
 10
-22.037456716
 20
-14.3870043069
 30
0.0
 11
-22.037456716
 21
-18.3490008669
 31
0.0
  0
LINE
  5
49B
100
AcDbEntity
  8
DRAFT
100
AcDbLine
 62
7
  6
CONTINUOUS
 10
-22.037456716
 20
-9.0
 30
0.0
 11
-22.037456716
 21
-4.0989125538
 31
0.0
  0
LINE
  5
49C
100
AcDbEntity
  8
ASSI
100
AcDbLine
 62
7
  6
CONTINUOUS
 10
-22.037456716
 20
-7.8427520876
 30
0.0
 11
-22.037456716
 21
-4.0989125538
 31
0.0
  0
LINE
  5
49D
100
AcDbEntity
  8
DRAFT
100
AcDbLine
 62
7
  6
CONTINUOUS
 10
-22.037456716
 20
0.6989125538
 30
0.0
 11
-22.037456716
 21
9.7010874462
 31
0.0
  0
LINE
  5
49E
100
AcDbEntity
  8
ASSI
100
AcDbLine
 62
7
  6
CONTINUOUS
 10
-22.037456716
 20
0.6989125538
 30
0.0
 11
-22.037456716
 21
9.7010874462
 31
0.0
  0
LINE
  5
49F
100
AcDbEntity
  8
DRAFT
100
AcDbLine
 62
7
  6
CONTINUOUS
 10
-22.037456716
 20
14.4989125538
 30
0.0
 11
-22.037456716
 21
18.0231014374
 31
0.0
  0
LINE
  5
4A0
100
AcDbEntity
  8
RACCORDO
100
AcDbLine
 62
7
  6
CONTINUOUS
 10
-22.037456716
 20
17.49081975
 30
0.0
 11
-22.037456716
 21
18.3490008669
 31
0.0
  0
LINE
  5
4A1
100
AcDbEntity
  8
ASSI
100
AcDbLine
 62
7
  6
CONTINUOUS
 10
-22.037456716
 20
14.4989125538
 30
0.0
 11
-22.037456716
 21
18.3490008669
 31
0.0
  0
LINE
  5
4A2
100
AcDbEntity
  8
RACCORDO
100
AcDbLine
 62
7
  6
CONTINUOUS
 10
-52.1426924379
 20
16.827836714
 30
0.0
 11
-52.8444324568
 21
16.8155877964
 31
0.0
  0
LINE
  5
4A3
100
AcDbEntity
  8
RACCORDO
100
AcDbLine
 62
250
  6
CONTINUOUS
 10
-23.0200043096
 20
17.49081975
 30
0.0
 11
-22.037456716
 21
17.49081975
 31
0.0
  0
LINE
  5
4A4
100
AcDbEntity
  8
ASSI
100
AcDbLine
 62
250
  6
CONTINUOUS
 10
-23.0200043096
 20
17.49081975
 30
0.0
 11
-22.037456716
 21
17.49081975
 31
0.0
  0
LINE
  5
4A5
100
AcDbEntity
  8
DRAFT
100
AcDbLine
 62
7
  6
CONTINUOUS
 10
-49.537456716
 20
18.5268030066
 30
0.0
 11
-48.037456716
 21
18.5213808261
 31
0.0
  0
LINE
  5
4A6
100
AcDbEntity
  8
RACCORDO
100
AcDbLine
 62
250
  6
CONTINUOUS
 10
-23.0200043096
 20
17.49081975
 30
0.0
 11
-48.037456716
 21
17.6716990487
 31
0.0
  0
LINE
  5
4A7
100
AcDbEntity
  8
ASSI
100
AcDbLine
 62
250
  6
CONTINUOUS
 10
-23.0200043096
 20
17.49081975
 30
0.0
 11
-48.037456716
 21
17.6716990487
 31
0.0
  0
LINE
  5
4A8
100
AcDbEntity
  8
RACCORDO
100
AcDbLine
 62
250
  6
CONTINUOUS
 10
-23.0200043096
 20
18.9048179208
 30
0.0
 11
-48.037456716
 21
19.0856972195
 31
0.0
  0
LINE
  5
4A9
100
AcDbEntity
  8
ASSI
100
AcDbLine
 62
250
  6
CONTINUOUS
 10
-23.0200043096
 20
18.9048179208
 30
0.0
 11
-48.037456716
 21
19.0856972195
 31
0.0
  0
LINE
  5
4AA
100
AcDbEntity
  8
RACCORDO
100
AcDbLine
 62
250
  6
CONTINUOUS
 10
-20.3322209941
 20
12.5493089089
 30
0.0
 11
-20.3322209941
 21
11.6506910911
 31
0.0
  0
LINE
  5
4AB
100
AcDbEntity
  8
ASSI
100
AcDbLine
 62
250
  6
CONTINUOUS
 10
-20.3322209941
 20
12.5493089089
 30
0.0
 11
-20.3322209941
 21
11.6506910911
 31
0.0
  0
LINE
  5
4AC
100
AcDbEntity
  8
RACCORDO
100
AcDbLine
 62
250
  6
CONTINUOUS
 10
-20.3322209941
 20
-1.2506910911
 30
0.0
 11
-20.3322209941
 21
-2.1493089089
 31
0.0
  0
LINE
  5
4AD
100
AcDbEntity
  8
ASSI
100
AcDbLine
 62
250
  6
CONTINUOUS
 10
-20.3322209941
 20
-1.2506910911
 30
0.0
 11
-20.3322209941
 21
-2.1493089089
 31
0.0
  0
LINE
  5
4AE
100
AcDbEntity
  8
RACCORDO
100
AcDbLine
 62
250
  6
CONTINUOUS
 10
-20.3113099932
 20
15.0489817302
 30
0.0
 11
-20.3113099932
 21
12.5443826453
 31
0.0
  0
LINE
  5
4AF
100
AcDbEntity
  8
ASSI
100
AcDbLine
 62
250
  6
CONTINUOUS
 10
-20.3113099932
 20
15.0489817302
 30
0.0
 11
-20.3113099932
 21
12.5443826453
 31
0.0
  0
LINE
  5
4B0
100
AcDbEntity
  8
RACCORDO
100
AcDbLine
 62
250
  6
CONTINUOUS
 10
-20.3113099932
 20
11.6556173547
 30
0.0
 11
-20.3113099932
 21
9.1510182698
 31
0.0
  0
LINE
  5
4B1
100
AcDbEntity
  8
ASSI
100
AcDbLine
 62
250
  6
CONTINUOUS
 10
-20.3113099932
 20
11.6556173547
 30
0.0
 11
-20.3113099932
 21
9.1510182698
 31
0.0
  0
LINE
  5
4B2
100
AcDbEntity
  8
RACCORDO
100
AcDbLine
 62
250
  6
CONTINUOUS
 10
-20.3113099914
 20
4.64898173
 30
0.0
 11
-20.3113099932
 21
-1.2556173547
 31
0.0
  0
LINE
  5
4B3
100
AcDbEntity
  8
ASSI
100
AcDbLine
 62
250
  6
CONTINUOUS
 10
-20.3113099914
 20
4.64898173
 30
0.0
 11
-20.3113099932
 21
-1.2556173547
 31
0.0
  0
LINE
  5
4B4
100
AcDbEntity
  8
RACCORDO
100
AcDbLine
 62
250
  6
CONTINUOUS
 10
-20.3113099932
 20
-2.1443826453
 30
0.0
 11
-20.3113099932
 21
-4.6489817302
 31
0.0
  0
LINE
  5
4B5
100
AcDbEntity
  8
ASSI
100
AcDbLine
 62
250
  6
CONTINUOUS
 10
-20.3113099932
 20
-2.1443826453
 30
0.0
 11
-20.3113099932
 21
-4.6489817302
 31
0.0
  0
LINE
  5
4B6
100
AcDbEntity
  8
RACCORDO
100
AcDbLine
 62
250
  6
CONTINUOUS
 10
-20.3113099912
 20
-9.15101827
 30
0.0
 11
-20.3113099917
 21
-15.04898173
 31
0.0
  0
LINE
  5
4B7
100
AcDbEntity
  8
ASSI
100
AcDbLine
 62
250
  6
CONTINUOUS
 10
-20.3113099912
 20
-9.15101827
 30
0.0
 11
-20.3113099917
 21
-15.04898173
 31
0.0
  0
LINE
  5
4B8
100
AcDbEntity
  8
RACCORDO
100
AcDbLine
 62
7
  6
CONTINUOUS
 10
-20.037456716
 20
14.7501228389
 30
0.0
 11
-20.037456716
 21
9.4498771611
 31
0.0
  0
LINE
  5
4B9
100
AcDbEntity
  8
ASSI
100
AcDbLine
 62
7
  6
CONTINUOUS
 10
-20.037456716
 20
14.7501228389
 30
0.0
 11
-20.037456716
 21
9.4498771611
 31
0.0
  0
LINE
  5
4BA
100
AcDbEntity
  8
RACCORDO
100
AcDbLine
 62
7
  6
CONTINUOUS
 10
-20.037456716
 20
4.3501227693
 30
0.0
 11
-20.037456716
 21
0.9501233207
 31
0.0
  0
LINE
  5
4BB
100
AcDbEntity
  8
RACCORDO
100
AcDbLine
 62
7
  6
CONTINUOUS
 10
-20.037456716
 20
0.9499866504
 30
0.0
 11
-20.037456716
 21
-4.3501228389
 31
0.0
  0
LINE
  5
4BC
100
AcDbEntity
  8
ASSI
100
AcDbLine
 62
7
  6
CONTINUOUS
 10
-20.037456716
 20
4.3501227693
 30
0.0
 11
-20.037456716
 21
-4.3501228389
 31
0.0
  0
LINE
  5
4BD
100
AcDbEntity
  8
RACCORDO
100
AcDbLine
 62
7
  6
CONTINUOUS
 10
-20.037456716
 20
-9.4498771939
 30
0.0
 11
-20.037456716
 21
-14.7501228102
 31
0.0
  0
LINE
  5
4BE
100
AcDbEntity
  8
ASSI
100
AcDbLine
 62
7
  6
CONTINUOUS
 10
-20.037456716
 20
-9.4498771939
 30
0.0
 11
-20.037456716
 21
-14.7501228102
 31
0.0
  0
LINE
  5
4BF
100
AcDbEntity
  8
RACCORDO
100
AcDbLine
 62
7
  6
CONTINUOUS
 10
-52.037456716
 20
20.0
 30
0.0
 11
-52.1426929778
 21
19.9981630942
 31
0.0
  0
LINE
  5
4C0
100
AcDbEntity
  8
DRAFT
100
AcDbLine
 62
7
  6
CONTINUOUS
 10
-38.037456716
 20
20.9872686779
 30
0.0
 11
-48.037456716
 21
20.9
 31
0.0
  0
LINE
  5
4C1
100
AcDbEntity
  8
RACCORDO
100
AcDbLine
 62
250
  6
CONTINUOUS
 10
-52.037456716
 20
19.4538008571
 30
0.0
 11
-52.437456716
 21
19.4538008571
 31
0.0
  0
LINE
  5
4C2
100
AcDbEntity
  8
0
100
AcDbLine
 62
7
  6
CONTINUOUS
 10
-53.637456716
 20
20.0
 30
0.0
 11
-54.637456716
 21
20.0
 31
0.0
  0
LINE
  5
4C3
100
AcDbEntity
  8
DRAFT
100
AcDbLine
 62
7
  6
CONTINUOUS
 10
-53.637456716
 20
20.45
 30
0.0
 11
-55.337456716
 21
20.45
 31
0.0
  0
LINE
  5
4C4
100
AcDbEntity
  8
DRAFT
100
AcDbLine
 62
7
  6
CONTINUOUS
 10
-48.037456716
 20
20.85
 30
0.0
 11
-38.037456716
 21
20.85
 31
0.0
  0
LINE
  5
4C5
100
AcDbEntity
  8
ASSI
100
AcDbLine
 62
7
  6
CONTINUOUS
 10
-48.037456716
 20
20.85
 30
0.0
 11
-38.037456716
 21
20.85
 31
0.0
  0
LINE
  5
4C6
100
AcDbEntity
  8
RACCORDO
100
AcDbLine
 62
250
  6
CONTINUOUS
 10
-38.037456716
 20
19.3181305591
 30
0.0
 11
-23.0200043096
 21
19.0559999523
 31
0.0
  0
LINE
  5
4C7
100
AcDbEntity
  8
ASSI
100
AcDbLine
 62
250
  6
CONTINUOUS
 10
-38.037456716
 20
19.3181305591
 30
0.0
 11
-23.0200043096
 21
19.0559999523
 31
0.0
  0
LINE
  5
4C8
100
AcDbEntity
  8
RACCORDO
100
AcDbLine
 62
7
  6
CONTINUOUS
 10
-38.037456716
 20
19.6109791689
 30
0.0
 11
-23.0200043096
 21
19.3488485621
 31
0.0
  0
LINE
  5
4C9
100
AcDbEntity
  8
ASSI
100
AcDbLine
 62
7
  6
CONTINUOUS
 10
-38.037456716
 20
19.6109791689
 30
0.0
 11
-23.0200043096
 21
19.3488485621
 31
0.0
  0
LWPOLYLINE
  5
4CA
100
AcDbEntity
  8
0
100
AcDbPolyline
 62
7
  6
CONTINUOUS
 90
10
 70
0
 43
0.3500000087
 10
-33.716028833
 20
33.750001178
 10
-33.6445992783
 20
33.6071420685
 10
-33.6445992783
 20
33.5357146454
 10
-33.7874562561
 20
33.3928555359
 10
-33.8588858109
 20
33.3928555359
 10
-33.9303132339
 20
33.4642872223
 10
-33.9303132339
 20
33.5357146454
 10
-33.8588858109
 20
33.6785694916
 10
-33.7874562561
 20
33.750001178
 10
-33.716028833
 20
33.750001178
  0
LINE
  5
4CB
100
AcDbEntity
  8
RACCORDO
100
AcDbLine
 62
250
  6
CONTINUOUS
 10
-55.337456716
 20
21.6294618725
 30
0.0
 11
-57.0104973058
 21
21.5417815306
 31
0.0
  0
LINE
  5
4CC
100
AcDbEntity
  8
0
100
AcDbLine
 62
250
  6
CONTINUOUS
 10
-50.5374338726
 20
21.8997723451
 30
0.0
 11
-52.037456716
 21
21.821159479
 31
0.0
  0
LINE
  5
4CD
100
AcDbEntity
  8
RACCORDO
100
AcDbLine
 62
7
  6
CONTINUOUS
 10
-55.337456716
 20
22.1294621076
 30
0.0
 11
-57.0235768098
 21
22.0410962979
 31
0.0
  0
LINE
  5
4CE
100
AcDbEntity
  8
0
100
AcDbLine
 62
7
  6
CONTINUOUS
 10
-50.537456716
 20
22.4
 30
0.0
 11
-52.037456716
 21
22.3213883311
 31
0.0
  0
LINE
  5
4CF
100
AcDbEntity
  8
DRAFT
100
AcDbLine
 62
7
  6
CONTINUOUS
 10
-38.5287305128
 20
21.4748046144
 30
0.0
 11
-48.037456716
 21
21.4261825974
 31
0.0
  0
LINE
  5
4D0
100
AcDbEntity
  8
0
100
AcDbLine
 62
250
  6
CONTINUOUS
 10
-49.537456716
 20
21.8941990932
 30
0.0
 11
-50.537456716
 21
21.900016923
 31
0.0
  0
LINE
  5
4D1
100
AcDbEntity
  8
DRAFT
100
AcDbLine
 62
7
  6
CONTINUOUS
 10
-39.0316389847
 20
22.3330611106
 30
0.0
 11
-49.537456716
 21
22.3941821702
 31
0.0
  0
LINE
  5
4D2
100
AcDbEntity
  8
0
100
AcDbLine
 62
7
  6
CONTINUOUS
 10
-49.537456716
 20
22.3941821702
 30
0.0
 11
-50.537456716
 21
22.4
 31
0.0
  0
LINE
  5
4D3
100
AcDbEntity
  8
0
100
AcDbLine
 62
250
  6
CONTINUOUS
 10
-52.7889111489
 20
24.2369056521
 30
0.0
 11
-50.537456716
 21
24.2500042308
 31
0.0
  0
LINE
  5
4D4
100
AcDbEntity
  8
0
100
AcDbLine
 62
7
  6
CONTINUOUS
 10
-52.7889111489
 20
24.4869014213
 30
0.0
 11
-50.537456716
 21
24.5
 31
0.0
  0
LINE
  5
4D5
100
AcDbEntity
  8
0
100
AcDbLine
 62
250
  6
CONTINUOUS
 10
-53.037456716
 20
23.8443375673
 30
0.0
 11
-52.7889111489
 21
23.8443375673
 31
0.0
  0
LINE
  5
4D6
100
AcDbEntity
  8
0
100
AcDbLine
 62
250
  6
CONTINUOUS
 10
-49.537456716
 20
23.8443375673
 30
0.0
 11
-49.7860022832
 21
23.8443375673
 31
0.0
  0
LINE
  5
4D7
100
AcDbEntity
  8
0
100
AcDbLine
 62
250
  6
CONTINUOUS
 10
-53.037456716
 20
24.2369056521
 30
0.0
 11
-52.7889111489
 21
24.2369056521
 31
0.0
  0
LINE
  5
4D8
100
AcDbEntity
  8
0
100
AcDbLine
 62
250
  6
CONTINUOUS
 10
-49.537456716
 20
24.2456323968
 30
0.0
 11
-49.7860022832
 21
24.2456323968
 31
0.0
  0
LINE
  5
4D9
100
AcDbEntity
  8
0
100
AcDbLine
 62
7
  6
CONTINUOUS
 10
-43.0345478503
 20
23.9563493531
 30
0.0
 11
-49.537456716
 21
23.9941821702
 31
0.0
  0
LINE
  5
4DA
100
AcDbEntity
  8
0
100
AcDbLine
 62
250
  6
CONTINUOUS
 10
-50.537456716
 20
24.2500042308
 30
0.0
 11
-49.7860022832
 21
24.2456323968
 31
0.0
  0
LINE
  5
4DB
100
AcDbEntity
  8
0
100
AcDbLine
 62
7
  6
CONTINUOUS
 10
-50.537456716
 20
24.5
 30
0.0
 11
-49.7860022832
 21
24.495628166
 31
0.0
  0
LWPOLYLINE
  5
4DC
100
AcDbEntity
  8
0
100
AcDbPolyline
 62
7
  6
CONTINUOUS
 90
8
 70
0
 43
0.3500000087
 10
-32.6446004333
 20
33.2500006897
 10
-31.7874564346
 20
33.2500006897
 10
-31.3588855011
 20
33.6785694916
 10
-31.3588855011
 20
34.5357156219
 10
-31.7874564346
 20
34.9642844238
 10
-32.6446004333
 20
34.9642844238
 10
-32.6446004333
 20
36.2499993561
 10
-31.3588855011
 20
36.2499993561
  0
LWPOLYLINE
  5
4DD
100
AcDbEntity
  8
0
100
AcDbPolyline
 62
7
  6
CONTINUOUS
 90
7
 70
0
 43
0.3500000087
 10
-37.5731693665
 20
33.2500006897
 10
-39.0731708313
 20
33.2500006897
 10
-37.5731693665
 20
35.392857489
 10
-37.5731693665
 20
35.8214305542
 10
-38.0017424316
 20
36.2499993561
 10
-38.6445977661
 20
36.2499993561
 10
-39.0731708313
 20
35.6071440216
  0
LWPOLYLINE
  5
4DE
100
AcDbEntity
  8
0
100
AcDbPolyline
 62
7
  6
CONTINUOUS
 90
6
 70
0
 43
0.3500000087
 10
-41.787455542
 20
43.3256969208
 10
-40.7160271423
 20
43.3256969208
 10
-40.5017406097
 20
43.5399834534
 10
-40.5017406097
 20
44.611411853
 10
-40.9303136749
 20
45.0399849182
 10
-41.3588867401
 20
45.0399849182
  0
ARC
  5
4DF
100
AcDbEntity
  8
RACCORDO
100
AcDbCircle
 62
250
  6
CONTINUOUS
 10
-3416.137201625
 20
-7.8580881694
 30
0.0
 40
3405.6294302574
100
AcDbArc
 50
359.7756823536
 51
359.9723767298
  0
ARC
  5
4E0
100
AcDbEntity
  8
RACCORDO
100
AcDbCircle
 62
250
  6
CONTINUOUS
 10
-3378.9022316523
 20
-7.8577093059
 30
0.0
 40
3367.8946316225
100
AcDbArc
 50
359.7744291937
 51
359.9722224032
  0
ARC
  5
4E1
100
AcDbEntity
  8
0
100
AcDbCircle
 62
7
  6
CONTINUOUS
 10
-4.0
 20
-23.15
 30
0.0
 40
0.5
100
AcDbArc
 50
154.1580672368
 51
205.8419327632
  0
ARC
  5
4E2
100
AcDbEntity
  8
0
100
AcDbCircle
 62
7
  6
CONTINUOUS
 10
-10.6504532348
 20
-21.9000168915
 30
0.0
 40
0.4999831086
100
AcDbArc
 50
180.0000036164
 51
270.0012084401
  0
ARC
  5
4E3
100
AcDbEntity
  8
0
100
AcDbCircle
 62
7
  6
CONTINUOUS
 10
-9.8994853349
 20
-24.248378334
 30
0.0
 40
0.2516791954
100
AcDbArc
 50
242.7918764815
 51
261.7539281497
  0
ARC
  5
4E4
100
AcDbEntity
  8
0
100
AcDbCircle
 62
7
  6
CONTINUOUS
 10
-7.501621666
 20
-24.2494853349
 30
0.0
 40
0.2516791954
100
AcDbArc
 50
332.7918764815
 51
351.7539281497
  0
ARC
  5
4E5
100
AcDbEntity
  8
0
100
AcDbCircle
 62
7
  6
CONTINUOUS
 10
-9.8999774933
 20
-24.2496231241
 30
0.0
 40
0.2503768773
100
AcDbArc
 50
261.8245330495
 51
269.9938814446
  0
ARC
  5
4E6
100
AcDbEntity
  8
0
100
AcDbCircle
 62
7
  6
CONTINUOUS
 10
-7.5003768759
 20
-24.2499774933
 30
0.0
 40
0.2503768773
100
AcDbArc
 50
351.8245330495
 51
359.9938814446
  0
ARC
  5
4E7
100
AcDbEntity
  8
0
100
AcDbCircle
 62
7
  6
CONTINUOUS
 10
-9.8868948038
 20
-24.2368948038
 30
0.0
 40
0.2500066177
100
AcDbArc
 50
180.0024861811
 51
269.9975138189
  0
ARC
  5
4E8
100
AcDbEntity
  8
0
100
AcDbCircle
 62
7
  6
CONTINUOUS
 10
-7.5131051962
 20
-24.2368948038
 30
0.0
 40
0.2500066177
100
AcDbArc
 50
270.0024861811
 51
359.9975138189
  0
ARC
  5
4E9
100
AcDbEntity
  8
0
100
AcDbCircle
 62
7
  6
CONTINUOUS
 10
-1.2000016924
 20
-23.7999983076
 30
0.0
 40
0.2000016924
100
AcDbArc
 50
270.0004848234
 51
0.0004848094
  0
ARC
  5
4EA
100
AcDbEntity
  8
0
100
AcDbCircle
 62
7
  6
CONTINUOUS
 10
-1.1999988155
 20
-23.7982490662
 30
0.0
 40
0.1999988155
100
AcDbArc
 50
269.9996606734
 51
359.9993696938
  0
ARC
  5
4EB
100
AcDbEntity
  8
0
100
AcDbCircle
 62
7
  6
CONTINUOUS
 10
-6.163157868
 20
-0.0049132846
 30
0.0
 40
5.9498922211
100
AcDbArc
 50
353.9403868822
 51
10.9246809691
  0
ARC
  5
4EC
100
AcDbEntity
  8
DRAFT
100
AcDbCircle
 62
7
  6
CONTINUOUS
 10
-6.1616580725
 20
-0.0045130004
 30
0.0
 40
5.9483437462
100
AcDbArc
 50
349.0763970311
 51
10.9236149125
  0
ARC
  5
4ED
100
AcDbEntity
  8
0
100
AcDbCircle
 62
7
  6
CONTINUOUS
 10
-6.1583883356
 20
-0.0038171313
 30
0.0
 40
5.9452652649
100
AcDbArc
 50
349.0637859002
 51
353.9250298356
  0
ARC
  5
4EE
100
AcDbEntity
  8
DRAFT
100
AcDbCircle
 62
7
  6
CONTINUOUS
 10
-6.1613060301
 20
-0.0045130004
 30
0.0
 40
5.3479666553
100
AcDbArc
 50
349.0764982865
 51
10.9235137282
  0
ARC
  5
4EF
100
AcDbEntity
  8
0
100
AcDbCircle
 62
7
  6
CONTINUOUS
 10
-6.1613060174
 20
-0.0045129992
 30
0.0
 40
5.3479666427
100
AcDbArc
 50
349.0764603065
 51
10.9235139131
  0
ARC
  5
4F0
100
AcDbEntity
  8
0
100
AcDbCircle
 62
7
  6
CONTINUOUS
 10
-1.7802921534
 20
-1.2887108474
 30
0.0
 40
3.3680782032
100
AcDbArc
 50
81.6086035967
 51
81.9820911721
  0
ARC
  5
4F1
100
AcDbEntity
  8
0
100
AcDbCircle
 62
7
  6
CONTINUOUS
 10
-1.7802689852
 20
-1.28857823
 30
0.0
 40
3.3679436666
100
AcDbArc
 50
82.3558822333
 51
82.5628006929
  0
ARC
  5
4F2
100
AcDbEntity
  8
0
100
AcDbCircle
 62
7
  6
CONTINUOUS
 10
-1.7802109149
 20
-1.2885530747
 30
0.0
 40
3.3679184739
100
AcDbArc
 50
97.6026494232
 51
97.975887924
  0
ARC
  5
4F3
100
AcDbEntity
  8
0
100
AcDbCircle
 62
7
  6
CONTINUOUS
 10
-1.780218121
 20
-1.2884834201
 30
0.0
 40
3.3678485026
100
AcDbArc
 50
98.3496508158
 51
98.5564798471
  0
ARC
  5
4F4
100
AcDbEntity
  8
DRAFT
100
AcDbCircle
 62
7
  6
CONTINUOUS
 10
-1.7802278274
 20
-1.2884255287
 30
0.0
 40
3.3677898115
100
AcDbArc
 50
97.4372167661
 51
98.5564623855
  0
ARC
  5
4F5
100
AcDbEntity
  8
DRAFT
100
AcDbCircle
 62
7
  6
CONTINUOUS
 10
-1.7802501668
 20
-1.288425488
 30
0.0
 40
3.3677897737
100
AcDbArc
 50
81.4435617716
 51
82.5627997398
  0
ARC
  5
4F6
100
AcDbEntity
  8
0
100
AcDbCircle
 62
7
  6
CONTINUOUS
 10
-1.7802673847
 20
-1.2881502138
 30
0.0
 40
3.3675116745
100
AcDbArc
 50
97.9758875156
 51
98.3496447685
  0
ARC
  5
4F7
100
AcDbEntity
  8
0
100
AcDbCircle
 62
7
  6
CONTINUOUS
 10
-1.7802648286
 20
-1.2881469866
 30
0.0
 40
3.3675088232
100
AcDbArc
 50
97.4372917343
 51
97.6026506191
  0
ARC
  5
4F8
100
AcDbEntity
  8
0
100
AcDbCircle
 62
7
  6
CONTINUOUS
 10
-1.7801898117
 20
-1.2879846493
 30
0.0
 40
3.3673448292
100
AcDbArc
 50
81.9820920112
 51
82.3558739316
  0
ARC
  5
4F9
100
AcDbEntity
  8
0
100
AcDbCircle
 62
7
  6
CONTINUOUS
 10
-1.7801791422
 20
-1.2879501836
 30
0.0
 40
3.3673091922
100
AcDbArc
 50
81.4436731167
 51
81.6086063555
  0
ARC
  5
4FA
100
AcDbEntity
  8
0
100
AcDbCircle
 62
7
  6
CONTINUOUS
 10
-1.4517230069
 20
-0.9135241712
 30
0.0
 40
1.1514922659
100
AcDbArc
 50
344.4830659028
 51
349.0765168863
  0
ARC
  5
4FB
100
AcDbEntity
  8
0
100
AcDbCircle
 62
7
  6
CONTINUOUS
 10
-1.4503483012
 20
-0.9122359433
 30
0.0
 40
1.1514627623
100
AcDbArc
 50
278.5489440118
 51
283.1404568456
  0
ARC
  5
4FC
100
AcDbEntity
  8
0
100
AcDbCircle
 62
7
  6
CONTINUOUS
 10
-2.1087854289
 20
-0.9135264998
 30
0.0
 40
1.1514623485
100
AcDbArc
 50
190.9232687612
 51
195.5151266893
  0
ARC
  5
4FD
100
AcDbEntity
  8
0
100
AcDbCircle
 62
7
  6
CONTINUOUS
 10
-1.4503717838
 20
-0.9135571737
 30
0.0
 40
1.1501815113
100
AcDbArc
 50
283.1565586502
 51
344.4666428478
  0
ARC
  5
4FE
100
AcDbEntity
  8
0
100
AcDbCircle
 62
7
  6
CONTINUOUS
 10
-2.1101574452
 20
-0.9135842163
 30
0.0
 40
1.150124932
100
AcDbArc
 50
195.5306392646
 51
261.4425295145
  0
ARC
  5
4FF
100
AcDbEntity
  8
DRAFT
100
AcDbCircle
 62
7
  6
CONTINUOUS
 10
-1.4502890001
 20
-0.9136439999
 30
0.0
 40
1.1500615447
100
AcDbArc
 50
278.5564504026
 51
349.069125032
  0
ARC
  5
500
100
AcDbEntity
  8
DRAFT
100
AcDbCircle
 62
7
  6
CONTINUOUS
 10
-2.11019
 20
-0.913644
 30
0.0
 40
1.1500609698
100
AcDbArc
 50
190.9308748092
 51
261.4435227094
  0
ARC
  5
501
100
AcDbEntity
  8
0
100
AcDbCircle
 62
7
  6
CONTINUOUS
 10
-1.4518209608
 20
-0.9114435278
 30
0.0
 40
0.5526734525
100
AcDbArc
 50
296.2802953597
 51
313.7592510882
  0
ARC
  5
502
100
AcDbEntity
  8
0
100
AcDbCircle
 62
7
  6
CONTINUOUS
 10
-2.1080546767
 20
-0.9120220181
 30
0.0
 40
0.5526733707
100
AcDbArc
 50
208.6546432523
 51
226.133476663
  0
ARC
  5
503
100
AcDbEntity
  8
0
100
AcDbCircle
 62
7
  6
CONTINUOUS
 10
-1.4523484901
 20
-0.912077162
 30
0.0
 40
0.5525812709
100
AcDbArc
 50
313.844197061
 51
331.2243345659
  0
ARC
  5
504
100
AcDbEntity
  8
0
100
AcDbCircle
 62
7
  6
CONTINUOUS
 10
-2.1087102742
 20
-0.9115219669
 30
0.0
 40
0.5525801765
100
AcDbArc
 50
226.2184158956
 51
243.5985160038
  0
ARC
  5
505
100
AcDbEntity
  8
DRAFT
100
AcDbCircle
 62
7
  6
CONTINUOUS
 10
-1.4503097275
 20
-0.9136223952
 30
0.0
 40
0.5500527155
100
AcDbArc
 50
278.55825153
 51
349.0673255689
  0
ARC
  5
506
100
AcDbEntity
  8
DRAFT
100
AcDbCircle
 62
7
  6
CONTINUOUS
 10
-2.1101692724
 20
-0.9136223951
 30
0.0
 40
0.5500523629
100
AcDbArc
 50
190.9327721675
 51
261.4417212337
  0
ARC
  5
507
100
AcDbEntity
  8
0
100
AcDbCircle
 62
7
  6
CONTINUOUS
 10
-2.1116004147
 20
-0.9141247602
 30
0.0
 40
0.5485535866
100
AcDbArc
 50
190.9096049
 51
208.6395058163
  0
ARC
  5
508
100
AcDbEntity
  8
0
100
AcDbCircle
 62
7
  6
CONTINUOUS
 10
-1.4498667228
 20
-0.9150743383
 30
0.0
 40
0.5485526822
100
AcDbArc
 50
278.5349411646
 51
296.2651860262
  0
ARC
  5
509
100
AcDbEntity
  8
0
100
AcDbCircle
 62
7
  6
CONTINUOUS
 10
-1.4488397363
 20
-0.9141396693
 30
0.0
 40
0.548512969
100
AcDbArc
 50
331.2367400117
 51
349.0908860274
  0
ARC
  5
50A
100
AcDbEntity
  8
0
100
AcDbCircle
 62
7
  6
CONTINUOUS
 10
-2.1106264547
 20
-0.915116636
 30
0.0
 40
0.5485083974
100
AcDbArc
 50
243.6108340089
 51
261.4660065085
  0
ARC
  5
50B
100
AcDbEntity
  8
RACCORDO
100
AcDbCircle
 62
250
  6
CONTINUOUS
 10
-3434.9538116481
 20
7.8167179179
 30
0.0
 40
3424.4460581913
100
AcDbArc
 50
0.0281636683
 51
0.2237772482
  0
ARC
  5
50C
100
AcDbEntity
  8
RACCORDO
100
AcDbCircle
 62
250
  6
CONTINUOUS
 10
-3397.5101832397
 20
7.8165692556
 30
0.0
 40
3386.5026011205
100
AcDbArc
 50
0.028321009
 51
0.2250273941
  0
ARC
  5
50D
100
AcDbEntity
  8
0
100
AcDbCircle
 62
7
  6
CONTINUOUS
 10
-1.780238839
 20
1.2919524958
 30
0.0
 40
3.3803254049
100
AcDbArc
 50
267.1622098338
 51
272.8400111463
  0
ARC
  5
50E
100
AcDbEntity
  8
0
100
AcDbCircle
 62
7
  6
CONTINUOUS
 10
-1.7808015293
 20
1.27369363
 30
0.0
 40
3.3620610894
100
AcDbArc
 50
261.4387923154
 51
267.1563820382
  0
ARC
  5
50F
100
AcDbEntity
  8
0
100
AcDbCircle
 62
7
  6
CONTINUOUS
 10
-1.7802387664
 20
1.2900787452
 30
0.0
 40
2.7784224602
100
AcDbArc
 50
267.1598961028
 51
272.8369614349
  0
ARC
  5
510
100
AcDbEntity
  8
0
100
AcDbCircle
 62
7
  6
CONTINUOUS
 10
-1.7805155906
 20
1.2765552562
 30
0.0
 40
2.7649018938
100
AcDbArc
 50
261.4407215374
 51
267.1517399319
  0
ARC
  5
511
100
AcDbEntity
  8
0
100
AcDbCircle
 62
7
  6
CONTINUOUS
 10
-2.1087554341
 20
0.9044991417
 30
0.0
 40
1.1514926718
100
AcDbArc
 50
164.4831402889
 51
169.0765844188
  0
ARC
  5
512
100
AcDbEntity
  8
0
100
AcDbCircle
 62
7
  6
CONTINUOUS
 10
-2.1101306907
 20
0.9032108436
 30
0.0
 40
1.1514627132
100
AcDbArc
 50
98.5489709954
 51
103.1405026537
  0
ARC
  5
513
100
AcDbEntity
  8
0
100
AcDbCircle
 62
7
  6
CONTINUOUS
 10
-2.1101071991
 20
0.9045321464
 30
0.0
 40
1.150181394
100
AcDbArc
 50
103.1566057688
 51
164.4667102036
  0
ARC
  5
514
100
AcDbEntity
  8
DRAFT
100
AcDbCircle
 62
7
  6
CONTINUOUS
 10
-2.11019
 20
0.904619
 30
0.0
 40
1.1500613959
100
AcDbArc
 50
98.5564757171
 51
169.0691151524
  0
ARC
  5
515
100
AcDbEntity
  8
0
100
AcDbCircle
 62
7
  6
CONTINUOUS
 10
-2.1086516698
 20
0.9023923593
 30
0.0
 40
0.5526968904
100
AcDbArc
 50
116.034671901
 51
133.5934505401
  0
ARC
  5
516
100
AcDbEntity
  8
0
100
AcDbCircle
 62
7
  6
CONTINUOUS
 10
-2.1081161581
 20
0.9030341755
 30
0.0
 40
0.5526019335
100
AcDbArc
 50
133.6795495291
 51
151.1386027037
  0
ARC
  5
517
100
AcDbEntity
  8
DRAFT
100
AcDbCircle
 62
7
  6
CONTINUOUS
 10
-2.1101690465
 20
0.9045970337
 30
0.0
 40
0.5500518951
100
AcDbArc
 50
98.229201559
 51
169.0672782138
  0
ARC
  5
518
100
AcDbEntity
  8
0
100
AcDbCircle
 62
7
  6
CONTINUOUS
 10
-2.1106084083
 20
0.9060632938
 30
0.0
 40
0.5485396286
100
AcDbArc
 50
98.2056856503
 51
116.0193219746
  0
ARC
  5
519
100
AcDbEntity
  8
0
100
AcDbCircle
 62
7
  6
CONTINUOUS
 10
-2.1116570622
 20
0.9051218966
 30
0.0
 40
0.5484931311
100
AcDbArc
 50
151.1510582953
 51
169.0921023281
  0
ARC
  5
51A
100
AcDbEntity
  8
0
100
AcDbCircle
 62
7
  6
CONTINUOUS
 10
-3.0906438873
 20
1.7499203159
 30
0.0
 40
1.0103591977
100
AcDbArc
 50
355.7421290144
 51
4.2790335293
  0
ARC
  5
51B
100
AcDbEntity
  8
DRAFT
100
AcDbCircle
 62
7
  6
CONTINUOUS
 10
-3.0816878419
 20
1.749920007
 30
0.0
 40
1.0013972876
100
AcDbArc
 50
347.0510135491
 51
12.9484024663
  0
ARC
  5
51C
100
AcDbEntity
  8
0
100
AcDbCircle
 62
7
  6
CONTINUOUS
 10
-3.0773853758
 20
1.7503652615
 30
0.0
 40
0.9971045944
100
AcDbArc
 50
4.3103827492
 51
12.9787795953
  0
ARC
  5
51D
100
AcDbEntity
  8
0
100
AcDbCircle
 62
7
  6
CONTINUOUS
 10
-3.0773846855
 20
1.7494729412
 30
0.0
 40
0.9971035211
100
AcDbArc
 50
347.0205303718
 51
355.7111973355
  0
ARC
  5
51E
100
AcDbEntity
  8
0
100
AcDbCircle
 62
7
  6
CONTINUOUS
 10
-2.2034504649
 20
1.5482879357
 30
0.0
 40
0.1004073806
100
AcDbArc
 50
301.5714947565
 51
309.0717717786
  0
ARC
  5
51F
100
AcDbEntity
  8
0
100
AcDbCircle
 62
7
  6
CONTINUOUS
 10
-2.2035041122
 20
1.5482181076
 30
0.0
 40
0.1003922358
100
AcDbArc
 50
316.6801135551
 51
324.1636699017
  0
ARC
  5
520
100
AcDbEntity
  8
0
100
AcDbCircle
 62
7
  6
CONTINUOUS
 10
-2.2030816917
 20
1.5478213261
 30
0.0
 40
0.0998126899
100
AcDbArc
 50
309.0762499603
 51
316.679460246
  0
ARC
  5
521
100
AcDbEntity
  8
0
100
AcDbCircle
 62
7
  6
CONTINUOUS
 10
-2.2030264585
 20
1.9519577267
 30
0.0
 40
0.0998066961
100
AcDbArc
 50
12.9385767988
 51
41.3043665982
  0
ARC
  5
522
100
AcDbEntity
  8
0
100
AcDbCircle
 62
7
  6
CONTINUOUS
 10
-2.2031887733
 20
1.9520723308
 30
0.0
 40
0.0998047237
100
AcDbArc
 50
69.251063389
 51
97.4667586999
  0
ARC
  5
523
100
AcDbEntity
  8
0
100
AcDbCircle
 62
7
  6
CONTINUOUS
 10
-2.2030668202
 20
1.547563791
 30
0.0
 40
0.0995895703
100
AcDbArc
 50
278.1782374918
 51
301.6015691288
  0
ARC
  5
524
100
AcDbEntity
  8
0
100
AcDbCircle
 62
7
  6
CONTINUOUS
 10
-2.2028138542
 20
1.5477829322
 30
0.0
 40
0.0995778789
100
AcDbArc
 50
324.1341335732
 51
347.0819129208
  0
ARC
  5
525
100
AcDbEntity
  8
0
100
AcDbCircle
 62
7
  6
CONTINUOUS
 10
-1.7796771778
 20
1.2736977655
 30
0.0
 40
3.3620652841
100
AcDbArc
 50
272.845865023
 51
278.5612403354
  0
ARC
  5
526
100
AcDbEntity
  8
0
100
AcDbCircle
 62
7
  6
CONTINUOUS
 10
-1.7799627527
 20
1.276558542
 30
0.0
 40
2.764905194
100
AcDbArc
 50
272.8451156332
 51
278.5592824145
  0
ARC
  5
527
100
AcDbEntity
  8
0
100
AcDbCircle
 62
7
  6
CONTINUOUS
 10
-1.4502890001
 20
0.9046189999
 30
0.0
 40
1.15006097
100
AcDbArc
 50
10.9309816999
 51
81.4438958678
  0
ARC
  5
528
100
AcDbEntity
  8
DRAFT
100
AcDbCircle
 62
7
  6
CONTINUOUS
 10
-1.4502889999
 20
0.9046190001
 30
0.0
 40
1.1500609698
100
AcDbArc
 50
10.9308877801
 51
81.4435457829
  0
ARC
  5
529
100
AcDbEntity
  8
0
100
AcDbCircle
 62
7
  6
CONTINUOUS
 10
-1.4524407023
 20
0.9029772688
 30
0.0
 40
0.5526974756
100
AcDbArc
 50
28.7382621135
 51
46.2972477245
  0
ARC
  5
52A
100
AcDbEntity
  8
0
100
AcDbCircle
 62
7
  6
CONTINUOUS
 10
-1.4517743895
 20
0.9024724915
 30
0.0
 40
0.5526026533
100
AcDbArc
 50
46.3833526985
 51
63.8423801179
  0
ARC
  5
52B
100
AcDbEntity
  8
DRAFT
100
AcDbCircle
 62
7
  6
CONTINUOUS
 10
-1.4503099518
 20
0.9045970355
 30
0.0
 40
0.5500523484
100
AcDbArc
 50
10.9327212509
 51
81.7707964383
  0
ARC
  5
52C
100
AcDbEntity
  8
0
100
AcDbCircle
 62
7
  6
CONTINUOUS
 10
-1.4488660693
 20
0.9051050624
 30
0.0
 40
0.548540104
100
AcDbArc
 50
10.9092249934
 51
28.7229091144
  0
ARC
  5
52D
100
AcDbEntity
  8
0
100
AcDbCircle
 62
7
  6
CONTINUOUS
 10
-1.4498563827
 20
0.9061064563
 30
0.0
 40
0.548495337
100
AcDbArc
 50
63.854870292
 51
81.7957120771
  0
ARC
  5
52E
100
AcDbEntity
  8
0
100
AcDbCircle
 62
7
  6
CONTINUOUS
 10
-0.4698312454
 20
1.7499197945
 30
0.0
 40
1.0103627594
100
AcDbArc
 50
175.7428112255
 51
184.2796689879
  0
ARC
  5
52F
100
AcDbEntity
  8
DRAFT
100
AcDbCircle
 62
7
  6
CONTINUOUS
 10
-0.4787907355
 20
1.7499200071
 30
0.0
 40
1.0013974047
100
AcDbArc
 50
167.0516070299
 51
192.9489812593
  0
ARC
  5
530
100
AcDbEntity
  8
0
100
AcDbCircle
 62
7
  6
CONTINUOUS
 10
-0.4830953653
 20
1.7494744401
 30
0.0
 40
0.997102539
100
AcDbArc
 50
184.311027343
 51
192.9795539808
  0
ARC
  5
531
100
AcDbEntity
  8
0
100
AcDbCircle
 62
7
  6
CONTINUOUS
 10
-0.4830956628
 20
1.7503672388
 30
0.0
 40
0.9971018701
100
AcDbArc
 50
167.0210287655
 51
175.711870306
  0
ARC
  5
532
100
AcDbEntity
  8
0
100
AcDbCircle
 62
7
  6
CONTINUOUS
 10
-1.3569616385
 20
1.5482305206
 30
0.0
 40
0.1004101203
100
AcDbArc
 50
216.333453988
 51
223.832660978
  0
ARC
  5
533
100
AcDbEntity
  8
0
100
AcDbCircle
 62
7
  6
CONTINUOUS
 10
-1.357039039
 20
1.5482747135
 30
0.0
 40
0.1003900864
100
AcDbArc
 50
231.4350905193
 51
238.9140697204
  0
ARC
  5
534
100
AcDbEntity
  8
0
100
AcDbCircle
 62
7
  6
CONTINUOUS
 10
-1.3573989463
 20
1.5478219651
 30
0.0
 40
0.0998117148
100
AcDbArc
 50
223.8373346153
 51
231.4346133116
  0
ARC
  5
535
100
AcDbEntity
  8
0
100
AcDbCircle
 62
7
  6
CONTINUOUS
 10
-1.3574515681
 20
1.9519564267
 30
0.0
 40
0.0998085889
100
AcDbArc
 50
138.8529826375
 51
167.0580630936
  0
ARC
  5
536
100
AcDbEntity
  8
0
100
AcDbCircle
 62
7
  6
CONTINUOUS
 10
-1.3572904238
 20
1.9520718333
 30
0.0
 40
0.0998058959
100
AcDbArc
 50
82.5354426502
 51
110.903800212
  0
ARC
  5
537
100
AcDbEntity
  8
0
100
AcDbCircle
 62
7
  6
CONTINUOUS
 10
-1.3576529914
 20
1.5477866859
 30
0.0
 40
0.0995902273
100
AcDbArc
 50
192.9184970407
 51
216.363410571
  0
ARC
  5
538
100
AcDbEntity
  8
0
100
AcDbCircle
 62
7
  6
CONTINUOUS
 10
-1.3574147802
 20
1.5475518626
 30
0.0
 40
0.0995770507
100
AcDbArc
 50
238.8844703645
 51
261.8191155789
  0
ARC
  5
539
100
AcDbEntity
  8
0
100
AcDbCircle
 62
7
  6
CONTINUOUS
 10
-4.0
 20
23.15
 30
0.0
 40
0.5
100
AcDbArc
 50
154.1580672368
 51
205.8419327632
  0
ARC
  5
53A
100
AcDbEntity
  8
0
100
AcDbCircle
 62
7
  6
CONTINUOUS
 10
-10.6504532348
 20
21.9000168915
 30
0.0
 40
0.4999831086
100
AcDbArc
 50
89.9987915599
 51
179.9999963836
  0
ARC
  5
53B
100
AcDbEntity
  8
0
100
AcDbCircle
 62
7
  6
CONTINUOUS
 10
-7.5005146651
 20
24.248378334
 30
0.0
 40
0.2516791954
100
AcDbArc
 50
62.7918764814
 51
81.7539281497
  0
ARC
  5
53C
100
AcDbEntity
  8
0
100
AcDbCircle
 62
7
  6
CONTINUOUS
 10
-9.898378334
 20
24.2494853349
 30
0.0
 40
0.2516791954
100
AcDbArc
 50
152.7918764815
 51
171.7539281497
  0
ARC
  5
53D
100
AcDbEntity
  8
0
100
AcDbCircle
 62
7
  6
CONTINUOUS
 10
-7.5000225067
 20
24.2496231241
 30
0.0
 40
0.2503768773
100
AcDbArc
 50
81.8245330494
 51
89.9938814447
  0
ARC
  5
53E
100
AcDbEntity
  8
0
100
AcDbCircle
 62
7
  6
CONTINUOUS
 10
-9.8996231241
 20
24.2499774933
 30
0.0
 40
0.2503768773
100
AcDbArc
 50
171.8245330495
 51
179.9938814446
  0
ARC
  5
53F
100
AcDbEntity
  8
0
100
AcDbCircle
 62
7
  6
CONTINUOUS
 10
-7.5131051962
 20
24.2368948038
 30
0.0
 40
0.2500066177
100
AcDbArc
 50
0.0024861811
 51
89.9975138189
  0
ARC
  5
540
100
AcDbEntity
  8
0
100
AcDbCircle
 62
7
  6
CONTINUOUS
 10
-9.8868948038
 20
24.2368948038
 30
0.0
 40
0.2500066177
100
AcDbArc
 50
90.0024861811
 51
179.9975138189
  0
ARC
  5
541
100
AcDbEntity
  8
0
100
AcDbCircle
 62
7
  6
CONTINUOUS
 10
-1.2000016924
 20
23.7999983076
 30
0.0
 40
0.2000016924
100
AcDbArc
 50
359.9995151906
 51
89.9995151766
  0
ARC
  5
542
100
AcDbEntity
  8
0
100
AcDbCircle
 62
250
  6
CONTINUOUS
 10
-1.1999988151
 20
23.7982490666
 30
0.0
 40
0.1999988151
100
AcDbArc
 50
0.0006301927
 51
90.0003394401
  0
ARC
  5
543
100
AcDbEntity
  8
0
100
AcDbCircle
 62
7
  6
CONTINUOUS
 10
4.0
 20
-23.15
 30
0.0
 40
0.5
100
AcDbArc
 50
334.1580672368
 51
25.8419327632
  0
ARC
  5
544
100
AcDbEntity
  8
0
100
AcDbCircle
 62
7
  6
CONTINUOUS
 10
10.6504532348
 20
-21.9000168915
 30
0.0
 40
0.4999831086
100
AcDbArc
 50
269.9987915599
 51
359.9999963836
  0
ARC
  5
545
100
AcDbEntity
  8
0
100
AcDbCircle
 62
7
  6
CONTINUOUS
 10
9.898378334
 20
-24.2494853349
 30
0.0
 40
0.2516791954
100
AcDbArc
 50
332.7918764814
 51
351.7539281497
  0
ARC
  5
546
100
AcDbEntity
  8
0
100
AcDbCircle
 62
7
  6
CONTINUOUS
 10
9.8996231241
 20
-24.2499774933
 30
0.0
 40
0.2503768773
100
AcDbArc
 50
351.8245330495
 51
359.9938814446
  0
ARC
  5
547
100
AcDbEntity
  8
0
100
AcDbCircle
 62
7
  6
CONTINUOUS
 10
7.5000225067
 20
-24.2496231241
 30
0.0
 40
0.2503768773
100
AcDbArc
 50
261.8245330495
 51
269.9938814446
  0
ARC
  5
548
100
AcDbEntity
  8
0
100
AcDbCircle
 62
250
  6
CONTINUOUS
 10
9.8868777923
 20
-24.2366167132
 30
0.0
 40
0.2502847096
100
AcDbArc
 50
270.0063777271
 51
276.1717480341
  0
ARC
  5
549
100
AcDbEntity
  8
0
100
AcDbCircle
 62
250
  6
CONTINUOUS
 10
7.5131222077
 20
-24.2366167132
 30
0.0
 40
0.2502847096
100
AcDbArc
 50
263.8282519659
 51
269.9936222728
  0
ARC
  5
54A
100
AcDbEntity
  8
0
100
AcDbCircle
 62
7
  6
CONTINUOUS
 10
7.5130886915
 20
-24.2369606028
 30
0.0
 40
0.2499392099
100
AcDbArc
 50
259.1004972862
 51
263.8274154081
  0
ARC
  5
54B
100
AcDbEntity
  8
0
100
AcDbCircle
 62
7
  6
CONTINUOUS
 10
1.2000016924
 20
-23.7999983076
 30
0.0
 40
0.2000016924
100
AcDbArc
 50
179.9995151906
 51
269.9995151766
  0
ARC
  5
54C
100
AcDbEntity
  8
0
100
AcDbCircle
 62
250
  6
CONTINUOUS
 10
1.1999988151
 20
-23.7982490666
 30
0.0
 40
0.1999988151
100
AcDbArc
 50
180.0006301927
 51
270.0003394401
  0
ARC
  5
54D
100
AcDbEntity
  8
0
100
AcDbCircle
 62
7
  6
CONTINUOUS
 10
0.728962751
 20
-0.9944066765
 30
0.0
 40
1.0101844058
100
AcDbArc
 50
265.7617502199
 51
274.2170182422
  0
ARC
  5
54E
100
AcDbEntity
  8
0
100
AcDbCircle
 62
7
  6
CONTINUOUS
 10
0.7293968263
 20
-1.0074424682
 30
0.0
 40
0.9971521253
100
AcDbArc
 50
274.2472234692
 51
282.8519842546
  0
ARC
  5
54F
100
AcDbEntity
  8
0
100
AcDbCircle
 62
7
  6
CONTINUOUS
 10
0.7285262303
 20
-1.0074526375
 30
0.0
 40
0.9971420004
100
AcDbArc
 50
257.1480675796
 51
265.7313641431
  0
ARC
  5
550
100
AcDbEntity
  8
0
100
AcDbCircle
 62
7
  6
CONTINUOUS
 10
0.9285142263
 20
-1.8818286015
 30
0.0
 40
0.1005404649
100
AcDbArc
 50
325.7852923079
 51
334.1100082851
  0
ARC
  5
551
100
AcDbEntity
  8
0
100
AcDbCircle
 62
7
  6
CONTINUOUS
 10
0.5293246356
 20
-1.8817258217
 30
0.0
 40
0.1005375562
100
AcDbArc
 50
222.978210622
 51
231.2621728213
  0
ARC
  5
552
100
AcDbEntity
  8
0
100
AcDbCircle
 62
7
  6
CONTINUOUS
 10
0.5294037927
 20
-1.8818309515
 30
0.0
 40
0.100533826
100
AcDbArc
 50
206.1893086042
 51
214.4065181502
  0
ARC
  5
553
100
AcDbEntity
  8
0
100
AcDbCircle
 62
7
  6
CONTINUOUS
 10
0.9286028098
 20
-1.8817308667
 30
0.0
 40
0.100532088
100
AcDbArc
 50
309.0108491659
 51
317.2243582284
  0
ARC
  5
554
100
AcDbEntity
  8
0
100
AcDbCircle
 62
7
  6
CONTINUOUS
 10
0.5287545016
 20
-1.8822650417
 30
0.0
 40
0.0997528418
100
AcDbArc
 50
214.4115400778
 51
222.9748628767
  0
ARC
  5
555
100
AcDbEntity
  8
0
100
AcDbCircle
 62
7
  6
CONTINUOUS
 10
0.929170524
 20
-1.882267279
 30
0.0
 40
0.0997510823
100
AcDbArc
 50
317.2290597457
 51
325.781688024
  0
ARC
  5
556
100
AcDbEntity
  8
0
100
AcDbCircle
 62
7
  6
CONTINUOUS
 10
0.5284415973
 20
-1.882226942
 30
0.0
 40
0.0994956672
100
AcDbArc
 50
179.9321010583
 51
206.2292247274
  0
ARC
  5
557
100
AcDbEntity
  8
0
100
AcDbCircle
 62
7
  6
CONTINUOUS
 10
0.9292013592
 20
-1.8825799412
 30
0.0
 40
0.0994955912
100
AcDbArc
 50
282.7716926533
 51
309.0508001687
  0
ARC
  5
558
100
AcDbEntity
  8
0
100
AcDbCircle
 62
7
  6
CONTINUOUS
 10
0.9294900001
 20
-1.8822274359
 30
0.0
 40
0.0994884993
100
AcDbArc
 50
334.0712722005
 51
0.0659508688
  0
ARC
  5
559
100
AcDbEntity
  8
0
100
AcDbCircle
 62
7
  6
CONTINUOUS
 10
0.5287202523
 20
-1.882587514
 30
0.0
 40
0.0994872468
100
AcDbArc
 50
231.2231369174
 51
257.2299775805
  0
ARC
  5
55A
100
AcDbEntity
  8
0
100
AcDbCircle
 62
7
  6
CONTINUOUS
 10
3.0058800261
 20
-0.9885956302
 30
0.0
 40
1.0159523552
100
AcDbArc
 50
263.4739269323
 51
274.3558338112
  0
ARC
  5
55B
100
AcDbEntity
  8
DRAFT
100
AcDbCircle
 62
7
  6
CONTINUOUS
 10
3.0056179134
 20
-1.0024825138
 30
0.0
 40
1.0020499826
100
AcDbArc
 50
252.319772294
 51
285.5402412247
  0
ARC
  5
55C
100
AcDbEntity
  8
0
100
AcDbCircle
 62
7
  6
CONTINUOUS
 10
3.0067941942
 20
-1.0114180826
 30
0.0
 40
0.9931267319
100
AcDbArc
 50
274.4032480995
 51
285.6129339426
  0
ARC
  5
55D
100
AcDbEntity
  8
0
100
AcDbCircle
 62
7
  6
CONTINUOUS
 10
3.0041079741
 20
-1.0113697884
 30
0.0
 40
0.9931247101
100
AcDbArc
 50
252.2471610881
 51
263.4261671053
  0
ARC
  5
55E
100
AcDbEntity
  8
0
100
AcDbCircle
 62
7
  6
CONTINUOUS
 10
2.7326556396
 20
-1.8614370692
 30
0.0
 40
0.1010659298
100
AcDbArc
 50
210.0340247136
 51
216.2595874888
  0
ARC
  5
55F
100
AcDbEntity
  8
0
100
AcDbCircle
 62
7
  6
CONTINUOUS
 10
2.7319328123
 20
-1.8611209537
 30
0.0
 40
0.1008482734
100
AcDbArc
 50
245.0179710038
 51
252.3127676099
  0
ARC
  5
560
100
AcDbEntity
  8
0
100
AcDbCircle
 62
7
  6
CONTINUOUS
 10
2.7320448642
 20
-1.8614376515
 30
0.0
 40
0.1005980967
100
AcDbArc
 50
224.0701975279
 51
230.4972377964
  0
ARC
  5
561
100
AcDbEntity
  8
0
100
AcDbCircle
 62
7
  6
CONTINUOUS
 10
3.2468627537
 20
-1.8712106566
 30
0.0
 40
0.1005158133
100
AcDbArc
 50
311.0658892051
 51
319.0994313417
  0
ARC
  5
562
100
AcDbEntity
  8
0
100
AcDbCircle
 62
7
  6
CONTINUOUS
 10
3.246857768
 20
-1.8713469888
 30
0.0
 40
0.1004367416
100
AcDbArc
 50
327.4935152664
 51
335.3879108183
  0
ARC
  5
563
100
AcDbEntity
  8
0
100
AcDbCircle
 62
7
  6
CONTINUOUS
 10
3.2473968456
 20
-1.8716941328
 30
0.0
 40
0.0997955676
100
AcDbArc
 50
319.1084671702
 51
327.4952718597
  0
ARC
  5
564
100
AcDbEntity
  8
0
100
AcDbCircle
 62
7
  6
CONTINUOUS
 10
3.2474607677
 20
-1.8719929682
 30
0.0
 40
0.0995331546
100
AcDbArc
 50
285.5129610202
 51
311.1021812202
  0
ARC
  5
565
100
AcDbEntity
  8
0
100
AcDbCircle
 62
7
  6
CONTINUOUS
 10
3.2477282486
 20
-1.8716752398
 30
0.0
 40
0.0995086588
100
AcDbArc
 50
335.351001441
 51
0.0632348282
  0
ARC
  5
566
100
AcDbEntity
  8
0
100
AcDbCircle
 62
7
  6
CONTINUOUS
 10
2.730864396
 20
-1.8627001292
 30
0.0
 40
0.0988745469
100
AcDbArc
 50
216.2833220143
 51
217.9593523749
  0
ARC
  5
567
100
AcDbEntity
  8
0
100
AcDbCircle
 62
7
  6
CONTINUOUS
 10
2.7305904479
 20
-1.8629048714
 30
0.0
 40
0.098532616
100
AcDbArc
 50
217.9634679769
 51
224.0454395915
  0
ARC
  5
568
100
AcDbEntity
  8
0
100
AcDbCircle
 62
7
  6
CONTINUOUS
 10
2.6411067775
 20
-0.00451418
 30
0.0
 40
5.9882716843
100
AcDbArc
 50
178.9088182503
 51
181.0909212606
  0
ARC
  5
569
100
AcDbEntity
  8
0
100
AcDbCircle
 62
7
  6
CONTINUOUS
 10
2.6360552034
 20
-0.0044272689
 30
0.0
 40
5.9832193712
100
AcDbArc
 50
178.6585446993
 51
178.9087291478
  0
ARC
  5
56A
100
AcDbEntity
  8
0
100
AcDbCircle
 62
7
  6
CONTINUOUS
 10
2.6360125545
 20
-0.0046016451
 30
0.0
 40
5.9831767195
100
AcDbArc
 50
181.0910126141
 51
181.3414557172
  0
ARC
  5
56B
100
AcDbEntity
  8
0
100
AcDbCircle
 62
7
  6
CONTINUOUS
 10
2.6157040846
 20
-0.0038109921
 30
0.0
 40
5.9628594042
100
AcDbArc
 50
176.3966485466
 51
178.6598868009
  0
ARC
  5
56C
100
AcDbEntity
  8
0
100
AcDbCircle
 62
7
  6
CONTINUOUS
 10
2.6154669857
 20
-0.005224771
 30
0.0
 40
5.9626221954
100
AcDbArc
 50
181.3400915112
 51
183.6176340825
  0
ARC
  5
56D
100
AcDbEntity
  8
DRAFT
100
AcDbCircle
 62
7
  6
CONTINUOUS
 10
2.6011795299
 20
-0.0045130004
 30
0.0
 40
5.948344385
100
AcDbArc
 50
169.0763864905
 51
190.9236021042
  0
ARC
  5
56E
100
AcDbEntity
  8
0
100
AcDbCircle
 62
7
  6
CONTINUOUS
 10
2.5979103093
 20
-0.0052087761
 30
0.0
 40
5.945266393
100
AcDbArc
 50
169.0637914319
 51
173.9250170114
  0
ARC
  5
56F
100
AcDbEntity
  8
0
100
AcDbCircle
 62
7
  6
CONTINUOUS
 10
2.5795612208
 20
-0.0065613757
 30
0.0
 40
5.9267299832
100
AcDbArc
 50
186.0673513308
 51
190.943744256
  0
ARC
  5
570
100
AcDbEntity
  8
0
100
AcDbCircle
 62
7
  6
CONTINUOUS
 10
2.5682806078
 20
-0.0008872509
 30
0.0
 40
5.9153459274
100
AcDbArc
 50
173.9691844523
 51
176.3960426689
  0
ARC
  5
571
100
AcDbEntity
  8
0
100
AcDbCircle
 62
7
  6
CONTINUOUS
 10
2.5681351995
 20
-0.0081497345
 30
0.0
 40
5.9152001666
100
AcDbArc
 50
183.6182868438
 51
186.0308937086
  0
ARC
  5
572
100
AcDbEntity
  8
0
100
AcDbCircle
 62
7
  6
CONTINUOUS
 10
2.6021820426
 20
-0.0041494527
 30
0.0
 40
5.3493660089
100
AcDbArc
 50
173.9400475817
 51
190.9245850256
  0
ARC
  5
573
100
AcDbEntity
  8
DRAFT
100
AcDbCircle
 62
7
  6
CONTINUOUS
 10
2.6008271026
 20
-0.0045130001
 30
0.0
 40
5.3479667265
100
AcDbArc
 50
169.0764863834
 51
190.923511621
  0
ARC
  5
574
100
AcDbEntity
  8
0
100
AcDbCircle
 62
7
  6
CONTINUOUS
 10
2.5812089701
 20
-0.002656362
 30
0.0
 40
5.3283525602
100
AcDbArc
 50
169.0561622297
 51
173.9322047748
  0
ARC
  5
575
100
AcDbEntity
  8
RACCORDO
100
AcDbCircle
 62
250
  6
CONTINUOUS
 10
3434.9536781402
 20
-7.8167182115
 30
0.0
 40
3424.4459246833
100
AcDbArc
 50
180.0281636645
 51
180.2237772521
  0
ARC
  5
576
100
AcDbEntity
  8
RACCORDO
100
AcDbCircle
 62
250
  6
CONTINUOUS
 10
3397.5100480705
 20
-7.8165695544
 30
0.0
 40
3386.5024659512
100
AcDbArc
 50
180.0283210051
 51
180.225027398
  0
ARC
  5
577
100
AcDbEntity
  8
RACCORDO
100
AcDbCircle
 62
250
  6
CONTINUOUS
 10
3416.137068163
 20
7.8580884629
 30
0.0
 40
3405.6292967953
100
AcDbArc
 50
179.7756823498
 51
179.9723767337
  0
ARC
  5
578
100
AcDbEntity
  8
RACCORDO
100
AcDbCircle
 62
250
  6
CONTINUOUS
 10
3378.902096487
 20
7.8577096047
 30
0.0
 40
3367.8944964571
100
AcDbArc
 50
179.7744291897
 51
179.9722224071
  0
ARC
  5
579
100
AcDbEntity
  8
0
100
AcDbCircle
 62
7
  6
CONTINUOUS
 10
0.770302928
 20
0.9795679813
 30
0.0
 40
1.0159549924
100
AcDbArc
 50
83.4740233825
 51
94.355896987
  0
ARC
  5
57A
100
AcDbEntity
  8
0
100
AcDbCircle
 62
7
  6
CONTINUOUS
 10
3.0472202458
 20
0.9853833061
 30
0.0
 40
1.010183003
100
AcDbArc
 50
85.7617236806
 51
94.2169896451
  0
ARC
  5
57B
100
AcDbEntity
  8
DRAFT
100
AcDbCircle
 62
7
  6
CONTINUOUS
 10
0.7705650816
 20
0.9934572289
 30
0.0
 40
1.0020502555
100
AcDbArc
 50
72.3197802032
 51
105.5402536453
  0
ARC
  5
57C
100
AcDbEntity
  8
0
100
AcDbCircle
 62
7
  6
CONTINUOUS
 10
3.0467862563
 20
0.9984169432
 30
0.0
 40
0.9971528772
100
AcDbArc
 50
94.2471902898
 51
102.8518512703
  0
ARC
  5
57D
100
AcDbEntity
  8
0
100
AcDbCircle
 62
7
  6
CONTINUOUS
 10
3.0476566744
 20
0.998427018
 30
0.0
 40
0.9971428476
100
AcDbArc
 50
77.1481370346
 51
85.731341555
  0
ARC
  5
57E
100
AcDbEntity
  8
0
100
AcDbCircle
 62
7
  6
CONTINUOUS
 10
0.7693887815
 20
1.002393229
 30
0.0
 40
0.9931265846
100
AcDbArc
 50
94.403326228
 51
105.6129520731
  0
ARC
  5
57F
100
AcDbEntity
  8
0
100
AcDbCircle
 62
7
  6
CONTINUOUS
 10
0.7720758096
 20
1.0023483501
 30
0.0
 40
0.993121081
100
AcDbArc
 50
72.2469693504
 51
83.4262724266
  0
ARC
  5
580
100
AcDbEntity
  8
0
100
AcDbCircle
 62
7
  6
CONTINUOUS
 10
4.0
 20
23.15
 30
0.0
 40
0.5
100
AcDbArc
 50
334.1580672368
 51
25.8419327632
  0
ARC
  5
581
100
AcDbEntity
  8
0
100
AcDbCircle
 62
7
  6
CONTINUOUS
 10
10.6504532348
 20
21.9000168915
 30
0.0
 40
0.4999831086
100
AcDbArc
 50
0.0000036164
 51
90.0012084401
  0
ARC
  5
582
100
AcDbEntity
  8
0
100
AcDbCircle
 62
7
  6
CONTINUOUS
 10
7.501621666
 20
24.2494853349
 30
0.0
 40
0.2516791954
100
AcDbArc
 50
152.7918764815
 51
171.7539281497
  0
ARC
  5
583
100
AcDbEntity
  8
0
100
AcDbCircle
 62
7
  6
CONTINUOUS
 10
9.8999774933
 20
24.2496231241
 30
0.0
 40
0.2503768773
100
AcDbArc
 50
81.8245330494
 51
89.9938814447
  0
ARC
  5
584
100
AcDbEntity
  8
0
100
AcDbCircle
 62
7
  6
CONTINUOUS
 10
7.5003768759
 20
24.2499774933
 30
0.0
 40
0.2503768773
100
AcDbArc
 50
171.8245330495
 51
179.9938814446
  0
ARC
  5
585
100
AcDbEntity
  8
0
100
AcDbCircle
 62
250
  6
CONTINUOUS
 10
9.8868777923
 20
24.2366167132
 30
0.0
 40
0.2502847096
100
AcDbArc
 50
83.828251966
 51
89.9936222728
  0
ARC
  5
586
100
AcDbEntity
  8
0
100
AcDbCircle
 62
7
  6
CONTINUOUS
 10
7.5131051962
 20
24.2368948038
 30
0.0
 40
0.2500066177
100
AcDbArc
 50
90.0024861811
 51
179.9975138189
  0
ARC
  5
587
100
AcDbEntity
  8
0
100
AcDbCircle
 62
7
  6
CONTINUOUS
 10
9.8869113085
 20
24.2369606028
 30
0.0
 40
0.2499392099
100
AcDbArc
 50
79.1004972863
 51
83.827415408
  0
ARC
  5
588
100
AcDbEntity
  8
0
100
AcDbCircle
 62
7
  6
CONTINUOUS
 10
1.2000016924
 20
23.7999983076
 30
0.0
 40
0.2000016924
100
AcDbArc
 50
90.0004848234
 51
180.0004848094
  0
ARC
  5
589
100
AcDbEntity
  8
0
100
AcDbCircle
 62
7
  6
CONTINUOUS
 10
1.1999988155
 20
23.7982490662
 30
0.0
 40
0.1999988155
100
AcDbArc
 50
89.9996606734
 51
179.9993696938
  0
ARC
  5
58A
100
AcDbEntity
  8
0
100
AcDbCircle
 62
7
  6
CONTINUOUS
 10
1.0435246599
 20
1.8524106303
 30
0.0
 40
0.1010698536
100
AcDbArc
 50
30.0337556807
 51
36.2625838294
  0
ARC
  5
58B
100
AcDbEntity
  8
0
100
AcDbCircle
 62
7
  6
CONTINUOUS
 10
1.0442516941
 20
1.8521011298
 30
0.0
 40
0.1008437486
100
AcDbArc
 50
65.0130991584
 51
72.3109940459
  0
ARC
  5
58C
100
AcDbEntity
  8
0
100
AcDbCircle
 62
7
  6
CONTINUOUS
 10
1.0441401959
 20
1.8524141412
 30
0.0
 40
0.1005965125
100
AcDbArc
 50
44.0801655651
 51
50.4985468142
  0
ARC
  5
58D
100
AcDbEntity
  8
0
100
AcDbCircle
 62
7
  6
CONTINUOUS
 10
2.8476703158
 20
1.8728032693
 30
0.0
 40
0.1005413194
100
AcDbArc
 50
145.7849957034
 51
154.1102016722
  0
ARC
  5
58E
100
AcDbEntity
  8
0
100
AcDbCircle
 62
7
  6
CONTINUOUS
 10
3.2468587022
 20
1.8727011698
 30
0.0
 40
0.1005370737
100
AcDbArc
 50
42.9781006204
 51
51.2620997422
  0
ARC
  5
58F
100
AcDbEntity
  8
0
100
AcDbCircle
 62
7
  6
CONTINUOUS
 10
3.2467792272
 20
1.8728059595
 30
0.0
 40
0.1005338045
100
AcDbArc
 50
26.1892828319
 51
34.4065177328
  0
ARC
  5
590
100
AcDbEntity
  8
0
100
AcDbCircle
 62
7
  6
CONTINUOUS
 10
2.847580867
 20
1.872706193
 30
0.0
 40
0.1005318537
100
AcDbArc
 50
129.0110985002
 51
137.2245269574
  0
ARC
  5
591
100
AcDbEntity
  8
0
100
AcDbCircle
 62
7
  6
CONTINUOUS
 10
0.5293202998
 20
1.8621845775
 30
0.0
 40
0.1005168714
100
AcDbArc
 50
131.0661991832
 51
139.0995331558
  0
ARC
  5
592
100
AcDbEntity
  8
0
100
AcDbCircle
 62
7
  6
CONTINUOUS
 10
0.52932781
 20
1.8623194903
 30
0.0
 40
0.1004406729
100
AcDbArc
 50
147.4940009944
 51
155.3889799657
  0
ARC
  5
593
100
AcDbEntity
  8
0
100
AcDbCircle
 62
7
  6
CONTINUOUS
 10
0.5287855695
 20
1.8626686881
 30
0.0
 40
0.0997957278
100
AcDbArc
 50
139.1086050429
 51
147.4957792809
  0
ARC
  5
594
100
AcDbEntity
  8
0
100
AcDbCircle
 62
7
  6
CONTINUOUS
 10
3.2474283736
 20
1.8732399612
 30
0.0
 40
0.0997529898
100
AcDbArc
 50
34.4115346324
 51
42.9747509752
  0
ARC
  5
595
100
AcDbEntity
  8
0
100
AcDbCircle
 62
7
  6
CONTINUOUS
 10
2.8470134127
 20
1.8732423729
 30
0.0
 40
0.0997511966
100
AcDbArc
 50
137.2292331716
 51
145.7813958895
  0
ARC
  5
596
100
AcDbEntity
  8
0
100
AcDbCircle
 62
7
  6
CONTINUOUS
 10
0.5287222523
 20
1.8629669291
 30
0.0
 40
0.0995341609
100
AcDbArc
 50
105.5129838048
 51
131.1024944591
  0
ARC
  5
597
100
AcDbEntity
  8
0
100
AcDbCircle
 62
7
  6
CONTINUOUS
 10
0.5284562282
 20
1.8626489361
 30
0.0
 40
0.0995110898
100
AcDbArc
 50
155.3524428402
 51
180.0583696753
  0
ARC
  5
598
100
AcDbEntity
  8
0
100
AcDbCircle
 62
7
  6
CONTINUOUS
 10
3.2477414099
 20
1.8732019435
 30
0.0
 40
0.09949566
100
AcDbArc
 50
359.9321001416
 51
26.2291987802
  0
ARC
  5
599
100
AcDbEntity
  8
0
100
AcDbCircle
 62
7
  6
CONTINUOUS
 10
2.8469825494
 20
1.873555133
 30
0.0
 40
0.0994956077
100
AcDbArc
 50
102.7709154327
 51
129.0511070473
  0
ARC
  5
59A
100
AcDbEntity
  8
0
100
AcDbCircle
 62
7
  6
CONTINUOUS
 10
2.846694299
 20
1.8732023709
 30
0.0
 40
0.0994890183
100
AcDbArc
 50
154.0715451574
 51
180.0647939127
  0
ARC
  5
59B
100
AcDbEntity
  8
0
100
AcDbCircle
 62
7
  6
CONTINUOUS
 10
3.2474628517
 20
1.8735627345
 30
0.0
 40
0.0994870101
100
AcDbArc
 50
51.2230039136
 51
77.2306781853
  0
ARC
  5
59C
100
AcDbEntity
  8
0
100
AcDbCircle
 62
7
  6
CONTINUOUS
 10
1.0453197438
 20
1.8536764888
 30
0.0
 40
0.098873721
100
AcDbArc
 50
36.286393694
 51
37.9560853307
  0
ARC
  5
59D
100
AcDbEntity
  8
0
100
AcDbCircle
 62
7
  6
CONTINUOUS
 10
1.0455951285
 20
1.8538823101
 30
0.0
 40
0.0985299934
100
AcDbArc
 50
37.9602087261
 51
44.0554283521
  0
ARC
  5
59E
100
AcDbEntity
  8
RACCORDO
100
AcDbCircle
 62
7
  6
CONTINUOUS
 10
-56.9712408536
 20
-21.0424667632
 30
0.0
 40
1.0
100
AcDbArc
 50
188.5634241122
 51
267.0
  0
ARC
  5
59F
100
AcDbEntity
  8
DRAFT
100
AcDbCircle
 62
7
  6
CONTINUOUS
 10
-39.037456716
 20
-21.3330780337
 30
0.0
 40
1.0
100
AcDbArc
 50
270.3333333333
 51
360.0
  0
ARC
  5
5A0
100
AcDbEntity
  8
RACCORDO
100
AcDbCircle
 62
250
  6
CONTINUOUS
 10
-56.9843282286
 20
-21.0424655517
 30
0.0
 40
0.5000012673
100
AcDbArc
 50
188.5635426295
 51
266.9998814828
  0
ARC
  5
5A1
100
AcDbEntity
  8
0
100
AcDbCircle
 62
7
  6
CONTINUOUS
 10
-43.037456716
 20
-23.4563578147
 30
0.0
 40
0.5
100
AcDbArc
 50
270.3333333333
 51
360.0
  0
ARC
  5
5A2
100
AcDbEntity
  8
RACCORDO
100
AcDbCircle
 62
7
  6
CONTINUOUS
 10
-52.137456716
 20
-19.6981998399
 30
0.0
 40
0.3
100
AcDbArc
 50
180.0
 51
268.9999267304
  0
ARC
  5
5A3
100
AcDbEntity
  8
0
100
AcDbCircle
 62
7
  6
CONTINUOUS
 10
-52.787456716
 20
-24.2369056521
 30
0.0
 40
0.25
100
AcDbArc
 50
180.0
 51
269.6666666667
  0
ARC
  5
5A4
100
AcDbEntity
  8
0
100
AcDbCircle
 62
7
  6
CONTINUOUS
 10
-49.787456716
 20
-24.2456323968
 30
0.0
 40
0.25
100
AcDbArc
 50
270.3333333333
 51
360.0
  0
ARC
  5
5A5
100
AcDbEntity
  8
0
100
AcDbCircle
 62
7
  6
CONTINUOUS
 10
-52.787456716
 20
-23.8443375673
 30
0.0
 40
0.25
100
AcDbArc
 50
120.0
 51
180.0
  0
ARC
  5
5A6
100
AcDbEntity
  8
0
100
AcDbCircle
 62
7
  6
CONTINUOUS
 10
-49.787456716
 20
-23.8443375673
 30
0.0
 40
0.25
100
AcDbArc
 50
0.0
 51
60.0
  0
ARC
  5
5A7
100
AcDbEntity
  8
RACCORDO
100
AcDbCircle
 62
7
  6
CONTINUOUS
 10
-51.537456716
 20
-18.4150826109
 30
0.0
 40
0.5
100
AcDbArc
 50
105.0
 51
180.0
  0
ARC
  5
5A8
100
AcDbEntity
  8
RACCORDO
100
AcDbCircle
 62
7
  6
CONTINUOUS
 10
-23.037456716
 20
-18.3490008669
 30
0.0
 40
1.0
100
AcDbArc
 50
271.0
 51
360.0
  0
ARC
  5
5A9
100
AcDbEntity
  8
RACCORDO
100
AcDbCircle
 62
7
  6
CONTINUOUS
 10
-33.037456716
 20
-18.5235515162
 30
0.0
 40
1.0
100
AcDbArc
 50
271.0
 51
360.0
  0
ARC
  5
5AA
100
AcDbEntity
  8
ASSI
100
AcDbCircle
 62
7
  6
CONTINUOUS
 10
-33.037456716
 20
-18.5235515162
 30
0.0
 40
1.0
100
AcDbArc
 50
271.0
 51
360.0
  0
ARC
  5
5AB
100
AcDbEntity
  8
ASSI
100
AcDbCircle
 62
7
  6
CONTINUOUS
 10
-23.037456716
 20
-18.3490008669
 30
0.0
 40
1.0
100
AcDbArc
 50
271.0
 51
360.0
  0
ARC
  5
5AC
100
AcDbEntity
  8
RACCORDO
100
AcDbCircle
 62
7
  6
CONTINUOUS
 10
-20.337456716
 20
-14.7501233207
 30
0.0
 40
0.3
100
AcDbArc
 50
275.0
 51
360.0
  0
ARC
  5
5AD
100
AcDbEntity
  8
ASSI
100
AcDbCircle
 62
7
  6
CONTINUOUS
 10
-20.337456716
 20
-14.7501233207
 30
0.0
 40
0.3
100
AcDbArc
 50
275.0
 51
360.0
  0
ARC
  5
5AE
100
AcDbEntity
  8
RACCORDO
100
AcDbCircle
 62
250
  6
CONTINUOUS
 10
-31.5200043028
 20
-9.4913486382
 30
0.0
 40
1.5000000068
100
AcDbArc
 50
91.000000255
 51
179.999999745
  0
ARC
  5
5AF
100
AcDbEntity
  8
ASSI
100
AcDbCircle
 62
250
  6
CONTINUOUS
 10
-31.5200043028
 20
-9.4913486382
 30
0.0
 40
1.5000000068
100
AcDbArc
 50
91.000000255
 51
179.999999745
  0
ARC
  5
5B0
100
AcDbEntity
  8
RACCORDO
100
AcDbCircle
 62
7
  6
CONTINUOUS
 10
-23.037456716
 20
-7.8427520876
 30
0.0
 40
1.0
100
AcDbArc
 50
271.0
 51
360.0
  0
ARC
  5
5B1
100
AcDbEntity
  8
ASSI
100
AcDbCircle
 62
7
  6
CONTINUOUS
 10
-23.037456716
 20
-7.8427520876
 30
0.0
 40
1.0
100
AcDbArc
 50
271.0
 51
360.0
  0
ARC
  5
5B2
100
AcDbEntity
  8
RACCORDO
100
AcDbCircle
 62
7
  6
CONTINUOUS
 10
-31.537456716
 20
-9.4913486316
 30
0.0
 40
0.5
100
AcDbArc
 50
91.0
 51
180.0
  0
ARC
  5
5B3
100
AcDbEntity
  8
ASSI
100
AcDbCircle
 62
7
  6
CONTINUOUS
 10
-31.537456716
 20
-9.4913486316
 30
0.0
 40
0.5
100
AcDbArc
 50
91.0
 51
180.0
  0
ARC
  5
5B4
100
AcDbEntity
  8
RACCORDO
100
AcDbCircle
 62
7
  6
CONTINUOUS
 10
-52.137456716
 20
-2.7500073664
 30
0.0
 40
0.3
100
AcDbArc
 50
120.0
 51
180.0
  0
ARC
  5
5B5
100
AcDbEntity
  8
RACCORDO
100
AcDbCircle
 62
7
  6
CONTINUOUS
 10
-20.337456716
 20
-9.4498766793
 30
0.0
 40
0.3
100
AcDbArc
 50
0.0
 51
85.0
  0
ARC
  5
5B6
100
AcDbEntity
  8
RACCORDO
100
AcDbCircle
 62
7
  6
CONTINUOUS
 10
-20.337456716
 20
-4.3501233207
 30
0.0
 40
0.3
100
AcDbArc
 50
275.0
 51
360.0
  0
ARC
  5
5B7
100
AcDbEntity
  8
ASSI
100
AcDbCircle
 62
7
  6
CONTINUOUS
 10
-20.337456716
 20
-9.4498766793
 30
0.0
 40
0.3
100
AcDbArc
 50
0.0
 51
85.0
  0
ARC
  5
5B8
100
AcDbEntity
  8
ASSI
100
AcDbCircle
 62
7
  6
CONTINUOUS
 10
-20.337456716
 20
-4.3501233207
 30
0.0
 40
0.3
100
AcDbArc
 50
275.0
 51
360.0
  0
ARC
  5
5B9
100
AcDbEntity
  8
RACCORDO
100
AcDbCircle
 62
7
  6
CONTINUOUS
 10
31.0365549641
 20
-7.79
 30
0.0
 40
90.0
100
AcDbArc
 50
181.08868532
 51
188.5634241122
  0
ARC
  5
5BA
100
AcDbEntity
  8
RACCORDO
100
AcDbCircle
 62
7
  6
CONTINUOUS
 10
-52.137456716
 20
2.7500073664
 30
0.0
 40
0.3
100
AcDbArc
 50
180.0
 51
240.0
  0
ARC
  5
5BB
100
AcDbEntity
  8
RACCORDO
100
AcDbCircle
 62
7
  6
CONTINUOUS
 10
-20.337456716
 20
4.3501233207
 30
0.0
 40
0.3
100
AcDbArc
 50
0.0
 51
85.0
  0
ARC
  5
5BC
100
AcDbEntity
  8
RACCORDO
100
AcDbCircle
 62
7
  6
CONTINUOUS
 10
-20.337456716
 20
0.9501233207
 30
0.0
 40
0.3
100
AcDbArc
 50
0.0
 51
85.0
  0
ARC
  5
5BD
100
AcDbEntity
  8
RACCORDO
100
AcDbCircle
 62
7
  6
CONTINUOUS
 10
-20.337456716
 20
9.4498766793
 30
0.0
 40
0.3
100
AcDbArc
 50
275.0
 51
360.0
  0
ARC
  5
5BE
100
AcDbEntity
  8
ASSI
100
AcDbCircle
 62
7
  6
CONTINUOUS
 10
-20.337456716
 20
4.3501233207
 30
0.0
 40
0.3
100
AcDbArc
 50
0.0
 51
85.0
  0
ARC
  5
5BF
100
AcDbEntity
  8
ASSI
100
AcDbCircle
 62
7
  6
CONTINUOUS
 10
-20.337456716
 20
0.9501233207
 30
0.0
 40
0.3
100
AcDbArc
 50
0.0
 51
85.0
  0
ARC
  5
5C0
100
AcDbEntity
  8
ASSI
100
AcDbCircle
 62
7
  6
CONTINUOUS
 10
-20.337456716
 20
9.4498766793
 30
0.0
 40
0.3
100
AcDbArc
 50
275.0
 51
360.0
  0
ARC
  5
5C1
100
AcDbEntity
  8
RACCORDO
100
AcDbCircle
 62
7
  6
CONTINUOUS
 10
-51.537456716
 20
18.4150826109
 30
0.0
 40
0.5
100
AcDbArc
 50
180.0
 51
255.0
  0
ARC
  5
5C2
100
AcDbEntity
  8
RACCORDO
100
AcDbCircle
 62
7
  6
CONTINUOUS
 10
-56.9712408536
 20
21.0424667632
 30
0.0
 40
1.0
100
AcDbArc
 50
93.0
 51
171.4365758878
  0
ARC
  5
5C3
100
AcDbEntity
  8
DRAFT
100
AcDbCircle
 62
7
  6
CONTINUOUS
 10
-39.037456716
 20
21.3330780337
 30
0.0
 40
1.0
100
AcDbArc
 50
0.0
 51
89.6666666667
  0
ARC
  5
5C4
100
AcDbEntity
  8
RACCORDO
100
AcDbCircle
 62
250
  6
CONTINUOUS
 10
-56.9843282373
 20
21.0424655614
 30
0.0
 40
0.5000012572
100
AcDbArc
 50
93.0001175712
 51
171.4364583165
  0
ARC
  5
5C5
100
AcDbEntity
  8
0
100
AcDbCircle
 62
7
  6
CONTINUOUS
 10
-43.037456716
 20
23.4563578147
 30
0.0
 40
0.5
100
AcDbArc
 50
0.0
 51
89.6666666667
  0
ARC
  5
5C6
100
AcDbEntity
  8
RACCORDO
100
AcDbCircle
 62
7
  6
CONTINUOUS
 10
-52.137456716
 20
19.6981998399
 30
0.0
 40
0.3
100
AcDbArc
 50
91.0000732698
 51
180.0
  0
ARC
  5
5C7
100
AcDbEntity
  8
0
100
AcDbCircle
 62
7
  6
CONTINUOUS
 10
-52.787456716
 20
24.2369056521
 30
0.0
 40
0.25
100
AcDbArc
 50
90.3333333333
 51
180.0
  0
ARC
  5
5C8
100
AcDbEntity
  8
0
100
AcDbCircle
 62
7
  6
CONTINUOUS
 10
-49.787456716
 20
24.2456323968
 30
0.0
 40
0.25
100
AcDbArc
 50
0.0
 51
89.6666666667
  0
ARC
  5
5C9
100
AcDbEntity
  8
0
100
AcDbCircle
 62
7
  6
CONTINUOUS
 10
-49.787456716
 20
23.8443375673
 30
0.0
 40
0.25
100
AcDbArc
 50
300.0
 51
360.0
  0
ARC
  5
5CA
100
AcDbEntity
  8
0
100
AcDbCircle
 62
7
  6
CONTINUOUS
 10
-52.787456716
 20
23.8443375673
 30
0.0
 40
0.25
100
AcDbArc
 50
180.0
 51
240.0
  0
ARC
  5
5CB
100
AcDbEntity
  8
RACCORDO
100
AcDbCircle
 62
7
  6
CONTINUOUS
 10
-23.037456716
 20
18.3490008669
 30
0.0
 40
1.0
100
AcDbArc
 50
0.0
 51
89.0
  0
ARC
  5
5CC
100
AcDbEntity
  8
ASSI
100
AcDbCircle
 62
7
  6
CONTINUOUS
 10
-23.037456716
 20
18.3490008669
 30
0.0
 40
1.0
100
AcDbArc
 50
0.0
 51
89.0
  0
ARC
  5
5CD
100
AcDbEntity
  8
RACCORDO
100
AcDbCircle
 62
250
  6
CONTINUOUS
 10
-22.5427962748
 20
18.1975271934
 30
0.0
 40
0.505339643
100
AcDbArc
 50
0.0330665912
 51
10.9907019512
  0
ARC
  5
5CE
100
AcDbEntity
  8
RACCORDO
100
AcDbCircle
 62
7
  6
CONTINUOUS
 10
-20.337456716
 20
14.7501233207
 30
0.0
 40
0.3
100
AcDbArc
 50
0.0
 51
85.0
  0
ARC
  5
5CF
100
AcDbEntity
  8
ASSI
100
AcDbCircle
 62
7
  6
CONTINUOUS
 10
-20.337456716
 20
14.7501233207
 30
0.0
 40
0.3
100
AcDbArc
 50
0.0
 51
85.0
  0
ARC
  5
5D0
100
AcDbEntity
  8
RACCORDO
100
AcDbCircle
 62
7
  6
CONTINUOUS
 10
31.0365549641
 20
7.79
 30
0.0
 40
90.0
100
AcDbArc
 50
171.4365758878
 51
178.91131468
  0
ARC
  5
5D1
100
AcDbEntity
  8
RACCORDO
100
AcDbCircle
 62
7
  6
CONTINUOUS
 10
440.962543284
 20
0.0
 30
0.0
 40
500.0
100
AcDbArc
 50
178.91131468
 51
181.08868532
  0
ARC
  5
5D2
100
AcDbEntity
  8
RACCORDO
100
AcDbCircle
 62
250
  6
CONTINUOUS
 10
440.9947684275
 20
-0.0
 30
0.0
 40
499.5453054386
100
AcDbArc
 50
178.9114134284
 51
181.0885865716
  0
SPLINE
  5
5D3
100
AcDbEntity
  8
0
100
AcDbSpline
 62
7
  6
CONTINUOUS
 70
0
 71
3
 72
8
 73
4
 74
0
 42
0.0000001
 43
0.0000001
 44
0.0000000001
 40
0.0
 40
0.0
 40
0.0
 40
0.0
 40
1.0
 40
1.0
 40
1.0
 40
1.0
 10
-1.3929011636
 20
2.0453085862
 30
0.0
 10
-1.4079779404
 20
2.0395629876
 30
0.0
 10
-1.4220029126
 20
2.0297877407
 30
0.0
 10
-1.4326098002
 20
2.0176298199
 30
0.0
  0
SPLINE
  5
5D4
100
AcDbEntity
  8
0
100
AcDbSpline
 62
7
  6
CONTINUOUS
 70
0
 71
3
 72
8
 73
4
 74
0
 42
0.0000001
 43
0.0000001
 44
0.0000000001
 40
0.0
 40
0.0
 40
0.0
 40
0.0
 40
1.0
 40
1.0
 40
1.0
 40
1.0
 10
-2.1280502879
 20
2.0178360269
 30
0.0
 10
-2.1386901549
 20
2.0299631258
 30
0.0
 10
-2.1527396388
 20
2.0396998121
 30
0.0
 10
-2.1678305863
 20
2.0454038983
 30
0.0
  0
SPLINE
  5
5D5
100
AcDbEntity
  8
0
100
AcDbSpline
 62
7
  6
CONTINUOUS
 70
0
 71
3
 72
8
 73
4
 74
0
 42
0.0000001
 43
0.0000001
 44
0.0000000001
 40
0.0
 40
0.0
 40
0.0
 40
0.0
 40
1.0
 40
1.0
 40
1.0
 40
1.0
 10
2.6680528637
 20
-1.939058531
 30
0.0
 10
2.6745311631
 20
-1.944402912
 30
0.0
 10
2.6817307129
 20
-1.9489825743
 30
0.0
 10
2.6893411602
 20
-1.9525338928
 30
0.0
  0
SPLINE
  5
5D6
100
AcDbEntity
  8
0
100
AcDbSpline
 62
7
  6
CONTINUOUS
 70
0
 71
3
 72
8
 73
4
 74
0
 42
0.0000001
 43
0.0000001
 44
0.0000000001
 40
0.0
 40
0.0
 40
0.0
 40
0.0
 40
1.0
 40
1.0
 40
1.0
 40
1.0
 10
1.1081294153
 20
1.9300352603
 30
0.0
 10
1.1016533378
 20
1.9353775565
 30
0.0
 10
1.0944566028
 20
1.9399556771
 30
0.0
 10
1.0868492076
 20
1.9435063456
 30
0.0
  0
SPLINE
  5
5D7
100
AcDbEntity
  8
DRAFT
100
AcDbSpline
 62
7
  6
CONTINUOUS
 70
0
 71
3
 72
9
 73
5
 74
0
 42
0.0000001
 43
0.0000001
 44
0.0000000001
 40
0.0
 40
0.0
 40
0.0
 40
0.0
 40
0.7496551863
 40
1.0
 40
1.0
 40
1.0
 40
1.0
 10
-2.1920257838
 20
-1.4575518821
 30
0.0
 10
-1.9880912102
 20
-1.4882356455
 30
0.0
 10
-1.7100241644
 20
-1.4986339354
 30
0.0
 10
-1.4365567182
 20
-1.4677987765
 30
0.0
 10
-1.3684534525
 20
-1.4575520681
 30
0.0
  0
SPLINE
  5
5D8
100
AcDbEntity
  8
DRAFT
100
AcDbSpline
 62
7
  6
CONTINUOUS
 70
0
 71
3
 72
9
 73
5
 74
0
 42
0.0000001
 43
0.0000001
 44
0.0000000001
 40
0.0
 40
0.0
 40
0.0
 40
0.0
 40
0.4986668039
 40
1.0
 40
1.0
 40
1.0
 40
1.0
 10
-2.1057557935
 20
1.5255233916
 30
0.0
 10
-2.1101680875
 20
1.5063608248
 30
0.0
 10
-2.131125407
 20
1.4697604835
 30
0.0
 10
-2.1693344103
 20
1.4518159853
 30
0.0
 10
-2.1889000753
 20
1.4489869891
 30
0.0
  0
SPLINE
  5
5D9
100
AcDbEntity
  8
DRAFT
100
AcDbSpline
 62
7
  6
CONTINUOUS
 70
0
 71
3
 72
9
 73
5
 74
0
 42
0.0000001
 43
0.0000001
 44
0.0000000001
 40
0.0
 40
0.0
 40
0.0
 40
0.0
 40
0.5014543009
 40
1.0
 40
1.0
 40
1.0
 40
1.0
 10
-2.2161534941
 20
2.0510314053
 30
0.0
 10
-2.1922661076
 20
2.0541496086
 30
0.0
 10
-2.1404447699
 20
2.0419865553
 30
0.0
 10
-2.1111279651
 20
1.9976461895
 30
0.0
 10
-2.1057541228
 20
1.9743065334
 30
0.0
  0
SPLINE
  5
5DA
100
AcDbEntity
  8
DRAFT
100
AcDbSpline
 62
7
  6
CONTINUOUS
 70
0
 71
3
 72
9
 73
5
 74
0
 42
0.0000001
 43
0.0000001
 44
0.0000000001
 40
0.0
 40
0.0
 40
0.0
 40
0.0
 40
0.2503718283
 40
1.0
 40
1.0
 40
1.0
 40
1.0
 10
-1.2791785163
 20
-2.0509050777
 30
0.0
 10
-1.3620554925
 20
-2.0633746148
 30
0.0
 10
-1.6948109309
 20
-2.1008925033
 30
0.0
 10
-2.0331624073
 20
-2.0882394991
 30
0.0
 10
-2.2813009954
 20
-2.0509048502
 30
0.0
  0
SPLINE
  5
5DB
100
AcDbEntity
  8
DRAFT
100
AcDbSpline
 62
7
  6
CONTINUOUS
 70
0
 71
3
 72
9
 73
5
 74
0
 42
0.0000001
 43
0.0000001
 44
0.0000000001
 40
0.0
 40
0.0
 40
0.0
 40
0.0
 40
0.5008349255
 40
1.0
 40
1.0
 40
1.0
 40
1.0
 10
-1.4547255317
 20
1.9743066111
 30
0.0
 10
-1.4493269736
 20
1.9977536162
 30
0.0
 10
-1.4198924366
 20
2.0420860481
 30
0.0
 10
-1.3681039169
 20
2.0541360371
 30
0.0
 10
-1.3443253995
 20
2.0510320521
 30
0.0
  0
SPLINE
  5
5DC
100
AcDbEntity
  8
DRAFT
100
AcDbSpline
 62
7
  6
CONTINUOUS
 70
0
 71
3
 72
9
 73
5
 74
0
 42
0.0000001
 43
0.0000001
 44
0.0000000001
 40
0.0
 40
0.0
 40
0.0
 40
0.0
 40
0.4986686547
 40
1.0
 40
1.0
 40
1.0
 40
1.0
 10
-1.3715788558
 20
1.4489873204
 30
0.0
 10
-1.3910404679
 20
1.451801272
 30
0.0
 10
-1.4292470934
 20
1.4696629315
 30
0.0
 10
-1.4502870205
 20
1.5062585672
 30
0.0
 10
-1.4547228765
 20
1.5255234635
 30
0.0
  0
SPLINE
  5
5DD
100
AcDbEntity
  8
DRAFT
100
AcDbSpline
 62
7
  6
CONTINUOUS
 70
0
 71
3
 72
9
 73
5
 74
0
 42
0.0000001
 43
0.0000001
 44
0.0000000001
 40
0.0
 40
0.0
 40
0.0
 40
0.0
 40
0.4989791357
 40
1.0
 40
1.0
 40
1.0
 40
1.0
 10
2.7472053442
 20
1.8730839219
 30
0.0
 10
2.7472053442
 20
1.8950636367
 30
0.0
 10
2.7626651223
 20
1.9404433724
 30
0.0
 10
2.8034697388
 20
1.9656847757
 30
0.0
 10
2.8249875651
 20
1.9705891288
 30
0.0
  0
SPLINE
  5
5DE
100
AcDbEntity
  8
DRAFT
100
AcDbSpline
 62
7
  6
CONTINUOUS
 70
0
 71
3
 72
9
 73
5
 74
0
 42
0.0000001
 43
0.0000001
 44
0.0000000001
 40
0.0
 40
0.0
 40
0.0
 40
0.0
 40
0.2551073781
 40
1.0
 40
1.0
 40
1.0
 40
1.0
 10
1.0748919999
 20
1.9481773152
 30
0.0
 10
1.0808051887
 20
1.9462885435
 30
0.0
 10
1.1033027999
 20
1.9368320892
 30
0.0
 10
1.1219465145
 20
1.9186857173
 30
0.0
 10
1.1310239302
 20
1.9029971206
 30
0.0
  0
SPLINE
  5
5DF
100
AcDbEntity
  8
DRAFT
100
AcDbSpline
 62
7
  6
CONTINUOUS
 70
0
 71
3
 72
9
 73
5
 74
0
 42
0.0000001
 43
0.0000001
 44
0.0000000001
 40
0.0
 40
0.0
 40
0.0
 40
0.0
 40
0.4989100223
 40
1.0
 40
1.0
 40
1.0
 40
1.0
 10
0.4289451899
 20
1.8625409058
 30
0.0
 10
0.4289451898
 20
1.8837667918
 30
0.0
 10
0.4432960885
 20
1.9275028175
 30
0.0
 10
0.4815646389
 20
1.95315104
 30
0.0
 10
0.5021005072
 20
1.9588748627
 30
0.0
  0
SPLINE
  5
5E0
100
AcDbEntity
  8
DRAFT
100
AcDbSpline
 62
7
  6
CONTINUOUS
 70
0
 71
3
 72
9
 73
5
 74
0
 42
0.0000001
 43
0.0000001
 44
0.0000000001
 40
0.0
 40
0.0
 40
0.0
 40
0.0
 40
0.4989874089
 40
1.0
 40
1.0
 40
1.0
 40
1.0
 10
0.5067275851
 20
-1.9796134607
 30
0.0
 10
0.4852972691
 20
-1.9747290283
 30
0.0
 10
0.444488106
 20
-1.9495712058
 30
0.0
 10
0.428946
 20
-1.90417811
 30
0.0
 10
0.428946
 20
-1.882109
 30
0.0
  0
SPLINE
  5
5E1
100
AcDbEntity
  8
DRAFT
100
AcDbSpline
 62
7
  6
CONTINUOUS
 70
0
 71
3
 72
9
 73
5
 74
0
 42
0.0000001
 43
0.0000001
 44
0.0000000001
 40
0.0
 40
0.0
 40
0.0
 40
0.0
 40
0.2504506799
 40
1.0
 40
1.0
 40
1.0
 40
1.0
 10
0.9511964977
 20
-1.9796138866
 30
0.0
 10
0.9148470858
 20
-1.9878987032
 30
0.0
 10
0.7679856993
 20
-2.0129760463
 30
0.0
 10
0.6155140847
 20
-2.0044087009
 30
0.0
 10
0.5067274887
 20
-1.9796138835
 30
0.0
  0
SPLINE
  5
5E2
100
AcDbEntity
  8
DRAFT
100
AcDbSpline
 62
7
  6
CONTINUOUS
 70
0
 71
3
 72
9
 73
5
 74
0
 42
0.0000001
 43
0.0000001
 44
0.0000000001
 40
0.0
 40
0.0
 40
0.0
 40
0.0
 40
0.4989824581
 40
1.0
 40
1.0
 40
1.0
 40
1.0
 10
1.0289784336
 20
-1.8821089481
 30
0.0
 10
1.0289784337
 20
-1.9040887384
 30
0.0
 10
1.0135185679
 20
-1.9494683422
 30
0.0
 10
0.9727141065
 20
-1.9747095585
 30
0.0
 10
0.9511964977
 20
-1.9796138866
 30
0.0
  0
SPLINE
  5
5E3
100
AcDbEntity
  8
DRAFT
100
AcDbSpline
 62
7
  6
CONTINUOUS
 70
0
 71
3
 72
9
 73
5
 74
0
 42
0.0000001
 43
0.0000001
 44
0.0000000001
 40
0.0
 40
0.0
 40
0.0
 40
0.0
 40
0.2551187953
 40
1.0
 40
1.0
 40
1.0
 40
1.0
 10
2.7012912096
 20
-1.9572014734
 30
0.0
 10
2.6953778362
 20
-1.9553126427
 30
0.0
 10
2.6728804767
 20
-1.9458563914
 30
0.0
 10
2.6542372132
 20
-1.9277101181
 30
0.0
 10
2.6451600038
 20
-1.9120220065
 30
0.0
  0
SPLINE
  5
5E4
100
AcDbEntity
  8
DRAFT
100
AcDbSpline
 62
7
  6
CONTINUOUS
 70
0
 71
3
 72
9
 73
5
 74
0
 42
0.0000001
 43
0.0000001
 44
0.0000000001
 40
0.0
 40
0.0
 40
0.0
 40
0.0
 40
0.4989187903
 40
1.0
 40
1.0
 40
1.0
 40
1.0
 10
3.3472368468
 20
-1.8715670179
 30
0.0
 10
3.3472368468
 20
-1.8927930596
 30
0.0
 10
3.3328856956
 20
-1.9365286747
 30
0.0
 10
3.2946175059
 20
-1.9621762849
 30
0.0
 10
3.2740822054
 20
-1.9678999427
 30
0.0
  0
SPLINE
  5
5E5
100
AcDbEntity
  8
DRAFT
100
AcDbSpline
 62
7
  6
CONTINUOUS
 70
0
 71
3
 72
9
 73
5
 74
0
 42
0.0000001
 43
0.0000001
 44
0.0000000001
 40
0.0
 40
0.0
 40
0.0
 40
0.0
 40
0.4989888053
 40
1.0
 40
1.0
 40
1.0
 40
1.0
 10
3.2694554358
 20
1.9705884559
 30
0.0
 10
3.2908858085
 20
1.9657040103
 30
0.0
 10
3.3316949553
 20
1.940546122
 30
0.0
 10
3.347237
 20
1.8951530451
 30
0.0
 10
3.347237
 20
1.873084
 30
0.0
  0
SPLINE
  5
5E6
100
AcDbEntity
  8
DRAFT
100
AcDbSpline
 62
7
  6
CONTINUOUS
 70
0
 71
3
 72
9
 73
5
 74
0
 42
0.0000001
 43
0.0000001
 44
0.0000000001
 40
0.0
 40
0.0
 40
0.0
 40
0.0
 40
0.2504502736
 40
1.0
 40
1.0
 40
1.0
 40
1.0
 10
2.8249875157
 20
1.9705893455
 30
0.0
 10
2.8613367994
 20
1.9788740913
 30
0.0
 10
3.0081978919
 20
2.0039512404
 30
0.0
 10
3.1606691611
 20
1.9953838743
 30
0.0
 10
3.2694555816
 20
1.9705890954
 30
0.0
  0
SPLINE
  5
5E7
100
AcDbEntity
  8
RACCORDO
100
AcDbSpline
 62
250
  6
CONTINUOUS
 70
0
 71
3
 72
8
 73
4
 74
0
 42
0.0000001
 43
0.0000001
 44
0.0000000001
 40
0.0
 40
0.0
 40
0.0
 40
0.0
 40
1.0
 40
1.0
 40
1.0
 40
1.0
 10
11.0079958269
 20
9.4905
 30
0.0
 10
11.0048473723
 20
3.1635007834
 30
0.0
 10
11.004847372
 20
-3.1635007834
 30
0.0
 10
11.0079958269
 20
-9.4905
 30
0.0
  0
SPLINE
  5
5E8
100
AcDbEntity
  8
RACCORDO
100
AcDbSpline
 62
250
  6
CONTINUOUS
 70
0
 71
3
 72
11
 73
7
 74
0
 42
0.0000001
 43
0.0000001
 44
0.0000000001
 40
0.0
 40
0.0
 40
0.0
 40
0.0
 40
0.2498661978
 40
0.499832255
 40
0.7498964515
 40
1.0
 40
1.0
 40
1.0
 40
1.0
 10
-11.0459622707
 20
21.5417815306
 30
0.0
 10
-11.0458732497
 20
21.6066937915
 30
0.0
 10
-11.0197147408
 20
21.7379338033
 30
0.0
 10
-10.908387176
 20
21.9037202946
 30
0.0
 10
-10.7424318854
 20
22.0148944725
 30
0.0
 10
-10.6111075304
 20
22.0410073755
 30
0.0
 10
-10.5461336082
 20
22.0410962979
 30
0.0
  0
SPLINE
  5
5E9
100
AcDbEntity
  8
RACCORDO
100
AcDbSpline
 62
250
  6
CONTINUOUS
 70
0
 71
3
 72
18
 73
14
 74
0
 42
0.0000001
 43
0.0000001
 44
0.0000000001
 40
0.0
 40
0.0
 40
0.0
 40
0.0
 40
0.007417226
 40
0.0239389467
 40
0.0494885295
 40
0.0838958754
 40
0.1268197983
 40
0.1778438837
 40
0.3023553472
 40
0.4527098881
 40
0.6234045028
 40
0.808316705
 40
1.0
 40
1.0
 40
1.0
 40
1.0
 10
11.0079958269
 20
-9.4905
 30
0.0
 10
11.0069953434
 20
-9.4912265583
 30
0.0
 10
11.0027473855
 20
-9.4914836417
 30
0.0
 10
10.9947803309
 20
-9.4926223231
 30
0.0
 10
10.9819319841
 20
-9.4932904953
 30
0.0
 10
10.9648538459
 20
-9.4941956674
 30
0.0
 10
10.9434523332
 20
-9.4949801526
 30
0.0
 10
10.9070601177
 20
-9.4961014802
 30
0.0
 10
10.8527402688
 20
-9.4972852176
 30
0.0
 10
10.7784749597
 20
-9.4984269774
 30
0.0
 10
10.6941334001
 20
-9.4992877733
 30
0.0
 10
10.6029005756
 20
-9.4998387611
 30
0.0
 10
10.5401212
 20
-9.499984104
 30
0.0
 10
10.5081671644
 20
-9.4999999993
 30
0.0
  0
SPLINE
  5
5EA
100
AcDbEntity
  8
RACCORDO
100
AcDbSpline
 62
250
  6
CONTINUOUS
 70
0
 71
3
 72
13
 73
9
 74
0
 42
0.0000001
 43
0.0000001
 44
0.0000000001
 40
0.0
 40
0.0
 40
0.0
 40
0.0
 40
0.0360813989
 40
0.1002621808
 40
0.1950418852
 40
0.3182931223
 40
0.6327590694
 40
1.0
 40
1.0
 40
1.0
 40
1.0
 10
-11.0337005074
 20
21.1169188236
 30
0.0
 10
-11.0326427
 20
21.1229997511
 30
0.0
 10
-11.017889598
 20
21.1355810594
 30
0.0
 10
-10.9875365727
 20
21.1472126975
 30
0.0
 10
-10.9403286937
 20
21.1595600888
 30
0.0
 10
-10.8506894461
 20
21.174818273
 30
0.0
 10
-10.7132659353
 20
21.1875034492
 30
0.0
 10
-10.5966932723
 20
21.191125233
 30
0.0
 10
-10.5338718452
 20
21.1913674475
 30
0.0
  0
SPLINE
  5
5EB
100
AcDbEntity
  8
RACCORDO
100
AcDbSpline
 62
250
  6
CONTINUOUS
 70
0
 71
3
 72
15
 73
11
 74
0
 42
0.0000001
 43
0.0000001
 44
0.0000000001
 40
0.0
 40
0.0
 40
0.0
 40
0.0
 40
0.3803272465
 40
0.5488086199
 40
0.6961826184
 40
0.8180959422
 40
0.9110032187
 40
0.9722146566
 40
0.9903434786
 40
1.0
 40
1.0
 40
1.0
 40
1.0
 10
-10.5338718451
 20
21.1913708841
 30
0.0
 10
-10.5340852044
 20
21.299122743
 30
0.0
 10
-10.5347157954
 20
21.4546067973
 30
0.0
 10
-10.5363547582
 20
21.6518404237
 30
0.0
 10
-10.53784059
 20
21.7758536656
 30
0.0
 10
-10.5394906989
 20
21.878467461
 30
0.0
 10
-10.5414606585
 20
21.9566193834
 30
0.0
 10
-10.5429950137
 20
22.0054486174
 30
0.0
 10
-10.5448031362
 20
22.0305532811
 30
0.0
 10
-10.5454711879
 20
22.0384418756
 30
0.0
 10
-10.5461336082
 20
22.0410962979
 30
0.0
  0
SPLINE
  5
5EC
100
AcDbEntity
  8
RACCORDO
100
AcDbSpline
 62
250
  6
CONTINUOUS
 70
0
 71
3
 72
14
 73
10
 74
0
 42
0.0000001
 43
0.0000001
 44
0.0000000001
 40
0.0
 40
0.0
 40
0.0
 40
0.0
 40
0.3801005377
 40
0.5484878443
 40
0.6957910049
 40
0.817660801
 40
0.9105811831
 40
0.9718887227
 40
1.0
 40
1.0
 40
1.0
 40
1.0
 10
-11.0337005076
 20
21.1169188236
 30
0.0
 10
-11.0339131359
 20
21.1708005194
 30
0.0
 10
-11.0345316878
 20
21.2485573108
 30
0.0
 10
-11.036203025
 20
21.3471651118
 30
0.0
 10
-11.0376136636
 20
21.4092054951
 30
0.0
 10
-11.0394755013
 20
21.4604244593
 30
0.0
 10
-11.0409182044
 20
21.4997288143
 30
0.0
 10
-11.0436005222
 20
21.5250980651
 30
0.0
 10
-11.0441879894
 20
21.5382133329
 30
0.0
 10
-11.0459622707
 20
21.5417815306
 30
0.0
  0
SPLINE
  5
5ED
100
AcDbEntity
  8
RACCORDO
100
AcDbSpline
 62
250
  6
CONTINUOUS
 70
0
 71
3
 72
18
 73
14
 74
0
 42
0.0000001
 43
0.0000001
 44
0.0000000001
 40
0.0
 40
0.0
 40
0.0
 40
0.0
 40
0.0074172234
 40
0.0239389419
 40
0.0494885228
 40
0.0838958672
 40
0.1268197891
 40
0.1778438737
 40
0.3023553371
 40
0.4527098791
 40
0.6234044961
 40
0.8083167015
 40
1.0
 40
1.0
 40
1.0
 40
1.0
 10
-11.0079958269
 20
9.4905
 30
0.0
 10
-11.0069953442
 20
9.4912265586
 30
0.0
 10
-11.0027473865
 20
9.4914836415
 30
0.0
 10
-10.9947803335
 20
9.4926223234
 30
0.0
 10
-10.9819319873
 20
9.4932904953
 30
0.0
 10
-10.9648538501
 20
9.4941956675
 30
0.0
 10
-10.9434523378
 20
9.4949801527
 30
0.0
 10
-10.9070601227
 20
9.4961014803
 30
0.0
 10
-10.8527402737
 20
9.4972852178
 30
0.0
 10
-10.778474964
 20
9.4984269777
 30
0.0
 10
-10.6941334033
 20
9.4992877736
 30
0.0
 10
-10.6029005773
 20
9.4998387614
 30
0.0
 10
-10.5401212006
 20
9.4999841043
 30
0.0
 10
-10.5081671644
 20
9.4999999996
 30
0.0
  0
SPLINE
  5
5EE
100
AcDbEntity
  8
RACCORDO
100
AcDbSpline
 62
250
  6
CONTINUOUS
 70
0
 71
3
 72
18
 73
14
 74
0
 42
0.0000001
 43
0.0000001
 44
0.0000000001
 40
0.0
 40
0.0
 40
0.0
 40
0.0
 40
0.0074172196
 40
0.0239389347
 40
0.0494885128
 40
0.0838958551
 40
0.1268197753
 40
0.177843859
 40
0.3023553221
 40
0.4527098658
 40
0.6234044863
 40
0.8083166963
 40
1.0
 40
1.0
 40
1.0
 40
1.0
 10
-11.0079958269
 20
-9.4905
 30
0.0
 10
-11.0069953453
 20
-9.491226559
 30
0.0
 10
-11.0027473879
 20
-9.4914836412
 30
0.0
 10
-10.9947803373
 20
-9.4926223237
 30
0.0
 10
-10.9819319922
 20
-9.4932904953
 30
0.0
 10
-10.9648538561
 20
-9.4941956677
 30
0.0
 10
-10.9434523446
 20
-9.4949801529
 30
0.0
 10
-10.90706013
 20
-9.4961014806
 30
0.0
 10
-10.8527402809
 20
-9.4972852181
 30
0.0
 10
-10.7784749704
 20
-9.498426978
 30
0.0
 10
-10.6941334081
 20
-9.499287774
 30
0.0
 10
-10.6029005798
 20
-9.4998387618
 30
0.0
 10
-10.5401212014
 20
-9.4999841047
 30
0.0
 10
-10.5081671644
 20
-9.5
 30
0.0
  0
SPLINE
  5
5EF
100
AcDbEntity
  8
RACCORDO
100
AcDbSpline
 62
250
  6
CONTINUOUS
 70
0
 71
3
 72
8
 73
4
 74
0
 42
0.0000001
 43
0.0000001
 44
0.0000000001
 40
0.0
 40
0.0
 40
0.0
 40
0.0
 40
1.0
 40
1.0
 40
1.0
 40
1.0
 10
-11.0079958269
 20
-9.4905
 30
0.0
 10
-11.004847372
 20
-3.1635007834
 30
0.0
 10
-11.0048473723
 20
3.1635007834
 30
0.0
 10
-11.0079958269
 20
9.4905
 30
0.0
  0
SPLINE
  5
5F0
100
AcDbEntity
  8
RACCORDO
100
AcDbSpline
 62
250
  6
CONTINUOUS
 70
0
 71
3
 72
13
 73
9
 74
0
 42
0.0000001
 43
0.0000001
 44
0.0000000001
 40
0.0
 40
0.0
 40
0.0
 40
0.0
 40
0.0360790108
 40
0.1002565224
 40
0.1950336172
 40
0.3182835283
 40
0.6327516682
 40
1.0
 40
1.0
 40
1.0
 40
1.0
 10
-11.0337005076
 20
-21.1169188236
 30
0.0
 10
-11.0326438093
 20
-21.1229995532
 30
0.0
 10
-11.0178923921
 20
-21.1355820588
 30
0.0
 10
-10.9875407326
 20
-21.1472136646
 30
0.0
 10
-10.9403341172
 20
-21.159561777
 30
0.0
 10
-10.8506949271
 20
-21.1748206828
 30
0.0
 10
-10.7132695297
 20
-21.1875066713
 30
0.0
 10
-10.5966947778
 20
-21.1911286518
 30
0.0
 10
-10.5338718451
 20
-21.1913708807
 30
0.0
  0
SPLINE
  5
5F1
100
AcDbEntity
  8
RACCORDO
100
AcDbSpline
 62
250
  6
CONTINUOUS
 70
0
 71
3
 72
11
 73
7
 74
0
 42
0.0000001
 43
0.0000001
 44
0.0000000001
 40
0.0
 40
0.0
 40
0.0
 40
0.0
 40
0.2498661589
 40
0.4998322073
 40
0.7498964176
 40
1.0
 40
1.0
 40
1.0
 40
1.0
 10
-11.0459622707
 20
-21.5417815306
 30
0.0
 10
-11.0458732499
 20
-21.6066937815
 30
0.0
 10
-11.0197147471
 20
-21.7379337803
 30
0.0
 10
-10.9083872006
 20
-21.9037202727
 30
0.0
 10
-10.7424319079
 20
-22.0148944683
 30
0.0
 10
-10.6111075393
 20
-22.041007376
 30
0.0
 10
-10.5461336083
 20
-22.0410962981
 30
0.0
  0
SPLINE
  5
5F2
100
AcDbEntity
  8
RACCORDO
100
AcDbSpline
 62
250
  6
CONTINUOUS
 70
0
 71
3
 72
15
 73
11
 74
0
 42
0.0000001
 43
0.0000001
 44
0.0000000001
 40
0.0
 40
0.0
 40
0.0
 40
0.0
 40
0.0096538732
 40
0.0277840423
 40
0.0889975044
 40
0.1819038979
 40
0.3038173873
 40
0.4511914358
 40
0.6196726457
 40
1.0
 40
1.0
 40
1.0
 40
1.0
 10
-10.5461336082
 20
-22.0410962979
 30
0.0
 10
-10.5454699918
 20
-22.0384429477
 30
0.0
 10
-10.544803003
 20
-22.0305542885
 30
0.0
 10
-10.5429948507
 20
-22.0054497997
 30
0.0
 10
-10.5414613841
 20
-21.9566194882
 30
0.0
 10
-10.5394909304
 20
-21.8784673857
 30
0.0
 10
-10.5378417859
 20
-21.7758536843
 30
0.0
 10
-10.5363547538
 20
-21.6518404651
 30
0.0
 10
-10.5347155345
 20
-21.4546068194
 30
0.0
 10
-10.534085387
 20
-21.299122778
 30
0.0
 10
-10.5338718451
 20
-21.1913708841
 30
0.0
  0
SPLINE
  5
5F3
100
AcDbEntity
  8
RACCORDO
100
AcDbSpline
 62
250
  6
CONTINUOUS
 70
0
 71
3
 72
14
 73
10
 74
0
 42
0.0000001
 43
0.0000001
 44
0.0000000001
 40
0.0
 40
0.0
 40
0.0
 40
0.0
 40
0.0281095091
 40
0.0894248337
 40
0.1823433241
 40
0.3042089402
 40
0.4515090739
 40
0.6198967555
 40
1.0
 40
1.0
 40
1.0
 40
1.0
 10
-11.0459622707
 20
-21.5417815306
 30
0.0
 10
-11.0441843231
 20
-21.5382154384
 30
0.0
 10
-11.0436041524
 20
-21.525095535
 30
0.0
 10
-11.0409164647
 20
-21.499728648
 30
0.0
 10
-11.0394763128
 20
-21.4604226046
 30
0.0
 10
-11.0376133669
 20
-21.4092055125
 30
0.0
 10
-11.036203059
 20
-21.3471658917
 30
0.0
 10
-11.0345314937
 20
-21.2485581704
 30
0.0
 10
-11.0339133386
 20
-21.1708009029
 30
0.0
 10
-11.0337005076
 20
-21.1169188236
 30
0.0
  0
SPLINE
  5
5F4
100
AcDbEntity
  8
RACCORDO
100
AcDbSpline
 62
250
  6
CONTINUOUS
 70
0
 71
3
 72
11
 73
7
 74
0
 42
0.0000001
 43
0.0000001
 44
0.0000000001
 40
0.0
 40
0.0
 40
0.0
 40
0.0
 40
0.2498661685
 40
0.4998322195
 40
0.7498964267
 40
1.0
 40
1.0
 40
1.0
 40
1.0
 10
11.0459622707
 20
21.5417815306
 30
0.0
 10
11.0458732496
 20
21.6066937839
 30
0.0
 10
11.0197147448
 20
21.7379337856
 30
0.0
 10
10.9083871933
 20
21.9037202772
 30
0.0
 10
10.7424319016
 20
22.0148944684
 30
0.0
 10
10.6111075369
 20
22.0410073756
 30
0.0
 10
10.5461336083
 20
22.0410962981
 30
0.0
  0
SPLINE
  5
5F5
100
AcDbEntity
  8
RACCORDO
100
AcDbSpline
 62
250
  6
CONTINUOUS
 70
0
 71
3
 72
15
 73
11
 74
0
 42
0.0000001
 43
0.0000001
 44
0.0000000001
 40
0.0
 40
0.0
 40
0.0
 40
0.0
 40
0.0096565214
 40
0.0277853434
 40
0.0889967813
 40
0.1819040578
 40
0.3038173816
 40
0.4511913801
 40
0.6196727535
 40
1.0
 40
1.0
 40
1.0
 40
1.0
 10
10.5461336082
 20
22.0410962979
 30
0.0
 10
10.5454711879
 20
22.0384418756
 30
0.0
 10
10.5448031362
 20
22.0305532811
 30
0.0
 10
10.5429950137
 20
22.0054486174
 30
0.0
 10
10.5414606585
 20
21.9566193834
 30
0.0
 10
10.5394906989
 20
21.878467461
 30
0.0
 10
10.53784059
 20
21.7758536656
 30
0.0
 10
10.5363547582
 20
21.6518404237
 30
0.0
 10
10.5347157954
 20
21.4546067973
 30
0.0
 10
10.5340852044
 20
21.299122743
 30
0.0
 10
10.5338718451
 20
21.1913708841
 30
0.0
  0
SPLINE
  5
5F6
100
AcDbEntity
  8
RACCORDO
100
AcDbSpline
 62
250
  6
CONTINUOUS
 70
0
 71
3
 72
14
 73
10
 74
0
 42
0.0000001
 43
0.0000001
 44
0.0000000001
 40
0.0
 40
0.0
 40
0.0
 40
0.0
 40
0.0281112774
 40
0.089418817
 40
0.182339199
 40
0.3042089951
 40
0.4515121557
 40
0.6198994623
 40
1.0
 40
1.0
 40
1.0
 40
1.0
 10
11.0459622707
 20
21.5417815306
 30
0.0
 10
11.0441879893
 20
21.538213333
 30
0.0
 10
11.0436005223
 20
21.5250980651
 30
0.0
 10
11.0409182043
 20
21.4997288143
 30
0.0
 10
11.0394755013
 20
21.4604244592
 30
0.0
 10
11.0376136636
 20
21.4092054952
 30
0.0
 10
11.036203025
 20
21.3471651118
 30
0.0
 10
11.0345316878
 20
21.2485573108
 30
0.0
 10
11.0339131359
 20
21.1708005194
 30
0.0
 10
11.0337005076
 20
21.1169188236
 30
0.0
  0
SPLINE
  5
5F7
100
AcDbEntity
  8
RACCORDO
100
AcDbSpline
 62
250
  6
CONTINUOUS
 70
0
 71
3
 72
13
 73
9
 74
0
 42
0.0000001
 43
0.0000001
 44
0.0000000001
 40
0.0
 40
0.0
 40
0.0
 40
0.0
 40
0.0360790135
 40
0.100256528
 40
0.1950336246
 40
0.3182835363
 40
0.6327516736
 40
1.0
 40
1.0
 40
1.0
 40
1.0
 10
11.0337005076
 20
21.1169188236
 30
0.0
 10
11.032643808
 20
21.1229995534
 30
0.0
 10
11.0178923894
 20
21.1355820578
 30
0.0
 10
10.9875407287
 20
21.1472136641
 30
0.0
 10
10.9403341123
 20
21.1595617759
 30
0.0
 10
10.8506949226
 20
21.1748206814
 30
0.0
 10
10.7132695269
 20
21.18750667
 30
0.0
 10
10.5966947767
 20
21.19112865
 30
0.0
 10
10.5338718451
 20
21.1913708785
 30
0.0
  0
SPLINE
  5
5F8
100
AcDbEntity
  8
RACCORDO
100
AcDbSpline
 62
250
  6
CONTINUOUS
 70
0
 71
3
 72
18
 73
14
 74
0
 42
0.0000001
 43
0.0000001
 44
0.0000000001
 40
0.0
 40
0.0
 40
0.0
 40
0.0
 40
0.0074172197
 40
0.0239389348
 40
0.0494885129
 40
0.0838958553
 40
0.1268197755
 40
0.1778438592
 40
0.3023553223
 40
0.452709866
 40
0.6234044864
 40
0.8083166963
 40
1.0
 40
1.0
 40
1.0
 40
1.0
 10
11.0079958269
 20
9.4905
 30
0.0
 10
11.0069953453
 20
9.491226559
 30
0.0
 10
11.0027473879
 20
9.4914836412
 30
0.0
 10
10.9947803373
 20
9.4926223237
 30
0.0
 10
10.9819319921
 20
9.4932904953
 30
0.0
 10
10.9648538561
 20
9.4941956677
 30
0.0
 10
10.9434523446
 20
9.4949801529
 30
0.0
 10
10.9070601299
 20
9.4961014806
 30
0.0
 10
10.8527402808
 20
9.4972852181
 30
0.0
 10
10.7784749704
 20
9.498426978
 30
0.0
 10
10.694133408
 20
9.499287774
 30
0.0
 10
10.6029005798
 20
9.4998387618
 30
0.0
 10
10.5401212014
 20
9.4999841047
 30
0.0
 10
10.5081671644
 20
9.5
 30
0.0
  0
SPLINE
  5
5F9
100
AcDbEntity
  8
RACCORDO
100
AcDbSpline
 62
250
  6
CONTINUOUS
 70
0
 71
3
 72
13
 73
9
 74
0
 42
0.0000001
 43
0.0000001
 44
0.0000000001
 40
0.0
 40
0.0
 40
0.0
 40
0.0
 40
0.0360808485
 40
0.1002608126
 40
0.1950398269
 40
0.3182906844
 40
0.6327571414
 40
1.0
 40
1.0
 40
1.0
 40
1.0
 10
11.0337005075
 20
-21.1169188236
 30
0.0
 10
11.0326429618
 20
-21.1229997072
 30
0.0
 10
11.0178902871
 20
-21.135581315
 30
0.0
 10
10.9875376001
 20
-21.1472129679
 30
0.0
 10
10.9403300567
 20
-21.1595605475
 30
0.0
 10
10.8506908434
 20
-21.1748189303
 30
0.0
 10
10.7132668598
 20
-21.1875043178
 30
0.0
 10
10.5966936638
 20
-21.1911261462
 30
0.0
 10
10.5338718451
 20
-21.1913683583
 30
0.0
  0
SPLINE
  5
5FA
100
AcDbEntity
  8
RACCORDO
100
AcDbSpline
 62
250
  6
CONTINUOUS
 70
0
 71
3
 72
15
 73
11
 74
0
 42
0.0000001
 43
0.0000001
 44
0.0000000001
 40
0.0
 40
0.0
 40
0.0
 40
0.0
 40
0.3803273543
 40
0.5488085642
 40
0.6961826127
 40
0.8180961021
 40
0.9110024956
 40
0.9722159577
 40
0.9903461268
 40
1.0
 40
1.0
 40
1.0
 40
1.0
 10
10.5338718451
 20
-21.1913708841
 30
0.0
 10
10.534085387
 20
-21.299122778
 30
0.0
 10
10.5347155345
 20
-21.4546068194
 30
0.0
 10
10.5363547538
 20
-21.6518404651
 30
0.0
 10
10.5378417859
 20
-21.7758536843
 30
0.0
 10
10.5394909304
 20
-21.8784673857
 30
0.0
 10
10.5414613841
 20
-21.9566194882
 30
0.0
 10
10.5429948507
 20
-22.0054497997
 30
0.0
 10
10.544803003
 20
-22.0305542885
 30
0.0
 10
10.5454699918
 20
-22.0384429477
 30
0.0
 10
10.5461336082
 20
-22.0410962979
 30
0.0
  0
SPLINE
  5
5FB
100
AcDbEntity
  8
RACCORDO
100
AcDbSpline
 62
250
  6
CONTINUOUS
 70
0
 71
3
 72
14
 73
10
 74
0
 42
0.0000001
 43
0.0000001
 44
0.0000000001
 40
0.0
 40
0.0
 40
0.0
 40
0.0
 40
0.3801032445
 40
0.5484909261
 40
0.6957910598
 40
0.8176566759
 40
0.9105751664
 40
0.9718904911
 40
1.0
 40
1.0
 40
1.0
 40
1.0
 10
11.0337005076
 20
-21.1169188236
 30
0.0
 10
11.0339133386
 20
-21.1708009029
 30
0.0
 10
11.0345314937
 20
-21.2485581704
 30
0.0
 10
11.036203059
 20
-21.3471658917
 30
0.0
 10
11.0376133669
 20
-21.4092055125
 30
0.0
 10
11.0394763128
 20
-21.4604226046
 30
0.0
 10
11.0409164647
 20
-21.4997286481
 30
0.0
 10
11.0436041524
 20
-21.525095535
 30
0.0
 10
11.0441843231
 20
-21.5382154384
 30
0.0
 10
11.0459622707
 20
-21.5417815306
 30
0.0
  0
SPLINE
  5
5FC
100
AcDbEntity
  8
RACCORDO
100
AcDbSpline
 62
250
  6
CONTINUOUS
 70
0
 71
3
 72
11
 73
7
 74
0
 42
0.0000001
 43
0.0000001
 44
0.0000000001
 40
0.0
 40
0.0
 40
0.0
 40
0.0
 40
0.2498661978
 40
0.499832255
 40
0.7498964515
 40
1.0
 40
1.0
 40
1.0
 40
1.0
 10
11.0459622707
 20
-21.5417815306
 30
0.0
 10
11.0458732497
 20
-21.6066937915
 30
0.0
 10
11.0197147408
 20
-21.7379338033
 30
0.0
 10
10.908387176
 20
-21.9037202946
 30
0.0
 10
10.7424318854
 20
-22.0148944725
 30
0.0
 10
10.6111075304
 20
-22.0410073755
 30
0.0
 10
10.5461336082
 20
-22.0410962979
 30
0.0
  0
SPLINE
  5
5FD
100
AcDbEntity
  8
0
100
AcDbSpline
 62
7
  6
CONTINUOUS
 70
0
 71
3
 72
9
 73
5
 74
0
 42
0.0000001
 43
0.0000001
 44
0.0000000001
 40
0.0
 40
0.0
 40
0.0
 40
0.0
 40
0.4999975349
 40
1.0
 40
1.0
 40
1.0
 40
1.0
 10
9.934171544
 20
24.4823909978
 30
0.0
 10
9.9893172555
 20
24.4717709004
 30
0.0
 10
10.0954581984
 20
24.4101569778
 30
0.0
 10
10.1365675114
 20
24.2945186954
 30
0.0
 10
10.1368971279
 20
24.2383600851
 30
0.0
  0
SPLINE
  5
5FE
100
AcDbEntity
  8
0
100
AcDbSpline
 62
7
  6
CONTINUOUS
 70
0
 71
3
 72
9
 73
5
 74
0
 42
0.0000001
 43
0.0000001
 44
0.0000000001
 40
0.0
 40
0.0
 40
0.0
 40
0.0
 40
0.4999975349
 40
1.0
 40
1.0
 40
1.0
 40
1.0
 10
7.465828456
 20
-24.4823909978
 30
0.0
 10
7.4106827445
 20
-24.4717709004
 30
0.0
 10
7.3045418016
 20
-24.4101569778
 30
0.0
 10
7.2634324886
 20
-24.2945186954
 30
0.0
 10
7.2631028721
 20
-24.2383600851
 30
0.0
  0
SPLINE
  5
5FF
100
AcDbEntity
  8
0
100
AcDbSpline
 62
7
  6
CONTINUOUS
 70
0
 71
3
 72
8
 73
4
 74
0
 42
0.0000001
 43
0.0000001
 44
0.0000000001
 40
0.0
 40
0.0
 40
0.0
 40
0.0
 40
1.0
 40
1.0
 40
1.0
 40
1.0
 10
10.1222096181
 20
-24.3645591099
 30
0.0
 10
10.1042043142
 20
-24.399483487
 30
0.0
 10
10.0770226711
 20
-24.4308527085
 30
0.0
 10
10.0450162711
 20
-24.4536451073
 30
0.0
  0
SPLINE
  5
600
100
AcDbEntity
  8
0
100
AcDbSpline
 62
7
  6
CONTINUOUS
 70
0
 71
3
 72
8
 73
4
 74
0
 42
0.0000001
 43
0.0000001
 44
0.0000000001
 40
0.0
 40
0.0
 40
0.0
 40
0.0
 40
1.0
 40
1.0
 40
1.0
 40
1.0
 10
10.0450162711
 20
-24.4536451073
 30
0.0
 10
10.003679488
 20
-24.483081859
 30
0.0
 10
9.9507511715
 20
-24.5
 30
0.0
 10
9.9000042308
 20
-24.5
 30
0.0
  0
SPLINE
  5
601
100
AcDbEntity
  8
0
100
AcDbSpline
 62
7
  6
CONTINUOUS
 70
0
 71
3
 72
9
 73
5
 74
0
 42
0.0000001
 43
0.0000001
 44
0.0000000001
 40
0.0
 40
0.0
 40
0.0
 40
0.0
 40
0.4999964004
 40
1.0
 40
1.0
 40
1.0
 40
1.0
 10
10.1369014213
 20
-24.2369056521
 30
0.0
 10
10.1368994038
 20
-24.2965144766
 30
0.0
 10
10.0909007249
 20
-24.420026045
 30
0.0
 10
9.9730498729
 20
-24.4790421804
 30
0.0
 10
9.9137856854
 20
-24.4854507968
 30
0.0
  0
SPLINE
  5
602
100
AcDbEntity
  8
0
100
AcDbSpline
 62
7
  6
CONTINUOUS
 70
0
 71
3
 72
8
 73
4
 74
0
 42
0.0000001
 43
0.0000001
 44
0.0000000001
 40
0.0
 40
0.0
 40
0.0
 40
0.0
 40
1.0
 40
1.0
 40
1.0
 40
1.0
 10
7.4644176339
 20
-24.4974554741
 30
0.0
 10
7.4255248416
 20
-24.4918649644
 30
0.0
 10
7.3869901289
 20
-24.4764375062
 30
0.0
 10
7.3549837289
 20
-24.4536451073
 30
0.0
  0
SPLINE
  5
603
100
AcDbEntity
  8
0
100
AcDbSpline
 62
7
  6
CONTINUOUS
 70
0
 71
3
 72
8
 73
4
 74
0
 42
0.0000001
 43
0.0000001
 44
0.0000000001
 40
0.0
 40
0.0
 40
0.0
 40
0.0
 40
1.0
 40
1.0
 40
1.0
 40
1.0
 10
7.3549837289
 20
-24.4536451073
 30
0.0
 10
7.3261260739
 20
-24.4330949929
 30
0.0
 10
7.3012056462
 20
-24.4056833628
 30
0.0
 10
7.2834927655
 20
-24.3750023375
 30
0.0
  0
SPLINE
  5
604
100
AcDbEntity
  8
0
100
AcDbSpline
 62
7
  6
CONTINUOUS
 70
0
 71
3
 72
8
 73
4
 74
0
 42
0.0000001
 43
0.0000001
 44
0.0000000001
 40
0.0
 40
0.0
 40
0.0
 40
0.0
 40
1.0
 40
1.0
 40
1.0
 40
1.0
 10
7.2834927655
 20
-24.3750023375
 30
0.0
 10
7.2619256013
 20
-24.3376451891
 30
0.0
 10
7.25
 20
-24.2931400525
 30
0.0
 10
7.25
 20
-24.2500042308
 30
0.0
  0
SPLINE
  5
605
100
AcDbEntity
  8
0
100
AcDbSpline
 62
7
  6
CONTINUOUS
 70
0
 71
3
 72
8
 73
4
 74
0
 42
0.0000001
 43
0.0000001
 44
0.0000000001
 40
0.0
 40
0.0
 40
0.0
 40
0.0
 40
1.0
 40
1.0
 40
1.0
 40
1.0
 10
-10.0145591099
 20
-24.4722096181
 30
0.0
 10
-10.0596645037
 20
-24.448955479
 30
0.0
 10
-10.098955479
 20
-24.4096645037
 30
0.0
 10
-10.1222096181
 20
-24.3645591099
 30
0.0
  0
SPLINE
  5
606
100
AcDbEntity
  8
0
100
AcDbSpline
 62
7
  6
CONTINUOUS
 70
0
 71
3
 72
8
 73
4
 74
0
 42
0.0000001
 43
0.0000001
 44
0.0000000001
 40
0.0
 40
0.0
 40
0.0
 40
0.0
 40
1.0
 40
1.0
 40
1.0
 40
1.0
 10
-10.1222096181
 20
-24.3645591099
 30
0.0
 10
-10.1402149205
 20
-24.3296347354
 30
0.0
 10
-10.15
 20
-24.28929676
 30
0.0
 10
-10.15
 20
-24.2500042308
 30
0.0
  0
SPLINE
  5
607
100
AcDbEntity
  8
0
100
AcDbSpline
 62
7
  6
CONTINUOUS
 70
0
 71
3
 72
8
 73
4
 74
0
 42
0.0000001
 43
0.0000001
 44
0.0000000001
 40
0.0
 40
0.0
 40
0.0
 40
0.0
 40
1.0
 40
1.0
 40
1.0
 40
1.0
 10
-7.2777903819
 20
-24.3645591099
 30
0.0
 10
-7.301044521
 20
-24.4096645037
 30
0.0
 10
-7.3403354963
 20
-24.448955479
 30
0.0
 10
-7.3854408901
 20
-24.4722096181
 30
0.0
  0
SPLINE
  5
608
100
AcDbEntity
  8
0
100
AcDbSpline
 62
7
  6
CONTINUOUS
 70
0
 71
3
 72
8
 73
4
 74
0
 42
0.0000001
 43
0.0000001
 44
0.0000000001
 40
0.0
 40
0.0
 40
0.0
 40
0.0
 40
1.0
 40
1.0
 40
1.0
 40
1.0
 10
-7.3854408901
 20
-24.4722096181
 30
0.0
 10
-7.4203652646
 20
-24.4902149205
 30
0.0
 10
-7.46070324
 20
-24.5
 30
0.0
 10
-7.4999957692
 20
-24.5
 30
0.0
  0
SPLINE
  5
609
100
AcDbEntity
  8
0
100
AcDbSpline
 62
7
  6
CONTINUOUS
 70
0
 71
3
 72
8
 73
4
 74
0
 42
0.0000001
 43
0.0000001
 44
0.0000000001
 40
0.0
 40
0.0
 40
0.0
 40
0.0
 40
1.0
 40
1.0
 40
1.0
 40
1.0
 10
9.9355823661
 20
24.4974554741
 30
0.0
 10
9.9744751584
 20
24.4918649644
 30
0.0
 10
10.0130098711
 20
24.4764375062
 30
0.0
 10
10.0450162711
 20
24.4536451073
 30
0.0
  0
SPLINE
  5
60A
100
AcDbEntity
  8
0
100
AcDbSpline
 62
7
  6
CONTINUOUS
 70
0
 71
3
 72
8
 73
4
 74
0
 42
0.0000001
 43
0.0000001
 44
0.0000000001
 40
0.0
 40
0.0
 40
0.0
 40
0.0
 40
1.0
 40
1.0
 40
1.0
 40
1.0
 10
10.0450162711
 20
24.4536451073
 30
0.0
 10
10.0738739261
 20
24.4330949929
 30
0.0
 10
10.0987943538
 20
24.4056833628
 30
0.0
 10
10.1165072345
 20
24.3750023375
 30
0.0
  0
SPLINE
  5
60B
100
AcDbEntity
  8
0
100
AcDbSpline
 62
7
  6
CONTINUOUS
 70
0
 71
3
 72
8
 73
4
 74
0
 42
0.0000001
 43
0.0000001
 44
0.0000000001
 40
0.0
 40
0.0
 40
0.0
 40
0.0
 40
1.0
 40
1.0
 40
1.0
 40
1.0
 10
10.1165072345
 20
24.3750023375
 30
0.0
 10
10.1380743987
 20
24.3376451891
 30
0.0
 10
10.15
 20
24.2931400525
 30
0.0
 10
10.15
 20
24.2500042308
 30
0.0
  0
SPLINE
  5
60C
100
AcDbEntity
  8
0
100
AcDbSpline
 62
7
  6
CONTINUOUS
 70
0
 71
3
 72
8
 73
4
 74
0
 42
0.0000001
 43
0.0000001
 44
0.0000000001
 40
0.0
 40
0.0
 40
0.0
 40
0.0
 40
1.0
 40
1.0
 40
1.0
 40
1.0
 10
7.2777903819
 20
24.3645591099
 30
0.0
 10
7.301044521
 20
24.4096645037
 30
0.0
 10
7.3403354963
 20
24.448955479
 30
0.0
 10
7.3854408901
 20
24.4722096181
 30
0.0
  0
SPLINE
  5
60D
100
AcDbEntity
  8
0
100
AcDbSpline
 62
7
  6
CONTINUOUS
 70
0
 71
3
 72
8
 73
4
 74
0
 42
0.0000001
 43
0.0000001
 44
0.0000000001
 40
0.0
 40
0.0
 40
0.0
 40
0.0
 40
1.0
 40
1.0
 40
1.0
 40
1.0
 10
7.3854408901
 20
24.4722096181
 30
0.0
 10
7.4203652646
 20
24.4902149205
 30
0.0
 10
7.46070324
 20
24.5
 30
0.0
 10
7.4999957692
 20
24.5
 30
0.0
  0
SPLINE
  5
60E
100
AcDbEntity
  8
0
100
AcDbSpline
 62
7
  6
CONTINUOUS
 70
0
 71
3
 72
8
 73
4
 74
0
 42
0.0000001
 43
0.0000001
 44
0.0000000001
 40
0.0
 40
0.0
 40
0.0
 40
0.0
 40
1.0
 40
1.0
 40
1.0
 40
1.0
 10
-7.3854408901
 20
24.4722096181
 30
0.0
 10
-7.3403354963
 20
24.448955479
 30
0.0
 10
-7.301044521
 20
24.4096645037
 30
0.0
 10
-7.2777903819
 20
24.3645591099
 30
0.0
  0
SPLINE
  5
60F
100
AcDbEntity
  8
0
100
AcDbSpline
 62
7
  6
CONTINUOUS
 70
0
 71
3
 72
8
 73
4
 74
0
 42
0.0000001
 43
0.0000001
 44
0.0000000001
 40
0.0
 40
0.0
 40
0.0
 40
0.0
 40
1.0
 40
1.0
 40
1.0
 40
1.0
 10
-7.2777903819
 20
24.3645591099
 30
0.0
 10
-7.2597850795
 20
24.3296347354
 30
0.0
 10
-7.25
 20
24.28929676
 30
0.0
 10
-7.25
 20
24.2500042308
 30
0.0
  0
SPLINE
  5
610
100
AcDbEntity
  8
0
100
AcDbSpline
 62
7
  6
CONTINUOUS
 70
0
 71
3
 72
8
 73
4
 74
0
 42
0.0000001
 43
0.0000001
 44
0.0000000001
 40
0.0
 40
0.0
 40
0.0
 40
0.0
 40
1.0
 40
1.0
 40
1.0
 40
1.0
 10
-10.1222096181
 20
24.3645591099
 30
0.0
 10
-10.098955479
 20
24.4096645037
 30
0.0
 10
-10.0596645037
 20
24.448955479
 30
0.0
 10
-10.0145591099
 20
24.4722096181
 30
0.0
  0
SPLINE
  5
611
100
AcDbEntity
  8
0
100
AcDbSpline
 62
7
  6
CONTINUOUS
 70
0
 71
3
 72
8
 73
4
 74
0
 42
0.0000001
 43
0.0000001
 44
0.0000000001
 40
0.0
 40
0.0
 40
0.0
 40
0.0
 40
1.0
 40
1.0
 40
1.0
 40
1.0
 10
-10.0145591099
 20
24.4722096181
 30
0.0
 10
-9.9796347354
 20
24.4902149205
 30
0.0
 10
-9.93929676
 20
24.5
 30
0.0
 10
-9.9000042308
 20
24.5
 30
0.0
  0
LINE
  5
612
100
AcDbEntity
  8
DRAFT
100
AcDbLine
 62
7
  6
CONTINUOUS
 10
11.1504363434
 20
21.900016923
 30
0.0
 11
11.15
 21
17.6160978686
 31
0.0
  0
LINE
  5
613
100
AcDbEntity
  8
DRAFT
100
AcDbLine
 62
7
  6
CONTINUOUS
 10
11.15
 20
-17.6160978686
 30
0.0
 11
11.1504363434
 21
-21.900016923
 31
0.0
  0
LINE
  5
614
100
AcDbEntity
  8
DRAFT
100
AcDbLine
 62
7
  6
CONTINUOUS
 10
-11.15
 20
-17.6160978686
 30
0.0
 11
-11.1504363434
 21
-21.900016923
 31
0.0
  0
LINE
  5
615
100
AcDbEntity
  8
DRAFT
100
AcDbLine
 62
7
  6
CONTINUOUS
 10
-11.1504363434
 20
21.900016923
 30
0.0
 11
-11.15
 21
17.6160978686
 31
0.0
  0
SPLINE
  5
616
100
AcDbEntity
  8
0
100
AcDbSpline
 62
7
  6
CONTINUOUS
 70
0
 71
3
 72
11
 73
7
 74
0
 42
0.0000001
 43
0.0000001
 44
0.0000000001
 40
0.0
 40
0.0
 40
0.0
 40
0.0
 40
0.327069379
 40
0.6069908884
 40
0.8253215288
 40
1.0
 40
1.0
 40
1.0
 40
1.0
 10
-7.5072765181
 20
23.1226497308
 30
0.0
 10
-7.4731660792
 20
23.1226497308
 30
0.0
 10
-7.4095405563
 20
23.1303374357
 30
0.0
 10
-7.3284058969
 20
23.1618479167
 30
0.0
 10
-7.2728342786
 20
23.2077593007
 30
0.0
 10
-7.2574643078
 20
23.2487708057
 30
0.0
 10
-7.2572807489
 20
23.2669872981
 30
0.0
  0
SPLINE
  5
617
100
AcDbEntity
  8
0
100
AcDbSpline
 62
250
  6
CONTINUOUS
 70
0
 71
3
 72
11
 73
7
 74
0
 42
0.0000001
 43
0.0000001
 44
0.0000000001
 40
0.0
 40
0.0
 40
0.0
 40
0.0
 40
0.2331623162
 40
0.4766706026
 40
0.7338117062
 40
1.0
 40
1.0
 40
1.0
 40
1.0
 10
-10.1369014213
 20
23.8443375673
 30
0.0
 10
-10.1368063495
 20
23.8160323815
 30
0.0
 10
-10.1228764906
 20
23.7574892401
 30
0.0
 10
-10.0659440627
 20
23.685828124
 30
0.0
 10
-9.9832760219
 20
23.6388299294
 30
0.0
 10
-9.9192201694
 20
23.6279126229
 30
0.0
 10
-9.8869056521
 20
23.6278312164
 30
0.0
  0
SPLINE
  5
618
100
AcDbEntity
  8
0
100
AcDbSpline
 62
7
  6
CONTINUOUS
 70
0
 71
3
 72
11
 73
7
 74
0
 42
0.0000001
 43
0.0000001
 44
0.0000000001
 40
0.0
 40
0.0
 40
0.0
 40
0.0
 40
0.1745970712
 40
0.3929474236
 40
0.672962312
 40
1.0
 40
1.0
 40
1.0
 40
1.0
 10
-10.1427192511
 20
23.2669872981
 30
0.0
 10
-10.1425353563
 20
23.2487374667
 30
0.0
 10
-10.1271019039
 20
23.2076402818
 30
0.0
 10
-10.0713420679
 20
23.1616935154
 30
0.0
 10
-9.9899732978
 20
23.1301817308
 30
0.0
 10
-9.9261817388
 20
23.1226497308
 30
0.0
 10
-9.8919962532
 20
23.1226497308
 30
0.0
  0
SPLINE
  5
619
100
AcDbEntity
  8
0
100
AcDbSpline
 62
250
  6
CONTINUOUS
 70
0
 71
3
 72
11
 73
7
 74
0
 42
0.0000001
 43
0.0000001
 44
0.0000000001
 40
0.0
 40
0.0
 40
0.0
 40
0.0
 40
0.2331623084
 40
0.476670585
 40
0.7338116789
 40
1.0
 40
1.0
 40
1.0
 40
1.0
 10
-7.2630985787
 20
23.8443375673
 30
0.0
 10
-7.2631936505
 20
23.8160323825
 30
0.0
 10
-7.2771235083
 20
23.7574892432
 30
0.0
 10
-7.3340559324
 20
23.6858281285
 30
0.0
 10
-7.4167239726
 20
23.6388299314
 30
0.0
 10
-7.4807798273
 20
23.6279126229
 30
0.0
 10
-7.5130943479
 20
23.6278312164
 30
0.0
  0
SPLINE
  5
61A
100
AcDbEntity
  8
0
100
AcDbSpline
 62
250
  6
CONTINUOUS
 70
0
 71
3
 72
11
 73
7
 74
0
 42
0.0000001
 43
0.0000001
 44
0.0000000001
 40
0.0
 40
0.0
 40
0.0
 40
0.0
 40
0.2331623084
 40
0.476670585
 40
0.7338116789
 40
1.0
 40
1.0
 40
1.0
 40
1.0
 10
7.2630985787
 20
23.8443375673
 30
0.0
 10
7.2631936505
 20
23.8160323825
 30
0.0
 10
7.2771235083
 20
23.7574892432
 30
0.0
 10
7.3340559324
 20
23.6858281285
 30
0.0
 10
7.4167239726
 20
23.6388299314
 30
0.0
 10
7.4807798273
 20
23.6279126229
 30
0.0
 10
7.5130943479
 20
23.6278312164
 30
0.0
  0
SPLINE
  5
61B
100
AcDbEntity
  8
0
100
AcDbSpline
 62
7
  6
CONTINUOUS
 70
0
 71
3
 72
11
 73
7
 74
0
 42
0.0000001
 43
0.0000001
 44
0.0000000001
 40
0.0
 40
0.0
 40
0.0
 40
0.0
 40
0.1745970712
 40
0.3929474236
 40
0.672962312
 40
1.0
 40
1.0
 40
1.0
 40
1.0
 10
7.2572807489
 20
23.2669872981
 30
0.0
 10
7.2574646437
 20
23.2487374667
 30
0.0
 10
7.2728980961
 20
23.2076402818
 30
0.0
 10
7.3286579321
 20
23.1616935154
 30
0.0
 10
7.4100267022
 20
23.1301817308
 30
0.0
 10
7.4738182612
 20
23.1226497308
 30
0.0
 10
7.5080037468
 20
23.1226497308
 30
0.0
  0
SPLINE
  5
61C
100
AcDbEntity
  8
0
100
AcDbSpline
 62
7
  6
CONTINUOUS
 70
0
 71
3
 72
11
 73
7
 74
0
 42
0.0000001
 43
0.0000001
 44
0.0000000001
 40
0.0
 40
0.0
 40
0.0
 40
0.0
 40
0.1745970712
 40
0.3929474236
 40
0.672962312
 40
1.0
 40
1.0
 40
1.0
 40
1.0
 10
10.1427192511
 20
23.2669872981
 30
0.0
 10
10.1425353563
 20
23.2487374667
 30
0.0
 10
10.1271019039
 20
23.2076402818
 30
0.0
 10
10.0713420679
 20
23.1616935154
 30
0.0
 10
9.9899732978
 20
23.1301817308
 30
0.0
 10
9.9261817388
 20
23.1226497308
 30
0.0
 10
9.8919962532
 20
23.1226497308
 30
0.0
  0
SPLINE
  5
61D
100
AcDbEntity
  8
0
100
AcDbSpline
 62
250
  6
CONTINUOUS
 70
0
 71
3
 72
11
 73
7
 74
0
 42
0.0000001
 43
0.0000001
 44
0.0000000001
 40
0.0
 40
0.0
 40
0.0
 40
0.0
 40
0.2331622206
 40
0.4766705204
 40
0.7338116472
 40
1.0
 40
1.0
 40
1.0
 40
1.0
 10
10.1369014213
 20
23.8443375673
 30
0.0
 10
10.1368063495
 20
23.8160323931
 30
0.0
 10
10.1228765011
 20
23.7574892617
 30
0.0
 10
10.0659440862
 20
23.6858281428
 30
0.0
 10
9.9832760395
 20
23.6388299344
 30
0.0
 10
9.9192201766
 20
23.6279126229
 30
0.0
 10
9.8869056521
 20
23.6278312164
 30
0.0
  0
SPLINE
  5
61E
100
AcDbEntity
  8
0
100
AcDbSpline
 62
250
  6
CONTINUOUS
 70
0
 71
3
 72
11
 73
7
 74
0
 42
0.0000001
 43
0.0000001
 44
0.0000000001
 40
0.0
 40
0.0
 40
0.0
 40
0.0
 40
0.2331623084
 40
0.476670585
 40
0.7338116789
 40
1.0
 40
1.0
 40
1.0
 40
1.0
 10
10.1369014213
 20
-23.8443375673
 30
0.0
 10
10.1368063495
 20
-23.8160323825
 30
0.0
 10
10.1228764917
 20
-23.7574892432
 30
0.0
 10
10.0659440676
 20
-23.6858281285
 30
0.0
 10
9.9832760274
 20
-23.6388299314
 30
0.0
 10
9.9192201727
 20
-23.6279126229
 30
0.0
 10
9.8869056521
 20
-23.6278312164
 30
0.0
  0
SPLINE
  5
61F
100
AcDbEntity
  8
0
100
AcDbSpline
 62
7
  6
CONTINUOUS
 70
0
 71
3
 72
11
 73
7
 74
0
 42
0.0000001
 43
0.0000001
 44
0.0000000001
 40
0.0
 40
0.0
 40
0.0
 40
0.0
 40
0.1745970712
 40
0.3929474236
 40
0.672962312
 40
1.0
 40
1.0
 40
1.0
 40
1.0
 10
10.1427192511
 20
-23.2669872981
 30
0.0
 10
10.1425353563
 20
-23.2487374667
 30
0.0
 10
10.1271019039
 20
-23.2076402818
 30
0.0
 10
10.0713420679
 20
-23.1616935154
 30
0.0
 10
9.9899732978
 20
-23.1301817308
 30
0.0
 10
9.9261817388
 20
-23.1226497308
 30
0.0
 10
9.8919962532
 20
-23.1226497308
 30
0.0
  0
SPLINE
  5
620
100
AcDbEntity
  8
0
100
AcDbSpline
 62
7
  6
CONTINUOUS
 70
0
 71
3
 72
11
 73
7
 74
0
 42
0.0000001
 43
0.0000001
 44
0.0000000001
 40
0.0
 40
0.0
 40
0.0
 40
0.0
 40
0.1745970712
 40
0.3929474236
 40
0.672962312
 40
1.0
 40
1.0
 40
1.0
 40
1.0
 10
7.2572807489
 20
-23.2669872981
 30
0.0
 10
7.2574646437
 20
-23.2487374667
 30
0.0
 10
7.2728980961
 20
-23.2076402818
 30
0.0
 10
7.3286579321
 20
-23.1616935154
 30
0.0
 10
7.4100267022
 20
-23.1301817308
 30
0.0
 10
7.4738182612
 20
-23.1226497308
 30
0.0
 10
7.5080037468
 20
-23.1226497308
 30
0.0
  0
SPLINE
  5
621
100
AcDbEntity
  8
0
100
AcDbSpline
 62
250
  6
CONTINUOUS
 70
0
 71
3
 72
11
 73
7
 74
0
 42
0.0000001
 43
0.0000001
 44
0.0000000001
 40
0.0
 40
0.0
 40
0.0
 40
0.0
 40
0.2331622206
 40
0.4766705204
 40
0.7338116472
 40
1.0
 40
1.0
 40
1.0
 40
1.0
 10
7.2630985787
 20
-23.8443375673
 30
0.0
 10
7.2631936505
 20
-23.8160323931
 30
0.0
 10
7.2771234989
 20
-23.7574892617
 30
0.0
 10
7.3340559138
 20
-23.6858281428
 30
0.0
 10
7.4167239605
 20
-23.6388299344
 30
0.0
 10
7.4807798234
 20
-23.6279126229
 30
0.0
 10
7.5130943479
 20
-23.6278312164
 30
0.0
  0
SPLINE
  5
622
100
AcDbEntity
  8
0
100
AcDbSpline
 62
250
  6
CONTINUOUS
 70
0
 71
3
 72
11
 73
7
 74
0
 42
0.0000001
 43
0.0000001
 44
0.0000000001
 40
0.0
 40
0.0
 40
0.0
 40
0.0
 40
0.2331623084
 40
0.476670585
 40
0.7338116789
 40
1.0
 40
1.0
 40
1.0
 40
1.0
 10
-7.2630985787
 20
-23.8443375673
 30
0.0
 10
-7.2631936505
 20
-23.8160323825
 30
0.0
 10
-7.2771235083
 20
-23.7574892432
 30
0.0
 10
-7.3340559324
 20
-23.6858281285
 30
0.0
 10
-7.4167239726
 20
-23.6388299314
 30
0.0
 10
-7.4807798273
 20
-23.6279126229
 30
0.0
 10
-7.5130943479
 20
-23.6278312164
 30
0.0
  0
SPLINE
  5
623
100
AcDbEntity
  8
0
100
AcDbSpline
 62
7
  6
CONTINUOUS
 70
0
 71
3
 72
11
 73
7
 74
0
 42
0.0000001
 43
0.0000001
 44
0.0000000001
 40
0.0
 40
0.0
 40
0.0
 40
0.0
 40
0.1745970712
 40
0.3929474236
 40
0.672962312
 40
1.0
 40
1.0
 40
1.0
 40
1.0
 10
-7.2572807489
 20
-23.2669872981
 30
0.0
 10
-7.2574646437
 20
-23.2487374667
 30
0.0
 10
-7.2728980961
 20
-23.2076402818
 30
0.0
 10
-7.3286579321
 20
-23.1616935154
 30
0.0
 10
-7.4100267022
 20
-23.1301817308
 30
0.0
 10
-7.4738182612
 20
-23.1226497308
 30
0.0
 10
-7.5080037468
 20
-23.1226497308
 30
0.0
  0
SPLINE
  5
624
100
AcDbEntity
  8
0
100
AcDbSpline
 62
7
  6
CONTINUOUS
 70
0
 71
3
 72
11
 73
7
 74
0
 42
0.0000001
 43
0.0000001
 44
0.0000000001
 40
0.0
 40
0.0
 40
0.0
 40
0.0
 40
0.327069379
 40
0.6069908884
 40
0.8253215288
 40
1.0
 40
1.0
 40
1.0
 40
1.0
 10
-9.8927234819
 20
-23.1226497308
 30
0.0
 10
-9.9268339208
 20
-23.1226497308
 30
0.0
 10
-9.9904594437
 20
-23.1303374357
 30
0.0
 10
-10.0715941031
 20
-23.1618479167
 30
0.0
 10
-10.1271657214
 20
-23.2077593007
 30
0.0
 10
-10.1425356922
 20
-23.2487708057
 30
0.0
 10
-10.1427192511
 20
-23.2669872981
 30
0.0
  0
SPLINE
  5
625
100
AcDbEntity
  8
0
100
AcDbSpline
 62
250
  6
CONTINUOUS
 70
0
 71
3
 72
11
 73
7
 74
0
 42
0.0000001
 43
0.0000001
 44
0.0000000001
 40
0.0
 40
0.0
 40
0.0
 40
0.0
 40
0.2331623084
 40
0.476670585
 40
0.7338116789
 40
1.0
 40
1.0
 40
1.0
 40
1.0
 10
-10.1369014213
 20
-23.8443375673
 30
0.0
 10
-10.1368063495
 20
-23.8160323825
 30
0.0
 10
-10.1228764917
 20
-23.7574892432
 30
0.0
 10
-10.0659440676
 20
-23.6858281285
 30
0.0
 10
-9.9832760274
 20
-23.6388299314
 30
0.0
 10
-9.9192201727
 20
-23.6279126229
 30
0.0
 10
-9.8869056521
 20
-23.6278312164
 30
0.0
  0
SPLINE
  5
626
100
AcDbEntity
  8
RACCORDO
100
AcDbSpline
 62
250
  6
CONTINUOUS
 70
0
 71
3
 72
9
 73
5
 74
0
 42
0.0000001
 43
0.0000001
 44
0.0000000001
 40
0.0
 40
0.0
 40
0.0
 40
0.0
 40
0.250063733
 40
1.0
 40
1.0
 40
1.0
 40
1.0
 10
-57.4787551469
 20
21.1169188236
 30
0.0
 10
-57.6236311245
 20
20.1548142073
 30
0.0
 10
-58.1402683768
 20
16.2981904596
 30
0.0
 10
-58.4049367152
 20
12.4078354312
 30
0.0
 10
-58.4603773018
 20
9.4905
 30
0.0
  0
SPLINE
  5
627
100
AcDbEntity
  8
RACCORDO
100
AcDbSpline
 62
250
  6
CONTINUOUS
 70
0
 71
3
 72
9
 73
5
 74
0
 42
0.0000001
 43
0.0000001
 44
0.0000000001
 40
0.0
 40
0.0
 40
0.0
 40
0.0
 40
0.2500651368
 40
1.0
 40
1.0
 40
1.0
 40
1.0
 10
-58.4603773018
 20
-9.4905
 30
0.0
 10
-58.4418906279
 20
-10.4632811756
 30
0.0
 10
-58.3045915342
 20
-14.351932594
 30
0.0
 10
-57.9132348446
 20
-18.2315912477
 30
0.0
 10
-57.4787551469
 20
-21.1169188236
 30
0.0
  0
SPLINE
  5
628
100
AcDbEntity
  8
RACCORDO
100
AcDbSpline
 62
250
  6
CONTINUOUS
 70
0
 71
3
 72
21
 73
17
 74
0
 42
0.0000001
 43
0.0000001
 44
0.0000000001
 40
0.0
 40
0.0
 40
0.0
 40
0.0
 40
0.196289426
 40
0.3846525716
 40
0.5574926279
 40
0.7086065215
 40
0.7742700136
 40
0.8324609149
 40
0.8826253389
 40
0.9243430117
 40
0.957203028
 40
0.9808703523
 40
0.989203577
 40
0.9951796436
 40
0.9987817416
 40
1.0
 40
1.0
 40
1.0
 40
1.0
 10
-57.4787551469
 20
-21.1169188236
 30
0.0
 10
-57.5102675104
 20
-21.1216673025
 30
0.0
 10
-57.5720162645
 20
-21.1309955545
 30
0.0
 10
-57.6615009084
 20
-21.1445842328
 30
0.0
 10
-57.7437229714
 20
-21.1571443643
 30
0.0
 10
-57.8062434672
 20
-21.1667627662
 30
0.0
 10
-57.8503571774
 20
-21.1736029601
 30
0.0
 10
-57.8782745726
 20
-21.1779565281
 30
0.0
 10
-57.9023356478
 20
-21.1817457422
 30
0.0
 10
-57.9223590242
 20
-21.1849137526
 30
0.0
 10
-57.9380471774
 20
-21.1874870551
 30
0.0
 10
-57.9485576851
 20
-21.1891456736
 30
0.0
 10
-57.954468465
 20
-21.1902803446
 30
0.0
 10
-57.9576021589
 20
-21.190662091
 30
0.0
 10
-57.9588378522
 20
-21.1912457407
 30
0.0
 10
-57.9601052594
 20
-21.1911727851
 30
0.0
 10
-57.9600757462
 20
-21.1913683583
 30
0.0
  0
SPLINE
  5
629
100
AcDbEntity
  8
RACCORDO
100
AcDbSpline
 62
250
  6
CONTINUOUS
 70
0
 71
3
 72
18
 73
14
 74
0
 42
0.0000001
 43
0.0000001
 44
0.0000000001
 40
0.0
 40
0.0
 40
0.0
 40
0.0
 40
0.1947443472
 40
0.3823369142
 40
0.5549819234
 40
0.7062903032
 40
0.8305550382
 40
0.8809583805
 40
0.9229206378
 40
0.9560237467
 40
0.9799374862
 40
0.9945392302
 40
1.0
 40
1.0
 40
1.0
 40
1.0
 10
-57.0104973058
 20
21.5417815306
 30
0.0
 10
-57.0121947297
 20
21.574192498
 30
0.0
 10
-57.0153656034
 20
21.6378331162
 30
0.0
 10
-57.0194869556
 20
21.7302314647
 30
0.0
 10
-57.022786754
 20
21.8154253746
 30
0.0
 10
-57.0251332231
 20
21.8900731386
 30
0.0
 10
-57.0263385299
 20
21.9444225939
 30
0.0
 10
-57.0266707933
 20
21.9804687849
 30
0.0
 10
-57.0266649066
 20
22.001499985
 30
0.0
 10
-57.0263017245
 20
22.0176767907
 30
0.0
 10
-57.0259248759
 20
22.0303326211
 30
0.0
 10
-57.0249248423
 20
22.0363137145
 30
0.0
 10
-57.0244856306
 20
22.0410486686
 30
0.0
 10
-57.0235768058
 20
22.0410962981
 30
0.0
  0
SPLINE
  5
62A
100
AcDbEntity
  8
RACCORDO
100
AcDbSpline
 62
250
  6
CONTINUOUS
 70
0
 71
3
 72
18
 73
14
 74
0
 42
0.0000001
 43
0.0000001
 44
0.0000000001
 40
0.0
 40
0.0
 40
0.0
 40
0.0
 40
0.1947443618
 40
0.3823369583
 40
0.5549819734
 40
0.7062903445
 40
0.83055507
 40
0.8809584054
 40
0.9229206542
 40
0.9560237583
 40
0.9799374937
 40
0.9945392332
 40
1.0
 40
1.0
 40
1.0
 40
1.0
 10
-57.0104973058
 20
-21.5417815306
 30
0.0
 10
-57.0121947289
 20
-21.5741925004
 30
0.0
 10
-57.015365601
 20
-21.6378331259
 30
0.0
 10
-57.0194869521
 20
-21.7302314825
 30
0.0
 10
-57.0227867497
 20
-21.8154253968
 30
0.0
 10
-57.0251332187
 20
-21.8900731585
 30
0.0
 10
-57.0263385261
 20
-21.9444226094
 30
0.0
 10
-57.0266707907
 20
-21.9804687962
 30
0.0
 10
-57.0266649049
 20
-22.0014999929
 30
0.0
 10
-57.0263017237
 20
-22.0176767955
 30
0.0
 10
-57.025924877
 20
-22.0303326241
 30
0.0
 10
-57.0249248438
 20
-22.0363137153
 30
0.0
 10
-57.0244856341
 20
-22.0410486685
 30
0.0
 10
-57.0235768098
 20
-22.0410962979
 30
0.0
  0
SPLINE
  5
62B
100
AcDbEntity
  8
RACCORDO
100
AcDbSpline
 62
250
  6
CONTINUOUS
 70
0
 71
3
 72
21
 73
17
 74
0
 42
0.0000001
 43
0.0000001
 44
0.0000000001
 40
0.0
 40
0.0
 40
0.0
 40
0.0
 40
0.1962869134
 40
0.3846485263
 40
0.5574880979
 40
0.7086024413
 40
0.7742664195
 40
0.8324579196
 40
0.8826229992
 40
0.924341329
 40
0.9572019497
 40
0.9808697757
 40
0.989203203
 40
0.9951794356
 40
0.9987816597
 40
1.0
 40
1.0
 40
1.0
 40
1.0
 10
-57.4787551469
 20
21.1169188236
 30
0.0
 10
-57.5102682006
 20
21.1216674037
 30
0.0
 10
-57.5720184483
 20
21.1309958758
 30
0.0
 10
-57.6615054707
 20
21.1445849065
 30
0.0
 10
-57.743730136
 20
21.1571454262
 30
0.0
 10
-57.8062528743
 20
21.1667641646
 30
0.0
 10
-57.8503683625
 20
21.1736046268
 30
0.0
 10
-57.8782870054
 20
21.1779583839
 30
0.0
 10
-57.902349225
 20
21.1817477729
 30
0.0
 10
-57.9223735981
 20
21.1849159349
 30
0.0
 10
-57.9380625953
 20
21.1874893709
 30
0.0
 10
-57.9485736445
 20
21.1891480672
 30
0.0
 10
-57.9544848144
 20
21.1902828095
 30
0.0
 10
-57.957618624
 20
21.1906645581
 30
0.0
 10
-57.9588545445
 20
21.1912482779
 30
0.0
 10
-57.9601219093
 20
21.191175276
 30
0.0
 10
-57.9600924548
 20
21.1913708785
 30
0.0
  0
SPLINE
  5
62C
100
AcDbEntity
  8
0
100
AcDbSpline
 62
250
  6
CONTINUOUS
 70
0
 71
3
 72
18
 73
14
 74
0
 42
0.0000001
 43
0.0000001
 44
0.0000000001
 40
0.0
 40
0.0
 40
0.0
 40
0.0
 40
0.1950844131
 40
0.3826598112
 40
0.5555365904
 40
0.7070636863
 40
0.8314211769
 40
0.8818706905
 40
0.9238293166
 40
0.9568925016
 40
0.9807411619
 40
0.9951506923
 40
1.0
 40
1.0
 40
1.0
 40
1.0
 10
-52.7889111489
 20
-24.2369056521
 30
0.0
 10
-52.7890057279
 20
-24.2531629515
 30
0.0
 10
-52.7891735222
 20
-24.2850521408
 30
0.0
 10
-52.789361964
 20
-24.3313469809
 30
0.0
 10
-52.7894834249
 20
-24.3740165351
 30
0.0
 10
-52.7895194985
 20
-24.4114043618
 30
0.0
 10
-52.7895138726
 20
-24.4386247381
 30
0.0
 10
-52.7894156571
 20
-24.4566493601
 30
0.0
 10
-52.7894188717
 20
-24.4671914759
 30
0.0
 10
-52.789159751
 20
-24.4752045298
 30
0.0
 10
-52.7894744593
 20
-24.4816657004
 30
0.0
 10
-52.7886521928
 20
-24.4843395497
 30
0.0
 10
-52.7893152644
 20
-24.4868990702
 30
0.0
 10
-52.7889111489
 20
-24.4869014213
 30
0.0
  0
LINE
  5
62D
100
AcDbEntity
  8
DRAFT
100
AcDbLine
 62
7
  6
CONTINUOUS
 10
-50.487456716
 20
-17.6160978686
 30
0.0
 11
-50.537456716
 21
-21.900016923
 31
0.0
  0
LINE
  5
62E
100
AcDbEntity
  8
DRAFT
100
AcDbLine
 62
7
  6
CONTINUOUS
 10
-50.537456716
 20
21.900016923
 30
0.0
 11
-50.487456716
 21
17.6160978686
 31
0.0
  0
SPLINE
  5
62F
100
AcDbEntity
  8
0
100
AcDbSpline
 62
7
  6
CONTINUOUS
 70
0
 71
3
 72
9
 73
5
 74
0
 42
0.0000001
 43
0.0000001
 44
0.0000000001
 40
0.0
 40
0.0
 40
0.0
 40
0.0
 40
0.3612231948
 40
1.0
 40
1.0
 40
1.0
 40
1.0
 10
-51.7889111489
 20
-23.2669872981
 30
0.0
 10
-51.8188816794
 20
-23.249683365
 30
0.0
 10
-51.9018407438
 20
-23.2017613289
 30
0.0
 10
-51.9846710723
 20
-23.1536172586
 30
0.0
 10
-52.037456716
 20
-23.1226497308
 30
0.0
  0
SPLINE
  5
630
100
AcDbEntity
  8
0
100
AcDbSpline
 62
250
  6
CONTINUOUS
 70
0
 71
3
 72
18
 73
14
 74
0
 42
0.0000001
 43
0.0000001
 44
0.0000000001
 40
0.0
 40
0.0
 40
0.0
 40
0.0
 40
0.1952405613
 40
0.3828830438
 40
0.5557614221
 40
0.7072487303
 40
0.8315476478
 40
0.8819670588
 40
0.9238978066
 40
0.9569369937
 40
0.9807666948
 40
0.9951626579
 40
1.0
 40
1.0
 40
1.0
 40
1.0
 10
-52.7889111489
 20
-23.8443375673
 30
0.0
 10
-52.7970227122
 20
-23.8302874519
 30
0.0
 10
-52.812917083
 20
-23.8027261621
 30
0.0
 10
-52.8359459213
 20
-23.7626978269
 30
0.0
 10
-52.8571253409
 20
-23.7257948616
 30
0.0
 10
-52.8756236977
 20
-23.6934377042
 30
0.0
 10
-52.8890690654
 20
-23.6698724969
 30
0.0
 10
-52.8978932982
 20
-23.6542264754
 30
0.0
 10
-52.9031123959
 20
-23.6451093579
 30
0.0
 10
-52.9068479441
 20
-23.6380496396
 30
0.0
 10
-52.9103367813
 20
-23.6326254384
 30
0.0
 10
-52.9109301245
 20
-23.629902666
 30
0.0
 10
-52.9128048232
 20
-23.6280321961
 30
0.0
 10
-52.912456716
 20
-23.6278312164
 30
0.0
  0
SPLINE
  5
631
100
AcDbEntity
  8
0
100
AcDbSpline
 62
250
  6
CONTINUOUS
 70
0
 71
3
 72
18
 73
14
 74
0
 42
0.0000001
 43
0.0000001
 44
0.0000000001
 40
0.0
 40
0.0
 40
0.0
 40
0.0
 40
0.1952405676
 40
0.3828830559
 40
0.5557614396
 40
0.7072487501
 40
0.8315476671
 40
0.8819670769
 40
0.9238978235
 40
0.9569370065
 40
0.9807667037
 40
0.9951626634
 40
1.0
 40
1.0
 40
1.0
 40
1.0
 10
-49.7860022832
 20
-23.8443375673
 30
0.0
 10
-49.7778907195
 20
-23.8302874514
 30
0.0
 10
-49.7619963483
 20
-23.8027261608
 30
0.0
 10
-49.7389675093
 20
-23.7626978243
 30
0.0
 10
-49.7177880891
 20
-23.725794858
 30
0.0
 10
-49.699289732
 20
-23.6934377001
 30
0.0
 10
-49.6858443643
 20
-23.6698724928
 30
0.0
 10
-49.6770201316
 20
-23.6542264715
 30
0.0
 10
-49.6718010342
 20
-23.6451093544
 30
0.0
 10
-49.6680654864
 20
-23.6380496369
 30
0.0
 10
-49.6645766498
 20
-23.6326254364
 30
0.0
 10
-49.6639833067
 20
-23.629902665
 30
0.0
 10
-49.6621086092
 20
-23.6280321959
 30
0.0
 10
-49.662456716
 20
-23.6278312164
 30
0.0
  0
SPLINE
  5
632
100
AcDbEntity
  8
0
100
AcDbSpline
 62
250
  6
CONTINUOUS
 70
0
 71
3
 72
18
 73
14
 74
0
 42
0.0000001
 43
0.0000001
 44
0.0000000001
 40
0.0
 40
0.0
 40
0.0
 40
0.0
 40
0.1952405613
 40
0.3828830438
 40
0.5557614221
 40
0.7072487303
 40
0.8315476478
 40
0.8819670588
 40
0.9238978066
 40
0.9569369937
 40
0.9807666948
 40
0.9951626579
 40
1.0
 40
1.0
 40
1.0
 40
1.0
 10
-49.7860022832
 20
23.8443375673
 30
0.0
 10
-49.7778907198
 20
23.8302874519
 30
0.0
 10
-49.7619963491
 20
23.8027261621
 30
0.0
 10
-49.7389675108
 20
23.7626978269
 30
0.0
 10
-49.7177880911
 20
23.7257948616
 30
0.0
 10
-49.6992897343
 20
23.6934377042
 30
0.0
 10
-49.6858443666
 20
23.6698724969
 30
0.0
 10
-49.6770201338
 20
23.6542264754
 30
0.0
 10
-49.6718010362
 20
23.6451093579
 30
0.0
 10
-49.668065488
 20
23.6380496396
 30
0.0
 10
-49.6645766508
 20
23.6326254384
 30
0.0
 10
-49.6639833076
 20
23.629902666
 30
0.0
 10
-49.6621086088
 20
23.6280321961
 30
0.0
 10
-49.662456716
 20
23.6278312164
 30
0.0
  0
SPLINE
  5
633
100
AcDbEntity
  8
0
100
AcDbSpline
 62
250
  6
CONTINUOUS
 70
0
 71
3
 72
18
 73
14
 74
0
 42
0.0000001
 43
0.0000001
 44
0.0000000001
 40
0.0
 40
0.0
 40
0.0
 40
0.0
 40
0.1952403881
 40
0.3828829087
 40
0.5557613135
 40
0.7072486565
 40
0.831547606
 40
0.881967029
 40
0.923897787
 40
0.9569369835
 40
0.9807666902
 40
0.9951626563
 40
1.0
 40
1.0
 40
1.0
 40
1.0
 10
-52.7889111489
 20
23.8443375673
 30
0.0
 10
-52.797022705
 20
23.8302874643
 30
0.0
 10
-52.8129170702
 20
23.8027261843
 30
0.0
 10
-52.835945904
 20
23.762697857
 30
0.0
 10
-52.8571253278
 20
23.7257948845
 30
0.0
 10
-52.8756236885
 20
23.6934377204
 30
0.0
 10
-52.8890690595
 20
23.6698725074
 30
0.0
 10
-52.8978932945
 20
23.654226482
 30
0.0
 10
-52.9031123935
 20
23.6451093622
 30
0.0
 10
-52.9068479426
 20
23.6380496422
 30
0.0
 10
-52.9103367807
 20
23.6326254396
 30
0.0
 10
-52.9109301241
 20
23.6299026665
 30
0.0
 10
-52.9128048233
 20
23.6280321962
 30
0.0
 10
-52.912456716
 20
23.6278312164
 30
0.0
  0
SPLINE
  5
634
100
AcDbEntity
  8
0
100
AcDbSpline
 62
7
  6
CONTINUOUS
 70
0
 71
3
 72
9
 73
5
 74
0
 42
0.0000001
 43
0.0000001
 44
0.0000000001
 40
0.0
 40
0.0
 40
0.0
 40
0.0
 40
0.3612231948
 40
1.0
 40
1.0
 40
1.0
 40
1.0
 10
-51.7889111489
 20
23.2669872981
 30
0.0
 10
-51.8188816794
 20
23.249683365
 30
0.0
 10
-51.9018407438
 20
23.2017613289
 30
0.0
 10
-51.9846710723
 20
23.1536172586
 30
0.0
 10
-52.037456716
 20
23.1226497308
 30
0.0
  0
SPLINE
  5
635
100
AcDbEntity
  8
0
100
AcDbSpline
 62
250
  6
CONTINUOUS
 70
0
 71
3
 72
18
 73
14
 74
0
 42
0.0000001
 43
0.0000001
 44
0.0000000001
 40
0.0
 40
0.0
 40
0.0
 40
0.0
 40
0.0048493077
 40
0.0192588381
 40
0.0431074984
 40
0.0761706834
 40
0.1181293095
 40
0.1685788231
 40
0.2929363137
 40
0.4444634096
 40
0.6173401888
 40
0.8049155869
 40
1.0
 40
1.0
 40
1.0
 40
1.0
 10
-49.7860022832
 20
24.495628166
 30
0.0
 10
-49.7855981676
 20
24.4956258149
 30
0.0
 10
-49.7862612393
 20
24.4930662944
 30
0.0
 10
-49.7854389727
 20
24.4903924451
 30
0.0
 10
-49.785753681
 20
24.4839312745
 30
0.0
 10
-49.7854945603
 20
24.4759182206
 30
0.0
 10
-49.7854977749
 20
24.4653761048
 30
0.0
 10
-49.7853995595
 20
24.4473514829
 30
0.0
 10
-49.7853939336
 20
24.4201311065
 30
0.0
 10
-49.7854300072
 20
24.3827432798
 30
0.0
 10
-49.785551468
 20
24.3400737257
 30
0.0
 10
-49.7857399098
 20
24.2937788855
 30
0.0
 10
-49.7859077042
 20
24.2618896962
 30
0.0
 10
-49.7860022832
 20
24.2456323968
 30
0.0
  0
SPLINE
  5
636
100
AcDbEntity
  8
0
100
AcDbSpline
 62
250
  6
CONTINUOUS
 70
0
 71
3
 72
18
 73
14
 74
0
 42
0.0000001
 43
0.0000001
 44
0.0000000001
 40
0.0
 40
0.0
 40
0.0
 40
0.0
 40
0.0048493077
 40
0.0192588381
 40
0.0431074984
 40
0.0761706834
 40
0.1181293095
 40
0.1685788231
 40
0.2929363137
 40
0.4444634096
 40
0.6173401888
 40
0.8049155869
 40
1.0
 40
1.0
 40
1.0
 40
1.0
 10
-52.7889111489
 20
24.4869014213
 30
0.0
 10
-52.7893152644
 20
24.4868990702
 30
0.0
 10
-52.7886521928
 20
24.4843395497
 30
0.0
 10
-52.7894744593
 20
24.4816657004
 30
0.0
 10
-52.789159751
 20
24.4752045298
 30
0.0
 10
-52.7894188717
 20
24.4671914759
 30
0.0
 10
-52.7894156571
 20
24.4566493601
 30
0.0
 10
-52.7895138726
 20
24.4386247381
 30
0.0
 10
-52.7895194985
 20
24.4114043618
 30
0.0
 10
-52.7894834249
 20
24.3740165351
 30
0.0
 10
-52.789361964
 20
24.3313469809
 30
0.0
 10
-52.7891735222
 20
24.2850521408
 30
0.0
 10
-52.7890057279
 20
24.2531629515
 30
0.0
 10
-52.7889111489
 20
24.2369056521
 30
0.0
  0
SPLINE
  5
637
100
AcDbEntity
  8
0
100
AcDbSpline
 62
250
  6
CONTINUOUS
 70
0
 71
3
 72
18
 73
14
 74
0
 42
0.0000001
 43
0.0000001
 44
0.0000000001
 40
0.0
 40
0.0
 40
0.0
 40
0.0
 40
0.1950844131
 40
0.3826598112
 40
0.5555365904
 40
0.7070636863
 40
0.8314211769
 40
0.8818706905
 40
0.9238293166
 40
0.9568925016
 40
0.9807411619
 40
0.9951506923
 40
1.0
 40
1.0
 40
1.0
 40
1.0
 10
-49.7860022832
 20
-24.2456323968
 30
0.0
 10
-49.7859077042
 20
-24.2618896962
 30
0.0
 10
-49.7857399098
 20
-24.2937788855
 30
0.0
 10
-49.785551468
 20
-24.3400737257
 30
0.0
 10
-49.7854300072
 20
-24.3827432798
 30
0.0
 10
-49.7853939336
 20
-24.4201311065
 30
0.0
 10
-49.7853995595
 20
-24.4473514829
 30
0.0
 10
-49.7854977749
 20
-24.4653761048
 30
0.0
 10
-49.7854945603
 20
-24.4759182206
 30
0.0
 10
-49.785753681
 20
-24.4839312745
 30
0.0
 10
-49.7854389727
 20
-24.4903924451
 30
0.0
 10
-49.7862612393
 20
-24.4930662944
 30
0.0
 10
-49.7855981676
 20
-24.4956258149
 30
0.0
 10
-49.7860022832
 20
-24.495628166
 30
0.0
  0
SPLINE
  5
638
100
AcDbEntity
  8
RACCORDO
100
AcDbSpline
 62
250
  6
CONTINUOUS
 70
0
 71
3
 72
27
 73
23
 74
0
 42
0.0000001
 43
0.0000001
 44
0.0000000001
 40
0.0
 40
0.0
 40
0.0
 40
0.0
 40
0.0005231838
 40
0.0015220598
 40
0.0052294431
 40
0.0112926436
 40
0.0197194817
 40
0.0304971823
 40
0.0436037128
 40
0.0590090521
 40
0.0766775984
 40
0.0965674611
 40
0.1186311922
 40
0.1690645469
 40
0.2274944117
 40
0.2933596116
 40
0.3660270237
 40
0.4447978332
 40
0.5289143362
 40
0.617567231
 40
0.8050344711
 40
1.0
 40
1.0
 40
1.0
 40
1.0
 10
-23.0200043096
 20
-8.8425997828
 30
0.0
 10
-23.0198298686
 20
-8.8425967379
 30
0.0
 10
-23.0194270955
 20
-8.8421565124
 30
0.0
 10
-23.018873973
 20
-8.840559998
 30
0.0
 10
-23.0181923255
 20
-8.8369648
 30
0.0
 10
-23.017520221
 20
-8.8309671336
 30
0.0
 10
-23.0168467071
 20
-8.8225518696
 30
0.0
 10
-23.0162218541
 20
-8.8118004791
 30
0.0
 10
-23.0156377742
 20
-8.7987091437
 30
0.0
 10
-23.0151037735
 20
-8.7833190183
 30
0.0
 10
-23.0146206389
 20
-8.7656633062
 30
0.0
 10
-23.0141908276
 20
-8.7457855772
 30
0.0
 10
-23.0136673716
 20
-8.7149813752
 30
0.0
 10
-23.0131816814
 20
-8.6713231662
 30
0.0
 10
-23.0128452823
 20
-8.6130567756
 30
0.0
 10
-23.0127402355
 20
-8.5473750728
 30
0.0
 10
-23.0128684855
 20
-8.4749102957
 30
0.0
 10
-23.0132300736
 20
-8.3963599447
 30
0.0
 10
-23.0138220149
 20
-8.3124801414
 30
0.0
 10
-23.0149328218
 20
-8.1923560786
 30
0.0
 10
-23.0168601004
 20
-8.0352732574
 30
0.0
 10
-23.0188699747
 20
-7.9077578916
 30
0.0
 10
-23.0200043096
 20
-7.8427520876
 30
0.0
  0
SPLINE
  5
639
100
AcDbEntity
  8
DRAFT
100
AcDbSpline
 62
7
  6
CONTINUOUS
 70
0
 71
3
 72
23
 73
19
 74
0
 42
0.0000001
 43
0.0000001
 44
0.0000000001
 40
0.0
 40
0.0
 40
0.0
 40
0.0
 40
0.0982059677
 40
0.1508161164
 40
0.2057266928
 40
0.3219730677
 40
0.4458767687
 40
0.5103373549
 40
0.5762759545
 40
0.6435834156
 40
0.7121860171
 40
0.782063168
 40
0.8175256629
 40
0.8533461092
 40
0.8895381832
 40
0.9260920954
 40
0.9629504967
 40
1.0
 40
1.0
 40
1.0
 40
1.0
 10
-22.037456716
 20
14.4989125538
 30
0.0
 10
-22.037456716
 20
14.442891797
 30
0.0
 10
-22.0481411991
 20
14.3567486592
 30
0.0
 10
-22.0767466054
 20
14.2429146993
 30
0.0
 10
-22.1166916929
 20
14.1215587636
 30
0.0
 10
-22.1842261808
 20
13.9669890502
 30
0.0
 10
-22.2694861866
 20
13.815255669
 30
0.0
 10
-22.3496566861
 20
13.6942914884
 30
0.0
 10
-22.417002879
 20
13.6037484635
 30
0.0
 10
-22.4914446058
 20
13.5157806365
 30
0.0
 10
-22.5741781939
 20
13.432308608
 30
0.0
 10
-22.6513745776
 20
13.3694604378
 30
0.0
 10
-22.7194079029
 20
13.3262047384
 30
0.0
 10
-22.774199652
 20
13.298434881
 30
0.0
 10
-22.8325398262
 20
13.2771376811
 30
0.0
 10
-22.8939586275
 20
13.2641887572
 30
0.0
 10
-22.9571719848
 20
13.2611585043
 30
0.0
 10
-22.9992566096
 20
13.2660577883
 30
0.0
 10
-23.0200043096
 20
13.2700830992
 30
0.0
  0
SPLINE
  5
63A
100
AcDbEntity
  8
DRAFT
100
AcDbSpline
 62
7
  6
CONTINUOUS
 70
0
 71
3
 72
23
 73
19
 74
0
 42
0.0000001
 43
0.0000001
 44
0.0000000001
 40
0.0
 40
0.0
 40
0.0
 40
0.0
 40
0.0370494877
 40
0.0739078724
 40
0.1104617883
 40
0.1466538854
 40
0.1824743589
 40
0.2179368697
 40
0.2878140323
 40
0.356416647
 40
0.4237241127
 40
0.4896627179
 40
0.5541233056
 40
0.6780269926
 40
0.7942733456
 40
0.8491839118
 40
0.9017940511
 40
1.0
 40
1.0
 40
1.0
 40
1.0
 10
-23.0200043096
 20
10.9299169008
 30
0.0
 10
-22.9992566183
 20
10.93394221
 30
0.0
 10
-22.9571720124
 20
10.9388414976
 30
0.0
 10
-22.8939586719
 20
10.9358112433
 30
0.0
 10
-22.8325398622
 20
10.9228623321
 30
0.0
 10
-22.7741996579
 20
10.9015651235
 30
0.0
 10
-22.719407875
 20
10.8737952482
 30
0.0
 10
-22.6513745314
 20
10.8305395202
 30
0.0
 10
-22.5741781192
 20
10.7676913476
 30
0.0
 10
-22.49144455
 20
10.6842192759
 30
0.0
 10
-22.417002805
 20
10.5962514483
 30
0.0
 10
-22.3496566156
 20
10.5057084116
 30
0.0
 10
-22.269486136
 20
10.3847442228
 30
0.0
 10
-22.1842261418
 20
10.2330108585
 30
0.0
 10
-22.1166916653
 20
10.0784411687
 30
0.0
 10
-22.0767465908
 20
9.9570852538
 30
0.0
 10
-22.0481411952
 20
9.8432513138
 30
0.0
 10
-22.037456716
 20
9.7571081922
 30
0.0
 10
-22.037456716
 20
9.7010874462
 30
0.0
  0
SPLINE
  5
63B
100
AcDbEntity
  8
DRAFT
100
AcDbSpline
 62
7
  6
CONTINUOUS
 70
0
 71
3
 72
23
 73
19
 74
0
 42
0.0000001
 43
0.0000001
 44
0.0000000001
 40
0.0
 40
0.0
 40
0.0
 40
0.0
 40
0.0982059677
 40
0.1508161164
 40
0.2057266928
 40
0.3219730677
 40
0.4458767687
 40
0.5103373549
 40
0.5762759545
 40
0.6435834156
 40
0.7121860171
 40
0.782063168
 40
0.8175256629
 40
0.8533461092
 40
0.8895381832
 40
0.9260920954
 40
0.9629504967
 40
1.0
 40
1.0
 40
1.0
 40
1.0
 10
-22.037456716
 20
0.6989125538
 30
0.0
 10
-22.037456716
 20
0.642891797
 30
0.0
 10
-22.0481411991
 20
0.5567486592
 30
0.0
 10
-22.0767466054
 20
0.4429146993
 30
0.0
 10
-22.1166916929
 20
0.3215587636
 30
0.0
 10
-22.1842261808
 20
0.1669890502
 30
0.0
 10
-22.2694861866
 20
0.015255669
 30
0.0
 10
-22.3496566861
 20
-0.1057085116
 30
0.0
 10
-22.417002879
 20
-0.1962515365
 30
0.0
 10
-22.4914446058
 20
-0.2842193635
 30
0.0
 10
-22.5741781939
 20
-0.367691392
 30
0.0
 10
-22.6513745776
 20
-0.4305395622
 30
0.0
 10
-22.7194079029
 20
-0.4737952616
 30
0.0
 10
-22.774199652
 20
-0.501565119
 30
0.0
 10
-22.8325398262
 20
-0.5228623189
 30
0.0
 10
-22.8939586275
 20
-0.5358112428
 30
0.0
 10
-22.9571719848
 20
-0.5388414957
 30
0.0
 10
-22.9992566096
 20
-0.5339422117
 30
0.0
 10
-23.0200043096
 20
-0.5299169008
 30
0.0
  0
SPLINE
  5
63C
100
AcDbEntity
  8
DRAFT
100
AcDbSpline
 62
7
  6
CONTINUOUS
 70
0
 71
3
 72
23
 73
19
 74
0
 42
0.0000001
 43
0.0000001
 44
0.0000000001
 40
0.0
 40
0.0
 40
0.0
 40
0.0
 40
0.0370494877
 40
0.0739078724
 40
0.1104617883
 40
0.1466538854
 40
0.1824743589
 40
0.2179368697
 40
0.2878140323
 40
0.356416647
 40
0.4237241127
 40
0.4896627179
 40
0.5541233056
 40
0.6780269926
 40
0.7942733456
 40
0.8491839118
 40
0.9017940511
 40
1.0
 40
1.0
 40
1.0
 40
1.0
 10
-23.0200043096
 20
-2.8700830992
 30
0.0
 10
-22.9992566183
 20
-2.86605779
 30
0.0
 10
-22.9571720124
 20
-2.8611585024
 30
0.0
 10
-22.8939586719
 20
-2.8641887567
 30
0.0
 10
-22.8325398622
 20
-2.8771376679
 30
0.0
 10
-22.7741996579
 20
-2.8984348765
 30
0.0
 10
-22.719407875
 20
-2.9262047518
 30
0.0
 10
-22.6513745314
 20
-2.9694604798
 30
0.0
 10
-22.5741781192
 20
-3.0323086524
 30
0.0
 10
-22.49144455
 20
-3.1157807241
 30
0.0
 10
-22.417002805
 20
-3.2037485517
 30
0.0
 10
-22.3496566156
 20
-3.2942915884
 30
0.0
 10
-22.269486136
 20
-3.4152557772
 30
0.0
 10
-22.1842261418
 20
-3.5669891415
 30
0.0
 10
-22.1166916653
 20
-3.7215588313
 30
0.0
 10
-22.0767465908
 20
-3.8429147462
 30
0.0
 10
-22.0481411952
 20
-3.9567486862
 30
0.0
 10
-22.037456716
 20
-4.0428918078
 30
0.0
 10
-22.037456716
 20
-4.0989125538
 30
0.0
  0
SPLINE
  5
63D
100
AcDbEntity
  8
RACCORDO
100
AcDbSpline
 62
250
  6
CONTINUOUS
 70
0
 71
3
 72
9
 73
5
 74
0
 42
0.0000001
 43
0.0000001
 44
0.0000000001
 40
0.0
 40
0.0
 40
0.0
 40
0.0
 40
0.5411891382
 40
1.0
 40
1.0
 40
1.0
 40
1.0
 10
-23.0200043096
 20
17.49081975
 30
0.0
 10
-23.0190822916
 20
17.7458987649
 30
0.0
 10
-23.0181525285
 20
18.2172321928
 30
0.0
 10
-23.0188989305
 20
18.6885677228
 30
0.0
 10
-23.0200043096
 20
18.9048179208
 30
0.0
  0
SPLINE
  5
63E
100
AcDbEntity
  8
RACCORDO
100
AcDbSpline
 62
250
  6
CONTINUOUS
 70
0
 71
3
 72
14
 73
10
 74
0
 42
0.0000001
 43
0.0000001
 44
0.0000000001
 40
0.0
 40
0.0
 40
0.0
 40
0.0
 40
0.2828355135
 40
0.4189021051
 40
0.548914154
 40
0.6718212185
 40
0.7873475767
 40
0.8961698124
 40
1.0
 40
1.0
 40
1.0
 40
1.0
 10
-23.0200043096
 20
18.9048179208
 30
0.0
 10
-22.9036425605
 20
18.9033817149
 30
0.0
 10
-22.7303396604
 20
18.8800273653
 30
0.0
 10
-22.5165113103
 20
18.8056961714
 30
0.0
 10
-22.3738639917
 20
18.7317176052
 30
0.0
 10
-22.2515261446
 20
18.6409944111
 30
0.0
 10
-22.15327819
 20
18.5360288114
 30
0.0
 10
-22.0824469124
 20
18.4198890139
 30
0.0
 10
-22.0548574302
 20
18.3358091048
 30
0.0
 10
-22.0467255032
 20
18.2938700411
 30
0.0
  0
SPLINE
  5
63F
100
AcDbEntity
  8
RACCORDO
100
AcDbSpline
 62
250
  6
CONTINUOUS
 70
0
 71
3
 72
16
 73
12
 74
0
 42
0.0000001
 43
0.0000001
 44
0.0000000001
 40
0.0
 40
0.0
 40
0.0
 40
0.0
 40
0.2867719762
 40
0.4237318334
 40
0.5535383892
 40
0.6752043295
 40
0.7888766867
 40
0.8432317937
 40
0.8962667464
 40
0.9483727644
 40
1.0
 40
1.0
 40
1.0
 40
1.0
 10
-23.0200043096
 20
19.0559999523
 30
0.0
 10
-22.8928072556
 20
19.0544300106
 30
0.0
 10
-22.7035219459
 20
19.0268142641
 30
0.0
 10
-22.4736868176
 20
18.9383559956
 30
0.0
 10
-22.3241880253
 20
18.8509022137
 30
0.0
 10
-22.2008251055
 20
18.7444352901
 30
0.0
 10
-22.122499965
 20
18.6410255466
 30
0.0
 10
-22.0784088298
 20
18.5531860418
 30
0.0
 10
-22.0548642798
 20
18.4862498623
 30
0.0
 10
-22.0406356604
 20
18.4179776028
 30
0.0
 10
-22.037456716
 20
18.3719017533
 30
0.0
 10
-22.037456716
 20
18.3490008669
 30
0.0
  0
SPLINE
  5
640
100
AcDbEntity
  8
RACCORDO
100
AcDbSpline
 62
250
  6
CONTINUOUS
 70
0
 71
3
 72
24
 73
20
 74
0
 42
0.0000001
 43
0.0000001
 44
0.0000000001
 40
0.0
 40
0.0
 40
0.0
 40
0.0
 40
0.2249201991
 40
0.4244307086
 40
0.5966193819
 40
0.671938144
 40
0.7398252183
 40
0.8001191896
 40
0.8526733685
 40
0.8973634133
 40
0.934081902
 40
0.9494245088
 40
0.9627429566
 40
0.9740308157
 40
0.9832826056
 40
0.9904939159
 40
0.9956650131
 40
0.9988068456
 40
1.0
 40
1.0
 40
1.0
 40
1.0
 10
-23.0200043096
 20
19.0559999523
 30
0.0
 10
-23.0197797975
 20
19.0779611667
 30
0.0
 10
-23.0193835656
 20
19.1194028849
 30
0.0
 10
-23.0189274132
 20
19.1776581052
 30
0.0
 10
-23.0186824337
 20
19.2213066052
 30
0.0
 10
-23.0185844869
 20
19.252103199
 30
0.0
 10
-23.0185594502
 20
19.2719739707
 30
0.0
 10
-23.0185791788
 20
19.2896218716
 30
0.0
 10
-23.0186432425
 20
19.3050046771
 30
0.0
 10
-23.018751267
 20
19.3180848803
 30
0.0
 10
-23.0188827475
 20
19.3275318159
 30
0.0
 10
-23.019016824
 20
19.3339136556
 30
0.0
 10
-23.0191217165
 20
19.3378149002
 30
0.0
 10
-23.0192375456
 20
19.3411136969
 30
0.0
 10
-23.0193610669
 20
19.3438353832
 30
0.0
 10
-23.0194982998
 20
19.3459058651
 30
0.0
 10
-23.0196290523
 20
19.3475019679
 30
0.0
 10
-23.0197818796
 20
19.3482655099
 30
0.0
 10
-23.0198878216
 20
19.3488465288
 30
0.0
 10
-23.0200043096
 20
19.3488485621
 30
0.0
  0
SPLINE
  5
641
100
AcDbEntity
  8
RACCORDO
100
AcDbSpline
 62
250
  6
CONTINUOUS
 70
0
 71
3
 72
27
 73
23
 74
0
 42
0.0000001
 43
0.0000001
 44
0.0000000001
 40
0.0
 40
0.0
 40
0.0
 40
0.0
 40
0.0005231838
 40
0.0015220598
 40
0.0052294431
 40
0.0112926436
 40
0.0197194817
 40
0.0304971823
 40
0.0436037128
 40
0.0590090521
 40
0.0766775984
 40
0.0965674611
 40
0.1186311922
 40
0.1690645469
 40
0.2274944117
 40
0.2933596116
 40
0.3660270237
 40
0.4447978332
 40
0.5289143362
 40
0.617567231
 40
0.8050344711
 40
1.0
 40
1.0
 40
1.0
 40
1.0
 10
-31.5461829192
 20
-19.4976735633
 30
0.0
 10
-31.5460084782
 20
-19.4976705184
 30
0.0
 10
-31.5456057051
 20
-19.4972302929
 30
0.0
 10
-31.5450525827
 20
-19.4956337785
 30
0.0
 10
-31.5443709352
 20
-19.4920385806
 30
0.0
 10
-31.5436988306
 20
-19.4860409141
 30
0.0
 10
-31.5430253167
 20
-19.4776256501
 30
0.0
 10
-31.5424004638
 20
-19.4668742596
 30
0.0
 10
-31.5418163839
 20
-19.4537829242
 30
0.0
 10
-31.5412823832
 20
-19.4383927988
 30
0.0
 10
-31.5407992485
 20
-19.4207370867
 30
0.0
 10
-31.5403694372
 20
-19.4008593577
 30
0.0
 10
-31.5398459812
 20
-19.3700551557
 30
0.0
 10
-31.539360291
 20
-19.3263969467
 30
0.0
 10
-31.539023892
 20
-19.2681305561
 30
0.0
 10
-31.5389188452
 20
-19.2024488533
 30
0.0
 10
-31.5390470951
 20
-19.1299840762
 30
0.0
 10
-31.5394086832
 20
-19.0514337252
 30
0.0
 10
-31.5400006246
 20
-18.9675539219
 30
0.0
 10
-31.5411114315
 20
-18.8474298591
 30
0.0
 10
-31.54303871
 20
-18.6903470379
 30
0.0
 10
-31.5450485843
 20
-18.5628316721
 30
0.0
 10
-31.5461829192
 20
-18.4978258681
 30
0.0
  0
SPLINE
  5
642
100
AcDbEntity
  8
RACCORDO
100
AcDbSpline
 62
7
  6
CONTINUOUS
 70
0
 71
3
 72
15
 73
11
 74
0
 42
0.0000001
 43
0.0000001
 44
0.0000000001
 40
0.0
 40
0.0
 40
0.0
 40
0.0
 40
0.0624988394
 40
0.1249994315
 40
0.2499934036
 40
0.3749928542
 40
0.4999941465
 40
0.6249961463
 40
0.7499984405
 40
1.0
 40
1.0
 40
1.0
 40
1.0
 10
-20.3322209941
 20
11.6506910911
 30
0.0
 10
-20.3849600629
 20
11.6263636949
 30
0.0
 10
-20.4918722927
 20
11.5807932942
 30
0.0
 10
-20.7091736929
 20
11.4985226454
 30
0.0
 10
-20.985247378
 20
11.4080179918
 30
0.0
 10
-21.3202520621
 20
11.3118989108
 30
0.0
 10
-21.6576698405
 20
11.2246402187
 30
0.0
 10
-21.9967170675
 20
11.1439999801
 30
0.0
 10
-22.4503586611
 20
11.0433973827
 30
0.0
 10
-22.7919331753
 20
10.9741655263
 30
0.0
 10
-23.0200043096
 20
10.9299169008
 30
0.0
  0
SPLINE
  5
643
100
AcDbEntity
  8
RACCORDO
100
AcDbSpline
 62
250
  6
CONTINUOUS
 70
0
 71
3
 72
24
 73
20
 74
0
 42
0.0000001
 43
0.0000001
 44
0.0000000001
 40
0.0
 40
0.0
 40
0.0
 40
0.0
 40
0.0011931544
 40
0.0043349869
 40
0.0095060841
 40
0.0167173944
 40
0.0259691843
 40
0.0372570434
 40
0.0505754912
 40
0.065918098
 40
0.1026365867
 40
0.1473266315
 40
0.1998808104
 40
0.2601747817
 40
0.328061856
 40
0.4033806181
 40
0.5755692914
 40
0.7750798009
 40
1.0
 40
1.0
 40
1.0
 40
1.0
 10
-33.0200043096
 20
-19.5233992113
 30
0.0
 10
-33.0198878216
 20
-19.523397178
 30
0.0
 10
-33.0197818796
 20
-19.5228161592
 30
0.0
 10
-33.0196290523
 20
-19.5220526172
 30
0.0
 10
-33.0194982998
 20
-19.5204565144
 30
0.0
 10
-33.0193610669
 20
-19.5183860324
 30
0.0
 10
-33.0192375456
 20
-19.5156643462
 30
0.0
 10
-33.0191217165
 20
-19.5123655494
 30
0.0
 10
-33.019016824
 20
-19.5084643048
 30
0.0
 10
-33.0188827475
 20
-19.5020824651
 30
0.0
 10
-33.018751267
 20
-19.4926355296
 30
0.0
 10
-33.0186432425
 20
-19.4795553264
 30
0.0
 10
-33.0185791788
 20
-19.4641725209
 30
0.0
 10
-33.0185594502
 20
-19.44652462
 30
0.0
 10
-33.0185844869
 20
-19.4266538483
 30
0.0
 10
-33.0186824337
 20
-19.3958572544
 30
0.0
 10
-33.0189274132
 20
-19.3522087545
 30
0.0
 10
-33.0193835656
 20
-19.2939535342
 30
0.0
 10
-33.0197797975
 20
-19.252511816
 30
0.0
 10
-33.0200043096
 20
-19.2305506016
 30
0.0
  0
SPLINE
  5
644
100
AcDbEntity
  8
RACCORDO
100
AcDbSpline
 62
250
  6
CONTINUOUS
 70
0
 71
3
 72
16
 73
12
 74
0
 42
0.0000001
 43
0.0000001
 44
0.0000000001
 40
0.0
 40
0.0
 40
0.0
 40
0.0
 40
0.2867718749
 40
0.4237316871
 40
0.5535382056
 40
0.6752041154
 40
0.7888764453
 40
0.8432315364
 40
0.8962664879
 40
0.948372467
 40
1.0
 40
1.0
 40
1.0
 40
1.0
 10
-33.0200043096
 20
-19.2305506016
 30
0.0
 10
-32.8928073002
 20
-19.2289806604
 30
0.0
 10
-32.7035220561
 20
-19.2013649351
 30
0.0
 10
-32.4736869933
 20
-19.1129067231
 30
0.0
 10
-32.3241882266
 20
-19.0254530002
 30
0.0
 10
-32.2008252997
 20
-18.9189861483
 30
0.0
 10
-32.1225001464
 20
-18.8155764592
 30
0.0
 10
-32.0784089593
 20
-18.7277370022
 30
0.0
 10
-32.0548643843
 20
-18.6608008584
 30
0.0
 10
-32.0406356736
 20
-18.5925285013
 30
0.0
 10
-32.037456716
 20
-18.5464525346
 30
0.0
 10
-32.037456716
 20
-18.5235515162
 30
0.0
  0
SPLINE
  5
645
100
AcDbEntity
  8
RACCORDO
100
AcDbSpline
 62
7
  6
CONTINUOUS
 70
0
 71
3
 72
15
 73
11
 74
0
 42
0.0000001
 43
0.0000001
 44
0.0000000001
 40
0.0
 40
0.0
 40
0.0
 40
0.0
 40
0.2500015595
 40
0.3750038537
 40
0.5000058535
 40
0.6250071457
 40
0.7500065964
 40
0.8750005685
 40
0.9375011606
 40
1.0
 40
1.0
 40
1.0
 40
1.0
 10
-23.0200043096
 20
-0.5299169008
 30
0.0
 10
-22.7919331753
 20
-0.5741655263
 30
0.0
 10
-22.4503586611
 20
-0.6433973827
 30
0.0
 10
-21.9967170675
 20
-0.7439999801
 30
0.0
 10
-21.6576698405
 20
-0.8246402187
 30
0.0
 10
-21.3202520621
 20
-0.9118989108
 30
0.0
 10
-20.9852473781
 20
-1.0080179918
 30
0.0
 10
-20.7091736929
 20
-1.0985226453
 30
0.0
 10
-20.4918722927
 20
-1.1807932942
 30
0.0
 10
-20.3849600629
 20
-1.2263636949
 30
0.0
 10
-20.3322209941
 20
-1.2506910911
 30
0.0
  0
SPLINE
  5
646
100
AcDbEntity
  8
RACCORDO
100
AcDbSpline
 62
250
  6
CONTINUOUS
 70
0
 71
3
 72
14
 73
10
 74
0
 42
0.0000001
 43
0.0000001
 44
0.0000000001
 40
0.0
 40
0.0
 40
0.0
 40
0.0
 40
0.2783228382
 40
0.4131196965
 40
0.542911854
 40
0.6666812081
 40
0.7839159739
 40
0.894737971
 40
1.0
 40
1.0
 40
1.0
 40
1.0
 10
-33.0200043096
 20
-18.9771191671
 30
0.0
 10
-32.9145643302
 20
-18.9758177641
 30
0.0
 10
-32.7573903106
 20
-18.9564115171
 30
0.0
 10
-32.5606561858
 20
-18.8950889973
 30
0.0
 10
-32.4264455038
 20
-18.8336790409
 30
0.0
 10
-32.3075824397
 20
-18.7578889405
 30
0.0
 10
-32.2070309343
 20
-18.6694734347
 30
0.0
 10
-32.1274538776
 20
-18.570572555
 30
0.0
 10
-32.0890188759
 20
-18.4975307367
 30
0.0
 10
-32.0743601216
 20
-18.4604419211
 30
0.0
  0
SPLINE
  5
647
100
AcDbEntity
  8
RACCORDO
100
AcDbSpline
 62
250
  6
CONTINUOUS
 70
0
 71
3
 72
9
 73
5
 74
0
 42
0.0000001
 43
0.0000001
 44
0.0000000001
 40
0.0
 40
0.0
 40
0.0
 40
0.0
 40
0.5044657647
 40
1.0
 40
1.0
 40
1.0
 40
1.0
 10
-32.0743601216
 20
-18.4604419211
 30
0.0
 10
-32.0623238997
 20
-18.4299885006
 30
0.0
 10
-32.0437824912
 20
-18.3673469013
 30
0.0
 10
-32.037456716
 20
-18.3022860303
 30
0.0
 10
-32.037456716
 20
-18.2701200817
 30
0.0
  0
SPLINE
  5
648
100
AcDbEntity
  8
RACCORDO
100
AcDbSpline
 62
7
  6
CONTINUOUS
 70
0
 71
3
 72
15
 73
11
 74
0
 42
0.0000001
 43
0.0000001
 44
0.0000000001
 40
0.0
 40
0.0
 40
0.0
 40
0.0
 40
0.0624988394
 40
0.1249994315
 40
0.2499934036
 40
0.3749928542
 40
0.4999941465
 40
0.6249961463
 40
0.7499984405
 40
1.0
 40
1.0
 40
1.0
 40
1.0
 10
-20.3322209941
 20
-2.1493089089
 30
0.0
 10
-20.3849600629
 20
-2.1736363051
 30
0.0
 10
-20.4918722927
 20
-2.2192067058
 30
0.0
 10
-20.7091736929
 20
-2.3014773546
 30
0.0
 10
-20.985247378
 20
-2.3919820082
 30
0.0
 10
-21.3202520621
 20
-2.4881010892
 30
0.0
 10
-21.6576698405
 20
-2.5753597813
 30
0.0
 10
-21.9967170675
 20
-2.6560000199
 30
0.0
 10
-22.4503586611
 20
-2.7566026173
 30
0.0
 10
-22.7919331753
 20
-2.8258344737
 30
0.0
 10
-23.0200043096
 20
-2.8700830992
 30
0.0
  0
SPLINE
  5
649
100
AcDbEntity
  8
RACCORDO
100
AcDbSpline
 62
250
  6
CONTINUOUS
 70
0
 71
3
 72
9
 73
5
 74
0
 42
0.0000001
 43
0.0000001
 44
0.0000000001
 40
0.0
 40
0.0
 40
0.0
 40
0.0
 40
0.4588108618
 40
1.0
 40
1.0
 40
1.0
 40
1.0
 10
-33.0200043096
 20
-18.9771191671
 30
0.0
 10
-33.0188989305
 20
-18.760868969
 30
0.0
 10
-33.0181525285
 20
-18.2895334391
 30
0.0
 10
-33.0190822916
 20
-17.8182000112
 30
0.0
 10
-33.0200043096
 20
-17.5631209963
 30
0.0
  0
SPLINE
  5
64A
100
AcDbEntity
  8
RACCORDO
100
AcDbSpline
 62
7
  6
CONTINUOUS
 70
0
 71
3
 72
15
 73
11
 74
0
 42
0.0000001
 43
0.0000001
 44
0.0000000001
 40
0.0
 40
0.0
 40
0.0
 40
0.0
 40
0.2500015595
 40
0.3750038537
 40
0.5000058535
 40
0.6250071457
 40
0.7500065964
 40
0.8750005685
 40
0.9375011606
 40
1.0
 40
1.0
 40
1.0
 40
1.0
 10
-23.0200043096
 20
13.2700830992
 30
0.0
 10
-22.7919331753
 20
13.2258344737
 30
0.0
 10
-22.4503586611
 20
13.1566026173
 30
0.0
 10
-21.9967170675
 20
13.0560000199
 30
0.0
 10
-21.6576698405
 20
12.9753597813
 30
0.0
 10
-21.3202520621
 20
12.8881010892
 30
0.0
 10
-20.9852473781
 20
12.7919820082
 30
0.0
 10
-20.7091736929
 20
12.7014773547
 30
0.0
 10
-20.4918722927
 20
12.6192067058
 30
0.0
 10
-20.3849600629
 20
12.5736363051
 30
0.0
 10
-20.3322209941
 20
12.5493089089
 30
0.0
  0
SPLINE
  5
64B
100
AcDbEntity
  8
RACCORDO
100
AcDbSpline
 62
250
  6
CONTINUOUS
 70
0
 71
3
 72
27
 73
23
 74
0
 42
0.0000001
 43
0.0000001
 44
0.0000000001
 40
0.0
 40
0.0
 40
0.0
 40
0.0
 40
0.1949655289
 40
0.382432769
 40
0.4710856638
 40
0.5552021668
 40
0.6339729763
 40
0.7066403884
 40
0.7725055883
 40
0.8309354531
 40
0.8813688078
 40
0.9034325389
 40
0.9233224016
 40
0.9409909479
 40
0.9563962872
 40
0.9695028177
 40
0.9802805183
 40
0.9887073564
 40
0.9947705569
 40
0.9984779402
 40
0.9994768162
 40
1.0
 40
1.0
 40
1.0
 40
1.0
 10
-31.5461829192
 20
-7.9915770888
 30
0.0
 10
-31.5450485843
 20
-8.0565828928
 30
0.0
 10
-31.54303871
 20
-8.1840982586
 30
0.0
 10
-31.5411114315
 20
-8.3411810798
 30
0.0
 10
-31.5400006246
 20
-8.4613051426
 30
0.0
 10
-31.5394086832
 20
-8.5451849459
 30
0.0
 10
-31.5390470951
 20
-8.6237352969
 30
0.0
 10
-31.5389188452
 20
-8.696200074
 30
0.0
 10
-31.539023892
 20
-8.7618817768
 30
0.0
 10
-31.539360291
 20
-8.8201481674
 30
0.0
 10
-31.5398459812
 20
-8.8638063764
 30
0.0
 10
-31.5403694372
 20
-8.8946105785
 30
0.0
 10
-31.5407992485
 20
-8.9144883075
 30
0.0
 10
-31.5412823832
 20
-8.9321440195
 30
0.0
 10
-31.5418163839
 20
-8.947534145
 30
0.0
 10
-31.5424004638
 20
-8.9606254803
 30
0.0
 10
-31.5430253167
 20
-8.9713768708
 30
0.0
 10
-31.5436988306
 20
-8.9797921348
 30
0.0
 10
-31.5443709352
 20
-8.9857898013
 30
0.0
 10
-31.5450525827
 20
-8.9893849992
 30
0.0
 10
-31.5456057051
 20
-8.9909815136
 30
0.0
 10
-31.5460084782
 20
-8.9914217391
 30
0.0
 10
-31.5461829192
 20
-8.991424784
 30
0.0
  0
SPLINE
  5
64C
100
AcDbEntity
  8
RACCORDO
100
AcDbSpline
 62
250
  6
CONTINUOUS
 70
0
 71
3
 72
26
 73
22
 74
0
 42
0.0000001
 43
0.0000001
 44
0.0000000001
 40
0.0
 40
0.0
 40
0.0
 40
0.0
 40
0.1949658458
 40
0.3824328455
 40
0.4710857254
 40
0.5552022581
 40
0.6339731278
 40
0.7066405812
 40
0.7725057761
 40
0.8309356032
 40
0.8813689567
 40
0.9233225018
 40
0.9409907905
 40
0.956396443
 40
0.9695026311
 40
0.9802806694
 40
0.9887072218
 40
0.9947706537
 40
0.998477878
 40
0.9994768179
 40
1.0
 40
1.0
 40
1.0
 40
1.0
 10
-31.5461829192
 20
-9.4913486316
 30
0.0
 10
-31.5467500875
 20
-9.4588456822
 30
0.0
 10
-31.5477550266
 20
-9.3950879972
 30
0.0
 10
-31.548718665
 20
-9.3165465894
 30
0.0
 10
-31.5492740657
 20
-9.2564846057
 30
0.0
 10
-31.5495700399
 20
-9.2145446984
 30
0.0
 10
-31.5497508239
 20
-9.175269508
 30
0.0
 10
-31.5498149858
 20
-9.1390371079
 30
0.0
 10
-31.5497623451
 20
-9.1061962671
 30
0.0
 10
-31.5495945087
 20
-9.0770630687
 30
0.0
 10
-31.5493136821
 20
-9.0519178447
 30
0.0
 10
-31.5489750719
 20
-9.0335705433
 30
0.0
 10
-31.5486332225
 20
-9.021065172
 30
0.0
 10
-31.5483661957
 20
-9.0133701562
 30
0.0
 10
-31.5480741189
 20
-9.0068244403
 30
0.0
 10
-31.5477617473
 20
-9.0014487925
 30
0.0
 10
-31.5474249453
 20
-8.997241113
 30
0.0
 10
-31.5470889501
 20
-8.9942423218
 30
0.0
 10
-31.5467480338
 20
-8.9924446904
 30
0.0
 10
-31.5464715014
 20
-8.9916464752
 30
0.0
 10
-31.5462701394
 20
-8.9914263064
 30
0.0
 10
-31.5461829192
 20
-8.991424784
 30
0.0
  0
SPLINE
  5
64D
100
AcDbEntity
  8
DRAFT
100
AcDbSpline
 62
7
  6
CONTINUOUS
 70
0
 71
3
 72
35
 73
31
 74
0
 42
0.0000001
 43
0.0000001
 44
0.0000000001
 40
0.0
 40
0.0
 40
0.0
 40
0.0
 40
0.062509778
 40
0.125019316
 40
0.1875282322
 40
0.2500352316
 40
0.2812909058
 40
0.3125464141
 40
0.3438013491
 40
0.3750547391
 40
0.4063028201
 40
0.4375345153
 40
0.4531604039
 40
0.4687815719
 40
0.484394392
 40
0.4999998633
 40
0.5156053464
 40
0.5312181584
 40
0.5468393568
 40
0.5624652855
 40
0.5936970615
 40
0.6249451937
 40
0.6561986037
 40
0.6874535473
 40
0.7187090659
 40
0.7499647488
 40
0.8124717553
 40
0.8749806779
 40
0.9374902197
 40
1.0
 40
1.0
 40
1.0
 40
1.0
 10
-23.0200043096
 20
-12.865623289
 30
0.0
 10
-22.9560085798
 20
-12.8468369002
 30
0.0
 10
-22.8283529033
 20
-12.8081051517
 30
0.0
 10
-22.6382179509
 20
-12.745716384
 30
0.0
 10
-22.4499580713
 20
-12.6778590529
 30
0.0
 10
-22.2953362059
 20
-12.6152758161
 30
0.0
 10
-22.1738708829
 20
-12.5600975871
 30
0.0
 10
-22.0842589078
 20
-12.5155544883
 30
0.0
 10
-21.9967073441
 20
-12.4670634983
 30
0.0
 10
-21.9121413838
 20
-12.413462424
 30
0.0
 10
-21.8322872802
 20
-12.3530411527
 30
0.0
 10
-21.7722333554
 20
-12.2946580473
 30
0.0
 10
-21.731977784
 20
-12.2413367505
 30
0.0
 10
-21.7074176284
 20
-12.1975595479
 30
0.0
 10
-21.6908621258
 20
-12.1500597308
 30
0.0
 10
-21.6849215981
 20
-12.100000422
 30
0.0
 10
-21.6908618461
 20
-12.0499410698
 30
0.0
 10
-21.7074173411
 20
-12.0024412097
 30
0.0
 10
-21.7319773428
 20
-11.9586638519
 30
0.0
 10
-21.7722328769
 20
-11.9053423157
 30
0.0
 10
-21.8322869003
 20
-11.8469590294
 30
0.0
 10
-21.9121412213
 20
-11.786537778
 30
0.0
 10
-21.9967072109
 20
-11.732936599
 30
0.0
 10
-22.0842587841
 20
-11.6844455366
 30
0.0
 10
-22.1738707912
 20
-11.6399024345
 30
0.0
 10
-22.2953361586
 20
-11.584724237
 30
0.0
 10
-22.449958024
 20
-11.5221409384
 30
0.0
 10
-22.6382179348
 20
-11.4542836372
 30
0.0
 10
-22.8283528938
 20
-11.3918948488
 30
0.0
 10
-22.9560085774
 20
-11.3531631005
 30
0.0
 10
-23.0200043096
 20
-11.334376711
 30
0.0
  0
SPLINE
  5
64E
100
AcDbEntity
  8
RACCORDO
100
AcDbSpline
 62
7
  6
CONTINUOUS
 70
0
 71
3
 72
19
 73
15
 74
0
 42
0.0000001
 43
0.0000001
 44
0.0000000001
 40
0.0
 40
0.0
 40
0.0
 40
0.0
 40
0.1976525704
 40
0.3852715484
 40
0.5564451433
 40
0.7053750304
 40
0.8270964433
 40
0.8764891517
 40
0.9177142461
 40
0.9505080111
 40
0.9747644399
 40
0.9837525132
 40
0.9907646308
 40
1.0
 40
1.0
 40
1.0
 40
1.0
 10
-20.3113099932
 20
-1.2556173547
 30
0.0
 10
-20.2930631381
 20
-1.2557383257
 30
0.0
 10
-20.2574966997
 20
-1.2562204244
 30
0.0
 10
-20.2061447848
 20
-1.2576868536
 30
0.0
 10
-20.1593177004
 20
-1.2598322637
 30
0.0
 10
-20.1186189038
 20
-1.2625883972
 30
0.0
 10
-20.0892018241
 20
-1.2654462549
 30
0.0
 10
-20.0697770195
 20
-1.2681049613
 30
0.0
 10
-20.0585455997
 20
-1.2700355741
 30
0.0
 10
-20.0496901875
 20
-1.27204336
 30
0.0
 10
-20.0438590166
 20
-1.2738400689
 30
0.0
 10
-20.0404725333
 20
-1.2754440803
 30
0.0
 10
-20.0385418704
 20
-1.276660761
 30
0.0
 10
-20.037456716
 20
-1.2780200604
 30
0.0
 10
-20.037456716
 20
-1.2788726684
 30
0.0
  0
SPLINE
  5
64F
100
AcDbEntity
  8
RACCORDO
100
AcDbSpline
 62
7
  6
CONTINUOUS
 70
0
 71
3
 72
19
 73
15
 74
0
 42
0.0000001
 43
0.0000001
 44
0.0000000001
 40
0.0
 40
0.0
 40
0.0
 40
0.0
 40
0.1976525704
 40
0.3852715484
 40
0.5564451433
 40
0.7053750304
 40
0.8270964433
 40
0.8764891517
 40
0.9177142461
 40
0.9505080111
 40
0.9747644399
 40
0.9837525132
 40
0.9907646308
 40
1.0
 40
1.0
 40
1.0
 40
1.0
 10
-20.3113099932
 20
-2.1443826453
 30
0.0
 10
-20.2930631381
 20
-2.1442616743
 30
0.0
 10
-20.2574966997
 20
-2.1437795756
 30
0.0
 10
-20.2061447848
 20
-2.1423131464
 30
0.0
 10
-20.1593177004
 20
-2.1401677363
 30
0.0
 10
-20.1186189038
 20
-2.1374116028
 30
0.0
 10
-20.0892018241
 20
-2.1345537451
 30
0.0
 10
-20.0697770195
 20
-2.1318950387
 30
0.0
 10
-20.0585455997
 20
-2.1299644259
 30
0.0
 10
-20.0496901875
 20
-2.12795664
 30
0.0
 10
-20.0438590166
 20
-2.1261599311
 30
0.0
 10
-20.0404725333
 20
-2.1245559197
 30
0.0
 10
-20.0385418704
 20
-2.123339239
 30
0.0
 10
-20.037456716
 20
-2.1219799396
 30
0.0
 10
-20.037456716
 20
-2.1211273316
 30
0.0
  0
SPLINE
  5
650
100
AcDbEntity
  8
RACCORDO
100
AcDbSpline
 62
7
  6
CONTINUOUS
 70
0
 71
3
 72
19
 73
15
 74
0
 42
0.0000001
 43
0.0000001
 44
0.0000000001
 40
0.0
 40
0.0
 40
0.0
 40
0.0
 40
0.1976525704
 40
0.3852715484
 40
0.5564451433
 40
0.7053750304
 40
0.8270964433
 40
0.8764891517
 40
0.9177142461
 40
0.9505080111
 40
0.9747644399
 40
0.9837525132
 40
0.9907646308
 40
1.0
 40
1.0
 40
1.0
 40
1.0
 10
-20.3113099932
 20
12.5443826453
 30
0.0
 10
-20.2930631381
 20
12.5442616743
 30
0.0
 10
-20.2574966997
 20
12.5437795756
 30
0.0
 10
-20.2061447848
 20
12.5423131464
 30
0.0
 10
-20.1593177004
 20
12.5401677363
 30
0.0
 10
-20.1186189038
 20
12.5374116028
 30
0.0
 10
-20.0892018241
 20
12.5345537451
 30
0.0
 10
-20.0697770195
 20
12.5318950387
 30
0.0
 10
-20.0585455997
 20
12.5299644259
 30
0.0
 10
-20.0496901875
 20
12.52795664
 30
0.0
 10
-20.0438590166
 20
12.5261599311
 30
0.0
 10
-20.0404725333
 20
12.5245559197
 30
0.0
 10
-20.0385418704
 20
12.523339239
 30
0.0
 10
-20.037456716
 20
12.5219799396
 30
0.0
 10
-20.037456716
 20
12.5211273316
 30
0.0
  0
SPLINE
  5
651
100
AcDbEntity
  8
RACCORDO
100
AcDbSpline
 62
7
  6
CONTINUOUS
 70
0
 71
3
 72
19
 73
15
 74
0
 42
0.0000001
 43
0.0000001
 44
0.0000000001
 40
0.0
 40
0.0
 40
0.0
 40
0.0
 40
0.1976525704
 40
0.3852715484
 40
0.5564451433
 40
0.7053750304
 40
0.8270964433
 40
0.8764891517
 40
0.9177142461
 40
0.9505080111
 40
0.9747644399
 40
0.9837525132
 40
0.9907646308
 40
1.0
 40
1.0
 40
1.0
 40
1.0
 10
-20.3113099932
 20
11.6556173547
 30
0.0
 10
-20.2930631381
 20
11.6557383257
 30
0.0
 10
-20.2574966997
 20
11.6562204244
 30
0.0
 10
-20.2061447848
 20
11.6576868536
 30
0.0
 10
-20.1593177004
 20
11.6598322637
 30
0.0
 10
-20.1186189038
 20
11.6625883972
 30
0.0
 10
-20.0892018241
 20
11.6654462549
 30
0.0
 10
-20.0697770195
 20
11.6681049613
 30
0.0
 10
-20.0585455997
 20
11.6700355741
 30
0.0
 10
-20.0496901875
 20
11.67204336
 30
0.0
 10
-20.0438590166
 20
11.6738400689
 30
0.0
 10
-20.0404725333
 20
11.6754440803
 30
0.0
 10
-20.0385418704
 20
11.676660761
 30
0.0
 10
-20.037456716
 20
11.6780200604
 30
0.0
 10
-20.037456716
 20
11.6788726684
 30
0.0
  0
SPLINE
  5
652
100
AcDbEntity
  8
RACCORDO
100
AcDbSpline
 62
7
  6
CONTINUOUS
 70
0
 71
3
 72
8
 73
4
 74
0
 42
0.0000001
 43
0.0000001
 44
0.0000000001
 40
0.0
 40
0.0
 40
0.0
 40
0.0
 40
1.0
 40
1.0
 40
1.0
 40
1.0
 10
-20.3113099932
 20
11.6556173547
 30
0.0
 10
-20.3184709812
 20
11.6555698795
 30
0.0
 10
-20.3257183218
 20
11.6536906338
 30
0.0
 10
-20.3322209941
 20
11.6506910911
 30
0.0
  0
SPLINE
  5
653
100
AcDbEntity
  8
RACCORDO
100
AcDbSpline
 62
7
  6
CONTINUOUS
 70
0
 71
3
 72
8
 73
4
 74
0
 42
0.0000001
 43
0.0000001
 44
0.0000000001
 40
0.0
 40
0.0
 40
0.0
 40
0.0
 40
1.0
 40
1.0
 40
1.0
 40
1.0
 10
-20.3113099932
 20
12.5443826453
 30
0.0
 10
-20.3184709812
 20
12.5444301205
 30
0.0
 10
-20.3257183218
 20
12.5463093662
 30
0.0
 10
-20.3322209941
 20
12.5493089089
 30
0.0
  0
SPLINE
  5
654
100
AcDbEntity
  8
RACCORDO
100
AcDbSpline
 62
7
  6
CONTINUOUS
 70
0
 71
3
 72
8
 73
4
 74
0
 42
0.0000001
 43
0.0000001
 44
0.0000000001
 40
0.0
 40
0.0
 40
0.0
 40
0.0
 40
1.0
 40
1.0
 40
1.0
 40
1.0
 10
-20.3113099932
 20
-2.1443826453
 30
0.0
 10
-20.3184709812
 20
-2.1444301205
 30
0.0
 10
-20.3257183218
 20
-2.1463093662
 30
0.0
 10
-20.3322209941
 20
-2.1493089089
 30
0.0
  0
SPLINE
  5
655
100
AcDbEntity
  8
RACCORDO
100
AcDbSpline
 62
7
  6
CONTINUOUS
 70
0
 71
3
 72
8
 73
4
 74
0
 42
0.0000001
 43
0.0000001
 44
0.0000000001
 40
0.0
 40
0.0
 40
0.0
 40
0.0
 40
1.0
 40
1.0
 40
1.0
 40
1.0
 10
-20.3113099932
 20
-1.2556173547
 30
0.0
 10
-20.3184709812
 20
-1.2555698795
 30
0.0
 10
-20.3257183218
 20
-1.2536906338
 30
0.0
 10
-20.3322209941
 20
-1.2506910911
 30
0.0
  0
SPLINE
  5
656
100
AcDbEntity
  8
RACCORDO
100
AcDbSpline
 62
250
  6
CONTINUOUS
 70
0
 71
3
 72
27
 73
23
 74
0
 42
0.0000001
 43
0.0000001
 44
0.0000000001
 40
0.0
 40
0.0
 40
0.0
 40
0.0
 40
0.0005231838
 40
0.0015220598
 40
0.0052294431
 40
0.0112926436
 40
0.0197194817
 40
0.0304971823
 40
0.0436037128
 40
0.0590090521
 40
0.0766775984
 40
0.0965674611
 40
0.1186311922
 40
0.1690645469
 40
0.2274944117
 40
0.2933596116
 40
0.3660270237
 40
0.4447978332
 40
0.5289143362
 40
0.617567231
 40
0.8050344711
 40
1.0
 40
1.0
 40
1.0
 40
1.0
 10
-23.0200043096
 20
-19.3488485621
 30
0.0
 10
-23.0198298686
 20
-19.3488455172
 30
0.0
 10
-23.0194270955
 20
-19.3484052917
 30
0.0
 10
-23.018873973
 20
-19.3468087773
 30
0.0
 10
-23.0181923255
 20
-19.3432135793
 30
0.0
 10
-23.017520221
 20
-19.3372159129
 30
0.0
 10
-23.0168467071
 20
-19.3288006489
 30
0.0
 10
-23.0162218541
 20
-19.3180492584
 30
0.0
 10
-23.0156377742
 20
-19.304957923
 30
0.0
 10
-23.0151037735
 20
-19.2895677976
 30
0.0
 10
-23.0146206389
 20
-19.2719120855
 30
0.0
 10
-23.0141908276
 20
-19.2520343565
 30
0.0
 10
-23.0136673716
 20
-19.2212301545
 30
0.0
 10
-23.0131816814
 20
-19.1775719455
 30
0.0
 10
-23.0128452823
 20
-19.1193055549
 30
0.0
 10
-23.0127402355
 20
-19.0536238521
 30
0.0
 10
-23.0128684855
 20
-18.981159075
 30
0.0
 10
-23.0132300736
 20
-18.902608724
 30
0.0
 10
-23.0138220149
 20
-18.8187289207
 30
0.0
 10
-23.0149328218
 20
-18.6986048579
 30
0.0
 10
-23.0168601004
 20
-18.5415220367
 30
0.0
 10
-23.0188699747
 20
-18.4140066709
 30
0.0
 10
-23.0200043096
 20
-18.3490008669
 30
0.0
  0
SPLINE
  5
657
100
AcDbEntity
  8
DRAFT
100
AcDbSpline
 62
7
  6
CONTINUOUS
 70
0
 71
3
 72
26
 73
22
 74
0
 42
0.0000001
 43
0.0000001
 44
0.0000000001
 40
0.0
 40
0.0
 40
0.0
 40
0.0
 40
0.0179443029
 40
0.0358539957
 40
0.0537101427
 40
0.0714993122
 40
0.1068133699
 40
0.1418949086
 40
0.1767638826
 40
0.2114311425
 40
0.2801426398
 40
0.3480109267
 40
0.414930498
 40
0.4807775606
 40
0.5454140719
 40
0.6086889947
 40
0.6704401425
 40
0.7886567601
 40
0.8448186554
 40
0.898816191
 40
1.0
 40
1.0
 40
1.0
 40
1.0
 10
-23.0200043096
 20
-12.865623289
 30
0.0
 10
-23.0088534022
 20
-12.8623498631
 30
0.0
 10
-22.9861422529
 20
-12.8571588065
 30
0.0
 10
-22.9513761246
 20
-12.8541170471
 30
0.0
 10
-22.9166260173
 20
-12.8561189724
 30
0.0
 10
-22.8714383998
 20
-12.8651863352
 30
0.0
 10
-22.8181007509
 20
-12.8870003576
 30
0.0
 10
-22.7604852289
 20
-12.9238487262
 30
0.0
 10
-22.7081480475
 20
-12.9670610634
 30
0.0
 10
-22.6441432794
 20
-13.0297713264
 30
0.0
 10
-22.5721626609
 20
-13.11440168
 30
0.0
 10
-22.4942630316
 20
-13.2207849313
 30
0.0
 10
-22.4230396587
 20
-13.3295243898
 30
0.0
 10
-22.3575038553
 20
-13.4393318877
 30
0.0
 10
-22.2972434331
 20
-13.5494319003
 30
0.0
 10
-22.242177336
 20
-13.6592654676
 30
0.0
 10
-22.176884752
 20
-13.8026516035
 30
0.0
 10
-22.1217362528
 20
-13.9455574093
 30
0.0
 10
-22.0796508781
 20
-14.0874545637
 30
0.0
 10
-22.0490850351
 20
-14.2208800094
 30
0.0
 10
-22.037456716
 20
-14.3214736272
 30
0.0
 10
-22.037456716
 20
-14.3870043069
 30
0.0
  0
SPLINE
  5
658
100
AcDbEntity
  8
DRAFT
100
AcDbSpline
 62
7
  6
CONTINUOUS
 70
0
 71
3
 72
26
 73
22
 74
0
 42
0.0000001
 43
0.0000001
 44
0.0000000001
 40
0.0
 40
0.0
 40
0.0
 40
0.0
 40
0.1011836871
 40
0.1551811337
 40
0.2113428526
 40
0.3295596275
 40
0.391311022
 40
0.4545861752
 40
0.5192228389
 40
0.5850698794
 40
0.6519894855
 40
0.7198577851
 40
0.7885693146
 40
0.8232365613
 40
0.8581055739
 40
0.8931870769
 40
0.928501028
 40
0.9462901231
 40
0.9641461864
 40
0.982055778
 40
1.0
 40
1.0
 40
1.0
 40
1.0
 10
-22.037456716
 20
-9.8129956931
 30
0.0
 10
-22.037456716
 20
-9.8785262939
 30
0.0
 10
-22.0490849996
 20
-9.9791197764
 30
0.0
 10
-22.0796507649
 20
-10.112544983
 30
0.0
 10
-22.1217360588
 20
-10.2544420874
 30
0.0
 10
-22.1768845605
 20
-10.3973480543
 30
0.0
 10
-22.2421773505
 20
-10.5407345485
 30
0.0
 10
-22.2972436075
 20
-10.6505684907
 30
0.0
 10
-22.3575041158
 20
-10.7606687258
 30
0.0
 10
-22.4230401278
 20
-10.8704762221
 30
0.0
 10
-22.4942634519
 20
-10.9792157355
 30
0.0
 10
-22.5721632415
 20
-11.0855989249
 30
0.0
 10
-22.6441437729
 20
-11.1702293979
 30
0.0
 10
-22.7081488076
 20
-11.2329394388
 30
0.0
 10
-22.7604859434
 20
-11.2761518187
 30
0.0
 10
-22.8181015015
 20
-11.3130000154
 30
0.0
 10
-22.8714390514
 20
-11.3348139059
 30
0.0
 10
-22.9166265268
 20
-11.343881111
 30
0.0
 10
-22.9513764694
 20
-11.3458829443
 30
0.0
 10
-22.9861424191
 20
-11.3428411511
 30
0.0
 10
-23.0088534525
 20
-11.3376501222
 30
0.0
 10
-23.0200043096
 20
-11.334376711
 30
0.0
  0
SPLINE
  5
659
100
AcDbEntity
  8
RACCORDO
100
AcDbSpline
 62
250
  6
CONTINUOUS
 70
0
 71
3
 72
21
 73
17
 74
0
 42
0.0000001
 43
0.0000001
 44
0.0000000001
 40
0.0
 40
0.0
 40
0.0
 40
0.0
 40
0.0020361333
 40
0.0059400118
 40
0.0205311224
 40
0.044397225
 40
0.0774080419
 40
0.1192825399
 40
0.1696357626
 40
0.2279921242
 40
0.2937937295
 40
0.3664076331
 40
0.4451325345
 40
0.617816653
 40
0.8051795435
 40
1.0
 40
1.0
 40
1.0
 40
1.0
 10
-23.0200043096
 20
-8.8425997828
 30
0.0
 10
-23.0196644087
 20
-8.8425938779
 30
0.0
 10
-23.0188557315
 20
-8.8434477164
 30
0.0
 10
-23.0178271051
 20
-8.8466099053
 30
0.0
 10
-23.016589727
 20
-8.8537046485
 30
0.0
 10
-23.015502463
 20
-8.8655258153
 30
0.0
 10
-23.0145127614
 20
-8.8820134394
 30
0.0
 10
-23.013744762
 20
-8.9028996628
 30
0.0
 10
-23.0131810583
 20
-8.9280391342
 30
0.0
 10
-23.0128456322
 20
-8.9571727432
 30
0.0
 10
-23.0127401169
 20
-8.990026238
 30
0.0
 10
-23.0128685352
 20
-9.0262798212
 30
0.0
 10
-23.0133672793
 20
-9.0803765699
 30
0.0
 10
-23.0145913046
 20
-9.1536246225
 30
0.0
 10
-23.0168615601
 20
-9.2462380391
 30
0.0
 10
-23.0188708361
 20
-9.310016219
 30
0.0
 10
-23.0200043096
 20
-9.3425236303
 30
0.0
  0
SPLINE
  5
65A
100
AcDbEntity
  8
ASSI
100
AcDbSpline
 62
7
  6
CONTINUOUS
 70
0
 71
3
 72
12
 73
8
 74
0
 42
0.0000001
 43
0.0000001
 44
0.0000000001
 40
0.0
 40
0.0
 40
0.0
 40
0.0
 40
0.1249789905
 40
0.249980219
 40
0.4999725973
 40
0.7499839269
 40
1.0
 40
1.0
 40
1.0
 40
1.0
 10
-20.3322209941
 20
11.6506910911
 30
0.0
 10
-20.4376772395
 20
11.6020463971
 30
0.0
 10
-20.6540769956
 20
11.5166555624
 30
0.0
 10
-21.0956189599
 20
11.3718578881
 30
0.0
 10
-21.6569762479
 20
11.2215072092
 30
0.0
 10
-22.3365047398
 20
11.0664762248
 30
0.0
 10
-22.7919331753
 20
10.9741655263
 30
0.0
 10
-23.0200043096
 20
10.9299169008
 30
0.0
  0
SPLINE
  5
65B
100
AcDbEntity
  8
ASSI
100
AcDbSpline
 62
7
  6
CONTINUOUS
 70
0
 71
3
 72
12
 73
8
 74
0
 42
0.0000001
 43
0.0000001
 44
0.0000000001
 40
0.0
 40
0.0
 40
0.0
 40
0.0
 40
0.2500160731
 40
0.5000274027
 40
0.750019781
 40
0.8750210095
 40
1.0
 40
1.0
 40
1.0
 40
1.0
 10
-23.0200043096
 20
-0.5299169008
 30
0.0
 10
-22.7919331753
 20
-0.5741655263
 30
0.0
 10
-22.3365047398
 20
-0.6664762248
 30
0.0
 10
-21.6569762479
 20
-0.8215072092
 30
0.0
 10
-21.0956189599
 20
-0.9718578881
 30
0.0
 10
-20.6540769956
 20
-1.1166555624
 30
0.0
 10
-20.4376772395
 20
-1.2020463971
 30
0.0
 10
-20.3322209941
 20
-1.2506910911
 30
0.0
  0
SPLINE
  5
65C
100
AcDbEntity
  8
ASSI
100
AcDbSpline
 62
7
  6
CONTINUOUS
 70
0
 71
3
 72
12
 73
8
 74
0
 42
0.0000001
 43
0.0000001
 44
0.0000000001
 40
0.0
 40
0.0
 40
0.0
 40
0.0
 40
0.1249789905
 40
0.249980219
 40
0.4999725973
 40
0.7499839269
 40
1.0
 40
1.0
 40
1.0
 40
1.0
 10
-20.3322209941
 20
-2.1493089089
 30
0.0
 10
-20.4376772395
 20
-2.1979536029
 30
0.0
 10
-20.6540769956
 20
-2.2833444376
 30
0.0
 10
-21.0956189599
 20
-2.4281421119
 30
0.0
 10
-21.6569762479
 20
-2.5784927908
 30
0.0
 10
-22.3365047398
 20
-2.7335237752
 30
0.0
 10
-22.7919331753
 20
-2.8258344737
 30
0.0
 10
-23.0200043096
 20
-2.8700830992
 30
0.0
  0
SPLINE
  5
65D
100
AcDbEntity
  8
ASSI
100
AcDbSpline
 62
7
  6
CONTINUOUS
 70
0
 71
3
 72
25
 73
21
 74
0
 42
0.0000001
 43
0.0000001
 44
0.0000000001
 40
0.0
 40
0.0
 40
0.0
 40
0.0
 40
0.1250855272
 40
0.1876316185
 40
0.250175792
 40
0.3127143929
 40
0.3752311458
 40
0.4064978105
 40
0.4377480797
 40
0.4689407829
 40
0.499999866
 40
0.5310589481
 40
0.5622517209
 40
0.593502071
 40
0.624768787
 40
0.6872855686
 40
0.7498241884
 40
0.8123683689
 40
0.8749144667
 40
1.0
 40
1.0
 40
1.0
 40
1.0
 10
-23.0200043096
 20
-12.865623289
 30
0.0
 10
-22.8920214241
 20
-12.8280530284
 30
0.0
 10
-22.7009662482
 20
-12.7683168304
 30
0.0
 10
-22.4499568317
 20
-12.6778632714
 30
0.0
 10
-22.2644241682
 20
-12.6027568109
 30
0.0
 10
-22.0833622387
 20
-12.5174770901
 30
0.0
 10
-21.9387870453
 20
-12.4335642287
 30
0.0
 10
-21.8322502065
 20
-12.3530377066
 30
0.0
 10
-21.7604036469
 20
-12.28307065
 30
0.0
 10
-21.7034714907
 20
-12.1998656969
 30
0.0
 10
-21.6786342474
 20
-12.1000004397
 30
0.0
 10
-21.7034711736
 20
-12.0001350325
 30
0.0
 10
-21.7604031483
 20
-11.9169297438
 30
0.0
 10
-21.8322498288
 20
-11.846962477
 30
0.0
 10
-21.9387869125
 20
-11.7664360003
 30
0.0
 10
-22.0833620744
 20
-11.6825228931
 30
0.0
 10
-22.2644241183
 20
-11.5972432574
 30
0.0
 10
-22.4499567838
 20
-11.5221367205
 30
0.0
 10
-22.7009662382
 20
-11.4316831984
 30
0.0
 10
-22.8920214179
 20
-11.3719469734
 30
0.0
 10
-23.0200043096
 20
-11.334376711
 30
0.0
  0
SPLINE
  5
65E
100
AcDbEntity
  8
ASSI
100
AcDbSpline
 62
250
  6
CONTINUOUS
 70
0
 71
3
 72
18
 73
14
 74
0
 42
0.0000001
 43
0.0000001
 44
0.0000000001
 40
0.0
 40
0.0
 40
0.0
 40
0.0
 40
0.2249318244
 40
0.4244526459
 40
0.5966502191
 40
0.7398633896
 40
0.852717234
 40
0.8974095886
 40
0.9341299752
 40
0.9627923788
 40
0.9833327283
 40
0.9957140965
 40
1.0
 40
1.0
 40
1.0
 40
1.0
 10
-23.0200043096
 20
19.0559999523
 30
0.0
 10
-23.0197797975
 20
19.0779611667
 30
0.0
 10
-23.0193834087
 20
19.1194032125
 30
0.0
 10
-23.0189278682
 20
19.1776571552
 30
0.0
 10
-23.0186438901
 20
19.2279381423
 30
0.0
 10
-23.0185438614
 20
19.2697432634
 30
0.0
 10
-23.0185866149
 20
19.2991342428
 30
0.0
 10
-23.0187619956
 20
19.3180638961
 30
0.0
 10
-23.0188706074
 20
19.3288909888
 30
0.0
 10
-23.0191685136
 20
19.3370701944
 30
0.0
 10
-23.0191463765
 20
19.3435529784
 30
0.0
 10
-23.0198197707
 20
19.3463412579
 30
0.0
 10
-23.0195858973
 20
19.3488412586
 30
0.0
 10
-23.0200043096
 20
19.3488485621
 30
0.0
  0
SPLINE
  5
65F
100
AcDbEntity
  8
ASSI
100
AcDbSpline
 62
250
  6
CONTINUOUS
 70
0
 71
3
 72
12
 73
8
 74
0
 42
0.0000001
 43
0.0000001
 44
0.0000000001
 40
0.0
 40
0.0
 40
0.0
 40
0.0
 40
0.2875346801
 40
0.5541168664
 40
0.788771535
 40
0.8962309518
 40
1.0
 40
1.0
 40
1.0
 40
1.0
 10
-23.0200043096
 20
19.0559999523
 30
0.0
 10
-22.8928072556
 20
19.0544300106
 30
0.0
 10
-22.6465655527
 20
19.0183632622
 30
0.0
 10
-22.3249016798
 20
18.8701989033
 30
0.0
 10
-22.129585275
 20
18.6717855076
 30
0.0
 10
-22.0506308926
 20
18.4888254972
 30
0.0
 10
-22.037456716
 20
18.394908799
 30
0.0
 10
-22.037456716
 20
18.3490008669
 30
0.0
  0
SPLINE
  5
660
100
AcDbEntity
  8
ASSI
100
AcDbSpline
 62
250
  6
CONTINUOUS
 70
0
 71
3
 72
12
 73
8
 74
0
 42
0.0000001
 43
0.0000001
 44
0.0000000001
 40
0.0
 40
0.0
 40
0.0
 40
0.0
 40
0.2875345786
 40
0.5541166836
 40
0.7887712955
 40
0.8962306952
 40
1.0
 40
1.0
 40
1.0
 40
1.0
 10
-23.0200043096
 20
18.9048179208
 30
0.0
 10
-22.8928073002
 20
18.9032479797
 30
0.0
 10
-22.6465656791
 20
18.8671812559
 30
0.0
 10
-22.3249018829
 20
18.719016994
 30
0.0
 10
-22.12958547
 20
18.5206037216
 30
0.0
 10
-22.0506309427
 20
18.3376436887
 30
0.0
 10
-22.037456716
 20
18.2437268811
 30
0.0
 10
-22.037456716
 20
18.1978188354
 30
0.0
  0
SPLINE
  5
661
100
AcDbEntity
  8
ASSI
100
AcDbSpline
 62
250
  6
CONTINUOUS
 70
0
 71
3
 72
9
 73
5
 74
0
 42
0.0000001
 43
0.0000001
 44
0.0000000001
 40
0.0
 40
0.0
 40
0.0
 40
0.0
 40
0.2758961316
 40
1.0
 40
1.0
 40
1.0
 40
1.0
 10
-23.0200043096
 20
17.49081975
 30
0.0
 10
-23.0195342687
 20
17.6208579636
 30
0.0
 10
-23.0182639867
 20
18.0921891686
 30
0.0
 10
-23.0182597808
 20
18.5635280376
 30
0.0
 10
-23.0200043096
 20
18.9048179208
 30
0.0
  0
SPLINE
  5
662
100
AcDbEntity
  8
ASSI
100
AcDbSpline
 62
7
  6
CONTINUOUS
 70
0
 71
3
 72
17
 73
13
 74
0
 42
0.0000001
 43
0.0000001
 44
0.0000000001
 40
0.0
 40
0.0
 40
0.0
 40
0.0
 40
0.0737223245
 40
0.1463403108
 40
0.2175906789
 40
0.2875193114
 40
0.4234190219
 40
0.5538651361
 40
0.6778600879
 40
0.7941920653
 40
0.9017217147
 40
1.0
 40
1.0
 40
1.0
 40
1.0
 10
-23.0200043096
 20
-2.8700830992
 30
0.0
 10
-22.9787502381
 20
-2.8620792982
 30
0.0
 10
-22.8935996665
 20
-2.8589884471
 30
0.0
 10
-22.7731278885
 20
-2.894880463
 30
0.0
 10
-22.6671836866
 20
-2.9565892737
 30
0.0
 10
-22.5444270521
 20
-3.0565918961
 30
0.0
 10
-22.4156920336
 20
-3.1998938711
 30
0.0
 10
-22.28793867
 20
-3.3824511364
 30
0.0
 10
-22.1842120878
 20
-3.566986766
 30
0.0
 10
-22.1047085032
 20
-3.7490773043
 30
0.0
 10
-22.0520413836
 20
-3.9255052219
 30
0.0
 10
-22.037456716
 20
-4.0428918078
 30
0.0
 10
-22.037456716
 20
-4.0989125538
 30
0.0
  0
SPLINE
  5
663
100
AcDbEntity
  8
ASSI
100
AcDbSpline
 62
7
  6
CONTINUOUS
 70
0
 71
3
 72
17
 73
13
 74
0
 42
0.0000001
 43
0.0000001
 44
0.0000000001
 40
0.0
 40
0.0
 40
0.0
 40
0.0
 40
0.0982783041
 40
0.205807973
 40
0.3221399725
 40
0.4461349382
 40
0.5765810454
 40
0.7124807375
 40
0.7824093584
 40
0.8536596835
 40
0.9262776433
 40
1.0
 40
1.0
 40
1.0
 40
1.0
 10
-22.037456716
 20
0.6989125538
 30
0.0
 10
-22.037456716
 20
0.642891797
 30
0.0
 10
-22.0520413889
 20
0.525505189
 30
0.0
 10
-22.1047085286
 20
0.3490772416
 30
0.0
 10
-22.1842121259
 20
0.1669866742
 30
0.0
 10
-22.2879387233
 20
-0.0175489663
 30
0.0
 10
-22.4156920996
 20
-0.2001062165
 30
0.0
 10
-22.5444271251
 20
-0.3434081537
 30
0.0
 10
-22.6671837218
 20
-0.4434107578
 30
0.0
 10
-22.7731278922
 20
-0.505119529
 30
0.0
 10
-22.8935996426
 20
-0.5410115548
 30
0.0
 10
-22.9787502201
 20
-0.5379207053
 30
0.0
 10
-23.0200043096
 20
-0.5299169008
 30
0.0
  0
SPLINE
  5
664
100
AcDbEntity
  8
ASSI
100
AcDbSpline
 62
7
  6
CONTINUOUS
 70
0
 71
3
 72
17
 73
13
 74
0
 42
0.0000001
 43
0.0000001
 44
0.0000000001
 40
0.0
 40
0.0
 40
0.0
 40
0.0
 40
0.0737223245
 40
0.1463403108
 40
0.2175906789
 40
0.2875193114
 40
0.4234190219
 40
0.5538651361
 40
0.6778600879
 40
0.7941920653
 40
0.9017217147
 40
1.0
 40
1.0
 40
1.0
 40
1.0
 10
-23.0200043096
 20
10.9299169008
 30
0.0
 10
-22.9787502381
 20
10.9379207018
 30
0.0
 10
-22.8935996665
 20
10.9410115529
 30
0.0
 10
-22.7731278885
 20
10.905119537
 30
0.0
 10
-22.6671836866
 20
10.8434107263
 30
0.0
 10
-22.5444270521
 20
10.7434081039
 30
0.0
 10
-22.4156920336
 20
10.6001061289
 30
0.0
 10
-22.28793867
 20
10.4175488636
 30
0.0
 10
-22.1842120878
 20
10.233013234
 30
0.0
 10
-22.1047085032
 20
10.0509226957
 30
0.0
 10
-22.0520413836
 20
9.8744947781
 30
0.0
 10
-22.037456716
 20
9.7571081922
 30
0.0
 10
-22.037456716
 20
9.7010874462
 30
0.0
  0
SPLINE
  5
665
100
AcDbEntity
  8
ASSI
100
AcDbSpline
 62
7
  6
CONTINUOUS
 70
0
 71
3
 72
17
 73
13
 74
0
 42
0.0000001
 43
0.0000001
 44
0.0000000001
 40
0.0
 40
0.0
 40
0.0
 40
0.0
 40
0.0982783041
 40
0.205807973
 40
0.3221399725
 40
0.4461349382
 40
0.5765810454
 40
0.7124807375
 40
0.7824093584
 40
0.8536596835
 40
0.9262776433
 40
1.0
 40
1.0
 40
1.0
 40
1.0
 10
-22.037456716
 20
14.4989125538
 30
0.0
 10
-22.037456716
 20
14.442891797
 30
0.0
 10
-22.0520413889
 20
14.325505189
 30
0.0
 10
-22.1047085286
 20
14.1490772416
 30
0.0
 10
-22.1842121259
 20
13.9669866742
 30
0.0
 10
-22.2879387233
 20
13.7824510337
 30
0.0
 10
-22.4156920996
 20
13.5998937835
 30
0.0
 10
-22.5444271251
 20
13.4565918463
 30
0.0
 10
-22.6671837218
 20
13.3565892422
 30
0.0
 10
-22.7731278922
 20
13.294880471
 30
0.0
 10
-22.8935996426
 20
13.2589884452
 30
0.0
 10
-22.9787502201
 20
13.2620792947
 30
0.0
 10
-23.0200043096
 20
13.2700830992
 30
0.0
  0
SPLINE
  5
666
100
AcDbEntity
  8
ASSI
100
AcDbSpline
 62
250
  6
CONTINUOUS
 70
0
 71
3
 72
21
 73
17
 74
0
 42
0.0000001
 43
0.0000001
 44
0.0000000001
 40
0.0
 40
0.0
 40
0.0
 40
0.0
 40
0.0014768824
 40
0.005184438
 40
0.0112479204
 40
0.0196751502
 40
0.0435598627
 40
0.0766350502
 40
0.1185904792
 40
0.1690261785
 40
0.2274587596
 40
0.2933270216
 40
0.4447721273
 40
0.617549452
 40
0.8050254073
 40
1.0
 40
1.0
 40
1.0
 40
1.0
 10
-23.0200043096
 20
-8.8425997828
 30
0.0
 10
-23.0195119074
 20
-8.8425911878
 30
0.0
 10
-23.0188600861
 20
-8.8403568369
 30
0.0
 10
-23.0182190611
 20
-8.8371840008
 30
0.0
 10
-23.0175078057
 20
-8.8308689524
 30
0.0
 10
-23.0165132609
 20
-8.8182810525
 30
0.0
 10
-23.0154899272
 20
-8.7963715501
 30
0.0
 10
-23.0145155273
 20
-8.763461848
 30
0.0
 10
-23.0137425157
 20
-8.7216074768
 30
0.0
 10
-23.0131812558
 20
-8.6713252689
 30
0.0
 10
-23.0128452619
 20
-8.6130561089
 30
0.0
 10
-23.0126992216
 20
-8.5211076457
 30
0.0
 10
-23.0131667596
 20
-8.3910284323
 30
0.0
 10
-23.0145890671
 20
-8.2204046011
 30
0.0
 10
-23.016859984
 20
-8.0352732471
 30
0.0
 10
-23.0188699747
 20
-7.9077578916
 30
0.0
 10
-23.0200043096
 20
-7.8427520876
 30
0.0
  0
SPLINE
  5
667
100
AcDbEntity
  8
ASSI
100
AcDbSpline
 62
250
  6
CONTINUOUS
 70
0
 71
3
 72
18
 73
14
 74
0
 42
0.0000001
 43
0.0000001
 44
0.0000000001
 40
0.0
 40
0.0
 40
0.0
 40
0.0
 40
0.0057462454
 40
0.0203402259
 40
0.0442110228
 40
0.0772283326
 40
0.119111067
 40
0.1694741937
 40
0.293655449
 40
0.445023397
 40
0.6177414809
 40
0.8051412241
 40
1.0
 40
1.0
 40
1.0
 40
1.0
 10
-23.0200043096
 20
-8.8425997828
 30
0.0
 10
-23.0190452515
 20
-8.8425831217
 30
0.0
 10
-23.0177562285
 20
-8.8470425401
 30
0.0
 10
-23.0166653558
 20
-8.8532551008
 30
0.0
 10
-23.0154681351
 20
-8.8657297958
 30
0.0
 10
-23.0145262654
 20
-8.8819335979
 30
0.0
 10
-23.0137396562
 20
-8.9029277718
 30
0.0
 10
-23.0129412494
 20
-8.9390021735
 30
0.0
 10
-23.0126344893
 20
-8.9934362883
 30
0.0
 10
-23.013165462
 20
-9.0682517021
 30
0.0
 10
-23.0145910719
 20
-9.1536255213
 30
0.0
 10
-23.0168616318
 20
-9.2462377621
 30
0.0
 10
-23.0188708361
 20
-9.310016219
 30
0.0
 10
-23.0200043096
 20
-9.3425236303
 30
0.0
  0
SPLINE
  5
668
100
AcDbEntity
  8
ASSI
100
AcDbSpline
 62
7
  6
CONTINUOUS
 70
0
 71
3
 72
19
 73
15
 74
0
 42
0.0000001
 43
0.0000001
 44
0.0000000001
 40
0.0
 40
0.0
 40
0.0
 40
0.0
 40
0.1012474231
 40
0.2114204045
 40
0.3297116447
 40
0.4547947782
 40
0.5853372998
 40
0.6522990588
 40
0.7202101089
 40
0.78896492
 40
0.8584792112
 40
0.928625146
 40
0.9642065833
 40
1.0
 40
1.0
 40
1.0
 40
1.0
 10
-22.037456716
 20
-9.8129956931
 30
0.0
 10
-22.037456716
 20
-9.8785262939
 30
0.0
 10
-22.0533068438
 20
-10.0154123512
 30
0.0
 10
-22.1091773668
 20
-10.2218033429
 30
0.0
 10
-22.1916457022
 20
-10.4356089492
 30
0.0
 10
-22.296547237
 20
-10.6539183023
 30
0.0
 10
-22.4001177521
 20
-10.8354551676
 30
0.0
 10
-22.4942655487
 20
-10.9792129333
 30
0.0
 10
-22.5721425685
 20
-11.0856127589
 30
0.0
 10
-22.658854691
 20
-11.1873757924
 30
0.0
 10
-22.7578808108
 20
-11.2792642558
 30
0.0
 10
-22.8594649081
 20
-11.3361830986
 30
0.0
 10
-22.9515011327
 20
-11.3484892441
 30
0.0
 10
-22.997775649
 20
-11.340902088
 30
0.0
 10
-23.0200043096
 20
-11.334376711
 30
0.0
  0
SPLINE
  5
669
100
AcDbEntity
  8
ASSI
100
AcDbSpline
 62
7
  6
CONTINUOUS
 70
0
 71
3
 72
19
 73
15
 74
0
 42
0.0000001
 43
0.0000001
 44
0.0000000001
 40
0.0
 40
0.0
 40
0.0
 40
0.0
 40
0.0357935972
 40
0.0713751922
 40
0.1415212699
 40
0.2110355329
 40
0.2797903122
 40
0.34770135
 40
0.4146630745
 40
0.5452054673
 40
0.6702881239
 40
0.7885792073
 40
0.8987524543
 40
1.0
 40
1.0
 40
1.0
 40
1.0
 10
-23.0200043096
 20
-12.865623289
 30
0.0
 10
-22.9977755371
 20
-12.8590978792
 30
0.0
 10
-22.9515007848
 20
-12.8515107137
 30
0.0
 10
-22.8594642816
 20
-12.8638171683
 30
0.0
 10
-22.7578801086
 20
-12.9207362068
 30
0.0
 10
-22.6588541269
 20
-13.0126249
 30
0.0
 10
-22.5721420087
 20
-13.1143878663
 30
0.0
 10
-22.4942651175
 20
-13.2207877247
 30
0.0
 10
-22.4001173519
 20
-13.3645453712
 30
0.0
 10
-22.2965471804
 20
-13.5460819564
 30
0.0
 10
-22.1916458261
 20
-13.7643908404
 30
0.0
 10
-22.1091775313
 20
-13.9781962045
 30
0.0
 10
-22.0533068936
 20
-14.1845873198
 30
0.0
 10
-22.037456716
 20
-14.3214736272
 30
0.0
 10
-22.037456716
 20
-14.3870043069
 30
0.0
  0
SPLINE
  5
66A
100
AcDbEntity
  8
ASSI
100
AcDbSpline
 62
250
  6
CONTINUOUS
 70
0
 71
3
 72
21
 73
17
 74
0
 42
0.0000001
 43
0.0000001
 44
0.0000000001
 40
0.0
 40
0.0
 40
0.0
 40
0.0
 40
0.0014768824
 40
0.005184438
 40
0.0112479204
 40
0.0196751502
 40
0.0435598627
 40
0.0766350502
 40
0.1185904792
 40
0.1690261785
 40
0.2274587596
 40
0.2933270216
 40
0.4447721273
 40
0.617549452
 40
0.8050254073
 40
1.0
 40
1.0
 40
1.0
 40
1.0
 10
-23.0200043096
 20
-19.3488485621
 30
0.0
 10
-23.0195119074
 20
-19.3488399671
 30
0.0
 10
-23.0188600861
 20
-19.3466056162
 30
0.0
 10
-23.0182190611
 20
-19.3434327801
 30
0.0
 10
-23.0175078057
 20
-19.3371177317
 30
0.0
 10
-23.0165132609
 20
-19.3245298318
 30
0.0
 10
-23.0154899272
 20
-19.3026203294
 30
0.0
 10
-23.0145155273
 20
-19.2697106273
 30
0.0
 10
-23.0137425157
 20
-19.2278562561
 30
0.0
 10
-23.0131812558
 20
-19.1775740482
 30
0.0
 10
-23.0128452619
 20
-19.1193048882
 30
0.0
 10
-23.0126992216
 20
-19.027356425
 30
0.0
 10
-23.0131667596
 20
-18.8972772116
 30
0.0
 10
-23.0145890671
 20
-18.7266533804
 30
0.0
 10
-23.016859984
 20
-18.5415220264
 30
0.0
 10
-23.0188699747
 20
-18.4140066709
 30
0.0
 10
-23.0200043096
 20
-18.3490008669
 30
0.0
  0
SPLINE
  5
66B
100
AcDbEntity
  8
ASSI
100
AcDbSpline
 62
7
  6
CONTINUOUS
 70
0
 71
3
 72
12
 73
8
 74
0
 42
0.0000001
 43
0.0000001
 44
0.0000000001
 40
0.0
 40
0.0
 40
0.0
 40
0.0
 40
0.2500160731
 40
0.5000274027
 40
0.750019781
 40
0.8750210095
 40
1.0
 40
1.0
 40
1.0
 40
1.0
 10
-23.0200043096
 20
13.2700830992
 30
0.0
 10
-22.7919331753
 20
13.2258344737
 30
0.0
 10
-22.3365047398
 20
13.1335237752
 30
0.0
 10
-21.6569762479
 20
12.9784927908
 30
0.0
 10
-21.0956189599
 20
12.8281421119
 30
0.0
 10
-20.6540769956
 20
12.6833444376
 30
0.0
 10
-20.4376772395
 20
12.5979536029
 30
0.0
 10
-20.3322209941
 20
12.5493089089
 30
0.0
  0
SPLINE
  5
66C
100
AcDbEntity
  8
ASSI
100
AcDbSpline
 62
250
  6
CONTINUOUS
 70
0
 71
3
 72
18
 73
14
 74
0
 42
0.0000001
 43
0.0000001
 44
0.0000000001
 40
0.0
 40
0.0
 40
0.0
 40
0.0
 40
0.1949907288
 40
0.3824816546
 40
0.5552730123
 40
0.706730507
 40
0.8310411097
 40
0.8814808999
 40
0.9234397994
 40
0.9565177262
 40
0.9804043724
 40
0.9948933388
 40
1.0
 40
1.0
 40
1.0
 40
1.0
 10
-31.5461829192
 20
-9.4913486316
 30
0.0
 10
-31.5467500875
 20
-9.4588456822
 30
0.0
 10
-31.5477553661
 20
-9.39508757
 30
0.0
 10
-31.5488896299
 20
-9.302523728
 30
0.0
 10
-31.5496046301
 20
-9.2172059278
 30
0.0
 10
-31.5498617062
 20
-9.1424419542
 30
0.0
 10
-31.5497282217
 20
-9.0880149061
 30
0.0
 10
-31.5492978335
 20
-9.0519561633
 30
0.0
 10
-31.5489732621
 20
-9.030893228
 30
0.0
 10
-31.5483226679
 20
-9.0147955638
 30
0.0
 10
-31.5481389303
 20
-9.0020050067
 30
0.0
 10
-31.5468634489
 20
-8.9963677583
 30
0.0
 10
-31.5470341471
 20
-8.9914396422
 30
0.0
 10
-31.5461829192
 20
-8.991424784
 30
0.0
  0
SPLINE
  5
66D
100
AcDbEntity
  8
ASSI
100
AcDbSpline
 62
7
  6
CONTINUOUS
 70
0
 71
3
 72
14
 73
10
 74
0
 42
0.0000001
 43
0.0000001
 44
0.0000000001
 40
0.0
 40
0.0
 40
0.0
 40
0.0
 40
0.3856230656
 40
0.5569578531
 40
0.706027986
 40
0.8278640228
 40
0.9185522881
 40
0.9755952524
 40
1.0
 40
1.0
 40
1.0
 40
1.0
 10
-20.3113099932
 20
-1.2556173547
 30
0.0
 10
-20.2757436036
 20
-1.2558531489
 30
0.0
 10
-20.2243485459
 20
-1.2568626101
 30
0.0
 10
-20.1593514441
 20
-1.2598219658
 30
0.0
 10
-20.1185174505
 20
-1.2626177544
 30
0.0
 10
-20.0856858845
 20
-1.2657358489
 30
0.0
 10
-20.0601820403
 20
-1.2695989341
 30
0.0
 10
-20.0463700936
 20
-1.2726726553
 30
0.0
 10
-20.037456716
 20
-1.2766217453
 30
0.0
 10
-20.037456716
 20
-1.2788726684
 30
0.0
  0
SPLINE
  5
66E
100
AcDbEntity
  8
ASSI
100
AcDbSpline
 62
7
  6
CONTINUOUS
 70
0
 71
3
 72
14
 73
10
 74
0
 42
0.0000001
 43
0.0000001
 44
0.0000000001
 40
0.0
 40
0.0
 40
0.0
 40
0.0
 40
0.3856230656
 40
0.5569578531
 40
0.706027986
 40
0.8278640228
 40
0.9185522881
 40
0.9755952524
 40
1.0
 40
1.0
 40
1.0
 40
1.0
 10
-20.3113099932
 20
-2.1443826453
 30
0.0
 10
-20.2757436036
 20
-2.1441468511
 30
0.0
 10
-20.2243485459
 20
-2.1431373899
 30
0.0
 10
-20.1593514441
 20
-2.1401780342
 30
0.0
 10
-20.1185174505
 20
-2.1373822456
 30
0.0
 10
-20.0856858845
 20
-2.1342641511
 30
0.0
 10
-20.0601820403
 20
-2.1304010659
 30
0.0
 10
-20.0463700936
 20
-2.1273273447
 30
0.0
 10
-20.037456716
 20
-2.1233782547
 30
0.0
 10
-20.037456716
 20
-2.1211273316
 30
0.0
  0
SPLINE
  5
66F
100
AcDbEntity
  8
ASSI
100
AcDbSpline
 62
7
  6
CONTINUOUS
 70
0
 71
3
 72
14
 73
10
 74
0
 42
0.0000001
 43
0.0000001
 44
0.0000000001
 40
0.0
 40
0.0
 40
0.0
 40
0.0
 40
0.3856230656
 40
0.5569578531
 40
0.706027986
 40
0.8278640228
 40
0.9185522881
 40
0.9755952524
 40
1.0
 40
1.0
 40
1.0
 40
1.0
 10
-20.3113099932
 20
12.5443826453
 30
0.0
 10
-20.2757436036
 20
12.5441468511
 30
0.0
 10
-20.2243485459
 20
12.5431373899
 30
0.0
 10
-20.1593514441
 20
12.5401780342
 30
0.0
 10
-20.1185174505
 20
12.5373822456
 30
0.0
 10
-20.0856858845
 20
12.5342641511
 30
0.0
 10
-20.0601820403
 20
12.5304010659
 30
0.0
 10
-20.0463700936
 20
12.5273273447
 30
0.0
 10
-20.037456716
 20
12.5233782547
 30
0.0
 10
-20.037456716
 20
12.5211273316
 30
0.0
  0
SPLINE
  5
670
100
AcDbEntity
  8
ASSI
100
AcDbSpline
 62
7
  6
CONTINUOUS
 70
0
 71
3
 72
14
 73
10
 74
0
 42
0.0000001
 43
0.0000001
 44
0.0000000001
 40
0.0
 40
0.0
 40
0.0
 40
0.0
 40
0.3856230656
 40
0.5569578531
 40
0.706027986
 40
0.8278640228
 40
0.9185522881
 40
0.9755952524
 40
1.0
 40
1.0
 40
1.0
 40
1.0
 10
-20.3113099932
 20
11.6556173547
 30
0.0
 10
-20.2757436036
 20
11.6558531489
 30
0.0
 10
-20.2243485459
 20
11.6568626101
 30
0.0
 10
-20.1593514441
 20
11.6598219658
 30
0.0
 10
-20.1185174505
 20
11.6626177544
 30
0.0
 10
-20.0856858845
 20
11.6657358489
 30
0.0
 10
-20.0601820403
 20
11.6695989341
 30
0.0
 10
-20.0463700936
 20
11.6726726553
 30
0.0
 10
-20.037456716
 20
11.6766217453
 30
0.0
 10
-20.037456716
 20
11.6788726684
 30
0.0
  0
SPLINE
  5
671
100
AcDbEntity
  8
ASSI
100
AcDbSpline
 62
7
  6
CONTINUOUS
 70
0
 71
3
 72
8
 73
4
 74
0
 42
0.0000001
 43
0.0000001
 44
0.0000000001
 40
0.0
 40
0.0
 40
0.0
 40
0.0
 40
1.0
 40
1.0
 40
1.0
 40
1.0
 10
-20.3113099932
 20
11.6556173547
 30
0.0
 10
-20.3184709812
 20
11.6555698795
 30
0.0
 10
-20.3257183218
 20
11.6536906338
 30
0.0
 10
-20.3322209941
 20
11.6506910911
 30
0.0
  0
SPLINE
  5
672
100
AcDbEntity
  8
ASSI
100
AcDbSpline
 62
7
  6
CONTINUOUS
 70
0
 71
3
 72
8
 73
4
 74
0
 42
0.0000001
 43
0.0000001
 44
0.0000000001
 40
0.0
 40
0.0
 40
0.0
 40
0.0
 40
1.0
 40
1.0
 40
1.0
 40
1.0
 10
-20.3113099932
 20
12.5443826453
 30
0.0
 10
-20.3184709812
 20
12.5444301205
 30
0.0
 10
-20.3257183218
 20
12.5463093662
 30
0.0
 10
-20.3322209941
 20
12.5493089089
 30
0.0
  0
SPLINE
  5
673
100
AcDbEntity
  8
ASSI
100
AcDbSpline
 62
250
  6
CONTINUOUS
 70
0
 71
3
 72
21
 73
17
 74
0
 42
0.0000001
 43
0.0000001
 44
0.0000000001
 40
0.0
 40
0.0
 40
0.0
 40
0.0
 40
0.1949745927
 40
0.382450548
 40
0.5552278727
 40
0.7066729784
 40
0.7725412404
 40
0.8309738215
 40
0.8814095208
 40
0.9233649498
 40
0.9564401373
 40
0.9803248498
 40
0.9887520796
 40
0.994815562
 40
0.9985231176
 40
1.0
 40
1.0
 40
1.0
 40
1.0
 10
-31.5461829192
 20
-7.9915770888
 30
0.0
 10
-31.5450485843
 20
-8.0565828928
 30
0.0
 10
-31.5430385937
 20
-8.1840982483
 30
0.0
 10
-31.5407676768
 20
-8.3692296024
 30
0.0
 10
-31.5393453693
 20
-8.5398534336
 30
0.0
 10
-31.5388778313
 20
-8.6699326469
 30
0.0
 10
-31.5390238715
 20
-8.7618811101
 30
0.0
 10
-31.5393598655
 20
-8.8201502701
 30
0.0
 10
-31.5399211253
 20
-8.870432478
 30
0.0
 10
-31.540694137
 20
-8.9122868492
 30
0.0
 10
-31.5416685368
 20
-8.9451965513
 30
0.0
 10
-31.5426918705
 20
-8.9671060537
 30
0.0
 10
-31.5436864154
 20
-8.9796939536
 30
0.0
 10
-31.5443976708
 20
-8.986009002
 30
0.0
 10
-31.5450386958
 20
-8.9891818381
 30
0.0
 10
-31.545690517
 20
-8.9914161891
 30
0.0
 10
-31.5461829192
 20
-8.991424784
 30
0.0
  0
SPLINE
  5
674
100
AcDbEntity
  8
ASSI
100
AcDbSpline
 62
7
  6
CONTINUOUS
 70
0
 71
3
 72
8
 73
4
 74
0
 42
0.0000001
 43
0.0000001
 44
0.0000000001
 40
0.0
 40
0.0
 40
0.0
 40
0.0
 40
1.0
 40
1.0
 40
1.0
 40
1.0
 10
-20.3113099932
 20
-2.1443826453
 30
0.0
 10
-20.3184709812
 20
-2.1444301205
 30
0.0
 10
-20.3257183218
 20
-2.1463093662
 30
0.0
 10
-20.3322209941
 20
-2.1493089089
 30
0.0
  0
SPLINE
  5
675
100
AcDbEntity
  8
ASSI
100
AcDbSpline
 62
7
  6
CONTINUOUS
 70
0
 71
3
 72
8
 73
4
 74
0
 42
0.0000001
 43
0.0000001
 44
0.0000000001
 40
0.0
 40
0.0
 40
0.0
 40
0.0
 40
1.0
 40
1.0
 40
1.0
 40
1.0
 10
-20.3113099932
 20
-1.2556173547
 30
0.0
 10
-20.3184709812
 20
-1.2555698795
 30
0.0
 10
-20.3257183218
 20
-1.2536906338
 30
0.0
 10
-20.3322209941
 20
-1.2506910911
 30
0.0
  0
SPLINE
  5
676
100
AcDbEntity
  8
ASSI
100
AcDbSpline
 62
250
  6
CONTINUOUS
 70
0
 71
3
 72
9
 73
5
 74
0
 42
0.0000001
 43
0.0000001
 44
0.0000000001
 40
0.0
 40
0.0
 40
0.0
 40
0.0
 40
0.2143122828
 40
1.0
 40
1.0
 40
1.0
 40
1.0
 10
-33.0200043096
 20
-18.9771191671
 30
0.0
 10
-33.019487983
 20
-18.8761079215
 30
0.0
 10
-33.0179423695
 20
-18.404776308
 30
0.0
 10
-33.0186657425
 20
-17.9334395438
 30
0.0
 10
-33.0200043096
 20
-17.5631209963
 30
0.0
  0
SPLINE
  5
677
100
AcDbEntity
  8
ASSI
100
AcDbSpline
 62
250
  6
CONTINUOUS
 70
0
 71
3
 72
12
 73
8
 74
0
 42
0.0000001
 43
0.0000001
 44
0.0000000001
 40
0.0
 40
0.0
 40
0.0
 40
0.0
 40
0.2875345786
 40
0.5541166836
 40
0.7887712955
 40
0.8962306952
 40
1.0
 40
1.0
 40
1.0
 40
1.0
 10
-33.0200043096
 20
-18.9771191671
 30
0.0
 10
-32.8928073002
 20
-18.9755492259
 30
0.0
 10
-32.6465656791
 20
-18.9394825021
 30
0.0
 10
-32.3249018829
 20
-18.7913182402
 30
0.0
 10
-32.12958547
 20
-18.5929049678
 30
0.0
 10
-32.0506309427
 20
-18.4099449349
 30
0.0
 10
-32.037456716
 20
-18.3160281274
 30
0.0
 10
-32.037456716
 20
-18.2701200817
 30
0.0
  0
SPLINE
  5
678
100
AcDbEntity
  8
ASSI
100
AcDbSpline
 62
250
  6
CONTINUOUS
 70
0
 71
3
 72
12
 73
8
 74
0
 42
0.0000001
 43
0.0000001
 44
0.0000000001
 40
0.0
 40
0.0
 40
0.0
 40
0.0
 40
0.2875345786
 40
0.5541166836
 40
0.7887712955
 40
0.8962306952
 40
1.0
 40
1.0
 40
1.0
 40
1.0
 10
-33.0200043096
 20
-19.2305506016
 30
0.0
 10
-32.8928073002
 20
-19.2289806604
 30
0.0
 10
-32.6465656791
 20
-19.1929139367
 30
0.0
 10
-32.3249018829
 20
-19.0447496748
 30
0.0
 10
-32.12958547
 20
-18.8463364024
 30
0.0
 10
-32.0506309427
 20
-18.6633763695
 30
0.0
 10
-32.037456716
 20
-18.5694595619
 30
0.0
 10
-32.037456716
 20
-18.5235515162
 30
0.0
  0
SPLINE
  5
679
100
AcDbEntity
  8
ASSI
100
AcDbSpline
 62
250
  6
CONTINUOUS
 70
0
 71
3
 72
18
 73
14
 74
0
 42
0.0000001
 43
0.0000001
 44
0.0000000001
 40
0.0
 40
0.0
 40
0.0
 40
0.0
 40
0.0042859035
 40
0.0166672717
 40
0.0372076212
 40
0.0658700248
 40
0.1025904114
 40
0.147282766
 40
0.2601366104
 40
0.4033497809
 40
0.5755473541
 40
0.7750681756
 40
1.0
 40
1.0
 40
1.0
 40
1.0
 10
-33.0200043096
 20
-19.5233992113
 30
0.0
 10
-33.0195858973
 20
-19.5233919079
 30
0.0
 10
-33.0198197707
 20
-19.5208919072
 30
0.0
 10
-33.0191463765
 20
-19.5181036277
 30
0.0
 10
-33.0191685136
 20
-19.5116208437
 30
0.0
 10
-33.0188706074
 20
-19.503441638
 30
0.0
 10
-33.0187619956
 20
-19.4926145454
 30
0.0
 10
-33.0185866149
 20
-19.473684892
 30
0.0
 10
-33.0185438614
 20
-19.4442939126
 30
0.0
 10
-33.0186438901
 20
-19.4024887915
 30
0.0
 10
-33.0189278682
 20
-19.3522078045
 30
0.0
 10
-33.0193834087
 20
-19.2939538618
 30
0.0
 10
-33.0197797975
 20
-19.252511816
 30
0.0
 10
-33.0200043096
 20
-19.2305506016
 30
0.0
  0
SPLINE
  5
67A
100
AcDbEntity
  8
ASSI
100
AcDbSpline
 62
250
  6
CONTINUOUS
 70
0
 71
3
 72
21
 73
17
 74
0
 42
0.0000001
 43
0.0000001
 44
0.0000000001
 40
0.0
 40
0.0
 40
0.0
 40
0.0
 40
0.0014768824
 40
0.005184438
 40
0.0112479204
 40
0.0196751502
 40
0.0435598627
 40
0.0766350503
 40
0.1185904792
 40
0.1690261785
 40
0.2274587596
 40
0.2933270216
 40
0.4447721273
 40
0.617549452
 40
0.8050254073
 40
1.0
 40
1.0
 40
1.0
 40
1.0
 10
-31.5461829192
 20
-19.4976735633
 30
0.0
 10
-31.545690517
 20
-19.4976649684
 30
0.0
 10
-31.5450386958
 20
-19.4954306174
 30
0.0
 10
-31.5443976708
 20
-19.4922577813
 30
0.0
 10
-31.5436864154
 20
-19.4859427329
 30
0.0
 10
-31.5426918705
 20
-19.473354833
 30
0.0
 10
-31.5416685368
 20
-19.4514453306
 30
0.0
 10
-31.540694137
 20
-19.4185356285
 30
0.0
 10
-31.5399211253
 20
-19.3766812573
 30
0.0
 10
-31.5393598655
 20
-19.3263990494
 30
0.0
 10
-31.5390238715
 20
-19.2681298894
 30
0.0
 10
-31.5388778313
 20
-19.1761814262
 30
0.0
 10
-31.5393453693
 20
-19.0461022128
 30
0.0
 10
-31.5407676768
 20
-18.8754783816
 30
0.0
 10
-31.5430385937
 20
-18.6903470276
 30
0.0
 10
-31.5450485843
 20
-18.5628316721
 30
0.0
 10
-31.5461829192
 20
-18.4978258681
 30
0.0
  0
ELLIPSE
  5
67B
100
AcDbEntity
  8
RACCORDO
100
AcDbEllipse
 62
7
  6
CONTINUOUS
 10
10.5896009841
 20
21.6287759347
 30
0.0
 11
0.2238673116
 21
0.4480418466
 31
0.0
 40
0.9982882662
 41
-1.1067376861
 42
0.4626886447
  0
ELLIPSE
  5
67C
100
AcDbEntity
  8
RACCORDO
100
AcDbEllipse
 62
7
  6
CONTINUOUS
 10
10.5896009841
 20
-21.6287759347
 30
0.0
 11
-0.2238673116
 21
0.4480418466
 31
0.0
 40
0.9982882662
 41
-3.6042812983
 42
-2.0348549675
  0
ELLIPSE
  5
67D
100
AcDbEntity
  8
RACCORDO
100
AcDbEllipse
 62
7
  6
CONTINUOUS
 10
-10.5896009841
 20
21.6287759347
 30
0.0
 11
-0.2238673116
 21
0.4480418466
 31
0.0
 40
0.9982882662
 41
-0.4626886447
 42
1.1067376861
  0
ELLIPSE
  5
67E
100
AcDbEntity
  8
RACCORDO
100
AcDbEllipse
 62
7
  6
CONTINUOUS
 10
-10.5896009841
 20
-21.6287759347
 30
0.0
 11
0.2238673116
 21
0.4480418466
 31
0.0
 40
0.9982882662
 41
-4.2483303396
 42
-2.6789040089
  0
ELLIPSE
  5
67F
100
AcDbEntity
  8
0
100
AcDbEllipse
 62
7
  6
CONTINUOUS
 10
1.2
 20
22.3842776662
 30
0.0
 11
0.2
 21
0.0
 31
0.0
 40
0.0524077793
 41
-3.1415926536
 42
-1.5707963268
  0
ELLIPSE
  5
680
100
AcDbEntity
  8
0
100
AcDbEllipse
 62
7
  6
CONTINUOUS
 10
-1.2
 20
22.3842776662
 30
0.0
 11
0.2
 21
-0.0
 31
0.0
 40
0.0524077793
 41
-1.5707963268
 42
0.0
  0
ELLIPSE
  5
681
100
AcDbEntity
  8
0
100
AcDbEllipse
 62
7
  6
CONTINUOUS
 10
1.2
 20
-22.3842776662
 30
0.0
 11
0.2
 21
0.0
 31
0.0
 40
0.0524077793
 41
1.5707963268
 42
3.1415926536
  0
ELLIPSE
  5
682
100
AcDbEntity
  8
0
100
AcDbEllipse
 62
7
  6
CONTINUOUS
 10
-1.2
 20
-22.3842776662
 30
0.0
 11
0.2
 21
-0.0
 31
0.0
 40
0.0524077793
 41
0.0
 42
1.5707963268
  0
ELLIPSE
  5
683
100
AcDbEntity
  8
0
100
AcDbEllipse
 62
7
  6
CONTINUOUS
 10
9.8927234819
 20
22.3344902759
 30
0.0
 11
0.25
 21
0.0
 31
0.0
 40
0.0524077793
 41
-1.5707963268
 42
-0.0058177642
  0
ELLIPSE
  5
684
100
AcDbEntity
  8
0
100
AcDbEllipse
 62
7
  6
CONTINUOUS
 10
-7.5072765181
 20
22.3344902759
 30
0.0
 11
0.25
 21
0.0
 31
0.0
 40
0.0524077793
 41
-1.5707963268
 42
-0.0058177642
  0
ELLIPSE
  5
685
100
AcDbEntity
  8
0
100
AcDbEllipse
 62
7
  6
CONTINUOUS
 10
10.6228684853
 20
21.8207021581
 30
0.0
 11
0.1582391023
 21
0.4751033573
 31
0.0
 40
0.9984778551
 41
-1.2488325878
 42
0.3210503496
  0
ELLIPSE
  5
686
100
AcDbEntity
  8
0
100
AcDbEllipse
 62
7
  6
CONTINUOUS
 10
-10.6228684853
 20
21.8207021581
 30
0.0
 11
-0.1582391023
 21
0.4751033573
 31
0.0
 40
0.9984778551
 41
-0.3210503496
 42
1.2488325878
  0
ELLIPSE
  5
687
100
AcDbEntity
  8
0
100
AcDbEllipse
 62
7
  6
CONTINUOUS
 10
-10.6228684853
 20
-21.8207021581
 30
0.0
 11
-0.1582391023
 21
-0.4751033573
 31
0.0
 40
0.9984778551
 41
-1.2488325878
 42
0.3210503496
  0
ELLIPSE
  5
688
100
AcDbEntity
  8
0
100
AcDbEllipse
 62
7
  6
CONTINUOUS
 10
10.6228684853
 20
-21.8207021581
 30
0.0
 11
-0.1582391023
 21
0.4751033573
 31
0.0
 40
0.9984778551
 41
-3.4626430032
 42
-1.8927600658
  0
ELLIPSE
  5
689
100
AcDbEntity
  8
0
100
AcDbEllipse
 62
7
  6
CONTINUOUS
 10
7.5072765181
 20
-22.3344902759
 30
0.0
 11
0.25
 21
0.0
 31
0.0
 40
0.0524077793
 41
1.5707963268
 42
3.1357748894
  0
ELLIPSE
  5
68A
100
AcDbEntity
  8
0
100
AcDbEllipse
 62
7
  6
CONTINUOUS
 10
-9.8927234819
 20
-22.3344902759
 30
0.0
 11
0.25
 21
0.0
 31
0.0
 40
0.0524077793
 41
1.5707963268
 42
3.1357748894
  0
ELLIPSE
  5
68B
100
AcDbEntity
  8
RACCORDO
100
AcDbEllipse
 62
7
  6
CONTINUOUS
 10
-11.1316721818
 20
18.4150826109
 30
0.0
 11
-0.0
 21
0.5
 31
0.0
 40
0.0174550649
 41
-2.8797932658
 42
-1.5707963268
  0
ELLIPSE
  5
68C
100
AcDbEntity
  8
RACCORDO
100
AcDbEllipse
 62
7
  6
CONTINUOUS
 10
11.1316721818
 20
-18.4150826109
 30
0.0
 11
-0.0
 21
0.5
 31
0.0
 40
0.0174550649
 41
0.2617993878
 42
1.5707963268
  0
ELLIPSE
  5
68D
100
AcDbEntity
  8
RACCORDO
100
AcDbEllipse
 62
7
  6
CONTINUOUS
 10
11.1316721818
 20
18.4150826109
 30
0.0
 11
0.0
 21
0.5
 31
0.0
 40
0.0174550649
 41
-4.7123889804
 42
-3.4033920414
  0
ELLIPSE
  5
68E
100
AcDbEntity
  8
RACCORDO
100
AcDbEllipse
 62
7
  6
CONTINUOUS
 10
-11.1316721818
 20
-18.4150826109
 30
0.0
 11
0.0
 21
0.5
 31
0.0
 40
0.0174550649
 41
-1.5707963268
 42
-0.2617993878
  0
ELLIPSE
  5
68F
100
AcDbEntity
  8
DRAFT
100
AcDbEllipse
 62
7
  6
CONTINUOUS
 10
-38.537456716
 20
-21.9748361578
 30
0.0
 11
0.3546425507
 21
0.3568377408
 31
0.0
 40
0.9877342685
 41
-0.2339321818
 42
0.7710302454
  0
ELLIPSE
  5
690
100
AcDbEntity
  8
0
100
AcDbEllipse
 62
7
  6
CONTINUOUS
 10
26.81097296
 20
23.15
 30
0.0
 11
85.9426996401
 21
-0.0
 31
0.0
 40
0.0058178298
 41
2.5196231925
 42
2.6791261215
  0
ELLIPSE
  5
691
100
AcDbEntity
  8
0
100
AcDbEllipse
 62
7
  6
CONTINUOUS
 10
26.81097296
 20
23.15
 30
0.0
 11
85.9426996401
 21
-0.0
 31
0.0
 40
0.0058178298
 41
-2.6905658418
 42
-2.5196231925
  0
ELLIPSE
  5
692
100
AcDbEntity
  8
0
100
AcDbEllipse
 62
7
  6
CONTINUOUS
 10
26.81097296
 20
-23.15
 30
0.0
 11
85.9426996401
 21
0.0
 31
0.0
 40
0.0058178298
 41
2.5196231925
 42
2.6905658418
  0
ELLIPSE
  5
693
100
AcDbEntity
  8
0
100
AcDbEllipse
 62
7
  6
CONTINUOUS
 10
26.81097296
 20
-23.15
 30
0.0
 11
85.9426996401
 21
0.0
 31
0.0
 40
0.0058178298
 41
-2.6791261215
 42
-2.5196231925
  0
ELLIPSE
  5
694
100
AcDbEntity
  8
DRAFT
100
AcDbEllipse
 62
7
  6
CONTINUOUS
 10
-38.537456716
 20
21.9748361578
 30
0.0
 11
-0.3546425507
 21
0.3568377408
 31
0.0
 40
0.9877342685
 41
-3.912622899
 42
-2.9076604718
  0
ELLIPSE
  5
695
100
AcDbEntity
  8
0
100
AcDbEllipse
 62
250
  6
CONTINUOUS
 10
-35.570001716
 20
-3.3
 30
0.0
 11
0.404734
 21
-0.0
 31
0.0
 40
1.0
 41
1.5707963268
 42
5.5757019351
  0
ELLIPSE
  5
696
100
AcDbEntity
  8
0
100
AcDbEllipse
 62
250
  6
CONTINUOUS
 10
-34.504911716
 20
-3.3
 30
0.0
 11
0.0
 21
0.404734
 31
0.0
 40
1.0
 41
3.1415926536
 42
7.1464982619
  0
ENDSEC
  0
SECTION
  2
OBJECTS
  0
DICTIONARY
  5
C
100
AcDbDictionary
280
0
281
1
  3
ACAD_GROUP
350
D
  3
ACAD_MLINESTYLE
350
17
  3
ACAD_LAYOUT
350
1A
  3
ACAD_PLOTSETTINGS
350
19
  3
ACAD_PLOTSTYLENAME
350
E
  0
DICTIONARY
  5
D
102
{ACAD_REACTORS
330
C
102
}
100
AcDbDictionary
280
0
281
1
  0
ACDBDICTIONARYWDFLT
  5
E
102
{ACAD_REACTORS
330
C
102
}
100
AcDbDictionary
281
1
  3
Normal
350
F
100
AcDbDictionaryWithDefault
340
F
  0
DICTIONARY
  5
17
102
{ACAD_REACTORS
330
C
102
}
100
AcDbDictionary
280
0
281
1
  3
Standard
350
18
  0
DICTIONARY
  5
19
102
{ACAD_REACTORS
330
C
102
}
100
AcDbDictionary
281
1
  0
DICTIONARY
  5
1A
102
{ACAD_REACTORS
330
C
102
}
100
AcDbDictionary
281
1
  3
Model
350
697
  3
Layout1
350
698
  0
ACDBPLACEHOLDER
  5
F
102
{ACAD_REACTORS
330
E
102
}
  0
MLINESTYLE
  5
18
102
{ACAD_REACTORS
330
17
102
}
100
AcDbMlineStyle
  2
STANDARD
 70
0
  3

 62
256
 51
90.0
 52
90.0
 71
2
 49
0.5
 62
256
  6
BYLAYER
 49
-0.5
 62
256
  6
BYLAYER
  0
LAYOUT
  5
697
102
{ACAD_REACTORS
330
1A
102
}
100
AcDbPlotSettings
  1

  2
none_device
  4
ANSI_C_(22.00_x_17.00_Inches)
  6

 40
0.0
 41
0.0
 42
0.0
 43
0.0
 44
558.8
 45
431.8
 46
0.0
 47
0.0
 48
0.0
 49
0.0
140
0.0
141
0.0
142
1.0
143
1.0
 70
1024
 72
1
 73
0
 74
0
  7

 75
0
147
1.0
148
0.0
149
0.0
100
AcDbLayout
  1
Model
 70
0
 71
0
 10
0.0
 20
0.0
 11
558.8
 21
431.8
 12
0.0
 22
0.0
 32
0.0
 14
0.0
 24
0.0
 34
0.0
 15
0.0
 25
0.0
 35
0.0
146
0.0
 13
0.0
 23
0.0
 33
0.0
 16
1.0
 26
0.0
 36
0.0
 17
0.0
 27
1.0
 37
0.0
 76
0
330
222
345
0
346
0
  0
LAYOUT
  5
698
102
{ACAD_REACTORS
330
1A
102
}
100
AcDbPlotSettings
  1

  2
none_device
  4
ANSI_C_(22.00_x_17.00_Inches)
  6

 40
0.0
 41
0.0
 42
0.0
 43
0.0
 44
558.8
 45
431.8
 46
0.0
 47
0.0
 48
0.0
 49
0.0
140
0.0
141
0.0
142
1.0
143
1.0
 70
0
 72
1
 73
0
 74
0
  7

 75
0
147
1.0
148
0.0
149
0.0
100
AcDbLayout
  1
Layout1
 70
0
 71
1
 10
0.0
 20
0.0
 11
558.8
 21
431.8
 12
0.0
 22
0.0
 32
0.0
 14
0.0
 24
0.0
 34
0.0
 15
0.0
 25
0.0
 35
0.0
146
0.0
 13
0.0
 23
0.0
 33
0.0
 16
1.0
 26
0.0
 36
0.0
 17
0.0
 27
1.0
 37
0.0
 76
0
330
223
345
0
346
0
  0
ENDSEC
  0
EOF
