  0
SECTION
  2
HEADER
  9
$ACADVER
  1
AC1015
  9
$DWGCODEPAGE
  3
ANSI_1252
  9
$EXTMAX
 10
297.0
 20
210.0
 30
0.0
  9
$EXTMIN
 10
0.0
 20
0.0
 30
0.0
  9
$LIMMIN
 10
0.0
 20
0.0
  9
$LIMMAX
 10
297.0
 20
210.0
  9
$VIEWCTR
 10
148.5
 20
105.0
  9
$VIEWSIZE
 40
210.0
  9
$CLAYER
  8
0
  9
$LTSCALE
 40
16.335
  9
$CELTYPE
  6
BYLAYER
  9
$DIMSCALE
 40
1.0
  9
$DIMASZ
 40
3.0
  9
$DIMEXO
 40
1.85625
  9
$DIMDLI
 40
11.286
  9
$DIMEXE
 40
5.346
  9
$DIMCEN
 40
2.673
  9
$DIMLFAC
 40
1.0
  9
$DIMBLK
  1
_FILLED
  9
$DIMTXT
 40
3.0
  9
$DIMTOL
 70
1
  9
$DIMLIM
 70
0
  9
$DIMTFAC
 40
1.0
  9
$DIMTP
 40
0.01
  9
$DIMTM
 40
0.01
  9
$PDMODE
 70
3
  9
$PDSIZE
 40
3.0
  9
$HANDSEED
  5
2F8
  9
$TILEMODE
 70
1
  9
$MEASUREMENT
 70
1
  9
$INSUNITS
 70
4
  0
ENDSEC
  0
SECTION
  2
CLASSES
  0
CLASS
  1
ACDBDICTIONARYWDFLT
  2
AcDbDictionaryWithDefault
  3
AutoCAD 2000
 90
0
280
0
281
0
  0
CLASS
  1
ACDBPLACEHOLDER
  2
AcDbPlaceHolder
  3
AutoCAD 2000
 90
0
280
0
281
0
  0
CLASS
  1
LAYOUT
  2
AcDbLayout
  3
AutoCAD 2000
 90
0
280
0
281
0
  0
ENDSEC
  0
SECTION
  2
TABLES
  0
TABLE
  2
VPORT
  5
8
100
AcDbSymbolTable
 70
2
  0
VPORT
  5
1F4
100
AcDbSymbolTableRecord
100
AcDbViewportTableRecord
  2
*ACTIVE
 70
0
 10
0.0
 20
0.0
 11
1.0
 21
1.0
 12
148.5
 22
105.0
 13
0.0
 23
0.0
 14
1.0
 24
1.0
 15
0.0
 25
0.0
 16
0.0
 26
0.0
 36
1.0
 17
0.0
 27
0.0
 37
0.0
 40
210.0
 41
1.4142857143
 42
50.0
 43
0.0
 44
0.0
 50
0.0
 51
0.0
 71
0
 72
100
 73
1
 74
1
 75
0
 76
0
 77
0
 78
0
  0
ENDTAB
  0
TABLE
  2
LTYPE
  5
5
100
AcDbSymbolTable
 70
6
  0
LTYPE
  5
14
100
AcDbSymbolTableRecord
100
AcDbLinetypeTableRecord
  2
BYBLOCK
 70
0
  3

 72
65
 73
0
 40
0.0
  0
LTYPE
  5
15
100
AcDbSymbolTableRecord
100
AcDbLinetypeTableRecord
  2
BYLAYER
 70
0
  3

 72
65
 73
0
 40
0.0
  0
LTYPE
  5
16
100
AcDbSymbolTableRecord
100
AcDbLinetypeTableRecord
  2
CONTINUOUS
 70
64
  3
Solid line
 72
65
 73
0
 40
0.0
  0
LTYPE
  5
1F5
100
AcDbSymbolTableRecord
100
AcDbLinetypeTableRecord
  2
CENTER
 70
64
  3
____ _ ____ _ ____ _ ____ _ ____ _ ____ _ ____
 72
65
 73
4
 40
0.6
 49
0.375
 74
0
 49
-0.075
 74
0
 49
0.075
 74
0
 49
-0.075
 74
0
  0
LTYPE
  5
1F6
100
AcDbSymbolTableRecord
100
AcDbLinetypeTableRecord
  2
HIDDEN
 70
64
  3
- - - - - - - - - - - - - - - - - - - -
 72
65
 73
2
 40
0.2
 49
0.1
 74
0
 49
-0.1
 74
0
  0
LTYPE
  5
1F7
100
AcDbSymbolTableRecord
100
AcDbLinetypeTableRecord
  2
PHANTOM
 70
64
  3
_____ _ _ _____ _ _ _____ _ _ _____
 72
65
 73
6
 40
0.8
 49
0.45
 74
0
 49
-0.05
 74
0
 49
0.1
 74
0
 49
-0.05
 74
0
 49
0.1
 74
0
 49
-0.05
 74
0
  0
LTYPE
  5
1F8
100
AcDbSymbolTableRecord
100
AcDbLinetypeTableRecord
  2
DOT
 70
64
  3
. . . . . . . . . . . . . . . . . . . .
 72
65
 73
2
 40
0.2
 49
0.1
 74
0
 49
-0.1
 74
0
  0
LTYPE
  5
1F9
100
AcDbSymbolTableRecord
100
AcDbLinetypeTableRecord
  2
DASHED
 70
64
  3
- - - - - - - - - - - - - - - - - - - -
 72
65
 73
2
 40
0.2
 49
0.1
 74
0
 49
-0.1
 74
0
  0
ENDTAB
  0
TABLE
  2
LAYER
  5
2
100
AcDbSymbolTable
 70
36
  0
LAYER
  5
10
100
AcDbSymbolTableRecord
100
AcDbLayerTableRecord
  2
0
 70
0
 62
7
  6
CONTINUOUS
370
-3
390
F
  0
LAYER
  5
1FA
100
AcDbSymbolTableRecord
100
AcDbLayerTableRecord
  2
DEFAULT_1
 70
0
 62
7
  6
CENTER
370
-3
390
F
  0
LAYER
  5
1FB
100
AcDbSymbolTableRecord
100
AcDbLayerTableRecord
  2
DEFAULT_2
 70
0
 62
7
  6
HIDDEN
370
-3
390
F
  0
LAYER
  5
1FC
100
AcDbSymbolTableRecord
100
AcDbLayerTableRecord
  2
DEFAULT_3
 70
0
 62
7
  6
PHANTOM
370
-3
390
F
  0
LAYER
  5
1FD
100
AcDbSymbolTableRecord
100
AcDbLayerTableRecord
  2
ASSI
 70
0
 62
7
  6
CONTINUOUS
370
-3
390
F
  0
LAYER
  5
1FE
100
AcDbSymbolTableRecord
100
AcDbLayerTableRecord
  2
COLOR9
 70
0
 62
7
  6
CONTINUOUS
370
-3
390
F
  0
LAYER
  5
1FF
100
AcDbSymbolTableRecord
100
AcDbLayerTableRecord
  2
COORDINATE
 70
0
 62
7
  6
CONTINUOUS
370
-3
390
F
  0
LAYER
  5
200
100
AcDbSymbolTableRecord
100
AcDbLayerTableRecord
  2
COORD_ORIGINE
 70
0
 62
7
  6
CONTINUOUS
370
-3
390
F
  0
LAYER
  5
201
100
AcDbSymbolTableRecord
100
AcDbLayerTableRecord
  2
COSMETICI
 70
0
 62
7
  6
CONTINUOUS
370
-3
390
F
  0
LAYER
  5
202
100
AcDbSymbolTableRecord
100
AcDbLayerTableRecord
  2
CURVE
 70
0
 62
7
  6
CONTINUOUS
370
-3
390
F
  0
LAYER
  5
203
100
AcDbSymbolTableRecord
100
AcDbLayerTableRecord
  2
DRAFT
 70
0
 62
7
  6
CONTINUOUS
370
-3
390
F
  0
LAYER
  5
204
100
AcDbSymbolTableRecord
100
AcDbLayerTableRecord
  2
IMPORT_IGES
 70
0
 62
7
  6
CONTINUOUS
370
-3
390
F
  0
LAYER
  5
205
100
AcDbSymbolTableRecord
100
AcDbLayerTableRecord
  2
INTF_1
 70
0
 62
7
  6
CONTINUOUS
370
-3
390
F
  0
LAYER
  5
206
100
AcDbSymbolTableRecord
100
AcDbLayerTableRecord
  2
INTF_YELLOW
 70
0
 62
7
  6
CONTINUOUS
370
-3
390
F
  0
LAYER
  5
207
100
AcDbSymbolTableRecord
100
AcDbLayerTableRecord
  2
NOTE
 70
0
 62
7
  6
CONTINUOUS
370
-3
390
F
  0
LAYER
  5
208
100
AcDbSymbolTableRecord
100
AcDbLayerTableRecord
  2
PIANI
 70
0
 62
7
  6
CONTINUOUS
370
-3
390
F
  0
LAYER
  5
209
100
AcDbSymbolTableRecord
100
AcDbLayerTableRecord
  2
PIANI_ORIGINE
 70
0
 62
7
  6
CONTINUOUS
370
-3
390
F
  0
LAYER
  5
20A
100
AcDbSymbolTableRecord
100
AcDbLayerTableRecord
  2
PIANI_RIFERIMENTO
 70
0
 62
7
  6
CONTINUOUS
370
-3
390
F
  0
LAYER
  5
20B
100
AcDbSymbolTableRecord
100
AcDbLayerTableRecord
  2
PUNTI
 70
0
 62
7
  6
CONTINUOUS
370
-3
390
F
  0
LAYER
  5
20C
100
AcDbSymbolTableRecord
100
AcDbLayerTableRecord
  2
RACCORDO
 70
0
 62
7
  6
CONTINUOUS
370
-3
390
F
  0
LAYER
  5
20D
100
AcDbSymbolTableRecord
100
AcDbLayerTableRecord
  2
SIMBOLI
 70
0
 62
7
  6
CONTINUOUS
370
-3
390
F
  0
LAYER
  5
20E
100
AcDbSymbolTableRecord
100
AcDbLayerTableRecord
  2
SMUSSO
 70
0
 62
7
  6
CONTINUOUS
370
-3
390
F
  0
LAYER
  5
20F
100
AcDbSymbolTableRecord
100
AcDbLayerTableRecord
  2
SNAPLINE
 70
0
 62
7
  6
CONTINUOUS
370
-3
390
F
  0
LAYER
  5
210
100
AcDbSymbolTableRecord
100
AcDbLayerTableRecord
  2
SUPERFICI
 70
0
 62
7
  6
CONTINUOUS
370
-3
390
F
  0
LAYER
  5
211
100
AcDbSymbolTableRecord
100
AcDbLayerTableRecord
  2
TRASH
 70
0
 62
7
  6
CONTINUOUS
370
-3
390
F
  0
LAYER
  5
212
100
AcDbSymbolTableRecord
100
AcDbLayerTableRecord
  2
XSEC_DATUMS
 70
0
 62
7
  6
CONTINUOUS
370
-3
390
F
  0
ENDTAB
  0
TABLE
  2
STYLE
  5
3
100
AcDbSymbolTable
 70
1
  0
STYLE
  5
11
100
AcDbSymbolTableRecord
100
AcDbTextStyleTableRecord
  2
STANDARD
 70
0
 40
0.0
 41
0.8
 50
0.0
 71
0
 42
0.2
  3
txt
  4

  0
STYLE
  5
213
100
AcDbSymbolTableRecord
100
AcDbTextStyleTableRecord
  2
TEXTSTYLE_1
 70
0
 40
0.0
 41
0.8
 50
0.0
 71
0
 42
0.2
  3
gdt
  4

  0
ENDTAB
  0
TABLE
  2
VIEW
  5
6
100
AcDbSymbolTable
 70
0
  0
ENDTAB
  0
TABLE
  2
UCS
  5
7
100
AcDbSymbolTable
 70
0
  0
ENDTAB
  0
TABLE
  2
APPID
  5
9
100
AcDbSymbolTable
 70
1
  0
APPID
  5
214
100
AcDbSymbolTableRecord
100
AcDbRegAppTableRecord
  2
ACAD
 70
0
  0
ENDTAB
  0
TABLE
  2
BLOCK_RECORD
  5
1
100
AcDbSymbolTable
 70
0
  0
BLOCK_RECORD
  5
215
100
AcDbSymbolTableRecord
100
AcDbBlockTableRecord
  2
*Model_Space
  0
BLOCK_RECORD
  5
216
100
AcDbSymbolTableRecord
100
AcDbBlockTableRecord
  2
*Paper_Space
  0
BLOCK_RECORD
  5
217
100
AcDbSymbolTableRecord
100
AcDbBlockTableRecord
  2
_FILLED
  0
BLOCK_RECORD
  5
218
100
AcDbSymbolTableRecord
100
AcDbBlockTableRecord
  2
*D0
  0
BLOCK_RECORD
  5
219
100
AcDbSymbolTableRecord
100
AcDbBlockTableRecord
  2
*D1
  0
BLOCK_RECORD
  5
21A
100
AcDbSymbolTableRecord
100
AcDbBlockTableRecord
  2
*D2
  0
ENDTAB
  0
TABLE
  2
DIMSTYLE
  5
A
100
AcDbSymbolTable
 70
1
100
AcDbDimStyleTable
 71
0
  0
DIMSTYLE
105
21B
100
AcDbSymbolTableRecord
100
AcDbDimStyleTableRecord
  2
STANDARD
 70
0
  3

  4

 40
1.0
 41
3.0
 42
0.0625
 43
0.38
 44
0.18
 45
0.0
 46
0.0
 47
0.01
 48
0.01
140
3.0
141
0.09
142
0.0
143
25.4
144
1.0
145
0.0
146
1.0
147
0.09
 71
1.0
 72
0.0
 73
0
 74
0
 75
0
 76
0
 77
1
 78
8
170
0
171
2
172
0
173
0
174
0
175
0
176
0
177
0
178
0
270
2
271
2
272
2
273
2
274
2
275
0
280
0
281
0
282
0
283
1
284
8
285
0
286
0
287
3
288
0
340
11
341
217
342
217
343
217
344
217
  0
DIMSTYLE
105
21C
100
AcDbSymbolTableRecord
100
AcDbDimStyleTableRecord
  2
DIMSTYLE_1
 70
0
  3

  4

 40
1.0
 41
3.0
 42
0.0625
 43
0.38
 44
0.18
 45
0.0
 46
0.0
 47
0.0
 48
0.0
140
3.0
141
0.09
142
0.0
143
25.4
144
1.0
145
0.0
146
1.0
147
0.09
 71
0.0
 72
0.0
 73
0
 74
0
 75
0
 76
0
 77
1
 78
8
170
0
171
2
172
0
173
0
174
0
175
0
176
0
177
0
178
0
270
2
271
1
272
1
273
2
274
2
275
0
280
0
281
0
282
0
283
1
284
8
285
0
286
0
287
3
288
0
340
11
341
217
342
217
343
217
344
217
  0
DIMSTYLE
105
21D
100
AcDbSymbolTableRecord
100
AcDbDimStyleTableRecord
  2
DIMSTYLE_2
 70
0
  3

  4

 40
1.0
 41
3.0
 42
0.0625
 43
0.38
 44
0.18
 45
0.0
 46
0.0
 47
0.0
 48
0.0
140
3.0
141
0.09
142
0.0
143
25.4
144
1.0
145
0.0
146
1.0
147
0.09
 71
0.0
 72
0.0
 73
0
 74
0
 75
0
 76
0
 77
1
 78
8
170
0
171
2
172
0
173
0
174
0
175
0
176
0
177
0
178
0
270
2
271
2
272
2
273
2
274
2
275
0
280
0
281
0
282
0
283
1
284
8
285
0
286
0
287
3
288
0
340
11
341
217
342
217
343
217
344
217
  0
ENDTAB
  0
ENDSEC
  0
SECTION
  2
BLOCKS
  0
BLOCK
  5
20
100
AcDbEntity
  8
0
100
AcDbBlockBegin
  2
*Model_Space
 70
0
 10
0.0
 20
0.0
 30
0.0
  3
*Model_Space
  1

  0
ENDBLK
  5
21
100
AcDbEntity
  8
0
100
AcDbBlockEnd
  0
BLOCK
  5
1C
100
AcDbEntity
  8
0
100
AcDbBlockBegin
  2
*Paper_Space
 70
0
 10
0.0
 20
0.0
 30
0.0
  3
*Paper_Space
  1

  0
ENDBLK
  5
1D
100
AcDbEntity
  8
0
100
AcDbBlockEnd
  0
BLOCK
  5
21E
100
AcDbEntity
  8
0
100
AcDbBlockBegin
  2
_FILLED
 70
64
 10
0.0
 20
0.0
  3
_FILLED
  1

  0
SOLID
  5
21F
100
AcDbEntity
  8
0
  6
BYBLOCK
 62
0
100
AcDbTrace
 10
0.0
 20
0.0
 11
-1.0
 21
0.3166666667
 12
-1.0
 22
-0.3166666667
 13
-1.0
 23
-0.3166666667
  0
ENDBLK
  5
220
100
AcDbEntity
  8
0
  6
BYBLOCK
 62
0
100
AcDbBlockEnd
  0
BLOCK
  5
221
100
AcDbEntity
  8
0
100
AcDbBlockBegin
 62
7
  6
CONTINUOUS
  2
*D0
 70
65
 10
0.0
 20
0.0
  3
*D0
  1

  0
LINE
  5
222
100
AcDbEntity
  8
0
100
AcDbLine
 62
7
  6
CONTINUOUS
 10
11.0514422353
 20
-22.431406897
 11
11.0514422353
 21
31.6114422353
  0
LINE
  5
223
100
AcDbEntity
  8
0
100
AcDbLine
 62
7
  6
CONTINUOUS
 10
-11.0514422353
 20
22.1116135728
 11
-11.0514422353
 21
31.6114422353
  0
LINE
  5
224
100
AcDbEntity
  8
0
100
AcDbLine
 62
7
  6
CONTINUOUS
 10
11.0514422353
 20
30.1114422353
 11
0.0
 21
30.1114422353
  0
LINE
  5
225
100
AcDbEntity
  8
0
100
AcDbLine
 62
7
  6
CONTINUOUS
 10
-11.0514422353
 20
30.1114422353
 11
0.0
 21
30.1114422353
  0
INSERT
  5
226
100
AcDbEntity
  8
0
100
AcDbBlockReference
 62
7
  6
CONTINUOUS
  2
_FILLED
 10
11.0514422353
 20
30.1114422353
 41
3.0
 42
3.0
 43
3.0
  0
INSERT
  5
227
100
AcDbEntity
  8
0
100
AcDbBlockReference
 62
7
  6
CONTINUOUS
  2
_FILLED
 10
-11.0514422353
 20
30.1114422353
 41
3.0
 42
3.0
 43
3.0
 50
180.0
  0
ENDBLK
  5
228
100
AcDbEntity
  8
0
  6
BYBLOCK
 62
0
100
AcDbBlockEnd
  0
BLOCK
  5
229
100
AcDbEntity
  8
0
100
AcDbBlockBegin
 62
7
  6
CONTINUOUS
  2
*D1
 70
65
 10
0.0
 20
0.0
  3
*D1
  1

  0
LINE
  5
22A
100
AcDbEntity
  8
0
100
AcDbLine
 62
7
  6
CONTINUOUS
 10
11.0516135728
 20
-22.1114422353
 11
20.63
 21
-22.1114422353
  0
LINE
  5
22B
100
AcDbEntity
  8
0
100
AcDbLine
 62
7
  6
CONTINUOUS
 10
11.0516135728
 20
22.1114422353
 11
20.63
 21
22.1114422353
  0
LINE
  5
22C
100
AcDbEntity
  8
0
100
AcDbLine
 62
7
  6
CONTINUOUS
 10
19.13
 20
-22.1114422353
 11
19.13
 21
0.0
  0
LINE
  5
22D
100
AcDbEntity
  8
0
100
AcDbLine
 62
7
  6
CONTINUOUS
 10
19.13
 20
22.1114422353
 11
19.13
 21
0.0
  0
INSERT
  5
22E
100
AcDbEntity
  8
0
100
AcDbBlockReference
 62
7
  6
CONTINUOUS
  2
_FILLED
 10
19.13
 20
-22.1114422353
 41
3.0
 42
3.0
 43
3.0
 50
270.0
  0
INSERT
  5
22F
100
AcDbEntity
  8
0
100
AcDbBlockReference
 62
7
  6
CONTINUOUS
  2
_FILLED
 10
19.13
 20
22.1114422353
 41
3.0
 42
3.0
 43
3.0
 50
90.0
  0
ENDBLK
  5
230
100
AcDbEntity
  8
0
  6
BYBLOCK
 62
0
100
AcDbBlockEnd
  0
BLOCK
  5
231
100
AcDbEntity
  8
0
100
AcDbBlockBegin
 62
7
  6
CONTINUOUS
  2
*D2
 70
65
 10
0.0
 20
0.0
  3
*D2
  1

  0
LINE
  5
232
100
AcDbEntity
  8
0
100
AcDbLine
 62
7
  6
CONTINUOUS
 10
-32.6102173581
 20
13.7689805518
 11
-32.6102173581
 21
31.6114422353
  0
LINE
  5
233
100
AcDbEntity
  8
0
100
AcDbLine
 62
7
  6
CONTINUOUS
 10
-36.6102173581
 20
0.5
 11
-36.6102173581
 21
31.6114422353
  0
LINE
  5
234
100
AcDbEntity
  8
0
100
AcDbLine
 62
7
  6
CONTINUOUS
 10
-32.6102173581
 20
30.1114422353
 11
-28.6102173581
 21
30.1114422353
  0
LINE
  5
235
100
AcDbEntity
  8
0
100
AcDbLine
 62
7
  6
CONTINUOUS
 10
-28.6102173581
 20
30.1114422353
 11
-34.6102173581
 21
30.1114422353
  0
LINE
  5
236
100
AcDbEntity
  8
0
100
AcDbLine
 62
7
  6
CONTINUOUS
 10
-36.6102173581
 20
30.1114422353
 11
-44.2173899152
 21
30.1114422353
  0
LINE
  5
237
100
AcDbEntity
  8
0
100
AcDbLine
 62
7
  6
CONTINUOUS
 10
-44.2173899152
 20
30.1114422353
 11
-34.6102173581
 21
30.1114422353
  0
INSERT
  5
238
100
AcDbEntity
  8
0
100
AcDbBlockReference
 62
7
  6
CONTINUOUS
  2
_FILLED
 10
-32.6102173581
 20
30.1114422353
 41
3.0
 42
3.0
 43
3.0
 50
180.0
  0
INSERT
  5
239
100
AcDbEntity
  8
0
100
AcDbBlockReference
 62
7
  6
CONTINUOUS
  2
_FILLED
 10
-36.6102173581
 20
30.1114422353
 41
3.0
 42
3.0
 43
3.0
  0
ENDBLK
  5
23A
100
AcDbEntity
  8
0
  6
BYBLOCK
 62
0
100
AcDbBlockEnd
  0
ENDSEC
  0
SECTION
  2
ENTITIES
  0
DIMENSION
  5
23B
100
AcDbEntity
  8
0
100
AcDbDimension
 62
7
  6
CONTINUOUS
  2
*D0
 10
-11.0514422353
 20
30.1114422353
 11
-4.0714285714
 21
30.8614422353
 70
160
 71
2
 42
22.1028844706
  3
DIMSTYLE_1
100
AcDbAlignedDimension
 13
11.0514422353
 23
-22.431406897
 14
-11.0514422353
 24
22.1116135728
 50
180.0
100
AcDbRotatedDimension
  0
DIMENSION
  5
23C
100
AcDbEntity
  8
0
100
AcDbDimension
 62
7
  6
CONTINUOUS
  2
*D1
 10
19.13
 20
22.1114422353
 11
18.38
 21
-4.3928571429
 70
160
 71
2
 42
44.2228844706
  3
DIMSTYLE_1
100
AcDbAlignedDimension
 13
11.0516135728
 23
-22.1114422353
 14
11.0516135728
 24
22.1114422353
 50
90.0
100
AcDbRotatedDimension
  0
DIMENSION
  5
23D
100
AcDbEntity
  8
0
100
AcDbDimension
 62
7
  6
CONTINUOUS
  2
*D2
 10
-36.6102173581
 20
30.1114422353
 11
-44.2173899152
 21
30.8614422353
 70
160
 71
3
 42
4.0
  3
DIMSTYLE_2
100
AcDbAlignedDimension
 13
-32.6102173581
 23
13.7689805518
 14
-36.6102173581
 24
0.5
 50
180.0
100
AcDbRotatedDimension
  0
LWPOLYLINE
  5
23E
100
AcDbEntity
  8
0
100
AcDbPolyline
 62
7
  6
CONTINUOUS
 90
3
 70
0
 43
0.3500000006
 10
2.3571427875
 20
33.0043014221
 10
3.2142856836
 20
33.8614438934
 10
3.2142856836
 20
30.8614429779
  0
LINE
  5
23F
100
AcDbEntity
  8
0
100
AcDbLine
 62
7
  6
CONTINUOUS
 10
-10.5516135728
 20
-22.1114422353
 11
10.5516135728
 21
-22.1114422353
  0
LINE
  5
240
100
AcDbEntity
  8
RACCORDO
100
AcDbLine
 62
253
  6
CONTINUOUS
 10
-10.5266513084
 20
-22.0864799709
 11
10.5266513084
 21
-22.0864799709
  0
LINE
  5
241
100
AcDbEntity
  8
RACCORDO
100
AcDbLine
 62
253
  6
CONTINUOUS
 10
-10.5140480307
 20
-21.2362251476
 11
10.5140480307
 21
-21.2362251476
  0
LWPOLYLINE
  5
242
100
AcDbEntity
  8
RACCORDO
100
AcDbPolyline
 62
253
  6
CONTINUOUS
 90
16
 70
0
 10
-11.013876693
 20
21.1615238967
 10
-11.0098961887
 20
21.1692063518
 10
-11.0006606727
 20
21.1768073667
 10
-10.9862680235
 20
21.1842463858
 10
-10.9668707748
 20
21.19144457
 10
-10.9426744993
 20
21.1983256327
 10
-10.9139356299
 20
21.2048166483
 10
-10.8809587422
 20
21.2108488247
 10
-10.8440933262
 20
21.2163582328
 10
-10.803730083
 20
21.2212864835
 10
-10.7602967834
 20
21.2255813472
 10
-10.7142537351
 20
21.2291973067
 10
-10.6660889038
 20
21.2320960401
 10
-10.616312742
 20
21.2342468266
 10
-10.5654527791
 20
21.235626872
 10
-10.5140480308
 20
21.2362215505
  0
LWPOLYLINE
  5
243
100
AcDbEntity
  8
RACCORDO
100
AcDbPolyline
 62
253
  6
CONTINUOUS
 90
16
 70
0
 10
-11.0138766932
 20
-21.1615238967
 10
-11.0098974597
 20
-21.1692066572
 10
-11.000663019
 20
-21.1768079927
 10
-10.9862712413
 20
-21.1842473412
 10
-10.9668746564
 20
-21.1914458576
 10
-10.9426788368
 20
-21.1983272491
 10
-10.9139402194
 20
-21.2048185843
 10
-10.8809633874
 20
-21.2108510651
 10
-10.8440978422
 20
-21.2163607572
 10
-10.8037342993
 20
-21.2212892666
 10
-10.7603005474
 20
-21.225584359
 10
-10.7142569145
 20
-21.2292005133
 10
-10.6660913891
 20
-21.2320994044
 10
-10.6163144484
 20
-21.2342503089
 10
-10.565453648
 20
-21.2356304304
 10
-10.5140480307
 20
-21.236225142
  0
LWPOLYLINE
  5
244
100
AcDbEntity
  8
RACCORDO
100
AcDbPolyline
 62
253
  6
CONTINUOUS
 90
16
 70
0
 10
-11.0264799709
 20
-21.5866513084
 10
-11.0237085996
 20
-21.6388735973
 10
-11.0154963459
 20
-21.690524463
 10
-11.0019330371
 20
-21.7410385151
 10
-10.9831670751
 20
-21.7898627998
 10
-10.9594038183
 20
-21.8364628405
 10
-10.930903339
 20
-21.8803284908
 10
-10.8979775626
 20
-21.9209795447
 10
-10.8609868701
 20
-21.957970966
 10
-10.8203361707
 20
-21.9908977572
 10
-10.7764704213
 20
-22.0193994387
 10
-10.7298697895
 20
-22.04316396
 10
-10.6810444317
 20
-22.0619311116
 10
-10.6305288403
 20
-22.075495413
 10
-10.5788759856
 20
-22.0837083472
 10
-10.5266513085
 20
-22.086479971
  0
LWPOLYLINE
  5
245
100
AcDbEntity
  8
RACCORDO
100
AcDbPolyline
 62
253
  6
CONTINUOUS
 90
16
 70
0
 10
-11.0264799709
 20
21.5866513084
 10
-11.0237084581
 20
21.6388749344
 10
-11.015495829
 20
21.6905268861
 10
-11.0019319847
 20
21.741041747
 10
-10.9831654038
 20
21.7898665481
 10
-10.9594015179
 20
21.8364668208
 10
-10.930900462
 20
21.8803324477
 10
-10.8979742276
 20
21.9209832468
 10
-10.860983247
 20
21.9579742274
 10
-10.820332448
 20
21.9909004618
 10
-10.776466821
 20
22.0194015178
 10
-10.7298665483
 20
22.0431654038
 10
-10.6810417472
 20
22.0619319847
 10
-10.6305268862
 20
22.0754958291
 10
-10.5788749345
 20
22.0837084581
 10
-10.5266513084
 20
22.0864799709
  0
LWPOLYLINE
  5
246
100
AcDbEntity
  8
RACCORDO
100
AcDbPolyline
 62
253
  6
CONTINUOUS
 90
7
 70
0
 10
10.9879958269
 20
-9.4905
 10
10.9840029662
 20
-9.4914768667
 10
10.9747570079
 20
-9.492443384
 10
10.9603559075
 20
-9.4933893123
 10
10.9409522366
 20
-9.4943046299
 10
10.916751566
 20
-9.4951796397
 10
10.8880102879
 20
-9.4960050713
  0
LWPOLYLINE
  5
247
100
AcDbEntity
  8
RACCORDO
100
AcDbPolyline
 62
253
  6
CONTINUOUS
 90
8
 70
0
 10
-10.9879958269
 20
-9.4905
 10
-10.9840029682
 20
-9.4914768667
 10
-10.9747570116
 20
-9.4924433841
 10
-10.9603559127
 20
-9.4933893124
 10
-10.9409522429
 20
-9.4943046301
 10
-10.916751573
 20
-9.4951796399
 10
-10.8880102953
 20
-9.4960050715
 10
-10.8181687859
 20
-9.4974728385
  0
LWPOLYLINE
  5
248
100
AcDbEntity
  8
RACCORDO
100
AcDbPolyline
 62
253
  6
CONTINUOUS
 90
10
 70
0
 10
-11.0181527169
 20
21.4614914897
 10
-11.0189391127
 20
21.4859859557
 10
-11.0197777543
 20
21.5082362811
 10
-11.02065331
 20
21.5278351628
 10
-11.0215670101
 20
21.5447313594
 10
-11.0225176243
 20
21.5589761122
 10
-11.0234861298
 20
21.5703158414
 10
-11.0244661856
 20
21.5786660206
 10
-11.0254641326
 20
21.5841111763
 10
-11.0264799709
 20
21.5866513084
  0
LWPOLYLINE
  5
249
100
AcDbEntity
  8
RACCORDO
100
AcDbPolyline
 62
253
  6
CONTINUOUS
 90
7
 70
0
 10
-10.5208201249
 20
21.9686332738
 10
-10.5217307095
 20
22.0024922519
 10
-10.5226780577
 20
22.0308580893
 10
-10.5236454625
 20
22.0535588376
 10
-10.5246273547
 20
22.070457797
 10
-10.5256293033
 20
22.0814536019
 10
-10.5266513084
 20
22.0864799709
  0
LINE
  5
24A
100
AcDbEntity
  8
RACCORDO
100
AcDbLine
 62
253
  6
CONTINUOUS
 10
-11.016738871
 20
21.4056933754
 11
-11.0181527169
 21
21.4614914897
  0
LINE
  5
24B
100
AcDbEntity
  8
RACCORDO
100
AcDbLine
 62
253
  6
CONTINUOUS
 10
-10.5191102789
 20
21.8852865879
 11
-10.5208201249
 21
21.9686332738
  0
LINE
  5
24C
100
AcDbEntity
  8
RACCORDO
100
AcDbLine
 62
253
  6
CONTINUOUS
 10
-11.0155711136
 20
21.3424327347
 11
-11.016738871
 21
21.4056933754
  0
LINE
  5
24D
100
AcDbEntity
  8
RACCORDO
100
AcDbLine
 62
253
  6
CONTINUOUS
 10
-11.0146703475
 20
21.2729143474
 11
-11.0155711136
 21
21.3424327347
  0
LINE
  5
24E
100
AcDbEntity
  8
RACCORDO
100
AcDbLine
 62
253
  6
CONTINUOUS
 10
-10.5169142997
 20
21.7251528619
 11
-10.5191102789
 21
21.8852865879
  0
LINE
  5
24F
100
AcDbEntity
  8
RACCORDO
100
AcDbLine
 62
253
  6
CONTINUOUS
 10
-10.5148466646
 20
21.4599830018
 11
-10.5169142997
 21
21.7251528619
  0
LINE
  5
250
100
AcDbEntity
  8
RACCORDO
100
AcDbLine
 62
253
  6
CONTINUOUS
 10
-11.0138766932
 20
21.1615238967
 11
-11.0146703475
 21
21.2729143474
  0
LINE
  5
251
100
AcDbEntity
  8
RACCORDO
100
AcDbLine
 62
253
  6
CONTINUOUS
 10
-10.9974324428
 20
15.9909275752
 11
-11.0138766932
 21
21.1615238967
  0
LINE
  5
252
100
AcDbEntity
  8
RACCORDO
100
AcDbLine
 62
253
  6
CONTINUOUS
 10
-10.4976037732
 20
16.0366548119
 11
-10.5140480307
 21
21.2362251476
  0
LINE
  5
253
100
AcDbEntity
  8
RACCORDO
100
AcDbLine
 62
253
  6
CONTINUOUS
 10
-10.5140480307
 20
21.2362251476
 11
-10.5148466646
 21
21.4599830018
  0
LINE
  5
254
100
AcDbEntity
  8
RACCORDO
100
AcDbLine
 62
253
  6
CONTINUOUS
 10
-10.9888924616
 20
10.7928222982
 11
-10.9974324428
 21
15.9909275752
  0
LINE
  5
255
100
AcDbEntity
  8
RACCORDO
100
AcDbLine
 62
253
  6
CONTINUOUS
 10
-10.4890638437
 20
10.809162614
 11
-10.4976037732
 21
16.0366548119
  0
LINE
  5
256
100
AcDbEntity
  8
0
100
AcDbLine
 62
7
  6
CONTINUOUS
 10
-11.0514422353
 20
-21.6116135728
 11
-11.0514422353
 21
21.6116135728
  0
LINE
  5
257
100
AcDbEntity
  8
RACCORDO
100
AcDbLine
 62
253
  6
CONTINUOUS
 10
-10.9902843513
 20
-12.0939929862
 11
-10.9888924616
 21
10.7928222982
  0
LINE
  5
258
100
AcDbEntity
  8
RACCORDO
100
AcDbLine
 62
253
  6
CONTINUOUS
 10
-10.4904557235
 20
-12.1176863722
 11
-10.4890638437
 21
10.809162614
  0
LINE
  5
259
100
AcDbEntity
  8
RACCORDO
100
AcDbLine
 62
253
  6
CONTINUOUS
 10
-11.0008040171
 20
-17.2868439853
 11
-10.9902843513
 21
-12.0939929862
  0
LINE
  5
25A
100
AcDbEntity
  8
RACCORDO
100
AcDbLine
 62
253
  6
CONTINUOUS
 10
-10.5009752321
 20
-17.3398548851
 11
-10.4904557235
 21
-12.1176863722
  0
LINE
  5
25B
100
AcDbEntity
  8
RACCORDO
100
AcDbLine
 62
253
  6
CONTINUOUS
 10
-10.5152608966
 20
-21.5306779274
 11
-10.5009752321
 21
-17.3398548851
  0
LINE
  5
25C
100
AcDbEntity
  8
RACCORDO
100
AcDbLine
 62
253
  6
CONTINUOUS
 10
-11.0143327731
 20
-21.2368459471
 11
-11.0008040171
 21
-17.2868439853
  0
LINE
  5
25D
100
AcDbEntity
  8
RACCORDO
100
AcDbLine
 62
253
  6
CONTINUOUS
 10
-10.5169146285
 20
-21.7251570648
 11
-10.5152608966
 21
-21.5306779274
  0
LINE
  5
25E
100
AcDbEntity
  8
RACCORDO
100
AcDbLine
 62
253
  6
CONTINUOUS
 10
-11.015084922
 20
-21.3082533785
 11
-11.0143327731
 21
-21.2368459471
  0
LINE
  5
25F
100
AcDbEntity
  8
RACCORDO
100
AcDbLine
 62
253
  6
CONTINUOUS
 10
-10.5191111237
 20
-21.8852903227
 11
-10.5169146285
 21
-21.7251570648
  0
LINE
  5
260
100
AcDbEntity
  8
RACCORDO
100
AcDbLine
 62
253
  6
CONTINUOUS
 10
-11.0161242127
 20
-21.3750566723
 11
-11.015084922
 21
-21.3082533785
  0
LINE
  5
261
100
AcDbEntity
  8
RACCORDO
100
AcDbLine
 62
253
  6
CONTINUOUS
 10
10.8880102879
 20
-9.4960050713
 11
10.8181687786
 21
-9.4974728383
  0
LWPOLYLINE
  5
262
100
AcDbEntity
  8
0
100
AcDbPolyline
 62
7
  6
CONTINUOUS
 90
3
 70
0
 43
0.3500000006
 10
1.3571429071
 20
31.1471586456
 10
1.2857142735
 20
30.9328696289
 10
1.1428571477
 20
30.647158493
  0
LINE
  5
263
100
AcDbEntity
  8
0
100
AcDbLine
 62
253
  6
CONTINUOUS
 10
10.5516135728
 20
22.1114422353
 11
10.5266513084
 21
22.0864799709
  0
LINE
  5
264
100
AcDbEntity
  8
RACCORDO
100
AcDbLine
 62
253
  6
CONTINUOUS
 10
10.8181687786
 20
-9.4974728383
 11
10.7343795934
 21
-9.4986458948
  0
LINE
  5
265
100
AcDbEntity
  8
RACCORDO
100
AcDbLine
 62
253
  6
CONTINUOUS
 10
10.7343795934
 20
-9.4986458948
 11
10.6401841222
 21
-9.4994746612
  0
LINE
  5
266
100
AcDbEntity
  8
RACCORDO
100
AcDbLine
 62
253
  6
CONTINUOUS
 10
10.6401841222
 20
-9.4994746612
 11
10.4881671644
 21
-9.4999999996
  0
LINE
  5
267
100
AcDbEntity
  8
RACCORDO
100
AcDbLine
 62
253
  6
CONTINUOUS
 10
-10.590415486
 20
-9.4997483763
 11
10.4881671644
 21
-9.5
  0
LINE
  5
268
100
AcDbEntity
  8
RACCORDO
100
AcDbLine
 62
253
  6
CONTINUOUS
 10
-10.6883422333
 20
-9.4991058655
 11
-10.590415486
 21
-9.4997483763
  0
LWPOLYLINE
  5
269
100
AcDbEntity
  8
RACCORDO
100
AcDbPolyline
 62
253
  6
CONTINUOUS
 90
3
 70
0
 10
-10.8181687859
 20
-9.4974728385
 10
-10.7778084851
 20
-9.4980996237
 10
-10.6883422333
 20
-9.4991058655
  0
LINE
  5
26A
100
AcDbEntity
  8
0
100
AcDbLine
 62
253
  6
CONTINUOUS
 10
10.5266513084
 20
-22.0864799709
 11
10.5516135728
 21
-22.1114422353
  0
LINE
  5
26B
100
AcDbEntity
  8
0
100
AcDbLine
 62
253
  6
CONTINUOUS
 10
11.0514422353
 20
21.6116135728
 11
11.0264799709
 21
21.5866513084
  0
LINE
  5
26C
100
AcDbEntity
  8
0
100
AcDbLine
 62
253
  6
CONTINUOUS
 10
11.0264799709
 20
-21.5866513084
 11
11.0514422353
 21
-21.6116135728
  0
LWPOLYLINE
  5
26D
100
AcDbEntity
  8
RACCORDO
100
AcDbPolyline
 62
253
  6
CONTINUOUS
 90
8
 70
0
 10
-10.5266513084
 20
-22.0864799709
 10
-10.5256293871
 20
-22.0814535722
 10
-10.5246275169
 20
-22.0704577735
 10
-10.523645698
 20
-22.0535589575
 10
-10.522678348
 20
-22.0308586736
 10
-10.5217310492
 20
-22.0024936657
 10
-10.5208205485
 20
-21.968635596
 10
-10.5191111237
 20
-21.8852903227
  0
LWPOLYLINE
  5
26E
100
AcDbEntity
  8
SUPERFICI
100
AcDbPolyline
 62
7
  6
CONTINUOUS
 90
21
 70
0
 10
-3.6008712115
 20
0.5
 10
-3.6204494014
 20
0.4548450232
 10
-3.6381166472
 20
0.409079923
 10
-3.6538729488
 20
0.3627046998
 10
-3.6677388315
 20
0.3156383248
 10
-3.67969377
 20
0.2679618272
 10
-3.6896761888
 20
0.219918294
 10
-3.6976755596
 20
0.1715075852
 10
-3.7037024108
 20
0.1227298415
 10
-3.7077267517
 20
0.0738285712
 10
-3.7097390287
 20
0.0248051738
 10
-3.7097487954
 20
-0.0243417495
 10
-3.7077547227
 20
-0.0733728879
 10
-3.7037478637
 20
-0.1222879471
 10
-3.6977371653
 20
-0.1710872205
 10
-3.6897481381
 20
-0.2195322796
 10
-3.6797688737
 20
-0.2676283607
 10
-3.6678112806
 20
-0.3153702266
 10
-3.6539365942
 20
-0.3625037377
 10
-3.6381652265
 20
-0.4089441806
 10
-3.6204767656
 20
-0.4547762681
  0
LWPOLYLINE
  5
26F
100
AcDbEntity
  8
0
100
AcDbPolyline
 62
7
  6
CONTINUOUS
 90
2
 70
0
 43
0.3500000006
 10
18.3799997177
 20
-3.3928568802
 10
16.8800003929
 20
-3.3928568802
  0
LWPOLYLINE
  5
270
100
AcDbEntity
  8
DRAFT
100
AcDbPolyline
 62
7
  6
CONTINUOUS
 90
25
 70
0
 10
-3.6008712115
 20
-0.5
 10
-3.6180966131
 20
-0.4605660192
 10
-3.6338665087
 20
-0.4206326928
 10
-3.6481808981
 20
-0.380200021
 10
-3.6610554403
 20
-0.3392086871
 10
-3.6724744764
 20
-0.2977180082
 10
-3.6823910298
 20
-0.2559059349
 10
-3.6907985972
 20
-0.2137798563
 10
-3.6977036818
 20
-0.1713323838
 10
-3.703078817
 20
-0.1287193011
 10
-3.7069170345
 20
-0.0859376709
 10
-3.7092253026
 20
-0.0429904311
 10
-3.7099970593
 20
-0.0000421791
 10
-3.7092280689
 20
0.0429072836
 10
-3.706922567
 20
0.085857758
 10
-3.703086699
 20
0.1286440501
 10
-3.6977134674
 20
0.1712633992
 10
-3.6908098696
 20
0.2137185655
 10
-3.682403043
 20
0.2558526362
 10
-3.6724863792
 20
0.2976725741
 10
-3.6610664866
 20
0.3391714157
 10
-3.6481903273
 20
0.3801713595
 10
-3.6338735553
 20
0.420613138
 10
-3.6181005167
 20
0.4605560182
 10
-3.6008712115
 20
0.5
  0
LINE
  5
271
100
AcDbEntity
  8
SUPERFICI
100
AcDbLine
 62
7
  6
CONTINUOUS
 10
-3.6204767656
 20
-0.4547762681
 11
-3.6008712115
 21
-0.5
  0
LWPOLYLINE
  5
272
100
AcDbEntity
  8
RACCORDO
100
AcDbPolyline
 62
253
  6
CONTINUOUS
 90
12
 70
0
 10
-11.0264799709
 20
-21.5866513084
 10
-11.0254643837
 20
-21.5841100213
 10
-11.024466787
 20
-21.5786680472
 10
-11.0234871808
 20
-21.5703253861
 10
-11.0225192882
 20
-21.558997784
 10
-11.021569386
 20
-21.5447694949
 10
-11.0206563049
 20
-21.5278932804
 10
-11.0197813035
 20
-21.5083229654
 10
-11.0189431232
 20
-21.4861047249
 10
-11.0181568186
 20
-21.4616298466
 10
-11.0174232508
 20
-21.4348517581
 10
-11.0161242127
 20
-21.3750566723
  0
LWPOLYLINE
  5
273
100
AcDbEntity
  8
SUPERFICI
100
AcDbPolyline
 62
7
  6
CONTINUOUS
 90
21
 70
0
 10
-2.3491287885
 20
-0.5
 10
-2.3295505986
 20
-0.4548450232
 10
-2.3118833528
 20
-0.409079923
 10
-2.2961270512
 20
-0.3627046998
 10
-2.2822611685
 20
-0.3156383248
 10
-2.27030623
 20
-0.2679618272
 10
-2.2603238112
 20
-0.219918294
 10
-2.2523244404
 20
-0.1715075852
 10
-2.2462975892
 20
-0.1227298415
 10
-2.2422732483
 20
-0.0738285712
 10
-2.2402609713
 20
-0.0248051738
 10
-2.2402512046
 20
0.0243417495
 10
-2.2422452773
 20
0.0733728879
 10
-2.2462521363
 20
0.1222879471
 10
-2.2522628347
 20
0.1710872205
 10
-2.2602518619
 20
0.2195322796
 10
-2.2702311263
 20
0.2676283607
 10
-2.2821887194
 20
0.3153702266
 10
-2.2960634058
 20
0.3625037377
 10
-2.3118347735
 20
0.4089441806
 10
-2.3295232344
 20
0.4547762681
  0
LWPOLYLINE
  5
274
100
AcDbEntity
  8
DRAFT
100
AcDbPolyline
 62
7
  6
CONTINUOUS
 90
25
 70
0
 10
-2.3491287885
 20
0.5
 10
-2.3319033869
 20
0.4605660192
 10
-2.3161334913
 20
0.4206326928
 10
-2.3018191019
 20
0.380200021
 10
-2.2889445597
 20
0.3392086871
 10
-2.2775255236
 20
0.2977180082
 10
-2.2676089702
 20
0.2559059349
 10
-2.2592014028
 20
0.2137798563
 10
-2.2522963182
 20
0.1713323838
 10
-2.246921183
 20
0.1287193011
 10
-2.2430829655
 20
0.0859376709
 10
-2.2407746974
 20
0.0429904311
 10
-2.2400029407
 20
0.0000421791
 10
-2.2407719311
 20
-0.0429072836
 10
-2.243077433
 20
-0.085857758
 10
-2.246913301
 20
-0.1286440501
 10
-2.2522865326
 20
-0.1712633992
 10
-2.2591901304
 20
-0.2137185655
 10
-2.267596957
 20
-0.2558526362
 10
-2.2775136208
 20
-0.2976725741
 10
-2.2889335134
 20
-0.3391714157
 10
-2.3018096727
 20
-0.3801713595
 10
-2.3161264447
 20
-0.420613138
 10
-2.3318994833
 20
-0.4605560182
 10
-2.3491287885
 20
-0.5
  0
LINE
  5
275
100
AcDbEntity
  8
SUPERFICI
100
AcDbLine
 62
7
  6
CONTINUOUS
 10
-2.3295232344
 20
0.4547762681
 11
-2.3491287885
 21
0.5
  0
LWPOLYLINE
  5
276
100
AcDbEntity
  8
SUPERFICI
100
AcDbPolyline
 62
7
  6
CONTINUOUS
 90
21
 70
0
 10
-0.7508712115
 20
0.5
 10
-0.7704494014
 20
0.4548450232
 10
-0.7881166472
 20
0.409079923
 10
-0.8038729488
 20
0.3627046998
 10
-0.8177388315
 20
0.3156383248
 10
-0.82969377
 20
0.2679618272
 10
-0.8396761888
 20
0.219918294
 10
-0.8476755596
 20
0.1715075852
 10
-0.8537024108
 20
0.1227298415
 10
-0.8577267517
 20
0.0738285712
 10
-0.8597390287
 20
0.0248051738
 10
-0.8597487954
 20
-0.0243417495
 10
-0.8577547227
 20
-0.0733728879
 10
-0.8537478637
 20
-0.1222879471
 10
-0.8477371653
 20
-0.1710872205
 10
-0.8397481381
 20
-0.2195322796
 10
-0.8297688737
 20
-0.2676283607
 10
-0.8178112806
 20
-0.3153702266
 10
-0.8039365942
 20
-0.3625037377
 10
-0.7881652265
 20
-0.4089441806
 10
-0.7704767656
 20
-0.4547762681
  0
LWPOLYLINE
  5
277
100
AcDbEntity
  8
0
100
AcDbPolyline
 62
7
  6
CONTINUOUS
 90
2
 70
0
 43
0.3500000006
 10
18.3799997177
 20
-1.0357139511
 10
16.8800003929
 20
-1.0357139511
  0
LINE
  5
278
100
AcDbEntity
  8
SUPERFICI
100
AcDbLine
 62
7
  6
CONTINUOUS
 10
-3.6008712115
 20
-0.5
 11
-2.3491287885
 21
-0.5
  0
LINE
  5
279
100
AcDbEntity
  8
DRAFT
100
AcDbLine
 62
7
  6
CONTINUOUS
 10
-3.6008712115
 20
-0.5
 11
-2.3491287885
 21
-0.5
  0
LINE
  5
27A
100
AcDbEntity
  8
SUPERFICI
100
AcDbLine
 62
7
  6
CONTINUOUS
 10
-0.7508712115
 20
-0.5
 11
0.7508712115
 21
-0.5
  0
LINE
  5
27B
100
AcDbEntity
  8
DRAFT
100
AcDbLine
 62
7
  6
CONTINUOUS
 10
-0.7508712115
 20
-0.5
 11
0.7508712115
 21
-0.5
  0
LINE
  5
27C
100
AcDbEntity
  8
SUPERFICI
100
AcDbLine
 62
7
  6
CONTINUOUS
 10
2.3491287885
 20
-0.5
 11
3.6008712115
 21
-0.5
  0
LINE
  5
27D
100
AcDbEntity
  8
DRAFT
100
AcDbLine
 62
7
  6
CONTINUOUS
 10
2.3491287885
 20
-0.5
 11
3.6008712115
 21
-0.5
  0
LWPOLYLINE
  5
27E
100
AcDbEntity
  8
DRAFT
100
AcDbPolyline
 62
7
  6
CONTINUOUS
 90
25
 70
0
 10
-0.7508712115
 20
-0.5
 10
-0.7680966131
 20
-0.4605660192
 10
-0.7838665087
 20
-0.4206326928
 10
-0.7981808981
 20
-0.380200021
 10
-0.8110554403
 20
-0.3392086872
 10
-0.8224744764
 20
-0.2977180083
 10
-0.8323910298
 20
-0.255905935
 10
-0.8407985972
 20
-0.2137798564
 10
-0.8477036818
 20
-0.1713323839
 10
-0.853078817
 20
-0.1287193013
 10
-0.8569170345
 20
-0.0859376711
 10
-0.8592253026
 20
-0.0429904313
 10
-0.8599970593
 20
-0.0000421793
 10
-0.8592280689
 20
0.0429072834
 10
-0.856922567
 20
0.0858577578
 10
-0.853086699
 20
0.1286440499
 10
-0.8477134674
 20
0.1712633991
 10
-0.8408098696
 20
0.2137185654
 10
-0.832403043
 20
0.2558526361
 10
-0.8224863792
 20
0.297672574
 10
-0.8110664866
 20
0.3391714157
 10
-0.7981903273
 20
0.3801713595
 10
-0.7838735553
 20
0.420613138
 10
-0.7681005167
 20
0.4605560182
 10
-0.7508712115
 20
0.5
  0
LINE
  5
27F
100
AcDbEntity
  8
SUPERFICI
100
AcDbLine
 62
7
  6
CONTINUOUS
 10
-0.7704767656
 20
-0.4547762681
 11
-0.7508712115
 21
-0.5
  0
LWPOLYLINE
  5
280
100
AcDbEntity
  8
SUPERFICI
100
AcDbPolyline
 62
7
  6
CONTINUOUS
 90
21
 70
0
 10
0.7508712115
 20
-0.5
 10
0.7704494014
 20
-0.4548450232
 10
0.7881166472
 20
-0.409079923
 10
0.8038729488
 20
-0.3627046998
 10
0.8177388315
 20
-0.3156383248
 10
0.82969377
 20
-0.2679618272
 10
0.8396761888
 20
-0.219918294
 10
0.8476755596
 20
-0.1715075852
 10
0.8537024108
 20
-0.1227298415
 10
0.8577267517
 20
-0.0738285712
 10
0.8597390287
 20
-0.0248051738
 10
0.8597487954
 20
0.0243417495
 10
0.8577547227
 20
0.0733728879
 10
0.8537478637
 20
0.1222879471
 10
0.8477371653
 20
0.1710872205
 10
0.8397481381
 20
0.2195322796
 10
0.8297688737
 20
0.2676283607
 10
0.8178112806
 20
0.3153702266
 10
0.8039365942
 20
0.3625037377
 10
0.7881652265
 20
0.4089441806
 10
0.7704767656
 20
0.4547762681
  0
LINE
  5
281
100
AcDbEntity
  8
SUPERFICI
100
AcDbLine
 62
7
  6
CONTINUOUS
 10
-3.6008712115
 20
0.5
 11
-2.3491287885
 21
0.5
  0
LINE
  5
282
100
AcDbEntity
  8
DRAFT
100
AcDbLine
 62
7
  6
CONTINUOUS
 10
-3.6008712115
 20
0.5
 11
-2.3491287885
 21
0.5
  0
LINE
  5
283
100
AcDbEntity
  8
SUPERFICI
100
AcDbLine
 62
7
  6
CONTINUOUS
 10
-0.7508712115
 20
0.5
 11
0.7508712115
 21
0.5
  0
LINE
  5
284
100
AcDbEntity
  8
DRAFT
100
AcDbLine
 62
7
  6
CONTINUOUS
 10
-0.7508712115
 20
0.5
 11
0.7508712115
 21
0.5
  0
LINE
  5
285
100
AcDbEntity
  8
SUPERFICI
100
AcDbLine
 62
7
  6
CONTINUOUS
 10
2.3491287885
 20
0.5
 11
3.6008712115
 21
0.5
  0
LINE
  5
286
100
AcDbEntity
  8
DRAFT
100
AcDbLine
 62
7
  6
CONTINUOUS
 10
2.3491287885
 20
0.5
 11
3.6008712115
 21
0.5
  0
LWPOLYLINE
  5
287
100
AcDbEntity
  8
DRAFT
100
AcDbPolyline
 62
7
  6
CONTINUOUS
 90
25
 70
0
 10
0.7508712115
 20
0.5
 10
0.7680966131
 20
0.4605660192
 10
0.7838665087
 20
0.4206326928
 10
0.7981808981
 20
0.380200021
 10
0.8110554403
 20
0.3392086872
 10
0.8224744764
 20
0.2977180083
 10
0.8323910298
 20
0.255905935
 10
0.8407985972
 20
0.2137798564
 10
0.8477036818
 20
0.1713323839
 10
0.853078817
 20
0.1287193013
 10
0.8569170345
 20
0.0859376711
 10
0.8592253026
 20
0.0429904313
 10
0.8599970593
 20
0.0000421793
 10
0.8592280689
 20
-0.0429072834
 10
0.856922567
 20
-0.0858577578
 10
0.853086699
 20
-0.1286440499
 10
0.8477134674
 20
-0.1712633991
 10
0.8408098696
 20
-0.2137185654
 10
0.832403043
 20
-0.2558526361
 10
0.8224863792
 20
-0.297672574
 10
0.8110664866
 20
-0.3391714157
 10
0.7981903273
 20
-0.3801713595
 10
0.7838735553
 20
-0.420613138
 10
0.7681005167
 20
-0.4605560182
 10
0.7508712115
 20
-0.5
  0
LINE
  5
288
100
AcDbEntity
  8
SUPERFICI
100
AcDbLine
 62
7
  6
CONTINUOUS
 10
0.7704767656
 20
0.4547762681
 11
0.7508712115
 21
0.5
  0
LWPOLYLINE
  5
289
100
AcDbEntity
  8
RACCORDO
100
AcDbPolyline
 62
253
  6
CONTINUOUS
 90
12
 70
0
 10
11.0264799709
 20
21.5866513084
 10
11.0254641326
 20
21.5841111763
 10
11.0244661856
 20
21.5786660206
 10
11.0234861298
 20
21.5703158414
 10
11.0225176243
 20
21.5589761121
 10
11.0215670101
 20
21.5447313594
 10
11.02065331
 20
21.5278351628
 10
11.0197777543
 20
21.5082362811
 10
11.0189391127
 20
21.4859859557
 10
11.0181527169
 20
21.4614914897
 10
11.017419671
 20
21.4347145028
 10
11.0161223366
 20
21.3749505517
  0
LWPOLYLINE
  5
28A
100
AcDbEntity
  8
SUPERFICI
100
AcDbPolyline
 62
7
  6
CONTINUOUS
 90
21
 70
0
 10
2.3491287885
 20
0.5
 10
2.3295505986
 20
0.4548450232
 10
2.3118833528
 20
0.409079923
 10
2.2961270512
 20
0.3627046998
 10
2.2822611685
 20
0.3156383248
 10
2.27030623
 20
0.2679618272
 10
2.2603238112
 20
0.219918294
 10
2.2523244404
 20
0.1715075852
 10
2.2462975892
 20
0.1227298415
 10
2.2422732483
 20
0.0738285712
 10
2.2402609713
 20
0.0248051738
 10
2.2402512046
 20
-0.0243417495
 10
2.2422452773
 20
-0.0733728879
 10
2.2462521363
 20
-0.1222879471
 10
2.2522628347
 20
-0.1710872205
 10
2.2602518619
 20
-0.2195322796
 10
2.2702311263
 20
-0.2676283607
 10
2.2821887194
 20
-0.3153702266
 10
2.2960634058
 20
-0.3625037377
 10
2.3118347735
 20
-0.4089441806
 10
2.3295232344
 20
-0.4547762681
  0
LWPOLYLINE
  5
28B
100
AcDbEntity
  8
SUPERFICI
100
AcDbPolyline
 62
7
  6
CONTINUOUS
 90
21
 70
0
 10
3.6008712115
 20
-0.5
 10
3.6204494014
 20
-0.4548450232
 10
3.6381166472
 20
-0.409079923
 10
3.6538729488
 20
-0.3627046998
 10
3.6677388315
 20
-0.3156383248
 10
3.67969377
 20
-0.2679618272
 10
3.6896761888
 20
-0.219918294
 10
3.6976755596
 20
-0.1715075852
 10
3.7037024108
 20
-0.1227298415
 10
3.7077267517
 20
-0.0738285712
 10
3.7097390287
 20
-0.0248051738
 10
3.7097487954
 20
0.0243417495
 10
3.7077547227
 20
0.0733728879
 10
3.7037478637
 20
0.1222879471
 10
3.6977371653
 20
0.1710872205
 10
3.6897481381
 20
0.2195322796
 10
3.6797688737
 20
0.2676283607
 10
3.6678112806
 20
0.3153702266
 10
3.6539365942
 20
0.3625037377
 10
3.6381652265
 20
0.4089441806
 10
3.6204767656
 20
0.4547762681
  0
LWPOLYLINE
  5
28C
100
AcDbEntity
  8
DRAFT
100
AcDbPolyline
 62
7
  6
CONTINUOUS
 90
25
 70
0
 10
2.3491287885
 20
-0.5
 10
2.3319033869
 20
-0.4605660192
 10
2.3161334913
 20
-0.4206326928
 10
2.3018191019
 20
-0.380200021
 10
2.2889445597
 20
-0.3392086872
 10
2.2775255236
 20
-0.2977180083
 10
2.2676089702
 20
-0.255905935
 10
2.2592014028
 20
-0.2137798564
 10
2.2522963182
 20
-0.1713323839
 10
2.246921183
 20
-0.1287193013
 10
2.2430829655
 20
-0.0859376711
 10
2.2407746974
 20
-0.0429904313
 10
2.2400029407
 20
-0.0000421793
 10
2.2407719311
 20
0.0429072834
 10
2.243077433
 20
0.0858577578
 10
2.246913301
 20
0.1286440499
 10
2.2522865326
 20
0.1712633991
 10
2.2591901304
 20
0.2137185654
 10
2.267596957
 20
0.2558526361
 10
2.2775136208
 20
0.297672574
 10
2.2889335134
 20
0.3391714157
 10
2.3018096727
 20
0.3801713595
 10
2.3161264447
 20
0.420613138
 10
2.3318994833
 20
0.4605560182
 10
2.3491287885
 20
0.5
  0
LWPOLYLINE
  5
28D
100
AcDbEntity
  8
DRAFT
100
AcDbPolyline
 62
7
  6
CONTINUOUS
 90
25
 70
0
 10
3.6008712115
 20
0.5
 10
3.6180966131
 20
0.4605660192
 10
3.6338665087
 20
0.4206326928
 10
3.6481808981
 20
0.380200021
 10
3.6610554403
 20
0.3392086872
 10
3.6724744764
 20
0.2977180083
 10
3.6823910298
 20
0.255905935
 10
3.6907985972
 20
0.2137798564
 10
3.6977036818
 20
0.1713323839
 10
3.703078817
 20
0.1287193013
 10
3.7069170345
 20
0.0859376711
 10
3.7092253026
 20
0.0429904313
 10
3.7099970593
 20
0.0000421793
 10
3.7092280689
 20
-0.0429072834
 10
3.706922567
 20
-0.0858577578
 10
3.703086699
 20
-0.1286440499
 10
3.6977134674
 20
-0.1712633991
 10
3.6908098696
 20
-0.2137185654
 10
3.682403043
 20
-0.2558526361
 10
3.6724863792
 20
-0.297672574
 10
3.6610664866
 20
-0.3391714157
 10
3.6481903273
 20
-0.3801713595
 10
3.6338735553
 20
-0.420613138
 10
3.6181005167
 20
-0.4605560182
 10
3.6008712115
 20
-0.5
  0
LINE
  5
28E
100
AcDbEntity
  8
SUPERFICI
100
AcDbLine
 62
7
  6
CONTINUOUS
 10
2.3295232344
 20
-0.4547762681
 11
2.3491287885
 21
-0.5
  0
LINE
  5
28F
100
AcDbEntity
  8
SUPERFICI
100
AcDbLine
 62
7
  6
CONTINUOUS
 10
3.6204767656
 20
0.4547762681
 11
3.6008712115
 21
0.5
  0
LWPOLYLINE
  5
290
100
AcDbEntity
  8
RACCORDO
100
AcDbPolyline
 62
253
  6
CONTINUOUS
 90
8
 70
0
 10
10.5266513084
 20
22.0864799709
 10
10.5256293033
 20
22.0814536019
 10
10.5246273547
 20
22.070457797
 10
10.5236454625
 20
22.0535588376
 10
10.5226780577
 20
22.0308580893
 10
10.5217307095
 20
22.0024922519
 10
10.5208201249
 20
21.9686332738
 10
10.5191102789
 20
21.8852865879
  0
LWPOLYLINE
  5
291
100
AcDbEntity
  8
0
100
AcDbPolyline
 62
7
  6
CONTINUOUS
 90
3
 70
0
 43
0.3500000006
 10
18.094285183
 20
1.0357133102
 10
18.3085719337
 20
0.9642866592
 10
18.5942853355
 20
0.8214288254
  0
LINE
  5
292
100
AcDbEntity
  8
0
100
AcDbLine
 62
253
  6
CONTINUOUS
 10
-11.0514422353
 20
-21.6116135728
 11
-11.0264799709
 21
-21.5866513084
  0
LINE
  5
293
100
AcDbEntity
  8
0
100
AcDbLine
 62
253
  6
CONTINUOUS
 10
-10.5516135728
 20
-22.1114422353
 11
-10.5266513084
 21
-22.0864799709
  0
LWPOLYLINE
  5
294
100
AcDbEntity
  8
0
100
AcDbPolyline
 62
7
  6
CONTINUOUS
 90
10
 70
0
 43
0.3500000006
 10
17.8799995651
 20
0.9642866592
 10
18.022857399
 20
1.0357133102
 10
18.094285183
 20
1.0357133102
 10
18.2371430168
 20
0.8928577423
 10
18.2371430168
 20
0.8214288254
 10
18.1657140999
 20
0.7499999084
 10
18.094285183
 20
0.7499999084
 10
17.9514284821
 20
0.8214288254
 10
17.8799995651
 20
0.8928577423
 10
17.8799995651
 20
0.9642866592
  0
LINE
  5
295
100
AcDbEntity
  8
0
100
AcDbLine
 62
253
  6
CONTINUOUS
 10
-11.0264799709
 20
21.5866513084
 11
-11.0514422353
 21
21.6116135728
  0
LINE
  5
296
100
AcDbEntity
  8
0
100
AcDbLine
 62
253
  6
CONTINUOUS
 10
-10.5266513084
 20
22.0864799709
 11
-10.5516135728
 21
22.1114422353
  0
LWPOLYLINE
  5
297
100
AcDbEntity
  8
RACCORDO
100
AcDbPolyline
 62
253
  6
CONTINUOUS
 90
7
 70
0
 10
10.5208205485
 20
-21.968635596
 10
10.5217310492
 20
-22.0024936657
 10
10.522678348
 20
-22.0308586736
 10
10.523645698
 20
-22.0535589575
 10
10.5246275169
 20
-22.0704577735
 10
10.5256293871
 20
-22.0814535722
 10
10.5266513084
 20
-22.0864799709
  0
LINE
  5
298
100
AcDbEntity
  8
RACCORDO
100
AcDbLine
 62
253
  6
CONTINUOUS
 10
10.5191111237
 20
-21.8852903227
 11
10.5208205485
 21
-21.968635596
  0
LINE
  5
299
100
AcDbEntity
  8
RACCORDO
100
AcDbLine
 62
253
  6
CONTINUOUS
 10
-10.8880102829
 20
9.4960050712
 11
-10.8181687736
 21
9.4974728381
  0
LINE
  5
29A
100
AcDbEntity
  8
RACCORDO
100
AcDbLine
 62
253
  6
CONTINUOUS
 10
-10.8181687736
 20
9.4974728381
 11
-10.7343795892
 21
9.4986458946
  0
LINE
  5
29B
100
AcDbEntity
  8
RACCORDO
100
AcDbLine
 62
253
  6
CONTINUOUS
 10
-10.7343795892
 20
9.4986458946
 11
-10.6401841195
 21
9.499474661
  0
LINE
  5
29C
100
AcDbEntity
  8
RACCORDO
100
AcDbLine
 62
253
  6
CONTINUOUS
 10
-10.6401841195
 20
9.499474661
 11
-10.4881671644
 21
9.4999999993
  0
LINE
  5
29D
100
AcDbEntity
  8
RACCORDO
100
AcDbLine
 62
253
  6
CONTINUOUS
 10
10.5904154861
 20
9.4997483763
 11
-10.4881671644
 21
9.5
  0
LINE
  5
29E
100
AcDbEntity
  8
RACCORDO
100
AcDbLine
 62
253
  6
CONTINUOUS
 10
10.6883422333
 20
9.4991058655
 11
10.5904154861
 21
9.4997483763
  0
LINE
  5
29F
100
AcDbEntity
  8
RACCORDO
100
AcDbLine
 62
253
  6
CONTINUOUS
 10
10.7778084852
 20
9.4980996237
 11
10.6883422333
 21
9.4991058655
  0
LWPOLYLINE
  5
2A0
100
AcDbEntity
  8
RACCORDO
100
AcDbPolyline
 62
253
  6
CONTINUOUS
 90
10
 70
0
 10
11.0181568186
 20
-21.4616298466
 10
11.0189431232
 20
-21.4861047249
 10
11.0197813036
 20
-21.5083229653
 10
11.0206563049
 20
-21.5278932804
 10
11.021569386
 20
-21.5447694949
 10
11.0225192882
 20
-21.5589977841
 10
11.0234871808
 20
-21.5703253862
 10
11.024466787
 20
-21.5786680473
 10
11.0254643837
 20
-21.5841100214
 10
11.0264799709
 20
-21.5866513084
  0
LINE
  5
2A1
100
AcDbEntity
  8
RACCORDO
100
AcDbLine
 62
253
  6
CONTINUOUS
 10
11.0167415586
 20
-21.4058170317
 11
11.0181568186
 21
-21.4616298466
  0
LINE
  5
2A2
100
AcDbEntity
  8
RACCORDO
100
AcDbLine
 62
253
  6
CONTINUOUS
 10
11.0155723942
 20
-21.3425178419
 11
11.0167415586
 21
-21.4058170317
  0
LINE
  5
2A3
100
AcDbEntity
  8
RACCORDO
100
AcDbLine
 62
253
  6
CONTINUOUS
 10
10.5169146285
 20
-21.7251570648
 11
10.5191111237
 21
-21.8852903227
  0
LINE
  5
2A4
100
AcDbEntity
  8
RACCORDO
100
AcDbLine
 62
253
  6
CONTINUOUS
 10
11.014670723
 20
-21.2729528004
 11
11.0155723942
 21
-21.3425178419
  0
LINE
  5
2A5
100
AcDbEntity
  8
RACCORDO
100
AcDbLine
 62
253
  6
CONTINUOUS
 10
10.5148466607
 20
-21.4599831598
 11
10.5169146285
 21
-21.7251570648
  0
LINE
  5
2A6
100
AcDbEntity
  8
RACCORDO
100
AcDbLine
 62
253
  6
CONTINUOUS
 10
11.0138766932
 20
-21.1615238967
 11
11.014670723
 21
-21.2729528004
  0
LINE
  5
2A7
100
AcDbEntity
  8
RACCORDO
100
AcDbLine
 62
253
  6
CONTINUOUS
 10
10.4976037727
 20
-16.0366547986
 11
10.5140480307
 21
-21.2362251476
  0
LINE
  5
2A8
100
AcDbEntity
  8
RACCORDO
100
AcDbLine
 62
253
  6
CONTINUOUS
 10
10.9974325226
 20
-15.9909603469
 11
11.0138766932
 21
-21.1615238967
  0
LINE
  5
2A9
100
AcDbEntity
  8
RACCORDO
100
AcDbLine
 62
253
  6
CONTINUOUS
 10
10.5140480307
 20
-21.2362251476
 11
10.5148466607
 21
-21.4599831598
  0
LINE
  5
2AA
100
AcDbEntity
  8
RACCORDO
100
AcDbLine
 62
253
  6
CONTINUOUS
 10
10.4890638443
 20
-10.8091626086
 11
10.4976037727
 21
-16.0366547986
  0
LINE
  5
2AB
100
AcDbEntity
  8
RACCORDO
100
AcDbLine
 62
253
  6
CONTINUOUS
 10
10.98889248
 20
-10.7928354503
 11
10.9974325226
 21
-15.9909603469
  0
LINE
  5
2AC
100
AcDbEntity
  8
RACCORDO
100
AcDbLine
 62
253
  6
CONTINUOUS
 10
10.4858351688
 20
1.0555599083
 11
10.4890638443
 21
-10.8091626086
  0
LINE
  5
2AD
100
AcDbEntity
  8
RACCORDO
100
AcDbLine
 62
253
  6
CONTINUOUS
 10
10.9856638317
 20
1.0545165753
 11
10.98889248
 21
-10.7928354503
  0
LINE
  5
2AE
100
AcDbEntity
  8
0
100
AcDbLine
 62
7
  6
CONTINUOUS
 10
11.0514422353
 20
-21.6116135728
 11
11.0514422353
 21
21.6116135728
  0
LINE
  5
2AF
100
AcDbEntity
  8
RACCORDO
100
AcDbLine
 62
253
  6
CONTINUOUS
 10
10.4923428009
 20
13.4252942356
 11
10.4858351688
 21
1.0555599083
  0
LINE
  5
2B0
100
AcDbEntity
  8
RACCORDO
100
AcDbLine
 62
253
  6
CONTINUOUS
 10
10.9921713911
 20
13.393943041
 11
10.9856638317
 21
1.0545165753
  0
LINE
  5
2B1
100
AcDbEntity
  8
RACCORDO
100
AcDbLine
 62
253
  6
CONTINUOUS
 10
10.5048394583
 20
18.6410336144
 11
10.4923428009
 21
13.4252942356
  0
LINE
  5
2B2
100
AcDbEntity
  8
RACCORDO
100
AcDbLine
 62
253
  6
CONTINUOUS
 10
11.0046681645
 20
18.5804023251
 11
10.9921713911
 21
13.393943041
  0
LINE
  5
2B3
100
AcDbEntity
  8
RACCORDO
100
AcDbLine
 62
253
  6
CONTINUOUS
 10
10.5152609176
 20
21.5306766563
 11
10.5048394583
 21
18.6410336144
  0
LINE
  5
2B4
100
AcDbEntity
  8
RACCORDO
100
AcDbLine
 62
253
  6
CONTINUOUS
 10
11.0143326477
 20
21.2368235579
 11
11.0046681645
 21
18.5804023251
  0
LINE
  5
2B5
100
AcDbEntity
  8
RACCORDO
100
AcDbLine
 62
253
  6
CONTINUOUS
 10
10.5169142997
 20
21.7251528619
 11
10.5152609176
 21
21.5306766563
  0
LINE
  5
2B6
100
AcDbEntity
  8
RACCORDO
100
AcDbLine
 62
253
  6
CONTINUOUS
 10
11.0150841564
 20
21.3081932214
 11
11.0143326477
 21
21.2368235579
  0
LINE
  5
2B7
100
AcDbEntity
  8
RACCORDO
100
AcDbLine
 62
253
  6
CONTINUOUS
 10
10.5191102789
 20
21.8852865879
 11
10.5169142997
 21
21.7251528619
  0
LINE
  5
2B8
100
AcDbEntity
  8
RACCORDO
100
AcDbLine
 62
253
  6
CONTINUOUS
 10
11.0161223366
 20
21.3749505517
 11
11.0150841564
 21
21.3081932214
  0
LWPOLYLINE
  5
2B9
100
AcDbEntity
  8
RACCORDO
100
AcDbPolyline
 62
253
  6
CONTINUOUS
 90
16
 70
0
 10
11.0264799709
 20
21.5866513084
 10
11.0237085608
 20
21.638873962
 10
11.0154962044
 20
21.6905251247
 10
11.0019327487
 20
21.7410393988
 10
10.9831666165
 20
21.7898638266
 10
10.9594031858
 20
21.8364639333
 10
10.9309025464
 20
21.8803295793
 10
10.897976642
 20
21.9209805652
 10
10.8609858676
 20
21.9579718672
 10
10.8203351383
 20
21.9908985062
 10
10.7764694206
 20
22.0194000157
 10
10.729868886
 20
22.0431643617
 10
10.6810436815
 20
22.0619313551
 10
10.6305282932
 20
22.0754955292
 10
10.5788756908
 20
22.0837083782
 10
10.5266513085
 20
22.086479971
  0
LWPOLYLINE
  5
2BA
100
AcDbEntity
  8
RACCORDO
100
AcDbPolyline
 62
253
  6
CONTINUOUS
 90
16
 70
0
 10
11.0264799709
 20
-21.5866513084
 10
11.0237084581
 20
-21.6388749344
 10
11.015495829
 20
-21.690526886
 10
11.0019319847
 20
-21.7410417469
 10
10.9831654039
 20
-21.789866548
 10
10.9594015179
 20
-21.8364668207
 10
10.930900462
 20
-21.8803324476
 10
10.8979742277
 20
-21.9209832467
 10
10.8609832471
 20
-21.9579742273
 10
10.8203324481
 20
-21.9909004617
 10
10.7764668212
 20
-22.0194015177
 10
10.7298665484
 20
-22.0431654037
 10
10.6810417473
 20
-22.0619319846
 10
10.6305268863
 20
-22.075495829
 10
10.5788749345
 20
-22.0837084581
 10
10.5266513084
 20
-22.0864799709
  0
LWPOLYLINE
  5
2BB
100
AcDbEntity
  8
RACCORDO
100
AcDbPolyline
 62
253
  6
CONTINUOUS
 90
7
 70
0
 10
-10.9879958269
 20
9.4905
 10
-10.9840029648
 20
9.4914768667
 10
-10.9747570053
 20
9.492443384
 10
-10.960355904
 20
9.4933893122
 10
-10.9409522323
 20
9.4943046298
 10
-10.9167515612
 20
9.4951796396
 10
-10.8880102829
 20
9.4960050712
  0
LWPOLYLINE
  5
2BC
100
AcDbEntity
  8
RACCORDO
100
AcDbPolyline
 62
253
  6
CONTINUOUS
 90
9
 70
0
 10
10.9879958269
 20
9.4905
 10
10.9840029683
 20
9.4914768667
 10
10.9747570117
 20
9.4924433841
 10
10.9603559128
 20
9.4933893124
 10
10.9409522429
 20
9.4943046301
 10
10.9167515731
 20
9.4951796399
 10
10.8880102954
 20
9.4960050715
 10
10.8550329075
 20
9.4967721801
 10
10.7778084852
 20
9.4980996237
  0
LWPOLYLINE
  5
2BD
100
AcDbEntity
  8
0
100
AcDbPolyline
 62
7
  6
CONTINUOUS
 90
10
 70
0
 43
0.3500000006
 10
1.2857142735
 20
31.3614431305
 10
1.3571429071
 20
31.2185852966
 10
1.3571429071
 20
31.1471586456
 10
1.2142857814
 20
31.0043008118
 10
1.1428571477
 20
31.0043008118
 10
1.0714285848
 20
31.0757274628
 10
1.0714285848
 20
31.1471586456
 10
1.1428571477
 20
31.2900119476
 10
1.2142857814
 20
31.3614431305
 10
1.2857142735
 20
31.3614431305
  0
LWPOLYLINE
  5
2BE
100
AcDbEntity
  8
0
100
AcDbPolyline
 62
7
  6
CONTINUOUS
 90
3
 70
0
 43
0.3500000006
 10
17.7371428642
 20
-0.5357137985
 10
17.7371428642
 20
-2.0357142563
 10
15.3799999352
 20
-1.3928574028
  0
LWPOLYLINE
  5
2BF
100
AcDbEntity
  8
0
100
AcDbPolyline
 62
7
  6
CONTINUOUS
 90
3
 70
0
 43
0.3500000006
 10
17.7371428642
 20
-2.8928567276
 10
17.7371428642
 20
-4.3928571854
 10
15.3799999352
 20
-3.7500003319
  0
LWPOLYLINE
  5
2C0
100
AcDbEntity
  8
0
100
AcDbPolyline
 62
7
  6
CONTINUOUS
 90
7
 70
0
 43
0.3500000006
 10
18.3799997177
 20
3.5357140732
 10
18.3799997177
 20
2.0357136154
 10
16.2371424065
 20
3.5357140732
 10
15.8085711708
 20
3.5357140732
 10
15.3799999352
 20
3.1071428375
 10
15.3799999352
 20
2.4642848511
 10
16.0228567886
 20
2.0357136154
  0
LWPOLYLINE
  5
2C1
100
AcDbEntity
  8
RACCORDO
100
AcDbPolyline
 62
253
  6
CONTINUOUS
 90
16
 70
0
 10
11.0138766931
 20
-21.1615238967
 10
11.0098965
 20
-21.1692064438
 10
11.0006612473
 20
-21.1768075537
 10
10.9862688116
 20
-21.1842466688
 10
10.9668717254
 20
-21.1914449486
 10
10.9426755615
 20
-21.1983261048
 10
10.9139367539
 20
-21.2048172101
 10
10.8809598798
 20
-21.2108494709
 10
10.8440944322
 20
-21.2163589566
 10
10.8037311155
 20
-21.221287277
 10
10.7602977052
 20
-21.2255822012
 10
10.7142545137
 20
-21.2291982111
 10
10.6660895124
 20
-21.232096984
 10
10.6163131598
 20
-21.2342477985
 10
10.5654529919
 20
-21.2356278599
 10
10.5140480307
 20
-21.2362225423
  0
LWPOLYLINE
  5
2C2
100
AcDbEntity
  8
RACCORDO
100
AcDbPolyline
 62
253
  6
CONTINUOUS
 90
16
 70
0
 10
11.0138766932
 20
21.1615238967
 10
11.0098974611
 20
21.1692066574
 10
11.0006630216
 20
21.176807993
 10
10.9862712449
 20
21.1842473417
 10
10.9668746607
 20
21.1914458583
 10
10.9426788416
 20
21.1983272502
 10
10.9139402246
 20
21.2048185855
 10
10.8809633926
 20
21.2108510667
 10
10.8440978473
 20
21.216360759
 10
10.803734304
 20
21.2212892686
 10
10.7603005516
 20
21.2255843612
 10
10.7142569181
 20
21.2292005157
 10
10.6660913919
 20
21.232099407
 10
10.6163144504
 20
21.2342503114
 10
10.5654536491
 20
21.2356304329
 10
10.5140480307
 20
21.2362251442
  0
LINE
  5
2C3
100
AcDbEntity
  8
RACCORDO
100
AcDbLine
 62
253
  6
CONTINUOUS
 10
-10.5140480307
 20
21.2362251476
 11
10.5140480307
 21
21.2362251476
  0
LINE
  5
2C4
100
AcDbEntity
  8
RACCORDO
100
AcDbLine
 62
253
  6
CONTINUOUS
 10
-10.5266513084
 20
22.0864799709
 11
10.5266513084
 21
22.0864799709
  0
LINE
  5
2C5
100
AcDbEntity
  8
0
100
AcDbLine
 62
7
  6
CONTINUOUS
 10
-10.5516135728
 20
22.1114422353
 11
10.5516135728
 21
22.1114422353
  0
LWPOLYLINE
  5
2C6
100
AcDbEntity
  8
0
100
AcDbPolyline
 62
7
  6
CONTINUOUS
 90
7
 70
0
 43
0.3500000006
 10
-0.2142857063
 20
30.8614429779
 10
-1.7142856507
 20
30.8614429779
 10
-0.2142857063
 20
33.0043014221
 10
-0.2142857063
 20
33.4328703918
 10
-0.6428571367
 20
33.8614438934
 10
-1.2857142735
 20
33.8614438934
 10
-1.7142856507
 20
33.218585907
  0
LWPOLYLINE
  5
2C7
100
AcDbEntity
  8
0
100
AcDbPolyline
 62
7
  6
CONTINUOUS
 90
7
 70
0
 43
0.3500000006
 10
-2.5714285469
 20
30.8614429779
 10
-4.0714284382
 20
30.8614429779
 10
-2.5714285469
 20
33.0043014221
 10
-2.5714285469
 20
33.4328703918
 10
-3.0000000658
 20
33.8614438934
 10
-3.6428572025
 20
33.8614438934
 10
-4.0714284382
 20
33.218585907
  0
LWPOLYLINE
  5
2C8
100
AcDbEntity
  8
RACCORDO
100
AcDbPolyline
 62
253
  6
CONTINUOUS
 90
4
 70
0
 10
-35.5027476193
 20
-21.232096984
 10
-35.5156787174
 20
-21.2342477985
 10
-35.5234804312
 20
-21.2356278599
 10
-35.5260700774
 20
-21.2362225423
  0
LINE
  5
2C9
100
AcDbEntity
  8
RACCORDO
100
AcDbLine
 62
253
  6
CONTINUOUS
 10
-35.4348110076
 20
-21.221287277
 11
-35.5027476193
 21
-21.232096984
  0
LWPOLYLINE
  5
2CA
100
AcDbEntity
  8
RACCORDO
100
AcDbPolyline
 62
253
  6
CONTINUOUS
 90
3
 70
0
 10
-35.0447875327
 20
-21.1615238967
 10
-35.0955279772
 20
-21.1692064438
 10
-35.4348110076
 20
-21.221287277
  0
LINE
  5
2CB
100
AcDbEntity
  8
RACCORDO
100
AcDbLine
 62
7
  6
CONTINUOUS
 10
-34.5634877757
 20
-22.0864799709
 11
-33.6102173581
 21
-22.1114422353
  0
LINE
  5
2CC
100
AcDbEntity
  8
0
100
AcDbLine
 62
7
  6
CONTINUOUS
 10
-34.5634877757
 20
-22.0864799709
 11
-33.6102173581
 21
-22.1114422353
  0
LINE
  5
2CD
100
AcDbEntity
  8
0
100
AcDbLine
 62
253
  6
CONTINUOUS
 10
-34.5634877757
 20
-21.5866513084
 11
-33.6102173581
 21
-21.6116135728
  0
LINE
  5
2CE
100
AcDbEntity
  8
0
100
AcDbLine
 62
7
  6
CONTINUOUS
 10
-32.6102173581
 20
-13.2689805518
 11
-33.6102173581
 21
-13.3213883311
  0
LWPOLYLINE
  5
2CF
100
AcDbEntity
  8
0
100
AcDbPolyline
 62
7
  6
CONTINUOUS
 90
2
 70
0
 43
0.3500000006
 10
-43.2173883362
 20
30.8614429779
 10
-43.2173883362
 20
32.3614434357
  0
LINE
  5
2D0
100
AcDbEntity
  8
RACCORDO
100
AcDbLine
 62
253
  6
CONTINUOUS
 10
-36.5173115457
 20
-9.4999241093
 11
-36.5199591892
 21
-9.4999999996
  0
LINE
  5
2D1
100
AcDbEntity
  8
RACCORDO
100
AcDbLine
 62
253
  6
CONTINUOUS
 10
-36.0331379439
 20
-9.4905
 11
-36.5173115457
 21
-9.4999241093
  0
LINE
  5
2D2
100
AcDbEntity
  8
0
100
AcDbLine
 62
7
  6
CONTINUOUS
 10
-33.6102173581
 20
-9.6786116689
 11
-32.6102173581
 21
-9.7310194482
  0
LWPOLYLINE
  5
2D3
100
AcDbEntity
  8
RACCORDO
100
AcDbPolyline
 62
253
  6
CONTINUOUS
 90
10
 70
0
 10
-35.0447875327
 20
21.1615238967
 10
-35.2300375656
 20
19.8719721168
 10
-35.3964470551
 20
18.5804023251
 10
-35.5440160012
 20
17.2868145217
 10
-35.6727681195
 20
15.9909275752
 10
-35.7826796944
 20
14.693022617
 10
-35.8736795789
 20
13.393943041
 10
-35.9457440575
 20
12.0939699785
 10
-35.9988968458
 20
10.7928222982
 10
-36.0331379439
 20
9.4905
  0
LWPOLYLINE
  5
2D4
100
AcDbEntity
  8
RACCORDO
100
AcDbPolyline
 62
253
  6
CONTINUOUS
 90
19
 70
0
 10
-35.0447875327
 20
-21.1615238967
 10
-35.0374781366
 20
-21.1997029793
 10
-35.0273705451
 20
-21.2368459471
 10
-35.0144647582
 20
-21.2729528004
 10
-34.9986471386
 20
-21.3082533784
 10
-34.9800313236
 20
-21.3425178419
 10
-34.9589582252
 20
-21.3750566723
 10
-34.9353827359
 20
-21.4058170317
 10
-34.909349963
 20
-21.4348517581
 10
-34.8813361404
 20
-21.4616298466
 10
-34.8513083757
 20
-21.4861047249
 10
-34.8192995612
 20
-21.5083229653
 10
-34.7858846073
 20
-21.5278932804
 10
-34.751015447
 20
-21.5447694949
 10
-34.7147401472
 20
-21.5589977841
 10
-34.6777778191
 20
-21.5703253862
 10
-34.6403681663
 20
-21.5786680473
 10
-34.6022714852
 20
-21.5841100214
 10
-34.5634877757
 20
-21.5866513084
  0
LWPOLYLINE
  5
2D5
100
AcDbEntity
  8
RACCORDO
100
AcDbPolyline
 62
253
  6
CONTINUOUS
 90
10
 70
0
 10
-36.0331379439
 20
-9.4905
 10
-35.9988961407
 20
-10.7928354503
 10
-35.9457427221
 20
-12.0939929862
 10
-35.873677688
 20
-13.3939726076
 10
-35.7826771877
 20
-14.6930554344
 10
-35.6727650718
 20
-15.9909603469
 10
-35.5440128932
 20
-17.2868439853
 10
-35.3964445025
 20
-18.5804252298
 10
-35.230036049
 20
-19.8719852003
 10
-35.0447875327
 20
-21.1615238967
  0
LWPOLYLINE
  5
2D6
100
AcDbEntity
  8
RACCORDO
100
AcDbPolyline
 62
253
  6
CONTINUOUS
 90
10
 70
0
 10
-36.0331379439
 20
9.4905
 10
-36.0687600717
 20
7.3815276327
 10
-36.0954766652
 20
5.2725411972
 10
-36.1132877245
 20
3.1635406936
 10
-36.1221932464
 20
1.0545165753
 10
-36.122193234
 20
-1.0545216111
 10
-36.1132876966
 20
-3.1635452259
 10
-36.0954766374
 20
-5.2725447223
 10
-36.0687600531
 20
-7.381529647
 10
-36.0331379439
 20
-9.4905
  0
LINE
  5
2D7
100
AcDbEntity
  8
RACCORDO
100
AcDbLine
 62
253
  6
CONTINUOUS
 10
-34.5634877757
 20
21.5866513084
 11
-34.5659201908
 21
21.6905251247
  0
LINE
  5
2D8
100
AcDbEntity
  8
RACCORDO
100
AcDbLine
 62
253
  6
CONTINUOUS
 10
-34.5659201908
 20
21.6905251247
 11
-34.5676748883
 21
21.7898638266
  0
LWPOLYLINE
  5
2D9
100
AcDbEntity
  8
RACCORDO
100
AcDbPolyline
 62
253
  6
CONTINUOUS
 90
11
 70
0
 10
-34.5676748883
 20
21.7898638266
 10
-34.5686752353
 20
21.8803295793
 10
-34.5688775235
 20
21.9209805652
 10
-34.5688775367
 20
21.9579718672
 10
-34.5686752734
 20
21.9908985062
 10
-34.5682729461
 20
22.0194000157
 10
-34.5676749578
 20
22.0431643617
 10
-34.5668878542
 20
22.0619313551
 10
-34.5659202511
 20
22.0754955292
 10
-34.5647827396
 20
22.0837083782
 10
-34.5634877712
 20
22.086479971
  0
LWPOLYLINE
  5
2DA
100
AcDbEntity
  8
RACCORDO
100
AcDbPolyline
 62
253
  6
CONTINUOUS
 90
9
 70
0
 10
-34.5688775236
 20
-21.9209832467
 10
-34.5688775235
 20
-21.9579742273
 10
-34.5686752484
 20
-21.9909004617
 10
-34.5682729127
 20
-22.0194015177
 10
-34.5676749207
 20
-22.0431654037
 10
-34.5668878185
 20
-22.0619319846
 10
-34.5659202223
 20
-22.075495829
 10
-34.5647827241
 20
-22.0837084581
 10
-34.5634877757
 20
-22.0864799709
  0
LINE
  5
2DB
100
AcDbEntity
  8
0
100
AcDbLine
 62
7
  6
CONTINUOUS
 10
-33.6102173581
 20
-22.1114422353
 11
-33.6102173581
 21
22.1114422353
  0
LINE
  5
2DC
100
AcDbEntity
  8
RACCORDO
100
AcDbLine
 62
253
  6
CONTINUOUS
 10
-34.5682729137
 20
-21.8364668207
 11
-34.5688775236
 21
-21.9209832467
  0
LINE
  5
2DD
100
AcDbEntity
  8
RACCORDO
100
AcDbLine
 62
253
  6
CONTINUOUS
 10
-34.5668878198
 20
-21.7410417469
 11
-34.5682729137
 21
-21.8364668207
  0
LWPOLYLINE
  5
2DE
100
AcDbEntity
  8
RACCORDO
100
AcDbPolyline
 62
253
  6
CONTINUOUS
 90
3
 70
0
 10
-34.5634877757
 20
-21.5866513084
 10
-34.5647827248
 20
-21.6388749344
 10
-34.5668878198
 20
-21.7410417469
  0
LINE
  5
2DF
100
AcDbEntity
  8
0
100
AcDbLine
 62
253
  6
CONTINUOUS
 10
-32.9892829756
 20
13.288846539
 11
-32.9892829756
 21
9.711153461
  0
LINE
  5
2E0
100
AcDbEntity
  8
0
100
AcDbLine
 62
253
  6
CONTINUOUS
 10
-32.9892829756
 20
-9.711153461
 11
-32.9892829756
 21
-13.288846539
  0
LINE
  5
2E1
100
AcDbEntity
  8
0
100
AcDbLine
 62
7
  6
CONTINUOUS
 10
-32.6102173581
 20
13.2689805518
 11
-32.6102173581
 21
9.7310194482
  0
LINE
  5
2E2
100
AcDbEntity
  8
0
100
AcDbLine
 62
7
  6
CONTINUOUS
 10
-32.6102173581
 20
-9.7310194482
 11
-32.6102173581
 21
-13.2689805518
  0
LINE
  5
2E3
100
AcDbEntity
  8
0
100
AcDbLine
 62
7
  6
CONTINUOUS
 10
-32.6102173581
 20
9.7310194482
 11
-33.6102173581
 21
9.6786116689
  0
LWPOLYLINE
  5
2E4
100
AcDbEntity
  8
RACCORDO
100
AcDbPolyline
 62
253
  6
CONTINUOUS
 90
3
 70
0
 10
-36.0331379439
 20
9.4905
 10
-36.5173115674
 20
9.4999241097
 10
-36.5199592111
 20
9.5
  0
LINE
  5
2E5
100
AcDbEntity
  8
0
100
AcDbLine
 62
7
  6
CONTINUOUS
 10
-33.6102173581
 20
13.3213883311
 11
-32.6102173581
 21
13.2689805518
  0
LWPOLYLINE
  5
2E6
100
AcDbEntity
  8
RACCORDO
100
AcDbPolyline
 62
253
  6
CONTINUOUS
 90
19
 70
0
 10
-34.5634877757
 20
21.5866513084
 10
-34.6022810754
 20
21.5841111763
 10
-34.6403911354
 20
21.5786660206
 10
-34.6778179557
 20
21.5703158414
 10
-34.714803687
 20
21.5589761121
 10
-34.7511061785
 20
21.5447313594
 10
-34.7859989783
 20
21.5278351628
 10
-34.8194351015
 20
21.5082362811
 10
-34.8514615329
 20
21.4859859557
 10
-34.8814927754
 20
21.4614914897
 10
-34.9094866695
 20
21.4347145028
 10
-34.9354853747
 20
21.4056933754
 10
-34.9590298721
 20
21.3749505517
 10
-34.9800802269
 20
21.3424327347
 10
-34.9986763741
 20
21.3081932214
 10
-35.0144790996
 20
21.2729143474
 10
-35.0273753322
 20
21.2368235579
 10
-35.0374781433
 20
21.1996934077
 10
-35.0447875327
 20
21.1615238967
  0
LINE
  5
2E7
100
AcDbEntity
  8
0
100
AcDbLine
 62
253
  6
CONTINUOUS
 10
-33.6102173581
 20
21.6116135728
 11
-34.5634877757
 21
21.5866513084
  0
LINE
  5
2E8
100
AcDbEntity
  8
RACCORDO
100
AcDbLine
 62
7
  6
CONTINUOUS
 10
-33.6102173581
 20
22.1114422353
 11
-34.5634877712
 21
22.086479971
  0
LINE
  5
2E9
100
AcDbEntity
  8
0
100
AcDbLine
 62
7
  6
CONTINUOUS
 10
-33.6102173581
 20
22.1114422353
 11
-34.5634877757
 21
22.0864799709
  0
LWPOLYLINE
  5
2EA
100
AcDbEntity
  8
0
100
AcDbPolyline
 62
7
  6
CONTINUOUS
 90
3
 70
0
 43
0.3500000006
 10
-42.7173881836
 20
31.5043009644
 10
-44.2173886414
 20
31.5043009644
 10
-43.5745306549
 20
33.8614438934
  0
LINE
  5
2EB
100
AcDbEntity
  8
RACCORDO
100
AcDbLine
 62
253
  6
CONTINUOUS
 10
-35.0447875327
 20
21.1615238967
 11
-35.4032633473
 21
21.216360759
  0
LWPOLYLINE
  5
2EC
100
AcDbEntity
  8
RACCORDO
100
AcDbPolyline
 62
253
  6
CONTINUOUS
 90
6
 70
0
 10
-35.4032633473
 20
21.216360759
 10
-35.4848394964
 20
21.2292005157
 10
-35.5027636959
 20
21.232099407
 10
-35.5156953666
 20
21.2342503114
 10
-35.5234974537
 20
21.2356304329
 10
-35.5260872676
 20
21.2362251442
  0
ARC
  5
2ED
100
AcDbEntity
  8
RACCORDO
100
AcDbCircle
 62
7
  6
CONTINUOUS
 10
463.3897826419
 20
0.0
 40
500.0
100
AcDbArc
 50
178.91131468
 51
181.08868532
  0
ARC
  5
2EE
100
AcDbEntity
  8
RACCORDO
100
AcDbCircle
 62
7
  6
CONTINUOUS
 10
53.4637943221
 20
7.79
 40
90.0
100
AcDbArc
 50
171.407697748
 51
178.91131468
  0
ARC
  5
2EF
100
AcDbEntity
  8
RACCORDO
100
AcDbCircle
 62
7
  6
CONTINUOUS
 10
53.4637943221
 20
-7.79
 40
90.0
100
AcDbArc
 50
181.08868532
 51
188.592302252
  0
ARC
  5
2F0
100
AcDbEntity
  8
RACCORDO
100
AcDbCircle
 62
7
  6
CONTINUOUS
 10
-34.5373108274
 20
21.0868226459
 40
1.0
100
AcDbArc
 50
91.5
 51
171.407697748
  0
ARC
  5
2F1
100
AcDbEntity
  8
RACCORDO
100
AcDbCircle
 62
7
  6
CONTINUOUS
 10
-34.5373108274
 20
-21.0868226459
 40
1.0
100
AcDbArc
 50
188.592302252
 51
268.5
  0
ELLIPSE
  5
2F2
100
AcDbEntity
  8
0
100
AcDbEllipse
 62
7
  6
CONTINUOUS
 10
-10.551270839
 20
-21.611270839
 30
0.0
 11
0.35379574
 21
0.35379574
 31
0.0
 40
0.999315002
 41
2.3565371065
 42
3.9266482006
  0
ELLIPSE
  5
2F3
100
AcDbEntity
  8
0
100
AcDbEllipse
 62
7
  6
CONTINUOUS
 10
-10.551270839
 20
21.611270839
 30
0.0
 11
-0.35379574
 21
0.35379574
 31
0.0
 40
0.999315002
 41
-0.7850555471
 42
0.7850555471
  0
ELLIPSE
  5
2F4
100
AcDbEntity
  8
0
100
AcDbEllipse
 62
7
  6
CONTINUOUS
 10
10.551270839
 20
-21.611270839
 30
0.0
 11
-0.35379574
 21
0.35379574
 31
0.0
 40
0.999315002
 41
-3.9266482006
 42
-2.3565371065
  0
ELLIPSE
  5
2F5
100
AcDbEntity
  8
0
100
AcDbEllipse
 62
7
  6
CONTINUOUS
 10
10.551270839
 20
21.611270839
 30
0.0
 11
-0.35379574
 21
-0.35379574
 31
0.0
 40
0.999315002
 41
2.3565371065
 42
3.9266482006
  0
ENDSEC
  0
SECTION
  2
OBJECTS
  0
DICTIONARY
  5
C
100
AcDbDictionary
280
0
281
1
  3
ACAD_GROUP
350
D
  3
ACAD_MLINESTYLE
350
17
  3
ACAD_LAYOUT
350
1A
  3
ACAD_PLOTSETTINGS
350
19
  3
ACAD_PLOTSTYLENAME
350
E
  0
DICTIONARY
  5
D
102
{ACAD_REACTORS
330
C
102
}
100
AcDbDictionary
280
0
281
1
  0
ACDBDICTIONARYWDFLT
  5
E
102
{ACAD_REACTORS
330
C
102
}
100
AcDbDictionary
281
1
  3
Normal
350
F
100
AcDbDictionaryWithDefault
340
F
  0
DICTIONARY
  5
17
102
{ACAD_REACTORS
330
C
102
}
100
AcDbDictionary
280
0
281
1
  3
Standard
350
18
  0
DICTIONARY
  5
19
102
{ACAD_REACTORS
330
C
102
}
100
AcDbDictionary
281
1
  0
DICTIONARY
  5
1A
102
{ACAD_REACTORS
330
C
102
}
100
AcDbDictionary
281
1
  3
Model
350
2F6
  3
Layout1
350
2F7
  0
ACDBPLACEHOLDER
  5
F
102
{ACAD_REACTORS
330
E
102
}
  0
MLINESTYLE
  5
18
102
{ACAD_REACTORS
330
17
102
}
100
AcDbMlineStyle
  2
STANDARD
 70
0
  3

 62
256
 51
90.0
 52
90.0
 71
2
 49
0.5
 62
256
  6
BYLAYER
 49
-0.5
 62
256
  6
BYLAYER
  0
LAYOUT
  5
2F6
102
{ACAD_REACTORS
330
1A
102
}
100
AcDbPlotSettings
  1

  2
none_device
  4
ISO_A4_(297.00_x_210.00_MM)
  6

 40
0.0
 41
0.0
 42
0.0
 43
0.0
 44
297.0
 45
210.0
 46
0.0
 47
0.0
 48
0.0
 49
0.0
140
0.0
141
0.0
142
1.0
143
1.0
 70
1024
 72
1
 73
0
 74
0
  7

 75
0
147
1.0
148
0.0
149
0.0
100
AcDbLayout
  1
Model
 70
0
 71
0
 10
0.0
 20
0.0
 11
297.0
 21
210.0
 12
0.0
 22
0.0
 32
0.0
 14
0.0
 24
0.0
 34
0.0
 15
0.0
 25
0.0
 35
0.0
146
0.0
 13
0.0
 23
0.0
 33
0.0
 16
1.0
 26
0.0
 36
0.0
 17
0.0
 27
1.0
 37
0.0
 76
0
330
215
345
0
346
0
  0
LAYOUT
  5
2F7
102
{ACAD_REACTORS
330
1A
102
}
100
AcDbPlotSettings
  1

  2
none_device
  4
ISO_A4_(297.00_x_210.00_MM)
  6

 40
0.0
 41
0.0
 42
0.0
 43
0.0
 44
297.0
 45
210.0
 46
0.0
 47
0.0
 48
0.0
 49
0.0
140
0.0
141
0.0
142
1.0
143
1.0
 70
0
 72
1
 73
0
 74
0
  7

 75
0
147
1.0
148
0.0
149
0.0
100
AcDbLayout
  1
Layout1
 70
0
 71
1
 10
0.0
 20
0.0
 11
297.0
 21
210.0
 12
0.0
 22
0.0
 32
0.0
 14
0.0
 24
0.0
 34
0.0
 15
0.0
 25
0.0
 35
0.0
146
0.0
 13
0.0
 23
0.0
 33
0.0
 16
1.0
 26
0.0
 36
0.0
 17
0.0
 27
1.0
 37
0.0
 76
0
330
216
345
0
346
0
  0
ENDSEC
  0
EOF
