  0
SECTION
  2
HEADER
  9
$ACADVER
  1
AC1015
  9
$DWGCODEPAGE
  3
ANSI_1252
  9
$EXTMAX
 10
297.0
 20
210.0
 30
0.0
  9
$EXTMIN
 10
0.0
 20
0.0
 30
0.0
  9
$LIMMIN
 10
0.0
 20
0.0
  9
$LIMMAX
 10
297.0
 20
210.0
  9
$VIEWCTR
 10
148.5
 20
105.0
  9
$VIEWSIZE
 40
210.0
  9
$CLAYER
  8
0
  9
$LTSCALE
 40
16.335
  9
$CELTYPE
  6
BYLAYER
  9
$DIMSCALE
 40
1.0
  9
$DIMASZ
 40
3.0
  9
$DIMEXO
 40
1.85625
  9
$DIMDLI
 40
11.286
  9
$DIMEXE
 40
5.346
  9
$DIMCEN
 40
2.673
  9
$DIMLFAC
 40
1.0
  9
$DIMBLK
  1
_FILLED
  9
$DIMTXT
 40
3.0
  9
$DIMTOL
 70
1
  9
$DIMLIM
 70
0
  9
$DIMTFAC
 40
1.0
  9
$DIMTP
 40
0.01
  9
$DIMTM
 40
0.01
  9
$PDMODE
 70
3
  9
$PDSIZE
 40
3.0
  9
$HANDSEED
  5
30E
  9
$TILEMODE
 70
1
  9
$MEASUREMENT
 70
1
  9
$INSUNITS
 70
4
  0
ENDSEC
  0
SECTION
  2
CLASSES
  0
CLASS
  1
ACDBDICTIONARYWDFLT
  2
AcDbDictionaryWithDefault
  3
AutoCAD 2000
 90
0
280
0
281
0
  0
CLASS
  1
ACDBPLACEHOLDER
  2
AcDbPlaceHolder
  3
AutoCAD 2000
 90
0
280
0
281
0
  0
CLASS
  1
LAYOUT
  2
AcDbLayout
  3
AutoCAD 2000
 90
0
280
0
281
0
  0
ENDSEC
  0
SECTION
  2
TABLES
  0
TABLE
  2
VPORT
  5
8
100
AcDbSymbolTable
 70
2
  0
VPORT
  5
1F4
100
AcDbSymbolTableRecord
100
AcDbViewportTableRecord
  2
*ACTIVE
 70
0
 10
0.0
 20
0.0
 11
1.0
 21
1.0
 12
148.5
 22
105.0
 13
0.0
 23
0.0
 14
1.0
 24
1.0
 15
0.0
 25
0.0
 16
0.0
 26
0.0
 36
1.0
 17
0.0
 27
0.0
 37
0.0
 40
210.0
 41
1.4142857143
 42
50.0
 43
0.0
 44
0.0
 50
0.0
 51
0.0
 71
0
 72
100
 73
1
 74
1
 75
0
 76
0
 77
0
 78
0
  0
ENDTAB
  0
TABLE
  2
LTYPE
  5
5
100
AcDbSymbolTable
 70
6
  0
LTYPE
  5
14
100
AcDbSymbolTableRecord
100
AcDbLinetypeTableRecord
  2
BYBLOCK
 70
0
  3

 72
65
 73
0
 40
0.0
  0
LTYPE
  5
15
100
AcDbSymbolTableRecord
100
AcDbLinetypeTableRecord
  2
BYLAYER
 70
0
  3

 72
65
 73
0
 40
0.0
  0
LTYPE
  5
16
100
AcDbSymbolTableRecord
100
AcDbLinetypeTableRecord
  2
CONTINUOUS
 70
64
  3
Solid line
 72
65
 73
0
 40
0.0
  0
LTYPE
  5
1F5
100
AcDbSymbolTableRecord
100
AcDbLinetypeTableRecord
  2
CENTER
 70
64
  3
____ _ ____ _ ____ _ ____ _ ____ _ ____ _ ____
 72
65
 73
4
 40
0.6
 49
0.375
 74
0
 49
-0.075
 74
0
 49
0.075
 74
0
 49
-0.075
 74
0
  0
LTYPE
  5
1F6
100
AcDbSymbolTableRecord
100
AcDbLinetypeTableRecord
  2
HIDDEN
 70
64
  3
- - - - - - - - - - - - - - - - - - - -
 72
65
 73
2
 40
0.2
 49
0.1
 74
0
 49
-0.1
 74
0
  0
LTYPE
  5
1F7
100
AcDbSymbolTableRecord
100
AcDbLinetypeTableRecord
  2
PHANTOM
 70
64
  3
_____ _ _ _____ _ _ _____ _ _ _____
 72
65
 73
6
 40
0.8
 49
0.45
 74
0
 49
-0.05
 74
0
 49
0.1
 74
0
 49
-0.05
 74
0
 49
0.1
 74
0
 49
-0.05
 74
0
  0
LTYPE
  5
1F8
100
AcDbSymbolTableRecord
100
AcDbLinetypeTableRecord
  2
DOT
 70
64
  3
. . . . . . . . . . . . . . . . . . . .
 72
65
 73
2
 40
0.2
 49
0.1
 74
0
 49
-0.1
 74
0
  0
LTYPE
  5
1F9
100
AcDbSymbolTableRecord
100
AcDbLinetypeTableRecord
  2
DASHED
 70
64
  3
- - - - - - - - - - - - - - - - - - - -
 72
65
 73
2
 40
0.2
 49
0.1
 74
0
 49
-0.1
 74
0
  0
ENDTAB
  0
TABLE
  2
LAYER
  5
2
100
AcDbSymbolTable
 70
36
  0
LAYER
  5
10
100
AcDbSymbolTableRecord
100
AcDbLayerTableRecord
  2
0
 70
0
 62
7
  6
CONTINUOUS
370
-3
390
F
  0
LAYER
  5
1FA
100
AcDbSymbolTableRecord
100
AcDbLayerTableRecord
  2
DEFAULT_1
 70
0
 62
7
  6
CENTER
370
-3
390
F
  0
LAYER
  5
1FB
100
AcDbSymbolTableRecord
100
AcDbLayerTableRecord
  2
DEFAULT_2
 70
0
 62
7
  6
HIDDEN
370
-3
390
F
  0
LAYER
  5
1FC
100
AcDbSymbolTableRecord
100
AcDbLayerTableRecord
  2
DEFAULT_3
 70
0
 62
7
  6
PHANTOM
370
-3
390
F
  0
LAYER
  5
1FD
100
AcDbSymbolTableRecord
100
AcDbLayerTableRecord
  2
ASSI
 70
0
 62
7
  6
CONTINUOUS
370
-3
390
F
  0
LAYER
  5
1FE
100
AcDbSymbolTableRecord
100
AcDbLayerTableRecord
  2
COLOR9
 70
0
 62
7
  6
CONTINUOUS
370
-3
390
F
  0
LAYER
  5
1FF
100
AcDbSymbolTableRecord
100
AcDbLayerTableRecord
  2
COORDINATE
 70
0
 62
7
  6
CONTINUOUS
370
-3
390
F
  0
LAYER
  5
200
100
AcDbSymbolTableRecord
100
AcDbLayerTableRecord
  2
COORD_ORIGINE
 70
0
 62
7
  6
CONTINUOUS
370
-3
390
F
  0
LAYER
  5
201
100
AcDbSymbolTableRecord
100
AcDbLayerTableRecord
  2
COSMETICI
 70
0
 62
7
  6
CONTINUOUS
370
-3
390
F
  0
LAYER
  5
202
100
AcDbSymbolTableRecord
100
AcDbLayerTableRecord
  2
CURVE
 70
0
 62
7
  6
CONTINUOUS
370
-3
390
F
  0
LAYER
  5
203
100
AcDbSymbolTableRecord
100
AcDbLayerTableRecord
  2
DRAFT
 70
0
 62
7
  6
CONTINUOUS
370
-3
390
F
  0
LAYER
  5
204
100
AcDbSymbolTableRecord
100
AcDbLayerTableRecord
  2
IMPORT_IGES
 70
0
 62
7
  6
CONTINUOUS
370
-3
390
F
  0
LAYER
  5
205
100
AcDbSymbolTableRecord
100
AcDbLayerTableRecord
  2
INTF_1
 70
0
 62
7
  6
CONTINUOUS
370
-3
390
F
  0
LAYER
  5
206
100
AcDbSymbolTableRecord
100
AcDbLayerTableRecord
  2
INTF_YELLOW
 70
0
 62
7
  6
CONTINUOUS
370
-3
390
F
  0
LAYER
  5
207
100
AcDbSymbolTableRecord
100
AcDbLayerTableRecord
  2
NOTE
 70
0
 62
7
  6
CONTINUOUS
370
-3
390
F
  0
LAYER
  5
208
100
AcDbSymbolTableRecord
100
AcDbLayerTableRecord
  2
PIANI
 70
0
 62
7
  6
CONTINUOUS
370
-3
390
F
  0
LAYER
  5
209
100
AcDbSymbolTableRecord
100
AcDbLayerTableRecord
  2
PIANI_ORIGINE
 70
0
 62
7
  6
CONTINUOUS
370
-3
390
F
  0
LAYER
  5
20A
100
AcDbSymbolTableRecord
100
AcDbLayerTableRecord
  2
PIANI_RIFERIMENTO
 70
0
 62
7
  6
CONTINUOUS
370
-3
390
F
  0
LAYER
  5
20B
100
AcDbSymbolTableRecord
100
AcDbLayerTableRecord
  2
PUNTI
 70
0
 62
7
  6
CONTINUOUS
370
-3
390
F
  0
LAYER
  5
20C
100
AcDbSymbolTableRecord
100
AcDbLayerTableRecord
  2
RACCORDO
 70
0
 62
7
  6
CONTINUOUS
370
-3
390
F
  0
LAYER
  5
20D
100
AcDbSymbolTableRecord
100
AcDbLayerTableRecord
  2
SIMBOLI
 70
0
 62
7
  6
CONTINUOUS
370
-3
390
F
  0
LAYER
  5
20E
100
AcDbSymbolTableRecord
100
AcDbLayerTableRecord
  2
SMUSSO
 70
0
 62
7
  6
CONTINUOUS
370
-3
390
F
  0
LAYER
  5
20F
100
AcDbSymbolTableRecord
100
AcDbLayerTableRecord
  2
SNAPLINE
 70
0
 62
7
  6
CONTINUOUS
370
-3
390
F
  0
LAYER
  5
210
100
AcDbSymbolTableRecord
100
AcDbLayerTableRecord
  2
SUPERFICI
 70
0
 62
7
  6
CONTINUOUS
370
-3
390
F
  0
LAYER
  5
211
100
AcDbSymbolTableRecord
100
AcDbLayerTableRecord
  2
TRASH
 70
0
 62
7
  6
CONTINUOUS
370
-3
390
F
  0
LAYER
  5
212
100
AcDbSymbolTableRecord
100
AcDbLayerTableRecord
  2
XSEC_DATUMS
 70
0
 62
7
  6
CONTINUOUS
370
-3
390
F
  0
ENDTAB
  0
TABLE
  2
STYLE
  5
3
100
AcDbSymbolTable
 70
1
  0
STYLE
  5
11
100
AcDbSymbolTableRecord
100
AcDbTextStyleTableRecord
  2
STANDARD
 70
0
 40
0.0
 41
0.8
 50
0.0
 71
0
 42
0.2
  3
txt
  4

  0
STYLE
  5
213
100
AcDbSymbolTableRecord
100
AcDbTextStyleTableRecord
  2
TEXTSTYLE_1
 70
0
 40
0.0
 41
0.8
 50
0.0
 71
0
 42
0.2
  3
gdt
  4

  0
ENDTAB
  0
TABLE
  2
VIEW
  5
6
100
AcDbSymbolTable
 70
0
  0
ENDTAB
  0
TABLE
  2
UCS
  5
7
100
AcDbSymbolTable
 70
0
  0
ENDTAB
  0
TABLE
  2
APPID
  5
9
100
AcDbSymbolTable
 70
1
  0
APPID
  5
214
100
AcDbSymbolTableRecord
100
AcDbRegAppTableRecord
  2
ACAD
 70
0
  0
ENDTAB
  0
TABLE
  2
BLOCK_RECORD
  5
1
100
AcDbSymbolTable
 70
0
  0
BLOCK_RECORD
  5
215
100
AcDbSymbolTableRecord
100
AcDbBlockTableRecord
  2
*Model_Space
  0
BLOCK_RECORD
  5
216
100
AcDbSymbolTableRecord
100
AcDbBlockTableRecord
  2
*Paper_Space
  0
BLOCK_RECORD
  5
217
100
AcDbSymbolTableRecord
100
AcDbBlockTableRecord
  2
_FILLED
  0
BLOCK_RECORD
  5
218
100
AcDbSymbolTableRecord
100
AcDbBlockTableRecord
  2
*D0
  0
BLOCK_RECORD
  5
219
100
AcDbSymbolTableRecord
100
AcDbBlockTableRecord
  2
*D1
  0
BLOCK_RECORD
  5
21A
100
AcDbSymbolTableRecord
100
AcDbBlockTableRecord
  2
*D2
  0
ENDTAB
  0
TABLE
  2
DIMSTYLE
  5
A
100
AcDbSymbolTable
 70
1
100
AcDbDimStyleTable
 71
0
  0
DIMSTYLE
105
21B
100
AcDbSymbolTableRecord
100
AcDbDimStyleTableRecord
  2
STANDARD
 70
0
  3

  4

 40
1.0
 41
3.0
 42
0.0625
 43
0.38
 44
0.18
 45
0.0
 46
0.0
 47
0.01
 48
0.01
140
3.0
141
0.09
142
0.0
143
25.4
144
1.0
145
0.0
146
1.0
147
0.09
 71
1.0
 72
0.0
 73
0
 74
0
 75
0
 76
0
 77
1
 78
8
170
0
171
2
172
0
173
0
174
0
175
0
176
0
177
0
178
0
270
2
271
2
272
2
273
2
274
2
275
0
280
0
281
0
282
0
283
1
284
8
285
0
286
0
287
3
288
0
340
11
341
217
342
217
343
217
344
217
  0
DIMSTYLE
105
21C
100
AcDbSymbolTableRecord
100
AcDbDimStyleTableRecord
  2
DIMSTYLE_1
 70
0
  3

  4

 40
1.0
 41
3.0
 42
0.0625
 43
0.38
 44
0.18
 45
0.0
 46
0.0
 47
0.0
 48
0.0
140
3.0
141
0.09
142
0.0
143
25.4
144
1.0
145
0.0
146
1.0
147
0.09
 71
0.0
 72
0.0
 73
0
 74
0
 75
0
 76
0
 77
1
 78
8
170
0
171
2
172
0
173
0
174
0
175
0
176
0
177
0
178
0
270
2
271
1
272
1
273
2
274
2
275
0
280
0
281
0
282
0
283
1
284
8
285
0
286
0
287
3
288
0
340
11
341
217
342
217
343
217
344
217
  0
DIMSTYLE
105
21D
100
AcDbSymbolTableRecord
100
AcDbDimStyleTableRecord
  2
DIMSTYLE_2
 70
0
  3

  4

 40
1.0
 41
3.0
 42
0.0625
 43
0.38
 44
0.18
 45
0.0
 46
0.0
 47
0.0
 48
0.0
140
3.0
141
0.09
142
0.0
143
25.4
144
1.0
145
0.0
146
1.0
147
0.09
 71
0.0
 72
0.0
 73
0
 74
0
 75
0
 76
0
 77
1
 78
8
170
0
171
2
172
0
173
0
174
0
175
0
176
0
177
0
178
0
270
2
271
2
272
2
273
2
274
2
275
0
280
0
281
0
282
0
283
1
284
8
285
0
286
0
287
3
288
0
340
11
341
217
342
217
343
217
344
217
  0
ENDTAB
  0
ENDSEC
  0
SECTION
  2
BLOCKS
  0
BLOCK
  5
20
100
AcDbEntity
  8
0
100
AcDbBlockBegin
  2
*Model_Space
 70
0
 10
0.0
 20
0.0
 30
0.0
  3
*Model_Space
  1

  0
ENDBLK
  5
21
100
AcDbEntity
  8
0
100
AcDbBlockEnd
  0
BLOCK
  5
1C
100
AcDbEntity
  8
0
100
AcDbBlockBegin
  2
*Paper_Space
 70
0
 10
0.0
 20
0.0
 30
0.0
  3
*Paper_Space
  1

  0
ENDBLK
  5
1D
100
AcDbEntity
  8
0
100
AcDbBlockEnd
  0
BLOCK
  5
21E
100
AcDbEntity
  8
0
100
AcDbBlockBegin
  2
_FILLED
 70
64
 10
0.0
 20
0.0
  3
_FILLED
  1

  0
SOLID
  5
21F
100
AcDbEntity
  8
0
  6
BYBLOCK
 62
0
100
AcDbTrace
 10
0.0
 20
0.0
 11
-1.0
 21
0.3166666667
 12
-1.0
 22
-0.3166666667
 13
-1.0
 23
-0.3166666667
  0
ENDBLK
  5
220
100
AcDbEntity
  8
0
  6
BYBLOCK
 62
0
100
AcDbBlockEnd
  0
BLOCK
  5
221
100
AcDbEntity
  8
0
100
AcDbBlockBegin
 62
7
  6
CONTINUOUS
  2
*D0
 70
65
 10
0.0
 20
0.0
  3
*D0
  1

  0
LINE
  5
222
100
AcDbEntity
  8
0
100
AcDbLine
 62
7
  6
CONTINUOUS
 10
-11.0514422353
 20
23.4503931912
 11
-11.0514422353
 21
31.6114422353
  0
LINE
  5
223
100
AcDbEntity
  8
0
100
AcDbLine
 62
7
  6
CONTINUOUS
 10
11.0514422353
 20
23.4503931912
 11
11.0514422353
 21
31.6114422353
  0
LINE
  5
224
100
AcDbEntity
  8
0
100
AcDbLine
 62
7
  6
CONTINUOUS
 10
-11.0514422353
 20
30.1114422353
 11
0.0
 21
30.1114422353
  0
LINE
  5
225
100
AcDbEntity
  8
0
100
AcDbLine
 62
7
  6
CONTINUOUS
 10
11.0514422353
 20
30.1114422353
 11
0.0
 21
30.1114422353
  0
INSERT
  5
226
100
AcDbEntity
  8
0
100
AcDbBlockReference
 62
7
  6
CONTINUOUS
  2
_FILLED
 10
-11.0514422353
 20
30.1114422353
 41
3.0
 42
3.0
 43
3.0
 50
180.0
  0
INSERT
  5
227
100
AcDbEntity
  8
0
100
AcDbBlockReference
 62
7
  6
CONTINUOUS
  2
_FILLED
 10
11.0514422353
 20
30.1114422353
 41
3.0
 42
3.0
 43
3.0
  0
ENDBLK
  5
228
100
AcDbEntity
  8
0
  6
BYBLOCK
 62
0
100
AcDbBlockEnd
  0
BLOCK
  5
229
100
AcDbEntity
  8
0
100
AcDbBlockBegin
 62
7
  6
CONTINUOUS
  2
*D1
 70
65
 10
0.0
 20
0.0
  3
*D1
  1

  0
LINE
  5
22A
100
AcDbEntity
  8
0
100
AcDbLine
 62
7
  6
CONTINUOUS
 10
11.5740744488
 20
22.1114422353
 11
20.63
 21
22.1114422353
  0
LINE
  5
22B
100
AcDbEntity
  8
0
100
AcDbLine
 62
7
  6
CONTINUOUS
 10
13.8171706746
 20
-22.1114422353
 11
20.63
 21
-22.1114422353
  0
LINE
  5
22C
100
AcDbEntity
  8
0
100
AcDbLine
 62
7
  6
CONTINUOUS
 10
19.13
 20
22.1114422353
 11
19.13
 21
0.0
  0
LINE
  5
22D
100
AcDbEntity
  8
0
100
AcDbLine
 62
7
  6
CONTINUOUS
 10
19.13
 20
-22.1114422353
 11
19.13
 21
0.0
  0
INSERT
  5
22E
100
AcDbEntity
  8
0
100
AcDbBlockReference
 62
7
  6
CONTINUOUS
  2
_FILLED
 10
19.13
 20
22.1114422353
 41
3.0
 42
3.0
 43
3.0
 50
90.0
  0
INSERT
  5
22F
100
AcDbEntity
  8
0
100
AcDbBlockReference
 62
7
  6
CONTINUOUS
  2
_FILLED
 10
19.13
 20
-22.1114422353
 41
3.0
 42
3.0
 43
3.0
 50
270.0
  0
ENDBLK
  5
230
100
AcDbEntity
  8
0
  6
BYBLOCK
 62
0
100
AcDbBlockEnd
  0
BLOCK
  5
231
100
AcDbEntity
  8
0
100
AcDbBlockBegin
 62
7
  6
CONTINUOUS
  2
*D2
 70
65
 10
0.0
 20
0.0
  3
*D2
  1

  0
LINE
  5
232
100
AcDbEntity
  8
0
100
AcDbLine
 62
7
  6
CONTINUOUS
 10
-31.6104156351
 20
10.2310194482
 11
-31.6104156351
 21
31.6114422353
  0
LINE
  5
233
100
AcDbEntity
  8
0
100
AcDbLine
 62
7
  6
CONTINUOUS
 10
-35.6104156351
 20
0.5
 11
-35.6104156351
 21
31.6114422353
  0
LINE
  5
234
100
AcDbEntity
  8
0
100
AcDbLine
 62
7
  6
CONTINUOUS
 10
-31.6104156351
 20
30.1114422353
 11
-27.6104156351
 21
30.1114422353
  0
LINE
  5
235
100
AcDbEntity
  8
0
100
AcDbLine
 62
7
  6
CONTINUOUS
 10
-27.6104156351
 20
30.1114422353
 11
-33.6104156351
 21
30.1114422353
  0
LINE
  5
236
100
AcDbEntity
  8
0
100
AcDbLine
 62
7
  6
CONTINUOUS
 10
-35.6104156351
 20
30.1114422353
 11
-45.4383794836
 21
30.1114422353
  0
LINE
  5
237
100
AcDbEntity
  8
0
100
AcDbLine
 62
7
  6
CONTINUOUS
 10
-45.4383794836
 20
30.1114422353
 11
-33.6104156351
 21
30.1114422353
  0
INSERT
  5
238
100
AcDbEntity
  8
0
100
AcDbBlockReference
 62
7
  6
CONTINUOUS
  2
_FILLED
 10
-31.6104156351
 20
30.1114422353
 41
3.0
 42
3.0
 43
3.0
 50
180.0
  0
INSERT
  5
239
100
AcDbEntity
  8
0
100
AcDbBlockReference
 62
7
  6
CONTINUOUS
  2
_FILLED
 10
-35.6104156351
 20
30.1114422353
 41
3.0
 42
3.0
 43
3.0
  0
ENDBLK
  5
23A
100
AcDbEntity
  8
0
  6
BYBLOCK
 62
0
100
AcDbBlockEnd
  0
ENDSEC
  0
SECTION
  2
ENTITIES
  0
DIMENSION
  5
23B
100
AcDbEntity
  8
0
100
AcDbDimension
 62
7
  6
CONTINUOUS
  2
*D0
 10
11.0514422353
 20
30.1114422353
 11
-4.0714285714
 21
30.8614422353
 70
160
 71
2
 42
22.1028844706
  3
DIMSTYLE_1
100
AcDbAlignedDimension
 13
-11.0514422353
 23
23.4503931912
 14
11.0514422353
 24
23.4503931912
100
AcDbRotatedDimension
  0
DIMENSION
  5
23C
100
AcDbEntity
  8
0
100
AcDbDimension
 62
7
  6
CONTINUOUS
  2
*D1
 10
19.13
 20
-22.1114422353
 11
18.38
 21
-4.3928571429
 70
160
 71
2
 42
44.2228844706
  3
DIMSTYLE_1
100
AcDbAlignedDimension
 13
11.5740744488
 23
22.1114422353
 14
13.8171706746
 24
-22.1114422353
 50
270.0
100
AcDbRotatedDimension
  0
DIMENSION
  5
23D
100
AcDbEntity
  8
0
100
AcDbDimension
 62
7
  6
CONTINUOUS
  2
*D2
 10
-35.6104156351
 20
30.1114422353
 11
-45.4383794836
 21
30.8614422353
 70
160
 71
3
 42
4.0
  3
DIMSTYLE_2
100
AcDbAlignedDimension
 13
-31.6104156351
 23
10.2310194482
 14
-35.6104156351
 24
0.5
 50
180.0
100
AcDbRotatedDimension
  0
LWPOLYLINE
  5
23E
100
AcDbEntity
  8
0
100
AcDbPolyline
 62
7
  6
CONTINUOUS
 90
3
 70
0
 43
0.3500000006
 10
2.3571427875
 20
33.0043014221
 10
3.2142856836
 20
33.8614438934
 10
3.2142856836
 20
30.8614429779
  0
LINE
  5
23F
100
AcDbEntity
  8
0
100
AcDbLine
 62
7
  6
CONTINUOUS
 10
10.5516135728
 20
-22.1114422353
 11
-10.5516135728
 21
-22.1114422353
  0
LINE
  5
240
100
AcDbEntity
  8
RACCORDO
100
AcDbLine
 62
253
  6
CONTINUOUS
 10
10.5266513084
 20
-22.0864799709
 11
-10.5266513084
 21
-22.0864799709
  0
LINE
  5
241
100
AcDbEntity
  8
RACCORDO
100
AcDbLine
 62
253
  6
CONTINUOUS
 10
10.5140480307
 20
-21.2362251476
 11
-10.5140480307
 21
-21.2362251476
  0
LWPOLYLINE
  5
242
100
AcDbEntity
  8
RACCORDO
100
AcDbPolyline
 62
253
  6
CONTINUOUS
 90
16
 70
0
 10
-11.0138766931
 20
21.1615238967
 10
-11.0098965
 20
21.1692064438
 10
-11.0006612473
 20
21.1768075537
 10
-10.9862688116
 20
21.1842466688
 10
-10.9668717254
 20
21.1914449486
 10
-10.9426755615
 20
21.1983261048
 10
-10.9139367539
 20
21.2048172101
 10
-10.8809598798
 20
21.2108494709
 10
-10.8440944322
 20
21.2163589566
 10
-10.8037311155
 20
21.221287277
 10
-10.7602977052
 20
21.2255822012
 10
-10.7142545137
 20
21.2291982111
 10
-10.6660895124
 20
21.232096984
 10
-10.6163131598
 20
21.2342477985
 10
-10.5654529919
 20
21.2356278599
 10
-10.5140480307
 20
21.2362225423
  0
LWPOLYLINE
  5
243
100
AcDbEntity
  8
RACCORDO
100
AcDbPolyline
 62
253
  6
CONTINUOUS
 90
16
 70
0
 10
-11.0138766932
 20
-21.1615238967
 10
-11.0098974611
 20
-21.1692066574
 10
-11.0006630216
 20
-21.176807993
 10
-10.9862712449
 20
-21.1842473417
 10
-10.9668746607
 20
-21.1914458583
 10
-10.9426788416
 20
-21.1983272502
 10
-10.9139402246
 20
-21.2048185855
 10
-10.8809633926
 20
-21.2108510667
 10
-10.8440978473
 20
-21.216360759
 10
-10.803734304
 20
-21.2212892686
 10
-10.7603005516
 20
-21.2255843612
 10
-10.7142569181
 20
-21.2292005157
 10
-10.6660913919
 20
-21.232099407
 10
-10.6163144504
 20
-21.2342503114
 10
-10.5654536491
 20
-21.2356304329
 10
-10.5140480307
 20
-21.2362251442
  0
LWPOLYLINE
  5
244
100
AcDbEntity
  8
RACCORDO
100
AcDbPolyline
 62
253
  6
CONTINUOUS
 90
16
 70
0
 10
-11.0264799709
 20
-21.5866513084
 10
-11.0237085608
 20
-21.638873962
 10
-11.0154962044
 20
-21.6905251247
 10
-11.0019327487
 20
-21.7410393988
 10
-10.9831666165
 20
-21.7898638266
 10
-10.9594031858
 20
-21.8364639333
 10
-10.9309025464
 20
-21.8803295793
 10
-10.897976642
 20
-21.9209805652
 10
-10.8609858676
 20
-21.9579718672
 10
-10.8203351383
 20
-21.9908985062
 10
-10.7764694206
 20
-22.0194000157
 10
-10.729868886
 20
-22.0431643617
 10
-10.6810436815
 20
-22.0619313551
 10
-10.6305282932
 20
-22.0754955292
 10
-10.5788756908
 20
-22.0837083782
 10
-10.5266513085
 20
-22.086479971
  0
LWPOLYLINE
  5
245
100
AcDbEntity
  8
RACCORDO
100
AcDbPolyline
 62
253
  6
CONTINUOUS
 90
16
 70
0
 10
-11.0264799709
 20
21.5866513084
 10
-11.0237084581
 20
21.6388749344
 10
-11.015495829
 20
21.690526886
 10
-11.0019319847
 20
21.7410417469
 10
-10.9831654039
 20
21.789866548
 10
-10.9594015179
 20
21.8364668207
 10
-10.930900462
 20
21.8803324476
 10
-10.8979742277
 20
21.9209832467
 10
-10.8609832471
 20
21.9579742273
 10
-10.8203324481
 20
21.9909004617
 10
-10.7764668212
 20
22.0194015177
 10
-10.7298665484
 20
22.0431654037
 10
-10.6810417473
 20
22.0619319846
 10
-10.6305268863
 20
22.075495829
 10
-10.5788749345
 20
22.0837084581
 10
-10.5266513084
 20
22.0864799709
  0
LWPOLYLINE
  5
246
100
AcDbEntity
  8
RACCORDO
100
AcDbPolyline
 62
253
  6
CONTINUOUS
 90
7
 70
0
 10
10.9879958269
 20
-9.4905
 10
10.9840029648
 20
-9.4914768667
 10
10.9747570053
 20
-9.492443384
 10
10.960355904
 20
-9.4933893122
 10
10.9409522323
 20
-9.4943046298
 10
10.9167515612
 20
-9.4951796396
 10
10.8880102829
 20
-9.4960050712
  0
LWPOLYLINE
  5
247
100
AcDbEntity
  8
RACCORDO
100
AcDbPolyline
 62
253
  6
CONTINUOUS
 90
8
 70
0
 10
-10.9879958269
 20
-9.4905
 10
-10.9840029683
 20
-9.4914768667
 10
-10.9747570117
 20
-9.4924433841
 10
-10.9603559128
 20
-9.4933893124
 10
-10.9409522429
 20
-9.4943046301
 10
-10.9167515731
 20
-9.4951796399
 10
-10.8880102954
 20
-9.4960050715
 10
-10.818168786
 20
-9.4974728385
  0
LWPOLYLINE
  5
248
100
AcDbEntity
  8
RACCORDO
100
AcDbPolyline
 62
253
  6
CONTINUOUS
 90
10
 70
0
 10
-11.0181568186
 20
21.4616298466
 10
-11.0189431232
 20
21.4861047249
 10
-11.0197813036
 20
21.5083229653
 10
-11.0206563049
 20
21.5278932804
 10
-11.021569386
 20
21.5447694949
 10
-11.0225192882
 20
21.5589977841
 10
-11.0234871808
 20
21.5703253862
 10
-11.024466787
 20
21.5786680473
 10
-11.0254643837
 20
21.5841100214
 10
-11.0264799709
 20
21.5866513084
  0
LWPOLYLINE
  5
249
100
AcDbEntity
  8
RACCORDO
100
AcDbPolyline
 62
253
  6
CONTINUOUS
 90
7
 70
0
 10
-10.5208205485
 20
21.968635596
 10
-10.5217310492
 20
22.0024936657
 10
-10.522678348
 20
22.0308586736
 10
-10.523645698
 20
22.0535589575
 10
-10.5246275169
 20
22.0704577735
 10
-10.5256293871
 20
22.0814535722
 10
-10.5266513084
 20
22.0864799709
  0
LINE
  5
24A
100
AcDbEntity
  8
RACCORDO
100
AcDbLine
 62
253
  6
CONTINUOUS
 10
-11.0167415586
 20
21.4058170317
 11
-11.0181568186
 21
21.4616298466
  0
LINE
  5
24B
100
AcDbEntity
  8
RACCORDO
100
AcDbLine
 62
253
  6
CONTINUOUS
 10
-10.5191111237
 20
21.8852903227
 11
-10.5208205485
 21
21.968635596
  0
LINE
  5
24C
100
AcDbEntity
  8
RACCORDO
100
AcDbLine
 62
253
  6
CONTINUOUS
 10
-11.0155723942
 20
21.3425178419
 11
-11.0167415586
 21
21.4058170317
  0
LINE
  5
24D
100
AcDbEntity
  8
RACCORDO
100
AcDbLine
 62
253
  6
CONTINUOUS
 10
-11.014670723
 20
21.2729528004
 11
-11.0155723942
 21
21.3425178419
  0
LINE
  5
24E
100
AcDbEntity
  8
RACCORDO
100
AcDbLine
 62
253
  6
CONTINUOUS
 10
-10.5169146285
 20
21.7251570648
 11
-10.5191111237
 21
21.8852903227
  0
LINE
  5
24F
100
AcDbEntity
  8
RACCORDO
100
AcDbLine
 62
253
  6
CONTINUOUS
 10
-10.5148466607
 20
21.4599831598
 11
-10.5169146285
 21
21.7251570648
  0
LINE
  5
250
100
AcDbEntity
  8
RACCORDO
100
AcDbLine
 62
253
  6
CONTINUOUS
 10
-11.0138766932
 20
21.1615238967
 11
-11.014670723
 21
21.2729528004
  0
LINE
  5
251
100
AcDbEntity
  8
RACCORDO
100
AcDbLine
 62
253
  6
CONTINUOUS
 10
-10.9974325226
 20
15.9909603469
 11
-11.0138766932
 21
21.1615238967
  0
LINE
  5
252
100
AcDbEntity
  8
RACCORDO
100
AcDbLine
 62
253
  6
CONTINUOUS
 10
-10.4976037727
 20
16.0366547986
 11
-10.5140480307
 21
21.2362251476
  0
LINE
  5
253
100
AcDbEntity
  8
RACCORDO
100
AcDbLine
 62
253
  6
CONTINUOUS
 10
-10.5140480307
 20
21.2362251476
 11
-10.5148466607
 21
21.4599831598
  0
LINE
  5
254
100
AcDbEntity
  8
RACCORDO
100
AcDbLine
 62
253
  6
CONTINUOUS
 10
-10.98889248
 20
10.7928354503
 11
-10.9974325226
 21
15.9909603469
  0
LINE
  5
255
100
AcDbEntity
  8
RACCORDO
100
AcDbLine
 62
253
  6
CONTINUOUS
 10
-10.4890638443
 20
10.8091626086
 11
-10.4976037727
 21
16.0366547986
  0
LINE
  5
256
100
AcDbEntity
  8
0
100
AcDbLine
 62
7
  6
CONTINUOUS
 10
-11.0514422353
 20
21.6116135728
 11
-11.0514422353
 21
-21.6116135728
  0
LINE
  5
257
100
AcDbEntity
  8
RACCORDO
100
AcDbLine
 62
253
  6
CONTINUOUS
 10
-10.9902843163
 20
-12.0939699785
 11
-10.98889248
 21
10.7928354503
  0
LINE
  5
258
100
AcDbEntity
  8
RACCORDO
100
AcDbLine
 62
253
  6
CONTINUOUS
 10
-10.4904557226
 20
-12.1176863817
 11
-10.4890638443
 21
10.8091626086
  0
LINE
  5
259
100
AcDbEntity
  8
RACCORDO
100
AcDbLine
 62
253
  6
CONTINUOUS
 10
-11.0008039357
 20
-17.2868145217
 11
-10.9902843163
 21
-12.0939699785
  0
LINE
  5
25A
100
AcDbEntity
  8
RACCORDO
100
AcDbLine
 62
253
  6
CONTINUOUS
 10
-10.500975233
 20
-17.339854897
 11
-10.4904557226
 21
-12.1176863817
  0
LINE
  5
25B
100
AcDbEntity
  8
RACCORDO
100
AcDbLine
 62
253
  6
CONTINUOUS
 10
-10.5152609176
 20
-21.5306766563
 11
-10.500975233
 21
-17.339854897
  0
LINE
  5
25C
100
AcDbEntity
  8
RACCORDO
100
AcDbLine
 62
253
  6
CONTINUOUS
 10
-11.0143326477
 20
-21.2368235579
 11
-11.0008039357
 21
-17.2868145217
  0
LINE
  5
25D
100
AcDbEntity
  8
RACCORDO
100
AcDbLine
 62
253
  6
CONTINUOUS
 10
-10.5169142997
 20
-21.7251528619
 11
-10.5152609176
 21
-21.5306766563
  0
LINE
  5
25E
100
AcDbEntity
  8
RACCORDO
100
AcDbLine
 62
253
  6
CONTINUOUS
 10
-11.0150841564
 20
-21.3081932214
 11
-11.0143326477
 21
-21.2368235579
  0
LINE
  5
25F
100
AcDbEntity
  8
RACCORDO
100
AcDbLine
 62
253
  6
CONTINUOUS
 10
-10.5191102789
 20
-21.8852865879
 11
-10.5169142997
 21
-21.7251528619
  0
LINE
  5
260
100
AcDbEntity
  8
RACCORDO
100
AcDbLine
 62
253
  6
CONTINUOUS
 10
-11.0161223366
 20
-21.3749505517
 11
-11.0150841564
 21
-21.3081932214
  0
LINE
  5
261
100
AcDbEntity
  8
RACCORDO
100
AcDbLine
 62
253
  6
CONTINUOUS
 10
10.8880102829
 20
-9.4960050712
 11
10.8181687736
 21
-9.4974728381
  0
LWPOLYLINE
  5
262
100
AcDbEntity
  8
0
100
AcDbPolyline
 62
7
  6
CONTINUOUS
 90
3
 70
0
 43
0.3500000006
 10
1.3571429071
 20
31.1471586456
 10
1.2857142735
 20
30.9328696289
 10
1.1428571477
 20
30.647158493
  0
LINE
  5
263
100
AcDbEntity
  8
0
100
AcDbLine
 62
253
  6
CONTINUOUS
 10
10.5516135728
 20
22.1114422353
 11
10.5266513084
 21
22.0864799709
  0
LINE
  5
264
100
AcDbEntity
  8
RACCORDO
100
AcDbLine
 62
253
  6
CONTINUOUS
 10
10.8181687736
 20
-9.4974728381
 11
10.7343795892
 21
-9.4986458946
  0
LINE
  5
265
100
AcDbEntity
  8
RACCORDO
100
AcDbLine
 62
253
  6
CONTINUOUS
 10
10.7343795892
 20
-9.4986458946
 11
10.6401841195
 21
-9.499474661
  0
LINE
  5
266
100
AcDbEntity
  8
RACCORDO
100
AcDbLine
 62
253
  6
CONTINUOUS
 10
10.6401841195
 20
-9.499474661
 11
10.4881671644
 21
-9.4999999993
  0
LINE
  5
267
100
AcDbEntity
  8
RACCORDO
100
AcDbLine
 62
253
  6
CONTINUOUS
 10
-10.5904154861
 20
-9.4997483763
 11
10.4881671644
 21
-9.5
  0
LINE
  5
268
100
AcDbEntity
  8
RACCORDO
100
AcDbLine
 62
253
  6
CONTINUOUS
 10
-10.6883422333
 20
-9.4991058655
 11
-10.5904154861
 21
-9.4997483763
  0
LWPOLYLINE
  5
269
100
AcDbEntity
  8
RACCORDO
100
AcDbPolyline
 62
253
  6
CONTINUOUS
 90
3
 70
0
 10
-10.818168786
 20
-9.4974728385
 10
-10.7778084852
 20
-9.4980996237
 10
-10.6883422333
 20
-9.4991058655
  0
LINE
  5
26A
100
AcDbEntity
  8
0
100
AcDbLine
 62
253
  6
CONTINUOUS
 10
10.5266513084
 20
-22.0864799709
 11
10.5516135728
 21
-22.1114422353
  0
LWPOLYLINE
  5
26B
100
AcDbEntity
  8
SUPERFICI
100
AcDbPolyline
 62
7
  6
CONTINUOUS
 90
3
 70
0
 10
-6.0600090686
 20
2.1776642199
 10
-6.0982213152
 20
1.9987053609
 10
-6.1329404207
 20
1.8201885338
  0
LWPOLYLINE
  5
26C
100
AcDbEntity
  8
0
100
AcDbPolyline
 62
7
  6
CONTINUOUS
 90
19
 70
0
 10
-6.0600090698
 20
2.1776642135
 10
-6.044939
 20
2.2353225622
 10
-6.0257040769
 20
2.2913374409
 10
-6.0023043005
 20
2.3457088514
 10
-5.9744793983
 20
2.3988811174
 10
-5.942489643
 20
2.4504099185
 10
-5.9071158519
 20
2.4989622922
 10
-5.8684218644
 20
2.5442589547
 10
-5.8263438412
 20
2.5865791976
 10
-5.7814710827
 20
2.6254279247
 10
-5.7337952864
 20
2.6608010873
 10
-5.6833247548
 20
2.6927027418
 10
-5.6306736957
 20
2.7206499501
 10
-5.5755424014
 20
2.7446418876
 10
-5.5182305797
 20
2.7646793855
 10
-5.4602515615
 20
2.7802819894
 10
-5.4021097904
 20
2.7912895493
 10
-5.3433008229
 20
2.7978622192
 10
-5.2838246588
 20
2.8
  0
LWPOLYLINE
  5
26D
100
AcDbEntity
  8
0
100
AcDbPolyline
 62
7
  6
CONTINUOUS
 90
16
 70
0
 10
-6.6248933437
 20
3.0457142257
 10
-6.7424786231
 20
2.6499608075
 10
-6.8434207481
 20
2.2507966928
 10
-6.9277197187
 20
1.8482220965
 10
-6.9954958904
 20
1.4415411699
 10
-7.0466289077
 20
1.0314502274
 10
-7.0807577043
 20
0.6200377613
 10
-7.0977619246
 20
0.2071195716
 10
-7.0977619243
 20
-0.207119589
 10
-7.0807577033
 20
-0.6200377779
 10
-7.0466289063
 20
-1.031450242
 10
-6.9954958888
 20
-1.4415411816
 10
-6.9277197171
 20
-1.8482221053
 10
-6.8434207467
 20
-2.2507966987
 10
-6.7424786223
 20
-2.6499608105
 10
-6.6248933436
 20
-3.0457142257
  0
LWPOLYLINE
  5
26E
100
AcDbEntity
  8
SUPERFICI
100
AcDbPolyline
 62
7
  6
CONTINUOUS
 90
3
 70
0
 10
-6.03137992
 20
2.2759519331
 10
-6.0472025709
 20
2.2274421206
 10
-6.0600090686
 20
2.1776642199
  0
LWPOLYLINE
  5
26F
100
AcDbEntity
  8
0
100
AcDbPolyline
 62
7
  6
CONTINUOUS
 90
16
 70
0
 10
-6.6559327793
 20
3.0920519245
 10
-6.6328274532
 20
3.154630964
 10
-6.6048052928
 20
3.2145432571
 10
-6.571866298
 20
3.271788809
 10
-6.5335842999
 20
3.3269058323
 10
-6.4903854674
 20
3.379356124
 10
-6.4435483076
 20
3.4275250693
 10
-6.3932855846
 20
3.4710358806
 10
-6.3393845343
 20
3.5102653612
 10
-6.2824853708
 20
3.5447292868
 10
-6.2221380927
 20
3.5745162642
 10
-6.1587927015
 20
3.5995376992
 10
-6.0944394158
 20
3.6190435654
 10
-6.0297416419
 20
3.6327838571
 10
-5.9640359735
 20
3.641008588
 10
-5.8973224107
 20
3.6437177602
  0
LINE
  5
270
100
AcDbEntity
  8
0
100
AcDbLine
 62
253
  6
CONTINUOUS
 10
11.0514422353
 20
21.6116135728
 11
11.0264799709
 21
21.5866513084
  0
LINE
  5
271
100
AcDbEntity
  8
0
100
AcDbLine
 62
253
  6
CONTINUOUS
 10
11.0264799709
 20
-21.5866513084
 11
11.0514422353
 21
-21.6116135728
  0
LWPOLYLINE
  5
272
100
AcDbEntity
  8
0
100
AcDbPolyline
 62
7
  6
CONTINUOUS
 90
16
 70
0
 10
-6.6248933436
 20
-3.0457142257
 10
-6.6019411028
 20
-3.1085515613
 10
-6.5740172611
 20
-3.1687347806
 10
-6.5411218185
 20
-3.2262638889
 10
-6.5028131904
 20
-3.281696484
 10
-6.4595329615
 20
-3.3344749774
 10
-6.4126058858
 20
-3.3829265978
 10
-6.3622545983
 20
-3.4266499815
 10
-6.308256464
 20
-3.4660465081
 10
-6.2512683326
 20
-3.5006475248
 10
-6.1908580371
 20
-3.5305416675
 10
-6.1274577446
 20
-3.555640313
 10
-6.0630208054
 20
-3.5752089197
 10
-5.9981983364
 20
-3.5890026433
 10
-5.9323392207
 20
-3.5972663361
 10
-5.8654434584
 20
-3.6
  0
LWPOLYLINE
  5
273
100
AcDbEntity
  8
SUPERFICI
100
AcDbPolyline
 62
7
  6
CONTINUOUS
 90
19
 70
0
 10
-6.0471686081
 20
-2.2275303558
 10
-6.0313182013
 20
-2.2761037948
 10
-6.0124578489
 20
-2.3233845336
 10
-5.9904865547
 20
-2.3695661189
 10
-5.9655053151
 20
-2.4144550063
 10
-5.9378171187
 20
-2.4574705613
 10
-5.9073874321
 20
-2.4985828076
 10
-5.8742507888
 20
-2.5378217255
 10
-5.8388137781
 20
-2.5746966168
 10
-5.8010462158
 20
-2.6091766675
 10
-5.7609782862
 20
-2.6412926964
 10
-5.7191071318
 20
-2.6706464553
 10
-5.6754091995
 20
-2.6972017256
 10
-5.6299080425
 20
-2.7209947306
 10
-5.5831714625
 20
-2.7417358849
 10
-5.5351709134
 20
-2.7593847674
 10
-5.4859349415
 20
-2.773981803
 10
-5.4361169868
 20
-2.7853586749
 10
-5.385934863
 20
-2.793459278
  0
LWPOLYLINE
  5
274
100
AcDbEntity
  8
0
100
AcDbPolyline
 62
7
  6
CONTINUOUS
 90
16
 70
0
 10
-6.6559327792
 20
-3.0920519245
 10
-6.7766454982
 20
-2.6905231409
 10
-6.8802764011
 20
-2.2854504696
 10
-6.9668254879
 20
-1.8768341338
 10
-7.0364194251
 20
-1.4639506188
 10
-7.0889315463
 20
-1.0475239238
 10
-7.1239818517
 20
-0.6297255776
 10
-7.1414436762
 20
-0.2103656772
 10
-7.141443685
 20
0.2103652966
 10
-7.1239818743
 20
0.6297252174
 10
-7.0889315767
 20
1.0475236116
 10
-7.0364194595
 20
1.4639503751
 10
-6.9668255213
 20
1.8768339578
 10
-6.8802764283
 20
2.2854503532
 10
-6.7766455143
 20
2.6905230831
 10
-6.6559327793
 20
3.0920519245
  0
LINE
  5
275
100
AcDbEntity
  8
SUPERFICI
100
AcDbLine
 62
7
  6
CONTINUOUS
 10
-6.0600090695
 20
-2.1776642153
 11
-6.0471686081
 21
-2.2275303558
  0
LWPOLYLINE
  5
276
100
AcDbEntity
  8
SUPERFICI
100
AcDbPolyline
 62
7
  6
CONTINUOUS
 90
21
 70
0
 10
-6.1331356533
 20
1.8191846974
 10
-6.164752083
 20
1.6391022501
 10
-6.1930799466
 20
1.4583932107
 10
-6.2181099019
 20
1.2771224306
 10
-6.2398139212
 20
1.0954844213
 10
-6.2581877484
 20
0.9134829952
 10
-6.2732356398
 20
0.7311143863
 10
-6.2849423365
 20
0.5485617405
 10
-6.2933044646
 20
0.3658246637
 10
-6.2983253981
 20
0.1829035983
 10
-6.3
 20
-0.0000170542
 10
-6.2983248257
 20
-0.1829370156
 10
-6.2933033198
 20
-0.3658565151
 10
-6.2849406789
 20
-0.5485919128
 10
-6.2732335527
 20
-0.7311429588
 10
-6.2581852915
 20
-0.9135098546
 10
-6.239811142
 20
-1.0955096383
 10
-6.2181067056
 20
-1.2771467747
 10
-6.1930763809
 20
-1.4584167527
 10
-6.1647486107
 20
-1.6391231473
 10
-6.1331328758
 20
-1.8192004697
  0
LWPOLYLINE
  5
277
100
AcDbEntity
  8
RACCORDO
100
AcDbPolyline
 62
253
  6
CONTINUOUS
 90
8
 70
0
 10
-10.5266513084
 20
-22.0864799709
 10
-10.5256293033
 20
-22.0814536019
 10
-10.5246273547
 20
-22.070457797
 10
-10.5236454625
 20
-22.0535588376
 10
-10.5226780577
 20
-22.0308580893
 10
-10.5217307095
 20
-22.0024922519
 10
-10.5208201249
 20
-21.9686332738
 10
-10.5191102789
 20
-21.8852865879
  0
LWPOLYLINE
  5
278
100
AcDbEntity
  8
0
100
AcDbPolyline
 62
7
  6
CONTINUOUS
 90
13
 70
0
 10
-6.0600090698
 20
-2.1776642136
 10
-6.1331543836
 20
-1.8191363534
 10
-6.1930409671
 20
-1.4588482882
 10
-6.2396688205
 20
-1.096800193
 10
-6.2730870509
 20
-0.732410401
 10
-6.2932465511
 20
-0.3662609444
 10
-6.2999999995
 20
-0.0000975589
 10
-6.2932497666
 20
0.3660906414
 10
-6.2730934819
 20
0.732292377
 10
-6.2396767132
 20
1.0967286636
 10
-6.1930479828
 20
1.4588063863
 10
-6.1331587684
 20
1.8191182946
 10
-6.0600090698
 20
2.1776642135
  0
LWPOLYLINE
  5
279
100
AcDbEntity
  8
SUPERFICI
100
AcDbPolyline
 62
7
  6
CONTINUOUS
 90
3
 70
0
 10
-6.1331328758
 20
-1.8192004697
 10
-6.0982196954
 20
-1.998714166
 10
-6.0600090695
 20
-2.1776642153
  0
LINE
  5
27A
100
AcDbEntity
  8
0
100
AcDbLine
 62
253
  6
CONTINUOUS
 10
-6.6559327792
 20
-3.0920519245
 11
-6.6248933436
 21
-3.0457142257
  0
LWPOLYLINE
  5
27B
100
AcDbEntity
  8
SUPERFICI
100
AcDbPolyline
 62
7
  6
CONTINUOUS
 90
19
 70
0
 10
5.3351909699
 20
-2.7983351296
 10
5.3859653038
 20
-2.7934527004
 10
5.4361476833
 20
-2.7853527119
 10
5.4859469695
 20
-2.7739825587
 10
5.5351543013
 20
-2.759394844
 10
5.5831430953
 20
-2.7417473799
 10
5.6299012785
 20
-2.7209938963
 10
5.6754409239
 20
-2.6971806594
 10
5.7191716674
 20
-2.6706042855
 10
5.7610619315
 20
-2.6412304212
 10
5.8011432936
 20
-2.6090934151
 10
5.838920123
 20
-2.5745929375
 10
5.8743625252
 20
-2.5376978673
 10
5.9075003946
 20
-2.4984393208
 10
5.9379277832
 20
-2.4573103256
 10
5.9656112657
 20
-2.4142744334
 10
5.9905842673
 20
-2.3693680883
 10
6.0125411157
 20
-2.3231936586
 10
6.03137992
 20
-2.2759519331
  0
LWPOLYLINE
  5
27C
100
AcDbEntity
  8
0
100
AcDbPolyline
 62
7
  6
CONTINUOUS
 90
16
 70
0
 10
5.8654434585
 20
-3.6
 10
5.9323439039
 20
-3.5972737233
 10
5.9982231488
 20
-3.5890048943
 10
6.0630811934
 20
-3.5751935111
 10
6.1275833287
 20
-3.5555880169
 10
6.1910642636
 20
-3.5304399605
 10
6.2515281248
 20
-3.5005039967
 10
6.3085246855
 20
-3.4658701555
 10
6.3625041725
 20
-3.4264483941
 10
6.412821392
 20
-3.3827232592
 10
6.4596921448
 20
-3.3343101911
 10
6.5029006302
 20
-3.2815937336
 10
6.5411542524
 20
-3.2262120918
 10
6.574022146
 20
-3.168711332
 10
6.6019351765
 20
-3.1085453783
 10
6.6248933437
 20
-3.0457142257
  0
LINE
  5
27D
100
AcDbEntity
  8
0
100
AcDbLine
 62
7
  6
CONTINUOUS
 10
5.8973224107
 20
-3.6437177602
 11
-5.8973224106
 21
-3.6437177602
  0
LINE
  5
27E
100
AcDbEntity
  8
0
100
AcDbLine
 62
7
  6
CONTINUOUS
 10
5.8654434585
 20
-3.6
 11
-5.8654434584
 21
-3.6
  0
LWPOLYLINE
  5
27F
100
AcDbEntity
  8
0
100
AcDbPolyline
 62
7
  6
CONTINUOUS
 90
2
 70
0
 43
0.3500000006
 10
18.3799997177
 20
-3.3928568802
 10
16.8800003929
 20
-3.3928568802
  0
LWPOLYLINE
  5
280
100
AcDbEntity
  8
0
100
AcDbPolyline
 62
7
  6
CONTINUOUS
 90
16
 70
0
 10
-5.8973224106
 20
-3.6437177602
 10
-5.9640315998
 20
-3.6410012237
 10
-6.0297174783
 20
-3.6327815283
 10
-6.0943800461
 20
-3.6190586719
 10
-6.1586685209
 20
-3.5995893657
 10
-6.221933685
 20
-3.5746168906
 10
-6.2822278852
 20
-3.5448710978
 10
-6.3391192666
 20
-3.5104390993
 10
-6.393039684
 20
-3.4712337704
 10
-6.443337049
 20
-3.4277236081
 10
-6.4902310427
 20
-3.3795146183
 10
-6.5335019841
 20
-3.3270007791
 10
-6.5718387415
 20
-3.2718325483
 10
-6.6048042713
 20
-3.2145600766
 10
-6.6328356172
 20
-3.1546332037
 10
-6.6559327792
 20
-3.0920519245
  0
LWPOLYLINE
  5
281
100
AcDbEntity
  8
SUPERFICI
100
AcDbPolyline
 62
7
  6
CONTINUOUS
 90
3
 70
0
 10
-5.385934863
 20
-2.793459278
 10
-5.3351707565
 20
-2.7983397196
 10
-5.2838246674
 20
-2.8
  0
LINE
  5
282
100
AcDbEntity
  8
0
100
AcDbLine
 62
253
  6
CONTINUOUS
 10
-6.6559327793
 20
3.0920519245
 11
-6.6248933437
 21
3.0457142257
  0
LWPOLYLINE
  5
283
100
AcDbEntity
  8
RACCORDO
100
AcDbPolyline
 62
253
  6
CONTINUOUS
 90
12
 70
0
 10
-11.0264799709
 20
-21.5866513084
 10
-11.0254641326
 20
-21.5841111763
 10
-11.0244661856
 20
-21.5786660206
 10
-11.0234861298
 20
-21.5703158414
 10
-11.0225176243
 20
-21.5589761121
 10
-11.0215670101
 20
-21.5447313594
 10
-11.02065331
 20
-21.5278351628
 10
-11.0197777543
 20
-21.5082362811
 10
-11.0189391127
 20
-21.4859859557
 10
-11.0181527169
 20
-21.4614914897
 10
-11.017419671
 20
-21.4347145028
 10
-11.0161223366
 20
-21.3749505517
  0
LINE
  5
284
100
AcDbEntity
  8
0
100
AcDbLine
 62
253
  6
CONTINUOUS
 10
-5.8973224106
 20
-3.6437177602
 11
-5.8654434584
 21
-3.6
  0
LINE
  5
285
100
AcDbEntity
  8
SUPERFICI
100
AcDbLine
 62
7
  6
CONTINUOUS
 10
5.2838246815
 20
-2.8
 11
5.3351909699
 21
-2.7983351296
  0
LINE
  5
286
100
AcDbEntity
  8
0
100
AcDbLine
 62
7
  6
CONTINUOUS
 10
-5.2838246588
 20
-2.8
 11
5.2838246588
 21
-2.8
  0
LINE
  5
287
100
AcDbEntity
  8
SUPERFICI
100
AcDbLine
 62
7
  6
CONTINUOUS
 10
5.2838246588
 20
-2.8
 11
-5.2838246588
 21
-2.8
  0
LWPOLYLINE
  5
288
100
AcDbEntity
  8
0
100
AcDbPolyline
 62
7
  6
CONTINUOUS
 90
19
 70
0
 10
-5.2838246588
 20
-2.8
 10
-5.3433271916
 20
-2.7978503256
 10
-5.4021381583
 20
-2.7912772028
 10
-5.4602575588
 20
-2.7802806306
 10
-5.5181756894
 20
-2.764704084
 10
-5.5754022539
 20
-2.744704084
 10
-5.6304663639
 20
-2.7207501982
 10
-5.6830823744
 20
-2.6928430361
 10
-5.7335359304
 20
-2.6609819817
 10
-5.7812130791
 20
-2.6256347636
 10
-5.8261105464
 20
-2.5867933159
 10
-5.8682316064
 20
-2.5444656968
 10
-5.9069721286
 20
-2.4991438222
 10
-5.9423976487
 20
-2.4505343528
 10
-5.9744426309
 20
-2.3989306201
 10
-6.0023063379
 20
-2.3457045485
 10
-6.0257218572
 20
-2.2913134461
 10
-6.0449561011
 20
-2.2353000017
 10
-6.0600090698
 20
-2.1776642136
  0
LINE
  5
289
100
AcDbEntity
  8
0
100
AcDbLine
 62
253
  6
CONTINUOUS
 10
-5.8973224107
 20
3.6437177602
 11
-5.8654434585
 21
3.6
  0
LWPOLYLINE
  5
28A
100
AcDbEntity
  8
0
100
AcDbPolyline
 62
7
  6
CONTINUOUS
 90
2
 70
0
 43
0.3500000006
 10
18.3799997177
 20
-1.0357139511
 10
16.8800003929
 20
-1.0357139511
  0
LWPOLYLINE
  5
28B
100
AcDbEntity
  8
RACCORDO
100
AcDbPolyline
 62
253
  6
CONTINUOUS
 90
12
 70
0
 10
11.0264799709
 20
21.5866513084
 10
11.0254643837
 20
21.5841100213
 10
11.024466787
 20
21.5786680472
 10
11.0234871808
 20
21.5703253861
 10
11.0225192882
 20
21.558997784
 10
11.021569386
 20
21.5447694949
 10
11.0206563049
 20
21.5278932804
 10
11.0197813035
 20
21.5083229654
 10
11.0189431232
 20
21.4861047249
 10
11.0181568186
 20
21.4616298466
 10
11.0174232508
 20
21.4348517581
 10
11.0161242127
 20
21.3750566723
  0
LINE
  5
28C
100
AcDbEntity
  8
0
100
AcDbLine
 62
253
  6
CONTINUOUS
 10
5.8973224106
 20
3.6437177602
 11
5.8654434584
 21
3.6
  0
LWPOLYLINE
  5
28D
100
AcDbEntity
  8
SUPERFICI
100
AcDbPolyline
 62
7
  6
CONTINUOUS
 90
19
 70
0
 10
-5.3351909699
 20
2.7983351296
 10
-5.3859653038
 20
2.7934527004
 10
-5.4361476833
 20
2.7853527119
 10
-5.4859469695
 20
2.7739825587
 10
-5.5351543013
 20
2.759394844
 10
-5.5831430953
 20
2.7417473799
 10
-5.6299012785
 20
2.7209938963
 10
-5.6754409239
 20
2.6971806594
 10
-5.7191716674
 20
2.6706042855
 10
-5.7610619315
 20
2.6412304212
 10
-5.8011432936
 20
2.6090934151
 10
-5.838920123
 20
2.5745929375
 10
-5.8743625252
 20
2.5376978673
 10
-5.9075003946
 20
2.4984393208
 10
-5.9379277832
 20
2.4573103256
 10
-5.9656112657
 20
2.4142744334
 10
-5.9905842673
 20
2.3693680883
 10
-6.0125411157
 20
2.3231936586
 10
-6.03137992
 20
2.2759519331
  0
LINE
  5
28E
100
AcDbEntity
  8
SUPERFICI
100
AcDbLine
 62
7
  6
CONTINUOUS
 10
-5.2838246815
 20
2.8
 11
-5.3351909699
 21
2.7983351296
  0
LINE
  5
28F
100
AcDbEntity
  8
SUPERFICI
100
AcDbLine
 62
7
  6
CONTINUOUS
 10
5.2838246588
 20
2.8
 11
-5.2838246588
 21
2.8
  0
LINE
  5
290
100
AcDbEntity
  8
0
100
AcDbLine
 62
7
  6
CONTINUOUS
 10
5.2838246588
 20
2.8
 11
-5.2838246588
 21
2.8
  0
LWPOLYLINE
  5
291
100
AcDbEntity
  8
0
100
AcDbPolyline
 62
7
  6
CONTINUOUS
 90
19
 70
0
 10
5.2838246588
 20
2.8
 10
5.3433271916
 20
2.7978503256
 10
5.4021381583
 20
2.7912772028
 10
5.4602575588
 20
2.7802806306
 10
5.5181756894
 20
2.764704084
 10
5.5754022539
 20
2.744704084
 10
5.6304663639
 20
2.7207501982
 10
5.6830823744
 20
2.6928430361
 10
5.7335359304
 20
2.6609819817
 10
5.7812130791
 20
2.6256347636
 10
5.8261105464
 20
2.5867933159
 10
5.8682316064
 20
2.5444656968
 10
5.9069721286
 20
2.4991438222
 10
5.9423976487
 20
2.4505343528
 10
5.9744426309
 20
2.3989306201
 10
6.0023063379
 20
2.3457045485
 10
6.0257218572
 20
2.2913134461
 10
6.0449561011
 20
2.2353000017
 10
6.0600090698
 20
2.1776642136
  0
LWPOLYLINE
  5
292
100
AcDbEntity
  8
SUPERFICI
100
AcDbPolyline
 62
7
  6
CONTINUOUS
 90
3
 70
0
 10
5.385934863
 20
2.793459278
 10
5.3351707565
 20
2.7983397196
 10
5.2838246674
 20
2.8
  0
LINE
  5
293
100
AcDbEntity
  8
0
100
AcDbLine
 62
253
  6
CONTINUOUS
 10
5.8973224107
 20
-3.6437177602
 11
5.8654434585
 21
-3.6
  0
LINE
  5
294
100
AcDbEntity
  8
0
100
AcDbLine
 62
253
  6
CONTINUOUS
 10
6.6559327792
 20
3.0920519245
 11
6.6248933436
 21
3.0457142257
  0
LWPOLYLINE
  5
295
100
AcDbEntity
  8
0
100
AcDbPolyline
 62
7
  6
CONTINUOUS
 90
16
 70
0
 10
-5.8654434585
 20
3.6
 10
-5.9323439039
 20
3.5972737233
 10
-5.9982231488
 20
3.5890048943
 10
-6.0630811934
 20
3.5751935111
 10
-6.1275833287
 20
3.5555880169
 10
-6.1910642636
 20
3.5304399605
 10
-6.2515281248
 20
3.5005039967
 10
-6.3085246855
 20
3.4658701555
 10
-6.3625041725
 20
3.4264483941
 10
-6.412821392
 20
3.3827232592
 10
-6.4596921448
 20
3.3343101911
 10
-6.5029006302
 20
3.2815937336
 10
-6.5411542524
 20
3.2262120918
 10
-6.574022146
 20
3.168711332
 10
-6.6019351765
 20
3.1085453783
 10
-6.6248933437
 20
3.0457142257
  0
LINE
  5
296
100
AcDbEntity
  8
0
100
AcDbLine
 62
7
  6
CONTINUOUS
 10
5.8654434584
 20
3.6
 11
-5.8654434585
 21
3.6
  0
LINE
  5
297
100
AcDbEntity
  8
0
100
AcDbLine
 62
7
  6
CONTINUOUS
 10
5.8973224106
 20
3.6437177602
 11
-5.8973224107
 21
3.6437177602
  0
LWPOLYLINE
  5
298
100
AcDbEntity
  8
0
100
AcDbPolyline
 62
7
  6
CONTINUOUS
 90
16
 70
0
 10
5.8973224106
 20
3.6437177602
 10
5.9640315998
 20
3.6410012237
 10
6.0297174783
 20
3.6327815283
 10
6.0943800461
 20
3.6190586719
 10
6.1586685209
 20
3.5995893657
 10
6.221933685
 20
3.5746168906
 10
6.2822278852
 20
3.5448710978
 10
6.3391192666
 20
3.5104390993
 10
6.393039684
 20
3.4712337704
 10
6.443337049
 20
3.4277236081
 10
6.4902310427
 20
3.3795146183
 10
6.5335019841
 20
3.3270007791
 10
6.5718387415
 20
3.2718325483
 10
6.6048042713
 20
3.2145600766
 10
6.6328356172
 20
3.1546332037
 10
6.6559327792
 20
3.0920519245
  0
LINE
  5
299
100
AcDbEntity
  8
0
100
AcDbLine
 62
253
  6
CONTINUOUS
 10
6.6559327793
 20
-3.0920519245
 11
6.6248933437
 21
-3.0457142257
  0
LWPOLYLINE
  5
29A
100
AcDbEntity
  8
SUPERFICI
100
AcDbPolyline
 62
7
  6
CONTINUOUS
 90
21
 70
0
 10
6.1331356533
 20
-1.8191846974
 10
6.164752083
 20
-1.6391022501
 10
6.1930799466
 20
-1.4583932107
 10
6.2181099019
 20
-1.2771224306
 10
6.2398139212
 20
-1.0954844213
 10
6.2581877484
 20
-0.9134829952
 10
6.2732356398
 20
-0.7311143863
 10
6.2849423365
 20
-0.5485617405
 10
6.2933044646
 20
-0.3658246637
 10
6.2983253981
 20
-0.1829035983
 10
6.3
 20
0.0000170542
 10
6.2983248257
 20
0.1829370156
 10
6.2933033198
 20
0.3658565151
 10
6.2849406789
 20
0.5485919128
 10
6.2732335527
 20
0.7311429588
 10
6.2581852915
 20
0.9135098546
 10
6.239811142
 20
1.0955096383
 10
6.2181067056
 20
1.2771467747
 10
6.1930763809
 20
1.4584167527
 10
6.1647486107
 20
1.6391231473
 10
6.1331328758
 20
1.8192004697
  0
LWPOLYLINE
  5
29B
100
AcDbEntity
  8
RACCORDO
100
AcDbPolyline
 62
253
  6
CONTINUOUS
 90
8
 70
0
 10
10.5266513084
 20
22.0864799709
 10
10.5256293871
 20
22.0814535722
 10
10.5246275169
 20
22.0704577735
 10
10.523645698
 20
22.0535589575
 10
10.522678348
 20
22.0308586736
 10
10.5217310492
 20
22.0024936657
 10
10.5208205485
 20
21.968635596
 10
10.5191111237
 20
21.8852903227
  0
LWPOLYLINE
  5
29C
100
AcDbEntity
  8
SUPERFICI
100
AcDbPolyline
 62
7
  6
CONTINUOUS
 90
3
 70
0
 10
6.0600090686
 20
-2.1776642199
 10
6.0982213152
 20
-1.9987053609
 10
6.1329404207
 20
-1.8201885338
  0
LWPOLYLINE
  5
29D
100
AcDbEntity
  8
0
100
AcDbPolyline
 62
7
  6
CONTINUOUS
 90
19
 70
0
 10
6.0600090698
 20
-2.1776642135
 10
6.044939
 20
-2.2353225622
 10
6.0257040769
 20
-2.2913374409
 10
6.0023043005
 20
-2.3457088514
 10
5.9744793983
 20
-2.3988811174
 10
5.942489643
 20
-2.4504099185
 10
5.9071158519
 20
-2.4989622922
 10
5.8684218644
 20
-2.5442589547
 10
5.8263438412
 20
-2.5865791976
 10
5.7814710827
 20
-2.6254279247
 10
5.7337952864
 20
-2.6608010873
 10
5.6833247548
 20
-2.6927027418
 10
5.6306736957
 20
-2.7206499501
 10
5.5755424014
 20
-2.7446418876
 10
5.5182305797
 20
-2.7646793855
 10
5.4602515615
 20
-2.7802819894
 10
5.4021097904
 20
-2.7912895493
 10
5.3433008229
 20
-2.7978622192
 10
5.2838246588
 20
-2.8
  0
LWPOLYLINE
  5
29E
100
AcDbEntity
  8
SUPERFICI
100
AcDbPolyline
 62
7
  6
CONTINUOUS
 90
3
 70
0
 10
6.03137992
 20
-2.2759519331
 10
6.0472025709
 20
-2.2274421206
 10
6.0600090686
 20
-2.1776642199
  0
LWPOLYLINE
  5
29F
100
AcDbEntity
  8
0
100
AcDbPolyline
 62
7
  6
CONTINUOUS
 90
3
 70
0
 43
0.3500000006
 10
18.094285183
 20
1.0357133102
 10
18.3085719337
 20
0.9642866592
 10
18.5942853355
 20
0.8214288254
  0
LWPOLYLINE
  5
2A0
100
AcDbEntity
  8
SUPERFICI
100
AcDbPolyline
 62
7
  6
CONTINUOUS
 90
19
 70
0
 10
6.0471686081
 20
2.2275303558
 10
6.0313182013
 20
2.2761037948
 10
6.0124578489
 20
2.3233845336
 10
5.9904865547
 20
2.3695661189
 10
5.9655053151
 20
2.4144550063
 10
5.9378171187
 20
2.4574705613
 10
5.9073874321
 20
2.4985828076
 10
5.8742507888
 20
2.5378217255
 10
5.8388137781
 20
2.5746966168
 10
5.8010462158
 20
2.6091766675
 10
5.7609782862
 20
2.6412926964
 10
5.7191071318
 20
2.6706464553
 10
5.6754091995
 20
2.6972017256
 10
5.6299080425
 20
2.7209947306
 10
5.5831714625
 20
2.7417358849
 10
5.5351709134
 20
2.7593847674
 10
5.4859349415
 20
2.773981803
 10
5.4361169868
 20
2.7853586749
 10
5.385934863
 20
2.793459278
  0
LINE
  5
2A1
100
AcDbEntity
  8
SUPERFICI
100
AcDbLine
 62
7
  6
CONTINUOUS
 10
6.0600090695
 20
2.1776642153
 11
6.0471686081
 21
2.2275303558
  0
LWPOLYLINE
  5
2A2
100
AcDbEntity
  8
0
100
AcDbPolyline
 62
7
  6
CONTINUOUS
 90
13
 70
0
 10
6.0600090698
 20
2.1776642136
 10
6.1331543836
 20
1.8191363534
 10
6.1930409671
 20
1.4588482882
 10
6.2396688205
 20
1.096800193
 10
6.2730870509
 20
0.732410401
 10
6.2932465511
 20
0.3662609444
 10
6.2999999995
 20
0.0000975589
 10
6.2932497666
 20
-0.3660906414
 10
6.2730934819
 20
-0.732292377
 10
6.2396767132
 20
-1.0967286636
 10
6.1930479828
 20
-1.4588063863
 10
6.1331587684
 20
-1.8191182946
 10
6.0600090698
 20
-2.1776642135
  0
LWPOLYLINE
  5
2A3
100
AcDbEntity
  8
SUPERFICI
100
AcDbPolyline
 62
7
  6
CONTINUOUS
 90
3
 70
0
 10
6.1331328758
 20
1.8192004697
 10
6.0982196954
 20
1.998714166
 10
6.0600090695
 20
2.1776642153
  0
LWPOLYLINE
  5
2A4
100
AcDbEntity
  8
0
100
AcDbPolyline
 62
7
  6
CONTINUOUS
 90
16
 70
0
 10
6.6248933437
 20
-3.0457142257
 10
6.7424786231
 20
-2.6499608075
 10
6.8434207481
 20
-2.2507966928
 10
6.9277197187
 20
-1.8482220965
 10
6.9954958904
 20
-1.4415411699
 10
7.0466289077
 20
-1.0314502274
 10
7.0807577043
 20
-0.6200377614
 10
7.0977619246
 20
-0.2071195716
 10
7.0977619243
 20
0.207119589
 10
7.0807577033
 20
0.6200377779
 10
7.0466289063
 20
1.031450242
 10
6.9954958888
 20
1.4415411816
 10
6.9277197171
 20
1.8482221053
 10
6.8434207467
 20
2.2507966987
 10
6.7424786223
 20
2.6499608105
 10
6.6248933436
 20
3.0457142257
  0
LWPOLYLINE
  5
2A5
100
AcDbEntity
  8
0
100
AcDbPolyline
 62
7
  6
CONTINUOUS
 90
16
 70
0
 10
6.6559327793
 20
-3.0920519245
 10
6.6328274532
 20
-3.154630964
 10
6.6048052928
 20
-3.2145432571
 10
6.571866298
 20
-3.271788809
 10
6.5335842999
 20
-3.3269058323
 10
6.4903854674
 20
-3.379356124
 10
6.4435483076
 20
-3.4275250693
 10
6.3932855846
 20
-3.4710358806
 10
6.3393845343
 20
-3.5102653612
 10
6.2824853708
 20
-3.5447292868
 10
6.2221380927
 20
-3.5745162642
 10
6.1587927015
 20
-3.5995376992
 10
6.0944394158
 20
-3.6190435654
 10
6.0297416419
 20
-3.6327838571
 10
5.9640359735
 20
-3.641008588
 10
5.8973224107
 20
-3.6437177602
  0
LINE
  5
2A6
100
AcDbEntity
  8
0
100
AcDbLine
 62
253
  6
CONTINUOUS
 10
-11.0514422353
 20
-21.6116135728
 11
-11.0264799709
 21
-21.5866513084
  0
LINE
  5
2A7
100
AcDbEntity
  8
0
100
AcDbLine
 62
253
  6
CONTINUOUS
 10
-10.5516135728
 20
-22.1114422353
 11
-10.5266513084
 21
-22.0864799709
  0
LWPOLYLINE
  5
2A8
100
AcDbEntity
  8
0
100
AcDbPolyline
 62
7
  6
CONTINUOUS
 90
10
 70
0
 43
0.3500000006
 10
17.8799995651
 20
0.9642866592
 10
18.022857399
 20
1.0357133102
 10
18.094285183
 20
1.0357133102
 10
18.2371430168
 20
0.8928577423
 10
18.2371430168
 20
0.8214288254
 10
18.1657140999
 20
0.7499999084
 10
18.094285183
 20
0.7499999084
 10
17.9514284821
 20
0.8214288254
 10
17.8799995651
 20
0.8928577423
 10
17.8799995651
 20
0.9642866592
  0
LINE
  5
2A9
100
AcDbEntity
  8
0
100
AcDbLine
 62
253
  6
CONTINUOUS
 10
-11.0264799709
 20
21.5866513084
 11
-11.0514422353
 21
21.6116135728
  0
LINE
  5
2AA
100
AcDbEntity
  8
0
100
AcDbLine
 62
253
  6
CONTINUOUS
 10
-10.5266513084
 20
22.0864799709
 11
-10.5516135728
 21
22.1114422353
  0
LWPOLYLINE
  5
2AB
100
AcDbEntity
  8
0
100
AcDbPolyline
 62
7
  6
CONTINUOUS
 90
16
 70
0
 10
6.6248933436
 20
3.0457142257
 10
6.6019411028
 20
3.1085515613
 10
6.5740172611
 20
3.1687347806
 10
6.5411218185
 20
3.2262638889
 10
6.5028131904
 20
3.281696484
 10
6.4595329615
 20
3.3344749774
 10
6.4126058858
 20
3.3829265978
 10
6.3622545983
 20
3.4266499815
 10
6.308256464
 20
3.4660465081
 10
6.2512683326
 20
3.5006475248
 10
6.1908580371
 20
3.5305416675
 10
6.1274577446
 20
3.555640313
 10
6.0630208054
 20
3.5752089197
 10
5.9981983364
 20
3.5890026433
 10
5.9323392207
 20
3.5972663361
 10
5.8654434584
 20
3.6
  0
LWPOLYLINE
  5
2AC
100
AcDbEntity
  8
0
100
AcDbPolyline
 62
7
  6
CONTINUOUS
 90
16
 70
0
 10
6.6559327792
 20
3.0920519245
 10
6.7766454982
 20
2.6905231409
 10
6.8802764011
 20
2.2854504696
 10
6.9668254879
 20
1.8768341338
 10
7.0364194251
 20
1.4639506188
 10
7.0889315463
 20
1.0475239238
 10
7.1239818517
 20
0.6297255776
 10
7.1414436762
 20
0.2103656772
 10
7.141443685
 20
-0.2103652966
 10
7.1239818743
 20
-0.6297252174
 10
7.0889315767
 20
-1.0475236116
 10
7.0364194595
 20
-1.4639503751
 10
6.9668255213
 20
-1.8768339578
 10
6.8802764283
 20
-2.2854503532
 10
6.7766455143
 20
-2.6905230831
 10
6.6559327793
 20
-3.0920519245
  0
LWPOLYLINE
  5
2AD
100
AcDbEntity
  8
RACCORDO
100
AcDbPolyline
 62
253
  6
CONTINUOUS
 90
7
 70
0
 10
10.5208201249
 20
-21.9686332738
 10
10.5217307095
 20
-22.0024922519
 10
10.5226780577
 20
-22.0308580893
 10
10.5236454625
 20
-22.0535588376
 10
10.5246273547
 20
-22.070457797
 10
10.5256293033
 20
-22.0814536019
 10
10.5266513084
 20
-22.0864799709
  0
LINE
  5
2AE
100
AcDbEntity
  8
RACCORDO
100
AcDbLine
 62
253
  6
CONTINUOUS
 10
10.5191102789
 20
-21.8852865879
 11
10.5208201249
 21
-21.9686332738
  0
LINE
  5
2AF
100
AcDbEntity
  8
RACCORDO
100
AcDbLine
 62
253
  6
CONTINUOUS
 10
-10.8880102879
 20
9.4960050713
 11
-10.8181687786
 21
9.4974728383
  0
LINE
  5
2B0
100
AcDbEntity
  8
RACCORDO
100
AcDbLine
 62
253
  6
CONTINUOUS
 10
-10.8181687786
 20
9.4974728383
 11
-10.7343795934
 21
9.4986458948
  0
LINE
  5
2B1
100
AcDbEntity
  8
RACCORDO
100
AcDbLine
 62
253
  6
CONTINUOUS
 10
-10.7343795934
 20
9.4986458948
 11
-10.6401841222
 21
9.4994746612
  0
LINE
  5
2B2
100
AcDbEntity
  8
RACCORDO
100
AcDbLine
 62
253
  6
CONTINUOUS
 10
-10.6401841222
 20
9.4994746612
 11
-10.4881671644
 21
9.4999999996
  0
LINE
  5
2B3
100
AcDbEntity
  8
RACCORDO
100
AcDbLine
 62
253
  6
CONTINUOUS
 10
10.590415486
 20
9.4997483763
 11
-10.4881671644
 21
9.5
  0
LINE
  5
2B4
100
AcDbEntity
  8
RACCORDO
100
AcDbLine
 62
253
  6
CONTINUOUS
 10
10.6883422333
 20
9.4991058655
 11
10.590415486
 21
9.4997483763
  0
LINE
  5
2B5
100
AcDbEntity
  8
RACCORDO
100
AcDbLine
 62
253
  6
CONTINUOUS
 10
10.7778084851
 20
9.4980996237
 11
10.6883422333
 21
9.4991058655
  0
LWPOLYLINE
  5
2B6
100
AcDbEntity
  8
RACCORDO
100
AcDbPolyline
 62
253
  6
CONTINUOUS
 90
10
 70
0
 10
11.0181527169
 20
-21.4614914897
 10
11.0189391127
 20
-21.4859859557
 10
11.0197777543
 20
-21.5082362811
 10
11.02065331
 20
-21.5278351628
 10
11.0215670101
 20
-21.5447313594
 10
11.0225176243
 20
-21.5589761122
 10
11.0234861298
 20
-21.5703158414
 10
11.0244661856
 20
-21.5786660206
 10
11.0254641326
 20
-21.5841111763
 10
11.0264799709
 20
-21.5866513084
  0
LINE
  5
2B7
100
AcDbEntity
  8
RACCORDO
100
AcDbLine
 62
253
  6
CONTINUOUS
 10
11.016738871
 20
-21.4056933754
 11
11.0181527169
 21
-21.4614914897
  0
LINE
  5
2B8
100
AcDbEntity
  8
RACCORDO
100
AcDbLine
 62
253
  6
CONTINUOUS
 10
11.0155711136
 20
-21.3424327347
 11
11.016738871
 21
-21.4056933754
  0
LINE
  5
2B9
100
AcDbEntity
  8
RACCORDO
100
AcDbLine
 62
253
  6
CONTINUOUS
 10
10.5169142997
 20
-21.7251528619
 11
10.5191102789
 21
-21.8852865879
  0
LINE
  5
2BA
100
AcDbEntity
  8
RACCORDO
100
AcDbLine
 62
253
  6
CONTINUOUS
 10
11.0146703475
 20
-21.2729143474
 11
11.0155711136
 21
-21.3424327347
  0
LINE
  5
2BB
100
AcDbEntity
  8
RACCORDO
100
AcDbLine
 62
253
  6
CONTINUOUS
 10
10.5148466646
 20
-21.4599830018
 11
10.5169142997
 21
-21.7251528619
  0
LINE
  5
2BC
100
AcDbEntity
  8
RACCORDO
100
AcDbLine
 62
253
  6
CONTINUOUS
 10
11.0138766932
 20
-21.1615238967
 11
11.0146703475
 21
-21.2729143474
  0
LINE
  5
2BD
100
AcDbEntity
  8
RACCORDO
100
AcDbLine
 62
253
  6
CONTINUOUS
 10
10.4976037732
 20
-16.0366548119
 11
10.5140480307
 21
-21.2362251476
  0
LINE
  5
2BE
100
AcDbEntity
  8
RACCORDO
100
AcDbLine
 62
253
  6
CONTINUOUS
 10
10.9974324428
 20
-15.9909275752
 11
11.0138766932
 21
-21.1615238967
  0
LINE
  5
2BF
100
AcDbEntity
  8
RACCORDO
100
AcDbLine
 62
253
  6
CONTINUOUS
 10
10.5140480307
 20
-21.2362251476
 11
10.5148466646
 21
-21.4599830018
  0
LINE
  5
2C0
100
AcDbEntity
  8
RACCORDO
100
AcDbLine
 62
253
  6
CONTINUOUS
 10
10.4890638437
 20
-10.809162614
 11
10.4976037732
 21
-16.0366548119
  0
LINE
  5
2C1
100
AcDbEntity
  8
RACCORDO
100
AcDbLine
 62
253
  6
CONTINUOUS
 10
10.9888924616
 20
-10.7928222982
 11
10.9974324428
 21
-15.9909275752
  0
LINE
  5
2C2
100
AcDbEntity
  8
RACCORDO
100
AcDbLine
 62
253
  6
CONTINUOUS
 10
10.485835169
 20
1.0555621241
 11
10.4890638437
 21
-10.809162614
  0
LINE
  5
2C3
100
AcDbEntity
  8
RACCORDO
100
AcDbLine
 62
253
  6
CONTINUOUS
 10
10.985663832
 20
1.0545216112
 11
10.9888924616
 21
-10.7928222982
  0
LINE
  5
2C4
100
AcDbEntity
  8
0
100
AcDbLine
 62
7
  6
CONTINUOUS
 10
11.0514422353
 20
21.6116135728
 11
11.0514422353
 21
-21.6116135728
  0
LINE
  5
2C5
100
AcDbEntity
  8
RACCORDO
100
AcDbLine
 62
253
  6
CONTINUOUS
 10
10.4923428018
 20
13.4252942234
 11
10.485835169
 21
1.0555621241
  0
LINE
  5
2C6
100
AcDbEntity
  8
RACCORDO
100
AcDbLine
 62
253
  6
CONTINUOUS
 10
10.9921714406
 20
13.3939726076
 11
10.985663832
 21
1.0545216112
  0
LINE
  5
2C7
100
AcDbEntity
  8
RACCORDO
100
AcDbLine
 62
253
  6
CONTINUOUS
 10
10.5048394573
 20
18.6410336052
 11
10.4923428018
 21
13.4252942234
  0
LINE
  5
2C8
100
AcDbEntity
  8
RACCORDO
100
AcDbLine
 62
253
  6
CONTINUOUS
 10
11.0046682314
 20
18.5804252298
 11
10.9921714406
 21
13.3939726076
  0
LINE
  5
2C9
100
AcDbEntity
  8
RACCORDO
100
AcDbLine
 62
253
  6
CONTINUOUS
 10
10.5152608966
 20
21.5306779274
 11
10.5048394573
 21
18.6410336052
  0
LINE
  5
2CA
100
AcDbEntity
  8
RACCORDO
100
AcDbLine
 62
253
  6
CONTINUOUS
 10
11.0143327731
 20
21.2368459471
 11
11.0046682314
 21
18.5804252298
  0
LINE
  5
2CB
100
AcDbEntity
  8
RACCORDO
100
AcDbLine
 62
253
  6
CONTINUOUS
 10
10.5169146285
 20
21.7251570648
 11
10.5152608966
 21
21.5306779274
  0
LINE
  5
2CC
100
AcDbEntity
  8
RACCORDO
100
AcDbLine
 62
253
  6
CONTINUOUS
 10
11.015084922
 20
21.3082533785
 11
11.0143327731
 21
21.2368459471
  0
LINE
  5
2CD
100
AcDbEntity
  8
RACCORDO
100
AcDbLine
 62
253
  6
CONTINUOUS
 10
10.5191111237
 20
21.8852903227
 11
10.5169146285
 21
21.7251570648
  0
LINE
  5
2CE
100
AcDbEntity
  8
RACCORDO
100
AcDbLine
 62
253
  6
CONTINUOUS
 10
11.0161242127
 20
21.3750566723
 11
11.015084922
 21
21.3082533785
  0
LWPOLYLINE
  5
2CF
100
AcDbEntity
  8
RACCORDO
100
AcDbPolyline
 62
253
  6
CONTINUOUS
 90
16
 70
0
 10
11.0264799709
 20
21.5866513084
 10
11.0237085996
 20
21.6388735973
 10
11.0154963459
 20
21.690524463
 10
11.0019330371
 20
21.7410385151
 10
10.9831670751
 20
21.7898627998
 10
10.9594038183
 20
21.8364628405
 10
10.930903339
 20
21.8803284908
 10
10.8979775626
 20
21.9209795447
 10
10.8609868701
 20
21.957970966
 10
10.8203361707
 20
21.9908977572
 10
10.7764704213
 20
22.0193994387
 10
10.7298697895
 20
22.04316396
 10
10.6810444317
 20
22.0619311116
 10
10.6305288403
 20
22.075495413
 10
10.5788759856
 20
22.0837083472
 10
10.5266513085
 20
22.086479971
  0
LWPOLYLINE
  5
2D0
100
AcDbEntity
  8
RACCORDO
100
AcDbPolyline
 62
253
  6
CONTINUOUS
 90
16
 70
0
 10
11.0264799709
 20
-21.5866513084
 10
11.0237084581
 20
-21.6388749344
 10
11.015495829
 20
-21.6905268861
 10
11.0019319847
 20
-21.741041747
 10
10.9831654038
 20
-21.7898665481
 10
10.9594015179
 20
-21.8364668208
 10
10.930900462
 20
-21.8803324477
 10
10.8979742276
 20
-21.9209832468
 10
10.860983247
 20
-21.9579742274
 10
10.820332448
 20
-21.9909004618
 10
10.776466821
 20
-22.0194015178
 10
10.7298665483
 20
-22.0431654038
 10
10.6810417472
 20
-22.0619319847
 10
10.6305268862
 20
-22.0754958291
 10
10.5788749345
 20
-22.0837084581
 10
10.5266513084
 20
-22.0864799709
  0
LWPOLYLINE
  5
2D1
100
AcDbEntity
  8
RACCORDO
100
AcDbPolyline
 62
253
  6
CONTINUOUS
 90
7
 70
0
 10
-10.9879958269
 20
9.4905
 10
-10.9840029662
 20
9.4914768667
 10
-10.9747570079
 20
9.492443384
 10
-10.9603559075
 20
9.4933893123
 10
-10.9409522366
 20
9.4943046299
 10
-10.916751566
 20
9.4951796397
 10
-10.8880102879
 20
9.4960050713
  0
LWPOLYLINE
  5
2D2
100
AcDbEntity
  8
RACCORDO
100
AcDbPolyline
 62
253
  6
CONTINUOUS
 90
9
 70
0
 10
10.9879958269
 20
9.4905
 10
10.9840029682
 20
9.4914768667
 10
10.9747570116
 20
9.4924433841
 10
10.9603559127
 20
9.4933893124
 10
10.9409522429
 20
9.4943046301
 10
10.916751573
 20
9.4951796399
 10
10.8880102953
 20
9.4960050715
 10
10.8550329074
 20
9.4967721801
 10
10.7778084851
 20
9.4980996237
  0
LWPOLYLINE
  5
2D3
100
AcDbEntity
  8
0
100
AcDbPolyline
 62
7
  6
CONTINUOUS
 90
10
 70
0
 43
0.3500000006
 10
1.2857142735
 20
31.3614431305
 10
1.3571429071
 20
31.2185852966
 10
1.3571429071
 20
31.1471586456
 10
1.2142857814
 20
31.0043008118
 10
1.1428571477
 20
31.0043008118
 10
1.0714285848
 20
31.0757274628
 10
1.0714285848
 20
31.1471586456
 10
1.1428571477
 20
31.2900119476
 10
1.2142857814
 20
31.3614431305
 10
1.2857142735
 20
31.3614431305
  0
LWPOLYLINE
  5
2D4
100
AcDbEntity
  8
0
100
AcDbPolyline
 62
7
  6
CONTINUOUS
 90
3
 70
0
 43
0.3500000006
 10
17.7371428642
 20
-0.5357137985
 10
17.7371428642
 20
-2.0357142563
 10
15.3799999352
 20
-1.3928574028
  0
LWPOLYLINE
  5
2D5
100
AcDbEntity
  8
0
100
AcDbPolyline
 62
7
  6
CONTINUOUS
 90
3
 70
0
 43
0.3500000006
 10
17.7371428642
 20
-2.8928567276
 10
17.7371428642
 20
-4.3928571854
 10
15.3799999352
 20
-3.7500003319
  0
LWPOLYLINE
  5
2D6
100
AcDbEntity
  8
0
100
AcDbPolyline
 62
7
  6
CONTINUOUS
 90
7
 70
0
 43
0.3500000006
 10
18.3799997177
 20
3.5357140732
 10
18.3799997177
 20
2.0357136154
 10
16.2371424065
 20
3.5357140732
 10
15.8085711708
 20
3.5357140732
 10
15.3799999352
 20
3.1071428375
 10
15.3799999352
 20
2.4642848511
 10
16.0228567886
 20
2.0357136154
  0
LWPOLYLINE
  5
2D7
100
AcDbEntity
  8
RACCORDO
100
AcDbPolyline
 62
253
  6
CONTINUOUS
 90
16
 70
0
 10
11.013876693
 20
-21.1615238967
 10
11.0098961887
 20
-21.1692063518
 10
11.0006606727
 20
-21.1768073667
 10
10.9862680235
 20
-21.1842463858
 10
10.9668707748
 20
-21.19144457
 10
10.9426744993
 20
-21.1983256327
 10
10.9139356299
 20
-21.2048166483
 10
10.8809587422
 20
-21.2108488247
 10
10.8440933262
 20
-21.2163582328
 10
10.803730083
 20
-21.2212864835
 10
10.7602967834
 20
-21.2255813472
 10
10.7142537351
 20
-21.2291973067
 10
10.6660889038
 20
-21.2320960401
 10
10.616312742
 20
-21.2342468266
 10
10.5654527791
 20
-21.235626872
 10
10.5140480308
 20
-21.2362215505
  0
LWPOLYLINE
  5
2D8
100
AcDbEntity
  8
RACCORDO
100
AcDbPolyline
 62
253
  6
CONTINUOUS
 90
16
 70
0
 10
11.0138766932
 20
21.1615238967
 10
11.0098974597
 20
21.1692066572
 10
11.000663019
 20
21.1768079927
 10
10.9862712413
 20
21.1842473412
 10
10.9668746564
 20
21.1914458576
 10
10.9426788368
 20
21.1983272491
 10
10.9139402194
 20
21.2048185843
 10
10.8809633874
 20
21.2108510651
 10
10.8440978422
 20
21.2163607572
 10
10.8037342993
 20
21.2212892666
 10
10.7603005474
 20
21.225584359
 10
10.7142569145
 20
21.2292005133
 10
10.6660913891
 20
21.2320994044
 10
10.6163144484
 20
21.2342503089
 10
10.565453648
 20
21.2356304304
 10
10.5140480307
 20
21.236225142
  0
LINE
  5
2D9
100
AcDbEntity
  8
RACCORDO
100
AcDbLine
 62
253
  6
CONTINUOUS
 10
10.5140480307
 20
21.2362251476
 11
-10.5140480307
 21
21.2362251476
  0
LINE
  5
2DA
100
AcDbEntity
  8
RACCORDO
100
AcDbLine
 62
253
  6
CONTINUOUS
 10
10.5266513084
 20
22.0864799709
 11
-10.5266513084
 21
22.0864799709
  0
LINE
  5
2DB
100
AcDbEntity
  8
0
100
AcDbLine
 62
7
  6
CONTINUOUS
 10
10.5516135728
 20
22.1114422353
 11
-10.5516135728
 21
22.1114422353
  0
LWPOLYLINE
  5
2DC
100
AcDbEntity
  8
0
100
AcDbPolyline
 62
7
  6
CONTINUOUS
 90
7
 70
0
 43
0.3500000006
 10
-0.2142857063
 20
30.8614429779
 10
-1.7142856507
 20
30.8614429779
 10
-0.2142857063
 20
33.0043014221
 10
-0.2142857063
 20
33.4328703918
 10
-0.6428571367
 20
33.8614438934
 10
-1.2857142735
 20
33.8614438934
 10
-1.7142856507
 20
33.218585907
  0
LWPOLYLINE
  5
2DD
100
AcDbEntity
  8
0
100
AcDbPolyline
 62
7
  6
CONTINUOUS
 90
7
 70
0
 43
0.3500000006
 10
-2.5714285469
 20
30.8614429779
 10
-4.0714284382
 20
30.8614429779
 10
-2.5714285469
 20
33.0043014221
 10
-2.5714285469
 20
33.4328703918
 10
-3.0000000658
 20
33.8614438934
 10
-3.6428572025
 20
33.8614438934
 10
-4.0714284382
 20
33.218585907
  0
LINE
  5
2DE
100
AcDbEntity
  8
RACCORDO
100
AcDbLine
 62
7
  6
CONTINUOUS
 10
-33.5636860527
 20
-22.0864799709
 11
-32.6104156351
 21
-22.1114422353
  0
LINE
  5
2DF
100
AcDbEntity
  8
0
100
AcDbLine
 62
7
  6
CONTINUOUS
 10
-33.5636860527
 20
-22.0864799709
 11
-32.6104156351
 21
-22.1114422353
  0
LWPOLYLINE
  5
2E0
100
AcDbEntity
  8
RACCORDO
100
AcDbPolyline
 62
253
  6
CONTINUOUS
 90
4
 70
0
 10
-34.5029397508
 20
-21.2320960401
 10
-34.5158706318
 20
-21.2342468266
 10
-34.5236722031
 20
-21.235626872
 10
-34.5262617834
 20
-21.2362215505
  0
LINE
  5
2E1
100
AcDbEntity
  8
RACCORDO
100
AcDbLine
 62
253
  6
CONTINUOUS
 10
-34.4350041969
 20
-21.2212864835
 11
-34.5029397508
 21
-21.2320960401
  0
LWPOLYLINE
  5
2E2
100
AcDbEntity
  8
RACCORDO
100
AcDbPolyline
 62
253
  6
CONTINUOUS
 90
3
 70
0
 10
-34.0449858097
 20
-21.1615238967
 10
-34.0957256868
 20
-21.1692063518
 10
-34.4350041969
 20
-21.2212864835
  0
LINE
  5
2E3
100
AcDbEntity
  8
0
100
AcDbLine
 62
253
  6
CONTINUOUS
 10
-33.5636860527
 20
-21.5866513084
 11
-32.6104156351
 21
-21.6116135728
  0
LINE
  5
2E4
100
AcDbEntity
  8
0
100
AcDbLine
 62
7
  6
CONTINUOUS
 10
-31.6104156351
 20
-13.2689805518
 11
-32.6104156351
 21
-13.3213883311
  0
LWPOLYLINE
  5
2E5
100
AcDbEntity
  8
0
100
AcDbPolyline
 62
7
  6
CONTINUOUS
 90
2
 70
0
 43
0.3500000006
 10
-44.4383802795
 20
30.8614429779
 10
-44.4383802795
 20
32.3614434357
  0
LINE
  5
2E6
100
AcDbEntity
  8
RACCORDO
100
AcDbLine
 62
253
  6
CONTINUOUS
 10
-35.517509808
 20
-9.499924109
 11
-35.5201574514
 21
-9.4999999993
  0
LINE
  5
2E7
100
AcDbEntity
  8
RACCORDO
100
AcDbLine
 62
253
  6
CONTINUOUS
 10
-35.0333362209
 20
-9.4905
 11
-35.517509808
 21
-9.499924109
  0
LINE
  5
2E8
100
AcDbEntity
  8
0
100
AcDbLine
 62
7
  6
CONTINUOUS
 10
-31.6104156351
 20
-9.7310194482
 11
-32.6104156351
 21
-9.6786116689
  0
LWPOLYLINE
  5
2E9
100
AcDbEntity
  8
RACCORDO
100
AcDbPolyline
 62
253
  6
CONTINUOUS
 90
19
 70
0
 10
-34.0449858097
 20
-21.1615238967
 10
-34.0376764203
 20
-21.1996934077
 10
-34.0275736092
 20
-21.2368235579
 10
-34.0146773766
 20
-21.2729143474
 10
-33.9988746511
 20
-21.3081932214
 10
-33.9802785039
 20
-21.3424327347
 10
-33.9592281491
 20
-21.3749505517
 10
-33.9356836517
 20
-21.4056933754
 10
-33.9096849465
 20
-21.4347145028
 10
-33.8816910524
 20
-21.4614914897
 10
-33.8516598099
 20
-21.4859859557
 10
-33.8196333785
 20
-21.5082362811
 10
-33.7861972553
 20
-21.5278351628
 10
-33.7513044555
 20
-21.5447313594
 10
-33.715001964
 20
-21.5589761122
 10
-33.6780162328
 20
-21.5703158414
 10
-33.6405894125
 20
-21.5786660206
 10
-33.6024793524
 20
-21.5841111763
 10
-33.5636860527
 20
-21.5866513084
  0
LWPOLYLINE
  5
2EA
100
AcDbEntity
  8
RACCORDO
100
AcDbPolyline
 62
253
  6
CONTINUOUS
 90
10
 70
0
 10
-34.0449858097
 20
21.1615238967
 10
-34.230234326
 20
19.8719852003
 10
-34.3966427795
 20
18.5804252298
 10
-34.5442111702
 20
17.2868439853
 10
-34.6729633488
 20
15.9909603469
 10
-34.7828754647
 20
14.6930554344
 10
-34.873875965
 20
13.3939726076
 10
-34.9459409991
 20
12.0939929862
 10
-34.9990944177
 20
10.7928354503
 10
-35.0333362209
 20
9.4905
  0
LWPOLYLINE
  5
2EB
100
AcDbEntity
  8
RACCORDO
100
AcDbPolyline
 62
253
  6
CONTINUOUS
 90
10
 70
0
 10
-35.0333362209
 20
-9.4905
 10
-34.9990951228
 20
-10.7928222982
 10
-34.9459423345
 20
-12.0939699785
 10
-34.8738778559
 20
-13.393943041
 10
-34.7828779714
 20
-14.693022617
 10
-34.6729663965
 20
-15.9909275752
 10
-34.5442142782
 20
-17.2868145217
 10
-34.3966453321
 20
-18.5804023251
 10
-34.2302358426
 20
-19.8719721168
 10
-34.0449858097
 20
-21.1615238967
  0
LWPOLYLINE
  5
2EC
100
AcDbEntity
  8
RACCORDO
100
AcDbPolyline
 62
253
  6
CONTINUOUS
 90
10
 70
0
 10
-35.0333362209
 20
9.4905
 10
-35.0689583301
 20
7.381529647
 10
-35.0956749144
 20
5.2725447223
 10
-35.1134859736
 20
3.1635452259
 10
-35.122391511
 20
1.0545216112
 10
-35.1223915234
 20
-1.0545165753
 10
-35.1134860015
 20
-3.1635406936
 10
-35.0956749422
 20
-5.2725411972
 10
-35.0689583487
 20
-7.3815276327
 10
-35.0333362209
 20
-9.4905
  0
LWPOLYLINE
  5
2ED
100
AcDbEntity
  8
RACCORDO
100
AcDbPolyline
 62
253
  6
CONTINUOUS
 90
10
 70
0
 10
-33.5688735258
 20
-21.8803324477
 10
-33.5690758004
 20
-21.9209832468
 10
-33.5690758002
 20
-21.9579742274
 10
-33.5688735251
 20
-21.9909004618
 10
-33.5684711893
 20
-22.0194015178
 10
-33.5678731972
 20
-22.0431654038
 10
-33.567086095
 20
-22.0619319847
 10
-33.5661184989
 20
-22.0754958291
 10
-33.5649810009
 20
-22.0837084581
 10
-33.5636860527
 20
-22.0864799709
  0
LINE
  5
2EE
100
AcDbEntity
  8
RACCORDO
100
AcDbLine
 62
253
  6
CONTINUOUS
 10
-33.5636860527
 20
21.5866513084
 11
-33.5661184392
 21
21.690524463
  0
LINE
  5
2EF
100
AcDbEntity
  8
RACCORDO
100
AcDbLine
 62
253
  6
CONTINUOUS
 10
-33.5661184392
 20
21.690524463
 11
-33.567873125
 21
21.7898627998
  0
LWPOLYLINE
  5
2F0
100
AcDbEntity
  8
RACCORDO
100
AcDbPolyline
 62
253
  6
CONTINUOUS
 90
11
 70
0
 10
-33.567873125
 20
21.7898627998
 10
-33.5688734732
 20
21.8803284908
 10
-33.5690757654
 20
21.9209795447
 10
-33.569075784
 20
21.957970966
 10
-33.5688735268
 20
21.9908977572
 10
-33.5684712059
 20
22.0193994387
 10
-33.5678732235
 20
22.04316396
 10
-33.5670861249
 20
22.0619311116
 10
-33.5661185257
 20
22.075495413
 10
-33.5649810167
 20
22.0837083472
 10
-33.5636860493
 20
22.086479971
  0
LINE
  5
2F1
100
AcDbEntity
  8
0
100
AcDbLine
 62
7
  6
CONTINUOUS
 10
-32.6104156351
 20
-22.1114422353
 11
-32.6104156351
 21
22.1114422353
  0
LINE
  5
2F2
100
AcDbEntity
  8
0
100
AcDbLine
 62
253
  6
CONTINUOUS
 10
-31.9894812526
 20
-13.288846539
 11
-31.9894812526
 21
-9.711153461
  0
LINE
  5
2F3
100
AcDbEntity
  8
0
100
AcDbLine
 62
253
  6
CONTINUOUS
 10
-31.9894812526
 20
9.711153461
 11
-31.9894812526
 21
13.288846539
  0
LINE
  5
2F4
100
AcDbEntity
  8
RACCORDO
100
AcDbLine
 62
253
  6
CONTINUOUS
 10
-33.5678731989
 20
-21.7898665481
 11
-33.5688735258
 21
-21.8803324477
  0
LINE
  5
2F5
100
AcDbEntity
  8
RACCORDO
100
AcDbLine
 62
253
  6
CONTINUOUS
 10
-33.5661185005
 20
-21.6905268861
 11
-33.5678731989
 21
-21.7898665481
  0
LINE
  5
2F6
100
AcDbEntity
  8
RACCORDO
100
AcDbLine
 62
253
  6
CONTINUOUS
 10
-33.5636860527
 20
-21.5866513084
 11
-33.5661185005
 21
-21.6905268861
  0
LINE
  5
2F7
100
AcDbEntity
  8
0
100
AcDbLine
 62
7
  6
CONTINUOUS
 10
-31.6104156351
 20
-13.2689805518
 11
-31.6104156351
 21
-9.7310194482
  0
LINE
  5
2F8
100
AcDbEntity
  8
0
100
AcDbLine
 62
7
  6
CONTINUOUS
 10
-31.6104156351
 20
9.7310194482
 11
-31.6104156351
 21
13.2689805518
  0
LINE
  5
2F9
100
AcDbEntity
  8
0
100
AcDbLine
 62
7
  6
CONTINUOUS
 10
-31.6104156351
 20
9.7310194482
 11
-32.6104156351
 21
9.6786116689
  0
LWPOLYLINE
  5
2FA
100
AcDbEntity
  8
RACCORDO
100
AcDbPolyline
 62
253
  6
CONTINUOUS
 90
3
 70
0
 10
-35.0333362209
 20
9.4905
 10
-35.5175098442
 20
9.4999241097
 10
-35.5201574878
 20
9.5
  0
LINE
  5
2FB
100
AcDbEntity
  8
0
100
AcDbLine
 62
7
  6
CONTINUOUS
 10
-31.6104156351
 20
13.2689805518
 11
-32.6104156351
 21
13.3213883311
  0
LWPOLYLINE
  5
2FC
100
AcDbEntity
  8
RACCORDO
100
AcDbPolyline
 62
253
  6
CONTINUOUS
 90
19
 70
0
 10
-33.5636860527
 20
21.5866513084
 10
-33.6024697622
 20
21.5841100213
 10
-33.6405664433
 20
21.5786680472
 10
-33.6779760961
 20
21.5703253861
 10
-33.7149384242
 20
21.558997784
 10
-33.751213724
 20
21.5447694949
 10
-33.7860828843
 20
21.5278932804
 10
-33.8194978382
 20
21.5083229654
 10
-33.8515066527
 20
21.4861047249
 10
-33.8815344174
 20
21.4616298466
 10
-33.90954824
 20
21.4348517581
 10
-33.9355810129
 20
21.4058170317
 10
-33.9591565022
 20
21.3750566723
 10
-33.9802296007
 20
21.3425178419
 10
-33.9988454156
 20
21.3082533785
 10
-34.0146630352
 20
21.2729528004
 10
-34.0275688221
 20
21.2368459471
 10
-34.0376764136
 20
21.1997029793
 10
-34.0449858097
 20
21.1615238967
  0
LINE
  5
2FD
100
AcDbEntity
  8
0
100
AcDbLine
 62
253
  6
CONTINUOUS
 10
-32.6104156351
 20
21.6116135728
 11
-33.5636860527
 21
21.5866513084
  0
LINE
  5
2FE
100
AcDbEntity
  8
RACCORDO
100
AcDbLine
 62
7
  6
CONTINUOUS
 10
-32.6104156351
 20
22.1114422353
 11
-33.5636860493
 21
22.086479971
  0
LINE
  5
2FF
100
AcDbEntity
  8
0
100
AcDbLine
 62
7
  6
CONTINUOUS
 10
-32.6104156351
 20
22.1114422353
 11
-33.5636860527
 21
22.0864799709
  0
LWPOLYLINE
  5
300
100
AcDbEntity
  8
0
100
AcDbPolyline
 62
7
  6
CONTINUOUS
 90
3
 70
0
 43
0.3500000006
 10
-43.938380127
 20
31.5043009644
 10
-45.4383805847
 20
31.5043009644
 10
-44.7955225983
 20
33.8614438934
  0
LINE
  5
301
100
AcDbEntity
  8
RACCORDO
100
AcDbLine
 62
253
  6
CONTINUOUS
 10
-34.0449858097
 20
21.1615238967
 11
-34.4034616145
 21
21.2163607572
  0
LWPOLYLINE
  5
302
100
AcDbEntity
  8
RACCORDO
100
AcDbPolyline
 62
253
  6
CONTINUOUS
 90
6
 70
0
 10
-34.4034616145
 20
21.2163607572
 10
-34.4850377605
 20
21.2292005133
 10
-34.5029619593
 20
21.2320994044
 10
-34.5158936295
 20
21.2342503089
 10
-34.5236957163
 20
21.2356304304
 10
-34.5262855299
 20
21.236225142
  0
ARC
  5
303
100
AcDbEntity
  8
RACCORDO
100
AcDbCircle
 62
7
  6
CONTINUOUS
 10
464.3895843649
 20
0.0
 40
500.0
100
AcDbArc
 50
178.91131468
 51
181.08868532
  0
ARC
  5
304
100
AcDbEntity
  8
RACCORDO
100
AcDbCircle
 62
7
  6
CONTINUOUS
 10
54.4635960451
 20
-7.79
 40
90.0
100
AcDbArc
 50
181.08868532
 51
188.592302252
  0
ARC
  5
305
100
AcDbEntity
  8
RACCORDO
100
AcDbCircle
 62
7
  6
CONTINUOUS
 10
54.4635960451
 20
7.79
 40
90.0
100
AcDbArc
 50
171.407697748
 51
178.91131468
  0
ARC
  5
306
100
AcDbEntity
  8
RACCORDO
100
AcDbCircle
 62
7
  6
CONTINUOUS
 10
-33.5375091044
 20
-21.0868226459
 40
1.0
100
AcDbArc
 50
188.592302252
 51
268.5
  0
ARC
  5
307
100
AcDbEntity
  8
RACCORDO
100
AcDbCircle
 62
7
  6
CONTINUOUS
 10
-33.5375091044
 20
21.0868226459
 40
1.0
100
AcDbArc
 50
91.5
 51
171.407697748
  0
ELLIPSE
  5
308
100
AcDbEntity
  8
0
100
AcDbEllipse
 62
7
  6
CONTINUOUS
 10
-10.551270839
 20
-21.611270839
 30
0.0
 11
0.35379574
 21
0.35379574
 31
0.0
 40
0.999315002
 41
2.3565371065
 42
3.9266482006
  0
ELLIPSE
  5
309
100
AcDbEntity
  8
0
100
AcDbEllipse
 62
7
  6
CONTINUOUS
 10
-10.551270839
 20
21.611270839
 30
0.0
 11
-0.35379574
 21
0.35379574
 31
0.0
 40
0.999315002
 41
-0.7850555471
 42
0.7850555471
  0
ELLIPSE
  5
30A
100
AcDbEntity
  8
0
100
AcDbEllipse
 62
7
  6
CONTINUOUS
 10
10.551270839
 20
-21.611270839
 30
0.0
 11
-0.35379574
 21
0.35379574
 31
0.0
 40
0.999315002
 41
-3.9266482006
 42
-2.3565371065
  0
ELLIPSE
  5
30B
100
AcDbEntity
  8
0
100
AcDbEllipse
 62
7
  6
CONTINUOUS
 10
10.551270839
 20
21.611270839
 30
0.0
 11
-0.35379574
 21
-0.35379574
 31
0.0
 40
0.999315002
 41
2.3565371065
 42
3.9266482006
  0
ENDSEC
  0
SECTION
  2
OBJECTS
  0
DICTIONARY
  5
C
100
AcDbDictionary
280
0
281
1
  3
ACAD_GROUP
350
D
  3
ACAD_MLINESTYLE
350
17
  3
ACAD_LAYOUT
350
1A
  3
ACAD_PLOTSETTINGS
350
19
  3
ACAD_PLOTSTYLENAME
350
E
  0
DICTIONARY
  5
D
102
{ACAD_REACTORS
330
C
102
}
100
AcDbDictionary
280
0
281
1
  0
ACDBDICTIONARYWDFLT
  5
E
102
{ACAD_REACTORS
330
C
102
}
100
AcDbDictionary
281
1
  3
Normal
350
F
100
AcDbDictionaryWithDefault
340
F
  0
DICTIONARY
  5
17
102
{ACAD_REACTORS
330
C
102
}
100
AcDbDictionary
280
0
281
1
  3
Standard
350
18
  0
DICTIONARY
  5
19
102
{ACAD_REACTORS
330
C
102
}
100
AcDbDictionary
281
1
  0
DICTIONARY
  5
1A
102
{ACAD_REACTORS
330
C
102
}
100
AcDbDictionary
281
1
  3
Model
350
30C
  3
Layout1
350
30D
  0
ACDBPLACEHOLDER
  5
F
102
{ACAD_REACTORS
330
E
102
}
  0
MLINESTYLE
  5
18
102
{ACAD_REACTORS
330
17
102
}
100
AcDbMlineStyle
  2
STANDARD
 70
0
  3

 62
256
 51
90.0
 52
90.0
 71
2
 49
0.5
 62
256
  6
BYLAYER
 49
-0.5
 62
256
  6
BYLAYER
  0
LAYOUT
  5
30C
102
{ACAD_REACTORS
330
1A
102
}
100
AcDbPlotSettings
  1

  2
none_device
  4
ISO_A4_(297.00_x_210.00_MM)
  6

 40
0.0
 41
0.0
 42
0.0
 43
0.0
 44
297.0
 45
210.0
 46
0.0
 47
0.0
 48
0.0
 49
0.0
140
0.0
141
0.0
142
1.0
143
1.0
 70
1024
 72
1
 73
0
 74
0
  7

 75
0
147
1.0
148
0.0
149
0.0
100
AcDbLayout
  1
Model
 70
0
 71
0
 10
0.0
 20
0.0
 11
297.0
 21
210.0
 12
0.0
 22
0.0
 32
0.0
 14
0.0
 24
0.0
 34
0.0
 15
0.0
 25
0.0
 35
0.0
146
0.0
 13
0.0
 23
0.0
 33
0.0
 16
1.0
 26
0.0
 36
0.0
 17
0.0
 27
1.0
 37
0.0
 76
0
330
215
345
0
346
0
  0
LAYOUT
  5
30D
102
{ACAD_REACTORS
330
1A
102
}
100
AcDbPlotSettings
  1

  2
none_device
  4
ISO_A4_(297.00_x_210.00_MM)
  6

 40
0.0
 41
0.0
 42
0.0
 43
0.0
 44
297.0
 45
210.0
 46
0.0
 47
0.0
 48
0.0
 49
0.0
140
0.0
141
0.0
142
1.0
143
1.0
 70
0
 72
1
 73
0
 74
0
  7

 75
0
147
1.0
148
0.0
149
0.0
100
AcDbLayout
  1
Layout1
 70
0
 71
1
 10
0.0
 20
0.0
 11
297.0
 21
210.0
 12
0.0
 22
0.0
 32
0.0
 14
0.0
 24
0.0
 34
0.0
 15
0.0
 25
0.0
 35
0.0
146
0.0
 13
0.0
 23
0.0
 33
0.0
 16
1.0
 26
0.0
 36
0.0
 17
0.0
 27
1.0
 37
0.0
 76
0
330
216
345
0
346
0
  0
ENDSEC
  0
EOF
