  0
SECTION
  2
HEADER
  9
$ACADVER
  1
AC1015
  9
$DWGCODEPAGE
  3
ANSI_1252
  9
$EXTMAX
 10
297.0
 20
210.0
 30
0.0
  9
$EXTMIN
 10
0.0
 20
0.0
 30
0.0
  9
$LIMMIN
 10
0.0
 20
0.0
  9
$LIMMAX
 10
297.0
 20
210.0
  9
$VIEWCTR
 10
148.5
 20
105.0
  9
$VIEWSIZE
 40
210.0
  9
$CLAYER
  8
0
  9
$LTSCALE
 40
16.335
  9
$CELTYPE
  6
BYLAYER
  9
$DIMSCALE
 40
1.0
  9
$DIMASZ
 40
3.0
  9
$DIMEXO
 40
1.85625
  9
$DIMDLI
 40
11.286
  9
$DIMEXE
 40
5.346
  9
$DIMCEN
 40
2.673
  9
$DIMLFAC
 40
1.0
  9
$DIMBLK
  1
_FILLED
  9
$DIMTXT
 40
3.0
  9
$DIMTOL
 70
1
  9
$DIMLIM
 70
0
  9
$DIMTFAC
 40
1.0
  9
$DIMTP
 40
0.01
  9
$DIMTM
 40
0.01
  9
$PDMODE
 70
3
  9
$PDSIZE
 40
3.0
  9
$HANDSEED
  5
30C
  9
$TILEMODE
 70
1
  9
$MEASUREMENT
 70
1
  9
$INSUNITS
 70
4
  0
ENDSEC
  0
SECTION
  2
CLASSES
  0
CLASS
  1
ACDBDICTIONARYWDFLT
  2
AcDbDictionaryWithDefault
  3
AutoCAD 2000
 90
0
280
0
281
0
  0
CLASS
  1
ACDBPLACEHOLDER
  2
AcDbPlaceHolder
  3
AutoCAD 2000
 90
0
280
0
281
0
  0
CLASS
  1
LAYOUT
  2
AcDbLayout
  3
AutoCAD 2000
 90
0
280
0
281
0
  0
ENDSEC
  0
SECTION
  2
TABLES
  0
TABLE
  2
VPORT
  5
8
100
AcDbSymbolTable
 70
2
  0
VPORT
  5
1F4
100
AcDbSymbolTableRecord
100
AcDbViewportTableRecord
  2
*ACTIVE
 70
0
 10
0.0
 20
0.0
 11
1.0
 21
1.0
 12
148.5
 22
105.0
 13
0.0
 23
0.0
 14
1.0
 24
1.0
 15
0.0
 25
0.0
 16
0.0
 26
0.0
 36
1.0
 17
0.0
 27
0.0
 37
0.0
 40
210.0
 41
1.4142857143
 42
50.0
 43
0.0
 44
0.0
 50
0.0
 51
0.0
 71
0
 72
100
 73
1
 74
1
 75
0
 76
0
 77
0
 78
0
  0
ENDTAB
  0
TABLE
  2
LTYPE
  5
5
100
AcDbSymbolTable
 70
6
  0
LTYPE
  5
14
100
AcDbSymbolTableRecord
100
AcDbLinetypeTableRecord
  2
BYBLOCK
 70
0
  3

 72
65
 73
0
 40
0.0
  0
LTYPE
  5
15
100
AcDbSymbolTableRecord
100
AcDbLinetypeTableRecord
  2
BYLAYER
 70
0
  3

 72
65
 73
0
 40
0.0
  0
LTYPE
  5
16
100
AcDbSymbolTableRecord
100
AcDbLinetypeTableRecord
  2
CONTINUOUS
 70
64
  3
Solid line
 72
65
 73
0
 40
0.0
  0
LTYPE
  5
1F5
100
AcDbSymbolTableRecord
100
AcDbLinetypeTableRecord
  2
CENTER
 70
64
  3
____ _ ____ _ ____ _ ____ _ ____ _ ____ _ ____
 72
65
 73
4
 40
0.6
 49
0.375
 74
0
 49
-0.075
 74
0
 49
0.075
 74
0
 49
-0.075
 74
0
  0
LTYPE
  5
1F6
100
AcDbSymbolTableRecord
100
AcDbLinetypeTableRecord
  2
HIDDEN
 70
64
  3
- - - - - - - - - - - - - - - - - - - -
 72
65
 73
2
 40
0.2
 49
0.1
 74
0
 49
-0.1
 74
0
  0
LTYPE
  5
1F7
100
AcDbSymbolTableRecord
100
AcDbLinetypeTableRecord
  2
PHANTOM
 70
64
  3
_____ _ _ _____ _ _ _____ _ _ _____
 72
65
 73
6
 40
0.8
 49
0.45
 74
0
 49
-0.05
 74
0
 49
0.1
 74
0
 49
-0.05
 74
0
 49
0.1
 74
0
 49
-0.05
 74
0
  0
LTYPE
  5
1F8
100
AcDbSymbolTableRecord
100
AcDbLinetypeTableRecord
  2
DOT
 70
64
  3
. . . . . . . . . . . . . . . . . . . .
 72
65
 73
2
 40
0.2
 49
0.1
 74
0
 49
-0.1
 74
0
  0
LTYPE
  5
1F9
100
AcDbSymbolTableRecord
100
AcDbLinetypeTableRecord
  2
DASHED
 70
64
  3
- - - - - - - - - - - - - - - - - - - -
 72
65
 73
2
 40
0.2
 49
0.1
 74
0
 49
-0.1
 74
0
  0
ENDTAB
  0
TABLE
  2
LAYER
  5
2
100
AcDbSymbolTable
 70
36
  0
LAYER
  5
10
100
AcDbSymbolTableRecord
100
AcDbLayerTableRecord
  2
0
 70
0
 62
7
  6
CONTINUOUS
370
-3
390
F
  0
LAYER
  5
1FA
100
AcDbSymbolTableRecord
100
AcDbLayerTableRecord
  2
DEFAULT_1
 70
0
 62
7
  6
CENTER
370
-3
390
F
  0
LAYER
  5
1FB
100
AcDbSymbolTableRecord
100
AcDbLayerTableRecord
  2
DEFAULT_2
 70
0
 62
7
  6
HIDDEN
370
-3
390
F
  0
LAYER
  5
1FC
100
AcDbSymbolTableRecord
100
AcDbLayerTableRecord
  2
DEFAULT_3
 70
0
 62
7
  6
PHANTOM
370
-3
390
F
  0
LAYER
  5
1FD
100
AcDbSymbolTableRecord
100
AcDbLayerTableRecord
  2
ASSI
 70
0
 62
7
  6
CONTINUOUS
370
-3
390
F
  0
LAYER
  5
1FE
100
AcDbSymbolTableRecord
100
AcDbLayerTableRecord
  2
COLOR9
 70
0
 62
7
  6
CONTINUOUS
370
-3
390
F
  0
LAYER
  5
1FF
100
AcDbSymbolTableRecord
100
AcDbLayerTableRecord
  2
COORDINATE
 70
0
 62
7
  6
CONTINUOUS
370
-3
390
F
  0
LAYER
  5
200
100
AcDbSymbolTableRecord
100
AcDbLayerTableRecord
  2
COORD_ORIGINE
 70
0
 62
7
  6
CONTINUOUS
370
-3
390
F
  0
LAYER
  5
201
100
AcDbSymbolTableRecord
100
AcDbLayerTableRecord
  2
COSMETICI
 70
0
 62
7
  6
CONTINUOUS
370
-3
390
F
  0
LAYER
  5
202
100
AcDbSymbolTableRecord
100
AcDbLayerTableRecord
  2
CURVE
 70
0
 62
7
  6
CONTINUOUS
370
-3
390
F
  0
LAYER
  5
203
100
AcDbSymbolTableRecord
100
AcDbLayerTableRecord
  2
DRAFT
 70
0
 62
7
  6
CONTINUOUS
370
-3
390
F
  0
LAYER
  5
204
100
AcDbSymbolTableRecord
100
AcDbLayerTableRecord
  2
IMPORT_IGES
 70
0
 62
7
  6
CONTINUOUS
370
-3
390
F
  0
LAYER
  5
205
100
AcDbSymbolTableRecord
100
AcDbLayerTableRecord
  2
INTF_1
 70
0
 62
7
  6
CONTINUOUS
370
-3
390
F
  0
LAYER
  5
206
100
AcDbSymbolTableRecord
100
AcDbLayerTableRecord
  2
INTF_8
 70
0
 62
7
  6
CONTINUOUS
370
-3
390
F
  0
LAYER
  5
207
100
AcDbSymbolTableRecord
100
AcDbLayerTableRecord
  2
INTF_YELLOW
 70
0
 62
7
  6
CONTINUOUS
370
-3
390
F
  0
LAYER
  5
208
100
AcDbSymbolTableRecord
100
AcDbLayerTableRecord
  2
NOTE
 70
0
 62
7
  6
CONTINUOUS
370
-3
390
F
  0
LAYER
  5
209
100
AcDbSymbolTableRecord
100
AcDbLayerTableRecord
  2
PIANI
 70
0
 62
7
  6
CONTINUOUS
370
-3
390
F
  0
LAYER
  5
20A
100
AcDbSymbolTableRecord
100
AcDbLayerTableRecord
  2
PIANI_ORIGINE
 70
0
 62
7
  6
CONTINUOUS
370
-3
390
F
  0
LAYER
  5
20B
100
AcDbSymbolTableRecord
100
AcDbLayerTableRecord
  2
PIANI_RIFERIMENTO
 70
0
 62
7
  6
CONTINUOUS
370
-3
390
F
  0
LAYER
  5
20C
100
AcDbSymbolTableRecord
100
AcDbLayerTableRecord
  2
PUNTI
 70
0
 62
7
  6
CONTINUOUS
370
-3
390
F
  0
LAYER
  5
20D
100
AcDbSymbolTableRecord
100
AcDbLayerTableRecord
  2
RACCORDO
 70
0
 62
7
  6
CONTINUOUS
370
-3
390
F
  0
LAYER
  5
20E
100
AcDbSymbolTableRecord
100
AcDbLayerTableRecord
  2
RGB__255__255__255__
 70
0
 62
7
  6
CONTINUOUS
370
-3
390
F
  0
LAYER
  5
20F
100
AcDbSymbolTableRecord
100
AcDbLayerTableRecord
  2
RGB____0____0____0__
 70
0
 62
7
  6
CONTINUOUS
370
-3
390
F
  0
LAYER
  5
210
100
AcDbSymbolTableRecord
100
AcDbLayerTableRecord
  2
SIMBOLI
 70
0
 62
7
  6
CONTINUOUS
370
-3
390
F
  0
LAYER
  5
211
100
AcDbSymbolTableRecord
100
AcDbLayerTableRecord
  2
SMUSSO
 70
0
 62
7
  6
CONTINUOUS
370
-3
390
F
  0
LAYER
  5
212
100
AcDbSymbolTableRecord
100
AcDbLayerTableRecord
  2
SNAPLINE
 70
0
 62
7
  6
CONTINUOUS
370
-3
390
F
  0
LAYER
  5
213
100
AcDbSymbolTableRecord
100
AcDbLayerTableRecord
  2
SUPERFICI
 70
0
 62
7
  6
CONTINUOUS
370
-3
390
F
  0
LAYER
  5
214
100
AcDbSymbolTableRecord
100
AcDbLayerTableRecord
  2
TRASH
 70
0
 62
7
  6
CONTINUOUS
370
-3
390
F
  0
LAYER
  5
215
100
AcDbSymbolTableRecord
100
AcDbLayerTableRecord
  2
XSEC_DATUMS
 70
0
 62
7
  6
CONTINUOUS
370
-3
390
F
  0
ENDTAB
  0
TABLE
  2
STYLE
  5
3
100
AcDbSymbolTable
 70
1
  0
STYLE
  5
11
100
AcDbSymbolTableRecord
100
AcDbTextStyleTableRecord
  2
STANDARD
 70
0
 40
0.0
 41
0.8
 50
0.0
 71
0
 42
0.2
  3
txt
  4

  0
STYLE
  5
216
100
AcDbSymbolTableRecord
100
AcDbTextStyleTableRecord
  2
TEXTSTYLE_1
 70
0
 40
0.0
 41
0.8
 50
0.0
 71
0
 42
0.2
  3
gdt
  4

  0
ENDTAB
  0
TABLE
  2
VIEW
  5
6
100
AcDbSymbolTable
 70
0
  0
ENDTAB
  0
TABLE
  2
UCS
  5
7
100
AcDbSymbolTable
 70
0
  0
ENDTAB
  0
TABLE
  2
APPID
  5
9
100
AcDbSymbolTable
 70
1
  0
APPID
  5
217
100
AcDbSymbolTableRecord
100
AcDbRegAppTableRecord
  2
ACAD
 70
0
  0
ENDTAB
  0
TABLE
  2
BLOCK_RECORD
  5
1
100
AcDbSymbolTable
 70
0
  0
BLOCK_RECORD
  5
218
100
AcDbSymbolTableRecord
100
AcDbBlockTableRecord
  2
*Model_Space
  0
BLOCK_RECORD
  5
219
100
AcDbSymbolTableRecord
100
AcDbBlockTableRecord
  2
*Paper_Space
  0
BLOCK_RECORD
  5
21A
100
AcDbSymbolTableRecord
100
AcDbBlockTableRecord
  2
_FILLED
  0
BLOCK_RECORD
  5
21B
100
AcDbSymbolTableRecord
100
AcDbBlockTableRecord
  2
*D0
  0
BLOCK_RECORD
  5
21C
100
AcDbSymbolTableRecord
100
AcDbBlockTableRecord
  2
*D1
  0
BLOCK_RECORD
  5
21D
100
AcDbSymbolTableRecord
100
AcDbBlockTableRecord
  2
*D2
  0
ENDTAB
  0
TABLE
  2
DIMSTYLE
  5
A
100
AcDbSymbolTable
 70
1
100
AcDbDimStyleTable
 71
0
  0
DIMSTYLE
105
21E
100
AcDbSymbolTableRecord
100
AcDbDimStyleTableRecord
  2
STANDARD
 70
0
  3

  4

 40
1.0
 41
3.0
 42
0.0625
 43
0.38
 44
0.18
 45
0.0
 46
0.0
 47
0.01
 48
0.01
140
3.0
141
0.09
142
0.0
143
25.4
144
1.0
145
0.0
146
1.0
147
0.09
 71
1.0
 72
0.0
 73
0
 74
0
 75
0
 76
0
 77
1
 78
8
170
0
171
2
172
0
173
0
174
0
175
0
176
0
177
0
178
0
270
2
271
2
272
2
273
2
274
2
275
0
280
0
281
0
282
0
283
1
284
8
285
0
286
0
287
3
288
0
340
11
341
21A
342
21A
343
21A
344
21A
  0
DIMSTYLE
105
21F
100
AcDbSymbolTableRecord
100
AcDbDimStyleTableRecord
  2
DIMSTYLE_1
 70
0
  3

  4

 40
1.0
 41
3.0
 42
0.0625
 43
0.38
 44
0.18
 45
0.0
 46
0.0
 47
0.0
 48
0.0
140
3.0
141
0.09
142
0.0
143
25.4
144
1.0
145
0.0
146
1.0
147
0.09
 71
0.0
 72
0.0
 73
0
 74
0
 75
0
 76
0
 77
1
 78
8
170
0
171
2
172
0
173
0
174
0
175
0
176
0
177
0
178
0
270
2
271
1
272
1
273
2
274
2
275
0
280
0
281
0
282
0
283
1
284
8
285
0
286
0
287
3
288
0
340
11
341
21A
342
21A
343
21A
344
21A
  0
DIMSTYLE
105
220
100
AcDbSymbolTableRecord
100
AcDbDimStyleTableRecord
  2
DIMSTYLE_2
 70
0
  3

  4

 40
1.0
 41
3.0
 42
0.0625
 43
0.38
 44
0.18
 45
0.0
 46
0.0
 47
0.0
 48
0.0
140
3.0
141
0.09
142
0.0
143
25.4
144
1.0
145
0.0
146
1.0
147
0.09
 71
0.0
 72
0.0
 73
0
 74
0
 75
0
 76
0
 77
1
 78
8
170
0
171
2
172
0
173
0
174
0
175
0
176
0
177
0
178
0
270
2
271
2
272
2
273
2
274
2
275
0
280
0
281
0
282
0
283
1
284
8
285
0
286
0
287
3
288
0
340
11
341
21A
342
21A
343
21A
344
21A
  0
ENDTAB
  0
ENDSEC
  0
SECTION
  2
BLOCKS
  0
BLOCK
  5
20
100
AcDbEntity
  8
0
100
AcDbBlockBegin
  2
*Model_Space
 70
0
 10
0.0
 20
0.0
 30
0.0
  3
*Model_Space
  1

  0
ENDBLK
  5
21
100
AcDbEntity
  8
0
100
AcDbBlockEnd
  0
BLOCK
  5
1C
100
AcDbEntity
  8
0
100
AcDbBlockBegin
  2
*Paper_Space
 70
0
 10
0.0
 20
0.0
 30
0.0
  3
*Paper_Space
  1

  0
ENDBLK
  5
1D
100
AcDbEntity
  8
0
100
AcDbBlockEnd
  0
BLOCK
  5
221
100
AcDbEntity
  8
0
100
AcDbBlockBegin
  2
_FILLED
 70
64
 10
0.0
 20
0.0
  3
_FILLED
  1

  0
SOLID
  5
222
100
AcDbEntity
  8
0
  6
BYBLOCK
 62
0
100
AcDbTrace
 10
0.0
 20
0.0
 11
-1.0
 21
0.3166666667
 12
-1.0
 22
-0.3166666667
 13
-1.0
 23
-0.3166666667
  0
ENDBLK
  5
223
100
AcDbEntity
  8
0
  6
BYBLOCK
 62
0
100
AcDbBlockEnd
  0
BLOCK
  5
224
100
AcDbEntity
  8
0
100
AcDbBlockBegin
 62
7
  6
CONTINUOUS
  2
*D0
 70
65
 10
0.0
 20
0.0
  3
*D0
  1

  0
LINE
  5
225
100
AcDbEntity
  8
0
100
AcDbLine
 62
7
  6
CONTINUOUS
 10
-11.0514422353
 20
22.431406897
 11
-11.0514422353
 21
31.6114422353
  0
LINE
  5
226
100
AcDbEntity
  8
0
100
AcDbLine
 62
7
  6
CONTINUOUS
 10
11.0514422353
 20
22.2482869155
 11
11.0514422353
 21
31.6114422353
  0
LINE
  5
227
100
AcDbEntity
  8
0
100
AcDbLine
 62
7
  6
CONTINUOUS
 10
-11.0514422353
 20
30.1114422353
 11
0.0
 21
30.1114422353
  0
LINE
  5
228
100
AcDbEntity
  8
0
100
AcDbLine
 62
7
  6
CONTINUOUS
 10
11.0514422353
 20
30.1114422353
 11
0.0
 21
30.1114422353
  0
INSERT
  5
229
100
AcDbEntity
  8
0
100
AcDbBlockReference
 62
7
  6
CONTINUOUS
  2
_FILLED
 10
-11.0514422353
 20
30.1114422353
 41
3.0
 42
3.0
 43
3.0
 50
180.0
  0
INSERT
  5
22A
100
AcDbEntity
  8
0
100
AcDbBlockReference
 62
7
  6
CONTINUOUS
  2
_FILLED
 10
11.0514422353
 20
30.1114422353
 41
3.0
 42
3.0
 43
3.0
  0
ENDBLK
  5
22B
100
AcDbEntity
  8
0
  6
BYBLOCK
 62
0
100
AcDbBlockEnd
  0
BLOCK
  5
22C
100
AcDbEntity
  8
0
100
AcDbBlockBegin
 62
7
  6
CONTINUOUS
  2
*D1
 70
65
 10
0.0
 20
0.0
  3
*D1
  1

  0
LINE
  5
22D
100
AcDbEntity
  8
0
100
AcDbLine
 62
7
  6
CONTINUOUS
 10
12.2123250217
 20
22.1114422353
 11
20.63
 21
22.1114422353
  0
LINE
  5
22E
100
AcDbEntity
  8
0
100
AcDbLine
 62
7
  6
CONTINUOUS
 10
12.0647741532
 20
-22.1114422353
 11
20.63
 21
-22.1114422353
  0
LINE
  5
22F
100
AcDbEntity
  8
0
100
AcDbLine
 62
7
  6
CONTINUOUS
 10
19.13
 20
22.1114422353
 11
19.13
 21
0.0
  0
LINE
  5
230
100
AcDbEntity
  8
0
100
AcDbLine
 62
7
  6
CONTINUOUS
 10
19.13
 20
-22.1114422353
 11
19.13
 21
0.0
  0
INSERT
  5
231
100
AcDbEntity
  8
0
100
AcDbBlockReference
 62
7
  6
CONTINUOUS
  2
_FILLED
 10
19.13
 20
22.1114422353
 41
3.0
 42
3.0
 43
3.0
 50
90.0
  0
INSERT
  5
232
100
AcDbEntity
  8
0
100
AcDbBlockReference
 62
7
  6
CONTINUOUS
  2
_FILLED
 10
19.13
 20
-22.1114422353
 41
3.0
 42
3.0
 43
3.0
 50
270.0
  0
ENDBLK
  5
233
100
AcDbEntity
  8
0
  6
BYBLOCK
 62
0
100
AcDbBlockEnd
  0
BLOCK
  5
234
100
AcDbEntity
  8
0
100
AcDbBlockBegin
 62
7
  6
CONTINUOUS
  2
*D2
 70
65
 10
0.0
 20
0.0
  3
*D2
  1

  0
LINE
  5
235
100
AcDbEntity
  8
0
100
AcDbLine
 62
7
  6
CONTINUOUS
 10
-34.3602844187
 20
10.2310194482
 11
-34.3602844187
 21
31.6114422353
  0
LINE
  5
236
100
AcDbEntity
  8
0
100
AcDbLine
 62
7
  6
CONTINUOUS
 10
-38.3602844187
 20
0.5
 11
-38.3602844187
 21
31.6114422353
  0
LINE
  5
237
100
AcDbEntity
  8
0
100
AcDbLine
 62
7
  6
CONTINUOUS
 10
-34.3602844187
 20
30.1114422353
 11
-30.3602844187
 21
30.1114422353
  0
LINE
  5
238
100
AcDbEntity
  8
0
100
AcDbLine
 62
7
  6
CONTINUOUS
 10
-30.3602844187
 20
30.1114422353
 11
-36.3602844187
 21
30.1114422353
  0
LINE
  5
239
100
AcDbEntity
  8
0
100
AcDbLine
 62
7
  6
CONTINUOUS
 10
-38.3602844187
 20
30.1114422353
 11
-45.3642797897
 21
30.1114422353
  0
LINE
  5
23A
100
AcDbEntity
  8
0
100
AcDbLine
 62
7
  6
CONTINUOUS
 10
-45.3642797897
 20
30.1114422353
 11
-36.3602844187
 21
30.1114422353
  0
INSERT
  5
23B
100
AcDbEntity
  8
0
100
AcDbBlockReference
 62
7
  6
CONTINUOUS
  2
_FILLED
 10
-34.3602844187
 20
30.1114422353
 41
3.0
 42
3.0
 43
3.0
 50
180.0
  0
INSERT
  5
23C
100
AcDbEntity
  8
0
100
AcDbBlockReference
 62
7
  6
CONTINUOUS
  2
_FILLED
 10
-38.3602844187
 20
30.1114422353
 41
3.0
 42
3.0
 43
3.0
  0
ENDBLK
  5
23D
100
AcDbEntity
  8
0
  6
BYBLOCK
 62
0
100
AcDbBlockEnd
  0
ENDSEC
  0
SECTION
  2
ENTITIES
  0
DIMENSION
  5
23E
100
AcDbEntity
  8
0
100
AcDbDimension
 62
7
  6
CONTINUOUS
  2
*D0
 10
11.0514422353
 20
30.1114422353
 11
-4.0714285714
 21
30.8614422353
 70
160
 71
2
 42
22.1028844706
  3
DIMSTYLE_1
100
AcDbAlignedDimension
 13
-11.0514422353
 23
22.431406897
 14
11.0514422353
 24
22.2482869155
100
AcDbRotatedDimension
  0
DIMENSION
  5
23F
100
AcDbEntity
  8
0
100
AcDbDimension
 62
7
  6
CONTINUOUS
  2
*D1
 10
19.13
 20
-22.1114422353
 11
18.38
 21
-4.3928571429
 70
160
 71
2
 42
44.2228844706
  3
DIMSTYLE_1
100
AcDbAlignedDimension
 13
12.2123250217
 23
22.1114422353
 14
12.0647741532
 24
-22.1114422353
 50
270.0
100
AcDbRotatedDimension
  0
DIMENSION
  5
240
100
AcDbEntity
  8
0
100
AcDbDimension
 62
7
  6
CONTINUOUS
  2
*D2
 10
-38.3602844187
 20
30.1114422353
 11
-45.3642797897
 21
30.8614422353
 70
160
 71
3
 42
4.0
  3
DIMSTYLE_2
100
AcDbAlignedDimension
 13
-34.3602844187
 23
10.2310194482
 14
-38.3602844187
 24
0.5
 50
180.0
100
AcDbRotatedDimension
  0
LWPOLYLINE
  5
241
100
AcDbEntity
  8
0
100
AcDbPolyline
 62
7
  6
CONTINUOUS
 90
3
 70
0
 43
0.3500000006
 10
2.3571427875
 20
33.0043014221
 10
3.2142856836
 20
33.8614438934
 10
3.2142856836
 20
30.8614429779
  0
LINE
  5
242
100
AcDbEntity
  8
0
100
AcDbLine
 62
7
  6
CONTINUOUS
 10
10.5516135728
 20
-22.1114422353
 11
-10.5516135728
 21
-22.1114422353
  0
LINE
  5
243
100
AcDbEntity
  8
RACCORDO
100
AcDbLine
 62
253
  6
CONTINUOUS
 10
10.5266513084
 20
-22.0864799709
 11
-10.5266513084
 21
-22.0864799709
  0
LINE
  5
244
100
AcDbEntity
  8
RACCORDO
100
AcDbLine
 62
253
  6
CONTINUOUS
 10
10.5140480307
 20
-21.2362251476
 11
-10.5140480307
 21
-21.2362251476
  0
LWPOLYLINE
  5
245
100
AcDbEntity
  8
RACCORDO
100
AcDbPolyline
 62
253
  6
CONTINUOUS
 90
16
 70
0
 10
-11.0138766931
 20
21.1615238967
 10
-11.0098965
 20
21.1692064438
 10
-11.0006612473
 20
21.1768075537
 10
-10.9862688116
 20
21.1842466688
 10
-10.9668717254
 20
21.1914449486
 10
-10.9426755615
 20
21.1983261048
 10
-10.9139367539
 20
21.2048172101
 10
-10.8809598798
 20
21.2108494709
 10
-10.8440944322
 20
21.2163589566
 10
-10.8037311155
 20
21.221287277
 10
-10.7602977052
 20
21.2255822012
 10
-10.7142545137
 20
21.2291982111
 10
-10.6660895124
 20
21.232096984
 10
-10.6163131598
 20
21.2342477985
 10
-10.5654529919
 20
21.2356278599
 10
-10.5140480307
 20
21.2362225423
  0
LWPOLYLINE
  5
246
100
AcDbEntity
  8
RACCORDO
100
AcDbPolyline
 62
253
  6
CONTINUOUS
 90
16
 70
0
 10
-11.0138766932
 20
-21.1615238967
 10
-11.0098974611
 20
-21.1692066574
 10
-11.0006630216
 20
-21.176807993
 10
-10.9862712449
 20
-21.1842473417
 10
-10.9668746607
 20
-21.1914458583
 10
-10.9426788416
 20
-21.1983272502
 10
-10.9139402246
 20
-21.2048185855
 10
-10.8809633926
 20
-21.2108510667
 10
-10.8440978473
 20
-21.216360759
 10
-10.803734304
 20
-21.2212892686
 10
-10.7603005516
 20
-21.2255843612
 10
-10.7142569181
 20
-21.2292005157
 10
-10.6660913919
 20
-21.232099407
 10
-10.6163144504
 20
-21.2342503114
 10
-10.5654536491
 20
-21.2356304329
 10
-10.5140480307
 20
-21.2362251442
  0
LWPOLYLINE
  5
247
100
AcDbEntity
  8
RACCORDO
100
AcDbPolyline
 62
253
  6
CONTINUOUS
 90
16
 70
0
 10
-11.0264799709
 20
-21.5866513084
 10
-11.0237085608
 20
-21.638873962
 10
-11.0154962044
 20
-21.6905251247
 10
-11.0019327487
 20
-21.7410393988
 10
-10.9831666165
 20
-21.7898638266
 10
-10.9594031858
 20
-21.8364639333
 10
-10.9309025464
 20
-21.8803295793
 10
-10.897976642
 20
-21.9209805652
 10
-10.8609858676
 20
-21.9579718672
 10
-10.8203351383
 20
-21.9908985062
 10
-10.7764694206
 20
-22.0194000157
 10
-10.729868886
 20
-22.0431643617
 10
-10.6810436815
 20
-22.0619313551
 10
-10.6305282932
 20
-22.0754955292
 10
-10.5788756908
 20
-22.0837083782
 10
-10.5266513085
 20
-22.086479971
  0
LWPOLYLINE
  5
248
100
AcDbEntity
  8
RACCORDO
100
AcDbPolyline
 62
253
  6
CONTINUOUS
 90
16
 70
0
 10
-11.0264799709
 20
21.5866513084
 10
-11.0237084581
 20
21.6388749344
 10
-11.015495829
 20
21.690526886
 10
-11.0019319847
 20
21.7410417469
 10
-10.9831654039
 20
21.789866548
 10
-10.9594015179
 20
21.8364668207
 10
-10.930900462
 20
21.8803324476
 10
-10.8979742277
 20
21.9209832467
 10
-10.8609832471
 20
21.9579742273
 10
-10.8203324481
 20
21.9909004617
 10
-10.7764668212
 20
22.0194015177
 10
-10.7298665484
 20
22.0431654037
 10
-10.6810417473
 20
22.0619319846
 10
-10.6305268863
 20
22.075495829
 10
-10.5788749345
 20
22.0837084581
 10
-10.5266513084
 20
22.0864799709
  0
LWPOLYLINE
  5
249
100
AcDbEntity
  8
RACCORDO
100
AcDbPolyline
 62
253
  6
CONTINUOUS
 90
7
 70
0
 10
10.9879958269
 20
-9.4905
 10
10.9840029648
 20
-9.4914768667
 10
10.9747570053
 20
-9.492443384
 10
10.960355904
 20
-9.4933893122
 10
10.9409522323
 20
-9.4943046298
 10
10.9167515612
 20
-9.4951796396
 10
10.8880102829
 20
-9.4960050712
  0
LWPOLYLINE
  5
24A
100
AcDbEntity
  8
RACCORDO
100
AcDbPolyline
 62
253
  6
CONTINUOUS
 90
8
 70
0
 10
-10.9879958269
 20
-9.4905
 10
-10.9840029683
 20
-9.4914768667
 10
-10.9747570117
 20
-9.4924433841
 10
-10.9603559128
 20
-9.4933893124
 10
-10.9409522429
 20
-9.4943046301
 10
-10.9167515731
 20
-9.4951796399
 10
-10.8880102954
 20
-9.4960050715
 10
-10.818168786
 20
-9.4974728385
  0
LWPOLYLINE
  5
24B
100
AcDbEntity
  8
RACCORDO
100
AcDbPolyline
 62
253
  6
CONTINUOUS
 90
10
 70
0
 10
-11.0181568186
 20
21.4616298466
 10
-11.0189431232
 20
21.4861047249
 10
-11.0197813036
 20
21.5083229653
 10
-11.0206563049
 20
21.5278932804
 10
-11.021569386
 20
21.5447694949
 10
-11.0225192882
 20
21.5589977841
 10
-11.0234871808
 20
21.5703253862
 10
-11.024466787
 20
21.5786680473
 10
-11.0254643837
 20
21.5841100214
 10
-11.0264799709
 20
21.5866513084
  0
LWPOLYLINE
  5
24C
100
AcDbEntity
  8
RACCORDO
100
AcDbPolyline
 62
253
  6
CONTINUOUS
 90
7
 70
0
 10
-10.5208205485
 20
21.968635596
 10
-10.5217310492
 20
22.0024936657
 10
-10.522678348
 20
22.0308586736
 10
-10.523645698
 20
22.0535589575
 10
-10.5246275169
 20
22.0704577735
 10
-10.5256293871
 20
22.0814535722
 10
-10.5266513084
 20
22.0864799709
  0
LINE
  5
24D
100
AcDbEntity
  8
RACCORDO
100
AcDbLine
 62
253
  6
CONTINUOUS
 10
-11.0167415586
 20
21.4058170317
 11
-11.0181568186
 21
21.4616298466
  0
LINE
  5
24E
100
AcDbEntity
  8
RACCORDO
100
AcDbLine
 62
253
  6
CONTINUOUS
 10
-10.5191111237
 20
21.8852903227
 11
-10.5208205485
 21
21.968635596
  0
LINE
  5
24F
100
AcDbEntity
  8
RACCORDO
100
AcDbLine
 62
253
  6
CONTINUOUS
 10
-11.0155723942
 20
21.3425178419
 11
-11.0167415586
 21
21.4058170317
  0
LINE
  5
250
100
AcDbEntity
  8
RACCORDO
100
AcDbLine
 62
253
  6
CONTINUOUS
 10
-11.014670723
 20
21.2729528004
 11
-11.0155723942
 21
21.3425178419
  0
LINE
  5
251
100
AcDbEntity
  8
RACCORDO
100
AcDbLine
 62
253
  6
CONTINUOUS
 10
-10.5169146285
 20
21.7251570648
 11
-10.5191111237
 21
21.8852903227
  0
LINE
  5
252
100
AcDbEntity
  8
RACCORDO
100
AcDbLine
 62
253
  6
CONTINUOUS
 10
-10.5148466607
 20
21.4599831598
 11
-10.5169146285
 21
21.7251570648
  0
LINE
  5
253
100
AcDbEntity
  8
RACCORDO
100
AcDbLine
 62
253
  6
CONTINUOUS
 10
-11.0138766932
 20
21.1615238967
 11
-11.014670723
 21
21.2729528004
  0
LINE
  5
254
100
AcDbEntity
  8
RACCORDO
100
AcDbLine
 62
253
  6
CONTINUOUS
 10
-10.9974325226
 20
15.9909603469
 11
-11.0138766932
 21
21.1615238967
  0
LINE
  5
255
100
AcDbEntity
  8
RACCORDO
100
AcDbLine
 62
253
  6
CONTINUOUS
 10
-10.4976037727
 20
16.0366547986
 11
-10.5140480307
 21
21.2362251476
  0
LINE
  5
256
100
AcDbEntity
  8
RACCORDO
100
AcDbLine
 62
253
  6
CONTINUOUS
 10
-10.5140480307
 20
21.2362251476
 11
-10.5148466607
 21
21.4599831598
  0
LINE
  5
257
100
AcDbEntity
  8
RACCORDO
100
AcDbLine
 62
253
  6
CONTINUOUS
 10
-10.98889248
 20
10.7928354503
 11
-10.9974325226
 21
15.9909603469
  0
LINE
  5
258
100
AcDbEntity
  8
RACCORDO
100
AcDbLine
 62
253
  6
CONTINUOUS
 10
-10.4890638443
 20
10.8091626086
 11
-10.4976037727
 21
16.0366547986
  0
LINE
  5
259
100
AcDbEntity
  8
0
100
AcDbLine
 62
7
  6
CONTINUOUS
 10
-11.0514422353
 20
21.6116135728
 11
-11.0514422353
 21
-21.6116135728
  0
LINE
  5
25A
100
AcDbEntity
  8
RACCORDO
100
AcDbLine
 62
253
  6
CONTINUOUS
 10
-10.9902843163
 20
-12.0939699785
 11
-10.98889248
 21
10.7928354503
  0
LINE
  5
25B
100
AcDbEntity
  8
RACCORDO
100
AcDbLine
 62
253
  6
CONTINUOUS
 10
-10.4904557226
 20
-12.1176863817
 11
-10.4890638443
 21
10.8091626086
  0
LINE
  5
25C
100
AcDbEntity
  8
RACCORDO
100
AcDbLine
 62
253
  6
CONTINUOUS
 10
-11.0008039357
 20
-17.2868145217
 11
-10.9902843163
 21
-12.0939699785
  0
LINE
  5
25D
100
AcDbEntity
  8
RACCORDO
100
AcDbLine
 62
253
  6
CONTINUOUS
 10
-10.500975233
 20
-17.339854897
 11
-10.4904557226
 21
-12.1176863817
  0
LINE
  5
25E
100
AcDbEntity
  8
RACCORDO
100
AcDbLine
 62
253
  6
CONTINUOUS
 10
-10.5152609176
 20
-21.5306766563
 11
-10.500975233
 21
-17.339854897
  0
LINE
  5
25F
100
AcDbEntity
  8
RACCORDO
100
AcDbLine
 62
253
  6
CONTINUOUS
 10
-11.0143326477
 20
-21.2368235579
 11
-11.0008039357
 21
-17.2868145217
  0
LINE
  5
260
100
AcDbEntity
  8
RACCORDO
100
AcDbLine
 62
253
  6
CONTINUOUS
 10
-10.5169142997
 20
-21.7251528619
 11
-10.5152609176
 21
-21.5306766563
  0
LINE
  5
261
100
AcDbEntity
  8
RACCORDO
100
AcDbLine
 62
253
  6
CONTINUOUS
 10
-11.0150841564
 20
-21.3081932214
 11
-11.0143326477
 21
-21.2368235579
  0
LINE
  5
262
100
AcDbEntity
  8
RACCORDO
100
AcDbLine
 62
253
  6
CONTINUOUS
 10
-10.5191102789
 20
-21.8852865879
 11
-10.5169142997
 21
-21.7251528619
  0
LINE
  5
263
100
AcDbEntity
  8
RACCORDO
100
AcDbLine
 62
253
  6
CONTINUOUS
 10
-11.0161223366
 20
-21.3749505517
 11
-11.0150841564
 21
-21.3081932214
  0
LINE
  5
264
100
AcDbEntity
  8
RACCORDO
100
AcDbLine
 62
253
  6
CONTINUOUS
 10
10.8880102829
 20
-9.4960050712
 11
10.8181687736
 21
-9.4974728381
  0
LWPOLYLINE
  5
265
100
AcDbEntity
  8
0
100
AcDbPolyline
 62
7
  6
CONTINUOUS
 90
3
 70
0
 43
0.3500000006
 10
1.3571429071
 20
31.1471586456
 10
1.2857142735
 20
30.9328696289
 10
1.1428571477
 20
30.647158493
  0
LINE
  5
266
100
AcDbEntity
  8
0
100
AcDbLine
 62
253
  6
CONTINUOUS
 10
10.5516135728
 20
22.1114422353
 11
10.5266513084
 21
22.0864799709
  0
LINE
  5
267
100
AcDbEntity
  8
RACCORDO
100
AcDbLine
 62
253
  6
CONTINUOUS
 10
10.8181687736
 20
-9.4974728381
 11
10.7343795892
 21
-9.4986458946
  0
LINE
  5
268
100
AcDbEntity
  8
RACCORDO
100
AcDbLine
 62
253
  6
CONTINUOUS
 10
10.7343795892
 20
-9.4986458946
 11
10.6401841195
 21
-9.499474661
  0
LINE
  5
269
100
AcDbEntity
  8
RACCORDO
100
AcDbLine
 62
253
  6
CONTINUOUS
 10
10.6401841195
 20
-9.499474661
 11
10.4881671644
 21
-9.4999999993
  0
LINE
  5
26A
100
AcDbEntity
  8
RACCORDO
100
AcDbLine
 62
253
  6
CONTINUOUS
 10
-10.5904154861
 20
-9.4997483763
 11
10.4881671644
 21
-9.5
  0
LINE
  5
26B
100
AcDbEntity
  8
RACCORDO
100
AcDbLine
 62
253
  6
CONTINUOUS
 10
-10.6883422333
 20
-9.4991058655
 11
-10.5904154861
 21
-9.4997483763
  0
LWPOLYLINE
  5
26C
100
AcDbEntity
  8
RACCORDO
100
AcDbPolyline
 62
253
  6
CONTINUOUS
 90
3
 70
0
 10
-10.818168786
 20
-9.4974728385
 10
-10.7778084852
 20
-9.4980996237
 10
-10.6883422333
 20
-9.4991058655
  0
LINE
  5
26D
100
AcDbEntity
  8
0
100
AcDbLine
 62
253
  6
CONTINUOUS
 10
10.5266513084
 20
-22.0864799709
 11
10.5516135728
 21
-22.1114422353
  0
LINE
  5
26E
100
AcDbEntity
  8
0
100
AcDbLine
 62
253
  6
CONTINUOUS
 10
11.0514422353
 20
21.6116135728
 11
11.0264799709
 21
21.5866513084
  0
LINE
  5
26F
100
AcDbEntity
  8
0
100
AcDbLine
 62
253
  6
CONTINUOUS
 10
11.0264799709
 20
-21.5866513084
 11
11.0514422353
 21
-21.6116135728
  0
LWPOLYLINE
  5
270
100
AcDbEntity
  8
RACCORDO
100
AcDbPolyline
 62
253
  6
CONTINUOUS
 90
8
 70
0
 10
-10.5266513084
 20
-22.0864799709
 10
-10.5256293033
 20
-22.0814536019
 10
-10.5246273547
 20
-22.070457797
 10
-10.5236454625
 20
-22.0535588376
 10
-10.5226780577
 20
-22.0308580893
 10
-10.5217307095
 20
-22.0024922519
 10
-10.5208201249
 20
-21.9686332738
 10
-10.5191102789
 20
-21.8852865879
  0
LWPOLYLINE
  5
271
100
AcDbEntity
  8
0
100
AcDbPolyline
 62
7
  6
CONTINUOUS
 90
2
 70
0
 43
0.3500000006
 10
18.3799997177
 20
-3.3928568802
 10
16.8800003929
 20
-3.3928568802
  0
LWPOLYLINE
  5
272
100
AcDbEntity
  8
SUPERFICI
100
AcDbPolyline
 62
7
  6
CONTINUOUS
 90
18
 70
0
 10
-2.6058988431
 20
-1.6508988228
 10
-2.6139091211
 20
-1.6827505667
 10
-2.618637502
 20
-1.7142625859
 10
-2.6200839859
 20
-1.7454348804
 10
-2.6181070428
 20
-1.776566133
 10
-2.6128482026
 20
-1.807357661
 10
-2.6047320554
 20
-1.8369134166
 10
-2.5937958355
 20
-1.865085893
 10
-2.5800023087
 20
-1.8920225983
 10
-2.5636643617
 20
-1.9172700087
 10
-2.5447325962
 20
-1.9409112035
 10
-2.5232564106
 20
-1.962863105
 10
-2.4996968871
 20
-1.9824229539
 10
-2.4740346316
 20
-1.9995794973
 10
-2.4462890382
 20
-2.0143439901
 10
-2.4169793713
 20
-2.0260474358
 10
-2.386278719
 20
-2.034466836
 10
-2.3540139932
 20
-2.0398251907
  0
LINE
  5
273
100
AcDbEntity
  8
0
100
AcDbLine
 62
7
  6
CONTINUOUS
 10
-2.6058988933
 20
-1.6508989803
 11
-1.450891538
 21
1.9679840613
  0
LINE
  5
274
100
AcDbEntity
  8
SUPERFICI
100
AcDbLine
 62
7
  6
CONTINUOUS
 10
-1.4508914953
 20
1.9679841951
 11
-2.6058988431
 21
-1.6508988228
  0
LINE
  5
275
100
AcDbEntity
  8
SUPERFICI
100
AcDbLine
 62
7
  6
CONTINUOUS
 10
-1.4148234947
 20
2.0686162658
 11
-1.4508914953
 21
1.9679841951
  0
LWPOLYLINE
  5
276
100
AcDbEntity
  8
0
100
AcDbPolyline
 62
7
  6
CONTINUOUS
 90
37
 70
0
 10
-1.450891538
 20
1.9679840613
 10
-1.4148235315
 20
2.0686161736
 10
-1.3721845525
 20
2.1657574328
 10
-1.322974601
 20
2.2594078436
 10
-1.2668468577
 20
2.3500783425
 10
-1.2041481418
 20
2.4372580033
 10
-1.1359189113
 20
2.5194140423
 10
-1.0621320623
 20
2.5963666712
 10
-0.9828146986
 20
2.6682956986
 10
-0.8990885893
 20
2.7342077419
 10
-0.8108679817
 20
2.794037065
 10
-0.7182386285
 20
2.8478494269
 10
-0.6225795563
 20
2.8948486902
 10
-0.5238560842
 20
2.934927458
 10
-0.422102893
 20
2.9681931473
 10
-0.3188030519
 20
2.9941718411
 10
-0.2139326297
 20
3.0127577904
 10
-0.1075155575
 20
3.0240567559
 10
-0.0011066972
 20
3.0279120838
 10
0.1052801628
 20
3.0242200837
 10
0.2116588109
 20
3.013084446
 10
0.3165157508
 20
2.9946595845
 10
0.4198355525
 20
2.9688471743
 10
0.5216336459
 20
2.9357455287
 10
0.6204428246
 20
2.8958040167
 10
0.7162379358
 20
2.8489150721
 10
0.8090441323
 20
2.7951862411
 10
0.8974696653
 20
2.7353895618
 10
0.9814424271
 20
2.6694409658
 10
1.0610345254
 20
2.5974244984
 10
1.135070535
 20
2.5203643719
 10
1.2035052291
 20
2.4380900517
 10
1.2663838345
 20
2.3507720519
 10
1.3226666072
 20
2.2599461632
 10
1.3720069659
 20
2.1661243136
 10
1.414751492
 20
2.0687945647
 10
1.4509001854
 20
1.9679569115
  0
LWPOLYLINE
  5
277
100
AcDbEntity
  8
SUPERFICI
100
AcDbPolyline
 62
7
  6
CONTINUOUS
 90
3
 70
0
 10
-0.8792904223
 20
1.785567555
 10
-0.8573088045
 20
1.8467859239
 10
-0.8313760146
 20
1.9058158255
  0
LWPOLYLINE
  5
278
100
AcDbEntity
  8
RACCORDO
100
AcDbPolyline
 62
253
  6
CONTINUOUS
 90
12
 70
0
 10
-11.0264799709
 20
-21.5866513084
 10
-11.0254641326
 20
-21.5841111763
 10
-11.0244661856
 20
-21.5786660206
 10
-11.0234861298
 20
-21.5703158414
 10
-11.0225176243
 20
-21.5589761121
 10
-11.0215670101
 20
-21.5447313594
 10
-11.02065331
 20
-21.5278351628
 10
-11.0197777543
 20
-21.5082362811
 10
-11.0189391127
 20
-21.4859859557
 10
-11.0181527169
 20
-21.4614914897
 10
-11.017419671
 20
-21.4347145028
 10
-11.0161223366
 20
-21.3749505517
  0
LWPOLYLINE
  5
279
100
AcDbEntity
  8
SUPERFICI
100
AcDbPolyline
 62
7
  6
CONTINUOUS
 90
33
 70
0
 10
-0.8313760146
 20
1.9058158255
 10
-0.8014920527
 20
1.9626572619
 10
-0.7674614544
 20
2.0175898324
 10
-0.729479684
 20
2.0703339419
 10
-0.6881331346
 20
2.1200508014
 10
-0.6433828699
 20
2.1666700621
 10
-0.5952678263
 20
2.2102620795
 10
-0.544491206
 20
2.2501991222
 10
-0.4910156092
 20
2.2864289044
 10
-0.4348784358
 20
2.3190037191
 10
-0.3768950871
 20
2.3474527044
 10
-0.3170384959
 20
2.37171715
 10
-0.2553357294
 20
2.3918557723
 10
-0.1926833915
 20
2.4075738497
 10
-0.1290653588
 20
2.4188075239
 10
-0.0644977546
 20
2.4256206566
 10
0.0000744476
 20
2.4279101062
 10
0.0646519909
 20
2.4256089805
 10
0.1292341321
 20
2.4187841716
 10
0.1928736685
 20
2.4075332129
 10
0.2555576856
 20
2.3917898401
 10
0.3172990979
 20
2.3716203139
 10
0.3771894454
 20
2.3473209543
 10
0.4352009209
 20
2.3188297151
 10
0.4913613316
 20
2.2862086363
 10
0.5448456392
 20
2.2499401672
 10
0.595606864
 20
2.2099809006
 10
0.6436919857
 20
2.1663742364
 10
0.6884169045
 20
2.1197328355
 10
0.7297585155
 20
2.0699588959
 10
0.7677399236
 20
2.017150213
 10
0.8017463445
 20
1.962212845
 10
0.8315728501
 20
1.9054488106
  0
LWPOLYLINE
  5
27A
100
AcDbEntity
  8
SUPERFICI
100
AcDbPolyline
 62
7
  6
CONTINUOUS
 90
4
 70
0
 10
-1.3701000031
 20
-2.0421225
 10
-1.3334362354
 20
-2.0395248418
 10
-1.2985117541
 20
-2.0332277376
 10
-1.265326649
 20
-2.0232312137
  0
LWPOLYLINE
  5
27B
100
AcDbEntity
  8
SUPERFICI
100
AcDbPolyline
 62
7
  6
CONTINUOUS
 90
4
 70
0
 10
2.3198972393
 20
-2.0421225
 10
2.3526544564
 20
-2.0400681471
 10
2.3840869099
 20
-2.0349996538
 10
2.4141945405
 20
-2.0269170355
  0
LINE
  5
27C
100
AcDbEntity
  8
SUPERFICI
100
AcDbLine
 62
7
  6
CONTINUOUS
 10
-0.2155002713
 20
-1.4421225001
 11
-0.2367798194
 21
-1.4428982284
  0
LINE
  5
27D
100
AcDbEntity
  8
SUPERFICI
100
AcDbLine
 62
7
  6
CONTINUOUS
 10
2.3198972183
 20
-2.0421225
 11
0.0036999965
 21
-2.0421225
  0
LINE
  5
27E
100
AcDbEntity
  8
0
100
AcDbLine
 62
7
  6
CONTINUOUS
 10
2.3198972183
 20
-2.0421225
 11
0.0036999965
 21
-2.0421225
  0
LINE
  5
27F
100
AcDbEntity
  8
SUPERFICI
100
AcDbLine
 62
7
  6
CONTINUOUS
 10
-1.3700999991
 20
-2.0421225
 11
-2.3201839091
 21
-2.0421225
  0
LINE
  5
280
100
AcDbEntity
  8
0
100
AcDbLine
 62
7
  6
CONTINUOUS
 10
-1.3700999991
 20
-2.0421225
 11
-2.3201839091
 21
-2.0421225
  0
LINE
  5
281
100
AcDbEntity
  8
SUPERFICI
100
AcDbLine
 62
7
  6
CONTINUOUS
 10
1.9092999953
 20
-1.4421225001
 11
-0.2155002008
 21
-1.4421225001
  0
LINE
  5
282
100
AcDbEntity
  8
0
100
AcDbLine
 62
7
  6
CONTINUOUS
 10
1.9092999953
 20
-1.4421225001
 11
-0.2155002008
 21
-1.4421225001
  0
LINE
  5
283
100
AcDbEntity
  8
SUPERFICI
100
AcDbLine
 62
7
  6
CONTINUOUS
 10
-1.3700999991
 20
-1.4421225001
 11
-1.9095000125
 21
-1.4421225001
  0
LINE
  5
284
100
AcDbEntity
  8
0
100
AcDbLine
 62
7
  6
CONTINUOUS
 10
-1.3700999991
 20
-1.4421225001
 11
-1.9095000125
 21
-1.4421225001
  0
LINE
  5
285
100
AcDbEntity
  8
SUPERFICI
100
AcDbLine
 62
7
  6
CONTINUOUS
 10
-2.3540139932
 20
-2.0398251907
 11
-2.3201851939
 21
-2.0421225
  0
LWPOLYLINE
  5
286
100
AcDbEntity
  8
0
100
AcDbPolyline
 62
7
  6
CONTINUOUS
 90
19
 70
0
 10
-2.320174655
 20
-2.0421225
 10
-2.3540041869
 20
-2.0398262898
 10
-2.3862696854
 20
-2.0344688709
 10
-2.4169711504
 20
-2.0260502429
 10
-2.4462816877
 20
-2.014347401
 10
-2.4740281917
 20
-1.9995833484
 10
-2.4996913448
 20
-1.9824270968
 10
-2.5232517558
 20
-1.9628673798
 10
-2.544728816
 20
-1.9409154617
 10
-2.5636613824
 20
-1.9172741507
 10
-2.5800000427
 20
-1.8920265294
 10
-2.5937942092
 20
-1.8650895134
 10
-2.6047309755
 20
-1.8369166606
 10
-2.6128475749
 20
-1.8073604561
 10
-2.618106774
 20
-1.7765684134
 10
-2.6200839661
 20
-1.7454366343
 10
-2.6186376156
 20
-1.7142638195
 10
-2.613909258
 20
-1.6827512682
 10
-2.6058988933
 20
-1.6508989803
  0
LWPOLYLINE
  5
287
100
AcDbEntity
  8
0
100
AcDbPolyline
 62
7
  6
CONTINUOUS
 90
28
 70
0
 10
-1.3700981352
 20
-1.4421225001
 10
-1.3321904
 20
-1.4450462962
 10
-1.296337461
 20
-1.4516953547
 10
-1.2625393182
 20
-1.4620696752
 10
-1.2305842802
 20
-1.4764464835
 10
-1.2006840383
 20
-1.4945485521
 10
-1.1734736668
 20
-1.5155442002
 10
-1.1489293318
 20
-1.5394773522
 10
-1.1270748671
 20
-1.5663040812
 10
-1.1086168492
 20
-1.5950609301
 10
-1.0936299907
 20
-1.6258102907
 10
-1.082039579
 20
-1.6584897688
 10
-1.0743280511
 20
-1.6919487285
 10
-1.0706474678
 20
-1.7263189985
 10
-1.0708457685
 20
-1.7614687488
 10
-1.074949208
 20
-1.7958518579
 10
-1.0831674058
 20
-1.8293942077
 10
-1.0952907425
 20
-1.8621699171
 10
-1.110716615
 20
-1.8928552231
 10
-1.1294698278
 20
-1.9212751647
 10
-1.1515255765
 20
-1.9476047055
 10
-1.1762068443
 20
-1.9710449711
 10
-1.2035833781
 20
-1.991599731
 10
-1.2335854309
 20
-2.0092652186
 10
-1.2653267453
 20
-2.0232312561
 10
-1.298511902
 20
-2.0332277851
 10
-1.3334363203
 20
-2.0395248662
 10
-1.3701000001
 20
-2.0421225
  0
LWPOLYLINE
  5
288
100
AcDbEntity
  8
SUPERFICI
100
AcDbPolyline
 62
7
  6
CONTINUOUS
 90
4
 70
0
 10
-1.2625394754
 20
-1.4620696148
 10
-1.2963377038
 20
-1.45169531
 10
-1.3321907606
 20
-1.4450462717
 10
-1.3700986458
 20
-1.4421225001
  0
LWPOLYLINE
  5
289
100
AcDbEntity
  8
SUPERFICI
100
AcDbPolyline
 62
7
  6
CONTINUOUS
 90
22
 70
0
 10
-0.834160359
 20
-2.7564004678
 10
-0.8305158697
 20
-2.7908676868
 10
-0.8228225346
 20
-2.8248041658
 10
-0.8115810148
 20
-2.857121509
 10
-0.796772814
 20
-2.8877531737
 10
-0.7784164285
 20
-2.9167657059
 10
-0.7570680075
 20
-2.9432703445
 10
-0.7325544417
 20
-2.9672952826
 10
-0.7050488405
 20
-2.9888123313
 10
-0.6756266817
 20
-3.0068481582
 10
-0.6441539026
 20
-3.0212264341
 10
-0.610764566
 20
-3.0321234923
 10
-0.5769363377
 20
-3.0390949938
 10
-0.5427475538
 20
-3.0419557166
 10
-0.5081198783
 20
-3.0408908842
 10
-0.4742959699
 20
-3.0360118256
 10
-0.4413292527
 20
-3.0272470386
 10
-0.4091663025
 20
-3.0146680234
 10
-0.3788895062
 20
-2.9986006116
 10
-0.3505008917
 20
-2.9790164473
 10
-0.323998431
 20
-2.9559438819
 10
-0.3004584263
 20
-2.9297938084
  0
LWPOLYLINE
  5
28A
100
AcDbEntity
  8
SUPERFICI
100
AcDbPolyline
 62
7
  6
CONTINUOUS
 90
4
 70
0
 10
-0.820300091
 20
-2.650902765
 10
-0.8289690261
 20
-2.6865994068
 10
-0.8335891155
 20
-2.7217653076
 10
-0.8341603577
 20
-2.7564003904
  0
LINE
  5
28B
100
AcDbEntity
  8
0
100
AcDbLine
 62
7
  6
CONTINUOUS
 10
-0.8792904544
 20
1.7855674545
 11
-1.9095000125
 21
-1.4421225001
  0
LINE
  5
28C
100
AcDbEntity
  8
SUPERFICI
100
AcDbLine
 62
7
  6
CONTINUOUS
 10
-1.9095000125
 20
-1.4421225001
 11
-0.8792904223
 21
1.785567555
  0
LINE
  5
28D
100
AcDbEntity
  8
0
100
AcDbLine
 62
7
  6
CONTINUOUS
 10
-0.820300092
 20
-2.6509027679
 11
-0.5013139141
 21
-1.6509460882
  0
LINE
  5
28E
100
AcDbEntity
  8
SUPERFICI
100
AcDbLine
 62
7
  6
CONTINUOUS
 10
-0.5013139085
 20
-1.6509460704
 11
-0.820300091
 21
-2.650902765
  0
LWPOLYLINE
  5
28F
100
AcDbEntity
  8
0
100
AcDbPolyline
 62
7
  6
CONTINUOUS
 90
19
 70
0
 10
-0.5013139141
 20
-1.6509460882
 10
-0.4941677636
 20
-1.6310379214
 10
-0.4857384602
 20
-1.6118438586
 10
-0.4760260039
 20
-1.5933638999
 10
-0.4649660137
 20
-1.5755073762
 10
-0.4526228707
 20
-1.5583649572
 10
-0.4391897183
 20
-1.542208652
 10
-0.424657258
 20
-1.5270631941
 10
-0.4090347884
 20
-1.5129038505
 10
-0.392543349
 20
-1.4999284308
 10
-0.3751686047
 20
-1.4881508411
 10
-0.3569248907
 20
-1.4775571758
 10
-0.338076251
 20
-1.4683035271
 10
-0.318611026
 20
-1.4604090251
 10
-0.2985408755
 20
-1.4538545402
 10
-0.2781648225
 20
-1.4487387749
 10
-0.2575825417
 20
-1.4450946302
 10
-0.2366943584
 20
-1.4428892052
 10
-0.2155002729
 20
-1.4421225001
  0
LINE
  5
290
100
AcDbEntity
  8
SUPERFICI
100
AcDbLine
 62
7
  6
CONTINUOUS
 10
-0.4941827775
 20
-1.6310797482
 11
-0.5013139085
 21
-1.6509460704
  0
LWPOLYLINE
  5
291
100
AcDbEntity
  8
SUPERFICI
100
AcDbPolyline
 62
7
  6
CONTINUOUS
 90
17
 70
0
 10
-0.2367985979
 20
-1.4428989129
 10
-0.257781944
 20
-1.445124786
 10
-0.2784503097
 20
-1.4488001194
 10
-0.2989078049
 20
-1.453962033
 10
-0.3190503197
 20
-1.4605734067
 10
-0.3385655243
 20
-1.4685228796
 10
-0.3574362259
 20
-1.4778298918
 10
-0.3756796173
 20
-1.4884750029
 10
-0.3930349475
 20
-1.5002885309
 10
-0.4094840109
 20
-1.5132806596
 10
-0.425045013
 20
-1.5274412048
 10
-0.4395118194
 20
-1.5425699323
 10
-0.4528752879
 20
-1.5586863039
 10
-0.4651445607
 20
-1.5757708572
 10
-0.47614093
 20
-1.5935649727
 10
-0.4858048264
 20
-1.6119824437
 10
-0.4941827775
 20
-1.6310797482
  0
LWPOLYLINE
  5
292
100
AcDbEntity
  8
0
100
AcDbPolyline
 62
7
  6
CONTINUOUS
 90
2
 70
0
 43
0.3500000006
 10
18.3799997177
 20
-1.0357139511
 10
16.8800003929
 20
-1.0357139511
  0
LINE
  5
293
100
AcDbEntity
  8
0
100
AcDbLine
 62
7
  6
CONTINUOUS
 10
0.0036999965
 20
-2.0421225
 11
-0.2486894992
 21
-2.833289562
  0
LINE
  5
294
100
AcDbEntity
  8
SUPERFICI
100
AcDbLine
 62
7
  6
CONTINUOUS
 10
-0.2486894493
 20
-2.8332894055
 11
0.0036999965
 21
-2.0421225
  0
LWPOLYLINE
  5
295
100
AcDbEntity
  8
0
100
AcDbPolyline
 62
7
  6
CONTINUOUS
 90
28
 70
0
 10
-0.2486894992
 20
-2.833289562
 10
-0.2629833204
 20
-2.8685351029
 10
-0.280239607
 20
-2.9007031559
 10
-0.3004583588
 20
-2.9297937244
 10
-0.3239983432
 20
-2.9559437851
 10
-0.3505007929
 20
-2.979016367
 10
-0.3788894063
 20
-2.998600551
 10
-0.4091662155
 20
-3.0146679796
 10
-0.4413291885
 20
-3.0272470147
 10
-0.4742959273
 20
-3.0360118168
 10
-0.5081198529
 20
-3.0408908822
 10
-0.5427475444
 20
-3.0419557165
 10
-0.5769363415
 20
-3.0390949933
 10
-0.6107645782
 20
-3.0321234901
 10
-0.6441539204
 20
-3.0212264281
 10
-0.6756267051
 20
-3.0068481457
 10
-0.705048871
 20
-2.9888123102
 10
-0.7325544793
 20
-2.9672952501
 10
-0.7570680507
 20
-2.9432702967
 10
-0.7784164766
 20
-2.9167656359
 10
-0.7967728655
 20
-2.8877530775
 10
-0.8115810644
 20
-2.8571213895
 10
-0.8228225726
 20
-2.8248040217
 10
-0.8305158907
 20
-2.7908675212
 10
-0.8341603669
 20
-2.756400304
 10
-0.8335891172
 20
-2.721765176
 10
-0.8289690255
 20
-2.6865993308
 10
-0.820300092
 20
-2.6509027679
  0
LWPOLYLINE
  5
296
100
AcDbEntity
  8
SUPERFICI
100
AcDbPolyline
 62
7
  6
CONTINUOUS
 90
4
 70
0
 10
-0.3004583984
 20
-2.9297937684
 10
-0.2802396447
 20
-2.9007031891
 10
-0.2629833191
 20
-2.8685350559
 10
-0.2486894493
 20
-2.8332894055
  0
LWPOLYLINE
  5
297
100
AcDbEntity
  8
SUPERFICI
100
AcDbPolyline
 62
7
  6
CONTINUOUS
 90
22
 70
0
 10
-1.2653265593
 20
-2.0232311867
 10
-1.2335852389
 20
-2.0092651273
 10
-1.2035832049
 20
-1.9915996192
 10
-1.1762066935
 20
-1.9710448435
 10
-1.1515254464
 20
-1.9476045695
 10
-1.1294697218
 20
-1.9212750251
 10
-1.1107165316
 20
-1.8928550797
 10
-1.0952906779
 20
-1.8621697673
 10
-1.0831673585
 20
-1.8293940512
 10
-1.0749491786
 20
-1.7958516956
 10
-1.0708457586
 20
-1.7614685803
 10
-1.0706474781
 20
-1.7263188247
 10
-1.0743280804
 20
-1.6919485545
 10
-1.0820396268
 20
-1.6584896017
 10
-1.093630056
 20
-1.6258101358
 10
-1.108616928
 20
-1.59506079
 10
-1.1270749517
 20
-1.5663039603
 10
-1.1489294181
 20
-1.5394772532
 10
-1.1734737604
 20
-1.5155441189
 10
-1.2006841387
 20
-1.4945484791
 10
-1.2305843928
 20
-1.4764464146
 10
-1.2625394754
 20
-1.4620696148
  0
LWPOLYLINE
  5
298
100
AcDbEntity
  8
SUPERFICI
100
AcDbPolyline
 62
7
  6
CONTINUOUS
 90
3
 70
0
 10
0.8315728501
 20
1.9054488106
 10
0.8574243685
 20
1.8465560872
 10
0.8793008997
 20
1.785534673
  0
LWPOLYLINE
  5
299
100
AcDbEntity
  8
0
100
AcDbPolyline
 62
7
  6
CONTINUOUS
 90
37
 70
0
 10
0.8793008936
 20
1.785534692
 10
0.8574264514
 20
1.8465490572
 10
0.831579423
 20
1.9054339222
 10
0.8017598083
 20
1.9621892889
 10
0.767763148
 20
2.0171162584
 10
0.7297939015
 20
2.0699137336
 10
0.6884654467
 20
2.1196784206
 10
0.6437552764
 20
2.1663130363
 10
0.5956858978
 20
2.2099148704
 10
0.5449382099
 20
2.24987249
 10
0.4914648628
 20
2.286143408
 10
0.4353132063
 20
2.3187701186
 10
0.3773061886
 20
2.3472686624
 10
0.3174150006
 20
2.3715773716
 10
0.2556684514
 20
2.3917579201
 10
0.1929759161
 20
2.4075113604
 10
0.1293236508
 20
2.4187709471
 10
0.0647253995
 20
2.425603429
 10
0.000131769
 20
2.4279100999
 10
-0.0644559491
 20
2.4256234335
 10
-0.1290390464
 20
2.4188109561
 10
-0.1926707908
 20
2.4075765392
 10
-0.2553347399
 20
2.3918560477
 10
-0.317047336
 20
2.3717136132
 10
-0.3769111743
 20
2.3474455066
 10
-0.4348985918
 20
2.3189932031
 10
-0.4910372516
 20
2.2864152215
 10
-0.5445127382
 20
2.2501833978
 10
-0.5952874782
 20
2.2102458623
 10
-0.6433990451
 20
2.1666544776
 10
-0.6881457445
 20
2.1200366794
 10
-0.729488859
 20
2.0703224432
 10
-0.7674671059
 20
2.017581787
 10
-0.8014949432
 20
1.9626522117
 10
-0.83137719
 20
1.9058128832
 10
-0.857309027
 20
1.8467846315
 10
-0.8792904544
 20
1.7855674545
  0
LINE
  5
29A
100
AcDbEntity
  8
0
100
AcDbLine
 62
7
  6
CONTINUOUS
 10
1.9092999953
 20
-1.4421225001
 11
0.8793008936
 21
1.785534692
  0
LINE
  5
29B
100
AcDbEntity
  8
SUPERFICI
100
AcDbLine
 62
7
  6
CONTINUOUS
 10
0.8793008997
 20
1.785534673
 11
1.9092999953
 21
-1.4421225001
  0
LWPOLYLINE
  5
29C
100
AcDbEntity
  8
SUPERFICI
100
AcDbPolyline
 62
7
  6
CONTINUOUS
 90
4
 70
0
 10
2.61983904
 20
-1.748228166
 10
2.6185411073
 20
-1.7163319628
 10
2.6138294241
 20
-1.6838942268
 10
2.605703993
 20
-1.6509150149
  0
LWPOLYLINE
  5
29D
100
AcDbEntity
  8
RACCORDO
100
AcDbPolyline
 62
253
  6
CONTINUOUS
 90
12
 70
0
 10
11.0264799709
 20
21.5866513084
 10
11.0254643837
 20
21.5841100213
 10
11.024466787
 20
21.5786680472
 10
11.0234871808
 20
21.5703253861
 10
11.0225192882
 20
21.558997784
 10
11.021569386
 20
21.5447694949
 10
11.0206563049
 20
21.5278932804
 10
11.0197813035
 20
21.5083229654
 10
11.0189431232
 20
21.4861047249
 10
11.0181568186
 20
21.4616298466
 10
11.0174232508
 20
21.4348517581
 10
11.0161242127
 20
21.3750566723
  0
LWPOLYLINE
  5
29E
100
AcDbEntity
  8
SUPERFICI
100
AcDbPolyline
 62
7
  6
CONTINUOUS
 90
13
 70
0
 10
2.4141945997
 20
-2.0269170196
 10
2.4432158384
 20
-2.0155950007
 10
2.4709123134
 20
-2.0012588395
 10
2.4965690876
 20
-1.9845842653
 10
2.5200588039
 20
-1.9656525726
 10
2.5415088194
 20
-1.9443824651
 10
2.5605862692
 20
-1.9212057858
 10
2.5773550989
 20
-1.8960717826
 10
2.5917513629
 20
-1.8690312058
 10
2.6032503594
 20
-1.8406681523
 10
2.6118493481
 20
-1.8109169864
 10
2.6175510692
 20
-1.7798433425
 10
2.6198390423
 20
-1.7482282232
  0
LWPOLYLINE
  5
29F
100
AcDbEntity
  8
SUPERFICI
100
AcDbPolyline
 62
7
  6
CONTINUOUS
 90
34
 70
0
 10
1.3720069081
 20
2.166124428
 10
1.3226665163
 20
2.259946322
 10
1.2663837095
 20
2.3507722417
 10
1.2035050681
 20
2.4380902614
 10
1.1350703331
 20
2.5203645978
 10
1.061034272
 20
2.597424742
 10
0.9814421175
 20
2.6694412234
 10
0.8974693082
 20
2.7353898222
 10
0.8090437409
 20
2.7951864879
 10
0.7162375189
 20
2.8489152941
 10
0.6204423915
 20
2.8958042099
 10
0.5216332076
 20
2.9357456897
 10
0.4198351182
 20
2.9688472992
 10
0.316515326
 20
2.9946596747
 10
0.2116584024
 20
3.0130845045
 10
0.1052797759
 20
3.0242201118
 10
-0.0011070652
 20
3.0279120835
 10
-0.1075159136
 20
3.0240567299
 10
-0.2139329766
 20
3.0127577406
 10
-0.3188033881
 20
2.9941717691
 10
-0.4221032168
 20
2.9681930532
 10
-0.523856394
 20
2.9349273434
 10
-0.6225798465
 20
2.8948485601
 10
-0.7182388916
 20
2.8478492867
 10
-0.810868212
 20
2.7940369197
 10
-0.8990887839
 20
2.7342075996
 10
-0.9828148532
 20
2.6682955696
 10
-1.062132174
 20
2.5963665637
 10
-1.1359189844
 20
2.5194139603
 10
-1.2041481829
 20
2.4372579504
 10
-1.266846871
 20
2.3500783227
 10
-1.322974592
 20
2.2594078593
 10
-1.3721845269
 20
2.1657574855
 10
-1.4148234947
 20
2.0686162658
  0
LWPOLYLINE
  5
2A0
100
AcDbEntity
  8
SUPERFICI
100
AcDbPolyline
 62
7
  6
CONTINUOUS
 90
3
 70
0
 10
1.4509001879
 20
1.9679569039
 10
1.4147514653
 20
2.0687946236
 10
1.3720069201
 20
2.1661244007
  0
LINE
  5
2A1
100
AcDbEntity
  8
0
100
AcDbLine
 62
7
  6
CONTINUOUS
 10
1.4509001854
 20
1.9679569115
 11
2.6057040199
 21
-1.6509150991
  0
LINE
  5
2A2
100
AcDbEntity
  8
SUPERFICI
100
AcDbLine
 62
7
  6
CONTINUOUS
 10
2.605703993
 20
-1.6509150149
 11
1.4509001879
 21
1.9679569039
  0
LWPOLYLINE
  5
2A3
100
AcDbEntity
  8
0
100
AcDbPolyline
 62
7
  6
CONTINUOUS
 90
19
 70
0
 10
2.6057040199
 20
-1.6509150991
 10
2.6138294357
 20
-1.6838942178
 10
2.6185411108
 20
-1.7163318841
 10
2.6198390449
 20
-1.7482280981
 10
2.6175510829
 20
-1.7798431988
 10
2.6118493801
 20
-1.8109168476
 10
2.6032504023
 20
-1.8406680293
 10
2.591751404
 20
-1.8690311103
 10
2.5773551309
 20
-1.8960717256
 10
2.5605862851
 20
-1.9212057643
 10
2.5415088089
 20
-1.9443824736
 10
2.52005876
 20
-1.9656526083
 10
2.4965690148
 20
-1.9845843183
 10
2.4709122147
 20
-2.0012588959
 10
2.4432157182
 20
-2.0155950508
 10
2.4141944772
 20
-2.0269170603
 10
2.384086809
 20
-2.034999684
 10
2.3526543963
 20
-2.0400681638
 10
2.3198972392
 20
-2.0421225
  0
LWPOLYLINE
  5
2A4
100
AcDbEntity
  8
RACCORDO
100
AcDbPolyline
 62
253
  6
CONTINUOUS
 90
8
 70
0
 10
10.5266513084
 20
22.0864799709
 10
10.5256293871
 20
22.0814535722
 10
10.5246275169
 20
22.0704577735
 10
10.523645698
 20
22.0535589575
 10
10.522678348
 20
22.0308586736
 10
10.5217310492
 20
22.0024936657
 10
10.5208205485
 20
21.968635596
 10
10.5191111237
 20
21.8852903227
  0
LWPOLYLINE
  5
2A5
100
AcDbEntity
  8
0
100
AcDbPolyline
 62
7
  6
CONTINUOUS
 90
3
 70
0
 43
0.3500000006
 10
18.094285183
 20
1.0357133102
 10
18.3085719337
 20
0.9642866592
 10
18.5942853355
 20
0.8214288254
  0
LINE
  5
2A6
100
AcDbEntity
  8
0
100
AcDbLine
 62
253
  6
CONTINUOUS
 10
-11.0514422353
 20
-21.6116135728
 11
-11.0264799709
 21
-21.5866513084
  0
LINE
  5
2A7
100
AcDbEntity
  8
0
100
AcDbLine
 62
253
  6
CONTINUOUS
 10
-10.5516135728
 20
-22.1114422353
 11
-10.5266513084
 21
-22.0864799709
  0
LWPOLYLINE
  5
2A8
100
AcDbEntity
  8
0
100
AcDbPolyline
 62
7
  6
CONTINUOUS
 90
10
 70
0
 43
0.3500000006
 10
17.8799995651
 20
0.9642866592
 10
18.022857399
 20
1.0357133102
 10
18.094285183
 20
1.0357133102
 10
18.2371430168
 20
0.8928577423
 10
18.2371430168
 20
0.8214288254
 10
18.1657140999
 20
0.7499999084
 10
18.094285183
 20
0.7499999084
 10
17.9514284821
 20
0.8214288254
 10
17.8799995651
 20
0.8928577423
 10
17.8799995651
 20
0.9642866592
  0
LINE
  5
2A9
100
AcDbEntity
  8
0
100
AcDbLine
 62
253
  6
CONTINUOUS
 10
-11.0264799709
 20
21.5866513084
 11
-11.0514422353
 21
21.6116135728
  0
LINE
  5
2AA
100
AcDbEntity
  8
0
100
AcDbLine
 62
253
  6
CONTINUOUS
 10
-10.5266513084
 20
22.0864799709
 11
-10.5516135728
 21
22.1114422353
  0
LWPOLYLINE
  5
2AB
100
AcDbEntity
  8
RACCORDO
100
AcDbPolyline
 62
253
  6
CONTINUOUS
 90
7
 70
0
 10
10.5208201249
 20
-21.9686332738
 10
10.5217307095
 20
-22.0024922519
 10
10.5226780577
 20
-22.0308580893
 10
10.5236454625
 20
-22.0535588376
 10
10.5246273547
 20
-22.070457797
 10
10.5256293033
 20
-22.0814536019
 10
10.5266513084
 20
-22.0864799709
  0
LINE
  5
2AC
100
AcDbEntity
  8
RACCORDO
100
AcDbLine
 62
253
  6
CONTINUOUS
 10
10.5191102789
 20
-21.8852865879
 11
10.5208201249
 21
-21.9686332738
  0
LINE
  5
2AD
100
AcDbEntity
  8
RACCORDO
100
AcDbLine
 62
253
  6
CONTINUOUS
 10
-10.8880102879
 20
9.4960050713
 11
-10.8181687786
 21
9.4974728383
  0
LINE
  5
2AE
100
AcDbEntity
  8
RACCORDO
100
AcDbLine
 62
253
  6
CONTINUOUS
 10
-10.8181687786
 20
9.4974728383
 11
-10.7343795934
 21
9.4986458948
  0
LINE
  5
2AF
100
AcDbEntity
  8
RACCORDO
100
AcDbLine
 62
253
  6
CONTINUOUS
 10
-10.7343795934
 20
9.4986458948
 11
-10.6401841222
 21
9.4994746612
  0
LINE
  5
2B0
100
AcDbEntity
  8
RACCORDO
100
AcDbLine
 62
253
  6
CONTINUOUS
 10
-10.6401841222
 20
9.4994746612
 11
-10.4881671644
 21
9.4999999996
  0
LINE
  5
2B1
100
AcDbEntity
  8
RACCORDO
100
AcDbLine
 62
253
  6
CONTINUOUS
 10
10.590415486
 20
9.4997483763
 11
-10.4881671644
 21
9.5
  0
LINE
  5
2B2
100
AcDbEntity
  8
RACCORDO
100
AcDbLine
 62
253
  6
CONTINUOUS
 10
10.6883422333
 20
9.4991058655
 11
10.590415486
 21
9.4997483763
  0
LINE
  5
2B3
100
AcDbEntity
  8
RACCORDO
100
AcDbLine
 62
253
  6
CONTINUOUS
 10
10.7778084851
 20
9.4980996237
 11
10.6883422333
 21
9.4991058655
  0
LWPOLYLINE
  5
2B4
100
AcDbEntity
  8
RACCORDO
100
AcDbPolyline
 62
253
  6
CONTINUOUS
 90
10
 70
0
 10
11.0181527169
 20
-21.4614914897
 10
11.0189391127
 20
-21.4859859557
 10
11.0197777543
 20
-21.5082362811
 10
11.02065331
 20
-21.5278351628
 10
11.0215670101
 20
-21.5447313594
 10
11.0225176243
 20
-21.5589761122
 10
11.0234861298
 20
-21.5703158414
 10
11.0244661856
 20
-21.5786660206
 10
11.0254641326
 20
-21.5841111763
 10
11.0264799709
 20
-21.5866513084
  0
LINE
  5
2B5
100
AcDbEntity
  8
RACCORDO
100
AcDbLine
 62
253
  6
CONTINUOUS
 10
11.016738871
 20
-21.4056933754
 11
11.0181527169
 21
-21.4614914897
  0
LINE
  5
2B6
100
AcDbEntity
  8
RACCORDO
100
AcDbLine
 62
253
  6
CONTINUOUS
 10
11.0155711136
 20
-21.3424327347
 11
11.016738871
 21
-21.4056933754
  0
LINE
  5
2B7
100
AcDbEntity
  8
RACCORDO
100
AcDbLine
 62
253
  6
CONTINUOUS
 10
10.5169142997
 20
-21.7251528619
 11
10.5191102789
 21
-21.8852865879
  0
LINE
  5
2B8
100
AcDbEntity
  8
RACCORDO
100
AcDbLine
 62
253
  6
CONTINUOUS
 10
11.0146703475
 20
-21.2729143474
 11
11.0155711136
 21
-21.3424327347
  0
LINE
  5
2B9
100
AcDbEntity
  8
RACCORDO
100
AcDbLine
 62
253
  6
CONTINUOUS
 10
10.5148466646
 20
-21.4599830018
 11
10.5169142997
 21
-21.7251528619
  0
LINE
  5
2BA
100
AcDbEntity
  8
RACCORDO
100
AcDbLine
 62
253
  6
CONTINUOUS
 10
11.0138766932
 20
-21.1615238967
 11
11.0146703475
 21
-21.2729143474
  0
LINE
  5
2BB
100
AcDbEntity
  8
RACCORDO
100
AcDbLine
 62
253
  6
CONTINUOUS
 10
10.4976037732
 20
-16.0366548119
 11
10.5140480307
 21
-21.2362251476
  0
LINE
  5
2BC
100
AcDbEntity
  8
RACCORDO
100
AcDbLine
 62
253
  6
CONTINUOUS
 10
10.9974324428
 20
-15.9909275752
 11
11.0138766932
 21
-21.1615238967
  0
LINE
  5
2BD
100
AcDbEntity
  8
RACCORDO
100
AcDbLine
 62
253
  6
CONTINUOUS
 10
10.5140480307
 20
-21.2362251476
 11
10.5148466646
 21
-21.4599830018
  0
LINE
  5
2BE
100
AcDbEntity
  8
RACCORDO
100
AcDbLine
 62
253
  6
CONTINUOUS
 10
10.4890638437
 20
-10.809162614
 11
10.4976037732
 21
-16.0366548119
  0
LINE
  5
2BF
100
AcDbEntity
  8
RACCORDO
100
AcDbLine
 62
253
  6
CONTINUOUS
 10
10.9888924616
 20
-10.7928222982
 11
10.9974324428
 21
-15.9909275752
  0
LINE
  5
2C0
100
AcDbEntity
  8
RACCORDO
100
AcDbLine
 62
253
  6
CONTINUOUS
 10
10.485835169
 20
1.0555621241
 11
10.4890638437
 21
-10.809162614
  0
LINE
  5
2C1
100
AcDbEntity
  8
RACCORDO
100
AcDbLine
 62
253
  6
CONTINUOUS
 10
10.985663832
 20
1.0545216112
 11
10.9888924616
 21
-10.7928222982
  0
LINE
  5
2C2
100
AcDbEntity
  8
0
100
AcDbLine
 62
7
  6
CONTINUOUS
 10
11.0514422353
 20
21.6116135728
 11
11.0514422353
 21
-21.6116135728
  0
LINE
  5
2C3
100
AcDbEntity
  8
RACCORDO
100
AcDbLine
 62
253
  6
CONTINUOUS
 10
10.4923428018
 20
13.4252942234
 11
10.485835169
 21
1.0555621241
  0
LINE
  5
2C4
100
AcDbEntity
  8
RACCORDO
100
AcDbLine
 62
253
  6
CONTINUOUS
 10
10.9921714406
 20
13.3939726076
 11
10.985663832
 21
1.0545216112
  0
LINE
  5
2C5
100
AcDbEntity
  8
RACCORDO
100
AcDbLine
 62
253
  6
CONTINUOUS
 10
10.5048394573
 20
18.6410336052
 11
10.4923428018
 21
13.4252942234
  0
LINE
  5
2C6
100
AcDbEntity
  8
RACCORDO
100
AcDbLine
 62
253
  6
CONTINUOUS
 10
11.0046682314
 20
18.5804252298
 11
10.9921714406
 21
13.3939726076
  0
LINE
  5
2C7
100
AcDbEntity
  8
RACCORDO
100
AcDbLine
 62
253
  6
CONTINUOUS
 10
10.5152608966
 20
21.5306779274
 11
10.5048394573
 21
18.6410336052
  0
LINE
  5
2C8
100
AcDbEntity
  8
RACCORDO
100
AcDbLine
 62
253
  6
CONTINUOUS
 10
11.0143327731
 20
21.2368459471
 11
11.0046682314
 21
18.5804252298
  0
LINE
  5
2C9
100
AcDbEntity
  8
RACCORDO
100
AcDbLine
 62
253
  6
CONTINUOUS
 10
10.5169146285
 20
21.7251570648
 11
10.5152608966
 21
21.5306779274
  0
LINE
  5
2CA
100
AcDbEntity
  8
RACCORDO
100
AcDbLine
 62
253
  6
CONTINUOUS
 10
11.015084922
 20
21.3082533785
 11
11.0143327731
 21
21.2368459471
  0
LINE
  5
2CB
100
AcDbEntity
  8
RACCORDO
100
AcDbLine
 62
253
  6
CONTINUOUS
 10
10.5191111237
 20
21.8852903227
 11
10.5169146285
 21
21.7251570648
  0
LINE
  5
2CC
100
AcDbEntity
  8
RACCORDO
100
AcDbLine
 62
253
  6
CONTINUOUS
 10
11.0161242127
 20
21.3750566723
 11
11.015084922
 21
21.3082533785
  0
LWPOLYLINE
  5
2CD
100
AcDbEntity
  8
RACCORDO
100
AcDbPolyline
 62
253
  6
CONTINUOUS
 90
16
 70
0
 10
11.0264799709
 20
21.5866513084
 10
11.0237085996
 20
21.6388735973
 10
11.0154963459
 20
21.690524463
 10
11.0019330371
 20
21.7410385151
 10
10.9831670751
 20
21.7898627998
 10
10.9594038183
 20
21.8364628405
 10
10.930903339
 20
21.8803284908
 10
10.8979775626
 20
21.9209795447
 10
10.8609868701
 20
21.957970966
 10
10.8203361707
 20
21.9908977572
 10
10.7764704213
 20
22.0193994387
 10
10.7298697895
 20
22.04316396
 10
10.6810444317
 20
22.0619311116
 10
10.6305288403
 20
22.075495413
 10
10.5788759856
 20
22.0837083472
 10
10.5266513085
 20
22.086479971
  0
LWPOLYLINE
  5
2CE
100
AcDbEntity
  8
RACCORDO
100
AcDbPolyline
 62
253
  6
CONTINUOUS
 90
16
 70
0
 10
11.0264799709
 20
-21.5866513084
 10
11.0237084581
 20
-21.6388749344
 10
11.015495829
 20
-21.6905268861
 10
11.0019319847
 20
-21.741041747
 10
10.9831654038
 20
-21.7898665481
 10
10.9594015179
 20
-21.8364668208
 10
10.930900462
 20
-21.8803324477
 10
10.8979742276
 20
-21.9209832468
 10
10.860983247
 20
-21.9579742274
 10
10.820332448
 20
-21.9909004618
 10
10.776466821
 20
-22.0194015178
 10
10.7298665483
 20
-22.0431654038
 10
10.6810417472
 20
-22.0619319847
 10
10.6305268862
 20
-22.0754958291
 10
10.5788749345
 20
-22.0837084581
 10
10.5266513084
 20
-22.0864799709
  0
LWPOLYLINE
  5
2CF
100
AcDbEntity
  8
RACCORDO
100
AcDbPolyline
 62
253
  6
CONTINUOUS
 90
7
 70
0
 10
-10.9879958269
 20
9.4905
 10
-10.9840029662
 20
9.4914768667
 10
-10.9747570079
 20
9.492443384
 10
-10.9603559075
 20
9.4933893123
 10
-10.9409522366
 20
9.4943046299
 10
-10.916751566
 20
9.4951796397
 10
-10.8880102879
 20
9.4960050713
  0
LWPOLYLINE
  5
2D0
100
AcDbEntity
  8
RACCORDO
100
AcDbPolyline
 62
253
  6
CONTINUOUS
 90
9
 70
0
 10
10.9879958269
 20
9.4905
 10
10.9840029682
 20
9.4914768667
 10
10.9747570116
 20
9.4924433841
 10
10.9603559127
 20
9.4933893124
 10
10.9409522429
 20
9.4943046301
 10
10.916751573
 20
9.4951796399
 10
10.8880102953
 20
9.4960050715
 10
10.8550329074
 20
9.4967721801
 10
10.7778084851
 20
9.4980996237
  0
LWPOLYLINE
  5
2D1
100
AcDbEntity
  8
0
100
AcDbPolyline
 62
7
  6
CONTINUOUS
 90
10
 70
0
 43
0.3500000006
 10
1.2857142735
 20
31.3614431305
 10
1.3571429071
 20
31.2185852966
 10
1.3571429071
 20
31.1471586456
 10
1.2142857814
 20
31.0043008118
 10
1.1428571477
 20
31.0043008118
 10
1.0714285848
 20
31.0757274628
 10
1.0714285848
 20
31.1471586456
 10
1.1428571477
 20
31.2900119476
 10
1.2142857814
 20
31.3614431305
 10
1.2857142735
 20
31.3614431305
  0
LWPOLYLINE
  5
2D2
100
AcDbEntity
  8
0
100
AcDbPolyline
 62
7
  6
CONTINUOUS
 90
3
 70
0
 43
0.3500000006
 10
17.7371428642
 20
-0.5357137985
 10
17.7371428642
 20
-2.0357142563
 10
15.3799999352
 20
-1.3928574028
  0
LWPOLYLINE
  5
2D3
100
AcDbEntity
  8
0
100
AcDbPolyline
 62
7
  6
CONTINUOUS
 90
3
 70
0
 43
0.3500000006
 10
17.7371428642
 20
-2.8928567276
 10
17.7371428642
 20
-4.3928571854
 10
15.3799999352
 20
-3.7500003319
  0
LWPOLYLINE
  5
2D4
100
AcDbEntity
  8
0
100
AcDbPolyline
 62
7
  6
CONTINUOUS
 90
7
 70
0
 43
0.3500000006
 10
18.3799997177
 20
3.5357140732
 10
18.3799997177
 20
2.0357136154
 10
16.2371424065
 20
3.5357140732
 10
15.8085711708
 20
3.5357140732
 10
15.3799999352
 20
3.1071428375
 10
15.3799999352
 20
2.4642848511
 10
16.0228567886
 20
2.0357136154
  0
LWPOLYLINE
  5
2D5
100
AcDbEntity
  8
RACCORDO
100
AcDbPolyline
 62
253
  6
CONTINUOUS
 90
16
 70
0
 10
11.013876693
 20
-21.1615238967
 10
11.0098961887
 20
-21.1692063518
 10
11.0006606727
 20
-21.1768073667
 10
10.9862680235
 20
-21.1842463858
 10
10.9668707748
 20
-21.19144457
 10
10.9426744993
 20
-21.1983256327
 10
10.9139356299
 20
-21.2048166483
 10
10.8809587422
 20
-21.2108488247
 10
10.8440933262
 20
-21.2163582328
 10
10.803730083
 20
-21.2212864835
 10
10.7602967834
 20
-21.2255813472
 10
10.7142537351
 20
-21.2291973067
 10
10.6660889038
 20
-21.2320960401
 10
10.616312742
 20
-21.2342468266
 10
10.5654527791
 20
-21.235626872
 10
10.5140480308
 20
-21.2362215505
  0
LWPOLYLINE
  5
2D6
100
AcDbEntity
  8
RACCORDO
100
AcDbPolyline
 62
253
  6
CONTINUOUS
 90
16
 70
0
 10
11.0138766932
 20
21.1615238967
 10
11.0098974597
 20
21.1692066572
 10
11.000663019
 20
21.1768079927
 10
10.9862712413
 20
21.1842473412
 10
10.9668746564
 20
21.1914458576
 10
10.9426788368
 20
21.1983272491
 10
10.9139402194
 20
21.2048185843
 10
10.8809633874
 20
21.2108510651
 10
10.8440978422
 20
21.2163607572
 10
10.8037342993
 20
21.2212892666
 10
10.7603005474
 20
21.225584359
 10
10.7142569145
 20
21.2292005133
 10
10.6660913891
 20
21.2320994044
 10
10.6163144484
 20
21.2342503089
 10
10.565453648
 20
21.2356304304
 10
10.5140480307
 20
21.236225142
  0
LINE
  5
2D7
100
AcDbEntity
  8
RACCORDO
100
AcDbLine
 62
253
  6
CONTINUOUS
 10
10.5140480307
 20
21.2362251476
 11
-10.5140480307
 21
21.2362251476
  0
LINE
  5
2D8
100
AcDbEntity
  8
RACCORDO
100
AcDbLine
 62
253
  6
CONTINUOUS
 10
10.5266513084
 20
22.0864799709
 11
-10.5266513084
 21
22.0864799709
  0
LINE
  5
2D9
100
AcDbEntity
  8
0
100
AcDbLine
 62
7
  6
CONTINUOUS
 10
10.5516135728
 20
22.1114422353
 11
-10.5516135728
 21
22.1114422353
  0
LWPOLYLINE
  5
2DA
100
AcDbEntity
  8
0
100
AcDbPolyline
 62
7
  6
CONTINUOUS
 90
7
 70
0
 43
0.3500000006
 10
-0.2142857063
 20
30.8614429779
 10
-1.7142856507
 20
30.8614429779
 10
-0.2142857063
 20
33.0043014221
 10
-0.2142857063
 20
33.4328703918
 10
-0.6428571367
 20
33.8614438934
 10
-1.2857142735
 20
33.8614438934
 10
-1.7142856507
 20
33.218585907
  0
LWPOLYLINE
  5
2DB
100
AcDbEntity
  8
0
100
AcDbPolyline
 62
7
  6
CONTINUOUS
 90
7
 70
0
 43
0.3500000006
 10
-2.5714285469
 20
30.8614429779
 10
-4.0714284382
 20
30.8614429779
 10
-2.5714285469
 20
33.0043014221
 10
-2.5714285469
 20
33.4328703918
 10
-3.0000000658
 20
33.8614438934
 10
-3.6428572025
 20
33.8614438934
 10
-4.0714284382
 20
33.218585907
  0
LINE
  5
2DC
100
AcDbEntity
  8
RACCORDO
100
AcDbLine
 62
7
  6
CONTINUOUS
 10
-36.3135548363
 20
-22.0864799709
 11
-35.3602844187
 21
-22.1114422353
  0
LINE
  5
2DD
100
AcDbEntity
  8
0
100
AcDbLine
 62
7
  6
CONTINUOUS
 10
-36.3135548363
 20
-22.0864799709
 11
-35.3602844187
 21
-22.1114422353
  0
LINE
  5
2DE
100
AcDbEntity
  8
0
100
AcDbLine
 62
253
  6
CONTINUOUS
 10
-36.3135548363
 20
-21.5866513084
 11
-35.3602844187
 21
-21.6116135728
  0
LWPOLYLINE
  5
2DF
100
AcDbEntity
  8
RACCORDO
100
AcDbPolyline
 62
253
  6
CONTINUOUS
 90
4
 70
0
 10
-37.2528085344
 20
-21.2320960401
 10
-37.2657394154
 20
-21.2342468266
 10
-37.2735409867
 20
-21.235626872
 10
-37.276130567
 20
-21.2362215505
  0
LINE
  5
2E0
100
AcDbEntity
  8
RACCORDO
100
AcDbLine
 62
253
  6
CONTINUOUS
 10
-37.1848729805
 20
-21.2212864835
 11
-37.2528085344
 21
-21.2320960401
  0
LWPOLYLINE
  5
2E1
100
AcDbEntity
  8
RACCORDO
100
AcDbPolyline
 62
253
  6
CONTINUOUS
 90
3
 70
0
 10
-36.7948545933
 20
-21.1615238967
 10
-36.8455944704
 20
-21.1692063518
 10
-37.1848729805
 20
-21.2212864835
  0
LINE
  5
2E2
100
AcDbEntity
  8
0
100
AcDbLine
 62
7
  6
CONTINUOUS
 10
-34.3602844187
 20
-13.2689805518
 11
-35.3602844187
 21
-13.3213883311
  0
LWPOLYLINE
  5
2E3
100
AcDbEntity
  8
0
100
AcDbPolyline
 62
7
  6
CONTINUOUS
 90
2
 70
0
 43
0.3500000006
 10
-44.3642798309
 20
30.8614429779
 10
-44.3642798309
 20
32.3614434357
  0
LINE
  5
2E4
100
AcDbEntity
  8
RACCORDO
100
AcDbLine
 62
253
  6
CONTINUOUS
 10
-38.2673785917
 20
-9.499924109
 11
-38.270026235
 21
-9.4999999993
  0
LINE
  5
2E5
100
AcDbEntity
  8
RACCORDO
100
AcDbLine
 62
253
  6
CONTINUOUS
 10
-37.7832050045
 20
-9.4905
 11
-38.2673785917
 21
-9.499924109
  0
LINE
  5
2E6
100
AcDbEntity
  8
0
100
AcDbLine
 62
7
  6
CONTINUOUS
 10
-34.3602844187
 20
-9.7310194482
 11
-35.3602844187
 21
-9.6786116689
  0
LWPOLYLINE
  5
2E7
100
AcDbEntity
  8
RACCORDO
100
AcDbPolyline
 62
253
  6
CONTINUOUS
 90
10
 70
0
 10
-36.7948545933
 20
21.1615238967
 10
-36.9801031097
 20
19.8719852003
 10
-37.1465115632
 20
18.5804252298
 10
-37.2940799538
 20
17.2868439853
 10
-37.4228321325
 20
15.9909603469
 10
-37.5327442483
 20
14.6930554344
 10
-37.6237447487
 20
13.3939726076
 10
-37.6958097827
 20
12.0939929862
 10
-37.7489632013
 20
10.7928354503
 10
-37.7832050045
 20
9.4905
  0
LWPOLYLINE
  5
2E8
100
AcDbEntity
  8
RACCORDO
100
AcDbPolyline
 62
253
  6
CONTINUOUS
 90
19
 70
0
 10
-36.7948545933
 20
-21.1615238967
 10
-36.7875452039
 20
-21.1996934077
 10
-36.7774423929
 20
-21.2368235579
 10
-36.7645461602
 20
-21.2729143474
 10
-36.7487434347
 20
-21.3081932214
 10
-36.7301472876
 20
-21.3424327347
 10
-36.7090969328
 20
-21.3749505517
 10
-36.6855524353
 20
-21.4056933754
 10
-36.6595537302
 20
-21.4347145028
 10
-36.6315598361
 20
-21.4614914897
 10
-36.6015285936
 20
-21.4859859557
 10
-36.5695021621
 20
-21.5082362811
 10
-36.5360660389
 20
-21.5278351628
 10
-36.5011732391
 20
-21.5447313594
 10
-36.4648707476
 20
-21.5589761122
 10
-36.4278850164
 20
-21.5703158414
 10
-36.3904581961
 20
-21.5786660206
 10
-36.3523481361
 20
-21.5841111763
 10
-36.3135548363
 20
-21.5866513084
  0
LWPOLYLINE
  5
2E9
100
AcDbEntity
  8
RACCORDO
100
AcDbPolyline
 62
253
  6
CONTINUOUS
 90
10
 70
0
 10
-37.7832050045
 20
-9.4905
 10
-37.7489639065
 20
-10.7928222982
 10
-37.6958111182
 20
-12.0939699785
 10
-37.6237466395
 20
-13.393943041
 10
-37.532746755
 20
-14.693022617
 10
-37.4228351801
 20
-15.9909275752
 10
-37.2940830618
 20
-17.2868145217
 10
-37.1465141158
 20
-18.5804023251
 10
-36.9801046263
 20
-19.8719721168
 10
-36.7948545933
 20
-21.1615238967
  0
LWPOLYLINE
  5
2EA
100
AcDbEntity
  8
RACCORDO
100
AcDbPolyline
 62
253
  6
CONTINUOUS
 90
10
 70
0
 10
-37.7832050045
 20
9.4905
 10
-37.8188271137
 20
7.381529647
 10
-37.845543698
 20
5.2725447223
 10
-37.8633547573
 20
3.1635452259
 10
-37.8722602946
 20
1.0545216112
 10
-37.872260307
 20
-1.0545165753
 10
-37.8633547851
 20
-3.1635406936
 10
-37.8455437258
 20
-5.2725411972
 10
-37.8188271323
 20
-7.3815276327
 10
-37.7832050045
 20
-9.4905
  0
LINE
  5
2EB
100
AcDbEntity
  8
RACCORDO
100
AcDbLine
 62
253
  6
CONTINUOUS
 10
-36.3135548363
 20
21.5866513084
 11
-36.3159872229
 21
21.690524463
  0
LINE
  5
2EC
100
AcDbEntity
  8
RACCORDO
100
AcDbLine
 62
253
  6
CONTINUOUS
 10
-36.3159872229
 20
21.690524463
 11
-36.3177419086
 21
21.7898627998
  0
LWPOLYLINE
  5
2ED
100
AcDbEntity
  8
RACCORDO
100
AcDbPolyline
 62
253
  6
CONTINUOUS
 90
11
 70
0
 10
-36.3177419086
 20
21.7898627998
 10
-36.3187422568
 20
21.8803284908
 10
-36.318944549
 20
21.9209795447
 10
-36.3189445676
 20
21.957970966
 10
-36.3187423105
 20
21.9908977572
 10
-36.3183399895
 20
22.0193994387
 10
-36.3177420071
 20
22.04316396
 10
-36.3169549086
 20
22.0619311116
 10
-36.3159873093
 20
22.075495413
 10
-36.3148498003
 20
22.0837083472
 10
-36.313554833
 20
22.086479971
  0
LWPOLYLINE
  5
2EE
100
AcDbEntity
  8
RACCORDO
100
AcDbPolyline
 62
253
  6
CONTINUOUS
 90
9
 70
0
 10
-36.318944584
 20
-21.9209832468
 10
-36.3189445838
 20
-21.9579742274
 10
-36.3187423087
 20
-21.9909004618
 10
-36.318339973
 20
-22.0194015178
 10
-36.3177419808
 20
-22.0431654038
 10
-36.3169548786
 20
-22.0619319847
 10
-36.3159872826
 20
-22.0754958291
 10
-36.3148497845
 20
-22.0837084581
 10
-36.3135548363
 20
-22.0864799709
  0
LINE
  5
2EF
100
AcDbEntity
  8
0
100
AcDbLine
 62
7
  6
CONTINUOUS
 10
-35.3602844187
 20
-22.1114422353
 11
-35.3602844187
 21
22.1114422353
  0
LINE
  5
2F0
100
AcDbEntity
  8
RACCORDO
100
AcDbLine
 62
253
  6
CONTINUOUS
 10
-36.3183399742
 20
-21.8364668208
 11
-36.318944584
 21
-21.9209832468
  0
LINE
  5
2F1
100
AcDbEntity
  8
RACCORDO
100
AcDbLine
 62
253
  6
CONTINUOUS
 10
-36.3169548804
 20
-21.741041747
 11
-36.3183399742
 21
-21.8364668208
  0
LWPOLYLINE
  5
2F2
100
AcDbEntity
  8
RACCORDO
100
AcDbPolyline
 62
253
  6
CONTINUOUS
 90
3
 70
0
 10
-36.3135548363
 20
-21.5866513084
 10
-36.3148497854
 20
-21.6388749344
 10
-36.3169548804
 20
-21.741041747
  0
LINE
  5
2F3
100
AcDbEntity
  8
0
100
AcDbLine
 62
253
  6
CONTINUOUS
 10
-34.7393500362
 20
-13.288846539
 11
-34.7393500362
 21
-9.711153461
  0
LINE
  5
2F4
100
AcDbEntity
  8
0
100
AcDbLine
 62
253
  6
CONTINUOUS
 10
-34.7393500362
 20
9.711153461
 11
-34.7393500362
 21
13.288846539
  0
LINE
  5
2F5
100
AcDbEntity
  8
0
100
AcDbLine
 62
7
  6
CONTINUOUS
 10
-34.3602844187
 20
-13.2689805518
 11
-34.3602844187
 21
-9.7310194482
  0
LINE
  5
2F6
100
AcDbEntity
  8
0
100
AcDbLine
 62
7
  6
CONTINUOUS
 10
-34.3602844187
 20
9.7310194482
 11
-34.3602844187
 21
13.2689805518
  0
LINE
  5
2F7
100
AcDbEntity
  8
0
100
AcDbLine
 62
7
  6
CONTINUOUS
 10
-34.3602844187
 20
9.7310194482
 11
-35.3602844187
 21
9.6786116689
  0
LWPOLYLINE
  5
2F8
100
AcDbEntity
  8
RACCORDO
100
AcDbPolyline
 62
253
  6
CONTINUOUS
 90
3
 70
0
 10
-37.7832050045
 20
9.4905
 10
-38.2673786278
 20
9.4999241097
 10
-38.2700262715
 20
9.5
  0
LINE
  5
2F9
100
AcDbEntity
  8
0
100
AcDbLine
 62
7
  6
CONTINUOUS
 10
-34.3602844187
 20
13.2689805518
 11
-35.3602844187
 21
13.3213883311
  0
LWPOLYLINE
  5
2FA
100
AcDbEntity
  8
RACCORDO
100
AcDbPolyline
 62
253
  6
CONTINUOUS
 90
19
 70
0
 10
-36.3135548363
 20
21.5866513084
 10
-36.3523385458
 20
21.5841100213
 10
-36.3904352269
 20
21.5786680472
 10
-36.4278448797
 20
21.5703253861
 10
-36.4648072078
 20
21.558997784
 10
-36.5010825076
 20
21.5447694949
 10
-36.5359516679
 20
21.5278932804
 10
-36.5693666219
 20
21.5083229654
 10
-36.6013754364
 20
21.4861047249
 10
-36.631403201
 20
21.4616298466
 10
-36.6594170237
 20
21.4348517581
 10
-36.6854497965
 20
21.4058170317
 10
-36.7090252858
 20
21.3750566723
 10
-36.7300983843
 20
21.3425178419
 10
-36.7487141992
 20
21.3082533785
 10
-36.7645318188
 20
21.2729528004
 10
-36.7774376057
 20
21.2368459471
 10
-36.7875451972
 20
21.1997029793
 10
-36.7948545933
 20
21.1615238967
  0
LINE
  5
2FB
100
AcDbEntity
  8
0
100
AcDbLine
 62
253
  6
CONTINUOUS
 10
-35.3602844187
 20
21.6116135728
 11
-36.3135548363
 21
21.5866513084
  0
LINE
  5
2FC
100
AcDbEntity
  8
RACCORDO
100
AcDbLine
 62
7
  6
CONTINUOUS
 10
-35.3602844187
 20
22.1114422353
 11
-36.313554833
 21
22.086479971
  0
LINE
  5
2FD
100
AcDbEntity
  8
0
100
AcDbLine
 62
7
  6
CONTINUOUS
 10
-35.3602844187
 20
22.1114422353
 11
-36.3135548363
 21
22.0864799709
  0
LWPOLYLINE
  5
2FE
100
AcDbEntity
  8
0
100
AcDbPolyline
 62
7
  6
CONTINUOUS
 90
3
 70
0
 43
0.3500000006
 10
-43.8642796783
 20
31.5043009644
 10
-45.3642801361
 20
31.5043009644
 10
-44.7214221497
 20
33.8614438934
  0
LINE
  5
2FF
100
AcDbEntity
  8
RACCORDO
100
AcDbLine
 62
253
  6
CONTINUOUS
 10
-36.7948545933
 20
21.1615238967
 11
-37.1533303981
 21
21.2163607572
  0
LWPOLYLINE
  5
300
100
AcDbEntity
  8
RACCORDO
100
AcDbPolyline
 62
253
  6
CONTINUOUS
 90
6
 70
0
 10
-37.1533303981
 20
21.2163607572
 10
-37.2349065441
 20
21.2292005133
 10
-37.2528307429
 20
21.2320994044
 10
-37.2657624131
 20
21.2342503089
 10
-37.2735644999
 20
21.2356304304
 10
-37.2761543136
 20
21.236225142
  0
ARC
  5
301
100
AcDbEntity
  8
RACCORDO
100
AcDbCircle
 62
7
  6
CONTINUOUS
 10
461.6397155813
 20
0.0
 40
500.0
100
AcDbArc
 50
178.91131468
 51
181.08868532
  0
ARC
  5
302
100
AcDbEntity
  8
RACCORDO
100
AcDbCircle
 62
7
  6
CONTINUOUS
 10
51.7137272614
 20
-7.79
 40
90.0
100
AcDbArc
 50
181.08868532
 51
188.592302252
  0
ARC
  5
303
100
AcDbEntity
  8
RACCORDO
100
AcDbCircle
 62
7
  6
CONTINUOUS
 10
51.7137272614
 20
7.79
 40
90.0
100
AcDbArc
 50
171.407697748
 51
178.91131468
  0
ARC
  5
304
100
AcDbEntity
  8
RACCORDO
100
AcDbCircle
 62
7
  6
CONTINUOUS
 10
-36.287377888
 20
-21.0868226459
 40
1.0
100
AcDbArc
 50
188.592302252
 51
268.5
  0
ARC
  5
305
100
AcDbEntity
  8
RACCORDO
100
AcDbCircle
 62
7
  6
CONTINUOUS
 10
-36.287377888
 20
21.0868226459
 40
1.0
100
AcDbArc
 50
91.5
 51
171.407697748
  0
ELLIPSE
  5
306
100
AcDbEntity
  8
0
100
AcDbEllipse
 62
7
  6
CONTINUOUS
 10
10.551270839
 20
21.611270839
 30
0.0
 11
-0.35379574
 21
-0.35379574
 31
0.0
 40
0.999315002
 41
2.3565371065
 42
3.9266482006
  0
ELLIPSE
  5
307
100
AcDbEntity
  8
0
100
AcDbEllipse
 62
7
  6
CONTINUOUS
 10
-10.551270839
 20
-21.611270839
 30
0.0
 11
0.35379574
 21
0.35379574
 31
0.0
 40
0.999315002
 41
2.3565371065
 42
3.9266482006
  0
ELLIPSE
  5
308
100
AcDbEntity
  8
0
100
AcDbEllipse
 62
7
  6
CONTINUOUS
 10
-10.551270839
 20
21.611270839
 30
0.0
 11
-0.35379574
 21
0.35379574
 31
0.0
 40
0.999315002
 41
-0.7850555471
 42
0.7850555471
  0
ELLIPSE
  5
309
100
AcDbEntity
  8
0
100
AcDbEllipse
 62
7
  6
CONTINUOUS
 10
10.551270839
 20
-21.611270839
 30
0.0
 11
-0.35379574
 21
0.35379574
 31
0.0
 40
0.999315002
 41
-3.9266482006
 42
-2.3565371065
  0
ENDSEC
  0
SECTION
  2
OBJECTS
  0
DICTIONARY
  5
C
100
AcDbDictionary
280
0
281
1
  3
ACAD_GROUP
350
D
  3
ACAD_MLINESTYLE
350
17
  3
ACAD_LAYOUT
350
1A
  3
ACAD_PLOTSETTINGS
350
19
  3
ACAD_PLOTSTYLENAME
350
E
  0
DICTIONARY
  5
D
102
{ACAD_REACTORS
330
C
102
}
100
AcDbDictionary
280
0
281
1
  0
ACDBDICTIONARYWDFLT
  5
E
102
{ACAD_REACTORS
330
C
102
}
100
AcDbDictionary
281
1
  3
Normal
350
F
100
AcDbDictionaryWithDefault
340
F
  0
DICTIONARY
  5
17
102
{ACAD_REACTORS
330
C
102
}
100
AcDbDictionary
280
0
281
1
  3
Standard
350
18
  0
DICTIONARY
  5
19
102
{ACAD_REACTORS
330
C
102
}
100
AcDbDictionary
281
1
  0
DICTIONARY
  5
1A
102
{ACAD_REACTORS
330
C
102
}
100
AcDbDictionary
281
1
  3
Model
350
30A
  3
Layout1
350
30B
  0
ACDBPLACEHOLDER
  5
F
102
{ACAD_REACTORS
330
E
102
}
  0
MLINESTYLE
  5
18
102
{ACAD_REACTORS
330
17
102
}
100
AcDbMlineStyle
  2
STANDARD
 70
0
  3

 62
256
 51
90.0
 52
90.0
 71
2
 49
0.5
 62
256
  6
BYLAYER
 49
-0.5
 62
256
  6
BYLAYER
  0
LAYOUT
  5
30A
102
{ACAD_REACTORS
330
1A
102
}
100
AcDbPlotSettings
  1

  2
none_device
  4
ISO_A4_(297.00_x_210.00_MM)
  6

 40
0.0
 41
0.0
 42
0.0
 43
0.0
 44
297.0
 45
210.0
 46
0.0
 47
0.0
 48
0.0
 49
0.0
140
0.0
141
0.0
142
1.0
143
1.0
 70
1024
 72
1
 73
0
 74
0
  7

 75
0
147
1.0
148
0.0
149
0.0
100
AcDbLayout
  1
Model
 70
0
 71
0
 10
0.0
 20
0.0
 11
297.0
 21
210.0
 12
0.0
 22
0.0
 32
0.0
 14
0.0
 24
0.0
 34
0.0
 15
0.0
 25
0.0
 35
0.0
146
0.0
 13
0.0
 23
0.0
 33
0.0
 16
1.0
 26
0.0
 36
0.0
 17
0.0
 27
1.0
 37
0.0
 76
0
330
218
345
0
346
0
  0
LAYOUT
  5
30B
102
{ACAD_REACTORS
330
1A
102
}
100
AcDbPlotSettings
  1

  2
none_device
  4
ISO_A4_(297.00_x_210.00_MM)
  6

 40
0.0
 41
0.0
 42
0.0
 43
0.0
 44
297.0
 45
210.0
 46
0.0
 47
0.0
 48
0.0
 49
0.0
140
0.0
141
0.0
142
1.0
143
1.0
 70
0
 72
1
 73
0
 74
0
  7

 75
0
147
1.0
148
0.0
149
0.0
100
AcDbLayout
  1
Layout1
 70
0
 71
1
 10
0.0
 20
0.0
 11
297.0
 21
210.0
 12
0.0
 22
0.0
 32
0.0
 14
0.0
 24
0.0
 34
0.0
 15
0.0
 25
0.0
 35
0.0
146
0.0
 13
0.0
 23
0.0
 33
0.0
 16
1.0
 26
0.0
 36
0.0
 17
0.0
 27
1.0
 37
0.0
 76
0
330
219
345
0
346
0
  0
ENDSEC
  0
EOF
