  0
SECTION
  2
HEADER
  9
$ACADVER
  1
AC1015
  9
$DWGCODEPAGE
  3
ANSI_1252
  9
$EXTMAX
 10
297.0
 20
210.0
 30
0.0
  9
$EXTMIN
 10
0.0
 20
0.0
 30
0.0
  9
$LIMMIN
 10
0.0
 20
0.0
  9
$LIMMAX
 10
297.0
 20
210.0
  9
$VIEWCTR
 10
148.5
 20
105.0
  9
$VIEWSIZE
 40
210.0
  9
$CLAYER
  8
0
  9
$LTSCALE
 40
16.335
  9
$CELTYPE
  6
BYLAYER
  9
$DIMSCALE
 40
1.0
  9
$DIMASZ
 40
3.0
  9
$DIMEXO
 40
1.85625
  9
$DIMDLI
 40
11.286
  9
$DIMEXE
 40
5.346
  9
$DIMCEN
 40
2.673
  9
$DIMLFAC
 40
1.0
  9
$DIMBLK
  1
_FILLED
  9
$DIMTXT
 40
3.0
  9
$DIMTOL
 70
1
  9
$DIMLIM
 70
0
  9
$DIMTFAC
 40
1.0
  9
$DIMTP
 40
0.01
  9
$DIMTM
 40
0.01
  9
$PDMODE
 70
3
  9
$PDSIZE
 40
3.0
  9
$HANDSEED
  5
33C
  9
$TILEMODE
 70
1
  9
$MEASUREMENT
 70
1
  9
$INSUNITS
 70
4
  0
ENDSEC
  0
SECTION
  2
CLASSES
  0
CLASS
  1
ACDBDICTIONARYWDFLT
  2
AcDbDictionaryWithDefault
  3
AutoCAD 2000
 90
0
280
0
281
0
  0
CLASS
  1
ACDBPLACEHOLDER
  2
AcDbPlaceHolder
  3
AutoCAD 2000
 90
0
280
0
281
0
  0
CLASS
  1
LAYOUT
  2
AcDbLayout
  3
AutoCAD 2000
 90
0
280
0
281
0
  0
ENDSEC
  0
SECTION
  2
TABLES
  0
TABLE
  2
VPORT
  5
8
100
AcDbSymbolTable
 70
2
  0
VPORT
  5
1F4
100
AcDbSymbolTableRecord
100
AcDbViewportTableRecord
  2
*ACTIVE
 70
0
 10
0.0
 20
0.0
 11
1.0
 21
1.0
 12
148.5
 22
105.0
 13
0.0
 23
0.0
 14
1.0
 24
1.0
 15
0.0
 25
0.0
 16
0.0
 26
0.0
 36
1.0
 17
0.0
 27
0.0
 37
0.0
 40
210.0
 41
1.4142857143
 42
50.0
 43
0.0
 44
0.0
 50
0.0
 51
0.0
 71
0
 72
100
 73
1
 74
1
 75
0
 76
0
 77
0
 78
0
  0
ENDTAB
  0
TABLE
  2
LTYPE
  5
5
100
AcDbSymbolTable
 70
6
  0
LTYPE
  5
14
100
AcDbSymbolTableRecord
100
AcDbLinetypeTableRecord
  2
BYBLOCK
 70
0
  3

 72
65
 73
0
 40
0.0
  0
LTYPE
  5
15
100
AcDbSymbolTableRecord
100
AcDbLinetypeTableRecord
  2
BYLAYER
 70
0
  3

 72
65
 73
0
 40
0.0
  0
LTYPE
  5
16
100
AcDbSymbolTableRecord
100
AcDbLinetypeTableRecord
  2
CONTINUOUS
 70
64
  3
Solid line
 72
65
 73
0
 40
0.0
  0
LTYPE
  5
1F5
100
AcDbSymbolTableRecord
100
AcDbLinetypeTableRecord
  2
CENTER
 70
64
  3
____ _ ____ _ ____ _ ____ _ ____ _ ____ _ ____
 72
65
 73
4
 40
0.6
 49
0.375
 74
0
 49
-0.075
 74
0
 49
0.075
 74
0
 49
-0.075
 74
0
  0
LTYPE
  5
1F6
100
AcDbSymbolTableRecord
100
AcDbLinetypeTableRecord
  2
HIDDEN
 70
64
  3
- - - - - - - - - - - - - - - - - - - -
 72
65
 73
2
 40
0.2
 49
0.1
 74
0
 49
-0.1
 74
0
  0
LTYPE
  5
1F7
100
AcDbSymbolTableRecord
100
AcDbLinetypeTableRecord
  2
PHANTOM
 70
64
  3
_____ _ _ _____ _ _ _____ _ _ _____
 72
65
 73
6
 40
0.8
 49
0.45
 74
0
 49
-0.05
 74
0
 49
0.1
 74
0
 49
-0.05
 74
0
 49
0.1
 74
0
 49
-0.05
 74
0
  0
LTYPE
  5
1F8
100
AcDbSymbolTableRecord
100
AcDbLinetypeTableRecord
  2
DOT
 70
64
  3
. . . . . . . . . . . . . . . . . . . .
 72
65
 73
2
 40
0.2
 49
0.1
 74
0
 49
-0.1
 74
0
  0
LTYPE
  5
1F9
100
AcDbSymbolTableRecord
100
AcDbLinetypeTableRecord
  2
DASHED
 70
64
  3
- - - - - - - - - - - - - - - - - - - -
 72
65
 73
2
 40
0.2
 49
0.1
 74
0
 49
-0.1
 74
0
  0
ENDTAB
  0
TABLE
  2
LAYER
  5
2
100
AcDbSymbolTable
 70
36
  0
LAYER
  5
10
100
AcDbSymbolTableRecord
100
AcDbLayerTableRecord
  2
0
 70
0
 62
7
  6
CONTINUOUS
370
-3
390
F
  0
LAYER
  5
1FA
100
AcDbSymbolTableRecord
100
AcDbLayerTableRecord
  2
DEFAULT_1
 70
0
 62
7
  6
CENTER
370
-3
390
F
  0
LAYER
  5
1FB
100
AcDbSymbolTableRecord
100
AcDbLayerTableRecord
  2
DEFAULT_2
 70
0
 62
7
  6
HIDDEN
370
-3
390
F
  0
LAYER
  5
1FC
100
AcDbSymbolTableRecord
100
AcDbLayerTableRecord
  2
DEFAULT_3
 70
0
 62
7
  6
PHANTOM
370
-3
390
F
  0
LAYER
  5
1FD
100
AcDbSymbolTableRecord
100
AcDbLayerTableRecord
  2
ASSI
 70
0
 62
7
  6
CONTINUOUS
370
-3
390
F
  0
LAYER
  5
1FE
100
AcDbSymbolTableRecord
100
AcDbLayerTableRecord
  2
COLOR9
 70
0
 62
7
  6
CONTINUOUS
370
-3
390
F
  0
LAYER
  5
1FF
100
AcDbSymbolTableRecord
100
AcDbLayerTableRecord
  2
COORDINATE
 70
0
 62
7
  6
CONTINUOUS
370
-3
390
F
  0
LAYER
  5
200
100
AcDbSymbolTableRecord
100
AcDbLayerTableRecord
  2
COORD_ORIGINE
 70
0
 62
7
  6
CONTINUOUS
370
-3
390
F
  0
LAYER
  5
201
100
AcDbSymbolTableRecord
100
AcDbLayerTableRecord
  2
COSMETICI
 70
0
 62
7
  6
CONTINUOUS
370
-3
390
F
  0
LAYER
  5
202
100
AcDbSymbolTableRecord
100
AcDbLayerTableRecord
  2
CURVE
 70
0
 62
7
  6
CONTINUOUS
370
-3
390
F
  0
LAYER
  5
203
100
AcDbSymbolTableRecord
100
AcDbLayerTableRecord
  2
DRAFT
 70
0
 62
7
  6
CONTINUOUS
370
-3
390
F
  0
LAYER
  5
204
100
AcDbSymbolTableRecord
100
AcDbLayerTableRecord
  2
IMPORT_IGES
 70
0
 62
7
  6
CONTINUOUS
370
-3
390
F
  0
LAYER
  5
205
100
AcDbSymbolTableRecord
100
AcDbLayerTableRecord
  2
INTF_1
 70
0
 62
7
  6
CONTINUOUS
370
-3
390
F
  0
LAYER
  5
206
100
AcDbSymbolTableRecord
100
AcDbLayerTableRecord
  2
INTF_8
 70
0
 62
7
  6
CONTINUOUS
370
-3
390
F
  0
LAYER
  5
207
100
AcDbSymbolTableRecord
100
AcDbLayerTableRecord
  2
INTF_YELLOW
 70
0
 62
7
  6
CONTINUOUS
370
-3
390
F
  0
LAYER
  5
208
100
AcDbSymbolTableRecord
100
AcDbLayerTableRecord
  2
NOTE
 70
0
 62
7
  6
CONTINUOUS
370
-3
390
F
  0
LAYER
  5
209
100
AcDbSymbolTableRecord
100
AcDbLayerTableRecord
  2
PIANI
 70
0
 62
7
  6
CONTINUOUS
370
-3
390
F
  0
LAYER
  5
20A
100
AcDbSymbolTableRecord
100
AcDbLayerTableRecord
  2
PIANI_ORIGINE
 70
0
 62
7
  6
CONTINUOUS
370
-3
390
F
  0
LAYER
  5
20B
100
AcDbSymbolTableRecord
100
AcDbLayerTableRecord
  2
PIANI_RIFERIMENTO
 70
0
 62
7
  6
CONTINUOUS
370
-3
390
F
  0
LAYER
  5
20C
100
AcDbSymbolTableRecord
100
AcDbLayerTableRecord
  2
PUNTI
 70
0
 62
7
  6
CONTINUOUS
370
-3
390
F
  0
LAYER
  5
20D
100
AcDbSymbolTableRecord
100
AcDbLayerTableRecord
  2
RACCORDO
 70
0
 62
7
  6
CONTINUOUS
370
-3
390
F
  0
LAYER
  5
20E
100
AcDbSymbolTableRecord
100
AcDbLayerTableRecord
  2
RGB__255__255__255__
 70
0
 62
7
  6
CONTINUOUS
370
-3
390
F
  0
LAYER
  5
20F
100
AcDbSymbolTableRecord
100
AcDbLayerTableRecord
  2
RGB____0____0____0__
 70
0
 62
7
  6
CONTINUOUS
370
-3
390
F
  0
LAYER
  5
210
100
AcDbSymbolTableRecord
100
AcDbLayerTableRecord
  2
SIMBOLI
 70
0
 62
7
  6
CONTINUOUS
370
-3
390
F
  0
LAYER
  5
211
100
AcDbSymbolTableRecord
100
AcDbLayerTableRecord
  2
SMUSSO
 70
0
 62
7
  6
CONTINUOUS
370
-3
390
F
  0
LAYER
  5
212
100
AcDbSymbolTableRecord
100
AcDbLayerTableRecord
  2
SNAPLINE
 70
0
 62
7
  6
CONTINUOUS
370
-3
390
F
  0
LAYER
  5
213
100
AcDbSymbolTableRecord
100
AcDbLayerTableRecord
  2
SUPERFICI
 70
0
 62
7
  6
CONTINUOUS
370
-3
390
F
  0
LAYER
  5
214
100
AcDbSymbolTableRecord
100
AcDbLayerTableRecord
  2
TRASH
 70
0
 62
7
  6
CONTINUOUS
370
-3
390
F
  0
LAYER
  5
215
100
AcDbSymbolTableRecord
100
AcDbLayerTableRecord
  2
XSEC_DATUMS
 70
0
 62
7
  6
CONTINUOUS
370
-3
390
F
  0
ENDTAB
  0
TABLE
  2
STYLE
  5
3
100
AcDbSymbolTable
 70
1
  0
STYLE
  5
11
100
AcDbSymbolTableRecord
100
AcDbTextStyleTableRecord
  2
STANDARD
 70
0
 40
0.0
 41
0.8
 50
0.0
 71
0
 42
0.2
  3
txt
  4

  0
STYLE
  5
216
100
AcDbSymbolTableRecord
100
AcDbTextStyleTableRecord
  2
TEXTSTYLE_1
 70
0
 40
0.0
 41
0.8
 50
0.0
 71
0
 42
0.2
  3
gdt
  4

  0
ENDTAB
  0
TABLE
  2
VIEW
  5
6
100
AcDbSymbolTable
 70
0
  0
ENDTAB
  0
TABLE
  2
UCS
  5
7
100
AcDbSymbolTable
 70
0
  0
ENDTAB
  0
TABLE
  2
APPID
  5
9
100
AcDbSymbolTable
 70
1
  0
APPID
  5
217
100
AcDbSymbolTableRecord
100
AcDbRegAppTableRecord
  2
ACAD
 70
0
  0
ENDTAB
  0
TABLE
  2
BLOCK_RECORD
  5
1
100
AcDbSymbolTable
 70
0
  0
BLOCK_RECORD
  5
218
100
AcDbSymbolTableRecord
100
AcDbBlockTableRecord
  2
*Model_Space
  0
BLOCK_RECORD
  5
219
100
AcDbSymbolTableRecord
100
AcDbBlockTableRecord
  2
*Paper_Space
  0
BLOCK_RECORD
  5
21A
100
AcDbSymbolTableRecord
100
AcDbBlockTableRecord
  2
_FILLED
  0
BLOCK_RECORD
  5
21B
100
AcDbSymbolTableRecord
100
AcDbBlockTableRecord
  2
*D0
  0
BLOCK_RECORD
  5
21C
100
AcDbSymbolTableRecord
100
AcDbBlockTableRecord
  2
*D1
  0
BLOCK_RECORD
  5
21D
100
AcDbSymbolTableRecord
100
AcDbBlockTableRecord
  2
*D2
  0
ENDTAB
  0
TABLE
  2
DIMSTYLE
  5
A
100
AcDbSymbolTable
 70
1
100
AcDbDimStyleTable
 71
0
  0
DIMSTYLE
105
21E
100
AcDbSymbolTableRecord
100
AcDbDimStyleTableRecord
  2
STANDARD
 70
0
  3

  4

 40
1.0
 41
3.0
 42
0.0625
 43
0.38
 44
0.18
 45
0.0
 46
0.0
 47
0.01
 48
0.01
140
3.0
141
0.09
142
0.0
143
25.4
144
1.0
145
0.0
146
1.0
147
0.09
 71
1.0
 72
0.0
 73
0
 74
0
 75
0
 76
0
 77
1
 78
8
170
0
171
2
172
0
173
0
174
0
175
0
176
0
177
0
178
0
270
2
271
2
272
2
273
2
274
2
275
0
280
0
281
0
282
0
283
1
284
8
285
0
286
0
287
3
288
0
340
11
341
21A
342
21A
343
21A
344
21A
  0
DIMSTYLE
105
21F
100
AcDbSymbolTableRecord
100
AcDbDimStyleTableRecord
  2
DIMSTYLE_1
 70
0
  3

  4

 40
1.0
 41
3.0
 42
0.0625
 43
0.38
 44
0.18
 45
0.0
 46
0.0
 47
0.0
 48
0.0
140
3.0
141
0.09
142
0.0
143
25.4
144
1.0
145
0.0
146
1.0
147
0.09
 71
0.0
 72
0.0
 73
0
 74
0
 75
0
 76
0
 77
1
 78
8
170
0
171
2
172
0
173
0
174
0
175
0
176
0
177
0
178
0
270
2
271
1
272
1
273
2
274
2
275
0
280
0
281
0
282
0
283
1
284
8
285
0
286
0
287
3
288
0
340
11
341
21A
342
21A
343
21A
344
21A
  0
DIMSTYLE
105
220
100
AcDbSymbolTableRecord
100
AcDbDimStyleTableRecord
  2
DIMSTYLE_2
 70
0
  3

  4

 40
1.0
 41
3.0
 42
0.0625
 43
0.38
 44
0.18
 45
0.0
 46
0.0
 47
0.0
 48
0.0
140
3.0
141
0.09
142
0.0
143
25.4
144
1.0
145
0.0
146
1.0
147
0.09
 71
0.0
 72
0.0
 73
0
 74
0
 75
0
 76
0
 77
1
 78
8
170
0
171
2
172
0
173
0
174
0
175
0
176
0
177
0
178
0
270
2
271
2
272
2
273
2
274
2
275
0
280
0
281
0
282
0
283
1
284
8
285
0
286
0
287
3
288
0
340
11
341
21A
342
21A
343
21A
344
21A
  0
ENDTAB
  0
ENDSEC
  0
SECTION
  2
BLOCKS
  0
BLOCK
  5
20
100
AcDbEntity
  8
0
100
AcDbBlockBegin
  2
*Model_Space
 70
0
 10
0.0
 20
0.0
 30
0.0
  3
*Model_Space
  1

  0
ENDBLK
  5
21
100
AcDbEntity
  8
0
100
AcDbBlockEnd
  0
BLOCK
  5
1C
100
AcDbEntity
  8
0
100
AcDbBlockBegin
  2
*Paper_Space
 70
0
 10
0.0
 20
0.0
 30
0.0
  3
*Paper_Space
  1

  0
ENDBLK
  5
1D
100
AcDbEntity
  8
0
100
AcDbBlockEnd
  0
BLOCK
  5
221
100
AcDbEntity
  8
0
100
AcDbBlockBegin
  2
_FILLED
 70
64
 10
0.0
 20
0.0
  3
_FILLED
  1

  0
SOLID
  5
222
100
AcDbEntity
  8
0
  6
BYBLOCK
 62
0
100
AcDbTrace
 10
0.0
 20
0.0
 11
-1.0
 21
0.3166666667
 12
-1.0
 22
-0.3166666667
 13
-1.0
 23
-0.3166666667
  0
ENDBLK
  5
223
100
AcDbEntity
  8
0
  6
BYBLOCK
 62
0
100
AcDbBlockEnd
  0
BLOCK
  5
224
100
AcDbEntity
  8
0
100
AcDbBlockBegin
 62
7
  6
CONTINUOUS
  2
*D0
 70
65
 10
0.0
 20
0.0
  3
*D0
  1

  0
LINE
  5
225
100
AcDbEntity
  8
0
100
AcDbLine
 62
7
  6
CONTINUOUS
 10
-11.0514422353
 20
22.431406897
 11
-11.0514422353
 21
31.6114422353
  0
LINE
  5
226
100
AcDbEntity
  8
0
100
AcDbLine
 62
7
  6
CONTINUOUS
 10
11.0514422353
 20
22.2482869155
 11
11.0514422353
 21
31.6114422353
  0
LINE
  5
227
100
AcDbEntity
  8
0
100
AcDbLine
 62
7
  6
CONTINUOUS
 10
-11.0514422353
 20
30.1114422353
 11
0.0
 21
30.1114422353
  0
LINE
  5
228
100
AcDbEntity
  8
0
100
AcDbLine
 62
7
  6
CONTINUOUS
 10
11.0514422353
 20
30.1114422353
 11
0.0
 21
30.1114422353
  0
INSERT
  5
229
100
AcDbEntity
  8
0
100
AcDbBlockReference
 62
7
  6
CONTINUOUS
  2
_FILLED
 10
-11.0514422353
 20
30.1114422353
 41
3.0
 42
3.0
 43
3.0
 50
180.0
  0
INSERT
  5
22A
100
AcDbEntity
  8
0
100
AcDbBlockReference
 62
7
  6
CONTINUOUS
  2
_FILLED
 10
11.0514422353
 20
30.1114422353
 41
3.0
 42
3.0
 43
3.0
  0
ENDBLK
  5
22B
100
AcDbEntity
  8
0
  6
BYBLOCK
 62
0
100
AcDbBlockEnd
  0
BLOCK
  5
22C
100
AcDbEntity
  8
0
100
AcDbBlockBegin
 62
7
  6
CONTINUOUS
  2
*D1
 70
65
 10
0.0
 20
0.0
  3
*D1
  1

  0
LINE
  5
22D
100
AcDbEntity
  8
0
100
AcDbLine
 62
7
  6
CONTINUOUS
 10
11.5740744488
 20
22.1114422353
 11
20.63
 21
22.1114422353
  0
LINE
  5
22E
100
AcDbEntity
  8
0
100
AcDbLine
 62
7
  6
CONTINUOUS
 10
11.9304046536
 20
-22.1114422353
 11
20.63
 21
-22.1114422353
  0
LINE
  5
22F
100
AcDbEntity
  8
0
100
AcDbLine
 62
7
  6
CONTINUOUS
 10
19.13
 20
22.1114422353
 11
19.13
 21
0.0
  0
LINE
  5
230
100
AcDbEntity
  8
0
100
AcDbLine
 62
7
  6
CONTINUOUS
 10
19.13
 20
-22.1114422353
 11
19.13
 21
0.0
  0
INSERT
  5
231
100
AcDbEntity
  8
0
100
AcDbBlockReference
 62
7
  6
CONTINUOUS
  2
_FILLED
 10
19.13
 20
22.1114422353
 41
3.0
 42
3.0
 43
3.0
 50
90.0
  0
INSERT
  5
232
100
AcDbEntity
  8
0
100
AcDbBlockReference
 62
7
  6
CONTINUOUS
  2
_FILLED
 10
19.13
 20
-22.1114422353
 41
3.0
 42
3.0
 43
3.0
 50
270.0
  0
ENDBLK
  5
233
100
AcDbEntity
  8
0
  6
BYBLOCK
 62
0
100
AcDbBlockEnd
  0
BLOCK
  5
234
100
AcDbEntity
  8
0
100
AcDbBlockBegin
 62
7
  6
CONTINUOUS
  2
*D2
 70
65
 10
0.0
 20
0.0
  3
*D2
  1

  0
LINE
  5
235
100
AcDbEntity
  8
0
100
AcDbLine
 62
7
  6
CONTINUOUS
 10
-34.3602191444
 20
10.2310194482
 11
-34.3602191444
 21
31.6114422353
  0
LINE
  5
236
100
AcDbEntity
  8
0
100
AcDbLine
 62
7
  6
CONTINUOUS
 10
-38.3602191444
 20
0.5
 11
-38.3602191444
 21
31.6114422353
  0
LINE
  5
237
100
AcDbEntity
  8
0
100
AcDbLine
 62
7
  6
CONTINUOUS
 10
-34.3602191444
 20
30.1114422353
 11
-30.3602191444
 21
30.1114422353
  0
LINE
  5
238
100
AcDbEntity
  8
0
100
AcDbLine
 62
7
  6
CONTINUOUS
 10
-30.3602191444
 20
30.1114422353
 11
-36.3602191444
 21
30.1114422353
  0
LINE
  5
239
100
AcDbEntity
  8
0
100
AcDbLine
 62
7
  6
CONTINUOUS
 10
-38.3602191444
 20
30.1114422353
 11
-48.7219932435
 21
30.1114422353
  0
LINE
  5
23A
100
AcDbEntity
  8
0
100
AcDbLine
 62
7
  6
CONTINUOUS
 10
-48.7219932435
 20
30.1114422353
 11
-36.3602191444
 21
30.1114422353
  0
INSERT
  5
23B
100
AcDbEntity
  8
0
100
AcDbBlockReference
 62
7
  6
CONTINUOUS
  2
_FILLED
 10
-34.3602191444
 20
30.1114422353
 41
3.0
 42
3.0
 43
3.0
 50
180.0
  0
INSERT
  5
23C
100
AcDbEntity
  8
0
100
AcDbBlockReference
 62
7
  6
CONTINUOUS
  2
_FILLED
 10
-38.3602191444
 20
30.1114422353
 41
3.0
 42
3.0
 43
3.0
  0
ENDBLK
  5
23D
100
AcDbEntity
  8
0
  6
BYBLOCK
 62
0
100
AcDbBlockEnd
  0
ENDSEC
  0
SECTION
  2
ENTITIES
  0
DIMENSION
  5
23E
100
AcDbEntity
  8
0
100
AcDbDimension
 62
7
  6
CONTINUOUS
  2
*D0
 10
11.0514422353
 20
30.1114422353
 11
-4.0714285714
 21
30.8614422353
 70
160
 71
2
 42
22.1028844706
  3
DIMSTYLE_1
100
AcDbAlignedDimension
 13
-11.0514422353
 23
22.431406897
 14
11.0514422353
 24
22.2482869155
100
AcDbRotatedDimension
  0
DIMENSION
  5
23F
100
AcDbEntity
  8
0
100
AcDbDimension
 62
7
  6
CONTINUOUS
  2
*D1
 10
19.13
 20
-22.1114422353
 11
18.38
 21
-4.3928571429
 70
160
 71
2
 42
44.2228844706
  3
DIMSTYLE_1
100
AcDbAlignedDimension
 13
11.5740744488
 23
22.1114422353
 14
11.9304046536
 24
-22.1114422353
 50
270.0
100
AcDbRotatedDimension
  0
DIMENSION
  5
240
100
AcDbEntity
  8
0
100
AcDbDimension
 62
7
  6
CONTINUOUS
  2
*D2
 10
-38.3602191444
 20
30.1114422353
 11
-48.7219932435
 21
30.8614422353
 70
160
 71
3
 42
4.0
  3
DIMSTYLE_2
100
AcDbAlignedDimension
 13
-34.3602191444
 23
10.2310194482
 14
-38.3602191444
 24
0.5
 50
180.0
100
AcDbRotatedDimension
  0
LWPOLYLINE
  5
241
100
AcDbEntity
  8
0
100
AcDbPolyline
 62
7
  6
CONTINUOUS
 90
3
 70
0
 43
0.3500000006
 10
2.3571427875
 20
33.0043014221
 10
3.2142856836
 20
33.8614438934
 10
3.2142856836
 20
30.8614429779
  0
LINE
  5
242
100
AcDbEntity
  8
0
100
AcDbLine
 62
7
  6
CONTINUOUS
 10
10.5516135728
 20
-22.1114422353
 11
-10.5516135728
 21
-22.1114422353
  0
LINE
  5
243
100
AcDbEntity
  8
RACCORDO
100
AcDbLine
 62
253
  6
CONTINUOUS
 10
10.5266513084
 20
-22.0864799709
 11
-10.5266513084
 21
-22.0864799709
  0
LINE
  5
244
100
AcDbEntity
  8
RACCORDO
100
AcDbLine
 62
253
  6
CONTINUOUS
 10
10.5140480307
 20
-21.2362251476
 11
-10.5140480307
 21
-21.2362251476
  0
LWPOLYLINE
  5
245
100
AcDbEntity
  8
RACCORDO
100
AcDbPolyline
 62
253
  6
CONTINUOUS
 90
16
 70
0
 10
-11.0138766931
 20
21.1615238967
 10
-11.0098965
 20
21.1692064438
 10
-11.0006612473
 20
21.1768075537
 10
-10.9862688116
 20
21.1842466688
 10
-10.9668717254
 20
21.1914449486
 10
-10.9426755615
 20
21.1983261048
 10
-10.9139367539
 20
21.2048172101
 10
-10.8809598798
 20
21.2108494709
 10
-10.8440944322
 20
21.2163589566
 10
-10.8037311155
 20
21.221287277
 10
-10.7602977052
 20
21.2255822012
 10
-10.7142545137
 20
21.2291982111
 10
-10.6660895124
 20
21.232096984
 10
-10.6163131598
 20
21.2342477985
 10
-10.5654529919
 20
21.2356278599
 10
-10.5140480307
 20
21.2362225423
  0
LWPOLYLINE
  5
246
100
AcDbEntity
  8
RACCORDO
100
AcDbPolyline
 62
253
  6
CONTINUOUS
 90
16
 70
0
 10
-11.0138766932
 20
-21.1615238967
 10
-11.0098974611
 20
-21.1692066574
 10
-11.0006630216
 20
-21.176807993
 10
-10.9862712449
 20
-21.1842473417
 10
-10.9668746607
 20
-21.1914458583
 10
-10.9426788416
 20
-21.1983272502
 10
-10.9139402246
 20
-21.2048185855
 10
-10.8809633926
 20
-21.2108510667
 10
-10.8440978473
 20
-21.216360759
 10
-10.803734304
 20
-21.2212892686
 10
-10.7603005516
 20
-21.2255843612
 10
-10.7142569181
 20
-21.2292005157
 10
-10.6660913919
 20
-21.232099407
 10
-10.6163144504
 20
-21.2342503114
 10
-10.5654536491
 20
-21.2356304329
 10
-10.5140480307
 20
-21.2362251442
  0
LWPOLYLINE
  5
247
100
AcDbEntity
  8
RACCORDO
100
AcDbPolyline
 62
253
  6
CONTINUOUS
 90
16
 70
0
 10
-11.0264799709
 20
-21.5866513084
 10
-11.0237085608
 20
-21.638873962
 10
-11.0154962044
 20
-21.6905251247
 10
-11.0019327487
 20
-21.7410393988
 10
-10.9831666165
 20
-21.7898638266
 10
-10.9594031858
 20
-21.8364639333
 10
-10.9309025464
 20
-21.8803295793
 10
-10.897976642
 20
-21.9209805652
 10
-10.8609858676
 20
-21.9579718672
 10
-10.8203351383
 20
-21.9908985062
 10
-10.7764694206
 20
-22.0194000157
 10
-10.729868886
 20
-22.0431643617
 10
-10.6810436815
 20
-22.0619313551
 10
-10.6305282932
 20
-22.0754955292
 10
-10.5788756908
 20
-22.0837083782
 10
-10.5266513085
 20
-22.086479971
  0
LWPOLYLINE
  5
248
100
AcDbEntity
  8
RACCORDO
100
AcDbPolyline
 62
253
  6
CONTINUOUS
 90
16
 70
0
 10
-11.0264799709
 20
21.5866513084
 10
-11.0237084581
 20
21.6388749344
 10
-11.015495829
 20
21.690526886
 10
-11.0019319847
 20
21.7410417469
 10
-10.9831654039
 20
21.789866548
 10
-10.9594015179
 20
21.8364668207
 10
-10.930900462
 20
21.8803324476
 10
-10.8979742277
 20
21.9209832467
 10
-10.8609832471
 20
21.9579742273
 10
-10.8203324481
 20
21.9909004617
 10
-10.7764668212
 20
22.0194015177
 10
-10.7298665484
 20
22.0431654037
 10
-10.6810417473
 20
22.0619319846
 10
-10.6305268863
 20
22.075495829
 10
-10.5788749345
 20
22.0837084581
 10
-10.5266513084
 20
22.0864799709
  0
LWPOLYLINE
  5
249
100
AcDbEntity
  8
RACCORDO
100
AcDbPolyline
 62
253
  6
CONTINUOUS
 90
7
 70
0
 10
10.9879958269
 20
-9.4905
 10
10.9840029648
 20
-9.4914768667
 10
10.9747570053
 20
-9.492443384
 10
10.960355904
 20
-9.4933893122
 10
10.9409522323
 20
-9.4943046298
 10
10.9167515612
 20
-9.4951796396
 10
10.8880102829
 20
-9.4960050712
  0
LWPOLYLINE
  5
24A
100
AcDbEntity
  8
RACCORDO
100
AcDbPolyline
 62
253
  6
CONTINUOUS
 90
8
 70
0
 10
-10.9879958269
 20
-9.4905
 10
-10.9840029683
 20
-9.4914768667
 10
-10.9747570117
 20
-9.4924433841
 10
-10.9603559128
 20
-9.4933893124
 10
-10.9409522429
 20
-9.4943046301
 10
-10.9167515731
 20
-9.4951796399
 10
-10.8880102954
 20
-9.4960050715
 10
-10.818168786
 20
-9.4974728385
  0
LWPOLYLINE
  5
24B
100
AcDbEntity
  8
RACCORDO
100
AcDbPolyline
 62
253
  6
CONTINUOUS
 90
10
 70
0
 10
-11.0181568186
 20
21.4616298466
 10
-11.0189431232
 20
21.4861047249
 10
-11.0197813036
 20
21.5083229653
 10
-11.0206563049
 20
21.5278932804
 10
-11.021569386
 20
21.5447694949
 10
-11.0225192882
 20
21.5589977841
 10
-11.0234871808
 20
21.5703253862
 10
-11.024466787
 20
21.5786680473
 10
-11.0254643837
 20
21.5841100214
 10
-11.0264799709
 20
21.5866513084
  0
LWPOLYLINE
  5
24C
100
AcDbEntity
  8
RACCORDO
100
AcDbPolyline
 62
253
  6
CONTINUOUS
 90
7
 70
0
 10
-10.5208205485
 20
21.968635596
 10
-10.5217310492
 20
22.0024936657
 10
-10.522678348
 20
22.0308586736
 10
-10.523645698
 20
22.0535589575
 10
-10.5246275169
 20
22.0704577735
 10
-10.5256293871
 20
22.0814535722
 10
-10.5266513084
 20
22.0864799709
  0
LINE
  5
24D
100
AcDbEntity
  8
RACCORDO
100
AcDbLine
 62
253
  6
CONTINUOUS
 10
-11.0167415586
 20
21.4058170317
 11
-11.0181568186
 21
21.4616298466
  0
LINE
  5
24E
100
AcDbEntity
  8
RACCORDO
100
AcDbLine
 62
253
  6
CONTINUOUS
 10
-10.5191111237
 20
21.8852903227
 11
-10.5208205485
 21
21.968635596
  0
LINE
  5
24F
100
AcDbEntity
  8
RACCORDO
100
AcDbLine
 62
253
  6
CONTINUOUS
 10
-11.0155723942
 20
21.3425178419
 11
-11.0167415586
 21
21.4058170317
  0
LINE
  5
250
100
AcDbEntity
  8
RACCORDO
100
AcDbLine
 62
253
  6
CONTINUOUS
 10
-11.014670723
 20
21.2729528004
 11
-11.0155723942
 21
21.3425178419
  0
LINE
  5
251
100
AcDbEntity
  8
RACCORDO
100
AcDbLine
 62
253
  6
CONTINUOUS
 10
-10.5169146285
 20
21.7251570648
 11
-10.5191111237
 21
21.8852903227
  0
LINE
  5
252
100
AcDbEntity
  8
RACCORDO
100
AcDbLine
 62
253
  6
CONTINUOUS
 10
-10.5148466607
 20
21.4599831598
 11
-10.5169146285
 21
21.7251570648
  0
LINE
  5
253
100
AcDbEntity
  8
RACCORDO
100
AcDbLine
 62
253
  6
CONTINUOUS
 10
-11.0138766932
 20
21.1615238967
 11
-11.014670723
 21
21.2729528004
  0
LINE
  5
254
100
AcDbEntity
  8
RACCORDO
100
AcDbLine
 62
253
  6
CONTINUOUS
 10
-10.9974325226
 20
15.9909603469
 11
-11.0138766932
 21
21.1615238967
  0
LINE
  5
255
100
AcDbEntity
  8
RACCORDO
100
AcDbLine
 62
253
  6
CONTINUOUS
 10
-10.4976037727
 20
16.0366547986
 11
-10.5140480307
 21
21.2362251476
  0
LINE
  5
256
100
AcDbEntity
  8
RACCORDO
100
AcDbLine
 62
253
  6
CONTINUOUS
 10
-10.5140480307
 20
21.2362251476
 11
-10.5148466607
 21
21.4599831598
  0
LINE
  5
257
100
AcDbEntity
  8
RACCORDO
100
AcDbLine
 62
253
  6
CONTINUOUS
 10
-10.98889248
 20
10.7928354503
 11
-10.9974325226
 21
15.9909603469
  0
LINE
  5
258
100
AcDbEntity
  8
RACCORDO
100
AcDbLine
 62
253
  6
CONTINUOUS
 10
-10.4890638443
 20
10.8091626086
 11
-10.4976037727
 21
16.0366547986
  0
LINE
  5
259
100
AcDbEntity
  8
0
100
AcDbLine
 62
7
  6
CONTINUOUS
 10
-11.0514422353
 20
21.6116135728
 11
-11.0514422353
 21
-21.6116135728
  0
LINE
  5
25A
100
AcDbEntity
  8
RACCORDO
100
AcDbLine
 62
253
  6
CONTINUOUS
 10
-10.9902843163
 20
-12.0939699785
 11
-10.98889248
 21
10.7928354503
  0
LINE
  5
25B
100
AcDbEntity
  8
RACCORDO
100
AcDbLine
 62
253
  6
CONTINUOUS
 10
-10.4904557226
 20
-12.1176863817
 11
-10.4890638443
 21
10.8091626086
  0
LINE
  5
25C
100
AcDbEntity
  8
RACCORDO
100
AcDbLine
 62
253
  6
CONTINUOUS
 10
-11.0008039357
 20
-17.2868145217
 11
-10.9902843163
 21
-12.0939699785
  0
LINE
  5
25D
100
AcDbEntity
  8
RACCORDO
100
AcDbLine
 62
253
  6
CONTINUOUS
 10
-10.500975233
 20
-17.339854897
 11
-10.4904557226
 21
-12.1176863817
  0
LINE
  5
25E
100
AcDbEntity
  8
RACCORDO
100
AcDbLine
 62
253
  6
CONTINUOUS
 10
-10.5152609176
 20
-21.5306766563
 11
-10.500975233
 21
-17.339854897
  0
LINE
  5
25F
100
AcDbEntity
  8
RACCORDO
100
AcDbLine
 62
253
  6
CONTINUOUS
 10
-11.0143326477
 20
-21.2368235579
 11
-11.0008039357
 21
-17.2868145217
  0
LINE
  5
260
100
AcDbEntity
  8
RACCORDO
100
AcDbLine
 62
253
  6
CONTINUOUS
 10
-10.5169142997
 20
-21.7251528619
 11
-10.5152609176
 21
-21.5306766563
  0
LINE
  5
261
100
AcDbEntity
  8
RACCORDO
100
AcDbLine
 62
253
  6
CONTINUOUS
 10
-11.0150841564
 20
-21.3081932214
 11
-11.0143326477
 21
-21.2368235579
  0
LINE
  5
262
100
AcDbEntity
  8
RACCORDO
100
AcDbLine
 62
253
  6
CONTINUOUS
 10
-10.5191102789
 20
-21.8852865879
 11
-10.5169142997
 21
-21.7251528619
  0
LINE
  5
263
100
AcDbEntity
  8
RACCORDO
100
AcDbLine
 62
253
  6
CONTINUOUS
 10
-11.0161223366
 20
-21.3749505517
 11
-11.0150841564
 21
-21.3081932214
  0
LINE
  5
264
100
AcDbEntity
  8
RACCORDO
100
AcDbLine
 62
253
  6
CONTINUOUS
 10
10.8880102829
 20
-9.4960050712
 11
10.8181687736
 21
-9.4974728381
  0
LWPOLYLINE
  5
265
100
AcDbEntity
  8
0
100
AcDbPolyline
 62
7
  6
CONTINUOUS
 90
3
 70
0
 43
0.3500000006
 10
1.3571429071
 20
31.1471586456
 10
1.2857142735
 20
30.9328696289
 10
1.1428571477
 20
30.647158493
  0
LINE
  5
266
100
AcDbEntity
  8
0
100
AcDbLine
 62
253
  6
CONTINUOUS
 10
10.5516135728
 20
22.1114422353
 11
10.5266513084
 21
22.0864799709
  0
LINE
  5
267
100
AcDbEntity
  8
RACCORDO
100
AcDbLine
 62
253
  6
CONTINUOUS
 10
10.8181687736
 20
-9.4974728381
 11
10.7343795892
 21
-9.4986458946
  0
LINE
  5
268
100
AcDbEntity
  8
RACCORDO
100
AcDbLine
 62
253
  6
CONTINUOUS
 10
10.7343795892
 20
-9.4986458946
 11
10.6401841195
 21
-9.499474661
  0
LINE
  5
269
100
AcDbEntity
  8
RACCORDO
100
AcDbLine
 62
253
  6
CONTINUOUS
 10
10.6401841195
 20
-9.499474661
 11
10.4881671644
 21
-9.4999999993
  0
LINE
  5
26A
100
AcDbEntity
  8
RACCORDO
100
AcDbLine
 62
253
  6
CONTINUOUS
 10
-10.5904154861
 20
-9.4997483763
 11
10.4881671644
 21
-9.5
  0
LINE
  5
26B
100
AcDbEntity
  8
RACCORDO
100
AcDbLine
 62
253
  6
CONTINUOUS
 10
-10.6883422333
 20
-9.4991058655
 11
-10.5904154861
 21
-9.4997483763
  0
LWPOLYLINE
  5
26C
100
AcDbEntity
  8
RACCORDO
100
AcDbPolyline
 62
253
  6
CONTINUOUS
 90
3
 70
0
 10
-10.818168786
 20
-9.4974728385
 10
-10.7778084852
 20
-9.4980996237
 10
-10.6883422333
 20
-9.4991058655
  0
LINE
  5
26D
100
AcDbEntity
  8
0
100
AcDbLine
 62
253
  6
CONTINUOUS
 10
10.5266513084
 20
-22.0864799709
 11
10.5516135728
 21
-22.1114422353
  0
LINE
  5
26E
100
AcDbEntity
  8
0
100
AcDbLine
 62
253
  6
CONTINUOUS
 10
11.0514422353
 20
21.6116135728
 11
11.0264799709
 21
21.5866513084
  0
LINE
  5
26F
100
AcDbEntity
  8
0
100
AcDbLine
 62
253
  6
CONTINUOUS
 10
11.0264799709
 20
-21.5866513084
 11
11.0514422353
 21
-21.6116135728
  0
LWPOLYLINE
  5
270
100
AcDbEntity
  8
RACCORDO
100
AcDbPolyline
 62
253
  6
CONTINUOUS
 90
8
 70
0
 10
-10.5266513084
 20
-22.0864799709
 10
-10.5256293033
 20
-22.0814536019
 10
-10.5246273547
 20
-22.070457797
 10
-10.5236454625
 20
-22.0535588376
 10
-10.5226780577
 20
-22.0308580893
 10
-10.5217307095
 20
-22.0024922519
 10
-10.5208201249
 20
-21.9686332738
 10
-10.5191102789
 20
-21.8852865879
  0
LWPOLYLINE
  5
271
100
AcDbEntity
  8
0
100
AcDbPolyline
 62
7
  6
CONTINUOUS
 90
2
 70
0
 43
0.3500000006
 10
18.3799997177
 20
-3.3928568802
 10
16.8800003929
 20
-3.3928568802
  0
LINE
  5
272
100
AcDbEntity
  8
SUPERFICI
100
AcDbLine
 62
7
  6
CONTINUOUS
 10
-1.5000000172
 20
0.7000003148
 11
-1.5020740847
 21
0.7328386422
  0
LINE
  5
273
100
AcDbEntity
  8
SUPERFICI
100
AcDbLine
 62
7
  6
CONTINUOUS
 10
-1.4962968847
 20
0.5951215167
 11
-1.5000000172
 21
0.7000003148
  0
LWPOLYLINE
  5
274
100
AcDbEntity
  8
0
100
AcDbPolyline
 62
7
  6
CONTINUOUS
 90
46
 70
0
 10
-1.5000002152
 20
0.7000017741
 10
-1.4962983178
 20
0.5951652915
 10
-1.4854721809
 20
0.4916806452
 10
-1.4675218043
 20
0.3895478403
 10
-1.44229818
 20
0.2882425124
 10
-1.4099503162
 20
0.1882890355
 10
-1.3709252372
 20
0.0912605235
 10
-1.3250895598
 20
-0.0027950389
 10
-1.2725766673
 20
-0.0939256289
 10
-1.2142337343
 20
-0.1807020754
 10
-1.15007041
 20
-0.262962508
 10
-1.0800770451
 20
-0.3408687939
 10
-1.0050718661
 20
-0.4134773707
 10
-0.9248223139
 20
-0.4808406764
 10
-0.8395609475
 20
-0.5429062738
 10
-0.7508036712
 20
-0.5985732883
 10
-0.6587090414
 20
-0.6476328448
 10
-0.5631185016
 20
-0.6902938221
 10
-0.4650722866
 20
-0.726081977
 10
-0.3642853824
 20
-0.7549736239
 10
-0.261042803
 20
-0.776992452
 10
-0.157239825
 20
-0.7917352801
 10
-0.0531366129
 20
-0.7990678913
 10
0.0515269979
 20
-0.7991245039
 10
0.1556362238
 20
-0.7919045893
 10
0.2594441391
 20
-0.7772776322
 10
0.3626976695
 20
-0.7553741463
 10
0.4635228094
 20
-0.7265851463
 10
0.5616552304
 20
-0.6908778032
 10
0.6573592609
 20
-0.6482849424
 10
0.7495538791
 20
-0.5992960597
 10
0.8383694809
 20
-0.5437212168
 10
0.9236756705
 20
-0.4817503484
 10
1.0040002389
 20
-0.4144427606
 10
1.0791410052
 20
-0.3418244802
 10
1.1493001504
 20
-0.2638694796
 10
1.2136120084
 20
-0.181558984
 10
1.2720666224
 20
-0.0947511683
 10
1.3246739492
 20
-0.0035878609
 10
1.3705981939
 20
0.0905242307
 10
1.4097135969
 20
0.1876458645
 10
1.4421459179
 20
0.2877162749
 10
1.4674366405
 20
0.3891464678
 10
1.4854329262
 20
0.4914067753
 10
1.4962876136
 20
0.5950268558
 10
1.5000007027
 20
0.7000067037
  0
LWPOLYLINE
  5
275
100
AcDbEntity
  8
RACCORDO
100
AcDbPolyline
 62
253
  6
CONTINUOUS
 90
12
 70
0
 10
-11.0264799709
 20
-21.5866513084
 10
-11.0254641326
 20
-21.5841111763
 10
-11.0244661856
 20
-21.5786660206
 10
-11.0234861298
 20
-21.5703158414
 10
-11.0225176243
 20
-21.5589761121
 10
-11.0215670101
 20
-21.5447313594
 10
-11.02065331
 20
-21.5278351628
 10
-11.0197777543
 20
-21.5082362811
 10
-11.0189391127
 20
-21.4859859557
 10
-11.0181527169
 20
-21.4614914897
 10
-11.017419671
 20
-21.4347145028
 10
-11.0161223366
 20
-21.3749505517
  0
LWPOLYLINE
  5
276
100
AcDbEntity
  8
SUPERFICI
100
AcDbPolyline
 62
7
  6
CONTINUOUS
 90
39
 70
0
 10
-1.794413129
 20
1.9729227167
 10
-1.8066708408
 20
1.9542317163
 10
-1.8174193645
 20
1.9347534123
 10
-1.8266587001
 20
1.9144878045
 10
-1.8344555126
 20
1.8933394171
 10
-1.840743137
 20
1.871403725
 10
-1.8453215786
 20
1.8489671541
 10
-1.8482046824
 20
1.8260537585
 10
-1.8493786033
 20
1.8026394836
 10
-1.8486018113
 20
1.7789385922
 10
-1.8458505295
 20
1.7548174605
 10
-1.8411485346
 20
1.7304097122
 10
-1.8343256267
 20
1.7063304813
 10
-1.8252290405
 20
1.6824880669
 10
-1.8140115411
 20
1.6589741704
 10
-1.8009612238
 20
1.6366790297
 10
-1.7860130345
 20
1.6157415538
 10
-1.7692320272
 20
1.5960228349
 10
-1.7511014588
 20
1.5779963871
 10
-1.7317237336
 20
1.5617719566
 10
-1.7109964473
 20
1.5472397984
 10
-1.6890956438
 20
1.53454419
 10
-1.6658138215
 20
1.523626496
 10
-1.6413584819
 20
1.5145453527
 10
-1.6165281738
 20
1.5076209455
 10
-1.5912982545
 20
1.5030018551
 10
-1.5656933668
 20
1.5005395014
 10
-1.5405859878
 20
1.5001083283
 10
-1.5161506963
 20
1.5017824646
 10
-1.4922129136
 20
1.5054877816
 10
-1.4691213802
 20
1.510876337
 10
-1.4469621292
 20
1.5179074151
 10
-1.4256491276
 20
1.5266217313
 10
-1.4052730171
 20
1.5367934899
 10
-1.385801386
 20
1.5484069392
 10
-1.3672666461
 20
1.5614778304
 10
-1.3498566749
 20
1.5758276222
 10
-1.3336340982
 20
1.5913968005
 10
-1.3185362903
 20
1.6082448787
  0
LWPOLYLINE
  5
277
100
AcDbEntity
  8
0
100
AcDbPolyline
 62
7
  6
CONTINUOUS
 90
10
 70
0
 10
-1.7943915053
 20
1.9729518995
 10
-1.7385907664
 20
2.0481080353
 10
-1.6798513492
 20
2.1206144174
 10
-1.6181732537
 20
2.1904710491
 10
-1.5534228667
 20
2.2578107596
 10
-1.4857338014
 20
2.3225007266
 10
-1.415506897
 20
2.3841424766
 10
-1.3428757666
 20
2.4426031884
 10
-1.2677067971
 20
2.4980156921
 10
-1.1899999885
 20
2.550379992
  0
LWPOLYLINE
  5
278
100
AcDbEntity
  8
SUPERFICI
100
AcDbPolyline
 62
7
  6
CONTINUOUS
 90
9
 70
0
 10
-1.3045632511
 20
1.6263718563
 10
-1.2431279639
 20
1.7074408736
 10
-1.1768676021
 20
1.7841198856
 10
-1.1057821657
 20
1.8564088977
 10
-1.0294250987
 20
1.9247047043
 10
-0.9482429572
 20
1.9886105214
 10
-0.8635754092
 20
2.0469359884
 10
-0.7758690109
 20
2.0992843235
 10
-0.6846826545
 20
2.1460495283
  0
LINE
  5
279
100
AcDbEntity
  8
SUPERFICI
100
AcDbLine
 62
7
  6
CONTINUOUS
 10
-1.3185362903
 20
1.6082448787
 11
-1.3045632511
 21
1.6263718563
  0
LWPOLYLINE
  5
27A
100
AcDbEntity
  8
0
100
AcDbPolyline
 62
7
  6
CONTINUOUS
 90
40
 70
0
 10
-1.3046228959
 20
1.6262908702
 10
-1.3185946219
 20
1.6081751215
 10
-1.3336917798
 20
1.5913369318
 10
-1.3499143699
 20
1.5757763014
 10
-1.367325343
 20
1.5614333196
 10
-1.3858617481
 20
1.5483678979
 10
-1.4053347325
 20
1.5367597704
 10
-1.4257115614
 20
1.5265935566
 10
-1.4470249696
 20
1.5178846375
 10
-1.4691843078
 20
1.5108588892
 10
-1.4922756804
 20
1.5054756481
 10
-1.5162129829
 20
1.5017755783
 10
-1.5406472529
 20
1.500106547
 10
-1.5657530621
 20
1.5005428
 10
-1.5913558387
 20
1.5030100916
 10
-1.6165829046
 20
1.5076335518
 10
-1.6414094337
 20
1.5145617504
 10
-1.6658602521
 20
1.5236461171
 10
-1.6891371597
 20
1.5345660718
 10
-1.7110325156
 20
1.5472627333
 10
-1.7317539606
 20
1.561794982
 10
-1.7511262177
 20
1.5780188801
 10
-1.7692518821
 20
1.596044195
 10
-1.7860283584
 20
1.6157611581
 10
-1.8009725843
 20
1.6366965276
 10
-1.8140195499
 20
1.658988995
 10
-1.825234265
 20
1.6824998676
 10
-1.8343286965
 20
1.7063398278
 10
-1.8411503017
 20
1.7304173527
 10
-1.8458516233
 20
1.7548239648
 10
-1.8486022563
 20
1.7789449145
 10
-1.8493784499
 20
1.8026467474
 10
-1.8482039549
 20
1.8260629183
 10
-1.8453196182
 20
1.8489790414
 10
-1.8407389483
 20
1.8714197337
 10
-1.8344484368
 20
1.8933603786
 10
-1.8266484046
 20
1.9145127409
 10
-1.8174056254
 20
1.9347807423
 10
-1.8066533257
 20
1.9542604618
 10
-1.7943915053
 20
1.9729518995
  0
LWPOLYLINE
  5
27B
100
AcDbEntity
  8
SUPERFICI
100
AcDbPolyline
 62
7
  6
CONTINUOUS
 90
9
 70
0
 10
-1.2677090537
 20
2.498014094
 10
-1.3428801149
 20
2.442599831
 10
-1.4155131721
 20
2.3841371988
 10
-1.4857415697
 20
2.3224937005
 10
-1.5534319633
 20
2.257801824
 10
-1.6181843194
 20
2.190459043
 10
-1.6798652935
 20
2.1205978466
 10
-1.73860823
 20
2.048085739
 10
-1.794413129
 20
1.9729227167
  0
LINE
  5
27C
100
AcDbEntity
  8
SUPERFICI
100
AcDbLine
 62
7
  6
CONTINUOUS
 10
-1.1899999885
 20
2.550379992
 11
-1.2677080207
 21
2.4980147901
  0
LWPOLYLINE
  5
27D
100
AcDbEntity
  8
SUPERFICI
100
AcDbPolyline
 62
7
  6
CONTINUOUS
 90
24
 70
0
 10
-3.6047746439
 20
0.9811082261
 10
-3.6365159287
 20
0.9671420789
 10
-3.6665177392
 20
0.9494765148
 10
-3.6938940318
 20
0.928921713
 10
-3.7185751272
 20
0.9054814316
 10
-3.7406307047
 20
0.8791519112
 10
-3.7593837592
 20
0.8507320546
 10
-3.7748094765
 20
0.8200469361
 10
-3.7869326708
 20
0.7872714803
 10
-3.7951507795
 20
0.7537293661
 10
-3.7992542035
 20
0.7193464475
 10
-3.7994525419
 20
0.6841968702
 10
-3.7957720291
 20
0.6498267516
 10
-3.7880606055
 20
0.6163679246
 10
-3.7764703308
 20
0.583688557
 10
-3.7614836182
 20
0.5529392693
 10
-3.7430257625
 20
0.5241824506
 10
-3.721171469
 20
0.4973557128
 10
-3.6966272671
 20
0.4734225107
 10
-3.6694170257
 20
0.4524267551
 10
-3.639516876
 20
0.4343245361
 10
-3.6075617405
 20
0.4199475776
 10
-3.5737632601
 20
0.4095731212
 10
-3.537909794
 20
0.4029239259
  0
LWPOLYLINE
  5
27E
100
AcDbEntity
  8
0
100
AcDbPolyline
 62
7
  6
CONTINUOUS
 90
10
 70
0
 10
-0.5899999947
 20
2.1872399918
 10
-0.6846858585
 20
2.1460481345
 10
-0.7758855002
 20
2.0992750986
 10
-0.8635989199
 20
2.046920878
 10
-0.9482722612
 20
1.9885891489
 10
-1.0294593804
 20
1.9246762208
 10
-1.1058218465
 20
1.856371039
 10
-1.176913516
 20
1.7840699155
 10
-1.2431805325
 20
1.7073765277
 10
-1.3046228959
 20
1.6262908702
  0
LINE
  5
27F
100
AcDbEntity
  8
SUPERFICI
100
AcDbLine
 62
7
  6
CONTINUOUS
 10
-0.6846826545
 20
2.1460495283
 11
-0.5899999947
 21
2.1872399918
  0
LWPOLYLINE
  5
280
100
AcDbEntity
  8
SUPERFICI
100
AcDbPolyline
 62
7
  6
CONTINUOUS
 90
10
 70
0
 10
-1.2576000058
 20
-0.9818400082
 10
-1.1619112205
 20
-1.0492654926
 10
-1.0632260379
 20
-1.1109703434
 10
-0.961544458
 20
-1.1669545643
 10
-0.85644169
 20
-1.2173761905
 10
-0.7483425247
 20
-1.2620771939
 10
-0.6385213349
 20
-1.3005834838
 10
-0.5274029114
 20
-1.3327370321
 10
-0.4145624633
 20
-1.3586958732
 10
-0.2999999905
 20
-1.3784600099
  0
LWPOLYLINE
  5
281
100
AcDbEntity
  8
SUPERFICI
100
AcDbPolyline
 62
7
  6
CONTINUOUS
 90
22
 70
0
 10
-0.2494773238
 20
-2.9665162336
 10
-0.2289222255
 20
-2.9938934361
 10
-0.2054817031
 20
-3.0185749466
 10
-0.1791519187
 20
-3.0406307543
 10
-0.1507317129
 20
-3.0593839649
 10
-0.1200460598
 20
-3.0748098128
 10
-0.0872699852
 20
-3.0869330677
 10
-0.0537274076
 20
-3.0951511384
 10
-0.019344306
 20
-3.0992543905
 10
0.0158052986
 20
-3.0994524602
 10
0.0501754247
 20
-3.0957716614
 10
0.0836342814
 20
-3.0880599683
 10
0.1163136596
 20
-3.0764694051
 10
0.1470629506
 20
-3.0614823605
 10
0.1758197957
 20
-3.0430240983
 10
0.2026465536
 20
-3.0211693504
 10
0.2265796906
 20
-2.9966247079
 10
0.247575266
 20
-2.9694138805
 10
0.2656772206
 20
-2.9395131535
 10
0.2800538428
 20
-2.9075579816
 10
0.2904278954
 20
-2.873760182
 10
0.2970766155
 20
-2.8379079333
  0
LWPOLYLINE
  5
282
100
AcDbEntity
  8
0
100
AcDbPolyline
 62
7
  6
CONTINUOUS
 90
10
 70
0
 10
-1.681799991
 20
-0.5575600038
 10
-1.7488243011
 20
-0.462576649
 10
-1.81025064
 20
-0.3644311501
 10
-1.8660790075
 20
-0.2631235091
 10
-1.9164979897
 20
-0.1582416141
 10
-1.9613190006
 20
-0.0501975838
 10
-1.9999762819
 20
0.0597722321
 10
-2.0322812475
 20
0.1712557131
 10
-2.0584224834
 20
0.2846649684
 10
-2.0783999897
 20
0.3999999918
  0
LWPOLYLINE
  5
283
100
AcDbEntity
  8
SUPERFICI
100
AcDbPolyline
 62
7
  6
CONTINUOUS
 90
10
 70
0
 10
-2.0783999897
 20
0.3999999918
 10
-2.0584224835
 20
0.2846649686
 10
-2.0322812476
 20
0.1712557134
 10
-1.9999762821
 20
0.0597722326
 10
-1.9613190009
 20
-0.0501975831
 10
-1.9164979901
 20
-0.1582416132
 10
-1.8660790079
 20
-0.2631235082
 10
-1.8102506404
 20
-0.3644311493
 10
-1.7488243014
 20
-0.4625766486
 10
-1.681799991
 20
-0.5575600038
  0
LWPOLYLINE
  5
284
100
AcDbEntity
  8
SUPERFICI
100
AcDbPolyline
 62
7
  6
CONTINUOUS
 90
6
 70
0
 10
-0.2999999905
 20
-2.8000000048
 10
-0.2974027365
 20
-2.8366627136
 10
-0.2911058664
 20
-2.8715865652
 10
-0.2811093802
 20
-2.9047715614
 10
-0.26714316
 20
-2.9365133235
 10
-0.2494773238
 20
-2.9665162336
  0
LINE
  5
285
100
AcDbEntity
  8
SUPERFICI
100
AcDbLine
 62
7
  6
CONTINUOUS
 10
-1.1899999885
 20
3.0999999926
 11
-1.1899999885
 21
2.550379992
  0
LINE
  5
286
100
AcDbEntity
  8
0
100
AcDbLine
 62
7
  6
CONTINUOUS
 10
-1.1899999885
 20
2.550379992
 11
-1.1899999885
 21
3.0999999926
  0
LINE
  5
287
100
AcDbEntity
  8
0
100
AcDbLine
 62
7
  6
CONTINUOUS
 10
-0.5899999947
 20
2.4999999912
 11
-0.5899999947
 21
2.1872399918
  0
LINE
  5
288
100
AcDbEntity
  8
SUPERFICI
100
AcDbLine
 62
7
  6
CONTINUOUS
 10
-0.5899999947
 20
2.1872399918
 11
-0.5899999947
 21
2.4999999912
  0
LINE
  5
289
100
AcDbEntity
  8
SUPERFICI
100
AcDbLine
 62
7
  6
CONTINUOUS
 10
-0.2999999905
 20
-1.3784600099
 11
-0.2999999905
 21
-2.8000000048
  0
LINE
  5
28A
100
AcDbEntity
  8
0
100
AcDbLine
 62
7
  6
CONTINUOUS
 10
-0.2999999905
 20
-2.8000004251
 11
-0.2999999905
 21
-1.3784600099
  0
LWPOLYLINE
  5
28B
100
AcDbEntity
  8
SUPERFICI
100
AcDbPolyline
 62
7
  6
CONTINUOUS
 90
27
 70
0
 10
-2.6869993966
 20
-1.562739413
 10
-2.7110734423
 20
-1.5904763937
 10
-2.731307538
 20
-1.6195985347
 10
-2.7477016838
 20
-1.6501058353
 10
-2.7602739465
 20
-1.6823969231
 10
-2.7690062592
 20
-1.7160731682
 10
-2.7738444212
 20
-1.7499386839
 10
-2.7747416126
 20
-1.7839429135
 10
-2.7717446534
 20
-1.8181364131
 10
-2.7649398028
 20
-1.8514749662
 10
-2.754186284
 20
-1.8840630661
 10
-2.7396248738
 20
-1.9157962205
 10
-2.7217641623
 20
-1.9453167364
 10
-2.700404203
 20
-1.9725295524
 10
-2.6757449423
 20
-1.9975297327
 10
-2.6488948096
 20
-2.0192447741
 10
-2.619838361
 20
-2.0374742502
 10
-2.5885910404
 20
-2.0524185906
 10
-2.5563076082
 20
-2.0636065768
 10
-2.523002967
 20
-2.0709502428
 10
-2.4886622141
 20
-2.0745375565
 10
-2.4543954026
 20
-2.0741611998
 10
-2.4201913875
 20
-2.0697954932
 10
-2.3860613136
 20
-2.0614661159
 10
-2.3531486686
 20
-2.0490427873
 10
-2.3218346148
 20
-2.0324820793
 10
-2.2917379898
 20
-2.0118274171
  0
LINE
  5
28C
100
AcDbEntity
  8
0
100
AcDbLine
 62
7
  6
CONTINUOUS
 10
-2.6869997032
 20
-1.5627397196
 11
-1.681799991
 21
-0.5575600038
  0
LINE
  5
28D
100
AcDbEntity
  8
SUPERFICI
100
AcDbLine
 62
7
  6
CONTINUOUS
 10
-1.681799991
 20
-0.5575600038
 11
-2.6869993966
 21
-1.562739413
  0
LINE
  5
28E
100
AcDbEntity
  8
0
100
AcDbLine
 62
7
  6
CONTINUOUS
 10
-1.2576000058
 20
-0.9818400082
 11
-2.2628503217
 21
-1.9870703269
  0
LINE
  5
28F
100
AcDbEntity
  8
SUPERFICI
100
AcDbLine
 62
7
  6
CONTINUOUS
 10
-2.2628587936
 20
-1.9870787986
 11
-1.2576000058
 21
-0.9818400082
  0
LWPOLYLINE
  5
290
100
AcDbEntity
  8
0
100
AcDbPolyline
 62
7
  6
CONTINUOUS
 90
28
 70
0
 10
-2.2628503217
 20
-1.9870703269
 10
-2.2917291314
 20
-2.0118205154
 10
-2.3218255247
 20
-2.0324766457
 10
-2.3531395016
 20
-2.0490387199
 10
-2.3860522444
 20
-2.0614633145
 10
-2.4201825708
 20
-2.0697938558
 10
-2.454386934
 20
-2.0741606197
 10
-2.4886541878
 20
-2.0745379238
 10
-2.5229954784
 20
-2.0709514508
 10
-2.5563006975
 20
-2.063608524
 10
-2.5885847338
 20
-2.0524211828
 10
-2.6198326987
 20
-2.037477386
 10
-2.6488898174
 20
-2.019248335
 10
-2.6757406595
 20
-1.997533596
 10
-2.7004006556
 20
-1.9725335998
 10
-2.7217613223
 20
-1.9453208453
 10
-2.739622714
 20
-1.9158002457
 10
-2.7541847764
 20
-1.8840668851
 10
-2.7649388636
 20
-1.8514785213
 10
-2.7717441819
 20
-1.8181396562
 10
-2.7747415251
 20
-1.783945787
 10
-2.7738446286
 20
-1.7499411655
 10
-2.7690066626
 20
-1.7160752262
 10
-2.7602744569
 20
-1.6823985352
 10
-2.7477022357
 20
-1.6501070429
 10
-2.7313080737
 20
-1.6195994006
 10
-2.7110738962
 20
-1.5904769592
 10
-2.6869997032
 20
-1.5627397196
  0
LINE
  5
291
100
AcDbEntity
  8
SUPERFICI
100
AcDbLine
 62
7
  6
CONTINUOUS
 10
-2.2917379898
 20
-2.0118274171
 11
-2.2628587936
 21
-1.9870787986
  0
LWPOLYLINE
  5
292
100
AcDbEntity
  8
SUPERFICI
100
AcDbPolyline
 62
7
  6
CONTINUOUS
 90
12
 70
0
 10
1.7055145681
 20
0.9847321144
 10
1.6765148046
 20
0.9734331205
 10
1.648861853
 20
0.9591193372
 10
1.6231507235
 20
0.9423311362
 10
1.5994043087
 20
0.9230735464
 10
1.5775997161
 20
0.9013415378
 10
1.5582632786
 20
0.8776603929
 10
1.5413900094
 20
0.8520455707
 10
1.5269848954
 20
0.8244816114
 10
1.5155892299
 20
0.7954474193
 10
1.5073834441
 20
0.7651026292
 10
1.5021874347
 20
0.7332896127
  0
LWPOLYLINE
  5
293
100
AcDbEntity
  8
SUPERFICI
100
AcDbPolyline
 62
7
  6
CONTINUOUS
 90
10
 70
0
 10
0.3000000033
 20
-1.3784600081
 10
0.4153400008
 20
-1.3584812656
 10
0.5287540967
 20
-1.3323385448
 10
0.6402422907
 20
-1.3000318431
 10
0.7502167135
 20
-1.2613725592
 10
0.8582652345
 20
-1.2165492879
 10
0.9631514623
 20
-1.1661278212
 10
1.0644632663
 20
-1.1102967542
 10
1.162612777
 20
-1.0488674848
 10
1.2575999945
 20
-0.9818400096
  0
LWPOLYLINE
  5
294
100
AcDbEntity
  8
SUPERFICI
100
AcDbPolyline
 62
7
  6
CONTINUOUS
 90
3
 70
0
 10
3.4999999999
 20
0.3999999918
 10
3.5366637723
 20
0.4025977426
 10
3.5715881393
 20
0.4088948045
  0
LWPOLYLINE
  5
295
100
AcDbEntity
  8
0
100
AcDbPolyline
 62
7
  6
CONTINUOUS
 90
2
 70
0
 43
0.3500000006
 10
18.3799997177
 20
-1.0357139511
 10
16.8800003929
 20
-1.0357139511
  0
LWPOLYLINE
  5
296
100
AcDbEntity
  8
0
100
AcDbPolyline
 62
7
  6
CONTINUOUS
 90
28
 70
0
 10
-3.5000028279
 20
0.3999999918
 10
-3.5379110201
 20
0.4029240515
 10
-3.5737642665
 20
0.4095733528
 10
-3.6075625672
 20
0.4199478954
 10
-3.6395175738
 20
0.4343249163
 10
-3.6694176347
 20
0.4524271781
 10
-3.6966277951
 20
0.473422969
 10
-3.7211719152
 20
0.4973562046
 10
-3.7430261347
 20
0.5241829685
 10
-3.761483918
 20
0.5529398021
 10
-3.7764705558
 20
0.5836890923
 10
-3.7880607574
 20
0.6163684511
 10
-3.7957721145
 20
0.6498272578
 10
-3.7994525684
 20
0.684197341
 10
-3.7992541779
 20
0.7193468713
 10
-3.7951507114
 20
0.7537297416
 10
-3.7869325718
 20
0.7872718078
 10
-3.7748093563
 20
0.8200472141
 10
-3.7593836244
 20
0.8507322866
 10
-3.7406305603
 20
0.8791521028
 10
-3.7185749799
 20
0.9054815862
 10
-3.6938938906
 20
0.9289218325
 10
-3.6665176052
 20
0.9494765991
 10
-3.6365158108
 20
0.9671421298
 10
-3.6047745762
 20
0.9811082514
 10
-3.5715892574
 20
0.9911049063
 10
-3.5366644984
 20
0.997402153
 10
-3.500000299
 20
0.9999999919
  0
LINE
  5
297
100
AcDbEntity
  8
SUPERFICI
100
AcDbLine
 62
7
  6
CONTINUOUS
 10
-3.537909794
 20
0.4029239259
 11
-3.500001342
 21
0.3999999918
  0
LWPOLYLINE
  5
298
100
AcDbEntity
  8
0
100
AcDbPolyline
 62
7
  6
CONTINUOUS
 90
10
 70
0
 10
-0.2999999905
 20
-1.3784600099
 10
-0.4145624627
 20
-1.3586958734
 10
-0.5274029105
 20
-1.3327370323
 10
-0.6385213339
 20
-1.3005834841
 10
-0.7483425238
 20
-1.2620771943
 10
-0.8564416893
 20
-1.2173761908
 10
-0.9615444575
 20
-1.1669545646
 10
-1.0632260375
 20
-1.1109703436
 10
-1.1619112203
 20
-1.0492654927
 10
-1.2576000058
 20
-0.9818400082
  0
LWPOLYLINE
  5
299
100
AcDbEntity
  8
SUPERFICI
100
AcDbPolyline
 62
7
  6
CONTINUOUS
 90
27
 70
0
 10
2.2627997761
 20
-1.9870197696
 10
2.2905430356
 20
-2.0110898845
 10
2.3196709578
 20
-2.0313193206
 10
2.3501835427
 20
-2.0477080798
 10
2.3824795258
 20
-2.0602741931
 10
2.4161601716
 20
-2.0689996321
 10
2.4500292741
 20
-2.0738303093
 10
2.4840362896
 20
-2.0747193507
 10
2.5182317619
 20
-2.0717136308
 10
2.5515711159
 20
-2.0648996842
 10
2.5841587575
 20
-2.0541366631
 10
2.6158902809
 20
-2.0395654136
 10
2.6454078929
 20
-2.0216950117
 10
2.6726164622
 20
-2.0003254867
 10
2.69761112
 20
-1.9756568061
 10
2.7193194676
 20
-1.9487979528
 10
2.7375410272
 20
-1.9197335819
 10
2.7524762765
 20
-1.8884790356
 10
2.7636542501
 20
-1.8561893288
 10
2.7709869489
 20
-1.8228791855
 10
2.7745623719
 20
-1.7885338806
 10
2.7741735504
 20
-1.754264257
 10
2.7697944258
 20
-1.7200590827
 10
2.7614510566
 20
-1.6859295903
 10
2.749014649
 20
-1.6530203211
 10
2.7324422715
 20
-1.62171279
 10
2.7117768556
 20
-1.5916254842
  0
LINE
  5
29A
100
AcDbEntity
  8
0
100
AcDbLine
 62
7
  6
CONTINUOUS
 10
2.2628000485
 20
-1.987020042
 11
1.2575999945
 21
-0.9818400096
  0
LINE
  5
29B
100
AcDbEntity
  8
SUPERFICI
100
AcDbLine
 62
7
  6
CONTINUOUS
 10
1.2575999945
 20
-0.9818400096
 11
2.2627997761
 21
-1.9870197696
  0
LWPOLYLINE
  5
29C
100
AcDbEntity
  8
SUPERFICI
100
AcDbPolyline
 62
7
  6
CONTINUOUS
 90
14
 70
0
 10
-1.5020740847
 20
0.7328386422
 10
-1.5071618747
 20
0.7643286691
 10
-1.5152638539
 20
0.7944732855
 10
-1.5265599396
 20
0.8234697998
 10
-1.5408700589
 20
0.8511199409
 10
-1.5576539938
 20
0.8768288949
 10
-1.5769065699
 20
0.9005736985
 10
-1.5986329616
 20
0.9223773159
 10
-1.6223084737
 20
0.9417138255
 10
-1.6479174718
 20
0.9585883577
 10
-1.6754755903
 20
0.972995783
 10
-1.7045050379
 20
0.9843947899
 10
-1.7348465509
 20
0.9926049415
 10
-1.7666593931
 20
0.9978066754
  0
LINE
  5
29D
100
AcDbEntity
  8
0
100
AcDbLine
 62
7
  6
CONTINUOUS
 10
0.3000000033
 20
-1.3784600081
 11
0.3000000033
 21
-2.8000026214
  0
LINE
  5
29E
100
AcDbEntity
  8
SUPERFICI
100
AcDbLine
 62
7
  6
CONTINUOUS
 10
0.3000000033
 20
-2.8000012331
 11
0.3000000033
 21
-1.3784600081
  0
LINE
  5
29F
100
AcDbEntity
  8
SUPERFICI
100
AcDbLine
 62
7
  6
CONTINUOUS
 10
0.5900000075
 20
2.4999999912
 11
0.5900000075
 21
2.1872399853
  0
LINE
  5
2A0
100
AcDbEntity
  8
0
100
AcDbLine
 62
7
  6
CONTINUOUS
 10
0.5900000075
 20
2.1872399853
 11
0.5900000075
 21
2.4999999912
  0
LINE
  5
2A1
100
AcDbEntity
  8
0
100
AcDbLine
 62
7
  6
CONTINUOUS
 10
1.1900000013
 20
3.0999999926
 11
1.1900000013
 21
2.5503800037
  0
LINE
  5
2A2
100
AcDbEntity
  8
SUPERFICI
100
AcDbLine
 62
7
  6
CONTINUOUS
 10
1.1900000013
 20
2.5503800037
 11
1.1900000013
 21
3.0999999926
  0
LINE
  5
2A3
100
AcDbEntity
  8
SUPERFICI
100
AcDbLine
 62
7
  6
CONTINUOUS
 10
1.5000002183
 20
0.7000023486
 11
1.4962892151
 21
0.5950737583
  0
LINE
  5
2A4
100
AcDbEntity
  8
SUPERFICI
100
AcDbLine
 62
7
  6
CONTINUOUS
 10
1.5021874347
 20
0.7332896127
 11
1.5000002183
 21
0.7000023486
  0
LWPOLYLINE
  5
2A5
100
AcDbEntity
  8
0
100
AcDbPolyline
 62
7
  6
CONTINUOUS
 90
16
 70
0
 10
1.5000007027
 20
0.7000067037
 10
1.5021874877
 20
0.733290419
 10
1.5073837532
 20
0.765104258
 10
1.5155894991
 20
0.7954482209
 10
1.5269851701
 20
0.8244820577
 10
1.5413903215
 20
0.8520460191
 10
1.5582636193
 20
0.8776608564
 10
1.5776000646
 20
0.9013419174
 10
1.5994046562
 20
0.9230738553
 10
1.6231510566
 20
0.9423313793
 10
1.6488621606
 20
0.9591195146
 10
1.6765150734
 20
0.973433237
 10
1.7055147721
 20
0.9847321821
 10
1.7356629159
 20
0.9928362286
 10
1.7671578456
 20
0.9979254985
 10
1.7999995613
 20
0.9999999919
  0
LINE
  5
2A6
100
AcDbEntity
  8
SUPERFICI
100
AcDbLine
 62
7
  6
CONTINUOUS
 10
0.2970766155
 20
-2.8379079333
 11
0.3000000033
 21
-2.8000012331
  0
LWPOLYLINE
  5
2A7
100
AcDbEntity
  8
0
100
AcDbPolyline
 62
7
  6
CONTINUOUS
 90
28
 70
0
 10
0.3000000033
 20
-2.8000026214
 10
0.2970765014
 20
-2.8379090656
 10
0.2904276862
 20
-2.8737610988
 10
0.2800535577
 20
-2.9075587233
 10
0.2656768828
 20
-2.9395137712
 10
0.2475748945
 20
-2.9694144146
 10
0.226579292
 20
-2.996625167
 10
0.2026461292
 20
-3.0211697349
 10
0.175819352
 20
-3.0430244167
 10
0.1470624981
 20
-3.0614826151
 10
0.1163132101
 20
-3.0764695942
 10
0.0836338454
 20
-3.0880600941
 10
0.0501750124
 20
-3.095771731
 10
0.0158049236
 20
-3.0994524817
 10
-0.0193446334
 20
-3.0992543711
 10
-0.0537276875
 20
-3.0951510876
 10
-0.0872702198
 20
-3.0869329967
 10
-0.1200462492
 20
-3.0748097311
 10
-0.1507318614
 20
-3.0593838786
 10
-0.1791520325
 20
-3.040630668
 10
-0.2054817864
 20
-3.0185748664
 10
-0.2289222814
 20
-2.9938933701
 10
-0.2494773528
 20
-2.9665161821
 10
-0.2671431653
 20
-2.9365132945
 10
-0.2811093702
 20
-2.9047715884
 10
-0.2911058512
 20
-2.8715866899
 10
-0.2974027247
 20
-2.8366629695
 10
-0.2999999905
 20
-2.8000004251
  0
LWPOLYLINE
  5
2A8
100
AcDbEntity
  8
SUPERFICI
100
AcDbPolyline
 62
7
  6
CONTINUOUS
 90
44
 70
0
 10
1.4962892151
 20
0.5950737583
 10
1.4854457153
 20
0.4915070102
 10
1.4674697187
 20
0.3893021096
 10
1.442209329
 20
0.287932729
 10
1.4098164426
 20
0.1879252056
 10
1.3707467487
 20
0.0908585413
 10
1.3248765445
 20
-0.0032077292
 10
1.2723295328
 20
-0.0943331328
 10
1.2139325112
 20
-0.1811172605
 10
1.1496742976
 20
-0.2634219118
 10
1.0795660741
 20
-0.341385284
 10
1.0044681843
 20
-0.4140215661
 10
0.9241754052
 20
-0.4813577691
 10
0.8388929597
 20
-0.5433668829
 10
0.75009686
 20
-0.5989820663
 10
0.6579174242
 20
-0.6480116822
 10
0.5622243342
 20
-0.6906473714
 10
0.4641026475
 20
-0.7263972108
 10
0.3632907523
 20
-0.7552272089
 10
0.2600502603
 20
-0.7771713607
 10
0.1562510642
 20
-0.7918397231
 10
0.0521447478
 20
-0.7991027148
 10
-0.0525202729
 20
-0.7990899184
 10
-0.156628857
 20
-0.7918001355
 10
-0.2604422238
 20
-0.7770982754
 10
-0.3636991541
 20
-0.7551194271
 10
-0.4645008501
 20
-0.7262676606
 10
-0.5625598641
 20
-0.6905204076
 10
-0.6581636438
 20
-0.6479002328
 10
-0.7502757341
 20
-0.5988789052
 10
-0.8390548928
 20
-0.5432491115
 10
-0.9243423621
 20
-0.4812181614
 10
-1.0046254137
 20
-0.4138797591
 10
-1.0796744321
 20
-0.3412850417
 10
-1.1497190328
 20
-0.2633828712
 10
-1.213935334
 20
-0.1811135404
 10
-1.2723338421
 20
-0.0943118786
 10
-1.3249040507
 20
-0.0031430598
 10
-1.3707905596
 20
0.0909571043
 10
-1.4098579056
 20
0.1880375693
 10
-1.4422415517
 20
0.2880493719
 10
-1.4674924871
 20
0.3894098212
 10
-1.4854610413
 20
0.4915913504
 10
-1.4962968847
 20
0.5951215167
  0
LWPOLYLINE
  5
2A9
100
AcDbEntity
  8
SUPERFICI
100
AcDbPolyline
 62
7
  6
CONTINUOUS
 90
10
 70
0
 10
1.6818000082
 20
-0.5575600083
 10
1.7492223358
 20
-0.4618750652
 10
1.8109242617
 20
-0.3631938792
 10
1.8669057861
 20
-0.2615164525
 10
1.9173249271
 20
-0.1564180127
 10
1.9620236665
 20
-0.0483233392
 10
2.0005279499
 20
0.0614932363
 10
2.032679759
 20
0.1726069327
 10
2.058637112
 20
0.2854425199
 10
2.0784000089
 20
0.3999999918
  0
LWPOLYLINE
  5
2AA
100
AcDbEntity
  8
0
100
AcDbPolyline
 62
7
  6
CONTINUOUS
 90
10
 70
0
 10
1.2575999945
 20
-0.9818400096
 10
1.1626127775
 20
-1.0488674846
 10
1.0644632671
 20
-1.1102967538
 10
0.9631514632
 20
-1.1661278207
 10
0.8582652354
 20
-1.2165492875
 10
0.7502167142
 20
-1.2613725589
 10
0.6402422912
 20
-1.300031843
 10
0.528754097
 20
-1.3323385447
 10
0.415340001
 20
-1.3584812656
 10
0.3000000033
 20
-1.3784600081
  0
LWPOLYLINE
  5
2AB
100
AcDbEntity
  8
SUPERFICI
100
AcDbPolyline
 62
7
  6
CONTINUOUS
 90
25
 70
0
 10
3.5715881393
 20
0.4088948045
 10
3.6047731008
 20
0.4188911775
 10
3.6365139932
 20
0.4328569094
 10
3.6665154802
 20
0.4505219518
 10
3.6938915526
 20
0.47107616
 10
3.7185725285
 20
0.4945157633
 10
3.7406280899
 20
0.5208445315
 10
3.7593812741
 20
0.5492636305
 10
3.7748072824
 20
0.5799479852
 10
3.7869309135
 20
0.6127226697
 10
3.7951496014
 20
0.6462640739
 10
3.7992537597
 20
0.6806463416
 10
3.7994529748
 20
0.7157953284
 10
3.7957734397
 20
0.7501649924
 10
3.7880630964
 20
0.7836235188
 10
3.776474003
 20
0.8163027226
 10
3.7614885273
 20
0.847052007
 10
3.7430319835
 20
0.8758089746
 10
3.7211790574
 20
0.9026360238
 10
3.6966361738
 20
0.9265697524
 10
3.6694272451
 20
0.9475662726
 10
3.6395283588
 20
0.9656694735
 10
3.6075742025
 20
0.9800476191
 10
3.5737763388
 20
0.9904234642
 10
3.537923205
 20
0.997074255
  0
LWPOLYLINE
  5
2AC
100
AcDbEntity
  8
SUPERFICI
100
AcDbPolyline
 62
7
  6
CONTINUOUS
 90
4
 70
0
 10
-3.4999999872
 20
0.9999999919
 10
-3.5366643471
 20
0.9974021523
 10
-3.5715892326
 20
0.9911048971
 10
-3.6047746112
 20
0.981108236
  0
LWPOLYLINE
  5
2AD
100
AcDbEntity
  8
SUPERFICI
100
AcDbPolyline
 62
7
  6
CONTINUOUS
 90
4
 70
0
 10
1.7999997204
 20
0.9999999919
 10
1.7671578577
 20
0.9979254878
 10
1.7356628069
 20
0.9928361954
 10
1.7055146654
 20
0.9847321405
  0
LINE
  5
2AE
100
AcDbEntity
  8
SUPERFICI
100
AcDbLine
 62
7
  6
CONTINUOUS
 10
3.5000000041
 20
0.3999999918
 11
2.0784000089
 21
0.3999999918
  0
LINE
  5
2AF
100
AcDbEntity
  8
0
100
AcDbLine
 62
7
  6
CONTINUOUS
 10
3.5000000041
 20
0.3999999918
 11
2.0784000089
 21
0.3999999918
  0
LINE
  5
2B0
100
AcDbEntity
  8
SUPERFICI
100
AcDbLine
 62
7
  6
CONTINUOUS
 10
-2.0783999897
 20
0.3999999918
 11
-3.4999999914
 21
0.3999999918
  0
LINE
  5
2B1
100
AcDbEntity
  8
0
100
AcDbLine
 62
7
  6
CONTINUOUS
 10
-2.0783999897
 20
0.3999999918
 11
-3.4999999914
 21
0.3999999918
  0
LINE
  5
2B2
100
AcDbEntity
  8
SUPERFICI
100
AcDbLine
 62
7
  6
CONTINUOUS
 10
3.5000134338
 20
0.9999999919
 11
1.7999997719
 21
0.9999999919
  0
LINE
  5
2B3
100
AcDbEntity
  8
0
100
AcDbLine
 62
7
  6
CONTINUOUS
 10
3.5000134338
 20
0.9999999919
 11
1.7999997719
 21
0.9999999919
  0
LINE
  5
2B4
100
AcDbEntity
  8
SUPERFICI
100
AcDbLine
 62
7
  6
CONTINUOUS
 10
-1.7999444213
 20
0.9999999919
 11
-3.4999999913
 21
0.9999999919
  0
LINE
  5
2B5
100
AcDbEntity
  8
0
100
AcDbLine
 62
7
  6
CONTINUOUS
 10
-1.7999444213
 20
0.9999999919
 11
-3.4999999913
 21
0.9999999919
  0
LINE
  5
2B6
100
AcDbEntity
  8
SUPERFICI
100
AcDbLine
 62
7
  6
CONTINUOUS
 10
-1.7666593931
 20
0.9978066754
 11
-1.7999435645
 21
0.9999999919
  0
LWPOLYLINE
  5
2B7
100
AcDbEntity
  8
0
100
AcDbPolyline
 62
7
  6
CONTINUOUS
 90
16
 70
0
 10
-1.799949036
 20
0.9999999919
 10
-1.766664514
 20
0.9978072502
 10
-1.7348512836
 20
0.9926059986
 10
-1.7045093448
 20
0.9843962369
 10
-1.6754794182
 20
0.9729975254
 10
-1.6479207833
 20
0.9585903031
 10
-1.6223112786
 20
0.941715888
 10
-1.598635273
 20
0.922379404
 10
-1.5769083976
 20
0.9005757263
 10
-1.5576553842
 20
0.8768308001
 10
-1.5408710565
 20
0.8511216112
 10
-1.5265605907
 20
0.8234711728
 10
-1.5152642477
 20
0.7944744715
 10
-1.5071621142
 20
0.7643298359
 10
-1.5020741034
 20
0.7328389369
 10
-1.5000002152
 20
0.7000017741
  0
LWPOLYLINE
  5
2B8
100
AcDbEntity
  8
0
100
AcDbPolyline
 62
7
  6
CONTINUOUS
 90
28
 70
0
 10
3.5000146387
 20
0.9999999919
 10
3.537922913
 20
0.9970743135
 10
3.5737759563
 20
0.9904235783
 10
3.6075737685
 20
0.980047786
 10
3.6395279219
 20
0.9656696935
 10
3.6694268444
 20
0.9475665428
 10
3.6966358186
 20
0.9265700607
 10
3.7211787515
 20
0.9026363523
 10
3.7430317362
 20
0.8758093112
 10
3.7614883354
 20
0.847052348
 10
3.7764738588
 20
0.8163030669
 10
3.7880629967
 20
0.7836238627
 10
3.7957733823
 20
0.7501653331
 10
3.7994529584
 20
0.7157956648
 10
3.7992537824
 20
0.6806466709
 10
3.7951496586
 20
0.646264389
 10
3.7869310007
 20
0.6127229605
 10
3.7748073952
 20
0.5799482448
 10
3.7593814059
 20
0.5492638572
 10
3.7406282317
 20
0.5208447239
 10
3.7185726738
 20
0.4945159199
 10
3.6938916993
 20
0.4710762842
 10
3.6665156177
 20
0.4505220493
 10
3.6365141195
 20
0.4328569837
 10
3.6047732431
 20
0.4188912305
 10
3.5715883345
 20
0.4088948379
 10
3.5366640477
 20
0.4025977583
 10
3.5000003826
 20
0.3999999918
  0
LINE
  5
2B9
100
AcDbEntity
  8
SUPERFICI
100
AcDbLine
 62
7
  6
CONTINUOUS
 10
3.537923205
 20
0.997074255
 11
3.5000148012
 21
0.9999999919
  0
LINE
  5
2BA
100
AcDbEntity
  8
0
100
AcDbLine
 62
7
  6
CONTINUOUS
 10
1.6818000082
 20
-0.5575600083
 11
2.6870194439
 21
-1.5627594472
  0
LINE
  5
2BB
100
AcDbEntity
  8
SUPERFICI
100
AcDbLine
 62
7
  6
CONTINUOUS
 10
2.6870184011
 20
-1.5627584045
 11
1.6818000082
 21
-0.5575600083
  0
LINE
  5
2BC
100
AcDbEntity
  8
SUPERFICI
100
AcDbLine
 62
7
  6
CONTINUOUS
 10
2.7117768556
 20
-1.5916254842
 11
2.6870184011
 21
-1.5627584045
  0
LWPOLYLINE
  5
2BD
100
AcDbEntity
  8
0
100
AcDbPolyline
 62
7
  6
CONTINUOUS
 90
28
 70
0
 10
2.6870194439
 20
-1.5627594472
 10
2.711777602
 20
-1.5916263979
 10
2.7324427727
 20
-1.6217135865
 10
2.7490149559
 20
-1.6530210122
 10
2.7614512315
 20
-1.6859301878
 10
2.7697945198
 20
-1.7200595985
 10
2.7741735811
 20
-1.7542647028
 10
2.7745623505
 20
-1.7885342697
 10
2.770986893
 20
-1.8228795297
 10
2.7636541638
 20
-1.8561896355
 10
2.7524761572
 20
-1.8884793151
 10
2.7375408789
 20
-1.9197338417
 10
2.7193193009
 20
-1.9487981866
 10
2.6976109432
 20
-1.9756570011
 10
2.6726162859
 20
-2.0003256366
 10
2.6454077409
 20
-2.0216951168
 10
2.6158901934
 20
-2.0395654707
 10
2.5841587583
 20
-2.0541366724
 10
2.551571193
 20
-2.0648996638
 10
2.5182318856
 20
-2.0717136064
 10
2.484036448
 20
-2.0747193404
 10
2.4500294726
 20
-2.0738303259
 10
2.4161604329
 20
-2.0689996925
 10
2.3824798555
 20
-2.0602743101
 10
2.3501839112
 20
-2.0477082481
 10
2.3196713237
 20
-2.0313195289
 10
2.2905433695
 20
-2.0110901275
 10
2.2628000485
 20
-1.987020042
  0
LWPOLYLINE
  5
2BE
100
AcDbEntity
  8
0
100
AcDbPolyline
 62
7
  6
CONTINUOUS
 90
10
 70
0
 10
2.0784000089
 20
0.3999999918
 10
2.0586371121
 20
0.2854425204
 10
2.0326797592
 20
0.1726069335
 10
2.0005279502
 20
0.0614932373
 10
1.9620236669
 20
-0.0483233382
 10
1.9173249274
 20
-0.156418012
 10
1.8669057864
 20
-0.2615164521
 10
1.8109242619
 20
-0.3631938789
 10
1.7492223359
 20
-0.4618750651
 10
1.6818000082
 20
-0.5575600083
  0
LWPOLYLINE
  5
2BF
100
AcDbEntity
  8
RACCORDO
100
AcDbPolyline
 62
253
  6
CONTINUOUS
 90
12
 70
0
 10
11.0264799709
 20
21.5866513084
 10
11.0254643837
 20
21.5841100213
 10
11.024466787
 20
21.5786680472
 10
11.0234871808
 20
21.5703253861
 10
11.0225192882
 20
21.558997784
 10
11.021569386
 20
21.5447694949
 10
11.0206563049
 20
21.5278932804
 10
11.0197813035
 20
21.5083229654
 10
11.0189431232
 20
21.4861047249
 10
11.0181568186
 20
21.4616298466
 10
11.0174232508
 20
21.4348517581
 10
11.0161242127
 20
21.3750566723
  0
LINE
  5
2C0
100
AcDbEntity
  8
SUPERFICI
100
AcDbLine
 62
7
  6
CONTINUOUS
 10
0.5900000075
 20
2.4999999912
 11
-0.5899999947
 21
2.4999999912
  0
LINE
  5
2C1
100
AcDbEntity
  8
0
100
AcDbLine
 62
7
  6
CONTINUOUS
 10
0.5900000075
 20
2.4999999912
 11
-0.5899999947
 21
2.4999999912
  0
LINE
  5
2C2
100
AcDbEntity
  8
SUPERFICI
100
AcDbLine
 62
7
  6
CONTINUOUS
 10
1.1900000013
 20
3.0999999926
 11
-1.1899999885
 21
3.0999999926
  0
LINE
  5
2C3
100
AcDbEntity
  8
0
100
AcDbLine
 62
7
  6
CONTINUOUS
 10
1.1900000013
 20
3.0999999926
 11
-1.1899999885
 21
3.0999999926
  0
LINE
  5
2C4
100
AcDbEntity
  8
SUPERFICI
100
AcDbLine
 62
7
  6
CONTINUOUS
 10
0.5900000075
 20
2.1872399853
 11
0.6859013019
 21
2.1453318547
  0
LINE
  5
2C5
100
AcDbEntity
  8
SUPERFICI
100
AcDbLine
 62
7
  6
CONTINUOUS
 10
0.6859013019
 20
2.1453318547
 11
0.7779574858
 21
2.0980073519
  0
LINE
  5
2C6
100
AcDbEntity
  8
SUPERFICI
100
AcDbLine
 62
7
  6
CONTINUOUS
 10
0.7779574858
 20
2.0980073519
 11
0.8661685629
 21
2.0452664711
  0
LWPOLYLINE
  5
2C7
100
AcDbEntity
  8
0
100
AcDbPolyline
 62
7
  6
CONTINUOUS
 90
10
 70
0
 10
1.1900000013
 20
2.5503800037
 10
1.2672970101
 20
2.4983389311
 10
1.3421676254
 20
2.4431772599
 10
1.4146118474
 20
2.3848949855
 10
1.4847970436
 20
2.3233437271
 10
1.5525558465
 20
2.2586718564
 10
1.6173861526
 20
2.1913244989
 10
1.6791205942
 20
2.1214500277
 10
1.7379265391
 20
2.0489000628
 10
1.7938039872
 20
1.9736746007
  0
LINE
  5
2C8
100
AcDbEntity
  8
SUPERFICI
100
AcDbLine
 62
7
  6
CONTINUOUS
 10
0.8661685629
 20
2.0452664711
 11
0.9509082304
 21
1.9866927884
  0
LWPOLYLINE
  5
2C9
100
AcDbEntity
  8
SUPERFICI
100
AcDbPolyline
 62
7
  6
CONTINUOUS
 90
3
 70
0
 10
0.9509082304
 20
1.9866927884
 10
1.0318027117
 20
1.9227027564
 10
1.107731222
 20
1.8545454546
  0
LWPOLYLINE
  5
2CA
100
AcDbEntity
  8
SUPERFICI
100
AcDbPolyline
 62
7
  6
CONTINUOUS
 90
26
 70
0
 10
1.3279306556
 20
1.5979443409
 10
1.3532662044
 20
1.573127396
 10
1.380609674
 20
1.551865408
 10
1.4103507015
 20
1.5340744163
 10
1.4420991927
 20
1.5198388318
 10
1.4746848655
 20
1.5094118836
 10
1.5080657923
 20
1.5028481984
 10
1.5422839007
 20
1.5000931509
 10
1.5762946908
 20
1.5012360921
 10
1.6102245844
 20
1.5063984115
 10
1.6439471598
 20
1.5154587193
 10
1.6760386514
 20
1.5281421967
 10
1.7064387835
 20
1.5446619417
 10
1.735207832
 20
1.5648048543
 10
1.7611028591
 20
1.5876568193
 10
1.7839287381
 20
1.6132665336
 10
1.8038805958
 20
1.6415852975
 10
1.8203008743
 20
1.671552902
 10
1.8331002954
 20
1.7031695263
 10
1.8423681373
 20
1.7364349888
 10
1.8477146769
 20
1.7702885404
 10
1.8491160781
 20
1.8047455845
 10
1.846596177
 20
1.8397907165
 10
1.839836759
 20
1.8743169771
 10
1.8287317527
 20
1.9079553806
 10
1.8133872294
 20
1.9410749133
  0
LINE
  5
2CB
100
AcDbEntity
  8
SUPERFICI
100
AcDbLine
 62
7
  6
CONTINUOUS
 10
1.1077313674
 20
1.8545453242
 11
1.1783206228
 21
1.7826368223
  0
LWPOLYLINE
  5
2CC
100
AcDbEntity
  8
SUPERFICI
100
AcDbPolyline
 62
7
  6
CONTINUOUS
 90
7
 70
0
 10
1.6173861731
 20
2.1913244757
 10
1.5525559465
 20
2.2586717418
 10
1.4847971059
 20
2.3233436601
 10
1.4146118712
 20
2.3848949654
 10
1.3421676419
 20
2.4431772472
 10
1.2672970186
 20
2.4983389251
 10
1.1900000013
 20
2.5503800037
  0
LWPOLYLINE
  5
2CD
100
AcDbEntity
  8
SUPERFICI
100
AcDbPolyline
 62
7
  6
CONTINUOUS
 90
3
 70
0
 10
1.1783206228
 20
1.7826368223
 10
1.2439440525
 20
1.7065609104
 10
1.3046016566
 20
1.6263175837
  0
LINE
  5
2CE
100
AcDbEntity
  8
SUPERFICI
100
AcDbLine
 62
7
  6
CONTINUOUS
 10
1.3046016566
 20
1.6263175837
 11
1.3279306556
 21
1.5979443409
  0
LWPOLYLINE
  5
2CF
100
AcDbEntity
  8
SUPERFICI
100
AcDbPolyline
 62
7
  6
CONTINUOUS
 90
3
 70
0
 10
1.7379261167
 20
2.0489005811
 10
1.6791204519
 20
2.1214502057
 10
1.617386195
 20
2.191324453
  0
LWPOLYLINE
  5
2D0
100
AcDbEntity
  8
0
100
AcDbPolyline
 62
7
  6
CONTINUOUS
 90
10
 70
0
 10
1.3046025793
 20
1.6263166
 10
1.243944425
 20
1.7065605041
 10
1.1783205922
 20
1.7826368352
 10
1.1077310808
 20
1.8545455985
 10
1.0318023634
 20
1.9227030794
 10
0.9509079675
 20
1.9866930022
 10
0.8661684757
 20
2.0452665314
 10
0.7779574155
 20
2.0980073939
 10
0.6859012594
 20
2.1453318765
 10
0.5900000075
 20
2.1872399853
  0
LINE
  5
2D1
100
AcDbEntity
  8
SUPERFICI
100
AcDbLine
 62
7
  6
CONTINUOUS
 10
1.7938031892
 20
1.9736755757
 11
1.7379261167
 21
2.0489005811
  0
LWPOLYLINE
  5
2D2
100
AcDbEntity
  8
0
100
AcDbPolyline
 62
7
  6
CONTINUOUS
 90
28
 70
0
 10
1.7938039872
 20
1.9736746007
 10
1.8133878736
 20
1.9410737571
 10
1.8287322441
 20
1.9079541062
 10
1.8398370985
 20
1.8743156478
 10
1.8465963593
 20
1.8397894134
 10
1.8491161041
 20
1.8047443708
 10
1.8477145658
 20
1.770287425
 10
1.8423679148
 20
1.7364339643
 10
1.8330999806
 20
1.7031686015
 10
1.8203004848
 20
1.6715520794
 10
1.8038801482
 20
1.6415845789
 10
1.78392825
 20
1.6132659212
 10
1.7611023484
 20
1.5876563106
 10
1.7352073184
 20
1.5648044473
 10
1.7064382849
 20
1.5446616336
 10
1.6760381807
 20
1.5281419768
 10
1.6439467311
 20
1.5154585753
 10
1.6102242108
 20
1.5063983327
 10
1.5762943768
 20
1.5012360636
 10
1.5422836507
 20
1.5000931564
 10
1.508065611
 20
1.5028482232
 10
1.4746847505
 20
1.5094119131
 10
1.4420991135
 20
1.5198388789
 10
1.4103506557
 20
1.5340744666
 10
1.3806097374
 20
1.5518653649
 10
1.3532664786
 20
1.5731271359
 10
1.3279307592
 20
1.5979442149
 10
1.3046025793
 20
1.6263166
  0
LINE
  5
2D3
100
AcDbEntity
  8
SUPERFICI
100
AcDbLine
 62
7
  6
CONTINUOUS
 10
1.8133872294
 20
1.9410749133
 11
1.7938031892
 21
1.9736755757
  0
LWPOLYLINE
  5
2D4
100
AcDbEntity
  8
RACCORDO
100
AcDbPolyline
 62
253
  6
CONTINUOUS
 90
8
 70
0
 10
10.5266513084
 20
22.0864799709
 10
10.5256293871
 20
22.0814535722
 10
10.5246275169
 20
22.0704577735
 10
10.523645698
 20
22.0535589575
 10
10.522678348
 20
22.0308586736
 10
10.5217310492
 20
22.0024936657
 10
10.5208205485
 20
21.968635596
 10
10.5191111237
 20
21.8852903227
  0
LWPOLYLINE
  5
2D5
100
AcDbEntity
  8
0
100
AcDbPolyline
 62
7
  6
CONTINUOUS
 90
3
 70
0
 43
0.3500000006
 10
18.094285183
 20
1.0357133102
 10
18.3085719337
 20
0.9642866592
 10
18.5942853355
 20
0.8214288254
  0
LINE
  5
2D6
100
AcDbEntity
  8
0
100
AcDbLine
 62
253
  6
CONTINUOUS
 10
-11.0514422353
 20
-21.6116135728
 11
-11.0264799709
 21
-21.5866513084
  0
LINE
  5
2D7
100
AcDbEntity
  8
0
100
AcDbLine
 62
253
  6
CONTINUOUS
 10
-10.5516135728
 20
-22.1114422353
 11
-10.5266513084
 21
-22.0864799709
  0
LWPOLYLINE
  5
2D8
100
AcDbEntity
  8
0
100
AcDbPolyline
 62
7
  6
CONTINUOUS
 90
10
 70
0
 43
0.3500000006
 10
17.8799995651
 20
0.9642866592
 10
18.022857399
 20
1.0357133102
 10
18.094285183
 20
1.0357133102
 10
18.2371430168
 20
0.8928577423
 10
18.2371430168
 20
0.8214288254
 10
18.1657140999
 20
0.7499999084
 10
18.094285183
 20
0.7499999084
 10
17.9514284821
 20
0.8214288254
 10
17.8799995651
 20
0.8928577423
 10
17.8799995651
 20
0.9642866592
  0
LINE
  5
2D9
100
AcDbEntity
  8
0
100
AcDbLine
 62
253
  6
CONTINUOUS
 10
-11.0264799709
 20
21.5866513084
 11
-11.0514422353
 21
21.6116135728
  0
LINE
  5
2DA
100
AcDbEntity
  8
0
100
AcDbLine
 62
253
  6
CONTINUOUS
 10
-10.5266513084
 20
22.0864799709
 11
-10.5516135728
 21
22.1114422353
  0
LWPOLYLINE
  5
2DB
100
AcDbEntity
  8
RACCORDO
100
AcDbPolyline
 62
253
  6
CONTINUOUS
 90
7
 70
0
 10
10.5208201249
 20
-21.9686332738
 10
10.5217307095
 20
-22.0024922519
 10
10.5226780577
 20
-22.0308580893
 10
10.5236454625
 20
-22.0535588376
 10
10.5246273547
 20
-22.070457797
 10
10.5256293033
 20
-22.0814536019
 10
10.5266513084
 20
-22.0864799709
  0
LINE
  5
2DC
100
AcDbEntity
  8
RACCORDO
100
AcDbLine
 62
253
  6
CONTINUOUS
 10
10.5191102789
 20
-21.8852865879
 11
10.5208201249
 21
-21.9686332738
  0
LINE
  5
2DD
100
AcDbEntity
  8
RACCORDO
100
AcDbLine
 62
253
  6
CONTINUOUS
 10
-10.8880102879
 20
9.4960050713
 11
-10.8181687786
 21
9.4974728383
  0
LINE
  5
2DE
100
AcDbEntity
  8
RACCORDO
100
AcDbLine
 62
253
  6
CONTINUOUS
 10
-10.8181687786
 20
9.4974728383
 11
-10.7343795934
 21
9.4986458948
  0
LINE
  5
2DF
100
AcDbEntity
  8
RACCORDO
100
AcDbLine
 62
253
  6
CONTINUOUS
 10
-10.7343795934
 20
9.4986458948
 11
-10.6401841222
 21
9.4994746612
  0
LINE
  5
2E0
100
AcDbEntity
  8
RACCORDO
100
AcDbLine
 62
253
  6
CONTINUOUS
 10
-10.6401841222
 20
9.4994746612
 11
-10.4881671644
 21
9.4999999996
  0
LINE
  5
2E1
100
AcDbEntity
  8
RACCORDO
100
AcDbLine
 62
253
  6
CONTINUOUS
 10
10.590415486
 20
9.4997483763
 11
-10.4881671644
 21
9.5
  0
LINE
  5
2E2
100
AcDbEntity
  8
RACCORDO
100
AcDbLine
 62
253
  6
CONTINUOUS
 10
10.6883422333
 20
9.4991058655
 11
10.590415486
 21
9.4997483763
  0
LINE
  5
2E3
100
AcDbEntity
  8
RACCORDO
100
AcDbLine
 62
253
  6
CONTINUOUS
 10
10.7778084851
 20
9.4980996237
 11
10.6883422333
 21
9.4991058655
  0
LWPOLYLINE
  5
2E4
100
AcDbEntity
  8
RACCORDO
100
AcDbPolyline
 62
253
  6
CONTINUOUS
 90
10
 70
0
 10
11.0181527169
 20
-21.4614914897
 10
11.0189391127
 20
-21.4859859557
 10
11.0197777543
 20
-21.5082362811
 10
11.02065331
 20
-21.5278351628
 10
11.0215670101
 20
-21.5447313594
 10
11.0225176243
 20
-21.5589761122
 10
11.0234861298
 20
-21.5703158414
 10
11.0244661856
 20
-21.5786660206
 10
11.0254641326
 20
-21.5841111763
 10
11.0264799709
 20
-21.5866513084
  0
LINE
  5
2E5
100
AcDbEntity
  8
RACCORDO
100
AcDbLine
 62
253
  6
CONTINUOUS
 10
11.016738871
 20
-21.4056933754
 11
11.0181527169
 21
-21.4614914897
  0
LINE
  5
2E6
100
AcDbEntity
  8
RACCORDO
100
AcDbLine
 62
253
  6
CONTINUOUS
 10
11.0155711136
 20
-21.3424327347
 11
11.016738871
 21
-21.4056933754
  0
LINE
  5
2E7
100
AcDbEntity
  8
RACCORDO
100
AcDbLine
 62
253
  6
CONTINUOUS
 10
10.5169142997
 20
-21.7251528619
 11
10.5191102789
 21
-21.8852865879
  0
LINE
  5
2E8
100
AcDbEntity
  8
RACCORDO
100
AcDbLine
 62
253
  6
CONTINUOUS
 10
11.0146703475
 20
-21.2729143474
 11
11.0155711136
 21
-21.3424327347
  0
LINE
  5
2E9
100
AcDbEntity
  8
RACCORDO
100
AcDbLine
 62
253
  6
CONTINUOUS
 10
10.5148466646
 20
-21.4599830018
 11
10.5169142997
 21
-21.7251528619
  0
LINE
  5
2EA
100
AcDbEntity
  8
RACCORDO
100
AcDbLine
 62
253
  6
CONTINUOUS
 10
11.0138766932
 20
-21.1615238967
 11
11.0146703475
 21
-21.2729143474
  0
LINE
  5
2EB
100
AcDbEntity
  8
RACCORDO
100
AcDbLine
 62
253
  6
CONTINUOUS
 10
10.4976037732
 20
-16.0366548119
 11
10.5140480307
 21
-21.2362251476
  0
LINE
  5
2EC
100
AcDbEntity
  8
RACCORDO
100
AcDbLine
 62
253
  6
CONTINUOUS
 10
10.9974324428
 20
-15.9909275752
 11
11.0138766932
 21
-21.1615238967
  0
LINE
  5
2ED
100
AcDbEntity
  8
RACCORDO
100
AcDbLine
 62
253
  6
CONTINUOUS
 10
10.5140480307
 20
-21.2362251476
 11
10.5148466646
 21
-21.4599830018
  0
LINE
  5
2EE
100
AcDbEntity
  8
RACCORDO
100
AcDbLine
 62
253
  6
CONTINUOUS
 10
10.4890638437
 20
-10.809162614
 11
10.4976037732
 21
-16.0366548119
  0
LINE
  5
2EF
100
AcDbEntity
  8
RACCORDO
100
AcDbLine
 62
253
  6
CONTINUOUS
 10
10.9888924616
 20
-10.7928222982
 11
10.9974324428
 21
-15.9909275752
  0
LINE
  5
2F0
100
AcDbEntity
  8
RACCORDO
100
AcDbLine
 62
253
  6
CONTINUOUS
 10
10.485835169
 20
1.0555621241
 11
10.4890638437
 21
-10.809162614
  0
LINE
  5
2F1
100
AcDbEntity
  8
RACCORDO
100
AcDbLine
 62
253
  6
CONTINUOUS
 10
10.985663832
 20
1.0545216112
 11
10.9888924616
 21
-10.7928222982
  0
LINE
  5
2F2
100
AcDbEntity
  8
0
100
AcDbLine
 62
7
  6
CONTINUOUS
 10
11.0514422353
 20
21.6116135728
 11
11.0514422353
 21
-21.6116135728
  0
LINE
  5
2F3
100
AcDbEntity
  8
RACCORDO
100
AcDbLine
 62
253
  6
CONTINUOUS
 10
10.4923428018
 20
13.4252942234
 11
10.485835169
 21
1.0555621241
  0
LINE
  5
2F4
100
AcDbEntity
  8
RACCORDO
100
AcDbLine
 62
253
  6
CONTINUOUS
 10
10.9921714406
 20
13.3939726076
 11
10.985663832
 21
1.0545216112
  0
LINE
  5
2F5
100
AcDbEntity
  8
RACCORDO
100
AcDbLine
 62
253
  6
CONTINUOUS
 10
10.5048394573
 20
18.6410336052
 11
10.4923428018
 21
13.4252942234
  0
LINE
  5
2F6
100
AcDbEntity
  8
RACCORDO
100
AcDbLine
 62
253
  6
CONTINUOUS
 10
11.0046682314
 20
18.5804252298
 11
10.9921714406
 21
13.3939726076
  0
LINE
  5
2F7
100
AcDbEntity
  8
RACCORDO
100
AcDbLine
 62
253
  6
CONTINUOUS
 10
10.5152608966
 20
21.5306779274
 11
10.5048394573
 21
18.6410336052
  0
LINE
  5
2F8
100
AcDbEntity
  8
RACCORDO
100
AcDbLine
 62
253
  6
CONTINUOUS
 10
11.0143327731
 20
21.2368459471
 11
11.0046682314
 21
18.5804252298
  0
LINE
  5
2F9
100
AcDbEntity
  8
RACCORDO
100
AcDbLine
 62
253
  6
CONTINUOUS
 10
10.5169146285
 20
21.7251570648
 11
10.5152608966
 21
21.5306779274
  0
LINE
  5
2FA
100
AcDbEntity
  8
RACCORDO
100
AcDbLine
 62
253
  6
CONTINUOUS
 10
11.015084922
 20
21.3082533785
 11
11.0143327731
 21
21.2368459471
  0
LINE
  5
2FB
100
AcDbEntity
  8
RACCORDO
100
AcDbLine
 62
253
  6
CONTINUOUS
 10
10.5191111237
 20
21.8852903227
 11
10.5169146285
 21
21.7251570648
  0
LINE
  5
2FC
100
AcDbEntity
  8
RACCORDO
100
AcDbLine
 62
253
  6
CONTINUOUS
 10
11.0161242127
 20
21.3750566723
 11
11.015084922
 21
21.3082533785
  0
LWPOLYLINE
  5
2FD
100
AcDbEntity
  8
RACCORDO
100
AcDbPolyline
 62
253
  6
CONTINUOUS
 90
16
 70
0
 10
11.0264799709
 20
21.5866513084
 10
11.0237085996
 20
21.6388735973
 10
11.0154963459
 20
21.690524463
 10
11.0019330371
 20
21.7410385151
 10
10.9831670751
 20
21.7898627998
 10
10.9594038183
 20
21.8364628405
 10
10.930903339
 20
21.8803284908
 10
10.8979775626
 20
21.9209795447
 10
10.8609868701
 20
21.957970966
 10
10.8203361707
 20
21.9908977572
 10
10.7764704213
 20
22.0193994387
 10
10.7298697895
 20
22.04316396
 10
10.6810444317
 20
22.0619311116
 10
10.6305288403
 20
22.075495413
 10
10.5788759856
 20
22.0837083472
 10
10.5266513085
 20
22.086479971
  0
LWPOLYLINE
  5
2FE
100
AcDbEntity
  8
RACCORDO
100
AcDbPolyline
 62
253
  6
CONTINUOUS
 90
16
 70
0
 10
11.0264799709
 20
-21.5866513084
 10
11.0237084581
 20
-21.6388749344
 10
11.015495829
 20
-21.6905268861
 10
11.0019319847
 20
-21.741041747
 10
10.9831654038
 20
-21.7898665481
 10
10.9594015179
 20
-21.8364668208
 10
10.930900462
 20
-21.8803324477
 10
10.8979742276
 20
-21.9209832468
 10
10.860983247
 20
-21.9579742274
 10
10.820332448
 20
-21.9909004618
 10
10.776466821
 20
-22.0194015178
 10
10.7298665483
 20
-22.0431654038
 10
10.6810417472
 20
-22.0619319847
 10
10.6305268862
 20
-22.0754958291
 10
10.5788749345
 20
-22.0837084581
 10
10.5266513084
 20
-22.0864799709
  0
LWPOLYLINE
  5
2FF
100
AcDbEntity
  8
RACCORDO
100
AcDbPolyline
 62
253
  6
CONTINUOUS
 90
7
 70
0
 10
-10.9879958269
 20
9.4905
 10
-10.9840029662
 20
9.4914768667
 10
-10.9747570079
 20
9.492443384
 10
-10.9603559075
 20
9.4933893123
 10
-10.9409522366
 20
9.4943046299
 10
-10.916751566
 20
9.4951796397
 10
-10.8880102879
 20
9.4960050713
  0
LWPOLYLINE
  5
300
100
AcDbEntity
  8
RACCORDO
100
AcDbPolyline
 62
253
  6
CONTINUOUS
 90
9
 70
0
 10
10.9879958269
 20
9.4905
 10
10.9840029682
 20
9.4914768667
 10
10.9747570116
 20
9.4924433841
 10
10.9603559127
 20
9.4933893124
 10
10.9409522429
 20
9.4943046301
 10
10.916751573
 20
9.4951796399
 10
10.8880102953
 20
9.4960050715
 10
10.8550329074
 20
9.4967721801
 10
10.7778084851
 20
9.4980996237
  0
LWPOLYLINE
  5
301
100
AcDbEntity
  8
0
100
AcDbPolyline
 62
7
  6
CONTINUOUS
 90
10
 70
0
 43
0.3500000006
 10
1.2857142735
 20
31.3614431305
 10
1.3571429071
 20
31.2185852966
 10
1.3571429071
 20
31.1471586456
 10
1.2142857814
 20
31.0043008118
 10
1.1428571477
 20
31.0043008118
 10
1.0714285848
 20
31.0757274628
 10
1.0714285848
 20
31.1471586456
 10
1.1428571477
 20
31.2900119476
 10
1.2142857814
 20
31.3614431305
 10
1.2857142735
 20
31.3614431305
  0
LWPOLYLINE
  5
302
100
AcDbEntity
  8
0
100
AcDbPolyline
 62
7
  6
CONTINUOUS
 90
3
 70
0
 43
0.3500000006
 10
17.7371428642
 20
-0.5357137985
 10
17.7371428642
 20
-2.0357142563
 10
15.3799999352
 20
-1.3928574028
  0
LWPOLYLINE
  5
303
100
AcDbEntity
  8
0
100
AcDbPolyline
 62
7
  6
CONTINUOUS
 90
3
 70
0
 43
0.3500000006
 10
17.7371428642
 20
-2.8928567276
 10
17.7371428642
 20
-4.3928571854
 10
15.3799999352
 20
-3.7500003319
  0
LWPOLYLINE
  5
304
100
AcDbEntity
  8
0
100
AcDbPolyline
 62
7
  6
CONTINUOUS
 90
7
 70
0
 43
0.3500000006
 10
18.3799997177
 20
3.5357140732
 10
18.3799997177
 20
2.0357136154
 10
16.2371424065
 20
3.5357140732
 10
15.8085711708
 20
3.5357140732
 10
15.3799999352
 20
3.1071428375
 10
15.3799999352
 20
2.4642848511
 10
16.0228567886
 20
2.0357136154
  0
LWPOLYLINE
  5
305
100
AcDbEntity
  8
RACCORDO
100
AcDbPolyline
 62
253
  6
CONTINUOUS
 90
16
 70
0
 10
11.013876693
 20
-21.1615238967
 10
11.0098961887
 20
-21.1692063518
 10
11.0006606727
 20
-21.1768073667
 10
10.9862680235
 20
-21.1842463858
 10
10.9668707748
 20
-21.19144457
 10
10.9426744993
 20
-21.1983256327
 10
10.9139356299
 20
-21.2048166483
 10
10.8809587422
 20
-21.2108488247
 10
10.8440933262
 20
-21.2163582328
 10
10.803730083
 20
-21.2212864835
 10
10.7602967834
 20
-21.2255813472
 10
10.7142537351
 20
-21.2291973067
 10
10.6660889038
 20
-21.2320960401
 10
10.616312742
 20
-21.2342468266
 10
10.5654527791
 20
-21.235626872
 10
10.5140480308
 20
-21.2362215505
  0
LWPOLYLINE
  5
306
100
AcDbEntity
  8
RACCORDO
100
AcDbPolyline
 62
253
  6
CONTINUOUS
 90
16
 70
0
 10
11.0138766932
 20
21.1615238967
 10
11.0098974597
 20
21.1692066572
 10
11.000663019
 20
21.1768079927
 10
10.9862712413
 20
21.1842473412
 10
10.9668746564
 20
21.1914458576
 10
10.9426788368
 20
21.1983272491
 10
10.9139402194
 20
21.2048185843
 10
10.8809633874
 20
21.2108510651
 10
10.8440978422
 20
21.2163607572
 10
10.8037342993
 20
21.2212892666
 10
10.7603005474
 20
21.225584359
 10
10.7142569145
 20
21.2292005133
 10
10.6660913891
 20
21.2320994044
 10
10.6163144484
 20
21.2342503089
 10
10.565453648
 20
21.2356304304
 10
10.5140480307
 20
21.236225142
  0
LINE
  5
307
100
AcDbEntity
  8
RACCORDO
100
AcDbLine
 62
253
  6
CONTINUOUS
 10
10.5140480307
 20
21.2362251476
 11
-10.5140480307
 21
21.2362251476
  0
LINE
  5
308
100
AcDbEntity
  8
RACCORDO
100
AcDbLine
 62
253
  6
CONTINUOUS
 10
10.5266513084
 20
22.0864799709
 11
-10.5266513084
 21
22.0864799709
  0
LINE
  5
309
100
AcDbEntity
  8
0
100
AcDbLine
 62
7
  6
CONTINUOUS
 10
10.5516135728
 20
22.1114422353
 11
-10.5516135728
 21
22.1114422353
  0
LWPOLYLINE
  5
30A
100
AcDbEntity
  8
0
100
AcDbPolyline
 62
7
  6
CONTINUOUS
 90
7
 70
0
 43
0.3500000006
 10
-0.2142857063
 20
30.8614429779
 10
-1.7142856507
 20
30.8614429779
 10
-0.2142857063
 20
33.0043014221
 10
-0.2142857063
 20
33.4328703918
 10
-0.6428571367
 20
33.8614438934
 10
-1.2857142735
 20
33.8614438934
 10
-1.7142856507
 20
33.218585907
  0
LWPOLYLINE
  5
30B
100
AcDbEntity
  8
0
100
AcDbPolyline
 62
7
  6
CONTINUOUS
 90
7
 70
0
 43
0.3500000006
 10
-2.5714285469
 20
30.8614429779
 10
-4.0714284382
 20
30.8614429779
 10
-2.5714285469
 20
33.0043014221
 10
-2.5714285469
 20
33.4328703918
 10
-3.0000000658
 20
33.8614438934
 10
-3.6428572025
 20
33.8614438934
 10
-4.0714284382
 20
33.218585907
  0
LINE
  5
30C
100
AcDbEntity
  8
RACCORDO
100
AcDbLine
 62
7
  6
CONTINUOUS
 10
-36.313489562
 20
-22.0864799709
 11
-35.3602191444
 21
-22.1114422353
  0
LINE
  5
30D
100
AcDbEntity
  8
0
100
AcDbLine
 62
7
  6
CONTINUOUS
 10
-36.313489562
 20
-22.0864799709
 11
-35.3602191444
 21
-22.1114422353
  0
LINE
  5
30E
100
AcDbEntity
  8
0
100
AcDbLine
 62
253
  6
CONTINUOUS
 10
-36.313489562
 20
-21.5866513084
 11
-35.3602191444
 21
-21.6116135728
  0
LWPOLYLINE
  5
30F
100
AcDbEntity
  8
RACCORDO
100
AcDbPolyline
 62
253
  6
CONTINUOUS
 90
4
 70
0
 10
-37.2527432602
 20
-21.2320960401
 10
-37.2656741411
 20
-21.2342468266
 10
-37.2734757125
 20
-21.235626872
 10
-37.2760652928
 20
-21.2362215505
  0
LINE
  5
310
100
AcDbEntity
  8
RACCORDO
100
AcDbLine
 62
253
  6
CONTINUOUS
 10
-37.1848077063
 20
-21.2212864835
 11
-37.2527432602
 21
-21.2320960401
  0
LWPOLYLINE
  5
311
100
AcDbEntity
  8
RACCORDO
100
AcDbPolyline
 62
253
  6
CONTINUOUS
 90
3
 70
0
 10
-36.7947893191
 20
-21.1615238967
 10
-36.8455291961
 20
-21.1692063518
 10
-37.1848077063
 20
-21.2212864835
  0
LWPOLYLINE
  5
312
100
AcDbEntity
  8
0
100
AcDbPolyline
 62
7
  6
CONTINUOUS
 90
2
 70
0
 43
0.3500000006
 10
-47.7219940796
 20
30.8614429779
 10
-47.7219940796
 20
32.3614434357
  0
LINE
  5
313
100
AcDbEntity
  8
0
100
AcDbLine
 62
7
  6
CONTINUOUS
 10
-34.3602191444
 20
-13.2689805518
 11
-35.3602191444
 21
-13.3213883311
  0
LINE
  5
314
100
AcDbEntity
  8
RACCORDO
100
AcDbLine
 62
253
  6
CONTINUOUS
 10
-38.2673133174
 20
-9.499924109
 11
-38.2699609607
 21
-9.4999999993
  0
LINE
  5
315
100
AcDbEntity
  8
RACCORDO
100
AcDbLine
 62
253
  6
CONTINUOUS
 10
-37.7831397302
 20
-9.4905
 11
-38.2673133174
 21
-9.499924109
  0
LINE
  5
316
100
AcDbEntity
  8
0
100
AcDbLine
 62
7
  6
CONTINUOUS
 10
-34.3602191444
 20
-9.7310194482
 11
-35.3602191444
 21
-9.6786116689
  0
LWPOLYLINE
  5
317
100
AcDbEntity
  8
RACCORDO
100
AcDbPolyline
 62
253
  6
CONTINUOUS
 90
10
 70
0
 10
-36.7947893191
 20
21.1615238967
 10
-36.9800378354
 20
19.8719852003
 10
-37.1464462889
 20
18.5804252298
 10
-37.2940146795
 20
17.2868439853
 10
-37.4227668582
 20
15.9909603469
 10
-37.532678974
 20
14.6930554344
 10
-37.6236794744
 20
13.3939726076
 10
-37.6957445084
 20
12.0939929862
 10
-37.7488979271
 20
10.7928354503
 10
-37.7831397302
 20
9.4905
  0
LWPOLYLINE
  5
318
100
AcDbEntity
  8
RACCORDO
100
AcDbPolyline
 62
253
  6
CONTINUOUS
 90
19
 70
0
 10
-36.7947893191
 20
-21.1615238967
 10
-36.7874799296
 20
-21.1996934077
 10
-36.7773771186
 20
-21.2368235579
 10
-36.7644808859
 20
-21.2729143474
 10
-36.7486781604
 20
-21.3081932214
 10
-36.7300820133
 20
-21.3424327347
 10
-36.7090316585
 20
-21.3749505517
 10
-36.685487161
 20
-21.4056933754
 10
-36.6594884559
 20
-21.4347145028
 10
-36.6314945618
 20
-21.4614914897
 10
-36.6014633193
 20
-21.4859859557
 10
-36.5694368878
 20
-21.5082362811
 10
-36.5360007646
 20
-21.5278351628
 10
-36.5011079649
 20
-21.5447313594
 10
-36.4648054733
 20
-21.5589761122
 10
-36.4278197421
 20
-21.5703158414
 10
-36.3903929218
 20
-21.5786660206
 10
-36.3522828618
 20
-21.5841111763
 10
-36.313489562
 20
-21.5866513084
  0
LWPOLYLINE
  5
319
100
AcDbEntity
  8
RACCORDO
100
AcDbPolyline
 62
253
  6
CONTINUOUS
 90
10
 70
0
 10
-37.7831397302
 20
-9.4905
 10
-37.7488986322
 20
-10.7928222982
 10
-37.6957458439
 20
-12.0939699785
 10
-37.6236813653
 20
-13.393943041
 10
-37.5326814807
 20
-14.693022617
 10
-37.4227699059
 20
-15.9909275752
 10
-37.2940177876
 20
-17.2868145217
 10
-37.1464488415
 20
-18.5804023251
 10
-36.980039352
 20
-19.8719721168
 10
-36.7947893191
 20
-21.1615238967
  0
LWPOLYLINE
  5
31A
100
AcDbEntity
  8
RACCORDO
100
AcDbPolyline
 62
253
  6
CONTINUOUS
 90
10
 70
0
 10
-37.7831397302
 20
9.4905
 10
-37.8187618395
 20
7.381529647
 10
-37.8454784237
 20
5.2725447223
 10
-37.863289483
 20
3.1635452259
 10
-37.8721950204
 20
1.0545216112
 10
-37.8721950327
 20
-1.0545165753
 10
-37.8632895108
 20
-3.1635406936
 10
-37.8454784516
 20
-5.2725411972
 10
-37.818761858
 20
-7.3815276327
 10
-37.7831397302
 20
-9.4905
  0
LINE
  5
31B
100
AcDbEntity
  8
RACCORDO
100
AcDbLine
 62
253
  6
CONTINUOUS
 10
-36.313489562
 20
21.5866513084
 11
-36.3159219486
 21
21.690524463
  0
LINE
  5
31C
100
AcDbEntity
  8
RACCORDO
100
AcDbLine
 62
253
  6
CONTINUOUS
 10
-36.3159219486
 20
21.690524463
 11
-36.3176766344
 21
21.7898627998
  0
LWPOLYLINE
  5
31D
100
AcDbEntity
  8
RACCORDO
100
AcDbPolyline
 62
253
  6
CONTINUOUS
 90
11
 70
0
 10
-36.3176766344
 20
21.7898627998
 10
-36.3186769825
 20
21.8803284908
 10
-36.3188792747
 20
21.9209795447
 10
-36.3188792934
 20
21.957970966
 10
-36.3186770362
 20
21.9908977572
 10
-36.3182747152
 20
22.0193994387
 10
-36.3176767329
 20
22.04316396
 10
-36.3168896343
 20
22.0619311116
 10
-36.3159220351
 20
22.075495413
 10
-36.3147845261
 20
22.0837083472
 10
-36.3134895587
 20
22.086479971
  0
LWPOLYLINE
  5
31E
100
AcDbEntity
  8
RACCORDO
100
AcDbPolyline
 62
253
  6
CONTINUOUS
 90
9
 70
0
 10
-36.3188793098
 20
-21.9209832468
 10
-36.3188793095
 20
-21.9579742274
 10
-36.3186770344
 20
-21.9909004618
 10
-36.3182746987
 20
-22.0194015178
 10
-36.3176767065
 20
-22.0431654038
 10
-36.3168896043
 20
-22.0619319847
 10
-36.3159220083
 20
-22.0754958291
 10
-36.3147845102
 20
-22.0837084581
 10
-36.313489562
 20
-22.0864799709
  0
LINE
  5
31F
100
AcDbEntity
  8
0
100
AcDbLine
 62
7
  6
CONTINUOUS
 10
-35.3602191444
 20
-22.1114422353
 11
-35.3602191444
 21
22.1114422353
  0
LINE
  5
320
100
AcDbEntity
  8
RACCORDO
100
AcDbLine
 62
253
  6
CONTINUOUS
 10
-36.3182746999
 20
-21.8364668208
 11
-36.3188793098
 21
-21.9209832468
  0
LINE
  5
321
100
AcDbEntity
  8
RACCORDO
100
AcDbLine
 62
253
  6
CONTINUOUS
 10
-36.3168896062
 20
-21.741041747
 11
-36.3182746999
 21
-21.8364668208
  0
LWPOLYLINE
  5
322
100
AcDbEntity
  8
RACCORDO
100
AcDbPolyline
 62
253
  6
CONTINUOUS
 90
3
 70
0
 10
-36.313489562
 20
-21.5866513084
 10
-36.3147845112
 20
-21.6388749344
 10
-36.3168896062
 20
-21.741041747
  0
LINE
  5
323
100
AcDbEntity
  8
0
100
AcDbLine
 62
253
  6
CONTINUOUS
 10
-34.7392847619
 20
-13.288846539
 11
-34.7392847619
 21
-9.711153461
  0
LINE
  5
324
100
AcDbEntity
  8
0
100
AcDbLine
 62
253
  6
CONTINUOUS
 10
-34.7392847619
 20
9.711153461
 11
-34.7392847619
 21
13.288846539
  0
LINE
  5
325
100
AcDbEntity
  8
0
100
AcDbLine
 62
7
  6
CONTINUOUS
 10
-34.3602191444
 20
-13.2689805518
 11
-34.3602191444
 21
-9.7310194482
  0
LINE
  5
326
100
AcDbEntity
  8
0
100
AcDbLine
 62
7
  6
CONTINUOUS
 10
-34.3602191444
 20
9.7310194482
 11
-34.3602191444
 21
13.2689805518
  0
LINE
  5
327
100
AcDbEntity
  8
0
100
AcDbLine
 62
7
  6
CONTINUOUS
 10
-34.3602191444
 20
9.7310194482
 11
-35.3602191444
 21
9.6786116689
  0
LWPOLYLINE
  5
328
100
AcDbEntity
  8
RACCORDO
100
AcDbPolyline
 62
253
  6
CONTINUOUS
 90
3
 70
0
 10
-37.7831397302
 20
9.4905
 10
-38.2673133535
 20
9.4999241097
 10
-38.2699609972
 20
9.5
  0
LINE
  5
329
100
AcDbEntity
  8
0
100
AcDbLine
 62
7
  6
CONTINUOUS
 10
-34.3602191444
 20
13.2689805518
 11
-35.3602191444
 21
13.3213883311
  0
LWPOLYLINE
  5
32A
100
AcDbEntity
  8
RACCORDO
100
AcDbPolyline
 62
253
  6
CONTINUOUS
 90
19
 70
0
 10
-36.313489562
 20
21.5866513084
 10
-36.3522732715
 20
21.5841100213
 10
-36.3903699526
 20
21.5786680472
 10
-36.4277796054
 20
21.5703253861
 10
-36.4647419336
 20
21.558997784
 10
-36.5010172333
 20
21.5447694949
 10
-36.5358863937
 20
21.5278932804
 10
-36.5693013476
 20
21.5083229654
 10
-36.6013101621
 20
21.4861047249
 10
-36.6313379268
 20
21.4616298466
 10
-36.6593517494
 20
21.4348517581
 10
-36.6853845222
 20
21.4058170317
 10
-36.7089600115
 20
21.3750566723
 10
-36.73003311
 20
21.3425178419
 10
-36.748648925
 20
21.3082533785
 10
-36.7644665445
 20
21.2729528004
 10
-36.7773723314
 20
21.2368459471
 10
-36.7874799229
 20
21.1997029793
 10
-36.7947893191
 20
21.1615238967
  0
LINE
  5
32B
100
AcDbEntity
  8
0
100
AcDbLine
 62
253
  6
CONTINUOUS
 10
-35.3602191444
 20
21.6116135728
 11
-36.313489562
 21
21.5866513084
  0
LINE
  5
32C
100
AcDbEntity
  8
RACCORDO
100
AcDbLine
 62
7
  6
CONTINUOUS
 10
-35.3602191444
 20
22.1114422353
 11
-36.3134895587
 21
22.086479971
  0
LINE
  5
32D
100
AcDbEntity
  8
0
100
AcDbLine
 62
7
  6
CONTINUOUS
 10
-35.3602191444
 20
22.1114422353
 11
-36.313489562
 21
22.0864799709
  0
LWPOLYLINE
  5
32E
100
AcDbEntity
  8
0
100
AcDbPolyline
 62
7
  6
CONTINUOUS
 90
3
 70
0
 43
0.3500000006
 10
-47.221993927
 20
31.5043009644
 10
-48.7219943848
 20
31.5043009644
 10
-48.0791363983
 20
33.8614438934
  0
LINE
  5
32F
100
AcDbEntity
  8
RACCORDO
100
AcDbLine
 62
253
  6
CONTINUOUS
 10
-36.7947893191
 20
21.1615238967
 11
-37.1532651238
 21
21.2163607572
  0
LWPOLYLINE
  5
330
100
AcDbEntity
  8
RACCORDO
100
AcDbPolyline
 62
253
  6
CONTINUOUS
 90
6
 70
0
 10
-37.1532651238
 20
21.2163607572
 10
-37.2348412699
 20
21.2292005133
 10
-37.2527654686
 20
21.2320994044
 10
-37.2656971389
 20
21.2342503089
 10
-37.2734992256
 20
21.2356304304
 10
-37.2760890393
 20
21.236225142
  0
ARC
  5
331
100
AcDbEntity
  8
RACCORDO
100
AcDbCircle
 62
7
  6
CONTINUOUS
 10
461.6397808556
 20
0.0
 40
500.0
100
AcDbArc
 50
178.91131468
 51
181.08868532
  0
ARC
  5
332
100
AcDbEntity
  8
RACCORDO
100
AcDbCircle
 62
7
  6
CONTINUOUS
 10
51.7137925357
 20
-7.79
 40
90.0
100
AcDbArc
 50
181.08868532
 51
188.592302252
  0
ARC
  5
333
100
AcDbEntity
  8
RACCORDO
100
AcDbCircle
 62
7
  6
CONTINUOUS
 10
51.7137925357
 20
7.79
 40
90.0
100
AcDbArc
 50
171.407697748
 51
178.91131468
  0
ARC
  5
334
100
AcDbEntity
  8
RACCORDO
100
AcDbCircle
 62
7
  6
CONTINUOUS
 10
-36.2873126137
 20
-21.0868226459
 40
1.0
100
AcDbArc
 50
188.592302252
 51
268.5
  0
ARC
  5
335
100
AcDbEntity
  8
RACCORDO
100
AcDbCircle
 62
7
  6
CONTINUOUS
 10
-36.2873126137
 20
21.0868226459
 40
1.0
100
AcDbArc
 50
91.5
 51
171.407697748
  0
ELLIPSE
  5
336
100
AcDbEntity
  8
0
100
AcDbEllipse
 62
7
  6
CONTINUOUS
 10
10.551270839
 20
21.611270839
 30
0.0
 11
-0.35379574
 21
-0.35379574
 31
0.0
 40
0.999315002
 41
2.3565371065
 42
3.9266482006
  0
ELLIPSE
  5
337
100
AcDbEntity
  8
0
100
AcDbEllipse
 62
7
  6
CONTINUOUS
 10
-10.551270839
 20
-21.611270839
 30
0.0
 11
0.35379574
 21
0.35379574
 31
0.0
 40
0.999315002
 41
2.3565371065
 42
3.9266482006
  0
ELLIPSE
  5
338
100
AcDbEntity
  8
0
100
AcDbEllipse
 62
7
  6
CONTINUOUS
 10
-10.551270839
 20
21.611270839
 30
0.0
 11
-0.35379574
 21
0.35379574
 31
0.0
 40
0.999315002
 41
-0.7850555471
 42
0.7850555471
  0
ELLIPSE
  5
339
100
AcDbEntity
  8
0
100
AcDbEllipse
 62
7
  6
CONTINUOUS
 10
10.551270839
 20
-21.611270839
 30
0.0
 11
-0.35379574
 21
0.35379574
 31
0.0
 40
0.999315002
 41
-3.9266482006
 42
-2.3565371065
  0
ENDSEC
  0
SECTION
  2
OBJECTS
  0
DICTIONARY
  5
C
100
AcDbDictionary
280
0
281
1
  3
ACAD_GROUP
350
D
  3
ACAD_MLINESTYLE
350
17
  3
ACAD_LAYOUT
350
1A
  3
ACAD_PLOTSETTINGS
350
19
  3
ACAD_PLOTSTYLENAME
350
E
  0
DICTIONARY
  5
D
102
{ACAD_REACTORS
330
C
102
}
100
AcDbDictionary
280
0
281
1
  0
ACDBDICTIONARYWDFLT
  5
E
102
{ACAD_REACTORS
330
C
102
}
100
AcDbDictionary
281
1
  3
Normal
350
F
100
AcDbDictionaryWithDefault
340
F
  0
DICTIONARY
  5
17
102
{ACAD_REACTORS
330
C
102
}
100
AcDbDictionary
280
0
281
1
  3
Standard
350
18
  0
DICTIONARY
  5
19
102
{ACAD_REACTORS
330
C
102
}
100
AcDbDictionary
281
1
  0
DICTIONARY
  5
1A
102
{ACAD_REACTORS
330
C
102
}
100
AcDbDictionary
281
1
  3
Model
350
33A
  3
Layout1
350
33B
  0
ACDBPLACEHOLDER
  5
F
102
{ACAD_REACTORS
330
E
102
}
  0
MLINESTYLE
  5
18
102
{ACAD_REACTORS
330
17
102
}
100
AcDbMlineStyle
  2
STANDARD
 70
0
  3

 62
256
 51
90.0
 52
90.0
 71
2
 49
0.5
 62
256
  6
BYLAYER
 49
-0.5
 62
256
  6
BYLAYER
  0
LAYOUT
  5
33A
102
{ACAD_REACTORS
330
1A
102
}
100
AcDbPlotSettings
  1

  2
none_device
  4
ISO_A4_(297.00_x_210.00_MM)
  6

 40
0.0
 41
0.0
 42
0.0
 43
0.0
 44
297.0
 45
210.0
 46
0.0
 47
0.0
 48
0.0
 49
0.0
140
0.0
141
0.0
142
1.0
143
1.0
 70
1024
 72
1
 73
0
 74
0
  7

 75
0
147
1.0
148
0.0
149
0.0
100
AcDbLayout
  1
Model
 70
0
 71
0
 10
0.0
 20
0.0
 11
297.0
 21
210.0
 12
0.0
 22
0.0
 32
0.0
 14
0.0
 24
0.0
 34
0.0
 15
0.0
 25
0.0
 35
0.0
146
0.0
 13
0.0
 23
0.0
 33
0.0
 16
1.0
 26
0.0
 36
0.0
 17
0.0
 27
1.0
 37
0.0
 76
0
330
218
345
0
346
0
  0
LAYOUT
  5
33B
102
{ACAD_REACTORS
330
1A
102
}
100
AcDbPlotSettings
  1

  2
none_device
  4
ISO_A4_(297.00_x_210.00_MM)
  6

 40
0.0
 41
0.0
 42
0.0
 43
0.0
 44
297.0
 45
210.0
 46
0.0
 47
0.0
 48
0.0
 49
0.0
140
0.0
141
0.0
142
1.0
143
1.0
 70
0
 72
1
 73
0
 74
0
  7

 75
0
147
1.0
148
0.0
149
0.0
100
AcDbLayout
  1
Layout1
 70
0
 71
1
 10
0.0
 20
0.0
 11
297.0
 21
210.0
 12
0.0
 22
0.0
 32
0.0
 14
0.0
 24
0.0
 34
0.0
 15
0.0
 25
0.0
 35
0.0
146
0.0
 13
0.0
 23
0.0
 33
0.0
 16
1.0
 26
0.0
 36
0.0
 17
0.0
 27
1.0
 37
0.0
 76
0
330
219
345
0
346
0
  0
ENDSEC
  0
EOF
