  0
SECTION
  2
HEADER
  9
$ACADVER
  1
AC1015
  9
$DWGCODEPAGE
  3
ANSI_1252
  9
$EXTMAX
 10
297.0
 20
210.0
 30
0.0
  9
$EXTMIN
 10
0.0
 20
0.0
 30
0.0
  9
$LIMMIN
 10
0.0
 20
0.0
  9
$LIMMAX
 10
297.0
 20
210.0
  9
$VIEWCTR
 10
148.5
 20
105.0
  9
$VIEWSIZE
 40
210.0
  9
$CLAYER
  8
0
  9
$LTSCALE
 40
16.335
  9
$CELTYPE
  6
BYLAYER
  9
$DIMSCALE
 40
1.0
  9
$DIMASZ
 40
3.0
  9
$DIMEXO
 40
1.85625
  9
$DIMDLI
 40
11.286
  9
$DIMEXE
 40
5.346
  9
$DIMCEN
 40
2.673
  9
$DIMLFAC
 40
1.0
  9
$DIMBLK
  1
_FILLED
  9
$DIMTXT
 40
3.0
  9
$DIMTOL
 70
1
  9
$DIMLIM
 70
0
  9
$DIMTFAC
 40
1.0
  9
$DIMTP
 40
0.01
  9
$DIMTM
 40
0.01
  9
$PDMODE
 70
3
  9
$PDSIZE
 40
3.0
  9
$HANDSEED
  5
311
  9
$TILEMODE
 70
1
  9
$MEASUREMENT
 70
1
  9
$INSUNITS
 70
4
  0
ENDSEC
  0
SECTION
  2
CLASSES
  0
CLASS
  1
ACDBDICTIONARYWDFLT
  2
AcDbDictionaryWithDefault
  3
AutoCAD 2000
 90
0
280
0
281
0
  0
CLASS
  1
ACDBPLACEHOLDER
  2
AcDbPlaceHolder
  3
AutoCAD 2000
 90
0
280
0
281
0
  0
CLASS
  1
LAYOUT
  2
AcDbLayout
  3
AutoCAD 2000
 90
0
280
0
281
0
  0
ENDSEC
  0
SECTION
  2
TABLES
  0
TABLE
  2
VPORT
  5
8
100
AcDbSymbolTable
 70
2
  0
VPORT
  5
1F4
100
AcDbSymbolTableRecord
100
AcDbViewportTableRecord
  2
*ACTIVE
 70
0
 10
0.0
 20
0.0
 11
1.0
 21
1.0
 12
148.5
 22
105.0
 13
0.0
 23
0.0
 14
1.0
 24
1.0
 15
0.0
 25
0.0
 16
0.0
 26
0.0
 36
1.0
 17
0.0
 27
0.0
 37
0.0
 40
210.0
 41
1.4142857143
 42
50.0
 43
0.0
 44
0.0
 50
0.0
 51
0.0
 71
0
 72
100
 73
1
 74
1
 75
0
 76
0
 77
0
 78
0
  0
ENDTAB
  0
TABLE
  2
LTYPE
  5
5
100
AcDbSymbolTable
 70
6
  0
LTYPE
  5
14
100
AcDbSymbolTableRecord
100
AcDbLinetypeTableRecord
  2
BYBLOCK
 70
0
  3

 72
65
 73
0
 40
0.0
  0
LTYPE
  5
15
100
AcDbSymbolTableRecord
100
AcDbLinetypeTableRecord
  2
BYLAYER
 70
0
  3

 72
65
 73
0
 40
0.0
  0
LTYPE
  5
16
100
AcDbSymbolTableRecord
100
AcDbLinetypeTableRecord
  2
CONTINUOUS
 70
64
  3
Solid line
 72
65
 73
0
 40
0.0
  0
LTYPE
  5
1F5
100
AcDbSymbolTableRecord
100
AcDbLinetypeTableRecord
  2
CENTER
 70
64
  3
____ _ ____ _ ____ _ ____ _ ____ _ ____ _ ____
 72
65
 73
4
 40
0.6
 49
0.375
 74
0
 49
-0.075
 74
0
 49
0.075
 74
0
 49
-0.075
 74
0
  0
LTYPE
  5
1F6
100
AcDbSymbolTableRecord
100
AcDbLinetypeTableRecord
  2
HIDDEN
 70
64
  3
- - - - - - - - - - - - - - - - - - - -
 72
65
 73
2
 40
0.2
 49
0.1
 74
0
 49
-0.1
 74
0
  0
LTYPE
  5
1F7
100
AcDbSymbolTableRecord
100
AcDbLinetypeTableRecord
  2
PHANTOM
 70
64
  3
_____ _ _ _____ _ _ _____ _ _ _____
 72
65
 73
6
 40
0.8
 49
0.45
 74
0
 49
-0.05
 74
0
 49
0.1
 74
0
 49
-0.05
 74
0
 49
0.1
 74
0
 49
-0.05
 74
0
  0
LTYPE
  5
1F8
100
AcDbSymbolTableRecord
100
AcDbLinetypeTableRecord
  2
DOT
 70
64
  3
. . . . . . . . . . . . . . . . . . . .
 72
65
 73
2
 40
0.2
 49
0.1
 74
0
 49
-0.1
 74
0
  0
LTYPE
  5
1F9
100
AcDbSymbolTableRecord
100
AcDbLinetypeTableRecord
  2
DASHED
 70
64
  3
- - - - - - - - - - - - - - - - - - - -
 72
65
 73
2
 40
0.2
 49
0.1
 74
0
 49
-0.1
 74
0
  0
ENDTAB
  0
TABLE
  2
LAYER
  5
2
100
AcDbSymbolTable
 70
36
  0
LAYER
  5
10
100
AcDbSymbolTableRecord
100
AcDbLayerTableRecord
  2
0
 70
0
 62
7
  6
CONTINUOUS
370
-3
390
F
  0
LAYER
  5
1FA
100
AcDbSymbolTableRecord
100
AcDbLayerTableRecord
  2
DEFAULT_1
 70
0
 62
7
  6
CENTER
370
-3
390
F
  0
LAYER
  5
1FB
100
AcDbSymbolTableRecord
100
AcDbLayerTableRecord
  2
DEFAULT_2
 70
0
 62
7
  6
HIDDEN
370
-3
390
F
  0
LAYER
  5
1FC
100
AcDbSymbolTableRecord
100
AcDbLayerTableRecord
  2
DEFAULT_3
 70
0
 62
7
  6
PHANTOM
370
-3
390
F
  0
LAYER
  5
1FD
100
AcDbSymbolTableRecord
100
AcDbLayerTableRecord
  2
ASSI
 70
0
 62
7
  6
CONTINUOUS
370
-3
390
F
  0
LAYER
  5
1FE
100
AcDbSymbolTableRecord
100
AcDbLayerTableRecord
  2
COLOR9
 70
0
 62
7
  6
CONTINUOUS
370
-3
390
F
  0
LAYER
  5
1FF
100
AcDbSymbolTableRecord
100
AcDbLayerTableRecord
  2
COORDINATE
 70
0
 62
7
  6
CONTINUOUS
370
-3
390
F
  0
LAYER
  5
200
100
AcDbSymbolTableRecord
100
AcDbLayerTableRecord
  2
COORD_ORIGINE
 70
0
 62
7
  6
CONTINUOUS
370
-3
390
F
  0
LAYER
  5
201
100
AcDbSymbolTableRecord
100
AcDbLayerTableRecord
  2
COPY_PUBLISH
 70
0
 62
7
  6
CONTINUOUS
370
-3
390
F
  0
LAYER
  5
202
100
AcDbSymbolTableRecord
100
AcDbLayerTableRecord
  2
COSMETICI
 70
0
 62
7
  6
CONTINUOUS
370
-3
390
F
  0
LAYER
  5
203
100
AcDbSymbolTableRecord
100
AcDbLayerTableRecord
  2
CURVE
 70
0
 62
7
  6
CONTINUOUS
370
-3
390
F
  0
LAYER
  5
204
100
AcDbSymbolTableRecord
100
AcDbLayerTableRecord
  2
DRAFT
 70
0
 62
7
  6
CONTINUOUS
370
-3
390
F
  0
LAYER
  5
205
100
AcDbSymbolTableRecord
100
AcDbLayerTableRecord
  2
IMPORT_IGES
 70
0
 62
7
  6
CONTINUOUS
370
-3
390
F
  0
LAYER
  5
206
100
AcDbSymbolTableRecord
100
AcDbLayerTableRecord
  2
INTF_1
 70
0
 62
7
  6
CONTINUOUS
370
-3
390
F
  0
LAYER
  5
207
100
AcDbSymbolTableRecord
100
AcDbLayerTableRecord
  2
INTF_YELLOW
 70
0
 62
7
  6
CONTINUOUS
370
-3
390
F
  0
LAYER
  5
208
100
AcDbSymbolTableRecord
100
AcDbLayerTableRecord
  2
NOTE
 70
0
 62
7
  6
CONTINUOUS
370
-3
390
F
  0
LAYER
  5
209
100
AcDbSymbolTableRecord
100
AcDbLayerTableRecord
  2
PIANI
 70
0
 62
7
  6
CONTINUOUS
370
-3
390
F
  0
LAYER
  5
20A
100
AcDbSymbolTableRecord
100
AcDbLayerTableRecord
  2
PIANI_ORIGINE
 70
0
 62
7
  6
CONTINUOUS
370
-3
390
F
  0
LAYER
  5
20B
100
AcDbSymbolTableRecord
100
AcDbLayerTableRecord
  2
PIANI_RIFERIMENTO
 70
0
 62
7
  6
CONTINUOUS
370
-3
390
F
  0
LAYER
  5
20C
100
AcDbSymbolTableRecord
100
AcDbLayerTableRecord
  2
PUNTI
 70
0
 62
7
  6
CONTINUOUS
370
-3
390
F
  0
LAYER
  5
20D
100
AcDbSymbolTableRecord
100
AcDbLayerTableRecord
  2
RACCORDO
 70
0
 62
7
  6
CONTINUOUS
370
-3
390
F
  0
LAYER
  5
20E
100
AcDbSymbolTableRecord
100
AcDbLayerTableRecord
  2
SIMBOLI
 70
0
 62
7
  6
CONTINUOUS
370
-3
390
F
  0
LAYER
  5
20F
100
AcDbSymbolTableRecord
100
AcDbLayerTableRecord
  2
SMUSSO
 70
0
 62
7
  6
CONTINUOUS
370
-3
390
F
  0
LAYER
  5
210
100
AcDbSymbolTableRecord
100
AcDbLayerTableRecord
  2
SNAPLINE
 70
0
 62
7
  6
CONTINUOUS
370
-3
390
F
  0
LAYER
  5
211
100
AcDbSymbolTableRecord
100
AcDbLayerTableRecord
  2
SUPERFICI
 70
0
 62
7
  6
CONTINUOUS
370
-3
390
F
  0
LAYER
  5
212
100
AcDbSymbolTableRecord
100
AcDbLayerTableRecord
  2
TRASH
 70
0
 62
7
  6
CONTINUOUS
370
-3
390
F
  0
LAYER
  5
213
100
AcDbSymbolTableRecord
100
AcDbLayerTableRecord
  2
XSEC_DATUMS
 70
0
 62
7
  6
CONTINUOUS
370
-3
390
F
  0
ENDTAB
  0
TABLE
  2
STYLE
  5
3
100
AcDbSymbolTable
 70
1
  0
STYLE
  5
11
100
AcDbSymbolTableRecord
100
AcDbTextStyleTableRecord
  2
STANDARD
 70
0
 40
0.0
 41
0.8
 50
0.0
 71
0
 42
0.2
  3
txt
  4

  0
STYLE
  5
214
100
AcDbSymbolTableRecord
100
AcDbTextStyleTableRecord
  2
TEXTSTYLE_1
 70
0
 40
0.0
 41
0.8
 50
0.0
 71
0
 42
0.2
  3
gdt
  4

  0
ENDTAB
  0
TABLE
  2
VIEW
  5
6
100
AcDbSymbolTable
 70
0
  0
ENDTAB
  0
TABLE
  2
UCS
  5
7
100
AcDbSymbolTable
 70
0
  0
ENDTAB
  0
TABLE
  2
APPID
  5
9
100
AcDbSymbolTable
 70
1
  0
APPID
  5
215
100
AcDbSymbolTableRecord
100
AcDbRegAppTableRecord
  2
ACAD
 70
0
  0
ENDTAB
  0
TABLE
  2
BLOCK_RECORD
  5
1
100
AcDbSymbolTable
 70
0
  0
BLOCK_RECORD
  5
216
100
AcDbSymbolTableRecord
100
AcDbBlockTableRecord
  2
*Model_Space
  0
BLOCK_RECORD
  5
217
100
AcDbSymbolTableRecord
100
AcDbBlockTableRecord
  2
*Paper_Space
  0
BLOCK_RECORD
  5
218
100
AcDbSymbolTableRecord
100
AcDbBlockTableRecord
  2
_FILLED
  0
BLOCK_RECORD
  5
219
100
AcDbSymbolTableRecord
100
AcDbBlockTableRecord
  2
*D0
  0
BLOCK_RECORD
  5
21A
100
AcDbSymbolTableRecord
100
AcDbBlockTableRecord
  2
*D1
  0
BLOCK_RECORD
  5
21B
100
AcDbSymbolTableRecord
100
AcDbBlockTableRecord
  2
*D2
  0
ENDTAB
  0
TABLE
  2
DIMSTYLE
  5
A
100
AcDbSymbolTable
 70
1
100
AcDbDimStyleTable
 71
0
  0
DIMSTYLE
105
21C
100
AcDbSymbolTableRecord
100
AcDbDimStyleTableRecord
  2
STANDARD
 70
0
  3

  4

 40
1.0
 41
3.0
 42
0.0625
 43
0.38
 44
0.18
 45
0.0
 46
0.0
 47
0.01
 48
0.01
140
3.0
141
0.09
142
0.0
143
25.4
144
1.0
145
0.0
146
1.0
147
0.09
 71
1.0
 72
0.0
 73
0
 74
0
 75
0
 76
0
 77
1
 78
8
170
0
171
2
172
0
173
0
174
0
175
0
176
0
177
0
178
0
270
2
271
2
272
2
273
2
274
2
275
0
280
0
281
0
282
0
283
1
284
8
285
0
286
0
287
3
288
0
340
11
341
218
342
218
343
218
344
218
  0
DIMSTYLE
105
21D
100
AcDbSymbolTableRecord
100
AcDbDimStyleTableRecord
  2
DIMSTYLE_1
 70
0
  3

  4

 40
1.0
 41
3.0
 42
0.0625
 43
0.38
 44
0.18
 45
0.0
 46
0.0
 47
0.0
 48
0.0
140
3.0
141
0.09
142
0.0
143
25.4
144
1.0
145
0.0
146
1.0
147
0.09
 71
0.0
 72
0.0
 73
0
 74
0
 75
0
 76
0
 77
1
 78
8
170
0
171
2
172
0
173
0
174
0
175
0
176
0
177
0
178
0
270
2
271
1
272
1
273
2
274
2
275
0
280
0
281
0
282
0
283
1
284
8
285
0
286
0
287
3
288
0
340
11
341
218
342
218
343
218
344
218
  0
DIMSTYLE
105
21E
100
AcDbSymbolTableRecord
100
AcDbDimStyleTableRecord
  2
DIMSTYLE_2
 70
0
  3

  4

 40
1.0
 41
3.0
 42
0.0625
 43
0.38
 44
0.18
 45
0.0
 46
0.0
 47
0.0
 48
0.0
140
3.0
141
0.09
142
0.0
143
25.4
144
1.0
145
0.0
146
1.0
147
0.09
 71
0.0
 72
0.0
 73
0
 74
0
 75
0
 76
0
 77
1
 78
8
170
0
171
2
172
0
173
0
174
0
175
0
176
0
177
0
178
0
270
2
271
2
272
2
273
2
274
2
275
0
280
0
281
0
282
0
283
1
284
8
285
0
286
0
287
3
288
0
340
11
341
218
342
218
343
218
344
218
  0
ENDTAB
  0
ENDSEC
  0
SECTION
  2
BLOCKS
  0
BLOCK
  5
20
100
AcDbEntity
  8
0
100
AcDbBlockBegin
  2
*Model_Space
 70
0
 10
0.0
 20
0.0
 30
0.0
  3
*Model_Space
  1

  0
ENDBLK
  5
21
100
AcDbEntity
  8
0
100
AcDbBlockEnd
  0
BLOCK
  5
1C
100
AcDbEntity
  8
0
100
AcDbBlockBegin
  2
*Paper_Space
 70
0
 10
0.0
 20
0.0
 30
0.0
  3
*Paper_Space
  1

  0
ENDBLK
  5
1D
100
AcDbEntity
  8
0
100
AcDbBlockEnd
  0
BLOCK
  5
21F
100
AcDbEntity
  8
0
100
AcDbBlockBegin
  2
_FILLED
 70
64
 10
0.0
 20
0.0
  3
_FILLED
  1

  0
SOLID
  5
220
100
AcDbEntity
  8
0
  6
BYBLOCK
 62
0
100
AcDbTrace
 10
0.0
 20
0.0
 11
-1.0
 21
0.3166666667
 12
-1.0
 22
-0.3166666667
 13
-1.0
 23
-0.3166666667
  0
ENDBLK
  5
221
100
AcDbEntity
  8
0
  6
BYBLOCK
 62
0
100
AcDbBlockEnd
  0
BLOCK
  5
222
100
AcDbEntity
  8
0
100
AcDbBlockBegin
 62
7
  6
CONTINUOUS
  2
*D0
 70
65
 10
0.0
 20
0.0
  3
*D0
  1

  0
LINE
  5
223
100
AcDbEntity
  8
0
100
AcDbLine
 62
7
  6
CONTINUOUS
 10
24.1448868077
 20
-22.1114422353
 11
31.88
 21
-22.1114422353
  0
LINE
  5
224
100
AcDbEntity
  8
0
100
AcDbLine
 62
7
  6
CONTINUOUS
 10
22.6331188033
 20
22.1114422353
 11
31.88
 21
22.1114422353
  0
LINE
  5
225
100
AcDbEntity
  8
0
100
AcDbLine
 62
7
  6
CONTINUOUS
 10
30.38
 20
-22.1114422353
 11
30.38
 21
0.0
  0
LINE
  5
226
100
AcDbEntity
  8
0
100
AcDbLine
 62
7
  6
CONTINUOUS
 10
30.38
 20
22.1114422353
 11
30.38
 21
0.0
  0
INSERT
  5
227
100
AcDbEntity
  8
0
100
AcDbBlockReference
 62
7
  6
CONTINUOUS
  2
_FILLED
 10
30.38
 20
-22.1114422353
 41
3.0
 42
3.0
 43
3.0
 50
270.0
  0
INSERT
  5
228
100
AcDbEntity
  8
0
100
AcDbBlockReference
 62
7
  6
CONTINUOUS
  2
_FILLED
 10
30.38
 20
22.1114422353
 41
3.0
 42
3.0
 43
3.0
 50
90.0
  0
ENDBLK
  5
229
100
AcDbEntity
  8
0
  6
BYBLOCK
 62
0
100
AcDbBlockEnd
  0
BLOCK
  5
22A
100
AcDbEntity
  8
0
100
AcDbBlockBegin
 62
7
  6
CONTINUOUS
  2
*D1
 70
65
 10
0.0
 20
0.0
  3
*D1
  1

  0
LINE
  5
22B
100
AcDbEntity
  8
0
100
AcDbLine
 62
7
  6
CONTINUOUS
 10
-31.6104149941
 20
10.2310194482
 11
-31.6104149941
 21
31.6114422353
  0
LINE
  5
22C
100
AcDbEntity
  8
0
100
AcDbLine
 62
7
  6
CONTINUOUS
 10
-35.6104149941
 20
0.5
 11
-35.6104149941
 21
31.6114422353
  0
LINE
  5
22D
100
AcDbEntity
  8
0
100
AcDbLine
 62
7
  6
CONTINUOUS
 10
-31.6104149941
 20
30.1114422353
 11
-27.6104149941
 21
30.1114422353
  0
LINE
  5
22E
100
AcDbEntity
  8
0
100
AcDbLine
 62
7
  6
CONTINUOUS
 10
-27.6104149941
 20
30.1114422353
 11
-33.6104149941
 21
30.1114422353
  0
LINE
  5
22F
100
AcDbEntity
  8
0
100
AcDbLine
 62
7
  6
CONTINUOUS
 10
-35.6104149941
 20
30.1114422353
 11
-42.4732827361
 21
30.1114422353
  0
LINE
  5
230
100
AcDbEntity
  8
0
100
AcDbLine
 62
7
  6
CONTINUOUS
 10
-42.4732827361
 20
30.1114422353
 11
-33.6104149941
 21
30.1114422353
  0
INSERT
  5
231
100
AcDbEntity
  8
0
100
AcDbBlockReference
 62
7
  6
CONTINUOUS
  2
_FILLED
 10
-31.6104149941
 20
30.1114422353
 41
3.0
 42
3.0
 43
3.0
 50
180.0
  0
INSERT
  5
232
100
AcDbEntity
  8
0
100
AcDbBlockReference
 62
7
  6
CONTINUOUS
  2
_FILLED
 10
-35.6104149941
 20
30.1114422353
 41
3.0
 42
3.0
 43
3.0
  0
ENDBLK
  5
233
100
AcDbEntity
  8
0
  6
BYBLOCK
 62
0
100
AcDbBlockEnd
  0
BLOCK
  5
234
100
AcDbEntity
  8
0
100
AcDbBlockBegin
 62
7
  6
CONTINUOUS
  2
*D2
 70
65
 10
0.0
 20
0.0
  3
*D2
  1

  0
LINE
  5
235
100
AcDbEntity
  8
0
100
AcDbLine
 62
7
  6
CONTINUOUS
 10
22.3014422353
 20
22.1116135728
 11
22.3014422353
 21
31.6114422353
  0
LINE
  5
236
100
AcDbEntity
  8
0
100
AcDbLine
 62
7
  6
CONTINUOUS
 10
-22.3014422353
 20
22.1116135728
 11
-22.3014422353
 21
31.6114422353
  0
LINE
  5
237
100
AcDbEntity
  8
0
100
AcDbLine
 62
7
  6
CONTINUOUS
 10
22.3014422353
 20
30.1114422353
 11
0.0
 21
30.1114422353
  0
LINE
  5
238
100
AcDbEntity
  8
0
100
AcDbLine
 62
7
  6
CONTINUOUS
 10
-22.3014422353
 20
30.1114422353
 11
0.0
 21
30.1114422353
  0
INSERT
  5
239
100
AcDbEntity
  8
0
100
AcDbBlockReference
 62
7
  6
CONTINUOUS
  2
_FILLED
 10
22.3014422353
 20
30.1114422353
 41
3.0
 42
3.0
 43
3.0
 50
0.0
  0
INSERT
  5
23A
100
AcDbEntity
  8
0
100
AcDbBlockReference
 62
7
  6
CONTINUOUS
  2
_FILLED
 10
-22.3014422353
 20
30.1114422353
 41
3.0
 42
3.0
 43
3.0
 50
180.0
  0
ENDBLK
  5
23B
100
AcDbEntity
  8
0
  6
BYBLOCK
 62
0
100
AcDbBlockEnd
  0
ENDSEC
  0
SECTION
  2
ENTITIES
  0
DIMENSION
  5
23C
100
AcDbEntity
  8
0
100
AcDbDimension
 62
7
  6
CONTINUOUS
  2
*D0
 10
30.38
 20
22.1114422353
 11
29.63
 21
-4.3928571429
 70
160
 71
2
 42
44.2228844706
  3
DIMSTYLE_1
100
AcDbAlignedDimension
 13
24.1448868077
 23
-22.1114422353
 14
22.6331188033
 24
22.1114422353
 50
90.0
100
AcDbRotatedDimension
  0
DIMENSION
  5
23D
100
AcDbEntity
  8
0
100
AcDbDimension
 62
7
  6
CONTINUOUS
  2
*D1
 10
-35.6104149941
 20
30.1114422353
 11
-42.4732827361
 21
30.8614422353
 70
160
 71
3
 42
4.0
  3
DIMSTYLE_2
100
AcDbAlignedDimension
 13
-31.6104149941
 23
10.2310194482
 14
-35.6104149941
 24
0.5
 50
180.0
100
AcDbRotatedDimension
  0
DIMENSION
  5
23E
100
AcDbEntity
  8
0
100
AcDbDimension
 62
7
  6
CONTINUOUS
  2
*D2
 10
-22.3014422353
 20
30.1114422353
 11
-4.3928571429
 21
30.8614422353
 70
160
 71
2
 42
44.6028844706
  3
DIMSTYLE_2
100
AcDbAlignedDimension
 13
22.3014422353
 23
22.1116135728
 14
-22.3014422353
 24
22.1116135728
 50
180.0
100
AcDbRotatedDimension
  0
LWPOLYLINE
  5
23F
100
AcDbEntity
  8
RACCORDO
100
AcDbPolyline
 62
253
  6
CONTINUOUS
 90
16
 70
0
 10
-22.2638766931
 20
21.1615238967
 10
-22.2598965
 20
21.1692064438
 10
-22.2506612473
 20
21.1768075537
 10
-22.2362688116
 20
21.1842466688
 10
-22.2168717254
 20
21.1914449486
 10
-22.1926755615
 20
21.1983261048
 10
-22.1639367539
 20
21.2048172101
 10
-22.1309598798
 20
21.2108494709
 10
-22.0940944322
 20
21.2163589566
 10
-22.0537311155
 20
21.221287277
 10
-22.0102977052
 20
21.2255822012
 10
-21.9642545137
 20
21.2291982111
 10
-21.9160895124
 20
21.232096984
 10
-21.8663131598
 20
21.2342477985
 10
-21.8154529919
 20
21.2356278599
 10
-21.7640480307
 20
21.2362225423
  0
LWPOLYLINE
  5
240
100
AcDbEntity
  8
RACCORDO
100
AcDbPolyline
 62
253
  6
CONTINUOUS
 90
16
 70
0
 10
-22.2638766932
 20
-21.1615238967
 10
-22.2598974611
 20
-21.1692066574
 10
-22.2506630216
 20
-21.176807993
 10
-22.2362712449
 20
-21.1842473417
 10
-22.2168746607
 20
-21.1914458583
 10
-22.1926788416
 20
-21.1983272502
 10
-22.1639402246
 20
-21.2048185855
 10
-22.1309633926
 20
-21.2108510667
 10
-22.0940978473
 20
-21.216360759
 10
-22.053734304
 20
-21.2212892686
 10
-22.0103005516
 20
-21.2255843612
 10
-21.9642569181
 20
-21.2292005157
 10
-21.9160913919
 20
-21.232099407
 10
-21.8663144504
 20
-21.2342503114
 10
-21.8154536491
 20
-21.2356304329
 10
-21.7640480307
 20
-21.2362251442
  0
LWPOLYLINE
  5
241
100
AcDbEntity
  8
RACCORDO
100
AcDbPolyline
 62
253
  6
CONTINUOUS
 90
16
 70
0
 10
-22.2764799709
 20
-21.5866513084
 10
-22.2737085608
 20
-21.638873962
 10
-22.2654962044
 20
-21.6905251247
 10
-22.2519327487
 20
-21.7410393988
 10
-22.2331666165
 20
-21.7898638266
 10
-22.2094031858
 20
-21.8364639333
 10
-22.1809025464
 20
-21.8803295793
 10
-22.147976642
 20
-21.9209805652
 10
-22.1109858676
 20
-21.9579718672
 10
-22.0703351383
 20
-21.9908985062
 10
-22.0264694206
 20
-22.0194000157
 10
-21.979868886
 20
-22.0431643617
 10
-21.9310436815
 20
-22.0619313551
 10
-21.8805282932
 20
-22.0754955292
 10
-21.8288756908
 20
-22.0837083782
 10
-21.7766513085
 20
-22.086479971
  0
LWPOLYLINE
  5
242
100
AcDbEntity
  8
RACCORDO
100
AcDbPolyline
 62
253
  6
CONTINUOUS
 90
16
 70
0
 10
-22.2764799709
 20
21.5866513084
 10
-22.2737084581
 20
21.6388749344
 10
-22.265495829
 20
21.690526886
 10
-22.2519319847
 20
21.7410417469
 10
-22.2331654039
 20
21.789866548
 10
-22.2094015179
 20
21.8364668207
 10
-22.180900462
 20
21.8803324476
 10
-22.1479742277
 20
21.9209832467
 10
-22.1109832471
 20
21.9579742273
 10
-22.0703324481
 20
21.9909004617
 10
-22.0264668212
 20
22.0194015177
 10
-21.9798665484
 20
22.0431654037
 10
-21.9310417473
 20
22.0619319846
 10
-21.8805268863
 20
22.075495829
 10
-21.8288749345
 20
22.0837084581
 10
-21.7766513084
 20
22.0864799709
  0
LWPOLYLINE
  5
243
100
AcDbEntity
  8
RACCORDO
100
AcDbPolyline
 62
253
  6
CONTINUOUS
 90
10
 70
0
 10
-22.2681568186
 20
21.4616298466
 10
-22.2689431232
 20
21.4861047249
 10
-22.2697813036
 20
21.5083229653
 10
-22.2706563049
 20
21.5278932804
 10
-22.271569386
 20
21.5447694949
 10
-22.2725192882
 20
21.5589977841
 10
-22.2734871808
 20
21.5703253862
 10
-22.274466787
 20
21.5786680473
 10
-22.2754643837
 20
21.5841100214
 10
-22.2764799709
 20
21.5866513084
  0
LWPOLYLINE
  5
244
100
AcDbEntity
  8
RACCORDO
100
AcDbPolyline
 62
253
  6
CONTINUOUS
 90
7
 70
0
 10
-21.7708205485
 20
21.968635596
 10
-21.7717310492
 20
22.0024936657
 10
-21.772678348
 20
22.0308586736
 10
-21.773645698
 20
22.0535589575
 10
-21.7746275169
 20
22.0704577735
 10
-21.7756293871
 20
22.0814535722
 10
-21.7766513084
 20
22.0864799709
  0
LINE
  5
245
100
AcDbEntity
  8
RACCORDO
100
AcDbLine
 62
253
  6
CONTINUOUS
 10
-22.2667415586
 20
21.4058170317
 11
-22.2681568186
 21
21.4616298466
  0
LINE
  5
246
100
AcDbEntity
  8
RACCORDO
100
AcDbLine
 62
253
  6
CONTINUOUS
 10
-21.7691111237
 20
21.8852903227
 11
-21.7708205485
 21
21.968635596
  0
LINE
  5
247
100
AcDbEntity
  8
RACCORDO
100
AcDbLine
 62
253
  6
CONTINUOUS
 10
-22.2655723942
 20
21.3425178419
 11
-22.2667415586
 21
21.4058170317
  0
LINE
  5
248
100
AcDbEntity
  8
RACCORDO
100
AcDbLine
 62
253
  6
CONTINUOUS
 10
-22.264670723
 20
21.2729528004
 11
-22.2655723942
 21
21.3425178419
  0
LINE
  5
249
100
AcDbEntity
  8
RACCORDO
100
AcDbLine
 62
253
  6
CONTINUOUS
 10
-21.7669146285
 20
21.7251570648
 11
-21.7691111237
 21
21.8852903227
  0
LINE
  5
24A
100
AcDbEntity
  8
RACCORDO
100
AcDbLine
 62
253
  6
CONTINUOUS
 10
-21.7648466607
 20
21.4599831598
 11
-21.7669146285
 21
21.7251570648
  0
LINE
  5
24B
100
AcDbEntity
  8
RACCORDO
100
AcDbLine
 62
253
  6
CONTINUOUS
 10
-22.2638766932
 20
21.1615238967
 11
-22.264670723
 21
21.2729528004
  0
LINE
  5
24C
100
AcDbEntity
  8
RACCORDO
100
AcDbLine
 62
253
  6
CONTINUOUS
 10
-22.2474325226
 20
15.9909603469
 11
-22.2638766932
 21
21.1615238967
  0
LINE
  5
24D
100
AcDbEntity
  8
RACCORDO
100
AcDbLine
 62
253
  6
CONTINUOUS
 10
-21.7476037727
 20
16.0366547986
 11
-21.7640480307
 21
21.2362251476
  0
LINE
  5
24E
100
AcDbEntity
  8
RACCORDO
100
AcDbLine
 62
253
  6
CONTINUOUS
 10
-21.7640480307
 20
21.2362251476
 11
-21.7648466607
 21
21.4599831598
  0
LINE
  5
24F
100
AcDbEntity
  8
RACCORDO
100
AcDbLine
 62
253
  6
CONTINUOUS
 10
-22.23889248
 20
10.7928354503
 11
-22.2474325226
 21
15.9909603469
  0
LINE
  5
250
100
AcDbEntity
  8
RACCORDO
100
AcDbLine
 62
253
  6
CONTINUOUS
 10
-21.7390638443
 20
10.8091626086
 11
-21.7476037727
 21
16.0366547986
  0
LINE
  5
251
100
AcDbEntity
  8
0
100
AcDbLine
 62
7
  6
CONTINUOUS
 10
-22.3014422353
 20
21.6116135728
 11
-22.3014422353
 21
-21.6116135728
  0
LINE
  5
252
100
AcDbEntity
  8
RACCORDO
100
AcDbLine
 62
253
  6
CONTINUOUS
 10
-22.2402843163
 20
-12.0939699785
 11
-22.23889248
 21
10.7928354503
  0
LINE
  5
253
100
AcDbEntity
  8
RACCORDO
100
AcDbLine
 62
253
  6
CONTINUOUS
 10
-21.7404557226
 20
-12.1176863817
 11
-21.7390638443
 21
10.8091626086
  0
LINE
  5
254
100
AcDbEntity
  8
RACCORDO
100
AcDbLine
 62
253
  6
CONTINUOUS
 10
-22.2508039357
 20
-17.2868145217
 11
-22.2402843163
 21
-12.0939699785
  0
LINE
  5
255
100
AcDbEntity
  8
RACCORDO
100
AcDbLine
 62
253
  6
CONTINUOUS
 10
-21.750975233
 20
-17.339854897
 11
-21.7404557226
 21
-12.1176863817
  0
LINE
  5
256
100
AcDbEntity
  8
RACCORDO
100
AcDbLine
 62
253
  6
CONTINUOUS
 10
-21.7652609176
 20
-21.5306766563
 11
-21.750975233
 21
-17.339854897
  0
LINE
  5
257
100
AcDbEntity
  8
RACCORDO
100
AcDbLine
 62
253
  6
CONTINUOUS
 10
-22.2643326477
 20
-21.2368235579
 11
-22.2508039357
 21
-17.2868145217
  0
LINE
  5
258
100
AcDbEntity
  8
RACCORDO
100
AcDbLine
 62
253
  6
CONTINUOUS
 10
-21.7669142997
 20
-21.7251528619
 11
-21.7652609176
 21
-21.5306766563
  0
LINE
  5
259
100
AcDbEntity
  8
RACCORDO
100
AcDbLine
 62
253
  6
CONTINUOUS
 10
-22.2650841564
 20
-21.3081932214
 11
-22.2643326477
 21
-21.2368235579
  0
LINE
  5
25A
100
AcDbEntity
  8
RACCORDO
100
AcDbLine
 62
253
  6
CONTINUOUS
 10
-21.7691102789
 20
-21.8852865879
 11
-21.7669142997
 21
-21.7251528619
  0
LINE
  5
25B
100
AcDbEntity
  8
RACCORDO
100
AcDbLine
 62
253
  6
CONTINUOUS
 10
-22.2661223366
 20
-21.3749505517
 11
-22.2650841564
 21
-21.3081932214
  0
LWPOLYLINE
  5
25C
100
AcDbEntity
  8
0
100
AcDbPolyline
 62
7
  6
CONTINUOUS
 90
10
 70
0
 43
0.3500000006
 10
3.1071428747
 20
33.8614438934
 10
2.464285738
 20
33.218585907
 10
2.0357142191
 20
32.3614434357
 10
2.0357142191
 20
31.2900119476
 10
2.464285738
 20
30.8614429779
 10
3.1071428747
 20
30.8614429779
 10
3.5357143936
 20
31.2900119476
 10
3.5357143936
 20
32.1471544189
 10
3.1071428747
 20
32.5757279205
 10
2.1785714865
 20
32.5757279205
  0
LINE
  5
25D
100
AcDbEntity
  8
0
100
AcDbLine
 62
7
  6
CONTINUOUS
 10
21.8016135728
 20
-22.1114422353
 11
-21.8016135728
 21
-22.1114422353
  0
LINE
  5
25E
100
AcDbEntity
  8
RACCORDO
100
AcDbLine
 62
253
  6
CONTINUOUS
 10
21.7766513084
 20
-22.0864799709
 11
-21.7766513084
 21
-22.0864799709
  0
LINE
  5
25F
100
AcDbEntity
  8
RACCORDO
100
AcDbLine
 62
253
  6
CONTINUOUS
 10
21.7640480307
 20
-21.2362251476
 11
-21.7640480307
 21
-21.2362251476
  0
LWPOLYLINE
  5
260
100
AcDbEntity
  8
RACCORDO
100
AcDbPolyline
 62
253
  6
CONTINUOUS
 90
8
 70
0
 10
-21.7766513084
 20
-22.0864799709
 10
-21.7756293033
 20
-22.0814536019
 10
-21.7746273547
 20
-22.070457797
 10
-21.7736454625
 20
-22.0535588376
 10
-21.7726780577
 20
-22.0308580893
 10
-21.7717307095
 20
-22.0024922519
 10
-21.7708201249
 20
-21.9686332738
 10
-21.7691102789
 20
-21.8852865879
  0
LWPOLYLINE
  5
261
100
AcDbEntity
  8
RACCORDO
100
AcDbPolyline
 62
253
  6
CONTINUOUS
 90
7
 70
0
 10
22.2379958269
 20
-9.4905
 10
22.2340029648
 20
-9.4914768667
 10
22.2247570053
 20
-9.492443384
 10
22.210355904
 20
-9.4933893122
 10
22.1909522323
 20
-9.4943046298
 10
22.1667515612
 20
-9.4951796396
 10
22.1380102829
 20
-9.4960050712
  0
LWPOLYLINE
  5
262
100
AcDbEntity
  8
RACCORDO
100
AcDbPolyline
 62
253
  6
CONTINUOUS
 90
9
 70
0
 10
-22.2379958269
 20
-9.4905
 10
-22.2340029683
 20
-9.4914768667
 10
-22.2247570117
 20
-9.4924433841
 10
-22.2103559128
 20
-9.4933893124
 10
-22.1909522429
 20
-9.4943046301
 10
-22.1667515731
 20
-9.4951796399
 10
-22.1380102954
 20
-9.4960050715
 10
-22.1050329075
 20
-9.4967721801
 10
-22.0278084852
 20
-9.4980996237
  0
LWPOLYLINE
  5
263
100
AcDbEntity
  8
RACCORDO
100
AcDbPolyline
 62
253
  6
CONTINUOUS
 90
12
 70
0
 10
-22.2764799709
 20
-21.5866513084
 10
-22.2754641326
 20
-21.5841111763
 10
-22.2744661856
 20
-21.5786660206
 10
-22.2734861298
 20
-21.5703158414
 10
-22.2725176243
 20
-21.5589761121
 10
-22.2715670101
 20
-21.5447313594
 10
-22.27065331
 20
-21.5278351628
 10
-22.2697777543
 20
-21.5082362811
 10
-22.2689391127
 20
-21.4859859557
 10
-22.2681527169
 20
-21.4614914897
 10
-22.267419671
 20
-21.4347145028
 10
-22.2661223366
 20
-21.3749505517
  0
LWPOLYLINE
  5
264
100
AcDbEntity
  8
0
100
AcDbPolyline
 62
7
  6
CONTINUOUS
 90
3
 70
0
 43
0.3500000006
 10
1.035714268
 20
31.1471586456
 10
0.9642857051
 20
30.9328696289
 10
0.8214285793
 20
30.647158493
  0
LINE
  5
265
100
AcDbEntity
  8
RACCORDO
100
AcDbLine
 62
253
  6
CONTINUOUS
 10
22.1380102829
 20
-9.4960050712
 11
22.0681687736
 21
-9.4974728381
  0
LINE
  5
266
100
AcDbEntity
  8
RACCORDO
100
AcDbLine
 62
253
  6
CONTINUOUS
 10
22.0681687736
 20
-9.4974728381
 11
21.9843795892
 21
-9.4986458946
  0
LINE
  5
267
100
AcDbEntity
  8
RACCORDO
100
AcDbLine
 62
253
  6
CONTINUOUS
 10
21.9843795892
 20
-9.4986458946
 11
21.8901841195
 21
-9.499474661
  0
LINE
  5
268
100
AcDbEntity
  8
RACCORDO
100
AcDbLine
 62
253
  6
CONTINUOUS
 10
21.8901841195
 20
-9.499474661
 11
21.7381671644
 21
-9.4999999993
  0
LINE
  5
269
100
AcDbEntity
  8
RACCORDO
100
AcDbLine
 62
253
  6
CONTINUOUS
 10
-21.8404154861
 20
-9.4997483763
 11
21.7381671644
 21
-9.5
  0
LINE
  5
26A
100
AcDbEntity
  8
RACCORDO
100
AcDbLine
 62
253
  6
CONTINUOUS
 10
-21.9383422333
 20
-9.4991058655
 11
-21.8404154861
 21
-9.4997483763
  0
LINE
  5
26B
100
AcDbEntity
  8
RACCORDO
100
AcDbLine
 62
253
  6
CONTINUOUS
 10
-22.0278084852
 20
-9.4980996237
 11
-21.9383422333
 21
-9.4991058655
  0
LWPOLYLINE
  5
26C
100
AcDbEntity
  8
SUPERFICI
100
AcDbPolyline
 62
7
  6
CONTINUOUS
 90
21
 70
0
 10
-6.1331356424
 20
1.8191847598
 10
-6.1647520692
 20
1.6391023331
 10
-6.1930799326
 20
1.4583933031
 10
-6.2181098897
 20
1.2771225236
 10
-6.239813911
 20
1.095484514
 10
-6.2581877398
 20
0.9134830898
 10
-6.2732356328
 20
0.7311144819
 10
-6.2849423313
 20
0.5485618349
 10
-6.2933044612
 20
0.365824754
 10
-6.2983253966
 20
0.1829036824
 10
-6.3
 20
-0.0000169778
 10
-6.2983248269
 20
-0.1829369481
 10
-6.2933033219
 20
-0.3658564579
 10
-6.2849406814
 20
-0.5485918661
 10
-6.2732335554
 20
-0.7311429226
 10
-6.2581852938
 20
-0.9135098291
 10
-6.2398111437
 20
-1.095509623
 10
-6.2181067061
 20
-1.2771467701
 10
-6.1930763799
 20
-1.4584167582
 10
-6.1647486087
 20
-1.6391231593
 10
-6.1331328737
 20
-1.8192004831
  0
LWPOLYLINE
  5
26D
100
AcDbEntity
  8
0
100
AcDbPolyline
 62
7
  6
CONTINUOUS
 90
13
 70
0
 10
-6.0600090698
 20
2.1776642135
 10
-6.133159341
 20
1.8191022651
 10
-6.193048899
 20
1.4587872427
 10
-6.2396777439
 20
1.0967193215
 10
-6.2730939533
 20
0.7323146345
 10
-6.2932494496
 20
0.3661574142
 10
-6.3
 20
-0.0000000026
 10
-6.2932494494
 20
-0.3661574189
 10
-6.2730939531
 20
-0.7323146383
 10
-6.2396777436
 20
-1.0967193243
 10
-6.1930488987
 20
-1.4587872446
 10
-6.1331593408
 20
-1.819102266
 10
-6.0600090698
 20
-2.1776642136
  0
LWPOLYLINE
  5
26E
100
AcDbEntity
  8
SUPERFICI
100
AcDbPolyline
 62
7
  6
CONTINUOUS
 90
3
 70
0
 10
-6.0600090695
 20
2.1776642154
 10
-6.0982213091
 20
1.9987053942
 10
-6.132995371
 20
1.8199059998
  0
LWPOLYLINE
  5
26F
100
AcDbEntity
  8
0
100
AcDbPolyline
 62
7
  6
CONTINUOUS
 90
19
 70
0
 10
-6.0600090698
 20
2.1776642135
 10
-6.0449561011
 20
2.2353000016
 10
-6.0257218572
 20
2.291313446
 10
-6.002306338
 20
2.3457045485
 10
-5.974442631
 20
2.39893062
 10
-5.9423976487
 20
2.4505343528
 10
-5.9069721287
 20
2.4991438222
 10
-5.8682316065
 20
2.5444656968
 10
-5.8261105464
 20
2.5867933159
 10
-5.7812130791
 20
2.6256347636
 10
-5.7335359304
 20
2.6609819817
 10
-5.6830823744
 20
2.6928430361
 10
-5.630466364
 20
2.7207501982
 10
-5.5754022539
 20
2.744704084
 10
-5.5181756894
 20
2.764704084
 10
-5.4602575589
 20
2.7802806306
 10
-5.4021381583
 20
2.7912772028
 10
-5.3433271916
 20
2.7978503256
 10
-5.2838246588
 20
2.8
  0
LWPOLYLINE
  5
270
100
AcDbEntity
  8
SUPERFICI
100
AcDbPolyline
 62
7
  6
CONTINUOUS
 90
3
 70
0
 10
-6.0313237567
 20
2.276087938
 10
-6.0471706913
 20
2.2275224561
 10
-6.0600090695
 20
2.1776642154
  0
LWPOLYLINE
  5
271
100
AcDbEntity
  8
0
100
AcDbPolyline
 62
7
  6
CONTINUOUS
 90
19
 70
0
 10
-6.6559565583
 20
3.0920431858
 10
-6.6370880196
 20
3.1442514545
 10
-6.6147284223
 20
3.1947503159
 10
-6.5888777665
 20
3.2435397728
 10
-6.5593044474
 20
3.2909601902
 10
-6.5262400697
 20
3.3366712082
 10
-6.490379448
 20
3.379651744
 10
-6.4517864503
 20
3.4196926159
 10
-6.4103972086
 20
3.4570030144
 10
-6.366714933
 20
3.4911894169
 10
-6.3207310344
 20
3.5222458427
 10
-6.2724541021
 20
3.5501782808
 10
-6.2224131143
 20
3.5746111629
 10
-6.170370939
 20
3.5955396372
 10
-6.1165647083
 20
3.6129685622
 10
-6.0622347973
 20
3.6265369355
 10
-6.0077946646
 20
3.6361244245
 10
-5.9528308517
 20
3.6418513657
 10
-5.8973433585
 20
3.6437177602
  0
LWPOLYLINE
  5
272
100
AcDbEntity
  8
0
100
AcDbPolyline
 62
7
  6
CONTINUOUS
 90
19
 70
0
 10
-6.6249194924
 20
-3.0456966251
 10
-6.6062012049
 20
-3.098078974
 10
-6.5839471029
 20
-3.1487778741
 10
-6.5581571862
 20
-3.197793328
 10
-6.5285900899
 20
-3.2454837832
 10
-6.4954871789
 20
-3.2914907972
 10
-6.4595725487
 20
-3.3347390397
 10
-6.4209139329
 20
-3.3750010227
 10
-6.3794435978
 20
-3.4125042432
 10
-6.3356824377
 20
-3.4468558502
 10
-6.2896275994
 20
-3.4780461436
 10
-6.2412819362
 20
-3.5060848319
 10
-6.1911749016
 20
-3.5306081782
 10
-6.139080715
 20
-3.5516134124
 10
-6.0852251572
 20
-3.5691033113
 10
-6.0308150244
 20
-3.5827224595
 10
-5.9762525822
 20
-3.5923523863
 10
-5.921135565
 20
-3.5981115661
 10
-5.8654639729
 20
-3.6
  0
LWPOLYLINE
  5
273
100
AcDbEntity
  8
SUPERFICI
100
AcDbPolyline
 62
7
  6
CONTINUOUS
 90
19
 70
0
 10
-6.0472023246
 20
-2.227443191
 10
-6.0313791668
 20
-2.2759541658
 10
-6.0125395952
 20
-2.3231971454
 10
-5.9905816574
 20
-2.3693730416
 10
-5.9656073059
 20
-2.4142809449
 10
-5.9379223972
 20
-2.4573181261
 10
-5.9074934506
 20
-2.4984480688
 10
-5.874353947
 20
-2.5377072934
 10
-5.8389101859
 20
-2.5746026272
 10
-5.8011323224
 20
-2.609102843
 10
-5.7610502015
 20
-2.6412391729
 10
-5.7191596584
 20
-2.6706121333
 10
-5.6754292354
 20
-2.6971873311
 10
-5.6298903903
 20
-2.7209991642
 10
-5.5831333314
 20
-2.7417513362
 10
-5.5351460625
 20
-2.7593976378
 10
-5.4859405799
 20
-2.7739842822
 10
-5.4361430808
 20
-2.785353606
 10
-5.3859622975
 20
-2.7934530556
  0
LWPOLYLINE
  5
274
100
AcDbEntity
  8
0
100
AcDbPolyline
 62
7
  6
CONTINUOUS
 90
16
 70
0
 10
-6.6559567896
 20
-3.092043218
 10
-6.7768278661
 20
-2.6897017312
 10
-6.8805562969
 20
-2.2840740788
 10
-6.9671420822
 20
-1.8751604878
 10
-7.0366822315
 20
-1.4622731389
 10
-7.0890797351
 20
-1.0461003417
 10
-7.1240435645
 20
-0.6287065496
 10
-7.1414766464
 20
-0.2099661915
 10
-7.1414760542
 20
0.2099945849
 10
-7.1240419789
 20
0.6287337277
 10
-7.0890773807
 20
1.0461248818
 10
-7.0366792994
 20
1.4622938256
 10
-6.9671390455
 20
1.8751767283
 10
-6.8805537224
 20
2.2840854878
 10
-6.7768262267
 20
2.689707716
 10
-6.6559565583
 20
3.0920431858
  0
LWPOLYLINE
  5
275
100
AcDbEntity
  8
0
100
AcDbPolyline
 62
7
  6
CONTINUOUS
 90
16
 70
0
 10
-6.6249194924
 20
-3.0456966251
 10
-6.7426331796
 20
-2.6492698578
 10
-6.8436540383
 20
-2.2496452023
 10
-6.9279820684
 20
-1.8468228767
 10
-6.9957133037
 20
-1.4401344465
 10
-7.0467517105
 20
-1.0302488165
 10
-7.080809187
 20
-0.6191722446
 10
-7.0977896523
 20
-0.2067798459
 10
-7.0977891875
 20
0.2068029428
 10
-7.0808079343
 20
0.6191943619
 10
-7.0467498259
 20
1.0302688118
 10
-6.9957109293
 20
1.4401513402
 10
-6.9279795872
 20
1.8468361777
 10
-6.843651914
 20
2.2496545825
 10
-6.7426317954
 20
2.6492748264
 10
-6.6249192315
 20
3.045696691
  0
LINE
  5
276
100
AcDbEntity
  8
SUPERFICI
100
AcDbLine
 62
7
  6
CONTINUOUS
 10
-6.0600090686
 20
-2.17766422
 11
-6.0472023246
 21
-2.227443191
  0
LWPOLYLINE
  5
277
100
AcDbEntity
  8
SUPERFICI
100
AcDbPolyline
 62
7
  6
CONTINUOUS
 90
3
 70
0
 10
-6.1331328737
 20
-1.8192004831
 10
-6.0982196936
 20
-1.9987141769
 10
-6.0600090686
 20
-2.17766422
  0
LWPOLYLINE
  5
278
100
AcDbEntity
  8
0
100
AcDbPolyline
 62
7
  6
CONTINUOUS
 90
2
 70
0
 43
0.3500000006
 10
-3.3928571262
 20
30.8614429779
 10
-3.3928571262
 20
32.3614434357
  0
LINE
  5
279
100
AcDbEntity
  8
0
100
AcDbLine
 62
253
  6
CONTINUOUS
 10
-6.6559567896
 20
-3.092043218
 11
-6.6249194924
 21
-3.0456966251
  0
LINE
  5
27A
100
AcDbEntity
  8
0
100
AcDbLine
 62
253
  6
CONTINUOUS
 10
-5.8973436002
 20
-3.6437177602
 11
-5.8654639729
 21
-3.6
  0
LWPOLYLINE
  5
27B
100
AcDbEntity
  8
SUPERFICI
100
AcDbPolyline
 62
7
  6
CONTINUOUS
 90
19
 70
0
 10
5.3351768475
 20
-2.7983396798
 10
5.3859478597
 20
-2.7934578969
 10
5.4361377036
 20
-2.7853546506
 10
5.48596492
 20
-2.7739736465
 10
5.5352109682
 20
-2.759371177
 10
5.5832202266
 20
-2.7417161216
 10
5.629963825
 20
-2.7209676669
 10
5.6754706336
 20
-2.6971666225
 10
5.7191716413
 20
-2.6706043026
 10
5.7610426368
 20
-2.6412446175
 10
5.8011078314
 20
-2.609123652
 10
5.8388708481
 20
-2.5746409822
 10
5.8743011242
 20
-2.5377663742
 10
5.9074292224
 20
-2.498530057
 10
5.9378504545
 20
-2.4574223018
 10
5.9655304878
 20
-2.4144136351
 10
5.990503655
 20
-2.3695335263
 10
6.0124682657
 20
-2.3233606622
 10
6.0313237567
 20
-2.276087938
  0
LWPOLYLINE
  5
27C
100
AcDbEntity
  8
0
100
AcDbPolyline
 62
7
  6
CONTINUOUS
 90
19
 70
0
 10
5.865463733
 20
-3.6
 10
5.9211069425
 20
-3.5981220959
 10
5.9762184694
 20
-3.5923640766
 10
6.0307983138
 20
-3.5827259411
 10
6.085261487
 20
-3.5690863031
 10
6.1391929776
 20
-3.5515665451
 10
6.1913477515
 20
-3.5305308181
 10
6.2414877294
 20
-3.5059749765
 10
6.2898509905
 20
-3.4779031593
 10
6.3359067383
 20
-3.4466919449
 10
6.3796474387
 20
-3.412335057
 10
6.4210806259
 20
-3.3748387636
 10
6.4596981054
 20
-3.3345984601
 10
6.4955652015
 20
-3.2913987693
 10
6.52861659
 20
-3.2454550597
 10
6.558148104
 20
-3.1978088474
 10
6.5839250211
 20
-3.1488073037
 10
6.6061820636
 20
-3.0981032525
 10
6.6249192315
 20
-3.045696691
  0
LINE
  5
27D
100
AcDbEntity
  8
SUPERFICI
100
AcDbLine
 62
7
  6
CONTINUOUS
 10
5.2838246672
 20
-2.8
 11
5.3351768475
 21
-2.7983396798
  0
LINE
  5
27E
100
AcDbEntity
  8
0
100
AcDbLine
 62
7
  6
CONTINUOUS
 10
5.8973433585
 20
-3.6437177602
 11
-5.8973436002
 21
-3.6437177602
  0
LINE
  5
27F
100
AcDbEntity
  8
0
100
AcDbLine
 62
7
  6
CONTINUOUS
 10
5.865463733
 20
-3.6
 11
-5.8654639729
 21
-3.6
  0
LWPOLYLINE
  5
280
100
AcDbEntity
  8
0
100
AcDbPolyline
 62
7
  6
CONTINUOUS
 90
2
 70
0
 43
0.3500000006
 10
29.630000885
 20
-3.3928568802
 10
28.1300004272
 20
-3.3928568802
  0
LINE
  5
281
100
AcDbEntity
  8
SUPERFICI
100
AcDbLine
 62
7
  6
CONTINUOUS
 10
5.2838246588
 20
-2.8
 11
-5.2838246588
 21
-2.8
  0
LINE
  5
282
100
AcDbEntity
  8
0
100
AcDbLine
 62
7
  6
CONTINUOUS
 10
5.2838246588
 20
-2.8
 11
-5.2838246588
 21
-2.8
  0
LWPOLYLINE
  5
283
100
AcDbEntity
  8
0
100
AcDbPolyline
 62
7
  6
CONTINUOUS
 90
19
 70
0
 10
-5.8973436002
 20
-3.6437177602
 10
-5.9528597281
 20
-3.6418408562
 10
-6.0078292905
 20
-3.6361127029
 10
-6.0622522876
 20
-3.6265332996
 10
-6.116529425
 20
-3.6129852266
 10
-6.1702599971
 20
-3.5955858996
 10
-6.2222418859
 20
-3.5746875699
 10
-6.2722503056
 20
-3.5502867038
 10
-6.3205100422
 20
-3.5223868282
 10
-6.3664933355
 20
-3.4913507854
 10
-6.4101962099
 20
-3.4571691939
 10
-6.451622641
 20
-3.4198514269
 10
-6.4902567955
 20
-3.379788458
 10
-6.526165079
 20
-3.3367587548
 10
-6.5592810859
 20
-3.2909838408
 10
-6.5888897655
 20
-3.2435192762
 10
-6.6147527675
 20
-3.1947169133
 10
-6.6371084422
 20
-3.1442248948
 10
-6.6559567896
 20
-3.092043218
  0
LWPOLYLINE
  5
284
100
AcDbEntity
  8
0
100
AcDbPolyline
 62
7
  6
CONTINUOUS
 90
19
 70
0
 10
-5.2838246588
 20
-2.8
 10
-5.3433008228
 20
-2.7978622192
 10
-5.4021097904
 20
-2.7912895493
 10
-5.4602515614
 20
-2.7802819894
 10
-5.5182305797
 20
-2.7646793855
 10
-5.5755424014
 20
-2.7446418876
 10
-5.6306736957
 20
-2.7206499501
 10
-5.6833247547
 20
-2.6927027418
 10
-5.7337952863
 20
-2.6608010873
 10
-5.7814710826
 20
-2.6254279247
 10
-5.8263438411
 20
-2.5865791976
 10
-5.8684218643
 20
-2.5442589547
 10
-5.9071158519
 20
-2.4989622923
 10
-5.9424896429
 20
-2.4504099185
 10
-5.9744793983
 20
-2.3988811175
 10
-6.0023043005
 20
-2.3457088515
 10
-6.0257040768
 20
-2.291337441
 10
-6.0449389999
 20
-2.2353225623
 10
-6.0600090698
 20
-2.1776642136
  0
LWPOLYLINE
  5
285
100
AcDbEntity
  8
SUPERFICI
100
AcDbPolyline
 62
7
  6
CONTINUOUS
 90
3
 70
0
 10
-5.3859622975
 20
-2.7934530556
 10
-5.3351894978
 20
-2.7983351868
 10
-5.2838246816
 20
-2.8
  0
LINE
  5
286
100
AcDbEntity
  8
0
100
AcDbLine
 62
253
  6
CONTINUOUS
 10
-5.8973433585
 20
3.6437177602
 11
-5.865463733
 21
3.6
  0
LINE
  5
287
100
AcDbEntity
  8
0
100
AcDbLine
 62
253
  6
CONTINUOUS
 10
-6.6559565583
 20
3.0920431858
 11
-6.6249192315
 21
3.045696691
  0
LWPOLYLINE
  5
288
100
AcDbEntity
  8
0
100
AcDbPolyline
 62
7
  6
CONTINUOUS
 90
2
 70
0
 43
0.3500000006
 10
-1.035714268
 20
30.8614429779
 10
-1.035714268
 20
32.3614434357
  0
LINE
  5
289
100
AcDbEntity
  8
0
100
AcDbLine
 62
253
  6
CONTINUOUS
 10
-22.3014422353
 20
-21.6116135728
 11
-22.2764799709
 21
-21.5866513084
  0
LINE
  5
28A
100
AcDbEntity
  8
0
100
AcDbLine
 62
253
  6
CONTINUOUS
 10
21.8016135728
 20
22.1114422353
 11
21.7766513084
 21
22.0864799709
  0
LINE
  5
28B
100
AcDbEntity
  8
0
100
AcDbLine
 62
253
  6
CONTINUOUS
 10
-21.8016135728
 20
-22.1114422353
 11
-21.7766513084
 21
-22.0864799709
  0
LWPOLYLINE
  5
28C
100
AcDbEntity
  8
0
100
AcDbPolyline
 62
7
  6
CONTINUOUS
 90
2
 70
0
 43
0.3500000006
 10
29.630000885
 20
-1.0357139511
 10
28.1300004272
 20
-1.0357139511
  0
LINE
  5
28D
100
AcDbEntity
  8
0
100
AcDbLine
 62
253
  6
CONTINUOUS
 10
-22.2764799709
 20
21.5866513084
 11
-22.3014422353
 21
21.6116135728
  0
LINE
  5
28E
100
AcDbEntity
  8
0
100
AcDbLine
 62
253
  6
CONTINUOUS
 10
21.7766513084
 20
-22.0864799709
 11
21.8016135728
 21
-22.1114422353
  0
LINE
  5
28F
100
AcDbEntity
  8
0
100
AcDbLine
 62
253
  6
CONTINUOUS
 10
-21.7766513084
 20
22.0864799709
 11
-21.8016135728
 21
22.1114422353
  0
LINE
  5
290
100
AcDbEntity
  8
0
100
AcDbLine
 62
253
  6
CONTINUOUS
 10
22.3014422353
 20
21.6116135728
 11
22.2764799709
 21
21.5866513084
  0
LINE
  5
291
100
AcDbEntity
  8
0
100
AcDbLine
 62
253
  6
CONTINUOUS
 10
22.2764799709
 20
-21.5866513084
 11
22.3014422353
 21
-21.6116135728
  0
LINE
  5
292
100
AcDbEntity
  8
0
100
AcDbLine
 62
253
  6
CONTINUOUS
 10
6.6559567896
 20
3.092043218
 11
6.6249194924
 21
3.0456966251
  0
LINE
  5
293
100
AcDbEntity
  8
0
100
AcDbLine
 62
253
  6
CONTINUOUS
 10
5.8973436002
 20
3.6437177602
 11
5.8654639729
 21
3.6
  0
LWPOLYLINE
  5
294
100
AcDbEntity
  8
SUPERFICI
100
AcDbPolyline
 62
7
  6
CONTINUOUS
 90
19
 70
0
 10
-5.3351768475
 20
2.7983396798
 10
-5.3859478596
 20
2.7934578969
 10
-5.4361377036
 20
2.7853546506
 10
-5.48596492
 20
2.7739736465
 10
-5.5352109682
 20
2.759371177
 10
-5.5832202266
 20
2.7417161216
 10
-5.629963825
 20
2.7209676669
 10
-5.6754706336
 20
2.6971666225
 10
-5.7191716413
 20
2.6706043026
 10
-5.7610426368
 20
2.6412446175
 10
-5.8011078314
 20
2.609123652
 10
-5.8388708481
 20
2.5746409822
 10
-5.8743011242
 20
2.5377663742
 10
-5.9074292224
 20
2.498530057
 10
-5.9378504545
 20
2.4574223018
 10
-5.9655304878
 20
2.4144136351
 10
-5.990503655
 20
2.3695335263
 10
-6.0124682657
 20
2.3233606622
 10
-6.0313237567
 20
2.276087938
  0
LWPOLYLINE
  5
295
100
AcDbEntity
  8
0
100
AcDbPolyline
 62
7
  6
CONTINUOUS
 90
19
 70
0
 10
-5.865463733
 20
3.6
 10
-5.9211069425
 20
3.5981220959
 10
-5.9762184694
 20
3.5923640766
 10
-6.0307983138
 20
3.5827259411
 10
-6.085261487
 20
3.5690863031
 10
-6.1391929776
 20
3.5515665451
 10
-6.1913477515
 20
3.5305308181
 10
-6.2414877294
 20
3.5059749765
 10
-6.2898509905
 20
3.4779031593
 10
-6.3359067383
 20
3.4466919449
 10
-6.3796474387
 20
3.412335057
 10
-6.4210806259
 20
3.3748387636
 10
-6.4596981054
 20
3.3345984601
 10
-6.4955652015
 20
3.2913987693
 10
-6.52861659
 20
3.2454550597
 10
-6.558148104
 20
3.1978088474
 10
-6.5839250211
 20
3.1488073037
 10
-6.6061820636
 20
3.0981032525
 10
-6.6249192315
 20
3.045696691
  0
LINE
  5
296
100
AcDbEntity
  8
SUPERFICI
100
AcDbLine
 62
7
  6
CONTINUOUS
 10
-5.2838246672
 20
2.8
 11
-5.3351768475
 21
2.7983396798
  0
LINE
  5
297
100
AcDbEntity
  8
SUPERFICI
100
AcDbLine
 62
7
  6
CONTINUOUS
 10
5.2838246588
 20
2.8
 11
-5.2838246588
 21
2.8
  0
LINE
  5
298
100
AcDbEntity
  8
0
100
AcDbLine
 62
7
  6
CONTINUOUS
 10
5.2838246588
 20
2.8
 11
-5.2838246588
 21
2.8
  0
LINE
  5
299
100
AcDbEntity
  8
0
100
AcDbLine
 62
7
  6
CONTINUOUS
 10
5.8654639729
 20
3.6
 11
-5.865463733
 21
3.6
  0
LINE
  5
29A
100
AcDbEntity
  8
0
100
AcDbLine
 62
7
  6
CONTINUOUS
 10
5.8973436002
 20
3.6437177602
 11
-5.8973433585
 21
3.6437177602
  0
LWPOLYLINE
  5
29B
100
AcDbEntity
  8
0
100
AcDbPolyline
 62
7
  6
CONTINUOUS
 90
19
 70
0
 10
5.8973436002
 20
3.6437177602
 10
5.9528597281
 20
3.6418408562
 10
6.0078292905
 20
3.6361127029
 10
6.0622522876
 20
3.6265332996
 10
6.116529425
 20
3.6129852266
 10
6.1702599971
 20
3.5955858996
 10
6.2222418859
 20
3.5746875699
 10
6.2722503056
 20
3.5502867038
 10
6.3205100422
 20
3.5223868282
 10
6.3664933355
 20
3.4913507854
 10
6.4101962099
 20
3.4571691939
 10
6.451622641
 20
3.4198514269
 10
6.4902567955
 20
3.379788458
 10
6.526165079
 20
3.3367587548
 10
6.5592810859
 20
3.2909838408
 10
6.5888897655
 20
3.2435192762
 10
6.6147527675
 20
3.1947169133
 10
6.6371084422
 20
3.1442248948
 10
6.6559567896
 20
3.092043218
  0
LWPOLYLINE
  5
29C
100
AcDbEntity
  8
0
100
AcDbPolyline
 62
7
  6
CONTINUOUS
 90
19
 70
0
 10
5.2838246588
 20
2.8
 10
5.3433008228
 20
2.7978622192
 10
5.4021097904
 20
2.7912895493
 10
5.4602515614
 20
2.7802819894
 10
5.5182305797
 20
2.7646793855
 10
5.5755424014
 20
2.7446418876
 10
5.6306736957
 20
2.7206499501
 10
5.6833247547
 20
2.6927027418
 10
5.7337952863
 20
2.6608010873
 10
5.7814710826
 20
2.6254279247
 10
5.8263438411
 20
2.5865791976
 10
5.8684218643
 20
2.5442589547
 10
5.9071158519
 20
2.4989622923
 10
5.9424896429
 20
2.4504099185
 10
5.9744793983
 20
2.3988811175
 10
6.0023043005
 20
2.3457088515
 10
6.0257040768
 20
2.291337441
 10
6.0449389999
 20
2.2353225623
 10
6.0600090698
 20
2.1776642136
  0
LWPOLYLINE
  5
29D
100
AcDbEntity
  8
SUPERFICI
100
AcDbPolyline
 62
7
  6
CONTINUOUS
 90
3
 70
0
 10
5.3859622975
 20
2.7934530556
 10
5.3351894978
 20
2.7983351868
 10
5.2838246816
 20
2.8
  0
LINE
  5
29E
100
AcDbEntity
  8
0
100
AcDbLine
 62
253
  6
CONTINUOUS
 10
5.8973433585
 20
-3.6437177602
 11
5.865463733
 21
-3.6
  0
LINE
  5
29F
100
AcDbEntity
  8
0
100
AcDbLine
 62
253
  6
CONTINUOUS
 10
6.6559565583
 20
-3.0920431858
 11
6.6249192315
 21
-3.045696691
  0
LWPOLYLINE
  5
2A0
100
AcDbEntity
  8
SUPERFICI
100
AcDbPolyline
 62
7
  6
CONTINUOUS
 90
21
 70
0
 10
6.1331356424
 20
-1.8191847598
 10
6.1647520692
 20
-1.6391023331
 10
6.1930799326
 20
-1.4583933031
 10
6.2181098897
 20
-1.2771225236
 10
6.239813911
 20
-1.095484514
 10
6.2581877398
 20
-0.9134830898
 10
6.2732356328
 20
-0.7311144819
 10
6.2849423313
 20
-0.5485618349
 10
6.2933044612
 20
-0.365824754
 10
6.2983253966
 20
-0.1829036824
 10
6.3
 20
0.0000169778
 10
6.2983248269
 20
0.1829369481
 10
6.2933033219
 20
0.3658564579
 10
6.2849406814
 20
0.5485918661
 10
6.2732335554
 20
0.7311429226
 10
6.2581852938
 20
0.9135098291
 10
6.2398111437
 20
1.095509623
 10
6.2181067061
 20
1.2771467701
 10
6.1930763799
 20
1.4584167582
 10
6.1647486087
 20
1.6391231593
 10
6.1331328737
 20
1.8192004831
  0
LWPOLYLINE
  5
2A1
100
AcDbEntity
  8
0
100
AcDbPolyline
 62
7
  6
CONTINUOUS
 90
13
 70
0
 10
6.0600090698
 20
-2.1776642135
 10
6.133159341
 20
-1.8191022651
 10
6.193048899
 20
-1.4587872427
 10
6.2396777439
 20
-1.0967193215
 10
6.2730939533
 20
-0.7323146345
 10
6.2932494496
 20
-0.3661574142
 10
6.3
 20
0.0000000026
 10
6.2932494494
 20
0.3661574189
 10
6.2730939531
 20
0.7323146383
 10
6.2396777436
 20
1.0967193243
 10
6.1930488987
 20
1.4587872446
 10
6.1331593408
 20
1.819102266
 10
6.0600090698
 20
2.1776642136
  0
LWPOLYLINE
  5
2A2
100
AcDbEntity
  8
SUPERFICI
100
AcDbPolyline
 62
7
  6
CONTINUOUS
 90
3
 70
0
 10
6.0600090695
 20
-2.1776642154
 10
6.0982213091
 20
-1.9987053942
 10
6.132995371
 20
-1.8199059998
  0
LWPOLYLINE
  5
2A3
100
AcDbEntity
  8
0
100
AcDbPolyline
 62
7
  6
CONTINUOUS
 90
19
 70
0
 10
6.0600090698
 20
-2.1776642135
 10
6.0449561011
 20
-2.2353000016
 10
6.0257218572
 20
-2.291313446
 10
6.002306338
 20
-2.3457045485
 10
5.974442631
 20
-2.39893062
 10
5.9423976487
 20
-2.4505343528
 10
5.9069721287
 20
-2.4991438222
 10
5.8682316065
 20
-2.5444656968
 10
5.8261105464
 20
-2.5867933159
 10
5.7812130791
 20
-2.6256347636
 10
5.7335359304
 20
-2.6609819817
 10
5.6830823744
 20
-2.6928430361
 10
5.630466364
 20
-2.7207501982
 10
5.5754022539
 20
-2.744704084
 10
5.5181756894
 20
-2.764704084
 10
5.4602575589
 20
-2.7802806306
 10
5.4021381583
 20
-2.7912772028
 10
5.3433271916
 20
-2.7978503256
 10
5.2838246588
 20
-2.8
  0
LWPOLYLINE
  5
2A4
100
AcDbEntity
  8
SUPERFICI
100
AcDbPolyline
 62
7
  6
CONTINUOUS
 90
3
 70
0
 10
6.0313237567
 20
-2.276087938
 10
6.0471706913
 20
-2.2275224561
 10
6.0600090695
 20
-2.1776642154
  0
LWPOLYLINE
  5
2A5
100
AcDbEntity
  8
SUPERFICI
100
AcDbPolyline
 62
7
  6
CONTINUOUS
 90
19
 70
0
 10
6.0472023246
 20
2.227443191
 10
6.0313791668
 20
2.2759541658
 10
6.0125395952
 20
2.3231971454
 10
5.9905816574
 20
2.3693730416
 10
5.9656073059
 20
2.4142809449
 10
5.9379223972
 20
2.4573181261
 10
5.9074934506
 20
2.4984480688
 10
5.874353947
 20
2.5377072934
 10
5.8389101859
 20
2.5746026272
 10
5.8011323224
 20
2.609102843
 10
5.7610502015
 20
2.6412391729
 10
5.7191596584
 20
2.6706121333
 10
5.6754292354
 20
2.6971873311
 10
5.6298903903
 20
2.7209991642
 10
5.5831333314
 20
2.7417513362
 10
5.5351460625
 20
2.7593976378
 10
5.4859405799
 20
2.7739842822
 10
5.4361430808
 20
2.785353606
 10
5.3859622975
 20
2.7934530556
  0
LINE
  5
2A6
100
AcDbEntity
  8
SUPERFICI
100
AcDbLine
 62
7
  6
CONTINUOUS
 10
6.0600090686
 20
2.17766422
 11
6.0472023246
 21
2.227443191
  0
LWPOLYLINE
  5
2A7
100
AcDbEntity
  8
SUPERFICI
100
AcDbPolyline
 62
7
  6
CONTINUOUS
 90
3
 70
0
 10
6.1331328737
 20
1.8192004831
 10
6.0982196936
 20
1.9987141769
 10
6.0600090686
 20
2.17766422
  0
LWPOLYLINE
  5
2A8
100
AcDbEntity
  8
0
100
AcDbPolyline
 62
7
  6
CONTINUOUS
 90
19
 70
0
 10
6.6559565583
 20
-3.0920431858
 10
6.6370880196
 20
-3.1442514545
 10
6.6147284223
 20
-3.1947503159
 10
6.5888777665
 20
-3.2435397728
 10
6.5593044474
 20
-3.2909601902
 10
6.5262400697
 20
-3.3366712082
 10
6.490379448
 20
-3.379651744
 10
6.4517864503
 20
-3.4196926159
 10
6.4103972086
 20
-3.4570030144
 10
6.366714933
 20
-3.4911894169
 10
6.3207310344
 20
-3.5222458427
 10
6.2724541021
 20
-3.5501782808
 10
6.2224131143
 20
-3.5746111629
 10
6.170370939
 20
-3.5955396372
 10
6.1165647083
 20
-3.6129685622
 10
6.0622347973
 20
-3.6265369355
 10
6.0077946646
 20
-3.6361244245
 10
5.9528308517
 20
-3.6418513658
 10
5.8973433585
 20
-3.6437177602
  0
LWPOLYLINE
  5
2A9
100
AcDbEntity
  8
0
100
AcDbPolyline
 62
7
  6
CONTINUOUS
 90
19
 70
0
 10
6.6249194924
 20
3.0456966251
 10
6.6062012049
 20
3.098078974
 10
6.5839471029
 20
3.1487778741
 10
6.5581571862
 20
3.197793328
 10
6.5285900899
 20
3.2454837832
 10
6.4954871789
 20
3.2914907972
 10
6.4595725487
 20
3.3347390397
 10
6.4209139329
 20
3.3750010227
 10
6.3794435978
 20
3.4125042432
 10
6.3356824377
 20
3.4468558502
 10
6.2896275994
 20
3.4780461436
 10
6.2412819362
 20
3.5060848319
 10
6.1911749016
 20
3.5306081782
 10
6.139080715
 20
3.5516134124
 10
6.0852251572
 20
3.5691033113
 10
6.0308150244
 20
3.5827224595
 10
5.9762525822
 20
3.5923523863
 10
5.921135565
 20
3.5981115661
 10
5.8654639729
 20
3.6
  0
LWPOLYLINE
  5
2AA
100
AcDbEntity
  8
0
100
AcDbPolyline
 62
7
  6
CONTINUOUS
 90
16
 70
0
 10
6.6559567896
 20
3.092043218
 10
6.7768278661
 20
2.6897017312
 10
6.8805562969
 20
2.2840740788
 10
6.9671420822
 20
1.8751604878
 10
7.0366822315
 20
1.4622731389
 10
7.0890797351
 20
1.0461003417
 10
7.1240435645
 20
0.6287065496
 10
7.1414766464
 20
0.2099661915
 10
7.1414760542
 20
-0.209994585
 10
7.1240419789
 20
-0.6287337277
 10
7.0890773807
 20
-1.0461248818
 10
7.0366792994
 20
-1.4622938256
 10
6.9671390455
 20
-1.8751767283
 10
6.8805537224
 20
-2.2840854878
 10
6.7768262267
 20
-2.689707716
 10
6.6559565583
 20
-3.0920431858
  0
LWPOLYLINE
  5
2AB
100
AcDbEntity
  8
0
100
AcDbPolyline
 62
7
  6
CONTINUOUS
 90
16
 70
0
 10
6.6249194924
 20
3.0456966251
 10
6.7426331796
 20
2.6492698578
 10
6.8436540383
 20
2.2496452023
 10
6.9279820684
 20
1.8468228767
 10
6.9957133037
 20
1.4401344465
 10
7.0467517105
 20
1.0302488165
 10
7.080809187
 20
0.6191722446
 10
7.0977896523
 20
0.2067798459
 10
7.0977891875
 20
-0.2068029428
 10
7.0808079343
 20
-0.6191943619
 10
7.0467498259
 20
-1.0302688118
 10
6.9957109293
 20
-1.4401513402
 10
6.9279795872
 20
-1.8468361777
 10
6.843651914
 20
-2.2496545825
 10
6.7426317954
 20
-2.6492748264
 10
6.6249192315
 20
-3.045696691
  0
LINE
  5
2AC
100
AcDbEntity
  8
RACCORDO
100
AcDbLine
 62
253
  6
CONTINUOUS
 10
-22.1380102879
 20
9.4960050713
 11
-22.0681687786
 21
9.4974728383
  0
LINE
  5
2AD
100
AcDbEntity
  8
RACCORDO
100
AcDbLine
 62
253
  6
CONTINUOUS
 10
-22.0681687786
 20
9.4974728383
 11
-21.9843795934
 21
9.4986458948
  0
LINE
  5
2AE
100
AcDbEntity
  8
RACCORDO
100
AcDbLine
 62
253
  6
CONTINUOUS
 10
-21.9843795934
 20
9.4986458948
 11
-21.8901841222
 21
9.4994746612
  0
LINE
  5
2AF
100
AcDbEntity
  8
RACCORDO
100
AcDbLine
 62
253
  6
CONTINUOUS
 10
-21.8901841222
 20
9.4994746612
 11
-21.7381671644
 21
9.4999999996
  0
LINE
  5
2B0
100
AcDbEntity
  8
RACCORDO
100
AcDbLine
 62
253
  6
CONTINUOUS
 10
21.840415486
 20
9.4997483763
 11
-21.7381671644
 21
9.5
  0
LINE
  5
2B1
100
AcDbEntity
  8
RACCORDO
100
AcDbLine
 62
253
  6
CONTINUOUS
 10
21.9383422333
 20
9.4991058655
 11
21.840415486
 21
9.4997483763
  0
LINE
  5
2B2
100
AcDbEntity
  8
RACCORDO
100
AcDbLine
 62
253
  6
CONTINUOUS
 10
22.0278084851
 20
9.4980996237
 11
21.9383422333
 21
9.4991058655
  0
LWPOLYLINE
  5
2B3
100
AcDbEntity
  8
0
100
AcDbPolyline
 62
7
  6
CONTINUOUS
 90
3
 70
0
 43
0.3500000006
 10
29.3442852173
 20
1.0357133102
 10
29.5585719681
 20
0.9642866592
 10
29.8442853699
 20
0.8214288254
  0
LWPOLYLINE
  5
2B4
100
AcDbEntity
  8
RACCORDO
100
AcDbPolyline
 62
253
  6
CONTINUOUS
 90
12
 70
0
 10
22.2764799709
 20
21.5866513084
 10
22.2754643837
 20
21.5841100213
 10
22.274466787
 20
21.5786680472
 10
22.2734871808
 20
21.5703253861
 10
22.2725192882
 20
21.558997784
 10
22.271569386
 20
21.5447694949
 10
22.2706563049
 20
21.5278932804
 10
22.2697813035
 20
21.5083229654
 10
22.2689431232
 20
21.4861047249
 10
22.2681568186
 20
21.4616298466
 10
22.2674232508
 20
21.4348517581
 10
22.2661242127
 20
21.3750566723
  0
LWPOLYLINE
  5
2B5
100
AcDbEntity
  8
0
100
AcDbPolyline
 62
7
  6
CONTINUOUS
 90
10
 70
0
 43
0.3500000006
 10
29.1300007324
 20
0.9642866592
 10
29.2728563004
 20
1.0357133102
 10
29.3442852173
 20
1.0357133102
 10
29.4871430511
 20
0.8928577423
 10
29.4871430511
 20
0.8214288254
 10
29.4157141342
 20
0.7499999084
 10
29.3442852173
 20
0.7499999084
 10
29.2014296494
 20
0.8214288254
 10
29.1300007324
 20
0.8928577423
 10
29.1300007324
 20
0.9642866592
  0
LWPOLYLINE
  5
2B6
100
AcDbEntity
  8
RACCORDO
100
AcDbPolyline
 62
253
  6
CONTINUOUS
 90
7
 70
0
 10
-22.2379958269
 20
9.4905
 10
-22.2340029662
 20
9.4914768667
 10
-22.2247570079
 20
9.492443384
 10
-22.2103559075
 20
9.4933893123
 10
-22.1909522366
 20
9.4943046299
 10
-22.166751566
 20
9.4951796397
 10
-22.1380102879
 20
9.4960050713
  0
LWPOLYLINE
  5
2B7
100
AcDbEntity
  8
RACCORDO
100
AcDbPolyline
 62
253
  6
CONTINUOUS
 90
9
 70
0
 10
22.2379958269
 20
9.4905
 10
22.2340029682
 20
9.4914768667
 10
22.2247570116
 20
9.4924433841
 10
22.2103559127
 20
9.4933893124
 10
22.1909522429
 20
9.4943046301
 10
22.166751573
 20
9.4951796399
 10
22.1380102953
 20
9.4960050715
 10
22.1050329074
 20
9.4967721801
 10
22.0278084851
 20
9.4980996237
  0
LWPOLYLINE
  5
2B8
100
AcDbEntity
  8
0
100
AcDbPolyline
 62
7
  6
CONTINUOUS
 90
10
 70
0
 43
0.3500000006
 10
0.9642857051
 20
31.3614431305
 10
1.035714268
 20
31.2185852966
 10
1.035714268
 20
31.1471586456
 10
0.8928571422
 20
31.0043008118
 10
0.8214285793
 20
31.0043008118
 10
0.7500000165
 20
31.0757274628
 10
0.7500000165
 20
31.1471586456
 10
0.8214285793
 20
31.2900119476
 10
0.8928571422
 20
31.3614431305
 10
0.9642857051
 20
31.3614431305
  0
LWPOLYLINE
  5
2B9
100
AcDbEntity
  8
RACCORDO
100
AcDbPolyline
 62
253
  6
CONTINUOUS
 90
8
 70
0
 10
21.7766513084
 20
22.0864799709
 10
21.7756293871
 20
22.0814535722
 10
21.7746275169
 20
22.0704577735
 10
21.773645698
 20
22.0535589575
 10
21.772678348
 20
22.0308586736
 10
21.7717310492
 20
22.0024936657
 10
21.7708205485
 20
21.968635596
 10
21.7691111237
 20
21.8852903227
  0
LWPOLYLINE
  5
2BA
100
AcDbEntity
  8
RACCORDO
100
AcDbPolyline
 62
253
  6
CONTINUOUS
 90
7
 70
0
 10
21.7708201249
 20
-21.9686332738
 10
21.7717307095
 20
-22.0024922519
 10
21.7726780577
 20
-22.0308580893
 10
21.7736454625
 20
-22.0535588376
 10
21.7746273547
 20
-22.070457797
 10
21.7756293033
 20
-22.0814536019
 10
21.7766513084
 20
-22.0864799709
  0
LINE
  5
2BB
100
AcDbEntity
  8
RACCORDO
100
AcDbLine
 62
253
  6
CONTINUOUS
 10
21.7640480307
 20
21.2362251476
 11
-21.7640480307
 21
21.2362251476
  0
LWPOLYLINE
  5
2BC
100
AcDbEntity
  8
RACCORDO
100
AcDbPolyline
 62
253
  6
CONTINUOUS
 90
10
 70
0
 10
22.2681527169
 20
-21.4614914897
 10
22.2689391127
 20
-21.4859859557
 10
22.2697777543
 20
-21.5082362811
 10
22.27065331
 20
-21.5278351628
 10
22.2715670101
 20
-21.5447313594
 10
22.2725176243
 20
-21.5589761122
 10
22.2734861298
 20
-21.5703158414
 10
22.2744661856
 20
-21.5786660206
 10
22.2754641326
 20
-21.5841111763
 10
22.2764799709
 20
-21.5866513084
  0
LINE
  5
2BD
100
AcDbEntity
  8
RACCORDO
100
AcDbLine
 62
253
  6
CONTINUOUS
 10
22.266738871
 20
-21.4056933754
 11
22.2681527169
 21
-21.4614914897
  0
LINE
  5
2BE
100
AcDbEntity
  8
RACCORDO
100
AcDbLine
 62
253
  6
CONTINUOUS
 10
21.7691102789
 20
-21.8852865879
 11
21.7708201249
 21
-21.9686332738
  0
LINE
  5
2BF
100
AcDbEntity
  8
RACCORDO
100
AcDbLine
 62
253
  6
CONTINUOUS
 10
22.2655711136
 20
-21.3424327347
 11
22.266738871
 21
-21.4056933754
  0
LINE
  5
2C0
100
AcDbEntity
  8
RACCORDO
100
AcDbLine
 62
253
  6
CONTINUOUS
 10
21.7669142997
 20
-21.7251528619
 11
21.7691102789
 21
-21.8852865879
  0
LINE
  5
2C1
100
AcDbEntity
  8
RACCORDO
100
AcDbLine
 62
253
  6
CONTINUOUS
 10
22.2646703475
 20
-21.2729143474
 11
22.2655711136
 21
-21.3424327347
  0
LINE
  5
2C2
100
AcDbEntity
  8
RACCORDO
100
AcDbLine
 62
253
  6
CONTINUOUS
 10
21.7648466646
 20
-21.4599830018
 11
21.7669142997
 21
-21.7251528619
  0
LINE
  5
2C3
100
AcDbEntity
  8
RACCORDO
100
AcDbLine
 62
253
  6
CONTINUOUS
 10
22.2638766932
 20
-21.1615238967
 11
22.2646703475
 21
-21.2729143474
  0
LINE
  5
2C4
100
AcDbEntity
  8
RACCORDO
100
AcDbLine
 62
253
  6
CONTINUOUS
 10
21.7476037732
 20
-16.0366548119
 11
21.7640480307
 21
-21.2362251476
  0
LINE
  5
2C5
100
AcDbEntity
  8
RACCORDO
100
AcDbLine
 62
253
  6
CONTINUOUS
 10
22.2474324428
 20
-15.9909275752
 11
22.2638766932
 21
-21.1615238967
  0
LINE
  5
2C6
100
AcDbEntity
  8
RACCORDO
100
AcDbLine
 62
253
  6
CONTINUOUS
 10
21.7640480307
 20
-21.2362251476
 11
21.7648466646
 21
-21.4599830018
  0
LINE
  5
2C7
100
AcDbEntity
  8
RACCORDO
100
AcDbLine
 62
253
  6
CONTINUOUS
 10
21.7390638437
 20
-10.809162614
 11
21.7476037732
 21
-16.0366548119
  0
LINE
  5
2C8
100
AcDbEntity
  8
RACCORDO
100
AcDbLine
 62
253
  6
CONTINUOUS
 10
22.2388924616
 20
-10.7928222982
 11
22.2474324428
 21
-15.9909275752
  0
LINE
  5
2C9
100
AcDbEntity
  8
RACCORDO
100
AcDbLine
 62
253
  6
CONTINUOUS
 10
21.735835169
 20
1.0555621241
 11
21.7390638437
 21
-10.809162614
  0
LINE
  5
2CA
100
AcDbEntity
  8
RACCORDO
100
AcDbLine
 62
253
  6
CONTINUOUS
 10
22.235663832
 20
1.0545216111
 11
22.2388924616
 21
-10.7928222982
  0
LINE
  5
2CB
100
AcDbEntity
  8
0
100
AcDbLine
 62
7
  6
CONTINUOUS
 10
22.3014422353
 20
21.6116135728
 11
22.3014422353
 21
-21.6116135728
  0
LINE
  5
2CC
100
AcDbEntity
  8
RACCORDO
100
AcDbLine
 62
253
  6
CONTINUOUS
 10
21.7423428018
 20
13.4252942234
 11
21.735835169
 21
1.0555621241
  0
LINE
  5
2CD
100
AcDbEntity
  8
RACCORDO
100
AcDbLine
 62
253
  6
CONTINUOUS
 10
22.2421714406
 20
13.3939726076
 11
22.235663832
 21
1.0545216111
  0
LINE
  5
2CE
100
AcDbEntity
  8
RACCORDO
100
AcDbLine
 62
253
  6
CONTINUOUS
 10
21.7548394573
 20
18.6410336052
 11
21.7423428018
 21
13.4252942234
  0
LINE
  5
2CF
100
AcDbEntity
  8
RACCORDO
100
AcDbLine
 62
253
  6
CONTINUOUS
 10
22.2546682314
 20
18.5804252298
 11
22.2421714406
 21
13.3939726076
  0
LINE
  5
2D0
100
AcDbEntity
  8
RACCORDO
100
AcDbLine
 62
253
  6
CONTINUOUS
 10
21.7652608966
 20
21.5306779274
 11
21.7548394573
 21
18.6410336052
  0
LINE
  5
2D1
100
AcDbEntity
  8
RACCORDO
100
AcDbLine
 62
253
  6
CONTINUOUS
 10
22.2643327731
 20
21.2368459471
 11
22.2546682314
 21
18.5804252298
  0
LINE
  5
2D2
100
AcDbEntity
  8
RACCORDO
100
AcDbLine
 62
253
  6
CONTINUOUS
 10
21.7669146285
 20
21.7251570648
 11
21.7652608966
 21
21.5306779274
  0
LINE
  5
2D3
100
AcDbEntity
  8
RACCORDO
100
AcDbLine
 62
253
  6
CONTINUOUS
 10
22.265084922
 20
21.3082533785
 11
22.2643327731
 21
21.2368459471
  0
LINE
  5
2D4
100
AcDbEntity
  8
RACCORDO
100
AcDbLine
 62
253
  6
CONTINUOUS
 10
21.7691111237
 20
21.8852903227
 11
21.7669146285
 21
21.7251570648
  0
LINE
  5
2D5
100
AcDbEntity
  8
RACCORDO
100
AcDbLine
 62
253
  6
CONTINUOUS
 10
22.2661242127
 20
21.3750566723
 11
22.265084922
 21
21.3082533785
  0
LINE
  5
2D6
100
AcDbEntity
  8
RACCORDO
100
AcDbLine
 62
253
  6
CONTINUOUS
 10
21.7766513084
 20
22.0864799709
 11
-21.7766513084
 21
22.0864799709
  0
LINE
  5
2D7
100
AcDbEntity
  8
0
100
AcDbLine
 62
7
  6
CONTINUOUS
 10
21.8016135728
 20
22.1114422353
 11
-21.8016135728
 21
22.1114422353
  0
LWPOLYLINE
  5
2D8
100
AcDbEntity
  8
RACCORDO
100
AcDbPolyline
 62
253
  6
CONTINUOUS
 90
16
 70
0
 10
22.2764799709
 20
21.5866513084
 10
22.2737085996
 20
21.6388735973
 10
22.2654963459
 20
21.690524463
 10
22.2519330371
 20
21.7410385151
 10
22.2331670751
 20
21.7898627998
 10
22.2094038183
 20
21.8364628405
 10
22.180903339
 20
21.8803284908
 10
22.1479775626
 20
21.9209795447
 10
22.1109868701
 20
21.957970966
 10
22.0703361707
 20
21.9908977572
 10
22.0264704213
 20
22.0193994387
 10
21.9798697895
 20
22.04316396
 10
21.9310444317
 20
22.0619311116
 10
21.8805288403
 20
22.075495413
 10
21.8288759856
 20
22.0837083472
 10
21.7766513085
 20
22.086479971
  0
LWPOLYLINE
  5
2D9
100
AcDbEntity
  8
RACCORDO
100
AcDbPolyline
 62
253
  6
CONTINUOUS
 90
16
 70
0
 10
22.2764799709
 20
-21.5866513084
 10
22.2737084581
 20
-21.6388749344
 10
22.265495829
 20
-21.6905268861
 10
22.2519319847
 20
-21.741041747
 10
22.2331654038
 20
-21.7898665481
 10
22.2094015179
 20
-21.8364668208
 10
22.180900462
 20
-21.8803324477
 10
22.1479742276
 20
-21.9209832468
 10
22.110983247
 20
-21.9579742274
 10
22.070332448
 20
-21.9909004618
 10
22.026466821
 20
-22.0194015178
 10
21.9798665483
 20
-22.0431654038
 10
21.9310417472
 20
-22.0619319847
 10
21.8805268862
 20
-22.0754958291
 10
21.8288749345
 20
-22.0837084581
 10
21.7766513084
 20
-22.0864799709
  0
LWPOLYLINE
  5
2DA
100
AcDbEntity
  8
0
100
AcDbPolyline
 62
7
  6
CONTINUOUS
 90
3
 70
0
 43
0.3500000006
 10
28.9871428986
 20
-0.5357137985
 10
28.9871428986
 20
-2.0357142563
 10
26.6299999695
 20
-1.3928574028
  0
LWPOLYLINE
  5
2DB
100
AcDbEntity
  8
0
100
AcDbPolyline
 62
7
  6
CONTINUOUS
 90
3
 70
0
 43
0.3500000006
 10
28.9871428986
 20
-2.8928567276
 10
28.9871428986
 20
-4.3928571854
 10
26.6299999695
 20
-3.7500003319
  0
LWPOLYLINE
  5
2DC
100
AcDbEntity
  8
0
100
AcDbPolyline
 62
7
  6
CONTINUOUS
 90
7
 70
0
 43
0.3500000006
 10
29.630000885
 20
3.5357140732
 10
29.630000885
 20
2.0357136154
 10
27.4871424408
 20
3.5357140732
 10
27.0585712051
 20
3.5357140732
 10
26.6299999695
 20
3.1071428375
 10
26.6299999695
 20
2.4642848511
 10
27.2728579559
 20
2.0357136154
  0
LWPOLYLINE
  5
2DD
100
AcDbEntity
  8
RACCORDO
100
AcDbPolyline
 62
253
  6
CONTINUOUS
 90
16
 70
0
 10
22.263876693
 20
-21.1615238967
 10
22.2598961887
 20
-21.1692063518
 10
22.2506606727
 20
-21.1768073667
 10
22.2362680235
 20
-21.1842463858
 10
22.2168707748
 20
-21.19144457
 10
22.1926744993
 20
-21.1983256327
 10
22.1639356299
 20
-21.2048166483
 10
22.1309587422
 20
-21.2108488247
 10
22.0940933262
 20
-21.2163582328
 10
22.053730083
 20
-21.2212864835
 10
22.0102967834
 20
-21.2255813472
 10
21.9642537351
 20
-21.2291973067
 10
21.9160889038
 20
-21.2320960401
 10
21.866312742
 20
-21.2342468266
 10
21.8154527791
 20
-21.235626872
 10
21.7640480308
 20
-21.2362215505
  0
LWPOLYLINE
  5
2DE
100
AcDbEntity
  8
0
100
AcDbPolyline
 62
7
  6
CONTINUOUS
 90
3
 70
0
 43
0.3500000006
 10
-0.5357142924
 20
31.5043009644
 10
-2.0357142191
 20
31.5043009644
 10
-1.3928570824
 20
33.8614438934
  0
LWPOLYLINE
  5
2DF
100
AcDbEntity
  8
0
100
AcDbPolyline
 62
7
  6
CONTINUOUS
 90
3
 70
0
 43
0.3500000006
 10
-2.8928572569
 20
31.5043009644
 10
-4.3928571482
 20
31.5043009644
 10
-3.7500000114
 20
33.8614438934
  0
LWPOLYLINE
  5
2E0
100
AcDbEntity
  8
RACCORDO
100
AcDbPolyline
 62
253
  6
CONTINUOUS
 90
16
 70
0
 10
22.2638766932
 20
21.1615238967
 10
22.2598974597
 20
21.1692066572
 10
22.250663019
 20
21.1768079927
 10
22.2362712413
 20
21.1842473412
 10
22.2168746564
 20
21.1914458576
 10
22.1926788368
 20
21.1983272491
 10
22.1639402194
 20
21.2048185843
 10
22.1309633874
 20
21.2108510651
 10
22.0940978422
 20
21.2163607572
 10
22.0537342993
 20
21.2212892666
 10
22.0103005474
 20
21.225584359
 10
21.9642569145
 20
21.2292005133
 10
21.9160913891
 20
21.2320994044
 10
21.8663144484
 20
21.2342503089
 10
21.815453648
 20
21.2356304304
 10
21.7640480307
 20
21.236225142
  0
LINE
  5
2E1
100
AcDbEntity
  8
RACCORDO
100
AcDbLine
 62
7
  6
CONTINUOUS
 10
-33.5636854117
 20
-22.0864799709
 11
-32.6104149941
 21
-22.1114422353
  0
LINE
  5
2E2
100
AcDbEntity
  8
0
100
AcDbLine
 62
7
  6
CONTINUOUS
 10
-33.5636854117
 20
-22.0864799709
 11
-32.6104149941
 21
-22.1114422353
  0
LWPOLYLINE
  5
2E3
100
AcDbEntity
  8
RACCORDO
100
AcDbPolyline
 62
253
  6
CONTINUOUS
 90
4
 70
0
 10
-34.5029391098
 20
-21.2320960401
 10
-34.5158699908
 20
-21.2342468266
 10
-34.5236715621
 20
-21.235626872
 10
-34.5262611425
 20
-21.2362215505
  0
LINE
  5
2E4
100
AcDbEntity
  8
RACCORDO
100
AcDbLine
 62
253
  6
CONTINUOUS
 10
-34.435003556
 20
-21.2212864835
 11
-34.5029391098
 21
-21.2320960401
  0
LWPOLYLINE
  5
2E5
100
AcDbEntity
  8
RACCORDO
100
AcDbPolyline
 62
253
  6
CONTINUOUS
 90
3
 70
0
 10
-34.0449851687
 20
-21.1615238967
 10
-34.0957250458
 20
-21.1692063518
 10
-34.435003556
 20
-21.2212864835
  0
LINE
  5
2E6
100
AcDbEntity
  8
0
100
AcDbLine
 62
253
  6
CONTINUOUS
 10
-33.5636854117
 20
-21.5866513084
 11
-32.6104149941
 21
-21.6116135728
  0
LINE
  5
2E7
100
AcDbEntity
  8
0
100
AcDbLine
 62
7
  6
CONTINUOUS
 10
-31.6104149941
 20
-13.2689805518
 11
-32.6104149941
 21
-13.3213883311
  0
LINE
  5
2E8
100
AcDbEntity
  8
RACCORDO
100
AcDbLine
 62
253
  6
CONTINUOUS
 10
-35.5175091671
 20
-9.499924109
 11
-35.5201568104
 21
-9.4999999993
  0
LINE
  5
2E9
100
AcDbEntity
  8
RACCORDO
100
AcDbLine
 62
253
  6
CONTINUOUS
 10
-35.0333355799
 20
-9.4905
 11
-35.5175091671
 21
-9.499924109
  0
LINE
  5
2EA
100
AcDbEntity
  8
0
100
AcDbLine
 62
7
  6
CONTINUOUS
 10
-31.6104149941
 20
-9.7310194482
 11
-32.6104149941
 21
-9.6786116689
  0
LWPOLYLINE
  5
2EB
100
AcDbEntity
  8
0
100
AcDbPolyline
 62
7
  6
CONTINUOUS
 90
2
 70
0
 43
0.3500000006
 10
-41.4732837524
 20
30.8614429779
 10
-41.4732837524
 20
32.3614434357
  0
LWPOLYLINE
  5
2EC
100
AcDbEntity
  8
RACCORDO
100
AcDbPolyline
 62
253
  6
CONTINUOUS
 90
19
 70
0
 10
-34.0449851687
 20
-21.1615238967
 10
-34.0376757793
 20
-21.1996934077
 10
-34.0275729683
 20
-21.2368235579
 10
-34.0146767356
 20
-21.2729143474
 10
-33.9988740101
 20
-21.3081932214
 10
-33.980277863
 20
-21.3424327347
 10
-33.9592275082
 20
-21.3749505517
 10
-33.9356830107
 20
-21.4056933754
 10
-33.9096843056
 20
-21.4347145028
 10
-33.8816904115
 20
-21.4614914897
 10
-33.851659169
 20
-21.4859859557
 10
-33.8196327375
 20
-21.5082362811
 10
-33.7861966143
 20
-21.5278351628
 10
-33.7513038145
 20
-21.5447313594
 10
-33.715001323
 20
-21.5589761122
 10
-33.6780155918
 20
-21.5703158414
 10
-33.6405887715
 20
-21.5786660206
 10
-33.6024787115
 20
-21.5841111763
 10
-33.5636854117
 20
-21.5866513084
  0
LWPOLYLINE
  5
2ED
100
AcDbEntity
  8
RACCORDO
100
AcDbPolyline
 62
253
  6
CONTINUOUS
 90
10
 70
0
 10
-34.0449851687
 20
21.1615238967
 10
-34.2302336851
 20
19.8719852003
 10
-34.3966421386
 20
18.5804252298
 10
-34.5442105292
 20
17.2868439853
 10
-34.6729627079
 20
15.9909603469
 10
-34.7828748237
 20
14.6930554344
 10
-34.8738753241
 20
13.3939726076
 10
-34.9459403581
 20
12.0939929862
 10
-34.9990937767
 20
10.7928354503
 10
-35.0333355799
 20
9.4905
  0
LWPOLYLINE
  5
2EE
100
AcDbEntity
  8
RACCORDO
100
AcDbPolyline
 62
253
  6
CONTINUOUS
 90
10
 70
0
 10
-35.0333355799
 20
-9.4905
 10
-34.9990944819
 20
-10.7928222982
 10
-34.9459416936
 20
-12.0939699785
 10
-34.8738772149
 20
-13.393943041
 10
-34.7828773304
 20
-14.693022617
 10
-34.6729657555
 20
-15.9909275752
 10
-34.5442136373
 20
-17.2868145217
 10
-34.3966446912
 20
-18.5804023251
 10
-34.2302352017
 20
-19.8719721168
 10
-34.0449851687
 20
-21.1615238967
  0
LWPOLYLINE
  5
2EF
100
AcDbEntity
  8
RACCORDO
100
AcDbPolyline
 62
253
  6
CONTINUOUS
 90
10
 70
0
 10
-35.0333355799
 20
9.4905
 10
-35.0689576892
 20
7.381529647
 10
-35.0956742734
 20
5.2725447223
 10
-35.1134853327
 20
3.1635452259
 10
-35.12239087
 20
1.0545216111
 10
-35.1223908824
 20
-1.0545165753
 10
-35.1134853605
 20
-3.1635406936
 10
-35.0956743012
 20
-5.2725411972
 10
-35.0689577077
 20
-7.3815276327
 10
-35.0333355799
 20
-9.4905
  0
LWPOLYLINE
  5
2F0
100
AcDbEntity
  8
RACCORDO
100
AcDbPolyline
 62
253
  6
CONTINUOUS
 90
10
 70
0
 10
-33.5688728848
 20
-21.8803324477
 10
-33.5690751594
 20
-21.9209832468
 10
-33.5690751592
 20
-21.9579742274
 10
-33.5688728841
 20
-21.9909004618
 10
-33.5684705484
 20
-22.0194015178
 10
-33.5678725562
 20
-22.0431654038
 10
-33.567085454
 20
-22.0619319847
 10
-33.566117858
 20
-22.0754958291
 10
-33.5649803599
 20
-22.0837084581
 10
-33.5636854117
 20
-22.0864799709
  0
LINE
  5
2F1
100
AcDbEntity
  8
RACCORDO
100
AcDbLine
 62
253
  6
CONTINUOUS
 10
-33.5636854117
 20
21.5866513084
 11
-33.5661177983
 21
21.690524463
  0
LINE
  5
2F2
100
AcDbEntity
  8
RACCORDO
100
AcDbLine
 62
253
  6
CONTINUOUS
 10
-33.5661177983
 20
21.690524463
 11
-33.567872484
 21
21.7898627998
  0
LWPOLYLINE
  5
2F3
100
AcDbEntity
  8
RACCORDO
100
AcDbPolyline
 62
253
  6
CONTINUOUS
 90
11
 70
0
 10
-33.567872484
 20
21.7898627998
 10
-33.5688728322
 20
21.8803284908
 10
-33.5690751244
 20
21.9209795447
 10
-33.5690751431
 20
21.957970966
 10
-33.5688728859
 20
21.9908977572
 10
-33.5684705649
 20
22.0193994387
 10
-33.5678725825
 20
22.04316396
 10
-33.567085484
 20
22.0619311116
 10
-33.5661178847
 20
22.075495413
 10
-33.5649803758
 20
22.0837083472
 10
-33.5636854084
 20
22.086479971
  0
LINE
  5
2F4
100
AcDbEntity
  8
0
100
AcDbLine
 62
7
  6
CONTINUOUS
 10
-32.6104149941
 20
-22.1114422353
 11
-32.6104149941
 21
22.1114422353
  0
LINE
  5
2F5
100
AcDbEntity
  8
0
100
AcDbLine
 62
253
  6
CONTINUOUS
 10
-31.9894806116
 20
-13.288846539
 11
-31.9894806116
 21
-9.711153461
  0
LINE
  5
2F6
100
AcDbEntity
  8
0
100
AcDbLine
 62
253
  6
CONTINUOUS
 10
-31.9894806116
 20
9.711153461
 11
-31.9894806116
 21
13.288846539
  0
LINE
  5
2F7
100
AcDbEntity
  8
RACCORDO
100
AcDbLine
 62
253
  6
CONTINUOUS
 10
-33.5678725579
 20
-21.7898665481
 11
-33.5688728848
 21
-21.8803324477
  0
LINE
  5
2F8
100
AcDbEntity
  8
RACCORDO
100
AcDbLine
 62
253
  6
CONTINUOUS
 10
-33.5661178595
 20
-21.6905268861
 11
-33.5678725579
 21
-21.7898665481
  0
LINE
  5
2F9
100
AcDbEntity
  8
RACCORDO
100
AcDbLine
 62
253
  6
CONTINUOUS
 10
-33.5636854117
 20
-21.5866513084
 11
-33.5661178595
 21
-21.6905268861
  0
LINE
  5
2FA
100
AcDbEntity
  8
0
100
AcDbLine
 62
7
  6
CONTINUOUS
 10
-31.6104149941
 20
-13.2689805518
 11
-31.6104149941
 21
-9.7310194482
  0
LINE
  5
2FB
100
AcDbEntity
  8
0
100
AcDbLine
 62
7
  6
CONTINUOUS
 10
-31.6104149941
 20
9.7310194482
 11
-31.6104149941
 21
13.2689805518
  0
LINE
  5
2FC
100
AcDbEntity
  8
0
100
AcDbLine
 62
7
  6
CONTINUOUS
 10
-31.6104149941
 20
9.7310194482
 11
-32.6104149941
 21
9.6786116689
  0
LWPOLYLINE
  5
2FD
100
AcDbEntity
  8
RACCORDO
100
AcDbPolyline
 62
253
  6
CONTINUOUS
 90
3
 70
0
 10
-35.0333355799
 20
9.4905
 10
-35.5175092032
 20
9.4999241097
 10
-35.5201568469
 20
9.5
  0
LINE
  5
2FE
100
AcDbEntity
  8
0
100
AcDbLine
 62
7
  6
CONTINUOUS
 10
-31.6104149941
 20
13.2689805518
 11
-32.6104149941
 21
13.3213883311
  0
LWPOLYLINE
  5
2FF
100
AcDbEntity
  8
RACCORDO
100
AcDbPolyline
 62
253
  6
CONTINUOUS
 90
19
 70
0
 10
-33.5636854117
 20
21.5866513084
 10
-33.6024691212
 20
21.5841100213
 10
-33.6405658023
 20
21.5786680472
 10
-33.6779754551
 20
21.5703253861
 10
-33.7149377832
 20
21.558997784
 10
-33.751213083
 20
21.5447694949
 10
-33.7860822433
 20
21.5278932804
 10
-33.8194971973
 20
21.5083229654
 10
-33.8515060118
 20
21.4861047249
 10
-33.8815337764
 20
21.4616298466
 10
-33.9095475991
 20
21.4348517581
 10
-33.9355803719
 20
21.4058170317
 10
-33.9591558612
 20
21.3750566723
 10
-33.9802289597
 20
21.3425178419
 10
-33.9988447746
 20
21.3082533785
 10
-34.0146623942
 20
21.2729528004
 10
-34.0275681811
 20
21.2368459471
 10
-34.0376757726
 20
21.1997029793
 10
-34.0449851687
 20
21.1615238967
  0
LINE
  5
300
100
AcDbEntity
  8
0
100
AcDbLine
 62
253
  6
CONTINUOUS
 10
-32.6104149941
 20
21.6116135728
 11
-33.5636854117
 21
21.5866513084
  0
LINE
  5
301
100
AcDbEntity
  8
RACCORDO
100
AcDbLine
 62
7
  6
CONTINUOUS
 10
-32.6104149941
 20
22.1114422353
 11
-33.5636854084
 21
22.086479971
  0
LINE
  5
302
100
AcDbEntity
  8
0
100
AcDbLine
 62
7
  6
CONTINUOUS
 10
-32.6104149941
 20
22.1114422353
 11
-33.5636854117
 21
22.0864799709
  0
LWPOLYLINE
  5
303
100
AcDbEntity
  8
0
100
AcDbPolyline
 62
7
  6
CONTINUOUS
 90
3
 70
0
 43
0.3500000006
 10
-40.9732835999
 20
31.5043009644
 10
-42.4732840576
 20
31.5043009644
 10
-41.8304260712
 20
33.8614438934
  0
LINE
  5
304
100
AcDbEntity
  8
RACCORDO
100
AcDbLine
 62
253
  6
CONTINUOUS
 10
-34.0449851687
 20
21.1615238967
 11
-34.4034609735
 21
21.2163607572
  0
LWPOLYLINE
  5
305
100
AcDbEntity
  8
RACCORDO
100
AcDbPolyline
 62
253
  6
CONTINUOUS
 90
6
 70
0
 10
-34.4034609735
 20
21.2163607572
 10
-34.4850371195
 20
21.2292005133
 10
-34.5029613183
 20
21.2320994044
 10
-34.5158929885
 20
21.2342503089
 10
-34.5236950753
 20
21.2356304304
 10
-34.526284889
 20
21.236225142
  0
ARC
  5
306
100
AcDbEntity
  8
RACCORDO
100
AcDbCircle
 62
7
  6
CONTINUOUS
 10
464.3895850059
 20
0.0
 40
500.0
100
AcDbArc
 50
178.91131468
 51
181.08868532
  0
ARC
  5
307
100
AcDbEntity
  8
RACCORDO
100
AcDbCircle
 62
7
  6
CONTINUOUS
 10
54.463596686
 20
-7.79
 40
90.0
100
AcDbArc
 50
181.08868532
 51
188.592302252
  0
ARC
  5
308
100
AcDbEntity
  8
RACCORDO
100
AcDbCircle
 62
7
  6
CONTINUOUS
 10
54.463596686
 20
7.79
 40
90.0
100
AcDbArc
 50
171.407697748
 51
178.91131468
  0
ARC
  5
309
100
AcDbEntity
  8
RACCORDO
100
AcDbCircle
 62
7
  6
CONTINUOUS
 10
-33.5375084634
 20
-21.0868226459
 40
1.0
100
AcDbArc
 50
188.592302252
 51
268.5
  0
ARC
  5
30A
100
AcDbEntity
  8
RACCORDO
100
AcDbCircle
 62
7
  6
CONTINUOUS
 10
-33.5375084634
 20
21.0868226459
 40
1.0
100
AcDbArc
 50
91.5
 51
171.407697748
  0
ELLIPSE
  5
30B
100
AcDbEntity
  8
0
100
AcDbEllipse
 62
7
  6
CONTINUOUS
 10
-21.801270839
 20
-21.611270839
 30
0.0
 11
0.35379574
 21
0.35379574
 31
0.0
 40
0.999315002
 41
2.3565371065
 42
3.9266482006
  0
ELLIPSE
  5
30C
100
AcDbEntity
  8
0
100
AcDbEllipse
 62
7
  6
CONTINUOUS
 10
-21.801270839
 20
21.611270839
 30
0.0
 11
-0.35379574
 21
0.35379574
 31
0.0
 40
0.999315002
 41
-0.7850555471
 42
0.7850555471
  0
ELLIPSE
  5
30D
100
AcDbEntity
  8
0
100
AcDbEllipse
 62
7
  6
CONTINUOUS
 10
21.801270839
 20
-21.611270839
 30
0.0
 11
-0.35379574
 21
0.35379574
 31
0.0
 40
0.999315002
 41
-3.9266482006
 42
-2.3565371065
  0
ELLIPSE
  5
30E
100
AcDbEntity
  8
0
100
AcDbEllipse
 62
7
  6
CONTINUOUS
 10
21.801270839
 20
21.611270839
 30
0.0
 11
-0.35379574
 21
-0.35379574
 31
0.0
 40
0.999315002
 41
2.3565371065
 42
3.9266482006
  0
ENDSEC
  0
SECTION
  2
OBJECTS
  0
DICTIONARY
  5
C
100
AcDbDictionary
280
0
281
1
  3
ACAD_GROUP
350
D
  3
ACAD_MLINESTYLE
350
17
  3
ACAD_LAYOUT
350
1A
  3
ACAD_PLOTSETTINGS
350
19
  3
ACAD_PLOTSTYLENAME
350
E
  0
DICTIONARY
  5
D
102
{ACAD_REACTORS
330
C
102
}
100
AcDbDictionary
280
0
281
1
  0
ACDBDICTIONARYWDFLT
  5
E
102
{ACAD_REACTORS
330
C
102
}
100
AcDbDictionary
281
1
  3
Normal
350
F
100
AcDbDictionaryWithDefault
340
F
  0
DICTIONARY
  5
17
102
{ACAD_REACTORS
330
C
102
}
100
AcDbDictionary
280
0
281
1
  3
Standard
350
18
  0
DICTIONARY
  5
19
102
{ACAD_REACTORS
330
C
102
}
100
AcDbDictionary
281
1
  0
DICTIONARY
  5
1A
102
{ACAD_REACTORS
330
C
102
}
100
AcDbDictionary
281
1
  3
Model
350
30F
  3
Layout1
350
310
  0
ACDBPLACEHOLDER
  5
F
102
{ACAD_REACTORS
330
E
102
}
  0
MLINESTYLE
  5
18
102
{ACAD_REACTORS
330
17
102
}
100
AcDbMlineStyle
  2
STANDARD
 70
0
  3

 62
256
 51
90.0
 52
90.0
 71
2
 49
0.5
 62
256
  6
BYLAYER
 49
-0.5
 62
256
  6
BYLAYER
  0
LAYOUT
  5
30F
102
{ACAD_REACTORS
330
1A
102
}
100
AcDbPlotSettings
  1

  2
none_device
  4
ISO_A4_(297.00_x_210.00_MM)
  6

 40
0.0
 41
0.0
 42
0.0
 43
0.0
 44
297.0
 45
210.0
 46
0.0
 47
0.0
 48
0.0
 49
0.0
140
0.0
141
0.0
142
1.0
143
1.0
 70
1024
 72
1
 73
0
 74
0
  7

 75
0
147
1.0
148
0.0
149
0.0
100
AcDbLayout
  1
Model
 70
0
 71
0
 10
0.0
 20
0.0
 11
297.0
 21
210.0
 12
0.0
 22
0.0
 32
0.0
 14
0.0
 24
0.0
 34
0.0
 15
0.0
 25
0.0
 35
0.0
146
0.0
 13
0.0
 23
0.0
 33
0.0
 16
1.0
 26
0.0
 36
0.0
 17
0.0
 27
1.0
 37
0.0
 76
0
330
216
345
0
346
0
  0
LAYOUT
  5
310
102
{ACAD_REACTORS
330
1A
102
}
100
AcDbPlotSettings
  1

  2
none_device
  4
ISO_A4_(297.00_x_210.00_MM)
  6

 40
0.0
 41
0.0
 42
0.0
 43
0.0
 44
297.0
 45
210.0
 46
0.0
 47
0.0
 48
0.0
 49
0.0
140
0.0
141
0.0
142
1.0
143
1.0
 70
0
 72
1
 73
0
 74
0
  7

 75
0
147
1.0
148
0.0
149
0.0
100
AcDbLayout
  1
Layout1
 70
0
 71
1
 10
0.0
 20
0.0
 11
297.0
 21
210.0
 12
0.0
 22
0.0
 32
0.0
 14
0.0
 24
0.0
 34
0.0
 15
0.0
 25
0.0
 35
0.0
146
0.0
 13
0.0
 23
0.0
 33
0.0
 16
1.0
 26
0.0
 36
0.0
 17
0.0
 27
1.0
 37
0.0
 76
0
330
217
345
0
346
0
  0
ENDSEC
  0
EOF
