  0
SECTION
  2
HEADER
  9
$ACADVER
  1
AC1015
  9
$DWGCODEPAGE
  3
ANSI_1252
  9
$EXTMAX
 10
297.0
 20
210.0
 30
0.0
  9
$EXTMIN
 10
0.0
 20
0.0
 30
0.0
  9
$LIMMIN
 10
0.0
 20
0.0
  9
$LIMMAX
 10
297.0
 20
210.0
  9
$VIEWCTR
 10
148.5
 20
105.0
  9
$VIEWSIZE
 40
210.0
  9
$CLAYER
  8
0
  9
$LTSCALE
 40
16.335
  9
$CELTYPE
  6
BYLAYER
  9
$DIMSCALE
 40
1.0
  9
$DIMASZ
 40
3.0
  9
$DIMEXO
 40
1.85625
  9
$DIMDLI
 40
11.286
  9
$DIMEXE
 40
5.346
  9
$DIMCEN
 40
2.673
  9
$DIMLFAC
 40
1.0
  9
$DIMBLK
  1
_FILLED
  9
$DIMTXT
 40
3.0
  9
$DIMTOL
 70
1
  9
$DIMLIM
 70
0
  9
$DIMTFAC
 40
1.0
  9
$DIMTP
 40
0.01
  9
$DIMTM
 40
0.01
  9
$PDMODE
 70
3
  9
$PDSIZE
 40
3.0
  9
$HANDSEED
  5
30D
  9
$TILEMODE
 70
1
  9
$MEASUREMENT
 70
1
  9
$INSUNITS
 70
4
  0
ENDSEC
  0
SECTION
  2
CLASSES
  0
CLASS
  1
ACDBDICTIONARYWDFLT
  2
AcDbDictionaryWithDefault
  3
AutoCAD 2000
 90
0
280
0
281
0
  0
CLASS
  1
ACDBPLACEHOLDER
  2
AcDbPlaceHolder
  3
AutoCAD 2000
 90
0
280
0
281
0
  0
CLASS
  1
LAYOUT
  2
AcDbLayout
  3
AutoCAD 2000
 90
0
280
0
281
0
  0
ENDSEC
  0
SECTION
  2
TABLES
  0
TABLE
  2
VPORT
  5
8
100
AcDbSymbolTable
 70
2
  0
VPORT
  5
1F4
100
AcDbSymbolTableRecord
100
AcDbViewportTableRecord
  2
*ACTIVE
 70
0
 10
0.0
 20
0.0
 11
1.0
 21
1.0
 12
148.5
 22
105.0
 13
0.0
 23
0.0
 14
1.0
 24
1.0
 15
0.0
 25
0.0
 16
0.0
 26
0.0
 36
1.0
 17
0.0
 27
0.0
 37
0.0
 40
210.0
 41
1.4142857143
 42
50.0
 43
0.0
 44
0.0
 50
0.0
 51
0.0
 71
0
 72
100
 73
1
 74
1
 75
0
 76
0
 77
0
 78
0
  0
ENDTAB
  0
TABLE
  2
LTYPE
  5
5
100
AcDbSymbolTable
 70
6
  0
LTYPE
  5
14
100
AcDbSymbolTableRecord
100
AcDbLinetypeTableRecord
  2
BYBLOCK
 70
0
  3

 72
65
 73
0
 40
0.0
  0
LTYPE
  5
15
100
AcDbSymbolTableRecord
100
AcDbLinetypeTableRecord
  2
BYLAYER
 70
0
  3

 72
65
 73
0
 40
0.0
  0
LTYPE
  5
16
100
AcDbSymbolTableRecord
100
AcDbLinetypeTableRecord
  2
CONTINUOUS
 70
64
  3
Solid line
 72
65
 73
0
 40
0.0
  0
LTYPE
  5
1F5
100
AcDbSymbolTableRecord
100
AcDbLinetypeTableRecord
  2
CENTER
 70
64
  3
____ _ ____ _ ____ _ ____ _ ____ _ ____ _ ____
 72
65
 73
4
 40
0.6
 49
0.375
 74
0
 49
-0.075
 74
0
 49
0.075
 74
0
 49
-0.075
 74
0
  0
LTYPE
  5
1F6
100
AcDbSymbolTableRecord
100
AcDbLinetypeTableRecord
  2
HIDDEN
 70
64
  3
- - - - - - - - - - - - - - - - - - - -
 72
65
 73
2
 40
0.2
 49
0.1
 74
0
 49
-0.1
 74
0
  0
LTYPE
  5
1F7
100
AcDbSymbolTableRecord
100
AcDbLinetypeTableRecord
  2
PHANTOM
 70
64
  3
_____ _ _ _____ _ _ _____ _ _ _____
 72
65
 73
6
 40
0.8
 49
0.45
 74
0
 49
-0.05
 74
0
 49
0.1
 74
0
 49
-0.05
 74
0
 49
0.1
 74
0
 49
-0.05
 74
0
  0
LTYPE
  5
1F8
100
AcDbSymbolTableRecord
100
AcDbLinetypeTableRecord
  2
DOT
 70
64
  3
. . . . . . . . . . . . . . . . . . . .
 72
65
 73
2
 40
0.2
 49
0.1
 74
0
 49
-0.1
 74
0
  0
LTYPE
  5
1F9
100
AcDbSymbolTableRecord
100
AcDbLinetypeTableRecord
  2
DASHED
 70
64
  3
- - - - - - - - - - - - - - - - - - - -
 72
65
 73
2
 40
0.2
 49
0.1
 74
0
 49
-0.1
 74
0
  0
ENDTAB
  0
TABLE
  2
LAYER
  5
2
100
AcDbSymbolTable
 70
36
  0
LAYER
  5
10
100
AcDbSymbolTableRecord
100
AcDbLayerTableRecord
  2
0
 70
0
 62
7
  6
CONTINUOUS
370
-3
390
F
  0
LAYER
  5
1FA
100
AcDbSymbolTableRecord
100
AcDbLayerTableRecord
  2
DEFAULT_1
 70
0
 62
7
  6
CENTER
370
-3
390
F
  0
LAYER
  5
1FB
100
AcDbSymbolTableRecord
100
AcDbLayerTableRecord
  2
DEFAULT_2
 70
0
 62
7
  6
HIDDEN
370
-3
390
F
  0
LAYER
  5
1FC
100
AcDbSymbolTableRecord
100
AcDbLayerTableRecord
  2
DEFAULT_3
 70
0
 62
7
  6
PHANTOM
370
-3
390
F
  0
LAYER
  5
1FD
100
AcDbSymbolTableRecord
100
AcDbLayerTableRecord
  2
ASSI
 70
0
 62
7
  6
CONTINUOUS
370
-3
390
F
  0
LAYER
  5
1FE
100
AcDbSymbolTableRecord
100
AcDbLayerTableRecord
  2
COLOR9
 70
0
 62
7
  6
CONTINUOUS
370
-3
390
F
  0
LAYER
  5
1FF
100
AcDbSymbolTableRecord
100
AcDbLayerTableRecord
  2
COORDINATE
 70
0
 62
7
  6
CONTINUOUS
370
-3
390
F
  0
LAYER
  5
200
100
AcDbSymbolTableRecord
100
AcDbLayerTableRecord
  2
COORD_ORIGINE
 70
0
 62
7
  6
CONTINUOUS
370
-3
390
F
  0
LAYER
  5
201
100
AcDbSymbolTableRecord
100
AcDbLayerTableRecord
  2
COSMETICI
 70
0
 62
7
  6
CONTINUOUS
370
-3
390
F
  0
LAYER
  5
202
100
AcDbSymbolTableRecord
100
AcDbLayerTableRecord
  2
CURVE
 70
0
 62
7
  6
CONTINUOUS
370
-3
390
F
  0
LAYER
  5
203
100
AcDbSymbolTableRecord
100
AcDbLayerTableRecord
  2
DRAFT
 70
0
 62
7
  6
CONTINUOUS
370
-3
390
F
  0
LAYER
  5
204
100
AcDbSymbolTableRecord
100
AcDbLayerTableRecord
  2
IMPORT_IGES
 70
0
 62
7
  6
CONTINUOUS
370
-3
390
F
  0
LAYER
  5
205
100
AcDbSymbolTableRecord
100
AcDbLayerTableRecord
  2
INTF_1
 70
0
 62
7
  6
CONTINUOUS
370
-3
390
F
  0
LAYER
  5
206
100
AcDbSymbolTableRecord
100
AcDbLayerTableRecord
  2
INTF_8
 70
0
 62
7
  6
CONTINUOUS
370
-3
390
F
  0
LAYER
  5
207
100
AcDbSymbolTableRecord
100
AcDbLayerTableRecord
  2
INTF_YELLOW
 70
0
 62
7
  6
CONTINUOUS
370
-3
390
F
  0
LAYER
  5
208
100
AcDbSymbolTableRecord
100
AcDbLayerTableRecord
  2
NOTE
 70
0
 62
7
  6
CONTINUOUS
370
-3
390
F
  0
LAYER
  5
209
100
AcDbSymbolTableRecord
100
AcDbLayerTableRecord
  2
PIANI
 70
0
 62
7
  6
CONTINUOUS
370
-3
390
F
  0
LAYER
  5
20A
100
AcDbSymbolTableRecord
100
AcDbLayerTableRecord
  2
PIANI_ORIGINE
 70
0
 62
7
  6
CONTINUOUS
370
-3
390
F
  0
LAYER
  5
20B
100
AcDbSymbolTableRecord
100
AcDbLayerTableRecord
  2
PIANI_RIFERIMENTO
 70
0
 62
7
  6
CONTINUOUS
370
-3
390
F
  0
LAYER
  5
20C
100
AcDbSymbolTableRecord
100
AcDbLayerTableRecord
  2
PUNTI
 70
0
 62
7
  6
CONTINUOUS
370
-3
390
F
  0
LAYER
  5
20D
100
AcDbSymbolTableRecord
100
AcDbLayerTableRecord
  2
RACCORDO
 70
0
 62
7
  6
CONTINUOUS
370
-3
390
F
  0
LAYER
  5
20E
100
AcDbSymbolTableRecord
100
AcDbLayerTableRecord
  2
RGB__255__255__255__
 70
0
 62
7
  6
CONTINUOUS
370
-3
390
F
  0
LAYER
  5
20F
100
AcDbSymbolTableRecord
100
AcDbLayerTableRecord
  2
RGB____0____0____0__
 70
0
 62
7
  6
CONTINUOUS
370
-3
390
F
  0
LAYER
  5
210
100
AcDbSymbolTableRecord
100
AcDbLayerTableRecord
  2
SIMBOLI
 70
0
 62
7
  6
CONTINUOUS
370
-3
390
F
  0
LAYER
  5
211
100
AcDbSymbolTableRecord
100
AcDbLayerTableRecord
  2
SMUSSO
 70
0
 62
7
  6
CONTINUOUS
370
-3
390
F
  0
LAYER
  5
212
100
AcDbSymbolTableRecord
100
AcDbLayerTableRecord
  2
SNAPLINE
 70
0
 62
7
  6
CONTINUOUS
370
-3
390
F
  0
LAYER
  5
213
100
AcDbSymbolTableRecord
100
AcDbLayerTableRecord
  2
SUPERFICI
 70
0
 62
7
  6
CONTINUOUS
370
-3
390
F
  0
LAYER
  5
214
100
AcDbSymbolTableRecord
100
AcDbLayerTableRecord
  2
TRASH
 70
0
 62
7
  6
CONTINUOUS
370
-3
390
F
  0
LAYER
  5
215
100
AcDbSymbolTableRecord
100
AcDbLayerTableRecord
  2
XSEC_DATUMS
 70
0
 62
7
  6
CONTINUOUS
370
-3
390
F
  0
ENDTAB
  0
TABLE
  2
STYLE
  5
3
100
AcDbSymbolTable
 70
1
  0
STYLE
  5
11
100
AcDbSymbolTableRecord
100
AcDbTextStyleTableRecord
  2
STANDARD
 70
0
 40
0.0
 41
0.8
 50
0.0
 71
0
 42
0.2
  3
txt
  4

  0
STYLE
  5
216
100
AcDbSymbolTableRecord
100
AcDbTextStyleTableRecord
  2
TEXTSTYLE_1
 70
0
 40
0.0
 41
0.8
 50
0.0
 71
0
 42
0.2
  3
gdt
  4

  0
ENDTAB
  0
TABLE
  2
VIEW
  5
6
100
AcDbSymbolTable
 70
0
  0
ENDTAB
  0
TABLE
  2
UCS
  5
7
100
AcDbSymbolTable
 70
0
  0
ENDTAB
  0
TABLE
  2
APPID
  5
9
100
AcDbSymbolTable
 70
1
  0
APPID
  5
217
100
AcDbSymbolTableRecord
100
AcDbRegAppTableRecord
  2
ACAD
 70
0
  0
ENDTAB
  0
TABLE
  2
BLOCK_RECORD
  5
1
100
AcDbSymbolTable
 70
0
  0
BLOCK_RECORD
  5
218
100
AcDbSymbolTableRecord
100
AcDbBlockTableRecord
  2
*Model_Space
  0
BLOCK_RECORD
  5
219
100
AcDbSymbolTableRecord
100
AcDbBlockTableRecord
  2
*Paper_Space
  0
BLOCK_RECORD
  5
21A
100
AcDbSymbolTableRecord
100
AcDbBlockTableRecord
  2
_FILLED
  0
BLOCK_RECORD
  5
21B
100
AcDbSymbolTableRecord
100
AcDbBlockTableRecord
  2
*D0
  0
BLOCK_RECORD
  5
21C
100
AcDbSymbolTableRecord
100
AcDbBlockTableRecord
  2
*D1
  0
BLOCK_RECORD
  5
21D
100
AcDbSymbolTableRecord
100
AcDbBlockTableRecord
  2
*D2
  0
ENDTAB
  0
TABLE
  2
DIMSTYLE
  5
A
100
AcDbSymbolTable
 70
1
100
AcDbDimStyleTable
 71
0
  0
DIMSTYLE
105
21E
100
AcDbSymbolTableRecord
100
AcDbDimStyleTableRecord
  2
STANDARD
 70
0
  3

  4

 40
1.0
 41
3.0
 42
0.0625
 43
0.38
 44
0.18
 45
0.0
 46
0.0
 47
0.01
 48
0.01
140
3.0
141
0.09
142
0.0
143
25.4
144
1.0
145
0.0
146
1.0
147
0.09
 71
1.0
 72
0.0
 73
0
 74
0
 75
0
 76
0
 77
1
 78
8
170
0
171
2
172
0
173
0
174
0
175
0
176
0
177
0
178
0
270
2
271
2
272
2
273
2
274
2
275
0
280
0
281
0
282
0
283
1
284
8
285
0
286
0
287
3
288
0
340
11
341
21A
342
21A
343
21A
344
21A
  0
DIMSTYLE
105
21F
100
AcDbSymbolTableRecord
100
AcDbDimStyleTableRecord
  2
DIMSTYLE_1
 70
0
  3

  4

 40
1.0
 41
3.0
 42
0.0625
 43
0.38
 44
0.18
 45
0.0
 46
0.0
 47
0.0
 48
0.0
140
3.0
141
0.09
142
0.0
143
25.4
144
1.0
145
0.0
146
1.0
147
0.09
 71
0.0
 72
0.0
 73
0
 74
0
 75
0
 76
0
 77
1
 78
8
170
0
171
2
172
0
173
0
174
0
175
0
176
0
177
0
178
0
270
2
271
1
272
1
273
2
274
2
275
0
280
0
281
0
282
0
283
1
284
8
285
0
286
0
287
3
288
0
340
11
341
21A
342
21A
343
21A
344
21A
  0
DIMSTYLE
105
220
100
AcDbSymbolTableRecord
100
AcDbDimStyleTableRecord
  2
DIMSTYLE_2
 70
0
  3

  4

 40
1.0
 41
3.0
 42
0.0625
 43
0.38
 44
0.18
 45
0.0
 46
0.0
 47
0.0
 48
0.0
140
3.0
141
0.09
142
0.0
143
25.4
144
1.0
145
0.0
146
1.0
147
0.09
 71
0.0
 72
0.0
 73
0
 74
0
 75
0
 76
0
 77
1
 78
8
170
0
171
2
172
0
173
0
174
0
175
0
176
0
177
0
178
0
270
2
271
2
272
2
273
2
274
2
275
0
280
0
281
0
282
0
283
1
284
8
285
0
286
0
287
3
288
0
340
11
341
21A
342
21A
343
21A
344
21A
  0
ENDTAB
  0
ENDSEC
  0
SECTION
  2
BLOCKS
  0
BLOCK
  5
20
100
AcDbEntity
  8
0
100
AcDbBlockBegin
  2
*Model_Space
 70
0
 10
0.0
 20
0.0
 30
0.0
  3
*Model_Space
  1

  0
ENDBLK
  5
21
100
AcDbEntity
  8
0
100
AcDbBlockEnd
  0
BLOCK
  5
1C
100
AcDbEntity
  8
0
100
AcDbBlockBegin
  2
*Paper_Space
 70
0
 10
0.0
 20
0.0
 30
0.0
  3
*Paper_Space
  1

  0
ENDBLK
  5
1D
100
AcDbEntity
  8
0
100
AcDbBlockEnd
  0
BLOCK
  5
221
100
AcDbEntity
  8
0
100
AcDbBlockBegin
  2
_FILLED
 70
64
 10
0.0
 20
0.0
  3
_FILLED
  1

  0
SOLID
  5
222
100
AcDbEntity
  8
0
  6
BYBLOCK
 62
0
100
AcDbTrace
 10
0.0
 20
0.0
 11
-1.0
 21
0.3166666667
 12
-1.0
 22
-0.3166666667
 13
-1.0
 23
-0.3166666667
  0
ENDBLK
  5
223
100
AcDbEntity
  8
0
  6
BYBLOCK
 62
0
100
AcDbBlockEnd
  0
BLOCK
  5
224
100
AcDbEntity
  8
0
100
AcDbBlockBegin
 62
7
  6
CONTINUOUS
  2
*D0
 70
65
 10
0.0
 20
0.0
  3
*D0
  1

  0
LINE
  5
225
100
AcDbEntity
  8
0
100
AcDbLine
 62
7
  6
CONTINUOUS
 10
-22.3014422353
 20
22.431406897
 11
-22.3014422353
 21
31.6114422353
  0
LINE
  5
226
100
AcDbEntity
  8
0
100
AcDbLine
 62
7
  6
CONTINUOUS
 10
22.3014422353
 20
25.2360278512
 11
22.3014422353
 21
31.6114422353
  0
LINE
  5
227
100
AcDbEntity
  8
0
100
AcDbLine
 62
7
  6
CONTINUOUS
 10
-22.3014422353
 20
30.1114422353
 11
0.0
 21
30.1114422353
  0
LINE
  5
228
100
AcDbEntity
  8
0
100
AcDbLine
 62
7
  6
CONTINUOUS
 10
22.3014422353
 20
30.1114422353
 11
0.0
 21
30.1114422353
  0
INSERT
  5
229
100
AcDbEntity
  8
0
100
AcDbBlockReference
 62
7
  6
CONTINUOUS
  2
_FILLED
 10
-22.3014422353
 20
30.1114422353
 41
3.0
 42
3.0
 43
3.0
 50
180.0
  0
INSERT
  5
22A
100
AcDbEntity
  8
0
100
AcDbBlockReference
 62
7
  6
CONTINUOUS
  2
_FILLED
 10
22.3014422353
 20
30.1114422353
 41
3.0
 42
3.0
 43
3.0
 50
0.0
  0
ENDBLK
  5
22B
100
AcDbEntity
  8
0
  6
BYBLOCK
 62
0
100
AcDbBlockEnd
  0
BLOCK
  5
22C
100
AcDbEntity
  8
0
100
AcDbBlockBegin
 62
7
  6
CONTINUOUS
  2
*D1
 70
65
 10
0.0
 20
0.0
  3
*D1
  1

  0
LINE
  5
22D
100
AcDbEntity
  8
0
100
AcDbLine
 62
7
  6
CONTINUOUS
 10
23.5641532861
 20
22.1114422353
 11
31.88
 21
22.1114422353
  0
LINE
  5
22E
100
AcDbEntity
  8
0
100
AcDbLine
 62
7
  6
CONTINUOUS
 10
22.9919235165
 20
-22.1114422353
 11
31.88
 21
-22.1114422353
  0
LINE
  5
22F
100
AcDbEntity
  8
0
100
AcDbLine
 62
7
  6
CONTINUOUS
 10
30.38
 20
22.1114422353
 11
30.38
 21
0.0
  0
LINE
  5
230
100
AcDbEntity
  8
0
100
AcDbLine
 62
7
  6
CONTINUOUS
 10
30.38
 20
-22.1114422353
 11
30.38
 21
0.0
  0
INSERT
  5
231
100
AcDbEntity
  8
0
100
AcDbBlockReference
 62
7
  6
CONTINUOUS
  2
_FILLED
 10
30.38
 20
22.1114422353
 41
3.0
 42
3.0
 43
3.0
 50
90.0
  0
INSERT
  5
232
100
AcDbEntity
  8
0
100
AcDbBlockReference
 62
7
  6
CONTINUOUS
  2
_FILLED
 10
30.38
 20
-22.1114422353
 41
3.0
 42
3.0
 43
3.0
 50
270.0
  0
ENDBLK
  5
233
100
AcDbEntity
  8
0
  6
BYBLOCK
 62
0
100
AcDbBlockEnd
  0
BLOCK
  5
234
100
AcDbEntity
  8
0
100
AcDbBlockBegin
 62
7
  6
CONTINUOUS
  2
*D2
 70
65
 10
0.0
 20
0.0
  3
*D2
  1

  0
LINE
  5
235
100
AcDbEntity
  8
0
100
AcDbLine
 62
7
  6
CONTINUOUS
 10
-34.3602844187
 20
10.2310194482
 11
-34.3602844187
 21
31.6114422353
  0
LINE
  5
236
100
AcDbEntity
  8
0
100
AcDbLine
 62
7
  6
CONTINUOUS
 10
-38.3602844187
 20
0.5
 11
-38.3602844187
 21
31.6114422353
  0
LINE
  5
237
100
AcDbEntity
  8
0
100
AcDbLine
 62
7
  6
CONTINUOUS
 10
-34.3602844187
 20
30.1114422353
 11
-30.3602844187
 21
30.1114422353
  0
LINE
  5
238
100
AcDbEntity
  8
0
100
AcDbLine
 62
7
  6
CONTINUOUS
 10
-30.3602844187
 20
30.1114422353
 11
-36.3602844187
 21
30.1114422353
  0
LINE
  5
239
100
AcDbEntity
  8
0
100
AcDbLine
 62
7
  6
CONTINUOUS
 10
-38.3602844187
 20
30.1114422353
 11
-45.6827307512
 21
30.1114422353
  0
LINE
  5
23A
100
AcDbEntity
  8
0
100
AcDbLine
 62
7
  6
CONTINUOUS
 10
-45.6827307512
 20
30.1114422353
 11
-36.3602844187
 21
30.1114422353
  0
INSERT
  5
23B
100
AcDbEntity
  8
0
100
AcDbBlockReference
 62
7
  6
CONTINUOUS
  2
_FILLED
 10
-34.3602844187
 20
30.1114422353
 41
3.0
 42
3.0
 43
3.0
 50
180.0
  0
INSERT
  5
23C
100
AcDbEntity
  8
0
100
AcDbBlockReference
 62
7
  6
CONTINUOUS
  2
_FILLED
 10
-38.3602844187
 20
30.1114422353
 41
3.0
 42
3.0
 43
3.0
  0
ENDBLK
  5
23D
100
AcDbEntity
  8
0
  6
BYBLOCK
 62
0
100
AcDbBlockEnd
  0
ENDSEC
  0
SECTION
  2
ENTITIES
  0
DIMENSION
  5
23E
100
AcDbEntity
  8
0
100
AcDbDimension
 62
7
  6
CONTINUOUS
  2
*D0
 10
22.3014422353
 20
30.1114422353
 11
-4.3928571429
 21
30.8614422353
 70
160
 71
2
 42
44.6028844706
  3
DIMSTYLE_1
100
AcDbAlignedDimension
 13
-22.3014422353
 23
22.431406897
 14
22.3014422353
 24
25.2360278512
100
AcDbRotatedDimension
  0
DIMENSION
  5
23F
100
AcDbEntity
  8
0
100
AcDbDimension
 62
7
  6
CONTINUOUS
  2
*D1
 10
30.38
 20
-22.1114422353
 11
29.63
 21
-4.3928571429
 70
160
 71
2
 42
44.2228844706
  3
DIMSTYLE_1
100
AcDbAlignedDimension
 13
23.5641532861
 23
22.1114422353
 14
22.9919235165
 24
-22.1114422353
 50
270.0
100
AcDbRotatedDimension
  0
DIMENSION
  5
240
100
AcDbEntity
  8
0
100
AcDbDimension
 62
7
  6
CONTINUOUS
  2
*D2
 10
-38.3602844187
 20
30.1114422353
 11
-45.6827307512
 21
30.8614422353
 70
160
 71
3
 42
4.0
  3
DIMSTYLE_2
100
AcDbAlignedDimension
 13
-34.3602844187
 23
10.2310194482
 14
-38.3602844187
 24
0.5
 50
180.0
100
AcDbRotatedDimension
  0
LWPOLYLINE
  5
241
100
AcDbEntity
  8
RACCORDO
100
AcDbPolyline
 62
253
  6
CONTINUOUS
 90
16
 70
0
 10
-22.2638766931
 20
21.1615238967
 10
-22.2598965
 20
21.1692064438
 10
-22.2506612473
 20
21.1768075537
 10
-22.2362688116
 20
21.1842466688
 10
-22.2168717254
 20
21.1914449486
 10
-22.1926755615
 20
21.1983261048
 10
-22.1639367539
 20
21.2048172101
 10
-22.1309598798
 20
21.2108494709
 10
-22.0940944322
 20
21.2163589566
 10
-22.0537311155
 20
21.221287277
 10
-22.0102977052
 20
21.2255822012
 10
-21.9642545137
 20
21.2291982111
 10
-21.9160895124
 20
21.232096984
 10
-21.8663131598
 20
21.2342477985
 10
-21.8154529919
 20
21.2356278599
 10
-21.7640480307
 20
21.2362225423
  0
LWPOLYLINE
  5
242
100
AcDbEntity
  8
RACCORDO
100
AcDbPolyline
 62
253
  6
CONTINUOUS
 90
16
 70
0
 10
-22.2638766932
 20
-21.1615238967
 10
-22.2598974611
 20
-21.1692066574
 10
-22.2506630216
 20
-21.176807993
 10
-22.2362712449
 20
-21.1842473417
 10
-22.2168746607
 20
-21.1914458583
 10
-22.1926788416
 20
-21.1983272502
 10
-22.1639402246
 20
-21.2048185855
 10
-22.1309633926
 20
-21.2108510667
 10
-22.0940978473
 20
-21.216360759
 10
-22.053734304
 20
-21.2212892686
 10
-22.0103005516
 20
-21.2255843612
 10
-21.9642569181
 20
-21.2292005157
 10
-21.9160913919
 20
-21.232099407
 10
-21.8663144504
 20
-21.2342503114
 10
-21.8154536491
 20
-21.2356304329
 10
-21.7640480307
 20
-21.2362251442
  0
LWPOLYLINE
  5
243
100
AcDbEntity
  8
RACCORDO
100
AcDbPolyline
 62
253
  6
CONTINUOUS
 90
16
 70
0
 10
-22.2764799709
 20
-21.5866513084
 10
-22.2737085608
 20
-21.638873962
 10
-22.2654962044
 20
-21.6905251247
 10
-22.2519327487
 20
-21.7410393988
 10
-22.2331666165
 20
-21.7898638266
 10
-22.2094031858
 20
-21.8364639333
 10
-22.1809025464
 20
-21.8803295793
 10
-22.147976642
 20
-21.9209805652
 10
-22.1109858676
 20
-21.9579718672
 10
-22.0703351383
 20
-21.9908985062
 10
-22.0264694206
 20
-22.0194000157
 10
-21.979868886
 20
-22.0431643617
 10
-21.9310436815
 20
-22.0619313551
 10
-21.8805282932
 20
-22.0754955292
 10
-21.8288756908
 20
-22.0837083782
 10
-21.7766513085
 20
-22.086479971
  0
LWPOLYLINE
  5
244
100
AcDbEntity
  8
RACCORDO
100
AcDbPolyline
 62
253
  6
CONTINUOUS
 90
16
 70
0
 10
-22.2764799709
 20
21.5866513084
 10
-22.2737084581
 20
21.6388749344
 10
-22.265495829
 20
21.690526886
 10
-22.2519319847
 20
21.7410417469
 10
-22.2331654039
 20
21.789866548
 10
-22.2094015179
 20
21.8364668207
 10
-22.180900462
 20
21.8803324476
 10
-22.1479742277
 20
21.9209832467
 10
-22.1109832471
 20
21.9579742273
 10
-22.0703324481
 20
21.9909004617
 10
-22.0264668212
 20
22.0194015177
 10
-21.9798665484
 20
22.0431654037
 10
-21.9310417473
 20
22.0619319846
 10
-21.8805268863
 20
22.075495829
 10
-21.8288749345
 20
22.0837084581
 10
-21.7766513084
 20
22.0864799709
  0
LWPOLYLINE
  5
245
100
AcDbEntity
  8
RACCORDO
100
AcDbPolyline
 62
253
  6
CONTINUOUS
 90
10
 70
0
 10
-22.2681568186
 20
21.4616298466
 10
-22.2689431232
 20
21.4861047249
 10
-22.2697813036
 20
21.5083229653
 10
-22.2706563049
 20
21.5278932804
 10
-22.271569386
 20
21.5447694949
 10
-22.2725192882
 20
21.5589977841
 10
-22.2734871808
 20
21.5703253862
 10
-22.274466787
 20
21.5786680473
 10
-22.2754643837
 20
21.5841100214
 10
-22.2764799709
 20
21.5866513084
  0
LWPOLYLINE
  5
246
100
AcDbEntity
  8
RACCORDO
100
AcDbPolyline
 62
253
  6
CONTINUOUS
 90
7
 70
0
 10
-21.7708205485
 20
21.968635596
 10
-21.7717310492
 20
22.0024936657
 10
-21.772678348
 20
22.0308586736
 10
-21.773645698
 20
22.0535589575
 10
-21.7746275169
 20
22.0704577735
 10
-21.7756293871
 20
22.0814535722
 10
-21.7766513084
 20
22.0864799709
  0
LINE
  5
247
100
AcDbEntity
  8
RACCORDO
100
AcDbLine
 62
253
  6
CONTINUOUS
 10
-22.2667415586
 20
21.4058170317
 11
-22.2681568186
 21
21.4616298466
  0
LINE
  5
248
100
AcDbEntity
  8
RACCORDO
100
AcDbLine
 62
253
  6
CONTINUOUS
 10
-21.7691111237
 20
21.8852903227
 11
-21.7708205485
 21
21.968635596
  0
LINE
  5
249
100
AcDbEntity
  8
RACCORDO
100
AcDbLine
 62
253
  6
CONTINUOUS
 10
-22.2655723942
 20
21.3425178419
 11
-22.2667415586
 21
21.4058170317
  0
LINE
  5
24A
100
AcDbEntity
  8
RACCORDO
100
AcDbLine
 62
253
  6
CONTINUOUS
 10
-22.264670723
 20
21.2729528004
 11
-22.2655723942
 21
21.3425178419
  0
LINE
  5
24B
100
AcDbEntity
  8
RACCORDO
100
AcDbLine
 62
253
  6
CONTINUOUS
 10
-21.7669146285
 20
21.7251570648
 11
-21.7691111237
 21
21.8852903227
  0
LINE
  5
24C
100
AcDbEntity
  8
RACCORDO
100
AcDbLine
 62
253
  6
CONTINUOUS
 10
-21.7648466607
 20
21.4599831598
 11
-21.7669146285
 21
21.7251570648
  0
LINE
  5
24D
100
AcDbEntity
  8
RACCORDO
100
AcDbLine
 62
253
  6
CONTINUOUS
 10
-22.2638766932
 20
21.1615238967
 11
-22.264670723
 21
21.2729528004
  0
LINE
  5
24E
100
AcDbEntity
  8
RACCORDO
100
AcDbLine
 62
253
  6
CONTINUOUS
 10
-22.2474325226
 20
15.9909603469
 11
-22.2638766932
 21
21.1615238967
  0
LINE
  5
24F
100
AcDbEntity
  8
RACCORDO
100
AcDbLine
 62
253
  6
CONTINUOUS
 10
-21.7476037727
 20
16.0366547986
 11
-21.7640480307
 21
21.2362251476
  0
LINE
  5
250
100
AcDbEntity
  8
RACCORDO
100
AcDbLine
 62
253
  6
CONTINUOUS
 10
-21.7640480307
 20
21.2362251476
 11
-21.7648466607
 21
21.4599831598
  0
LINE
  5
251
100
AcDbEntity
  8
RACCORDO
100
AcDbLine
 62
253
  6
CONTINUOUS
 10
-22.23889248
 20
10.7928354503
 11
-22.2474325226
 21
15.9909603469
  0
LINE
  5
252
100
AcDbEntity
  8
RACCORDO
100
AcDbLine
 62
253
  6
CONTINUOUS
 10
-21.7390638443
 20
10.8091626086
 11
-21.7476037727
 21
16.0366547986
  0
LINE
  5
253
100
AcDbEntity
  8
0
100
AcDbLine
 62
7
  6
CONTINUOUS
 10
-22.3014422353
 20
21.6116135728
 11
-22.3014422353
 21
-21.6116135728
  0
LINE
  5
254
100
AcDbEntity
  8
RACCORDO
100
AcDbLine
 62
253
  6
CONTINUOUS
 10
-22.2402843163
 20
-12.0939699785
 11
-22.23889248
 21
10.7928354503
  0
LINE
  5
255
100
AcDbEntity
  8
RACCORDO
100
AcDbLine
 62
253
  6
CONTINUOUS
 10
-21.7404557226
 20
-12.1176863817
 11
-21.7390638443
 21
10.8091626086
  0
LINE
  5
256
100
AcDbEntity
  8
RACCORDO
100
AcDbLine
 62
253
  6
CONTINUOUS
 10
-22.2508039357
 20
-17.2868145217
 11
-22.2402843163
 21
-12.0939699785
  0
LINE
  5
257
100
AcDbEntity
  8
RACCORDO
100
AcDbLine
 62
253
  6
CONTINUOUS
 10
-21.750975233
 20
-17.339854897
 11
-21.7404557226
 21
-12.1176863817
  0
LINE
  5
258
100
AcDbEntity
  8
RACCORDO
100
AcDbLine
 62
253
  6
CONTINUOUS
 10
-21.7652609176
 20
-21.5306766563
 11
-21.750975233
 21
-17.339854897
  0
LINE
  5
259
100
AcDbEntity
  8
RACCORDO
100
AcDbLine
 62
253
  6
CONTINUOUS
 10
-22.2643326477
 20
-21.2368235579
 11
-22.2508039357
 21
-17.2868145217
  0
LINE
  5
25A
100
AcDbEntity
  8
RACCORDO
100
AcDbLine
 62
253
  6
CONTINUOUS
 10
-21.7669142997
 20
-21.7251528619
 11
-21.7652609176
 21
-21.5306766563
  0
LINE
  5
25B
100
AcDbEntity
  8
RACCORDO
100
AcDbLine
 62
253
  6
CONTINUOUS
 10
-22.2650841564
 20
-21.3081932214
 11
-22.2643326477
 21
-21.2368235579
  0
LINE
  5
25C
100
AcDbEntity
  8
RACCORDO
100
AcDbLine
 62
253
  6
CONTINUOUS
 10
-21.7691102789
 20
-21.8852865879
 11
-21.7669142997
 21
-21.7251528619
  0
LINE
  5
25D
100
AcDbEntity
  8
RACCORDO
100
AcDbLine
 62
253
  6
CONTINUOUS
 10
-22.2661223366
 20
-21.3749505517
 11
-22.2650841564
 21
-21.3081932214
  0
LWPOLYLINE
  5
25E
100
AcDbEntity
  8
0
100
AcDbPolyline
 62
7
  6
CONTINUOUS
 90
10
 70
0
 43
0.3500000006
 10
3.1071428747
 20
33.8614438934
 10
2.464285738
 20
33.218585907
 10
2.0357142191
 20
32.3614434357
 10
2.0357142191
 20
31.2900119476
 10
2.464285738
 20
30.8614429779
 10
3.1071428747
 20
30.8614429779
 10
3.5357143936
 20
31.2900119476
 10
3.5357143936
 20
32.1471544189
 10
3.1071428747
 20
32.5757279205
 10
2.1785714865
 20
32.5757279205
  0
LINE
  5
25F
100
AcDbEntity
  8
0
100
AcDbLine
 62
7
  6
CONTINUOUS
 10
21.8016135728
 20
-22.1114422353
 11
-21.8016135728
 21
-22.1114422353
  0
LINE
  5
260
100
AcDbEntity
  8
RACCORDO
100
AcDbLine
 62
253
  6
CONTINUOUS
 10
21.7766513084
 20
-22.0864799709
 11
-21.7766513084
 21
-22.0864799709
  0
LINE
  5
261
100
AcDbEntity
  8
RACCORDO
100
AcDbLine
 62
253
  6
CONTINUOUS
 10
21.7640480307
 20
-21.2362251476
 11
-21.7640480307
 21
-21.2362251476
  0
LWPOLYLINE
  5
262
100
AcDbEntity
  8
RACCORDO
100
AcDbPolyline
 62
253
  6
CONTINUOUS
 90
8
 70
0
 10
-21.7766513084
 20
-22.0864799709
 10
-21.7756293033
 20
-22.0814536019
 10
-21.7746273547
 20
-22.070457797
 10
-21.7736454625
 20
-22.0535588376
 10
-21.7726780577
 20
-22.0308580893
 10
-21.7717307095
 20
-22.0024922519
 10
-21.7708201249
 20
-21.9686332738
 10
-21.7691102789
 20
-21.8852865879
  0
LWPOLYLINE
  5
263
100
AcDbEntity
  8
RACCORDO
100
AcDbPolyline
 62
253
  6
CONTINUOUS
 90
7
 70
0
 10
22.2379958269
 20
-9.4905
 10
22.2340029648
 20
-9.4914768667
 10
22.2247570053
 20
-9.492443384
 10
22.210355904
 20
-9.4933893122
 10
22.1909522323
 20
-9.4943046298
 10
22.1667515612
 20
-9.4951796396
 10
22.1380102829
 20
-9.4960050712
  0
LWPOLYLINE
  5
264
100
AcDbEntity
  8
RACCORDO
100
AcDbPolyline
 62
253
  6
CONTINUOUS
 90
9
 70
0
 10
-22.2379958269
 20
-9.4905
 10
-22.2340029683
 20
-9.4914768667
 10
-22.2247570117
 20
-9.4924433841
 10
-22.2103559128
 20
-9.4933893124
 10
-22.1909522429
 20
-9.4943046301
 10
-22.1667515731
 20
-9.4951796399
 10
-22.1380102954
 20
-9.4960050715
 10
-22.1050329075
 20
-9.4967721801
 10
-22.0278084852
 20
-9.4980996237
  0
LWPOLYLINE
  5
265
100
AcDbEntity
  8
RACCORDO
100
AcDbPolyline
 62
253
  6
CONTINUOUS
 90
12
 70
0
 10
-22.2764799709
 20
-21.5866513084
 10
-22.2754641326
 20
-21.5841111763
 10
-22.2744661856
 20
-21.5786660206
 10
-22.2734861298
 20
-21.5703158414
 10
-22.2725176243
 20
-21.5589761121
 10
-22.2715670101
 20
-21.5447313594
 10
-22.27065331
 20
-21.5278351628
 10
-22.2697777543
 20
-21.5082362811
 10
-22.2689391127
 20
-21.4859859557
 10
-22.2681527169
 20
-21.4614914897
 10
-22.267419671
 20
-21.4347145028
 10
-22.2661223366
 20
-21.3749505517
  0
LWPOLYLINE
  5
266
100
AcDbEntity
  8
0
100
AcDbPolyline
 62
7
  6
CONTINUOUS
 90
3
 70
0
 43
0.3500000006
 10
1.035714268
 20
31.1471586456
 10
0.9642857051
 20
30.9328696289
 10
0.8214285793
 20
30.647158493
  0
LINE
  5
267
100
AcDbEntity
  8
RACCORDO
100
AcDbLine
 62
253
  6
CONTINUOUS
 10
22.1380102829
 20
-9.4960050712
 11
22.0681687736
 21
-9.4974728381
  0
LINE
  5
268
100
AcDbEntity
  8
RACCORDO
100
AcDbLine
 62
253
  6
CONTINUOUS
 10
22.0681687736
 20
-9.4974728381
 11
21.9843795892
 21
-9.4986458946
  0
LINE
  5
269
100
AcDbEntity
  8
RACCORDO
100
AcDbLine
 62
253
  6
CONTINUOUS
 10
21.9843795892
 20
-9.4986458946
 11
21.8901841195
 21
-9.499474661
  0
LINE
  5
26A
100
AcDbEntity
  8
RACCORDO
100
AcDbLine
 62
253
  6
CONTINUOUS
 10
21.8901841195
 20
-9.499474661
 11
21.7381671644
 21
-9.4999999993
  0
LINE
  5
26B
100
AcDbEntity
  8
RACCORDO
100
AcDbLine
 62
253
  6
CONTINUOUS
 10
-21.8404154861
 20
-9.4997483763
 11
21.7381671644
 21
-9.5
  0
LINE
  5
26C
100
AcDbEntity
  8
RACCORDO
100
AcDbLine
 62
253
  6
CONTINUOUS
 10
-21.9383422333
 20
-9.4991058655
 11
-21.8404154861
 21
-9.4997483763
  0
LINE
  5
26D
100
AcDbEntity
  8
RACCORDO
100
AcDbLine
 62
253
  6
CONTINUOUS
 10
-22.0278084852
 20
-9.4980996237
 11
-21.9383422333
 21
-9.4991058655
  0
LWPOLYLINE
  5
26E
100
AcDbEntity
  8
0
100
AcDbPolyline
 62
7
  6
CONTINUOUS
 90
2
 70
0
 43
0.3500000006
 10
-3.3928571262
 20
30.8614429779
 10
-3.3928571262
 20
32.3614434357
  0
LWPOLYLINE
  5
26F
100
AcDbEntity
  8
SUPERFICI
100
AcDbPolyline
 62
7
  6
CONTINUOUS
 90
18
 70
0
 10
-2.6058998957
 20
-1.6509021209
 10
-2.6140302131
 20
-1.6839293296
 10
-2.6187427008
 20
-1.7164044074
 10
-2.6200373589
 20
-1.7483273545
 10
-2.6177397625
 20
-1.7799576256
 10
-2.6120243365
 20
-1.8110357665
 10
-2.6034143548
 20
-1.8407834143
 10
-2.591910045
 20
-1.8691319126
 10
-2.5775111794
 20
-1.8961499195
 10
-2.5607403493
 20
-1.9212650454
 10
-2.5416560723
 20
-1.9444331429
 10
-2.5201998307
 20
-1.9656983616
 10
-2.4967186625
 20
-1.9846207574
 10
-2.471099297
 20
-2.0012741838
 10
-2.4434550048
 20
-2.0155847893
 10
-2.4144726365
 20
-2.0268910732
 10
-2.3843811421
 20
-2.0349725356
 10
-2.3529515715
 20
-2.0400496778
  0
LINE
  5
270
100
AcDbEntity
  8
0
100
AcDbLine
 62
7
  6
CONTINUOUS
 10
-2.6058993309
 20
-1.6509003513
 11
-1.4508915383
 21
1.9679840603
  0
LINE
  5
271
100
AcDbEntity
  8
SUPERFICI
100
AcDbLine
 62
7
  6
CONTINUOUS
 10
-1.4508914956
 20
1.9679841942
 11
-2.6058998957
 21
-1.6509021209
  0
LINE
  5
272
100
AcDbEntity
  8
SUPERFICI
100
AcDbLine
 62
7
  6
CONTINUOUS
 10
-1.4147285817
 20
2.0688480362
 11
-1.4508914956
 21
1.9679841942
  0
LWPOLYLINE
  5
273
100
AcDbEntity
  8
0
100
AcDbPolyline
 62
7
  6
CONTINUOUS
 90
37
 70
0
 10
-1.4508915383
 20
1.9679840603
 10
-1.4147286152
 20
2.0688479484
 10
-1.3719699295
 20
2.1661985489
 10
-1.3226154814
 20
2.2600358669
 10
-1.266318636
 20
2.3508708268
 10
-1.203426028
 20
2.4381925146
 10
-1.1349775617
 20
2.5204681824
 10
-1.0609279431
 20
2.5975281187
 10
-0.9813224662
 20
2.6695420554
 10
-0.8973369165
 20
2.7354864155
 10
-0.8088991974
 20
2.7952772103
 10
-0.7160814056
 20
2.8489984516
 10
-0.6202756163
 20
2.8958785666
 10
-0.5214562833
 20
2.935810039
 10
-0.4196489528
 20
2.9689004053
 10
-0.316322339
 20
2.9947006717
 10
-0.2114608182
 20
3.0131121101
 10
-0.1050800141
 20
3.0242334602
 10
0.0013044887
 20
3.0279119286
 10
0.1077046387
 20
3.0240439773
 10
0.2141084872
 20
3.0127331443
 10
0.3189646036
 20
2.9941372473
 10
0.4222495641
 20
2.9681510897
 10
0.5239867925
 20
2.9348798566
 10
0.6226951292
 20
2.894796936
 10
0.7183404046
 20
2.8477949796
 10
0.8109567884
 20
2.7939813158
 10
0.8991656301
 20
2.7341513485
 10
0.9828814046
 20
2.6682392374
 10
1.0621896369
 20
2.5963108
 10
1.1359682517
 20
2.5193589293
 10
1.2041903953
 20
2.4372028811
 10
1.2668829214
 20
2.3500233793
 10
1.3230043148
 20
2.2593555256
 10
1.3722074041
 20
2.1657110187
 10
1.4148393607
 20
2.0685781496
 10
1.4509001848
 20
1.9679569134
  0
LWPOLYLINE
  5
274
100
AcDbEntity
  8
SUPERFICI
100
AcDbPolyline
 62
7
  6
CONTINUOUS
 90
4
 70
0
 10
-1.370097993
 20
-2.0421225
 10
-1.3319321578
 20
-2.0391354481
 10
-1.295878199
 20
-2.0324084
 10
-1.2619361971
 20
-2.0219413802
  0
LWPOLYLINE
  5
275
100
AcDbEntity
  8
SUPERFICI
100
AcDbPolyline
 62
7
  6
CONTINUOUS
 90
4
 70
0
 10
2.3198986744
 20
-2.0421225
 10
2.3538795088
 20
-2.0397998749
 10
2.386261389
 20
-2.0344113254
 10
2.4170442517
 20
-2.0259568684
  0
LWPOLYLINE
  5
276
100
AcDbEntity
  8
0
100
AcDbPolyline
 62
7
  6
CONTINUOUS
 90
2
 70
0
 43
0.3500000006
 10
29.630000885
 20
-3.3928568802
 10
28.1300004272
 20
-3.3928568802
  0
LINE
  5
277
100
AcDbEntity
  8
SUPERFICI
100
AcDbLine
 62
7
  6
CONTINUOUS
 10
2.3198972183
 20
-2.0421225
 11
0.0036999965
 21
-2.0421225
  0
LINE
  5
278
100
AcDbEntity
  8
0
100
AcDbLine
 62
7
  6
CONTINUOUS
 10
2.3198972183
 20
-2.0421225
 11
0.0036999965
 21
-2.0421225
  0
LINE
  5
279
100
AcDbEntity
  8
SUPERFICI
100
AcDbLine
 62
7
  6
CONTINUOUS
 10
-1.3700999991
 20
-2.0421225
 11
-2.3201839091
 21
-2.0421225
  0
LINE
  5
27A
100
AcDbEntity
  8
0
100
AcDbLine
 62
7
  6
CONTINUOUS
 10
-1.3700999991
 20
-2.0421225
 11
-2.3201839091
 21
-2.0421225
  0
LINE
  5
27B
100
AcDbEntity
  8
SUPERFICI
100
AcDbLine
 62
7
  6
CONTINUOUS
 10
-2.3529515715
 20
-2.0400496778
 11
-2.3201839248
 21
-2.0421225
  0
LWPOLYLINE
  5
27C
100
AcDbEntity
  8
0
100
AcDbPolyline
 62
7
  6
CONTINUOUS
 90
19
 70
0
 10
-2.3201733878
 20
-2.0421225
 10
-2.3529418567
 20
-2.0400507333
 10
-2.3843722831
 20
-2.0349744721
 10
-2.4144646669
 20
-2.026893716
 10
-2.4434479809
 20
-2.0155879572
 10
-2.4710932523
 20
-2.0012777021
 10
-2.4967135636
 20
-1.9846244718
 10
-2.5201956394
 20
-1.9657021085
 10
-2.5416527551
 20
-1.944436768
 10
-2.5607378199
 20
-1.921268442
 10
-2.5775093441
 20
-1.8961529843
 10
-2.5919088172
 20
-1.8691345391
 10
-2.6034136171
 20
-1.8407855335
 10
-2.6120239695
 20
-1.8110373022
 10
-2.6177396486
 20
-1.779958509
 10
-2.6200373542
 20
-1.7483275752
 10
-2.6187426532
 20
-1.7164039749
 10
-2.6140299787
 20
-1.6839282336
 10
-2.6058993309
 20
-1.6509003513
  0
LWPOLYLINE
  5
27D
100
AcDbEntity
  8
0
100
AcDbPolyline
 62
7
  6
CONTINUOUS
 90
2
 70
0
 43
0.3500000006
 10
-1.035714268
 20
30.8614429779
 10
-1.035714268
 20
32.3614434357
  0
LWPOLYLINE
  5
27E
100
AcDbEntity
  8
SUPERFICI
100
AcDbPolyline
 62
7
  6
CONTINUOUS
 90
4
 70
0
 10
-0.8203004863
 20
-2.6509040042
 10
-0.8290787995
 20
-2.6881558342
 10
-0.8336305235
 20
-2.7245700377
 10
-0.8339556576
 20
-2.7601465419
  0
LINE
  5
27F
100
AcDbEntity
  8
0
100
AcDbLine
 62
7
  6
CONTINUOUS
 10
-0.8792904955
 20
1.7855673256
 11
-1.9095000125
 21
-1.4421225001
  0
LINE
  5
280
100
AcDbEntity
  8
SUPERFICI
100
AcDbLine
 62
7
  6
CONTINUOUS
 10
-1.9095000125
 20
-1.4421225001
 11
-0.8792904638
 21
1.785567425
  0
LINE
  5
281
100
AcDbEntity
  8
0
100
AcDbLine
 62
7
  6
CONTINUOUS
 10
-0.8203004861
 20
-2.6509040035
 11
-0.5013139049
 21
-1.6509460593
  0
LINE
  5
282
100
AcDbEntity
  8
SUPERFICI
100
AcDbLine
 62
7
  6
CONTINUOUS
 10
-0.5013138977
 20
-1.6509460366
 11
-0.8203004863
 21
-2.6509040042
  0
LWPOLYLINE
  5
283
100
AcDbEntity
  8
SUPERFICI
100
AcDbPolyline
 62
7
  6
CONTINUOUS
 90
35
 70
0
 10
-0.8792904638
 20
1.785567425
 10
-0.8574190005
 20
1.8465825647
 10
-0.8315625062
 20
1.9054791055
 10
-0.8017209808
 20
1.9622570493
 10
-0.7676864232
 20
2.0172244078
 10
-0.7296668345
 20
2.0700731733
 10
-0.6882862185
 20
2.1198793197
 10
-0.6435190729
 20
2.166540609
 10
-0.5953909
 20
2.2101592858
 10
-0.5446022094
 20
2.2501180498
 10
-0.491106535
 20
2.2863690319
 10
-0.434950343
 20
2.3189601083
 10
-0.3769735418
 20
2.3474175982
 10
-0.3171556329
 20
2.3716762079
 10
-0.2555171147
 20
2.3918012372
 10
-0.1929593917
 20
2.4075148949
 10
-0.1294732987
 20
2.4187535741
 10
-0.0650680008
 20
2.4255808851
 10
-0.000672398
 20
2.4279098617
 10
0.0637053374
 20
2.4256807523
 10
0.1280733778
 20
2.4189533086
 10
0.191527341
 20
2.4078198184
 10
0.2540591456
 20
2.3922231676
 10
0.3156768732
 20
2.3722204669
 10
0.3755003859
 20
2.3480753401
 10
0.4335148402
 20
2.3197260972
 10
0.4897350796
 20
2.2872344222
 10
0.5433254977
 20
2.2510490001
 10
0.594254685
 20
2.2111071254
 10
0.6425540508
 20
2.1674714965
 10
0.6874822169
 20
2.1207789039
 10
0.728994739
 20
2.070951451
 10
0.7671360614
 20
2.018067028
 10
0.8012981386
 20
1.9629961076
 10
0.8312782887
 20
1.9060288465
  0
LWPOLYLINE
  5
284
100
AcDbEntity
  8
0
100
AcDbPolyline
 62
7
  6
CONTINUOUS
 90
19
 70
0
 10
-0.5013139049
 20
-1.6509460593
 10
-0.4940846935
 20
-1.6308544658
 10
-0.4855687303
 20
-1.6115092289
 10
-0.4757660153
 20
-1.5929103489
 10
-0.4646075713
 20
-1.5749693365
 10
-0.4521623755
 20
-1.5577746816
 10
-0.4386373593
 20
-1.5415918528
 10
-0.4240208787
 20
-1.5264453161
 10
-0.4083245777
 20
-1.5123106062
 10
-0.39179032
 20
-1.4993797952
 10
-0.3744148055
 20
-1.4876729639
 10
-0.3562013342
 20
-1.4771700322
 10
-0.3374016693
 20
-1.4680028314
 10
-0.317999617
 20
-1.460185348
 10
-0.2980113711
 20
-1.453703596
 10
-0.2777372757
 20
-1.4486474478
 10
-0.2572774456
 20
-1.4450468611
 10
-0.236531766
 20
-1.4428718786
 10
-0.215500237
 20
-1.4421225001
  0
LINE
  5
285
100
AcDbEntity
  8
SUPERFICI
100
AcDbLine
 62
7
  6
CONTINUOUS
 10
-0.4940904761
 20
-1.630870537
 11
-0.5013138977
 21
-1.6509460366
  0
LINE
  5
286
100
AcDbEntity
  8
0
100
AcDbLine
 62
253
  6
CONTINUOUS
 10
-22.3014422353
 20
-21.6116135728
 11
-22.2764799709
 21
-21.5866513084
  0
LINE
  5
287
100
AcDbEntity
  8
0
100
AcDbLine
 62
253
  6
CONTINUOUS
 10
21.8016135728
 20
22.1114422353
 11
21.7766513084
 21
22.0864799709
  0
LINE
  5
288
100
AcDbEntity
  8
0
100
AcDbLine
 62
253
  6
CONTINUOUS
 10
-21.8016135728
 20
-22.1114422353
 11
-21.7766513084
 21
-22.0864799709
  0
LWPOLYLINE
  5
289
100
AcDbEntity
  8
SUPERFICI
100
AcDbPolyline
 62
7
  6
CONTINUOUS
 90
17
 70
0
 10
-0.2366039278
 20
-1.4428765199
 10
-0.2574206973
 20
-1.4450666611
 10
-0.2779505482
 20
-1.4486929234
 10
-0.2982989999
 20
-1.4537883017
 10
-0.318360533
 20
-1.460319801
 10
-0.3378185903
 20
-1.468188437
 10
-0.3566522844
 20
-1.4774098378
 10
-0.3748825025
 20
-1.487968375
 10
-0.3922553491
 20
-1.4997181797
 10
-0.4087630875
 20
-1.5126769848
 10
-0.4244134543
 20
-1.5268270568
 10
-0.4389757646
 20
-1.5419693276
 10
-0.4524370185
 20
-1.5581231793
 10
-0.4648102159
 20
-1.5752692292
 10
-0.4759036711
 20
-1.5931502616
 10
-0.4856534888
 20
-1.611680538
 10
-0.4940904761
 20
-1.630870537
  0
LINE
  5
28A
100
AcDbEntity
  8
SUPERFICI
100
AcDbLine
 62
7
  6
CONTINUOUS
 10
-0.21550024
 20
-1.4421225001
 11
-0.2365616179
 21
-1.4428750082
  0
LINE
  5
28B
100
AcDbEntity
  8
SUPERFICI
100
AcDbLine
 62
7
  6
CONTINUOUS
 10
1.9092999953
 20
-1.4421225001
 11
-0.2155002008
 21
-1.4421225001
  0
LINE
  5
28C
100
AcDbEntity
  8
0
100
AcDbLine
 62
7
  6
CONTINUOUS
 10
1.9092999953
 20
-1.4421225001
 11
-0.2155002008
 21
-1.4421225001
  0
LINE
  5
28D
100
AcDbEntity
  8
SUPERFICI
100
AcDbLine
 62
7
  6
CONTINUOUS
 10
-1.3700999991
 20
-1.4421225001
 11
-1.9095000125
 21
-1.4421225001
  0
LINE
  5
28E
100
AcDbEntity
  8
0
100
AcDbLine
 62
7
  6
CONTINUOUS
 10
-1.3700999991
 20
-1.4421225001
 11
-1.9095000125
 21
-1.4421225001
  0
LWPOLYLINE
  5
28F
100
AcDbEntity
  8
0
100
AcDbPolyline
 62
7
  6
CONTINUOUS
 90
2
 70
0
 43
0.3500000006
 10
29.630000885
 20
-1.0357139511
 10
28.1300004272
 20
-1.0357139511
  0
LWPOLYLINE
  5
290
100
AcDbEntity
  8
0
100
AcDbPolyline
 62
7
  6
CONTINUOUS
 90
28
 70
0
 10
-1.3700997787
 20
-1.4421225001
 10
-1.3332894615
 20
-1.4447695375
 10
-1.2982686721
 20
-1.4511034201
 10
-1.2650374105
 20
-1.4611241474
 10
-1.2333165391
 20
-1.4751042433
 10
-1.2033851955
 20
-1.4927711823
 10
-1.1760807921
 20
-1.5133073906
 10
-1.1514626636
 20
-1.5367064517
 10
-1.1294714753
 20
-1.5629747797
 10
-1.1107666365
 20
-1.5913140461
 10
-1.0953710924
 20
-1.6218944706
 10
-1.0832618978
 20
-1.6545458309
 10
-1.0750296253
 20
-1.6879591365
 10
-1.0708737021
 20
-1.7221962913
 10
-1.070594701
 20
-1.7571953899
 10
-1.0741849134
 20
-1.7914617297
 10
-1.0817966946
 20
-1.8248890074
 10
-1.0932776891
 20
-1.8575835271
 10
-1.1081631224
 20
-1.8883695002
 10
-1.1265241099
 20
-1.9171776994
 10
-1.1482895362
 20
-1.9440773544
 10
-1.1727812798
 20
-1.9681003632
 10
-1.1999781212
 20
-1.989211812
 10
-1.22990128
 20
-2.0074466174
 10
-1.2619362929
 20
-2.0219414236
 10
-1.295878339
 20
-2.0324084459
 10
-1.3319322392
 20
-2.0391354712
 10
-1.3700979937
 20
-2.0421225
  0
LWPOLYLINE
  5
291
100
AcDbEntity
  8
SUPERFICI
100
AcDbPolyline
 62
7
  6
CONTINUOUS
 90
4
 70
0
 10
-1.2650374876
 20
-1.4611241186
 10
-1.2982687805
 20
-1.451103401
 10
-1.3332896156
 20
-1.4447695281
 10
-1.3700999929
 20
-1.4421225001
  0
LINE
  5
292
100
AcDbEntity
  8
0
100
AcDbLine
 62
253
  6
CONTINUOUS
 10
-22.2764799709
 20
21.5866513084
 11
-22.3014422353
 21
21.6116135728
  0
LINE
  5
293
100
AcDbEntity
  8
0
100
AcDbLine
 62
253
  6
CONTINUOUS
 10
21.7766513084
 20
-22.0864799709
 11
21.8016135728
 21
-22.1114422353
  0
LINE
  5
294
100
AcDbEntity
  8
0
100
AcDbLine
 62
253
  6
CONTINUOUS
 10
-21.7766513084
 20
22.0864799709
 11
-21.8016135728
 21
22.1114422353
  0
LWPOLYLINE
  5
295
100
AcDbEntity
  8
SUPERFICI
100
AcDbPolyline
 62
7
  6
CONTINUOUS
 90
22
 70
0
 10
-0.8339556583
 20
-2.7601466153
 10
-0.8298306034
 20
-2.7952016258
 10
-0.8214789593
 20
-2.8294190117
 10
-0.8095715275
 20
-2.8618506014
 10
-0.7940965518
 20
-2.8924713747
 10
-0.7750657884
 20
-2.9213063553
 10
-0.7531853074
 20
-2.9474824393
 10
-0.7283626683
 20
-2.9709765635
 10
-0.7006903116
 20
-2.9918117957
 10
-0.6711516295
 20
-3.0091842294
 10
-0.6396012752
 20
-3.0229784177
 10
-0.6061845954
 20
-3.0333098113
 10
-0.5723210231
 20
-3.0397208505
 10
-0.5380094412
 20
-3.0420032403
 10
-0.5032509667
 20
-3.0403652769
 10
-0.4694683839
 20
-3.0349742864
 10
-0.4368178607
 20
-3.0257590193
 10
-0.4051432291
 20
-3.0127907231
 10
-0.3753987694
 20
-2.9964504679
 10
-0.3475575741
 20
-2.9766827268
 10
-0.3216465506
 20
-2.9535430223
 10
-0.2987007016
 20
-2.9275789988
  0
LINE
  5
296
100
AcDbEntity
  8
0
100
AcDbLine
 62
7
  6
CONTINUOUS
 10
0.0036999965
 20
-2.0421225
 11
-0.2486892038
 21
-2.8332886359
  0
LINE
  5
297
100
AcDbEntity
  8
SUPERFICI
100
AcDbLine
 62
7
  6
CONTINUOUS
 10
-0.2486892036
 20
-2.8332886352
 11
0.0036999965
 21
-2.0421225
  0
LWPOLYLINE
  5
298
100
AcDbEntity
  8
0
100
AcDbPolyline
 62
7
  6
CONTINUOUS
 90
28
 70
0
 10
-0.2486892038
 20
-2.8332886359
 10
-0.2623945011
 20
-2.8675430442
 10
-0.2790649804
 20
-2.8989731387
 10
-0.2987006414
 20
-2.9275789223
 10
-0.3216464863
 20
-2.9535429517
 10
-0.347557513
 20
-2.9766826753
 10
-0.3753987157
 20
-2.9964504343
 10
-0.4051431878
 20
-3.0127907021
 10
-0.4368178359
 20
-3.0257590096
 10
-0.4694683747
 20
-3.0349742843
 10
-0.5032509707
 20
-3.0403652776
 10
-0.5380094575
 20
-3.04200324
 10
-0.57232105
 20
-3.039720847
 10
-0.6061846303
 20
-3.0333098033
 10
-0.6396013164
 20
-3.0229784029
 10
-0.6711516767
 20
-3.0091842053
 10
-0.7006903655
 20
-2.9918117596
 10
-0.7283627286
 20
-2.9709765127
 10
-0.7531853719
 20
-2.9474823705
 10
-0.7750658553
 20
-2.9213062622
 10
-0.794096619
 20
-2.8924712541
 10
-0.8095715894
 20
-2.8618504593
 10
-0.821479006
 20
-2.8294188521
 10
-0.8298306293
 20
-2.7952014546
 10
-0.8339556681
 20
-2.7601464528
 10
-0.8336305253
 20
-2.7245699089
 10
-0.829078798
 20
-2.6881557594
 10
-0.8203004861
 20
-2.6509040035
  0
LWPOLYLINE
  5
299
100
AcDbEntity
  8
SUPERFICI
100
AcDbPolyline
 62
7
  6
CONTINUOUS
 90
4
 70
0
 10
-0.2987006758
 20
-2.9275789612
 10
-0.2790650278
 20
-2.8989732027
 10
-0.2623945285
 20
-2.8675430825
 10
-0.2486892036
 20
-2.8332886352
  0
LINE
  5
29A
100
AcDbEntity
  8
0
100
AcDbLine
 62
253
  6
CONTINUOUS
 10
22.3014422353
 20
21.6116135728
 11
22.2764799709
 21
21.5866513084
  0
LWPOLYLINE
  5
29B
100
AcDbEntity
  8
SUPERFICI
100
AcDbPolyline
 62
7
  6
CONTINUOUS
 90
22
 70
0
 10
-1.2619361166
 20
-2.0219413554
 10
-1.2299010952
 20
-2.0074465255
 10
-1.1999779502
 20
-1.9892116966
 10
-1.1727811278
 20
-1.9681002305
 10
-1.1482894055
 20
-1.9440772142
 10
-1.1265240059
 20
-1.9171775578
 10
-1.1081630431
 20
-1.8883693582
 10
-1.0932776298
 20
-1.8575833842
 10
-1.0817966534
 20
-1.8248888645
 10
-1.0741848897
 20
-1.7914615875
 10
-1.0705946947
 20
-1.7571952475
 10
-1.0708737123
 20
-1.7221961493
 10
-1.0750296507
 20
-1.6879589981
 10
-1.0832619374
 20
-1.6545457004
 10
-1.0953711449
 20
-1.621894351
 10
-1.1107666986
 20
-1.5913139392
 10
-1.1294715423
 20
-1.562974688
 10
-1.1514627323
 20
-1.536706377
 10
-1.1760808624
 20
-1.513307331
 10
-1.2033852633
 20
-1.4927711343
 10
-1.2333166043
 20
-1.475104205
 10
-1.2650374876
 20
-1.4611241186
  0
LINE
  5
29C
100
AcDbEntity
  8
0
100
AcDbLine
 62
253
  6
CONTINUOUS
 10
22.2764799709
 20
-21.5866513084
 11
22.3014422353
 21
-21.6116135728
  0
LWPOLYLINE
  5
29D
100
AcDbEntity
  8
SUPERFICI
100
AcDbPolyline
 62
7
  6
CONTINUOUS
 90
34
 70
0
 10
1.372207382
 20
2.1657110712
 10
1.323004263
 20
2.2593556162
 10
1.2668828276
 20
2.3500235166
 10
1.204190248
 20
2.4372030704
 10
1.1359680413
 20
2.5193591651
 10
1.0621893486
 20
2.5963110771
 10
0.9828810288
 20
2.6682395504
 10
0.8991651762
 20
2.7341516804
 10
0.8109562693
 20
2.7939816432
 10
0.7183398297
 20
2.8477952854
 10
0.6226945163
 20
2.8947972106
 10
0.5239861643
 20
2.9348800891
 10
0.4222489387
 20
2.9681512705
 10
0.3189639937
 20
2.9941373779
 10
0.2141079077
 20
3.0127332285
 10
0.1077041023
 20
3.0240440168
 10
0.0013039966
 20
3.027911929
 10
-0.1050804644
 20
3.024233429
 10
-0.2114612256
 20
3.0131120531
 10
-0.316322704
 20
2.9947005942
 10
-0.4196492757
 20
2.9689003128
 10
-0.5214565644
 20
2.9358099369
 10
-0.6202758582
 20
2.8958784587
 10
-0.7160816121
 20
2.8489983411
 10
-0.808899371
 20
2.7952771011
 10
-0.8973370583
 20
2.7354863122
 10
-0.9813225759
 20
2.6695419633
 10
-1.0609280219
 20
2.5975280425
 10
-1.1349776131
 20
2.5204681248
 10
-1.2034260566
 20
2.4381924769
 10
-1.2663186453
 20
2.3508708115
 10
-1.322615474
 20
2.2600358797
 10
-1.3719699078
 20
2.1661985964
 10
-1.4147285817
 20
2.0688480362
  0
LWPOLYLINE
  5
29E
100
AcDbEntity
  8
SUPERFICI
100
AcDbPolyline
 62
7
  6
CONTINUOUS
 90
3
 70
0
 10
0.8312782887
 20
1.9060288465
 10
0.8572791937
 20
1.8468750841
 10
0.8793008534
 20
1.7855348181
  0
LWPOLYLINE
  5
29F
100
AcDbEntity
  8
0
100
AcDbPolyline
 62
7
  6
CONTINUOUS
 90
37
 70
0
 10
0.8793008472
 20
1.7855348376
 10
0.8572791994
 20
1.846875076
 10
0.8312783048
 20
1.9060288176
 10
0.8012981633
 20
1.9629960645
 10
0.7671360925
 20
2.0180669794
 10
0.7289947749
 20
2.0709514037
 10
0.6874822574
 20
2.1207788586
 10
0.6425540972
 20
2.1674714518
 10
0.5942547371
 20
2.2111070821
 10
0.5433255532
 20
2.2510489597
 10
0.4897351349
 20
2.2872343871
 10
0.4335148928
 20
2.319726069
 10
0.3755004348
 20
2.3480753183
 10
0.3156769173
 20
2.3722204507
 10
0.2540591839
 20
2.3922231565
 10
0.1915273733
 20
2.4078198115
 10
0.1280734038
 20
2.4189533049
 10
0.063705357
 20
2.4256807508
 10
-0.000672384
 20
2.4279098617
 10
-0.0650679915
 20
2.4255808858
 10
-0.1294732932
 20
2.4187535747
 10
-0.1929593892
 20
2.4075148954
 10
-0.2555171134
 20
2.3918012379
 10
-0.3171556318
 20
2.3716762087
 10
-0.376973542
 20
2.3474175981
 10
-0.434950346
 20
2.3189601066
 10
-0.4911065418
 20
2.2863690278
 10
-0.5446022206
 20
2.2501180417
 10
-0.5953909166
 20
2.2101592714
 10
-0.6435190955
 20
2.1665405867
 10
-0.6882862461
 20
2.1198792888
 10
-0.7296668657
 20
2.0700731332
 10
-0.7676864568
 20
2.0172243577
 10
-0.8017210157
 20
1.9622569882
 10
-0.8315625412
 20
1.9054790326
 10
-0.8574190345
 20
1.846582479
 10
-0.8792904955
 20
1.7855673256
  0
LWPOLYLINE
  5
2A0
100
AcDbEntity
  8
SUPERFICI
100
AcDbPolyline
 62
7
  6
CONTINUOUS
 90
3
 70
0
 10
1.4509001873
 20
1.9679569055
 10
1.4148393567
 20
2.0685781693
 10
1.372207382
 20
2.1657110712
  0
LINE
  5
2A1
100
AcDbEntity
  8
0
100
AcDbLine
 62
7
  6
CONTINUOUS
 10
1.9092999953
 20
-1.4421225001
 11
0.8793008472
 21
1.7855348376
  0
LINE
  5
2A2
100
AcDbEntity
  8
SUPERFICI
100
AcDbLine
 62
7
  6
CONTINUOUS
 10
0.8793008534
 20
1.7855348181
 11
1.9092999953
 21
-1.4421225001
  0
LINE
  5
2A3
100
AcDbEntity
  8
0
100
AcDbLine
 62
7
  6
CONTINUOUS
 10
1.4509001848
 20
1.9679569134
 11
2.6057038044
 21
-1.650914424
  0
LINE
  5
2A4
100
AcDbEntity
  8
SUPERFICI
100
AcDbLine
 62
7
  6
CONTINUOUS
 10
2.6057037775
 20
-1.6509143397
 11
1.4509001873
 21
1.9679569055
  0
LWPOLYLINE
  5
2A5
100
AcDbEntity
  8
0
100
AcDbPolyline
 62
7
  6
CONTINUOUS
 90
19
 70
0
 10
2.6057038044
 20
-1.650914424
 10
2.613705889
 20
-1.6827966258
 10
2.6184323908
 20
-1.7143155699
 10
2.61988331
 20
-1.7454712564
 10
2.617916891
 20
-1.7765502993
 10
2.6126748893
 20
-1.8072660847
 10
2.6045825717
 20
-1.8367587719
 10
2.5936788537
 20
-1.864894053
 10
2.5799248199
 20
-1.8918062374
 10
2.5636289903
 20
-1.917038411
 10
2.5447478778
 20
-1.9406708832
 10
2.5233249695
 20
-1.9626233463
 10
2.4997992472
 20
-1.9821979623
 10
2.4741490789
 20
-1.99939148
 10
2.4463960965
 20
-2.0142071525
 10
2.4170441771
 20
-2.0259568982
 10
2.3862612798
 20
-2.0344113573
 10
2.3538794455
 20
-2.0397998911
 10
2.3198986742
 20
-2.0421225
  0
LWPOLYLINE
  5
2A6
100
AcDbEntity
  8
SUPERFICI
100
AcDbPolyline
 62
7
  6
CONTINUOUS
 90
10
 70
0
 10
2.5636290406
 20
-1.9170383408
 10
2.5799248517
 20
-1.8918061844
 10
2.5936788698
 20
-1.8648940212
 10
2.6045825766
 20
-1.8367587572
 10
2.6126748904
 20
-1.807266083
 10
2.6179168927
 20
-1.7765503066
 10
2.61988331
 20
-1.7454712608
 10
2.6184323842
 20
-1.7143155567
 10
2.6137058734
 20
-1.682796583
 10
2.6057037775
 20
-1.6509143397
  0
LWPOLYLINE
  5
2A7
100
AcDbEntity
  8
SUPERFICI
100
AcDbPolyline
 62
7
  6
CONTINUOUS
 90
7
 70
0
 10
2.4170443151
 20
-2.025956851
 10
2.4463962424
 20
-2.014207088
 10
2.4741492156
 20
-1.9993913987
 10
2.4997993687
 20
-1.9821978713
 10
2.5233250704
 20
-1.9626232562
 10
2.544747952
 20
-1.9406708011
 10
2.5636290146
 20
-1.9170383734
  0
LINE
  5
2A8
100
AcDbEntity
  8
RACCORDO
100
AcDbLine
 62
253
  6
CONTINUOUS
 10
-22.1380102879
 20
9.4960050713
 11
-22.0681687786
 21
9.4974728383
  0
LINE
  5
2A9
100
AcDbEntity
  8
RACCORDO
100
AcDbLine
 62
253
  6
CONTINUOUS
 10
-22.0681687786
 20
9.4974728383
 11
-21.9843795934
 21
9.4986458948
  0
LINE
  5
2AA
100
AcDbEntity
  8
RACCORDO
100
AcDbLine
 62
253
  6
CONTINUOUS
 10
-21.9843795934
 20
9.4986458948
 11
-21.8901841222
 21
9.4994746612
  0
LINE
  5
2AB
100
AcDbEntity
  8
RACCORDO
100
AcDbLine
 62
253
  6
CONTINUOUS
 10
-21.8901841222
 20
9.4994746612
 11
-21.7381671644
 21
9.4999999996
  0
LINE
  5
2AC
100
AcDbEntity
  8
RACCORDO
100
AcDbLine
 62
253
  6
CONTINUOUS
 10
21.840415486
 20
9.4997483763
 11
-21.7381671644
 21
9.5
  0
LINE
  5
2AD
100
AcDbEntity
  8
RACCORDO
100
AcDbLine
 62
253
  6
CONTINUOUS
 10
21.9383422333
 20
9.4991058655
 11
21.840415486
 21
9.4997483763
  0
LINE
  5
2AE
100
AcDbEntity
  8
RACCORDO
100
AcDbLine
 62
253
  6
CONTINUOUS
 10
22.0278084851
 20
9.4980996237
 11
21.9383422333
 21
9.4991058655
  0
LWPOLYLINE
  5
2AF
100
AcDbEntity
  8
0
100
AcDbPolyline
 62
7
  6
CONTINUOUS
 90
3
 70
0
 43
0.3500000006
 10
29.3442852173
 20
1.0357133102
 10
29.5585719681
 20
0.9642866592
 10
29.8442853699
 20
0.8214288254
  0
LWPOLYLINE
  5
2B0
100
AcDbEntity
  8
RACCORDO
100
AcDbPolyline
 62
253
  6
CONTINUOUS
 90
12
 70
0
 10
22.2764799709
 20
21.5866513084
 10
22.2754643837
 20
21.5841100213
 10
22.274466787
 20
21.5786680472
 10
22.2734871808
 20
21.5703253861
 10
22.2725192882
 20
21.558997784
 10
22.271569386
 20
21.5447694949
 10
22.2706563049
 20
21.5278932804
 10
22.2697813035
 20
21.5083229654
 10
22.2689431232
 20
21.4861047249
 10
22.2681568186
 20
21.4616298466
 10
22.2674232508
 20
21.4348517581
 10
22.2661242127
 20
21.3750566723
  0
LWPOLYLINE
  5
2B1
100
AcDbEntity
  8
0
100
AcDbPolyline
 62
7
  6
CONTINUOUS
 90
10
 70
0
 43
0.3500000006
 10
29.1300007324
 20
0.9642866592
 10
29.2728563004
 20
1.0357133102
 10
29.3442852173
 20
1.0357133102
 10
29.4871430511
 20
0.8928577423
 10
29.4871430511
 20
0.8214288254
 10
29.4157141342
 20
0.7499999084
 10
29.3442852173
 20
0.7499999084
 10
29.2014296494
 20
0.8214288254
 10
29.1300007324
 20
0.8928577423
 10
29.1300007324
 20
0.9642866592
  0
LWPOLYLINE
  5
2B2
100
AcDbEntity
  8
RACCORDO
100
AcDbPolyline
 62
253
  6
CONTINUOUS
 90
7
 70
0
 10
-22.2379958269
 20
9.4905
 10
-22.2340029662
 20
9.4914768667
 10
-22.2247570079
 20
9.492443384
 10
-22.2103559075
 20
9.4933893123
 10
-22.1909522366
 20
9.4943046299
 10
-22.166751566
 20
9.4951796397
 10
-22.1380102879
 20
9.4960050713
  0
LWPOLYLINE
  5
2B3
100
AcDbEntity
  8
RACCORDO
100
AcDbPolyline
 62
253
  6
CONTINUOUS
 90
9
 70
0
 10
22.2379958269
 20
9.4905
 10
22.2340029682
 20
9.4914768667
 10
22.2247570116
 20
9.4924433841
 10
22.2103559127
 20
9.4933893124
 10
22.1909522429
 20
9.4943046301
 10
22.166751573
 20
9.4951796399
 10
22.1380102953
 20
9.4960050715
 10
22.1050329074
 20
9.4967721801
 10
22.0278084851
 20
9.4980996237
  0
LWPOLYLINE
  5
2B4
100
AcDbEntity
  8
0
100
AcDbPolyline
 62
7
  6
CONTINUOUS
 90
10
 70
0
 43
0.3500000006
 10
0.9642857051
 20
31.3614431305
 10
1.035714268
 20
31.2185852966
 10
1.035714268
 20
31.1471586456
 10
0.8928571422
 20
31.0043008118
 10
0.8214285793
 20
31.0043008118
 10
0.7500000165
 20
31.0757274628
 10
0.7500000165
 20
31.1471586456
 10
0.8214285793
 20
31.2900119476
 10
0.8928571422
 20
31.3614431305
 10
0.9642857051
 20
31.3614431305
  0
LWPOLYLINE
  5
2B5
100
AcDbEntity
  8
RACCORDO
100
AcDbPolyline
 62
253
  6
CONTINUOUS
 90
8
 70
0
 10
21.7766513084
 20
22.0864799709
 10
21.7756293871
 20
22.0814535722
 10
21.7746275169
 20
22.0704577735
 10
21.773645698
 20
22.0535589575
 10
21.772678348
 20
22.0308586736
 10
21.7717310492
 20
22.0024936657
 10
21.7708205485
 20
21.968635596
 10
21.7691111237
 20
21.8852903227
  0
LWPOLYLINE
  5
2B6
100
AcDbEntity
  8
RACCORDO
100
AcDbPolyline
 62
253
  6
CONTINUOUS
 90
7
 70
0
 10
21.7708201249
 20
-21.9686332738
 10
21.7717307095
 20
-22.0024922519
 10
21.7726780577
 20
-22.0308580893
 10
21.7736454625
 20
-22.0535588376
 10
21.7746273547
 20
-22.070457797
 10
21.7756293033
 20
-22.0814536019
 10
21.7766513084
 20
-22.0864799709
  0
LINE
  5
2B7
100
AcDbEntity
  8
RACCORDO
100
AcDbLine
 62
253
  6
CONTINUOUS
 10
21.7640480307
 20
21.2362251476
 11
-21.7640480307
 21
21.2362251476
  0
LWPOLYLINE
  5
2B8
100
AcDbEntity
  8
RACCORDO
100
AcDbPolyline
 62
253
  6
CONTINUOUS
 90
10
 70
0
 10
22.2681527169
 20
-21.4614914897
 10
22.2689391127
 20
-21.4859859557
 10
22.2697777543
 20
-21.5082362811
 10
22.27065331
 20
-21.5278351628
 10
22.2715670101
 20
-21.5447313594
 10
22.2725176243
 20
-21.5589761122
 10
22.2734861298
 20
-21.5703158414
 10
22.2744661856
 20
-21.5786660206
 10
22.2754641326
 20
-21.5841111763
 10
22.2764799709
 20
-21.5866513084
  0
LINE
  5
2B9
100
AcDbEntity
  8
RACCORDO
100
AcDbLine
 62
253
  6
CONTINUOUS
 10
22.266738871
 20
-21.4056933754
 11
22.2681527169
 21
-21.4614914897
  0
LINE
  5
2BA
100
AcDbEntity
  8
RACCORDO
100
AcDbLine
 62
253
  6
CONTINUOUS
 10
21.7691102789
 20
-21.8852865879
 11
21.7708201249
 21
-21.9686332738
  0
LINE
  5
2BB
100
AcDbEntity
  8
RACCORDO
100
AcDbLine
 62
253
  6
CONTINUOUS
 10
22.2655711136
 20
-21.3424327347
 11
22.266738871
 21
-21.4056933754
  0
LINE
  5
2BC
100
AcDbEntity
  8
RACCORDO
100
AcDbLine
 62
253
  6
CONTINUOUS
 10
21.7669142997
 20
-21.7251528619
 11
21.7691102789
 21
-21.8852865879
  0
LINE
  5
2BD
100
AcDbEntity
  8
RACCORDO
100
AcDbLine
 62
253
  6
CONTINUOUS
 10
22.2646703475
 20
-21.2729143474
 11
22.2655711136
 21
-21.3424327347
  0
LINE
  5
2BE
100
AcDbEntity
  8
RACCORDO
100
AcDbLine
 62
253
  6
CONTINUOUS
 10
21.7648466646
 20
-21.4599830018
 11
21.7669142997
 21
-21.7251528619
  0
LINE
  5
2BF
100
AcDbEntity
  8
RACCORDO
100
AcDbLine
 62
253
  6
CONTINUOUS
 10
22.2638766932
 20
-21.1615238967
 11
22.2646703475
 21
-21.2729143474
  0
LINE
  5
2C0
100
AcDbEntity
  8
RACCORDO
100
AcDbLine
 62
253
  6
CONTINUOUS
 10
21.7476037732
 20
-16.0366548119
 11
21.7640480307
 21
-21.2362251476
  0
LINE
  5
2C1
100
AcDbEntity
  8
RACCORDO
100
AcDbLine
 62
253
  6
CONTINUOUS
 10
22.2474324428
 20
-15.9909275752
 11
22.2638766932
 21
-21.1615238967
  0
LINE
  5
2C2
100
AcDbEntity
  8
RACCORDO
100
AcDbLine
 62
253
  6
CONTINUOUS
 10
21.7640480307
 20
-21.2362251476
 11
21.7648466646
 21
-21.4599830018
  0
LINE
  5
2C3
100
AcDbEntity
  8
RACCORDO
100
AcDbLine
 62
253
  6
CONTINUOUS
 10
21.7390638437
 20
-10.809162614
 11
21.7476037732
 21
-16.0366548119
  0
LINE
  5
2C4
100
AcDbEntity
  8
RACCORDO
100
AcDbLine
 62
253
  6
CONTINUOUS
 10
22.2388924616
 20
-10.7928222982
 11
22.2474324428
 21
-15.9909275752
  0
LINE
  5
2C5
100
AcDbEntity
  8
RACCORDO
100
AcDbLine
 62
253
  6
CONTINUOUS
 10
21.735835169
 20
1.0555621241
 11
21.7390638437
 21
-10.809162614
  0
LINE
  5
2C6
100
AcDbEntity
  8
RACCORDO
100
AcDbLine
 62
253
  6
CONTINUOUS
 10
22.235663832
 20
1.0545216111
 11
22.2388924616
 21
-10.7928222982
  0
LINE
  5
2C7
100
AcDbEntity
  8
0
100
AcDbLine
 62
7
  6
CONTINUOUS
 10
22.3014422353
 20
21.6116135728
 11
22.3014422353
 21
-21.6116135728
  0
LINE
  5
2C8
100
AcDbEntity
  8
RACCORDO
100
AcDbLine
 62
253
  6
CONTINUOUS
 10
21.7423428018
 20
13.4252942234
 11
21.735835169
 21
1.0555621241
  0
LINE
  5
2C9
100
AcDbEntity
  8
RACCORDO
100
AcDbLine
 62
253
  6
CONTINUOUS
 10
22.2421714406
 20
13.3939726076
 11
22.235663832
 21
1.0545216111
  0
LINE
  5
2CA
100
AcDbEntity
  8
RACCORDO
100
AcDbLine
 62
253
  6
CONTINUOUS
 10
21.7548394573
 20
18.6410336052
 11
21.7423428018
 21
13.4252942234
  0
LINE
  5
2CB
100
AcDbEntity
  8
RACCORDO
100
AcDbLine
 62
253
  6
CONTINUOUS
 10
22.2546682314
 20
18.5804252298
 11
22.2421714406
 21
13.3939726076
  0
LINE
  5
2CC
100
AcDbEntity
  8
RACCORDO
100
AcDbLine
 62
253
  6
CONTINUOUS
 10
21.7652608966
 20
21.5306779274
 11
21.7548394573
 21
18.6410336052
  0
LINE
  5
2CD
100
AcDbEntity
  8
RACCORDO
100
AcDbLine
 62
253
  6
CONTINUOUS
 10
22.2643327731
 20
21.2368459471
 11
22.2546682314
 21
18.5804252298
  0
LINE
  5
2CE
100
AcDbEntity
  8
RACCORDO
100
AcDbLine
 62
253
  6
CONTINUOUS
 10
21.7669146285
 20
21.7251570648
 11
21.7652608966
 21
21.5306779274
  0
LINE
  5
2CF
100
AcDbEntity
  8
RACCORDO
100
AcDbLine
 62
253
  6
CONTINUOUS
 10
22.265084922
 20
21.3082533785
 11
22.2643327731
 21
21.2368459471
  0
LINE
  5
2D0
100
AcDbEntity
  8
RACCORDO
100
AcDbLine
 62
253
  6
CONTINUOUS
 10
21.7691111237
 20
21.8852903227
 11
21.7669146285
 21
21.7251570648
  0
LINE
  5
2D1
100
AcDbEntity
  8
RACCORDO
100
AcDbLine
 62
253
  6
CONTINUOUS
 10
22.2661242127
 20
21.3750566723
 11
22.265084922
 21
21.3082533785
  0
LINE
  5
2D2
100
AcDbEntity
  8
RACCORDO
100
AcDbLine
 62
253
  6
CONTINUOUS
 10
21.7766513084
 20
22.0864799709
 11
-21.7766513084
 21
22.0864799709
  0
LINE
  5
2D3
100
AcDbEntity
  8
0
100
AcDbLine
 62
7
  6
CONTINUOUS
 10
21.8016135728
 20
22.1114422353
 11
-21.8016135728
 21
22.1114422353
  0
LWPOLYLINE
  5
2D4
100
AcDbEntity
  8
RACCORDO
100
AcDbPolyline
 62
253
  6
CONTINUOUS
 90
16
 70
0
 10
22.2764799709
 20
21.5866513084
 10
22.2737085996
 20
21.6388735973
 10
22.2654963459
 20
21.690524463
 10
22.2519330371
 20
21.7410385151
 10
22.2331670751
 20
21.7898627998
 10
22.2094038183
 20
21.8364628405
 10
22.180903339
 20
21.8803284908
 10
22.1479775626
 20
21.9209795447
 10
22.1109868701
 20
21.957970966
 10
22.0703361707
 20
21.9908977572
 10
22.0264704213
 20
22.0193994387
 10
21.9798697895
 20
22.04316396
 10
21.9310444317
 20
22.0619311116
 10
21.8805288403
 20
22.075495413
 10
21.8288759856
 20
22.0837083472
 10
21.7766513085
 20
22.086479971
  0
LWPOLYLINE
  5
2D5
100
AcDbEntity
  8
RACCORDO
100
AcDbPolyline
 62
253
  6
CONTINUOUS
 90
16
 70
0
 10
22.2764799709
 20
-21.5866513084
 10
22.2737084581
 20
-21.6388749344
 10
22.265495829
 20
-21.6905268861
 10
22.2519319847
 20
-21.741041747
 10
22.2331654038
 20
-21.7898665481
 10
22.2094015179
 20
-21.8364668208
 10
22.180900462
 20
-21.8803324477
 10
22.1479742276
 20
-21.9209832468
 10
22.110983247
 20
-21.9579742274
 10
22.070332448
 20
-21.9909004618
 10
22.026466821
 20
-22.0194015178
 10
21.9798665483
 20
-22.0431654038
 10
21.9310417472
 20
-22.0619319847
 10
21.8805268862
 20
-22.0754958291
 10
21.8288749345
 20
-22.0837084581
 10
21.7766513084
 20
-22.0864799709
  0
LWPOLYLINE
  5
2D6
100
AcDbEntity
  8
0
100
AcDbPolyline
 62
7
  6
CONTINUOUS
 90
3
 70
0
 43
0.3500000006
 10
28.9871428986
 20
-0.5357137985
 10
28.9871428986
 20
-2.0357142563
 10
26.6299999695
 20
-1.3928574028
  0
LWPOLYLINE
  5
2D7
100
AcDbEntity
  8
0
100
AcDbPolyline
 62
7
  6
CONTINUOUS
 90
3
 70
0
 43
0.3500000006
 10
28.9871428986
 20
-2.8928567276
 10
28.9871428986
 20
-4.3928571854
 10
26.6299999695
 20
-3.7500003319
  0
LWPOLYLINE
  5
2D8
100
AcDbEntity
  8
0
100
AcDbPolyline
 62
7
  6
CONTINUOUS
 90
7
 70
0
 43
0.3500000006
 10
29.630000885
 20
3.5357140732
 10
29.630000885
 20
2.0357136154
 10
27.4871424408
 20
3.5357140732
 10
27.0585712051
 20
3.5357140732
 10
26.6299999695
 20
3.1071428375
 10
26.6299999695
 20
2.4642848511
 10
27.2728579559
 20
2.0357136154
  0
LWPOLYLINE
  5
2D9
100
AcDbEntity
  8
RACCORDO
100
AcDbPolyline
 62
253
  6
CONTINUOUS
 90
16
 70
0
 10
22.263876693
 20
-21.1615238967
 10
22.2598961887
 20
-21.1692063518
 10
22.2506606727
 20
-21.1768073667
 10
22.2362680235
 20
-21.1842463858
 10
22.2168707748
 20
-21.19144457
 10
22.1926744993
 20
-21.1983256327
 10
22.1639356299
 20
-21.2048166483
 10
22.1309587422
 20
-21.2108488247
 10
22.0940933262
 20
-21.2163582328
 10
22.053730083
 20
-21.2212864835
 10
22.0102967834
 20
-21.2255813472
 10
21.9642537351
 20
-21.2291973067
 10
21.9160889038
 20
-21.2320960401
 10
21.866312742
 20
-21.2342468266
 10
21.8154527791
 20
-21.235626872
 10
21.7640480308
 20
-21.2362215505
  0
LWPOLYLINE
  5
2DA
100
AcDbEntity
  8
0
100
AcDbPolyline
 62
7
  6
CONTINUOUS
 90
3
 70
0
 43
0.3500000006
 10
-0.5357142924
 20
31.5043009644
 10
-2.0357142191
 20
31.5043009644
 10
-1.3928570824
 20
33.8614438934
  0
LWPOLYLINE
  5
2DB
100
AcDbEntity
  8
0
100
AcDbPolyline
 62
7
  6
CONTINUOUS
 90
3
 70
0
 43
0.3500000006
 10
-2.8928572569
 20
31.5043009644
 10
-4.3928571482
 20
31.5043009644
 10
-3.7500000114
 20
33.8614438934
  0
LWPOLYLINE
  5
2DC
100
AcDbEntity
  8
RACCORDO
100
AcDbPolyline
 62
253
  6
CONTINUOUS
 90
16
 70
0
 10
22.2638766932
 20
21.1615238967
 10
22.2598974597
 20
21.1692066572
 10
22.250663019
 20
21.1768079927
 10
22.2362712413
 20
21.1842473412
 10
22.2168746564
 20
21.1914458576
 10
22.1926788368
 20
21.1983272491
 10
22.1639402194
 20
21.2048185843
 10
22.1309633874
 20
21.2108510651
 10
22.0940978422
 20
21.2163607572
 10
22.0537342993
 20
21.2212892666
 10
22.0103005474
 20
21.225584359
 10
21.9642569145
 20
21.2292005133
 10
21.9160913891
 20
21.2320994044
 10
21.8663144484
 20
21.2342503089
 10
21.815453648
 20
21.2356304304
 10
21.7640480307
 20
21.236225142
  0
LINE
  5
2DD
100
AcDbEntity
  8
RACCORDO
100
AcDbLine
 62
7
  6
CONTINUOUS
 10
-36.3135548363
 20
-22.0864799709
 11
-35.3602844187
 21
-22.1114422353
  0
LINE
  5
2DE
100
AcDbEntity
  8
0
100
AcDbLine
 62
7
  6
CONTINUOUS
 10
-36.3135548363
 20
-22.0864799709
 11
-35.3602844187
 21
-22.1114422353
  0
LINE
  5
2DF
100
AcDbEntity
  8
0
100
AcDbLine
 62
253
  6
CONTINUOUS
 10
-36.3135548363
 20
-21.5866513084
 11
-35.3602844187
 21
-21.6116135728
  0
LWPOLYLINE
  5
2E0
100
AcDbEntity
  8
RACCORDO
100
AcDbPolyline
 62
253
  6
CONTINUOUS
 90
4
 70
0
 10
-37.2528085344
 20
-21.2320960401
 10
-37.2657394154
 20
-21.2342468266
 10
-37.2735409867
 20
-21.235626872
 10
-37.276130567
 20
-21.2362215505
  0
LINE
  5
2E1
100
AcDbEntity
  8
RACCORDO
100
AcDbLine
 62
253
  6
CONTINUOUS
 10
-37.1848729805
 20
-21.2212864835
 11
-37.2528085344
 21
-21.2320960401
  0
LWPOLYLINE
  5
2E2
100
AcDbEntity
  8
RACCORDO
100
AcDbPolyline
 62
253
  6
CONTINUOUS
 90
3
 70
0
 10
-36.7948545933
 20
-21.1615238967
 10
-36.8455944704
 20
-21.1692063518
 10
-37.1848729805
 20
-21.2212864835
  0
LINE
  5
2E3
100
AcDbEntity
  8
0
100
AcDbLine
 62
7
  6
CONTINUOUS
 10
-34.3602844187
 20
-13.2689805518
 11
-35.3602844187
 21
-13.3213883311
  0
LWPOLYLINE
  5
2E4
100
AcDbEntity
  8
0
100
AcDbPolyline
 62
7
  6
CONTINUOUS
 90
2
 70
0
 43
0.3500000006
 10
-44.682729126
 20
30.8614429779
 10
-44.682729126
 20
32.3614434357
  0
LINE
  5
2E5
100
AcDbEntity
  8
RACCORDO
100
AcDbLine
 62
253
  6
CONTINUOUS
 10
-38.2673785917
 20
-9.499924109
 11
-38.270026235
 21
-9.4999999993
  0
LINE
  5
2E6
100
AcDbEntity
  8
RACCORDO
100
AcDbLine
 62
253
  6
CONTINUOUS
 10
-37.7832050045
 20
-9.4905
 11
-38.2673785917
 21
-9.499924109
  0
LINE
  5
2E7
100
AcDbEntity
  8
0
100
AcDbLine
 62
7
  6
CONTINUOUS
 10
-34.3602844187
 20
-9.7310194482
 11
-35.3602844187
 21
-9.6786116689
  0
LWPOLYLINE
  5
2E8
100
AcDbEntity
  8
RACCORDO
100
AcDbPolyline
 62
253
  6
CONTINUOUS
 90
10
 70
0
 10
-36.7948545933
 20
21.1615238967
 10
-36.9801031097
 20
19.8719852003
 10
-37.1465115631
 20
18.5804252298
 10
-37.2940799538
 20
17.2868439853
 10
-37.4228321325
 20
15.9909603469
 10
-37.5327442483
 20
14.6930554344
 10
-37.6237447486
 20
13.3939726076
 10
-37.6958097827
 20
12.0939929862
 10
-37.7489632013
 20
10.7928354503
 10
-37.7832050045
 20
9.4905
  0
LWPOLYLINE
  5
2E9
100
AcDbEntity
  8
RACCORDO
100
AcDbPolyline
 62
253
  6
CONTINUOUS
 90
19
 70
0
 10
-36.7948545933
 20
-21.1615238967
 10
-36.7875452039
 20
-21.1996934077
 10
-36.7774423928
 20
-21.2368235579
 10
-36.7645461602
 20
-21.2729143474
 10
-36.7487434347
 20
-21.3081932214
 10
-36.7301472876
 20
-21.3424327347
 10
-36.7090969328
 20
-21.3749505517
 10
-36.6855524353
 20
-21.4056933754
 10
-36.6595537302
 20
-21.4347145028
 10
-36.6315598361
 20
-21.4614914897
 10
-36.6015285935
 20
-21.4859859557
 10
-36.5695021621
 20
-21.5082362811
 10
-36.5360660389
 20
-21.5278351628
 10
-36.5011732391
 20
-21.5447313594
 10
-36.4648707476
 20
-21.5589761122
 10
-36.4278850164
 20
-21.5703158414
 10
-36.3904581961
 20
-21.5786660206
 10
-36.3523481361
 20
-21.5841111763
 10
-36.3135548363
 20
-21.5866513084
  0
LWPOLYLINE
  5
2EA
100
AcDbEntity
  8
RACCORDO
100
AcDbPolyline
 62
253
  6
CONTINUOUS
 90
10
 70
0
 10
-37.7832050045
 20
-9.4905
 10
-37.7489639065
 20
-10.7928222982
 10
-37.6958111181
 20
-12.0939699785
 10
-37.6237466395
 20
-13.393943041
 10
-37.532746755
 20
-14.693022617
 10
-37.4228351801
 20
-15.9909275752
 10
-37.2940830618
 20
-17.2868145217
 10
-37.1465141158
 20
-18.5804023251
 10
-36.9801046263
 20
-19.8719721168
 10
-36.7948545933
 20
-21.1615238967
  0
LWPOLYLINE
  5
2EB
100
AcDbEntity
  8
RACCORDO
100
AcDbPolyline
 62
253
  6
CONTINUOUS
 90
10
 70
0
 10
-37.7832050045
 20
9.4905
 10
-37.8188271137
 20
7.381529647
 10
-37.845543698
 20
5.2725447223
 10
-37.8633547573
 20
3.1635452259
 10
-37.8722602946
 20
1.0545216111
 10
-37.872260307
 20
-1.0545165753
 10
-37.8633547851
 20
-3.1635406936
 10
-37.8455437258
 20
-5.2725411972
 10
-37.8188271323
 20
-7.3815276327
 10
-37.7832050045
 20
-9.4905
  0
LINE
  5
2EC
100
AcDbEntity
  8
RACCORDO
100
AcDbLine
 62
253
  6
CONTINUOUS
 10
-36.3135548363
 20
21.5866513084
 11
-36.3159872229
 21
21.690524463
  0
LINE
  5
2ED
100
AcDbEntity
  8
RACCORDO
100
AcDbLine
 62
253
  6
CONTINUOUS
 10
-36.3159872229
 20
21.690524463
 11
-36.3177419086
 21
21.7898627998
  0
LWPOLYLINE
  5
2EE
100
AcDbEntity
  8
RACCORDO
100
AcDbPolyline
 62
253
  6
CONTINUOUS
 90
11
 70
0
 10
-36.3177419086
 20
21.7898627998
 10
-36.3187422568
 20
21.8803284908
 10
-36.318944549
 20
21.9209795447
 10
-36.3189445676
 20
21.957970966
 10
-36.3187423104
 20
21.9908977572
 10
-36.3183399895
 20
22.0193994387
 10
-36.3177420071
 20
22.04316396
 10
-36.3169549086
 20
22.0619311116
 10
-36.3159873093
 20
22.075495413
 10
-36.3148498003
 20
22.0837083472
 10
-36.313554833
 20
22.086479971
  0
LWPOLYLINE
  5
2EF
100
AcDbEntity
  8
RACCORDO
100
AcDbPolyline
 62
253
  6
CONTINUOUS
 90
9
 70
0
 10
-36.318944584
 20
-21.9209832468
 10
-36.3189445838
 20
-21.9579742274
 10
-36.3187423087
 20
-21.9909004618
 10
-36.3183399729
 20
-22.0194015178
 10
-36.3177419808
 20
-22.0431654038
 10
-36.3169548786
 20
-22.0619319847
 10
-36.3159872825
 20
-22.0754958291
 10
-36.3148497845
 20
-22.0837084581
 10
-36.3135548363
 20
-22.0864799709
  0
LINE
  5
2F0
100
AcDbEntity
  8
0
100
AcDbLine
 62
7
  6
CONTINUOUS
 10
-35.3602844187
 20
-22.1114422353
 11
-35.3602844187
 21
22.1114422353
  0
LINE
  5
2F1
100
AcDbEntity
  8
RACCORDO
100
AcDbLine
 62
253
  6
CONTINUOUS
 10
-36.3183399741
 20
-21.8364668208
 11
-36.318944584
 21
-21.9209832468
  0
LINE
  5
2F2
100
AcDbEntity
  8
RACCORDO
100
AcDbLine
 62
253
  6
CONTINUOUS
 10
-36.3169548804
 20
-21.741041747
 11
-36.3183399741
 21
-21.8364668208
  0
LWPOLYLINE
  5
2F3
100
AcDbEntity
  8
RACCORDO
100
AcDbPolyline
 62
253
  6
CONTINUOUS
 90
3
 70
0
 10
-36.3135548363
 20
-21.5866513084
 10
-36.3148497854
 20
-21.6388749344
 10
-36.3169548804
 20
-21.741041747
  0
LINE
  5
2F4
100
AcDbEntity
  8
0
100
AcDbLine
 62
253
  6
CONTINUOUS
 10
-34.7393500362
 20
-13.288846539
 11
-34.7393500362
 21
-9.711153461
  0
LINE
  5
2F5
100
AcDbEntity
  8
0
100
AcDbLine
 62
253
  6
CONTINUOUS
 10
-34.7393500362
 20
9.711153461
 11
-34.7393500362
 21
13.288846539
  0
LINE
  5
2F6
100
AcDbEntity
  8
0
100
AcDbLine
 62
7
  6
CONTINUOUS
 10
-34.3602844187
 20
-13.2689805518
 11
-34.3602844187
 21
-9.7310194482
  0
LINE
  5
2F7
100
AcDbEntity
  8
0
100
AcDbLine
 62
7
  6
CONTINUOUS
 10
-34.3602844187
 20
9.7310194482
 11
-34.3602844187
 21
13.2689805518
  0
LINE
  5
2F8
100
AcDbEntity
  8
0
100
AcDbLine
 62
7
  6
CONTINUOUS
 10
-34.3602844187
 20
9.7310194482
 11
-35.3602844187
 21
9.6786116689
  0
LWPOLYLINE
  5
2F9
100
AcDbEntity
  8
RACCORDO
100
AcDbPolyline
 62
253
  6
CONTINUOUS
 90
3
 70
0
 10
-37.7832050045
 20
9.4905
 10
-38.2673786278
 20
9.4999241097
 10
-38.2700262714
 20
9.5
  0
LINE
  5
2FA
100
AcDbEntity
  8
0
100
AcDbLine
 62
7
  6
CONTINUOUS
 10
-34.3602844187
 20
13.2689805518
 11
-35.3602844187
 21
13.3213883311
  0
LWPOLYLINE
  5
2FB
100
AcDbEntity
  8
RACCORDO
100
AcDbPolyline
 62
253
  6
CONTINUOUS
 90
19
 70
0
 10
-36.3135548363
 20
21.5866513084
 10
-36.3523385458
 20
21.5841100213
 10
-36.3904352269
 20
21.5786680472
 10
-36.4278448797
 20
21.5703253861
 10
-36.4648072078
 20
21.558997784
 10
-36.5010825076
 20
21.5447694949
 10
-36.5359516679
 20
21.5278932804
 10
-36.5693666219
 20
21.5083229654
 10
-36.6013754364
 20
21.4861047249
 10
-36.631403201
 20
21.4616298466
 10
-36.6594170237
 20
21.4348517581
 10
-36.6854497965
 20
21.4058170317
 10
-36.7090252858
 20
21.3750566723
 10
-36.7300983843
 20
21.3425178419
 10
-36.7487141992
 20
21.3082533785
 10
-36.7645318188
 20
21.2729528004
 10
-36.7774376057
 20
21.2368459471
 10
-36.7875451972
 20
21.1997029793
 10
-36.7948545933
 20
21.1615238967
  0
LINE
  5
2FC
100
AcDbEntity
  8
0
100
AcDbLine
 62
253
  6
CONTINUOUS
 10
-35.3602844187
 20
21.6116135728
 11
-36.3135548363
 21
21.5866513084
  0
LINE
  5
2FD
100
AcDbEntity
  8
RACCORDO
100
AcDbLine
 62
7
  6
CONTINUOUS
 10
-35.3602844187
 20
22.1114422353
 11
-36.313554833
 21
22.086479971
  0
LINE
  5
2FE
100
AcDbEntity
  8
0
100
AcDbLine
 62
7
  6
CONTINUOUS
 10
-35.3602844187
 20
22.1114422353
 11
-36.3135548363
 21
22.0864799709
  0
LWPOLYLINE
  5
2FF
100
AcDbEntity
  8
0
100
AcDbPolyline
 62
7
  6
CONTINUOUS
 90
3
 70
0
 43
0.3500000006
 10
-44.1827289734
 20
31.5043009644
 10
-45.6827294312
 20
31.5043009644
 10
-45.0398714447
 20
33.8614438934
  0
LINE
  5
300
100
AcDbEntity
  8
RACCORDO
100
AcDbLine
 62
253
  6
CONTINUOUS
 10
-36.7948545933
 20
21.1615238967
 11
-37.1533303981
 21
21.2163607572
  0
LWPOLYLINE
  5
301
100
AcDbEntity
  8
RACCORDO
100
AcDbPolyline
 62
253
  6
CONTINUOUS
 90
6
 70
0
 10
-37.1533303981
 20
21.2163607572
 10
-37.2349065441
 20
21.2292005133
 10
-37.2528307429
 20
21.2320994044
 10
-37.2657624131
 20
21.2342503089
 10
-37.2735644999
 20
21.2356304304
 10
-37.2761543136
 20
21.236225142
  0
ARC
  5
302
100
AcDbEntity
  8
RACCORDO
100
AcDbCircle
 62
7
  6
CONTINUOUS
 10
461.6397155813
 20
0.0
 40
500.0
100
AcDbArc
 50
178.91131468
 51
181.08868532
  0
ARC
  5
303
100
AcDbEntity
  8
RACCORDO
100
AcDbCircle
 62
7
  6
CONTINUOUS
 10
51.7137272614
 20
-7.79
 40
90.0
100
AcDbArc
 50
181.08868532
 51
188.592302252
  0
ARC
  5
304
100
AcDbEntity
  8
RACCORDO
100
AcDbCircle
 62
7
  6
CONTINUOUS
 10
51.7137272614
 20
7.79
 40
90.0
100
AcDbArc
 50
171.407697748
 51
178.91131468
  0
ARC
  5
305
100
AcDbEntity
  8
RACCORDO
100
AcDbCircle
 62
7
  6
CONTINUOUS
 10
-36.287377888
 20
-21.0868226459
 40
1.0
100
AcDbArc
 50
188.592302252
 51
268.5
  0
ARC
  5
306
100
AcDbEntity
  8
RACCORDO
100
AcDbCircle
 62
7
  6
CONTINUOUS
 10
-36.287377888
 20
21.0868226459
 40
1.0
100
AcDbArc
 50
91.5
 51
171.407697748
  0
ELLIPSE
  5
307
100
AcDbEntity
  8
0
100
AcDbEllipse
 62
7
  6
CONTINUOUS
 10
21.801270839
 20
21.611270839
 30
0.0
 11
-0.35379574
 21
-0.35379574
 31
0.0
 40
0.999315002
 41
2.3565371065
 42
3.9266482006
  0
ELLIPSE
  5
308
100
AcDbEntity
  8
0
100
AcDbEllipse
 62
7
  6
CONTINUOUS
 10
21.801270839
 20
-21.611270839
 30
0.0
 11
-0.35379574
 21
0.35379574
 31
0.0
 40
0.999315002
 41
-3.9266482006
 42
-2.3565371065
  0
ELLIPSE
  5
309
100
AcDbEntity
  8
0
100
AcDbEllipse
 62
7
  6
CONTINUOUS
 10
-21.801270839
 20
-21.611270839
 30
0.0
 11
0.35379574
 21
0.35379574
 31
0.0
 40
0.999315002
 41
2.3565371065
 42
3.9266482006
  0
ELLIPSE
  5
30A
100
AcDbEntity
  8
0
100
AcDbEllipse
 62
7
  6
CONTINUOUS
 10
-21.801270839
 20
21.611270839
 30
0.0
 11
-0.35379574
 21
0.35379574
 31
0.0
 40
0.999315002
 41
-0.7850555471
 42
0.7850555471
  0
ENDSEC
  0
SECTION
  2
OBJECTS
  0
DICTIONARY
  5
C
100
AcDbDictionary
280
0
281
1
  3
ACAD_GROUP
350
D
  3
ACAD_MLINESTYLE
350
17
  3
ACAD_LAYOUT
350
1A
  3
ACAD_PLOTSETTINGS
350
19
  3
ACAD_PLOTSTYLENAME
350
E
  0
DICTIONARY
  5
D
102
{ACAD_REACTORS
330
C
102
}
100
AcDbDictionary
280
0
281
1
  0
ACDBDICTIONARYWDFLT
  5
E
102
{ACAD_REACTORS
330
C
102
}
100
AcDbDictionary
281
1
  3
Normal
350
F
100
AcDbDictionaryWithDefault
340
F
  0
DICTIONARY
  5
17
102
{ACAD_REACTORS
330
C
102
}
100
AcDbDictionary
280
0
281
1
  3
Standard
350
18
  0
DICTIONARY
  5
19
102
{ACAD_REACTORS
330
C
102
}
100
AcDbDictionary
281
1
  0
DICTIONARY
  5
1A
102
{ACAD_REACTORS
330
C
102
}
100
AcDbDictionary
281
1
  3
Model
350
30B
  3
Layout1
350
30C
  0
ACDBPLACEHOLDER
  5
F
102
{ACAD_REACTORS
330
E
102
}
  0
MLINESTYLE
  5
18
102
{ACAD_REACTORS
330
17
102
}
100
AcDbMlineStyle
  2
STANDARD
 70
0
  3

 62
256
 51
90.0
 52
90.0
 71
2
 49
0.5
 62
256
  6
BYLAYER
 49
-0.5
 62
256
  6
BYLAYER
  0
LAYOUT
  5
30B
102
{ACAD_REACTORS
330
1A
102
}
100
AcDbPlotSettings
  1

  2
none_device
  4
ISO_A4_(297.00_x_210.00_MM)
  6

 40
0.0
 41
0.0
 42
0.0
 43
0.0
 44
297.0
 45
210.0
 46
0.0
 47
0.0
 48
0.0
 49
0.0
140
0.0
141
0.0
142
1.0
143
1.0
 70
1024
 72
1
 73
0
 74
0
  7

 75
0
147
1.0
148
0.0
149
0.0
100
AcDbLayout
  1
Model
 70
0
 71
0
 10
0.0
 20
0.0
 11
297.0
 21
210.0
 12
0.0
 22
0.0
 32
0.0
 14
0.0
 24
0.0
 34
0.0
 15
0.0
 25
0.0
 35
0.0
146
0.0
 13
0.0
 23
0.0
 33
0.0
 16
1.0
 26
0.0
 36
0.0
 17
0.0
 27
1.0
 37
0.0
 76
0
330
218
345
0
346
0
  0
LAYOUT
  5
30C
102
{ACAD_REACTORS
330
1A
102
}
100
AcDbPlotSettings
  1

  2
none_device
  4
ISO_A4_(297.00_x_210.00_MM)
  6

 40
0.0
 41
0.0
 42
0.0
 43
0.0
 44
297.0
 45
210.0
 46
0.0
 47
0.0
 48
0.0
 49
0.0
140
0.0
141
0.0
142
1.0
143
1.0
 70
0
 72
1
 73
0
 74
0
  7

 75
0
147
1.0
148
0.0
149
0.0
100
AcDbLayout
  1
Layout1
 70
0
 71
1
 10
0.0
 20
0.0
 11
297.0
 21
210.0
 12
0.0
 22
0.0
 32
0.0
 14
0.0
 24
0.0
 34
0.0
 15
0.0
 25
0.0
 35
0.0
146
0.0
 13
0.0
 23
0.0
 33
0.0
 16
1.0
 26
0.0
 36
0.0
 17
0.0
 27
1.0
 37
0.0
 76
0
330
219
345
0
346
0
  0
ENDSEC
  0
EOF
