  0
SECTION
  2
HEADER
  9
$ACADVER
  1
AC1015
  9
$DWGCODEPAGE
  3
ANSI_1252
  9
$EXTMAX
 10
297.0
 20
210.0
 30
0.0
  9
$EXTMIN
 10
0.0
 20
0.0
 30
0.0
  9
$LIMMIN
 10
0.0
 20
0.0
  9
$LIMMAX
 10
297.0
 20
210.0
  9
$VIEWCTR
 10
148.5
 20
105.0
  9
$VIEWSIZE
 40
210.0
  9
$CLAYER
  8
0
  9
$LTSCALE
 40
16.335
  9
$CELTYPE
  6
BYLAYER
  9
$DIMSCALE
 40
1.0
  9
$DIMASZ
 40
3.0
  9
$DIMEXO
 40
1.85625
  9
$DIMDLI
 40
11.286
  9
$DIMEXE
 40
5.346
  9
$DIMCEN
 40
2.673
  9
$DIMLFAC
 40
1.0
  9
$DIMBLK
  1
_FILLED
  9
$DIMTXT
 40
3.0
  9
$DIMTOL
 70
1
  9
$DIMLIM
 70
0
  9
$DIMTFAC
 40
1.0
  9
$DIMTP
 40
0.01
  9
$DIMTM
 40
0.01
  9
$PDMODE
 70
3
  9
$PDSIZE
 40
3.0
  9
$HANDSEED
  5
342
  9
$TILEMODE
 70
1
  9
$MEASUREMENT
 70
1
  9
$INSUNITS
 70
4
  0
ENDSEC
  0
SECTION
  2
CLASSES
  0
CLASS
  1
ACDBDICTIONARYWDFLT
  2
AcDbDictionaryWithDefault
  3
AutoCAD 2000
 90
0
280
0
281
0
  0
CLASS
  1
ACDBPLACEHOLDER
  2
AcDbPlaceHolder
  3
AutoCAD 2000
 90
0
280
0
281
0
  0
CLASS
  1
LAYOUT
  2
AcDbLayout
  3
AutoCAD 2000
 90
0
280
0
281
0
  0
ENDSEC
  0
SECTION
  2
TABLES
  0
TABLE
  2
VPORT
  5
8
100
AcDbSymbolTable
 70
2
  0
VPORT
  5
1F4
100
AcDbSymbolTableRecord
100
AcDbViewportTableRecord
  2
*ACTIVE
 70
0
 10
0.0
 20
0.0
 11
1.0
 21
1.0
 12
148.5
 22
105.0
 13
0.0
 23
0.0
 14
1.0
 24
1.0
 15
0.0
 25
0.0
 16
0.0
 26
0.0
 36
1.0
 17
0.0
 27
0.0
 37
0.0
 40
210.0
 41
1.4142857143
 42
50.0
 43
0.0
 44
0.0
 50
0.0
 51
0.0
 71
0
 72
100
 73
1
 74
1
 75
0
 76
0
 77
0
 78
0
  0
ENDTAB
  0
TABLE
  2
LTYPE
  5
5
100
AcDbSymbolTable
 70
6
  0
LTYPE
  5
14
100
AcDbSymbolTableRecord
100
AcDbLinetypeTableRecord
  2
BYBLOCK
 70
0
  3

 72
65
 73
0
 40
0.0
  0
LTYPE
  5
15
100
AcDbSymbolTableRecord
100
AcDbLinetypeTableRecord
  2
BYLAYER
 70
0
  3

 72
65
 73
0
 40
0.0
  0
LTYPE
  5
16
100
AcDbSymbolTableRecord
100
AcDbLinetypeTableRecord
  2
CONTINUOUS
 70
64
  3
Solid line
 72
65
 73
0
 40
0.0
  0
LTYPE
  5
1F5
100
AcDbSymbolTableRecord
100
AcDbLinetypeTableRecord
  2
CENTER
 70
64
  3
____ _ ____ _ ____ _ ____ _ ____ _ ____ _ ____
 72
65
 73
4
 40
0.6
 49
0.375
 74
0
 49
-0.075
 74
0
 49
0.075
 74
0
 49
-0.075
 74
0
  0
LTYPE
  5
1F6
100
AcDbSymbolTableRecord
100
AcDbLinetypeTableRecord
  2
HIDDEN
 70
64
  3
- - - - - - - - - - - - - - - - - - - -
 72
65
 73
2
 40
0.2
 49
0.1
 74
0
 49
-0.1
 74
0
  0
LTYPE
  5
1F7
100
AcDbSymbolTableRecord
100
AcDbLinetypeTableRecord
  2
PHANTOM
 70
64
  3
_____ _ _ _____ _ _ _____ _ _ _____
 72
65
 73
6
 40
0.8
 49
0.45
 74
0
 49
-0.05
 74
0
 49
0.1
 74
0
 49
-0.05
 74
0
 49
0.1
 74
0
 49
-0.05
 74
0
  0
LTYPE
  5
1F8
100
AcDbSymbolTableRecord
100
AcDbLinetypeTableRecord
  2
DOT
 70
64
  3
. . . . . . . . . . . . . . . . . . . .
 72
65
 73
2
 40
0.2
 49
0.1
 74
0
 49
-0.1
 74
0
  0
LTYPE
  5
1F9
100
AcDbSymbolTableRecord
100
AcDbLinetypeTableRecord
  2
DASHED
 70
64
  3
- - - - - - - - - - - - - - - - - - - -
 72
65
 73
2
 40
0.2
 49
0.1
 74
0
 49
-0.1
 74
0
  0
ENDTAB
  0
TABLE
  2
LAYER
  5
2
100
AcDbSymbolTable
 70
36
  0
LAYER
  5
10
100
AcDbSymbolTableRecord
100
AcDbLayerTableRecord
  2
0
 70
0
 62
7
  6
CONTINUOUS
370
-3
390
F
  0
LAYER
  5
1FA
100
AcDbSymbolTableRecord
100
AcDbLayerTableRecord
  2
DEFAULT_1
 70
0
 62
7
  6
CENTER
370
-3
390
F
  0
LAYER
  5
1FB
100
AcDbSymbolTableRecord
100
AcDbLayerTableRecord
  2
DEFAULT_2
 70
0
 62
7
  6
HIDDEN
370
-3
390
F
  0
LAYER
  5
1FC
100
AcDbSymbolTableRecord
100
AcDbLayerTableRecord
  2
DEFAULT_3
 70
0
 62
7
  6
PHANTOM
370
-3
390
F
  0
LAYER
  5
1FD
100
AcDbSymbolTableRecord
100
AcDbLayerTableRecord
  2
ASSI
 70
0
 62
7
  6
CONTINUOUS
370
-3
390
F
  0
LAYER
  5
1FE
100
AcDbSymbolTableRecord
100
AcDbLayerTableRecord
  2
COLOR9
 70
0
 62
7
  6
CONTINUOUS
370
-3
390
F
  0
LAYER
  5
1FF
100
AcDbSymbolTableRecord
100
AcDbLayerTableRecord
  2
COORDINATE
 70
0
 62
7
  6
CONTINUOUS
370
-3
390
F
  0
LAYER
  5
200
100
AcDbSymbolTableRecord
100
AcDbLayerTableRecord
  2
COORD_ORIGINE
 70
0
 62
7
  6
CONTINUOUS
370
-3
390
F
  0
LAYER
  5
201
100
AcDbSymbolTableRecord
100
AcDbLayerTableRecord
  2
COSMETICI
 70
0
 62
7
  6
CONTINUOUS
370
-3
390
F
  0
LAYER
  5
202
100
AcDbSymbolTableRecord
100
AcDbLayerTableRecord
  2
CURVE
 70
0
 62
7
  6
CONTINUOUS
370
-3
390
F
  0
LAYER
  5
203
100
AcDbSymbolTableRecord
100
AcDbLayerTableRecord
  2
DRAFT
 70
0
 62
7
  6
CONTINUOUS
370
-3
390
F
  0
LAYER
  5
204
100
AcDbSymbolTableRecord
100
AcDbLayerTableRecord
  2
IMPORT_IGES
 70
0
 62
7
  6
CONTINUOUS
370
-3
390
F
  0
LAYER
  5
205
100
AcDbSymbolTableRecord
100
AcDbLayerTableRecord
  2
INTF_1
 70
0
 62
7
  6
CONTINUOUS
370
-3
390
F
  0
LAYER
  5
206
100
AcDbSymbolTableRecord
100
AcDbLayerTableRecord
  2
INTF_8
 70
0
 62
7
  6
CONTINUOUS
370
-3
390
F
  0
LAYER
  5
207
100
AcDbSymbolTableRecord
100
AcDbLayerTableRecord
  2
INTF_YELLOW
 70
0
 62
7
  6
CONTINUOUS
370
-3
390
F
  0
LAYER
  5
208
100
AcDbSymbolTableRecord
100
AcDbLayerTableRecord
  2
NOTE
 70
0
 62
7
  6
CONTINUOUS
370
-3
390
F
  0
LAYER
  5
209
100
AcDbSymbolTableRecord
100
AcDbLayerTableRecord
  2
PIANI
 70
0
 62
7
  6
CONTINUOUS
370
-3
390
F
  0
LAYER
  5
20A
100
AcDbSymbolTableRecord
100
AcDbLayerTableRecord
  2
PIANI_ORIGINE
 70
0
 62
7
  6
CONTINUOUS
370
-3
390
F
  0
LAYER
  5
20B
100
AcDbSymbolTableRecord
100
AcDbLayerTableRecord
  2
PIANI_RIFERIMENTO
 70
0
 62
7
  6
CONTINUOUS
370
-3
390
F
  0
LAYER
  5
20C
100
AcDbSymbolTableRecord
100
AcDbLayerTableRecord
  2
PUNTI
 70
0
 62
7
  6
CONTINUOUS
370
-3
390
F
  0
LAYER
  5
20D
100
AcDbSymbolTableRecord
100
AcDbLayerTableRecord
  2
RACCORDO
 70
0
 62
7
  6
CONTINUOUS
370
-3
390
F
  0
LAYER
  5
20E
100
AcDbSymbolTableRecord
100
AcDbLayerTableRecord
  2
RGB__255__255__255__
 70
0
 62
7
  6
CONTINUOUS
370
-3
390
F
  0
LAYER
  5
20F
100
AcDbSymbolTableRecord
100
AcDbLayerTableRecord
  2
RGB____0____0____0__
 70
0
 62
7
  6
CONTINUOUS
370
-3
390
F
  0
LAYER
  5
210
100
AcDbSymbolTableRecord
100
AcDbLayerTableRecord
  2
SIMBOLI
 70
0
 62
7
  6
CONTINUOUS
370
-3
390
F
  0
LAYER
  5
211
100
AcDbSymbolTableRecord
100
AcDbLayerTableRecord
  2
SMUSSO
 70
0
 62
7
  6
CONTINUOUS
370
-3
390
F
  0
LAYER
  5
212
100
AcDbSymbolTableRecord
100
AcDbLayerTableRecord
  2
SNAPLINE
 70
0
 62
7
  6
CONTINUOUS
370
-3
390
F
  0
LAYER
  5
213
100
AcDbSymbolTableRecord
100
AcDbLayerTableRecord
  2
SUPERFICI
 70
0
 62
7
  6
CONTINUOUS
370
-3
390
F
  0
LAYER
  5
214
100
AcDbSymbolTableRecord
100
AcDbLayerTableRecord
  2
TRASH
 70
0
 62
7
  6
CONTINUOUS
370
-3
390
F
  0
LAYER
  5
215
100
AcDbSymbolTableRecord
100
AcDbLayerTableRecord
  2
XSEC_DATUMS
 70
0
 62
7
  6
CONTINUOUS
370
-3
390
F
  0
ENDTAB
  0
TABLE
  2
STYLE
  5
3
100
AcDbSymbolTable
 70
1
  0
STYLE
  5
11
100
AcDbSymbolTableRecord
100
AcDbTextStyleTableRecord
  2
STANDARD
 70
0
 40
0.0
 41
0.8
 50
0.0
 71
0
 42
0.2
  3
txt
  4

  0
STYLE
  5
216
100
AcDbSymbolTableRecord
100
AcDbTextStyleTableRecord
  2
TEXTSTYLE_1
 70
0
 40
0.0
 41
0.8
 50
0.0
 71
0
 42
0.2
  3
gdt
  4

  0
ENDTAB
  0
TABLE
  2
VIEW
  5
6
100
AcDbSymbolTable
 70
0
  0
ENDTAB
  0
TABLE
  2
UCS
  5
7
100
AcDbSymbolTable
 70
0
  0
ENDTAB
  0
TABLE
  2
APPID
  5
9
100
AcDbSymbolTable
 70
1
  0
APPID
  5
217
100
AcDbSymbolTableRecord
100
AcDbRegAppTableRecord
  2
ACAD
 70
0
  0
ENDTAB
  0
TABLE
  2
BLOCK_RECORD
  5
1
100
AcDbSymbolTable
 70
0
  0
BLOCK_RECORD
  5
218
100
AcDbSymbolTableRecord
100
AcDbBlockTableRecord
  2
*Model_Space
  0
BLOCK_RECORD
  5
219
100
AcDbSymbolTableRecord
100
AcDbBlockTableRecord
  2
*Paper_Space
  0
BLOCK_RECORD
  5
21A
100
AcDbSymbolTableRecord
100
AcDbBlockTableRecord
  2
_FILLED
  0
BLOCK_RECORD
  5
21B
100
AcDbSymbolTableRecord
100
AcDbBlockTableRecord
  2
*D0
  0
BLOCK_RECORD
  5
21C
100
AcDbSymbolTableRecord
100
AcDbBlockTableRecord
  2
*D1
  0
BLOCK_RECORD
  5
21D
100
AcDbSymbolTableRecord
100
AcDbBlockTableRecord
  2
*D2
  0
ENDTAB
  0
TABLE
  2
DIMSTYLE
  5
A
100
AcDbSymbolTable
 70
1
100
AcDbDimStyleTable
 71
0
  0
DIMSTYLE
105
21E
100
AcDbSymbolTableRecord
100
AcDbDimStyleTableRecord
  2
STANDARD
 70
0
  3

  4

 40
1.0
 41
3.0
 42
0.0625
 43
0.38
 44
0.18
 45
0.0
 46
0.0
 47
0.01
 48
0.01
140
3.0
141
0.09
142
0.0
143
25.4
144
1.0
145
0.0
146
1.0
147
0.09
 71
1.0
 72
0.0
 73
0
 74
0
 75
0
 76
0
 77
1
 78
8
170
0
171
2
172
0
173
0
174
0
175
0
176
0
177
0
178
0
270
2
271
2
272
2
273
2
274
2
275
0
280
0
281
0
282
0
283
1
284
8
285
0
286
0
287
3
288
0
340
11
341
21A
342
21A
343
21A
344
21A
  0
DIMSTYLE
105
21F
100
AcDbSymbolTableRecord
100
AcDbDimStyleTableRecord
  2
DIMSTYLE_1
 70
0
  3

  4

 40
1.0
 41
3.0
 42
0.0625
 43
0.38
 44
0.18
 45
0.0
 46
0.0
 47
0.0
 48
0.0
140
3.0
141
0.09
142
0.0
143
25.4
144
1.0
145
0.0
146
1.0
147
0.09
 71
0.0
 72
0.0
 73
0
 74
0
 75
0
 76
0
 77
1
 78
8
170
0
171
2
172
0
173
0
174
0
175
0
176
0
177
0
178
0
270
2
271
1
272
1
273
2
274
2
275
0
280
0
281
0
282
0
283
1
284
8
285
0
286
0
287
3
288
0
340
11
341
21A
342
21A
343
21A
344
21A
  0
DIMSTYLE
105
220
100
AcDbSymbolTableRecord
100
AcDbDimStyleTableRecord
  2
DIMSTYLE_2
 70
0
  3

  4

 40
1.0
 41
3.0
 42
0.0625
 43
0.38
 44
0.18
 45
0.0
 46
0.0
 47
0.0
 48
0.0
140
3.0
141
0.09
142
0.0
143
25.4
144
1.0
145
0.0
146
1.0
147
0.09
 71
0.0
 72
0.0
 73
0
 74
0
 75
0
 76
0
 77
1
 78
8
170
0
171
2
172
0
173
0
174
0
175
0
176
0
177
0
178
0
270
2
271
2
272
2
273
2
274
2
275
0
280
0
281
0
282
0
283
1
284
8
285
0
286
0
287
3
288
0
340
11
341
21A
342
21A
343
21A
344
21A
  0
ENDTAB
  0
ENDSEC
  0
SECTION
  2
BLOCKS
  0
BLOCK
  5
20
100
AcDbEntity
  8
0
100
AcDbBlockBegin
  2
*Model_Space
 70
0
 10
0.0
 20
0.0
 30
0.0
  3
*Model_Space
  1

  0
ENDBLK
  5
21
100
AcDbEntity
  8
0
100
AcDbBlockEnd
  0
BLOCK
  5
1C
100
AcDbEntity
  8
0
100
AcDbBlockBegin
  2
*Paper_Space
 70
0
 10
0.0
 20
0.0
 30
0.0
  3
*Paper_Space
  1

  0
ENDBLK
  5
1D
100
AcDbEntity
  8
0
100
AcDbBlockEnd
  0
BLOCK
  5
221
100
AcDbEntity
  8
0
100
AcDbBlockBegin
  2
_FILLED
 70
64
 10
0.0
 20
0.0
  3
_FILLED
  1

  0
SOLID
  5
222
100
AcDbEntity
  8
0
  6
BYBLOCK
 62
0
100
AcDbTrace
 10
0.0
 20
0.0
 11
-1.0
 21
0.3166666667
 12
-1.0
 22
-0.3166666667
 13
-1.0
 23
-0.3166666667
  0
ENDBLK
  5
223
100
AcDbEntity
  8
0
  6
BYBLOCK
 62
0
100
AcDbBlockEnd
  0
BLOCK
  5
224
100
AcDbEntity
  8
0
100
AcDbBlockBegin
 62
7
  6
CONTINUOUS
  2
*D0
 70
65
 10
0.0
 20
0.0
  3
*D0
  1

  0
LINE
  5
225
100
AcDbEntity
  8
0
100
AcDbLine
 62
7
  6
CONTINUOUS
 10
-22.3014422353
 20
24.0643361161
 11
-22.3014422353
 21
31.6114422353
  0
LINE
  5
226
100
AcDbEntity
  8
0
100
AcDbLine
 62
7
  6
CONTINUOUS
 10
22.3014422353
 20
23.4640834845
 11
22.3014422353
 21
31.6114422353
  0
LINE
  5
227
100
AcDbEntity
  8
0
100
AcDbLine
 62
7
  6
CONTINUOUS
 10
-22.3014422353
 20
30.1114422353
 11
0.0
 21
30.1114422353
  0
LINE
  5
228
100
AcDbEntity
  8
0
100
AcDbLine
 62
7
  6
CONTINUOUS
 10
22.3014422353
 20
30.1114422353
 11
0.0
 21
30.1114422353
  0
INSERT
  5
229
100
AcDbEntity
  8
0
100
AcDbBlockReference
 62
7
  6
CONTINUOUS
  2
_FILLED
 10
-22.3014422353
 20
30.1114422353
 41
3.0
 42
3.0
 43
3.0
 50
180.0
  0
INSERT
  5
22A
100
AcDbEntity
  8
0
100
AcDbBlockReference
 62
7
  6
CONTINUOUS
  2
_FILLED
 10
22.3014422353
 20
30.1114422353
 41
3.0
 42
3.0
 43
3.0
  0
ENDBLK
  5
22B
100
AcDbEntity
  8
0
  6
BYBLOCK
 62
0
100
AcDbBlockEnd
  0
BLOCK
  5
22C
100
AcDbEntity
  8
0
100
AcDbBlockBegin
 62
7
  6
CONTINUOUS
  2
*D1
 70
65
 10
0.0
 20
0.0
  3
*D1
  1

  0
LINE
  5
22D
100
AcDbEntity
  8
0
100
AcDbLine
 62
7
  6
CONTINUOUS
 10
23.4432437041
 20
22.1114422353
 11
31.88
 21
22.1114422353
  0
LINE
  5
22E
100
AcDbEntity
  8
0
100
AcDbLine
 62
7
  6
CONTINUOUS
 10
20.9701083423
 20
-22.1114422353
 11
31.88
 21
-22.1114422353
  0
LINE
  5
22F
100
AcDbEntity
  8
0
100
AcDbLine
 62
7
  6
CONTINUOUS
 10
30.38
 20
22.1114422353
 11
30.38
 21
0.0
  0
LINE
  5
230
100
AcDbEntity
  8
0
100
AcDbLine
 62
7
  6
CONTINUOUS
 10
30.38
 20
-22.1114422353
 11
30.38
 21
0.0
  0
INSERT
  5
231
100
AcDbEntity
  8
0
100
AcDbBlockReference
 62
7
  6
CONTINUOUS
  2
_FILLED
 10
30.38
 20
22.1114422353
 41
3.0
 42
3.0
 43
3.0
 50
90.0
  0
INSERT
  5
232
100
AcDbEntity
  8
0
100
AcDbBlockReference
 62
7
  6
CONTINUOUS
  2
_FILLED
 10
30.38
 20
-22.1114422353
 41
3.0
 42
3.0
 43
3.0
 50
270.0
  0
ENDBLK
  5
233
100
AcDbEntity
  8
0
  6
BYBLOCK
 62
0
100
AcDbBlockEnd
  0
BLOCK
  5
234
100
AcDbEntity
  8
0
100
AcDbBlockBegin
 62
7
  6
CONTINUOUS
  2
*D2
 70
65
 10
0.0
 20
0.0
  3
*D2
  1

  0
LINE
  5
235
100
AcDbEntity
  8
0
100
AcDbLine
 62
7
  6
CONTINUOUS
 10
-34.3602191453
 20
10.2310194482
 11
-34.3602191453
 21
31.6114422353
  0
LINE
  5
236
100
AcDbEntity
  8
0
100
AcDbLine
 62
7
  6
CONTINUOUS
 10
-38.3602191453
 20
0.5
 11
-38.3602191453
 21
31.6114422353
  0
LINE
  5
237
100
AcDbEntity
  8
0
100
AcDbLine
 62
7
  6
CONTINUOUS
 10
-34.3602191453
 20
30.1114422353
 11
-30.3602191453
 21
30.1114422353
  0
LINE
  5
238
100
AcDbEntity
  8
0
100
AcDbLine
 62
7
  6
CONTINUOUS
 10
-30.3602191453
 20
30.1114422353
 11
-36.3602191453
 21
30.1114422353
  0
LINE
  5
239
100
AcDbEntity
  8
0
100
AcDbLine
 62
7
  6
CONTINUOUS
 10
-38.3602191453
 20
30.1114422353
 11
-44.3134306083
 21
30.1114422353
  0
LINE
  5
23A
100
AcDbEntity
  8
0
100
AcDbLine
 62
7
  6
CONTINUOUS
 10
-44.3134306083
 20
30.1114422353
 11
-36.3602191453
 21
30.1114422353
  0
INSERT
  5
23B
100
AcDbEntity
  8
0
100
AcDbBlockReference
 62
7
  6
CONTINUOUS
  2
_FILLED
 10
-34.3602191453
 20
30.1114422353
 41
3.0
 42
3.0
 43
3.0
 50
180.0
  0
INSERT
  5
23C
100
AcDbEntity
  8
0
100
AcDbBlockReference
 62
7
  6
CONTINUOUS
  2
_FILLED
 10
-38.3602191453
 20
30.1114422353
 41
3.0
 42
3.0
 43
3.0
  0
ENDBLK
  5
23D
100
AcDbEntity
  8
0
  6
BYBLOCK
 62
0
100
AcDbBlockEnd
  0
ENDSEC
  0
SECTION
  2
ENTITIES
  0
DIMENSION
  5
23E
100
AcDbEntity
  8
0
100
AcDbDimension
 62
7
  6
CONTINUOUS
  2
*D0
 10
22.3014422353
 20
30.1114422353
 11
-4.3928571429
 21
30.8614422353
 70
160
 71
2
 42
44.6028844706
  3
DIMSTYLE_1
100
AcDbAlignedDimension
 13
-22.3014422353
 23
24.0643361161
 14
22.3014422353
 24
23.4640834845
100
AcDbRotatedDimension
  0
DIMENSION
  5
23F
100
AcDbEntity
  8
0
100
AcDbDimension
 62
7
  6
CONTINUOUS
  2
*D1
 10
30.38
 20
-22.1114422353
 11
29.63
 21
-4.3928571429
 70
160
 71
2
 42
44.2228844706
  3
DIMSTYLE_1
100
AcDbAlignedDimension
 13
23.4432437041
 23
22.1114422353
 14
20.9701083423
 24
-22.1114422353
 50
270.0
100
AcDbRotatedDimension
  0
DIMENSION
  5
240
100
AcDbEntity
  8
0
100
AcDbDimension
 62
7
  6
CONTINUOUS
  2
*D2
 10
-38.3602191453
 20
30.1114422353
 11
-44.3134306083
 21
30.8614422353
 70
160
 71
3
 42
4.0
  3
DIMSTYLE_2
100
AcDbAlignedDimension
 13
-34.3602191453
 23
10.2310194482
 14
-38.3602191453
 24
0.5
 50
180.0
100
AcDbRotatedDimension
  0
LWPOLYLINE
  5
241
100
AcDbEntity
  8
RACCORDO
100
AcDbPolyline
 62
253
  6
CONTINUOUS
 90
16
 70
0
 10
-22.2638766931
 20
21.1615238967
 10
-22.2598965
 20
21.1692064438
 10
-22.2506612473
 20
21.1768075537
 10
-22.2362688116
 20
21.1842466688
 10
-22.2168717254
 20
21.1914449486
 10
-22.1926755615
 20
21.1983261048
 10
-22.1639367539
 20
21.2048172101
 10
-22.1309598798
 20
21.2108494709
 10
-22.0940944322
 20
21.2163589566
 10
-22.0537311155
 20
21.221287277
 10
-22.0102977052
 20
21.2255822012
 10
-21.9642545137
 20
21.2291982111
 10
-21.9160895124
 20
21.232096984
 10
-21.8663131598
 20
21.2342477985
 10
-21.8154529919
 20
21.2356278599
 10
-21.7640480307
 20
21.2362225423
  0
LWPOLYLINE
  5
242
100
AcDbEntity
  8
RACCORDO
100
AcDbPolyline
 62
253
  6
CONTINUOUS
 90
16
 70
0
 10
-22.2638766932
 20
-21.1615238967
 10
-22.2598974611
 20
-21.1692066574
 10
-22.2506630216
 20
-21.176807993
 10
-22.2362712449
 20
-21.1842473417
 10
-22.2168746607
 20
-21.1914458583
 10
-22.1926788416
 20
-21.1983272502
 10
-22.1639402246
 20
-21.2048185855
 10
-22.1309633926
 20
-21.2108510667
 10
-22.0940978473
 20
-21.216360759
 10
-22.053734304
 20
-21.2212892686
 10
-22.0103005516
 20
-21.2255843612
 10
-21.9642569181
 20
-21.2292005157
 10
-21.9160913919
 20
-21.232099407
 10
-21.8663144504
 20
-21.2342503114
 10
-21.8154536491
 20
-21.2356304329
 10
-21.7640480307
 20
-21.2362251442
  0
LWPOLYLINE
  5
243
100
AcDbEntity
  8
RACCORDO
100
AcDbPolyline
 62
253
  6
CONTINUOUS
 90
16
 70
0
 10
-22.2764799709
 20
-21.5866513084
 10
-22.2737085608
 20
-21.638873962
 10
-22.2654962044
 20
-21.6905251247
 10
-22.2519327487
 20
-21.7410393988
 10
-22.2331666165
 20
-21.7898638266
 10
-22.2094031858
 20
-21.8364639333
 10
-22.1809025464
 20
-21.8803295793
 10
-22.147976642
 20
-21.9209805652
 10
-22.1109858676
 20
-21.9579718672
 10
-22.0703351383
 20
-21.9908985062
 10
-22.0264694206
 20
-22.0194000157
 10
-21.979868886
 20
-22.0431643617
 10
-21.9310436815
 20
-22.0619313551
 10
-21.8805282932
 20
-22.0754955292
 10
-21.8288756908
 20
-22.0837083782
 10
-21.7766513085
 20
-22.086479971
  0
LWPOLYLINE
  5
244
100
AcDbEntity
  8
RACCORDO
100
AcDbPolyline
 62
253
  6
CONTINUOUS
 90
16
 70
0
 10
-22.2764799709
 20
21.5866513084
 10
-22.2737084581
 20
21.6388749344
 10
-22.265495829
 20
21.690526886
 10
-22.2519319847
 20
21.7410417469
 10
-22.2331654039
 20
21.789866548
 10
-22.2094015179
 20
21.8364668207
 10
-22.180900462
 20
21.8803324476
 10
-22.1479742277
 20
21.9209832467
 10
-22.1109832471
 20
21.9579742273
 10
-22.0703324481
 20
21.9909004617
 10
-22.0264668212
 20
22.0194015177
 10
-21.9798665484
 20
22.0431654037
 10
-21.9310417473
 20
22.0619319846
 10
-21.8805268863
 20
22.075495829
 10
-21.8288749345
 20
22.0837084581
 10
-21.7766513084
 20
22.0864799709
  0
LWPOLYLINE
  5
245
100
AcDbEntity
  8
RACCORDO
100
AcDbPolyline
 62
253
  6
CONTINUOUS
 90
10
 70
0
 10
-22.2681568186
 20
21.4616298466
 10
-22.2689431232
 20
21.4861047249
 10
-22.2697813036
 20
21.5083229653
 10
-22.2706563049
 20
21.5278932804
 10
-22.271569386
 20
21.5447694949
 10
-22.2725192882
 20
21.5589977841
 10
-22.2734871808
 20
21.5703253862
 10
-22.274466787
 20
21.5786680473
 10
-22.2754643837
 20
21.5841100214
 10
-22.2764799709
 20
21.5866513084
  0
LWPOLYLINE
  5
246
100
AcDbEntity
  8
RACCORDO
100
AcDbPolyline
 62
253
  6
CONTINUOUS
 90
7
 70
0
 10
-21.7708205485
 20
21.968635596
 10
-21.7717310492
 20
22.0024936657
 10
-21.772678348
 20
22.0308586736
 10
-21.773645698
 20
22.0535589575
 10
-21.7746275169
 20
22.0704577735
 10
-21.7756293871
 20
22.0814535722
 10
-21.7766513084
 20
22.0864799709
  0
LINE
  5
247
100
AcDbEntity
  8
RACCORDO
100
AcDbLine
 62
253
  6
CONTINUOUS
 10
-22.2667415586
 20
21.4058170317
 11
-22.2681568186
 21
21.4616298466
  0
LINE
  5
248
100
AcDbEntity
  8
RACCORDO
100
AcDbLine
 62
253
  6
CONTINUOUS
 10
-21.7691111237
 20
21.8852903227
 11
-21.7708205485
 21
21.968635596
  0
LINE
  5
249
100
AcDbEntity
  8
RACCORDO
100
AcDbLine
 62
253
  6
CONTINUOUS
 10
-22.2655723942
 20
21.3425178419
 11
-22.2667415586
 21
21.4058170317
  0
LINE
  5
24A
100
AcDbEntity
  8
RACCORDO
100
AcDbLine
 62
253
  6
CONTINUOUS
 10
-22.264670723
 20
21.2729528004
 11
-22.2655723942
 21
21.3425178419
  0
LINE
  5
24B
100
AcDbEntity
  8
RACCORDO
100
AcDbLine
 62
253
  6
CONTINUOUS
 10
-21.7669146285
 20
21.7251570648
 11
-21.7691111237
 21
21.8852903227
  0
LINE
  5
24C
100
AcDbEntity
  8
RACCORDO
100
AcDbLine
 62
253
  6
CONTINUOUS
 10
-21.7648466607
 20
21.4599831598
 11
-21.7669146285
 21
21.7251570648
  0
LINE
  5
24D
100
AcDbEntity
  8
RACCORDO
100
AcDbLine
 62
253
  6
CONTINUOUS
 10
-22.2638766932
 20
21.1615238967
 11
-22.264670723
 21
21.2729528004
  0
LINE
  5
24E
100
AcDbEntity
  8
RACCORDO
100
AcDbLine
 62
253
  6
CONTINUOUS
 10
-22.2474325226
 20
15.9909603469
 11
-22.2638766932
 21
21.1615238967
  0
LINE
  5
24F
100
AcDbEntity
  8
RACCORDO
100
AcDbLine
 62
253
  6
CONTINUOUS
 10
-21.7476037727
 20
16.0366547986
 11
-21.7640480307
 21
21.2362251476
  0
LINE
  5
250
100
AcDbEntity
  8
RACCORDO
100
AcDbLine
 62
253
  6
CONTINUOUS
 10
-21.7640480307
 20
21.2362251476
 11
-21.7648466607
 21
21.4599831598
  0
LINE
  5
251
100
AcDbEntity
  8
RACCORDO
100
AcDbLine
 62
253
  6
CONTINUOUS
 10
-22.23889248
 20
10.7928354503
 11
-22.2474325226
 21
15.9909603469
  0
LINE
  5
252
100
AcDbEntity
  8
RACCORDO
100
AcDbLine
 62
253
  6
CONTINUOUS
 10
-21.7390638443
 20
10.8091626086
 11
-21.7476037727
 21
16.0366547986
  0
LINE
  5
253
100
AcDbEntity
  8
0
100
AcDbLine
 62
7
  6
CONTINUOUS
 10
-22.3014422353
 20
21.6116135728
 11
-22.3014422353
 21
-21.6116135728
  0
LINE
  5
254
100
AcDbEntity
  8
RACCORDO
100
AcDbLine
 62
253
  6
CONTINUOUS
 10
-22.2402843163
 20
-12.0939699785
 11
-22.23889248
 21
10.7928354503
  0
LINE
  5
255
100
AcDbEntity
  8
RACCORDO
100
AcDbLine
 62
253
  6
CONTINUOUS
 10
-21.7404557226
 20
-12.1176863817
 11
-21.7390638443
 21
10.8091626086
  0
LINE
  5
256
100
AcDbEntity
  8
RACCORDO
100
AcDbLine
 62
253
  6
CONTINUOUS
 10
-22.2508039357
 20
-17.2868145217
 11
-22.2402843163
 21
-12.0939699785
  0
LINE
  5
257
100
AcDbEntity
  8
RACCORDO
100
AcDbLine
 62
253
  6
CONTINUOUS
 10
-21.750975233
 20
-17.339854897
 11
-21.7404557226
 21
-12.1176863817
  0
LINE
  5
258
100
AcDbEntity
  8
RACCORDO
100
AcDbLine
 62
253
  6
CONTINUOUS
 10
-21.7652609176
 20
-21.5306766563
 11
-21.750975233
 21
-17.339854897
  0
LINE
  5
259
100
AcDbEntity
  8
RACCORDO
100
AcDbLine
 62
253
  6
CONTINUOUS
 10
-22.2643326477
 20
-21.2368235579
 11
-22.2508039357
 21
-17.2868145217
  0
LINE
  5
25A
100
AcDbEntity
  8
RACCORDO
100
AcDbLine
 62
253
  6
CONTINUOUS
 10
-21.7669142997
 20
-21.7251528619
 11
-21.7652609176
 21
-21.5306766563
  0
LINE
  5
25B
100
AcDbEntity
  8
RACCORDO
100
AcDbLine
 62
253
  6
CONTINUOUS
 10
-22.2650841564
 20
-21.3081932214
 11
-22.2643326477
 21
-21.2368235579
  0
LINE
  5
25C
100
AcDbEntity
  8
RACCORDO
100
AcDbLine
 62
253
  6
CONTINUOUS
 10
-21.7691102789
 20
-21.8852865879
 11
-21.7669142997
 21
-21.7251528619
  0
LINE
  5
25D
100
AcDbEntity
  8
RACCORDO
100
AcDbLine
 62
253
  6
CONTINUOUS
 10
-22.2661223366
 20
-21.3749505517
 11
-22.2650841564
 21
-21.3081932214
  0
LWPOLYLINE
  5
25E
100
AcDbEntity
  8
0
100
AcDbPolyline
 62
7
  6
CONTINUOUS
 90
10
 70
0
 43
0.3500000006
 10
3.1071428747
 20
33.8614438934
 10
2.464285738
 20
33.218585907
 10
2.0357142191
 20
32.3614434357
 10
2.0357142191
 20
31.2900119476
 10
2.464285738
 20
30.8614429779
 10
3.1071428747
 20
30.8614429779
 10
3.5357143936
 20
31.2900119476
 10
3.5357143936
 20
32.1471544189
 10
3.1071428747
 20
32.5757279205
 10
2.1785714865
 20
32.5757279205
  0
LINE
  5
25F
100
AcDbEntity
  8
0
100
AcDbLine
 62
7
  6
CONTINUOUS
 10
21.8016135728
 20
-22.1114422353
 11
-21.8016135728
 21
-22.1114422353
  0
LINE
  5
260
100
AcDbEntity
  8
RACCORDO
100
AcDbLine
 62
253
  6
CONTINUOUS
 10
21.7766513084
 20
-22.0864799709
 11
-21.7766513084
 21
-22.0864799709
  0
LINE
  5
261
100
AcDbEntity
  8
RACCORDO
100
AcDbLine
 62
253
  6
CONTINUOUS
 10
21.7640480307
 20
-21.2362251476
 11
-21.7640480307
 21
-21.2362251476
  0
LWPOLYLINE
  5
262
100
AcDbEntity
  8
RACCORDO
100
AcDbPolyline
 62
253
  6
CONTINUOUS
 90
8
 70
0
 10
-21.7766513084
 20
-22.0864799709
 10
-21.7756293033
 20
-22.0814536019
 10
-21.7746273547
 20
-22.070457797
 10
-21.7736454625
 20
-22.0535588376
 10
-21.7726780577
 20
-22.0308580893
 10
-21.7717307095
 20
-22.0024922519
 10
-21.7708201249
 20
-21.9686332738
 10
-21.7691102789
 20
-21.8852865879
  0
LWPOLYLINE
  5
263
100
AcDbEntity
  8
RACCORDO
100
AcDbPolyline
 62
253
  6
CONTINUOUS
 90
7
 70
0
 10
22.2379958269
 20
-9.4905
 10
22.2340029648
 20
-9.4914768667
 10
22.2247570053
 20
-9.492443384
 10
22.210355904
 20
-9.4933893122
 10
22.1909522323
 20
-9.4943046298
 10
22.1667515612
 20
-9.4951796396
 10
22.1380102829
 20
-9.4960050712
  0
LWPOLYLINE
  5
264
100
AcDbEntity
  8
RACCORDO
100
AcDbPolyline
 62
253
  6
CONTINUOUS
 90
9
 70
0
 10
-22.2379958269
 20
-9.4905
 10
-22.2340029683
 20
-9.4914768667
 10
-22.2247570117
 20
-9.4924433841
 10
-22.2103559128
 20
-9.4933893124
 10
-22.1909522429
 20
-9.4943046301
 10
-22.1667515731
 20
-9.4951796399
 10
-22.1380102954
 20
-9.4960050715
 10
-22.1050329075
 20
-9.4967721801
 10
-22.0278084852
 20
-9.4980996237
  0
LWPOLYLINE
  5
265
100
AcDbEntity
  8
RACCORDO
100
AcDbPolyline
 62
253
  6
CONTINUOUS
 90
12
 70
0
 10
-22.2764799709
 20
-21.5866513084
 10
-22.2754641326
 20
-21.5841111763
 10
-22.2744661856
 20
-21.5786660206
 10
-22.2734861298
 20
-21.5703158414
 10
-22.2725176243
 20
-21.5589761121
 10
-22.2715670101
 20
-21.5447313594
 10
-22.27065331
 20
-21.5278351628
 10
-22.2697777543
 20
-21.5082362811
 10
-22.2689391127
 20
-21.4859859557
 10
-22.2681527169
 20
-21.4614914897
 10
-22.267419671
 20
-21.4347145028
 10
-22.2661223366
 20
-21.3749505517
  0
LWPOLYLINE
  5
266
100
AcDbEntity
  8
0
100
AcDbPolyline
 62
7
  6
CONTINUOUS
 90
3
 70
0
 43
0.3500000006
 10
1.035714268
 20
31.1471586456
 10
0.9642857051
 20
30.9328696289
 10
0.8214285793
 20
30.647158493
  0
LINE
  5
267
100
AcDbEntity
  8
RACCORDO
100
AcDbLine
 62
253
  6
CONTINUOUS
 10
22.1380102829
 20
-9.4960050712
 11
22.0681687736
 21
-9.4974728381
  0
LINE
  5
268
100
AcDbEntity
  8
RACCORDO
100
AcDbLine
 62
253
  6
CONTINUOUS
 10
22.0681687736
 20
-9.4974728381
 11
21.9843795892
 21
-9.4986458946
  0
LINE
  5
269
100
AcDbEntity
  8
RACCORDO
100
AcDbLine
 62
253
  6
CONTINUOUS
 10
21.9843795892
 20
-9.4986458946
 11
21.8901841195
 21
-9.499474661
  0
LINE
  5
26A
100
AcDbEntity
  8
RACCORDO
100
AcDbLine
 62
253
  6
CONTINUOUS
 10
21.8901841195
 20
-9.499474661
 11
21.7381671644
 21
-9.4999999993
  0
LINE
  5
26B
100
AcDbEntity
  8
RACCORDO
100
AcDbLine
 62
253
  6
CONTINUOUS
 10
-21.8404154861
 20
-9.4997483763
 11
21.7381671644
 21
-9.5
  0
LINE
  5
26C
100
AcDbEntity
  8
RACCORDO
100
AcDbLine
 62
253
  6
CONTINUOUS
 10
-21.9383422333
 20
-9.4991058655
 11
-21.8404154861
 21
-9.4997483763
  0
LINE
  5
26D
100
AcDbEntity
  8
RACCORDO
100
AcDbLine
 62
253
  6
CONTINUOUS
 10
-22.0278084852
 20
-9.4980996237
 11
-21.9383422333
 21
-9.4991058655
  0
LWPOLYLINE
  5
26E
100
AcDbEntity
  8
0
100
AcDbPolyline
 62
7
  6
CONTINUOUS
 90
2
 70
0
 43
0.3500000006
 10
-3.3928571262
 20
30.8614429779
 10
-3.3928571262
 20
32.3614434357
  0
LWPOLYLINE
  5
26F
100
AcDbEntity
  8
SUPERFICI
100
AcDbPolyline
 62
7
  6
CONTINUOUS
 90
38
 70
0
 10
-1.7937834512
 20
1.9737032844
 10
-1.8062252884
 20
1.9546967927
 10
-1.8171157229
 20
1.9349902637
 10
-1.8264547545
 20
1.9145836971
 10
-1.8342941651
 20
1.8934179316
 10
-1.840582173
 20
1.8715521279
 10
-1.8451634324
 20
1.8491637679
 10
-1.8480700407
 20
1.8262359444
 10
-1.8492699006
 20
1.8027855641
 10
-1.8485113744
 20
1.7790408299
 10
-1.8457652991
 20
1.7548654299
 10
-1.8410608378
 20
1.7303956757
 10
-1.8342338423
 20
1.7062687055
 10
-1.8251308931
 20
1.6824016623
 10
-1.8139054097
 20
1.6588774036
 10
-1.8008535024
 20
1.6365816405
 10
-1.785915892
 20
1.6156566973
 10
-1.7691518577
 20
1.5959602509
 10
-1.7510353476
 20
1.5779510418
 10
-1.7316662237
 20
1.5617326847
 10
-1.710944624
 20
1.5472015661
 10
-1.6890449109
 20
1.5345055846
 10
-1.6657587759
 20
1.5235860622
 10
-1.6412945275
 20
1.5145016777
 10
-1.6164514538
 20
1.5075763643
 10
-1.5912025335
 20
1.5029598544
 10
-1.5655747879
 20
1.5005024162
 10
-1.5404485683
 20
1.5000787861
 10
-1.5159996201
 20
1.5017648323
 10
-1.4920521979
 20
1.5054846866
 10
-1.4689594176
 20
1.5108854807
 10
-1.4468099737
 20
1.5179259253
 10
-1.4255151716
 20
1.5266473094
 10
-1.4051620429
 20
1.5368206318
 10
-1.3857184173
 20
1.5484301134
 10
-1.3672164652
 20
1.5614915328
 10
-1.3498397297
 20
1.5758232256
 10
-1.3336493919
 20
1.5913646371
  0
LWPOLYLINE
  5
270
100
AcDbEntity
  8
0
100
AcDbPolyline
 62
7
  6
CONTINUOUS
 90
10
 70
0
 10
-1.7937843438
 20
1.973702204
 10
-1.738255663
 20
2.048522379
 10
-1.6797201934
 20
2.1207769666
 10
-1.618177935
 20
2.19046597
 10
-1.5534726592
 20
2.2577502417
 10
-1.4857605945
 20
2.3224689357
 10
-1.4155104266
 20
2.384139508
 10
-1.3428783839
 20
2.442601114
 10
-1.2677082379
 20
2.4980146072
 10
-1.1899999885
 20
2.550379992
  0
LINE
  5
271
100
AcDbEntity
  8
SUPERFICI
100
AcDbLine
 62
7
  6
CONTINUOUS
 10
-1.3046443663
 20
1.6262582779
 11
-1.2426530632
 21
1.7079173951
  0
LWPOLYLINE
  5
272
100
AcDbEntity
  8
0
100
AcDbPolyline
 62
7
  6
CONTINUOUS
 90
40
 70
0
 10
-1.3046825655
 20
1.6262164534
 10
-1.3186021047
 20
1.6081571532
 10
-1.3336506206
 20
1.5913628577
 10
-1.3498281132
 20
1.5758335675
 10
-1.3671969308
 20
1.5615072832
 10
-1.3856947252
 20
1.5484460047
 10
-1.4051344512
 20
1.5368357318
 10
-1.4254826589
 20
1.5266620559
 10
-1.4467727982
 20
1.517939386
 10
-1.4689181747
 20
1.5108969483
 10
-1.4920074277
 20
1.5054933857
 10
-1.5159519178
 20
1.5017700556
 10
-1.5403990322
 20
1.5000802558
 10
-1.5655247885
 20
1.5004998009
 10
-1.591153169
 20
1.5029528762
 10
-1.6164035077
 20
1.507565336
 10
-1.6412489506
 20
1.5144871293
 10
-1.6657163517
 20
1.5235683067
 10
-1.6890056062
 20
1.534484874
 10
-1.7109081347
 20
1.5471782089
 10
-1.7316325167
 20
1.561706933
 10
-1.7510043861
 20
1.5779229184
 10
-1.769123518
 20
1.5959295949
 10
-1.7858901374
 20
1.6156235315
 10
-1.8008305534
 20
1.6365463093
 10
-1.8138856306
 20
1.6588402105
 10
-1.8251145045
 20
1.6823629518
 10
-1.8342208899
 20
1.7062292655
 10
-1.841051446
 20
1.730356488
 10
-1.8457595136
 20
1.7548272825
 10
-1.8485088309
 20
1.7790043729
 10
-1.849270189
 20
1.8027514574
 10
-1.8480727966
 20
1.826204838
 10
-1.8451680181
 20
1.8491361451
 10
-1.840587887
 20
1.871528571
 10
-1.8343003697
 20
1.8933989237
 10
-1.8264607304
 20
1.9145692577
 10
-1.8171207236
 20
1.9349802579
 10
-1.8062285947
 20
1.9546912399
 10
-1.7937843438
 20
1.973702204
  0
LWPOLYLINE
  5
273
100
AcDbEntity
  8
SUPERFICI
100
AcDbPolyline
 62
7
  6
CONTINUOUS
 90
3
 70
0
 10
-1.6797200741
 20
2.1207771194
 10
-1.7382552143
 20
2.0485229265
 10
-1.7937834512
 20
1.9737032844
  0
LWPOLYLINE
  5
274
100
AcDbEntity
  8
SUPERFICI
100
AcDbPolyline
 62
7
  6
CONTINUOUS
 90
3
 70
0
 10
-1.2426530632
 20
1.7079173951
 10
-1.1759686867
 20
1.7850126086
 10
-1.1045912369
 20
1.8575439237
  0
LINE
  5
275
100
AcDbEntity
  8
SUPERFICI
100
AcDbLine
 62
7
  6
CONTINUOUS
 10
-1.6181780307
 20
2.1904658661
 11
-1.6797200741
 21
2.1207771194
  0
LWPOLYLINE
  5
276
100
AcDbEntity
  8
SUPERFICI
100
AcDbPolyline
 62
7
  6
CONTINUOUS
 90
3
 70
0
 10
-1.3336493919
 20
1.5913646371
 10
-1.3185842708
 20
1.6081763213
 10
-1.3046443663
 20
1.6262582779
  0
LWPOLYLINE
  5
277
100
AcDbEntity
  8
SUPERFICI
100
AcDbPolyline
 62
7
  6
CONTINUOUS
 90
4
 70
0
 10
-1.1045861032
 20
1.8575485075
 10
-1.028067825
 20
1.9258687649
 10
-0.9468513398
 20
1.989629719
 10
-0.8622975615
 20
2.0477562579
  0
LWPOLYLINE
  5
278
100
AcDbEntity
  8
SUPERFICI
100
AcDbPolyline
 62
7
  6
CONTINUOUS
 90
4
 70
0
 10
-1.4155104535
 20
2.3841394844
 10
-1.4857607017
 20
2.3224688255
 10
-1.5534728178
 20
2.2577500657
 10
-1.6181779816
 20
2.1904659171
  0
LINE
  5
279
100
AcDbEntity
  8
SUPERFICI
100
AcDbLine
 62
7
  6
CONTINUOUS
 10
-1.3428784033
 20
2.4426010984
 11
-1.4155104535
 21
2.3841394844
  0
LWPOLYLINE
  5
27A
100
AcDbEntity
  8
SUPERFICI
100
AcDbPolyline
 62
7
  6
CONTINUOUS
 90
3
 70
0
 10
-1.1899999885
 20
2.550379992
 10
-1.2677082574
 20
2.4980145934
 10
-1.3428784033
 20
2.4426010984
  0
LINE
  5
27B
100
AcDbEntity
  8
SUPERFICI
100
AcDbLine
 62
7
  6
CONTINUOUS
 10
-0.8622975615
 20
2.0477562579
 11
-0.7748661142
 21
2.0998867933
  0
LINE
  5
27C
100
AcDbEntity
  8
SUPERFICI
100
AcDbLine
 62
7
  6
CONTINUOUS
 10
-0.7748661142
 20
2.0998867933
 11
-0.6841002832
 21
2.1463813643
  0
LWPOLYLINE
  5
27D
100
AcDbEntity
  8
0
100
AcDbPolyline
 62
7
  6
CONTINUOUS
 90
10
 70
0
 10
-0.5899999947
 20
2.1872399918
 10
-0.6840991445
 20
2.1463819476
 10
-0.7748640588
 20
2.0998880188
 10
-0.8622947377
 20
2.047758199
 10
-0.9468421925
 20
1.98963725
 10
-1.0280554117
 20
1.925880396
 10
-1.1045813621
 20
1.8575533253
 10
-1.1759690322
 20
1.7850112643
 10
-1.2426694334
 20
1.7078989755
 10
-1.3046825655
 20
1.6262164534
  0
LINE
  5
27E
100
AcDbEntity
  8
SUPERFICI
100
AcDbLine
 62
7
  6
CONTINUOUS
 10
-0.6841002832
 20
2.1463813643
 11
-0.5899999947
 21
2.1872399918
  0
LWPOLYLINE
  5
27F
100
AcDbEntity
  8
0
100
AcDbPolyline
 62
7
  6
CONTINUOUS
 90
2
 70
0
 43
0.3500000006
 10
29.630000885
 20
-3.3928568802
 10
28.1300004272
 20
-3.3928568802
  0
LWPOLYLINE
  5
280
100
AcDbEntity
  8
SUPERFICI
100
AcDbPolyline
 62
7
  6
CONTINUOUS
 90
10
 70
0
 10
-2.0783999897
 20
0.3999999918
 10
-2.0586350011
 20
0.2854355984
 10
-2.0326759336
 20
0.1725949275
 10
-2.0005227872
 20
0.0614779854
 10
-1.9620173493
 20
-0.0483398546
 10
-1.9173178324
 20
-0.1564339548
 10
-1.8668988744
 20
-0.261530413
 10
-1.8109186878
 20
-0.3632045929
 10
-1.74921906
 20
-0.461881124
 10
-1.681799991
 20
-0.5575600038
  0
LWPOLYLINE
  5
281
100
AcDbEntity
  8
SUPERFICI
100
AcDbPolyline
 62
7
  6
CONTINUOUS
 90
3
 70
0
 10
-1.4853722811
 20
0.4908541522
 10
-1.4962905785
 20
0.5947717033
 10
-1.5000003069
 20
0.7000030624
  0
LWPOLYLINE
  5
282
100
AcDbEntity
  8
SUPERFICI
100
AcDbPolyline
 62
7
  6
CONTINUOUS
 90
27
 70
0
 10
-0.2999999905
 20
-2.8000020215
 10
-0.2970132171
 20
-2.8381670986
 10
-0.2902863519
 20
-2.8742205793
 10
-0.2798193951
 20
-2.908162466
 10
-0.2653245356
 20
-2.9401977004
 10
-0.2470895846
 20
-2.9701213453
 10
-0.2259779745
 20
-2.9973185851
 10
-0.201954784
 20
-3.0218105173
 10
-0.1750549344
 20
-3.0435760493
 10
-0.1462466237
 20
-3.0619370814
 10
-0.1154606805
 20
-3.0768224806
 10
-0.082766276
 20
-3.088303384
 10
-0.0493391217
 20
-3.0959150973
 10
-0.0150729424
 20
-3.0995053209
 10
0.0199259867
 20
-3.0992263559
 10
0.0541631289
 20
-3.0950704081
 10
0.0875767151
 20
-3.0868380144
 10
0.1202285143
 20
-3.0747286361
 10
0.1508092967
 20
-3.0593328646
 10
0.1791487536
 20
-3.0406277639
 10
0.2054171938
 20
-3.018636266
 10
0.2288163136
 20
-2.9940177643
 10
0.249352556
 20
-2.9667127393
 10
0.267019478
 20
-2.9367807057
 10
0.280999447
 20
-2.9050596095
 10
0.2910199187
 20
-2.8718287652
 10
0.2973534375
 20
-2.8368088547
  0
LINE
  5
283
100
AcDbEntity
  8
SUPERFICI
100
AcDbLine
 62
7
  6
CONTINUOUS
 10
-1.5000003069
 20
0.7000030624
 11
-1.5022164695
 21
0.7334014197
  0
LWPOLYLINE
  5
284
100
AcDbEntity
  8
0
100
AcDbPolyline
 62
7
  6
CONTINUOUS
 90
46
 70
0
 10
-1.5000006902
 20
0.7000066754
 10
-1.4962907916
 20
0.5947737227
 10
-1.4853722839
 20
0.4908541685
 10
-1.4672451672
 20
0.3882480182
 10
-1.441746237
 20
0.2863864751
 10
-1.4090386979
 20
0.1858383455
 10
-1.3696121627
 20
0.0883100394
 10
-1.3233205033
 20
-0.0061166955
 10
-1.270309848
 20
-0.0975235992
 10
-1.2115081946
 20
-0.1844494939
 10
-1.1469166209
 20
-0.2667171581
 10
-1.0765340492
 20
-0.3445038101
 10
-1.0012852443
 20
-0.4168799333
 10
-0.9210100927
 20
-0.4838546002
 10
-0.835868708
 20
-0.5454187393
 10
-0.7472661955
 20
-0.6006156192
 10
-0.6553300176
 20
-0.6492817907
 10
-0.5599327118
 20
-0.6915807066
 10
-0.4620969964
 20
-0.7270459894
 10
-0.3615355559
 20
-0.7556573932
 10
-0.2585357058
 20
-0.7774351673
 10
-0.1549821116
 20
-0.7919736766
 10
-0.0511288919
 20
-0.7991366057
 10
0.0532780718
 20
-0.7990602715
 10
0.1571164705
 20
-0.7917479862
 10
0.2606435689
 20
-0.7770623721
 10
0.3636021022
 20
-0.7551408054
 10
0.4640979667
 20
-0.7263987286
 10
0.561824386
 20
-0.6908275592
 10
0.6570881365
 20
-0.6484358763
 10
0.7489154431
 20
-0.599664865
 10
0.8374732502
 20
-0.544323041
 10
0.9225946135
 20
-0.482601885
 10
1.0028049254
 20
-0.4155170309
 10
1.077902686
 20
-0.3431080841
 10
1.1480893952
 20
-0.2653354382
 10
1.2124949453
 20
-0.1830959105
 10
1.271140578
 20
-0.0961893431
 10
1.3240050516
 20
-0.0048158972
 10
1.3701545335
 20
0.08952713
 10
1.4094321491
 20
0.186894379
 10
1.441994773
 20
0.2872312016
 10
1.4673791955
 20
0.3888763661
 10
1.4854310136
 20
0.4912761259
 10
1.4963046303
 20
0.5949842182
 10
1.5000000458
 20
0.7000006376
  0
LINE
  5
285
100
AcDbEntity
  8
SUPERFICI
100
AcDbLine
 62
7
  6
CONTINUOUS
 10
-1.1899999885
 20
3.0999999926
 11
-1.1899999885
 21
2.550379992
  0
LINE
  5
286
100
AcDbEntity
  8
0
100
AcDbLine
 62
7
  6
CONTINUOUS
 10
-1.1899999885
 20
2.550379992
 11
-1.1899999885
 21
3.0999999926
  0
LWPOLYLINE
  5
287
100
AcDbEntity
  8
0
100
AcDbPolyline
 62
7
  6
CONTINUOUS
 90
2
 70
0
 43
0.3500000006
 10
-1.035714268
 20
30.8614429779
 10
-1.035714268
 20
32.3614434357
  0
LINE
  5
288
100
AcDbEntity
  8
0
100
AcDbLine
 62
7
  6
CONTINUOUS
 10
-0.5899999947
 20
2.4999999912
 11
-0.5899999947
 21
2.1872399918
  0
LINE
  5
289
100
AcDbEntity
  8
SUPERFICI
100
AcDbLine
 62
7
  6
CONTINUOUS
 10
-0.5899999947
 20
2.1872399918
 11
-0.5899999947
 21
2.4999999912
  0
LINE
  5
28A
100
AcDbEntity
  8
SUPERFICI
100
AcDbLine
 62
7
  6
CONTINUOUS
 10
-0.2999999905
 20
-1.3784600099
 11
-0.2999999905
 21
-2.8000020215
  0
LINE
  5
28B
100
AcDbEntity
  8
0
100
AcDbLine
 62
7
  6
CONTINUOUS
 10
-0.2999999905
 20
-2.8000026267
 11
-0.2999999905
 21
-1.3784600099
  0
LWPOLYLINE
  5
28C
100
AcDbEntity
  8
SUPERFICI
100
AcDbPolyline
 62
7
  6
CONTINUOUS
 90
27
 70
0
 10
-2.6870003141
 20
-1.5627403305
 10
-2.7118842319
 20
-1.5918076418
 10
-2.7326297939
 20
-1.6220692392
 10
-2.749237
 20
-1.653525122
 10
-2.7616521549
 20
-1.6865585256
 10
-2.7699289539
 20
-1.7207862125
 10
-2.7742284835
 20
-1.7550584736
 10
-2.7745289
 20
-1.7893583326
 10
-2.7708520471
 20
-1.8237027654
 10
-2.7634245417
 20
-1.8569929918
 10
-2.7521538062
 20
-1.8892510496
 10
-2.7371324183
 20
-1.9204549023
 10
-2.7188647267
 20
-1.9494396604
 10
-2.6971684349
 20
-1.9761696428
 10
-2.6722258395
 20
-2.0006805334
 10
-2.6450881798
 20
-2.0219144915
 10
-2.6156594162
 20
-2.0396867721
 10
-2.5840355883
 20
-2.0541821234
 10
-2.5515560538
 20
-2.0648969456
 10
-2.5183265806
 20
-2.0716966423
 10
-2.4842414009
 20
-2.0747158115
 10
-2.4503225692
 20
-2.0738546453
 10
-2.4165214681
 20
-2.0690770145
 10
-2.3828867151
 20
-2.0604190478
 10
-2.3505862168
 20
-2.0478893228
 10
-2.3200092756
 20
-2.0314906977
 10
-2.2907665891
 20
-2.0112203115
  0
LINE
  5
28D
100
AcDbEntity
  8
0
100
AcDbLine
 62
7
  6
CONTINUOUS
 10
-2.6870005957
 20
-1.5627406121
 11
-1.681799991
 21
-0.5575600038
  0
LINE
  5
28E
100
AcDbEntity
  8
SUPERFICI
100
AcDbLine
 62
7
  6
CONTINUOUS
 10
-1.681799991
 20
-0.5575600038
 11
-2.6870003141
 21
-1.5627403305
  0
LINE
  5
28F
100
AcDbEntity
  8
0
100
AcDbLine
 62
253
  6
CONTINUOUS
 10
-22.3014422353
 20
-21.6116135728
 11
-22.2764799709
 21
-21.5866513084
  0
LINE
  5
290
100
AcDbEntity
  8
0
100
AcDbLine
 62
253
  6
CONTINUOUS
 10
21.8016135728
 20
22.1114422353
 11
21.7766513084
 21
22.0864799709
  0
LINE
  5
291
100
AcDbEntity
  8
0
100
AcDbLine
 62
7
  6
CONTINUOUS
 10
-1.2576000058
 20
-0.9818400082
 11
-2.2628493598
 21
-1.987069365
  0
LINE
  5
292
100
AcDbEntity
  8
SUPERFICI
100
AcDbLine
 62
7
  6
CONTINUOUS
 10
-2.2628581574
 20
-1.9870781624
 11
-1.2576000058
 21
-0.9818400082
  0
LINE
  5
293
100
AcDbEntity
  8
0
100
AcDbLine
 62
253
  6
CONTINUOUS
 10
-21.8016135728
 20
-22.1114422353
 11
-21.7766513084
 21
-22.0864799709
  0
LWPOLYLINE
  5
294
100
AcDbEntity
  8
0
100
AcDbPolyline
 62
7
  6
CONTINUOUS
 90
28
 70
0
 10
-2.2628493598
 20
-1.987069365
 10
-2.2907574306
 20
-2.0112131087
 10
-2.3199998895
 20
-2.0314849891
 10
-2.3505767366
 20
-2.0478850078
 10
-2.3828772807
 20
-2.0604160251
 10
-2.416512213
 20
-2.0690751835
 10
-2.450313607
 20
-2.0738539084
 10
-2.484232861
 20
-2.0747160729
 10
-2.5183185768
 20
-2.0716978044
 10
-2.5515486328
 20
-2.0648989084
 10
-2.5840287753
 20
-2.0541847977
 10
-2.6156532579
 20
-2.0396900579
 10
-2.6450827198
 20
-2.0219182533
 10
-2.6722211473
 20
-2.0006846191
 10
-2.697164554
 20
-1.9761739171
 10
-2.7188616199
 20
-1.9494440019
 10
-2.7371300367
 20
-1.9204591776
 10
-2.7521521126
 20
-1.8892551375
 10
-2.7634234525
 20
-1.8569968212
 10
-2.770851467
 20
-1.8237062644
 10
-2.7745287454
 20
-1.7893614302
 10
-2.7742286606
 20
-1.7550611507
 10
-2.7699293615
 20
-1.720788452
 10
-2.7616526991
 20
-1.6865603084
 10
-2.7492375988
 20
-1.653526476
 10
-2.732630369
 20
-1.6220702079
 10
-2.7118847013
 20
-1.591808253
 10
-2.6870005957
 20
-1.5627406121
  0
LINE
  5
295
100
AcDbEntity
  8
SUPERFICI
100
AcDbLine
 62
7
  6
CONTINUOUS
 10
-2.2907665891
 20
-2.0112203115
 11
-2.2628581574
 21
-1.9870781624
  0
LWPOLYLINE
  5
296
100
AcDbEntity
  8
SUPERFICI
100
AcDbPolyline
 62
7
  6
CONTINUOUS
 90
10
 70
0
 10
0.3000000033
 20
-1.3784600081
 10
0.414569384
 20
-1.358693782
 10
0.5274149052
 20
-1.3327332283
 10
0.6385365668
 20
-1.3005783445
 10
0.7483590168
 20
-1.2620709021
 10
0.8564576072
 20
-1.2173691231
 10
0.9615583945
 20
-1.1669476803
 10
1.0632367309
 20
-1.1109647956
 10
1.1619172643
 20
-1.0492622399
 10
1.2575999945
 20
-0.9818400096
  0
LWPOLYLINE
  5
297
100
AcDbEntity
  8
SUPERFICI
100
AcDbPolyline
 62
7
  6
CONTINUOUS
 90
27
 70
0
 10
3.5000020083
 20
0.3999999918
 10
3.5381675762
 20
0.4029870541
 10
3.5742212317
 20
0.4097139849
 10
3.6081629749
 20
0.4201807838
 10
3.6401975769
 20
0.4346752344
 10
3.6701202666
 20
0.4529095528
 10
3.69731673
 20
0.4740203874
 10
3.7218082051
 20
0.4980426224
 10
3.743573454
 20
0.5249413727
 10
3.7619344483
 20
0.5537486344
 10
3.7768201005
 20
0.5845336295
 10
3.7883014982
 20
0.6172271348
 10
3.7959138756
 20
0.6506534786
 10
3.7995048824
 20
0.6849190055
 10
3.799226869
 20
0.7199173701
 10
3.7950721205
 20
0.7541538668
 10
3.7868412541
 20
0.7875665142
 10
3.7747336528
 20
0.8202172939
 10
3.7593397502
 20
0.8507974459
 10
3.7406366002
 20
0.879136837
 10
3.7186471489
 20
0.9054056014
 10
3.6940306692
 20
0.9288053803
 10
3.6667280038
 20
0.9493425982
 10
3.6367983099
 20
0.9670108318
 10
3.6050783321
 20
0.9809924506
 10
3.5718469854
 20
0.9910149114
 10
3.5368253548
 20
0.9973507584
  0
LWPOLYLINE
  5
298
100
AcDbEntity
  8
0
100
AcDbPolyline
 62
7
  6
CONTINUOUS
 90
2
 70
0
 43
0.3500000006
 10
29.630000885
 20
-1.0357139511
 10
28.1300004272
 20
-1.0357139511
  0
LWPOLYLINE
  5
299
100
AcDbEntity
  8
0
100
AcDbPolyline
 62
7
  6
CONTINUOUS
 90
28
 70
0
 10
-3.5000010705
 20
0.3999999918
 10
-3.5368119501
 20
0.4026473096
 10
-3.5718331128
 20
0.4089814389
 10
-3.6050645586
 20
0.4190023795
 10
-3.6367853672
 20
0.4329826623
 10
-3.666716459
 20
0.450649756
 10
-3.6940205953
 20
0.4711860667
 10
-3.7186384898
 20
0.4945851822
 10
-3.7406294289
 20
0.5208535139
 10
-3.7593340318
 20
0.5491927033
 10
-3.7747293466
 20
0.5797729304
 10
-3.7868383252
 20
0.6124240142
 10
-3.7950704435
 20
0.6458370547
 10
-3.799226297
 20
0.6800739833
 10
-3.79950529
 20
0.7150728679
 10
-3.7959151116
 20
0.7493390146
 10
-3.7883034059
 20
0.7827661164
 10
-3.7768225287
 20
0.8154604804
 10
-3.7619372359
 20
0.8462463337
 10
-3.7435764171
 20
0.8750544496
 10
-3.7218111827
 20
0.9019540557
 10
-3.6973196196
 20
0.9259770616
 10
-3.6701229751
 20
0.9470885621
 10
-3.640200002
 20
0.9653234637
 10
-3.6081650453
 20
0.9798183943
 10
-3.5742228866
 20
0.9902855634
 10
-3.5381687443
 20
0.9970127625
 10
-3.5000026183
 20
0.9999999919
  0
LINE
  5
29A
100
AcDbEntity
  8
SUPERFICI
100
AcDbLine
 62
7
  6
CONTINUOUS
 10
-3.5368110251
 20
0.4026472101
 11
-3.4999999967
 21
0.3999999918
  0
LWPOLYLINE
  5
29B
100
AcDbEntity
  8
0
100
AcDbPolyline
 62
7
  6
CONTINUOUS
 90
10
 70
0
 10
-0.2999999905
 20
-1.3784600099
 10
-0.4153334093
 20
-1.3584832484
 10
-0.5287425988
 20
-1.3323421921
 10
-0.640227559
 20
-1.3000368383
 10
-0.7502004566
 20
-1.2613788239
 10
-0.8582491249
 20
-1.2165565055
 10
-0.9631370639
 20
-1.1661349601
 10
-1.0644521071
 20
-1.1103025446
 10
-1.1626064211
 20
-1.0488708951
 10
-1.2576000058
 20
-0.9818400082
  0
LWPOLYLINE
  5
29C
100
AcDbEntity
  8
SUPERFICI
100
AcDbPolyline
 62
7
  6
CONTINUOUS
 90
10
 70
0
 10
-1.2576000058
 20
-0.9818400082
 10
-1.1626064206
 20
-1.0488708954
 10
-1.0644521063
 20
-1.110302545
 10
-0.963137063
 20
-1.1661349606
 10
-0.858249124
 20
-1.2165565059
 10
-0.7502004559
 20
-1.2613788242
 10
-0.6402275585
 20
-1.3000368385
 10
-0.5287425985
 20
-1.3323421922
 10
-0.4153334091
 20
-1.3584832485
 10
-0.2999999905
 20
-1.3784600099
  0
LWPOLYLINE
  5
29D
100
AcDbEntity
  8
SUPERFICI
100
AcDbPolyline
 62
7
  6
CONTINUOUS
 90
27
 70
0
 10
2.2628006934
 20
-1.9870206869
 10
2.2918751693
 20
-2.0119008578
 10
2.3221433007
 20
-2.0326418038
 10
2.3536050876
 20
-2.0492435271
 10
2.3866438017
 20
-2.0616522828
 10
2.4208761713
 20
-2.0699218186
 10
2.4551523816
 20
-2.074213375
 10
2.489455603
 20
-2.0745050718
 10
2.523802665
 20
-2.0708187896
 10
2.5570942417
 20
-2.0633814095
 10
2.5893522869
 20
-2.0521002181
 10
2.6205548467
 20
-2.037067927
 10
2.6495367338
 20
-2.0187895537
 10
2.6762620292
 20
-1.9970829903
 10
2.7007666518
 20
-1.9721303415
 10
2.7219931711
 20
-1.9449829443
 10
2.7397570002
 20
-1.9155444061
 10
2.7542427261
 20
-1.8839111168
 10
2.7649466787
 20
-1.8514235888
 10
2.7717340212
 20
-1.81818781
 10
2.7747395905
 20
-1.7840977916
 10
2.7738642269
 20
-1.7501760833
 10
2.769071037
 20
-1.7163734478
 10
2.7603969142
 20
-1.6827391228
 10
2.7478533802
 20
-1.6504433717
 10
2.7314442754
 20
-1.6198762833
 10
2.7111657593
 20
-1.5906477709
  0
LINE
  5
29E
100
AcDbEntity
  8
0
100
AcDbLine
 62
253
  6
CONTINUOUS
 10
-22.2764799709
 20
21.5866513084
 11
-22.3014422353
 21
21.6116135728
  0
LINE
  5
29F
100
AcDbEntity
  8
0
100
AcDbLine
 62
253
  6
CONTINUOUS
 10
21.7766513084
 20
-22.0864799709
 11
21.8016135728
 21
-22.1114422353
  0
LINE
  5
2A0
100
AcDbEntity
  8
0
100
AcDbLine
 62
7
  6
CONTINUOUS
 10
2.2628010129
 20
-1.9870210064
 11
1.2575999945
 21
-0.9818400096
  0
LINE
  5
2A1
100
AcDbEntity
  8
SUPERFICI
100
AcDbLine
 62
7
  6
CONTINUOUS
 10
1.2575999945
 20
-0.9818400096
 11
2.2628006934
 21
-1.9870206869
  0
LINE
  5
2A2
100
AcDbEntity
  8
0
100
AcDbLine
 62
253
  6
CONTINUOUS
 10
-21.7766513084
 20
22.0864799709
 11
-21.8016135728
 21
22.1114422353
  0
LWPOLYLINE
  5
2A3
100
AcDbEntity
  8
0
100
AcDbPolyline
 62
7
  6
CONTINUOUS
 90
10
 70
0
 10
-1.681799991
 20
-0.5575600038
 10
-1.7492190601
 20
-0.4618811238
 10
-1.810918688
 20
-0.3632045926
 10
-1.8668988747
 20
-0.2615304125
 10
-1.9173178328
 20
-0.1564339541
 10
-1.9620173496
 20
-0.0483398536
 10
-2.0005227875
 20
0.0614779865
 10
-2.0326759339
 20
0.1725949284
 10
-2.0586350013
 20
0.2854355989
 10
-2.0783999897
 20
0.3999999918
  0
LWPOLYLINE
  5
2A4
100
AcDbEntity
  8
SUPERFICI
100
AcDbPolyline
 62
7
  6
CONTINUOUS
 90
14
 70
0
 10
-1.5022164695
 20
0.7334014197
 10
-1.5074391265
 20
0.7652936313
 10
-1.5156692886
 20
0.7956858694
 10
-1.5270909514
 20
0.8247283892
 10
-1.5415197823
 20
0.8522688788
 10
-1.5584027841
 20
0.8778504023
 10
-1.5777300667
 20
0.9014905009
 10
-1.5995115201
 20
0.9231716343
 10
-1.6232238173
 20
0.942384244
 10
-1.6488797113
 20
0.9591363228
 10
-1.6764664491
 20
0.973419879
 10
-1.7054224448
 20
0.9847013773
 10
-1.735560503
 20
0.9928029727
 10
-1.7670678192
 20
0.9979025108
  0
LINE
  5
2A5
100
AcDbEntity
  8
0
100
AcDbLine
 62
7
  6
CONTINUOUS
 10
0.3000000033
 20
-1.3784600081
 11
0.3000000033
 21
-2.800000873
  0
LINE
  5
2A6
100
AcDbEntity
  8
SUPERFICI
100
AcDbLine
 62
7
  6
CONTINUOUS
 10
0.3000000033
 20
-2.7999998761
 11
0.3000000033
 21
-1.3784600081
  0
LINE
  5
2A7
100
AcDbEntity
  8
SUPERFICI
100
AcDbLine
 62
7
  6
CONTINUOUS
 10
0.5900000075
 20
2.4999999912
 11
0.5900000075
 21
2.1872399853
  0
LINE
  5
2A8
100
AcDbEntity
  8
0
100
AcDbLine
 62
7
  6
CONTINUOUS
 10
0.5900000075
 20
2.1872399853
 11
0.5900000075
 21
2.4999999912
  0
LINE
  5
2A9
100
AcDbEntity
  8
0
100
AcDbLine
 62
7
  6
CONTINUOUS
 10
1.1900000013
 20
3.0999999926
 11
1.1900000013
 21
2.5503800037
  0
LINE
  5
2AA
100
AcDbEntity
  8
SUPERFICI
100
AcDbLine
 62
7
  6
CONTINUOUS
 10
1.1900000013
 20
2.5503800037
 11
1.1900000013
 21
3.0999999926
  0
LINE
  5
2AB
100
AcDbEntity
  8
SUPERFICI
100
AcDbLine
 62
7
  6
CONTINUOUS
 10
1.499999992
 20
0.7000001914
 11
1.4963046061
 21
0.5949839957
  0
LINE
  5
2AC
100
AcDbEntity
  8
SUPERFICI
100
AcDbLine
 62
7
  6
CONTINUOUS
 10
1.5020913953
 20
0.7328797931
 11
1.499999992
 21
0.7000001914
  0
LWPOLYLINE
  5
2AD
100
AcDbEntity
  8
0
100
AcDbPolyline
 62
7
  6
CONTINUOUS
 90
16
 70
0
 10
1.5000000458
 20
0.7000006376
 10
1.5020914005
 20
0.7328798751
 10
1.5071860167
 20
0.7643907483
 10
1.5152838941
 20
0.7945332575
 10
1.5265630287
 20
0.8234950744
 10
1.5408454246
 20
0.8510885279
 10
1.5575970945
 20
0.8767506041
 10
1.5768100525
 20
0.9004681123
 10
1.5984922846
 20
0.922254244
 10
1.622133761
 20
0.9415855597
 10
1.6477166683
 20
0.9584718564
 10
1.6752588199
 20
0.9729033381
 10
1.7043036268
 20
0.9843271751
 10
1.7346988924
 20
0.9925590913
 10
1.7665968132
 20
0.9977833634
 10
1.7999973893
 20
0.9999999919
  0
LINE
  5
2AE
100
AcDbEntity
  8
SUPERFICI
100
AcDbLine
 62
7
  6
CONTINUOUS
 10
0.2973534375
 20
-2.8368088547
 11
0.3000000033
 21
-2.7999998761
  0
LWPOLYLINE
  5
2AF
100
AcDbEntity
  8
0
100
AcDbPolyline
 62
7
  6
CONTINUOUS
 90
28
 70
0
 10
0.3000000033
 20
-2.800000873
 10
0.2973533464
 20
-2.8368097087
 10
0.2910197503
 20
-2.8718294938
 10
0.2809992147
 20
-2.9050602303
 10
0.267019197
 20
-2.9367812412
 10
0.2493522399
 20
-2.966713207
 10
0.2288159719
 20
-2.9940181673
 10
0.2054168345
 20
-3.0186366023
 10
0.1791483862
 20
-3.0406280367
 10
0.1508089304
 20
-3.0593330775
 10
0.1202281587
 20
-3.0747287917
 10
0.0875763796
 20
-3.0868381165
 10
0.0541628218
 20
-3.0950704645
 10
0.0199257189
 20
-3.0992263754
 10
-0.0150731627
 20
-3.0995053113
 10
-0.0493392954
 20
-3.0959150683
 10
-0.0827664059
 20
-3.088303347
 10
-0.1154607675
 20
-3.076822445
 10
-0.1462466731
 20
-3.0619370538
 10
-0.1750549534
 20
-3.0435760336
 10
-0.2019547776
 20
-3.0218105201
 10
-0.2259779464
 20
-2.9973186173
 10
-0.2470895344
 20
-2.9701214138
 10
-0.2653244669
 20
-2.9401978162
 10
-0.2798193211
 20
-2.9081626573
 10
-0.2902862893
 20
-2.8742208803
 10
-0.2970131791
 20
-2.8381675375
 10
-0.2999999905
 20
-2.8000026267
  0
LWPOLYLINE
  5
2B0
100
AcDbEntity
  8
SUPERFICI
100
AcDbPolyline
 62
7
  6
CONTINUOUS
 90
43
 70
0
 10
1.4963046061
 20
0.5949839957
 10
1.4854310104
 20
0.4912760669
 10
1.4673792049
 20
0.3888764103
 10
1.4419947842
 20
0.2872312679
 10
1.4094321537
 20
0.1868944073
 10
1.37015453
 20
0.0895271223
 10
1.3240050403
 20
-0.0048159182
 10
1.2711405574
 20
-0.0961893754
 10
1.212494916
 20
-0.1830959509
 10
1.1480893578
 20
-0.2653354829
 10
1.0779026412
 20
-0.3431081299
 10
1.0028048758
 20
-0.4155170754
 10
0.9225945626
 20
-0.4826019252
 10
0.8374732006
 20
-0.5443230744
 10
0.7489153973
 20
-0.5996648915
 10
0.6570880976
 20
-0.6484358958
 10
0.5618243564
 20
-0.6908275716
 10
0.464097946
 20
-0.7263987354
 10
0.3636020886
 20
-0.7551408085
 10
0.260643562
 20
-0.7770623731
 10
0.1571164707
 20
-0.7917479862
 10
0.0532780803
 20
-0.7990602713
 10
-0.0511288746
 20
-0.7991366064
 10
-0.1549820859
 20
-0.7919736793
 10
-0.2585356725
 20
-0.7774351731
 10
-0.3615355154
 20
-0.7556574031
 10
-0.4620969491
 20
-0.7270460047
 10
-0.5599326583
 20
-0.6915807279
 10
-0.6553299584
 20
-0.649281819
 10
-0.7472661297
 20
-0.6006156571
 10
-0.8358686322
 20
-0.5454187915
 10
-0.921010006
 20
-0.4838546693
 10
-1.0012851519
 20
-0.416880016
 10
-1.0765339598
 20
-0.3445039009
 10
-1.1469165398
 20
-0.2667172538
 10
-1.2115081227
 20
-0.1844495925
 10
-1.270309785
 20
-0.0975237
 10
-1.3233204503
 20
-0.0061167965
 10
-1.3696121201
 20
0.0883099439
 10
-1.4090386813
 20
0.1858383987
 10
-1.4417462471
 20
0.2863866827
 10
-1.4672451584
 20
0.3882479772
 10
-1.4853721957
 20
0.4908533398
  0
LWPOLYLINE
  5
2B1
100
AcDbEntity
  8
0
100
AcDbPolyline
 62
7
  6
CONTINUOUS
 90
10
 70
0
 10
2.0784000089
 20
0.3999999918
 10
2.0584244848
 20
0.2846715569
 10
2.0322849144
 20
0.1712672156
 10
1.9999812978
 20
0.0597869743
 10
1.9613252874
 20
-0.0501813125
 10
1.9165052308
 20
-0.1582254882
 10
1.8660861703
 20
-0.2631090943
 10
1.8102564534
 20
-0.3644199759
 10
1.7488277328
 20
-0.4625702813
 10
1.6818000082
 20
-0.5575600083
  0
LWPOLYLINE
  5
2B2
100
AcDbEntity
  8
SUPERFICI
100
AcDbPolyline
 62
7
  6
CONTINUOUS
 90
10
 70
0
 10
1.6818000082
 20
-0.5575600083
 10
1.748827733
 20
-0.4625702809
 10
1.8102564539
 20
-0.3644199751
 10
1.8660861708
 20
-0.2631090933
 10
1.9165052312
 20
-0.1582254872
 10
1.9613252877
 20
-0.0501813118
 10
1.9999812979
 20
0.0597869748
 10
2.0322849145
 20
0.171267216
 10
2.0584244848
 20
0.2846715571
 10
2.0784000089
 20
0.3999999918
  0
LINE
  5
2B3
100
AcDbEntity
  8
0
100
AcDbLine
 62
253
  6
CONTINUOUS
 10
22.3014422353
 20
21.6116135728
 11
22.2764799709
 21
21.5866513084
  0
LWPOLYLINE
  5
2B4
100
AcDbEntity
  8
0
100
AcDbPolyline
 62
7
  6
CONTINUOUS
 90
10
 70
0
 10
1.2575999945
 20
-0.9818400096
 10
1.1619172641
 20
-1.04926224
 10
1.0632367306
 20
-1.1109647958
 10
0.961558394
 20
-1.1669476806
 10
0.8564576065
 20
-1.2173691234
 10
0.7483590158
 20
-1.2620709025
 10
0.6385365657
 20
-1.3005783448
 10
0.5274149043
 20
-1.3327332286
 10
0.4145693834
 20
-1.3586937822
 10
0.3000000033
 20
-1.3784600081
  0
LWPOLYLINE
  5
2B5
100
AcDbEntity
  8
SUPERFICI
100
AcDbPolyline
 62
7
  6
CONTINUOUS
 90
27
 70
0
 10
-3.5000019956
 20
0.9999999919
 10
-3.5381682922
 20
0.9970128019
 10
-3.5742225765
 20
0.9902856282
 10
-3.6081648485
 20
0.9798184704
 10
-3.6401998841
 20
0.9653235337
 10
-3.6701229074
 20
0.9470886118
 10
-3.6973195904
 20
0.9259770871
 10
-3.7218111848
 20
0.9019540567
 10
-3.7435764389
 20
0.8750544221
 10
-3.7619372702
 20
0.8462462723
 10
-3.7768225708
 20
0.8154603777
 10
-3.7883034486
 20
0.7827659669
 10
-3.7959151444
 20
0.7493388175
 10
-3.7995053009
 20
0.7150726208
 10
-3.7992262754
 20
0.6800736852
 10
-3.7950703811
 20
0.6458367146
 10
-3.7868382126
 20
0.6124236438
 10
-3.7747291751
 20
0.5797725387
 10
-3.7593337975
 20
0.5491923003
 10
-3.7406291288
 20
0.5208531099
 10
-3.71863812
 20
0.4945847873
 10
-3.6940201524
 20
0.4711856912
 10
-3.6667159452
 20
0.4506494091
 10
-3.6367847792
 20
0.4329823543
 10
-3.605063879
 20
0.4190021252
 10
-3.5718323192
 20
0.4089812546
 10
-3.5368110251
 20
0.4026472101
  0
LWPOLYLINE
  5
2B6
100
AcDbEntity
  8
SUPERFICI
100
AcDbPolyline
 62
7
  6
CONTINUOUS
 90
15
 70
0
 10
1.7999987387
 20
0.9999999919
 10
1.7665979686
 20
0.9977834784
 10
1.7346998739
 20
0.9925592992
 10
1.7043044546
 20
0.9843274539
 10
1.6752595172
 20
0.9729036621
 10
1.6477172553
 20
0.9584722036
 10
1.6221342488
 20
0.9415859189
 10
1.5984926826
 20
0.9222546082
 10
1.5768103718
 20
0.9004684704
 10
1.5575973418
 20
0.8767509433
 10
1.5408456053
 20
0.8510888492
 10
1.5265631494
 20
0.823495365
 10
1.5152839615
 20
0.7945334604
 10
1.5071860371
 20
0.7643907917
 10
1.5020913953
 20
0.7328797931
  0
LINE
  5
2B7
100
AcDbEntity
  8
SUPERFICI
100
AcDbLine
 62
7
  6
CONTINUOUS
 10
3.5000000041
 20
0.3999999918
 11
2.0784000089
 21
0.3999999918
  0
LINE
  5
2B8
100
AcDbEntity
  8
0
100
AcDbLine
 62
7
  6
CONTINUOUS
 10
3.5000000041
 20
0.3999999918
 11
2.0784000089
 21
0.3999999918
  0
LINE
  5
2B9
100
AcDbEntity
  8
SUPERFICI
100
AcDbLine
 62
7
  6
CONTINUOUS
 10
-2.0783999897
 20
0.3999999918
 11
-3.4999999914
 21
0.3999999918
  0
LINE
  5
2BA
100
AcDbEntity
  8
0
100
AcDbLine
 62
7
  6
CONTINUOUS
 10
-2.0783999897
 20
0.3999999918
 11
-3.4999999914
 21
0.3999999918
  0
LINE
  5
2BB
100
AcDbEntity
  8
SUPERFICI
100
AcDbLine
 62
7
  6
CONTINUOUS
 10
3.5000134313
 20
0.9999999919
 11
1.7999997719
 21
0.9999999919
  0
LINE
  5
2BC
100
AcDbEntity
  8
0
100
AcDbLine
 62
7
  6
CONTINUOUS
 10
3.5000134313
 20
0.9999999919
 11
1.7999997719
 21
0.9999999919
  0
LINE
  5
2BD
100
AcDbEntity
  8
SUPERFICI
100
AcDbLine
 62
7
  6
CONTINUOUS
 10
-1.7999444213
 20
0.9999999919
 11
-3.4999999913
 21
0.9999999919
  0
LINE
  5
2BE
100
AcDbEntity
  8
0
100
AcDbLine
 62
7
  6
CONTINUOUS
 10
-1.7999444213
 20
0.9999999919
 11
-3.4999999913
 21
0.9999999919
  0
LINE
  5
2BF
100
AcDbEntity
  8
SUPERFICI
100
AcDbLine
 62
7
  6
CONTINUOUS
 10
-1.7670678192
 20
0.9979025108
 11
-1.7999443932
 21
0.9999999919
  0
LWPOLYLINE
  5
2C0
100
AcDbEntity
  8
0
100
AcDbPolyline
 62
7
  6
CONTINUOUS
 90
16
 70
0
 10
-1.79995127
 20
0.9999999919
 10
-1.7670742198
 20
0.99790321
 10
-1.735566399
 20
0.992804266
 10
-1.7054278074
 20
0.9847031597
 10
-1.6764712353
 20
0.9734220404
 10
-1.6488838925
 20
0.9591387581
 10
-1.6232274081
 20
0.9423868635
 10
-1.5995145395
 20
0.9231743444
 10
-1.5777325294
 20
0.901493212
 10
-1.5584047348
 20
0.8778530516
 10
-1.5415212568
 20
0.8522713168
 10
-1.5270919943
 20
0.8247305532
 10
-1.515670001
 20
0.795687985
 10
-1.5074396282
 20
0.7652960204
 10
-1.5022165246
 20
0.7334022506
 10
-1.5000006902
 20
0.7000066754
  0
LWPOLYLINE
  5
2C1
100
AcDbEntity
  8
0
100
AcDbPolyline
 62
7
  6
CONTINUOUS
 90
28
 70
0
 10
3.5000128982
 20
0.9999999919
 10
3.5368247821
 20
0.9973508376
 10
3.5718464022
 20
0.9910150622
 10
3.6050777586
 20
0.9809926652
 10
3.6367977715
 20
0.9670111032
 10
3.6667275207
 20
0.9493429186
 10
3.694030245
 20
0.92880574
 10
3.7186467835
 20
0.9054059886
 10
3.7406362971
 20
0.8791372419
 10
3.7593395075
 20
0.8507978635
 10
3.7747334666
 20
0.8202177213
 10
3.7868411226
 20
0.7875669464
 10
3.7950720414
 20
0.7541542978
 10
3.7992268411
 20
0.7199177935
 10
3.7995049036
 20
0.6849194153
 10
3.7959139406
 20
0.6506538685
 10
3.7883016016
 20
0.6172274969
 10
3.7768202372
 20
0.5845339573
 10
3.7619346109
 20
0.5537489256
 10
3.7435736322
 20
0.5249416238
 10
3.7218083917
 20
0.4980428309
 10
3.6973169249
 20
0.4740205577
 10
3.6701204657
 20
0.4529096931
 10
3.6401977802
 20
0.4346753491
 10
3.6081632034
 20
0.4201808722
 10
3.5742215133
 20
0.4097140445
 10
3.5381679319
 20
0.4029870843
 10
3.5000024591
 20
0.3999999918
  0
LINE
  5
2C2
100
AcDbEntity
  8
SUPERFICI
100
AcDbLine
 62
7
  6
CONTINUOUS
 10
3.5368253548
 20
0.9973507584
 11
3.5000134404
 21
0.9999999919
  0
LWPOLYLINE
  5
2C3
100
AcDbEntity
  8
SUPERFICI
100
AcDbPolyline
 62
7
  6
CONTINUOUS
 90
3
 70
0
 10
0.5900000075
 20
2.1872399853
 10
0.6852103472
 20
2.1457332531
 10
0.7767672142
 20
2.0987306299
  0
LINE
  5
2C4
100
AcDbEntity
  8
SUPERFICI
100
AcDbLine
 62
7
  6
CONTINUOUS
 10
0.7767672142
 20
2.0987306299
 11
0.8646706541
 21
2.0462320782
  0
LWPOLYLINE
  5
2C5
100
AcDbEntity
  8
SUPERFICI
100
AcDbPolyline
 62
7
  6
CONTINUOUS
 90
4
 70
0
 10
0.8646706541
 20
2.0462320782
 10
0.9493192819
 20
1.987849141
 10
1.0303144825
 20
1.9239702614
 10
1.1064599552
 20
1.8557610993
  0
LINE
  5
2C6
100
AcDbEntity
  8
0
100
AcDbLine
 62
253
  6
CONTINUOUS
 10
22.2764799709
 20
-21.5866513084
 11
22.3014422353
 21
-21.6116135728
  0
LINE
  5
2C7
100
AcDbEntity
  8
0
100
AcDbLine
 62
7
  6
CONTINUOUS
 10
1.6818000082
 20
-0.5575600083
 11
2.687018571
 21
-1.5627585744
  0
LINE
  5
2C8
100
AcDbEntity
  8
SUPERFICI
100
AcDbLine
 62
7
  6
CONTINUOUS
 10
2.6870178319
 20
-1.5627578352
 11
1.6818000082
 21
-0.5575600083
  0
LWPOLYLINE
  5
2C9
100
AcDbEntity
  8
SUPERFICI
100
AcDbPolyline
 62
7
  6
CONTINUOUS
 90
29
 70
0
 10
1.3253702759
 20
1.6006351878
 10
1.3478816794
 20
1.5778090348
 10
1.3721359606
 20
1.557839044
 10
1.3984610978
 20
1.5406498294
 10
1.4265291127
 20
1.5263167792
 10
1.4553560703
 20
1.5150660555
 10
1.4847947736
 20
1.5069534711
 10
1.5149924196
 20
1.5019232144
 10
1.5454066635
 20
1.5000340106
 10
1.5762537044
 20
1.5013408321
 10
1.6073173434
 20
1.5057887066
 10
1.6374066389
 20
1.5132714415
 10
1.6663907625
 20
1.5238786147
 10
1.6944005428
 20
1.5375206473
 10
1.7206375237
 20
1.5538226123
 10
1.745111151
 20
1.5729341647
 10
1.767811979
 20
1.5947056476
 10
1.7879132152
 20
1.6183131662
 10
1.8052597104
 20
1.6437361264
 10
1.8200066137
 20
1.6709951205
 10
1.83179258
 20
1.6993280333
 10
1.8405877619
 20
1.7287125642
 10
1.8464220067
 20
1.7591710124
 10
1.8490235109
 20
1.7900081639
 10
1.8483904944
 20
1.8212855342
 10
1.8445247372
 20
1.852941607
 10
1.8371597756
 20
1.884096622
 10
1.8262067882
 20
1.914457326
 10
1.8117545964
 20
1.9443169727
  0
LINE
  5
2CA
100
AcDbEntity
  8
SUPERFICI
100
AcDbLine
 62
7
  6
CONTINUOUS
 10
1.1064600643
 20
1.8557609882
 11
1.1773569481
 21
1.7836101947
  0
LINE
  5
2CB
100
AcDbEntity
  8
SUPERFICI
100
AcDbLine
 62
7
  6
CONTINUOUS
 10
2.7111657593
 20
-1.5906477709
 11
2.6870178319
 21
-1.5627578352
  0
LWPOLYLINE
  5
2CC
100
AcDbEntity
  8
0
100
AcDbPolyline
 62
7
  6
CONTINUOUS
 90
28
 70
0
 10
2.687018571
 20
-1.5627585744
 10
2.7111662954
 20
-1.5906484252
 10
2.7314446424
 20
-1.6198768608
 10
2.7478536119
 20
-1.6504438803
 10
2.7603970513
 20
-1.6827395726
 10
2.7690711133
 20
-1.7163738467
 10
2.7738642558
 20
-1.7501764328
 10
2.7747395812
 20
-1.7840980891
 10
2.7717339871
 20
-1.8181880568
 10
2.7649466246
 20
-1.8514237935
 10
2.754242651
 20
-1.883911295
 10
2.7397569089
 20
-1.9155445663
 10
2.7219930781
 20
-1.9449830794
 10
2.7007665755
 20
-1.9721304339
 10
2.6762619841
 20
-1.9970830329
 10
2.6495367322
 20
-2.0187895549
 10
2.620554904
 20
-2.0370678981
 10
2.5893524153
 20
-2.0521001674
 10
2.5570944411
 20
-2.0633813527
 10
2.5238029372
 20
-2.0708187472
 10
2.4894559478
 20
-2.0745050593
 10
2.45515278
 20
-2.0742134013
 10
2.4208765966
 20
-2.0699218942
 10
2.3866442349
 20
-2.0616524165
 10
2.3536055138
 20
-2.0492437155
 10
2.3221437062
 20
-2.0326420394
 10
2.2918755393
 20
-2.011901137
 10
2.2628010129
 20
-1.9870210064
  0
LWPOLYLINE
  5
2CD
100
AcDbEntity
  8
SUPERFICI
100
AcDbPolyline
 62
7
  6
CONTINUOUS
 90
3
 70
0
 10
1.1773569481
 20
1.7836101947
 10
1.2434042131
 20
1.7071289973
 10
1.3046017501
 20
1.6263175019
  0
LINE
  5
2CE
100
AcDbEntity
  8
SUPERFICI
100
AcDbLine
 62
7
  6
CONTINUOUS
 10
1.3046017501
 20
1.6263175019
 11
1.3253702262
 21
1.6006352494
  0
LWPOLYLINE
  5
2CF
100
AcDbEntity
  8
0
100
AcDbPolyline
 62
7
  6
CONTINUOUS
 90
10
 70
0
 10
1.304600772
 20
1.6263185305
 10
1.243403784
 20
1.7071294564
 10
1.1773569197
 20
1.7836102396
 10
1.106460179
 20
1.8557608854
 10
1.0303147592
 20
1.9239699995
 10
0.9493194631
 20
1.9878489863
 10
0.864670699
 20
2.0462320514
 10
0.7767672698
 20
2.0987306019
 10
0.6852103726
 20
2.1457332445
 10
0.5900000075
 20
2.1872399853
  0
LINE
  5
2D0
100
AcDbEntity
  8
SUPERFICI
100
AcDbLine
 62
7
  6
CONTINUOUS
 10
0.5900000075
 20
2.4999999912
 11
-0.5899999947
 21
2.4999999912
  0
LINE
  5
2D1
100
AcDbEntity
  8
0
100
AcDbLine
 62
7
  6
CONTINUOUS
 10
0.5900000075
 20
2.4999999912
 11
-0.5899999947
 21
2.4999999912
  0
LINE
  5
2D2
100
AcDbEntity
  8
SUPERFICI
100
AcDbLine
 62
7
  6
CONTINUOUS
 10
1.1900000013
 20
3.0999999926
 11
-1.1899999885
 21
3.0999999926
  0
LINE
  5
2D3
100
AcDbEntity
  8
0
100
AcDbLine
 62
7
  6
CONTINUOUS
 10
1.1900000013
 20
3.0999999926
 11
-1.1899999885
 21
3.0999999926
  0
LWPOLYLINE
  5
2D4
100
AcDbEntity
  8
0
100
AcDbPolyline
 62
7
  6
CONTINUOUS
 90
10
 70
0
 10
1.1900000013
 20
2.5503800037
 10
1.2672924295
 20
2.4983426535
 10
1.3421599864
 20
2.4431835519
 10
1.4146026719
 20
2.3849026943
 10
1.4847883796
 20
2.3233513743
 10
1.552549216
 20
2.2586782893
 10
1.6173815003
 20
2.1913295412
 10
1.6791173389
 20
2.1214538288
 10
1.7379246255
 20
2.0489024464
 10
1.7938033601
 20
1.9736753908
  0
LWPOLYLINE
  5
2D5
100
AcDbEntity
  8
SUPERFICI
100
AcDbPolyline
 62
7
  6
CONTINUOUS
 90
3
 70
0
 10
1.3421600087
 20
2.443183534
 10
1.2672924527
 20
2.4983426372
 10
1.1900000013
 20
2.5503800037
  0
LINE
  5
2D6
100
AcDbEntity
  8
SUPERFICI
100
AcDbLine
 62
7
  6
CONTINUOUS
 10
1.4146027037
 20
2.3849026664
 11
1.3421600087
 21
2.443183534
  0
LINE
  5
2D7
100
AcDbEntity
  8
SUPERFICI
100
AcDbLine
 62
7
  6
CONTINUOUS
 10
1.4847884742
 20
2.3233512841
 11
1.4146027037
 21
2.3849026664
  0
LWPOLYLINE
  5
2D8
100
AcDbEntity
  8
SUPERFICI
100
AcDbPolyline
 62
7
  6
CONTINUOUS
 90
3
 70
0
 10
1.6173815559
 20
2.1913294782
 10
1.5525493389
 20
2.2586781615
 10
1.4847884742
 20
2.3233512841
  0
LWPOLYLINE
  5
2D9
100
AcDbEntity
  8
SUPERFICI
100
AcDbPolyline
 62
7
  6
CONTINUOUS
 90
3
 70
0
 10
1.7379245934
 20
2.0489024784
 10
1.6791173985
 20
2.121453762
 10
1.6173816153
 20
2.1913294165
  0
LINE
  5
2DA
100
AcDbEntity
  8
SUPERFICI
100
AcDbLine
 62
7
  6
CONTINUOUS
 10
1.7938032001
 20
1.9736755623
 11
1.7379245934
 21
2.0489024784
  0
LWPOLYLINE
  5
2DB
100
AcDbEntity
  8
0
100
AcDbPolyline
 62
7
  6
CONTINUOUS
 90
31
 70
0
 10
1.7938033601
 20
1.9736753908
 10
1.8117547427
 20
1.944316721
 10
1.8262069149
 20
1.914457016
 10
1.8371598767
 20
1.8840962755
 10
1.8445248041
 20
1.8529412523
 10
1.8483905212
 20
1.821285193
 10
1.8490235001
 20
1.7900078389
 10
1.846421964
 20
1.7591707004
 10
1.8405876898
 20
1.7287122679
 10
1.8317924802
 20
1.6993277535
 10
1.8200064873
 20
1.6709948568
 10
1.8052595591
 20
1.6437358796
 10
1.7879130423
 20
1.618312939
 10
1.7678117886
 20
1.5947054441
 10
1.7451109464
 20
1.5729339876
 10
1.7206373076
 20
1.5538224617
 10
1.6944003177
 20
1.5375205229
 10
1.6663905314
 20
1.5238785167
 10
1.6374064046
 20
1.5132713695
 10
1.6073171093
 20
1.5057886602
 10
1.5762534736
 20
1.501340811
 10
1.545406438
 20
1.5000340134
 10
1.5149922014
 20
1.5019232394
 10
1.484794565
 20
1.506953517
 10
1.4553558728
 20
1.5150661205
 10
1.4265289605
 20
1.5263168292
 10
1.3984609925
 20
1.5406498627
 10
1.3721358059
 20
1.557839157
 10
1.3478813465
 20
1.5778093566
 10
1.3253696685
 20
1.6006358148
 10
1.304600772
 20
1.6263185305
  0
LINE
  5
2DC
100
AcDbEntity
  8
SUPERFICI
100
AcDbLine
 62
7
  6
CONTINUOUS
 10
1.8117545964
 20
1.9443169727
 11
1.7938032001
 21
1.9736755623
  0
LINE
  5
2DD
100
AcDbEntity
  8
RACCORDO
100
AcDbLine
 62
253
  6
CONTINUOUS
 10
-22.1380102879
 20
9.4960050713
 11
-22.0681687786
 21
9.4974728383
  0
LINE
  5
2DE
100
AcDbEntity
  8
RACCORDO
100
AcDbLine
 62
253
  6
CONTINUOUS
 10
-22.0681687786
 20
9.4974728383
 11
-21.9843795934
 21
9.4986458948
  0
LINE
  5
2DF
100
AcDbEntity
  8
RACCORDO
100
AcDbLine
 62
253
  6
CONTINUOUS
 10
-21.9843795934
 20
9.4986458948
 11
-21.8901841222
 21
9.4994746612
  0
LINE
  5
2E0
100
AcDbEntity
  8
RACCORDO
100
AcDbLine
 62
253
  6
CONTINUOUS
 10
-21.8901841222
 20
9.4994746612
 11
-21.7381671644
 21
9.4999999996
  0
LINE
  5
2E1
100
AcDbEntity
  8
RACCORDO
100
AcDbLine
 62
253
  6
CONTINUOUS
 10
21.840415486
 20
9.4997483763
 11
-21.7381671644
 21
9.5
  0
LINE
  5
2E2
100
AcDbEntity
  8
RACCORDO
100
AcDbLine
 62
253
  6
CONTINUOUS
 10
21.9383422333
 20
9.4991058655
 11
21.840415486
 21
9.4997483763
  0
LINE
  5
2E3
100
AcDbEntity
  8
RACCORDO
100
AcDbLine
 62
253
  6
CONTINUOUS
 10
22.0278084851
 20
9.4980996237
 11
21.9383422333
 21
9.4991058655
  0
LWPOLYLINE
  5
2E4
100
AcDbEntity
  8
0
100
AcDbPolyline
 62
7
  6
CONTINUOUS
 90
3
 70
0
 43
0.3500000006
 10
29.3442852173
 20
1.0357133102
 10
29.5585719681
 20
0.9642866592
 10
29.8442853699
 20
0.8214288254
  0
LWPOLYLINE
  5
2E5
100
AcDbEntity
  8
RACCORDO
100
AcDbPolyline
 62
253
  6
CONTINUOUS
 90
12
 70
0
 10
22.2764799709
 20
21.5866513084
 10
22.2754643837
 20
21.5841100213
 10
22.274466787
 20
21.5786680472
 10
22.2734871808
 20
21.5703253861
 10
22.2725192882
 20
21.558997784
 10
22.271569386
 20
21.5447694949
 10
22.2706563049
 20
21.5278932804
 10
22.2697813035
 20
21.5083229654
 10
22.2689431232
 20
21.4861047249
 10
22.2681568186
 20
21.4616298466
 10
22.2674232508
 20
21.4348517581
 10
22.2661242127
 20
21.3750566723
  0
LWPOLYLINE
  5
2E6
100
AcDbEntity
  8
0
100
AcDbPolyline
 62
7
  6
CONTINUOUS
 90
10
 70
0
 43
0.3500000006
 10
29.1300007324
 20
0.9642866592
 10
29.2728563004
 20
1.0357133102
 10
29.3442852173
 20
1.0357133102
 10
29.4871430511
 20
0.8928577423
 10
29.4871430511
 20
0.8214288254
 10
29.4157141342
 20
0.7499999084
 10
29.3442852173
 20
0.7499999084
 10
29.2014296494
 20
0.8214288254
 10
29.1300007324
 20
0.8928577423
 10
29.1300007324
 20
0.9642866592
  0
LWPOLYLINE
  5
2E7
100
AcDbEntity
  8
RACCORDO
100
AcDbPolyline
 62
253
  6
CONTINUOUS
 90
7
 70
0
 10
-22.2379958269
 20
9.4905
 10
-22.2340029662
 20
9.4914768667
 10
-22.2247570079
 20
9.492443384
 10
-22.2103559075
 20
9.4933893123
 10
-22.1909522366
 20
9.4943046299
 10
-22.166751566
 20
9.4951796397
 10
-22.1380102879
 20
9.4960050713
  0
LWPOLYLINE
  5
2E8
100
AcDbEntity
  8
RACCORDO
100
AcDbPolyline
 62
253
  6
CONTINUOUS
 90
9
 70
0
 10
22.2379958269
 20
9.4905
 10
22.2340029682
 20
9.4914768667
 10
22.2247570116
 20
9.4924433841
 10
22.2103559127
 20
9.4933893124
 10
22.1909522429
 20
9.4943046301
 10
22.166751573
 20
9.4951796399
 10
22.1380102953
 20
9.4960050715
 10
22.1050329074
 20
9.4967721801
 10
22.0278084851
 20
9.4980996237
  0
LWPOLYLINE
  5
2E9
100
AcDbEntity
  8
0
100
AcDbPolyline
 62
7
  6
CONTINUOUS
 90
10
 70
0
 43
0.3500000006
 10
0.9642857051
 20
31.3614431305
 10
1.035714268
 20
31.2185852966
 10
1.035714268
 20
31.1471586456
 10
0.8928571422
 20
31.0043008118
 10
0.8214285793
 20
31.0043008118
 10
0.7500000165
 20
31.0757274628
 10
0.7500000165
 20
31.1471586456
 10
0.8214285793
 20
31.2900119476
 10
0.8928571422
 20
31.3614431305
 10
0.9642857051
 20
31.3614431305
  0
LWPOLYLINE
  5
2EA
100
AcDbEntity
  8
RACCORDO
100
AcDbPolyline
 62
253
  6
CONTINUOUS
 90
8
 70
0
 10
21.7766513084
 20
22.0864799709
 10
21.7756293871
 20
22.0814535722
 10
21.7746275169
 20
22.0704577735
 10
21.773645698
 20
22.0535589575
 10
21.772678348
 20
22.0308586736
 10
21.7717310492
 20
22.0024936657
 10
21.7708205485
 20
21.968635596
 10
21.7691111237
 20
21.8852903227
  0
LWPOLYLINE
  5
2EB
100
AcDbEntity
  8
RACCORDO
100
AcDbPolyline
 62
253
  6
CONTINUOUS
 90
7
 70
0
 10
21.7708201249
 20
-21.9686332738
 10
21.7717307095
 20
-22.0024922519
 10
21.7726780577
 20
-22.0308580893
 10
21.7736454625
 20
-22.0535588376
 10
21.7746273547
 20
-22.070457797
 10
21.7756293033
 20
-22.0814536019
 10
21.7766513084
 20
-22.0864799709
  0
LINE
  5
2EC
100
AcDbEntity
  8
RACCORDO
100
AcDbLine
 62
253
  6
CONTINUOUS
 10
21.7640480307
 20
21.2362251476
 11
-21.7640480307
 21
21.2362251476
  0
LWPOLYLINE
  5
2ED
100
AcDbEntity
  8
RACCORDO
100
AcDbPolyline
 62
253
  6
CONTINUOUS
 90
10
 70
0
 10
22.2681527169
 20
-21.4614914897
 10
22.2689391127
 20
-21.4859859557
 10
22.2697777543
 20
-21.5082362811
 10
22.27065331
 20
-21.5278351628
 10
22.2715670101
 20
-21.5447313594
 10
22.2725176243
 20
-21.5589761122
 10
22.2734861298
 20
-21.5703158414
 10
22.2744661856
 20
-21.5786660206
 10
22.2754641326
 20
-21.5841111763
 10
22.2764799709
 20
-21.5866513084
  0
LINE
  5
2EE
100
AcDbEntity
  8
RACCORDO
100
AcDbLine
 62
253
  6
CONTINUOUS
 10
22.266738871
 20
-21.4056933754
 11
22.2681527169
 21
-21.4614914897
  0
LINE
  5
2EF
100
AcDbEntity
  8
RACCORDO
100
AcDbLine
 62
253
  6
CONTINUOUS
 10
21.7691102789
 20
-21.8852865879
 11
21.7708201249
 21
-21.9686332738
  0
LINE
  5
2F0
100
AcDbEntity
  8
RACCORDO
100
AcDbLine
 62
253
  6
CONTINUOUS
 10
22.2655711136
 20
-21.3424327347
 11
22.266738871
 21
-21.4056933754
  0
LINE
  5
2F1
100
AcDbEntity
  8
RACCORDO
100
AcDbLine
 62
253
  6
CONTINUOUS
 10
21.7669142997
 20
-21.7251528619
 11
21.7691102789
 21
-21.8852865879
  0
LINE
  5
2F2
100
AcDbEntity
  8
RACCORDO
100
AcDbLine
 62
253
  6
CONTINUOUS
 10
22.2646703475
 20
-21.2729143474
 11
22.2655711136
 21
-21.3424327347
  0
LINE
  5
2F3
100
AcDbEntity
  8
RACCORDO
100
AcDbLine
 62
253
  6
CONTINUOUS
 10
21.7648466646
 20
-21.4599830018
 11
21.7669142997
 21
-21.7251528619
  0
LINE
  5
2F4
100
AcDbEntity
  8
RACCORDO
100
AcDbLine
 62
253
  6
CONTINUOUS
 10
22.2638766932
 20
-21.1615238967
 11
22.2646703475
 21
-21.2729143474
  0
LINE
  5
2F5
100
AcDbEntity
  8
RACCORDO
100
AcDbLine
 62
253
  6
CONTINUOUS
 10
21.7476037732
 20
-16.0366548119
 11
21.7640480307
 21
-21.2362251476
  0
LINE
  5
2F6
100
AcDbEntity
  8
RACCORDO
100
AcDbLine
 62
253
  6
CONTINUOUS
 10
22.2474324428
 20
-15.9909275752
 11
22.2638766932
 21
-21.1615238967
  0
LINE
  5
2F7
100
AcDbEntity
  8
RACCORDO
100
AcDbLine
 62
253
  6
CONTINUOUS
 10
21.7640480307
 20
-21.2362251476
 11
21.7648466646
 21
-21.4599830018
  0
LINE
  5
2F8
100
AcDbEntity
  8
RACCORDO
100
AcDbLine
 62
253
  6
CONTINUOUS
 10
21.7390638437
 20
-10.809162614
 11
21.7476037732
 21
-16.0366548119
  0
LINE
  5
2F9
100
AcDbEntity
  8
RACCORDO
100
AcDbLine
 62
253
  6
CONTINUOUS
 10
22.2388924616
 20
-10.7928222982
 11
22.2474324428
 21
-15.9909275752
  0
LINE
  5
2FA
100
AcDbEntity
  8
RACCORDO
100
AcDbLine
 62
253
  6
CONTINUOUS
 10
21.735835169
 20
1.0555621241
 11
21.7390638437
 21
-10.809162614
  0
LINE
  5
2FB
100
AcDbEntity
  8
RACCORDO
100
AcDbLine
 62
253
  6
CONTINUOUS
 10
22.235663832
 20
1.0545216111
 11
22.2388924616
 21
-10.7928222982
  0
LINE
  5
2FC
100
AcDbEntity
  8
0
100
AcDbLine
 62
7
  6
CONTINUOUS
 10
22.3014422353
 20
21.6116135728
 11
22.3014422353
 21
-21.6116135728
  0
LINE
  5
2FD
100
AcDbEntity
  8
RACCORDO
100
AcDbLine
 62
253
  6
CONTINUOUS
 10
21.7423428018
 20
13.4252942234
 11
21.735835169
 21
1.0555621241
  0
LINE
  5
2FE
100
AcDbEntity
  8
RACCORDO
100
AcDbLine
 62
253
  6
CONTINUOUS
 10
22.2421714406
 20
13.3939726076
 11
22.235663832
 21
1.0545216111
  0
LINE
  5
2FF
100
AcDbEntity
  8
RACCORDO
100
AcDbLine
 62
253
  6
CONTINUOUS
 10
21.7548394573
 20
18.6410336052
 11
21.7423428018
 21
13.4252942234
  0
LINE
  5
300
100
AcDbEntity
  8
RACCORDO
100
AcDbLine
 62
253
  6
CONTINUOUS
 10
22.2546682314
 20
18.5804252298
 11
22.2421714406
 21
13.3939726076
  0
LINE
  5
301
100
AcDbEntity
  8
RACCORDO
100
AcDbLine
 62
253
  6
CONTINUOUS
 10
21.7652608966
 20
21.5306779274
 11
21.7548394573
 21
18.6410336052
  0
LINE
  5
302
100
AcDbEntity
  8
RACCORDO
100
AcDbLine
 62
253
  6
CONTINUOUS
 10
22.2643327731
 20
21.2368459471
 11
22.2546682314
 21
18.5804252298
  0
LINE
  5
303
100
AcDbEntity
  8
RACCORDO
100
AcDbLine
 62
253
  6
CONTINUOUS
 10
21.7669146285
 20
21.7251570648
 11
21.7652608966
 21
21.5306779274
  0
LINE
  5
304
100
AcDbEntity
  8
RACCORDO
100
AcDbLine
 62
253
  6
CONTINUOUS
 10
22.265084922
 20
21.3082533785
 11
22.2643327731
 21
21.2368459471
  0
LINE
  5
305
100
AcDbEntity
  8
RACCORDO
100
AcDbLine
 62
253
  6
CONTINUOUS
 10
21.7691111237
 20
21.8852903227
 11
21.7669146285
 21
21.7251570648
  0
LINE
  5
306
100
AcDbEntity
  8
RACCORDO
100
AcDbLine
 62
253
  6
CONTINUOUS
 10
22.2661242127
 20
21.3750566723
 11
22.265084922
 21
21.3082533785
  0
LINE
  5
307
100
AcDbEntity
  8
RACCORDO
100
AcDbLine
 62
253
  6
CONTINUOUS
 10
21.7766513084
 20
22.0864799709
 11
-21.7766513084
 21
22.0864799709
  0
LINE
  5
308
100
AcDbEntity
  8
0
100
AcDbLine
 62
7
  6
CONTINUOUS
 10
21.8016135728
 20
22.1114422353
 11
-21.8016135728
 21
22.1114422353
  0
LWPOLYLINE
  5
309
100
AcDbEntity
  8
RACCORDO
100
AcDbPolyline
 62
253
  6
CONTINUOUS
 90
16
 70
0
 10
22.2764799709
 20
21.5866513084
 10
22.2737085996
 20
21.6388735973
 10
22.2654963459
 20
21.690524463
 10
22.2519330371
 20
21.7410385151
 10
22.2331670751
 20
21.7898627998
 10
22.2094038183
 20
21.8364628405
 10
22.180903339
 20
21.8803284908
 10
22.1479775626
 20
21.9209795447
 10
22.1109868701
 20
21.957970966
 10
22.0703361707
 20
21.9908977572
 10
22.0264704213
 20
22.0193994387
 10
21.9798697895
 20
22.04316396
 10
21.9310444317
 20
22.0619311116
 10
21.8805288403
 20
22.075495413
 10
21.8288759856
 20
22.0837083472
 10
21.7766513085
 20
22.086479971
  0
LWPOLYLINE
  5
30A
100
AcDbEntity
  8
RACCORDO
100
AcDbPolyline
 62
253
  6
CONTINUOUS
 90
16
 70
0
 10
22.2764799709
 20
-21.5866513084
 10
22.2737084581
 20
-21.6388749344
 10
22.265495829
 20
-21.6905268861
 10
22.2519319847
 20
-21.741041747
 10
22.2331654038
 20
-21.7898665481
 10
22.2094015179
 20
-21.8364668208
 10
22.180900462
 20
-21.8803324477
 10
22.1479742276
 20
-21.9209832468
 10
22.110983247
 20
-21.9579742274
 10
22.070332448
 20
-21.9909004618
 10
22.026466821
 20
-22.0194015178
 10
21.9798665483
 20
-22.0431654038
 10
21.9310417472
 20
-22.0619319847
 10
21.8805268862
 20
-22.0754958291
 10
21.8288749345
 20
-22.0837084581
 10
21.7766513084
 20
-22.0864799709
  0
LWPOLYLINE
  5
30B
100
AcDbEntity
  8
0
100
AcDbPolyline
 62
7
  6
CONTINUOUS
 90
3
 70
0
 43
0.3500000006
 10
28.9871428986
 20
-0.5357137985
 10
28.9871428986
 20
-2.0357142563
 10
26.6299999695
 20
-1.3928574028
  0
LWPOLYLINE
  5
30C
100
AcDbEntity
  8
0
100
AcDbPolyline
 62
7
  6
CONTINUOUS
 90
3
 70
0
 43
0.3500000006
 10
28.9871428986
 20
-2.8928567276
 10
28.9871428986
 20
-4.3928571854
 10
26.6299999695
 20
-3.7500003319
  0
LWPOLYLINE
  5
30D
100
AcDbEntity
  8
0
100
AcDbPolyline
 62
7
  6
CONTINUOUS
 90
7
 70
0
 43
0.3500000006
 10
29.630000885
 20
3.5357140732
 10
29.630000885
 20
2.0357136154
 10
27.4871424408
 20
3.5357140732
 10
27.0585712051
 20
3.5357140732
 10
26.6299999695
 20
3.1071428375
 10
26.6299999695
 20
2.4642848511
 10
27.2728579559
 20
2.0357136154
  0
LWPOLYLINE
  5
30E
100
AcDbEntity
  8
RACCORDO
100
AcDbPolyline
 62
253
  6
CONTINUOUS
 90
16
 70
0
 10
22.263876693
 20
-21.1615238967
 10
22.2598961887
 20
-21.1692063518
 10
22.2506606727
 20
-21.1768073667
 10
22.2362680235
 20
-21.1842463858
 10
22.2168707748
 20
-21.19144457
 10
22.1926744993
 20
-21.1983256327
 10
22.1639356299
 20
-21.2048166483
 10
22.1309587422
 20
-21.2108488247
 10
22.0940933262
 20
-21.2163582328
 10
22.053730083
 20
-21.2212864835
 10
22.0102967834
 20
-21.2255813472
 10
21.9642537351
 20
-21.2291973067
 10
21.9160889038
 20
-21.2320960401
 10
21.866312742
 20
-21.2342468266
 10
21.8154527791
 20
-21.235626872
 10
21.7640480308
 20
-21.2362215505
  0
LWPOLYLINE
  5
30F
100
AcDbEntity
  8
0
100
AcDbPolyline
 62
7
  6
CONTINUOUS
 90
3
 70
0
 43
0.3500000006
 10
-0.5357142924
 20
31.5043009644
 10
-2.0357142191
 20
31.5043009644
 10
-1.3928570824
 20
33.8614438934
  0
LWPOLYLINE
  5
310
100
AcDbEntity
  8
0
100
AcDbPolyline
 62
7
  6
CONTINUOUS
 90
3
 70
0
 43
0.3500000006
 10
-2.8928572569
 20
31.5043009644
 10
-4.3928571482
 20
31.5043009644
 10
-3.7500000114
 20
33.8614438934
  0
LWPOLYLINE
  5
311
100
AcDbEntity
  8
RACCORDO
100
AcDbPolyline
 62
253
  6
CONTINUOUS
 90
16
 70
0
 10
22.2638766932
 20
21.1615238967
 10
22.2598974597
 20
21.1692066572
 10
22.250663019
 20
21.1768079927
 10
22.2362712413
 20
21.1842473412
 10
22.2168746564
 20
21.1914458576
 10
22.1926788368
 20
21.1983272491
 10
22.1639402194
 20
21.2048185843
 10
22.1309633874
 20
21.2108510651
 10
22.0940978422
 20
21.2163607572
 10
22.0537342993
 20
21.2212892666
 10
22.0103005474
 20
21.225584359
 10
21.9642569145
 20
21.2292005133
 10
21.9160913891
 20
21.2320994044
 10
21.8663144484
 20
21.2342503089
 10
21.815453648
 20
21.2356304304
 10
21.7640480307
 20
21.236225142
  0
LINE
  5
312
100
AcDbEntity
  8
RACCORDO
100
AcDbLine
 62
7
  6
CONTINUOUS
 10
-36.3134895629
 20
-22.0864799709
 11
-35.3602191453
 21
-22.1114422353
  0
LINE
  5
313
100
AcDbEntity
  8
0
100
AcDbLine
 62
7
  6
CONTINUOUS
 10
-36.3134895629
 20
-22.0864799709
 11
-35.3602191453
 21
-22.1114422353
  0
LINE
  5
314
100
AcDbEntity
  8
0
100
AcDbLine
 62
253
  6
CONTINUOUS
 10
-36.3134895629
 20
-21.5866513084
 11
-35.3602191453
 21
-21.6116135728
  0
LWPOLYLINE
  5
315
100
AcDbEntity
  8
RACCORDO
100
AcDbPolyline
 62
253
  6
CONTINUOUS
 90
4
 70
0
 10
-37.252743261
 20
-21.2320960401
 10
-37.265674142
 20
-21.2342468266
 10
-37.2734757133
 20
-21.235626872
 10
-37.2760652937
 20
-21.2362215505
  0
LINE
  5
316
100
AcDbEntity
  8
RACCORDO
100
AcDbLine
 62
253
  6
CONTINUOUS
 10
-37.1848077072
 20
-21.2212864835
 11
-37.252743261
 21
-21.2320960401
  0
LWPOLYLINE
  5
317
100
AcDbEntity
  8
RACCORDO
100
AcDbPolyline
 62
253
  6
CONTINUOUS
 90
3
 70
0
 10
-36.7947893199
 20
-21.1615238967
 10
-36.845529197
 20
-21.1692063518
 10
-37.1848077072
 20
-21.2212864835
  0
LINE
  5
318
100
AcDbEntity
  8
0
100
AcDbLine
 62
7
  6
CONTINUOUS
 10
-34.3602191453
 20
-13.2689805518
 11
-35.3602191453
 21
-13.3213883311
  0
LWPOLYLINE
  5
319
100
AcDbEntity
  8
0
100
AcDbPolyline
 62
7
  6
CONTINUOUS
 90
2
 70
0
 43
0.3500000006
 10
-43.3134320526
 20
30.8614429779
 10
-43.3134320526
 20
32.3614434357
  0
LINE
  5
31A
100
AcDbEntity
  8
RACCORDO
100
AcDbLine
 62
253
  6
CONTINUOUS
 10
-38.2673133183
 20
-9.499924109
 11
-38.2699609616
 21
-9.4999999993
  0
LINE
  5
31B
100
AcDbEntity
  8
RACCORDO
100
AcDbLine
 62
253
  6
CONTINUOUS
 10
-37.7831397311
 20
-9.4905
 11
-38.2673133183
 21
-9.499924109
  0
LINE
  5
31C
100
AcDbEntity
  8
0
100
AcDbLine
 62
7
  6
CONTINUOUS
 10
-34.3602191453
 20
-9.7310194482
 11
-35.3602191453
 21
-9.6786116689
  0
LWPOLYLINE
  5
31D
100
AcDbEntity
  8
RACCORDO
100
AcDbPolyline
 62
253
  6
CONTINUOUS
 90
10
 70
0
 10
-36.7947893199
 20
21.1615238967
 10
-36.9800378363
 20
19.8719852003
 10
-37.1464462898
 20
18.5804252298
 10
-37.2940146804
 20
17.2868439853
 10
-37.4227668591
 20
15.9909603469
 10
-37.5326789749
 20
14.6930554344
 10
-37.6236794753
 20
13.3939726076
 10
-37.6957445093
 20
12.0939929862
 10
-37.7488979279
 20
10.7928354503
 10
-37.7831397311
 20
9.4905
  0
LWPOLYLINE
  5
31E
100
AcDbEntity
  8
RACCORDO
100
AcDbPolyline
 62
253
  6
CONTINUOUS
 90
19
 70
0
 10
-36.7947893199
 20
-21.1615238967
 10
-36.7874799305
 20
-21.1996934077
 10
-36.7773771195
 20
-21.2368235579
 10
-36.7644808868
 20
-21.2729143474
 10
-36.7486781613
 20
-21.3081932214
 10
-36.7300820142
 20
-21.3424327347
 10
-36.7090316594
 20
-21.3749505517
 10
-36.6854871619
 20
-21.4056933754
 10
-36.6594884568
 20
-21.4347145028
 10
-36.6314945627
 20
-21.4614914897
 10
-36.6014633202
 20
-21.4859859557
 10
-36.5694368887
 20
-21.5082362811
 10
-36.5360007655
 20
-21.5278351628
 10
-36.5011079657
 20
-21.5447313594
 10
-36.4648054742
 20
-21.5589761122
 10
-36.427819743
 20
-21.5703158414
 10
-36.3903929227
 20
-21.5786660206
 10
-36.3522828627
 20
-21.5841111763
 10
-36.3134895629
 20
-21.5866513084
  0
LWPOLYLINE
  5
31F
100
AcDbEntity
  8
RACCORDO
100
AcDbPolyline
 62
253
  6
CONTINUOUS
 90
10
 70
0
 10
-37.7831397311
 20
-9.4905
 10
-37.7488986331
 20
-10.7928222982
 10
-37.6957458448
 20
-12.0939699785
 10
-37.6236813661
 20
-13.393943041
 10
-37.5326814816
 20
-14.693022617
 10
-37.4227699067
 20
-15.9909275752
 10
-37.2940177885
 20
-17.2868145217
 10
-37.1464488424
 20
-18.5804023251
 10
-36.9800393529
 20
-19.8719721168
 10
-36.7947893199
 20
-21.1615238967
  0
LWPOLYLINE
  5
320
100
AcDbEntity
  8
RACCORDO
100
AcDbPolyline
 62
253
  6
CONTINUOUS
 90
10
 70
0
 10
-37.7831397311
 20
9.4905
 10
-37.8187618404
 20
7.381529647
 10
-37.8454784246
 20
5.2725447223
 10
-37.8632894839
 20
3.1635452259
 10
-37.8721950212
 20
1.0545216111
 10
-37.8721950336
 20
-1.0545165753
 10
-37.8632895117
 20
-3.1635406936
 10
-37.8454784524
 20
-5.2725411972
 10
-37.8187618589
 20
-7.3815276327
 10
-37.7831397311
 20
-9.4905
  0
LINE
  5
321
100
AcDbEntity
  8
RACCORDO
100
AcDbLine
 62
253
  6
CONTINUOUS
 10
-36.3134895629
 20
21.5866513084
 11
-36.3159219495
 21
21.690524463
  0
LINE
  5
322
100
AcDbEntity
  8
RACCORDO
100
AcDbLine
 62
253
  6
CONTINUOUS
 10
-36.3159219495
 20
21.690524463
 11
-36.3176766353
 21
21.7898627998
  0
LWPOLYLINE
  5
323
100
AcDbEntity
  8
RACCORDO
100
AcDbPolyline
 62
253
  6
CONTINUOUS
 90
11
 70
0
 10
-36.3176766353
 20
21.7898627998
 10
-36.3186769834
 20
21.8803284908
 10
-36.3188792756
 20
21.9209795447
 10
-36.3188792943
 20
21.957970966
 10
-36.3186770371
 20
21.9908977572
 10
-36.3182747161
 20
22.0193994387
 10
-36.3176767337
 20
22.04316396
 10
-36.3168896352
 20
22.0619311116
 10
-36.3159220359
 20
22.075495413
 10
-36.314784527
 20
22.0837083472
 10
-36.3134895596
 20
22.086479971
  0
LWPOLYLINE
  5
324
100
AcDbEntity
  8
RACCORDO
100
AcDbPolyline
 62
253
  6
CONTINUOUS
 90
9
 70
0
 10
-36.3188793106
 20
-21.9209832468
 10
-36.3188793104
 20
-21.9579742274
 10
-36.3186770353
 20
-21.9909004618
 10
-36.3182746996
 20
-22.0194015178
 10
-36.3176767074
 20
-22.0431654038
 10
-36.3168896052
 20
-22.0619319847
 10
-36.3159220092
 20
-22.0754958291
 10
-36.3147845111
 20
-22.0837084581
 10
-36.3134895629
 20
-22.0864799709
  0
LINE
  5
325
100
AcDbEntity
  8
0
100
AcDbLine
 62
7
  6
CONTINUOUS
 10
-35.3602191453
 20
-22.1114422353
 11
-35.3602191453
 21
22.1114422353
  0
LINE
  5
326
100
AcDbEntity
  8
RACCORDO
100
AcDbLine
 62
253
  6
CONTINUOUS
 10
-36.3182747008
 20
-21.8364668208
 11
-36.3188793106
 21
-21.9209832468
  0
LINE
  5
327
100
AcDbEntity
  8
RACCORDO
100
AcDbLine
 62
253
  6
CONTINUOUS
 10
-36.316889607
 20
-21.741041747
 11
-36.3182747008
 21
-21.8364668208
  0
LWPOLYLINE
  5
328
100
AcDbEntity
  8
RACCORDO
100
AcDbPolyline
 62
253
  6
CONTINUOUS
 90
3
 70
0
 10
-36.3134895629
 20
-21.5866513084
 10
-36.3147845121
 20
-21.6388749344
 10
-36.316889607
 20
-21.741041747
  0
LINE
  5
329
100
AcDbEntity
  8
0
100
AcDbLine
 62
253
  6
CONTINUOUS
 10
-34.7392847628
 20
-13.288846539
 11
-34.7392847628
 21
-9.711153461
  0
LINE
  5
32A
100
AcDbEntity
  8
0
100
AcDbLine
 62
253
  6
CONTINUOUS
 10
-34.7392847628
 20
9.711153461
 11
-34.7392847628
 21
13.288846539
  0
LINE
  5
32B
100
AcDbEntity
  8
0
100
AcDbLine
 62
7
  6
CONTINUOUS
 10
-34.3602191453
 20
-13.2689805518
 11
-34.3602191453
 21
-9.7310194482
  0
LINE
  5
32C
100
AcDbEntity
  8
0
100
AcDbLine
 62
7
  6
CONTINUOUS
 10
-34.3602191453
 20
9.7310194482
 11
-34.3602191453
 21
13.2689805518
  0
LINE
  5
32D
100
AcDbEntity
  8
0
100
AcDbLine
 62
7
  6
CONTINUOUS
 10
-34.3602191453
 20
9.7310194482
 11
-35.3602191453
 21
9.6786116689
  0
LWPOLYLINE
  5
32E
100
AcDbEntity
  8
RACCORDO
100
AcDbPolyline
 62
253
  6
CONTINUOUS
 90
3
 70
0
 10
-37.7831397311
 20
9.4905
 10
-38.2673133544
 20
9.4999241097
 10
-38.2699609981
 20
9.5
  0
LINE
  5
32F
100
AcDbEntity
  8
0
100
AcDbLine
 62
7
  6
CONTINUOUS
 10
-34.3602191453
 20
13.2689805518
 11
-35.3602191453
 21
13.3213883311
  0
LWPOLYLINE
  5
330
100
AcDbEntity
  8
RACCORDO
100
AcDbPolyline
 62
253
  6
CONTINUOUS
 90
19
 70
0
 10
-36.3134895629
 20
21.5866513084
 10
-36.3522732724
 20
21.5841100213
 10
-36.3903699535
 20
21.5786680472
 10
-36.4277796063
 20
21.5703253861
 10
-36.4647419344
 20
21.558997784
 10
-36.5010172342
 20
21.5447694949
 10
-36.5358863945
 20
21.5278932804
 10
-36.5693013485
 20
21.5083229654
 10
-36.601310163
 20
21.4861047249
 10
-36.6313379276
 20
21.4616298466
 10
-36.6593517503
 20
21.4348517581
 10
-36.6853845231
 20
21.4058170317
 10
-36.7089600124
 20
21.3750566723
 10
-36.7300331109
 20
21.3425178419
 10
-36.7486489258
 20
21.3082533785
 10
-36.7644665454
 20
21.2729528004
 10
-36.7773723323
 20
21.2368459471
 10
-36.7874799238
 20
21.1997029793
 10
-36.7947893199
 20
21.1615238967
  0
LINE
  5
331
100
AcDbEntity
  8
0
100
AcDbLine
 62
253
  6
CONTINUOUS
 10
-35.3602191453
 20
21.6116135728
 11
-36.3134895629
 21
21.5866513084
  0
LINE
  5
332
100
AcDbEntity
  8
RACCORDO
100
AcDbLine
 62
7
  6
CONTINUOUS
 10
-35.3602191453
 20
22.1114422353
 11
-36.3134895596
 21
22.086479971
  0
LINE
  5
333
100
AcDbEntity
  8
0
100
AcDbLine
 62
7
  6
CONTINUOUS
 10
-35.3602191453
 20
22.1114422353
 11
-36.3134895629
 21
22.0864799709
  0
LWPOLYLINE
  5
334
100
AcDbEntity
  8
0
100
AcDbPolyline
 62
7
  6
CONTINUOUS
 90
3
 70
0
 43
0.3500000006
 10
-42.8134319
 20
31.5043009644
 10
-44.3134323578
 20
31.5043009644
 10
-43.6705743713
 20
33.8614438934
  0
LINE
  5
335
100
AcDbEntity
  8
RACCORDO
100
AcDbLine
 62
253
  6
CONTINUOUS
 10
-36.7947893199
 20
21.1615238967
 11
-37.1532651247
 21
21.2163607572
  0
LWPOLYLINE
  5
336
100
AcDbEntity
  8
RACCORDO
100
AcDbPolyline
 62
253
  6
CONTINUOUS
 90
6
 70
0
 10
-37.1532651247
 20
21.2163607572
 10
-37.2348412707
 20
21.2292005133
 10
-37.2527654695
 20
21.2320994044
 10
-37.2656971397
 20
21.2342503089
 10
-37.2734992265
 20
21.2356304304
 10
-37.2760890402
 20
21.236225142
  0
ARC
  5
337
100
AcDbEntity
  8
RACCORDO
100
AcDbCircle
 62
7
  6
CONTINUOUS
 10
461.6397808547
 20
0.0
 40
500.0
100
AcDbArc
 50
178.91131468
 51
181.08868532
  0
ARC
  5
338
100
AcDbEntity
  8
RACCORDO
100
AcDbCircle
 62
7
  6
CONTINUOUS
 10
51.7137925348
 20
-7.79
 40
90.0
100
AcDbArc
 50
181.08868532
 51
188.592302252
  0
ARC
  5
339
100
AcDbEntity
  8
RACCORDO
100
AcDbCircle
 62
7
  6
CONTINUOUS
 10
51.7137925348
 20
7.79
 40
90.0
100
AcDbArc
 50
171.407697748
 51
178.91131468
  0
ARC
  5
33A
100
AcDbEntity
  8
RACCORDO
100
AcDbCircle
 62
7
  6
CONTINUOUS
 10
-36.2873126146
 20
-21.0868226459
 40
1.0
100
AcDbArc
 50
188.592302252
 51
268.5
  0
ARC
  5
33B
100
AcDbEntity
  8
RACCORDO
100
AcDbCircle
 62
7
  6
CONTINUOUS
 10
-36.2873126146
 20
21.0868226459
 40
1.0
100
AcDbArc
 50
91.5
 51
171.407697748
  0
ELLIPSE
  5
33C
100
AcDbEntity
  8
0
100
AcDbEllipse
 62
7
  6
CONTINUOUS
 10
21.801270839
 20
21.611270839
 30
0.0
 11
-0.35379574
 21
-0.35379574
 31
0.0
 40
0.999315002
 41
2.3565371065
 42
3.9266482006
  0
ELLIPSE
  5
33D
100
AcDbEntity
  8
0
100
AcDbEllipse
 62
7
  6
CONTINUOUS
 10
21.801270839
 20
-21.611270839
 30
0.0
 11
-0.35379574
 21
0.35379574
 31
0.0
 40
0.999315002
 41
-3.9266482006
 42
-2.3565371065
  0
ELLIPSE
  5
33E
100
AcDbEntity
  8
0
100
AcDbEllipse
 62
7
  6
CONTINUOUS
 10
-21.801270839
 20
-21.611270839
 30
0.0
 11
0.35379574
 21
0.35379574
 31
0.0
 40
0.999315002
 41
2.3565371065
 42
3.9266482006
  0
ELLIPSE
  5
33F
100
AcDbEntity
  8
0
100
AcDbEllipse
 62
7
  6
CONTINUOUS
 10
-21.801270839
 20
21.611270839
 30
0.0
 11
-0.35379574
 21
0.35379574
 31
0.0
 40
0.999315002
 41
-0.7850555471
 42
0.7850555471
  0
ENDSEC
  0
SECTION
  2
OBJECTS
  0
DICTIONARY
  5
C
100
AcDbDictionary
280
0
281
1
  3
ACAD_GROUP
350
D
  3
ACAD_MLINESTYLE
350
17
  3
ACAD_LAYOUT
350
1A
  3
ACAD_PLOTSETTINGS
350
19
  3
ACAD_PLOTSTYLENAME
350
E
  0
DICTIONARY
  5
D
102
{ACAD_REACTORS
330
C
102
}
100
AcDbDictionary
280
0
281
1
  0
ACDBDICTIONARYWDFLT
  5
E
102
{ACAD_REACTORS
330
C
102
}
100
AcDbDictionary
281
1
  3
Normal
350
F
100
AcDbDictionaryWithDefault
340
F
  0
DICTIONARY
  5
17
102
{ACAD_REACTORS
330
C
102
}
100
AcDbDictionary
280
0
281
1
  3
Standard
350
18
  0
DICTIONARY
  5
19
102
{ACAD_REACTORS
330
C
102
}
100
AcDbDictionary
281
1
  0
DICTIONARY
  5
1A
102
{ACAD_REACTORS
330
C
102
}
100
AcDbDictionary
281
1
  3
Model
350
340
  3
Layout1
350
341
  0
ACDBPLACEHOLDER
  5
F
102
{ACAD_REACTORS
330
E
102
}
  0
MLINESTYLE
  5
18
102
{ACAD_REACTORS
330
17
102
}
100
AcDbMlineStyle
  2
STANDARD
 70
0
  3

 62
256
 51
90.0
 52
90.0
 71
2
 49
0.5
 62
256
  6
BYLAYER
 49
-0.5
 62
256
  6
BYLAYER
  0
LAYOUT
  5
340
102
{ACAD_REACTORS
330
1A
102
}
100
AcDbPlotSettings
  1

  2
none_device
  4
ISO_A4_(297.00_x_210.00_MM)
  6

 40
0.0
 41
0.0
 42
0.0
 43
0.0
 44
297.0
 45
210.0
 46
0.0
 47
0.0
 48
0.0
 49
0.0
140
0.0
141
0.0
142
1.0
143
1.0
 70
1024
 72
1
 73
0
 74
0
  7

 75
0
147
1.0
148
0.0
149
0.0
100
AcDbLayout
  1
Model
 70
0
 71
0
 10
0.0
 20
0.0
 11
297.0
 21
210.0
 12
0.0
 22
0.0
 32
0.0
 14
0.0
 24
0.0
 34
0.0
 15
0.0
 25
0.0
 35
0.0
146
0.0
 13
0.0
 23
0.0
 33
0.0
 16
1.0
 26
0.0
 36
0.0
 17
0.0
 27
1.0
 37
0.0
 76
0
330
218
345
0
346
0
  0
LAYOUT
  5
341
102
{ACAD_REACTORS
330
1A
102
}
100
AcDbPlotSettings
  1

  2
none_device
  4
ISO_A4_(297.00_x_210.00_MM)
  6

 40
0.0
 41
0.0
 42
0.0
 43
0.0
 44
297.0
 45
210.0
 46
0.0
 47
0.0
 48
0.0
 49
0.0
140
0.0
141
0.0
142
1.0
143
1.0
 70
0
 72
1
 73
0
 74
0
  7

 75
0
147
1.0
148
0.0
149
0.0
100
AcDbLayout
  1
Layout1
 70
0
 71
1
 10
0.0
 20
0.0
 11
297.0
 21
210.0
 12
0.0
 22
0.0
 32
0.0
 14
0.0
 24
0.0
 34
0.0
 15
0.0
 25
0.0
 35
0.0
146
0.0
 13
0.0
 23
0.0
 33
0.0
 16
1.0
 26
0.0
 36
0.0
 17
0.0
 27
1.0
 37
0.0
 76
0
330
219
345
0
346
0
  0
ENDSEC
  0
EOF
